  0
SECTION
  2
HEADER
  9
$ACADVER
  1
AC1014
  9
$ACADMAINTVER
 70
     9
  9
$DWGCODEPAGE
  3
ANSI_932
  9
$INSBASE
 10
0.0
 20
0.0
 30
0.0
  9
$EXTMIN
 10
-0.9999999999999908
 20
13.5
 30
0.0
  9
$EXTMAX
 10
199.9999999999998
 20
288.5
 30
0.0
  9
$LIMMIN
 10
0.0
 20
0.0
  9
$LIMMAX
 10
210.0
 20
297.0
  9
$ORTHOMODE
 70
     0
  9
$REGENMODE
 70
     1
  9
$FILLMODE
 70
     1
  9
$QTEXTMODE
 70
     0
  9
$MIRRTEXT
 70
     1
  9
$DRAGMODE
 70
     2
  9
$LTSCALE
 40
1.0
  9
$OSMODE
 70
    37
  9
$ATTMODE
 70
     1
  9
$TEXTSIZE
 40
2.5
  9
$TRACEWID
 40
1.0
  9
$TEXTSTYLE
  7
STANDARD
  9
$CLAYER
  8
0
  9
$CELTYPE
  6
BYLAYER
  9
$CECOLOR
 62
   256
  9
$CELTSCALE
 40
1.0
  9
$DELOBJ
 70
     1
  9
$DISPSILH
 70
     0
  9
$DIMSCALE
 40
1.0
  9
$DIMASZ
 40
2.5
  9
$DIMEXO
 40
0.625
  9
$DIMDLI
 40
3.75
  9
$DIMRND
 40
0.0
  9
$DIMDLE
 40
0.0
  9
$DIMEXE
 40
1.25
  9
$DIMTP
 40
0.0
  9
$DIMTM
 40
0.0
  9
$DIMTXT
 40
2.5
  9
$DIMCEN
 40
2.5
  9
$DIMTSZ
 40
0.0
  9
$DIMTOL
 70
     0
  9
$DIMLIM
 70
     0
  9
$DIMTIH
 70
     0
  9
$DIMTOH
 70
     0
  9
$DIMSE1
 70
     0
  9
$DIMSE2
 70
     0
  9
$DIMTAD
 70
     1
  9
$DIMZIN
 70
     8
  9
$DIMBLK
  1

  9
$DIMASO
 70
     1
  9
$DIMSHO
 70
     1
  9
$DIMPOST
  1

  9
$DIMAPOST
  1

  9
$DIMALT
 70
     0
  9
$DIMALTD
 70
     3
  9
$DIMALTF
 40
0.03937007874016
  9
$DIMLFAC
 40
1.0
  9
$DIMTOFL
 70
     1
  9
$DIMTVP
 40
0.0
  9
$DIMTIX
 70
     0
  9
$DIMSOXD
 70
     0
  9
$DIMSAH
 70
     0
  9
$DIMBLK1
  1

  9
$DIMBLK2
  1

  9
$DIMSTYLE
  2
ISO-25
  9
$DIMCLRD
 70
     0
  9
$DIMCLRE
 70
     0
  9
$DIMCLRT
 70
     0
  9
$DIMTFAC
 40
1.0
  9
$DIMGAP
 40
0.625
  9
$DIMJUST
 70
     0
  9
$DIMSD1
 70
     0
  9
$DIMSD2
 70
     0
  9
$DIMTOLJ
 70
     0
  9
$DIMTZIN
 70
     8
  9
$DIMALTZ
 70
     0
  9
$DIMALTTZ
 70
     0
  9
$DIMFIT
 70
     3
  9
$DIMUPT
 70
     0
  9
$DIMUNIT
 70
     2
  9
$DIMDEC
 70
     2
  9
$DIMTDEC
 70
     2
  9
$DIMALTU
 70
     2
  9
$DIMALTTD
 70
     3
  9
$DIMTXSTY
  7
STANDARD
  9
$DIMAUNIT
 70
     0
  9
$LUNITS
 70
     2
  9
$LUPREC
 70
     4
  9
$SKETCHINC
 40
1.0
  9
$FILLETRAD
 40
10.0
  9
$AUNITS
 70
     0
  9
$AUPREC
 70
     0
  9
$MENU
  1
.
  9
$ELEVATION
 40
0.0
  9
$PELEVATION
 40
0.0
  9
$THICKNESS
 40
0.0
  9
$LIMCHECK
 70
     0
  9
$CHAMFERA
 40
10.0
  9
$CHAMFERB
 40
10.0
  9
$CHAMFERC
 40
20.0
  9
$CHAMFERD
 40
0.0
  9
$SKPOLY
 70
     0
  9
$TDCREATE
 40
2457659.598568217
  9
$TDUPDATE
 40
2457659.598568403
  9
$TDINDWG
 40
0.0000000116
  9
$TDUSRTIMER
 40
0.0000000116
  9
$USRTIMER
 70
     1
  9
$ANGBASE
 50
0.0
  9
$ANGDIR
 70
     0
  9
$PDMODE
 70
     0
  9
$PDSIZE
 40
0.0
  9
$PLINEWID
 40
0.0
  9
$COORDS
 70
     1
  9
$SPLFRAME
 70
     0
  9
$SPLINETYPE
 70
     6
  9
$SPLINESEGS
 70
     8
  9
$ATTDIA
 70
     0
  9
$ATTREQ
 70
     1
  9
$HANDLING
 70
     1
  9
$HANDSEED
  5
6A2
  9
$SURFTAB1
 70
     6
  9
$SURFTAB2
 70
     6
  9
$SURFTYPE
 70
     6
  9
$SURFU
 70
     6
  9
$SURFV
 70
     6
  9
$UCSNAME
  2

  9
$UCSORG
 10
0.0
 20
0.0
 30
0.0
  9
$UCSXDIR
 10
1.0
 20
0.0
 30
0.0
  9
$UCSYDIR
 10
0.0
 20
1.0
 30
0.0
  9
$PUCSNAME
  2

  9
$PUCSORG
 10
0.0
 20
0.0
 30
0.0
  9
$PUCSXDIR
 10
1.0
 20
0.0
 30
0.0
  9
$PUCSYDIR
 10
0.0
 20
1.0
 30
0.0
  9
$USERI1
 70
     0
  9
$USERI2
 70
     0
  9
$USERI3
 70
     0
  9
$USERI4
 70
     0
  9
$USERI5
 70
     0
  9
$USERR1
 40
0.0
  9
$USERR2
 40
0.0
  9
$USERR3
 40
0.0
  9
$USERR4
 40
0.0
  9
$USERR5
 40
0.0
  9
$WORLDVIEW
 70
     1
  9
$SHADEDGE
 70
     3
  9
$SHADEDIF
 70
    70
  9
$TILEMODE
 70
     1
  9
$MAXACTVP
 70
    64
  9
$PINSBASE
 10
0.0
 20
0.0
 30
0.0
  9
$PLIMCHECK
 70
     0
  9
$PEXTMIN
 10
1.000000000000000E+20
 20
1.000000000000000E+20
 30
1.000000000000000E+20
  9
$PEXTMAX
 10
-1.000000000000000E+20
 20
-1.000000000000000E+20
 30
-1.000000000000000E+20
  9
$PLIMMIN
 10
0.0
 20
0.0
  9
$PLIMMAX
 10
420.0
 20
297.0
  9
$UNITMODE
 70
     0
  9
$VISRETAIN
 70
     1
  9
$PLINEGEN
 70
     0
  9
$PSLTSCALE
 70
     1
  9
$TREEDEPTH
 70
  3020
  9
$PICKSTYLE
 70
     1
  9
$CMLSTYLE
  2
STANDARD
  9
$CMLJUST
 70
     0
  9
$CMLSCALE
 40
20.0
  9
$PROXYGRAPHICS
 70
     1
  9
$MEASUREMENT
 70
     1
  0
ENDSEC
  0
SECTION
  2
CLASSES
  0
CLASS
  1
ACDBDICTIONARYWDFLT
  2
AcDbDictionaryWithDefault
  3
ObjectDBX Classes
 90
        0
280
     0
281
     0
  0
CLASS
  1
VISUALSTYLE
  2
AcDbVisualStyle
  3
ObjectDBX Classes
 90
     4095
280
     0
281
     0
  0
CLASS
  1
MATERIAL
  2
AcDbMaterial
  3
ObjectDBX Classes
 90
     1153
280
     0
281
     0
  0
CLASS
  1
SUN
  2
AcDbSun
  3
SCENEOE
 90
     1024
280
     0
281
     0
  0
CLASS
  1
DICTIONARYVAR
  2
AcDbDictionaryVar
  3
ObjectDBX Classes
 90
        0
280
     0
281
     0
  0
CLASS
  1
XRECORD
  2
AcDbXrecord
  3
AutoCAD 2000
 90
        0
280
     0
281
     0
  0
CLASS
  1
LWPOLYLINE
  2
AcDbPolyline
  3
AutoCAD 2000
 90
        0
280
     0
281
     1
  0
CLASS
  1
HATCH
  2
AcDbHatch
  3
AutoCAD 2000
 90
        0
280
     0
281
     1
  0
CLASS
  1
ACDBPLACEHOLDER
  2
AcDbPlaceHolder
  3
ObjectDBX Classes
 90
        0
280
     0
281
     0
  0
CLASS
  1
LAYOUT
  2
AcDbLayout
  3
ObjectDBX Classes
 90
        0
280
     0
281
     0
  0
ENDSEC
  0
SECTION
  2
TABLES
  0
TABLE
  2
VPORT
  5
8
330
0
100
AcDbSymbolTable
 70
     1
  0
VPORT
  5
29
330
8
100
AcDbSymbolTableRecord
100
AcDbViewportTableRecord
  2
*ACTIVE
 70
     0
 10
0.0
 20
0.0
 11
1.0
 21
1.0
 12
99.49999999999989
 22
151.0
 13
0.0
 23
0.0
 14
10.0
 24
10.0
 15
10.0
 25
10.0
 16
0.0
 26
0.0
 36
1.0
 17
0.0
 27
0.0
 37
0.0
 40
275.0
 41
0.7309090909090901
 42
50.0
 43
0.0
 44
0.0
 50
0.0
 51
0.0
 71
     0
 72
  1000
 73
     1
 74
     3
 75
     0
 76
     0
 77
     0
 78
     0
  0
ENDTAB
  0
TABLE
  2
LTYPE
  5
5
330
0
100
AcDbSymbolTable
 70
     7
  0
LTYPE
  5
14
330
5
100
AcDbSymbolTableRecord
100
AcDbLinetypeTableRecord
  2
BYBLOCK
 70
     0
  3

 72
    65
 73
     0
 40
0.0
  0
LTYPE
  5
15
330
5
100
AcDbSymbolTableRecord
100
AcDbLinetypeTableRecord
  2
BYLAYER
 70
     0
  3

 72
    65
 73
     0
 40
0.0
  0
LTYPE
  5
16
330
5
100
AcDbSymbolTableRecord
100
AcDbLinetypeTableRecord
  2
CONTINUOUS
 70
     0
  3
Solid line
 72
    65
 73
     0
 40
0.0
  0
LTYPE
  5
40
330
5
100
AcDbSymbolTableRecord
100
AcDbLinetypeTableRecord
  2
EXLTYPE1
 70
     0
  3
破線
 72
    65
 73
     2
 40
3.0
 49
2.0
 74
     0
 49
-1.0
 74
     0
  0
LTYPE
  5
41
330
5
100
AcDbSymbolTableRecord
100
AcDbLinetypeTableRecord
  2
EXLTYPE2
 70
     0
  3
点線
 72
    65
 73
     2
 40
2.0
 49
1.0
 74
     0
 49
-1.0
 74
     0
  0
LTYPE
  5
42
330
5
100
AcDbSymbolTableRecord
100
AcDbLinetypeTableRecord
  2
EXLTYPE3
 70
     0
  3
一点鎖線
 72
    65
 73
     4
 40
10.0
 49
7.0
 74
     0
 49
-1.0
 74
     0
 49
1.0
 74
     0
 49
-1.0
 74
     0
  0
LTYPE
  5
43
330
5
100
AcDbSymbolTableRecord
100
AcDbLinetypeTableRecord
  2
EXLTYPE4
 70
     0
  3
二点鎖線
 72
    65
 73
     6
 40
12.0
 49
7.0
 74
     0
 49
-1.0
 74
     0
 49
1.0
 74
     0
 49
-1.0
 74
     0
 49
1.0
 74
     0
 49
-1.0
 74
     0
  0
LTYPE
  5
44
330
5
100
AcDbSymbolTableRecord
100
AcDbLinetypeTableRecord
  2
EXLTYPE5
 70
     0
  3
三点鎖線
 72
    65
 73
     8
 40
37.0
 49
30.0
 74
     0
 49
-1.0
 74
     0
 49
1.0
 74
     0
 49
-1.0
 74
     0
 49
1.0
 74
     0
 49
-1.0
 74
     0
 49
1.0
 74
     0
 49
-1.0
 74
     0
  0
LTYPE
  5
45
330
5
100
AcDbSymbolTableRecord
100
AcDbLinetypeTableRecord
  2
EXLTYPE6
 70
     0
  3
四点鎖線
 72
    65
 73
    10
 40
39.0
 49
30.0
 74
     0
 49
-1.0
 74
     0
 49
1.0
 74
     0
 49
-1.0
 74
     0
 49
1.0
 74
     0
 49
-1.0
 74
     0
 49
1.0
 74
     0
 49
-1.0
 74
     0
 49
1.0
 74
     0
 49
-1.0
 74
     0
  0
ENDTAB
  0
TABLE
  2
LAYER
  5
2
330
0
100
AcDbSymbolTable
 70
     7
  0
LAYER
  5
10
330
2
100
AcDbSymbolTableRecord
100
AcDbLayerTableRecord
  2
0
 70
     0
 62
     7
  6
CONTINUOUS
  0
LAYER
  5
48
330
2
100
AcDbSymbolTableRecord
100
AcDbLayerTableRecord
  2
枠_表
 70
     0
 62
     7
  6
CONTINUOUS
  0
LAYER
  5
49
330
2
100
AcDbSymbolTableRecord
100
AcDbLayerTableRecord
  2
化粧台
 70
     0
 62
     7
  6
CONTINUOUS
  0
LAYER
  5
4A
330
2
100
AcDbSymbolTableRecord
100
AcDbLayerTableRecord
  2
鏡台
 70
     0
 62
     7
  6
CONTINUOUS
  0
LAYER
  5
4B
330
2
100
AcDbSymbolTableRecord
100
AcDbLayerTableRecord
  2
付属金具
 70
     0
 62
     7
  6
CONTINUOUS
  0
LAYER
  5
4C
330
2
100
AcDbSymbolTableRecord
100
AcDbLayerTableRecord
  2
寸法
 70
     0
 62
     7
  6
CONTINUOUS
  0
LAYER
  5
506
330
2
100
AcDbSymbolTableRecord
100
AcDbLayerTableRecord
  2
DEFPOINTS
 70
     0
 62
     7
  6
CONTINUOUS
  0
ENDTAB
  0
TABLE
  2
STYLE
  5
3
330
0
100
AcDbSymbolTable
 70
     5
  0
STYLE
  5
11
330
3
100
AcDbSymbolTableRecord
100
AcDbTextStyleTableRecord
  2
STANDARD
 70
     0
 40
0.0
 41
1.0
 50
0.0
 71
     0
 42
2.5
  3
monotxt
  4
extfont
  0
STYLE
  5
46
330
3
100
AcDbSymbolTableRecord
100
AcDbTextStyleTableRecord
  2
EXCADSTD
 70
     0
 40
0.0
 41
1.0
 50
0.0
 71
     0
 42
0.2
  3
monotxt
  4
extfont
  0
STYLE
  5
47
330
3
100
AcDbSymbolTableRecord
100
AcDbTextStyleTableRecord
  2
EXCADVERT
 70
     4
 40
0.0
 41
1.0
 50
0.0
 71
     0
 42
0.286885
  3
monotxt
  4
extfont
  0
STYLE
  5
10E
330
3
100
AcDbSymbolTableRecord
100
AcDbTextStyleTableRecord
  2
EXCADTTF1
 70
     0
 40
0.0
 41
1.0
 50
0.0
 71
     0
 42
0.2
  3
MSGOTHIC.TTC
  4

1001
ACAD
1000
MS Gothic
1071
    32817
  0
STYLE
  5
504
330
3
100
AcDbSymbolTableRecord
100
AcDbTextStyleTableRecord
  2
EXCADDIM1
 70
     0
 40
0.0
 41
0.84
 50
0.0
 71
     0
 42
0.2
  3
monotxt
  4
extfont
  0
ENDTAB
  0
TABLE
  2
VIEW
  5
6
330
0
100
AcDbSymbolTable
 70
     0
  0
ENDTAB
  0
TABLE
  2
UCS
  5
7
330
0
100
AcDbSymbolTable
 70
     0
  0
ENDTAB
  0
TABLE
  2
APPID
  5
9
330
0
100
AcDbSymbolTable
 70
     1
  0
APPID
  5
12
330
9
100
AcDbSymbolTableRecord
100
AcDbRegAppTableRecord
  2
ACAD
 70
     0
  0
ENDTAB
  0
TABLE
  2
DIMSTYLE
  5
A
330
0
100
AcDbSymbolTable
 70
     1
  0
DIMSTYLE
105
27
102
{ACAD_REACTORS
330
505
330
512
330
51F
330
52B
330
537
330
543
330
552
330
55F
330
56C
330
579
330
588
330
595
330
5A2
330
5B5
330
5C2
330
5D1
330
5DE
330
5ED
330
5FC
330
60B
330
618
330
624
330
633
330
641
330
64D
330
65A
330
667
102
}
330
A
100
AcDbSymbolTableRecord
100
AcDbDimStyleTableRecord
  2
ISO-25
 70
     0
  3

  4

  5

  6

  7

 40
1.0
 41
2.5
 42
0.625
 43
3.75
 44
1.25
 45
0.0
 46
0.0
 47
0.0
 48
0.0
140
2.5
141
2.5
142
0.0
143
0.03937007874016
144
1.0
145
0.0
146
1.0
147
0.625
 71
     0
 72
     0
 73
     0
 74
     0
 75
     0
 76
     0
 77
     1
 78
     8
170
     0
171
     3
172
     1
173
     0
174
     0
175
     0
176
     0
177
     0
178
     0
270
     2
271
     2
272
     2
273
     2
274
     3
340
11
275
     0
280
     0
281
     0
282
     0
283
     0
284
     8
285
     0
286
     0
287
     5
288
     0
  0
ENDTAB
  0
TABLE
  2
BLOCK_RECORD
  5
1
330
0
100
AcDbSymbolTable
 70
    42
  0
BLOCK_RECORD
  5
1F
330
1
100
AcDbSymbolTableRecord
100
AcDbBlockTableRecord
  2
*MODEL_SPACE
  0
BLOCK_RECORD
  5
1B
330
1
100
AcDbSymbolTableRecord
100
AcDbBlockTableRecord
  2
*PAPER_SPACE
  0
BLOCK_RECORD
  5
4D
330
1
100
AcDbSymbolTableRecord
100
AcDbBlockTableRecord
  2
EX_NORM
  0
BLOCK_RECORD
  5
50
330
1
100
AcDbSymbolTableRecord
100
AcDbBlockTableRecord
  2
EX_BNORM
  0
BLOCK_RECORD
  5
53
330
1
100
AcDbSymbolTableRecord
100
AcDbBlockTableRecord
  2
EX_BCIR
  0
BLOCK_RECORD
  5
56
330
1
100
AcDbSymbolTableRecord
100
AcDbBlockTableRecord
  2
EX_RCIVIL
  0
BLOCK_RECORD
  5
59
330
1
100
AcDbSymbolTableRecord
100
AcDbBlockTableRecord
  2
EX_SLANT
  0
BLOCK_RECORD
  5
5C
330
1
100
AcDbSymbolTableRecord
100
AcDbBlockTableRecord
  2
EX_NONE
  0
BLOCK_RECORD
  5
5F
330
1
100
AcDbSymbolTableRecord
100
AcDbBlockTableRecord
  2
EX_CIVIL
  0
BLOCK_RECORD
  5
62
330
1
100
AcDbSymbolTableRecord
100
AcDbBlockTableRecord
  2
EX_WCIR
  0
BLOCK_RECORD
  5
65
330
1
100
AcDbSymbolTableRecord
100
AcDbBlockTableRecord
  2
EX_WCIR2
  0
BLOCK_RECORD
  5
68
330
1
100
AcDbSymbolTableRecord
100
AcDbBlockTableRecord
  2
EX_WNORM
  0
BLOCK_RECORD
  5
6B
330
1
100
AcDbSymbolTableRecord
100
AcDbBlockTableRecord
  2
EX_NNORM
  0
BLOCK_RECORD
  5
6E
330
1
100
AcDbSymbolTableRecord
100
AcDbBlockTableRecord
  2
EX_BBOX
  0
BLOCK_RECORD
  5
71
330
1
100
AcDbSymbolTableRecord
100
AcDbBlockTableRecord
  2
EX_WBOX
  0
BLOCK_RECORD
  5
74
330
1
100
AcDbSymbolTableRecord
100
AcDbBlockTableRecord
  2
EX_INTEGRAL
  0
BLOCK_RECORD
  5
507
330
1
100
AcDbSymbolTableRecord
100
AcDbBlockTableRecord
  2
*D15
  0
BLOCK_RECORD
  5
513
330
1
100
AcDbSymbolTableRecord
100
AcDbBlockTableRecord
  2
*D16
  0
BLOCK_RECORD
  5
520
330
1
100
AcDbSymbolTableRecord
100
AcDbBlockTableRecord
  2
*D17
  0
BLOCK_RECORD
  5
52C
330
1
100
AcDbSymbolTableRecord
100
AcDbBlockTableRecord
  2
*D18
  0
BLOCK_RECORD
  5
538
330
1
100
AcDbSymbolTableRecord
100
AcDbBlockTableRecord
  2
*D19
  0
BLOCK_RECORD
  5
544
330
1
100
AcDbSymbolTableRecord
100
AcDbBlockTableRecord
  2
*D20
  0
BLOCK_RECORD
  5
553
330
1
100
AcDbSymbolTableRecord
100
AcDbBlockTableRecord
  2
*D21
  0
BLOCK_RECORD
  5
560
330
1
100
AcDbSymbolTableRecord
100
AcDbBlockTableRecord
  2
*D22
  0
BLOCK_RECORD
  5
56D
330
1
100
AcDbSymbolTableRecord
100
AcDbBlockTableRecord
  2
*D23
  0
BLOCK_RECORD
  5
57A
330
1
100
AcDbSymbolTableRecord
100
AcDbBlockTableRecord
  2
*D24
  0
BLOCK_RECORD
  5
589
330
1
100
AcDbSymbolTableRecord
100
AcDbBlockTableRecord
  2
*D25
  0
BLOCK_RECORD
  5
596
330
1
100
AcDbSymbolTableRecord
100
AcDbBlockTableRecord
  2
*D26
  0
BLOCK_RECORD
  5
5A3
330
1
100
AcDbSymbolTableRecord
100
AcDbBlockTableRecord
  2
*D27
  0
BLOCK_RECORD
  5
5B6
330
1
100
AcDbSymbolTableRecord
100
AcDbBlockTableRecord
  2
*D28
  0
BLOCK_RECORD
  5
5C3
330
1
100
AcDbSymbolTableRecord
100
AcDbBlockTableRecord
  2
*D29
  0
BLOCK_RECORD
  5
5D2
330
1
100
AcDbSymbolTableRecord
100
AcDbBlockTableRecord
  2
*D30
  0
BLOCK_RECORD
  5
5DF
330
1
100
AcDbSymbolTableRecord
100
AcDbBlockTableRecord
  2
*D31
  0
BLOCK_RECORD
  5
5EE
330
1
100
AcDbSymbolTableRecord
100
AcDbBlockTableRecord
  2
*D32
  0
BLOCK_RECORD
  5
5FD
330
1
100
AcDbSymbolTableRecord
100
AcDbBlockTableRecord
  2
*D33
  0
BLOCK_RECORD
  5
60C
330
1
100
AcDbSymbolTableRecord
100
AcDbBlockTableRecord
  2
*D34
  0
BLOCK_RECORD
  5
619
330
1
100
AcDbSymbolTableRecord
100
AcDbBlockTableRecord
  2
*D35
  0
BLOCK_RECORD
  5
625
330
1
100
AcDbSymbolTableRecord
100
AcDbBlockTableRecord
  2
*D36
  0
BLOCK_RECORD
  5
634
330
1
100
AcDbSymbolTableRecord
100
AcDbBlockTableRecord
  2
*D37
  0
BLOCK_RECORD
  5
642
330
1
100
AcDbSymbolTableRecord
100
AcDbBlockTableRecord
  2
*D38
  0
BLOCK_RECORD
  5
64E
330
1
100
AcDbSymbolTableRecord
100
AcDbBlockTableRecord
  2
*D39
  0
BLOCK_RECORD
  5
65B
330
1
100
AcDbSymbolTableRecord
100
AcDbBlockTableRecord
  2
*D40
  0
BLOCK_RECORD
  5
668
330
1
100
AcDbSymbolTableRecord
100
AcDbBlockTableRecord
  2
*D41
  0
ENDTAB
  0
ENDSEC
  0
SECTION
  2
BLOCKS
  0
BLOCK
  5
20
330
1F
100
AcDbEntity
  8
0
100
AcDbBlockBegin
  2
*MODEL_SPACE
 70
     0
 10
0.0
 20
0.0
 30
0.0
  3
*MODEL_SPACE
  1

  0
ENDBLK
  5
21
330
1F
100
AcDbEntity
  8
0
100
AcDbBlockEnd
  0
BLOCK
  5
1C
330
1B
100
AcDbEntity
 67
     1
  8
0
100
AcDbBlockBegin
  2
*PAPER_SPACE
 70
     0
 10
0.0
 20
0.0
 30
0.0
  3
*PAPER_SPACE
  1

  0
ENDBLK
  5
1D
330
1B
100
AcDbEntity
 67
     1
  8
0
100
AcDbBlockEnd
  0
BLOCK
  5
4E
330
4D
100
AcDbEntity
  8
0
100
AcDbBlockBegin
  2
EX_NORM
 70
     0
 10
0.0
 20
0.0
 30
0.0
  3
EX_NORM
  1

  0
LINE
  5
77
330
4D
100
AcDbEntity
  8
0
  6
CONTINUOUS
 62
     0
100
AcDbLine
 10
0.0
 20
0.0
 30
0.0
 11
-1.0
 21
0.0
 31
0.0
  0
LINE
  5
78
330
4D
100
AcDbEntity
  8
0
  6
CONTINUOUS
 62
     0
100
AcDbLine
 10
0.0
 20
0.0
 30
0.0
 11
-1.0
 21
0.166666667
 31
0.0
  0
LINE
  5
79
330
4D
100
AcDbEntity
  8
0
  6
CONTINUOUS
 62
     0
100
AcDbLine
 10
0.0
 20
0.0
 30
0.0
 11
-1.0
 21
-0.166666667
 31
0.0
  0
ENDBLK
  5
4F
330
4D
100
AcDbEntity
  8
0
100
AcDbBlockEnd
  0
BLOCK
  5
51
330
50
100
AcDbEntity
  8
0
100
AcDbBlockBegin
  2
EX_BNORM
 70
     0
 10
0.0
 20
0.0
 30
0.0
  3
EX_BNORM
  1

  0
LINE
  5
7A
330
50
100
AcDbEntity
  8
0
  6
CONTINUOUS
 62
     0
100
AcDbLine
 10
0.0
 20
0.0
 30
0.0
 11
-1.0
 21
0.0
 31
0.0
  0
LINE
  5
7B
330
50
100
AcDbEntity
  8
0
  6
CONTINUOUS
 62
     0
100
AcDbLine
 10
0.0
 20
0.0
 30
0.0
 11
-1.0
 21
0.166666667
 31
0.0
  0
LINE
  5
7C
330
50
100
AcDbEntity
  8
0
  6
CONTINUOUS
 62
     0
100
AcDbLine
 10
0.0
 20
0.0
 30
0.0
 11
-1.0
 21
-0.166666667
 31
0.0
  0
LINE
  5
7D
330
50
100
AcDbEntity
  8
0
  6
CONTINUOUS
 62
     0
100
AcDbLine
 10
0.0
 20
0.0
 30
0.0
 11
-1.0
 21
0.083333333
 31
0.0
  0
LINE
  5
7E
330
50
100
AcDbEntity
  8
0
  6
CONTINUOUS
 62
     0
100
AcDbLine
 10
0.0
 20
0.0
 30
0.0
 11
-1.0
 21
-0.083333333
 31
0.0
  0
LINE
  5
7F
330
50
100
AcDbEntity
  8
0
  6
CONTINUOUS
 62
     0
100
AcDbLine
 10
-1.0
 20
0.166666667
 30
0.0
 11
-1.0
 21
-0.166666667
 31
0.0
  0
ENDBLK
  5
52
330
50
100
AcDbEntity
  8
0
100
AcDbBlockEnd
  0
BLOCK
  5
54
330
53
100
AcDbEntity
  8
0
100
AcDbBlockBegin
  2
EX_BCIR
 70
     0
 10
0.0
 20
0.0
 30
0.0
  3
EX_BCIR
  1

  0
LINE
  5
80
330
53
100
AcDbEntity
  8
0
  6
CONTINUOUS
 62
     0
100
AcDbLine
 10
0.0
 20
0.0
 30
0.0
 11
-1.0
 21
0.0
 31
0.0
  0
CIRCLE
  5
81
330
53
100
AcDbEntity
  8
0
  6
CONTINUOUS
 62
     0
100
AcDbCircle
 10
0.0
 20
0.0
 30
0.0
 40
0.5
  0
CIRCLE
  5
82
330
53
100
AcDbEntity
  8
0
  6
CONTINUOUS
 62
     0
100
AcDbCircle
 10
0.0
 20
0.0
 30
0.0
 40
0.25
  0
ENDBLK
  5
55
330
53
100
AcDbEntity
  8
0
100
AcDbBlockEnd
  0
BLOCK
  5
57
330
56
100
AcDbEntity
  8
0
100
AcDbBlockBegin
  2
EX_RCIVIL
 70
     0
 10
0.0
 20
0.0
 30
0.0
  3
EX_RCIVIL
  1

  0
LINE
  5
83
330
56
100
AcDbEntity
  8
0
  6
CONTINUOUS
 62
     0
100
AcDbLine
 10
0.0
 20
0.0
 30
0.0
 11
-1.0
 21
0.0
 31
0.0
  0
LINE
  5
84
330
56
100
AcDbEntity
  8
0
  6
CONTINUOUS
 62
     0
100
AcDbLine
 10
-1.0
 20
-0.25
 30
0.0
 11
0.0
 21
-0.25
 31
0.0
  0
LINE
  5
85
330
56
100
AcDbEntity
  8
0
  6
CONTINUOUS
 62
     0
100
AcDbLine
 10
-1.0
 20
-0.125
 30
0.0
 11
0.0
 21
-0.125
 31
0.0
  0
ENDBLK
  5
58
330
56
100
AcDbEntity
  8
0
100
AcDbBlockEnd
  0
BLOCK
  5
5A
330
59
100
AcDbEntity
  8
0
100
AcDbBlockBegin
  2
EX_SLANT
 70
     0
 10
0.0
 20
0.0
 30
0.0
  3
EX_SLANT
  1

  0
LINE
  5
86
330
59
100
AcDbEntity
  8
0
  6
CONTINUOUS
 62
     0
100
AcDbLine
 10
0.0
 20
0.0
 30
0.0
 11
-1.0
 21
0.0
 31
0.0
  0
LINE
  5
87
330
59
100
AcDbEntity
  8
0
  6
CONTINUOUS
 62
     0
100
AcDbLine
 10
0.707106781
 20
0.707106781
 30
0.0
 11
-0.707106781
 21
-0.707106781
 31
0.0
  0
ENDBLK
  5
5B
330
59
100
AcDbEntity
  8
0
100
AcDbBlockEnd
  0
BLOCK
  5
5D
330
5C
100
AcDbEntity
  8
0
100
AcDbBlockBegin
  2
EX_NONE
 70
     0
 10
0.0
 20
0.0
 30
0.0
  3
EX_NONE
  1

  0
LINE
  5
88
330
5C
100
AcDbEntity
  8
0
  6
CONTINUOUS
 62
     0
100
AcDbLine
 10
0.0
 20
0.0
 30
0.0
 11
-1.0
 21
0.0
 31
0.0
  0
ENDBLK
  5
5E
330
5C
100
AcDbEntity
  8
0
100
AcDbBlockEnd
  0
BLOCK
  5
60
330
5F
100
AcDbEntity
  8
0
100
AcDbBlockBegin
  2
EX_CIVIL
 70
     0
 10
0.0
 20
0.0
 30
0.0
  3
EX_CIVIL
  1

  0
LINE
  5
89
330
5F
100
AcDbEntity
  8
0
  6
CONTINUOUS
 62
     0
100
AcDbLine
 10
0.0
 20
0.0
 30
0.0
 11
-1.0
 21
0.0
 31
0.0
  0
LINE
  5
8A
330
5F
100
AcDbEntity
  8
0
  6
CONTINUOUS
 62
     0
100
AcDbLine
 10
-1.0
 20
0.25
 30
0.0
 11
0.0
 21
0.25
 31
0.0
  0
LINE
  5
8B
330
5F
100
AcDbEntity
  8
0
  6
CONTINUOUS
 62
     0
100
AcDbLine
 10
-1.0
 20
0.125
 30
0.0
 11
0.0
 21
0.125
 31
0.0
  0
ENDBLK
  5
61
330
5F
100
AcDbEntity
  8
0
100
AcDbBlockEnd
  0
BLOCK
  5
63
330
62
100
AcDbEntity
  8
0
100
AcDbBlockBegin
  2
EX_WCIR
 70
     0
 10
0.0
 20
0.0
 30
0.0
  3
EX_WCIR
  1

  0
LINE
  5
8C
330
62
100
AcDbEntity
  8
0
  6
CONTINUOUS
 62
     0
100
AcDbLine
 10
0.0
 20
0.0
 30
0.0
 11
-1.0
 21
0.0
 31
0.0
  0
CIRCLE
  5
8D
330
62
100
AcDbEntity
  8
0
  6
CONTINUOUS
 62
     0
100
AcDbCircle
 10
0.0
 20
0.0
 30
0.0
 40
0.5
  0
ENDBLK
  5
64
330
62
100
AcDbEntity
  8
0
100
AcDbBlockEnd
  0
BLOCK
  5
66
330
65
100
AcDbEntity
  8
0
100
AcDbBlockBegin
  2
EX_WCIR2
 70
     0
 10
0.0
 20
0.0
 30
0.0
  3
EX_WCIR2
  1

  0
LINE
  5
8E
330
65
100
AcDbEntity
  8
0
  6
CONTINUOUS
 62
     0
100
AcDbLine
 10
-0.5
 20
0.0
 30
0.0
 11
-1.0
 21
0.0
 31
0.0
  0
CIRCLE
  5
8F
330
65
100
AcDbEntity
  8
0
  6
CONTINUOUS
 62
     0
100
AcDbCircle
 10
0.0
 20
0.0
 30
0.0
 40
0.5
  0
ENDBLK
  5
67
330
65
100
AcDbEntity
  8
0
100
AcDbBlockEnd
  0
BLOCK
  5
69
330
68
100
AcDbEntity
  8
0
100
AcDbBlockBegin
  2
EX_WNORM
 70
     0
 10
0.0
 20
0.0
 30
0.0
  3
EX_WNORM
  1

  0
LINE
  5
90
330
68
100
AcDbEntity
  8
0
  6
CONTINUOUS
 62
     0
100
AcDbLine
 10
-1.0
 20
0.0
 30
0.0
 11
-1.0
 21
0.0
 31
0.0
  0
LINE
  5
91
330
68
100
AcDbEntity
  8
0
  6
CONTINUOUS
 62
     0
100
AcDbLine
 10
0.0
 20
0.0
 30
0.0
 11
-1.0
 21
0.166666667
 31
0.0
  0
LINE
  5
92
330
68
100
AcDbEntity
  8
0
  6
CONTINUOUS
 62
     0
100
AcDbLine
 10
0.0
 20
0.0
 30
0.0
 11
-1.0
 21
-0.166666667
 31
0.0
  0
LINE
  5
93
330
68
100
AcDbEntity
  8
0
  6
CONTINUOUS
 62
     0
100
AcDbLine
 10
-1.0
 20
0.166666667
 30
0.0
 11
-1.0
 21
-0.166666667
 31
0.0
  0
ENDBLK
  5
6A
330
68
100
AcDbEntity
  8
0
100
AcDbBlockEnd
  0
BLOCK
  5
6C
330
6B
100
AcDbEntity
  8
0
100
AcDbBlockBegin
  2
EX_NNORM
 70
     0
 10
0.0
 20
0.0
 30
0.0
  3
EX_NNORM
  1

  0
LINE
  5
94
330
6B
100
AcDbEntity
  8
0
  6
CONTINUOUS
 62
     0
100
AcDbLine
 10
0.0
 20
0.0
 30
0.0
 11
-1.0
 21
0.0
 31
0.0
  0
LINE
  5
95
330
6B
100
AcDbEntity
  8
0
  6
CONTINUOUS
 62
     0
100
AcDbLine
 10
0.0
 20
0.0
 30
0.0
 11
-1.0
 21
0.166666667
 31
0.0
  0
LINE
  5
96
330
6B
100
AcDbEntity
  8
0
  6
CONTINUOUS
 62
     0
100
AcDbLine
 10
0.0
 20
0.0
 30
0.0
 11
-1.0
 21
-0.166666667
 31
0.0
  0
LINE
  5
97
330
6B
100
AcDbEntity
  8
0
  6
CONTINUOUS
 62
     0
100
AcDbLine
 10
-1.0
 20
0.166666667
 30
0.0
 11
-1.0
 21
-0.166666667
 31
0.0
  0
ENDBLK
  5
6D
330
6B
100
AcDbEntity
  8
0
100
AcDbBlockEnd
  0
BLOCK
  5
6F
330
6E
100
AcDbEntity
  8
0
100
AcDbBlockBegin
  2
EX_BBOX
 70
     0
 10
0.0
 20
0.0
 30
0.0
  3
EX_BBOX
  1

  0
LINE
  5
98
330
6E
100
AcDbEntity
  8
0
  6
CONTINUOUS
 62
     0
100
AcDbLine
 10
0.0
 20
0.0
 30
0.0
 11
-1.0
 21
0.0
 31
0.0
  0
LINE
  5
99
330
6E
100
AcDbEntity
  8
0
  6
CONTINUOUS
 62
     0
100
AcDbLine
 10
-0.5
 20
0.5
 30
0.0
 11
0.5
 21
0.5
 31
0.0
  0
LINE
  5
9A
330
6E
100
AcDbEntity
  8
0
  6
CONTINUOUS
 62
     0
100
AcDbLine
 10
0.5
 20
0.5
 30
0.0
 11
0.5
 21
-0.5
 31
0.0
  0
LINE
  5
9B
330
6E
100
AcDbEntity
  8
0
  6
CONTINUOUS
 62
     0
100
AcDbLine
 10
0.5
 20
-0.5
 30
0.0
 11
-0.5
 21
-0.5
 31
0.0
  0
LINE
  5
9C
330
6E
100
AcDbEntity
  8
0
  6
CONTINUOUS
 62
     0
100
AcDbLine
 10
-0.5
 20
-0.5
 30
0.0
 11
-0.5
 21
0.5
 31
0.0
  0
LINE
  5
9D
330
6E
100
AcDbEntity
  8
0
  6
CONTINUOUS
 62
     0
100
AcDbLine
 10
-0.25
 20
0.25
 30
0.0
 11
0.25
 21
0.25
 31
0.0
  0
LINE
  5
9E
330
6E
100
AcDbEntity
  8
0
  6
CONTINUOUS
 62
     0
100
AcDbLine
 10
0.25
 20
0.25
 30
0.0
 11
0.25
 21
-0.25
 31
0.0
  0
LINE
  5
9F
330
6E
100
AcDbEntity
  8
0
  6
CONTINUOUS
 62
     0
100
AcDbLine
 10
0.25
 20
-0.25
 30
0.0
 11
-0.25
 21
-0.25
 31
0.0
  0
LINE
  5
A0
330
6E
100
AcDbEntity
  8
0
  6
CONTINUOUS
 62
     0
100
AcDbLine
 10
-0.25
 20
-0.25
 30
0.0
 11
-0.25
 21
0.25
 31
0.0
  0
ENDBLK
  5
70
330
6E
100
AcDbEntity
  8
0
100
AcDbBlockEnd
  0
BLOCK
  5
72
330
71
100
AcDbEntity
  8
0
100
AcDbBlockBegin
  2
EX_WBOX
 70
     0
 10
0.0
 20
0.0
 30
0.0
  3
EX_WBOX
  1

  0
LINE
  5
A1
330
71
100
AcDbEntity
  8
0
  6
CONTINUOUS
 62
     0
100
AcDbLine
 10
-0.5
 20
0.0
 30
0.0
 11
-1.0
 21
0.0
 31
0.0
  0
LINE
  5
A2
330
71
100
AcDbEntity
  8
0
  6
CONTINUOUS
 62
     0
100
AcDbLine
 10
-0.5
 20
0.5
 30
0.0
 11
0.5
 21
0.5
 31
0.0
  0
LINE
  5
A3
330
71
100
AcDbEntity
  8
0
  6
CONTINUOUS
 62
     0
100
AcDbLine
 10
0.5
 20
0.5
 30
0.0
 11
0.5
 21
-0.5
 31
0.0
  0
LINE
  5
A4
330
71
100
AcDbEntity
  8
0
  6
CONTINUOUS
 62
     0
100
AcDbLine
 10
0.5
 20
-0.5
 30
0.0
 11
-0.5
 21
-0.5
 31
0.0
  0
LINE
  5
A5
330
71
100
AcDbEntity
  8
0
  6
CONTINUOUS
 62
     0
100
AcDbLine
 10
-0.5
 20
-0.5
 30
0.0
 11
-0.5
 21
0.5
 31
0.0
  0
ENDBLK
  5
73
330
71
100
AcDbEntity
  8
0
100
AcDbBlockEnd
  0
BLOCK
  5
75
330
74
100
AcDbEntity
  8
0
100
AcDbBlockBegin
  2
EX_INTEGRAL
 70
     0
 10
0.0
 20
0.0
 30
0.0
  3
EX_INTEGRAL
  1

  0
LINE
  5
A6
330
74
100
AcDbEntity
  8
0
  6
CONTINUOUS
 62
     0
100
AcDbLine
 10
0.0
 20
0.0
 30
0.0
 11
-1.0
 21
0.0
 31
0.0
  0
ARC
  5
A7
330
74
100
AcDbEntity
  8
0
  6
CONTINUOUS
 62
     0
100
AcDbCircle
 10
0.542115
 20
0.164992
 30
0.0
 40
0.56667
100
AcDbArc
 50
73.07249033629006
 51
196.9275130221199
  0
ARC
  5
A8
330
74
100
AcDbEntity
  8
0
  6
CONTINUOUS
 62
     0
100
AcDbCircle
 10
-0.542115
 20
-0.164992
 30
0.0
 40
0.56667
100
AcDbArc
 50
253.0724869220464
 51
16.9275130559125
  0
ENDBLK
  5
76
330
74
100
AcDbEntity
  8
0
100
AcDbBlockEnd
  0
BLOCK
  5
508
330
507
100
AcDbEntity
  8
0
100
AcDbBlockBegin
  2
*D15
 70
     1
 10
0.0
 20
0.0
 30
0.0
  3
*D15
  1

  0
LINE
  5
50A
330
507
100
AcDbEntity
  8
寸法
  6
CONTINUOUS
 62
     3
100
AcDbLine
 10
649.9999999999989
 20
4151.999996185303
 30
0.0
 11
649.9999999999989
 21
4183.0
 31
0.0
  0
LINE
  5
50B
330
507
100
AcDbEntity
  8
寸法
  6
CONTINUOUS
 62
     3
100
AcDbLine
 10
694.9999961853016
 20
4168.0
 30
0.0
 11
1145.000003814692
 21
4168.0
 31
0.0
  0
INSERT
  5
50C
330
507
100
AcDbEntity
  8
寸法
 62
     3
100
AcDbBlockReference
  2
EX_NORM
 10
649.9999999999989
 20
4168.0
 30
0.0
 41
44.99999618530273
 42
44.99999618530273
 43
44.99999618530273
 50
180.0
  0
INSERT
  5
50D
330
507
100
AcDbEntity
  8
寸法
 62
     3
100
AcDbBlockReference
  2
EX_NORM
 10
1189.999999999995
 20
4168.0
 30
0.0
 41
44.99999618530273
 42
44.99999618530273
 43
44.99999618530273
  0
MTEXT
  5
50E
330
507
100
AcDbEntity
  8
寸法
 62
     2
100
AcDbMText
 10
919.9999999999982
 20
4203.249999910593
 30
0.0
 40
59.99999618530273
 41
0.0
 71
     5
 72
     1
  1
540（壁固定）
  7
EXCADDIM1
  0
POINT
  5
50F
330
507
100
AcDbEntity
  8
DEFPOINTS
 62
     0
100
AcDbPoint
 10
649.9999999999989
 20
4005.5
 30
0.0
  0
POINT
  5
510
330
507
100
AcDbEntity
  8
DEFPOINTS
 62
     0
100
AcDbPoint
 10
1189.999999999995
 20
4005.5
 30
0.0
  0
POINT
  5
511
330
507
100
AcDbEntity
  8
DEFPOINTS
 62
     0
100
AcDbPoint
 10
1189.999999999995
 20
4168.0
 30
0.0
  0
ENDBLK
  5
509
330
507
100
AcDbEntity
  8
0
100
AcDbBlockEnd
  0
BLOCK
  5
514
330
513
100
AcDbEntity
  8
0
100
AcDbBlockBegin
  2
*D16
 70
     1
 10
0.0
 20
0.0
 30
0.0
  3
*D16
  1

  0
LINE
  5
516
330
513
100
AcDbEntity
  8
寸法
  6
CONTINUOUS
 62
     3
100
AcDbLine
 10
544.9999999999989
 20
3512.098404741813
 30
0.0
 11
544.9999999999989
 21
3373.0
 31
0.0
  0
LINE
  5
517
330
513
100
AcDbEntity
  8
寸法
  6
CONTINUOUS
 62
     3
100
AcDbLine
 10
1294.999999999993
 20
3512.098404741813
 30
0.0
 11
1294.999999999993
 21
3373.0
 31
0.0
  0
LINE
  5
518
330
513
100
AcDbEntity
  8
寸法
  6
CONTINUOUS
 62
     3
100
AcDbLine
 10
589.9999961853016
 20
3388.0
 30
0.0
 11
1250.000003814691
 21
3388.0
 31
0.0
  0
INSERT
  5
519
330
513
100
AcDbEntity
  8
寸法
 62
     3
100
AcDbBlockReference
  2
EX_NORM
 10
544.9999999999989
 20
3388.0
 30
0.0
 41
44.99999618530273
 42
44.99999618530273
 43
44.99999618530273
 50
180.0
  0
INSERT
  5
51A
330
513
100
AcDbEntity
  8
寸法
 62
     3
100
AcDbBlockReference
  2
EX_NORM
 10
1294.999999999993
 20
3388.0
 30
0.0
 41
44.99999618530273
 42
44.99999618530273
 43
44.99999618530273
  0
MTEXT
  5
51B
330
513
100
AcDbEntity
  8
寸法
 62
     2
100
AcDbMText
 10
919.9999999999964
 20
3423.249999910593
 30
0.0
 40
59.99999618530273
 41
0.0
 71
     5
 72
     1
  1
750
  7
EXCADDIM1
  0
POINT
  5
51C
330
513
100
AcDbEntity
  8
DEFPOINTS
 62
     0
100
AcDbPoint
 10
544.9999999999989
 20
3522.598404562999
 30
0.0
  0
POINT
  5
51D
330
513
100
AcDbEntity
  8
DEFPOINTS
 62
     0
100
AcDbPoint
 10
1294.999999999993
 20
3522.598404562999
 30
0.0
  0
POINT
  5
51E
330
513
100
AcDbEntity
  8
DEFPOINTS
 62
     0
100
AcDbPoint
 10
1294.999999999993
 20
3388.0
 30
0.0
  0
ENDBLK
  5
515
330
513
100
AcDbEntity
  8
0
100
AcDbBlockEnd
  0
BLOCK
  5
521
330
520
100
AcDbEntity
  8
0
100
AcDbBlockBegin
  2
*D17
 70
     1
 10
0.0
 20
0.0
 30
0.0
  3
*D17
  1

  0
LINE
  5
523
330
520
100
AcDbEntity
  8
寸法
  6
CONTINUOUS
 62
     3
100
AcDbLine
 10
930.4999998211849
 20
3493.0
 30
0.0
 11
1414.999999999994
 21
3493.0
 31
0.0
  0
LINE
  5
524
330
520
100
AcDbEntity
  8
寸法
  6
CONTINUOUS
 62
     3
100
AcDbLine
 10
1399.999999999994
 20
3537.999996185303
 30
0.0
 11
1399.999999999994
 21
3928.000003814697
 31
0.0
  0
INSERT
  5
525
330
520
100
AcDbEntity
  8
寸法
 62
     3
100
AcDbBlockReference
  2
EX_NORM
 10
1399.999999999994
 20
3493.0
 30
0.0
 41
44.99999618530273
 42
44.99999618530273
 43
44.99999618530273
 50
270.0
  0
INSERT
  5
526
330
520
100
AcDbEntity
  8
寸法
 62
     3
100
AcDbBlockReference
  2
EX_NORM
 10
1399.999999999994
 20
3973.0
 30
0.0
 41
44.99999618530273
 42
44.99999618530273
 43
44.99999618530273
 50
90.0
  0
MTEXT
  5
527
330
520
100
AcDbEntity
  8
寸法
 62
     2
100
AcDbMText
 10
1364.750000089402
 20
3733.0
 30
0.0
 40
59.99999618530273
 41
0.0
 71
     5
 72
     1
  1
480
  7
EXCADDIM1
 11
0.0
 21
1.0
 31
0.0
  0
POINT
  5
528
330
520
100
AcDbEntity
  8
DEFPOINTS
 62
     0
100
AcDbPoint
 10
919.9999999999989
 20
3493.0
 30
0.0
  0
POINT
  5
529
330
520
100
AcDbEntity
  8
DEFPOINTS
 62
     0
100
AcDbPoint
 10
1294.999999999993
 20
3973.0
 30
0.0
  0
POINT
  5
52A
330
520
100
AcDbEntity
  8
DEFPOINTS
 62
     0
100
AcDbPoint
 10
1399.999999999994
 20
3973.0
 30
0.0
  0
ENDBLK
  5
522
330
520
100
AcDbEntity
  8
0
100
AcDbBlockEnd
  0
BLOCK
  5
52D
330
52C
100
AcDbEntity
  8
0
100
AcDbBlockBegin
  2
*D18
 70
     1
 10
0.0
 20
0.0
 30
0.0
  3
*D18
  1

  0
LINE
  5
52F
330
52C
100
AcDbEntity
  8
寸法
  6
CONTINUOUS
 62
     3
100
AcDbLine
 10
930.4999998211849
 20
1678.5
 30
0.0
 11
1462.499999999996
 21
1678.5
 31
0.0
  0
LINE
  5
530
330
52C
100
AcDbEntity
  8
寸法
  6
CONTINUOUS
 62
     3
100
AcDbLine
 10
1447.499999999996
 20
943.4999961853028
 30
0.0
 11
1447.499999999996
 21
1633.500003814697
 31
0.0
  0
INSERT
  5
531
330
52C
100
AcDbEntity
  8
寸法
 62
     3
100
AcDbBlockReference
  2
EX_NORM
 10
1447.499999999996
 20
898.5000000000001
 30
0.0
 41
44.99999618530273
 42
44.99999618530273
 43
44.99999618530273
 50
270.0
  0
INSERT
  5
532
330
52C
100
AcDbEntity
  8
寸法
 62
     3
100
AcDbBlockReference
  2
EX_NORM
 10
1447.499999999996
 20
1678.5
 30
0.0
 41
44.99999618530273
 42
44.99999618530273
 43
44.99999618530273
 50
90.0
  0
MTEXT
  5
533
330
52C
100
AcDbEntity
  8
寸法
 62
     2
100
AcDbMText
 10
1412.250000089403
 20
1288.5
 30
0.0
 40
59.99999618530273
 41
0.0
 71
     5
 72
     1
  1
780
  7
EXCADDIM1
 11
0.0
 21
1.0
 31
0.0
  0
POINT
  5
534
330
52C
100
AcDbEntity
  8
DEFPOINTS
 62
     0
100
AcDbPoint
 10
1278.499999999993
 20
898.5
 30
0.0
  0
POINT
  5
535
330
52C
100
AcDbEntity
  8
DEFPOINTS
 62
     0
100
AcDbPoint
 10
919.9999999999989
 20
1678.5
 30
0.0
  0
POINT
  5
536
330
52C
100
AcDbEntity
  8
DEFPOINTS
 62
     0
100
AcDbPoint
 10
1447.499999999996
 20
1678.5
 30
0.0
  0
ENDBLK
  5
52E
330
52C
100
AcDbEntity
  8
0
100
AcDbBlockEnd
  0
BLOCK
  5
539
330
538
100
AcDbEntity
  8
0
100
AcDbBlockBegin
  2
*D19
 70
     1
 10
0.0
 20
0.0
 30
0.0
  3
*D19
  1

  0
LINE
  5
53B
330
538
100
AcDbEntity
  8
寸法
  6
CONTINUOUS
 62
     3
100
AcDbLine
 10
1300.499999821179
 20
1693.5
 30
0.0
 11
1552.499999999994
 21
1693.5
 31
0.0
  0
LINE
  5
53C
330
538
100
AcDbEntity
  8
寸法
  6
CONTINUOUS
 62
     3
100
AcDbLine
 10
1537.499999999994
 20
943.4999961853028
 30
0.0
 11
1537.499999999994
 21
1648.500003814697
 31
0.0
  0
INSERT
  5
53D
330
538
100
AcDbEntity
  8
寸法
 62
     3
100
AcDbBlockReference
  2
EX_NORM
 10
1537.499999999994
 20
898.5000000000001
 30
0.0
 41
44.99999618530273
 42
44.99999618530273
 43
44.99999618530273
 50
270.0
  0
INSERT
  5
53E
330
538
100
AcDbEntity
  8
寸法
 62
     3
100
AcDbBlockReference
  2
EX_NORM
 10
1537.499999999994
 20
1693.5
 30
0.0
 41
44.99999618530273
 42
44.99999618530273
 43
44.99999618530273
 50
90.0
  0
MTEXT
  5
53F
330
538
100
AcDbEntity
  8
寸法
 62
     2
100
AcDbMText
 10
1502.250000089401
 20
1296.0
 30
0.0
 40
59.99999618530273
 41
0.0
 71
     5
 72
     1
  1
795
  7
EXCADDIM1
 11
0.0
 21
1.0
 31
0.0
  0
POINT
  5
540
330
538
100
AcDbEntity
  8
DEFPOINTS
 62
     0
100
AcDbPoint
 10
1278.499999999993
 20
898.5
 30
0.0
  0
POINT
  5
541
330
538
100
AcDbEntity
  8
DEFPOINTS
 62
     0
100
AcDbPoint
 10
1289.999999999993
 20
1693.5
 30
0.0
  0
POINT
  5
542
330
538
100
AcDbEntity
  8
DEFPOINTS
 62
     0
100
AcDbPoint
 10
1537.499999999994
 20
1693.5
 30
0.0
  0
ENDBLK
  5
53A
330
538
100
AcDbEntity
  8
0
100
AcDbBlockEnd
  0
BLOCK
  5
545
330
544
100
AcDbEntity
  8
0
100
AcDbBlockBegin
  2
*D20
 70
     1
 10
0.0
 20
0.0
 30
0.0
  3
*D20
  1

  0
LINE
  5
547
330
544
100
AcDbEntity
  8
寸法
  6
CONTINUOUS
 62
     3
100
AcDbLine
 10
2469.999999999997
 20
880.0000001788139
 30
0.0
 11
2469.999999999997
 21
763.5
 31
0.0
  0
LINE
  5
548
330
544
100
AcDbEntity
  8
寸法
  6
CONTINUOUS
 62
     3
100
AcDbLine
 10
2554.999999999997
 20
888.0000001788139
 30
0.0
 11
2554.999999999997
 21
763.5
 31
0.0
  0
LINE
  5
549
330
544
100
AcDbEntity
  8
寸法
  6
CONTINUOUS
 62
     3
100
AcDbLine
 10
2469.999999999997
 20
778.5
 30
0.0
 11
2554.999999999997
 21
778.5
 31
0.0
  0
LINE
  5
54A
330
544
100
AcDbEntity
  8
寸法
  6
CONTINUOUS
 62
     3
100
AcDbLine
 10
2425.000003814695
 20
778.5
 30
0.0
 11
2380.000007629392
 21
778.5
 31
0.0
  0
LINE
  5
54B
330
544
100
AcDbEntity
  8
寸法
  6
CONTINUOUS
 62
     3
100
AcDbLine
 10
2599.9999961853
 20
778.5
 30
0.0
 11
2644.999992370603
 21
778.5
 31
0.0
  0
INSERT
  5
54C
330
544
100
AcDbEntity
  8
寸法
 62
     3
100
AcDbBlockReference
  2
EX_NORM
 10
2469.999999999997
 20
778.5
 30
0.0
 41
44.99999618530273
 42
44.99999618530273
 43
44.99999618530273
  0
INSERT
  5
54D
330
544
100
AcDbEntity
  8
寸法
 62
     3
100
AcDbBlockReference
  2
EX_NORM
 10
2554.999999999997
 20
778.5
 30
0.0
 41
44.99999618530273
 42
44.99999618530273
 43
44.99999618530273
 50
180.0
  0
MTEXT
  5
54E
330
544
100
AcDbEntity
  8
寸法
 62
     2
100
AcDbMText
 10
2764.999999999997
 20
813.749999910593
 30
0.0
 40
59.99999618530273
 41
0.0
 71
     5
 72
     1
  1
85（床給水）
  7
EXCADDIM1
  0
POINT
  5
54F
330
544
100
AcDbEntity
  8
DEFPOINTS
 62
     0
100
AcDbPoint
 10
2469.999999999997
 20
890.5
 30
0.0
  0
POINT
  5
550
330
544
100
AcDbEntity
  8
DEFPOINTS
 62
     0
100
AcDbPoint
 10
2554.999999999997
 20
898.5
 30
0.0
  0
POINT
  5
551
330
544
100
AcDbEntity
  8
DEFPOINTS
 62
     0
100
AcDbPoint
 10
2554.999999999997
 20
778.5
 30
0.0
  0
ENDBLK
  5
546
330
544
100
AcDbEntity
  8
0
100
AcDbBlockEnd
  0
BLOCK
  5
554
330
553
100
AcDbEntity
  8
0
100
AcDbBlockBegin
  2
*D21
 70
     1
 10
0.0
 20
0.0
 30
0.0
  3
*D21
  1

  0
LINE
  5
556
330
553
100
AcDbEntity
  8
寸法
  6
CONTINUOUS
 62
     3
100
AcDbLine
 10
2565.499999821183
 20
898.5
 30
0.0
 11
2674.999999999997
 21
898.4999999999999
 31
0.0
  0
LINE
  5
557
330
553
100
AcDbEntity
  8
寸法
  6
CONTINUOUS
 62
     3
100
AcDbLine
 10
2573.499999821183
 20
1248.5
 30
0.0
 11
2674.999999999997
 21
1248.5
 31
0.0
  0
LINE
  5
558
330
553
100
AcDbEntity
  8
寸法
  6
CONTINUOUS
 62
     3
100
AcDbLine
 10
2659.999999999997
 20
943.4999961853026
 30
0.0
 11
2659.999999999997
 21
1203.500003814697
 31
0.0
  0
INSERT
  5
559
330
553
100
AcDbEntity
  8
寸法
 62
     3
100
AcDbBlockReference
  2
EX_NORM
 10
2659.999999999997
 20
898.4999999999999
 30
0.0
 41
44.99999618530273
 42
44.99999618530273
 43
44.99999618530273
 50
270.0
  0
INSERT
  5
55A
330
553
100
AcDbEntity
  8
寸法
 62
     3
100
AcDbBlockReference
  2
EX_NORM
 10
2659.999999999997
 20
1248.5
 30
0.0
 41
44.99999618530273
 42
44.99999618530273
 43
44.99999618530273
 50
90.0
  0
MTEXT
  5
55B
330
553
100
AcDbEntity
  8
寸法
 62
     2
100
AcDbMText
 10
2624.750000089404
 20
1073.5
 30
0.0
 40
59.99999618530273
 41
0.0
 71
     5
 72
     1
  1
350（壁給水）
  7
EXCADDIM1
 11
0.0
 21
1.0
 31
0.0
  0
POINT
  5
55C
330
553
100
AcDbEntity
  8
DEFPOINTS
 62
     0
100
AcDbPoint
 10
2554.999999999997
 20
898.5
 30
0.0
  0
POINT
  5
55D
330
553
100
AcDbEntity
  8
DEFPOINTS
 62
     0
100
AcDbPoint
 10
2562.999999999997
 20
1248.5
 30
0.0
  0
POINT
  5
55E
330
553
100
AcDbEntity
  8
DEFPOINTS
 62
     0
100
AcDbPoint
 10
2659.999999999997
 20
1248.5
 30
0.0
  0
ENDBLK
  5
555
330
553
100
AcDbEntity
  8
0
100
AcDbBlockEnd
  0
BLOCK
  5
561
330
560
100
AcDbEntity
  8
0
100
AcDbBlockBegin
  2
*D22
 70
     1
 10
0.0
 20
0.0
 30
0.0
  3
*D22
  1

  0
LINE
  5
563
330
560
100
AcDbEntity
  8
寸法
  6
CONTINUOUS
 62
     3
100
AcDbLine
 10
2565.499999821183
 20
898.5
 30
0.0
 11
2764.999999999997
 21
898.4999999999999
 31
0.0
  0
LINE
  5
564
330
560
100
AcDbEntity
  8
寸法
  6
CONTINUOUS
 62
     3
100
AcDbLine
 10
2586.499999821183
 20
1398.5
 30
0.0
 11
2764.999999999997
 21
1398.5
 31
0.0
  0
LINE
  5
565
330
560
100
AcDbEntity
  8
寸法
  6
CONTINUOUS
 62
     3
100
AcDbLine
 10
2749.999999999997
 20
943.4999961853026
 30
0.0
 11
2749.999999999997
 21
1353.500003814697
 31
0.0
  0
INSERT
  5
566
330
560
100
AcDbEntity
  8
寸法
 62
     3
100
AcDbBlockReference
  2
EX_NORM
 10
2749.999999999997
 20
898.4999999999999
 30
0.0
 41
44.99999618530273
 42
44.99999618530273
 43
44.99999618530273
 50
270.0
  0
INSERT
  5
567
330
560
100
AcDbEntity
  8
寸法
 62
     3
100
AcDbBlockReference
  2
EX_NORM
 10
2749.999999999997
 20
1398.5
 30
0.0
 41
44.99999618530273
 42
44.99999618530273
 43
44.99999618530273
 50
90.0
  0
MTEXT
  5
568
330
560
100
AcDbEntity
  8
寸法
 62
     2
100
AcDbMText
 10
2714.750000089404
 20
1148.5
 30
0.0
 40
59.99999618530273
 41
0.0
 71
     5
 72
     1
  1
500（壁排水）
  7
EXCADDIM1
 11
0.0
 21
1.0
 31
0.0
  0
POINT
  5
569
330
560
100
AcDbEntity
  8
DEFPOINTS
 62
     0
100
AcDbPoint
 10
2554.999999999997
 20
898.5
 30
0.0
  0
POINT
  5
56A
330
560
100
AcDbEntity
  8
DEFPOINTS
 62
     0
100
AcDbPoint
 10
2575.999999999997
 20
1398.5
 30
0.0
  0
POINT
  5
56B
330
560
100
AcDbEntity
  8
DEFPOINTS
 62
     0
100
AcDbPoint
 10
2749.999999999997
 20
1398.5
 30
0.0
  0
ENDBLK
  5
562
330
560
100
AcDbEntity
  8
0
100
AcDbBlockEnd
  0
BLOCK
  5
56E
330
56D
100
AcDbEntity
  8
0
100
AcDbBlockBegin
  2
*D23
 70
     1
 10
0.0
 20
0.0
 30
0.0
  3
*D23
  1

  0
LINE
  5
570
330
56D
100
AcDbEntity
  8
寸法
  6
CONTINUOUS
 62
     3
100
AcDbLine
 10
2565.499999821183
 20
898.5
 30
0.0
 11
2854.999999999997
 21
898.4999999999999
 31
0.0
  0
LINE
  5
571
330
56D
100
AcDbEntity
  8
寸法
  6
CONTINUOUS
 62
     3
100
AcDbLine
 10
2597.999999821183
 20
1453.5
 30
0.0
 11
2854.999999999997
 21
1453.5
 31
0.0
  0
LINE
  5
572
330
56D
100
AcDbEntity
  8
寸法
  6
CONTINUOUS
 62
     3
100
AcDbLine
 10
2839.999999999997
 20
943.4999961853026
 30
0.0
 11
2839.999999999997
 21
1408.500003814697
 31
0.0
  0
INSERT
  5
573
330
56D
100
AcDbEntity
  8
寸法
 62
     3
100
AcDbBlockReference
  2
EX_NORM
 10
2839.999999999997
 20
898.4999999999999
 30
0.0
 41
44.99999618530273
 42
44.99999618530273
 43
44.99999618530273
 50
270.0
  0
INSERT
  5
574
330
56D
100
AcDbEntity
  8
寸法
 62
     3
100
AcDbBlockReference
  2
EX_NORM
 10
2839.999999999997
 20
1453.5
 30
0.0
 41
44.99999618530273
 42
44.99999618530273
 43
44.99999618530273
 50
90.0
  0
MTEXT
  5
575
330
56D
100
AcDbEntity
  8
寸法
 62
     2
100
AcDbMText
 10
2804.750000089404
 20
1176.0
 30
0.0
 40
59.99999618530273
 41
0.0
 71
     5
 72
     1
  1
555（壁固定）
  7
EXCADDIM1
 11
0.0
 21
1.0
 31
0.0
  0
POINT
  5
576
330
56D
100
AcDbEntity
  8
DEFPOINTS
 62
     0
100
AcDbPoint
 10
2554.999999999997
 20
898.5
 30
0.0
  0
POINT
  5
577
330
56D
100
AcDbEntity
  8
DEFPOINTS
 62
     0
100
AcDbPoint
 10
2587.499999999997
 20
1453.5
 30
0.0
  0
POINT
  5
578
330
56D
100
AcDbEntity
  8
DEFPOINTS
 62
     0
100
AcDbPoint
 10
2839.999999999997
 20
1453.5
 30
0.0
  0
ENDBLK
  5
56F
330
56D
100
AcDbEntity
  8
0
100
AcDbBlockEnd
  0
BLOCK
  5
57B
330
57A
100
AcDbEntity
  8
0
100
AcDbBlockBegin
  2
*D24
 70
     1
 10
0.0
 20
0.0
 30
0.0
  3
*D24
  1

  0
LINE
  5
57D
330
57A
100
AcDbEntity
  8
寸法
  6
CONTINUOUS
 62
     3
100
AcDbLine
 10
2164.999999999995
 20
891.5000001788139
 30
0.0
 11
2164.999999999995
 21
583.5
 31
0.0
  0
LINE
  5
57E
330
57A
100
AcDbEntity
  8
寸法
  6
CONTINUOUS
 62
     3
100
AcDbLine
 10
2554.999999999997
 20
888.0000001788139
 30
0.0
 11
2554.999999999997
 21
583.5
 31
0.0
  0
LINE
  5
57F
330
57A
100
AcDbEntity
  8
寸法
  6
CONTINUOUS
 62
     3
100
AcDbLine
 10
2209.999996185298
 20
598.5
 30
0.0
 11
2510.000003814695
 21
598.5
 31
0.0
  0
INSERT
  5
580
330
57A
100
AcDbEntity
  8
寸法
 62
     3
100
AcDbBlockReference
  2
EX_NORM
 10
2164.999999999995
 20
598.5
 30
0.0
 41
44.99999618530273
 42
44.99999618530273
 43
44.99999618530273
 50
180.0
  0
INSERT
  5
581
330
57A
100
AcDbEntity
  8
寸法
 62
     3
100
AcDbBlockReference
  2
EX_NORM
 10
2554.999999999997
 20
598.5
 30
0.0
 41
44.99999618530273
 42
44.99999618530273
 43
44.99999618530273
  0
MTEXT
  5
582
330
57A
100
AcDbEntity
  8
寸法
 62
     2
100
AcDbMText
 10
2359.999999999996
 20
633.749999910593
 30
0.0
 40
59.99999618530273
 41
0.0
 71
     5
 72
     1
  1
390
  7
EXCADDIM1
  0
POINT
  5
583
330
57A
100
AcDbEntity
  8
DEFPOINTS
 62
     0
100
AcDbPoint
 10
2164.999999999995
 20
902.0
 30
0.0
  0
POINT
  5
584
330
57A
100
AcDbEntity
  8
DEFPOINTS
 62
     0
100
AcDbPoint
 10
2554.999999999997
 20
898.5
 30
0.0
  0
POINT
  5
585
330
57A
100
AcDbEntity
  8
DEFPOINTS
 62
     0
100
AcDbPoint
 10
2554.999999999997
 20
598.5
 30
0.0
  0
ENDBLK
  5
57C
330
57A
100
AcDbEntity
  8
0
100
AcDbBlockEnd
  0
BLOCK
  5
58A
330
589
100
AcDbEntity
  8
0
100
AcDbBlockBegin
  2
*D25
 70
     1
 10
0.0
 20
0.0
 30
0.0
  3
*D25
  1

  0
LINE
  5
58C
330
589
100
AcDbEntity
  8
寸法
  6
CONTINUOUS
 62
     3
100
AcDbLine
 10
561.4999999999989
 20
669.9999961853027
 30
0.0
 11
561.4999999999989
 21
583.5
 31
0.0
  0
LINE
  5
58D
330
589
100
AcDbEntity
  8
寸法
  6
CONTINUOUS
 62
     3
100
AcDbLine
 10
1278.499999999993
 20
669.9999961853027
 30
0.0
 11
1278.499999999993
 21
583.5
 31
0.0
  0
LINE
  5
58E
330
589
100
AcDbEntity
  8
寸法
  6
CONTINUOUS
 62
     3
100
AcDbLine
 10
606.4999961853016
 20
598.5
 30
0.0
 11
1233.500003814691
 21
598.5
 31
0.0
  0
INSERT
  5
58F
330
589
100
AcDbEntity
  8
寸法
 62
     3
100
AcDbBlockReference
  2
EX_NORM
 10
561.4999999999989
 20
598.5
 30
0.0
 41
44.99999618530273
 42
44.99999618530273
 43
44.99999618530273
 50
180.0
  0
INSERT
  5
590
330
589
100
AcDbEntity
  8
寸法
 62
     3
100
AcDbBlockReference
  2
EX_NORM
 10
1278.499999999993
 20
598.5
 30
0.0
 41
44.99999618530273
 42
44.99999618530273
 43
44.99999618530273
  0
MTEXT
  5
591
330
589
100
AcDbEntity
  8
寸法
 62
     2
100
AcDbMText
 10
919.9999999999961
 20
633.749999910593
 30
0.0
 40
59.99999618530273
 41
0.0
 71
     5
 72
     1
  1
717
  7
EXCADDIM1
  0
POINT
  5
592
330
589
100
AcDbEntity
  8
DEFPOINTS
 62
     0
100
AcDbPoint
 10
561.4999999999989
 20
898.5
 30
0.0
  0
POINT
  5
593
330
589
100
AcDbEntity
  8
DEFPOINTS
 62
     0
100
AcDbPoint
 10
1278.499999999993
 20
898.5
 30
0.0
  0
POINT
  5
594
330
589
100
AcDbEntity
  8
DEFPOINTS
 62
     0
100
AcDbPoint
 10
1278.499999999993
 20
598.5
 30
0.0
  0
ENDBLK
  5
58B
330
589
100
AcDbEntity
  8
0
100
AcDbBlockEnd
  0
BLOCK
  5
597
330
596
100
AcDbEntity
  8
0
100
AcDbBlockBegin
  2
*D26
 70
     1
 10
0.0
 20
0.0
 30
0.0
  3
*D26
  1

  0
LINE
  5
599
330
596
100
AcDbEntity
  8
寸法
  6
CONTINUOUS
 62
     3
100
AcDbLine
 10
868.9999999999989
 20
1691.222387519186
 30
0.0
 11
868.9999999999989
 21
1900.0
 31
0.0
  0
LINE
  5
59A
330
596
100
AcDbEntity
  8
寸法
  6
CONTINUOUS
 62
     3
100
AcDbLine
 10
970.999999999998
 20
1700.722387519186
 30
0.0
 11
970.999999999998
 21
1900.0
 31
0.0
  0
LINE
  5
59B
330
596
100
AcDbEntity
  8
寸法
  6
CONTINUOUS
 62
     3
100
AcDbLine
 10
913.9999961853016
 20
1885.0
 30
0.0
 11
926.0000038146952
 21
1885.0
 31
0.0
  0
INSERT
  5
59C
330
596
100
AcDbEntity
  8
寸法
 62
     3
100
AcDbBlockReference
  2
EX_NORM
 10
868.9999999999989
 20
1885.0
 30
0.0
 41
44.99999618530273
 42
44.99999618530273
 43
44.99999618530273
 50
180.0
  0
INSERT
  5
59D
330
596
100
AcDbEntity
  8
寸法
 62
     3
100
AcDbBlockReference
  2
EX_NORM
 10
970.999999999998
 20
1885.0
 30
0.0
 41
44.99999618530273
 42
44.99999618530273
 43
44.99999618530273
  0
MTEXT
  5
59E
330
596
100
AcDbEntity
  8
寸法
 62
     2
100
AcDbMText
 10
919.9999999999984
 20
1920.249999910593
 30
0.0
 40
59.99999618530273
 41
0.0
 71
     5
 72
     1
  1
102
  7
EXCADDIM1
  0
POINT
  5
59F
330
596
100
AcDbEntity
  8
DEFPOINTS
 62
     0
100
AcDbPoint
 10
868.9999999999989
 20
1680.722387698
 30
0.0
  0
POINT
  5
5A0
330
596
100
AcDbEntity
  8
DEFPOINTS
 62
     0
100
AcDbPoint
 10
970.999999999998
 20
1690.222387698
 30
0.0
  0
POINT
  5
5A1
330
596
100
AcDbEntity
  8
DEFPOINTS
 62
     0
100
AcDbPoint
 10
970.999999999998
 20
1885.0
 30
0.0
  0
ENDBLK
  5
598
330
596
100
AcDbEntity
  8
0
100
AcDbBlockEnd
  0
BLOCK
  5
5A4
330
5A3
100
AcDbEntity
  8
0
100
AcDbBlockBegin
  2
*D27
 70
     1
 10
0.0
 20
0.0
 30
0.0
  3
*D27
  1

  0
LINE
  5
5A6
330
5A3
100
AcDbEntity
  8
寸法
  6
CONTINUOUS
 62
     3
100
AcDbLine
 10
2474.999999999995
 20
1693.999999821186
 30
0.0
 11
2474.999999999995
 21
1900.0
 31
0.0
  0
LINE
  5
5A7
330
5A3
100
AcDbEntity
  8
寸法
  6
CONTINUOUS
 62
     3
100
AcDbLine
 10
2474.999999999995
 20
1885.0
 30
0.0
 11
2554.999999999997
 21
1885.0
 31
0.0
  0
LINE
  5
5A8
330
5A3
100
AcDbEntity
  8
寸法
  6
CONTINUOUS
 62
     3
100
AcDbLine
 10
2430.000003814693
 20
1885.0
 30
0.0
 11
2385.00000762939
 21
1885.0
 31
0.0
  0
LINE
  5
5A9
330
5A3
100
AcDbEntity
  8
寸法
  6
CONTINUOUS
 62
     3
100
AcDbLine
 10
2599.9999961853
 20
1885.0
 30
0.0
 11
2644.999992370603
 21
1885.0
 31
0.0
  0
INSERT
  5
5AA
330
5A3
100
AcDbEntity
  8
寸法
 62
     3
100
AcDbBlockReference
  2
EX_NORM
 10
2474.999999999995
 20
1885.0
 30
0.0
 41
44.99999618530273
 42
44.99999618530273
 43
44.99999618530273
  0
INSERT
  5
5AB
330
5A3
100
AcDbEntity
  8
寸法
 62
     3
100
AcDbBlockReference
  2
EX_NORM
 10
2554.999999999997
 20
1885.0
 30
0.0
 41
44.99999618530273
 42
44.99999618530273
 43
44.99999618530273
 50
180.0
  0
MTEXT
  5
5AC
330
5A3
100
AcDbEntity
  8
寸法
 62
     2
100
AcDbMText
 10
2377.499999999995
 20
1920.249999910593
 30
0.0
 40
59.99999618530273
 41
0.0
 71
     5
 72
     1
  1
80
  7
EXCADDIM1
  0
POINT
  5
5AD
330
5A3
100
AcDbEntity
  8
DEFPOINTS
 62
     0
100
AcDbPoint
 10
2474.999999999995
 20
1683.5
 30
0.0
  0
POINT
  5
5AE
330
5A3
100
AcDbEntity
  8
DEFPOINTS
 62
     0
100
AcDbPoint
 10
2554.999999999997
 20
1693.5
 30
0.0
  0
POINT
  5
5AF
330
5A3
100
AcDbEntity
  8
DEFPOINTS
 62
     0
100
AcDbPoint
 10
2554.999999999997
 20
1885.0
 30
0.0
  0
ENDBLK
  5
5A5
330
5A3
100
AcDbEntity
  8
0
100
AcDbBlockEnd
  0
BLOCK
  5
5B7
330
5B6
100
AcDbEntity
  8
0
100
AcDbBlockBegin
  2
*D28
 70
     1
 10
0.0
 20
0.0
 30
0.0
  3
*D28
  1

  0
LINE
  5
5B9
330
5B6
100
AcDbEntity
  8
寸法
  6
CONTINUOUS
 62
     3
100
AcDbLine
 10
2434.999999999997
 20
858.0000001788139
 30
0.0
 11
2434.999999999997
 21
673.5
 31
0.0
  0
LINE
  5
5BA
330
5B6
100
AcDbEntity
  8
寸法
  6
CONTINUOUS
 62
     3
100
AcDbLine
 10
2554.999999999997
 20
888.0000001788139
 30
0.0
 11
2554.999999999997
 21
673.5
 31
0.0
  0
LINE
  5
5BB
330
5B6
100
AcDbEntity
  8
寸法
  6
CONTINUOUS
 62
     3
100
AcDbLine
 10
2479.9999961853
 20
688.5
 30
0.0
 11
2510.000003814695
 21
688.5
 31
0.0
  0
INSERT
  5
5BC
330
5B6
100
AcDbEntity
  8
寸法
 62
     3
100
AcDbBlockReference
  2
EX_NORM
 10
2434.999999999997
 20
688.5
 30
0.0
 41
44.99999618530273
 42
44.99999618530273
 43
44.99999618530273
 50
180.0
  0
INSERT
  5
5BD
330
5B6
100
AcDbEntity
  8
寸法
 62
     3
100
AcDbBlockReference
  2
EX_NORM
 10
2554.999999999997
 20
688.5
 30
0.0
 41
44.99999618530273
 42
44.99999618530273
 43
44.99999618530273
  0
MTEXT
  5
5BE
330
5B6
100
AcDbEntity
  8
寸法
 62
     2
100
AcDbMText
 10
2787.499999999997
 20
723.749999910593
 30
0.0
 40
59.99999618530273
 41
0.0
 71
     5
 72
     1
  1
120（床排水）
  7
EXCADDIM1
  0
POINT
  5
5BF
330
5B6
100
AcDbEntity
  8
DEFPOINTS
 62
     0
100
AcDbPoint
 10
2434.999999999997
 20
868.5
 30
0.0
  0
POINT
  5
5C0
330
5B6
100
AcDbEntity
  8
DEFPOINTS
 62
     0
100
AcDbPoint
 10
2554.999999999997
 20
898.5
 30
0.0
  0
POINT
  5
5C1
330
5B6
100
AcDbEntity
  8
DEFPOINTS
 62
     0
100
AcDbPoint
 10
2554.999999999997
 20
688.5
 30
0.0
  0
ENDBLK
  5
5B8
330
5B6
100
AcDbEntity
  8
0
100
AcDbBlockEnd
  0
BLOCK
  5
5C4
330
5C3
100
AcDbEntity
  8
0
100
AcDbBlockBegin
  2
*D29
 70
     1
 10
0.0
 20
0.0
 30
0.0
  3
*D29
  1

  0
LINE
  5
5C6
330
5C3
100
AcDbEntity
  8
寸法
  6
CONTINUOUS
 62
     3
100
AcDbLine
 10
820.0000000000011
 20
880.0000001788139
 30
0.0
 11
820.0000000000011
 21
673.5
 31
0.0
  0
LINE
  5
5C7
330
5C3
100
AcDbEntity
  8
寸法
  6
CONTINUOUS
 62
     3
100
AcDbLine
 10
1019.999999999998
 20
880.0000001788139
 30
0.0
 11
1019.999999999998
 21
673.5
 31
0.0
  0
LINE
  5
5C8
330
5C3
100
AcDbEntity
  8
寸法
  6
CONTINUOUS
 62
     3
100
AcDbLine
 10
864.9999961853039
 20
688.5
 30
0.0
 11
975.0000038146951
 21
688.5
 31
0.0
  0
INSERT
  5
5C9
330
5C3
100
AcDbEntity
  8
寸法
 62
     3
100
AcDbBlockReference
  2
EX_NORM
 10
820.0000000000011
 20
688.5
 30
0.0
 41
44.99999618530273
 42
44.99999618530273
 43
44.99999618530273
 50
180.0
  0
INSERT
  5
5CA
330
5C3
100
AcDbEntity
  8
寸法
 62
     3
100
AcDbBlockReference
  2
EX_NORM
 10
1019.999999999998
 20
688.5
 30
0.0
 41
44.99999618530273
 42
44.99999618530273
 43
44.99999618530273
  0
MTEXT
  5
5CB
330
5C3
100
AcDbEntity
  8
寸法
 62
     2
100
AcDbMText
 10
1252.499999999998
 20
723.749999910593
 30
0.0
 40
59.99999618530273
 41
0.0
 71
     5
 72
     1
  1
200（床給水）
  7
EXCADDIM1
  0
POINT
  5
5CC
330
5C3
100
AcDbEntity
  8
DEFPOINTS
 62
     0
100
AcDbPoint
 10
820.0000000000011
 20
890.5
 30
0.0
  0
POINT
  5
5CD
330
5C3
100
AcDbEntity
  8
DEFPOINTS
 62
     0
100
AcDbPoint
 10
1019.999999999998
 20
890.5
 30
0.0
  0
POINT
  5
5CE
330
5C3
100
AcDbEntity
  8
DEFPOINTS
 62
     0
100
AcDbPoint
 10
1019.999999999998
 20
688.5
 30
0.0
  0
ENDBLK
  5
5C5
330
5C3
100
AcDbEntity
  8
0
100
AcDbBlockEnd
  0
BLOCK
  5
5D3
330
5D2
100
AcDbEntity
  8
0
100
AcDbBlockBegin
  2
*D30
 70
     1
 10
0.0
 20
0.0
 30
0.0
  3
*D30
  1

  0
LINE
  5
5D5
330
5D2
100
AcDbEntity
  8
寸法
  6
CONTINUOUS
 62
     3
100
AcDbLine
 10
820.0000000000011
 20
3991.499999821186
 30
0.0
 11
820.0000000000011
 21
4093.0
 31
0.0
  0
LINE
  5
5D6
330
5D2
100
AcDbEntity
  8
寸法
  6
CONTINUOUS
 62
     3
100
AcDbLine
 10
1019.999999999998
 20
3991.499999821186
 30
0.0
 11
1019.999999999998
 21
4093.0
 31
0.0
  0
LINE
  5
5D7
330
5D2
100
AcDbEntity
  8
寸法
  6
CONTINUOUS
 62
     3
100
AcDbLine
 10
864.9999961853039
 20
4078.0
 30
0.0
 11
975.0000038146951
 21
4078.0
 31
0.0
  0
INSERT
  5
5D8
330
5D2
100
AcDbEntity
  8
寸法
 62
     3
100
AcDbBlockReference
  2
EX_NORM
 10
820.0000000000011
 20
4078.0
 30
0.0
 41
44.99999618530273
 42
44.99999618530273
 43
44.99999618530273
 50
180.0
  0
INSERT
  5
5D9
330
5D2
100
AcDbEntity
  8
寸法
 62
     3
100
AcDbBlockReference
  2
EX_NORM
 10
1019.999999999998
 20
4078.0
 30
0.0
 41
44.99999618530273
 42
44.99999618530273
 43
44.99999618530273
  0
MTEXT
  5
5DA
330
5D2
100
AcDbEntity
  8
寸法
 62
     2
100
AcDbMText
 10
1252.499999999998
 20
4113.249999910593
 30
0.0
 40
59.99999618530273
 41
0.0
 71
     5
 72
     1
  1
200（壁給水）
  7
EXCADDIM1
  0
POINT
  5
5DB
330
5D2
100
AcDbEntity
  8
DEFPOINTS
 62
     0
100
AcDbPoint
 10
820.0000000000011
 20
3981.0
 30
0.0
  0
POINT
  5
5DC
330
5D2
100
AcDbEntity
  8
DEFPOINTS
 62
     0
100
AcDbPoint
 10
1019.999999999998
 20
3981.0
 30
0.0
  0
POINT
  5
5DD
330
5D2
100
AcDbEntity
  8
DEFPOINTS
 62
     0
100
AcDbPoint
 10
1019.999999999998
 20
4078.0
 30
0.0
  0
ENDBLK
  5
5D4
330
5D2
100
AcDbEntity
  8
0
100
AcDbBlockEnd
  0
BLOCK
  5
5E0
330
5DF
100
AcDbEntity
  8
0
100
AcDbBlockBegin
  2
*D31
 70
     1
 10
0.0
 20
0.0
 30
0.0
  3
*D31
  1

  0
LINE
  5
5E2
330
5DF
100
AcDbEntity
  8
寸法
  6
CONTINUOUS
 62
     3
100
AcDbLine
 10
544.9999999999993
 20
2825.999999821186
 30
0.0
 11
544.9999999999993
 21
2884.5
 31
0.0
  0
LINE
  5
5E3
330
5DF
100
AcDbEntity
  8
寸法
  6
CONTINUOUS
 62
     3
100
AcDbLine
 10
564.9999999999993
 20
2660.999999821186
 30
0.0
 11
564.9999999999993
 21
2884.5
 31
0.0
  0
LINE
  5
5E4
330
5DF
100
AcDbEntity
  8
寸法
  6
CONTINUOUS
 62
     3
100
AcDbLine
 10
544.9999999999993
 20
2869.5
 30
0.0
 11
564.9999999999993
 21
2869.5
 31
0.0
  0
LINE
  5
5E5
330
5DF
100
AcDbEntity
  8
寸法
  6
CONTINUOUS
 62
     3
100
AcDbLine
 10
500.0000038146966
 20
2869.5
 30
0.0
 11
455.0000076293938
 21
2869.5
 31
0.0
  0
LINE
  5
5E6
330
5DF
100
AcDbEntity
  8
寸法
  6
CONTINUOUS
 62
     3
100
AcDbLine
 10
609.999996185302
 20
2869.5
 30
0.0
 11
654.9999923706048
 21
2869.5
 31
0.0
  0
INSERT
  5
5E7
330
5DF
100
AcDbEntity
  8
寸法
 62
     3
100
AcDbBlockReference
  2
EX_NORM
 10
544.9999999999993
 20
2869.5
 30
0.0
 41
44.99999618530273
 42
44.99999618530273
 43
44.99999618530273
  0
INSERT
  5
5E8
330
5DF
100
AcDbEntity
  8
寸法
 62
     3
100
AcDbBlockReference
  2
EX_NORM
 10
564.9999999999993
 20
2869.5
 30
0.0
 41
44.99999618530273
 42
44.99999618530273
 43
44.99999618530273
 50
180.0
  0
MTEXT
  5
5E9
330
5DF
100
AcDbEntity
  8
寸法
 62
     2
100
AcDbMText
 10
662.4999999999997
 20
2904.749999910593
 30
0.0
 40
59.99999618530273
 41
0.0
 71
     5
 72
     1
  1
20
  7
EXCADDIM1
  0
POINT
  5
5EA
330
5DF
100
AcDbEntity
  8
DEFPOINTS
 62
     0
100
AcDbPoint
 10
544.9999999999993
 20
2815.5
 30
0.0
  0
POINT
  5
5EB
330
5DF
100
AcDbEntity
  8
DEFPOINTS
 62
     0
100
AcDbPoint
 10
564.9999999999993
 20
2650.5
 30
0.0
  0
POINT
  5
5EC
330
5DF
100
AcDbEntity
  8
DEFPOINTS
 62
     0
100
AcDbPoint
 10
564.9999999999993
 20
2869.5
 30
0.0
  0
ENDBLK
  5
5E1
330
5DF
100
AcDbEntity
  8
0
100
AcDbBlockEnd
  0
BLOCK
  5
5EF
330
5EE
100
AcDbEntity
  8
0
100
AcDbBlockBegin
  2
*D32
 70
     1
 10
0.0
 20
0.0
 30
0.0
  3
*D32
  1

  0
LINE
  5
5F1
330
5EE
100
AcDbEntity
  8
寸法
  6
CONTINUOUS
 62
     3
100
AcDbLine
 10
1219.999999999999
 20
2660.999999821186
 30
0.0
 11
1219.999999999999
 21
2884.5
 31
0.0
  0
LINE
  5
5F2
330
5EE
100
AcDbEntity
  8
寸法
  6
CONTINUOUS
 62
     3
100
AcDbLine
 10
1294.999999999999
 20
2825.999999821186
 30
0.0
 11
1294.999999999999
 21
2884.5
 31
0.0
  0
LINE
  5
5F3
330
5EE
100
AcDbEntity
  8
寸法
  6
CONTINUOUS
 62
     3
100
AcDbLine
 10
1219.999999999999
 20
2869.5
 30
0.0
 11
1294.999999999999
 21
2869.5
 31
0.0
  0
LINE
  5
5F4
330
5EE
100
AcDbEntity
  8
寸法
  6
CONTINUOUS
 62
     3
100
AcDbLine
 10
1175.000003814696
 20
2869.5
 30
0.0
 11
1130.000007629393
 21
2869.5
 31
0.0
  0
LINE
  5
5F5
330
5EE
100
AcDbEntity
  8
寸法
  6
CONTINUOUS
 62
     3
100
AcDbLine
 10
1339.999996185302
 20
2869.5
 30
0.0
 11
1384.999992370604
 21
2869.5
 31
0.0
  0
INSERT
  5
5F6
330
5EE
100
AcDbEntity
  8
寸法
 62
     3
100
AcDbBlockReference
  2
EX_NORM
 10
1219.999999999999
 20
2869.5
 30
0.0
 41
44.99999618530273
 42
44.99999618530273
 43
44.99999618530273
  0
INSERT
  5
5F7
330
5EE
100
AcDbEntity
  8
寸法
 62
     3
100
AcDbBlockReference
  2
EX_NORM
 10
1294.999999999999
 20
2869.5
 30
0.0
 41
44.99999618530273
 42
44.99999618530273
 43
44.99999618530273
 50
180.0
  0
MTEXT
  5
5F8
330
5EE
100
AcDbEntity
  8
寸法
 62
     2
100
AcDbMText
 10
1122.499999999999
 20
2904.749999910593
 30
0.0
 40
59.99999618530273
 41
0.0
 71
     5
 72
     1
  1
75
  7
EXCADDIM1
  0
POINT
  5
5F9
330
5EE
100
AcDbEntity
  8
DEFPOINTS
 62
     0
100
AcDbPoint
 10
1219.999999999999
 20
2650.5
 30
0.0
  0
POINT
  5
5FA
330
5EE
100
AcDbEntity
  8
DEFPOINTS
 62
     0
100
AcDbPoint
 10
1294.999999999999
 20
2815.5
 30
0.0
  0
POINT
  5
5FB
330
5EE
100
AcDbEntity
  8
DEFPOINTS
 62
     0
100
AcDbPoint
 10
1294.999999999999
 20
2869.5
 30
0.0
  0
ENDBLK
  5
5F0
330
5EE
100
AcDbEntity
  8
0
100
AcDbBlockEnd
  0
BLOCK
  5
5FE
330
5FD
100
AcDbEntity
  8
0
100
AcDbBlockBegin
  2
*D33
 70
     1
 10
0.0
 20
0.0
 30
0.0
  3
*D33
  1

  0
LINE
  5
600
330
5FD
100
AcDbEntity
  8
寸法
  6
CONTINUOUS
 62
     3
100
AcDbLine
 10
544.9999999999993
 20
2825.999999821186
 30
0.0
 11
544.9999999999993
 21
2974.5
 31
0.0
  0
LINE
  5
601
330
5FD
100
AcDbEntity
  8
寸法
  6
CONTINUOUS
 62
     3
100
AcDbLine
 10
1294.999999999999
 20
2825.999999821186
 30
0.0
 11
1294.999999999999
 21
2974.5
 31
0.0
  0
LINE
  5
602
330
5FD
100
AcDbEntity
  8
寸法
  6
CONTINUOUS
 62
     3
100
AcDbLine
 10
589.999996185302
 20
2959.5
 30
0.0
 11
1250.000003814696
 21
2959.5
 31
0.0
  0
INSERT
  5
603
330
5FD
100
AcDbEntity
  8
寸法
 62
     3
100
AcDbBlockReference
  2
EX_NORM
 10
544.9999999999993
 20
2959.5
 30
0.0
 41
44.99999618530273
 42
44.99999618530273
 43
44.99999618530273
 50
180.0
  0
INSERT
  5
604
330
5FD
100
AcDbEntity
  8
寸法
 62
     3
100
AcDbBlockReference
  2
EX_NORM
 10
1294.999999999999
 20
2959.5
 30
0.0
 41
44.99999618530273
 42
44.99999618530273
 43
44.99999618530273
  0
MTEXT
  5
605
330
5FD
100
AcDbEntity
  8
寸法
 62
     2
100
AcDbMText
 10
919.9999999999993
 20
2994.749999910593
 30
0.0
 40
59.99999618530273
 41
0.0
 71
     5
 72
     1
  1
750
  7
EXCADDIM1
  0
POINT
  5
606
330
5FD
100
AcDbEntity
  8
DEFPOINTS
 62
     0
100
AcDbPoint
 10
544.9999999999993
 20
2815.5
 30
0.0
  0
POINT
  5
607
330
5FD
100
AcDbEntity
  8
DEFPOINTS
 62
     0
100
AcDbPoint
 10
1294.999999999999
 20
2815.5
 30
0.0
  0
POINT
  5
608
330
5FD
100
AcDbEntity
  8
DEFPOINTS
 62
     0
100
AcDbPoint
 10
1294.999999999999
 20
2959.5
 30
0.0
  0
ENDBLK
  5
5FF
330
5FD
100
AcDbEntity
  8
0
100
AcDbBlockEnd
  0
BLOCK
  5
60D
330
60C
100
AcDbEntity
  8
0
100
AcDbBlockBegin
  2
*D34
 70
     1
 10
0.0
 20
0.0
 30
0.0
  3
*D34
  1

  0
LINE
  5
60F
330
60C
100
AcDbEntity
  8
寸法
  6
CONTINUOUS
 62
     3
100
AcDbLine
 10
1297.499999821185
 20
1693.5
 30
0.0
 11
1552.499999999999
 21
1693.5
 31
0.0
  0
LINE
  5
610
330
60C
100
AcDbEntity
  8
寸法
  6
CONTINUOUS
 62
     3
100
AcDbLine
 10
1297.499999821185
 20
2823.5
 30
0.0
 11
1552.499999999999
 21
2823.5
 31
0.0
  0
LINE
  5
611
330
60C
100
AcDbEntity
  8
寸法
  6
CONTINUOUS
 62
     3
100
AcDbLine
 10
1537.499999999999
 20
1738.499996185303
 30
0.0
 11
1537.499999999999
 21
2778.500003814697
 31
0.0
  0
INSERT
  5
612
330
60C
100
AcDbEntity
  8
寸法
 62
     3
100
AcDbBlockReference
  2
EX_NORM
 10
1537.499999999999
 20
1693.5
 30
0.0
 41
44.99999618530273
 42
44.99999618530273
 43
44.99999618530273
 50
270.0
  0
INSERT
  5
613
330
60C
100
AcDbEntity
  8
寸法
 62
     3
100
AcDbBlockReference
  2
EX_NORM
 10
1537.499999999999
 20
2823.5
 30
0.0
 41
44.99999618530273
 42
44.99999618530273
 43
44.99999618530273
 50
90.0
  0
MTEXT
  5
614
330
60C
100
AcDbEntity
  8
寸法
 62
     2
100
AcDbMText
 10
1502.250000089407
 20
2258.5
 30
0.0
 40
59.99999618530273
 41
0.0
 71
     5
 72
     1
  1
1130
  7
EXCADDIM1
 11
0.0
 21
1.0
 31
0.0
  0
POINT
  5
615
330
60C
100
AcDbEntity
  8
DEFPOINTS
 62
     0
100
AcDbPoint
 10
1286.999999999999
 20
1693.5
 30
0.0
  0
POINT
  5
616
330
60C
100
AcDbEntity
  8
DEFPOINTS
 62
     0
100
AcDbPoint
 10
1286.999999999999
 20
2823.5
 30
0.0
  0
POINT
  5
617
330
60C
100
AcDbEntity
  8
DEFPOINTS
 62
     0
100
AcDbPoint
 10
1537.499999999999
 20
2823.5
 30
0.0
  0
ENDBLK
  5
60E
330
60C
100
AcDbEntity
  8
0
100
AcDbBlockEnd
  0
BLOCK
  5
61A
330
619
100
AcDbEntity
  8
0
100
AcDbBlockBegin
  2
*D35
 70
     1
 10
0.0
 20
0.0
 30
0.0
  3
*D35
  1

  0
LINE
  5
61C
330
619
100
AcDbEntity
  8
寸法
  6
CONTINUOUS
 62
     3
100
AcDbLine
 10
1297.499999821185
 20
2823.5
 30
0.0
 11
1642.499999999999
 21
2823.5
 31
0.0
  0
LINE
  5
61D
330
619
100
AcDbEntity
  8
寸法
  6
CONTINUOUS
 62
     3
100
AcDbLine
 10
1627.499999999999
 20
943.4999961853027
 30
0.0
 11
1627.499999999999
 21
2778.500003814697
 31
0.0
  0
INSERT
  5
61E
330
619
100
AcDbEntity
  8
寸法
 62
     3
100
AcDbBlockReference
  2
EX_NORM
 10
1627.499999999999
 20
898.5
 30
0.0
 41
44.99999618530273
 42
44.99999618530273
 43
44.99999618530273
 50
270.0
  0
INSERT
  5
61F
330
619
100
AcDbEntity
  8
寸法
 62
     3
100
AcDbBlockReference
  2
EX_NORM
 10
1627.499999999999
 20
2823.5
 30
0.0
 41
44.99999618530273
 42
44.99999618530273
 43
44.99999618530273
 50
90.0
  0
MTEXT
  5
620
330
619
100
AcDbEntity
  8
寸法
 62
     2
100
AcDbMText
 10
1592.250000089407
 20
1861.0
 30
0.0
 40
59.99999618530273
 41
0.0
 71
     5
 72
     1
  1
1925
  7
EXCADDIM1
 11
1.181161950354452E-16
 21
1.0
 31
0.0
  0
POINT
  5
621
330
619
100
AcDbEntity
  8
DEFPOINTS
 62
     0
100
AcDbPoint
 10
1278.499999999999
 20
898.5
 30
0.0
  0
POINT
  5
622
330
619
100
AcDbEntity
  8
DEFPOINTS
 62
     0
100
AcDbPoint
 10
1286.999999999999
 20
2823.5
 30
0.0
  0
POINT
  5
623
330
619
100
AcDbEntity
  8
DEFPOINTS
 62
     0
100
AcDbPoint
 10
1627.499999999999
 20
2823.5
 30
0.0
  0
ENDBLK
  5
61B
330
619
100
AcDbEntity
  8
0
100
AcDbBlockEnd
  0
BLOCK
  5
626
330
625
100
AcDbEntity
  8
0
100
AcDbBlockBegin
  2
*D36
 70
     1
 10
0.0
 20
0.0
 30
0.0
  3
*D36
  1

  0
LINE
  5
628
330
625
100
AcDbEntity
  8
寸法
  6
CONTINUOUS
 62
     3
100
AcDbLine
 10
1297.499999821185
 20
1693.5
 30
0.0
 11
1507.499999999999
 21
1693.5
 31
0.0
  0
LINE
  5
629
330
625
100
AcDbEntity
  8
寸法
  6
CONTINUOUS
 62
     3
100
AcDbLine
 10
1318.576696651786
 20
1708.5
 30
0.0
 11
1507.499999999999
 21
1708.5
 31
0.0
  0
LINE
  5
62A
330
625
100
AcDbEntity
  8
寸法
  6
CONTINUOUS
 62
     3
100
AcDbLine
 10
1492.499999999999
 20
1693.5
 30
0.0
 11
1492.499999999999
 21
1708.5
 31
0.0
  0
LINE
  5
62B
330
625
100
AcDbEntity
  8
寸法
  6
CONTINUOUS
 62
     3
100
AcDbLine
 10
1492.499999999999
 20
1648.500003814697
 30
0.0
 11
1492.499999999999
 21
1603.500007629395
 31
0.0
  0
LINE
  5
62C
330
625
100
AcDbEntity
  8
寸法
  6
CONTINUOUS
 62
     3
100
AcDbLine
 10
1492.499999999999
 20
1753.499996185303
 30
0.0
 11
1492.499999999999
 21
1798.499992370605
 31
0.0
  0
INSERT
  5
62D
330
625
100
AcDbEntity
  8
寸法
 62
     3
100
AcDbBlockReference
  2
EX_NORM
 10
1492.499999999999
 20
1693.5
 30
0.0
 41
44.99999618530273
 42
44.99999618530273
 43
44.99999618530273
 50
90.0
  0
INSERT
  5
62E
330
625
100
AcDbEntity
  8
寸法
 62
     3
100
AcDbBlockReference
  2
EX_NORM
 10
1492.499999999999
 20
1708.5
 30
0.0
 41
44.99999618530273
 42
44.99999618530273
 43
44.99999618530273
 50
270.0
  0
MTEXT
  5
62F
330
625
100
AcDbEntity
  8
寸法
 62
     2
100
AcDbMText
 10
1457.250000089401
 20
1805.999999999998
 30
0.0
 40
59.99999618530273
 41
0.0
 71
     5
 72
     1
  1
15
  7
EXCADDIM1
 11
0.0
 21
1.0
 31
0.0
  0
POINT
  5
630
330
625
100
AcDbEntity
  8
DEFPOINTS
 62
     0
100
AcDbPoint
 10
1286.999999999999
 20
1693.5
 30
0.0
  0
POINT
  5
631
330
625
100
AcDbEntity
  8
DEFPOINTS
 62
     0
100
AcDbPoint
 10
1308.0766968306
 20
1708.5
 30
0.0
  0
POINT
  5
632
330
625
100
AcDbEntity
  8
DEFPOINTS
 62
     0
100
AcDbPoint
 10
1492.499999999999
 20
1708.5
 30
0.0
  0
ENDBLK
  5
627
330
625
100
AcDbEntity
  8
0
100
AcDbBlockEnd
  0
BLOCK
  5
635
330
634
100
AcDbEntity
  8
0
100
AcDbBlockBegin
  2
*D37
 70
     1
 10
0.0
 20
0.0
 30
0.0
  3
*D37
  1

  0
LINE
  5
637
330
634
100
AcDbEntity
  8
寸法
  6
CONTINUOUS
 62
     3
100
AcDbLine
 10
619.9999999999993
 20
1726.000000178814
 30
0.0
 11
619.9999999999993
 21
1702.5
 31
0.0
  0
LINE
  5
638
330
634
100
AcDbEntity
  8
寸法
  6
CONTINUOUS
 62
     3
100
AcDbLine
 10
544.9999999999993
 20
1717.5
 30
0.0
 11
619.9999999999993
 21
1717.5
 31
0.0
  0
LINE
  5
639
330
634
100
AcDbEntity
  8
寸法
  6
CONTINUOUS
 62
     3
100
AcDbLine
 10
500.0000038146966
 20
1717.5
 30
0.0
 11
455.0000076293938
 21
1717.5
 31
0.0
  0
LINE
  5
63A
330
634
100
AcDbEntity
  8
寸法
  6
CONTINUOUS
 62
     3
100
AcDbLine
 10
664.999996185302
 20
1717.5
 30
0.0
 11
709.9999923706048
 21
1717.5
 31
0.0
  0
INSERT
  5
63B
330
634
100
AcDbEntity
  8
寸法
 62
     3
100
AcDbBlockReference
  2
EX_NORM
 10
544.9999999999993
 20
1717.5
 30
0.0
 41
44.99999618530273
 42
44.99999618530273
 43
44.99999618530273
  0
INSERT
  5
63C
330
634
100
AcDbEntity
  8
寸法
 62
     3
100
AcDbBlockReference
  2
EX_NORM
 10
619.9999999999993
 20
1717.5
 30
0.0
 41
44.99999618530273
 42
44.99999618530273
 43
44.99999618530273
 50
180.0
  0
MTEXT
  5
63D
330
634
100
AcDbEntity
  8
寸法
 62
     2
100
AcDbMText
 10
717.4999999999994
 20
1752.749999910593
 30
0.0
 40
59.99999618530273
 41
0.0
 71
     5
 72
     1
  1
75
  7
EXCADDIM1
  0
POINT
  5
63E
330
634
100
AcDbEntity
  8
DEFPOINTS
 62
     0
100
AcDbPoint
 10
544.9999999999993
 20
1701.5
 30
0.0
  0
POINT
  5
63F
330
634
100
AcDbEntity
  8
DEFPOINTS
 62
     0
100
AcDbPoint
 10
619.9999999999993
 20
1736.5
 30
0.0
  0
POINT
  5
640
330
634
100
AcDbEntity
  8
DEFPOINTS
 62
     0
100
AcDbPoint
 10
619.9999999999993
 20
1717.5
 30
0.0
  0
ENDBLK
  5
636
330
634
100
AcDbEntity
  8
0
100
AcDbBlockEnd
  0
BLOCK
  5
643
330
642
100
AcDbEntity
  8
0
100
AcDbBlockBegin
  2
*D38
 70
     1
 10
0.0
 20
0.0
 30
0.0
  3
*D38
  1

  0
LINE
  5
645
330
642
100
AcDbEntity
  8
寸法
  6
CONTINUOUS
 62
     3
100
AcDbLine
 10
2378.0
 20
2819.999999821186
 30
0.0
 11
2378.0
 21
2884.5
 31
0.0
  0
LINE
  5
646
330
642
100
AcDbEntity
  8
寸法
  6
CONTINUOUS
 62
     3
100
AcDbLine
 10
2422.999996185303
 20
2869.5
 30
0.0
 11
2510.000003814697
 21
2869.5
 31
0.0
  0
INSERT
  5
647
330
642
100
AcDbEntity
  8
寸法
 62
     3
100
AcDbBlockReference
  2
EX_NORM
 10
2378.0
 20
2869.5
 30
0.0
 41
44.99999618530273
 42
44.99999618530273
 43
44.99999618530273
 50
180.0
  0
INSERT
  5
648
330
642
100
AcDbEntity
  8
寸法
 62
     3
100
AcDbBlockReference
  2
EX_NORM
 10
2555.0
 20
2869.5
 30
0.0
 41
44.99999618530273
 42
44.99999618530273
 43
44.99999618530273
  0
MTEXT
  5
649
330
642
100
AcDbEntity
  8
寸法
 62
     2
100
AcDbMText
 10
2466.5
 20
2904.749999910593
 30
0.0
 40
59.99999618530273
 41
0.0
 71
     5
 72
     1
  1
177
  7
EXCADDIM1
  0
POINT
  5
64A
330
642
100
AcDbEntity
  8
DEFPOINTS
 62
     0
100
AcDbPoint
 10
2378.0
 20
2809.5
 30
0.0
  0
POINT
  5
64B
330
642
100
AcDbEntity
  8
DEFPOINTS
 62
     0
100
AcDbPoint
 10
2555.0
 20
2823.5
 30
0.0
  0
POINT
  5
64C
330
642
100
AcDbEntity
  8
DEFPOINTS
 62
     0
100
AcDbPoint
 10
2555.0
 20
2869.5
 30
0.0
  0
ENDBLK
  5
644
330
642
100
AcDbEntity
  8
0
100
AcDbBlockEnd
  0
BLOCK
  5
64F
330
64E
100
AcDbEntity
  8
0
100
AcDbBlockBegin
  2
*D39
 70
     1
 10
0.0
 20
0.0
 30
0.0
  3
*D39
  1

  0
LINE
  5
651
330
64E
100
AcDbEntity
  8
寸法
  6
CONTINUOUS
 62
     3
100
AcDbLine
 10
2597.999999821186
 20
2143.5
 30
0.0
 11
2945.0
 21
2143.5
 31
0.0
  0
LINE
  5
652
330
64E
100
AcDbEntity
  8
寸法
  6
CONTINUOUS
 62
     3
100
AcDbLine
 10
2597.999999821186
 20
2643.5
 30
0.0
 11
2945.0
 21
2643.5
 31
0.0
  0
LINE
  5
653
330
64E
100
AcDbEntity
  8
寸法
  6
CONTINUOUS
 62
     3
100
AcDbLine
 10
2930.0
 20
2188.499996185303
 30
0.0
 11
2930.0
 21
2598.500003814697
 31
0.0
  0
INSERT
  5
654
330
64E
100
AcDbEntity
  8
寸法
 62
     3
100
AcDbBlockReference
  2
EX_NORM
 10
2930.0
 20
2143.5
 30
0.0
 41
44.99999618530273
 42
44.99999618530273
 43
44.99999618530273
 50
270.0
  0
INSERT
  5
655
330
64E
100
AcDbEntity
  8
寸法
 62
     3
100
AcDbBlockReference
  2
EX_NORM
 10
2930.0
 20
2643.5
 30
0.0
 41
44.99999618530273
 42
44.99999618530273
 43
44.99999618530273
 50
90.0
  0
MTEXT
  5
656
330
64E
100
AcDbEntity
  8
寸法
 62
     2
100
AcDbMText
 10
2894.750000089407
 20
2393.5
 30
0.0
 40
59.99999618530273
 41
0.0
 71
     5
 72
     1
  1
500
  7
EXCADDIM1
 11
0.0
 21
1.0
 31
0.0
  0
POINT
  5
657
330
64E
100
AcDbEntity
  8
DEFPOINTS
 62
     0
100
AcDbPoint
 10
2587.5
 20
2143.5
 30
0.0
  0
POINT
  5
658
330
64E
100
AcDbEntity
  8
DEFPOINTS
 62
     0
100
AcDbPoint
 10
2587.5
 20
2643.5
 30
0.0
  0
POINT
  5
659
330
64E
100
AcDbEntity
  8
DEFPOINTS
 62
     0
100
AcDbPoint
 10
2930.0
 20
2643.5
 30
0.0
  0
ENDBLK
  5
650
330
64E
100
AcDbEntity
  8
0
100
AcDbBlockEnd
  0
BLOCK
  5
65C
330
65B
100
AcDbEntity
  8
0
100
AcDbBlockBegin
  2
*D40
 70
     1
 10
0.0
 20
0.0
 30
0.0
  3
*D40
  1

  0
LINE
  5
65E
330
65B
100
AcDbEntity
  8
寸法
  6
CONTINUOUS
 62
     3
100
AcDbLine
 10
2597.999999821186
 20
1743.5
 30
0.0
 11
2945.0
 21
1743.5
 31
0.0
  0
LINE
  5
65F
330
65B
100
AcDbEntity
  8
寸法
  6
CONTINUOUS
 62
     3
100
AcDbLine
 10
2597.999999821186
 20
2143.5
 30
0.0
 11
2945.0
 21
2143.5
 31
0.0
  0
LINE
  5
660
330
65B
100
AcDbEntity
  8
寸法
  6
CONTINUOUS
 62
     3
100
AcDbLine
 10
2930.0
 20
1788.499996185303
 30
0.0
 11
2930.0
 21
2098.500003814697
 31
0.0
  0
INSERT
  5
661
330
65B
100
AcDbEntity
  8
寸法
 62
     3
100
AcDbBlockReference
  2
EX_NORM
 10
2930.0
 20
1743.5
 30
0.0
 41
44.99999618530273
 42
44.99999618530273
 43
44.99999618530273
 50
270.0
  0
INSERT
  5
662
330
65B
100
AcDbEntity
  8
寸法
 62
     3
100
AcDbBlockReference
  2
EX_NORM
 10
2930.0
 20
2143.5
 30
0.0
 41
44.99999618530273
 42
44.99999618530273
 43
44.99999618530273
 50
90.0
  0
MTEXT
  5
663
330
65B
100
AcDbEntity
  8
寸法
 62
     2
100
AcDbMText
 10
2894.750000089407
 20
1943.5
 30
0.0
 40
59.99999618530273
 41
0.0
 71
     5
 72
     1
  1
400
  7
EXCADDIM1
 11
0.0
 21
1.0
 31
0.0
  0
POINT
  5
664
330
65B
100
AcDbEntity
  8
DEFPOINTS
 62
     0
100
AcDbPoint
 10
2587.5
 20
1743.5
 30
0.0
  0
POINT
  5
665
330
65B
100
AcDbEntity
  8
DEFPOINTS
 62
     0
100
AcDbPoint
 10
2587.5
 20
2143.5
 30
0.0
  0
POINT
  5
666
330
65B
100
AcDbEntity
  8
DEFPOINTS
 62
     0
100
AcDbPoint
 10
2930.0
 20
2143.5
 30
0.0
  0
ENDBLK
  5
65D
330
65B
100
AcDbEntity
  8
0
100
AcDbBlockEnd
  0
BLOCK
  5
669
330
668
100
AcDbEntity
  8
0
100
AcDbBlockBegin
  2
*D41
 70
     1
 10
0.0
 20
0.0
 30
0.0
  3
*D41
  1

  0
LINE
  5
66B
330
668
100
AcDbEntity
  8
寸法
  6
CONTINUOUS
 62
     3
100
AcDbLine
 10
2565.499999821186
 20
898.5
 30
0.0
 11
2945.0
 21
898.4999999999999
 31
0.0
  0
LINE
  5
66C
330
668
100
AcDbEntity
  8
寸法
  6
CONTINUOUS
 62
     3
100
AcDbLine
 10
2597.999999821186
 20
1743.5
 30
0.0
 11
2945.0
 21
1743.5
 31
0.0
  0
LINE
  5
66D
330
668
100
AcDbEntity
  8
寸法
  6
CONTINUOUS
 62
     3
100
AcDbLine
 10
2930.0
 20
943.4999961853026
 30
0.0
 11
2930.0
 21
1698.500003814697
 31
0.0
  0
INSERT
  5
66E
330
668
100
AcDbEntity
  8
寸法
 62
     3
100
AcDbBlockReference
  2
EX_NORM
 10
2930.0
 20
898.4999999999999
 30
0.0
 41
44.99999618530273
 42
44.99999618530273
 43
44.99999618530273
 50
270.0
  0
INSERT
  5
66F
330
668
100
AcDbEntity
  8
寸法
 62
     3
100
AcDbBlockReference
  2
EX_NORM
 10
2930.0
 20
1743.5
 30
0.0
 41
44.99999618530273
 42
44.99999618530273
 43
44.99999618530273
 50
90.0
  0
MTEXT
  5
670
330
668
100
AcDbEntity
  8
寸法
 62
     2
100
AcDbMText
 10
2894.750000089407
 20
1320.999999999999
 30
0.0
 40
59.99999618530273
 41
0.0
 71
     5
 72
     1
  1
845（壁固定）
  7
EXCADDIM1
 11
0.0
 21
1.0
 31
0.0
  0
POINT
  5
671
330
668
100
AcDbEntity
  8
DEFPOINTS
 62
     0
100
AcDbPoint
 10
2555.0
 20
898.5
 30
0.0
  0
POINT
  5
672
330
668
100
AcDbEntity
  8
DEFPOINTS
 62
     0
100
AcDbPoint
 10
2587.5
 20
1743.5
 30
0.0
  0
POINT
  5
673
330
668
100
AcDbEntity
  8
DEFPOINTS
 62
     0
100
AcDbPoint
 10
2930.0
 20
1743.5
 30
0.0
  0
ENDBLK
  5
66A
330
668
100
AcDbEntity
  8
0
100
AcDbBlockEnd
  0
ENDSEC
  0
SECTION
  2
ENTITIES
  0
ARC
  5
A9
330
1F
100
AcDbEntity
  8
0
  6
CONTINUOUS
 62
     3
100
AcDbCircle
 10
84.46121191528124
 20
17.75611012269383
 30
0.0
 40
1.766683515327064
100
AcDbArc
 50
88.77000393305703
 51
128.9068631829044
  0
ARC
  5
AA
330
1F
100
AcDbEntity
  8
0
  6
CONTINUOUS
 62
     3
100
AcDbCircle
 10
84.54142140005392
 20
18.49635349315813
 30
0.0
 40
1.02690407511459
100
AcDbArc
 50
4.148222840814693
 51
92.36000944257292
  0
ARC
  5
AB
330
1F
100
AcDbEntity
  8
0
  6
CONTINUOUS
 62
     3
100
AcDbCircle
 10
130.899372257897
 20
17.18767567274228
 30
0.0
 40
45.35482655865662
100
AcDbArc
 50
178.2526643324597
 51
180.6439560401927
  0
ARC
  5
AC
330
1F
100
AcDbEntity
  8
0
  6
CONTINUOUS
 62
     3
100
AcDbCircle
 10
85.85259856848637
 20
16.67746652122974
 30
0.0
 40
0.305188683107389
100
AcDbArc
 50
179.9117548191414
 51
236.1065985968857
  0
ARC
  5
AD
330
1F
100
AcDbEntity
  8
0
  6
CONTINUOUS
 62
     3
100
AcDbCircle
 10
85.8167794586056
 20
16.69504912083588
 30
0.0
 40
0.30240485913648
100
AcDbArc
 50
243.6191685566582
 51
297.5097757939563
  0
LINE
  5
AE
330
1F
100
AcDbEntity
  8
0
  6
CONTINUOUS
 62
     3
100
AcDbLine
 10
85.956460247351
 20
16.26956156317904
 30
0.0
 11
85.956460247351
 21
16.42683656317904
 31
0.0
  0
LINE
  5
AF
330
1F
100
AcDbEntity
  8
0
  6
CONTINUOUS
 62
     3
100
AcDbLine
 10
85.42523524735104
 20
16.20408656317904
 30
0.0
 11
85.64258524735101
 21
16.20408656317904
 31
0.0
  0
ARC
  5
B0
330
1F
100
AcDbEntity
  8
0
  6
CONTINUOUS
 62
     3
100
AcDbCircle
 10
85.62431759348192
 20
17.05908236165528
 30
0.0
 40
0.856540620020894
100
AcDbArc
 50
271.2220539293239
 51
292.8159509797653
  0
ARC
  5
B1
330
1F
100
AcDbEntity
  8
0
  6
CONTINUOUS
 62
     3
100
AcDbCircle
 10
85.46373602484064
 20
16.6281117987113
 30
0.0
 40
0.425769550620398
100
AcDbArc
 50
217.4081478714985
 51
264.8118660441384
  0
ARC
  5
B2
330
1F
100
AcDbEntity
  8
0
  6
CONTINUOUS
 62
     3
100
AcDbCircle
 10
85.51751427960914
 20
16.65936317608228
 30
0.0
 40
0.487535134009722
100
AcDbArc
 50
187.1167640402297
 51
216.4860549324747
  0
ARC
  5
B3
330
1F
100
AcDbEntity
  8
0
  6
CONTINUOUS
 62
     3
100
AcDbCircle
 10
84.00048913269609
 20
17.48977749599323
 30
0.0
 40
1.364239920103932
100
AcDbArc
 50
275.2158792069686
 51
319.2336424873511
  0
LINE
  5
B4
330
1F
100
AcDbEntity
  8
0
  6
CONTINUOUS
 62
     3
100
AcDbLine
 10
83.85046024735098
 20
16.13118656317905
 30
0.0
 11
84.12451024735105
 21
16.13118656317905
 31
0.0
  0
ARC
  5
B5
330
1F
100
AcDbEntity
  8
0
  6
CONTINUOUS
 62
     3
100
AcDbCircle
 10
83.86363998139358
 20
16.76407217729907
 30
0.0
 40
0.633022832091786
100
AcDbArc
 50
252.3384873625213
 51
268.8069976857606
  0
ARC
  5
B6
330
1F
100
AcDbEntity
  8
0
  6
CONTINUOUS
 62
     3
100
AcDbCircle
 10
83.87998820439486
 20
16.97554828115094
 30
0.0
 40
0.840895657756366
100
AcDbArc
 50
224.289750990011
 51
255.6505938786759
  0
ARC
  5
B7
330
1F
100
AcDbEntity
  8
0
  6
CONTINUOUS
 62
     3
100
AcDbCircle
 10
83.84351200318103
 20
16.93458744915359
 30
0.0
 40
0.78619234712629
100
AcDbArc
 50
185.9586126338419
 51
224.0091989319859
  0
ARC
  5
B8
330
1F
100
AcDbEntity
  8
0
  6
CONTINUOUS
 62
     3
100
AcDbCircle
 10
83.92510885972592
 20
16.97202435890243
 30
0.0
 40
0.871709372588669
100
AcDbArc
 50
164.8589457925044
 51
187.8495628504518
  0
ARC
  5
B9
330
1F
100
AcDbEntity
  8
0
  6
CONTINUOUS
 62
     3
100
AcDbCircle
 10
83.7740824643275
 20
17.05810055843299
 30
0.0
 40
0.704795370557922
100
AcDbArc
 50
129.8344892359069
 51
168.4089447024628
  0
ARC
  5
BA
330
1F
100
AcDbEntity
  8
0
  6
CONTINUOUS
 62
     3
100
AcDbCircle
 10
84.14406006078386
 20
16.59052204825368
 30
0.0
 40
1.30093661698492
100
AcDbArc
 50
102.0988446293839
 51
129.1556705448828
  0
ARC
  5
BB
330
1F
100
AcDbEntity
  8
0
  6
CONTINUOUS
 62
     3
100
AcDbCircle
 10
81.91965967388387
 20
30.40645753117708
 30
0.0
 40
12.69482409370382
100
AcDbArc
 50
278.8438342053764
 51
282.6649181367123
  0
ARC
  5
BC
330
1F
100
AcDbEntity
  8
0
  6
CONTINUOUS
 62
     3
100
AcDbCircle
 10
84.46868917513495
 20
19.05851086031246
 30
0.0
 40
1.064113335272784
100
AcDbArc
 50
282.7195832898965
 51
295.6781112778079
  0
ARC
  5
BD
330
1F
100
AcDbEntity
  8
0
  6
CONTINUOUS
 62
     3
100
AcDbCircle
 10
84.86666823075943
 20
18.25955055846786
 30
0.0
 40
0.172058828228131
100
AcDbArc
 50
291.5204897073511
 51
349.3445900274031
  0
ARC
  5
BE
330
1F
100
AcDbEntity
  8
0
  6
CONTINUOUS
 62
     3
100
AcDbCircle
 10
83.73489740969168
 20
18.38673593717623
 30
0.0
 40
1.310543751018921
100
AcDbArc
 50
353.0315250986587
 51
7.839947970678348
  0
ARC
  5
BF
330
1F
100
AcDbEntity
  8
0
  6
CONTINUOUS
 62
     3
100
AcDbCircle
 10
84.32719280220289
 20
18.52185609495918
 30
0.0
 40
0.707346538626002
100
AcDbArc
 50
3.537639967999379
 51
74.8013566619203
  0
ARC
  5
C0
330
1F
100
AcDbEntity
  8
0
  6
CONTINUOUS
 62
     3
100
AcDbCircle
 10
84.28234963200912
 20
18.18827553855518
 30
0.0
 40
1.04195273466423
100
AcDbArc
 50
77.23143261361693
 51
105.203415964315
  0
ARC
  5
C1
330
1F
100
AcDbEntity
  8
0
  6
CONTINUOUS
 62
     3
100
AcDbCircle
 10
84.21689485105588
 20
18.32333915200382
 30
0.0
 40
0.894881105176719
100
AcDbArc
 50
103.4267945469744
 51
150.3242613737993
  0
LINE
  5
C2
330
1F
100
AcDbEntity
  8
0
  6
CONTINUOUS
 62
     3
100
AcDbLine
 10
83.35163524735106
 20
19.13088656317905
 30
0.0
 11
83.35163524735106
 21
18.76638656317905
 31
0.0
  0
ARC
  5
C3
330
1F
100
AcDbEntity
  8
0
  6
CONTINUOUS
 62
     3
100
AcDbCircle
 10
73.84875432629677
 20
16.66786485265287
 30
0.0
 40
6.967015049800598
100
AcDbArc
 50
353.1274757312911
 51
357.106204490141
  0
ARC
  5
C4
330
1F
100
AcDbEntity
  8
0
  6
CONTINUOUS
 62
     3
100
AcDbCircle
 10
31.36821388631915
 20
19.04641059181337
 30
0.0
 40
49.51400430399008
100
AcDbArc
 50
356.8390243485978
 51
2.971133813187157
  0
ARC
  5
C5
330
1F
100
AcDbEntity
  8
0
  6
CONTINUOUS
 62
     3
100
AcDbCircle
 10
80.04363253898626
 20
16.02851241815413
 30
0.0
 40
0.747769185530633
100
AcDbArc
 50
314.592391474832
 51
344.9374073189123
  0
ARC
  5
C6
330
1F
100
AcDbEntity
  8
0
  6
CONTINUOUS
 62
     3
100
AcDbCircle
 10
79.81783157088044
 20
16.46203582788489
 30
0.0
 40
1.223467000390025
100
AcDbArc
 50
288.1715191042997
 51
307.8537826235693
  0
LINE
  5
C7
330
1F
100
AcDbEntity
  8
0
  6
CONTINUOUS
 62
     3
100
AcDbLine
 10
80.32291024735102
 20
14.92361156317904
 30
0.0
 11
80.19938524735102
 21
15.29958656317904
 31
0.0
  0
ARC
  5
C8
330
1F
100
AcDbEntity
  8
0
  6
CONTINUOUS
 62
     3
100
AcDbCircle
 10
80.04391617269255
 20
17.16666876257886
 30
0.0
 40
2.260341410821362
100
AcDbArc
 50
277.0901027239701
 51
290.9134154817058
  0
ARC
  5
C9
330
1F
100
AcDbEntity
  8
0
  6
CONTINUOUS
 62
     3
100
AcDbCircle
 10
80.37333195288082
 20
16.68827241969331
 30
0.0
 40
1.701394688196115
100
AcDbArc
 50
286.2966123578915
 51
329.973223283839
  0
ARC
  5
CA
330
1F
100
AcDbEntity
  8
0
  6
CONTINUOUS
 62
     3
100
AcDbCircle
 10
79.78335229193218
 20
16.79075080222593
 30
0.0
 40
2.272875263114311
100
AcDbArc
 50
335.1860595856123
 51
1.308075913059364
  0
ARC
  5
CB
330
1F
100
AcDbEntity
  8
0
  6
CONTINUOUS
 62
     3
100
AcDbCircle
 10
146.9886118153694
 20
18.52404084293345
 30
0.0
 40
64.95474244683605
100
AcDbArc
 50
177.2695926307304
 51
181.4833117237826
  0
ARC
  5
CC
330
1F
100
AcDbEntity
  8
0
  6
CONTINUOUS
 62
     3
100
AcDbCircle
 10
81.44344067524872
 20
25.96861293864723
 30
0.0
 40
4.400758833490466
100
AcDbArc
 50
261.7986203004403
 51
278.6803384946418
  0
ARC
  5
CD
330
1F
100
AcDbEntity
  8
0
  6
CONTINUOUS
 62
     3
100
AcDbCircle
 10
83.89491966756331
 20
21.86945104503006
 30
0.0
 40
4.136406814694017
100
AcDbArc
 50
278.4088456599976
 51
286.1851416003176
  0
ARC
  5
CE
330
1F
100
AcDbEntity
  8
0
  6
CONTINUOUS
 62
     3
100
AcDbCircle
 10
84.79096519160305
 20
15.87762586010476
 30
0.0
 40
1.922065786155208
100
AcDbArc
 50
98.71271710191789
 51
115.2874718053599
  0
ARC
  5
CF
330
1F
100
AcDbEntity
  8
0
  6
CONTINUOUS
 62
     3
100
AcDbCircle
 10
84.2413773424044
 20
17.0525120238968
 30
0.0
 40
0.625019433457053
100
AcDbArc
 50
115.7403688633493
 51
172.5491744442191
  0
LINE
  5
D0
330
1F
100
AcDbEntity
  8
0
  6
CONTINUOUS
 62
     3
100
AcDbLine
 10
83.62163524735102
 20
17.13356156317905
 30
0.0
 11
83.62163524735102
 21
16.93781156317904
 31
0.0
  0
ARC
  5
D1
330
1F
100
AcDbEntity
  8
0
  6
CONTINUOUS
 62
     3
100
AcDbCircle
 10
84.20395520891343
 20
16.96905103440281
 30
0.0
 40
0.583157304846997
100
AcDbArc
 50
183.0707787095794
 51
263.4402016072427
  0
LINE
  5
D2
330
1F
100
AcDbEntity
  8
0
  6
CONTINUOUS
 62
     3
100
AcDbLine
 10
84.137335247351
 20
16.38971156317905
 30
0.0
 11
84.31081024735104
 21
16.38971156317905
 31
0.0
  0
ARC
  5
D3
330
1F
100
AcDbEntity
  8
0
  6
CONTINUOUS
 62
     3
100
AcDbCircle
 10
84.1668055816852
 20
17.37280212872707
 30
0.0
 40
0.993581603997916
100
AcDbArc
 50
278.3335103000368
 51
329.1221464187299
  0
ARC
  5
D4
330
1F
100
AcDbEntity
  8
0
  6
CONTINUOUS
 62
     3
100
AcDbCircle
 10
-2243.867183543709
 20
81.22708968930328
 30
0.0
 40
2329.776001260591
100
AcDbArc
 50
358.4169008257799
 51
358.4423418242109
  0
ARC
  5
D5
330
1F
100
AcDbEntity
  8
0
  6
CONTINUOUS
 62
     3
100
AcDbCircle
 10
86.99244647471915
 20
12.24512977854208
 30
0.0
 40
3.968909094418497
100
AcDbArc
 50
85.07099551674689
 51
93.91830029343228
  0
ARC
  5
D6
330
1F
100
AcDbEntity
  8
0
  6
CONTINUOUS
 62
     3
100
AcDbCircle
 10
94.67524446353643
 20
17.08593870352311
 30
0.0
 40
7.395120993114926
100
AcDbArc
 50
179.8977458165987
 51
186.8855675734268
  0
ARC
  5
D7
330
1F
100
AcDbEntity
  8
0
  6
CONTINUOUS
 62
     3
100
AcDbCircle
 10
88.39097589769001
 20
18.20238948480556
 30
0.0
 40
1.108398956318131
100
AcDbArc
 50
134.9787476233347
 51
181.2369872983282
  0
ARC
  5
D8
330
1F
100
AcDbEntity
  8
0
  6
CONTINUOUS
 62
     3
100
AcDbCircle
 10
88.13536012608134
 20
18.31809996481188
 30
0.0
 40
0.851645057047003
100
AcDbArc
 50
42.91644474042847
 51
128.3015542351336
  0
ARC
  5
D9
330
1F
100
AcDbEntity
  8
0
  6
CONTINUOUS
 62
     3
100
AcDbCircle
 10
87.82883271971129
 20
18.2975886216405
 30
0.0
 40
1.107172507744154
100
AcDbArc
 50
359.2495022237244
 51
32.84055016678327
  0
ARC
  5
DA
330
1F
100
AcDbEntity
  8
0
  6
CONTINUOUS
 62
     3
100
AcDbCircle
 10
72.4460924605234
 20
17.47195061224961
 30
0.0
 40
16.50975566668588
100
AcDbArc
 50
355.5862454873798
 51
2.816115806820253
  0
ARC
  5
DB
330
1F
100
AcDbEntity
  8
0
  6
CONTINUOUS
 62
     3
100
AcDbCircle
 10
89.19207274735106
 20
13.05458985265276
 30
0.0
 40
3.159693252126744
100
AcDbArc
 50
84.82155189294139
 51
95.17844810705873
  0
ARC
  5
DC
330
1F
100
AcDbEntity
  8
0
  6
CONTINUOUS
 62
     3
100
AcDbCircle
 10
105.8001220401958
 20
16.98511098081632
 30
0.0
 40
16.34166579853822
100
AcDbArc
 50
176.2131780319488
 51
182.7488833337936
  0
ARC
  5
DD
330
1F
100
AcDbEntity
  8
0
  6
CONTINUOUS
 62
     3
100
AcDbCircle
 10
83.3534946861266
 20
18.22759498154639
 30
0.0
 40
6.142809087866958
100
AcDbArc
 50
358.4775281223095
 51
2.117232414210064
  0
ARC
  5
DE
330
1F
100
AcDbEntity
  8
0
  6
CONTINUOUS
 62
     3
100
AcDbCircle
 10
88.31341382747426
 20
18.45729665794022
 30
0.0
 40
1.17869965146059
100
AcDbArc
 50
359.8658335690532
 51
34.49363429411157
  0
ARC
  5
DF
330
1F
100
AcDbEntity
  8
0
  6
CONTINUOUS
 62
     3
100
AcDbCircle
 10
88.51159924816368
 20
18.58648388140492
 30
0.0
 40
0.94221437555554
100
AcDbArc
 50
34.84393737091607
 51
92.5207065423111
  0
ARC
  5
E0
330
1F
100
AcDbEntity
  8
0
  6
CONTINUOUS
 62
     3
100
AcDbCircle
 10
88.40976936405151
 20
18.187197121611
 30
0.0
 40
1.34194899665726
100
AcDbArc
 50
87.42068310381028
 51
147.4361518966862
  0
ARC
  5
E1
330
1F
100
AcDbEntity
  8
0
  6
CONTINUOUS
 62
     3
100
AcDbCircle
 10
91.04010594798763
 20
19.00229404725551
 30
0.0
 40
3.762465500458181
100
AcDbArc
 50
172.9875214416311
 51
181.4134392789641
  0
ARC
  5
E2
330
1F
100
AcDbEntity
  8
0
  6
CONTINUOUS
 62
     3
100
AcDbCircle
 10
87.00518717263837
 20
20.61650603156984
 30
0.0
 40
1.193349358546016
100
AcDbArc
 50
255.9341994177206
 51
284.5896440601899
  0
ARC
  5
E3
330
1F
100
AcDbEntity
  8
0
  6
CONTINUOUS
 62
     3
100
AcDbCircle
 10
66.34612856074196
 20
17.79381782014245
 30
0.0
 40
20.43697806131072
100
AcDbArc
 50
355.5405243117485
 51
4.673398698656258
  0
LINE
  5
E4
330
1F
100
AcDbEntity
  8
0
  6
CONTINUOUS
 62
     3
100
AcDbLine
 10
87.28283524735102
 20
18.17846156317905
 30
0.0
 11
87.28283524735102
 21
17.09913656317904
 31
0.0
  0
CIRCLE
  5
E5
330
1F
100
AcDbEntity
  8
0
  6
CONTINUOUS
 62
     3
100
AcDbCircle
 10
90.96291007785953
 20
20.65279190216209
 30
0.0
 40
0.357233446676989
  0
ARC
  5
E6
330
1F
100
AcDbEntity
  8
0
  6
CONTINUOUS
 62
     3
100
AcDbCircle
 10
90.94891943430329
 20
20.74776197700576
 30
0.0
 40
1.319228548840207
100
AcDbArc
 50
256.6209501743446
 51
283.9984576255729
  0
ARC
  5
E7
330
1F
100
AcDbEntity
  8
0
  6
CONTINUOUS
 62
     3
100
AcDbCircle
 10
90.97579956773934
 20
9.674241417548298
 30
0.0
 40
6.532859485251088
100
AcDbArc
 50
87.46575055044718
 51
92.90832285102188
  0
ARC
  5
E8
330
1F
100
AcDbEntity
  8
0
  6
CONTINUOUS
 62
     3
100
AcDbCircle
 10
111.5597633919817
 20
17.81324729081888
 30
0.0
 40
20.35906390589
100
AcDbArc
 50
175.3387608397566
 51
184.5428594926176
  0
ARC
  5
E9
330
1F
100
AcDbEntity
  8
0
  6
CONTINUOUS
 62
     3
100
AcDbCircle
 10
68.50336442766468
 20
17.82693516108735
 30
0.0
 40
22.20076085035812
100
AcDbArc
 50
355.7940354718673
 51
4.229650257234378
  0
ARC
  5
EA
330
1F
100
AcDbEntity
  8
0
  6
CONTINUOUS
 62
     3
100
AcDbCircle
 10
125.4988039973074
 20
100.497411563067
 30
0.0
 40
87.02800228963156
100
AcDbArc
 50
248.6422112053103
 51
248.8567777804232
  0
ARC
  5
EB
330
1F
100
AcDbEntity
  8
0
  6
CONTINUOUS
 62
     3
100
AcDbCircle
 10
93.41978695863169
 20
18.51106761706451
 30
0.0
 40
1.010907867592157
100
AcDbArc
 50
67.66151957087348
 51
88.69073168448988
  0
ARC
  5
EC
330
1F
100
AcDbEntity
  8
0
  6
CONTINUOUS
 62
     3
100
AcDbCircle
 10
93.31146911686506
 20
18.20422821280107
 30
0.0
 40
1.319974865367525
100
AcDbArc
 50
92.38301574576484
 51
114.9635286746436
  0
ARC
  5
ED
330
1F
100
AcDbEntity
  8
0
  6
CONTINUOUS
 62
     3
100
AcDbCircle
 10
93.21399364202212
 20
18.51453014444364
 30
0.0
 40
0.99843256030919
100
AcDbArc
 50
117.4083995939977
 51
176.1964688215695
  0
ARC
  5
EE
330
1F
100
AcDbEntity
  8
0
  6
CONTINUOUS
 62
     3
100
AcDbCircle
 10
92.89035125328601
 20
18.41636492418026
 30
0.0
 40
0.669372605905611
100
AcDbArc
 50
181.2393899443581
 51
226.5942921332421
  0
ARC
  5
EF
330
1F
100
AcDbEntity
  8
0
  6
CONTINUOUS
 62
     3
100
AcDbCircle
 10
93.28704013202102
 20
18.81840134349182
 30
0.0
 40
1.234100950779567
100
AcDbArc
 50
226.0402388947521
 51
253.1776672992999
  0
ARC
  5
F0
330
1F
100
AcDbEntity
  8
0
  6
CONTINUOUS
 62
     3
100
AcDbCircle
 10
92.2515075923303
 20
14.78900865097706
 30
0.0
 40
2.927778413972754
100
AcDbArc
 50
63.49050203733571
 51
76.60259219849584
  0
ARC
  5
F1
330
1F
100
AcDbEntity
  8
0
  6
CONTINUOUS
 62
     3
100
AcDbCircle
 10
93.3651591325627
 20
16.99289948775663
 30
0.0
 40
0.458710152219014
100
AcDbArc
 50
6.53892419415897
 51
65.09756080693691
  0
ARC
  5
F2
330
1F
100
AcDbEntity
  8
0
  6
CONTINUOUS
 62
     3
100
AcDbCircle
 10
93.23793644849113
 20
16.96446087099663
 30
0.0
 40
0.594395491876676
100
AcDbArc
 50
270.8867385422408
 51
352.7925382056677
  0
ARC
  5
F3
330
1F
100
AcDbEntity
  8
0
  6
CONTINUOUS
 62
     3
100
AcDbCircle
 10
93.19796910637461
 20
17.26102363119879
 30
0.0
 40
0.898004035462527
100
AcDbArc
 50
207.7689879465537
 51
262.7817283832026
  0
ARC
  5
F4
330
1F
100
AcDbEntity
  8
0
  6
CONTINUOUS
 62
     3
100
AcDbCircle
 10
93.01365921995372
 20
17.87600300153525
 30
0.0
 40
1.75327631578002
100
AcDbArc
 50
241.8829576087176
 51
265.9354096935781
  0
ARC
  5
F5
330
1F
100
AcDbEntity
  8
0
  6
CONTINUOUS
 62
     3
100
AcDbCircle
 10
93.1809975387016
 20
17.26136190460545
 30
0.0
 40
1.134515058180645
100
AcDbArc
 50
271.2948770866743
 51
348.6654156292868
  0
ARC
  5
F6
330
1F
100
AcDbEntity
  8
0
  6
CONTINUOUS
 62
     3
100
AcDbCircle
 10
93.55481588694552
 20
17.24660981874074
 30
0.0
 40
0.746245075729606
100
AcDbArc
 50
6.154262763177246
 51
76.17509904255616
  0
ARC
  5
F7
330
1F
100
AcDbEntity
  8
0
  6
CONTINUOUS
 62
     3
100
AcDbCircle
 10
94.98820537094657
 20
23.18803033846007
 30
0.0
 40
5.36564425851668
100
AcDbArc
 50
249.6420733479936
 51
256.4727051201885
  0
ARC
  5
F8
330
1F
100
AcDbEntity
  8
0
  6
CONTINUOUS
 62
     3
100
AcDbCircle
 10
93.34157219790048
 20
18.82582365109112
 30
0.0
 40
0.703563707337184
100
AcDbArc
 50
210.9501336849607
 51
251.7794729821079
  0
ARC
  5
F9
330
1F
100
AcDbEntity
  8
0
  6
CONTINUOUS
 62
     3
100
AcDbCircle
 10
94.06467274735228
 20
18.93266906317942
 30
0.0
 40
1.4068519372934
100
AcDbArc
 50
193.4375782160214
 51
199.459638038058
  0
ARC
  5
FA
330
1F
100
AcDbEntity
  8
0
  6
CONTINUOUS
 62
     3
100
AcDbCircle
 10
93.23786832263131
 20
18.72118718050417
 30
0.0
 40
0.535613931103931
100
AcDbArc
 50
92.11404364449162
 51
173.4175047026091
  0
ARC
  5
FB
330
1F
100
AcDbEntity
  8
0
  6
CONTINUOUS
 62
     3
100
AcDbCircle
 10
93.27583206530105
 20
18.64872959634165
 30
0.0
 40
0.612586430102253
100
AcDbArc
 50
17.92452211681263
 51
85.16543319077402
  0
LINE
  5
FC
330
1F
100
AcDbEntity
  8
0
  6
CONTINUOUS
 62
     3
100
AcDbLine
 10
93.44288524735104
 20
19.52171156317904
 30
0.0
 11
93.25658524735105
 21
19.52171156317904
 31
0.0
  0
LINE
  5
FD
330
1F
100
AcDbEntity
  8
0
  6
CONTINUOUS
 62
     3
100
AcDbLine
 10
93.08513524735102
 20
16.37013656317904
 30
0.0
 11
93.24713524735107
 21
16.37013656317904
 31
0.0
  0
LINE
  5
FE
330
1F
100
AcDbEntity
  8
0
  6
CONTINUOUS
 62
     3
100
AcDbLine
 10
92.40338524735107
 20
16.84263656317905
 30
0.0
 11
92.315635247351
 21
16.84263656317905
 31
0.0
  0
LINE
  5
FF
330
1F
100
AcDbEntity
  8
0
  6
CONTINUOUS
 62
     3
100
AcDbLine
 10
92.88938524735104
 20
16.12713656317904
 30
0.0
 11
93.206635247351
 21
16.12713656317904
 31
0.0
  0
HATCH
  5
100
330
1F
100
AcDbEntity
  8
0
  6
CONTINUOUS
 62
     3
100
AcDbHatch
 10
0.0
 20
0.0
 30
0.0
210
0.0
220
0.0
230
1.0
  2
SOLID
 70
     1
 71
     1
 91
        1
 92
        3
 72
     1
 73
     1
 93
       10
 10
80.80688524735106
 20
16.31613656317905
 42
-0.017362223501556
 10
80.81566024735103
 20
21.61286156317906
 42
-0.0267627618865285
 10
80.81566024735099
 20
21.61286156317905
 42
0.0737939047395297
 10
82.10761024735102
 20
21.61826156317899
 42
0.0183878899657109
 10
82.05563524735108
 20
16.84263656317904
 42
-0.1144749489451909
 10
81.846385247351
 20
15.83688656317905
 42
-0.1929163439413163
 10
80.85076024735108
 20
15.05523656317905
 42
-0.0603888289562337
 10
80.32291024735102
 20
14.92361156317904
 42
0.0
 10
80.199385247351
 20
15.29958656317904
 42
0.0860918333465722
 10
80.56861024735105
 20
15.49601156317904
 42
0.1331843103855141
 97
        0
 75
     0
 76
     1
 98
        1
 10
0.0
 20
0.0
  0
HATCH
  5
101
330
1F
100
AcDbEntity
  8
0
  6
CONTINUOUS
 62
     3
100
AcDbHatch
 10
0.0
 20
0.0
 30
0.0
210
0.0
220
0.0
230
1.0
  2
SOLID
 70
     1
 71
     1
 91
        1
 92
        3
 72
     1
 73
     1
 93
       16
 10
86.721235247351
 20
16.20476156317904
 42
-0.0386228372648426
 10
86.71516024735102
 20
19.45893656317905
 42
-0.0398707891902887
 10
87.30578524735101
 20
19.46163656317904
 42
-0.1256886216044368
 10
87.27878524735102
 20
18.90948656317905
 42
-0.0367815758121429
 10
87.27878524735104
 20
18.90948656317905
 42
-0.268021535028829
 10
88.47016024735105
 20
19.52778656317905
 42
-0.2571134422124888
 10
89.284885247351
 20
19.12481156317905
 42
-0.1522526366014298
 10
89.49211024735104
 20
18.45453656317904
 42
-0.0158825412051521
 10
89.477260247351
 20
16.20138656317906
 42
-0.0285251271418421
 10
88.90688524735106
 20
16.20138656317905
 42
-0.0452212723224612
 10
88.93591024735102
 20
18.28308656317905
 42
-0.0315567291532142
 10
88.759060247351
 20
18.89801156317904
 42
-0.1476272403790709
 10
87.60751024735103
 20
18.98643656317905
 42
-0.3908144705745794
 10
87.282835247351
 20
18.17846156317905
 42
-0.2046259928850854
 10
87.28283524735102
 20
18.17846156317905
 42
0.0
 10
87.33346024735107
 20
16.19936156317905
 42
-0.0304995761723369
 97
        0
 75
     0
 76
     1
 98
        1
 10
0.0
 20
0.0
  0
HATCH
  5
102
330
1F
100
AcDbEntity
  8
0
  6
CONTINUOUS
 62
     3
100
AcDbHatch
 10
0.0
 20
0.0
 30
0.0
210
0.0
220
0.0
230
1.0
  2
SOLID
 70
     1
 71
     1
 91
        2
 92
        1
 93
        1
 72
     2
 10
90.96291007785953
 20
20.65279190216209
 40
0.3572334466769884
 50
0.0
 51
360.0
 73
     1
 97
        0
 92
        3
 72
     1
 73
     1
 93
        3
 10
90.64366024735101
 20
19.46433656317905
 42
0.1200283885712921
 10
91.26466024735099
 20
16.20071156317903
 42
-0.0401820615762149
 10
90.644335247351
 20
16.19868656317905
 42
-0.0237521668114666
 97
        0
 75
     0
 76
     1
 98
        1
 10
0.0
 20
0.0
  0
LINE
  5
103
330
1F
100
AcDbEntity
  8
0
  6
CONTINUOUS
 62
     3
100
AcDbLine
 10
83.35163524735106
 20
18.76638656317905
 30
0.0
 11
83.43938524735103
 21
18.76638656317905
 31
0.0
  0
ARC
  5
104
330
1F
100
AcDbEntity
  8
0
  6
CONTINUOUS
 62
     3
100
AcDbCircle
 10
91.18779998723542
 20
16.85223482907499
 30
0.0
 40
1.127953740078838
100
AcDbArc
 50
332.3987521421788
 51
359.5124385477116
  0
LINE
  5
105
330
1F
100
AcDbEntity
  8
0
  6
CONTINUOUS
 62
     3
100
AcDbLine
 10
93.82088524735101
 20
17.04513656317904
 30
0.0
 11
93.82763524735105
 21
16.88988656317904
 31
0.0
  0
LINE
  5
106
330
1F
100
AcDbEntity
  8
0
  6
CONTINUOUS
 62
     3
100
AcDbLine
 10
94.29676024735106
 20
17.32661156317905
 30
0.0
 11
94.29338524735098
 21
17.03838656317905
 31
0.0
  0
LINE
  5
107
330
1F
100
AcDbEntity
  8
0
  6
CONTINUOUS
 62
     3
100
AcDbLine
 10
92.70578524735097
 20
18.78258656317905
 30
0.0
 11
92.696335247351
 21
18.60573656317905
 31
0.0
  0
LINE
  5
108
330
1F
100
AcDbEntity
  8
0
  6
CONTINUOUS
 62
     3
100
AcDbLine
 10
92.21776024735101
 20
18.58076156317905
 30
0.0
 11
92.22113524735099
 21
18.40188656318125
 31
0.0
  0
LINE
  5
109
330
1F
100
AcDbEntity
  8
0
  6
CONTINUOUS
 62
     3
100
AcDbLine
 10
93.21811024735099
 20
19.25643656317905
 30
0.0
 11
93.32746024735107
 21
19.25913656317905
 31
0.0
  0
LINE
  5
10A
330
1F
100
AcDbEntity
  8
0
  6
CONTINUOUS
 62
     3
100
AcDbLine
 10
93.85868524735103
 20
18.83726156317904
 30
0.0
 11
93.94406802269916
 21
18.83726156317904
 31
0.0
  0
ARC
  5
10B
330
1F
100
AcDbEntity
  8
0
  6
CONTINUOUS
 62
     3
100
AcDbCircle
 10
95.81860678091309
 20
18.48463160849993
 30
0.0
 40
1.907418003737831
100
AcDbArc
 50
153.7591918158497
 51
169.3462759801917
  0
HATCH
  5
10C
330
1F
100
AcDbEntity
  8
0
  6
CONTINUOUS
 62
     3
100
AcDbHatch
 10
0.0
 20
0.0
 30
0.0
210
0.0
220
0.0
230
1.0
  2
SOLID
 70
     1
 71
     1
 91
        1
 92
        3
 72
     1
 73
     1
 93
       30
 10
94.10776024735095
 20
19.3279865631791
 42
-0.0009362235736497
 10
94.107760247351
 20
19.32798656317904
 42
0.0681165430304653
 10
93.94406802269916
 20
18.83726156317904
 42
0.0
 10
93.32746024735107
 20
19.25913656317905
 42
-0.302112590907374
 10
93.32746024735107
 20
19.25913656317905
 42
0.0
 10
92.705785247351
 20
18.78258656317904
 42
-0.3704245237568778
 10
92.70578524735097
 20
18.78258656317905
 42
0.0
 10
92.73818524735101
 20
18.46398656317905
 42
-0.0262822419456939
 10
93.12158524735104
 20
18.15753656317904
 42
-0.180060563604375
 10
93.73313524735104
 20
17.97123656317904
 42
-0.0298130817160724
 10
93.73313524735102
 20
17.97123656317904
 42
-0.3153987453686078
 10
94.29676024735106
 20
17.32661156317905
 42
0.0
 10
94.29338524735107
 20
17.03838656317905
 42
-0.3510306079065168
 10
93.206635247351
 20
16.12713656317904
 42
0.0
 10
92.88938524735097
 20
16.12713656317905
 42
-0.1053356344842436
 10
92.18738524735103
 20
16.32963656317904
 42
0.1188608286962634
 10
92.315635247351
 20
16.84263656317905
 42
0.0
 10
93.08513524735103
 20
16.37013656317903
 42
-0.2447573632916039
 10
93.08513524735102
 20
16.37013656317904
 42
0.0
 10
93.82763524735105
 20
16.88988656317904
 42
-0.3734162676407277
 10
93.82763524735105
 20
16.88988656317904
 42
0.0
 10
93.55831024735107
 20
17.40896156317904
 42
-0.261219770190848
 10
92.929885247351
 20
17.63711156317905
 42
-0.0572747914118363
 10
92.92988524735108
 20
17.63711156317904
 42
-0.1189658875692221
 10
92.43038524735101
 20
17.93006156317904
 42
-0.2005226878639636
 10
92.22113524735099
 20
18.40188656318125
 42
0.0
 10
92.21776024735104
 20
18.58076156317904
 42
-0.2622894489606957
 10
92.75438524735105
 20
19.40088656317905
 42
-0.0988461274137808
 10
93.25658524735105
 20
19.52171156317904
 42
0.0
 10
93.44288524735099
 20
19.52171156317905
 42
-0.0920156312561188
 97
        0
 75
     0
 76
     1
 98
        1
 10
0.0
 20
0.0
  0
HATCH
  5
10D
330
1F
100
AcDbEntity
  8
0
  6
CONTINUOUS
 62
     3
100
AcDbHatch
 10
0.0
 20
0.0
 30
0.0
210
0.0
220
0.0
230
1.0
  2
SOLID
 70
     1
 71
     1
 91
        2
 92
        3
 72
     1
 73
     1
 93
       27
 10
83.351635247351
 20
19.13088656317904
 42
-0.1769427732109284
 10
83.35163524735106
 20
19.13088656317905
 42
0.0
 10
83.35163524735106
 20
18.76638656317905
 42
0.0
 10
83.43938524735105
 20
18.76638656317904
 42
-0.207533601427307
 10
84.00910095298308
 20
19.19376082471544
 42
-0.1226604740888933
 10
84.51263524735104
 20
19.20446156317904
 42
-0.3213715781137954
 10
85.0331914762469
 20
18.56550237720975
 42
-0.064704004662446
 10
85.03576024735099
 20
18.22773656317904
 42
-0.257798906330806
 10
84.92978524735106
 20
18.09948656317904
 42
-0.056602577721096
 10
84.70298524735104
 20
18.02051156317906
 42
-0.0166741689362636
 10
83.87138524735103
 20
17.86256156317904
 42
0.1186092302783404
 10
83.32261024735105
 20
17.59931156317905
 42
0.1699204224386695
 10
83.08366024735103
 20
17.19971156317905
 42
0.1006533494296199
 10
83.06156734198422
 20
16.85297278438222
 42
0.1675695228968024
 10
83.27806024735108
 20
16.38836156317905
 42
0.1376980079804242
 10
83.671585247351
 20
16.16088656317905
 42
0.0719813663796923
 10
83.85046024735098
 20
16.13118656317905
 42
0.0
 10
84.12451024735105
 20
16.13118656317905
 42
0.1944607457809085
 10
85.03373524735106
 20
16.59896156317904
 42
0.1288538183665954
 10
85.125535247351
 20
16.36946156317904
 42
0.2098387395261546
 10
85.42523524735104
 20
16.20408656317904
 42
0.0
 10
85.64258524735105
 20
16.20273656317905
 42
0.0945009641609563
 10
85.956460247351
 20
16.26956156317904
 42
0.0
 10
85.95646024735099
 20
16.42683656317905
 42
-0.2395739894657535
 10
85.68241024735106
 20
16.42413656317904
 42
-0.2502312110031057
 10
85.547410247351
 20
16.6779365631791
 42
-0.0104343570771765
 10
85.56563524735107
 20
18.57063656317904
 42
0.4051015674140716
 97
        0
 92
        3
 72
     1
 73
     1
 93
        8
 10
85.04791024735104
 20
17.89698656317904
 42
-0.0339435190873666
 10
85.04791024735187
 20
17.89698656317791
 42
-0.0001110072973599
 10
85.01956024735107
 20
16.86288656317904
 42
-0.2253076310552528
 10
84.31081024735104
 20
16.38971156317905
 42
0.0
 10
84.13733524735099
 20
16.38971156317905
 42
-0.3657967558150132
 10
83.62163524735102
 20
16.93781156317904
 42
0.0
 10
83.62163524735107
 20
17.13356156317905
 42
-0.2530797830369341
 10
83.96993524735103
 20
17.61551156317904
 42
-0.0724473624720066
 97
        0
 75
     0
 76
     1
 98
        1
 10
0.0
 20
0.0
  0
TEXT
  5
10F
330
1F
100
AcDbEntity
  8
0
  6
CONTINUOUS
 62
     2
100
AcDbText
 10
95.69999999999024
 20
15.8
 30
0.0
 40
3.0
  1
ジャニス工業株式会社
 41
1.025641025641026
  7
EXCADTTF1
 72
     5
 11
135.6999999999902
 21
15.8
 31
0.0
100
AcDbText
  0
LINE
  5
110
330
1F
100
AcDbEntity
  8
枠_表
  6
CONTINUOUS
 62
     7
100
AcDbLine
 10
270.0000000000007
 20
202.5
 30
0.0
 11
2999.999999999996
 21
202.5
 31
0.0
  0
LINE
  5
111
330
1F
100
AcDbEntity
  8
枠_表
  6
CONTINUOUS
 62
     7
100
AcDbLine
 10
270.0000000000007
 20
4327.5
 30
0.0
 11
2999.999999999996
 21
4327.5
 31
0.0
  0
LINE
  5
112
330
1F
100
AcDbEntity
  8
枠_表
  6
CONTINUOUS
 62
     7
100
AcDbLine
 10
270.0000000000007
 20
532.5
 30
0.0
 11
2999.999999999996
 21
532.5
 31
0.0
  0
LINE
  5
113
330
1F
100
AcDbEntity
  8
枠_表
  6
CONTINUOUS
 62
     6
100
AcDbLine
 10
2999.999999999996
 20
352.5
 30
0.0
 11
1124.999999999994
 21
352.5
 31
0.0
  0
LINE
  5
114
330
1F
100
AcDbEntity
  8
枠_表
  6
CONTINUOUS
 62
     6
100
AcDbLine
 10
2789.999999999997
 20
532.5
 30
0.0
 11
2789.999999999997
 21
352.5
 31
0.0
  0
LINE
  5
115
330
1F
100
AcDbEntity
  8
枠_表
  6
CONTINUOUS
 62
     6
100
AcDbLine
 10
2714.999999999997
 20
532.5
 30
0.0
 11
2714.999999999997
 21
352.5
 31
0.0
  0
LINE
  5
116
330
1F
100
AcDbEntity
  8
枠_表
  6
CONTINUOUS
 62
     6
100
AcDbLine
 10
2159.999999999995
 20
532.5
 30
0.0
 11
2159.999999999995
 21
202.5
 31
0.0
  0
LINE
  5
117
330
1F
100
AcDbEntity
  8
枠_表
  6
CONTINUOUS
 62
     6
100
AcDbLine
 10
2084.999999999995
 20
532.5
 30
0.0
 11
2084.999999999995
 21
202.5
 31
0.0
  0
LINE
  5
118
330
1F
100
AcDbEntity
  8
枠_表
  6
CONTINUOUS
 62
     6
100
AcDbLine
 10
1199.999999999994
 20
532.5
 30
0.0
 11
1199.999999999994
 21
352.5
 31
0.0
  0
LINE
  5
119
330
1F
100
AcDbEntity
  8
枠_表
  6
CONTINUOUS
 62
     6
100
AcDbLine
 10
1124.999999999994
 20
532.5
 30
0.0
 11
1124.999999999994
 21
202.5
 31
0.0
  0
LINE
  5
11A
330
1F
100
AcDbEntity
  8
枠_表
  6
CONTINUOUS
 62
     6
100
AcDbLine
 10
929.999999999998
 20
532.5
 30
0.0
 11
929.999999999998
 21
202.5
 31
0.0
  0
LINE
  5
11B
330
1F
100
AcDbEntity
  8
枠_表
  6
CONTINUOUS
 62
     6
100
AcDbLine
 10
734.999999999998
 20
532.5
 30
0.0
 11
734.999999999998
 21
202.5
 31
0.0
  0
LINE
  5
11C
330
1F
100
AcDbEntity
  8
枠_表
  6
CONTINUOUS
 62
     6
100
AcDbLine
 10
502.4999999999989
 20
532.5
 30
0.0
 11
502.4999999999989
 21
202.5
 31
0.0
  0
LINE
  5
11D
330
1F
100
AcDbEntity
  8
枠_表
  6
CONTINUOUS
 62
     6
100
AcDbLine
 10
270.0000000000007
 20
457.5
 30
0.0
 11
1124.999999999994
 21
457.5
 31
0.0
  0
LINE
  5
11E
330
1F
100
AcDbEntity
  8
枠_表
  6
CONTINUOUS
 62
     6
100
AcDbLine
 10
2838.980712899998
 20
387.0043945499997
 30
0.0
 11
2954.990844749997
 21
505.0497436500009
 31
0.0
  0
CIRCLE
  5
11F
330
1F
100
AcDbEntity
  8
枠_表
  6
CONTINUOUS
 62
     6
100
AcDbCircle
 10
577.4999999999989
 20
240.0
 30
0.0
 40
1.5000003
  0
CIRCLE
  5
120
330
1F
100
AcDbEntity
  8
枠_表
  6
CONTINUOUS
 62
     6
100
AcDbCircle
 10
652.4999999999989
 20
240.0
 30
0.0
 40
1.5000003
  0
LINE
  5
121
330
1F
100
AcDbEntity
  8
枠_表
  6
EXLTYPE2
 62
     6
100
AcDbLine
 10
270.0000000000007
 20
277.5
 30
0.0
 11
734.999999999998
 21
277.5
 31
0.0
  0
TEXT
  5
122
330
1F
100
AcDbEntity
  8
枠_表
  6
CONTINUOUS
 62
     2
100
AcDbText
 10
2835.805664099997
 20
454.0841674500002
 30
0.0
 40
44.99999618530273
  1
１
 41
1.101333426694527
  7
EXCADSTD
 72
     5
 11
2871.205664099997
 21
454.0841674500002
 31
0.0
100
AcDbText
  0
TEXT
  5
123
330
1F
100
AcDbEntity
  8
枠_表
  6
CONTINUOUS
 62
     2
100
AcDbText
 10
2896.918945349997
 20
387.5232695999989
 30
0.0
 40
44.99999618530273
  1
１５
 41
1.098531308335248
  7
EXCADSTD
 72
     5
 11
2974.600795568531
 21
387.5232695999989
 31
0.0
100
AcDbText
  0
TEXT
  5
124
330
1F
100
AcDbEntity
  8
枠_表
  6
CONTINUOUS
 62
     2
100
AcDbText
 10
303.7500000000007
 20
463.1250019073486
 30
0.0
 40
63.74999618530273
  1
製図
 41
1.509694103275157
  7
EXCADSTD
 72
     5
 11
454.9889895103462
 21
463.1250019073486
 31
0.0
100
AcDbText
  0
TEXT
  5
125
330
1F
100
AcDbEntity
  8
枠_表
  6
CONTINUOUS
 62
     2
100
AcDbText
 10
536.2499999999989
 20
463.1250019073486
 30
0.0
 40
63.74999618530273
  1
写図
 41
1.509694103275156
  7
EXCADSTD
 72
     5
 11
687.4889895103443
 21
463.1250019073486
 31
0.0
100
AcDbText
  0
TEXT
  5
126
330
1F
100
AcDbEntity
  8
枠_表
  6
CONTINUOUS
 62
     2
100
AcDbText
 10
761.2499991059283
 20
463.1250019073486
 30
0.0
 40
63.74999618530273
  1
検図
 41
1.303826754906227
  7
EXCADSTD
 72
     5
 11
891.8654929869631
 21
463.1250019073486
 31
0.0
100
AcDbText
  0
TEXT
  5
127
330
1F
100
AcDbEntity
  8
枠_表
  6
CONTINUOUS
 62
     2
100
AcDbText
 10
956.2499991059246
 20
463.1250019073486
 30
0.0
 40
63.74999618530273
  1
承認
 41
1.303826754906227
  7
EXCADSTD
 72
     5
 11
1086.865492986959
 21
463.1250019073486
 31
0.0
100
AcDbText
  0
TEXT
  5
128
330
1F
100
AcDbEntity
  8
枠_表
  6
CONTINUOUS
 62
     2
100
AcDbText
 10
1133.624999999995
 20
448.1250019073486
 30
0.0
 40
63.74999618530273
  1
品
 41
1.119999999999999
  7
EXCADSTD
 72
     5
 11
1184.624996948237
 21
448.1250019073486
 31
0.0
100
AcDbText
  0
TEXT
  5
129
330
1F
100
AcDbEntity
  8
枠_表
  6
CONTINUOUS
 62
     2
100
AcDbText
 10
1133.624999999995
 20
373.1250019073486
 30
0.0
 40
63.74999618530273
  1
名
 41
1.119999999999999
  7
EXCADSTD
 72
     5
 11
1184.624996948237
 21
373.1250019073486
 31
0.0
100
AcDbText
  0
TEXT
  5
12A
330
1F
100
AcDbEntity
  8
枠_表
  6
CONTINUOUS
 62
     2
100
AcDbText
 10
2093.624999999994
 20
448.1250019073486
 30
0.0
 40
63.74999618530273
  1
品
 41
1.120000000000004
  7
EXCADSTD
 72
     5
 11
2144.624996948236
 21
448.1250019073486
 31
0.0
100
AcDbText
  0
TEXT
  5
12B
330
1F
100
AcDbEntity
  8
枠_表
  6
CONTINUOUS
 62
     2
100
AcDbText
 10
2093.624999999994
 20
373.1250019073486
 30
0.0
 40
63.74999618530273
  1
番
 41
1.120000000000004
  7
EXCADSTD
 72
     5
 11
2144.624996948236
 21
373.1250019073486
 31
0.0
100
AcDbText
  0
TEXT
  5
12C
330
1F
100
AcDbEntity
  8
枠_表
  6
CONTINUOUS
 62
     2
100
AcDbText
 10
2725.124999999998
 20
448.1250019073486
 30
0.0
 40
63.74999618530273
  1
尺
 41
1.120000000000004
  7
EXCADSTD
 72
     5
 11
2776.124996948241
 21
448.1250019073486
 31
0.0
100
AcDbText
  0
TEXT
  5
12D
330
1F
100
AcDbEntity
  8
枠_表
  6
CONTINUOUS
 62
     2
100
AcDbText
 10
2725.124999999998
 20
373.1250019073486
 30
0.0
 40
63.74999618530273
  1
度
 41
1.120000000000004
  7
EXCADSTD
 72
     5
 11
2776.124996948241
 21
373.1250019073486
 31
0.0
100
AcDbText
  0
TEXT
  5
12E
330
1F
100
AcDbEntity
  8
枠_表
  6
CONTINUOUS
 62
     2
100
AcDbText
 10
2093.624999999994
 20
278.6250019073495
 30
0.0
 40
63.74999618530273
  1
図
 41
1.120000000000004
  7
EXCADSTD
 72
     5
 11
2144.624996948236
 21
278.6250019073495
 31
0.0
100
AcDbText
  0
TEXT
  5
12F
330
1F
100
AcDbEntity
  8
枠_表
  6
CONTINUOUS
 62
     2
100
AcDbText
 10
2093.624999999994
 20
214.1250019073482
 30
0.0
 40
63.74999618530273
  1
番
 41
1.120000000000004
  7
EXCADSTD
 72
     5
 11
2144.624996948236
 21
214.1250019073482
 31
0.0
100
AcDbText
  0
TEXT
  5
130
330
1F
100
AcDbEntity
  8
枠_表
  6
CONTINUOUS
 62
     2
100
AcDbText
 10
1214.999999999994
 20
442.5
 30
0.0
 40
74.99999237060547
  1
750㎜幅
 41
0.8693548467492553
  7
EXCADSTD
 72
     5
 11
1503.749973297113
 21
442.5
 31
0.0
100
AcDbText
  0
TEXT
  5
131
330
1F
100
AcDbEntity
  8
枠_表
  6
CONTINUOUS
 62
     2
100
AcDbText
 10
1214.999999999994
 20
367.5000076293945
 30
0.0
 40
74.99999237060547
  1
　洗面化粧ユニット
 41
1.307547181903193
  7
EXCADSTD
 72
     5
 11
1957.499931335444
 21
367.5000076293945
 31
0.0
100
AcDbText
  0
TEXT
  5
132
330
1F
100
AcDbEntity
  8
枠_表
  6
CONTINUOUS
 62
     2
100
AcDbText
 10
1844.999999999992
 20
4211.250001907349
 30
0.0
 40
59.99999618530273
  1
品番
 41
2.041518237445141
  7
EXCADSTD
 72
     5
 11
2037.485993006889
 21
4211.250001907349
 31
0.0
100
AcDbText
  0
TEXT
  5
133
330
1F
100
AcDbEntity
  8
枠_表
  6
CONTINUOUS
 62
     2
100
AcDbText
 10
2294.999999999999
 20
4211.250001907349
 30
0.0
 40
59.99999618530273
  1
品名
 41
2.041518237445141
  7
EXCADSTD
 72
     5
 11
2487.485993006896
 21
4211.250001907349
 31
0.0
100
AcDbText
  0
TEXT
  5
134
330
1F
100
AcDbEntity
  8
枠_表
  6
CONTINUOUS
 62
     2
100
AcDbText
 10
1739.999999999992
 20
3798.750001907345
 30
0.0
 40
59.99999618530273
  1
止水栓手配品番（アングル形の場合）
 41
0.9564356294638249
  7
EXCADSTD
 72
     5
 11
2567.999935150139
 21
3798.750001907345
 31
0.0
100
AcDbText
  0
TEXT
  5
135
330
1F
100
AcDbEntity
  8
枠_表
  6
CONTINUOUS
 62
     2
100
AcDbText
 10
1739.999999999991
 20
3716.250001907345
 30
0.0
 40
59.99999618530273
  1
ＮＬ２２１-７５ＷＭＹ
 41
0.6620690076104557
  7
EXCADSTD
 72
     5
 11
2123.999999999991
 21
3716.250001907345
 31
0.0
100
AcDbText
  0
LINE
  5
136
330
1F
100
AcDbEntity
  8
枠_表
  6
CONTINUOUS
 62
     6
100
AcDbLine
 10
1724.999999999991
 20
3869.999999999998
 30
0.0
 11
1724.999999999991
 21
4282.5
 31
0.0
  0
LINE
  5
137
330
1F
100
AcDbEntity
  8
枠_表
  6
CONTINUOUS
 62
     6
100
AcDbLine
 10
2174.999999999994
 20
3869.999999999998
 30
0.0
 11
2174.999999999994
 21
4282.5
 31
0.0
  0
TEXT
  5
138
330
1F
100
AcDbEntity
  8
枠_表
  6
CONTINUOUS
 62
     2
100
AcDbText
 10
2816.250000000001
 20
3922.500001907349
 30
0.0
 40
59.99999618530273
  1
１
 41
1.260000080108648
  7
EXCADSTD
 72
     5
 11
2870.250000000001
 21
3922.500001907349
 31
0.0
100
AcDbText
  0
LINE
  5
139
330
1F
100
AcDbEntity
  8
枠_表
  6
CONTINUOUS
 62
     6
100
AcDbLine
 10
1724.999999999991
 20
3952.499999999998
 30
0.0
 11
2774.999999999999
 21
3952.499999999998
 31
0.0
  0
LINE
  5
13A
330
1F
100
AcDbEntity
  8
枠_表
  6
CONTINUOUS
 62
     6
100
AcDbLine
 10
2925.000000000001
 20
3869.999999999998
 30
0.0
 11
2925.000000000001
 21
4282.5
 31
0.0
  0
LINE
  5
13B
330
1F
100
AcDbEntity
  8
枠_表
  6
CONTINUOUS
 62
     6
100
AcDbLine
 10
2775.000000000001
 20
3869.999999999998
 30
0.0
 11
2775.000000000001
 21
4282.5
 31
0.0
  0
LINE
  5
13C
330
1F
100
AcDbEntity
  8
枠_表
  6
CONTINUOUS
 62
     6
100
AcDbLine
 10
1724.999999999991
 20
3869.999999999998
 30
0.0
 11
2925.000000000001
 21
3869.999999999998
 31
0.0
  0
TEXT
  5
13D
330
1F
100
AcDbEntity
  8
枠_表
  6
CONTINUOUS
 62
     2
100
AcDbText
 10
2816.250000000001
 20
3716.250001907345
 30
0.0
 40
59.99999618530273
  1
２
 41
1.260000080108648
  7
EXCADSTD
 72
     5
 11
2870.250000000001
 21
3716.250001907345
 31
0.0
100
AcDbText
  0
LINE
  5
13E
330
1F
100
AcDbEntity
  8
枠_表
  6
CONTINUOUS
 62
     6
100
AcDbLine
 10
1724.999999999991
 20
3704.999999999996
 30
0.0
 11
2925.000000000001
 21
3704.999999999996
 31
0.0
  0
LINE
  5
13F
330
1F
100
AcDbEntity
  8
枠_表
  6
CONTINUOUS
 62
     6
100
AcDbLine
 10
1724.999999999991
 20
3787.499999999996
 30
0.0
 11
2925.000000000001
 21
3787.499999999996
 31
0.0
  0
LINE
  5
140
330
1F
100
AcDbEntity
  8
枠_表
  6
CONTINUOUS
 62
     6
100
AcDbLine
 10
1724.999999999991
 20
4035.0
 30
0.0
 11
2925.000000000001
 21
4035.0
 31
0.0
  0
TEXT
  5
141
330
1F
100
AcDbEntity
  8
枠_表
  6
CONTINUOUS
 62
     2
100
AcDbText
 10
2816.250000000001
 20
4087.500001907349
 30
0.0
 40
59.99999618530273
  1
１
 41
1.260000080108648
  7
EXCADSTD
 72
     5
 11
2870.250000000001
 21
4087.500001907349
 31
0.0
100
AcDbText
  0
LINE
  5
142
330
1F
100
AcDbEntity
  8
枠_表
  6
CONTINUOUS
 62
     6
100
AcDbLine
 10
1724.999999999991
 20
4117.5
 30
0.0
 11
2775.000000000001
 21
4117.5
 31
0.0
  0
TEXT
  5
143
330
1F
100
AcDbEntity
  8
枠_表
  6
CONTINUOUS
 62
     2
100
AcDbText
 10
2788.500000536443
 20
4211.250001907349
 30
0.0
 40
59.99999618530273
  1
個数
 41
1.195746439659873
  7
EXCADSTD
 72
     5
 11
2901.241800536442
 21
4211.250001907349
 31
0.0
100
AcDbText
  0
LINE
  5
144
330
1F
100
AcDbEntity
  8
枠_表
  6
CONTINUOUS
 62
     6
100
AcDbLine
 10
1724.999999999991
 20
4200.0
 30
0.0
 11
2925.000000000001
 21
4200.0
 31
0.0
  0
LINE
  5
145
330
1F
100
AcDbEntity
  8
枠_表
  6
CONTINUOUS
 62
     6
100
AcDbLine
 10
1724.999999999991
 20
4282.5
 30
0.0
 11
2925.000000000001
 21
4282.5
 31
0.0
  0
TEXT
  5
146
330
1F
100
AcDbEntity
  8
枠_表
  6
CONTINUOUS
 62
     2
100
AcDbText
 10
1739.999999999992
 20
3551.250001907345
 30
0.0
 40
59.99999618530273
  1
止水栓手配品番（ストレート形の場合）
 41
0.9551401727741748
  7
EXCADSTD
 72
     5
 11
2615.999931335442
 21
3551.250001907345
 31
0.0
100
AcDbText
  0
TEXT
  5
147
330
1F
100
AcDbEntity
  8
枠_表
  6
CONTINUOUS
 62
     2
100
AcDbText
 10
1739.999999999991
 20
3468.750001907345
 30
0.0
 40
59.99999618530273
  1
ＮＬ２１１-３３０ＷＭＹ
 41
0.6924773501163143
  7
EXCADSTD
 72
     5
 11
2177.249956130972
 21
3468.750001907345
 31
0.0
100
AcDbText
  0
TEXT
  5
148
330
1F
100
AcDbEntity
  8
枠_表
  6
CONTINUOUS
 62
     2
100
AcDbText
 10
2816.250000000001
 20
3468.750001907345
 30
0.0
 40
59.99999618530273
  1
２
 41
1.260000080108648
  7
EXCADSTD
 72
     5
 11
2870.250000000001
 21
3468.750001907345
 31
0.0
100
AcDbText
  0
LINE
  5
149
330
1F
100
AcDbEntity
  8
枠_表
  6
CONTINUOUS
 62
     6
100
AcDbLine
 10
1724.999999999991
 20
3457.499999999996
 30
0.0
 11
2925.000000000001
 21
3457.499999999996
 31
0.0
  0
LINE
  5
14A
330
1F
100
AcDbEntity
  8
枠_表
  6
CONTINUOUS
 62
     6
100
AcDbLine
 10
1724.999999999991
 20
3539.999999999996
 30
0.0
 11
2925.000000000001
 21
3539.999999999996
 31
0.0
  0
LINE
  5
14B
330
1F
100
AcDbEntity
  8
枠_表
  6
CONTINUOUS
 62
     6
100
AcDbLine
 10
1724.999999999991
 20
3622.499999999996
 30
0.0
 11
2925.000000000001
 21
3622.499999999996
 31
0.0
  0
LINE
  5
14C
330
1F
100
AcDbEntity
  8
枠_表
  6
CONTINUOUS
 62
     6
100
AcDbLine
 10
1724.999999999991
 20
3374.999999999996
 30
0.0
 11
2925.000000000001
 21
3374.999999999996
 31
0.0
  0
LINE
  5
14D
330
1F
100
AcDbEntity
  8
枠_表
  6
CONTINUOUS
 62
     6
100
AcDbLine
 10
1724.999999999991
 20
3622.499999999996
 30
0.0
 11
1724.999999999991
 21
3787.499999999996
 31
0.0
  0
LINE
  5
14E
330
1F
100
AcDbEntity
  8
枠_表
  6
CONTINUOUS
 62
     6
100
AcDbLine
 10
2174.999999999994
 20
3622.499999999996
 30
0.0
 11
2174.999999999994
 21
3787.499999999996
 31
0.0
  0
LINE
  5
14F
330
1F
100
AcDbEntity
  8
枠_表
  6
CONTINUOUS
 62
     6
100
AcDbLine
 10
2775.000000000001
 20
3622.499999999996
 30
0.0
 11
2775.000000000001
 21
3787.499999999996
 31
0.0
  0
LINE
  5
150
330
1F
100
AcDbEntity
  8
枠_表
  6
CONTINUOUS
 62
     6
100
AcDbLine
 10
2925.000000000001
 20
3622.499999999996
 30
0.0
 11
2925.000000000001
 21
3787.499999999996
 31
0.0
  0
LINE
  5
151
330
1F
100
AcDbEntity
  8
枠_表
  6
CONTINUOUS
 62
     6
100
AcDbLine
 10
2925.000000000001
 20
3374.999999999996
 30
0.0
 11
2925.000000000001
 21
3539.999999999996
 31
0.0
  0
LINE
  5
152
330
1F
100
AcDbEntity
  8
枠_表
  6
CONTINUOUS
 62
     6
100
AcDbLine
 10
2775.000000000001
 20
3374.999999999996
 30
0.0
 11
2775.000000000001
 21
3539.999999999996
 31
0.0
  0
LINE
  5
153
330
1F
100
AcDbEntity
  8
枠_表
  6
CONTINUOUS
 62
     6
100
AcDbLine
 10
2174.999999999994
 20
3374.999999999996
 30
0.0
 11
2174.999999999994
 21
3539.999999999996
 31
0.0
  0
LINE
  5
154
330
1F
100
AcDbEntity
  8
枠_表
  6
CONTINUOUS
 62
     6
100
AcDbLine
 10
1724.999999999991
 20
3374.999999999996
 30
0.0
 11
1724.999999999991
 21
3539.999999999996
 31
0.0
  0
TEXT
  5
155
330
1F
100
AcDbEntity
  8
枠_表
  6
CONTINUOUS
 62
     2
100
AcDbText
 10
1739.999999999989
 20
3386.250001907345
 30
0.0
 40
59.99999618530273
  1
ＮＬ３０Ｓ４０
 41
0.7512195599563753
  7
EXCADSTD
 72
     5
 11
2003.999999999989
 21
3386.250001907345
 31
0.0
100
AcDbText
  0
TEXT
  5
156
330
1F
100
AcDbEntity
  8
枠_表
  6
CONTINUOUS
 62
     2
100
AcDbText
 10
2816.249999999997
 20
3386.250001907345
 30
0.0
 40
59.99999618530273
  1
２
 41
1.260000080108648
  7
EXCADSTD
 72
     5
 11
2870.249999999997
 21
3386.250001907345
 31
0.0
100
AcDbText
  0
TEXT
  5
157
330
1F
100
AcDbEntity
  8
枠_表
  6
CONTINUOUS
 62
     2
100
AcDbText
 10
1739.999999999989
 20
3633.750001907345
 30
0.0
 40
59.99999618530273
  1
ＮＬ３０Ｓ４０
 41
0.7512195599563753
  7
EXCADSTD
 72
     5
 11
2003.999999999989
 21
3633.750001907345
 31
0.0
100
AcDbText
  0
TEXT
  5
158
330
1F
100
AcDbEntity
  8
枠_表
  6
CONTINUOUS
 62
     2
100
AcDbText
 10
2816.249999999997
 20
3633.750001907345
 30
0.0
 40
59.99999618530273
  1
２
 41
1.260000080108648
  7
EXCADSTD
 72
     5
 11
2870.249999999997
 21
3633.750001907345
 31
0.0
100
AcDbText
  0
TEXT
  5
159
330
1F
100
AcDbEntity
  8
枠_表
  6
CONTINUOUS
 62
     2
100
AcDbText
 10
2189.999999999994
 20
4128.750001907349
 30
0.0
 40
59.99999618530273
  1
洗面化粧台
 41
1.164655246460579
  7
EXCADSTD
 72
     5
 11
2479.499999999994
 21
4128.750001907349
 31
0.0
100
AcDbText
  0
TEXT
  5
15A
330
1F
100
AcDbEntity
  8
枠_表
  6
CONTINUOUS
 62
     2
100
AcDbText
 10
2191.499999999996
 20
4046.250001907349
 30
0.0
 40
59.99999618530273
  1
洗面化粧台・寒冷地
 41
1.099528405381455
  7
EXCADSTD
 72
     5
 11
2691.000015258785
 21
4046.250001907349
 31
0.0
100
AcDbText
  0
TEXT
  5
15B
330
1F
100
AcDbEntity
  8
枠_表
  6
CONTINUOUS
 62
     2
100
AcDbText
 10
2189.999999999994
 20
3881.250001907347
 30
0.0
 40
59.99999618530273
  1
化粧鏡台
 41
1.186956597203799
  7
EXCADSTD
 72
     5
 11
2423.999999999994
 21
3881.250001907347
 31
0.0
100
AcDbText
  0
TEXT
  5
15C
330
1F
100
AcDbEntity
  8
枠_表
  6
CONTINUOUS
 62
     2
100
AcDbText
 10
2189.999999999997
 20
3716.250001907345
 30
0.0
 40
59.99999618530273
  1
アングル形止水栓（共用形）
 41
0.8159090676452161
  7
EXCADSTD
 72
     5
 11
2728.499950408933
 21
3716.250001907345
 31
0.0
100
AcDbText
  0
TEXT
  5
15D
330
1F
100
AcDbEntity
  8
枠_表
  6
CONTINUOUS
 62
     2
100
AcDbText
 10
2189.999999999994
 20
3633.750001907345
 30
0.0
 40
59.99999618530273
  1
フレキシブルパイプ
 41
0.8287735620234734
  7
EXCADSTD
 72
     5
 11
2566.499965667718
 21
3633.750001907345
 31
0.0
100
AcDbText
  0
TEXT
  5
15E
330
1F
100
AcDbEntity
  8
枠_表
  6
CONTINUOUS
 62
     2
100
AcDbText
 10
2189.999999999997
 20
3468.750001907345
 30
0.0
 40
59.99999618530273
  1
ストレート形止水栓（共用形）
 41
0.7590361351947703
  7
EXCADSTD
 72
     5
 11
2729.999958992002
 21
3468.750001907345
 31
0.0
100
AcDbText
  0
TEXT
  5
15F
330
1F
100
AcDbEntity
  8
枠_表
  6
CONTINUOUS
 62
     2
100
AcDbText
 10
2189.999999999994
 20
3386.250001907345
 30
0.0
 40
59.99999618530273
  1
フレキシブルパイプ
 41
0.8287735620234734
  7
EXCADSTD
 72
     5
 11
2566.499965667718
 21
3386.250001907345
 31
0.0
100
AcDbText
  0
CIRCLE
  5
160
330
1F
100
AcDbEntity
  8
枠_表
  6
CONTINUOUS
 62
     6
100
AcDbCircle
 10
344.9999999999962
 20
240.0
 30
0.0
 40
1.5000003
  0
CIRCLE
  5
161
330
1F
100
AcDbEntity
  8
枠_表
  6
CONTINUOUS
 62
     6
100
AcDbCircle
 10
419.9999999999962
 20
240.0
 30
0.0
 40
1.5000003
  0
LINE
  5
162
330
1F
100
AcDbEntity
  8
枠_表
  6
CONTINUOUS
 62
     7
100
AcDbLine
 10
2999.999999999996
 20
202.5
 30
0.0
 11
2999.999999999996
 21
4327.5
 31
0.0
  0
LINE
  5
163
330
1F
100
AcDbEntity
  8
枠_表
  6
CONTINUOUS
 62
     7
100
AcDbLine
 10
270.0000000000007
 20
202.5
 30
0.0
 11
270.0000000000007
 21
4327.5
 31
0.0
  0
LINE
  5
164
330
1F
100
AcDbEntity
  8
枠_表
  6
EXLTYPE2
 62
     6
100
AcDbLine
 10
270.0
 20
2265.0
 30
0.0
 11
-15.0
 21
2265.0
 31
0.0
  0
TEXT
  5
165
330
1F
100
AcDbEntity
  8
枠_表
  6
CONTINUOUS
 62
     2
100
AcDbText
 10
1739.999999999992
 20
3963.750001907347
 30
0.0
 40
59.99999618530273
  1
ＬＵＭ７５１０ＳＬＨ
 41
0.735593267106744
  7
EXCADSTD
 72
     5
 11
2111.999999999993
 21
3963.750001907347
 31
0.0
100
AcDbText
  0
TEXT
  5
166
330
1F
100
AcDbEntity
  8
枠_表
  6
CONTINUOUS
 62
     2
100
AcDbText
 10
1739.999999999992
 20
3881.250001907347
 30
0.0
 40
59.99999618530273
  1
ＬＵＭ７５１０ＳＬＮ
 41
0.735593267106744
  7
EXCADSTD
 72
     5
 11
2111.999999999993
 21
3881.250001907347
 31
0.0
100
AcDbText
  0
TEXT
  5
167
330
1F
100
AcDbEntity
  8
枠_表
  6
CONTINUOUS
 62
     2
100
AcDbText
 10
311.2499999999939
 20
330.0000038146973
 30
0.0
 40
74.99999237060547
  1
亀井
 41
1.224910918732916
  7
EXCADSTD
 72
     5
 11
455.6144864508568
 21
330.0000038146973
 31
0.0
100
AcDbText
  0
TEXT
  5
168
330
1F
100
AcDbEntity
  8
枠_表
  6
CONTINUOUS
 62
     2
100
AcDbText
 10
276.7499998499987
 20
210.0000019073486
 30
0.0
 40
59.99999618530273
  1
28
 41
0.4540540865305332
  7
EXCADSTD
 72
     5
 11
324.7500002314684
 21
210.0000019073486
 31
0.0
100
AcDbText
  0
TEXT
  5
169
330
1F
100
AcDbEntity
  8
枠_表
  6
CONTINUOUS
 62
     2
100
AcDbText
 10
432.0000001499973
 20
210.0000019073486
 30
0.0
 40
59.99999618530273
  1
25
 41
0.4540540865305332
  7
EXCADSTD
 72
     5
 11
480.0000005314671
 21
210.0000019073486
 31
0.0
100
AcDbText
  0
TEXT
  5
16A
330
1F
100
AcDbEntity
  8
枠_表
  6
CONTINUOUS
 62
     2
100
AcDbText
 10
950.2499999999939
 20
330.0000038146973
 30
0.0
 40
74.99999237060547
  1
間瀬
 41
1.224910918732915
  7
EXCADSTD
 72
     5
 11
1094.614486450857
 21
330.0000038146973
 31
0.0
100
AcDbText
  0
TEXT
  5
16B
330
1F
100
AcDbEntity
  8
枠_表
  6
CONTINUOUS
 62
     2
100
AcDbText
 10
1754.999999999992
 20
3298.500003814694
 30
0.0
 40
52.49999618530273
  1
※止水栓は別途
 41
0.960975592742813
  7
EXCADSTD
 72
     5
 11
2050.499973297112
 21
3298.500003814694
 31
0.0
100
AcDbText
  0
TEXT
  5
16C
330
1F
100
AcDbEntity
  8
枠_表
  6
CONTINUOUS
 62
     2
100
AcDbText
 10
1754.999999999992
 20
3246.000007629391
 30
0.0
 40
52.49999618530273
  1
※化粧鏡台
 41
0.9862068805162137
  7
EXCADSTD
 72
     5
 11
1969.499980926506
 21
3246.000007629391
 31
0.0
100
AcDbText
  0
TEXT
  5
16D
330
1F
100
AcDbEntity
  8
枠_表
  6
CONTINUOUS
 62
     2
100
AcDbText
 10
1754.999999999992
 20
3193.500011444088
 30
0.0
 40
52.49999618530273
  1
・電源：１００Ｖ，５０/６０Ｈｚ
 41
0.8771626116554148
  7
EXCADSTD
 72
     5
 11
2388.749940872185
 21
3193.500011444088
 31
0.0
100
AcDbText
  0
TEXT
  5
16E
330
1F
100
AcDbEntity
  8
枠_表
  6
CONTINUOUS
 62
     2
100
AcDbText
 10
1754.999999999992
 20
3141.000015258785
 30
0.0
 40
52.49999618530273
  1
・照明器具：５Ｗ　ＬＥＤ電球　昼白色　口金Ｅ２６
 41
0.9174824987837673
  7
EXCADSTD
 72
     5
 11
2738.999908447258
 21
3141.000015258785
 31
0.0
100
AcDbText
  0
TEXT
  5
16F
330
1F
100
AcDbEntity
  8
枠_表
  6
CONTINUOUS
 62
     2
100
AcDbText
 10
1754.999999999992
 20
3088.500019073483
 30
0.0
 40
52.49999618530273
  1
・コンセント容量：１２００Ｗ（外付１コ）
 41
0.9210083847992311
  7
EXCADSTD
 72
     5
 11
2576.999923706047
 21
3088.500019073483
 31
0.0
100
AcDbText
  0
TEXT
  5
170
330
1F
100
AcDbEntity
  8
枠_表
  6
CONTINUOUS
 62
     2
100
AcDbText
 10
1754.999999999992
 20
3036.00002288818
 30
0.0
 40
52.49999618530273
  1
・電源コードの取出しは、左または右
 41
0.9247524568305033
  7
EXCADSTD
 72
     5
 11
2455.499935150139
 21
3036.00002288818
 31
0.0
100
AcDbText
  0
TEXT
  5
171
330
1F
100
AcDbEntity
  8
枠_表
  6
CONTINUOUS
 62
     2
100
AcDbText
 10
755.2499999999939
 20
330.0000038146973
 30
0.0
 40
74.99999237060547
  1
間瀬
 41
1.224910918732915
  7
EXCADSTD
 72
     5
 11
899.6144864508567
 21
330.0000038146973
 31
0.0
100
AcDbText
  0
TEXT
  5
172
330
1F
100
AcDbEntity
  8
枠_表
  6
CONTINUOUS
 62
     2
100
AcDbText
 10
365.6249999999962
 20
210.0000019073486
 30
0.0
 40
59.99999618530273
  1
8
 41
0.4516544404801219
  7
EXCADSTD
 72
     5
 11
387.5624999999962
 21
210.0000019073486
 31
0.0
100
AcDbText
  0
TEXT
  5
173
330
1F
100
AcDbEntity
  8
枠_表
  6
CONTINUOUS
 62
     2
100
AcDbText
 10
2189.999999999995
 20
3963.750001907347
 30
0.0
 40
59.99999618530273
  1
化粧鏡台（くもり止めヒーター付）
 41
0.6631578619438285
  7
EXCADSTD
 72
     5
 11
2729.999938964839
 21
3963.750001907347
 31
0.0
100
AcDbText
  0
TEXT
  5
174
330
1F
100
AcDbEntity
  8
枠_表
  6
CONTINUOUS
 62
     2
100
AcDbText
 10
1739.999999999992
 20
4128.750001907349
 30
0.0
 40
59.99999618530273
  1
ＬＵ７５２ＲＳＤ
 41
0.7446808984093662
  7
EXCADSTD
 72
     5
 11
2039.999999999992
 21
4128.750001907349
 31
0.0
100
AcDbText
  0
TEXT
  5
175
330
1F
100
AcDbEntity
  8
枠_表
  6
CONTINUOUS
 62
     2
100
AcDbText
 10
1739.999999999992
 20
4046.250001907349
 30
0.0
 40
59.99999618530273
  1
ＬＵ７５２ＲＳＤＹ
 41
0.7396226885333786
  7
EXCADSTD
 72
     5
 11
2075.999999999993
 21
4046.250001907349
 31
0.0
100
AcDbText
  0
TEXT
  5
176
330
1F
100
AcDbEntity
  8
枠_表
  6
CONTINUOUS
 62
     2
100
AcDbText
 10
2174.999999999995
 20
442.5
 30
0.0
 40
74.99999237060547
  1
ＬＵ７５２ＲＳＤ型
 41
0.7396226697238015
  7
EXCADSTD
 72
     5
 11
2594.999973297114
 21
442.5
 31
0.0
100
AcDbText
  0
TEXT
  5
177
330
1F
100
AcDbEntity
  8
枠_表
  6
CONTINUOUS
 62
     2
100
AcDbText
 10
2174.999999999995
 20
367.5000076293945
 30
0.0
 40
74.99999237060547
  1
ＬＵＭ７５１０ＳＬ型
 41
0.7355932483996405
  7
EXCADSTD
 72
     5
 11
2639.999970436091
 21
367.5000076293945
 31
0.0
100
AcDbText
  0
TEXT
  5
178
330
1F
100
AcDbEntity
  8
枠_表
  6
CONTINUOUS
 62
     7
100
AcDbText
 10
2177.999996244905
 20
227.2500038146968
 30
0.0
 40
104.9999923706055
  1
ＬＵ３１７７９０
 41
1.140425547142764
  7
EXCADSTD
 72
     5
 11
2981.999948561189
 21
227.2500038146968
 31
0.0
100
AcDbText
  0
POLYLINE
  5
179
330
1F
100
AcDbEntity
  8
化粧台
  6
CONTINUOUS
 62
     3
100
AcDb2dPolyline
 66
     1
 10
0.0
 20
0.0
 30
0.0
 70
   128
  0
VERTEX
  5
17A
330
179
100
AcDbEntity
  8
化粧台
  6
CONTINUOUS
 62
     3
100
AcDbVertex
100
AcDb2dVertex
 10
1451.999999999994
 20
3973.0
 30
0.0
  0
VERTEX
  5
17B
330
179
100
AcDbEntity
  8
化粧台
  6
CONTINUOUS
 62
     3
100
AcDbVertex
100
AcDb2dVertex
 10
1474.999999999994
 20
3923.5
 30
0.0
  0
SEQEND
  5
17C
330
179
100
AcDbEntity
  8
化粧台
  6
CONTINUOUS
 62
     3
  0
LINE
  5
17D
330
1F
100
AcDbEntity
  8
化粧台
  6
CONTINUOUS
 62
     3
100
AcDbLine
 10
1477.763749118665
 20
3935.350574621249
 30
0.0
 11
1451.999999999994
 21
3973.0
 31
0.0
  0
LINE
  5
17E
330
1F
100
AcDbEntity
  8
化粧台
  6
CONTINUOUS
 62
     3
100
AcDbLine
 10
1451.999999999994
 20
3973.0
 30
0.0
 11
1464.160489584007
 21
3929.029868170801
 31
0.0
  0
POLYLINE
  5
17F
330
1F
100
AcDbEntity
  8
化粧台
  6
CONTINUOUS
 62
     3
100
AcDb2dPolyline
 66
     1
 10
0.0
 20
0.0
 30
0.0
 70
   128
  0
VERTEX
  5
180
330
17F
100
AcDbEntity
  8
化粧台
  6
CONTINUOUS
 62
     3
100
AcDbVertex
100
AcDb2dVertex
 10
2554.999999999997
 20
2956.5
 30
0.0
  0
VERTEX
  5
181
330
17F
100
AcDbEntity
  8
化粧台
  6
CONTINUOUS
 62
     3
100
AcDbVertex
100
AcDb2dVertex
 10
2508.999999999997
 20
2976.5
 30
0.0
  0
SEQEND
  5
182
330
17F
100
AcDbEntity
  8
化粧台
  6
CONTINUOUS
 62
     3
  0
LINE
  5
183
330
1F
100
AcDbEntity
  8
化粧台
  6
CONTINUOUS
 62
     3
100
AcDbLine
 10
2510.741401632993
 20
2967.564649591751
 30
0.0
 11
2554.999999999997
 21
2956.5
 31
0.0
  0
LINE
  5
184
330
1F
100
AcDbEntity
  8
化粧台
  6
CONTINUOUS
 62
     3
100
AcDbLine
 10
2554.999999999997
 20
2956.5
 30
0.0
 11
2516.72229330421
 21
2981.320700435549
 31
0.0
  0
POLYLINE
  5
185
330
1F
100
AcDbEntity
  8
化粧台
  6
CONTINUOUS
 62
     3
100
AcDb2dPolyline
 66
     1
 10
0.0
 20
0.0
 30
0.0
 70
   128
  0
VERTEX
  5
186
330
185
100
AcDbEntity
  8
化粧台
  6
CONTINUOUS
 62
     3
100
AcDbVertex
100
AcDb2dVertex
 10
2052.999999999993
 20
898.5
 30
0.0
  0
VERTEX
  5
187
330
185
100
AcDbEntity
  8
化粧台
  6
CONTINUOUS
 62
     3
100
AcDbVertex
100
AcDb2dVertex
 10
2033.999999999992
 20
947.5
 30
0.0
  0
SEQEND
  5
188
330
185
100
AcDbEntity
  8
化粧台
  6
CONTINUOUS
 62
     3
  0
LINE
  5
189
330
1F
100
AcDbEntity
  8
化粧台
  6
CONTINUOUS
 62
     3
100
AcDbLine
 10
2029.738536730777
 20
937.7447999940749
 30
0.0
 11
2052.999999999993
 21
898.5
 31
0.0
  0
LINE
  5
18A
330
1F
100
AcDbEntity
  8
化粧台
  6
CONTINUOUS
 62
     3
100
AcDbLine
 10
2052.999999999993
 20
898.5
 30
0.0
 11
2043.723956365029
 21
943.167717811438
 31
0.0
  0
LINE
  5
18B
330
1F
100
AcDbEntity
  8
化粧台
  6
EXLTYPE4
 62
     6
100
AcDbLine
 10
333.0000000000012
 20
3973.0
 30
0.0
 11
1592.999999999992
 21
3973.0
 31
0.0
  0
TEXT
  5
18C
330
1F
100
AcDbEntity
  8
化粧台
  6
CONTINUOUS
 62
     2
100
AcDbText
 10
1494.000000536434
 20
3913.000003814697
 30
0.0
 40
59.99999618530273
  1
W.L.
 41
0.5571963512150641
  7
EXCADSTD
 72
     5
 11
1584.743400536434
 21
3913.000003814697
 31
0.0
100
AcDbText
  0
ARC
  5
18D
330
1F
100
AcDbEntity
  8
化粧台
  6
CONTINUOUS
 62
     2
100
AcDbCircle
 10
1289.999999999993
 20
3955.0
 30
0.0
 40
5.0
100
AcDbArc
 50
270.0000000000002
 51
0.0
  0
ARC
  5
18E
330
1F
100
AcDbEntity
  8
化粧台
  6
CONTINUOUS
 62
     2
100
AcDbCircle
 10
549.9999999999989
 20
3955.0
 30
0.0
 40
5.0
100
AcDbArc
 50
180.0
 51
270.0000000000002
  0
LINE
  5
18F
330
1F
100
AcDbEntity
  8
化粧台
  6
CONTINUOUS
 62
     2
100
AcDbLine
 10
544.9999999999989
 20
3973.0
 30
0.0
 11
1294.999999999993
 21
3973.0
 31
0.0
  0
LINE
  5
190
330
1F
100
AcDbEntity
  8
化粧台
  6
CONTINUOUS
 62
     2
100
AcDbLine
 10
549.9999999999989
 20
3950.0
 30
0.0
 11
1289.999999999993
 21
3950.0
 31
0.0
  0
LINE
  5
191
330
1F
100
AcDbEntity
  8
化粧台
  6
CONTINUOUS
 62
     2
100
AcDbLine
 10
544.9999999999989
 20
3973.0
 30
0.0
 11
544.999999999997
 21
3522.598404563018
 31
0.0
  0
LINE
  5
192
330
1F
100
AcDbEntity
  8
化粧台
  6
CONTINUOUS
 62
     2
100
AcDbLine
 10
1294.999999999993
 20
3973.0
 30
0.0
 11
1294.999999999993
 21
3522.598404563018
 31
0.0
  0
LINE
  5
193
330
1F
100
AcDbEntity
  8
化粧台
  6
CONTINUOUS
 62
     2
100
AcDbLine
 10
589.9999999999989
 20
3946.0
 30
0.0
 11
589.9999999999952
 21
3566.715898883588
 31
0.0
  0
LINE
  5
194
330
1F
100
AcDbEntity
  8
化粧台
  6
CONTINUOUS
 62
     2
100
AcDbLine
 10
1249.999999999993
 20
3946.0
 30
0.0
 11
1249.99999999999
 21
3566.715898883586
 31
0.0
  0
ARC
  5
195
330
1F
100
AcDbEntity
  8
化粧台
  6
CONTINUOUS
 62
     2
100
AcDbCircle
 10
549.999999999997
 20
3522.598404563018
 30
0.0
 40
5.0
100
AcDbArc
 50
180.0
 51
262.3928982892142
  0
ARC
  5
196
330
1F
100
AcDbEntity
  8
化粧台
  6
CONTINUOUS
 62
     2
100
AcDbCircle
 10
919.9999999999989
 20
6293.000000000042
 30
0.0
 40
2800.0
100
AcDbArc
 50
262.3928982892142
 51
277.607101710786
  0
ARC
  5
197
330
1F
100
AcDbEntity
  8
化粧台
  6
CONTINUOUS
 62
     2
100
AcDbCircle
 10
1289.999999999993
 20
3522.598404563018
 30
0.0
 40
5.0
100
AcDbArc
 50
277.6071017107856
 51
0.0
  0
ARC
  5
198
330
1F
100
AcDbEntity
  8
化粧台
  6
CONTINUOUS
 62
     2
100
AcDbCircle
 10
599.9999999999952
 20
3566.715898883588
 30
0.0
 40
10.0
100
AcDbArc
 50
180.0
 51
263.3054888682066
  0
ARC
  5
199
330
1F
100
AcDbEntity
  8
化粧台
  6
CONTINUOUS
 62
     2
100
AcDbCircle
 10
919.9999999999989
 20
6292.999999999976
 30
0.0
 40
2755.0
100
AcDbArc
 50
263.3054888682067
 51
276.6945111317933
  0
ARC
  5
19A
330
1F
100
AcDbEntity
  8
化粧台
  6
CONTINUOUS
 62
     2
100
AcDbCircle
 10
1239.99999999999
 20
3566.715898883586
 30
0.0
 40
10.0
100
AcDbArc
 50
276.6945111317934
 51
0.0
  0
ARC
  5
19B
330
1F
100
AcDbEntity
  8
化粧台
  6
CONTINUOUS
 62
     2
100
AcDbCircle
 10
599.9999999999952
 20
3856.579602464306
 30
0.0
 40
10.0
100
AcDbArc
 50
83.35413124350028
 51
180.0
  0
ARC
  5
19C
330
1F
100
AcDbEntity
  8
化粧台
  6
CONTINUOUS
 62
     2
100
AcDbCircle
 10
1239.999999999993
 20
3856.579602464302
 30
0.0
 40
10.0
100
AcDbArc
 50
0.0
 51
96.64586875649961
  0
LINE
  5
19D
330
1F
100
AcDbEntity
  8
化粧台
  6
CONTINUOUS
 62
     6
100
AcDbLine
 10
872.4999999999989
 20
3763.0
 30
0.0
 11
967.499999999998
 21
3763.0
 31
0.0
  0
LINE
  5
19E
330
1F
100
AcDbEntity
  8
化粧台
  6
CONTINUOUS
 62
     6
100
AcDbLine
 10
647.9999999999989
 20
3973.000000000004
 30
0.0
 11
649.9999999999989
 21
4005.500000000004
 31
0.0
  0
LINE
  5
19F
330
1F
100
AcDbEntity
  8
化粧台
  6
CONTINUOUS
 62
     6
100
AcDbLine
 10
649.9999999999989
 20
4005.500000000004
 30
0.0
 11
651.9999999999989
 21
3973.000000000004
 31
0.0
  0
LINE
  5
1A0
330
1F
100
AcDbEntity
  8
化粧台
  6
CONTINUOUS
 62
     6
100
AcDbLine
 10
649.9999999999989
 20
3963.0
 30
0.0
 11
649.9999999999989
 21
4015.5
 31
0.0
  0
LINE
  5
1A1
330
1F
100
AcDbEntity
  8
化粧台
  6
CONTINUOUS
 62
     6
100
AcDbLine
 10
1191.999999999992
 20
3973.0
 30
0.0
 11
1189.999999999992
 21
4005.5
 31
0.0
  0
LINE
  5
1A2
330
1F
100
AcDbEntity
  8
化粧台
  6
CONTINUOUS
 62
     6
100
AcDbLine
 10
1189.999999999992
 20
4005.5
 30
0.0
 11
1187.999999999992
 21
3973.0
 31
0.0
  0
LINE
  5
1A3
330
1F
100
AcDbEntity
  8
化粧台
  6
CONTINUOUS
 62
     6
100
AcDbLine
 10
1189.999999999992
 20
3963.0
 30
0.0
 11
1189.999999999992
 21
4015.499999999996
 31
0.0
  0
CIRCLE
  5
1A4
330
1F
100
AcDbEntity
  8
化粧台
  6
CONTINUOUS
 62
     6
100
AcDbCircle
 10
940.5287697415977
 20
3781.196579507301
 30
0.0
 40
3.000000000000002
  0
CIRCLE
  5
1A5
330
1F
100
AcDbEntity
  8
化粧台
  6
CONTINUOUS
 62
     6
100
AcDbCircle
 10
951.8999999999958
 20
3796.200000000001
 30
0.0
 40
3.000000000000002
  0
CIRCLE
  5
1A6
330
1F
100
AcDbEntity
  8
化粧台
  6
CONTINUOUS
 62
     6
100
AcDbCircle
 10
948.699999999995
 20
3787.599999999999
 30
0.0
 40
3.000000000000002
  0
CIRCLE
  5
1A7
330
1F
100
AcDbEntity
  8
化粧台
  6
CONTINUOUS
 62
     6
100
AcDbCircle
 10
953.199999999995
 20
3805.299999999999
 30
0.0
 40
3.000000000000002
  0
CIRCLE
  5
1A8
330
1F
100
AcDbEntity
  8
化粧台
  6
CONTINUOUS
 62
     6
100
AcDbCircle
 10
952.3255140940962
 20
3814.346331543202
 30
0.0
 40
3.000000000000002
  0
CIRCLE
  5
1A9
330
1F
100
AcDbEntity
  8
化粧台
  6
CONTINUOUS
 62
     6
100
AcDbCircle
 10
949.5213203435958
 20
3822.4786796564
 30
0.0
 40
3.000000000000002
  0
CIRCLE
  5
1AA
330
1F
100
AcDbEntity
  8
化粧台
  6
CONTINUOUS
 62
     6
100
AcDbCircle
 10
943.7453993667975
 20
3829.8162703085
 30
0.0
 40
3.000000000000002
  0
LINE
  5
1AB
330
1F
100
AcDbEntity
  8
化粧台
  6
CONTINUOUS
 62
     6
100
AcDbLine
 10
868.9999999999952
 20
3933.0
 30
0.0
 11
868.9999999999952
 21
3853.0
 31
0.0
  0
LINE
  5
1AC
330
1F
100
AcDbEntity
  8
化粧台
  6
CONTINUOUS
 62
     6
100
AcDbLine
 10
970.9999999999943
 20
3933.0
 30
0.0
 11
970.9999999999943
 21
3853.0
 31
0.0
  0
LINE
  5
1AD
330
1F
100
AcDbEntity
  8
化粧台
  6
EXLTYPE3
 62
     6
100
AcDbLine
 10
828.9999999999989
 20
3893.0
 30
0.0
 11
1010.999999999998
 21
3893.0
 31
0.0
  0
LINE
  5
1AE
330
1F
100
AcDbEntity
  8
化粧台
  6
CONTINUOUS
 62
     6
100
AcDbLine
 10
809.4999999999989
 20
3981.0
 30
0.0
 11
830.4999999999989
 21
3981.0
 31
0.0
  0
LINE
  5
1AF
330
1F
100
AcDbEntity
  8
化粧台
  6
CONTINUOUS
 62
     6
100
AcDbLine
 10
830.4999999999989
 20
3973.0
 30
0.0
 11
830.4999999999989
 21
3981.0
 31
0.0
  0
LINE
  5
1B0
330
1F
100
AcDbEntity
  8
化粧台
  6
CONTINUOUS
 62
     6
100
AcDbLine
 10
809.4999999999989
 20
3973.0
 30
0.0
 11
809.4999999999989
 21
3981.0
 31
0.0
  0
LINE
  5
1B1
330
1F
100
AcDbEntity
  8
化粧台
  6
CONTINUOUS
 62
     6
100
AcDbLine
 10
819.9999999999989
 20
3958.0
 30
0.0
 11
819.9999999999989
 21
3996.0
 31
0.0
  0
LINE
  5
1B2
330
1F
100
AcDbEntity
  8
化粧台
  6
CONTINUOUS
 62
     6
100
AcDbLine
 10
1009.499999999998
 20
3981.0
 30
0.0
 11
1030.499999999998
 21
3981.0
 31
0.0
  0
LINE
  5
1B3
330
1F
100
AcDbEntity
  8
化粧台
  6
CONTINUOUS
 62
     6
100
AcDbLine
 10
1030.499999999998
 20
3973.0
 30
0.0
 11
1030.499999999998
 21
3981.0
 31
0.0
  0
LINE
  5
1B4
330
1F
100
AcDbEntity
  8
化粧台
  6
CONTINUOUS
 62
     6
100
AcDbLine
 10
1009.499999999998
 20
3973.0
 30
0.0
 11
1009.499999999998
 21
3981.0
 31
0.0
  0
LINE
  5
1B5
330
1F
100
AcDbEntity
  8
化粧台
  6
CONTINUOUS
 62
     6
100
AcDbLine
 10
1019.999999999998
 20
3958.0
 30
0.0
 11
1019.999999999998
 21
3996.0
 31
0.0
  0
LINE
  5
1B6
330
1F
100
AcDbEntity
  8
化粧台
  6
CONTINUOUS
 62
     6
100
AcDbLine
 10
904.0000000000389
 20
3993.0
 30
0.0
 11
936.0000000000389
 21
3993.0
 31
0.0
  0
LINE
  5
1B7
330
1F
100
AcDbEntity
  8
化粧台
  6
CONTINUOUS
 62
     6
100
AcDbLine
 10
904.0000000000389
 20
3993.0
 30
0.0
 11
904.0000000000389
 21
3973.0
 31
0.0
  0
LINE
  5
1B8
330
1F
100
AcDbEntity
  8
化粧台
  6
CONTINUOUS
 62
     6
100
AcDbLine
 10
936.0000000000389
 20
3993.0
 30
0.0
 11
936.0000000000389
 21
3973.0
 31
0.0
  0
LINE
  5
1B9
330
1F
100
AcDbEntity
  8
化粧台
  6
EXLTYPE3
 62
     6
100
AcDbLine
 10
919.9999999999989
 20
4008.0
 30
0.0
 11
919.9999999999952
 21
3478.00000000003
 31
0.0
  0
ARC
  5
1BA
330
1F
100
AcDbEntity
  8
化粧台
  6
CONTINUOUS
 62
     6
100
AcDbCircle
 10
869.0000000000007
 20
3893.0
 30
0.0
 40
20.0
100
AcDbArc
 50
92.981359
 51
257.1887990000001
  0
ARC
  5
1BB
330
1F
100
AcDbEntity
  8
化粧台
  6
CONTINUOUS
 62
     6
100
AcDbCircle
 10
970.999999999998
 20
3893.0
 30
0.0
 40
20.0
100
AcDbArc
 50
282.8112010000003
 51
87.01864100000002
  0
ARC
  5
1BC
330
1F
100
AcDbEntity
  8
化粧台
  6
CONTINUOUS
 62
     6
100
AcDbCircle
 10
920.0000000000007
 20
2913.766366
 30
0.0
 40
1000.560814
100
AcDbArc
 50
87.01864100000002
 51
92.981359
  0
ARC
  5
1BD
330
1F
100
AcDbEntity
  8
化粧台
  6
CONTINUOUS
 62
     6
100
AcDbCircle
 10
920.0000000000007
 20
4117.247437999999
 30
0.0
 40
249.9737240000002
100
AcDbArc
 50
257.18731
 51
262.2031780000002
  0
ARC
  5
1BE
330
1F
100
AcDbEntity
  8
化粧台
  6
CONTINUOUS
 62
     6
100
AcDbCircle
 10
920.0000000000007
 20
4117.247437999999
 30
0.0
 40
249.9737240000002
100
AcDbArc
 50
277.7968220000001
 51
282.81269
  0
ARC
  5
1BF
330
1F
100
AcDbEntity
  8
化粧台
  6
CONTINUOUS
 62
     6
100
AcDbCircle
 10
920.0000000000007
 20
3776.102779999999
 30
0.0
 40
16.0
100
AcDbArc
 50
186.4144620000002
 51
353.5855380000003
  0
ARC
  5
1C0
330
1F
100
AcDbEntity
  8
化粧台
  6
CONTINUOUS
 62
     6
100
AcDbCircle
 10
-1051.579667000002
 20
3997.754799999999
 30
0.0
 40
2000.000000000001
100
AcDbArc
 50
353.5855380000003
 51
356.0083010000001
  0
ARC
  5
1C1
330
1F
100
AcDbEntity
  8
化粧台
  6
CONTINUOUS
 62
     6
100
AcDbCircle
 10
955.5395149999983
 20
3857.695565999999
 30
0.0
 40
12.00000000000001
100
AcDbArc
 50
97.79682200000002
 51
176.0083010000001
  0
ARC
  5
1C2
330
1F
100
AcDbEntity
  8
化粧台
  6
CONTINUOUS
 62
     6
100
AcDbCircle
 10
2891.579665999997
 20
3997.754799999999
 30
0.0
 40
2000.000000000001
100
AcDbArc
 50
183.9916990000001
 51
186.4144620000002
  0
ARC
  5
1C3
330
1F
100
AcDbEntity
  8
化粧台
  6
CONTINUOUS
 62
     6
100
AcDbCircle
 10
884.460484
 20
3857.695565999999
 30
0.0
 40
12.00000000000001
100
AcDbArc
 50
3.991698999999992
 51
82.203178
  0
LINE
  5
1C4
330
1F
100
AcDbEntity
  8
化粧台
  6
CONTINUOUS
 62
     6
100
AcDbLine
 10
912.088179000001
 20
3772.292828
 30
0.0
 11
902.5461620000012
 21
3836.027244999999
 31
0.0
  0
LINE
  5
1C5
330
1F
100
AcDbEntity
  8
化粧台
  6
CONTINUOUS
 62
     6
100
AcDbLine
 10
927.9118210000004
 20
3772.292828
 30
0.0
 11
937.5961790000008
 21
3836.977997999998
 31
0.0
  0
ARC
  5
1C6
330
1F
100
AcDbEntity
  8
化粧台
  6
CONTINUOUS
 62
     6
100
AcDbCircle
 10
920.0000000000007
 20
3773.477348999999
 30
0.0
 40
8.0
100
AcDbArc
 50
188.5148110000002
 51
351.485189
  0
ARC
  5
1C7
330
1F
100
AcDbEntity
  8
化粧台
  6
CONTINUOUS
 62
     6
100
AcDbCircle
 10
865.1231180000002
 20
3830.424443
 30
0.0
 40
37.84013200000001
100
AcDbArc
 50
8.514811000000007
 51
31.17138799999999
  0
ARC
  5
1C8
330
1F
100
AcDbEntity
  8
化粧台
  6
CONTINUOUS
 62
     6
100
AcDbCircle
 10
974.8768809999981
 20
3830.424443
 30
0.0
 40
37.84013200000001
100
AcDbArc
 50
148.828612
 51
171.485189
  0
ELLIPSE
  5
1C9
330
1F
100
AcDbEntity
  8
化粧台
  6
CONTINUOUS
 62
     6
100
AcDbEllipse
 10
920.0000000000007
 20
3850.010488
 30
0.0
 11
-22.5
 21
2.755455298081545E-15
 31
0.0
210
0.0
220
0.0
230
1.0
 40
0.9848
 41
2.458661
 42
6.966116307179587
  0
ELLIPSE
  5
1CA
330
1F
100
AcDbEntity
  8
化粧台
  6
CONTINUOUS
 62
     6
100
AcDbEllipse
 10
920.0000000000007
 20
3860.677297999999
 30
0.0
 11
23.446
 21
0.0
 31
0.0
210
0.0
220
0.0
230
1.0
 40
0.984816
 41
0.45368
 42
2.763067000000003
  0
ARC
  5
1CB
330
1F
100
AcDbEntity
  8
化粧台
  6
CONTINUOUS
 62
     6
100
AcDbCircle
 10
919.9999999999989
 20
5319.931461380173
 30
0.0
 40
1497.931461380174
100
AcDbArc
 50
257.6649564770681
 51
269.2083718751599
  0
ARC
  5
1CC
330
1F
100
AcDbEntity
  8
化粧台
  6
CONTINUOUS
 62
     6
100
AcDbCircle
 10
919.9999999999989
 20
5319.931461380173
 30
0.0
 40
1497.931461380174
100
AcDbArc
 50
270.7916280865407
 51
282.3350435229319
  0
ARC
  5
1CD
330
1F
100
AcDbEntity
  8
化粧台
  6
CONTINUOUS
 62
     2
100
AcDbCircle
 10
919.9999999999989
 20
6602.999999999976
 30
0.0
 40
2755.0
100
AcDbArc
 50
270.4744460334834
 51
276.6458687564997
  0
ARC
  5
1CE
330
1F
100
AcDbEntity
  8
化粧台
  6
CONTINUOUS
 62
     2
100
AcDbCircle
 10
919.9999999999989
 20
6602.999999999976
 30
0.0
 40
2755.0
100
AcDbArc
 50
263.3541312435004
 51
269.5255539457066
  0
ARC
  5
1CF
330
1F
100
AcDbEntity
  8
化粧台
  6
CONTINUOUS
 62
     2
100
AcDbCircle
 10
919.9999999999989
 20
3763.0
 30
0.0
 40
22.6
100
AcDbArc
 50
136.4295695189817
 51
43.57043377723859
  0
ARC
  5
1D0
330
1F
100
AcDbEntity
  8
化粧台
  6
CONTINUOUS
 62
     2
100
AcDbCircle
 10
919.9999999999989
 20
3763.0
 30
0.0
 40
32.3
100
AcDbArc
 50
123.0356829242538
 51
56.96431905716878
  0
LINE
  5
1D1
330
1F
100
AcDbEntity
  8
化粧台
  6
EXLTYPE4
 62
     6
100
AcDbLine
 10
1728.999999999992
 20
898.5
 30
0.0
 11
320.0000000000012
 21
898.5
 31
0.0
  0
LINE
  5
1D2
330
1F
100
AcDbEntity
  8
化粧台
  6
CONTINUOUS
 62
     2
100
AcDbLine
 10
576.4999999999989
 20
1563.500000000001
 30
0.0
 11
576.4999999999989
 21
1548.500000000001
 31
0.0
  0
LINE
  5
1D3
330
1F
100
AcDbEntity
  8
化粧台
  6
EXLTYPE2
 62
     6
100
AcDbLine
 10
576.4999999999989
 20
1548.500000000001
 30
0.0
 11
576.4999999999989
 21
993.5000000000009
 31
0.0
  0
LINE
  5
1D4
330
1F
100
AcDbEntity
  8
化粧台
  6
CONTINUOUS
 62
     2
100
AcDbLine
 10
1263.499999999993
 20
1563.500000000001
 30
0.0
 11
1263.499999999993
 21
1548.500000000001
 31
0.0
  0
LINE
  5
1D5
330
1F
100
AcDbEntity
  8
化粧台
  6
EXLTYPE2
 62
     6
100
AcDbLine
 10
1263.499999999993
 20
1548.500000000001
 30
0.0
 11
1263.499999999993
 21
993.5000000000009
 31
0.0
  0
LINE
  5
1D6
330
1F
100
AcDbEntity
  8
化粧台
  6
CONTINUOUS
 62
     2
100
AcDbLine
 10
1274.99999999999
 20
1548.500000000001
 30
0.0
 11
1274.99999999999
 21
993.5000000000009
 31
0.0
  0
LINE
  5
1D7
330
1F
100
AcDbEntity
  8
化粧台
  6
CONTINUOUS
 62
     2
100
AcDbLine
 10
920.9999999999952
 20
1548.500000000001
 30
0.0
 11
920.9999999999952
 21
993.5000000000009
 31
0.0
  0
LINE
  5
1D8
330
1F
100
AcDbEntity
  8
化粧台
  6
CONTINUOUS
 62
     2
100
AcDbLine
 10
918.9999999999989
 20
1548.500000000001
 30
0.0
 11
918.9999999999989
 21
993.5000000000009
 31
0.0
  0
LINE
  5
1D9
330
1F
100
AcDbEntity
  8
化粧台
  6
CONTINUOUS
 62
     2
100
AcDbLine
 10
564.9999999999989
 20
1548.500000000001
 30
0.0
 11
564.9999999999989
 21
993.5000000000009
 31
0.0
  0
LINE
  5
1DA
330
1F
100
AcDbEntity
  8
化粧台
  6
CONTINUOUS
 62
     2
100
AcDbLine
 10
920.9999999999952
 20
1548.500000000001
 30
0.0
 11
1274.99999999999
 21
1548.500000000001
 31
0.0
  0
LINE
  5
1DB
330
1F
100
AcDbEntity
  8
化粧台
  6
CONTINUOUS
 62
     2
100
AcDbLine
 10
918.9999999999989
 20
1548.500000000001
 30
0.0
 11
564.9999999999989
 21
1548.500000000001
 31
0.0
  0
LINE
  5
1DC
330
1F
100
AcDbEntity
  8
化粧台
  6
EXLTYPE2
 62
     2
100
AcDbLine
 10
952.1371602270826
 20
1488.500000000001
 30
0.0
 11
887.8628397729105
 21
1488.500000000001
 31
0.0
  0
LINE
  5
1DD
330
1F
100
AcDbEntity
  8
化粧台
  6
EXLTYPE2
 62
     6
100
AcDbLine
 10
919.9999999999989
 20
1461.000000000001
 30
0.0
 11
919.9999999999989
 21
1478.000000000001
 31
0.0
  0
LINE
  5
1DE
330
1F
100
AcDbEntity
  8
化粧台
  6
EXLTYPE2
 62
     6
100
AcDbLine
 10
884.9999999999989
 20
1478.000000000001
 30
0.0
 11
954.999999999998
 21
1478.000000000001
 31
0.0
  0
ARC
  5
1DF
330
1F
100
AcDbEntity
  8
化粧台
  6
EXLTYPE2
 62
     6
100
AcDbCircle
 10
944.2518377279982
 20
1462.385594593402
 30
0.0
 40
4.385594593380002
100
AcDbArc
 50
198.4177055184001
 51
270.0000000000002
  0
LINE
  5
1E0
330
1F
100
AcDbEntity
  8
化粧台
  6
EXLTYPE2
 62
     6
100
AcDbLine
 10
940.090880198996
 20
1461.000000000001
 30
0.0
 11
940.090880198996
 21
1478.000000000001
 31
0.0
  0
ARC
  5
1E1
330
1F
100
AcDbEntity
  8
化粧台
  6
EXLTYPE2
 62
     6
100
AcDbCircle
 10
930.0454400999977
 20
1476.318477799102
 30
0.0
 40
18.31847779905
100
AcDbArc
 50
236.7442298452004
 51
303.2557701548001
  0
ARC
  5
1E2
330
1F
100
AcDbEntity
  8
化粧台
  6
EXLTYPE2
 62
     6
100
AcDbCircle
 10
909.9545598999964
 20
1476.318477799102
 30
0.0
 40
18.31847779905
100
AcDbArc
 50
236.7442298452004
 51
303.2557701548001
  0
LINE
  5
1E3
330
1F
100
AcDbEntity
  8
化粧台
  6
EXLTYPE2
 62
     6
100
AcDbLine
 10
899.909119800998
 20
1461.000000000001
 30
0.0
 11
899.909119800998
 21
1478.000000000001
 31
0.0
  0
ARC
  5
1E4
330
1F
100
AcDbEntity
  8
化粧台
  6
EXLTYPE2
 62
     6
100
AcDbCircle
 10
895.7481622719959
 20
1462.385594593402
 30
0.0
 40
4.385594593380002
100
AcDbArc
 50
270.0000000000002
 51
341.5822944816002
  0
LINE
  5
1E5
330
1F
100
AcDbEntity
  8
化粧台
  6
EXLTYPE2
 62
     6
100
AcDbLine
 10
954.999999999998
 20
1485.500000000001
 30
0.0
 11
950.8139534883683
 21
1488.500000000001
 31
0.0
  0
LINE
  5
1E6
330
1F
100
AcDbEntity
  8
化粧台
  6
EXLTYPE2
 62
     6
100
AcDbLine
 10
884.9999999999989
 20
1485.500000000001
 30
0.0
 11
889.1860465116249
 21
1488.500000000001
 31
0.0
  0
LINE
  5
1E7
330
1F
100
AcDbEntity
  8
化粧台
  6
EXLTYPE2
 62
     6
100
AcDbLine
 10
954.999999999998
 20
1485.500000000001
 30
0.0
 11
954.999999999998
 21
1478.000000000001
 31
0.0
  0
LINE
  5
1E8
330
1F
100
AcDbEntity
  8
化粧台
  6
EXLTYPE2
 62
     6
100
AcDbLine
 10
884.9999999999989
 20
1485.500000000001
 30
0.0
 11
884.9999999999989
 21
1478.000000000001
 31
0.0
  0
LINE
  5
1E9
330
1F
100
AcDbEntity
  8
化粧台
  6
EXLTYPE2
 62
     6
100
AcDbLine
 10
948.4127952579963
 20
1461.000000000001
 30
0.0
 11
946.249999999998
 21
1458.000000000001
 31
0.0
  0
LINE
  5
1EA
330
1F
100
AcDbEntity
  8
化粧台
  6
EXLTYPE2
 62
     6
100
AcDbLine
 10
948.4127952579963
 20
1478.000000000001
 30
0.0
 11
948.4127952579963
 21
1461.000000000001
 31
0.0
  0
LINE
  5
1EB
330
1F
100
AcDbEntity
  8
化粧台
  6
EXLTYPE2
 62
     6
100
AcDbLine
 10
946.249999999998
 20
1458.000000000001
 30
0.0
 11
946.249999999998
 21
1433.500000000001
 31
0.0
  0
LINE
  5
1EC
330
1F
100
AcDbEntity
  8
化粧台
  6
EXLTYPE2
 62
     6
100
AcDbLine
 10
891.5872047419969
 20
1461.000000000001
 30
0.0
 11
893.7499999999989
 21
1458.000000000001
 31
0.0
  0
LINE
  5
1ED
330
1F
100
AcDbEntity
  8
化粧台
  6
EXLTYPE2
 62
     6
100
AcDbLine
 10
891.5872047419969
 20
1478.000000000001
 30
0.0
 11
891.5872047419969
 21
1461.000000000001
 31
0.0
  0
LINE
  5
1EE
330
1F
100
AcDbEntity
  8
化粧台
  6
EXLTYPE2
 62
     6
100
AcDbLine
 10
893.7499999999989
 20
1458.000000000001
 30
0.0
 11
893.7499999999989
 21
1433.500000000001
 31
0.0
  0
LINE
  5
1EF
330
1F
100
AcDbEntity
  8
化粧台
  6
EXLTYPE2
 62
     6
100
AcDbLine
 10
893.7499999999989
 20
1458.000000000001
 30
0.0
 11
946.249999999998
 21
1458.000000000001
 31
0.0
  0
LINE
  5
1F0
330
1F
100
AcDbEntity
  8
化粧台
  6
EXLTYPE2
 62
     2
100
AcDbLine
 10
1231.021587567699
 20
1512.353758920149
 30
0.0
 11
1236.923076923068
 21
1563.500000000001
 31
0.0
  0
ARC
  5
1F1
330
1F
100
AcDbEntity
  8
化粧台
  6
EXLTYPE2
 62
     2
100
AcDbCircle
 10
1221.087498208989
 20
1513.500000000001
 30
0.0
 40
10.0
100
AcDbArc
 50
270.0000000000002
 51
353.4180553448222
  0
LINE
  5
1F2
330
1F
100
AcDbEntity
  8
化粧台
  6
EXLTYPE2
 62
     2
100
AcDbLine
 10
1166.930004681641
 20
1503.500000000001
 30
0.0
 11
1221.087498208989
 21
1503.500000000001
 31
0.0
  0
ARC
  5
1F3
330
1F
100
AcDbEntity
  8
化粧台
  6
EXLTYPE2
 62
     2
100
AcDbCircle
 10
1166.930004681641
 20
1513.500000000001
 30
0.0
 40
10.0
100
AcDbArc
 50
200.5560452195829
 51
270.0000000000002
  0
LINE
  5
1F4
330
1F
100
AcDbEntity
  8
化粧台
  6
EXLTYPE2
 62
     2
100
AcDbLine
 10
1157.56671290595
 20
1509.988765584117
 30
0.0
 11
1137.499999999992
 21
1563.500000000001
 31
0.0
  0
ARC
  5
1F5
330
1F
100
AcDbEntity
  8
化粧台
  6
EXLTYPE2
 62
     2
100
AcDbCircle
 10
910.0832538036545
 20
2134.39511543961
 30
0.0
 40
609.0
100
AcDbArc
 50
280.0000000000025
 51
290.3755908643894
  0
LINE
  5
1F6
330
1F
100
AcDbEntity
  8
化粧台
  6
EXLTYPE2
 62
     2
100
AcDbLine
 10
967.9648445834916
 20
1526.206394942002
 30
0.0
 11
1015.834994002844
 21
1534.647193855181
 31
0.0
  0
ARC
  5
1F7
330
1F
100
AcDbEntity
  8
化粧台
  6
EXLTYPE2
 62
     2
100
AcDbCircle
 10
969.5276781824957
 20
1517.343125164892
 30
0.0
 40
9.0
100
AcDbArc
 50
100.0000000000024
 51
172.2138167733558
  0
LINE
  5
1F8
330
1F
100
AcDbEntity
  8
化粧台
  6
EXLTYPE2
 62
     2
100
AcDbLine
 10
960.6106533294421
 20
1518.562415027897
 30
0.0
 11
957.0910629232219
 21
1492.822616742776
 31
0.0
  0
ARC
  5
1F9
330
1F
100
AcDbEntity
  8
化粧台
  6
EXLTYPE2
 62
     2
100
AcDbCircle
 10
952.137160227079
 20
1493.500000000001
 30
0.0
 40
5.0
100
AcDbArc
 50
270.0000000000002
 51
352.2138167733555
  0
ARC
  5
1FA
330
1F
100
AcDbEntity
  8
化粧台
  6
EXLTYPE2
 62
     2
100
AcDbCircle
 10
887.8628397729105
 20
1493.500000000001
 30
0.0
 40
5.0
100
AcDbArc
 50
187.7861832266448
 51
270.0000000000002
  0
LINE
  5
1FB
330
1F
100
AcDbEntity
  8
化粧台
  6
EXLTYPE2
 62
     2
100
AcDbLine
 10
879.389346670551
 20
1518.562415027897
 30
0.0
 11
882.9089370767713
 21
1492.822616742776
 31
0.0
  0
ARC
  5
1FC
330
1F
100
AcDbEntity
  8
化粧台
  6
EXLTYPE2
 62
     2
100
AcDbCircle
 10
870.4723218174975
 20
1517.343125164892
 30
0.0
 40
9.0
100
AcDbArc
 50
7.786183226645566
 51
79.99999999999739
  0
LINE
  5
1FD
330
1F
100
AcDbEntity
  8
化粧台
  6
EXLTYPE2
 62
     2
100
AcDbLine
 10
872.0351554165015
 20
1526.206394942002
 30
0.0
 11
824.1650059971496
 21
1534.647193855181
 31
0.0
  0
ARC
  5
1FE
330
1F
100
AcDbEntity
  8
化粧台
  6
EXLTYPE2
 62
     2
100
AcDbCircle
 10
929.9167461963395
 20
2134.39511543961
 30
0.0
 40
609.0
100
AcDbArc
 50
249.6244091356107
 51
259.9999999999976
  0
LINE
  5
1FF
330
1F
100
AcDbEntity
  8
化粧台
  6
EXLTYPE2
 62
     2
100
AcDbLine
 10
682.4332870940405
 20
1509.988765584117
 30
0.0
 11
702.4999999999952
 21
1563.500000000001
 31
0.0
  0
ARC
  5
200
330
1F
100
AcDbEntity
  8
化粧台
  6
EXLTYPE2
 62
     2
100
AcDbCircle
 10
673.0699953183491
 20
1513.500000000001
 30
0.0
 40
10.0
100
AcDbArc
 50
270.0000000000002
 51
339.443954780416
  0
LINE
  5
201
330
1F
100
AcDbEntity
  8
化粧台
  6
EXLTYPE2
 62
     2
100
AcDbLine
 10
673.0699953183491
 20
1503.500000000001
 30
0.0
 11
618.912501790998
 21
1503.500000000001
 31
0.0
  0
ARC
  5
202
330
1F
100
AcDbEntity
  8
化粧台
  6
EXLTYPE2
 62
     2
100
AcDbCircle
 10
618.912501790998
 20
1513.500000000001
 30
0.0
 40
10.0
100
AcDbArc
 50
186.581944655178
 51
270.0000000000002
  0
LINE
  5
203
330
1F
100
AcDbEntity
  8
化粧台
  6
EXLTYPE2
 62
     2
100
AcDbLine
 10
608.9784124322857
 20
1512.353758920149
 30
0.0
 11
603.0769230769208
 21
1563.500000000001
 31
0.0
  0
LINE
  5
204
330
1F
100
AcDbEntity
  8
化粧台
  6
CONTINUOUS
 62
     2
100
AcDbLine
 10
561.4999999999989
 20
1563.500000000001
 30
0.0
 11
561.4999999999989
 21
898.5000000000009
 31
0.0
  0
LINE
  5
205
330
1F
100
AcDbEntity
  8
化粧台
  6
CONTINUOUS
 62
     2
100
AcDbLine
 10
1278.499999999993
 20
1563.500000000001
 30
0.0
 11
1278.499999999993
 21
898.5000000000009
 31
0.0
  0
LINE
  5
206
330
1F
100
AcDbEntity
  8
化粧台
  6
CONTINUOUS
 62
     2
100
AcDbLine
 10
1287.118616470875
 20
1563.500000000001
 30
0.0
 11
552.8813835291137
 21
1563.500000000001
 31
0.0
  0
ARC
  5
207
330
1F
100
AcDbEntity
  8
化粧台
  6
CONTINUOUS
 62
     2
100
AcDbCircle
 10
1289.759884705899
 20
1678.500000000001
 30
0.0
 40
5.0
100
AcDbArc
 50
358.6245050134004
 51
91.54944573611779
  0
ARC
  5
208
330
1F
100
AcDbEntity
  8
化粧台
  6
CONTINUOUS
 62
     2
100
AcDbCircle
 10
1287.118616470875
 20
1568.500000000001
 30
0.0
 40
5.0
100
AcDbArc
 50
270.0000000000002
 51
358.6245050134004
  0
ARC
  5
209
330
1F
100
AcDbEntity
  8
化粧台
  6
CONTINUOUS
 62
     2
100
AcDbCircle
 10
1289.99999999999
 20
1688.500000000001
 30
0.0
 40
5.0
100
AcDbArc
 50
358.6245050134004
 51
90.00000000000004
  0
LINE
  5
20A
330
1F
100
AcDbEntity
  8
化粧台
  6
CONTINUOUS
 62
     2
100
AcDbLine
 10
1294.998559239106
 20
1688.379976947826
 30
0.0
 11
1292.117175709988
 21
1568.3799769478
 31
0.0
  0
ARC
  5
20B
330
1F
100
AcDbEntity
  8
化粧台
  6
CONTINUOUS
 62
     2
100
AcDbCircle
 10
550.24011529409
 20
1678.500000000001
 30
0.0
 40
5.0
100
AcDbArc
 50
88.45055426388222
 51
181.3754949865997
  0
ARC
  5
20C
330
1F
100
AcDbEntity
  8
化粧台
  6
CONTINUOUS
 62
     2
100
AcDbCircle
 10
552.8813835291137
 20
1568.500000000001
 30
0.0
 40
5.0
100
AcDbArc
 50
181.3754949865997
 51
270.0000000000002
  0
ARC
  5
20D
330
1F
100
AcDbEntity
  8
化粧台
  6
CONTINUOUS
 62
     2
100
AcDbCircle
 10
549.9999999999989
 20
1688.500000000001
 30
0.0
 40
5.0
100
AcDbArc
 50
90.00000000000004
 51
181.3754949865997
  0
LINE
  5
20E
330
1F
100
AcDbEntity
  8
化粧台
  6
CONTINUOUS
 62
     2
100
AcDbLine
 10
545.0014407608821
 20
1688.379976947826
 30
0.0
 11
547.882824289997
 21
1568.3799769478
 31
0.0
  0
LINE
  5
20F
330
1F
100
AcDbEntity
  8
化粧台
  6
CONTINUOUS
 62
     6
100
AcDbLine
 10
655.4999999999989
 20
1453.500000000001
 30
0.0
 11
644.4999999999989
 21
1453.500000000001
 31
0.0
  0
LINE
  5
210
330
1F
100
AcDbEntity
  8
化粧台
  6
CONTINUOUS
 62
     6
100
AcDbLine
 10
649.9999999999989
 20
1459.000000000001
 30
0.0
 11
649.9999999999989
 21
1448.000000000001
 31
0.0
  0
CIRCLE
  5
211
330
1F
100
AcDbEntity
  8
化粧台
  6
CONTINUOUS
 62
     6
100
AcDbCircle
 10
649.9999999999989
 20
1453.500000000001
 30
0.0
 40
2.5
  0
LINE
  5
212
330
1F
100
AcDbEntity
  8
化粧台
  6
CONTINUOUS
 62
     6
100
AcDbLine
 10
1195.499999999992
 20
1453.500000000001
 30
0.0
 11
1184.499999999995
 21
1453.500000000001
 31
0.0
  0
LINE
  5
213
330
1F
100
AcDbEntity
  8
化粧台
  6
CONTINUOUS
 62
     6
100
AcDbLine
 10
1189.999999999995
 20
1459.000000000001
 30
0.0
 11
1189.999999999995
 21
1448.000000000001
 31
0.0
  0
CIRCLE
  5
214
330
1F
100
AcDbEntity
  8
化粧台
  6
CONTINUOUS
 62
     6
100
AcDbCircle
 10
1189.999999999995
 20
1453.500000000001
 30
0.0
 40
2.5
  0
LINE
  5
215
330
1F
100
AcDbEntity
  8
化粧台
  6
EXLTYPE2
 62
     6
100
AcDbLine
 10
1263.499999999993
 20
1006.250000000001
 30
0.0
 11
576.4999999999989
 21
1006.250000000001
 31
0.0
  0
LINE
  5
216
330
1F
100
AcDbEntity
  8
化粧台
  6
CONTINUOUS
 62
     2
100
AcDbLine
 10
1263.499999999993
 20
988.7500000000009
 30
0.0
 11
576.4999999999989
 21
988.7500000000009
 31
0.0
  0
LINE
  5
217
330
1F
100
AcDbEntity
  8
化粧台
  6
CONTINUOUS
 62
     2
100
AcDbLine
 10
1263.499999999993
 20
902.5000000000009
 30
0.0
 11
576.4999999999989
 21
902.5000000000009
 31
0.0
  0
LINE
  5
218
330
1F
100
AcDbEntity
  8
化粧台
  6
CONTINUOUS
 62
     2
100
AcDbLine
 10
576.4999999999989
 20
993.5000000000009
 30
0.0
 11
576.4999999999989
 21
898.5000000000009
 31
0.0
  0
LINE
  5
219
330
1F
100
AcDbEntity
  8
化粧台
  6
CONTINUOUS
 62
     2
100
AcDbLine
 10
918.9999999999989
 20
993.5000000000009
 30
0.0
 11
564.9999999999989
 21
993.5000000000009
 31
0.0
  0
LINE
  5
21A
330
1F
100
AcDbEntity
  8
化粧台
  6
CONTINUOUS
 62
     2
100
AcDbLine
 10
576.4999999999989
 20
902.0000000000009
 30
0.0
 11
561.4999999999989
 21
902.0000000000009
 31
0.0
  0
LINE
  5
21B
330
1F
100
AcDbEntity
  8
化粧台
  6
CONTINUOUS
 62
     2
100
AcDbLine
 10
561.4999999999989
 20
898.5000000000009
 30
0.0
 11
576.4999999999989
 21
898.5000000000009
 31
0.0
  0
LINE
  5
21C
330
1F
100
AcDbEntity
  8
化粧台
  6
CONTINUOUS
 62
     2
100
AcDbLine
 10
1263.499999999993
 20
993.5000000000009
 30
0.0
 11
1263.499999999993
 21
898.5000000000009
 31
0.0
  0
LINE
  5
21D
330
1F
100
AcDbEntity
  8
化粧台
  6
CONTINUOUS
 62
     2
100
AcDbLine
 10
920.9999999999952
 20
993.5000000000009
 30
0.0
 11
1274.99999999999
 21
993.5000000000009
 31
0.0
  0
LINE
  5
21E
330
1F
100
AcDbEntity
  8
化粧台
  6
CONTINUOUS
 62
     2
100
AcDbLine
 10
1263.499999999993
 20
902.0000000000009
 30
0.0
 11
1278.499999999993
 21
902.0000000000009
 31
0.0
  0
LINE
  5
21F
330
1F
100
AcDbEntity
  8
化粧台
  6
CONTINUOUS
 62
     2
100
AcDbLine
 10
1278.499999999993
 20
898.5000000000009
 30
0.0
 11
1263.499999999993
 21
898.5000000000009
 31
0.0
  0
LINE
  5
220
330
1F
100
AcDbEntity
  8
化粧台
  6
EXLTYPE2
 62
     6
100
AcDbLine
 10
946.249999999998
 20
1433.500000000001
 30
0.0
 11
935.7499999999989
 21
1424.500000000001
 31
0.0
  0
LINE
  5
221
330
1F
100
AcDbEntity
  8
化粧台
  6
EXLTYPE2
 62
     6
100
AcDbLine
 10
893.7499999999989
 20
1433.500000000001
 30
0.0
 11
904.2499999999989
 21
1424.500000000001
 31
0.0
  0
LINE
  5
222
330
1F
100
AcDbEntity
  8
化粧台
  6
EXLTYPE2
 62
     6
100
AcDbLine
 10
893.7499999999989
 20
1433.500000000001
 30
0.0
 11
946.249999999998
 21
1433.500000000001
 31
0.0
  0
LINE
  5
223
330
1F
100
AcDbEntity
  8
化粧台
  6
EXLTYPE2
 62
     6
100
AcDbLine
 10
904.2499999999989
 20
1424.500000000001
 30
0.0
 11
935.7499999999989
 21
1424.500000000001
 31
0.0
  0
LINE
  5
224
330
1F
100
AcDbEntity
  8
化粧台
  6
EXLTYPE2
 62
     6
100
AcDbLine
 10
938.249999999997
 20
1396.700000000002
 30
0.0
 11
938.249999999997
 21
1356.611863703302
 31
0.0
  0
LINE
  5
225
330
1F
100
AcDbEntity
  8
化粧台
  6
EXLTYPE2
 62
     6
100
AcDbLine
 10
901.749999999997
 20
1396.700000000002
 30
0.0
 11
901.749999999997
 21
1356.611863703302
 31
0.0
  0
LINE
  5
226
330
1F
100
AcDbEntity
  8
化粧台
  6
EXLTYPE2
 62
     6
100
AcDbLine
 10
938.2499999999989
 20
1356.611863703302
 30
0.0
 11
936.9999999999989
 21
1355.611863671301
 31
0.0
  0
LINE
  5
227
330
1F
100
AcDbEntity
  8
化粧台
  6
EXLTYPE2
 62
     6
100
AcDbLine
 10
902.9999999999989
 20
1355.611863671301
 30
0.0
 11
901.7499999999989
 21
1356.611863703302
 31
0.0
  0
LINE
  5
228
330
1F
100
AcDbEntity
  8
化粧台
  6
EXLTYPE2
 62
     6
100
AcDbLine
 10
936.9999999999989
 20
1355.611863671303
 30
0.0
 11
902.999999999997
 21
1355.611863671303
 31
0.0
  0
LINE
  5
229
330
1F
100
AcDbEntity
  8
化粧台
  6
EXLTYPE2
 62
     6
100
AcDbLine
 10
944.249999999997
 20
1396.700000000002
 30
0.0
 11
895.749999999997
 21
1396.700000000002
 31
0.0
  0
LINE
  5
22A
330
1F
100
AcDbEntity
  8
化粧台
  6
EXLTYPE2
 62
     6
100
AcDbLine
 10
944.249999999997
 20
1411.500000000001
 30
0.0
 11
944.249999999997
 21
1396.700000000002
 31
0.0
  0
LINE
  5
22B
330
1F
100
AcDbEntity
  8
化粧台
  6
EXLTYPE2
 62
     6
100
AcDbLine
 10
941.249999999997
 20
1414.500000000001
 30
0.0
 11
898.749999999997
 21
1414.500000000001
 31
0.0
  0
LINE
  5
22C
330
1F
100
AcDbEntity
  8
化粧台
  6
EXLTYPE2
 62
     6
100
AcDbLine
 10
895.749999999997
 20
1411.500000000001
 30
0.0
 11
895.749999999997
 21
1396.700000000002
 31
0.0
  0
ARC
  5
22D
330
1F
100
AcDbEntity
  8
化粧台
  6
EXLTYPE2
 62
     6
100
AcDbCircle
 10
941.249999999997
 20
1411.500000000001
 30
0.0
 40
3.000000000000002
100
AcDbArc
 50
0.0
 51
90.00000000000004
  0
ARC
  5
22E
330
1F
100
AcDbEntity
  8
化粧台
  6
EXLTYPE2
 62
     6
100
AcDbCircle
 10
898.749999999997
 20
1411.500000000001
 30
0.0
 40
3.000000000000002
100
AcDbArc
 50
90.00000000000004
 51
180.0
  0
LINE
  5
22F
330
1F
100
AcDbEntity
  8
化粧台
  6
EXLTYPE2
 62
     6
100
AcDbLine
 10
902.999999999997
 20
1355.611863671303
 30
0.0
 11
902.999999999997
 21
1321.986862343741
 31
0.0
  0
LINE
  5
230
330
1F
100
AcDbEntity
  8
化粧台
  6
EXLTYPE2
 62
     6
100
AcDbLine
 10
856.2231693720958
 20
1358.811312276001
 30
0.0
 11
856.2231693720958
 21
1344.011312276002
 31
0.0
  0
ARC
  5
231
330
1F
100
AcDbEntity
  8
化粧台
  6
EXLTYPE2
 62
     6
100
AcDbCircle
 10
859.2231693720958
 20
1358.811312276001
 30
0.0
 40
3.000000000000002
100
AcDbArc
 50
90.00000000000004
 51
180.0
  0
LINE
  5
232
330
1F
100
AcDbEntity
  8
化粧台
  6
EXLTYPE2
 62
     6
100
AcDbLine
 10
898.7231693720958
 20
1344.011312276002
 30
0.0
 11
898.7231693720958
 21
1321.986862343741
 31
0.0
  0
LINE
  5
233
330
1F
100
AcDbEntity
  8
化粧台
  6
EXLTYPE2
 62
     6
100
AcDbLine
 10
862.2231693720958
 20
1344.011312276002
 30
0.0
 11
862.2231693720958
 21
1315.911862369002
 31
0.0
  0
LINE
  5
234
330
1F
100
AcDbEntity
  8
化粧台
  6
EXLTYPE2
 62
     6
100
AcDbLine
 10
936.9999999999989
 20
1355.611863671303
 30
0.0
 11
936.9999999999989
 21
1323.91826175945
 31
0.0
  0
ARC
  5
235
330
1F
100
AcDbEntity
  8
化粧台
  6
EXLTYPE2
 62
     6
100
AcDbCircle
 10
900.2365846860473
 20
1392.148448270968
 30
0.0
 40
3.763415313933366
100
AcDbArc
 50
66.28804661525457
 51
180.0
  0
LINE
  5
236
330
1F
100
AcDbEntity
  8
化粧台
  6
EXLTYPE2
 62
     6
100
AcDbLine
 10
896.4731693720958
 20
1392.148448270968
 30
0.0
 11
896.4731693720958
 21
1361.811312276001
 31
0.0
  0
LINE
  5
237
330
1F
100
AcDbEntity
  8
化粧台
  6
EXLTYPE2
 62
     6
100
AcDbLine
 10
864.4731693720958
 20
1392.14844827095
 30
0.0
 11
864.4731693720958
 21
1361.811312276001
 31
0.0
  0
LINE
  5
238
330
1F
100
AcDbEntity
  8
化粧台
  6
EXLTYPE2
 62
     6
100
AcDbLine
 10
901.7499999999989
 20
1361.811312276001
 30
0.0
 11
859.2231693720958
 21
1361.811312276001
 31
0.0
  0
LINE
  5
239
330
1F
100
AcDbEntity
  8
化粧台
  6
EXLTYPE2
 62
     6
100
AcDbLine
 10
902.9999999999989
 20
1344.011312276002
 30
0.0
 11
856.2231693720976
 21
1344.011312276002
 31
0.0
  0
ARC
  5
23A
330
1F
100
AcDbEntity
  8
化粧台
  6
EXLTYPE2
 62
     6
100
AcDbCircle
 10
900.2365846860473
 20
1392.14844827095
 30
0.0
 40
35.76341531395246
100
AcDbArc
 50
89.94725080561497
 51
180.0
  0
LINE
  5
23B
330
1F
100
AcDbEntity
  8
化粧台
  6
EXLTYPE2
 62
     6
100
AcDbLine
 10
904.2499999999989
 20
1424.500000000001
 30
0.0
 11
904.2499999999989
 21
1414.500000000001
 31
0.0
  0
LINE
  5
23C
330
1F
100
AcDbEntity
  8
化粧台
  6
EXLTYPE2
 62
     6
100
AcDbLine
 10
935.7499999999989
 20
1424.500000000001
 30
0.0
 11
935.7499999999989
 21
1414.500000000001
 31
0.0
  0
LINE
  5
23D
330
1F
100
AcDbEntity
  8
化粧台
  6
EXLTYPE2
 62
     6
100
AcDbLine
 10
953.5000038146916
 20
938.5000019073022
 30
0.0
 11
953.5000038146916
 21
918.9999999999536
 31
0.0
  0
ARC
  5
23E
330
1F
100
AcDbEntity
  8
化粧台
  6
EXLTYPE2
 62
     6
100
AcDbCircle
 10
953.0000038146916
 20
918.9999999999536
 30
0.0
 40
0.5
100
AcDbArc
 50
270.0000000000002
 51
0.0
  0
LINE
  5
23F
330
1F
100
AcDbEntity
  8
化粧台
  6
EXLTYPE2
 62
     6
100
AcDbLine
 10
886.4999961853016
 20
938.5000019073022
 30
0.0
 11
886.4999961853016
 21
918.9999999999536
 31
0.0
  0
ARC
  5
240
330
1F
100
AcDbEntity
  8
化粧台
  6
EXLTYPE2
 62
     6
100
AcDbCircle
 10
886.9999961853016
 20
918.9999999999536
 30
0.0
 40
0.5
100
AcDbArc
 50
180.0
 51
270.0000000000002
  0
LINE
  5
241
330
1F
100
AcDbEntity
  8
化粧台
  6
EXLTYPE2
 62
     6
100
AcDbLine
 10
953.0000038146916
 20
918.4999999999536
 30
0.0
 11
886.999996185298
 21
918.4999999999536
 31
0.0
  0
LINE
  5
242
330
1F
100
AcDbEntity
  8
化粧台
  6
EXLTYPE2
 62
     6
100
AcDbLine
 10
946.9999999999943
 20
953.5000038146509
 30
0.0
 11
946.9999999999943
 21
942.5000019073022
 31
0.0
  0
ARC
  5
243
330
1F
100
AcDbEntity
  8
化粧台
  6
EXLTYPE2
 62
     6
100
AcDbCircle
 10
943.9999999999952
 20
953.5000038146509
 30
0.0
 40
3.000000000000002
100
AcDbArc
 50
359.9999949910431
 51
89.99999749552043
  0
ARC
  5
244
330
1F
100
AcDbEntity
  8
化粧台
  6
EXLTYPE2
 62
     6
100
AcDbCircle
 10
947.9999999999943
 20
942.5000019073022
 30
0.0
 40
1.0
100
AcDbArc
 50
180.0
 51
270.0000000000002
  0
ARC
  5
245
330
1F
100
AcDbEntity
  8
化粧台
  6
EXLTYPE2
 62
     6
100
AcDbCircle
 10
950.5000038146916
 20
938.5000019073022
 30
0.0
 40
3.000000000000002
100
AcDbArc
 50
359.9999949910431
 51
89.99999749552043
  0
LINE
  5
246
330
1F
100
AcDbEntity
  8
化粧台
  6
EXLTYPE2
 62
     6
100
AcDbLine
 10
942.999996185298
 20
974.3465188788914
 30
0.0
 11
942.999996185298
 21
958.5465196418309
 31
0.0
  0
ARC
  5
247
330
1F
100
AcDbEntity
  8
化粧台
  6
EXLTYPE2
 62
     6
100
AcDbCircle
 10
940.999996185298
 20
974.3465188788914
 30
0.0
 40
2.0
100
AcDbArc
 50
0.0000086514229809
 51
90.00000432571393
  0
LINE
  5
248
330
1F
100
AcDbEntity
  8
化粧台
  6
EXLTYPE2
 62
     6
100
AcDbLine
 10
892.9999999999989
 20
953.5000038146509
 30
0.0
 11
892.9999999999989
 21
942.5000019073022
 31
0.0
  0
ARC
  5
249
330
1F
100
AcDbEntity
  8
化粧台
  6
EXLTYPE2
 62
     6
100
AcDbCircle
 10
895.9999999999989
 20
953.5000038146509
 30
0.0
 40
3.000000000000002
100
AcDbArc
 50
90.00000250448174
 51
180.000005008957
  0
ARC
  5
24A
330
1F
100
AcDbEntity
  8
化粧台
  6
EXLTYPE2
 62
     6
100
AcDbCircle
 10
891.9999999999989
 20
942.5000019073022
 30
0.0
 40
1.0
100
AcDbArc
 50
270.0000000000002
 51
0.0
  0
ARC
  5
24B
330
1F
100
AcDbEntity
  8
化粧台
  6
EXLTYPE2
 62
     6
100
AcDbCircle
 10
889.4999961853016
 20
938.5000019073022
 30
0.0
 40
3.000000000000002
100
AcDbArc
 50
90.00000250448174
 51
180.000005008957
  0
LINE
  5
24C
330
1F
100
AcDbEntity
  8
化粧台
  6
EXLTYPE2
 62
     6
100
AcDbLine
 10
897.0000038146961
 20
974.3465188788914
 30
0.0
 11
897.0000038146961
 21
958.5465196418309
 31
0.0
  0
ARC
  5
24D
330
1F
100
AcDbEntity
  8
化粧台
  6
EXLTYPE2
 62
     6
100
AcDbCircle
 10
899.0000038146961
 20
974.3465188788914
 30
0.0
 40
2.0
100
AcDbArc
 50
89.99999567428608
 51
179.9999913485771
  0
LINE
  5
24E
330
1F
100
AcDbEntity
  8
化粧台
  6
EXLTYPE2
 62
     6
100
AcDbLine
 10
940.999996185298
 20
976.3465188788914
 30
0.0
 11
899.0000038146961
 21
976.3465188788914
 31
0.0
  0
LINE
  5
24F
330
1F
100
AcDbEntity
  8
化粧台
  6
EXLTYPE2
 62
     6
100
AcDbLine
 10
942.999996185298
 20
958.5465196418309
 30
0.0
 11
897.0000038146961
 21
958.5465196418309
 31
0.0
  0
LINE
  5
250
330
1F
100
AcDbEntity
  8
化粧台
  6
EXLTYPE2
 62
     6
100
AcDbLine
 10
943.9999999999952
 20
956.5000038146509
 30
0.0
 11
895.9999999999989
 21
956.5000038146509
 31
0.0
  0
LINE
  5
251
330
1F
100
AcDbEntity
  8
化粧台
  6
EXLTYPE2
 62
     6
100
AcDbLine
 10
950.5000038146916
 20
941.5000019073022
 30
0.0
 11
889.4999961853016
 21
941.5000019073022
 31
0.0
  0
LINE
  5
252
330
1F
100
AcDbEntity
  8
化粧台
  6
EXLTYPE2
 62
     6
100
AcDbLine
 10
915.2365846859946
 20
1282.611861335133
 30
0.0
 11
885.2365846859927
 21
1282.611861335133
 31
0.0
  0
LINE
  5
253
330
1F
100
AcDbEntity
  8
化粧台
  6
EXLTYPE2
 62
     6
100
AcDbLine
 10
915.2365846859982
 20
1285.381770843303
 30
0.0
 11
885.2365846859982
 21
1285.381770843303
 31
0.0
  0
LINE
  5
254
330
1F
100
AcDbEntity
  8
化粧台
  6
EXLTYPE2
 62
     6
100
AcDbLine
 10
915.2365846859946
 20
1285.381770843266
 30
0.0
 11
915.2365846859946
 21
1270.111865271302
 31
0.0
  0
LINE
  5
255
330
1F
100
AcDbEntity
  8
化粧台
  6
EXLTYPE2
 62
     6
100
AcDbLine
 10
913.7365846859946
 20
1268.611865271302
 30
0.0
 11
886.7365846859927
 21
1268.611865271302
 31
0.0
  0
LINE
  5
256
330
1F
100
AcDbEntity
  8
化粧台
  6
EXLTYPE2
 62
     6
100
AcDbLine
 10
885.2365846859927
 20
1285.38177084327
 30
0.0
 11
885.2365846859927
 21
1270.111865271302
 31
0.0
  0
ARC
  5
257
330
1F
100
AcDbEntity
  8
化粧台
  6
EXLTYPE2
 62
     6
100
AcDbCircle
 10
913.7365846859946
 20
1270.111865271302
 30
0.0
 40
1.5
100
AcDbArc
 50
270.0000000000002
 51
0.0
  0
ARC
  5
258
330
1F
100
AcDbEntity
  8
化粧台
  6
EXLTYPE2
 62
     6
100
AcDbCircle
 10
886.7365846859927
 20
1270.111865271302
 30
0.0
 40
1.5
100
AcDbArc
 50
180.0
 51
270.0000000000002
  0
ARC
  5
259
330
1F
100
AcDbEntity
  8
化粧台
  6
EXLTYPE2
 62
     6
100
AcDbCircle
 10
863.2231693720958
 20
1315.911862369002
 30
0.0
 40
1.0
100
AcDbArc
 50
180.0
 51
270.0000000000002
  0
ARC
  5
25A
330
1F
100
AcDbEntity
  8
化粧台
  6
EXLTYPE2
 62
     6
100
AcDbCircle
 10
906.5981693721976
 20
1321.986862343741
 30
0.0
 40
7.87499999998454
100
AcDbArc
 50
180.0
 51
223.2429562691451
  0
ARC
  5
25B
330
1F
100
AcDbEntity
  8
化粧台
  6
EXLTYPE2
 62
     6
100
AcDbCircle
 10
895.124999999997
 20
1321.986862343741
 30
0.0
 40
7.87499999998454
100
AcDbArc
 50
284.0576142764539
 51
0.0
  0
ARC
  5
25C
330
1F
100
AcDbEntity
  8
化粧台
  6
EXLTYPE2
 62
     6
100
AcDbCircle
 10
909.8681222530929
 20
1323.041926938048
 30
0.0
 40
45.0
100
AcDbArc
 50
190.4086772393206
 51
236.8134006511469
  0
ARC
  5
25D
330
1F
100
AcDbEntity
  8
化粧台
  6
EXLTYPE2
 62
     6
100
AcDbCircle
 10
891.9999999999989
 20
1323.91826175945
 30
0.0
 40
45.0
100
AcDbArc
 50
301.0889746232344
 51
0.0
  0
LINE
  5
25E
330
1F
100
AcDbEntity
  8
化粧台
  6
EXLTYPE2
 62
     6
100
AcDbLine
 10
873.8999999999967
 20
1314.911862369002
 30
0.0
 11
863.2231693720976
 21
1314.911862369002
 31
0.0
  0
LINE
  5
25F
330
1F
100
AcDbEntity
  8
化粧台
  6
EXLTYPE2
 62
     6
100
AcDbLine
 10
903.999999999997
 20
902.5000000000009
 30
0.0
 11
903.999999999997
 21
1268.611865271302
 31
0.0
  0
LINE
  5
260
330
1F
100
AcDbEntity
  8
化粧台
  6
EXLTYPE2
 62
     6
100
AcDbLine
 10
935.999999999997
 20
902.5000000000009
 30
0.0
 11
935.999999999997
 21
1314.484280627385
 31
0.0
  0
LINE
  5
261
330
1F
100
AcDbEntity
  8
化粧台
  6
CONTINUOUS
 62
     2
100
AcDbLine
 10
941.499999999997
 20
1497.000000000012
 30
0.0
 11
1046.499999999996
 21
1497.000000000012
 31
0.0
  0
LINE
  5
262
330
1F
100
AcDbEntity
  8
化粧台
  6
CONTINUOUS
 62
     2
100
AcDbLine
 10
941.499999999997
 20
1510.000000000012
 30
0.0
 11
1046.499999999996
 21
1510.000000000012
 31
0.0
  0
LINE
  5
263
330
1F
100
AcDbEntity
  8
化粧台
  6
CONTINUOUS
 62
     2
100
AcDbLine
 10
941.499999999997
 20
1497.000000000012
 30
0.0
 11
941.499999999997
 21
1510.000000000012
 31
0.0
  0
LINE
  5
264
330
1F
100
AcDbEntity
  8
化粧台
  6
CONTINUOUS
 62
     2
100
AcDbLine
 10
1046.499999999996
 20
1497.000000000012
 30
0.0
 11
1046.499999999996
 21
1510.000000000012
 31
0.0
  0
LINE
  5
265
330
1F
100
AcDbEntity
  8
化粧台
  6
CONTINUOUS
 62
     2
100
AcDbLine
 10
944.999999999997
 20
1497.000000000012
 30
0.0
 11
944.999999999997
 21
1510.000000000012
 31
0.0
  0
LINE
  5
266
330
1F
100
AcDbEntity
  8
化粧台
  6
CONTINUOUS
 62
     2
100
AcDbLine
 10
1042.999999999996
 20
1497.000000000012
 30
0.0
 11
1042.999999999996
 21
1510.000000000012
 31
0.0
  0
LINE
  5
267
330
1F
100
AcDbEntity
  8
化粧台
  6
CONTINUOUS
 62
     2
100
AcDbLine
 10
898.4999999999952
 20
1497.000000000012
 30
0.0
 11
793.4999999999952
 21
1497.000000000012
 31
0.0
  0
LINE
  5
268
330
1F
100
AcDbEntity
  8
化粧台
  6
CONTINUOUS
 62
     2
100
AcDbLine
 10
898.4999999999952
 20
1510.000000000012
 30
0.0
 11
793.4999999999952
 21
1510.000000000012
 31
0.0
  0
LINE
  5
269
330
1F
100
AcDbEntity
  8
化粧台
  6
CONTINUOUS
 62
     2
100
AcDbLine
 10
898.4999999999952
 20
1497.000000000012
 30
0.0
 11
898.4999999999952
 21
1510.000000000012
 31
0.0
  0
LINE
  5
26A
330
1F
100
AcDbEntity
  8
化粧台
  6
CONTINUOUS
 62
     2
100
AcDbLine
 10
793.4999999999952
 20
1497.000000000012
 30
0.0
 11
793.4999999999952
 21
1510.000000000012
 31
0.0
  0
LINE
  5
26B
330
1F
100
AcDbEntity
  8
化粧台
  6
CONTINUOUS
 62
     2
100
AcDbLine
 10
894.9999999999952
 20
1497.000000000012
 30
0.0
 11
894.9999999999952
 21
1510.000000000012
 31
0.0
  0
LINE
  5
26C
330
1F
100
AcDbEntity
  8
化粧台
  6
CONTINUOUS
 62
     2
100
AcDbLine
 10
796.9999999999952
 20
1497.000000000012
 30
0.0
 11
796.9999999999952
 21
1510.000000000012
 31
0.0
  0
LINE
  5
26D
330
1F
100
AcDbEntity
  8
化粧台
  6
CONTINUOUS
 62
     6
100
AcDbLine
 10
903.999999999997
 20
868.5000000000009
 30
0.0
 11
935.999999999997
 21
868.5000000000009
 31
0.0
  0
LINE
  5
26E
330
1F
100
AcDbEntity
  8
化粧台
  6
CONTINUOUS
 62
     6
100
AcDbLine
 10
903.9999999999989
 20
868.5000000000009
 30
0.0
 11
903.9999999999989
 21
902.5000000000009
 31
0.0
  0
LINE
  5
26F
330
1F
100
AcDbEntity
  8
化粧台
  6
CONTINUOUS
 62
     6
100
AcDbLine
 10
935.9999999999989
 20
868.5000000000009
 30
0.0
 11
935.9999999999989
 21
902.5000000000009
 31
0.0
  0
LINE
  5
270
330
1F
100
AcDbEntity
  8
化粧台
  6
CONTINUOUS
 62
     6
100
AcDbLine
 10
992.4999999999961
 20
1248.499999999999
 30
0.0
 11
1047.499999999996
 21
1248.499999999999
 31
0.0
  0
LINE
  5
271
330
1F
100
AcDbEntity
  8
化粧台
  6
CONTINUOUS
 62
     6
100
AcDbLine
 10
1030.499999999996
 20
890.5000000000009
 30
0.0
 11
1009.499999999996
 21
890.5000000000009
 31
0.0
  0
ARC
  5
272
330
1F
100
AcDbEntity
  8
化粧台
  6
EXLTYPE2
 62
     6
100
AcDbCircle
 10
969.4999999999961
 20
1268.343134832984
 30
0.0
 40
40.0
100
AcDbArc
 50
345.6384884370835
 51
0.0
  0
ARC
  5
273
330
1F
100
AcDbEntity
  8
化粧台
  6
EXLTYPE2
 62
     6
100
AcDbCircle
 10
1070.499999999996
 20
1268.343134832984
 30
0.0
 40
40.0
100
AcDbArc
 50
180.0
 51
194.3615115629165
  0
LINE
  5
274
330
1F
100
AcDbEntity
  8
化粧台
  6
EXLTYPE2
 62
     6
100
AcDbLine
 10
1007.749999999987
 20
1213.499999999999
 30
0.0
 11
1032.250000000005
 21
1213.499999999999
 31
0.0
  0
LINE
  5
275
330
1F
100
AcDbEntity
  8
化粧台
  6
EXLTYPE2
 62
     6
100
AcDbLine
 10
1007.249999999996
 20
1213.78867513459
 30
0.0
 11
1007.249999999996
 21
1225.672806948606
 31
0.0
  0
LINE
  5
276
330
1F
100
AcDbEntity
  8
化粧台
  6
EXLTYPE2
 62
     6
100
AcDbLine
 10
1032.749999999996
 20
1213.78867513459
 30
0.0
 11
1032.749999999996
 21
1225.672806948606
 31
0.0
  0
ARC
  5
277
330
1F
100
AcDbEntity
  8
化粧台
  6
EXLTYPE2
 62
     6
100
AcDbCircle
 10
1000.249999999996
 20
1228.365389352174
 30
0.0
 40
7.500000000000004
100
AcDbArc
 50
338.9605302186827
 51
0.0
  0
LINE
  5
278
330
1F
100
AcDbEntity
  8
化粧台
  6
EXLTYPE2
 62
     6
100
AcDbLine
 10
1007.749999999994
 20
1213.499999999997
 30
0.0
 11
1007.249999999998
 21
1213.788675134591
 31
0.0
  0
LINE
  5
279
330
1F
100
AcDbEntity
  8
化粧台
  6
EXLTYPE2
 62
     6
100
AcDbLine
 10
1032.249999999998
 20
1213.499999999997
 30
0.0
 11
1032.749999999994
 21
1213.788675134591
 31
0.0
  0
ARC
  5
27A
330
1F
100
AcDbEntity
  8
化粧台
  6
EXLTYPE2
 62
     6
100
AcDbCircle
 10
1039.749999999996
 20
1228.365389352174
 30
0.0
 40
7.500000000000004
100
AcDbArc
 50
180.0
 51
201.039469781297
  0
LINE
  5
27B
330
1F
100
AcDbEntity
  8
化粧台
  6
EXLTYPE2
 62
     6
100
AcDbLine
 10
1032.999999999996
 20
1242.66369123504
 30
0.0
 11
1032.999999999996
 21
1254.33630876496
 31
0.0
  0
LINE
  5
27C
330
1F
100
AcDbEntity
  8
化粧台
  6
EXLTYPE2
 62
     6
100
AcDbLine
 10
1031.554391654785
 20
1256.84017586672
 30
0.0
 11
1021.445608345208
 21
1262.676484631679
 31
0.0
  0
LINE
  5
27D
330
1F
100
AcDbEntity
  8
化粧台
  6
EXLTYPE2
 62
     6
100
AcDbLine
 10
1018.554391654785
 20
1262.676484631679
 30
0.0
 11
1008.445608345208
 21
1256.84017586672
 31
0.0
  0
LINE
  5
27E
330
1F
100
AcDbEntity
  8
化粧台
  6
EXLTYPE2
 62
     6
100
AcDbLine
 10
1006.999999999996
 20
1254.33630876496
 30
0.0
 11
1006.999999999996
 21
1242.66369123504
 31
0.0
  0
LINE
  5
27F
330
1F
100
AcDbEntity
  8
化粧台
  6
EXLTYPE2
 62
     6
100
AcDbLine
 10
1008.445608345208
 20
1240.15982413328
 30
0.0
 11
1018.554391654785
 21
1234.323515368319
 31
0.0
  0
LINE
  5
280
330
1F
100
AcDbEntity
  8
化粧台
  6
EXLTYPE2
 62
     6
100
AcDbLine
 10
1021.445608345208
 20
1234.323515368319
 30
0.0
 11
1031.554391654785
 21
1240.15982413328
 31
0.0
  0
ARC
  5
281
330
1F
100
AcDbEntity
  8
化粧台
  6
EXLTYPE2
 62
     6
100
AcDbCircle
 10
1019.999999999996
 20
1248.499999999999
 30
0.0
 40
14.25000000000001
100
AcDbArc
 50
264.1775448336001
 51
275.8224551664
  0
ARC
  5
282
330
1F
100
AcDbEntity
  8
化粧台
  6
EXLTYPE2
 62
     6
100
AcDbCircle
 10
1019.999999999996
 20
1248.499999999999
 30
0.0
 40
14.25000000000001
100
AcDbArc
 50
324.1775448336006
 51
335.8224551664001
  0
ARC
  5
283
330
1F
100
AcDbEntity
  8
化粧台
  6
EXLTYPE2
 62
     6
100
AcDbCircle
 10
1019.999999999996
 20
1248.499999999999
 30
0.0
 40
14.25000000000001
100
AcDbArc
 50
24.17754483359991
 51
35.82245516639971
  0
ARC
  5
284
330
1F
100
AcDbEntity
  8
化粧台
  6
EXLTYPE2
 62
     6
100
AcDbCircle
 10
1019.999999999996
 20
1248.499999999999
 30
0.0
 40
14.25000000000001
100
AcDbArc
 50
84.17754483360022
 51
95.82245516636003
  0
ARC
  5
285
330
1F
100
AcDbEntity
  8
化粧台
  6
EXLTYPE2
 62
     6
100
AcDbCircle
 10
1019.999999999996
 20
1248.499999999999
 30
0.0
 40
14.25000000000001
100
AcDbArc
 50
144.1775448336397
 51
155.8224551663601
  0
ARC
  5
286
330
1F
100
AcDbEntity
  8
化粧台
  6
EXLTYPE2
 62
     6
100
AcDbCircle
 10
1019.999999999996
 20
1248.499999999999
 30
0.0
 40
14.25000000000001
100
AcDbArc
 50
204.1775448336
 51
215.8224551663998
  0
CIRCLE
  5
287
330
1F
100
AcDbEntity
  8
化粧台
  6
EXLTYPE2
 62
     6
100
AcDbCircle
 10
1019.999999999996
 20
1248.499999999999
 30
0.0
 40
4.75
  0
ARC
  5
288
330
1F
100
AcDbEntity
  8
化粧台
  6
EXLTYPE2
 62
     6
100
AcDbCircle
 10
1046.999999999996
 20
1248.499999999999
 30
0.0
 40
40.0
100
AcDbArc
 50
165.6384884370866
 51
169.8112385239512
  0
ARC
  5
289
330
1F
100
AcDbEntity
  8
化粧台
  6
EXLTYPE2
 62
     6
100
AcDbCircle
 10
992.9999999999961
 20
1248.499999999999
 30
0.0
 40
40.0
100
AcDbArc
 50
10.18876147604892
 51
14.36151156291657
  0
LINE
  5
28A
330
1F
100
AcDbEntity
  8
化粧台
  6
EXLTYPE2
 62
     6
100
AcDbLine
 10
1007.749999999996
 20
1241.219890110719
 30
0.0
 11
1007.749999999996
 21
1228.365389352174
 31
0.0
  0
LINE
  5
28B
330
1F
100
AcDbEntity
  8
化粧台
  6
EXLTYPE2
 62
     6
100
AcDbLine
 10
1032.249999999996
 20
1241.219890110719
 30
0.0
 11
1032.249999999996
 21
1228.365389352174
 31
0.0
  0
LINE
  5
28C
330
1F
100
AcDbEntity
  8
化粧台
  6
EXLTYPE2
 62
     6
100
AcDbLine
 10
1009.030455542706
 20
1271.2
 30
0.0
 11
1030.969544457288
 21
1271.2
 31
0.0
  0
LINE
  5
28D
330
1F
100
AcDbEntity
  8
化粧台
  6
EXLTYPE2
 62
     6
100
AcDbLine
 10
1009.030455542706
 20
1283.2
 30
0.0
 11
1030.969544457288
 21
1283.2
 31
0.0
  0
LINE
  5
28E
330
1F
100
AcDbEntity
  8
化粧台
  6
EXLTYPE2
 62
     6
100
AcDbLine
 10
1008.499999999996
 20
1282.29288719687
 30
0.0
 11
1008.499999999996
 21
1272.10711280313
 31
0.0
  0
LINE
  5
28F
330
1F
100
AcDbEntity
  8
化粧台
  6
EXLTYPE2
 62
     6
100
AcDbLine
 10
1031.499999999996
 20
1282.29288719687
 30
0.0
 11
1031.499999999996
 21
1272.10711280313
 31
0.0
  0
ARC
  5
290
330
1F
100
AcDbEntity
  8
化粧台
  6
EXLTYPE2
 62
     6
100
AcDbCircle
 10
1018.249999999996
 20
1277.2
 30
0.0
 40
11.0
100
AcDbArc
 50
146.9442688490998
 51
152.4198007963999
  0
ARC
  5
291
330
1F
100
AcDbEntity
  8
化粧台
  6
EXLTYPE2
 62
     6
100
AcDbCircle
 10
1018.249999999996
 20
1277.2
 30
0.0
 40
11.0
100
AcDbArc
 50
207.5801992036001
 51
213.0557311509001
  0
ARC
  5
292
330
1F
100
AcDbEntity
  8
化粧台
  6
EXLTYPE2
 62
     6
100
AcDbCircle
 10
1021.749999999996
 20
1277.2
 30
0.0
 40
11.0
100
AcDbArc
 50
326.9442688491004
 51
332.4198007964001
  0
ARC
  5
293
330
1F
100
AcDbEntity
  8
化粧台
  6
EXLTYPE2
 62
     6
100
AcDbCircle
 10
1021.749999999996
 20
1277.2
 30
0.0
 40
11.0
100
AcDbArc
 50
27.58019920359027
 51
33.05573115085006
  0
LINE
  5
294
330
1F
100
AcDbEntity
  8
化粧台
  6
EXLTYPE2
 62
     6
100
AcDbLine
 10
1009.499999999996
 20
1271.2
 30
0.0
 11
1009.499999999996
 21
1268.34313483298
 31
0.0
  0
LINE
  5
295
330
1F
100
AcDbEntity
  8
化粧台
  6
EXLTYPE2
 62
     6
100
AcDbLine
 10
1030.499999999996
 20
1271.2
 30
0.0
 11
1030.499999999996
 21
1268.34313483298
 31
0.0
  0
LINE
  5
296
330
1F
100
AcDbEntity
  8
化粧台
  6
EXLTYPE3
 62
     6
100
AcDbLine
 10
1019.999999999996
 20
1298.2
 30
0.0
 11
1019.999999999996
 21
875.5000000000009
 31
0.0
  0
LINE
  5
297
330
1F
100
AcDbEntity
  8
化粧台
  6
CONTINUOUS
 62
     6
100
AcDbLine
 10
792.499999999997
 20
1248.499999999999
 30
0.0
 11
847.499999999997
 21
1248.499999999999
 31
0.0
  0
LINE
  5
298
330
1F
100
AcDbEntity
  8
化粧台
  6
CONTINUOUS
 62
     6
100
AcDbLine
 10
830.499999999997
 20
890.5000000000009
 30
0.0
 11
809.499999999997
 21
890.5000000000009
 31
0.0
  0
ARC
  5
299
330
1F
100
AcDbEntity
  8
化粧台
  6
EXLTYPE2
 62
     6
100
AcDbCircle
 10
769.499999999997
 20
1268.343134832984
 30
0.0
 40
40.0
100
AcDbArc
 50
345.6384884370835
 51
0.0
  0
ARC
  5
29A
330
1F
100
AcDbEntity
  8
化粧台
  6
EXLTYPE2
 62
     6
100
AcDbCircle
 10
870.499999999997
 20
1268.343134832984
 30
0.0
 40
40.0
100
AcDbArc
 50
180.0
 51
194.3615115629165
  0
LINE
  5
29B
330
1F
100
AcDbEntity
  8
化粧台
  6
EXLTYPE2
 62
     6
100
AcDbLine
 10
807.749999999988
 20
1213.499999999999
 30
0.0
 11
832.2500000000061
 21
1213.499999999999
 31
0.0
  0
LINE
  5
29C
330
1F
100
AcDbEntity
  8
化粧台
  6
EXLTYPE2
 62
     6
100
AcDbLine
 10
807.249999999997
 20
1213.78867513459
 30
0.0
 11
807.249999999997
 21
1225.672806948606
 31
0.0
  0
LINE
  5
29D
330
1F
100
AcDbEntity
  8
化粧台
  6
EXLTYPE2
 62
     6
100
AcDbLine
 10
832.749999999997
 20
1213.78867513459
 30
0.0
 11
832.749999999997
 21
1225.672806948606
 31
0.0
  0
ARC
  5
29E
330
1F
100
AcDbEntity
  8
化粧台
  6
EXLTYPE2
 62
     6
100
AcDbCircle
 10
800.249999999997
 20
1228.365389352174
 30
0.0
 40
7.500000000000004
100
AcDbArc
 50
338.9605302186827
 51
0.0
  0
LINE
  5
29F
330
1F
100
AcDbEntity
  8
化粧台
  6
EXLTYPE2
 62
     6
100
AcDbLine
 10
807.7499999999952
 20
1213.499999999997
 30
0.0
 11
807.2499999999989
 21
1213.788675134591
 31
0.0
  0
LINE
  5
2A0
330
1F
100
AcDbEntity
  8
化粧台
  6
EXLTYPE2
 62
     6
100
AcDbLine
 10
832.2499999999989
 20
1213.499999999997
 30
0.0
 11
832.7499999999952
 21
1213.788675134591
 31
0.0
  0
ARC
  5
2A1
330
1F
100
AcDbEntity
  8
化粧台
  6
EXLTYPE2
 62
     6
100
AcDbCircle
 10
839.749999999997
 20
1228.365389352174
 30
0.0
 40
7.500000000000004
100
AcDbArc
 50
180.0
 51
201.039469781297
  0
LINE
  5
2A2
330
1F
100
AcDbEntity
  8
化粧台
  6
EXLTYPE2
 62
     6
100
AcDbLine
 10
832.999999999997
 20
1242.66369123504
 30
0.0
 11
832.999999999997
 21
1254.33630876496
 31
0.0
  0
LINE
  5
2A3
330
1F
100
AcDbEntity
  8
化粧台
  6
EXLTYPE2
 62
     6
100
AcDbLine
 10
831.5543916547856
 20
1256.84017586672
 30
0.0
 11
821.4456083452085
 21
1262.676484631679
 31
0.0
  0
LINE
  5
2A4
330
1F
100
AcDbEntity
  8
化粧台
  6
EXLTYPE2
 62
     6
100
AcDbLine
 10
818.5543916547856
 20
1262.676484631679
 30
0.0
 11
808.4456083452085
 21
1256.84017586672
 31
0.0
  0
LINE
  5
2A5
330
1F
100
AcDbEntity
  8
化粧台
  6
EXLTYPE2
 62
     6
100
AcDbLine
 10
806.999999999997
 20
1254.33630876496
 30
0.0
 11
806.999999999997
 21
1242.66369123504
 31
0.0
  0
LINE
  5
2A6
330
1F
100
AcDbEntity
  8
化粧台
  6
EXLTYPE2
 62
     6
100
AcDbLine
 10
808.4456083452085
 20
1240.15982413328
 30
0.0
 11
818.5543916547856
 21
1234.323515368319
 31
0.0
  0
LINE
  5
2A7
330
1F
100
AcDbEntity
  8
化粧台
  6
EXLTYPE2
 62
     6
100
AcDbLine
 10
821.4456083452085
 20
1234.323515368319
 30
0.0
 11
831.5543916547856
 21
1240.15982413328
 31
0.0
  0
ARC
  5
2A8
330
1F
100
AcDbEntity
  8
化粧台
  6
EXLTYPE2
 62
     6
100
AcDbCircle
 10
819.999999999997
 20
1248.499999999999
 30
0.0
 40
14.25000000000001
100
AcDbArc
 50
264.1775448336001
 51
275.8224551664
  0
ARC
  5
2A9
330
1F
100
AcDbEntity
  8
化粧台
  6
EXLTYPE2
 62
     6
100
AcDbCircle
 10
819.999999999997
 20
1248.499999999999
 30
0.0
 40
14.25000000000001
100
AcDbArc
 50
324.1775448336006
 51
335.8224551664001
  0
ARC
  5
2AA
330
1F
100
AcDbEntity
  8
化粧台
  6
EXLTYPE2
 62
     6
100
AcDbCircle
 10
819.999999999997
 20
1248.499999999999
 30
0.0
 40
14.25000000000001
100
AcDbArc
 50
24.17754483359991
 51
35.82245516639971
  0
ARC
  5
2AB
330
1F
100
AcDbEntity
  8
化粧台
  6
EXLTYPE2
 62
     6
100
AcDbCircle
 10
819.999999999997
 20
1248.499999999999
 30
0.0
 40
14.25000000000001
100
AcDbArc
 50
84.17754483360022
 51
95.82245516636003
  0
ARC
  5
2AC
330
1F
100
AcDbEntity
  8
化粧台
  6
EXLTYPE2
 62
     6
100
AcDbCircle
 10
819.999999999997
 20
1248.499999999999
 30
0.0
 40
14.25000000000001
100
AcDbArc
 50
144.1775448336397
 51
155.8224551663601
  0
ARC
  5
2AD
330
1F
100
AcDbEntity
  8
化粧台
  6
EXLTYPE2
 62
     6
100
AcDbCircle
 10
819.999999999997
 20
1248.499999999999
 30
0.0
 40
14.25000000000001
100
AcDbArc
 50
204.1775448336
 51
215.8224551663998
  0
CIRCLE
  5
2AE
330
1F
100
AcDbEntity
  8
化粧台
  6
EXLTYPE2
 62
     6
100
AcDbCircle
 10
819.999999999997
 20
1248.499999999999
 30
0.0
 40
4.75
  0
ARC
  5
2AF
330
1F
100
AcDbEntity
  8
化粧台
  6
EXLTYPE2
 62
     6
100
AcDbCircle
 10
846.999999999997
 20
1248.499999999999
 30
0.0
 40
40.0
100
AcDbArc
 50
165.6384884370866
 51
169.8112385239512
  0
ARC
  5
2B0
330
1F
100
AcDbEntity
  8
化粧台
  6
EXLTYPE2
 62
     6
100
AcDbCircle
 10
792.999999999997
 20
1248.499999999999
 30
0.0
 40
40.0
100
AcDbArc
 50
10.18876147604892
 51
14.36151156291657
  0
LINE
  5
2B1
330
1F
100
AcDbEntity
  8
化粧台
  6
EXLTYPE2
 62
     6
100
AcDbLine
 10
807.749999999997
 20
1241.219890110719
 30
0.0
 11
807.749999999997
 21
1228.365389352174
 31
0.0
  0
LINE
  5
2B2
330
1F
100
AcDbEntity
  8
化粧台
  6
EXLTYPE2
 62
     6
100
AcDbLine
 10
832.249999999997
 20
1241.219890110719
 30
0.0
 11
832.249999999997
 21
1228.365389352174
 31
0.0
  0
LINE
  5
2B3
330
1F
100
AcDbEntity
  8
化粧台
  6
EXLTYPE2
 62
     6
100
AcDbLine
 10
809.0304555427072
 20
1271.2
 30
0.0
 11
830.9695444572887
 21
1271.2
 31
0.0
  0
LINE
  5
2B4
330
1F
100
AcDbEntity
  8
化粧台
  6
EXLTYPE2
 62
     6
100
AcDbLine
 10
809.0304555427072
 20
1283.2
 30
0.0
 11
830.9695444572887
 21
1283.2
 31
0.0
  0
LINE
  5
2B5
330
1F
100
AcDbEntity
  8
化粧台
  6
EXLTYPE2
 62
     6
100
AcDbLine
 10
808.499999999997
 20
1282.29288719687
 30
0.0
 11
808.499999999997
 21
1272.10711280313
 31
0.0
  0
LINE
  5
2B6
330
1F
100
AcDbEntity
  8
化粧台
  6
EXLTYPE2
 62
     6
100
AcDbLine
 10
831.499999999997
 20
1282.29288719687
 30
0.0
 11
831.499999999997
 21
1272.10711280313
 31
0.0
  0
ARC
  5
2B7
330
1F
100
AcDbEntity
  8
化粧台
  6
EXLTYPE2
 62
     6
100
AcDbCircle
 10
818.249999999997
 20
1277.2
 30
0.0
 40
11.0
100
AcDbArc
 50
146.9442688490998
 51
152.4198007963999
  0
ARC
  5
2B8
330
1F
100
AcDbEntity
  8
化粧台
  6
EXLTYPE2
 62
     6
100
AcDbCircle
 10
818.249999999997
 20
1277.2
 30
0.0
 40
11.0
100
AcDbArc
 50
207.5801992036001
 51
213.0557311509001
  0
ARC
  5
2B9
330
1F
100
AcDbEntity
  8
化粧台
  6
EXLTYPE2
 62
     6
100
AcDbCircle
 10
821.749999999997
 20
1277.2
 30
0.0
 40
11.0
100
AcDbArc
 50
326.9442688491004
 51
332.4198007964001
  0
ARC
  5
2BA
330
1F
100
AcDbEntity
  8
化粧台
  6
EXLTYPE2
 62
     6
100
AcDbCircle
 10
821.749999999997
 20
1277.2
 30
0.0
 40
11.0
100
AcDbArc
 50
27.58019920359027
 51
33.05573115085006
  0
LINE
  5
2BB
330
1F
100
AcDbEntity
  8
化粧台
  6
EXLTYPE2
 62
     6
100
AcDbLine
 10
809.499999999997
 20
1271.2
 30
0.0
 11
809.499999999997
 21
1268.34313483298
 31
0.0
  0
LINE
  5
2BC
330
1F
100
AcDbEntity
  8
化粧台
  6
EXLTYPE2
 62
     6
100
AcDbLine
 10
830.499999999997
 20
1271.2
 30
0.0
 11
830.499999999997
 21
1268.34313483298
 31
0.0
  0
LINE
  5
2BD
330
1F
100
AcDbEntity
  8
化粧台
  6
EXLTYPE3
 62
     6
100
AcDbLine
 10
819.999999999997
 20
1298.2
 30
0.0
 11
819.999999999997
 21
875.5000000000009
 31
0.0
  0
LINE
  5
2BE
330
1F
100
AcDbEntity
  8
化粧台
  6
CONTINUOUS
 62
     6
100
AcDbLine
 10
809.499999999997
 20
902.5000000000009
 30
0.0
 11
809.499999999997
 21
890.5000000000009
 31
0.0
  0
LINE
  5
2BF
330
1F
100
AcDbEntity
  8
化粧台
  6
CONTINUOUS
 62
     6
100
AcDbLine
 10
830.4999999999952
 20
902.5000000000009
 30
0.0
 11
830.4999999999952
 21
890.5000000000009
 31
0.0
  0
LINE
  5
2C0
330
1F
100
AcDbEntity
  8
化粧台
  6
EXLTYPE2
 62
     6
100
AcDbLine
 10
830.4999999999952
 20
1213.499999999999
 30
0.0
 11
830.4999999999952
 21
902.5000000000009
 31
0.0
  0
LINE
  5
2C1
330
1F
100
AcDbEntity
  8
化粧台
  6
EXLTYPE2
 62
     6
100
AcDbLine
 10
809.499999999997
 20
1213.499999999999
 30
0.0
 11
809.499999999997
 21
902.5000000000009
 31
0.0
  0
LINE
  5
2C2
330
1F
100
AcDbEntity
  8
化粧台
  6
CONTINUOUS
 62
     6
100
AcDbLine
 10
1009.499999999996
 20
902.5000000000009
 30
0.0
 11
1009.499999999996
 21
890.5000000000009
 31
0.0
  0
LINE
  5
2C3
330
1F
100
AcDbEntity
  8
化粧台
  6
CONTINUOUS
 62
     6
100
AcDbLine
 10
1030.499999999994
 20
902.5000000000009
 30
0.0
 11
1030.499999999994
 21
890.5000000000009
 31
0.0
  0
LINE
  5
2C4
330
1F
100
AcDbEntity
  8
化粧台
  6
EXLTYPE2
 62
     6
100
AcDbLine
 10
1030.499999999994
 20
1213.499999999999
 30
0.0
 11
1030.499999999994
 21
902.5000000000009
 31
0.0
  0
LINE
  5
2C5
330
1F
100
AcDbEntity
  8
化粧台
  6
EXLTYPE2
 62
     6
100
AcDbLine
 10
1009.499999999996
 20
1213.499999999999
 30
0.0
 11
1009.499999999996
 21
902.5000000000009
 31
0.0
  0
LINE
  5
2C6
330
1F
100
AcDbEntity
  8
化粧台
  6
EXLTYPE2
 62
     6
100
AcDbLine
 10
1263.499999999993
 20
1518.500000000001
 30
0.0
 11
576.4999999999989
 21
1518.500000000001
 31
0.0
  0
ARC
  5
2C7
330
1F
100
AcDbEntity
  8
化粧台
  6
EXLTYPE2
 62
     6
100
AcDbCircle
 10
1026.999999999991
 20
1404.355042033626
 30
0.0
 40
214.0000000000001
100
AcDbArc
 50
144.2144699726478
 51
180.0
  0
LINE
  5
2C8
330
1F
100
AcDbEntity
  8
化粧台
  6
EXLTYPE2
 62
     6
100
AcDbLine
 10
812.9999999999989
 20
1283.200000000002
 30
0.0
 11
812.9999999999989
 21
1404.355042033626
 31
0.0
  0
ARC
  5
2C9
330
1F
100
AcDbEntity
  8
化粧台
  6
EXLTYPE2
 62
     6
100
AcDbCircle
 10
1026.999999999991
 20
1404.355042033626
 30
0.0
 40
200.0000000000001
100
AcDbArc
 50
142.2603937737965
 51
180.0
  0
LINE
  5
2CA
330
1F
100
AcDbEntity
  8
化粧台
  6
EXLTYPE2
 62
     6
100
AcDbLine
 10
826.9999999999916
 20
1283.2
 30
0.0
 11
826.9999999999916
 21
1404.355042033626
 31
0.0
  0
ARC
  5
2CB
330
1F
100
AcDbEntity
  8
化粧台
  6
EXLTYPE2
 62
     6
100
AcDbCircle
 10
812.9999999999989
 20
1404.355042033626
 30
0.0
 40
200.0000000000001
100
AcDbArc
 50
0.0
 51
37.73960622620351
  0
ARC
  5
2CC
330
1F
100
AcDbEntity
  8
化粧台
  6
EXLTYPE2
 62
     6
100
AcDbCircle
 10
812.9999999999989
 20
1404.355042033626
 30
0.0
 40
214.0000000000001
100
AcDbArc
 50
0.0
 51
35.78553002735229
  0
LINE
  5
2CD
330
1F
100
AcDbEntity
  8
化粧台
  6
EXLTYPE2
 62
     6
100
AcDbLine
 10
1012.999999999998
 20
1283.2
 30
0.0
 11
1012.999999999998
 21
1404.355042033626
 31
0.0
  0
LINE
  5
2CE
330
1F
100
AcDbEntity
  8
化粧台
  6
EXLTYPE2
 62
     6
100
AcDbLine
 10
1026.999999999992
 20
1283.200000000002
 30
0.0
 11
1026.999999999992
 21
1404.355042033626
 31
0.0
  0
LINE
  5
2CF
330
1F
100
AcDbEntity
  8
化粧台
  6
CONTINUOUS
 62
     6
100
AcDbLine
 10
868.9999999999989
 20
1713.500000000001
 30
0.0
 11
868.9999999999989
 21
1660.722387698
 31
0.0
  0
LINE
  5
2D0
330
1F
100
AcDbEntity
  8
化粧台
  6
CONTINUOUS
 62
     6
100
AcDbLine
 10
970.999999999998
 20
1713.500000000001
 30
0.0
 11
970.999999999998
 21
1660.722387698
 31
0.0
  0
ARC
  5
2D1
330
1F
100
AcDbEntity
  8
化粧台
  6
CONTINUOUS
 62
     2
100
AcDbCircle
 10
919.9999999999952
 20
15348.23723377253
 30
0.0
 40
13669.73723377254
100
AcDbArc
 50
268.4505542638817
 51
271.5494457361182
  0
LINE
  5
2D2
330
1F
100
AcDbEntity
  8
化粧台
  6
CONTINUOUS
 62
     6
100
AcDbLine
 10
1166.483209812823
 20
1680.722387698
 30
0.0
 11
673.5167901871598
 21
1680.722387698002
 31
0.0
  0
ARC
  5
2D3
330
1F
100
AcDbEntity
  8
化粧台
  6
CONTINUOUS
 62
     6
100
AcDbCircle
 10
942.0096830000009
 20
1670.724387697999
 30
0.0
 40
50.00000000000004
100
AcDbArc
 50
11.53462100000001
 51
22.02122299999999
  0
ARC
  5
2D4
330
1F
100
AcDbEntity
  8
化粧台
  6
CONTINUOUS
 62
     6
100
AcDbCircle
 10
979.0914839999984
 20
1685.722387698
 30
0.0
 40
10.0
100
AcDbArc
 50
22.02122299999999
 51
84.10152600000004
  0
LINE
  5
2D5
330
1F
100
AcDbEntity
  8
化粧台
  6
CONTINUOUS
 62
     6
100
AcDbLine
 10
941.4998860000003
 20
1766.722387698
 30
0.0
 11
943.2529380000003
 21
1716.521544698
 31
0.0
  0
LINE
  5
2D6
330
1F
100
AcDbEntity
  8
化粧台
  6
CONTINUOUS
 62
     6
100
AcDbLine
 10
935.9925640000008
 20
1729.548671697999
 30
0.0
 11
943.3480960000004
 21
1687.348684697999
 31
0.0
  0
ARC
  5
2D7
330
1F
100
AcDbEntity
  8
化粧台
  6
CONTINUOUS
 62
     6
100
AcDbCircle
 10
951.2292729999988
 20
1688.722387698
 30
0.0
 40
8.0
100
AcDbArc
 50
189.887424
 51
270.0000000000002
  0
ELLIPSE
  5
2D8
330
1F
100
AcDbEntity
  8
化粧台
  6
CONTINUOUS
 62
     6
100
AcDbEllipse
 10
919.9998860000003
 20
1766.722387698
 30
0.0
 11
21.49999999999999
 21
0.0
 31
0.0
210
0.0
220
0.0
230
1.0
 40
0.1736510000000002
 41
4.712388983790908
 42
6.502454307179588
  0
ELLIPSE
  5
2D9
330
1F
100
AcDbEntity
  8
化粧台
  6
CONTINUOUS
 62
     6
100
AcDbEllipse
 10
919.9998860000003
 20
1729.464639698
 30
0.0
 11
16.0
 21
0.0
 31
0.0
210
0.0
220
0.0
230
1.0
 40
0.173625
 41
0.0302539999999974
 42
1.570796
  0
ELLIPSE
  5
2DA
330
1F
100
AcDbEntity
  8
化粧台
  6
CONTINUOUS
 62
     6
100
AcDbEllipse
 10
919.9998860000003
 20
1729.464639698
 30
0.0
 11
12.25
 21
0.0
 31
0.0
210
0.0
220
0.0
230
1.0
 40
0.173633
 41
6.080809999999998
 42
7.853981307179586
  0
ELLIPSE
  5
2DB
330
1F
100
AcDbEntity
  8
化粧台
  6
CONTINUOUS
 62
     6
100
AcDbEllipse
 10
919.9998860000003
 20
1766.722387698
 30
0.0
 11
-21.49999999999999
 21
2.632990618166808E-15
 31
0.0
210
0.0
220
0.0
230
1.0
 40
0.1736510000000002
 41
6.063917000000006
 42
7.853981307179586
  0
ELLIPSE
  5
2DC
330
1F
100
AcDbEntity
  8
化粧台
  6
CONTINUOUS
 62
     6
100
AcDbEllipse
 10
919.9998860000003
 20
1729.464639698
 30
0.0
 11
-16.0
 21
1.959434878635765E-15
 31
0.0
210
0.0
220
0.0
230
1.0
 40
0.173625
 41
4.712388983790397
 42
6.252931
  0
ELLIPSE
  5
2DD
330
1F
100
AcDbEntity
  8
化粧台
  6
CONTINUOUS
 62
     6
100
AcDbEllipse
 10
919.9998860000003
 20
1729.464639698
 30
0.0
 11
-12.25
 21
1.500192328955508E-15
 31
0.0
210
0.0
220
0.0
230
1.0
 40
0.173633
 41
4.712388983790555
 42
6.485561307179584
  0
LINE
  5
2DE
330
1F
100
AcDbEntity
  8
化粧台
  6
CONTINUOUS
 62
     6
100
AcDbLine
 10
904.0072070000012
 20
1729.548671697999
 30
0.0
 11
896.6516749999998
 21
1687.348684697999
 31
0.0
  0
ARC
  5
2DF
330
1F
100
AcDbEntity
  8
化粧台
  6
CONTINUOUS
 62
     6
100
AcDbCircle
 10
888.7704980000005
 20
1688.722387698
 30
0.0
 40
8.0
100
AcDbArc
 50
270.0000000000002
 51
350.1125760000001
  0
ARC
  5
2E0
330
1F
100
AcDbEntity
  8
化粧台
  6
CONTINUOUS
 62
     6
100
AcDbCircle
 10
876.759017000001
 20
1717.219534698
 30
0.0
 40
20.0
100
AcDbArc
 50
274.098493
 51
358.0000000000003
  0
LINE
  5
2E1
330
1F
100
AcDbEntity
  8
化粧台
  6
CONTINUOUS
 62
     6
100
AcDbLine
 10
898.4998860000003
 20
1766.722387698
 30
0.0
 11
896.7468329999999
 21
1716.521544698
 31
0.0
  0
ARC
  5
2E2
330
1F
100
AcDbEntity
  8
化粧台
  6
CONTINUOUS
 62
     6
100
AcDbCircle
 10
919.9998860000003
 20
1113.755805698
 30
0.0
 40
585.010946
100
AcDbArc
 50
94.09849300000003
 51
95.89847400000004
  0
ARC
  5
2E3
330
1F
100
AcDbEntity
  8
化粧台
  6
CONTINUOUS
 62
     6
100
AcDbCircle
 10
860.9082870000009
 20
1685.722387698
 30
0.0
 40
10.0
100
AcDbArc
 50
95.89847400000004
 51
157.978777
  0
ARC
  5
2E4
330
1F
100
AcDbEntity
  8
化粧台
  6
CONTINUOUS
 62
     6
100
AcDbCircle
 10
897.9900880000012
 20
1670.724387697999
 30
0.0
 40
50.00000000000004
100
AcDbArc
 50
157.978777
 51
168.465379
  0
ARC
  5
2E5
330
1F
100
AcDbEntity
  8
化粧台
  6
CONTINUOUS
 62
     6
100
AcDbCircle
 10
918.9998860000003
 20
1766.721862697999
 30
0.0
 40
20.0
100
AcDbArc
 50
168.3536560000001
 51
180.0
  0
ARC
  5
2E6
330
1F
100
AcDbEntity
  8
化粧台
  6
CONTINUOUS
 62
     6
100
AcDbCircle
 10
920.9998860000003
 20
1766.721862697999
 30
0.0
 40
20.0
100
AcDbArc
 50
0.0
 51
11.64634399999997
  0
ARC
  5
2E7
330
1F
100
AcDbEntity
  8
化粧台
  6
CONTINUOUS
 62
     6
100
AcDbCircle
 10
997.4998859999994
 20
1772.335266698
 30
0.0
 40
100.0000000000001
100
AcDbArc
 50
170.5464760000001
 51
180.0
  0
ARC
  5
2E8
330
1F
100
AcDbEntity
  8
化粧台
  6
CONTINUOUS
 62
     6
100
AcDbCircle
 10
842.4998860000003
 20
1772.335266698
 30
0.0
 40
100.0000000000001
100
AcDbArc
 50
0.0
 51
9.453523999999977
  0
LINE
  5
2E9
330
1F
100
AcDbEntity
  8
化粧台
  6
CONTINUOUS
 62
     6
100
AcDbLine
 10
928.5068790000012
 20
1802.373033698
 30
0.0
 11
937.6443240000015
 21
1794.828895698
 31
0.0
  0
ARC
  5
2EA
330
1F
100
AcDbEntity
  8
化粧台
  6
CONTINUOUS
 62
     6
100
AcDbCircle
 10
931.2776099999999
 20
1787.117543697999
 30
0.0
 40
10.0
100
AcDbArc
 50
9.453523999999977
 51
50.45593600000003
  0
ARC
  5
2EB
330
1F
100
AcDbEntity
  8
化粧台
  6
CONTINUOUS
 62
     6
100
AcDbCircle
 10
919.9998860000003
 20
1773.877957698
 30
0.0
 40
30.00000000000002
100
AcDbArc
 50
75.85760600000002
 51
90.00000000000004
  0
ARC
  5
2EC
330
1F
100
AcDbEntity
  8
化粧台
  6
CONTINUOUS
 62
     6
100
AcDbCircle
 10
926.5968650000002
 20
1800.059627698
 30
0.0
 40
3.000000000000002
100
AcDbArc
 50
50.45593600000003
 51
75.85760600000002
  0
ARC
  5
2ED
330
1F
100
AcDbEntity
  8
化粧台
  6
CONTINUOUS
 62
     6
100
AcDbCircle
 10
919.9998860000003
 20
1773.877957698
 30
0.0
 40
30.00000000000002
100
AcDbArc
 50
90.00000000000004
 51
104.1423940000001
  0
ARC
  5
2EE
330
1F
100
AcDbEntity
  8
化粧台
  6
CONTINUOUS
 62
     6
100
AcDbCircle
 10
913.402906
 20
1800.059627698
 30
0.0
 40
3.000000000000002
100
AcDbArc
 50
104.1423940000001
 51
129.5440640000001
  0
LINE
  5
2EF
330
1F
100
AcDbEntity
  8
化粧台
  6
CONTINUOUS
 62
     6
100
AcDbLine
 10
911.4928920000009
 20
1802.373033698
 30
0.0
 11
902.3554470000006
 21
1794.828895698
 31
0.0
  0
ARC
  5
2F0
330
1F
100
AcDbEntity
  8
化粧台
  6
CONTINUOUS
 62
     6
100
AcDbCircle
 10
908.7221620000007
 20
1787.117543697999
 30
0.0
 40
10.0
100
AcDbArc
 50
129.5440640000001
 51
170.5464760000001
  0
ELLIPSE
  5
2F1
330
1F
100
AcDbEntity
  8
化粧台
  6
CONTINUOUS
 62
     6
100
AcDbEllipse
 10
919.9998860000003
 20
1772.335266698
 30
0.0
 11
22.49999999999996
 21
0.0
 31
0.0
210
0.0
220
0.0
230
1.0
 40
0.1736440000000004
 41
3.141592999999999
 42
6.283185307179586
  0
ELLIPSE
  5
2F2
330
1F
100
AcDbEntity
  8
化粧台
  6
CONTINUOUS
 62
     6
100
AcDbEllipse
 10
919.9998860000003
 20
1720.600844697999
 30
0.0
 11
12.0
 21
0.0
 31
0.0
210
0.0
220
0.0
230
1.0
 40
0.173667
 41
3.552730999999998
 42
5.872047000000019
  0
ARC
  5
2F3
330
1F
100
AcDbEntity
  8
化粧台
  6
CONTINUOUS
 62
     6
100
AcDbCircle
 10
963.2407539999983
 20
1717.219534698
 30
0.0
 40
20.0
100
AcDbArc
 50
182.0
 51
265.901507
  0
ARC
  5
2F4
330
1F
100
AcDbEntity
  8
化粧台
  6
CONTINUOUS
 62
     6
100
AcDbCircle
 10
919.9998860000003
 20
1113.755805698
 30
0.0
 40
585.010946
100
AcDbArc
 50
84.10152600000004
 51
85.90150700000002
  0
ELLIPSE
  5
2F5
330
1F
100
AcDbEntity
  8
化粧台
  6
CONTINUOUS
 62
     6
100
AcDbEllipse
 10
919.9998860000003
 20
1711.586141698
 30
0.0
 11
3.000000000000002
 21
0.0
 31
0.0
210
0.0
220
0.0
230
1.0
 40
0.4226669999999997
 41
0.0
 42
6.283185000000005
  0
LINE
  5
2F6
330
1F
100
AcDbEntity
  8
化粧台
  6
CONTINUOUS
 62
     6
100
AcDbLine
 10
922.9998860000003
 20
1717.023861698
 30
0.0
 11
922.9998860000003
 21
1711.586141698
 31
0.0
  0
LINE
  5
2F7
330
1F
100
AcDbEntity
  8
化粧台
  6
CONTINUOUS
 62
     6
100
AcDbLine
 10
916.9998860000003
 20
1717.023861698
 30
0.0
 11
916.9998860000003
 21
1711.586141698
 31
0.0
  0
ELLIPSE
  5
2F8
330
1F
100
AcDbEntity
  8
化粧台
  6
CONTINUOUS
 62
     6
100
AcDbEllipse
 10
919.9998860000003
 20
1717.023861698
 30
0.0
 11
3.000000000000002
 21
0.0
 31
0.0
210
0.0
220
0.0
230
1.0
 40
0.4226669999999997
 41
0.0
 42
3.141593000000003
  0
ARC
  5
2F9
330
1F
100
AcDbEntity
  8
化粧台
  6
CONTINUOUS
 62
     6
100
AcDbCircle
 10
926.5328120000001
 20
1772.335266698
 30
0.0
 40
29.03292600000001
100
AcDbArc
 50
129.5440640000001
 51
158.021405
  0
LINE
  5
2FA
330
1F
100
AcDbEntity
  8
化粧台
  6
CONTINUOUS
 62
     6
100
AcDbLine
 10
927.5303980000015
 20
1797.986057698
 30
0.0
 11
911.9998860000003
 21
1797.986057698
 31
0.0
  0
LINE
  5
2FB
330
1F
100
AcDbEntity
  8
化粧台
  6
CONTINUOUS
 62
     6
100
AcDbLine
 10
911.6647400000008
 20
1797.709350698
 30
0.0
 11
908.0483760000013
 21
1794.723577698
 31
0.0
  0
LINE
  5
2FC
330
1F
100
AcDbEntity
  8
化粧台
  6
CONTINUOUS
 62
     6
100
AcDbLine
 10
928.3350319999997
 20
1797.709350698
 30
0.0
 11
931.9513950000007
 21
1794.723577698
 31
0.0
  0
ARC
  5
2FD
330
1F
100
AcDbEntity
  8
化粧台
  6
CONTINUOUS
 62
     6
100
AcDbCircle
 10
913.4669590000001
 20
1772.335266698
 30
0.0
 40
29.03292600000001
100
AcDbArc
 50
22.88048500000001
 51
50.45593600000003
  0
LINE
  5
2FE
330
1F
100
AcDbEntity
  8
化粧台
  6
CONTINUOUS
 62
     6
100
AcDbLine
 10
927.9998860000003
 20
1801.883928698
 30
0.0
 11
927.9998860000003
 21
1798.600599698
 31
0.0
  0
LINE
  5
2FF
330
1F
100
AcDbEntity
  8
化粧台
  6
CONTINUOUS
 62
     6
100
AcDbLine
 10
911.9998860000003
 20
1801.883928698
 30
0.0
 11
911.9998860000003
 21
1798.600599698
 31
0.0
  0
ELLIPSE
  5
300
330
1F
100
AcDbEntity
  8
化粧台
  6
CONTINUOUS
 62
     6
100
AcDbEllipse
 10
919.9998860000003
 20
1778.768663698
 30
0.0
 11
5.25
 21
0.0
 31
0.0
210
0.0
220
0.0
230
1.0
 40
0.9847620000000001
 41
0.0
 42
6.283185000000004
  0
LINE
  5
301
330
1F
100
AcDbEntity
  8
化粧台
  6
CONTINUOUS
 62
     6
100
AcDbLine
 10
919.9998860000003
 20
1783.938663698
 30
0.0
 11
919.9998860000003
 21
1773.598663698
 31
0.0
  0
LINE
  5
302
330
1F
100
AcDbEntity
  8
化粧台
  6
CONTINUOUS
 62
     6
100
AcDbLine
 10
935.9856459999999
 20
1734.915917697999
 30
0.0
 11
935.9856459999999
 21
1737.582492697999
 31
0.0
  0
ARC
  5
303
330
1F
100
AcDbEntity
  8
化粧台
  6
CONTINUOUS
 62
     6
100
AcDbCircle
 10
919.9998860000003
 20
1717.970240698
 30
0.0
 40
30.00000000000002
100
AcDbArc
 50
72.54239700000001
 51
90.00000000000004
  0
ARC
  5
304
330
1F
100
AcDbEntity
  8
化粧台
  6
CONTINUOUS
 62
     6
100
AcDbCircle
 10
925.9998860000003
 20
1737.049024698
 30
0.0
 40
10.0
100
AcDbArc
 50
3.057995
 51
16.60854300000003
  0
ARC
  5
305
330
1F
100
AcDbEntity
  8
化粧台
  6
CONTINUOUS
 62
     6
100
AcDbCircle
 10
925.9998860000003
 20
1737.049024698
 30
0.0
 40
10.0
100
AcDbArc
 50
33.49331300000004
 51
72.54239700000001
  0
LINE
  5
306
330
1F
100
AcDbEntity
  8
化粧台
  6
CONTINUOUS
 62
     6
100
AcDbLine
 10
934.339388000001
 20
1742.567421698
 30
0.0
 11
939.6941350000004
 21
1734.475229698
 31
0.0
  0
ARC
  5
307
330
1F
100
AcDbEntity
  8
化粧台
  6
CONTINUOUS
 62
     6
100
AcDbCircle
 10
913.9998860000003
 20
1737.049024698
 30
0.0
 40
10.0
100
AcDbArc
 50
107.457603
 51
146.506687
  0
LINE
  5
308
330
1F
100
AcDbEntity
  8
化粧台
  6
CONTINUOUS
 62
     6
100
AcDbLine
 10
904.0141250000004
 20
1734.915917697999
 30
0.0
 11
904.0141250000004
 21
1737.582492697999
 31
0.0
  0
LINE
  5
309
330
1F
100
AcDbEntity
  8
化粧台
  6
CONTINUOUS
 62
     6
100
AcDbLine
 10
905.660383000001
 20
1742.567421698
 30
0.0
 11
900.3056359999998
 21
1734.475229698
 31
0.0
  0
ARC
  5
30A
330
1F
100
AcDbEntity
  8
化粧台
  6
CONTINUOUS
 62
     6
100
AcDbCircle
 10
919.9998860000003
 20
1717.970240698
 30
0.0
 40
30.00000000000002
100
AcDbArc
 50
90.00000000000004
 51
107.457603
  0
ARC
  5
30B
330
1F
100
AcDbEntity
  8
化粧台
  6
CONTINUOUS
 62
     6
100
AcDbCircle
 10
913.9998860000003
 20
1737.049024698
 30
0.0
 40
10.0
100
AcDbArc
 50
163.3914570000001
 51
176.942005
  0
ELLIPSE
  5
30C
330
1F
100
AcDbEntity
  8
化粧台
  6
CONTINUOUS
 62
     6
100
AcDbEllipse
 10
919.9998860000003
 20
1720.600844697999
 30
0.0
 11
12.0
 21
0.0
 31
0.0
210
0.0
220
0.0
230
1.0
 40
0.173667
 41
5.87204744485427
 42
9.835915823094709
  0
LINE
  5
30D
330
1F
100
AcDbEntity
  8
化粧台
  6
CONTINUOUS
 62
     6
100
AcDbLine
 10
931.9998860000003
 20
1720.600844697999
 30
0.0
 11
931.9998860000003
 21
1729.892160698
 31
0.0
  0
LINE
  5
30E
330
1F
100
AcDbEntity
  8
化粧台
  6
CONTINUOUS
 62
     6
100
AcDbLine
 10
907.9998860000003
 20
1720.600844697999
 30
0.0
 11
907.9998860000003
 21
1729.892160698
 31
0.0
  0
LINE
  5
30F
330
1F
100
AcDbEntity
  8
化粧台
  6
CONTINUOUS
 62
     2
100
AcDbLine
 10
549.9999999999989
 20
1693.500000000001
 30
0.0
 11
854.6226886291395
 21
1693.500000000001
 31
0.0
  0
LINE
  5
310
330
1F
100
AcDbEntity
  8
化粧台
  6
CONTINUOUS
 62
     2
100
AcDbLine
 10
985.377082370858
 20
1693.500000000001
 30
0.0
 11
1289.99999999999
 21
1693.500000000001
 31
0.0
  0
LINE
  5
311
330
1F
100
AcDbEntity
  8
化粧台
  6
CONTINUOUS
 62
     2
100
AcDbLine
 10
849.6497970378139
 20
1683.500000000001
 30
0.0
 11
550.24011529409
 21
1683.500000000001
 31
0.0
  0
LINE
  5
312
330
1F
100
AcDbEntity
  8
化粧台
  6
CONTINUOUS
 62
     2
100
AcDbLine
 10
1289.759884705899
 20
1683.500000000001
 30
0.0
 11
990.3499739621855
 21
1683.500000000001
 31
0.0
  0
LINE
  5
313
330
1F
100
AcDbEntity
  8
化粧台
  6
EXLTYPE3
 62
     6
100
AcDbLine
 10
919.999999999997
 20
1818.877957698
 30
0.0
 11
919.999999999997
 21
853.5000000000009
 31
0.0
  0
LINE
  5
314
330
1F
100
AcDbEntity
  8
化粧台
  6
EXLTYPE4
 62
     6
100
AcDbLine
 10
2554.999999999997
 20
898.5
 30
0.0
 11
1926.499999999992
 21
898.5
 31
0.0
  0
TEXT
  5
315
330
1F
100
AcDbEntity
  8
化粧台
  6
CONTINUOUS
 62
     2
100
AcDbText
 10
1926.499999999992
 20
898.5
 30
0.0
 40
59.99999618530273
  1
F.L.
 41
0.6227488631227187
  7
EXCADSTD
 72
     5
 11
2017.243399999993
 21
898.5
 31
0.0
100
AcDbText
  0
LINE
  5
316
330
1F
100
AcDbEntity
  8
化粧台
  6
CONTINUOUS
 62
     2
100
AcDbLine
 10
2147.999999999995
 20
1548.500000000001
 30
0.0
 11
2147.999999999995
 21
993.5000000000009
 31
0.0
  0
LINE
  5
317
330
1F
100
AcDbEntity
  8
化粧台
  6
CONTINUOUS
 62
     2
100
AcDbLine
 10
2162.999999999995
 20
1548.500000000001
 30
0.0
 11
2162.999999999995
 21
993.5000000000009
 31
0.0
  0
LINE
  5
318
330
1F
100
AcDbEntity
  8
化粧台
  6
CONTINUOUS
 62
     2
100
AcDbLine
 10
2162.999999999995
 20
1548.500000000001
 30
0.0
 11
2147.999999999995
 21
1548.500000000001
 31
0.0
  0
LINE
  5
319
330
1F
100
AcDbEntity
  8
化粧台
  6
EXLTYPE3
 62
     6
100
AcDbLine
 10
2344.999999999996
 20
1538.500000000001
 30
0.0
 11
2344.999999999996
 21
1373.500000000001
 31
0.0
  0
LINE
  5
31A
330
1F
100
AcDbEntity
  8
化粧台
  6
CONTINUOUS
 62
     2
100
AcDbLine
 10
2554.999999999997
 20
1483.500000000001
 30
0.0
 11
2554.999999999997
 21
1443.500000000001
 31
0.0
  0
LINE
  5
31B
330
1F
100
AcDbEntity
  8
化粧台
  6
CONTINUOUS
 62
     2
100
AcDbLine
 10
2162.999999999995
 20
993.5000000000009
 30
0.0
 11
2147.999999999995
 21
993.5000000000009
 31
0.0
  0
LINE
  5
31C
330
1F
100
AcDbEntity
  8
化粧台
  6
CONTINUOUS
 62
     2
100
AcDbLine
 10
2493.249999999997
 20
898.5000000000009
 30
0.0
 11
2506.749999999997
 21
898.5000000000009
 31
0.0
  0
LINE
  5
31D
330
1F
100
AcDbEntity
  8
化粧台
  6
CONTINUOUS
 62
     2
100
AcDbLine
 10
2506.749999999997
 20
898.5000000000009
 30
0.0
 11
2506.749999999997
 21
902.0000000000009
 31
0.0
  0
LINE
  5
31E
330
1F
100
AcDbEntity
  8
化粧台
  6
CONTINUOUS
 62
     2
100
AcDbLine
 10
2493.249999999997
 20
898.5000000000009
 30
0.0
 11
2493.249999999997
 21
902.0000000000009
 31
0.0
  0
LINE
  5
31F
330
1F
100
AcDbEntity
  8
化粧台
  6
CONTINUOUS
 62
     2
100
AcDbLine
 10
2213.249999999995
 20
898.5000000000009
 30
0.0
 11
2226.749999999995
 21
898.5000000000009
 31
0.0
  0
LINE
  5
320
330
1F
100
AcDbEntity
  8
化粧台
  6
CONTINUOUS
 62
     2
100
AcDbLine
 10
2226.749999999995
 20
898.5000000000009
 30
0.0
 11
2226.749999999995
 21
902.0000000000009
 31
0.0
  0
LINE
  5
321
330
1F
100
AcDbEntity
  8
化粧台
  6
CONTINUOUS
 62
     2
100
AcDbLine
 10
2213.249999999995
 20
898.5000000000009
 30
0.0
 11
2213.249999999995
 21
902.0000000000009
 31
0.0
  0
LINE
  5
322
330
1F
100
AcDbEntity
  8
化粧台
  6
CONTINUOUS
 62
     2
100
AcDbLine
 10
2122.999999999982
 20
1510.000000000001
 30
0.0
 11
2147.999999999985
 21
1510.000000000001
 31
0.0
  0
LINE
  5
323
330
1F
100
AcDbEntity
  8
化粧台
  6
CONTINUOUS
 62
     2
100
AcDbLine
 10
2122.999999999982
 20
1497.000000000001
 30
0.0
 11
2122.999999999982
 21
1510.000000000001
 31
0.0
  0
LINE
  5
324
330
1F
100
AcDbEntity
  8
化粧台
  6
CONTINUOUS
 62
     2
100
AcDbLine
 10
2122.999999999982
 20
1497.000000000001
 30
0.0
 11
2147.999999999985
 21
1497.000000000001
 31
0.0
  0
LINE
  5
325
330
1F
100
AcDbEntity
  8
化粧台
  6
CONTINUOUS
 62
     2
100
AcDbLine
 10
2129.999999999982
 20
1497.000000000001
 30
0.0
 11
2129.999999999982
 21
1510.000000000001
 31
0.0
  0
LINE
  5
326
330
1F
100
AcDbEntity
  8
化粧台
  6
CONTINUOUS
 62
     2
100
AcDbLine
 10
2164.999999999995
 20
902.0000000000009
 30
0.0
 11
2554.999999999997
 21
902.0000000000009
 31
0.0
  0
LINE
  5
327
330
1F
100
AcDbEntity
  8
化粧台
  6
EXLTYPE2
 62
     6
100
AcDbLine
 10
2167.999999999995
 20
988.7500000000009
 30
0.0
 11
2167.999999999995
 21
902.0000000000009
 31
0.0
  0
LINE
  5
328
330
1F
100
AcDbEntity
  8
化粧台
  6
EXLTYPE2
 62
     6
100
AcDbLine
 10
2182.999999999995
 20
988.7500000000009
 30
0.0
 11
2182.999999999995
 21
902.0000000000009
 31
0.0
  0
LINE
  5
329
330
1F
100
AcDbEntity
  8
化粧台
  6
EXLTYPE2
 62
     6
100
AcDbLine
 10
2539.999999999997
 20
988.7500000000009
 30
0.0
 11
2164.999999999995
 21
988.7500000000009
 31
0.0
  0
LINE
  5
32A
330
1F
100
AcDbEntity
  8
化粧台
  6
EXLTYPE2
 62
     6
100
AcDbLine
 10
2537.499999999997
 20
1003.750000000001
 30
0.0
 11
2164.999999999995
 21
1003.750000000001
 31
0.0
  0
LINE
  5
32B
330
1F
100
AcDbEntity
  8
化粧台
  6
EXLTYPE2
 62
     6
100
AcDbLine
 10
2537.499999999997
 20
1006.250000000001
 30
0.0
 11
2164.999999999995
 21
1006.250000000001
 31
0.0
  0
LINE
  5
32C
330
1F
100
AcDbEntity
  8
化粧台
  6
EXLTYPE2
 62
     6
100
AcDbLine
 10
2537.499999999997
 20
1483.500000000001
 30
0.0
 11
2537.499999999997
 21
988.7500000000009
 31
0.0
  0
LINE
  5
32D
330
1F
100
AcDbEntity
  8
化粧台
  6
EXLTYPE2
 62
     6
100
AcDbLine
 10
2539.999999999997
 20
1483.500000000001
 30
0.0
 11
2539.999999999997
 21
988.7500000000009
 31
0.0
  0
LINE
  5
32E
330
1F
100
AcDbEntity
  8
化粧台
  6
CONTINUOUS
 62
     6
100
AcDbLine
 10
2284.999999999995
 20
1003.750000000001
 30
0.0
 11
2284.999999999995
 21
988.7500000000009
 31
0.0
  0
LINE
  5
32F
330
1F
100
AcDbEntity
  8
化粧台
  6
CONTINUOUS
 62
     6
100
AcDbLine
 10
2249.999999999995
 20
1003.750000000001
 30
0.0
 11
2249.999999999995
 21
988.7500000000009
 31
0.0
  0
LINE
  5
330
330
1F
100
AcDbEntity
  8
化粧台
  6
CONTINUOUS
 62
     6
100
AcDbLine
 10
2197.999999999995
 20
1003.750000000001
 30
0.0
 11
2197.999999999995
 21
988.7500000000009
 31
0.0
  0
LINE
  5
331
330
1F
100
AcDbEntity
  8
化粧台
  6
CONTINUOUS
 62
     6
100
AcDbLine
 10
2504.999999999997
 20
1003.750000000001
 30
0.0
 11
2504.999999999997
 21
988.7500000000009
 31
0.0
  0
LINE
  5
332
330
1F
100
AcDbEntity
  8
化粧台
  6
EXLTYPE2
 62
     6
100
AcDbLine
 10
2183.249999999995
 20
1568.500000000001
 30
0.0
 11
2183.249999999995
 21
1518.500000000001
 31
0.0
  0
LINE
  5
333
330
1F
100
AcDbEntity
  8
化粧台
  6
EXLTYPE2
 62
     6
100
AcDbLine
 10
2164.999999999995
 20
1568.500000000001
 30
0.0
 11
2183.249999999995
 21
1568.500000000001
 31
0.0
  0
LINE
  5
334
330
1F
100
AcDbEntity
  8
化粧台
  6
EXLTYPE2
 62
     6
100
AcDbLine
 10
2164.999999999995
 20
1518.500000000001
 30
0.0
 11
2183.249999999995
 21
1518.500000000001
 31
0.0
  0
LINE
  5
335
330
1F
100
AcDbEntity
  8
化粧台
  6
EXLTYPE2
 62
     6
100
AcDbLine
 10
2539.999999999997
 20
1443.500000000001
 30
0.0
 11
2554.999999999997
 21
1443.500000000001
 31
0.0
  0
LINE
  5
336
330
1F
100
AcDbEntity
  8
化粧台
  6
EXLTYPE2
 62
     6
100
AcDbLine
 10
2537.499999999997
 20
1483.500000000001
 30
0.0
 11
2554.999999999997
 21
1483.500000000001
 31
0.0
  0
LINE
  5
337
330
1F
100
AcDbEntity
  8
化粧台
  6
CONTINUOUS
 62
     6
100
AcDbLine
 10
2554.999999999997
 20
1455.500000000001
 30
0.0
 11
2587.499999999997
 21
1453.499999999999
 31
0.0
  0
LINE
  5
338
330
1F
100
AcDbEntity
  8
化粧台
  6
CONTINUOUS
 62
     6
100
AcDbLine
 10
2587.499999999997
 20
1453.499999999999
 30
0.0
 11
2554.999999999997
 21
1451.500000000001
 31
0.0
  0
LINE
  5
339
330
1F
100
AcDbEntity
  8
化粧台
  6
CONTINUOUS
 62
     6
100
AcDbLine
 10
2536.999999999994
 20
1461.000000000001
 30
0.0
 11
2535.999999999994
 21
1461.000000000001
 31
0.0
  0
LINE
  5
33A
330
1F
100
AcDbEntity
  8
化粧台
  6
CONTINUOUS
 62
     6
100
AcDbLine
 10
2536.999999999994
 20
1445.999999999999
 30
0.0
 11
2535.999999999994
 21
1445.999999999999
 31
0.0
  0
ARC
  5
33B
330
1F
100
AcDbEntity
  8
化粧台
  6
CONTINUOUS
 62
     6
100
AcDbCircle
 10
2537.039655172409
 20
1453.499999999999
 30
0.0
 40
3.939655172413634
100
AcDbArc
 50
105.3013019106999
 51
254.6986980892994
  0
LINE
  5
33C
330
1F
100
AcDbEntity
  8
化粧台
  6
CONTINUOUS
 62
     6
100
AcDbLine
 10
2535.999999999994
 20
1461.000000000001
 30
0.0
 11
2535.999999999994
 21
1445.999999999999
 31
0.0
  0
LINE
  5
33D
330
1F
100
AcDbEntity
  8
化粧台
  6
CONTINUOUS
 62
     6
100
AcDbLine
 10
2523.099999999996
 20
1453.499999999999
 30
0.0
 11
2597.499999999994
 21
1453.499999999999
 31
0.0
  0
LINE
  5
33E
330
1F
100
AcDbEntity
  8
化粧台
  6
EXLTYPE3
 62
     6
100
AcDbLine
 10
2435.000000000037
 20
1069.000000000001
 30
0.0
 11
2435.000000000037
 21
853.5000000000045
 31
0.0
  0
LINE
  5
33F
330
1F
100
AcDbEntity
  8
化粧台
  6
EXLTYPE2
 62
     6
100
AcDbLine
 10
2309.999999999996
 20
1485.500000000001
 30
0.0
 11
2314.186046511626
 21
1488.500000000001
 31
0.0
  0
LINE
  5
340
330
1F
100
AcDbEntity
  8
化粧台
  6
EXLTYPE2
 62
     6
100
AcDbLine
 10
2309.999999999996
 20
1485.500000000001
 30
0.0
 11
2309.999999999996
 21
1478.000000000001
 31
0.0
  0
LINE
  5
341
330
1F
100
AcDbEntity
  8
化粧台
  6
EXLTYPE2
 62
     6
100
AcDbLine
 10
2371.249999999996
 20
1433.500000000001
 30
0.0
 11
2360.749999999996
 21
1424.500000000001
 31
0.0
  0
LINE
  5
342
330
1F
100
AcDbEntity
  8
化粧台
  6
EXLTYPE2
 62
     6
100
AcDbLine
 10
2373.412795257995
 20
1461.000000000001
 30
0.0
 11
2371.249999999996
 21
1458.000000000001
 31
0.0
  0
LINE
  5
343
330
1F
100
AcDbEntity
  8
化粧台
  6
EXLTYPE2
 62
     6
100
AcDbLine
 10
2373.412795257995
 20
1478.000000000001
 30
0.0
 11
2373.412795257995
 21
1461.000000000001
 31
0.0
  0
LINE
  5
344
330
1F
100
AcDbEntity
  8
化粧台
  6
EXLTYPE2
 62
     6
100
AcDbLine
 10
2371.249999999996
 20
1458.000000000001
 30
0.0
 11
2371.249999999996
 21
1433.500000000001
 31
0.0
  0
LINE
  5
345
330
1F
100
AcDbEntity
  8
化粧台
  6
EXLTYPE2
 62
     6
100
AcDbLine
 10
2318.749999999996
 20
1433.500000000001
 30
0.0
 11
2329.249999999996
 21
1424.500000000001
 31
0.0
  0
LINE
  5
346
330
1F
100
AcDbEntity
  8
化粧台
  6
EXLTYPE2
 62
     6
100
AcDbLine
 10
2316.587204741994
 20
1461.000000000001
 30
0.0
 11
2318.749999999996
 21
1458.000000000001
 31
0.0
  0
LINE
  5
347
330
1F
100
AcDbEntity
  8
化粧台
  6
EXLTYPE2
 62
     6
100
AcDbLine
 10
2316.587204741994
 20
1478.000000000001
 30
0.0
 11
2316.587204741994
 21
1461.000000000001
 31
0.0
  0
LINE
  5
348
330
1F
100
AcDbEntity
  8
化粧台
  6
EXLTYPE2
 62
     6
100
AcDbLine
 10
2318.749999999996
 20
1458.000000000001
 30
0.0
 11
2318.749999999996
 21
1433.500000000001
 31
0.0
  0
LINE
  5
349
330
1F
100
AcDbEntity
  8
化粧台
  6
EXLTYPE2
 62
     6
100
AcDbLine
 10
2309.999999999996
 20
1478.000000000001
 30
0.0
 11
2379.999999999996
 21
1478.000000000001
 31
0.0
  0
LINE
  5
34A
330
1F
100
AcDbEntity
  8
化粧台
  6
EXLTYPE2
 62
     6
100
AcDbLine
 10
2318.749999999996
 20
1458.000000000001
 30
0.0
 11
2371.249999999996
 21
1458.000000000001
 31
0.0
  0
LINE
  5
34B
330
1F
100
AcDbEntity
  8
化粧台
  6
EXLTYPE2
 62
     6
100
AcDbLine
 10
2318.749999999996
 20
1433.500000000001
 30
0.0
 11
2371.249999999996
 21
1433.500000000001
 31
0.0
  0
LINE
  5
34C
330
1F
100
AcDbEntity
  8
化粧台
  6
EXLTYPE2
 62
     6
100
AcDbLine
 10
2329.249999999996
 20
1424.500000000001
 30
0.0
 11
2360.749999999996
 21
1424.500000000001
 31
0.0
  0
LINE
  5
34D
330
1F
100
AcDbEntity
  8
化粧台
  6
EXLTYPE2
 62
     6
100
AcDbLine
 10
2461.999999999994
 20
953.5000038146509
 30
0.0
 11
2461.999999999994
 21
942.5000019073022
 31
0.0
  0
LINE
  5
34E
330
1F
100
AcDbEntity
  8
化粧台
  6
EXLTYPE2
 62
     6
100
AcDbLine
 10
2468.500003814691
 20
938.5000019073022
 30
0.0
 11
2468.500003814691
 21
918.9999999999536
 31
0.0
  0
ARC
  5
34F
330
1F
100
AcDbEntity
  8
化粧台
  6
EXLTYPE2
 62
     6
100
AcDbCircle
 10
2458.999999999994
 20
953.5000038146509
 30
0.0
 40
3.000000000000002
100
AcDbArc
 50
359.9999949910431
 51
89.99999749552043
  0
ARC
  5
350
330
1F
100
AcDbEntity
  8
化粧台
  6
EXLTYPE2
 62
     6
100
AcDbCircle
 10
2462.999999999994
 20
942.5000019073022
 30
0.0
 40
1.0
100
AcDbArc
 50
180.0
 51
270.0000000000002
  0
ARC
  5
351
330
1F
100
AcDbEntity
  8
化粧台
  6
EXLTYPE2
 62
     6
100
AcDbCircle
 10
2465.500003814691
 20
938.5000019073022
 30
0.0
 40
3.000000000000002
100
AcDbArc
 50
359.9999949910431
 51
89.99999749552043
  0
ARC
  5
352
330
1F
100
AcDbEntity
  8
化粧台
  6
EXLTYPE2
 62
     6
100
AcDbCircle
 10
2468.000003814691
 20
918.9999999999536
 30
0.0
 40
0.5
100
AcDbArc
 50
270.0000000000002
 51
0.0
  0
LINE
  5
353
330
1F
100
AcDbEntity
  8
化粧台
  6
EXLTYPE2
 62
     6
100
AcDbLine
 10
2457.999996185296
 20
974.3465188788914
 30
0.0
 11
2457.999996185296
 21
958.5465196418309
 31
0.0
  0
ARC
  5
354
330
1F
100
AcDbEntity
  8
化粧台
  6
EXLTYPE2
 62
     6
100
AcDbCircle
 10
2455.999996185296
 20
974.3465188788914
 30
0.0
 40
2.0
100
AcDbArc
 50
0.0000086514229809
 51
90.0000043257139
  0
LINE
  5
355
330
1F
100
AcDbEntity
  8
化粧台
  6
EXLTYPE2
 62
     6
100
AcDbLine
 10
2407.999999999996
 20
953.5000038146509
 30
0.0
 11
2407.999999999996
 21
942.5000019073022
 31
0.0
  0
LINE
  5
356
330
1F
100
AcDbEntity
  8
化粧台
  6
EXLTYPE2
 62
     6
100
AcDbLine
 10
2401.499996185299
 20
938.5000019073022
 30
0.0
 11
2401.499996185299
 21
918.9999999999536
 31
0.0
  0
ARC
  5
357
330
1F
100
AcDbEntity
  8
化粧台
  6
EXLTYPE2
 62
     6
100
AcDbCircle
 10
2410.999999999997
 20
953.5000038146509
 30
0.0
 40
3.000000000000002
100
AcDbArc
 50
90.00000250448174
 51
180.000005008957
  0
ARC
  5
358
330
1F
100
AcDbEntity
  8
化粧台
  6
EXLTYPE2
 62
     6
100
AcDbCircle
 10
2406.999999999996
 20
942.5000019073022
 30
0.0
 40
1.0
100
AcDbArc
 50
270.0000000000002
 51
0.0
  0
ARC
  5
359
330
1F
100
AcDbEntity
  8
化粧台
  6
EXLTYPE2
 62
     6
100
AcDbCircle
 10
2404.499996185299
 20
938.5000019073022
 30
0.0
 40
3.000000000000002
100
AcDbArc
 50
90.00000250448174
 51
180.000005008957
  0
ARC
  5
35A
330
1F
100
AcDbEntity
  8
化粧台
  6
EXLTYPE2
 62
     6
100
AcDbCircle
 10
2401.999996185299
 20
918.9999999999536
 30
0.0
 40
0.5
100
AcDbArc
 50
180.0
 51
270.0000000000002
  0
LINE
  5
35B
330
1F
100
AcDbEntity
  8
化粧台
  6
EXLTYPE2
 62
     6
100
AcDbLine
 10
2412.000003814695
 20
974.3465188788914
 30
0.0
 11
2412.000003814695
 21
958.5465196418309
 31
0.0
  0
ARC
  5
35C
330
1F
100
AcDbEntity
  8
化粧台
  6
EXLTYPE2
 62
     6
100
AcDbCircle
 10
2414.000003814695
 20
974.3465188788914
 30
0.0
 40
2.0
100
AcDbArc
 50
89.99999567428607
 51
179.9999913485771
  0
LINE
  5
35D
330
1F
100
AcDbEntity
  8
化粧台
  6
EXLTYPE2
 62
     6
100
AcDbLine
 10
2455.999996185296
 20
976.3465188788914
 30
0.0
 11
2414.000003814695
 21
976.3465188788914
 31
0.0
  0
LINE
  5
35E
330
1F
100
AcDbEntity
  8
化粧台
  6
EXLTYPE2
 62
     6
100
AcDbLine
 10
2457.999996185296
 20
958.5465196418309
 30
0.0
 11
2412.000003814695
 21
958.5465196418309
 31
0.0
  0
LINE
  5
35F
330
1F
100
AcDbEntity
  8
化粧台
  6
EXLTYPE2
 62
     6
100
AcDbLine
 10
2458.999999999994
 20
956.5000038146509
 30
0.0
 11
2410.999999999997
 21
956.5000038146509
 31
0.0
  0
LINE
  5
360
330
1F
100
AcDbEntity
  8
化粧台
  6
EXLTYPE2
 62
     6
100
AcDbLine
 10
2465.500003814691
 20
941.5000019073022
 30
0.0
 11
2404.499996185299
 21
941.5000019073022
 31
0.0
  0
LINE
  5
361
330
1F
100
AcDbEntity
  8
化粧台
  6
EXLTYPE2
 62
     6
100
AcDbLine
 10
2468.000003814691
 20
918.4999999999536
 30
0.0
 11
2401.999996185295
 21
918.4999999999536
 31
0.0
  0
LINE
  5
362
330
1F
100
AcDbEntity
  8
化粧台
  6
EXLTYPE2
 62
     6
100
AcDbLine
 10
2326.749999999996
 20
1396.700000000002
 30
0.0
 11
2326.749999999996
 21
1356.611863703302
 31
0.0
  0
LINE
  5
363
330
1F
100
AcDbEntity
  8
化粧台
  6
EXLTYPE2
 62
     6
100
AcDbLine
 10
2363.249999999996
 20
1396.700000000002
 30
0.0
 11
2363.249999999996
 21
1356.611863703302
 31
0.0
  0
LINE
  5
364
330
1F
100
AcDbEntity
  8
化粧台
  6
EXLTYPE2
 62
     6
100
AcDbLine
 10
2326.749999999996
 20
1356.611863703302
 30
0.0
 11
2327.999999999996
 21
1355.611863671301
 31
0.0
  0
LINE
  5
365
330
1F
100
AcDbEntity
  8
化粧台
  6
EXLTYPE2
 62
     6
100
AcDbLine
 10
2361.999999999996
 20
1355.611863671301
 30
0.0
 11
2363.249999999996
 21
1356.611863703302
 31
0.0
  0
LINE
  5
366
330
1F
100
AcDbEntity
  8
化粧台
  6
EXLTYPE2
 62
     6
100
AcDbLine
 10
2327.999999999996
 20
1355.611863671303
 30
0.0
 11
2361.999999999996
 21
1355.611863671303
 31
0.0
  0
LINE
  5
367
330
1F
100
AcDbEntity
  8
化粧台
  6
EXLTYPE2
 62
     6
100
AcDbLine
 10
2320.749999999996
 20
1396.700000000002
 30
0.0
 11
2369.249999999996
 21
1396.700000000002
 31
0.0
  0
LINE
  5
368
330
1F
100
AcDbEntity
  8
化粧台
  6
EXLTYPE2
 62
     6
100
AcDbLine
 10
2320.749999999996
 20
1411.500000000001
 30
0.0
 11
2320.749999999996
 21
1396.700000000002
 31
0.0
  0
LINE
  5
369
330
1F
100
AcDbEntity
  8
化粧台
  6
EXLTYPE2
 62
     6
100
AcDbLine
 10
2323.749999999996
 20
1414.500000000001
 30
0.0
 11
2366.249999999996
 21
1414.500000000001
 31
0.0
  0
LINE
  5
36A
330
1F
100
AcDbEntity
  8
化粧台
  6
EXLTYPE2
 62
     6
100
AcDbLine
 10
2369.249999999996
 20
1411.500000000001
 30
0.0
 11
2369.249999999996
 21
1396.700000000002
 31
0.0
  0
ARC
  5
36B
330
1F
100
AcDbEntity
  8
化粧台
  6
EXLTYPE2
 62
     6
100
AcDbCircle
 10
2323.749999999996
 20
1411.500000000001
 30
0.0
 40
3.000000000000002
100
AcDbArc
 50
90.00000000000001
 51
180.0
  0
ARC
  5
36C
330
1F
100
AcDbEntity
  8
化粧台
  6
EXLTYPE2
 62
     6
100
AcDbCircle
 10
2366.249999999996
 20
1411.500000000001
 30
0.0
 40
3.000000000000002
100
AcDbArc
 50
0.0
 51
90.00000000000001
  0
LINE
  5
36D
330
1F
100
AcDbEntity
  8
化粧台
  6
EXLTYPE2
 62
     6
100
AcDbLine
 10
2346.1138888889
 20
1282.611861335133
 30
0.0
 11
2376.1138888889
 21
1282.611861335133
 31
0.0
  0
LINE
  5
36E
330
1F
100
AcDbEntity
  8
化粧台
  6
EXLTYPE2
 62
     6
100
AcDbLine
 10
2346.113888888896
 20
1285.381770843303
 30
0.0
 11
2376.113888888896
 21
1285.381770843303
 31
0.0
  0
LINE
  5
36F
330
1F
100
AcDbEntity
  8
化粧台
  6
EXLTYPE2
 62
     6
100
AcDbLine
 10
2346.1138888889
 20
1285.381770843266
 30
0.0
 11
2346.1138888889
 21
1270.111865271302
 31
0.0
  0
LINE
  5
370
330
1F
100
AcDbEntity
  8
化粧台
  6
EXLTYPE2
 62
     6
100
AcDbLine
 10
2347.6138888889
 20
1268.611865271302
 30
0.0
 11
2374.6138888889
 21
1268.611865271302
 31
0.0
  0
LINE
  5
371
330
1F
100
AcDbEntity
  8
化粧台
  6
EXLTYPE2
 62
     6
100
AcDbLine
 10
2376.1138888889
 20
1285.38177084327
 30
0.0
 11
2376.1138888889
 21
1270.111865271302
 31
0.0
  0
ARC
  5
372
330
1F
100
AcDbEntity
  8
化粧台
  6
EXLTYPE2
 62
     6
100
AcDbCircle
 10
2347.6138888889
 20
1270.111865271302
 30
0.0
 40
1.5
100
AcDbArc
 50
180.0
 51
270.0000000000002
  0
ARC
  5
373
330
1F
100
AcDbEntity
  8
化粧台
  6
EXLTYPE2
 62
     6
100
AcDbCircle
 10
2374.6138888889
 20
1270.111865271302
 30
0.0
 40
1.5
100
AcDbArc
 50
270.0000000000002
 51
0.0
  0
LINE
  5
374
330
1F
100
AcDbEntity
  8
化粧台
  6
EXLTYPE2
 62
     6
100
AcDbLine
 10
2401.477777777796
 20
1358.811312276001
 30
0.0
 11
2401.477777777796
 21
1344.011312276002
 31
0.0
  0
ARC
  5
375
330
1F
100
AcDbEntity
  8
化粧台
  6
EXLTYPE2
 62
     6
100
AcDbCircle
 10
2398.477777777796
 20
1358.811312276001
 30
0.0
 40
3.000000000000002
100
AcDbArc
 50
0.0
 51
90.00000000000001
  0
LINE
  5
376
330
1F
100
AcDbEntity
  8
化粧台
  6
EXLTYPE2
 62
     6
100
AcDbLine
 10
2395.477777777796
 20
1344.011312276002
 30
0.0
 11
2395.477777777796
 21
1315.911862369002
 31
0.0
  0
ARC
  5
377
330
1F
100
AcDbEntity
  8
化粧台
  6
EXLTYPE2
 62
     6
100
AcDbCircle
 10
2394.477777777796
 20
1315.911862369002
 30
0.0
 40
1.0
100
AcDbArc
 50
270.0000000000002
 51
0.0
  0
LINE
  5
378
330
1F
100
AcDbEntity
  8
化粧台
  6
EXLTYPE2
 62
     6
100
AcDbLine
 10
2327.999999999996
 20
1355.611863671303
 30
0.0
 11
2327.999999999996
 21
1323.895092151785
 31
0.0
  0
LINE
  5
379
330
1F
100
AcDbEntity
  8
化粧台
  6
EXLTYPE2
 62
     6
100
AcDbLine
 10
2361.999999999996
 20
1355.611863671303
 30
0.0
 11
2361.999999999996
 21
1315.959506678352
 31
0.0
  0
LINE
  5
37A
330
1F
100
AcDbEntity
  8
化粧台
  6
EXLTYPE2
 62
     6
100
AcDbLine
 10
2388.399999999994
 20
1314.911862369002
 30
0.0
 11
2394.477777777796
 21
1314.911862369002
 31
0.0
  0
LINE
  5
37B
330
1F
100
AcDbEntity
  8
化粧台
  6
EXLTYPE2
 62
     6
100
AcDbLine
 10
2363.249999999996
 20
1361.811312276001
 30
0.0
 11
2398.477777777796
 21
1361.811312276001
 31
0.0
  0
LINE
  5
37C
330
1F
100
AcDbEntity
  8
化粧台
  6
EXLTYPE2
 62
     6
100
AcDbLine
 10
2361.999999999996
 20
1344.011312276002
 30
0.0
 11
2401.477777777796
 21
1344.011312276002
 31
0.0
  0
ARC
  5
37D
330
1F
100
AcDbEntity
  8
化粧台
  6
EXLTYPE2
 62
     6
100
AcDbCircle
 10
2363.847644335547
 20
1315.959506678352
 30
0.0
 40
1.847644335545738
100
AcDbArc
 50
179.9999999984488
 51
0.0
  0
ARC
  5
37E
330
1F
100
AcDbEntity
  8
化粧台
  6
EXLTYPE2
 62
     6
100
AcDbCircle
 10
2377.999999999996
 20
1323.895092151785
 30
0.0
 40
50.00000000000004
100
AcDbArc
 50
180.0
 51
230.3778197205396
  0
ARC
  5
37F
330
1F
100
AcDbEntity
  8
化粧台
  6
EXLTYPE2
 62
     6
100
AcDbCircle
 10
2354.705100939544
 20
1319.170286622183
 30
0.0
 40
40.0
100
AcDbArc
 50
302.3588120657595
 51
353.8886751333242
  0
LINE
  5
380
330
1F
100
AcDbEntity
  8
化粧台
  6
EXLTYPE2
 62
     6
100
AcDbLine
 10
2393.227777777807
 20
1383.025752473813
 30
0.0
 11
2393.227777777807
 21
1361.811312276001
 31
0.0
  0
ARC
  5
381
330
1F
100
AcDbEntity
  8
化粧台
  6
EXLTYPE2
 62
     6
100
AcDbCircle
 10
2406.1138888889
 20
1383.025752473813
 30
0.0
 40
12.88611111108913
100
AcDbArc
 50
0.0
 51
180.0
  0
ARC
  5
382
330
1F
100
AcDbEntity
  8
化粧台
  6
EXLTYPE2
 62
     6
100
AcDbCircle
 10
2406.113888888893
 20
1383.025752473834
 30
0.0
 40
44.8861111110673
100
AcDbArc
 50
0.0
 51
145.2127379158767
  0
LINE
  5
383
330
1F
100
AcDbEntity
  8
化粧台
  6
EXLTYPE2
 62
     6
100
AcDbLine
 10
2329.249999999996
 20
1424.500000000001
 30
0.0
 11
2329.249999999996
 21
1414.500000000001
 31
0.0
  0
LINE
  5
384
330
1F
100
AcDbEntity
  8
化粧台
  6
EXLTYPE2
 62
     6
100
AcDbLine
 10
2360.749999999996
 20
1424.500000000001
 30
0.0
 11
2360.749999999996
 21
1414.500000000001
 31
0.0
  0
LINE
  5
385
330
1F
100
AcDbEntity
  8
化粧台
  6
EXLTYPE2
 62
     6
100
AcDbLine
 10
2379.999999999996
 20
1485.500000000001
 30
0.0
 11
2379.999999999996
 21
1478.000000000001
 31
0.0
  0
LINE
  5
386
330
1F
100
AcDbEntity
  8
化粧台
  6
EXLTYPE2
 62
     6
100
AcDbLine
 10
2379.999999999996
 20
1485.500000000001
 30
0.0
 11
2375.813953488367
 21
1488.500000000001
 31
0.0
  0
LINE
  5
387
330
1F
100
AcDbEntity
  8
化粧台
  6
EXLTYPE2
 62
     6
100
AcDbLine
 10
2418.999999999997
 20
902.0000000000009
 30
0.0
 11
2418.999999999997
 21
1383.025752473813
 31
0.0
  0
LINE
  5
388
330
1F
100
AcDbEntity
  8
化粧台
  6
EXLTYPE2
 62
     6
100
AcDbLine
 10
2450.999999999997
 20
902.0000000000009
 30
0.0
 11
2450.999999999997
 21
1383.025752473834
 31
0.0
  0
LINE
  5
389
330
1F
100
AcDbEntity
  8
化粧台
  6
EXLTYPE3
 62
     6
100
AcDbLine
 10
2465.749999999997
 20
1398.500000000001
 30
0.0
 11
2590.999999999997
 21
1398.500000000001
 31
0.0
  0
LINE
  5
38A
330
1F
100
AcDbEntity
  8
化粧台
  6
EXLTYPE4
 62
     6
100
AcDbLine
 10
2575.999999999997
 20
1382.500000000001
 30
0.0
 11
2480.750000000037
 21
1382.500000000001
 31
0.0
  0
LINE
  5
38B
330
1F
100
AcDbEntity
  8
化粧台
  6
EXLTYPE4
 62
     6
100
AcDbLine
 10
2575.999999999997
 20
1414.500000000001
 30
0.0
 11
2480.749999999997
 21
1414.500000000001
 31
0.0
  0
LINE
  5
38C
330
1F
100
AcDbEntity
  8
化粧台
  6
CONTINUOUS
 62
     6
100
AcDbLine
 10
2576.000000000001
 20
1414.500000000001
 30
0.0
 11
2576.000000000001
 21
1382.500000000001
 31
0.0
  0
LINE
  5
38D
330
1F
100
AcDbEntity
  8
化粧台
  6
CONTINUOUS
 62
     6
100
AcDbLine
 10
2480.499999999997
 20
890.5000000000009
 30
0.0
 11
2459.499999999997
 21
890.5000000000009
 31
0.0
  0
ARC
  5
38E
330
1F
100
AcDbEntity
  8
化粧台
  6
EXLTYPE2
 62
     6
100
AcDbCircle
 10
2520.499999999997
 20
1268.343134832984
 30
0.0
 40
40.0
100
AcDbArc
 50
180.0
 51
194.3615115629164
  0
ARC
  5
38F
330
1F
100
AcDbEntity
  8
化粧台
  6
EXLTYPE2
 62
     6
100
AcDbCircle
 10
2442.999999999997
 20
1248.499999999999
 30
0.0
 40
40.0
100
AcDbArc
 50
352.1483099782984
 51
14.36151156291629
  0
ARC
  5
390
330
1F
100
AcDbEntity
  8
化粧台
  6
EXLTYPE2
 62
     6
100
AcDbCircle
 10
2522.249999999997
 20
1237.571253502802
 30
0.0
 40
40.0
100
AcDbArc
 50
172.1483099782986
 51
180.0
  0
LINE
  5
391
330
1F
100
AcDbEntity
  8
化粧台
  6
EXLTYPE2
 62
     6
100
AcDbLine
 10
2482.249999999997
 20
1213.499999999997
 30
0.0
 11
2484.722431864336
 21
1214.927459202426
 31
0.0
  0
ARC
  5
392
330
1F
100
AcDbEntity
  8
化粧台
  6
EXLTYPE2
 62
     6
100
AcDbCircle
 10
2489.749999999997
 20
1228.365389352174
 30
0.0
 40
7.500000000000004
100
AcDbArc
 50
180.0
 51
227.9065017039047
  0
LINE
  5
393
330
1F
100
AcDbEntity
  8
化粧台
  6
EXLTYPE2
 62
     6
100
AcDbLine
 10
2482.249999999997
 20
1237.571253502802
 30
0.0
 11
2482.249999999997
 21
1228.365389352174
 31
0.0
  0
LINE
  5
394
330
1F
100
AcDbEntity
  8
化粧台
  6
EXLTYPE2
 62
     6
100
AcDbLine
 10
2484.722431864336
 20
1214.927459202429
 30
0.0
 11
2484.722431864336
 21
1222.8
 31
0.0
  0
LINE
  5
395
330
1F
100
AcDbEntity
  8
化粧台
  6
EXLTYPE2
 62
     6
100
AcDbLine
 10
2457.749999999994
 20
1213.499999999997
 30
0.0
 11
2455.277568135655
 21
1214.927459202426
 31
0.0
  0
ARC
  5
396
330
1F
100
AcDbEntity
  8
化粧台
  6
EXLTYPE2
 62
     6
100
AcDbCircle
 10
2450.249999999997
 20
1228.365389352174
 30
0.0
 40
7.500000000000004
100
AcDbArc
 50
312.0934982960959
 51
0.0
  0
LINE
  5
397
330
1F
100
AcDbEntity
  8
化粧台
  6
EXLTYPE2
 62
     6
100
AcDbLine
 10
2455.277568135655
 20
1214.927459202429
 30
0.0
 11
2455.277568135655
 21
1222.8
 31
0.0
  0
LINE
  5
398
330
1F
100
AcDbEntity
  8
化粧台
  6
EXLTYPE2
 62
     6
100
AcDbLine
 10
2482.250000000006
 20
1213.499999999999
 30
0.0
 11
2457.749999999986
 21
1213.499999999999
 31
0.0
  0
ARC
  5
399
330
1F
100
AcDbEntity
  8
化粧台
  6
EXLTYPE2
 62
     6
100
AcDbCircle
 10
2451.999999999997
 20
1267.999999999999
 30
0.0
 40
7.500000000000004
100
AcDbArc
 50
270.0000000000002
 51
0.0
  0
ARC
  5
39A
330
1F
100
AcDbEntity
  8
化粧台
  6
EXLTYPE2
 62
     6
100
AcDbCircle
 10
2450.249999999997
 20
1228.999999999999
 30
0.0
 40
7.500000000000004
100
AcDbArc
 50
0.0
 51
90.00000000000001
  0
LINE
  5
39B
330
1F
100
AcDbEntity
  8
化粧台
  6
EXLTYPE2
 62
     6
100
AcDbLine
 10
2457.749999999997
 20
1228.999999999999
 30
0.0
 11
2457.749999999997
 21
1228.365389352174
 31
0.0
  0
LINE
  5
39C
330
1F
100
AcDbEntity
  8
化粧台
  6
EXLTYPE2
 62
     6
100
AcDbLine
 10
2446.499999999997
 20
1260.499999999999
 30
0.0
 11
2451.999999999997
 21
1260.499999999999
 31
0.0
  0
LINE
  5
39D
330
1F
100
AcDbEntity
  8
化粧台
  6
EXLTYPE2
 62
     6
100
AcDbLine
 10
2446.499999999997
 20
1236.499999999999
 30
0.0
 11
2450.249999999997
 21
1236.499999999999
 31
0.0
  0
LINE
  5
39E
330
1F
100
AcDbEntity
  8
化粧台
  6
EXLTYPE2
 62
     6
100
AcDbLine
 10
2433.599999999996
 20
1253.8
 30
0.0
 11
2433.599999999996
 21
1243.2
 31
0.0
  0
LINE
  5
39F
330
1F
100
AcDbEntity
  8
化粧台
  6
EXLTYPE2
 62
     6
100
AcDbLine
 10
2446.499999999997
 20
1261.249999999999
 30
0.0
 11
2446.499999999997
 21
1235.749999999999
 31
0.0
  0
ARC
  5
3A0
330
1F
100
AcDbEntity
  8
化粧台
  6
EXLTYPE2
 62
     6
100
AcDbCircle
 10
2442.725082782356
 20
1257.249999999999
 30
0.0
 40
5.5
100
AcDbArc
 50
46.65824177280091
 51
142.8123740608005
  0
LINE
  5
3A1
330
1F
100
AcDbEntity
  8
化粧台
  6
EXLTYPE2
 62
     6
100
AcDbLine
 10
2433.599999999996
 20
1253.8
 30
0.0
 11
2438.343450177716
 21
1260.57434891639
 31
0.0
  0
ARC
  5
3A2
330
1F
100
AcDbEntity
  8
化粧台
  6
EXLTYPE2
 62
     6
100
AcDbCircle
 10
2442.725082782356
 20
1239.749999999999
 30
0.0
 40
5.5
100
AcDbArc
 50
217.1876259391994
 51
313.3417582272003
  0
LINE
  5
3A3
330
1F
100
AcDbEntity
  8
化粧台
  6
EXLTYPE2
 62
     6
100
AcDbLine
 10
2433.599999999996
 20
1243.2
 30
0.0
 11
2438.343450177716
 21
1236.42565108361
 31
0.0
  0
LINE
  5
3A4
330
1F
100
AcDbEntity
  8
化粧台
  6
EXLTYPE2
 62
     6
100
AcDbLine
 10
2438.343450177716
 20
1260.57434891639
 30
0.0
 11
2438.343450177716
 21
1236.42565108351
 31
0.0
  0
ARC
  5
3A5
330
1F
100
AcDbEntity
  8
化粧台
  6
EXLTYPE2
 62
     6
100
AcDbCircle
 10
2471.749999999997
 20
1277.2
 30
0.0
 40
11.0
100
AcDbArc
 50
326.9442688491002
 51
33.05573115089991
  0
LINE
  5
3A6
330
1F
100
AcDbEntity
  8
化粧台
  6
EXLTYPE2
 62
     6
100
AcDbLine
 10
2480.969544457287
 20
1271.2
 30
0.0
 11
2459.030455542707
 21
1271.2
 31
0.0
  0
LINE
  5
3A7
330
1F
100
AcDbEntity
  8
化粧台
  6
EXLTYPE2
 62
     6
100
AcDbLine
 10
2480.969544457287
 20
1283.2
 30
0.0
 11
2459.030455542707
 21
1283.2
 31
0.0
  0
ARC
  5
3A8
330
1F
100
AcDbEntity
  8
化粧台
  6
EXLTYPE2
 62
     6
100
AcDbCircle
 10
2468.249999999997
 20
1277.2
 30
0.0
 40
11.0
100
AcDbArc
 50
146.9442688491499
 51
213.0557311508992
  0
LINE
  5
3A9
330
1F
100
AcDbEntity
  8
化粧台
  6
EXLTYPE2
 62
     6
100
AcDbLine
 10
2459.499999999997
 20
1271.2
 30
0.0
 11
2459.499999999997
 21
1267.999999999999
 31
0.0
  0
LINE
  5
3AA
330
1F
100
AcDbEntity
  8
化粧台
  6
EXLTYPE2
 62
     6
100
AcDbLine
 10
2480.499999999997
 20
1271.2
 30
0.0
 11
2480.499999999997
 21
1268.34313483298
 31
0.0
  0
LINE
  5
3AB
330
1F
100
AcDbEntity
  8
化粧台
  6
EXLTYPE2
 62
     6
100
AcDbLine
 10
2427.999999999997
 20
1243.749999999999
 30
0.0
 11
2433.599999999996
 21
1243.749999999999
 31
0.0
  0
LINE
  5
3AC
330
1F
100
AcDbEntity
  8
化粧台
  6
EXLTYPE2
 62
     6
100
AcDbLine
 10
2427.999999999997
 20
1253.249999999999
 30
0.0
 11
2433.599999999996
 21
1253.249999999999
 31
0.0
  0
LINE
  5
3AD
330
1F
100
AcDbEntity
  8
化粧台
  6
EXLTYPE2
 62
     6
100
AcDbLine
 10
2427.999999999997
 20
1253.249999999999
 30
0.0
 11
2427.999999999997
 21
1243.749999999999
 31
0.0
  0
LINE
  5
3AE
330
1F
100
AcDbEntity
  8
化粧台
  6
EXLTYPE3
 62
     6
100
AcDbLine
 10
2469.999999999997
 20
1298.2
 30
0.0
 11
2469.999999999997
 21
875.5000000000009
 31
0.0
  0
LINE
  5
3AF
330
1F
100
AcDbEntity
  8
化粧台
  6
CONTINUOUS
 62
     6
100
AcDbLine
 10
2459.499999999997
 20
902.0000000000009
 30
0.0
 11
2459.499999999997
 21
890.5000000000009
 31
0.0
  0
LINE
  5
3B0
330
1F
100
AcDbEntity
  8
化粧台
  6
CONTINUOUS
 62
     6
100
AcDbLine
 10
2480.499999999997
 20
902.0000000000009
 30
0.0
 11
2480.499999999997
 21
890.5000000000009
 31
0.0
  0
LINE
  5
3B1
330
1F
100
AcDbEntity
  8
化粧台
  6
EXLTYPE2
 62
     6
100
AcDbLine
 10
2480.499999999997
 20
1213.499999999999
 30
0.0
 11
2480.499999999997
 21
902.0000000000009
 31
0.0
  0
LINE
  5
3B2
330
1F
100
AcDbEntity
  8
化粧台
  6
EXLTYPE2
 62
     6
100
AcDbLine
 10
2459.499999999997
 20
1213.499999999999
 30
0.0
 11
2459.499999999997
 21
902.0000000000009
 31
0.0
  0
LINE
  5
3B3
330
1F
100
AcDbEntity
  8
化粧台
  6
EXLTYPE2
 62
     6
100
AcDbLine
 10
2501.499999999997
 20
1238.000000000001
 30
0.0
 11
2562.999999999997
 21
1238.000000000001
 31
0.0
  0
LINE
  5
3B4
330
1F
100
AcDbEntity
  8
化粧台
  6
EXLTYPE2
 62
     6
100
AcDbLine
 10
2501.499999999997
 20
1259.000000000001
 30
0.0
 11
2562.999999999997
 21
1259.000000000001
 31
0.0
  0
LINE
  5
3B5
330
1F
100
AcDbEntity
  8
化粧台
  6
CONTINUOUS
 62
     6
100
AcDbLine
 10
2562.999999999997
 20
1259.000000000001
 30
0.0
 11
2562.999999999997
 21
1238.000000000001
 31
0.0
  0
LINE
  5
3B6
330
1F
100
AcDbEntity
  8
化粧台
  6
EXLTYPE3
 62
     6
100
AcDbLine
 10
2417.999999999997
 20
1248.499999999999
 30
0.0
 11
2577.999999999997
 21
1248.499999999999
 31
0.0
  0
LINE
  5
3B7
330
1F
100
AcDbEntity
  8
化粧台
  6
CONTINUOUS
 62
     2
100
AcDbLine
 10
2554.999999999997
 20
1693.500000000001
 30
0.0
 11
2554.999999999997
 21
902.0000000000009
 31
0.0
  0
ARC
  5
3B8
330
1F
100
AcDbEntity
  8
化粧台
  6
CONTINUOUS
 62
     2
100
AcDbCircle
 10
2154.999999999995
 20
1568.500000000001
 30
0.0
 40
5.0
100
AcDbArc
 50
270.0000000000002
 51
0.0000000000000573
  0
LINE
  5
3B9
330
1F
100
AcDbEntity
  8
化粧台
  6
CONTINUOUS
 62
     2
100
AcDbLine
 10
2554.999999999997
 20
1693.500000000001
 30
0.0
 11
2535.38516480713
 21
1693.500000000001
 31
0.0
  0
ARC
  5
3BA
330
1F
100
AcDbEntity
  8
化粧台
  6
CONTINUOUS
 62
     2
100
AcDbCircle
 10
2535.38516480713
 20
1688.500000000001
 30
0.0
 40
5.0
100
AcDbArc
 50
90.00000000000001
 51
158.1985905136498
  0
LINE
  5
3BB
330
1F
100
AcDbEntity
  8
化粧台
  6
CONTINUOUS
 62
     2
100
AcDbLine
 10
2530.742781352704
 20
1690.356953381769
 30
0.0
 11
2529.257218647287
 21
1686.643046618229
 31
0.0
  0
ARC
  5
3BC
330
1F
100
AcDbEntity
  8
化粧台
  6
CONTINUOUS
 62
     2
100
AcDbCircle
 10
2524.614835192861
 20
1688.500000000001
 30
0.0
 40
5.0
100
AcDbArc
 50
270.0000000000002
 51
338.1985905136467
  0
LINE
  5
3BD
330
1F
100
AcDbEntity
  8
化粧台
  6
CONTINUOUS
 62
     2
100
AcDbLine
 10
2159.999999999995
 20
1618.499999999999
 30
0.0
 11
2159.999999999995
 21
1568.500000000001
 31
0.0
  0
ARC
  5
3BE
330
1F
100
AcDbEntity
  8
化粧台
  6
CONTINUOUS
 62
     2
100
AcDbCircle
 10
2169.999999999995
 20
1618.499999999999
 30
0.0
 40
10.0
100
AcDbArc
 50
90.00000000000001
 51
180.0000000000002
  0
LINE
  5
3BF
330
1F
100
AcDbEntity
  8
化粧台
  6
CONTINUOUS
 62
     2
100
AcDbLine
 10
2554.999999999997
 20
1628.499999999999
 30
0.0
 11
2169.999999999995
 21
1628.499999999999
 31
0.0
  0
LINE
  5
3C0
330
1F
100
AcDbEntity
  8
化粧台
  6
CONTINUOUS
 62
     2
100
AcDbLine
 10
2524.614835192861
 20
1683.500000000001
 30
0.0
 11
2106.318170544149
 21
1683.500000000001
 31
0.0
  0
LINE
  5
3C1
330
1F
100
AcDbEntity
  8
化粧台
  6
CONTINUOUS
 62
     2
100
AcDbLine
 10
2075.45600839088
 20
1671.413821614454
 30
0.0
 11
2123.662244080897
 21
1566.413821614454
 31
0.0
  0
LINE
  5
3C2
330
1F
100
AcDbEntity
  8
化粧台
  6
CONTINUOUS
 62
     2
100
AcDbLine
 10
2154.999999999995
 20
1563.500000000001
 30
0.0
 11
2128.206235690006
 21
1563.500000000001
 31
0.0
  0
ARC
  5
3C3
330
1F
100
AcDbEntity
  8
化粧台
  6
CONTINUOUS
 62
     2
100
AcDbCircle
 10
2128.206235690006
 20
1568.500000000001
 30
0.0
 40
5.0
100
AcDbArc
 50
186.2851239246986
 51
270.0000000000002
  0
ARC
  5
3C4
330
1F
100
AcDbEntity
  8
化粧台
  6
CONTINUOUS
 62
     2
100
AcDbCircle
 10
2079.999999999993
 20
1673.500000000001
 30
0.0
 40
5.0
100
AcDbArc
 50
103.5057605601144
 51
204.6601868323252
  0
ARC
  5
3C5
330
1F
100
AcDbEntity
  8
化粧台
  6
CONTINUOUS
 62
     2
100
AcDbCircle
 10
2106.318170544149
 20
1632.043203809154
 30
0.0
 40
51.45679619085606
100
AcDbArc
 50
89.99999999996176
 51
103.5057605601132
  0
LINE
  5
3C6
330
1F
100
AcDbEntity
  8
化粧台
  6
CONTINUOUS
 62
     2
100
AcDbLine
 10
2094.300789535171
 20
1682.07703664167
 30
0.0
 11
2078.832284372653
 21
1678.361732223567
 31
0.0
  0
LINE
  5
3C7
330
1F
100
AcDbEntity
  8
化粧台
  6
CONTINUOUS
 62
     2
100
AcDbLine
 10
2101.414309875596
 20
1677.524217983818
 30
0.0
 11
2123.302375021423
 21
1567.524217983818
 31
0.0
  0
ARC
  5
3C8
330
1F
100
AcDbEntity
  8
化粧台
  6
CONTINUOUS
 62
     2
100
AcDbCircle
 10
2106.318170544182
 20
1678.500000000001
 30
0.0
 40
5.0
100
AcDbArc
 50
90.00000000000001
 51
191.2538603764545
  0
ARC
  5
3C9
330
1F
100
AcDbEntity
  8
化粧台
  6
EXLTYPE2
 62
     6
100
AcDbCircle
 10
2295.468300600915
 20
1517.372533502713
 30
0.0
 40
9.0
100
AcDbArc
 50
7.786183226644877
 51
79.16788117503866
  0
LINE
  5
3CA
330
1F
100
AcDbEntity
  8
化粧台
  6
EXLTYPE2
 62
     6
100
AcDbLine
 10
2304.385325453968
 20
1518.591823365718
 30
0.0
 11
2307.908937076769
 21
1492.822616742776
 31
0.0
  0
ARC
  5
3CB
330
1F
100
AcDbEntity
  8
化粧台
  6
EXLTYPE2
 62
     6
100
AcDbCircle
 10
2312.862839772912
 20
1493.500000000001
 30
0.0
 40
5.0
100
AcDbArc
 50
187.786183226645
 51
270.0000000000002
  0
LINE
  5
3CC
330
1F
100
AcDbEntity
  8
化粧台
  6
EXLTYPE2
 62
     6
100
AcDbLine
 10
2377.137160227077
 20
1488.500000000001
 30
0.0
 11
2312.862839772912
 21
1488.500000000001
 31
0.0
  0
ARC
  5
3CD
330
1F
100
AcDbEntity
  8
化粧台
  6
EXLTYPE2
 62
     6
100
AcDbCircle
 10
2385.802605958988
 20
1488.50900307881
 30
0.0
 40
5.0
100
AcDbArc
 50
91.03671106963131
 51
150.0595460361044
  0
ARC
  5
3CE
330
1F
100
AcDbEntity
  8
化粧台
  6
EXLTYPE2
 62
     6
100
AcDbCircle
 10
2377.137160227077
 20
1493.500000000001
 30
0.0
 40
5.0
100
AcDbArc
 50
270.0000000000002
 51
330.0595460361045
  0
ARC
  5
3CF
330
1F
100
AcDbEntity
  8
化粧台
  6
EXLTYPE2
 62
     6
100
AcDbCircle
 10
2384.807489074583
 20
1543.500000000001
 30
0.0
 40
50.00000000000004
100
AcDbArc
 50
271.0367110696319
 51
309.3911978432377
  0
ARC
  5
3D0
330
1F
100
AcDbEntity
  8
化粧台
  6
EXLTYPE2
 62
     6
100
AcDbCircle
 10
2428.113883008403
 20
1553.500000000005
 30
0.0
 40
50.00000000000004
100
AcDbArc
 50
251.5650511770786
 51
270.0000000000002
  0
LINE
  5
3D1
330
1F
100
AcDbEntity
  8
化粧台
  6
EXLTYPE2
 62
     6
100
AcDbLine
 10
2215.711845828489
 20
1571.596051390502
 30
0.0
 11
2412.302494707562
 21
1506.065835097478
 31
0.0
  0
ARC
  5
3D2
330
1F
100
AcDbEntity
  8
化粧台
  6
EXLTYPE2
 62
     6
100
AcDbCircle
 10
2218.874123488657
 20
1581.082884371007
 30
0.0
 40
10.0
100
AcDbArc
 50
189.4623222080253
 51
251.5650511770781
  0
LINE
  5
3D3
330
1F
100
AcDbEntity
  8
化粧台
  6
EXLTYPE2
 62
     6
100
AcDbLine
 10
2200.833333333328
 20
1628.499999999999
 30
0.0
 11
2209.010184250335
 21
1579.438894497952
 31
0.0
  0
LINE
  5
3D4
330
1F
100
AcDbEntity
  8
化粧台
  6
EXLTYPE2
 62
     6
100
AcDbLine
 10
2544.999999999997
 20
1503.500000000005
 30
0.0
 11
2428.113883008403
 21
1503.500000000005
 31
0.0
  0
ARC
  5
3D5
330
1F
100
AcDbEntity
  8
化粧台
  6
EXLTYPE2
 62
     6
100
AcDbCircle
 10
2544.999999999997
 20
1513.500000000005
 30
0.0
 40
10.0
100
AcDbArc
 50
270.0000000000002
 51
0.0000000000000573
  0
ARC
  5
3D6
330
1F
100
AcDbEntity
  8
化粧台
  6
EXLTYPE2
 62
     6
100
AcDbCircle
 10
2345.834059170858
 20
1780.59732405952
 30
0.0
 40
259.0
100
AcDbArc
 50
228.2374423278815
 51
259.1678811750384
  0
ARC
  5
3D7
330
1F
100
AcDbEntity
  8
化粧台
  6
CONTINUOUS
 62
     6
100
AcDbCircle
 10
2167.999999999995
 20
1581.438976509601
 30
0.0
 40
8.0
100
AcDbArc
 50
48.23744232788194
 51
180.0000000000002
  0
LINE
  5
3D8
330
1F
100
AcDbEntity
  8
化粧台
  6
CONTINUOUS
 62
     2
100
AcDbLine
 10
2164.999999999995
 20
1627.160254037844
 30
0.0
 11
2164.999999999995
 21
902.0000000000009
 31
0.0
  0
LINE
  5
3D9
330
1F
100
AcDbEntity
  8
化粧台
  6
CONTINUOUS
 62
     6
100
AcDbLine
 10
2474.999999999997
 20
1700.722387698
 30
0.0
 11
2474.999999999997
 21
1660.722387698
 31
0.0
  0
LINE
  5
3DA
330
1F
100
AcDbEntity
  8
化粧台
  6
CONTINUOUS
 62
     6
100
AcDbLine
 10
2418.999999999997
 20
868.5000000000009
 30
0.0
 11
2450.999999999997
 21
868.5000000000009
 31
0.0
  0
LINE
  5
3DB
330
1F
100
AcDbEntity
  8
化粧台
  6
CONTINUOUS
 62
     6
100
AcDbLine
 10
2418.999999999997
 20
868.5000000000009
 30
0.0
 11
2418.999999999997
 21
902.0000000000009
 31
0.0
  0
LINE
  5
3DC
330
1F
100
AcDbEntity
  8
化粧台
  6
CONTINUOUS
 62
     6
100
AcDbLine
 10
2450.999999999997
 20
868.5000000000009
 30
0.0
 11
2450.999999999997
 21
902.0000000000009
 31
0.0
  0
ARC
  5
3DD
330
1F
100
AcDbEntity
  8
化粧台
  6
CONTINUOUS
 62
     6
100
AcDbCircle
 10
2481.754544533479
 20
1690.591574622826
 30
0.0
 40
10.0
100
AcDbArc
 50
32.17751400000002
 51
87.128942
  0
LINE
  5
3DE
330
1F
100
AcDbEntity
  8
化粧台
  6
CONTINUOUS
 62
     6
100
AcDbLine
 10
2466.002279285026
 20
1696.188153675141
 30
0.0
 11
2483.189946858219
 21
1697.088921163707
 31
0.0
  0
ARC
  5
3DF
330
1F
100
AcDbEntity
  8
化粧台
  6
CONTINUOUS
 62
     6
100
AcDbCircle
 10
2483.713306420649
 20
1687.102625816161
 30
0.0
 40
10.0
100
AcDbArc
 50
26.44384100000001
 51
93.00000000000003
  0
ARC
  5
3E0
330
1F
100
AcDbEntity
  8
化粧台
  6
CONTINUOUS
 62
     6
100
AcDbCircle
 10
2466.525638847456
 20
1686.201858327595
 30
0.0
 40
10.0
100
AcDbArc
 50
93.00000000000003
 51
159.5561590000002
  0
LINE
  5
3E1
330
1F
100
AcDbEntity
  8
化粧台
  6
CONTINUOUS
 62
     6
100
AcDbLine
 10
2407.607738086523
 20
1759.56944537964
 30
0.0
 11
2449.505650526761
 21
1769.242340057762
 31
0.0
  0
LINE
  5
3E2
330
1F
100
AcDbEntity
  8
化粧台
  6
CONTINUOUS
 62
     6
100
AcDbLine
 10
2449.505650526761
 20
1769.242340057762
 30
0.0
 11
2463.938681485982
 21
1715.377536693535
 31
0.0
  0
ARC
  5
3E3
330
1F
100
AcDbEntity
  8
化粧台
  6
CONTINUOUS
 62
     6
100
AcDbCircle
 10
2483.257197987497
 20
1720.55391777821
 30
0.0
 40
20.0
100
AcDbArc
 50
195.0000000000002
 51
267.1289420000001
  0
LINE
  5
3E4
330
1F
100
AcDbEntity
  8
化粧台
  6
CONTINUOUS
 62
     6
100
AcDbLine
 10
2340.840514271131
 20
1725.017323393236
 30
0.0
 11
2370.228054592713
 21
1721.40898731841
 31
0.0
  0
ARC
  5
3E5
330
1F
100
AcDbEntity
  8
化粧台
  6
CONTINUOUS
 62
     6
100
AcDbCircle
 10
2388.955974076918
 20
1719.109487508486
 30
0.0
 40
50.00000000000004
100
AcDbArc
 50
161.8850040000001
 51
171.2276830000001
  0
ARC
  5
3E6
330
1F
100
AcDbEntity
  8
化粧台
  6
CONTINUOUS
 62
     6
100
AcDbCircle
 10
2341.023318000714
 20
1726.506142976725
 30
0.0
 40
1.5
100
AcDbArc
 50
171.2276830000001
 51
263.0000000000003
  0
LINE
  5
3E7
330
1F
100
AcDbEntity
  8
化粧台
  6
CONTINUOUS
 62
     6
100
AcDbLine
 10
2351.636163168023
 20
1741.522136273954
 30
0.0
 11
2398.934882874262
 21
1738.214688256287
 31
0.0
  0
ARC
  5
3E8
330
1F
100
AcDbEntity
  8
化粧台
  6
CONTINUOUS
 62
     6
100
AcDbCircle
 10
2350.938598837012
 20
1731.546496309778
 30
0.0
 40
10.0
100
AcDbArc
 50
86.00000000000003
 51
161.8850040000001
  0
LINE
  5
3E9
330
1F
100
AcDbEntity
  8
化粧台
  6
CONTINUOUS
 62
     6
100
AcDbLine
 10
2407.607738086523
 20
1759.56944537964
 30
0.0
 11
2409.44871935241
 21
1750.098418181002
 31
0.0
  0
ARC
  5
3EA
330
1F
100
AcDbEntity
  8
化粧台
  6
CONTINUOUS
 62
     6
100
AcDbCircle
 10
2399.632447205273
 20
1748.190328220464
 30
0.0
 40
10.0
100
AcDbArc
 50
266.0000000000001
 51
10.99999999999999
  0
LINE
  5
3EB
330
1F
100
AcDbEntity
  8
化粧台
  6
CONTINUOUS
 62
     6
100
AcDbLine
 10
2427.27447339332
 20
1769.959802401284
 30
0.0
 11
2405.351147377949
 21
1764.89840369923
 31
0.0
  0
LINE
  5
3EC
330
1F
100
AcDbEntity
  8
化粧台
  6
CONTINUOUS
 62
     6
100
AcDbLine
 10
2405.351147377949
 20
1764.89840369923
 30
0.0
 11
2401.302027627869
 21
1782.43706426993
 31
0.0
  0
LINE
  5
3ED
330
1F
100
AcDbEntity
  8
化粧台
  6
CONTINUOUS
 62
     6
100
AcDbLine
 10
2342.197810963451
 20
1791.725217664229
 30
0.0
 11
2341.275216956305
 21
1795.721411469365
 31
0.0
  0
ARC
  5
3EE
330
1F
100
AcDbEntity
  8
化粧台
  6
CONTINUOUS
 62
     6
100
AcDbCircle
 10
2376.051357146816
 20
1523.483895967177
 30
0.0
 40
275.0
100
AcDbArc
 50
78.198631
 51
97.17580200000002
  0
LINE
  5
3EF
330
1F
100
AcDbEntity
  8
化粧台
  6
CONTINUOUS
 62
     6
100
AcDbLine
 10
2342.839504103715
 20
1791.36216473692
 30
0.0
 11
2350.912760605437
 21
1793.985325286299
 31
0.0
  0
ARC
  5
3F0
330
1F
100
AcDbEntity
  8
化粧台
  6
CONTINUOUS
 62
     6
100
AcDbCircle
 10
2390.642480274159
 20
1779.721547144212
 30
0.0
 40
11.0
100
AcDbArc
 50
14.29208799999998
 51
81.69195200000001
  0
ARC
  5
3F1
330
1F
100
AcDbEntity
  8
化粧台
  6
CONTINUOUS
 62
     6
100
AcDbCircle
 10
2362.434974668702
 20
1680.569106391071
 30
0.0
 40
114.0000000000001
100
AcDbArc
 50
74.848229
 51
95.80090700000005
  0
ARC
  5
3F2
330
1F
100
AcDbEntity
  8
化粧台
  6
CONTINUOUS
 62
     6
100
AcDbCircle
 10
2341.76240211667
 20
1795.833886914288
 30
0.0
 40
0.5
100
AcDbArc
 50
97.17580200000002
 51
193.0000000000002
  0
ARC
  5
3F3
330
1F
100
AcDbEntity
  8
化粧台
  6
CONTINUOUS
 62
     6
100
AcDbCircle
 10
2342.684996123817
 20
1791.837693109152
 30
0.0
 40
0.5
100
AcDbArc
 50
193.0000000000002
 51
288.0000000000003
  0
LINE
  5
3F4
330
1F
100
AcDbEntity
  8
化粧台
  6
CONTINUOUS
 62
     6
100
AcDbLine
 10
2401.040420552841
 20
1774.679387186671
 30
0.0
 11
2400.478043380559
 21
1777.115311989874
 31
0.0
  0
ARC
  5
3F5
330
1F
100
AcDbEntity
  8
化粧台
  6
CONTINUOUS
 62
     6
100
AcDbCircle
 10
2405.47049679217
 20
1776.840712484089
 30
0.0
 40
5.0
100
AcDbArc
 50
137.093513
 51
176.8517400000001
  0
LINE
  5
3F6
330
1F
100
AcDbEntity
  8
化粧台
  6
CONTINUOUS
 62
     6
100
AcDbLine
 10
2401.040420552841
 20
1774.679387186671
 30
0.0
 11
2401.602798776088
 21
1772.243461437175
 31
0.0
  0
ARC
  5
3F7
330
1F
100
AcDbEntity
  8
化粧台
  6
CONTINUOUS
 62
     6
100
AcDbCircle
 10
2405.969609612035
 20
1774.67881822985
 30
0.0
 40
5.0
100
AcDbArc
 50
209.1482600000002
 51
248.9064870000001
  0
ARC
  5
3F8
330
1F
100
AcDbEntity
  8
化粧台
  6
CONTINUOUS
 62
     6
100
AcDbCircle
 10
2427.467095555531
 20
1764.653733683569
 30
0.0
 40
20.0
100
AcDbArc
 50
177.8901640000001
 51
194.3941300000002
  0
ARC
  5
3F9
330
1F
100
AcDbEntity
  8
化粧台
  6
CONTINUOUS
 62
     6
100
AcDbCircle
 10
2429.427372614645
 20
1765.106298882836
 30
0.0
 40
20.0
100
AcDbArc
 50
11.60586999999998
 51
36.37487200000001
  0
LINE
  5
3FA
330
1F
100
AcDbEntity
  8
化粧台
  6
CONTINUOUS
 62
     6
100
AcDbLine
 10
2427.27447339332
 20
1769.959802401284
 30
0.0
 11
2448.427654004009
 21
1778.079747438593
 31
0.0
  0
ARC
  5
3FB
330
1F
100
AcDbEntity
  8
化粧台
  6
CONTINUOUS
 62
     6
100
AcDbCircle
 10
2427.53354607587
 20
1771.192346376543
 30
0.0
 40
22.0
100
AcDbArc
 50
18.24395800000002
 51
77.50271000000004
  0
CIRCLE
  5
3FC
330
1F
100
AcDbEntity
  8
化粧台
  6
CONTINUOUS
 62
     6
100
AcDbCircle
 10
2400.696904032431
 20
1710.457091496866
 30
0.0
 40
1.5
  0
LINE
  5
3FD
330
1F
100
AcDbEntity
  8
化粧台
  6
CONTINUOUS
 62
     6
100
AcDbLine
 10
2343.298850746458
 20
1724.715477641911
 30
0.0
 11
2342.202026724619
 21
1715.782562725865
 31
0.0
  0
LINE
  5
3FE
330
1F
100
AcDbEntity
  8
化粧台
  6
CONTINUOUS
 62
     6
100
AcDbLine
 10
2367.119958457684
 20
1721.790613520717
 30
0.0
 11
2366.023134421946
 21
1712.857698508132
 31
0.0
  0
LINE
  5
3FF
330
1F
100
AcDbEntity
  8
化粧台
  6
CONTINUOUS
 62
     6
100
AcDbLine
 10
2399.025636605669
 20
1714.328961381059
 30
0.0
 11
2396.791532806739
 21
1708.7993594611
 31
0.0
  0
LINE
  5
400
330
1F
100
AcDbEntity
  8
化粧台
  6
CONTINUOUS
 62
     6
100
AcDbLine
 10
2402.354636058759
 20
1706.551720247812
 30
0.0
 11
2404.588731145712
 21
1712.081299911555
 31
0.0
  0
LINE
  5
401
330
1F
100
AcDbEntity
  8
化粧台
  6
CONTINUOUS
 62
     6
100
AcDbLine
 10
2402.354636050602
 20
1706.551720227623
 30
0.0
 11
2396.791532806739
 21
1708.7993594611
 31
0.0
  0
LINE
  5
402
330
1F
100
AcDbEntity
  8
化粧台
  6
CONTINUOUS
 62
     6
100
AcDbLine
 10
2342.202026724619
 20
1715.782562725865
 30
0.0
 11
2366.023134421946
 21
1712.857698508132
 31
0.0
  0
ARC
  5
403
330
1F
100
AcDbEntity
  8
化粧台
  6
CONTINUOUS
 62
     6
100
AcDbCircle
 10
2354.994386868528
 20
1597.340718500503
 30
0.0
 40
125.0000000000001
100
AcDbArc
 50
43.57268704885316
 51
83.000001
  0
ARC
  5
404
330
1F
100
AcDbEntity
  8
化粧台
  6
CONTINUOUS
 62
     6
100
AcDbCircle
 10
2504.006238947827
 20
1672.230292829468
 30
0.0
 40
50.00000000000004
100
AcDbArc
 50
159.5561590000002
 51
166.9739437118864
  0
ARC
  5
405
330
1F
100
AcDbEntity
  8
化粧台
  6
CONTINUOUS
 62
     6
100
AcDbCircle
 10
2447.89845524025
 20
1669.28980848486
 30
0.0
 40
50.00000000000004
100
AcDbArc
 50
16.51126358108374
 51
32.1775140000003
  0
TEXT
  5
406
330
1F
100
AcDbEntity
  8
化粧台
  6
CONTINUOUS
 62
     2
100
AcDbText
 10
2554.999999999997
 20
2992.500000536442
 30
0.0
 40
59.99999618530273
  1
W.L.
 50
90.0
 41
0.5571963512150626
  7
EXCADSTD
 72
     5
 11
2554.999999999997
 21
3083.243400536442
 31
0.0
100
AcDbText
  0
LINE
  5
407
330
1F
100
AcDbEntity
  8
化粧台
  6
EXLTYPE4
 62
     6
100
AcDbLine
 10
2554.999999999997
 20
898.5
 30
0.0
 11
2554.999999999995
 21
3076.5
 31
0.0
  0
LINE
  5
408
330
1F
100
AcDbEntity
  8
鏡台
  6
CONTINUOUS
 62
     2
100
AcDbLine
 10
997.4999999999998
 20
2712.5
 30
0.0
 11
997.4999999999998
 21
2713.499999999967
 31
0.0
  0
LINE
  5
409
330
1F
100
AcDbEntity
  8
鏡台
  6
CONTINUOUS
 62
     2
100
AcDbLine
 10
1012.5
 20
2712.5
 30
0.0
 11
1012.5
 21
2713.499999999967
 31
0.0
  0
ARC
  5
40A
330
1F
100
AcDbEntity
  8
鏡台
  6
CONTINUOUS
 62
     2
100
AcDbCircle
 10
1005.0
 20
2712.5
 30
0.0
 40
7.500000000000006
100
AcDbArc
 50
180.0
 51
0.0
  0
LINE
  5
40B
330
1F
100
AcDbEntity
  8
鏡台
  6
CONTINUOUS
 62
     2
100
AcDbLine
 10
1072.99999999998
 20
2709.878679656471
 30
0.0
 11
1070.87867965642
 21
2712.000000000031
 31
0.0
  0
LINE
  5
40C
330
1F
100
AcDbEntity
  8
鏡台
  6
CONTINUOUS
 62
     2
100
AcDbLine
 10
1070.87867965642
 20
2712.000000000031
 30
0.0
 11
1012.48331477355
 21
2712.000000000031
 31
0.0
  0
LINE
  5
40D
330
1F
100
AcDbEntity
  8
鏡台
  6
CONTINUOUS
 62
     2
100
AcDbLine
 10
1085.5
 20
2457.0
 30
0.0
 11
1087.235222707919
 21
2462.784075693066
 31
0.0
  0
ARC
  5
40E
330
1F
100
AcDbEntity
  8
鏡台
  6
CONTINUOUS
 62
     2
100
AcDbCircle
 10
1096.813485560131
 20
2459.910596837402
 30
0.0
 40
10.0
100
AcDbArc
 50
95.3100592767302
 51
163.3007557660029
  0
LINE
  5
40F
330
1F
100
AcDbEntity
  8
鏡台
  6
CONTINUOUS
 62
     2
100
AcDbLine
 10
1284.5
 20
2457.0
 30
0.0
 11
1282.764777292081
 21
2462.784075693066
 31
0.0
  0
ARC
  5
410
330
1F
100
AcDbEntity
  8
鏡台
  6
CONTINUOUS
 62
     2
100
AcDbCircle
 10
1273.186514439869
 20
2459.910596837402
 30
0.0
 40
10.0
100
AcDbArc
 50
16.69924423399711
 51
84.68994072326981
  0
ARC
  5
411
330
1F
100
AcDbEntity
  8
鏡台
  6
CONTINUOUS
 62
     2
100
AcDbCircle
 10
1185.0
 20
1511.100000000005
 30
0.0
 40
962.8999999999953
100
AcDbArc
 50
84.68994072327212
 51
95.31005927672784
  0
ARC
  5
412
330
1F
100
AcDbEntity
  8
鏡台
  6
CONTINUOUS
 62
     2
100
AcDbCircle
 10
1084.0
 20
2510.5
 30
0.0
 40
3.000000000000002
100
AcDbArc
 50
90.00000000000004
 51
180.0
  0
LINE
  5
413
330
1F
100
AcDbEntity
  8
鏡台
  6
CONTINUOUS
 62
     2
100
AcDbLine
 10
1085.5
 20
2457.0
 30
0.0
 11
1084.0
 21
2457.0
 31
0.0
  0
LINE
  5
414
330
1F
100
AcDbEntity
  8
鏡台
  6
CONTINUOUS
 62
     2
100
AcDbLine
 10
1081.0
 20
2510.5
 30
0.0
 11
1081.0
 21
2460.0
 31
0.0
  0
ARC
  5
415
330
1F
100
AcDbEntity
  8
鏡台
  6
CONTINUOUS
 62
     2
100
AcDbCircle
 10
1084.0
 20
2460.0
 30
0.0
 40
3.000000000000002
100
AcDbArc
 50
180.0
 51
270.0000000000002
  0
LINE
  5
416
330
1F
100
AcDbEntity
  8
鏡台
  6
CONTINUOUS
 62
     2
100
AcDbLine
 10
1084.0
 20
2513.5
 30
0.0
 11
1286.0
 21
2513.5
 31
0.0
  0
ARC
  5
417
330
1F
100
AcDbEntity
  8
鏡台
  6
CONTINUOUS
 62
     2
100
AcDbCircle
 10
1286.0
 20
2510.5
 30
0.0
 40
3.000000000000002
100
AcDbArc
 50
0.0
 51
90.00000000000004
  0
LINE
  5
418
330
1F
100
AcDbEntity
  8
鏡台
  6
CONTINUOUS
 62
     2
100
AcDbLine
 10
1286.0
 20
2457.0
 30
0.0
 11
1284.499999999998
 21
2457.0
 31
0.0
  0
LINE
  5
419
330
1F
100
AcDbEntity
  8
鏡台
  6
CONTINUOUS
 62
     2
100
AcDbLine
 10
1289.0
 20
2510.5
 30
0.0
 11
1289.0
 21
2460.0
 31
0.0
  0
ARC
  5
41A
330
1F
100
AcDbEntity
  8
鏡台
  6
CONTINUOUS
 62
     2
100
AcDbCircle
 10
1286.0
 20
2460.0
 30
0.0
 40
3.000000000000002
100
AcDbArc
 50
270.0000000000002
 51
0.0
  0
LINE
  5
41B
330
1F
100
AcDbEntity
  8
鏡台
  6
CONTINUOUS
 62
     2
100
AcDbLine
 10
1085.5
 20
2204.0
 30
0.0
 11
1087.235222707919
 21
2209.784075693066
 31
0.0
  0
ARC
  5
41C
330
1F
100
AcDbEntity
  8
鏡台
  6
CONTINUOUS
 62
     2
100
AcDbCircle
 10
1096.813485560131
 20
2206.910596837402
 30
0.0
 40
10.0
100
AcDbArc
 50
95.3100592767302
 51
163.3007557660029
  0
LINE
  5
41D
330
1F
100
AcDbEntity
  8
鏡台
  6
CONTINUOUS
 62
     2
100
AcDbLine
 10
1284.5
 20
2204.0
 30
0.0
 11
1282.764777292081
 21
2209.784075693066
 31
0.0
  0
ARC
  5
41E
330
1F
100
AcDbEntity
  8
鏡台
  6
CONTINUOUS
 62
     2
100
AcDbCircle
 10
1273.186514439869
 20
2206.910596837402
 30
0.0
 40
10.0
100
AcDbArc
 50
16.69924423399711
 51
84.68994072326981
  0
ARC
  5
41F
330
1F
100
AcDbEntity
  8
鏡台
  6
CONTINUOUS
 62
     2
100
AcDbCircle
 10
1185.0
 20
1258.100000000005
 30
0.0
 40
962.8999999999953
100
AcDbArc
 50
84.68994072327212
 51
95.31005927672784
  0
ARC
  5
420
330
1F
100
AcDbEntity
  8
鏡台
  6
CONTINUOUS
 62
     2
100
AcDbCircle
 10
1084.0
 20
2257.5
 30
0.0
 40
3.000000000000002
100
AcDbArc
 50
90.00000000000004
 51
180.0
  0
LINE
  5
421
330
1F
100
AcDbEntity
  8
鏡台
  6
CONTINUOUS
 62
     2
100
AcDbLine
 10
1085.5
 20
2204.0
 30
0.0
 11
1084.0
 21
2204.0
 31
0.0
  0
LINE
  5
422
330
1F
100
AcDbEntity
  8
鏡台
  6
CONTINUOUS
 62
     2
100
AcDbLine
 10
1081.0
 20
2257.5
 30
0.0
 11
1081.0
 21
2207.0
 31
0.0
  0
ARC
  5
423
330
1F
100
AcDbEntity
  8
鏡台
  6
CONTINUOUS
 62
     2
100
AcDbCircle
 10
1084.0
 20
2207.0
 30
0.0
 40
3.000000000000002
100
AcDbArc
 50
180.0
 51
270.0000000000002
  0
LINE
  5
424
330
1F
100
AcDbEntity
  8
鏡台
  6
CONTINUOUS
 62
     2
100
AcDbLine
 10
1084.0
 20
2260.5
 30
0.0
 11
1286.0
 21
2260.5
 31
0.0
  0
ARC
  5
425
330
1F
100
AcDbEntity
  8
鏡台
  6
CONTINUOUS
 62
     2
100
AcDbCircle
 10
1286.0
 20
2257.5
 30
0.0
 40
3.000000000000002
100
AcDbArc
 50
0.0
 51
90.00000000000004
  0
LINE
  5
426
330
1F
100
AcDbEntity
  8
鏡台
  6
CONTINUOUS
 62
     2
100
AcDbLine
 10
1286.0
 20
2204.0
 30
0.0
 11
1284.499999999998
 21
2204.0
 31
0.0
  0
LINE
  5
427
330
1F
100
AcDbEntity
  8
鏡台
  6
CONTINUOUS
 62
     2
100
AcDbLine
 10
1289.0
 20
2257.5
 30
0.0
 11
1289.0
 21
2207.0
 31
0.0
  0
ARC
  5
428
330
1F
100
AcDbEntity
  8
鏡台
  6
CONTINUOUS
 62
     2
100
AcDbCircle
 10
1286.0
 20
2207.0
 30
0.0
 40
3.000000000000002
100
AcDbArc
 50
270.0000000000002
 51
0.0
  0
LINE
  5
429
330
1F
100
AcDbEntity
  8
鏡台
  6
CONTINUOUS
 62
     2
100
AcDbLine
 10
1085.5
 20
1902.0
 30
0.0
 11
1087.235222707919
 21
1907.784075693066
 31
0.0
  0
ARC
  5
42A
330
1F
100
AcDbEntity
  8
鏡台
  6
CONTINUOUS
 62
     2
100
AcDbCircle
 10
1096.813485560131
 20
1904.910596837402
 30
0.0
 40
10.0
100
AcDbArc
 50
95.3100592767302
 51
163.3007557660029
  0
LINE
  5
42B
330
1F
100
AcDbEntity
  8
鏡台
  6
CONTINUOUS
 62
     2
100
AcDbLine
 10
1284.5
 20
1902.0
 30
0.0
 11
1282.764777292081
 21
1907.784075693066
 31
0.0
  0
ARC
  5
42C
330
1F
100
AcDbEntity
  8
鏡台
  6
CONTINUOUS
 62
     2
100
AcDbCircle
 10
1273.186514439869
 20
1904.910596837402
 30
0.0
 40
10.0
100
AcDbArc
 50
16.69924423399711
 51
84.68994072326981
  0
ARC
  5
42D
330
1F
100
AcDbEntity
  8
鏡台
  6
CONTINUOUS
 62
     2
100
AcDbCircle
 10
1185.0
 20
956.1000000000049
 30
0.0
 40
962.8999999999953
100
AcDbArc
 50
84.68994072327212
 51
95.31005927672784
  0
ARC
  5
42E
330
1F
100
AcDbEntity
  8
鏡台
  6
CONTINUOUS
 62
     2
100
AcDbCircle
 10
1084.0
 20
1955.5
 30
0.0
 40
3.000000000000002
100
AcDbArc
 50
90.00000000000004
 51
180.0
  0
LINE
  5
42F
330
1F
100
AcDbEntity
  8
鏡台
  6
CONTINUOUS
 62
     2
100
AcDbLine
 10
1085.5
 20
1902.0
 30
0.0
 11
1084.0
 21
1902.0
 31
0.0
  0
LINE
  5
430
330
1F
100
AcDbEntity
  8
鏡台
  6
CONTINUOUS
 62
     2
100
AcDbLine
 10
1081.0
 20
1955.5
 30
0.0
 11
1081.0
 21
1905.0
 31
0.0
  0
ARC
  5
431
330
1F
100
AcDbEntity
  8
鏡台
  6
CONTINUOUS
 62
     2
100
AcDbCircle
 10
1084.0
 20
1905.0
 30
0.0
 40
3.000000000000002
100
AcDbArc
 50
180.0
 51
270.0000000000002
  0
LINE
  5
432
330
1F
100
AcDbEntity
  8
鏡台
  6
CONTINUOUS
 62
     2
100
AcDbLine
 10
1084.0
 20
1958.5
 30
0.0
 11
1286.0
 21
1958.5
 31
0.0
  0
ARC
  5
433
330
1F
100
AcDbEntity
  8
鏡台
  6
CONTINUOUS
 62
     2
100
AcDbCircle
 10
1286.0
 20
1955.5
 30
0.0
 40
3.000000000000002
100
AcDbArc
 50
0.0
 51
90.00000000000004
  0
LINE
  5
434
330
1F
100
AcDbEntity
  8
鏡台
  6
CONTINUOUS
 62
     2
100
AcDbLine
 10
1286.0
 20
1902.0
 30
0.0
 11
1284.499999999998
 21
1902.0
 31
0.0
  0
LINE
  5
435
330
1F
100
AcDbEntity
  8
鏡台
  6
CONTINUOUS
 62
     2
100
AcDbLine
 10
1289.0
 20
1955.5
 30
0.0
 11
1289.0
 21
1905.0
 31
0.0
  0
ARC
  5
436
330
1F
100
AcDbEntity
  8
鏡台
  6
CONTINUOUS
 62
     2
100
AcDbCircle
 10
1286.0
 20
1905.0
 30
0.0
 40
3.000000000000002
100
AcDbArc
 50
270.0000000000002
 51
0.0
  0
LINE
  5
437
330
1F
100
AcDbEntity
  8
鏡台
  6
CONTINUOUS
 62
     2
100
AcDbLine
 10
1086.1827156455
 20
1904.2757188184
 30
0.0
 11
1283.8172843545
 21
1904.2757188184
 31
0.0
  0
LINE
  5
438
330
1F
100
AcDbEntity
  8
鏡台
  6
CONTINUOUS
 62
     2
100
AcDbLine
 10
1088.0
 20
2206.137928387215
 30
0.0
 11
1088.0
 21
1958.5
 31
0.0
  0
LINE
  5
439
330
1F
100
AcDbEntity
  8
鏡台
  6
CONTINUOUS
 62
     2
100
AcDbLine
 10
1282.0
 20
2206.137928387216
 30
0.0
 11
1282.0
 21
1958.5
 31
0.0
  0
LINE
  5
43A
330
1F
100
AcDbEntity
  8
鏡台
  6
CONTINUOUS
 62
     2
100
AcDbLine
 10
1282.0
 20
2459.137928387216
 30
0.0
 11
1282.0
 21
2260.5
 31
0.0
  0
LINE
  5
43B
330
1F
100
AcDbEntity
  8
鏡台
  6
CONTINUOUS
 62
     2
100
AcDbLine
 10
1088.0
 20
2459.137928387215
 30
0.0
 11
1088.0
 21
2260.5
 31
0.0
  0
ARC
  5
43C
330
1F
100
AcDbEntity
  8
鏡台
  6
CONTINUOUS
 62
     2
100
AcDbCircle
 10
1185.0
 20
3497.499999999975
 30
0.0
 40
1295.0
100
AcDbArc
 50
265.7043237762043
 51
274.295676223796
  0
LINE
  5
43D
330
1F
100
AcDbEntity
  8
鏡台
  6
CONTINUOUS
 62
     2
100
AcDbLine
 10
1088.0
 20
2710.5
 30
0.0
 11
1088.0
 21
2513.5
 31
0.0
  0
LINE
  5
43E
330
1F
100
AcDbEntity
  8
鏡台
  6
CONTINUOUS
 62
     2
100
AcDbLine
 10
1282.0
 20
2710.5
 30
0.0
 11
1282.0
 21
2513.5
 31
0.0
  0
ARC
  5
43F
330
1F
100
AcDbEntity
  8
鏡台
  6
CONTINUOUS
 62
     2
100
AcDbCircle
 10
1091.0
 20
2710.5
 30
0.0
 40
3.000000000000002
100
AcDbArc
 50
90.00000000000004
 51
180.0
  0
ARC
  5
440
330
1F
100
AcDbEntity
  8
鏡台
  6
CONTINUOUS
 62
     2
100
AcDbCircle
 10
1279.0
 20
2710.5
 30
0.0
 40
3.000000000000002
100
AcDbArc
 50
0.0
 51
90.00000000000004
  0
ARC
  5
441
330
1F
100
AcDbEntity
  8
鏡台
  6
CONTINUOUS
 62
     2
100
AcDbCircle
 10
1107.000000000007
 20
2281.499999999998
 30
0.0
 40
10.0
100
AcDbArc
 50
180.0
 51
270.0000000000002
  0
LINE
  5
442
330
1F
100
AcDbEntity
  8
鏡台
  6
CONTINUOUS
 62
     2
100
AcDbLine
 10
1107.000000000007
 20
2271.499999999998
 30
0.0
 11
1133.000000000003
 21
2271.499999999998
 31
0.0
  0
ARC
  5
443
330
1F
100
AcDbEntity
  8
鏡台
  6
CONTINUOUS
 62
     2
100
AcDbCircle
 10
1133.000000000003
 20
2281.499999999998
 30
0.0
 40
10.0
100
AcDbArc
 50
270.0000000000002
 51
0.0
  0
LINE
  5
444
330
1F
100
AcDbEntity
  8
鏡台
  6
CONTINUOUS
 62
     2
100
AcDbLine
 10
1143.000000000003
 20
2444.499999999988
 30
0.0
 11
1143.000000000003
 21
2281.499999999998
 31
0.0
  0
ARC
  5
445
330
1F
100
AcDbEntity
  8
鏡台
  6
CONTINUOUS
 62
     2
100
AcDbCircle
 10
1133.000000000003
 20
2444.499999999988
 30
0.0
 40
10.0
100
AcDbArc
 50
0.0
 51
90.00000000000004
  0
LINE
  5
446
330
1F
100
AcDbEntity
  8
鏡台
  6
CONTINUOUS
 62
     2
100
AcDbLine
 10
1107.000000000007
 20
2454.499999999988
 30
0.0
 11
1133.000000000003
 21
2454.499999999988
 31
0.0
  0
LINE
  5
447
330
1F
100
AcDbEntity
  8
鏡台
  6
CONTINUOUS
 62
     2
100
AcDbLine
 10
1097.000000000007
 20
2444.499999999988
 30
0.0
 11
1097.000000000007
 21
2281.499999999998
 31
0.0
  0
ARC
  5
448
330
1F
100
AcDbEntity
  8
鏡台
  6
CONTINUOUS
 62
     2
100
AcDbCircle
 10
1107.000000000007
 20
2444.499999999988
 30
0.0
 40
10.0
100
AcDbArc
 50
90.00000000000004
 51
180.0
  0
ARC
  5
449
330
1F
100
AcDbEntity
  8
鏡台
  6
CONTINUOUS
 62
     2
100
AcDbCircle
 10
1185.0
 20
3750.499999999975
 30
0.0
 40
1295.0
100
AcDbArc
 50
268.504388190688
 51
274.295676223796
  0
LINE
  5
44A
330
1F
100
AcDbEntity
  8
鏡台
  6
CONTINUOUS
 62
     2
100
AcDbLine
 10
1086.1827156455
 20
2459.2757188184
 30
0.0
 11
1151.199999999993
 21
2459.2757188184
 31
0.0
  0
LINE
  5
44B
330
1F
100
AcDbEntity
  8
鏡台
  6
CONTINUOUS
 62
     2
100
AcDbLine
 10
1151.199999999993
 20
2459.2757188184
 30
0.0
 11
1151.199999999993
 21
2260.5
 31
0.0
  0
LINE
  5
44C
330
1F
100
AcDbEntity
  8
鏡台
  6
CONTINUOUS
 62
     6
100
AcDbLine
 10
1249.999999999998
 20
2643.499999999999
 30
0.0
 11
1189.999999999998
 21
2643.499999999999
 31
0.0
  0
LINE
  5
44D
330
1F
100
AcDbEntity
  8
鏡台
  6
CONTINUOUS
 62
     6
100
AcDbLine
 10
1219.999999999998
 20
2673.499999999999
 30
0.0
 11
1219.999999999998
 21
2613.499999999999
 31
0.0
  0
CIRCLE
  5
44E
330
1F
100
AcDbEntity
  8
鏡台
  6
CONTINUOUS
 62
     2
100
AcDbCircle
 10
1220.0
 20
2643.5
 30
0.0
 40
7.000000000000004
  0
LINE
  5
44F
330
1F
100
AcDbEntity
  8
鏡台
  6
CONTINUOUS
 62
     6
100
AcDbLine
 10
1249.999999999998
 20
2143.499999999999
 30
0.0
 11
1189.999999999998
 21
2143.499999999999
 31
0.0
  0
LINE
  5
450
330
1F
100
AcDbEntity
  8
鏡台
  6
CONTINUOUS
 62
     6
100
AcDbLine
 10
1219.999999999998
 20
2173.499999999999
 30
0.0
 11
1219.999999999998
 21
2113.499999999999
 31
0.0
  0
CIRCLE
  5
451
330
1F
100
AcDbEntity
  8
鏡台
  6
CONTINUOUS
 62
     2
100
AcDbCircle
 10
1220.0
 20
2143.5
 30
0.0
 40
7.000000000000004
  0
LINE
  5
452
330
1F
100
AcDbEntity
  8
鏡台
  6
CONTINUOUS
 62
     6
100
AcDbLine
 10
1249.999999999998
 20
1743.499999999999
 30
0.0
 11
1189.999999999998
 21
1743.499999999999
 31
0.0
  0
LINE
  5
453
330
1F
100
AcDbEntity
  8
鏡台
  6
CONTINUOUS
 62
     6
100
AcDbLine
 10
1219.999999999998
 20
1773.499999999999
 30
0.0
 11
1219.999999999998
 21
1713.499999999999
 31
0.0
  0
CIRCLE
  5
454
330
1F
100
AcDbEntity
  8
鏡台
  6
CONTINUOUS
 62
     2
100
AcDbCircle
 10
1220.0
 20
1743.5
 30
0.0
 40
7.000000000000004
  0
LINE
  5
455
330
1F
100
AcDbEntity
  8
鏡台
  6
CONTINUOUS
 62
     6
100
AcDbLine
 10
1123.000000000009
 20
2391.75
 30
0.0
 11
1117.000000000009
 21
2391.75
 31
0.0
  0
LINE
  5
456
330
1F
100
AcDbEntity
  8
鏡台
  6
CONTINUOUS
 62
     6
100
AcDbLine
 10
1108.400000000009
 20
2371.250000000006
 30
0.0
 11
1108.400000000009
 21
2399.750000000006
 31
0.0
  0
LINE
  5
457
330
1F
100
AcDbEntity
  8
鏡台
  6
CONTINUOUS
 62
     6
100
AcDbLine
 10
1108.400000000009
 20
2371.250000000006
 30
0.0
 11
1131.600000000009
 21
2371.250000000006
 31
0.0
  0
LINE
  5
458
330
1F
100
AcDbEntity
  8
鏡台
  6
CONTINUOUS
 62
     6
100
AcDbLine
 10
1131.600000000009
 20
2371.250000000006
 30
0.0
 11
1131.600000000009
 21
2399.750000000006
 31
0.0
  0
LINE
  5
459
330
1F
100
AcDbEntity
  8
鏡台
  6
CONTINUOUS
 62
     6
100
AcDbLine
 10
1108.400000000009
 20
2399.750000000006
 30
0.0
 11
1131.600000000009
 21
2399.750000000006
 31
0.0
  0
LINE
  5
45A
330
1F
100
AcDbEntity
  8
鏡台
  6
CONTINUOUS
 62
     6
100
AcDbLine
 10
1127.80000000001
 20
2397.250000000006
 30
0.0
 11
1127.80000000001
 21
2373.750000000006
 31
0.0
  0
LINE
  5
45B
330
1F
100
AcDbEntity
  8
鏡台
  6
CONTINUOUS
 62
     6
100
AcDbLine
 10
1127.80000000001
 20
2397.250000000006
 30
0.0
 11
1112.20000000001
 21
2397.250000000006
 31
0.0
  0
LINE
  5
45C
330
1F
100
AcDbEntity
  8
鏡台
  6
CONTINUOUS
 62
     6
100
AcDbLine
 10
1112.20000000001
 20
2373.750000000006
 30
0.0
 11
1127.80000000001
 21
2373.750000000006
 31
0.0
  0
LINE
  5
45D
330
1F
100
AcDbEntity
  8
鏡台
  6
CONTINUOUS
 62
     6
100
AcDbLine
 10
1112.20000000001
 20
2397.250000000006
 30
0.0
 11
1112.20000000001
 21
2373.750000000006
 31
0.0
  0
LINE
  5
45E
330
1F
100
AcDbEntity
  8
鏡台
  6
CONTINUOUS
 62
     6
100
AcDbLine
 10
1108.400000000009
 20
2326.250000000006
 30
0.0
 11
1108.40000000001
 21
2354.750000000006
 31
0.0
  0
LINE
  5
45F
330
1F
100
AcDbEntity
  8
鏡台
  6
CONTINUOUS
 62
     6
100
AcDbLine
 10
1108.400000000009
 20
2326.250000000006
 30
0.0
 11
1131.600000000009
 21
2326.250000000006
 31
0.0
  0
LINE
  5
460
330
1F
100
AcDbEntity
  8
鏡台
  6
CONTINUOUS
 62
     6
100
AcDbLine
 10
1131.600000000009
 20
2326.250000000006
 30
0.0
 11
1131.600000000009
 21
2354.750000000006
 31
0.0
  0
LINE
  5
461
330
1F
100
AcDbEntity
  8
鏡台
  6
CONTINUOUS
 62
     6
100
AcDbLine
 10
1108.40000000001
 20
2354.750000000006
 30
0.0
 11
1131.600000000009
 21
2354.750000000006
 31
0.0
  0
LINE
  5
462
330
1F
100
AcDbEntity
  8
鏡台
  6
CONTINUOUS
 62
     6
100
AcDbLine
 10
1116.5
 20
2346.499999999989
 30
0.0
 11
1123.500000000005
 21
2346.499999999989
 31
0.0
  0
LINE
  5
463
330
1F
100
AcDbEntity
  8
鏡台
  6
CONTINUOUS
 62
     6
100
AcDbLine
 10
1115.5
 20
2334.499999999989
 30
0.0
 11
1124.500000000005
 21
2334.499999999989
 31
0.0
  0
ARC
  5
464
330
1F
100
AcDbEntity
  8
鏡台
  6
CONTINUOUS
 62
     6
100
AcDbCircle
 10
1109.0
 20
2430.0
 30
0.0
 40
8.0
100
AcDbArc
 50
90.00000000000004
 51
180.0
  0
LINE
  5
465
330
1F
100
AcDbEntity
  8
鏡台
  6
CONTINUOUS
 62
     6
100
AcDbLine
 10
1109.0
 20
2438.0
 30
0.0
 11
1131.0
 21
2438.0
 31
0.0
  0
ARC
  5
466
330
1F
100
AcDbEntity
  8
鏡台
  6
CONTINUOUS
 62
     6
100
AcDbCircle
 10
1131.0
 20
2430.0
 30
0.0
 40
8.0
100
AcDbArc
 50
0.0
 51
90.00000000000004
  0
LINE
  5
467
330
1F
100
AcDbEntity
  8
鏡台
  6
CONTINUOUS
 62
     6
100
AcDbLine
 10
1139.0
 20
2430.0
 30
0.0
 11
1139.0
 21
2296.0
 31
0.0
  0
ARC
  5
468
330
1F
100
AcDbEntity
  8
鏡台
  6
CONTINUOUS
 62
     6
100
AcDbCircle
 10
1131.0
 20
2296.0
 30
0.0
 40
8.0
100
AcDbArc
 50
270.0000000000002
 51
0.0
  0
LINE
  5
469
330
1F
100
AcDbEntity
  8
鏡台
  6
CONTINUOUS
 62
     6
100
AcDbLine
 10
1101.0
 20
2430.0
 30
0.0
 11
1101.0
 21
2296.0
 31
0.0
  0
LINE
  5
46A
330
1F
100
AcDbEntity
  8
鏡台
  6
CONTINUOUS
 62
     6
100
AcDbLine
 10
1109.0
 20
2288.0
 30
0.0
 11
1131.0
 21
2288.0
 31
0.0
  0
ARC
  5
46B
330
1F
100
AcDbEntity
  8
鏡台
  6
CONTINUOUS
 62
     6
100
AcDbCircle
 10
1109.0
 20
2296.0
 30
0.0
 40
8.0
100
AcDbArc
 50
180.0
 51
270.0000000000002
  0
LINE
  5
46C
330
1F
100
AcDbEntity
  8
鏡台
  6
CONTINUOUS
 62
     2
100
AcDbLine
 10
1295.0
 20
2815.5
 30
0.0
 11
1295.0
 21
1701.5
 31
0.0
  0
ARC
  5
46D
330
1F
100
AcDbEntity
  8
鏡台
  6
CONTINUOUS
 62
     2
100
AcDbCircle
 10
1287.0
 20
1701.5
 30
0.0
 40
8.0
100
AcDbArc
 50
270.0000000000002
 51
0.0
  0
ARC
  5
46E
330
1F
100
AcDbEntity
  8
鏡台
  6
CONTINUOUS
 62
     2
100
AcDbCircle
 10
1287.0
 20
2815.5
 30
0.0
 40
8.0
100
AcDbArc
 50
0.0
 51
90.00000000000004
  0
LINE
  5
46F
330
1F
100
AcDbEntity
  8
鏡台
  6
CONTINUOUS
 62
     6
100
AcDbLine
 10
1265.0
 20
1708.5
 30
0.0
 11
1328.0766968306
 21
1708.5
 31
0.0
  0
LINE
  5
470
330
1F
100
AcDbEntity
  8
鏡台
  6
CONTINUOUS
 62
     6
100
AcDbLine
 10
1350.607801639
 20
1823.0872669102
 30
0.0
 11
1339.982689378999
 21
1825.934268058299
 31
0.0
  0
LINE
  5
471
330
1F
100
AcDbEntity
  8
鏡台
  6
CONTINUOUS
 62
     6
100
AcDbLine
 10
1346.854861993999
 20
1809.0813920857
 30
0.0
 11
1333.004666240998
 21
1813.4149284017
 31
0.0
  0
LINE
  5
472
330
1F
100
AcDbEntity
  8
鏡台
  6
CONTINUOUS
 62
     6
100
AcDbLine
 10
1341.052538553998
 20
1805.9773263695
 30
0.0
 11
1331.9975304
 21
1808.4036623492
 31
0.0
  0
LINE
  5
473
330
1F
100
AcDbEntity
  8
鏡台
  6
CONTINUOUS
 62
     6
100
AcDbLine
 10
1333.004666240998
 20
1813.4149284017
 30
0.0
 11
1328.529978232998
 21
1791.1498031212
 31
0.0
  0
LINE
  5
474
330
1F
100
AcDbEntity
  8
鏡台
  6
CONTINUOUS
 62
     6
100
AcDbLine
 10
1335.407174017999
 20
1789.3057711293
 30
0.0
 11
1341.614595964998
 21
1807.6372443898
 31
0.0
  0
LINE
  5
475
330
1F
100
AcDbEntity
  8
鏡台
  6
CONTINUOUS
 62
     6
100
AcDbLine
 10
1365.674427210999
 20
1817.497302349901
 30
0.0
 11
1350.219541935999
 21
1821.6383693548
 31
0.0
  0
LINE
  5
476
330
1F
100
AcDbEntity
  8
鏡台
  6
CONTINUOUS
 62
     6
100
AcDbLine
 10
1363.344993954999
 20
1808.8039229309
 30
0.0
 11
1347.890230302999
 21
1812.9449995727
 31
0.0
  0
LINE
  5
477
330
1F
100
AcDbEntity
  8
鏡台
  6
CONTINUOUS
 62
     6
100
AcDbLine
 10
1339.982567843999
 20
1825.9342574253
 30
0.0
 11
1336.876848791
 21
1814.343223792101
 31
0.0
  0
LINE
  5
478
330
1F
100
AcDbEntity
  8
鏡台
  6
CONTINUOUS
 62
     6
100
AcDbLine
 10
1347.501971682999
 20
1811.4961011082
 30
0.0
 11
1336.876848791
 21
1814.343223792101
 31
0.0
  0
LINE
  5
479
330
1F
100
AcDbEntity
  8
鏡台
  6
CONTINUOUS
 62
     6
100
AcDbLine
 10
1346.854861993999
 20
1809.0813920857
 30
0.0
 11
1345.328637359
 21
1809.5453533568
 31
0.0
  0
LINE
  5
47A
330
1F
100
AcDbEntity
  8
鏡台
  6
CONTINUOUS
 62
     6
100
AcDbLine
 10
1351.384198337999
 20
1825.9850532933
 30
0.0
 11
1337.554394118999
 21
1828.7199234411
 31
0.0
  0
LINE
  5
47B
330
1F
100
AcDbEntity
  8
鏡台
  6
CONTINUOUS
 62
     6
100
AcDbLine
 10
1346.854861993999
 20
1809.0813920857
 30
0.0
 11
1351.384198337999
 21
1825.9850532933
 31
0.0
  0
LINE
  5
47C
330
1F
100
AcDbEntity
  8
鏡台
  6
CONTINUOUS
 62
     6
100
AcDbLine
 10
1332.745784778999
 20
1814.3809042252
 30
0.0
 11
1336.394412078
 21
1827.9977904105
 31
0.0
  0
LINE
  5
47D
330
1F
100
AcDbEntity
  8
鏡台
  6
CONTINUOUS
 62
     6
100
AcDbLine
 10
1334.201123576998
 20
1788.6606048549
 30
0.0
 11
1329.251515879999
 21
1789.986827798401
 31
0.0
  0
ARC
  5
47E
330
1F
100
AcDbEntity
  8
鏡台
  6
CONTINUOUS
 62
     6
100
AcDbCircle
 10
1476.656676999999
 20
1763.334961
 30
0.0
 40
150.0
100
AcDbArc
 50
169.7364188339999
 51
175.9890140000003
  0
ARC
  5
47F
330
1F
100
AcDbEntity
  8
鏡台
  6
CONTINUOUS
 62
     6
100
AcDbCircle
 10
1482.149474999998
 20
1763.616699
 30
0.0
 40
150.0
100
AcDbArc
 50
170.3937176707998
 51
175.6141359999999
  0
ARC
  5
480
330
1F
100
AcDbEntity
  8
鏡台
  6
CONTINUOUS
 62
     6
100
AcDbCircle
 10
1344.456094715
 20
1806.6750589177
 30
0.0
 40
3.000000000000002
100
AcDbArc
 50
73.09075899999961
 51
161.29272500001
  0
ARC
  5
481
330
1F
100
AcDbEntity
  8
鏡台
  6
CONTINUOUS
 62
     6
100
AcDbCircle
 10
1329.510355233999
 20
1790.9527608013
 30
0.0
 40
1.0
100
AcDbArc
 50
168.6365359999535
 51
254.9999389999938
  0
ARC
  5
482
330
1F
100
AcDbEntity
  8
鏡台
  6
CONTINUOUS
 62
     6
100
AcDbCircle
 10
1334.459963018
 20
1789.6265368615
 30
0.0
 40
1.0
100
AcDbArc
 50
255.0000000000056
 51
341.2927249999935
  0
ARC
  5
483
330
1F
100
AcDbEntity
  8
鏡台
  6
CONTINUOUS
 62
     6
100
AcDbCircle
 10
1355.883656700998
 20
1815.4619192267
 30
0.0
 40
10.0
100
AcDbArc
 50
318.2563779999982
 51
11.74365199999793
  0
ARC
  5
484
330
1F
100
AcDbEntity
  8
鏡台
  6
CONTINUOUS
 62
     6
100
AcDbCircle
 10
1337.360344084
 20
1827.7389509697
 30
0.0
 40
1.0
100
AcDbArc
 50
78.8137819999758
 51
165.0000000000056
  0
ARC
  5
485
330
1F
100
AcDbEntity
  8
鏡台
  6
CONTINUOUS
 62
     6
100
AcDbCircle
 10
1333.711716784999
 20
1814.1220647845
 30
0.0
 40
1.0
100
AcDbArc
 50
164.9999999999553
 51
253.0908809999582
  0
ARC
  5
486
330
1F
100
AcDbEntity
  8
鏡台
  6
CONTINUOUS
 62
     6
100
AcDbCircle
 10
1206.748656999998
 20
1775.310058999999
 30
0.0
 40
120.0000000000001
100
AcDbArc
 50
332.4231260000005
 51
355.4096070000001
  0
ARC
  5
487
330
1F
100
AcDbEntity
  8
鏡台
  6
CONTINUOUS
 62
     6
100
AcDbCircle
 10
1212.644652999999
 20
1774.083008
 30
0.0
 40
120.0000000000001
100
AcDbArc
 50
330.778137
 51
356.6508789999999
  0
ARC
  5
488
330
1F
100
AcDbEntity
  8
鏡台
  6
CONTINUOUS
 62
     6
100
AcDbCircle
 10
1344.456094715
 20
1806.6750589177
 30
0.0
 40
3.000000000000002
100
AcDbArc
 50
73.09075899999961
 51
161.29272500001
  0
ARC
  5
489
330
1F
100
AcDbEntity
  8
鏡台
  6
CONTINUOUS
 62
     6
100
AcDbCircle
 10
1329.510355233999
 20
1790.9527608013
 30
0.0
 40
1.0
100
AcDbArc
 50
168.6365359999535
 51
254.9999389999938
  0
ARC
  5
48A
330
1F
100
AcDbEntity
  8
鏡台
  6
CONTINUOUS
 62
     6
100
AcDbCircle
 10
1334.459963018
 20
1789.6265368615
 30
0.0
 40
1.0
100
AcDbArc
 50
255.0000000000056
 51
341.2927249999935
  0
ARC
  5
48B
330
1F
100
AcDbEntity
  8
鏡台
  6
CONTINUOUS
 62
     6
100
AcDbCircle
 10
1355.883656700998
 20
1815.4619192267
 30
0.0
 40
10.0
100
AcDbArc
 50
318.2563779999982
 51
11.74365199999793
  0
ARC
  5
48C
330
1F
100
AcDbEntity
  8
鏡台
  6
CONTINUOUS
 62
     6
100
AcDbCircle
 10
1337.360344084
 20
1827.7389509697
 30
0.0
 40
1.0
100
AcDbArc
 50
78.8137819999758
 51
165.0000000000056
  0
ARC
  5
48D
330
1F
100
AcDbEntity
  8
鏡台
  6
CONTINUOUS
 62
     6
100
AcDbCircle
 10
1333.711716784999
 20
1814.1220647845
 30
0.0
 40
1.0
100
AcDbArc
 50
164.9999999999553
 51
253.0908809999582
  0
ARC
  5
48E
330
1F
100
AcDbEntity
  8
鏡台
  6
CONTINUOUS
 62
     6
100
AcDbCircle
 10
1323.627807999999
 20
1782.484741
 30
0.0
 40
17.00025
100
AcDbArc
 50
231.9271239999991
 51
288.0711059999998
  0
ARC
  5
48F
330
1F
100
AcDbEntity
  8
鏡台
  6
CONTINUOUS
 62
     6
100
AcDbCircle
 10
1334.174561
 20
1750.161437999999
 30
0.0
 40
17.000208
100
AcDbArc
 50
79.99896199999944
 51
108.0710449999981
  0
ARC
  5
490
330
1F
100
AcDbEntity
  8
鏡台
  6
CONTINUOUS
 62
     6
100
AcDbCircle
 10
1334.174682999999
 20
1750.161621
 30
0.0
 40
17.000029
100
AcDbArc
 50
51.92639200000016
 51
79.99896199999789
  0
ARC
  5
491
330
1F
100
AcDbEntity
  8
鏡台
  6
CONTINUOUS
 62
     6
100
AcDbCircle
 10
1323.627807999999
 20
1790.484741
 30
0.0
 40
17.00025
100
AcDbArc
 50
231.9271239999991
 51
288.0711059999998
  0
ARC
  5
492
330
1F
100
AcDbEntity
  8
鏡台
  6
CONTINUOUS
 62
     6
100
AcDbCircle
 10
1334.174561
 20
1758.161437999999
 30
0.0
 40
17.000208
100
AcDbArc
 50
79.99896199999944
 51
108.0710449999981
  0
ARC
  5
493
330
1F
100
AcDbEntity
  8
鏡台
  6
CONTINUOUS
 62
     6
100
AcDbCircle
 10
1334.174682999999
 20
1758.161621
 30
0.0
 40
17.000029
100
AcDbArc
 50
51.92639200000016
 51
79.99896199999789
  0
ARC
  5
494
330
1F
100
AcDbEntity
  8
鏡台
  6
CONTINUOUS
 62
     6
100
AcDbCircle
 10
1295.0
 20
1735.5
 30
0.0
 40
30.00000000000002
100
AcDbArc
 50
270.0000000000002
 51
318.2063289999991
  0
ARC
  5
495
330
1F
100
AcDbEntity
  8
鏡台
  6
CONTINUOUS
 62
     6
100
AcDbCircle
 10
1295.0
 20
1735.5
 30
0.0
 40
24.00000000000002
100
AcDbArc
 50
270.0000000000002
 51
319.0090329999999
  0
LINE
  5
496
330
1F
100
AcDbEntity
  8
鏡台
  6
CONTINUOUS
 62
     6
100
AcDbLine
 10
1085.5
 20
2508.500000000018
 30
0.0
 11
1085.5
 21
2457.0
 31
0.0
  0
LINE
  5
497
330
1F
100
AcDbEntity
  8
鏡台
  6
CONTINUOUS
 62
     6
100
AcDbLine
 10
1084.5
 20
2513.5
 30
0.0
 11
1084.5
 21
2508.500000000018
 31
0.0
  0
LINE
  5
498
330
1F
100
AcDbEntity
  8
鏡台
  6
CONTINUOUS
 62
     6
100
AcDbLine
 10
1084.5
 20
2508.500000000018
 30
0.0
 11
1285.5
 21
2508.500000000018
 31
0.0
  0
LINE
  5
499
330
1F
100
AcDbEntity
  8
鏡台
  6
CONTINUOUS
 62
     6
100
AcDbLine
 10
1285.5
 20
2513.5
 30
0.0
 11
1285.5
 21
2508.500000000018
 31
0.0
  0
LINE
  5
49A
330
1F
100
AcDbEntity
  8
鏡台
  6
CONTINUOUS
 62
     6
100
AcDbLine
 10
1284.499999999998
 20
2508.500000000018
 30
0.0
 11
1284.499999999998
 21
2457.0
 31
0.0
  0
LINE
  5
49B
330
1F
100
AcDbEntity
  8
鏡台
  6
CONTINUOUS
 62
     6
100
AcDbLine
 10
1084.5
 20
2260.5
 30
0.0
 11
1084.5
 21
2255.500000000018
 31
0.0
  0
LINE
  5
49C
330
1F
100
AcDbEntity
  8
鏡台
  6
CONTINUOUS
 62
     6
100
AcDbLine
 10
1084.5
 20
2255.500000000018
 30
0.0
 11
1285.5
 21
2255.500000000018
 31
0.0
  0
LINE
  5
49D
330
1F
100
AcDbEntity
  8
鏡台
  6
CONTINUOUS
 62
     6
100
AcDbLine
 10
1285.5
 20
2260.5
 30
0.0
 11
1285.5
 21
2255.500000000018
 31
0.0
  0
LINE
  5
49E
330
1F
100
AcDbEntity
  8
鏡台
  6
CONTINUOUS
 62
     6
100
AcDbLine
 10
1284.499999999998
 20
2255.500000000018
 30
0.0
 11
1284.499999999998
 21
2204.0
 31
0.0
  0
LINE
  5
49F
330
1F
100
AcDbEntity
  8
鏡台
  6
CONTINUOUS
 62
     6
100
AcDbLine
 10
1085.5
 20
2255.500000000018
 30
0.0
 11
1085.5
 21
2204.0
 31
0.0
  0
LINE
  5
4A0
330
1F
100
AcDbEntity
  8
鏡台
  6
CONTINUOUS
 62
     6
100
AcDbLine
 10
1084.5
 20
1958.5
 30
0.0
 11
1084.5
 21
1953.500000000018
 31
0.0
  0
LINE
  5
4A1
330
1F
100
AcDbEntity
  8
鏡台
  6
CONTINUOUS
 62
     6
100
AcDbLine
 10
1084.5
 20
1953.500000000018
 30
0.0
 11
1285.5
 21
1953.500000000018
 31
0.0
  0
LINE
  5
4A2
330
1F
100
AcDbEntity
  8
鏡台
  6
CONTINUOUS
 62
     6
100
AcDbLine
 10
1285.5
 20
1958.5
 30
0.0
 11
1285.5
 21
1953.500000000018
 31
0.0
  0
LINE
  5
4A3
330
1F
100
AcDbEntity
  8
鏡台
  6
CONTINUOUS
 62
     6
100
AcDbLine
 10
1284.499999999998
 20
1953.500000000018
 30
0.0
 11
1284.499999999998
 21
1902.0
 31
0.0
  0
LINE
  5
4A4
330
1F
100
AcDbEntity
  8
鏡台
  6
CONTINUOUS
 62
     6
100
AcDbLine
 10
1085.5
 20
1953.500000000018
 30
0.0
 11
1085.5
 21
1902.0
 31
0.0
  0
LINE
  5
4A5
330
1F
100
AcDbEntity
  8
鏡台
  6
CONTINUOUS
 62
     2
100
AcDbLine
 10
545.0000000000002
 20
2713.5
 30
0.0
 11
1295.0
 21
2713.5
 31
0.0
  0
LINE
  5
4A6
330
1F
100
AcDbEntity
  8
鏡台
  6
CONTINUOUS
 62
     2
100
AcDbLine
 10
657.4999999999989
 20
2712.5
 30
0.0
 11
657.4999999999989
 21
2713.499999999967
 31
0.0
  0
LINE
  5
4A7
330
1F
100
AcDbEntity
  8
鏡台
  6
CONTINUOUS
 62
     2
100
AcDbLine
 10
642.4999999999989
 20
2712.5
 30
0.0
 11
642.4999999999989
 21
2713.499999999967
 31
0.0
  0
ARC
  5
4A8
330
1F
100
AcDbEntity
  8
鏡台
  6
CONTINUOUS
 62
     2
100
AcDbCircle
 10
649.9999999999989
 20
2712.5
 30
0.0
 40
7.500000000000012
100
AcDbArc
 50
180.0
 51
0.0
  0
LINE
  5
4A9
330
1F
100
AcDbEntity
  8
鏡台
  6
CONTINUOUS
 62
     2
100
AcDbLine
 10
642.4999999999989
 20
2713.499999999967
 30
0.0
 11
657.4999999999989
 21
2713.499999999967
 31
0.0
  0
LINE
  5
4AA
330
1F
100
AcDbEntity
  8
鏡台
  6
CONTINUOUS
 62
     2
100
AcDbLine
 10
581.9999999999798
 20
2709.878679656471
 30
0.0
 11
584.1213203435398
 21
2712.000000000031
 31
0.0
  0
LINE
  5
4AB
330
1F
100
AcDbEntity
  8
鏡台
  6
CONTINUOUS
 62
     2
100
AcDbLine
 10
642.516685226449
 20
2712.000000000031
 30
0.0
 11
584.1213203435398
 21
2712.000000000031
 31
0.0
  0
LINE
  5
4AC
330
1F
100
AcDbEntity
  8
鏡台
  6
CONTINUOUS
 62
     2
100
AcDbLine
 10
997.5166852264499
 20
2712.000000000031
 30
0.0
 11
657.4833147735487
 21
2712.000000000031
 31
0.0
  0
LINE
  5
4AD
330
1F
100
AcDbEntity
  8
鏡台
  6
CONTINUOUS
 62
     6
100
AcDbLine
 10
594.999999999998
 20
2643.499999999999
 30
0.0
 11
534.999999999998
 21
2643.499999999999
 31
0.0
  0
LINE
  5
4AE
330
1F
100
AcDbEntity
  8
鏡台
  6
CONTINUOUS
 62
     6
100
AcDbLine
 10
564.999999999998
 20
2673.499999999999
 30
0.0
 11
564.999999999998
 21
2613.499999999999
 31
0.0
  0
CIRCLE
  5
4AF
330
1F
100
AcDbEntity
  8
鏡台
  6
CONTINUOUS
 62
     2
100
AcDbCircle
 10
564.9999999999993
 20
2643.5
 30
0.0
 40
7.000000000000004
  0
LINE
  5
4B0
330
1F
100
AcDbEntity
  8
鏡台
  6
CONTINUOUS
 62
     6
100
AcDbLine
 10
649.999999999998
 20
1743.499999999999
 30
0.0
 11
589.999999999998
 21
1743.499999999999
 31
0.0
  0
LINE
  5
4B1
330
1F
100
AcDbEntity
  8
鏡台
  6
CONTINUOUS
 62
     6
100
AcDbLine
 10
619.999999999998
 20
1773.499999999999
 30
0.0
 11
619.999999999998
 21
1713.499999999999
 31
0.0
  0
CIRCLE
  5
4B2
330
1F
100
AcDbEntity
  8
鏡台
  6
CONTINUOUS
 62
     2
100
AcDbCircle
 10
619.9999999999993
 20
1743.5
 30
0.0
 40
7.000000000000004
  0
LINE
  5
4B3
330
1F
100
AcDbEntity
  8
鏡台
  6
CONTINUOUS
 62
     2
100
AcDbLine
 10
553.0000000000002
 20
2823.5
 30
0.0
 11
1287.0
 21
2823.5
 31
0.0
  0
LINE
  5
4B4
330
1F
100
AcDbEntity
  8
鏡台
  6
CONTINUOUS
 62
     2
100
AcDbLine
 10
545.0000000000002
 20
2815.5
 30
0.0
 11
545.0000000000002
 21
1701.5
 31
0.0
  0
ARC
  5
4B5
330
1F
100
AcDbEntity
  8
鏡台
  6
CONTINUOUS
 62
     2
100
AcDbCircle
 10
553.0000000000002
 20
1701.5
 30
0.0
 40
8.0
100
AcDbArc
 50
180.0000000000002
 51
270.0000000000002
  0
ARC
  5
4B6
330
1F
100
AcDbEntity
  8
鏡台
  6
CONTINUOUS
 62
     2
100
AcDbCircle
 10
553.0000000000002
 20
2815.5
 30
0.0
 40
8.0
100
AcDbArc
 50
90.00000000000004
 51
180.0
  0
LINE
  5
4B7
330
1F
100
AcDbEntity
  8
鏡台
  6
CONTINUOUS
 62
     2
100
AcDbLine
 10
844.9999999999993
 20
2713.499999999967
 30
0.0
 11
829.9999999999993
 21
2713.499999999967
 31
0.0
  0
LINE
  5
4B8
330
1F
100
AcDbEntity
  8
鏡台
  6
CONTINUOUS
 62
     2
100
AcDbLine
 10
656.9999999999993
 20
2823.5
 30
0.0
 11
656.9999999999993
 21
2713.5
 31
0.0
  0
LINE
  5
4B9
330
1F
100
AcDbEntity
  8
鏡台
  6
CONTINUOUS
 62
     2
100
AcDbLine
 10
998.0000000000034
 20
2823.5
 30
0.0
 11
998.0000000000034
 21
2713.5
 31
0.0
  0
LINE
  5
4BA
330
1F
100
AcDbEntity
  8
鏡台
  6
CONTINUOUS
 62
     2
100
AcDbLine
 10
997.7850551282024
 20
2809.5
 30
0.0
 11
657.2149448717994
 21
2809.5
 31
0.0
  0
LINE
  5
4BB
330
1F
100
AcDbEntity
  8
鏡台
  6
CONTINUOUS
 62
     6
100
AcDbLine
 10
997.7850551282024
 20
2798.500000000005
 30
0.0
 11
657.2149448717994
 21
2798.5
 31
0.0
  0
LINE
  5
4BC
330
1F
100
AcDbEntity
  8
鏡台
  6
CONTINUOUS
 62
     6
100
AcDbLine
 10
997.7850551282024
 20
2793.500000000005
 30
0.0
 11
657.2149448717994
 21
2793.5
 31
0.0
  0
ARC
  5
4BD
330
1F
100
AcDbEntity
  8
鏡台
  6
CONTINUOUS
 62
     6
100
AcDbCircle
 10
827.4999999999984
 20
5616.700000001376
 30
0.0
 40
2902.200000001376
100
AcDbArc
 50
266.6362684044902
 51
273.3637315955098
  0
LINE
  5
4BE
330
1F
100
AcDbEntity
  8
鏡台
  6
CONTINUOUS
 62
     6
100
AcDbLine
 10
997.7850551282024
 20
2809.5
 30
0.0
 11
997.7850551282024
 21
2719.5
 31
0.0
  0
LINE
  5
4BF
330
1F
100
AcDbEntity
  8
鏡台
  6
CONTINUOUS
 62
     6
100
AcDbLine
 10
657.2149448717994
 20
2809.5
 30
0.0
 11
657.2149448717994
 21
2719.5
 31
0.0
  0
LINE
  5
4C0
330
1F
100
AcDbEntity
  8
鏡台
  6
CONTINUOUS
 62
     2
100
AcDbLine
 10
997.4999999999998
 20
1842.49999999997
 30
0.0
 11
997.4999999999998
 21
1841.500000000003
 31
0.0
  0
LINE
  5
4C1
330
1F
100
AcDbEntity
  8
鏡台
  6
CONTINUOUS
 62
     2
100
AcDbLine
 10
1012.5
 20
1842.49999999997
 30
0.0
 11
1012.5
 21
1841.500000000003
 31
0.0
  0
ARC
  5
4C2
330
1F
100
AcDbEntity
  8
鏡台
  6
CONTINUOUS
 62
     2
100
AcDbCircle
 10
1005.0
 20
1842.49999999997
 30
0.0
 40
7.500000000000012
100
AcDbArc
 50
0.0
 51
180.0
  0
LINE
  5
4C3
330
1F
100
AcDbEntity
  8
鏡台
  6
CONTINUOUS
 62
     2
100
AcDbLine
 10
1012.5
 20
1841.500000000003
 30
0.0
 11
997.4999999999998
 21
1841.500000000003
 31
0.0
  0
LINE
  5
4C4
330
1F
100
AcDbEntity
  8
鏡台
  6
CONTINUOUS
 62
     2
100
AcDbLine
 10
1072.99999999998
 20
1846.121320343562
 30
0.0
 11
1070.87867965642
 21
1844.000000000002
 31
0.0
  0
LINE
  5
4C5
330
1F
100
AcDbEntity
  8
鏡台
  6
CONTINUOUS
 62
     2
100
AcDbLine
 10
1072.99999999998
 20
2709.878679656471
 30
0.0
 11
1072.99999999998
 21
1846.121320343562
 31
0.0
  0
LINE
  5
4C6
330
1F
100
AcDbEntity
  8
鏡台
  6
CONTINUOUS
 62
     2
100
AcDbLine
 10
1070.87867965642
 20
1844.000000000002
 30
0.0
 11
1012.348469228342
 21
1844.000000000002
 31
0.0
  0
LINE
  5
4C7
330
1F
100
AcDbEntity
  8
鏡台
  6
CONTINUOUS
 62
     2
100
AcDbLine
 10
657.4999999999989
 20
1842.49999999997
 30
0.0
 11
657.4999999999989
 21
1841.500000000003
 31
0.0
  0
LINE
  5
4C8
330
1F
100
AcDbEntity
  8
鏡台
  6
CONTINUOUS
 62
     2
100
AcDbLine
 10
642.4999999999989
 20
1842.49999999997
 30
0.0
 11
642.4999999999989
 21
1841.500000000003
 31
0.0
  0
ARC
  5
4C9
330
1F
100
AcDbEntity
  8
鏡台
  6
CONTINUOUS
 62
     2
100
AcDbCircle
 10
649.9999999999989
 20
1842.49999999997
 30
0.0
 40
7.500000000000012
100
AcDbArc
 50
0.0
 51
180.0
  0
LINE
  5
4CA
330
1F
100
AcDbEntity
  8
鏡台
  6
CONTINUOUS
 62
     2
100
AcDbLine
 10
642.4999999999989
 20
1841.500000000003
 30
0.0
 11
657.4999999999989
 21
1841.500000000003
 31
0.0
  0
LINE
  5
4CB
330
1F
100
AcDbEntity
  8
鏡台
  6
CONTINUOUS
 62
     2
100
AcDbLine
 10
584.1213203435398
 20
1844.000000000002
 30
0.0
 11
581.9999999999798
 21
1846.121320343562
 31
0.0
  0
LINE
  5
4CC
330
1F
100
AcDbEntity
  8
鏡台
  6
CONTINUOUS
 62
     2
100
AcDbLine
 10
581.9999999999798
 20
2709.878679656471
 30
0.0
 11
581.9999999999798
 21
1846.121320343562
 31
0.0
  0
LINE
  5
4CD
330
1F
100
AcDbEntity
  8
鏡台
  6
CONTINUOUS
 62
     2
100
AcDbLine
 10
997.6515307716561
 20
1844.000000000002
 30
0.0
 11
657.3484692283416
 21
1844.000000000002
 31
0.0
  0
LINE
  5
4CE
330
1F
100
AcDbEntity
  8
鏡台
  6
CONTINUOUS
 62
     2
100
AcDbLine
 10
642.6515307716561
 20
1844.000000000002
 30
0.0
 11
584.1213203435398
 21
1844.000000000002
 31
0.0
  0
LINE
  5
4CF
330
1F
100
AcDbEntity
  8
鏡台
  6
CONTINUOUS
 62
     6
100
AcDbLine
 10
880.5830085889986
 20
2124.833008589
 30
0.0
 11
827.5499999999986
 21
2071.8
 31
0.0
  0
LINE
  5
4D0
330
1F
100
AcDbEntity
  8
鏡台
  6
CONTINUOUS
 62
     6
100
AcDbLine
 10
857.9431457504991
 20
2113.506854249
 30
0.0
 11
838.9931457504993
 21
2094.556854249
 31
0.0
  0
LINE
  5
4D1
330
1F
100
AcDbEntity
  8
鏡台
  6
CONTINUOUS
 62
     6
100
AcDbLine
 10
874.4568542494992
 20
2107.393145750999
 30
0.0
 11
844.7568542494994
 21
2077.693145751
 31
0.0
  0
LINE
  5
4D2
330
1F
100
AcDbEntity
  8
鏡台
  6
CONTINUOUS
 62
     6
100
AcDbLine
 10
991.5830085889991
 20
2568.833008589
 30
0.0
 11
938.5499999999986
 21
2515.8
 31
0.0
  0
LINE
  5
4D3
330
1F
100
AcDbEntity
  8
鏡台
  6
CONTINUOUS
 62
     6
100
AcDbLine
 10
968.9431457504995
 20
2557.506854249
 30
0.0
 11
949.9931457504988
 21
2538.556854249
 31
0.0
  0
LINE
  5
4D4
330
1F
100
AcDbEntity
  8
鏡台
  6
CONTINUOUS
 62
     6
100
AcDbLine
 10
985.4568542494997
 20
2551.393145750999
 30
0.0
 11
955.7568542494989
 21
2521.693145751
 31
0.0
  0
LINE
  5
4D5
330
1F
100
AcDbEntity
  8
鏡台
  6
CONTINUOUS
 62
     6
100
AcDbLine
 10
715.5830085889986
 20
2328.833008589
 30
0.0
 11
662.5499999999986
 21
2275.8
 31
0.0
  0
LINE
  5
4D6
330
1F
100
AcDbEntity
  8
鏡台
  6
CONTINUOUS
 62
     6
100
AcDbLine
 10
692.9431457504986
 20
2317.506854249
 30
0.0
 11
673.9931457504988
 21
2298.556854249
 31
0.0
  0
LINE
  5
4D7
330
1F
100
AcDbEntity
  8
鏡台
  6
CONTINUOUS
 62
     6
100
AcDbLine
 10
709.4568542494987
 20
2311.393145750999
 30
0.0
 11
679.7568542494994
 21
2281.693145751
 31
0.0
  0
LINE
  5
4D8
330
1F
100
AcDbEntity
  8
鏡台
  6
CONTINUOUS
 62
     2
100
AcDbLine
 10
1110.0
 20
2817.6638896601
 30
0.0
 11
1110.0
 21
2713.5
 31
0.0
  0
LINE
  5
4D9
330
1F
100
AcDbEntity
  8
鏡台
  6
CONTINUOUS
 62
     2
100
AcDbLine
 10
2555.0
 20
1693.5
 30
0.0
 11
2555.0
 21
2823.5
 31
0.0
  0
LINE
  5
4DA
330
1F
100
AcDbEntity
  8
鏡台
  6
CONTINUOUS
 62
     2
100
AcDbLine
 10
2525.0
 20
2822.5
 30
0.0
 11
2555.0
 21
2823.5
 31
0.0
  0
LINE
  5
4DB
330
1F
100
AcDbEntity
  8
鏡台
  6
CONTINUOUS
 62
     2
100
AcDbLine
 10
2378.0
 20
2809.5
 30
0.0
 11
2378.0
 21
2714.5
 31
0.0
  0
LINE
  5
4DC
330
1F
100
AcDbEntity
  8
鏡台
  6
CONTINUOUS
 62
     2
100
AcDbLine
 10
2378.0
 20
2714.5
 30
0.0
 11
2485.0
 21
2719.5
 31
0.0
  0
LINE
  5
4DD
330
1F
100
AcDbEntity
  8
鏡台
  6
CONTINUOUS
 62
     2
100
AcDbLine
 10
2378.0
 20
2809.5
 30
0.0
 11
2485.0
 21
2809.5
 31
0.0
  0
LINE
  5
4DE
330
1F
100
AcDbEntity
  8
鏡台
  6
CONTINUOUS
 62
     6
100
AcDbLine
 10
2378.0
 20
2798.5
 30
0.0
 11
2485.0
 21
2798.5
 31
0.0
  0
LINE
  5
4DF
330
1F
100
AcDbEntity
  8
鏡台
  6
CONTINUOUS
 62
     6
100
AcDbLine
 10
2378.0
 20
2793.5
 30
0.0
 11
2485.0
 21
2793.5
 31
0.0
  0
LINE
  5
4E0
330
1F
100
AcDbEntity
  8
鏡台
  6
CONTINUOUS
 62
     2
100
AcDbLine
 10
2431.5
 20
2513.5
 30
0.0
 11
2431.5
 21
2508.5
 31
0.0
  0
LINE
  5
4E1
330
1F
100
AcDbEntity
  8
鏡台
  6
CONTINUOUS
 62
     2
100
AcDbLine
 10
2432.5
 20
2474.0
 30
0.0
 11
2525.0
 21
2457.0
 31
0.0
  0
LINE
  5
4E2
330
1F
100
AcDbEntity
  8
鏡台
  6
CONTINUOUS
 62
     2
100
AcDbLine
 10
2431.5
 20
2513.5
 30
0.0
 11
2525.0
 21
2513.5
 31
0.0
  0
LINE
  5
4E3
330
1F
100
AcDbEntity
  8
鏡台
  6
CONTINUOUS
 62
     2
100
AcDbLine
 10
2432.5
 20
2508.5
 30
0.0
 11
2432.5
 21
2474.0
 31
0.0
  0
LINE
  5
4E4
330
1F
100
AcDbEntity
  8
鏡台
  6
CONTINUOUS
 62
     2
100
AcDbLine
 10
2431.5
 20
2260.5
 30
0.0
 11
2431.5
 21
2255.5
 31
0.0
  0
LINE
  5
4E5
330
1F
100
AcDbEntity
  8
鏡台
  6
CONTINUOUS
 62
     2
100
AcDbLine
 10
2432.5
 20
2221.0
 30
0.0
 11
2525.0
 21
2204.0
 31
0.0
  0
LINE
  5
4E6
330
1F
100
AcDbEntity
  8
鏡台
  6
CONTINUOUS
 62
     2
100
AcDbLine
 10
2431.5
 20
2260.5
 30
0.0
 11
2525.0
 21
2260.5
 31
0.0
  0
LINE
  5
4E7
330
1F
100
AcDbEntity
  8
鏡台
  6
CONTINUOUS
 62
     2
100
AcDbLine
 10
2432.5
 20
2255.5
 30
0.0
 11
2432.5
 21
2221.0
 31
0.0
  0
LINE
  5
4E8
330
1F
100
AcDbEntity
  8
鏡台
  6
CONTINUOUS
 62
     2
100
AcDbLine
 10
2431.5
 20
1958.5
 30
0.0
 11
2431.5
 21
1953.5
 31
0.0
  0
LINE
  5
4E9
330
1F
100
AcDbEntity
  8
鏡台
  6
CONTINUOUS
 62
     2
100
AcDbLine
 10
2432.5
 20
1919.0
 30
0.0
 11
2525.0
 21
1902.0
 31
0.0
  0
LINE
  5
4EA
330
1F
100
AcDbEntity
  8
鏡台
  6
CONTINUOUS
 62
     2
100
AcDbLine
 10
2431.5
 20
1958.5
 30
0.0
 11
2525.0
 21
1958.5
 31
0.0
  0
LINE
  5
4EB
330
1F
100
AcDbEntity
  8
鏡台
  6
CONTINUOUS
 62
     2
100
AcDbLine
 10
2432.5
 20
1953.5
 30
0.0
 11
2432.5
 21
1919.0
 31
0.0
  0
LINE
  5
4EC
330
1F
100
AcDbEntity
  8
鏡台
  6
CONTINUOUS
 62
     2
100
AcDbLine
 10
2505.0
 20
2460.675675675676
 30
0.0
 11
2505.0
 21
2260.5
 31
0.0
  0
LINE
  5
4ED
330
1F
100
AcDbEntity
  8
鏡台
  6
CONTINUOUS
 62
     6
100
AcDbLine
 10
2539.999999999999
 20
2643.5
 30
0.0
 11
2602.499999999999
 21
2643.5
 31
0.0
  0
LINE
  5
4EE
330
1F
100
AcDbEntity
  8
鏡台
  6
CONTINUOUS
 62
     6
100
AcDbLine
 10
2554.999999999999
 20
2645.5
 30
0.0
 11
2587.499999999999
 21
2643.5
 31
0.0
  0
LINE
  5
4EF
330
1F
100
AcDbEntity
  8
鏡台
  6
CONTINUOUS
 62
     6
100
AcDbLine
 10
2587.499999999999
 20
2643.5
 30
0.0
 11
2554.999999999999
 21
2641.5
 31
0.0
  0
LINE
  5
4F0
330
1F
100
AcDbEntity
  8
鏡台
  6
CONTINUOUS
 62
     6
100
AcDbLine
 10
2539.999999999999
 20
2143.5
 30
0.0
 11
2602.499999999999
 21
2143.5
 31
0.0
  0
LINE
  5
4F1
330
1F
100
AcDbEntity
  8
鏡台
  6
CONTINUOUS
 62
     6
100
AcDbLine
 10
2554.999999999999
 20
2145.5
 30
0.0
 11
2587.499999999999
 21
2143.5
 31
0.0
  0
LINE
  5
4F2
330
1F
100
AcDbEntity
  8
鏡台
  6
CONTINUOUS
 62
     6
100
AcDbLine
 10
2587.499999999999
 20
2143.5
 30
0.0
 11
2554.999999999999
 21
2141.5
 31
0.0
  0
LINE
  5
4F3
330
1F
100
AcDbEntity
  8
鏡台
  6
CONTINUOUS
 62
     6
100
AcDbLine
 10
2539.999999999999
 20
1743.5
 30
0.0
 11
2602.499999999999
 21
1743.5
 31
0.0
  0
LINE
  5
4F4
330
1F
100
AcDbEntity
  8
鏡台
  6
CONTINUOUS
 62
     6
100
AcDbLine
 10
2554.999999999999
 20
1745.5
 30
0.0
 11
2587.499999999999
 21
1743.5
 31
0.0
  0
LINE
  5
4F5
330
1F
100
AcDbEntity
  8
鏡台
  6
CONTINUOUS
 62
     6
100
AcDbLine
 10
2587.499999999999
 20
1743.5
 30
0.0
 11
2554.999999999999
 21
1741.5
 31
0.0
  0
LINE
  5
4F6
330
1F
100
AcDbEntity
  8
鏡台
  6
CONTINUOUS
 62
     2
100
AcDbLine
 10
2489.502481404895
 20
2818.95024814049
 30
0.0
 11
2525.0
 21
2822.5
 31
0.0
  0
ARC
  5
4F7
330
1F
100
AcDbEntity
  8
鏡台
  6
CONTINUOUS
 62
     2
100
AcDbCircle
 10
2490.0
 20
2813.97506218944
 30
0.0
 40
5.0
100
AcDbArc
 50
95.7105931375006
 51
180.0
  0
ARC
  5
4F8
330
1F
100
AcDbEntity
  8
鏡台
  6
CONTINUOUS
 62
     2
100
AcDbCircle
 10
2530.0
 20
2817.663889660066
 30
0.0
 40
5.0
100
AcDbArc
 50
91.90915243299736
 51
180.0
  0
LINE
  5
4F9
330
1F
100
AcDbEntity
  8
鏡台
  6
CONTINUOUS
 62
     2
100
AcDbLine
 10
2485.0
 20
2813.97506218944
 30
0.0
 11
2485.0
 21
2718.353747659175
 31
0.0
  0
LINE
  5
4FA
330
1F
100
AcDbEntity
  8
鏡台
  6
CONTINUOUS
 62
     2
100
AcDbLine
 10
2525.0
 20
2713.5
 30
0.0
 11
2487.850187149168
 21
2715.357490642542
 31
0.0
  0
ARC
  5
4FB
330
1F
100
AcDbEntity
  8
鏡台
  6
CONTINUOUS
 62
     2
100
AcDbCircle
 10
2488.0
 20
2718.353747659175
 30
0.0
 40
3.000000000000002
100
AcDbArc
 50
180.0
 51
267.1375947738941
  0
LINE
  5
4FC
330
1F
100
AcDbEntity
  8
鏡台
  6
CONTINUOUS
 62
     2
100
AcDbLine
 10
2525.0
 20
1698.5
 30
0.0
 11
2525.0
 21
2817.663889660066
 31
0.0
  0
ARC
  5
4FD
330
1F
100
AcDbEntity
  8
鏡台
  6
CONTINUOUS
 62
     2
100
AcDbCircle
 10
2530.0
 20
1698.5
 30
0.0
 40
5.0
100
AcDbArc
 50
180.0
 51
270.0000000000002
  0
LINE
  5
4FE
330
1F
100
AcDbEntity
  8
鏡台
  6
CONTINUOUS
 62
     6
100
AcDbLine
 10
2522.0
 20
2513.5
 30
0.0
 11
2522.0
 21
2457.551351351352
 31
0.0
  0
LINE
  5
4FF
330
1F
100
AcDbEntity
  8
鏡台
  6
CONTINUOUS
 62
     6
100
AcDbLine
 10
2431.5
 20
2508.5
 30
0.0
 11
2522.0
 21
2508.5
 31
0.0
  0
LINE
  5
500
330
1F
100
AcDbEntity
  8
鏡台
  6
CONTINUOUS
 62
     6
100
AcDbLine
 10
2431.5
 20
2255.5
 30
0.0
 11
2522.0
 21
2255.5
 31
0.0
  0
LINE
  5
501
330
1F
100
AcDbEntity
  8
鏡台
  6
CONTINUOUS
 62
     6
100
AcDbLine
 10
2522.0
 20
2260.5
 30
0.0
 11
2522.0
 21
2204.551351351352
 31
0.0
  0
LINE
  5
502
330
1F
100
AcDbEntity
  8
鏡台
  6
CONTINUOUS
 62
     6
100
AcDbLine
 10
2431.5
 20
1953.5
 30
0.0
 11
2522.0
 21
1953.5
 31
0.0
  0
LINE
  5
503
330
1F
100
AcDbEntity
  8
鏡台
  6
CONTINUOUS
 62
     6
100
AcDbLine
 10
2522.0
 20
1958.5
 30
0.0
 11
2522.0
 21
1902.551351351352
 31
0.0
  0
DIMENSION
  5
505
330
1F
100
AcDbEntity
  8
寸法
  6
CONTINUOUS
 62
     3
100
AcDbDimension
  2
*D15
 10
1189.999999999995
 20
4168.0
 30
0.0
 11
919.9999999999982
 21
4203.249999910593
 31
0.0
 70
   160
  1
540（壁固定）
  3
ISO-25
100
AcDbAlignedDimension
 13
649.9999999999989
 23
4005.5
 33
0.0
 14
1189.999999999995
 24
4005.5
 34
0.0
100
AcDbRotatedDimension
1001
ACAD
1000
DSTYLE
1002
{
1070
   270
1070
     2
1070
     6
1000
EX_NORM
1070
     7
1000
EX_NORM
1070
    41
1040
44.99999618530273
1070
    42
1040
146.4999961853027
1070
    44
1040
15.0
1070
    73
1070
     0
1070
    74
1070
     0
1070
    75
1070
     0
1070
    76
1070
     1
1070
    77
1070
     1
1070
    78
1070
     0
1070
   140
1040
59.99999618530273
1070
   147
1040
0.0
1070
   173
1070
     1
1070
   176
1070
     3
1070
   177
1070
     3
1070
   178
1070
     2
1070
   271
1070
     0
1070
   277
1070
     2
1070
   279
1070
     2
1070
   280
1070
     0
1070
   287
1070
     5
1070
   340
1005
504
1002
}
  0
DIMENSION
  5
512
330
1F
100
AcDbEntity
  8
寸法
  6
CONTINUOUS
 62
     3
100
AcDbDimension
  2
*D16
 10
1294.999999999993
 20
3388.0
 30
0.0
 11
919.9999999999964
 21
3423.249999910593
 31
0.0
 70
   160
  3
ISO-25
100
AcDbAlignedDimension
 13
544.9999999999989
 23
3522.598404562999
 33
0.0
 14
1294.999999999993
 24
3522.598404562999
 34
0.0
100
AcDbRotatedDimension
1001
ACAD
1000
DSTYLE
1002
{
1070
   270
1070
     2
1070
     6
1000
EX_NORM
1070
     7
1000
EX_NORM
1070
    41
1040
44.99999618530273
1070
    42
1040
10.49999982118607
1070
    44
1040
15.0
1070
    73
1070
     0
1070
    74
1070
     0
1070
    75
1070
     0
1070
    76
1070
     0
1070
    77
1070
     1
1070
    78
1070
     0
1070
   140
1040
59.99999618530273
1070
   147
1040
0.0
1070
   173
1070
     1
1070
   176
1070
     3
1070
   177
1070
     3
1070
   178
1070
     2
1070
   271
1070
     0
1070
   277
1070
     2
1070
   279
1070
     2
1070
   280
1070
     0
1070
   287
1070
     5
1070
   340
1005
504
1002
}
  0
DIMENSION
  5
51F
330
1F
100
AcDbEntity
  8
寸法
  6
CONTINUOUS
 62
     3
100
AcDbDimension
  2
*D17
 10
1399.999999999994
 20
3973.0
 30
0.0
 11
1364.750000089402
 21
3733.0
 31
0.0
 70
   160
  3
ISO-25
100
AcDbAlignedDimension
 13
919.9999999999989
 23
3493.0
 33
0.0
 14
1294.999999999993
 24
3973.0
 34
0.0
 50
90.0
100
AcDbRotatedDimension
1001
ACAD
1000
DSTYLE
1002
{
1070
   270
1070
     2
1070
     6
1000
EX_NORM
1070
     7
1000
EX_NORM
1070
    41
1040
44.99999618530273
1070
    42
1040
10.49999982118607
1070
    44
1040
15.0
1070
    73
1070
     0
1070
    74
1070
     0
1070
    75
1070
     0
1070
    76
1070
     1
1070
    77
1070
     1
1070
    78
1070
     0
1070
   140
1040
59.99999618530273
1070
   147
1040
0.0
1070
   173
1070
     1
1070
   176
1070
     3
1070
   177
1070
     3
1070
   178
1070
     2
1070
   271
1070
     0
1070
   277
1070
     2
1070
   279
1070
     2
1070
   280
1070
     0
1070
   287
1070
     5
1070
   340
1005
504
1002
}
  0
DIMENSION
  5
52B
330
1F
100
AcDbEntity
  8
寸法
  6
CONTINUOUS
 62
     3
100
AcDbDimension
  2
*D18
 10
1447.499999999996
 20
1678.5
 30
0.0
 11
1412.250000089403
 21
1288.5
 31
0.0
 70
   160
  3
ISO-25
100
AcDbAlignedDimension
 13
1278.499999999993
 23
898.5
 33
0.0
 14
919.9999999999989
 24
1678.5
 34
0.0
 50
90.0
100
AcDbRotatedDimension
1001
ACAD
1000
DSTYLE
1002
{
1070
   270
1070
     2
1070
     6
1000
EX_NORM
1070
     7
1000
EX_NORM
1070
    41
1040
44.99999618530273
1070
    42
1040
10.49999982118607
1070
    44
1040
15.0
1070
    73
1070
     0
1070
    74
1070
     0
1070
    75
1070
     1
1070
    76
1070
     0
1070
    77
1070
     1
1070
    78
1070
     0
1070
   140
1040
59.99999618530273
1070
   147
1040
0.0
1070
   173
1070
     1
1070
   176
1070
     3
1070
   177
1070
     3
1070
   178
1070
     2
1070
   271
1070
     0
1070
   277
1070
     2
1070
   279
1070
     2
1070
   280
1070
     0
1070
   287
1070
     5
1070
   340
1005
504
1002
}
  0
DIMENSION
  5
537
330
1F
100
AcDbEntity
  8
寸法
  6
CONTINUOUS
 62
     3
100
AcDbDimension
  2
*D19
 10
1537.499999999994
 20
1693.5
 30
0.0
 11
1502.250000089401
 21
1296.0
 31
0.0
 70
   160
  3
ISO-25
100
AcDbAlignedDimension
 13
1278.499999999993
 23
898.5
 33
0.0
 14
1289.999999999993
 24
1693.5
 34
0.0
 50
90.0
100
AcDbRotatedDimension
1001
ACAD
1000
DSTYLE
1002
{
1070
   270
1070
     2
1070
     6
1000
EX_NORM
1070
     7
1000
EX_NORM
1070
    41
1040
44.99999618530273
1070
    42
1040
10.49999982118607
1070
    44
1040
15.0
1070
    73
1070
     0
1070
    74
1070
     0
1070
    75
1070
     1
1070
    76
1070
     0
1070
    77
1070
     1
1070
    78
1070
     0
1070
   140
1040
59.99999618530273
1070
   147
1040
0.0
1070
   173
1070
     1
1070
   176
1070
     3
1070
   177
1070
     3
1070
   178
1070
     2
1070
   271
1070
     0
1070
   277
1070
     2
1070
   279
1070
     2
1070
   280
1070
     0
1070
   287
1070
     5
1070
   340
1005
504
1002
}
  0
DIMENSION
  5
543
330
1F
100
AcDbEntity
  8
寸法
  6
CONTINUOUS
 62
     3
100
AcDbDimension
  2
*D20
 10
2554.999999999997
 20
778.5
 30
0.0
 11
2764.999999999997
 21
813.749999910593
 31
0.0
 70
   160
  1
85（床給水）
  3
ISO-25
100
AcDbAlignedDimension
 13
2469.999999999997
 23
890.5
 33
0.0
 14
2554.999999999997
 24
898.5
 34
0.0
100
AcDbRotatedDimension
1001
ACAD
1000
DSTYLE
1002
{
1070
   270
1070
     2
1070
     6
1000
EX_NORM
1070
     7
1000
EX_NORM
1070
    41
1040
44.99999618530273
1070
    42
1040
10.49999982118607
1070
    44
1040
15.0
1070
    73
1070
     0
1070
    74
1070
     0
1070
    75
1070
     0
1070
    76
1070
     0
1070
    77
1070
     1
1070
    78
1070
     0
1070
   140
1040
59.99999618530273
1070
   147
1040
0.0
1070
   173
1070
     1
1070
   176
1070
     3
1070
   177
1070
     3
1070
   178
1070
     2
1070
   271
1070
     0
1070
   277
1070
     2
1070
   279
1070
     2
1070
   280
1070
     2
1070
   287
1070
     5
1070
   340
1005
504
1002
}
  0
DIMENSION
  5
552
330
1F
100
AcDbEntity
  8
寸法
  6
CONTINUOUS
 62
     3
100
AcDbDimension
  2
*D21
 10
2659.999999999997
 20
1248.5
 30
0.0
 11
2624.750000089404
 21
1073.5
 31
0.0
 70
   160
  1
350（壁給水）
  3
ISO-25
100
AcDbAlignedDimension
 13
2554.999999999997
 23
898.5
 33
0.0
 14
2562.999999999997
 24
1248.5
 34
0.0
 50
90.0
100
AcDbRotatedDimension
1001
ACAD
1000
DSTYLE
1002
{
1070
   270
1070
     2
1070
     6
1000
EX_NORM
1070
     7
1000
EX_NORM
1070
    41
1040
44.99999618530273
1070
    42
1040
10.49999982118607
1070
    44
1040
15.0
1070
    73
1070
     0
1070
    74
1070
     0
1070
    75
1070
     0
1070
    76
1070
     0
1070
    77
1070
     1
1070
    78
1070
     0
1070
   140
1040
59.99999618530273
1070
   147
1040
0.0
1070
   173
1070
     1
1070
   176
1070
     3
1070
   177
1070
     3
1070
   178
1070
     2
1070
   271
1070
     0
1070
   277
1070
     2
1070
   279
1070
     2
1070
   280
1070
     0
1070
   287
1070
     5
1070
   340
1005
504
1002
}
  0
DIMENSION
  5
55F
330
1F
100
AcDbEntity
  8
寸法
  6
CONTINUOUS
 62
     3
100
AcDbDimension
  2
*D22
 10
2749.999999999997
 20
1398.5
 30
0.0
 11
2714.750000089404
 21
1148.5
 31
0.0
 70
   160
  1
500（壁排水）
  3
ISO-25
100
AcDbAlignedDimension
 13
2554.999999999997
 23
898.5
 33
0.0
 14
2575.999999999997
 24
1398.5
 34
0.0
 50
90.0
100
AcDbRotatedDimension
1001
ACAD
1000
DSTYLE
1002
{
1070
   270
1070
     2
1070
     6
1000
EX_NORM
1070
     7
1000
EX_NORM
1070
    41
1040
44.99999618530273
1070
    42
1040
10.49999982118607
1070
    44
1040
15.0
1070
    73
1070
     0
1070
    74
1070
     0
1070
    75
1070
     0
1070
    76
1070
     0
1070
    77
1070
     1
1070
    78
1070
     0
1070
   140
1040
59.99999618530273
1070
   147
1040
0.0
1070
   173
1070
     1
1070
   176
1070
     3
1070
   177
1070
     3
1070
   178
1070
     2
1070
   271
1070
     0
1070
   277
1070
     2
1070
   279
1070
     2
1070
   280
1070
     0
1070
   287
1070
     5
1070
   340
1005
504
1002
}
  0
DIMENSION
  5
56C
330
1F
100
AcDbEntity
  8
寸法
  6
CONTINUOUS
 62
     3
100
AcDbDimension
  2
*D23
 10
2839.999999999997
 20
1453.5
 30
0.0
 11
2804.750000089404
 21
1176.0
 31
0.0
 70
   160
  1
555（壁固定）
  3
ISO-25
100
AcDbAlignedDimension
 13
2554.999999999997
 23
898.5
 33
0.0
 14
2587.499999999997
 24
1453.5
 34
0.0
 50
90.0
100
AcDbRotatedDimension
1001
ACAD
1000
DSTYLE
1002
{
1070
   270
1070
     2
1070
     6
1000
EX_NORM
1070
     7
1000
EX_NORM
1070
    41
1040
44.99999618530273
1070
    42
1040
10.49999982118607
1070
    44
1040
15.0
1070
    73
1070
     0
1070
    74
1070
     0
1070
    75
1070
     0
1070
    76
1070
     0
1070
    77
1070
     1
1070
    78
1070
     0
1070
   140
1040
59.99999618530273
1070
   147
1040
0.0
1070
   173
1070
     1
1070
   176
1070
     3
1070
   177
1070
     3
1070
   178
1070
     2
1070
   271
1070
     0
1070
   277
1070
     2
1070
   279
1070
     2
1070
   280
1070
     0
1070
   287
1070
     5
1070
   340
1005
504
1002
}
  0
DIMENSION
  5
579
330
1F
100
AcDbEntity
  8
寸法
  6
CONTINUOUS
 62
     3
100
AcDbDimension
  2
*D24
 10
2554.999999999997
 20
598.5
 30
0.0
 11
2359.999999999996
 21
633.749999910593
 31
0.0
 70
   160
  3
ISO-25
100
AcDbAlignedDimension
 13
2164.999999999995
 23
902.0
 33
0.0
 14
2554.999999999997
 24
898.5
 34
0.0
100
AcDbRotatedDimension
1001
ACAD
1000
DSTYLE
1002
{
1070
   270
1070
     2
1070
     6
1000
EX_NORM
1070
     7
1000
EX_NORM
1070
    41
1040
44.99999618530273
1070
    42
1040
10.49999982118607
1070
    44
1040
15.0
1070
    73
1070
     0
1070
    74
1070
     0
1070
    75
1070
     0
1070
    76
1070
     0
1070
    77
1070
     1
1070
    78
1070
     0
1070
   140
1040
59.99999618530273
1070
   147
1040
0.0
1070
   173
1070
     1
1070
   176
1070
     3
1070
   177
1070
     3
1070
   178
1070
     2
1070
   271
1070
     0
1070
   277
1070
     2
1070
   279
1070
     2
1070
   280
1070
     0
1070
   287
1070
     5
1070
   340
1005
504
1002
}
  0
TEXT
  5
586
330
1F
100
AcDbEntity
  8
寸法
  6
CONTINUOUS
 62
     2
100
AcDbText
 10
618.0000003576288
 20
4055.249999910593
 30
0.0
 40
59.99999618530273
  1
壁排水
 41
1.070588224822399
  7
EXCADSTD
 72
     5
 11
773.999988913537
 21
4055.249999910593
 31
0.0
100
AcDbText
  0
LEADER
  5
587
330
1F
100
AcDbEntity
  8
寸法
  6
CONTINUOUS
 62
     3
100
AcDbLeader
  3
ISO-25
 76
     3
 10
904.0000000000389
 20
3993.0
 30
0.0
 10
781.5000000000007
 20
4050.0
 30
0.0
 10
610.5000000000007
 20
4050.0
 30
0.0
1001
ACAD
1000
DSTYLE
1002
{
1070
     5
1000
EX_NORM
1070
    41
1040
45.0
1070
   341
1005
4D
1002
}
  0
DIMENSION
  5
588
330
1F
100
AcDbEntity
  8
寸法
  6
CONTINUOUS
 62
     3
100
AcDbDimension
  2
*D25
 10
1278.499999999993
 20
598.5
 30
0.0
 11
919.9999999999961
 21
633.749999910593
 31
0.0
 70
   160
  3
ISO-25
100
AcDbAlignedDimension
 13
561.4999999999989
 23
898.5
 33
0.0
 14
1278.499999999993
 24
898.5
 34
0.0
100
AcDbRotatedDimension
1001
ACAD
1000
DSTYLE
1002
{
1070
   270
1070
     2
1070
     6
1000
EX_NORM
1070
     7
1000
EX_NORM
1070
    41
1040
44.99999618530273
1070
    42
1040
228.5000038146973
1070
    44
1040
15.0
1070
    73
1070
     0
1070
    74
1070
     0
1070
    75
1070
     0
1070
    76
1070
     0
1070
    77
1070
     1
1070
    78
1070
     0
1070
   140
1040
59.99999618530273
1070
   147
1040
0.0
1070
   173
1070
     1
1070
   176
1070
     3
1070
   177
1070
     3
1070
   178
1070
     2
1070
   271
1070
     0
1070
   277
1070
     2
1070
   279
1070
     2
1070
   280
1070
     0
1070
   287
1070
     5
1070
   340
1005
504
1002
}
  0
DIMENSION
  5
595
330
1F
100
AcDbEntity
  8
寸法
  6
CONTINUOUS
 62
     3
100
AcDbDimension
  2
*D26
 10
970.999999999998
 20
1885.0
 30
0.0
 11
919.9999999999984
 21
1920.249999910593
 31
0.0
 70
   160
  3
ISO-25
100
AcDbAlignedDimension
 13
868.9999999999989
 23
1680.722387698
 33
0.0
 14
970.999999999998
 24
1690.222387698
 34
0.0
100
AcDbRotatedDimension
1001
ACAD
1000
DSTYLE
1002
{
1070
   270
1070
     2
1070
     6
1000
EX_NORM
1070
     7
1000
EX_NORM
1070
    41
1040
44.99999618530273
1070
    42
1040
10.49999982118607
1070
    44
1040
15.0
1070
    73
1070
     0
1070
    74
1070
     0
1070
    75
1070
     0
1070
    76
1070
     0
1070
    77
1070
     1
1070
    78
1070
     0
1070
   140
1040
59.99999618530273
1070
   147
1040
0.0
1070
   173
1070
     1
1070
   176
1070
     3
1070
   177
1070
     3
1070
   178
1070
     2
1070
   271
1070
     0
1070
   277
1070
     2
1070
   279
1070
     2
1070
   280
1070
     0
1070
   287
1070
     5
1070
   340
1005
504
1002
}
  0
DIMENSION
  5
5A2
330
1F
100
AcDbEntity
  8
寸法
  6
CONTINUOUS
 62
     3
100
AcDbDimension
  2
*D27
 10
2554.999999999997
 20
1885.0
 30
0.0
 11
2377.499999999995
 21
1920.249999910593
 31
0.0
 70
   160
  3
ISO-25
100
AcDbAlignedDimension
 13
2474.999999999995
 23
1683.5
 33
0.0
 14
2554.999999999997
 24
1693.5
 34
0.0
100
AcDbRotatedDimension
1001
ACAD
1000
DSTYLE
1002
{
1070
   270
1070
     2
1070
     6
1000
EX_NORM
1070
     7
1000
EX_NORM
1070
    41
1040
44.99999618530273
1070
    42
1040
10.49999982118607
1070
    44
1040
15.0
1070
    73
1070
     0
1070
    74
1070
     0
1070
    75
1070
     0
1070
    76
1070
     1
1070
    77
1070
     1
1070
    78
1070
     0
1070
   140
1040
59.99999618530273
1070
   147
1040
0.0
1070
   173
1070
     1
1070
   176
1070
     3
1070
   177
1070
     3
1070
   178
1070
     2
1070
   271
1070
     0
1070
   277
1070
     2
1070
   279
1070
     2
1070
   280
1070
     1
1070
   287
1070
     5
1070
   340
1005
504
1002
}
  0
TEXT
  5
5B0
330
1F
100
AcDbEntity
  8
寸法
  6
CONTINUOUS
 62
     2
100
AcDbText
 10
1677.000001430504
 20
754.7499960958958
 30
0.0
 40
59.99999618530273
  1
ＶＰ･ＶＵ４０･５０
 41
0.8542372745578565
  7
EXCADSTD
 72
     5
 11
2108.999967098229
 21
754.7499960958958
 31
0.0
100
AcDbText
  0
TEXT
  5
5B1
330
1F
100
AcDbEntity
  8
寸法
  6
CONTINUOUS
 62
     2
100
AcDbText
 10
1677.000001430504
 20
694.749999910593
 30
0.0
 40
59.99999618530273
  1
４０～５０㎜立上げ
 41
0.9773584771306252
  7
EXCADSTD
 72
     5
 11
2120.999967098229
 21
694.749999910593
 31
0.0
100
AcDbText
  0
LEADER
  5
5B2
330
1F
100
AcDbEntity
  8
寸法
  6
CONTINUOUS
 62
     3
100
AcDbLeader
  3
ISO-25
 76
     3
 10
2418.999999999997
 20
898.5
 30
0.0
 10
2128.499999999993
 20
689.5
 30
0.0
 10
1681.499999999992
 20
689.5
 30
0.0
1001
ACAD
1000
DSTYLE
1002
{
1070
     5
1000
EX_NORM
1070
    41
1040
45.0
1070
   341
1005
4D
1002
}
  0
TEXT
  5
5B3
330
1F
100
AcDbEntity
  8
寸法
  6
CONTINUOUS
 62
     2
100
AcDbText
 10
2662.499999999997
 20
1500.249999910593
 30
0.0
 40
59.99999618530273
  1
Ｒ１/２
 41
0.8342465643686785
  7
EXCADSTD
 72
     5
 11
2836.499986648557
 21
1500.249999910593
 31
0.0
100
AcDbText
  0
LEADER
  5
5B4
330
1F
100
AcDbEntity
  8
寸法
  6
CONTINUOUS
 62
     3
100
AcDbLeader
  3
ISO-25
 76
     3
 10
2562.999999999997
 20
1259.0
 30
0.0
 10
2654.999999999997
 20
1495.0
 30
0.0
 10
2821.499999999997
 20
1495.0
 30
0.0
1001
ACAD
1000
DSTYLE
1002
{
1070
     5
1000
EX_NORM
1070
    41
1040
45.0
1070
   341
1005
4D
1002
}
  0
DIMENSION
  5
5B5
330
1F
100
AcDbEntity
  8
寸法
  6
CONTINUOUS
 62
     3
100
AcDbDimension
  2
*D28
 10
2554.999999999997
 20
688.5
 30
0.0
 11
2787.499999999997
 21
723.749999910593
 31
0.0
 70
   160
  1
120（床排水）
  3
ISO-25
100
AcDbAlignedDimension
 13
2434.999999999997
 23
868.5
 33
0.0
 14
2554.999999999997
 24
898.5
 34
0.0
100
AcDbRotatedDimension
1001
ACAD
1000
DSTYLE
1002
{
1070
   270
1070
     2
1070
     6
1000
EX_NORM
1070
     7
1000
EX_NORM
1070
    41
1040
44.99999618530273
1070
    42
1040
10.49999982118607
1070
    44
1040
15.0
1070
    73
1070
     0
1070
    74
1070
     0
1070
    75
1070
     0
1070
    76
1070
     0
1070
    77
1070
     1
1070
    78
1070
     0
1070
   140
1040
59.99999618530273
1070
   147
1040
0.0
1070
   173
1070
     1
1070
   176
1070
     3
1070
   177
1070
     3
1070
   178
1070
     2
1070
   271
1070
     0
1070
   277
1070
     2
1070
   279
1070
     2
1070
   280
1070
     2
1070
   287
1070
     5
1070
   340
1005
504
1002
}
  0
DIMENSION
  5
5C2
330
1F
100
AcDbEntity
  8
寸法
  6
CONTINUOUS
 62
     3
100
AcDbDimension
  2
*D29
 10
1019.999999999998
 20
688.5
 30
0.0
 11
1252.499999999998
 21
723.749999910593
 31
0.0
 70
   160
  1
200（床給水）
  3
ISO-25
100
AcDbAlignedDimension
 13
820.0000000000011
 23
890.5
 33
0.0
 14
1019.999999999998
 24
890.5
 34
0.0
100
AcDbRotatedDimension
1001
ACAD
1000
DSTYLE
1002
{
1070
   270
1070
     2
1070
     6
1000
EX_NORM
1070
     7
1000
EX_NORM
1070
    41
1040
44.99999618530273
1070
    42
1040
10.49999982118607
1070
    44
1040
15.0
1070
    73
1070
     0
1070
    74
1070
     0
1070
    75
1070
     0
1070
    76
1070
     0
1070
    77
1070
     1
1070
    78
1070
     0
1070
   140
1040
59.99999618530273
1070
   147
1040
0.0
1070
   173
1070
     1
1070
   176
1070
     3
1070
   177
1070
     3
1070
   178
1070
     2
1070
   271
1070
     0
1070
   277
1070
     2
1070
   279
1070
     2
1070
   280
1070
     2
1070
   287
1070
     5
1070
   340
1005
504
1002
}
  0
TEXT
  5
5CF
330
1F
100
AcDbEntity
  8
寸法
  6
CONTINUOUS
 62
     2
100
AcDbText
 10
618.0000003576286
 20
760.749999910593
 30
0.0
 40
59.99999618530273
  1
床排水
 41
1.070588224822399
  7
EXCADSTD
 72
     5
 11
773.9999889135368
 21
760.749999910593
 31
0.0
100
AcDbText
  0
LEADER
  5
5D0
330
1F
100
AcDbEntity
  8
寸法
  6
CONTINUOUS
 62
     3
100
AcDbLeader
  3
ISO-25
 76
     3
 10
903.9999999999989
 20
868.5
 30
0.0
 10
781.5000000000007
 20
755.5
 30
0.0
 10
605.9999999999989
 20
755.5
 30
0.0
1001
ACAD
1000
DSTYLE
1002
{
1070
     5
1000
EX_NORM
1070
    41
1040
45.0
1070
   341
1005
4D
1002
}
  0
DIMENSION
  5
5D1
330
1F
100
AcDbEntity
  8
寸法
  6
CONTINUOUS
 62
     3
100
AcDbDimension
  2
*D30
 10
1019.999999999998
 20
4078.0
 30
0.0
 11
1252.499999999998
 21
4113.249999910593
 31
0.0
 70
   160
  1
200（壁給水）
  3
ISO-25
100
AcDbAlignedDimension
 13
820.0000000000011
 23
3981.0
 33
0.0
 14
1019.999999999998
 24
3981.0
 34
0.0
100
AcDbRotatedDimension
1001
ACAD
1000
DSTYLE
1002
{
1070
   270
1070
     2
1070
     6
1000
EX_NORM
1070
     7
1000
EX_NORM
1070
    41
1040
44.99999618530273
1070
    42
1040
10.49999982118607
1070
    44
1040
15.0
1070
    73
1070
     0
1070
    74
1070
     0
1070
    75
1070
     0
1070
    76
1070
     0
1070
    77
1070
     1
1070
    78
1070
     0
1070
   140
1040
59.99999618530273
1070
   147
1040
0.0
1070
   173
1070
     1
1070
   176
1070
     3
1070
   177
1070
     3
1070
   178
1070
     2
1070
   271
1070
     0
1070
   277
1070
     2
1070
   279
1070
     2
1070
   280
1070
     2
1070
   287
1070
     5
1070
   340
1005
504
1002
}
  0
DIMENSION
  5
5DE
330
1F
100
AcDbEntity
  8
寸法
  6
CONTINUOUS
 62
     3
100
AcDbDimension
  2
*D31
 10
564.9999999999993
 20
2869.5
 30
0.0
 11
662.4999999999997
 21
2904.749999910593
 31
0.0
 70
   160
  3
ISO-25
100
AcDbAlignedDimension
 13
544.9999999999993
 23
2815.5
 33
0.0
 14
564.9999999999993
 24
2650.5
 34
0.0
100
AcDbRotatedDimension
1001
ACAD
1000
DSTYLE
1002
{
1070
   270
1070
     2
1070
     6
1000
EX_NORM
1070
     7
1000
EX_NORM
1070
    41
1040
44.99999618530273
1070
    42
1040
10.49999982118607
1070
    44
1040
15.0
1070
    73
1070
     0
1070
    74
1070
     0
1070
    75
1070
     0
1070
    76
1070
     0
1070
    77
1070
     1
1070
    78
1070
     0
1070
   140
1040
59.99999618530273
1070
   147
1040
0.0
1070
   173
1070
     1
1070
   176
1070
     3
1070
   177
1070
     3
1070
   178
1070
     2
1070
   271
1070
     0
1070
   277
1070
     2
1070
   279
1070
     2
1070
   280
1070
     2
1070
   287
1070
     5
1070
   340
1005
504
1002
}
  0
DIMENSION
  5
5ED
330
1F
100
AcDbEntity
  8
寸法
  6
CONTINUOUS
 62
     3
100
AcDbDimension
  2
*D32
 10
1294.999999999999
 20
2869.5
 30
0.0
 11
1122.499999999999
 21
2904.749999910593
 31
0.0
 70
   160
  3
ISO-25
100
AcDbAlignedDimension
 13
1219.999999999999
 23
2650.5
 33
0.0
 14
1294.999999999999
 24
2815.5
 34
0.0
100
AcDbRotatedDimension
1001
ACAD
1000
DSTYLE
1002
{
1070
   270
1070
     2
1070
     6
1000
EX_NORM
1070
     7
1000
EX_NORM
1070
    41
1040
44.99999618530273
1070
    42
1040
10.49999982118607
1070
    44
1040
15.0
1070
    73
1070
     0
1070
    74
1070
     0
1070
    75
1070
     0
1070
    76
1070
     0
1070
    77
1070
     1
1070
    78
1070
     0
1070
   140
1040
59.99999618530273
1070
   147
1040
0.0
1070
   173
1070
     1
1070
   176
1070
     3
1070
   177
1070
     3
1070
   178
1070
     2
1070
   271
1070
     0
1070
   277
1070
     2
1070
   279
1070
     2
1070
   280
1070
     1
1070
   287
1070
     5
1070
   340
1005
504
1002
}
  0
DIMENSION
  5
5FC
330
1F
100
AcDbEntity
  8
寸法
  6
CONTINUOUS
 62
     3
100
AcDbDimension
  2
*D33
 10
1294.999999999999
 20
2959.5
 30
0.0
 11
919.9999999999993
 21
2994.749999910593
 31
0.0
 70
   160
  3
ISO-25
100
AcDbAlignedDimension
 13
544.9999999999993
 23
2815.5
 33
0.0
 14
1294.999999999999
 24
2815.5
 34
0.0
100
AcDbRotatedDimension
1001
ACAD
1000
DSTYLE
1002
{
1070
   270
1070
     2
1070
     6
1000
EX_NORM
1070
     7
1000
EX_NORM
1070
    41
1040
44.99999618530273
1070
    42
1040
10.49999982118607
1070
    44
1040
15.0
1070
    73
1070
     0
1070
    74
1070
     0
1070
    75
1070
     0
1070
    76
1070
     0
1070
    77
1070
     1
1070
    78
1070
     0
1070
   140
1040
59.99999618530273
1070
   147
1040
0.0
1070
   173
1070
     1
1070
   176
1070
     3
1070
   177
1070
     3
1070
   178
1070
     2
1070
   271
1070
     0
1070
   277
1070
     2
1070
   279
1070
     2
1070
   280
1070
     0
1070
   287
1070
     5
1070
   340
1005
504
1002
}
  0
LEADER
  5
609
330
1F
100
AcDbEntity
  8
寸法
  6
CONTINUOUS
 62
     3
100
AcDbLeader
  3
ISO-25
 76
     3
 10
1345.5046137351
 20
1827.1477523567
 30
0.0
 10
1451.9233031694
 20
1936.0
 30
0.0
 10
1451.9233031694
 20
2678.5
 30
0.0
1001
ACAD
1000
DSTYLE
1002
{
1070
     5
1000
EX_NORM
1070
    41
1040
45.0
1070
   341
1005
4D
1002
}
  0
TEXT
  5
60A
330
1F
100
AcDbEntity
  8
寸法
  6
CONTINUOUS
 62
     2
100
AcDbText
 10
1446.673303258807
 20
1943.5
 30
0.0
 40
59.99999618530273
  1
電源コード（有効長さ：１.６ｍ）
 50
90.00000000000004
 41
0.9476534151428436
  7
EXCADSTD
 72
     5
 11
1446.673303258807
 21
2693.499940872192
 31
0.0
100
AcDbText
  0
DIMENSION
  5
60B
330
1F
100
AcDbEntity
  8
寸法
  6
CONTINUOUS
 62
     3
100
AcDbDimension
  2
*D34
 10
1537.499999999999
 20
2823.5
 30
0.0
 11
1502.250000089407
 21
2258.5
 31
0.0
 70
   160
  3
ISO-25
100
AcDbAlignedDimension
 13
1286.999999999999
 23
1693.5
 33
0.0
 14
1286.999999999999
 24
2823.5
 34
0.0
 50
90.0
100
AcDbRotatedDimension
1001
ACAD
1000
DSTYLE
1002
{
1070
   270
1070
     2
1070
     6
1000
EX_NORM
1070
     7
1000
EX_NORM
1070
    41
1040
44.99999618530273
1070
    42
1040
10.49999982118607
1070
    44
1040
15.0
1070
    73
1070
     0
1070
    74
1070
     0
1070
    75
1070
     0
1070
    76
1070
     0
1070
    77
1070
     1
1070
    78
1070
     0
1070
   140
1040
59.99999618530273
1070
   147
1040
0.0
1070
   173
1070
     1
1070
   176
1070
     3
1070
   177
1070
     3
1070
   178
1070
     2
1070
   271
1070
     0
1070
   277
1070
     2
1070
   279
1070
     2
1070
   280
1070
     0
1070
   287
1070
     5
1070
   340
1005
504
1002
}
  0
DIMENSION
  5
618
330
1F
100
AcDbEntity
  8
寸法
  6
CONTINUOUS
 62
     3
100
AcDbDimension
  2
*D35
 10
1627.499999999999
 20
2823.5
 30
0.0
 11
1592.250000089407
 21
1861.0
 31
0.0
 70
   160
  3
ISO-25
100
AcDbAlignedDimension
 13
1278.499999999999
 23
898.5
 33
0.0
 14
1286.999999999999
 24
2823.5
 34
0.0
 50
90.0
100
AcDbRotatedDimension
1001
ACAD
1000
DSTYLE
1002
{
1070
   270
1070
     2
1070
     6
1000
EX_NORM
1070
     7
1000
EX_NORM
1070
    41
1040
44.99999618530273
1070
    42
1040
10.49999982118607
1070
    44
1040
15.0
1070
    73
1070
     0
1070
    74
1070
     0
1070
    75
1070
     1
1070
    76
1070
     0
1070
    77
1070
     1
1070
    78
1070
     0
1070
   140
1040
59.99999618530273
1070
   147
1040
0.0
1070
   173
1070
     1
1070
   176
1070
     3
1070
   177
1070
     3
1070
   178
1070
     2
1070
   271
1070
     0
1070
   277
1070
     2
1070
   279
1070
     2
1070
   280
1070
     0
1070
   287
1070
     5
1070
   340
1005
504
1002
}
  0
DIMENSION
  5
624
330
1F
100
AcDbEntity
  8
寸法
  6
CONTINUOUS
 62
     3
100
AcDbDimension
  2
*D36
 10
1492.499999999999
 20
1708.5
 30
0.0
 11
1457.250000089401
 21
1805.999999999998
 31
0.0
 70
   160
  3
ISO-25
100
AcDbAlignedDimension
 13
1286.999999999999
 23
1693.5
 33
0.0
 14
1308.0766968306
 24
1708.5
 34
0.0
 50
90.0
100
AcDbRotatedDimension
1001
ACAD
1000
DSTYLE
1002
{
1070
   270
1070
     2
1070
     6
1000
EX_NORM
1070
     7
1000
EX_NORM
1070
    41
1040
44.99999618530273
1070
    42
1040
10.49999982118607
1070
    44
1040
15.0
1070
    73
1070
     0
1070
    74
1070
     0
1070
    75
1070
     0
1070
    76
1070
     0
1070
    77
1070
     1
1070
    78
1070
     0
1070
   140
1040
59.99999618530273
1070
   147
1040
0.0
1070
   173
1070
     1
1070
   176
1070
     3
1070
   177
1070
     3
1070
   178
1070
     2
1070
   271
1070
     0
1070
   277
1070
     2
1070
   279
1070
     2
1070
   280
1070
     2
1070
   287
1070
     5
1070
   340
1005
504
1002
}
  0
DIMENSION
  5
633
330
1F
100
AcDbEntity
  8
寸法
  6
CONTINUOUS
 62
     3
100
AcDbDimension
  2
*D37
 10
619.9999999999993
 20
1717.5
 30
0.0
 11
717.4999999999994
 21
1752.749999910593
 31
0.0
 70
   160
  3
ISO-25
100
AcDbAlignedDimension
 13
544.9999999999993
 23
1701.5
 33
0.0
 14
619.9999999999993
 24
1736.5
 34
0.0
100
AcDbRotatedDimension
1001
ACAD
1000
DSTYLE
1002
{
1070
   270
1070
     2
1070
     6
1000
EX_NORM
1070
     7
1000
EX_NORM
1070
    41
1040
44.99999618530273
1070
    42
1040
10.49999982118607
1070
    44
1040
15.0
1070
    73
1070
     0
1070
    74
1070
     0
1070
    75
1070
     1
1070
    76
1070
     0
1070
    77
1070
     1
1070
    78
1070
     0
1070
   140
1040
59.99999618530273
1070
   147
1040
0.0
1070
   173
1070
     1
1070
   176
1070
     3
1070
   177
1070
     3
1070
   178
1070
     2
1070
   271
1070
     0
1070
   277
1070
     2
1070
   279
1070
     2
1070
   280
1070
     2
1070
   287
1070
     5
1070
   340
1005
504
1002
}
  0
DIMENSION
  5
641
330
1F
100
AcDbEntity
  8
寸法
  6
CONTINUOUS
 62
     3
100
AcDbDimension
  2
*D38
 10
2555.0
 20
2869.5
 30
0.0
 11
2466.5
 21
2904.749999910593
 31
0.0
 70
   160
  3
ISO-25
100
AcDbAlignedDimension
 13
2378.0
 23
2809.5
 33
0.0
 14
2555.0
 24
2823.5
 34
0.0
100
AcDbRotatedDimension
1001
ACAD
1000
DSTYLE
1002
{
1070
   270
1070
     2
1070
     6
1000
EX_NORM
1070
     7
1000
EX_NORM
1070
    41
1040
44.99999618530273
1070
    42
1040
10.49999982118607
1070
    44
1040
15.0
1070
    73
1070
     0
1070
    74
1070
     0
1070
    75
1070
     0
1070
    76
1070
     1
1070
    77
1070
     1
1070
    78
1070
     0
1070
   140
1040
59.99999618530273
1070
   147
1040
0.0
1070
   173
1070
     1
1070
   176
1070
     3
1070
   177
1070
     3
1070
   178
1070
     2
1070
   271
1070
     0
1070
   277
1070
     2
1070
   279
1070
     2
1070
   280
1070
     0
1070
   287
1070
     5
1070
   340
1005
504
1002
}
  0
DIMENSION
  5
64D
330
1F
100
AcDbEntity
  8
寸法
  6
CONTINUOUS
 62
     3
100
AcDbDimension
  2
*D39
 10
2930.0
 20
2643.5
 30
0.0
 11
2894.750000089407
 21
2393.5
 31
0.0
 70
   160
  3
ISO-25
100
AcDbAlignedDimension
 13
2587.5
 23
2143.5
 33
0.0
 14
2587.5
 24
2643.5
 34
0.0
 50
90.0
100
AcDbRotatedDimension
1001
ACAD
1000
DSTYLE
1002
{
1070
   270
1070
     2
1070
     6
1000
EX_NORM
1070
     7
1000
EX_NORM
1070
    41
1040
44.99999618530273
1070
    42
1040
10.49999982118607
1070
    44
1040
15.0
1070
    73
1070
     0
1070
    74
1070
     0
1070
    75
1070
     0
1070
    76
1070
     0
1070
    77
1070
     1
1070
    78
1070
     0
1070
   140
1040
59.99999618530273
1070
   147
1040
0.0
1070
   173
1070
     1
1070
   176
1070
     3
1070
   177
1070
     3
1070
   178
1070
     2
1070
   271
1070
     0
1070
   277
1070
     2
1070
   279
1070
     2
1070
   280
1070
     0
1070
   287
1070
     5
1070
   340
1005
504
1002
}
  0
DIMENSION
  5
65A
330
1F
100
AcDbEntity
  8
寸法
  6
CONTINUOUS
 62
     3
100
AcDbDimension
  2
*D40
 10
2930.0
 20
2143.5
 30
0.0
 11
2894.750000089407
 21
1943.5
 31
0.0
 70
   160
  3
ISO-25
100
AcDbAlignedDimension
 13
2587.5
 23
1743.5
 33
0.0
 14
2587.5
 24
2143.5
 34
0.0
 50
90.0
100
AcDbRotatedDimension
1001
ACAD
1000
DSTYLE
1002
{
1070
   270
1070
     2
1070
     6
1000
EX_NORM
1070
     7
1000
EX_NORM
1070
    41
1040
44.99999618530273
1070
    42
1040
10.49999982118607
1070
    44
1040
15.0
1070
    73
1070
     0
1070
    74
1070
     0
1070
    75
1070
     0
1070
    76
1070
     0
1070
    77
1070
     1
1070
    78
1070
     0
1070
   140
1040
59.99999618530273
1070
   147
1040
0.0
1070
   173
1070
     1
1070
   176
1070
     3
1070
   177
1070
     3
1070
   178
1070
     2
1070
   271
1070
     0
1070
   277
1070
     2
1070
   279
1070
     2
1070
   280
1070
     0
1070
   287
1070
     5
1070
   340
1005
504
1002
}
  0
DIMENSION
  5
667
330
1F
100
AcDbEntity
  8
寸法
  6
CONTINUOUS
 62
     3
100
AcDbDimension
  2
*D41
 10
2930.0
 20
1743.5
 30
0.0
 11
2894.750000089407
 21
1320.999999999999
 31
0.0
 70
   160
  1
<>（壁固定）
  3
ISO-25
100
AcDbAlignedDimension
 13
2555.0
 23
898.5
 33
0.0
 14
2587.5
 24
1743.5
 34
0.0
 50
90.0
100
AcDbRotatedDimension
1001
ACAD
1000
DSTYLE
1002
{
1070
   270
1070
     2
1070
     6
1000
EX_NORM
1070
     7
1000
EX_NORM
1070
    41
1040
44.99999618530273
1070
    42
1040
10.49999982118607
1070
    44
1040
15.0
1070
    73
1070
     0
1070
    74
1070
     0
1070
    75
1070
     0
1070
    76
1070
     0
1070
    77
1070
     1
1070
    78
1070
     0
1070
   140
1040
59.99999618530273
1070
   147
1040
0.0
1070
   173
1070
     1
1070
   176
1070
     3
1070
   177
1070
     3
1070
   178
1070
     2
1070
   271
1070
     0
1070
   277
1070
     2
1070
   279
1070
     2
1070
   280
1070
     0
1070
   287
1070
     5
1070
   340
1005
504
1002
}
  0
LINE
  5
674
330
1F
100
AcDbEntity
  8
寸法
  6
CONTINUOUS
 62
     3
100
AcDbLine
 10
1189.999999999995
 20
4152.0
 30
0.0
 11
1189.999999999995
 21
4183.0
 31
0.0
  0
ENDSEC
  0
SECTION
  2
OBJECTS
  0
DICTIONARY
  5
C
330
0
100
AcDbDictionary
  3
ACAD_GROUP
350
D
  3
ACAD_LAYOUT
350
1A
  3
ACAD_MATERIAL
350
3B
  3
ACAD_MLEADERSTYLE
350
697
  3
ACAD_MLINESTYLE
350
17
  3
ACAD_PLOTSETTINGS
350
19
  3
ACAD_VISUALSTYLE
350
2A
  3
ACDBHEADERROUNDTRIPXREC
350
675
  3
ACDBVARIABLEDICTIONARY
350
695
  0
DICTIONARY
  5
D
102
{ACAD_REACTORS
330
C
102
}
330
C
100
AcDbDictionary
  0
DICTIONARY
  5
1A
102
{ACAD_REACTORS
330
C
102
}
330
C
100
AcDbDictionary
  0
DICTIONARY
  5
3B
102
{ACAD_REACTORS
330
C
102
}
330
C
100
AcDbDictionary
  3
BYBLOCK
350
3D
  3
BYLAYER
350
3C
  3
GLOBAL
350
3E
  0
DICTIONARY
  5
697
102
{ACAD_REACTORS
330
C
102
}
330
C
100
AcDbDictionary
  0
DICTIONARY
  5
17
102
{ACAD_REACTORS
330
C
102
}
330
C
100
AcDbDictionary
  3
STANDARD
350
18
  0
DICTIONARY
  5
19
102
{ACAD_REACTORS
330
C
102
}
330
C
100
AcDbDictionary
  0
DICTIONARY
  5
2A
102
{ACAD_REACTORS
330
C
102
}
330
C
100
AcDbDictionary
  3
2DWIREFRAME
350
2F
  3
3D_HIDDEN
350
31
  3
3DWIREFRAME
350
30
  3
BASIC
350
32
  3
BRIGHTEN
350
36
  3
COLORCHANGE
350
3A
  3
CONCEPTUAL
350
34
  3
DIM
350
35
  3
FACEPATTERN
350
39
  3
FLAT
350
2B
  3
FLATWITHEDGES
350
2C
  3
GOURAUD
350
2D
  3
GOURAUDWITHEDGES
350
2E
  3
LINEPATTERN
350
38
  3
REALISTIC
350
33
  3
THICKEN
350
37
  0
DICTIONARY
  5
675
102
{ACAD_REACTORS
330
C
102
}
330
C
100
AcDbDictionary
  3
CEPSNTYPE
350
67E
  3
DIMSTYLEDATA
350
694
  3
FINGERPRINTGUID
350
67F
  3
HYPERLINKBASE
350
678
  3
INSUNITS
350
67D
  3
LAYOUTDICT
350
67A
  3
LWETCUNION
350
67C
  3
PLOTSETDICT
350
67B
  3
PSVPSCALE
350
681
  3
PUCSBASE
350
684
  3
PUCSORGBACK
350
68A
  3
PUCSORGBOTTOM
350
686
  3
PUCSORGFRONT
350
689
  3
PUCSORGLEFT
350
687
  3
PUCSORGRIGHT
350
688
  3
PUCSORGTOP
350
685
  3
PUCSORTHOREF
350
682
  3
PUCSORTHOVIEW
350
683
  3
STYLESHEET
350
679
  3
TSTACKALIGN
350
676
  3
TSTACKSIZE
350
677
  3
UCSBASE
350
68D
  3
UCSORGBACK
350
693
  3
UCSORGBOTTOM
350
68F
  3
UCSORGFRONT
350
692
  3
UCSORGLEFT
350
690
  3
UCSORGRIGHT
350
691
  3
UCSORGTOP
350
68E
  3
UCSORTHOREF
350
68B
  3
UCSORTHOVIEW
350
68C
  3
VERSIONGUID
350
680
  0
DICTIONARY
  5
695
102
{ACAD_REACTORS
330
C
102
}
330
C
100
AcDbDictionary
  3
DIMASSOC
350
69A
  3
HIDETEXT
350
69B
  3
PSOLHEIGHT
350
699
  3
PSOLWIDTH
350
698
  0
MATERIAL
  5
3D
102
{ACAD_REACTORS
330
3B
102
}
102
{ACAD_XDICTIONARY
360
69E
102
}
330
3B
100
AcDbMaterial
  1
ByBlock
  0
MATERIAL
  5
3C
102
{ACAD_REACTORS
330
3B
102
}
102
{ACAD_XDICTIONARY
360
69C
102
}
330
3B
100
AcDbMaterial
  1
ByLayer
  0
MATERIAL
  5
3E
102
{ACAD_REACTORS
330
3B
102
}
102
{ACAD_XDICTIONARY
360
6A0
102
}
330
3B
100
AcDbMaterial
  1
Global
  0
MLINESTYLE
  5
18
102
{ACAD_REACTORS
330
17
102
}
330
17
100
AcDbMlineStyle
  2
Standard
 70
     0
  3

 62
   256
 51
90.0
 52
90.0
 71
     2
 49
0.5
 62
   256
  6
BYLAYER
 49
-0.5
 62
   256
  6
BYLAYER
  0
ACAD_PROXY_OBJECT
  5
2F
102
{ACAD_REACTORS
330
2A
102
}
330
2A
100
AcDbProxyObject
 90
      499
 91
      501
 93
      436
310
42CC9915DA5C99599C985B595049028333333333333E3BF0000000000000FB0107901411070040501600405405064090741402480A0340
1001
ACAD
1000
AcDbSavedByObjectVersion
1070
     0
  0
ACAD_PROXY_OBJECT
  5
31
102
{ACAD_REACTORS
330
2A
102
}
330
2A
100
AcDbProxyObject
 90
      499
 91
      501
 93
      500
310
424CD108121A5919195B90640502408333333333333E3BF0000000000000FB01079024090700405020000000000001110200405405064090740C02480A0340
1001
ACAD
1000
AcDbSavedByObjectVersion
1070
     0
  0
ACAD_PROXY_OBJECT
  5
30
102
{ACAD_REACTORS
330
2A
102
}
330
2A
100
AcDbProxyObject
 90
      499
 91
      501
 93
      436
310
42CCD915DA5C99599C985B595059028333333333333E3BF0000000000000FB0107901411070040501600405405064090741402480A0340
1001
ACAD
1000
AcDbSavedByObjectVersion
1070
     0
  0
ACAD_PROXY_OBJECT
  5
32
102
{ACAD_REACTORS
330
2A
102
}
330
2A
100
AcDbProxyObject
 90
      499
 91
      501
 93
      388
310
4150985CDA58D07406404333333333333E3BF0000000000000FB0107A41107004050150841D405064090741402480A0350
1001
ACAD
1000
AcDbSavedByObjectVersion
1070
     0
  0
ACAD_PROXY_OBJECT
  5
36
102
{ACAD_REACTORS
330
2A
102
}
330
2A
100
AcDbProxyObject
 90
      499
 91
      501
 93
      428
310
42109C9A59DA1D195B90C409028333333333333E3BF0000000000000FB010790141107004050150841D405064090741402480A029950
1001
ACAD
1000
AcDbSavedByObjectVersion
1070
     0
  0
ACAD_PROXY_OBJECT
  5
3A
102
{ACAD_REACTORS
330
2A
102
}
330
2A
100
AcDbProxyObject
 90
      499
 91
      501
 93
      452
310
42D0DBDB1BDC90DA185B99D95104090240C333333333333E3BF0000000000000FB0108901411070040501508421405064090741402480A0350
1001
ACAD
1000
AcDbSavedByObjectVersion
1070
     0
  0
ACAD_PROXY_OBJECT
  5
34
102
{ACAD_REACTORS
330
2A
102
}
330
2A
100
AcDbProxyObject
 90
      499
 91
      501
 93
      500
310
4290DBDB98D95C1D1D585B10940D028333333333333E3BF0000000000000FB0107902409070040501000000000000111010841D405064090740C02480A0340
1001
ACAD
1000
AcDbSavedByObjectVersion
1070
     0
  0
ACAD_PROXY_OBJECT
  5
35
102
{ACAD_REACTORS
330
2A
102
}
330
2A
100
AcDbProxyObject
 90
      499
 91
      501
 93
      412
310
40D11A5B50B409028333333333333E3BF0000000000000FB010790141107004050150841D405064090741402480A02677FFFFFD0
1001
ACAD
1000
AcDbSavedByObjectVersion
1070
     0
  0
ACAD_PROXY_OBJECT
  5
39
102
{ACAD_REACTORS
330
2A
102
}
330
2A
100
AcDbProxyObject
 90
      499
 91
      501
 93
      444
310
42D19858D95C185D1D195C9B90F409028333333333333E3BF0000000000000FB010790141107004050150841D405064090741402480A0350
1001
ACAD
1000
AcDbSavedByObjectVersion
1070
     0
  0
ACAD_PROXY_OBJECT
  5
2B
102
{ACAD_REACTORS
330
2A
102
}
330
2A
100
AcDbProxyObject
 90
      499
 91
      501
 93
      388
310
41119B185D240901404333333333333E3BF0000000000000F9010740A41107004050150841D405064090741402480A1B50
1001
ACAD
1000
AcDbSavedByObjectVersion
1070
     0
  0
ACAD_PROXY_OBJECT
  5
2C
102
{ACAD_REACTORS
330
2A
102
}
330
2A
100
AcDbProxyObject
 90
      499
 91
      501
 93
      476
310
43519B185D15DA5D1A115919D95CD0140901404333333333333E3BF0000000000000F9010740901411070040501600405405064090741402480A1B50
1001
ACAD
1000
AcDbSavedByObjectVersion
1070
     0
  0
ACAD_PROXY_OBJECT
  5
2D
102
{ACAD_REACTORS
330
2A
102
}
330
2A
100
AcDbProxyObject
 90
      499
 91
      501
 93
      412
310
41D1DBDD5C985D5910240902404333333333333E3BF0000000000000F9010740A411070040501641D405064090741402480A1B50
1001
ACAD
1000
AcDbSavedByObjectVersion
1070
     0
  0
ACAD_PROXY_OBJECT
  5
2E
102
{ACAD_REACTORS
330
2A
102
}
330
2A
100
AcDbProxyObject
 90
      499
 91
      501
 93
      500
310
4411DBDD5C985D5915DA5D1A115919D95CD0340902404333333333333E3BF0000000000000F9010740901411070040501600405405064090741402480A1B50
1001
ACAD
1000
AcDbSavedByObjectVersion
1070
     0
  0
ACAD_PROXY_OBJECT
  5
38
102
{ACAD_REACTORS
330
2A
102
}
330
2A
100
AcDbProxyObject
 90
      499
 91
      501
 93
      444
310
42D31A5B995C185D1D195C9B90E409028333333333333E3BF0000000000000FB010790141107004050750841D405064090741402483A0350
1001
ACAD
1000
AcDbSavedByObjectVersion
1070
     0
  0
ACAD_PROXY_OBJECT
  5
33
102
{ACAD_REACTORS
330
2A
102
}
330
2A
100
AcDbProxyObject
 90
      499
 91
      501
 93
      420
310
425499585B1A5CDD1A58D08409028333333333333E3BF0000000000000FB01079019070040501508421405064090741402480A1B40
1001
ACAD
1000
AcDbSavedByObjectVersion
1070
     0
  0
ACAD_PROXY_OBJECT
  5
37
102
{ACAD_REACTORS
330
2A
102
}
330
2A
100
AcDbProxyObject
 90
      499
 91
      501
 93
      412
310
41D51A1A58DAD95B90D409028333333333333E3BF0000000000000FB010790141107004050150C41D405064090741402480A0350
1001
ACAD
1000
AcDbSavedByObjectVersion
1070
     0
  0
XRECORD
  5
67E
102
{ACAD_REACTORS
330
675
102
}
330
675
100
AcDbXrecord
 90
        0
  0
XRECORD
  5
694
102
{ACAD_REACTORS
330
675
102
}
330
675
100
AcDbXrecord
1000
DSTYLE
1002
{
1070
   340
340
11
1002
}
  0
XRECORD
  5
67F
102
{ACAD_REACTORS
330
675
102
}
330
675
100
AcDbXrecord
  1
{D162E245-B8BA-477C-9FCA-0C481685D989}
  0
XRECORD
  5
678
102
{ACAD_REACTORS
330
675
102
}
330
675
100
AcDbXrecord
  1

  0
XRECORD
  5
67D
102
{ACAD_REACTORS
330
675
102
}
330
675
100
AcDbXrecord
 90
        4
  0
XRECORD
  5
67A
102
{ACAD_REACTORS
330
675
102
}
330
675
100
AcDbXrecord
340
1A
  0
XRECORD
  5
67C
102
{ACAD_REACTORS
330
675
102
}
330
675
100
AcDbXrecord
 90
    10781
  0
XRECORD
  5
67B
102
{ACAD_REACTORS
330
675
102
}
330
675
100
AcDbXrecord
340
19
  0
XRECORD
  5
681
102
{ACAD_REACTORS
330
675
102
}
330
675
100
AcDbXrecord
 40
0.0
  0
XRECORD
  5
684
102
{ACAD_REACTORS
330
675
102
}
330
675
100
AcDbXrecord
340
0
  0
XRECORD
  5
68A
102
{ACAD_REACTORS
330
675
102
}
330
675
100
AcDbXrecord
 10
0.0
 20
0.0
 30
0.0
  0
XRECORD
  5
686
102
{ACAD_REACTORS
330
675
102
}
330
675
100
AcDbXrecord
 10
0.0
 20
0.0
 30
0.0
  0
XRECORD
  5
689
102
{ACAD_REACTORS
330
675
102
}
330
675
100
AcDbXrecord
 10
0.0
 20
0.0
 30
0.0
  0
XRECORD
  5
687
102
{ACAD_REACTORS
330
675
102
}
330
675
100
AcDbXrecord
 10
0.0
 20
0.0
 30
0.0
  0
XRECORD
  5
688
102
{ACAD_REACTORS
330
675
102
}
330
675
100
AcDbXrecord
 10
0.0
 20
0.0
 30
0.0
  0
XRECORD
  5
685
102
{ACAD_REACTORS
330
675
102
}
330
675
100
AcDbXrecord
 10
0.0
 20
0.0
 30
0.0
  0
XRECORD
  5
682
102
{ACAD_REACTORS
330
675
102
}
330
675
100
AcDbXrecord
340
0
  0
XRECORD
  5
683
102
{ACAD_REACTORS
330
675
102
}
330
675
100
AcDbXrecord
 70
     0
  0
XRECORD
  5
679
102
{ACAD_REACTORS
330
675
102
}
330
675
100
AcDbXrecord
  1

  0
XRECORD
  5
676
102
{ACAD_REACTORS
330
675
102
}
330
675
100
AcDbXrecord
 90
        1
  0
XRECORD
  5
677
102
{ACAD_REACTORS
330
675
102
}
330
675
100
AcDbXrecord
 90
       70
  0
XRECORD
  5
68D
102
{ACAD_REACTORS
330
675
102
}
330
675
100
AcDbXrecord
340
0
  0
XRECORD
  5
693
102
{ACAD_REACTORS
330
675
102
}
330
675
100
AcDbXrecord
 10
0.0
 20
0.0
 30
0.0
  0
XRECORD
  5
68F
102
{ACAD_REACTORS
330
675
102
}
330
675
100
AcDbXrecord
 10
0.0
 20
0.0
 30
0.0
  0
XRECORD
  5
692
102
{ACAD_REACTORS
330
675
102
}
330
675
100
AcDbXrecord
 10
0.0
 20
0.0
 30
0.0
  0
XRECORD
  5
690
102
{ACAD_REACTORS
330
675
102
}
330
675
100
AcDbXrecord
 10
0.0
 20
0.0
 30
0.0
  0
XRECORD
  5
691
102
{ACAD_REACTORS
330
675
102
}
330
675
100
AcDbXrecord
 10
0.0
 20
0.0
 30
0.0
  0
XRECORD
  5
68E
102
{ACAD_REACTORS
330
675
102
}
330
675
100
AcDbXrecord
 10
0.0
 20
0.0
 30
0.0
  0
XRECORD
  5
68B
102
{ACAD_REACTORS
330
675
102
}
330
675
100
AcDbXrecord
340
0
  0
XRECORD
  5
68C
102
{ACAD_REACTORS
330
675
102
}
330
675
100
AcDbXrecord
 70
     0
  0
XRECORD
  5
680
102
{ACAD_REACTORS
330
675
102
}
330
675
100
AcDbXrecord
  1
{FAEB1C32-E019-11D5-929B-00C0DF256EC4}
  0
DICTIONARYVAR
  5
69A
102
{ACAD_REACTORS
330
695
102
}
330
695
100
DictionaryVariables
280
     0
  1
2
  0
DICTIONARYVAR
  5
69B
102
{ACAD_REACTORS
330
695
102
}
330
695
100
DictionaryVariables
280
     0
  1
1
  0
DICTIONARYVAR
  5
699
102
{ACAD_REACTORS
330
695
102
}
330
695
100
DictionaryVariables
280
     0
  1
80.000000
  0
DICTIONARYVAR
  5
698
102
{ACAD_REACTORS
330
695
102
}
330
695
100
DictionaryVariables
280
     0
  1
5.000000
  0
DICTIONARY
  5
69E
330
3D
100
AcDbDictionary
280
     1
  3
ACAD_XREC_ROUNDTRIP
360
69F
  0
DICTIONARY
  5
69C
330
3C
100
AcDbDictionary
280
     1
  3
ACAD_XREC_ROUNDTRIP
360
69D
  0
DICTIONARY
  5
6A0
330
3E
100
AcDbDictionary
280
     1
  3
ACAD_XREC_ROUNDTRIP
360
6A1
  0
XRECORD
  5
69F
102
{ACAD_REACTORS
330
69E
102
}
330
69E
100
AcDbXrecord
102
MATERIAL
148
0.0
149
0.0
149
0.0
 93
        0
 94
      127
282
     0
 72
     1
 77
     1
171
     1
175
     1
179
     1
273
     0
  0
XRECORD
  5
69D
102
{ACAD_REACTORS
330
69C
102
}
330
69C
100
AcDbXrecord
102
MATERIAL
148
0.0
149
0.0
149
0.0
 93
        0
 94
      127
282
     0
 72
     1
 77
     1
171
     1
175
     1
179
     1
273
     0
  0
XRECORD
  5
6A1
102
{ACAD_REACTORS
330
6A0
102
}
330
6A0
100
AcDbXrecord
102
MATERIAL
148
0.0
149
0.0
149
0.0
 93
        0
 94
      127
282
     0
 72
     1
 77
     1
171
     1
175
     1
179
     1
273
     0
  0
ENDSEC
  0
EOF
