  0
SECTION
  2
HEADER
  9
$ACADVER
  1
AC1014
  9
$ACADMAINTVER
 70
     9
  9
$DWGCODEPAGE
  3
ANSI_932
  9
$INSBASE
 10
0.0
 20
0.0
 30
0.0
  9
$EXTMIN
 10
0.0000000000000092
 20
12.5
 30
0.0
  9
$EXTMAX
 10
200.0
 20
287.5
 30
0.0
  9
$LIMMIN
 10
0.0
 20
0.0
  9
$LIMMAX
 10
210.0
 20
297.0
  9
$ORTHOMODE
 70
     0
  9
$REGENMODE
 70
     1
  9
$FILLMODE
 70
     1
  9
$QTEXTMODE
 70
     0
  9
$MIRRTEXT
 70
     1
  9
$DRAGMODE
 70
     2
  9
$LTSCALE
 40
1.0
  9
$OSMODE
 70
    37
  9
$ATTMODE
 70
     1
  9
$TEXTSIZE
 40
2.5
  9
$TRACEWID
 40
1.0
  9
$TEXTSTYLE
  7
STANDARD
  9
$CLAYER
  8
化粧台
  9
$CELTYPE
  6
BYLAYER
  9
$CECOLOR
 62
   256
  9
$CELTSCALE
 40
1.0
  9
$DELOBJ
 70
     1
  9
$DISPSILH
 70
     0
  9
$DIMSCALE
 40
1.0
  9
$DIMASZ
 40
2.5
  9
$DIMEXO
 40
0.625
  9
$DIMDLI
 40
3.75
  9
$DIMRND
 40
0.0
  9
$DIMDLE
 40
0.0
  9
$DIMEXE
 40
1.25
  9
$DIMTP
 40
0.0
  9
$DIMTM
 40
0.0
  9
$DIMTXT
 40
2.5
  9
$DIMCEN
 40
2.5
  9
$DIMTSZ
 40
0.0
  9
$DIMTOL
 70
     0
  9
$DIMLIM
 70
     0
  9
$DIMTIH
 70
     0
  9
$DIMTOH
 70
     0
  9
$DIMSE1
 70
     0
  9
$DIMSE2
 70
     0
  9
$DIMTAD
 70
     1
  9
$DIMZIN
 70
     8
  9
$DIMBLK
  1

  9
$DIMASO
 70
     1
  9
$DIMSHO
 70
     1
  9
$DIMPOST
  1

  9
$DIMAPOST
  1

  9
$DIMALT
 70
     0
  9
$DIMALTD
 70
     3
  9
$DIMALTF
 40
0.03937007874016
  9
$DIMLFAC
 40
1.0
  9
$DIMTOFL
 70
     1
  9
$DIMTVP
 40
0.0
  9
$DIMTIX
 70
     0
  9
$DIMSOXD
 70
     0
  9
$DIMSAH
 70
     0
  9
$DIMBLK1
  1

  9
$DIMBLK2
  1

  9
$DIMSTYLE
  2
ISO-25
  9
$DIMCLRD
 70
     0
  9
$DIMCLRE
 70
     0
  9
$DIMCLRT
 70
     0
  9
$DIMTFAC
 40
1.0
  9
$DIMGAP
 40
0.625
  9
$DIMJUST
 70
     0
  9
$DIMSD1
 70
     0
  9
$DIMSD2
 70
     0
  9
$DIMTOLJ
 70
     0
  9
$DIMTZIN
 70
     8
  9
$DIMALTZ
 70
     0
  9
$DIMALTTZ
 70
     0
  9
$DIMFIT
 70
     3
  9
$DIMUPT
 70
     0
  9
$DIMUNIT
 70
     2
  9
$DIMDEC
 70
     2
  9
$DIMTDEC
 70
     2
  9
$DIMALTU
 70
     2
  9
$DIMALTTD
 70
     3
  9
$DIMTXSTY
  7
STANDARD
  9
$DIMAUNIT
 70
     0
  9
$LUNITS
 70
     2
  9
$LUPREC
 70
     4
  9
$SKETCHINC
 40
1.0
  9
$FILLETRAD
 40
10.0
  9
$AUNITS
 70
     0
  9
$AUPREC
 70
     0
  9
$MENU
  1
.
  9
$ELEVATION
 40
0.0
  9
$PELEVATION
 40
0.0
  9
$THICKNESS
 40
0.0
  9
$LIMCHECK
 70
     0
  9
$CHAMFERA
 40
10.0
  9
$CHAMFERB
 40
10.0
  9
$CHAMFERC
 40
20.0
  9
$CHAMFERD
 40
0.0
  9
$SKPOLY
 70
     0
  9
$TDCREATE
 40
2457659.723798275
  9
$TDUPDATE
 40
2457659.723798623
  9
$TDINDWG
 40
0.0000000116
  9
$TDUSRTIMER
 40
0.0000000116
  9
$USRTIMER
 70
     1
  9
$ANGBASE
 50
0.0
  9
$ANGDIR
 70
     0
  9
$PDMODE
 70
     0
  9
$PDSIZE
 40
0.0
  9
$PLINEWID
 40
0.0
  9
$COORDS
 70
     1
  9
$SPLFRAME
 70
     0
  9
$SPLINETYPE
 70
     6
  9
$SPLINESEGS
 70
     8
  9
$ATTDIA
 70
     0
  9
$ATTREQ
 70
     1
  9
$HANDLING
 70
     1
  9
$HANDSEED
  5
611
  9
$SURFTAB1
 70
     6
  9
$SURFTAB2
 70
     6
  9
$SURFTYPE
 70
     6
  9
$SURFU
 70
     6
  9
$SURFV
 70
     6
  9
$UCSNAME
  2

  9
$UCSORG
 10
0.0
 20
0.0
 30
0.0
  9
$UCSXDIR
 10
1.0
 20
0.0
 30
0.0
  9
$UCSYDIR
 10
0.0
 20
1.0
 30
0.0
  9
$PUCSNAME
  2

  9
$PUCSORG
 10
0.0
 20
0.0
 30
0.0
  9
$PUCSXDIR
 10
1.0
 20
0.0
 30
0.0
  9
$PUCSYDIR
 10
0.0
 20
1.0
 30
0.0
  9
$USERI1
 70
     0
  9
$USERI2
 70
     0
  9
$USERI3
 70
     0
  9
$USERI4
 70
     0
  9
$USERI5
 70
     0
  9
$USERR1
 40
0.0
  9
$USERR2
 40
0.0
  9
$USERR3
 40
0.0
  9
$USERR4
 40
0.0
  9
$USERR5
 40
0.0
  9
$WORLDVIEW
 70
     1
  9
$SHADEDGE
 70
     3
  9
$SHADEDIF
 70
    70
  9
$TILEMODE
 70
     1
  9
$MAXACTVP
 70
    64
  9
$PINSBASE
 10
0.0
 20
0.0
 30
0.0
  9
$PLIMCHECK
 70
     0
  9
$PEXTMIN
 10
1.000000000000000E+20
 20
1.000000000000000E+20
 30
1.000000000000000E+20
  9
$PEXTMAX
 10
-1.000000000000000E+20
 20
-1.000000000000000E+20
 30
-1.000000000000000E+20
  9
$PLIMMIN
 10
0.0
 20
0.0
  9
$PLIMMAX
 10
420.0
 20
297.0
  9
$UNITMODE
 70
     0
  9
$VISRETAIN
 70
     1
  9
$PLINEGEN
 70
     0
  9
$PSLTSCALE
 70
     1
  9
$TREEDEPTH
 70
  3020
  9
$PICKSTYLE
 70
     1
  9
$CMLSTYLE
  2
STANDARD
  9
$CMLJUST
 70
     0
  9
$CMLSCALE
 40
20.0
  9
$PROXYGRAPHICS
 70
     1
  9
$MEASUREMENT
 70
     1
  0
ENDSEC
  0
SECTION
  2
CLASSES
  0
CLASS
  1
ACDBDICTIONARYWDFLT
  2
AcDbDictionaryWithDefault
  3
ObjectDBX Classes
 90
        0
280
     0
281
     0
  0
CLASS
  1
VISUALSTYLE
  2
AcDbVisualStyle
  3
ObjectDBX Classes
 90
     4095
280
     0
281
     0
  0
CLASS
  1
MATERIAL
  2
AcDbMaterial
  3
ObjectDBX Classes
 90
     1153
280
     0
281
     0
  0
CLASS
  1
SUN
  2
AcDbSun
  3
SCENEOE
 90
     1024
280
     0
281
     0
  0
CLASS
  1
DICTIONARYVAR
  2
AcDbDictionaryVar
  3
ObjectDBX Classes
 90
        0
280
     0
281
     0
  0
CLASS
  1
XRECORD
  2
AcDbXrecord
  3
AutoCAD 2000
 90
        0
280
     0
281
     0
  0
CLASS
  1
LWPOLYLINE
  2
AcDbPolyline
  3
AutoCAD 2000
 90
        0
280
     0
281
     1
  0
CLASS
  1
HATCH
  2
AcDbHatch
  3
AutoCAD 2000
 90
        0
280
     0
281
     1
  0
CLASS
  1
ACDBPLACEHOLDER
  2
AcDbPlaceHolder
  3
ObjectDBX Classes
 90
        0
280
     0
281
     0
  0
CLASS
  1
LAYOUT
  2
AcDbLayout
  3
ObjectDBX Classes
 90
        0
280
     0
281
     0
  0
ENDSEC
  0
SECTION
  2
TABLES
  0
TABLE
  2
VPORT
  5
8
330
0
100
AcDbSymbolTable
 70
     1
  0
VPORT
  5
29
330
8
100
AcDbSymbolTableRecord
100
AcDbViewportTableRecord
  2
*ACTIVE
 70
     0
 10
0.0
 20
0.0
 11
1.0
 21
1.0
 12
1500.0
 22
2250.0
 13
0.0
 23
0.0
 14
10.0
 24
10.0
 15
10.0
 25
10.0
 16
0.0
 26
0.0
 36
1.0
 17
0.0
 27
0.0
 37
0.0
 40
4125.0
 41
0.7272727272727274
 42
50.0
 43
0.0
 44
0.0
 50
0.0
 51
0.0
 71
     0
 72
  1000
 73
     1
 74
     3
 75
     0
 76
     0
 77
     0
 78
     0
  0
ENDTAB
  0
TABLE
  2
LTYPE
  5
5
330
0
100
AcDbSymbolTable
 70
     7
  0
LTYPE
  5
14
330
5
100
AcDbSymbolTableRecord
100
AcDbLinetypeTableRecord
  2
BYBLOCK
 70
     0
  3

 72
    65
 73
     0
 40
0.0
  0
LTYPE
  5
15
330
5
100
AcDbSymbolTableRecord
100
AcDbLinetypeTableRecord
  2
BYLAYER
 70
     0
  3

 72
    65
 73
     0
 40
0.0
  0
LTYPE
  5
16
330
5
100
AcDbSymbolTableRecord
100
AcDbLinetypeTableRecord
  2
CONTINUOUS
 70
     0
  3
Solid line
 72
    65
 73
     0
 40
0.0
  0
LTYPE
  5
40
330
5
100
AcDbSymbolTableRecord
100
AcDbLinetypeTableRecord
  2
EXLTYPE1
 70
     0
  3
破線
 72
    65
 73
     2
 40
3.0
 49
2.0
 74
     0
 49
-1.0
 74
     0
  0
LTYPE
  5
41
330
5
100
AcDbSymbolTableRecord
100
AcDbLinetypeTableRecord
  2
EXLTYPE2
 70
     0
  3
点線
 72
    65
 73
     2
 40
2.0
 49
1.0
 74
     0
 49
-1.0
 74
     0
  0
LTYPE
  5
42
330
5
100
AcDbSymbolTableRecord
100
AcDbLinetypeTableRecord
  2
EXLTYPE3
 70
     0
  3
一点鎖線
 72
    65
 73
     4
 40
10.0
 49
7.0
 74
     0
 49
-1.0
 74
     0
 49
1.0
 74
     0
 49
-1.0
 74
     0
  0
LTYPE
  5
43
330
5
100
AcDbSymbolTableRecord
100
AcDbLinetypeTableRecord
  2
EXLTYPE4
 70
     0
  3
二点鎖線
 72
    65
 73
     6
 40
12.0
 49
7.0
 74
     0
 49
-1.0
 74
     0
 49
1.0
 74
     0
 49
-1.0
 74
     0
 49
1.0
 74
     0
 49
-1.0
 74
     0
  0
LTYPE
  5
44
330
5
100
AcDbSymbolTableRecord
100
AcDbLinetypeTableRecord
  2
EXLTYPE5
 70
     0
  3
三点鎖線
 72
    65
 73
     8
 40
37.0
 49
30.0
 74
     0
 49
-1.0
 74
     0
 49
1.0
 74
     0
 49
-1.0
 74
     0
 49
1.0
 74
     0
 49
-1.0
 74
     0
 49
1.0
 74
     0
 49
-1.0
 74
     0
  0
LTYPE
  5
45
330
5
100
AcDbSymbolTableRecord
100
AcDbLinetypeTableRecord
  2
EXLTYPE6
 70
     0
  3
四点鎖線
 72
    65
 73
    10
 40
39.0
 49
30.0
 74
     0
 49
-1.0
 74
     0
 49
1.0
 74
     0
 49
-1.0
 74
     0
 49
1.0
 74
     0
 49
-1.0
 74
     0
 49
1.0
 74
     0
 49
-1.0
 74
     0
 49
1.0
 74
     0
 49
-1.0
 74
     0
  0
ENDTAB
  0
TABLE
  2
LAYER
  5
2
330
0
100
AcDbSymbolTable
 70
     7
  0
LAYER
  5
10
330
2
100
AcDbSymbolTableRecord
100
AcDbLayerTableRecord
  2
0
 70
     0
 62
     7
  6
CONTINUOUS
  0
LAYER
  5
48
330
2
100
AcDbSymbolTableRecord
100
AcDbLayerTableRecord
  2
枠_表
 70
     0
 62
     7
  6
CONTINUOUS
  0
LAYER
  5
49
330
2
100
AcDbSymbolTableRecord
100
AcDbLayerTableRecord
  2
化粧台
 70
     0
 62
     7
  6
CONTINUOUS
  0
LAYER
  5
4A
330
2
100
AcDbSymbolTableRecord
100
AcDbLayerTableRecord
  2
鏡台
 70
     0
 62
     7
  6
CONTINUOUS
  0
LAYER
  5
4B
330
2
100
AcDbSymbolTableRecord
100
AcDbLayerTableRecord
  2
付属金具
 70
     0
 62
     7
  6
CONTINUOUS
  0
LAYER
  5
4C
330
2
100
AcDbSymbolTableRecord
100
AcDbLayerTableRecord
  2
寸法
 70
     0
 62
     7
  6
CONTINUOUS
  0
LAYER
  5
516
330
2
100
AcDbSymbolTableRecord
100
AcDbLayerTableRecord
  2
DEFPOINTS
 70
     0
 62
     7
  6
CONTINUOUS
  0
ENDTAB
  0
TABLE
  2
STYLE
  5
3
330
0
100
AcDbSymbolTable
 70
     5
  0
STYLE
  5
11
330
3
100
AcDbSymbolTableRecord
100
AcDbTextStyleTableRecord
  2
STANDARD
 70
     0
 40
0.0
 41
1.0
 50
0.0
 71
     0
 42
2.5
  3
monotxt
  4
extfont
  0
STYLE
  5
46
330
3
100
AcDbSymbolTableRecord
100
AcDbTextStyleTableRecord
  2
EXCADSTD
 70
     0
 40
0.0
 41
1.0
 50
0.0
 71
     0
 42
0.2
  3
monotxt
  4
extfont
  0
STYLE
  5
47
330
3
100
AcDbSymbolTableRecord
100
AcDbTextStyleTableRecord
  2
EXCADVERT
 70
     4
 40
0.0
 41
1.0
 50
0.0
 71
     0
 42
0.286885
  3
monotxt
  4
extfont
  0
STYLE
  5
AB
330
3
100
AcDbSymbolTableRecord
100
AcDbTextStyleTableRecord
  2
EXCADTTF1
 70
     0
 40
0.0
 41
1.0
 50
0.0
 71
     0
 42
0.2
  3
MSGOTHIC.TTC
  4

1001
ACAD
1000
MS Gothic
1071
    32817
  0
STYLE
  5
514
330
3
100
AcDbSymbolTableRecord
100
AcDbTextStyleTableRecord
  2
EXCADDIM1
 70
     0
 40
0.0
 41
0.84
 50
0.0
 71
     0
 42
0.2
  3
monotxt
  4
extfont
  0
ENDTAB
  0
TABLE
  2
VIEW
  5
6
330
0
100
AcDbSymbolTable
 70
     0
  0
ENDTAB
  0
TABLE
  2
UCS
  5
7
330
0
100
AcDbSymbolTable
 70
     0
  0
ENDTAB
  0
TABLE
  2
APPID
  5
9
330
0
100
AcDbSymbolTable
 70
     1
  0
APPID
  5
12
330
9
100
AcDbSymbolTableRecord
100
AcDbRegAppTableRecord
  2
ACAD
 70
     0
  0
ENDTAB
  0
TABLE
  2
DIMSTYLE
  5
A
330
0
100
AcDbSymbolTable
 70
     1
  0
DIMSTYLE
105
27
102
{ACAD_REACTORS
330
515
330
522
330
52E
330
53B
330
551
330
55D
330
569
330
582
330
598
330
5A5
330
5B1
330
5C8
330
5D7
102
}
330
A
100
AcDbSymbolTableRecord
100
AcDbDimStyleTableRecord
  2
ISO-25
 70
     0
  3

  4

  5

  6

  7

 40
1.0
 41
2.5
 42
0.625
 43
3.75
 44
1.25
 45
0.0
 46
0.0
 47
0.0
 48
0.0
140
2.5
141
2.5
142
0.0
143
0.03937007874016
144
1.0
145
0.0
146
1.0
147
0.625
 71
     0
 72
     0
 73
     0
 74
     0
 75
     0
 76
     0
 77
     1
 78
     8
170
     0
171
     3
172
     1
173
     0
174
     0
175
     0
176
     0
177
     0
178
     0
270
     2
271
     2
272
     2
273
     2
274
     3
340
11
275
     0
280
     0
281
     0
282
     0
283
     0
284
     8
285
     0
286
     0
287
     5
288
     0
  0
ENDTAB
  0
TABLE
  2
BLOCK_RECORD
  5
1
330
0
100
AcDbSymbolTable
 70
    28
  0
BLOCK_RECORD
  5
1F
330
1
100
AcDbSymbolTableRecord
100
AcDbBlockTableRecord
  2
*MODEL_SPACE
  0
BLOCK_RECORD
  5
1B
330
1
100
AcDbSymbolTableRecord
100
AcDbBlockTableRecord
  2
*PAPER_SPACE
  0
BLOCK_RECORD
  5
4D
330
1
100
AcDbSymbolTableRecord
100
AcDbBlockTableRecord
  2
EX_NORM
  0
BLOCK_RECORD
  5
50
330
1
100
AcDbSymbolTableRecord
100
AcDbBlockTableRecord
  2
EX_BNORM
  0
BLOCK_RECORD
  5
53
330
1
100
AcDbSymbolTableRecord
100
AcDbBlockTableRecord
  2
EX_BCIR
  0
BLOCK_RECORD
  5
56
330
1
100
AcDbSymbolTableRecord
100
AcDbBlockTableRecord
  2
EX_RCIVIL
  0
BLOCK_RECORD
  5
59
330
1
100
AcDbSymbolTableRecord
100
AcDbBlockTableRecord
  2
EX_SLANT
  0
BLOCK_RECORD
  5
5C
330
1
100
AcDbSymbolTableRecord
100
AcDbBlockTableRecord
  2
EX_NONE
  0
BLOCK_RECORD
  5
5F
330
1
100
AcDbSymbolTableRecord
100
AcDbBlockTableRecord
  2
EX_CIVIL
  0
BLOCK_RECORD
  5
62
330
1
100
AcDbSymbolTableRecord
100
AcDbBlockTableRecord
  2
EX_WCIR
  0
BLOCK_RECORD
  5
65
330
1
100
AcDbSymbolTableRecord
100
AcDbBlockTableRecord
  2
EX_WCIR2
  0
BLOCK_RECORD
  5
68
330
1
100
AcDbSymbolTableRecord
100
AcDbBlockTableRecord
  2
EX_WNORM
  0
BLOCK_RECORD
  5
6B
330
1
100
AcDbSymbolTableRecord
100
AcDbBlockTableRecord
  2
EX_NNORM
  0
BLOCK_RECORD
  5
6E
330
1
100
AcDbSymbolTableRecord
100
AcDbBlockTableRecord
  2
EX_BBOX
  0
BLOCK_RECORD
  5
71
330
1
100
AcDbSymbolTableRecord
100
AcDbBlockTableRecord
  2
EX_WBOX
  0
BLOCK_RECORD
  5
74
330
1
100
AcDbSymbolTableRecord
100
AcDbBlockTableRecord
  2
EX_INTEGRAL
  0
BLOCK_RECORD
  5
517
330
1
100
AcDbSymbolTableRecord
100
AcDbBlockTableRecord
  2
*D15
  0
BLOCK_RECORD
  5
523
330
1
100
AcDbSymbolTableRecord
100
AcDbBlockTableRecord
  2
*D16
  0
BLOCK_RECORD
  5
52F
330
1
100
AcDbSymbolTableRecord
100
AcDbBlockTableRecord
  2
*D17
  0
BLOCK_RECORD
  5
53C
330
1
100
AcDbSymbolTableRecord
100
AcDbBlockTableRecord
  2
*D18
  0
BLOCK_RECORD
  5
552
330
1
100
AcDbSymbolTableRecord
100
AcDbBlockTableRecord
  2
*D19
  0
BLOCK_RECORD
  5
55E
330
1
100
AcDbSymbolTableRecord
100
AcDbBlockTableRecord
  2
*D20
  0
BLOCK_RECORD
  5
56A
330
1
100
AcDbSymbolTableRecord
100
AcDbBlockTableRecord
  2
*D21
  0
BLOCK_RECORD
  5
583
330
1
100
AcDbSymbolTableRecord
100
AcDbBlockTableRecord
  2
*D22
  0
BLOCK_RECORD
  5
599
330
1
100
AcDbSymbolTableRecord
100
AcDbBlockTableRecord
  2
*D23
  0
BLOCK_RECORD
  5
5A6
330
1
100
AcDbSymbolTableRecord
100
AcDbBlockTableRecord
  2
*D24
  0
BLOCK_RECORD
  5
5B2
330
1
100
AcDbSymbolTableRecord
100
AcDbBlockTableRecord
  2
*D25
  0
BLOCK_RECORD
  5
5C9
330
1
100
AcDbSymbolTableRecord
100
AcDbBlockTableRecord
  2
*D26
  0
BLOCK_RECORD
  5
5D8
330
1
100
AcDbSymbolTableRecord
100
AcDbBlockTableRecord
  2
*D27
  0
ENDTAB
  0
ENDSEC
  0
SECTION
  2
BLOCKS
  0
BLOCK
  5
20
330
1F
100
AcDbEntity
  8
0
100
AcDbBlockBegin
  2
*MODEL_SPACE
 70
     0
 10
0.0
 20
0.0
 30
0.0
  3
*MODEL_SPACE
  1

  0
ENDBLK
  5
21
330
1F
100
AcDbEntity
  8
0
100
AcDbBlockEnd
  0
BLOCK
  5
1C
330
1B
100
AcDbEntity
 67
     1
  8
0
100
AcDbBlockBegin
  2
*PAPER_SPACE
 70
     0
 10
0.0
 20
0.0
 30
0.0
  3
*PAPER_SPACE
  1

  0
ENDBLK
  5
1D
330
1B
100
AcDbEntity
 67
     1
  8
0
100
AcDbBlockEnd
  0
BLOCK
  5
4E
330
4D
100
AcDbEntity
  8
0
100
AcDbBlockBegin
  2
EX_NORM
 70
     0
 10
0.0
 20
0.0
 30
0.0
  3
EX_NORM
  1

  0
LINE
  5
77
330
4D
100
AcDbEntity
  8
0
  6
CONTINUOUS
 62
     0
100
AcDbLine
 10
0.0
 20
0.0
 30
0.0
 11
-1.0
 21
0.0
 31
0.0
  0
LINE
  5
78
330
4D
100
AcDbEntity
  8
0
  6
CONTINUOUS
 62
     0
100
AcDbLine
 10
0.0
 20
0.0
 30
0.0
 11
-1.0
 21
0.166666667
 31
0.0
  0
LINE
  5
79
330
4D
100
AcDbEntity
  8
0
  6
CONTINUOUS
 62
     0
100
AcDbLine
 10
0.0
 20
0.0
 30
0.0
 11
-1.0
 21
-0.166666667
 31
0.0
  0
ENDBLK
  5
4F
330
4D
100
AcDbEntity
  8
0
100
AcDbBlockEnd
  0
BLOCK
  5
51
330
50
100
AcDbEntity
  8
0
100
AcDbBlockBegin
  2
EX_BNORM
 70
     0
 10
0.0
 20
0.0
 30
0.0
  3
EX_BNORM
  1

  0
LINE
  5
7A
330
50
100
AcDbEntity
  8
0
  6
CONTINUOUS
 62
     0
100
AcDbLine
 10
0.0
 20
0.0
 30
0.0
 11
-1.0
 21
0.0
 31
0.0
  0
LINE
  5
7B
330
50
100
AcDbEntity
  8
0
  6
CONTINUOUS
 62
     0
100
AcDbLine
 10
0.0
 20
0.0
 30
0.0
 11
-1.0
 21
0.166666667
 31
0.0
  0
LINE
  5
7C
330
50
100
AcDbEntity
  8
0
  6
CONTINUOUS
 62
     0
100
AcDbLine
 10
0.0
 20
0.0
 30
0.0
 11
-1.0
 21
-0.166666667
 31
0.0
  0
LINE
  5
7D
330
50
100
AcDbEntity
  8
0
  6
CONTINUOUS
 62
     0
100
AcDbLine
 10
0.0
 20
0.0
 30
0.0
 11
-1.0
 21
0.083333333
 31
0.0
  0
LINE
  5
7E
330
50
100
AcDbEntity
  8
0
  6
CONTINUOUS
 62
     0
100
AcDbLine
 10
0.0
 20
0.0
 30
0.0
 11
-1.0
 21
-0.083333333
 31
0.0
  0
LINE
  5
7F
330
50
100
AcDbEntity
  8
0
  6
CONTINUOUS
 62
     0
100
AcDbLine
 10
-1.0
 20
0.166666667
 30
0.0
 11
-1.0
 21
-0.166666667
 31
0.0
  0
ENDBLK
  5
52
330
50
100
AcDbEntity
  8
0
100
AcDbBlockEnd
  0
BLOCK
  5
54
330
53
100
AcDbEntity
  8
0
100
AcDbBlockBegin
  2
EX_BCIR
 70
     0
 10
0.0
 20
0.0
 30
0.0
  3
EX_BCIR
  1

  0
LINE
  5
80
330
53
100
AcDbEntity
  8
0
  6
CONTINUOUS
 62
     0
100
AcDbLine
 10
0.0
 20
0.0
 30
0.0
 11
-1.0
 21
0.0
 31
0.0
  0
CIRCLE
  5
81
330
53
100
AcDbEntity
  8
0
  6
CONTINUOUS
 62
     0
100
AcDbCircle
 10
0.0
 20
0.0
 30
0.0
 40
0.5
  0
CIRCLE
  5
82
330
53
100
AcDbEntity
  8
0
  6
CONTINUOUS
 62
     0
100
AcDbCircle
 10
0.0
 20
0.0
 30
0.0
 40
0.25
  0
ENDBLK
  5
55
330
53
100
AcDbEntity
  8
0
100
AcDbBlockEnd
  0
BLOCK
  5
57
330
56
100
AcDbEntity
  8
0
100
AcDbBlockBegin
  2
EX_RCIVIL
 70
     0
 10
0.0
 20
0.0
 30
0.0
  3
EX_RCIVIL
  1

  0
LINE
  5
83
330
56
100
AcDbEntity
  8
0
  6
CONTINUOUS
 62
     0
100
AcDbLine
 10
0.0
 20
0.0
 30
0.0
 11
-1.0
 21
0.0
 31
0.0
  0
LINE
  5
84
330
56
100
AcDbEntity
  8
0
  6
CONTINUOUS
 62
     0
100
AcDbLine
 10
-1.0
 20
-0.25
 30
0.0
 11
0.0
 21
-0.25
 31
0.0
  0
LINE
  5
85
330
56
100
AcDbEntity
  8
0
  6
CONTINUOUS
 62
     0
100
AcDbLine
 10
-1.0
 20
-0.125
 30
0.0
 11
0.0
 21
-0.125
 31
0.0
  0
ENDBLK
  5
58
330
56
100
AcDbEntity
  8
0
100
AcDbBlockEnd
  0
BLOCK
  5
5A
330
59
100
AcDbEntity
  8
0
100
AcDbBlockBegin
  2
EX_SLANT
 70
     0
 10
0.0
 20
0.0
 30
0.0
  3
EX_SLANT
  1

  0
LINE
  5
86
330
59
100
AcDbEntity
  8
0
  6
CONTINUOUS
 62
     0
100
AcDbLine
 10
0.0
 20
0.0
 30
0.0
 11
-1.0
 21
0.0
 31
0.0
  0
LINE
  5
87
330
59
100
AcDbEntity
  8
0
  6
CONTINUOUS
 62
     0
100
AcDbLine
 10
0.707106781
 20
0.707106781
 30
0.0
 11
-0.707106781
 21
-0.707106781
 31
0.0
  0
ENDBLK
  5
5B
330
59
100
AcDbEntity
  8
0
100
AcDbBlockEnd
  0
BLOCK
  5
5D
330
5C
100
AcDbEntity
  8
0
100
AcDbBlockBegin
  2
EX_NONE
 70
     0
 10
0.0
 20
0.0
 30
0.0
  3
EX_NONE
  1

  0
LINE
  5
88
330
5C
100
AcDbEntity
  8
0
  6
CONTINUOUS
 62
     0
100
AcDbLine
 10
0.0
 20
0.0
 30
0.0
 11
-1.0
 21
0.0
 31
0.0
  0
ENDBLK
  5
5E
330
5C
100
AcDbEntity
  8
0
100
AcDbBlockEnd
  0
BLOCK
  5
60
330
5F
100
AcDbEntity
  8
0
100
AcDbBlockBegin
  2
EX_CIVIL
 70
     0
 10
0.0
 20
0.0
 30
0.0
  3
EX_CIVIL
  1

  0
LINE
  5
89
330
5F
100
AcDbEntity
  8
0
  6
CONTINUOUS
 62
     0
100
AcDbLine
 10
0.0
 20
0.0
 30
0.0
 11
-1.0
 21
0.0
 31
0.0
  0
LINE
  5
8A
330
5F
100
AcDbEntity
  8
0
  6
CONTINUOUS
 62
     0
100
AcDbLine
 10
-1.0
 20
0.25
 30
0.0
 11
0.0
 21
0.25
 31
0.0
  0
LINE
  5
8B
330
5F
100
AcDbEntity
  8
0
  6
CONTINUOUS
 62
     0
100
AcDbLine
 10
-1.0
 20
0.125
 30
0.0
 11
0.0
 21
0.125
 31
0.0
  0
ENDBLK
  5
61
330
5F
100
AcDbEntity
  8
0
100
AcDbBlockEnd
  0
BLOCK
  5
63
330
62
100
AcDbEntity
  8
0
100
AcDbBlockBegin
  2
EX_WCIR
 70
     0
 10
0.0
 20
0.0
 30
0.0
  3
EX_WCIR
  1

  0
LINE
  5
8C
330
62
100
AcDbEntity
  8
0
  6
CONTINUOUS
 62
     0
100
AcDbLine
 10
0.0
 20
0.0
 30
0.0
 11
-1.0
 21
0.0
 31
0.0
  0
CIRCLE
  5
8D
330
62
100
AcDbEntity
  8
0
  6
CONTINUOUS
 62
     0
100
AcDbCircle
 10
0.0
 20
0.0
 30
0.0
 40
0.5
  0
ENDBLK
  5
64
330
62
100
AcDbEntity
  8
0
100
AcDbBlockEnd
  0
BLOCK
  5
66
330
65
100
AcDbEntity
  8
0
100
AcDbBlockBegin
  2
EX_WCIR2
 70
     0
 10
0.0
 20
0.0
 30
0.0
  3
EX_WCIR2
  1

  0
LINE
  5
8E
330
65
100
AcDbEntity
  8
0
  6
CONTINUOUS
 62
     0
100
AcDbLine
 10
-0.5
 20
0.0
 30
0.0
 11
-1.0
 21
0.0
 31
0.0
  0
CIRCLE
  5
8F
330
65
100
AcDbEntity
  8
0
  6
CONTINUOUS
 62
     0
100
AcDbCircle
 10
0.0
 20
0.0
 30
0.0
 40
0.5
  0
ENDBLK
  5
67
330
65
100
AcDbEntity
  8
0
100
AcDbBlockEnd
  0
BLOCK
  5
69
330
68
100
AcDbEntity
  8
0
100
AcDbBlockBegin
  2
EX_WNORM
 70
     0
 10
0.0
 20
0.0
 30
0.0
  3
EX_WNORM
  1

  0
LINE
  5
90
330
68
100
AcDbEntity
  8
0
  6
CONTINUOUS
 62
     0
100
AcDbLine
 10
-1.0
 20
0.0
 30
0.0
 11
-1.0
 21
0.0
 31
0.0
  0
LINE
  5
91
330
68
100
AcDbEntity
  8
0
  6
CONTINUOUS
 62
     0
100
AcDbLine
 10
0.0
 20
0.0
 30
0.0
 11
-1.0
 21
0.166666667
 31
0.0
  0
LINE
  5
92
330
68
100
AcDbEntity
  8
0
  6
CONTINUOUS
 62
     0
100
AcDbLine
 10
0.0
 20
0.0
 30
0.0
 11
-1.0
 21
-0.166666667
 31
0.0
  0
LINE
  5
93
330
68
100
AcDbEntity
  8
0
  6
CONTINUOUS
 62
     0
100
AcDbLine
 10
-1.0
 20
0.166666667
 30
0.0
 11
-1.0
 21
-0.166666667
 31
0.0
  0
ENDBLK
  5
6A
330
68
100
AcDbEntity
  8
0
100
AcDbBlockEnd
  0
BLOCK
  5
6C
330
6B
100
AcDbEntity
  8
0
100
AcDbBlockBegin
  2
EX_NNORM
 70
     0
 10
0.0
 20
0.0
 30
0.0
  3
EX_NNORM
  1

  0
LINE
  5
94
330
6B
100
AcDbEntity
  8
0
  6
CONTINUOUS
 62
     0
100
AcDbLine
 10
0.0
 20
0.0
 30
0.0
 11
-1.0
 21
0.0
 31
0.0
  0
LINE
  5
95
330
6B
100
AcDbEntity
  8
0
  6
CONTINUOUS
 62
     0
100
AcDbLine
 10
0.0
 20
0.0
 30
0.0
 11
-1.0
 21
0.166666667
 31
0.0
  0
LINE
  5
96
330
6B
100
AcDbEntity
  8
0
  6
CONTINUOUS
 62
     0
100
AcDbLine
 10
0.0
 20
0.0
 30
0.0
 11
-1.0
 21
-0.166666667
 31
0.0
  0
LINE
  5
97
330
6B
100
AcDbEntity
  8
0
  6
CONTINUOUS
 62
     0
100
AcDbLine
 10
-1.0
 20
0.166666667
 30
0.0
 11
-1.0
 21
-0.166666667
 31
0.0
  0
ENDBLK
  5
6D
330
6B
100
AcDbEntity
  8
0
100
AcDbBlockEnd
  0
BLOCK
  5
6F
330
6E
100
AcDbEntity
  8
0
100
AcDbBlockBegin
  2
EX_BBOX
 70
     0
 10
0.0
 20
0.0
 30
0.0
  3
EX_BBOX
  1

  0
LINE
  5
98
330
6E
100
AcDbEntity
  8
0
  6
CONTINUOUS
 62
     0
100
AcDbLine
 10
0.0
 20
0.0
 30
0.0
 11
-1.0
 21
0.0
 31
0.0
  0
LINE
  5
99
330
6E
100
AcDbEntity
  8
0
  6
CONTINUOUS
 62
     0
100
AcDbLine
 10
-0.5
 20
0.5
 30
0.0
 11
0.5
 21
0.5
 31
0.0
  0
LINE
  5
9A
330
6E
100
AcDbEntity
  8
0
  6
CONTINUOUS
 62
     0
100
AcDbLine
 10
0.5
 20
0.5
 30
0.0
 11
0.5
 21
-0.5
 31
0.0
  0
LINE
  5
9B
330
6E
100
AcDbEntity
  8
0
  6
CONTINUOUS
 62
     0
100
AcDbLine
 10
0.5
 20
-0.5
 30
0.0
 11
-0.5
 21
-0.5
 31
0.0
  0
LINE
  5
9C
330
6E
100
AcDbEntity
  8
0
  6
CONTINUOUS
 62
     0
100
AcDbLine
 10
-0.5
 20
-0.5
 30
0.0
 11
-0.5
 21
0.5
 31
0.0
  0
LINE
  5
9D
330
6E
100
AcDbEntity
  8
0
  6
CONTINUOUS
 62
     0
100
AcDbLine
 10
-0.25
 20
0.25
 30
0.0
 11
0.25
 21
0.25
 31
0.0
  0
LINE
  5
9E
330
6E
100
AcDbEntity
  8
0
  6
CONTINUOUS
 62
     0
100
AcDbLine
 10
0.25
 20
0.25
 30
0.0
 11
0.25
 21
-0.25
 31
0.0
  0
LINE
  5
9F
330
6E
100
AcDbEntity
  8
0
  6
CONTINUOUS
 62
     0
100
AcDbLine
 10
0.25
 20
-0.25
 30
0.0
 11
-0.25
 21
-0.25
 31
0.0
  0
LINE
  5
A0
330
6E
100
AcDbEntity
  8
0
  6
CONTINUOUS
 62
     0
100
AcDbLine
 10
-0.25
 20
-0.25
 30
0.0
 11
-0.25
 21
0.25
 31
0.0
  0
ENDBLK
  5
70
330
6E
100
AcDbEntity
  8
0
100
AcDbBlockEnd
  0
BLOCK
  5
72
330
71
100
AcDbEntity
  8
0
100
AcDbBlockBegin
  2
EX_WBOX
 70
     0
 10
0.0
 20
0.0
 30
0.0
  3
EX_WBOX
  1

  0
LINE
  5
A1
330
71
100
AcDbEntity
  8
0
  6
CONTINUOUS
 62
     0
100
AcDbLine
 10
-0.5
 20
0.0
 30
0.0
 11
-1.0
 21
0.0
 31
0.0
  0
LINE
  5
A2
330
71
100
AcDbEntity
  8
0
  6
CONTINUOUS
 62
     0
100
AcDbLine
 10
-0.5
 20
0.5
 30
0.0
 11
0.5
 21
0.5
 31
0.0
  0
LINE
  5
A3
330
71
100
AcDbEntity
  8
0
  6
CONTINUOUS
 62
     0
100
AcDbLine
 10
0.5
 20
0.5
 30
0.0
 11
0.5
 21
-0.5
 31
0.0
  0
LINE
  5
A4
330
71
100
AcDbEntity
  8
0
  6
CONTINUOUS
 62
     0
100
AcDbLine
 10
0.5
 20
-0.5
 30
0.0
 11
-0.5
 21
-0.5
 31
0.0
  0
LINE
  5
A5
330
71
100
AcDbEntity
  8
0
  6
CONTINUOUS
 62
     0
100
AcDbLine
 10
-0.5
 20
-0.5
 30
0.0
 11
-0.5
 21
0.5
 31
0.0
  0
ENDBLK
  5
73
330
71
100
AcDbEntity
  8
0
100
AcDbBlockEnd
  0
BLOCK
  5
75
330
74
100
AcDbEntity
  8
0
100
AcDbBlockBegin
  2
EX_INTEGRAL
 70
     0
 10
0.0
 20
0.0
 30
0.0
  3
EX_INTEGRAL
  1

  0
LINE
  5
A6
330
74
100
AcDbEntity
  8
0
  6
CONTINUOUS
 62
     0
100
AcDbLine
 10
0.0
 20
0.0
 30
0.0
 11
-1.0
 21
0.0
 31
0.0
  0
ARC
  5
A7
330
74
100
AcDbEntity
  8
0
  6
CONTINUOUS
 62
     0
100
AcDbCircle
 10
0.542115
 20
0.164992
 30
0.0
 40
0.56667
100
AcDbArc
 50
73.07249033629006
 51
196.9275130221199
  0
ARC
  5
A8
330
74
100
AcDbEntity
  8
0
  6
CONTINUOUS
 62
     0
100
AcDbCircle
 10
-0.542115
 20
-0.164992
 30
0.0
 40
0.56667
100
AcDbArc
 50
253.0724869220464
 51
16.9275130559125
  0
ENDBLK
  5
76
330
74
100
AcDbEntity
  8
0
100
AcDbBlockEnd
  0
BLOCK
  5
518
330
517
100
AcDbEntity
  8
0
100
AcDbBlockBegin
  2
*D15
 70
     1
 10
0.0
 20
0.0
 30
0.0
  3
*D15
  1

  0
LINE
  5
51A
330
517
100
AcDbEntity
  8
寸法
  6
CONTINUOUS
 62
     3
100
AcDbLine
 10
1305.499999821184
 20
3479.5
 30
0.0
 11
1414.999999999999
 21
3479.5
 31
0.0
  0
LINE
  5
51B
330
517
100
AcDbEntity
  8
寸法
  6
CONTINUOUS
 62
     3
100
AcDbLine
 10
1399.999999999999
 20
3524.499996185303
 30
0.0
 11
1399.999999999999
 21
3884.500003814697
 31
0.0
  0
INSERT
  5
51C
330
517
100
AcDbEntity
  8
寸法
 62
     3
100
AcDbBlockReference
  2
EX_NORM
 10
1399.999999999999
 20
3479.5
 30
0.0
 41
44.99999618530273
 42
44.99999618530273
 43
44.99999618530273
 50
270.0
  0
INSERT
  5
51D
330
517
100
AcDbEntity
  8
寸法
 62
     3
100
AcDbBlockReference
  2
EX_NORM
 10
1399.999999999999
 20
3929.5
 30
0.0
 41
44.99999618530273
 42
44.99999618530273
 43
44.99999618530273
 50
90.0
  0
MTEXT
  5
51E
330
517
100
AcDbEntity
  8
寸法
 62
     2
100
AcDbMText
 10
1364.750000089407
 20
3704.5
 30
0.0
 40
59.99999618530273
 41
0.0
 71
     5
 72
     1
  1
450
  7
EXCADDIM1
 11
0.0
 21
1.0
 31
0.0
  0
POINT
  5
51F
330
517
100
AcDbEntity
  8
DEFPOINTS
 62
     0
100
AcDbPoint
 10
1294.999999999998
 20
3479.5
 30
0.0
  0
POINT
  5
520
330
517
100
AcDbEntity
  8
DEFPOINTS
 62
     0
100
AcDbPoint
 10
1294.999999999998
 20
3929.5
 30
0.0
  0
POINT
  5
521
330
517
100
AcDbEntity
  8
DEFPOINTS
 62
     0
100
AcDbPoint
 10
1399.999999999999
 20
3929.5
 30
0.0
  0
ENDBLK
  5
519
330
517
100
AcDbEntity
  8
0
100
AcDbBlockEnd
  0
BLOCK
  5
524
330
523
100
AcDbEntity
  8
0
100
AcDbBlockBegin
  2
*D16
 70
     1
 10
0.0
 20
0.0
 30
0.0
  3
*D16
  1

  0
LINE
  5
526
330
523
100
AcDbEntity
  8
寸法
  6
CONTINUOUS
 62
     3
100
AcDbLine
 10
1195.499999821184
 20
3429.5
 30
0.0
 11
1504.999999999999
 21
3429.5
 31
0.0
  0
LINE
  5
527
330
523
100
AcDbEntity
  8
寸法
  6
CONTINUOUS
 62
     3
100
AcDbLine
 10
1489.999999999999
 20
3474.499996185303
 30
0.0
 11
1489.999999999999
 21
3884.500003814697
 31
0.0
  0
INSERT
  5
528
330
523
100
AcDbEntity
  8
寸法
 62
     3
100
AcDbBlockReference
  2
EX_NORM
 10
1489.999999999999
 20
3429.5
 30
0.0
 41
44.99999618530273
 42
44.99999618530273
 43
44.99999618530273
 50
270.0
  0
INSERT
  5
529
330
523
100
AcDbEntity
  8
寸法
 62
     3
100
AcDbBlockReference
  2
EX_NORM
 10
1489.999999999999
 20
3929.5
 30
0.0
 41
44.99999618530273
 42
44.99999618530273
 43
44.99999618530273
 50
90.0
  0
MTEXT
  5
52A
330
523
100
AcDbEntity
  8
寸法
 62
     2
100
AcDbMText
 10
1454.750000089407
 20
3679.5
 30
0.0
 40
59.99999618530273
 41
0.0
 71
     5
 72
     1
  1
500
  7
EXCADDIM1
 11
0.0
 21
1.0
 31
0.0
  0
POINT
  5
52B
330
523
100
AcDbEntity
  8
DEFPOINTS
 62
     0
100
AcDbPoint
 10
1184.999999999998
 20
3429.5
 30
0.0
  0
POINT
  5
52C
330
523
100
AcDbEntity
  8
DEFPOINTS
 62
     0
100
AcDbPoint
 10
1294.999999999998
 20
3929.5
 30
0.0
  0
POINT
  5
52D
330
523
100
AcDbEntity
  8
DEFPOINTS
 62
     0
100
AcDbPoint
 10
1489.999999999999
 20
3929.5
 30
0.0
  0
ENDBLK
  5
525
330
523
100
AcDbEntity
  8
0
100
AcDbBlockEnd
  0
BLOCK
  5
530
330
52F
100
AcDbEntity
  8
0
100
AcDbBlockBegin
  2
*D17
 70
     1
 10
0.0
 20
0.0
 30
0.0
  3
*D17
  1

  0
LINE
  5
532
330
52F
100
AcDbEntity
  8
寸法
  6
CONTINUOUS
 62
     3
100
AcDbLine
 10
644.9999999999995
 20
3429.000000178814
 30
0.0
 11
644.9999999999995
 21
3309.5
 31
0.0
  0
LINE
  5
533
330
52F
100
AcDbEntity
  8
寸法
  6
CONTINUOUS
 62
     3
100
AcDbLine
 10
1194.999999999998
 20
3429.000000178814
 30
0.0
 11
1194.999999999998
 21
3309.5
 31
0.0
  0
LINE
  5
534
330
52F
100
AcDbEntity
  8
寸法
  6
CONTINUOUS
 62
     3
100
AcDbLine
 10
689.9999961853023
 20
3324.5
 30
0.0
 11
1150.000003814696
 21
3324.5
 31
0.0
  0
INSERT
  5
535
330
52F
100
AcDbEntity
  8
寸法
 62
     3
100
AcDbBlockReference
  2
EX_NORM
 10
644.9999999999995
 20
3324.5
 30
0.0
 41
44.99999618530273
 42
44.99999618530273
 43
44.99999618530273
 50
180.0
  0
INSERT
  5
536
330
52F
100
AcDbEntity
  8
寸法
 62
     3
100
AcDbBlockReference
  2
EX_NORM
 10
1194.999999999998
 20
3324.5
 30
0.0
 41
44.99999618530273
 42
44.99999618530273
 43
44.99999618530273
  0
MTEXT
  5
537
330
52F
100
AcDbEntity
  8
寸法
 62
     2
100
AcDbMText
 10
919.9999999999993
 20
3359.749999910593
 30
0.0
 40
59.99999618530273
 41
0.0
 71
     5
 72
     1
  1
550
  7
EXCADDIM1
  0
POINT
  5
538
330
52F
100
AcDbEntity
  8
DEFPOINTS
 62
     0
100
AcDbPoint
 10
644.9999999999995
 20
3439.5
 30
0.0
  0
POINT
  5
539
330
52F
100
AcDbEntity
  8
DEFPOINTS
 62
     0
100
AcDbPoint
 10
1194.999999999998
 20
3439.5
 30
0.0
  0
POINT
  5
53A
330
52F
100
AcDbEntity
  8
DEFPOINTS
 62
     0
100
AcDbPoint
 10
1194.999999999998
 20
3324.5
 30
0.0
  0
ENDBLK
  5
531
330
52F
100
AcDbEntity
  8
0
100
AcDbBlockEnd
  0
BLOCK
  5
53D
330
53C
100
AcDbEntity
  8
0
100
AcDbBlockBegin
  2
*D18
 70
     1
 10
0.0
 20
0.0
 30
0.0
  3
*D18
  1

  0
LINE
  5
53F
330
53C
100
AcDbEntity
  8
寸法
  6
CONTINUOUS
 62
     3
100
AcDbLine
 10
544.9999999999995
 20
3469.000000178814
 30
0.0
 11
544.9999999999995
 21
3219.5
 31
0.0
  0
LINE
  5
540
330
53C
100
AcDbEntity
  8
寸法
  6
CONTINUOUS
 62
     3
100
AcDbLine
 10
1294.999999999998
 20
3469.000000178814
 30
0.0
 11
1294.999999999998
 21
3219.5
 31
0.0
  0
LINE
  5
541
330
53C
100
AcDbEntity
  8
寸法
  6
CONTINUOUS
 62
     3
100
AcDbLine
 10
589.9999961853023
 20
3234.5
 30
0.0
 11
1250.000003814696
 21
3234.5
 31
0.0
  0
INSERT
  5
542
330
53C
100
AcDbEntity
  8
寸法
 62
     3
100
AcDbBlockReference
  2
EX_NORM
 10
544.9999999999995
 20
3234.5
 30
0.0
 41
44.99999618530273
 42
44.99999618530273
 43
44.99999618530273
 50
180.0
  0
INSERT
  5
543
330
53C
100
AcDbEntity
  8
寸法
 62
     3
100
AcDbBlockReference
  2
EX_NORM
 10
1294.999999999998
 20
3234.5
 30
0.0
 41
44.99999618530273
 42
44.99999618530273
 43
44.99999618530273
  0
MTEXT
  5
544
330
53C
100
AcDbEntity
  8
寸法
 62
     2
100
AcDbMText
 10
919.9999999999993
 20
3269.749999910593
 30
0.0
 40
59.99999618530273
 41
0.0
 71
     5
 72
     1
  1
750
  7
EXCADDIM1
  0
POINT
  5
545
330
53C
100
AcDbEntity
  8
DEFPOINTS
 62
     0
100
AcDbPoint
 10
544.9999999999995
 20
3479.5
 30
0.0
  0
POINT
  5
546
330
53C
100
AcDbEntity
  8
DEFPOINTS
 62
     0
100
AcDbPoint
 10
1294.999999999998
 20
3479.5
 30
0.0
  0
POINT
  5
547
330
53C
100
AcDbEntity
  8
DEFPOINTS
 62
     0
100
AcDbPoint
 10
1294.999999999998
 20
3234.5
 30
0.0
  0
ENDBLK
  5
53E
330
53C
100
AcDbEntity
  8
0
100
AcDbBlockEnd
  0
BLOCK
  5
553
330
552
100
AcDbEntity
  8
0
100
AcDbBlockBegin
  2
*D19
 70
     1
 10
0.0
 20
0.0
 30
0.0
  3
*D19
  1

  0
LINE
  5
555
330
552
100
AcDbEntity
  8
寸法
  6
CONTINUOUS
 62
     3
100
AcDbLine
 10
1305.499999821184
 20
1594.5
 30
0.0
 11
1414.999999999999
 21
1594.5
 31
0.0
  0
LINE
  5
556
330
552
100
AcDbEntity
  8
寸法
  6
CONTINUOUS
 62
     3
100
AcDbLine
 10
1399.999999999999
 20
939.4999961853028
 30
0.0
 11
1399.999999999999
 21
1549.500003814697
 31
0.0
  0
INSERT
  5
557
330
552
100
AcDbEntity
  8
寸法
 62
     3
100
AcDbBlockReference
  2
EX_NORM
 10
1399.999999999999
 20
894.5000000000001
 30
0.0
 41
44.99999618530273
 42
44.99999618530273
 43
44.99999618530273
 50
270.0
  0
INSERT
  5
558
330
552
100
AcDbEntity
  8
寸法
 62
     3
100
AcDbBlockReference
  2
EX_NORM
 10
1399.999999999999
 20
1594.5
 30
0.0
 41
44.99999618530273
 42
44.99999618530273
 43
44.99999618530273
 50
90.0
  0
MTEXT
  5
559
330
552
100
AcDbEntity
  8
寸法
 62
     2
100
AcDbMText
 10
1364.750000089406
 20
1244.5
 30
0.0
 40
59.99999618530273
 41
0.0
 71
     5
 72
     1
  1
700
  7
EXCADDIM1
 11
0.0
 21
1.0
 31
0.0
  0
POINT
  5
55A
330
552
100
AcDbEntity
  8
DEFPOINTS
 62
     0
100
AcDbPoint
 10
1292.999999999998
 20
894.5
 30
0.0
  0
POINT
  5
55B
330
552
100
AcDbEntity
  8
DEFPOINTS
 62
     0
100
AcDbPoint
 10
1294.999999999998
 20
1594.5
 30
0.0
  0
POINT
  5
55C
330
552
100
AcDbEntity
  8
DEFPOINTS
 62
     0
100
AcDbPoint
 10
1399.999999999999
 20
1594.5
 30
0.0
  0
ENDBLK
  5
554
330
552
100
AcDbEntity
  8
0
100
AcDbBlockEnd
  0
BLOCK
  5
55F
330
55E
100
AcDbEntity
  8
0
100
AcDbBlockBegin
  2
*D20
 70
     1
 10
0.0
 20
0.0
 30
0.0
  3
*D20
  1

  0
LINE
  5
561
330
55E
100
AcDbEntity
  8
寸法
  6
CONTINUOUS
 62
     3
100
AcDbLine
 10
1200.499999821184
 20
1734.5
 30
0.0
 11
1414.999999999998
 21
1734.5
 31
0.0
  0
LINE
  5
562
330
55E
100
AcDbEntity
  8
寸法
  6
CONTINUOUS
 62
     3
100
AcDbLine
 10
1399.999999999998
 20
1639.499996185303
 30
0.0
 11
1399.999999999998
 21
1689.500003814697
 31
0.0
  0
INSERT
  5
563
330
55E
100
AcDbEntity
  8
寸法
 62
     3
100
AcDbBlockReference
  2
EX_NORM
 10
1399.999999999998
 20
1594.5
 30
0.0
 41
44.99999618530273
 42
44.99999618530273
 43
44.99999618530273
 50
270.0
  0
INSERT
  5
564
330
55E
100
AcDbEntity
  8
寸法
 62
     3
100
AcDbBlockReference
  2
EX_NORM
 10
1399.999999999998
 20
1734.5
 30
0.0
 41
44.99999618530273
 42
44.99999618530273
 43
44.99999618530273
 50
90.0
  0
MTEXT
  5
565
330
55E
100
AcDbEntity
  8
寸法
 62
     2
100
AcDbMText
 10
1364.750000089406
 20
1664.499999999999
 30
0.0
 40
59.99999618530273
 41
0.0
 71
     5
 72
     1
  1
140
  7
EXCADDIM1
 11
0.0
 21
1.0
 31
0.0
  0
POINT
  5
566
330
55E
100
AcDbEntity
  8
DEFPOINTS
 62
     0
100
AcDbPoint
 10
1294.999999999998
 20
1594.5
 30
0.0
  0
POINT
  5
567
330
55E
100
AcDbEntity
  8
DEFPOINTS
 62
     0
100
AcDbPoint
 10
1189.999999999998
 20
1734.5
 30
0.0
  0
POINT
  5
568
330
55E
100
AcDbEntity
  8
DEFPOINTS
 62
     0
100
AcDbPoint
 10
1399.999999999998
 20
1734.5
 30
0.0
  0
ENDBLK
  5
560
330
55E
100
AcDbEntity
  8
0
100
AcDbBlockEnd
  0
BLOCK
  5
56B
330
56A
100
AcDbEntity
  8
0
100
AcDbBlockBegin
  2
*D21
 70
     1
 10
0.0
 20
0.0
 30
0.0
  3
*D21
  1

  0
LINE
  5
56D
330
56A
100
AcDbEntity
  8
寸法
  6
CONTINUOUS
 62
     3
100
AcDbLine
 10
1200.499999821184
 20
1734.5
 30
0.0
 11
1505.0
 21
1734.5
 31
0.0
  0
LINE
  5
56E
330
56A
100
AcDbEntity
  8
寸法
  6
CONTINUOUS
 62
     3
100
AcDbLine
 10
1490.0
 20
939.4999961853028
 30
0.0
 11
1490.0
 21
1689.500003814697
 31
0.0
  0
INSERT
  5
56F
330
56A
100
AcDbEntity
  8
寸法
 62
     3
100
AcDbBlockReference
  2
EX_NORM
 10
1490.0
 20
894.5000000000001
 30
0.0
 41
44.99999618530273
 42
44.99999618530273
 43
44.99999618530273
 50
270.0
  0
INSERT
  5
570
330
56A
100
AcDbEntity
  8
寸法
 62
     3
100
AcDbBlockReference
  2
EX_NORM
 10
1490.0
 20
1734.5
 30
0.0
 41
44.99999618530273
 42
44.99999618530273
 43
44.99999618530273
 50
90.0
  0
MTEXT
  5
571
330
56A
100
AcDbEntity
  8
寸法
 62
     2
100
AcDbMText
 10
1454.750000089407
 20
1314.5
 30
0.0
 40
59.99999618530273
 41
0.0
 71
     5
 72
     1
  1
840
  7
EXCADDIM1
 11
0.0
 21
1.0
 31
0.0
  0
POINT
  5
572
330
56A
100
AcDbEntity
  8
DEFPOINTS
 62
     0
100
AcDbPoint
 10
1292.999999999998
 20
894.5
 30
0.0
  0
POINT
  5
573
330
56A
100
AcDbEntity
  8
DEFPOINTS
 62
     0
100
AcDbPoint
 10
1189.999999999998
 20
1734.5
 30
0.0
  0
POINT
  5
574
330
56A
100
AcDbEntity
  8
DEFPOINTS
 62
     0
100
AcDbPoint
 10
1490.0
 20
1734.5
 30
0.0
  0
ENDBLK
  5
56C
330
56A
100
AcDbEntity
  8
0
100
AcDbBlockEnd
  0
BLOCK
  5
584
330
583
100
AcDbEntity
  8
0
100
AcDbBlockBegin
  2
*D22
 70
     1
 10
0.0
 20
0.0
 30
0.0
  3
*D22
  1

  0
LINE
  5
586
330
583
100
AcDbEntity
  8
寸法
  6
CONTINUOUS
 62
     3
100
AcDbLine
 10
1230.499999821184
 20
2644.5
 30
0.0
 11
1348.499999999998
 21
2644.5
 31
0.0
  0
LINE
  5
587
330
583
100
AcDbEntity
  8
寸法
  6
CONTINUOUS
 62
     3
100
AcDbLine
 10
1230.499999821184
 20
2124.5
 30
0.0
 11
1348.499999999998
 21
2124.5
 31
0.0
  0
LINE
  5
588
330
583
100
AcDbEntity
  8
寸法
  6
CONTINUOUS
 62
     3
100
AcDbLine
 10
1333.499999999998
 20
2599.500003814697
 30
0.0
 11
1333.499999999998
 21
2169.499996185303
 31
0.0
  0
INSERT
  5
589
330
583
100
AcDbEntity
  8
寸法
 62
     3
100
AcDbBlockReference
  2
EX_NORM
 10
1333.499999999998
 20
2644.5
 30
0.0
 41
44.99999618530273
 42
44.99999618530273
 43
44.99999618530273
 50
90.0
  0
INSERT
  5
58A
330
583
100
AcDbEntity
  8
寸法
 62
     3
100
AcDbBlockReference
  2
EX_NORM
 10
1333.499999999998
 20
2124.5
 30
0.0
 41
44.99999618530273
 42
44.99999618530273
 43
44.99999618530273
 50
270.0
  0
MTEXT
  5
58B
330
583
100
AcDbEntity
  8
寸法
 62
     2
100
AcDbMText
 10
1298.250000089405
 20
2384.5
 30
0.0
 40
59.99999618530273
 41
0.0
 71
     5
 72
     1
  1
520
  7
EXCADDIM1
 11
0.0
 21
1.0
 31
0.0
  0
POINT
  5
58C
330
583
100
AcDbEntity
  8
DEFPOINTS
 62
     0
100
AcDbPoint
 10
1219.999999999998
 20
2644.5
 30
0.0
  0
POINT
  5
58D
330
583
100
AcDbEntity
  8
DEFPOINTS
 62
     0
100
AcDbPoint
 10
1219.999999999998
 20
2124.5
 30
0.0
  0
POINT
  5
58E
330
583
100
AcDbEntity
  8
DEFPOINTS
 62
     0
100
AcDbPoint
 10
1333.499999999998
 20
2124.5
 30
0.0
  0
ENDBLK
  5
585
330
583
100
AcDbEntity
  8
0
100
AcDbBlockEnd
  0
BLOCK
  5
59A
330
599
100
AcDbEntity
  8
0
100
AcDbBlockBegin
  2
*D23
 70
     1
 10
0.0
 20
0.0
 30
0.0
  3
*D23
  1

  0
LINE
  5
59C
330
599
100
AcDbEntity
  8
寸法
  6
CONTINUOUS
 62
     3
100
AcDbLine
 10
619.9999999999978
 20
2654.999999821186
 30
0.0
 11
619.9999999999978
 21
2806.5
 31
0.0
  0
LINE
  5
59D
330
599
100
AcDbEntity
  8
寸法
  6
CONTINUOUS
 62
     3
100
AcDbLine
 10
1219.999999999998
 20
2654.999999821186
 30
0.0
 11
1219.999999999998
 21
2806.5
 31
0.0
  0
LINE
  5
59E
330
599
100
AcDbEntity
  8
寸法
  6
CONTINUOUS
 62
     3
100
AcDbLine
 10
664.9999961853006
 20
2791.5
 30
0.0
 11
1175.000003814695
 21
2791.5
 31
0.0
  0
INSERT
  5
59F
330
599
100
AcDbEntity
  8
寸法
 62
     3
100
AcDbBlockReference
  2
EX_NORM
 10
619.9999999999978
 20
2791.5
 30
0.0
 41
44.99999618530273
 42
44.99999618530273
 43
44.99999618530273
 50
180.0
  0
INSERT
  5
5A0
330
599
100
AcDbEntity
  8
寸法
 62
     3
100
AcDbBlockReference
  2
EX_NORM
 10
1219.999999999998
 20
2791.5
 30
0.0
 41
44.99999618530273
 42
44.99999618530273
 43
44.99999618530273
  0
MTEXT
  5
5A1
330
599
100
AcDbEntity
  8
寸法
 62
     2
100
AcDbMText
 10
919.9999999999981
 20
2826.749999910593
 30
0.0
 40
59.99999618530273
 41
0.0
 71
     5
 72
     1
  1
600
  7
EXCADDIM1
  0
POINT
  5
5A2
330
599
100
AcDbEntity
  8
DEFPOINTS
 62
     0
100
AcDbPoint
 10
619.9999999999978
 20
2644.5
 30
0.0
  0
POINT
  5
5A3
330
599
100
AcDbEntity
  8
DEFPOINTS
 62
     0
100
AcDbPoint
 10
1219.999999999998
 20
2644.5
 30
0.0
  0
POINT
  5
5A4
330
599
100
AcDbEntity
  8
DEFPOINTS
 62
     0
100
AcDbPoint
 10
1219.999999999998
 20
2791.5
 30
0.0
  0
ENDBLK
  5
59B
330
599
100
AcDbEntity
  8
0
100
AcDbBlockEnd
  0
BLOCK
  5
5A7
330
5A6
100
AcDbEntity
  8
0
100
AcDbBlockBegin
  2
*D24
 70
     1
 10
0.0
 20
0.0
 30
0.0
  3
*D24
  1

  0
LINE
  5
5A9
330
5A6
100
AcDbEntity
  8
寸法
  6
CONTINUOUS
 62
     3
100
AcDbLine
 10
1230.499999821184
 20
2644.5
 30
0.0
 11
1594.999999999998
 21
2644.5
 31
0.0
  0
LINE
  5
5AA
330
5A6
100
AcDbEntity
  8
寸法
  6
CONTINUOUS
 62
     3
100
AcDbLine
 10
1579.999999999998
 20
939.4999961853027
 30
0.0
 11
1579.999999999998
 21
2599.500003814697
 31
0.0
  0
INSERT
  5
5AB
330
5A6
100
AcDbEntity
  8
寸法
 62
     3
100
AcDbBlockReference
  2
EX_NORM
 10
1579.999999999998
 20
894.5
 30
0.0
 41
44.99999618530273
 42
44.99999618530273
 43
44.99999618530273
 50
270.0
  0
INSERT
  5
5AC
330
5A6
100
AcDbEntity
  8
寸法
 62
     3
100
AcDbBlockReference
  2
EX_NORM
 10
1579.999999999998
 20
2644.5
 30
0.0
 41
44.99999618530273
 42
44.99999618530273
 43
44.99999618530273
 50
90.0
  0
MTEXT
  5
5AD
330
5A6
100
AcDbEntity
  8
寸法
 62
     2
100
AcDbMText
 10
1544.750000089406
 20
1769.5
 30
0.0
 40
59.99999618530273
 41
0.0
 71
     5
 72
     1
  1
（1750）
  7
EXCADDIM1
 11
0.0
 21
1.0
 31
0.0
  0
POINT
  5
5AE
330
5A6
100
AcDbEntity
  8
DEFPOINTS
 62
     0
100
AcDbPoint
 10
1292.999999999998
 20
894.5
 30
0.0
  0
POINT
  5
5AF
330
5A6
100
AcDbEntity
  8
DEFPOINTS
 62
     0
100
AcDbPoint
 10
1219.999999999998
 20
2644.5
 30
0.0
  0
POINT
  5
5B0
330
5A6
100
AcDbEntity
  8
DEFPOINTS
 62
     0
100
AcDbPoint
 10
1579.999999999998
 20
2644.5
 30
0.0
  0
ENDBLK
  5
5A8
330
5A6
100
AcDbEntity
  8
0
100
AcDbBlockEnd
  0
BLOCK
  5
5B3
330
5B2
100
AcDbEntity
  8
0
100
AcDbBlockBegin
  2
*D25
 70
     1
 10
0.0
 20
0.0
 30
0.0
  3
*D25
  1

  0
LINE
  5
5B5
330
5B2
100
AcDbEntity
  8
寸法
  6
CONTINUOUS
 62
     3
100
AcDbLine
 10
2348.299999999997
 20
2656.199999821186
 30
0.0
 11
2348.299999999997
 21
2719.5
 31
0.0
  0
LINE
  5
5B6
330
5B2
100
AcDbEntity
  8
寸法
  6
CONTINUOUS
 62
     3
100
AcDbLine
 10
2348.299999999997
 20
2704.5
 30
0.0
 11
2385.499999999998
 21
2704.5
 31
0.0
  0
LINE
  5
5B7
330
5B2
100
AcDbEntity
  8
寸法
  6
CONTINUOUS
 62
     3
100
AcDbLine
 10
2303.300003814695
 20
2704.5
 30
0.0
 11
2258.300007629392
 21
2704.5
 31
0.0
  0
LINE
  5
5B8
330
5B2
100
AcDbEntity
  8
寸法
  6
CONTINUOUS
 62
     3
100
AcDbLine
 10
2430.499996185301
 20
2704.5
 30
0.0
 11
2475.499992370604
 21
2704.5
 31
0.0
  0
INSERT
  5
5B9
330
5B2
100
AcDbEntity
  8
寸法
 62
     3
100
AcDbBlockReference
  2
EX_NORM
 10
2348.299999999997
 20
2704.5
 30
0.0
 41
44.99999618530273
 42
44.99999618530273
 43
44.99999618530273
  0
INSERT
  5
5BA
330
5B2
100
AcDbEntity
  8
寸法
 62
     3
100
AcDbBlockReference
  2
EX_NORM
 10
2385.499999999998
 20
2704.5
 30
0.0
 41
44.99999618530273
 42
44.99999618530273
 43
44.99999618530273
 50
180.0
  0
MTEXT
  5
5BB
330
5B2
100
AcDbEntity
  8
寸法
 62
     2
100
AcDbMText
 10
2250.799999999997
 20
2739.749999910593
 30
0.0
 40
59.99999618530273
 41
0.0
 71
     5
 72
     1
  1
38
  7
EXCADDIM1
  0
POINT
  5
5BC
330
5B2
100
AcDbEntity
  8
DEFPOINTS
 62
     0
100
AcDbPoint
 10
2348.299999999997
 20
2645.7
 30
0.0
  0
POINT
  5
5BD
330
5B2
100
AcDbEntity
  8
DEFPOINTS
 62
     0
100
AcDbPoint
 10
2385.499999999998
 20
2643.5
 30
0.0
  0
POINT
  5
5BE
330
5B2
100
AcDbEntity
  8
DEFPOINTS
 62
     0
100
AcDbPoint
 10
2385.499999999998
 20
2704.5
 30
0.0
  0
ENDBLK
  5
5B4
330
5B2
100
AcDbEntity
  8
0
100
AcDbBlockEnd
  0
BLOCK
  5
5CA
330
5C9
100
AcDbEntity
  8
0
100
AcDbBlockBegin
  2
*D26
 70
     1
 10
0.0
 20
0.0
 30
0.0
  3
*D26
  1

  0
LINE
  5
5CC
330
5C9
100
AcDbEntity
  8
寸法
  6
CONTINUOUS
 62
     3
100
AcDbLine
 10
2383.499999821184
 20
2644.5
 30
0.0
 11
2520.5
 21
2644.5
 31
0.0
  0
LINE
  5
5CD
330
5C9
100
AcDbEntity
  8
寸法
  6
CONTINUOUS
 62
     3
100
AcDbLine
 10
2428.499999821186
 20
2584.480762113501
 30
0.0
 11
2520.5
 21
2584.480762113501
 31
0.0
  0
LINE
  5
5CE
330
5C9
100
AcDbEntity
  8
寸法
  6
CONTINUOUS
 62
     3
100
AcDbLine
 10
2505.5
 20
2644.5
 30
0.0
 11
2505.5
 21
2584.480762113501
 31
0.0
  0
LINE
  5
5CF
330
5C9
100
AcDbEntity
  8
寸法
  6
CONTINUOUS
 62
     3
100
AcDbLine
 10
2505.5
 20
2689.499996185303
 30
0.0
 11
2505.5
 21
2734.499992370605
 31
0.0
  0
LINE
  5
5D0
330
5C9
100
AcDbEntity
  8
寸法
  6
CONTINUOUS
 62
     3
100
AcDbLine
 10
2505.5
 20
2539.480765928198
 30
0.0
 11
2505.5
 21
2494.480769742895
 31
0.0
  0
INSERT
  5
5D1
330
5C9
100
AcDbEntity
  8
寸法
 62
     3
100
AcDbBlockReference
  2
EX_NORM
 10
2505.5
 20
2644.5
 30
0.0
 41
44.99999618530273
 42
44.99999618530273
 43
44.99999618530273
 50
270.0
  0
INSERT
  5
5D2
330
5C9
100
AcDbEntity
  8
寸法
 62
     3
100
AcDbBlockReference
  2
EX_NORM
 10
2505.5
 20
2584.480762113501
 30
0.0
 41
44.99999618530273
 42
44.99999618530273
 43
44.99999618530273
 50
90.0
  0
MTEXT
  5
5D3
330
5C9
100
AcDbEntity
  8
寸法
 62
     2
100
AcDbMText
 10
2470.250000089407
 20
2742.0
 30
0.0
 40
59.99999618530273
 41
0.0
 71
     5
 72
     1
  1
60
  7
EXCADDIM1
 11
0.0
 21
1.0
 31
0.0
  0
POINT
  5
5D4
330
5C9
100
AcDbEntity
  8
DEFPOINTS
 62
     0
100
AcDbPoint
 10
2372.999999999998
 20
2644.5
 30
0.0
  0
POINT
  5
5D5
330
5C9
100
AcDbEntity
  8
DEFPOINTS
 62
     0
100
AcDbPoint
 10
2418.0
 20
2584.480762113501
 30
0.0
  0
POINT
  5
5D6
330
5C9
100
AcDbEntity
  8
DEFPOINTS
 62
     0
100
AcDbPoint
 10
2505.5
 20
2584.480762113501
 30
0.0
  0
ENDBLK
  5
5CB
330
5C9
100
AcDbEntity
  8
0
100
AcDbBlockEnd
  0
BLOCK
  5
5D9
330
5D8
100
AcDbEntity
  8
0
100
AcDbBlockBegin
  2
*D27
 70
     1
 10
0.0
 20
0.0
 30
0.0
  3
*D27
  1

  0
LINE
  5
5DB
330
5D8
100
AcDbEntity
  8
寸法
  6
CONTINUOUS
 62
     3
100
AcDbLine
 10
2395.999999821184
 20
894.5
 30
0.0
 11
2865.5
 21
894.5
 31
0.0
  0
LINE
  5
5DC
330
5D8
100
AcDbEntity
  8
寸法
  6
CONTINUOUS
 62
     3
100
AcDbLine
 10
2428.499999821186
 20
2144.5
 30
0.0
 11
2865.5
 21
2144.5
 31
0.0
  0
LINE
  5
5DD
330
5D8
100
AcDbEntity
  8
寸法
  6
CONTINUOUS
 62
     3
100
AcDbLine
 10
2850.5
 20
939.4999961853027
 30
0.0
 11
2850.5
 21
2099.500003814697
 31
0.0
  0
INSERT
  5
5DE
330
5D8
100
AcDbEntity
  8
寸法
 62
     3
100
AcDbBlockReference
  2
EX_NORM
 10
2850.5
 20
894.5
 30
0.0
 41
44.99999618530273
 42
44.99999618530273
 43
44.99999618530273
 50
270.0
  0
INSERT
  5
5DF
330
5D8
100
AcDbEntity
  8
寸法
 62
     3
100
AcDbBlockReference
  2
EX_NORM
 10
2850.5
 20
2144.5
 30
0.0
 41
44.99999618530273
 42
44.99999618530273
 43
44.99999618530273
 50
90.0
  0
MTEXT
  5
5E0
330
5D8
100
AcDbEntity
  8
寸法
 62
     2
100
AcDbMText
 10
2815.250000089407
 20
1519.5
 30
0.0
 40
59.99999618530273
 41
0.0
 71
     5
 72
     1
  1
（1250）
  7
EXCADDIM1
 11
0.0
 21
1.0
 31
0.0
  0
POINT
  5
5E1
330
5D8
100
AcDbEntity
  8
DEFPOINTS
 62
     0
100
AcDbPoint
 10
2385.499999999998
 20
894.5
 30
0.0
  0
POINT
  5
5E2
330
5D8
100
AcDbEntity
  8
DEFPOINTS
 62
     0
100
AcDbPoint
 10
2418.0
 20
2144.5
 30
0.0
  0
POINT
  5
5E3
330
5D8
100
AcDbEntity
  8
DEFPOINTS
 62
     0
100
AcDbPoint
 10
2850.5
 20
2144.5
 30
0.0
  0
ENDBLK
  5
5DA
330
5D8
100
AcDbEntity
  8
0
100
AcDbBlockEnd
  0
ENDSEC
  0
SECTION
  2
ENTITIES
  0
CIRCLE
  5
A9
330
1F
100
AcDbEntity
  8
枠_表
  6
CONTINUOUS
 62
     6
100
AcDbCircle
 10
28.00000000000001
 20
15.0
 30
0.0
 40
0.10000002
  0
CIRCLE
  5
AA
330
1F
100
AcDbEntity
  8
枠_表
  6
CONTINUOUS
 62
     6
100
AcDbCircle
 10
23.00000000000001
 20
15.0
 30
0.0
 40
0.10000002
  0
TEXT
  5
AC
330
1F
100
AcDbEntity
  8
枠_表
  6
CONTINUOUS
 62
     2
100
AcDbText
 10
76.99999999999996
 20
14.5
 30
0.0
 40
4.5
  1
ジャニス工業株式会社
 41
1.025641025641025
  7
EXCADTTF1
 72
     5
 11
136.9999999999999
 21
14.5
 31
0.0
100
AcDbText
  0
TEXT
  5
AD
330
1F
100
AcDbEntity
  8
枠_表
  6
CONTINUOUS
 62
     2
100
AcDbText
 10
156.0000000000001
 20
272.25
 30
0.0
 40
4.0
  1
洗面化粧台
 41
1.086206896551724
  7
EXCADSTD
 72
     5
 11
174.0000000000001
 21
272.25
 31
0.0
100
AcDbText
  0
TEXT
  5
AE
330
1F
100
AcDbEntity
  8
枠_表
  6
CONTINUOUS
 62
     2
100
AcDbText
 10
168.0
 20
277.75
 30
0.0
 40
4.0
  1
品名
 41
2.041518181818183
  7
EXCADSTD
 72
     5
 11
180.8324
 21
277.75
 31
0.0
100
AcDbText
  0
LINE
  5
AF
330
1F
100
AcDbEntity
  8
枠_表
  6
CONTINUOUS
 62
     6
100
AcDbLine
 10
124.9999999999999
 20
277.0
 30
0.0
 11
195.0
 21
277.0
 31
0.0
  0
LINE
  5
B0
330
1F
100
AcDbEntity
  8
枠_表
  6
CONTINUOUS
 62
     6
100
AcDbLine
 10
124.9999999999999
 20
282.5
 30
0.0
 11
195.0
 21
282.5
 31
0.0
  0
TEXT
  5
B1
330
1F
100
AcDbEntity
  8
枠_表
  6
CONTINUOUS
 62
     2
100
AcDbText
 10
139.5749999999998
 20
13.27499999999998
 30
0.0
 40
4.25
  1
番
 41
1.120000000000002
  7
EXCADSTD
 72
     5
 11
142.9749999999999
 21
13.27499999999998
 31
0.0
100
AcDbText
  0
TEXT
  5
B2
330
1F
100
AcDbEntity
  8
枠_表
  6
CONTINUOUS
 62
     2
100
AcDbText
 10
139.5749999999998
 20
17.57500000000005
 30
0.0
 40
4.25
  1
図
 41
1.120000000000002
  7
EXCADSTD
 72
     5
 11
142.9749999999999
 21
17.57500000000005
 31
0.0
100
AcDbText
  0
TEXT
  5
B3
330
1F
100
AcDbEntity
  8
枠_表
  6
CONTINUOUS
 62
     2
100
AcDbText
 10
181.675
 20
23.875
 30
0.0
 40
4.25
  1
度
 41
1.120000000000002
  7
EXCADSTD
 72
     5
 11
185.075
 21
23.875
 31
0.0
100
AcDbText
  0
TEXT
  5
B4
330
1F
100
AcDbEntity
  8
枠_表
  6
CONTINUOUS
 62
     2
100
AcDbText
 10
181.675
 20
28.875
 30
0.0
 40
4.25
  1
尺
 41
1.120000000000002
  7
EXCADSTD
 72
     5
 11
185.075
 21
28.875
 31
0.0
100
AcDbText
  0
TEXT
  5
B5
330
1F
100
AcDbEntity
  8
枠_表
  6
CONTINUOUS
 62
     2
100
AcDbText
 10
139.5749999999998
 20
23.875
 30
0.0
 40
4.25
  1
番
 41
1.120000000000002
  7
EXCADSTD
 72
     5
 11
142.9749999999999
 21
23.875
 31
0.0
100
AcDbText
  0
TEXT
  5
B6
330
1F
100
AcDbEntity
  8
枠_表
  6
CONTINUOUS
 62
     2
100
AcDbText
 10
139.5749999999998
 20
28.875
 30
0.0
 40
4.25
  1
品
 41
1.120000000000002
  7
EXCADSTD
 72
     5
 11
142.9749999999999
 21
28.875
 31
0.0
100
AcDbText
  0
TEXT
  5
B7
330
1F
100
AcDbEntity
  8
枠_表
  6
CONTINUOUS
 62
     2
100
AcDbText
 10
75.5749999999999
 20
23.875
 30
0.0
 40
4.25
  1
名
 41
1.120000000000002
  7
EXCADSTD
 72
     5
 11
78.97499999999991
 21
23.875
 31
0.0
100
AcDbText
  0
TEXT
  5
B8
330
1F
100
AcDbEntity
  8
枠_表
  6
CONTINUOUS
 62
     2
100
AcDbText
 10
75.5749999999999
 20
28.875
 30
0.0
 40
4.25
  1
品
 41
1.120000000000002
  7
EXCADSTD
 72
     5
 11
78.97499999999991
 21
28.875
 31
0.0
100
AcDbText
  0
TEXT
  5
B9
330
1F
100
AcDbEntity
  8
枠_表
  6
CONTINUOUS
 62
     2
100
AcDbText
 10
63.74999999999991
 20
29.875
 30
0.0
 40
4.25
  1
承認
 41
1.303826737967915
  7
EXCADSTD
 72
     5
 11
72.45769999999992
 21
29.875
 31
0.0
100
AcDbText
  0
TEXT
  5
BA
330
1F
100
AcDbEntity
  8
枠_表
  6
CONTINUOUS
 62
     2
100
AcDbText
 10
50.74999999999991
 20
29.875
 30
0.0
 40
4.25
  1
検図
 41
1.303826737967915
  7
EXCADSTD
 72
     5
 11
59.45769999999992
 21
29.875
 31
0.0
100
AcDbText
  0
TEXT
  5
BB
330
1F
100
AcDbEntity
  8
枠_表
  6
CONTINUOUS
 62
     2
100
AcDbText
 10
35.74999999999997
 20
29.875
 30
0.0
 40
4.25
  1
写図
 41
1.509694117647059
  7
EXCADSTD
 72
     5
 11
45.83259999999997
 21
29.875
 31
0.0
100
AcDbText
  0
TEXT
  5
BC
330
1F
100
AcDbEntity
  8
枠_表
  6
CONTINUOUS
 62
     2
100
AcDbText
 10
20.25000000000001
 20
29.875
 30
0.0
 40
4.25
  1
製図
 41
1.509694117647059
  7
EXCADSTD
 72
     5
 11
30.33260000000001
 21
29.875
 31
0.0
100
AcDbText
  0
TEXT
  5
BD
330
1F
100
AcDbEntity
  8
枠_表
  6
CONTINUOUS
 62
     2
100
AcDbText
 10
193.12792969
 20
24.83488463999993
 30
0.0
 40
3.0
  1
１５
 41
1.098531230663534
  7
EXCADSTD
 72
     5
 11
198.3067197774138
 21
24.83488463999993
 31
0.0
100
AcDbText
  0
TEXT
  5
BE
330
1F
100
AcDbEntity
  8
枠_表
  6
CONTINUOUS
 62
     2
100
AcDbText
 10
189.05371094
 20
29.27227783000001
 30
0.0
 40
3.0
  1
１
 41
1.101333351135257
  7
EXCADSTD
 72
     5
 11
191.413710978147
 21
29.27227783000001
 31
0.0
100
AcDbText
  0
LINE
  5
BF
330
1F
100
AcDbEntity
  8
枠_表
  6
EXLTYPE2
 62
     6
100
AcDbLine
 10
18.00000000000001
 20
17.5
 30
0.0
 11
48.99999999999991
 21
17.5
 31
0.0
  0
CIRCLE
  5
C0
330
1F
100
AcDbEntity
  8
枠_表
  6
CONTINUOUS
 62
     6
100
AcDbCircle
 10
43.49999999999997
 20
15.0
 30
0.0
 40
0.10000002
  0
CIRCLE
  5
C1
330
1F
100
AcDbEntity
  8
枠_表
  6
CONTINUOUS
 62
     6
100
AcDbCircle
 10
38.49999999999997
 20
15.0
 30
0.0
 40
0.10000002
  0
LINE
  5
C2
330
1F
100
AcDbEntity
  8
枠_表
  6
CONTINUOUS
 62
     6
100
AcDbLine
 10
189.2653808599999
 20
24.80029296999999
 30
0.0
 11
196.99938965
 21
32.66998291000004
 31
0.0
  0
LINE
  5
C3
330
1F
100
AcDbEntity
  8
枠_表
  6
CONTINUOUS
 62
     6
100
AcDbLine
 10
18.00000000000001
 20
29.5
 30
0.0
 11
74.99999999999991
 21
29.5
 31
0.0
  0
LINE
  5
C4
330
1F
100
AcDbEntity
  8
枠_表
  6
CONTINUOUS
 62
     6
100
AcDbLine
 10
33.49999999999997
 20
34.5
 30
0.0
 11
33.49999999999997
 21
12.5
 31
0.0
  0
LINE
  5
C5
330
1F
100
AcDbEntity
  8
枠_表
  6
CONTINUOUS
 62
     6
100
AcDbLine
 10
48.99999999999991
 20
34.5
 30
0.0
 11
48.99999999999991
 21
12.5
 31
0.0
  0
LINE
  5
C6
330
1F
100
AcDbEntity
  8
枠_表
  6
CONTINUOUS
 62
     6
100
AcDbLine
 10
61.99999999999991
 20
34.5
 30
0.0
 11
61.99999999999991
 21
12.5
 31
0.0
  0
LINE
  5
C7
330
1F
100
AcDbEntity
  8
枠_表
  6
CONTINUOUS
 62
     6
100
AcDbLine
 10
74.99999999999991
 20
34.5
 30
0.0
 11
74.99999999999991
 21
12.5
 31
0.0
  0
LINE
  5
C8
330
1F
100
AcDbEntity
  8
枠_表
  6
CONTINUOUS
 62
     6
100
AcDbLine
 10
79.99999999999991
 20
34.5
 30
0.0
 11
79.99999999999991
 21
22.5
 31
0.0
  0
LINE
  5
C9
330
1F
100
AcDbEntity
  8
枠_表
  6
CONTINUOUS
 62
     6
100
AcDbLine
 10
138.9999999999999
 20
34.5
 30
0.0
 11
138.9999999999999
 21
12.5
 31
0.0
  0
LINE
  5
CA
330
1F
100
AcDbEntity
  8
枠_表
  6
CONTINUOUS
 62
     6
100
AcDbLine
 10
143.9999999999999
 20
34.5
 30
0.0
 11
143.9999999999999
 21
12.5
 31
0.0
  0
LINE
  5
CB
330
1F
100
AcDbEntity
  8
枠_表
  6
CONTINUOUS
 62
     6
100
AcDbLine
 10
181.0
 20
34.5
 30
0.0
 11
181.0
 21
22.5
 31
0.0
  0
LINE
  5
CC
330
1F
100
AcDbEntity
  8
枠_表
  6
CONTINUOUS
 62
     6
100
AcDbLine
 10
186.0
 20
34.5
 30
0.0
 11
186.0
 21
22.5
 31
0.0
  0
LINE
  5
CD
330
1F
100
AcDbEntity
  8
枠_表
  6
CONTINUOUS
 62
     6
100
AcDbLine
 10
200.0
 20
22.5
 30
0.0
 11
74.99999999999991
 21
22.5
 31
0.0
  0
LINE
  5
CE
330
1F
100
AcDbEntity
  8
枠_表
  6
CONTINUOUS
 62
     7
100
AcDbLine
 10
18.00000000000001
 20
34.5
 30
0.0
 11
200.0
 21
34.5
 31
0.0
  0
LINE
  5
CF
330
1F
100
AcDbEntity
  8
枠_表
  6
CONTINUOUS
 62
     7
100
AcDbLine
 10
18.00000000000001
 20
287.5
 30
0.0
 11
200.0
 21
287.5
 31
0.0
  0
LINE
  5
D0
330
1F
100
AcDbEntity
  8
枠_表
  6
CONTINUOUS
 62
     7
100
AcDbLine
 10
18.00000000000001
 20
12.5
 30
0.0
 11
18.00000000000001
 21
287.5
 31
0.0
  0
LINE
  5
D1
330
1F
100
AcDbEntity
  8
枠_表
  6
CONTINUOUS
 62
     7
100
AcDbLine
 10
200.0
 20
12.5
 30
0.0
 11
200.0
 21
287.5
 31
0.0
  0
LINE
  5
D2
330
1F
100
AcDbEntity
  8
枠_表
  6
CONTINUOUS
 62
     7
100
AcDbLine
 10
18.00000000000001
 20
12.5
 30
0.0
 11
200.0
 21
12.5
 31
0.0
  0
LINE
  5
D3
330
1F
100
AcDbEntity
  8
枠_表
  6
EXLTYPE2
 62
     6
100
AcDbLine
 10
18.0
 20
150.0
 30
0.0
 11
0.0
 21
150.0
 31
0.0
  0
TEXT
  5
D4
330
1F
100
AcDbEntity
  8
枠_表
  6
CONTINUOUS
 62
     2
100
AcDbText
 10
80.99999999999986
 20
28.5
 30
0.0
 40
5.0
  1
750㎜幅
 41
0.8693548387096776
  7
EXCADSTD
 72
     5
 11
100.2499999999999
 21
28.5
 31
0.0
100
AcDbText
  0
TEXT
  5
D5
330
1F
100
AcDbEntity
  8
枠_表
  6
CONTINUOUS
 62
     2
100
AcDbText
 10
80.99999999999986
 20
23.5
 30
0.0
 40
5.0
  1
　洗面化粧ユニット
 41
1.307547169811321
  7
EXCADSTD
 72
     5
 11
130.4999999999999
 21
23.5
 31
0.0
100
AcDbText
  0
LINE
  5
D6
330
1F
100
AcDbEntity
  8
枠_表
  6
CONTINUOUS
 62
     6
100
AcDbLine
 10
124.9999999999998
 20
266.0
 30
0.0
 11
195.0000000000001
 21
266.0
 31
0.0
  0
TEXT
  5
D7
330
1F
100
AcDbEntity
  8
枠_表
  6
CONTINUOUS
 62
     2
100
AcDbText
 10
156.0
 20
266.75
 30
0.0
 40
4.0
  1
化粧鏡
 41
1.132352941176471
  7
EXCADSTD
 72
     5
 11
167.0
 21
266.75
 31
0.0
100
AcDbText
  0
TEXT
  5
D8
330
1F
100
AcDbEntity
  8
枠_表
  6
CONTINUOUS
 62
     2
100
AcDbText
 10
125.9999999999998
 20
266.75
 30
0.0
 40
4.0
  1
ＬＵＭ６０２ＣＳ
 41
0.8340425500844383
  7
EXCADSTD
 72
     5
 11
148.3999999165533
 21
266.75
 31
0.0
100
AcDbText
  0
TEXT
  5
D9
330
1F
100
AcDbEntity
  8
枠_表
  6
CONTINUOUS
 62
     2
100
AcDbText
 10
161.0000000000001
 20
228.25
 30
0.0
 40
4.0
  1
配管アダプター
 41
1.067073170731707
  7
EXCADSTD
 72
     5
 11
186.0000000000001
 21
228.25
 31
0.0
100
AcDbText
  0
TEXT
  5
DA
330
1F
100
AcDbEntity
  8
枠_表
  6
CONTINUOUS
 62
     2
100
AcDbText
 10
161.0000000000001
 20
217.25
 30
0.0
 40
4.0
  1
ストレート形止水栓
 41
1.056603773584906
  7
EXCADSTD
 72
     5
 11
193.0000000000001
 21
217.25
 31
0.0
100
AcDbText
  0
TEXT
  5
DB
330
1F
100
AcDbEntity
  8
枠_表
  6
CONTINUOUS
 62
     2
100
AcDbText
 10
170.5000000000001
 20
250.25
 30
0.0
 40
4.0
  1
品名
 41
2.041518181818183
  7
EXCADSTD
 72
     5
 11
183.3324000000001
 21
250.25
 31
0.0
100
AcDbText
  0
TEXT
  5
DC
330
1F
100
AcDbEntity
  8
枠_表
  6
CONTINUOUS
 62
     2
100
AcDbText
 10
135.4999999999999
 20
250.25
 30
0.0
 40
4.0
  1
品番
 41
2.041518181818183
  7
EXCADSTD
 72
     5
 11
148.3323999999999
 21
250.25
 31
0.0
100
AcDbText
  0
TEXT
  5
DD
330
1F
100
AcDbEntity
  8
枠_表
  6
CONTINUOUS
 62
     2
100
AcDbText
 10
161.0000000000001
 20
222.75
 30
0.0
 40
4.0
  1
アングル形止水栓
 41
1.061170212765957
  7
EXCADSTD
 72
     5
 11
189.5000000000001
 21
222.75
 31
0.0
100
AcDbText
  0
TEXT
  5
DE
330
1F
100
AcDbEntity
  8
枠_表
  6
CONTINUOUS
 62
     2
100
AcDbText
 10
161.0000000000001
 20
233.75
 30
0.0
 40
4.0
  1
ボトルトラップ
 41
1.067073170731707
  7
EXCADSTD
 72
     5
 11
186.0000000000001
 21
233.75
 31
0.0
100
AcDbText
  0
TEXT
  5
DF
330
1F
100
AcDbEntity
  8
枠_表
  6
CONTINUOUS
 62
     2
100
AcDbText
 10
161.0000000000001
 20
239.25
 30
0.0
 40
4.0
  1
Ｓトラップ
 41
1.086206896551724
  7
EXCADSTD
 72
     5
 11
179.0000000000001
 21
239.25
 31
0.0
100
AcDbText
  0
TEXT
  5
E0
330
1F
100
AcDbEntity
  8
枠_表
  6
CONTINUOUS
 62
     2
100
AcDbText
 10
161.0000000000001
 20
244.75
 30
0.0
 40
4.0
  1
Ｐトラップ
 41
1.086206896551724
  7
EXCADSTD
 72
     5
 11
179.0000000000001
 21
244.75
 31
0.0
100
AcDbText
  0
LINE
  5
E1
330
1F
100
AcDbEntity
  8
枠_表
  6
CONTINUOUS
 62
     6
100
AcDbLine
 10
159.9999999999999
 20
216.5
 30
0.0
 11
159.9999999999999
 21
255.0
 31
0.0
  0
TEXT
  5
E2
330
1F
100
AcDbEntity
  8
枠_表
  6
CONTINUOUS
 62
     2
100
AcDbText
 10
125.9999999999999
 20
217.25
 30
0.0
 40
4.0
  1
ＮＬ２１１－３７５ＷＹ
 41
0.8211538429443651
  7
EXCADSTD
 72
     5
 11
156.4999998807906
 21
217.25
 31
0.0
100
AcDbText
  0
TEXT
  5
E3
330
1F
100
AcDbEntity
  8
枠_表
  6
CONTINUOUS
 62
     2
100
AcDbText
 10
125.9999999999999
 20
222.75
 30
0.0
 40
4.0
  1
ＮＬ２２１－７５ＷＭＹ
 41
0.8211538429443651
  7
EXCADSTD
 72
     5
 11
156.4999998807906
 21
222.75
 31
0.0
100
AcDbText
  0
TEXT
  5
E4
330
1F
100
AcDbEntity
  8
枠_表
  6
CONTINUOUS
 62
     2
100
AcDbText
 10
125.9999999999999
 20
233.75
 30
0.0
 40
4.0
  1
Ｐ２２３２
 41
0.8629310316052923
  7
EXCADSTD
 72
     5
 11
140.2999999523162
 21
233.75
 31
0.0
100
AcDbText
  0
TEXT
  5
E5
330
1F
100
AcDbEntity
  8
枠_表
  6
CONTINUOUS
 62
     2
100
AcDbText
 10
125.9999999999999
 20
239.25
 30
0.0
 40
4.0
  1
Ｐ２２３３
 41
0.8629310316052923
  7
EXCADSTD
 72
     5
 11
140.2999999523162
 21
239.25
 31
0.0
100
AcDbText
  0
TEXT
  5
E6
330
1F
100
AcDbEntity
  8
枠_表
  6
CONTINUOUS
 62
     2
100
AcDbText
 10
125.9999999999999
 20
244.75
 30
0.0
 40
4.0
  1
Ｐ２２３４
 41
0.8629310316052923
  7
EXCADSTD
 72
     5
 11
140.2999999523162
 21
244.75
 31
0.0
100
AcDbText
  0
LINE
  5
E7
330
1F
100
AcDbEntity
  8
枠_表
  6
CONTINUOUS
 62
     6
100
AcDbLine
 10
195.0
 20
216.5
 30
0.0
 11
195.0
 21
255.0
 31
0.0
  0
LINE
  5
E8
330
1F
100
AcDbEntity
  8
枠_表
  6
CONTINUOUS
 62
     6
100
AcDbLine
 10
124.9999999999999
 20
216.5
 30
0.0
 11
124.9999999999999
 21
255.0
 31
0.0
  0
LINE
  5
E9
330
1F
100
AcDbEntity
  8
枠_表
  6
CONTINUOUS
 62
     6
100
AcDbLine
 10
124.9999999999999
 20
216.5
 30
0.0
 11
195.0
 21
216.5
 31
0.0
  0
LINE
  5
EA
330
1F
100
AcDbEntity
  8
枠_表
  6
CONTINUOUS
 62
     6
100
AcDbLine
 10
124.9999999999999
 20
222.0
 30
0.0
 11
195.0
 21
222.0
 31
0.0
  0
LINE
  5
EB
330
1F
100
AcDbEntity
  8
枠_表
  6
CONTINUOUS
 62
     6
100
AcDbLine
 10
124.9999999999999
 20
227.5
 30
0.0
 11
195.0
 21
227.5
 31
0.0
  0
LINE
  5
EC
330
1F
100
AcDbEntity
  8
枠_表
  6
CONTINUOUS
 62
     6
100
AcDbLine
 10
124.9999999999999
 20
233.0
 30
0.0
 11
195.0
 21
233.0
 31
0.0
  0
LINE
  5
ED
330
1F
100
AcDbEntity
  8
枠_表
  6
CONTINUOUS
 62
     6
100
AcDbLine
 10
124.9999999999999
 20
238.5
 30
0.0
 11
195.0
 21
238.5
 31
0.0
  0
LINE
  5
EE
330
1F
100
AcDbEntity
  8
枠_表
  6
CONTINUOUS
 62
     6
100
AcDbLine
 10
124.9999999999999
 20
244.0
 30
0.0
 11
195.0
 21
244.0
 31
0.0
  0
LINE
  5
EF
330
1F
100
AcDbEntity
  8
枠_表
  6
CONTINUOUS
 62
     6
100
AcDbLine
 10
124.9999999999999
 20
249.5
 30
0.0
 11
195.0
 21
249.5
 31
0.0
  0
LINE
  5
F0
330
1F
100
AcDbEntity
  8
枠_表
  6
CONTINUOUS
 62
     6
100
AcDbLine
 10
124.9999999999999
 20
255.0
 30
0.0
 11
195.0
 21
255.0
 31
0.0
  0
TEXT
  5
F1
330
1F
100
AcDbEntity
  8
枠_表
  6
CONTINUOUS
 62
     2
100
AcDbText
 10
125.3999999999999
 20
256.0
 30
0.0
 40
4.0
  1
※選択部材（別途手配）
 41
0.9692307660212882
  7
EXCADSTD
 72
     5
 11
161.3999998807906
 21
256.0
 31
0.0
100
AcDbText
  0
LINE
  5
F2
330
1F
100
AcDbEntity
  8
枠_表
  6
CONTINUOUS
 62
     6
100
AcDbLine
 10
124.9999999999999
 20
271.5
 30
0.0
 11
195.0
 21
271.5
 31
0.0
  0
LINE
  5
F3
330
1F
100
AcDbEntity
  8
枠_表
  6
CONTINUOUS
 62
     6
100
AcDbLine
 10
124.9999999999999
 20
266.0
 30
0.0
 11
124.9999999999999
 21
282.5
 31
0.0
  0
LINE
  5
F4
330
1F
100
AcDbEntity
  8
枠_表
  6
CONTINUOUS
 62
     6
100
AcDbLine
 10
154.9999999999999
 20
266.0
 30
0.0
 11
154.9999999999999
 21
282.5
 31
0.0
  0
LINE
  5
F5
330
1F
100
AcDbEntity
  8
枠_表
  6
CONTINUOUS
 62
     6
100
AcDbLine
 10
195.0
 20
266.0
 30
0.0
 11
195.0
 21
282.5
 31
0.0
  0
TEXT
  5
F6
330
1F
100
AcDbEntity
  8
枠_表
  6
CONTINUOUS
 62
     2
100
AcDbText
 10
125.9999999999999
 20
228.25
 30
0.0
 40
4.0
  1
ＬＵＭＥＨ７０－２０－３２Ｂ
 41
0.6662650569734804
  7
EXCADSTD
 72
     5
 11
157.5999998450278
 21
228.25
 31
0.0
100
AcDbText
  0
TEXT
  5
F7
330
1F
100
AcDbEntity
  8
枠_表
  6
CONTINUOUS
 62
     2
100
AcDbText
 10
132.9999999999999
 20
277.75
 30
0.0
 40
4.0
  1
品番
 41
2.041518181818183
  7
EXCADSTD
 72
     5
 11
145.8323999999999
 21
277.75
 31
0.0
100
AcDbText
  0
TEXT
  5
F8
330
1F
100
AcDbEntity
  8
枠_表
  6
CONTINUOUS
 62
     2
100
AcDbText
 10
125.9999999999999
 20
272.25
 30
0.0
 40
4.0
  1
ＬＵ７５３ＴＳＤＲ
 41
0.8287735817567354
  7
EXCADSTD
 72
     5
 11
151.0999999046325
 21
272.25
 31
0.0
100
AcDbText
  0
TEXT
  5
F9
330
1F
100
AcDbEntity
  8
枠_表
  6
CONTINUOUS
 62
     2
100
AcDbText
 10
144.9999999999999
 20
28.5
 30
0.0
 40
5.0
  1
ＬＵ７５３ＴＳＤＲ型
 41
0.8542372881355933
  7
EXCADSTD
 72
     5
 11
180.9999999999999
 21
28.5
 31
0.0
100
AcDbText
  0
TEXT
  5
FA
330
1F
100
AcDbEntity
  8
枠_表
  6
CONTINUOUS
 62
     2
100
AcDbText
 10
144.9999999999999
 20
23.5
 30
0.0
 40
5.0
  1
ＬＵＭ６０２ＣＳ
 41
0.8638297872340426
  7
EXCADSTD
 72
     5
 11
173.9999999999999
 21
23.5
 31
0.0
100
AcDbText
  0
TEXT
  5
FB
330
1F
100
AcDbEntity
  8
枠_表
  6
CONTINUOUS
 62
     7
100
AcDbText
 10
145.200000166893
 20
14.14999999999998
 30
0.0
 40
7.0
  1
ＬＵ３１７９３０
 41
1.140425524813064
  7
EXCADSTD
 72
     5
 11
198.799999833107
 21
14.14999999999998
 31
0.0
100
AcDbText
  0
TEXT
  5
FC
330
1F
100
AcDbEntity
  8
枠_表
  6
CONTINUOUS
 62
     2
100
AcDbText
 10
63.49999999999946
 20
21.0
 30
0.0
 40
5.0
  1
間瀬
 41
1.22491090909091
  7
EXCADSTD
 72
     5
 11
73.12429999999947
 21
21.0
 31
0.0
100
AcDbText
  0
TEXT
  5
FD
330
1F
100
AcDbEntity
  8
枠_表
  6
CONTINUOUS
 62
     2
100
AcDbText
 10
20.7499999999995
 20
21.0
 30
0.0
 40
5.0
  1
亀井
 41
1.224910909090909
  7
EXCADSTD
 72
     5
 11
30.37429999999949
 21
21.0
 31
0.0
100
AcDbText
  0
TEXT
  5
FE
330
1F
100
AcDbEntity
  8
枠_表
  6
CONTINUOUS
 62
     2
100
AcDbText
 10
18.44999998999999
 20
13.0
 30
0.0
 40
4.0
  1
28
 41
0.454054054054054
  7
EXCADSTD
 72
     5
 11
21.64999998999999
 21
13.0
 31
0.0
100
AcDbText
  0
TEXT
  5
FF
330
1F
100
AcDbEntity
  8
枠_表
  6
CONTINUOUS
 62
     2
100
AcDbText
 10
24.37500000000001
 20
13.0
 30
0.0
 40
4.0
  1
9
 41
0.4798828124999995
  7
EXCADSTD
 72
     5
 11
25.83750000000001
 21
13.0
 31
0.0
100
AcDbText
  0
TEXT
  5
100
330
1F
100
AcDbEntity
  8
枠_表
  6
CONTINUOUS
 62
     2
100
AcDbText
 10
28.80000000999997
 20
13.0
 30
0.0
 40
4.0
  1
27
 41
0.4540540540540545
  7
EXCADSTD
 72
     5
 11
32.00000000999997
 21
13.0
 31
0.0
100
AcDbText
  0
POLYLINE
  5
101
330
1F
100
AcDbEntity
  8
化粧台
  6
CONTINUOUS
 62
     3
100
AcDb2dPolyline
 66
     1
 10
0.0
 20
0.0
 30
0.0
 70
   128
  0
VERTEX
  5
102
330
101
100
AcDbEntity
  8
化粧台
  6
CONTINUOUS
 62
     3
100
AcDbVertex
100
AcDb2dVertex
 10
1601.999999999998
 20
3929.5
 30
0.0
  0
VERTEX
  5
103
330
101
100
AcDbEntity
  8
化粧台
  6
CONTINUOUS
 62
     3
100
AcDbVertex
100
AcDb2dVertex
 10
1624.999999999998
 20
3880.0
 30
0.0
  0
SEQEND
  5
104
330
101
100
AcDbEntity
  8
化粧台
  6
CONTINUOUS
 62
     3
  0
LINE
  5
105
330
1F
100
AcDbEntity
  8
化粧台
  6
CONTINUOUS
 62
     3
100
AcDbLine
 10
1627.763749118669
 20
3891.850574621249
 30
0.0
 11
1601.999999999998
 21
3929.5
 31
0.0
  0
LINE
  5
106
330
1F
100
AcDbEntity
  8
化粧台
  6
CONTINUOUS
 62
     3
100
AcDbLine
 10
1601.999999999998
 20
3929.5
 30
0.0
 11
1614.160489584011
 21
3885.529868170801
 31
0.0
  0
POLYLINE
  5
107
330
1F
100
AcDbEntity
  8
化粧台
  6
CONTINUOUS
 62
     3
100
AcDb2dPolyline
 66
     1
 10
0.0
 20
0.0
 30
0.0
 70
   128
  0
VERTEX
  5
108
330
107
100
AcDbEntity
  8
化粧台
  6
CONTINUOUS
 62
     3
100
AcDbVertex
100
AcDb2dVertex
 10
2385.5
 20
2878.0
 30
0.0
  0
VERTEX
  5
109
330
107
100
AcDbEntity
  8
化粧台
  6
CONTINUOUS
 62
     3
100
AcDbVertex
100
AcDb2dVertex
 10
2339.5
 20
2898.0
 30
0.0
  0
SEQEND
  5
10A
330
107
100
AcDbEntity
  8
化粧台
  6
CONTINUOUS
 62
     3
  0
LINE
  5
10B
330
1F
100
AcDbEntity
  8
化粧台
  6
CONTINUOUS
 62
     3
100
AcDbLine
 10
2341.241401632996
 20
2889.064649591751
 30
0.0
 11
2385.5
 21
2878.0
 31
0.0
  0
LINE
  5
10C
330
1F
100
AcDbEntity
  8
化粧台
  6
CONTINUOUS
 62
     3
100
AcDbLine
 10
2385.5
 20
2878.0
 30
0.0
 11
2347.222293304212
 21
2902.820700435549
 31
0.0
  0
POLYLINE
  5
10D
330
1F
100
AcDbEntity
  8
化粧台
  6
CONTINUOUS
 62
     3
100
AcDb2dPolyline
 66
     1
 10
0.0
 20
0.0
 30
0.0
 70
   128
  0
VERTEX
  5
10E
330
10D
100
AcDbEntity
  8
化粧台
  6
CONTINUOUS
 62
     3
100
AcDbVertex
100
AcDb2dVertex
 10
1883.499999999998
 20
894.5
 30
0.0
  0
VERTEX
  5
10F
330
10D
100
AcDbEntity
  8
化粧台
  6
CONTINUOUS
 62
     3
100
AcDbVertex
100
AcDb2dVertex
 10
1864.499999999998
 20
943.5
 30
0.0
  0
SEQEND
  5
110
330
10D
100
AcDbEntity
  8
化粧台
  6
CONTINUOUS
 62
     3
  0
LINE
  5
111
330
1F
100
AcDbEntity
  8
化粧台
  6
CONTINUOUS
 62
     3
100
AcDbLine
 10
1860.238536730782
 20
933.7447999940749
 30
0.0
 11
1883.499999999998
 21
894.5
 31
0.0
  0
LINE
  5
112
330
1F
100
AcDbEntity
  8
化粧台
  6
CONTINUOUS
 62
     3
100
AcDbLine
 10
1883.499999999998
 20
894.5
 30
0.0
 11
1874.223956365035
 21
939.167717811438
 31
0.0
  0
LINE
  5
113
330
1F
100
AcDbEntity
  8
化粧台
  6
CONTINUOUS
 62
     2
100
AcDbLine
 10
545.0000000000014
 20
3929.5
 30
0.0
 11
1295.0
 21
3929.5
 31
0.0
  0
LINE
  5
114
330
1F
100
AcDbEntity
  8
化粧台
  6
EXLTYPE4
 62
     6
100
AcDbLine
 10
333.0000000000001
 20
3929.5
 30
0.0
 11
1742.999999999998
 21
3929.5
 31
0.0
  0
LINE
  5
115
330
1F
100
AcDbEntity
  8
化粧台
  6
CONTINUOUS
 62
     6
100
AcDbLine
 10
1161.0
 20
3929.500000000004
 30
0.0
 11
1163.000000000001
 21
3962.000000000004
 31
0.0
  0
LINE
  5
116
330
1F
100
AcDbEntity
  8
化粧台
  6
CONTINUOUS
 62
     6
100
AcDbLine
 10
1163.000000000001
 20
3962.000000000004
 30
0.0
 11
1165.0
 21
3929.500000000004
 31
0.0
  0
LINE
  5
117
330
1F
100
AcDbEntity
  8
化粧台
  6
CONTINUOUS
 62
     6
100
AcDbLine
 10
1163.000000000001
 20
3914.5
 30
0.0
 11
1163.000000000001
 21
3972.0
 31
0.0
  0
LINE
  5
118
330
1F
100
AcDbEntity
  8
化粧台
  6
CONTINUOUS
 62
     2
100
AcDbLine
 10
1194.999999999999
 20
3479.5
 30
0.0
 11
1295.0
 21
3479.5
 31
0.0
  0
LINE
  5
119
330
1F
100
AcDbEntity
  8
化粧台
  6
CONTINUOUS
 62
     2
100
AcDbLine
 10
1295.0
 20
3479.5
 30
0.0
 11
1295.0
 21
3929.5
 31
0.0
  0
LINE
  5
11A
330
1F
100
AcDbEntity
  8
化粧台
  6
CONTINUOUS
 62
     6
100
AcDbLine
 10
675.0000000000014
 20
3929.500000000004
 30
0.0
 11
677.0000000000023
 21
3962.000000000004
 31
0.0
  0
LINE
  5
11B
330
1F
100
AcDbEntity
  8
化粧台
  6
CONTINUOUS
 62
     6
100
AcDbLine
 10
677.0000000000023
 20
3962.000000000004
 30
0.0
 11
679.0000000000014
 21
3929.500000000004
 31
0.0
  0
LINE
  5
11C
330
1F
100
AcDbEntity
  8
化粧台
  6
CONTINUOUS
 62
     6
100
AcDbLine
 10
677.0000000000023
 20
3914.5
 30
0.0
 11
677.0000000000023
 21
3972.0
 31
0.0
  0
LINE
  5
11D
330
1F
100
AcDbEntity
  8
化粧台
  6
CONTINUOUS
 62
     2
100
AcDbLine
 10
545.0000000000014
 20
3479.5
 30
0.0
 11
645.0000000000014
 21
3479.5
 31
0.0
  0
LINE
  5
11E
330
1F
100
AcDbEntity
  8
化粧台
  6
CONTINUOUS
 62
     2
100
AcDbLine
 10
545.0000000000014
 20
3479.5
 30
0.0
 11
545.0000000000014
 21
3929.5
 31
0.0
  0
CIRCLE
  5
11F
330
1F
100
AcDbEntity
  8
化粧台
  6
CONTINUOUS
 62
     2
100
AcDbCircle
 10
920.0000000000023
 20
3694.5
 30
0.0
 40
18.0
  0
LINE
  5
120
330
1F
100
AcDbEntity
  8
化粧台
  6
EXLTYPE3
 62
     6
100
AcDbLine
 10
920.0000000000014
 20
3939.5
 30
0.0
 11
920.0000000000014
 21
3419.5
 31
0.0
  0
LINE
  5
121
330
1F
100
AcDbEntity
  8
化粧台
  6
CONTINUOUS
 62
     6
100
AcDbLine
 10
882.5000000000023
 20
3844.5
 30
0.0
 11
957.5000000000023
 21
3844.5
 31
0.0
  0
LINE
  5
122
330
1F
100
AcDbEntity
  8
化粧台
  6
CONTINUOUS
 62
     6
100
AcDbLine
 10
883.1000000000008
 20
3694.5
 30
0.0
 11
956.9000000000019
 21
3694.5
 31
0.0
  0
LINE
  5
123
330
1F
100
AcDbEntity
  8
化粧台
  6
CONTINUOUS
 62
     2
100
AcDbLine
 10
1163.5
 20
3779.5
 30
0.0
 11
1168.598748039051
 21
3905.161772545196
 31
0.0
  0
LINE
  5
124
330
1F
100
AcDbEntity
  8
化粧台
  6
CONTINUOUS
 62
     2
100
AcDbLine
 10
676.5000000000014
 20
3779.5
 30
0.0
 11
671.4012519609491
 21
3905.161772545196
 31
0.0
  0
LINE
  5
125
330
1F
100
AcDbEntity
  8
化粧台
  6
CONTINUOUS
 62
     2
100
AcDbLine
 10
845.0000000000023
 20
3740.5
 30
0.0
 11
676.5000000000014
 21
3779.5
 31
0.0
  0
LINE
  5
126
330
1F
100
AcDbEntity
  8
化粧台
  6
CONTINUOUS
 62
     2
100
AcDbLine
 10
995.0000000000023
 20
3740.5
 30
0.0
 11
1163.5
 21
3779.5
 31
0.0
  0
LINE
  5
127
330
1F
100
AcDbEntity
  8
化粧台
  6
CONTINUOUS
 62
     2
100
AcDbLine
 10
1184.0
 20
3904.5
 30
0.0
 11
1184.0
 21
3460.5
 31
0.0
  0
LINE
  5
128
330
1F
100
AcDbEntity
  8
化粧台
  6
CONTINUOUS
 62
     2
100
AcDbLine
 10
666.0000000000014
 20
3914.5
 30
0.0
 11
1174.0
 21
3914.5
 31
0.0
  0
LINE
  5
129
330
1F
100
AcDbEntity
  8
化粧台
  6
CONTINUOUS
 62
     2
100
AcDbLine
 10
656.0000000000014
 20
3904.5
 30
0.0
 11
656.0000000000014
 21
3460.5
 31
0.0
  0
ARC
  5
12A
330
1F
100
AcDbEntity
  8
化粧台
  6
CONTINUOUS
 62
     2
100
AcDbCircle
 10
1174.0
 20
3904.5
 30
0.0
 40
10.0
100
AcDbArc
 50
0.0
 51
90.00000000000004
  0
ARC
  5
12B
330
1F
100
AcDbEntity
  8
化粧台
  6
CONTINUOUS
 62
     2
100
AcDbCircle
 10
666.0000000000014
 20
3904.5
 30
0.0
 40
10.0
100
AcDbArc
 50
90.00000000000004
 51
180.0
  0
ARC
  5
12C
330
1F
100
AcDbEntity
  8
化粧台
  6
CONTINUOUS
 62
     2
100
AcDbCircle
 10
1588.937542668956
 20
4130.446075093718
 30
0.0
 40
800.0000000000006
100
AcDbArc
 50
222.0618625785282
 51
238.3710991364966
  0
ARC
  5
12D
330
1F
100
AcDbEntity
  8
化粧台
  6
CONTINUOUS
 62
     2
100
AcDbCircle
 10
251.0624573310462
 20
4130.446075093718
 30
0.0
 40
800.0000000000006
100
AcDbArc
 50
301.6289008635034
 51
317.9381374214719
  0
LINE
  5
12E
330
1F
100
AcDbEntity
  8
化粧台
  6
CONTINUOUS
 62
     2
100
AcDbLine
 10
845.0000000000023
 20
3594.5
 30
0.0
 11
995.0000000000023
 21
3594.5
 31
0.0
  0
LINE
  5
12F
330
1F
100
AcDbEntity
  8
化粧台
  6
CONTINUOUS
 62
     2
100
AcDbLine
 10
845.0000000000023
 20
3740.5
 30
0.0
 11
845.0000000000023
 21
3594.5
 31
0.0
  0
LINE
  5
130
330
1F
100
AcDbEntity
  8
化粧台
  6
CONTINUOUS
 62
     2
100
AcDbLine
 10
995.0000000000023
 20
3740.5
 30
0.0
 11
995.0000000000023
 21
3594.5
 31
0.0
  0
ARC
  5
131
330
1F
100
AcDbEntity
  8
化粧台
  6
CONTINUOUS
 62
     2
100
AcDbCircle
 10
1164.0
 20
3460.5
 30
0.0
 40
20.0
100
AcDbArc
 50
270.0000000000002
 51
0.0
  0
ARC
  5
132
330
1F
100
AcDbEntity
  8
化粧台
  6
CONTINUOUS
 62
     2
100
AcDbCircle
 10
676.0000000000014
 20
3460.5
 30
0.0
 40
20.0
100
AcDbArc
 50
180.0
 51
270.0000000000002
  0
LINE
  5
133
330
1F
100
AcDbEntity
  8
化粧台
  6
CONTINUOUS
 62
     2
100
AcDbLine
 10
676.0000000000014
 20
3440.5
 30
0.0
 11
1164.0
 21
3440.5
 31
0.0
  0
LINE
  5
134
330
1F
100
AcDbEntity
  8
化粧台
  6
CONTINUOUS
 62
     2
100
AcDbLine
 10
645.0000000000014
 20
3929.5
 30
0.0
 11
645.0000000000014
 21
3439.5
 31
0.0
  0
LINE
  5
135
330
1F
100
AcDbEntity
  8
化粧台
  6
CONTINUOUS
 62
     2
100
AcDbLine
 10
655.0000000000014
 20
3429.5
 30
0.0
 11
1185.0
 21
3429.5
 31
0.0
  0
LINE
  5
136
330
1F
100
AcDbEntity
  8
化粧台
  6
CONTINUOUS
 62
     2
100
AcDbLine
 10
1195.0
 20
3929.5
 30
0.0
 11
1195.0
 21
3439.5
 31
0.0
  0
ARC
  5
137
330
1F
100
AcDbEntity
  8
化粧台
  6
CONTINUOUS
 62
     2
100
AcDbCircle
 10
1185.0
 20
3439.5
 30
0.0
 40
10.0
100
AcDbArc
 50
270.0000000000002
 51
0.0
  0
ARC
  5
138
330
1F
100
AcDbEntity
  8
化粧台
  6
CONTINUOUS
 62
     2
100
AcDbCircle
 10
655.0000000000014
 20
3439.5
 30
0.0
 40
10.0
100
AcDbArc
 50
180.0
 51
270.0000000000002
  0
TEXT
  5
139
330
1F
100
AcDbEntity
  8
化粧台
  6
CONTINUOUS
 62
     2
100
AcDbText
 10
1644.00000053644
 20
3869.500003814697
 30
0.0
 40
59.99999618530273
  1
W.L.
 41
0.5571963512150641
  7
EXCADSTD
 72
     5
 11
1734.74340053644
 21
3869.500003814697
 31
0.0
100
AcDbText
  0
ARC
  5
13A
330
1F
100
AcDbEntity
  8
化粧台
  6
CONTINUOUS
 62
     2
100
AcDbCircle
 10
920.0000000000023
 20
3694.5
 30
0.0
 40
27.00000000000002
100
AcDbArc
 50
103.3902651493742
 51
76.60973485063242
  0
LINE
  5
13B
330
1F
100
AcDbEntity
  8
化粧台
  6
CONTINUOUS
 62
     2
100
AcDbLine
 10
935.0
 20
3740.5
 30
0.0
 11
995.0000000000023
 21
3740.5
 31
0.0
  0
LINE
  5
13C
330
1F
100
AcDbEntity
  8
化粧台
  6
CONTINUOUS
 62
     2
100
AcDbLine
 10
676.5000000000014
 20
3779.5
 30
0.0
 11
905.0000000000007
 21
3779.5
 31
0.0
  0
LINE
  5
13D
330
1F
100
AcDbEntity
  8
化粧台
  6
CONTINUOUS
 62
     2
100
AcDbLine
 10
845.0000000000023
 20
3740.5
 30
0.0
 11
905.0000000000007
 21
3740.5
 31
0.0
  0
LINE
  5
13E
330
1F
100
AcDbEntity
  8
化粧台
  6
CONTINUOUS
 62
     2
100
AcDbLine
 10
935.0000000000007
 20
3779.5
 30
0.0
 11
1163.5
 21
3779.5
 31
0.0
  0
LINE
  5
13F
330
1F
100
AcDbEntity
  8
化粧台
  6
CONTINUOUS
 62
     2
100
AcDbLine
 10
597.0000000000086
 20
1144.5
 30
0.0
 11
1242.99999999999
 21
1144.500000000002
 31
0.0
  0
LINE
  5
140
330
1F
100
AcDbEntity
  8
化粧台
  6
CONTINUOUS
 62
     2
100
AcDbLine
 10
597.0000000000086
 20
1544.5
 30
0.0
 11
1242.999999999988
 21
1544.500000000002
 31
0.0
  0
LINE
  5
141
330
1F
100
AcDbEntity
  8
化粧台
  6
CONTINUOUS
 62
     2
100
AcDbLine
 10
545.0000000000014
 20
1594.5
 30
0.0
 11
1294.999999999999
 21
1594.5
 31
0.0
  0
CIRCLE
  5
142
330
1F
100
AcDbEntity
  8
化粧台
  6
CONTINUOUS
 62
     2
100
AcDbCircle
 10
1162.999999999998
 20
1514.5
 30
0.0
 40
5.0
  0
LINE
  5
143
330
1F
100
AcDbEntity
  8
化粧台
  6
CONTINUOUS
 62
     6
100
AcDbLine
 10
1149.999999999999
 20
1514.5
 30
0.0
 11
1175.999999999999
 21
1514.5
 31
0.0
  0
LINE
  5
144
330
1F
100
AcDbEntity
  8
化粧台
  6
CONTINUOUS
 62
     6
100
AcDbLine
 10
1162.999999999999
 20
1527.5
 30
0.0
 11
1162.999999999999
 21
1501.5
 31
0.0
  0
LINE
  5
145
330
1F
100
AcDbEntity
  8
化粧台
  6
CONTINUOUS
 62
     6
100
AcDbLine
 10
1284.414213562987
 20
1584.5
 30
0.0
 11
1242.999999999988
 21
1543.085786436999
 31
0.0
  0
LINE
  5
146
330
1F
100
AcDbEntity
  8
化粧台
  6
CONTINUOUS
 62
     6
100
AcDbLine
 10
1292.99999999999
 20
1584.5
 30
0.0
 11
1284.414213562987
 21
1584.5
 31
0.0
  0
LINE
  5
147
330
1F
100
AcDbEntity
  8
化粧台
  6
CONTINUOUS
 62
     2
100
AcDbLine
 10
1243.000000000307
 20
1544.499999999691
 30
0.0
 11
1284.000000000614
 21
1585.5
 31
0.0
  0
LINE
  5
148
330
1F
100
AcDbEntity
  8
化粧台
  6
CONTINUOUS
 62
     2
100
AcDbLine
 10
1284.000000000614
 20
1585.5
 30
0.0
 11
1294.999999999999
 21
1585.5
 31
0.0
  0
LINE
  5
149
330
1F
100
AcDbEntity
  8
化粧台
  6
CONTINUOUS
 62
     2
100
AcDbLine
 10
1242.999999999988
 20
1544.5
 30
0.0
 11
1242.99999999999
 21
894.5
 31
0.0
  0
LINE
  5
14A
330
1F
100
AcDbEntity
  8
化粧台
  6
CONTINUOUS
 62
     2
100
AcDbLine
 10
1292.99999999999
 20
1585.5
 30
0.0
 11
1292.999999999992
 21
894.5
 31
0.0
  0
LINE
  5
14B
330
1F
100
AcDbEntity
  8
化粧台
  6
CONTINUOUS
 62
     2
100
AcDbLine
 10
1242.99999999999
 20
894.5
 30
0.0
 11
1292.99999999999
 21
894.5
 31
0.0
  0
LINE
  5
14C
330
1F
100
AcDbEntity
  8
化粧台
  6
CONTINUOUS
 62
     2
100
AcDbLine
 10
1294.999999999999
 20
1594.5
 30
0.0
 11
1294.999999999999
 21
1585.5
 31
0.0
  0
CIRCLE
  5
14D
330
1F
100
AcDbEntity
  8
化粧台
  6
CONTINUOUS
 62
     2
100
AcDbCircle
 10
677.0000000000005
 20
1514.5
 30
0.0
 40
5.0
  0
LINE
  5
14E
330
1F
100
AcDbEntity
  8
化粧台
  6
CONTINUOUS
 62
     6
100
AcDbLine
 10
689.9999999999995
 20
1514.5
 30
0.0
 11
663.9999999999995
 21
1514.5
 31
0.0
  0
LINE
  5
14F
330
1F
100
AcDbEntity
  8
化粧台
  6
CONTINUOUS
 62
     6
100
AcDbLine
 10
677.0000000000014
 20
1527.5
 30
0.0
 11
677.0000000000014
 21
1501.5
 31
0.0
  0
LINE
  5
150
330
1F
100
AcDbEntity
  8
化粧台
  6
CONTINUOUS
 62
     6
100
AcDbLine
 10
555.5857864370096
 20
1584.5
 30
0.0
 11
547.0000000000086
 21
1584.5
 31
0.0
  0
LINE
  5
151
330
1F
100
AcDbEntity
  8
化粧台
  6
CONTINUOUS
 62
     6
100
AcDbLine
 10
597.0000000000086
 20
1543.085786437001
 30
0.0
 11
555.5857864370096
 21
1584.5
 31
0.0
  0
LINE
  5
152
330
1F
100
AcDbEntity
  8
化粧台
  6
CONTINUOUS
 62
     2
100
AcDbLine
 10
596.9999999996921
 20
1544.499999999691
 30
0.0
 11
555.9999999993829
 21
1585.5
 31
0.0
  0
LINE
  5
153
330
1F
100
AcDbEntity
  8
化粧台
  6
CONTINUOUS
 62
     2
100
AcDbLine
 10
555.9999999993829
 20
1585.5
 30
0.0
 11
545.0000000000014
 21
1585.5
 31
0.0
  0
LINE
  5
154
330
1F
100
AcDbEntity
  8
化粧台
  6
CONTINUOUS
 62
     2
100
AcDbLine
 10
597.0000000000086
 20
1544.5
 30
0.0
 11
597.0000000000086
 21
894.5
 31
0.0
  0
LINE
  5
155
330
1F
100
AcDbEntity
  8
化粧台
  6
CONTINUOUS
 62
     2
100
AcDbLine
 10
547.0000000000086
 20
1585.5
 30
0.0
 11
547.0000000000086
 21
894.5
 31
0.0
  0
LINE
  5
156
330
1F
100
AcDbEntity
  8
化粧台
  6
CONTINUOUS
 62
     2
100
AcDbLine
 10
597.0000000000086
 20
894.5
 30
0.0
 11
547.0000000000086
 21
894.5
 31
0.0
  0
LINE
  5
157
330
1F
100
AcDbEntity
  8
化粧台
  6
CONTINUOUS
 62
     2
100
AcDbLine
 10
545.0000000000014
 20
1594.5
 30
0.0
 11
545.0000000000014
 21
1585.5
 31
0.0
  0
LINE
  5
158
330
1F
100
AcDbEntity
  8
化粧台
  6
CONTINUOUS
 62
     2
100
AcDbLine
 10
935.8750000000041
 20
1497.5
 30
0.0
 11
935.8750000000041
 21
1373.499999999951
 31
0.0
  0
LINE
  5
159
330
1F
100
AcDbEntity
  8
化粧台
  6
CONTINUOUS
 62
     2
100
AcDbLine
 10
904.1250000000041
 20
1497.5
 30
0.0
 11
904.1250000000041
 21
1373.499999999951
 31
0.0
  0
LINE
  5
15A
330
1F
100
AcDbEntity
  8
化粧台
  6
EXLTYPE4
 62
     6
100
AcDbLine
 10
834.5000000000023
 20
1094.5
 30
0.0
 11
834.5000000000023
 21
886.5
 31
0.0
  0
LINE
  5
15B
330
1F
100
AcDbEntity
  8
化粧台
  6
EXLTYPE4
 62
     6
100
AcDbLine
 10
855.5000000000023
 20
1094.5
 30
0.0
 11
855.5000000000023
 21
886.5
 31
0.0
  0
LINE
  5
15C
330
1F
100
AcDbEntity
  8
化粧台
  6
EXLTYPE3
 62
     6
100
AcDbLine
 10
845.0000000000023
 20
1104.5
 30
0.0
 11
845.0000000000023
 21
876.5
 31
0.0
  0
LINE
  5
15D
330
1F
100
AcDbEntity
  8
化粧台
  6
CONTINUOUS
 62
     6
100
AcDbLine
 10
834.5000000000023
 20
886.5
 30
0.0
 11
855.5000000000023
 21
886.5
 31
0.0
  0
LINE
  5
15E
330
1F
100
AcDbEntity
  8
化粧台
  6
EXLTYPE4
 62
     6
100
AcDbLine
 10
1005.500000000001
 20
1094.5
 30
0.0
 11
1005.500000000001
 21
886.5
 31
0.0
  0
LINE
  5
15F
330
1F
100
AcDbEntity
  8
化粧台
  6
EXLTYPE4
 62
     6
100
AcDbLine
 10
984.5000000000014
 20
1094.5
 30
0.0
 11
984.5000000000014
 21
886.5
 31
0.0
  0
LINE
  5
160
330
1F
100
AcDbEntity
  8
化粧台
  6
EXLTYPE3
 62
     6
100
AcDbLine
 10
995.0000000000014
 20
1104.5
 30
0.0
 11
995.0000000000014
 21
876.5
 31
0.0
  0
LINE
  5
161
330
1F
100
AcDbEntity
  8
化粧台
  6
CONTINUOUS
 62
     6
100
AcDbLine
 10
1005.500000000001
 20
886.5
 30
0.0
 11
984.5000000000014
 21
886.5
 31
0.0
  0
LINE
  5
162
330
1F
100
AcDbEntity
  8
化粧台
  6
EXLTYPE4
 62
     6
100
AcDbLine
 10
904.0000000000023
 20
1094.5
 30
0.0
 11
904.0000000000023
 21
864.5000000000009
 31
0.0
  0
LINE
  5
163
330
1F
100
AcDbEntity
  8
化粧台
  6
EXLTYPE4
 62
     6
100
AcDbLine
 10
936.0000000000023
 20
1094.5
 30
0.0
 11
936.0000000000023
 21
864.5000000000009
 31
0.0
  0
LINE
  5
164
330
1F
100
AcDbEntity
  8
化粧台
  6
CONTINUOUS
 62
     6
100
AcDbLine
 10
904.0000000000023
 20
864.5
 30
0.0
 11
936.0000000000023
 21
864.5
 31
0.0
  0
ARC
  5
165
330
1F
100
AcDbEntity
  8
化粧台
  6
CONTINUOUS
 62
     6
100
AcDbCircle
 10
995.0000000000005
 20
1289.5
 30
0.0
 40
27.50000000000002
100
AcDbArc
 50
114.7198511829092
 51
65.28014881708833
  0
ARC
  5
166
330
1F
100
AcDbEntity
  8
化粧台
  6
CONTINUOUS
 62
     6
100
AcDbCircle
 10
845.0000000000005
 20
1289.5
 30
0.0
 40
27.50000000000002
100
AcDbArc
 50
114.7198511829102
 51
65.2801488170889
  0
LINE
  5
167
330
1F
100
AcDbEntity
  8
化粧台
  6
CONTINUOUS
 62
     6
100
AcDbLine
 10
995.0000000000005
 20
1319.5
 30
0.0
 11
995.0000000000005
 21
1259.5
 31
0.0
  0
LINE
  5
168
330
1F
100
AcDbEntity
  8
化粧台
  6
CONTINUOUS
 62
     6
100
AcDbLine
 10
965.0000000000005
 20
1289.5
 30
0.0
 11
1025.0
 21
1289.5
 31
0.0
  0
LINE
  5
169
330
1F
100
AcDbEntity
  8
化粧台
  6
CONTINUOUS
 62
     6
100
AcDbLine
 10
984.5000000000005
 20
1312.2
 30
0.0
 11
984.5000000000005
 21
1298.448929172444
 31
0.0
  0
LINE
  5
16A
330
1F
100
AcDbEntity
  8
化粧台
  6
CONTINUOUS
 62
     6
100
AcDbLine
 10
1005.5
 20
1312.2
 30
0.0
 11
1005.5
 21
1298.448929172444
 31
0.0
  0
CIRCLE
  5
16B
330
1F
100
AcDbEntity
  8
化粧台
  6
CONTINUOUS
 62
     6
100
AcDbCircle
 10
995.0000000000005
 20
1289.5
 30
0.0
 40
12.07434891639
  0
CIRCLE
  5
16C
330
1F
100
AcDbEntity
  8
化粧台
  6
CONTINUOUS
 62
     6
100
AcDbCircle
 10
995.0000000000005
 20
1289.5
 30
0.0
 40
4.75
  0
ARC
  5
16D
330
1F
100
AcDbEntity
  8
化粧台
  6
CONTINUOUS
 62
     6
100
AcDbCircle
 10
995.0000000000005
 20
1289.5
 30
0.0
 40
14.25000000000001
100
AcDbArc
 50
204.1775448336003
 51
215.8224551664
  0
ARC
  5
16E
330
1F
100
AcDbEntity
  8
化粧台
  6
CONTINUOUS
 62
     6
100
AcDbCircle
 10
995.0000000000005
 20
1289.5
 30
0.0
 40
14.25000000000001
100
AcDbArc
 50
144.1775448336404
 51
155.8224551663601
  0
ARC
  5
16F
330
1F
100
AcDbEntity
  8
化粧台
  6
CONTINUOUS
 62
     6
100
AcDbCircle
 10
995.0000000000005
 20
1289.5
 30
0.0
 40
14.25000000000001
100
AcDbArc
 50
84.1775448336001
 51
95.82245516635992
  0
ARC
  5
170
330
1F
100
AcDbEntity
  8
化粧台
  6
CONTINUOUS
 62
     6
100
AcDbCircle
 10
995.0000000000005
 20
1289.5
 30
0.0
 40
14.25000000000001
100
AcDbArc
 50
24.17754483359991
 51
35.82245516639971
  0
ARC
  5
171
330
1F
100
AcDbEntity
  8
化粧台
  6
CONTINUOUS
 62
     6
100
AcDbCircle
 10
995.0000000000005
 20
1289.5
 30
0.0
 40
14.25000000000001
100
AcDbArc
 50
324.1775448336001
 51
335.8224551664001
  0
ARC
  5
172
330
1F
100
AcDbEntity
  8
化粧台
  6
CONTINUOUS
 62
     6
100
AcDbCircle
 10
995.0000000000005
 20
1289.5
 30
0.0
 40
14.25000000000001
100
AcDbArc
 50
264.1775448336001
 51
275.8224551664
  0
LINE
  5
173
330
1F
100
AcDbEntity
  8
化粧台
  6
CONTINUOUS
 62
     6
100
AcDbLine
 10
996.445608345211
 20
1275.32351536832
 30
0.0
 11
1006.554391654791
 21
1281.159824133279
 31
0.0
  0
LINE
  5
174
330
1F
100
AcDbEntity
  8
化粧台
  6
CONTINUOUS
 62
     6
100
AcDbLine
 10
983.445608345211
 20
1281.159824133279
 30
0.0
 11
993.5543916547908
 21
1275.32351536832
 31
0.0
  0
LINE
  5
175
330
1F
100
AcDbEntity
  8
化粧台
  6
CONTINUOUS
 62
     6
100
AcDbLine
 10
982.0000000000005
 20
1295.33630876496
 30
0.0
 11
982.0000000000005
 21
1283.66369123504
 31
0.0
  0
LINE
  5
176
330
1F
100
AcDbEntity
  8
化粧台
  6
CONTINUOUS
 62
     6
100
AcDbLine
 10
993.5543916547908
 20
1303.67648463168
 30
0.0
 11
983.445608345211
 21
1297.840175866721
 31
0.0
  0
LINE
  5
177
330
1F
100
AcDbEntity
  8
化粧台
  6
CONTINUOUS
 62
     6
100
AcDbLine
 10
1006.554391654791
 20
1297.840175866721
 30
0.0
 11
996.445608345211
 21
1303.67648463168
 31
0.0
  0
LINE
  5
178
330
1F
100
AcDbEntity
  8
化粧台
  6
CONTINUOUS
 62
     6
100
AcDbLine
 10
1008.0
 20
1283.66369123504
 30
0.0
 11
1008.0
 21
1295.33630876496
 31
0.0
  0
LINE
  5
179
330
1F
100
AcDbEntity
  8
化粧台
  6
CONTINUOUS
 62
     6
100
AcDbLine
 10
845.0000000000014
 20
1319.5
 30
0.0
 11
845.0000000000014
 21
1259.5
 31
0.0
  0
LINE
  5
17A
330
1F
100
AcDbEntity
  8
化粧台
  6
CONTINUOUS
 62
     6
100
AcDbLine
 10
815.0000000000005
 20
1289.5
 30
0.0
 11
875.0000000000005
 21
1289.5
 31
0.0
  0
LINE
  5
17B
330
1F
100
AcDbEntity
  8
化粧台
  6
CONTINUOUS
 62
     6
100
AcDbLine
 10
834.5000000000014
 20
1312.2
 30
0.0
 11
834.5000000000014
 21
1298.448929172444
 31
0.0
  0
LINE
  5
17C
330
1F
100
AcDbEntity
  8
化粧台
  6
CONTINUOUS
 62
     6
100
AcDbLine
 10
855.5000000000014
 20
1312.2
 30
0.0
 11
855.5000000000014
 21
1298.448929172444
 31
0.0
  0
CIRCLE
  5
17D
330
1F
100
AcDbEntity
  8
化粧台
  6
CONTINUOUS
 62
     6
100
AcDbCircle
 10
845.0000000000014
 20
1289.5
 30
0.0
 40
12.07434891639
  0
CIRCLE
  5
17E
330
1F
100
AcDbEntity
  8
化粧台
  6
CONTINUOUS
 62
     6
100
AcDbCircle
 10
845.0000000000014
 20
1289.5
 30
0.0
 40
4.75
  0
ARC
  5
17F
330
1F
100
AcDbEntity
  8
化粧台
  6
CONTINUOUS
 62
     6
100
AcDbCircle
 10
845.0000000000014
 20
1289.5
 30
0.0
 40
14.25000000000001
100
AcDbArc
 50
204.1775448336003
 51
215.8224551664
  0
ARC
  5
180
330
1F
100
AcDbEntity
  8
化粧台
  6
CONTINUOUS
 62
     6
100
AcDbCircle
 10
845.0000000000014
 20
1289.5
 30
0.0
 40
14.25000000000001
100
AcDbArc
 50
144.1775448336404
 51
155.8224551663601
  0
ARC
  5
181
330
1F
100
AcDbEntity
  8
化粧台
  6
CONTINUOUS
 62
     6
100
AcDbCircle
 10
845.0000000000014
 20
1289.5
 30
0.0
 40
14.25000000000001
100
AcDbArc
 50
84.1775448336001
 51
95.82245516635992
  0
ARC
  5
182
330
1F
100
AcDbEntity
  8
化粧台
  6
CONTINUOUS
 62
     6
100
AcDbCircle
 10
845.0000000000014
 20
1289.5
 30
0.0
 40
14.25000000000001
100
AcDbArc
 50
24.17754483359991
 51
35.82245516639971
  0
ARC
  5
183
330
1F
100
AcDbEntity
  8
化粧台
  6
CONTINUOUS
 62
     6
100
AcDbCircle
 10
845.0000000000014
 20
1289.5
 30
0.0
 40
14.25000000000001
100
AcDbArc
 50
324.1775448336001
 51
335.8224551664001
  0
ARC
  5
184
330
1F
100
AcDbEntity
  8
化粧台
  6
CONTINUOUS
 62
     6
100
AcDbCircle
 10
845.0000000000014
 20
1289.5
 30
0.0
 40
14.25000000000001
100
AcDbArc
 50
264.1775448336001
 51
275.8224551664
  0
LINE
  5
185
330
1F
100
AcDbEntity
  8
化粧台
  6
CONTINUOUS
 62
     6
100
AcDbLine
 10
846.445608345211
 20
1275.32351536832
 30
0.0
 11
856.5543916547908
 21
1281.159824133279
 31
0.0
  0
LINE
  5
186
330
1F
100
AcDbEntity
  8
化粧台
  6
CONTINUOUS
 62
     6
100
AcDbLine
 10
833.445608345211
 20
1281.159824133279
 30
0.0
 11
843.5543916547908
 21
1275.32351536832
 31
0.0
  0
LINE
  5
187
330
1F
100
AcDbEntity
  8
化粧台
  6
CONTINUOUS
 62
     6
100
AcDbLine
 10
832.0000000000014
 20
1295.33630876496
 30
0.0
 11
832.0000000000014
 21
1283.66369123504
 31
0.0
  0
LINE
  5
188
330
1F
100
AcDbEntity
  8
化粧台
  6
CONTINUOUS
 62
     6
100
AcDbLine
 10
843.5543916547908
 20
1303.67648463168
 30
0.0
 11
833.445608345211
 21
1297.840175866721
 31
0.0
  0
LINE
  5
189
330
1F
100
AcDbEntity
  8
化粧台
  6
CONTINUOUS
 62
     6
100
AcDbLine
 10
856.5543916547908
 20
1297.840175866721
 30
0.0
 11
846.445608345211
 21
1303.67648463168
 31
0.0
  0
LINE
  5
18A
330
1F
100
AcDbEntity
  8
化粧台
  6
CONTINUOUS
 62
     6
100
AcDbLine
 10
858.0000000000014
 20
1283.66369123504
 30
0.0
 11
858.0000000000014
 21
1295.33630876496
 31
0.0
  0
LINE
  5
18B
330
1F
100
AcDbEntity
  8
化粧台
  6
CONTINUOUS
 62
     6
100
AcDbLine
 10
963.0000000000005
 20
1329.500000000001
 30
0.0
 11
877.0000000000014
 21
1329.500000000001
 31
0.0
  0
ARC
  5
18C
330
1F
100
AcDbEntity
  8
化粧台
  6
CONTINUOUS
 62
     6
100
AcDbCircle
 10
920.0000000000014
 20
1237.500000000002
 30
0.0
 40
15.99999999999955
100
AcDbArc
 50
180.0
 51
0.0
  0
LINE
  5
18D
330
1F
100
AcDbEntity
  8
化粧台
  6
CONTINUOUS
 62
     6
100
AcDbLine
 10
936.0000000000005
 20
1311.89988649997
 30
0.0
 11
936.0000000000005
 21
1237.5
 31
0.0
  0
LINE
  5
18E
330
1F
100
AcDbEntity
  8
化粧台
  6
CONTINUOUS
 62
     6
100
AcDbLine
 10
904.0000000000023
 20
1311.89988649997
 30
0.0
 11
904.0000000000023
 21
1237.5
 31
0.0
  0
ARC
  5
18F
330
1F
100
AcDbEntity
  8
化粧台
  6
CONTINUOUS
 62
     6
100
AcDbCircle
 10
920.0000000000014
 20
1329.5
 30
0.0
 40
33.0
100
AcDbArc
 50
299.0025460266706
 51
59.49751333740528
  0
ARC
  5
190
330
1F
100
AcDbEntity
  8
化粧台
  6
CONTINUOUS
 62
     6
100
AcDbCircle
 10
920.0000000000014
 20
1329.5
 30
0.0
 40
33.0
100
AcDbArc
 50
120.5024866625967
 51
240.9974539733312
  0
LINE
  5
191
330
1F
100
AcDbEntity
  8
化粧台
  6
CONTINUOUS
 62
     6
100
AcDbLine
 10
936.0000000000005
 20
1290.499999999951
 30
0.0
 11
941.5000000000005
 21
1290.499999999951
 31
0.0
  0
LINE
  5
192
330
1F
100
AcDbEntity
  8
化粧台
  6
CONTINUOUS
 62
     6
100
AcDbLine
 10
936.0000000000005
 20
1278.499999999951
 30
0.0
 11
941.5000000000005
 21
1278.499999999951
 31
0.0
  0
LINE
  5
193
330
1F
100
AcDbEntity
  8
化粧台
  6
CONTINUOUS
 62
     6
100
AcDbLine
 10
898.5000000000014
 20
1278.499999999951
 30
0.0
 11
904.0000000000023
 21
1278.499999999951
 31
0.0
  0
LINE
  5
194
330
1F
100
AcDbEntity
  8
化粧台
  6
CONTINUOUS
 62
     6
100
AcDbLine
 10
898.5000000000014
 20
1290.499999999951
 30
0.0
 11
904.0000000000023
 21
1290.499999999951
 31
0.0
  0
ELLIPSE
  5
195
330
1F
100
AcDbEntity
  8
化粧台
  6
CONTINUOUS
 62
     6
100
AcDbEllipse
 10
930.7500000000014
 20
1284.499999999951
 30
0.0
 11
9.236476601000053
 21
0.0
 31
0.0
210
0.0
220
0.0
230
1.0
 40
0.6495983543497932
 41
5.316947084024834
 42
7.249423530334343
  0
ELLIPSE
  5
196
330
1F
100
AcDbEntity
  8
化粧台
  6
CONTINUOUS
 62
     6
100
AcDbEllipse
 10
909.2500000000014
 20
1284.499999999951
 30
0.0
 11
9.236476601000053
 21
0.0
 31
0.0
210
0.0
220
0.0
230
1.0
 40
0.6495983543497932
 41
2.175354430434986
 42
4.107830876744602
  0
LINE
  5
197
330
1F
100
AcDbEntity
  8
化粧台
  6
CONTINUOUS
 62
     6
100
AcDbLine
 10
898.5000000000014
 20
1290.499999999951
 30
0.0
 11
898.5000000000014
 21
1278.499999999951
 31
0.0
  0
LINE
  5
198
330
1F
100
AcDbEntity
  8
化粧台
  6
CONTINUOUS
 62
     6
100
AcDbLine
 10
941.5000000000005
 20
1290.499999999951
 30
0.0
 11
941.5000000000005
 21
1278.499999999951
 31
0.0
  0
LINE
  5
199
330
1F
100
AcDbEntity
  8
化粧台
  6
CONTINUOUS
 62
     6
100
AcDbLine
 10
898.5000000000014
 20
1373.499999999951
 30
0.0
 11
941.5000000000005
 21
1373.499999999951
 31
0.0
  0
LINE
  5
19A
330
1F
100
AcDbEntity
  8
化粧台
  6
CONTINUOUS
 62
     6
100
AcDbLine
 10
898.5000000000014
 20
1361.499999999951
 30
0.0
 11
941.5000000000005
 21
1361.499999999951
 31
0.0
  0
LINE
  5
19B
330
1F
100
AcDbEntity
  8
化粧台
  6
CONTINUOUS
 62
     6
100
AcDbLine
 10
898.5000000000014
 20
1373.499999999951
 30
0.0
 11
898.5000000000014
 21
1361.499999999951
 31
0.0
  0
ELLIPSE
  5
19C
330
1F
100
AcDbEntity
  8
化粧台
  6
CONTINUOUS
 62
     6
100
AcDbEllipse
 10
909.2500000000014
 20
1367.499999999951
 30
0.0
 11
9.236476601000053
 21
0.0
 31
0.0
210
0.0
220
0.0
230
1.0
 40
0.6495983543497931
 41
0.0
 42
6.283185307179586
  0
LINE
  5
19D
330
1F
100
AcDbEntity
  8
化粧台
  6
CONTINUOUS
 62
     6
100
AcDbLine
 10
941.5000000000005
 20
1373.499999999951
 30
0.0
 11
941.5000000000005
 21
1361.499999999951
 31
0.0
  0
ELLIPSE
  5
19E
330
1F
100
AcDbEntity
  8
化粧台
  6
CONTINUOUS
 62
     6
100
AcDbEllipse
 10
930.7500000000014
 20
1367.499999999951
 30
0.0
 11
9.236476601000053
 21
0.0
 31
0.0
210
0.0
220
0.0
230
1.0
 40
0.6495983543497931
 41
0.0
 42
6.283185307179586
  0
LINE
  5
19F
330
1F
100
AcDbEntity
  8
化粧台
  6
CONTINUOUS
 62
     6
100
AcDbLine
 10
904.0000000000005
 20
1311.89988649997
 30
0.0
 11
936.0000000000005
 21
1311.89988649997
 31
0.0
  0
LINE
  5
1A0
330
1F
100
AcDbEntity
  8
化粧台
  6
CONTINUOUS
 62
     6
100
AcDbLine
 10
903.2500000000132
 20
1312.274886499963
 30
0.0
 11
904.0000000000005
 21
1311.524886499974
 31
0.0
  0
LINE
  5
1A1
330
1F
100
AcDbEntity
  8
化粧台
  6
CONTINUOUS
 62
     6
100
AcDbLine
 10
936.7500000000314
 20
1312.274886499921
 30
0.0
 11
936.0000000000005
 21
1311.52488649989
 31
0.0
  0
LINE
  5
1A2
330
1F
100
AcDbEntity
  8
化粧台
  6
CONTINUOUS
 62
     6
100
AcDbLine
 10
936.7499999999986
 20
1361.499999999951
 30
0.0
 11
936.7499999999986
 21
1312.274886499952
 31
0.0
  0
LINE
  5
1A3
330
1F
100
AcDbEntity
  8
化粧台
  6
CONTINUOUS
 62
     6
100
AcDbLine
 10
903.2500000000023
 20
1361.499999999951
 30
0.0
 11
903.2500000000023
 21
1312.274886499952
 31
0.0
  0
ELLIPSE
  5
1A4
330
1F
100
AcDbEntity
  8
化粧台
  6
CONTINUOUS
 62
     6
100
AcDbEllipse
 10
1000.75097110965
 20
1318.2
 30
0.0
 11
3.118494002032691E-16
 21
5.09288719687
 31
0.0
210
0.0
220
0.0
230
1.0
 40
0.936409683937426
 41
0.0
 42
6.283185307179586
  0
ELLIPSE
  5
1A5
330
1F
100
AcDbEntity
  8
化粧台
  6
CONTINUOUS
 62
     6
100
AcDbEllipse
 10
989.2490288903505
 20
1318.2
 30
0.0
 11
-9.355482006098073E-16
 21
-5.09288719687
 31
0.0
210
0.0
220
0.0
230
1.0
 40
0.936409683937426
 41
0.0
 42
6.283185307179586
  0
ELLIPSE
  5
1A6
330
1F
100
AcDbEntity
  8
化粧台
  6
CONTINUOUS
 62
     6
100
AcDbEllipse
 10
850.7509711096513
 20
1318.2
 30
0.0
 11
3.118494002032691E-16
 21
5.09288719687
 31
0.0
210
0.0
220
0.0
230
1.0
 40
0.936409683937426
 41
0.0
 42
6.283185307179586
  0
ELLIPSE
  5
1A7
330
1F
100
AcDbEntity
  8
化粧台
  6
CONTINUOUS
 62
     6
100
AcDbEllipse
 10
839.2490288903514
 20
1318.2
 30
0.0
 11
-9.355482006098073E-16
 21
-5.09288719687
 31
0.0
210
0.0
220
0.0
230
1.0
 40
0.936409683937426
 41
0.0
 42
6.283185307179586
  0
ELLIPSE
  5
1A8
330
1F
100
AcDbEntity
  8
化粧台
  6
CONTINUOUS
 62
     6
100
AcDbEllipse
 10
910.2500000000023
 20
1540.5
 30
0.0
 11
7.84219357069992
 21
0.0
 31
0.0
210
0.0
220
0.0
230
1.0
 40
0.4033884710279674
 41
0.0
 42
6.283185307179586
  0
ELLIPSE
  5
1A9
330
1F
100
AcDbEntity
  8
化粧台
  6
CONTINUOUS
 62
     6
100
AcDbEllipse
 10
929.7500000000023
 20
1540.5
 30
0.0
 11
7.84219357069992
 21
0.0
 31
0.0
210
0.0
220
0.0
230
1.0
 40
0.4033884710279674
 41
0.0
 42
6.283185307179586
  0
LINE
  5
1AA
330
1F
100
AcDbEntity
  8
化粧台
  6
CONTINUOUS
 62
     2
100
AcDbLine
 10
940.0000000000005
 20
1537.000000000001
 30
0.0
 11
900.0000000000041
 21
1537.000000000001
 31
0.0
  0
ARC
  5
1AB
330
1F
100
AcDbEntity
  8
化粧台
  6
CONTINUOUS
 62
     2
100
AcDbCircle
 10
938.0000000000041
 20
1540.500000000001
 30
0.0
 40
3.500000000000002
100
AcDbArc
 50
64.62306647488015
 51
90.00000000000009
  0
ARC
  5
1AC
330
1F
100
AcDbEntity
  8
化粧台
  6
CONTINUOUS
 62
     2
100
AcDbCircle
 10
938.0000000000041
 20
1540.500000000001
 30
0.0
 40
3.500000000000002
100
AcDbArc
 50
270.0000000000002
 51
295.37693352512
  0
ARC
  5
1AD
330
1F
100
AcDbEntity
  8
化粧台
  6
CONTINUOUS
 62
     2
100
AcDbCircle
 10
902.0000000000041
 20
1540.500000000001
 30
0.0
 40
3.500000000000002
100
AcDbArc
 50
244.6230664748158
 51
270.0000000000002
  0
ARC
  5
1AE
330
1F
100
AcDbEntity
  8
化粧台
  6
CONTINUOUS
 62
     2
100
AcDbCircle
 10
902.0000000000041
 20
1540.500000000001
 30
0.0
 40
3.500000000000002
100
AcDbArc
 50
90.00000000000004
 51
115.3769335251844
  0
LINE
  5
1AF
330
1F
100
AcDbEntity
  8
化粧台
  6
CONTINUOUS
 62
     2
100
AcDbLine
 10
939.5000000000023
 20
1543.66227766017
 30
0.0
 11
939.5000000000023
 21
1537.33772233983
 31
0.0
  0
LINE
  5
1B0
330
1F
100
AcDbEntity
  8
化粧台
  6
CONTINUOUS
 62
     2
100
AcDbLine
 10
900.5000000000023
 20
1543.66227766017
 30
0.0
 11
900.5000000000023
 21
1537.33772233983
 31
0.0
  0
LINE
  5
1B1
330
1F
100
AcDbEntity
  8
化粧台
  6
CONTINUOUS
 62
     2
100
AcDbLine
 10
938.0000000000041
 20
1544.000000000001
 30
0.0
 11
902.0000000000041
 21
1544.000000000001
 31
0.0
  0
LINE
  5
1B2
330
1F
100
AcDbEntity
  8
化粧台
  6
CONTINUOUS
 62
     2
100
AcDbLine
 10
902.5000000000041
 20
1544.33333333333
 30
0.0
 11
902.5000000000041
 21
1544.000000000001
 31
0.0
  0
LINE
  5
1B3
330
1F
100
AcDbEntity
  8
化粧台
  6
CONTINUOUS
 62
     2
100
AcDbLine
 10
937.5000000000041
 20
1544.33333333333
 30
0.0
 11
937.5000000000041
 21
1544.000000000001
 31
0.0
  0
LINE
  5
1B4
330
1F
100
AcDbEntity
  8
化粧台
  6
CONTINUOUS
 62
     2
100
AcDbLine
 10
940.0000000000005
 20
1537.000000000001
 30
0.0
 11
940.0000000000005
 21
1499.500000000001
 31
0.0
  0
LINE
  5
1B5
330
1F
100
AcDbEntity
  8
化粧台
  6
CONTINUOUS
 62
     2
100
AcDbLine
 10
940.0000000000041
 20
1499.500000000001
 30
0.0
 11
900.0000000000041
 21
1499.500000000001
 31
0.0
  0
LINE
  5
1B6
330
1F
100
AcDbEntity
  8
化粧台
  6
CONTINUOUS
 62
     2
100
AcDbLine
 10
936.0000000000041
 20
1497.5
 30
0.0
 11
904.0000000000041
 21
1497.5
 31
0.0
  0
LINE
  5
1B7
330
1F
100
AcDbEntity
  8
化粧台
  6
CONTINUOUS
 62
     2
100
AcDbLine
 10
904.0000000000041
 20
1497.5
 30
0.0
 11
900.0000000000041
 21
1499.500000000001
 31
0.0
  0
LINE
  5
1B8
330
1F
100
AcDbEntity
  8
化粧台
  6
CONTINUOUS
 62
     2
100
AcDbLine
 10
936.0000000000041
 20
1497.5
 30
0.0
 11
940.0000000000041
 21
1499.500000000001
 31
0.0
  0
LINE
  5
1B9
330
1F
100
AcDbEntity
  8
化粧台
  6
CONTINUOUS
 62
     2
100
AcDbLine
 10
900.0000000000041
 20
1537.000000000001
 30
0.0
 11
900.0000000000041
 21
1499.500000000001
 31
0.0
  0
ARC
  5
1BA
330
1F
100
AcDbEntity
  8
化粧台
  6
CONTINUOUS
 62
     2
100
AcDbCircle
 10
701.5000000000041
 20
1462.975339050051
 30
0.0
 40
287.0
100
AcDbArc
 50
0.0
 51
16.50255206380972
  0
ARC
  5
1BB
330
1F
100
AcDbEntity
  8
化粧台
  6
CONTINUOUS
 62
     2
100
AcDbCircle
 10
701.5000000000041
 20
1462.975339050051
 30
0.0
 40
300.0
100
AcDbArc
 50
0.0
 51
15.76836133331106
  0
LINE
  5
1BC
330
1F
100
AcDbEntity
  8
化粧台
  6
CONTINUOUS
 62
     2
100
AcDbLine
 10
1001.500000000004
 20
1324.200000000001
 30
0.0
 11
1001.500000000004
 21
1462.975339050051
 31
0.0
  0
LINE
  5
1BD
330
1F
100
AcDbEntity
  8
化粧台
  6
CONTINUOUS
 62
     2
100
AcDbLine
 10
988.5000000000041
 20
1462.975339050051
 30
0.0
 11
988.5000000000041
 21
1324.2
 31
0.0
  0
LINE
  5
1BE
330
1F
100
AcDbEntity
  8
化粧台
  6
CONTINUOUS
 62
     2
100
AcDbLine
 10
984.0304555427115
 20
1312.2
 30
0.0
 11
1005.969544457291
 21
1312.2
 31
0.0
  0
LINE
  5
1BF
330
1F
100
AcDbEntity
  8
化粧台
  6
CONTINUOUS
 62
     2
100
AcDbLine
 10
984.0304555427115
 20
1324.2
 30
0.0
 11
1005.969544457291
 21
1324.2
 31
0.0
  0
LINE
  5
1C0
330
1F
100
AcDbEntity
  8
化粧台
  6
CONTINUOUS
 62
     2
100
AcDbLine
 10
983.5000000000014
 20
1323.29288719687
 30
0.0
 11
983.5000000000014
 21
1313.10711280313
 31
0.0
  0
LINE
  5
1C1
330
1F
100
AcDbEntity
  8
化粧台
  6
CONTINUOUS
 62
     2
100
AcDbLine
 10
1006.500000000001
 20
1323.29288719687
 30
0.0
 11
1006.500000000001
 21
1313.10711280313
 31
0.0
  0
ARC
  5
1C2
330
1F
100
AcDbEntity
  8
化粧台
  6
CONTINUOUS
 62
     2
100
AcDbCircle
 10
993.2500000000014
 20
1318.2
 30
0.0
 40
11.0
100
AcDbArc
 50
146.9442688490998
 51
152.4198007963999
  0
ARC
  5
1C3
330
1F
100
AcDbEntity
  8
化粧台
  6
CONTINUOUS
 62
     2
100
AcDbCircle
 10
993.2500000000014
 20
1318.2
 30
0.0
 40
11.0
100
AcDbArc
 50
207.5801992036001
 51
213.0557311509001
  0
ARC
  5
1C4
330
1F
100
AcDbEntity
  8
化粧台
  6
CONTINUOUS
 62
     2
100
AcDbCircle
 10
996.7500000000014
 20
1318.2
 30
0.0
 40
11.0
100
AcDbArc
 50
326.9442688491004
 51
332.4198007964001
  0
ARC
  5
1C5
330
1F
100
AcDbEntity
  8
化粧台
  6
CONTINUOUS
 62
     2
100
AcDbCircle
 10
996.7500000000014
 20
1318.2
 30
0.0
 40
11.0
100
AcDbArc
 50
27.58019920359027
 51
33.05573115085006
  0
ARC
  5
1C6
330
1F
100
AcDbEntity
  8
化粧台
  6
CONTINUOUS
 62
     2
100
AcDbCircle
 10
1138.499999999997
 20
1462.975339050051
 30
0.0
 40
300.0
100
AcDbArc
 50
164.231638666689
 51
180.0
  0
LINE
  5
1C7
330
1F
100
AcDbEntity
  8
化粧台
  6
CONTINUOUS
 62
     2
100
AcDbLine
 10
838.4999999999986
 20
1324.200000000001
 30
0.0
 11
838.4999999999986
 21
1462.975339050051
 31
0.0
  0
ARC
  5
1C8
330
1F
100
AcDbEntity
  8
化粧台
  6
CONTINUOUS
 62
     2
100
AcDbCircle
 10
1138.499999999997
 20
1462.975339050051
 30
0.0
 40
287.0
100
AcDbArc
 50
163.4974479361903
 51
180.0
  0
LINE
  5
1C9
330
1F
100
AcDbEntity
  8
化粧台
  6
CONTINUOUS
 62
     2
100
AcDbLine
 10
851.4999999999986
 20
1462.975339050051
 30
0.0
 11
851.4999999999986
 21
1324.2
 31
0.0
  0
LINE
  5
1CA
330
1F
100
AcDbEntity
  8
化粧台
  6
CONTINUOUS
 62
     2
100
AcDbLine
 10
855.9695444572912
 20
1312.2
 30
0.0
 11
834.0304555427115
 21
1312.2
 31
0.0
  0
LINE
  5
1CB
330
1F
100
AcDbEntity
  8
化粧台
  6
CONTINUOUS
 62
     2
100
AcDbLine
 10
855.9695444572912
 20
1324.2
 30
0.0
 11
834.0304555427115
 21
1324.2
 31
0.0
  0
LINE
  5
1CC
330
1F
100
AcDbEntity
  8
化粧台
  6
CONTINUOUS
 62
     2
100
AcDbLine
 10
856.5000000000014
 20
1323.29288719687
 30
0.0
 11
856.5000000000014
 21
1313.10711280313
 31
0.0
  0
LINE
  5
1CD
330
1F
100
AcDbEntity
  8
化粧台
  6
CONTINUOUS
 62
     2
100
AcDbLine
 10
833.5000000000014
 20
1323.29288719687
 30
0.0
 11
833.5000000000014
 21
1313.10711280313
 31
0.0
  0
ARC
  5
1CE
330
1F
100
AcDbEntity
  8
化粧台
  6
CONTINUOUS
 62
     2
100
AcDbCircle
 10
846.7500000000014
 20
1318.2
 30
0.0
 40
11.0
100
AcDbArc
 50
27.58019920360115
 51
33.05573115089945
  0
ARC
  5
1CF
330
1F
100
AcDbEntity
  8
化粧台
  6
CONTINUOUS
 62
     2
100
AcDbCircle
 10
846.7500000000014
 20
1318.2
 30
0.0
 40
11.0
100
AcDbArc
 50
326.9442688491007
 51
332.4198007963992
  0
ARC
  5
1D0
330
1F
100
AcDbEntity
  8
化粧台
  6
CONTINUOUS
 62
     2
100
AcDbCircle
 10
843.2500000000014
 20
1318.2
 30
0.0
 40
11.0
100
AcDbArc
 50
207.5801992036012
 51
213.0557311508995
  0
ARC
  5
1D1
330
1F
100
AcDbEntity
  8
化粧台
  6
CONTINUOUS
 62
     2
100
AcDbCircle
 10
843.2500000000014
 20
1318.2
 30
0.0
 40
11.0
100
AcDbArc
 50
146.9442688491492
 51
152.4198007964095
  0
LINE
  5
1D2
330
1F
100
AcDbEntity
  8
化粧台
  6
CONTINUOUS
 62
     2
100
AcDbLine
 10
650.0000000000023
 20
1734.5
 30
0.0
 11
1190.0
 21
1734.5
 31
0.0
  0
ARC
  5
1D3
330
1F
100
AcDbEntity
  8
化粧台
  6
CONTINUOUS
 62
     2
100
AcDbCircle
 10
655.0000000000023
 20
1599.5
 30
0.0
 40
5.0
100
AcDbArc
 50
182.2025981617654
 51
270.0000000000002
  0
ARC
  5
1D4
330
1F
100
AcDbEntity
  8
化粧台
  6
CONTINUOUS
 62
     2
100
AcDbCircle
 10
650.0000000000023
 20
1729.5
 30
0.0
 40
5.0
100
AcDbArc
 50
90.00000000000004
 51
182.2025981617654
  0
LINE
  5
1D5
330
1F
100
AcDbEntity
  8
化粧台
  6
CONTINUOUS
 62
     2
100
AcDbLine
 10
650.0036941268459
 20
1599.307834389494
 30
0.0
 11
645.0036941268459
 21
1729.307834389494
 31
0.0
  0
ARC
  5
1D6
330
1F
100
AcDbEntity
  8
化粧台
  6
CONTINUOUS
 62
     2
100
AcDbCircle
 10
1185.0
 20
1599.5
 30
0.0
 40
5.0
100
AcDbArc
 50
270.0000000000002
 51
357.7974018382349
  0
ARC
  5
1D7
330
1F
100
AcDbEntity
  8
化粧台
  6
CONTINUOUS
 62
     2
100
AcDbCircle
 10
1190.0
 20
1729.5
 30
0.0
 40
5.0
100
AcDbArc
 50
357.7974018382349
 51
90.00000000000004
  0
LINE
  5
1D8
330
1F
100
AcDbEntity
  8
化粧台
  6
CONTINUOUS
 62
     2
100
AcDbLine
 10
1189.996305873157
 20
1599.307834389494
 30
0.0
 11
1194.996305873157
 21
1729.307834389494
 31
0.0
  0
LINE
  5
1D9
330
1F
100
AcDbEntity
  8
化粧台
  6
EXLTYPE3
 62
     6
100
AcDbLine
 10
920.0000000000014
 20
1897.05
 30
0.0
 11
920.0000000000014
 21
854.5000000000009
 31
0.0
  0
LINE
  5
1DA
330
1F
100
AcDbEntity
  8
化粧台
  6
EXLTYPE3
 62
     6
100
AcDbLine
 10
2150.500000000001
 20
1604.5
 30
0.0
 11
2150.500000000001
 21
1311.500000000001
 31
0.0
  0
LINE
  5
1DB
330
1F
100
AcDbEntity
  8
化粧台
  6
CONTINUOUS
 62
     6
100
AcDbLine
 10
2393.5
 20
1300.0
 30
0.0
 11
2393.5
 21
1279.0
 31
0.0
  0
LINE
  5
1DC
330
1F
100
AcDbEntity
  8
化粧台
  6
CONTINUOUS
 62
     6
100
AcDbLine
 10
2385.500000000004
 20
1355.0
 30
0.0
 11
2410.5
 21
1355.0
 31
0.0
  0
LINE
  5
1DD
330
1F
100
AcDbEntity
  8
化粧台
  6
CONTINUOUS
 62
     6
100
AcDbLine
 10
2410.5
 20
1304.0
 30
0.0
 11
2410.5
 21
1355.0
 31
0.0
  0
LINE
  5
1DE
330
1F
100
AcDbEntity
  8
化粧台
  6
CONTINUOUS
 62
     6
100
AcDbLine
 10
2385.500000000004
 20
1304.0
 30
0.0
 11
2410.5
 21
1304.0
 31
0.0
  0
ARC
  5
1DF
330
1F
100
AcDbEntity
  8
化粧台
  6
EXLTYPE2
 62
     6
100
AcDbCircle
 10
2212.499999999999
 20
1284.49999999995
 30
0.0
 40
10.0
100
AcDbArc
 50
143.1301023541561
 51
216.8698976458443
  0
ARC
  5
1E0
330
1F
100
AcDbEntity
  8
化粧台
  6
EXLTYPE2
 62
     6
100
AcDbCircle
 10
2240.499999999999
 20
1284.49999999995
 30
0.0
 40
10.0
100
AcDbArc
 50
323.1301023541562
 51
36.869897645844
  0
LINE
  5
1E1
330
1F
100
AcDbEntity
  8
化粧台
  6
EXLTYPE2
 62
     6
100
AcDbLine
 10
2204.499999999999
 20
1278.499999999949
 30
0.0
 11
2248.5
 21
1278.499999999949
 31
0.0
  0
LINE
  5
1E2
330
1F
100
AcDbEntity
  8
化粧台
  6
EXLTYPE2
 62
     6
100
AcDbLine
 10
2204.499999999999
 20
1290.49999999995
 30
0.0
 11
2248.5
 21
1290.49999999995
 31
0.0
  0
ELLIPSE
  5
1E3
330
1F
100
AcDbEntity
  8
化粧台
  6
EXLTYPE2
 62
     6
100
AcDbEllipse
 10
2245.143431964719
 20
1284.49999999995
 30
0.0
 11
3.673969509765456E-16
 21
6.000047544032152
 31
0.0
210
0.0
220
0.0
230
1.0
 40
0.8927542650237573
 41
0.0
 42
6.283185307179586
  0
ELLIPSE
  5
1E4
330
1F
100
AcDbEntity
  8
化粧台
  6
EXLTYPE2
 62
     6
100
AcDbEllipse
 10
2226.499999999999
 20
1284.49999999995
 30
0.0
 11
10.66536450385001
 21
0.0
 31
0.0
210
0.0
220
0.0
230
1.0
 40
0.5625686771262349
 41
0.0
 42
6.283185307179586
  0
ELLIPSE
  5
1E5
330
1F
100
AcDbEntity
  8
化粧台
  6
EXLTYPE2
 62
     6
100
AcDbEllipse
 10
2207.856568035279
 20
1284.49999999995
 30
0.0
 11
3.673969509765480E-16
 21
6.00004754403219
 31
0.0
210
0.0
220
0.0
230
1.0
 40
0.8927542650237517
 41
0.0
 42
6.283185307179586
  0
LINE
  5
1E6
330
1F
100
AcDbEntity
  8
化粧台
  6
EXLTYPE2
 62
     6
100
AcDbLine
 10
2210.499999999999
 20
1278.499999999949
 30
0.0
 11
2210.499999999999
 21
1275.499999999949
 31
0.0
  0
LINE
  5
1E7
330
1F
100
AcDbEntity
  8
化粧台
  6
EXLTYPE2
 62
     6
100
AcDbLine
 10
2242.5
 20
1278.499999999949
 30
0.0
 11
2242.5
 21
1275.49999999995
 31
0.0
  0
LINE
  5
1E8
330
1F
100
AcDbEntity
  8
化粧台
  6
EXLTYPE2
 62
     6
100
AcDbLine
 10
2366.9
 20
1279.0
 30
0.0
 11
2393.5
 21
1279.0
 31
0.0
  0
LINE
  5
1E9
330
1F
100
AcDbEntity
  8
化粧台
  6
EXLTYPE2
 62
     6
100
AcDbLine
 10
2300.5
 20
1319.5
 30
0.0
 11
2300.5
 21
1259.5
 31
0.0
  0
LINE
  5
1EA
330
1F
100
AcDbEntity
  8
化粧台
  6
EXLTYPE2
 62
     6
100
AcDbLine
 10
2257.5
 20
1289.5
 30
0.0
 11
2403.5
 21
1289.5
 31
0.0
  0
LINE
  5
1EB
330
1F
100
AcDbEntity
  8
化粧台
  6
EXLTYPE2
 62
     6
100
AcDbLine
 10
2328.5
 20
1279.0
 30
0.0
 11
2350.9
 21
1279.0
 31
0.0
  0
LINE
  5
1EC
330
1F
100
AcDbEntity
  8
化粧台
  6
EXLTYPE2
 62
     6
100
AcDbLine
 10
2328.5
 20
1300.0
 30
0.0
 11
2350.9
 21
1300.0
 31
0.0
  0
LINE
  5
1ED
330
1F
100
AcDbEntity
  8
化粧台
  6
EXLTYPE2
 62
     6
100
AcDbLine
 10
2366.9
 20
1300.0
 30
0.0
 11
2393.5
 21
1300.0
 31
0.0
  0
LINE
  5
1EE
330
1F
100
AcDbEntity
  8
化粧台
  6
EXLTYPE2
 62
     6
100
AcDbLine
 10
2350.9
 20
1278.75
 30
0.0
 11
2350.9
 21
1300.25
 31
0.0
  0
LINE
  5
1EF
330
1F
100
AcDbEntity
  8
化粧台
  6
EXLTYPE2
 62
     6
100
AcDbLine
 10
2364.9
 20
1262.0
 30
0.0
 11
2366.9
 21
1262.0
 31
0.0
  0
ARC
  5
1F0
330
1F
100
AcDbEntity
  8
化粧台
  6
EXLTYPE2
 62
     6
100
AcDbCircle
 10
2364.9
 20
1275.0
 30
0.0
 40
13.00000000000001
100
AcDbArc
 50
203.5808366037087
 51
270.0000000000002
  0
ARC
  5
1F1
330
1F
100
AcDbEntity
  8
化粧台
  6
EXLTYPE2
 62
     6
100
AcDbCircle
 10
2376.172907943693
 20
1279.920522989787
 30
0.0
 40
25.3
100
AcDbArc
 50
182.6517777161361
 51
203.5808366037087
  0
LINE
  5
1F2
330
1F
100
AcDbEntity
  8
化粧台
  6
EXLTYPE2
 62
     6
100
AcDbLine
 10
2364.9
 20
1317.0
 30
0.0
 11
2366.9
 21
1317.0
 31
0.0
  0
ARC
  5
1F3
330
1F
100
AcDbEntity
  8
化粧台
  6
EXLTYPE2
 62
     6
100
AcDbCircle
 10
2364.9
 20
1304.0
 30
0.0
 40
13.00000000000001
100
AcDbArc
 50
90.00000000000004
 51
156.4191633962913
  0
ARC
  5
1F4
330
1F
100
AcDbEntity
  8
化粧台
  6
EXLTYPE2
 62
     6
100
AcDbCircle
 10
2376.172907943693
 20
1299.079477010213
 30
0.0
 40
25.3
100
AcDbArc
 50
156.4191633962913
 51
177.3482222838639
  0
LINE
  5
1F5
330
1F
100
AcDbEntity
  8
化粧台
  6
EXLTYPE2
 62
     6
100
AcDbLine
 10
2366.9
 20
1262.0
 30
0.0
 11
2366.9
 21
1317.0
 31
0.0
  0
ARC
  5
1F6
330
1F
100
AcDbEntity
  8
化粧台
  6
EXLTYPE2
 62
     6
100
AcDbCircle
 10
2321.733492688986
 20
1278.458176101744
 30
0.0
 40
6.48477522399863
100
AcDbArc
 50
334.5814208763676
 51
34.58142087631842
  0
ARC
  5
1F7
330
1F
100
AcDbEntity
  8
化粧台
  6
EXLTYPE2
 62
     6
100
AcDbCircle
 10
2321.733492688988
 20
1300.541823898255
 30
0.0
 40
6.484775223996668
100
AcDbArc
 50
325.4185791236709
 51
25.41857912362466
  0
LINE
  5
1F8
330
1F
100
AcDbEntity
  8
化粧台
  6
EXLTYPE2
 62
     6
100
AcDbLine
 10
2267.5
 20
1294.25
 30
0.0
 11
2267.5
 21
1284.75
 31
0.0
  0
LINE
  5
1F9
330
1F
100
AcDbEntity
  8
化粧台
  6
EXLTYPE2
 62
     6
100
AcDbLine
 10
2267.5
 20
1284.75
 30
0.0
 11
2273.1
 21
1284.75
 31
0.0
  0
LINE
  5
1FA
330
1F
100
AcDbEntity
  8
化粧台
  6
EXLTYPE2
 62
     6
100
AcDbLine
 10
2267.5
 20
1294.25
 30
0.0
 11
2273.1
 21
1294.25
 31
0.0
  0
LINE
  5
1FB
330
1F
100
AcDbEntity
  8
化粧台
  6
EXLTYPE2
 62
     6
100
AcDbLine
 10
2311.0
 20
1305.5
 30
0.0
 11
2311.0
 21
1312.199999999999
 31
0.0
  0
LINE
  5
1FC
330
1F
100
AcDbEntity
  8
化粧台
  6
EXLTYPE2
 62
     6
100
AcDbLine
 10
2290.0
 20
1305.5
 30
0.0
 11
2290.0
 21
1312.199999999999
 31
0.0
  0
LINE
  5
1FD
330
1F
100
AcDbEntity
  8
化粧台
  6
EXLTYPE2
 62
     6
100
AcDbLine
 10
2327.07254079757
 20
1296.861215932169
 30
0.0
 11
2321.5
 21
1296.861215932169
 31
0.0
  0
ARC
  5
1FE
330
1F
100
AcDbEntity
  8
化粧台
  6
EXLTYPE2
 62
     6
100
AcDbCircle
 10
2303.850108933171
 20
1289.5
 30
0.0
 40
24.36121593222906
100
AcDbArc
 50
342.4120462260467
 51
17.58795377395367
  0
LINE
  5
1FF
330
1F
100
AcDbEntity
  8
化粧台
  6
EXLTYPE2
 62
     6
100
AcDbLine
 10
2327.07254079757
 20
1282.138784067829
 30
0.0
 11
2321.5
 21
1282.138784067829
 31
0.0
  0
ARC
  5
200
330
1F
100
AcDbEntity
  8
化粧台
  6
EXLTYPE2
 62
     6
100
AcDbCircle
 10
2322.109964188521
 20
1278.458176101744
 30
0.0
 40
3.730808399165755
100
AcDbArc
 50
99.40974969436748
 51
210.0722396099043
  0
ARC
  5
201
330
1F
100
AcDbEntity
  8
化粧台
  6
EXLTYPE2
 62
     6
100
AcDbCircle
 10
2328.660901979814
 20
1289.5
 30
0.0
 40
10.26966490030429
100
AcDbArc
 50
134.209728477994
 51
225.790271522007
  0
ARC
  5
202
330
1F
100
AcDbEntity
  8
化粧台
  6
EXLTYPE2
 62
     6
100
AcDbCircle
 10
2322.10996418852
 20
1300.541823898255
 30
0.0
 40
3.730808399165569
100
AcDbArc
 50
149.9277603900981
 51
260.590250305647
  0
LINE
  5
203
330
1F
100
AcDbEntity
  8
化粧台
  6
EXLTYPE2
 62
     6
100
AcDbLine
 10
2286.0
 20
1277.0
 30
0.0
 11
2316.60587997238
 21
1277.0
 31
0.0
  0
LINE
  5
204
330
1F
100
AcDbEntity
  8
化粧台
  6
EXLTYPE2
 62
     6
100
AcDbLine
 10
2286.0
 20
1302.0
 30
0.0
 11
2286.5
 21
1302.0
 31
0.0
  0
ELLIPSE
  5
205
330
1F
100
AcDbEntity
  8
化粧台
  6
EXLTYPE2
 62
     6
100
AcDbEllipse
 10
2282.22508278236
 20
1300.795087933359
 30
0.0
 11
-3.49106001094
 21
-2.673152616792092E-15
 31
0.0
210
0.0
220
0.0
230
1.0
 40
0.8464225929603442
 41
0.0
 42
6.283185307179586
  0
ELLIPSE
  5
206
330
1F
100
AcDbEntity
  8
化粧台
  6
EXLTYPE2
 62
     6
100
AcDbEllipse
 10
2282.22508278236
 20
1289.5
 30
0.0
 11
-3.530391779415926E-15
 21
5.83630876496
 31
0.0
210
0.0
220
0.0
230
1.0
 40
0.5981623234020119
 41
0.0
 42
6.283185307179586
  0
ELLIPSE
  5
207
330
1F
100
AcDbEntity
  8
化粧台
  6
EXLTYPE2
 62
     6
100
AcDbEllipse
 10
2282.22508278236
 20
1278.20491206664
 30
0.0
 11
-3.49106001094
 21
-2.673152616792092E-15
 31
0.0
210
0.0
220
0.0
230
1.0
 40
0.8464225929603442
 41
0.0
 42
6.283185307179586
  0
LINE
  5
208
330
1F
100
AcDbEntity
  8
化粧台
  6
EXLTYPE2
 62
     6
100
AcDbLine
 10
2277.84345017772
 20
1277.425651083609
 30
0.0
 11
2277.84345017772
 21
1301.574348916489
 31
0.0
  0
LINE
  5
209
330
1F
100
AcDbEntity
  8
化粧台
  6
EXLTYPE2
 62
     6
100
AcDbLine
 10
2273.1
 20
1294.799999999999
 30
0.0
 11
2277.84345017772
 21
1301.57434891639
 31
0.0
  0
ARC
  5
20A
330
1F
100
AcDbEntity
  8
化粧台
  6
EXLTYPE2
 62
     6
100
AcDbCircle
 10
2282.22508278236
 20
1298.25
 30
0.0
 40
5.5
100
AcDbArc
 50
46.65824177279989
 51
142.8123740608007
  0
LINE
  5
20B
330
1F
100
AcDbEntity
  8
化粧台
  6
EXLTYPE2
 62
     6
100
AcDbLine
 10
2273.1
 20
1284.199999999999
 30
0.0
 11
2277.84345017772
 21
1277.425651083609
 31
0.0
  0
ARC
  5
20C
330
1F
100
AcDbEntity
  8
化粧台
  6
EXLTYPE2
 62
     6
100
AcDbCircle
 10
2282.22508278236
 20
1280.75
 30
0.0
 40
5.5
100
AcDbArc
 50
217.1876259392006
 51
313.3417582272002
  0
LINE
  5
20D
330
1F
100
AcDbEntity
  8
化粧台
  6
EXLTYPE2
 62
     6
100
AcDbLine
 10
2286.0
 20
1276.75
 30
0.0
 11
2286.0
 21
1302.25
 31
0.0
  0
LINE
  5
20E
330
1F
100
AcDbEntity
  8
化粧台
  6
EXLTYPE2
 62
     6
100
AcDbLine
 10
2273.1
 20
1284.199999999999
 30
0.0
 11
2273.1
 21
1294.799999999999
 31
0.0
  0
LINE
  5
20F
330
1F
100
AcDbEntity
  8
化粧台
  6
EXLTYPE2
 62
     6
100
AcDbLine
 10
2314.5
 20
1302.0
 30
0.0
 11
2316.605879972376
 21
1302.0
 31
0.0
  0
ARC
  5
210
330
1F
100
AcDbEntity
  8
化粧台
  6
EXLTYPE2
 62
     6
100
AcDbCircle
 10
2314.5
 20
1305.5
 30
0.0
 40
3.500000000000002
100
AcDbArc
 50
180.0
 51
270.0000000000002
  0
ARC
  5
211
330
1F
100
AcDbEntity
  8
化粧台
  6
EXLTYPE2
 62
     6
100
AcDbCircle
 10
2286.5
 20
1305.5
 30
0.0
 40
3.500000000000002
100
AcDbArc
 50
270.0000000000002
 51
0.0
  0
LINE
  5
212
330
1F
100
AcDbEntity
  8
化粧台
  6
EXLTYPE2
 62
     6
100
AcDbLine
 10
2327.07254079757
 20
1274.77756813566
 30
0.0
 11
2321.5
 21
1274.77756813566
 31
0.0
  0
LINE
  5
213
330
1F
100
AcDbEntity
  8
化粧台
  6
EXLTYPE2
 62
     6
100
AcDbLine
 10
2327.07254079757
 20
1304.222431864339
 30
0.0
 11
2321.5
 21
1304.222431864339
 31
0.0
  0
LINE
  5
214
330
1F
100
AcDbEntity
  8
化粧台
  6
EXLTYPE2
 62
     6
100
AcDbLine
 10
2328.5
 20
1301.75
 30
0.0
 11
2328.5
 21
1277.25
 31
0.0
  0
LINE
  5
215
330
1F
100
AcDbEntity
  8
化粧台
  6
EXLTYPE2
 62
     6
100
AcDbLine
 10
2328.5
 20
1277.25
 30
0.0
 11
2327.072540797569
 21
1274.77756813566
 31
0.0
  0
LINE
  5
216
330
1F
100
AcDbEntity
  8
化粧台
  6
EXLTYPE2
 62
     6
100
AcDbLine
 10
2328.5
 20
1301.749999999999
 30
0.0
 11
2327.072540797569
 21
1304.222431864339
 31
0.0
  0
ARC
  5
217
330
1F
100
AcDbEntity
  8
化粧台
  6
EXLTYPE2
 62
     6
100
AcDbCircle
 10
2316.605879972376
 20
1270.5
 30
0.0
 40
6.500000000000004
100
AcDbArc
 50
41.1541700736668
 51
90.00000000000004
  0
ARC
  5
218
330
1F
100
AcDbEntity
  8
化粧台
  6
EXLTYPE2
 62
     6
100
AcDbCircle
 10
2316.605879972376
 20
1308.5
 30
0.0
 40
6.500000000000004
100
AcDbArc
 50
270.0000000000002
 51
318.8458299263331
  0
LINE
  5
219
330
1F
100
AcDbEntity
  8
化粧台
  6
EXLTYPE2
 62
     6
100
AcDbLine
 10
2264.500000000001
 20
1313.500000000002
 30
0.0
 11
2326.900000000002
 21
1313.500000000002
 31
0.0
  0
LINE
  5
21A
330
1F
100
AcDbEntity
  8
化粧台
  6
EXLTYPE2
 62
     6
100
AcDbLine
 10
2264.5
 20
1345.500000000002
 30
0.0
 11
2326.900000000002
 21
1345.500000000002
 31
0.0
  0
LINE
  5
21B
330
1F
100
AcDbEntity
  8
化粧台
  6
EXLTYPE2
 62
     6
100
AcDbLine
 10
2420.5
 20
1329.5
 30
0.0
 11
2264.5
 21
1329.5
 31
0.0
  0
LINE
  5
21C
330
1F
100
AcDbEntity
  8
化粧台
  6
EXLTYPE2
 62
     6
100
AcDbLine
 10
2380.5
 20
1309.500000000002
 30
0.0
 11
2383.500000000004
 21
1309.500000000002
 31
0.0
  0
LINE
  5
21D
330
1F
100
AcDbEntity
  8
化粧台
  6
EXLTYPE2
 62
     6
100
AcDbLine
 10
2380.5
 20
1349.500000000002
 30
0.0
 11
2383.500000000004
 21
1349.500000000002
 31
0.0
  0
LINE
  5
21E
330
1F
100
AcDbEntity
  8
化粧台
  6
EXLTYPE2
 62
     6
100
AcDbLine
 10
2383.500000000004
 20
1359.5
 30
0.0
 11
2385.5
 21
1359.5
 31
0.0
  0
LINE
  5
21F
330
1F
100
AcDbEntity
  8
化粧台
  6
EXLTYPE2
 62
     6
100
AcDbLine
 10
2383.500000000004
 20
1299.5
 30
0.0
 11
2385.5
 21
1299.5
 31
0.0
  0
LINE
  5
220
330
1F
100
AcDbEntity
  8
化粧台
  6
EXLTYPE2
 62
     6
100
AcDbLine
 10
2383.500000000004
 20
1299.5
 30
0.0
 11
2383.500000000004
 21
1359.5
 31
0.0
  0
LINE
  5
221
330
1F
100
AcDbEntity
  8
化粧台
  6
EXLTYPE2
 62
     6
100
AcDbLine
 10
2385.500000000004
 20
1299.5
 30
0.0
 11
2385.500000000004
 21
1359.5
 31
0.0
  0
LINE
  5
222
330
1F
100
AcDbEntity
  8
化粧台
  6
EXLTYPE2
 62
     6
100
AcDbLine
 10
2380.5
 20
1307.5
 30
0.0
 11
2380.5
 21
1351.5
 31
0.0
  0
LINE
  5
223
330
1F
100
AcDbEntity
  8
化粧台
  6
EXLTYPE2
 62
     6
100
AcDbLine
 10
2368.5
 20
1307.5
 30
0.0
 11
2368.5
 21
1351.5
 31
0.0
  0
ELLIPSE
  5
224
330
1F
100
AcDbEntity
  8
化粧台
  6
EXLTYPE2
 62
     6
100
AcDbEllipse
 10
2374.5
 20
1310.85656803528
 30
0.0
 11
-6.00004754403219
 21
-4.594318843831032E-15
 31
0.0
210
0.0
220
0.0
230
1.0
 40
0.8927542650237517
 41
0.0
 42
6.283185307179586
  0
ELLIPSE
  5
225
330
1F
100
AcDbEntity
  8
化粧台
  6
EXLTYPE2
 62
     6
100
AcDbEllipse
 10
2374.5
 20
1329.5
 30
0.0
 11
-6.451494717847500E-15
 21
10.66536450385001
 31
0.0
210
0.0
220
0.0
230
1.0
 40
0.5625686771262349
 41
0.0
 42
6.283185307179586
  0
ELLIPSE
  5
226
330
1F
100
AcDbEntity
  8
化粧台
  6
EXLTYPE2
 62
     6
100
AcDbEllipse
 10
2374.5
 20
1348.14343196472
 30
0.0
 11
-6.000047544032152
 21
-4.594318843831003E-15
 31
0.0
210
0.0
220
0.0
230
1.0
 40
0.8927542650237573
 41
0.0
 42
6.283185307179586
  0
ARC
  5
227
330
1F
100
AcDbEntity
  8
化粧台
  6
EXLTYPE2
 62
     6
100
AcDbCircle
 10
2374.5
 20
1343.5
 30
0.0
 40
10.0
100
AcDbArc
 50
53.13010235415626
 51
126.869897645844
  0
ARC
  5
228
330
1F
100
AcDbEntity
  8
化粧台
  6
EXLTYPE2
 62
     6
100
AcDbCircle
 10
2374.5
 20
1315.5
 30
0.0
 40
10.0
100
AcDbArc
 50
233.1301023541561
 51
306.8698976458444
  0
LINE
  5
229
330
1F
100
AcDbEntity
  8
化粧台
  6
EXLTYPE2
 62
     6
100
AcDbLine
 10
2337.902990000001
 20
1296.500000000001
 30
0.0
 11
2366.900000000002
 21
1296.500000000001
 31
0.0
  0
LINE
  5
22A
330
1F
100
AcDbEntity
  8
化粧台
  6
EXLTYPE2
 62
     6
100
AcDbLine
 10
2337.902990000001
 20
1362.500000000001
 30
0.0
 11
2366.900000000002
 21
1362.500000000001
 31
0.0
  0
LINE
  5
22B
330
1F
100
AcDbEntity
  8
化粧台
  6
EXLTYPE2
 62
     6
100
AcDbLine
 10
2366.900000000002
 20
1362.500000000001
 30
0.0
 11
2366.900000000002
 21
1296.500000000001
 31
0.0
  0
ARC
  5
22C
330
1F
100
AcDbEntity
  8
化粧台
  6
EXLTYPE2
 62
     6
100
AcDbCircle
 10
2337.902990000001
 20
1307.502992000001
 30
0.0
 40
11.002992
100
AcDbArc
 50
180.0000000000002
 51
270.0000000000002
  0
ARC
  5
22D
330
1F
100
AcDbEntity
  8
化粧台
  6
EXLTYPE2
 62
     6
100
AcDbCircle
 10
2337.902990000001
 20
1351.497008
 30
0.0
 40
11.002992
100
AcDbArc
 50
90.00000000000009
 51
180.0000000000002
  0
LINE
  5
22E
330
1F
100
AcDbEntity
  8
化粧台
  6
EXLTYPE2
 62
     6
100
AcDbLine
 10
2326.900000000002
 20
1351.497008
 30
0.0
 11
2326.900000000002
 21
1307.502992000001
 31
0.0
  0
ARC
  5
22F
330
1F
100
AcDbEntity
  8
化粧台
  6
EXLTYPE2
 62
     6
100
AcDbCircle
 10
2264.500000000001
 20
1291.499999999949
 30
0.0
 40
22.00000000000069
100
AcDbArc
 50
90.00000000000004
 51
182.6052512650556
  0
ARC
  5
230
330
1F
100
AcDbEntity
  8
化粧台
  6
EXLTYPE2
 62
     6
100
AcDbCircle
 10
2264.5
 20
1291.499999999948
 30
0.0
 40
54.00000000000068
100
AcDbArc
 50
90.00000000000004
 51
181.0610936076217
  0
ARC
  5
231
330
1F
100
AcDbEntity
  8
化粧台
  6
EXLTYPE2
 62
     6
100
AcDbCircle
 10
2136.499999999999
 20
1367.49999999995
 30
0.0
 40
10.0
100
AcDbArc
 50
143.1301023541561
 51
216.8698976458443
  0
ARC
  5
232
330
1F
100
AcDbEntity
  8
化粧台
  6
EXLTYPE2
 62
     6
100
AcDbCircle
 10
2164.499999999999
 20
1367.49999999995
 30
0.0
 40
10.0
100
AcDbArc
 50
323.1301023541562
 51
36.869897645844
  0
LINE
  5
233
330
1F
100
AcDbEntity
  8
化粧台
  6
EXLTYPE2
 62
     6
100
AcDbLine
 10
2128.499999999999
 20
1361.49999999995
 30
0.0
 11
2172.499999999999
 21
1361.49999999995
 31
0.0
  0
ELLIPSE
  5
234
330
1F
100
AcDbEntity
  8
化粧台
  6
EXLTYPE2
 62
     6
100
AcDbEllipse
 10
2169.143431964719
 20
1367.49999999995
 30
0.0
 11
3.673969509765456E-16
 21
6.000047544032152
 31
0.0
210
0.0
220
0.0
230
1.0
 40
0.8927542650237573
 41
0.0
 42
6.283185307179586
  0
ELLIPSE
  5
235
330
1F
100
AcDbEntity
  8
化粧台
  6
EXLTYPE2
 62
     6
100
AcDbEllipse
 10
2150.499999999999
 20
1367.49999999995
 30
0.0
 11
10.66536450385001
 21
0.0
 31
0.0
210
0.0
220
0.0
230
1.0
 40
0.5625686771262349
 41
0.0
 42
6.283185307179586
  0
ELLIPSE
  5
236
330
1F
100
AcDbEntity
  8
化粧台
  6
EXLTYPE2
 62
     6
100
AcDbEllipse
 10
2131.856568035279
 20
1367.49999999995
 30
0.0
 11
3.673969509765480E-16
 21
6.00004754403219
 31
0.0
210
0.0
220
0.0
230
1.0
 40
0.8927542650237517
 41
0.0
 42
6.283185307179586
  0
LINE
  5
237
330
1F
100
AcDbEntity
  8
化粧台
  6
EXLTYPE2
 62
     6
100
AcDbLine
 10
2133.75
 20
1361.49999999995
 30
0.0
 11
2133.75
 21
1312.274886499951
 31
0.0
  0
LINE
  5
238
330
1F
100
AcDbEntity
  8
化粧台
  6
EXLTYPE2
 62
     6
100
AcDbLine
 10
2167.249999999997
 20
1361.49999999995
 30
0.0
 11
2167.249999999997
 21
1312.274886499951
 31
0.0
  0
LINE
  5
239
330
1F
100
AcDbEntity
  8
化粧台
  6
EXLTYPE2
 62
     6
100
AcDbLine
 10
2167.250000000029
 20
1312.27488649992
 30
0.0
 11
2166.499999999999
 21
1311.524886499889
 31
0.0
  0
LINE
  5
23A
330
1F
100
AcDbEntity
  8
化粧台
  6
EXLTYPE2
 62
     6
100
AcDbLine
 10
2133.750000000011
 20
1312.274886499962
 30
0.0
 11
2134.499999999999
 21
1311.524886499973
 31
0.0
  0
LINE
  5
23B
330
1F
100
AcDbEntity
  8
化粧台
  6
EXLTYPE2
 62
     6
100
AcDbLine
 10
2134.499999999999
 20
1311.899886499969
 30
0.0
 11
2166.499999999999
 21
1311.899886499969
 31
0.0
  0
ARC
  5
23C
330
1F
100
AcDbEntity
  8
化粧台
  6
EXLTYPE2
 62
     6
100
AcDbCircle
 10
2188.499999999999
 20
1275.49999999995
 30
0.0
 40
54.00000000000048
100
AcDbArc
 50
179.9999999999998
 51
0.0
  0
ARC
  5
23D
330
1F
100
AcDbEntity
  8
化粧台
  6
EXLTYPE2
 62
     6
100
AcDbCircle
 10
2188.499999999999
 20
1275.49999999995
 30
0.0
 40
21.99999999999954
100
AcDbArc
 50
179.9999999999995
 51
0.0
  0
LINE
  5
23E
330
1F
100
AcDbEntity
  8
化粧台
  6
EXLTYPE2
 62
     6
100
AcDbLine
 10
2166.499999999999
 20
1311.524886499889
 30
0.0
 11
2166.499999999999
 21
1275.499999999949
 31
0.0
  0
LINE
  5
23F
330
1F
100
AcDbEntity
  8
化粧台
  6
EXLTYPE2
 62
     6
100
AcDbLine
 10
2134.499999999999
 20
1311.524886499969
 30
0.0
 11
2134.499999999999
 21
1275.499999999951
 31
0.0
  0
LINE
  5
240
330
1F
100
AcDbEntity
  8
化粧台
  6
EXLTYPE2
 62
     6
100
AcDbLine
 10
2128.499999999999
 20
1373.49999999995
 30
0.0
 11
2172.499999999999
 21
1373.49999999995
 31
0.0
  0
LINE
  5
241
330
1F
100
AcDbEntity
  8
化粧台
  6
EXLTYPE3
 62
     6
100
AcDbLine
 10
2254.5
 20
1399.5
 30
0.0
 11
2425.499999999999
 21
1399.5
 31
0.0
  0
LINE
  5
242
330
1F
100
AcDbEntity
  8
化粧台
  6
EXLTYPE4
 62
     6
100
AcDbLine
 10
2264.5
 20
1383.500000000002
 30
0.0
 11
2415.499999999999
 21
1383.500000000002
 31
0.0
  0
LINE
  5
243
330
1F
100
AcDbEntity
  8
化粧台
  6
EXLTYPE4
 62
     6
100
AcDbLine
 10
2264.5
 20
1415.500000000001
 30
0.0
 11
2415.499999999999
 21
1415.5
 31
0.0
  0
LINE
  5
244
330
1F
100
AcDbEntity
  8
化粧台
  6
CONTINUOUS
 62
     6
100
AcDbLine
 10
2415.5
 20
1383.500000000001
 30
0.0
 11
2415.5
 21
1415.5
 31
0.0
  0
LINE
  5
245
330
1F
100
AcDbEntity
  8
化粧台
  6
EXLTYPE4
 62
     6
100
AcDbLine
 10
2316.0
 20
1094.5
 30
0.0
 11
2316.0
 21
886.5
 31
0.0
  0
LINE
  5
246
330
1F
100
AcDbEntity
  8
化粧台
  6
EXLTYPE4
 62
     6
100
AcDbLine
 10
2295.0
 20
1094.5
 30
0.0
 11
2295.0
 21
886.5
 31
0.0
  0
LINE
  5
247
330
1F
100
AcDbEntity
  8
化粧台
  6
EXLTYPE3
 62
     6
100
AcDbLine
 10
2305.5
 20
1104.5
 30
0.0
 11
2305.5
 21
876.5
 31
0.0
  0
LINE
  5
248
330
1F
100
AcDbEntity
  8
化粧台
  6
EXLTYPE3
 62
     6
100
AcDbLine
 10
2255.5
 20
1104.5
 30
0.0
 11
2255.5
 21
854.5
 31
0.0
  0
LINE
  5
249
330
1F
100
AcDbEntity
  8
化粧台
  6
EXLTYPE4
 62
     6
100
AcDbLine
 10
2239.500000000001
 20
1094.5
 30
0.0
 11
2239.500000000001
 21
864.5
 31
0.0
  0
LINE
  5
24A
330
1F
100
AcDbEntity
  8
化粧台
  6
EXLTYPE4
 62
     6
100
AcDbLine
 10
2271.500000000001
 20
1094.5
 30
0.0
 11
2271.500000000001
 21
864.5
 31
0.0
  0
LINE
  5
24B
330
1F
100
AcDbEntity
  8
化粧台
  6
CONTINUOUS
 62
     6
100
AcDbLine
 10
2239.500000000001
 20
864.5
 30
0.0
 11
2271.500000000001
 21
864.5
 31
0.0
  0
LINE
  5
24C
330
1F
100
AcDbEntity
  8
化粧台
  6
CONTINUOUS
 62
     6
100
AcDbLine
 10
2316.0
 20
886.5
 30
0.0
 11
2295.0
 21
886.5
 31
0.0
  0
LINE
  5
24D
330
1F
100
AcDbEntity
  8
化粧台
  6
EXLTYPE2
 62
     6
100
AcDbLine
 10
1935.5
 20
1544.4999999994
 30
0.0
 11
2385.5
 21
1544.4999999994
 31
0.0
  0
LINE
  5
24E
330
1F
100
AcDbEntity
  8
化粧台
  6
EXLTYPE2
 62
     6
100
AcDbLine
 10
2366.9
 20
1144.4999999994
 30
0.0
 11
2385.5
 21
1144.4999999994
 31
0.0
  0
LINE
  5
24F
330
1F
100
AcDbEntity
  8
化粧台
  6
EXLTYPE2
 62
     6
100
AcDbLine
 10
2366.9
 20
1544.4999999994
 30
0.0
 11
2366.9
 21
1144.4999999994
 31
0.0
  0
LINE
  5
250
330
1F
100
AcDbEntity
  8
化粧台
  6
EXLTYPE2
 62
     6
100
AcDbLine
 10
2307.0
 20
1594.5
 30
0.0
 11
2307.0
 21
1324.199999999999
 31
0.0
  0
LINE
  5
251
330
1F
100
AcDbEntity
  8
化粧台
  6
EXLTYPE2
 62
     6
100
AcDbLine
 10
2293.999999999999
 20
1594.5
 30
0.0
 11
2293.999999999999
 21
1324.199999999999
 31
0.0
  0
ARC
  5
252
330
1F
100
AcDbEntity
  8
化粧台
  6
EXLTYPE2
 62
     6
100
AcDbCircle
 10
2298.75
 20
1318.199999999999
 30
0.0
 40
11.0
100
AcDbArc
 50
146.9442688491499
 51
213.0557311508992
  0
LINE
  5
253
330
1F
100
AcDbEntity
  8
化粧台
  6
EXLTYPE2
 62
     6
100
AcDbLine
 10
2311.469544457289
 20
1312.199999999999
 30
0.0
 11
2289.53045554271
 21
1312.199999999999
 31
0.0
  0
ARC
  5
254
330
1F
100
AcDbEntity
  8
化粧台
  6
EXLTYPE2
 62
     6
100
AcDbCircle
 10
2302.25
 20
1318.199999999999
 30
0.0
 40
11.0
100
AcDbArc
 50
326.9442688491002
 51
33.05573115089992
  0
LINE
  5
255
330
1F
100
AcDbEntity
  8
化粧台
  6
EXLTYPE2
 62
     6
100
AcDbLine
 10
2311.469544457289
 20
1324.199999999999
 30
0.0
 11
2289.53045554271
 21
1324.199999999999
 31
0.0
  0
ELLIPSE
  5
256
330
1F
100
AcDbEntity
  8
化粧台
  6
EXLTYPE2
 62
     6
100
AcDbEllipse
 10
2290.521773649841
 20
1318.199999999999
 30
0.0
 11
-9.355482006098073E-16
 21
-5.09288719687
 31
0.0
210
0.0
220
0.0
230
1.0
 40
0.544244068775661
 41
0.0
 42
6.283185307179586
  0
ELLIPSE
  5
257
330
1F
100
AcDbEntity
  8
化粧台
  6
EXLTYPE2
 62
     6
100
AcDbEllipse
 10
2300.5
 20
1318.199999999999
 30
0.0
 11
5.50567888639
 21
0.0
 31
0.0
210
0.0
220
0.0
230
1.0
 40
0.9250243797290071
 41
0.0
 42
6.283185307179586
  0
ELLIPSE
  5
258
330
1F
100
AcDbEntity
  8
化粧台
  6
EXLTYPE2
 62
     6
100
AcDbEllipse
 10
2310.478226350162
 20
1318.199999999999
 30
0.0
 11
3.118494002032691E-16
 21
5.09288719687
 31
0.0
210
0.0
220
0.0
230
1.0
 40
0.544244068775661
 41
0.0
 42
6.283185307179586
  0
ARC
  5
259
330
1F
100
AcDbEntity
  8
化粧台
  6
EXLTYPE2
 62
     6
100
AcDbCircle
 10
2221.500000000002
 20
1508.5
 30
0.0
 40
3.000000000000003
100
AcDbArc
 50
270.0000000000002
 51
0.0
  0
LINE
  5
25A
330
1F
100
AcDbEntity
  8
化粧台
  6
EXLTYPE2
 62
     6
100
AcDbLine
 10
2221.500000000002
 20
1505.5
 30
0.0
 11
2212.500000000002
 21
1505.5
 31
0.0
  0
LINE
  5
25B
330
1F
100
AcDbEntity
  8
化粧台
  6
EXLTYPE2
 62
     6
100
AcDbLine
 10
2224.500000000002
 20
1524.5
 30
0.0
 11
2224.500000000002
 21
1508.5
 31
0.0
  0
ARC
  5
25C
330
1F
100
AcDbEntity
  8
化粧台
  6
EXLTYPE2
 62
     6
100
AcDbCircle
 10
2221.500000000002
 20
1524.5
 30
0.0
 40
3.000000000000003
100
AcDbArc
 50
0.0
 51
90.00000000000004
  0
LINE
  5
25D
330
1F
100
AcDbEntity
  8
化粧台
  6
EXLTYPE2
 62
     6
100
AcDbLine
 10
2345.500000000002
 20
1519.5
 30
0.0
 11
2224.500000000002
 21
1519.5
 31
0.0
  0
LINE
  5
25E
330
1F
100
AcDbEntity
  8
化粧台
  6
EXLTYPE2
 62
     6
100
AcDbLine
 10
2345.500000000002
 20
1513.5
 30
0.0
 11
2224.500000000002
 21
1513.5
 31
0.0
  0
LINE
  5
25F
330
1F
100
AcDbEntity
  8
化粧台
  6
EXLTYPE2
 62
     6
100
AcDbLine
 10
2345.500000000002
 20
1519.5
 30
0.0
 11
2345.500000000002
 21
1513.5
 31
0.0
  0
LINE
  5
260
330
1F
100
AcDbEntity
  8
化粧台
  6
EXLTYPE2
 62
     6
100
AcDbLine
 10
2212.500000000002
 20
1528.5
 30
0.0
 11
2212.500000000002
 21
1504.5
 31
0.0
  0
LINE
  5
261
330
1F
100
AcDbEntity
  8
化粧台
  6
EXLTYPE2
 62
     6
100
AcDbLine
 10
2221.500000000002
 20
1527.5
 30
0.0
 11
2212.500000000002
 21
1527.5
 31
0.0
  0
LINE
  5
262
330
1F
100
AcDbEntity
  8
化粧台
  6
EXLTYPE2
 62
     6
100
AcDbLine
 10
2166.375000000002
 20
1497.5
 30
0.0
 11
2166.375000000002
 21
1373.49999999995
 31
0.0
  0
LINE
  5
263
330
1F
100
AcDbEntity
  8
化粧台
  6
EXLTYPE2
 62
     6
100
AcDbLine
 10
2134.625000000002
 20
1497.5
 30
0.0
 11
2134.625000000002
 21
1373.49999999995
 31
0.0
  0
LINE
  5
264
330
1F
100
AcDbEntity
  8
化粧台
  6
EXLTYPE2
 62
     6
100
AcDbLine
 10
2201.000000000002
 20
1506.0
 30
0.0
 11
2192.500000000002
 21
1506.0
 31
0.0
  0
LINE
  5
265
330
1F
100
AcDbEntity
  8
化粧台
  6
EXLTYPE2
 62
     6
100
AcDbLine
 10
2212.500000000002
 20
1504.5
 30
0.0
 11
2206.000000000002
 21
1504.5
 31
0.0
  0
LINE
  5
266
330
1F
100
AcDbEntity
  8
化粧台
  6
EXLTYPE2
 62
     6
100
AcDbLine
 10
2173.161264000004
 20
1506.302424
 30
0.0
 11
2192.500000000002
 21
1508.5
 31
0.0
  0
ARC
  5
267
330
1F
100
AcDbEntity
  8
化粧台
  6
EXLTYPE2
 62
     6
100
AcDbCircle
 10
2173.500000000002
 20
1503.321608
 30
0.0
 40
3.000000000000003
100
AcDbArc
 50
96.48307400000006
 51
180.0
  0
LINE
  5
268
330
1F
100
AcDbEntity
  8
化粧台
  6
EXLTYPE2
 62
     6
100
AcDbLine
 10
2170.500000000002
 20
1503.321608
 30
0.0
 11
2170.500000000002
 21
1499.5
 31
0.0
  0
LINE
  5
269
330
1F
100
AcDbEntity
  8
化粧台
  6
EXLTYPE2
 62
     6
100
AcDbLine
 10
2170.500000000002
 20
1499.5
 30
0.0
 11
2130.500000000002
 21
1499.5
 31
0.0
  0
LINE
  5
26A
330
1F
100
AcDbEntity
  8
化粧台
  6
EXLTYPE2
 62
     6
100
AcDbLine
 10
2166.500000000002
 20
1497.5
 30
0.0
 11
2134.500000000002
 21
1497.5
 31
0.0
  0
LINE
  5
26B
330
1F
100
AcDbEntity
  8
化粧台
  6
EXLTYPE2
 62
     6
100
AcDbLine
 10
2166.500000000002
 20
1497.5
 30
0.0
 11
2170.500000000002
 21
1499.5
 31
0.0
  0
LINE
  5
26C
330
1F
100
AcDbEntity
  8
化粧台
  6
EXLTYPE2
 62
     6
100
AcDbLine
 10
2134.500000000002
 20
1497.5
 30
0.0
 11
2130.500000000002
 21
1499.5
 31
0.0
  0
LINE
  5
26D
330
1F
100
AcDbEntity
  8
化粧台
  6
EXLTYPE2
 62
     6
100
AcDbLine
 10
2206.000000000002
 20
1505.0
 30
0.0
 11
2201.000000000002
 21
1505.0
 31
0.0
  0
LINE
  5
26E
330
1F
100
AcDbEntity
  8
化粧台
  6
EXLTYPE2
 62
     6
100
AcDbLine
 10
2273.766644436768
 20
1419.917211938255
 30
0.0
 11
2294.000000000001
 21
1563.885017495337
 31
0.0
  0
LINE
  5
26F
330
1F
100
AcDbEntity
  8
化粧台
  6
EXLTYPE2
 62
     6
100
AcDbLine
 10
2267.825036024318
 20
1420.752250544014
 30
0.0
 11
2273.766644436768
 21
1419.917211938255
 31
0.0
  0
LINE
  5
270
330
1F
100
AcDbEntity
  8
化粧台
  6
EXLTYPE2
 62
     6
100
AcDbLine
 10
2292.243689760485
 20
1594.5
 30
0.0
 11
2267.825036024314
 21
1420.752250544016
 31
0.0
  0
ARC
  5
271
330
1F
100
AcDbEntity
  8
化粧台
  6
EXLTYPE2
 62
     6
100
AcDbCircle
 10
2114.836477008476
 20
1564.5
 30
0.0
 40
5.0
100
AcDbArc
 50
188.1301023541575
 51
270.0000000000002
  0
ARC
  5
272
330
1F
100
AcDbEntity
  8
化粧台
  6
EXLTYPE2
 62
     6
100
AcDbCircle
 10
2186.163522991525
 20
1564.5
 30
0.0
 40
5.0
100
AcDbArc
 50
270.0000000000002
 51
351.8698976458426
  0
ARC
  5
273
330
1F
100
AcDbEntity
  8
化粧台
  6
EXLTYPE2
 62
     6
100
AcDbCircle
 10
2179.209237755405
 20
1596.706325208987
 30
0.0
 40
35.0
100
AcDbArc
 50
289.8838940558181
 51
338.8864999216353
  0
LINE
  5
274
330
1F
100
AcDbEntity
  8
化粧台
  6
EXLTYPE2
 62
     6
100
AcDbLine
 10
2114.836477008476
 20
1559.5
 30
0.0
 11
2129.000000000001
 21
1559.5
 31
0.0
  0
LINE
  5
275
330
1F
100
AcDbEntity
  8
化粧台
  6
EXLTYPE2
 62
     6
100
AcDbLine
 10
2206.000000000002
 20
1528.5
 30
0.0
 11
2206.000000000002
 21
1504.5
 31
0.0
  0
LINE
  5
276
330
1F
100
AcDbEntity
  8
化粧台
  6
EXLTYPE2
 62
     6
100
AcDbLine
 10
2201.000000000002
 20
1527.0
 30
0.0
 11
2192.500000000002
 21
1527.0
 31
0.0
  0
LINE
  5
277
330
1F
100
AcDbEntity
  8
化粧台
  6
EXLTYPE2
 62
     6
100
AcDbLine
 10
2201.000000000002
 20
1528.0
 30
0.0
 11
2201.000000000002
 21
1505.0
 31
0.0
  0
LINE
  5
278
330
1F
100
AcDbEntity
  8
化粧台
  6
EXLTYPE2
 62
     6
100
AcDbLine
 10
2212.500000000002
 20
1528.5
 30
0.0
 11
2206.000000000002
 21
1528.5
 31
0.0
  0
LINE
  5
279
330
1F
100
AcDbEntity
  8
化粧台
  6
EXLTYPE2
 62
     6
100
AcDbLine
 10
2192.500000000002
 20
1527.0
 30
0.0
 11
2192.500000000002
 21
1506.0
 31
0.0
  0
LINE
  5
27A
330
1F
100
AcDbEntity
  8
化粧台
  6
EXLTYPE2
 62
     6
100
AcDbLine
 10
2170.500000000002
 20
1537.0
 30
0.0
 11
2170.500000000002
 21
1529.678400000001
 31
0.0
  0
LINE
  5
27B
330
1F
100
AcDbEntity
  8
化粧台
  6
EXLTYPE2
 62
     6
100
AcDbLine
 10
2173.161264000004
 20
1526.697584
 30
0.0
 11
2192.500000000002
 21
1524.5
 31
0.0
  0
ARC
  5
27C
330
1F
100
AcDbEntity
  8
化粧台
  6
EXLTYPE2
 62
     6
100
AcDbCircle
 10
2173.500000000002
 20
1529.678400000001
 30
0.0
 40
3.000000000000003
100
AcDbArc
 50
180.0
 51
263.5169260000002
  0
LINE
  5
27D
330
1F
100
AcDbEntity
  8
化粧台
  6
EXLTYPE2
 62
     6
100
AcDbLine
 10
2130.500000000002
 20
1537.0
 30
0.0
 11
2130.500000000002
 21
1499.5
 31
0.0
  0
ARC
  5
27E
330
1F
100
AcDbEntity
  8
化粧台
  6
EXLTYPE2
 62
     6
100
AcDbCircle
 10
2132.500000000002
 20
1540.5
 30
0.0
 40
3.500000000000002
100
AcDbArc
 50
90.00000000000004
 51
270.0000000000002
  0
ARC
  5
27F
330
1F
100
AcDbEntity
  8
化粧台
  6
EXLTYPE2
 62
     6
100
AcDbCircle
 10
2168.500000000002
 20
1540.5
 30
0.0
 40
3.500000000000002
100
AcDbArc
 50
270.0000000000002
 51
90.00000000000004
  0
LINE
  5
280
330
1F
100
AcDbEntity
  8
化粧台
  6
EXLTYPE2
 62
     6
100
AcDbLine
 10
2168.500000000002
 20
1544.0
 30
0.0
 11
2132.500000000002
 21
1544.0
 31
0.0
  0
LINE
  5
281
330
1F
100
AcDbEntity
  8
化粧台
  6
EXLTYPE2
 62
     6
100
AcDbLine
 10
2123.000000000002
 20
1552.83333333333
 30
0.0
 11
2178.000000000002
 21
1552.83333333333
 31
0.0
  0
LINE
  5
282
330
1F
100
AcDbEntity
  8
化粧台
  6
EXLTYPE2
 62
     6
100
AcDbLine
 10
2123.000000000002
 20
1553.83333333333
 30
0.0
 11
2178.000000000002
 21
1553.83333333333
 31
0.0
  0
LINE
  5
283
330
1F
100
AcDbEntity
  8
化粧台
  6
EXLTYPE2
 62
     6
100
AcDbLine
 10
2124.500000000002
 20
1552.83333333333
 30
0.0
 11
2176.500000000002
 21
1552.83333333333
 31
0.0
  0
LINE
  5
284
330
1F
100
AcDbEntity
  8
化粧台
  6
EXLTYPE2
 62
     6
100
AcDbLine
 10
2123.000000000004
 20
1555.33333333333
 30
0.0
 11
2123.000000000004
 21
1552.83333333333
 31
0.0
  0
LINE
  5
285
330
1F
100
AcDbEntity
  8
化粧台
  6
EXLTYPE2
 62
     6
100
AcDbLine
 10
2178.000000000004
 20
1555.33333333333
 30
0.0
 11
2178.000000000004
 21
1552.83333333333
 31
0.0
  0
LINE
  5
286
330
1F
100
AcDbEntity
  8
化粧台
  6
EXLTYPE2
 62
     6
100
AcDbLine
 10
2168.000000000002
 20
1544.33333333333
 30
0.0
 11
2168.000000000002
 21
1544.0
 31
0.0
  0
LINE
  5
287
330
1F
100
AcDbEntity
  8
化粧台
  6
EXLTYPE2
 62
     6
100
AcDbLine
 10
2133.000000000002
 20
1544.33333333333
 30
0.0
 11
2133.000000000002
 21
1544.0
 31
0.0
  0
LINE
  5
288
330
1F
100
AcDbEntity
  8
化粧台
  6
EXLTYPE2
 62
     6
100
AcDbLine
 10
2206.000000000002
 20
1528.0
 30
0.0
 11
2201.000000000002
 21
1528.0
 31
0.0
  0
LINE
  5
289
330
1F
100
AcDbEntity
  8
化粧台
  6
EXLTYPE2
 62
     6
100
AcDbLine
 10
2170.500000000002
 20
1537.0
 30
0.0
 11
2130.500000000002
 21
1537.0
 31
0.0
  0
LINE
  5
28A
330
1F
100
AcDbEntity
  8
化粧台
  6
EXLTYPE2
 62
     6
100
AcDbLine
 10
2176.500000000002
 20
1551.33333333333
 30
0.0
 11
2176.500000000002
 21
1552.83333333333
 31
0.0
  0
LINE
  5
28B
330
1F
100
AcDbEntity
  8
化粧台
  6
EXLTYPE2
 62
     6
100
AcDbLine
 10
2124.500000000002
 20
1551.33333333333
 30
0.0
 11
2124.500000000002
 21
1552.83333333333
 31
0.0
  0
LINE
  5
28C
330
1F
100
AcDbEntity
  8
化粧台
  6
EXLTYPE2
 62
     6
100
AcDbLine
 10
2124.500000000002
 20
1551.33333333333
 30
0.0
 11
2176.500000000002
 21
1551.33333333333
 31
0.0
  0
LINE
  5
28D
330
1F
100
AcDbEntity
  8
化粧台
  6
EXLTYPE2
 62
     6
100
AcDbLine
 10
2129.532256000002
 20
1544.33333333333
 30
0.0
 11
2129.532256000002
 21
1551.33333333333
 31
0.0
  0
LINE
  5
28E
330
1F
100
AcDbEntity
  8
化粧台
  6
EXLTYPE2
 62
     6
100
AcDbLine
 10
2129.532256000002
 20
1544.33333333333
 30
0.0
 11
2171.467736000002
 21
1544.33333333333
 31
0.0
  0
LINE
  5
28F
330
1F
100
AcDbEntity
  8
化粧台
  6
EXLTYPE2
 62
     6
100
AcDbLine
 10
2171.467736000002
 20
1544.33333333333
 30
0.0
 11
2171.467736000002
 21
1551.33333333333
 31
0.0
  0
LINE
  5
290
330
1F
100
AcDbEntity
  8
化粧台
  6
EXLTYPE2
 62
     6
100
AcDbLine
 10
2123.000000000002
 20
1555.33333333333
 30
0.0
 11
2178.000000000002
 21
1555.33333333333
 31
0.0
  0
LINE
  5
291
330
1F
100
AcDbEntity
  8
化粧台
  6
EXLTYPE2
 62
     6
100
AcDbLine
 10
2123.000000000002
 20
1553.83333333333
 30
0.0
 11
2178.000000000002
 21
1553.83333333333
 31
0.0
  0
LINE
  5
292
330
1F
100
AcDbEntity
  8
化粧台
  6
EXLTYPE2
 62
     6
100
AcDbLine
 10
2139.177416000002
 20
1544.33333333333
 30
0.0
 11
2139.177416000002
 21
1551.33333333333
 31
0.0
  0
LINE
  5
293
330
1F
100
AcDbEntity
  8
化粧台
  6
EXLTYPE2
 62
     6
100
AcDbLine
 10
2140.435480000002
 20
1544.33333333333
 30
0.0
 11
2140.435480000002
 21
1551.33333333333
 31
0.0
  0
LINE
  5
294
330
1F
100
AcDbEntity
  8
化粧台
  6
EXLTYPE2
 62
     6
100
AcDbLine
 10
2160.564512000003
 20
1544.33333333333
 30
0.0
 11
2160.564512000003
 21
1551.33333333333
 31
0.0
  0
LINE
  5
295
330
1F
100
AcDbEntity
  8
化粧台
  6
EXLTYPE2
 62
     6
100
AcDbLine
 10
2161.822576000002
 20
1544.33333333333
 30
0.0
 11
2161.822576000002
 21
1551.33333333333
 31
0.0
  0
POLYLINE
  5
296
330
1F
100
AcDbEntity
  8
化粧台
  6
EXLTYPE2
 62
     6
100
AcDb2dPolyline
 66
     1
 10
0.0
 20
0.0
 30
0.0
 70
   128
  0
VERTEX
  5
297
330
296
100
AcDbEntity
  8
化粧台
  6
EXLTYPE2
 62
     6
100
AcDbVertex
100
AcDb2dVertex
 10
2162.859798000003
 20
1540.500204
 30
0.0
  0
VERTEX
  5
298
330
296
100
AcDbEntity
  8
化粧台
  6
EXLTYPE2
 62
     6
100
AcDbVertex
100
AcDb2dVertex
 10
2162.871936000003
 20
1540.234399999999
 30
0.0
  0
VERTEX
  5
299
330
296
100
AcDbEntity
  8
化粧台
  6
EXLTYPE2
 62
     6
100
AcDbVertex
100
AcDb2dVertex
 10
2162.906730000002
 20
1539.976546
 30
0.0
  0
VERTEX
  5
29A
330
296
100
AcDbEntity
  8
化粧台
  6
EXLTYPE2
 62
     6
100
AcDbVertex
100
AcDb2dVertex
 10
2162.961282000002
 20
1539.73489
 30
0.0
  0
VERTEX
  5
29B
330
296
100
AcDbEntity
  8
化粧台
  6
EXLTYPE2
 62
     6
100
AcDbVertex
100
AcDb2dVertex
 10
2163.032054000003
 20
1539.510399999999
 30
0.0
  0
VERTEX
  5
29C
330
296
100
AcDbEntity
  8
化粧台
  6
EXLTYPE2
 62
     6
100
AcDbVertex
100
AcDb2dVertex
 10
2163.127754000003
 20
1539.27821
 30
0.0
  0
VERTEX
  5
29D
330
296
100
AcDbEntity
  8
化粧台
  6
EXLTYPE2
 62
     6
100
AcDbVertex
100
AcDb2dVertex
 10
2163.236384000003
 20
1539.068298
 30
0.0
  0
VERTEX
  5
29E
330
296
100
AcDbEntity
  8
化粧台
  6
EXLTYPE2
 62
     6
100
AcDbVertex
100
AcDb2dVertex
 10
2163.354228000002
 20
1538.880126
 30
0.0
  0
VERTEX
  5
29F
330
296
100
AcDbEntity
  8
化粧台
  6
EXLTYPE2
 62
     6
100
AcDbVertex
100
AcDb2dVertex
 10
2163.583200000003
 20
1538.587611999999
 30
0.0
  0
VERTEX
  5
2A0
330
296
100
AcDbEntity
  8
化粧台
  6
EXLTYPE2
 62
     6
100
AcDbVertex
100
AcDb2dVertex
 10
2163.827730000003
 20
1538.345890000001
 30
0.0
  0
VERTEX
  5
2A1
330
296
100
AcDbEntity
  8
化粧台
  6
EXLTYPE2
 62
     6
100
AcDbVertex
100
AcDb2dVertex
 10
2164.081306000002
 20
1538.146556
 30
0.0
  0
VERTEX
  5
2A2
330
296
100
AcDbEntity
  8
化粧台
  6
EXLTYPE2
 62
     6
100
AcDbVertex
100
AcDb2dVertex
 10
2164.472234000003
 20
1537.905189999999
 30
0.0
  0
VERTEX
  5
2A3
330
296
100
AcDbEntity
  8
化粧台
  6
EXLTYPE2
 62
     6
100
AcDbVertex
100
AcDb2dVertex
 10
2164.871560000003
 20
1537.720906
 30
0.0
  0
VERTEX
  5
2A4
330
296
100
AcDbEntity
  8
化粧台
  6
EXLTYPE2
 62
     6
100
AcDbVertex
100
AcDb2dVertex
 10
2165.277002000003
 20
1537.584806000001
 30
0.0
  0
VERTEX
  5
2A5
330
296
100
AcDbEntity
  8
化粧台
  6
EXLTYPE2
 62
     6
100
AcDbVertex
100
AcDb2dVertex
 10
2165.686276000002
 20
1537.487986
 30
0.0
  0
VERTEX
  5
2A6
330
296
100
AcDbEntity
  8
化粧台
  6
EXLTYPE2
 62
     6
100
AcDbVertex
100
AcDb2dVertex
 10
2166.097094000002
 20
1537.421546
 30
0.0
  0
VERTEX
  5
2A7
330
296
100
AcDbEntity
  8
化粧台
  6
EXLTYPE2
 62
     6
100
AcDbVertex
100
AcDb2dVertex
 10
2166.507174000004
 20
1537.376586
 30
0.0
  0
VERTEX
  5
2A8
330
296
100
AcDbEntity
  8
化粧台
  6
EXLTYPE2
 62
     6
100
AcDbVertex
100
AcDb2dVertex
 10
2167.096514000003
 20
1537.340952
 30
0.0
  0
VERTEX
  5
2A9
330
296
100
AcDbEntity
  8
化粧台
  6
EXLTYPE2
 62
     6
100
AcDbVertex
100
AcDb2dVertex
 10
2167.686260000002
 20
1537.341178000001
 30
0.0
  0
VERTEX
  5
2AA
330
296
100
AcDbEntity
  8
化粧台
  6
EXLTYPE2
 62
     6
100
AcDbVertex
100
AcDb2dVertex
 10
2168.275592000004
 20
1537.377296000001
 30
0.0
  0
VERTEX
  5
2AB
330
296
100
AcDbEntity
  8
化粧台
  6
EXLTYPE2
 62
     6
100
AcDbVertex
100
AcDb2dVertex
 10
2168.889334000003
 20
1537.45707
 30
0.0
  0
VERTEX
  5
2AC
330
296
100
AcDbEntity
  8
化粧台
  6
EXLTYPE2
 62
     6
100
AcDbVertex
100
AcDb2dVertex
 10
2169.500332000003
 20
1537.595294000001
 30
0.0
  0
VERTEX
  5
2AD
330
296
100
AcDbEntity
  8
化粧台
  6
EXLTYPE2
 62
     6
100
AcDbVertex
100
AcDb2dVertex
 10
2169.837392000003
 20
1537.703774
 30
0.0
  0
VERTEX
  5
2AE
330
296
100
AcDbEntity
  8
化粧台
  6
EXLTYPE2
 62
     6
100
AcDbVertex
100
AcDb2dVertex
 10
2170.172208000002
 20
1537.842581999999
 30
0.0
  0
VERTEX
  5
2AF
330
296
100
AcDbEntity
  8
化粧台
  6
EXLTYPE2
 62
     6
100
AcDbVertex
100
AcDb2dVertex
 10
2170.501942000003
 20
1538.019844
 30
0.0
  0
VERTEX
  5
2B0
330
296
100
AcDbEntity
  8
化粧台
  6
EXLTYPE2
 62
     6
100
AcDbVertex
100
AcDb2dVertex
 10
2170.823756000003
 20
1538.243678000001
 30
0.0
  0
VERTEX
  5
2B1
330
296
100
AcDbEntity
  8
化粧台
  6
EXLTYPE2
 62
     6
100
AcDbVertex
100
AcDb2dVertex
 10
2171.057706000003
 20
1538.448528000001
 30
0.0
  0
VERTEX
  5
2B2
330
296
100
AcDbEntity
  8
化粧台
  6
EXLTYPE2
 62
     6
100
AcDbVertex
100
AcDb2dVertex
 10
2171.281616000002
 20
1538.693542000001
 30
0.0
  0
VERTEX
  5
2B3
330
296
100
AcDbEntity
  8
化粧台
  6
EXLTYPE2
 62
     6
100
AcDbVertex
100
AcDb2dVertex
 10
2171.424178000003
 20
1538.885028000001
 30
0.0
  0
VERTEX
  5
2B4
330
296
100
AcDbEntity
  8
化粧台
  6
EXLTYPE2
 62
     6
100
AcDbVertex
100
AcDb2dVertex
 10
2171.557640000003
 20
1539.101986
 30
0.0
  0
VERTEX
  5
2B5
330
296
100
AcDbEntity
  8
化粧台
  6
EXLTYPE2
 62
     6
100
AcDbVertex
100
AcDb2dVertex
 10
2171.677780000004
 20
1539.346264
 30
0.0
  0
VERTEX
  5
2B6
330
296
100
AcDbEntity
  8
化粧台
  6
EXLTYPE2
 62
     6
100
AcDbVertex
100
AcDb2dVertex
 10
2171.769362000003
 20
1539.587092
 30
0.0
  0
VERTEX
  5
2B7
330
296
100
AcDbEntity
  8
化粧台
  6
EXLTYPE2
 62
     6
100
AcDbVertex
100
AcDb2dVertex
 10
2171.842714000004
 20
1539.851294
 30
0.0
  0
VERTEX
  5
2B8
330
296
100
AcDbEntity
  8
化粧台
  6
EXLTYPE2
 62
     6
100
AcDbVertex
100
AcDb2dVertex
 10
2171.887832000002
 20
1540.100428
 30
0.0
  0
VERTEX
  5
2B9
330
296
100
AcDbEntity
  8
化粧台
  6
EXLTYPE2
 62
     6
100
AcDbVertex
100
AcDb2dVertex
 10
2171.911894000003
 20
1540.360774000001
 30
0.0
  0
VERTEX
  5
2BA
330
296
100
AcDbEntity
  8
化粧台
  6
EXLTYPE2
 62
     6
100
AcDbVertex
100
AcDb2dVertex
 10
2171.915184000003
 20
1540.500204
 30
0.0
  0
VERTEX
  5
2BB
330
296
100
AcDbEntity
  8
化粧台
  6
EXLTYPE2
 62
     6
100
AcDbVertex
100
AcDb2dVertex
 10
2171.903028000002
 20
1540.765804000001
 30
0.0
  0
VERTEX
  5
2BC
330
296
100
AcDbEntity
  8
化粧台
  6
EXLTYPE2
 62
     6
100
AcDbVertex
100
AcDb2dVertex
 10
2171.868250000003
 20
1541.02346
 30
0.0
  0
VERTEX
  5
2BD
330
296
100
AcDbEntity
  8
化粧台
  6
EXLTYPE2
 62
     6
100
AcDbVertex
100
AcDb2dVertex
 10
2171.813700000002
 20
1541.265117999999
 30
0.0
  0
VERTEX
  5
2BE
330
296
100
AcDbEntity
  8
化粧台
  6
EXLTYPE2
 62
     6
100
AcDbVertex
100
AcDb2dVertex
 10
2171.742928000003
 20
1541.489608
 30
0.0
  0
VERTEX
  5
2BF
330
296
100
AcDbEntity
  8
化粧台
  6
EXLTYPE2
 62
     6
100
AcDbVertex
100
AcDb2dVertex
 10
2171.647228000003
 20
1541.721798
 30
0.0
  0
VERTEX
  5
2C0
330
296
100
AcDbEntity
  8
化粧台
  6
EXLTYPE2
 62
     6
100
AcDbVertex
100
AcDb2dVertex
 10
2171.538598000003
 20
1541.931708
 30
0.0
  0
VERTEX
  5
2C1
330
296
100
AcDbEntity
  8
化粧台
  6
EXLTYPE2
 62
     6
100
AcDbVertex
100
AcDb2dVertex
 10
2171.420754000002
 20
1542.119882000001
 30
0.0
  0
VERTEX
  5
2C2
330
296
100
AcDbEntity
  8
化粧台
  6
EXLTYPE2
 62
     6
100
AcDbVertex
100
AcDb2dVertex
 10
2171.191782000004
 20
1542.412396
 30
0.0
  0
VERTEX
  5
2C3
330
296
100
AcDbEntity
  8
化粧台
  6
EXLTYPE2
 62
     6
100
AcDbVertex
100
AcDb2dVertex
 10
2170.947252000004
 20
1542.654116
 30
0.0
  0
VERTEX
  5
2C4
330
296
100
AcDbEntity
  8
化粧台
  6
EXLTYPE2
 62
     6
100
AcDbVertex
100
AcDb2dVertex
 10
2170.693676000003
 20
1542.853450000001
 30
0.0
  0
VERTEX
  5
2C5
330
296
100
AcDbEntity
  8
化粧台
  6
EXLTYPE2
 62
     6
100
AcDbVertex
100
AcDb2dVertex
 10
2170.302748000004
 20
1543.094818
 30
0.0
  0
VERTEX
  5
2C6
330
296
100
AcDbEntity
  8
化粧台
  6
EXLTYPE2
 62
     6
100
AcDbVertex
100
AcDb2dVertex
 10
2169.903422000003
 20
1543.2791
 30
0.0
  0
VERTEX
  5
2C7
330
296
100
AcDbEntity
  8
化粧台
  6
EXLTYPE2
 62
     6
100
AcDbVertex
100
AcDb2dVertex
 10
2169.497980000002
 20
1543.415202
 30
0.0
  0
VERTEX
  5
2C8
330
296
100
AcDbEntity
  8
化粧台
  6
EXLTYPE2
 62
     6
100
AcDbVertex
100
AcDb2dVertex
 10
2169.088706000002
 20
1543.512022000001
 30
0.0
  0
VERTEX
  5
2C9
330
296
100
AcDbEntity
  8
化粧台
  6
EXLTYPE2
 62
     6
100
AcDbVertex
100
AcDb2dVertex
 10
2168.677888000004
 20
1543.578461999999
 30
0.0
  0
VERTEX
  5
2CA
330
296
100
AcDbEntity
  8
化粧台
  6
EXLTYPE2
 62
     6
100
AcDbVertex
100
AcDb2dVertex
 10
2168.267808000002
 20
1543.623422000001
 30
0.0
  0
VERTEX
  5
2CB
330
296
100
AcDbEntity
  8
化粧台
  6
EXLTYPE2
 62
     6
100
AcDbVertex
100
AcDb2dVertex
 10
2167.678468000004
 20
1543.659056
 30
0.0
  0
VERTEX
  5
2CC
330
296
100
AcDbEntity
  8
化粧台
  6
EXLTYPE2
 62
     6
100
AcDbVertex
100
AcDb2dVertex
 10
2167.088722000002
 20
1543.65883
 30
0.0
  0
VERTEX
  5
2CD
330
296
100
AcDbEntity
  8
化粧台
  6
EXLTYPE2
 62
     6
100
AcDbVertex
100
AcDb2dVertex
 10
2166.499390000003
 20
1543.62271
 30
0.0
  0
VERTEX
  5
2CE
330
296
100
AcDbEntity
  8
化粧台
  6
EXLTYPE2
 62
     6
100
AcDbVertex
100
AcDb2dVertex
 10
2165.885648000003
 20
1543.542938000001
 30
0.0
  0
VERTEX
  5
2CF
330
296
100
AcDbEntity
  8
化粧台
  6
EXLTYPE2
 62
     6
100
AcDbVertex
100
AcDb2dVertex
 10
2165.274650000003
 20
1543.404714
 30
0.0
  0
VERTEX
  5
2D0
330
296
100
AcDbEntity
  8
化粧台
  6
EXLTYPE2
 62
     6
100
AcDbVertex
100
AcDb2dVertex
 10
2164.937590000003
 20
1543.296233999999
 30
0.0
  0
VERTEX
  5
2D1
330
296
100
AcDbEntity
  8
化粧台
  6
EXLTYPE2
 62
     6
100
AcDbVertex
100
AcDb2dVertex
 10
2164.602772000004
 20
1543.157426
 30
0.0
  0
VERTEX
  5
2D2
330
296
100
AcDbEntity
  8
化粧台
  6
EXLTYPE2
 62
     6
100
AcDbVertex
100
AcDb2dVertex
 10
2164.273040000002
 20
1542.980164000001
 30
0.0
  0
VERTEX
  5
2D3
330
296
100
AcDbEntity
  8
化粧台
  6
EXLTYPE2
 62
     6
100
AcDbVertex
100
AcDb2dVertex
 10
2163.951226000003
 20
1542.756327999999
 30
0.0
  0
VERTEX
  5
2D4
330
296
100
AcDbEntity
  8
化粧台
  6
EXLTYPE2
 62
     6
100
AcDbVertex
100
AcDb2dVertex
 10
2163.717276000003
 20
1542.55148
 30
0.0
  0
VERTEX
  5
2D5
330
296
100
AcDbEntity
  8
化粧台
  6
EXLTYPE2
 62
     6
100
AcDbVertex
100
AcDb2dVertex
 10
2163.493366000002
 20
1542.306463999999
 30
0.0
  0
VERTEX
  5
2D6
330
296
100
AcDbEntity
  8
化粧台
  6
EXLTYPE2
 62
     6
100
AcDbVertex
100
AcDb2dVertex
 10
2163.350804000003
 20
1542.11498
 30
0.0
  0
VERTEX
  5
2D7
330
296
100
AcDbEntity
  8
化粧台
  6
EXLTYPE2
 62
     6
100
AcDbVertex
100
AcDb2dVertex
 10
2163.217342000004
 20
1541.898021999999
 30
0.0
  0
VERTEX
  5
2D8
330
296
100
AcDbEntity
  8
化粧台
  6
EXLTYPE2
 62
     6
100
AcDbVertex
100
AcDb2dVertex
 10
2163.097202000003
 20
1541.653742
 30
0.0
  0
VERTEX
  5
2D9
330
296
100
AcDbEntity
  8
化粧台
  6
EXLTYPE2
 62
     6
100
AcDbVertex
100
AcDb2dVertex
 10
2163.005620000004
 20
1541.412915999999
 30
0.0
  0
VERTEX
  5
2DA
330
296
100
AcDbEntity
  8
化粧台
  6
EXLTYPE2
 62
     6
100
AcDbVertex
100
AcDb2dVertex
 10
2162.932268000002
 20
1541.148714000001
 30
0.0
  0
VERTEX
  5
2DB
330
296
100
AcDbEntity
  8
化粧台
  6
EXLTYPE2
 62
     6
100
AcDbVertex
100
AcDb2dVertex
 10
2162.887150000002
 20
1540.899579999999
 30
0.0
  0
VERTEX
  5
2DC
330
296
100
AcDbEntity
  8
化粧台
  6
EXLTYPE2
 62
     6
100
AcDbVertex
100
AcDb2dVertex
 10
2162.863088000004
 20
1540.639234
 30
0.0
  0
VERTEX
  5
2DD
330
296
100
AcDbEntity
  8
化粧台
  6
EXLTYPE2
 62
     6
100
AcDbVertex
100
AcDb2dVertex
 10
2162.859798000003
 20
1540.500204
 30
0.0
  0
SEQEND
  5
2DE
330
296
100
AcDbEntity
  8
化粧台
  6
EXLTYPE2
 62
     6
  0
POLYLINE
  5
2DF
330
1F
100
AcDbEntity
  8
化粧台
  6
EXLTYPE2
 62
     6
100
AcDb2dPolyline
 66
     1
 10
0.0
 20
0.0
 30
0.0
 70
   128
  0
VERTEX
  5
2E0
330
2DF
100
AcDbEntity
  8
化粧台
  6
EXLTYPE2
 62
     6
100
AcDbVertex
100
AcDb2dVertex
 10
2150.499996000002
 20
1537.337726
 30
0.0
  0
VERTEX
  5
2E1
330
2DF
100
AcDbEntity
  8
化粧台
  6
EXLTYPE2
 62
     6
100
AcDbVertex
100
AcDb2dVertex
 10
2151.084264000003
 20
1537.34151
 30
0.0
  0
VERTEX
  5
2E2
330
2DF
100
AcDbEntity
  8
化粧台
  6
EXLTYPE2
 62
     6
100
AcDbVertex
100
AcDb2dVertex
 10
2151.668428000003
 20
1537.353598
 30
0.0
  0
VERTEX
  5
2E3
330
2DF
100
AcDbEntity
  8
化粧台
  6
EXLTYPE2
 62
     6
100
AcDbVertex
100
AcDb2dVertex
 10
2152.252438000003
 20
1537.374954000001
 30
0.0
  0
VERTEX
  5
2E4
330
2DF
100
AcDbEntity
  8
化粧台
  6
EXLTYPE2
 62
     6
100
AcDbVertex
100
AcDb2dVertex
 10
2152.835972000003
 20
1537.406714000001
 30
0.0
  0
VERTEX
  5
2E5
330
2DF
100
AcDbEntity
  8
化粧台
  6
EXLTYPE2
 62
     6
100
AcDbVertex
100
AcDb2dVertex
 10
2153.418502000002
 20
1537.44994
 30
0.0
  0
VERTEX
  5
2E6
330
2DF
100
AcDbEntity
  8
化粧台
  6
EXLTYPE2
 62
     6
100
AcDbVertex
100
AcDb2dVertex
 10
2153.999996000002
 20
1537.505332000001
 30
0.0
  0
VERTEX
  5
2E7
330
2DF
100
AcDbEntity
  8
化粧台
  6
EXLTYPE2
 62
     6
100
AcDbVertex
100
AcDb2dVertex
 10
2154.714676000003
 20
1537.592144
 30
0.0
  0
VERTEX
  5
2E8
330
2DF
100
AcDbEntity
  8
化粧台
  6
EXLTYPE2
 62
     6
100
AcDbVertex
100
AcDb2dVertex
 10
2155.427784000003
 20
1537.705857999999
 30
0.0
  0
VERTEX
  5
2E9
330
2DF
100
AcDbEntity
  8
化粧台
  6
EXLTYPE2
 62
     6
100
AcDbVertex
100
AcDb2dVertex
 10
2156.133550000002
 20
1537.855165999999
 30
0.0
  0
VERTEX
  5
2EA
330
2DF
100
AcDbEntity
  8
化粧台
  6
EXLTYPE2
 62
     6
100
AcDbVertex
100
AcDb2dVertex
 10
2156.826208000002
 20
1538.04876
 30
0.0
  0
VERTEX
  5
2EB
330
2DF
100
AcDbEntity
  8
化粧台
  6
EXLTYPE2
 62
     6
100
AcDbVertex
100
AcDb2dVertex
 10
2157.499996000002
 20
1538.295332
 30
0.0
  0
VERTEX
  5
2EC
330
2DF
100
AcDbEntity
  8
化粧台
  6
EXLTYPE2
 62
     6
100
AcDbVertex
100
AcDb2dVertex
 10
2157.941340000003
 20
1538.498572
 30
0.0
  0
VERTEX
  5
2ED
330
2DF
100
AcDbEntity
  8
化粧台
  6
EXLTYPE2
 62
     6
100
AcDbVertex
100
AcDb2dVertex
 10
2158.363524000002
 20
1538.740342000001
 30
0.0
  0
VERTEX
  5
2EE
330
2DF
100
AcDbEntity
  8
化粧台
  6
EXLTYPE2
 62
     6
100
AcDbVertex
100
AcDb2dVertex
 10
2158.754054000003
 20
1539.027066000001
 30
0.0
  0
VERTEX
  5
2EF
330
2DF
100
AcDbEntity
  8
化粧台
  6
EXLTYPE2
 62
     6
100
AcDbVertex
100
AcDb2dVertex
 10
2159.010384000003
 20
1539.268545999999
 30
0.0
  0
VERTEX
  5
2F0
330
2DF
100
AcDbEntity
  8
化粧台
  6
EXLTYPE2
 62
     6
100
AcDbVertex
100
AcDb2dVertex
 10
2159.232678000002
 20
1539.541123999999
 30
0.0
  0
VERTEX
  5
2F1
330
2DF
100
AcDbEntity
  8
化粧台
  6
EXLTYPE2
 62
     6
100
AcDbVertex
100
AcDb2dVertex
 10
2159.356990000002
 20
1539.743904000001
 30
0.0
  0
VERTEX
  5
2F2
330
2DF
100
AcDbEntity
  8
化粧台
  6
EXLTYPE2
 62
     6
100
AcDbVertex
100
AcDb2dVertex
 10
2159.455522000002
 20
1539.96126
 30
0.0
  0
VERTEX
  5
2F3
330
2DF
100
AcDbEntity
  8
化粧台
  6
EXLTYPE2
 62
     6
100
AcDbVertex
100
AcDb2dVertex
 10
2159.522442000003
 20
1540.188918
 30
0.0
  0
VERTEX
  5
2F4
330
2DF
100
AcDbEntity
  8
化粧台
  6
EXLTYPE2
 62
     6
100
AcDbVertex
100
AcDb2dVertex
 10
2159.553858000003
 20
1540.438924
 30
0.0
  0
VERTEX
  5
2F5
330
2DF
100
AcDbEntity
  8
化粧台
  6
EXLTYPE2
 62
     6
100
AcDbVertex
100
AcDb2dVertex
 10
2159.543040000002
 20
1540.690628
 30
0.0
  0
VERTEX
  5
2F6
330
2DF
100
AcDbEntity
  8
化粧台
  6
EXLTYPE2
 62
     6
100
AcDbVertex
100
AcDb2dVertex
 10
2159.490162000004
 20
1540.936392
 30
0.0
  0
VERTEX
  5
2F7
330
2DF
100
AcDbEntity
  8
化粧台
  6
EXLTYPE2
 62
     6
100
AcDbVertex
100
AcDb2dVertex
 10
2159.400018000002
 20
1541.171262
 30
0.0
  0
VERTEX
  5
2F8
330
2DF
100
AcDbEntity
  8
化粧台
  6
EXLTYPE2
 62
     6
100
AcDbVertex
100
AcDb2dVertex
 10
2159.221402000003
 20
1541.474700000001
 30
0.0
  0
VERTEX
  5
2F9
330
2DF
100
AcDbEntity
  8
化粧台
  6
EXLTYPE2
 62
     6
100
AcDbVertex
100
AcDb2dVertex
 10
2158.996342000004
 20
1541.746302
 30
0.0
  0
VERTEX
  5
2FA
330
2DF
100
AcDbEntity
  8
化粧台
  6
EXLTYPE2
 62
     6
100
AcDbVertex
100
AcDb2dVertex
 10
2158.719596000003
 20
1542.001758
 30
0.0
  0
VERTEX
  5
2FB
330
2DF
100
AcDbEntity
  8
化粧台
  6
EXLTYPE2
 62
     6
100
AcDbVertex
100
AcDb2dVertex
 10
2158.414938000004
 20
1542.225702
 30
0.0
  0
VERTEX
  5
2FC
330
2DF
100
AcDbEntity
  8
化粧台
  6
EXLTYPE2
 62
     6
100
AcDbVertex
100
AcDb2dVertex
 10
2158.091798000003
 20
1542.420994
 30
0.0
  0
VERTEX
  5
2FD
330
2DF
100
AcDbEntity
  8
化粧台
  6
EXLTYPE2
 62
     6
100
AcDbVertex
100
AcDb2dVertex
 10
2157.587092000003
 20
1542.668718000001
 30
0.0
  0
VERTEX
  5
2FE
330
2DF
100
AcDbEntity
  8
化粧台
  6
EXLTYPE2
 62
     6
100
AcDbVertex
100
AcDb2dVertex
 10
2157.061414000003
 20
1542.87284
 30
0.0
  0
VERTEX
  5
2FF
330
2DF
100
AcDbEntity
  8
化粧台
  6
EXLTYPE2
 62
     6
100
AcDbVertex
100
AcDb2dVertex
 10
2156.521714000002
 20
1543.040186
 30
0.0
  0
VERTEX
  5
300
330
2DF
100
AcDbEntity
  8
化粧台
  6
EXLTYPE2
 62
     6
100
AcDbVertex
100
AcDb2dVertex
 10
2155.974940000002
 20
1543.177582
 30
0.0
  0
VERTEX
  5
301
330
2DF
100
AcDbEntity
  8
化粧台
  6
EXLTYPE2
 62
     6
100
AcDbVertex
100
AcDb2dVertex
 10
2155.480480000004
 20
1543.281046
 30
0.0
  0
VERTEX
  5
302
330
2DF
100
AcDbEntity
  8
化粧台
  6
EXLTYPE2
 62
     6
100
AcDbVertex
100
AcDb2dVertex
 10
2154.982862000003
 20
1543.36825
 30
0.0
  0
VERTEX
  5
303
330
2DF
100
AcDbEntity
  8
化粧台
  6
EXLTYPE2
 62
     6
100
AcDbVertex
100
AcDb2dVertex
 10
2154.482220000004
 20
1543.440790000001
 30
0.0
  0
VERTEX
  5
304
330
2DF
100
AcDbEntity
  8
化粧台
  6
EXLTYPE2
 62
     6
100
AcDbVertex
100
AcDb2dVertex
 10
2153.979844000003
 20
1543.500076
 30
0.0
  0
VERTEX
  5
305
330
2DF
100
AcDbEntity
  8
化粧台
  6
EXLTYPE2
 62
     6
100
AcDbVertex
100
AcDb2dVertex
 10
2153.475704000002
 20
1543.547712
 30
0.0
  0
VERTEX
  5
306
330
2DF
100
AcDbEntity
  8
化粧台
  6
EXLTYPE2
 62
     6
100
AcDbVertex
100
AcDb2dVertex
 10
2152.970706000002
 20
1543.585208
 30
0.0
  0
VERTEX
  5
307
330
2DF
100
AcDbEntity
  8
化粧台
  6
EXLTYPE2
 62
     6
100
AcDbVertex
100
AcDb2dVertex
 10
2152.465666000002
 20
1543.614090000001
 30
0.0
  0
VERTEX
  5
308
330
2DF
100
AcDbEntity
  8
化粧台
  6
EXLTYPE2
 62
     6
100
AcDbVertex
100
AcDb2dVertex
 10
2151.960260000003
 20
1543.6358
 30
0.0
  0
VERTEX
  5
309
330
2DF
100
AcDbEntity
  8
化粧台
  6
EXLTYPE2
 62
     6
100
AcDbVertex
100
AcDb2dVertex
 10
2151.271122000004
 20
1543.655608000001
 30
0.0
  0
VERTEX
  5
30A
330
2DF
100
AcDbEntity
  8
化粧台
  6
EXLTYPE2
 62
     6
100
AcDbVertex
100
AcDb2dVertex
 10
2150.581752000004
 20
1543.663914000001
 30
0.0
  0
VERTEX
  5
30B
330
2DF
100
AcDbEntity
  8
化粧台
  6
EXLTYPE2
 62
     6
100
AcDbVertex
100
AcDb2dVertex
 10
2149.892146000004
 20
1543.660003999999
 30
0.0
  0
VERTEX
  5
30C
330
2DF
100
AcDbEntity
  8
化粧台
  6
EXLTYPE2
 62
     6
100
AcDbVertex
100
AcDb2dVertex
 10
2149.202734000002
 20
1543.64321
 30
0.0
  0
VERTEX
  5
30D
330
2DF
100
AcDbEntity
  8
化粧台
  6
EXLTYPE2
 62
     6
100
AcDbVertex
100
AcDb2dVertex
 10
2148.514062000004
 20
1543.61298
 30
0.0
  0
VERTEX
  5
30E
330
2DF
100
AcDbEntity
  8
化粧台
  6
EXLTYPE2
 62
     6
100
AcDbVertex
100
AcDb2dVertex
 10
2147.826132000004
 20
1543.569092
 30
0.0
  0
VERTEX
  5
30F
330
2DF
100
AcDbEntity
  8
化粧台
  6
EXLTYPE2
 62
     6
100
AcDbVertex
100
AcDb2dVertex
 10
2147.018988000003
 20
1543.498610000001
 30
0.0
  0
VERTEX
  5
310
330
2DF
100
AcDbEntity
  8
化粧台
  6
EXLTYPE2
 62
     6
100
AcDbVertex
100
AcDb2dVertex
 10
2146.212534000004
 20
1543.400525999999
 30
0.0
  0
VERTEX
  5
311
330
2DF
100
AcDbEntity
  8
化粧台
  6
EXLTYPE2
 62
     6
100
AcDbVertex
100
AcDb2dVertex
 10
2145.412332000004
 20
1543.264884
 30
0.0
  0
VERTEX
  5
312
330
2DF
100
AcDbEntity
  8
化粧台
  6
EXLTYPE2
 62
     6
100
AcDbVertex
100
AcDb2dVertex
 10
2144.623948000002
 20
1543.081728000001
 30
0.0
  0
VERTEX
  5
313
330
2DF
100
AcDbEntity
  8
化粧台
  6
EXLTYPE2
 62
     6
100
AcDbVertex
100
AcDb2dVertex
 10
2143.852946000003
 20
1542.841104000001
 30
0.0
  0
VERTEX
  5
314
330
2DF
100
AcDbEntity
  8
化粧台
  6
EXLTYPE2
 62
     6
100
AcDbVertex
100
AcDb2dVertex
 10
2143.347228000002
 20
1542.63941
 30
0.0
  0
VERTEX
  5
315
330
2DF
100
AcDbEntity
  8
化粧台
  6
EXLTYPE2
 62
     6
100
AcDbVertex
100
AcDb2dVertex
 10
2142.860106000002
 20
1542.394813999999
 30
0.0
  0
VERTEX
  5
316
330
2DF
100
AcDbEntity
  8
化粧台
  6
EXLTYPE2
 62
     6
100
AcDbVertex
100
AcDb2dVertex
 10
2142.405016000002
 20
1542.098844
 30
0.0
  0
VERTEX
  5
317
330
2DF
100
AcDbEntity
  8
化粧台
  6
EXLTYPE2
 62
     6
100
AcDbVertex
100
AcDb2dVertex
 10
2142.119550000003
 20
1541.861000000001
 30
0.0
  0
VERTEX
  5
318
330
2DF
100
AcDbEntity
  8
化粧台
  6
EXLTYPE2
 62
     6
100
AcDbVertex
100
AcDb2dVertex
 10
2141.865984000002
 20
1541.589982
 30
0.0
  0
VERTEX
  5
319
330
2DF
100
AcDbEntity
  8
化粧台
  6
EXLTYPE2
 62
     6
100
AcDbVertex
100
AcDb2dVertex
 10
2141.719268000003
 20
1541.386364
 30
0.0
  0
VERTEX
  5
31A
330
2DF
100
AcDbEntity
  8
化粧台
  6
EXLTYPE2
 62
     6
100
AcDbVertex
100
AcDb2dVertex
 10
2141.597776000002
 20
1541.165886000001
 30
0.0
  0
VERTEX
  5
31B
330
2DF
100
AcDbEntity
  8
化粧台
  6
EXLTYPE2
 62
     6
100
AcDbVertex
100
AcDb2dVertex
 10
2141.508364000003
 20
1540.932094
 30
0.0
  0
VERTEX
  5
31C
330
2DF
100
AcDbEntity
  8
化粧台
  6
EXLTYPE2
 62
     6
100
AcDbVertex
100
AcDb2dVertex
 10
2141.456310000003
 20
1540.683616
 30
0.0
  0
VERTEX
  5
31D
330
2DF
100
AcDbEntity
  8
化粧台
  6
EXLTYPE2
 62
     6
100
AcDbVertex
100
AcDb2dVertex
 10
2141.446270000002
 20
1540.430044000001
 30
0.0
  0
VERTEX
  5
31E
330
2DF
100
AcDbEntity
  8
化粧台
  6
EXLTYPE2
 62
     6
100
AcDbVertex
100
AcDb2dVertex
 10
2141.480008000002
 20
1540.178558
 30
0.0
  0
VERTEX
  5
31F
330
2DF
100
AcDbEntity
  8
化粧台
  6
EXLTYPE2
 62
     6
100
AcDbVertex
100
AcDb2dVertex
 10
2141.553894000002
 20
1539.935648000001
 30
0.0
  0
VERTEX
  5
320
330
2DF
100
AcDbEntity
  8
化粧台
  6
EXLTYPE2
 62
     6
100
AcDbVertex
100
AcDb2dVertex
 10
2141.701040000004
 20
1539.642524000001
 30
0.0
  0
VERTEX
  5
321
330
2DF
100
AcDbEntity
  8
化粧台
  6
EXLTYPE2
 62
     6
100
AcDbVertex
100
AcDb2dVertex
 10
2141.893688000002
 20
1539.376420000001
 30
0.0
  0
VERTEX
  5
322
330
2DF
100
AcDbEntity
  8
化粧台
  6
EXLTYPE2
 62
     6
100
AcDbVertex
100
AcDb2dVertex
 10
2142.126104000003
 20
1539.13278
 30
0.0
  0
VERTEX
  5
323
330
2DF
100
AcDbEntity
  8
化粧台
  6
EXLTYPE2
 62
     6
100
AcDbVertex
100
AcDb2dVertex
 10
2142.385350000002
 20
1538.915838000001
 30
0.0
  0
VERTEX
  5
324
330
2DF
100
AcDbEntity
  8
化粧台
  6
EXLTYPE2
 62
     6
100
AcDbVertex
100
AcDb2dVertex
 10
2142.663024000003
 20
1538.723958
 30
0.0
  0
VERTEX
  5
325
330
2DF
100
AcDbEntity
  8
化粧台
  6
EXLTYPE2
 62
     6
100
AcDbVertex
100
AcDb2dVertex
 10
2143.080552000003
 20
1538.487118000001
 30
0.0
  0
VERTEX
  5
326
330
2DF
100
AcDbEntity
  8
化粧台
  6
EXLTYPE2
 62
     6
100
AcDbVertex
100
AcDb2dVertex
 10
2143.518312000002
 20
1538.286588000001
 30
0.0
  0
VERTEX
  5
327
330
2DF
100
AcDbEntity
  8
化粧台
  6
EXLTYPE2
 62
     6
100
AcDbVertex
100
AcDb2dVertex
 10
2143.970082000003
 20
1538.117334
 30
0.0
  0
VERTEX
  5
328
330
2DF
100
AcDbEntity
  8
化粧台
  6
EXLTYPE2
 62
     6
100
AcDbVertex
100
AcDb2dVertex
 10
2144.429642000003
 20
1537.974328
 30
0.0
  0
VERTEX
  5
329
330
2DF
100
AcDbEntity
  8
化粧台
  6
EXLTYPE2
 62
     6
100
AcDbVertex
100
AcDb2dVertex
 10
2145.163138000004
 20
1537.790832000001
 30
0.0
  0
VERTEX
  5
32A
330
2DF
100
AcDbEntity
  8
化粧台
  6
EXLTYPE2
 62
     6
100
AcDbVertex
100
AcDb2dVertex
 10
2145.907028000003
 20
1537.649866
 30
0.0
  0
VERTEX
  5
32B
330
2DF
100
AcDbEntity
  8
化粧台
  6
EXLTYPE2
 62
     6
100
AcDbVertex
100
AcDb2dVertex
 10
2146.657402000003
 20
1537.543806
 30
0.0
  0
VERTEX
  5
32C
330
2DF
100
AcDbEntity
  8
化粧台
  6
EXLTYPE2
 62
     6
100
AcDbVertex
100
AcDb2dVertex
 10
2147.410356000002
 20
1537.465028000001
 30
0.0
  0
VERTEX
  5
32D
330
2DF
100
AcDbEntity
  8
化粧台
  6
EXLTYPE2
 62
     6
100
AcDbVertex
100
AcDb2dVertex
 10
2147.924154000002
 20
1537.423596000001
 30
0.0
  0
VERTEX
  5
32E
330
2DF
100
AcDbEntity
  8
化粧台
  6
EXLTYPE2
 62
     6
100
AcDbVertex
100
AcDb2dVertex
 10
2148.438590000003
 20
1537.391009999999
 30
0.0
  0
VERTEX
  5
32F
330
2DF
100
AcDbEntity
  8
化粧台
  6
EXLTYPE2
 62
     6
100
AcDbVertex
100
AcDb2dVertex
 10
2148.953642000002
 20
1537.366755999999
 30
0.0
  0
VERTEX
  5
330
330
2DF
100
AcDbEntity
  8
化粧台
  6
EXLTYPE2
 62
     6
100
AcDbVertex
100
AcDb2dVertex
 10
2149.469002000003
 20
1537.350224
 30
0.0
  0
VERTEX
  5
331
330
2DF
100
AcDbEntity
  8
化粧台
  6
EXLTYPE2
 62
     6
100
AcDbVertex
100
AcDb2dVertex
 10
2149.984464000003
 20
1537.340768
 30
0.0
  0
VERTEX
  5
332
330
2DF
100
AcDbEntity
  8
化粧台
  6
EXLTYPE2
 62
     6
100
AcDbVertex
100
AcDb2dVertex
 10
2150.499996000002
 20
1537.337726
 30
0.0
  0
SEQEND
  5
333
330
2DF
100
AcDbEntity
  8
化粧台
  6
EXLTYPE2
 62
     6
  0
POLYLINE
  5
334
330
1F
100
AcDbEntity
  8
化粧台
  6
EXLTYPE2
 62
     6
100
AcDb2dPolyline
 66
     1
 10
0.0
 20
0.0
 30
0.0
 70
   128
  0
VERTEX
  5
335
330
334
100
AcDbEntity
  8
化粧台
  6
EXLTYPE2
 62
     6
100
AcDbVertex
100
AcDb2dVertex
 10
2129.084808000003
 20
1540.500204
 30
0.0
  0
VERTEX
  5
336
330
334
100
AcDbEntity
  8
化粧台
  6
EXLTYPE2
 62
     6
100
AcDbVertex
100
AcDb2dVertex
 10
2129.096946000003
 20
1540.234399999999
 30
0.0
  0
VERTEX
  5
337
330
334
100
AcDbEntity
  8
化粧台
  6
EXLTYPE2
 62
     6
100
AcDbVertex
100
AcDb2dVertex
 10
2129.131740000003
 20
1539.976546
 30
0.0
  0
VERTEX
  5
338
330
334
100
AcDbEntity
  8
化粧台
  6
EXLTYPE2
 62
     6
100
AcDbVertex
100
AcDb2dVertex
 10
2129.186292000004
 20
1539.73489
 30
0.0
  0
VERTEX
  5
339
330
334
100
AcDbEntity
  8
化粧台
  6
EXLTYPE2
 62
     6
100
AcDbVertex
100
AcDb2dVertex
 10
2129.257064000003
 20
1539.510399999999
 30
0.0
  0
VERTEX
  5
33A
330
334
100
AcDbEntity
  8
化粧台
  6
EXLTYPE2
 62
     6
100
AcDbVertex
100
AcDb2dVertex
 10
2129.352764000003
 20
1539.27821
 30
0.0
  0
VERTEX
  5
33B
330
334
100
AcDbEntity
  8
化粧台
  6
EXLTYPE2
 62
     6
100
AcDbVertex
100
AcDb2dVertex
 10
2129.461394000004
 20
1539.068298
 30
0.0
  0
VERTEX
  5
33C
330
334
100
AcDbEntity
  8
化粧台
  6
EXLTYPE2
 62
     6
100
AcDbVertex
100
AcDb2dVertex
 10
2129.579238000004
 20
1538.880126
 30
0.0
  0
VERTEX
  5
33D
330
334
100
AcDbEntity
  8
化粧台
  6
EXLTYPE2
 62
     6
100
AcDbVertex
100
AcDb2dVertex
 10
2129.808210000003
 20
1538.587611999999
 30
0.0
  0
VERTEX
  5
33E
330
334
100
AcDbEntity
  8
化粧台
  6
EXLTYPE2
 62
     6
100
AcDbVertex
100
AcDb2dVertex
 10
2130.052738000004
 20
1538.345890000001
 30
0.0
  0
VERTEX
  5
33F
330
334
100
AcDbEntity
  8
化粧台
  6
EXLTYPE2
 62
     6
100
AcDbVertex
100
AcDb2dVertex
 10
2130.306316000004
 20
1538.146556
 30
0.0
  0
VERTEX
  5
340
330
334
100
AcDbEntity
  8
化粧台
  6
EXLTYPE2
 62
     6
100
AcDbVertex
100
AcDb2dVertex
 10
2130.697242000004
 20
1537.905189999999
 30
0.0
  0
VERTEX
  5
341
330
334
100
AcDbEntity
  8
化粧台
  6
EXLTYPE2
 62
     6
100
AcDbVertex
100
AcDb2dVertex
 10
2131.096570000003
 20
1537.720906
 30
0.0
  0
VERTEX
  5
342
330
334
100
AcDbEntity
  8
化粧台
  6
EXLTYPE2
 62
     6
100
AcDbVertex
100
AcDb2dVertex
 10
2131.502012000003
 20
1537.584806000001
 30
0.0
  0
VERTEX
  5
343
330
334
100
AcDbEntity
  8
化粧台
  6
EXLTYPE2
 62
     6
100
AcDbVertex
100
AcDb2dVertex
 10
2131.911284000003
 20
1537.487986
 30
0.0
  0
VERTEX
  5
344
330
334
100
AcDbEntity
  8
化粧台
  6
EXLTYPE2
 62
     6
100
AcDbVertex
100
AcDb2dVertex
 10
2132.322104000003
 20
1537.421546
 30
0.0
  0
VERTEX
  5
345
330
334
100
AcDbEntity
  8
化粧台
  6
EXLTYPE2
 62
     6
100
AcDbVertex
100
AcDb2dVertex
 10
2132.732184000002
 20
1537.376586
 30
0.0
  0
VERTEX
  5
346
330
334
100
AcDbEntity
  8
化粧台
  6
EXLTYPE2
 62
     6
100
AcDbVertex
100
AcDb2dVertex
 10
2133.321524000003
 20
1537.340952
 30
0.0
  0
VERTEX
  5
347
330
334
100
AcDbEntity
  8
化粧台
  6
EXLTYPE2
 62
     6
100
AcDbVertex
100
AcDb2dVertex
 10
2133.911268000003
 20
1537.341178000001
 30
0.0
  0
VERTEX
  5
348
330
334
100
AcDbEntity
  8
化粧台
  6
EXLTYPE2
 62
     6
100
AcDbVertex
100
AcDb2dVertex
 10
2134.500600000003
 20
1537.377296000001
 30
0.0
  0
VERTEX
  5
349
330
334
100
AcDbEntity
  8
化粧台
  6
EXLTYPE2
 62
     6
100
AcDbVertex
100
AcDb2dVertex
 10
2135.114344000003
 20
1537.45707
 30
0.0
  0
VERTEX
  5
34A
330
334
100
AcDbEntity
  8
化粧台
  6
EXLTYPE2
 62
     6
100
AcDbVertex
100
AcDb2dVertex
 10
2135.725340000003
 20
1537.595294000001
 30
0.0
  0
VERTEX
  5
34B
330
334
100
AcDbEntity
  8
化粧台
  6
EXLTYPE2
 62
     6
100
AcDbVertex
100
AcDb2dVertex
 10
2136.062402000003
 20
1537.703774
 30
0.0
  0
VERTEX
  5
34C
330
334
100
AcDbEntity
  8
化粧台
  6
EXLTYPE2
 62
     6
100
AcDbVertex
100
AcDb2dVertex
 10
2136.397218000004
 20
1537.842581999999
 30
0.0
  0
VERTEX
  5
34D
330
334
100
AcDbEntity
  8
化粧台
  6
EXLTYPE2
 62
     6
100
AcDbVertex
100
AcDb2dVertex
 10
2136.726952000003
 20
1538.019844
 30
0.0
  0
VERTEX
  5
34E
330
334
100
AcDbEntity
  8
化粧台
  6
EXLTYPE2
 62
     6
100
AcDbVertex
100
AcDb2dVertex
 10
2137.048766000004
 20
1538.243678000001
 30
0.0
  0
VERTEX
  5
34F
330
334
100
AcDbEntity
  8
化粧台
  6
EXLTYPE2
 62
     6
100
AcDbVertex
100
AcDb2dVertex
 10
2137.282716000003
 20
1538.448528000001
 30
0.0
  0
VERTEX
  5
350
330
334
100
AcDbEntity
  8
化粧台
  6
EXLTYPE2
 62
     6
100
AcDbVertex
100
AcDb2dVertex
 10
2137.506626000004
 20
1538.693542000001
 30
0.0
  0
VERTEX
  5
351
330
334
100
AcDbEntity
  8
化粧台
  6
EXLTYPE2
 62
     6
100
AcDbVertex
100
AcDb2dVertex
 10
2137.649188000003
 20
1538.885028000001
 30
0.0
  0
VERTEX
  5
352
330
334
100
AcDbEntity
  8
化粧台
  6
EXLTYPE2
 62
     6
100
AcDbVertex
100
AcDb2dVertex
 10
2137.782650000003
 20
1539.101986
 30
0.0
  0
VERTEX
  5
353
330
334
100
AcDbEntity
  8
化粧台
  6
EXLTYPE2
 62
     6
100
AcDbVertex
100
AcDb2dVertex
 10
2137.902790000002
 20
1539.346264
 30
0.0
  0
VERTEX
  5
354
330
334
100
AcDbEntity
  8
化粧台
  6
EXLTYPE2
 62
     6
100
AcDbVertex
100
AcDb2dVertex
 10
2137.994372000003
 20
1539.587092
 30
0.0
  0
VERTEX
  5
355
330
334
100
AcDbEntity
  8
化粧台
  6
EXLTYPE2
 62
     6
100
AcDbVertex
100
AcDb2dVertex
 10
2138.067722000003
 20
1539.851294
 30
0.0
  0
VERTEX
  5
356
330
334
100
AcDbEntity
  8
化粧台
  6
EXLTYPE2
 62
     6
100
AcDbVertex
100
AcDb2dVertex
 10
2138.112842000002
 20
1540.100428
 30
0.0
  0
VERTEX
  5
357
330
334
100
AcDbEntity
  8
化粧台
  6
EXLTYPE2
 62
     6
100
AcDbVertex
100
AcDb2dVertex
 10
2138.136902000004
 20
1540.360774000001
 30
0.0
  0
VERTEX
  5
358
330
334
100
AcDbEntity
  8
化粧台
  6
EXLTYPE2
 62
     6
100
AcDbVertex
100
AcDb2dVertex
 10
2138.140192000003
 20
1540.500204
 30
0.0
  0
VERTEX
  5
359
330
334
100
AcDbEntity
  8
化粧台
  6
EXLTYPE2
 62
     6
100
AcDbVertex
100
AcDb2dVertex
 10
2138.128038000003
 20
1540.765804000001
 30
0.0
  0
VERTEX
  5
35A
330
334
100
AcDbEntity
  8
化粧台
  6
EXLTYPE2
 62
     6
100
AcDbVertex
100
AcDb2dVertex
 10
2138.093260000003
 20
1541.02346
 30
0.0
  0
VERTEX
  5
35B
330
334
100
AcDbEntity
  8
化粧台
  6
EXLTYPE2
 62
     6
100
AcDbVertex
100
AcDb2dVertex
 10
2138.038708000002
 20
1541.265117999999
 30
0.0
  0
VERTEX
  5
35C
330
334
100
AcDbEntity
  8
化粧台
  6
EXLTYPE2
 62
     6
100
AcDbVertex
100
AcDb2dVertex
 10
2137.967936000003
 20
1541.489608
 30
0.0
  0
VERTEX
  5
35D
330
334
100
AcDbEntity
  8
化粧台
  6
EXLTYPE2
 62
     6
100
AcDbVertex
100
AcDb2dVertex
 10
2137.872236000003
 20
1541.721798
 30
0.0
  0
VERTEX
  5
35E
330
334
100
AcDbEntity
  8
化粧台
  6
EXLTYPE2
 62
     6
100
AcDbVertex
100
AcDb2dVertex
 10
2137.763606000002
 20
1541.931708
 30
0.0
  0
VERTEX
  5
35F
330
334
100
AcDbEntity
  8
化粧台
  6
EXLTYPE2
 62
     6
100
AcDbVertex
100
AcDb2dVertex
 10
2137.645762000002
 20
1542.119882000001
 30
0.0
  0
VERTEX
  5
360
330
334
100
AcDbEntity
  8
化粧台
  6
EXLTYPE2
 62
     6
100
AcDbVertex
100
AcDb2dVertex
 10
2137.416790000003
 20
1542.412396
 30
0.0
  0
VERTEX
  5
361
330
334
100
AcDbEntity
  8
化粧台
  6
EXLTYPE2
 62
     6
100
AcDbVertex
100
AcDb2dVertex
 10
2137.172262000002
 20
1542.654116
 30
0.0
  0
VERTEX
  5
362
330
334
100
AcDbEntity
  8
化粧台
  6
EXLTYPE2
 62
     6
100
AcDbVertex
100
AcDb2dVertex
 10
2136.918686000003
 20
1542.853450000001
 30
0.0
  0
VERTEX
  5
363
330
334
100
AcDbEntity
  8
化粧台
  6
EXLTYPE2
 62
     6
100
AcDbVertex
100
AcDb2dVertex
 10
2136.527758000002
 20
1543.094818
 30
0.0
  0
VERTEX
  5
364
330
334
100
AcDbEntity
  8
化粧台
  6
EXLTYPE2
 62
     6
100
AcDbVertex
100
AcDb2dVertex
 10
2136.128430000002
 20
1543.2791
 30
0.0
  0
VERTEX
  5
365
330
334
100
AcDbEntity
  8
化粧台
  6
EXLTYPE2
 62
     6
100
AcDbVertex
100
AcDb2dVertex
 10
2135.722988000003
 20
1543.415202
 30
0.0
  0
VERTEX
  5
366
330
334
100
AcDbEntity
  8
化粧台
  6
EXLTYPE2
 62
     6
100
AcDbVertex
100
AcDb2dVertex
 10
2135.313716000002
 20
1543.512022000001
 30
0.0
  0
VERTEX
  5
367
330
334
100
AcDbEntity
  8
化粧台
  6
EXLTYPE2
 62
     6
100
AcDbVertex
100
AcDb2dVertex
 10
2134.902896000003
 20
1543.578461999999
 30
0.0
  0
VERTEX
  5
368
330
334
100
AcDbEntity
  8
化粧台
  6
EXLTYPE2
 62
     6
100
AcDbVertex
100
AcDb2dVertex
 10
2134.492818000002
 20
1543.623422000001
 30
0.0
  0
VERTEX
  5
369
330
334
100
AcDbEntity
  8
化粧台
  6
EXLTYPE2
 62
     6
100
AcDbVertex
100
AcDb2dVertex
 10
2133.903478000002
 20
1543.659056
 30
0.0
  0
VERTEX
  5
36A
330
334
100
AcDbEntity
  8
化粧台
  6
EXLTYPE2
 62
     6
100
AcDbVertex
100
AcDb2dVertex
 10
2133.313732000002
 20
1543.65883
 30
0.0
  0
VERTEX
  5
36B
330
334
100
AcDbEntity
  8
化粧台
  6
EXLTYPE2
 62
     6
100
AcDbVertex
100
AcDb2dVertex
 10
2132.724400000003
 20
1543.62271
 30
0.0
  0
VERTEX
  5
36C
330
334
100
AcDbEntity
  8
化粧台
  6
EXLTYPE2
 62
     6
100
AcDbVertex
100
AcDb2dVertex
 10
2132.110658000003
 20
1543.542938000001
 30
0.0
  0
VERTEX
  5
36D
330
334
100
AcDbEntity
  8
化粧台
  6
EXLTYPE2
 62
     6
100
AcDbVertex
100
AcDb2dVertex
 10
2131.499660000003
 20
1543.404714
 30
0.0
  0
VERTEX
  5
36E
330
334
100
AcDbEntity
  8
化粧台
  6
EXLTYPE2
 62
     6
100
AcDbVertex
100
AcDb2dVertex
 10
2131.162598000003
 20
1543.296233999999
 30
0.0
  0
VERTEX
  5
36F
330
334
100
AcDbEntity
  8
化粧台
  6
EXLTYPE2
 62
     6
100
AcDbVertex
100
AcDb2dVertex
 10
2130.827782000002
 20
1543.157426
 30
0.0
  0
VERTEX
  5
370
330
334
100
AcDbEntity
  8
化粧台
  6
EXLTYPE2
 62
     6
100
AcDbVertex
100
AcDb2dVertex
 10
2130.498048000003
 20
1542.980164000001
 30
0.0
  0
VERTEX
  5
371
330
334
100
AcDbEntity
  8
化粧台
  6
EXLTYPE2
 62
     6
100
AcDbVertex
100
AcDb2dVertex
 10
2130.176234000002
 20
1542.756327999999
 30
0.0
  0
VERTEX
  5
372
330
334
100
AcDbEntity
  8
化粧台
  6
EXLTYPE2
 62
     6
100
AcDbVertex
100
AcDb2dVertex
 10
2129.942284000002
 20
1542.55148
 30
0.0
  0
VERTEX
  5
373
330
334
100
AcDbEntity
  8
化粧台
  6
EXLTYPE2
 62
     6
100
AcDbVertex
100
AcDb2dVertex
 10
2129.718374000002
 20
1542.306463999999
 30
0.0
  0
VERTEX
  5
374
330
334
100
AcDbEntity
  8
化粧台
  6
EXLTYPE2
 62
     6
100
AcDbVertex
100
AcDb2dVertex
 10
2129.575812000003
 20
1542.11498
 30
0.0
  0
VERTEX
  5
375
330
334
100
AcDbEntity
  8
化粧台
  6
EXLTYPE2
 62
     6
100
AcDbVertex
100
AcDb2dVertex
 10
2129.442350000003
 20
1541.898021999999
 30
0.0
  0
VERTEX
  5
376
330
334
100
AcDbEntity
  8
化粧台
  6
EXLTYPE2
 62
     6
100
AcDbVertex
100
AcDb2dVertex
 10
2129.322210000004
 20
1541.653742
 30
0.0
  0
VERTEX
  5
377
330
334
100
AcDbEntity
  8
化粧台
  6
EXLTYPE2
 62
     6
100
AcDbVertex
100
AcDb2dVertex
 10
2129.230630000004
 20
1541.412915999999
 30
0.0
  0
VERTEX
  5
378
330
334
100
AcDbEntity
  8
化粧台
  6
EXLTYPE2
 62
     6
100
AcDbVertex
100
AcDb2dVertex
 10
2129.157278000002
 20
1541.148714000001
 30
0.0
  0
VERTEX
  5
379
330
334
100
AcDbEntity
  8
化粧台
  6
EXLTYPE2
 62
     6
100
AcDbVertex
100
AcDb2dVertex
 10
2129.112158000004
 20
1540.899579999999
 30
0.0
  0
VERTEX
  5
37A
330
334
100
AcDbEntity
  8
化粧台
  6
EXLTYPE2
 62
     6
100
AcDbVertex
100
AcDb2dVertex
 10
2129.088098000002
 20
1540.639234
 30
0.0
  0
VERTEX
  5
37B
330
334
100
AcDbEntity
  8
化粧台
  6
EXLTYPE2
 62
     6
100
AcDbVertex
100
AcDb2dVertex
 10
2129.084808000003
 20
1540.500204
 30
0.0
  0
SEQEND
  5
37C
330
334
100
AcDbEntity
  8
化粧台
  6
EXLTYPE2
 62
     6
  0
LINE
  5
37D
330
1F
100
AcDbEntity
  8
化粧台
  6
EXLTYPE2
 62
     6
100
AcDbLine
 10
2127.411764705888
 20
1559.5
 30
0.0
 11
2123.000000000004
 21
1555.33333333333
 31
0.0
  0
LINE
  5
37E
330
1F
100
AcDbEntity
  8
化粧台
  6
EXLTYPE2
 62
     6
100
AcDbLine
 10
2173.588235294117
 20
1559.5
 30
0.0
 11
2178.000000000004
 21
1555.33333333333
 31
0.0
  0
LINE
  5
37F
330
1F
100
AcDbEntity
  8
化粧台
  6
EXLTYPE2
 62
     6
100
AcDbLine
 10
2114.836477008499
 20
1559.5
 30
0.0
 11
2186.163522991549
 21
1559.5
 31
0.0
  0
LINE
  5
380
330
1F
100
AcDbEntity
  8
化粧台
  6
EXLTYPE2
 62
     6
100
AcDbLine
 10
2211.859641771945
 20
1584.098743460027
 30
0.0
 11
2215.890718197872
 21
1594.5
 31
0.0
  0
LINE
  5
381
330
1F
100
AcDbEntity
  8
化粧台
  6
EXLTYPE2
 62
     6
100
AcDbLine
 10
2109.886729540171
 20
1563.792893218813
 30
0.0
 11
2105.499999999973
 21
1594.500000000196
 31
0.0
  0
LINE
  5
382
330
1F
100
AcDbEntity
  8
化粧台
  6
CONTINUOUS
 62
     2
100
AcDbLine
 10
2385.500000000001
 20
1594.5
 30
0.0
 11
1913.499999999999
 21
1594.5
 31
0.0
  0
ARC
  5
383
330
1F
100
AcDbEntity
  8
化粧台
  6
CONTINUOUS
 62
     2
100
AcDbCircle
 10
1890.500000000001
 20
1729.5
 30
0.0
 40
5.0
100
AcDbArc
 50
90.00000000000004
 51
190.0331205543371
  0
LINE
  5
384
330
1F
100
AcDbEntity
  8
化粧台
  6
CONTINUOUS
 62
     2
100
AcDbLine
 10
2385.500000000001
 20
1734.5
 30
0.0
 11
1890.500000000001
 21
1734.5
 31
0.0
  0
LINE
  5
385
330
1F
100
AcDbEntity
  8
化粧台
  6
CONTINUOUS
 62
     2
100
AcDbLine
 10
2385.500000000001
 20
1734.5
 30
0.0
 11
2385.500000000001
 21
1594.5
 31
0.0
  0
ARC
  5
386
330
1F
100
AcDbEntity
  8
化粧台
  6
CONTINUOUS
 62
     2
100
AcDbCircle
 10
1913.500000000001
 20
1599.5
 30
0.0
 40
5.0
100
AcDbArc
 50
190.0331205543305
 51
270.0000000000002
  0
LINE
  5
387
330
1F
100
AcDbEntity
  8
化粧台
  6
CONTINUOUS
 62
     2
100
AcDbLine
 10
1885.576463955303
 20
1728.62891285363
 30
0.0
 11
1908.576463955303
 21
1598.62891285363
 31
0.0
  0
LINE
  5
388
330
1F
100
AcDbEntity
  8
化粧台
  6
CONTINUOUS
 62
     6
100
AcDbLine
 10
2353.000000000002
 20
1514.499999999998
 30
0.0
 11
2427.4
 21
1514.499999999998
 31
0.0
  0
LINE
  5
389
330
1F
100
AcDbEntity
  8
化粧台
  6
CONTINUOUS
 62
     6
100
AcDbLine
 10
2417.400000000004
 20
1514.499999999998
 30
0.0
 11
2384.900000000004
 21
1512.5
 31
0.0
  0
LINE
  5
38A
330
1F
100
AcDbEntity
  8
化粧台
  6
CONTINUOUS
 62
     6
100
AcDbLine
 10
2384.900000000004
 20
1516.5
 30
0.0
 11
2417.400000000004
 21
1514.499999999998
 31
0.0
  0
LINE
  5
38B
330
1F
100
AcDbEntity
  8
化粧台
  6
CONTINUOUS
 62
     2
100
AcDbLine
 10
1935.5
 20
894.5
 30
0.0
 11
2385.5
 21
894.5
 31
0.0
  0
LINE
  5
38C
330
1F
100
AcDbEntity
  8
化粧台
  6
CONTINUOUS
 62
     2
100
AcDbLine
 10
2385.5
 20
1594.5
 30
0.0
 11
2385.5
 21
894.5
 31
0.0
  0
LINE
  5
38D
330
1F
100
AcDbEntity
  8
化粧台
  6
CONTINUOUS
 62
     2
100
AcDbLine
 10
1935.5
 20
1594.5
 30
0.0
 11
1935.5
 21
894.5
 31
0.0
  0
TEXT
  5
38E
330
1F
100
AcDbEntity
  8
化粧台
  6
CONTINUOUS
 62
     2
100
AcDbText
 10
1756.999999999998
 20
894.5
 30
0.0
 40
59.99999618530273
  1
F.L.
 41
0.6227488631227187
  7
EXCADSTD
 72
     5
 11
1847.743399999998
 21
894.5
 31
0.0
100
AcDbText
  0
LINE
  5
38F
330
1F
100
AcDbEntity
  8
化粧台
  6
EXLTYPE4
 62
     6
100
AcDbLine
 10
2385.5
 20
894.5
 30
0.0
 11
1756.999999999998
 21
894.5
 31
0.0
  0
LINE
  5
390
330
1F
100
AcDbEntity
  8
化粧台
  6
CONTINUOUS
 62
     2
100
AcDbLine
 10
619.9999999999978
 20
2644.5
 30
0.0
 11
619.9999999999978
 21
2124.5
 31
0.0
  0
LINE
  5
391
330
1F
100
AcDbEntity
  8
化粧台
  6
CONTINUOUS
 62
     2
100
AcDbLine
 10
1219.999999999998
 20
2644.5
 30
0.0
 11
1219.999999999998
 21
2124.5
 31
0.0
  0
LINE
  5
392
330
1F
100
AcDbEntity
  8
化粧台
  6
CONTINUOUS
 62
     4
100
AcDbLine
 10
662.4999999999997
 20
2133.3
 30
0.0
 11
662.4999999999997
 21
2123.3
 31
0.0
  0
LINE
  5
393
330
1F
100
AcDbEntity
  8
化粧台
  6
CONTINUOUS
 62
     4
100
AcDbLine
 10
662.4999999999978
 20
2133.3
 30
0.0
 11
1177.499999999998
 21
2133.3
 31
0.0
  0
LINE
  5
394
330
1F
100
AcDbEntity
  8
化粧台
  6
CONTINUOUS
 62
     4
100
AcDbLine
 10
662.4999999999978
 20
2123.3
 30
0.0
 11
1177.499999999998
 21
2123.3
 31
0.0
  0
LINE
  5
395
330
1F
100
AcDbEntity
  8
化粧台
  6
CONTINUOUS
 62
     4
100
AcDbLine
 10
1177.499999999998
 20
2133.3
 30
0.0
 11
1177.499999999998
 21
2123.3
 31
0.0
  0
LINE
  5
396
330
1F
100
AcDbEntity
  8
化粧台
  6
CONTINUOUS
 62
     2
100
AcDbLine
 10
660.4999999999978
 20
2644.5
 30
0.0
 11
660.4999999999978
 21
2124.5
 31
0.0
  0
LINE
  5
397
330
1F
100
AcDbEntity
  8
化粧台
  6
CONTINUOUS
 62
     4
100
AcDbLine
 10
662.4999999999997
 20
2645.7
 30
0.0
 11
662.4999999999997
 21
2635.7
 31
0.0
  0
LINE
  5
398
330
1F
100
AcDbEntity
  8
化粧台
  6
CONTINUOUS
 62
     4
100
AcDbLine
 10
1177.499999999998
 20
2645.7
 30
0.0
 11
1177.499999999998
 21
2635.7
 31
0.0
  0
LINE
  5
399
330
1F
100
AcDbEntity
  8
化粧台
  6
CONTINUOUS
 62
     4
100
AcDbLine
 10
662.4999999999978
 20
2645.7
 30
0.0
 11
1177.499999999998
 21
2645.7
 31
0.0
  0
LINE
  5
39A
330
1F
100
AcDbEntity
  8
化粧台
  6
CONTINUOUS
 62
     4
100
AcDbLine
 10
662.4999999999978
 20
2635.7
 30
0.0
 11
1177.499999999998
 21
2635.7
 31
0.0
  0
LINE
  5
39B
330
1F
100
AcDbEntity
  8
化粧台
  6
CONTINUOUS
 62
     2
100
AcDbLine
 10
1179.499999999998
 20
2644.5
 30
0.0
 11
1179.499999999998
 21
2124.5
 31
0.0
  0
LINE
  5
39C
330
1F
100
AcDbEntity
  8
化粧台
  6
CONTINUOUS
 62
     2
100
AcDbLine
 10
619.9999999999978
 20
2644.5
 30
0.0
 11
662.4999999999978
 21
2644.5
 31
0.0
  0
LINE
  5
39D
330
1F
100
AcDbEntity
  8
化粧台
  6
CONTINUOUS
 62
     2
100
AcDbLine
 10
1177.499999999998
 20
2644.5
 30
0.0
 11
1219.999999999998
 21
2644.5
 31
0.0
  0
LINE
  5
39E
330
1F
100
AcDbEntity
  8
化粧台
  6
CONTINUOUS
 62
     2
100
AcDbLine
 10
1177.499999999998
 20
2124.5
 30
0.0
 11
1219.999999999998
 21
2124.5
 31
0.0
  0
LINE
  5
39F
330
1F
100
AcDbEntity
  8
化粧台
  6
CONTINUOUS
 62
     2
100
AcDbLine
 10
619.9999999999978
 20
2124.5
 30
0.0
 11
662.4999999999978
 21
2124.5
 31
0.0
  0
LINE
  5
3A0
330
1F
100
AcDbEntity
  8
化粧台
  6
CONTINUOUS
 62
     6
100
AcDbLine
 10
976.5355339059275
 20
2468.964466094038
 30
0.0
 11
991.5355339059294
 21
2483.964466094036
 31
0.0
  0
LINE
  5
3A1
330
1F
100
AcDbEntity
  8
化粧台
  6
CONTINUOUS
 62
     6
100
AcDbLine
 10
965.9999999999942
 20
2465.499999999975
 30
0.0
 11
998.4999999999978
 21
2497.999999999971
 31
0.0
  0
LINE
  5
3A2
330
1F
100
AcDbEntity
  8
化粧台
  6
CONTINUOUS
 62
     6
100
AcDbLine
 10
986.7144660940627
 20
2493.285533905902
 30
0.0
 11
973.9644660940627
 21
2480.535533905906
 31
0.0
  0
LINE
  5
3A3
330
1F
100
AcDbEntity
  8
化粧台
  6
CONTINUOUS
 62
     6
100
AcDbLine
 10
811.5355339059294
 20
2441.964466094037
 30
0.0
 11
826.5355339059294
 21
2456.964466094036
 31
0.0
  0
LINE
  5
3A4
330
1F
100
AcDbEntity
  8
化粧台
  6
CONTINUOUS
 62
     6
100
AcDbLine
 10
800.9999999999942
 20
2438.499999999974
 30
0.0
 11
833.4999999999978
 21
2470.999999999971
 31
0.0
  0
LINE
  5
3A5
330
1F
100
AcDbEntity
  8
化粧台
  6
CONTINUOUS
 62
     6
100
AcDbLine
 10
821.7144660940627
 20
2466.285533905902
 30
0.0
 11
808.9644660940645
 21
2453.535533905905
 31
0.0
  0
LINE
  5
3A6
330
1F
100
AcDbEntity
  8
化粧台
  6
CONTINUOUS
 62
     6
100
AcDbLine
 10
955.5355339059275
 20
2278.964466094037
 30
0.0
 11
970.5355339059294
 21
2293.964466094036
 31
0.0
  0
LINE
  5
3A7
330
1F
100
AcDbEntity
  8
化粧台
  6
CONTINUOUS
 62
     6
100
AcDbLine
 10
944.9999999999942
 20
2275.499999999974
 30
0.0
 11
977.4999999999978
 21
2307.999999999971
 31
0.0
  0
LINE
  5
3A8
330
1F
100
AcDbEntity
  8
化粧台
  6
CONTINUOUS
 62
     6
100
AcDbLine
 10
965.7144660940627
 20
2303.285533905902
 30
0.0
 11
952.9644660940627
 21
2290.535533905905
 31
0.0
  0
LINE
  5
3A9
330
1F
100
AcDbEntity
  8
化粧台
  6
CONTINUOUS
 62
     6
100
AcDbLine
 10
1069.999999999998
 20
2571.480762113501
 30
0.0
 11
1069.999999999998
 21
2597.480762113501
 31
0.0
  0
LINE
  5
3AA
330
1F
100
AcDbEntity
  8
化粧台
  6
CONTINUOUS
 62
     6
100
AcDbLine
 10
1082.999999999998
 20
2584.480762113501
 30
0.0
 11
1056.999999999998
 21
2584.480762113501
 31
0.0
  0
LINE
  5
3AB
330
1F
100
AcDbEntity
  8
化粧台
  6
CONTINUOUS
 62
     6
100
AcDbLine
 10
782.9999999999978
 20
2584.480762113501
 30
0.0
 11
756.9999999999978
 21
2584.480762113501
 31
0.0
  0
LINE
  5
3AC
330
1F
100
AcDbEntity
  8
化粧台
  6
CONTINUOUS
 62
     6
100
AcDbLine
 10
769.9999999999978
 20
2571.480762113501
 30
0.0
 11
769.9999999999978
 21
2597.480762113501
 31
0.0
  0
LINE
  5
3AD
330
1F
100
AcDbEntity
  8
化粧台
  6
CONTINUOUS
 62
     6
100
AcDbLine
 10
782.9999999999978
 20
2144.500000000001
 30
0.0
 11
756.9999999999978
 21
2144.500000000001
 31
0.0
  0
LINE
  5
3AE
330
1F
100
AcDbEntity
  8
化粧台
  6
CONTINUOUS
 62
     6
100
AcDbLine
 10
769.9999999999978
 20
2131.5
 30
0.0
 11
769.9999999999978
 21
2157.5
 31
0.0
  0
LINE
  5
3AF
330
1F
100
AcDbEntity
  8
化粧台
  6
CONTINUOUS
 62
     6
100
AcDbLine
 10
1082.999999999998
 20
2144.500000000001
 30
0.0
 11
1056.999999999998
 21
2144.500000000001
 31
0.0
  0
LINE
  5
3B0
330
1F
100
AcDbEntity
  8
化粧台
  6
CONTINUOUS
 62
     6
100
AcDbLine
 10
1069.999999999998
 20
2131.5
 30
0.0
 11
1069.999999999998
 21
2157.5
 31
0.0
  0
LINE
  5
3B1
330
1F
100
AcDbEntity
  8
化粧台
  6
EXLTYPE3
 62
     6
100
AcDbLine
 10
919.9999999999978
 20
2660.7
 30
0.0
 11
919.9999999999978
 21
2108.3
 31
0.0
  0
LINE
  5
3B2
330
1F
100
AcDbEntity
  8
化粧台
  6
EXLTYPE4
 62
     6
100
AcDbLine
 10
1654.5
 20
894.5
 30
0.0
 11
320.0
 21
894.5
 31
0.0
  0
TEXT
  5
3B3
330
1F
100
AcDbEntity
  8
化粧台
  6
CONTINUOUS
 62
     2
100
AcDbText
 10
2385.5
 20
2914.000000536442
 30
0.0
 40
59.99999618530273
  1
W.L.
 50
90.0
 41
0.5571963512150626
  7
EXCADSTD
 72
     5
 11
2385.5
 21
3004.743400536442
 31
0.0
100
AcDbText
  0
LINE
  5
3B4
330
1F
100
AcDbEntity
  8
化粧台
  6
CONTINUOUS
 62
     2
100
AcDbLine
 10
2355.499999999998
 20
2644.5
 30
0.0
 11
2355.499999999998
 21
2124.5
 31
0.0
  0
LINE
  5
3B5
330
1F
100
AcDbEntity
  8
化粧台
  6
CONTINUOUS
 62
     2
100
AcDbLine
 10
2385.499999999998
 20
2189.5
 30
0.0
 11
2385.499999999998
 21
2129.5
 31
0.0
  0
LINE
  5
3B6
330
1F
100
AcDbEntity
  8
化粧台
  6
CONTINUOUS
 62
     2
100
AcDbLine
 10
2354.499999999998
 20
2643.5
 30
0.0
 11
2354.499999999998
 21
2124.5
 31
0.0
  0
LINE
  5
3B7
330
1F
100
AcDbEntity
  8
化粧台
  6
CONTINUOUS
 62
     2
100
AcDbLine
 10
2349.499999999998
 20
2643.5
 30
0.0
 11
2354.499999999998
 21
2643.5
 31
0.0
  0
LINE
  5
3B8
330
1F
100
AcDbEntity
  8
化粧台
  6
CONTINUOUS
 62
     2
100
AcDbLine
 10
2368.300000000003
 20
2645.7
 30
0.0
 11
2368.300000000003
 21
2644.5
 31
0.0
  0
LINE
  5
3B9
330
1F
100
AcDbEntity
  8
化粧台
  6
CONTINUOUS
 62
     2
100
AcDbLine
 10
2348.299999999997
 20
2635.700000000004
 30
0.0
 11
2349.499999999998
 21
2635.700000000004
 31
0.0
  0
LINE
  5
3BA
330
1F
100
AcDbEntity
  8
化粧台
  6
CONTINUOUS
 62
     2
100
AcDbLine
 10
2348.299999999997
 20
2645.7
 30
0.0
 11
2368.299999999997
 21
2645.7
 31
0.0
  0
LINE
  5
3BB
330
1F
100
AcDbEntity
  8
化粧台
  6
CONTINUOUS
 62
     2
100
AcDbLine
 10
2348.299999999997
 20
2635.7
 30
0.0
 11
2348.299999999997
 21
2645.7
 31
0.0
  0
LINE
  5
3BC
330
1F
100
AcDbEntity
  8
化粧台
  6
CONTINUOUS
 62
     2
100
AcDbLine
 10
2349.499999999998
 20
2644.5
 30
0.0
 11
2349.499999999998
 21
2124.5
 31
0.0
  0
LINE
  5
3BD
330
1F
100
AcDbEntity
  8
化粧台
  6
CONTINUOUS
 62
     2
100
AcDbLine
 10
2349.499999999998
 20
2644.5
 30
0.0
 11
2372.999999999998
 21
2644.5
 31
0.0
  0
LINE
  5
3BE
330
1F
100
AcDbEntity
  8
化粧台
  6
CONTINUOUS
 62
     2
100
AcDbLine
 10
2348.299999999997
 20
2133.3
 30
0.0
 11
2349.499999999998
 21
2133.3
 31
0.0
  0
LINE
  5
3BF
330
1F
100
AcDbEntity
  8
化粧台
  6
CONTINUOUS
 62
     2
100
AcDbLine
 10
2368.300000000003
 20
2124.5
 30
0.0
 11
2368.300000000003
 21
2123.3
 31
0.0
  0
LINE
  5
3C0
330
1F
100
AcDbEntity
  8
化粧台
  6
CONTINUOUS
 62
     2
100
AcDbLine
 10
2348.299999999997
 20
2123.3
 30
0.0
 11
2368.299999999997
 21
2123.3
 31
0.0
  0
LINE
  5
3C1
330
1F
100
AcDbEntity
  8
化粧台
  6
CONTINUOUS
 62
     2
100
AcDbLine
 10
2348.299999999997
 20
2133.3
 30
0.0
 11
2348.299999999997
 21
2123.3
 31
0.0
  0
LINE
  5
3C2
330
1F
100
AcDbEntity
  8
化粧台
  6
CONTINUOUS
 62
     2
100
AcDbLine
 10
2349.499999999998
 20
2124.5
 30
0.0
 11
2372.999999999998
 21
2124.5
 31
0.0
  0
LINE
  5
3C3
330
1F
100
AcDbEntity
  8
化粧台
  6
CONTINUOUS
 62
     2
100
AcDbLine
 10
2385.499999999998
 20
2643.5
 30
0.0
 11
2385.499999999998
 21
2569.480762113501
 31
0.0
  0
LINE
  5
3C4
330
1F
100
AcDbEntity
  8
化粧台
  6
CONTINUOUS
 62
     2
100
AcDbLine
 10
2385.499999999998
 20
2643.5
 30
0.0
 11
2372.999999999998
 21
2643.5
 31
0.0
  0
LINE
  5
3C5
330
1F
100
AcDbEntity
  8
化粧台
  6
CONTINUOUS
 62
     2
100
AcDbLine
 10
2385.499999999998
 20
2593.5
 30
0.0
 11
2372.999999999998
 21
2615.150635094584
 31
0.0
  0
LINE
  5
3C6
330
1F
100
AcDbEntity
  8
化粧台
  6
CONTINUOUS
 62
     2
100
AcDbLine
 10
2372.999999999998
 20
2569.480762113501
 30
0.0
 11
2385.499999999998
 21
2569.480762113501
 31
0.0
  0
LINE
  5
3C7
330
1F
100
AcDbEntity
  8
化粧台
  6
CONTINUOUS
 62
     2
100
AcDbLine
 10
2372.999999999998
 20
2644.5
 30
0.0
 11
2372.999999999998
 21
2124.5
 31
0.0
  0
LINE
  5
3C8
330
1F
100
AcDbEntity
  8
化粧台
  6
CONTINUOUS
 62
     2
100
AcDbLine
 10
2385.499999999998
 20
2189.5
 30
0.0
 11
2372.999999999998
 21
2189.5
 31
0.0
  0
LINE
  5
3C9
330
1F
100
AcDbEntity
  8
化粧台
  6
CONTINUOUS
 62
     2
100
AcDbLine
 10
2385.499999999998
 20
2159.5
 30
0.0
 11
2372.999999999998
 21
2159.5
 31
0.0
  0
LINE
  5
3CA
330
1F
100
AcDbEntity
  8
化粧台
  6
CONTINUOUS
 62
     2
100
AcDbLine
 10
2385.499999999998
 20
2129.5
 30
0.0
 11
2372.999999999998
 21
2129.5
 31
0.0
  0
LINE
  5
3CB
330
1F
100
AcDbEntity
  8
化粧台
  6
CONTINUOUS
 62
     6
100
AcDbLine
 10
2373.299999999997
 20
2129.500000000001
 30
0.0
 11
2382.699999999997
 21
2129.500000000001
 31
0.0
  0
ARC
  5
3CC
330
1F
100
AcDbEntity
  8
化粧台
  6
CONTINUOUS
 62
     6
100
AcDbCircle
 10
2377.999999999998
 20
2132.668000000001
 30
0.0
 40
5.668000000000172
100
AcDbArc
 50
213.9816465839783
 51
326.018353416022
  0
LINE
  5
3CD
330
1F
100
AcDbEntity
  8
化粧台
  6
CONTINUOUS
 62
     6
100
AcDbLine
 10
2385.500000000002
 20
2586.480762113501
 30
0.0
 11
2418.000000000003
 21
2584.480762113499
 31
0.0
  0
LINE
  5
3CE
330
1F
100
AcDbEntity
  8
化粧台
  6
CONTINUOUS
 62
     6
100
AcDbLine
 10
2418.000000000003
 20
2584.480762113499
 30
0.0
 11
2385.500000000002
 21
2582.480762113501
 31
0.0
  0
LINE
  5
3CF
330
1F
100
AcDbEntity
  8
化粧台
  6
CONTINUOUS
 62
     6
100
AcDbLine
 10
2370.499999999998
 20
2584.4807621135
 30
0.0
 11
2428.0
 21
2584.480762113499
 31
0.0
  0
LINE
  5
3D0
330
1F
100
AcDbEntity
  8
化粧台
  6
CONTINUOUS
 62
     6
100
AcDbLine
 10
2385.500000000002
 20
2146.5
 30
0.0
 11
2418.000000000003
 21
2144.499999999999
 31
0.0
  0
LINE
  5
3D1
330
1F
100
AcDbEntity
  8
化粧台
  6
CONTINUOUS
 62
     6
100
AcDbLine
 10
2418.000000000003
 20
2144.499999999999
 30
0.0
 11
2385.500000000002
 21
2142.5
 31
0.0
  0
LINE
  5
3D2
330
1F
100
AcDbEntity
  8
化粧台
  6
CONTINUOUS
 62
     6
100
AcDbLine
 10
2370.499999999998
 20
2144.5
 30
0.0
 11
2428.0
 21
2144.499999999999
 31
0.0
  0
LINE
  5
3D3
330
1F
100
AcDbEntity
  8
化粧台
  6
EXLTYPE4
 62
     6
100
AcDbLine
 10
2385.5
 20
894.5
 30
0.0
 11
2385.499999999999
 21
3024.0
 31
0.0
  0
ELLIPSE
  5
3D4
330
1F
100
AcDbEntity
  8
化粧台
  6
CONTINUOUS
 62
     2
100
AcDbEllipse
 10
920.0
 20
3723.99844365072
 30
0.0
 11
15.0
 21
0.0
 31
0.0
210
0.0
220
0.0
230
1.0
 40
0.2032242918773344
 41
5.931468484580523
 42
9.776494783368435
  0
ELLIPSE
  5
3D5
330
1F
100
AcDbEntity
  8
化粧台
  6
CONTINUOUS
 62
     2
100
AcDbEllipse
 10
920.0
 20
3758.19387624485
 30
0.0
 11
6.003838769576682
 21
-1.470516386351773E-15
 31
0.0
210
0.0
220
0.0
230
1.0
 40
0.1744228793978485
 41
0.0
 42
6.283185307179586
  0
LINE
  5
3D6
330
1F
100
AcDbEntity
  8
化粧台
  6
CONTINUOUS
 62
     2
100
AcDbLine
 10
925.9999999999955
 20
3758.156434200723
 30
0.0
 11
925.9999999999955
 21
3817.859156576973
 31
0.0
  0
LINE
  5
3D7
330
1F
100
AcDbEntity
  8
化粧台
  6
CONTINUOUS
 62
     2
100
AcDbLine
 10
913.9999999999955
 20
3758.156434200771
 30
0.0
 11
913.9999999999955
 21
3818.19853870331
 31
0.0
  0
ELLIPSE
  5
3D8
330
1F
100
AcDbEntity
  8
化粧台
  6
CONTINUOUS
 62
     2
100
AcDbEllipse
 10
920.0
 20
3817.8965986211
 30
0.0
 11
6.003838769576682
 21
-1.470516386351773E-15
 31
0.0
210
0.0
220
0.0
230
1.0
 40
0.1744228793978485
 41
-0.0357618232697662
 42
3.177354476812678
  0
LINE
  5
3D9
330
1F
100
AcDbEntity
  8
化粧台
  6
CONTINUOUS
 62
     2
100
AcDbLine
 10
916.9999999999818
 20
3879.278606630094
 30
0.0
 11
916.9999999999818
 21
3866.799103120975
 31
0.0
  0
LINE
  5
3DA
330
1F
100
AcDbEntity
  8
化粧台
  6
CONTINUOUS
 62
     2
100
AcDbLine
 10
923.0
 20
3879.278606630094
 30
0.0
 11
923.0
 21
3866.799103120978
 31
0.0
  0
CIRCLE
  5
3DB
330
1F
100
AcDbEntity
  8
化粧台
  6
CONTINUOUS
 62
     2
100
AcDbCircle
 10
920.0
 20
3844.5
 30
0.0
 40
22.5
  0
LINE
  5
3DC
330
1F
100
AcDbEntity
  8
化粧台
  6
CONTINUOUS
 62
     2
100
AcDbLine
 10
925.8410844325681
 20
3894.339569595011
 30
0.0
 11
914.1589155674233
 21
3894.339569595011
 31
0.0
  0
ARC
  5
3DD
330
1F
100
AcDbEntity
  8
化粧台
  6
CONTINUOUS
 62
     2
100
AcDbCircle
 10
919.9999999999964
 20
3876.7884851056
 30
0.0
 40
18.55108448941109
100
AcDbArc
 50
72.29820692448685
 51
107.7017930755131
  0
ARC
  5
3DE
330
1F
100
AcDbEntity
  8
化粧台
  6
CONTINUOUS
 62
     2
100
AcDbCircle
 10
915.273775521875
 20
3879.839569595011
 30
0.0
 40
0.5
100
AcDbArc
 50
183.0852877108193
 51
270.0
  0
ARC
  5
3DF
330
1F
100
AcDbEntity
  8
化粧台
  6
CONTINUOUS
 62
     2
100
AcDbCircle
 10
914.5113353643601
 20
3893.984886233789
 30
0.0
 40
0.5
100
AcDbArc
 50
107.7017930755131
 51
183.0852877108193
  0
LINE
  5
3E0
330
1F
100
AcDbEntity
  8
化粧台
  6
CONTINUOUS
 62
     2
100
AcDbLine
 10
914.7745002600504
 20
3879.812658390477
 30
0.0
 11
914.0120601025355
 21
3893.957975029255
 31
0.0
  0
ARC
  5
3E1
330
1F
100
AcDbEntity
  8
化粧台
  6
CONTINUOUS
 62
     2
100
AcDbCircle
 10
924.726224478115
 20
3879.839569595011
 30
0.0
 40
0.5
100
AcDbArc
 50
270.0
 51
356.9147122891808
  0
ARC
  5
3E2
330
1F
100
AcDbEntity
  8
化粧台
  6
CONTINUOUS
 62
     2
100
AcDbCircle
 10
925.4886646356326
 20
3893.984886233791
 30
0.0
 40
0.5
100
AcDbArc
 50
356.9147122891808
 51
72.29820692448685
  0
LINE
  5
3E3
330
1F
100
AcDbEntity
  8
化粧台
  6
CONTINUOUS
 62
     2
100
AcDbLine
 10
925.2254997399405
 20
3879.812658390477
 30
0.0
 11
925.9879398974572
 21
3893.957975029255
 31
0.0
  0
LINE
  5
3E4
330
1F
100
AcDbEntity
  8
化粧台
  6
CONTINUOUS
 62
     2
100
AcDbLine
 10
924.7262244781164
 20
3879.33956959501
 30
0.0
 11
919.9999999999955
 21
3879.33956959501
 31
0.0
  0
LINE
  5
3E5
330
1F
100
AcDbEntity
  8
化粧台
  6
CONTINUOUS
 62
     2
100
AcDbLine
 10
919.9999999999955
 20
3879.33956959501
 30
0.0
 11
915.273775521875
 21
3879.33956959501
 31
0.0
  0
LINE
  5
3E6
330
1F
100
AcDbEntity
  8
化粧台
  6
CONTINUOUS
 62
     2
100
AcDbLine
 10
923.9999999999982
 20
3818.677539543204
 30
0.0
 11
923.9999999999982
 21
3821.850496694188
 31
0.0
  0
LINE
  5
3E7
330
1F
100
AcDbEntity
  8
化粧台
  6
CONTINUOUS
 62
     2
100
AcDbLine
 10
915.9999999999982
 20
3818.677539543203
 30
0.0
 11
915.9999999999982
 21
3821.91853870331
 31
0.0
  0
LINE
  5
3E8
330
1F
100
AcDbEntity
  8
化粧台
  6
CONTINUOUS
 62
     2
100
AcDbLine
 10
935.0000000000082
 20
3723.99844365072
 30
0.0
 11
935.0000000000077
 21
3827.729490168758
 31
0.0
  0
LINE
  5
3E9
330
1F
100
AcDbEntity
  8
化粧台
  6
CONTINUOUS
 62
     2
100
AcDbLine
 10
905.0000000000055
 20
3723.998443650721
 30
0.0
 11
905.0000000000077
 21
3827.729490168745
 31
0.0
  0
LINE
  5
3EA
330
1F
100
AcDbEntity
  8
化粧台
  6
CONTINUOUS
 62
     2
100
AcDbLine
 10
905.9182604893876
 20
3722.94825152411
 30
0.0
 11
934.0817395106128
 21
3722.94825152411
 31
0.0
  0
LINE
  5
3EB
330
1F
100
AcDbEntity
  8
化粧台
  6
CONTINUOUS
 62
     2
100
AcDbLine
 10
925.9999999999958
 20
1848.184819960074
 30
0.0
 11
925.9999999999958
 21
1859.117774682436
 31
0.0
  0
LINE
  5
3EC
330
1F
100
AcDbEntity
  8
化粧台
  6
CONTINUOUS
 62
     2
100
AcDbLine
 10
913.9999999999949
 20
1848.184819960075
 30
0.0
 11
913.9999999999958
 21
1859.117774682436
 31
0.0
  0
LINE
  5
3ED
330
1F
100
AcDbEntity
  8
化粧台
  6
CONTINUOUS
 62
     2
100
AcDbLine
 10
897.4999999999858
 20
1826.200012207063
 30
0.0
 11
942.499999999984
 21
1826.200012207063
 31
0.0
  0
ARC
  5
3EE
330
1F
100
AcDbEntity
  8
化粧台
  6
CONTINUOUS
 62
     2
100
AcDbCircle
 10
941.4999999999922
 20
1855.426017109385
 30
0.0
 40
1.0
100
AcDbArc
 50
0.0
 51
85.87651071327323
  0
ARC
  5
3EF
330
1F
100
AcDbEntity
  8
化粧台
  6
CONTINUOUS
 62
     2
100
AcDbCircle
 10
898.4999999999922
 20
1855.426017109384
 30
0.0
 40
1.0
100
AcDbArc
 50
94.12348928672675
 51
180.0
  0
ARC
  5
3F0
330
1F
100
AcDbEntity
  8
化粧台
  6
CONTINUOUS
 62
     2
100
AcDbCircle
 10
919.9999999999958
 20
1557.200012207062
 30
0.0
 40
300.0
100
AcDbArc
 50
85.87651071327323
 51
88.85400800161261
  0
ARC
  5
3F1
330
1F
100
AcDbEntity
  8
化粧台
  6
CONTINUOUS
 62
     2
100
AcDbCircle
 10
919.9999999999958
 20
1557.200012207062
 30
0.0
 40
300.0
100
AcDbArc
 50
91.14599199838867
 51
94.12348928672675
  0
ARC
  5
3F2
330
1F
100
AcDbEntity
  8
化粧台
  6
CONTINUOUS
 62
     2
100
AcDbCircle
 10
919.9999999999958
 20
1848.184819960074
 30
0.0
 40
6.000000000000004
100
AcDbArc
 50
180.0
 51
0.0
  0
CIRCLE
  5
3F3
330
1F
100
AcDbEntity
  8
化粧台
  6
CONTINUOUS
 62
     2
100
AcDbCircle
 10
919.9999999999958
 20
1859.117774682436
 30
0.0
 40
6.000000000000004
  0
ARC
  5
3F4
330
1F
100
AcDbEntity
  8
化粧台
  6
CONTINUOUS
 62
     2
100
AcDbCircle
 10
919.9999999999958
 20
1798.650756845717
 30
0.0
 40
15.00000000000001
100
AcDbArc
 50
322.9040503969624
 51
217.0959496030378
  0
ELLIPSE
  5
3F5
330
1F
100
AcDbEntity
  8
化粧台
  6
CONTINUOUS
 62
     2
100
AcDbEllipse
 10
919.9999999999958
 20
1789.180566214775
 30
0.0
 11
-12.0
 21
1.469576158976824E-15
 31
0.0
210
0.0
220
0.0
230
1.0
 40
0.2210297627753829
 41
3.141592653589793
 42
6.283185307179586
  0
ELLIPSE
  5
3F6
330
1F
100
AcDbEntity
  8
化粧台
  6
CONTINUOUS
 62
     2
100
AcDbEllipse
 10
919.9999999999958
 20
1783.673888588416
 30
0.0
 11
-12.00000000000002
 21
1.469576158976827E-15
 31
0.0
210
0.0
220
0.0
230
1.0
 40
0.1591774961946723
 41
0.0
 42
6.283185307179586
  0
LINE
  5
3F7
330
1F
100
AcDbEntity
  8
化粧台
  6
CONTINUOUS
 62
     2
100
AcDbLine
 10
907.9999999999958
 20
1783.673888588415
 30
0.0
 11
907.9999999999958
 21
1789.392155853674
 31
0.0
  0
LINE
  5
3F8
330
1F
100
AcDbEntity
  8
化粧台
  6
CONTINUOUS
 62
     2
100
AcDbLine
 10
931.9999999999958
 20
1783.673888588415
 30
0.0
 11
931.9999999999958
 21
1789.392155853673
 31
0.0
  0
LINE
  5
3F9
330
1F
100
AcDbEntity
  8
化粧台
  6
CONTINUOUS
 62
     2
100
AcDbLine
 10
905.9999999999958
 20
1783.673888588415
 30
0.0
 11
933.999708836939
 21
1783.673888588416
 31
0.0
  0
ARC
  5
3FA
330
1F
100
AcDbEntity
  8
化粧台
  6
CONTINUOUS
 62
     2
100
AcDbCircle
 10
919.9999999999958
 20
1946.549269781699
 30
0.0
 40
154.6227815628025
100
AcDbArc
 50
264.9181466667736
 51
275.0818533332265
  0
LINE
  5
3FB
330
1F
100
AcDbEntity
  8
化粧台
  6
CONTINUOUS
 62
     2
100
AcDbLine
 10
941.9999999999831
 20
1822.299999999907
 30
0.0
 11
942.4999999999831
 21
1821.799999999907
 31
0.0
  0
LINE
  5
3FC
330
1F
100
AcDbEntity
  8
化粧台
  6
CONTINUOUS
 62
     2
100
AcDbLine
 10
940.3059968261235
 20
1826.200012207063
 30
0.0
 11
941.3199999999837
 21
1822.299999999907
 31
0.0
  0
LINE
  5
3FD
330
1F
100
AcDbEntity
  8
化粧台
  6
CONTINUOUS
 62
     2
100
AcDbLine
 10
899.6940031738444
 20
1826.200012207063
 30
0.0
 11
898.6799999999843
 21
1822.299999999906
 31
0.0
  0
LINE
  5
3FE
330
1F
100
AcDbEntity
  8
化粧台
  6
CONTINUOUS
 62
     2
100
AcDbLine
 10
941.9999999999831
 20
1822.299999999907
 30
0.0
 11
897.9999999999958
 21
1822.299999999896
 31
0.0
  0
LINE
  5
3FF
330
1F
100
AcDbEntity
  8
化粧台
  6
CONTINUOUS
 62
     2
100
AcDbLine
 10
897.4999999999958
 20
1821.799999999896
 30
0.0
 11
897.9999999999958
 21
1822.299999999896
 31
0.0
  0
LINE
  5
400
330
1F
100
AcDbEntity
  8
化粧台
  6
CONTINUOUS
 62
     2
100
AcDbLine
 10
942.499999999984
 20
1826.200012207063
 30
0.0
 11
942.4999999999835
 21
1855.426017109385
 31
0.0
  0
LINE
  5
401
330
1F
100
AcDbEntity
  8
化粧台
  6
CONTINUOUS
 62
     2
100
AcDbLine
 10
897.499999999984
 20
1855.426017109384
 30
0.0
 11
897.499999999984
 21
1826.20001220707
 31
0.0
  0
LINE
  5
402
330
1F
100
AcDbEntity
  8
化粧台
  6
CONTINUOUS
 62
     2
100
AcDbLine
 10
897.4999999999958
 20
1821.799999999896
 30
0.0
 11
897.4999999999958
 21
1734.5
 31
0.0
  0
LINE
  5
403
330
1F
100
AcDbEntity
  8
化粧台
  6
CONTINUOUS
 62
     2
100
AcDbLine
 10
942.4999999999831
 20
1734.500000000002
 30
0.0
 11
942.4999999999826
 21
1821.799999999908
 31
0.0
  0
LINE
  5
404
330
1F
100
AcDbEntity
  8
化粧台
  6
CONTINUOUS
 62
     2
100
AcDbLine
 10
2278.627362902309
 20
1852.062934157885
 30
0.0
 11
2274.596509111405
 21
1852.77368243651
 31
0.0
  0
LINE
  5
405
330
1F
100
AcDbEntity
  8
化粧台
  6
CONTINUOUS
 62
     2
100
AcDbLine
 10
2273.901916400737
 20
1848.834451424457
 30
0.0
 11
2274.943805466735
 21
1854.74329794253
 31
0.0
  0
LINE
  5
406
330
1F
100
AcDbEntity
  8
化粧台
  6
CONTINUOUS
 62
     2
100
AcDbLine
 10
2272.860027334735
 20
1842.92560490639
 30
0.0
 11
2273.901916400727
 21
1848.834451424461
 31
0.0
  0
ARC
  5
407
330
1F
100
AcDbEntity
  8
化粧台
  6
CONTINUOUS
 62
     2
100
AcDbCircle
 10
2252.98025892324
 20
1782.006485679812
 30
0.0
 40
29.29134623873736
100
AcDbArc
 50
328.6679794878881
 51
31.33202051226278
  0
ARC
  5
408
330
1F
100
AcDbEntity
  8
化粧台
  6
CONTINUOUS
 62
     2
100
AcDbCircle
 10
2263.753619419935
 20
1848.03457549759
 30
0.0
 40
15.40960475402978
100
AcDbArc
 50
342.3548939120103
 51
17.64510608798978
  0
LINE
  5
409
330
1F
100
AcDbEntity
  8
化粧台
  6
CONTINUOUS
 62
     2
100
AcDbLine
 10
2273.207323690065
 20
1844.89522041241
 30
0.0
 11
2278.609983007597
 21
1843.942585807158
 31
0.0
  0
ARC
  5
40A
330
1F
100
AcDbEntity
  8
化粧台
  6
CONTINUOUS
 62
     2
100
AcDbCircle
 10
2215.948544782059
 20
1864.126043575498
 30
0.0
 40
1.016451625090327
100
AcDbArc
 50
71.10198734334395
 51
155.1938278787579
  0
ARC
  5
40B
330
1F
100
AcDbEntity
  8
化粧台
  6
CONTINUOUS
 62
     2
100
AcDbCircle
 10
2261.801297053556
 20
1850.923932767476
 30
0.0
 40
48.72040105432946
100
AcDbArc
 50
163.7559027392207
 51
176.0410102655832
  0
ARC
  5
40C
330
1F
100
AcDbEntity
  8
化粧台
  6
CONTINUOUS
 62
     2
100
AcDbCircle
 10
2214.198931850034
 20
1854.285659580982
 30
0.0
 40
1.001777616499239
100
AcDbArc
 50
179.8828477326057
 51
262.1420782586018
  0
LINE
  5
40D
330
1F
100
AcDbEntity
  8
化粧台
  6
CONTINUOUS
 62
     2
100
AcDbLine
 10
2214.061971744733
 20
1853.2932885201
 30
0.0
 11
2272.860027334735
 21
1842.92560490639
 31
0.0
  0
LINE
  5
40E
330
1F
100
AcDbEntity
  8
化粧台
  6
CONTINUOUS
 62
     2
100
AcDbLine
 10
2323.000000000003
 20
1771.057308563486
 30
0.0
 11
2323.000000000002
 21
1821.800000000032
 31
0.0
  0
LINE
  5
40F
330
1F
100
AcDbEntity
  8
化粧台
  6
CONTINUOUS
 62
     2
100
AcDbLine
 10
2322.500000000003
 20
1822.300000000031
 30
0.0
 11
2323.000000000003
 21
1821.800000000031
 31
0.0
  0
LINE
  5
410
330
1F
100
AcDbEntity
  8
化粧台
  6
CONTINUOUS
 62
     2
100
AcDbLine
 10
2278.500000000002
 20
1822.300000000031
 30
0.0
 11
2278.000000000002
 21
1821.800000000031
 31
0.0
  0
LINE
  5
411
330
1F
100
AcDbEntity
  8
化粧台
  6
CONTINUOUS
 62
     2
100
AcDbLine
 10
2320.900000000015
 20
1822.30000000003
 30
0.0
 11
2322.500000000003
 21
1822.300000000031
 31
0.0
  0
ARC
  5
412
330
1F
100
AcDbEntity
  8
化粧台
  6
CONTINUOUS
 62
     2
100
AcDbCircle
 10
2349.984886233799
 20
1776.560280186984
 30
0.0
 40
0.5
100
AcDbArc
 50
17.70179307550755
 51
93.0852877108197
  0
LINE
  5
413
330
1F
100
AcDbEntity
  8
化粧台
  6
CONTINUOUS
 62
     2
100
AcDbLine
 10
2335.812658390485
 20
1776.297115291293
 30
0.0
 11
2349.957975029264
 21
1777.05955544881
 31
0.0
  0
LINE
  5
414
330
1F
100
AcDbEntity
  8
化粧台
  6
CONTINUOUS
 62
     2
100
AcDbLine
 10
2350.339569595019
 20
1776.91269998392
 30
0.0
 11
2350.339569595019
 21
1765.230531118776
 31
0.0
  0
ARC
  5
415
330
1F
100
AcDbEntity
  8
化粧台
  6
CONTINUOUS
 62
     2
100
AcDbCircle
 10
2335.839569595018
 20
1775.797840029467
 30
0.0
 40
0.5
100
AcDbArc
 50
93.0852877108197
 51
180.0
  0
ARC
  5
416
330
1F
100
AcDbEntity
  8
化粧台
  6
CONTINUOUS
 62
     2
100
AcDbCircle
 10
2335.839569595018
 20
1766.345391073227
 30
0.0
 40
0.5
100
AcDbArc
 50
180.0
 51
266.9147122891804
  0
ARC
  5
417
330
1F
100
AcDbEntity
  8
化粧台
  6
CONTINUOUS
 62
     2
100
AcDbCircle
 10
2349.984886233798
 20
1765.582950915712
 30
0.0
 40
0.5
100
AcDbArc
 50
266.9147122891804
 51
342.2982069244429
  0
LINE
  5
418
330
1F
100
AcDbEntity
  8
化粧台
  6
CONTINUOUS
 62
     2
100
AcDbLine
 10
2335.812658390485
 20
1765.846115811403
 30
0.0
 11
2349.957975029264
 21
1765.083675653888
 31
0.0
  0
ARC
  5
419
330
1F
100
AcDbEntity
  8
化粧台
  6
CONTINUOUS
 62
     2
100
AcDbCircle
 10
2332.788485105608
 20
1771.071615551349
 30
0.0
 40
18.55108448941111
100
AcDbArc
 50
342.2982069244645
 51
17.70179307553557
  0
LINE
  5
41A
330
1F
100
AcDbEntity
  8
化粧台
  6
CONTINUOUS
 62
     2
100
AcDbLine
 10
2205.57317273903
 20
1781.763758634078
 30
0.0
 11
2183.907402172759
 21
1785.584018542752
 31
0.0
  0
LINE
  5
41B
330
1F
100
AcDbEntity
  8
化粧台
  6
CONTINUOUS
 62
     2
100
AcDbLine
 10
2183.907402172759
 20
1785.584018542751
 30
0.0
 11
2205.57317273903
 21
1781.763758634079
 31
0.0
  0
LINE
  5
41C
330
1F
100
AcDbEntity
  8
化粧台
  6
CONTINUOUS
 62
     2
100
AcDbLine
 10
2205.57317273903
 20
1781.763758634078
 30
0.0
 11
2206.658236314162
 21
1782.158689477713
 31
0.0
  0
LINE
  5
41D
330
1F
100
AcDbEntity
  8
化粧台
  6
CONTINUOUS
 62
     2
100
AcDbLine
 10
2205.573172739028
 20
1781.763758634079
 30
0.0
 11
2206.658236314161
 21
1782.158689477714
 31
0.0
  0
LINE
  5
41E
330
1F
100
AcDbEntity
  8
化粧台
  6
CONTINUOUS
 62
     2
100
AcDbLine
 10
2183.907402172761
 20
1785.584018542751
 30
0.0
 11
2183.02285024187
 21
1786.32624574172
 31
0.0
  0
LINE
  5
41F
330
1F
100
AcDbEntity
  8
化粧台
  6
CONTINUOUS
 62
     2
100
AcDbLine
 10
2183.907402172759
 20
1785.584018542751
 30
0.0
 11
2183.022850241869
 21
1786.32624574172
 31
0.0
  0
ARC
  5
420
330
1F
100
AcDbEntity
  8
化粧台
  6
CONTINUOUS
 62
     2
100
AcDbCircle
 10
2330.155424036365
 20
1764.071615551347
 30
0.0
 40
4.0
100
AcDbArc
 50
90.00000000000001
 51
151.999999999985
  0
LINE
  5
421
330
1F
100
AcDbEntity
  8
化粧台
  6
CONTINUOUS
 62
     2
100
AcDbLine
 10
2217.678105298984
 20
1777.411464064805
 30
0.0
 11
2278.000000000003
 21
1766.77508650156
 31
0.0
  0
LINE
  5
422
330
1F
100
AcDbEntity
  8
化粧台
  6
CONTINUOUS
 62
     2
100
AcDbLine
 10
2185.090296517384
 20
1813.620372351741
 30
0.0
 11
2278.000000000004
 21
1797.237884858132
 31
0.0
  0
LINE
  5
423
330
1F
100
AcDbEntity
  8
化粧台
  6
CONTINUOUS
 62
     2
100
AcDbLine
 10
2210.905802583728
 20
1788.971523390496
 30
0.0
 11
2217.678105298984
 21
1777.411464064805
 31
0.0
  0
ARC
  5
424
330
1F
100
AcDbEntity
  8
化粧台
  6
CONTINUOUS
 62
     2
100
AcDbCircle
 10
2180.948251524119
 20
1796.284701142028
 30
0.0
 40
2.0
100
AcDbArc
 50
172.1050093001814
 51
260.0000000000219
  0
ARC
  5
425
330
1F
100
AcDbEntity
  8
化粧台
  6
CONTINUOUS
 62
     2
100
AcDbCircle
 10
2184.74300016205
 20
1811.650756845717
 30
0.0
 40
2.0
100
AcDbArc
 50
79.99999999999383
 51
160.1509730893526
  0
LINE
  5
426
330
1F
100
AcDbEntity
  8
化粧台
  6
CONTINUOUS
 62
     2
100
AcDbLine
 10
2279.000000000002
 20
1822.300000000113
 30
0.0
 11
2280.200000000003
 21
1822.300000000112
 31
0.0
  0
ARC
  5
427
330
1F
100
AcDbEntity
  8
化粧台
  6
CONTINUOUS
 62
     2
100
AcDbCircle
 10
2300.500000000003
 20
1557.200012207062
 30
0.0
 40
300.0
100
AcDbArc
 50
85.78044385704115
 51
94.21955614295885
  0
LINE
  5
428
330
1F
100
AcDbEntity
  8
化粧台
  6
CONTINUOUS
 62
     2
100
AcDbLine
 10
2323.303508502005
 20
1846.200012207063
 30
0.0
 11
2323.303508502005
 21
1837.385151813763
 31
0.0
  0
POLYLINE
  5
429
330
1F
100
AcDbEntity
  8
化粧台
  6
CONTINUOUS
 62
     2
100
AcDb2dPolyline
 66
     1
 10
0.0
 20
0.0
 30
0.0
 70
   128
  0
VERTEX
  5
42A
330
429
100
AcDbEntity
  8
化粧台
  6
CONTINUOUS
 62
     2
100
AcDbVertex
100
AcDb2dVertex
 10
2323.232135843405
 20
1836.800181236963
 30
0.0
  0
VERTEX
  5
42B
330
429
100
AcDbEntity
  8
化粧台
  6
CONTINUOUS
 62
     2
100
AcDbVertex
100
AcDb2dVertex
 10
2323.232454492668
 20
1836.800633354384
 30
0.0
  0
VERTEX
  5
42C
330
429
100
AcDbEntity
  8
化粧台
  6
CONTINUOUS
 62
     2
100
AcDbVertex
100
AcDb2dVertex
 10
2323.233356918039
 20
1836.801925614466
 30
0.0
  0
VERTEX
  5
42D
330
429
100
AcDbEntity
  8
化粧台
  6
CONTINUOUS
 62
     2
100
AcDbVertex
100
AcDb2dVertex
 10
2323.23476283589
 20
1836.803961878936
 30
0.0
  0
VERTEX
  5
42E
330
429
100
AcDbEntity
  8
化粧台
  6
CONTINUOUS
 62
     2
100
AcDbVertex
100
AcDb2dVertex
 10
2323.236591962592
 20
1836.80664600952
 30
0.0
  0
VERTEX
  5
42F
330
429
100
AcDbEntity
  8
化粧台
  6
CONTINUOUS
 62
     2
100
AcDbVertex
100
AcDb2dVertex
 10
2323.238764014519
 20
1836.809881867945
 30
0.0
  0
VERTEX
  5
430
330
429
100
AcDbEntity
  8
化粧台
  6
CONTINUOUS
 62
     2
100
AcDbVertex
100
AcDb2dVertex
 10
2323.24119870804
 20
1836.813573315938
 30
0.0
  0
VERTEX
  5
431
330
429
100
AcDbEntity
  8
化粧台
  6
CONTINUOUS
 62
     2
100
AcDbVertex
100
AcDb2dVertex
 10
2323.243815759531
 20
1836.817624215226
 30
0.0
  0
VERTEX
  5
432
330
429
100
AcDbEntity
  8
化粧台
  6
CONTINUOUS
 62
     2
100
AcDbVertex
100
AcDb2dVertex
 10
2323.24653488536
 20
1836.821938427535
 30
0.0
  0
VERTEX
  5
433
330
429
100
AcDbEntity
  8
化粧台
  6
CONTINUOUS
 62
     2
100
AcDbVertex
100
AcDb2dVertex
 10
2323.2492758019
 20
1836.826419814593
 30
0.0
  0
VERTEX
  5
434
330
429
100
AcDbEntity
  8
化粧台
  6
CONTINUOUS
 62
     2
100
AcDbVertex
100
AcDb2dVertex
 10
2323.251958225525
 20
1836.830972238127
 30
0.0
  0
VERTEX
  5
435
330
429
100
AcDbEntity
  8
化粧台
  6
CONTINUOUS
 62
     2
100
AcDbVertex
100
AcDb2dVertex
 10
2323.254501872604
 20
1836.835499559862
 30
0.0
  0
VERTEX
  5
436
330
429
100
AcDbEntity
  8
化粧台
  6
CONTINUOUS
 62
     2
100
AcDbVertex
100
AcDb2dVertex
 10
2323.259147087117
 20
1836.844597498818
 30
0.0
  0
VERTEX
  5
437
330
429
100
AcDbEntity
  8
化粧台
  6
CONTINUOUS
 62
     2
100
AcDbVertex
100
AcDb2dVertex
 10
2323.262936247985
 20
1836.853230612037
 30
0.0
  0
VERTEX
  5
438
330
429
100
AcDbEntity
  8
化粧台
  6
CONTINUOUS
 62
     2
100
AcDbVertex
100
AcDb2dVertex
 10
2323.265966582809
 20
1836.86146167259
 30
0.0
  0
VERTEX
  5
439
330
429
100
AcDbEntity
  8
化粧台
  6
CONTINUOUS
 62
     2
100
AcDbVertex
100
AcDb2dVertex
 10
2323.268335319188
 20
1836.869353453548
 30
0.0
  0
VERTEX
  5
43A
330
429
100
AcDbEntity
  8
化粧台
  6
CONTINUOUS
 62
     2
100
AcDbVertex
100
AcDb2dVertex
 10
2323.27013968472
 20
1836.876968727979
 30
0.0
  0
VERTEX
  5
43B
330
429
100
AcDbEntity
  8
化粧台
  6
CONTINUOUS
 62
     2
100
AcDbVertex
100
AcDb2dVertex
 10
2323.271476907006
 20
1836.884370268956
 30
0.0
  0
VERTEX
  5
43C
330
429
100
AcDbEntity
  8
化粧台
  6
CONTINUOUS
 62
     2
100
AcDbVertex
100
AcDb2dVertex
 10
2323.272444213643
 20
1836.891620849546
 30
0.0
  0
VERTEX
  5
43D
330
429
100
AcDbEntity
  8
化粧台
  6
CONTINUOUS
 62
     2
100
AcDbVertex
100
AcDb2dVertex
 10
2323.273138832233
 20
1836.898783242822
 30
0.0
  0
VERTEX
  5
43E
330
429
100
AcDbEntity
  8
化粧台
  6
CONTINUOUS
 62
     2
100
AcDbVertex
100
AcDb2dVertex
 10
2323.273657990373
 20
1836.905920221854
 30
0.0
  0
VERTEX
  5
43F
330
429
100
AcDbEntity
  8
化粧台
  6
CONTINUOUS
 62
     2
100
AcDbVertex
100
AcDb2dVertex
 10
2323.274098915663
 20
1836.913094559711
 30
0.0
  0
VERTEX
  5
440
330
429
100
AcDbEntity
  8
化粧台
  6
CONTINUOUS
 62
     2
100
AcDbVertex
100
AcDb2dVertex
 10
2323.274558835702
 20
1836.920369029463
 30
0.0
  0
VERTEX
  5
441
330
429
100
AcDbEntity
  8
化粧台
  6
CONTINUOUS
 62
     2
100
AcDbVertex
100
AcDb2dVertex
 10
2323.275421512974
 20
1836.931393533333
 30
0.0
  0
VERTEX
  5
442
330
429
100
AcDbEntity
  8
化粧台
  6
CONTINUOUS
 62
     2
100
AcDbVertex
100
AcDb2dVertex
 10
2323.276502403173
 20
1836.942715248447
 30
0.0
  0
VERTEX
  5
443
330
429
100
AcDbEntity
  8
化粧台
  6
CONTINUOUS
 62
     2
100
AcDbVertex
100
AcDb2dVertex
 10
2323.277765844462
 20
1836.954275538306
 30
0.0
  0
VERTEX
  5
444
330
429
100
AcDbEntity
  8
化粧台
  6
CONTINUOUS
 62
     2
100
AcDbVertex
100
AcDb2dVertex
 10
2323.279176175002
 20
1836.966015766415
 30
0.0
  0
VERTEX
  5
445
330
429
100
AcDbEntity
  8
化粧台
  6
CONTINUOUS
 62
     2
100
AcDbVertex
100
AcDb2dVertex
 10
2323.280697732954
 20
1836.977877296275
 30
0.0
  0
VERTEX
  5
446
330
429
100
AcDbEntity
  8
化粧台
  6
CONTINUOUS
 62
     2
100
AcDbVertex
100
AcDb2dVertex
 10
2323.282294856482
 20
1836.989801491389
 30
0.0
  0
VERTEX
  5
447
330
429
100
AcDbEntity
  8
化粧台
  6
CONTINUOUS
 62
     2
100
AcDbVertex
100
AcDb2dVertex
 10
2323.283931883746
 20
1837.00172971526
 30
0.0
  0
VERTEX
  5
448
330
429
100
AcDbEntity
  8
化粧台
  6
CONTINUOUS
 62
     2
100
AcDbVertex
100
AcDb2dVertex
 10
2323.285573152908
 20
1837.01360333139
 30
0.0
  0
VERTEX
  5
449
330
429
100
AcDbEntity
  8
化粧台
  6
CONTINUOUS
 62
     2
100
AcDbVertex
100
AcDb2dVertex
 10
2323.287183002131
 20
1837.025363703282
 30
0.0
  0
VERTEX
  5
44A
330
429
100
AcDbEntity
  8
化粧台
  6
CONTINUOUS
 62
     2
100
AcDbVertex
100
AcDb2dVertex
 10
2323.288725769576
 20
1837.036952194439
 30
0.0
  0
VERTEX
  5
44B
330
429
100
AcDbEntity
  8
化粧台
  6
CONTINUOUS
 62
     2
100
AcDbVertex
100
AcDb2dVertex
 10
2323.290165793404
 20
1837.048310168363
 30
0.0
  0
VERTEX
  5
44C
330
429
100
AcDbEntity
  8
化粧台
  6
CONTINUOUS
 62
     2
100
AcDbVertex
100
AcDb2dVertex
 10
2323.291780924134
 20
1837.062131618917
 30
0.0
  0
VERTEX
  5
44D
330
429
100
AcDbEntity
  8
化粧台
  6
CONTINUOUS
 62
     2
100
AcDbVertex
100
AcDb2dVertex
 10
2323.293198495573
 20
1837.075654045147
 30
0.0
  0
VERTEX
  5
44E
330
429
100
AcDbEntity
  8
化粧台
  6
CONTINUOUS
 62
     2
100
AcDbVertex
100
AcDb2dVertex
 10
2323.29443698415
 20
1837.089029759959
 30
0.0
  0
VERTEX
  5
44F
330
429
100
AcDbEntity
  8
化粧台
  6
CONTINUOUS
 62
     2
100
AcDbVertex
100
AcDb2dVertex
 10
2323.295514866295
 20
1837.102411076259
 30
0.0
  0
VERTEX
  5
450
330
429
100
AcDbEntity
  8
化粧台
  6
CONTINUOUS
 62
     2
100
AcDbVertex
100
AcDb2dVertex
 10
2323.296450618437
 20
1837.115950306954
 30
0.0
  0
VERTEX
  5
451
330
429
100
AcDbEntity
  8
化粧台
  6
CONTINUOUS
 62
     2
100
AcDbVertex
100
AcDb2dVertex
 10
2323.297262717007
 20
1837.129799764949
 30
0.0
  0
VERTEX
  5
452
330
429
100
AcDbEntity
  8
化粧台
  6
CONTINUOUS
 62
     2
100
AcDbVertex
100
AcDb2dVertex
 10
2323.297969638434
 20
1837.144111763153
 30
0.0
  0
VERTEX
  5
453
330
429
100
AcDbEntity
  8
化粧台
  6
CONTINUOUS
 62
     2
100
AcDbVertex
100
AcDb2dVertex
 10
2323.298589859147
 20
1837.159038614469
 30
0.0
  0
VERTEX
  5
454
330
429
100
AcDbEntity
  8
化粧台
  6
CONTINUOUS
 62
     2
100
AcDbVertex
100
AcDb2dVertex
 10
2323.299141855577
 20
1837.174732631805
 30
0.0
  0
VERTEX
  5
455
330
429
100
AcDbEntity
  8
化粧台
  6
CONTINUOUS
 62
     2
100
AcDbVertex
100
AcDb2dVertex
 10
2323.299644104152
 20
1837.191346128068
 30
0.0
  0
VERTEX
  5
456
330
429
100
AcDbEntity
  8
化粧台
  6
CONTINUOUS
 62
     2
100
AcDbVertex
100
AcDb2dVertex
 10
2323.300115081302
 20
1837.209031416163
 30
0.0
  0
VERTEX
  5
457
330
429
100
AcDbEntity
  8
化粧台
  6
CONTINUOUS
 62
     2
100
AcDbVertex
100
AcDb2dVertex
 10
2323.300611344207
 20
1837.229652481849
 30
0.0
  0
VERTEX
  5
458
330
429
100
AcDbEntity
  8
化粧台
  6
CONTINUOUS
 62
     2
100
AcDbVertex
100
AcDb2dVertex
 10
2323.301086735105
 20
1837.251141674622
 30
0.0
  0
VERTEX
  5
459
330
429
100
AcDbEntity
  8
化粧台
  6
CONTINUOUS
 62
     2
100
AcDbVertex
100
AcDb2dVertex
 10
2323.301535693328
 20
1837.272902277422
 30
0.0
  0
VERTEX
  5
45A
330
429
100
AcDbEntity
  8
化粧台
  6
CONTINUOUS
 62
     2
100
AcDbVertex
100
AcDb2dVertex
 10
2323.301952658201
 20
1837.29433757319
 30
0.0
  0
VERTEX
  5
45B
330
429
100
AcDbEntity
  8
化粧台
  6
CONTINUOUS
 62
     2
100
AcDbVertex
100
AcDb2dVertex
 10
2323.302332069051
 20
1837.314850844868
 30
0.0
  0
VERTEX
  5
45C
330
429
100
AcDbEntity
  8
化粧台
  6
CONTINUOUS
 62
     2
100
AcDbVertex
100
AcDb2dVertex
 10
2323.302668365207
 20
1837.333845375397
 30
0.0
  0
VERTEX
  5
45D
330
429
100
AcDbEntity
  8
化粧台
  6
CONTINUOUS
 62
     2
100
AcDbVertex
100
AcDb2dVertex
 10
2323.302955985993
 20
1837.350724447719
 30
0.0
  0
VERTEX
  5
45E
330
429
100
AcDbEntity
  8
化粧台
  6
CONTINUOUS
 62
     2
100
AcDbVertex
100
AcDb2dVertex
 10
2323.303189370739
 20
1837.364891344776
 30
0.0
  0
VERTEX
  5
45F
330
429
100
AcDbEntity
  8
化粧台
  6
CONTINUOUS
 62
     2
100
AcDbVertex
100
AcDb2dVertex
 10
2323.303362958771
 20
1837.375749349507
 30
0.0
  0
VERTEX
  5
460
330
429
100
AcDbEntity
  8
化粧台
  6
CONTINUOUS
 62
     2
100
AcDbVertex
100
AcDb2dVertex
 10
2323.303471189418
 20
1837.382701744856
 30
0.0
  0
VERTEX
  5
461
330
429
100
AcDbEntity
  8
化粧台
  6
CONTINUOUS
 62
     2
100
AcDbVertex
100
AcDb2dVertex
 10
2323.303508502005
 20
1837.385151813763
 30
0.0
  0
SEQEND
  5
462
330
429
100
AcDbEntity
  8
化粧台
  6
CONTINUOUS
 62
     2
  0
LINE
  5
463
330
1F
100
AcDbEntity
  8
化粧台
  6
CONTINUOUS
 62
     2
100
AcDbLine
 10
2323.500000000003
 20
1855.389549246862
 30
0.0
 11
2323.500000000003
 21
1849.200012207063
 31
0.0
  0
POLYLINE
  5
464
330
1F
100
AcDbEntity
  8
化粧台
  6
CONTINUOUS
 62
     2
100
AcDb2dPolyline
 66
     1
 10
0.0
 20
0.0
 30
0.0
 70
   128
  0
VERTEX
  5
465
330
464
100
AcDbEntity
  8
化粧台
  6
CONTINUOUS
 62
     2
100
AcDbVertex
100
AcDb2dVertex
 10
2323.303508502005
 20
1846.200012207063
 30
0.0
  0
VERTEX
  5
466
330
464
100
AcDbEntity
  8
化粧台
  6
CONTINUOUS
 62
     2
100
AcDbVertex
100
AcDb2dVertex
 10
2323.303570232759
 20
1846.208074227495
 30
0.0
  0
VERTEX
  5
467
330
464
100
AcDbEntity
  8
化粧台
  6
CONTINUOUS
 62
     2
100
AcDbVertex
100
AcDb2dVertex
 10
2323.303755460562
 20
1846.230966478738
 30
0.0
  0
VERTEX
  5
468
330
464
100
AcDbEntity
  8
化粧台
  6
CONTINUOUS
 62
     2
100
AcDbVertex
100
AcDb2dVertex
 10
2323.304064238722
 20
1846.266748245705
 30
0.0
  0
VERTEX
  5
469
330
464
100
AcDbEntity
  8
化粧台
  6
CONTINUOUS
 62
     2
100
AcDbVertex
100
AcDb2dVertex
 10
2323.304496620543
 20
1846.313478813312
 30
0.0
  0
VERTEX
  5
46A
330
464
100
AcDbEntity
  8
化粧台
  6
CONTINUOUS
 62
     2
100
AcDbVertex
100
AcDb2dVertex
 10
2323.305052659337
 20
1846.369217466474
 30
0.0
  0
VERTEX
  5
46B
330
464
100
AcDbEntity
  8
化粧台
  6
CONTINUOUS
 62
     2
100
AcDbVertex
100
AcDb2dVertex
 10
2323.305732408408
 20
1846.432023490107
 30
0.0
  0
VERTEX
  5
46C
330
464
100
AcDbEntity
  8
化粧台
  6
CONTINUOUS
 62
     2
100
AcDbVertex
100
AcDb2dVertex
 10
2323.306535921065
 20
1846.499956169126
 30
0.0
  0
VERTEX
  5
46D
330
464
100
AcDbEntity
  8
化粧台
  6
CONTINUOUS
 62
     2
100
AcDbVertex
100
AcDb2dVertex
 10
2323.307463250616
 20
1846.571074788445
 30
0.0
  0
VERTEX
  5
46E
330
464
100
AcDbEntity
  8
化粧台
  6
CONTINUOUS
 62
     2
100
AcDbVertex
100
AcDb2dVertex
 10
2323.308514450368
 20
1846.643438632981
 30
0.0
  0
VERTEX
  5
46F
330
464
100
AcDbEntity
  8
化粧台
  6
CONTINUOUS
 62
     2
100
AcDbVertex
100
AcDb2dVertex
 10
2323.309689573627
 20
1846.715106987649
 30
0.0
  0
VERTEX
  5
470
330
464
100
AcDbEntity
  8
化粧台
  6
CONTINUOUS
 62
     2
100
AcDbVertex
100
AcDb2dVertex
 10
2323.310988673703
 20
1846.784139137363
 30
0.0
  0
VERTEX
  5
471
330
464
100
AcDbEntity
  8
化粧台
  6
CONTINUOUS
 62
     2
100
AcDbVertex
100
AcDb2dVertex
 10
2323.312362643852
 20
1846.846929009636
 30
0.0
  0
VERTEX
  5
472
330
464
100
AcDbEntity
  8
化粧台
  6
CONTINUOUS
 62
     2
100
AcDbVertex
100
AcDb2dVertex
 10
2323.313852273051
 20
1846.905935814329
 30
0.0
  0
VERTEX
  5
473
330
464
100
AcDbEntity
  8
化粧台
  6
CONTINUOUS
 62
     2
100
AcDbVertex
100
AcDb2dVertex
 10
2323.315457267087
 20
1846.961655354238
 30
0.0
  0
VERTEX
  5
474
330
464
100
AcDbEntity
  8
化粧台
  6
CONTINUOUS
 62
     2
100
AcDbVertex
100
AcDb2dVertex
 10
2323.317177331744
 20
1847.014583432159
 30
0.0
  0
VERTEX
  5
475
330
464
100
AcDbEntity
  8
化粧台
  6
CONTINUOUS
 62
     2
100
AcDbVertex
100
AcDb2dVertex
 10
2323.319012172806
 20
1847.06521585089
 30
0.0
  0
VERTEX
  5
476
330
464
100
AcDbEntity
  8
化粧台
  6
CONTINUOUS
 62
     2
100
AcDbVertex
100
AcDb2dVertex
 10
2323.32096149606
 20
1847.114048413226
 30
0.0
  0
VERTEX
  5
477
330
464
100
AcDbEntity
  8
化粧台
  6
CONTINUOUS
 62
     2
100
AcDbVertex
100
AcDb2dVertex
 10
2323.323025007293
 20
1847.161576921963
 30
0.0
  0
VERTEX
  5
478
330
464
100
AcDbEntity
  8
化粧台
  6
CONTINUOUS
 62
     2
100
AcDbVertex
100
AcDb2dVertex
 10
2323.325202412288
 20
1847.208297179899
 30
0.0
  0
VERTEX
  5
479
330
464
100
AcDbEntity
  8
化粧台
  6
CONTINUOUS
 62
     2
100
AcDbVertex
100
AcDb2dVertex
 10
2323.327493416831
 20
1847.254704989831
 30
0.0
  0
VERTEX
  5
47A
330
464
100
AcDbEntity
  8
化粧台
  6
CONTINUOUS
 62
     2
100
AcDbVertex
100
AcDb2dVertex
 10
2323.329897726709
 20
1847.301296154553
 30
0.0
  0
VERTEX
  5
47B
330
464
100
AcDbEntity
  8
化粧台
  6
CONTINUOUS
 62
     2
100
AcDbVertex
100
AcDb2dVertex
 10
2323.332415047704
 20
1847.348566476863
 30
0.0
  0
VERTEX
  5
47C
330
464
100
AcDbEntity
  8
化粧台
  6
CONTINUOUS
 62
     2
100
AcDbVertex
100
AcDb2dVertex
 10
2323.33483643351
 20
1847.393102823134
 30
0.0
  0
VERTEX
  5
47D
330
464
100
AcDbEntity
  8
化粧台
  6
CONTINUOUS
 62
     2
100
AcDbVertex
100
AcDb2dVertex
 10
2323.337354307549
 20
1847.438524759266
 30
0.0
  0
VERTEX
  5
47E
330
464
100
AcDbEntity
  8
化粧台
  6
CONTINUOUS
 62
     2
100
AcDbVertex
100
AcDb2dVertex
 10
2323.33996930877
 20
1847.484718742693
 30
0.0
  0
VERTEX
  5
47F
330
464
100
AcDbEntity
  8
化粧台
  6
CONTINUOUS
 62
     2
100
AcDbVertex
100
AcDb2dVertex
 10
2323.342682076121
 20
1847.531571230854
 30
0.0
  0
VERTEX
  5
480
330
464
100
AcDbEntity
  8
化粧台
  6
CONTINUOUS
 62
     2
100
AcDbVertex
100
AcDb2dVertex
 10
2323.345493248548
 20
1847.578968681185
 30
0.0
  0
VERTEX
  5
481
330
464
100
AcDbEntity
  8
化粧台
  6
CONTINUOUS
 62
     2
100
AcDbVertex
100
AcDb2dVertex
 10
2323.348403465001
 20
1847.626797551121
 30
0.0
  0
VERTEX
  5
482
330
464
100
AcDbEntity
  8
化粧台
  6
CONTINUOUS
 62
     2
100
AcDbVertex
100
AcDb2dVertex
 10
2323.351413364425
 20
1847.674944298099
 30
0.0
  0
VERTEX
  5
483
330
464
100
AcDbEntity
  8
化粧台
  6
CONTINUOUS
 62
     2
100
AcDbVertex
100
AcDb2dVertex
 10
2323.354523585771
 20
1847.723295379556
 30
0.0
  0
VERTEX
  5
484
330
464
100
AcDbEntity
  8
化粧台
  6
CONTINUOUS
 62
     2
100
AcDbVertex
100
AcDb2dVertex
 10
2323.357734767984
 20
1847.771737252928
 30
0.0
  0
VERTEX
  5
485
330
464
100
AcDbEntity
  8
化粧台
  6
CONTINUOUS
 62
     2
100
AcDbVertex
100
AcDb2dVertex
 10
2323.361047550014
 20
1847.820156375651
 30
0.0
  0
VERTEX
  5
486
330
464
100
AcDbEntity
  8
化粧台
  6
CONTINUOUS
 62
     2
100
AcDbVertex
100
AcDb2dVertex
 10
2323.364462570807
 20
1847.868439205162
 30
0.0
  0
VERTEX
  5
487
330
464
100
AcDbEntity
  8
化粧台
  6
CONTINUOUS
 62
     2
100
AcDbVertex
100
AcDb2dVertex
 10
2323.367527890555
 20
1847.910408887636
 30
0.0
  0
VERTEX
  5
488
330
464
100
AcDbEntity
  8
化粧台
  6
CONTINUOUS
 62
     2
100
AcDbVertex
100
AcDb2dVertex
 10
2323.370669362979
 20
1847.952197306023
 30
0.0
  0
VERTEX
  5
489
330
464
100
AcDbEntity
  8
化粧台
  6
CONTINUOUS
 62
     2
100
AcDbVertex
100
AcDb2dVertex
 10
2323.373884716026
 20
1847.993813648598
 30
0.0
  0
VERTEX
  5
48A
330
464
100
AcDbEntity
  8
化粧台
  6
CONTINUOUS
 62
     2
100
AcDbVertex
100
AcDb2dVertex
 10
2323.377171677641
 20
1848.035267103637
 30
0.0
  0
VERTEX
  5
48B
330
464
100
AcDbEntity
  8
化粧台
  6
CONTINUOUS
 62
     2
100
AcDbVertex
100
AcDb2dVertex
 10
2323.38052797577
 20
1848.076566859418
 30
0.0
  0
VERTEX
  5
48C
330
464
100
AcDbEntity
  8
化粧台
  6
CONTINUOUS
 62
     2
100
AcDbVertex
100
AcDb2dVertex
 10
2323.383951338359
 20
1848.117722104217
 30
0.0
  0
VERTEX
  5
48D
330
464
100
AcDbEntity
  8
化粧台
  6
CONTINUOUS
 62
     2
100
AcDbVertex
100
AcDb2dVertex
 10
2323.387439493353
 20
1848.158742026311
 30
0.0
  0
VERTEX
  5
48E
330
464
100
AcDbEntity
  8
化粧台
  6
CONTINUOUS
 62
     2
100
AcDbVertex
100
AcDb2dVertex
 10
2323.390990168698
 20
1848.199635813976
 30
0.0
  0
VERTEX
  5
48F
330
464
100
AcDbEntity
  8
化粧台
  6
CONTINUOUS
 62
     2
100
AcDbVertex
100
AcDb2dVertex
 10
2323.394601092342
 20
1848.240412655489
 30
0.0
  0
VERTEX
  5
490
330
464
100
AcDbEntity
  8
化粧台
  6
CONTINUOUS
 62
     2
100
AcDbVertex
100
AcDb2dVertex
 10
2323.398269992228
 20
1848.281081739125
 30
0.0
  0
VERTEX
  5
491
330
464
100
AcDbEntity
  8
化粧台
  6
CONTINUOUS
 62
     2
100
AcDbVertex
100
AcDb2dVertex
 10
2323.401994596304
 20
1848.321652253162
 30
0.0
  0
VERTEX
  5
492
330
464
100
AcDbEntity
  8
化粧台
  6
CONTINUOUS
 62
     2
100
AcDbVertex
100
AcDb2dVertex
 10
2323.405101484885
 20
1848.354981837897
 30
0.0
  0
VERTEX
  5
493
330
464
100
AcDbEntity
  8
化粧台
  6
CONTINUOUS
 62
     2
100
AcDbVertex
100
AcDb2dVertex
 10
2323.408250614106
 20
1848.388292282257
 30
0.0
  0
VERTEX
  5
494
330
464
100
AcDbEntity
  8
化粧台
  6
CONTINUOUS
 62
     2
100
AcDbVertex
100
AcDb2dVertex
 10
2323.411448030292
 20
1848.421624991748
 30
0.0
  0
VERTEX
  5
495
330
464
100
AcDbEntity
  8
化粧台
  6
CONTINUOUS
 62
     2
100
AcDbVertex
100
AcDb2dVertex
 10
2323.41469977977
 20
1848.455021371875
 30
0.0
  0
VERTEX
  5
496
330
464
100
AcDbEntity
  8
化粧台
  6
CONTINUOUS
 62
     2
100
AcDbVertex
100
AcDb2dVertex
 10
2323.418011908866
 20
1848.488522828142
 30
0.0
  0
VERTEX
  5
497
330
464
100
AcDbEntity
  8
化粧台
  6
CONTINUOUS
 62
     2
100
AcDbVertex
100
AcDb2dVertex
 10
2323.421390463908
 20
1848.522170766055
 30
0.0
  0
VERTEX
  5
498
330
464
100
AcDbEntity
  8
化粧台
  6
CONTINUOUS
 62
     2
100
AcDbVertex
100
AcDb2dVertex
 10
2323.424841491219
 20
1848.556006591117
 30
0.0
  0
VERTEX
  5
499
330
464
100
AcDbEntity
  8
化粧台
  6
CONTINUOUS
 62
     2
100
AcDbVertex
100
AcDb2dVertex
 10
2323.428371037129
 20
1848.590071708834
 30
0.0
  0
VERTEX
  5
49A
330
464
100
AcDbEntity
  8
化粧台
  6
CONTINUOUS
 62
     2
100
AcDbVertex
100
AcDb2dVertex
 10
2323.431985147962
 20
1848.62440752471
 30
0.0
  0
VERTEX
  5
49B
330
464
100
AcDbEntity
  8
化粧台
  6
CONTINUOUS
 62
     2
100
AcDbVertex
100
AcDb2dVertex
 10
2323.435689870044
 20
1848.659055444252
 30
0.0
  0
VERTEX
  5
49C
330
464
100
AcDbEntity
  8
化粧台
  6
CONTINUOUS
 62
     2
100
AcDbVertex
100
AcDb2dVertex
 10
2323.439491249704
 20
1848.694056872962
 30
0.0
  0
VERTEX
  5
49D
330
464
100
AcDbEntity
  8
化粧台
  6
CONTINUOUS
 62
     2
100
AcDbVertex
100
AcDb2dVertex
 10
2323.442407937582
 20
1848.720556533002
 30
0.0
  0
VERTEX
  5
49E
330
464
100
AcDbEntity
  8
化粧台
  6
CONTINUOUS
 62
     2
100
AcDbVertex
100
AcDb2dVertex
 10
2323.44536766764
 20
1848.747166280859
 30
0.0
  0
VERTEX
  5
49F
330
464
100
AcDbEntity
  8
化粧台
  6
CONTINUOUS
 62
     2
100
AcDbVertex
100
AcDb2dVertex
 10
2323.448355653303
 20
1848.773773842554
 30
0.0
  0
VERTEX
  5
4A0
330
464
100
AcDbEntity
  8
化粧台
  6
CONTINUOUS
 62
     2
100
AcDbVertex
100
AcDb2dVertex
 10
2323.451357107995
 20
1848.80026694411
 30
0.0
  0
VERTEX
  5
4A1
330
464
100
AcDbEntity
  8
化粧台
  6
CONTINUOUS
 62
     2
100
AcDbVertex
100
AcDb2dVertex
 10
2323.45435724514
 20
1848.826533311548
 30
0.0
  0
VERTEX
  5
4A2
330
464
100
AcDbEntity
  8
化粧台
  6
CONTINUOUS
 62
     2
100
AcDbVertex
100
AcDb2dVertex
 10
2323.457341278163
 20
1848.852460670892
 30
0.0
  0
VERTEX
  5
4A3
330
464
100
AcDbEntity
  8
化粧台
  6
CONTINUOUS
 62
     2
100
AcDbVertex
100
AcDb2dVertex
 10
2323.460294420488
 20
1848.877936748162
 30
0.0
  0
VERTEX
  5
4A4
330
464
100
AcDbEntity
  8
化粧台
  6
CONTINUOUS
 62
     2
100
AcDbVertex
100
AcDb2dVertex
 10
2323.463201885541
 20
1848.902849269383
 30
0.0
  0
VERTEX
  5
4A5
330
464
100
AcDbEntity
  8
化粧台
  6
CONTINUOUS
 62
     2
100
AcDbVertex
100
AcDb2dVertex
 10
2323.466048886745
 20
1848.927085960575
 30
0.0
  0
VERTEX
  5
4A6
330
464
100
AcDbEntity
  8
化粧台
  6
CONTINUOUS
 62
     2
100
AcDbVertex
100
AcDb2dVertex
 10
2323.468820637524
 20
1848.950534547761
 30
0.0
  0
VERTEX
  5
4A7
330
464
100
AcDbEntity
  8
化粧台
  6
CONTINUOUS
 62
     2
100
AcDbVertex
100
AcDb2dVertex
 10
2323.471502351304
 20
1848.973082756962
 30
0.0
  0
VERTEX
  5
4A8
330
464
100
AcDbEntity
  8
化粧台
  6
CONTINUOUS
 62
     2
100
AcDbVertex
100
AcDb2dVertex
 10
2323.47311431156
 20
1848.986566058643
 30
0.0
  0
VERTEX
  5
4A9
330
464
100
AcDbEntity
  8
化粧台
  6
CONTINUOUS
 62
     2
100
AcDbVertex
100
AcDb2dVertex
 10
2323.474713076294
 20
1848.99986817859
 30
0.0
  0
VERTEX
  5
4AA
330
464
100
AcDbEntity
  8
化粧台
  6
CONTINUOUS
 62
     2
100
AcDbVertex
100
AcDb2dVertex
 10
2323.476325538337
 20
1849.013195210026
 30
0.0
  0
VERTEX
  5
4AB
330
464
100
AcDbEntity
  8
化粧台
  6
CONTINUOUS
 62
     2
100
AcDbVertex
100
AcDb2dVertex
 10
2323.477978590516
 20
1849.026753246175
 30
0.0
  0
VERTEX
  5
4AC
330
464
100
AcDbEntity
  8
化粧台
  6
CONTINUOUS
 62
     2
100
AcDbVertex
100
AcDb2dVertex
 10
2323.479699125661
 20
1849.040748380263
 30
0.0
  0
VERTEX
  5
4AD
330
464
100
AcDbEntity
  8
化粧台
  6
CONTINUOUS
 62
     2
100
AcDbVertex
100
AcDb2dVertex
 10
2323.481514036599
 20
1849.055386705515
 30
0.0
  0
VERTEX
  5
4AE
330
464
100
AcDbEntity
  8
化粧台
  6
CONTINUOUS
 62
     2
100
AcDbVertex
100
AcDb2dVertex
 10
2323.483450216159
 20
1849.070874315153
 30
0.0
  0
VERTEX
  5
4AF
330
464
100
AcDbEntity
  8
化粧台
  6
CONTINUOUS
 62
     2
100
AcDbVertex
100
AcDb2dVertex
 10
2323.485534557172
 20
1849.087417302402
 30
0.0
  0
VERTEX
  5
4B0
330
464
100
AcDbEntity
  8
化粧台
  6
CONTINUOUS
 62
     2
100
AcDbVertex
100
AcDb2dVertex
 10
2323.487793952464
 20
1849.105221760487
 30
0.0
  0
VERTEX
  5
4B1
330
464
100
AcDbEntity
  8
化粧台
  6
CONTINUOUS
 62
     2
100
AcDbVertex
100
AcDb2dVertex
 10
2323.490255294864
 20
1849.124493782633
 30
0.0
  0
VERTEX
  5
4B2
330
464
100
AcDbEntity
  8
化粧台
  6
CONTINUOUS
 62
     2
100
AcDbVertex
100
AcDb2dVertex
 10
2323.492945477202
 20
1849.145439462063
 30
0.0
  0
VERTEX
  5
4B3
330
464
100
AcDbEntity
  8
化粧台
  6
CONTINUOUS
 62
     2
100
AcDbVertex
100
AcDb2dVertex
 10
2323.493846468961
 20
1849.152431884937
 30
0.0
  0
VERTEX
  5
4B4
330
464
100
AcDbEntity
  8
化粧台
  6
CONTINUOUS
 62
     2
100
AcDbVertex
100
AcDb2dVertex
 10
2323.494753728863
 20
1849.15946425336
 30
0.0
  0
VERTEX
  5
4B5
330
464
100
AcDbEntity
  8
化粧台
  6
CONTINUOUS
 62
     2
100
AcDbVertex
100
AcDb2dVertex
 10
2323.495647856093
 20
1849.166387834532
 30
0.0
  0
VERTEX
  5
4B6
330
464
100
AcDbEntity
  8
化粧台
  6
CONTINUOUS
 62
     2
100
AcDbVertex
100
AcDb2dVertex
 10
2323.496509449836
 20
1849.173053895655
 30
0.0
  0
VERTEX
  5
4B7
330
464
100
AcDbEntity
  8
化粧台
  6
CONTINUOUS
 62
     2
100
AcDbVertex
100
AcDb2dVertex
 10
2323.497319109279
 20
1849.179313703931
 30
0.0
  0
VERTEX
  5
4B8
330
464
100
AcDbEntity
  8
化粧台
  6
CONTINUOUS
 62
     2
100
AcDbVertex
100
AcDb2dVertex
 10
2323.498057433606
 20
1849.18501852656
 30
0.0
  0
VERTEX
  5
4B9
330
464
100
AcDbEntity
  8
化粧台
  6
CONTINUOUS
 62
     2
100
AcDbVertex
100
AcDb2dVertex
 10
2323.498705022003
 20
1849.190019630745
 30
0.0
  0
VERTEX
  5
4BA
330
464
100
AcDbEntity
  8
化粧台
  6
CONTINUOUS
 62
     2
100
AcDbVertex
100
AcDb2dVertex
 10
2323.499242473656
 20
1849.194168283686
 30
0.0
  0
VERTEX
  5
4BB
330
464
100
AcDbEntity
  8
化粧台
  6
CONTINUOUS
 62
     2
100
AcDbVertex
100
AcDb2dVertex
 10
2323.49965038775
 20
1849.197315752585
 30
0.0
  0
VERTEX
  5
4BC
330
464
100
AcDbEntity
  8
化粧台
  6
CONTINUOUS
 62
     2
100
AcDbVertex
100
AcDb2dVertex
 10
2323.499909363471
 20
1849.199313304644
 30
0.0
  0
VERTEX
  5
4BD
330
464
100
AcDbEntity
  8
化粧台
  6
CONTINUOUS
 62
     2
100
AcDbVertex
100
AcDb2dVertex
 10
2323.500000000003
 20
1849.200012207063
 30
0.0
  0
SEQEND
  5
4BE
330
464
100
AcDbEntity
  8
化粧台
  6
CONTINUOUS
 62
     2
  0
ARC
  5
4BF
330
1F
100
AcDbEntity
  8
化粧台
  6
CONTINUOUS
 62
     2
100
AcDbCircle
 10
2322.500000000003
 20
1855.389549246862
 30
0.0
 40
1.0
100
AcDbArc
 50
0.0
 51
85.7804438570404
  0
LINE
  5
4C0
330
1F
100
AcDbEntity
  8
化粧台
  6
CONTINUOUS
 62
     2
100
AcDbLine
 10
2277.500000000003
 20
1826.200012207063
 30
0.0
 11
2277.500000000002
 21
1844.13830575952
 31
0.0
  0
LINE
  5
4C1
330
1F
100
AcDbEntity
  8
化粧台
  6
CONTINUOUS
 62
     2
100
AcDbLine
 10
2300.500000000003
 20
1826.200012207064
 30
0.0
 11
2323.232135843405
 21
1836.800181236963
 31
0.0
  0
LINE
  5
4C2
330
1F
100
AcDbEntity
  8
化粧台
  6
CONTINUOUS
 62
     2
100
AcDbLine
 10
2277.500000000003
 20
1826.200012207063
 30
0.0
 11
2300.5
 21
1826.200012207063
 31
0.0
  0
LINE
  5
4C3
330
1F
100
AcDbEntity
  8
化粧台
  6
CONTINUOUS
 62
     2
100
AcDbLine
 10
2318.683078167126
 20
1834.67892080514
 30
0.0
 11
2322.000000000003
 21
1822.300000000113
 31
0.0
  0
LINE
  5
4C4
330
1F
100
AcDbEntity
  8
化粧台
  6
CONTINUOUS
 62
     2
100
AcDbLine
 10
2280.045005121326
 20
1826.200012207063
 30
0.0
 11
2279.000000000002
 21
1822.300000000113
 31
0.0
  0
LINE
  5
4C5
330
1F
100
AcDbEntity
  8
化粧台
  6
CONTINUOUS
 62
     2
100
AcDbLine
 10
2322.000000000003
 20
1822.300000000113
 30
0.0
 11
2300.500000000003
 21
1822.300000000113
 31
0.0
  0
LINE
  5
4C6
330
1F
100
AcDbEntity
  8
化粧台
  6
CONTINUOUS
 62
     2
100
AcDbLine
 10
2278.500000000002
 20
1822.300000000031
 30
0.0
 11
2300.500000000005
 21
1822.300000000039
 31
0.0
  0
ARC
  5
4C7
330
1F
100
AcDbEntity
  8
化粧台
  6
CONTINUOUS
 62
     2
100
AcDbCircle
 10
2278.500000000003
 20
1855.389549246862
 30
0.0
 40
1.0
100
AcDbArc
 50
94.21955614295965
 51
180.0
  0
LINE
  5
4C8
330
1F
100
AcDbEntity
  8
化粧台
  6
CONTINUOUS
 62
     2
100
AcDbLine
 10
2277.500000000003
 20
1855.389549246862
 30
0.0
 11
2277.500000000002
 21
1852.261718654606
 31
0.0
  0
LINE
  5
4C9
330
1F
100
AcDbEntity
  8
化粧台
  6
CONTINUOUS
 62
     2
100
AcDbLine
 10
2207.951379324694
 20
1789.4924679235
 30
0.0
 11
2206.658236314162
 21
1782.158689477713
 31
0.0
  0
LINE
  5
4CA
330
1F
100
AcDbEntity
  8
化粧台
  6
CONTINUOUS
 62
     2
100
AcDbLine
 10
2184.315993252399
 20
1793.660024187499
 30
0.0
 11
2183.02285024187
 21
1786.32624574172
 31
0.0
  0
LINE
  5
4CB
330
1F
100
AcDbEntity
  8
化粧台
  6
CONTINUOUS
 62
     2
100
AcDbLine
 10
2196.133686288545
 20
1791.5762460555
 30
0.0
 11
2210.905802583728
 21
1788.971523390496
 31
0.0
  0
LINE
  5
4CC
330
1F
100
AcDbEntity
  8
化粧台
  6
CONTINUOUS
 62
     2
100
AcDbLine
 10
2278.000000000003
 20
1821.800000000031
 30
0.0
 11
2278.000000000003
 21
1797.23788485813
 31
0.0
  0
LINE
  5
4CD
330
1F
100
AcDbEntity
  8
化粧台
  6
CONTINUOUS
 62
     2
100
AcDbLine
 10
2330.155424036365
 20
1774.071615551347
 30
0.0
 11
2335.339569595015
 21
1774.071615551347
 31
0.0
  0
LINE
  5
4CE
330
1F
100
AcDbEntity
  8
化粧台
  6
CONTINUOUS
 62
     2
100
AcDbLine
 10
2330.155424036365
 20
1768.071615551347
 30
0.0
 11
2335.339569595015
 21
1768.071615551347
 31
0.0
  0
LINE
  5
4CF
330
1F
100
AcDbEntity
  8
化粧台
  6
CONTINUOUS
 62
     2
100
AcDbLine
 10
2335.339569595018
 20
1771.071615551347
 30
0.0
 11
2335.339569595018
 21
1766.345391073227
 31
0.0
  0
LINE
  5
4D0
330
1F
100
AcDbEntity
  8
化粧台
  6
CONTINUOUS
 62
     2
100
AcDbLine
 10
2335.339569595018
 20
1775.797840029468
 30
0.0
 11
2335.339569595018
 21
1771.071615551347
 31
0.0
  0
ARC
  5
4D1
330
1F
100
AcDbEntity
  8
化粧台
  6
CONTINUOUS
 62
     2
100
AcDbCircle
 10
2330.155424036365
 20
1764.071615551347
 30
0.0
 40
10.0
100
AcDbArc
 50
90.00000000000001
 51
135.6876687567335
  0
LINE
  5
4D2
330
1F
100
AcDbEntity
  8
化粧台
  6
CONTINUOUS
 62
     2
100
AcDbLine
 10
2323.000000000001
 20
1759.134438068142
 30
0.0
 11
2326.623633664929
 21
1765.94950180249
 31
0.0
  0
LINE
  5
4D3
330
1F
100
AcDbEntity
  8
化粧台
  6
CONTINUOUS
 62
     2
100
AcDbLine
 10
2278.000000000042
 20
1766.77508650156
 30
0.0
 11
2278.000000000042
 21
1735.000000000028
 31
0.0
  0
LINE
  5
4D4
330
1F
100
AcDbEntity
  8
化粧台
  6
CONTINUOUS
 62
     2
100
AcDbLine
 10
2277.500000000003
 20
1852.870974621736
 30
0.0
 11
2278.438238202735
 21
1852.705537912263
 31
0.0
  0
LINE
  5
4D5
330
1F
100
AcDbEntity
  8
化粧台
  6
CONTINUOUS
 62
     2
100
AcDbLine
 10
2277.500000000003
 20
1852.870974621736
 30
0.0
 11
2278.438238202735
 21
1852.705537912263
 31
0.0
  0
LINE
  5
4D6
330
1F
100
AcDbEntity
  8
化粧台
  6
CONTINUOUS
 62
     2
100
AcDbLine
 10
2277.500000000003
 20
1843.529049792389
 30
0.0
 11
2278.438238202735
 21
1843.363613082916
 31
0.0
  0
LINE
  5
4D7
330
1F
100
AcDbEntity
  8
化粧台
  6
CONTINUOUS
 62
     2
100
AcDbLine
 10
2277.500000000003
 20
1843.529049792389
 30
0.0
 11
2278.438238202735
 21
1843.363613082916
 31
0.0
  0
LINE
  5
4D8
330
1F
100
AcDbEntity
  8
化粧台
  6
CONTINUOUS
 62
     2
100
AcDbLine
 10
2180.600955168786
 20
1794.315085636003
 30
0.0
 11
2196.133686288546
 21
1791.5762460555
 31
0.0
  0
ARC
  5
4D9
330
1F
100
AcDbEntity
  8
化粧台
  6
CONTINUOUS
 62
     2
100
AcDbCircle
 10
2256.22788370482
 20
1785.845497209811
 30
0.0
 40
78.0
100
AcDbArc
 50
160.1509730893516
 51
172.1050093001875
  0
LINE
  5
4DA
330
1F
100
AcDbEntity
  8
化粧台
  6
CONTINUOUS
 62
     2
100
AcDbLine
 10
2274.943805466735
 20
1854.74329794253
 30
0.0
 11
2216.277757812508
 21
1865.087704995506
 31
0.0
  0
LINE
  5
4DB
330
1F
100
AcDbEntity
  8
化粧台
  6
CONTINUOUS
 62
     2
100
AcDbLine
 10
2278.000000000004
 20
1766.77508650156
 30
0.0
 11
2278.000000000003
 21
1734.500000000003
 31
0.0
  0
LINE
  5
4DC
330
1F
100
AcDbEntity
  8
化粧台
  6
CONTINUOUS
 62
     2
100
AcDbLine
 10
2323.000000000003
 20
1771.057308563486
 30
0.0
 11
2323.000000000003
 21
1734.5
 31
0.0
  0
LINE
  5
4DD
330
1F
100
AcDbEntity
  8
化粧台
  6
EXLTYPE3
 62
     6
100
AcDbLine
 10
2300.500000000003
 20
1719.0
 30
0.0
 11
2300.500000000003
 21
1861.421378373131
 31
0.0
  0
LINE
  5
4DE
330
1F
100
AcDbEntity
  8
寸法
  6
CONTINUOUS
 62
     3
100
AcDbLine
 10
2395.999999821186
 20
894.4999999999998
 30
0.0
 11
2505.5
 21
894.499999999998
 31
0.0
  0
LINE
  5
4DF
330
1F
100
AcDbEntity
  8
寸法
  6
CONTINUOUS
 62
     3
100
AcDbLine
 10
2403.999999821186
 20
1289.5
 30
0.0
 11
2505.5
 21
1289.5
 31
0.0
  0
TEXT
  5
4E0
330
1F
100
AcDbEntity
  8
寸法
  6
CONTINUOUS
 62
     2
100
AcDbText
 10
2485.250000089407
 20
928.499999999999
 30
0.0
 40
59.99999618530273
  1
３９５
 50
90.0
 41
1.029411764705883
  7
EXCADSTD
 72
     5
 11
2485.250000089407
 21
1078.499990463256
 31
0.0
100
AcDbText
  0
TEXT
  5
4E1
330
1F
100
AcDbEntity
  8
寸法
  6
CONTINUOUS
 62
     2
100
AcDbText
 10
2485.250000089407
 20
1070.999999999999
 30
0.0
 40
48.0
  1
（壁給水）
 50
90.0
 41
0.9655172413793105
  7
EXCADSTD
 72
     5
 11
2485.250000089407
 21
1262.999999999999
 31
0.0
100
AcDbText
  0
LINE
  5
4E2
330
1F
100
AcDbEntity
  8
寸法
  6
CONTINUOUS
 62
     3
100
AcDbLine
 10
2490.5
 20
894.4999999999982
 30
0.0
 11
2490.5
 21
1289.5
 31
0.0
  0
LINE
  5
4E3
330
1F
100
AcDbEntity
  8
寸法
  6
CONTINUOUS
 62
     3
100
AcDbLine
 10
2483.0
 20
939.4999999999982
 30
0.0
 11
2490.5
 21
894.4999999999982
 31
0.0
  0
LINE
  5
4E4
330
1F
100
AcDbEntity
  8
寸法
  6
CONTINUOUS
 62
     3
100
AcDbLine
 10
2490.5
 20
894.4999999999982
 30
0.0
 11
2498.0
 21
939.4999999999982
 31
0.0
  0
LINE
  5
4E5
330
1F
100
AcDbEntity
  8
寸法
  6
CONTINUOUS
 62
     3
100
AcDbLine
 10
2498.0
 20
1244.5
 30
0.0
 11
2490.5
 21
1289.5
 31
0.0
  0
LINE
  5
4E6
330
1F
100
AcDbEntity
  8
寸法
  6
CONTINUOUS
 62
     3
100
AcDbLine
 10
2490.5
 20
1289.5
 30
0.0
 11
2483.0
 21
1244.5
 31
0.0
  0
LINE
  5
4E7
330
1F
100
AcDbEntity
  8
寸法
  6
CONTINUOUS
 62
     3
100
AcDbLine
 10
2395.999999821186
 20
894.4999999999999
 30
0.0
 11
2595.5
 21
894.4999999999981
 31
0.0
  0
LINE
  5
4E8
330
1F
100
AcDbEntity
  8
寸法
  6
CONTINUOUS
 62
     3
100
AcDbLine
 10
2420.999999821186
 20
1329.5
 30
0.0
 11
2595.5
 21
1329.5
 31
0.0
  0
TEXT
  5
4E9
330
1F
100
AcDbEntity
  8
寸法
  6
CONTINUOUS
 62
     2
100
AcDbText
 10
2575.250000089407
 20
912.4999999999989
 30
0.0
 40
59.99999618530273
  1
４３５
 50
90.0
 41
1.029411764705882
  7
EXCADSTD
 72
     5
 11
2575.250000089407
 21
1062.499990463256
 31
0.0
100
AcDbText
  0
TEXT
  5
4EA
330
1F
100
AcDbEntity
  8
寸法
  6
CONTINUOUS
 62
     2
100
AcDbText
 10
2575.250000089407
 20
1054.999999999999
 30
0.0
 40
48.0
  1
（Ｐトラップ）
 50
90.0
 41
0.9390243902439025
  7
EXCADSTD
 72
     5
 11
2575.250000089407
 21
1318.999999999999
 31
0.0
100
AcDbText
  0
LINE
  5
4EB
330
1F
100
AcDbEntity
  8
寸法
  6
CONTINUOUS
 62
     3
100
AcDbLine
 10
2580.5
 20
894.4999999999982
 30
0.0
 11
2580.5
 21
1329.5
 31
0.0
  0
LINE
  5
4EC
330
1F
100
AcDbEntity
  8
寸法
  6
CONTINUOUS
 62
     3
100
AcDbLine
 10
2573.0
 20
939.4999999999982
 30
0.0
 11
2580.5
 21
894.4999999999982
 31
0.0
  0
LINE
  5
4ED
330
1F
100
AcDbEntity
  8
寸法
  6
CONTINUOUS
 62
     3
100
AcDbLine
 10
2580.5
 20
894.4999999999982
 30
0.0
 11
2588.0
 21
939.4999999999982
 31
0.0
  0
LINE
  5
4EE
330
1F
100
AcDbEntity
  8
寸法
  6
CONTINUOUS
 62
     3
100
AcDbLine
 10
2588.0
 20
1284.5
 30
0.0
 11
2580.5
 21
1329.5
 31
0.0
  0
LINE
  5
4EF
330
1F
100
AcDbEntity
  8
寸法
  6
CONTINUOUS
 62
     3
100
AcDbLine
 10
2580.5
 20
1329.5
 30
0.0
 11
2573.0
 21
1284.5
 31
0.0
  0
LINE
  5
4F0
330
1F
100
AcDbEntity
  8
寸法
  6
CONTINUOUS
 62
     3
100
AcDbLine
 10
2395.999999821186
 20
894.5
 30
0.0
 11
2685.5
 21
894.4999999999981
 31
0.0
  0
LINE
  5
4F1
330
1F
100
AcDbEntity
  8
寸法
  6
CONTINUOUS
 62
     3
100
AcDbLine
 10
2425.999999821186
 20
1399.5
 30
0.0
 11
2685.5
 21
1399.5
 31
0.0
  0
TEXT
  5
4F2
330
1F
100
AcDbEntity
  8
寸法
  6
CONTINUOUS
 62
     2
100
AcDbText
 10
2665.250000089407
 20
911.4999999999993
 30
0.0
 40
59.99999618530273
  1
５０５
 50
90.0
 41
1.029411764705882
  7
EXCADSTD
 72
     5
 11
2665.250000089407
 21
1061.499990463256
 31
0.0
100
AcDbText
  0
TEXT
  5
4F3
330
1F
100
AcDbEntity
  8
寸法
  6
CONTINUOUS
 62
     2
100
AcDbText
 10
2665.250000089407
 20
1053.999999999999
 30
0.0
 40
48.0
  1
（ボトルトラップ）
 50
90.0
 41
0.9245283018867926
  7
EXCADSTD
 72
     5
 11
2665.250000089407
 21
1389.999999999999
 31
0.0
100
AcDbText
  0
LINE
  5
4F4
330
1F
100
AcDbEntity
  8
寸法
  6
CONTINUOUS
 62
     3
100
AcDbLine
 10
2670.5
 20
894.4999999999982
 30
0.0
 11
2670.5
 21
1399.5
 31
0.0
  0
LINE
  5
4F5
330
1F
100
AcDbEntity
  8
寸法
  6
CONTINUOUS
 62
     3
100
AcDbLine
 10
2663.0
 20
939.4999999999982
 30
0.0
 11
2670.5
 21
894.4999999999982
 31
0.0
  0
LINE
  5
4F6
330
1F
100
AcDbEntity
  8
寸法
  6
CONTINUOUS
 62
     3
100
AcDbLine
 10
2670.5
 20
894.4999999999982
 30
0.0
 11
2678.0
 21
939.4999999999982
 31
0.0
  0
LINE
  5
4F7
330
1F
100
AcDbEntity
  8
寸法
  6
CONTINUOUS
 62
     3
100
AcDbLine
 10
2678.0
 20
1354.5
 30
0.0
 11
2670.5
 21
1399.5
 31
0.0
  0
LINE
  5
4F8
330
1F
100
AcDbEntity
  8
寸法
  6
CONTINUOUS
 62
     3
100
AcDbLine
 10
2670.5
 20
1399.5
 30
0.0
 11
2663.0
 21
1354.5
 31
0.0
  0
LINE
  5
4F9
330
1F
100
AcDbEntity
  8
寸法
  6
CONTINUOUS
 62
     3
100
AcDbLine
 10
2395.999999821186
 20
894.4999999999999
 30
0.0
 11
2865.5
 21
894.4999999999965
 31
0.0
  0
LINE
  5
4FA
330
1F
100
AcDbEntity
  8
寸法
  6
CONTINUOUS
 62
     3
100
AcDbLine
 10
2427.899999821186
 20
1514.5
 30
0.0
 11
2775.5
 21
1514.5
 31
0.0
  0
TEXT
  5
4FB
330
1F
100
AcDbEntity
  8
寸法
  6
CONTINUOUS
 62
     2
100
AcDbText
 10
2755.250000089407
 20
1040.999999999999
 30
0.0
 40
59.99999618530273
  1
６２０
 50
90.0
 41
1.029411764705882
  7
EXCADSTD
 72
     5
 11
2755.250000089407
 21
1190.999990463255
 31
0.0
100
AcDbText
  0
TEXT
  5
4FC
330
1F
100
AcDbEntity
  8
寸法
  6
CONTINUOUS
 62
     2
100
AcDbText
 10
2755.250000089407
 20
1183.499999999999
 30
0.0
 40
48.0
  1
（壁固定）
 50
90.0
 41
0.9655172413793105
  7
EXCADSTD
 72
     5
 11
2755.250000089407
 21
1375.499999999999
 31
0.0
100
AcDbText
  0
LINE
  5
4FD
330
1F
100
AcDbEntity
  8
寸法
  6
CONTINUOUS
 62
     3
100
AcDbLine
 10
2760.5
 20
894.4999999999973
 30
0.0
 11
2760.5
 21
1514.5
 31
0.0
  0
LINE
  5
4FE
330
1F
100
AcDbEntity
  8
寸法
  6
CONTINUOUS
 62
     3
100
AcDbLine
 10
2753.0
 20
939.4999999999973
 30
0.0
 11
2760.5
 21
894.4999999999973
 31
0.0
  0
LINE
  5
4FF
330
1F
100
AcDbEntity
  8
寸法
  6
CONTINUOUS
 62
     3
100
AcDbLine
 10
2760.5
 20
894.4999999999973
 30
0.0
 11
2768.0
 21
939.4999999999973
 31
0.0
  0
LINE
  5
500
330
1F
100
AcDbEntity
  8
寸法
  6
CONTINUOUS
 62
     3
100
AcDbLine
 10
2768.0
 20
1469.5
 30
0.0
 11
2760.5
 21
1514.5
 31
0.0
  0
LINE
  5
501
330
1F
100
AcDbEntity
  8
寸法
  6
CONTINUOUS
 62
     3
100
AcDbLine
 10
2760.5
 20
1514.5
 30
0.0
 11
2753.0
 21
1469.5
 31
0.0
  0
LINE
  5
502
330
1F
100
AcDbEntity
  8
寸法
  6
CONTINUOUS
 62
     3
100
AcDbLine
 10
2305.5
 20
876.0000001788139
 30
0.0
 11
2305.5
 21
759.4999999999999
 31
0.0
  0
LINE
  5
503
330
1F
100
AcDbEntity
  8
寸法
  6
CONTINUOUS
 62
     3
100
AcDbLine
 10
2385.5
 20
884.0000001788139
 30
0.0
 11
2385.5
 21
759.4999999999999
 31
0.0
  0
TEXT
  5
504
330
1F
100
AcDbEntity
  8
寸法
  6
CONTINUOUS
 62
     2
100
AcDbText
 10
2430.499999999999
 20
779.7499999105929
 30
0.0
 40
59.99999618530273
  1
８０
 41
1.020759090909089
  7
EXCADSTD
 72
     5
 11
2526.742993881034
 21
779.7499999105929
 31
0.0
100
AcDbText
  0
TEXT
  5
505
330
1F
100
AcDbEntity
  8
寸法
  6
CONTINUOUS
 62
     2
100
AcDbText
 10
2527.999999999999
 20
779.7499999105929
 30
0.0
 40
48.0
  1
（床給水）
 41
0.9655172413793105
  7
EXCADSTD
 72
     5
 11
2719.999999999999
 21
779.7499999105929
 31
0.0
100
AcDbText
  0
LINE
  5
506
330
1F
100
AcDbEntity
  8
寸法
  6
CONTINUOUS
 62
     3
100
AcDbLine
 10
2260.5
 20
774.4999999999999
 30
0.0
 11
2717.749994277954
 21
774.4999999999999
 31
0.0
  0
LINE
  5
507
330
1F
100
AcDbEntity
  8
寸法
  6
CONTINUOUS
 62
     3
100
AcDbLine
 10
2260.5
 20
766.9999999999999
 30
0.0
 11
2305.5
 21
774.4999999999999
 31
0.0
  0
LINE
  5
508
330
1F
100
AcDbEntity
  8
寸法
  6
CONTINUOUS
 62
     3
100
AcDbLine
 10
2305.5
 20
774.4999999999999
 30
0.0
 11
2260.5
 21
782.0
 31
0.0
  0
LINE
  5
509
330
1F
100
AcDbEntity
  8
寸法
  6
CONTINUOUS
 62
     3
100
AcDbLine
 10
2430.5
 20
781.9999999999999
 30
0.0
 11
2385.5
 21
774.4999999999999
 31
0.0
  0
LINE
  5
50A
330
1F
100
AcDbEntity
  8
寸法
  6
CONTINUOUS
 62
     3
100
AcDbLine
 10
2385.5
 20
774.4999999999999
 30
0.0
 11
2430.5
 21
766.9999999999999
 31
0.0
  0
LINE
  5
50B
330
1F
100
AcDbEntity
  8
寸法
  6
CONTINUOUS
 62
     3
100
AcDbLine
 10
2255.5
 20
854.0000001788139
 30
0.0
 11
2255.5
 21
669.5
 31
0.0
  0
LINE
  5
50C
330
1F
100
AcDbEntity
  8
寸法
  6
CONTINUOUS
 62
     3
100
AcDbLine
 10
2385.5
 20
884.0000001788139
 30
0.0
 11
2385.5
 21
669.5
 31
0.0
  0
TEXT
  5
50D
330
1F
100
AcDbEntity
  8
寸法
  6
CONTINUOUS
 62
     2
100
AcDbText
 10
2430.5
 20
689.749999910593
 30
0.0
 40
59.99999618530273
  1
１３０
 41
1.029411764705882
  7
EXCADSTD
 72
     5
 11
2580.499990463256
 21
689.749999910593
 31
0.0
100
AcDbText
  0
TEXT
  5
50E
330
1F
100
AcDbEntity
  8
寸法
  6
CONTINUOUS
 62
     2
100
AcDbText
 10
2573.0
 20
689.749999910593
 30
0.0
 40
48.0
  1
（Ｓトラップ）
 41
0.9390243902439025
  7
EXCADSTD
 72
     5
 11
2837.0
 21
689.749999910593
 31
0.0
100
AcDbText
  0
LINE
  5
50F
330
1F
100
AcDbEntity
  8
寸法
  6
CONTINUOUS
 62
     3
100
AcDbLine
 10
2210.5
 20
684.5
 30
0.0
 11
2834.750011444091
 21
684.5
 31
0.0
  0
LINE
  5
510
330
1F
100
AcDbEntity
  8
寸法
  6
CONTINUOUS
 62
     3
100
AcDbLine
 10
2210.5
 20
677.0
 30
0.0
 11
2255.5
 21
684.5
 31
0.0
  0
LINE
  5
511
330
1F
100
AcDbEntity
  8
寸法
  6
CONTINUOUS
 62
     3
100
AcDbLine
 10
2255.5
 20
684.5
 30
0.0
 11
2210.5
 21
692.0000000000001
 31
0.0
  0
LINE
  5
512
330
1F
100
AcDbEntity
  8
寸法
  6
CONTINUOUS
 62
     3
100
AcDbLine
 10
2430.5
 20
692.0
 30
0.0
 11
2385.5
 21
684.5
 31
0.0
  0
LINE
  5
513
330
1F
100
AcDbEntity
  8
寸法
  6
CONTINUOUS
 62
     3
100
AcDbLine
 10
2385.5
 20
684.5
 30
0.0
 11
2430.5
 21
677.0
 31
0.0
  0
DIMENSION
  5
515
330
1F
100
AcDbEntity
  8
寸法
  6
CONTINUOUS
 62
     3
100
AcDbDimension
  2
*D15
 10
1399.999999999999
 20
3929.5
 30
0.0
 11
1364.750000089407
 21
3704.5
 31
0.0
 70
   160
  3
ISO-25
100
AcDbAlignedDimension
 13
1294.999999999998
 23
3479.5
 33
0.0
 14
1294.999999999998
 24
3929.5
 34
0.0
 50
90.0
100
AcDbRotatedDimension
1001
ACAD
1000
DSTYLE
1002
{
1070
   270
1070
     2
1070
     6
1000
EX_NORM
1070
     7
1000
EX_NORM
1070
    41
1040
44.99999618530273
1070
    42
1040
10.49999982118607
1070
    44
1040
15.0
1070
    73
1070
     0
1070
    74
1070
     0
1070
    75
1070
     0
1070
    76
1070
     1
1070
    77
1070
     1
1070
    78
1070
     0
1070
   140
1040
59.99999618530273
1070
   147
1040
0.0
1070
   173
1070
     1
1070
   176
1070
     3
1070
   177
1070
     3
1070
   178
1070
     2
1070
   271
1070
     0
1070
   277
1070
     2
1070
   279
1070
     2
1070
   280
1070
     0
1070
   287
1070
     5
1070
   340
1005
514
1002
}
  0
DIMENSION
  5
522
330
1F
100
AcDbEntity
  8
寸法
  6
CONTINUOUS
 62
     3
100
AcDbDimension
  2
*D16
 10
1489.999999999999
 20
3929.5
 30
0.0
 11
1454.750000089407
 21
3679.5
 31
0.0
 70
   160
  3
ISO-25
100
AcDbAlignedDimension
 13
1184.999999999998
 23
3429.5
 33
0.0
 14
1294.999999999998
 24
3929.5
 34
0.0
 50
90.0
100
AcDbRotatedDimension
1001
ACAD
1000
DSTYLE
1002
{
1070
   270
1070
     2
1070
     6
1000
EX_NORM
1070
     7
1000
EX_NORM
1070
    41
1040
44.99999618530273
1070
    42
1040
10.49999982118607
1070
    44
1040
15.0
1070
    73
1070
     0
1070
    74
1070
     0
1070
    75
1070
     0
1070
    76
1070
     1
1070
    77
1070
     1
1070
    78
1070
     0
1070
   140
1040
59.99999618530273
1070
   147
1040
0.0
1070
   173
1070
     1
1070
   176
1070
     3
1070
   177
1070
     3
1070
   178
1070
     2
1070
   271
1070
     0
1070
   277
1070
     2
1070
   279
1070
     2
1070
   280
1070
     0
1070
   287
1070
     5
1070
   340
1005
514
1002
}
  0
DIMENSION
  5
52E
330
1F
100
AcDbEntity
  8
寸法
  6
CONTINUOUS
 62
     3
100
AcDbDimension
  2
*D17
 10
1194.999999999998
 20
3324.5
 30
0.0
 11
919.9999999999993
 21
3359.749999910593
 31
0.0
 70
   160
  3
ISO-25
100
AcDbAlignedDimension
 13
644.9999999999995
 23
3439.5
 33
0.0
 14
1194.999999999998
 24
3439.5
 34
0.0
100
AcDbRotatedDimension
1001
ACAD
1000
DSTYLE
1002
{
1070
   270
1070
     2
1070
     6
1000
EX_NORM
1070
     7
1000
EX_NORM
1070
    41
1040
44.99999618530273
1070
    42
1040
10.49999982118607
1070
    44
1040
15.0
1070
    73
1070
     0
1070
    74
1070
     0
1070
    75
1070
     0
1070
    76
1070
     0
1070
    77
1070
     1
1070
    78
1070
     0
1070
   140
1040
59.99999618530273
1070
   147
1040
0.0
1070
   173
1070
     1
1070
   176
1070
     3
1070
   177
1070
     3
1070
   178
1070
     2
1070
   271
1070
     0
1070
   277
1070
     2
1070
   279
1070
     2
1070
   280
1070
     0
1070
   287
1070
     5
1070
   340
1005
514
1002
}
  0
DIMENSION
  5
53B
330
1F
100
AcDbEntity
  8
寸法
  6
CONTINUOUS
 62
     3
100
AcDbDimension
  2
*D18
 10
1294.999999999998
 20
3234.5
 30
0.0
 11
919.9999999999993
 21
3269.749999910593
 31
0.0
 70
   160
  3
ISO-25
100
AcDbAlignedDimension
 13
544.9999999999995
 23
3479.5
 33
0.0
 14
1294.999999999998
 24
3479.5
 34
0.0
100
AcDbRotatedDimension
1001
ACAD
1000
DSTYLE
1002
{
1070
   270
1070
     2
1070
     6
1000
EX_NORM
1070
     7
1000
EX_NORM
1070
    41
1040
44.99999618530273
1070
    42
1040
10.49999982118607
1070
    44
1040
15.0
1070
    73
1070
     0
1070
    74
1070
     0
1070
    75
1070
     0
1070
    76
1070
     0
1070
    77
1070
     1
1070
    78
1070
     0
1070
   140
1040
59.99999618530273
1070
   147
1040
0.0
1070
   173
1070
     1
1070
   176
1070
     3
1070
   177
1070
     3
1070
   178
1070
     2
1070
   271
1070
     0
1070
   277
1070
     2
1070
   279
1070
     2
1070
   280
1070
     0
1070
   287
1070
     5
1070
   340
1005
514
1002
}
  0
LINE
  5
548
330
1F
100
AcDbEntity
  8
寸法
  6
CONTINUOUS
 62
     3
100
AcDbLine
 10
676.9999999999995
 20
3972.499999821186
 30
0.0
 11
676.9999999999995
 21
4034.5
 31
0.0
  0
LINE
  5
549
330
1F
100
AcDbEntity
  8
寸法
  6
CONTINUOUS
 62
     3
100
AcDbLine
 10
1162.999999999998
 20
3972.499999821186
 30
0.0
 11
1162.999999999998
 21
4034.5
 31
0.0
  0
TEXT
  5
54A
330
1F
100
AcDbEntity
  8
寸法
  6
CONTINUOUS
 62
     2
100
AcDbText
 10
756.4999999999993
 20
4024.749999910593
 30
0.0
 40
59.99999618530273
  1
４８６
 41
1.029411764705882
  7
EXCADSTD
 72
     5
 11
906.4999904632562
 21
4024.749999910593
 31
0.0
100
AcDbText
  0
TEXT
  5
54B
330
1F
100
AcDbEntity
  8
寸法
  6
CONTINUOUS
 62
     2
100
AcDbText
 10
898.9999999999993
 20
4024.749999910593
 30
0.0
 40
48.0
  1
（壁固定）
 41
0.9655172413793105
  7
EXCADSTD
 72
     5
 11
1090.999999999999
 21
4024.749999910593
 31
0.0
100
AcDbText
  0
LINE
  5
54C
330
1F
100
AcDbEntity
  8
寸法
  6
CONTINUOUS
 62
     3
100
AcDbLine
 10
676.9999999999998
 20
4019.5
 30
0.0
 11
1162.999999999999
 21
4019.5
 31
0.0
  0
LINE
  5
54D
330
1F
100
AcDbEntity
  8
寸法
  6
CONTINUOUS
 62
     3
100
AcDbLine
 10
721.9999999999995
 20
4027.0
 30
0.0
 11
676.9999999999995
 21
4019.5
 31
0.0
  0
LINE
  5
54E
330
1F
100
AcDbEntity
  8
寸法
  6
CONTINUOUS
 62
     3
100
AcDbLine
 10
676.9999999999995
 20
4019.5
 30
0.0
 11
721.9999999999995
 21
4012.0
 31
0.0
  0
LINE
  5
54F
330
1F
100
AcDbEntity
  8
寸法
  6
CONTINUOUS
 62
     3
100
AcDbLine
 10
1117.999999999998
 20
4012.0
 30
0.0
 11
1162.999999999998
 21
4019.5
 31
0.0
  0
LINE
  5
550
330
1F
100
AcDbEntity
  8
寸法
  6
CONTINUOUS
 62
     3
100
AcDbLine
 10
1162.999999999998
 20
4019.5
 30
0.0
 11
1117.999999999998
 21
4027.0
 31
0.0
  0
DIMENSION
  5
551
330
1F
100
AcDbEntity
  8
寸法
  6
CONTINUOUS
 62
     3
100
AcDbDimension
  2
*D19
 10
1399.999999999999
 20
1594.5
 30
0.0
 11
1364.750000089406
 21
1244.5
 31
0.0
 70
   160
  3
ISO-25
100
AcDbAlignedDimension
 13
1292.999999999998
 23
894.5
 33
0.0
 14
1294.999999999998
 24
1594.5
 34
0.0
 50
90.0
100
AcDbRotatedDimension
1001
ACAD
1000
DSTYLE
1002
{
1070
   270
1070
     2
1070
     6
1000
EX_NORM
1070
     7
1000
EX_NORM
1070
    41
1040
44.99999618530273
1070
    42
1040
10.49999982118607
1070
    44
1040
15.0
1070
    73
1070
     0
1070
    74
1070
     0
1070
    75
1070
     1
1070
    76
1070
     0
1070
    77
1070
     1
1070
    78
1070
     0
1070
   140
1040
59.99999618530273
1070
   147
1040
0.0
1070
   173
1070
     1
1070
   176
1070
     3
1070
   177
1070
     3
1070
   178
1070
     2
1070
   271
1070
     0
1070
   277
1070
     2
1070
   279
1070
     2
1070
   280
1070
     0
1070
   287
1070
     5
1070
   340
1005
514
1002
}
  0
DIMENSION
  5
55D
330
1F
100
AcDbEntity
  8
寸法
  6
CONTINUOUS
 62
     3
100
AcDbDimension
  2
*D20
 10
1399.999999999998
 20
1734.5
 30
0.0
 11
1364.750000089406
 21
1664.499999999999
 31
0.0
 70
   160
  3
ISO-25
100
AcDbAlignedDimension
 13
1294.999999999998
 23
1594.5
 33
0.0
 14
1189.999999999998
 24
1734.5
 34
0.0
 50
90.0
100
AcDbRotatedDimension
1001
ACAD
1000
DSTYLE
1002
{
1070
   270
1070
     2
1070
     6
1000
EX_NORM
1070
     7
1000
EX_NORM
1070
    41
1040
44.99999618530273
1070
    42
1040
10.49999982118607
1070
    44
1040
15.0
1070
    73
1070
     0
1070
    74
1070
     0
1070
    75
1070
     1
1070
    76
1070
     0
1070
    77
1070
     1
1070
    78
1070
     0
1070
   140
1040
59.99999618530273
1070
   147
1040
0.0
1070
   173
1070
     1
1070
   176
1070
     3
1070
   177
1070
     3
1070
   178
1070
     2
1070
   271
1070
     0
1070
   277
1070
     2
1070
   279
1070
     2
1070
   280
1070
     0
1070
   287
1070
     5
1070
   340
1005
514
1002
}
  0
DIMENSION
  5
569
330
1F
100
AcDbEntity
  8
寸法
  6
CONTINUOUS
 62
     3
100
AcDbDimension
  2
*D21
 10
1490.0
 20
1734.5
 30
0.0
 11
1454.750000089407
 21
1314.5
 31
0.0
 70
   160
  3
ISO-25
100
AcDbAlignedDimension
 13
1292.999999999998
 23
894.5
 33
0.0
 14
1189.999999999998
 24
1734.5
 34
0.0
 50
90.0
100
AcDbRotatedDimension
1001
ACAD
1000
DSTYLE
1002
{
1070
   270
1070
     2
1070
     6
1000
EX_NORM
1070
     7
1000
EX_NORM
1070
    41
1040
44.99999618530273
1070
    42
1040
10.49999982118607
1070
    44
1040
15.0
1070
    73
1070
     0
1070
    74
1070
     0
1070
    75
1070
     1
1070
    76
1070
     0
1070
    77
1070
     1
1070
    78
1070
     0
1070
   140
1040
59.99999618530273
1070
   147
1040
0.0
1070
   173
1070
     1
1070
   176
1070
     3
1070
   177
1070
     3
1070
   178
1070
     2
1070
   271
1070
     0
1070
   277
1070
     2
1070
   279
1070
     2
1070
   280
1070
     0
1070
   287
1070
     5
1070
   340
1005
514
1002
}
  0
LINE
  5
575
330
1F
100
AcDbEntity
  8
寸法
  6
CONTINUOUS
 62
     3
100
AcDbLine
 10
844.9999999999995
 20
876.0000001788139
 30
0.0
 11
844.9999999999995
 21
759.4999999999999
 31
0.0
  0
LINE
  5
576
330
1F
100
AcDbEntity
  8
寸法
  6
CONTINUOUS
 62
     3
100
AcDbLine
 10
994.9999999999995
 20
876.0000001788139
 30
0.0
 11
994.9999999999995
 21
759.4999999999999
 31
0.0
  0
TEXT
  5
577
330
1F
100
AcDbEntity
  8
寸法
  6
CONTINUOUS
 62
     2
100
AcDbText
 10
1040.0
 20
779.7499999105929
 30
0.0
 40
59.99999618530273
  1
１５０
 41
1.029411764705882
  7
EXCADSTD
 72
     5
 11
1189.999990463256
 21
779.7499999105929
 31
0.0
100
AcDbText
  0
TEXT
  5
578
330
1F
100
AcDbEntity
  8
寸法
  6
CONTINUOUS
 62
     2
100
AcDbText
 10
1182.5
 20
779.7499999105929
 30
0.0
 40
48.0
  1
（壁･床給水）
 41
0.853658536585366
  7
EXCADSTD
 72
     5
 11
1422.5
 21
779.7499999105929
 31
0.0
100
AcDbText
  0
LINE
  5
579
330
1F
100
AcDbEntity
  8
寸法
  6
CONTINUOUS
 62
     3
100
AcDbLine
 10
799.9999999999995
 20
774.4999999999999
 30
0.0
 11
1420.250005722045
 21
774.4999999999999
 31
0.0
  0
LINE
  5
57A
330
1F
100
AcDbEntity
  8
寸法
  6
CONTINUOUS
 62
     3
100
AcDbLine
 10
799.9999999999995
 20
766.9999999999999
 30
0.0
 11
844.9999999999995
 21
774.4999999999999
 31
0.0
  0
LINE
  5
57B
330
1F
100
AcDbEntity
  8
寸法
  6
CONTINUOUS
 62
     3
100
AcDbLine
 10
844.9999999999995
 20
774.4999999999999
 30
0.0
 11
799.9999999999995
 21
782.0
 31
0.0
  0
LINE
  5
57C
330
1F
100
AcDbEntity
  8
寸法
  6
CONTINUOUS
 62
     3
100
AcDbLine
 10
1040.0
 20
781.9999999999999
 30
0.0
 11
994.9999999999995
 21
774.4999999999999
 31
0.0
  0
LINE
  5
57D
330
1F
100
AcDbEntity
  8
寸法
  6
CONTINUOUS
 62
     3
100
AcDbLine
 10
994.9999999999995
 20
774.4999999999999
 30
0.0
 11
1040.0
 21
766.9999999999999
 31
0.0
  0
TEXT
  5
57E
330
1F
100
AcDbEntity
  8
寸法
  6
CONTINUOUS
 62
     2
100
AcDbText
 10
2605.5
 20
1544.249999910593
 30
0.0
 40
59.99999618530273
  1
Ｒ１/２
 41
0.8342465643686785
  7
EXCADSTD
 72
     5
 11
2779.49998664856
 21
1544.249999910593
 31
0.0
100
AcDbText
  0
LEADER
  5
57F
330
1F
100
AcDbEntity
  8
寸法
  6
CONTINUOUS
 62
     3
100
AcDbLeader
  3
ISO-25
 76
     3
 10
2393.5
 20
1300.0
 30
0.0
 10
2598.0
 20
1539.0
 30
0.0
 10
2763.0
 20
1539.0
 30
0.0
1001
ACAD
1000
DSTYLE
1002
{
1070
     5
1000
EX_NORM
1070
    41
1040
45.0
1070
   341
1005
4D
1002
}
  0
TEXT
  5
580
330
1F
100
AcDbEntity
  8
寸法
  6
CONTINUOUS
 62
     2
100
AcDbText
 10
2526.431476947
 20
1663.667904700793
 30
0.0
 40
59.99999618530273
  1
ＶＰ･ＶＵ５０
 41
0.9048780357546915
  7
EXCADSTD
 72
     5
 11
2844.431452151468
 21
1663.667904700793
 31
0.0
100
AcDbText
  0
LEADER
  5
581
330
1F
100
AcDbEntity
  8
寸法
  6
CONTINUOUS
 62
     3
100
AcDbLeader
  3
ISO-25
 76
     3
 10
2410.5
 20
1355.0
 30
0.0
 10
2518.931476947
 20
1658.4179047902
 30
0.0
 10
2823.431476947
 20
1658.4179047902
 30
0.0
1001
ACAD
1000
DSTYLE
1002
{
1070
     5
1000
EX_NORM
1070
    41
1040
45.0
1070
   341
1005
4D
1002
}
  0
DIMENSION
  5
582
330
1F
100
AcDbEntity
  8
寸法
  6
CONTINUOUS
 62
     3
100
AcDbDimension
  2
*D22
 10
1333.499999999998
 20
2124.5
 30
0.0
 11
1298.250000089405
 21
2384.5
 31
0.0
 70
   160
  3
ISO-25
100
AcDbAlignedDimension
 13
1219.999999999998
 23
2644.5
 33
0.0
 14
1219.999999999998
 24
2124.5
 34
0.0
 50
90.0
100
AcDbRotatedDimension
1001
ACAD
1000
DSTYLE
1002
{
1070
   270
1070
     2
1070
     6
1000
EX_NORM
1070
     7
1000
EX_NORM
1070
    41
1040
44.99999618530273
1070
    42
1040
10.49999982118607
1070
    44
1040
15.0
1070
    73
1070
     0
1070
    74
1070
     0
1070
    75
1070
     0
1070
    76
1070
     0
1070
    77
1070
     1
1070
    78
1070
     8
1070
   140
1040
59.99999618530273
1070
   147
1040
0.0
1070
   173
1070
     1
1070
   176
1070
     3
1070
   177
1070
     3
1070
   178
1070
     2
1070
   271
1070
     2
1070
   277
1070
     2
1070
   279
1070
     2
1070
   280
1070
     0
1070
   287
1070
     5
1070
   340
1005
514
1002
}
  0
LINE
  5
58F
330
1F
100
AcDbEntity
  8
寸法
  6
CONTINUOUS
 62
     3
100
AcDbLine
 10
769.9999999999978
 20
2594.980761934687
 30
0.0
 11
769.9999999999978
 21
2719.5
 31
0.0
  0
LINE
  5
590
330
1F
100
AcDbEntity
  8
寸法
  6
CONTINUOUS
 62
     3
100
AcDbLine
 10
1069.999999999998
 20
2594.980761934687
 30
0.0
 11
1069.999999999998
 21
2719.5
 31
0.0
  0
TEXT
  5
591
330
1F
100
AcDbEntity
  8
寸法
  6
CONTINUOUS
 62
     2
100
AcDbText
 10
756.4999999999981
 20
2709.749999910593
 30
0.0
 40
59.99999618530273
  1
３００
 41
1.029411764705882
  7
EXCADSTD
 72
     5
 11
906.4999904632549
 21
2709.749999910593
 31
0.0
100
AcDbText
  0
TEXT
  5
592
330
1F
100
AcDbEntity
  8
寸法
  6
CONTINUOUS
 62
     2
100
AcDbText
 10
898.9999999999981
 20
2709.749999910593
 30
0.0
 40
48.0
  1
（壁固定）
 41
0.965517241379311
  7
EXCADSTD
 72
     5
 11
1090.999999999998
 21
2709.749999910593
 31
0.0
100
AcDbText
  0
LINE
  5
593
330
1F
100
AcDbEntity
  8
寸法
  6
CONTINUOUS
 62
     3
100
AcDbLine
 10
724.9999999999981
 20
2704.5
 30
0.0
 11
1114.999999999998
 21
2704.5
 31
0.0
  0
LINE
  5
594
330
1F
100
AcDbEntity
  8
寸法
  6
CONTINUOUS
 62
     3
100
AcDbLine
 10
724.9999999999978
 20
2697.0
 30
0.0
 11
769.9999999999978
 21
2704.5
 31
0.0
  0
LINE
  5
595
330
1F
100
AcDbEntity
  8
寸法
  6
CONTINUOUS
 62
     3
100
AcDbLine
 10
769.9999999999978
 20
2704.5
 30
0.0
 11
724.9999999999978
 21
2712.0
 31
0.0
  0
LINE
  5
596
330
1F
100
AcDbEntity
  8
寸法
  6
CONTINUOUS
 62
     3
100
AcDbLine
 10
1114.999999999998
 20
2712.0
 30
0.0
 11
1069.999999999998
 21
2704.5
 31
0.0
  0
LINE
  5
597
330
1F
100
AcDbEntity
  8
寸法
  6
CONTINUOUS
 62
     3
100
AcDbLine
 10
1069.999999999998
 20
2704.5
 30
0.0
 11
1114.999999999998
 21
2697.0
 31
0.0
  0
DIMENSION
  5
598
330
1F
100
AcDbEntity
  8
寸法
  6
CONTINUOUS
 62
     3
100
AcDbDimension
  2
*D23
 10
1219.999999999998
 20
2791.5
 30
0.0
 11
919.9999999999981
 21
2826.749999910593
 31
0.0
 70
   160
  3
ISO-25
100
AcDbAlignedDimension
 13
619.9999999999978
 23
2644.5
 33
0.0
 14
1219.999999999998
 24
2644.5
 34
0.0
100
AcDbRotatedDimension
1001
ACAD
1000
DSTYLE
1002
{
1070
   270
1070
     2
1070
     6
1000
EX_NORM
1070
     7
1000
EX_NORM
1070
    41
1040
44.99999618530273
1070
    42
1040
10.49999982118607
1070
    44
1040
15.0
1070
    73
1070
     0
1070
    74
1070
     0
1070
    75
1070
     0
1070
    76
1070
     0
1070
    77
1070
     1
1070
    78
1070
     8
1070
   140
1040
59.99999618530273
1070
   147
1040
0.0
1070
   173
1070
     1
1070
   176
1070
     3
1070
   177
1070
     3
1070
   178
1070
     2
1070
   271
1070
     2
1070
   277
1070
     2
1070
   279
1070
     2
1070
   280
1070
     0
1070
   287
1070
     5
1070
   340
1005
514
1002
}
  0
DIMENSION
  5
5A5
330
1F
100
AcDbEntity
  8
寸法
  6
CONTINUOUS
 62
     3
100
AcDbDimension
  2
*D24
 10
1579.999999999998
 20
2644.5
 30
0.0
 11
1544.750000089406
 21
1769.5
 31
0.0
 70
   160
  1
（1750）
  3
ISO-25
100
AcDbAlignedDimension
 13
1292.999999999998
 23
894.5
 33
0.0
 14
1219.999999999998
 24
2644.5
 34
0.0
 50
90.0
100
AcDbRotatedDimension
1001
ACAD
1000
DSTYLE
1002
{
1070
   270
1070
     2
1070
     6
1000
EX_NORM
1070
     7
1000
EX_NORM
1070
    41
1040
44.99999618530273
1070
    42
1040
10.49999982118607
1070
    44
1040
15.0
1070
    73
1070
     0
1070
    74
1070
     0
1070
    75
1070
     1
1070
    76
1070
     0
1070
    77
1070
     1
1070
    78
1070
     8
1070
   140
1040
59.99999618530273
1070
   147
1040
0.0
1070
   173
1070
     1
1070
   176
1070
     3
1070
   177
1070
     3
1070
   178
1070
     2
1070
   271
1070
     2
1070
   277
1070
     2
1070
   279
1070
     2
1070
   280
1070
     0
1070
   287
1070
     5
1070
   340
1005
514
1002
}
  0
DIMENSION
  5
5B1
330
1F
100
AcDbEntity
  8
寸法
  6
CONTINUOUS
 62
     3
100
AcDbDimension
  2
*D25
 10
2385.499999999998
 20
2704.5
 30
0.0
 11
2250.799999999997
 21
2739.749999910593
 31
0.0
 70
   160
  1
38
  3
ISO-25
100
AcDbAlignedDimension
 13
2348.299999999997
 23
2645.7
 33
0.0
 14
2385.499999999998
 24
2643.5
 34
0.0
100
AcDbRotatedDimension
1001
ACAD
1000
DSTYLE
1002
{
1070
   270
1070
     2
1070
     6
1000
EX_NORM
1070
     7
1000
EX_NORM
1070
    41
1040
44.99999618530273
1070
    42
1040
10.49999982118607
1070
    44
1040
15.0
1070
    73
1070
     0
1070
    74
1070
     0
1070
    75
1070
     0
1070
    76
1070
     1
1070
    77
1070
     1
1070
    78
1070
     8
1070
   140
1040
59.99999618530273
1070
   147
1040
0.0
1070
   173
1070
     1
1070
   176
1070
     3
1070
   177
1070
     3
1070
   178
1070
     2
1070
   271
1070
     2
1070
   277
1070
     2
1070
   279
1070
     2
1070
   280
1070
     1
1070
   287
1070
     5
1070
   340
1005
514
1002
}
  0
LINE
  5
5BF
330
1F
100
AcDbEntity
  8
寸法
  6
CONTINUOUS
 62
     3
100
AcDbLine
 10
2428.499999821186
 20
2144.5
 30
0.0
 11
2520.5
 21
2144.5
 31
0.0
  0
LINE
  5
5C0
330
1F
100
AcDbEntity
  8
寸法
  6
CONTINUOUS
 62
     3
100
AcDbLine
 10
2428.499999821186
 20
2584.480762113501
 30
0.0
 11
2520.5
 21
2584.480762113501
 31
0.0
  0
TEXT
  5
5C1
330
1F
100
AcDbEntity
  8
寸法
  6
CONTINUOUS
 62
     2
100
AcDbText
 10
2500.250000089407
 20
2200.99038105675
 30
0.0
 40
59.99999618530273
  1
４４０
 50
90.0
 41
1.029411764705882
  7
EXCADSTD
 72
     5
 11
2500.250000089407
 21
2350.990371520007
 31
0.0
100
AcDbText
  0
TEXT
  5
5C2
330
1F
100
AcDbEntity
  8
寸法
  6
CONTINUOUS
 62
     2
100
AcDbText
 10
2500.250000089407
 20
2343.49038105675
 30
0.0
 40
48.0
  1
（壁固定）
 50
90.0
 41
0.9655172413793105
  7
EXCADSTD
 72
     5
 11
2500.250000089407
 21
2535.49038105675
 31
0.0
100
AcDbText
  0
LINE
  5
5C3
330
1F
100
AcDbEntity
  8
寸法
  6
CONTINUOUS
 62
     3
100
AcDbLine
 10
2505.5
 20
2144.5
 30
0.0
 11
2505.5
 21
2584.480762113501
 31
0.0
  0
LINE
  5
5C4
330
1F
100
AcDbEntity
  8
寸法
  6
CONTINUOUS
 62
     3
100
AcDbLine
 10
2498.0
 20
2189.5
 30
0.0
 11
2505.5
 21
2144.5
 31
0.0
  0
LINE
  5
5C5
330
1F
100
AcDbEntity
  8
寸法
  6
CONTINUOUS
 62
     3
100
AcDbLine
 10
2505.5
 20
2144.5
 30
0.0
 11
2513.0
 21
2189.5
 31
0.0
  0
LINE
  5
5C6
330
1F
100
AcDbEntity
  8
寸法
  6
CONTINUOUS
 62
     3
100
AcDbLine
 10
2513.0
 20
2539.480762113501
 30
0.0
 11
2505.5
 21
2584.480762113501
 31
0.0
  0
LINE
  5
5C7
330
1F
100
AcDbEntity
  8
寸法
  6
CONTINUOUS
 62
     3
100
AcDbLine
 10
2505.5
 20
2584.480762113501
 30
0.0
 11
2498.0
 21
2539.480762113501
 31
0.0
  0
DIMENSION
  5
5C8
330
1F
100
AcDbEntity
  8
寸法
  6
CONTINUOUS
 62
     3
100
AcDbDimension
  2
*D26
 10
2505.5
 20
2584.480762113501
 30
0.0
 11
2470.250000089407
 21
2742.0
 31
0.0
 70
   160
  1
60
  3
ISO-25
100
AcDbAlignedDimension
 13
2372.999999999998
 23
2644.5
 33
0.0
 14
2418.0
 24
2584.480762113501
 34
0.0
 50
90.0
100
AcDbRotatedDimension
1001
ACAD
1000
DSTYLE
1002
{
1070
   270
1070
     2
1070
     6
1000
EX_NORM
1070
     7
1000
EX_NORM
1070
    41
1040
44.99999618530273
1070
    42
1040
10.49999982118607
1070
    44
1040
15.0
1070
    73
1070
     0
1070
    74
1070
     0
1070
    75
1070
     0
1070
    76
1070
     0
1070
    77
1070
     1
1070
    78
1070
     8
1070
   140
1040
59.99999618530273
1070
   147
1040
0.0
1070
   173
1070
     1
1070
   176
1070
     3
1070
   177
1070
     3
1070
   178
1070
     2
1070
   271
1070
     2
1070
   277
1070
     2
1070
   279
1070
     2
1070
   280
1070
     1
1070
   287
1070
     5
1070
   340
1005
514
1002
}
  0
DIMENSION
  5
5D7
330
1F
100
AcDbEntity
  8
寸法
  6
CONTINUOUS
 62
     3
100
AcDbDimension
  2
*D27
 10
2850.5
 20
2144.5
 30
0.0
 11
2815.250000089407
 21
1519.5
 31
0.0
 70
   160
  1
（<>）
  3
ISO-25
100
AcDbAlignedDimension
 13
2385.499999999998
 23
894.5
 33
0.0
 14
2418.0
 24
2144.5
 34
0.0
 50
90.0
100
AcDbRotatedDimension
1001
ACAD
1000
DSTYLE
1002
{
1070
   270
1070
     2
1070
     6
1000
EX_NORM
1070
     7
1000
EX_NORM
1070
    41
1040
44.99999618530273
1070
    42
1040
10.49999982118607
1070
    44
1040
15.0
1070
    73
1070
     0
1070
    74
1070
     0
1070
    75
1070
     0
1070
    76
1070
     0
1070
    77
1070
     1
1070
    78
1070
     0
1070
   140
1040
59.99999618530273
1070
   147
1040
0.0
1070
   173
1070
     1
1070
   176
1070
     3
1070
   177
1070
     3
1070
   178
1070
     2
1070
   271
1070
     0
1070
   277
1070
     2
1070
   279
1070
     2
1070
   280
1070
     0
1070
   287
1070
     5
1070
   340
1005
514
1002
}
  0
ENDSEC
  0
SECTION
  2
OBJECTS
  0
DICTIONARY
  5
C
330
0
100
AcDbDictionary
  3
ACAD_GROUP
350
D
  3
ACAD_LAYOUT
350
1A
  3
ACAD_MATERIAL
350
3B
  3
ACAD_MLEADERSTYLE
350
606
  3
ACAD_MLINESTYLE
350
17
  3
ACAD_PLOTSETTINGS
350
19
  3
ACAD_VISUALSTYLE
350
2A
  3
ACDBHEADERROUNDTRIPXREC
350
5E4
  3
ACDBVARIABLEDICTIONARY
350
604
  0
DICTIONARY
  5
D
102
{ACAD_REACTORS
330
C
102
}
330
C
100
AcDbDictionary
  0
DICTIONARY
  5
1A
102
{ACAD_REACTORS
330
C
102
}
330
C
100
AcDbDictionary
  0
DICTIONARY
  5
3B
102
{ACAD_REACTORS
330
C
102
}
330
C
100
AcDbDictionary
  3
BYBLOCK
350
3D
  3
BYLAYER
350
3C
  3
GLOBAL
350
3E
  0
DICTIONARY
  5
606
102
{ACAD_REACTORS
330
C
102
}
330
C
100
AcDbDictionary
  0
DICTIONARY
  5
17
102
{ACAD_REACTORS
330
C
102
}
330
C
100
AcDbDictionary
  3
STANDARD
350
18
  0
DICTIONARY
  5
19
102
{ACAD_REACTORS
330
C
102
}
330
C
100
AcDbDictionary
  0
DICTIONARY
  5
2A
102
{ACAD_REACTORS
330
C
102
}
330
C
100
AcDbDictionary
  3
2DWIREFRAME
350
2F
  3
3D_HIDDEN
350
31
  3
3DWIREFRAME
350
30
  3
BASIC
350
32
  3
BRIGHTEN
350
36
  3
COLORCHANGE
350
3A
  3
CONCEPTUAL
350
34
  3
DIM
350
35
  3
FACEPATTERN
350
39
  3
FLAT
350
2B
  3
FLATWITHEDGES
350
2C
  3
GOURAUD
350
2D
  3
GOURAUDWITHEDGES
350
2E
  3
LINEPATTERN
350
38
  3
REALISTIC
350
33
  3
THICKEN
350
37
  0
DICTIONARY
  5
5E4
102
{ACAD_REACTORS
330
C
102
}
330
C
100
AcDbDictionary
  3
CEPSNTYPE
350
5ED
  3
DIMSTYLEDATA
350
603
  3
FINGERPRINTGUID
350
5EE
  3
HYPERLINKBASE
350
5E7
  3
INSUNITS
350
5EC
  3
LAYOUTDICT
350
5E9
  3
LWETCUNION
350
5EB
  3
PLOTSETDICT
350
5EA
  3
PSVPSCALE
350
5F0
  3
PUCSBASE
350
5F3
  3
PUCSORGBACK
350
5F9
  3
PUCSORGBOTTOM
350
5F5
  3
PUCSORGFRONT
350
5F8
  3
PUCSORGLEFT
350
5F6
  3
PUCSORGRIGHT
350
5F7
  3
PUCSORGTOP
350
5F4
  3
PUCSORTHOREF
350
5F1
  3
PUCSORTHOVIEW
350
5F2
  3
STYLESHEET
350
5E8
  3
TSTACKALIGN
350
5E5
  3
TSTACKSIZE
350
5E6
  3
UCSBASE
350
5FC
  3
UCSORGBACK
350
602
  3
UCSORGBOTTOM
350
5FE
  3
UCSORGFRONT
350
601
  3
UCSORGLEFT
350
5FF
  3
UCSORGRIGHT
350
600
  3
UCSORGTOP
350
5FD
  3
UCSORTHOREF
350
5FA
  3
UCSORTHOVIEW
350
5FB
  3
VERSIONGUID
350
5EF
  0
DICTIONARY
  5
604
102
{ACAD_REACTORS
330
C
102
}
330
C
100
AcDbDictionary
  3
DIMASSOC
350
609
  3
HIDETEXT
350
60A
  3
PSOLHEIGHT
350
608
  3
PSOLWIDTH
350
607
  0
MATERIAL
  5
3D
102
{ACAD_REACTORS
330
3B
102
}
102
{ACAD_XDICTIONARY
360
60D
102
}
330
3B
100
AcDbMaterial
  1
ByBlock
  0
MATERIAL
  5
3C
102
{ACAD_REACTORS
330
3B
102
}
102
{ACAD_XDICTIONARY
360
60B
102
}
330
3B
100
AcDbMaterial
  1
ByLayer
  0
MATERIAL
  5
3E
102
{ACAD_REACTORS
330
3B
102
}
102
{ACAD_XDICTIONARY
360
60F
102
}
330
3B
100
AcDbMaterial
  1
Global
  0
MLINESTYLE
  5
18
102
{ACAD_REACTORS
330
17
102
}
330
17
100
AcDbMlineStyle
  2
Standard
 70
     0
  3

 62
   256
 51
90.0
 52
90.0
 71
     2
 49
0.5
 62
   256
  6
BYLAYER
 49
-0.5
 62
   256
  6
BYLAYER
  0
ACAD_PROXY_OBJECT
  5
2F
102
{ACAD_REACTORS
330
2A
102
}
330
2A
100
AcDbProxyObject
 90
      499
 91
      501
 93
      436
310
42CC9915DA5C99599C985B595049028333333333333E3BF0000000000000FB0107901411070040501600405405064090741402480A0340
1001
ACAD
1000
AcDbSavedByObjectVersion
1070
     0
  0
ACAD_PROXY_OBJECT
  5
31
102
{ACAD_REACTORS
330
2A
102
}
330
2A
100
AcDbProxyObject
 90
      499
 91
      501
 93
      500
310
424CD108121A5919195B90640502408333333333333E3BF0000000000000FB01079024090700405020000000000001110200405405064090740C02480A0340
1001
ACAD
1000
AcDbSavedByObjectVersion
1070
     0
  0
ACAD_PROXY_OBJECT
  5
30
102
{ACAD_REACTORS
330
2A
102
}
330
2A
100
AcDbProxyObject
 90
      499
 91
      501
 93
      436
310
42CCD915DA5C99599C985B595059028333333333333E3BF0000000000000FB0107901411070040501600405405064090741402480A0340
1001
ACAD
1000
AcDbSavedByObjectVersion
1070
     0
  0
ACAD_PROXY_OBJECT
  5
32
102
{ACAD_REACTORS
330
2A
102
}
330
2A
100
AcDbProxyObject
 90
      499
 91
      501
 93
      388
310
4150985CDA58D07406404333333333333E3BF0000000000000FB0107A41107004050150841D405064090741402480A0350
1001
ACAD
1000
AcDbSavedByObjectVersion
1070
     0
  0
ACAD_PROXY_OBJECT
  5
36
102
{ACAD_REACTORS
330
2A
102
}
330
2A
100
AcDbProxyObject
 90
      499
 91
      501
 93
      428
310
42109C9A59DA1D195B90C409028333333333333E3BF0000000000000FB010790141107004050150841D405064090741402480A029950
1001
ACAD
1000
AcDbSavedByObjectVersion
1070
     0
  0
ACAD_PROXY_OBJECT
  5
3A
102
{ACAD_REACTORS
330
2A
102
}
330
2A
100
AcDbProxyObject
 90
      499
 91
      501
 93
      452
310
42D0DBDB1BDC90DA185B99D95104090240C333333333333E3BF0000000000000FB0108901411070040501508421405064090741402480A0350
1001
ACAD
1000
AcDbSavedByObjectVersion
1070
     0
  0
ACAD_PROXY_OBJECT
  5
34
102
{ACAD_REACTORS
330
2A
102
}
330
2A
100
AcDbProxyObject
 90
      499
 91
      501
 93
      500
310
4290DBDB98D95C1D1D585B10940D028333333333333E3BF0000000000000FB0107902409070040501000000000000111010841D405064090740C02480A0340
1001
ACAD
1000
AcDbSavedByObjectVersion
1070
     0
  0
ACAD_PROXY_OBJECT
  5
35
102
{ACAD_REACTORS
330
2A
102
}
330
2A
100
AcDbProxyObject
 90
      499
 91
      501
 93
      412
310
40D11A5B50B409028333333333333E3BF0000000000000FB010790141107004050150841D405064090741402480A02677FFFFFD0
1001
ACAD
1000
AcDbSavedByObjectVersion
1070
     0
  0
ACAD_PROXY_OBJECT
  5
39
102
{ACAD_REACTORS
330
2A
102
}
330
2A
100
AcDbProxyObject
 90
      499
 91
      501
 93
      444
310
42D19858D95C185D1D195C9B90F409028333333333333E3BF0000000000000FB010790141107004050150841D405064090741402480A0350
1001
ACAD
1000
AcDbSavedByObjectVersion
1070
     0
  0
ACAD_PROXY_OBJECT
  5
2B
102
{ACAD_REACTORS
330
2A
102
}
330
2A
100
AcDbProxyObject
 90
      499
 91
      501
 93
      388
310
41119B185D240901404333333333333E3BF0000000000000F9010740A41107004050150841D405064090741402480A1B50
1001
ACAD
1000
AcDbSavedByObjectVersion
1070
     0
  0
ACAD_PROXY_OBJECT
  5
2C
102
{ACAD_REACTORS
330
2A
102
}
330
2A
100
AcDbProxyObject
 90
      499
 91
      501
 93
      476
310
43519B185D15DA5D1A115919D95CD0140901404333333333333E3BF0000000000000F9010740901411070040501600405405064090741402480A1B50
1001
ACAD
1000
AcDbSavedByObjectVersion
1070
     0
  0
ACAD_PROXY_OBJECT
  5
2D
102
{ACAD_REACTORS
330
2A
102
}
330
2A
100
AcDbProxyObject
 90
      499
 91
      501
 93
      412
310
41D1DBDD5C985D5910240902404333333333333E3BF0000000000000F9010740A411070040501641D405064090741402480A1B50
1001
ACAD
1000
AcDbSavedByObjectVersion
1070
     0
  0
ACAD_PROXY_OBJECT
  5
2E
102
{ACAD_REACTORS
330
2A
102
}
330
2A
100
AcDbProxyObject
 90
      499
 91
      501
 93
      500
310
4411DBDD5C985D5915DA5D1A115919D95CD0340902404333333333333E3BF0000000000000F9010740901411070040501600405405064090741402480A1B50
1001
ACAD
1000
AcDbSavedByObjectVersion
1070
     0
  0
ACAD_PROXY_OBJECT
  5
38
102
{ACAD_REACTORS
330
2A
102
}
330
2A
100
AcDbProxyObject
 90
      499
 91
      501
 93
      444
310
42D31A5B995C185D1D195C9B90E409028333333333333E3BF0000000000000FB010790141107004050750841D405064090741402483A0350
1001
ACAD
1000
AcDbSavedByObjectVersion
1070
     0
  0
ACAD_PROXY_OBJECT
  5
33
102
{ACAD_REACTORS
330
2A
102
}
330
2A
100
AcDbProxyObject
 90
      499
 91
      501
 93
      420
310
425499585B1A5CDD1A58D08409028333333333333E3BF0000000000000FB01079019070040501508421405064090741402480A1B40
1001
ACAD
1000
AcDbSavedByObjectVersion
1070
     0
  0
ACAD_PROXY_OBJECT
  5
37
102
{ACAD_REACTORS
330
2A
102
}
330
2A
100
AcDbProxyObject
 90
      499
 91
      501
 93
      412
310
41D51A1A58DAD95B90D409028333333333333E3BF0000000000000FB010790141107004050150C41D405064090741402480A0350
1001
ACAD
1000
AcDbSavedByObjectVersion
1070
     0
  0
XRECORD
  5
5ED
102
{ACAD_REACTORS
330
5E4
102
}
330
5E4
100
AcDbXrecord
 90
        0
  0
XRECORD
  5
603
102
{ACAD_REACTORS
330
5E4
102
}
330
5E4
100
AcDbXrecord
1000
DSTYLE
1002
{
1070
   340
340
11
1002
}
  0
XRECORD
  5
5EE
102
{ACAD_REACTORS
330
5E4
102
}
330
5E4
100
AcDbXrecord
  1
{3E787EA1-3FB9-4DF9-A519-C3DE1DF7FEDD}
  0
XRECORD
  5
5E7
102
{ACAD_REACTORS
330
5E4
102
}
330
5E4
100
AcDbXrecord
  1

  0
XRECORD
  5
5EC
102
{ACAD_REACTORS
330
5E4
102
}
330
5E4
100
AcDbXrecord
 90
        4
  0
XRECORD
  5
5E9
102
{ACAD_REACTORS
330
5E4
102
}
330
5E4
100
AcDbXrecord
340
1A
  0
XRECORD
  5
5EB
102
{ACAD_REACTORS
330
5E4
102
}
330
5E4
100
AcDbXrecord
 90
    10781
  0
XRECORD
  5
5EA
102
{ACAD_REACTORS
330
5E4
102
}
330
5E4
100
AcDbXrecord
340
19
  0
XRECORD
  5
5F0
102
{ACAD_REACTORS
330
5E4
102
}
330
5E4
100
AcDbXrecord
 40
0.0
  0
XRECORD
  5
5F3
102
{ACAD_REACTORS
330
5E4
102
}
330
5E4
100
AcDbXrecord
340
0
  0
XRECORD
  5
5F9
102
{ACAD_REACTORS
330
5E4
102
}
330
5E4
100
AcDbXrecord
 10
0.0
 20
0.0
 30
0.0
  0
XRECORD
  5
5F5
102
{ACAD_REACTORS
330
5E4
102
}
330
5E4
100
AcDbXrecord
 10
0.0
 20
0.0
 30
0.0
  0
XRECORD
  5
5F8
102
{ACAD_REACTORS
330
5E4
102
}
330
5E4
100
AcDbXrecord
 10
0.0
 20
0.0
 30
0.0
  0
XRECORD
  5
5F6
102
{ACAD_REACTORS
330
5E4
102
}
330
5E4
100
AcDbXrecord
 10
0.0
 20
0.0
 30
0.0
  0
XRECORD
  5
5F7
102
{ACAD_REACTORS
330
5E4
102
}
330
5E4
100
AcDbXrecord
 10
0.0
 20
0.0
 30
0.0
  0
XRECORD
  5
5F4
102
{ACAD_REACTORS
330
5E4
102
}
330
5E4
100
AcDbXrecord
 10
0.0
 20
0.0
 30
0.0
  0
XRECORD
  5
5F1
102
{ACAD_REACTORS
330
5E4
102
}
330
5E4
100
AcDbXrecord
340
0
  0
XRECORD
  5
5F2
102
{ACAD_REACTORS
330
5E4
102
}
330
5E4
100
AcDbXrecord
 70
     0
  0
XRECORD
  5
5E8
102
{ACAD_REACTORS
330
5E4
102
}
330
5E4
100
AcDbXrecord
  1

  0
XRECORD
  5
5E5
102
{ACAD_REACTORS
330
5E4
102
}
330
5E4
100
AcDbXrecord
 90
        1
  0
XRECORD
  5
5E6
102
{ACAD_REACTORS
330
5E4
102
}
330
5E4
100
AcDbXrecord
 90
       70
  0
XRECORD
  5
5FC
102
{ACAD_REACTORS
330
5E4
102
}
330
5E4
100
AcDbXrecord
340
0
  0
XRECORD
  5
602
102
{ACAD_REACTORS
330
5E4
102
}
330
5E4
100
AcDbXrecord
 10
0.0
 20
0.0
 30
0.0
  0
XRECORD
  5
5FE
102
{ACAD_REACTORS
330
5E4
102
}
330
5E4
100
AcDbXrecord
 10
0.0
 20
0.0
 30
0.0
  0
XRECORD
  5
601
102
{ACAD_REACTORS
330
5E4
102
}
330
5E4
100
AcDbXrecord
 10
0.0
 20
0.0
 30
0.0
  0
XRECORD
  5
5FF
102
{ACAD_REACTORS
330
5E4
102
}
330
5E4
100
AcDbXrecord
 10
0.0
 20
0.0
 30
0.0
  0
XRECORD
  5
600
102
{ACAD_REACTORS
330
5E4
102
}
330
5E4
100
AcDbXrecord
 10
0.0
 20
0.0
 30
0.0
  0
XRECORD
  5
5FD
102
{ACAD_REACTORS
330
5E4
102
}
330
5E4
100
AcDbXrecord
 10
0.0
 20
0.0
 30
0.0
  0
XRECORD
  5
5FA
102
{ACAD_REACTORS
330
5E4
102
}
330
5E4
100
AcDbXrecord
340
0
  0
XRECORD
  5
5FB
102
{ACAD_REACTORS
330
5E4
102
}
330
5E4
100
AcDbXrecord
 70
     0
  0
XRECORD
  5
5EF
102
{ACAD_REACTORS
330
5E4
102
}
330
5E4
100
AcDbXrecord
  1
{FAEB1C32-E019-11D5-929B-00C0DF256EC4}
  0
DICTIONARYVAR
  5
609
102
{ACAD_REACTORS
330
604
102
}
330
604
100
DictionaryVariables
280
     0
  1
2
  0
DICTIONARYVAR
  5
60A
102
{ACAD_REACTORS
330
604
102
}
330
604
100
DictionaryVariables
280
     0
  1
1
  0
DICTIONARYVAR
  5
608
102
{ACAD_REACTORS
330
604
102
}
330
604
100
DictionaryVariables
280
     0
  1
80.000000
  0
DICTIONARYVAR
  5
607
102
{ACAD_REACTORS
330
604
102
}
330
604
100
DictionaryVariables
280
     0
  1
5.000000
  0
DICTIONARY
  5
60D
330
3D
100
AcDbDictionary
280
     1
  3
ACAD_XREC_ROUNDTRIP
360
60E
  0
DICTIONARY
  5
60B
330
3C
100
AcDbDictionary
280
     1
  3
ACAD_XREC_ROUNDTRIP
360
60C
  0
DICTIONARY
  5
60F
330
3E
100
AcDbDictionary
280
     1
  3
ACAD_XREC_ROUNDTRIP
360
610
  0
XRECORD
  5
60E
102
{ACAD_REACTORS
330
60D
102
}
330
60D
100
AcDbXrecord
102
MATERIAL
148
0.0
149
0.0
149
0.0
 93
        0
 94
      127
282
     0
 72
     1
 77
     1
171
     1
175
     1
179
     1
273
     0
  0
XRECORD
  5
60C
102
{ACAD_REACTORS
330
60B
102
}
330
60B
100
AcDbXrecord
102
MATERIAL
148
0.0
149
0.0
149
0.0
 93
        0
 94
      127
282
     0
 72
     1
 77
     1
171
     1
175
     1
179
     1
273
     0
  0
XRECORD
  5
610
102
{ACAD_REACTORS
330
60F
102
}
330
60F
100
AcDbXrecord
102
MATERIAL
148
0.0
149
0.0
149
0.0
 93
        0
 94
      127
282
     0
 72
     1
 77
     1
171
     1
175
     1
179
     1
273
     0
  0
ENDSEC
  0
EOF
