  0
SECTION
  2
HEADER
  9
$ACADVER
  1
AC1014
  9
$ACADMAINTVER
 70
     9
  9
$DWGCODEPAGE
  3
ANSI_932
  9
$INSBASE
 10
0.0
 20
0.0
 30
0.0
  9
$EXTMIN
 10
-1.700000000000019
 20
10.5
 30
0.0
  9
$EXTMAX
 10
199.0000000000001
 20
285.5
 30
0.0
  9
$LIMMIN
 10
0.0
 20
0.0
  9
$LIMMAX
 10
210.0
 20
297.0
  9
$ORTHOMODE
 70
     0
  9
$REGENMODE
 70
     1
  9
$FILLMODE
 70
     1
  9
$QTEXTMODE
 70
     0
  9
$MIRRTEXT
 70
     1
  9
$DRAGMODE
 70
     2
  9
$LTSCALE
 40
1.0
  9
$OSMODE
 70
    37
  9
$ATTMODE
 70
     1
  9
$TEXTSIZE
 40
2.5
  9
$TRACEWID
 40
1.0
  9
$TEXTSTYLE
  7
STANDARD
  9
$CLAYER
  8
寸法
  9
$CELTYPE
  6
BYLAYER
  9
$CECOLOR
 62
   256
  9
$CELTSCALE
 40
1.0
  9
$DELOBJ
 70
     1
  9
$DISPSILH
 70
     0
  9
$DIMSCALE
 40
1.0
  9
$DIMASZ
 40
2.5
  9
$DIMEXO
 40
0.625
  9
$DIMDLI
 40
3.75
  9
$DIMRND
 40
0.0
  9
$DIMDLE
 40
0.0
  9
$DIMEXE
 40
1.25
  9
$DIMTP
 40
0.0
  9
$DIMTM
 40
0.0
  9
$DIMTXT
 40
2.5
  9
$DIMCEN
 40
2.5
  9
$DIMTSZ
 40
0.0
  9
$DIMTOL
 70
     0
  9
$DIMLIM
 70
     0
  9
$DIMTIH
 70
     0
  9
$DIMTOH
 70
     0
  9
$DIMSE1
 70
     0
  9
$DIMSE2
 70
     0
  9
$DIMTAD
 70
     1
  9
$DIMZIN
 70
     8
  9
$DIMBLK
  1

  9
$DIMASO
 70
     1
  9
$DIMSHO
 70
     1
  9
$DIMPOST
  1

  9
$DIMAPOST
  1

  9
$DIMALT
 70
     0
  9
$DIMALTD
 70
     3
  9
$DIMALTF
 40
0.03937007874016
  9
$DIMLFAC
 40
1.0
  9
$DIMTOFL
 70
     1
  9
$DIMTVP
 40
0.0
  9
$DIMTIX
 70
     0
  9
$DIMSOXD
 70
     0
  9
$DIMSAH
 70
     0
  9
$DIMBLK1
  1

  9
$DIMBLK2
  1

  9
$DIMSTYLE
  2
ISO-25
  9
$DIMCLRD
 70
     0
  9
$DIMCLRE
 70
     0
  9
$DIMCLRT
 70
     0
  9
$DIMTFAC
 40
1.0
  9
$DIMGAP
 40
0.625
  9
$DIMJUST
 70
     0
  9
$DIMSD1
 70
     0
  9
$DIMSD2
 70
     0
  9
$DIMTOLJ
 70
     0
  9
$DIMTZIN
 70
     8
  9
$DIMALTZ
 70
     0
  9
$DIMALTTZ
 70
     0
  9
$DIMFIT
 70
     3
  9
$DIMUPT
 70
     0
  9
$DIMUNIT
 70
     2
  9
$DIMDEC
 70
     2
  9
$DIMTDEC
 70
     2
  9
$DIMALTU
 70
     2
  9
$DIMALTTD
 70
     3
  9
$DIMTXSTY
  7
STANDARD
  9
$DIMAUNIT
 70
     0
  9
$LUNITS
 70
     2
  9
$LUPREC
 70
     4
  9
$SKETCHINC
 40
1.0
  9
$FILLETRAD
 40
10.0
  9
$AUNITS
 70
     0
  9
$AUPREC
 70
     0
  9
$MENU
  1
.
  9
$ELEVATION
 40
0.0
  9
$PELEVATION
 40
0.0
  9
$THICKNESS
 40
0.0
  9
$LIMCHECK
 70
     0
  9
$CHAMFERA
 40
10.0
  9
$CHAMFERB
 40
10.0
  9
$CHAMFERC
 40
20.0
  9
$CHAMFERD
 40
0.0
  9
$SKPOLY
 70
     0
  9
$TDCREATE
 40
2457659.666467697
  9
$TDUPDATE
 40
2457659.666468055
  9
$TDINDWG
 40
0.0000000116
  9
$TDUSRTIMER
 40
0.0000000116
  9
$USRTIMER
 70
     1
  9
$ANGBASE
 50
0.0
  9
$ANGDIR
 70
     0
  9
$PDMODE
 70
     0
  9
$PDSIZE
 40
0.0
  9
$PLINEWID
 40
0.0
  9
$COORDS
 70
     1
  9
$SPLFRAME
 70
     0
  9
$SPLINETYPE
 70
     6
  9
$SPLINESEGS
 70
     8
  9
$ATTDIA
 70
     0
  9
$ATTREQ
 70
     1
  9
$HANDLING
 70
     1
  9
$HANDSEED
  5
616
  9
$SURFTAB1
 70
     6
  9
$SURFTAB2
 70
     6
  9
$SURFTYPE
 70
     6
  9
$SURFU
 70
     6
  9
$SURFV
 70
     6
  9
$UCSNAME
  2

  9
$UCSORG
 10
0.0
 20
0.0
 30
0.0
  9
$UCSXDIR
 10
1.0
 20
0.0
 30
0.0
  9
$UCSYDIR
 10
0.0
 20
1.0
 30
0.0
  9
$PUCSNAME
  2

  9
$PUCSORG
 10
0.0
 20
0.0
 30
0.0
  9
$PUCSXDIR
 10
1.0
 20
0.0
 30
0.0
  9
$PUCSYDIR
 10
0.0
 20
1.0
 30
0.0
  9
$USERI1
 70
     0
  9
$USERI2
 70
     0
  9
$USERI3
 70
     0
  9
$USERI4
 70
     0
  9
$USERI5
 70
     0
  9
$USERR1
 40
0.0
  9
$USERR2
 40
0.0
  9
$USERR3
 40
0.0
  9
$USERR4
 40
0.0
  9
$USERR5
 40
0.0
  9
$WORLDVIEW
 70
     1
  9
$SHADEDGE
 70
     3
  9
$SHADEDIF
 70
    70
  9
$TILEMODE
 70
     1
  9
$MAXACTVP
 70
    64
  9
$PINSBASE
 10
0.0
 20
0.0
 30
0.0
  9
$PLIMCHECK
 70
     0
  9
$PEXTMIN
 10
1.000000000000000E+20
 20
1.000000000000000E+20
 30
1.000000000000000E+20
  9
$PEXTMAX
 10
-1.000000000000000E+20
 20
-1.000000000000000E+20
 30
-1.000000000000000E+20
  9
$PLIMMIN
 10
0.0
 20
0.0
  9
$PLIMMAX
 10
420.0
 20
297.0
  9
$UNITMODE
 70
     0
  9
$VISRETAIN
 70
     1
  9
$PLINEGEN
 70
     0
  9
$PSLTSCALE
 70
     1
  9
$TREEDEPTH
 70
  3020
  9
$PICKSTYLE
 70
     1
  9
$CMLSTYLE
  2
STANDARD
  9
$CMLJUST
 70
     0
  9
$CMLSCALE
 40
20.0
  9
$PROXYGRAPHICS
 70
     1
  9
$MEASUREMENT
 70
     1
  0
ENDSEC
  0
SECTION
  2
CLASSES
  0
CLASS
  1
ACDBDICTIONARYWDFLT
  2
AcDbDictionaryWithDefault
  3
ObjectDBX Classes
 90
        0
280
     0
281
     0
  0
CLASS
  1
VISUALSTYLE
  2
AcDbVisualStyle
  3
ObjectDBX Classes
 90
     4095
280
     0
281
     0
  0
CLASS
  1
MATERIAL
  2
AcDbMaterial
  3
ObjectDBX Classes
 90
     1153
280
     0
281
     0
  0
CLASS
  1
SUN
  2
AcDbSun
  3
SCENEOE
 90
     1024
280
     0
281
     0
  0
CLASS
  1
DICTIONARYVAR
  2
AcDbDictionaryVar
  3
ObjectDBX Classes
 90
        0
280
     0
281
     0
  0
CLASS
  1
XRECORD
  2
AcDbXrecord
  3
AutoCAD 2000
 90
        0
280
     0
281
     0
  0
CLASS
  1
LWPOLYLINE
  2
AcDbPolyline
  3
AutoCAD 2000
 90
        0
280
     0
281
     1
  0
CLASS
  1
HATCH
  2
AcDbHatch
  3
AutoCAD 2000
 90
        0
280
     0
281
     1
  0
CLASS
  1
ACDBPLACEHOLDER
  2
AcDbPlaceHolder
  3
ObjectDBX Classes
 90
        0
280
     0
281
     0
  0
CLASS
  1
LAYOUT
  2
AcDbLayout
  3
ObjectDBX Classes
 90
        0
280
     0
281
     0
  0
ENDSEC
  0
SECTION
  2
TABLES
  0
TABLE
  2
VPORT
  5
8
330
0
100
AcDbSymbolTable
 70
     1
  0
VPORT
  5
29
330
8
100
AcDbSymbolTableRecord
100
AcDbViewportTableRecord
  2
*ACTIVE
 70
     0
 10
0.0
 20
0.0
 11
1.0
 21
1.0
 12
1479.75
 22
2220.0
 13
0.0
 23
0.0
 14
10.0
 24
10.0
 15
10.0
 25
10.0
 16
0.0
 26
0.0
 36
1.0
 17
0.0
 27
0.0
 37
0.0
 40
4125.0
 41
0.7298181818181821
 42
50.0
 43
0.0
 44
0.0
 50
0.0
 51
0.0
 71
     0
 72
  1000
 73
     1
 74
     3
 75
     0
 76
     0
 77
     0
 78
     0
  0
ENDTAB
  0
TABLE
  2
LTYPE
  5
5
330
0
100
AcDbSymbolTable
 70
     7
  0
LTYPE
  5
14
330
5
100
AcDbSymbolTableRecord
100
AcDbLinetypeTableRecord
  2
BYBLOCK
 70
     0
  3

 72
    65
 73
     0
 40
0.0
  0
LTYPE
  5
15
330
5
100
AcDbSymbolTableRecord
100
AcDbLinetypeTableRecord
  2
BYLAYER
 70
     0
  3

 72
    65
 73
     0
 40
0.0
  0
LTYPE
  5
16
330
5
100
AcDbSymbolTableRecord
100
AcDbLinetypeTableRecord
  2
CONTINUOUS
 70
     0
  3
Solid line
 72
    65
 73
     0
 40
0.0
  0
LTYPE
  5
40
330
5
100
AcDbSymbolTableRecord
100
AcDbLinetypeTableRecord
  2
EXLTYPE1
 70
     0
  3
破線
 72
    65
 73
     2
 40
3.0
 49
2.0
 74
     0
 49
-1.0
 74
     0
  0
LTYPE
  5
41
330
5
100
AcDbSymbolTableRecord
100
AcDbLinetypeTableRecord
  2
EXLTYPE2
 70
     0
  3
点線
 72
    65
 73
     2
 40
2.0
 49
1.0
 74
     0
 49
-1.0
 74
     0
  0
LTYPE
  5
42
330
5
100
AcDbSymbolTableRecord
100
AcDbLinetypeTableRecord
  2
EXLTYPE3
 70
     0
  3
一点鎖線
 72
    65
 73
     4
 40
10.0
 49
7.0
 74
     0
 49
-1.0
 74
     0
 49
1.0
 74
     0
 49
-1.0
 74
     0
  0
LTYPE
  5
43
330
5
100
AcDbSymbolTableRecord
100
AcDbLinetypeTableRecord
  2
EXLTYPE4
 70
     0
  3
二点鎖線
 72
    65
 73
     6
 40
12.0
 49
7.0
 74
     0
 49
-1.0
 74
     0
 49
1.0
 74
     0
 49
-1.0
 74
     0
 49
1.0
 74
     0
 49
-1.0
 74
     0
  0
LTYPE
  5
44
330
5
100
AcDbSymbolTableRecord
100
AcDbLinetypeTableRecord
  2
EXLTYPE5
 70
     0
  3
三点鎖線
 72
    65
 73
     8
 40
37.0
 49
30.0
 74
     0
 49
-1.0
 74
     0
 49
1.0
 74
     0
 49
-1.0
 74
     0
 49
1.0
 74
     0
 49
-1.0
 74
     0
 49
1.0
 74
     0
 49
-1.0
 74
     0
  0
LTYPE
  5
45
330
5
100
AcDbSymbolTableRecord
100
AcDbLinetypeTableRecord
  2
EXLTYPE6
 70
     0
  3
四点鎖線
 72
    65
 73
    10
 40
39.0
 49
30.0
 74
     0
 49
-1.0
 74
     0
 49
1.0
 74
     0
 49
-1.0
 74
     0
 49
1.0
 74
     0
 49
-1.0
 74
     0
 49
1.0
 74
     0
 49
-1.0
 74
     0
 49
1.0
 74
     0
 49
-1.0
 74
     0
  0
ENDTAB
  0
TABLE
  2
LAYER
  5
2
330
0
100
AcDbSymbolTable
 70
     7
  0
LAYER
  5
10
330
2
100
AcDbSymbolTableRecord
100
AcDbLayerTableRecord
  2
0
 70
     0
 62
     7
  6
CONTINUOUS
  0
LAYER
  5
48
330
2
100
AcDbSymbolTableRecord
100
AcDbLayerTableRecord
  2
枠_表
 70
     0
 62
     7
  6
CONTINUOUS
  0
LAYER
  5
49
330
2
100
AcDbSymbolTableRecord
100
AcDbLayerTableRecord
  2
化粧台
 70
     0
 62
     7
  6
CONTINUOUS
  0
LAYER
  5
4A
330
2
100
AcDbSymbolTableRecord
100
AcDbLayerTableRecord
  2
鏡台
 70
     0
 62
     7
  6
CONTINUOUS
  0
LAYER
  5
4B
330
2
100
AcDbSymbolTableRecord
100
AcDbLayerTableRecord
  2
付属金具
 70
     0
 62
     7
  6
CONTINUOUS
  0
LAYER
  5
4C
330
2
100
AcDbSymbolTableRecord
100
AcDbLayerTableRecord
  2
寸法
 70
     0
 62
     7
  6
CONTINUOUS
  0
LAYER
  5
127
330
2
100
AcDbSymbolTableRecord
100
AcDbLayerTableRecord
  2
DEFPOINTS
 70
     0
 62
     7
  6
CONTINUOUS
  0
ENDTAB
  0
TABLE
  2
STYLE
  5
3
330
0
100
AcDbSymbolTable
 70
     5
  0
STYLE
  5
11
330
3
100
AcDbSymbolTableRecord
100
AcDbTextStyleTableRecord
  2
STANDARD
 70
     0
 40
0.0
 41
1.0
 50
0.0
 71
     0
 42
2.5
  3
monotxt
  4
extfont
  0
STYLE
  5
46
330
3
100
AcDbSymbolTableRecord
100
AcDbTextStyleTableRecord
  2
EXCADSTD
 70
     0
 40
0.0
 41
1.0
 50
0.0
 71
     0
 42
0.2
  3
monotxt
  4
extfont
  0
STYLE
  5
47
330
3
100
AcDbSymbolTableRecord
100
AcDbTextStyleTableRecord
  2
EXCADVERT
 70
     4
 40
0.0
 41
1.0
 50
0.0
 71
     0
 42
0.286885
  3
monotxt
  4
extfont
  0
STYLE
  5
E4
330
3
100
AcDbSymbolTableRecord
100
AcDbTextStyleTableRecord
  2
EXCADTTF1
 70
     0
 40
0.0
 41
1.0
 50
0.0
 71
     0
 42
0.2
  3
MSGOTHIC.TTC
  4

1001
ACAD
1000
MS Gothic
1071
    32817
  0
STYLE
  5
125
330
3
100
AcDbSymbolTableRecord
100
AcDbTextStyleTableRecord
  2
EXCADDIM1
 70
     0
 40
0.0
 41
0.84
 50
0.0
 71
     0
 42
0.2
  3
monotxt
  4
extfont
  0
ENDTAB
  0
TABLE
  2
VIEW
  5
6
330
0
100
AcDbSymbolTable
 70
     0
  0
ENDTAB
  0
TABLE
  2
UCS
  5
7
330
0
100
AcDbSymbolTable
 70
     0
  0
ENDTAB
  0
TABLE
  2
APPID
  5
9
330
0
100
AcDbSymbolTable
 70
     1
  0
APPID
  5
12
330
9
100
AcDbSymbolTableRecord
100
AcDbRegAppTableRecord
  2
ACAD
 70
     0
  0
ENDTAB
  0
TABLE
  2
DIMSTYLE
  5
A
330
0
100
AcDbSymbolTable
 70
     1
  0
DIMSTYLE
105
27
102
{ACAD_REACTORS
330
126
330
134
330
141
330
50C
330
519
330
526
330
532
330
53E
330
54A
330
556
330
57D
330
593
330
5A0
330
5C1
330
5CF
330
5DC
102
}
330
A
100
AcDbSymbolTableRecord
100
AcDbDimStyleTableRecord
  2
ISO-25
 70
     0
  3

  4

  5

  6

  7

 40
1.0
 41
2.5
 42
0.625
 43
3.75
 44
1.25
 45
0.0
 46
0.0
 47
0.0
 48
0.0
140
2.5
141
2.5
142
0.0
143
0.03937007874016
144
1.0
145
0.0
146
1.0
147
0.625
 71
     0
 72
     0
 73
     0
 74
     0
 75
     0
 76
     0
 77
     1
 78
     8
170
     0
171
     3
172
     1
173
     0
174
     0
175
     0
176
     0
177
     0
178
     0
270
     2
271
     2
272
     2
273
     2
274
     3
340
11
275
     0
280
     0
281
     0
282
     0
283
     0
284
     8
285
     0
286
     0
287
     5
288
     0
  0
ENDTAB
  0
TABLE
  2
BLOCK_RECORD
  5
1
330
0
100
AcDbSymbolTable
 70
    31
  0
BLOCK_RECORD
  5
1F
330
1
100
AcDbSymbolTableRecord
100
AcDbBlockTableRecord
  2
*MODEL_SPACE
  0
BLOCK_RECORD
  5
1B
330
1
100
AcDbSymbolTableRecord
100
AcDbBlockTableRecord
  2
*PAPER_SPACE
  0
BLOCK_RECORD
  5
4D
330
1
100
AcDbSymbolTableRecord
100
AcDbBlockTableRecord
  2
EX_NORM
  0
BLOCK_RECORD
  5
50
330
1
100
AcDbSymbolTableRecord
100
AcDbBlockTableRecord
  2
EX_BNORM
  0
BLOCK_RECORD
  5
53
330
1
100
AcDbSymbolTableRecord
100
AcDbBlockTableRecord
  2
EX_BCIR
  0
BLOCK_RECORD
  5
56
330
1
100
AcDbSymbolTableRecord
100
AcDbBlockTableRecord
  2
EX_RCIVIL
  0
BLOCK_RECORD
  5
59
330
1
100
AcDbSymbolTableRecord
100
AcDbBlockTableRecord
  2
EX_SLANT
  0
BLOCK_RECORD
  5
5C
330
1
100
AcDbSymbolTableRecord
100
AcDbBlockTableRecord
  2
EX_NONE
  0
BLOCK_RECORD
  5
5F
330
1
100
AcDbSymbolTableRecord
100
AcDbBlockTableRecord
  2
EX_CIVIL
  0
BLOCK_RECORD
  5
62
330
1
100
AcDbSymbolTableRecord
100
AcDbBlockTableRecord
  2
EX_WCIR
  0
BLOCK_RECORD
  5
65
330
1
100
AcDbSymbolTableRecord
100
AcDbBlockTableRecord
  2
EX_WCIR2
  0
BLOCK_RECORD
  5
68
330
1
100
AcDbSymbolTableRecord
100
AcDbBlockTableRecord
  2
EX_WNORM
  0
BLOCK_RECORD
  5
6B
330
1
100
AcDbSymbolTableRecord
100
AcDbBlockTableRecord
  2
EX_NNORM
  0
BLOCK_RECORD
  5
6E
330
1
100
AcDbSymbolTableRecord
100
AcDbBlockTableRecord
  2
EX_BBOX
  0
BLOCK_RECORD
  5
71
330
1
100
AcDbSymbolTableRecord
100
AcDbBlockTableRecord
  2
EX_WBOX
  0
BLOCK_RECORD
  5
74
330
1
100
AcDbSymbolTableRecord
100
AcDbBlockTableRecord
  2
EX_INTEGRAL
  0
BLOCK_RECORD
  5
128
330
1
100
AcDbSymbolTableRecord
100
AcDbBlockTableRecord
  2
*D15
  0
BLOCK_RECORD
  5
135
330
1
100
AcDbSymbolTableRecord
100
AcDbBlockTableRecord
  2
*D16
  0
BLOCK_RECORD
  5
142
330
1
100
AcDbSymbolTableRecord
100
AcDbBlockTableRecord
  2
*D17
  0
BLOCK_RECORD
  5
50D
330
1
100
AcDbSymbolTableRecord
100
AcDbBlockTableRecord
  2
*D18
  0
BLOCK_RECORD
  5
51A
330
1
100
AcDbSymbolTableRecord
100
AcDbBlockTableRecord
  2
*D19
  0
BLOCK_RECORD
  5
527
330
1
100
AcDbSymbolTableRecord
100
AcDbBlockTableRecord
  2
*D20
  0
BLOCK_RECORD
  5
533
330
1
100
AcDbSymbolTableRecord
100
AcDbBlockTableRecord
  2
*D21
  0
BLOCK_RECORD
  5
53F
330
1
100
AcDbSymbolTableRecord
100
AcDbBlockTableRecord
  2
*D22
  0
BLOCK_RECORD
  5
54B
330
1
100
AcDbSymbolTableRecord
100
AcDbBlockTableRecord
  2
*D23
  0
BLOCK_RECORD
  5
557
330
1
100
AcDbSymbolTableRecord
100
AcDbBlockTableRecord
  2
*D24
  0
BLOCK_RECORD
  5
57E
330
1
100
AcDbSymbolTableRecord
100
AcDbBlockTableRecord
  2
*D25
  0
BLOCK_RECORD
  5
594
330
1
100
AcDbSymbolTableRecord
100
AcDbBlockTableRecord
  2
*D26
  0
BLOCK_RECORD
  5
5A1
330
1
100
AcDbSymbolTableRecord
100
AcDbBlockTableRecord
  2
*D27
  0
BLOCK_RECORD
  5
5C2
330
1
100
AcDbSymbolTableRecord
100
AcDbBlockTableRecord
  2
*D28
  0
BLOCK_RECORD
  5
5D0
330
1
100
AcDbSymbolTableRecord
100
AcDbBlockTableRecord
  2
*D29
  0
BLOCK_RECORD
  5
5DD
330
1
100
AcDbSymbolTableRecord
100
AcDbBlockTableRecord
  2
*D30
  0
ENDTAB
  0
ENDSEC
  0
SECTION
  2
BLOCKS
  0
BLOCK
  5
20
330
1F
100
AcDbEntity
  8
0
100
AcDbBlockBegin
  2
*MODEL_SPACE
 70
     0
 10
0.0
 20
0.0
 30
0.0
  3
*MODEL_SPACE
  1

  0
ENDBLK
  5
21
330
1F
100
AcDbEntity
  8
0
100
AcDbBlockEnd
  0
BLOCK
  5
1C
330
1B
100
AcDbEntity
 67
     1
  8
0
100
AcDbBlockBegin
  2
*PAPER_SPACE
 70
     0
 10
0.0
 20
0.0
 30
0.0
  3
*PAPER_SPACE
  1

  0
ENDBLK
  5
1D
330
1B
100
AcDbEntity
 67
     1
  8
0
100
AcDbBlockEnd
  0
BLOCK
  5
4E
330
4D
100
AcDbEntity
  8
0
100
AcDbBlockBegin
  2
EX_NORM
 70
     0
 10
0.0
 20
0.0
 30
0.0
  3
EX_NORM
  1

  0
LINE
  5
77
330
4D
100
AcDbEntity
  8
0
  6
CONTINUOUS
 62
     0
100
AcDbLine
 10
0.0
 20
0.0
 30
0.0
 11
-1.0
 21
0.0
 31
0.0
  0
LINE
  5
78
330
4D
100
AcDbEntity
  8
0
  6
CONTINUOUS
 62
     0
100
AcDbLine
 10
0.0
 20
0.0
 30
0.0
 11
-1.0
 21
0.166666667
 31
0.0
  0
LINE
  5
79
330
4D
100
AcDbEntity
  8
0
  6
CONTINUOUS
 62
     0
100
AcDbLine
 10
0.0
 20
0.0
 30
0.0
 11
-1.0
 21
-0.166666667
 31
0.0
  0
ENDBLK
  5
4F
330
4D
100
AcDbEntity
  8
0
100
AcDbBlockEnd
  0
BLOCK
  5
51
330
50
100
AcDbEntity
  8
0
100
AcDbBlockBegin
  2
EX_BNORM
 70
     0
 10
0.0
 20
0.0
 30
0.0
  3
EX_BNORM
  1

  0
LINE
  5
7A
330
50
100
AcDbEntity
  8
0
  6
CONTINUOUS
 62
     0
100
AcDbLine
 10
0.0
 20
0.0
 30
0.0
 11
-1.0
 21
0.0
 31
0.0
  0
LINE
  5
7B
330
50
100
AcDbEntity
  8
0
  6
CONTINUOUS
 62
     0
100
AcDbLine
 10
0.0
 20
0.0
 30
0.0
 11
-1.0
 21
0.166666667
 31
0.0
  0
LINE
  5
7C
330
50
100
AcDbEntity
  8
0
  6
CONTINUOUS
 62
     0
100
AcDbLine
 10
0.0
 20
0.0
 30
0.0
 11
-1.0
 21
-0.166666667
 31
0.0
  0
LINE
  5
7D
330
50
100
AcDbEntity
  8
0
  6
CONTINUOUS
 62
     0
100
AcDbLine
 10
0.0
 20
0.0
 30
0.0
 11
-1.0
 21
0.083333333
 31
0.0
  0
LINE
  5
7E
330
50
100
AcDbEntity
  8
0
  6
CONTINUOUS
 62
     0
100
AcDbLine
 10
0.0
 20
0.0
 30
0.0
 11
-1.0
 21
-0.083333333
 31
0.0
  0
LINE
  5
7F
330
50
100
AcDbEntity
  8
0
  6
CONTINUOUS
 62
     0
100
AcDbLine
 10
-1.0
 20
0.166666667
 30
0.0
 11
-1.0
 21
-0.166666667
 31
0.0
  0
ENDBLK
  5
52
330
50
100
AcDbEntity
  8
0
100
AcDbBlockEnd
  0
BLOCK
  5
54
330
53
100
AcDbEntity
  8
0
100
AcDbBlockBegin
  2
EX_BCIR
 70
     0
 10
0.0
 20
0.0
 30
0.0
  3
EX_BCIR
  1

  0
LINE
  5
80
330
53
100
AcDbEntity
  8
0
  6
CONTINUOUS
 62
     0
100
AcDbLine
 10
0.0
 20
0.0
 30
0.0
 11
-1.0
 21
0.0
 31
0.0
  0
CIRCLE
  5
81
330
53
100
AcDbEntity
  8
0
  6
CONTINUOUS
 62
     0
100
AcDbCircle
 10
0.0
 20
0.0
 30
0.0
 40
0.5
  0
CIRCLE
  5
82
330
53
100
AcDbEntity
  8
0
  6
CONTINUOUS
 62
     0
100
AcDbCircle
 10
0.0
 20
0.0
 30
0.0
 40
0.25
  0
ENDBLK
  5
55
330
53
100
AcDbEntity
  8
0
100
AcDbBlockEnd
  0
BLOCK
  5
57
330
56
100
AcDbEntity
  8
0
100
AcDbBlockBegin
  2
EX_RCIVIL
 70
     0
 10
0.0
 20
0.0
 30
0.0
  3
EX_RCIVIL
  1

  0
LINE
  5
83
330
56
100
AcDbEntity
  8
0
  6
CONTINUOUS
 62
     0
100
AcDbLine
 10
0.0
 20
0.0
 30
0.0
 11
-1.0
 21
0.0
 31
0.0
  0
LINE
  5
84
330
56
100
AcDbEntity
  8
0
  6
CONTINUOUS
 62
     0
100
AcDbLine
 10
-1.0
 20
-0.25
 30
0.0
 11
0.0
 21
-0.25
 31
0.0
  0
LINE
  5
85
330
56
100
AcDbEntity
  8
0
  6
CONTINUOUS
 62
     0
100
AcDbLine
 10
-1.0
 20
-0.125
 30
0.0
 11
0.0
 21
-0.125
 31
0.0
  0
ENDBLK
  5
58
330
56
100
AcDbEntity
  8
0
100
AcDbBlockEnd
  0
BLOCK
  5
5A
330
59
100
AcDbEntity
  8
0
100
AcDbBlockBegin
  2
EX_SLANT
 70
     0
 10
0.0
 20
0.0
 30
0.0
  3
EX_SLANT
  1

  0
LINE
  5
86
330
59
100
AcDbEntity
  8
0
  6
CONTINUOUS
 62
     0
100
AcDbLine
 10
0.0
 20
0.0
 30
0.0
 11
-1.0
 21
0.0
 31
0.0
  0
LINE
  5
87
330
59
100
AcDbEntity
  8
0
  6
CONTINUOUS
 62
     0
100
AcDbLine
 10
0.707106781
 20
0.707106781
 30
0.0
 11
-0.707106781
 21
-0.707106781
 31
0.0
  0
ENDBLK
  5
5B
330
59
100
AcDbEntity
  8
0
100
AcDbBlockEnd
  0
BLOCK
  5
5D
330
5C
100
AcDbEntity
  8
0
100
AcDbBlockBegin
  2
EX_NONE
 70
     0
 10
0.0
 20
0.0
 30
0.0
  3
EX_NONE
  1

  0
LINE
  5
88
330
5C
100
AcDbEntity
  8
0
  6
CONTINUOUS
 62
     0
100
AcDbLine
 10
0.0
 20
0.0
 30
0.0
 11
-1.0
 21
0.0
 31
0.0
  0
ENDBLK
  5
5E
330
5C
100
AcDbEntity
  8
0
100
AcDbBlockEnd
  0
BLOCK
  5
60
330
5F
100
AcDbEntity
  8
0
100
AcDbBlockBegin
  2
EX_CIVIL
 70
     0
 10
0.0
 20
0.0
 30
0.0
  3
EX_CIVIL
  1

  0
LINE
  5
89
330
5F
100
AcDbEntity
  8
0
  6
CONTINUOUS
 62
     0
100
AcDbLine
 10
0.0
 20
0.0
 30
0.0
 11
-1.0
 21
0.0
 31
0.0
  0
LINE
  5
8A
330
5F
100
AcDbEntity
  8
0
  6
CONTINUOUS
 62
     0
100
AcDbLine
 10
-1.0
 20
0.25
 30
0.0
 11
0.0
 21
0.25
 31
0.0
  0
LINE
  5
8B
330
5F
100
AcDbEntity
  8
0
  6
CONTINUOUS
 62
     0
100
AcDbLine
 10
-1.0
 20
0.125
 30
0.0
 11
0.0
 21
0.125
 31
0.0
  0
ENDBLK
  5
61
330
5F
100
AcDbEntity
  8
0
100
AcDbBlockEnd
  0
BLOCK
  5
63
330
62
100
AcDbEntity
  8
0
100
AcDbBlockBegin
  2
EX_WCIR
 70
     0
 10
0.0
 20
0.0
 30
0.0
  3
EX_WCIR
  1

  0
LINE
  5
8C
330
62
100
AcDbEntity
  8
0
  6
CONTINUOUS
 62
     0
100
AcDbLine
 10
0.0
 20
0.0
 30
0.0
 11
-1.0
 21
0.0
 31
0.0
  0
CIRCLE
  5
8D
330
62
100
AcDbEntity
  8
0
  6
CONTINUOUS
 62
     0
100
AcDbCircle
 10
0.0
 20
0.0
 30
0.0
 40
0.5
  0
ENDBLK
  5
64
330
62
100
AcDbEntity
  8
0
100
AcDbBlockEnd
  0
BLOCK
  5
66
330
65
100
AcDbEntity
  8
0
100
AcDbBlockBegin
  2
EX_WCIR2
 70
     0
 10
0.0
 20
0.0
 30
0.0
  3
EX_WCIR2
  1

  0
LINE
  5
8E
330
65
100
AcDbEntity
  8
0
  6
CONTINUOUS
 62
     0
100
AcDbLine
 10
-0.5
 20
0.0
 30
0.0
 11
-1.0
 21
0.0
 31
0.0
  0
CIRCLE
  5
8F
330
65
100
AcDbEntity
  8
0
  6
CONTINUOUS
 62
     0
100
AcDbCircle
 10
0.0
 20
0.0
 30
0.0
 40
0.5
  0
ENDBLK
  5
67
330
65
100
AcDbEntity
  8
0
100
AcDbBlockEnd
  0
BLOCK
  5
69
330
68
100
AcDbEntity
  8
0
100
AcDbBlockBegin
  2
EX_WNORM
 70
     0
 10
0.0
 20
0.0
 30
0.0
  3
EX_WNORM
  1

  0
LINE
  5
90
330
68
100
AcDbEntity
  8
0
  6
CONTINUOUS
 62
     0
100
AcDbLine
 10
-1.0
 20
0.0
 30
0.0
 11
-1.0
 21
0.0
 31
0.0
  0
LINE
  5
91
330
68
100
AcDbEntity
  8
0
  6
CONTINUOUS
 62
     0
100
AcDbLine
 10
0.0
 20
0.0
 30
0.0
 11
-1.0
 21
0.166666667
 31
0.0
  0
LINE
  5
92
330
68
100
AcDbEntity
  8
0
  6
CONTINUOUS
 62
     0
100
AcDbLine
 10
0.0
 20
0.0
 30
0.0
 11
-1.0
 21
-0.166666667
 31
0.0
  0
LINE
  5
93
330
68
100
AcDbEntity
  8
0
  6
CONTINUOUS
 62
     0
100
AcDbLine
 10
-1.0
 20
0.166666667
 30
0.0
 11
-1.0
 21
-0.166666667
 31
0.0
  0
ENDBLK
  5
6A
330
68
100
AcDbEntity
  8
0
100
AcDbBlockEnd
  0
BLOCK
  5
6C
330
6B
100
AcDbEntity
  8
0
100
AcDbBlockBegin
  2
EX_NNORM
 70
     0
 10
0.0
 20
0.0
 30
0.0
  3
EX_NNORM
  1

  0
LINE
  5
94
330
6B
100
AcDbEntity
  8
0
  6
CONTINUOUS
 62
     0
100
AcDbLine
 10
0.0
 20
0.0
 30
0.0
 11
-1.0
 21
0.0
 31
0.0
  0
LINE
  5
95
330
6B
100
AcDbEntity
  8
0
  6
CONTINUOUS
 62
     0
100
AcDbLine
 10
0.0
 20
0.0
 30
0.0
 11
-1.0
 21
0.166666667
 31
0.0
  0
LINE
  5
96
330
6B
100
AcDbEntity
  8
0
  6
CONTINUOUS
 62
     0
100
AcDbLine
 10
0.0
 20
0.0
 30
0.0
 11
-1.0
 21
-0.166666667
 31
0.0
  0
LINE
  5
97
330
6B
100
AcDbEntity
  8
0
  6
CONTINUOUS
 62
     0
100
AcDbLine
 10
-1.0
 20
0.166666667
 30
0.0
 11
-1.0
 21
-0.166666667
 31
0.0
  0
ENDBLK
  5
6D
330
6B
100
AcDbEntity
  8
0
100
AcDbBlockEnd
  0
BLOCK
  5
6F
330
6E
100
AcDbEntity
  8
0
100
AcDbBlockBegin
  2
EX_BBOX
 70
     0
 10
0.0
 20
0.0
 30
0.0
  3
EX_BBOX
  1

  0
LINE
  5
98
330
6E
100
AcDbEntity
  8
0
  6
CONTINUOUS
 62
     0
100
AcDbLine
 10
0.0
 20
0.0
 30
0.0
 11
-1.0
 21
0.0
 31
0.0
  0
LINE
  5
99
330
6E
100
AcDbEntity
  8
0
  6
CONTINUOUS
 62
     0
100
AcDbLine
 10
-0.5
 20
0.5
 30
0.0
 11
0.5
 21
0.5
 31
0.0
  0
LINE
  5
9A
330
6E
100
AcDbEntity
  8
0
  6
CONTINUOUS
 62
     0
100
AcDbLine
 10
0.5
 20
0.5
 30
0.0
 11
0.5
 21
-0.5
 31
0.0
  0
LINE
  5
9B
330
6E
100
AcDbEntity
  8
0
  6
CONTINUOUS
 62
     0
100
AcDbLine
 10
0.5
 20
-0.5
 30
0.0
 11
-0.5
 21
-0.5
 31
0.0
  0
LINE
  5
9C
330
6E
100
AcDbEntity
  8
0
  6
CONTINUOUS
 62
     0
100
AcDbLine
 10
-0.5
 20
-0.5
 30
0.0
 11
-0.5
 21
0.5
 31
0.0
  0
LINE
  5
9D
330
6E
100
AcDbEntity
  8
0
  6
CONTINUOUS
 62
     0
100
AcDbLine
 10
-0.25
 20
0.25
 30
0.0
 11
0.25
 21
0.25
 31
0.0
  0
LINE
  5
9E
330
6E
100
AcDbEntity
  8
0
  6
CONTINUOUS
 62
     0
100
AcDbLine
 10
0.25
 20
0.25
 30
0.0
 11
0.25
 21
-0.25
 31
0.0
  0
LINE
  5
9F
330
6E
100
AcDbEntity
  8
0
  6
CONTINUOUS
 62
     0
100
AcDbLine
 10
0.25
 20
-0.25
 30
0.0
 11
-0.25
 21
-0.25
 31
0.0
  0
LINE
  5
A0
330
6E
100
AcDbEntity
  8
0
  6
CONTINUOUS
 62
     0
100
AcDbLine
 10
-0.25
 20
-0.25
 30
0.0
 11
-0.25
 21
0.25
 31
0.0
  0
ENDBLK
  5
70
330
6E
100
AcDbEntity
  8
0
100
AcDbBlockEnd
  0
BLOCK
  5
72
330
71
100
AcDbEntity
  8
0
100
AcDbBlockBegin
  2
EX_WBOX
 70
     0
 10
0.0
 20
0.0
 30
0.0
  3
EX_WBOX
  1

  0
LINE
  5
A1
330
71
100
AcDbEntity
  8
0
  6
CONTINUOUS
 62
     0
100
AcDbLine
 10
-0.5
 20
0.0
 30
0.0
 11
-1.0
 21
0.0
 31
0.0
  0
LINE
  5
A2
330
71
100
AcDbEntity
  8
0
  6
CONTINUOUS
 62
     0
100
AcDbLine
 10
-0.5
 20
0.5
 30
0.0
 11
0.5
 21
0.5
 31
0.0
  0
LINE
  5
A3
330
71
100
AcDbEntity
  8
0
  6
CONTINUOUS
 62
     0
100
AcDbLine
 10
0.5
 20
0.5
 30
0.0
 11
0.5
 21
-0.5
 31
0.0
  0
LINE
  5
A4
330
71
100
AcDbEntity
  8
0
  6
CONTINUOUS
 62
     0
100
AcDbLine
 10
0.5
 20
-0.5
 30
0.0
 11
-0.5
 21
-0.5
 31
0.0
  0
LINE
  5
A5
330
71
100
AcDbEntity
  8
0
  6
CONTINUOUS
 62
     0
100
AcDbLine
 10
-0.5
 20
-0.5
 30
0.0
 11
-0.5
 21
0.5
 31
0.0
  0
ENDBLK
  5
73
330
71
100
AcDbEntity
  8
0
100
AcDbBlockEnd
  0
BLOCK
  5
75
330
74
100
AcDbEntity
  8
0
100
AcDbBlockBegin
  2
EX_INTEGRAL
 70
     0
 10
0.0
 20
0.0
 30
0.0
  3
EX_INTEGRAL
  1

  0
LINE
  5
A6
330
74
100
AcDbEntity
  8
0
  6
CONTINUOUS
 62
     0
100
AcDbLine
 10
0.0
 20
0.0
 30
0.0
 11
-1.0
 21
0.0
 31
0.0
  0
ARC
  5
A7
330
74
100
AcDbEntity
  8
0
  6
CONTINUOUS
 62
     0
100
AcDbCircle
 10
0.542115
 20
0.164992
 30
0.0
 40
0.56667
100
AcDbArc
 50
73.07249033629006
 51
196.9275130221199
  0
ARC
  5
A8
330
74
100
AcDbEntity
  8
0
  6
CONTINUOUS
 62
     0
100
AcDbCircle
 10
-0.542115
 20
-0.164992
 30
0.0
 40
0.56667
100
AcDbArc
 50
253.0724869220464
 51
16.9275130559125
  0
ENDBLK
  5
76
330
74
100
AcDbEntity
  8
0
100
AcDbBlockEnd
  0
BLOCK
  5
129
330
128
100
AcDbEntity
  8
0
100
AcDbBlockBegin
  2
*D15
 70
     1
 10
0.0
 20
0.0
 30
0.0
  3
*D15
  1

  0
LINE
  5
12B
330
128
100
AcDbEntity
  8
化粧台
  6
CONTINUOUS
 62
     3
100
AcDbLine
 10
755.0000000000002
 20
2652.999999821186
 30
0.0
 11
755.0000000000002
 21
2820.0
 31
0.0
  0
LINE
  5
12C
330
128
100
AcDbEntity
  8
化粧台
  6
CONTINUOUS
 62
     3
100
AcDbLine
 10
1055.0
 20
2652.999999821186
 30
0.0
 11
1055.0
 21
2820.0
 31
0.0
  0
LINE
  5
12D
330
128
100
AcDbEntity
  8
化粧台
  6
CONTINUOUS
 62
     3
100
AcDbLine
 10
799.999996185303
 20
2805.0
 30
0.0
 11
1010.000003814697
 21
2805.0
 31
0.0
  0
INSERT
  5
12E
330
128
100
AcDbEntity
  8
化粧台
 62
     3
100
AcDbBlockReference
  2
EX_NORM
 10
755.0000000000002
 20
2805.0
 30
0.0
 41
44.99999618530273
 42
44.99999618530273
 43
44.99999618530273
 50
180.0
  0
INSERT
  5
12F
330
128
100
AcDbEntity
  8
化粧台
 62
     3
100
AcDbBlockReference
  2
EX_NORM
 10
1055.0
 20
2805.0
 30
0.0
 41
44.99999618530273
 42
44.99999618530273
 43
44.99999618530273
  0
MTEXT
  5
130
330
128
100
AcDbEntity
  8
化粧台
 62
     2
100
AcDbMText
 10
905.0000000000003
 20
2840.249999910593
 30
0.0
 40
59.99999618530273
 41
0.0
 71
     5
 72
     1
  1
300
  7
EXCADDIM1
  0
POINT
  5
131
330
128
100
AcDbEntity
  8
DEFPOINTS
 62
     0
100
AcDbPoint
 10
755.0000000000002
 20
2642.5
 30
0.0
  0
POINT
  5
132
330
128
100
AcDbEntity
  8
DEFPOINTS
 62
     0
100
AcDbPoint
 10
1055.0
 20
2642.5
 30
0.0
  0
POINT
  5
133
330
128
100
AcDbEntity
  8
DEFPOINTS
 62
     0
100
AcDbPoint
 10
1055.0
 20
2805.0
 30
0.0
  0
ENDBLK
  5
12A
330
128
100
AcDbEntity
  8
0
100
AcDbBlockEnd
  0
BLOCK
  5
136
330
135
100
AcDbEntity
  8
0
100
AcDbBlockBegin
  2
*D16
 70
     1
 10
0.0
 20
0.0
 30
0.0
  3
*D16
  1

  0
LINE
  5
138
330
135
100
AcDbEntity
  8
化粧台
  6
CONTINUOUS
 62
     3
100
AcDbLine
 10
605.0000000000002
 20
2747.999999821186
 30
0.0
 11
605.0000000000002
 21
2910.0
 31
0.0
  0
LINE
  5
139
330
135
100
AcDbEntity
  8
化粧台
  6
CONTINUOUS
 62
     3
100
AcDbLine
 10
1205.0
 20
2747.999999821186
 30
0.0
 11
1205.0
 21
2910.0
 31
0.0
  0
LINE
  5
13A
330
135
100
AcDbEntity
  8
化粧台
  6
CONTINUOUS
 62
     3
100
AcDbLine
 10
649.999996185303
 20
2895.0
 30
0.0
 11
1160.000003814697
 21
2895.0
 31
0.0
  0
INSERT
  5
13B
330
135
100
AcDbEntity
  8
化粧台
 62
     3
100
AcDbBlockReference
  2
EX_NORM
 10
605.0000000000002
 20
2895.0
 30
0.0
 41
44.99999618530273
 42
44.99999618530273
 43
44.99999618530273
 50
180.0
  0
INSERT
  5
13C
330
135
100
AcDbEntity
  8
化粧台
 62
     3
100
AcDbBlockReference
  2
EX_NORM
 10
1205.0
 20
2895.0
 30
0.0
 41
44.99999618530273
 42
44.99999618530273
 43
44.99999618530273
  0
MTEXT
  5
13D
330
135
100
AcDbEntity
  8
化粧台
 62
     2
100
AcDbMText
 10
905.0000000000003
 20
2930.249999910593
 30
0.0
 40
59.99999618530273
 41
0.0
 71
     5
 72
     1
  1
600
  7
EXCADDIM1
  0
POINT
  5
13E
330
135
100
AcDbEntity
  8
DEFPOINTS
 62
     0
100
AcDbPoint
 10
605.0000000000002
 20
2737.5
 30
0.0
  0
POINT
  5
13F
330
135
100
AcDbEntity
  8
DEFPOINTS
 62
     0
100
AcDbPoint
 10
1205.0
 20
2737.5
 30
0.0
  0
POINT
  5
140
330
135
100
AcDbEntity
  8
DEFPOINTS
 62
     0
100
AcDbPoint
 10
1205.0
 20
2895.0
 30
0.0
  0
ENDBLK
  5
137
330
135
100
AcDbEntity
  8
0
100
AcDbBlockEnd
  0
BLOCK
  5
143
330
142
100
AcDbEntity
  8
0
100
AcDbBlockBegin
  2
*D17
 70
     1
 10
0.0
 20
0.0
 30
0.0
  3
*D17
  1

  0
LINE
  5
145
330
142
100
AcDbEntity
  8
化粧台
  6
CONTINUOUS
 62
     3
100
AcDbLine
 10
1215.499999821186
 20
2737.5
 30
0.0
 11
1333.5
 21
2737.5
 31
0.0
  0
LINE
  5
146
330
142
100
AcDbEntity
  8
化粧台
  6
CONTINUOUS
 62
     3
100
AcDbLine
 10
1215.499999821186
 20
2137.5
 30
0.0
 11
1333.5
 21
2137.5
 31
0.0
  0
LINE
  5
147
330
142
100
AcDbEntity
  8
化粧台
  6
CONTINUOUS
 62
     3
100
AcDbLine
 10
1318.5
 20
2692.500003814697
 30
0.0
 11
1318.5
 21
2182.499996185303
 31
0.0
  0
INSERT
  5
148
330
142
100
AcDbEntity
  8
化粧台
 62
     3
100
AcDbBlockReference
  2
EX_NORM
 10
1318.5
 20
2737.5
 30
0.0
 41
44.99999618530273
 42
44.99999618530273
 43
44.99999618530273
 50
90.0
  0
INSERT
  5
149
330
142
100
AcDbEntity
  8
化粧台
 62
     3
100
AcDbBlockReference
  2
EX_NORM
 10
1318.5
 20
2137.5
 30
0.0
 41
44.99999618530273
 42
44.99999618530273
 43
44.99999618530273
 50
270.0
  0
MTEXT
  5
14A
330
142
100
AcDbEntity
  8
化粧台
 62
     2
100
AcDbMText
 10
1283.250000089407
 20
2437.5
 30
0.0
 40
59.99999618530273
 41
0.0
 71
     5
 72
     1
  1
600
  7
EXCADDIM1
 11
0.0
 21
1.0
 31
0.0
  0
POINT
  5
14B
330
142
100
AcDbEntity
  8
DEFPOINTS
 62
     0
100
AcDbPoint
 10
1205.0
 20
2737.5
 30
0.0
  0
POINT
  5
14C
330
142
100
AcDbEntity
  8
DEFPOINTS
 62
     0
100
AcDbPoint
 10
1205.0
 20
2137.5
 30
0.0
  0
POINT
  5
14D
330
142
100
AcDbEntity
  8
DEFPOINTS
 62
     0
100
AcDbPoint
 10
1318.5
 20
2137.5
 30
0.0
  0
ENDBLK
  5
144
330
142
100
AcDbEntity
  8
0
100
AcDbBlockEnd
  0
BLOCK
  5
50E
330
50D
100
AcDbEntity
  8
0
100
AcDbBlockBegin
  2
*D18
 70
     1
 10
0.0
 20
0.0
 30
0.0
  3
*D18
  1

  0
LINE
  5
510
330
50D
100
AcDbEntity
  8
寸法
  6
CONTINUOUS
 62
     3
100
AcDbLine
 10
630.0000000000002
 20
3399.000000178814
 30
0.0
 11
630.0000000000002
 21
3279.0
 31
0.0
  0
LINE
  5
511
330
50D
100
AcDbEntity
  8
寸法
  6
CONTINUOUS
 62
     3
100
AcDbLine
 10
1179.999999999998
 20
3399.000000178814
 30
0.0
 11
1179.999999999998
 21
3279.0
 31
0.0
  0
LINE
  5
512
330
50D
100
AcDbEntity
  8
寸法
  6
CONTINUOUS
 62
     3
100
AcDbLine
 10
674.999996185303
 20
3294.0
 30
0.0
 11
1135.000003814696
 21
3294.0
 31
0.0
  0
INSERT
  5
513
330
50D
100
AcDbEntity
  8
寸法
 62
     3
100
AcDbBlockReference
  2
EX_NORM
 10
630.0000000000002
 20
3294.0
 30
0.0
 41
44.99999618530273
 42
44.99999618530273
 43
44.99999618530273
 50
180.0
  0
INSERT
  5
514
330
50D
100
AcDbEntity
  8
寸法
 62
     3
100
AcDbBlockReference
  2
EX_NORM
 10
1179.999999999998
 20
3294.0
 30
0.0
 41
44.99999618530273
 42
44.99999618530273
 43
44.99999618530273
  0
MTEXT
  5
515
330
50D
100
AcDbEntity
  8
寸法
 62
     2
100
AcDbMText
 10
904.9999999999995
 20
3329.249999910593
 30
0.0
 40
59.99999618530273
 41
0.0
 71
     5
 72
     1
  1
550
  7
EXCADDIM1
  0
POINT
  5
516
330
50D
100
AcDbEntity
  8
DEFPOINTS
 62
     0
100
AcDbPoint
 10
630.0000000000002
 20
3409.5
 30
0.0
  0
POINT
  5
517
330
50D
100
AcDbEntity
  8
DEFPOINTS
 62
     0
100
AcDbPoint
 10
1179.999999999998
 20
3409.5
 30
0.0
  0
POINT
  5
518
330
50D
100
AcDbEntity
  8
DEFPOINTS
 62
     0
100
AcDbPoint
 10
1179.999999999998
 20
3294.0
 30
0.0
  0
ENDBLK
  5
50F
330
50D
100
AcDbEntity
  8
0
100
AcDbBlockEnd
  0
BLOCK
  5
51B
330
51A
100
AcDbEntity
  8
0
100
AcDbBlockBegin
  2
*D19
 70
     1
 10
0.0
 20
0.0
 30
0.0
  3
*D19
  1

  0
LINE
  5
51D
330
51A
100
AcDbEntity
  8
寸法
  6
CONTINUOUS
 62
     3
100
AcDbLine
 10
530.0000000000002
 20
3439.000000178814
 30
0.0
 11
530.0000000000002
 21
3183.0
 31
0.0
  0
LINE
  5
51E
330
51A
100
AcDbEntity
  8
寸法
  6
CONTINUOUS
 62
     3
100
AcDbLine
 10
1279.999999999998
 20
3439.000000178814
 30
0.0
 11
1279.999999999998
 21
3183.0
 31
0.0
  0
LINE
  5
51F
330
51A
100
AcDbEntity
  8
寸法
  6
CONTINUOUS
 62
     3
100
AcDbLine
 10
574.999996185303
 20
3198.0
 30
0.0
 11
1235.000003814696
 21
3198.0
 31
0.0
  0
INSERT
  5
520
330
51A
100
AcDbEntity
  8
寸法
 62
     3
100
AcDbBlockReference
  2
EX_NORM
 10
530.0000000000002
 20
3198.0
 30
0.0
 41
44.99999618530273
 42
44.99999618530273
 43
44.99999618530273
 50
180.0
  0
INSERT
  5
521
330
51A
100
AcDbEntity
  8
寸法
 62
     3
100
AcDbBlockReference
  2
EX_NORM
 10
1279.999999999998
 20
3198.0
 30
0.0
 41
44.99999618530273
 42
44.99999618530273
 43
44.99999618530273
  0
MTEXT
  5
522
330
51A
100
AcDbEntity
  8
寸法
 62
     2
100
AcDbMText
 10
904.9999999999995
 20
3233.249999910593
 30
0.0
 40
59.99999618530273
 41
0.0
 71
     5
 72
     1
  1
750
  7
EXCADDIM1
  0
POINT
  5
523
330
51A
100
AcDbEntity
  8
DEFPOINTS
 62
     0
100
AcDbPoint
 10
530.0000000000002
 20
3449.5
 30
0.0
  0
POINT
  5
524
330
51A
100
AcDbEntity
  8
DEFPOINTS
 62
     0
100
AcDbPoint
 10
1279.999999999998
 20
3449.5
 30
0.0
  0
POINT
  5
525
330
51A
100
AcDbEntity
  8
DEFPOINTS
 62
     0
100
AcDbPoint
 10
1279.999999999998
 20
3198.0
 30
0.0
  0
ENDBLK
  5
51C
330
51A
100
AcDbEntity
  8
0
100
AcDbBlockEnd
  0
BLOCK
  5
528
330
527
100
AcDbEntity
  8
0
100
AcDbBlockBegin
  2
*D20
 70
     1
 10
0.0
 20
0.0
 30
0.0
  3
*D20
  1

  0
LINE
  5
52A
330
527
100
AcDbEntity
  8
寸法
  6
CONTINUOUS
 62
     3
100
AcDbLine
 10
1290.499999821186
 20
3449.5
 30
0.0
 11
1400.999999999998
 21
3449.5
 31
0.0
  0
LINE
  5
52B
330
527
100
AcDbEntity
  8
寸法
  6
CONTINUOUS
 62
     3
100
AcDbLine
 10
1385.999999999998
 20
3854.500003814697
 30
0.0
 11
1385.999999999998
 21
3494.499996185303
 31
0.0
  0
INSERT
  5
52C
330
527
100
AcDbEntity
  8
寸法
 62
     3
100
AcDbBlockReference
  2
EX_NORM
 10
1385.999999999998
 20
3899.5
 30
0.0
 41
44.99999618530273
 42
44.99999618530273
 43
44.99999618530273
 50
90.0
  0
INSERT
  5
52D
330
527
100
AcDbEntity
  8
寸法
 62
     3
100
AcDbBlockReference
  2
EX_NORM
 10
1385.999999999998
 20
3449.5
 30
0.0
 41
44.99999618530273
 42
44.99999618530273
 43
44.99999618530273
 50
270.0
  0
MTEXT
  5
52E
330
527
100
AcDbEntity
  8
寸法
 62
     2
100
AcDbMText
 10
1350.750000089406
 20
3674.5
 30
0.0
 40
59.99999618530273
 41
0.0
 71
     5
 72
     1
  1
450
  7
EXCADDIM1
 11
0.0
 21
1.0
 31
0.0
  0
POINT
  5
52F
330
527
100
AcDbEntity
  8
DEFPOINTS
 62
     0
100
AcDbPoint
 10
1280.0
 20
3899.5
 30
0.0
  0
POINT
  5
530
330
527
100
AcDbEntity
  8
DEFPOINTS
 62
     0
100
AcDbPoint
 10
1280.0
 20
3449.5
 30
0.0
  0
POINT
  5
531
330
527
100
AcDbEntity
  8
DEFPOINTS
 62
     0
100
AcDbPoint
 10
1385.999999999998
 20
3449.5
 30
0.0
  0
ENDBLK
  5
529
330
527
100
AcDbEntity
  8
0
100
AcDbBlockEnd
  0
BLOCK
  5
534
330
533
100
AcDbEntity
  8
0
100
AcDbBlockBegin
  2
*D21
 70
     1
 10
0.0
 20
0.0
 30
0.0
  3
*D21
  1

  0
LINE
  5
536
330
533
100
AcDbEntity
  8
寸法
  6
CONTINUOUS
 62
     3
100
AcDbLine
 10
1180.499999821184
 20
3399.5
 30
0.0
 11
1486.499999999998
 21
3399.5
 31
0.0
  0
LINE
  5
537
330
533
100
AcDbEntity
  8
寸法
  6
CONTINUOUS
 62
     3
100
AcDbLine
 10
1471.499999999998
 20
3444.499996185303
 30
0.0
 11
1471.499999999998
 21
3854.500003814697
 31
0.0
  0
INSERT
  5
538
330
533
100
AcDbEntity
  8
寸法
 62
     3
100
AcDbBlockReference
  2
EX_NORM
 10
1471.499999999998
 20
3399.5
 30
0.0
 41
44.99999618530273
 42
44.99999618530273
 43
44.99999618530273
 50
270.0
  0
INSERT
  5
539
330
533
100
AcDbEntity
  8
寸法
 62
     3
100
AcDbBlockReference
  2
EX_NORM
 10
1471.499999999998
 20
3899.5
 30
0.0
 41
44.99999618530273
 42
44.99999618530273
 43
44.99999618530273
 50
90.0
  0
MTEXT
  5
53A
330
533
100
AcDbEntity
  8
寸法
 62
     2
100
AcDbMText
 10
1436.250000089406
 20
3649.5
 30
0.0
 40
59.99999618530273
 41
0.0
 71
     5
 72
     1
  1
500
  7
EXCADDIM1
 11
0.0
 21
1.0
 31
0.0
  0
POINT
  5
53B
330
533
100
AcDbEntity
  8
DEFPOINTS
 62
     0
100
AcDbPoint
 10
1169.999999999998
 20
3399.5
 30
0.0
  0
POINT
  5
53C
330
533
100
AcDbEntity
  8
DEFPOINTS
 62
     0
100
AcDbPoint
 10
1279.999999999998
 20
3899.5
 30
0.0
  0
POINT
  5
53D
330
533
100
AcDbEntity
  8
DEFPOINTS
 62
     0
100
AcDbPoint
 10
1471.499999999998
 20
3899.5
 30
0.0
  0
ENDBLK
  5
535
330
533
100
AcDbEntity
  8
0
100
AcDbBlockEnd
  0
BLOCK
  5
540
330
53F
100
AcDbEntity
  8
0
100
AcDbBlockBegin
  2
*D22
 70
     1
 10
0.0
 20
0.0
 30
0.0
  3
*D22
  1

  0
LINE
  5
542
330
53F
100
AcDbEntity
  8
寸法
  6
CONTINUOUS
 62
     3
100
AcDbLine
 10
1290.499999821184
 20
1686.5
 30
0.0
 11
1400.999999999998
 21
1686.5
 31
0.0
  0
LINE
  5
543
330
53F
100
AcDbEntity
  8
寸法
  6
CONTINUOUS
 62
     3
100
AcDbLine
 10
1385.999999999998
 20
1032.499996185303
 30
0.0
 11
1385.999999999998
 21
1641.500003814697
 31
0.0
  0
INSERT
  5
544
330
53F
100
AcDbEntity
  8
寸法
 62
     3
100
AcDbBlockReference
  2
EX_NORM
 10
1385.999999999998
 20
987.5000000000001
 30
0.0
 41
44.99999618530273
 42
44.99999618530273
 43
44.99999618530273
 50
270.0
  0
INSERT
  5
545
330
53F
100
AcDbEntity
  8
寸法
 62
     3
100
AcDbBlockReference
  2
EX_NORM
 10
1385.999999999998
 20
1686.5
 30
0.0
 41
44.99999618530273
 42
44.99999618530273
 43
44.99999618530273
 50
90.0
  0
MTEXT
  5
546
330
53F
100
AcDbEntity
  8
寸法
 62
     2
100
AcDbMText
 10
1350.750000089405
 20
1337.0
 30
0.0
 40
59.99999618530273
 41
0.0
 71
     5
 72
     1
  1
699
  7
EXCADDIM1
 11
0.0
 21
1.0
 31
0.0
  0
POINT
  5
547
330
53F
100
AcDbEntity
  8
DEFPOINTS
 62
     0
100
AcDbPoint
 10
1277.999999999998
 20
987.5
 30
0.0
  0
POINT
  5
548
330
53F
100
AcDbEntity
  8
DEFPOINTS
 62
     0
100
AcDbPoint
 10
1279.999999999998
 20
1686.5
 30
0.0
  0
POINT
  5
549
330
53F
100
AcDbEntity
  8
DEFPOINTS
 62
     0
100
AcDbPoint
 10
1385.999999999998
 20
1686.5
 30
0.0
  0
ENDBLK
  5
541
330
53F
100
AcDbEntity
  8
0
100
AcDbBlockEnd
  0
BLOCK
  5
54C
330
54B
100
AcDbEntity
  8
0
100
AcDbBlockBegin
  2
*D23
 70
     1
 10
0.0
 20
0.0
 30
0.0
  3
*D23
  1

  0
LINE
  5
54E
330
54B
100
AcDbEntity
  8
寸法
  6
CONTINUOUS
 62
     3
100
AcDbLine
 10
1185.499999821184
 20
1826.5
 30
0.0
 11
1490.999999999998
 21
1826.5
 31
0.0
  0
LINE
  5
54F
330
54B
100
AcDbEntity
  8
寸法
  6
CONTINUOUS
 62
     3
100
AcDbLine
 10
1475.999999999998
 20
1032.499996185303
 30
0.0
 11
1475.999999999998
 21
1781.500003814697
 31
0.0
  0
INSERT
  5
550
330
54B
100
AcDbEntity
  8
寸法
 62
     3
100
AcDbBlockReference
  2
EX_NORM
 10
1475.999999999998
 20
987.5000000000001
 30
0.0
 41
44.99999618530273
 42
44.99999618530273
 43
44.99999618530273
 50
270.0
  0
INSERT
  5
551
330
54B
100
AcDbEntity
  8
寸法
 62
     3
100
AcDbBlockReference
  2
EX_NORM
 10
1475.999999999998
 20
1826.5
 30
0.0
 41
44.99999618530273
 42
44.99999618530273
 43
44.99999618530273
 50
90.0
  0
MTEXT
  5
552
330
54B
100
AcDbEntity
  8
寸法
 62
     2
100
AcDbMText
 10
1440.750000089405
 20
1407.0
 30
0.0
 40
59.99999618530273
 41
0.0
 71
     5
 72
     1
  1
839
  7
EXCADDIM1
 11
0.0
 21
1.0
 31
0.0
  0
POINT
  5
553
330
54B
100
AcDbEntity
  8
DEFPOINTS
 62
     0
100
AcDbPoint
 10
1277.999999999998
 20
987.5
 30
0.0
  0
POINT
  5
554
330
54B
100
AcDbEntity
  8
DEFPOINTS
 62
     0
100
AcDbPoint
 10
1174.999999999998
 20
1826.5
 30
0.0
  0
POINT
  5
555
330
54B
100
AcDbEntity
  8
DEFPOINTS
 62
     0
100
AcDbPoint
 10
1475.999999999998
 20
1826.5
 30
0.0
  0
ENDBLK
  5
54D
330
54B
100
AcDbEntity
  8
0
100
AcDbBlockEnd
  0
BLOCK
  5
558
330
557
100
AcDbEntity
  8
0
100
AcDbBlockBegin
  2
*D24
 70
     1
 10
0.0
 20
0.0
 30
0.0
  3
*D24
  1

  0
LINE
  5
55A
330
557
100
AcDbEntity
  8
寸法
  6
CONTINUOUS
 62
     3
100
AcDbLine
 10
1215.499999821184
 20
2737.5
 30
0.0
 11
1580.999999999998
 21
2737.5
 31
0.0
  0
LINE
  5
55B
330
557
100
AcDbEntity
  8
寸法
  6
CONTINUOUS
 62
     3
100
AcDbLine
 10
1565.999999999998
 20
1032.499996185303
 30
0.0
 11
1565.999999999998
 21
2692.500003814697
 31
0.0
  0
INSERT
  5
55C
330
557
100
AcDbEntity
  8
寸法
 62
     3
100
AcDbBlockReference
  2
EX_NORM
 10
1565.999999999998
 20
987.5
 30
0.0
 41
44.99999618530273
 42
44.99999618530273
 43
44.99999618530273
 50
270.0
  0
INSERT
  5
55D
330
557
100
AcDbEntity
  8
寸法
 62
     3
100
AcDbBlockReference
  2
EX_NORM
 10
1565.999999999998
 20
2737.5
 30
0.0
 41
44.99999618530273
 42
44.99999618530273
 43
44.99999618530273
 50
90.0
  0
MTEXT
  5
55E
330
557
100
AcDbEntity
  8
寸法
 62
     2
100
AcDbMText
 10
1530.750000089406
 20
1862.5
 30
0.0
 40
59.99999618530273
 41
0.0
 71
     5
 72
     1
  1
（1750）
  7
EXCADDIM1
 11
0.0
 21
1.0
 31
0.0
  0
POINT
  5
55F
330
557
100
AcDbEntity
  8
DEFPOINTS
 62
     0
100
AcDbPoint
 10
1277.999999999998
 20
987.5
 30
0.0
  0
POINT
  5
560
330
557
100
AcDbEntity
  8
DEFPOINTS
 62
     0
100
AcDbPoint
 10
1204.999999999998
 20
2737.5
 30
0.0
  0
POINT
  5
561
330
557
100
AcDbEntity
  8
DEFPOINTS
 62
     0
100
AcDbPoint
 10
1565.999999999998
 20
2737.5
 30
0.0
  0
ENDBLK
  5
559
330
557
100
AcDbEntity
  8
0
100
AcDbBlockEnd
  0
BLOCK
  5
57F
330
57E
100
AcDbEntity
  8
0
100
AcDbBlockBegin
  2
*D25
 70
     1
 10
0.0
 20
0.0
 30
0.0
  3
*D25
  1

  0
LINE
  5
581
330
57E
100
AcDbEntity
  8
寸法
  6
CONTINUOUS
 62
     3
100
AcDbLine
 10
2110.0
 20
977.0000001788138
 30
0.0
 11
2110.0
 21
636.0
 31
0.0
  0
LINE
  5
582
330
57E
100
AcDbEntity
  8
寸法
  6
CONTINUOUS
 62
     3
100
AcDbLine
 10
2535.0
 20
977.0000001788138
 30
0.0
 11
2535.0
 21
636.0
 31
0.0
  0
LINE
  5
583
330
57E
100
AcDbEntity
  8
寸法
  6
CONTINUOUS
 62
     3
100
AcDbLine
 10
2154.999996185303
 20
651.0
 30
0.0
 11
2490.000003814698
 21
651.0
 31
0.0
  0
INSERT
  5
584
330
57E
100
AcDbEntity
  8
寸法
 62
     3
100
AcDbBlockReference
  2
EX_NORM
 10
2110.0
 20
651.0
 30
0.0
 41
44.99999618530273
 42
44.99999618530273
 43
44.99999618530273
 50
180.0
  0
INSERT
  5
585
330
57E
100
AcDbEntity
  8
寸法
 62
     3
100
AcDbBlockReference
  2
EX_NORM
 10
2535.0
 20
651.0
 30
0.0
 41
44.99999618530273
 42
44.99999618530273
 43
44.99999618530273
  0
MTEXT
  5
586
330
57E
100
AcDbEntity
  8
寸法
 62
     2
100
AcDbMText
 10
2322.5
 20
686.249999910593
 30
0.0
 40
59.99999618530273
 41
0.0
 71
     5
 72
     1
  1
425
  7
EXCADDIM1
  0
POINT
  5
587
330
57E
100
AcDbEntity
  8
DEFPOINTS
 62
     0
100
AcDbPoint
 10
2110.0
 20
987.5
 30
0.0
  0
POINT
  5
588
330
57E
100
AcDbEntity
  8
DEFPOINTS
 62
     0
100
AcDbPoint
 10
2535.0
 20
987.5
 30
0.0
  0
POINT
  5
589
330
57E
100
AcDbEntity
  8
DEFPOINTS
 62
     0
100
AcDbPoint
 10
2535.0
 20
651.0
 30
0.0
  0
ENDBLK
  5
580
330
57E
100
AcDbEntity
  8
0
100
AcDbBlockEnd
  0
BLOCK
  5
595
330
594
100
AcDbEntity
  8
0
100
AcDbBlockBegin
  2
*D26
 70
     1
 10
0.0
 20
0.0
 30
0.0
  3
*D26
  1

  0
LINE
  5
597
330
594
100
AcDbEntity
  8
寸法
  6
CONTINUOUS
 62
     3
100
AcDbLine
 10
905.0000000000002
 20
964.9999999999999
 30
0.0
 11
905.0000000000002
 21
645.0
 31
0.0
  0
LINE
  5
598
330
594
100
AcDbEntity
  8
寸法
  6
CONTINUOUS
 62
     3
100
AcDbLine
 10
1104.999999999998
 20
964.9999999999999
 30
0.0
 11
1104.999999999998
 21
645.0
 31
0.0
  0
LINE
  5
599
330
594
100
AcDbEntity
  8
寸法
  6
CONTINUOUS
 62
     3
100
AcDbLine
 10
949.999996185303
 20
660.0
 30
0.0
 11
1060.000003814696
 21
660.0
 31
0.0
  0
INSERT
  5
59A
330
594
100
AcDbEntity
  8
寸法
 62
     3
100
AcDbBlockReference
  2
EX_NORM
 10
905.0000000000002
 20
660.0
 30
0.0
 41
44.99999618530273
 42
44.99999618530273
 43
44.99999618530273
 50
180.0
  0
INSERT
  5
59B
330
594
100
AcDbEntity
  8
寸法
 62
     3
100
AcDbBlockReference
  2
EX_NORM
 10
1104.999999999998
 20
660.0
 30
0.0
 41
44.99999618530273
 42
44.99999618530273
 43
44.99999618530273
  0
MTEXT
  5
59C
330
594
100
AcDbEntity
  8
寸法
 62
     2
100
AcDbMText
 10
672.5000000000003
 20
695.249999910593
 30
0.0
 40
59.99999618530273
 41
0.0
 71
     5
 72
     1
  1
200（壁排水）
  7
EXCADDIM1
  0
POINT
  5
59D
330
594
100
AcDbEntity
  8
DEFPOINTS
 62
     0
100
AcDbPoint
 10
905.0000000000002
 20
972.4999999999999
 30
0.0
  0
POINT
  5
59E
330
594
100
AcDbEntity
  8
DEFPOINTS
 62
     0
100
AcDbPoint
 10
1104.999999999998
 20
972.4999999999999
 30
0.0
  0
POINT
  5
59F
330
594
100
AcDbEntity
  8
DEFPOINTS
 62
     0
100
AcDbPoint
 10
1104.999999999998
 20
660.0
 30
0.0
  0
ENDBLK
  5
596
330
594
100
AcDbEntity
  8
0
100
AcDbBlockEnd
  0
BLOCK
  5
5A2
330
5A1
100
AcDbEntity
  8
0
100
AcDbBlockBegin
  2
*D27
 70
     1
 10
0.0
 20
0.0
 30
0.0
  3
*D27
  1

  0
LINE
  5
5A4
330
5A1
100
AcDbEntity
  8
寸法
  6
CONTINUOUS
 62
     3
100
AcDbLine
 10
2572.5
 20
1417.5
 30
0.0
 11
2716.5
 21
1417.5
 31
0.0
  0
LINE
  5
5A5
330
5A1
100
AcDbEntity
  8
寸法
  6
CONTINUOUS
 62
     3
100
AcDbLine
 10
2701.5
 20
1372.500003814697
 30
0.0
 11
2701.5
 21
1032.499996185303
 31
0.0
  0
INSERT
  5
5A6
330
5A1
100
AcDbEntity
  8
寸法
 62
     3
100
AcDbBlockReference
  2
EX_NORM
 10
2701.5
 20
1417.5
 30
0.0
 41
44.99999618530273
 42
44.99999618530273
 43
44.99999618530273
 50
90.0
  0
INSERT
  5
5A7
330
5A1
100
AcDbEntity
  8
寸法
 62
     3
100
AcDbBlockReference
  2
EX_NORM
 10
2701.5
 20
987.5
 30
0.0
 41
44.99999618530273
 42
44.99999618530273
 43
44.99999618530273
 50
270.0
  0
MTEXT
  5
5A8
330
5A1
100
AcDbEntity
  8
寸法
 62
     2
100
AcDbMText
 10
2666.250000089407
 20
1202.5
 30
0.0
 40
59.99999618530273
 41
0.0
 71
     5
 72
     1
  1
430（壁排水）
  7
EXCADDIM1
 11
0.0
 21
1.0
 31
0.0
  0
POINT
  5
5A9
330
5A1
100
AcDbEntity
  8
DEFPOINTS
 62
     0
100
AcDbPoint
 10
2565.0
 20
1417.5
 30
0.0
  0
POINT
  5
5AA
330
5A1
100
AcDbEntity
  8
DEFPOINTS
 62
     0
100
AcDbPoint
 10
2701.5
 20
987.5
 30
0.0
  0
POINT
  5
5AB
330
5A1
100
AcDbEntity
  8
DEFPOINTS
 62
     0
100
AcDbPoint
 10
2701.5
 20
987.5
 30
0.0
  0
ENDBLK
  5
5A3
330
5A1
100
AcDbEntity
  8
0
100
AcDbBlockEnd
  0
BLOCK
  5
5C3
330
5C2
100
AcDbEntity
  8
0
100
AcDbBlockBegin
  2
*D28
 70
     1
 10
0.0
 20
0.0
 30
0.0
  3
*D28
  1

  0
LINE
  5
5C5
330
5C2
100
AcDbEntity
  8
寸法
  6
CONTINUOUS
 62
     3
100
AcDbLine
 10
2492.600000000001
 20
2709.199999821186
 30
0.0
 11
2492.600000000001
 21
2829.0
 31
0.0
  0
LINE
  5
5C6
330
5C2
100
AcDbEntity
  8
寸法
  6
CONTINUOUS
 62
     3
100
AcDbLine
 10
2492.600000000001
 20
2814.0
 30
0.0
 11
2535.0
 21
2814.0
 31
0.0
  0
LINE
  5
5C7
330
5C2
100
AcDbEntity
  8
寸法
  6
CONTINUOUS
 62
     3
100
AcDbLine
 10
2447.600003814698
 20
2814.0
 30
0.0
 11
2402.600007629395
 21
2814.0
 31
0.0
  0
LINE
  5
5C8
330
5C2
100
AcDbEntity
  8
寸法
  6
CONTINUOUS
 62
     3
100
AcDbLine
 10
2579.999996185303
 20
2814.0
 30
0.0
 11
2624.999992370606
 21
2814.0
 31
0.0
  0
INSERT
  5
5C9
330
5C2
100
AcDbEntity
  8
寸法
 62
     3
100
AcDbBlockReference
  2
EX_NORM
 10
2492.600000000001
 20
2814.0
 30
0.0
 41
44.99999618530273
 42
44.99999618530273
 43
44.99999618530273
  0
INSERT
  5
5CA
330
5C2
100
AcDbEntity
  8
寸法
 62
     3
100
AcDbBlockReference
  2
EX_NORM
 10
2535.0
 20
2814.0
 30
0.0
 41
44.99999618530273
 42
44.99999618530273
 43
44.99999618530273
 50
180.0
  0
MTEXT
  5
5CB
330
5C2
100
AcDbEntity
  8
寸法
 62
     2
100
AcDbMText
 10
2632.5
 20
2849.249999910593
 30
0.0
 40
59.99999618530273
 41
0.0
 71
     5
 72
     1
  1
43
  7
EXCADDIM1
  0
POINT
  5
5CC
330
5C2
100
AcDbEntity
  8
DEFPOINTS
 62
     0
100
AcDbPoint
 10
2492.600000000001
 20
2698.7
 30
0.0
  0
POINT
  5
5CD
330
5C2
100
AcDbEntity
  8
DEFPOINTS
 62
     0
100
AcDbPoint
 10
2535.0
 20
2701.5192378864
 30
0.0
  0
POINT
  5
5CE
330
5C2
100
AcDbEntity
  8
DEFPOINTS
 62
     0
100
AcDbPoint
 10
2535.0
 20
2814.0
 30
0.0
  0
ENDBLK
  5
5C4
330
5C2
100
AcDbEntity
  8
0
100
AcDbBlockEnd
  0
BLOCK
  5
5D1
330
5D0
100
AcDbEntity
  8
0
100
AcDbBlockBegin
  2
*D29
 70
     1
 10
0.0
 20
0.0
 30
0.0
  3
*D29
  1

  0
LINE
  5
5D3
330
5D0
100
AcDbEntity
  8
寸法
  6
CONTINUOUS
 62
     3
100
AcDbLine
 10
2577.999999821187
 20
2157.5
 30
0.0
 11
2898.0
 21
2157.5
 31
0.0
  0
LINE
  5
5D4
330
5D0
100
AcDbEntity
  8
寸法
  6
CONTINUOUS
 62
     3
100
AcDbLine
 10
2577.999999821187
 20
2642.5
 30
0.0
 11
2898.0
 21
2642.5
 31
0.0
  0
LINE
  5
5D5
330
5D0
100
AcDbEntity
  8
寸法
  6
CONTINUOUS
 62
     3
100
AcDbLine
 10
2883.0
 20
2202.499996185303
 30
0.0
 11
2883.0
 21
2597.500003814697
 31
0.0
  0
INSERT
  5
5D6
330
5D0
100
AcDbEntity
  8
寸法
 62
     3
100
AcDbBlockReference
  2
EX_NORM
 10
2883.0
 20
2157.5
 30
0.0
 41
44.99999618530273
 42
44.99999618530273
 43
44.99999618530273
 50
270.0
  0
INSERT
  5
5D7
330
5D0
100
AcDbEntity
  8
寸法
 62
     3
100
AcDbBlockReference
  2
EX_NORM
 10
2883.0
 20
2642.5
 30
0.0
 41
44.99999618530273
 42
44.99999618530273
 43
44.99999618530273
 50
90.0
  0
MTEXT
  5
5D8
330
5D0
100
AcDbEntity
  8
寸法
 62
     2
100
AcDbMText
 10
2847.750000089407
 20
2399.999999999998
 30
0.0
 40
59.99999618530273
 41
0.0
 71
     5
 72
     1
  1
485（壁固定）
  7
EXCADDIM1
 11
0.0
 21
1.0
 31
0.0
  0
POINT
  5
5D9
330
5D0
100
AcDbEntity
  8
DEFPOINTS
 62
     0
100
AcDbPoint
 10
2567.5
 20
2157.5
 30
0.0
  0
POINT
  5
5DA
330
5D0
100
AcDbEntity
  8
DEFPOINTS
 62
     0
100
AcDbPoint
 10
2567.5
 20
2642.5
 30
0.0
  0
POINT
  5
5DB
330
5D0
100
AcDbEntity
  8
DEFPOINTS
 62
     0
100
AcDbPoint
 10
2883.0
 20
2642.5
 30
0.0
  0
ENDBLK
  5
5D2
330
5D0
100
AcDbEntity
  8
0
100
AcDbBlockEnd
  0
BLOCK
  5
5DE
330
5DD
100
AcDbEntity
  8
0
100
AcDbBlockBegin
  2
*D30
 70
     1
 10
0.0
 20
0.0
 30
0.0
  3
*D30
  1

  0
LINE
  5
5E0
330
5DD
100
AcDbEntity
  8
寸法
  6
CONTINUOUS
 62
     3
100
AcDbLine
 10
2680.0
 20
2157.5
 30
0.0
 11
2898.0
 21
2157.5
 31
0.0
  0
LINE
  5
5E1
330
5DD
100
AcDbEntity
  8
寸法
  6
CONTINUOUS
 62
     3
100
AcDbLine
 10
2799.0
 20
987.5
 30
0.0
 11
2898.0
 21
987.5
 31
0.0
  0
LINE
  5
5E2
330
5DD
100
AcDbEntity
  8
寸法
  6
CONTINUOUS
 62
     3
100
AcDbLine
 10
2883.0
 20
2112.500003814697
 30
0.0
 11
2883.0
 21
1032.499996185303
 31
0.0
  0
INSERT
  5
5E3
330
5DD
100
AcDbEntity
  8
寸法
 62
     3
100
AcDbBlockReference
  2
EX_NORM
 10
2883.0
 20
2157.5
 30
0.0
 41
44.99999618530273
 42
44.99999618530273
 43
44.99999618530273
 50
90.0
  0
INSERT
  5
5E4
330
5DD
100
AcDbEntity
  8
寸法
 62
     3
100
AcDbBlockReference
  2
EX_NORM
 10
2883.0
 20
987.5
 30
0.0
 41
44.99999618530273
 42
44.99999618530273
 43
44.99999618530273
 50
270.0
  0
MTEXT
  5
5E5
330
5DD
100
AcDbEntity
  8
寸法
 62
     2
100
AcDbMText
 10
2847.750000089407
 20
1572.5
 30
0.0
 40
59.99999618530273
 41
0.0
 71
     5
 72
     1
  1
（1170）
  7
EXCADDIM1
 11
0.0
 21
1.0
 31
0.0
  0
POINT
  5
5E6
330
5DD
100
AcDbEntity
  8
DEFPOINTS
 62
     0
100
AcDbPoint
 10
2672.5
 20
2157.5
 30
0.0
  0
POINT
  5
5E7
330
5DD
100
AcDbEntity
  8
DEFPOINTS
 62
     0
100
AcDbPoint
 10
2791.5
 20
987.5
 30
0.0
  0
POINT
  5
5E8
330
5DD
100
AcDbEntity
  8
DEFPOINTS
 62
     0
100
AcDbPoint
 10
2883.0
 20
987.5
 30
0.0
  0
ENDBLK
  5
5DF
330
5DD
100
AcDbEntity
  8
0
100
AcDbBlockEnd
  0
ENDSEC
  0
SECTION
  2
ENTITIES
  0
LINE
  5
A9
330
1F
100
AcDbEntity
  8
枠_表
  6
CONTINUOUS
 62
     7
100
AcDbLine
 10
17.00000000000002
 20
10.5
 30
0.0
 11
199.0
 21
10.5
 31
0.0
  0
LINE
  5
AA
330
1F
100
AcDbEntity
  8
枠_表
  6
CONTINUOUS
 62
     7
100
AcDbLine
 10
199.0
 20
10.5
 30
0.0
 11
199.0
 21
285.5
 31
0.0
  0
LINE
  5
AB
330
1F
100
AcDbEntity
  8
枠_表
  6
CONTINUOUS
 62
     7
100
AcDbLine
 10
17.00000000000002
 20
10.5
 30
0.0
 11
17.00000000000002
 21
285.5
 31
0.0
  0
LINE
  5
AC
330
1F
100
AcDbEntity
  8
枠_表
  6
CONTINUOUS
 62
     7
100
AcDbLine
 10
17.00000000000002
 20
285.5
 30
0.0
 11
199.0
 21
285.5
 31
0.0
  0
LINE
  5
AD
330
1F
100
AcDbEntity
  8
枠_表
  6
CONTINUOUS
 62
     7
100
AcDbLine
 10
17.00000000000002
 20
32.5
 30
0.0
 11
199.0
 21
32.5
 31
0.0
  0
LINE
  5
AE
330
1F
100
AcDbEntity
  8
枠_表
  6
CONTINUOUS
 62
     6
100
AcDbLine
 10
199.0
 20
20.5
 30
0.0
 11
73.9999999999999
 21
20.5
 31
0.0
  0
LINE
  5
AF
330
1F
100
AcDbEntity
  8
枠_表
  6
CONTINUOUS
 62
     6
100
AcDbLine
 10
185.0
 20
32.5
 30
0.0
 11
185.0
 21
20.5
 31
0.0
  0
LINE
  5
B0
330
1F
100
AcDbEntity
  8
枠_表
  6
CONTINUOUS
 62
     6
100
AcDbLine
 10
180.0
 20
32.5
 30
0.0
 11
180.0
 21
20.5
 31
0.0
  0
LINE
  5
B1
330
1F
100
AcDbEntity
  8
枠_表
  6
CONTINUOUS
 62
     6
100
AcDbLine
 10
143.0
 20
32.5
 30
0.0
 11
143.0
 21
10.5
 31
0.0
  0
LINE
  5
B2
330
1F
100
AcDbEntity
  8
枠_表
  6
CONTINUOUS
 62
     6
100
AcDbLine
 10
138.0
 20
32.5
 30
0.0
 11
138.0
 21
10.5
 31
0.0
  0
LINE
  5
B3
330
1F
100
AcDbEntity
  8
枠_表
  6
CONTINUOUS
 62
     6
100
AcDbLine
 10
78.9999999999999
 20
32.5
 30
0.0
 11
78.9999999999999
 21
20.5
 31
0.0
  0
LINE
  5
B4
330
1F
100
AcDbEntity
  8
枠_表
  6
CONTINUOUS
 62
     6
100
AcDbLine
 10
73.9999999999999
 20
32.5
 30
0.0
 11
73.9999999999999
 21
10.5
 31
0.0
  0
LINE
  5
B5
330
1F
100
AcDbEntity
  8
枠_表
  6
CONTINUOUS
 62
     6
100
AcDbLine
 10
60.9999999999999
 20
32.5
 30
0.0
 11
60.9999999999999
 21
10.5
 31
0.0
  0
LINE
  5
B6
330
1F
100
AcDbEntity
  8
枠_表
  6
CONTINUOUS
 62
     6
100
AcDbLine
 10
47.9999999999999
 20
32.5
 30
0.0
 11
47.9999999999999
 21
10.5
 31
0.0
  0
LINE
  5
B7
330
1F
100
AcDbEntity
  8
枠_表
  6
CONTINUOUS
 62
     6
100
AcDbLine
 10
32.50000000000001
 20
32.5
 30
0.0
 11
32.50000000000001
 21
10.5
 31
0.0
  0
LINE
  5
B8
330
1F
100
AcDbEntity
  8
枠_表
  6
CONTINUOUS
 62
     6
100
AcDbLine
 10
17.00000000000002
 20
27.5
 30
0.0
 11
73.9999999999999
 21
27.5
 31
0.0
  0
LINE
  5
B9
330
1F
100
AcDbEntity
  8
枠_表
  6
CONTINUOUS
 62
     6
100
AcDbLine
 10
188.26538086
 20
22.80029296999999
 30
0.0
 11
195.99938965
 21
30.66998290999999
 31
0.0
  0
CIRCLE
  5
BA
330
1F
100
AcDbEntity
  8
枠_表
  6
CONTINUOUS
 62
     6
100
AcDbCircle
 10
22.00000000000002
 20
13.0
 30
0.0
 40
0.10000002
  0
CIRCLE
  5
BB
330
1F
100
AcDbEntity
  8
枠_表
  6
CONTINUOUS
 62
     6
100
AcDbCircle
 10
27.00000000000002
 20
13.0
 30
0.0
 40
0.10000002
  0
CIRCLE
  5
BC
330
1F
100
AcDbEntity
  8
枠_表
  6
CONTINUOUS
 62
     6
100
AcDbCircle
 10
37.50000000000001
 20
13.0
 30
0.0
 40
0.10000002
  0
CIRCLE
  5
BD
330
1F
100
AcDbEntity
  8
枠_表
  6
CONTINUOUS
 62
     6
100
AcDbCircle
 10
42.50000000000001
 20
13.0
 30
0.0
 40
0.10000002
  0
LINE
  5
BE
330
1F
100
AcDbEntity
  8
枠_表
  6
CONTINUOUS
 62
     6
100
AcDbLine
 10
123.9999999999999
 20
280.5
 30
0.0
 11
194.0
 21
280.5
 31
0.0
  0
LINE
  5
BF
330
1F
100
AcDbEntity
  8
枠_表
  6
CONTINUOUS
 62
     6
100
AcDbLine
 10
123.9999999999999
 20
275.0
 30
0.0
 11
194.0
 21
275.0
 31
0.0
  0
LINE
  5
C0
330
1F
100
AcDbEntity
  8
枠_表
  6
CONTINUOUS
 62
     6
100
AcDbLine
 10
123.9999999999999
 20
269.5
 30
0.0
 11
194.0
 21
269.5
 31
0.0
  0
LINE
  5
C1
330
1F
100
AcDbEntity
  8
枠_表
  6
CONTINUOUS
 62
     6
100
AcDbLine
 10
123.9999999999999
 20
264.0
 30
0.0
 11
194.0
 21
264.0
 31
0.0
  0
LINE
  5
C2
330
1F
100
AcDbEntity
  8
枠_表
  6
CONTINUOUS
 62
     6
100
AcDbLine
 10
123.9999999999999
 20
258.5
 30
0.0
 11
194.0
 21
258.5
 31
0.0
  0
LINE
  5
C3
330
1F
100
AcDbEntity
  8
枠_表
  6
EXLTYPE2
 62
     6
100
AcDbLine
 10
17.00000000000002
 20
15.5
 30
0.0
 11
47.9999999999999
 21
15.5
 31
0.0
  0
TEXT
  5
C4
330
1F
100
AcDbEntity
  8
枠_表
  6
CONTINUOUS
 62
     2
100
AcDbText
 10
188.05371094
 20
27.27227783000001
 30
0.0
 40
3.0
  1
１
 41
1.101333351135257
  7
EXCADSTD
 72
     5
 11
190.413710978147
 21
27.27227783000001
 31
0.0
100
AcDbText
  0
TEXT
  5
C5
330
1F
100
AcDbEntity
  8
枠_表
  6
CONTINUOUS
 62
     2
100
AcDbText
 10
192.12792969
 20
22.83488463999998
 30
0.0
 40
3.0
  1
１５
 41
1.098531230663528
  7
EXCADSTD
 72
     5
 11
197.3067197774138
 21
22.83488463999998
 31
0.0
100
AcDbText
  0
TEXT
  5
C6
330
1F
100
AcDbEntity
  8
枠_表
  6
CONTINUOUS
 62
     2
100
AcDbText
 10
19.25000000000002
 20
27.875
 30
0.0
 40
4.25
  1
製図
 41
1.509694117647059
  7
EXCADSTD
 72
     5
 11
29.33260000000002
 21
27.875
 31
0.0
100
AcDbText
  0
TEXT
  5
C7
330
1F
100
AcDbEntity
  8
枠_表
  6
CONTINUOUS
 62
     2
100
AcDbText
 10
34.75000000000001
 20
27.875
 30
0.0
 40
4.25
  1
写図
 41
1.509694117647059
  7
EXCADSTD
 72
     5
 11
44.83260000000001
 21
27.875
 31
0.0
100
AcDbText
  0
TEXT
  5
C8
330
1F
100
AcDbEntity
  8
枠_表
  6
CONTINUOUS
 62
     2
100
AcDbText
 10
49.7499999999999
 20
27.875
 30
0.0
 40
4.25
  1
検図
 41
1.303826737967915
  7
EXCADSTD
 72
     5
 11
58.4576999999999
 21
27.875
 31
0.0
100
AcDbText
  0
TEXT
  5
C9
330
1F
100
AcDbEntity
  8
枠_表
  6
CONTINUOUS
 62
     2
100
AcDbText
 10
62.7499999999999
 20
27.875
 30
0.0
 40
4.25
  1
承認
 41
1.303826737967915
  7
EXCADSTD
 72
     5
 11
71.4576999999999
 21
27.875
 31
0.0
100
AcDbText
  0
TEXT
  5
CA
330
1F
100
AcDbEntity
  8
枠_表
  6
CONTINUOUS
 62
     2
100
AcDbText
 10
74.57499999999983
 20
26.875
 30
0.0
 40
4.25
  1
品
 41
1.120000000000002
  7
EXCADSTD
 72
     5
 11
77.97499999999984
 21
26.875
 31
0.0
100
AcDbText
  0
TEXT
  5
CB
330
1F
100
AcDbEntity
  8
枠_表
  6
CONTINUOUS
 62
     2
100
AcDbText
 10
74.57499999999983
 20
21.875
 30
0.0
 40
4.25
  1
名
 41
1.120000000000002
  7
EXCADSTD
 72
     5
 11
77.97499999999984
 21
21.875
 31
0.0
100
AcDbText
  0
TEXT
  5
CC
330
1F
100
AcDbEntity
  8
枠_表
  6
CONTINUOUS
 62
     2
100
AcDbText
 10
138.575
 20
26.875
 30
0.0
 40
4.25
  1
品
 41
1.120000000000002
  7
EXCADSTD
 72
     5
 11
141.975
 21
26.875
 31
0.0
100
AcDbText
  0
TEXT
  5
CD
330
1F
100
AcDbEntity
  8
枠_表
  6
CONTINUOUS
 62
     2
100
AcDbText
 10
138.575
 20
21.875
 30
0.0
 40
4.25
  1
番
 41
1.120000000000002
  7
EXCADSTD
 72
     5
 11
141.975
 21
21.875
 31
0.0
100
AcDbText
  0
TEXT
  5
CE
330
1F
100
AcDbEntity
  8
枠_表
  6
CONTINUOUS
 62
     2
100
AcDbText
 10
180.675
 20
26.875
 30
0.0
 40
4.25
  1
尺
 41
1.120000000000002
  7
EXCADSTD
 72
     5
 11
184.075
 21
26.875
 31
0.0
100
AcDbText
  0
TEXT
  5
CF
330
1F
100
AcDbEntity
  8
枠_表
  6
CONTINUOUS
 62
     2
100
AcDbText
 10
180.675
 20
21.875
 30
0.0
 40
4.25
  1
度
 41
1.120000000000002
  7
EXCADSTD
 72
     5
 11
184.075
 21
21.875
 31
0.0
100
AcDbText
  0
TEXT
  5
D0
330
1F
100
AcDbEntity
  8
枠_表
  6
CONTINUOUS
 62
     2
100
AcDbText
 10
138.575
 20
15.57499999999999
 30
0.0
 40
4.25
  1
図
 41
1.120000000000002
  7
EXCADSTD
 72
     5
 11
141.975
 21
15.57499999999999
 31
0.0
100
AcDbText
  0
TEXT
  5
D1
330
1F
100
AcDbEntity
  8
枠_表
  6
CONTINUOUS
 62
     2
100
AcDbText
 10
138.575
 20
11.27499999999998
 30
0.0
 40
4.25
  1
番
 41
1.120000000000002
  7
EXCADSTD
 72
     5
 11
141.975
 21
11.27499999999998
 31
0.0
100
AcDbText
  0
TEXT
  5
D2
330
1F
100
AcDbEntity
  8
枠_表
  6
CONTINUOUS
 62
     2
100
AcDbText
 10
132.0
 20
275.75
 30
0.0
 40
4.0
  1
品番
 41
2.041518181818183
  7
EXCADSTD
 72
     5
 11
144.8324
 21
275.75
 31
0.0
100
AcDbText
  0
LINE
  5
D3
330
1F
100
AcDbEntity
  8
枠_表
  6
CONTINUOUS
 62
     6
100
AcDbLine
 10
123.9999999999999
 20
258.5
 30
0.0
 11
123.9999999999999
 21
280.5
 31
0.0
  0
LINE
  5
D4
330
1F
100
AcDbEntity
  8
枠_表
  6
CONTINUOUS
 62
     6
100
AcDbLine
 10
154.0
 20
258.5
 30
0.0
 11
154.0
 21
280.5
 31
0.0
  0
LINE
  5
D5
330
1F
100
AcDbEntity
  8
枠_表
  6
CONTINUOUS
 62
     6
100
AcDbLine
 10
194.0
 20
258.5
 30
0.0
 11
194.0
 21
280.5
 31
0.0
  0
TEXT
  5
D6
330
1F
100
AcDbEntity
  8
枠_表
  6
CONTINUOUS
 62
     2
100
AcDbText
 10
155.0
 20
270.25
 30
0.0
 40
4.0
  1
洗面化粧台
 41
1.086206896551724
  7
EXCADSTD
 72
     5
 11
173.0
 21
270.25
 31
0.0
100
AcDbText
  0
TEXT
  5
D7
330
1F
100
AcDbEntity
  8
枠_表
  6
CONTINUOUS
 62
     2
100
AcDbText
 10
155.0
 20
264.75
 30
0.0
 40
4.0
  1
洗面化粧台：寒冷地仕様
 41
1.05
  7
EXCADSTD
 72
     5
 11
194.0
 21
264.75
 31
0.0
100
AcDbText
  0
TEXT
  5
D8
330
1F
100
AcDbEntity
  8
枠_表
  6
CONTINUOUS
 62
     2
100
AcDbText
 10
155.0
 20
259.25
 30
0.0
 40
4.0
  1
化粧鏡
 41
1.132352941176471
  7
EXCADSTD
 72
     5
 11
166.0
 21
259.25
 31
0.0
100
AcDbText
  0
TEXT
  5
D9
330
1F
100
AcDbEntity
  8
枠_表
  6
CONTINUOUS
 62
     2
100
AcDbText
 10
167.0
 20
275.75
 30
0.0
 40
4.0
  1
品名
 41
2.041518181818183
  7
EXCADSTD
 72
     5
 11
179.8324
 21
275.75
 31
0.0
100
AcDbText
  0
LINE
  5
DA
330
1F
100
AcDbEntity
  8
枠_表
  6
CONTINUOUS
 62
     6
100
AcDbLine
 10
123.9999999999999
 20
247.5
 30
0.0
 11
194.0
 21
247.5
 31
0.0
  0
LINE
  5
DB
330
1F
100
AcDbEntity
  8
枠_表
  6
CONTINUOUS
 62
     6
100
AcDbLine
 10
123.9999999999999
 20
242.0
 30
0.0
 11
194.0
 21
242.0
 31
0.0
  0
TEXT
  5
DC
330
1F
100
AcDbEntity
  8
枠_表
  6
CONTINUOUS
 62
     2
100
AcDbText
 10
134.5
 20
242.75
 30
0.0
 40
4.0
  1
品番
 41
2.041518181818183
  7
EXCADSTD
 72
     5
 11
147.3324
 21
242.75
 31
0.0
100
AcDbText
  0
TEXT
  5
DD
330
1F
100
AcDbEntity
  8
枠_表
  6
CONTINUOUS
 62
     2
100
AcDbText
 10
169.5000000000001
 20
242.75
 30
0.0
 40
4.0
  1
品名
 41
2.041518181818183
  7
EXCADSTD
 72
     5
 11
182.3324000000001
 21
242.75
 31
0.0
100
AcDbText
  0
TEXT
  5
DE
330
1F
100
AcDbEntity
  8
枠_表
  6
CONTINUOUS
 62
     2
100
AcDbText
 10
160.0000000000001
 20
237.25
 30
0.0
 40
4.0
  1
アングル形止水栓
 41
1.061170212765957
  7
EXCADSTD
 72
     5
 11
188.5000000000001
 21
237.25
 31
0.0
100
AcDbText
  0
TEXT
  5
DF
330
1F
100
AcDbEntity
  8
枠_表
  6
CONTINUOUS
 62
     2
100
AcDbText
 10
160.0000000000001
 20
231.75
 30
0.0
 40
4.0
  1
（壁給水用、数量：２）
 41
0.9019230769230772
  7
EXCADSTD
 72
     5
 11
193.5000000000001
 21
231.75
 31
0.0
100
AcDbText
  0
TEXT
  5
E0
330
1F
100
AcDbEntity
  8
枠_表
  6
CONTINUOUS
 62
     2
100
AcDbText
 10
124.9999999999999
 20
237.25
 30
0.0
 40
4.0
  1
ＮＬ２２１－７５ＷＭＹ
 41
0.673076919867442
  7
EXCADSTD
 72
     5
 11
149.9999998807906
 21
237.25
 31
0.0
100
AcDbText
  0
TEXT
  5
E1
330
1F
100
AcDbEntity
  8
枠_表
  6
CONTINUOUS
 62
     2
100
AcDbText
 10
79.9999999999999
 20
26.5
 30
0.0
 40
5.0
  1
750㎜幅
 41
0.8693548387096776
  7
EXCADSTD
 72
     5
 11
99.2499999999999
 21
26.5
 31
0.0
100
AcDbText
  0
TEXT
  5
E2
330
1F
100
AcDbEntity
  8
枠_表
  6
CONTINUOUS
 62
     2
100
AcDbText
 10
79.9999999999999
 20
21.5
 30
0.0
 40
5.0
  1
　洗面化粧ユニット
 41
1.307547169811321
  7
EXCADSTD
 72
     5
 11
129.4999999999999
 21
21.5
 31
0.0
100
AcDbText
  0
TEXT
  5
E3
330
1F
100
AcDbEntity
  8
枠_表
  6
CONTINUOUS
 62
     2
100
AcDbText
 10
124.3999999999999
 20
248.5
 30
0.0
 40
4.0
  1
※止水栓（別途手配）・Ｌ管（別途手配）
 41
0.9539822975618646
  7
EXCADSTD
 72
     5
 11
185.9999997854231
 21
248.5
 31
0.0
100
AcDbText
  0
TEXT
  5
E5
330
1F
100
AcDbEntity
  8
枠_表
  6
CONTINUOUS
 62
     2
100
AcDbText
 10
75.9999999999999
 20
12.5
 30
0.0
 40
4.5
  1
ジャニス工業株式会社
 41
1.025641025641025
  7
EXCADTTF1
 72
     5
 11
135.9999999999999
 21
12.5
 31
0.0
100
AcDbText
  0
TEXT
  5
E6
330
1F
100
AcDbEntity
  8
枠_表
  6
CONTINUOUS
 62
     2
100
AcDbText
 10
124.9999999999999
 20
226.25
 30
0.0
 40
4.0
  1
ＮＬ２２１Ｆ２００ＷＹ２５
 41
0.6681818149306555
  7
EXCADSTD
 72
     5
 11
154.3999998569487
 21
226.25
 31
0.0
100
AcDbText
  0
TEXT
  5
E7
330
1F
100
AcDbEntity
  8
枠_表
  6
CONTINUOUS
 62
     2
100
AcDbText
 10
160.0
 20
220.75
 30
0.0
 40
4.0
  1
（床給水用、数量：２）
 41
0.9019230769230772
  7
EXCADSTD
 72
     5
 11
193.5
 21
220.75
 31
0.0
100
AcDbText
  0
LINE
  5
E8
330
1F
100
AcDbEntity
  8
枠_表
  6
CONTINUOUS
 62
     6
100
AcDbLine
 10
123.9999999999999
 20
220.0
 30
0.0
 11
194.0
 21
220.0
 31
0.0
  0
TEXT
  5
E9
330
1F
100
AcDbEntity
  8
枠_表
  6
CONTINUOUS
 62
     2
100
AcDbText
 10
160.0000000000001
 20
215.25
 30
0.0
 40
4.0
  1
Ｌ管（壁排水用）
 41
1.061170212765957
  7
EXCADSTD
 72
     5
 11
188.5000000000001
 21
215.25
 31
0.0
100
AcDbText
  0
TEXT
  5
EA
330
1F
100
AcDbEntity
  8
枠_表
  6
CONTINUOUS
 62
     2
100
AcDbText
 10
124.9999999999999
 20
215.25
 30
0.0
 40
4.0
  1
４４１３１
 41
0.8629310316052923
  7
EXCADSTD
 72
     5
 11
139.2999999523162
 21
215.25
 31
0.0
100
AcDbText
  0
LINE
  5
EB
330
1F
100
AcDbEntity
  8
枠_表
  6
CONTINUOUS
 62
     6
100
AcDbLine
 10
123.9999999999999
 20
214.5
 30
0.0
 11
194.0
 21
214.5
 31
0.0
  0
LINE
  5
EC
330
1F
100
AcDbEntity
  8
枠_表
  6
CONTINUOUS
 62
     6
100
AcDbLine
 10
123.9999999999999
 20
231.0
 30
0.0
 11
194.0
 21
231.0
 31
0.0
  0
LINE
  5
ED
330
1F
100
AcDbEntity
  8
枠_表
  6
CONTINUOUS
 62
     6
100
AcDbLine
 10
159.0
 20
214.5
 30
0.0
 11
159.0
 21
247.5
 31
0.0
  0
LINE
  5
EE
330
1F
100
AcDbEntity
  8
枠_表
  6
CONTINUOUS
 62
     6
100
AcDbLine
 10
194.0
 20
214.5
 30
0.0
 11
194.0
 21
247.5
 31
0.0
  0
LINE
  5
EF
330
1F
100
AcDbEntity
  8
枠_表
  6
CONTINUOUS
 62
     6
100
AcDbLine
 10
123.9999999999999
 20
214.5
 30
0.0
 11
123.9999999999999
 21
247.5
 31
0.0
  0
LINE
  5
F0
330
1F
100
AcDbEntity
  8
枠_表
  6
EXLTYPE2
 62
     6
100
AcDbLine
 10
17.00000000000002
 20
148.0
 30
0.0
 11
-1.700000000000028
 21
148.0
 31
0.0
  0
TEXT
  5
F1
330
1F
100
AcDbEntity
  8
枠_表
  6
CONTINUOUS
 62
     2
100
AcDbText
 10
124.9999999999999
 20
259.25
 30
0.0
 40
4.0
  1
ＬＵＭ６０１ＣＳ
 41
0.8340425500844383
  7
EXCADSTD
 72
     5
 11
147.3999999165534
 21
259.25
 31
0.0
100
AcDbText
  0
TEXT
  5
F2
330
1F
100
AcDbEntity
  8
枠_表
  6
CONTINUOUS
 62
     2
100
AcDbText
 10
160.0
 20
226.25
 30
0.0
 40
4.0
  1
ストレート形止水栓
 41
1.056603773584906
  7
EXCADSTD
 72
     5
 11
192.0
 21
226.25
 31
0.0
100
AcDbText
  0
TEXT
  5
F3
330
1F
100
AcDbEntity
  8
枠_表
  6
CONTINUOUS
 62
     2
100
AcDbText
 10
124.9999999999999
 20
270.25
 30
0.0
 40
4.0
  1
ＬＵ７５５ＣＳＤ
 41
0.8340425500844383
  7
EXCADSTD
 72
     5
 11
147.3999999165534
 21
270.25
 31
0.0
100
AcDbText
  0
TEXT
  5
F4
330
1F
100
AcDbEntity
  8
枠_表
  6
CONTINUOUS
 62
     2
100
AcDbText
 10
124.9999999999999
 20
264.75
 30
0.0
 40
4.0
  1
ＬＵ７５５ＣＳＤＹ
 41
0.8287735817567354
  7
EXCADSTD
 72
     5
 11
150.0999999046325
 21
264.75
 31
0.0
100
AcDbText
  0
TEXT
  5
F5
330
1F
100
AcDbEntity
  8
枠_表
  6
CONTINUOUS
 62
     2
100
AcDbText
 10
144.0
 20
26.5
 30
0.0
 40
5.0
  1
ＬＵ７５５ＣＳＤ型
 41
0.8584905660377359
  7
EXCADSTD
 72
     5
 11
176.5
 21
26.5
 31
0.0
100
AcDbText
  0
TEXT
  5
F6
330
1F
100
AcDbEntity
  8
枠_表
  6
CONTINUOUS
 62
     2
100
AcDbText
 10
144.0
 20
21.5
 30
0.0
 40
5.0
  1
ＬＵＭ６０１ＣＳ
 41
0.8638297872340426
  7
EXCADSTD
 72
     5
 11
173.0
 21
21.5
 31
0.0
100
AcDbText
  0
TEXT
  5
F7
330
1F
100
AcDbEntity
  8
枠_表
  6
CONTINUOUS
 62
     7
100
AcDbText
 10
144.2000001668929
 20
12.14999999999998
 30
0.0
 40
7.0
  1
ＬＵ３１７８７０
 41
1.140425524813064
  7
EXCADSTD
 72
     5
 11
197.7999998331069
 21
12.14999999999998
 31
0.0
100
AcDbText
  0
TEXT
  5
F8
330
1F
100
AcDbEntity
  8
枠_表
  6
CONTINUOUS
 62
     2
100
AcDbText
 10
19.74999999999945
 20
19.0
 30
0.0
 40
5.0
  1
亀井
 41
1.224910909090909
  7
EXCADSTD
 72
     5
 11
29.37429999999945
 21
19.0
 31
0.0
100
AcDbText
  0
TEXT
  5
F9
330
1F
100
AcDbEntity
  8
枠_表
  6
CONTINUOUS
 62
     2
100
AcDbText
 10
17.44999998999994
 20
11.0
 30
0.0
 40
4.0
  1
28
 41
0.454054054054054
  7
EXCADSTD
 72
     5
 11
20.64999998999994
 21
11.0
 31
0.0
100
AcDbText
  0
TEXT
  5
FA
330
1F
100
AcDbEntity
  8
枠_表
  6
CONTINUOUS
 62
     2
100
AcDbText
 10
23.37500000000002
 20
11.0
 30
0.0
 40
4.0
  1
9
 41
0.4798828124999995
  7
EXCADSTD
 72
     5
 11
24.83750000000002
 21
11.0
 31
0.0
100
AcDbText
  0
TEXT
  5
FB
330
1F
100
AcDbEntity
  8
枠_表
  6
CONTINUOUS
 62
     2
100
AcDbText
 10
27.80000000999998
 20
11.0
 30
0.0
 40
4.0
  1
27
 41
0.454054054054054
  7
EXCADSTD
 72
     5
 11
31.00000000999998
 21
11.0
 31
0.0
100
AcDbText
  0
TEXT
  5
FC
330
1F
100
AcDbEntity
  8
枠_表
  6
CONTINUOUS
 62
     2
100
AcDbText
 10
62.54999999999944
 20
19.0
 30
0.0
 40
5.0
  1
間瀬
 41
1.22491090909091
  7
EXCADSTD
 72
     5
 11
72.17429999999945
 21
19.0
 31
0.0
100
AcDbText
  0
POLYLINE
  5
FD
330
1F
100
AcDbEntity
  8
化粧台
  6
CONTINUOUS
 62
     3
100
AcDb2dPolyline
 66
     1
 10
0.0
 20
0.0
 30
0.0
 70
   128
  0
VERTEX
  5
FE
330
FD
100
AcDbEntity
  8
化粧台
  6
CONTINUOUS
 62
     3
100
AcDbVertex
100
AcDb2dVertex
 10
1586.999999999998
 20
3899.5
 30
0.0
  0
VERTEX
  5
FF
330
FD
100
AcDbEntity
  8
化粧台
  6
CONTINUOUS
 62
     3
100
AcDbVertex
100
AcDb2dVertex
 10
1609.999999999998
 20
3850.0
 30
0.0
  0
SEQEND
  5
100
330
FD
100
AcDbEntity
  8
化粧台
  6
CONTINUOUS
 62
     3
  0
LINE
  5
101
330
1F
100
AcDbEntity
  8
化粧台
  6
CONTINUOUS
 62
     3
100
AcDbLine
 10
1612.763749118669
 20
3861.850574621249
 30
0.0
 11
1586.999999999998
 21
3899.5
 31
0.0
  0
LINE
  5
102
330
1F
100
AcDbEntity
  8
化粧台
  6
CONTINUOUS
 62
     3
100
AcDbLine
 10
1586.999999999998
 20
3899.5
 30
0.0
 11
1599.160489584011
 21
3855.529868170801
 31
0.0
  0
POLYLINE
  5
103
330
1F
100
AcDbEntity
  8
化粧台
  6
CONTINUOUS
 62
     3
100
AcDb2dPolyline
 66
     1
 10
0.0
 20
0.0
 30
0.0
 70
   128
  0
VERTEX
  5
104
330
103
100
AcDbEntity
  8
化粧台
  6
CONTINUOUS
 62
     3
100
AcDbVertex
100
AcDb2dVertex
 10
2535.0
 20
2888.69999999995
 30
0.0
  0
VERTEX
  5
105
330
103
100
AcDbEntity
  8
化粧台
  6
CONTINUOUS
 62
     3
100
AcDbVertex
100
AcDb2dVertex
 10
2489.0
 20
2908.69999999995
 30
0.0
  0
SEQEND
  5
106
330
103
100
AcDbEntity
  8
化粧台
  6
CONTINUOUS
 62
     3
  0
LINE
  5
107
330
1F
100
AcDbEntity
  8
化粧台
  6
CONTINUOUS
 62
     3
100
AcDbLine
 10
2490.741401632997
 20
2899.764649591701
 30
0.0
 11
2535.0
 21
2888.69999999995
 31
0.0
  0
LINE
  5
108
330
1F
100
AcDbEntity
  8
化粧台
  6
CONTINUOUS
 62
     3
100
AcDbLine
 10
2535.0
 20
2888.69999999995
 30
0.0
 11
2496.722293304213
 21
2913.5207004355
 31
0.0
  0
POLYLINE
  5
109
330
1F
100
AcDbEntity
  8
化粧台
  6
CONTINUOUS
 62
     3
100
AcDb2dPolyline
 66
     1
 10
0.0
 20
0.0
 30
0.0
 70
   128
  0
VERTEX
  5
10A
330
109
100
AcDbEntity
  8
化粧台
  6
CONTINUOUS
 62
     3
100
AcDbVertex
100
AcDb2dVertex
 10
2032.999999999998
 20
987.5
 30
0.0
  0
VERTEX
  5
10B
330
109
100
AcDbEntity
  8
化粧台
  6
CONTINUOUS
 62
     3
100
AcDbVertex
100
AcDb2dVertex
 10
2013.999999999998
 20
1036.5
 30
0.0
  0
SEQEND
  5
10C
330
109
100
AcDbEntity
  8
化粧台
  6
CONTINUOUS
 62
     3
  0
LINE
  5
10D
330
1F
100
AcDbEntity
  8
化粧台
  6
CONTINUOUS
 62
     3
100
AcDbLine
 10
2009.738536730783
 20
1026.744799994075
 30
0.0
 11
2032.999999999998
 21
987.5
 31
0.0
  0
LINE
  5
10E
330
1F
100
AcDbEntity
  8
化粧台
  6
CONTINUOUS
 62
     3
100
AcDbLine
 10
2032.999999999998
 20
987.5
 30
0.0
 11
2023.723956365035
 21
1032.167717811438
 31
0.0
  0
TEXT
  5
10F
330
1F
100
AcDbEntity
  8
化粧台
  6
CONTINUOUS
 62
     2
100
AcDbText
 10
2600.950204137901
 20
1694.052670344793
 30
0.0
 40
59.99999618530273
  1
Ｒ１/２
 41
0.8342465643686785
  7
EXCADSTD
 72
     5
 11
2774.95019078646
 21
1694.052670344793
 31
0.0
100
AcDbText
  0
LEADER
  5
110
330
1F
100
AcDbEntity
  8
化粧台
  6
CONTINUOUS
 62
     3
100
AcDbLeader
  3
ISO-25
 76
     3
 10
2543.0
 20
1418.0
 30
0.0
 10
2593.450204137901
 20
1688.8026704342
 30
0.0
 10
2759.950204137901
 20
1688.8026704342
 30
0.0
1001
ACAD
1000
DSTYLE
1002
{
1070
     5
1000
EX_NORM
1070
    41
1040
45.0
1070
   341
1005
4D
1002
}
  0
TEXT
  5
111
330
1F
100
AcDbEntity
  8
化粧台
  6
CONTINUOUS
 62
     2
100
AcDbText
 10
2599.5
 20
1607.749999910593
 30
0.0
 40
59.99999618530273
  1
φ３２
 41
1.070588224822399
  7
EXCADSTD
 72
     5
 11
2755.499988555909
 21
1607.749999910593
 31
0.0
100
AcDbText
  0
LEADER
  5
112
330
1F
100
AcDbEntity
  8
化粧台
  6
CONTINUOUS
 62
     3
100
AcDbLeader
  3
ISO-25
 76
     3
 10
2565.0
 20
1433.5
 30
0.0
 10
2600.5
 20
1602.5
 30
0.0
 10
2758.0
 20
1602.5
 30
0.0
1001
ACAD
1000
DSTYLE
1002
{
1070
     5
1000
EX_NORM
1070
    41
1040
45.0
1070
   341
1005
4D
1002
}
  0
LINE
  5
113
330
1F
100
AcDbEntity
  8
化粧台
  6
CONTINUOUS
 62
     3
100
AcDbLine
 10
2455.0
 20
969.0000001788139
 30
0.0
 11
2455.0
 21
823.5
 31
0.0
  0
LINE
  5
114
330
1F
100
AcDbEntity
  8
化粧台
  6
CONTINUOUS
 62
     3
100
AcDbLine
 10
2535.0
 20
977.0000001788138
 30
0.0
 11
2535.0
 21
823.5
 31
0.0
  0
TEXT
  5
115
330
1F
100
AcDbEntity
  8
化粧台
  6
CONTINUOUS
 62
     2
100
AcDbText
 10
2580.0
 20
843.749999910593
 30
0.0
 40
59.99999618530273
  1
８０
 41
1.020759090909089
  7
EXCADSTD
 72
     5
 11
2676.242993881035
 21
843.749999910593
 31
0.0
100
AcDbText
  0
TEXT
  5
116
330
1F
100
AcDbEntity
  8
化粧台
  6
CONTINUOUS
 62
     2
100
AcDbText
 10
2677.5
 20
843.749999910593
 30
0.0
 40
48.0
  1
（床給水）
 41
0.9655172413793105
  7
EXCADSTD
 72
     5
 11
2869.5
 21
843.749999910593
 31
0.0
100
AcDbText
  0
LINE
  5
117
330
1F
100
AcDbEntity
  8
化粧台
  6
CONTINUOUS
 62
     3
100
AcDbLine
 10
2410.0
 20
838.5
 30
0.0
 11
2867.249994277955
 21
838.5
 31
0.0
  0
LINE
  5
118
330
1F
100
AcDbEntity
  8
化粧台
  6
CONTINUOUS
 62
     3
100
AcDbLine
 10
2410.0
 20
831.0
 30
0.0
 11
2455.0
 21
838.5
 31
0.0
  0
LINE
  5
119
330
1F
100
AcDbEntity
  8
化粧台
  6
CONTINUOUS
 62
     3
100
AcDbLine
 10
2455.0
 20
838.5
 30
0.0
 11
2410.0
 21
846.0000000000001
 31
0.0
  0
LINE
  5
11A
330
1F
100
AcDbEntity
  8
化粧台
  6
CONTINUOUS
 62
     3
100
AcDbLine
 10
2580.0
 20
846.0
 30
0.0
 11
2535.0
 21
838.5
 31
0.0
  0
LINE
  5
11B
330
1F
100
AcDbEntity
  8
化粧台
  6
CONTINUOUS
 62
     3
100
AcDbLine
 10
2535.0
 20
838.5
 30
0.0
 11
2580.0
 21
831.0
 31
0.0
  0
LINE
  5
11C
330
1F
100
AcDbEntity
  8
化粧台
  6
CONTINUOUS
 62
     3
100
AcDbLine
 10
739.9999999999984
 20
969.0000001788139
 30
0.0
 11
739.9999999999984
 21
823.5
 31
0.0
  0
LINE
  5
11D
330
1F
100
AcDbEntity
  8
化粧台
  6
CONTINUOUS
 62
     3
100
AcDbLine
 10
1069.999999999998
 20
969.0000001788139
 30
0.0
 11
1069.999999999998
 21
823.5
 31
0.0
  0
TEXT
  5
11E
330
1F
100
AcDbEntity
  8
化粧台
  6
CONTINUOUS
 62
     2
100
AcDbText
 10
367.9999999999986
 20
843.749999910593
 30
0.0
 40
59.99999618530273
  1
３３０
 41
1.029411764705883
  7
EXCADSTD
 72
     5
 11
517.9999904632555
 21
843.749999910593
 31
0.0
100
AcDbText
  0
TEXT
  5
11F
330
1F
100
AcDbEntity
  8
化粧台
  6
CONTINUOUS
 62
     2
100
AcDbText
 10
510.4999999999986
 20
843.749999910593
 30
0.0
 40
48.0
  1
（床給水）
 41
0.9655172413793107
  7
EXCADSTD
 72
     5
 11
702.4999999999986
 21
843.749999910593
 31
0.0
100
AcDbText
  0
LINE
  5
120
330
1F
100
AcDbEntity
  8
化粧台
  6
CONTINUOUS
 62
     3
100
AcDbLine
 10
362.7500057220444
 20
838.5
 30
0.0
 11
1114.999999999998
 21
838.5
 31
0.0
  0
LINE
  5
121
330
1F
100
AcDbEntity
  8
化粧台
  6
CONTINUOUS
 62
     3
100
AcDbLine
 10
694.9999999999984
 20
831.0
 30
0.0
 11
739.9999999999984
 21
838.5
 31
0.0
  0
LINE
  5
122
330
1F
100
AcDbEntity
  8
化粧台
  6
CONTINUOUS
 62
     3
100
AcDbLine
 10
739.9999999999984
 20
838.5
 30
0.0
 11
694.9999999999984
 21
846.0000000000001
 31
0.0
  0
LINE
  5
123
330
1F
100
AcDbEntity
  8
化粧台
  6
CONTINUOUS
 62
     3
100
AcDbLine
 10
1114.999999999998
 20
846.0
 30
0.0
 11
1069.999999999998
 21
838.5
 31
0.0
  0
LINE
  5
124
330
1F
100
AcDbEntity
  8
化粧台
  6
CONTINUOUS
 62
     3
100
AcDbLine
 10
1069.999999999998
 20
838.5
 30
0.0
 11
1114.999999999998
 21
831.0
 31
0.0
  0
DIMENSION
  5
126
330
1F
100
AcDbEntity
  8
化粧台
  6
CONTINUOUS
 62
     3
100
AcDbDimension
  2
*D15
 10
1055.0
 20
2805.0
 30
0.0
 11
905.0000000000003
 21
2840.249999910593
 31
0.0
 70
   160
  3
ISO-25
100
AcDbAlignedDimension
 13
755.0000000000002
 23
2642.5
 33
0.0
 14
1055.0
 24
2642.5
 34
0.0
100
AcDbRotatedDimension
1001
ACAD
1000
DSTYLE
1002
{
1070
   270
1070
     2
1070
     6
1000
EX_NORM
1070
     7
1000
EX_NORM
1070
    41
1040
44.99999618530273
1070
    42
1040
10.49999982118607
1070
    44
1040
15.0
1070
    73
1070
     0
1070
    74
1070
     0
1070
    75
1070
     0
1070
    76
1070
     0
1070
    77
1070
     1
1070
    78
1070
     0
1070
   140
1040
59.99999618530273
1070
   147
1040
0.0
1070
   173
1070
     1
1070
   176
1070
     3
1070
   177
1070
     3
1070
   178
1070
     2
1070
   271
1070
     0
1070
   277
1070
     2
1070
   279
1070
     2
1070
   280
1070
     0
1070
   287
1070
     5
1070
   340
1005
125
1002
}
  0
DIMENSION
  5
134
330
1F
100
AcDbEntity
  8
化粧台
  6
CONTINUOUS
 62
     3
100
AcDbDimension
  2
*D16
 10
1205.0
 20
2895.0
 30
0.0
 11
905.0000000000003
 21
2930.249999910593
 31
0.0
 70
   160
  3
ISO-25
100
AcDbAlignedDimension
 13
605.0000000000002
 23
2737.5
 33
0.0
 14
1205.0
 24
2737.5
 34
0.0
100
AcDbRotatedDimension
1001
ACAD
1000
DSTYLE
1002
{
1070
   270
1070
     2
1070
     6
1000
EX_NORM
1070
     7
1000
EX_NORM
1070
    41
1040
44.99999618530273
1070
    42
1040
10.49999982118607
1070
    44
1040
15.0
1070
    73
1070
     0
1070
    74
1070
     0
1070
    75
1070
     0
1070
    76
1070
     0
1070
    77
1070
     1
1070
    78
1070
     0
1070
   140
1040
59.99999618530273
1070
   147
1040
0.0
1070
   173
1070
     1
1070
   176
1070
     3
1070
   177
1070
     3
1070
   178
1070
     2
1070
   271
1070
     0
1070
   277
1070
     2
1070
   279
1070
     2
1070
   280
1070
     0
1070
   287
1070
     5
1070
   340
1005
125
1002
}
  0
DIMENSION
  5
141
330
1F
100
AcDbEntity
  8
化粧台
  6
CONTINUOUS
 62
     3
100
AcDbDimension
  2
*D17
 10
1318.5
 20
2137.5
 30
0.0
 11
1283.250000089407
 21
2437.5
 31
0.0
 70
   160
  3
ISO-25
100
AcDbAlignedDimension
 13
1205.0
 23
2737.5
 33
0.0
 14
1205.0
 24
2137.5
 34
0.0
 50
90.0
100
AcDbRotatedDimension
1001
ACAD
1000
DSTYLE
1002
{
1070
   270
1070
     2
1070
     6
1000
EX_NORM
1070
     7
1000
EX_NORM
1070
    41
1040
44.99999618530273
1070
    42
1040
10.49999982118607
1070
    44
1040
15.0
1070
    73
1070
     0
1070
    74
1070
     0
1070
    75
1070
     0
1070
    76
1070
     0
1070
    77
1070
     1
1070
    78
1070
     0
1070
   140
1040
59.99999618530273
1070
   147
1040
0.0
1070
   173
1070
     1
1070
   176
1070
     3
1070
   177
1070
     3
1070
   178
1070
     2
1070
   271
1070
     0
1070
   277
1070
     2
1070
   279
1070
     2
1070
   280
1070
     0
1070
   287
1070
     5
1070
   340
1005
125
1002
}
  0
LINE
  5
14E
330
1F
100
AcDbEntity
  8
化粧台
  6
CONTINUOUS
 62
     2
100
AcDbLine
 10
1174.996305873154
 20
1691.307834389494
 30
0.0
 11
1179.996305873154
 21
1821.307834389494
 31
0.0
  0
ARC
  5
14F
330
1F
100
AcDbEntity
  8
化粧台
  6
CONTINUOUS
 62
     2
100
AcDbCircle
 10
1174.999999999998
 20
1821.5
 30
0.0
 40
5.0
100
AcDbArc
 50
357.7974018382349
 51
90.00000000000004
  0
ARC
  5
150
330
1F
100
AcDbEntity
  8
化粧台
  6
CONTINUOUS
 62
     2
100
AcDbCircle
 10
1169.999999999998
 20
1691.5
 30
0.0
 40
5.0
100
AcDbArc
 50
270.0000000000002
 51
357.7974018382349
  0
LINE
  5
151
330
1F
100
AcDbEntity
  8
化粧台
  6
CONTINUOUS
 62
     2
100
AcDbLine
 10
635.0036941268429
 20
1691.307834389494
 30
0.0
 11
630.0036941268429
 21
1821.307834389494
 31
0.0
  0
ARC
  5
152
330
1F
100
AcDbEntity
  8
化粧台
  6
CONTINUOUS
 62
     2
100
AcDbCircle
 10
635.0000000000002
 20
1821.5
 30
0.0
 40
5.0
100
AcDbArc
 50
90.00000000000004
 51
182.2025981617654
  0
ARC
  5
153
330
1F
100
AcDbEntity
  8
化粧台
  6
CONTINUOUS
 62
     2
100
AcDbCircle
 10
640.0000000000002
 20
1691.5
 30
0.0
 40
5.0
100
AcDbArc
 50
182.2025981617654
 51
270.0000000000002
  0
LINE
  5
154
330
1F
100
AcDbEntity
  8
化粧台
  6
CONTINUOUS
 62
     2
100
AcDbLine
 10
640.0000000000002
 20
1686.5
 30
0.0
 11
1169.999999999998
 21
1686.5
 31
0.0
  0
LINE
  5
155
330
1F
100
AcDbEntity
  8
化粧台
  6
CONTINUOUS
 62
     2
100
AcDbLine
 10
635.0000000000002
 20
1826.5
 30
0.0
 11
1174.999999999998
 21
1826.5
 31
0.0
  0
LINE
  5
156
330
1F
100
AcDbEntity
  8
化粧台
  6
CONTINUOUS
 62
     2
100
AcDbLine
 10
826.614828860573
 20
1837.155404601815
 30
0.0
 11
830.2499999999457
 21
1828.40723934362
 31
0.0
  0
ARC
  5
157
330
1F
100
AcDbEntity
  8
化粧台
  6
CONTINUOUS
 62
     2
100
AcDbCircle
 10
827.9999999999366
 20
1837.730992053617
 30
0.0
 40
1.5
100
AcDbArc
 50
89.9999999999727
 51
202.5646074934731
  0
LINE
  5
158
330
1F
100
AcDbEntity
  8
化粧台
  6
CONTINUOUS
 62
     2
100
AcDbLine
 10
843.3851711393038
 20
1837.155404601826
 30
0.0
 11
839.7499999999384
 21
1828.407239343626
 31
0.0
  0
ARC
  5
159
330
1F
100
AcDbEntity
  8
化粧台
  6
CONTINUOUS
 62
     2
100
AcDbCircle
 10
841.9999999999347
 20
1837.730992053626
 30
0.0
 40
1.5
100
AcDbArc
 50
337.4353925066305
 51
90.00000000011147
  0
LINE
  5
15A
330
1F
100
AcDbEntity
  8
化粧台
  6
CONTINUOUS
 62
     2
100
AcDbLine
 10
827.9999999999347
 20
1839.230992053617
 30
0.0
 11
841.9999999999347
 21
1839.230992053626
 31
0.0
  0
LINE
  5
15B
330
1F
100
AcDbEntity
  8
化粧台
  6
CONTINUOUS
 62
     2
100
AcDbLine
 10
830.2499999999457
 20
1826.5
 30
0.0
 11
830.249999999942
 21
1828.407239343628
 31
0.0
  0
LINE
  5
15C
330
1F
100
AcDbEntity
  8
化粧台
  6
CONTINUOUS
 62
     2
100
AcDbLine
 10
839.7499999999438
 20
1826.5
 30
0.0
 11
839.7499999999438
 21
1828.407239343635
 31
0.0
  0
ELLIPSE
  5
15D
330
1F
100
AcDbEntity
  8
化粧台
  6
CONTINUOUS
 62
     2
100
AcDbEllipse
 10
905.0000000000002
 20
1879.4999999999
 30
0.0
 11
11.50000000000001
 21
0.0
 31
0.0
210
0.0
220
0.0
230
1.0
 40
0.4226182617406996
 41
0.0
 42
6.283185307179586
  0
CIRCLE
  5
15E
330
1F
100
AcDbEntity
  8
化粧台
  6
CONTINUOUS
 62
     2
100
AcDbCircle
 10
905.0000000000002
 20
1945.0
 30
0.0
 40
4.0
  0
ELLIPSE
  5
15F
330
1F
100
AcDbEntity
  8
化粧台
  6
CONTINUOUS
 62
     2
100
AcDbEllipse
 10
905.0000000000002
 20
1905.5
 30
0.0
 11
15.00000000000001
 21
0.0
 31
0.0
210
0.0
220
0.0
230
1.0
 40
0.8660254037844387
 41
0.0
 42
6.283185307179586
  0
ELLIPSE
  5
160
330
1F
100
AcDbEntity
  8
化粧台
  6
CONTINUOUS
 62
     2
100
AcDbEllipse
 10
905.0000000000002
 20
1847.4762979464
 30
0.0
 11
1.060575238719482E-15
 21
17.32050807560018
 31
0.0
210
0.0
220
0.0
230
1.0
 40
0.8660254037888688
 41
1.570796326794897
 42
4.71238898038469
  0
LINE
  5
161
330
1F
100
AcDbEntity
  8
化粧台
  6
CONTINUOUS
 62
     2
100
AcDbLine
 10
890.0000000000002
 20
1905.5
 30
0.0
 11
890.0000000000002
 21
1847.4762979464
 31
0.0
  0
LINE
  5
162
330
1F
100
AcDbEntity
  8
化粧台
  6
CONTINUOUS
 62
     2
100
AcDbLine
 10
920.0000000000002
 20
1905.5
 30
0.0
 11
920.0000000000002
 21
1847.4762979464
 31
0.0
  0
LINE
  5
163
330
1F
100
AcDbEntity
  8
化粧台
  6
CONTINUOUS
 62
     2
100
AcDbLine
 10
893.5000000000002
 20
1879.4999999999
 30
0.0
 11
893.5000000000002
 21
1888.2902360689
 31
0.0
  0
LINE
  5
164
330
1F
100
AcDbEntity
  8
化粧台
  6
CONTINUOUS
 62
     2
100
AcDbLine
 10
916.5000000000002
 20
1879.4999999999
 30
0.0
 11
916.5000000000002
 21
1888.2902360689
 31
0.0
  0
ELLIPSE
  5
165
330
1F
100
AcDbEntity
  8
化粧台
  6
CONTINUOUS
 62
     2
100
AcDbEllipse
 10
905.0000000000002
 20
1888.2902360689
 30
0.0
 11
11.50000000000001
 21
0.0
 31
0.0
210
0.0
220
0.0
230
1.0
 40
0.1739668486608696
 41
0.0
 42
3.141592653589793
  0
LINE
  5
166
330
1F
100
AcDbEntity
  8
化粧台
  6
CONTINUOUS
 62
     2
100
AcDbLine
 10
880.5000000000002
 20
1912.5
 30
0.0
 11
892.3640723859828
 21
1912.5
 31
0.0
  0
LINE
  5
167
330
1F
100
AcDbEntity
  8
化粧台
  6
CONTINUOUS
 62
     2
100
AcDbLine
 10
917.6359276140158
 20
1912.5
 30
0.0
 11
929.5000000000002
 21
1912.5
 31
0.0
  0
LINE
  5
168
330
1F
100
AcDbEntity
  8
化粧台
  6
CONTINUOUS
 62
     2
100
AcDbLine
 10
891.1556268951356
 20
1910.5
 30
0.0
 11
880.5000000000002
 21
1910.5
 31
0.0
  0
LINE
  5
169
330
1F
100
AcDbEntity
  8
化粧台
  6
CONTINUOUS
 62
     2
100
AcDbLine
 10
929.5000000000002
 20
1910.5
 30
0.0
 11
918.844373104863
 21
1910.5
 31
0.0
  0
LINE
  5
16A
330
1F
100
AcDbEntity
  8
化粧台
  6
CONTINUOUS
 62
     2
100
AcDbLine
 10
880.5000000000002
 20
1952.5
 30
0.0
 11
880.5000000000002
 21
1912.5
 31
0.0
  0
ARC
  5
16B
330
1F
100
AcDbEntity
  8
化粧台
  6
CONTINUOUS
 62
     2
100
AcDbCircle
 10
882.5000000000002
 20
1952.5
 30
0.0
 40
2.0
100
AcDbArc
 50
90.00000000000004
 51
180.0
  0
LINE
  5
16C
330
1F
100
AcDbEntity
  8
化粧台
  6
CONTINUOUS
 62
     2
100
AcDbLine
 10
929.5000000000002
 20
1952.5
 30
0.0
 11
929.5000000000002
 21
1912.5
 31
0.0
  0
LINE
  5
16D
330
1F
100
AcDbEntity
  8
化粧台
  6
CONTINUOUS
 62
     2
100
AcDbLine
 10
882.5000000000002
 20
1954.5
 30
0.0
 11
927.5000000000002
 21
1954.5
 31
0.0
  0
ARC
  5
16E
330
1F
100
AcDbEntity
  8
化粧台
  6
CONTINUOUS
 62
     2
100
AcDbCircle
 10
927.5000000000002
 20
1952.5
 30
0.0
 40
2.0
100
AcDbArc
 50
0.0
 51
90.00000000000004
  0
LINE
  5
16F
330
1F
100
AcDbEntity
  8
化粧台
  6
CONTINUOUS
 62
     2
100
AcDbLine
 10
880.5000000000002
 20
1910.5
 30
0.0
 11
880.5000000000002
 21
1826.5
 31
0.0
  0
LINE
  5
170
330
1F
100
AcDbEntity
  8
化粧台
  6
CONTINUOUS
 62
     2
100
AcDbLine
 10
929.5000000000002
 20
1910.5
 30
0.0
 11
929.5000000000002
 21
1826.5
 31
0.0
  0
ELLIPSE
  5
171
330
1F
100
AcDbEntity
  8
化粧台
  6
CONTINUOUS
 62
     6
100
AcDbEllipse
 10
905.0000000000002
 20
1865.4999999999
 30
0.0
 11
15.00000000000001
 21
0.0
 31
0.0
210
0.0
220
0.0
230
1.0
 40
0.8660254037844387
 41
3.141592653589793
 42
6.283185307179586
  0
LINE
  5
172
330
1F
100
AcDbEntity
  8
化粧台
  6
EXLTYPE2
 62
     6
100
AcDbLine
 10
864.386729540169
 20
1655.792893218813
 30
0.0
 11
860.0000000000002
 21
1686.5
 31
0.0
  0
ARC
  5
173
330
1F
100
AcDbEntity
  8
化粧台
  6
EXLTYPE2
 62
     6
100
AcDbCircle
 10
869.3364770084738
 20
1656.5
 30
0.0
 40
5.0
100
AcDbArc
 50
188.1301023541575
 51
270.0000000000002
  0
LINE
  5
174
330
1F
100
AcDbEntity
  8
化粧台
  6
EXLTYPE2
 62
     6
100
AcDbLine
 10
945.6132704598278
 20
1655.792893218813
 30
0.0
 11
949.9999999999984
 21
1686.5
 31
0.0
  0
LINE
  5
175
330
1F
100
AcDbEntity
  8
化粧台
  6
EXLTYPE2
 62
     6
100
AcDbLine
 10
869.3364770084738
 20
1651.5
 30
0.0
 11
940.663522991523
 21
1651.5
 31
0.0
  0
ARC
  5
176
330
1F
100
AcDbEntity
  8
化粧台
  6
EXLTYPE2
 62
     6
100
AcDbCircle
 10
940.663522991523
 20
1656.5
 30
0.0
 40
5.0
100
AcDbArc
 50
270.0000000000002
 51
351.8698976458426
  0
ARC
  5
177
330
1F
100
AcDbEntity
  8
化粧台
  6
EXLTYPE2
 62
     6
100
AcDbCircle
 10
750.1888888889337
 20
1581.5
 30
0.0
 40
174.5111111111056
100
AcDbArc
 50
351.7636205920222
 51
8.236379407977804
  0
LINE
  5
178
330
1F
100
AcDbEntity
  8
化粧台
  6
EXLTYPE2
 62
     6
100
AcDbLine
 10
922.9000000000053
 20
1556.500000000035
 30
0.0
 11
920.8000000000395
 21
1554.40000000007
 31
0.0
  0
ARC
  5
179
330
1F
100
AcDbEntity
  8
化粧台
  6
EXLTYPE2
 62
     6
100
AcDbCircle
 10
1059.811111111143
 20
1581.5
 30
0.0
 40
174.5111111111056
100
AcDbArc
 50
171.7636205920223
 51
188.2363794079779
  0
LINE
  5
17A
330
1F
100
AcDbEntity
  8
化粧台
  6
EXLTYPE2
 62
     6
100
AcDbLine
 10
887.1000000000752
 20
1556.500000000035
 30
0.0
 11
889.2000000000373
 21
1554.40000000007
 31
0.0
  0
LINE
  5
17B
330
1F
100
AcDbEntity
  8
化粧台
  6
EXLTYPE2
 62
     6
100
AcDbLine
 10
878.7500000000002
 20
1627.0
 30
0.0
 11
931.2499999999984
 21
1627.0
 31
0.0
  0
ARC
  5
17C
330
1F
100
AcDbEntity
  8
化粧台
  6
EXLTYPE2
 62
     6
100
AcDbCircle
 10
881.7500000000002
 20
1611.0
 30
0.0
 40
3.000000000000002
100
AcDbArc
 50
180.0
 51
270.0000000000002
  0
ARC
  5
17D
330
1F
100
AcDbEntity
  8
化粧台
  6
EXLTYPE2
 62
     6
100
AcDbCircle
 10
928.2500000000002
 20
1611.0
 30
0.0
 40
3.000000000000002
100
AcDbArc
 50
270.0000000000002
 51
0.0
  0
LINE
  5
17E
330
1F
100
AcDbEntity
  8
化粧台
  6
EXLTYPE2
 62
     6
100
AcDbLine
 10
931.2499999999984
 20
1627.0
 30
0.0
 11
931.2499999999984
 21
1611.0
 31
0.0
  0
LINE
  5
17F
330
1F
100
AcDbEntity
  8
化粧台
  6
EXLTYPE2
 62
     6
100
AcDbLine
 10
881.7500000000002
 20
1608.0
 30
0.0
 11
928.2500000000002
 21
1608.0
 31
0.0
  0
LINE
  5
180
330
1F
100
AcDbEntity
  8
化粧台
  6
EXLTYPE2
 62
     6
100
AcDbLine
 10
878.7500000000002
 20
1627.0
 30
0.0
 11
878.7500000000002
 21
1611.0
 31
0.0
  0
LINE
  5
181
330
1F
100
AcDbEntity
  8
化粧台
  6
EXLTYPE2
 62
     6
100
AcDbLine
 10
887.0999999999988
 20
1606.5
 30
0.0
 11
887.0999999999988
 21
1608.0
 31
0.0
  0
LINE
  5
182
330
1F
100
AcDbEntity
  8
化粧台
  6
EXLTYPE2
 62
     6
100
AcDbLine
 10
922.899999999998
 20
1606.5
 30
0.0
 11
922.899999999998
 21
1608.0
 31
0.0
  0
LINE
  5
183
330
1F
100
AcDbEntity
  8
化粧台
  6
EXLTYPE2
 62
     6
100
AcDbLine
 10
876.700000000041
 20
1642.2
 30
0.0
 11
933.3000000000377
 21
1642.2
 31
0.0
  0
LINE
  5
184
330
1F
100
AcDbEntity
  8
化粧台
  6
EXLTYPE2
 62
     6
100
AcDbLine
 10
879.5000000000402
 20
1642.2
 30
0.0
 11
879.5000000000402
 21
1634.400000000001
 31
0.0
  0
LINE
  5
185
330
1F
100
AcDbEntity
  8
化粧台
  6
EXLTYPE2
 62
     6
100
AcDbLine
 10
930.5000000000402
 20
1642.2
 30
0.0
 11
930.5000000000402
 21
1634.400000000001
 31
0.0
  0
LINE
  5
186
330
1F
100
AcDbEntity
  8
化粧台
  6
EXLTYPE2
 62
     6
100
AcDbLine
 10
933.3000000000377
 20
1645.7
 30
0.0
 11
933.3000000000377
 21
1642.2
 31
0.0
  0
LINE
  5
187
330
1F
100
AcDbEntity
  8
化粧台
  6
EXLTYPE2
 62
     6
100
AcDbLine
 10
879.5000000000402
 20
1634.400000000001
 30
0.0
 11
930.5000000000402
 21
1634.400000000001
 31
0.0
  0
LINE
  5
188
330
1F
100
AcDbEntity
  8
化粧台
  6
EXLTYPE2
 62
     6
100
AcDbLine
 10
876.700000000041
 20
1645.7
 30
0.0
 11
876.700000000041
 21
1642.2
 31
0.0
  0
LINE
  5
189
330
1F
100
AcDbEntity
  8
化粧台
  6
EXLTYPE2
 62
     6
100
AcDbLine
 10
881.5000000000402
 20
1634.400000000001
 30
0.0
 11
881.5000000000402
 21
1627.0
 31
0.0
  0
LINE
  5
18A
330
1F
100
AcDbEntity
  8
化粧台
  6
EXLTYPE2
 62
     6
100
AcDbLine
 10
928.5000000000402
 20
1634.400000000001
 30
0.0
 11
928.5000000000402
 21
1627.0
 31
0.0
  0
LINE
  5
18B
330
1F
100
AcDbEntity
  8
化粧台
  6
EXLTYPE2
 62
     6
100
AcDbLine
 10
876.5000000000002
 20
1646.2
 30
0.0
 11
876.5000000000002
 21
1648.2
 31
0.0
  0
LINE
  5
18C
330
1F
100
AcDbEntity
  8
化粧台
  6
EXLTYPE2
 62
     6
100
AcDbLine
 10
933.4999999999984
 20
1646.2
 30
0.0
 11
933.4999999999984
 21
1648.2
 31
0.0
  0
LINE
  5
18D
330
1F
100
AcDbEntity
  8
化粧台
  6
EXLTYPE2
 62
     6
100
AcDbLine
 10
881.7249999999988
 20
1651.5
 30
0.0
 11
876.5000000000002
 21
1648.2
 31
0.0
  0
LINE
  5
18E
330
1F
100
AcDbEntity
  8
化粧台
  6
EXLTYPE2
 62
     6
100
AcDbLine
 10
928.274999999998
 20
1651.5
 30
0.0
 11
933.4999999999984
 21
1648.2
 31
0.0
  0
LINE
  5
18F
330
1F
100
AcDbEntity
  8
化粧台
  6
EXLTYPE2
 62
     6
100
AcDbLine
 10
876.5000000000002
 20
1648.2
 30
0.0
 11
933.4999999999984
 21
1648.2
 31
0.0
  0
LINE
  5
190
330
1F
100
AcDbEntity
  8
化粧台
  6
EXLTYPE2
 62
     6
100
AcDbLine
 10
876.5000000000002
 20
1646.2
 30
0.0
 11
933.4999999999984
 21
1646.2
 31
0.0
  0
LINE
  5
191
330
1F
100
AcDbEntity
  8
化粧台
  6
EXLTYPE2
 62
     6
100
AcDbLine
 10
876.700000000041
 20
1645.7
 30
0.0
 11
933.3000000000377
 21
1645.7
 31
0.0
  0
LINE
  5
192
330
1F
100
AcDbEntity
  8
化粧台
  6
EXLTYPE2
 62
     6
100
AcDbLine
 10
881.6207949497987
 20
1642.2
 30
0.0
 11
881.6207949497987
 21
1634.400000000001
 31
0.0
  0
LINE
  5
193
330
1F
100
AcDbEntity
  8
化粧台
  6
EXLTYPE2
 62
     6
100
AcDbLine
 10
902.8792050502782
 20
1642.2
 30
0.0
 11
902.8792050502782
 21
1634.400000000001
 31
0.0
  0
LINE
  5
194
330
1F
100
AcDbEntity
  8
化粧台
  6
EXLTYPE2
 62
     6
100
AcDbLine
 10
907.1207949497987
 20
1642.2
 30
0.0
 11
907.1207949497987
 21
1634.400000000001
 31
0.0
  0
LINE
  5
195
330
1F
100
AcDbEntity
  8
化粧台
  6
EXLTYPE2
 62
     6
100
AcDbLine
 10
928.3792050502782
 20
1642.2
 30
0.0
 11
928.3792050502782
 21
1634.400000000001
 31
0.0
  0
LINE
  5
196
330
1F
100
AcDbEntity
  8
化粧台
  6
EXLTYPE2
 62
     6
100
AcDbLine
 10
893.328203883608
 20
1627.0
 30
0.0
 11
893.328203883608
 21
1611.0
 31
0.0
  0
LINE
  5
197
330
1F
100
AcDbEntity
  8
化粧台
  6
EXLTYPE2
 62
     6
100
AcDbLine
 10
895.2564123650484
 20
1627.0
 30
0.0
 11
895.2564123650484
 21
1611.0
 31
0.0
  0
LINE
  5
198
330
1F
100
AcDbEntity
  8
化粧台
  6
EXLTYPE2
 62
     6
100
AcDbLine
 10
914.7435876349484
 20
1627.0
 30
0.0
 11
914.7435876349484
 21
1611.0
 31
0.0
  0
LINE
  5
199
330
1F
100
AcDbEntity
  8
化粧台
  6
EXLTYPE2
 62
     6
100
AcDbLine
 10
916.6717961163888
 20
1627.0
 30
0.0
 11
916.6717961163888
 21
1611.0
 31
0.0
  0
LINE
  5
19A
330
1F
100
AcDbEntity
  8
化粧台
  6
EXLTYPE2
 62
     6
100
AcDbLine
 10
887.0999999999988
 20
1606.5
 30
0.0
 11
922.899999999998
 21
1606.5
 31
0.0
  0
LINE
  5
19B
330
1F
100
AcDbEntity
  8
化粧台
  6
EXLTYPE2
 62
     6
100
AcDbLine
 10
887.1000000001079
 20
1556.5
 30
0.0
 11
922.8999999999689
 21
1556.5
 31
0.0
  0
LINE
  5
19C
330
1F
100
AcDbEntity
  8
化粧台
  6
EXLTYPE2
 62
     6
100
AcDbLine
 10
889.200000000041
 20
1554.400000000071
 30
0.0
 11
920.8000000000395
 21
1554.400000000071
 31
0.0
  0
LINE
  5
19D
330
1F
100
AcDbEntity
  8
化粧台
  6
EXLTYPE2
 62
     6
100
AcDbLine
 10
905.0000000000002
 20
1468.0
 30
0.0
 11
924.0000000000002
 21
1487.0
 31
0.0
  0
ARC
  5
19E
330
1F
100
AcDbEntity
  8
化粧台
  6
EXLTYPE2
 62
     6
100
AcDbCircle
 10
938.9999999999984
 20
1502.0
 30
0.0
 40
15.00000000000001
100
AcDbArc
 50
180.0
 51
270.0000000000002
  0
LINE
  5
19F
330
1F
100
AcDbEntity
  8
化粧台
  6
EXLTYPE2
 62
     6
100
AcDbLine
 10
923.0000000000002
 20
1449.0
 30
0.0
 11
923.0000000000002
 21
1486.0
 31
0.0
  0
LINE
  5
1A0
330
1F
100
AcDbEntity
  8
化粧台
  6
EXLTYPE2
 62
     6
100
AcDbLine
 10
886.0000000000002
 20
1486.0
 30
0.0
 11
923.0000000000002
 21
1486.0
 31
0.0
  0
LINE
  5
1A1
330
1F
100
AcDbEntity
  8
化粧台
  6
EXLTYPE2
 62
     6
100
AcDbLine
 10
888.7500000000002
 20
1483.0
 30
0.0
 11
920.0000000000002
 21
1483.0
 31
0.0
  0
LINE
  5
1A2
330
1F
100
AcDbEntity
  8
化粧台
  6
EXLTYPE2
 62
     6
100
AcDbLine
 10
920.0000000000002
 20
1451.75
 30
0.0
 11
920.0000000000002
 21
1483.0
 31
0.0
  0
LINE
  5
1A3
330
1F
100
AcDbEntity
  8
化粧台
  6
EXLTYPE2
 62
     6
100
AcDbLine
 10
941.6999999999973
 20
1449.0
 30
0.0
 11
923.0000000000002
 21
1449.0
 31
0.0
  0
LINE
  5
1A4
330
1F
100
AcDbEntity
  8
化粧台
  6
EXLTYPE2
 62
     6
100
AcDbLine
 10
886.0000000000002
 20
1486.0
 30
0.0
 11
886.0000000000002
 21
1504.7
 31
0.0
  0
LINE
  5
1A5
330
1F
100
AcDbEntity
  8
化粧台
  6
EXLTYPE2
 62
     6
100
AcDbLine
 10
888.7499999999966
 20
1468.0
 30
0.0
 11
888.7499999999966
 21
1483.0
 31
0.0
  0
LINE
  5
1A6
330
1F
100
AcDbEntity
  8
化粧台
  6
EXLTYPE2
 62
     6
100
AcDbLine
 10
904.9999999999966
 20
1451.75
 30
0.0
 11
920.0000000000002
 21
1451.75
 31
0.0
  0
ARC
  5
1A7
330
1F
100
AcDbEntity
  8
化粧台
  6
EXLTYPE2
 62
     6
100
AcDbCircle
 10
904.9999999999966
 20
1468.0
 30
0.0
 40
16.25
100
AcDbArc
 50
180.0
 51
270.0000000000002
  0
LINE
  5
1A8
330
1F
100
AcDbEntity
  8
化粧台
  6
EXLTYPE2
 62
     6
100
AcDbLine
 10
923.0000000000002
 20
1449.0
 30
0.0
 11
920.0000000000002
 21
1451.75
 31
0.0
  0
LINE
  5
1A9
330
1F
100
AcDbEntity
  8
化粧台
  6
EXLTYPE2
 62
     6
100
AcDbLine
 10
886.0000000000002
 20
1486.0
 30
0.0
 11
888.7500000000002
 21
1483.0
 31
0.0
  0
LINE
  5
1AA
330
1F
100
AcDbEntity
  8
化粧台
  6
EXLTYPE2
 62
     6
100
AcDbLine
 10
941.6999999999991
 20
1487.0
 30
0.0
 11
924.0000000000002
 21
1487.0
 31
0.0
  0
LINE
  5
1AB
330
1F
100
AcDbEntity
  8
化粧台
  6
EXLTYPE2
 62
     6
100
AcDbLine
 10
924.0000000000002
 20
1487.0
 30
0.0
 11
924.0000000000002
 21
1504.7
 31
0.0
  0
LINE
  5
1AC
330
1F
100
AcDbEntity
  8
化粧台
  6
EXLTYPE2
 62
     6
100
AcDbLine
 10
959.4999999999984
 20
1490.799999999999
 30
0.0
 11
941.6999999999991
 21
1490.799999999999
 31
0.0
  0
LINE
  5
1AD
330
1F
100
AcDbEntity
  8
化粧台
  6
EXLTYPE2
 62
     6
100
AcDbLine
 10
959.4999999999984
 20
1445.2
 30
0.0
 11
941.6999999999973
 21
1445.2
 31
0.0
  0
LINE
  5
1AE
330
1F
100
AcDbEntity
  8
化粧台
  6
EXLTYPE2
 62
     6
100
AcDbLine
 10
959.4999999999984
 20
1490.799999999999
 30
0.0
 11
959.4999999999984
 21
1445.2
 31
0.0
  0
LINE
  5
1AF
330
1F
100
AcDbEntity
  8
化粧台
  6
EXLTYPE2
 62
     6
100
AcDbLine
 10
941.6999999999991
 20
1490.799999999999
 30
0.0
 11
941.6999999999973
 21
1445.2
 31
0.0
  0
LINE
  5
1B0
330
1F
100
AcDbEntity
  8
化粧台
  6
EXLTYPE2
 62
     6
100
AcDbLine
 10
882.200000000001
 20
1522.5
 30
0.0
 11
882.200000000001
 21
1504.7
 31
0.0
  0
LINE
  5
1B1
330
1F
100
AcDbEntity
  8
化粧台
  6
EXLTYPE2
 62
     6
100
AcDbLine
 10
927.7999999999995
 20
1522.5
 30
0.0
 11
927.7999999999995
 21
1504.7
 31
0.0
  0
LINE
  5
1B2
330
1F
100
AcDbEntity
  8
化粧台
  6
EXLTYPE2
 62
     6
100
AcDbLine
 10
882.200000000001
 20
1522.5
 30
0.0
 11
927.7999999999995
 21
1522.5
 31
0.0
  0
LINE
  5
1B3
330
1F
100
AcDbEntity
  8
化粧台
  6
EXLTYPE2
 62
     6
100
AcDbLine
 10
882.200000000001
 20
1504.7
 30
0.0
 11
927.7999999999995
 21
1504.7
 31
0.0
  0
LINE
  5
1B4
330
1F
100
AcDbEntity
  8
化粧台
  6
EXLTYPE2
 62
     6
100
AcDbLine
 10
926.6433569164003
 20
1520.5
 30
0.0
 11
926.6433569164003
 21
1504.7
 31
0.0
  0
LINE
  5
1B5
330
1F
100
AcDbEntity
  8
化粧台
  6
EXLTYPE2
 62
     6
100
AcDbLine
 10
883.3566430836001
 20
1520.5
 30
0.0
 11
883.3566430836001
 21
1504.7
 31
0.0
  0
LINE
  5
1B6
330
1F
100
AcDbEntity
  8
化粧台
  6
EXLTYPE2
 62
     6
100
AcDbLine
 10
915.6007123056991
 20
1520.5
 30
0.0
 11
915.6007123056991
 21
1504.7
 31
0.0
  0
LINE
  5
1B7
330
1F
100
AcDbEntity
  8
化粧台
  6
EXLTYPE2
 62
     6
100
AcDbLine
 10
912.8083288864984
 20
1520.5
 30
0.0
 11
912.8083288864984
 21
1504.7
 31
0.0
  0
LINE
  5
1B8
330
1F
100
AcDbEntity
  8
化粧台
  6
EXLTYPE2
 62
     6
100
AcDbLine
 10
897.1916711134984
 20
1520.5
 30
0.0
 11
897.1916711134984
 21
1504.7
 31
0.0
  0
LINE
  5
1B9
330
1F
100
AcDbEntity
  8
化粧台
  6
EXLTYPE2
 62
     6
100
AcDbLine
 10
894.3992876943014
 20
1520.5
 30
0.0
 11
894.3992876943014
 21
1504.7
 31
0.0
  0
LINE
  5
1BA
330
1F
100
AcDbEntity
  8
化粧台
  6
EXLTYPE2
 62
     6
100
AcDbLine
 10
957.4999999999984
 20
1446.3566430836
 30
0.0
 11
941.6999999999973
 21
1446.3566430836
 31
0.0
  0
LINE
  5
1BB
330
1F
100
AcDbEntity
  8
化粧台
  6
EXLTYPE2
 62
     6
100
AcDbLine
 10
957.4999999999984
 20
1489.643356916399
 30
0.0
 11
941.6999999999991
 21
1489.643356916399
 31
0.0
  0
LINE
  5
1BC
330
1F
100
AcDbEntity
  8
化粧台
  6
EXLTYPE2
 62
     6
100
AcDbLine
 10
957.4999999999984
 20
1457.399287694299
 30
0.0
 11
941.6999999999973
 21
1457.399287694299
 31
0.0
  0
LINE
  5
1BD
330
1F
100
AcDbEntity
  8
化粧台
  6
EXLTYPE2
 62
     6
100
AcDbLine
 10
957.4999999999984
 20
1460.1916711135
 30
0.0
 11
941.6999999999973
 21
1460.1916711135
 31
0.0
  0
LINE
  5
1BE
330
1F
100
AcDbEntity
  8
化粧台
  6
EXLTYPE2
 62
     6
100
AcDbLine
 10
957.4999999999984
 20
1475.8083288865
 30
0.0
 11
941.6999999999991
 21
1475.8083288865
 31
0.0
  0
LINE
  5
1BF
330
1F
100
AcDbEntity
  8
化粧台
  6
EXLTYPE2
 62
     6
100
AcDbLine
 10
957.4999999999984
 20
1478.600712305699
 30
0.0
 11
941.6999999999991
 21
1478.600712305699
 31
0.0
  0
LINE
  5
1C0
330
1F
100
AcDbEntity
  8
化粧台
  6
EXLTYPE2
 62
     6
100
AcDbLine
 10
889.2000000000373
 20
1554.400000000071
 30
0.0
 11
889.2000000000373
 21
1522.5
 31
0.0
  0
LINE
  5
1C1
330
1F
100
AcDbEntity
  8
化粧台
  6
EXLTYPE2
 62
     6
100
AcDbLine
 10
920.8000000000395
 20
1554.400000000071
 30
0.0
 11
920.8000000000395
 21
1522.5
 31
0.0
  0
LINE
  5
1C2
330
1F
100
AcDbEntity
  8
化粧台
  6
EXLTYPE2
 62
     6
100
AcDbLine
 10
1038.999999999991
 20
1483.999999999999
 30
0.0
 11
959.4999999999984
 21
1483.999999999999
 31
0.0
  0
LINE
  5
1C3
330
1F
100
AcDbEntity
  8
化粧台
  6
EXLTYPE2
 62
     6
100
AcDbLine
 10
1038.999999999995
 20
1452.0
 30
0.0
 11
959.4999999999984
 21
1452.0
 31
0.0
  0
LINE
  5
1C4
330
1F
100
AcDbEntity
  8
化粧台
  6
EXLTYPE2
 62
     6
100
AcDbLine
 10
966.9999999999984
 20
1441.5
 30
0.0
 11
966.9999999999984
 21
1430.5
 31
0.0
  0
LINE
  5
1C5
330
1F
100
AcDbEntity
  8
化粧台
  6
EXLTYPE2
 62
     6
100
AcDbLine
 10
992.9999999999984
 20
1441.5
 30
0.0
 11
992.9999999999984
 21
1430.5
 31
0.0
  0
LINE
  5
1C6
330
1F
100
AcDbEntity
  8
化粧台
  6
EXLTYPE2
 62
     6
100
AcDbLine
 10
966.9999999999984
 20
1441.5
 30
0.0
 11
992.9999999999984
 21
1441.5
 31
0.0
  0
LINE
  5
1C7
330
1F
100
AcDbEntity
  8
化粧台
  6
EXLTYPE2
 62
     6
100
AcDbLine
 10
989.9999999999984
 20
1470.5
 30
0.0
 11
989.9999999999984
 21
1441.5
 31
0.0
  0
LINE
  5
1C8
330
1F
100
AcDbEntity
  8
化粧台
  6
EXLTYPE2
 62
     6
100
AcDbLine
 10
969.9999999999984
 20
1470.5
 30
0.0
 11
969.9999999999984
 21
1441.5
 31
0.0
  0
LINE
  5
1C9
330
1F
100
AcDbEntity
  8
化粧台
  6
EXLTYPE2
 62
     6
100
AcDbLine
 10
965.4999999999984
 20
1484.500000000001
 30
0.0
 11
994.4999999999984
 21
1484.500000000001
 31
0.0
  0
LINE
  5
1CA
330
1F
100
AcDbEntity
  8
化粧台
  6
EXLTYPE2
 62
     6
100
AcDbLine
 10
965.4999999999984
 20
1470.5
 30
0.0
 11
965.4999999999984
 21
1484.5
 31
0.0
  0
LINE
  5
1CB
330
1F
100
AcDbEntity
  8
化粧台
  6
EXLTYPE2
 62
     6
100
AcDbLine
 10
994.4999999999984
 20
1470.5
 30
0.0
 11
994.4999999999984
 21
1484.5
 31
0.0
  0
LINE
  5
1CC
330
1F
100
AcDbEntity
  8
化粧台
  6
EXLTYPE2
 62
     6
100
AcDbLine
 10
965.4999999999984
 20
1470.5
 30
0.0
 11
994.4999999999984
 21
1470.5
 31
0.0
  0
LINE
  5
1CD
330
1F
100
AcDbEntity
  8
化粧台
  6
EXLTYPE2
 62
     6
100
AcDbLine
 10
843.0000000000002
 20
1401.66369123504
 30
0.0
 11
843.0000000000002
 21
1413.33630876496
 31
0.0
  0
LINE
  5
1CE
330
1F
100
AcDbEntity
  8
化粧台
  6
EXLTYPE2
 62
     6
100
AcDbLine
 10
841.5543916547906
 20
1415.84017586672
 30
0.0
 11
831.4456083452098
 21
1421.67648463168
 31
0.0
  0
LINE
  5
1CF
330
1F
100
AcDbEntity
  8
化粧台
  6
EXLTYPE2
 62
     6
100
AcDbLine
 10
828.5543916547906
 20
1421.67648463168
 30
0.0
 11
818.4456083452098
 21
1415.84017586672
 31
0.0
  0
LINE
  5
1D0
330
1F
100
AcDbEntity
  8
化粧台
  6
EXLTYPE2
 62
     6
100
AcDbLine
 10
817.0000000000002
 20
1413.33630876496
 30
0.0
 11
817.0000000000002
 21
1401.66369123504
 31
0.0
  0
LINE
  5
1D1
330
1F
100
AcDbEntity
  8
化粧台
  6
EXLTYPE2
 62
     6
100
AcDbLine
 10
818.4456083452098
 20
1399.15982413328
 30
0.0
 11
828.5543916547906
 21
1393.32351536832
 31
0.0
  0
LINE
  5
1D2
330
1F
100
AcDbEntity
  8
化粧台
  6
EXLTYPE2
 62
     6
100
AcDbLine
 10
831.4456083452098
 20
1393.32351536832
 30
0.0
 11
841.5543916547906
 21
1399.15982413328
 31
0.0
  0
ARC
  5
1D3
330
1F
100
AcDbEntity
  8
化粧台
  6
EXLTYPE2
 62
     6
100
AcDbCircle
 10
830.0000000000002
 20
1407.5
 30
0.0
 40
14.25000000000001
100
AcDbArc
 50
264.1775448336001
 51
275.8224551664
  0
ARC
  5
1D4
330
1F
100
AcDbEntity
  8
化粧台
  6
EXLTYPE2
 62
     6
100
AcDbCircle
 10
830.0000000000002
 20
1407.5
 30
0.0
 40
14.25000000000001
100
AcDbArc
 50
324.1775448336001
 51
335.8224551664001
  0
ARC
  5
1D5
330
1F
100
AcDbEntity
  8
化粧台
  6
EXLTYPE2
 62
     6
100
AcDbCircle
 10
830.0000000000002
 20
1407.5
 30
0.0
 40
14.25000000000001
100
AcDbArc
 50
24.17754483359991
 51
35.82245516639971
  0
ARC
  5
1D6
330
1F
100
AcDbEntity
  8
化粧台
  6
EXLTYPE2
 62
     6
100
AcDbCircle
 10
830.0000000000002
 20
1407.5
 30
0.0
 40
14.25000000000001
100
AcDbArc
 50
144.1775448336404
 51
155.8224551663601
  0
ARC
  5
1D7
330
1F
100
AcDbEntity
  8
化粧台
  6
EXLTYPE2
 62
     6
100
AcDbCircle
 10
830.0000000000002
 20
1407.5
 30
0.0
 40
14.25000000000001
100
AcDbArc
 50
204.1775448336003
 51
215.8224551664
  0
CIRCLE
  5
1D8
330
1F
100
AcDbEntity
  8
化粧台
  6
EXLTYPE2
 62
     6
100
AcDbCircle
 10
830.0000000000002
 20
1407.5
 30
0.0
 40
4.75
  0
CIRCLE
  5
1D9
330
1F
100
AcDbEntity
  8
化粧台
  6
EXLTYPE2
 62
     6
100
AcDbCircle
 10
830.0000000000002
 20
1407.5
 30
0.0
 40
12.07434891639
  0
LINE
  5
1DA
330
1F
100
AcDbEntity
  8
化粧台
  6
EXLTYPE2
 62
     6
100
AcDbLine
 10
819.5000000000002
 20
1430.5
 30
0.0
 11
819.5000000000002
 21
1416.448929172444
 31
0.0
  0
LINE
  5
1DB
330
1F
100
AcDbEntity
  8
化粧台
  6
EXLTYPE2
 62
     6
100
AcDbLine
 10
840.5000000000002
 20
1430.5
 30
0.0
 11
840.5000000000002
 21
1416.448929172444
 31
0.0
  0
ARC
  5
1DC
330
1F
100
AcDbEntity
  8
化粧台
  6
EXLTYPE2
 62
     6
100
AcDbCircle
 10
830.0000000000002
 20
1407.5
 30
0.0
 40
14.25000000000001
100
AcDbArc
 50
84.1775448336001
 51
95.82245516635992
  0
LINE
  5
1DD
330
1F
100
AcDbEntity
  8
化粧台
  6
EXLTYPE2
 62
     6
100
AcDbLine
 10
817.0000000000002
 20
1441.5
 30
0.0
 11
817.0000000000002
 21
1430.5
 31
0.0
  0
LINE
  5
1DE
330
1F
100
AcDbEntity
  8
化粧台
  6
EXLTYPE2
 62
     6
100
AcDbLine
 10
843.0000000000002
 20
1441.5
 30
0.0
 11
843.0000000000002
 21
1430.5
 31
0.0
  0
LINE
  5
1DF
330
1F
100
AcDbEntity
  8
化粧台
  6
EXLTYPE2
 62
     6
100
AcDbLine
 10
817.0000000000002
 20
1441.5
 30
0.0
 11
843.0000000000002
 21
1441.5
 31
0.0
  0
LINE
  5
1E0
330
1F
100
AcDbEntity
  8
化粧台
  6
EXLTYPE2
 62
     6
100
AcDbLine
 10
840.0000000000002
 20
1470.5
 30
0.0
 11
840.0000000000002
 21
1441.5
 31
0.0
  0
LINE
  5
1E1
330
1F
100
AcDbEntity
  8
化粧台
  6
EXLTYPE2
 62
     6
100
AcDbLine
 10
820.0000000000002
 20
1470.5
 30
0.0
 11
820.0000000000002
 21
1441.5
 31
0.0
  0
LINE
  5
1E2
330
1F
100
AcDbEntity
  8
化粧台
  6
EXLTYPE2
 62
     6
100
AcDbLine
 10
815.5000000000002
 20
1484.500000000001
 30
0.0
 11
844.5000000000002
 21
1484.500000000001
 31
0.0
  0
LINE
  5
1E3
330
1F
100
AcDbEntity
  8
化粧台
  6
EXLTYPE2
 62
     6
100
AcDbLine
 10
815.5000000000002
 20
1470.5
 30
0.0
 11
815.5000000000002
 21
1484.5
 31
0.0
  0
LINE
  5
1E4
330
1F
100
AcDbEntity
  8
化粧台
  6
EXLTYPE2
 62
     6
100
AcDbLine
 10
844.5000000000002
 20
1470.5
 30
0.0
 11
844.5000000000002
 21
1484.5
 31
0.0
  0
LINE
  5
1E5
330
1F
100
AcDbEntity
  8
化粧台
  6
EXLTYPE2
 62
     6
100
AcDbLine
 10
815.5000000000002
 20
1470.5
 30
0.0
 11
844.5000000000002
 21
1470.5
 31
0.0
  0
LINE
  5
1E6
330
1F
100
AcDbEntity
  8
化粧台
  6
EXLTYPE2
 62
     6
100
AcDbLine
 10
817.0000000000002
 20
1430.5
 30
0.0
 11
843.0000000000002
 21
1430.5
 31
0.0
  0
LINE
  5
1E7
330
1F
100
AcDbEntity
  8
化粧台
  6
EXLTYPE2
 62
     6
100
AcDbLine
 10
824.0000000000002
 20
1535.374224567746
 30
0.0
 11
824.0000000000002
 21
1484.500000000001
 31
0.0
  0
LINE
  5
1E8
330
1F
100
AcDbEntity
  8
化粧台
  6
EXLTYPE2
 62
     6
100
AcDbLine
 10
836.0000000000002
 20
1484.500000000001
 30
0.0
 11
836.0000000000002
 21
1535.374224567746
 31
0.0
  0
ARC
  5
1E9
330
1F
100
AcDbEntity
  8
化粧台
  6
EXLTYPE2
 62
     6
100
AcDbCircle
 10
1035.999999999998
 20
1535.374224567746
 30
0.0
 40
200.0000000000001
100
AcDbArc
 50
144.5052133271345
 51
180.0
  0
ARC
  5
1EA
330
1F
100
AcDbEntity
  8
化粧台
  6
EXLTYPE2
 62
     6
100
AcDbCircle
 10
1035.999999999998
 20
1535.374224567746
 30
0.0
 40
212.0000000000001
100
AcDbArc
 50
144.2698192310888
 51
180.0
  0
ARC
  5
1EB
330
1F
100
AcDbEntity
  8
化粧台
  6
EXLTYPE2
 62
     6
100
AcDbCircle
 10
774.0000000000002
 20
1535.374224567746
 30
0.0
 40
200.0000000000001
100
AcDbArc
 50
0.0
 51
35.49478667286554
  0
ARC
  5
1EC
330
1F
100
AcDbEntity
  8
化粧台
  6
EXLTYPE2
 62
     6
100
AcDbCircle
 10
774.0000000000002
 20
1535.374224567746
 30
0.0
 40
212.0000000000001
100
AcDbArc
 50
0.0
 51
35.73018076891117
  0
LINE
  5
1ED
330
1F
100
AcDbEntity
  8
化粧台
  6
EXLTYPE2
 62
     6
100
AcDbLine
 10
973.9999999999984
 20
1535.374224567746
 30
0.0
 11
973.9999999999984
 21
1484.500000000001
 31
0.0
  0
LINE
  5
1EE
330
1F
100
AcDbEntity
  8
化粧台
  6
EXLTYPE2
 62
     6
100
AcDbLine
 10
985.9999999999984
 20
1484.500000000001
 30
0.0
 11
985.9999999999984
 21
1535.374224567746
 31
0.0
  0
LINE
  5
1EF
330
1F
100
AcDbEntity
  8
化粧台
  6
EXLTYPE2
 62
     6
100
AcDbLine
 10
992.9999999999984
 20
1401.66369123504
 30
0.0
 11
992.9999999999984
 21
1413.33630876496
 31
0.0
  0
LINE
  5
1F0
330
1F
100
AcDbEntity
  8
化粧台
  6
EXLTYPE2
 62
     6
100
AcDbLine
 10
991.5543916547888
 20
1415.84017586672
 30
0.0
 11
981.445608345208
 21
1421.67648463168
 31
0.0
  0
LINE
  5
1F1
330
1F
100
AcDbEntity
  8
化粧台
  6
EXLTYPE2
 62
     6
100
AcDbLine
 10
978.5543916547888
 20
1421.67648463168
 30
0.0
 11
968.445608345208
 21
1415.84017586672
 31
0.0
  0
LINE
  5
1F2
330
1F
100
AcDbEntity
  8
化粧台
  6
EXLTYPE2
 62
     6
100
AcDbLine
 10
966.9999999999984
 20
1413.33630876496
 30
0.0
 11
966.9999999999984
 21
1401.66369123504
 31
0.0
  0
LINE
  5
1F3
330
1F
100
AcDbEntity
  8
化粧台
  6
EXLTYPE2
 62
     6
100
AcDbLine
 10
968.445608345208
 20
1399.15982413328
 30
0.0
 11
978.5543916547888
 21
1393.32351536832
 31
0.0
  0
LINE
  5
1F4
330
1F
100
AcDbEntity
  8
化粧台
  6
EXLTYPE2
 62
     6
100
AcDbLine
 10
981.445608345208
 20
1393.32351536832
 30
0.0
 11
991.5543916547888
 21
1399.15982413328
 31
0.0
  0
ARC
  5
1F5
330
1F
100
AcDbEntity
  8
化粧台
  6
EXLTYPE2
 62
     6
100
AcDbCircle
 10
979.9999999999984
 20
1407.5
 30
0.0
 40
14.25000000000001
100
AcDbArc
 50
264.1775448336001
 51
275.8224551664
  0
ARC
  5
1F6
330
1F
100
AcDbEntity
  8
化粧台
  6
EXLTYPE2
 62
     6
100
AcDbCircle
 10
979.9999999999984
 20
1407.5
 30
0.0
 40
14.25000000000001
100
AcDbArc
 50
324.1775448336001
 51
335.8224551664001
  0
ARC
  5
1F7
330
1F
100
AcDbEntity
  8
化粧台
  6
EXLTYPE2
 62
     6
100
AcDbCircle
 10
979.9999999999984
 20
1407.5
 30
0.0
 40
14.25000000000001
100
AcDbArc
 50
24.17754483359991
 51
35.82245516639971
  0
ARC
  5
1F8
330
1F
100
AcDbEntity
  8
化粧台
  6
EXLTYPE2
 62
     6
100
AcDbCircle
 10
979.9999999999984
 20
1407.5
 30
0.0
 40
14.25000000000001
100
AcDbArc
 50
144.1775448336404
 51
155.8224551663601
  0
ARC
  5
1F9
330
1F
100
AcDbEntity
  8
化粧台
  6
EXLTYPE2
 62
     6
100
AcDbCircle
 10
979.9999999999984
 20
1407.5
 30
0.0
 40
14.25000000000001
100
AcDbArc
 50
204.1775448336003
 51
215.8224551664
  0
CIRCLE
  5
1FA
330
1F
100
AcDbEntity
  8
化粧台
  6
EXLTYPE2
 62
     6
100
AcDbCircle
 10
979.9999999999984
 20
1407.5
 30
0.0
 40
4.75
  0
CIRCLE
  5
1FB
330
1F
100
AcDbEntity
  8
化粧台
  6
EXLTYPE2
 62
     6
100
AcDbCircle
 10
979.9999999999984
 20
1407.5
 30
0.0
 40
12.07434891639
  0
LINE
  5
1FC
330
1F
100
AcDbEntity
  8
化粧台
  6
EXLTYPE2
 62
     6
100
AcDbLine
 10
969.4999999999984
 20
1430.5
 30
0.0
 11
969.4999999999984
 21
1416.448929172444
 31
0.0
  0
LINE
  5
1FD
330
1F
100
AcDbEntity
  8
化粧台
  6
EXLTYPE2
 62
     6
100
AcDbLine
 10
990.4999999999984
 20
1430.5
 30
0.0
 11
990.4999999999984
 21
1416.448929172444
 31
0.0
  0
ARC
  5
1FE
330
1F
100
AcDbEntity
  8
化粧台
  6
EXLTYPE2
 62
     6
100
AcDbCircle
 10
979.9999999999984
 20
1407.5
 30
0.0
 40
14.25000000000001
100
AcDbArc
 50
84.1775448336001
 51
95.82245516635992
  0
LINE
  5
1FF
330
1F
100
AcDbEntity
  8
化粧台
  6
EXLTYPE2
 62
     6
100
AcDbLine
 10
966.9999999999984
 20
1430.5
 30
0.0
 11
992.9999999999984
 21
1430.5
 31
0.0
  0
LINE
  5
200
330
1F
100
AcDbEntity
  8
化粧台
  6
CONTINUOUS
 62
     6
100
AcDbLine
 10
800.0000000000002
 20
1407.5
 30
0.0
 11
860.0000000000002
 21
1407.5
 31
0.0
  0
LINE
  5
201
330
1F
100
AcDbEntity
  8
化粧台
  6
CONTINUOUS
 62
     6
100
AcDbLine
 10
830.0000000000002
 20
1437.5
 30
0.0
 11
830.0000000000002
 21
1377.5
 31
0.0
  0
LINE
  5
202
330
1F
100
AcDbEntity
  8
化粧台
  6
CONTINUOUS
 62
     6
100
AcDbLine
 10
949.9999999999984
 20
1407.5
 30
0.0
 11
1009.999999999998
 21
1407.5
 31
0.0
  0
LINE
  5
203
330
1F
100
AcDbEntity
  8
化粧台
  6
CONTINUOUS
 62
     6
100
AcDbLine
 10
979.9999999999984
 20
1437.5
 30
0.0
 11
979.9999999999984
 21
1377.5
 31
0.0
  0
LINE
  5
204
330
1F
100
AcDbEntity
  8
化粧台
  6
EXLTYPE2
 62
     6
100
AcDbLine
 10
780.0000000000002
 20
1127.5
 30
0.0
 11
1029.999999999998
 21
1127.5
 31
0.0
  0
LINE
  5
205
330
1F
100
AcDbEntity
  8
化粧台
  6
EXLTYPE2
 62
     6
100
AcDbLine
 10
780.0000000000002
 20
1092.5
 30
0.0
 11
1029.999999999998
 21
1092.5
 31
0.0
  0
LINE
  5
206
330
1F
100
AcDbEntity
  8
化粧台
  6
EXLTYPE2
 62
     6
100
AcDbLine
 10
780.0000000000002
 20
1127.5
 30
0.0
 11
780.0000000000002
 21
1092.5
 31
0.0
  0
LINE
  5
207
330
1F
100
AcDbEntity
  8
化粧台
  6
EXLTYPE2
 62
     6
100
AcDbLine
 10
1029.999999999998
 20
1127.5
 30
0.0
 11
1029.999999999998
 21
1092.5
 31
0.0
  0
LINE
  5
208
330
1F
100
AcDbEntity
  8
化粧台
  6
EXLTYPE4
 62
     6
100
AcDbLine
 10
2535.0
 20
987.5
 30
0.0
 11
1906.499999999998
 21
987.5
 31
0.0
  0
TEXT
  5
209
330
1F
100
AcDbEntity
  8
化粧台
  6
CONTINUOUS
 62
     2
100
AcDbText
 10
1906.499999999998
 20
987.5
 30
0.0
 40
59.99999618530273
  1
F.L.
 41
0.6227488631227187
  7
EXCADSTD
 72
     5
 11
1997.243399999998
 21
987.5
 31
0.0
100
AcDbText
  0
LINE
  5
20A
330
1F
100
AcDbEntity
  8
化粧台
  6
CONTINUOUS
 62
     2
100
AcDbLine
 10
2535.000000000002
 20
1686.499999999999
 30
0.0
 11
2535.000000000002
 21
1667.499999999999
 31
0.0
  0
ARC
  5
20B
330
1F
100
AcDbEntity
  8
化粧台
  6
CONTINUOUS
 62
     2
100
AcDbCircle
 10
2087.000000000002
 20
1684.499999999999
 30
0.0
 40
2.0
100
AcDbArc
 50
90.00000000000004
 51
180.0
  0
LINE
  5
20C
330
1F
100
AcDbEntity
  8
化粧台
  6
CONTINUOUS
 62
     2
100
AcDbLine
 10
2085.000000000002
 20
1684.499999999999
 30
0.0
 11
2085.000000000002
 21
1669.499999999999
 31
0.0
  0
ARC
  5
20D
330
1F
100
AcDbEntity
  8
化粧台
  6
CONTINUOUS
 62
     2
100
AcDbCircle
 10
2087.000000000002
 20
1669.499999999999
 30
0.0
 40
2.0
100
AcDbArc
 50
180.0
 51
270.0000000000002
  0
LINE
  5
20E
330
1F
100
AcDbEntity
  8
化粧台
  6
CONTINUOUS
 62
     2
100
AcDbLine
 10
2110.000000000002
 20
987.5
 30
0.0
 11
2535.000000000002
 21
987.5
 31
0.0
  0
LINE
  5
20F
330
1F
100
AcDbEntity
  8
化粧台
  6
CONTINUOUS
 62
     2
100
AcDbLine
 10
2535.000000000002
 20
987.5
 30
0.0
 11
2535.000000000002
 21
1667.499999999999
 31
0.0
  0
LINE
  5
210
330
1F
100
AcDbEntity
  8
化粧台
  6
CONTINUOUS
 62
     2
100
AcDbLine
 10
2110.000000000002
 20
987.5
 30
0.0
 11
2110.000000000002
 21
1667.499999999999
 31
0.0
  0
LINE
  5
211
330
1F
100
AcDbEntity
  8
化粧台
  6
CONTINUOUS
 62
     2
100
AcDbLine
 10
2089.500000000002
 20
1077.5
 30
0.0
 11
2106.500000000002
 21
1077.5
 31
0.0
  0
LINE
  5
212
330
1F
100
AcDbEntity
  8
化粧台
  6
CONTINUOUS
 62
     2
100
AcDbLine
 10
2089.500000000002
 20
1487.5
 30
0.0
 11
2106.500000000002
 21
1487.5
 31
0.0
  0
LINE
  5
213
330
1F
100
AcDbEntity
  8
化粧台
  6
CONTINUOUS
 62
     2
100
AcDbLine
 10
2089.500000000002
 20
1632.5
 30
0.0
 11
2106.500000000002
 21
1632.5
 31
0.0
  0
LINE
  5
214
330
1F
100
AcDbEntity
  8
化粧台
  6
CONTINUOUS
 62
     2
100
AcDbLine
 10
2089.500000000002
 20
1487.5
 30
0.0
 11
2089.500000000002
 21
1632.5
 31
0.0
  0
LINE
  5
215
330
1F
100
AcDbEntity
  8
化粧台
  6
CONTINUOUS
 62
     2
100
AcDbLine
 10
2106.500000000002
 20
1487.5
 30
0.0
 11
2106.500000000002
 21
1632.5
 31
0.0
  0
LINE
  5
216
330
1F
100
AcDbEntity
  8
化粧台
  6
CONTINUOUS
 62
     6
100
AcDbLine
 10
2088.500000000008
 20
1632.499999999995
 30
0.0
 11
2106.500000000004
 21
1632.499999999995
 31
0.0
  0
ARC
  5
217
330
1F
100
AcDbEntity
  8
化粧台
  6
CONTINUOUS
 62
     6
100
AcDbCircle
 10
2105.149999999996
 20
1659.450000000009
 30
0.0
 40
1.0
100
AcDbArc
 50
0.0
 51
90.00000000000004
  0
ARC
  5
218
330
1F
100
AcDbEntity
  8
化粧台
  6
CONTINUOUS
 62
     6
100
AcDbCircle
 10
2105.000000000002
 20
1659.5
 30
0.0
 40
3.000000000000003
100
AcDbArc
 50
0.0
 51
90.00000000000004
  0
ARC
  5
219
330
1F
100
AcDbEntity
  8
化粧台
  6
CONTINUOUS
 62
     6
100
AcDbCircle
 10
2088.750000000002
 20
1654.25
 30
0.0
 40
1.750000000000001
100
AcDbArc
 50
170.7449623899685
 51
68.76631365489952
  0
ARC
  5
21A
330
1F
100
AcDbEntity
  8
化粧台
  6
CONTINUOUS
 62
     6
100
AcDbCircle
 10
2101.827514544797
 20
1652.119011184754
 30
0.0
 40
13.00000000000001
100
AcDbArc
 50
142.344253969435
 51
163.1780394406755
  0
ARC
  5
21B
330
1F
100
AcDbEntity
  8
化粧台
  6
CONTINUOUS
 62
     6
100
AcDbCircle
 10
2092.327167025333
 20
1659.450000000009
 30
0.0
 40
1.0
100
AcDbArc
 50
90.00000000000004
 51
142.3442539694352
  0
ARC
  5
21C
330
1F
100
AcDbEntity
  8
化粧台
  6
CONTINUOUS
 62
     6
100
AcDbCircle
 10
2101.827514544797
 20
1652.119011184754
 30
0.0
 40
15.00000000000001
100
AcDbArc
 50
142.0420920441203
 51
170.7449623899722
  0
ARC
  5
21D
330
1F
100
AcDbEntity
  8
化粧台
  6
CONTINUOUS
 62
     6
100
AcDbCircle
 10
2092.365960544043
 20
1659.5
 30
0.0
 40
3.000000000000003
100
AcDbArc
 50
90.00000000000004
 51
142.0420920441179
  0
LINE
  5
21E
330
1F
100
AcDbEntity
  8
化粧台
  6
CONTINUOUS
 62
     6
100
AcDbLine
 10
2092.365960544003
 20
1662.5
 30
0.0
 11
2105.000000000002
 21
1662.5
 31
0.0
  0
LINE
  5
21F
330
1F
100
AcDbEntity
  8
化粧台
  6
CONTINUOUS
 62
     6
100
AcDbLine
 10
2092.327167025302
 20
1660.45000000001
 30
0.0
 11
2105.149999999996
 21
1660.45000000001
 31
0.0
  0
LINE
  5
220
330
1F
100
AcDbEntity
  8
化粧台
  6
CONTINUOUS
 62
     6
100
AcDbLine
 10
2106.149999999996
 20
1659.449999999999
 30
0.0
 11
2106.149999999996
 21
1643.060271065815
 31
0.0
  0
LINE
  5
221
330
1F
100
AcDbEntity
  8
化粧台
  6
CONTINUOUS
 62
     6
100
AcDbLine
 10
2106.500000000004
 20
1632.499999999995
 30
0.0
 11
2106.500000000004
 21
1617.5
 31
0.0
  0
LINE
  5
222
330
1F
100
AcDbEntity
  8
化粧台
  6
CONTINUOUS
 62
     6
100
AcDbLine
 10
2087.950252619616
 20
1634.54231369542
 30
0.0
 11
2098.547979043091
 21
1635.070176405472
 31
0.0
  0
ARC
  5
223
330
1F
100
AcDbEntity
  8
化粧台
  6
CONTINUOUS
 62
     6
100
AcDbCircle
 10
2098.149999999996
 20
1643.060271065815
 30
0.0
 40
8.0
100
AcDbArc
 50
272.8514919099882
 51
0.0
  0
ARC
  5
224
330
1F
100
AcDbEntity
  8
化粧台
  6
CONTINUOUS
 62
     6
100
AcDbCircle
 10
2088.000000000002
 20
1633.543551862876
 30
0.0
 40
1.0
100
AcDbArc
 50
92.8514919099879
 51
180.0
  0
ARC
  5
225
330
1F
100
AcDbEntity
  8
化粧台
  6
CONTINUOUS
 62
     6
100
AcDbCircle
 10
2107.000000000002
 20
1618.5
 30
0.0
 40
1.0
100
AcDbArc
 50
269.999999999987
 51
0.0
  0
LINE
  5
226
330
1F
100
AcDbEntity
  8
化粧台
  6
CONTINUOUS
 62
     6
100
AcDbLine
 10
2108.000000000002
 20
1659.5
 30
0.0
 11
2108.000000000002
 21
1618.5
 31
0.0
  0
LINE
  5
227
330
1F
100
AcDbEntity
  8
化粧台
  6
CONTINUOUS
 62
     6
100
AcDbLine
 10
2106.500000000002
 20
1617.5
 30
0.0
 11
2107.000000000002
 21
1617.5
 31
0.0
  0
ARC
  5
228
330
1F
100
AcDbEntity
  8
化粧台
  6
CONTINUOUS
 62
     6
100
AcDbCircle
 10
2088.000000000002
 20
1631.5
 30
0.0
 40
1.0
100
AcDbArc
 50
180.0
 51
270.000000000026
  0
LINE
  5
229
330
1F
100
AcDbEntity
  8
化粧台
  6
CONTINUOUS
 62
     6
100
AcDbLine
 10
2088.500000000002
 20
1630.5
 30
0.0
 11
2088.000000000002
 21
1630.5
 31
0.0
  0
LINE
  5
22A
330
1F
100
AcDbEntity
  8
化粧台
  6
CONTINUOUS
 62
     6
100
AcDbLine
 10
2087.000000000002
 20
1633.543551862876
 30
0.0
 11
2087.000000000002
 21
1631.5
 31
0.0
  0
LINE
  5
22B
330
1F
100
AcDbEntity
  8
化粧台
  6
CONTINUOUS
 62
     6
100
AcDbLine
 10
2088.500000000002
 20
1632.499999999995
 30
0.0
 11
2088.500000000002
 21
1630.5
 31
0.0
  0
LINE
  5
22C
330
1F
100
AcDbEntity
  8
化粧台
  6
CONTINUOUS
 62
     2
100
AcDbLine
 10
2089.500000000002
 20
1453.5
 30
0.0
 11
2106.500000000002
 21
1453.5
 31
0.0
  0
LINE
  5
22D
330
1F
100
AcDbEntity
  8
化粧台
  6
CONTINUOUS
 62
     2
100
AcDbLine
 10
2089.500000000002
 20
1077.5
 30
0.0
 11
2089.500000000002
 21
1453.499999999995
 31
0.0
  0
LINE
  5
22E
330
1F
100
AcDbEntity
  8
化粧台
  6
CONTINUOUS
 62
     2
100
AcDbLine
 10
2106.500000000002
 20
1077.5
 30
0.0
 11
2106.500000000002
 21
1453.499999999995
 31
0.0
  0
LINE
  5
22F
330
1F
100
AcDbEntity
  8
化粧台
  6
CONTINUOUS
 62
     6
100
AcDbLine
 10
2088.500000000008
 20
1453.499999999995
 30
0.0
 11
2106.500000000004
 21
1453.499999999995
 31
0.0
  0
ARC
  5
230
330
1F
100
AcDbEntity
  8
化粧台
  6
CONTINUOUS
 62
     6
100
AcDbCircle
 10
2105.149999999996
 20
1480.450000000009
 30
0.0
 40
1.0
100
AcDbArc
 50
0.0
 51
90.00000000000004
  0
ARC
  5
231
330
1F
100
AcDbEntity
  8
化粧台
  6
CONTINUOUS
 62
     6
100
AcDbCircle
 10
2105.000000000002
 20
1480.5
 30
0.0
 40
3.000000000000003
100
AcDbArc
 50
0.0
 51
90.00000000000004
  0
ARC
  5
232
330
1F
100
AcDbEntity
  8
化粧台
  6
CONTINUOUS
 62
     6
100
AcDbCircle
 10
2088.750000000002
 20
1475.25
 30
0.0
 40
1.750000000000001
100
AcDbArc
 50
170.7449623899685
 51
68.76631365489952
  0
ARC
  5
233
330
1F
100
AcDbEntity
  8
化粧台
  6
CONTINUOUS
 62
     6
100
AcDbCircle
 10
2101.827514544797
 20
1473.119011184754
 30
0.0
 40
13.00000000000001
100
AcDbArc
 50
142.344253969435
 51
163.1780394406755
  0
ARC
  5
234
330
1F
100
AcDbEntity
  8
化粧台
  6
CONTINUOUS
 62
     6
100
AcDbCircle
 10
2092.327167025333
 20
1480.450000000009
 30
0.0
 40
1.0
100
AcDbArc
 50
90.00000000000004
 51
142.3442539694352
  0
ARC
  5
235
330
1F
100
AcDbEntity
  8
化粧台
  6
CONTINUOUS
 62
     6
100
AcDbCircle
 10
2101.827514544797
 20
1473.119011184754
 30
0.0
 40
15.00000000000001
100
AcDbArc
 50
142.0420920441203
 51
170.7449623899722
  0
ARC
  5
236
330
1F
100
AcDbEntity
  8
化粧台
  6
CONTINUOUS
 62
     6
100
AcDbCircle
 10
2092.365960544043
 20
1480.5
 30
0.0
 40
3.000000000000003
100
AcDbArc
 50
90.00000000000004
 51
142.0420920441179
  0
LINE
  5
237
330
1F
100
AcDbEntity
  8
化粧台
  6
CONTINUOUS
 62
     6
100
AcDbLine
 10
2092.365960544003
 20
1483.5
 30
0.0
 11
2105.000000000002
 21
1483.5
 31
0.0
  0
LINE
  5
238
330
1F
100
AcDbEntity
  8
化粧台
  6
CONTINUOUS
 62
     6
100
AcDbLine
 10
2092.327167025302
 20
1481.450000000008
 30
0.0
 11
2105.149999999996
 21
1481.450000000008
 31
0.0
  0
LINE
  5
239
330
1F
100
AcDbEntity
  8
化粧台
  6
CONTINUOUS
 62
     6
100
AcDbLine
 10
2106.149999999996
 20
1480.449999999999
 30
0.0
 11
2106.149999999996
 21
1464.060271065815
 31
0.0
  0
LINE
  5
23A
330
1F
100
AcDbEntity
  8
化粧台
  6
CONTINUOUS
 62
     6
100
AcDbLine
 10
2106.500000000004
 20
1453.499999999995
 30
0.0
 11
2106.500000000004
 21
1438.5
 31
0.0
  0
LINE
  5
23B
330
1F
100
AcDbEntity
  8
化粧台
  6
CONTINUOUS
 62
     6
100
AcDbLine
 10
2087.950252619616
 20
1455.54231369542
 30
0.0
 11
2098.547979043091
 21
1456.070176405471
 31
0.0
  0
ARC
  5
23C
330
1F
100
AcDbEntity
  8
化粧台
  6
CONTINUOUS
 62
     6
100
AcDbCircle
 10
2098.149999999996
 20
1464.060271065815
 30
0.0
 40
8.0
100
AcDbArc
 50
272.8514919099882
 51
0.0
  0
ARC
  5
23D
330
1F
100
AcDbEntity
  8
化粧台
  6
CONTINUOUS
 62
     6
100
AcDbCircle
 10
2088.000000000002
 20
1454.543551862876
 30
0.0
 40
1.0
100
AcDbArc
 50
92.8514919099879
 51
180.0
  0
ARC
  5
23E
330
1F
100
AcDbEntity
  8
化粧台
  6
CONTINUOUS
 62
     6
100
AcDbCircle
 10
2107.000000000002
 20
1439.5
 30
0.0
 40
1.0
100
AcDbArc
 50
269.999999999987
 51
0.0
  0
LINE
  5
23F
330
1F
100
AcDbEntity
  8
化粧台
  6
CONTINUOUS
 62
     6
100
AcDbLine
 10
2108.000000000002
 20
1480.499999999999
 30
0.0
 11
2108.000000000002
 21
1439.5
 31
0.0
  0
LINE
  5
240
330
1F
100
AcDbEntity
  8
化粧台
  6
CONTINUOUS
 62
     6
100
AcDbLine
 10
2106.500000000002
 20
1438.5
 30
0.0
 11
2107.000000000002
 21
1438.5
 31
0.0
  0
ARC
  5
241
330
1F
100
AcDbEntity
  8
化粧台
  6
CONTINUOUS
 62
     6
100
AcDbCircle
 10
2088.000000000002
 20
1452.5
 30
0.0
 40
1.0
100
AcDbArc
 50
180.0
 51
270.000000000026
  0
LINE
  5
242
330
1F
100
AcDbEntity
  8
化粧台
  6
CONTINUOUS
 62
     6
100
AcDbLine
 10
2088.500000000002
 20
1451.499999999999
 30
0.0
 11
2088.000000000002
 21
1451.499999999999
 31
0.0
  0
LINE
  5
243
330
1F
100
AcDbEntity
  8
化粧台
  6
CONTINUOUS
 62
     6
100
AcDbLine
 10
2087.000000000002
 20
1454.543551862876
 30
0.0
 11
2087.000000000002
 21
1452.5
 31
0.0
  0
LINE
  5
244
330
1F
100
AcDbEntity
  8
化粧台
  6
CONTINUOUS
 62
     6
100
AcDbLine
 10
2088.500000000002
 20
1453.499999999995
 30
0.0
 11
2088.500000000002
 21
1451.499999999999
 31
0.0
  0
LINE
  5
245
330
1F
100
AcDbEntity
  8
化粧台
  6
CONTINUOUS
 62
     2
100
AcDbLine
 10
2535.000000000002
 20
1686.499999999999
 30
0.0
 11
2087.000000000002
 21
1686.499999999999
 31
0.0
  0
LINE
  5
246
330
1F
100
AcDbEntity
  8
化粧台
  6
CONTINUOUS
 62
     2
100
AcDbLine
 10
2535.000000000002
 20
1667.499999999999
 30
0.0
 11
2087.000000000002
 21
1667.499999999999
 31
0.0
  0
LINE
  5
247
330
1F
100
AcDbEntity
  8
化粧台
  6
EXLTYPE2
 62
     6
100
AcDbLine
 10
2128.500000000002
 20
1667.499999999999
 30
0.0
 11
2128.500000000002
 21
1617.499999999999
 31
0.0
  0
LINE
  5
248
330
1F
100
AcDbEntity
  8
化粧台
  6
EXLTYPE2
 62
     6
100
AcDbLine
 10
2111.000000000002
 20
1667.499999999999
 30
0.0
 11
2111.000000000002
 21
1617.499999999999
 31
0.0
  0
LINE
  5
249
330
1F
100
AcDbEntity
  8
化粧台
  6
EXLTYPE2
 62
     6
100
AcDbLine
 10
2111.000000000002
 20
1617.499999999999
 30
0.0
 11
2128.500000000002
 21
1617.499999999999
 31
0.0
  0
LINE
  5
24A
330
1F
100
AcDbEntity
  8
化粧台
  6
EXLTYPE2
 62
     6
100
AcDbLine
 10
2211.500000000004
 20
1517.5
 30
0.0
 11
2211.500000000004
 21
1577.5
 31
0.0
  0
LINE
  5
24B
330
1F
100
AcDbEntity
  8
化粧台
  6
EXLTYPE2
 62
     6
100
AcDbLine
 10
2454.500000000002
 20
1577.5
 30
0.0
 11
2454.500000000002
 21
1502.5
 31
0.0
  0
LINE
  5
24C
330
1F
100
AcDbEntity
  8
化粧台
  6
EXLTYPE2
 62
     6
100
AcDbLine
 10
2376.500000000002
 20
1577.5
 30
0.0
 11
2376.500000000002
 21
1502.5
 31
0.0
  0
LINE
  5
24D
330
1F
100
AcDbEntity
  8
化粧台
  6
EXLTYPE2
 62
     6
100
AcDbLine
 10
2454.500000000002
 20
1502.5
 30
0.0
 11
2106.500000000002
 21
1502.5
 31
0.0
  0
LINE
  5
24E
330
1F
100
AcDbEntity
  8
化粧台
  6
EXLTYPE2
 62
     6
100
AcDbLine
 10
2226.500000000004
 20
1502.5
 30
0.0
 11
2226.500000000004
 21
1577.5
 31
0.0
  0
LINE
  5
24F
330
1F
100
AcDbEntity
  8
化粧台
  6
EXLTYPE2
 62
     6
100
AcDbLine
 10
2454.500000000002
 20
1577.5
 30
0.0
 11
2106.500000000002
 21
1577.5
 31
0.0
  0
LINE
  5
250
330
1F
100
AcDbEntity
  8
化粧台
  6
EXLTYPE2
 62
     6
100
AcDbLine
 10
2211.5
 20
1517.5
 30
0.0
 11
2106.500000000002
 21
1517.5
 31
0.0
  0
LINE
  5
251
330
1F
100
AcDbEntity
  8
化粧台
  6
EXLTYPE2
 62
     6
100
AcDbLine
 10
2454.500000000002
 20
1107.499999999999
 30
0.0
 11
2106.500000000002
 21
1107.499999999999
 31
0.0
  0
LINE
  5
252
330
1F
100
AcDbEntity
  8
化粧台
  6
EXLTYPE2
 62
     6
100
AcDbLine
 10
2454.500000000002
 20
1247.499999999999
 30
0.0
 11
2454.500000000002
 21
1107.499999999999
 31
0.0
  0
LINE
  5
253
330
1F
100
AcDbEntity
  8
化粧台
  6
EXLTYPE2
 62
     6
100
AcDbLine
 10
2376.500000000002
 20
1247.499999999999
 30
0.0
 11
2376.500000000002
 21
1107.499999999999
 31
0.0
  0
LINE
  5
254
330
1F
100
AcDbEntity
  8
化粧台
  6
EXLTYPE2
 62
     6
100
AcDbLine
 10
2361.500000000004
 20
1247.499999999999
 30
0.0
 11
2361.500000000002
 21
1122.499999999999
 31
0.0
  0
LINE
  5
255
330
1F
100
AcDbEntity
  8
化粧台
  6
EXLTYPE2
 62
     6
100
AcDbLine
 10
2454.500000000002
 20
1247.499999999999
 30
0.0
 11
2106.500000000002
 21
1247.499999999999
 31
0.0
  0
LINE
  5
256
330
1F
100
AcDbEntity
  8
化粧台
  6
EXLTYPE2
 62
     6
100
AcDbLine
 10
2361.5
 20
1122.499999999999
 30
0.0
 11
2106.500000000002
 21
1122.499999999999
 31
0.0
  0
LINE
  5
257
330
1F
100
AcDbEntity
  8
化粧台
  6
EXLTYPE2
 62
     6
100
AcDbLine
 10
2111.0
 20
1092.5
 30
0.0
 11
2111.0
 21
1077.5
 31
0.0
  0
LINE
  5
258
330
1F
100
AcDbEntity
  8
化粧台
  6
EXLTYPE2
 62
     6
100
AcDbLine
 10
2320.000000000002
 20
987.5
 30
0.0
 11
2320.000000000002
 21
1077.5
 31
0.0
  0
LINE
  5
259
330
1F
100
AcDbEntity
  8
化粧台
  6
EXLTYPE2
 62
     6
100
AcDbLine
 10
2314.999999999999
 20
1092.5
 30
0.0
 11
2314.999999999999
 21
1089.5
 31
0.0
  0
LINE
  5
25A
330
1F
100
AcDbEntity
  8
化粧台
  6
EXLTYPE2
 62
     6
100
AcDbLine
 10
2335.000000000002
 20
987.5
 30
0.0
 11
2335.000000000002
 21
1089.5
 31
0.0
  0
LINE
  5
25B
330
1F
100
AcDbEntity
  8
化粧台
  6
EXLTYPE2
 62
     6
100
AcDbLine
 10
2487.0
 20
1089.5
 30
0.0
 11
2487.0
 21
1074.5
 31
0.0
  0
LINE
  5
25C
330
1F
100
AcDbEntity
  8
化粧台
  6
EXLTYPE2
 62
     6
100
AcDbLine
 10
2111.0
 20
1077.5
 30
0.0
 11
2335.000000000002
 21
1077.5
 31
0.0
  0
LINE
  5
25D
330
1F
100
AcDbEntity
  8
化粧台
  6
EXLTYPE2
 62
     6
100
AcDbLine
 10
2487.0
 20
1074.5
 30
0.0
 11
2517.000000000002
 21
1074.5
 31
0.0
  0
LINE
  5
25E
330
1F
100
AcDbEntity
  8
化粧台
  6
EXLTYPE2
 62
     6
100
AcDbLine
 10
2315.000000000002
 20
1089.5
 30
0.0
 11
2517.0
 21
1089.5
 31
0.0
  0
LINE
  5
25F
330
1F
100
AcDbEntity
  8
化粧台
  6
EXLTYPE2
 62
     6
100
AcDbLine
 10
2111.0
 20
1092.5
 30
0.0
 11
2517.000000000002
 21
1092.5
 31
0.0
  0
LINE
  5
260
330
1F
100
AcDbEntity
  8
化粧台
  6
EXLTYPE2
 62
     6
100
AcDbLine
 10
2520.000000000002
 20
1127.5
 30
0.0
 11
2535.000000000002
 21
1127.5
 31
0.0
  0
LINE
  5
261
330
1F
100
AcDbEntity
  8
化粧台
  6
EXLTYPE2
 62
     6
100
AcDbLine
 10
2520.000000000002
 20
1547.499999999999
 30
0.0
 11
2535.000000000002
 21
1547.499999999999
 31
0.0
  0
LINE
  5
262
330
1F
100
AcDbEntity
  8
化粧台
  6
EXLTYPE2
 62
     6
100
AcDbLine
 10
2520.000000000002
 20
1077.5
 30
0.0
 11
2520.000000000002
 21
1667.499999999999
 31
0.0
  0
LINE
  5
263
330
1F
100
AcDbEntity
  8
化粧台
  6
EXLTYPE2
 62
     6
100
AcDbLine
 10
2517.000000000002
 20
1077.5
 30
0.0
 11
2535.000000000002
 21
1077.5
 31
0.0
  0
LINE
  5
264
330
1F
100
AcDbEntity
  8
化粧台
  6
EXLTYPE2
 62
     6
100
AcDbLine
 10
2517.000000000002
 20
1074.5
 30
0.0
 11
2517.000000000002
 21
1667.499999999999
 31
0.0
  0
LINE
  5
265
330
1F
100
AcDbEntity
  8
化粧台
  6
CONTINUOUS
 62
     2
100
AcDbLine
 10
2035.076463955304
 20
1820.628912853631
 30
0.0
 11
2058.076463955304
 21
1690.628912853631
 31
0.0
  0
LINE
  5
266
330
1F
100
AcDbEntity
  8
化粧台
  6
CONTINUOUS
 62
     2
100
AcDbLine
 10
2535.0
 20
1686.5
 30
0.0
 11
2063.0
 21
1686.5
 31
0.0
  0
LINE
  5
267
330
1F
100
AcDbEntity
  8
化粧台
  6
CONTINUOUS
 62
     2
100
AcDbLine
 10
2535.0
 20
1826.5
 30
0.0
 11
2040.0
 21
1826.5
 31
0.0
  0
ARC
  5
268
330
1F
100
AcDbEntity
  8
化粧台
  6
CONTINUOUS
 62
     2
100
AcDbCircle
 10
2040.0
 20
1821.5
 30
0.0
 40
5.0
100
AcDbArc
 50
90.00000000000004
 51
190.0331205543305
  0
ARC
  5
269
330
1F
100
AcDbEntity
  8
化粧台
  6
CONTINUOUS
 62
     2
100
AcDbCircle
 10
2063.0
 20
1691.5
 30
0.0
 40
5.0
100
AcDbArc
 50
190.0331205543305
 51
270.0000000000002
  0
LINE
  5
26A
330
1F
100
AcDbEntity
  8
化粧台
  6
CONTINUOUS
 62
     2
100
AcDbLine
 10
2535.0
 20
1826.5
 30
0.0
 11
2535.0
 21
1686.5
 31
0.0
  0
LINE
  5
26B
330
1F
100
AcDbEntity
  8
化粧台
  6
CONTINUOUS
 62
     2
100
AcDbLine
 10
2318.577460449084
 20
1884.360110009867
 30
0.0
 11
2339.422539550915
 21
1874.639889989835
 31
0.0
  0
LINE
  5
26C
330
1F
100
AcDbEntity
  8
化粧台
  6
CONTINUOUS
 62
     2
100
AcDbLine
 10
2318.577460449078
 20
1884.360110009919
 30
0.0
 11
2321.343012176595
 21
1890.290854828602
 31
0.0
  0
LINE
  5
26D
330
1F
100
AcDbEntity
  8
化粧台
  6
CONTINUOUS
 62
     2
100
AcDbLine
 10
2339.422539550921
 20
1874.639889989881
 30
0.0
 11
2341.337682219685
 21
1878.746926696807
 31
0.0
  0
LINE
  5
26E
330
1F
100
AcDbEntity
  8
化粧台
  6
CONTINUOUS
 62
     2
100
AcDbLine
 10
2365.0
 20
1949.0
 30
0.0
 11
2365.0
 21
1941.0
 31
0.0
  0
LINE
  5
26F
330
1F
100
AcDbEntity
  8
化粧台
  6
CONTINUOUS
 62
     2
100
AcDbLine
 10
2365.0
 20
1941.0
 30
0.0
 11
2425.5
 21
1941.0
 31
0.0
  0
LINE
  5
270
330
1F
100
AcDbEntity
  8
化粧台
  6
CONTINUOUS
 62
     2
100
AcDbLine
 10
2365.0
 20
1949.0
 30
0.0
 11
2425.5
 21
1949.0
 31
0.0
  0
ELLIPSE
  5
271
330
1F
100
AcDbEntity
  8
化粧台
  6
CONTINUOUS
 62
     2
100
AcDbEllipse
 10
2425.5
 20
1847.47629794645
 30
0.0
 11
1.220197577486629E-14
 21
-17.32050807564974
 31
0.0
210
0.0
220
0.0
230
1.0
 40
0.2961015548620202
 41
0.0
 42
3.141592653589793
  0
LINE
  5
272
330
1F
100
AcDbEntity
  8
化粧台
  6
CONTINUOUS
 62
     2
100
AcDbLine
 10
2341.337682219716
 20
1878.746926696826
 30
0.0
 11
2425.5
 21
1830.155789870761
 31
0.0
  0
ELLIPSE
  5
273
330
1F
100
AcDbEntity
  8
化粧台
  6
CONTINUOUS
 62
     2
100
AcDbEllipse
 10
2331.34034719815
 20
1884.5188907627
 30
0.0
 11
9.997335021550132
 21
-5.771964065900081
 31
0.0
210
0.0
220
0.0
230
1.0
 40
0.4017250258051182
 41
0.0
 42
3.141592653594508
  0
LINE
  5
274
330
1F
100
AcDbEntity
  8
化粧台
  6
CONTINUOUS
 62
     2
100
AcDbLine
 10
2449.999999999922
 20
1912.500000000136
 30
0.0
 11
2474.5
 21
1926.645081595326
 31
0.0
  0
LINE
  5
275
330
1F
100
AcDbEntity
  8
化粧台
  6
CONTINUOUS
 62
     2
100
AcDbLine
 10
2425.5
 20
1910.5
 30
0.0
 11
2474.5
 21
1910.5
 31
0.0
  0
LINE
  5
276
330
1F
100
AcDbEntity
  8
化粧台
  6
CONTINUOUS
 62
     2
100
AcDbLine
 10
2425.5
 20
1912.5
 30
0.0
 11
2449.999999999686
 21
1912.5
 31
0.0
  0
LINE
  5
277
330
1F
100
AcDbEntity
  8
化粧台
  6
CONTINUOUS
 62
     2
100
AcDbLine
 10
2425.5
 20
1910.5
 30
0.0
 11
2425.5
 21
1864.7968060221
 31
0.0
  0
ARC
  5
278
330
1F
100
AcDbEntity
  8
化粧台
  6
CONTINUOUS
 62
     2
100
AcDbCircle
 10
2427.5
 20
1952.5
 30
0.0
 40
2.0
100
AcDbArc
 50
90.00000000000004
 51
180.0
  0
LINE
  5
279
330
1F
100
AcDbEntity
  8
化粧台
  6
CONTINUOUS
 62
     2
100
AcDbLine
 10
2474.5
 20
1952.5
 30
0.0
 11
2474.5
 21
1926.645081595326
 31
0.0
  0
LINE
  5
27A
330
1F
100
AcDbEntity
  8
化粧台
  6
CONTINUOUS
 62
     2
100
AcDbLine
 10
2427.5
 20
1954.5
 30
0.0
 11
2472.5
 21
1954.5
 31
0.0
  0
ARC
  5
27B
330
1F
100
AcDbEntity
  8
化粧台
  6
CONTINUOUS
 62
     2
100
AcDbCircle
 10
2472.5
 20
1952.5
 30
0.0
 40
2.0
100
AcDbArc
 50
0.0
 51
90.00000000000004
  0
LINE
  5
27C
330
1F
100
AcDbEntity
  8
化粧台
  6
CONTINUOUS
 62
     2
100
AcDbLine
 10
2333.366025404041
 20
1917.990381056618
 30
0.0
 11
2425.5
 21
1864.796806022138
 31
0.0
  0
ARC
  5
27D
330
1F
100
AcDbEntity
  8
化粧台
  6
CONTINUOUS
 62
     2
100
AcDbCircle
 10
2332.866025404043
 20
1917.124355652833
 30
0.0
 40
1.0
100
AcDbArc
 50
60.00000000000271
 51
150.0000000000029
  0
LINE
  5
27E
330
1F
100
AcDbEntity
  8
化粧台
  6
CONTINUOUS
 62
     2
100
AcDbLine
 10
2332.000000000257
 20
1917.624355652833
 30
0.0
 11
2318.000000000259
 21
1893.375644346869
 31
0.0
  0
LINE
  5
27F
330
1F
100
AcDbEntity
  8
化粧台
  6
CONTINUOUS
 62
     2
100
AcDbLine
 10
2318.366025404043
 20
1892.009618943084
 30
0.0
 11
2321.343012176589
 21
1890.290854828581
 31
0.0
  0
ARC
  5
280
330
1F
100
AcDbEntity
  8
化粧台
  6
CONTINUOUS
 62
     2
100
AcDbCircle
 10
2318.866025404043
 20
1892.875644346869
 30
0.0
 40
1.0
100
AcDbArc
 50
150.0000000000029
 51
240.0000000000029
  0
ARC
  5
281
330
1F
100
AcDbEntity
  8
化粧台
  6
CONTINUOUS
 62
     2
100
AcDbCircle
 10
2450.000000000301
 20
1910.5
 30
0.0
 40
21.50470878668207
100
AcDbArc
 50
0.0
 51
34.61977017493128
  0
LINE
  5
282
330
1F
100
AcDbEntity
  8
化粧台
  6
CONTINUOUS
 62
     2
100
AcDbLine
 10
2425.5
 20
1952.5
 30
0.0
 11
2425.5
 21
1949.0
 31
0.0
  0
LINE
  5
283
330
1F
100
AcDbEntity
  8
化粧台
  6
CONTINUOUS
 62
     2
100
AcDbLine
 10
2425.5
 20
1941.0
 30
0.0
 11
2425.5
 21
1912.5
 31
0.0
  0
ELLIPSE
  5
284
330
1F
100
AcDbEntity
  8
化粧台
  6
CONTINUOUS
 62
     2
100
AcDbEllipse
 10
2425.5
 20
1945.0
 30
0.0
 11
-2.419605899270905E-15
 21
4.0
 31
0.0
210
0.0
220
0.0
230
1.0
 40
0.1525819451966583
 41
3.141592653589786
 42
6.283185307179586
  0
LINE
  5
285
330
1F
100
AcDbEntity
  8
化粧台
  6
CONTINUOUS
 62
     6
100
AcDbLine
 10
2401.782032303014
 20
1878.490381056621
 30
0.0
 11
2386.782032303016
 21
1852.509618943087
 31
0.0
  0
LINE
  5
286
330
1F
100
AcDbEntity
  8
化粧台
  6
CONTINUOUS
 62
     2
100
AcDbLine
 10
2425.5
 20
1830.1557898708
 30
0.0
 11
2425.5
 21
1826.5
 31
0.0
  0
LINE
  5
287
330
1F
100
AcDbEntity
  8
化粧台
  6
CONTINUOUS
 62
     2
100
AcDbLine
 10
2474.5
 20
1910.5
 30
0.0
 11
2474.5
 21
1826.5
 31
0.0
  0
LINE
  5
288
330
1F
100
AcDbEntity
  8
化粧台
  6
EXLTYPE3
 62
     6
100
AcDbLine
 10
2450.0
 20
1969.5
 30
0.0
 11
2450.0
 21
1796.5
 31
0.0
  0
LINE
  5
289
330
1F
100
AcDbEntity
  8
化粧台
  6
EXLTYPE2
 62
     6
100
AcDbLine
 10
2259.386729540169
 20
1655.792893218813
 30
0.0
 11
2255.0
 21
1686.5
 31
0.0
  0
ARC
  5
28A
330
1F
100
AcDbEntity
  8
化粧台
  6
EXLTYPE2
 62
     6
100
AcDbCircle
 10
2264.336477008476
 20
1656.5
 30
0.0
 40
5.0
100
AcDbArc
 50
188.1301023541575
 51
270.0000000000002
  0
LINE
  5
28B
330
1F
100
AcDbEntity
  8
化粧台
  6
EXLTYPE2
 62
     6
100
AcDbLine
 10
2264.336477008476
 20
1651.5
 30
0.0
 11
2335.663522991525
 21
1651.5
 31
0.0
  0
ARC
  5
28C
330
1F
100
AcDbEntity
  8
化粧台
  6
EXLTYPE2
 62
     6
100
AcDbCircle
 10
2335.663522991525
 20
1656.5
 30
0.0
 40
5.0
100
AcDbArc
 50
270.0000000000002
 51
351.8698976458426
  0
ARC
  5
28D
330
1F
100
AcDbEntity
  8
化粧台
  6
EXLTYPE2
 62
     6
100
AcDbCircle
 10
2328.709237755404
 20
1688.706325208987
 30
0.0
 40
35.0
100
AcDbArc
 50
289.8838940558181
 51
338.8864999216353
  0
LINE
  5
28E
330
1F
100
AcDbEntity
  8
化粧台
  6
EXLTYPE2
 62
     6
100
AcDbLine
 10
2361.359641771944
 20
1676.098743460026
 30
0.0
 11
2365.375968554705
 21
1686.5
 31
0.0
  0
ARC
  5
28F
330
1F
100
AcDbEntity
  8
化粧台
  6
EXLTYPE2
 62
     6
100
AcDbCircle
 10
2454.811111111105
 20
1581.500000000001
 30
0.0
 40
174.5111111111056
100
AcDbArc
 50
171.7636205920223
 51
188.2363794079779
  0
LINE
  5
290
330
1F
100
AcDbEntity
  8
化粧台
  6
EXLTYPE2
 62
     6
100
AcDbLine
 10
2282.100000000035
 20
1556.500000000035
 30
0.0
 11
2284.200000000001
 21
1554.40000000007
 31
0.0
  0
LINE
  5
291
330
1F
100
AcDbEntity
  8
化粧台
  6
EXLTYPE2
 62
     6
100
AcDbLine
 10
2317.899999999966
 20
1556.500000000035
 30
0.0
 11
2315.8
 21
1554.40000000007
 31
0.0
  0
LINE
  5
292
330
1F
100
AcDbEntity
  8
化粧台
  6
EXLTYPE2
 62
     6
100
AcDbLine
 10
2347.0
 20
1588.0
 30
0.0
 11
2344.0
 21
1583.7
 31
0.0
  0
LINE
  5
293
330
1F
100
AcDbEntity
  8
化粧台
  6
EXLTYPE2
 62
     6
100
AcDbLine
 10
2347.0
 20
1555.0
 30
0.0
 11
2344.0
 21
1559.300000000001
 31
0.0
  0
LINE
  5
294
330
1F
100
AcDbEntity
  8
化粧台
  6
EXLTYPE2
 62
     6
100
AcDbLine
 10
2344.0
 20
1583.700000000001
 30
0.0
 11
2319.686132137129
 21
1583.700000000001
 31
0.0
  0
LINE
  5
295
330
1F
100
AcDbEntity
  8
化粧台
  6
EXLTYPE2
 62
     6
100
AcDbLine
 10
2344.0
 20
1559.300000000001
 30
0.0
 11
2318.28218136793
 21
1559.300000000001
 31
0.0
  0
LINE
  5
296
330
1F
100
AcDbEntity
  8
化粧台
  6
EXLTYPE2
 62
     6
100
AcDbLine
 10
2334.686132137131
 20
1583.7
 30
0.0
 11
2319.34022509173
 21
1592.7
 31
0.0
  0
LINE
  5
297
330
1F
100
AcDbEntity
  8
化粧台
  6
EXLTYPE2
 62
     6
100
AcDbLine
 10
2334.686132137131
 20
1559.300000000001
 30
0.0
 11
2315.8
 21
1548.223744374882
 31
0.0
  0
LINE
  5
298
330
1F
100
AcDbEntity
  8
化粧台
  6
EXLTYPE2
 62
     6
100
AcDbLine
 10
2334.686132137131
 20
1572.750000000001
 30
0.0
 11
2313.4
 21
1572.750000000001
 31
0.0
  0
LINE
  5
299
330
1F
100
AcDbEntity
  8
化粧台
  6
EXLTYPE2
 62
     6
100
AcDbLine
 10
2334.686132137131
 20
1570.250000000001
 30
0.0
 11
2313.4
 21
1570.250000000001
 31
0.0
  0
LINE
  5
29A
330
1F
100
AcDbEntity
  8
化粧台
  6
EXLTYPE2
 62
     6
100
AcDbLine
 10
2334.686132137131
 20
1572.750000000001
 30
0.0
 11
2334.686132137131
 21
1570.250000000001
 31
0.0
  0
ARC
  5
29B
330
1F
100
AcDbEntity
  8
化粧台
  6
EXLTYPE2
 62
     6
100
AcDbCircle
 10
2145.188888888896
 20
1581.500000000001
 30
0.0
 40
174.5111111111056
100
AcDbArc
 50
351.7636205920222
 51
352.6914553742785
  0
ARC
  5
29C
330
1F
100
AcDbEntity
  8
化粧台
  6
EXLTYPE2
 62
     6
100
AcDbCircle
 10
2145.188888888896
 20
1581.500000000001
 30
0.0
 40
174.5111111111056
100
AcDbArc
 50
0.7223268088028906
 51
8.236379407977633
  0
ELLIPSE
  5
29D
330
1F
100
AcDbEntity
  8
化粧台
  6
EXLTYPE2
 62
     6
100
AcDbEllipse
 10
2318.98415675253
 20
1571.500000000001
 30
0.0
 11
-0.7019753845999902
 21
-12.20000000000006
 31
0.0
210
0.0
220
0.0
230
1.0
 40
0.2153535729318986
 41
3.141592653589879
 42
4.622148339603934
  0
ELLIPSE
  5
29E
330
1F
100
AcDbEntity
  8
化粧台
  6
EXLTYPE2
 62
     6
100
AcDbEllipse
 10
2318.98415675253
 20
1571.500000000001
 30
0.0
 11
-0.7019753845999902
 21
-12.20000000000006
 31
0.0
210
0.0
220
0.0
230
1.0
 40
0.2153535729318986
 41
-1.455774510481848
 42
0.024781175480576
  0
LINE
  5
29F
330
1F
100
AcDbEntity
  8
化粧台
  6
EXLTYPE2
 62
     6
100
AcDbLine
 10
2347.0
 20
1589.000000000001
 30
0.0
 11
2347.0
 21
1554.000000000001
 31
0.0
  0
LINE
  5
2A0
330
1F
100
AcDbEntity
  8
化粧台
  6
EXLTYPE2
 62
     6
100
AcDbLine
 10
2326.25
 20
1627.0
 30
0.0
 11
2273.75
 21
1627.0
 31
0.0
  0
ARC
  5
2A1
330
1F
100
AcDbEntity
  8
化粧台
  6
EXLTYPE2
 62
     6
100
AcDbCircle
 10
2323.25
 20
1611.0
 30
0.0
 40
3.000000000000003
100
AcDbArc
 50
270.0000000000002
 51
0.0
  0
ARC
  5
2A2
330
1F
100
AcDbEntity
  8
化粧台
  6
EXLTYPE2
 62
     6
100
AcDbCircle
 10
2276.75
 20
1611.0
 30
0.0
 40
3.000000000000003
100
AcDbArc
 50
180.0
 51
270.0000000000002
  0
LINE
  5
2A3
330
1F
100
AcDbEntity
  8
化粧台
  6
EXLTYPE2
 62
     6
100
AcDbLine
 10
2273.75
 20
1627.0
 30
0.0
 11
2273.75
 21
1611.0
 31
0.0
  0
LINE
  5
2A4
330
1F
100
AcDbEntity
  8
化粧台
  6
EXLTYPE2
 62
     6
100
AcDbLine
 10
2323.25
 20
1608.0
 30
0.0
 11
2276.75
 21
1608.0
 31
0.0
  0
LINE
  5
2A5
330
1F
100
AcDbEntity
  8
化粧台
  6
EXLTYPE2
 62
     6
100
AcDbLine
 10
2326.25
 20
1627.0
 30
0.0
 11
2326.25
 21
1611.0
 31
0.0
  0
LINE
  5
2A6
330
1F
100
AcDbEntity
  8
化粧台
  6
EXLTYPE2
 62
     6
100
AcDbLine
 10
2317.9
 20
1606.500000000001
 30
0.0
 11
2317.9
 21
1608.0
 31
0.0
  0
LINE
  5
2A7
330
1F
100
AcDbEntity
  8
化粧台
  6
EXLTYPE2
 62
     6
100
AcDbLine
 10
2282.100000000001
 20
1606.500000000001
 30
0.0
 11
2282.100000000001
 21
1608.0
 31
0.0
  0
LINE
  5
2A8
330
1F
100
AcDbEntity
  8
化粧台
  6
EXLTYPE2
 62
     6
100
AcDbLine
 10
2328.3
 20
1645.7
 30
0.0
 11
2328.3
 21
1634.400000000001
 31
0.0
  0
LINE
  5
2A9
330
1F
100
AcDbEntity
  8
化粧台
  6
EXLTYPE2
 62
     6
100
AcDbLine
 10
2271.700000000001
 20
1645.7
 30
0.0
 11
2271.700000000001
 21
1634.400000000001
 31
0.0
  0
LINE
  5
2AA
330
1F
100
AcDbEntity
  8
化粧台
  6
EXLTYPE2
 62
     6
100
AcDbLine
 10
2328.3
 20
1634.400000000001
 30
0.0
 11
2271.700000000001
 21
1634.400000000001
 31
0.0
  0
LINE
  5
2AB
330
1F
100
AcDbEntity
  8
化粧台
  6
EXLTYPE2
 62
     6
100
AcDbLine
 10
2328.3
 20
1642.2
 30
0.0
 11
2271.700000000001
 21
1642.2
 31
0.0
  0
LINE
  5
2AC
330
1F
100
AcDbEntity
  8
化粧台
  6
EXLTYPE2
 62
     6
100
AcDbLine
 10
2323.500000000002
 20
1634.400000000001
 30
0.0
 11
2323.500000000002
 21
1627.0
 31
0.0
  0
LINE
  5
2AD
330
1F
100
AcDbEntity
  8
化粧台
  6
EXLTYPE2
 62
     6
100
AcDbLine
 10
2276.5
 20
1634.400000000001
 30
0.0
 11
2276.5
 21
1627.0
 31
0.0
  0
LINE
  5
2AE
330
1F
100
AcDbEntity
  8
化粧台
  6
EXLTYPE2
 62
     6
100
AcDbLine
 10
2328.500000000002
 20
1646.2
 30
0.0
 11
2328.500000000002
 21
1648.2
 31
0.0
  0
LINE
  5
2AF
330
1F
100
AcDbEntity
  8
化粧台
  6
EXLTYPE2
 62
     6
100
AcDbLine
 10
2271.5
 20
1646.2
 30
0.0
 11
2271.5
 21
1648.2
 31
0.0
  0
LINE
  5
2B0
330
1F
100
AcDbEntity
  8
化粧台
  6
EXLTYPE2
 62
     6
100
AcDbLine
 10
2323.275000000002
 20
1651.5
 30
0.0
 11
2328.500000000002
 21
1648.2
 31
0.0
  0
LINE
  5
2B1
330
1F
100
AcDbEntity
  8
化粧台
  6
EXLTYPE2
 62
     6
100
AcDbLine
 10
2276.725000000001
 20
1651.5
 30
0.0
 11
2271.5
 21
1648.2
 31
0.0
  0
LINE
  5
2B2
330
1F
100
AcDbEntity
  8
化粧台
  6
EXLTYPE2
 62
     6
100
AcDbLine
 10
2358.0
 20
1589.000000000001
 30
0.0
 11
2347.0
 21
1589.000000000001
 31
0.0
  0
LINE
  5
2B3
330
1F
100
AcDbEntity
  8
化粧台
  6
EXLTYPE2
 62
     6
100
AcDbLine
 10
2358.0
 20
1554.000000000001
 30
0.0
 11
2347.0
 21
1554.000000000001
 31
0.0
  0
LINE
  5
2B4
330
1F
100
AcDbEntity
  8
化粧台
  6
EXLTYPE2
 62
     6
100
AcDbLine
 10
2358.0
 20
1589.000000000001
 30
0.0
 11
2358.0
 21
1554.000000000001
 31
0.0
  0
LINE
  5
2B5
330
1F
100
AcDbEntity
  8
化粧台
  6
EXLTYPE2
 62
     6
100
AcDbLine
 10
2365.0
 20
1584.5
 30
0.0
 11
2365.0
 21
1558.5
 31
0.0
  0
LINE
  5
2B6
330
1F
100
AcDbEntity
  8
化粧台
  6
EXLTYPE2
 62
     6
100
AcDbLine
 10
2365.0
 20
1584.5
 30
0.0
 11
2358.0
 21
1587.0
 31
0.0
  0
LINE
  5
2B7
330
1F
100
AcDbEntity
  8
化粧台
  6
EXLTYPE2
 62
     6
100
AcDbLine
 10
2365.0
 20
1558.500000000002
 30
0.0
 11
2358.0
 21
1556.000000000002
 31
0.0
  0
LINE
  5
2B8
330
1F
100
AcDbEntity
  8
化粧台
  6
EXLTYPE2
 62
     6
100
AcDbLine
 10
2370.000000000044
 20
1575.0
 30
0.0
 11
2370.000000000044
 21
1568.0
 31
0.0
  0
LINE
  5
2B9
330
1F
100
AcDbEntity
  8
化粧台
  6
EXLTYPE2
 62
     6
100
AcDbLine
 10
2370.0
 20
1569.0
 30
0.0
 11
2392.9
 21
1569.0
 31
0.0
  0
LINE
  5
2BA
330
1F
100
AcDbEntity
  8
化粧台
  6
EXLTYPE2
 62
     6
100
AcDbLine
 10
2370.000000000044
 20
1575.0
 30
0.0
 11
2365.0
 21
1575.0
 31
0.0
  0
LINE
  5
2BB
330
1F
100
AcDbEntity
  8
化粧台
  6
EXLTYPE2
 62
     6
100
AcDbLine
 10
2370.000000000044
 20
1568.0
 30
0.0
 11
2365.0
 21
1568.0
 31
0.0
  0
LINE
  5
2BC
330
1F
100
AcDbEntity
  8
化粧台
  6
EXLTYPE2
 62
     6
100
AcDbLine
 10
2392.9
 20
1574.0
 30
0.0
 11
2370.000000000044
 21
1574.0
 31
0.0
  0
LINE
  5
2BD
330
1F
100
AcDbEntity
  8
化粧台
  6
EXLTYPE2
 62
     6
100
AcDbLine
 10
2328.500000000002
 20
1648.2
 30
0.0
 11
2271.5
 21
1648.2
 31
0.0
  0
LINE
  5
2BE
330
1F
100
AcDbEntity
  8
化粧台
  6
EXLTYPE2
 62
     6
100
AcDbLine
 10
2328.500000000002
 20
1646.2
 30
0.0
 11
2271.5
 21
1646.2
 31
0.0
  0
LINE
  5
2BF
330
1F
100
AcDbEntity
  8
化粧台
  6
EXLTYPE2
 62
     6
100
AcDbLine
 10
2328.3
 20
1645.7
 30
0.0
 11
2271.700000000001
 21
1645.7
 31
0.0
  0
LINE
  5
2C0
330
1F
100
AcDbEntity
  8
化粧台
  6
EXLTYPE2
 62
     6
100
AcDbLine
 10
2284.05312660052
 20
1642.2
 30
0.0
 11
2284.05312660052
 21
1634.400000000001
 31
0.0
  0
LINE
  5
2C1
330
1F
100
AcDbEntity
  8
化粧台
  6
EXLTYPE2
 62
     6
100
AcDbLine
 10
2287.726451205952
 20
1642.2
 30
0.0
 11
2287.726451205952
 21
1634.400000000001
 31
0.0
  0
LINE
  5
2C2
330
1F
100
AcDbEntity
  8
化粧台
  6
EXLTYPE2
 62
     6
100
AcDbLine
 10
2312.27354879405
 20
1642.2
 30
0.0
 11
2312.27354879405
 21
1634.400000000001
 31
0.0
  0
LINE
  5
2C3
330
1F
100
AcDbEntity
  8
化粧台
  6
EXLTYPE2
 62
     6
100
AcDbLine
 10
2315.94687339948
 20
1642.2
 30
0.0
 11
2315.94687339948
 21
1634.400000000001
 31
0.0
  0
LINE
  5
2C4
330
1F
100
AcDbEntity
  8
化粧台
  6
EXLTYPE2
 62
     6
100
AcDbLine
 10
2288.32820388361
 20
1627.0
 30
0.0
 11
2288.32820388361
 21
1611.0
 31
0.0
  0
LINE
  5
2C5
330
1F
100
AcDbEntity
  8
化粧台
  6
EXLTYPE2
 62
     6
100
AcDbLine
 10
2290.25641236505
 20
1627.0
 30
0.0
 11
2290.25641236505
 21
1611.0
 31
0.0
  0
LINE
  5
2C6
330
1F
100
AcDbEntity
  8
化粧台
  6
EXLTYPE2
 62
     6
100
AcDbLine
 10
2309.74358763495
 20
1627.0
 30
0.0
 11
2309.74358763495
 21
1611.0
 31
0.0
  0
LINE
  5
2C7
330
1F
100
AcDbEntity
  8
化粧台
  6
EXLTYPE2
 62
     6
100
AcDbLine
 10
2311.671796116391
 20
1627.0
 30
0.0
 11
2311.671796116391
 21
1611.0
 31
0.0
  0
LINE
  5
2C8
330
1F
100
AcDbEntity
  8
化粧台
  6
EXLTYPE2
 62
     6
100
AcDbLine
 10
2317.9
 20
1606.500000000001
 30
0.0
 11
2282.100000000001
 21
1606.500000000001
 31
0.0
  0
LINE
  5
2C9
330
1F
100
AcDbEntity
  8
化粧台
  6
EXLTYPE2
 62
     6
100
AcDbLine
 10
2317.899999999931
 20
1556.500000000001
 30
0.0
 11
2282.100000000072
 21
1556.500000000001
 31
0.0
  0
LINE
  5
2CA
330
1F
100
AcDbEntity
  8
化粧台
  6
EXLTYPE2
 62
     6
100
AcDbLine
 10
2315.8
 20
1554.400000000071
 30
0.0
 11
2284.200000000001
 21
1554.400000000071
 31
0.0
  0
LINE
  5
2CB
330
1F
100
AcDbEntity
  8
化粧台
  6
EXLTYPE2
 62
     6
100
AcDbLine
 10
2344.0
 20
1583.7
 30
0.0
 11
2344.0
 21
1559.300000000001
 31
0.0
  0
LINE
  5
2CC
330
1F
100
AcDbEntity
  8
化粧台
  6
EXLTYPE2
 62
     6
100
AcDbLine
 10
2300.0
 20
1468.0
 30
0.0
 11
2319.0
 21
1487.0
 31
0.0
  0
ARC
  5
2CD
330
1F
100
AcDbEntity
  8
化粧台
  6
EXLTYPE2
 62
     6
100
AcDbCircle
 10
2334.0
 20
1502.0
 30
0.0
 40
15.00000000000001
100
AcDbArc
 50
180.0
 51
270.0000000000002
  0
LINE
  5
2CE
330
1F
100
AcDbEntity
  8
化粧台
  6
EXLTYPE2
 62
     6
100
AcDbLine
 10
2318.0
 20
1449.0
 30
0.0
 11
2318.0
 21
1486.0
 31
0.0
  0
LINE
  5
2CF
330
1F
100
AcDbEntity
  8
化粧台
  6
EXLTYPE2
 62
     6
100
AcDbLine
 10
2281.0
 20
1486.0
 30
0.0
 11
2318.0
 21
1486.0
 31
0.0
  0
LINE
  5
2D0
330
1F
100
AcDbEntity
  8
化粧台
  6
EXLTYPE2
 62
     6
100
AcDbLine
 10
2283.75
 20
1483.0
 30
0.0
 11
2315.0
 21
1483.0
 31
0.0
  0
LINE
  5
2D1
330
1F
100
AcDbEntity
  8
化粧台
  6
EXLTYPE2
 62
     6
100
AcDbLine
 10
2315.0
 20
1451.75
 30
0.0
 11
2315.0
 21
1483.0
 31
0.0
  0
LINE
  5
2D2
330
1F
100
AcDbEntity
  8
化粧台
  6
EXLTYPE2
 62
     6
100
AcDbLine
 10
2336.699999999999
 20
1449.0
 30
0.0
 11
2318.0
 21
1449.0
 31
0.0
  0
LINE
  5
2D3
330
1F
100
AcDbEntity
  8
化粧台
  6
EXLTYPE2
 62
     6
100
AcDbLine
 10
2281.0
 20
1486.0
 30
0.0
 11
2281.0
 21
1504.7
 31
0.0
  0
LINE
  5
2D4
330
1F
100
AcDbEntity
  8
化粧台
  6
EXLTYPE2
 62
     6
100
AcDbLine
 10
2283.749999999999
 20
1468.0
 30
0.0
 11
2283.749999999999
 21
1483.0
 31
0.0
  0
LINE
  5
2D5
330
1F
100
AcDbEntity
  8
化粧台
  6
EXLTYPE2
 62
     6
100
AcDbLine
 10
2299.999999999999
 20
1451.75
 30
0.0
 11
2315.0
 21
1451.75
 31
0.0
  0
ARC
  5
2D6
330
1F
100
AcDbEntity
  8
化粧台
  6
EXLTYPE2
 62
     6
100
AcDbCircle
 10
2299.999999999999
 20
1468.0
 30
0.0
 40
16.25
100
AcDbArc
 50
180.0
 51
270.0000000000002
  0
LINE
  5
2D7
330
1F
100
AcDbEntity
  8
化粧台
  6
EXLTYPE2
 62
     6
100
AcDbLine
 10
2318.0
 20
1449.0
 30
0.0
 11
2315.0
 21
1451.75
 31
0.0
  0
LINE
  5
2D8
330
1F
100
AcDbEntity
  8
化粧台
  6
EXLTYPE2
 62
     6
100
AcDbLine
 10
2281.0
 20
1486.0
 30
0.0
 11
2283.75
 21
1483.0
 31
0.0
  0
LINE
  5
2D9
330
1F
100
AcDbEntity
  8
化粧台
  6
EXLTYPE2
 62
     6
100
AcDbLine
 10
2336.700000000001
 20
1487.0
 30
0.0
 11
2319.0
 21
1487.0
 31
0.0
  0
LINE
  5
2DA
330
1F
100
AcDbEntity
  8
化粧台
  6
EXLTYPE2
 62
     6
100
AcDbLine
 10
2319.0
 20
1487.0
 30
0.0
 11
2319.0
 21
1504.7
 31
0.0
  0
LINE
  5
2DB
330
1F
100
AcDbEntity
  8
化粧台
  6
EXLTYPE2
 62
     6
100
AcDbLine
 10
2354.5
 20
1490.799999999999
 30
0.0
 11
2336.700000000001
 21
1490.799999999999
 31
0.0
  0
LINE
  5
2DC
330
1F
100
AcDbEntity
  8
化粧台
  6
EXLTYPE2
 62
     6
100
AcDbLine
 10
2354.5
 20
1445.2
 30
0.0
 11
2336.699999999999
 21
1445.2
 31
0.0
  0
LINE
  5
2DD
330
1F
100
AcDbEntity
  8
化粧台
  6
EXLTYPE2
 62
     6
100
AcDbLine
 10
2354.5
 20
1490.799999999999
 30
0.0
 11
2354.5
 21
1445.2
 31
0.0
  0
LINE
  5
2DE
330
1F
100
AcDbEntity
  8
化粧台
  6
EXLTYPE2
 62
     6
100
AcDbLine
 10
2336.700000000001
 20
1490.799999999999
 30
0.0
 11
2336.699999999999
 21
1445.2
 31
0.0
  0
LINE
  5
2DF
330
1F
100
AcDbEntity
  8
化粧台
  6
EXLTYPE2
 62
     6
100
AcDbLine
 10
2277.200000000001
 20
1522.5
 30
0.0
 11
2277.200000000001
 21
1504.7
 31
0.0
  0
LINE
  5
2E0
330
1F
100
AcDbEntity
  8
化粧台
  6
EXLTYPE2
 62
     6
100
AcDbLine
 10
2322.8
 20
1522.5
 30
0.0
 11
2322.8
 21
1504.7
 31
0.0
  0
LINE
  5
2E1
330
1F
100
AcDbEntity
  8
化粧台
  6
EXLTYPE2
 62
     6
100
AcDbLine
 10
2277.200000000001
 20
1522.5
 30
0.0
 11
2322.8
 21
1522.5
 31
0.0
  0
LINE
  5
2E2
330
1F
100
AcDbEntity
  8
化粧台
  6
EXLTYPE2
 62
     6
100
AcDbLine
 10
2277.200000000001
 20
1504.7
 30
0.0
 11
2322.8
 21
1504.7
 31
0.0
  0
LINE
  5
2E3
330
1F
100
AcDbEntity
  8
化粧台
  6
EXLTYPE2
 62
     6
100
AcDbLine
 10
2321.643356916401
 20
1520.5
 30
0.0
 11
2321.643356916401
 21
1504.7
 31
0.0
  0
LINE
  5
2E4
330
1F
100
AcDbEntity
  8
化粧台
  6
EXLTYPE2
 62
     6
100
AcDbLine
 10
2278.3566430836
 20
1520.5
 30
0.0
 11
2278.3566430836
 21
1504.7
 31
0.0
  0
LINE
  5
2E5
330
1F
100
AcDbEntity
  8
化粧台
  6
EXLTYPE2
 62
     6
100
AcDbLine
 10
2310.600712305701
 20
1520.5
 30
0.0
 11
2310.600712305701
 21
1504.7
 31
0.0
  0
LINE
  5
2E6
330
1F
100
AcDbEntity
  8
化粧台
  6
EXLTYPE2
 62
     6
100
AcDbLine
 10
2307.8083288865
 20
1520.5
 30
0.0
 11
2307.8083288865
 21
1504.7
 31
0.0
  0
LINE
  5
2E7
330
1F
100
AcDbEntity
  8
化粧台
  6
EXLTYPE2
 62
     6
100
AcDbLine
 10
2292.1916711135
 20
1520.5
 30
0.0
 11
2292.1916711135
 21
1504.7
 31
0.0
  0
LINE
  5
2E8
330
1F
100
AcDbEntity
  8
化粧台
  6
EXLTYPE2
 62
     6
100
AcDbLine
 10
2289.399287694302
 20
1520.5
 30
0.0
 11
2289.399287694302
 21
1504.7
 31
0.0
  0
LINE
  5
2E9
330
1F
100
AcDbEntity
  8
化粧台
  6
EXLTYPE2
 62
     6
100
AcDbLine
 10
2352.5
 20
1446.3566430836
 30
0.0
 11
2336.699999999999
 21
1446.3566430836
 31
0.0
  0
LINE
  5
2EA
330
1F
100
AcDbEntity
  8
化粧台
  6
EXLTYPE2
 62
     6
100
AcDbLine
 10
2352.5
 20
1489.643356916399
 30
0.0
 11
2336.700000000001
 21
1489.643356916399
 31
0.0
  0
LINE
  5
2EB
330
1F
100
AcDbEntity
  8
化粧台
  6
EXLTYPE2
 62
     6
100
AcDbLine
 10
2352.5
 20
1457.399287694299
 30
0.0
 11
2336.699999999999
 21
1457.399287694299
 31
0.0
  0
LINE
  5
2EC
330
1F
100
AcDbEntity
  8
化粧台
  6
EXLTYPE2
 62
     6
100
AcDbLine
 10
2352.5
 20
1460.1916711135
 30
0.0
 11
2336.699999999999
 21
1460.1916711135
 31
0.0
  0
LINE
  5
2ED
330
1F
100
AcDbEntity
  8
化粧台
  6
EXLTYPE2
 62
     6
100
AcDbLine
 10
2352.5
 20
1475.8083288865
 30
0.0
 11
2336.700000000001
 21
1475.8083288865
 31
0.0
  0
LINE
  5
2EE
330
1F
100
AcDbEntity
  8
化粧台
  6
EXLTYPE2
 62
     6
100
AcDbLine
 10
2352.5
 20
1478.600712305699
 30
0.0
 11
2336.700000000001
 21
1478.600712305699
 31
0.0
  0
LINE
  5
2EF
330
1F
100
AcDbEntity
  8
化粧台
  6
EXLTYPE2
 62
     6
100
AcDbLine
 10
2284.200000000001
 20
1554.400000000071
 30
0.0
 11
2284.200000000001
 21
1522.5
 31
0.0
  0
LINE
  5
2F0
330
1F
100
AcDbEntity
  8
化粧台
  6
EXLTYPE2
 62
     6
100
AcDbLine
 10
2315.8
 20
1554.400000000071
 30
0.0
 11
2315.8
 21
1522.5
 31
0.0
  0
LINE
  5
2F1
330
1F
100
AcDbEntity
  8
化粧台
  6
EXLTYPE2
 62
     6
100
AcDbLine
 10
2418.999999999993
 20
1483.999999999999
 30
0.0
 11
2354.5
 21
1483.999999999999
 31
0.0
  0
LINE
  5
2F2
330
1F
100
AcDbEntity
  8
化粧台
  6
EXLTYPE2
 62
     6
100
AcDbLine
 10
2418.999999999999
 20
1452.0
 30
0.0
 11
2354.5
 21
1452.0
 31
0.0
  0
LINE
  5
2F3
330
1F
100
AcDbEntity
  8
化粧台
  6
CONTINUOUS
 62
     6
100
AcDbLine
 10
2535.0
 20
1397.0
 30
0.0
 11
2543.0
 21
1397.0
 31
0.0
  0
LINE
  5
2F4
330
1F
100
AcDbEntity
  8
化粧台
  6
CONTINUOUS
 62
     6
100
AcDbLine
 10
2543.0
 20
1418.0
 30
0.0
 11
2543.0
 21
1397.0
 31
0.0
  0
LINE
  5
2F5
330
1F
100
AcDbEntity
  8
化粧台
  6
CONTINUOUS
 62
     6
100
AcDbLine
 10
2535.0
 20
1418.0
 30
0.0
 11
2543.0
 21
1418.0
 31
0.0
  0
LINE
  5
2F6
330
1F
100
AcDbEntity
  8
化粧台
  6
CONTINUOUS
 62
     6
100
AcDbLine
 10
2450.0
 20
1437.5
 30
0.0
 11
2450.0
 21
1377.5
 31
0.0
  0
LINE
  5
2F7
330
1F
100
AcDbEntity
  8
化粧台
  6
CONTINUOUS
 62
     6
100
AcDbLine
 10
2402.0
 20
1407.5
 30
0.0
 11
2558.0
 21
1407.5
 31
0.0
  0
ARC
  5
2F8
330
1F
100
AcDbEntity
  8
化粧台
  6
EXLTYPE2
 62
     6
100
AcDbCircle
 10
2466.105879972376
 20
1426.5
 30
0.0
 40
6.500000000000004
100
AcDbArc
 50
270.0000000000002
 51
318.8458299263331
  0
ARC
  5
2F9
330
1F
100
AcDbEntity
  8
化粧台
  6
EXLTYPE2
 62
     6
100
AcDbCircle
 10
2466.105879972376
 20
1388.5
 30
0.0
 40
6.500000000000004
100
AcDbArc
 50
41.1541700736668
 51
90.00000000000004
  0
LINE
  5
2FA
330
1F
100
AcDbEntity
  8
化粧台
  6
EXLTYPE2
 62
     6
100
AcDbLine
 10
2478.0
 20
1419.75
 30
0.0
 11
2476.57254079757
 21
1422.22243186434
 31
0.0
  0
LINE
  5
2FB
330
1F
100
AcDbEntity
  8
化粧台
  6
EXLTYPE2
 62
     6
100
AcDbLine
 10
2478.0
 20
1395.25
 30
0.0
 11
2476.57254079757
 21
1392.77756813566
 31
0.0
  0
LINE
  5
2FC
330
1F
100
AcDbEntity
  8
化粧台
  6
EXLTYPE2
 62
     6
100
AcDbLine
 10
2478.0
 20
1419.75
 30
0.0
 11
2478.0
 21
1395.25
 31
0.0
  0
LINE
  5
2FD
330
1F
100
AcDbEntity
  8
化粧台
  6
EXLTYPE2
 62
     6
100
AcDbLine
 10
2476.57254079757
 20
1392.77756813566
 30
0.0
 11
2471.0
 21
1392.77756813566
 31
0.0
  0
ARC
  5
2FE
330
1F
100
AcDbEntity
  8
化粧台
  6
EXLTYPE2
 62
     6
100
AcDbCircle
 10
2436.0
 20
1423.5
 30
0.0
 40
3.500000000000002
100
AcDbArc
 50
270.0000000000002
 51
0.0
  0
ARC
  5
2FF
330
1F
100
AcDbEntity
  8
化粧台
  6
EXLTYPE2
 62
     6
100
AcDbCircle
 10
2464.0
 20
1423.5
 30
0.0
 40
3.500000000000002
100
AcDbArc
 50
180.0
 51
270.0000000000002
  0
LINE
  5
300
330
1F
100
AcDbEntity
  8
化粧台
  6
EXLTYPE2
 62
     6
100
AcDbLine
 10
2464.0
 20
1420.0
 30
0.0
 11
2466.105879972376
 21
1420.0
 31
0.0
  0
LINE
  5
301
330
1F
100
AcDbEntity
  8
化粧台
  6
EXLTYPE2
 62
     6
100
AcDbLine
 10
2422.600000000001
 20
1402.2
 30
0.0
 11
2422.600000000001
 21
1412.8
 31
0.0
  0
LINE
  5
302
330
1F
100
AcDbEntity
  8
化粧台
  6
EXLTYPE2
 62
     6
100
AcDbLine
 10
2435.5
 20
1394.75
 30
0.0
 11
2435.5
 21
1420.25
 31
0.0
  0
ARC
  5
303
330
1F
100
AcDbEntity
  8
化粧台
  6
EXLTYPE2
 62
     6
100
AcDbCircle
 10
2431.725082782361
 20
1398.75
 30
0.0
 40
5.5
100
AcDbArc
 50
217.1876259392006
 51
313.3417582272002
  0
LINE
  5
304
330
1F
100
AcDbEntity
  8
化粧台
  6
EXLTYPE2
 62
     6
100
AcDbLine
 10
2422.600000000001
 20
1402.2
 30
0.0
 11
2427.343450177721
 21
1395.42565108361
 31
0.0
  0
ARC
  5
305
330
1F
100
AcDbEntity
  8
化粧台
  6
EXLTYPE2
 62
     6
100
AcDbCircle
 10
2431.725082782361
 20
1416.25
 30
0.0
 40
5.5
100
AcDbArc
 50
46.65824177279989
 51
142.8123740608007
  0
LINE
  5
306
330
1F
100
AcDbEntity
  8
化粧台
  6
EXLTYPE2
 62
     6
100
AcDbLine
 10
2422.600000000001
 20
1412.8
 30
0.0
 11
2427.343450177721
 21
1419.57434891639
 31
0.0
  0
LINE
  5
307
330
1F
100
AcDbEntity
  8
化粧台
  6
EXLTYPE2
 62
     6
100
AcDbLine
 10
2427.343450177721
 20
1395.42565108361
 30
0.0
 11
2427.343450177721
 21
1419.57434891649
 31
0.0
  0
LINE
  5
308
330
1F
100
AcDbEntity
  8
化粧台
  6
EXLTYPE2
 62
     6
100
AcDbLine
 10
2435.5
 20
1420.0
 30
0.0
 11
2436.0
 21
1420.0
 31
0.0
  0
LINE
  5
309
330
1F
100
AcDbEntity
  8
化粧台
  6
EXLTYPE2
 62
     6
100
AcDbLine
 10
2435.5
 20
1395.0
 30
0.0
 11
2466.10587997238
 21
1395.0
 31
0.0
  0
LINE
  5
30A
330
1F
100
AcDbEntity
  8
化粧台
  6
EXLTYPE2
 62
     6
100
AcDbLine
 10
2417.0
 20
1412.25
 30
0.0
 11
2422.600000000001
 21
1412.25
 31
0.0
  0
LINE
  5
30B
330
1F
100
AcDbEntity
  8
化粧台
  6
EXLTYPE2
 62
     6
100
AcDbLine
 10
2417.0
 20
1402.75
 30
0.0
 11
2422.600000000001
 21
1402.75
 31
0.0
  0
LINE
  5
30C
330
1F
100
AcDbEntity
  8
化粧台
  6
EXLTYPE2
 62
     6
100
AcDbLine
 10
2417.0
 20
1412.25
 30
0.0
 11
2417.0
 21
1402.75
 31
0.0
  0
LINE
  5
30D
330
1F
100
AcDbEntity
  8
化粧台
  6
EXLTYPE2
 62
     6
100
AcDbLine
 10
2478.0
 20
1397.0
 30
0.0
 11
2535.0
 21
1397.0
 31
0.0
  0
LINE
  5
30E
330
1F
100
AcDbEntity
  8
化粧台
  6
EXLTYPE2
 62
     6
100
AcDbLine
 10
2478.0
 20
1418.0
 30
0.0
 11
2535.0
 21
1418.0
 31
0.0
  0
LINE
  5
30F
330
1F
100
AcDbEntity
  8
化粧台
  6
EXLTYPE2
 62
     6
100
AcDbLine
 10
2476.57254079757
 20
1422.22243186434
 30
0.0
 11
2471.0
 21
1422.22243186434
 31
0.0
  0
LINE
  5
310
330
1F
100
AcDbEntity
  8
化粧台
  6
EXLTYPE2
 62
     6
100
AcDbLine
 10
2460.0
 20
1470.5
 30
0.0
 11
2460.0
 21
1441.5
 31
0.0
  0
LINE
  5
311
330
1F
100
AcDbEntity
  8
化粧台
  6
EXLTYPE2
 62
     6
100
AcDbLine
 10
2440.0
 20
1470.5
 30
0.0
 11
2440.0
 21
1441.5
 31
0.0
  0
LINE
  5
312
330
1F
100
AcDbEntity
  8
化粧台
  6
EXLTYPE2
 62
     6
100
AcDbLine
 10
2462.0
 20
1441.5
 30
0.0
 11
2462.0
 21
1430.5
 31
0.0
  0
LINE
  5
313
330
1F
100
AcDbEntity
  8
化粧台
  6
EXLTYPE2
 62
     6
100
AcDbLine
 10
2438.0
 20
1441.5
 30
0.0
 11
2438.0
 21
1430.5
 31
0.0
  0
LINE
  5
314
330
1F
100
AcDbEntity
  8
化粧台
  6
EXLTYPE2
 62
     6
100
AcDbLine
 10
2438.0
 20
1430.5
 30
0.0
 11
2462.0
 21
1430.5
 31
0.0
  0
LINE
  5
315
330
1F
100
AcDbEntity
  8
化粧台
  6
EXLTYPE2
 62
     6
100
AcDbLine
 10
2438.0
 20
1441.5
 30
0.0
 11
2462.0
 21
1441.5
 31
0.0
  0
LINE
  5
316
330
1F
100
AcDbEntity
  8
化粧台
  6
EXLTYPE2
 62
     6
100
AcDbLine
 10
2434.000000000002
 20
1484.5
 30
0.0
 11
2434.000000000002
 21
1470.5
 31
0.0
  0
LINE
  5
317
330
1F
100
AcDbEntity
  8
化粧台
  6
EXLTYPE2
 62
     6
100
AcDbLine
 10
2464.000000000002
 20
1482.5
 30
0.0
 11
2464.000000000002
 21
1470.5
 31
0.0
  0
LINE
  5
318
330
1F
100
AcDbEntity
  8
化粧台
  6
EXLTYPE2
 62
     6
100
AcDbLine
 10
2434.000000000002
 20
1470.5
 30
0.0
 11
2464.000000000002
 21
1470.5
 31
0.0
  0
LINE
  5
319
330
1F
100
AcDbEntity
  8
化粧台
  6
EXLTYPE2
 62
     6
100
AcDbLine
 10
2442.0
 20
1484.5
 30
0.0
 11
2442.0
 21
1470.5
 31
0.0
  0
LINE
  5
31A
330
1F
100
AcDbEntity
  8
化粧台
  6
EXLTYPE2
 62
     6
100
AcDbLine
 10
2434.0
 20
1484.5
 30
0.0
 11
2442.0
 21
1484.5
 31
0.0
  0
LINE
  5
31B
330
1F
100
AcDbEntity
  8
化粧台
  6
EXLTYPE2
 62
     6
100
AcDbLine
 10
2442.0
 20
1482.5
 30
0.0
 11
2464.000000000002
 21
1482.5
 31
0.0
  0
LINE
  5
31C
330
1F
100
AcDbEntity
  8
化粧台
  6
EXLTYPE2
 62
     6
100
AcDbLine
 10
2442.5
 20
1484.5
 30
0.0
 11
2457.500000000002
 21
1484.5
 31
0.0
  0
LINE
  5
31D
330
1F
100
AcDbEntity
  8
化粧台
  6
EXLTYPE2
 62
     6
100
AcDbLine
 10
2442.5
 20
1482.5
 30
0.0
 11
2442.5
 21
1484.5
 31
0.0
  0
LINE
  5
31E
330
1F
100
AcDbEntity
  8
化粧台
  6
EXLTYPE2
 62
     6
100
AcDbLine
 10
2457.500000000002
 20
1482.5
 30
0.0
 11
2457.500000000002
 21
1484.5
 31
0.0
  0
LINE
  5
31F
330
1F
100
AcDbEntity
  8
化粧台
  6
EXLTYPE2
 62
     6
100
AcDbLine
 10
2439.5
 20
1423.5
 30
0.0
 11
2439.5
 21
1430.5
 31
0.0
  0
LINE
  5
320
330
1F
100
AcDbEntity
  8
化粧台
  6
EXLTYPE2
 62
     6
100
AcDbLine
 10
2460.5
 20
1423.5
 30
0.0
 11
2460.5
 21
1430.5
 31
0.0
  0
LINE
  5
321
330
1F
100
AcDbEntity
  8
化粧台
  6
EXLTYPE2
 62
     6
100
AcDbLine
 10
2444.0
 20
1686.5
 30
0.0
 11
2444.0
 21
1484.5
 31
0.0
  0
LINE
  5
322
330
1F
100
AcDbEntity
  8
化粧台
  6
EXLTYPE2
 62
     6
100
AcDbLine
 10
2456.000000000002
 20
1686.5
 30
0.0
 11
2456.000000000002
 21
1484.5
 31
0.0
  0
LINE
  5
323
330
1F
100
AcDbEntity
  8
化粧台
  6
EXLTYPE3
 62
     6
100
AcDbLine
 10
2300.0
 20
1666.5
 30
0.0
 11
2300.0
 21
1471.500000000001
 31
0.0
  0
LINE
  5
324
330
1F
100
AcDbEntity
  8
化粧台
  6
CONTINUOUS
 62
     6
100
AcDbLine
 10
2535.000000000002
 20
1569.5
 30
0.0
 11
2567.500000000002
 21
1567.499999999999
 31
0.0
  0
LINE
  5
325
330
1F
100
AcDbEntity
  8
化粧台
  6
CONTINUOUS
 62
     6
100
AcDbLine
 10
2567.500000000002
 20
1567.499999999999
 30
0.0
 11
2535.000000000002
 21
1565.5
 31
0.0
  0
LINE
  5
326
330
1F
100
AcDbEntity
  8
化粧台
  6
CONTINUOUS
 62
     6
100
AcDbLine
 10
2517.0
 20
1575.0
 30
0.0
 11
2516.0
 21
1575.0
 31
0.0
  0
LINE
  5
327
330
1F
100
AcDbEntity
  8
化粧台
  6
CONTINUOUS
 62
     6
100
AcDbLine
 10
2517.0
 20
1559.999999999999
 30
0.0
 11
2516.0
 21
1559.999999999999
 31
0.0
  0
ARC
  5
328
330
1F
100
AcDbEntity
  8
化粧台
  6
CONTINUOUS
 62
     6
100
AcDbCircle
 10
2517.039655172414
 20
1567.499999999999
 30
0.0
 40
3.939655172413634
100
AcDbArc
 50
105.3013019106999
 51
254.6986980892994
  0
LINE
  5
329
330
1F
100
AcDbEntity
  8
化粧台
  6
CONTINUOUS
 62
     6
100
AcDbLine
 10
2516.0
 20
1575.0
 30
0.0
 11
2516.0
 21
1559.999999999999
 31
0.0
  0
LINE
  5
32A
330
1F
100
AcDbEntity
  8
化粧台
  6
CONTINUOUS
 62
     6
100
AcDbLine
 10
2503.100000000001
 20
1567.499999999999
 30
0.0
 11
2577.5
 21
1567.499999999999
 31
0.0
  0
LINE
  5
32B
330
1F
100
AcDbEntity
  8
化粧台
  6
EXLTYPE2
 62
     6
100
AcDbLine
 10
2517.0
 20
1127.5
 30
0.0
 11
2424.0
 21
1127.5
 31
0.0
  0
LINE
  5
32C
330
1F
100
AcDbEntity
  8
化粧台
  6
EXLTYPE2
 62
     6
100
AcDbLine
 10
2517.0
 20
1092.5
 30
0.0
 11
2424.0
 21
1092.5
 31
0.0
  0
LINE
  5
32D
330
1F
100
AcDbEntity
  8
化粧台
  6
EXLTYPE2
 62
     6
100
AcDbLine
 10
2424.0
 20
1127.5
 30
0.0
 11
2424.0
 21
1092.5
 31
0.0
  0
LINE
  5
32E
330
1F
100
AcDbEntity
  8
化粧台
  6
EXLTYPE2
 62
     6
100
AcDbLine
 10
2517.0
 20
1127.5
 30
0.0
 11
2517.0
 21
1092.5
 31
0.0
  0
ARC
  5
32F
330
1F
100
AcDbEntity
  8
化粧台
  6
CONTINUOUS
 62
     2
100
AcDbCircle
 10
640.0000000000002
 20
3409.5
 30
0.0
 40
10.0
100
AcDbArc
 50
180.0
 51
270.0000000000002
  0
ARC
  5
330
330
1F
100
AcDbEntity
  8
化粧台
  6
CONTINUOUS
 62
     2
100
AcDbCircle
 10
1169.999999999998
 20
3409.5
 30
0.0
 40
10.0
100
AcDbArc
 50
270.0000000000002
 51
0.0
  0
LINE
  5
331
330
1F
100
AcDbEntity
  8
化粧台
  6
CONTINUOUS
 62
     2
100
AcDbLine
 10
1179.999999999998
 20
3899.5
 30
0.0
 11
1179.999999999998
 21
3409.5
 31
0.0
  0
LINE
  5
332
330
1F
100
AcDbEntity
  8
化粧台
  6
CONTINUOUS
 62
     2
100
AcDbLine
 10
640.0000000000002
 20
3399.5
 30
0.0
 11
1169.999999999998
 21
3399.5
 31
0.0
  0
LINE
  5
333
330
1F
100
AcDbEntity
  8
化粧台
  6
CONTINUOUS
 62
     2
100
AcDbLine
 10
630.0000000000002
 20
3899.5
 30
0.0
 11
630.0000000000002
 21
3409.5
 31
0.0
  0
LINE
  5
334
330
1F
100
AcDbEntity
  8
化粧台
  6
CONTINUOUS
 62
     2
100
AcDbLine
 10
661.0000000000002
 20
3410.5
 30
0.0
 11
1148.999999999998
 21
3410.5
 31
0.0
  0
ARC
  5
335
330
1F
100
AcDbEntity
  8
化粧台
  6
CONTINUOUS
 62
     2
100
AcDbCircle
 10
661.0000000000002
 20
3430.5
 30
0.0
 40
20.0
100
AcDbArc
 50
180.0
 51
270.0000000000002
  0
ARC
  5
336
330
1F
100
AcDbEntity
  8
化粧台
  6
CONTINUOUS
 62
     2
100
AcDbCircle
 10
1148.999999999998
 20
3430.5
 30
0.0
 40
20.0
100
AcDbArc
 50
270.0000000000002
 51
0.0
  0
ARC
  5
337
330
1F
100
AcDbEntity
  8
化粧台
  6
CONTINUOUS
 62
     2
100
AcDbCircle
 10
651.0000000000002
 20
3874.5
 30
0.0
 40
10.0
100
AcDbArc
 50
90.00000000000004
 51
180.0
  0
ARC
  5
338
330
1F
100
AcDbEntity
  8
化粧台
  6
CONTINUOUS
 62
     2
100
AcDbCircle
 10
1158.999999999998
 20
3874.5
 30
0.0
 40
10.0
100
AcDbArc
 50
0.0
 51
90.00000000000004
  0
LINE
  5
339
330
1F
100
AcDbEntity
  8
化粧台
  6
CONTINUOUS
 62
     2
100
AcDbLine
 10
641.0000000000002
 20
3874.5
 30
0.0
 11
641.0000000000002
 21
3430.5
 31
0.0
  0
LINE
  5
33A
330
1F
100
AcDbEntity
  8
化粧台
  6
CONTINUOUS
 62
     2
100
AcDbLine
 10
651.0000000000002
 20
3884.5
 30
0.0
 11
1158.999999999998
 21
3884.5
 31
0.0
  0
LINE
  5
33B
330
1F
100
AcDbEntity
  8
化粧台
  6
CONTINUOUS
 62
     2
100
AcDbLine
 10
1168.999999999998
 20
3874.5
 30
0.0
 11
1168.999999999998
 21
3430.5
 31
0.0
  0
LINE
  5
33C
330
1F
100
AcDbEntity
  8
化粧台
  6
CONTINUOUS
 62
     2
100
AcDbLine
 10
661.5000000000002
 20
3749.5
 30
0.0
 11
656.4012519609462
 21
3875.161772545197
 31
0.0
  0
LINE
  5
33D
330
1F
100
AcDbEntity
  8
化粧台
  6
CONTINUOUS
 62
     2
100
AcDbLine
 10
1148.499999999998
 20
3749.5
 30
0.0
 11
1153.598748039051
 21
3875.161772545197
 31
0.0
  0
LINE
  5
33E
330
1F
100
AcDbEntity
  8
化粧台
  6
CONTINUOUS
 62
     6
100
AcDbLine
 10
868.0999999999988
 20
3664.5
 30
0.0
 11
941.899999999998
 21
3664.5
 31
0.0
  0
LINE
  5
33F
330
1F
100
AcDbEntity
  8
化粧台
  6
CONTINUOUS
 62
     6
100
AcDbLine
 10
876.0000000000002
 20
3814.5
 30
0.0
 11
933.9999999999984
 21
3814.5
 31
0.0
  0
ARC
  5
340
330
1F
100
AcDbEntity
  8
化粧台
  6
CONTINUOUS
 62
     6
100
AcDbCircle
 10
236.0624573310454
 20
4100.446075093719
 30
0.0
 40
800.0000000000006
100
AcDbArc
 50
301.6289008635034
 51
317.9381374214719
  0
ARC
  5
341
330
1F
100
AcDbEntity
  8
化粧台
  6
CONTINUOUS
 62
     6
100
AcDbCircle
 10
1573.937542668953
 20
4100.446075093719
 30
0.0
 40
800.0000000000006
100
AcDbArc
 50
222.0618625785282
 51
238.3710991364966
  0
LINE
  5
342
330
1F
100
AcDbEntity
  8
化粧台
  6
CONTINUOUS
 62
     6
100
AcDbLine
 10
830.0000000000002
 20
3710.5
 30
0.0
 11
830.0000000000002
 21
3564.5
 31
0.0
  0
LINE
  5
343
330
1F
100
AcDbEntity
  8
化粧台
  6
CONTINUOUS
 62
     6
100
AcDbLine
 10
830.0000000000002
 20
3564.5
 30
0.0
 11
979.9999999999984
 21
3564.5
 31
0.0
  0
LINE
  5
344
330
1F
100
AcDbEntity
  8
化粧台
  6
CONTINUOUS
 62
     6
100
AcDbLine
 10
979.9999999999984
 20
3710.5
 30
0.0
 11
979.9999999999984
 21
3564.5
 31
0.0
  0
LINE
  5
345
330
1F
100
AcDbEntity
  8
化粧台
  6
CONTINUOUS
 62
     6
100
AcDbLine
 10
979.9999999999984
 20
3710.5
 30
0.0
 11
1148.499999999998
 21
3749.5
 31
0.0
  0
LINE
  5
346
330
1F
100
AcDbEntity
  8
化粧台
  6
CONTINUOUS
 62
     6
100
AcDbLine
 10
830.0000000000002
 20
3710.5
 30
0.0
 11
661.5000000000002
 21
3749.5
 31
0.0
  0
CIRCLE
  5
347
330
1F
100
AcDbEntity
  8
化粧台
  6
CONTINUOUS
 62
     2
100
AcDbCircle
 10
835.0000000000002
 20
3804.5
 30
0.0
 40
12.50000000000001
  0
CIRCLE
  5
348
330
1F
100
AcDbEntity
  8
化粧台
  6
CONTINUOUS
 62
     2
100
AcDbCircle
 10
835.0000000000002
 20
3804.5
 30
0.0
 40
7.500000000000004
  0
CIRCLE
  5
349
330
1F
100
AcDbEntity
  8
化粧台
  6
CONTINUOUS
 62
     2
100
AcDbCircle
 10
905.0000000000002
 20
3814.5
 30
0.0
 40
24.50000000000002
  0
LINE
  5
34A
330
1F
100
AcDbEntity
  8
化粧台
  6
CONTINUOUS
 62
     2
100
AcDbLine
 10
901.0000000000002
 20
3729.499999999988
 30
0.0
 11
909.0000000000002
 21
3729.499999999988
 31
0.0
  0
LINE
  5
34B
330
1F
100
AcDbEntity
  8
化粧台
  6
CONTINUOUS
 62
     2
100
AcDbLine
 10
901.0000000000002
 20
3790.328736069456
 30
0.0
 11
901.0000000000002
 21
3729.499999999988
 31
0.0
  0
LINE
  5
34C
330
1F
100
AcDbEntity
  8
化粧台
  6
CONTINUOUS
 62
     2
100
AcDbLine
 10
909.0000000000002
 20
3790.328736069456
 30
0.0
 11
909.0000000000002
 21
3729.499999999988
 31
0.0
  0
ELLIPSE
  5
34D
330
1F
100
AcDbEntity
  8
化粧台
  6
CONTINUOUS
 62
     2
100
AcDbEllipse
 10
905.0000000000002
 20
3689.5
 30
0.0
 11
15.00000000000001
 21
0.0
 31
0.0
210
0.0
220
0.0
230
1.0
 40
0.4999999999999999
 41
0.0
 42
6.283185307179586
  0
LINE
  5
34E
330
1F
100
AcDbEntity
  8
化粧台
  6
CONTINUOUS
 62
     2
100
AcDbLine
 10
890.0000000000002
 20
3795.12862937219
 30
0.0
 11
890.0000000000002
 21
3689.5
 31
0.0
  0
LINE
  5
34F
330
1F
100
AcDbEntity
  8
化粧台
  6
CONTINUOUS
 62
     2
100
AcDbLine
 10
920.0000000000002
 20
3795.12862937219
 30
0.0
 11
920.0000000000002
 21
3689.5
 31
0.0
  0
ELLIPSE
  5
350
330
1F
100
AcDbEntity
  8
化粧台
  6
CONTINUOUS
 62
     6
100
AcDbEllipse
 10
905.0000000000002
 20
3758.782032303
 30
0.0
 11
15.00000000000001
 21
0.0
 31
0.0
210
0.0
220
0.0
230
1.0
 40
0.5000000000000004
 41
0.0
 42
1.300863530961499
  0
ELLIPSE
  5
351
330
1F
100
AcDbEntity
  8
化粧台
  6
CONTINUOUS
 62
     6
100
AcDbEllipse
 10
905.0000000000002
 20
3758.782032303
 30
0.0
 11
15.00000000000001
 21
0.0
 31
0.0
210
0.0
220
0.0
230
1.0
 40
0.5000000000000004
 41
1.840729122628308
 42
3.141592653589793
  0
LINE
  5
352
330
1F
100
AcDbEntity
  8
化粧台
  6
CONTINUOUS
 62
     2
100
AcDbLine
 10
661.5000000000002
 20
3749.5
 30
0.0
 11
890.0000000000002
 21
3749.5
 31
0.0
  0
LINE
  5
353
330
1F
100
AcDbEntity
  8
化粧台
  6
CONTINUOUS
 62
     2
100
AcDbLine
 10
920.0000000000002
 20
3749.5
 30
0.0
 11
1148.499999999998
 21
3749.5
 31
0.0
  0
ARC
  5
354
330
1F
100
AcDbEntity
  8
化粧台
  6
CONTINUOUS
 62
     2
100
AcDbCircle
 10
905.0000000000002
 20
3664.5
 30
0.0
 40
19.20000000000001
100
AcDbArc
 50
108.8435915236054
 51
71.15640847639474
  0
ARC
  5
355
330
1F
100
AcDbEntity
  8
化粧台
  6
CONTINUOUS
 62
     2
100
AcDbCircle
 10
905.0000000000002
 20
3664.5
 30
0.0
 40
26.90000000000001
100
AcDbArc
 50
122.1685825196835
 51
57.83141748031656
  0
LINE
  5
356
330
1F
100
AcDbEntity
  8
化粧台
  6
CONTINUOUS
 62
     6
100
AcDbLine
 10
830.0000000000002
 20
3710.5
 30
0.0
 11
890.0000000000002
 21
3710.5
 31
0.0
  0
LINE
  5
357
330
1F
100
AcDbEntity
  8
化粧台
  6
CONTINUOUS
 62
     6
100
AcDbLine
 10
920.0000000000002
 20
3710.5
 30
0.0
 11
979.9999999999984
 21
3710.5
 31
0.0
  0
LINE
  5
358
330
1F
100
AcDbEntity
  8
化粧台
  6
CONTINUOUS
 62
     6
100
AcDbLine
 10
840.5000000000002
 20
3899.5
 30
0.0
 11
840.5000000000002
 21
3907.5
 31
0.0
  0
LINE
  5
359
330
1F
100
AcDbEntity
  8
化粧台
  6
CONTINUOUS
 62
     6
100
AcDbLine
 10
819.5000000000002
 20
3907.5
 30
0.0
 11
840.5000000000002
 21
3907.5
 31
0.0
  0
LINE
  5
35A
330
1F
100
AcDbEntity
  8
化粧台
  6
CONTINUOUS
 62
     6
100
AcDbLine
 10
819.5000000000002
 20
3899.5
 30
0.0
 11
819.5000000000002
 21
3907.5
 31
0.0
  0
LINE
  5
35B
330
1F
100
AcDbEntity
  8
化粧台
  6
CONTINUOUS
 62
     6
100
AcDbLine
 10
990.4999999999984
 20
3899.5
 30
0.0
 11
990.4999999999984
 21
3907.5
 31
0.0
  0
LINE
  5
35C
330
1F
100
AcDbEntity
  8
化粧台
  6
CONTINUOUS
 62
     6
100
AcDbLine
 10
969.4999999999984
 20
3907.5
 30
0.0
 11
990.4999999999984
 21
3907.5
 31
0.0
  0
LINE
  5
35D
330
1F
100
AcDbEntity
  8
化粧台
  6
CONTINUOUS
 62
     6
100
AcDbLine
 10
969.4999999999984
 20
3899.5
 30
0.0
 11
969.4999999999984
 21
3907.5
 31
0.0
  0
LINE
  5
35E
330
1F
100
AcDbEntity
  8
化粧台
  6
CONTINUOUS
 62
     6
100
AcDbLine
 10
829.9999999999984
 20
3922.5
 30
0.0
 11
829.9999999999984
 21
3869.5
 31
0.0
  0
LINE
  5
35F
330
1F
100
AcDbEntity
  8
化粧台
  6
CONTINUOUS
 62
     6
100
AcDbLine
 10
979.9999999999966
 20
3922.5
 30
0.0
 11
979.9999999999966
 21
3869.5
 31
0.0
  0
LINE
  5
360
330
1F
100
AcDbEntity
  8
化粧台
  6
EXLTYPE3
 62
     6
100
AcDbLine
 10
905.0000000000002
 20
3914.5
 30
0.0
 11
905.0000000000002
 21
3384.5
 31
0.0
  0
TEXT
  5
361
330
1F
100
AcDbEntity
  8
化粧台
  6
CONTINUOUS
 62
     2
100
AcDbText
 10
1629.00000053644
 20
3839.500003814697
 30
0.0
 40
59.99999618530273
  1
W.L.
 41
0.5571963512150641
  7
EXCADSTD
 72
     5
 11
1719.74340053644
 21
3839.500003814697
 31
0.0
100
AcDbText
  0
LINE
  5
362
330
1F
100
AcDbEntity
  8
化粧台
  6
EXLTYPE4
 62
     6
100
AcDbLine
 10
2535.0
 20
987.5
 30
0.0
 11
2535.0
 21
3023.69999999995
 31
0.0
  0
TEXT
  5
363
330
1F
100
AcDbEntity
  8
化粧台
  6
CONTINUOUS
 62
     2
100
AcDbText
 10
2535.0
 20
2924.700000536392
 30
0.0
 40
59.99999618530273
  1
W.L.
 50
90.0
 41
0.5571963512150626
  7
EXCADSTD
 72
     5
 11
2535.0
 21
3015.443400536392
 31
0.0
100
AcDbText
  0
LINE
  5
364
330
1F
100
AcDbEntity
  8
化粧台
  6
CONTINUOUS
 62
     2
100
AcDbLine
 10
1263.0
 20
987.5
 30
0.0
 11
1263.0
 21
1077.5
 31
0.0
  0
LINE
  5
365
330
1F
100
AcDbEntity
  8
化粧台
  6
CONTINUOUS
 62
     2
100
AcDbLine
 10
1280.0
 20
1686.499999999999
 30
0.0
 11
1280.0
 21
1667.499999999999
 31
0.0
  0
LINE
  5
366
330
1F
100
AcDbEntity
  8
化粧台
  6
CONTINUOUS
 62
     6
100
AcDbLine
 10
1160.0
 20
1580.499999999999
 30
0.0
 11
1160.0
 21
1554.499999999999
 31
0.0
  0
LINE
  5
367
330
1F
100
AcDbEntity
  8
化粧台
  6
CONTINUOUS
 62
     6
100
AcDbLine
 10
1173.0
 20
1567.499999999999
 30
0.0
 11
1147.0
 21
1567.499999999999
 31
0.0
  0
LINE
  5
368
330
1F
100
AcDbEntity
  8
化粧台
  6
CONTINUOUS
 62
     2
100
AcDbLine
 10
1278.0
 20
987.5
 30
0.0
 11
1278.0
 21
1667.499999999999
 31
0.0
  0
LINE
  5
369
330
1F
100
AcDbEntity
  8
化粧台
  6
CONTINUOUS
 62
     6
100
AcDbLine
 10
1275.000000000002
 20
1662.5
 30
0.0
 11
1275.000000000002
 21
1630.5
 31
0.0
  0
LINE
  5
36A
330
1F
100
AcDbEntity
  8
化粧台
  6
CONTINUOUS
 62
     2
100
AcDbLine
 10
1275.0
 20
1630.5
 30
0.0
 11
1275.0
 21
1487.5
 31
0.0
  0
LINE
  5
36B
330
1F
100
AcDbEntity
  8
化粧台
  6
CONTINUOUS
 62
     6
100
AcDbLine
 10
1275.000000000002
 20
1483.5
 30
0.0
 11
1275.000000000002
 21
1451.5
 31
0.0
  0
LINE
  5
36C
330
1F
100
AcDbEntity
  8
化粧台
  6
CONTINUOUS
 62
     2
100
AcDbLine
 10
1275.0
 20
1451.5
 30
0.0
 11
1275.0
 21
1077.5
 31
0.0
  0
LINE
  5
36D
330
1F
100
AcDbEntity
  8
化粧台
  6
CONTINUOUS
 62
     2
100
AcDbLine
 10
1248.0
 20
987.5
 30
0.0
 11
1248.0
 21
1077.5
 31
0.0
  0
LINE
  5
36E
330
1F
100
AcDbEntity
  8
化粧台
  6
CONTINUOUS
 62
     2
100
AcDbLine
 10
1280.0
 20
3899.5
 30
0.0
 11
1280.0
 21
3449.5
 31
0.0
  0
LINE
  5
36F
330
1F
100
AcDbEntity
  8
化粧台
  6
CONTINUOUS
 62
     2
100
AcDbLine
 10
1179.999999999998
 20
3449.5
 30
0.0
 11
1280.0
 21
3449.5
 31
0.0
  0
LINE
  5
370
330
1F
100
AcDbEntity
  8
化粧台
  6
CONTINUOUS
 62
     6
100
AcDbLine
 10
1157.999999999998
 20
3899.500000000004
 30
0.0
 11
1159.999999999998
 21
3932.000000000004
 31
0.0
  0
LINE
  5
371
330
1F
100
AcDbEntity
  8
化粧台
  6
CONTINUOUS
 62
     6
100
AcDbLine
 10
1159.999999999998
 20
3932.000000000004
 30
0.0
 11
1161.999999999998
 21
3899.500000000004
 31
0.0
  0
LINE
  5
372
330
1F
100
AcDbEntity
  8
化粧台
  6
CONTINUOUS
 62
     6
100
AcDbLine
 10
1159.999999999998
 20
3884.5
 30
0.0
 11
1159.999999999998
 21
3942.0
 31
0.0
  0
LINE
  5
373
330
1F
100
AcDbEntity
  8
化粧台
  6
CONTINUOUS
 62
     2
100
AcDbLine
 10
562.0000000000002
 20
987.5
 30
0.0
 11
562.0000000000002
 21
1077.5
 31
0.0
  0
LINE
  5
374
330
1F
100
AcDbEntity
  8
化粧台
  6
CONTINUOUS
 62
     2
100
AcDbLine
 10
535.0000000000002
 20
1451.5
 30
0.0
 11
535.0000000000002
 21
1077.5
 31
0.0
  0
LINE
  5
375
330
1F
100
AcDbEntity
  8
化粧台
  6
CONTINUOUS
 62
     6
100
AcDbLine
 10
535.0000000000002
 20
1483.5
 30
0.0
 11
535.0000000000002
 21
1451.5
 31
0.0
  0
LINE
  5
376
330
1F
100
AcDbEntity
  8
化粧台
  6
CONTINUOUS
 62
     2
100
AcDbLine
 10
535.0000000000002
 20
1630.5
 30
0.0
 11
535.0000000000002
 21
1487.5
 31
0.0
  0
LINE
  5
377
330
1F
100
AcDbEntity
  8
化粧台
  6
CONTINUOUS
 62
     6
100
AcDbLine
 10
535.0000000000002
 20
1662.5
 30
0.0
 11
535.0000000000002
 21
1630.5
 31
0.0
  0
LINE
  5
378
330
1F
100
AcDbEntity
  8
化粧台
  6
CONTINUOUS
 62
     2
100
AcDbLine
 10
532.0000000000002
 20
987.5
 30
0.0
 11
532.0000000000002
 21
1667.5
 31
0.0
  0
LINE
  5
379
330
1F
100
AcDbEntity
  8
化粧台
  6
CONTINUOUS
 62
     6
100
AcDbLine
 10
637.0000000000002
 20
1567.499999999999
 30
0.0
 11
663.0000000000002
 21
1567.499999999999
 31
0.0
  0
LINE
  5
37A
330
1F
100
AcDbEntity
  8
化粧台
  6
CONTINUOUS
 62
     6
100
AcDbLine
 10
650.0000000000002
 20
1580.499999999999
 30
0.0
 11
650.0000000000002
 21
1554.499999999999
 31
0.0
  0
LINE
  5
37B
330
1F
100
AcDbEntity
  8
化粧台
  6
CONTINUOUS
 62
     2
100
AcDbLine
 10
530.0000000000002
 20
1686.499999999999
 30
0.0
 11
530.0000000000002
 21
1667.5
 31
0.0
  0
LINE
  5
37C
330
1F
100
AcDbEntity
  8
化粧台
  6
CONTINUOUS
 62
     2
100
AcDbLine
 10
547.0000000000002
 20
987.5
 30
0.0
 11
547.0000000000002
 21
1077.5
 31
0.0
  0
LINE
  5
37D
330
1F
100
AcDbEntity
  8
化粧台
  6
CONTINUOUS
 62
     2
100
AcDbLine
 10
530.0000000000002
 20
3899.5
 30
0.0
 11
530.0000000000002
 21
3449.5
 31
0.0
  0
LINE
  5
37E
330
1F
100
AcDbEntity
  8
化粧台
  6
CONTINUOUS
 62
     2
100
AcDbLine
 10
530.0000000000002
 20
3449.5
 30
0.0
 11
630.0000000000002
 21
3449.5
 31
0.0
  0
LINE
  5
37F
330
1F
100
AcDbEntity
  8
化粧台
  6
CONTINUOUS
 62
     6
100
AcDbLine
 10
648.0000000000002
 20
3899.500000000004
 30
0.0
 11
650.0000000000002
 21
3932.000000000004
 31
0.0
  0
LINE
  5
380
330
1F
100
AcDbEntity
  8
化粧台
  6
CONTINUOUS
 62
     6
100
AcDbLine
 10
650.0000000000002
 20
3932.000000000004
 30
0.0
 11
652.0000000000002
 21
3899.500000000004
 31
0.0
  0
LINE
  5
381
330
1F
100
AcDbEntity
  8
化粧台
  6
CONTINUOUS
 62
     6
100
AcDbLine
 10
650.0000000000002
 20
3884.5
 30
0.0
 11
650.0000000000002
 21
3942.0
 31
0.0
  0
LINE
  5
382
330
1F
100
AcDbEntity
  8
化粧台
  6
EXLTYPE4
 62
     6
100
AcDbLine
 10
1713.999999999998
 20
987.5
 30
0.0
 11
305.0000000000002
 21
987.5
 31
0.0
  0
LINE
  5
383
330
1F
100
AcDbEntity
  8
化粧台
  6
CONTINUOUS
 62
     6
100
AcDbLine
 10
1275.000000000002
 20
1630.5
 30
0.0
 11
535.0000000000002
 21
1630.5
 31
0.0
  0
LINE
  5
384
330
1F
100
AcDbEntity
  8
化粧台
  6
CONTINUOUS
 62
     6
100
AcDbLine
 10
1275.000000000002
 20
1634.5423136954
 30
0.0
 11
535.0000000000002
 21
1634.5423136954
 31
0.0
  0
LINE
  5
385
330
1F
100
AcDbEntity
  8
化粧台
  6
CONTINUOUS
 62
     6
100
AcDbLine
 10
1275.000000000002
 20
1451.5
 30
0.0
 11
535.0000000000002
 21
1451.5
 31
0.0
  0
LINE
  5
386
330
1F
100
AcDbEntity
  8
化粧台
  6
CONTINUOUS
 62
     6
100
AcDbLine
 10
1275.000000000002
 20
1455.5423136954
 30
0.0
 11
535.0000000000002
 21
1455.5423136954
 31
0.0
  0
LINE
  5
387
330
1F
100
AcDbEntity
  8
化粧台
  6
CONTINUOUS
 62
     2
100
AcDbLine
 10
1275.0
 20
1077.5
 30
0.0
 11
535.0000000000002
 21
1077.5
 31
0.0
  0
LINE
  5
388
330
1F
100
AcDbEntity
  8
化粧台
  6
CONTINUOUS
 62
     2
100
AcDbLine
 10
1275.0
 20
1487.5
 30
0.0
 11
535.0000000000002
 21
1487.5
 31
0.0
  0
LINE
  5
389
330
1F
100
AcDbEntity
  8
化粧台
  6
CONTINUOUS
 62
     6
100
AcDbLine
 10
1275.000000000002
 20
1483.5
 30
0.0
 11
535.0000000000002
 21
1483.5
 31
0.0
  0
LINE
  5
38A
330
1F
100
AcDbEntity
  8
化粧台
  6
CONTINUOUS
 62
     6
100
AcDbLine
 10
1275.000000000002
 20
1473.5
 30
0.0
 11
535.0000000000002
 21
1473.5
 31
0.0
  0
LINE
  5
38B
330
1F
100
AcDbEntity
  8
化粧台
  6
CONTINUOUS
 62
     6
100
AcDbLine
 10
1275.000000000002
 20
1662.5
 30
0.0
 11
535.0000000000002
 21
1662.5
 31
0.0
  0
LINE
  5
38C
330
1F
100
AcDbEntity
  8
化粧台
  6
CONTINUOUS
 62
     6
100
AcDbLine
 10
1275.000000000002
 20
1652.5
 30
0.0
 11
535.0000000000002
 21
1652.5
 31
0.0
  0
LINE
  5
38D
330
1F
100
AcDbEntity
  8
化粧台
  6
CONTINUOUS
 62
     2
100
AcDbLine
 10
532.0000000000002
 20
987.5
 30
0.0
 11
1278.0
 21
987.5
 31
0.0
  0
LINE
  5
38E
330
1F
100
AcDbEntity
  8
化粧台
  6
CONTINUOUS
 62
     2
100
AcDbLine
 10
1280.0
 20
1686.499999999999
 30
0.0
 11
530.0000000000002
 21
1686.499999999999
 31
0.0
  0
LINE
  5
38F
330
1F
100
AcDbEntity
  8
化粧台
  6
CONTINUOUS
 62
     2
100
AcDbLine
 10
1280.0
 20
1667.499999999999
 30
0.0
 11
530.0000000000002
 21
1667.499999999999
 31
0.0
  0
LINE
  5
390
330
1F
100
AcDbEntity
  8
化粧台
  6
CONTINUOUS
 62
     2
100
AcDbLine
 10
530.0000000000002
 20
3899.5
 30
0.0
 11
1280.0
 21
3899.5
 31
0.0
  0
LINE
  5
391
330
1F
100
AcDbEntity
  8
化粧台
  6
EXLTYPE4
 62
     6
100
AcDbLine
 10
318.0000000000002
 20
3899.5
 30
0.0
 11
1727.999999999998
 21
3899.5
 31
0.0
  0
ARC
  5
392
330
1F
100
AcDbEntity
  8
化粧台
  6
EXLTYPE2
 62
     6
100
AcDbCircle
 10
1038.999999999991
 20
1452.0
 30
0.0
 40
32.0
100
AcDbArc
 50
0.0
 51
90.00000000000004
  0
LINE
  5
393
330
1F
100
AcDbEntity
  8
化粧台
  6
EXLTYPE2
 62
     6
100
AcDbLine
 10
1038.999999999995
 20
1421.0
 30
0.0
 11
1038.999999999995
 21
1452.0
 31
0.0
  0
LINE
  5
394
330
1F
100
AcDbEntity
  8
化粧台
  6
EXLTYPE2
 62
     6
100
AcDbLine
 10
1070.999999999991
 20
1421.0
 30
0.0
 11
1070.999999999991
 21
1452.0
 31
0.0
  0
LINE
  5
395
330
1F
100
AcDbEntity
  8
化粧台
  6
EXLTYPE2
 62
     6
100
AcDbLine
 10
1036.499999999998
 20
1403.0
 30
0.0
 11
1036.499999999998
 21
1368.0
 31
0.0
  0
LINE
  5
396
330
1F
100
AcDbEntity
  8
化粧台
  6
EXLTYPE2
 62
     6
100
AcDbLine
 10
1073.499999999997
 20
1403.0
 30
0.0
 11
1073.499999999997
 21
1368.0
 31
0.0
  0
LINE
  5
397
330
1F
100
AcDbEntity
  8
化粧台
  6
EXLTYPE2
 62
     6
100
AcDbLine
 10
1070.849999999997
 20
1365.35
 30
0.0
 11
1070.849999999997
 21
1325.0
 31
0.0
  0
LINE
  5
398
330
1F
100
AcDbEntity
  8
化粧台
  6
EXLTYPE2
 62
     6
100
AcDbLine
 10
1073.499999999997
 20
1368.0
 30
0.0
 11
1070.849999999997
 21
1365.35
 31
0.0
  0
LINE
  5
399
330
1F
100
AcDbEntity
  8
化粧台
  6
EXLTYPE2
 62
     6
100
AcDbLine
 10
1036.499999999998
 20
1368.0
 30
0.0
 11
1039.149999999996
 21
1365.35
 31
0.0
  0
LINE
  5
39A
330
1F
100
AcDbEntity
  8
化粧台
  6
EXLTYPE2
 62
     6
100
AcDbLine
 10
1031.599999999997
 20
1403.0
 30
0.0
 11
1078.399999999998
 21
1403.0
 31
0.0
  0
LINE
  5
39B
330
1F
100
AcDbEntity
  8
化粧台
  6
EXLTYPE2
 62
     6
100
AcDbLine
 10
1033.599999999997
 20
1421.0
 30
0.0
 11
1076.399999999998
 21
1421.0
 31
0.0
  0
LINE
  5
39C
330
1F
100
AcDbEntity
  8
化粧台
  6
EXLTYPE2
 62
     6
100
AcDbLine
 10
1031.599999999997
 20
1419.0
 30
0.0
 11
1031.599999999997
 21
1403.0
 31
0.0
  0
LINE
  5
39D
330
1F
100
AcDbEntity
  8
化粧台
  6
EXLTYPE2
 62
     6
100
AcDbLine
 10
1078.399999999998
 20
1419.0
 30
0.0
 11
1078.399999999998
 21
1403.0
 31
0.0
  0
ARC
  5
39E
330
1F
100
AcDbEntity
  8
化粧台
  6
EXLTYPE2
 62
     6
100
AcDbCircle
 10
1033.599999999997
 20
1419.0
 30
0.0
 40
2.0
100
AcDbArc
 50
90.00000000000004
 51
180.0
  0
ARC
  5
39F
330
1F
100
AcDbEntity
  8
化粧台
  6
EXLTYPE2
 62
     6
100
AcDbCircle
 10
1076.399999999998
 20
1419.0
 30
0.0
 40
2.0
100
AcDbArc
 50
0.0
 51
90.00000000000004
  0
LINE
  5
3A0
330
1F
100
AcDbEntity
  8
化粧台
  6
EXLTYPE2
 62
     6
100
AcDbLine
 10
1039.149999999996
 20
1365.35
 30
0.0
 11
1070.849999999997
 21
1365.35
 31
0.0
  0
ARC
  5
3A1
330
1F
100
AcDbEntity
  8
化粧台
  6
EXLTYPE2
 62
     6
100
AcDbCircle
 10
1079.149999999998
 20
1327.593254606
 30
0.0
 40
40.0
100
AcDbArc
 50
180.0
 51
216.1437885097002
  0
LINE
  5
3A2
330
1F
100
AcDbEntity
  8
化粧台
  6
EXLTYPE2
 62
     6
100
AcDbLine
 10
1037.870011102998
 20
1419.0
 30
0.0
 11
1037.870011102998
 21
1403.0
 31
0.0
  0
LINE
  5
3A3
330
1F
100
AcDbEntity
  8
化粧台
  6
EXLTYPE2
 62
     6
100
AcDbLine
 10
1048.729988896998
 20
1419.0
 30
0.0
 11
1048.729988896998
 21
1403.0
 31
0.0
  0
LINE
  5
3A4
330
1F
100
AcDbEntity
  8
化粧台
  6
EXLTYPE2
 62
     6
100
AcDbLine
 10
1061.270011102996
 20
1419.0
 30
0.0
 11
1061.270011102996
 21
1403.0
 31
0.0
  0
LINE
  5
3A5
330
1F
100
AcDbEntity
  8
化粧台
  6
EXLTYPE2
 62
     6
100
AcDbLine
 10
1072.129988896997
 20
1419.0
 30
0.0
 11
1072.129988896997
 21
1403.0
 31
0.0
  0
ARC
  5
3A6
330
1F
100
AcDbEntity
  8
化粧台
  6
EXLTYPE2
 62
     6
100
AcDbCircle
 10
1072.967785551997
 20
1325.490062417601
 30
0.0
 40
40.0
100
AcDbArc
 50
317.6935529327007
 51
358.6765942212
  0
LINE
  5
3A7
330
1F
100
AcDbEntity
  8
化粧台
  6
EXLTYPE2
 62
     6
100
AcDbLine
 10
1103.128124999996
 20
1324.5662330406
 30
0.0
 11
1117.228124999998
 21
1324.5662330406
 31
0.0
  0
LINE
  5
3A8
330
1F
100
AcDbEntity
  8
化粧台
  6
EXLTYPE2
 62
     6
100
AcDbLine
 10
1104.998136102997
 20
1370.5662330406
 30
0.0
 11
1104.998136102997
 21
1354.5662330406
 31
0.0
  0
LINE
  5
3A9
330
1F
100
AcDbEntity
  8
化粧台
  6
EXLTYPE2
 62
     6
100
AcDbLine
 10
1115.858113896997
 20
1370.5662330406
 30
0.0
 11
1115.858113896997
 21
1354.5662330406
 31
0.0
  0
LINE
  5
3AA
330
1F
100
AcDbEntity
  8
化粧台
  6
EXLTYPE2
 62
     6
100
AcDbLine
 10
1087.221874999998
 20
1354.5662330406
 30
0.0
 11
1122.128124999998
 21
1354.5662330406
 31
0.0
  0
LINE
  5
3AB
330
1F
100
AcDbEntity
  8
化粧台
  6
EXLTYPE2
 62
     6
100
AcDbLine
 10
1087.221874999998
 20
1329.5662330406
 30
0.0
 11
1102.549999999996
 21
1329.5662330406
 31
0.0
  0
LINE
  5
3AC
330
1F
100
AcDbEntity
  8
化粧台
  6
EXLTYPE2
 62
     6
100
AcDbLine
 10
1102.549999999996
 20
1329.5662330406
 30
0.0
 11
1102.549999999996
 21
1295.0662330406
 31
0.0
  0
LINE
  5
3AD
330
1F
100
AcDbEntity
  8
化粧台
  6
EXLTYPE2
 62
     6
100
AcDbLine
 10
1127.156249999997
 20
1370.5662330406
 30
0.0
 11
1127.156249999997
 21
1354.5662330406
 31
0.0
  0
LINE
  5
3AE
330
1F
100
AcDbEntity
  8
化粧台
  6
EXLTYPE2
 62
     6
100
AcDbLine
 10
1082.843749999998
 20
1370.5662330406
 30
0.0
 11
1082.843749999998
 21
1354.5662330406
 31
0.0
  0
ARC
  5
3AF
330
1F
100
AcDbEntity
  8
化粧台
  6
EXLTYPE2
 62
     6
100
AcDbCircle
 10
1084.84375
 20
1370.5662330406
 30
0.0
 40
2.0
100
AcDbArc
 50
90.00000000000004
 51
180.0
  0
LINE
  5
3B0
330
1F
100
AcDbEntity
  8
化粧台
  6
EXLTYPE2
 62
     6
100
AcDbLine
 10
1056.099999999997
 20
1295.5
 30
0.0
 11
1102.099999999997
 21
1295.5
 31
0.0
  0
LINE
  5
3B1
330
1F
100
AcDbEntity
  8
化粧台
  6
EXLTYPE2
 62
     6
100
AcDbLine
 10
1057.599999999997
 20
1279.0
 30
0.0
 11
1100.599999999997
 21
1279.0
 31
0.0
  0
LINE
  5
3B2
330
1F
100
AcDbEntity
  8
化粧台
  6
EXLTYPE2
 62
     6
100
AcDbLine
 10
1102.099999999997
 20
1280.5
 30
0.0
 11
1102.099999999997
 21
1295.5
 31
0.0
  0
LINE
  5
3B3
330
1F
100
AcDbEntity
  8
化粧台
  6
EXLTYPE2
 62
     6
100
AcDbLine
 10
1056.099999999997
 20
1280.5
 30
0.0
 11
1056.099999999997
 21
1295.5
 31
0.0
  0
ARC
  5
3B4
330
1F
100
AcDbEntity
  8
化粧台
  6
EXLTYPE2
 62
     6
100
AcDbCircle
 10
1057.599999999997
 20
1280.5
 30
0.0
 40
1.5
100
AcDbArc
 50
180.0
 51
270.0000000000002
  0
ARC
  5
3B5
330
1F
100
AcDbEntity
  8
化粧台
  6
EXLTYPE2
 62
     6
100
AcDbCircle
 10
1100.599999999997
 20
1280.5
 30
0.0
 40
1.5
100
AcDbArc
 50
270.0000000000002
 51
0.0
  0
LINE
  5
3B6
330
1F
100
AcDbEntity
  8
化粧台
  6
EXLTYPE2
 62
     6
100
AcDbLine
 10
1058.246341462997
 20
1279.0
 30
0.0
 11
1058.246341462997
 21
1295.5
 31
0.0
  0
LINE
  5
3B7
330
1F
100
AcDbEntity
  8
化粧台
  6
EXLTYPE2
 62
     6
100
AcDbLine
 10
1099.953658536997
 20
1279.0
 30
0.0
 11
1099.953658536997
 21
1295.5
 31
0.0
  0
LINE
  5
3B8
330
1F
100
AcDbEntity
  8
化粧台
  6
EXLTYPE2
 62
     6
100
AcDbLine
 10
1070.816461245997
 20
1280.5
 30
0.0
 11
1070.816461245997
 21
1295.5
 31
0.0
  0
LINE
  5
3B9
330
1F
100
AcDbEntity
  8
化粧台
  6
EXLTYPE2
 62
     6
100
AcDbLine
 10
1087.383538753999
 20
1280.5
 30
0.0
 11
1087.383538753999
 21
1295.5
 31
0.0
  0
LINE
  5
3BA
330
1F
100
AcDbEntity
  8
化粧台
  6
EXLTYPE2
 62
     6
100
AcDbLine
 10
1066.349999999997
 20
1295.5
 30
0.0
 11
1066.349999999997
 21
1280.5
 31
0.0
  0
LINE
  5
3BB
330
1F
100
AcDbEntity
  8
化粧台
  6
EXLTYPE2
 62
     6
100
AcDbLine
 10
1091.849999999997
 20
1295.5
 30
0.0
 11
1091.849999999997
 21
1280.5
 31
0.0
  0
LINE
  5
3BC
330
1F
100
AcDbEntity
  8
化粧台
  6
EXLTYPE2
 62
     6
100
AcDbLine
 10
1062.878124999998
 20
1299.72532196
 30
0.0
 11
1062.878124999998
 21
1295.2
 31
0.0
  0
LINE
  5
3BD
330
1F
100
AcDbEntity
  8
化粧台
  6
EXLTYPE2
 62
     6
100
AcDbLine
 10
1120.849999999997
 20
1354.5662330406
 30
0.0
 11
1120.849999999997
 21
1324.5662330406
 31
0.0
  0
LINE
  5
3BE
330
1F
100
AcDbEntity
  8
化粧台
  6
EXLTYPE2
 62
     6
100
AcDbLine
 10
1089.149999999996
 20
1354.5662330406
 30
0.0
 11
1089.149999999996
 21
1329.5662330406
 31
0.0
  0
LINE
  5
3BF
330
1F
100
AcDbEntity
  8
化粧台
  6
EXLTYPE2
 62
     6
100
AcDbLine
 10
1039.149999999996
 20
1365.35
 30
0.0
 11
1039.149999999996
 21
1337.650000000001
 31
0.0
  0
ARC
  5
3C0
330
1F
100
AcDbEntity
  8
化粧台
  6
EXLTYPE2
 62
     6
100
AcDbCircle
 10
1104.999999999998
 20
1417.5
 30
0.0
 40
16.0
100
AcDbArc
 50
0.0
 51
180.0
  0
LINE
  5
3C1
330
1F
100
AcDbEntity
  8
化粧台
  6
EXLTYPE2
 62
     6
100
AcDbLine
 10
1089.871874999997
 20
1372.5662330406
 30
0.0
 11
1120.128124999996
 21
1372.5662330406
 31
0.0
  0
LINE
  5
3C2
330
1F
100
AcDbEntity
  8
化粧台
  6
EXLTYPE2
 62
     6
100
AcDbLine
 10
1114.578124999997
 20
1374.3943580406
 30
0.0
 11
1114.578124999997
 21
1372.5662330406
 31
0.0
  0
LINE
  5
3C3
330
1F
100
AcDbEntity
  8
化粧台
  6
EXLTYPE2
 62
     6
100
AcDbLine
 10
1120.999999999998
 20
1417.5
 30
0.0
 11
1120.999999999998
 21
1372.5662330406
 31
0.0
  0
LINE
  5
3C4
330
1F
100
AcDbEntity
  8
化粧台
  6
EXLTYPE2
 62
     6
100
AcDbLine
 10
1088.999999999998
 20
1417.5
 30
0.0
 11
1088.999999999998
 21
1372.5662330406
 31
0.0
  0
ARC
  5
3C5
330
1F
100
AcDbEntity
  8
化粧台
  6
EXLTYPE2
 62
     6
100
AcDbCircle
 10
1125.156249999997
 20
1370.5662330406
 30
0.0
 40
2.0
100
AcDbArc
 50
0.0
 51
90.00000000000004
  0
LINE
  5
3C6
330
1F
100
AcDbEntity
  8
化粧台
  6
EXLTYPE3
 62
     6
100
AcDbLine
 10
1104.999999999998
 20
1387.5
 30
0.0
 11
1104.999999999998
 21
1444.35
 31
0.0
  0
LINE
  5
3C7
330
1F
100
AcDbEntity
  8
化粧台
  6
EXLTYPE3
 62
     6
100
AcDbLine
 10
1135.149999999998
 20
1417.5
 30
0.0
 11
1078.299999999998
 21
1417.5
 31
0.0
  0
LINE
  5
3C8
330
1F
100
AcDbEntity
  8
化粧台
  6
EXLTYPE2
 62
     6
100
AcDbLine
 10
2564.999999999999
 20
1401.49999999997
 30
0.0
 11
2543.0
 21
1401.49999999997
 31
0.0
  0
LINE
  5
3C9
330
1F
100
AcDbEntity
  8
化粧台
  6
EXLTYPE2
 62
     6
100
AcDbLine
 10
2564.999999999999
 20
1433.49999999997
 30
0.0
 11
2564.999999999999
 21
1401.49999999997
 31
0.0
  0
ARC
  5
3CA
330
1F
100
AcDbEntity
  8
化粧台
  6
EXLTYPE2
 62
     6
100
AcDbCircle
 10
2515.999999999999
 20
1387.49999999997
 30
0.0
 40
46.00000000000004
100
AcDbArc
 50
90.00000000000004
 51
137.025169405615
  0
LINE
  5
3CB
330
1F
100
AcDbEntity
  8
化粧台
  6
EXLTYPE2
 62
     6
100
AcDbLine
 10
2564.999999999999
 20
1433.49999999997
 30
0.0
 11
2515.999999999999
 21
1433.49999999997
 31
0.0
  0
ARC
  5
3CC
330
1F
100
AcDbEntity
  8
化粧台
  6
EXLTYPE2
 62
     6
100
AcDbCircle
 10
2515.999999999999
 20
1387.49999999997
 30
0.0
 40
14.00000000000002
100
AcDbArc
 50
132.2859661513005
 51
180.0
  0
LINE
  5
3CD
330
1F
100
AcDbEntity
  8
化粧台
  6
EXLTYPE2
 62
     6
100
AcDbLine
 10
2501.999999999999
 20
1386.64285714287
 30
0.0
 11
2501.999999999999
 21
1373.0
 31
0.0
  0
LINE
  5
3CE
330
1F
100
AcDbEntity
  8
化粧台
  6
EXLTYPE2
 62
     6
100
AcDbLine
 10
2470.0
 20
1386.64285714287
 30
0.0
 11
2470.0
 21
1373.0
 31
0.0
  0
LINE
  5
3CF
330
1F
100
AcDbEntity
  8
化粧台
  6
EXLTYPE2
 62
     6
100
AcDbLine
 10
2469.8
 20
1323.64285714286
 30
0.0
 11
2504.499999999999
 21
1323.64285714286
 31
0.0
  0
LINE
  5
3D0
330
1F
100
AcDbEntity
  8
化粧台
  6
EXLTYPE2
 62
     6
100
AcDbLine
 10
2467.5
 20
1351.892857142869
 30
0.0
 11
2504.499999999999
 21
1351.892857142869
 31
0.0
  0
LINE
  5
3D1
330
1F
100
AcDbEntity
  8
化粧台
  6
EXLTYPE2
 62
     6
100
AcDbLine
 10
2467.499999999999
 20
1351.892857142869
 30
0.0
 11
2466.749999999997
 21
1352.642857142868
 31
0.0
  0
LINE
  5
3D2
330
1F
100
AcDbEntity
  8
化粧台
  6
EXLTYPE2
 62
     6
100
AcDbLine
 10
2466.749999999997
 20
1353.64285714288
 30
0.0
 11
2466.749999999997
 21
1352.64285714287
 31
0.0
  0
LINE
  5
3D3
330
1F
100
AcDbEntity
  8
化粧台
  6
EXLTYPE2
 62
     6
100
AcDbLine
 10
2504.5
 20
1351.892857142869
 30
0.0
 11
2505.25
 21
1352.642857142868
 31
0.0
  0
LINE
  5
3D4
330
1F
100
AcDbEntity
  8
化粧台
  6
EXLTYPE2
 62
     6
100
AcDbLine
 10
2505.25
 20
1353.64285714288
 30
0.0
 11
2505.25
 21
1352.64285714287
 31
0.0
  0
LINE
  5
3D5
330
1F
100
AcDbEntity
  8
化粧台
  6
EXLTYPE2
 62
     6
100
AcDbLine
 10
2466.749999999997
 20
1352.64285714287
 30
0.0
 11
2505.25
 21
1352.64285714287
 31
0.0
  0
LINE
  5
3D6
330
1F
100
AcDbEntity
  8
化粧台
  6
EXLTYPE2
 62
     6
100
AcDbLine
 10
2505.25
 20
1353.64285714288
 30
0.0
 11
2466.749999999997
 21
1353.64285714288
 31
0.0
  0
LINE
  5
3D7
330
1F
100
AcDbEntity
  8
化粧台
  6
EXLTYPE2
 62
     6
100
AcDbLine
 10
2467.5
 20
1351.89285714287
 30
0.0
 11
2467.5
 21
1328.64285714286
 31
0.0
  0
LINE
  5
3D8
330
1F
100
AcDbEntity
  8
化粧台
  6
EXLTYPE2
 62
     6
100
AcDbLine
 10
2504.499999999999
 20
1351.89285714287
 30
0.0
 11
2504.499999999999
 21
1323.64285714286
 31
0.0
  0
LINE
  5
3D9
330
1F
100
AcDbEntity
  8
化粧台
  6
EXLTYPE2
 62
     6
100
AcDbLine
 10
2462.599999999999
 20
1355.00000000001
 30
0.0
 11
2509.4
 21
1355.00000000001
 31
0.0
  0
LINE
  5
3DA
330
1F
100
AcDbEntity
  8
化粧台
  6
EXLTYPE2
 62
     6
100
AcDbLine
 10
2464.599999999999
 20
1373.00000000001
 30
0.0
 11
2507.399999999998
 21
1373.00000000001
 31
0.0
  0
LINE
  5
3DB
330
1F
100
AcDbEntity
  8
化粧台
  6
EXLTYPE2
 62
     6
100
AcDbLine
 10
2462.599999999999
 20
1371.00000000001
 30
0.0
 11
2462.599999999999
 21
1355.00000000001
 31
0.0
  0
LINE
  5
3DC
330
1F
100
AcDbEntity
  8
化粧台
  6
EXLTYPE2
 62
     6
100
AcDbLine
 10
2509.4
 20
1371.00000000001
 30
0.0
 11
2509.4
 21
1355.00000000001
 31
0.0
  0
ARC
  5
3DD
330
1F
100
AcDbEntity
  8
化粧台
  6
EXLTYPE2
 62
     6
100
AcDbCircle
 10
2464.599999999999
 20
1371.00000000001
 30
0.0
 40
2.0
100
AcDbArc
 50
90.00000000000004
 51
180.0
  0
ARC
  5
3DE
330
1F
100
AcDbEntity
  8
化粧台
  6
EXLTYPE2
 62
     6
100
AcDbCircle
 10
2507.399999999998
 20
1371.00000000001
 30
0.0
 40
2.0
100
AcDbArc
 50
0.0
 51
90.00000000000004
  0
LINE
  5
3DF
330
1F
100
AcDbEntity
  8
化粧台
  6
EXLTYPE2
 62
     6
100
AcDbLine
 10
2468.870011102998
 20
1371.00000000001
 30
0.0
 11
2468.870011102998
 21
1355.00000000001
 31
0.0
  0
LINE
  5
3E0
330
1F
100
AcDbEntity
  8
化粧台
  6
EXLTYPE2
 62
     6
100
AcDbLine
 10
2479.729988897
 20
1371.00000000001
 30
0.0
 11
2479.729988897
 21
1355.00000000001
 31
0.0
  0
LINE
  5
3E1
330
1F
100
AcDbEntity
  8
化粧台
  6
EXLTYPE2
 62
     6
100
AcDbLine
 10
2492.270011102999
 20
1371.00000000001
 30
0.0
 11
2492.270011102999
 21
1355.00000000001
 31
0.0
  0
LINE
  5
3E2
330
1F
100
AcDbEntity
  8
化粧台
  6
EXLTYPE2
 62
     6
100
AcDbLine
 10
2503.129988896999
 20
1371.00000000001
 30
0.0
 11
2503.129988896999
 21
1355.00000000001
 31
0.0
  0
ARC
  5
3E3
330
1F
100
AcDbEntity
  8
化粧台
  6
EXLTYPE2
 62
     6
100
AcDbCircle
 10
2465.735005551
 20
1369.54293504801
 30
0.0
 40
3.4570649519
100
AcDbArc
 50
24.92771808767544
 51
90.00000000000004
  0
ARC
  5
3E4
330
1F
100
AcDbEntity
  8
化粧台
  6
EXLTYPE2
 62
     6
100
AcDbCircle
 10
2474.3
 20
1364.62880514401
 30
0.0
 40
8.37119485569
100
AcDbArc
 50
49.5599850853871
 51
130.4400149146048
  0
ARC
  5
3E5
330
1F
100
AcDbEntity
  8
化粧台
  6
EXLTYPE2
 62
     6
100
AcDbCircle
 10
2485.999999999999
 20
1362.17174019201
 30
0.0
 40
10.82825980759
100
AcDbArc
 50
54.61684947401582
 51
125.3831505260017
  0
ARC
  5
3E6
330
1F
100
AcDbEntity
  8
化粧台
  6
EXLTYPE2
 62
     6
100
AcDbCircle
 10
2497.699999999999
 20
1364.62880514401
 30
0.0
 40
8.37119485569
100
AcDbArc
 50
49.55998508538246
 51
130.4400149146007
  0
ARC
  5
3E7
330
1F
100
AcDbEntity
  8
化粧台
  6
EXLTYPE2
 62
     6
100
AcDbCircle
 10
2506.264994449001
 20
1369.54293504801
 30
0.0
 40
3.4570649519
100
AcDbArc
 50
90.00000000000004
 51
155.0722819122934
  0
LINE
  5
3E8
330
1F
100
AcDbEntity
  8
化粧台
  6
EXLTYPE2
 62
     6
100
AcDbLine
 10
2466.750000000002
 20
1353.642857142873
 30
0.0
 11
2465.392857142865
 21
1355.00000000001
 31
0.0
  0
LINE
  5
3E9
330
1F
100
AcDbEntity
  8
化粧台
  6
EXLTYPE2
 62
     6
100
AcDbLine
 10
2466.5
 20
1355.00000000001
 30
0.0
 11
2466.5
 21
1353.89285714288
 31
0.0
  0
LINE
  5
3EA
330
1F
100
AcDbEntity
  8
化粧台
  6
EXLTYPE2
 62
     6
100
AcDbLine
 10
2505.5
 20
1355.00000000001
 30
0.0
 11
2505.5
 21
1353.89285714288
 31
0.0
  0
LINE
  5
3EB
330
1F
100
AcDbEntity
  8
化粧台
  6
EXLTYPE2
 62
     6
100
AcDbLine
 10
2505.249999999997
 20
1353.642857142873
 30
0.0
 11
2506.607142857134
 21
1355.00000000001
 31
0.0
  0
ARC
  5
3EC
330
1F
100
AcDbEntity
  8
化粧台
  6
EXLTYPE2
 62
     6
100
AcDbCircle
 10
2460.499999999997
 20
1335.10714013386
 30
0.0
 40
41.35
100
AcDbArc
 50
295.0378223093015
 51
343.9038620463016
  0
LINE
  5
3ED
330
1F
100
AcDbEntity
  8
化粧台
  6
EXLTYPE2
 62
     6
100
AcDbLine
 10
2446.849999999999
 20
1328.64285714286
 30
0.0
 11
2471.5
 21
1328.64285714286
 31
0.0
  0
POLYLINE
  5
3EE
330
1F
100
AcDbEntity
  8
化粧台
  6
EXLTYPE2
 62
     6
100
AcDb2dPolyline
 66
     1
 10
0.0
 20
0.0
 30
0.0
 70
   128
  0
VERTEX
  5
3EF
330
3EE
100
AcDbEntity
  8
化粧台
  6
EXLTYPE2
 62
     6
100
AcDbVertex
100
AcDb2dVertex
 10
2442.999999999997
 20
1297.64285714286
 30
0.0
  0
VERTEX
  5
3F0
330
3EE
100
AcDbEntity
  8
化粧台
  6
EXLTYPE2
 62
     6
100
AcDbVertex
100
AcDb2dVertex
 10
2443.073699151287
 20
1297.707256886749
 30
0.0
  0
VERTEX
  5
3F1
330
3EE
100
AcDbEntity
  8
化粧台
  6
EXLTYPE2
 62
     6
100
AcDbVertex
100
AcDb2dVertex
 10
2443.28316818431
 20
1297.891555724992
 30
0.0
  0
VERTEX
  5
3F2
330
3EE
100
AcDbEntity
  8
化粧台
  6
EXLTYPE2
 62
     6
100
AcDbVertex
100
AcDb2dVertex
 10
2443.610964467799
 20
1298.182403067455
 30
0.0
  0
VERTEX
  5
3F3
330
3EE
100
AcDbEntity
  8
化粧台
  6
EXLTYPE2
 62
     6
100
AcDbVertex
100
AcDb2dVertex
 10
2444.039645370481
 20
1298.566448324002
 30
0.0
  0
VERTEX
  5
3F4
330
3EE
100
AcDbEntity
  8
化粧台
  6
EXLTYPE2
 62
     6
100
AcDbVertex
100
AcDb2dVertex
 10
2444.551768261086
 20
1299.030340904499
 30
0.0
  0
VERTEX
  5
3F5
330
3EE
100
AcDbEntity
  8
化粧台
  6
EXLTYPE2
 62
     6
100
AcDbVertex
100
AcDb2dVertex
 10
2445.129890508346
 20
1299.56073021881
 30
0.0
  0
VERTEX
  5
3F6
330
3EE
100
AcDbEntity
  8
化粧台
  6
EXLTYPE2
 62
     6
100
AcDbVertex
100
AcDb2dVertex
 10
2445.756569480989
 20
1300.144265676801
 30
0.0
  0
VERTEX
  5
3F7
330
3EE
100
AcDbEntity
  8
化粧台
  6
EXLTYPE2
 62
     6
100
AcDbVertex
100
AcDb2dVertex
 10
2446.414362547746
 20
1300.767596688336
 30
0.0
  0
VERTEX
  5
3F8
330
3EE
100
AcDbEntity
  8
化粧台
  6
EXLTYPE2
 62
     6
100
AcDbVertex
100
AcDb2dVertex
 10
2447.085827077347
 20
1301.417372663281
 30
0.0
  0
VERTEX
  5
3F9
330
3EE
100
AcDbEntity
  8
化粧台
  6
EXLTYPE2
 62
     6
100
AcDbVertex
100
AcDb2dVertex
 10
2447.753520438521
 20
1302.0802430115
 30
0.0
  0
VERTEX
  5
3FA
330
3EE
100
AcDbEntity
  8
化粧台
  6
EXLTYPE2
 62
     6
100
AcDbVertex
100
AcDb2dVertex
 10
2448.4
 20
1302.74285714286
 30
0.0
  0
VERTEX
  5
3FB
330
3EE
100
AcDbEntity
  8
化粧台
  6
EXLTYPE2
 62
     6
100
AcDbVertex
100
AcDb2dVertex
 10
2449.152126260497
 20
1303.54952863422
 30
0.0
  0
VERTEX
  5
3FC
330
3EE
100
AcDbEntity
  8
化粧台
  6
EXLTYPE2
 62
     6
100
AcDbVertex
100
AcDb2dVertex
 10
2449.842868787462
 20
1304.336465231092
 30
0.0
  0
VERTEX
  5
3FD
330
3EE
100
AcDbEntity
  8
化粧台
  6
EXLTYPE2
 62
     6
100
AcDbVertex
100
AcDb2dVertex
 10
2450.470425862585
 20
1305.104904512682
 30
0.0
  0
VERTEX
  5
3FE
330
3EE
100
AcDbEntity
  8
化粧台
  6
EXLTYPE2
 62
     6
100
AcDbVertex
100
AcDb2dVertex
 10
2451.032995767554
 20
1305.856084058194
 30
0.0
  0
VERTEX
  5
3FF
330
3EE
100
AcDbEntity
  8
化粧台
  6
EXLTYPE2
 62
     6
100
AcDbVertex
100
AcDb2dVertex
 10
2451.528776784061
 20
1306.591241446834
 30
0.0
  0
VERTEX
  5
400
330
3EE
100
AcDbEntity
  8
化粧台
  6
EXLTYPE2
 62
     6
100
AcDbVertex
100
AcDb2dVertex
 10
2451.955967193794
 20
1307.311614257808
 30
0.0
  0
VERTEX
  5
401
330
3EE
100
AcDbEntity
  8
化粧台
  6
EXLTYPE2
 62
     6
100
AcDbVertex
100
AcDb2dVertex
 10
2452.312765278443
 20
1308.018440070319
 30
0.0
  0
VERTEX
  5
402
330
3EE
100
AcDbEntity
  8
化粧台
  6
EXLTYPE2
 62
     6
100
AcDbVertex
100
AcDb2dVertex
 10
2452.597369319698
 20
1308.712956463575
 30
0.0
  0
VERTEX
  5
403
330
3EE
100
AcDbEntity
  8
化粧台
  6
EXLTYPE2
 62
     6
100
AcDbVertex
100
AcDb2dVertex
 10
2452.807977599248
 20
1309.396401016781
 30
0.0
  0
VERTEX
  5
404
330
3EE
100
AcDbEntity
  8
化粧台
  6
EXLTYPE2
 62
     6
100
AcDbVertex
100
AcDb2dVertex
 10
2452.942788398784
 20
1310.070011309141
 30
0.0
  0
VERTEX
  5
405
330
3EE
100
AcDbEntity
  8
化粧台
  6
EXLTYPE2
 62
     6
100
AcDbVertex
100
AcDb2dVertex
 10
2452.999999999996
 20
1310.73502491986
 30
0.0
  0
VERTEX
  5
406
330
3EE
100
AcDbEntity
  8
化粧台
  6
EXLTYPE2
 62
     6
100
AcDbVertex
100
AcDb2dVertex
 10
2452.959370176562
 20
1311.584693854212
 30
0.0
  0
VERTEX
  5
407
330
3EE
100
AcDbEntity
  8
化粧台
  6
EXLTYPE2
 62
     6
100
AcDbVertex
100
AcDb2dVertex
 10
2452.801870645369
 20
1312.433160915775
 30
0.0
  0
VERTEX
  5
408
330
3EE
100
AcDbEntity
  8
化粧台
  6
EXLTYPE2
 62
     6
100
AcDbVertex
100
AcDb2dVertex
 10
2452.543106024506
 20
1313.291502328482
 30
0.0
  0
VERTEX
  5
409
330
3EE
100
AcDbEntity
  8
化粧台
  6
EXLTYPE2
 62
     6
100
AcDbVertex
100
AcDb2dVertex
 10
2452.19868093206
 20
1314.170794316262
 30
0.0
  0
VERTEX
  5
40A
330
3EE
100
AcDbEntity
  8
化粧台
  6
EXLTYPE2
 62
     6
100
AcDbVertex
100
AcDb2dVertex
 10
2451.784199986118
 20
1315.082113103043
 30
0.0
  0
VERTEX
  5
40B
330
3EE
100
AcDbEntity
  8
化粧台
  6
EXLTYPE2
 62
     6
100
AcDbVertex
100
AcDb2dVertex
 10
2451.31526780477
 20
1316.036534912757
 30
0.0
  0
VERTEX
  5
40C
330
3EE
100
AcDbEntity
  8
化粧台
  6
EXLTYPE2
 62
     6
100
AcDbVertex
100
AcDb2dVertex
 10
2450.807489006103
 20
1317.045135969334
 30
0.0
  0
VERTEX
  5
40D
330
3EE
100
AcDbEntity
  8
化粧台
  6
EXLTYPE2
 62
     6
100
AcDbVertex
100
AcDb2dVertex
 10
2450.276468208204
 20
1318.118992496702
 30
0.0
  0
VERTEX
  5
40E
330
3EE
100
AcDbEntity
  8
化粧台
  6
EXLTYPE2
 62
     6
100
AcDbVertex
100
AcDb2dVertex
 10
2449.737810029163
 20
1319.269180718793
 30
0.0
  0
VERTEX
  5
40F
330
3EE
100
AcDbEntity
  8
化粧台
  6
EXLTYPE2
 62
     6
100
AcDbVertex
100
AcDb2dVertex
 10
2449.207119087064
 20
1320.506776859536
 30
0.0
  0
VERTEX
  5
410
330
3EE
100
AcDbEntity
  8
化粧台
  6
EXLTYPE2
 62
     6
100
AcDbVertex
100
AcDb2dVertex
 10
2448.699999999999
 20
1321.842857142861
 30
0.0
  0
VERTEX
  5
411
330
3EE
100
AcDbEntity
  8
化粧台
  6
EXLTYPE2
 62
     6
100
AcDbVertex
100
AcDb2dVertex
 10
2448.417254979357
 20
1322.680413485817
 30
0.0
  0
VERTEX
  5
412
330
3EE
100
AcDbEntity
  8
化粧台
  6
EXLTYPE2
 62
     6
100
AcDbVertex
100
AcDb2dVertex
 10
2448.150523314492
 20
1323.535764534153
 30
0.0
  0
VERTEX
  5
413
330
3EE
100
AcDbEntity
  8
化粧台
  6
EXLTYPE2
 62
     6
100
AcDbVertex
100
AcDb2dVertex
 10
2447.902104766977
 20
1324.38835375109
 30
0.0
  0
VERTEX
  5
414
330
3EE
100
AcDbEntity
  8
化粧台
  6
EXLTYPE2
 62
     6
100
AcDbVertex
100
AcDb2dVertex
 10
2447.674299098383
 20
1325.217624599849
 30
0.0
  0
VERTEX
  5
415
330
3EE
100
AcDbEntity
  8
化粧台
  6
EXLTYPE2
 62
     6
100
AcDbVertex
100
AcDb2dVertex
 10
2447.46940607028
 20
1326.003020543654
 30
0.0
  0
VERTEX
  5
416
330
3EE
100
AcDbEntity
  8
化粧台
  6
EXLTYPE2
 62
     6
100
AcDbVertex
100
AcDb2dVertex
 10
2447.289725444242
 20
1326.723985045725
 30
0.0
  0
VERTEX
  5
417
330
3EE
100
AcDbEntity
  8
化粧台
  6
EXLTYPE2
 62
     6
100
AcDbVertex
100
AcDb2dVertex
 10
2447.137556981838
 20
1327.359961569286
 30
0.0
  0
VERTEX
  5
418
330
3EE
100
AcDbEntity
  8
化粧台
  6
EXLTYPE2
 62
     6
100
AcDbVertex
100
AcDb2dVertex
 10
2447.01520044464
 20
1327.890393577558
 30
0.0
  0
VERTEX
  5
419
330
3EE
100
AcDbEntity
  8
化粧台
  6
EXLTYPE2
 62
     6
100
AcDbVertex
100
AcDb2dVertex
 10
2446.924955594221
 20
1328.294724533763
 30
0.0
  0
VERTEX
  5
41A
330
3EE
100
AcDbEntity
  8
化粧台
  6
EXLTYPE2
 62
     6
100
AcDbVertex
100
AcDb2dVertex
 10
2446.86912219215
 20
1328.552397901123
 30
0.0
  0
VERTEX
  5
41B
330
3EE
100
AcDbEntity
  8
化粧台
  6
EXLTYPE2
 62
     6
100
AcDbVertex
100
AcDb2dVertex
 10
2446.849999999999
 20
1328.64285714286
 30
0.0
  0
SEQEND
  5
41C
330
3EE
100
AcDbEntity
  8
化粧台
  6
EXLTYPE2
 62
     6
  0
POLYLINE
  5
41D
330
1F
100
AcDbEntity
  8
化粧台
  6
EXLTYPE2
 62
     6
100
AcDb2dPolyline
 66
     1
 10
0.0
 20
0.0
 30
0.0
 70
   128
  0
VERTEX
  5
41E
330
41D
100
AcDbEntity
  8
化粧台
  6
EXLTYPE2
 62
     6
100
AcDbVertex
100
AcDb2dVertex
 10
2477.999999999997
 20
1297.64285714286
 30
0.0
  0
VERTEX
  5
41F
330
41D
100
AcDbEntity
  8
化粧台
  6
EXLTYPE2
 62
     6
100
AcDbVertex
100
AcDb2dVertex
 10
2477.927877136918
 20
1297.740677721567
 30
0.0
  0
VERTEX
  5
420
330
41D
100
AcDbEntity
  8
化粧台
  6
EXLTYPE2
 62
     6
100
AcDbVertex
100
AcDb2dVertex
 10
2477.722175874733
 20
1298.017490565046
 30
0.0
  0
VERTEX
  5
421
330
41D
100
AcDbEntity
  8
化粧台
  6
EXLTYPE2
 62
     6
100
AcDbVertex
100
AcDb2dVertex
 10
2477.398897204015
 20
1298.44832233434
 30
0.0
  0
VERTEX
  5
422
330
41D
100
AcDbEntity
  8
化粧台
  6
EXLTYPE2
 62
     6
100
AcDbVertex
100
AcDb2dVertex
 10
2476.974042115337
 20
1299.008199690489
 30
0.0
  0
VERTEX
  5
423
330
41D
100
AcDbEntity
  8
化粧台
  6
EXLTYPE2
 62
     6
100
AcDbVertex
100
AcDb2dVertex
 10
2476.463611599276
 20
1299.672149294532
 30
0.0
  0
VERTEX
  5
424
330
41D
100
AcDbEntity
  8
化粧台
  6
EXLTYPE2
 62
     6
100
AcDbVertex
100
AcDb2dVertex
 10
2475.883606646405
 20
1300.415197807512
 30
0.0
  0
VERTEX
  5
425
330
41D
100
AcDbEntity
  8
化粧台
  6
EXLTYPE2
 62
     6
100
AcDbVertex
100
AcDb2dVertex
 10
2475.250028247298
 20
1301.212371890467
 30
0.0
  0
VERTEX
  5
426
330
41D
100
AcDbEntity
  8
化粧台
  6
EXLTYPE2
 62
     6
100
AcDbVertex
100
AcDb2dVertex
 10
2474.57887739253
 20
1302.038698204438
 30
0.0
  0
VERTEX
  5
427
330
41D
100
AcDbEntity
  8
化粧台
  6
EXLTYPE2
 62
     6
100
AcDbVertex
100
AcDb2dVertex
 10
2473.886155072675
 20
1302.869203410467
 30
0.0
  0
VERTEX
  5
428
330
41D
100
AcDbEntity
  8
化粧台
  6
EXLTYPE2
 62
     6
100
AcDbVertex
100
AcDb2dVertex
 10
2473.187862278307
 20
1303.678914169594
 30
0.0
  0
VERTEX
  5
429
330
41D
100
AcDbEntity
  8
化粧台
  6
EXLTYPE2
 62
     6
100
AcDbVertex
100
AcDb2dVertex
 10
2472.500000000001
 20
1304.44285714286
 30
0.0
  0
VERTEX
  5
42A
330
41D
100
AcDbEntity
  8
化粧台
  6
EXLTYPE2
 62
     6
100
AcDbVertex
100
AcDb2dVertex
 10
2471.911884995711
 20
1305.065176740268
 30
0.0
  0
VERTEX
  5
42B
330
41D
100
AcDbEntity
  8
化粧台
  6
EXLTYPE2
 62
     6
100
AcDbVertex
100
AcDb2dVertex
 10
2471.34823006377
 20
1305.643473280823
 30
0.0
  0
VERTEX
  5
42C
330
41D
100
AcDbEntity
  8
化粧台
  6
EXLTYPE2
 62
     6
100
AcDbVertex
100
AcDb2dVertex
 10
2470.812816786409
 20
1306.189067493812
 30
0.0
  0
VERTEX
  5
42D
330
41D
100
AcDbEntity
  8
化粧台
  6
EXLTYPE2
 62
     6
100
AcDbVertex
100
AcDb2dVertex
 10
2470.309426745858
 20
1306.713280108522
 30
0.0
  0
VERTEX
  5
42E
330
41D
100
AcDbEntity
  8
化粧台
  6
EXLTYPE2
 62
     6
100
AcDbVertex
100
AcDb2dVertex
 10
2469.841841524347
 20
1307.227431854241
 30
0.0
  0
VERTEX
  5
42F
330
41D
100
AcDbEntity
  8
化粧台
  6
EXLTYPE2
 62
     6
100
AcDbVertex
100
AcDb2dVertex
 10
2469.413842704106
 20
1307.742843460258
 30
0.0
  0
VERTEX
  5
430
330
41D
100
AcDbEntity
  8
化粧台
  6
EXLTYPE2
 62
     6
100
AcDbVertex
100
AcDb2dVertex
 10
2469.029211867364
 20
1308.270835655858
 30
0.0
  0
VERTEX
  5
431
330
41D
100
AcDbEntity
  8
化粧台
  6
EXLTYPE2
 62
     6
100
AcDbVertex
100
AcDb2dVertex
 10
2468.691730596352
 20
1308.822729170331
 30
0.0
  0
VERTEX
  5
432
330
41D
100
AcDbEntity
  8
化粧台
  6
EXLTYPE2
 62
     6
100
AcDbVertex
100
AcDb2dVertex
 10
2468.4051804733
 20
1309.409844732964
 30
0.0
  0
VERTEX
  5
433
330
41D
100
AcDbEntity
  8
化粧台
  6
EXLTYPE2
 62
     6
100
AcDbVertex
100
AcDb2dVertex
 10
2468.173343080438
 20
1310.043503073045
 30
0.0
  0
VERTEX
  5
434
330
41D
100
AcDbEntity
  8
化粧台
  6
EXLTYPE2
 62
     6
100
AcDbVertex
100
AcDb2dVertex
 10
2467.999999999997
 20
1310.73502491986
 30
0.0
  0
VERTEX
  5
435
330
41D
100
AcDbEntity
  8
化粧台
  6
EXLTYPE2
 62
     6
100
AcDbVertex
100
AcDb2dVertex
 10
2467.843046075469
 20
1312.04403799473
 30
0.0
  0
VERTEX
  5
436
330
41D
100
AcDbEntity
  8
化粧台
  6
EXLTYPE2
 62
     6
100
AcDbVertex
100
AcDb2dVertex
 10
2467.834693319949
 20
1313.493550371343
 30
0.0
  0
VERTEX
  5
437
330
41D
100
AcDbEntity
  8
化粧台
  6
EXLTYPE2
 62
     6
100
AcDbVertex
100
AcDb2dVertex
 10
2467.94678069631
 20
1315.027690696995
 30
0.0
  0
VERTEX
  5
438
330
41D
100
AcDbEntity
  8
化粧台
  6
EXLTYPE2
 62
     6
100
AcDbVertex
100
AcDb2dVertex
 10
2468.151147167428
 20
1316.590587618979
 30
0.0
  0
VERTEX
  5
439
330
41D
100
AcDbEntity
  8
化粧台
  6
EXLTYPE2
 62
     6
100
AcDbVertex
100
AcDb2dVertex
 10
2468.419631696179
 20
1318.126369784589
 30
0.0
  0
VERTEX
  5
43A
330
41D
100
AcDbEntity
  8
化粧台
  6
EXLTYPE2
 62
     6
100
AcDbVertex
100
AcDb2dVertex
 10
2468.724073245439
 20
1319.579165841119
 30
0.0
  0
VERTEX
  5
43B
330
41D
100
AcDbEntity
  8
化粧台
  6
EXLTYPE2
 62
     6
100
AcDbVertex
100
AcDb2dVertex
 10
2469.036310778082
 20
1320.893104435863
 30
0.0
  0
VERTEX
  5
43C
330
41D
100
AcDbEntity
  8
化粧台
  6
EXLTYPE2
 62
     6
100
AcDbVertex
100
AcDb2dVertex
 10
2469.328183256984
 20
1322.012314216115
 30
0.0
  0
VERTEX
  5
43D
330
41D
100
AcDbEntity
  8
化粧台
  6
EXLTYPE2
 62
     6
100
AcDbVertex
100
AcDb2dVertex
 10
2469.571529645021
 20
1322.880923829169
 30
0.0
  0
VERTEX
  5
43E
330
41D
100
AcDbEntity
  8
化粧台
  6
EXLTYPE2
 62
     6
100
AcDbVertex
100
AcDb2dVertex
 10
2469.738188905068
 20
1323.44306192232
 30
0.0
  0
VERTEX
  5
43F
330
41D
100
AcDbEntity
  8
化粧台
  6
EXLTYPE2
 62
     6
100
AcDbVertex
100
AcDb2dVertex
 10
2469.8
 20
1323.64285714286
 30
0.0
  0
SEQEND
  5
440
330
41D
100
AcDbEntity
  8
化粧台
  6
EXLTYPE2
 62
     6
  0
LINE
  5
441
330
1F
100
AcDbEntity
  8
化粧台
  6
EXLTYPE2
 62
     6
100
AcDbLine
 10
2442.999999999997
 20
1296.64285714286
 30
0.0
 11
2477.999999999997
 21
1296.64285714286
 31
0.0
  0
LINE
  5
442
330
1F
100
AcDbEntity
  8
化粧台
  6
EXLTYPE2
 62
     6
100
AcDbLine
 10
2442.999999999982
 20
1296.642857142877
 30
0.0
 11
2441.5
 21
1295.142857142894
 31
0.0
  0
LINE
  5
443
330
1F
100
AcDbEntity
  8
化粧台
  6
EXLTYPE2
 62
     6
100
AcDbLine
 10
2478.000000000015
 20
1296.642857142877
 30
0.0
 11
2479.499999999999
 21
1295.142857142894
 31
0.0
  0
LINE
  5
444
330
1F
100
AcDbEntity
  8
化粧台
  6
EXLTYPE2
 62
     6
100
AcDbLine
 10
2441.5
 20
1295.14285714289
 30
0.0
 11
2479.499999999999
 21
1295.14285714289
 31
0.0
  0
LINE
  5
445
330
1F
100
AcDbEntity
  8
化粧台
  6
EXLTYPE2
 62
     6
100
AcDbLine
 10
2442.999999999997
 20
1297.64285714286
 30
0.0
 11
2443.000000000002
 21
1296.64285714286
 31
0.0
  0
LINE
  5
446
330
1F
100
AcDbEntity
  8
化粧台
  6
EXLTYPE2
 62
     6
100
AcDbLine
 10
2477.999999999997
 20
1297.64285714286
 30
0.0
 11
2477.999999999997
 21
1296.64285714289
 31
0.0
  0
LINE
  5
447
330
1F
100
AcDbEntity
  8
化粧台
  6
EXLTYPE2
 62
     6
100
AcDbLine
 10
2437.5
 20
1293.64285714286
 30
0.0
 11
2483.499999999999
 21
1293.64285714286
 31
0.0
  0
LINE
  5
448
330
1F
100
AcDbEntity
  8
化粧台
  6
EXLTYPE2
 62
     6
100
AcDbLine
 10
2439.0
 20
1277.14285714286
 30
0.0
 11
2481.999999999999
 21
1277.14285714286
 31
0.0
  0
LINE
  5
449
330
1F
100
AcDbEntity
  8
化粧台
  6
EXLTYPE2
 62
     6
100
AcDbLine
 10
2483.499999999999
 20
1278.64285714286
 30
0.0
 11
2483.499999999999
 21
1293.64285714286
 31
0.0
  0
LINE
  5
44A
330
1F
100
AcDbEntity
  8
化粧台
  6
EXLTYPE2
 62
     6
100
AcDbLine
 10
2437.5
 20
1278.64285714286
 30
0.0
 11
2437.5
 21
1293.64285714286
 31
0.0
  0
ARC
  5
44B
330
1F
100
AcDbEntity
  8
化粧台
  6
EXLTYPE2
 62
     6
100
AcDbCircle
 10
2439.0
 20
1278.64285714286
 30
0.0
 40
1.5
100
AcDbArc
 50
180.0
 51
270.0000000000002
  0
ARC
  5
44C
330
1F
100
AcDbEntity
  8
化粧台
  6
EXLTYPE2
 62
     6
100
AcDbCircle
 10
2481.999999999999
 20
1278.64285714286
 30
0.0
 40
1.5
100
AcDbArc
 50
270.0000000000002
 51
0.0
  0
LINE
  5
44D
330
1F
100
AcDbEntity
  8
化粧台
  6
EXLTYPE2
 62
     6
100
AcDbLine
 10
2439.646341462998
 20
1277.14285714286
 30
0.0
 11
2439.646341462998
 21
1293.64285714286
 31
0.0
  0
LINE
  5
44E
330
1F
100
AcDbEntity
  8
化粧台
  6
EXLTYPE2
 62
     6
100
AcDbLine
 10
2481.353658536999
 20
1277.14285714286
 30
0.0
 11
2481.353658536999
 21
1293.64285714286
 31
0.0
  0
LINE
  5
44F
330
1F
100
AcDbEntity
  8
化粧台
  6
EXLTYPE2
 62
     6
100
AcDbLine
 10
2452.216461245999
 20
1278.64285714286
 30
0.0
 11
2452.216461245999
 21
1293.64285714286
 31
0.0
  0
LINE
  5
450
330
1F
100
AcDbEntity
  8
化粧台
  6
EXLTYPE2
 62
     6
100
AcDbLine
 10
2468.783538754
 20
1278.64285714286
 30
0.0
 11
2468.783538754
 21
1293.64285714286
 31
0.0
  0
LINE
  5
451
330
1F
100
AcDbEntity
  8
化粧台
  6
EXLTYPE2
 62
     6
100
AcDbLine
 10
2447.75
 20
1293.64285714286
 30
0.0
 11
2447.75
 21
1278.64285714286
 31
0.0
  0
LINE
  5
452
330
1F
100
AcDbEntity
  8
化粧台
  6
EXLTYPE2
 62
     6
100
AcDbLine
 10
2473.249999999999
 20
1293.64285714286
 30
0.0
 11
2473.249999999999
 21
1278.64285714286
 31
0.0
  0
ARC
  5
453
330
1F
100
AcDbEntity
  8
化粧台
  6
EXLTYPE2
 62
     6
100
AcDbCircle
 10
2449.249999999997
 20
1278.64285714286
 30
0.0
 40
1.5
100
AcDbArc
 50
180.0
 51
270.0000000000002
  0
ARC
  5
454
330
1F
100
AcDbEntity
  8
化粧台
  6
EXLTYPE2
 62
     6
100
AcDbCircle
 10
2450.716461245997
 20
1278.64285714286
 30
0.0
 40
1.5
100
AcDbArc
 50
270.0000000000002
 51
0.0
  0
ARC
  5
455
330
1F
100
AcDbEntity
  8
化粧台
  6
EXLTYPE2
 62
     6
100
AcDbCircle
 10
2470.283538753997
 20
1278.64285714286
 30
0.0
 40
1.5
100
AcDbArc
 50
180.0
 51
270.0000000000002
  0
ARC
  5
456
330
1F
100
AcDbEntity
  8
化粧台
  6
EXLTYPE2
 62
     6
100
AcDbCircle
 10
2471.749999999997
 20
1278.64285714286
 30
0.0
 40
1.5
100
AcDbArc
 50
270.0000000000002
 51
0.0
  0
LINE
  5
457
330
1F
100
AcDbEntity
  8
化粧台
  6
EXLTYPE2
 62
     6
100
AcDbLine
 10
2441.5
 20
1293.64285714286
 30
0.0
 11
2441.5
 21
1295.14285714289
 31
0.0
  0
LINE
  5
458
330
1F
100
AcDbEntity
  8
化粧台
  6
EXLTYPE2
 62
     6
100
AcDbLine
 10
2479.499999999999
 20
1293.64285714286
 30
0.0
 11
2479.499999999999
 21
1295.14285714289
 31
0.0
  0
LINE
  5
459
330
1F
100
AcDbEntity
  8
化粧台
  6
EXLTYPE2
 62
     6
100
AcDbLine
 10
2443.000000000002
 20
1296.64285714286
 30
0.0
 11
2443.0
 21
1293.64285714286
 31
0.0
  0
LINE
  5
45A
330
1F
100
AcDbEntity
  8
化粧台
  6
EXLTYPE2
 62
     6
100
AcDbLine
 10
2477.999999999997
 20
1296.64285714289
 30
0.0
 11
2477.999999999997
 21
1293.64285714286
 31
0.0
  0
ARC
  5
45B
330
1F
100
AcDbEntity
  8
化粧台
  6
EXLTYPE2
 62
     6
100
AcDbCircle
 10
2460.499999999997
 20
1335.10714013386
 30
0.0
 40
41.35
100
AcDbArc
 50
180.0
 51
244.9621776907013
  0
LINE
  5
45C
330
1F
100
AcDbEntity
  8
化粧台
  6
EXLTYPE2
 62
     6
100
AcDbLine
 10
2450.849999999999
 20
1363.99285714286
 30
0.0
 11
2450.849999999999
 21
1328.64285714286
 31
0.0
  0
LINE
  5
45D
330
1F
100
AcDbEntity
  8
化粧台
  6
EXLTYPE2
 62
     6
100
AcDbLine
 10
2419.149999999998
 20
1363.99285714286
 30
0.0
 11
2419.149999999998
 21
1335.10714013386
 31
0.0
  0
LINE
  5
45E
330
1F
100
AcDbEntity
  8
化粧台
  6
EXLTYPE2
 62
     6
100
AcDbLine
 10
2416.5
 20
1366.64285714286
 30
0.0
 11
2453.499999999999
 21
1366.64285714286
 31
0.0
  0
LINE
  5
45F
330
1F
100
AcDbEntity
  8
化粧台
  6
EXLTYPE2
 62
     6
100
AcDbLine
 10
2453.499999999999
 20
1366.64285714286
 30
0.0
 11
2450.849999999999
 21
1363.99285714286
 31
0.0
  0
LINE
  5
460
330
1F
100
AcDbEntity
  8
化粧台
  6
EXLTYPE2
 62
     6
100
AcDbLine
 10
2416.5
 20
1366.64285714286
 30
0.0
 11
2419.149999999998
 21
1363.99285714286
 31
0.0
  0
LINE
  5
461
330
1F
100
AcDbEntity
  8
化粧台
  6
EXLTYPE2
 62
     6
100
AcDbLine
 10
2419.149999999998
 20
1363.99285714286
 30
0.0
 11
2450.849999999999
 21
1363.99285714286
 31
0.0
  0
LINE
  5
462
330
1F
100
AcDbEntity
  8
化粧台
  6
EXLTYPE2
 62
     6
100
AcDbLine
 10
2453.499999999999
 20
1395.0
 30
0.0
 11
2453.499999999999
 21
1366.64285714286
 31
0.0
  0
LINE
  5
463
330
1F
100
AcDbEntity
  8
化粧台
  6
EXLTYPE2
 62
     6
100
AcDbLine
 10
2416.5
 20
1399.89285714286
 30
0.0
 11
2416.5
 21
1366.64285714286
 31
0.0
  0
LINE
  5
464
330
1F
100
AcDbEntity
  8
化粧台
  6
EXLTYPE2
 62
     6
100
AcDbLine
 10
2418.999999999999
 20
1421.0
 30
0.0
 11
2418.999999999999
 21
1452.0
 31
0.0
  0
LINE
  5
465
330
1F
100
AcDbEntity
  8
化粧台
  6
EXLTYPE2
 62
     6
100
AcDbLine
 10
2416.499999999997
 20
1399.892857142859
 30
0.0
 11
2415.749999999999
 21
1400.642857142858
 31
0.0
  0
LINE
  5
466
330
1F
100
AcDbEntity
  8
化粧台
  6
EXLTYPE2
 62
     6
100
AcDbLine
 10
2415.749999999999
 20
1401.64285714287
 30
0.0
 11
2415.749999999999
 21
1400.64285714286
 31
0.0
  0
LINE
  5
467
330
1F
100
AcDbEntity
  8
化粧台
  6
EXLTYPE2
 62
     6
100
AcDbLine
 10
2415.75
 20
1401.642857142863
 30
0.0
 11
2414.392857142881
 21
1402.999999999982
 31
0.0
  0
LINE
  5
468
330
1F
100
AcDbEntity
  8
化粧台
  6
EXLTYPE2
 62
     6
100
AcDbLine
 10
2415.499999999997
 20
1403.0
 30
0.0
 11
2415.499999999997
 21
1401.89285714287
 31
0.0
  0
LINE
  5
469
330
1F
100
AcDbEntity
  8
化粧台
  6
EXLTYPE2
 62
     6
100
AcDbLine
 10
2411.599999999999
 20
1403.0
 30
0.0
 11
2422.600000000001
 21
1403.0
 31
0.0
  0
LINE
  5
46A
330
1F
100
AcDbEntity
  8
化粧台
  6
EXLTYPE2
 62
     6
100
AcDbLine
 10
2422.990115628422
 20
1401.64285714287
 30
0.0
 11
2415.749999999999
 21
1401.64285714287
 31
0.0
  0
LINE
  5
46B
330
1F
100
AcDbEntity
  8
化粧台
  6
EXLTYPE2
 62
     6
100
AcDbLine
 10
2415.749999999999
 20
1400.64285714286
 30
0.0
 11
2423.690323166639
 21
1400.64285714286
 31
0.0
  0
LINE
  5
46C
330
1F
100
AcDbEntity
  8
化粧台
  6
EXLTYPE2
 62
     6
100
AcDbLine
 10
2416.5
 20
1399.892857142859
 30
0.0
 11
2424.215478820297
 21
1399.892857142859
 31
0.0
  0
LINE
  5
46D
330
1F
100
AcDbEntity
  8
化粧台
  6
EXLTYPE2
 62
     6
100
AcDbLine
 10
2411.599999999999
 20
1419.0
 30
0.0
 11
2411.599999999999
 21
1403.0
 31
0.0
  0
ARC
  5
46E
330
1F
100
AcDbEntity
  8
化粧台
  6
EXLTYPE2
 62
     6
100
AcDbCircle
 10
2413.599999999999
 20
1419.0
 30
0.0
 40
2.0
100
AcDbArc
 50
90.00000000000004
 51
180.0
  0
ARC
  5
46F
330
1F
100
AcDbEntity
  8
化粧台
  6
EXLTYPE2
 62
     6
100
AcDbCircle
 10
2414.735005551
 20
1417.542935048
 30
0.0
 40
3.4570649519
100
AcDbArc
 50
24.92771808767458
 51
90.00000000000004
  0
LINE
  5
470
330
1F
100
AcDbEntity
  8
化粧台
  6
EXLTYPE2
 62
     6
100
AcDbLine
 10
2417.870011102998
 20
1419.0
 30
0.0
 11
2417.870011102998
 21
1412.25
 31
0.0
  0
ARC
  5
471
330
1F
100
AcDbEntity
  8
化粧台
  6
EXLTYPE2
 62
     6
100
AcDbCircle
 10
2423.3
 20
1412.628805144
 30
0.0
 40
8.37119485569
100
AcDbArc
 50
59.44172736168336
 51
130.4400149146048
  0
LINE
  5
472
330
1F
100
AcDbEntity
  8
化粧台
  6
EXLTYPE2
 62
     6
100
AcDbLine
 10
2438.449489742783
 20
1421.0
 30
0.0
 11
2413.600000000001
 21
1421.0
 31
0.0
  0
ARC
  5
473
330
1F
100
AcDbEntity
  8
化粧台
  6
EXLTYPE2
 62
     6
100
AcDbCircle
 10
2435.0
 20
1410.171740192
 30
0.0
 40
10.82825980759
100
AcDbArc
 50
74.20882919106018
 51
92.56099158295004
  0
ARC
  5
474
330
1F
100
AcDbEntity
  8
化粧台
  6
EXLTYPE2
 62
     6
100
AcDbCircle
 10
2515.999999999999
 20
1386.64285714287
 30
0.0
 40
46.00000000000004
100
AcDbArc
 50
171.6743059513909
 51
180.0
  0
LINE
  5
475
330
1F
100
AcDbEntity
  8
化粧台
  6
EXLTYPE4
 62
     6
100
AcDbLine
 10
2465.500000000002
 20
1187.5
 30
0.0
 11
2465.500000000002
 21
979.5
 31
0.0
  0
LINE
  5
476
330
1F
100
AcDbEntity
  8
化粧台
  6
EXLTYPE4
 62
     6
100
AcDbLine
 10
2444.500000000002
 20
1187.5
 30
0.0
 11
2444.500000000002
 21
979.5
 31
0.0
  0
LINE
  5
477
330
1F
100
AcDbEntity
  8
化粧台
  6
CONTINUOUS
 62
     6
100
AcDbLine
 10
2444.500000000002
 20
979.5
 30
0.0
 11
2465.500000000002
 21
979.5
 31
0.0
  0
LINE
  5
478
330
1F
100
AcDbEntity
  8
化粧台
  6
EXLTYPE3
 62
     6
100
AcDbLine
 10
2455.000000000002
 20
1197.5
 30
0.0
 11
2455.000000000002
 21
969.5
 31
0.0
  0
LINE
  5
479
330
1F
100
AcDbEntity
  8
化粧台
  6
CONTINUOUS
 62
     2
100
AcDbLine
 10
2419.15
 20
923.0
 30
0.0
 11
2419.15
 21
987.5
 31
0.0
  0
LINE
  5
47A
330
1F
100
AcDbEntity
  8
化粧台
  6
CONTINUOUS
 62
     2
100
AcDbLine
 10
2450.849999999999
 20
923.0
 30
0.0
 11
2419.15
 21
923.0
 31
0.0
  0
LINE
  5
47B
330
1F
100
AcDbEntity
  8
化粧台
  6
CONTINUOUS
 62
     2
100
AcDbLine
 10
2450.849999999999
 20
987.5
 30
0.0
 11
2450.849999999999
 21
923.0
 31
0.0
  0
LINE
  5
47C
330
1F
100
AcDbEntity
  8
化粧台
  6
EXLTYPE3
 62
     6
100
AcDbLine
 10
2435.0
 20
908.0
 30
0.0
 11
2435.0
 21
1165.0
 31
0.0
  0
LINE
  5
47D
330
1F
100
AcDbEntity
  8
化粧台
  6
EXLTYPE2
 62
     6
100
AcDbLine
 10
2412.200000000001
 20
1049.700000000001
 30
0.0
 11
2457.800000000002
 21
1049.700000000001
 31
0.0
  0
LINE
  5
47E
330
1F
100
AcDbEntity
  8
化粧台
  6
EXLTYPE2
 62
     6
100
AcDbLine
 10
2412.200000000001
 20
1067.500000000001
 30
0.0
 11
2457.800000000002
 21
1067.500000000001
 31
0.0
  0
LINE
  5
47F
330
1F
100
AcDbEntity
  8
化粧台
  6
EXLTYPE2
 62
     6
100
AcDbLine
 10
2457.800000000002
 20
1067.500000000001
 30
0.0
 11
2457.800000000002
 21
1049.700000000001
 31
0.0
  0
LINE
  5
480
330
1F
100
AcDbEntity
  8
化粧台
  6
EXLTYPE2
 62
     6
100
AcDbLine
 10
2412.200000000001
 20
1067.500000000001
 30
0.0
 11
2412.200000000001
 21
1049.700000000001
 31
0.0
  0
LINE
  5
481
330
1F
100
AcDbEntity
  8
化粧台
  6
EXLTYPE2
 62
     6
100
AcDbLine
 10
2401.500000000002
 20
1009.500000000001
 30
0.0
 11
2468.500000000004
 21
1009.500000000001
 31
0.0
  0
LINE
  5
482
330
1F
100
AcDbEntity
  8
化粧台
  6
EXLTYPE2
 62
     6
100
AcDbLine
 10
2414.300000000003
 20
1049.700000000001
 30
0.0
 11
2414.300000000003
 21
1047.500000000001
 31
0.0
  0
LINE
  5
483
330
1F
100
AcDbEntity
  8
化粧台
  6
EXLTYPE2
 62
     6
100
AcDbLine
 10
2455.700000000003
 20
1049.700000000001
 30
0.0
 11
2455.700000000003
 21
1047.500000000001
 31
0.0
  0
LINE
  5
484
330
1F
100
AcDbEntity
  8
化粧台
  6
EXLTYPE2
 62
     6
100
AcDbLine
 10
2468.500000000004
 20
1029.500000000001
 30
0.0
 11
2468.500000000004
 21
1009.500000000001
 31
0.0
  0
ARC
  5
485
330
1F
100
AcDbEntity
  8
化粧台
  6
EXLTYPE2
 62
     6
100
AcDbCircle
 10
2465.500000000004
 20
1029.500000000001
 30
0.0
 40
3.000000000000003
100
AcDbArc
 50
0.0
 51
90.00000000000004
  0
LINE
  5
486
330
1F
100
AcDbEntity
  8
化粧台
  6
EXLTYPE2
 62
     6
100
AcDbLine
 10
2462.000000000004
 20
1044.500000000001
 30
0.0
 11
2462.000000000004
 21
1032.500000000001
 31
0.0
  0
ARC
  5
487
330
1F
100
AcDbEntity
  8
化粧台
  6
EXLTYPE2
 62
     6
100
AcDbCircle
 10
2459.000000000004
 20
1044.500000000001
 30
0.0
 40
3.000000000000003
100
AcDbArc
 50
0.0
 51
90.00000000000004
  0
LINE
  5
488
330
1F
100
AcDbEntity
  8
化粧台
  6
EXLTYPE2
 62
     6
100
AcDbLine
 10
2408.000000000004
 20
1044.500000000001
 30
0.0
 11
2408.000000000004
 21
1032.500000000001
 31
0.0
  0
LINE
  5
489
330
1F
100
AcDbEntity
  8
化粧台
  6
EXLTYPE2
 62
     6
100
AcDbLine
 10
2411.000000000004
 20
1047.500000000001
 30
0.0
 11
2459.000000000004
 21
1047.500000000001
 31
0.0
  0
ARC
  5
48A
330
1F
100
AcDbEntity
  8
化粧台
  6
EXLTYPE2
 62
     6
100
AcDbCircle
 10
2411.000000000004
 20
1044.500000000001
 30
0.0
 40
3.000000000000003
100
AcDbArc
 50
90.00000000000004
 51
180.0
  0
LINE
  5
48B
330
1F
100
AcDbEntity
  8
化粧台
  6
EXLTYPE2
 62
     6
100
AcDbLine
 10
2401.500000000002
 20
1029.500000000001
 30
0.0
 11
2401.500000000002
 21
1009.500000000001
 31
0.0
  0
LINE
  5
48C
330
1F
100
AcDbEntity
  8
化粧台
  6
EXLTYPE2
 62
     6
100
AcDbLine
 10
2404.500000000002
 20
1032.500000000001
 30
0.0
 11
2465.500000000004
 21
1032.500000000001
 31
0.0
  0
ARC
  5
48D
330
1F
100
AcDbEntity
  8
化粧台
  6
EXLTYPE2
 62
     6
100
AcDbCircle
 10
2404.500000000002
 20
1029.500000000001
 30
0.0
 40
3.000000000000003
100
AcDbArc
 50
90.00000000000004
 51
180.0
  0
LINE
  5
48E
330
1F
100
AcDbEntity
  8
化粧台
  6
EXLTYPE2
 62
     6
100
AcDbLine
 10
2424.399287694302
 20
1065.500000000001
 30
0.0
 11
2424.399287694302
 21
1049.700000000001
 31
0.0
  0
LINE
  5
48F
330
1F
100
AcDbEntity
  8
化粧台
  6
EXLTYPE2
 62
     6
100
AcDbLine
 10
2427.191671113502
 20
1065.500000000001
 30
0.0
 11
2427.191671113502
 21
1049.700000000001
 31
0.0
  0
LINE
  5
490
330
1F
100
AcDbEntity
  8
化粧台
  6
EXLTYPE2
 62
     6
100
AcDbLine
 10
2442.808328886502
 20
1065.500000000001
 30
0.0
 11
2442.808328886502
 21
1049.700000000001
 31
0.0
  0
LINE
  5
491
330
1F
100
AcDbEntity
  8
化粧台
  6
EXLTYPE2
 62
     6
100
AcDbLine
 10
2445.600712305701
 20
1065.500000000001
 30
0.0
 11
2445.600712305701
 21
1049.700000000001
 31
0.0
  0
LINE
  5
492
330
1F
100
AcDbEntity
  8
化粧台
  6
EXLTYPE2
 62
     6
100
AcDbLine
 10
2413.356643083602
 20
1065.5
 30
0.0
 11
2413.356643083602
 21
1049.700000000001
 31
0.0
  0
LINE
  5
493
330
1F
100
AcDbEntity
  8
化粧台
  6
EXLTYPE2
 62
     6
100
AcDbLine
 10
2456.643356916401
 20
1065.500000000001
 30
0.0
 11
2456.643356916401
 21
1049.700000000001
 31
0.0
  0
LINE
  5
494
330
1F
100
AcDbEntity
  8
化粧台
  6
EXLTYPE2
 62
     6
100
AcDbLine
 10
2419.15
 20
987.5
 30
0.0
 11
2419.15
 21
1267.5
 31
0.0
  0
LINE
  5
495
330
1F
100
AcDbEntity
  8
化粧台
  6
EXLTYPE2
 62
     6
100
AcDbLine
 10
2450.849999999999
 20
1267.5
 30
0.0
 11
2450.849999999999
 21
987.5
 31
0.0
  0
LINE
  5
496
330
1F
100
AcDbEntity
  8
化粧台
  6
CONTINUOUS
 62
     6
100
AcDbLine
 10
729.5000000000002
 20
979.5
 30
0.0
 11
750.5000000000002
 21
979.5
 31
0.0
  0
LINE
  5
497
330
1F
100
AcDbEntity
  8
化粧台
  6
EXLTYPE3
 62
     6
100
AcDbLine
 10
740.0000000000002
 20
1197.5
 30
0.0
 11
740.0000000000002
 21
969.5
 31
0.0
  0
LINE
  5
498
330
1F
100
AcDbEntity
  8
化粧台
  6
EXLTYPE4
 62
     6
100
AcDbLine
 10
750.5000000000002
 20
1187.5
 30
0.0
 11
750.5000000000002
 21
979.5
 31
0.0
  0
LINE
  5
499
330
1F
100
AcDbEntity
  8
化粧台
  6
EXLTYPE4
 62
     6
100
AcDbLine
 10
729.5000000000002
 20
1187.5
 30
0.0
 11
729.5000000000002
 21
979.5
 31
0.0
  0
LINE
  5
49A
330
1F
100
AcDbEntity
  8
化粧台
  6
CONTINUOUS
 62
     6
100
AcDbLine
 10
1080.499999999997
 20
979.5
 30
0.0
 11
1059.499999999997
 21
979.5
 31
0.0
  0
LINE
  5
49B
330
1F
100
AcDbEntity
  8
化粧台
  6
EXLTYPE3
 62
     6
100
AcDbLine
 10
1069.999999999997
 20
1197.5
 30
0.0
 11
1069.999999999997
 21
969.5
 31
0.0
  0
LINE
  5
49C
330
1F
100
AcDbEntity
  8
化粧台
  6
EXLTYPE4
 62
     6
100
AcDbLine
 10
1059.499999999997
 20
1187.5
 30
0.0
 11
1059.499999999997
 21
979.5
 31
0.0
  0
LINE
  5
49D
330
1F
100
AcDbEntity
  8
化粧台
  6
EXLTYPE4
 62
     6
100
AcDbLine
 10
1080.499999999997
 20
1187.5
 30
0.0
 11
1080.499999999997
 21
979.5
 31
0.0
  0
LINE
  5
49E
330
1F
100
AcDbEntity
  8
化粧台
  6
EXLTYPE2
 62
     6
100
AcDbLine
 10
1129.149999999996
 20
1374.828125
 30
0.0
 11
1129.149999999994
 21
987.5
 31
0.0
  0
LINE
  5
49F
330
1F
100
AcDbEntity
  8
化粧台
  6
EXLTYPE2
 62
     6
100
AcDbLine
 10
1160.849999999997
 20
987.5
 30
0.0
 11
1160.849999999997
 21
1374.828125
 31
0.0
  0
LINE
  5
4A0
330
1F
100
AcDbEntity
  8
化粧台
  6
EXLTYPE2
 62
     6
100
AcDbLine
 10
1122.199999999999
 20
1049.700000000001
 30
0.0
 11
1167.799999999999
 21
1049.700000000001
 31
0.0
  0
LINE
  5
4A1
330
1F
100
AcDbEntity
  8
化粧台
  6
EXLTYPE2
 62
     6
100
AcDbLine
 10
1122.199999999999
 20
1067.500000000001
 30
0.0
 11
1167.799999999999
 21
1067.500000000001
 31
0.0
  0
LINE
  5
4A2
330
1F
100
AcDbEntity
  8
化粧台
  6
EXLTYPE2
 62
     6
100
AcDbLine
 10
1167.799999999999
 20
1067.500000000001
 30
0.0
 11
1167.799999999999
 21
1049.700000000001
 31
0.0
  0
LINE
  5
4A3
330
1F
100
AcDbEntity
  8
化粧台
  6
EXLTYPE2
 62
     6
100
AcDbLine
 10
1122.199999999999
 20
1067.500000000001
 30
0.0
 11
1122.199999999999
 21
1049.700000000001
 31
0.0
  0
LINE
  5
4A4
330
1F
100
AcDbEntity
  8
化粧台
  6
EXLTYPE2
 62
     6
100
AcDbLine
 10
1111.5
 20
1009.500000000001
 30
0.0
 11
1178.500000000002
 21
1009.500000000001
 31
0.0
  0
LINE
  5
4A5
330
1F
100
AcDbEntity
  8
化粧台
  6
EXLTYPE2
 62
     6
100
AcDbLine
 10
1124.300000000001
 20
1049.700000000001
 30
0.0
 11
1124.300000000001
 21
1047.500000000001
 31
0.0
  0
LINE
  5
4A6
330
1F
100
AcDbEntity
  8
化粧台
  6
EXLTYPE2
 62
     6
100
AcDbLine
 10
1165.700000000001
 20
1049.700000000001
 30
0.0
 11
1165.700000000001
 21
1047.500000000001
 31
0.0
  0
LINE
  5
4A7
330
1F
100
AcDbEntity
  8
化粧台
  6
EXLTYPE2
 62
     6
100
AcDbLine
 10
1178.500000000002
 20
1029.500000000001
 30
0.0
 11
1178.500000000002
 21
1009.500000000001
 31
0.0
  0
ARC
  5
4A8
330
1F
100
AcDbEntity
  8
化粧台
  6
EXLTYPE2
 62
     6
100
AcDbCircle
 10
1175.500000000002
 20
1029.500000000001
 30
0.0
 40
3.000000000000003
100
AcDbArc
 50
0.0
 51
90.00000000000004
  0
LINE
  5
4A9
330
1F
100
AcDbEntity
  8
化粧台
  6
EXLTYPE2
 62
     6
100
AcDbLine
 10
1172.0
 20
1044.500000000001
 30
0.0
 11
1172.0
 21
1032.500000000001
 31
0.0
  0
ARC
  5
4AA
330
1F
100
AcDbEntity
  8
化粧台
  6
EXLTYPE2
 62
     6
100
AcDbCircle
 10
1169.000000000002
 20
1044.500000000001
 30
0.0
 40
3.000000000000003
100
AcDbArc
 50
0.0
 51
90.00000000000004
  0
LINE
  5
4AB
330
1F
100
AcDbEntity
  8
化粧台
  6
EXLTYPE2
 62
     6
100
AcDbLine
 10
1118.000000000002
 20
1044.500000000001
 30
0.0
 11
1118.000000000002
 21
1032.500000000001
 31
0.0
  0
LINE
  5
4AC
330
1F
100
AcDbEntity
  8
化粧台
  6
EXLTYPE2
 62
     6
100
AcDbLine
 10
1121.000000000002
 20
1047.500000000001
 30
0.0
 11
1169.000000000002
 21
1047.500000000001
 31
0.0
  0
ARC
  5
4AD
330
1F
100
AcDbEntity
  8
化粧台
  6
EXLTYPE2
 62
     6
100
AcDbCircle
 10
1121.000000000002
 20
1044.500000000001
 30
0.0
 40
3.000000000000003
100
AcDbArc
 50
90.00000000000004
 51
180.0
  0
LINE
  5
4AE
330
1F
100
AcDbEntity
  8
化粧台
  6
EXLTYPE2
 62
     6
100
AcDbLine
 10
1111.5
 20
1029.500000000001
 30
0.0
 11
1111.5
 21
1009.500000000001
 31
0.0
  0
LINE
  5
4AF
330
1F
100
AcDbEntity
  8
化粧台
  6
EXLTYPE2
 62
     6
100
AcDbLine
 10
1114.5
 20
1032.500000000001
 30
0.0
 11
1175.500000000002
 21
1032.500000000001
 31
0.0
  0
ARC
  5
4B0
330
1F
100
AcDbEntity
  8
化粧台
  6
EXLTYPE2
 62
     6
100
AcDbCircle
 10
1114.5
 20
1029.500000000001
 30
0.0
 40
3.000000000000003
100
AcDbArc
 50
90.00000000000004
 51
180.0
  0
LINE
  5
4B1
330
1F
100
AcDbEntity
  8
化粧台
  6
EXLTYPE2
 62
     6
100
AcDbLine
 10
1134.3992876943
 20
1065.500000000001
 30
0.0
 11
1134.3992876943
 21
1049.700000000001
 31
0.0
  0
LINE
  5
4B2
330
1F
100
AcDbEntity
  8
化粧台
  6
EXLTYPE2
 62
     6
100
AcDbLine
 10
1137.191671113498
 20
1065.500000000001
 30
0.0
 11
1137.191671113498
 21
1049.700000000001
 31
0.0
  0
LINE
  5
4B3
330
1F
100
AcDbEntity
  8
化粧台
  6
EXLTYPE2
 62
     6
100
AcDbLine
 10
1152.8083288865
 20
1065.500000000001
 30
0.0
 11
1152.8083288865
 21
1049.700000000001
 31
0.0
  0
LINE
  5
4B4
330
1F
100
AcDbEntity
  8
化粧台
  6
EXLTYPE2
 62
     6
100
AcDbLine
 10
1155.600712305699
 20
1065.500000000001
 30
0.0
 11
1155.600712305699
 21
1049.700000000001
 31
0.0
  0
LINE
  5
4B5
330
1F
100
AcDbEntity
  8
化粧台
  6
EXLTYPE2
 62
     6
100
AcDbLine
 10
1123.3566430836
 20
1065.5
 30
0.0
 11
1123.3566430836
 21
1049.700000000001
 31
0.0
  0
LINE
  5
4B6
330
1F
100
AcDbEntity
  8
化粧台
  6
EXLTYPE2
 62
     6
100
AcDbLine
 10
1166.643356916398
 20
1065.500000000001
 30
0.0
 11
1166.643356916398
 21
1049.700000000001
 31
0.0
  0
LINE
  5
4B7
330
1F
100
AcDbEntity
  8
化粧台
  6
CONTINUOUS
 62
     2
100
AcDbLine
 10
1129.149999999996
 20
923.0
 30
0.0
 11
1160.849999999997
 21
923.0
 31
0.0
  0
LINE
  5
4B8
330
1F
100
AcDbEntity
  8
化粧台
  6
CONTINUOUS
 62
     2
100
AcDbLine
 10
1160.849999999997
 20
923.0
 30
0.0
 11
1160.849999999997
 21
987.5
 31
0.0
  0
LINE
  5
4B9
330
1F
100
AcDbEntity
  8
化粧台
  6
CONTINUOUS
 62
     2
100
AcDbLine
 10
1129.149999999994
 20
987.5
 30
0.0
 11
1129.149999999996
 21
923.0
 31
0.0
  0
LINE
  5
4BA
330
1F
100
AcDbEntity
  8
化粧台
  6
EXLTYPE3
 62
     6
100
AcDbLine
 10
1144.999999999998
 20
1165.0
 30
0.0
 11
1144.999999999998
 21
908.0
 31
0.0
  0
LINE
  5
4BB
330
1F
100
AcDbEntity
  8
化粧台
  6
CONTINUOUS
 62
     2
100
AcDbLine
 10
605.0000000000002
 20
2737.5
 30
0.0
 11
1205.0
 21
2737.5
 31
0.0
  0
LINE
  5
4BC
330
1F
100
AcDbEntity
  8
化粧台
  6
CONTINUOUS
 62
     2
100
AcDbLine
 10
605.0000000000002
 20
2737.5
 30
0.0
 11
605.0000000000002
 21
2137.5
 31
0.0
  0
LINE
  5
4BD
330
1F
100
AcDbEntity
  8
化粧台
  6
CONTINUOUS
 62
     2
100
AcDbLine
 10
605.0000000000002
 20
2137.5
 30
0.0
 11
1205.0
 21
2137.5
 31
0.0
  0
LINE
  5
4BE
330
1F
100
AcDbEntity
  8
化粧台
  6
CONTINUOUS
 62
     2
100
AcDbLine
 10
1205.0
 20
2737.5
 30
0.0
 11
1205.0
 21
2137.5
 31
0.0
  0
LINE
  5
4BF
330
1F
100
AcDbEntity
  8
化粧台
  6
CONTINUOUS
 62
     2
100
AcDbLine
 10
1164.999999999998
 20
2697.5
 30
0.0
 11
1164.999999999998
 21
2177.5
 31
0.0
  0
LINE
  5
4C0
330
1F
100
AcDbEntity
  8
化粧台
  6
CONTINUOUS
 62
     2
100
AcDbLine
 10
644.9999999999984
 20
2697.5
 30
0.0
 11
644.9999999999984
 21
2177.5
 31
0.0
  0
LINE
  5
4C1
330
1F
100
AcDbEntity
  8
化粧台
  6
CONTINUOUS
 62
     6
100
AcDbLine
 10
1163.999999999998
 20
2698.7
 30
0.0
 11
1163.999999999998
 21
2690.7
 31
0.0
  0
LINE
  5
4C2
330
1F
100
AcDbEntity
  8
化粧台
  6
CONTINUOUS
 62
     6
100
AcDbLine
 10
645.9999999999984
 20
2698.7
 30
0.0
 11
645.9999999999984
 21
2690.7
 31
0.0
  0
LINE
  5
4C3
330
1F
100
AcDbEntity
  8
化粧台
  6
CONTINUOUS
 62
     6
100
AcDbLine
 10
1163.999999999998
 20
2690.7
 30
0.0
 11
645.9999999999984
 21
2690.7
 31
0.0
  0
LINE
  5
4C4
330
1F
100
AcDbEntity
  8
化粧台
  6
EXLTYPE2
 62
     6
100
AcDbLine
 10
644.9999999999984
 20
2697.5
 30
0.0
 11
645.9999999999984
 21
2697.5
 31
0.0
  0
LINE
  5
4C5
330
1F
100
AcDbEntity
  8
化粧台
  6
CONTINUOUS
 62
     6
100
AcDbLine
 10
1163.999999999998
 20
2698.7
 30
0.0
 11
645.9999999999984
 21
2698.7
 31
0.0
  0
LINE
  5
4C6
330
1F
100
AcDbEntity
  8
化粧台
  6
EXLTYPE2
 62
     6
100
AcDbLine
 10
1165.000000000002
 20
2697.5
 30
0.0
 11
1164.000000000002
 21
2697.5
 31
0.0
  0
LINE
  5
4C7
330
1F
100
AcDbEntity
  8
化粧台
  6
CONTINUOUS
 62
     6
100
AcDbLine
 10
1163.999999999998
 20
2176.299999999999
 30
0.0
 11
1163.999999999998
 21
2184.3
 31
0.0
  0
LINE
  5
4C8
330
1F
100
AcDbEntity
  8
化粧台
  6
CONTINUOUS
 62
     6
100
AcDbLine
 10
645.9999999999984
 20
2176.299999999999
 30
0.0
 11
645.9999999999984
 21
2184.3
 31
0.0
  0
LINE
  5
4C9
330
1F
100
AcDbEntity
  8
化粧台
  6
CONTINUOUS
 62
     6
100
AcDbLine
 10
645.9999999999984
 20
2176.299999999999
 30
0.0
 11
1163.999999999998
 21
2176.299999999999
 31
0.0
  0
LINE
  5
4CA
330
1F
100
AcDbEntity
  8
化粧台
  6
CONTINUOUS
 62
     6
100
AcDbLine
 10
645.9999999999984
 20
2184.299999999999
 30
0.0
 11
1163.999999999998
 21
2184.299999999999
 31
0.0
  0
LINE
  5
4CB
330
1F
100
AcDbEntity
  8
化粧台
  6
EXLTYPE2
 62
     6
100
AcDbLine
 10
644.9999999999984
 20
2177.5
 30
0.0
 11
645.9999999999984
 21
2177.5
 31
0.0
  0
LINE
  5
4CC
330
1F
100
AcDbEntity
  8
化粧台
  6
CONTINUOUS
 62
     6
100
AcDbLine
 10
1165.0
 20
2177.5
 30
0.0
 11
1163.999999999998
 21
2177.5
 31
0.0
  0
LINE
  5
4CD
330
1F
100
AcDbEntity
  8
化粧台
  6
CONTINUOUS
 62
     6
100
AcDbLine
 10
781.2144660940669
 20
2428.285533905902
 30
0.0
 11
768.4644660940669
 21
2415.535533905905
 31
0.0
  0
LINE
  5
4CE
330
1F
100
AcDbEntity
  8
化粧台
  6
CONTINUOUS
 62
     6
100
AcDbLine
 10
760.4999999999984
 20
2400.499999999974
 30
0.0
 11
793.000000000002
 21
2432.999999999971
 31
0.0
  0
LINE
  5
4CF
330
1F
100
AcDbEntity
  8
化粧台
  6
CONTINUOUS
 62
     6
100
AcDbLine
 10
771.0355339059317
 20
2403.964466094037
 30
0.0
 11
786.0355339059336
 21
2418.964466094035
 31
0.0
  0
LINE
  5
4D0
330
1F
100
AcDbEntity
  8
化粧台
  6
CONTINUOUS
 62
     6
100
AcDbLine
 10
1008.214466094065
 20
2590.285533905902
 30
0.0
 11
995.4644660940669
 21
2577.535533905905
 31
0.0
  0
LINE
  5
4D1
330
1F
100
AcDbEntity
  8
化粧台
  6
CONTINUOUS
 62
     6
100
AcDbLine
 10
998.0355339059317
 20
2565.964466094037
 30
0.0
 11
1013.035533905932
 21
2580.964466094035
 31
0.0
  0
LINE
  5
4D2
330
1F
100
AcDbEntity
  8
化粧台
  6
CONTINUOUS
 62
     6
100
AcDbLine
 10
987.4999999999966
 20
2562.499999999974
 30
0.0
 11
1020.0
 21
2594.999999999971
 31
0.0
  0
LINE
  5
4D3
330
1F
100
AcDbEntity
  8
化粧台
  6
CONTINUOUS
 62
     6
100
AcDbLine
 10
999.2144660940687
 20
2273.285533905902
 30
0.0
 11
986.4644660940687
 21
2260.535533905905
 31
0.0
  0
LINE
  5
4D4
330
1F
100
AcDbEntity
  8
化粧台
  6
CONTINUOUS
 62
     6
100
AcDbLine
 10
978.5000000000002
 20
2245.499999999974
 30
0.0
 11
1011.000000000004
 21
2277.999999999971
 31
0.0
  0
LINE
  5
4D5
330
1F
100
AcDbEntity
  8
化粧台
  6
CONTINUOUS
 62
     6
100
AcDbLine
 10
989.0355339059336
 20
2248.964466094037
 30
0.0
 11
1004.035533905935
 21
2263.964466094036
 31
0.0
  0
LINE
  5
4D6
330
1F
100
AcDbEntity
  8
化粧台
  6
CONTINUOUS
 62
     6
100
AcDbLine
 10
755.0000000000002
 20
2655.9
 30
0.0
 11
755.0000000000002
 21
2627.55
 31
0.0
  0
LINE
  5
4D7
330
1F
100
AcDbEntity
  8
化粧台
  6
CONTINUOUS
 62
     6
100
AcDbLine
 10
741.6000000000006
 20
2642.5
 30
0.0
 11
769.950000000001
 21
2642.5
 31
0.0
  0
LINE
  5
4D8
330
1F
100
AcDbEntity
  8
化粧台
  6
CONTINUOUS
 62
     6
100
AcDbLine
 10
1055.0
 20
2655.9
 30
0.0
 11
1055.0
 21
2627.55
 31
0.0
  0
LINE
  5
4D9
330
1F
100
AcDbEntity
  8
化粧台
  6
CONTINUOUS
 62
     6
100
AcDbLine
 10
1068.400000000002
 20
2642.5
 30
0.0
 11
1040.050000000001
 21
2642.5
 31
0.0
  0
LINE
  5
4DA
330
1F
100
AcDbEntity
  8
化粧台
  6
CONTINUOUS
 62
     6
100
AcDbLine
 10
755.0000000000002
 20
2170.9
 30
0.0
 11
755.0000000000002
 21
2142.55
 31
0.0
  0
LINE
  5
4DB
330
1F
100
AcDbEntity
  8
化粧台
  6
CONTINUOUS
 62
     6
100
AcDbLine
 10
741.6000000000006
 20
2157.5
 30
0.0
 11
769.9499999999991
 21
2157.5
 31
0.0
  0
LINE
  5
4DC
330
1F
100
AcDbEntity
  8
化粧台
  6
CONTINUOUS
 62
     6
100
AcDbLine
 10
1055.0
 20
2170.9
 30
0.0
 11
1055.0
 21
2142.55
 31
0.0
  0
LINE
  5
4DD
330
1F
100
AcDbEntity
  8
化粧台
  6
CONTINUOUS
 62
     6
100
AcDbLine
 10
1068.400000000002
 20
2157.5
 30
0.0
 11
1040.050000000001
 21
2157.5
 31
0.0
  0
LINE
  5
4DE
330
1F
100
AcDbEntity
  8
化粧台
  6
CONTINUOUS
 62
     2
100
AcDbLine
 10
2502.999999999999
 20
2137.5
 30
0.0
 11
2519.999999999999
 21
2137.5
 31
0.0
  0
LINE
  5
4DF
330
1F
100
AcDbEntity
  8
化粧台
  6
CONTINUOUS
 62
     2
100
AcDbLine
 10
2519.999999999999
 20
2202.499999999998
 30
0.0
 11
2534.999999999999
 21
2202.499999999998
 31
0.0
  0
LINE
  5
4E0
330
1F
100
AcDbEntity
  8
化粧台
  6
CONTINUOUS
 62
     2
100
AcDbLine
 10
2519.999999999999
 20
2737.5
 30
0.0
 11
2519.999999999999
 21
2137.5
 31
0.0
  0
LINE
  5
4E1
330
1F
100
AcDbEntity
  8
化粧台
  6
CONTINUOUS
 62
     2
100
AcDbLine
 10
2502.999999999999
 20
2737.5
 30
0.0
 11
2502.999999999999
 21
2137.5
 31
0.0
  0
LINE
  5
4E2
330
1F
100
AcDbEntity
  8
化粧台
  6
CONTINUOUS
 62
     2
100
AcDbLine
 10
2498.8
 20
2697.5
 30
0.0
 11
2498.8
 21
2177.5
 31
0.0
  0
LINE
  5
4E3
330
1F
100
AcDbEntity
  8
化粧台
  6
CONTINUOUS
 62
     2
100
AcDbLine
 10
2493.8
 20
2697.5
 30
0.0
 11
2493.8
 21
2177.5
 31
0.0
  0
LINE
  5
4E4
330
1F
100
AcDbEntity
  8
化粧台
  6
CONTINUOUS
 62
     2
100
AcDbLine
 10
2534.999999999999
 20
2701.5192378864
 30
0.0
 11
2534.999999999999
 21
2651.519237886469
 31
0.0
  0
LINE
  5
4E5
330
1F
100
AcDbEntity
  8
化粧台
  6
CONTINUOUS
 62
     2
100
AcDbLine
 10
2535.00000000003
 20
2651.519237886417
 30
0.0
 11
2519.999999999999
 21
2677.500000000005
 31
0.0
  0
LINE
  5
4E6
330
1F
100
AcDbEntity
  8
化粧台
  6
CONTINUOUS
 62
     2
100
AcDbLine
 10
2519.999999999999
 20
2701.5192378864
 30
0.0
 11
2534.999999999999
 21
2701.5192378864
 31
0.0
  0
LINE
  5
4E7
330
1F
100
AcDbEntity
  8
化粧台
  6
CONTINUOUS
 62
     2
100
AcDbLine
 10
2502.999999999999
 20
2737.5
 30
0.0
 11
2519.999999999999
 21
2737.5
 31
0.0
  0
LINE
  5
4E8
330
1F
100
AcDbEntity
  8
化粧台
  6
CONTINUOUS
 62
     2
100
AcDbLine
 10
2520.0
 20
2677.500000000005
 30
0.0
 11
2520.0
 21
2627.499999999984
 31
0.0
  0
LINE
  5
4E9
330
1F
100
AcDbEntity
  8
化粧台
  6
CONTINUOUS
 62
     2
100
AcDbLine
 10
2535.0
 20
2701.519237886399
 30
0.0
 11
2535.0
 21
2627.499999999984
 31
0.0
  0
LINE
  5
4EA
330
1F
100
AcDbEntity
  8
化粧台
  6
CONTINUOUS
 62
     2
100
AcDbLine
 10
2520.0
 20
2627.499999999984
 30
0.0
 11
2535.0
 21
2627.499999999984
 31
0.0
  0
LINE
  5
4EB
330
1F
100
AcDbEntity
  8
化粧台
  6
CONTINUOUS
 62
     2
100
AcDbLine
 10
2535.00000000003
 20
2651.519237886417
 30
0.0
 11
2520.0
 21
2677.500000000005
 31
0.0
  0
LINE
  5
4EC
330
1F
100
AcDbEntity
  8
化粧台
  6
CONTINUOUS
 62
     2
100
AcDbLine
 10
2535.0
 20
2142.500000000001
 30
0.0
 11
2520.0
 21
2142.500000000001
 31
0.0
  0
LINE
  5
4ED
330
1F
100
AcDbEntity
  8
化粧台
  6
CONTINUOUS
 62
     2
100
AcDbLine
 10
2520.0
 20
2142.500000000001
 30
0.0
 11
2520.0
 21
2172.500000000001
 31
0.0
  0
LINE
  5
4EE
330
1F
100
AcDbEntity
  8
化粧台
  6
CONTINUOUS
 62
     6
100
AcDbLine
 10
2527.500000000011
 20
2139.999999999981
 30
0.0
 11
2529.232050807581
 21
2140.99999999998
 31
0.0
  0
LINE
  5
4EF
330
1F
100
AcDbEntity
  8
化粧台
  6
CONTINUOUS
 62
     6
100
AcDbLine
 10
2527.499999999988
 20
2139.999999999981
 30
0.0
 11
2525.76794919242
 21
2140.99999999998
 31
0.0
  0
LINE
  5
4F0
330
1F
100
AcDbEntity
  8
化粧台
  6
CONTINUOUS
 62
     6
100
AcDbLine
 10
2522.8
 20
2142.211555580961
 30
0.0
 11
2532.199999999999
 21
2142.211555580961
 31
0.0
  0
ARC
  5
4F1
330
1F
100
AcDbEntity
  8
化粧台
  6
CONTINUOUS
 62
     2
100
AcDbCircle
 10
2527.5
 20
2146.1
 30
0.0
 40
6.100000000000004
100
AcDbArc
 50
219.60192708105
 51
320.3980729189502
  0
LINE
  5
4F2
330
1F
100
AcDbEntity
  8
化粧台
  6
CONTINUOUS
 62
     2
100
AcDbLine
 10
2532.199999999999
 20
2142.5
 30
0.0
 11
2532.199999999999
 21
2142.211555580961
 31
0.0
  0
LINE
  5
4F3
330
1F
100
AcDbEntity
  8
化粧台
  6
CONTINUOUS
 62
     2
100
AcDbLine
 10
2522.8
 20
2142.5
 30
0.0
 11
2532.199999999999
 21
2142.5
 31
0.0
  0
LINE
  5
4F4
330
1F
100
AcDbEntity
  8
化粧台
  6
CONTINUOUS
 62
     2
100
AcDbLine
 10
2522.800000000002
 20
2142.5
 30
0.0
 11
2522.800000000002
 21
2142.211555580961
 31
0.0
  0
LINE
  5
4F5
330
1F
100
AcDbEntity
  8
化粧台
  6
CONTINUOUS
 62
     2
100
AcDbLine
 10
2519.999999999999
 20
2172.499999999998
 30
0.0
 11
2535.0
 21
2172.499999999998
 31
0.0
  0
LINE
  5
4F6
330
1F
100
AcDbEntity
  8
化粧台
  6
CONTINUOUS
 62
     2
100
AcDbLine
 10
2534.999999999999
 20
2202.499999999998
 30
0.0
 11
2534.999999999999
 21
2142.5
 31
0.0
  0
LINE
  5
4F7
330
1F
100
AcDbEntity
  8
化粧台
  6
CONTINUOUS
 62
     2
100
AcDbLine
 10
2535.0
 20
2172.500000000001
 30
0.0
 11
2520.0
 21
2172.500000000001
 31
0.0
  0
LINE
  5
4F8
330
1F
100
AcDbEntity
  8
化粧台
  6
CONTINUOUS
 62
     6
100
AcDbLine
 10
2492.599999999999
 20
2176.3
 30
0.0
 11
2502.999999999999
 21
2176.3
 31
0.0
  0
LINE
  5
4F9
330
1F
100
AcDbEntity
  8
化粧台
  6
CONTINUOUS
 62
     6
100
AcDbLine
 10
2492.599999999999
 20
2176.3
 30
0.0
 11
2492.599999999999
 21
2184.3
 31
0.0
  0
LINE
  5
4FA
330
1F
100
AcDbEntity
  8
化粧台
  6
CONTINUOUS
 62
     6
100
AcDbLine
 10
2501.799999999998
 20
2177.5
 30
0.0
 11
2493.799999999998
 21
2177.5
 31
0.0
  0
LINE
  5
4FB
330
1F
100
AcDbEntity
  8
化粧台
  6
CONTINUOUS
 62
     6
100
AcDbLine
 10
2501.799999999998
 20
2201.3
 30
0.0
 11
2501.799999999998
 21
2177.5
 31
0.0
  0
LINE
  5
4FC
330
1F
100
AcDbEntity
  8
化粧台
  6
CONTINUOUS
 62
     6
100
AcDbLine
 10
2492.599999999999
 20
2184.300000000001
 30
0.0
 11
2493.799999999998
 21
2184.300000000001
 31
0.0
  0
LINE
  5
4FD
330
1F
100
AcDbEntity
  8
化粧台
  6
CONTINUOUS
 62
     6
100
AcDbLine
 10
2501.799999999998
 20
2201.3
 30
0.0
 11
2502.999999999999
 21
2201.3
 31
0.0
  0
LINE
  5
4FE
330
1F
100
AcDbEntity
  8
化粧台
  6
CONTINUOUS
 62
     6
100
AcDbLine
 10
2501.799999999998
 20
2673.7
 30
0.0
 11
2502.999999999999
 21
2673.7
 31
0.0
  0
LINE
  5
4FF
330
1F
100
AcDbEntity
  8
化粧台
  6
CONTINUOUS
 62
     6
100
AcDbLine
 10
2492.599999999999
 20
2690.7
 30
0.0
 11
2493.799999999998
 21
2690.7
 31
0.0
  0
LINE
  5
500
330
1F
100
AcDbEntity
  8
化粧台
  6
CONTINUOUS
 62
     6
100
AcDbLine
 10
2501.799999999998
 20
2673.7
 30
0.0
 11
2501.799999999998
 21
2697.5
 31
0.0
  0
LINE
  5
501
330
1F
100
AcDbEntity
  8
化粧台
  6
CONTINUOUS
 62
     6
100
AcDbLine
 10
2501.799999999998
 20
2697.5
 30
0.0
 11
2493.799999999998
 21
2697.5
 31
0.0
  0
LINE
  5
502
330
1F
100
AcDbEntity
  8
化粧台
  6
CONTINUOUS
 62
     6
100
AcDbLine
 10
2492.599999999999
 20
2698.7
 30
0.0
 11
2492.599999999999
 21
2690.7
 31
0.0
  0
LINE
  5
503
330
1F
100
AcDbEntity
  8
化粧台
  6
CONTINUOUS
 62
     6
100
AcDbLine
 10
2492.599999999999
 20
2698.7
 30
0.0
 11
2502.999999999999
 21
2698.7
 31
0.0
  0
LINE
  5
504
330
1F
100
AcDbEntity
  8
化粧台
  6
CONTINUOUS
 62
     6
100
AcDbLine
 10
2535.000000000002
 20
2644.5
 30
0.0
 11
2567.500000000002
 21
2642.499999999999
 31
0.0
  0
LINE
  5
505
330
1F
100
AcDbEntity
  8
化粧台
  6
CONTINUOUS
 62
     6
100
AcDbLine
 10
2567.500000000002
 20
2642.499999999999
 30
0.0
 11
2535.000000000002
 21
2640.5
 31
0.0
  0
LINE
  5
506
330
1F
100
AcDbEntity
  8
化粧台
  6
CONTINUOUS
 62
     6
100
AcDbLine
 10
2525.0
 20
2642.5
 30
0.0
 11
2577.5
 21
2642.5
 31
0.0
  0
LINE
  5
507
330
1F
100
AcDbEntity
  8
化粧台
  6
CONTINUOUS
 62
     6
100
AcDbLine
 10
2535.000000000002
 20
2159.5
 30
0.0
 11
2567.500000000002
 21
2157.499999999999
 31
0.0
  0
LINE
  5
508
330
1F
100
AcDbEntity
  8
化粧台
  6
CONTINUOUS
 62
     6
100
AcDbLine
 10
2567.500000000002
 20
2157.499999999999
 30
0.0
 11
2535.000000000002
 21
2155.5
 31
0.0
  0
LINE
  5
509
330
1F
100
AcDbEntity
  8
化粧台
  6
CONTINUOUS
 62
     6
100
AcDbLine
 10
2525.0
 20
2157.5
 30
0.0
 11
2577.5
 21
2157.5
 31
0.0
  0
LINE
  5
50A
330
1F
100
AcDbEntity
  8
化粧台
  6
EXLTYPE3
 62
     6
100
AcDbLine
 10
905.0000000000003
 20
1992.0
 30
0.0
 11
905.0000000000002
 21
972.4999999999999
 31
0.0
  0
LINE
  5
50B
330
1F
100
AcDbEntity
  8
化粧台
  6
EXLTYPE3
 62
     6
100
AcDbLine
 10
905.0000000000002
 20
2772.0
 30
0.0
 11
905.0000000000003
 21
2106.0
 31
0.0
  0
DIMENSION
  5
50C
330
1F
100
AcDbEntity
  8
寸法
  6
CONTINUOUS
 62
     3
100
AcDbDimension
  2
*D18
 10
1179.999999999998
 20
3294.0
 30
0.0
 11
904.9999999999995
 21
3329.249999910593
 31
0.0
 70
   160
  3
ISO-25
100
AcDbAlignedDimension
 13
630.0000000000002
 23
3409.5
 33
0.0
 14
1179.999999999998
 24
3409.5
 34
0.0
100
AcDbRotatedDimension
1001
ACAD
1000
DSTYLE
1002
{
1070
   270
1070
     2
1070
     6
1000
EX_NORM
1070
     7
1000
EX_NORM
1070
    41
1040
44.99999618530273
1070
    42
1040
10.49999982118607
1070
    44
1040
15.0
1070
    73
1070
     0
1070
    74
1070
     0
1070
    75
1070
     0
1070
    76
1070
     0
1070
    77
1070
     1
1070
    78
1070
     8
1070
   140
1040
59.99999618530273
1070
   147
1040
0.0
1070
   173
1070
     1
1070
   176
1070
     3
1070
   177
1070
     3
1070
   178
1070
     2
1070
   271
1070
     2
1070
   277
1070
     2
1070
   279
1070
     2
1070
   280
1070
     0
1070
   287
1070
     5
1070
   340
1005
125
1002
}
  0
DIMENSION
  5
519
330
1F
100
AcDbEntity
  8
寸法
  6
CONTINUOUS
 62
     3
100
AcDbDimension
  2
*D19
 10
1279.999999999998
 20
3198.0
 30
0.0
 11
904.9999999999995
 21
3233.249999910593
 31
0.0
 70
   160
  3
ISO-25
100
AcDbAlignedDimension
 13
530.0000000000002
 23
3449.5
 33
0.0
 14
1279.999999999998
 24
3449.5
 34
0.0
100
AcDbRotatedDimension
1001
ACAD
1000
DSTYLE
1002
{
1070
   270
1070
     2
1070
     6
1000
EX_NORM
1070
     7
1000
EX_NORM
1070
    41
1040
44.99999618530273
1070
    42
1040
10.49999982118607
1070
    44
1040
15.0
1070
    73
1070
     0
1070
    74
1070
     0
1070
    75
1070
     0
1070
    76
1070
     0
1070
    77
1070
     1
1070
    78
1070
     8
1070
   140
1040
59.99999618530273
1070
   147
1040
0.0
1070
   173
1070
     1
1070
   176
1070
     3
1070
   177
1070
     3
1070
   178
1070
     2
1070
   271
1070
     2
1070
   277
1070
     2
1070
   279
1070
     2
1070
   280
1070
     0
1070
   287
1070
     5
1070
   340
1005
125
1002
}
  0
DIMENSION
  5
526
330
1F
100
AcDbEntity
  8
寸法
  6
CONTINUOUS
 62
     3
100
AcDbDimension
  2
*D20
 10
1385.999999999998
 20
3449.5
 30
0.0
 11
1350.750000089406
 21
3674.5
 31
0.0
 70
   160
  3
ISO-25
100
AcDbAlignedDimension
 13
1280.0
 23
3899.5
 33
0.0
 14
1280.0
 24
3449.5
 34
0.0
 50
90.0
100
AcDbRotatedDimension
1001
ACAD
1000
DSTYLE
1002
{
1070
   270
1070
     2
1070
     6
1000
EX_NORM
1070
     7
1000
EX_NORM
1070
    41
1040
44.99999618530273
1070
    42
1040
10.49999982118607
1070
    44
1040
15.0
1070
    73
1070
     0
1070
    74
1070
     0
1070
    75
1070
     1
1070
    76
1070
     0
1070
    77
1070
     1
1070
    78
1070
     8
1070
   140
1040
59.99999618530273
1070
   147
1040
0.0
1070
   173
1070
     1
1070
   176
1070
     3
1070
   177
1070
     3
1070
   178
1070
     2
1070
   271
1070
     2
1070
   277
1070
     2
1070
   279
1070
     2
1070
   280
1070
     0
1070
   287
1070
     5
1070
   340
1005
125
1002
}
  0
DIMENSION
  5
532
330
1F
100
AcDbEntity
  8
寸法
  6
CONTINUOUS
 62
     3
100
AcDbDimension
  2
*D21
 10
1471.499999999998
 20
3899.5
 30
0.0
 11
1436.250000089406
 21
3649.5
 31
0.0
 70
   160
  3
ISO-25
100
AcDbAlignedDimension
 13
1169.999999999998
 23
3399.5
 33
0.0
 14
1279.999999999998
 24
3899.5
 34
0.0
 50
90.0
100
AcDbRotatedDimension
1001
ACAD
1000
DSTYLE
1002
{
1070
   270
1070
     2
1070
     6
1000
EX_NORM
1070
     7
1000
EX_NORM
1070
    41
1040
44.99999618530273
1070
    42
1040
10.49999982118607
1070
    44
1040
15.0
1070
    73
1070
     0
1070
    74
1070
     0
1070
    75
1070
     0
1070
    76
1070
     1
1070
    77
1070
     1
1070
    78
1070
     8
1070
   140
1040
59.99999618530273
1070
   147
1040
0.0
1070
   173
1070
     1
1070
   176
1070
     3
1070
   177
1070
     3
1070
   178
1070
     2
1070
   271
1070
     2
1070
   277
1070
     2
1070
   279
1070
     2
1070
   280
1070
     0
1070
   287
1070
     5
1070
   340
1005
125
1002
}
  0
DIMENSION
  5
53E
330
1F
100
AcDbEntity
  8
寸法
  6
CONTINUOUS
 62
     3
100
AcDbDimension
  2
*D22
 10
1385.999999999998
 20
1686.5
 30
0.0
 11
1350.750000089405
 21
1337.0
 31
0.0
 70
   160
  3
ISO-25
100
AcDbAlignedDimension
 13
1277.999999999998
 23
987.5
 33
0.0
 14
1279.999999999998
 24
1686.5
 34
0.0
 50
90.0
100
AcDbRotatedDimension
1001
ACAD
1000
DSTYLE
1002
{
1070
   270
1070
     2
1070
     6
1000
EX_NORM
1070
     7
1000
EX_NORM
1070
    41
1040
44.99999618530273
1070
    42
1040
10.49999982118607
1070
    44
1040
15.0
1070
    73
1070
     0
1070
    74
1070
     0
1070
    75
1070
     1
1070
    76
1070
     0
1070
    77
1070
     1
1070
    78
1070
     8
1070
   140
1040
59.99999618530273
1070
   147
1040
0.0
1070
   173
1070
     1
1070
   176
1070
     3
1070
   177
1070
     3
1070
   178
1070
     2
1070
   271
1070
     2
1070
   277
1070
     2
1070
   279
1070
     2
1070
   280
1070
     0
1070
   287
1070
     5
1070
   340
1005
125
1002
}
  0
DIMENSION
  5
54A
330
1F
100
AcDbEntity
  8
寸法
  6
CONTINUOUS
 62
     3
100
AcDbDimension
  2
*D23
 10
1475.999999999998
 20
1826.5
 30
0.0
 11
1440.750000089405
 21
1407.0
 31
0.0
 70
   160
  3
ISO-25
100
AcDbAlignedDimension
 13
1277.999999999998
 23
987.5
 33
0.0
 14
1174.999999999998
 24
1826.5
 34
0.0
 50
90.0
100
AcDbRotatedDimension
1001
ACAD
1000
DSTYLE
1002
{
1070
   270
1070
     2
1070
     6
1000
EX_NORM
1070
     7
1000
EX_NORM
1070
    41
1040
44.99999618530273
1070
    42
1040
10.49999982118607
1070
    44
1040
15.0
1070
    73
1070
     0
1070
    74
1070
     0
1070
    75
1070
     1
1070
    76
1070
     0
1070
    77
1070
     1
1070
    78
1070
     8
1070
   140
1040
59.99999618530273
1070
   147
1040
0.0
1070
   173
1070
     1
1070
   176
1070
     3
1070
   177
1070
     3
1070
   178
1070
     2
1070
   271
1070
     2
1070
   277
1070
     2
1070
   279
1070
     2
1070
   280
1070
     0
1070
   287
1070
     5
1070
   340
1005
125
1002
}
  0
DIMENSION
  5
556
330
1F
100
AcDbEntity
  8
寸法
  6
CONTINUOUS
 62
     3
100
AcDbDimension
  2
*D24
 10
1565.999999999998
 20
2737.5
 30
0.0
 11
1530.750000089406
 21
1862.5
 31
0.0
 70
   160
  1
（1750）
  3
ISO-25
100
AcDbAlignedDimension
 13
1277.999999999998
 23
987.5
 33
0.0
 14
1204.999999999998
 24
2737.5
 34
0.0
 50
90.0
100
AcDbRotatedDimension
1001
ACAD
1000
DSTYLE
1002
{
1070
   270
1070
     2
1070
     6
1000
EX_NORM
1070
     7
1000
EX_NORM
1070
    41
1040
44.99999618530273
1070
    42
1040
10.49999982118607
1070
    44
1040
15.0
1070
    73
1070
     0
1070
    74
1070
     0
1070
    75
1070
     1
1070
    76
1070
     0
1070
    77
1070
     1
1070
    78
1070
     8
1070
   140
1040
59.99999618530273
1070
   147
1040
0.0
1070
   173
1070
     1
1070
   176
1070
     3
1070
   177
1070
     3
1070
   178
1070
     2
1070
   271
1070
     2
1070
   277
1070
     2
1070
   279
1070
     2
1070
   280
1070
     0
1070
   287
1070
     5
1070
   340
1005
125
1002
}
  0
LINE
  5
562
330
1F
100
AcDbEntity
  8
寸法
  6
CONTINUOUS
 62
     3
100
AcDbLine
 10
2545.499999821187
 20
987.4999999999998
 30
0.0
 11
2626.5
 21
987.4999999999978
 31
0.0
  0
LINE
  5
563
330
1F
100
AcDbEntity
  8
寸法
  6
CONTINUOUS
 62
     3
100
AcDbLine
 10
2553.499999821187
 20
1407.5
 30
0.0
 11
2626.5
 21
1407.500000000001
 31
0.0
  0
TEXT
  5
564
330
1F
100
AcDbEntity
  8
寸法
  6
CONTINUOUS
 62
     2
100
AcDbText
 10
2606.250000089407
 20
1034.0
 30
0.0
 40
59.99999618530273
  1
４２０
 50
90.0
 41
1.029411764705882
  7
EXCADSTD
 72
     5
 11
2606.250000089407
 21
1183.999990463256
 31
0.0
100
AcDbText
  0
TEXT
  5
565
330
1F
100
AcDbEntity
  8
寸法
  6
CONTINUOUS
 62
     2
100
AcDbText
 10
2606.250000089407
 20
1176.5
 30
0.0
 40
48.0
  1
（壁給水）
 50
90.0
 41
0.9655172413793105
  7
EXCADSTD
 72
     5
 11
2606.250000089407
 21
1368.5
 31
0.0
100
AcDbText
  0
LINE
  5
566
330
1F
100
AcDbEntity
  8
寸法
  6
CONTINUOUS
 62
     3
100
AcDbLine
 10
2611.5
 20
987.4999999999982
 30
0.0
 11
2611.5
 21
1407.500000000001
 31
0.0
  0
LINE
  5
567
330
1F
100
AcDbEntity
  8
寸法
  6
CONTINUOUS
 62
     3
100
AcDbLine
 10
2604.0
 20
1032.499999999998
 30
0.0
 11
2611.5
 21
987.4999999999982
 31
0.0
  0
LINE
  5
568
330
1F
100
AcDbEntity
  8
寸法
  6
CONTINUOUS
 62
     3
100
AcDbLine
 10
2611.5
 20
987.4999999999982
 30
0.0
 11
2619.0
 21
1032.499999999998
 31
0.0
  0
LINE
  5
569
330
1F
100
AcDbEntity
  8
寸法
  6
CONTINUOUS
 62
     3
100
AcDbLine
 10
2619.0
 20
1362.500000000001
 30
0.0
 11
2611.5
 21
1407.500000000001
 31
0.0
  0
LINE
  5
56A
330
1F
100
AcDbEntity
  8
寸法
  6
CONTINUOUS
 62
     3
100
AcDbLine
 10
2611.5
 20
1407.500000000001
 30
0.0
 11
2604.0
 21
1362.500000000001
 31
0.0
  0
LINE
  5
56B
330
1F
100
AcDbEntity
  8
寸法
  6
CONTINUOUS
 62
     3
100
AcDbLine
 10
2545.499999821187
 20
987.4999999999999
 30
0.0
 11
2806.5
 21
987.4999999999986
 31
0.0
  0
LINE
  5
56C
330
1F
100
AcDbEntity
  8
寸法
  6
CONTINUOUS
 62
     3
100
AcDbLine
 10
2577.999999821187
 20
1567.5
 30
0.0
 11
2806.5
 21
1567.5
 31
0.0
  0
TEXT
  5
56D
330
1F
100
AcDbEntity
  8
寸法
  6
CONTINUOUS
 62
     2
100
AcDbText
 10
2786.250000089407
 20
1113.999999999999
 30
0.0
 40
59.99999618530273
  1
５８０
 50
90.0
 41
1.029411764705882
  7
EXCADSTD
 72
     5
 11
2786.250000089407
 21
1263.999990463256
 31
0.0
100
AcDbText
  0
TEXT
  5
56E
330
1F
100
AcDbEntity
  8
寸法
  6
CONTINUOUS
 62
     2
100
AcDbText
 10
2786.250000089407
 20
1256.499999999999
 30
0.0
 40
48.0
  1
（壁固定）
 50
90.0
 41
0.9655172413793105
  7
EXCADSTD
 72
     5
 11
2786.250000089407
 21
1448.499999999999
 31
0.0
100
AcDbText
  0
LINE
  5
56F
330
1F
100
AcDbEntity
  8
寸法
  6
CONTINUOUS
 62
     3
100
AcDbLine
 10
2791.5
 20
987.4999999999986
 30
0.0
 11
2791.5
 21
1567.5
 31
0.0
  0
LINE
  5
570
330
1F
100
AcDbEntity
  8
寸法
  6
CONTINUOUS
 62
     3
100
AcDbLine
 10
2784.0
 20
1032.499999999999
 30
0.0
 11
2791.5
 21
987.4999999999986
 31
0.0
  0
LINE
  5
571
330
1F
100
AcDbEntity
  8
寸法
  6
CONTINUOUS
 62
     3
100
AcDbLine
 10
2791.5
 20
987.4999999999986
 30
0.0
 11
2799.0
 21
1032.499999999999
 31
0.0
  0
LINE
  5
572
330
1F
100
AcDbEntity
  8
寸法
  6
CONTINUOUS
 62
     3
100
AcDbLine
 10
2799.0
 20
1522.5
 30
0.0
 11
2791.5
 21
1567.5
 31
0.0
  0
LINE
  5
573
330
1F
100
AcDbEntity
  8
寸法
  6
CONTINUOUS
 62
     3
100
AcDbLine
 10
2791.5
 20
1567.5
 30
0.0
 11
2784.0
 21
1522.5
 31
0.0
  0
LINE
  5
574
330
1F
100
AcDbEntity
  8
寸法
  6
CONTINUOUS
 62
     3
100
AcDbLine
 10
830.0000000000002
 20
3917.999999821186
 30
0.0
 11
830.0000000000002
 21
3985.5
 31
0.0
  0
LINE
  5
575
330
1F
100
AcDbEntity
  8
寸法
  6
CONTINUOUS
 62
     3
100
AcDbLine
 10
979.9999999999984
 20
3917.999999821186
 30
0.0
 11
979.9999999999984
 21
3985.5
 31
0.0
  0
TEXT
  5
576
330
1F
100
AcDbEntity
  8
寸法
  6
CONTINUOUS
 62
     2
100
AcDbText
 10
741.4999999999995
 20
3975.749999910593
 30
0.0
 40
59.99999618530273
  1
１５０
 41
1.029411764705882
  7
EXCADSTD
 72
     5
 11
891.4999904632564
 21
3975.749999910593
 31
0.0
100
AcDbText
  0
TEXT
  5
577
330
1F
100
AcDbEntity
  8
寸法
  6
CONTINUOUS
 62
     2
100
AcDbText
 10
883.9999999999995
 20
3975.749999910593
 30
0.0
 40
48.0
  1
（壁給水）
 41
0.9655172413793105
  7
EXCADSTD
 72
     5
 11
1076.0
 21
3975.749999910593
 31
0.0
100
AcDbText
  0
LINE
  5
578
330
1F
100
AcDbEntity
  8
寸法
  6
CONTINUOUS
 62
     3
100
AcDbLine
 10
785.0000000000005
 20
3970.5
 30
0.0
 11
1024.999999999999
 21
3970.5
 31
0.0
  0
LINE
  5
579
330
1F
100
AcDbEntity
  8
寸法
  6
CONTINUOUS
 62
     3
100
AcDbLine
 10
785.0000000000002
 20
3963.0
 30
0.0
 11
830.0000000000002
 21
3970.5
 31
0.0
  0
LINE
  5
57A
330
1F
100
AcDbEntity
  8
寸法
  6
CONTINUOUS
 62
     3
100
AcDbLine
 10
830.0000000000002
 20
3970.5
 30
0.0
 11
785.0000000000002
 21
3978.0
 31
0.0
  0
LINE
  5
57B
330
1F
100
AcDbEntity
  8
寸法
  6
CONTINUOUS
 62
     3
100
AcDbLine
 10
1024.999999999998
 20
3978.0
 30
0.0
 11
979.9999999999984
 21
3970.5
 31
0.0
  0
LINE
  5
57C
330
1F
100
AcDbEntity
  8
寸法
  6
CONTINUOUS
 62
     3
100
AcDbLine
 10
979.9999999999984
 20
3970.5
 30
0.0
 11
1024.999999999998
 21
3963.0
 31
0.0
  0
DIMENSION
  5
57D
330
1F
100
AcDbEntity
  8
寸法
  6
CONTINUOUS
 62
     3
100
AcDbDimension
  2
*D25
 10
2535.0
 20
651.0
 30
0.0
 11
2322.5
 21
686.249999910593
 31
0.0
 70
   160
  3
ISO-25
100
AcDbAlignedDimension
 13
2110.0
 23
987.5
 33
0.0
 14
2535.0
 24
987.5
 34
0.0
100
AcDbRotatedDimension
1001
ACAD
1000
DSTYLE
1002
{
1070
   270
1070
     2
1070
     6
1000
EX_NORM
1070
     7
1000
EX_NORM
1070
    41
1040
44.99999618530273
1070
    42
1040
10.49999982118618
1070
    44
1040
15.0
1070
    73
1070
     0
1070
    74
1070
     0
1070
    75
1070
     0
1070
    76
1070
     0
1070
    77
1070
     1
1070
    78
1070
     8
1070
   140
1040
59.99999618530273
1070
   147
1040
0.0
1070
   173
1070
     1
1070
   176
1070
     3
1070
   177
1070
     3
1070
   178
1070
     2
1070
   271
1070
     2
1070
   277
1070
     2
1070
   279
1070
     2
1070
   280
1070
     0
1070
   287
1070
     5
1070
   340
1005
125
1002
}
  0
LINE
  5
58A
330
1F
100
AcDbEntity
  8
寸法
  6
CONTINUOUS
 62
     3
100
AcDbLine
 10
650.0000000000002
 20
3942.499999821186
 30
0.0
 11
650.0000000000002
 21
4075.5
 31
0.0
  0
LINE
  5
58B
330
1F
100
AcDbEntity
  8
寸法
  6
CONTINUOUS
 62
     3
100
AcDbLine
 10
1159.999999999998
 20
3942.499999821186
 30
0.0
 11
1159.999999999998
 21
4075.5
 31
0.0
  0
TEXT
  5
58C
330
1F
100
AcDbEntity
  8
寸法
  6
CONTINUOUS
 62
     2
100
AcDbText
 10
741.4999999999995
 20
4065.749999910593
 30
0.0
 40
59.99999618530273
  1
５１０
 41
1.029411764705882
  7
EXCADSTD
 72
     5
 11
891.4999904632564
 21
4065.749999910593
 31
0.0
100
AcDbText
  0
TEXT
  5
58D
330
1F
100
AcDbEntity
  8
寸法
  6
CONTINUOUS
 62
     2
100
AcDbText
 10
883.9999999999995
 20
4065.749999910593
 30
0.0
 40
48.0
  1
（壁固定）
 41
0.9655172413793105
  7
EXCADSTD
 72
     5
 11
1076.0
 21
4065.749999910593
 31
0.0
100
AcDbText
  0
LINE
  5
58E
330
1F
100
AcDbEntity
  8
寸法
  6
CONTINUOUS
 62
     3
100
AcDbLine
 10
650.0000000000005
 20
4060.5
 30
0.0
 11
1159.999999999999
 21
4060.5
 31
0.0
  0
LINE
  5
58F
330
1F
100
AcDbEntity
  8
寸法
  6
CONTINUOUS
 62
     3
100
AcDbLine
 10
695.0000000000002
 20
4068.0
 30
0.0
 11
650.0000000000002
 21
4060.5
 31
0.0
  0
LINE
  5
590
330
1F
100
AcDbEntity
  8
寸法
  6
CONTINUOUS
 62
     3
100
AcDbLine
 10
650.0000000000002
 20
4060.5
 30
0.0
 11
695.0000000000002
 21
4053.0
 31
0.0
  0
LINE
  5
591
330
1F
100
AcDbEntity
  8
寸法
  6
CONTINUOUS
 62
     3
100
AcDbLine
 10
1114.999999999998
 20
4053.0
 30
0.0
 11
1159.999999999998
 21
4060.5
 31
0.0
  0
LINE
  5
592
330
1F
100
AcDbEntity
  8
寸法
  6
CONTINUOUS
 62
     3
100
AcDbLine
 10
1159.999999999998
 20
4060.5
 30
0.0
 11
1114.999999999998
 21
4068.0
 31
0.0
  0
DIMENSION
  5
593
330
1F
100
AcDbEntity
  8
寸法
  6
CONTINUOUS
 62
     3
100
AcDbDimension
  2
*D26
 10
1104.999999999998
 20
660.0
 30
0.0
 11
672.5000000000003
 21
695.249999910593
 31
0.0
 70
   160
  1
200（壁排水）
  3
ISO-25
100
AcDbAlignedDimension
 13
905.0000000000002
 23
972.4999999999999
 33
0.0
 14
1104.999999999998
 24
972.4999999999999
 34
0.0
100
AcDbRotatedDimension
1001
ACAD
1000
DSTYLE
1002
{
1070
   270
1070
     2
1070
     6
1000
EX_NORM
1070
     7
1000
EX_NORM
1070
    41
1040
44.99999618530273
1070
    42
1040
7.5
1070
    44
1040
15.0
1070
    73
1070
     0
1070
    74
1070
     0
1070
    75
1070
     0
1070
    76
1070
     0
1070
    77
1070
     1
1070
    78
1070
     8
1070
   140
1040
59.99999618530273
1070
   147
1040
0.0
1070
   173
1070
     1
1070
   176
1070
     3
1070
   177
1070
     3
1070
   178
1070
     2
1070
   271
1070
     2
1070
   277
1070
     2
1070
   279
1070
     2
1070
   280
1070
     1
1070
   287
1070
     5
1070
   340
1005
125
1002
}
  0
DIMENSION
  5
5A0
330
1F
100
AcDbEntity
  8
寸法
  6
CONTINUOUS
 62
     3
100
AcDbDimension
  2
*D27
 10
2701.5
 20
987.5
 30
0.0
 11
2666.250000089407
 21
1202.5
 31
0.0
 70
   160
  1
430（壁排水）
  3
ISO-25
100
AcDbAlignedDimension
 13
2565.0
 23
1417.5
 33
0.0
 14
2701.5
 24
987.5
 34
0.0
 50
90.0
100
AcDbRotatedDimension
1001
ACAD
1000
DSTYLE
1002
{
1070
   270
1070
     2
1070
     6
1000
EX_NORM
1070
     7
1000
EX_NORM
1070
    41
1040
44.99999618530273
1070
    42
1040
7.5
1070
    44
1040
15.0
1070
    73
1070
     0
1070
    74
1070
     0
1070
    75
1070
     0
1070
    76
1070
     1
1070
    77
1070
     1
1070
    78
1070
     8
1070
   140
1040
59.99999618530273
1070
   147
1040
0.0
1070
   173
1070
     1
1070
   176
1070
     3
1070
   177
1070
     3
1070
   178
1070
     2
1070
   271
1070
     2
1070
   277
1070
     2
1070
   279
1070
     2
1070
   280
1070
     0
1070
   287
1070
     5
1070
   340
1005
125
1002
}
  0
LINE
  5
5AC
330
1F
100
AcDbEntity
  8
寸法
  6
CONTINUOUS
 62
     3
100
AcDbLine
 10
2435.0
 20
912.5000001788139
 30
0.0
 11
2435.0
 21
733.5
 31
0.0
  0
LINE
  5
5AD
330
1F
100
AcDbEntity
  8
寸法
  6
CONTINUOUS
 62
     3
100
AcDbLine
 10
2535.0
 20
977.0000001788138
 30
0.0
 11
2535.0
 21
733.5
 31
0.0
  0
TEXT
  5
5AE
330
1F
100
AcDbEntity
  8
寸法
  6
CONTINUOUS
 62
     2
100
AcDbText
 10
2580.0
 20
753.749999910593
 30
0.0
 40
59.99999618530273
  1
１００
 41
1.029411764705882
  7
EXCADSTD
 72
     5
 11
2729.999990463257
 21
753.749999910593
 31
0.0
100
AcDbText
  0
TEXT
  5
5AF
330
1F
100
AcDbEntity
  8
寸法
  6
CONTINUOUS
 62
     2
100
AcDbText
 10
2722.5
 20
753.749999910593
 30
0.0
 40
48.0
  1
（床排水）
 41
0.9655172413793105
  7
EXCADSTD
 72
     5
 11
2914.5
 21
753.749999910593
 31
0.0
100
AcDbText
  0
LINE
  5
5B0
330
1F
100
AcDbEntity
  8
寸法
  6
CONTINUOUS
 62
     3
100
AcDbLine
 10
2390.0
 20
748.5
 30
0.0
 11
2912.249994277955
 21
748.5
 31
0.0
  0
LINE
  5
5B1
330
1F
100
AcDbEntity
  8
寸法
  6
CONTINUOUS
 62
     3
100
AcDbLine
 10
2390.0
 20
741.0
 30
0.0
 11
2435.0
 21
748.5
 31
0.0
  0
LINE
  5
5B2
330
1F
100
AcDbEntity
  8
寸法
  6
CONTINUOUS
 62
     3
100
AcDbLine
 10
2435.0
 20
748.5
 30
0.0
 11
2390.0
 21
756.0000000000001
 31
0.0
  0
LINE
  5
5B3
330
1F
100
AcDbEntity
  8
寸法
  6
CONTINUOUS
 62
     3
100
AcDbLine
 10
2580.0
 20
756.0
 30
0.0
 11
2535.0
 21
748.5
 31
0.0
  0
LINE
  5
5B4
330
1F
100
AcDbEntity
  8
寸法
  6
CONTINUOUS
 62
     3
100
AcDbLine
 10
2535.0
 20
748.5
 30
0.0
 11
2580.0
 21
741.0
 31
0.0
  0
LEADER
  5
5B5
330
1F
100
AcDbEntity
  8
寸法
  6
CONTINUOUS
 62
     3
100
AcDbLeader
  3
ISO-25
 76
     3
 10
1160.849999999999
 20
987.5
 30
0.0
 10
1298.999999999998
 20
784.5
 30
0.0
 10
1729.499999999998
 20
784.5
 30
0.0
1001
ACAD
1000
DSTYLE
1002
{
1070
     5
1000
EX_NORM
1070
    41
1040
45.0
1070
   341
1005
4D
1002
}
  0
TEXT
  5
5B6
330
1F
100
AcDbEntity
  8
寸法
  6
CONTINUOUS
 62
     2
100
AcDbText
 10
1306.499999999998
 20
849.7499960958958
 30
0.0
 40
59.99999618530273
  1
ＶＰ･ＶＵ４０･５０
 41
0.8542372745578565
  7
EXCADSTD
 72
     5
 11
1738.499965667723
 21
849.7499960958958
 31
0.0
100
AcDbText
  0
TEXT
  5
5B7
330
1F
100
AcDbEntity
  8
寸法
  6
CONTINUOUS
 62
     2
100
AcDbText
 10
1306.499999999998
 20
789.749999910593
 30
0.0
 40
59.99999618530273
  1
４０～５０㎜立上げ
 41
0.9773584771306252
  7
EXCADSTD
 72
     5
 11
1750.499965667723
 21
789.749999910593
 31
0.0
100
AcDbText
  0
LINE
  5
5B8
330
1F
100
AcDbEntity
  8
寸法
  6
CONTINUOUS
 62
     3
100
AcDbLine
 10
905.0000000000002
 20
977.0000001788138
 30
0.0
 11
905.0000000000002
 21
733.5
 31
0.0
  0
LINE
  5
5B9
330
1F
100
AcDbEntity
  8
寸法
  6
CONTINUOUS
 62
     3
100
AcDbLine
 10
1144.999999999998
 20
912.5000001788139
 30
0.0
 11
1144.999999999998
 21
733.5
 31
0.0
  0
TEXT
  5
5BA
330
1F
100
AcDbEntity
  8
寸法
  6
CONTINUOUS
 62
     2
100
AcDbText
 10
533.0000000000003
 20
753.749999910593
 30
0.0
 40
59.99999618530273
  1
２４０
 41
1.029411764705882
  7
EXCADSTD
 72
     5
 11
682.9999904632572
 21
753.749999910593
 31
0.0
100
AcDbText
  0
TEXT
  5
5BB
330
1F
100
AcDbEntity
  8
寸法
  6
CONTINUOUS
 62
     2
100
AcDbText
 10
675.5000000000003
 20
753.749999910593
 30
0.0
 40
48.0
  1
（床排水）
 41
0.9655172413793105
  7
EXCADSTD
 72
     5
 11
867.5000000000003
 21
753.749999910593
 31
0.0
100
AcDbText
  0
LINE
  5
5BC
330
1F
100
AcDbEntity
  8
寸法
  6
CONTINUOUS
 62
     3
100
AcDbLine
 10
527.7500057220461
 20
748.5
 30
0.0
 11
1189.999999999998
 21
748.5
 31
0.0
  0
LINE
  5
5BD
330
1F
100
AcDbEntity
  8
寸法
  6
CONTINUOUS
 62
     3
100
AcDbLine
 10
860.0000000000002
 20
741.0
 30
0.0
 11
905.0000000000002
 21
748.5
 31
0.0
  0
LINE
  5
5BE
330
1F
100
AcDbEntity
  8
寸法
  6
CONTINUOUS
 62
     3
100
AcDbLine
 10
905.0000000000002
 20
748.5
 30
0.0
 11
860.0000000000002
 21
756.0000000000001
 31
0.0
  0
LINE
  5
5BF
330
1F
100
AcDbEntity
  8
寸法
  6
CONTINUOUS
 62
     3
100
AcDbLine
 10
1189.999999999998
 20
756.0
 30
0.0
 11
1144.999999999998
 21
748.5
 31
0.0
  0
LINE
  5
5C0
330
1F
100
AcDbEntity
  8
寸法
  6
CONTINUOUS
 62
     3
100
AcDbLine
 10
1144.999999999998
 20
748.5
 30
0.0
 11
1189.999999999998
 21
741.0
 31
0.0
  0
DIMENSION
  5
5C1
330
1F
100
AcDbEntity
  8
寸法
  6
CONTINUOUS
 62
     3
100
AcDbDimension
  2
*D28
 10
2535.0
 20
2814.0
 30
0.0
 11
2632.5
 21
2849.249999910593
 31
0.0
 70
   160
  1
43
  3
ISO-25
100
AcDbAlignedDimension
 13
2492.600000000001
 23
2698.7
 33
0.0
 14
2535.0
 24
2701.5192378864
 34
0.0
100
AcDbRotatedDimension
1001
ACAD
1000
DSTYLE
1002
{
1070
   270
1070
     2
1070
     6
1000
EX_NORM
1070
     7
1000
EX_NORM
1070
    41
1040
44.99999618530273
1070
    42
1040
10.49999982118607
1070
    44
1040
15.0
1070
    73
1070
     0
1070
    74
1070
     0
1070
    75
1070
     0
1070
    76
1070
     1
1070
    77
1070
     1
1070
    78
1070
     0
1070
   140
1040
59.99999618530273
1070
   147
1040
0.0
1070
   173
1070
     1
1070
   176
1070
     3
1070
   177
1070
     3
1070
   178
1070
     2
1070
   271
1070
     0
1070
   277
1070
     2
1070
   279
1070
     2
1070
   280
1070
     2
1070
   287
1070
     5
1070
   340
1005
125
1002
}
  0
DIMENSION
  5
5CF
330
1F
100
AcDbEntity
  8
寸法
  6
CONTINUOUS
 62
     3
100
AcDbDimension
  2
*D29
 10
2883.0
 20
2642.5
 30
0.0
 11
2847.750000089407
 21
2399.999999999998
 31
0.0
 70
   160
  1
485（壁固定）
  3
ISO-25
100
AcDbAlignedDimension
 13
2567.5
 23
2157.5
 33
0.0
 14
2567.5
 24
2642.5
 34
0.0
 50
90.0
100
AcDbRotatedDimension
1001
ACAD
1000
DSTYLE
1002
{
1070
   270
1070
     2
1070
     6
1000
EX_NORM
1070
     7
1000
EX_NORM
1070
    41
1040
44.99999618530273
1070
    42
1040
10.49999982118607
1070
    44
1040
15.0
1070
    73
1070
     0
1070
    74
1070
     0
1070
    75
1070
     0
1070
    76
1070
     0
1070
    77
1070
     1
1070
    78
1070
     0
1070
   140
1040
59.99999618530273
1070
   147
1040
0.0
1070
   173
1070
     1
1070
   176
1070
     3
1070
   177
1070
     3
1070
   178
1070
     2
1070
   271
1070
     0
1070
   277
1070
     2
1070
   279
1070
     2
1070
   280
1070
     0
1070
   287
1070
     5
1070
   340
1005
125
1002
}
  0
DIMENSION
  5
5DC
330
1F
100
AcDbEntity
  8
寸法
  6
CONTINUOUS
 62
     3
100
AcDbDimension
  2
*D30
 10
2883.0
 20
987.5
 30
0.0
 11
2847.750000089407
 21
1572.5
 31
0.0
 70
   160
  1
（1170）
  3
ISO-25
100
AcDbAlignedDimension
 13
2672.5
 23
2157.5
 33
0.0
 14
2791.5
 24
987.5
 34
0.0
 50
90.0
100
AcDbRotatedDimension
1001
ACAD
1000
DSTYLE
1002
{
1070
   270
1070
     2
1070
     6
1000
EX_NORM
1070
     7
1000
EX_NORM
1070
    41
1040
44.99999618530273
1070
    42
1040
7.5
1070
    44
1040
15.0
1070
    73
1070
     0
1070
    74
1070
     0
1070
    75
1070
     0
1070
    76
1070
     0
1070
    77
1070
     1
1070
    78
1070
     8
1070
   140
1040
59.99999618530273
1070
   147
1040
0.0
1070
   173
1070
     1
1070
   176
1070
     3
1070
   177
1070
     3
1070
   178
1070
     2
1070
   271
1070
     2
1070
   277
1070
     2
1070
   279
1070
     2
1070
   280
1070
     0
1070
   287
1070
     5
1070
   340
1005
125
1002
}
  0
ENDSEC
  0
SECTION
  2
OBJECTS
  0
DICTIONARY
  5
C
330
0
100
AcDbDictionary
  3
ACAD_GROUP
350
D
  3
ACAD_LAYOUT
350
1A
  3
ACAD_MATERIAL
350
3B
  3
ACAD_MLEADERSTYLE
350
60B
  3
ACAD_MLINESTYLE
350
17
  3
ACAD_PLOTSETTINGS
350
19
  3
ACAD_VISUALSTYLE
350
2A
  3
ACDBHEADERROUNDTRIPXREC
350
5E9
  3
ACDBVARIABLEDICTIONARY
350
609
  0
DICTIONARY
  5
D
102
{ACAD_REACTORS
330
C
102
}
330
C
100
AcDbDictionary
  0
DICTIONARY
  5
1A
102
{ACAD_REACTORS
330
C
102
}
330
C
100
AcDbDictionary
  0
DICTIONARY
  5
3B
102
{ACAD_REACTORS
330
C
102
}
330
C
100
AcDbDictionary
  3
BYBLOCK
350
3D
  3
BYLAYER
350
3C
  3
GLOBAL
350
3E
  0
DICTIONARY
  5
60B
102
{ACAD_REACTORS
330
C
102
}
330
C
100
AcDbDictionary
  0
DICTIONARY
  5
17
102
{ACAD_REACTORS
330
C
102
}
330
C
100
AcDbDictionary
  3
STANDARD
350
18
  0
DICTIONARY
  5
19
102
{ACAD_REACTORS
330
C
102
}
330
C
100
AcDbDictionary
  0
DICTIONARY
  5
2A
102
{ACAD_REACTORS
330
C
102
}
330
C
100
AcDbDictionary
  3
2DWIREFRAME
350
2F
  3
3D_HIDDEN
350
31
  3
3DWIREFRAME
350
30
  3
BASIC
350
32
  3
BRIGHTEN
350
36
  3
COLORCHANGE
350
3A
  3
CONCEPTUAL
350
34
  3
DIM
350
35
  3
FACEPATTERN
350
39
  3
FLAT
350
2B
  3
FLATWITHEDGES
350
2C
  3
GOURAUD
350
2D
  3
GOURAUDWITHEDGES
350
2E
  3
LINEPATTERN
350
38
  3
REALISTIC
350
33
  3
THICKEN
350
37
  0
DICTIONARY
  5
5E9
102
{ACAD_REACTORS
330
C
102
}
330
C
100
AcDbDictionary
  3
CEPSNTYPE
350
5F2
  3
DIMSTYLEDATA
350
608
  3
FINGERPRINTGUID
350
5F3
  3
HYPERLINKBASE
350
5EC
  3
INSUNITS
350
5F1
  3
LAYOUTDICT
350
5EE
  3
LWETCUNION
350
5F0
  3
PLOTSETDICT
350
5EF
  3
PSVPSCALE
350
5F5
  3
PUCSBASE
350
5F8
  3
PUCSORGBACK
350
5FE
  3
PUCSORGBOTTOM
350
5FA
  3
PUCSORGFRONT
350
5FD
  3
PUCSORGLEFT
350
5FB
  3
PUCSORGRIGHT
350
5FC
  3
PUCSORGTOP
350
5F9
  3
PUCSORTHOREF
350
5F6
  3
PUCSORTHOVIEW
350
5F7
  3
STYLESHEET
350
5ED
  3
TSTACKALIGN
350
5EA
  3
TSTACKSIZE
350
5EB
  3
UCSBASE
350
601
  3
UCSORGBACK
350
607
  3
UCSORGBOTTOM
350
603
  3
UCSORGFRONT
350
606
  3
UCSORGLEFT
350
604
  3
UCSORGRIGHT
350
605
  3
UCSORGTOP
350
602
  3
UCSORTHOREF
350
5FF
  3
UCSORTHOVIEW
350
600
  3
VERSIONGUID
350
5F4
  0
DICTIONARY
  5
609
102
{ACAD_REACTORS
330
C
102
}
330
C
100
AcDbDictionary
  3
DIMASSOC
350
60E
  3
HIDETEXT
350
60F
  3
PSOLHEIGHT
350
60D
  3
PSOLWIDTH
350
60C
  0
MATERIAL
  5
3D
102
{ACAD_REACTORS
330
3B
102
}
102
{ACAD_XDICTIONARY
360
612
102
}
330
3B
100
AcDbMaterial
  1
ByBlock
  0
MATERIAL
  5
3C
102
{ACAD_REACTORS
330
3B
102
}
102
{ACAD_XDICTIONARY
360
610
102
}
330
3B
100
AcDbMaterial
  1
ByLayer
  0
MATERIAL
  5
3E
102
{ACAD_REACTORS
330
3B
102
}
102
{ACAD_XDICTIONARY
360
614
102
}
330
3B
100
AcDbMaterial
  1
Global
  0
MLINESTYLE
  5
18
102
{ACAD_REACTORS
330
17
102
}
330
17
100
AcDbMlineStyle
  2
Standard
 70
     0
  3

 62
   256
 51
90.0
 52
90.0
 71
     2
 49
0.5
 62
   256
  6
BYLAYER
 49
-0.5
 62
   256
  6
BYLAYER
  0
ACAD_PROXY_OBJECT
  5
2F
102
{ACAD_REACTORS
330
2A
102
}
330
2A
100
AcDbProxyObject
 90
      499
 91
      501
 93
      436
310
42CC9915DA5C99599C985B595049028333333333333E3BF0000000000000FB0107901411070040501600405405064090741402480A0340
1001
ACAD
1000
AcDbSavedByObjectVersion
1070
     0
  0
ACAD_PROXY_OBJECT
  5
31
102
{ACAD_REACTORS
330
2A
102
}
330
2A
100
AcDbProxyObject
 90
      499
 91
      501
 93
      500
310
424CD108121A5919195B90640502408333333333333E3BF0000000000000FB01079024090700405020000000000001110200405405064090740C02480A0340
1001
ACAD
1000
AcDbSavedByObjectVersion
1070
     0
  0
ACAD_PROXY_OBJECT
  5
30
102
{ACAD_REACTORS
330
2A
102
}
330
2A
100
AcDbProxyObject
 90
      499
 91
      501
 93
      436
310
42CCD915DA5C99599C985B595059028333333333333E3BF0000000000000FB0107901411070040501600405405064090741402480A0340
1001
ACAD
1000
AcDbSavedByObjectVersion
1070
     0
  0
ACAD_PROXY_OBJECT
  5
32
102
{ACAD_REACTORS
330
2A
102
}
330
2A
100
AcDbProxyObject
 90
      499
 91
      501
 93
      388
310
4150985CDA58D07406404333333333333E3BF0000000000000FB0107A41107004050150841D405064090741402480A0350
1001
ACAD
1000
AcDbSavedByObjectVersion
1070
     0
  0
ACAD_PROXY_OBJECT
  5
36
102
{ACAD_REACTORS
330
2A
102
}
330
2A
100
AcDbProxyObject
 90
      499
 91
      501
 93
      428
310
42109C9A59DA1D195B90C409028333333333333E3BF0000000000000FB010790141107004050150841D405064090741402480A029950
1001
ACAD
1000
AcDbSavedByObjectVersion
1070
     0
  0
ACAD_PROXY_OBJECT
  5
3A
102
{ACAD_REACTORS
330
2A
102
}
330
2A
100
AcDbProxyObject
 90
      499
 91
      501
 93
      452
310
42D0DBDB1BDC90DA185B99D95104090240C333333333333E3BF0000000000000FB0108901411070040501508421405064090741402480A0350
1001
ACAD
1000
AcDbSavedByObjectVersion
1070
     0
  0
ACAD_PROXY_OBJECT
  5
34
102
{ACAD_REACTORS
330
2A
102
}
330
2A
100
AcDbProxyObject
 90
      499
 91
      501
 93
      500
310
4290DBDB98D95C1D1D585B10940D028333333333333E3BF0000000000000FB0107902409070040501000000000000111010841D405064090740C02480A0340
1001
ACAD
1000
AcDbSavedByObjectVersion
1070
     0
  0
ACAD_PROXY_OBJECT
  5
35
102
{ACAD_REACTORS
330
2A
102
}
330
2A
100
AcDbProxyObject
 90
      499
 91
      501
 93
      412
310
40D11A5B50B409028333333333333E3BF0000000000000FB010790141107004050150841D405064090741402480A02677FFFFFD0
1001
ACAD
1000
AcDbSavedByObjectVersion
1070
     0
  0
ACAD_PROXY_OBJECT
  5
39
102
{ACAD_REACTORS
330
2A
102
}
330
2A
100
AcDbProxyObject
 90
      499
 91
      501
 93
      444
310
42D19858D95C185D1D195C9B90F409028333333333333E3BF0000000000000FB010790141107004050150841D405064090741402480A0350
1001
ACAD
1000
AcDbSavedByObjectVersion
1070
     0
  0
ACAD_PROXY_OBJECT
  5
2B
102
{ACAD_REACTORS
330
2A
102
}
330
2A
100
AcDbProxyObject
 90
      499
 91
      501
 93
      388
310
41119B185D240901404333333333333E3BF0000000000000F9010740A41107004050150841D405064090741402480A1B50
1001
ACAD
1000
AcDbSavedByObjectVersion
1070
     0
  0
ACAD_PROXY_OBJECT
  5
2C
102
{ACAD_REACTORS
330
2A
102
}
330
2A
100
AcDbProxyObject
 90
      499
 91
      501
 93
      476
310
43519B185D15DA5D1A115919D95CD0140901404333333333333E3BF0000000000000F9010740901411070040501600405405064090741402480A1B50
1001
ACAD
1000
AcDbSavedByObjectVersion
1070
     0
  0
ACAD_PROXY_OBJECT
  5
2D
102
{ACAD_REACTORS
330
2A
102
}
330
2A
100
AcDbProxyObject
 90
      499
 91
      501
 93
      412
310
41D1DBDD5C985D5910240902404333333333333E3BF0000000000000F9010740A411070040501641D405064090741402480A1B50
1001
ACAD
1000
AcDbSavedByObjectVersion
1070
     0
  0
ACAD_PROXY_OBJECT
  5
2E
102
{ACAD_REACTORS
330
2A
102
}
330
2A
100
AcDbProxyObject
 90
      499
 91
      501
 93
      500
310
4411DBDD5C985D5915DA5D1A115919D95CD0340902404333333333333E3BF0000000000000F9010740901411070040501600405405064090741402480A1B50
1001
ACAD
1000
AcDbSavedByObjectVersion
1070
     0
  0
ACAD_PROXY_OBJECT
  5
38
102
{ACAD_REACTORS
330
2A
102
}
330
2A
100
AcDbProxyObject
 90
      499
 91
      501
 93
      444
310
42D31A5B995C185D1D195C9B90E409028333333333333E3BF0000000000000FB010790141107004050750841D405064090741402483A0350
1001
ACAD
1000
AcDbSavedByObjectVersion
1070
     0
  0
ACAD_PROXY_OBJECT
  5
33
102
{ACAD_REACTORS
330
2A
102
}
330
2A
100
AcDbProxyObject
 90
      499
 91
      501
 93
      420
310
425499585B1A5CDD1A58D08409028333333333333E3BF0000000000000FB01079019070040501508421405064090741402480A1B40
1001
ACAD
1000
AcDbSavedByObjectVersion
1070
     0
  0
ACAD_PROXY_OBJECT
  5
37
102
{ACAD_REACTORS
330
2A
102
}
330
2A
100
AcDbProxyObject
 90
      499
 91
      501
 93
      412
310
41D51A1A58DAD95B90D409028333333333333E3BF0000000000000FB010790141107004050150C41D405064090741402480A0350
1001
ACAD
1000
AcDbSavedByObjectVersion
1070
     0
  0
XRECORD
  5
5F2
102
{ACAD_REACTORS
330
5E9
102
}
330
5E9
100
AcDbXrecord
 90
        0
  0
XRECORD
  5
608
102
{ACAD_REACTORS
330
5E9
102
}
330
5E9
100
AcDbXrecord
1000
DSTYLE
1002
{
1070
   340
340
11
1002
}
  0
XRECORD
  5
5F3
102
{ACAD_REACTORS
330
5E9
102
}
330
5E9
100
AcDbXrecord
  1
{DD893E72-06CA-4CEC-85A4-CC882BBAD00C}
  0
XRECORD
  5
5EC
102
{ACAD_REACTORS
330
5E9
102
}
330
5E9
100
AcDbXrecord
  1

  0
XRECORD
  5
5F1
102
{ACAD_REACTORS
330
5E9
102
}
330
5E9
100
AcDbXrecord
 90
        4
  0
XRECORD
  5
5EE
102
{ACAD_REACTORS
330
5E9
102
}
330
5E9
100
AcDbXrecord
340
1A
  0
XRECORD
  5
5F0
102
{ACAD_REACTORS
330
5E9
102
}
330
5E9
100
AcDbXrecord
 90
    10781
  0
XRECORD
  5
5EF
102
{ACAD_REACTORS
330
5E9
102
}
330
5E9
100
AcDbXrecord
340
19
  0
XRECORD
  5
5F5
102
{ACAD_REACTORS
330
5E9
102
}
330
5E9
100
AcDbXrecord
 40
0.0
  0
XRECORD
  5
5F8
102
{ACAD_REACTORS
330
5E9
102
}
330
5E9
100
AcDbXrecord
340
0
  0
XRECORD
  5
5FE
102
{ACAD_REACTORS
330
5E9
102
}
330
5E9
100
AcDbXrecord
 10
0.0
 20
0.0
 30
0.0
  0
XRECORD
  5
5FA
102
{ACAD_REACTORS
330
5E9
102
}
330
5E9
100
AcDbXrecord
 10
0.0
 20
0.0
 30
0.0
  0
XRECORD
  5
5FD
102
{ACAD_REACTORS
330
5E9
102
}
330
5E9
100
AcDbXrecord
 10
0.0
 20
0.0
 30
0.0
  0
XRECORD
  5
5FB
102
{ACAD_REACTORS
330
5E9
102
}
330
5E9
100
AcDbXrecord
 10
0.0
 20
0.0
 30
0.0
  0
XRECORD
  5
5FC
102
{ACAD_REACTORS
330
5E9
102
}
330
5E9
100
AcDbXrecord
 10
0.0
 20
0.0
 30
0.0
  0
XRECORD
  5
5F9
102
{ACAD_REACTORS
330
5E9
102
}
330
5E9
100
AcDbXrecord
 10
0.0
 20
0.0
 30
0.0
  0
XRECORD
  5
5F6
102
{ACAD_REACTORS
330
5E9
102
}
330
5E9
100
AcDbXrecord
340
0
  0
XRECORD
  5
5F7
102
{ACAD_REACTORS
330
5E9
102
}
330
5E9
100
AcDbXrecord
 70
     0
  0
XRECORD
  5
5ED
102
{ACAD_REACTORS
330
5E9
102
}
330
5E9
100
AcDbXrecord
  1

  0
XRECORD
  5
5EA
102
{ACAD_REACTORS
330
5E9
102
}
330
5E9
100
AcDbXrecord
 90
        1
  0
XRECORD
  5
5EB
102
{ACAD_REACTORS
330
5E9
102
}
330
5E9
100
AcDbXrecord
 90
       70
  0
XRECORD
  5
601
102
{ACAD_REACTORS
330
5E9
102
}
330
5E9
100
AcDbXrecord
340
0
  0
XRECORD
  5
607
102
{ACAD_REACTORS
330
5E9
102
}
330
5E9
100
AcDbXrecord
 10
0.0
 20
0.0
 30
0.0
  0
XRECORD
  5
603
102
{ACAD_REACTORS
330
5E9
102
}
330
5E9
100
AcDbXrecord
 10
0.0
 20
0.0
 30
0.0
  0
XRECORD
  5
606
102
{ACAD_REACTORS
330
5E9
102
}
330
5E9
100
AcDbXrecord
 10
0.0
 20
0.0
 30
0.0
  0
XRECORD
  5
604
102
{ACAD_REACTORS
330
5E9
102
}
330
5E9
100
AcDbXrecord
 10
0.0
 20
0.0
 30
0.0
  0
XRECORD
  5
605
102
{ACAD_REACTORS
330
5E9
102
}
330
5E9
100
AcDbXrecord
 10
0.0
 20
0.0
 30
0.0
  0
XRECORD
  5
602
102
{ACAD_REACTORS
330
5E9
102
}
330
5E9
100
AcDbXrecord
 10
0.0
 20
0.0
 30
0.0
  0
XRECORD
  5
5FF
102
{ACAD_REACTORS
330
5E9
102
}
330
5E9
100
AcDbXrecord
340
0
  0
XRECORD
  5
600
102
{ACAD_REACTORS
330
5E9
102
}
330
5E9
100
AcDbXrecord
 70
     0
  0
XRECORD
  5
5F4
102
{ACAD_REACTORS
330
5E9
102
}
330
5E9
100
AcDbXrecord
  1
{FAEB1C32-E019-11D5-929B-00C0DF256EC4}
  0
DICTIONARYVAR
  5
60E
102
{ACAD_REACTORS
330
609
102
}
330
609
100
DictionaryVariables
280
     0
  1
2
  0
DICTIONARYVAR
  5
60F
102
{ACAD_REACTORS
330
609
102
}
330
609
100
DictionaryVariables
280
     0
  1
1
  0
DICTIONARYVAR
  5
60D
102
{ACAD_REACTORS
330
609
102
}
330
609
100
DictionaryVariables
280
     0
  1
80.000000
  0
DICTIONARYVAR
  5
60C
102
{ACAD_REACTORS
330
609
102
}
330
609
100
DictionaryVariables
280
     0
  1
5.000000
  0
DICTIONARY
  5
612
330
3D
100
AcDbDictionary
280
     1
  3
ACAD_XREC_ROUNDTRIP
360
613
  0
DICTIONARY
  5
610
330
3C
100
AcDbDictionary
280
     1
  3
ACAD_XREC_ROUNDTRIP
360
611
  0
DICTIONARY
  5
614
330
3E
100
AcDbDictionary
280
     1
  3
ACAD_XREC_ROUNDTRIP
360
615
  0
XRECORD
  5
613
102
{ACAD_REACTORS
330
612
102
}
330
612
100
AcDbXrecord
102
MATERIAL
148
0.0
149
0.0
149
0.0
 93
        0
 94
      127
282
     0
 72
     1
 77
     1
171
     1
175
     1
179
     1
273
     0
  0
XRECORD
  5
611
102
{ACAD_REACTORS
330
610
102
}
330
610
100
AcDbXrecord
102
MATERIAL
148
0.0
149
0.0
149
0.0
 93
        0
 94
      127
282
     0
 72
     1
 77
     1
171
     1
175
     1
179
     1
273
     0
  0
XRECORD
  5
615
102
{ACAD_REACTORS
330
614
102
}
330
614
100
AcDbXrecord
102
MATERIAL
148
0.0
149
0.0
149
0.0
 93
        0
 94
      127
282
     0
 72
     1
 77
     1
171
     1
175
     1
179
     1
273
     0
  0
ENDSEC
  0
EOF
