  0
SECTION
  2
HEADER
  9
$ACADVER
  1
AC1014
  9
$ACADMAINTVER
 70
     9
  9
$DWGCODEPAGE
  3
ANSI_932
  9
$INSBASE
 10
0.0
 20
0.0
 30
0.0
  9
$EXTMIN
 10
-0.3000000000000592
 20
9.5
 30
0.0
  9
$EXTMAX
 10
199.0
 20
284.5
 30
0.0
  9
$LIMMIN
 10
0.0
 20
0.0
  9
$LIMMAX
 10
210.0
 20
297.0
  9
$ORTHOMODE
 70
     0
  9
$REGENMODE
 70
     1
  9
$FILLMODE
 70
     1
  9
$QTEXTMODE
 70
     0
  9
$MIRRTEXT
 70
     1
  9
$DRAGMODE
 70
     2
  9
$LTSCALE
 40
1.0
  9
$OSMODE
 70
    37
  9
$ATTMODE
 70
     1
  9
$TEXTSIZE
 40
2.5
  9
$TRACEWID
 40
1.0
  9
$TEXTSTYLE
  7
STANDARD
  9
$CLAYER
  8
化粧台
  9
$CELTYPE
  6
BYLAYER
  9
$CECOLOR
 62
   256
  9
$CELTSCALE
 40
1.0
  9
$DELOBJ
 70
     1
  9
$DISPSILH
 70
     0
  9
$DIMSCALE
 40
1.0
  9
$DIMASZ
 40
2.5
  9
$DIMEXO
 40
0.625
  9
$DIMDLI
 40
3.75
  9
$DIMRND
 40
0.0
  9
$DIMDLE
 40
0.0
  9
$DIMEXE
 40
1.25
  9
$DIMTP
 40
0.0
  9
$DIMTM
 40
0.0
  9
$DIMTXT
 40
2.5
  9
$DIMCEN
 40
2.5
  9
$DIMTSZ
 40
0.0
  9
$DIMTOL
 70
     0
  9
$DIMLIM
 70
     0
  9
$DIMTIH
 70
     0
  9
$DIMTOH
 70
     0
  9
$DIMSE1
 70
     0
  9
$DIMSE2
 70
     0
  9
$DIMTAD
 70
     1
  9
$DIMZIN
 70
     8
  9
$DIMBLK
  1

  9
$DIMASO
 70
     1
  9
$DIMSHO
 70
     1
  9
$DIMPOST
  1

  9
$DIMAPOST
  1

  9
$DIMALT
 70
     0
  9
$DIMALTD
 70
     3
  9
$DIMALTF
 40
0.03937007874016
  9
$DIMLFAC
 40
1.0
  9
$DIMTOFL
 70
     1
  9
$DIMTVP
 40
0.0
  9
$DIMTIX
 70
     0
  9
$DIMSOXD
 70
     0
  9
$DIMSAH
 70
     0
  9
$DIMBLK1
  1

  9
$DIMBLK2
  1

  9
$DIMSTYLE
  2
ISO-25
  9
$DIMCLRD
 70
     0
  9
$DIMCLRE
 70
     0
  9
$DIMCLRT
 70
     0
  9
$DIMTFAC
 40
1.0
  9
$DIMGAP
 40
0.625
  9
$DIMJUST
 70
     0
  9
$DIMSD1
 70
     0
  9
$DIMSD2
 70
     0
  9
$DIMTOLJ
 70
     0
  9
$DIMTZIN
 70
     8
  9
$DIMALTZ
 70
     0
  9
$DIMALTTZ
 70
     0
  9
$DIMFIT
 70
     3
  9
$DIMUPT
 70
     0
  9
$DIMUNIT
 70
     2
  9
$DIMDEC
 70
     2
  9
$DIMTDEC
 70
     2
  9
$DIMALTU
 70
     2
  9
$DIMALTTD
 70
     3
  9
$DIMTXSTY
  7
STANDARD
  9
$DIMAUNIT
 70
     0
  9
$LUNITS
 70
     2
  9
$LUPREC
 70
     4
  9
$SKETCHINC
 40
1.0
  9
$FILLETRAD
 40
10.0
  9
$AUNITS
 70
     0
  9
$AUPREC
 70
     0
  9
$MENU
  1
.
  9
$ELEVATION
 40
0.0
  9
$PELEVATION
 40
0.0
  9
$THICKNESS
 40
0.0
  9
$LIMCHECK
 70
     0
  9
$CHAMFERA
 40
10.0
  9
$CHAMFERB
 40
10.0
  9
$CHAMFERC
 40
20.0
  9
$CHAMFERD
 40
0.0
  9
$SKPOLY
 70
     0
  9
$TDCREATE
 40
2457660.394194479
  9
$TDUPDATE
 40
2457660.394194711
  9
$TDINDWG
 40
0.0000000116
  9
$TDUSRTIMER
 40
0.0000000116
  9
$USRTIMER
 70
     1
  9
$ANGBASE
 50
0.0
  9
$ANGDIR
 70
     0
  9
$PDMODE
 70
     0
  9
$PDSIZE
 40
0.0
  9
$PLINEWID
 40
0.0
  9
$COORDS
 70
     1
  9
$SPLFRAME
 70
     0
  9
$SPLINETYPE
 70
     6
  9
$SPLINESEGS
 70
     8
  9
$ATTDIA
 70
     0
  9
$ATTREQ
 70
     1
  9
$HANDLING
 70
     1
  9
$HANDSEED
  5
61F
  9
$SURFTAB1
 70
     6
  9
$SURFTAB2
 70
     6
  9
$SURFTYPE
 70
     6
  9
$SURFU
 70
     6
  9
$SURFV
 70
     6
  9
$UCSNAME
  2

  9
$UCSORG
 10
0.0
 20
0.0
 30
0.0
  9
$UCSXDIR
 10
1.0
 20
0.0
 30
0.0
  9
$UCSYDIR
 10
0.0
 20
1.0
 30
0.0
  9
$PUCSNAME
  2

  9
$PUCSORG
 10
0.0
 20
0.0
 30
0.0
  9
$PUCSXDIR
 10
1.0
 20
0.0
 30
0.0
  9
$PUCSYDIR
 10
0.0
 20
1.0
 30
0.0
  9
$USERI1
 70
     0
  9
$USERI2
 70
     0
  9
$USERI3
 70
     0
  9
$USERI4
 70
     0
  9
$USERI5
 70
     0
  9
$USERR1
 40
0.0
  9
$USERR2
 40
0.0
  9
$USERR3
 40
0.0
  9
$USERR4
 40
0.0
  9
$USERR5
 40
0.0
  9
$WORLDVIEW
 70
     1
  9
$SHADEDGE
 70
     3
  9
$SHADEDIF
 70
    70
  9
$TILEMODE
 70
     1
  9
$MAXACTVP
 70
    64
  9
$PINSBASE
 10
0.0
 20
0.0
 30
0.0
  9
$PLIMCHECK
 70
     0
  9
$PEXTMIN
 10
1.000000000000000E+20
 20
1.000000000000000E+20
 30
1.000000000000000E+20
  9
$PEXTMAX
 10
-1.000000000000000E+20
 20
-1.000000000000000E+20
 30
-1.000000000000000E+20
  9
$PLIMMIN
 10
0.0
 20
0.0
  9
$PLIMMAX
 10
420.0
 20
297.0
  9
$UNITMODE
 70
     0
  9
$VISRETAIN
 70
     1
  9
$PLINEGEN
 70
     0
  9
$PSLTSCALE
 70
     1
  9
$TREEDEPTH
 70
  3020
  9
$PICKSTYLE
 70
     1
  9
$CMLSTYLE
  2
STANDARD
  9
$CMLJUST
 70
     0
  9
$CMLSCALE
 40
20.0
  9
$PROXYGRAPHICS
 70
     1
  9
$MEASUREMENT
 70
     1
  0
ENDSEC
  0
SECTION
  2
CLASSES
  0
CLASS
  1
ACDBDICTIONARYWDFLT
  2
AcDbDictionaryWithDefault
  3
ObjectDBX Classes
 90
        0
280
     0
281
     0
  0
CLASS
  1
VISUALSTYLE
  2
AcDbVisualStyle
  3
ObjectDBX Classes
 90
     4095
280
     0
281
     0
  0
CLASS
  1
MATERIAL
  2
AcDbMaterial
  3
ObjectDBX Classes
 90
     1153
280
     0
281
     0
  0
CLASS
  1
SUN
  2
AcDbSun
  3
SCENEOE
 90
     1024
280
     0
281
     0
  0
CLASS
  1
DICTIONARYVAR
  2
AcDbDictionaryVar
  3
ObjectDBX Classes
 90
        0
280
     0
281
     0
  0
CLASS
  1
XRECORD
  2
AcDbXrecord
  3
AutoCAD 2000
 90
        0
280
     0
281
     0
  0
CLASS
  1
LWPOLYLINE
  2
AcDbPolyline
  3
AutoCAD 2000
 90
        0
280
     0
281
     1
  0
CLASS
  1
HATCH
  2
AcDbHatch
  3
AutoCAD 2000
 90
        0
280
     0
281
     1
  0
CLASS
  1
ACDBPLACEHOLDER
  2
AcDbPlaceHolder
  3
ObjectDBX Classes
 90
        0
280
     0
281
     0
  0
CLASS
  1
LAYOUT
  2
AcDbLayout
  3
ObjectDBX Classes
 90
        0
280
     0
281
     0
  0
ENDSEC
  0
SECTION
  2
TABLES
  0
TABLE
  2
VPORT
  5
8
330
0
100
AcDbSymbolTable
 70
     1
  0
VPORT
  5
29
330
8
100
AcDbSymbolTableRecord
100
AcDbViewportTableRecord
  2
*ACTIVE
 70
     0
 10
0.0
 20
0.0
 11
1.0
 21
1.0
 12
1490.25
 22
2205.0
 13
0.0
 23
0.0
 14
10.0
 24
10.0
 15
10.0
 25
10.0
 16
0.0
 26
0.0
 36
1.0
 17
0.0
 27
0.0
 37
0.0
 40
4125.0
 41
0.7247272727272731
 42
50.0
 43
0.0
 44
0.0
 50
0.0
 51
0.0
 71
     0
 72
  1000
 73
     1
 74
     3
 75
     0
 76
     0
 77
     0
 78
     0
  0
ENDTAB
  0
TABLE
  2
LTYPE
  5
5
330
0
100
AcDbSymbolTable
 70
     7
  0
LTYPE
  5
14
330
5
100
AcDbSymbolTableRecord
100
AcDbLinetypeTableRecord
  2
BYBLOCK
 70
     0
  3

 72
    65
 73
     0
 40
0.0
  0
LTYPE
  5
15
330
5
100
AcDbSymbolTableRecord
100
AcDbLinetypeTableRecord
  2
BYLAYER
 70
     0
  3

 72
    65
 73
     0
 40
0.0
  0
LTYPE
  5
16
330
5
100
AcDbSymbolTableRecord
100
AcDbLinetypeTableRecord
  2
CONTINUOUS
 70
     0
  3
Solid line
 72
    65
 73
     0
 40
0.0
  0
LTYPE
  5
40
330
5
100
AcDbSymbolTableRecord
100
AcDbLinetypeTableRecord
  2
EXLTYPE1
 70
     0
  3
破線
 72
    65
 73
     2
 40
3.0
 49
2.0
 74
     0
 49
-1.0
 74
     0
  0
LTYPE
  5
41
330
5
100
AcDbSymbolTableRecord
100
AcDbLinetypeTableRecord
  2
EXLTYPE2
 70
     0
  3
点線
 72
    65
 73
     2
 40
2.0
 49
1.0
 74
     0
 49
-1.0
 74
     0
  0
LTYPE
  5
42
330
5
100
AcDbSymbolTableRecord
100
AcDbLinetypeTableRecord
  2
EXLTYPE3
 70
     0
  3
一点鎖線
 72
    65
 73
     4
 40
10.0
 49
7.0
 74
     0
 49
-1.0
 74
     0
 49
1.0
 74
     0
 49
-1.0
 74
     0
  0
LTYPE
  5
43
330
5
100
AcDbSymbolTableRecord
100
AcDbLinetypeTableRecord
  2
EXLTYPE4
 70
     0
  3
二点鎖線
 72
    65
 73
     6
 40
12.0
 49
7.0
 74
     0
 49
-1.0
 74
     0
 49
1.0
 74
     0
 49
-1.0
 74
     0
 49
1.0
 74
     0
 49
-1.0
 74
     0
  0
LTYPE
  5
44
330
5
100
AcDbSymbolTableRecord
100
AcDbLinetypeTableRecord
  2
EXLTYPE5
 70
     0
  3
三点鎖線
 72
    65
 73
     8
 40
37.0
 49
30.0
 74
     0
 49
-1.0
 74
     0
 49
1.0
 74
     0
 49
-1.0
 74
     0
 49
1.0
 74
     0
 49
-1.0
 74
     0
 49
1.0
 74
     0
 49
-1.0
 74
     0
  0
LTYPE
  5
45
330
5
100
AcDbSymbolTableRecord
100
AcDbLinetypeTableRecord
  2
EXLTYPE6
 70
     0
  3
四点鎖線
 72
    65
 73
    10
 40
39.0
 49
30.0
 74
     0
 49
-1.0
 74
     0
 49
1.0
 74
     0
 49
-1.0
 74
     0
 49
1.0
 74
     0
 49
-1.0
 74
     0
 49
1.0
 74
     0
 49
-1.0
 74
     0
 49
1.0
 74
     0
 49
-1.0
 74
     0
  0
ENDTAB
  0
TABLE
  2
LAYER
  5
2
330
0
100
AcDbSymbolTable
 70
     7
  0
LAYER
  5
10
330
2
100
AcDbSymbolTableRecord
100
AcDbLayerTableRecord
  2
0
 70
     0
 62
     7
  6
CONTINUOUS
  0
LAYER
  5
48
330
2
100
AcDbSymbolTableRecord
100
AcDbLayerTableRecord
  2
枠_表
 70
     0
 62
     7
  6
CONTINUOUS
  0
LAYER
  5
49
330
2
100
AcDbSymbolTableRecord
100
AcDbLayerTableRecord
  2
化粧台
 70
     0
 62
     7
  6
CONTINUOUS
  0
LAYER
  5
4A
330
2
100
AcDbSymbolTableRecord
100
AcDbLayerTableRecord
  2
鏡台
 70
     0
 62
     7
  6
CONTINUOUS
  0
LAYER
  5
4B
330
2
100
AcDbSymbolTableRecord
100
AcDbLayerTableRecord
  2
付属金具
 70
     0
 62
     7
  6
CONTINUOUS
  0
LAYER
  5
4C
330
2
100
AcDbSymbolTableRecord
100
AcDbLayerTableRecord
  2
寸法
 70
     0
 62
     7
  6
CONTINUOUS
  0
LAYER
  5
125
330
2
100
AcDbSymbolTableRecord
100
AcDbLayerTableRecord
  2
DEFPOINTS
 70
     0
 62
     7
  6
CONTINUOUS
  0
ENDTAB
  0
TABLE
  2
STYLE
  5
3
330
0
100
AcDbSymbolTable
 70
     5
  0
STYLE
  5
11
330
3
100
AcDbSymbolTableRecord
100
AcDbTextStyleTableRecord
  2
STANDARD
 70
     0
 40
0.0
 41
1.0
 50
0.0
 71
     0
 42
2.5
  3
monotxt
  4
extfont
  0
STYLE
  5
46
330
3
100
AcDbSymbolTableRecord
100
AcDbTextStyleTableRecord
  2
EXCADSTD
 70
     0
 40
0.0
 41
1.0
 50
0.0
 71
     0
 42
0.2
  3
monotxt
  4
extfont
  0
STYLE
  5
47
330
3
100
AcDbSymbolTableRecord
100
AcDbTextStyleTableRecord
  2
EXCADVERT
 70
     4
 40
0.0
 41
1.0
 50
0.0
 71
     0
 42
0.286885
  3
monotxt
  4
extfont
  0
STYLE
  5
D2
330
3
100
AcDbSymbolTableRecord
100
AcDbTextStyleTableRecord
  2
EXCADTTF1
 70
     0
 40
0.0
 41
1.0
 50
0.0
 71
     0
 42
0.2
  3
MSGOTHIC.TTC
  4

1001
ACAD
1000
MS Gothic
1071
    32817
  0
STYLE
  5
123
330
3
100
AcDbSymbolTableRecord
100
AcDbTextStyleTableRecord
  2
EXCADDIM1
 70
     0
 40
0.0
 41
0.84
 50
0.0
 71
     0
 42
0.2
  3
monotxt
  4
extfont
  0
ENDTAB
  0
TABLE
  2
VIEW
  5
6
330
0
100
AcDbSymbolTable
 70
     0
  0
ENDTAB
  0
TABLE
  2
UCS
  5
7
330
0
100
AcDbSymbolTable
 70
     0
  0
ENDTAB
  0
TABLE
  2
APPID
  5
9
330
0
100
AcDbSymbolTable
 70
     1
  0
APPID
  5
12
330
9
100
AcDbSymbolTableRecord
100
AcDbRegAppTableRecord
  2
ACAD
 70
     0
  0
ENDTAB
  0
TABLE
  2
DIMSTYLE
  5
A
330
0
100
AcDbSymbolTable
 70
     1
  0
DIMSTYLE
105
27
102
{ACAD_REACTORS
330
124
330
517
330
536
330
542
330
54F
330
55B
330
568
330
574
330
57F
330
58C
330
599
330
5A6
330
5B3
330
5BF
330
5CC
330
5E3
102
}
330
A
100
AcDbSymbolTableRecord
100
AcDbDimStyleTableRecord
  2
ISO-25
 70
     0
  3

  4

  5

  6

  7

 40
1.0
 41
2.5
 42
0.625
 43
3.75
 44
1.25
 45
0.0
 46
0.0
 47
0.0
 48
0.0
140
2.5
141
2.5
142
0.0
143
0.03937007874016
144
1.0
145
0.0
146
1.0
147
0.625
 71
     0
 72
     0
 73
     0
 74
     0
 75
     0
 76
     0
 77
     1
 78
     8
170
     0
171
     3
172
     1
173
     0
174
     0
175
     0
176
     0
177
     0
178
     0
270
     2
271
     2
272
     2
273
     2
274
     3
340
11
275
     0
280
     0
281
     0
282
     0
283
     0
284
     8
285
     0
286
     0
287
     5
288
     0
  0
ENDTAB
  0
TABLE
  2
BLOCK_RECORD
  5
1
330
0
100
AcDbSymbolTable
 70
    31
  0
BLOCK_RECORD
  5
1F
330
1
100
AcDbSymbolTableRecord
100
AcDbBlockTableRecord
  2
*MODEL_SPACE
  0
BLOCK_RECORD
  5
1B
330
1
100
AcDbSymbolTableRecord
100
AcDbBlockTableRecord
  2
*PAPER_SPACE
  0
BLOCK_RECORD
  5
4D
330
1
100
AcDbSymbolTableRecord
100
AcDbBlockTableRecord
  2
EX_NORM
  0
BLOCK_RECORD
  5
50
330
1
100
AcDbSymbolTableRecord
100
AcDbBlockTableRecord
  2
EX_BNORM
  0
BLOCK_RECORD
  5
53
330
1
100
AcDbSymbolTableRecord
100
AcDbBlockTableRecord
  2
EX_BCIR
  0
BLOCK_RECORD
  5
56
330
1
100
AcDbSymbolTableRecord
100
AcDbBlockTableRecord
  2
EX_RCIVIL
  0
BLOCK_RECORD
  5
59
330
1
100
AcDbSymbolTableRecord
100
AcDbBlockTableRecord
  2
EX_SLANT
  0
BLOCK_RECORD
  5
5C
330
1
100
AcDbSymbolTableRecord
100
AcDbBlockTableRecord
  2
EX_NONE
  0
BLOCK_RECORD
  5
5F
330
1
100
AcDbSymbolTableRecord
100
AcDbBlockTableRecord
  2
EX_CIVIL
  0
BLOCK_RECORD
  5
62
330
1
100
AcDbSymbolTableRecord
100
AcDbBlockTableRecord
  2
EX_WCIR
  0
BLOCK_RECORD
  5
65
330
1
100
AcDbSymbolTableRecord
100
AcDbBlockTableRecord
  2
EX_WCIR2
  0
BLOCK_RECORD
  5
68
330
1
100
AcDbSymbolTableRecord
100
AcDbBlockTableRecord
  2
EX_WNORM
  0
BLOCK_RECORD
  5
6B
330
1
100
AcDbSymbolTableRecord
100
AcDbBlockTableRecord
  2
EX_NNORM
  0
BLOCK_RECORD
  5
6E
330
1
100
AcDbSymbolTableRecord
100
AcDbBlockTableRecord
  2
EX_BBOX
  0
BLOCK_RECORD
  5
71
330
1
100
AcDbSymbolTableRecord
100
AcDbBlockTableRecord
  2
EX_WBOX
  0
BLOCK_RECORD
  5
74
330
1
100
AcDbSymbolTableRecord
100
AcDbBlockTableRecord
  2
EX_INTEGRAL
  0
BLOCK_RECORD
  5
126
330
1
100
AcDbSymbolTableRecord
100
AcDbBlockTableRecord
  2
*D15
  0
BLOCK_RECORD
  5
518
330
1
100
AcDbSymbolTableRecord
100
AcDbBlockTableRecord
  2
*D16
  0
BLOCK_RECORD
  5
537
330
1
100
AcDbSymbolTableRecord
100
AcDbBlockTableRecord
  2
*D17
  0
BLOCK_RECORD
  5
543
330
1
100
AcDbSymbolTableRecord
100
AcDbBlockTableRecord
  2
*D18
  0
BLOCK_RECORD
  5
550
330
1
100
AcDbSymbolTableRecord
100
AcDbBlockTableRecord
  2
*D19
  0
BLOCK_RECORD
  5
55C
330
1
100
AcDbSymbolTableRecord
100
AcDbBlockTableRecord
  2
*D20
  0
BLOCK_RECORD
  5
569
330
1
100
AcDbSymbolTableRecord
100
AcDbBlockTableRecord
  2
*D21
  0
BLOCK_RECORD
  5
575
330
1
100
AcDbSymbolTableRecord
100
AcDbBlockTableRecord
  2
*D22
  0
BLOCK_RECORD
  5
580
330
1
100
AcDbSymbolTableRecord
100
AcDbBlockTableRecord
  2
*D23
  0
BLOCK_RECORD
  5
58D
330
1
100
AcDbSymbolTableRecord
100
AcDbBlockTableRecord
  2
*D24
  0
BLOCK_RECORD
  5
59A
330
1
100
AcDbSymbolTableRecord
100
AcDbBlockTableRecord
  2
*D25
  0
BLOCK_RECORD
  5
5A7
330
1
100
AcDbSymbolTableRecord
100
AcDbBlockTableRecord
  2
*D26
  0
BLOCK_RECORD
  5
5B4
330
1
100
AcDbSymbolTableRecord
100
AcDbBlockTableRecord
  2
*D27
  0
BLOCK_RECORD
  5
5C0
330
1
100
AcDbSymbolTableRecord
100
AcDbBlockTableRecord
  2
*D28
  0
BLOCK_RECORD
  5
5CD
330
1
100
AcDbSymbolTableRecord
100
AcDbBlockTableRecord
  2
*D29
  0
BLOCK_RECORD
  5
5E4
330
1
100
AcDbSymbolTableRecord
100
AcDbBlockTableRecord
  2
*D30
  0
ENDTAB
  0
ENDSEC
  0
SECTION
  2
BLOCKS
  0
BLOCK
  5
20
330
1F
100
AcDbEntity
  8
0
100
AcDbBlockBegin
  2
*MODEL_SPACE
 70
     0
 10
0.0
 20
0.0
 30
0.0
  3
*MODEL_SPACE
  1

  0
ENDBLK
  5
21
330
1F
100
AcDbEntity
  8
0
100
AcDbBlockEnd
  0
BLOCK
  5
1C
330
1B
100
AcDbEntity
 67
     1
  8
0
100
AcDbBlockBegin
  2
*PAPER_SPACE
 70
     0
 10
0.0
 20
0.0
 30
0.0
  3
*PAPER_SPACE
  1

  0
ENDBLK
  5
1D
330
1B
100
AcDbEntity
 67
     1
  8
0
100
AcDbBlockEnd
  0
BLOCK
  5
4E
330
4D
100
AcDbEntity
  8
0
100
AcDbBlockBegin
  2
EX_NORM
 70
     0
 10
0.0
 20
0.0
 30
0.0
  3
EX_NORM
  1

  0
LINE
  5
77
330
4D
100
AcDbEntity
  8
0
  6
CONTINUOUS
 62
     0
100
AcDbLine
 10
0.0
 20
0.0
 30
0.0
 11
-1.0
 21
0.0
 31
0.0
  0
LINE
  5
78
330
4D
100
AcDbEntity
  8
0
  6
CONTINUOUS
 62
     0
100
AcDbLine
 10
0.0
 20
0.0
 30
0.0
 11
-1.0
 21
0.166666667
 31
0.0
  0
LINE
  5
79
330
4D
100
AcDbEntity
  8
0
  6
CONTINUOUS
 62
     0
100
AcDbLine
 10
0.0
 20
0.0
 30
0.0
 11
-1.0
 21
-0.166666667
 31
0.0
  0
ENDBLK
  5
4F
330
4D
100
AcDbEntity
  8
0
100
AcDbBlockEnd
  0
BLOCK
  5
51
330
50
100
AcDbEntity
  8
0
100
AcDbBlockBegin
  2
EX_BNORM
 70
     0
 10
0.0
 20
0.0
 30
0.0
  3
EX_BNORM
  1

  0
LINE
  5
7A
330
50
100
AcDbEntity
  8
0
  6
CONTINUOUS
 62
     0
100
AcDbLine
 10
0.0
 20
0.0
 30
0.0
 11
-1.0
 21
0.0
 31
0.0
  0
LINE
  5
7B
330
50
100
AcDbEntity
  8
0
  6
CONTINUOUS
 62
     0
100
AcDbLine
 10
0.0
 20
0.0
 30
0.0
 11
-1.0
 21
0.166666667
 31
0.0
  0
LINE
  5
7C
330
50
100
AcDbEntity
  8
0
  6
CONTINUOUS
 62
     0
100
AcDbLine
 10
0.0
 20
0.0
 30
0.0
 11
-1.0
 21
-0.166666667
 31
0.0
  0
LINE
  5
7D
330
50
100
AcDbEntity
  8
0
  6
CONTINUOUS
 62
     0
100
AcDbLine
 10
0.0
 20
0.0
 30
0.0
 11
-1.0
 21
0.083333333
 31
0.0
  0
LINE
  5
7E
330
50
100
AcDbEntity
  8
0
  6
CONTINUOUS
 62
     0
100
AcDbLine
 10
0.0
 20
0.0
 30
0.0
 11
-1.0
 21
-0.083333333
 31
0.0
  0
LINE
  5
7F
330
50
100
AcDbEntity
  8
0
  6
CONTINUOUS
 62
     0
100
AcDbLine
 10
-1.0
 20
0.166666667
 30
0.0
 11
-1.0
 21
-0.166666667
 31
0.0
  0
ENDBLK
  5
52
330
50
100
AcDbEntity
  8
0
100
AcDbBlockEnd
  0
BLOCK
  5
54
330
53
100
AcDbEntity
  8
0
100
AcDbBlockBegin
  2
EX_BCIR
 70
     0
 10
0.0
 20
0.0
 30
0.0
  3
EX_BCIR
  1

  0
LINE
  5
80
330
53
100
AcDbEntity
  8
0
  6
CONTINUOUS
 62
     0
100
AcDbLine
 10
0.0
 20
0.0
 30
0.0
 11
-1.0
 21
0.0
 31
0.0
  0
CIRCLE
  5
81
330
53
100
AcDbEntity
  8
0
  6
CONTINUOUS
 62
     0
100
AcDbCircle
 10
0.0
 20
0.0
 30
0.0
 40
0.5
  0
CIRCLE
  5
82
330
53
100
AcDbEntity
  8
0
  6
CONTINUOUS
 62
     0
100
AcDbCircle
 10
0.0
 20
0.0
 30
0.0
 40
0.25
  0
ENDBLK
  5
55
330
53
100
AcDbEntity
  8
0
100
AcDbBlockEnd
  0
BLOCK
  5
57
330
56
100
AcDbEntity
  8
0
100
AcDbBlockBegin
  2
EX_RCIVIL
 70
     0
 10
0.0
 20
0.0
 30
0.0
  3
EX_RCIVIL
  1

  0
LINE
  5
83
330
56
100
AcDbEntity
  8
0
  6
CONTINUOUS
 62
     0
100
AcDbLine
 10
0.0
 20
0.0
 30
0.0
 11
-1.0
 21
0.0
 31
0.0
  0
LINE
  5
84
330
56
100
AcDbEntity
  8
0
  6
CONTINUOUS
 62
     0
100
AcDbLine
 10
-1.0
 20
-0.25
 30
0.0
 11
0.0
 21
-0.25
 31
0.0
  0
LINE
  5
85
330
56
100
AcDbEntity
  8
0
  6
CONTINUOUS
 62
     0
100
AcDbLine
 10
-1.0
 20
-0.125
 30
0.0
 11
0.0
 21
-0.125
 31
0.0
  0
ENDBLK
  5
58
330
56
100
AcDbEntity
  8
0
100
AcDbBlockEnd
  0
BLOCK
  5
5A
330
59
100
AcDbEntity
  8
0
100
AcDbBlockBegin
  2
EX_SLANT
 70
     0
 10
0.0
 20
0.0
 30
0.0
  3
EX_SLANT
  1

  0
LINE
  5
86
330
59
100
AcDbEntity
  8
0
  6
CONTINUOUS
 62
     0
100
AcDbLine
 10
0.0
 20
0.0
 30
0.0
 11
-1.0
 21
0.0
 31
0.0
  0
LINE
  5
87
330
59
100
AcDbEntity
  8
0
  6
CONTINUOUS
 62
     0
100
AcDbLine
 10
0.707106781
 20
0.707106781
 30
0.0
 11
-0.707106781
 21
-0.707106781
 31
0.0
  0
ENDBLK
  5
5B
330
59
100
AcDbEntity
  8
0
100
AcDbBlockEnd
  0
BLOCK
  5
5D
330
5C
100
AcDbEntity
  8
0
100
AcDbBlockBegin
  2
EX_NONE
 70
     0
 10
0.0
 20
0.0
 30
0.0
  3
EX_NONE
  1

  0
LINE
  5
88
330
5C
100
AcDbEntity
  8
0
  6
CONTINUOUS
 62
     0
100
AcDbLine
 10
0.0
 20
0.0
 30
0.0
 11
-1.0
 21
0.0
 31
0.0
  0
ENDBLK
  5
5E
330
5C
100
AcDbEntity
  8
0
100
AcDbBlockEnd
  0
BLOCK
  5
60
330
5F
100
AcDbEntity
  8
0
100
AcDbBlockBegin
  2
EX_CIVIL
 70
     0
 10
0.0
 20
0.0
 30
0.0
  3
EX_CIVIL
  1

  0
LINE
  5
89
330
5F
100
AcDbEntity
  8
0
  6
CONTINUOUS
 62
     0
100
AcDbLine
 10
0.0
 20
0.0
 30
0.0
 11
-1.0
 21
0.0
 31
0.0
  0
LINE
  5
8A
330
5F
100
AcDbEntity
  8
0
  6
CONTINUOUS
 62
     0
100
AcDbLine
 10
-1.0
 20
0.25
 30
0.0
 11
0.0
 21
0.25
 31
0.0
  0
LINE
  5
8B
330
5F
100
AcDbEntity
  8
0
  6
CONTINUOUS
 62
     0
100
AcDbLine
 10
-1.0
 20
0.125
 30
0.0
 11
0.0
 21
0.125
 31
0.0
  0
ENDBLK
  5
61
330
5F
100
AcDbEntity
  8
0
100
AcDbBlockEnd
  0
BLOCK
  5
63
330
62
100
AcDbEntity
  8
0
100
AcDbBlockBegin
  2
EX_WCIR
 70
     0
 10
0.0
 20
0.0
 30
0.0
  3
EX_WCIR
  1

  0
LINE
  5
8C
330
62
100
AcDbEntity
  8
0
  6
CONTINUOUS
 62
     0
100
AcDbLine
 10
0.0
 20
0.0
 30
0.0
 11
-1.0
 21
0.0
 31
0.0
  0
CIRCLE
  5
8D
330
62
100
AcDbEntity
  8
0
  6
CONTINUOUS
 62
     0
100
AcDbCircle
 10
0.0
 20
0.0
 30
0.0
 40
0.5
  0
ENDBLK
  5
64
330
62
100
AcDbEntity
  8
0
100
AcDbBlockEnd
  0
BLOCK
  5
66
330
65
100
AcDbEntity
  8
0
100
AcDbBlockBegin
  2
EX_WCIR2
 70
     0
 10
0.0
 20
0.0
 30
0.0
  3
EX_WCIR2
  1

  0
LINE
  5
8E
330
65
100
AcDbEntity
  8
0
  6
CONTINUOUS
 62
     0
100
AcDbLine
 10
-0.5
 20
0.0
 30
0.0
 11
-1.0
 21
0.0
 31
0.0
  0
CIRCLE
  5
8F
330
65
100
AcDbEntity
  8
0
  6
CONTINUOUS
 62
     0
100
AcDbCircle
 10
0.0
 20
0.0
 30
0.0
 40
0.5
  0
ENDBLK
  5
67
330
65
100
AcDbEntity
  8
0
100
AcDbBlockEnd
  0
BLOCK
  5
69
330
68
100
AcDbEntity
  8
0
100
AcDbBlockBegin
  2
EX_WNORM
 70
     0
 10
0.0
 20
0.0
 30
0.0
  3
EX_WNORM
  1

  0
LINE
  5
90
330
68
100
AcDbEntity
  8
0
  6
CONTINUOUS
 62
     0
100
AcDbLine
 10
-1.0
 20
0.0
 30
0.0
 11
-1.0
 21
0.0
 31
0.0
  0
LINE
  5
91
330
68
100
AcDbEntity
  8
0
  6
CONTINUOUS
 62
     0
100
AcDbLine
 10
0.0
 20
0.0
 30
0.0
 11
-1.0
 21
0.166666667
 31
0.0
  0
LINE
  5
92
330
68
100
AcDbEntity
  8
0
  6
CONTINUOUS
 62
     0
100
AcDbLine
 10
0.0
 20
0.0
 30
0.0
 11
-1.0
 21
-0.166666667
 31
0.0
  0
LINE
  5
93
330
68
100
AcDbEntity
  8
0
  6
CONTINUOUS
 62
     0
100
AcDbLine
 10
-1.0
 20
0.166666667
 30
0.0
 11
-1.0
 21
-0.166666667
 31
0.0
  0
ENDBLK
  5
6A
330
68
100
AcDbEntity
  8
0
100
AcDbBlockEnd
  0
BLOCK
  5
6C
330
6B
100
AcDbEntity
  8
0
100
AcDbBlockBegin
  2
EX_NNORM
 70
     0
 10
0.0
 20
0.0
 30
0.0
  3
EX_NNORM
  1

  0
LINE
  5
94
330
6B
100
AcDbEntity
  8
0
  6
CONTINUOUS
 62
     0
100
AcDbLine
 10
0.0
 20
0.0
 30
0.0
 11
-1.0
 21
0.0
 31
0.0
  0
LINE
  5
95
330
6B
100
AcDbEntity
  8
0
  6
CONTINUOUS
 62
     0
100
AcDbLine
 10
0.0
 20
0.0
 30
0.0
 11
-1.0
 21
0.166666667
 31
0.0
  0
LINE
  5
96
330
6B
100
AcDbEntity
  8
0
  6
CONTINUOUS
 62
     0
100
AcDbLine
 10
0.0
 20
0.0
 30
0.0
 11
-1.0
 21
-0.166666667
 31
0.0
  0
LINE
  5
97
330
6B
100
AcDbEntity
  8
0
  6
CONTINUOUS
 62
     0
100
AcDbLine
 10
-1.0
 20
0.166666667
 30
0.0
 11
-1.0
 21
-0.166666667
 31
0.0
  0
ENDBLK
  5
6D
330
6B
100
AcDbEntity
  8
0
100
AcDbBlockEnd
  0
BLOCK
  5
6F
330
6E
100
AcDbEntity
  8
0
100
AcDbBlockBegin
  2
EX_BBOX
 70
     0
 10
0.0
 20
0.0
 30
0.0
  3
EX_BBOX
  1

  0
LINE
  5
98
330
6E
100
AcDbEntity
  8
0
  6
CONTINUOUS
 62
     0
100
AcDbLine
 10
0.0
 20
0.0
 30
0.0
 11
-1.0
 21
0.0
 31
0.0
  0
LINE
  5
99
330
6E
100
AcDbEntity
  8
0
  6
CONTINUOUS
 62
     0
100
AcDbLine
 10
-0.5
 20
0.5
 30
0.0
 11
0.5
 21
0.5
 31
0.0
  0
LINE
  5
9A
330
6E
100
AcDbEntity
  8
0
  6
CONTINUOUS
 62
     0
100
AcDbLine
 10
0.5
 20
0.5
 30
0.0
 11
0.5
 21
-0.5
 31
0.0
  0
LINE
  5
9B
330
6E
100
AcDbEntity
  8
0
  6
CONTINUOUS
 62
     0
100
AcDbLine
 10
0.5
 20
-0.5
 30
0.0
 11
-0.5
 21
-0.5
 31
0.0
  0
LINE
  5
9C
330
6E
100
AcDbEntity
  8
0
  6
CONTINUOUS
 62
     0
100
AcDbLine
 10
-0.5
 20
-0.5
 30
0.0
 11
-0.5
 21
0.5
 31
0.0
  0
LINE
  5
9D
330
6E
100
AcDbEntity
  8
0
  6
CONTINUOUS
 62
     0
100
AcDbLine
 10
-0.25
 20
0.25
 30
0.0
 11
0.25
 21
0.25
 31
0.0
  0
LINE
  5
9E
330
6E
100
AcDbEntity
  8
0
  6
CONTINUOUS
 62
     0
100
AcDbLine
 10
0.25
 20
0.25
 30
0.0
 11
0.25
 21
-0.25
 31
0.0
  0
LINE
  5
9F
330
6E
100
AcDbEntity
  8
0
  6
CONTINUOUS
 62
     0
100
AcDbLine
 10
0.25
 20
-0.25
 30
0.0
 11
-0.25
 21
-0.25
 31
0.0
  0
LINE
  5
A0
330
6E
100
AcDbEntity
  8
0
  6
CONTINUOUS
 62
     0
100
AcDbLine
 10
-0.25
 20
-0.25
 30
0.0
 11
-0.25
 21
0.25
 31
0.0
  0
ENDBLK
  5
70
330
6E
100
AcDbEntity
  8
0
100
AcDbBlockEnd
  0
BLOCK
  5
72
330
71
100
AcDbEntity
  8
0
100
AcDbBlockBegin
  2
EX_WBOX
 70
     0
 10
0.0
 20
0.0
 30
0.0
  3
EX_WBOX
  1

  0
LINE
  5
A1
330
71
100
AcDbEntity
  8
0
  6
CONTINUOUS
 62
     0
100
AcDbLine
 10
-0.5
 20
0.0
 30
0.0
 11
-1.0
 21
0.0
 31
0.0
  0
LINE
  5
A2
330
71
100
AcDbEntity
  8
0
  6
CONTINUOUS
 62
     0
100
AcDbLine
 10
-0.5
 20
0.5
 30
0.0
 11
0.5
 21
0.5
 31
0.0
  0
LINE
  5
A3
330
71
100
AcDbEntity
  8
0
  6
CONTINUOUS
 62
     0
100
AcDbLine
 10
0.5
 20
0.5
 30
0.0
 11
0.5
 21
-0.5
 31
0.0
  0
LINE
  5
A4
330
71
100
AcDbEntity
  8
0
  6
CONTINUOUS
 62
     0
100
AcDbLine
 10
0.5
 20
-0.5
 30
0.0
 11
-0.5
 21
-0.5
 31
0.0
  0
LINE
  5
A5
330
71
100
AcDbEntity
  8
0
  6
CONTINUOUS
 62
     0
100
AcDbLine
 10
-0.5
 20
-0.5
 30
0.0
 11
-0.5
 21
0.5
 31
0.0
  0
ENDBLK
  5
73
330
71
100
AcDbEntity
  8
0
100
AcDbBlockEnd
  0
BLOCK
  5
75
330
74
100
AcDbEntity
  8
0
100
AcDbBlockBegin
  2
EX_INTEGRAL
 70
     0
 10
0.0
 20
0.0
 30
0.0
  3
EX_INTEGRAL
  1

  0
LINE
  5
A6
330
74
100
AcDbEntity
  8
0
  6
CONTINUOUS
 62
     0
100
AcDbLine
 10
0.0
 20
0.0
 30
0.0
 11
-1.0
 21
0.0
 31
0.0
  0
ARC
  5
A7
330
74
100
AcDbEntity
  8
0
  6
CONTINUOUS
 62
     0
100
AcDbCircle
 10
0.542115
 20
0.164992
 30
0.0
 40
0.56667
100
AcDbArc
 50
73.07249033629006
 51
196.9275130221199
  0
ARC
  5
A8
330
74
100
AcDbEntity
  8
0
  6
CONTINUOUS
 62
     0
100
AcDbCircle
 10
-0.542115
 20
-0.164992
 30
0.0
 40
0.56667
100
AcDbArc
 50
253.0724869220464
 51
16.9275130559125
  0
ENDBLK
  5
76
330
74
100
AcDbEntity
  8
0
100
AcDbBlockEnd
  0
BLOCK
  5
127
330
126
100
AcDbEntity
  8
0
100
AcDbBlockBegin
  2
*D15
 70
     1
 10
0.0
 20
0.0
 30
0.0
  3
*D15
  1

  0
LINE
  5
129
330
126
100
AcDbEntity
  8
化粧台
  6
CONTINUOUS
 62
     3
100
AcDbLine
 10
2501.549999999999
 20
1411.0
 30
0.0
 11
2728.5
 21
1411.0
 31
0.0
  0
LINE
  5
12A
330
126
100
AcDbEntity
  8
化粧台
  6
CONTINUOUS
 62
     3
100
AcDbLine
 10
2713.5
 20
1366.000003814697
 30
0.0
 11
2713.5
 21
985.9999961853027
 31
0.0
  0
INSERT
  5
12B
330
126
100
AcDbEntity
  8
化粧台
 62
     3
100
AcDbBlockReference
  2
EX_NORM
 10
2713.5
 20
1411.0
 30
0.0
 41
44.99999618530273
 42
44.99999618530273
 43
44.99999618530273
 50
90.0
  0
INSERT
  5
12C
330
126
100
AcDbEntity
  8
化粧台
 62
     3
100
AcDbBlockReference
  2
EX_NORM
 10
2713.5
 20
941.0
 30
0.0
 41
44.99999618530273
 42
44.99999618530273
 43
44.99999618530273
 50
270.0
  0
MTEXT
  5
12D
330
126
100
AcDbEntity
  8
化粧台
 62
     2
100
AcDbMText
 10
2678.250000089407
 20
1176.0
 30
0.0
 40
59.99999618530273
 41
0.0
 71
     5
 72
     1
  1
470（壁排水）
  7
EXCADDIM1
 11
0.0
 21
1.0
 31
0.0
  0
POINT
  5
12E
330
126
100
AcDbEntity
  8
DEFPOINTS
 62
     0
100
AcDbPoint
 10
2494.049999999999
 20
1411.0
 30
0.0
  0
POINT
  5
12F
330
126
100
AcDbEntity
  8
DEFPOINTS
 62
     0
100
AcDbPoint
 10
2623.5
 20
941.0
 30
0.0
  0
POINT
  5
130
330
126
100
AcDbEntity
  8
DEFPOINTS
 62
     0
100
AcDbPoint
 10
2713.5
 20
941.0
 30
0.0
  0
ENDBLK
  5
128
330
126
100
AcDbEntity
  8
0
100
AcDbBlockEnd
  0
BLOCK
  5
519
330
518
100
AcDbEntity
  8
0
100
AcDbBlockBegin
  2
*D16
 70
     1
 10
0.0
 20
0.0
 30
0.0
  3
*D16
  1

  0
LINE
  5
51B
330
518
100
AcDbEntity
  8
寸法
  6
CONTINUOUS
 62
     3
100
AcDbLine
 10
2031.999999999998
 20
930.5000001788139
 30
0.0
 11
2031.999999999998
 21
597.0
 31
0.0
  0
LINE
  5
51C
330
518
100
AcDbEntity
  8
寸法
  6
CONTINUOUS
 62
     3
100
AcDbLine
 10
2456.999999999999
 20
930.5000001788139
 30
0.0
 11
2456.999999999999
 21
597.0
 31
0.0
  0
LINE
  5
51D
330
518
100
AcDbEntity
  8
寸法
  6
CONTINUOUS
 62
     3
100
AcDbLine
 10
2076.999996185301
 20
612.0
 30
0.0
 11
2412.000003814696
 21
612.0
 31
0.0
  0
INSERT
  5
51E
330
518
100
AcDbEntity
  8
寸法
 62
     3
100
AcDbBlockReference
  2
EX_NORM
 10
2031.999999999998
 20
612.0
 30
0.0
 41
44.99999618530273
 42
44.99999618530273
 43
44.99999618530273
 50
180.0
  0
INSERT
  5
51F
330
518
100
AcDbEntity
  8
寸法
 62
     3
100
AcDbBlockReference
  2
EX_NORM
 10
2456.999999999999
 20
612.0
 30
0.0
 41
44.99999618530273
 42
44.99999618530273
 43
44.99999618530273
  0
MTEXT
  5
520
330
518
100
AcDbEntity
  8
寸法
 62
     2
100
AcDbMText
 10
2244.499999999999
 20
647.249999910593
 30
0.0
 40
59.99999618530273
 41
0.0
 71
     5
 72
     1
  1
425
  7
EXCADDIM1
  0
POINT
  5
521
330
518
100
AcDbEntity
  8
DEFPOINTS
 62
     0
100
AcDbPoint
 10
2031.999999999998
 20
941.0
 30
0.0
  0
POINT
  5
522
330
518
100
AcDbEntity
  8
DEFPOINTS
 62
     0
100
AcDbPoint
 10
2456.999999999999
 20
941.0
 30
0.0
  0
POINT
  5
523
330
518
100
AcDbEntity
  8
DEFPOINTS
 62
     0
100
AcDbPoint
 10
2456.999999999999
 20
612.0
 30
0.0
  0
ENDBLK
  5
51A
330
518
100
AcDbEntity
  8
0
100
AcDbBlockEnd
  0
BLOCK
  5
538
330
537
100
AcDbEntity
  8
0
100
AcDbBlockBegin
  2
*D17
 70
     1
 10
0.0
 20
0.0
 30
0.0
  3
*D17
  1

  0
LINE
  5
53A
330
537
100
AcDbEntity
  8
寸法
  6
CONTINUOUS
 62
     3
100
AcDbLine
 10
1290.499999821185
 20
3430.0
 30
0.0
 11
1400.999999999997
 21
3430.0
 31
0.0
  0
LINE
  5
53B
330
537
100
AcDbEntity
  8
寸法
  6
CONTINUOUS
 62
     3
100
AcDbLine
 10
1385.999999999997
 20
3835.000003814697
 30
0.0
 11
1385.999999999997
 21
3474.999996185303
 31
0.0
  0
INSERT
  5
53C
330
537
100
AcDbEntity
  8
寸法
 62
     3
100
AcDbBlockReference
  2
EX_NORM
 10
1385.999999999997
 20
3880.0
 30
0.0
 41
44.99999618530273
 42
44.99999618530273
 43
44.99999618530273
 50
90.0
  0
INSERT
  5
53D
330
537
100
AcDbEntity
  8
寸法
 62
     3
100
AcDbBlockReference
  2
EX_NORM
 10
1385.999999999997
 20
3430.0
 30
0.0
 41
44.99999618530273
 42
44.99999618530273
 43
44.99999618530273
 50
270.0
  0
MTEXT
  5
53E
330
537
100
AcDbEntity
  8
寸法
 62
     2
100
AcDbMText
 10
1350.750000089405
 20
3654.999999999999
 30
0.0
 40
59.99999618530273
 41
0.0
 71
     5
 72
     1
  1
450
  7
EXCADDIM1
 11
0.0
 21
1.0
 31
0.0
  0
POINT
  5
53F
330
537
100
AcDbEntity
  8
DEFPOINTS
 62
     0
100
AcDbPoint
 10
1279.999999999999
 20
3880.0
 30
0.0
  0
POINT
  5
540
330
537
100
AcDbEntity
  8
DEFPOINTS
 62
     0
100
AcDbPoint
 10
1279.999999999999
 20
3430.0
 30
0.0
  0
POINT
  5
541
330
537
100
AcDbEntity
  8
DEFPOINTS
 62
     0
100
AcDbPoint
 10
1385.999999999997
 20
3430.0
 30
0.0
  0
ENDBLK
  5
539
330
537
100
AcDbEntity
  8
0
100
AcDbBlockEnd
  0
BLOCK
  5
544
330
543
100
AcDbEntity
  8
0
100
AcDbBlockBegin
  2
*D18
 70
     1
 10
0.0
 20
0.0
 30
0.0
  3
*D18
  1

  0
LINE
  5
546
330
543
100
AcDbEntity
  8
寸法
  6
CONTINUOUS
 62
     3
100
AcDbLine
 10
529.9999999999982
 20
3419.500000178814
 30
0.0
 11
529.9999999999982
 21
3163.5
 31
0.0
  0
LINE
  5
547
330
543
100
AcDbEntity
  8
寸法
  6
CONTINUOUS
 62
     3
100
AcDbLine
 10
1279.999999999997
 20
3419.500000178814
 30
0.0
 11
1279.999999999997
 21
3163.5
 31
0.0
  0
LINE
  5
548
330
543
100
AcDbEntity
  8
寸法
  6
CONTINUOUS
 62
     3
100
AcDbLine
 10
574.9999961853009
 20
3178.5
 30
0.0
 11
1235.000003814694
 21
3178.5
 31
0.0
  0
INSERT
  5
549
330
543
100
AcDbEntity
  8
寸法
 62
     3
100
AcDbBlockReference
  2
EX_NORM
 10
529.9999999999982
 20
3178.5
 30
0.0
 41
44.99999618530273
 42
44.99999618530273
 43
44.99999618530273
 50
180.0
  0
INSERT
  5
54A
330
543
100
AcDbEntity
  8
寸法
 62
     3
100
AcDbBlockReference
  2
EX_NORM
 10
1279.999999999997
 20
3178.5
 30
0.0
 41
44.99999618530273
 42
44.99999618530273
 43
44.99999618530273
  0
MTEXT
  5
54B
330
543
100
AcDbEntity
  8
寸法
 62
     2
100
AcDbMText
 10
904.9999999999978
 20
3213.749999910593
 30
0.0
 40
59.99999618530273
 41
0.0
 71
     5
 72
     1
  1
750
  7
EXCADDIM1
  0
POINT
  5
54C
330
543
100
AcDbEntity
  8
DEFPOINTS
 62
     0
100
AcDbPoint
 10
529.9999999999982
 20
3430.0
 30
0.0
  0
POINT
  5
54D
330
543
100
AcDbEntity
  8
DEFPOINTS
 62
     0
100
AcDbPoint
 10
1279.999999999997
 20
3430.0
 30
0.0
  0
POINT
  5
54E
330
543
100
AcDbEntity
  8
DEFPOINTS
 62
     0
100
AcDbPoint
 10
1279.999999999997
 20
3178.5
 30
0.0
  0
ENDBLK
  5
545
330
543
100
AcDbEntity
  8
0
100
AcDbBlockEnd
  0
BLOCK
  5
551
330
550
100
AcDbEntity
  8
0
100
AcDbBlockBegin
  2
*D19
 70
     1
 10
0.0
 20
0.0
 30
0.0
  3
*D19
  1

  0
LINE
  5
553
330
550
100
AcDbEntity
  8
寸法
  6
CONTINUOUS
 62
     3
100
AcDbLine
 10
915.4999998211842
 20
3400.0
 30
0.0
 11
1490.999999999997
 21
3400.0
 31
0.0
  0
LINE
  5
554
330
550
100
AcDbEntity
  8
寸法
  6
CONTINUOUS
 62
     3
100
AcDbLine
 10
1475.999999999997
 20
3444.999996185303
 30
0.0
 11
1475.999999999997
 21
3835.000003814697
 31
0.0
  0
INSERT
  5
555
330
550
100
AcDbEntity
  8
寸法
 62
     3
100
AcDbBlockReference
  2
EX_NORM
 10
1475.999999999997
 20
3400.0
 30
0.0
 41
44.99999618530273
 42
44.99999618530273
 43
44.99999618530273
 50
270.0
  0
INSERT
  5
556
330
550
100
AcDbEntity
  8
寸法
 62
     3
100
AcDbBlockReference
  2
EX_NORM
 10
1475.999999999997
 20
3880.0
 30
0.0
 41
44.99999618530273
 42
44.99999618530273
 43
44.99999618530273
 50
90.0
  0
MTEXT
  5
557
330
550
100
AcDbEntity
  8
寸法
 62
     2
100
AcDbMText
 10
1440.750000089405
 20
3640.0
 30
0.0
 40
59.99999618530273
 41
0.0
 71
     5
 72
     1
  1
480
  7
EXCADDIM1
 11
0.0
 21
1.0
 31
0.0
  0
POINT
  5
558
330
550
100
AcDbEntity
  8
DEFPOINTS
 62
     0
100
AcDbPoint
 10
904.9999999999982
 20
3400.0
 30
0.0
  0
POINT
  5
559
330
550
100
AcDbEntity
  8
DEFPOINTS
 62
     0
100
AcDbPoint
 10
1279.999999999997
 20
3880.0
 30
0.0
  0
POINT
  5
55A
330
550
100
AcDbEntity
  8
DEFPOINTS
 62
     0
100
AcDbPoint
 10
1475.999999999997
 20
3880.0
 30
0.0
  0
ENDBLK
  5
552
330
550
100
AcDbEntity
  8
0
100
AcDbBlockEnd
  0
BLOCK
  5
55D
330
55C
100
AcDbEntity
  8
0
100
AcDbBlockBegin
  2
*D20
 70
     1
 10
0.0
 20
0.0
 30
0.0
  3
*D20
  1

  0
LINE
  5
55F
330
55C
100
AcDbEntity
  8
寸法
  6
CONTINUOUS
 62
     3
100
AcDbLine
 10
679.9999999999982
 20
3614.500000178814
 30
0.0
 11
679.9999999999982
 21
3253.5
 31
0.0
  0
LINE
  5
560
330
55C
100
AcDbEntity
  8
寸法
  6
CONTINUOUS
 62
     3
100
AcDbLine
 10
1129.999999999997
 20
3614.500000178814
 30
0.0
 11
1129.999999999997
 21
3253.5
 31
0.0
  0
LINE
  5
561
330
55C
100
AcDbEntity
  8
寸法
  6
CONTINUOUS
 62
     3
100
AcDbLine
 10
724.9999961853009
 20
3268.5
 30
0.0
 11
1085.000003814694
 21
3268.5
 31
0.0
  0
INSERT
  5
562
330
55C
100
AcDbEntity
  8
寸法
 62
     3
100
AcDbBlockReference
  2
EX_NORM
 10
679.9999999999982
 20
3268.5
 30
0.0
 41
44.99999618530273
 42
44.99999618530273
 43
44.99999618530273
 50
180.0
  0
INSERT
  5
563
330
55C
100
AcDbEntity
  8
寸法
 62
     3
100
AcDbBlockReference
  2
EX_NORM
 10
1129.999999999997
 20
3268.5
 30
0.0
 41
44.99999618530273
 42
44.99999618530273
 43
44.99999618530273
  0
MTEXT
  5
564
330
55C
100
AcDbEntity
  8
寸法
 62
     2
100
AcDbMText
 10
904.9999999999978
 20
3303.749999910593
 30
0.0
 40
59.99999618530273
 41
0.0
 71
     5
 72
     1
  1
%%c450
  7
EXCADDIM1
  0
POINT
  5
565
330
55C
100
AcDbEntity
  8
DEFPOINTS
 62
     0
100
AcDbPoint
 10
679.9999999999982
 20
3625.0
 30
0.0
  0
POINT
  5
566
330
55C
100
AcDbEntity
  8
DEFPOINTS
 62
     0
100
AcDbPoint
 10
1129.999999999997
 20
3625.0
 30
0.0
  0
POINT
  5
567
330
55C
100
AcDbEntity
  8
DEFPOINTS
 62
     0
100
AcDbPoint
 10
1129.999999999997
 20
3268.5
 30
0.0
  0
ENDBLK
  5
55E
330
55C
100
AcDbEntity
  8
0
100
AcDbBlockEnd
  0
BLOCK
  5
56A
330
569
100
AcDbEntity
  8
0
100
AcDbBlockBegin
  2
*D21
 70
     1
 10
0.0
 20
0.0
 30
0.0
  3
*D21
  1

  0
LINE
  5
56C
330
569
100
AcDbEntity
  8
寸法
  6
CONTINUOUS
 62
     3
100
AcDbLine
 10
1290.499999821183
 20
1640.0
 30
0.0
 11
1409.999999999997
 21
1640.0
 31
0.0
  0
LINE
  5
56D
330
569
100
AcDbEntity
  8
寸法
  6
CONTINUOUS
 62
     3
100
AcDbLine
 10
1394.999999999997
 20
985.9999961853028
 30
0.0
 11
1394.999999999997
 21
1595.000003814697
 31
0.0
  0
INSERT
  5
56E
330
569
100
AcDbEntity
  8
寸法
 62
     3
100
AcDbBlockReference
  2
EX_NORM
 10
1394.999999999997
 20
941.0000000000001
 30
0.0
 41
44.99999618530273
 42
44.99999618530273
 43
44.99999618530273
 50
270.0
  0
INSERT
  5
56F
330
569
100
AcDbEntity
  8
寸法
 62
     3
100
AcDbBlockReference
  2
EX_NORM
 10
1394.999999999997
 20
1640.0
 30
0.0
 41
44.99999618530273
 42
44.99999618530273
 43
44.99999618530273
 50
90.0
  0
MTEXT
  5
570
330
569
100
AcDbEntity
  8
寸法
 62
     2
100
AcDbMText
 10
1359.750000089404
 20
1290.5
 30
0.0
 40
59.99999618530273
 41
0.0
 71
     5
 72
     1
  1
699
  7
EXCADDIM1
 11
0.0
 21
1.0
 31
0.0
  0
POINT
  5
571
330
569
100
AcDbEntity
  8
DEFPOINTS
 62
     0
100
AcDbPoint
 10
1277.999999999997
 20
941.0
 30
0.0
  0
POINT
  5
572
330
569
100
AcDbEntity
  8
DEFPOINTS
 62
     0
100
AcDbPoint
 10
1279.999999999997
 20
1640.0
 30
0.0
  0
POINT
  5
573
330
569
100
AcDbEntity
  8
DEFPOINTS
 62
     0
100
AcDbPoint
 10
1394.999999999997
 20
1640.0
 30
0.0
  0
ENDBLK
  5
56B
330
569
100
AcDbEntity
  8
0
100
AcDbBlockEnd
  0
BLOCK
  5
576
330
575
100
AcDbEntity
  8
0
100
AcDbBlockBegin
  2
*D22
 70
     1
 10
0.0
 20
0.0
 30
0.0
  3
*D22
  1

  0
LINE
  5
578
330
575
100
AcDbEntity
  8
寸法
  6
CONTINUOUS
 62
     3
100
AcDbLine
 10
1484.999999999997
 20
985.9999961853028
 30
0.0
 11
1484.999999999997
 21
1765.000003814697
 31
0.0
  0
INSERT
  5
579
330
575
100
AcDbEntity
  8
寸法
 62
     3
100
AcDbBlockReference
  2
EX_NORM
 10
1484.999999999997
 20
941.0000000000001
 30
0.0
 41
44.99999618530273
 42
44.99999618530273
 43
44.99999618530273
 50
270.0
  0
INSERT
  5
57A
330
575
100
AcDbEntity
  8
寸法
 62
     3
100
AcDbBlockReference
  2
EX_NORM
 10
1484.999999999997
 20
1810.0
 30
0.0
 41
44.99999618530273
 42
44.99999618530273
 43
44.99999618530273
 50
90.0
  0
MTEXT
  5
57B
330
575
100
AcDbEntity
  8
寸法
 62
     2
100
AcDbMText
 10
1449.750000089404
 20
1375.5
 30
0.0
 40
59.99999618530273
 41
0.0
 71
     5
 72
     1
  1
869
  7
EXCADDIM1
 11
0.0
 21
1.0
 31
0.0
  0
POINT
  5
57C
330
575
100
AcDbEntity
  8
DEFPOINTS
 62
     0
100
AcDbPoint
 10
1277.999999999997
 20
941.0
 30
0.0
  0
POINT
  5
57D
330
575
100
AcDbEntity
  8
DEFPOINTS
 62
     0
100
AcDbPoint
 10
904.9999999999982
 20
1810.0
 30
0.0
  0
POINT
  5
57E
330
575
100
AcDbEntity
  8
DEFPOINTS
 62
     0
100
AcDbPoint
 10
1484.999999999997
 20
1810.0
 30
0.0
  0
ENDBLK
  5
577
330
575
100
AcDbEntity
  8
0
100
AcDbBlockEnd
  0
BLOCK
  5
581
330
580
100
AcDbEntity
  8
0
100
AcDbBlockBegin
  2
*D23
 70
     1
 10
0.0
 20
0.0
 30
0.0
  3
*D23
  1

  0
LINE
  5
583
330
580
100
AcDbEntity
  8
寸法
  6
CONTINUOUS
 62
     3
100
AcDbLine
 10
2487.5
 20
1381.0
 30
0.0
 11
2638.5
 21
1381.0
 31
0.0
  0
LINE
  5
584
330
580
100
AcDbEntity
  8
寸法
  6
CONTINUOUS
 62
     3
100
AcDbLine
 10
2623.5
 20
1336.000003814697
 30
0.0
 11
2623.5
 21
985.9999961853027
 31
0.0
  0
INSERT
  5
585
330
580
100
AcDbEntity
  8
寸法
 62
     3
100
AcDbBlockReference
  2
EX_NORM
 10
2623.5
 20
1381.0
 30
0.0
 41
44.99999618530273
 42
44.99999618530273
 43
44.99999618530273
 50
90.0
  0
INSERT
  5
586
330
580
100
AcDbEntity
  8
寸法
 62
     3
100
AcDbBlockReference
  2
EX_NORM
 10
2623.5
 20
941.0
 30
0.0
 41
44.99999618530273
 42
44.99999618530273
 43
44.99999618530273
 50
270.0
  0
MTEXT
  5
587
330
580
100
AcDbEntity
  8
寸法
 62
     2
100
AcDbMText
 10
2588.250000089407
 20
1161.0
 30
0.0
 40
59.99999618530273
 41
0.0
 71
     5
 72
     1
  1
440（壁給水）
  7
EXCADDIM1
 11
0.0
 21
1.0
 31
0.0
  0
POINT
  5
588
330
580
100
AcDbEntity
  8
DEFPOINTS
 62
     0
100
AcDbPoint
 10
2480.0
 20
1381.0
 30
0.0
  0
POINT
  5
589
330
580
100
AcDbEntity
  8
DEFPOINTS
 62
     0
100
AcDbPoint
 10
2623.5
 20
941.0
 30
0.0
  0
POINT
  5
58A
330
580
100
AcDbEntity
  8
DEFPOINTS
 62
     0
100
AcDbPoint
 10
2623.5
 20
941.0
 30
0.0
  0
ENDBLK
  5
582
330
580
100
AcDbEntity
  8
0
100
AcDbBlockEnd
  0
BLOCK
  5
58E
330
58D
100
AcDbEntity
  8
0
100
AcDbBlockBegin
  2
*D24
 70
     1
 10
0.0
 20
0.0
 30
0.0
  3
*D24
  1

  0
LINE
  5
590
330
58D
100
AcDbEntity
  8
寸法
  6
CONTINUOUS
 62
     3
100
AcDbLine
 10
1215.499999821185
 20
2691.0
 30
0.0
 11
1333.499999999999
 21
2691.0
 31
0.0
  0
LINE
  5
591
330
58D
100
AcDbEntity
  8
寸法
  6
CONTINUOUS
 62
     3
100
AcDbLine
 10
1215.499999821185
 20
2171.0
 30
0.0
 11
1333.499999999999
 21
2171.0
 31
0.0
  0
LINE
  5
592
330
58D
100
AcDbEntity
  8
寸法
  6
CONTINUOUS
 62
     3
100
AcDbLine
 10
1318.499999999999
 20
2646.000003814697
 30
0.0
 11
1318.499999999999
 21
2215.999996185303
 31
0.0
  0
INSERT
  5
593
330
58D
100
AcDbEntity
  8
寸法
 62
     3
100
AcDbBlockReference
  2
EX_NORM
 10
1318.499999999999
 20
2691.0
 30
0.0
 41
44.99999618530273
 42
44.99999618530273
 43
44.99999618530273
 50
90.0
  0
INSERT
  5
594
330
58D
100
AcDbEntity
  8
寸法
 62
     3
100
AcDbBlockReference
  2
EX_NORM
 10
1318.499999999999
 20
2171.0
 30
0.0
 41
44.99999618530273
 42
44.99999618530273
 43
44.99999618530273
 50
270.0
  0
MTEXT
  5
595
330
58D
100
AcDbEntity
  8
寸法
 62
     2
100
AcDbMText
 10
1283.250000089406
 20
2431.0
 30
0.0
 40
59.99999618530273
 41
0.0
 71
     5
 72
     1
  1
520
  7
EXCADDIM1
 11
0.0
 21
1.0
 31
0.0
  0
POINT
  5
596
330
58D
100
AcDbEntity
  8
DEFPOINTS
 62
     0
100
AcDbPoint
 10
1204.999999999999
 20
2691.0
 30
0.0
  0
POINT
  5
597
330
58D
100
AcDbEntity
  8
DEFPOINTS
 62
     0
100
AcDbPoint
 10
1204.999999999999
 20
2171.0
 30
0.0
  0
POINT
  5
598
330
58D
100
AcDbEntity
  8
DEFPOINTS
 62
     0
100
AcDbPoint
 10
1318.499999999999
 20
2171.0
 30
0.0
  0
ENDBLK
  5
58F
330
58D
100
AcDbEntity
  8
0
100
AcDbBlockEnd
  0
BLOCK
  5
59B
330
59A
100
AcDbEntity
  8
0
100
AcDbBlockBegin
  2
*D25
 70
     1
 10
0.0
 20
0.0
 30
0.0
  3
*D25
  1

  0
LINE
  5
59D
330
59A
100
AcDbEntity
  8
寸法
  6
CONTINUOUS
 62
     3
100
AcDbLine
 10
754.9999999999993
 20
2641.480761934686
 30
0.0
 11
754.9999999999993
 21
2766.0
 31
0.0
  0
LINE
  5
59E
330
59A
100
AcDbEntity
  8
寸法
  6
CONTINUOUS
 62
     3
100
AcDbLine
 10
1054.999999999999
 20
2641.480761934686
 30
0.0
 11
1054.999999999999
 21
2766.0
 31
0.0
  0
LINE
  5
59F
330
59A
100
AcDbEntity
  8
寸法
  6
CONTINUOUS
 62
     3
100
AcDbLine
 10
799.999996185302
 20
2751.0
 30
0.0
 11
1010.000003814696
 21
2751.0
 31
0.0
  0
INSERT
  5
5A0
330
59A
100
AcDbEntity
  8
寸法
 62
     3
100
AcDbBlockReference
  2
EX_NORM
 10
754.9999999999993
 20
2751.0
 30
0.0
 41
44.99999618530273
 42
44.99999618530273
 43
44.99999618530273
 50
180.0
  0
INSERT
  5
5A1
330
59A
100
AcDbEntity
  8
寸法
 62
     3
100
AcDbBlockReference
  2
EX_NORM
 10
1054.999999999999
 20
2751.0
 30
0.0
 41
44.99999618530273
 42
44.99999618530273
 43
44.99999618530273
  0
MTEXT
  5
5A2
330
59A
100
AcDbEntity
  8
寸法
 62
     2
100
AcDbMText
 10
904.9999999999993
 20
2786.249999910593
 30
0.0
 40
59.99999618530273
 41
0.0
 71
     5
 72
     1
  1
300（壁固定）
  7
EXCADDIM1
  0
POINT
  5
5A3
330
59A
100
AcDbEntity
  8
DEFPOINTS
 62
     0
100
AcDbPoint
 10
754.9999999999993
 20
2630.9807621135
 30
0.0
  0
POINT
  5
5A4
330
59A
100
AcDbEntity
  8
DEFPOINTS
 62
     0
100
AcDbPoint
 10
1054.999999999999
 20
2630.9807621135
 30
0.0
  0
POINT
  5
5A5
330
59A
100
AcDbEntity
  8
DEFPOINTS
 62
     0
100
AcDbPoint
 10
1054.999999999999
 20
2751.0
 30
0.0
  0
ENDBLK
  5
59C
330
59A
100
AcDbEntity
  8
0
100
AcDbBlockEnd
  0
BLOCK
  5
5A8
330
5A7
100
AcDbEntity
  8
0
100
AcDbBlockBegin
  2
*D26
 70
     1
 10
0.0
 20
0.0
 30
0.0
  3
*D26
  1

  0
LINE
  5
5AA
330
5A7
100
AcDbEntity
  8
寸法
  6
CONTINUOUS
 62
     3
100
AcDbLine
 10
604.9999999999993
 20
2701.499999821186
 30
0.0
 11
604.9999999999993
 21
2853.0
 31
0.0
  0
LINE
  5
5AB
330
5A7
100
AcDbEntity
  8
寸法
  6
CONTINUOUS
 62
     3
100
AcDbLine
 10
1204.999999999999
 20
2701.499999821186
 30
0.0
 11
1204.999999999999
 21
2853.0
 31
0.0
  0
LINE
  5
5AC
330
5A7
100
AcDbEntity
  8
寸法
  6
CONTINUOUS
 62
     3
100
AcDbLine
 10
649.999996185302
 20
2838.0
 30
0.0
 11
1160.000003814696
 21
2838.0
 31
0.0
  0
INSERT
  5
5AD
330
5A7
100
AcDbEntity
  8
寸法
 62
     3
100
AcDbBlockReference
  2
EX_NORM
 10
604.9999999999993
 20
2838.0
 30
0.0
 41
44.99999618530273
 42
44.99999618530273
 43
44.99999618530273
 50
180.0
  0
INSERT
  5
5AE
330
5A7
100
AcDbEntity
  8
寸法
 62
     3
100
AcDbBlockReference
  2
EX_NORM
 10
1204.999999999999
 20
2838.0
 30
0.0
 41
44.99999618530273
 42
44.99999618530273
 43
44.99999618530273
  0
MTEXT
  5
5AF
330
5A7
100
AcDbEntity
  8
寸法
 62
     2
100
AcDbMText
 10
904.9999999999993
 20
2873.249999910593
 30
0.0
 40
59.99999618530273
 41
0.0
 71
     5
 72
     1
  1
600
  7
EXCADDIM1
  0
POINT
  5
5B0
330
5A7
100
AcDbEntity
  8
DEFPOINTS
 62
     0
100
AcDbPoint
 10
604.9999999999993
 20
2691.0
 30
0.0
  0
POINT
  5
5B1
330
5A7
100
AcDbEntity
  8
DEFPOINTS
 62
     0
100
AcDbPoint
 10
1204.999999999999
 20
2691.0
 30
0.0
  0
POINT
  5
5B2
330
5A7
100
AcDbEntity
  8
DEFPOINTS
 62
     0
100
AcDbPoint
 10
1204.999999999999
 20
2838.0
 30
0.0
  0
ENDBLK
  5
5A9
330
5A7
100
AcDbEntity
  8
0
100
AcDbBlockEnd
  0
BLOCK
  5
5B5
330
5B4
100
AcDbEntity
  8
0
100
AcDbBlockBegin
  2
*D27
 70
     1
 10
0.0
 20
0.0
 30
0.0
  3
*D27
  1

  0
LINE
  5
5B7
330
5B4
100
AcDbEntity
  8
寸法
  6
CONTINUOUS
 62
     3
100
AcDbLine
 10
1215.499999821185
 20
2691.0
 30
0.0
 11
1589.999999999998
 21
2691.0
 31
0.0
  0
LINE
  5
5B8
330
5B4
100
AcDbEntity
  8
寸法
  6
CONTINUOUS
 62
     3
100
AcDbLine
 10
1574.999999999998
 20
985.9999961853027
 30
0.0
 11
1574.999999999998
 21
2646.000003814697
 31
0.0
  0
INSERT
  5
5B9
330
5B4
100
AcDbEntity
  8
寸法
 62
     3
100
AcDbBlockReference
  2
EX_NORM
 10
1574.999999999998
 20
941.0
 30
0.0
 41
44.99999618530273
 42
44.99999618530273
 43
44.99999618530273
 50
270.0
  0
INSERT
  5
5BA
330
5B4
100
AcDbEntity
  8
寸法
 62
     3
100
AcDbBlockReference
  2
EX_NORM
 10
1574.999999999998
 20
2691.0
 30
0.0
 41
44.99999618530273
 42
44.99999618530273
 43
44.99999618530273
 50
90.0
  0
MTEXT
  5
5BB
330
5B4
100
AcDbEntity
  8
寸法
 62
     2
100
AcDbMText
 10
1539.750000089406
 20
1816.0
 30
0.0
 40
59.99999618530273
 41
0.0
 71
     5
 72
     1
  1
（1750）
  7
EXCADDIM1
 11
0.0
 21
1.0
 31
0.0
  0
POINT
  5
5BC
330
5B4
100
AcDbEntity
  8
DEFPOINTS
 62
     0
100
AcDbPoint
 10
1352.999999999999
 20
941.0
 30
0.0
  0
POINT
  5
5BD
330
5B4
100
AcDbEntity
  8
DEFPOINTS
 62
     0
100
AcDbPoint
 10
1204.999999999999
 20
2691.0
 30
0.0
  0
POINT
  5
5BE
330
5B4
100
AcDbEntity
  8
DEFPOINTS
 62
     0
100
AcDbPoint
 10
1574.999999999998
 20
2691.0
 30
0.0
  0
ENDBLK
  5
5B6
330
5B4
100
AcDbEntity
  8
0
100
AcDbBlockEnd
  0
BLOCK
  5
5C1
330
5C0
100
AcDbEntity
  8
0
100
AcDbBlockBegin
  2
*D28
 70
     1
 10
0.0
 20
0.0
 30
0.0
  3
*D28
  1

  0
LINE
  5
5C3
330
5C0
100
AcDbEntity
  8
寸法
  6
CONTINUOUS
 62
     3
100
AcDbLine
 10
2467.499999821185
 20
941.0
 30
0.0
 11
2907.0
 21
941.0
 31
0.0
  0
LINE
  5
5C4
330
5C0
100
AcDbEntity
  8
寸法
  6
CONTINUOUS
 62
     3
100
AcDbLine
 10
2499.999999821185
 20
2191.0
 30
0.0
 11
2907.0
 21
2191.0
 31
0.0
  0
LINE
  5
5C5
330
5C0
100
AcDbEntity
  8
寸法
  6
CONTINUOUS
 62
     3
100
AcDbLine
 10
2892.0
 20
985.9999961853027
 30
0.0
 11
2892.0
 21
2146.000003814697
 31
0.0
  0
INSERT
  5
5C6
330
5C0
100
AcDbEntity
  8
寸法
 62
     3
100
AcDbBlockReference
  2
EX_NORM
 10
2892.0
 20
941.0
 30
0.0
 41
44.99999618530273
 42
44.99999618530273
 43
44.99999618530273
 50
270.0
  0
INSERT
  5
5C7
330
5C0
100
AcDbEntity
  8
寸法
 62
     3
100
AcDbBlockReference
  2
EX_NORM
 10
2892.0
 20
2191.0
 30
0.0
 41
44.99999618530273
 42
44.99999618530273
 43
44.99999618530273
 50
90.0
  0
MTEXT
  5
5C8
330
5C0
100
AcDbEntity
  8
寸法
 62
     2
100
AcDbMText
 10
2856.750000089407
 20
1565.999999999997
 30
0.0
 40
59.99999618530273
 41
0.0
 71
     5
 72
     1
  1
（1250）
  7
EXCADDIM1
 11
0.0
 21
1.0
 31
0.0
  0
POINT
  5
5C9
330
5C0
100
AcDbEntity
  8
DEFPOINTS
 62
     0
100
AcDbPoint
 10
2456.999999999999
 20
941.0
 30
0.0
  0
POINT
  5
5CA
330
5C0
100
AcDbEntity
  8
DEFPOINTS
 62
     0
100
AcDbPoint
 10
2489.499999999999
 20
2191.0
 30
0.0
  0
POINT
  5
5CB
330
5C0
100
AcDbEntity
  8
DEFPOINTS
 62
     0
100
AcDbPoint
 10
2892.0
 20
2191.0
 30
0.0
  0
ENDBLK
  5
5C2
330
5C0
100
AcDbEntity
  8
0
100
AcDbBlockEnd
  0
BLOCK
  5
5CE
330
5CD
100
AcDbEntity
  8
0
100
AcDbBlockBegin
  2
*D29
 70
     1
 10
0.0
 20
0.0
 30
0.0
  3
*D29
  1

  0
LINE
  5
5D0
330
5CD
100
AcDbEntity
  8
寸法
  6
CONTINUOUS
 62
     3
100
AcDbLine
 10
2419.799999999998
 20
2702.699999821186
 30
0.0
 11
2419.799999999998
 21
2766.0
 31
0.0
  0
LINE
  5
5D1
330
5CD
100
AcDbEntity
  8
寸法
  6
CONTINUOUS
 62
     3
100
AcDbLine
 10
2419.799999999998
 20
2751.0
 30
0.0
 11
2456.999999999999
 21
2751.0
 31
0.0
  0
LINE
  5
5D2
330
5CD
100
AcDbEntity
  8
寸法
  6
CONTINUOUS
 62
     3
100
AcDbLine
 10
2374.800003814695
 20
2751.0
 30
0.0
 11
2329.800007629392
 21
2751.0
 31
0.0
  0
LINE
  5
5D3
330
5CD
100
AcDbEntity
  8
寸法
  6
CONTINUOUS
 62
     3
100
AcDbLine
 10
2501.999996185301
 20
2751.0
 30
0.0
 11
2546.999992370604
 21
2751.0
 31
0.0
  0
INSERT
  5
5D4
330
5CD
100
AcDbEntity
  8
寸法
 62
     3
100
AcDbBlockReference
  2
EX_NORM
 10
2419.799999999998
 20
2751.0
 30
0.0
 41
44.99999618530273
 42
44.99999618530273
 43
44.99999618530273
  0
INSERT
  5
5D5
330
5CD
100
AcDbEntity
  8
寸法
 62
     3
100
AcDbBlockReference
  2
EX_NORM
 10
2456.999999999999
 20
2751.0
 30
0.0
 41
44.99999618530273
 42
44.99999618530273
 43
44.99999618530273
 50
180.0
  0
MTEXT
  5
5D6
330
5CD
100
AcDbEntity
  8
寸法
 62
     2
100
AcDbMText
 10
2322.299999999998
 20
2786.249999910593
 30
0.0
 40
59.99999618530273
 41
0.0
 71
     5
 72
     1
  1
38
  7
EXCADDIM1
  0
POINT
  5
5D7
330
5CD
100
AcDbEntity
  8
DEFPOINTS
 62
     0
100
AcDbPoint
 10
2419.799999999998
 20
2692.2
 30
0.0
  0
POINT
  5
5D8
330
5CD
100
AcDbEntity
  8
DEFPOINTS
 62
     0
100
AcDbPoint
 10
2456.999999999999
 20
2690.0
 30
0.0
  0
POINT
  5
5D9
330
5CD
100
AcDbEntity
  8
DEFPOINTS
 62
     0
100
AcDbPoint
 10
2456.999999999999
 20
2751.0
 30
0.0
  0
ENDBLK
  5
5CF
330
5CD
100
AcDbEntity
  8
0
100
AcDbBlockEnd
  0
BLOCK
  5
5E5
330
5E4
100
AcDbEntity
  8
0
100
AcDbBlockBegin
  2
*D30
 70
     1
 10
0.0
 20
0.0
 30
0.0
  3
*D30
  1

  0
LINE
  5
5E7
330
5E4
100
AcDbEntity
  8
寸法
  6
CONTINUOUS
 62
     3
100
AcDbLine
 10
2454.999999821185
 20
2691.0
 30
0.0
 11
2907.0
 21
2691.0
 31
0.0
  0
LINE
  5
5E8
330
5E4
100
AcDbEntity
  8
寸法
  6
CONTINUOUS
 62
     3
100
AcDbLine
 10
2499.999999821185
 20
2630.9807621135
 30
0.0
 11
2907.0
 21
2630.9807621135
 31
0.0
  0
LINE
  5
5E9
330
5E4
100
AcDbEntity
  8
寸法
  6
CONTINUOUS
 62
     3
100
AcDbLine
 10
2892.0
 20
2691.0
 30
0.0
 11
2892.0
 21
2630.9807621135
 31
0.0
  0
LINE
  5
5EA
330
5E4
100
AcDbEntity
  8
寸法
  6
CONTINUOUS
 62
     3
100
AcDbLine
 10
2892.0
 20
2735.999996185303
 30
0.0
 11
2892.0
 21
2780.999992370605
 31
0.0
  0
LINE
  5
5EB
330
5E4
100
AcDbEntity
  8
寸法
  6
CONTINUOUS
 62
     3
100
AcDbLine
 10
2892.0
 20
2585.980765928197
 30
0.0
 11
2892.0
 21
2540.980769742895
 31
0.0
  0
INSERT
  5
5EC
330
5E4
100
AcDbEntity
  8
寸法
 62
     3
100
AcDbBlockReference
  2
EX_NORM
 10
2892.0
 20
2691.0
 30
0.0
 41
44.99999618530273
 42
44.99999618530273
 43
44.99999618530273
 50
270.0
  0
INSERT
  5
5ED
330
5E4
100
AcDbEntity
  8
寸法
 62
     3
100
AcDbBlockReference
  2
EX_NORM
 10
2892.0
 20
2630.9807621135
 30
0.0
 41
44.99999618530273
 42
44.99999618530273
 43
44.99999618530273
 50
90.0
  0
MTEXT
  5
5EE
330
5E4
100
AcDbEntity
  8
寸法
 62
     2
100
AcDbMText
 10
2856.750000089409
 20
2788.499999999998
 30
0.0
 40
59.99999618530273
 41
0.0
 71
     5
 72
     1
  1
60
  7
EXCADDIM1
 11
0.0
 21
1.0
 31
0.0
  0
POINT
  5
5EF
330
5E4
100
AcDbEntity
  8
DEFPOINTS
 62
     0
100
AcDbPoint
 10
2444.499999999999
 20
2691.0
 30
0.0
  0
POINT
  5
5F0
330
5E4
100
AcDbEntity
  8
DEFPOINTS
 62
     0
100
AcDbPoint
 10
2489.499999999999
 20
2630.9807621135
 30
0.0
  0
POINT
  5
5F1
330
5E4
100
AcDbEntity
  8
DEFPOINTS
 62
     0
100
AcDbPoint
 10
2892.0
 20
2630.9807621135
 30
0.0
  0
ENDBLK
  5
5E6
330
5E4
100
AcDbEntity
  8
0
100
AcDbBlockEnd
  0
ENDSEC
  0
SECTION
  2
ENTITIES
  0
LINE
  5
A9
330
1F
100
AcDbEntity
  8
枠_表
  6
CONTINUOUS
 62
     7
100
AcDbLine
 10
17.0
 20
9.5
 30
0.0
 11
199.0
 21
9.5
 31
0.0
  0
LINE
  5
AA
330
1F
100
AcDbEntity
  8
枠_表
  6
CONTINUOUS
 62
     7
100
AcDbLine
 10
199.0
 20
9.5
 30
0.0
 11
199.0
 21
284.5
 31
0.0
  0
LINE
  5
AB
330
1F
100
AcDbEntity
  8
枠_表
  6
CONTINUOUS
 62
     7
100
AcDbLine
 10
17.0
 20
9.5
 30
0.0
 11
17.0
 21
284.5
 31
0.0
  0
LINE
  5
AC
330
1F
100
AcDbEntity
  8
枠_表
  6
CONTINUOUS
 62
     7
100
AcDbLine
 10
17.0
 20
284.5
 30
0.0
 11
199.0
 21
284.5
 31
0.0
  0
LINE
  5
AD
330
1F
100
AcDbEntity
  8
枠_表
  6
CONTINUOUS
 62
     7
100
AcDbLine
 10
17.0
 20
31.5
 30
0.0
 11
199.0
 21
31.5
 31
0.0
  0
LINE
  5
AE
330
1F
100
AcDbEntity
  8
枠_表
  6
CONTINUOUS
 62
     6
100
AcDbLine
 10
199.0
 20
19.5
 30
0.0
 11
73.99999999999983
 21
19.5
 31
0.0
  0
LINE
  5
AF
330
1F
100
AcDbEntity
  8
枠_表
  6
CONTINUOUS
 62
     6
100
AcDbLine
 10
185.0
 20
31.5
 30
0.0
 11
185.0
 21
19.5
 31
0.0
  0
LINE
  5
B0
330
1F
100
AcDbEntity
  8
枠_表
  6
CONTINUOUS
 62
     6
100
AcDbLine
 10
179.9999999999999
 20
31.5
 30
0.0
 11
179.9999999999999
 21
19.5
 31
0.0
  0
LINE
  5
B1
330
1F
100
AcDbEntity
  8
枠_表
  6
CONTINUOUS
 62
     6
100
AcDbLine
 10
142.9999999999999
 20
31.5
 30
0.0
 11
142.9999999999999
 21
9.5
 31
0.0
  0
LINE
  5
B2
330
1F
100
AcDbEntity
  8
枠_表
  6
CONTINUOUS
 62
     6
100
AcDbLine
 10
137.9999999999999
 20
31.5
 30
0.0
 11
137.9999999999999
 21
9.5
 31
0.0
  0
LINE
  5
B3
330
1F
100
AcDbEntity
  8
枠_表
  6
CONTINUOUS
 62
     6
100
AcDbLine
 10
78.99999999999983
 20
31.5
 30
0.0
 11
78.99999999999983
 21
19.5
 31
0.0
  0
LINE
  5
B4
330
1F
100
AcDbEntity
  8
枠_表
  6
CONTINUOUS
 62
     6
100
AcDbLine
 10
73.99999999999983
 20
31.5
 30
0.0
 11
73.99999999999983
 21
9.5
 31
0.0
  0
LINE
  5
B5
330
1F
100
AcDbEntity
  8
枠_表
  6
CONTINUOUS
 62
     6
100
AcDbLine
 10
60.99999999999983
 20
31.5
 30
0.0
 11
60.99999999999983
 21
9.5
 31
0.0
  0
LINE
  5
B6
330
1F
100
AcDbEntity
  8
枠_表
  6
CONTINUOUS
 62
     6
100
AcDbLine
 10
47.99999999999983
 20
31.5
 30
0.0
 11
47.99999999999983
 21
9.5
 31
0.0
  0
LINE
  5
B7
330
1F
100
AcDbEntity
  8
枠_表
  6
CONTINUOUS
 62
     6
100
AcDbLine
 10
32.49999999999989
 20
31.5
 30
0.0
 11
32.49999999999989
 21
9.5
 31
0.0
  0
LINE
  5
B8
330
1F
100
AcDbEntity
  8
枠_表
  6
CONTINUOUS
 62
     6
100
AcDbLine
 10
17.0
 20
26.5
 30
0.0
 11
73.99999999999983
 21
26.5
 31
0.0
  0
LINE
  5
B9
330
1F
100
AcDbEntity
  8
枠_表
  6
CONTINUOUS
 62
     6
100
AcDbLine
 10
188.2653808599999
 20
21.80029296999999
 30
0.0
 11
195.99938965
 21
29.66998290999999
 31
0.0
  0
CIRCLE
  5
BA
330
1F
100
AcDbEntity
  8
枠_表
  6
CONTINUOUS
 62
     6
100
AcDbCircle
 10
22.0
 20
12.0
 30
0.0
 40
0.10000002
  0
CIRCLE
  5
BB
330
1F
100
AcDbEntity
  8
枠_表
  6
CONTINUOUS
 62
     6
100
AcDbCircle
 10
27.0
 20
12.0
 30
0.0
 40
0.10000002
  0
CIRCLE
  5
BC
330
1F
100
AcDbEntity
  8
枠_表
  6
CONTINUOUS
 62
     6
100
AcDbCircle
 10
37.49999999999989
 20
12.0
 30
0.0
 40
0.10000002
  0
CIRCLE
  5
BD
330
1F
100
AcDbEntity
  8
枠_表
  6
CONTINUOUS
 62
     6
100
AcDbCircle
 10
42.49999999999989
 20
12.0
 30
0.0
 40
0.10000002
  0
LINE
  5
BE
330
1F
100
AcDbEntity
  8
枠_表
  6
EXLTYPE2
 62
     6
100
AcDbLine
 10
17.0
 20
14.5
 30
0.0
 11
47.99999999999983
 21
14.5
 31
0.0
  0
TEXT
  5
BF
330
1F
100
AcDbEntity
  8
枠_表
  6
CONTINUOUS
 62
     2
100
AcDbText
 10
188.05371094
 20
26.27227783000001
 30
0.0
 40
3.0
  1
１
 41
1.101333351135257
  7
EXCADSTD
 72
     5
 11
190.413710978147
 21
26.27227783000001
 31
0.0
100
AcDbText
  0
TEXT
  5
C0
330
1F
100
AcDbEntity
  8
枠_表
  6
CONTINUOUS
 62
     2
100
AcDbText
 10
192.12792969
 20
21.83488463999998
 30
0.0
 40
3.0
  1
１５
 41
1.098531230663534
  7
EXCADSTD
 72
     5
 11
197.3067197774138
 21
21.83488463999998
 31
0.0
100
AcDbText
  0
TEXT
  5
C1
330
1F
100
AcDbEntity
  8
枠_表
  6
CONTINUOUS
 62
     2
100
AcDbText
 10
19.25
 20
26.875
 30
0.0
 40
4.25
  1
製図
 41
1.509694117647059
  7
EXCADSTD
 72
     5
 11
29.3326
 21
26.875
 31
0.0
100
AcDbText
  0
TEXT
  5
C2
330
1F
100
AcDbEntity
  8
枠_表
  6
CONTINUOUS
 62
     2
100
AcDbText
 10
34.74999999999989
 20
26.875
 30
0.0
 40
4.25
  1
写図
 41
1.509694117647059
  7
EXCADSTD
 72
     5
 11
44.83259999999989
 21
26.875
 31
0.0
100
AcDbText
  0
TEXT
  5
C3
330
1F
100
AcDbEntity
  8
枠_表
  6
CONTINUOUS
 62
     2
100
AcDbText
 10
49.74999999999983
 20
26.875
 30
0.0
 40
4.25
  1
検図
 41
1.303826737967915
  7
EXCADSTD
 72
     5
 11
58.45769999999983
 21
26.875
 31
0.0
100
AcDbText
  0
TEXT
  5
C4
330
1F
100
AcDbEntity
  8
枠_表
  6
CONTINUOUS
 62
     2
100
AcDbText
 10
62.74999999999983
 20
26.875
 30
0.0
 40
4.25
  1
承認
 41
1.303826737967915
  7
EXCADSTD
 72
     5
 11
71.45769999999983
 21
26.875
 31
0.0
100
AcDbText
  0
TEXT
  5
C5
330
1F
100
AcDbEntity
  8
枠_表
  6
CONTINUOUS
 62
     2
100
AcDbText
 10
74.57499999999982
 20
25.875
 30
0.0
 40
4.25
  1
品
 41
1.120000000000002
  7
EXCADSTD
 72
     5
 11
77.97499999999982
 21
25.875
 31
0.0
100
AcDbText
  0
TEXT
  5
C6
330
1F
100
AcDbEntity
  8
枠_表
  6
CONTINUOUS
 62
     2
100
AcDbText
 10
74.57499999999982
 20
20.875
 30
0.0
 40
4.25
  1
名
 41
1.120000000000002
  7
EXCADSTD
 72
     5
 11
77.97499999999982
 21
20.875
 31
0.0
100
AcDbText
  0
TEXT
  5
C7
330
1F
100
AcDbEntity
  8
枠_表
  6
CONTINUOUS
 62
     2
100
AcDbText
 10
138.5749999999998
 20
25.875
 30
0.0
 40
4.25
  1
品
 41
1.120000000000002
  7
EXCADSTD
 72
     5
 11
141.9749999999998
 21
25.875
 31
0.0
100
AcDbText
  0
TEXT
  5
C8
330
1F
100
AcDbEntity
  8
枠_表
  6
CONTINUOUS
 62
     2
100
AcDbText
 10
138.5749999999998
 20
20.875
 30
0.0
 40
4.25
  1
番
 41
1.120000000000002
  7
EXCADSTD
 72
     5
 11
141.9749999999998
 21
20.875
 31
0.0
100
AcDbText
  0
TEXT
  5
C9
330
1F
100
AcDbEntity
  8
枠_表
  6
CONTINUOUS
 62
     2
100
AcDbText
 10
180.675
 20
25.875
 30
0.0
 40
4.25
  1
尺
 41
1.120000000000002
  7
EXCADSTD
 72
     5
 11
184.075
 21
25.875
 31
0.0
100
AcDbText
  0
TEXT
  5
CA
330
1F
100
AcDbEntity
  8
枠_表
  6
CONTINUOUS
 62
     2
100
AcDbText
 10
180.675
 20
20.875
 30
0.0
 40
4.25
  1
度
 41
1.120000000000002
  7
EXCADSTD
 72
     5
 11
184.075
 21
20.875
 31
0.0
100
AcDbText
  0
TEXT
  5
CB
330
1F
100
AcDbEntity
  8
枠_表
  6
CONTINUOUS
 62
     2
100
AcDbText
 10
138.5749999999998
 20
14.57499999999999
 30
0.0
 40
4.25
  1
図
 41
1.120000000000002
  7
EXCADSTD
 72
     5
 11
141.9749999999998
 21
14.57499999999999
 31
0.0
100
AcDbText
  0
TEXT
  5
CC
330
1F
100
AcDbEntity
  8
枠_表
  6
CONTINUOUS
 62
     2
100
AcDbText
 10
138.5749999999998
 20
10.27499999999998
 30
0.0
 40
4.25
  1
番
 41
1.120000000000002
  7
EXCADSTD
 72
     5
 11
141.9749999999998
 21
10.27499999999998
 31
0.0
100
AcDbText
  0
LINE
  5
CD
330
1F
100
AcDbEntity
  8
枠_表
  6
CONTINUOUS
 62
     6
100
AcDbLine
 10
123.9999999999999
 20
279.5
 30
0.0
 11
194.0
 21
279.5
 31
0.0
  0
LINE
  5
CE
330
1F
100
AcDbEntity
  8
枠_表
  6
CONTINUOUS
 62
     6
100
AcDbLine
 10
123.9999999999999
 20
274.0
 30
0.0
 11
194.0
 21
274.0
 31
0.0
  0
TEXT
  5
CF
330
1F
100
AcDbEntity
  8
枠_表
  6
CONTINUOUS
 62
     2
100
AcDbText
 10
131.9999999999999
 20
274.75
 30
0.0
 40
4.0
  1
品番
 41
2.041518181818183
  7
EXCADSTD
 72
     5
 11
144.8323999999999
 21
274.75
 31
0.0
100
AcDbText
  0
TEXT
  5
D0
330
1F
100
AcDbEntity
  8
枠_表
  6
CONTINUOUS
 62
     2
100
AcDbText
 10
167.0
 20
274.75
 30
0.0
 40
4.0
  1
品名
 41
2.041518181818183
  7
EXCADSTD
 72
     5
 11
179.8324
 21
274.75
 31
0.0
100
AcDbText
  0
TEXT
  5
D1
330
1F
100
AcDbEntity
  8
枠_表
  6
CONTINUOUS
 62
     2
100
AcDbText
 10
155.0
 20
269.25
 30
0.0
 40
4.0
  1
洗面化粧台
 41
1.086206896551724
  7
EXCADSTD
 72
     5
 11
173.0
 21
269.25
 31
0.0
100
AcDbText
  0
TEXT
  5
D3
330
1F
100
AcDbEntity
  8
枠_表
  6
CONTINUOUS
 62
     2
100
AcDbText
 10
75.99999999999993
 20
11.5
 30
0.0
 40
4.5
  1
ジャニス工業株式会社
 41
1.025641025641026
  7
EXCADTTF1
 72
     5
 11
135.9999999999999
 21
11.5
 31
0.0
100
AcDbText
  0
LINE
  5
D4
330
1F
100
AcDbEntity
  8
枠_表
  6
EXLTYPE2
 62
     1
100
AcDbLine
 10
17.0
 20
147.0
 30
0.0
 11
-0.3000000000000682
 21
147.0
 31
0.0
  0
TEXT
  5
D5
330
1F
100
AcDbEntity
  8
枠_表
  6
CONTINUOUS
 62
     2
100
AcDbText
 10
49.49999999999947
 20
18.0
 30
0.0
 40
5.0
  1
中村
 41
1.224910909090909
  7
EXCADSTD
 72
     5
 11
59.12429999999947
 21
18.0
 31
0.0
100
AcDbText
  0
TEXT
  5
D6
330
1F
100
AcDbEntity
  8
枠_表
  6
CONTINUOUS
 62
     7
100
AcDbText
 10
144.2000001668929
 20
11.14999999999998
 30
0.0
 40
7.0
  1
ＬＵ３１６９００
 41
1.140425524813064
  7
EXCADSTD
 72
     5
 11
197.7999998331069
 21
11.14999999999998
 31
0.0
100
AcDbText
  0
LINE
  5
D7
330
1F
100
AcDbEntity
  8
枠_表
  6
CONTINUOUS
 62
     6
100
AcDbLine
 10
123.9999999999999
 20
252.0
 30
0.0
 11
194.0
 21
252.0
 31
0.0
  0
LINE
  5
D8
330
1F
100
AcDbEntity
  8
枠_表
  6
CONTINUOUS
 62
     6
100
AcDbLine
 10
123.9999999999999
 20
246.5
 30
0.0
 11
194.0
 21
246.5
 31
0.0
  0
LINE
  5
D9
330
1F
100
AcDbEntity
  8
枠_表
  6
CONTINUOUS
 62
     6
100
AcDbLine
 10
123.9999999999999
 20
235.5
 30
0.0
 11
194.0
 21
235.5
 31
0.0
  0
TEXT
  5
DA
330
1F
100
AcDbEntity
  8
枠_表
  6
CONTINUOUS
 62
     2
100
AcDbText
 10
134.4999999999999
 20
247.25
 30
0.0
 40
4.0
  1
品番
 41
2.041518181818183
  7
EXCADSTD
 72
     5
 11
147.3324
 21
247.25
 31
0.0
100
AcDbText
  0
TEXT
  5
DB
330
1F
100
AcDbEntity
  8
枠_表
  6
CONTINUOUS
 62
     2
100
AcDbText
 10
169.5000000000001
 20
247.25
 30
0.0
 40
4.0
  1
品名
 41
2.041518181818183
  7
EXCADSTD
 72
     5
 11
182.3324000000001
 21
247.25
 31
0.0
100
AcDbText
  0
TEXT
  5
DC
330
1F
100
AcDbEntity
  8
枠_表
  6
CONTINUOUS
 62
     2
100
AcDbText
 10
160.0000000000001
 20
241.75
 30
0.0
 40
4.0
  1
アングル形止水栓
 41
1.061170212765957
  7
EXCADSTD
 72
     5
 11
188.5000000000001
 21
241.75
 31
0.0
100
AcDbText
  0
TEXT
  5
DD
330
1F
100
AcDbEntity
  8
枠_表
  6
CONTINUOUS
 62
     2
100
AcDbText
 10
160.0000000000001
 20
236.25
 30
0.0
 40
4.0
  1
（壁給水用、数量：２）
 41
0.9019230769230772
  7
EXCADSTD
 72
     5
 11
193.5000000000001
 21
236.25
 31
0.0
100
AcDbText
  0
TEXT
  5
DE
330
1F
100
AcDbEntity
  8
枠_表
  6
CONTINUOUS
 62
     2
100
AcDbText
 10
124.9999999999999
 20
241.75
 30
0.0
 40
4.0
  1
ＮＬ２２１－７５ＷＭＹ
 41
0.6730769038200384
  7
EXCADSTD
 72
     5
 11
149.9999992847442
 21
241.75
 31
0.0
100
AcDbText
  0
TEXT
  5
DF
330
1F
100
AcDbEntity
  8
枠_表
  6
CONTINUOUS
 62
     2
100
AcDbText
 10
124.3999999999999
 20
253.0
 30
0.0
 40
4.0
  1
※止水栓・Ｌ管（別途手配）
 41
0.9636363603852016
  7
EXCADSTD
 72
     5
 11
166.7999998569488
 21
253.0
 31
0.0
100
AcDbText
  0
TEXT
  5
E0
330
1F
100
AcDbEntity
  8
枠_表
  6
CONTINUOUS
 62
     2
100
AcDbText
 10
160.0000000000001
 20
225.25
 30
0.0
 40
4.0
  1
（床給水用、数量：２）
 41
0.9019230769230772
  7
EXCADSTD
 72
     5
 11
193.5000000000001
 21
225.25
 31
0.0
100
AcDbText
  0
TEXT
  5
E1
330
1F
100
AcDbEntity
  8
枠_表
  6
CONTINUOUS
 62
     2
100
AcDbText
 10
160.0
 20
230.75
 30
0.0
 40
4.0
  1
ストレート形止水栓
 41
1.056603773584906
  7
EXCADSTD
 72
     5
 11
192.0
 21
230.75
 31
0.0
100
AcDbText
  0
LINE
  5
E2
330
1F
100
AcDbEntity
  8
枠_表
  6
CONTINUOUS
 62
     6
100
AcDbLine
 10
123.9999999999998
 20
219.0
 30
0.0
 11
194.0
 21
219.0
 31
0.0
  0
TEXT
  5
E3
330
1F
100
AcDbEntity
  8
枠_表
  6
CONTINUOUS
 62
     2
100
AcDbText
 10
124.9999999999998
 20
219.75
 30
0.0
 40
4.0
  1
４４１３１
 41
0.8629310316052923
  7
EXCADSTD
 72
     5
 11
139.2999999523161
 21
219.75
 31
0.0
100
AcDbText
  0
TEXT
  5
E4
330
1F
100
AcDbEntity
  8
枠_表
  6
CONTINUOUS
 62
     2
100
AcDbText
 10
160.0000000000001
 20
219.75
 30
0.0
 40
4.0
  1
Ｌ管（壁排水用）
 41
1.061170212765957
  7
EXCADSTD
 72
     5
 11
188.5000000000001
 21
219.75
 31
0.0
100
AcDbText
  0
TEXT
  5
E5
330
1F
100
AcDbEntity
  8
枠_表
  6
CONTINUOUS
 62
     2
100
AcDbText
 10
124.9999999999999
 20
230.75
 30
0.0
 40
4.0
  1
ＮＬ２１１－４２０ＷＹ
 41
0.6730769038200377
  7
EXCADSTD
 72
     5
 11
149.9999992847441
 21
230.75
 31
0.0
100
AcDbText
  0
LINE
  5
E6
330
1F
100
AcDbEntity
  8
枠_表
  6
CONTINUOUS
 62
     6
100
AcDbLine
 10
158.9999999999999
 20
219.0
 30
0.0
 11
158.9999999999999
 21
252.0
 31
0.0
  0
LINE
  5
E7
330
1F
100
AcDbEntity
  8
枠_表
  6
CONTINUOUS
 62
     6
100
AcDbLine
 10
194.0
 20
219.0
 30
0.0
 11
194.0
 21
252.0
 31
0.0
  0
LINE
  5
E8
330
1F
100
AcDbEntity
  8
枠_表
  6
CONTINUOUS
 62
     6
100
AcDbLine
 10
123.9999999999999
 20
219.0
 30
0.0
 11
123.9999999999999
 21
252.0
 31
0.0
  0
LINE
  5
E9
330
1F
100
AcDbEntity
  8
枠_表
  6
CONTINUOUS
 62
     6
100
AcDbLine
 10
123.9999999999999
 20
224.5
 30
0.0
 11
194.0
 21
224.5
 31
0.0
  0
LINE
  5
EA
330
1F
100
AcDbEntity
  8
枠_表
  6
CONTINUOUS
 62
     6
100
AcDbLine
 10
123.9999999999999
 20
263.0
 30
0.0
 11
194.0
 21
263.0
 31
0.0
  0
TEXT
  5
EB
330
1F
100
AcDbEntity
  8
枠_表
  6
CONTINUOUS
 62
     2
100
AcDbText
 10
124.9999999999999
 20
263.75
 30
0.0
 40
4.0
  1
ＬＵＭ６０２ＣＳ
 41
0.8340425500844394
  7
EXCADSTD
 72
     5
 11
147.3999999165534
 21
263.75
 31
0.0
100
AcDbText
  0
TEXT
  5
EC
330
1F
100
AcDbEntity
  8
枠_表
  6
CONTINUOUS
 62
     2
100
AcDbText
 10
155.0000000000001
 20
263.75
 30
0.0
 40
4.0
  1
化粧鏡
 41
1.132352941176471
  7
EXCADSTD
 72
     5
 11
166.0000000000001
 21
263.75
 31
0.0
100
AcDbText
  0
LINE
  5
ED
330
1F
100
AcDbEntity
  8
枠_表
  6
CONTINUOUS
 62
     6
100
AcDbLine
 10
123.9999999999999
 20
268.5
 30
0.0
 11
194.0
 21
268.5
 31
0.0
  0
LINE
  5
EE
330
1F
100
AcDbEntity
  8
枠_表
  6
CONTINUOUS
 62
     6
100
AcDbLine
 10
123.9999999999999
 20
263.0
 30
0.0
 11
123.9999999999999
 21
279.5
 31
0.0
  0
LINE
  5
EF
330
1F
100
AcDbEntity
  8
枠_表
  6
CONTINUOUS
 62
     6
100
AcDbLine
 10
153.9999999999999
 20
263.0
 30
0.0
 11
153.9999999999999
 21
279.5
 31
0.0
  0
LINE
  5
F0
330
1F
100
AcDbEntity
  8
枠_表
  6
CONTINUOUS
 62
     6
100
AcDbLine
 10
194.0
 20
263.0
 30
0.0
 11
194.0
 21
279.5
 31
0.0
  0
TEXT
  5
F1
330
1F
100
AcDbEntity
  8
枠_表
  6
CONTINUOUS
 62
     2
100
AcDbText
 10
79.99999999999984
 20
25.5
 30
0.0
 40
5.0
  1
750㎜幅
 41
0.8693548387096776
  7
EXCADSTD
 72
     5
 11
99.24999999999984
 21
25.5
 31
0.0
100
AcDbText
  0
TEXT
  5
F2
330
1F
100
AcDbEntity
  8
枠_表
  6
CONTINUOUS
 62
     2
100
AcDbText
 10
79.99999999999984
 20
20.5
 30
0.0
 40
5.0
  1
　洗面化粧ユニット
 41
1.307547169811321
  7
EXCADSTD
 72
     5
 11
129.4999999999998
 21
20.5
 31
0.0
100
AcDbText
  0
TEXT
  5
F3
330
1F
100
AcDbEntity
  8
枠_表
  6
CONTINUOUS
 62
     2
100
AcDbText
 10
124.9999999999999
 20
269.25
 30
0.0
 40
4.0
  1
ＬＵ７５６ＣＳＤＲ
 41
0.8287735817567363
  7
EXCADSTD
 72
     5
 11
150.0999999046325
 21
269.25
 31
0.0
100
AcDbText
  0
TEXT
  5
F4
330
1F
100
AcDbEntity
  8
枠_表
  6
CONTINUOUS
 62
     2
100
AcDbText
 10
143.9999999999999
 20
25.5
 30
0.0
 40
5.0
  1
ＬＵ７５６ＣＳＤＲ型
 41
0.8542372881355933
  7
EXCADSTD
 72
     5
 11
179.9999999999999
 21
25.5
 31
0.0
100
AcDbText
  0
TEXT
  5
F5
330
1F
100
AcDbEntity
  8
枠_表
  6
CONTINUOUS
 62
     2
100
AcDbText
 10
143.9999999999999
 20
20.5
 30
0.0
 40
5.0
  1
ＬＵＭ６０２ＣＳ
 41
0.8638297872340426
  7
EXCADSTD
 72
     5
 11
172.9999999999999
 21
20.5
 31
0.0
100
AcDbText
  0
TEXT
  5
F6
330
1F
100
AcDbEntity
  8
枠_表
  6
CONTINUOUS
 62
     2
100
AcDbText
 10
62.49999999999947
 20
18.0
 30
0.0
 40
5.0
  1
間瀬
 41
1.22491090909091
  7
EXCADSTD
 72
     5
 11
72.12429999999948
 21
18.0
 31
0.0
100
AcDbText
  0
TEXT
  5
F7
330
1F
100
AcDbEntity
  8
枠_表
  6
CONTINUOUS
 62
     2
100
AcDbText
 10
19.74999999999943
 20
18.0
 30
0.0
 40
5.0
  1
亀井
 41
1.224910909090909
  7
EXCADSTD
 72
     5
 11
29.37429999999943
 21
18.0
 31
0.0
100
AcDbText
  0
TEXT
  5
F8
330
1F
100
AcDbEntity
  8
枠_表
  6
CONTINUOUS
 62
     2
100
AcDbText
 10
17.44999998999992
 20
10.0
 30
0.0
 40
4.0
  1
28
 41
0.454054054054054
  7
EXCADSTD
 72
     5
 11
20.64999998999992
 21
10.0
 31
0.0
100
AcDbText
  0
TEXT
  5
F9
330
1F
100
AcDbEntity
  8
枠_表
  6
CONTINUOUS
 62
     2
100
AcDbText
 10
23.375
 20
10.0
 30
0.0
 40
4.0
  1
9
 41
0.4798828124999995
  7
EXCADSTD
 72
     5
 11
24.8375
 21
10.0
 31
0.0
100
AcDbText
  0
TEXT
  5
FA
330
1F
100
AcDbEntity
  8
枠_表
  6
CONTINUOUS
 62
     2
100
AcDbText
 10
27.80000000999996
 20
10.0
 30
0.0
 40
4.0
  1
28
 41
0.454054054054054
  7
EXCADSTD
 72
     5
 11
31.00000000999996
 21
10.0
 31
0.0
100
AcDbText
  0
POLYLINE
  5
FB
330
1F
100
AcDbEntity
  8
化粧台
  6
CONTINUOUS
 62
     3
100
AcDb2dPolyline
 66
     1
 10
0.0
 20
0.0
 30
0.0
 70
   128
  0
VERTEX
  5
FC
330
FB
100
AcDbEntity
  8
化粧台
  6
CONTINUOUS
 62
     3
100
AcDbVertex
100
AcDb2dVertex
 10
1586.999999999997
 20
3880.0
 30
0.0
  0
VERTEX
  5
FD
330
FB
100
AcDbEntity
  8
化粧台
  6
CONTINUOUS
 62
     3
100
AcDbVertex
100
AcDb2dVertex
 10
1609.999999999997
 20
3830.5
 30
0.0
  0
SEQEND
  5
FE
330
FB
100
AcDbEntity
  8
化粧台
  6
CONTINUOUS
 62
     3
  0
LINE
  5
FF
330
1F
100
AcDbEntity
  8
化粧台
  6
CONTINUOUS
 62
     3
100
AcDbLine
 10
1612.763749118668
 20
3842.350574621249
 30
0.0
 11
1586.999999999997
 21
3880.0
 31
0.0
  0
LINE
  5
100
330
1F
100
AcDbEntity
  8
化粧台
  6
CONTINUOUS
 62
     3
100
AcDbLine
 10
1586.999999999997
 20
3880.0
 30
0.0
 11
1599.16048958401
 21
3836.029868170801
 31
0.0
  0
POLYLINE
  5
101
330
1F
100
AcDbEntity
  8
化粧台
  6
CONTINUOUS
 62
     3
100
AcDb2dPolyline
 66
     1
 10
0.0
 20
0.0
 30
0.0
 70
   128
  0
VERTEX
  5
102
330
101
100
AcDbEntity
  8
化粧台
  6
CONTINUOUS
 62
     3
100
AcDbVertex
100
AcDb2dVertex
 10
2456.999999999999
 20
2935.19999999995
 30
0.0
  0
VERTEX
  5
103
330
101
100
AcDbEntity
  8
化粧台
  6
CONTINUOUS
 62
     3
100
AcDbVertex
100
AcDb2dVertex
 10
2410.999999999999
 20
2955.19999999995
 30
0.0
  0
SEQEND
  5
104
330
101
100
AcDbEntity
  8
化粧台
  6
CONTINUOUS
 62
     3
  0
LINE
  5
105
330
1F
100
AcDbEntity
  8
化粧台
  6
CONTINUOUS
 62
     3
100
AcDbLine
 10
2412.741401632995
 20
2946.264649591701
 30
0.0
 11
2456.999999999999
 21
2935.19999999995
 31
0.0
  0
LINE
  5
106
330
1F
100
AcDbEntity
  8
化粧台
  6
CONTINUOUS
 62
     3
100
AcDbLine
 10
2456.999999999999
 20
2935.19999999995
 30
0.0
 11
2418.722293304212
 21
2960.0207004355
 31
0.0
  0
POLYLINE
  5
107
330
1F
100
AcDbEntity
  8
化粧台
  6
CONTINUOUS
 62
     3
100
AcDb2dPolyline
 66
     1
 10
0.0
 20
0.0
 30
0.0
 70
   128
  0
VERTEX
  5
108
330
107
100
AcDbEntity
  8
化粧台
  6
CONTINUOUS
 62
     3
100
AcDbVertex
100
AcDb2dVertex
 10
1954.999999999997
 20
941.0
 30
0.0
  0
VERTEX
  5
109
330
107
100
AcDbEntity
  8
化粧台
  6
CONTINUOUS
 62
     3
100
AcDbVertex
100
AcDb2dVertex
 10
1935.999999999997
 20
990.0
 30
0.0
  0
SEQEND
  5
10A
330
107
100
AcDbEntity
  8
化粧台
  6
CONTINUOUS
 62
     3
  0
LINE
  5
10B
330
1F
100
AcDbEntity
  8
化粧台
  6
CONTINUOUS
 62
     3
100
AcDbLine
 10
1931.738536730782
 20
980.2447999940749
 30
0.0
 11
1954.999999999997
 21
941.0
 31
0.0
  0
LINE
  5
10C
330
1F
100
AcDbEntity
  8
化粧台
  6
CONTINUOUS
 62
     3
100
AcDbLine
 10
1954.999999999997
 20
941.0
 30
0.0
 11
1945.723956365034
 21
985.667717811438
 31
0.0
  0
LINE
  5
10D
330
1F
100
AcDbEntity
  8
化粧台
  6
CONTINUOUS
 62
     3
100
AcDbLine
 10
829.9999999999991
 20
922.5000001788139
 30
0.0
 11
829.9999999999991
 21
777.0
 31
0.0
  0
LINE
  5
10E
330
1F
100
AcDbEntity
  8
化粧台
  6
CONTINUOUS
 62
     3
100
AcDbLine
 10
979.9999999999991
 20
922.5000001788139
 30
0.0
 11
979.9999999999991
 21
777.0
 31
0.0
  0
TEXT
  5
10F
330
1F
100
AcDbEntity
  8
化粧台
  6
CONTINUOUS
 62
     2
100
AcDbText
 10
457.9999999999991
 20
797.249999910593
 30
0.0
 40
59.99999618530273
  1
１５０
 41
1.029411764705882
  7
EXCADSTD
 72
     5
 11
607.9999904632559
 21
797.249999910593
 31
0.0
100
AcDbText
  0
TEXT
  5
110
330
1F
100
AcDbEntity
  8
化粧台
  6
CONTINUOUS
 62
     2
100
AcDbText
 10
600.4999999999991
 20
797.249999910593
 30
0.0
 40
48.0
  1
（床給水）
 41
0.9655172413793105
  7
EXCADSTD
 72
     5
 11
792.4999999999991
 21
797.249999910593
 31
0.0
100
AcDbText
  0
LINE
  5
111
330
1F
100
AcDbEntity
  8
化粧台
  6
CONTINUOUS
 62
     3
100
AcDbLine
 10
452.750005722045
 20
792.0
 30
0.0
 11
1024.999999999999
 21
792.0
 31
0.0
  0
LINE
  5
112
330
1F
100
AcDbEntity
  8
化粧台
  6
CONTINUOUS
 62
     3
100
AcDbLine
 10
784.9999999999991
 20
784.5
 30
0.0
 11
829.9999999999991
 21
792.0
 31
0.0
  0
LINE
  5
113
330
1F
100
AcDbEntity
  8
化粧台
  6
CONTINUOUS
 62
     3
100
AcDbLine
 10
829.9999999999991
 20
792.0
 30
0.0
 11
784.9999999999991
 21
799.5000000000001
 31
0.0
  0
LINE
  5
114
330
1F
100
AcDbEntity
  8
化粧台
  6
CONTINUOUS
 62
     3
100
AcDbLine
 10
1024.999999999999
 20
799.5
 30
0.0
 11
979.9999999999991
 21
792.0
 31
0.0
  0
LINE
  5
115
330
1F
100
AcDbEntity
  8
化粧台
  6
CONTINUOUS
 62
     3
100
AcDbLine
 10
979.9999999999991
 20
792.0
 30
0.0
 11
1024.999999999999
 21
784.5
 31
0.0
  0
LINE
  5
116
330
1F
100
AcDbEntity
  8
化粧台
  6
CONTINUOUS
 62
     3
100
AcDbLine
 10
2376.999999999999
 20
922.5000001788139
 30
0.0
 11
2376.999999999999
 21
777.0
 31
0.0
  0
LINE
  5
117
330
1F
100
AcDbEntity
  8
化粧台
  6
CONTINUOUS
 62
     3
100
AcDbLine
 10
2456.999999999999
 20
930.5000001788139
 30
0.0
 11
2456.999999999999
 21
777.0
 31
0.0
  0
TEXT
  5
118
330
1F
100
AcDbEntity
  8
化粧台
  6
CONTINUOUS
 62
     2
100
AcDbText
 10
2501.999999999999
 20
797.249999910593
 30
0.0
 40
59.99999618530273
  1
８０
 41
1.020759090909089
  7
EXCADSTD
 72
     5
 11
2598.242993881034
 21
797.249999910593
 31
0.0
100
AcDbText
  0
TEXT
  5
119
330
1F
100
AcDbEntity
  8
化粧台
  6
CONTINUOUS
 62
     2
100
AcDbText
 10
2599.499999999999
 20
797.249999910593
 30
0.0
 40
48.0
  1
（床給水）
 41
0.9655172413793105
  7
EXCADSTD
 72
     5
 11
2791.499999999999
 21
797.249999910593
 31
0.0
100
AcDbText
  0
LINE
  5
11A
330
1F
100
AcDbEntity
  8
化粧台
  6
CONTINUOUS
 62
     3
100
AcDbLine
 10
2331.999999999999
 20
792.0
 30
0.0
 11
2789.249994277953
 21
792.0
 31
0.0
  0
LINE
  5
11B
330
1F
100
AcDbEntity
  8
化粧台
  6
CONTINUOUS
 62
     3
100
AcDbLine
 10
2331.999999999999
 20
784.5
 30
0.0
 11
2376.999999999999
 21
792.0
 31
0.0
  0
LINE
  5
11C
330
1F
100
AcDbEntity
  8
化粧台
  6
CONTINUOUS
 62
     3
100
AcDbLine
 10
2376.999999999999
 20
792.0
 30
0.0
 11
2331.999999999999
 21
799.5000000000001
 31
0.0
  0
LINE
  5
11D
330
1F
100
AcDbEntity
  8
化粧台
  6
CONTINUOUS
 62
     3
100
AcDbLine
 10
2501.999999999999
 20
799.5
 30
0.0
 11
2456.999999999999
 21
792.0
 31
0.0
  0
LINE
  5
11E
330
1F
100
AcDbEntity
  8
化粧台
  6
CONTINUOUS
 62
     3
100
AcDbLine
 10
2456.999999999999
 20
792.0
 30
0.0
 11
2501.999999999999
 21
784.5
 31
0.0
  0
TEXT
  5
11F
330
1F
100
AcDbEntity
  8
化粧台
  6
CONTINUOUS
 62
     2
100
AcDbText
 10
2555.9502041379
 20
1565.249999910593
 30
0.0
 40
59.99999618530273
  1
Ｒ１/２
 41
0.8342465643686785
  7
EXCADSTD
 72
     5
 11
2729.95019078646
 21
1565.249999910593
 31
0.0
100
AcDbText
  0
LEADER
  5
120
330
1F
100
AcDbEntity
  8
化粧台
  6
CONTINUOUS
 62
     3
100
AcDbLeader
  3
ISO-25
 76
     3
 10
2465.0
 20
1391.5
 30
0.0
 10
2560.5
 20
1560.0
 30
0.0
 10
2716.5
 20
1560.0
 30
0.0
1001
ACAD
1000
DSTYLE
1002
{
1070
     5
1000
EX_NORM
1070
    41
1040
45.0
1070
   341
1005
4D
1002
}
  0
TEXT
  5
121
330
1F
100
AcDbEntity
  8
化粧台
  6
CONTINUOUS
 62
     2
100
AcDbText
 10
2550.0
 20
1658.249999910593
 30
0.0
 40
59.99999618530273
  1
φ３２
 41
1.070588224822399
  7
EXCADSTD
 72
     5
 11
2705.999988555908
 21
1658.249999910593
 31
0.0
100
AcDbText
  0
LEADER
  5
122
330
1F
100
AcDbEntity
  8
化粧台
  6
CONTINUOUS
 62
     3
100
AcDbLeader
  3
ISO-25
 76
     3
 10
2471.4
 20
1427.0
 30
0.0
 10
2556.0
 20
1653.0
 30
0.0
 10
2697.0
 20
1653.0
 30
0.0
1001
ACAD
1000
DSTYLE
1002
{
1070
     5
1000
EX_NORM
1070
    41
1040
45.0
1070
   341
1005
4D
1002
}
  0
DIMENSION
  5
124
330
1F
100
AcDbEntity
  8
化粧台
  6
CONTINUOUS
 62
     3
100
AcDbDimension
  2
*D15
 10
2713.5
 20
941.0
 30
0.0
 11
2678.250000089407
 21
1176.0
 31
0.0
 70
   160
  1
470（壁排水）
  3
ISO-25
100
AcDbAlignedDimension
 13
2494.049999999999
 23
1411.0
 33
0.0
 14
2623.5
 24
941.0
 34
0.0
 50
90.0
100
AcDbRotatedDimension
1001
ACAD
1000
DSTYLE
1002
{
1070
   270
1070
     2
1070
     6
1000
EX_NORM
1070
     7
1000
EX_NORM
1070
    41
1040
44.99999618530273
1070
    42
1040
7.5
1070
    44
1040
15.0
1070
    73
1070
     0
1070
    74
1070
     0
1070
    75
1070
     0
1070
    76
1070
     1
1070
    77
1070
     1
1070
    78
1070
     8
1070
   140
1040
59.99999618530273
1070
   147
1040
0.0
1070
   173
1070
     1
1070
   176
1070
     3
1070
   177
1070
     3
1070
   178
1070
     2
1070
   271
1070
     2
1070
   277
1070
     2
1070
   279
1070
     2
1070
   280
1070
     0
1070
   287
1070
     5
1070
   340
1005
123
1002
}
  0
LINE
  5
131
330
1F
100
AcDbEntity
  8
化粧台
  6
EXLTYPE4
 62
     6
100
AcDbLine
 10
1713.999999999997
 20
941.0
 30
0.0
 11
305.0
 21
941.0
 31
0.0
  0
LINE
  5
132
330
1F
100
AcDbEntity
  8
化粧台
  6
CONTINUOUS
 62
     2
100
AcDbLine
 10
546.9999999999982
 20
941.0
 30
0.0
 11
546.9999999999982
 21
1031.0
 31
0.0
  0
LINE
  5
133
330
1F
100
AcDbEntity
  8
化粧台
  6
CONTINUOUS
 62
     2
100
AcDbLine
 10
1262.999999999997
 20
941.0
 30
0.0
 11
1262.999999999997
 21
1031.0
 31
0.0
  0
LINE
  5
134
330
1F
100
AcDbEntity
  8
化粧台
  6
CONTINUOUS
 62
     2
100
AcDbLine
 10
1279.999999999997
 20
1620.999999999999
 30
0.0
 11
529.9999999999982
 21
1620.999999999999
 31
0.0
  0
LINE
  5
135
330
1F
100
AcDbEntity
  8
化粧台
  6
CONTINUOUS
 62
     2
100
AcDbLine
 10
529.9999999999982
 20
1639.999999999999
 30
0.0
 11
529.9999999999982
 21
1621.0
 31
0.0
  0
LINE
  5
136
330
1F
100
AcDbEntity
  8
化粧台
  6
CONTINUOUS
 62
     2
100
AcDbLine
 10
1279.999999999997
 20
1639.999999999999
 30
0.0
 11
1279.999999999997
 21
1620.999999999999
 31
0.0
  0
LINE
  5
137
330
1F
100
AcDbEntity
  8
化粧台
  6
CONTINUOUS
 62
     6
100
AcDbLine
 10
649.9999999999982
 20
1533.999999999999
 30
0.0
 11
649.9999999999982
 21
1507.999999999999
 31
0.0
  0
LINE
  5
138
330
1F
100
AcDbEntity
  8
化粧台
  6
CONTINUOUS
 62
     6
100
AcDbLine
 10
636.9999999999982
 20
1520.999999999999
 30
0.0
 11
662.9999999999982
 21
1520.999999999999
 31
0.0
  0
LINE
  5
139
330
1F
100
AcDbEntity
  8
化粧台
  6
CONTINUOUS
 62
     6
100
AcDbLine
 10
1159.999999999997
 20
1533.999999999999
 30
0.0
 11
1159.999999999997
 21
1507.999999999999
 31
0.0
  0
LINE
  5
13A
330
1F
100
AcDbEntity
  8
化粧台
  6
CONTINUOUS
 62
     6
100
AcDbLine
 10
1172.999999999997
 20
1520.999999999999
 30
0.0
 11
1146.999999999997
 21
1520.999999999999
 31
0.0
  0
LINE
  5
13B
330
1F
100
AcDbEntity
  8
化粧台
  6
CONTINUOUS
 62
     2
100
AcDbLine
 10
1279.999999999997
 20
1639.999999999999
 30
0.0
 11
529.9999999999982
 21
1639.999999999999
 31
0.0
  0
LINE
  5
13C
330
1F
100
AcDbEntity
  8
化粧台
  6
CONTINUOUS
 62
     2
100
AcDbLine
 10
531.9999999999982
 20
941.0
 30
0.0
 11
1277.999999999997
 21
941.0
 31
0.0
  0
LINE
  5
13D
330
1F
100
AcDbEntity
  8
化粧台
  6
CONTINUOUS
 62
     2
100
AcDbLine
 10
1277.999999999997
 20
941.0
 30
0.0
 11
1277.999999999997
 21
1620.999999999999
 31
0.0
  0
LINE
  5
13E
330
1F
100
AcDbEntity
  8
化粧台
  6
CONTINUOUS
 62
     2
100
AcDbLine
 10
531.9999999999982
 20
941.0
 30
0.0
 11
531.9999999999982
 21
1621.0
 31
0.0
  0
LINE
  5
13F
330
1F
100
AcDbEntity
  8
化粧台
  6
CONTINUOUS
 62
     6
100
AcDbLine
 10
1274.999999999997
 20
1606.0
 30
0.0
 11
534.9999999999982
 21
1606.0
 31
0.0
  0
LINE
  5
140
330
1F
100
AcDbEntity
  8
化粧台
  6
CONTINUOUS
 62
     6
100
AcDbLine
 10
1274.999999999997
 20
1616.0
 30
0.0
 11
534.9999999999982
 21
1616.0
 31
0.0
  0
LINE
  5
141
330
1F
100
AcDbEntity
  8
化粧台
  6
CONTINUOUS
 62
     6
100
AcDbLine
 10
1274.999999999997
 20
1427.0
 30
0.0
 11
534.9999999999982
 21
1427.0
 31
0.0
  0
LINE
  5
142
330
1F
100
AcDbEntity
  8
化粧台
  6
CONTINUOUS
 62
     6
100
AcDbLine
 10
1274.999999999997
 20
1437.0
 30
0.0
 11
534.9999999999982
 21
1437.0
 31
0.0
  0
LINE
  5
143
330
1F
100
AcDbEntity
  8
化粧台
  6
CONTINUOUS
 62
     2
100
AcDbLine
 10
1274.999999999997
 20
1441.0
 30
0.0
 11
534.9999999999982
 21
1441.0
 31
0.0
  0
LINE
  5
144
330
1F
100
AcDbEntity
  8
化粧台
  6
CONTINUOUS
 62
     2
100
AcDbLine
 10
1274.999999999997
 20
1031.0
 30
0.0
 11
534.9999999999982
 21
1031.0
 31
0.0
  0
LINE
  5
145
330
1F
100
AcDbEntity
  8
化粧台
  6
CONTINUOUS
 62
     6
100
AcDbLine
 10
1274.999999999997
 20
1409.0423136954
 30
0.0
 11
534.9999999999982
 21
1409.0423136954
 31
0.0
  0
LINE
  5
146
330
1F
100
AcDbEntity
  8
化粧台
  6
CONTINUOUS
 62
     6
100
AcDbLine
 10
1274.999999999997
 20
1405.0
 30
0.0
 11
534.9999999999982
 21
1405.0
 31
0.0
  0
LINE
  5
147
330
1F
100
AcDbEntity
  8
化粧台
  6
CONTINUOUS
 62
     6
100
AcDbLine
 10
1274.999999999997
 20
1588.0423136954
 30
0.0
 11
534.9999999999982
 21
1588.0423136954
 31
0.0
  0
LINE
  5
148
330
1F
100
AcDbEntity
  8
化粧台
  6
CONTINUOUS
 62
     6
100
AcDbLine
 10
1274.999999999997
 20
1584.0
 30
0.0
 11
534.9999999999982
 21
1584.0
 31
0.0
  0
LINE
  5
149
330
1F
100
AcDbEntity
  8
化粧台
  6
CONTINUOUS
 62
     6
100
AcDbLine
 10
1274.999999999997
 20
1616.0
 30
0.0
 11
1274.999999999997
 21
1584.0
 31
0.0
  0
LINE
  5
14A
330
1F
100
AcDbEntity
  8
化粧台
  6
CONTINUOUS
 62
     2
100
AcDbLine
 10
1274.999999999997
 20
1584.0
 30
0.0
 11
1274.999999999997
 21
1441.0
 31
0.0
  0
LINE
  5
14B
330
1F
100
AcDbEntity
  8
化粧台
  6
CONTINUOUS
 62
     6
100
AcDbLine
 10
1274.999999999997
 20
1437.0
 30
0.0
 11
1274.999999999997
 21
1405.0
 31
0.0
  0
LINE
  5
14C
330
1F
100
AcDbEntity
  8
化粧台
  6
CONTINUOUS
 62
     2
100
AcDbLine
 10
1274.999999999997
 20
1405.0
 30
0.0
 11
1274.999999999997
 21
1031.0
 31
0.0
  0
LINE
  5
14D
330
1F
100
AcDbEntity
  8
化粧台
  6
CONTINUOUS
 62
     6
100
AcDbLine
 10
534.9999999999982
 20
1616.0
 30
0.0
 11
534.9999999999982
 21
1584.0
 31
0.0
  0
LINE
  5
14E
330
1F
100
AcDbEntity
  8
化粧台
  6
CONTINUOUS
 62
     2
100
AcDbLine
 10
534.9999999999982
 20
1584.0
 30
0.0
 11
534.9999999999982
 21
1441.0
 31
0.0
  0
LINE
  5
14F
330
1F
100
AcDbEntity
  8
化粧台
  6
CONTINUOUS
 62
     6
100
AcDbLine
 10
534.9999999999982
 20
1437.0
 30
0.0
 11
534.9999999999982
 21
1405.0
 31
0.0
  0
LINE
  5
150
330
1F
100
AcDbEntity
  8
化粧台
  6
CONTINUOUS
 62
     2
100
AcDbLine
 10
534.9999999999982
 20
1405.0
 30
0.0
 11
534.9999999999982
 21
1031.0
 31
0.0
  0
LINE
  5
151
330
1F
100
AcDbEntity
  8
化粧台
  6
CONTINUOUS
 62
     2
100
AcDbLine
 10
561.9999999999982
 20
941.0
 30
0.0
 11
561.9999999999982
 21
1031.0
 31
0.0
  0
LINE
  5
152
330
1F
100
AcDbEntity
  8
化粧台
  6
CONTINUOUS
 62
     2
100
AcDbLine
 10
1247.999999999997
 20
941.0
 30
0.0
 11
1247.999999999997
 21
1031.0
 31
0.0
  0
LINE
  5
153
330
1F
100
AcDbEntity
  8
化粧台
  6
CONTINUOUS
 62
     2
100
AcDbLine
 10
680.283476981187
 20
1798.340358287754
 30
0.0
 11
735.9999999999982
 21
1640.0
 31
0.0
  0
LINE
  5
154
330
1F
100
AcDbEntity
  8
化粧台
  6
CONTINUOUS
 62
     2
100
AcDbLine
 10
1073.999999999997
 20
1640.0
 30
0.0
 11
1129.716523018808
 21
1798.340358287754
 31
0.0
  0
LINE
  5
155
330
1F
100
AcDbEntity
  8
化粧台
  6
CONTINUOUS
 62
     2
100
AcDbLine
 10
735.9999999999982
 20
1640.0
 30
0.0
 11
1073.999999999997
 21
1640.0
 31
0.0
  0
ARC
  5
156
330
1F
100
AcDbEntity
  8
化粧台
  6
CONTINUOUS
 62
     2
100
AcDbCircle
 10
684.9999999999982
 20
1800.0
 30
0.0
 40
5.0
100
AcDbArc
 50
92.60390534515754
 51
199.3858598894216
  0
ARC
  5
157
330
1F
100
AcDbEntity
  8
化粧台
  6
CONTINUOUS
 62
     2
100
AcDbCircle
 10
1124.999999999997
 20
1800.0
 30
0.0
 40
5.0
100
AcDbArc
 50
340.6141401105788
 51
87.39609465484251
  0
ARC
  5
158
330
1F
100
AcDbEntity
  8
化粧台
  6
CONTINUOUS
 62
     2
100
AcDbCircle
 10
904.9999999999982
 20
6637.500000000005
 30
0.0
 40
4837.500000000005
100
AcDbArc
 50
267.4553150987836
 51
272.5446849012167
  0
LINE
  5
159
330
1F
100
AcDbEntity
  8
化粧台
  6
CONTINUOUS
 62
     6
100
AcDbLine
 10
806.6435055525035
 20
1801.0
 30
0.0
 11
1003.356494447487
 21
1801.0
 31
0.0
  0
LINE
  5
15A
330
1F
100
AcDbEntity
  8
化粧台
  6
CONTINUOUS
 62
     2
100
AcDbLine
 10
1129.149999999995
 20
916.5
 30
0.0
 11
1160.849999999996
 21
916.5
 31
0.0
  0
LINE
  5
15B
330
1F
100
AcDbEntity
  8
化粧台
  6
CONTINUOUS
 62
     2
100
AcDbLine
 10
1129.149999999995
 20
941.0
 30
0.0
 11
1129.149999999995
 21
916.5
 31
0.0
  0
LINE
  5
15C
330
1F
100
AcDbEntity
  8
化粧台
  6
CONTINUOUS
 62
     2
100
AcDbLine
 10
1160.849999999996
 20
916.5
 30
0.0
 11
1160.849999999994
 21
941.0
 31
0.0
  0
ARC
  5
15D
330
1F
100
AcDbEntity
  8
化粧台
  6
EXLTYPE2
 62
     6
100
AcDbCircle
 10
750.1888888889316
 20
1575.0
 30
0.0
 40
174.5111111111056
100
AcDbArc
 50
351.7636205920222
 51
8.236379407977804
  0
LINE
  5
15E
330
1F
100
AcDbEntity
  8
化粧台
  6
EXLTYPE2
 62
     6
100
AcDbLine
 10
922.9000000000033
 20
1550.000000000035
 30
0.0
 11
920.8000000000375
 21
1547.90000000007
 31
0.0
  0
ARC
  5
15F
330
1F
100
AcDbEntity
  8
化粧台
  6
EXLTYPE2
 62
     6
100
AcDbCircle
 10
1059.811111111142
 20
1575.0
 30
0.0
 40
174.5111111111056
100
AcDbArc
 50
171.7636205920223
 51
188.2363794079779
  0
LINE
  5
160
330
1F
100
AcDbEntity
  8
化粧台
  6
EXLTYPE2
 62
     6
100
AcDbLine
 10
887.1000000000731
 20
1550.000000000035
 30
0.0
 11
889.2000000000371
 21
1547.90000000007
 31
0.0
  0
LINE
  5
161
330
1F
100
AcDbEntity
  8
化粧台
  6
EXLTYPE2
 62
     6
100
AcDbLine
 10
878.7499999999982
 20
1620.5
 30
0.0
 11
931.2499999999973
 21
1620.5
 31
0.0
  0
ARC
  5
162
330
1F
100
AcDbEntity
  8
化粧台
  6
EXLTYPE2
 62
     6
100
AcDbCircle
 10
881.7499999999982
 20
1604.5
 30
0.0
 40
3.000000000000002
100
AcDbArc
 50
180.0
 51
270.0000000000002
  0
ARC
  5
163
330
1F
100
AcDbEntity
  8
化粧台
  6
EXLTYPE2
 62
     6
100
AcDbCircle
 10
928.2499999999982
 20
1604.5
 30
0.0
 40
3.000000000000002
100
AcDbArc
 50
270.0000000000002
 51
0.0
  0
LINE
  5
164
330
1F
100
AcDbEntity
  8
化粧台
  6
EXLTYPE2
 62
     6
100
AcDbLine
 10
931.2499999999973
 20
1620.5
 30
0.0
 11
931.2499999999973
 21
1604.5
 31
0.0
  0
LINE
  5
165
330
1F
100
AcDbEntity
  8
化粧台
  6
EXLTYPE2
 62
     6
100
AcDbLine
 10
881.7499999999982
 20
1601.5
 30
0.0
 11
928.2499999999982
 21
1601.5
 31
0.0
  0
LINE
  5
166
330
1F
100
AcDbEntity
  8
化粧台
  6
EXLTYPE2
 62
     6
100
AcDbLine
 10
878.7499999999982
 20
1620.5
 30
0.0
 11
878.7499999999982
 21
1604.5
 31
0.0
  0
LINE
  5
167
330
1F
100
AcDbEntity
  8
化粧台
  6
EXLTYPE2
 62
     6
100
AcDbLine
 10
887.0999999999985
 20
1600.0
 30
0.0
 11
887.0999999999985
 21
1601.5
 31
0.0
  0
LINE
  5
168
330
1F
100
AcDbEntity
  8
化粧台
  6
EXLTYPE2
 62
     6
100
AcDbLine
 10
922.8999999999978
 20
1600.0
 30
0.0
 11
922.8999999999978
 21
1601.5
 31
0.0
  0
LINE
  5
169
330
1F
100
AcDbEntity
  8
化粧台
  6
EXLTYPE2
 62
     6
100
AcDbLine
 10
876.7000000000389
 20
1635.7
 30
0.0
 11
933.3000000000366
 21
1635.7
 31
0.0
  0
LINE
  5
16A
330
1F
100
AcDbEntity
  8
化粧台
  6
EXLTYPE2
 62
     6
100
AcDbLine
 10
879.5000000000382
 20
1635.7
 30
0.0
 11
879.5000000000382
 21
1627.900000000001
 31
0.0
  0
LINE
  5
16B
330
1F
100
AcDbEntity
  8
化粧台
  6
EXLTYPE2
 62
     6
100
AcDbLine
 10
930.5000000000382
 20
1635.7
 30
0.0
 11
930.5000000000382
 21
1627.900000000001
 31
0.0
  0
LINE
  5
16C
330
1F
100
AcDbEntity
  8
化粧台
  6
EXLTYPE2
 62
     6
100
AcDbLine
 10
879.5000000000382
 20
1627.900000000001
 30
0.0
 11
930.5000000000382
 21
1627.900000000001
 31
0.0
  0
LINE
  5
16D
330
1F
100
AcDbEntity
  8
化粧台
  6
EXLTYPE2
 62
     6
100
AcDbLine
 10
881.5000000000382
 20
1627.900000000001
 30
0.0
 11
881.5000000000382
 21
1620.5
 31
0.0
  0
LINE
  5
16E
330
1F
100
AcDbEntity
  8
化粧台
  6
EXLTYPE2
 62
     6
100
AcDbLine
 10
928.5000000000382
 20
1627.900000000001
 30
0.0
 11
928.5000000000382
 21
1620.5
 31
0.0
  0
LINE
  5
16F
330
1F
100
AcDbEntity
  8
化粧台
  6
EXLTYPE2
 62
     6
100
AcDbLine
 10
881.6207949497984
 20
1635.7
 30
0.0
 11
881.6207949497984
 21
1627.900000000001
 31
0.0
  0
LINE
  5
170
330
1F
100
AcDbEntity
  8
化粧台
  6
EXLTYPE2
 62
     6
100
AcDbLine
 10
902.879205050278
 20
1635.7
 30
0.0
 11
902.879205050278
 21
1627.900000000001
 31
0.0
  0
LINE
  5
171
330
1F
100
AcDbEntity
  8
化粧台
  6
EXLTYPE2
 62
     6
100
AcDbLine
 10
907.1207949497984
 20
1635.7
 30
0.0
 11
907.1207949497984
 21
1627.900000000001
 31
0.0
  0
LINE
  5
172
330
1F
100
AcDbEntity
  8
化粧台
  6
EXLTYPE2
 62
     6
100
AcDbLine
 10
928.379205050278
 20
1635.7
 30
0.0
 11
928.379205050278
 21
1627.900000000001
 31
0.0
  0
LINE
  5
173
330
1F
100
AcDbEntity
  8
化粧台
  6
EXLTYPE2
 62
     6
100
AcDbLine
 10
893.3282038836078
 20
1620.5
 30
0.0
 11
893.3282038836078
 21
1604.5
 31
0.0
  0
LINE
  5
174
330
1F
100
AcDbEntity
  8
化粧台
  6
EXLTYPE2
 62
     6
100
AcDbLine
 10
895.2564123650482
 20
1620.5
 30
0.0
 11
895.2564123650482
 21
1604.5
 31
0.0
  0
LINE
  5
175
330
1F
100
AcDbEntity
  8
化粧台
  6
EXLTYPE2
 62
     6
100
AcDbLine
 10
914.7435876349482
 20
1620.5
 30
0.0
 11
914.7435876349482
 21
1604.5
 31
0.0
  0
LINE
  5
176
330
1F
100
AcDbEntity
  8
化粧台
  6
EXLTYPE2
 62
     6
100
AcDbLine
 10
916.6717961163886
 20
1620.5
 30
0.0
 11
916.6717961163886
 21
1604.5
 31
0.0
  0
LINE
  5
177
330
1F
100
AcDbEntity
  8
化粧台
  6
EXLTYPE2
 62
     6
100
AcDbLine
 10
887.0999999999985
 20
1600.0
 30
0.0
 11
922.8999999999978
 21
1600.0
 31
0.0
  0
LINE
  5
178
330
1F
100
AcDbEntity
  8
化粧台
  6
EXLTYPE2
 62
     6
100
AcDbLine
 10
887.1000000001077
 20
1550.0
 30
0.0
 11
922.8999999999669
 21
1550.0
 31
0.0
  0
LINE
  5
179
330
1F
100
AcDbEntity
  8
化粧台
  6
EXLTYPE2
 62
     6
100
AcDbLine
 10
889.2000000000389
 20
1547.900000000071
 30
0.0
 11
920.8000000000375
 21
1547.900000000071
 31
0.0
  0
LINE
  5
17A
330
1F
100
AcDbEntity
  8
化粧台
  6
EXLTYPE2
 62
     6
100
AcDbLine
 10
933.3000000000366
 20
1640.0
 30
0.0
 11
933.3000000000366
 21
1635.7
 31
0.0
  0
LINE
  5
17B
330
1F
100
AcDbEntity
  8
化粧台
  6
EXLTYPE2
 62
     6
100
AcDbLine
 10
876.7000000000389
 20
1640.0
 30
0.0
 11
876.7000000000389
 21
1635.7
 31
0.0
  0
LINE
  5
17C
330
1F
100
AcDbEntity
  8
化粧台
  6
EXLTYPE2
 62
     6
100
AcDbLine
 10
882.1999999999989
 20
1516.0
 30
0.0
 11
882.1999999999989
 21
1498.2
 31
0.0
  0
LINE
  5
17D
330
1F
100
AcDbEntity
  8
化粧台
  6
EXLTYPE2
 62
     6
100
AcDbLine
 10
927.7999999999975
 20
1516.0
 30
0.0
 11
927.7999999999975
 21
1498.2
 31
0.0
  0
LINE
  5
17E
330
1F
100
AcDbEntity
  8
化粧台
  6
EXLTYPE2
 62
     6
100
AcDbLine
 10
882.1999999999989
 20
1516.0
 30
0.0
 11
927.7999999999975
 21
1516.0
 31
0.0
  0
LINE
  5
17F
330
1F
100
AcDbEntity
  8
化粧台
  6
EXLTYPE2
 62
     6
100
AcDbLine
 10
926.6433569163983
 20
1514.0
 30
0.0
 11
926.6433569163983
 21
1498.2
 31
0.0
  0
LINE
  5
180
330
1F
100
AcDbEntity
  8
化粧台
  6
EXLTYPE2
 62
     6
100
AcDbLine
 10
883.3566430835981
 20
1514.0
 30
0.0
 11
883.3566430835981
 21
1498.2
 31
0.0
  0
LINE
  5
181
330
1F
100
AcDbEntity
  8
化粧台
  6
EXLTYPE2
 62
     6
100
AcDbLine
 10
915.6007123056988
 20
1514.0
 30
0.0
 11
915.6007123056988
 21
1498.2
 31
0.0
  0
LINE
  5
182
330
1F
100
AcDbEntity
  8
化粧台
  6
EXLTYPE2
 62
     6
100
AcDbLine
 10
912.8083288864982
 20
1514.0
 30
0.0
 11
912.8083288864982
 21
1498.2
 31
0.0
  0
LINE
  5
183
330
1F
100
AcDbEntity
  8
化粧台
  6
EXLTYPE2
 62
     6
100
AcDbLine
 10
897.1916711134982
 20
1514.0
 30
0.0
 11
897.1916711134982
 21
1498.2
 31
0.0
  0
LINE
  5
184
330
1F
100
AcDbEntity
  8
化粧台
  6
EXLTYPE2
 62
     6
100
AcDbLine
 10
894.3992876942993
 20
1514.0
 30
0.0
 11
894.3992876942993
 21
1498.2
 31
0.0
  0
LINE
  5
185
330
1F
100
AcDbEntity
  8
化粧台
  6
EXLTYPE2
 62
     6
100
AcDbLine
 10
889.2000000000371
 20
1547.900000000071
 30
0.0
 11
889.2000000000371
 21
1516.0
 31
0.0
  0
LINE
  5
186
330
1F
100
AcDbEntity
  8
化粧台
  6
EXLTYPE2
 62
     6
100
AcDbLine
 10
920.8000000000375
 20
1547.900000000071
 30
0.0
 11
920.8000000000375
 21
1516.0
 31
0.0
  0
ARC
  5
187
330
1F
100
AcDbEntity
  8
化粧台
  6
EXLTYPE2
 62
     6
100
AcDbCircle
 10
1061.500000000001
 20
1520.469883160743
 30
0.0
 40
200.0000000000001
100
AcDbArc
 50
155.6784673232748
 51
180.0
  0
ARC
  5
188
330
1F
100
AcDbEntity
  8
化粧台
  6
EXLTYPE2
 62
     6
100
AcDbCircle
 10
1061.500000000001
 20
1520.469883160743
 30
0.0
 40
213.0000000000001
100
AcDbArc
 50
148.7001393759592
 51
180.0
  0
ARC
  5
189
330
1F
100
AcDbEntity
  8
化粧台
  6
EXLTYPE2
 62
     6
100
AcDbCircle
 10
748.4999999999945
 20
1520.469883160743
 30
0.0
 40
200.0000000000001
100
AcDbArc
 50
0.0
 51
24.3215326767253
  0
ARC
  5
18A
330
1F
100
AcDbEntity
  8
化粧台
  6
EXLTYPE2
 62
     6
100
AcDbCircle
 10
748.4999999999945
 20
1520.469883160743
 30
0.0
 40
213.0000000000001
100
AcDbArc
 50
0.0
 51
31.29986062404081
  0
ARC
  5
18B
330
1F
100
AcDbEntity
  8
化粧台
  6
EXLTYPE2
 62
     6
100
AcDbCircle
 10
1038.99999999999
 20
1445.499999999999
 30
0.0
 40
32.0
100
AcDbArc
 50
0.0
 51
90.00000000000004
  0
LINE
  5
18C
330
1F
100
AcDbEntity
  8
化粧台
  6
EXLTYPE2
 62
     6
100
AcDbLine
 10
1038.99999999999
 20
1477.499999999999
 30
0.0
 11
959.4999999999973
 21
1477.499999999999
 31
0.0
  0
LINE
  5
18D
330
1F
100
AcDbEntity
  8
化粧台
  6
EXLTYPE2
 62
     6
100
AcDbLine
 10
1038.999999999994
 20
1445.5
 30
0.0
 11
959.4999999999973
 21
1445.5
 31
0.0
  0
LINE
  5
18E
330
1F
100
AcDbEntity
  8
化粧台
  6
EXLTYPE2
 62
     6
100
AcDbLine
 10
1036.499999999997
 20
1396.5
 30
0.0
 11
1036.499999999997
 21
1361.5
 31
0.0
  0
LINE
  5
18F
330
1F
100
AcDbEntity
  8
化粧台
  6
EXLTYPE2
 62
     6
100
AcDbLine
 10
1073.499999999997
 20
1396.5
 30
0.0
 11
1073.499999999997
 21
1361.5
 31
0.0
  0
LINE
  5
190
330
1F
100
AcDbEntity
  8
化粧台
  6
EXLTYPE2
 62
     6
100
AcDbLine
 10
1039.149999999995
 20
1358.85
 30
0.0
 11
1039.149999999995
 21
1321.093254606
 31
0.0
  0
LINE
  5
191
330
1F
100
AcDbEntity
  8
化粧台
  6
EXLTYPE2
 62
     6
100
AcDbLine
 10
1070.849999999996
 20
1358.85
 30
0.0
 11
1070.849999999996
 21
1318.5
 31
0.0
  0
LINE
  5
192
330
1F
100
AcDbEntity
  8
化粧台
  6
EXLTYPE2
 62
     6
100
AcDbLine
 10
1070.849999999996
 20
1323.5
 30
0.0
 11
1086.178124999996
 21
1323.5
 31
0.0
  0
LINE
  5
193
330
1F
100
AcDbEntity
  8
化粧台
  6
EXLTYPE2
 62
     6
100
AcDbLine
 10
1100.856249999998
 20
1348.5
 30
0.0
 11
1100.856249999998
 21
1318.5
 31
0.0
  0
LINE
  5
194
330
1F
100
AcDbEntity
  8
化粧台
  6
EXLTYPE2
 62
     6
100
AcDbLine
 10
1051.178124999996
 20
1293.52532196
 30
0.0
 11
1051.178124999996
 21
1289.0
 31
0.0
  0
LINE
  5
195
330
1F
100
AcDbEntity
  8
化粧台
  6
EXLTYPE2
 62
     6
100
AcDbLine
 10
1086.178124999996
 20
1323.5
 30
0.0
 11
1086.178124999996
 21
1289.0
 31
0.0
  0
LINE
  5
196
330
1F
100
AcDbEntity
  8
化粧台
  6
EXLTYPE2
 62
     6
100
AcDbLine
 10
1073.499999999997
 20
1361.5
 30
0.0
 11
1070.849999999996
 21
1358.85
 31
0.0
  0
LINE
  5
197
330
1F
100
AcDbEntity
  8
化粧台
  6
EXLTYPE2
 62
     6
100
AcDbLine
 10
1036.499999999997
 20
1361.5
 30
0.0
 11
1039.149999999995
 21
1358.85
 31
0.0
  0
LINE
  5
198
330
1F
100
AcDbEntity
  8
化粧台
  6
EXLTYPE2
 62
     6
100
AcDbLine
 10
1086.756249999996
 20
1318.5
 30
0.0
 11
1100.856249999998
 21
1318.5
 31
0.0
  0
LINE
  5
199
330
1F
100
AcDbEntity
  8
化粧台
  6
EXLTYPE2
 62
     6
100
AcDbLine
 10
1031.599999999996
 20
1396.5
 30
0.0
 11
1078.399999999997
 21
1396.5
 31
0.0
  0
LINE
  5
19A
330
1F
100
AcDbEntity
  8
化粧台
  6
EXLTYPE2
 62
     6
100
AcDbLine
 10
1033.599999999996
 20
1414.5
 30
0.0
 11
1076.399999999997
 21
1414.5
 31
0.0
  0
LINE
  5
19B
330
1F
100
AcDbEntity
  8
化粧台
  6
EXLTYPE2
 62
     6
100
AcDbLine
 10
1031.599999999996
 20
1412.5
 30
0.0
 11
1031.599999999996
 21
1396.5
 31
0.0
  0
LINE
  5
19C
330
1F
100
AcDbEntity
  8
化粧台
  6
EXLTYPE2
 62
     6
100
AcDbLine
 10
1078.399999999997
 20
1412.5
 30
0.0
 11
1078.399999999997
 21
1396.5
 31
0.0
  0
ARC
  5
19D
330
1F
100
AcDbEntity
  8
化粧台
  6
EXLTYPE2
 62
     6
100
AcDbCircle
 10
1033.599999999996
 20
1412.5
 30
0.0
 40
2.0
100
AcDbArc
 50
90.00000000000004
 51
180.0
  0
ARC
  5
19E
330
1F
100
AcDbEntity
  8
化粧台
  6
EXLTYPE2
 62
     6
100
AcDbCircle
 10
1076.399999999997
 20
1412.5
 30
0.0
 40
2.0
100
AcDbArc
 50
0.0
 51
90.00000000000004
  0
LINE
  5
19F
330
1F
100
AcDbEntity
  8
化粧台
  6
EXLTYPE2
 62
     6
100
AcDbLine
 10
1070.849999999996
 20
1348.5
 30
0.0
 11
1105.756249999996
 21
1348.5
 31
0.0
  0
LINE
  5
1A0
330
1F
100
AcDbEntity
  8
化粧台
  6
EXLTYPE2
 62
     6
100
AcDbLine
 10
1073.499999999997
 20
1366.5
 30
0.0
 11
1103.756249999996
 21
1366.5
 31
0.0
  0
LINE
  5
1A1
330
1F
100
AcDbEntity
  8
化粧台
  6
EXLTYPE2
 62
     6
100
AcDbLine
 10
1105.756249999996
 20
1364.5
 30
0.0
 11
1105.756249999996
 21
1348.5
 31
0.0
  0
ARC
  5
1A2
330
1F
100
AcDbEntity
  8
化粧台
  6
EXLTYPE2
 62
     6
100
AcDbCircle
 10
1103.756249999996
 20
1364.5
 30
0.0
 40
2.0
100
AcDbArc
 50
0.0
 51
90.00000000000004
  0
LINE
  5
1A3
330
1F
100
AcDbEntity
  8
化粧台
  6
EXLTYPE2
 62
     6
100
AcDbLine
 10
1045.678124999996
 20
1289.0
 30
0.0
 11
1091.678124999996
 21
1289.0
 31
0.0
  0
LINE
  5
1A4
330
1F
100
AcDbEntity
  8
化粧台
  6
EXLTYPE2
 62
     6
100
AcDbLine
 10
1047.178124999996
 20
1272.5
 30
0.0
 11
1090.178124999996
 21
1272.5
 31
0.0
  0
LINE
  5
1A5
330
1F
100
AcDbEntity
  8
化粧台
  6
EXLTYPE2
 62
     6
100
AcDbLine
 10
1091.678124999996
 20
1274.0
 30
0.0
 11
1091.678124999996
 21
1289.0
 31
0.0
  0
LINE
  5
1A6
330
1F
100
AcDbEntity
  8
化粧台
  6
EXLTYPE2
 62
     6
100
AcDbLine
 10
1045.678124999996
 20
1274.0
 30
0.0
 11
1045.678124999996
 21
1289.0
 31
0.0
  0
ARC
  5
1A7
330
1F
100
AcDbEntity
  8
化粧台
  6
EXLTYPE2
 62
     6
100
AcDbCircle
 10
1047.178124999996
 20
1274.0
 30
0.0
 40
1.5
100
AcDbArc
 50
180.0
 51
270.0000000000002
  0
ARC
  5
1A8
330
1F
100
AcDbEntity
  8
化粧台
  6
EXLTYPE2
 62
     6
100
AcDbCircle
 10
1090.178124999996
 20
1274.0
 30
0.0
 40
1.5
100
AcDbArc
 50
270.0000000000002
 51
0.0
  0
LINE
  5
1A9
330
1F
100
AcDbEntity
  8
化粧台
  6
EXLTYPE2
 62
     6
100
AcDbLine
 10
1039.149999999995
 20
1358.85
 30
0.0
 11
1070.849999999996
 21
1358.85
 31
0.0
  0
ARC
  5
1AA
330
1F
100
AcDbEntity
  8
化粧台
  6
EXLTYPE2
 62
     6
100
AcDbCircle
 10
1079.149999999997
 20
1321.093254606
 30
0.0
 40
40.0
100
AcDbArc
 50
180.0
 51
216.1437885097002
  0
ARC
  5
1AB
330
1F
100
AcDbEntity
  8
化粧台
  6
EXLTYPE2
 62
     6
100
AcDbCircle
 10
1058.961516187996
 20
1306.347912245
 30
0.0
 40
15.00000000000001
100
AcDbArc
 50
216.1437885097004
 51
310.3739745502004
  0
ARC
  5
1AC
330
1F
100
AcDbEntity
  8
化粧台
  6
EXLTYPE2
 62
     6
100
AcDbCircle
 10
1056.595910551997
 20
1319.423829377
 30
0.0
 40
40.0
100
AcDbArc
 50
317.6935529327007
 51
358.6765942212
  0
LINE
  5
1AD
330
1F
100
AcDbEntity
  8
化粧台
  6
EXLTYPE2
 62
     6
100
AcDbLine
 10
1098.206249999996
 20
1368.328125
 30
0.0
 11
1098.206249999996
 21
1366.5
 31
0.0
  0
ARC
  5
1AE
330
1F
100
AcDbEntity
  8
化粧台
  6
EXLTYPE2
 62
     6
100
AcDbCircle
 10
1113.678124999996
 20
1368.328125
 30
0.0
 40
15.47187500000001
100
AcDbArc
 50
0.0
 51
180.0
  0
ARC
  5
1AF
330
1F
100
AcDbEntity
  8
化粧台
  6
EXLTYPE2
 62
     6
100
AcDbCircle
 10
1113.678124999996
 20
1368.328125
 30
0.0
 40
47.17187499999
100
AcDbArc
 50
0.0
 51
138.4056477225004
  0
LINE
  5
1B0
330
1F
100
AcDbEntity
  8
化粧台
  6
EXLTYPE2
 62
     6
100
AcDbLine
 10
1037.870011102997
 20
1412.5
 30
0.0
 11
1037.870011102997
 21
1396.5
 31
0.0
  0
LINE
  5
1B1
330
1F
100
AcDbEntity
  8
化粧台
  6
EXLTYPE2
 62
     6
100
AcDbLine
 10
1048.729988896996
 20
1412.5
 30
0.0
 11
1048.729988896996
 21
1396.5
 31
0.0
  0
LINE
  5
1B2
330
1F
100
AcDbEntity
  8
化粧台
  6
EXLTYPE2
 62
     6
100
AcDbLine
 10
1061.270011102996
 20
1412.5
 30
0.0
 11
1061.270011102996
 21
1396.5
 31
0.0
  0
LINE
  5
1B3
330
1F
100
AcDbEntity
  8
化粧台
  6
EXLTYPE2
 62
     6
100
AcDbLine
 10
1072.129988896996
 20
1412.5
 30
0.0
 11
1072.129988896996
 21
1396.5
 31
0.0
  0
LINE
  5
1B4
330
1F
100
AcDbEntity
  8
化粧台
  6
EXLTYPE2
 62
     6
100
AcDbLine
 10
1076.086238896997
 20
1364.5
 30
0.0
 11
1076.086238896997
 21
1348.5
 31
0.0
  0
LINE
  5
1B5
330
1F
100
AcDbEntity
  8
化粧台
  6
EXLTYPE2
 62
     6
100
AcDbLine
 10
1088.626261102997
 20
1364.5
 30
0.0
 11
1088.626261102997
 21
1348.5
 31
0.0
  0
LINE
  5
1B6
330
1F
100
AcDbEntity
  8
化粧台
  6
EXLTYPE2
 62
     6
100
AcDbLine
 10
1099.486238896997
 20
1364.5
 30
0.0
 11
1099.486238896997
 21
1348.5
 31
0.0
  0
LINE
  5
1B7
330
1F
100
AcDbEntity
  8
化粧台
  6
EXLTYPE2
 62
     6
100
AcDbLine
 10
1047.824466462997
 20
1272.5
 30
0.0
 11
1047.824466462997
 21
1289.0
 31
0.0
  0
LINE
  5
1B8
330
1F
100
AcDbEntity
  8
化粧台
  6
EXLTYPE2
 62
     6
100
AcDbLine
 10
1089.531783536998
 20
1272.5
 30
0.0
 11
1089.531783536998
 21
1289.0
 31
0.0
  0
LINE
  5
1B9
330
1F
100
AcDbEntity
  8
化粧台
  6
EXLTYPE2
 62
     6
100
AcDbLine
 10
1060.394586245996
 20
1274.0
 30
0.0
 11
1060.394586245996
 21
1289.0
 31
0.0
  0
LINE
  5
1BA
330
1F
100
AcDbEntity
  8
化粧台
  6
EXLTYPE2
 62
     6
100
AcDbLine
 10
1076.961663753998
 20
1274.0
 30
0.0
 11
1076.961663753998
 21
1289.0
 31
0.0
  0
LINE
  5
1BB
330
1F
100
AcDbEntity
  8
化粧台
  6
EXLTYPE2
 62
     6
100
AcDbLine
 10
1055.928124999996
 20
1289.0
 30
0.0
 11
1055.928124999996
 21
1274.0
 31
0.0
  0
LINE
  5
1BC
330
1F
100
AcDbEntity
  8
化粧台
  6
EXLTYPE2
 62
     6
100
AcDbLine
 10
1081.428124999996
 20
1289.0
 30
0.0
 11
1081.428124999996
 21
1274.0
 31
0.0
  0
LINE
  5
1BD
330
1F
100
AcDbEntity
  8
化粧台
  6
EXLTYPE2
 62
     6
100
AcDbLine
 10
1038.999999999994
 20
1414.5
 30
0.0
 11
1038.999999999994
 21
1445.5
 31
0.0
  0
LINE
  5
1BE
330
1F
100
AcDbEntity
  8
化粧台
  6
EXLTYPE2
 62
     6
100
AcDbLine
 10
1070.99999999999
 20
1414.5
 30
0.0
 11
1070.99999999999
 21
1445.5
 31
0.0
  0
LINE
  5
1BF
330
1F
100
AcDbEntity
  8
化粧台
  6
EXLTYPE2
 62
     6
100
AcDbLine
 10
1122.199999999998
 20
1003.200000000001
 30
0.0
 11
1167.799999999998
 21
1003.200000000001
 31
0.0
  0
LINE
  5
1C0
330
1F
100
AcDbEntity
  8
化粧台
  6
EXLTYPE2
 62
     6
100
AcDbLine
 10
1122.199999999998
 20
1021.000000000001
 30
0.0
 11
1167.799999999998
 21
1021.000000000001
 31
0.0
  0
LINE
  5
1C1
330
1F
100
AcDbEntity
  8
化粧台
  6
EXLTYPE2
 62
     6
100
AcDbLine
 10
1167.799999999998
 20
1021.000000000001
 30
0.0
 11
1167.799999999998
 21
1003.200000000001
 31
0.0
  0
LINE
  5
1C2
330
1F
100
AcDbEntity
  8
化粧台
  6
EXLTYPE2
 62
     6
100
AcDbLine
 10
1122.199999999998
 20
1021.000000000001
 30
0.0
 11
1122.199999999998
 21
1003.200000000001
 31
0.0
  0
LINE
  5
1C3
330
1F
100
AcDbEntity
  8
化粧台
  6
EXLTYPE2
 62
     6
100
AcDbLine
 10
1111.499999999999
 20
963.0000000000009
 30
0.0
 11
1178.500000000001
 21
963.0000000000009
 31
0.0
  0
LINE
  5
1C4
330
1F
100
AcDbEntity
  8
化粧台
  6
EXLTYPE2
 62
     6
100
AcDbLine
 10
1124.3
 20
1003.200000000001
 30
0.0
 11
1124.3
 21
1001.000000000001
 31
0.0
  0
LINE
  5
1C5
330
1F
100
AcDbEntity
  8
化粧台
  6
EXLTYPE2
 62
     6
100
AcDbLine
 10
1165.7
 20
1003.200000000001
 30
0.0
 11
1165.7
 21
1001.000000000001
 31
0.0
  0
LINE
  5
1C6
330
1F
100
AcDbEntity
  8
化粧台
  6
EXLTYPE2
 62
     6
100
AcDbLine
 10
1178.500000000001
 20
983.0000000000009
 30
0.0
 11
1178.500000000001
 21
963.0000000000009
 31
0.0
  0
ARC
  5
1C7
330
1F
100
AcDbEntity
  8
化粧台
  6
EXLTYPE2
 62
     6
100
AcDbCircle
 10
1175.500000000001
 20
983.0000000000009
 30
0.0
 40
3.000000000000003
100
AcDbArc
 50
0.0
 51
90.00000000000004
  0
LINE
  5
1C8
330
1F
100
AcDbEntity
  8
化粧台
  6
EXLTYPE2
 62
     6
100
AcDbLine
 10
1172.000000000001
 20
998.0000000000009
 30
0.0
 11
1172.000000000001
 21
986.0000000000009
 31
0.0
  0
ARC
  5
1C9
330
1F
100
AcDbEntity
  8
化粧台
  6
EXLTYPE2
 62
     6
100
AcDbCircle
 10
1169.000000000001
 20
998.0000000000009
 30
0.0
 40
3.000000000000003
100
AcDbArc
 50
0.0
 51
90.00000000000004
  0
LINE
  5
1CA
330
1F
100
AcDbEntity
  8
化粧台
  6
EXLTYPE2
 62
     6
100
AcDbLine
 10
1118.000000000001
 20
998.0000000000009
 30
0.0
 11
1118.000000000001
 21
986.0000000000009
 31
0.0
  0
LINE
  5
1CB
330
1F
100
AcDbEntity
  8
化粧台
  6
EXLTYPE2
 62
     6
100
AcDbLine
 10
1121.000000000001
 20
1001.000000000001
 30
0.0
 11
1169.000000000001
 21
1001.000000000001
 31
0.0
  0
ARC
  5
1CC
330
1F
100
AcDbEntity
  8
化粧台
  6
EXLTYPE2
 62
     6
100
AcDbCircle
 10
1121.000000000001
 20
998.0000000000009
 30
0.0
 40
3.000000000000003
100
AcDbArc
 50
90.00000000000004
 51
180.0
  0
LINE
  5
1CD
330
1F
100
AcDbEntity
  8
化粧台
  6
EXLTYPE2
 62
     6
100
AcDbLine
 10
1111.499999999999
 20
983.0000000000009
 30
0.0
 11
1111.499999999999
 21
963.0000000000009
 31
0.0
  0
LINE
  5
1CE
330
1F
100
AcDbEntity
  8
化粧台
  6
EXLTYPE2
 62
     6
100
AcDbLine
 10
1114.500000000001
 20
986.0000000000009
 30
0.0
 11
1175.500000000001
 21
986.0000000000009
 31
0.0
  0
ARC
  5
1CF
330
1F
100
AcDbEntity
  8
化粧台
  6
EXLTYPE2
 62
     6
100
AcDbCircle
 10
1114.500000000001
 20
983.0000000000009
 30
0.0
 40
3.000000000000003
100
AcDbArc
 50
90.00000000000004
 51
180.0
  0
LINE
  5
1D0
330
1F
100
AcDbEntity
  8
化粧台
  6
EXLTYPE2
 62
     6
100
AcDbLine
 10
1134.399287694298
 20
1019.000000000001
 30
0.0
 11
1134.399287694298
 21
1003.200000000001
 31
0.0
  0
LINE
  5
1D1
330
1F
100
AcDbEntity
  8
化粧台
  6
EXLTYPE2
 62
     6
100
AcDbLine
 10
1137.191671113499
 20
1019.000000000001
 30
0.0
 11
1137.191671113499
 21
1003.200000000001
 31
0.0
  0
LINE
  5
1D2
330
1F
100
AcDbEntity
  8
化粧台
  6
EXLTYPE2
 62
     6
100
AcDbLine
 10
1152.808328886499
 20
1019.000000000001
 30
0.0
 11
1152.808328886499
 21
1003.200000000001
 31
0.0
  0
LINE
  5
1D3
330
1F
100
AcDbEntity
  8
化粧台
  6
EXLTYPE2
 62
     6
100
AcDbLine
 10
1155.600712305698
 20
1019.000000000001
 30
0.0
 11
1155.600712305698
 21
1003.200000000001
 31
0.0
  0
LINE
  5
1D4
330
1F
100
AcDbEntity
  8
化粧台
  6
EXLTYPE2
 62
     6
100
AcDbLine
 10
1123.356643083599
 20
1019.0
 30
0.0
 11
1123.356643083599
 21
1003.200000000001
 31
0.0
  0
LINE
  5
1D5
330
1F
100
AcDbEntity
  8
化粧台
  6
EXLTYPE2
 62
     6
100
AcDbLine
 10
1166.643356916397
 20
1019.000000000001
 30
0.0
 11
1166.643356916397
 21
1003.200000000001
 31
0.0
  0
LINE
  5
1D6
330
1F
100
AcDbEntity
  8
化粧台
  6
EXLTYPE2
 62
     6
100
AcDbLine
 10
1129.149999999995
 20
1368.328125
 30
0.0
 11
1129.149999999995
 21
941.0
 31
0.0
  0
LINE
  5
1D7
330
1F
100
AcDbEntity
  8
化粧台
  6
EXLTYPE2
 62
     6
100
AcDbLine
 10
1160.849999999994
 20
941.0
 30
0.0
 11
1160.849999999996
 21
1368.328125
 31
0.0
  0
ARC
  5
1D8
330
1F
100
AcDbEntity
  8
化粧台
  6
EXLTYPE2
 62
     6
100
AcDbCircle
 10
938.9999999999973
 20
1495.5
 30
0.0
 40
15.00000000000001
100
AcDbArc
 50
180.0
 51
270.0000000000002
  0
LINE
  5
1D9
330
1F
100
AcDbEntity
  8
化粧台
  6
EXLTYPE2
 62
     6
100
AcDbLine
 10
941.6999999999962
 20
1442.5
 30
0.0
 11
922.9999999999982
 21
1442.5
 31
0.0
  0
LINE
  5
1DA
330
1F
100
AcDbEntity
  8
化粧台
  6
EXLTYPE2
 62
     6
100
AcDbLine
 10
885.9999999999982
 20
1479.5
 30
0.0
 11
885.9999999999982
 21
1498.2
 31
0.0
  0
LINE
  5
1DB
330
1F
100
AcDbEntity
  8
化粧台
  6
EXLTYPE2
 62
     6
100
AcDbLine
 10
888.7499999999964
 20
1461.5
 30
0.0
 11
888.7499999999964
 21
1476.5
 31
0.0
  0
LINE
  5
1DC
330
1F
100
AcDbEntity
  8
化粧台
  6
EXLTYPE2
 62
     6
100
AcDbLine
 10
904.9999999999964
 20
1445.25
 30
0.0
 11
919.9999999999982
 21
1445.25
 31
0.0
  0
ARC
  5
1DD
330
1F
100
AcDbEntity
  8
化粧台
  6
EXLTYPE2
 62
     6
100
AcDbCircle
 10
904.9999999999964
 20
1461.5
 30
0.0
 40
16.25
100
AcDbArc
 50
180.0
 51
270.0000000000002
  0
LINE
  5
1DE
330
1F
100
AcDbEntity
  8
化粧台
  6
EXLTYPE2
 62
     6
100
AcDbLine
 10
922.9999999999982
 20
1442.5
 30
0.0
 11
919.9999999999982
 21
1445.25
 31
0.0
  0
LINE
  5
1DF
330
1F
100
AcDbEntity
  8
化粧台
  6
EXLTYPE2
 62
     6
100
AcDbLine
 10
885.9999999999982
 20
1479.5
 30
0.0
 11
888.7499999999982
 21
1476.5
 31
0.0
  0
LINE
  5
1E0
330
1F
100
AcDbEntity
  8
化粧台
  6
EXLTYPE2
 62
     6
100
AcDbLine
 10
941.699999999998
 20
1480.5
 30
0.0
 11
923.9999999999982
 21
1480.5
 31
0.0
  0
LINE
  5
1E1
330
1F
100
AcDbEntity
  8
化粧台
  6
EXLTYPE2
 62
     6
100
AcDbLine
 10
923.9999999999982
 20
1480.5
 30
0.0
 11
923.9999999999982
 21
1498.2
 31
0.0
  0
LINE
  5
1E2
330
1F
100
AcDbEntity
  8
化粧台
  6
EXLTYPE2
 62
     6
100
AcDbLine
 10
959.4999999999973
 20
1484.299999999999
 30
0.0
 11
941.699999999998
 21
1484.299999999999
 31
0.0
  0
LINE
  5
1E3
330
1F
100
AcDbEntity
  8
化粧台
  6
EXLTYPE2
 62
     6
100
AcDbLine
 10
959.4999999999973
 20
1438.7
 30
0.0
 11
941.6999999999962
 21
1438.7
 31
0.0
  0
LINE
  5
1E4
330
1F
100
AcDbEntity
  8
化粧台
  6
EXLTYPE2
 62
     6
100
AcDbLine
 10
959.4999999999973
 20
1484.299999999999
 30
0.0
 11
959.4999999999973
 21
1438.7
 31
0.0
  0
LINE
  5
1E5
330
1F
100
AcDbEntity
  8
化粧台
  6
EXLTYPE2
 62
     6
100
AcDbLine
 10
941.699999999998
 20
1484.299999999999
 30
0.0
 11
941.6999999999962
 21
1438.7
 31
0.0
  0
LINE
  5
1E6
330
1F
100
AcDbEntity
  8
化粧台
  6
EXLTYPE2
 62
     6
100
AcDbLine
 10
882.1999999999989
 20
1498.2
 30
0.0
 11
927.7999999999975
 21
1498.2
 31
0.0
  0
LINE
  5
1E7
330
1F
100
AcDbEntity
  8
化粧台
  6
EXLTYPE2
 62
     6
100
AcDbLine
 10
957.4999999999973
 20
1439.8566430836
 30
0.0
 11
941.6999999999962
 21
1439.8566430836
 31
0.0
  0
LINE
  5
1E8
330
1F
100
AcDbEntity
  8
化粧台
  6
EXLTYPE2
 62
     6
100
AcDbLine
 10
957.4999999999973
 20
1483.143356916399
 30
0.0
 11
941.699999999998
 21
1483.143356916399
 31
0.0
  0
LINE
  5
1E9
330
1F
100
AcDbEntity
  8
化粧台
  6
EXLTYPE2
 62
     6
100
AcDbLine
 10
957.4999999999973
 20
1450.899287694299
 30
0.0
 11
941.6999999999962
 21
1450.899287694299
 31
0.0
  0
LINE
  5
1EA
330
1F
100
AcDbEntity
  8
化粧台
  6
EXLTYPE2
 62
     6
100
AcDbLine
 10
957.4999999999973
 20
1453.6916711135
 30
0.0
 11
941.6999999999962
 21
1453.6916711135
 31
0.0
  0
LINE
  5
1EB
330
1F
100
AcDbEntity
  8
化粧台
  6
EXLTYPE2
 62
     6
100
AcDbLine
 10
957.4999999999973
 20
1469.3083288865
 30
0.0
 11
941.699999999998
 21
1469.3083288865
 31
0.0
  0
LINE
  5
1EC
330
1F
100
AcDbEntity
  8
化粧台
  6
EXLTYPE2
 62
     6
100
AcDbLine
 10
957.4999999999973
 20
1472.100712305699
 30
0.0
 11
941.699999999998
 21
1472.100712305699
 31
0.0
  0
LINE
  5
1ED
330
1F
100
AcDbEntity
  8
化粧台
  6
EXLTYPE2
 62
     6
100
AcDbLine
 10
922.9999999999982
 20
1442.5
 30
0.0
 11
922.9999999999982
 21
1479.5
 31
0.0
  0
LINE
  5
1EE
330
1F
100
AcDbEntity
  8
化粧台
  6
EXLTYPE2
 62
     6
100
AcDbLine
 10
919.9999999999982
 20
1445.25
 30
0.0
 11
919.9999999999982
 21
1476.5
 31
0.0
  0
LINE
  5
1EF
330
1F
100
AcDbEntity
  8
化粧台
  6
EXLTYPE2
 62
     6
100
AcDbLine
 10
904.9999999999982
 20
1461.5
 30
0.0
 11
923.9999999999982
 21
1480.5
 31
0.0
  0
LINE
  5
1F0
330
1F
100
AcDbEntity
  8
化粧台
  6
EXLTYPE2
 62
     6
100
AcDbLine
 10
888.7499999999982
 20
1476.5
 30
0.0
 11
919.9999999999982
 21
1476.5
 31
0.0
  0
LINE
  5
1F1
330
1F
100
AcDbEntity
  8
化粧台
  6
EXLTYPE2
 62
     6
100
AcDbLine
 10
885.9999999999982
 20
1479.5
 30
0.0
 11
922.9999999999982
 21
1479.5
 31
0.0
  0
LINE
  5
1F2
330
1F
100
AcDbEntity
  8
化粧台
  6
CONTINUOUS
 62
     6
100
AcDbLine
 10
969.5000000000009
 20
933.0
 30
0.0
 11
990.5000000000009
 21
933.0
 31
0.0
  0
LINE
  5
1F3
330
1F
100
AcDbEntity
  8
化粧台
  6
EXLTYPE3
 62
     6
100
AcDbLine
 10
980.0000000000009
 20
1151.0
 30
0.0
 11
980.0000000000009
 21
923.0
 31
0.0
  0
LINE
  5
1F4
330
1F
100
AcDbEntity
  8
化粧台
  6
EXLTYPE4
 62
     6
100
AcDbLine
 10
990.5000000000009
 20
1141.0
 30
0.0
 11
990.5000000000009
 21
933.0
 31
0.0
  0
LINE
  5
1F5
330
1F
100
AcDbEntity
  8
化粧台
  6
EXLTYPE4
 62
     6
100
AcDbLine
 10
969.5000000000009
 20
1141.0
 30
0.0
 11
969.5000000000009
 21
933.0
 31
0.0
  0
LINE
  5
1F6
330
1F
100
AcDbEntity
  8
化粧台
  6
CONTINUOUS
 62
     6
100
AcDbLine
 10
840.4999999999955
 20
933.0
 30
0.0
 11
819.4999999999955
 21
933.0
 31
0.0
  0
LINE
  5
1F7
330
1F
100
AcDbEntity
  8
化粧台
  6
EXLTYPE3
 62
     6
100
AcDbLine
 10
829.9999999999955
 20
1151.0
 30
0.0
 11
829.9999999999955
 21
923.0
 31
0.0
  0
LINE
  5
1F8
330
1F
100
AcDbEntity
  8
化粧台
  6
EXLTYPE4
 62
     6
100
AcDbLine
 10
819.4999999999955
 20
1141.0
 30
0.0
 11
819.4999999999955
 21
933.0
 31
0.0
  0
LINE
  5
1F9
330
1F
100
AcDbEntity
  8
化粧台
  6
EXLTYPE4
 62
     6
100
AcDbLine
 10
840.4999999999955
 20
1141.0
 30
0.0
 11
840.4999999999955
 21
933.0
 31
0.0
  0
LINE
  5
1FA
330
1F
100
AcDbEntity
  8
化粧台
  6
EXLTYPE2
 62
     6
100
AcDbLine
 10
967.9999999999973
 20
1375.16369123504
 30
0.0
 11
967.9999999999973
 21
1386.83630876496
 31
0.0
  0
LINE
  5
1FB
330
1F
100
AcDbEntity
  8
化粧台
  6
EXLTYPE2
 62
     6
100
AcDbLine
 10
966.5543916547877
 20
1389.34017586672
 30
0.0
 11
956.4456083452069
 21
1395.17648463168
 31
0.0
  0
LINE
  5
1FC
330
1F
100
AcDbEntity
  8
化粧台
  6
EXLTYPE2
 62
     6
100
AcDbLine
 10
953.5543916547877
 20
1395.17648463168
 30
0.0
 11
943.4456083452069
 21
1389.34017586672
 31
0.0
  0
LINE
  5
1FD
330
1F
100
AcDbEntity
  8
化粧台
  6
EXLTYPE2
 62
     6
100
AcDbLine
 10
941.9999999999973
 20
1386.83630876496
 30
0.0
 11
941.9999999999973
 21
1375.16369123504
 31
0.0
  0
LINE
  5
1FE
330
1F
100
AcDbEntity
  8
化粧台
  6
EXLTYPE2
 62
     6
100
AcDbLine
 10
943.4456083452069
 20
1372.65982413328
 30
0.0
 11
953.5543916547877
 21
1366.82351536832
 31
0.0
  0
LINE
  5
1FF
330
1F
100
AcDbEntity
  8
化粧台
  6
EXLTYPE2
 62
     6
100
AcDbLine
 10
956.4456083452069
 20
1366.82351536832
 30
0.0
 11
966.5543916547877
 21
1372.65982413328
 31
0.0
  0
ARC
  5
200
330
1F
100
AcDbEntity
  8
化粧台
  6
EXLTYPE2
 62
     6
100
AcDbCircle
 10
954.9999999999973
 20
1381.0
 30
0.0
 40
14.25000000000001
100
AcDbArc
 50
264.1775448336001
 51
275.8224551664
  0
ARC
  5
201
330
1F
100
AcDbEntity
  8
化粧台
  6
EXLTYPE2
 62
     6
100
AcDbCircle
 10
954.9999999999973
 20
1381.0
 30
0.0
 40
14.25000000000001
100
AcDbArc
 50
324.1775448336001
 51
335.8224551664001
  0
ARC
  5
202
330
1F
100
AcDbEntity
  8
化粧台
  6
EXLTYPE2
 62
     6
100
AcDbCircle
 10
954.9999999999973
 20
1381.0
 30
0.0
 40
14.25000000000001
100
AcDbArc
 50
24.17754483359991
 51
35.82245516639971
  0
ARC
  5
203
330
1F
100
AcDbEntity
  8
化粧台
  6
EXLTYPE2
 62
     6
100
AcDbCircle
 10
954.9999999999973
 20
1381.0
 30
0.0
 40
14.25000000000001
100
AcDbArc
 50
84.1775448336001
 51
95.82245516635992
  0
ARC
  5
204
330
1F
100
AcDbEntity
  8
化粧台
  6
EXLTYPE2
 62
     6
100
AcDbCircle
 10
954.9999999999973
 20
1381.0
 30
0.0
 40
14.25000000000001
100
AcDbArc
 50
144.1775448336404
 51
155.8224551663601
  0
ARC
  5
205
330
1F
100
AcDbEntity
  8
化粧台
  6
EXLTYPE2
 62
     6
100
AcDbCircle
 10
954.9999999999973
 20
1381.0
 30
0.0
 40
14.25000000000001
100
AcDbArc
 50
204.1775448336003
 51
215.8224551664
  0
CIRCLE
  5
206
330
1F
100
AcDbEntity
  8
化粧台
  6
EXLTYPE2
 62
     6
100
AcDbCircle
 10
954.9999999999973
 20
1381.0
 30
0.0
 40
4.75
  0
CIRCLE
  5
207
330
1F
100
AcDbEntity
  8
化粧台
  6
EXLTYPE2
 62
     6
100
AcDbCircle
 10
954.9999999999973
 20
1381.0
 30
0.0
 40
12.07434891639
  0
LINE
  5
208
330
1F
100
AcDbEntity
  8
化粧台
  6
EXLTYPE2
 62
     6
100
AcDbLine
 10
965.4999999999973
 20
1403.7
 30
0.0
 11
965.4999999999973
 21
1389.948929172444
 31
0.0
  0
LINE
  5
209
330
1F
100
AcDbEntity
  8
化粧台
  6
EXLTYPE2
 62
     6
100
AcDbLine
 10
944.4999999999973
 20
1403.7
 30
0.0
 11
944.4999999999973
 21
1389.948929172444
 31
0.0
  0
LINE
  5
20A
330
1F
100
AcDbEntity
  8
化粧台
  6
EXLTYPE2
 62
     6
100
AcDbLine
 10
944.0304555427074
 20
1403.7
 30
0.0
 11
965.9695444572872
 21
1403.7
 31
0.0
  0
LINE
  5
20B
330
1F
100
AcDbEntity
  8
化粧台
  6
EXLTYPE2
 62
     6
100
AcDbLine
 10
944.0304555427074
 20
1415.7
 30
0.0
 11
965.9695444572872
 21
1415.7
 31
0.0
  0
LINE
  5
20C
330
1F
100
AcDbEntity
  8
化粧台
  6
EXLTYPE2
 62
     6
100
AcDbLine
 10
943.4999999999973
 20
1414.79288719687
 30
0.0
 11
943.4999999999973
 21
1404.60711280313
 31
0.0
  0
LINE
  5
20D
330
1F
100
AcDbEntity
  8
化粧台
  6
EXLTYPE2
 62
     6
100
AcDbLine
 10
966.4999999999973
 20
1414.79288719687
 30
0.0
 11
966.4999999999973
 21
1404.60711280313
 31
0.0
  0
ARC
  5
20E
330
1F
100
AcDbEntity
  8
化粧台
  6
EXLTYPE2
 62
     6
100
AcDbCircle
 10
953.2499999999973
 20
1409.7
 30
0.0
 40
11.0
100
AcDbArc
 50
146.9442688491001
 51
152.4198007964001
  0
ARC
  5
20F
330
1F
100
AcDbEntity
  8
化粧台
  6
EXLTYPE2
 62
     6
100
AcDbCircle
 10
953.2499999999973
 20
1409.7
 30
0.0
 40
11.0
100
AcDbArc
 50
207.5801992036003
 51
213.0557311509003
  0
ARC
  5
210
330
1F
100
AcDbEntity
  8
化粧台
  6
EXLTYPE2
 62
     6
100
AcDbCircle
 10
956.7499999999973
 20
1409.7
 30
0.0
 40
11.0
100
AcDbArc
 50
326.9442688491004
 51
332.4198007964001
  0
ARC
  5
211
330
1F
100
AcDbEntity
  8
化粧台
  6
EXLTYPE2
 62
     6
100
AcDbCircle
 10
956.7499999999973
 20
1409.7
 30
0.0
 40
11.0
100
AcDbArc
 50
27.58019920358986
 51
33.05573115085006
  0
ELLIPSE
  5
212
330
1F
100
AcDbEntity
  8
化粧台
  6
EXLTYPE2
 62
     6
100
AcDbEllipse
 10
949.2490288903473
 20
1409.7
 30
0.0
 11
-9.355482006098073E-16
 21
-5.09288719687
 31
0.0
210
0.0
220
0.0
230
1.0
 40
0.936409683937426
 41
0.0
 42
6.283185307179586
  0
ELLIPSE
  5
213
330
1F
100
AcDbEntity
  8
化粧台
  6
EXLTYPE2
 62
     6
100
AcDbEllipse
 10
960.7509711096473
 20
1409.7
 30
0.0
 11
3.118494002032691E-16
 21
5.09288719687
 31
0.0
210
0.0
220
0.0
230
1.0
 40
0.936409683937426
 41
0.0
 42
6.283185307179586
  0
LINE
  5
214
330
1F
100
AcDbEntity
  8
化粧台
  6
EXLTYPE2
 62
     6
100
AcDbLine
 10
867.9999999999982
 20
1375.16369123504
 30
0.0
 11
867.9999999999982
 21
1386.83630876496
 31
0.0
  0
LINE
  5
215
330
1F
100
AcDbEntity
  8
化粧台
  6
EXLTYPE2
 62
     6
100
AcDbLine
 10
866.5543916547886
 20
1389.34017586672
 30
0.0
 11
856.4456083452078
 21
1395.17648463168
 31
0.0
  0
LINE
  5
216
330
1F
100
AcDbEntity
  8
化粧台
  6
EXLTYPE2
 62
     6
100
AcDbLine
 10
853.5543916547886
 20
1395.17648463168
 30
0.0
 11
843.4456083452078
 21
1389.34017586672
 31
0.0
  0
LINE
  5
217
330
1F
100
AcDbEntity
  8
化粧台
  6
EXLTYPE2
 62
     6
100
AcDbLine
 10
841.9999999999982
 20
1386.83630876496
 30
0.0
 11
841.9999999999982
 21
1375.16369123504
 31
0.0
  0
LINE
  5
218
330
1F
100
AcDbEntity
  8
化粧台
  6
EXLTYPE2
 62
     6
100
AcDbLine
 10
843.4456083452078
 20
1372.65982413328
 30
0.0
 11
853.5543916547886
 21
1366.82351536832
 31
0.0
  0
LINE
  5
219
330
1F
100
AcDbEntity
  8
化粧台
  6
EXLTYPE2
 62
     6
100
AcDbLine
 10
856.4456083452078
 20
1366.82351536832
 30
0.0
 11
866.5543916547886
 21
1372.65982413328
 31
0.0
  0
ARC
  5
21A
330
1F
100
AcDbEntity
  8
化粧台
  6
EXLTYPE2
 62
     6
100
AcDbCircle
 10
854.9999999999982
 20
1381.0
 30
0.0
 40
14.25000000000001
100
AcDbArc
 50
264.1775448336001
 51
275.8224551664
  0
ARC
  5
21B
330
1F
100
AcDbEntity
  8
化粧台
  6
EXLTYPE2
 62
     6
100
AcDbCircle
 10
854.9999999999982
 20
1381.0
 30
0.0
 40
14.25000000000001
100
AcDbArc
 50
324.1775448336001
 51
335.8224551664001
  0
ARC
  5
21C
330
1F
100
AcDbEntity
  8
化粧台
  6
EXLTYPE2
 62
     6
100
AcDbCircle
 10
854.9999999999982
 20
1381.0
 30
0.0
 40
14.25000000000001
100
AcDbArc
 50
24.17754483359991
 51
35.82245516639971
  0
ARC
  5
21D
330
1F
100
AcDbEntity
  8
化粧台
  6
EXLTYPE2
 62
     6
100
AcDbCircle
 10
854.9999999999982
 20
1381.0
 30
0.0
 40
14.25000000000001
100
AcDbArc
 50
84.1775448336001
 51
95.82245516635992
  0
ARC
  5
21E
330
1F
100
AcDbEntity
  8
化粧台
  6
EXLTYPE2
 62
     6
100
AcDbCircle
 10
854.9999999999982
 20
1381.0
 30
0.0
 40
14.25000000000001
100
AcDbArc
 50
144.1775448336404
 51
155.8224551663601
  0
ARC
  5
21F
330
1F
100
AcDbEntity
  8
化粧台
  6
EXLTYPE2
 62
     6
100
AcDbCircle
 10
854.9999999999982
 20
1381.0
 30
0.0
 40
14.25000000000001
100
AcDbArc
 50
204.1775448336003
 51
215.8224551664
  0
CIRCLE
  5
220
330
1F
100
AcDbEntity
  8
化粧台
  6
EXLTYPE2
 62
     6
100
AcDbCircle
 10
854.9999999999982
 20
1381.0
 30
0.0
 40
4.75
  0
CIRCLE
  5
221
330
1F
100
AcDbEntity
  8
化粧台
  6
EXLTYPE2
 62
     6
100
AcDbCircle
 10
854.9999999999982
 20
1381.0
 30
0.0
 40
12.07434891639
  0
LINE
  5
222
330
1F
100
AcDbEntity
  8
化粧台
  6
EXLTYPE2
 62
     6
100
AcDbLine
 10
865.4999999999982
 20
1403.7
 30
0.0
 11
865.4999999999982
 21
1389.948929172444
 31
0.0
  0
LINE
  5
223
330
1F
100
AcDbEntity
  8
化粧台
  6
EXLTYPE2
 62
     6
100
AcDbLine
 10
844.4999999999982
 20
1403.7
 30
0.0
 11
844.4999999999982
 21
1389.948929172444
 31
0.0
  0
LINE
  5
224
330
1F
100
AcDbEntity
  8
化粧台
  6
EXLTYPE2
 62
     6
100
AcDbLine
 10
844.0304555427083
 20
1403.7
 30
0.0
 11
865.9695444572881
 21
1403.7
 31
0.0
  0
LINE
  5
225
330
1F
100
AcDbEntity
  8
化粧台
  6
EXLTYPE2
 62
     6
100
AcDbLine
 10
844.0304555427083
 20
1415.7
 30
0.0
 11
865.9695444572881
 21
1415.7
 31
0.0
  0
LINE
  5
226
330
1F
100
AcDbEntity
  8
化粧台
  6
EXLTYPE2
 62
     6
100
AcDbLine
 10
843.4999999999982
 20
1414.79288719687
 30
0.0
 11
843.4999999999982
 21
1404.60711280313
 31
0.0
  0
LINE
  5
227
330
1F
100
AcDbEntity
  8
化粧台
  6
EXLTYPE2
 62
     6
100
AcDbLine
 10
866.4999999999982
 20
1414.79288719687
 30
0.0
 11
866.4999999999982
 21
1404.60711280313
 31
0.0
  0
ARC
  5
228
330
1F
100
AcDbEntity
  8
化粧台
  6
EXLTYPE2
 62
     6
100
AcDbCircle
 10
853.2499999999982
 20
1409.7
 30
0.0
 40
11.0
100
AcDbArc
 50
146.9442688491001
 51
152.4198007964001
  0
ARC
  5
229
330
1F
100
AcDbEntity
  8
化粧台
  6
EXLTYPE2
 62
     6
100
AcDbCircle
 10
853.2499999999982
 20
1409.7
 30
0.0
 40
11.0
100
AcDbArc
 50
207.5801992036003
 51
213.0557311509003
  0
ARC
  5
22A
330
1F
100
AcDbEntity
  8
化粧台
  6
EXLTYPE2
 62
     6
100
AcDbCircle
 10
856.7499999999982
 20
1409.7
 30
0.0
 40
11.0
100
AcDbArc
 50
326.9442688491004
 51
332.4198007964001
  0
ARC
  5
22B
330
1F
100
AcDbEntity
  8
化粧台
  6
EXLTYPE2
 62
     6
100
AcDbCircle
 10
856.7499999999982
 20
1409.7
 30
0.0
 40
11.0
100
AcDbArc
 50
27.58019920358986
 51
33.05573115085006
  0
ELLIPSE
  5
22C
330
1F
100
AcDbEntity
  8
化粧台
  6
EXLTYPE2
 62
     6
100
AcDbEllipse
 10
849.2490288903482
 20
1409.7
 30
0.0
 11
-9.355482006098073E-16
 21
-5.09288719687
 31
0.0
210
0.0
220
0.0
230
1.0
 40
0.936409683937426
 41
0.0
 42
6.283185307179586
  0
ELLIPSE
  5
22D
330
1F
100
AcDbEntity
  8
化粧台
  6
EXLTYPE2
 62
     6
100
AcDbEllipse
 10
860.7509711096482
 20
1409.7
 30
0.0
 11
3.118494002032691E-16
 21
5.09288719687
 31
0.0
210
0.0
220
0.0
230
1.0
 40
0.936409683937426
 41
0.0
 42
6.283185307179586
  0
LINE
  5
22E
330
1F
100
AcDbEntity
  8
化粧台
  6
CONTINUOUS
 62
     6
100
AcDbLine
 10
824.9999999999982
 20
1381.0
 30
0.0
 11
884.9999999999982
 21
1381.0
 31
0.0
  0
LINE
  5
22F
330
1F
100
AcDbEntity
  8
化粧台
  6
CONTINUOUS
 62
     6
100
AcDbLine
 10
854.9999999999982
 20
1411.0
 30
0.0
 11
854.9999999999982
 21
1351.0
 31
0.0
  0
LINE
  5
230
330
1F
100
AcDbEntity
  8
化粧台
  6
CONTINUOUS
 62
     6
100
AcDbLine
 10
924.9999999999982
 20
1381.0
 30
0.0
 11
984.9999999999973
 21
1381.0
 31
0.0
  0
LINE
  5
231
330
1F
100
AcDbEntity
  8
化粧台
  6
CONTINUOUS
 62
     6
100
AcDbLine
 10
954.9999999999973
 20
1411.0
 30
0.0
 11
954.9999999999973
 21
1351.0
 31
0.0
  0
LINE
  5
232
330
1F
100
AcDbEntity
  8
化粧台
  6
EXLTYPE2
 62
     6
100
AcDbLine
 10
848.4999999999964
 20
1415.7
 30
0.0
 11
848.4999999999964
 21
1520.469883160743
 31
0.0
  0
LINE
  5
233
330
1F
100
AcDbEntity
  8
化粧台
  6
EXLTYPE2
 62
     6
100
AcDbLine
 10
861.5000000000018
 20
1415.7
 30
0.0
 11
861.5000000000018
 21
1520.469883160743
 31
0.0
  0
LINE
  5
234
330
1F
100
AcDbEntity
  8
化粧台
  6
EXLTYPE2
 62
     6
100
AcDbLine
 10
948.4999999999936
 20
1415.7
 30
0.0
 11
948.4999999999936
 21
1520.469883160743
 31
0.0
  0
LINE
  5
235
330
1F
100
AcDbEntity
  8
化粧台
  6
EXLTYPE2
 62
     6
100
AcDbLine
 10
961.4999999999991
 20
1415.7
 30
0.0
 11
961.4999999999991
 21
1520.469883160743
 31
0.0
  0
LINE
  5
236
330
1F
100
AcDbEntity
  8
化粧台
  6
EXLTYPE3
 62
     6
100
AcDbLine
 10
904.9999999999982
 20
1972.2
 30
0.0
 11
904.9999999999982
 21
926.0000000000005
 31
0.0
  0
ARC
  5
237
330
1F
100
AcDbEntity
  8
化粧台
  6
CONTINUOUS
 62
     2
100
AcDbCircle
 10
904.9999999999982
 20
-3037.500000000005
 30
0.0
 40
4847.500000000005
100
AcDbArc
 50
90.29549269471686
 51
92.60390534515777
  0
ARC
  5
238
330
1F
100
AcDbEntity
  8
化粧台
  6
CONTINUOUS
 62
     2
100
AcDbCircle
 10
904.9999999999982
 20
-3037.500000000005
 30
0.0
 40
4847.500000000005
100
AcDbArc
 50
87.39609465484229
 51
89.70450730528287
  0
CIRCLE
  5
239
330
1F
100
AcDbEntity
  8
化粧台
  6
EXLTYPE2
 62
     6
100
AcDbCircle
 10
1145.0
 20
1411.0
 30
0.0
 40
16.0
  0
LINE
  5
23A
330
1F
100
AcDbEntity
  8
化粧台
  6
CONTINUOUS
 62
     6
100
AcDbLine
 10
1166.5
 20
1411.0
 30
0.0
 11
1124.5
 21
1411.0
 31
0.0
  0
LINE
  5
23B
330
1F
100
AcDbEntity
  8
化粧台
  6
CONTINUOUS
 62
     6
100
AcDbLine
 10
1145.0
 20
1392.0
 30
0.0
 11
1145.0
 21
1437.0
 31
0.0
  0
LINE
  5
23C
330
1F
100
AcDbEntity
  8
化粧台
  6
EXLTYPE3
 62
     6
100
AcDbLine
 10
1144.999999999997
 20
1433.7
 30
0.0
 11
1144.999999999997
 21
901.5
 31
0.0
  0
LINE
  5
23D
330
1F
100
AcDbEntity
  8
化粧台
  6
EXLTYPE4
 62
     6
100
AcDbLine
 10
318.0
 20
3880.0
 30
0.0
 11
1727.999999999997
 21
3880.0
 31
0.0
  0
TEXT
  5
23E
330
1F
100
AcDbEntity
  8
化粧台
  6
CONTINUOUS
 62
     2
100
AcDbText
 10
1629.000000536439
 20
3820.000003814697
 30
0.0
 40
59.99999618530273
  1
W.L.
 41
0.5571963512150641
  7
EXCADSTD
 72
     5
 11
1719.743400536439
 21
3820.000003814697
 31
0.0
100
AcDbText
  0
LINE
  5
23F
330
1F
100
AcDbEntity
  8
化粧台
  6
CONTINUOUS
 62
     2
100
AcDbLine
 10
529.9999999999982
 20
3879.999999999998
 30
0.0
 11
529.9999999999982
 21
3429.999999999999
 31
0.0
  0
LINE
  5
240
330
1F
100
AcDbEntity
  8
化粧台
  6
CONTINUOUS
 62
     2
100
AcDbLine
 10
1279.999999999997
 20
3879.999999999998
 30
0.0
 11
1279.999999999997
 21
3429.999999999999
 31
0.0
  0
LINE
  5
241
330
1F
100
AcDbEntity
  8
化粧台
  6
CONTINUOUS
 62
     2
100
AcDbLine
 10
529.9999999999982
 20
3879.999999999998
 30
0.0
 11
1279.999999999997
 21
3879.999999999998
 31
0.0
  0
LINE
  5
242
330
1F
100
AcDbEntity
  8
化粧台
  6
EXLTYPE3
 62
     6
100
AcDbLine
 10
665.9999999999982
 20
3625.0
 30
0.0
 11
1140.499999999997
 21
3625.0
 31
0.0
  0
CIRCLE
  5
243
330
1F
100
AcDbEntity
  8
化粧台
  6
CONTINUOUS
 62
     2
100
AcDbCircle
 10
904.9999999999982
 20
3625.0
 30
0.0
 40
220.0000000000001
  0
CIRCLE
  5
244
330
1F
100
AcDbEntity
  8
化粧台
  6
CONTINUOUS
 62
     2
100
AcDbCircle
 10
904.9999999999982
 20
3625.0
 30
0.0
 40
225.0000000000001
  0
ARC
  5
245
330
1F
100
AcDbEntity
  8
化粧台
  6
CONTINUOUS
 62
     2
100
AcDbCircle
 10
904.9999999999982
 20
3632.429987018267
 30
0.0
 40
212.5700129817332
100
AcDbArc
 50
9.763897427589361
 51
170.2361025724106
  0
ARC
  5
246
330
1F
100
AcDbEntity
  8
化粧台
  6
CONTINUOUS
 62
     2
100
AcDbCircle
 10
744.784821240095
 20
3660.0
 30
0.0
 40
50.00000000000004
100
AcDbArc
 50
90.00000000000004
 51
170.2361025724106
  0
ARC
  5
247
330
1F
100
AcDbEntity
  8
化粧台
  6
CONTINUOUS
 62
     2
100
AcDbCircle
 10
1065.2151787599
 20
3660.0
 30
0.0
 40
50.00000000000004
100
AcDbArc
 50
9.763897427589361
 51
90.00000000000004
  0
LINE
  5
248
330
1F
100
AcDbEntity
  8
化粧台
  6
CONTINUOUS
 62
     6
100
AcDbLine
 10
938.7499999999973
 20
3770.99999999999
 30
0.0
 11
871.2499999999982
 21
3770.99999999999
 31
0.0
  0
ARC
  5
249
330
1F
100
AcDbEntity
  8
化粧台
  6
CONTINUOUS
 62
     6
100
AcDbCircle
 10
853.0384757736083
 20
3652.0
 30
0.0
 40
50.00000000000004
100
AcDbArc
 50
90.00000000000004
 51
171.7867892961641
  0
ARC
  5
24A
330
1F
100
AcDbEntity
  8
化粧台
  6
CONTINUOUS
 62
     6
100
AcDbCircle
 10
956.9615242263872
 20
3652.0
 30
0.0
 40
50.00000000000004
100
AcDbArc
 50
8.213210703835998
 51
90.00000000000004
  0
ARC
  5
24B
330
1F
100
AcDbEntity
  8
化粧台
  6
CONTINUOUS
 62
     6
100
AcDbCircle
 10
904.9999999999982
 20
3644.499999998155
 30
0.0
 40
102.4999999995951
100
AcDbArc
 50
171.7867892961641
 51
8.213210703835998
  0
LINE
  5
24C
330
1F
100
AcDbEntity
  8
化粧台
  6
CONTINUOUS
 62
     6
100
AcDbLine
 10
868.0999999999985
 20
3622.0
 30
0.0
 11
941.8999999999969
 21
3622.0
 31
0.0
  0
LINE
  5
24D
330
1F
100
AcDbEntity
  8
化粧台
  6
EXLTYPE3
 62
     6
100
AcDbLine
 10
904.9999999999982
 20
3385.0
 30
0.0
 11
904.9999999999982
 21
3894.999999999998
 31
0.0
  0
LINE
  5
24E
330
1F
100
AcDbEntity
  8
化粧台
  6
CONTINUOUS
 62
     2
100
AcDbLine
 10
529.9999999999982
 20
3429.999999999999
 30
0.0
 11
792.7502783967811
 21
3429.999999999999
 31
0.0
  0
LINE
  5
24F
330
1F
100
AcDbEntity
  8
化粧台
  6
CONTINUOUS
 62
     2
100
AcDbLine
 10
1017.249721603198
 20
3429.999999999999
 30
0.0
 11
1279.999999999997
 21
3429.999999999999
 31
0.0
  0
LINE
  5
250
330
1F
100
AcDbEntity
  8
化粧台
  6
CONTINUOUS
 62
     6
100
AcDbLine
 10
965.4999999999973
 20
3880.0
 30
0.0
 11
965.4999999999973
 21
3888.0
 31
0.0
  0
LINE
  5
251
330
1F
100
AcDbEntity
  8
化粧台
  6
CONTINUOUS
 62
     6
100
AcDbLine
 10
944.4999999999973
 20
3888.0
 30
0.0
 11
965.4999999999973
 21
3888.0
 31
0.0
  0
LINE
  5
252
330
1F
100
AcDbEntity
  8
化粧台
  6
CONTINUOUS
 62
     6
100
AcDbLine
 10
944.4999999999973
 20
3880.0
 30
0.0
 11
944.4999999999973
 21
3888.0
 31
0.0
  0
LINE
  5
253
330
1F
100
AcDbEntity
  8
化粧台
  6
CONTINUOUS
 62
     6
100
AcDbLine
 10
954.9999999999973
 20
3903.0
 30
0.0
 11
954.9999999999973
 21
3850.0
 31
0.0
  0
LINE
  5
254
330
1F
100
AcDbEntity
  8
化粧台
  6
CONTINUOUS
 62
     6
100
AcDbLine
 10
647.9999999999982
 20
3880.000000000004
 30
0.0
 11
649.9999999999982
 21
3912.500000000004
 31
0.0
  0
LINE
  5
255
330
1F
100
AcDbEntity
  8
化粧台
  6
CONTINUOUS
 62
     6
100
AcDbLine
 10
649.9999999999982
 20
3912.500000000004
 30
0.0
 11
651.9999999999982
 21
3880.000000000004
 31
0.0
  0
LINE
  5
256
330
1F
100
AcDbEntity
  8
化粧台
  6
CONTINUOUS
 62
     6
100
AcDbLine
 10
649.9999999999982
 20
3865.0
 30
0.0
 11
649.9999999999982
 21
3922.5
 31
0.0
  0
LINE
  5
257
330
1F
100
AcDbEntity
  8
化粧台
  6
CONTINUOUS
 62
     6
100
AcDbLine
 10
1157.999999999997
 20
3880.000000000004
 30
0.0
 11
1159.999999999997
 21
3912.500000000004
 31
0.0
  0
LINE
  5
258
330
1F
100
AcDbEntity
  8
化粧台
  6
CONTINUOUS
 62
     6
100
AcDbLine
 10
1159.999999999997
 20
3912.500000000004
 30
0.0
 11
1161.999999999997
 21
3880.000000000004
 31
0.0
  0
LINE
  5
259
330
1F
100
AcDbEntity
  8
化粧台
  6
CONTINUOUS
 62
     6
100
AcDbLine
 10
1159.999999999997
 20
3865.0
 30
0.0
 11
1159.999999999997
 21
3922.5
 31
0.0
  0
LINE
  5
25A
330
1F
100
AcDbEntity
  8
化粧台
  6
CONTINUOUS
 62
     6
100
AcDbLine
 10
844.4999999999973
 20
3880.0
 30
0.0
 11
844.4999999999973
 21
3888.0
 31
0.0
  0
LINE
  5
25B
330
1F
100
AcDbEntity
  8
化粧台
  6
CONTINUOUS
 62
     6
100
AcDbLine
 10
865.4999999999973
 20
3888.0
 30
0.0
 11
844.4999999999973
 21
3888.0
 31
0.0
  0
LINE
  5
25C
330
1F
100
AcDbEntity
  8
化粧台
  6
CONTINUOUS
 62
     6
100
AcDbLine
 10
865.4999999999973
 20
3880.0
 30
0.0
 11
865.4999999999973
 21
3888.0
 31
0.0
  0
LINE
  5
25D
330
1F
100
AcDbEntity
  8
化粧台
  6
CONTINUOUS
 62
     6
100
AcDbLine
 10
854.9999999999973
 20
3903.0
 30
0.0
 11
854.9999999999973
 21
3850.0
 31
0.0
  0
LINE
  5
25E
330
1F
100
AcDbEntity
  8
化粧台
  6
CONTINUOUS
 62
     6
100
AcDbLine
 10
890.0000000000007
 20
3702.0
 30
0.0
 11
853.0384757736083
 21
3702.0
 31
0.0
  0
LINE
  5
25F
330
1F
100
AcDbEntity
  8
化粧台
  6
CONTINUOUS
 62
     2
100
AcDbLine
 10
744.784821240095
 20
3710.0
 30
0.0
 11
890.0000000000007
 21
3710.0
 31
0.0
  0
LINE
  5
260
330
1F
100
AcDbEntity
  8
化粧台
  6
CONTINUOUS
 62
     2
100
AcDbLine
 10
920.0000000000007
 20
3710.0
 30
0.0
 11
1065.2151787599
 21
3710.0
 31
0.0
  0
LINE
  5
261
330
1F
100
AcDbEntity
  8
化粧台
  6
CONTINUOUS
 62
     6
100
AcDbLine
 10
956.9615242263872
 20
3702.0
 30
0.0
 11
920.0000000000007
 21
3702.0
 31
0.0
  0
CIRCLE
  5
262
330
1F
100
AcDbEntity
  8
化粧台
  6
CONTINUOUS
 62
     2
100
AcDbCircle
 10
904.9999999999982
 20
3622.0
 30
0.0
 40
19.20000000000001
  0
ARC
  5
263
330
1F
100
AcDbEntity
  8
化粧台
  6
CONTINUOUS
 62
     2
100
AcDbCircle
 10
904.9999999999982
 20
3622.0
 30
0.0
 40
26.90000000000001
100
AcDbArc
 50
107.317018652842
 51
72.68298134714806
  0
LINE
  5
264
330
1F
100
AcDbEntity
  8
化粧台
  6
CONTINUOUS
 62
     2
100
AcDbLine
 10
604.9999999999993
 20
2691.0
 30
0.0
 11
604.9999999999993
 21
2171.0
 31
0.0
  0
LINE
  5
265
330
1F
100
AcDbEntity
  8
化粧台
  6
CONTINUOUS
 62
     2
100
AcDbLine
 10
1204.999999999999
 20
2691.0
 30
0.0
 11
1204.999999999999
 21
2171.0
 31
0.0
  0
LINE
  5
266
330
1F
100
AcDbEntity
  8
化粧台
  6
CONTINUOUS
 62
     4
100
AcDbLine
 10
647.5000000000002
 20
2179.8
 30
0.0
 11
647.5000000000002
 21
2169.8
 31
0.0
  0
LINE
  5
267
330
1F
100
AcDbEntity
  8
化粧台
  6
CONTINUOUS
 62
     4
100
AcDbLine
 10
647.4999999999993
 20
2179.8
 30
0.0
 11
1162.499999999999
 21
2179.8
 31
0.0
  0
LINE
  5
268
330
1F
100
AcDbEntity
  8
化粧台
  6
CONTINUOUS
 62
     4
100
AcDbLine
 10
647.4999999999993
 20
2169.8
 30
0.0
 11
1162.499999999999
 21
2169.8
 31
0.0
  0
LINE
  5
269
330
1F
100
AcDbEntity
  8
化粧台
  6
CONTINUOUS
 62
     4
100
AcDbLine
 10
1162.499999999999
 20
2179.8
 30
0.0
 11
1162.499999999999
 21
2169.8
 31
0.0
  0
LINE
  5
26A
330
1F
100
AcDbEntity
  8
化粧台
  6
CONTINUOUS
 62
     2
100
AcDbLine
 10
645.4999999999993
 20
2691.0
 30
0.0
 11
645.4999999999993
 21
2171.0
 31
0.0
  0
LINE
  5
26B
330
1F
100
AcDbEntity
  8
化粧台
  6
CONTINUOUS
 62
     4
100
AcDbLine
 10
647.5000000000002
 20
2692.2
 30
0.0
 11
647.5000000000002
 21
2682.2
 31
0.0
  0
LINE
  5
26C
330
1F
100
AcDbEntity
  8
化粧台
  6
CONTINUOUS
 62
     4
100
AcDbLine
 10
1162.499999999999
 20
2692.2
 30
0.0
 11
1162.499999999999
 21
2682.2
 31
0.0
  0
LINE
  5
26D
330
1F
100
AcDbEntity
  8
化粧台
  6
CONTINUOUS
 62
     4
100
AcDbLine
 10
647.4999999999993
 20
2692.2
 30
0.0
 11
1162.499999999999
 21
2692.2
 31
0.0
  0
LINE
  5
26E
330
1F
100
AcDbEntity
  8
化粧台
  6
CONTINUOUS
 62
     4
100
AcDbLine
 10
647.4999999999993
 20
2682.2
 30
0.0
 11
1162.499999999999
 21
2682.2
 31
0.0
  0
LINE
  5
26F
330
1F
100
AcDbEntity
  8
化粧台
  6
CONTINUOUS
 62
     2
100
AcDbLine
 10
1164.499999999999
 20
2691.0
 30
0.0
 11
1164.499999999999
 21
2171.0
 31
0.0
  0
LINE
  5
270
330
1F
100
AcDbEntity
  8
化粧台
  6
CONTINUOUS
 62
     2
100
AcDbLine
 10
604.9999999999993
 20
2691.0
 30
0.0
 11
647.4999999999993
 21
2691.0
 31
0.0
  0
LINE
  5
271
330
1F
100
AcDbEntity
  8
化粧台
  6
CONTINUOUS
 62
     2
100
AcDbLine
 10
1162.499999999999
 20
2691.0
 30
0.0
 11
1204.999999999999
 21
2691.0
 31
0.0
  0
LINE
  5
272
330
1F
100
AcDbEntity
  8
化粧台
  6
CONTINUOUS
 62
     2
100
AcDbLine
 10
1162.499999999999
 20
2171.0
 30
0.0
 11
1204.999999999999
 21
2171.0
 31
0.0
  0
LINE
  5
273
330
1F
100
AcDbEntity
  8
化粧台
  6
CONTINUOUS
 62
     2
100
AcDbLine
 10
604.9999999999993
 20
2171.0
 30
0.0
 11
647.4999999999993
 21
2171.0
 31
0.0
  0
LINE
  5
274
330
1F
100
AcDbEntity
  8
化粧台
  6
CONTINUOUS
 62
     6
100
AcDbLine
 10
961.5355339059295
 20
2515.464466094038
 30
0.0
 11
976.5355339059304
 21
2530.464466094036
 31
0.0
  0
LINE
  5
275
330
1F
100
AcDbEntity
  8
化粧台
  6
CONTINUOUS
 62
     6
100
AcDbLine
 10
950.9999999999952
 20
2511.999999999975
 30
0.0
 11
983.4999999999989
 21
2544.499999999971
 31
0.0
  0
LINE
  5
276
330
1F
100
AcDbEntity
  8
化粧台
  6
CONTINUOUS
 62
     6
100
AcDbLine
 10
971.7144660940637
 20
2539.785533905902
 30
0.0
 11
958.9644660940646
 21
2527.035533905906
 31
0.0
  0
LINE
  5
277
330
1F
100
AcDbEntity
  8
化粧台
  6
CONTINUOUS
 62
     6
100
AcDbLine
 10
796.5355339059299
 20
2488.464466094037
 30
0.0
 11
811.5355339059308
 21
2503.464466094036
 31
0.0
  0
LINE
  5
278
330
1F
100
AcDbEntity
  8
化粧台
  6
CONTINUOUS
 62
     6
100
AcDbLine
 10
785.9999999999957
 20
2484.999999999974
 30
0.0
 11
818.4999999999993
 21
2517.499999999971
 31
0.0
  0
LINE
  5
279
330
1F
100
AcDbEntity
  8
化粧台
  6
CONTINUOUS
 62
     6
100
AcDbLine
 10
806.7144660940642
 20
2512.785533905902
 30
0.0
 11
793.9644660940651
 21
2500.035533905905
 31
0.0
  0
LINE
  5
27A
330
1F
100
AcDbEntity
  8
化粧台
  6
CONTINUOUS
 62
     6
100
AcDbLine
 10
940.5355339059295
 20
2325.464466094037
 30
0.0
 11
955.5355339059304
 21
2340.464466094036
 31
0.0
  0
LINE
  5
27B
330
1F
100
AcDbEntity
  8
化粧台
  6
CONTINUOUS
 62
     6
100
AcDbLine
 10
929.9999999999957
 20
2321.999999999974
 30
0.0
 11
962.4999999999989
 21
2354.499999999971
 31
0.0
  0
LINE
  5
27C
330
1F
100
AcDbEntity
  8
化粧台
  6
CONTINUOUS
 62
     6
100
AcDbLine
 10
950.7144660940637
 20
2349.785533905902
 30
0.0
 11
937.9644660940646
 21
2337.035533905905
 31
0.0
  0
LINE
  5
27D
330
1F
100
AcDbEntity
  8
化粧台
  6
CONTINUOUS
 62
     6
100
AcDbLine
 10
1054.999999999999
 20
2617.9807621135
 30
0.0
 11
1054.999999999999
 21
2643.9807621135
 31
0.0
  0
LINE
  5
27E
330
1F
100
AcDbEntity
  8
化粧台
  6
CONTINUOUS
 62
     6
100
AcDbLine
 10
1067.999999999999
 20
2630.980762113501
 30
0.0
 11
1041.999999999999
 21
2630.980762113501
 31
0.0
  0
LINE
  5
27F
330
1F
100
AcDbEntity
  8
化粧台
  6
CONTINUOUS
 62
     6
100
AcDbLine
 10
767.9999999999993
 20
2630.980762113501
 30
0.0
 11
741.9999999999993
 21
2630.980762113501
 31
0.0
  0
LINE
  5
280
330
1F
100
AcDbEntity
  8
化粧台
  6
CONTINUOUS
 62
     6
100
AcDbLine
 10
754.9999999999984
 20
2617.9807621135
 30
0.0
 11
754.9999999999984
 21
2643.9807621135
 31
0.0
  0
LINE
  5
281
330
1F
100
AcDbEntity
  8
化粧台
  6
CONTINUOUS
 62
     6
100
AcDbLine
 10
767.9999999999993
 20
2191.000000000001
 30
0.0
 11
741.9999999999993
 21
2191.000000000001
 31
0.0
  0
LINE
  5
282
330
1F
100
AcDbEntity
  8
化粧台
  6
CONTINUOUS
 62
     6
100
AcDbLine
 10
754.9999999999984
 20
2178.0
 30
0.0
 11
754.9999999999984
 21
2204.0
 31
0.0
  0
LINE
  5
283
330
1F
100
AcDbEntity
  8
化粧台
  6
CONTINUOUS
 62
     6
100
AcDbLine
 10
1067.999999999999
 20
2191.000000000001
 30
0.0
 11
1041.999999999999
 21
2191.000000000001
 31
0.0
  0
LINE
  5
284
330
1F
100
AcDbEntity
  8
化粧台
  6
CONTINUOUS
 62
     6
100
AcDbLine
 10
1054.999999999999
 20
2178.0
 30
0.0
 11
1054.999999999999
 21
2204.0
 31
0.0
  0
LINE
  5
285
330
1F
100
AcDbEntity
  8
化粧台
  6
EXLTYPE3
 62
     6
100
AcDbLine
 10
904.9999999999993
 20
2707.2
 30
0.0
 11
904.9999999999993
 21
2154.8
 31
0.0
  0
LINE
  5
286
330
1F
100
AcDbEntity
  8
化粧台
  6
EXLTYPE4
 62
     6
100
AcDbLine
 10
2456.999999999999
 20
941.0
 30
0.0
 11
1828.499999999997
 21
941.0
 31
0.0
  0
TEXT
  5
287
330
1F
100
AcDbEntity
  8
化粧台
  6
CONTINUOUS
 62
     2
100
AcDbText
 10
1828.499999999997
 20
941.0
 30
0.0
 40
59.99999618530273
  1
F.L.
 41
0.6227488631227187
  7
EXCADSTD
 72
     5
 11
1919.243399999997
 21
941.0
 31
0.0
100
AcDbText
  0
LINE
  5
288
330
1F
100
AcDbEntity
  8
化粧台
  6
CONTINUOUS
 62
     2
100
AcDbLine
 10
2457.000000000001
 20
1639.999999999999
 30
0.0
 11
2457.000000000001
 21
1620.999999999999
 31
0.0
  0
ARC
  5
289
330
1F
100
AcDbEntity
  8
化粧台
  6
CONTINUOUS
 62
     2
100
AcDbCircle
 10
2009.0
 20
1637.999999999999
 30
0.0
 40
2.0
100
AcDbArc
 50
90.00000000000004
 51
180.0
  0
LINE
  5
28A
330
1F
100
AcDbEntity
  8
化粧台
  6
CONTINUOUS
 62
     2
100
AcDbLine
 10
2007.0
 20
1637.999999999999
 30
0.0
 11
2007.0
 21
1622.999999999999
 31
0.0
  0
ARC
  5
28B
330
1F
100
AcDbEntity
  8
化粧台
  6
CONTINUOUS
 62
     2
100
AcDbCircle
 10
2009.0
 20
1622.999999999999
 30
0.0
 40
2.0
100
AcDbArc
 50
180.0
 51
270.0000000000002
  0
LINE
  5
28C
330
1F
100
AcDbEntity
  8
化粧台
  6
CONTINUOUS
 62
     2
100
AcDbLine
 10
2032.0
 20
941.0
 30
0.0
 11
2457.000000000001
 21
941.0
 31
0.0
  0
LINE
  5
28D
330
1F
100
AcDbEntity
  8
化粧台
  6
CONTINUOUS
 62
     2
100
AcDbLine
 10
2457.000000000001
 20
941.0
 30
0.0
 11
2457.000000000001
 21
1620.999999999999
 31
0.0
  0
LINE
  5
28E
330
1F
100
AcDbEntity
  8
化粧台
  6
CONTINUOUS
 62
     2
100
AcDbLine
 10
2032.0
 20
941.0
 30
0.0
 11
2032.0
 21
1620.999999999999
 31
0.0
  0
LINE
  5
28F
330
1F
100
AcDbEntity
  8
化粧台
  6
CONTINUOUS
 62
     2
100
AcDbLine
 10
2011.5
 20
1031.0
 30
0.0
 11
2028.5
 21
1031.0
 31
0.0
  0
LINE
  5
290
330
1F
100
AcDbEntity
  8
化粧台
  6
CONTINUOUS
 62
     2
100
AcDbLine
 10
2011.5
 20
1441.0
 30
0.0
 11
2028.5
 21
1441.0
 31
0.0
  0
LINE
  5
291
330
1F
100
AcDbEntity
  8
化粧台
  6
CONTINUOUS
 62
     2
100
AcDbLine
 10
2011.5
 20
1586.0
 30
0.0
 11
2028.5
 21
1586.0
 31
0.0
  0
LINE
  5
292
330
1F
100
AcDbEntity
  8
化粧台
  6
CONTINUOUS
 62
     2
100
AcDbLine
 10
2011.5
 20
1441.0
 30
0.0
 11
2011.5
 21
1586.0
 31
0.0
  0
LINE
  5
293
330
1F
100
AcDbEntity
  8
化粧台
  6
CONTINUOUS
 62
     2
100
AcDbLine
 10
2028.5
 20
1441.0
 30
0.0
 11
2028.5
 21
1586.0
 31
0.0
  0
LINE
  5
294
330
1F
100
AcDbEntity
  8
化粧台
  6
CONTINUOUS
 62
     6
100
AcDbLine
 10
2010.500000000005
 20
1585.999999999995
 30
0.0
 11
2028.500000000002
 21
1585.999999999995
 31
0.0
  0
ARC
  5
295
330
1F
100
AcDbEntity
  8
化粧台
  6
CONTINUOUS
 62
     6
100
AcDbCircle
 10
2027.149999999994
 20
1612.950000000009
 30
0.0
 40
1.0
100
AcDbArc
 50
0.0
 51
90.00000000000004
  0
ARC
  5
296
330
1F
100
AcDbEntity
  8
化粧台
  6
CONTINUOUS
 62
     6
100
AcDbCircle
 10
2027.0
 20
1613.0
 30
0.0
 40
3.000000000000003
100
AcDbArc
 50
0.0
 51
90.00000000000004
  0
ARC
  5
297
330
1F
100
AcDbEntity
  8
化粧台
  6
CONTINUOUS
 62
     6
100
AcDbCircle
 10
2010.75
 20
1607.75
 30
0.0
 40
1.750000000000001
100
AcDbArc
 50
170.7449623899685
 51
68.76631365489952
  0
ARC
  5
298
330
1F
100
AcDbEntity
  8
化粧台
  6
CONTINUOUS
 62
     6
100
AcDbCircle
 10
2023.827514544795
 20
1605.619011184754
 30
0.0
 40
13.00000000000001
100
AcDbArc
 50
142.344253969435
 51
163.1780394406755
  0
ARC
  5
299
330
1F
100
AcDbEntity
  8
化粧台
  6
CONTINUOUS
 62
     6
100
AcDbCircle
 10
2014.327167025331
 20
1612.950000000009
 30
0.0
 40
1.0
100
AcDbArc
 50
90.00000000000004
 51
142.3442539694352
  0
ARC
  5
29A
330
1F
100
AcDbEntity
  8
化粧台
  6
CONTINUOUS
 62
     6
100
AcDbCircle
 10
2023.827514544795
 20
1605.619011184754
 30
0.0
 40
15.00000000000001
100
AcDbArc
 50
142.0420920441203
 51
170.7449623899722
  0
ARC
  5
29B
330
1F
100
AcDbEntity
  8
化粧台
  6
CONTINUOUS
 62
     6
100
AcDbCircle
 10
2014.365960544041
 20
1613.0
 30
0.0
 40
3.000000000000003
100
AcDbArc
 50
90.00000000000004
 51
142.0420920441179
  0
LINE
  5
29C
330
1F
100
AcDbEntity
  8
化粧台
  6
CONTINUOUS
 62
     6
100
AcDbLine
 10
2014.365960544001
 20
1616.0
 30
0.0
 11
2027.0
 21
1616.0
 31
0.0
  0
LINE
  5
29D
330
1F
100
AcDbEntity
  8
化粧台
  6
CONTINUOUS
 62
     6
100
AcDbLine
 10
2014.3271670253
 20
1613.95000000001
 30
0.0
 11
2027.149999999994
 21
1613.95000000001
 31
0.0
  0
LINE
  5
29E
330
1F
100
AcDbEntity
  8
化粧台
  6
CONTINUOUS
 62
     6
100
AcDbLine
 10
2028.149999999994
 20
1612.949999999999
 30
0.0
 11
2028.149999999994
 21
1596.560271065815
 31
0.0
  0
LINE
  5
29F
330
1F
100
AcDbEntity
  8
化粧台
  6
CONTINUOUS
 62
     6
100
AcDbLine
 10
2028.500000000002
 20
1585.999999999995
 30
0.0
 11
2028.500000000002
 21
1571.0
 31
0.0
  0
LINE
  5
2A0
330
1F
100
AcDbEntity
  8
化粧台
  6
CONTINUOUS
 62
     6
100
AcDbLine
 10
2009.950252619614
 20
1588.04231369542
 30
0.0
 11
2020.547979043089
 21
1588.570176405472
 31
0.0
  0
ARC
  5
2A1
330
1F
100
AcDbEntity
  8
化粧台
  6
CONTINUOUS
 62
     6
100
AcDbCircle
 10
2020.149999999994
 20
1596.560271065815
 30
0.0
 40
8.0
100
AcDbArc
 50
272.8514919099882
 51
0.0
  0
ARC
  5
2A2
330
1F
100
AcDbEntity
  8
化粧台
  6
CONTINUOUS
 62
     6
100
AcDbCircle
 10
2010.0
 20
1587.043551862876
 30
0.0
 40
1.0
100
AcDbArc
 50
92.8514919099879
 51
180.0
  0
ARC
  5
2A3
330
1F
100
AcDbEntity
  8
化粧台
  6
CONTINUOUS
 62
     6
100
AcDbCircle
 10
2029.0
 20
1572.0
 30
0.0
 40
1.0
100
AcDbArc
 50
269.999999999987
 51
0.0
  0
LINE
  5
2A4
330
1F
100
AcDbEntity
  8
化粧台
  6
CONTINUOUS
 62
     6
100
AcDbLine
 10
2030.0
 20
1613.0
 30
0.0
 11
2030.0
 21
1572.0
 31
0.0
  0
LINE
  5
2A5
330
1F
100
AcDbEntity
  8
化粧台
  6
CONTINUOUS
 62
     6
100
AcDbLine
 10
2028.5
 20
1571.0
 30
0.0
 11
2029.0
 21
1571.0
 31
0.0
  0
ARC
  5
2A6
330
1F
100
AcDbEntity
  8
化粧台
  6
CONTINUOUS
 62
     6
100
AcDbCircle
 10
2010.0
 20
1585.0
 30
0.0
 40
1.0
100
AcDbArc
 50
180.0
 51
270.000000000026
  0
LINE
  5
2A7
330
1F
100
AcDbEntity
  8
化粧台
  6
CONTINUOUS
 62
     6
100
AcDbLine
 10
2010.5
 20
1584.0
 30
0.0
 11
2010.0
 21
1584.0
 31
0.0
  0
LINE
  5
2A8
330
1F
100
AcDbEntity
  8
化粧台
  6
CONTINUOUS
 62
     6
100
AcDbLine
 10
2009.0
 20
1587.043551862876
 30
0.0
 11
2009.0
 21
1585.0
 31
0.0
  0
LINE
  5
2A9
330
1F
100
AcDbEntity
  8
化粧台
  6
CONTINUOUS
 62
     6
100
AcDbLine
 10
2010.5
 20
1585.999999999995
 30
0.0
 11
2010.5
 21
1584.0
 31
0.0
  0
LINE
  5
2AA
330
1F
100
AcDbEntity
  8
化粧台
  6
CONTINUOUS
 62
     2
100
AcDbLine
 10
2011.5
 20
1407.0
 30
0.0
 11
2028.5
 21
1407.0
 31
0.0
  0
LINE
  5
2AB
330
1F
100
AcDbEntity
  8
化粧台
  6
CONTINUOUS
 62
     2
100
AcDbLine
 10
2011.5
 20
1031.0
 30
0.0
 11
2011.5
 21
1406.999999999995
 31
0.0
  0
LINE
  5
2AC
330
1F
100
AcDbEntity
  8
化粧台
  6
CONTINUOUS
 62
     2
100
AcDbLine
 10
2028.5
 20
1031.0
 30
0.0
 11
2028.5
 21
1406.999999999995
 31
0.0
  0
LINE
  5
2AD
330
1F
100
AcDbEntity
  8
化粧台
  6
CONTINUOUS
 62
     6
100
AcDbLine
 10
2010.500000000005
 20
1406.999999999995
 30
0.0
 11
2028.500000000002
 21
1406.999999999995
 31
0.0
  0
ARC
  5
2AE
330
1F
100
AcDbEntity
  8
化粧台
  6
CONTINUOUS
 62
     6
100
AcDbCircle
 10
2027.149999999994
 20
1433.950000000009
 30
0.0
 40
1.0
100
AcDbArc
 50
0.0
 51
90.00000000000004
  0
ARC
  5
2AF
330
1F
100
AcDbEntity
  8
化粧台
  6
CONTINUOUS
 62
     6
100
AcDbCircle
 10
2027.0
 20
1434.0
 30
0.0
 40
3.000000000000003
100
AcDbArc
 50
0.0
 51
90.00000000000004
  0
ARC
  5
2B0
330
1F
100
AcDbEntity
  8
化粧台
  6
CONTINUOUS
 62
     6
100
AcDbCircle
 10
2010.75
 20
1428.75
 30
0.0
 40
1.750000000000001
100
AcDbArc
 50
170.7449623899685
 51
68.76631365489952
  0
ARC
  5
2B1
330
1F
100
AcDbEntity
  8
化粧台
  6
CONTINUOUS
 62
     6
100
AcDbCircle
 10
2023.827514544795
 20
1426.619011184754
 30
0.0
 40
13.00000000000001
100
AcDbArc
 50
142.344253969435
 51
163.1780394406755
  0
ARC
  5
2B2
330
1F
100
AcDbEntity
  8
化粧台
  6
CONTINUOUS
 62
     6
100
AcDbCircle
 10
2014.327167025331
 20
1433.950000000009
 30
0.0
 40
1.0
100
AcDbArc
 50
90.00000000000004
 51
142.3442539694352
  0
ARC
  5
2B3
330
1F
100
AcDbEntity
  8
化粧台
  6
CONTINUOUS
 62
     6
100
AcDbCircle
 10
2023.827514544795
 20
1426.619011184754
 30
0.0
 40
15.00000000000001
100
AcDbArc
 50
142.0420920441203
 51
170.7449623899722
  0
ARC
  5
2B4
330
1F
100
AcDbEntity
  8
化粧台
  6
CONTINUOUS
 62
     6
100
AcDbCircle
 10
2014.365960544041
 20
1434.0
 30
0.0
 40
3.000000000000003
100
AcDbArc
 50
90.00000000000004
 51
142.0420920441179
  0
LINE
  5
2B5
330
1F
100
AcDbEntity
  8
化粧台
  6
CONTINUOUS
 62
     6
100
AcDbLine
 10
2014.365960544001
 20
1437.0
 30
0.0
 11
2027.0
 21
1437.0
 31
0.0
  0
LINE
  5
2B6
330
1F
100
AcDbEntity
  8
化粧台
  6
CONTINUOUS
 62
     6
100
AcDbLine
 10
2014.3271670253
 20
1434.950000000008
 30
0.0
 11
2027.149999999994
 21
1434.950000000008
 31
0.0
  0
LINE
  5
2B7
330
1F
100
AcDbEntity
  8
化粧台
  6
CONTINUOUS
 62
     6
100
AcDbLine
 10
2028.149999999994
 20
1433.949999999999
 30
0.0
 11
2028.149999999994
 21
1417.560271065815
 31
0.0
  0
LINE
  5
2B8
330
1F
100
AcDbEntity
  8
化粧台
  6
CONTINUOUS
 62
     6
100
AcDbLine
 10
2028.500000000002
 20
1406.999999999995
 30
0.0
 11
2028.500000000002
 21
1392.0
 31
0.0
  0
LINE
  5
2B9
330
1F
100
AcDbEntity
  8
化粧台
  6
CONTINUOUS
 62
     6
100
AcDbLine
 10
2009.950252619614
 20
1409.04231369542
 30
0.0
 11
2020.547979043089
 21
1409.570176405471
 31
0.0
  0
ARC
  5
2BA
330
1F
100
AcDbEntity
  8
化粧台
  6
CONTINUOUS
 62
     6
100
AcDbCircle
 10
2020.149999999994
 20
1417.560271065815
 30
0.0
 40
8.0
100
AcDbArc
 50
272.8514919099882
 51
0.0
  0
ARC
  5
2BB
330
1F
100
AcDbEntity
  8
化粧台
  6
CONTINUOUS
 62
     6
100
AcDbCircle
 10
2010.0
 20
1408.043551862876
 30
0.0
 40
1.0
100
AcDbArc
 50
92.8514919099879
 51
180.0
  0
ARC
  5
2BC
330
1F
100
AcDbEntity
  8
化粧台
  6
CONTINUOUS
 62
     6
100
AcDbCircle
 10
2029.0
 20
1393.0
 30
0.0
 40
1.0
100
AcDbArc
 50
269.999999999987
 51
0.0
  0
LINE
  5
2BD
330
1F
100
AcDbEntity
  8
化粧台
  6
CONTINUOUS
 62
     6
100
AcDbLine
 10
2030.0
 20
1433.999999999999
 30
0.0
 11
2030.0
 21
1393.0
 31
0.0
  0
LINE
  5
2BE
330
1F
100
AcDbEntity
  8
化粧台
  6
CONTINUOUS
 62
     6
100
AcDbLine
 10
2028.5
 20
1392.0
 30
0.0
 11
2029.0
 21
1392.0
 31
0.0
  0
ARC
  5
2BF
330
1F
100
AcDbEntity
  8
化粧台
  6
CONTINUOUS
 62
     6
100
AcDbCircle
 10
2010.0
 20
1406.0
 30
0.0
 40
1.0
100
AcDbArc
 50
180.0
 51
270.000000000026
  0
LINE
  5
2C0
330
1F
100
AcDbEntity
  8
化粧台
  6
CONTINUOUS
 62
     6
100
AcDbLine
 10
2010.5
 20
1404.999999999999
 30
0.0
 11
2010.0
 21
1404.999999999999
 31
0.0
  0
LINE
  5
2C1
330
1F
100
AcDbEntity
  8
化粧台
  6
CONTINUOUS
 62
     6
100
AcDbLine
 10
2009.0
 20
1408.043551862876
 30
0.0
 11
2009.0
 21
1406.0
 31
0.0
  0
LINE
  5
2C2
330
1F
100
AcDbEntity
  8
化粧台
  6
CONTINUOUS
 62
     6
100
AcDbLine
 10
2010.5
 20
1406.999999999995
 30
0.0
 11
2010.5
 21
1404.999999999999
 31
0.0
  0
LINE
  5
2C3
330
1F
100
AcDbEntity
  8
化粧台
  6
CONTINUOUS
 62
     2
100
AcDbLine
 10
2457.000000000001
 20
1639.999999999999
 30
0.0
 11
2009.0
 21
1639.999999999999
 31
0.0
  0
LINE
  5
2C4
330
1F
100
AcDbEntity
  8
化粧台
  6
CONTINUOUS
 62
     2
100
AcDbLine
 10
2457.000000000001
 20
1620.999999999999
 30
0.0
 11
2009.0
 21
1620.999999999999
 31
0.0
  0
LINE
  5
2C5
330
1F
100
AcDbEntity
  8
化粧台
  6
EXLTYPE2
 62
     6
100
AcDbLine
 10
2050.5
 20
1620.999999999999
 30
0.0
 11
2050.5
 21
1570.999999999999
 31
0.0
  0
LINE
  5
2C6
330
1F
100
AcDbEntity
  8
化粧台
  6
EXLTYPE2
 62
     6
100
AcDbLine
 10
2033.0
 20
1620.999999999999
 30
0.0
 11
2033.0
 21
1570.999999999999
 31
0.0
  0
LINE
  5
2C7
330
1F
100
AcDbEntity
  8
化粧台
  6
EXLTYPE2
 62
     6
100
AcDbLine
 10
2033.0
 20
1570.999999999999
 30
0.0
 11
2050.5
 21
1570.999999999999
 31
0.0
  0
LINE
  5
2C8
330
1F
100
AcDbEntity
  8
化粧台
  6
EXLTYPE2
 62
     6
100
AcDbLine
 10
2133.500000000002
 20
1471.0
 30
0.0
 11
2133.500000000002
 21
1531.0
 31
0.0
  0
LINE
  5
2C9
330
1F
100
AcDbEntity
  8
化粧台
  6
EXLTYPE2
 62
     6
100
AcDbLine
 10
2376.500000000001
 20
1531.0
 30
0.0
 11
2376.500000000001
 21
1456.0
 31
0.0
  0
LINE
  5
2CA
330
1F
100
AcDbEntity
  8
化粧台
  6
EXLTYPE2
 62
     6
100
AcDbLine
 10
2298.500000000001
 20
1531.0
 30
0.0
 11
2298.500000000001
 21
1456.0
 31
0.0
  0
LINE
  5
2CB
330
1F
100
AcDbEntity
  8
化粧台
  6
EXLTYPE2
 62
     6
100
AcDbLine
 10
2376.500000000001
 20
1456.0
 30
0.0
 11
2028.5
 21
1456.0
 31
0.0
  0
LINE
  5
2CC
330
1F
100
AcDbEntity
  8
化粧台
  6
EXLTYPE2
 62
     6
100
AcDbLine
 10
2148.500000000002
 20
1456.0
 30
0.0
 11
2148.500000000002
 21
1531.0
 31
0.0
  0
LINE
  5
2CD
330
1F
100
AcDbEntity
  8
化粧台
  6
EXLTYPE2
 62
     6
100
AcDbLine
 10
2376.500000000001
 20
1531.0
 30
0.0
 11
2028.5
 21
1531.0
 31
0.0
  0
LINE
  5
2CE
330
1F
100
AcDbEntity
  8
化粧台
  6
EXLTYPE2
 62
     6
100
AcDbLine
 10
2133.499999999998
 20
1471.0
 30
0.0
 11
2028.5
 21
1471.0
 31
0.0
  0
LINE
  5
2CF
330
1F
100
AcDbEntity
  8
化粧台
  6
EXLTYPE2
 62
     6
100
AcDbLine
 10
2376.500000000001
 20
1060.999999999999
 30
0.0
 11
2028.5
 21
1060.999999999999
 31
0.0
  0
LINE
  5
2D0
330
1F
100
AcDbEntity
  8
化粧台
  6
EXLTYPE2
 62
     6
100
AcDbLine
 10
2376.500000000001
 20
1200.999999999999
 30
0.0
 11
2376.500000000001
 21
1060.999999999999
 31
0.0
  0
LINE
  5
2D1
330
1F
100
AcDbEntity
  8
化粧台
  6
EXLTYPE2
 62
     6
100
AcDbLine
 10
2298.500000000001
 20
1200.999999999999
 30
0.0
 11
2298.500000000001
 21
1060.999999999999
 31
0.0
  0
LINE
  5
2D2
330
1F
100
AcDbEntity
  8
化粧台
  6
EXLTYPE2
 62
     6
100
AcDbLine
 10
2283.500000000003
 20
1200.999999999999
 30
0.0
 11
2283.500000000001
 21
1075.999999999999
 31
0.0
  0
LINE
  5
2D3
330
1F
100
AcDbEntity
  8
化粧台
  6
EXLTYPE2
 62
     6
100
AcDbLine
 10
2376.500000000001
 20
1200.999999999999
 30
0.0
 11
2028.5
 21
1200.999999999999
 31
0.0
  0
LINE
  5
2D4
330
1F
100
AcDbEntity
  8
化粧台
  6
EXLTYPE2
 62
     6
100
AcDbLine
 10
2283.499999999999
 20
1075.999999999999
 30
0.0
 11
2028.5
 21
1075.999999999999
 31
0.0
  0
LINE
  5
2D5
330
1F
100
AcDbEntity
  8
化粧台
  6
EXLTYPE2
 62
     6
100
AcDbLine
 10
2032.999999999998
 20
1046.0
 30
0.0
 11
2032.999999999998
 21
1031.0
 31
0.0
  0
LINE
  5
2D6
330
1F
100
AcDbEntity
  8
化粧台
  6
EXLTYPE2
 62
     6
100
AcDbLine
 10
2242.000000000001
 20
941.0
 30
0.0
 11
2242.000000000001
 21
1031.0
 31
0.0
  0
LINE
  5
2D7
330
1F
100
AcDbEntity
  8
化粧台
  6
EXLTYPE2
 62
     6
100
AcDbLine
 10
2236.999999999997
 20
1046.0
 30
0.0
 11
2236.999999999997
 21
1043.0
 31
0.0
  0
LINE
  5
2D8
330
1F
100
AcDbEntity
  8
化粧台
  6
EXLTYPE2
 62
     6
100
AcDbLine
 10
2257.000000000001
 20
941.0
 30
0.0
 11
2257.000000000001
 21
1043.0
 31
0.0
  0
LINE
  5
2D9
330
1F
100
AcDbEntity
  8
化粧台
  6
EXLTYPE2
 62
     6
100
AcDbLine
 10
2408.999999999999
 20
1043.0
 30
0.0
 11
2408.999999999999
 21
1028.0
 31
0.0
  0
LINE
  5
2DA
330
1F
100
AcDbEntity
  8
化粧台
  6
EXLTYPE2
 62
     6
100
AcDbLine
 10
2032.999999999998
 20
1031.0
 30
0.0
 11
2257.000000000001
 21
1031.0
 31
0.0
  0
LINE
  5
2DB
330
1F
100
AcDbEntity
  8
化粧台
  6
EXLTYPE2
 62
     6
100
AcDbLine
 10
2408.999999999999
 20
1028.0
 30
0.0
 11
2439.000000000001
 21
1028.0
 31
0.0
  0
LINE
  5
2DC
330
1F
100
AcDbEntity
  8
化粧台
  6
EXLTYPE2
 62
     6
100
AcDbLine
 10
2237.000000000001
 20
1043.0
 30
0.0
 11
2438.999999999999
 21
1043.0
 31
0.0
  0
LINE
  5
2DD
330
1F
100
AcDbEntity
  8
化粧台
  6
EXLTYPE2
 62
     6
100
AcDbLine
 10
2032.999999999998
 20
1046.0
 30
0.0
 11
2439.000000000001
 21
1046.0
 31
0.0
  0
LINE
  5
2DE
330
1F
100
AcDbEntity
  8
化粧台
  6
EXLTYPE2
 62
     6
100
AcDbLine
 10
2442.000000000001
 20
1081.0
 30
0.0
 11
2457.000000000001
 21
1081.0
 31
0.0
  0
LINE
  5
2DF
330
1F
100
AcDbEntity
  8
化粧台
  6
EXLTYPE2
 62
     6
100
AcDbLine
 10
2442.000000000001
 20
1500.999999999999
 30
0.0
 11
2457.000000000001
 21
1500.999999999999
 31
0.0
  0
LINE
  5
2E0
330
1F
100
AcDbEntity
  8
化粧台
  6
EXLTYPE2
 62
     6
100
AcDbLine
 10
2442.000000000001
 20
1031.0
 30
0.0
 11
2442.000000000001
 21
1620.999999999999
 31
0.0
  0
LINE
  5
2E1
330
1F
100
AcDbEntity
  8
化粧台
  6
EXLTYPE2
 62
     6
100
AcDbLine
 10
2439.000000000001
 20
1031.0
 30
0.0
 11
2457.000000000001
 21
1031.0
 31
0.0
  0
LINE
  5
2E2
330
1F
100
AcDbEntity
  8
化粧台
  6
EXLTYPE2
 62
     6
100
AcDbLine
 10
2439.000000000001
 20
1028.0
 30
0.0
 11
2439.000000000001
 21
1620.999999999999
 31
0.0
  0
ARC
  5
2E3
330
1F
100
AcDbEntity
  8
化粧台
  6
CONTINUOUS
 62
     2
100
AcDbCircle
 10
2421.999999999601
 20
1805.0
 30
0.0
 40
5.0
100
AcDbArc
 50
357.4931953294229
 51
91.30195267258104
  0
ARC
  5
2E4
330
1F
100
AcDbEntity
  8
化粧台
  6
CONTINUOUS
 62
     2
100
AcDbCircle
 10
1981.9999999996
 20
1795.0
 30
0.0
 40
5.0
100
AcDbArc
 50
91.30195267258104
 51
214.381811122868
  0
LINE
  5
2E5
330
1F
100
AcDbEntity
  8
化粧台
  6
CONTINUOUS
 62
     2
100
AcDbLine
 10
1981.886392972832
 20
1799.998709177725
 30
0.0
 11
2421.886392972833
 21
1809.998709177725
 31
0.0
  0
LINE
  5
2E6
330
1F
100
AcDbEntity
  8
化粧台
  6
CONTINUOUS
 62
     2
100
AcDbLine
 10
2426.995215170235
 20
1804.781309810367
 30
0.0
 11
2420.00257047897
 21
1640.0
 31
0.0
  0
LINE
  5
2E7
330
1F
100
AcDbEntity
  8
化粧台
  6
CONTINUOUS
 62
     2
100
AcDbLine
 10
1977.873535955865
 20
1792.176474810494
 30
0.0
 11
2081.9999999996
 21
1640.0
 31
0.0
  0
LINE
  5
2E8
330
1F
100
AcDbEntity
  8
化粧台
  6
CONTINUOUS
 62
     2
100
AcDbLine
 10
2420.00257047897
 20
1640.0
 30
0.0
 11
2081.9999999996
 21
1640.0
 31
0.0
  0
LINE
  5
2E9
330
1F
100
AcDbEntity
  8
化粧台
  6
CONTINUOUS
 62
     2
100
AcDbLine
 10
2372.849999999599
 20
916.5
 30
0.0
 11
2341.149999999599
 21
916.5
 31
0.0
  0
LINE
  5
2EA
330
1F
100
AcDbEntity
  8
化粧台
  6
CONTINUOUS
 62
     2
100
AcDbLine
 10
2341.149999999599
 20
916.5
 30
0.0
 11
2341.149999999599
 21
941.0
 31
0.0
  0
LINE
  5
2EB
330
1F
100
AcDbEntity
  8
化粧台
  6
CONTINUOUS
 62
     2
100
AcDbLine
 10
2372.849999999594
 20
941.0
 30
0.0
 11
2372.849999999599
 21
916.5
 31
0.0
  0
ARC
  5
2EC
330
1F
100
AcDbEntity
  8
化粧台
  6
EXLTYPE2
 62
     6
100
AcDbCircle
 10
2353.811111110704
 20
1575.0
 30
0.0
 40
174.5111111111056
100
AcDbArc
 50
171.7636205920223
 51
188.2363794079779
  0
LINE
  5
2ED
330
1F
100
AcDbEntity
  8
化粧台
  6
EXLTYPE2
 62
     6
100
AcDbLine
 10
2181.099999999635
 20
1550.000000000035
 30
0.0
 11
2183.199999999601
 21
1547.90000000007
 31
0.0
  0
LINE
  5
2EE
330
1F
100
AcDbEntity
  8
化粧台
  6
EXLTYPE2
 62
     6
100
AcDbLine
 10
2216.899999999565
 20
1550.000000000035
 30
0.0
 11
2214.799999999599
 21
1547.90000000007
 31
0.0
  0
LINE
  5
2EF
330
1F
100
AcDbEntity
  8
化粧台
  6
EXLTYPE2
 62
     6
100
AcDbLine
 10
2245.999999999601
 20
1581.5
 30
0.0
 11
2242.999999999601
 21
1577.2
 31
0.0
  0
LINE
  5
2F0
330
1F
100
AcDbEntity
  8
化粧台
  6
EXLTYPE2
 62
     6
100
AcDbLine
 10
2245.999999999601
 20
1548.5
 30
0.0
 11
2242.999999999601
 21
1552.8
 31
0.0
  0
LINE
  5
2F1
330
1F
100
AcDbEntity
  8
化粧台
  6
EXLTYPE2
 62
     6
100
AcDbLine
 10
2242.999999999601
 20
1577.2
 30
0.0
 11
2218.686132136729
 21
1577.2
 31
0.0
  0
LINE
  5
2F2
330
1F
100
AcDbEntity
  8
化粧台
  6
EXLTYPE2
 62
     6
100
AcDbLine
 10
2242.999999999601
 20
1552.8
 30
0.0
 11
2217.282181367529
 21
1552.8
 31
0.0
  0
LINE
  5
2F3
330
1F
100
AcDbEntity
  8
化粧台
  6
EXLTYPE2
 62
     6
100
AcDbLine
 10
2233.68613213673
 20
1577.2
 30
0.0
 11
2218.340225091328
 21
1586.2
 31
0.0
  0
LINE
  5
2F4
330
1F
100
AcDbEntity
  8
化粧台
  6
EXLTYPE2
 62
     6
100
AcDbLine
 10
2233.68613213673
 20
1552.8
 30
0.0
 11
2214.799999999599
 21
1541.723744374881
 31
0.0
  0
LINE
  5
2F5
330
1F
100
AcDbEntity
  8
化粧台
  6
EXLTYPE2
 62
     6
100
AcDbLine
 10
2233.68613213673
 20
1566.25
 30
0.0
 11
2212.399999999598
 21
1566.25
 31
0.0
  0
LINE
  5
2F6
330
1F
100
AcDbEntity
  8
化粧台
  6
EXLTYPE2
 62
     6
100
AcDbLine
 10
2233.68613213673
 20
1563.75
 30
0.0
 11
2212.399999999598
 21
1563.75
 31
0.0
  0
LINE
  5
2F7
330
1F
100
AcDbEntity
  8
化粧台
  6
EXLTYPE2
 62
     6
100
AcDbLine
 10
2233.68613213673
 20
1566.25
 30
0.0
 11
2233.68613213673
 21
1563.75
 31
0.0
  0
ARC
  5
2F8
330
1F
100
AcDbEntity
  8
化粧台
  6
EXLTYPE2
 62
     6
100
AcDbCircle
 10
2044.188888888493
 20
1575.0
 30
0.0
 40
174.5111111111056
100
AcDbArc
 50
351.7636205920222
 51
352.6914553742785
  0
ARC
  5
2F9
330
1F
100
AcDbEntity
  8
化粧台
  6
EXLTYPE2
 62
     6
100
AcDbCircle
 10
2044.188888888493
 20
1575.0
 30
0.0
 40
174.5111111111056
100
AcDbArc
 50
0.7223268088028906
 51
8.236379407977633
  0
ELLIPSE
  5
2FA
330
1F
100
AcDbEntity
  8
化粧台
  6
EXLTYPE2
 62
     6
100
AcDbEllipse
 10
2217.984156752129
 20
1565.0
 30
0.0
 11
-0.7019753845999902
 21
-12.20000000000006
 31
0.0
210
0.0
220
0.0
230
1.0
 40
0.2153535729318986
 41
3.141592653589879
 42
4.622148339603934
  0
ELLIPSE
  5
2FB
330
1F
100
AcDbEntity
  8
化粧台
  6
EXLTYPE2
 62
     6
100
AcDbEllipse
 10
2217.984156752129
 20
1565.0
 30
0.0
 11
-0.7019753845999902
 21
-12.20000000000006
 31
0.0
210
0.0
220
0.0
230
1.0
 40
0.2153535729318986
 41
-1.455774510481848
 42
0.024781175480576
  0
LINE
  5
2FC
330
1F
100
AcDbEntity
  8
化粧台
  6
EXLTYPE2
 62
     6
100
AcDbLine
 10
2268.499999999601
 20
1578.0
 30
0.0
 11
2261.999999999601
 21
1580.0
 31
0.0
  0
LINE
  5
2FD
330
1F
100
AcDbEntity
  8
化粧台
  6
EXLTYPE2
 62
     6
100
AcDbLine
 10
2280.999999999601
 20
1578.0
 30
0.0
 11
2268.499999999601
 21
1578.0
 31
0.0
  0
LINE
  5
2FE
330
1F
100
AcDbEntity
  8
化粧台
  6
EXLTYPE2
 62
     6
100
AcDbLine
 10
2261.999999999601
 20
1582.5
 30
0.0
 11
2245.999999999601
 21
1582.5
 31
0.0
  0
LINE
  5
2FF
330
1F
100
AcDbEntity
  8
化粧台
  6
EXLTYPE2
 62
     6
100
AcDbLine
 10
2268.499999999601
 20
1552.0
 30
0.0
 11
2261.999999999601
 21
1550.0
 31
0.0
  0
LINE
  5
300
330
1F
100
AcDbEntity
  8
化粧台
  6
EXLTYPE2
 62
     6
100
AcDbLine
 10
2280.999999999601
 20
1552.0
 30
0.0
 11
2268.499999999601
 21
1552.0
 31
0.0
  0
LINE
  5
301
330
1F
100
AcDbEntity
  8
化粧台
  6
EXLTYPE2
 62
     6
100
AcDbLine
 10
2261.999999999601
 20
1547.5
 30
0.0
 11
2245.999999999601
 21
1547.5
 31
0.0
  0
LINE
  5
302
330
1F
100
AcDbEntity
  8
化粧台
  6
EXLTYPE2
 62
     6
100
AcDbLine
 10
2280.999999999601
 20
1578.0
 30
0.0
 11
2280.999999999601
 21
1552.0
 31
0.0
  0
LINE
  5
303
330
1F
100
AcDbEntity
  8
化粧台
  6
EXLTYPE2
 62
     6
100
AcDbLine
 10
2261.999999999601
 20
1582.5
 30
0.0
 11
2261.999999999601
 21
1547.5
 31
0.0
  0
LINE
  5
304
330
1F
100
AcDbEntity
  8
化粧台
  6
EXLTYPE2
 62
     6
100
AcDbLine
 10
2245.999999999601
 20
1582.5
 30
0.0
 11
2245.999999999601
 21
1547.5
 31
0.0
  0
LINE
  5
305
330
1F
100
AcDbEntity
  8
化粧台
  6
EXLTYPE2
 62
     6
100
AcDbLine
 10
2389.999999999601
 20
1568.0
 30
0.0
 11
2280.999999999601
 21
1567.999999999999
 31
0.0
  0
LINE
  5
306
330
1F
100
AcDbEntity
  8
化粧台
  6
EXLTYPE2
 62
     6
100
AcDbLine
 10
2280.999999999601
 20
1562.0
 30
0.0
 11
2389.999999999601
 21
1562.0
 31
0.0
  0
LINE
  5
307
330
1F
100
AcDbEntity
  8
化粧台
  6
EXLTYPE2
 62
     6
100
AcDbLine
 10
2389.999999999601
 20
1568.0
 30
0.0
 11
2389.999999999601
 21
1562.0
 31
0.0
  0
LINE
  5
308
330
1F
100
AcDbEntity
  8
化粧台
  6
EXLTYPE2
 62
     6
100
AcDbLine
 10
2225.249999999601
 20
1620.5
 30
0.0
 11
2172.7499999996
 21
1620.5
 31
0.0
  0
ARC
  5
309
330
1F
100
AcDbEntity
  8
化粧台
  6
EXLTYPE2
 62
     6
100
AcDbCircle
 10
2222.2499999996
 20
1604.5
 30
0.0
 40
3.000000000000003
100
AcDbArc
 50
270.0000000000002
 51
0.0
  0
ARC
  5
30A
330
1F
100
AcDbEntity
  8
化粧台
  6
EXLTYPE2
 62
     6
100
AcDbCircle
 10
2175.7499999996
 20
1604.5
 30
0.0
 40
3.000000000000003
100
AcDbArc
 50
180.0
 51
270.0000000000002
  0
LINE
  5
30B
330
1F
100
AcDbEntity
  8
化粧台
  6
EXLTYPE2
 62
     6
100
AcDbLine
 10
2172.7499999996
 20
1620.5
 30
0.0
 11
2172.7499999996
 21
1604.5
 31
0.0
  0
LINE
  5
30C
330
1F
100
AcDbEntity
  8
化粧台
  6
EXLTYPE2
 62
     6
100
AcDbLine
 10
2222.2499999996
 20
1601.5
 30
0.0
 11
2175.7499999996
 21
1601.5
 31
0.0
  0
LINE
  5
30D
330
1F
100
AcDbEntity
  8
化粧台
  6
EXLTYPE2
 62
     6
100
AcDbLine
 10
2225.249999999601
 20
1620.5
 30
0.0
 11
2225.249999999601
 21
1604.5
 31
0.0
  0
LINE
  5
30E
330
1F
100
AcDbEntity
  8
化粧台
  6
EXLTYPE2
 62
     6
100
AcDbLine
 10
2216.899999999598
 20
1600.0
 30
0.0
 11
2216.899999999598
 21
1601.5
 31
0.0
  0
LINE
  5
30F
330
1F
100
AcDbEntity
  8
化粧台
  6
EXLTYPE2
 62
     6
100
AcDbLine
 10
2181.099999999598
 20
1600.0
 30
0.0
 11
2181.099999999598
 21
1601.5
 31
0.0
  0
LINE
  5
310
330
1F
100
AcDbEntity
  8
化粧台
  6
EXLTYPE2
 62
     6
100
AcDbLine
 10
2227.2999999996
 20
1627.9
 30
0.0
 11
2170.699999999601
 21
1627.9
 31
0.0
  0
LINE
  5
311
330
1F
100
AcDbEntity
  8
化粧台
  6
EXLTYPE2
 62
     6
100
AcDbLine
 10
2227.2999999996
 20
1635.7
 30
0.0
 11
2170.699999999601
 21
1635.7
 31
0.0
  0
LINE
  5
312
330
1F
100
AcDbEntity
  8
化粧台
  6
EXLTYPE2
 62
     6
100
AcDbLine
 10
2222.4999999996
 20
1627.9
 30
0.0
 11
2222.4999999996
 21
1620.5
 31
0.0
  0
LINE
  5
313
330
1F
100
AcDbEntity
  8
化粧台
  6
EXLTYPE2
 62
     6
100
AcDbLine
 10
2175.4999999996
 20
1627.9
 30
0.0
 11
2175.4999999996
 21
1620.5
 31
0.0
  0
LINE
  5
314
330
1F
100
AcDbEntity
  8
化粧台
  6
EXLTYPE2
 62
     6
100
AcDbLine
 10
2214.799999999599
 20
1547.90000000007
 30
0.0
 11
2183.199999999601
 21
1547.90000000007
 31
0.0
  0
LINE
  5
315
330
1F
100
AcDbEntity
  8
化粧台
  6
EXLTYPE2
 62
     6
100
AcDbLine
 10
2216.899999999529
 20
1550.0
 30
0.0
 11
2181.099999999671
 21
1550.0
 31
0.0
  0
LINE
  5
316
330
1F
100
AcDbEntity
  8
化粧台
  6
EXLTYPE2
 62
     6
100
AcDbLine
 10
2242.999999999601
 20
1577.2
 30
0.0
 11
2242.999999999601
 21
1552.8
 31
0.0
  0
LINE
  5
317
330
1F
100
AcDbEntity
  8
化粧台
  6
EXLTYPE2
 62
     6
100
AcDbLine
 10
2268.499999999601
 20
1578.0
 30
0.0
 11
2268.499999999601
 21
1552.0
 31
0.0
  0
LINE
  5
318
330
1F
100
AcDbEntity
  8
化粧台
  6
EXLTYPE2
 62
     6
100
AcDbLine
 10
2216.899999999598
 20
1600.0
 30
0.0
 11
2181.099999999598
 21
1600.0
 31
0.0
  0
LINE
  5
319
330
1F
100
AcDbEntity
  8
化粧台
  6
EXLTYPE2
 62
     6
100
AcDbLine
 10
2187.328203883208
 20
1620.5
 30
0.0
 11
2187.328203883208
 21
1604.5
 31
0.0
  0
LINE
  5
31A
330
1F
100
AcDbEntity
  8
化粧台
  6
EXLTYPE2
 62
     6
100
AcDbLine
 10
2189.256412364648
 20
1620.5
 30
0.0
 11
2189.256412364648
 21
1604.5
 31
0.0
  0
LINE
  5
31B
330
1F
100
AcDbEntity
  8
化粧台
  6
EXLTYPE2
 62
     6
100
AcDbLine
 10
2208.743587634548
 20
1620.5
 30
0.0
 11
2208.743587634548
 21
1604.5
 31
0.0
  0
LINE
  5
31C
330
1F
100
AcDbEntity
  8
化粧台
  6
EXLTYPE2
 62
     6
100
AcDbLine
 10
2210.671796115988
 20
1620.5
 30
0.0
 11
2210.671796115988
 21
1604.5
 31
0.0
  0
LINE
  5
31D
330
1F
100
AcDbEntity
  8
化粧台
  6
EXLTYPE2
 62
     6
100
AcDbLine
 10
2183.05312660012
 20
1635.7
 30
0.0
 11
2183.05312660012
 21
1627.9
 31
0.0
  0
LINE
  5
31E
330
1F
100
AcDbEntity
  8
化粧台
  6
EXLTYPE2
 62
     6
100
AcDbLine
 10
2186.726451205552
 20
1635.7
 30
0.0
 11
2186.726451205552
 21
1627.9
 31
0.0
  0
LINE
  5
31F
330
1F
100
AcDbEntity
  8
化粧台
  6
EXLTYPE2
 62
     6
100
AcDbLine
 10
2211.273548793648
 20
1635.7
 30
0.0
 11
2211.273548793648
 21
1627.9
 31
0.0
  0
LINE
  5
320
330
1F
100
AcDbEntity
  8
化粧台
  6
EXLTYPE2
 62
     6
100
AcDbLine
 10
2214.94687339908
 20
1635.7
 30
0.0
 11
2214.94687339908
 21
1627.9
 31
0.0
  0
LINE
  5
321
330
1F
100
AcDbEntity
  8
化粧台
  6
EXLTYPE2
 62
     6
100
AcDbLine
 10
2227.2999999996
 20
1640.0
 30
0.0
 11
2227.2999999996
 21
1627.9
 31
0.0
  0
LINE
  5
322
330
1F
100
AcDbEntity
  8
化粧台
  6
EXLTYPE2
 62
     6
100
AcDbLine
 10
2170.699999999601
 20
1640.0
 30
0.0
 11
2170.699999999601
 21
1627.9
 31
0.0
  0
ARC
  5
323
330
1F
100
AcDbEntity
  8
化粧台
  6
EXLTYPE2
 62
     6
100
AcDbCircle
 10
2232.999999999601
 20
1495.5
 30
0.0
 40
15.00000000000001
100
AcDbArc
 50
180.0
 51
270.0000000000002
  0
LINE
  5
324
330
1F
100
AcDbEntity
  8
化粧台
  6
EXLTYPE2
 62
     6
100
AcDbLine
 10
2235.699999999598
 20
1442.5
 30
0.0
 11
2216.9999999996
 21
1442.5
 31
0.0
  0
LINE
  5
325
330
1F
100
AcDbEntity
  8
化粧台
  6
EXLTYPE2
 62
     6
100
AcDbLine
 10
2179.9999999996
 20
1479.5
 30
0.0
 11
2179.9999999996
 21
1498.2
 31
0.0
  0
LINE
  5
326
330
1F
100
AcDbEntity
  8
化粧台
  6
EXLTYPE2
 62
     6
100
AcDbLine
 10
2182.749999999596
 20
1461.5
 30
0.0
 11
2182.749999999596
 21
1476.5
 31
0.0
  0
LINE
  5
327
330
1F
100
AcDbEntity
  8
化粧台
  6
EXLTYPE2
 62
     6
100
AcDbLine
 10
2198.999999999596
 20
1445.25
 30
0.0
 11
2213.9999999996
 21
1445.25
 31
0.0
  0
ARC
  5
328
330
1F
100
AcDbEntity
  8
化粧台
  6
EXLTYPE2
 62
     6
100
AcDbCircle
 10
2198.999999999596
 20
1461.5
 30
0.0
 40
16.25
100
AcDbArc
 50
180.0
 51
270.0000000000002
  0
LINE
  5
329
330
1F
100
AcDbEntity
  8
化粧台
  6
EXLTYPE2
 62
     6
100
AcDbLine
 10
2216.9999999996
 20
1442.5
 30
0.0
 11
2213.9999999996
 21
1445.25
 31
0.0
  0
LINE
  5
32A
330
1F
100
AcDbEntity
  8
化粧台
  6
EXLTYPE2
 62
     6
100
AcDbLine
 10
2179.9999999996
 20
1479.5
 30
0.0
 11
2182.7499999996
 21
1476.5
 31
0.0
  0
LINE
  5
32B
330
1F
100
AcDbEntity
  8
化粧台
  6
EXLTYPE2
 62
     6
100
AcDbLine
 10
2235.699999999601
 20
1480.5
 30
0.0
 11
2217.9999999996
 21
1480.5
 31
0.0
  0
LINE
  5
32C
330
1F
100
AcDbEntity
  8
化粧台
  6
EXLTYPE2
 62
     6
100
AcDbLine
 10
2217.9999999996
 20
1480.5
 30
0.0
 11
2217.9999999996
 21
1498.2
 31
0.0
  0
LINE
  5
32D
330
1F
100
AcDbEntity
  8
化粧台
  6
EXLTYPE2
 62
     6
100
AcDbLine
 10
2253.499999999601
 20
1484.299999999999
 30
0.0
 11
2235.699999999601
 21
1484.299999999999
 31
0.0
  0
LINE
  5
32E
330
1F
100
AcDbEntity
  8
化粧台
  6
EXLTYPE2
 62
     6
100
AcDbLine
 10
2253.499999999601
 20
1438.7
 30
0.0
 11
2235.699999999598
 21
1438.7
 31
0.0
  0
LINE
  5
32F
330
1F
100
AcDbEntity
  8
化粧台
  6
EXLTYPE2
 62
     6
100
AcDbLine
 10
2253.499999999601
 20
1484.299999999999
 30
0.0
 11
2253.499999999601
 21
1438.7
 31
0.0
  0
LINE
  5
330
330
1F
100
AcDbEntity
  8
化粧台
  6
EXLTYPE2
 62
     6
100
AcDbLine
 10
2235.699999999601
 20
1484.299999999999
 30
0.0
 11
2235.699999999598
 21
1438.7
 31
0.0
  0
LINE
  5
331
330
1F
100
AcDbEntity
  8
化粧台
  6
EXLTYPE2
 62
     6
100
AcDbLine
 10
2176.199999999601
 20
1516.0
 30
0.0
 11
2176.199999999601
 21
1498.2
 31
0.0
  0
LINE
  5
332
330
1F
100
AcDbEntity
  8
化粧台
  6
EXLTYPE2
 62
     6
100
AcDbLine
 10
2221.799999999599
 20
1516.0
 30
0.0
 11
2221.799999999599
 21
1498.2
 31
0.0
  0
LINE
  5
333
330
1F
100
AcDbEntity
  8
化粧台
  6
EXLTYPE2
 62
     6
100
AcDbLine
 10
2176.199999999601
 20
1516.0
 30
0.0
 11
2221.799999999599
 21
1516.0
 31
0.0
  0
LINE
  5
334
330
1F
100
AcDbEntity
  8
化粧台
  6
EXLTYPE2
 62
     6
100
AcDbLine
 10
2176.199999999601
 20
1498.2
 30
0.0
 11
2221.799999999599
 21
1498.2
 31
0.0
  0
LINE
  5
335
330
1F
100
AcDbEntity
  8
化粧台
  6
EXLTYPE2
 62
     6
100
AcDbLine
 10
2220.643356916
 20
1514.0
 30
0.0
 11
2220.643356916
 21
1498.2
 31
0.0
  0
LINE
  5
336
330
1F
100
AcDbEntity
  8
化粧台
  6
EXLTYPE2
 62
     6
100
AcDbLine
 10
2177.3566430832
 20
1514.0
 30
0.0
 11
2177.3566430832
 21
1498.2
 31
0.0
  0
LINE
  5
337
330
1F
100
AcDbEntity
  8
化粧台
  6
EXLTYPE2
 62
     6
100
AcDbLine
 10
2209.600712305299
 20
1514.0
 30
0.0
 11
2209.600712305299
 21
1498.2
 31
0.0
  0
LINE
  5
338
330
1F
100
AcDbEntity
  8
化粧台
  6
EXLTYPE2
 62
     6
100
AcDbLine
 10
2206.808328886098
 20
1514.0
 30
0.0
 11
2206.808328886098
 21
1498.2
 31
0.0
  0
LINE
  5
339
330
1F
100
AcDbEntity
  8
化粧台
  6
EXLTYPE2
 62
     6
100
AcDbLine
 10
2191.191671113098
 20
1514.0
 30
0.0
 11
2191.191671113098
 21
1498.2
 31
0.0
  0
LINE
  5
33A
330
1F
100
AcDbEntity
  8
化粧台
  6
EXLTYPE2
 62
     6
100
AcDbLine
 10
2188.399287693901
 20
1514.0
 30
0.0
 11
2188.399287693901
 21
1498.2
 31
0.0
  0
LINE
  5
33B
330
1F
100
AcDbEntity
  8
化粧台
  6
EXLTYPE2
 62
     6
100
AcDbLine
 10
2251.499999999601
 20
1439.8566430836
 30
0.0
 11
2235.699999999598
 21
1439.8566430836
 31
0.0
  0
LINE
  5
33C
330
1F
100
AcDbEntity
  8
化粧台
  6
EXLTYPE2
 62
     6
100
AcDbLine
 10
2251.499999999601
 20
1483.143356916399
 30
0.0
 11
2235.699999999601
 21
1483.143356916399
 31
0.0
  0
LINE
  5
33D
330
1F
100
AcDbEntity
  8
化粧台
  6
EXLTYPE2
 62
     6
100
AcDbLine
 10
2251.499999999601
 20
1450.899287694299
 30
0.0
 11
2235.699999999598
 21
1450.899287694299
 31
0.0
  0
LINE
  5
33E
330
1F
100
AcDbEntity
  8
化粧台
  6
EXLTYPE2
 62
     6
100
AcDbLine
 10
2251.499999999601
 20
1453.6916711135
 30
0.0
 11
2235.699999999598
 21
1453.6916711135
 31
0.0
  0
LINE
  5
33F
330
1F
100
AcDbEntity
  8
化粧台
  6
EXLTYPE2
 62
     6
100
AcDbLine
 10
2251.499999999601
 20
1469.3083288865
 30
0.0
 11
2235.699999999601
 21
1469.3083288865
 31
0.0
  0
LINE
  5
340
330
1F
100
AcDbEntity
  8
化粧台
  6
EXLTYPE2
 62
     6
100
AcDbLine
 10
2251.499999999601
 20
1472.100712305699
 30
0.0
 11
2235.699999999601
 21
1472.100712305699
 31
0.0
  0
LINE
  5
341
330
1F
100
AcDbEntity
  8
化粧台
  6
EXLTYPE2
 62
     6
100
AcDbLine
 10
2183.199999999601
 20
1547.90000000007
 30
0.0
 11
2183.199999999601
 21
1516.0
 31
0.0
  0
LINE
  5
342
330
1F
100
AcDbEntity
  8
化粧台
  6
EXLTYPE2
 62
     6
100
AcDbLine
 10
2214.799999999599
 20
1547.90000000007
 30
0.0
 11
2214.799999999599
 21
1516.0
 31
0.0
  0
ARC
  5
343
330
1F
100
AcDbEntity
  8
化粧台
  6
EXLTYPE2
 62
     6
100
AcDbCircle
 10
2340.999999999593
 20
1445.499999999999
 30
0.0
 40
32.0
100
AcDbArc
 50
0.0
 51
90.00000000000004
  0
LINE
  5
344
330
1F
100
AcDbEntity
  8
化粧台
  6
EXLTYPE2
 62
     6
100
AcDbLine
 10
2340.999999999593
 20
1477.499999999999
 30
0.0
 11
2253.499999999601
 21
1477.499999999999
 31
0.0
  0
LINE
  5
345
330
1F
100
AcDbEntity
  8
化粧台
  6
EXLTYPE2
 62
     6
100
AcDbLine
 10
2340.999999999597
 20
1445.5
 30
0.0
 11
2253.499999999601
 21
1445.5
 31
0.0
  0
LINE
  5
346
330
1F
100
AcDbEntity
  8
化粧台
  6
EXLTYPE2
 62
     6
100
AcDbLine
 10
2338.499999999601
 20
1396.5
 30
0.0
 11
2338.499999999601
 21
1361.5
 31
0.0
  0
LINE
  5
347
330
1F
100
AcDbEntity
  8
化粧台
  6
EXLTYPE2
 62
     6
100
AcDbLine
 10
2372.849999999599
 20
1358.85
 30
0.0
 11
2372.849999999599
 21
1333.834963338
 31
0.0
  0
LINE
  5
348
330
1F
100
AcDbEntity
  8
化粧台
  6
EXLTYPE2
 62
     6
100
AcDbLine
 10
2338.499999999601
 20
1361.5
 30
0.0
 11
2341.1499999996
 21
1358.85
 31
0.0
  0
LINE
  5
349
330
1F
100
AcDbEntity
  8
化粧台
  6
EXLTYPE2
 62
     6
100
AcDbLine
 10
2375.499999999601
 20
1361.5
 30
0.0
 11
2372.849999999599
 21
1358.85
 31
0.0
  0
LINE
  5
34A
330
1F
100
AcDbEntity
  8
化粧台
  6
EXLTYPE2
 62
     6
100
AcDbLine
 10
2333.599999999599
 20
1412.5
 30
0.0
 11
2333.599999999599
 21
1396.5
 31
0.0
  0
ARC
  5
34B
330
1F
100
AcDbEntity
  8
化粧台
  6
EXLTYPE2
 62
     6
100
AcDbCircle
 10
2335.599999999599
 20
1412.5
 30
0.0
 40
2.0
100
AcDbArc
 50
90.00000000000004
 51
180.0
  0
LINE
  5
34C
330
1F
100
AcDbEntity
  8
化粧台
  6
EXLTYPE2
 62
     6
100
AcDbLine
 10
2399.521126747201
 20
1274.0
 30
0.0
 11
2399.521126747201
 21
1289.0
 31
0.0
  0
ARC
  5
34D
330
1F
100
AcDbEntity
  8
化粧台
  6
EXLTYPE2
 62
     6
100
AcDbCircle
 10
2398.021126747201
 20
1274.0
 30
0.0
 40
1.5
100
AcDbArc
 50
270.0000000000002
 51
0.0
  0
LINE
  5
34E
330
1F
100
AcDbEntity
  8
化粧台
  6
EXLTYPE2
 62
     6
100
AcDbLine
 10
2423.4422534947
 20
1348.5
 30
0.0
 11
2376.642253494701
 21
1348.5
 31
0.0
  0
LINE
  5
34F
330
1F
100
AcDbEntity
  8
化粧台
  6
EXLTYPE2
 62
     6
100
AcDbLine
 10
2421.4422534947
 20
1366.5
 30
0.0
 11
2378.642253494701
 21
1366.5
 31
0.0
  0
LINE
  5
350
330
1F
100
AcDbEntity
  8
化粧台
  6
EXLTYPE2
 62
     6
100
AcDbLine
 10
2423.4422534947
 20
1364.5
 30
0.0
 11
2423.4422534947
 21
1348.5
 31
0.0
  0
LINE
  5
351
330
1F
100
AcDbEntity
  8
化粧台
  6
EXLTYPE2
 62
     6
100
AcDbLine
 10
2376.642253494701
 20
1364.5
 30
0.0
 11
2376.642253494701
 21
1348.5
 31
0.0
  0
ARC
  5
352
330
1F
100
AcDbEntity
  8
化粧台
  6
EXLTYPE2
 62
     6
100
AcDbCircle
 10
2421.4422534947
 20
1364.5
 30
0.0
 40
2.0
100
AcDbArc
 50
0.0
 51
90.00000000000004
  0
ARC
  5
353
330
1F
100
AcDbEntity
  8
化粧台
  6
EXLTYPE2
 62
     6
100
AcDbCircle
 10
2378.642253494701
 20
1364.5
 30
0.0
 40
2.0
100
AcDbArc
 50
90.00000000000004
 51
180.0
  0
LINE
  5
354
330
1F
100
AcDbEntity
  8
化粧台
  6
EXLTYPE2
 62
     6
100
AcDbLine
 10
2418.5422534947
 20
1348.5
 30
0.0
 11
2418.5422534947
 21
1318.5
 31
0.0
  0
LINE
  5
355
330
1F
100
AcDbEntity
  8
化粧台
  6
EXLTYPE2
 62
     6
100
AcDbLine
 10
2415.892253494701
 20
1378.128873252
 30
0.0
 11
2415.892253494701
 21
1366.5
 31
0.0
  0
LINE
  5
356
330
1F
100
AcDbEntity
  8
化粧台
  6
EXLTYPE2
 62
     6
100
AcDbLine
 10
2384.1922534947
 20
1378.128873252
 30
0.0
 11
2384.1922534947
 21
1366.5
 31
0.0
  0
LINE
  5
357
330
1F
100
AcDbEntity
  8
化粧台
  6
EXLTYPE2
 62
     6
100
AcDbLine
 10
2339.8700111025
 20
1412.5
 30
0.0
 11
2339.8700111025
 21
1396.5
 31
0.0
  0
LINE
  5
358
330
1F
100
AcDbEntity
  8
化粧台
  6
EXLTYPE2
 62
     6
100
AcDbLine
 10
2398.774647524701
 20
1274.0
 30
0.0
 11
2398.774647524701
 21
1289.0
 31
0.0
  0
LINE
  5
359
330
1F
100
AcDbEntity
  8
化粧台
  6
EXLTYPE2
 62
     6
100
AcDbLine
 10
2395.3434954462
 20
1274.0
 30
0.0
 11
2395.3434954462
 21
1289.0
 31
0.0
  0
LINE
  5
35A
330
1F
100
AcDbEntity
  8
化粧台
  6
EXLTYPE2
 62
     6
100
AcDbLine
 10
2380.9959854582
 20
1274.0
 30
0.0
 11
2380.9959854582
 21
1289.0
 31
0.0
  0
LINE
  5
35B
330
1F
100
AcDbEntity
  8
化粧台
  6
EXLTYPE2
 62
     6
100
AcDbLine
 10
2376.046268036101
 20
1274.0
 30
0.0
 11
2376.046268036101
 21
1289.0
 31
0.0
  0
LINE
  5
35C
330
1F
100
AcDbEntity
  8
化粧台
  6
EXLTYPE2
 62
     6
100
AcDbLine
 10
2417.172242391801
 20
1364.5
 30
0.0
 11
2417.172242391801
 21
1348.5
 31
0.0
  0
LINE
  5
35D
330
1F
100
AcDbEntity
  8
化粧台
  6
EXLTYPE2
 62
     6
100
AcDbLine
 10
2406.312264597601
 20
1364.5
 30
0.0
 11
2406.312264597601
 21
1348.5
 31
0.0
  0
LINE
  5
35E
330
1F
100
AcDbEntity
  8
化粧台
  6
EXLTYPE2
 62
     6
100
AcDbLine
 10
2393.772242391799
 20
1364.5
 30
0.0
 11
2393.772242391799
 21
1348.5
 31
0.0
  0
LINE
  5
35F
330
1F
100
AcDbEntity
  8
化粧台
  6
EXLTYPE2
 62
     6
100
AcDbLine
 10
2382.912264597599
 20
1364.5
 30
0.0
 11
2382.912264597599
 21
1348.5
 31
0.0
  0
ARC
  5
360
330
1F
100
AcDbEntity
  8
化粧台
  6
EXLTYPE2
 62
     6
100
AcDbCircle
 10
2378.5211267472
 20
1378.128873252
 30
0.0
 40
37.37112674756002
100
AcDbArc
 50
0.0
 51
180.0
  0
ARC
  5
361
330
1F
100
AcDbEntity
  8
化粧台
  6
EXLTYPE2
 62
     6
100
AcDbCircle
 10
2378.5211267472
 20
1378.128873252
 30
0.0
 40
5.671126747560002
100
AcDbArc
 50
0.0
 51
180.0
  0
LINE
  5
362
330
1F
100
AcDbEntity
  8
化粧台
  6
EXLTYPE2
 62
     6
100
AcDbLine
 10
2350.7299888967
 20
1412.5
 30
0.0
 11
2350.7299888967
 21
1403.1139442216
 31
0.0
  0
LINE
  5
363
330
1F
100
AcDbEntity
  8
化粧台
  6
EXLTYPE2
 62
     6
100
AcDbLine
 10
2345.97726685949
 20
1396.5
 30
0.0
 11
2333.599999999599
 21
1396.5
 31
0.0
  0
LINE
  5
364
330
1F
100
AcDbEntity
  8
化粧台
  6
EXLTYPE2
 62
     6
100
AcDbLine
 10
2375.499999999601
 20
1382.9282973593
 30
0.0
 11
2375.499999999601
 21
1361.5
 31
0.0
  0
LINE
  5
365
330
1F
100
AcDbEntity
  8
化粧台
  6
EXLTYPE2
 62
     6
100
AcDbLine
 10
2369.9337957612
 20
1414.5
 30
0.0
 11
2335.599999999599
 21
1414.5
 31
0.0
  0
LINE
  5
366
330
1F
100
AcDbEntity
  8
化粧台
  6
EXLTYPE2
 62
     6
100
AcDbLine
 10
2381.5422534947
 20
1348.5
 30
0.0
 11
2381.5422534947
 21
1318.5
 31
0.0
  0
LINE
  5
367
330
1F
100
AcDbEntity
  8
化粧台
  6
EXLTYPE2
 62
     6
100
AcDbLine
 10
2418.5422534947
 20
1318.5
 30
0.0
 11
2381.5422534947
 21
1318.5
 31
0.0
  0
LINE
  5
368
330
1F
100
AcDbEntity
  8
化粧台
  6
EXLTYPE2
 62
     6
100
AcDbLine
 10
2396.0211267472
 20
1296.8506616637
 30
0.0
 11
2396.0211267472
 21
1289.0
 31
0.0
  0
ARC
  5
369
330
1F
100
AcDbEntity
  8
化粧台
  6
EXLTYPE2
 62
     6
100
AcDbCircle
 10
2378.5211267472
 20
1329.871126748
 30
0.0
 40
37.37112674756002
100
AcDbArc
 50
265.2075989602522
 51
342.2854047964001
  0
LINE
  5
36A
330
1F
100
AcDbEntity
  8
化粧台
  6
EXLTYPE2
 62
     6
100
AcDbLine
 10
2399.521126747201
 20
1289.0
 30
0.0
 11
2372.849999999599
 21
1289.0
 31
0.0
  0
LINE
  5
36B
330
1F
100
AcDbEntity
  8
化粧台
  6
EXLTYPE2
 62
     6
100
AcDbLine
 10
2398.021126747201
 20
1272.5
 30
0.0
 11
2372.849999999599
 21
1272.5
 31
0.0
  0
ARC
  5
36C
330
1F
100
AcDbEntity
  8
化粧台
  6
EXLTYPE2
 62
     6
100
AcDbCircle
 10
2377.19612674715
 20
1326.453969656114
 30
0.0
 40
4.346126747550217
100
AcDbArc
 50
180.0
 51
0.0
  0
LINE
  5
36D
330
1F
100
AcDbEntity
  8
化粧台
  6
EXLTYPE2
 62
     6
100
AcDbLine
 10
2340.999999999597
 20
1414.5
 30
0.0
 11
2340.999999999597
 21
1445.5
 31
0.0
  0
LINE
  5
36E
330
1F
100
AcDbEntity
  8
化粧台
  6
EXLTYPE2
 62
     6
100
AcDbLine
 10
2372.999999999593
 20
1415.089910491491
 30
0.0
 11
2372.999999999593
 21
1445.5
 31
0.0
  0
LINE
  5
36F
330
1F
100
AcDbEntity
  8
化粧台
  6
EXLTYPE2
 62
     6
100
AcDbLine
 10
2216.9999999996
 20
1442.5
 30
0.0
 11
2216.9999999996
 21
1479.5
 31
0.0
  0
LINE
  5
370
330
1F
100
AcDbEntity
  8
化粧台
  6
EXLTYPE2
 62
     6
100
AcDbLine
 10
2213.9999999996
 20
1445.25
 30
0.0
 11
2213.9999999996
 21
1476.5
 31
0.0
  0
LINE
  5
371
330
1F
100
AcDbEntity
  8
化粧台
  6
EXLTYPE2
 62
     6
100
AcDbLine
 10
2198.9999999996
 20
1461.5
 30
0.0
 11
2217.9999999996
 21
1480.5
 31
0.0
  0
LINE
  5
372
330
1F
100
AcDbEntity
  8
化粧台
  6
EXLTYPE2
 62
     6
100
AcDbLine
 10
2182.7499999996
 20
1476.5
 30
0.0
 11
2213.9999999996
 21
1476.5
 31
0.0
  0
LINE
  5
373
330
1F
100
AcDbEntity
  8
化粧台
  6
EXLTYPE2
 62
     6
100
AcDbLine
 10
2179.9999999996
 20
1479.5
 30
0.0
 11
2216.9999999996
 21
1479.5
 31
0.0
  0
LINE
  5
374
330
1F
100
AcDbEntity
  8
化粧台
  6
EXLTYPE2
 62
     6
100
AcDbLine
 10
2334.199999999601
 20
1003.200000000001
 30
0.0
 11
2379.7999999996
 21
1003.200000000001
 31
0.0
  0
LINE
  5
375
330
1F
100
AcDbEntity
  8
化粧台
  6
EXLTYPE2
 62
     6
100
AcDbLine
 10
2334.199999999601
 20
1021.000000000001
 30
0.0
 11
2379.7999999996
 21
1021.000000000001
 31
0.0
  0
LINE
  5
376
330
1F
100
AcDbEntity
  8
化粧台
  6
EXLTYPE2
 62
     6
100
AcDbLine
 10
2379.7999999996
 20
1021.000000000001
 30
0.0
 11
2379.7999999996
 21
1003.200000000001
 31
0.0
  0
LINE
  5
377
330
1F
100
AcDbEntity
  8
化粧台
  6
EXLTYPE2
 62
     6
100
AcDbLine
 10
2334.199999999601
 20
1021.000000000001
 30
0.0
 11
2334.199999999601
 21
1003.200000000001
 31
0.0
  0
LINE
  5
378
330
1F
100
AcDbEntity
  8
化粧台
  6
EXLTYPE2
 62
     6
100
AcDbLine
 10
2323.499999999603
 20
963.0000000000009
 30
0.0
 11
2390.499999999604
 21
963.0000000000009
 31
0.0
  0
LINE
  5
379
330
1F
100
AcDbEntity
  8
化粧台
  6
EXLTYPE2
 62
     6
100
AcDbLine
 10
2336.299999999604
 20
1003.200000000001
 30
0.0
 11
2336.299999999604
 21
1001.000000000001
 31
0.0
  0
LINE
  5
37A
330
1F
100
AcDbEntity
  8
化粧台
  6
EXLTYPE2
 62
     6
100
AcDbLine
 10
2377.699999999603
 20
1003.200000000001
 30
0.0
 11
2377.699999999603
 21
1001.000000000001
 31
0.0
  0
LINE
  5
37B
330
1F
100
AcDbEntity
  8
化粧台
  6
EXLTYPE2
 62
     6
100
AcDbLine
 10
2390.499999999604
 20
983.0000000000009
 30
0.0
 11
2390.499999999604
 21
963.0000000000009
 31
0.0
  0
ARC
  5
37C
330
1F
100
AcDbEntity
  8
化粧台
  6
EXLTYPE2
 62
     6
100
AcDbCircle
 10
2387.499999999604
 20
983.0000000000009
 30
0.0
 40
3.000000000000003
100
AcDbArc
 50
0.0
 51
90.00000000000004
  0
LINE
  5
37D
330
1F
100
AcDbEntity
  8
化粧台
  6
EXLTYPE2
 62
     6
100
AcDbLine
 10
2383.999999999603
 20
998.0000000000009
 30
0.0
 11
2383.999999999603
 21
986.0000000000009
 31
0.0
  0
ARC
  5
37E
330
1F
100
AcDbEntity
  8
化粧台
  6
EXLTYPE2
 62
     6
100
AcDbCircle
 10
2380.999999999603
 20
998.0000000000009
 30
0.0
 40
3.000000000000003
100
AcDbArc
 50
0.0
 51
90.00000000000004
  0
LINE
  5
37F
330
1F
100
AcDbEntity
  8
化粧台
  6
EXLTYPE2
 62
     6
100
AcDbLine
 10
2329.999999999603
 20
998.0000000000009
 30
0.0
 11
2329.999999999603
 21
986.0000000000009
 31
0.0
  0
LINE
  5
380
330
1F
100
AcDbEntity
  8
化粧台
  6
EXLTYPE2
 62
     6
100
AcDbLine
 10
2332.999999999604
 20
1001.000000000001
 30
0.0
 11
2380.999999999603
 21
1001.000000000001
 31
0.0
  0
ARC
  5
381
330
1F
100
AcDbEntity
  8
化粧台
  6
EXLTYPE2
 62
     6
100
AcDbCircle
 10
2332.999999999604
 20
998.0000000000009
 30
0.0
 40
3.000000000000003
100
AcDbArc
 50
90.00000000000004
 51
180.0
  0
LINE
  5
382
330
1F
100
AcDbEntity
  8
化粧台
  6
EXLTYPE2
 62
     6
100
AcDbLine
 10
2323.499999999603
 20
983.0000000000009
 30
0.0
 11
2323.499999999603
 21
963.0000000000009
 31
0.0
  0
LINE
  5
383
330
1F
100
AcDbEntity
  8
化粧台
  6
EXLTYPE2
 62
     6
100
AcDbLine
 10
2326.499999999603
 20
986.0000000000009
 30
0.0
 11
2387.499999999604
 21
986.0000000000009
 31
0.0
  0
ARC
  5
384
330
1F
100
AcDbEntity
  8
化粧台
  6
EXLTYPE2
 62
     6
100
AcDbCircle
 10
2326.499999999603
 20
983.0000000000009
 30
0.0
 40
3.000000000000003
100
AcDbArc
 50
90.00000000000004
 51
180.0
  0
LINE
  5
385
330
1F
100
AcDbEntity
  8
化粧台
  6
EXLTYPE2
 62
     6
100
AcDbLine
 10
2346.399287693902
 20
1019.000000000001
 30
0.0
 11
2346.399287693902
 21
1003.200000000001
 31
0.0
  0
LINE
  5
386
330
1F
100
AcDbEntity
  8
化粧台
  6
EXLTYPE2
 62
     6
100
AcDbLine
 10
2349.191671113101
 20
1019.000000000001
 30
0.0
 11
2349.191671113101
 21
1003.200000000001
 31
0.0
  0
LINE
  5
387
330
1F
100
AcDbEntity
  8
化粧台
  6
EXLTYPE2
 62
     6
100
AcDbLine
 10
2364.808328886101
 20
1019.000000000001
 30
0.0
 11
2364.808328886101
 21
1003.200000000001
 31
0.0
  0
LINE
  5
388
330
1F
100
AcDbEntity
  8
化粧台
  6
EXLTYPE2
 62
     6
100
AcDbLine
 10
2367.600712305301
 20
1019.000000000001
 30
0.0
 11
2367.600712305301
 21
1003.200000000001
 31
0.0
  0
LINE
  5
389
330
1F
100
AcDbEntity
  8
化粧台
  6
EXLTYPE2
 62
     6
100
AcDbLine
 10
2335.356643083201
 20
1019.0
 30
0.0
 11
2335.356643083201
 21
1003.200000000001
 31
0.0
  0
LINE
  5
38A
330
1F
100
AcDbEntity
  8
化粧台
  6
EXLTYPE2
 62
     6
100
AcDbLine
 10
2378.643356916001
 20
1019.000000000001
 30
0.0
 11
2378.643356916001
 21
1003.200000000001
 31
0.0
  0
LINE
  5
38B
330
1F
100
AcDbEntity
  8
化粧台
  6
EXLTYPE2
 62
     6
100
AcDbLine
 10
2341.149999999599
 20
941.0
 30
0.0
 11
2341.149999999599
 21
1378.128873252
 31
0.0
  0
LINE
  5
38C
330
1F
100
AcDbEntity
  8
化粧台
  6
EXLTYPE2
 62
     6
100
AcDbLine
 10
2372.849999999599
 20
1378.128873252
 30
0.0
 11
2372.849999999594
 21
941.0
 31
0.0
  0
LINE
  5
38D
330
1F
100
AcDbEntity
  8
化粧台
  6
EXLTYPE2
 62
     6
100
AcDbLine
 10
2315.325036024317
 20
1502.636113773614
 30
0.0
 11
2321.266644436767
 21
1501.801075167855
 31
0.0
  0
LINE
  5
38E
330
1F
100
AcDbEntity
  8
化粧台
  6
EXLTYPE2
 62
     6
100
AcDbLine
 10
2334.630271252504
 20
1640.000000000001
 30
0.0
 11
2315.325036024312
 21
1502.636113773615
 31
0.0
  0
LINE
  5
38F
330
1F
100
AcDbEntity
  8
化粧台
  6
EXLTYPE2
 62
     6
100
AcDbLine
 10
2321.266644436767
 20
1501.801075167855
 30
0.0
 11
2340.689236687619
 21
1640.000000000001
 31
0.0
  0
LINE
  5
390
330
1F
100
AcDbEntity
  8
化粧台
  6
EXLTYPE3
 62
     6
100
AcDbLine
 10
2356.999999999601
 20
901.5
 30
0.0
 11
2356.999999999601
 21
1163.5
 31
0.0
  0
LINE
  5
391
330
1F
100
AcDbEntity
  8
化粧台
  6
CONTINUOUS
 62
     6
100
AcDbLine
 10
2372.000000000001
 20
1341.0
 30
0.0
 11
2372.000000000001
 21
1281.0
 31
0.0
  0
LINE
  5
392
330
1F
100
AcDbEntity
  8
化粧台
  6
EXLTYPE3
 62
     6
100
AcDbLine
 10
2198.99999999958
 20
1660.0
 30
0.0
 11
2198.99999999958
 21
1465.0
 31
0.0
  0
LINE
  5
393
330
1F
100
AcDbEntity
  8
化粧台
  6
CONTINUOUS
 62
     6
100
AcDbLine
 10
2457.000000000003
 20
1523.0
 30
0.0
 11
2489.500000000003
 21
1520.999999999999
 31
0.0
  0
LINE
  5
394
330
1F
100
AcDbEntity
  8
化粧台
  6
CONTINUOUS
 62
     6
100
AcDbLine
 10
2489.500000000003
 20
1520.999999999999
 30
0.0
 11
2457.000000000003
 21
1519.0
 31
0.0
  0
LINE
  5
395
330
1F
100
AcDbEntity
  8
化粧台
  6
CONTINUOUS
 62
     6
100
AcDbLine
 10
2438.999999999999
 20
1528.5
 30
0.0
 11
2437.999999999999
 21
1528.5
 31
0.0
  0
LINE
  5
396
330
1F
100
AcDbEntity
  8
化粧台
  6
CONTINUOUS
 62
     6
100
AcDbLine
 10
2438.999999999999
 20
1513.499999999999
 30
0.0
 11
2437.999999999999
 21
1513.499999999999
 31
0.0
  0
ARC
  5
397
330
1F
100
AcDbEntity
  8
化粧台
  6
CONTINUOUS
 62
     6
100
AcDbCircle
 10
2439.039655172414
 20
1520.999999999999
 30
0.0
 40
3.939655172413634
100
AcDbArc
 50
105.3013019106999
 51
254.6986980892994
  0
LINE
  5
398
330
1F
100
AcDbEntity
  8
化粧台
  6
CONTINUOUS
 62
     6
100
AcDbLine
 10
2437.999999999999
 20
1528.5
 30
0.0
 11
2437.999999999999
 21
1513.499999999999
 31
0.0
  0
LINE
  5
399
330
1F
100
AcDbEntity
  8
化粧台
  6
CONTINUOUS
 62
     6
100
AcDbLine
 10
2425.100000000001
 20
1520.999999999999
 30
0.0
 11
2499.499999999999
 21
1520.999999999999
 31
0.0
  0
LINE
  5
39A
330
1F
100
AcDbEntity
  8
化粧台
  6
CONTINUOUS
 62
     6
100
AcDbLine
 10
2366.500000000001
 20
933.0
 30
0.0
 11
2387.500000000001
 21
933.0
 31
0.0
  0
LINE
  5
39B
330
1F
100
AcDbEntity
  8
化粧台
  6
EXLTYPE3
 62
     6
100
AcDbLine
 10
2377.000000000001
 20
1151.0
 30
0.0
 11
2377.000000000001
 21
923.0
 31
0.0
  0
LINE
  5
39C
330
1F
100
AcDbEntity
  8
化粧台
  6
EXLTYPE4
 62
     6
100
AcDbLine
 10
2387.500000000001
 20
1141.0
 30
0.0
 11
2387.500000000001
 21
933.0
 31
0.0
  0
LINE
  5
39D
330
1F
100
AcDbEntity
  8
化粧台
  6
EXLTYPE4
 62
     6
100
AcDbLine
 10
2366.500000000001
 20
1141.0
 30
0.0
 11
2366.500000000001
 21
933.0
 31
0.0
  0
LINE
  5
39E
330
1F
100
AcDbEntity
  8
化粧台
  6
EXLTYPE2
 62
     6
100
AcDbLine
 10
2400.000000000001
 20
1370.5
 30
0.0
 11
2457.000000000001
 21
1370.5
 31
0.0
  0
LINE
  5
39F
330
1F
100
AcDbEntity
  8
化粧台
  6
EXLTYPE2
 62
     6
100
AcDbLine
 10
2400.000000000001
 20
1391.5
 30
0.0
 11
2457.000000000001
 21
1391.5
 31
0.0
  0
LINE
  5
3A0
330
1F
100
AcDbEntity
  8
化粧台
  6
CONTINUOUS
 62
     6
100
AcDbLine
 10
2457.000000000001
 20
1370.5
 30
0.0
 11
2465.000000000001
 21
1370.5
 31
0.0
  0
LINE
  5
3A1
330
1F
100
AcDbEntity
  8
化粧台
  6
CONTINUOUS
 62
     6
100
AcDbLine
 10
2465.000000000001
 20
1391.5
 30
0.0
 11
2465.000000000001
 21
1370.5
 31
0.0
  0
LINE
  5
3A2
330
1F
100
AcDbEntity
  8
化粧台
  6
CONTINUOUS
 62
     6
100
AcDbLine
 10
2457.000000000001
 20
1391.5
 30
0.0
 11
2465.000000000001
 21
1391.5
 31
0.0
  0
LINE
  5
3A3
330
1F
100
AcDbEntity
  8
化粧台
  6
EXLTYPE2
 62
     6
100
AcDbLine
 10
2399.999999999999
 20
1393.25
 30
0.0
 11
2398.572540797569
 21
1395.72243186434
 31
0.0
  0
LINE
  5
3A4
330
1F
100
AcDbEntity
  8
化粧台
  6
EXLTYPE2
 62
     6
100
AcDbLine
 10
2400.000000000001
 20
1393.25
 30
0.0
 11
2400.000000000001
 21
1368.75
 31
0.0
  0
LINE
  5
3A5
330
1F
100
AcDbEntity
  8
化粧台
  6
EXLTYPE2
 62
     6
100
AcDbLine
 10
2398.572540797571
 20
1395.72243186434
 30
0.0
 11
2393.000000000001
 21
1395.72243186434
 31
0.0
  0
LINE
  5
3A6
330
1F
100
AcDbEntity
  8
化粧台
  6
EXLTYPE2
 62
     6
100
AcDbLine
 10
2357.500000000001
 20
1368.5
 30
0.0
 11
2388.105879972381
 21
1368.5
 31
0.0
  0
ARC
  5
3A7
330
1F
100
AcDbEntity
  8
化粧台
  6
EXLTYPE2
 62
     6
100
AcDbCircle
 10
2388.105879972377
 20
1362.0
 30
0.0
 40
6.500000000000004
100
AcDbArc
 50
41.1541700736668
 51
90.00000000000004
  0
LINE
  5
3A8
330
1F
100
AcDbEntity
  8
化粧台
  6
EXLTYPE2
 62
     6
100
AcDbLine
 10
2399.999999999999
 20
1368.75
 30
0.0
 11
2398.572540797569
 21
1366.27756813566
 31
0.0
  0
LINE
  5
3A9
330
1F
100
AcDbEntity
  8
化粧台
  6
EXLTYPE2
 62
     6
100
AcDbLine
 10
2398.572540797571
 20
1366.27756813566
 30
0.0
 11
2393.000000000001
 21
1366.27756813566
 31
0.0
  0
ARC
  5
3AA
330
1F
100
AcDbEntity
  8
化粧台
  6
EXLTYPE2
 62
     6
100
AcDbCircle
 10
2388.105879972377
 20
1400.0
 30
0.0
 40
6.500000000000004
100
AcDbArc
 50
270.0000000000002
 51
318.8458299263331
  0
ARC
  5
3AB
330
1F
100
AcDbEntity
  8
化粧台
  6
EXLTYPE2
 62
     6
100
AcDbCircle
 10
2386.000000000001
 20
1397.0
 30
0.0
 40
3.500000000000002
100
AcDbArc
 50
180.0
 51
270.0000000000002
  0
ARC
  5
3AC
330
1F
100
AcDbEntity
  8
化粧台
  6
EXLTYPE2
 62
     6
100
AcDbCircle
 10
2370.250000000001
 20
1409.7
 30
0.0
 40
11.0
100
AcDbArc
 50
146.9442688491001
 51
213.0557311509003
  0
LINE
  5
3AD
330
1F
100
AcDbEntity
  8
化粧台
  6
EXLTYPE2
 62
     6
100
AcDbLine
 10
2361.030455542709
 20
1403.7
 30
0.0
 11
2382.969544457291
 21
1403.7
 31
0.0
  0
LINE
  5
3AE
330
1F
100
AcDbEntity
  8
化粧台
  6
EXLTYPE2
 62
     6
100
AcDbLine
 10
2361.030455542709
 20
1415.7
 30
0.0
 11
2382.969544457291
 21
1415.7
 31
0.0
  0
ARC
  5
3AF
330
1F
100
AcDbEntity
  8
化粧台
  6
EXLTYPE2
 62
     6
100
AcDbCircle
 10
2373.750000000001
 20
1409.7
 30
0.0
 40
11.0
100
AcDbArc
 50
326.9442688491004
 51
33.05573115085006
  0
LINE
  5
3B0
330
1F
100
AcDbEntity
  8
化粧台
  6
EXLTYPE2
 62
     6
100
AcDbLine
 10
2361.500000000001
 20
1397.0
 30
0.0
 11
2361.500000000001
 21
1403.7
 31
0.0
  0
LINE
  5
3B1
330
1F
100
AcDbEntity
  8
化粧台
  6
EXLTYPE2
 62
     6
100
AcDbLine
 10
2382.500000000001
 20
1397.0
 30
0.0
 11
2382.500000000001
 21
1403.7
 31
0.0
  0
ARC
  5
3B2
330
1F
100
AcDbEntity
  8
化粧台
  6
EXLTYPE2
 62
     6
100
AcDbCircle
 10
2358.000000000001
 20
1397.0
 30
0.0
 40
3.500000000000002
100
AcDbArc
 50
270.0000000000002
 51
0.0
  0
LINE
  5
3B3
330
1F
100
AcDbEntity
  8
化粧台
  6
EXLTYPE2
 62
     6
100
AcDbLine
 10
2344.600000000001
 20
1375.7
 30
0.0
 11
2344.600000000001
 21
1386.3
 31
0.0
  0
LINE
  5
3B4
330
1F
100
AcDbEntity
  8
化粧台
  6
EXLTYPE2
 62
     6
100
AcDbLine
 10
2357.500000000001
 20
1368.25
 30
0.0
 11
2357.500000000001
 21
1393.75
 31
0.0
  0
ARC
  5
3B5
330
1F
100
AcDbEntity
  8
化粧台
  6
EXLTYPE2
 62
     6
100
AcDbCircle
 10
2353.72508278236
 20
1372.25
 30
0.0
 40
5.5
100
AcDbArc
 50
217.1876259392006
 51
313.3417582272002
  0
LINE
  5
3B6
330
1F
100
AcDbEntity
  8
化粧台
  6
EXLTYPE2
 62
     6
100
AcDbLine
 10
2344.600000000001
 20
1375.7
 30
0.0
 11
2349.34345017772
 21
1368.92565108361
 31
0.0
  0
ARC
  5
3B7
330
1F
100
AcDbEntity
  8
化粧台
  6
EXLTYPE2
 62
     6
100
AcDbCircle
 10
2353.72508278236
 20
1389.75
 30
0.0
 40
5.5
100
AcDbArc
 50
46.65824177279989
 51
142.8123740608007
  0
LINE
  5
3B8
330
1F
100
AcDbEntity
  8
化粧台
  6
EXLTYPE2
 62
     6
100
AcDbLine
 10
2344.600000000001
 20
1386.3
 30
0.0
 11
2349.34345017772
 21
1393.07434891639
 31
0.0
  0
LINE
  5
3B9
330
1F
100
AcDbEntity
  8
化粧台
  6
EXLTYPE2
 62
     6
100
AcDbLine
 10
2349.34345017772
 20
1368.92565108361
 30
0.0
 11
2349.34345017772
 21
1393.07434891649
 31
0.0
  0
LINE
  5
3BA
330
1F
100
AcDbEntity
  8
化粧台
  6
EXLTYPE2
 62
     6
100
AcDbLine
 10
2357.500000000001
 20
1393.5
 30
0.0
 11
2358.000000000001
 21
1393.5
 31
0.0
  0
LINE
  5
3BB
330
1F
100
AcDbEntity
  8
化粧台
  6
EXLTYPE2
 62
     6
100
AcDbLine
 10
2339.000000000001
 20
1385.75
 30
0.0
 11
2344.600000000001
 21
1385.75
 31
0.0
  0
LINE
  5
3BC
330
1F
100
AcDbEntity
  8
化粧台
  6
EXLTYPE2
 62
     6
100
AcDbLine
 10
2339.000000000001
 20
1376.25
 30
0.0
 11
2344.600000000001
 21
1376.25
 31
0.0
  0
LINE
  5
3BD
330
1F
100
AcDbEntity
  8
化粧台
  6
EXLTYPE2
 62
     6
100
AcDbLine
 10
2339.000000000001
 20
1385.75
 30
0.0
 11
2339.000000000001
 21
1376.25
 31
0.0
  0
LINE
  5
3BE
330
1F
100
AcDbEntity
  8
化粧台
  6
EXLTYPE2
 62
     6
100
AcDbLine
 10
2386.000000000001
 20
1393.5
 30
0.0
 11
2388.105879972377
 21
1393.5
 31
0.0
  0
LINE
  5
3BF
330
1F
100
AcDbEntity
  8
化粧台
  6
CONTINUOUS
 62
     6
100
AcDbLine
 10
2324.000000000001
 20
1381.0
 30
0.0
 11
2480.000000000001
 21
1381.0
 31
0.0
  0
LINE
  5
3C0
330
1F
100
AcDbEntity
  8
化粧台
  6
EXLTYPE2
 62
     6
100
AcDbLine
 10
2365.499999999997
 20
1415.7
 30
0.0
 11
2365.499999999997
 21
1640.000000000001
 31
0.0
  0
LINE
  5
3C1
330
1F
100
AcDbEntity
  8
化粧台
  6
EXLTYPE2
 62
     6
100
AcDbLine
 10
2378.500000000003
 20
1415.7
 30
0.0
 11
2378.500000000003
 21
1640.000000000001
 31
0.0
  0
LINE
  5
3C2
330
1F
100
AcDbEntity
  8
化粧台
  6
EXLTYPE2
 62
     6
100
AcDbLine
 10
2487.000000000002
 20
1426.99999999997
 30
0.0
 11
2430.042253494697
 21
1426.99999999997
 31
0.0
  0
LINE
  5
3C3
330
1F
100
AcDbEntity
  8
化粧台
  6
EXLTYPE2
 62
     6
100
AcDbLine
 10
2487.000000000002
 20
1394.99999999997
 30
0.0
 11
2487.000000000002
 21
1426.99999999997
 31
0.0
  0
LINE
  5
3C4
330
1F
100
AcDbEntity
  8
化粧台
  6
EXLTYPE2
 62
     6
100
AcDbLine
 10
2487.000000000002
 20
1394.99999999997
 30
0.0
 11
2430.042253494697
 21
1394.99999999997
 31
0.0
  0
LINE
  5
3C5
330
1F
100
AcDbEntity
  8
化粧台
  6
EXLTYPE3
 62
     6
100
AcDbLine
 10
2494.049999999999
 20
1411.0
 30
0.0
 11
2430.299999999999
 21
1411.0
 31
0.0
  0
LINE
  5
3C6
330
1F
100
AcDbEntity
  8
化粧台
  6
CONTINUOUS
 62
     2
100
AcDbLine
 10
2426.999999999999
 20
2691.0
 30
0.0
 11
2426.999999999999
 21
2171.0
 31
0.0
  0
LINE
  5
3C7
330
1F
100
AcDbEntity
  8
化粧台
  6
CONTINUOUS
 62
     2
100
AcDbLine
 10
2456.999999999999
 20
2236.0
 30
0.0
 11
2456.999999999999
 21
2176.0
 31
0.0
  0
LINE
  5
3C8
330
1F
100
AcDbEntity
  8
化粧台
  6
CONTINUOUS
 62
     2
100
AcDbLine
 10
2425.999999999999
 20
2690.0
 30
0.0
 11
2425.999999999999
 21
2171.0
 31
0.0
  0
LINE
  5
3C9
330
1F
100
AcDbEntity
  8
化粧台
  6
CONTINUOUS
 62
     2
100
AcDbLine
 10
2420.999999999999
 20
2690.0
 30
0.0
 11
2425.999999999999
 21
2690.0
 31
0.0
  0
LINE
  5
3CA
330
1F
100
AcDbEntity
  8
化粧台
  6
CONTINUOUS
 62
     2
100
AcDbLine
 10
2439.800000000003
 20
2692.2
 30
0.0
 11
2439.800000000003
 21
2691.0
 31
0.0
  0
LINE
  5
3CB
330
1F
100
AcDbEntity
  8
化粧台
  6
CONTINUOUS
 62
     2
100
AcDbLine
 10
2419.799999999998
 20
2682.200000000004
 30
0.0
 11
2420.999999999999
 21
2682.200000000004
 31
0.0
  0
LINE
  5
3CC
330
1F
100
AcDbEntity
  8
化粧台
  6
CONTINUOUS
 62
     2
100
AcDbLine
 10
2419.799999999998
 20
2692.2
 30
0.0
 11
2439.799999999998
 21
2692.2
 31
0.0
  0
LINE
  5
3CD
330
1F
100
AcDbEntity
  8
化粧台
  6
CONTINUOUS
 62
     2
100
AcDbLine
 10
2419.799999999998
 20
2682.2
 30
0.0
 11
2419.799999999998
 21
2692.2
 31
0.0
  0
LINE
  5
3CE
330
1F
100
AcDbEntity
  8
化粧台
  6
CONTINUOUS
 62
     2
100
AcDbLine
 10
2420.999999999999
 20
2691.0
 30
0.0
 11
2420.999999999999
 21
2171.0
 31
0.0
  0
LINE
  5
3CF
330
1F
100
AcDbEntity
  8
化粧台
  6
CONTINUOUS
 62
     2
100
AcDbLine
 10
2420.999999999999
 20
2691.0
 30
0.0
 11
2444.499999999999
 21
2691.0
 31
0.0
  0
LINE
  5
3D0
330
1F
100
AcDbEntity
  8
化粧台
  6
CONTINUOUS
 62
     2
100
AcDbLine
 10
2419.799999999998
 20
2179.8
 30
0.0
 11
2420.999999999999
 21
2179.8
 31
0.0
  0
LINE
  5
3D1
330
1F
100
AcDbEntity
  8
化粧台
  6
CONTINUOUS
 62
     2
100
AcDbLine
 10
2439.800000000003
 20
2171.0
 30
0.0
 11
2439.800000000003
 21
2169.8
 31
0.0
  0
LINE
  5
3D2
330
1F
100
AcDbEntity
  8
化粧台
  6
CONTINUOUS
 62
     2
100
AcDbLine
 10
2419.799999999998
 20
2169.8
 30
0.0
 11
2439.799999999998
 21
2169.8
 31
0.0
  0
LINE
  5
3D3
330
1F
100
AcDbEntity
  8
化粧台
  6
CONTINUOUS
 62
     2
100
AcDbLine
 10
2419.799999999998
 20
2179.8
 30
0.0
 11
2419.799999999998
 21
2169.8
 31
0.0
  0
LINE
  5
3D4
330
1F
100
AcDbEntity
  8
化粧台
  6
CONTINUOUS
 62
     2
100
AcDbLine
 10
2420.999999999999
 20
2171.0
 30
0.0
 11
2444.499999999999
 21
2171.0
 31
0.0
  0
LINE
  5
3D5
330
1F
100
AcDbEntity
  8
化粧台
  6
CONTINUOUS
 62
     2
100
AcDbLine
 10
2456.999999999999
 20
2690.0
 30
0.0
 11
2456.999999999999
 21
2615.980762113501
 31
0.0
  0
LINE
  5
3D6
330
1F
100
AcDbEntity
  8
化粧台
  6
CONTINUOUS
 62
     2
100
AcDbLine
 10
2456.999999999999
 20
2690.0
 30
0.0
 11
2444.499999999999
 21
2690.0
 31
0.0
  0
LINE
  5
3D7
330
1F
100
AcDbEntity
  8
化粧台
  6
CONTINUOUS
 62
     2
100
AcDbLine
 10
2456.999999999999
 20
2640.0
 30
0.0
 11
2444.499999999999
 21
2661.650635094584
 31
0.0
  0
LINE
  5
3D8
330
1F
100
AcDbEntity
  8
化粧台
  6
CONTINUOUS
 62
     2
100
AcDbLine
 10
2444.499999999999
 20
2615.980762113501
 30
0.0
 11
2456.999999999999
 21
2615.980762113501
 31
0.0
  0
LINE
  5
3D9
330
1F
100
AcDbEntity
  8
化粧台
  6
CONTINUOUS
 62
     2
100
AcDbLine
 10
2444.499999999999
 20
2691.0
 30
0.0
 11
2444.499999999999
 21
2171.0
 31
0.0
  0
LINE
  5
3DA
330
1F
100
AcDbEntity
  8
化粧台
  6
CONTINUOUS
 62
     2
100
AcDbLine
 10
2456.999999999999
 20
2236.0
 30
0.0
 11
2444.499999999999
 21
2236.0
 31
0.0
  0
LINE
  5
3DB
330
1F
100
AcDbEntity
  8
化粧台
  6
CONTINUOUS
 62
     2
100
AcDbLine
 10
2456.999999999999
 20
2206.0
 30
0.0
 11
2444.499999999999
 21
2206.0
 31
0.0
  0
LINE
  5
3DC
330
1F
100
AcDbEntity
  8
化粧台
  6
CONTINUOUS
 62
     2
100
AcDbLine
 10
2456.999999999999
 20
2176.0
 30
0.0
 11
2444.499999999999
 21
2176.0
 31
0.0
  0
LINE
  5
3DD
330
1F
100
AcDbEntity
  8
化粧台
  6
CONTINUOUS
 62
     6
100
AcDbLine
 10
2444.799999999998
 20
2176.000000000001
 30
0.0
 11
2454.199999999998
 21
2176.000000000001
 31
0.0
  0
ARC
  5
3DE
330
1F
100
AcDbEntity
  8
化粧台
  6
CONTINUOUS
 62
     6
100
AcDbCircle
 10
2449.499999999999
 20
2179.168000000001
 30
0.0
 40
5.668000000000172
100
AcDbArc
 50
213.9816465839783
 51
326.018353416022
  0
LINE
  5
3DF
330
1F
100
AcDbEntity
  8
化粧台
  6
CONTINUOUS
 62
     6
100
AcDbLine
 10
2457.000000000002
 20
2632.980762113501
 30
0.0
 11
2489.500000000002
 21
2630.980762113499
 31
0.0
  0
LINE
  5
3E0
330
1F
100
AcDbEntity
  8
化粧台
  6
CONTINUOUS
 62
     6
100
AcDbLine
 10
2489.500000000002
 20
2630.980762113499
 30
0.0
 11
2457.000000000002
 21
2628.980762113501
 31
0.0
  0
LINE
  5
3E1
330
1F
100
AcDbEntity
  8
化粧台
  6
CONTINUOUS
 62
     6
100
AcDbLine
 10
2441.999999999999
 20
2630.9807621135
 30
0.0
 11
2499.499999999999
 21
2630.980762113499
 31
0.0
  0
LINE
  5
3E2
330
1F
100
AcDbEntity
  8
化粧台
  6
CONTINUOUS
 62
     6
100
AcDbLine
 10
2457.000000000002
 20
2193.0
 30
0.0
 11
2489.500000000002
 21
2190.999999999999
 31
0.0
  0
LINE
  5
3E3
330
1F
100
AcDbEntity
  8
化粧台
  6
CONTINUOUS
 62
     6
100
AcDbLine
 10
2489.500000000002
 20
2190.999999999999
 30
0.0
 11
2457.000000000002
 21
2189.0
 31
0.0
  0
LINE
  5
3E4
330
1F
100
AcDbEntity
  8
化粧台
  6
CONTINUOUS
 62
     6
100
AcDbLine
 10
2441.999999999999
 20
2191.0
 30
0.0
 11
2499.499999999999
 21
2190.999999999999
 31
0.0
  0
TEXT
  5
3E5
330
1F
100
AcDbEntity
  8
化粧台
  6
CONTINUOUS
 62
     2
100
AcDbText
 10
2456.999999999999
 20
2971.200000536392
 30
0.0
 40
59.99999618530273
  1
W.L.
 50
90.0
 41
0.5571963512150626
  7
EXCADSTD
 72
     5
 11
2456.999999999999
 21
3061.943400536392
 31
0.0
100
AcDbText
  0
LINE
  5
3E6
330
1F
100
AcDbEntity
  8
化粧台
  6
EXLTYPE4
 62
     6
100
AcDbLine
 10
2456.999999999999
 20
941.0
 30
0.0
 11
2456.999999999999
 21
3078.0
 31
0.0
  0
ELLIPSE
  5
3E7
330
1F
100
AcDbEntity
  8
化粧台
  6
CONTINUOUS
 62
     2
100
AcDbEllipse
 10
905.0
 20
3650.49844365072
 30
0.0
 11
15.0
 21
0.0
 31
0.0
210
0.0
220
0.0
230
1.0
 40
0.2032242918773344
 41
5.931468484580523
 42
9.776494783368435
  0
ELLIPSE
  5
3E8
330
1F
100
AcDbEntity
  8
化粧台
  6
CONTINUOUS
 62
     2
100
AcDbEllipse
 10
905.0
 20
3684.69387624485
 30
0.0
 11
6.003838769576682
 21
-1.470516386351773E-15
 31
0.0
210
0.0
220
0.0
230
1.0
 40
0.1744228793978485
 41
0.0
 42
6.283185307179586
  0
LINE
  5
3E9
330
1F
100
AcDbEntity
  8
化粧台
  6
CONTINUOUS
 62
     2
100
AcDbLine
 10
910.9999999999955
 20
3684.656434200723
 30
0.0
 11
910.9999999999955
 21
3744.359156576973
 31
0.0
  0
LINE
  5
3EA
330
1F
100
AcDbEntity
  8
化粧台
  6
CONTINUOUS
 62
     2
100
AcDbLine
 10
898.9999999999955
 20
3684.656434200771
 30
0.0
 11
898.9999999999955
 21
3744.69853870331
 31
0.0
  0
ELLIPSE
  5
3EB
330
1F
100
AcDbEntity
  8
化粧台
  6
CONTINUOUS
 62
     2
100
AcDbEllipse
 10
905.0
 20
3744.3965986211
 30
0.0
 11
6.003838769576682
 21
-1.470516386351773E-15
 31
0.0
210
0.0
220
0.0
230
1.0
 40
0.1744228793978485
 41
-0.0357618232697662
 42
3.177354476812678
  0
LINE
  5
3EC
330
1F
100
AcDbEntity
  8
化粧台
  6
CONTINUOUS
 62
     2
100
AcDbLine
 10
901.9999999999818
 20
3805.778606630094
 30
0.0
 11
901.9999999999818
 21
3793.299103120975
 31
0.0
  0
LINE
  5
3ED
330
1F
100
AcDbEntity
  8
化粧台
  6
CONTINUOUS
 62
     2
100
AcDbLine
 10
908.0
 20
3805.778606630094
 30
0.0
 11
908.0
 21
3793.299103120978
 31
0.0
  0
CIRCLE
  5
3EE
330
1F
100
AcDbEntity
  8
化粧台
  6
CONTINUOUS
 62
     2
100
AcDbCircle
 10
905.0
 20
3771.0
 30
0.0
 40
22.5
  0
LINE
  5
3EF
330
1F
100
AcDbEntity
  8
化粧台
  6
CONTINUOUS
 62
     2
100
AcDbLine
 10
910.8410844325681
 20
3820.839569595011
 30
0.0
 11
899.1589155674233
 21
3820.839569595011
 31
0.0
  0
ARC
  5
3F0
330
1F
100
AcDbEntity
  8
化粧台
  6
CONTINUOUS
 62
     2
100
AcDbCircle
 10
904.9999999999964
 20
3803.2884851056
 30
0.0
 40
18.55108448941109
100
AcDbArc
 50
72.29820692448685
 51
107.7017930755131
  0
ARC
  5
3F1
330
1F
100
AcDbEntity
  8
化粧台
  6
CONTINUOUS
 62
     2
100
AcDbCircle
 10
900.273775521875
 20
3806.339569595011
 30
0.0
 40
0.5
100
AcDbArc
 50
183.0852877108193
 51
270.0
  0
ARC
  5
3F2
330
1F
100
AcDbEntity
  8
化粧台
  6
CONTINUOUS
 62
     2
100
AcDbCircle
 10
899.5113353643601
 20
3820.484886233789
 30
0.0
 40
0.5
100
AcDbArc
 50
107.7017930755131
 51
183.0852877108193
  0
LINE
  5
3F3
330
1F
100
AcDbEntity
  8
化粧台
  6
CONTINUOUS
 62
     2
100
AcDbLine
 10
899.7745002600504
 20
3806.312658390477
 30
0.0
 11
899.0120601025355
 21
3820.457975029255
 31
0.0
  0
ARC
  5
3F4
330
1F
100
AcDbEntity
  8
化粧台
  6
CONTINUOUS
 62
     2
100
AcDbCircle
 10
909.726224478115
 20
3806.339569595011
 30
0.0
 40
0.5
100
AcDbArc
 50
270.0
 51
356.9147122891808
  0
ARC
  5
3F5
330
1F
100
AcDbEntity
  8
化粧台
  6
CONTINUOUS
 62
     2
100
AcDbCircle
 10
910.4886646356326
 20
3820.484886233791
 30
0.0
 40
0.5
100
AcDbArc
 50
356.9147122891808
 51
72.29820692448685
  0
LINE
  5
3F6
330
1F
100
AcDbEntity
  8
化粧台
  6
CONTINUOUS
 62
     2
100
AcDbLine
 10
910.2254997399405
 20
3806.312658390477
 30
0.0
 11
910.9879398974572
 21
3820.457975029255
 31
0.0
  0
LINE
  5
3F7
330
1F
100
AcDbEntity
  8
化粧台
  6
CONTINUOUS
 62
     2
100
AcDbLine
 10
909.7262244781164
 20
3805.83956959501
 30
0.0
 11
904.9999999999955
 21
3805.83956959501
 31
0.0
  0
LINE
  5
3F8
330
1F
100
AcDbEntity
  8
化粧台
  6
CONTINUOUS
 62
     2
100
AcDbLine
 10
904.9999999999955
 20
3805.83956959501
 30
0.0
 11
900.273775521875
 21
3805.83956959501
 31
0.0
  0
LINE
  5
3F9
330
1F
100
AcDbEntity
  8
化粧台
  6
CONTINUOUS
 62
     2
100
AcDbLine
 10
908.9999999999982
 20
3745.177539543204
 30
0.0
 11
908.9999999999982
 21
3748.350496694188
 31
0.0
  0
LINE
  5
3FA
330
1F
100
AcDbEntity
  8
化粧台
  6
CONTINUOUS
 62
     2
100
AcDbLine
 10
900.9999999999982
 20
3745.177539543203
 30
0.0
 11
900.9999999999982
 21
3748.41853870331
 31
0.0
  0
LINE
  5
3FB
330
1F
100
AcDbEntity
  8
化粧台
  6
CONTINUOUS
 62
     2
100
AcDbLine
 10
920.0000000000082
 20
3650.49844365072
 30
0.0
 11
920.0000000000077
 21
3754.229490168758
 31
0.0
  0
LINE
  5
3FC
330
1F
100
AcDbEntity
  8
化粧台
  6
CONTINUOUS
 62
     2
100
AcDbLine
 10
890.0000000000055
 20
3650.498443650721
 30
0.0
 11
890.0000000000077
 21
3754.229490168745
 31
0.0
  0
LINE
  5
3FD
330
1F
100
AcDbEntity
  8
化粧台
  6
CONTINUOUS
 62
     2
100
AcDbLine
 10
890.9182604893876
 20
3649.44825152411
 30
0.0
 11
919.0817395106128
 21
3649.44825152411
 31
0.0
  0
LINE
  5
3FE
330
1F
100
AcDbEntity
  8
化粧台
  6
CONTINUOUS
 62
     2
100
AcDbLine
 10
911.000000000026
 20
1932.684819960024
 30
0.0
 11
911.000000000026
 21
1943.617774682386
 31
0.0
  0
LINE
  5
3FF
330
1F
100
AcDbEntity
  8
化粧台
  6
CONTINUOUS
 62
     2
100
AcDbLine
 10
899.0000000000251
 20
1932.684819960025
 30
0.0
 11
899.000000000026
 21
1943.617774682386
 31
0.0
  0
LINE
  5
400
330
1F
100
AcDbEntity
  8
化粧台
  6
CONTINUOUS
 62
     2
100
AcDbLine
 10
931.5000000000242
 20
1805.999999999981
 30
0.0
 11
932.0000000000242
 21
1805.499999999981
 31
0.0
  0
LINE
  5
401
330
1F
100
AcDbEntity
  8
化粧台
  6
CONTINUOUS
 62
     2
100
AcDbLine
 10
932.0000000000242
 20
1805.499999999981
 30
0.0
 11
932.000000000026
 21
1801.999999999981
 31
0.0
  0
ARC
  5
402
330
1F
100
AcDbEntity
  8
化粧台
  6
CONTINUOUS
 62
     2
100
AcDbCircle
 10
928.000000000026
 20
1806.499999999981
 30
0.0
 40
0.5
100
AcDbArc
 50
180.0
 51
270.0000000000002
  0
LINE
  5
403
330
1F
100
AcDbEntity
  8
化粧台
  6
CONTINUOUS
 62
     2
100
AcDbLine
 10
931.5000000000242
 20
1805.999999999981
 30
0.0
 11
905.000000000026
 21
1805.999999999981
 31
0.0
  0
LINE
  5
404
330
1F
100
AcDbEntity
  8
化粧台
  6
CONTINUOUS
 62
     2
100
AcDbLine
 10
878.500000000026
 20
1805.999999999981
 30
0.0
 11
878.000000000026
 21
1805.499999999981
 31
0.0
  0
ARC
  5
405
330
1F
100
AcDbEntity
  8
化粧台
  6
CONTINUOUS
 62
     2
100
AcDbCircle
 10
882.000000000026
 20
1806.499999999981
 30
0.0
 40
0.5
100
AcDbArc
 50
270.0000000000002
 51
0.0
  0
LINE
  5
406
330
1F
100
AcDbEntity
  8
化粧台
  6
CONTINUOUS
 62
     2
100
AcDbLine
 10
878.000000000026
 20
1805.499999999981
 30
0.0
 11
878.0000000000242
 21
1801.999999999981
 31
0.0
  0
LINE
  5
407
330
1F
100
AcDbEntity
  8
化粧台
  6
CONTINUOUS
 62
     2
100
AcDbLine
 10
905.000000000026
 20
1801.999999999981
 30
0.0
 11
878.0000000000242
 21
1801.999999999981
 31
0.0
  0
LINE
  5
408
330
1F
100
AcDbEntity
  8
化粧台
  6
CONTINUOUS
 62
     2
100
AcDbLine
 10
905.000000000026
 20
1801.999999999981
 30
0.0
 11
932.000000000027
 21
1801.999999999981
 31
0.0
  0
LINE
  5
409
330
1F
100
AcDbEntity
  8
化粧台
  6
CONTINUOUS
 62
     2
100
AcDbLine
 10
882.500000000016
 20
1910.700012207013
 30
0.0
 11
927.5000000000142
 21
1910.700012207013
 31
0.0
  0
ARC
  5
40A
330
1F
100
AcDbEntity
  8
化粧台
  6
CONTINUOUS
 62
     2
100
AcDbCircle
 10
926.5000000000224
 20
1939.926017109336
 30
0.0
 40
1.0
100
AcDbArc
 50
0.0
 51
85.87651071327323
  0
ARC
  5
40B
330
1F
100
AcDbEntity
  8
化粧台
  6
CONTINUOUS
 62
     2
100
AcDbCircle
 10
883.5000000000224
 20
1939.926017109335
 30
0.0
 40
1.0
100
AcDbArc
 50
94.12348928672675
 51
180.0
  0
ARC
  5
40C
330
1F
100
AcDbEntity
  8
化粧台
  6
CONTINUOUS
 62
     2
100
AcDbCircle
 10
905.000000000026
 20
1641.700012207012
 30
0.0
 40
300.0
100
AcDbArc
 50
85.87651071327323
 51
88.85400800161261
  0
ARC
  5
40D
330
1F
100
AcDbEntity
  8
化粧台
  6
CONTINUOUS
 62
     2
100
AcDbCircle
 10
905.000000000026
 20
1641.700012207012
 30
0.0
 40
300.0
100
AcDbArc
 50
91.14599199838867
 51
94.12348928672675
  0
ARC
  5
40E
330
1F
100
AcDbEntity
  8
化粧台
  6
CONTINUOUS
 62
     2
100
AcDbCircle
 10
905.000000000026
 20
1932.684819960024
 30
0.0
 40
6.000000000000004
100
AcDbArc
 50
180.0
 51
0.0
  0
CIRCLE
  5
40F
330
1F
100
AcDbEntity
  8
化粧台
  6
CONTINUOUS
 62
     2
100
AcDbCircle
 10
905.000000000026
 20
1943.617774682386
 30
0.0
 40
6.000000000000004
  0
ARC
  5
410
330
1F
100
AcDbEntity
  8
化粧台
  6
CONTINUOUS
 62
     2
100
AcDbCircle
 10
905.000000000026
 20
1883.150756845667
 30
0.0
 40
15.00000000000001
100
AcDbArc
 50
322.9040503969624
 51
217.0959496030378
  0
ELLIPSE
  5
411
330
1F
100
AcDbEntity
  8
化粧台
  6
CONTINUOUS
 62
     2
100
AcDbEllipse
 10
905.000000000026
 20
1873.680566214725
 30
0.0
 11
-12.0
 21
1.469576158976824E-15
 31
0.0
210
0.0
220
0.0
230
1.0
 40
0.2210297627753829
 41
3.141592653589793
 42
6.283185307179586
  0
ELLIPSE
  5
412
330
1F
100
AcDbEntity
  8
化粧台
  6
CONTINUOUS
 62
     2
100
AcDbEllipse
 10
905.000000000026
 20
1868.173888588366
 30
0.0
 11
-12.00000000000002
 21
1.469576158976827E-15
 31
0.0
210
0.0
220
0.0
230
1.0
 40
0.1591774961946723
 41
0.0
 42
6.283185307179586
  0
LINE
  5
413
330
1F
100
AcDbEntity
  8
化粧台
  6
CONTINUOUS
 62
     2
100
AcDbLine
 10
893.000000000026
 20
1868.173888588365
 30
0.0
 11
893.000000000026
 21
1873.892155853624
 31
0.0
  0
LINE
  5
414
330
1F
100
AcDbEntity
  8
化粧台
  6
CONTINUOUS
 62
     2
100
AcDbLine
 10
917.000000000026
 20
1868.173888588365
 30
0.0
 11
917.000000000026
 21
1873.892155853623
 31
0.0
  0
ARC
  5
415
330
1F
100
AcDbEntity
  8
化粧台
  6
CONTINUOUS
 62
     2
100
AcDbCircle
 10
905.000000000026
 20
2031.049269781649
 30
0.0
 40
154.6227815628025
100
AcDbArc
 50
264.9181466667736
 51
275.0818533332265
  0
LINE
  5
416
330
1F
100
AcDbEntity
  8
化粧台
  6
CONTINUOUS
 62
     2
100
AcDbLine
 10
927.5000000000133
 20
1806.499999999981
 30
0.0
 11
927.5000000000128
 21
1906.299999999858
 31
0.0
  0
LINE
  5
417
330
1F
100
AcDbEntity
  8
化粧台
  6
CONTINUOUS
 62
     2
100
AcDbLine
 10
927.0000000000133
 20
1906.799999999858
 30
0.0
 11
927.5000000000133
 21
1906.299999999858
 31
0.0
  0
LINE
  5
418
330
1F
100
AcDbEntity
  8
化粧台
  6
CONTINUOUS
 62
     2
100
AcDbLine
 10
925.3059968261538
 20
1910.700012207013
 30
0.0
 11
926.3200000000139
 21
1906.799999999857
 31
0.0
  0
LINE
  5
419
330
1F
100
AcDbEntity
  8
化粧台
  6
CONTINUOUS
 62
     2
100
AcDbLine
 10
884.6940031738746
 20
1910.700012207013
 30
0.0
 11
883.6800000000145
 21
1906.799999999856
 31
0.0
  0
LINE
  5
41A
330
1F
100
AcDbEntity
  8
化粧台
  6
CONTINUOUS
 62
     2
100
AcDbLine
 10
927.0000000000133
 20
1906.799999999858
 30
0.0
 11
883.000000000026
 21
1906.799999999846
 31
0.0
  0
LINE
  5
41B
330
1F
100
AcDbEntity
  8
化粧台
  6
CONTINUOUS
 62
     2
100
AcDbLine
 10
882.500000000026
 20
1906.299999999846
 30
0.0
 11
883.000000000026
 21
1906.799999999846
 31
0.0
  0
LINE
  5
41C
330
1F
100
AcDbEntity
  8
化粧台
  6
CONTINUOUS
 62
     2
100
AcDbLine
 10
882.500000000026
 20
1906.299999999846
 30
0.0
 11
882.500000000026
 21
1806.499999999981
 31
0.0
  0
LINE
  5
41D
330
1F
100
AcDbEntity
  8
化粧台
  6
CONTINUOUS
 62
     2
100
AcDbLine
 10
927.5000000000142
 20
1910.700012207013
 30
0.0
 11
927.5000000000138
 21
1939.926017109336
 31
0.0
  0
LINE
  5
41E
330
1F
100
AcDbEntity
  8
化粧台
  6
CONTINUOUS
 62
     2
100
AcDbLine
 10
882.5000000000142
 20
1939.926017109335
 30
0.0
 11
882.5000000000142
 21
1910.70001220702
 31
0.0
  0
LINE
  5
41F
330
1F
100
AcDbEntity
  8
化粧台
  6
CONTINUOUS
 62
     2
100
AcDbLine
 10
905.0000000000301
 20
1805.999999999981
 30
0.0
 11
878.500000000026
 21
1805.999999999981
 31
0.0
  0
LINE
  5
420
330
1F
100
AcDbEntity
  8
化粧台
  6
CONTINUOUS
 62
     2
100
AcDbLine
 10
2326.127362902324
 20
1936.562934157885
 30
0.0
 11
2322.09650911142
 21
1937.27368243651
 31
0.0
  0
LINE
  5
421
330
1F
100
AcDbEntity
  8
化粧台
  6
CONTINUOUS
 62
     2
100
AcDbLine
 10
2321.401916400751
 20
1933.334451424457
 30
0.0
 11
2322.44380546675
 21
1939.24329794253
 31
0.0
  0
LINE
  5
422
330
1F
100
AcDbEntity
  8
化粧台
  6
CONTINUOUS
 62
     2
100
AcDbLine
 10
2320.36002733475
 20
1927.42560490639
 30
0.0
 11
2321.401916400741
 21
1933.334451424462
 31
0.0
  0
ARC
  5
423
330
1F
100
AcDbEntity
  8
化粧台
  6
CONTINUOUS
 62
     2
100
AcDbCircle
 10
2300.480258923255
 20
1866.506485679812
 30
0.0
 40
29.29134623873736
100
AcDbArc
 50
328.6679794878879
 51
31.33202051226239
  0
ARC
  5
424
330
1F
100
AcDbEntity
  8
化粧台
  6
CONTINUOUS
 62
     2
100
AcDbCircle
 10
2311.25361941995
 20
1932.53457549759
 30
0.0
 40
15.40960475402978
100
AcDbArc
 50
342.3548939120103
 51
17.64510608798892
  0
LINE
  5
425
330
1F
100
AcDbEntity
  8
化粧台
  6
CONTINUOUS
 62
     2
100
AcDbLine
 10
2320.70732369008
 20
1929.39522041241
 30
0.0
 11
2326.109983007612
 21
1928.442585807157
 31
0.0
  0
LINE
  5
426
330
1F
100
AcDbEntity
  8
化粧台
  6
CONTINUOUS
 62
     2
100
AcDbLine
 10
2322.44380546675
 20
1939.24329794253
 30
0.0
 11
2263.777757812523
 21
1949.587704995506
 31
0.0
  0
ARC
  5
427
330
1F
100
AcDbEntity
  8
化粧台
  6
CONTINUOUS
 62
     2
100
AcDbCircle
 10
2263.448544782074
 20
1948.626043575498
 30
0.0
 40
1.016451625090327
100
AcDbArc
 50
71.10198734335111
 51
155.1938278787593
  0
ARC
  5
428
330
1F
100
AcDbEntity
  8
化粧台
  6
CONTINUOUS
 62
     2
100
AcDbCircle
 10
2309.301297053571
 20
1935.423932767477
 30
0.0
 40
48.72040105432946
100
AcDbArc
 50
163.7559027392204
 51
176.0410102655835
  0
ARC
  5
429
330
1F
100
AcDbEntity
  8
化粧台
  6
CONTINUOUS
 62
     2
100
AcDbCircle
 10
2261.698931850049
 20
1938.785659580982
 30
0.0
 40
1.001777616499239
100
AcDbArc
 50
179.8828477325927
 51
262.1420782586001
  0
LINE
  5
42A
330
1F
100
AcDbEntity
  8
化粧台
  6
CONTINUOUS
 62
     2
100
AcDbLine
 10
2261.561971744748
 20
1937.7932885201
 30
0.0
 11
2320.36002733475
 21
1927.42560490639
 31
0.0
  0
LINE
  5
42B
330
1F
100
AcDbEntity
  8
化粧台
  6
CONTINUOUS
 62
     2
100
AcDbLine
 10
2370.500000000018
 20
1855.557308563485
 30
0.0
 11
2370.500000000017
 21
1906.300000000032
 31
0.0
  0
LINE
  5
42C
330
1F
100
AcDbEntity
  8
化粧台
  6
CONTINUOUS
 62
     2
100
AcDbLine
 10
2370.000000000017
 20
1906.800000000031
 30
0.0
 11
2370.500000000017
 21
1906.300000000031
 31
0.0
  0
LINE
  5
42D
330
1F
100
AcDbEntity
  8
化粧台
  6
CONTINUOUS
 62
     2
100
AcDbLine
 10
2326.000000000017
 20
1906.800000000031
 30
0.0
 11
2325.500000000017
 21
1906.300000000031
 31
0.0
  0
LINE
  5
42E
330
1F
100
AcDbEntity
  8
化粧台
  6
CONTINUOUS
 62
     2
100
AcDbLine
 10
2368.400000000031
 20
1906.80000000003
 30
0.0
 11
2370.000000000017
 21
1906.800000000031
 31
0.0
  0
ARC
  5
42F
330
1F
100
AcDbEntity
  8
化粧台
  6
CONTINUOUS
 62
     2
100
AcDbCircle
 10
2397.484886233815
 20
1861.060280186984
 30
0.0
 40
0.5
100
AcDbArc
 50
17.70179307553534
 51
93.08528771081936
  0
LINE
  5
430
330
1F
100
AcDbEntity
  8
化粧台
  6
CONTINUOUS
 62
     2
100
AcDbLine
 10
2383.3126583905
 20
1860.797115291293
 30
0.0
 11
2397.45797502928
 21
1861.559555448809
 31
0.0
  0
LINE
  5
431
330
1F
100
AcDbEntity
  8
化粧台
  6
CONTINUOUS
 62
     2
100
AcDbLine
 10
2397.839569595035
 20
1861.41269998392
 30
0.0
 11
2397.839569595035
 21
1849.730531118776
 31
0.0
  0
ARC
  5
432
330
1F
100
AcDbEntity
  8
化粧台
  6
CONTINUOUS
 62
     2
100
AcDbCircle
 10
2383.339569595034
 20
1860.297840029467
 30
0.0
 40
0.5
100
AcDbArc
 50
93.08528771081936
 51
180.0
  0
ARC
  5
433
330
1F
100
AcDbEntity
  8
化粧台
  6
CONTINUOUS
 62
     2
100
AcDbCircle
 10
2383.339569595034
 20
1850.845391073227
 30
0.0
 40
0.5
100
AcDbArc
 50
180.0
 51
266.9147122891807
  0
ARC
  5
434
330
1F
100
AcDbEntity
  8
化粧台
  6
CONTINUOUS
 62
     2
100
AcDbCircle
 10
2397.484886233813
 20
1850.082950915712
 30
0.0
 40
0.5
100
AcDbArc
 50
266.9147122891807
 51
342.2982069244647
  0
LINE
  5
435
330
1F
100
AcDbEntity
  8
化粧台
  6
CONTINUOUS
 62
     2
100
AcDbLine
 10
2383.3126583905
 20
1850.346115811403
 30
0.0
 11
2397.45797502928
 21
1849.583675653888
 31
0.0
  0
ARC
  5
436
330
1F
100
AcDbEntity
  8
化粧台
  6
CONTINUOUS
 62
     2
100
AcDbCircle
 10
2380.288485105623
 20
1855.571615551348
 30
0.0
 40
18.55108448941111
100
AcDbArc
 50
342.2982069244642
 51
17.70179307553529
  0
LINE
  5
437
330
1F
100
AcDbEntity
  8
化粧台
  6
CONTINUOUS
 62
     2
100
AcDbLine
 10
2253.073172739045
 20
1866.263758634079
 30
0.0
 11
2231.407402172774
 21
1870.084018542752
 31
0.0
  0
LINE
  5
438
330
1F
100
AcDbEntity
  8
化粧台
  6
CONTINUOUS
 62
     2
100
AcDbLine
 10
2231.407402172774
 20
1870.084018542752
 30
0.0
 11
2253.073172739045
 21
1866.263758634079
 31
0.0
  0
LINE
  5
439
330
1F
100
AcDbEntity
  8
化粧台
  6
CONTINUOUS
 62
     2
100
AcDbLine
 10
2253.073172739045
 20
1866.263758634079
 30
0.0
 11
2254.158236314177
 21
1866.658689477714
 31
0.0
  0
LINE
  5
43A
330
1F
100
AcDbEntity
  8
化粧台
  6
CONTINUOUS
 62
     2
100
AcDbLine
 10
2253.073172739043
 20
1866.263758634079
 30
0.0
 11
2254.158236314176
 21
1866.658689477714
 31
0.0
  0
LINE
  5
43B
330
1F
100
AcDbEntity
  8
化粧台
  6
CONTINUOUS
 62
     2
100
AcDbLine
 10
2231.407402172776
 20
1870.084018542751
 30
0.0
 11
2230.522850241885
 21
1870.82624574172
 31
0.0
  0
LINE
  5
43C
330
1F
100
AcDbEntity
  8
化粧台
  6
CONTINUOUS
 62
     2
100
AcDbLine
 10
2231.407402172774
 20
1870.084018542752
 30
0.0
 11
2230.522850241884
 21
1870.82624574172
 31
0.0
  0
ARC
  5
43D
330
1F
100
AcDbEntity
  8
化粧台
  6
CONTINUOUS
 62
     2
100
AcDbCircle
 10
2377.655424036379
 20
1848.571615551347
 30
0.0
 40
4.0
100
AcDbArc
 50
90.00000000000001
 51
151.9999999999858
  0
LINE
  5
43E
330
1F
100
AcDbEntity
  8
化粧台
  6
CONTINUOUS
 62
     2
100
AcDbLine
 10
2265.178105298999
 20
1861.911464064805
 30
0.0
 11
2325.500000000018
 21
1851.27508650156
 31
0.0
  0
LINE
  5
43F
330
1F
100
AcDbEntity
  8
化粧台
  6
CONTINUOUS
 62
     2
100
AcDbLine
 10
2232.590296517399
 20
1898.120372351741
 30
0.0
 11
2325.500000000019
 21
1881.737884858131
 31
0.0
  0
LINE
  5
440
330
1F
100
AcDbEntity
  8
化粧台
  6
CONTINUOUS
 62
     2
100
AcDbLine
 10
2258.405802583743
 20
1873.471523390496
 30
0.0
 11
2265.178105298999
 21
1861.911464064805
 31
0.0
  0
ARC
  5
441
330
1F
100
AcDbEntity
  8
化粧台
  6
CONTINUOUS
 62
     2
100
AcDbCircle
 10
2228.448251524134
 20
1880.784701142027
 30
0.0
 40
2.0
100
AcDbArc
 50
172.1050093001812
 51
260.0000000000212
  0
ARC
  5
442
330
1F
100
AcDbEntity
  8
化粧台
  6
CONTINUOUS
 62
     2
100
AcDbCircle
 10
2232.243000162065
 20
1896.150756845717
 30
0.0
 40
2.0
100
AcDbArc
 50
79.99999999999498
 51
160.1509730893515
  0
LINE
  5
443
330
1F
100
AcDbEntity
  8
化粧台
  6
CONTINUOUS
 62
     2
100
AcDbLine
 10
2326.500000000017
 20
1906.800000000112
 30
0.0
 11
2327.700000000018
 21
1906.800000000112
 31
0.0
  0
ARC
  5
444
330
1F
100
AcDbEntity
  8
化粧台
  6
CONTINUOUS
 62
     2
100
AcDbCircle
 10
2348.000000000017
 20
1641.700012207062
 30
0.0
 40
300.0
100
AcDbArc
 50
85.78044385704108
 51
94.21955614295885
  0
LINE
  5
445
330
1F
100
AcDbEntity
  8
化粧台
  6
CONTINUOUS
 62
     2
100
AcDbLine
 10
2370.80350850202
 20
1930.700012207062
 30
0.0
 11
2370.80350850202
 21
1921.885151813763
 31
0.0
  0
POLYLINE
  5
446
330
1F
100
AcDbEntity
  8
化粧台
  6
CONTINUOUS
 62
     2
100
AcDb2dPolyline
 66
     1
 10
0.0
 20
0.0
 30
0.0
 70
   128
  0
VERTEX
  5
447
330
446
100
AcDbEntity
  8
化粧台
  6
CONTINUOUS
 62
     2
100
AcDbVertex
100
AcDb2dVertex
 10
2370.73213584342
 20
1921.300181236962
 30
0.0
  0
VERTEX
  5
448
330
446
100
AcDbEntity
  8
化粧台
  6
CONTINUOUS
 62
     2
100
AcDbVertex
100
AcDb2dVertex
 10
2370.732454492683
 20
1921.300633354384
 30
0.0
  0
VERTEX
  5
449
330
446
100
AcDbEntity
  8
化粧台
  6
CONTINUOUS
 62
     2
100
AcDbVertex
100
AcDb2dVertex
 10
2370.733356918054
 20
1921.301925614465
 30
0.0
  0
VERTEX
  5
44A
330
446
100
AcDbEntity
  8
化粧台
  6
CONTINUOUS
 62
     2
100
AcDbVertex
100
AcDb2dVertex
 10
2370.734762835905
 20
1921.303961878935
 30
0.0
  0
VERTEX
  5
44B
330
446
100
AcDbEntity
  8
化粧台
  6
CONTINUOUS
 62
     2
100
AcDbVertex
100
AcDb2dVertex
 10
2370.736591962608
 20
1921.306646009519
 30
0.0
  0
VERTEX
  5
44C
330
446
100
AcDbEntity
  8
化粧台
  6
CONTINUOUS
 62
     2
100
AcDbVertex
100
AcDb2dVertex
 10
2370.738764014534
 20
1921.309881867944
 30
0.0
  0
VERTEX
  5
44D
330
446
100
AcDbEntity
  8
化粧台
  6
CONTINUOUS
 62
     2
100
AcDbVertex
100
AcDb2dVertex
 10
2370.741198708056
 20
1921.313573315937
 30
0.0
  0
VERTEX
  5
44E
330
446
100
AcDbEntity
  8
化粧台
  6
CONTINUOUS
 62
     2
100
AcDbVertex
100
AcDb2dVertex
 10
2370.743815759546
 20
1921.317624215225
 30
0.0
  0
VERTEX
  5
44F
330
446
100
AcDbEntity
  8
化粧台
  6
CONTINUOUS
 62
     2
100
AcDbVertex
100
AcDb2dVertex
 10
2370.746534885375
 20
1921.321938427535
 30
0.0
  0
VERTEX
  5
450
330
446
100
AcDbEntity
  8
化粧台
  6
CONTINUOUS
 62
     2
100
AcDbVertex
100
AcDb2dVertex
 10
2370.749275801916
 20
1921.326419814593
 30
0.0
  0
VERTEX
  5
451
330
446
100
AcDbEntity
  8
化粧台
  6
CONTINUOUS
 62
     2
100
AcDbVertex
100
AcDb2dVertex
 10
2370.75195822554
 20
1921.330972238127
 30
0.0
  0
VERTEX
  5
452
330
446
100
AcDbEntity
  8
化粧台
  6
CONTINUOUS
 62
     2
100
AcDbVertex
100
AcDb2dVertex
 10
2370.754501872619
 20
1921.335499559862
 30
0.0
  0
VERTEX
  5
453
330
446
100
AcDbEntity
  8
化粧台
  6
CONTINUOUS
 62
     2
100
AcDbVertex
100
AcDb2dVertex
 10
2370.759147087132
 20
1921.344597498818
 30
0.0
  0
VERTEX
  5
454
330
446
100
AcDbEntity
  8
化粧台
  6
CONTINUOUS
 62
     2
100
AcDbVertex
100
AcDb2dVertex
 10
2370.762936248
 20
1921.353230612037
 30
0.0
  0
VERTEX
  5
455
330
446
100
AcDbEntity
  8
化粧台
  6
CONTINUOUS
 62
     2
100
AcDbVertex
100
AcDb2dVertex
 10
2370.765966582824
 20
1921.36146167259
 30
0.0
  0
VERTEX
  5
456
330
446
100
AcDbEntity
  8
化粧台
  6
CONTINUOUS
 62
     2
100
AcDbVertex
100
AcDb2dVertex
 10
2370.768335319203
 20
1921.369353453547
 30
0.0
  0
VERTEX
  5
457
330
446
100
AcDbEntity
  8
化粧台
  6
CONTINUOUS
 62
     2
100
AcDbVertex
100
AcDb2dVertex
 10
2370.770139684736
 20
1921.376968727979
 30
0.0
  0
VERTEX
  5
458
330
446
100
AcDbEntity
  8
化粧台
  6
CONTINUOUS
 62
     2
100
AcDbVertex
100
AcDb2dVertex
 10
2370.771476907021
 20
1921.384370268955
 30
0.0
  0
VERTEX
  5
459
330
446
100
AcDbEntity
  8
化粧台
  6
CONTINUOUS
 62
     2
100
AcDbVertex
100
AcDb2dVertex
 10
2370.772444213659
 20
1921.391620849546
 30
0.0
  0
VERTEX
  5
45A
330
446
100
AcDbEntity
  8
化粧台
  6
CONTINUOUS
 62
     2
100
AcDbVertex
100
AcDb2dVertex
 10
2370.773138832248
 20
1921.398783242822
 30
0.0
  0
VERTEX
  5
45B
330
446
100
AcDbEntity
  8
化粧台
  6
CONTINUOUS
 62
     2
100
AcDbVertex
100
AcDb2dVertex
 10
2370.773657990389
 20
1921.405920221853
 30
0.0
  0
VERTEX
  5
45C
330
446
100
AcDbEntity
  8
化粧台
  6
CONTINUOUS
 62
     2
100
AcDbVertex
100
AcDb2dVertex
 10
2370.774098915679
 20
1921.41309455971
 30
0.0
  0
VERTEX
  5
45D
330
446
100
AcDbEntity
  8
化粧台
  6
CONTINUOUS
 62
     2
100
AcDbVertex
100
AcDb2dVertex
 10
2370.774558835717
 20
1921.420369029463
 30
0.0
  0
VERTEX
  5
45E
330
446
100
AcDbEntity
  8
化粧台
  6
CONTINUOUS
 62
     2
100
AcDbVertex
100
AcDb2dVertex
 10
2370.775421512989
 20
1921.431393533333
 30
0.0
  0
VERTEX
  5
45F
330
446
100
AcDbEntity
  8
化粧台
  6
CONTINUOUS
 62
     2
100
AcDbVertex
100
AcDb2dVertex
 10
2370.776502403189
 20
1921.442715248447
 30
0.0
  0
VERTEX
  5
460
330
446
100
AcDbEntity
  8
化粧台
  6
CONTINUOUS
 62
     2
100
AcDbVertex
100
AcDb2dVertex
 10
2370.777765844477
 20
1921.454275538306
 30
0.0
  0
VERTEX
  5
461
330
446
100
AcDbEntity
  8
化粧台
  6
CONTINUOUS
 62
     2
100
AcDbVertex
100
AcDb2dVertex
 10
2370.779176175017
 20
1921.466015766414
 30
0.0
  0
VERTEX
  5
462
330
446
100
AcDbEntity
  8
化粧台
  6
CONTINUOUS
 62
     2
100
AcDbVertex
100
AcDb2dVertex
 10
2370.78069773297
 20
1921.477877296275
 30
0.0
  0
VERTEX
  5
463
330
446
100
AcDbEntity
  8
化粧台
  6
CONTINUOUS
 62
     2
100
AcDbVertex
100
AcDb2dVertex
 10
2370.782294856497
 20
1921.489801491388
 30
0.0
  0
VERTEX
  5
464
330
446
100
AcDbEntity
  8
化粧台
  6
CONTINUOUS
 62
     2
100
AcDbVertex
100
AcDb2dVertex
 10
2370.783931883761
 20
1921.501729715259
 30
0.0
  0
VERTEX
  5
465
330
446
100
AcDbEntity
  8
化粧台
  6
CONTINUOUS
 62
     2
100
AcDbVertex
100
AcDb2dVertex
 10
2370.785573152924
 20
1921.51360333139
 30
0.0
  0
VERTEX
  5
466
330
446
100
AcDbEntity
  8
化粧台
  6
CONTINUOUS
 62
     2
100
AcDbVertex
100
AcDb2dVertex
 10
2370.787183002147
 20
1921.525363703282
 30
0.0
  0
VERTEX
  5
467
330
446
100
AcDbEntity
  8
化粧台
  6
CONTINUOUS
 62
     2
100
AcDbVertex
100
AcDb2dVertex
 10
2370.788725769592
 20
1921.536952194438
 30
0.0
  0
VERTEX
  5
468
330
446
100
AcDbEntity
  8
化粧台
  6
CONTINUOUS
 62
     2
100
AcDbVertex
100
AcDb2dVertex
 10
2370.79016579342
 20
1921.548310168362
 30
0.0
  0
VERTEX
  5
469
330
446
100
AcDbEntity
  8
化粧台
  6
CONTINUOUS
 62
     2
100
AcDbVertex
100
AcDb2dVertex
 10
2370.791780924149
 20
1921.562131618917
 30
0.0
  0
VERTEX
  5
46A
330
446
100
AcDbEntity
  8
化粧台
  6
CONTINUOUS
 62
     2
100
AcDbVertex
100
AcDb2dVertex
 10
2370.793198495588
 20
1921.575654045147
 30
0.0
  0
VERTEX
  5
46B
330
446
100
AcDbEntity
  8
化粧台
  6
CONTINUOUS
 62
     2
100
AcDbVertex
100
AcDb2dVertex
 10
2370.794436984165
 20
1921.589029759959
 30
0.0
  0
VERTEX
  5
46C
330
446
100
AcDbEntity
  8
化粧台
  6
CONTINUOUS
 62
     2
100
AcDbVertex
100
AcDb2dVertex
 10
2370.795514866309
 20
1921.602411076259
 30
0.0
  0
VERTEX
  5
46D
330
446
100
AcDbEntity
  8
化粧台
  6
CONTINUOUS
 62
     2
100
AcDbVertex
100
AcDb2dVertex
 10
2370.796450618452
 20
1921.615950306954
 30
0.0
  0
VERTEX
  5
46E
330
446
100
AcDbEntity
  8
化粧台
  6
CONTINUOUS
 62
     2
100
AcDbVertex
100
AcDb2dVertex
 10
2370.797262717022
 20
1921.629799764949
 30
0.0
  0
VERTEX
  5
46F
330
446
100
AcDbEntity
  8
化粧台
  6
CONTINUOUS
 62
     2
100
AcDbVertex
100
AcDb2dVertex
 10
2370.797969638449
 20
1921.644111763152
 30
0.0
  0
VERTEX
  5
470
330
446
100
AcDbEntity
  8
化粧台
  6
CONTINUOUS
 62
     2
100
AcDbVertex
100
AcDb2dVertex
 10
2370.798589859162
 20
1921.659038614468
 30
0.0
  0
VERTEX
  5
471
330
446
100
AcDbEntity
  8
化粧台
  6
CONTINUOUS
 62
     2
100
AcDbVertex
100
AcDb2dVertex
 10
2370.799141855592
 20
1921.674732631805
 30
0.0
  0
VERTEX
  5
472
330
446
100
AcDbEntity
  8
化粧台
  6
CONTINUOUS
 62
     2
100
AcDbVertex
100
AcDb2dVertex
 10
2370.799644104167
 20
1921.691346128067
 30
0.0
  0
VERTEX
  5
473
330
446
100
AcDbEntity
  8
化粧台
  6
CONTINUOUS
 62
     2
100
AcDbVertex
100
AcDb2dVertex
 10
2370.800115081317
 20
1921.709031416162
 30
0.0
  0
VERTEX
  5
474
330
446
100
AcDbEntity
  8
化粧台
  6
CONTINUOUS
 62
     2
100
AcDbVertex
100
AcDb2dVertex
 10
2370.800611344221
 20
1921.729652481849
 30
0.0
  0
VERTEX
  5
475
330
446
100
AcDbEntity
  8
化粧台
  6
CONTINUOUS
 62
     2
100
AcDbVertex
100
AcDb2dVertex
 10
2370.801086735121
 20
1921.751141674621
 30
0.0
  0
VERTEX
  5
476
330
446
100
AcDbEntity
  8
化粧台
  6
CONTINUOUS
 62
     2
100
AcDbVertex
100
AcDb2dVertex
 10
2370.801535693344
 20
1921.772902277421
 30
0.0
  0
VERTEX
  5
477
330
446
100
AcDbEntity
  8
化粧台
  6
CONTINUOUS
 62
     2
100
AcDbVertex
100
AcDb2dVertex
 10
2370.801952658217
 20
1921.794337573189
 30
0.0
  0
VERTEX
  5
478
330
446
100
AcDbEntity
  8
化粧台
  6
CONTINUOUS
 62
     2
100
AcDbVertex
100
AcDb2dVertex
 10
2370.802332069066
 20
1921.814850844867
 30
0.0
  0
VERTEX
  5
479
330
446
100
AcDbEntity
  8
化粧台
  6
CONTINUOUS
 62
     2
100
AcDbVertex
100
AcDb2dVertex
 10
2370.802668365222
 20
1921.833845375397
 30
0.0
  0
VERTEX
  5
47A
330
446
100
AcDbEntity
  8
化粧台
  6
CONTINUOUS
 62
     2
100
AcDbVertex
100
AcDb2dVertex
 10
2370.802955986008
 20
1921.850724447719
 30
0.0
  0
VERTEX
  5
47B
330
446
100
AcDbEntity
  8
化粧台
  6
CONTINUOUS
 62
     2
100
AcDbVertex
100
AcDb2dVertex
 10
2370.803189370754
 20
1921.864891344775
 30
0.0
  0
VERTEX
  5
47C
330
446
100
AcDbEntity
  8
化粧台
  6
CONTINUOUS
 62
     2
100
AcDbVertex
100
AcDb2dVertex
 10
2370.803362958787
 20
1921.875749349507
 30
0.0
  0
VERTEX
  5
47D
330
446
100
AcDbEntity
  8
化粧台
  6
CONTINUOUS
 62
     2
100
AcDbVertex
100
AcDb2dVertex
 10
2370.803471189433
 20
1921.882701744855
 30
0.0
  0
VERTEX
  5
47E
330
446
100
AcDbEntity
  8
化粧台
  6
CONTINUOUS
 62
     2
100
AcDbVertex
100
AcDb2dVertex
 10
2370.80350850202
 20
1921.885151813763
 30
0.0
  0
SEQEND
  5
47F
330
446
100
AcDbEntity
  8
化粧台
  6
CONTINUOUS
 62
     2
  0
LINE
  5
480
330
1F
100
AcDbEntity
  8
化粧台
  6
CONTINUOUS
 62
     2
100
AcDbLine
 10
2371.000000000018
 20
1939.889549246862
 30
0.0
 11
2371.000000000018
 21
1933.700012207062
 31
0.0
  0
POLYLINE
  5
481
330
1F
100
AcDbEntity
  8
化粧台
  6
CONTINUOUS
 62
     2
100
AcDb2dPolyline
 66
     1
 10
0.0
 20
0.0
 30
0.0
 70
   128
  0
VERTEX
  5
482
330
481
100
AcDbEntity
  8
化粧台
  6
CONTINUOUS
 62
     2
100
AcDbVertex
100
AcDb2dVertex
 10
2370.80350850202
 20
1930.700012207062
 30
0.0
  0
VERTEX
  5
483
330
481
100
AcDbEntity
  8
化粧台
  6
CONTINUOUS
 62
     2
100
AcDbVertex
100
AcDb2dVertex
 10
2370.803570232775
 20
1930.708074227495
 30
0.0
  0
VERTEX
  5
484
330
481
100
AcDbEntity
  8
化粧台
  6
CONTINUOUS
 62
     2
100
AcDbVertex
100
AcDb2dVertex
 10
2370.803755460578
 20
1930.730966478737
 30
0.0
  0
VERTEX
  5
485
330
481
100
AcDbEntity
  8
化粧台
  6
CONTINUOUS
 62
     2
100
AcDbVertex
100
AcDb2dVertex
 10
2370.804064238737
 20
1930.766748245705
 30
0.0
  0
VERTEX
  5
486
330
481
100
AcDbEntity
  8
化粧台
  6
CONTINUOUS
 62
     2
100
AcDbVertex
100
AcDb2dVertex
 10
2370.804496620559
 20
1930.813478813312
 30
0.0
  0
VERTEX
  5
487
330
481
100
AcDbEntity
  8
化粧台
  6
CONTINUOUS
 62
     2
100
AcDbVertex
100
AcDb2dVertex
 10
2370.805052659352
 20
1930.869217466473
 30
0.0
  0
VERTEX
  5
488
330
481
100
AcDbEntity
  8
化粧台
  6
CONTINUOUS
 62
     2
100
AcDbVertex
100
AcDb2dVertex
 10
2370.805732408423
 20
1930.932023490107
 30
0.0
  0
VERTEX
  5
489
330
481
100
AcDbEntity
  8
化粧台
  6
CONTINUOUS
 62
     2
100
AcDbVertex
100
AcDb2dVertex
 10
2370.80653592108
 20
1930.999956169125
 30
0.0
  0
VERTEX
  5
48A
330
481
100
AcDbEntity
  8
化粧台
  6
CONTINUOUS
 62
     2
100
AcDbVertex
100
AcDb2dVertex
 10
2370.807463250631
 20
1931.071074788445
 30
0.0
  0
VERTEX
  5
48B
330
481
100
AcDbEntity
  8
化粧台
  6
CONTINUOUS
 62
     2
100
AcDbVertex
100
AcDb2dVertex
 10
2370.808514450383
 20
1931.143438632981
 30
0.0
  0
VERTEX
  5
48C
330
481
100
AcDbEntity
  8
化粧台
  6
CONTINUOUS
 62
     2
100
AcDbVertex
100
AcDb2dVertex
 10
2370.809689573643
 20
1931.215106987648
 30
0.0
  0
VERTEX
  5
48D
330
481
100
AcDbEntity
  8
化粧台
  6
CONTINUOUS
 62
     2
100
AcDbVertex
100
AcDb2dVertex
 10
2370.810988673718
 20
1931.284139137362
 30
0.0
  0
VERTEX
  5
48E
330
481
100
AcDbEntity
  8
化粧台
  6
CONTINUOUS
 62
     2
100
AcDbVertex
100
AcDb2dVertex
 10
2370.812362643868
 20
1931.346929009635
 30
0.0
  0
VERTEX
  5
48F
330
481
100
AcDbEntity
  8
化粧台
  6
CONTINUOUS
 62
     2
100
AcDbVertex
100
AcDb2dVertex
 10
2370.813852273067
 20
1931.405935814328
 30
0.0
  0
VERTEX
  5
490
330
481
100
AcDbEntity
  8
化粧台
  6
CONTINUOUS
 62
     2
100
AcDbVertex
100
AcDb2dVertex
 10
2370.815457267102
 20
1931.461655354237
 30
0.0
  0
VERTEX
  5
491
330
481
100
AcDbEntity
  8
化粧台
  6
CONTINUOUS
 62
     2
100
AcDbVertex
100
AcDb2dVertex
 10
2370.817177331759
 20
1931.514583432159
 30
0.0
  0
VERTEX
  5
492
330
481
100
AcDbEntity
  8
化粧台
  6
CONTINUOUS
 62
     2
100
AcDbVertex
100
AcDb2dVertex
 10
2370.819012172821
 20
1931.565215850889
 30
0.0
  0
VERTEX
  5
493
330
481
100
AcDbEntity
  8
化粧台
  6
CONTINUOUS
 62
     2
100
AcDbVertex
100
AcDb2dVertex
 10
2370.820961496076
 20
1931.614048413225
 30
0.0
  0
VERTEX
  5
494
330
481
100
AcDbEntity
  8
化粧台
  6
CONTINUOUS
 62
     2
100
AcDbVertex
100
AcDb2dVertex
 10
2370.823025007308
 20
1931.661576921962
 30
0.0
  0
VERTEX
  5
495
330
481
100
AcDbEntity
  8
化粧台
  6
CONTINUOUS
 62
     2
100
AcDbVertex
100
AcDb2dVertex
 10
2370.825202412303
 20
1931.708297179899
 30
0.0
  0
VERTEX
  5
496
330
481
100
AcDbEntity
  8
化粧台
  6
CONTINUOUS
 62
     2
100
AcDbVertex
100
AcDb2dVertex
 10
2370.827493416847
 20
1931.754704989829
 30
0.0
  0
VERTEX
  5
497
330
481
100
AcDbEntity
  8
化粧台
  6
CONTINUOUS
 62
     2
100
AcDbVertex
100
AcDb2dVertex
 10
2370.829897726724
 20
1931.801296154552
 30
0.0
  0
VERTEX
  5
498
330
481
100
AcDbEntity
  8
化粧台
  6
CONTINUOUS
 62
     2
100
AcDbVertex
100
AcDb2dVertex
 10
2370.83241504772
 20
1931.848566476862
 30
0.0
  0
VERTEX
  5
499
330
481
100
AcDbEntity
  8
化粧台
  6
CONTINUOUS
 62
     2
100
AcDbVertex
100
AcDb2dVertex
 10
2370.834836433525
 20
1931.893102823134
 30
0.0
  0
VERTEX
  5
49A
330
481
100
AcDbEntity
  8
化粧台
  6
CONTINUOUS
 62
     2
100
AcDbVertex
100
AcDb2dVertex
 10
2370.837354307565
 20
1931.938524759265
 30
0.0
  0
VERTEX
  5
49B
330
481
100
AcDbEntity
  8
化粧台
  6
CONTINUOUS
 62
     2
100
AcDbVertex
100
AcDb2dVertex
 10
2370.839969308786
 20
1931.984718742693
 30
0.0
  0
VERTEX
  5
49C
330
481
100
AcDbEntity
  8
化粧台
  6
CONTINUOUS
 62
     2
100
AcDbVertex
100
AcDb2dVertex
 10
2370.842682076136
 20
1932.031571230854
 30
0.0
  0
VERTEX
  5
49D
330
481
100
AcDbEntity
  8
化粧台
  6
CONTINUOUS
 62
     2
100
AcDbVertex
100
AcDb2dVertex
 10
2370.845493248564
 20
1932.078968681185
 30
0.0
  0
VERTEX
  5
49E
330
481
100
AcDbEntity
  8
化粧台
  6
CONTINUOUS
 62
     2
100
AcDbVertex
100
AcDb2dVertex
 10
2370.848403465016
 20
1932.12679755112
 30
0.0
  0
VERTEX
  5
49F
330
481
100
AcDbEntity
  8
化粧台
  6
CONTINUOUS
 62
     2
100
AcDbVertex
100
AcDb2dVertex
 10
2370.851413364441
 20
1932.174944298099
 30
0.0
  0
VERTEX
  5
4A0
330
481
100
AcDbEntity
  8
化粧台
  6
CONTINUOUS
 62
     2
100
AcDbVertex
100
AcDb2dVertex
 10
2370.854523585786
 20
1932.223295379556
 30
0.0
  0
VERTEX
  5
4A1
330
481
100
AcDbEntity
  8
化粧台
  6
CONTINUOUS
 62
     2
100
AcDbVertex
100
AcDb2dVertex
 10
2370.857734768
 20
1932.271737252928
 30
0.0
  0
VERTEX
  5
4A2
330
481
100
AcDbEntity
  8
化粧台
  6
CONTINUOUS
 62
     2
100
AcDbVertex
100
AcDb2dVertex
 10
2370.861047550029
 20
1932.320156375651
 30
0.0
  0
VERTEX
  5
4A3
330
481
100
AcDbEntity
  8
化粧台
  6
CONTINUOUS
 62
     2
100
AcDbVertex
100
AcDb2dVertex
 10
2370.864462570822
 20
1932.368439205162
 30
0.0
  0
VERTEX
  5
4A4
330
481
100
AcDbEntity
  8
化粧台
  6
CONTINUOUS
 62
     2
100
AcDbVertex
100
AcDb2dVertex
 10
2370.86752789057
 20
1932.410408887637
 30
0.0
  0
VERTEX
  5
4A5
330
481
100
AcDbEntity
  8
化粧台
  6
CONTINUOUS
 62
     2
100
AcDbVertex
100
AcDb2dVertex
 10
2370.870669362995
 20
1932.452197306022
 30
0.0
  0
VERTEX
  5
4A6
330
481
100
AcDbEntity
  8
化粧台
  6
CONTINUOUS
 62
     2
100
AcDbVertex
100
AcDb2dVertex
 10
2370.873884716041
 20
1932.493813648597
 30
0.0
  0
VERTEX
  5
4A7
330
481
100
AcDbEntity
  8
化粧台
  6
CONTINUOUS
 62
     2
100
AcDbVertex
100
AcDb2dVertex
 10
2370.877171677657
 20
1932.535267103637
 30
0.0
  0
VERTEX
  5
4A8
330
481
100
AcDbEntity
  8
化粧台
  6
CONTINUOUS
 62
     2
100
AcDbVertex
100
AcDb2dVertex
 10
2370.880527975786
 20
1932.576566859418
 30
0.0
  0
VERTEX
  5
4A9
330
481
100
AcDbEntity
  8
化粧台
  6
CONTINUOUS
 62
     2
100
AcDbVertex
100
AcDb2dVertex
 10
2370.883951338375
 20
1932.617722104217
 30
0.0
  0
VERTEX
  5
4AA
330
481
100
AcDbEntity
  8
化粧台
  6
CONTINUOUS
 62
     2
100
AcDbVertex
100
AcDb2dVertex
 10
2370.887439493369
 20
1932.658742026311
 30
0.0
  0
VERTEX
  5
4AB
330
481
100
AcDbEntity
  8
化粧台
  6
CONTINUOUS
 62
     2
100
AcDbVertex
100
AcDb2dVertex
 10
2370.890990168714
 20
1932.699635813976
 30
0.0
  0
VERTEX
  5
4AC
330
481
100
AcDbEntity
  8
化粧台
  6
CONTINUOUS
 62
     2
100
AcDbVertex
100
AcDb2dVertex
 10
2370.894601092358
 20
1932.740412655488
 30
0.0
  0
VERTEX
  5
4AD
330
481
100
AcDbEntity
  8
化粧台
  6
CONTINUOUS
 62
     2
100
AcDbVertex
100
AcDb2dVertex
 10
2370.898269992244
 20
1932.781081739125
 30
0.0
  0
VERTEX
  5
4AE
330
481
100
AcDbEntity
  8
化粧台
  6
CONTINUOUS
 62
     2
100
AcDbVertex
100
AcDb2dVertex
 10
2370.901994596319
 20
1932.821652253162
 30
0.0
  0
VERTEX
  5
4AF
330
481
100
AcDbEntity
  8
化粧台
  6
CONTINUOUS
 62
     2
100
AcDbVertex
100
AcDb2dVertex
 10
2370.905101484901
 20
1932.854981837897
 30
0.0
  0
VERTEX
  5
4B0
330
481
100
AcDbEntity
  8
化粧台
  6
CONTINUOUS
 62
     2
100
AcDbVertex
100
AcDb2dVertex
 10
2370.908250614122
 20
1932.888292282257
 30
0.0
  0
VERTEX
  5
4B1
330
481
100
AcDbEntity
  8
化粧台
  6
CONTINUOUS
 62
     2
100
AcDbVertex
100
AcDb2dVertex
 10
2370.911448030308
 20
1932.921624991748
 30
0.0
  0
VERTEX
  5
4B2
330
481
100
AcDbEntity
  8
化粧台
  6
CONTINUOUS
 62
     2
100
AcDbVertex
100
AcDb2dVertex
 10
2370.914699779786
 20
1932.955021371875
 30
0.0
  0
VERTEX
  5
4B3
330
481
100
AcDbEntity
  8
化粧台
  6
CONTINUOUS
 62
     2
100
AcDbVertex
100
AcDb2dVertex
 10
2370.918011908882
 20
1932.988522828142
 30
0.0
  0
VERTEX
  5
4B4
330
481
100
AcDbEntity
  8
化粧台
  6
CONTINUOUS
 62
     2
100
AcDbVertex
100
AcDb2dVertex
 10
2370.921390463923
 20
1933.022170766054
 30
0.0
  0
VERTEX
  5
4B5
330
481
100
AcDbEntity
  8
化粧台
  6
CONTINUOUS
 62
     2
100
AcDbVertex
100
AcDb2dVertex
 10
2370.924841491234
 20
1933.056006591117
 30
0.0
  0
VERTEX
  5
4B6
330
481
100
AcDbEntity
  8
化粧台
  6
CONTINUOUS
 62
     2
100
AcDbVertex
100
AcDb2dVertex
 10
2370.928371037144
 20
1933.090071708834
 30
0.0
  0
VERTEX
  5
4B7
330
481
100
AcDbEntity
  8
化粧台
  6
CONTINUOUS
 62
     2
100
AcDbVertex
100
AcDb2dVertex
 10
2370.931985147977
 20
1933.124407524711
 30
0.0
  0
VERTEX
  5
4B8
330
481
100
AcDbEntity
  8
化粧台
  6
CONTINUOUS
 62
     2
100
AcDbVertex
100
AcDb2dVertex
 10
2370.93568987006
 20
1933.159055444251
 30
0.0
  0
VERTEX
  5
4B9
330
481
100
AcDbEntity
  8
化粧台
  6
CONTINUOUS
 62
     2
100
AcDbVertex
100
AcDb2dVertex
 10
2370.939491249719
 20
1933.194056872962
 30
0.0
  0
VERTEX
  5
4BA
330
481
100
AcDbEntity
  8
化粧台
  6
CONTINUOUS
 62
     2
100
AcDbVertex
100
AcDb2dVertex
 10
2370.942407937598
 20
1933.220556533002
 30
0.0
  0
VERTEX
  5
4BB
330
481
100
AcDbEntity
  8
化粧台
  6
CONTINUOUS
 62
     2
100
AcDbVertex
100
AcDb2dVertex
 10
2370.945367667656
 20
1933.247166280858
 30
0.0
  0
VERTEX
  5
4BC
330
481
100
AcDbEntity
  8
化粧台
  6
CONTINUOUS
 62
     2
100
AcDbVertex
100
AcDb2dVertex
 10
2370.948355653319
 20
1933.273773842554
 30
0.0
  0
VERTEX
  5
4BD
330
481
100
AcDbEntity
  8
化粧台
  6
CONTINUOUS
 62
     2
100
AcDbVertex
100
AcDb2dVertex
 10
2370.95135710801
 20
1933.300266944109
 30
0.0
  0
VERTEX
  5
4BE
330
481
100
AcDbEntity
  8
化粧台
  6
CONTINUOUS
 62
     2
100
AcDbVertex
100
AcDb2dVertex
 10
2370.954357245155
 20
1933.326533311548
 30
0.0
  0
VERTEX
  5
4BF
330
481
100
AcDbEntity
  8
化粧台
  6
CONTINUOUS
 62
     2
100
AcDbVertex
100
AcDb2dVertex
 10
2370.957341278178
 20
1933.352460670891
 30
0.0
  0
VERTEX
  5
4C0
330
481
100
AcDbEntity
  8
化粧台
  6
CONTINUOUS
 62
     2
100
AcDbVertex
100
AcDb2dVertex
 10
2370.960294420503
 20
1933.377936748162
 30
0.0
  0
VERTEX
  5
4C1
330
481
100
AcDbEntity
  8
化粧台
  6
CONTINUOUS
 62
     2
100
AcDbVertex
100
AcDb2dVertex
 10
2370.963201885556
 20
1933.402849269382
 30
0.0
  0
VERTEX
  5
4C2
330
481
100
AcDbEntity
  8
化粧台
  6
CONTINUOUS
 62
     2
100
AcDbVertex
100
AcDb2dVertex
 10
2370.96604888676
 20
1933.427085960574
 30
0.0
  0
VERTEX
  5
4C3
330
481
100
AcDbEntity
  8
化粧台
  6
CONTINUOUS
 62
     2
100
AcDbVertex
100
AcDb2dVertex
 10
2370.968820637539
 20
1933.45053454776
 30
0.0
  0
VERTEX
  5
4C4
330
481
100
AcDbEntity
  8
化粧台
  6
CONTINUOUS
 62
     2
100
AcDbVertex
100
AcDb2dVertex
 10
2370.97150235132
 20
1933.473082756962
 30
0.0
  0
VERTEX
  5
4C5
330
481
100
AcDbEntity
  8
化粧台
  6
CONTINUOUS
 62
     2
100
AcDbVertex
100
AcDb2dVertex
 10
2370.973114311575
 20
1933.486566058642
 30
0.0
  0
VERTEX
  5
4C6
330
481
100
AcDbEntity
  8
化粧台
  6
CONTINUOUS
 62
     2
100
AcDbVertex
100
AcDb2dVertex
 10
2370.97471307631
 20
1933.499868178589
 30
0.0
  0
VERTEX
  5
4C7
330
481
100
AcDbEntity
  8
化粧台
  6
CONTINUOUS
 62
     2
100
AcDbVertex
100
AcDb2dVertex
 10
2370.976325538353
 20
1933.513195210025
 30
0.0
  0
VERTEX
  5
4C8
330
481
100
AcDbEntity
  8
化粧台
  6
CONTINUOUS
 62
     2
100
AcDbVertex
100
AcDb2dVertex
 10
2370.977978590532
 20
1933.526753246175
 30
0.0
  0
VERTEX
  5
4C9
330
481
100
AcDbEntity
  8
化粧台
  6
CONTINUOUS
 62
     2
100
AcDbVertex
100
AcDb2dVertex
 10
2370.979699125676
 20
1933.540748380263
 30
0.0
  0
VERTEX
  5
4CA
330
481
100
AcDbEntity
  8
化粧台
  6
CONTINUOUS
 62
     2
100
AcDbVertex
100
AcDb2dVertex
 10
2370.981514036614
 20
1933.555386705514
 30
0.0
  0
VERTEX
  5
4CB
330
481
100
AcDbEntity
  8
化粧台
  6
CONTINUOUS
 62
     2
100
AcDbVertex
100
AcDb2dVertex
 10
2370.983450216175
 20
1933.570874315153
 30
0.0
  0
VERTEX
  5
4CC
330
481
100
AcDbEntity
  8
化粧台
  6
CONTINUOUS
 62
     2
100
AcDbVertex
100
AcDb2dVertex
 10
2370.985534557187
 20
1933.587417302402
 30
0.0
  0
VERTEX
  5
4CD
330
481
100
AcDbEntity
  8
化粧台
  6
CONTINUOUS
 62
     2
100
AcDbVertex
100
AcDb2dVertex
 10
2370.987793952479
 20
1933.605221760487
 30
0.0
  0
VERTEX
  5
4CE
330
481
100
AcDbEntity
  8
化粧台
  6
CONTINUOUS
 62
     2
100
AcDbVertex
100
AcDb2dVertex
 10
2370.99025529488
 20
1933.624493782632
 30
0.0
  0
VERTEX
  5
4CF
330
481
100
AcDbEntity
  8
化粧台
  6
CONTINUOUS
 62
     2
100
AcDbVertex
100
AcDb2dVertex
 10
2370.992945477217
 20
1933.645439462062
 30
0.0
  0
VERTEX
  5
4D0
330
481
100
AcDbEntity
  8
化粧台
  6
CONTINUOUS
 62
     2
100
AcDbVertex
100
AcDb2dVertex
 10
2370.993846468976
 20
1933.652431884937
 30
0.0
  0
VERTEX
  5
4D1
330
481
100
AcDbEntity
  8
化粧台
  6
CONTINUOUS
 62
     2
100
AcDbVertex
100
AcDb2dVertex
 10
2370.994753728878
 20
1933.659464253359
 30
0.0
  0
VERTEX
  5
4D2
330
481
100
AcDbEntity
  8
化粧台
  6
CONTINUOUS
 62
     2
100
AcDbVertex
100
AcDb2dVertex
 10
2370.995647856108
 20
1933.666387834532
 30
0.0
  0
VERTEX
  5
4D3
330
481
100
AcDbEntity
  8
化粧台
  6
CONTINUOUS
 62
     2
100
AcDbVertex
100
AcDb2dVertex
 10
2370.996509449852
 20
1933.673053895654
 30
0.0
  0
VERTEX
  5
4D4
330
481
100
AcDbEntity
  8
化粧台
  6
CONTINUOUS
 62
     2
100
AcDbVertex
100
AcDb2dVertex
 10
2370.997319109294
 20
1933.67931370393
 30
0.0
  0
VERTEX
  5
4D5
330
481
100
AcDbEntity
  8
化粧台
  6
CONTINUOUS
 62
     2
100
AcDbVertex
100
AcDb2dVertex
 10
2370.998057433621
 20
1933.68501852656
 30
0.0
  0
VERTEX
  5
4D6
330
481
100
AcDbEntity
  8
化粧台
  6
CONTINUOUS
 62
     2
100
AcDbVertex
100
AcDb2dVertex
 10
2370.998705022019
 20
1933.690019630744
 30
0.0
  0
VERTEX
  5
4D7
330
481
100
AcDbEntity
  8
化粧台
  6
CONTINUOUS
 62
     2
100
AcDbVertex
100
AcDb2dVertex
 10
2370.999242473672
 20
1933.694168283685
 30
0.0
  0
VERTEX
  5
4D8
330
481
100
AcDbEntity
  8
化粧台
  6
CONTINUOUS
 62
     2
100
AcDbVertex
100
AcDb2dVertex
 10
2370.999650387766
 20
1933.697315752585
 30
0.0
  0
VERTEX
  5
4D9
330
481
100
AcDbEntity
  8
化粧台
  6
CONTINUOUS
 62
     2
100
AcDbVertex
100
AcDb2dVertex
 10
2370.999909363486
 20
1933.699313304643
 30
0.0
  0
VERTEX
  5
4DA
330
481
100
AcDbEntity
  8
化粧台
  6
CONTINUOUS
 62
     2
100
AcDbVertex
100
AcDb2dVertex
 10
2371.000000000018
 20
1933.700012207062
 30
0.0
  0
SEQEND
  5
4DB
330
481
100
AcDbEntity
  8
化粧台
  6
CONTINUOUS
 62
     2
  0
ARC
  5
4DC
330
1F
100
AcDbEntity
  8
化粧台
  6
CONTINUOUS
 62
     2
100
AcDbCircle
 10
2370.000000000018
 20
1939.889549246862
 30
0.0
 40
1.0
100
AcDbArc
 50
0.0
 51
85.78044385704138
  0
LINE
  5
4DD
330
1F
100
AcDbEntity
  8
化粧台
  6
CONTINUOUS
 62
     2
100
AcDbLine
 10
2325.000000000018
 20
1910.700012207062
 30
0.0
 11
2325.000000000017
 21
1928.63830575952
 31
0.0
  0
LINE
  5
4DE
330
1F
100
AcDbEntity
  8
化粧台
  6
CONTINUOUS
 62
     2
100
AcDbLine
 10
2348.000000000018
 20
1910.700012207064
 30
0.0
 11
2370.73213584342
 21
1921.300181236962
 31
0.0
  0
LINE
  5
4DF
330
1F
100
AcDbEntity
  8
化粧台
  6
CONTINUOUS
 62
     2
100
AcDbLine
 10
2325.000000000018
 20
1910.700012207062
 30
0.0
 11
2348.000000000015
 21
1910.700012207062
 31
0.0
  0
LINE
  5
4E0
330
1F
100
AcDbEntity
  8
化粧台
  6
CONTINUOUS
 62
     2
100
AcDbLine
 10
2366.183078167142
 20
1919.17892080514
 30
0.0
 11
2369.500000000017
 21
1906.800000000112
 31
0.0
  0
LINE
  5
4E1
330
1F
100
AcDbEntity
  8
化粧台
  6
CONTINUOUS
 62
     2
100
AcDbLine
 10
2327.545005121341
 20
1910.700012207062
 30
0.0
 11
2326.500000000017
 21
1906.800000000112
 31
0.0
  0
LINE
  5
4E2
330
1F
100
AcDbEntity
  8
化粧台
  6
CONTINUOUS
 62
     2
100
AcDbLine
 10
2369.500000000017
 20
1906.800000000112
 30
0.0
 11
2348.000000000018
 21
1906.800000000112
 31
0.0
  0
LINE
  5
4E3
330
1F
100
AcDbEntity
  8
化粧台
  6
CONTINUOUS
 62
     2
100
AcDbLine
 10
2326.000000000017
 20
1906.800000000031
 30
0.0
 11
2348.00000000002
 21
1906.800000000039
 31
0.0
  0
ARC
  5
4E4
330
1F
100
AcDbEntity
  8
化粧台
  6
CONTINUOUS
 62
     2
100
AcDbCircle
 10
2326.000000000018
 20
1939.889549246862
 30
0.0
 40
1.0
100
AcDbArc
 50
94.21955614295867
 51
180.0
  0
LINE
  5
4E5
330
1F
100
AcDbEntity
  8
化粧台
  6
CONTINUOUS
 62
     2
100
AcDbLine
 10
2325.000000000018
 20
1939.889549246862
 30
0.0
 11
2325.000000000017
 21
1936.761718654606
 31
0.0
  0
LINE
  5
4E6
330
1F
100
AcDbEntity
  8
化粧台
  6
CONTINUOUS
 62
     2
100
AcDbLine
 10
2255.451379324709
 20
1873.9924679235
 30
0.0
 11
2254.158236314177
 21
1866.658689477714
 31
0.0
  0
LINE
  5
4E7
330
1F
100
AcDbEntity
  8
化粧台
  6
CONTINUOUS
 62
     2
100
AcDbLine
 10
2231.815993252414
 20
1878.160024187499
 30
0.0
 11
2230.522850241885
 21
1870.82624574172
 31
0.0
  0
LINE
  5
4E8
330
1F
100
AcDbEntity
  8
化粧台
  6
CONTINUOUS
 62
     2
100
AcDbLine
 10
2243.63368628856
 20
1876.0762460555
 30
0.0
 11
2258.405802583743
 21
1873.471523390496
 31
0.0
  0
LINE
  5
4E9
330
1F
100
AcDbEntity
  8
化粧台
  6
CONTINUOUS
 62
     2
100
AcDbLine
 10
2325.500000000018
 20
1906.300000000031
 30
0.0
 11
2325.500000000018
 21
1881.73788485813
 31
0.0
  0
LINE
  5
4EA
330
1F
100
AcDbEntity
  8
化粧台
  6
CONTINUOUS
 62
     2
100
AcDbLine
 10
2377.655424036379
 20
1858.571615551347
 30
0.0
 11
2382.83956959503
 21
1858.571615551347
 31
0.0
  0
LINE
  5
4EB
330
1F
100
AcDbEntity
  8
化粧台
  6
CONTINUOUS
 62
     2
100
AcDbLine
 10
2377.655424036379
 20
1852.571615551347
 30
0.0
 11
2382.83956959503
 21
1852.571615551347
 31
0.0
  0
LINE
  5
4EC
330
1F
100
AcDbEntity
  8
化粧台
  6
CONTINUOUS
 62
     2
100
AcDbLine
 10
2382.839569595034
 20
1855.571615551347
 30
0.0
 11
2382.839569595034
 21
1850.845391073227
 31
0.0
  0
LINE
  5
4ED
330
1F
100
AcDbEntity
  8
化粧台
  6
CONTINUOUS
 62
     2
100
AcDbLine
 10
2382.839569595034
 20
1860.297840029468
 30
0.0
 11
2382.839569595034
 21
1855.571615551347
 31
0.0
  0
ARC
  5
4EE
330
1F
100
AcDbEntity
  8
化粧台
  6
CONTINUOUS
 62
     2
100
AcDbCircle
 10
2377.655424036379
 20
1848.571615551347
 30
0.0
 40
10.0
100
AcDbArc
 50
90.00000000000001
 51
135.6876687567335
  0
LINE
  5
4EF
330
1F
100
AcDbEntity
  8
化粧台
  6
CONTINUOUS
 62
     2
100
AcDbLine
 10
2370.500000000016
 20
1843.634438068142
 30
0.0
 11
2374.123633664944
 21
1850.44950180249
 31
0.0
  0
LINE
  5
4F0
330
1F
100
AcDbEntity
  8
化粧台
  6
CONTINUOUS
 62
     2
100
AcDbLine
 10
2325.500000000057
 20
1851.27508650156
 30
0.0
 11
2325.500000000057
 21
1819.500000000028
 31
0.0
  0
LINE
  5
4F1
330
1F
100
AcDbEntity
  8
化粧台
  6
CONTINUOUS
 62
     2
100
AcDbLine
 10
2325.000000000018
 20
1937.370974621736
 30
0.0
 11
2325.93823820275
 21
1937.205537912263
 31
0.0
  0
LINE
  5
4F2
330
1F
100
AcDbEntity
  8
化粧台
  6
CONTINUOUS
 62
     2
100
AcDbLine
 10
2325.000000000018
 20
1937.370974621736
 30
0.0
 11
2325.93823820275
 21
1937.205537912263
 31
0.0
  0
LINE
  5
4F3
330
1F
100
AcDbEntity
  8
化粧台
  6
CONTINUOUS
 62
     2
100
AcDbLine
 10
2325.000000000018
 20
1928.029049792389
 30
0.0
 11
2325.93823820275
 21
1927.863613082916
 31
0.0
  0
LINE
  5
4F4
330
1F
100
AcDbEntity
  8
化粧台
  6
CONTINUOUS
 62
     2
100
AcDbLine
 10
2325.000000000018
 20
1928.029049792389
 30
0.0
 11
2325.93823820275
 21
1927.863613082916
 31
0.0
  0
LINE
  5
4F5
330
1F
100
AcDbEntity
  8
化粧台
  6
CONTINUOUS
 62
     2
100
AcDbLine
 10
2228.1009551688
 20
1878.815085636003
 30
0.0
 11
2243.63368628856
 21
1876.076246055499
 31
0.0
  0
ARC
  5
4F6
330
1F
100
AcDbEntity
  8
化粧台
  6
CONTINUOUS
 62
     2
100
AcDbCircle
 10
2303.727883704835
 20
1870.345497209811
 30
0.0
 40
78.0
100
AcDbArc
 50
160.1509730893516
 51
172.1050093001874
  0
LINE
  5
4F7
330
1F
100
AcDbEntity
  8
化粧台
  6
CONTINUOUS
 62
     2
100
AcDbLine
 10
2325.500000000019
 20
1851.27508650156
 30
0.0
 11
2325.500000000017
 21
1807.808109337434
 31
0.0
  0
LINE
  5
4F8
330
1F
100
AcDbEntity
  8
化粧台
  6
CONTINUOUS
 62
     2
100
AcDbLine
 10
2370.500000000018
 20
1855.557308563486
 30
0.0
 11
2370.500000000018
 21
1808.830836610161
 31
0.0
  0
LINE
  5
4F9
330
1F
100
AcDbEntity
  8
寸法
  6
CONTINUOUS
 62
     3
100
AcDbLine
 10
1144.999999999997
 20
916.500002861023
 30
0.0
 11
1144.999999999997
 21
687.0
 31
0.0
  0
LINE
  5
4FA
330
1F
100
AcDbEntity
  8
寸法
  6
CONTINUOUS
 62
     3
100
AcDbLine
 10
904.9999999999982
 20
930.5000001788139
 30
0.0
 11
904.9999999999982
 21
687.0
 31
0.0
  0
TEXT
  5
4FB
330
1F
100
AcDbEntity
  8
寸法
  6
CONTINUOUS
 62
     2
100
AcDbText
 10
460.9999999999982
 20
707.249999910593
 30
0.0
 40
59.99999618530273
  1
２４０
 41
1.029411764705882
  7
EXCADSTD
 72
     5
 11
610.999990463255
 21
707.249999910593
 31
0.0
100
AcDbText
  0
TEXT
  5
4FC
330
1F
100
AcDbEntity
  8
寸法
  6
CONTINUOUS
 62
     2
100
AcDbText
 10
603.4999999999982
 20
707.249999910593
 30
0.0
 40
48.0
  1
（壁・床排水）
 41
0.9390243902439025
  7
EXCADSTD
 72
     5
 11
867.4999999999982
 21
707.249999910593
 31
0.0
100
AcDbText
  0
LINE
  5
4FD
330
1F
100
AcDbEntity
  8
寸法
  6
CONTINUOUS
 62
     3
100
AcDbLine
 10
455.7499885559064
 20
702.0000000000001
 30
0.0
 11
1189.999999999997
 21
702.0
 31
0.0
  0
LINE
  5
4FE
330
1F
100
AcDbEntity
  8
寸法
  6
CONTINUOUS
 62
     3
100
AcDbLine
 10
859.9999999999982
 20
694.5
 30
0.0
 11
904.9999999999982
 21
702.0
 31
0.0
  0
LINE
  5
4FF
330
1F
100
AcDbEntity
  8
寸法
  6
CONTINUOUS
 62
     3
100
AcDbLine
 10
904.9999999999982
 20
702.0
 30
0.0
 11
859.9999999999982
 21
709.5000000000001
 31
0.0
  0
LINE
  5
500
330
1F
100
AcDbEntity
  8
寸法
  6
CONTINUOUS
 62
     3
100
AcDbLine
 10
1189.999999999997
 20
709.5
 30
0.0
 11
1144.999999999997
 21
702.0
 31
0.0
  0
LINE
  5
501
330
1F
100
AcDbEntity
  8
寸法
  6
CONTINUOUS
 62
     3
100
AcDbLine
 10
1144.999999999997
 20
702.0
 30
0.0
 11
1189.999999999997
 21
694.5
 31
0.0
  0
LEADER
  5
502
330
1F
100
AcDbEntity
  8
寸法
  6
CONTINUOUS
 62
     3
100
AcDbLeader
  3
ISO-25
 76
     3
 10
1160.849999999996
 20
941.0
 30
0.0
 10
1298.999999999997
 20
738.0
 30
0.0
 10
1729.499999999997
 20
738.0
 30
0.0
1001
ACAD
1000
DSTYLE
1002
{
1070
     5
1000
EX_NORM
1070
    41
1040
45.0
1070
   341
1005
4D
1002
}
  0
TEXT
  5
503
330
1F
100
AcDbEntity
  8
寸法
  6
CONTINUOUS
 62
     2
100
AcDbText
 10
1306.499999999997
 20
803.2499960958958
 30
0.0
 40
59.99999618530273
  1
ＶＰ･ＶＵ４０･５０
 41
0.8542372745578565
  7
EXCADSTD
 72
     5
 11
1738.499965667722
 21
803.2499960958958
 31
0.0
100
AcDbText
  0
TEXT
  5
504
330
1F
100
AcDbEntity
  8
寸法
  6
CONTINUOUS
 62
     2
100
AcDbText
 10
1306.499999999997
 20
743.249999910593
 30
0.0
 40
59.99999618530273
  1
４０～５０㎜立上げ
 41
0.9773584771306252
  7
EXCADSTD
 72
     5
 11
1750.499965667722
 21
743.249999910593
 31
0.0
100
AcDbText
  0
LINE
  5
505
330
1F
100
AcDbEntity
  8
寸法
  6
CONTINUOUS
 62
     3
100
AcDbLine
 10
2467.499999821185
 20
941.0
 30
0.0
 11
2818.5
 21
940.9999999999952
 31
0.0
  0
LINE
  5
506
330
1F
100
AcDbEntity
  8
寸法
  6
CONTINUOUS
 62
     3
100
AcDbLine
 10
2499.999999821185
 20
1521.0
 30
0.0
 11
2818.5
 21
1520.999999999999
 31
0.0
  0
TEXT
  5
507
330
1F
100
AcDbEntity
  8
寸法
  6
CONTINUOUS
 62
     2
100
AcDbText
 10
2798.250000089407
 20
1067.499999999997
 30
0.0
 40
59.99999618530273
  1
５８０
 50
90.0
 41
1.029411764705882
  7
EXCADSTD
 72
     5
 11
2798.250000089407
 21
1217.499990463254
 31
0.0
100
AcDbText
  0
TEXT
  5
508
330
1F
100
AcDbEntity
  8
寸法
  6
CONTINUOUS
 62
     2
100
AcDbText
 10
2798.250000089407
 20
1209.999999999997
 30
0.0
 40
48.0
  1
（壁固定）
 50
90.0
 41
0.9655172413793105
  7
EXCADSTD
 72
     5
 11
2798.250000089407
 21
1401.999999999997
 31
0.0
100
AcDbText
  0
LINE
  5
509
330
1F
100
AcDbEntity
  8
寸法
  6
CONTINUOUS
 62
     3
100
AcDbLine
 10
2803.5
 20
940.9999999999955
 30
0.0
 11
2803.5
 21
1520.999999999999
 31
0.0
  0
LINE
  5
50A
330
1F
100
AcDbEntity
  8
寸法
  6
CONTINUOUS
 62
     3
100
AcDbLine
 10
2796.0
 20
985.9999999999955
 30
0.0
 11
2803.5
 21
940.9999999999955
 31
0.0
  0
LINE
  5
50B
330
1F
100
AcDbEntity
  8
寸法
  6
CONTINUOUS
 62
     3
100
AcDbLine
 10
2803.5
 20
940.9999999999955
 30
0.0
 11
2811.0
 21
985.9999999999955
 31
0.0
  0
LINE
  5
50C
330
1F
100
AcDbEntity
  8
寸法
  6
CONTINUOUS
 62
     3
100
AcDbLine
 10
2811.0
 20
1475.999999999999
 30
0.0
 11
2803.5
 21
1520.999999999999
 31
0.0
  0
LINE
  5
50D
330
1F
100
AcDbEntity
  8
寸法
  6
CONTINUOUS
 62
     3
100
AcDbLine
 10
2803.5
 20
1520.999999999999
 30
0.0
 11
2796.0
 21
1475.999999999999
 31
0.0
  0
LINE
  5
50E
330
1F
100
AcDbEntity
  8
寸法
  6
CONTINUOUS
 62
     3
100
AcDbLine
 10
2356.999999999999
 20
916.500002861023
 30
0.0
 11
2356.999999999999
 21
687.0
 31
0.0
  0
LINE
  5
50F
330
1F
100
AcDbEntity
  8
寸法
  6
CONTINUOUS
 62
     3
100
AcDbLine
 10
2456.999999999999
 20
930.5000001788139
 30
0.0
 11
2456.999999999999
 21
687.0
 31
0.0
  0
TEXT
  5
510
330
1F
100
AcDbEntity
  8
寸法
  6
CONTINUOUS
 62
     2
100
AcDbText
 10
2501.999999999999
 20
707.249999910593
 30
0.0
 40
59.99999618530273
  1
１００
 41
1.029411764705882
  7
EXCADSTD
 72
     5
 11
2651.999990463255
 21
707.249999910593
 31
0.0
100
AcDbText
  0
TEXT
  5
511
330
1F
100
AcDbEntity
  8
寸法
  6
CONTINUOUS
 62
     2
100
AcDbText
 10
2644.499999999999
 20
707.249999910593
 30
0.0
 40
48.0
  1
（床排水）
 41
0.9655172413793105
  7
EXCADSTD
 72
     5
 11
2836.499999999999
 21
707.249999910593
 31
0.0
100
AcDbText
  0
LINE
  5
512
330
1F
100
AcDbEntity
  8
寸法
  6
CONTINUOUS
 62
     3
100
AcDbLine
 10
2311.999999999999
 20
702.0
 30
0.0
 11
2834.249994277953
 21
702.0
 31
0.0
  0
LINE
  5
513
330
1F
100
AcDbEntity
  8
寸法
  6
CONTINUOUS
 62
     3
100
AcDbLine
 10
2311.999999999999
 20
694.5
 30
0.0
 11
2356.999999999999
 21
702.0
 31
0.0
  0
LINE
  5
514
330
1F
100
AcDbEntity
  8
寸法
  6
CONTINUOUS
 62
     3
100
AcDbLine
 10
2356.999999999999
 20
702.0
 30
0.0
 11
2311.999999999999
 21
709.5000000000001
 31
0.0
  0
LINE
  5
515
330
1F
100
AcDbEntity
  8
寸法
  6
CONTINUOUS
 62
     3
100
AcDbLine
 10
2501.999999999999
 20
709.5
 30
0.0
 11
2456.999999999999
 21
702.0
 31
0.0
  0
LINE
  5
516
330
1F
100
AcDbEntity
  8
寸法
  6
CONTINUOUS
 62
     3
100
AcDbLine
 10
2456.999999999999
 20
702.0
 30
0.0
 11
2501.999999999999
 21
694.5
 31
0.0
  0
DIMENSION
  5
517
330
1F
100
AcDbEntity
  8
寸法
  6
CONTINUOUS
 62
     3
100
AcDbDimension
  2
*D16
 10
2456.999999999999
 20
612.0
 30
0.0
 11
2244.499999999999
 21
647.249999910593
 31
0.0
 70
   160
  3
ISO-25
100
AcDbAlignedDimension
 13
2031.999999999998
 23
941.0
 33
0.0
 14
2456.999999999999
 24
941.0
 34
0.0
100
AcDbRotatedDimension
1001
ACAD
1000
DSTYLE
1002
{
1070
   270
1070
     2
1070
     6
1000
EX_NORM
1070
     7
1000
EX_NORM
1070
    41
1040
44.99999618530273
1070
    42
1040
10.49999982118607
1070
    44
1040
15.0
1070
    73
1070
     0
1070
    74
1070
     0
1070
    75
1070
     0
1070
    76
1070
     0
1070
    77
1070
     1
1070
    78
1070
     8
1070
   140
1040
59.99999618530273
1070
   147
1040
0.0
1070
   173
1070
     1
1070
   176
1070
     3
1070
   177
1070
     3
1070
   178
1070
     2
1070
   271
1070
     2
1070
   277
1070
     2
1070
   279
1070
     2
1070
   280
1070
     0
1070
   287
1070
     5
1070
   340
1005
123
1002
}
  0
LINE
  5
524
330
1F
100
AcDbEntity
  8
寸法
  6
CONTINUOUS
 62
     3
100
AcDbLine
 10
854.9999999999982
 20
3898.499999821186
 30
0.0
 11
854.9999999999982
 21
3966.15
 31
0.0
  0
LINE
  5
525
330
1F
100
AcDbEntity
  8
寸法
  6
CONTINUOUS
 62
     3
100
AcDbLine
 10
954.9999999999973
 20
3898.499999821186
 30
0.0
 11
954.9999999999973
 21
3966.15
 31
0.0
  0
TEXT
  5
526
330
1F
100
AcDbEntity
  8
寸法
  6
CONTINUOUS
 62
     2
100
AcDbText
 10
741.4999999999981
 20
3956.399999910593
 30
0.0
 40
59.99999618530273
  1
１００
 41
1.029411764705882
  7
EXCADSTD
 72
     5
 11
891.4999904632549
 21
3956.399999910593
 31
0.0
100
AcDbText
  0
TEXT
  5
527
330
1F
100
AcDbEntity
  8
寸法
  6
CONTINUOUS
 62
     2
100
AcDbText
 10
883.9999999999981
 20
3956.399999910593
 30
0.0
 40
48.0
  1
（壁給水）
 41
0.965517241379311
  7
EXCADSTD
 72
     5
 11
1075.999999999998
 21
3956.399999910593
 31
0.0
100
AcDbText
  0
LINE
  5
528
330
1F
100
AcDbEntity
  8
寸法
  6
CONTINUOUS
 62
     3
100
AcDbLine
 10
809.9999999999984
 20
3951.15
 30
0.0
 11
999.9999999999975
 21
3951.15
 31
0.0
  0
LINE
  5
529
330
1F
100
AcDbEntity
  8
寸法
  6
CONTINUOUS
 62
     3
100
AcDbLine
 10
809.9999999999982
 20
3943.65
 30
0.0
 11
854.9999999999982
 21
3951.15
 31
0.0
  0
LINE
  5
52A
330
1F
100
AcDbEntity
  8
寸法
  6
CONTINUOUS
 62
     3
100
AcDbLine
 10
854.9999999999982
 20
3951.15
 30
0.0
 11
809.9999999999982
 21
3958.65
 31
0.0
  0
LINE
  5
52B
330
1F
100
AcDbEntity
  8
寸法
  6
CONTINUOUS
 62
     3
100
AcDbLine
 10
999.9999999999973
 20
3958.65
 30
0.0
 11
954.9999999999973
 21
3951.15
 31
0.0
  0
LINE
  5
52C
330
1F
100
AcDbEntity
  8
寸法
  6
CONTINUOUS
 62
     3
100
AcDbLine
 10
954.9999999999973
 20
3951.15
 30
0.0
 11
999.9999999999973
 21
3943.65
 31
0.0
  0
LINE
  5
52D
330
1F
100
AcDbEntity
  8
寸法
  6
CONTINUOUS
 62
     3
100
AcDbLine
 10
649.9999999999982
 20
3922.999999821186
 30
0.0
 11
649.9999999999982
 21
4063.5
 31
0.0
  0
LINE
  5
52E
330
1F
100
AcDbEntity
  8
寸法
  6
CONTINUOUS
 62
     3
100
AcDbLine
 10
1159.999999999997
 20
3922.999999821186
 30
0.0
 11
1159.999999999997
 21
4063.5
 31
0.0
  0
TEXT
  5
52F
330
1F
100
AcDbEntity
  8
寸法
  6
CONTINUOUS
 62
     2
100
AcDbText
 10
741.4999999999978
 20
4053.749999910593
 30
0.0
 40
59.99999618530273
  1
５１０
 41
1.029411764705882
  7
EXCADSTD
 72
     5
 11
891.4999904632547
 21
4053.749999910593
 31
0.0
100
AcDbText
  0
TEXT
  5
530
330
1F
100
AcDbEntity
  8
寸法
  6
CONTINUOUS
 62
     2
100
AcDbText
 10
883.9999999999978
 20
4053.749999910593
 30
0.0
 40
48.0
  1
（壁固定）
 41
0.9655172413793099
  7
EXCADSTD
 72
     5
 11
1075.999999999998
 21
4053.749999910593
 31
0.0
100
AcDbText
  0
LINE
  5
531
330
1F
100
AcDbEntity
  8
寸法
  6
CONTINUOUS
 62
     3
100
AcDbLine
 10
649.9999999999984
 20
4048.5
 30
0.0
 11
1159.999999999997
 21
4048.5
 31
0.0
  0
LINE
  5
532
330
1F
100
AcDbEntity
  8
寸法
  6
CONTINUOUS
 62
     3
100
AcDbLine
 10
694.9999999999982
 20
4056.0
 30
0.0
 11
649.9999999999982
 21
4048.5
 31
0.0
  0
LINE
  5
533
330
1F
100
AcDbEntity
  8
寸法
  6
CONTINUOUS
 62
     3
100
AcDbLine
 10
649.9999999999982
 20
4048.5
 30
0.0
 11
694.9999999999982
 21
4041.0
 31
0.0
  0
LINE
  5
534
330
1F
100
AcDbEntity
  8
寸法
  6
CONTINUOUS
 62
     3
100
AcDbLine
 10
1114.999999999997
 20
4041.0
 30
0.0
 11
1159.999999999997
 21
4048.5
 31
0.0
  0
LINE
  5
535
330
1F
100
AcDbEntity
  8
寸法
  6
CONTINUOUS
 62
     3
100
AcDbLine
 10
1159.999999999997
 20
4048.5
 30
0.0
 11
1114.999999999997
 21
4056.0
 31
0.0
  0
DIMENSION
  5
536
330
1F
100
AcDbEntity
  8
寸法
  6
CONTINUOUS
 62
     3
100
AcDbDimension
  2
*D17
 10
1385.999999999997
 20
3430.0
 30
0.0
 11
1350.750000089405
 21
3654.999999999999
 31
0.0
 70
   160
  3
ISO-25
100
AcDbAlignedDimension
 13
1279.999999999999
 23
3880.0
 33
0.0
 14
1279.999999999999
 24
3430.0
 34
0.0
 50
90.0
100
AcDbRotatedDimension
1001
ACAD
1000
DSTYLE
1002
{
1070
   270
1070
     2
1070
     6
1000
EX_NORM
1070
     7
1000
EX_NORM
1070
    41
1040
44.99999618530273
1070
    42
1040
10.49999982118607
1070
    44
1040
15.0
1070
    73
1070
     0
1070
    74
1070
     0
1070
    75
1070
     1
1070
    76
1070
     0
1070
    77
1070
     1
1070
    78
1070
     8
1070
   140
1040
59.99999618530273
1070
   147
1040
0.0
1070
   173
1070
     1
1070
   176
1070
     3
1070
   177
1070
     3
1070
   178
1070
     2
1070
   271
1070
     2
1070
   277
1070
     2
1070
   279
1070
     2
1070
   280
1070
     0
1070
   287
1070
     5
1070
   340
1005
123
1002
}
  0
DIMENSION
  5
542
330
1F
100
AcDbEntity
  8
寸法
  6
CONTINUOUS
 62
     3
100
AcDbDimension
  2
*D18
 10
1279.999999999997
 20
3178.5
 30
0.0
 11
904.9999999999978
 21
3213.749999910593
 31
0.0
 70
   160
  3
ISO-25
100
AcDbAlignedDimension
 13
529.9999999999982
 23
3430.0
 33
0.0
 14
1279.999999999997
 24
3430.0
 34
0.0
100
AcDbRotatedDimension
1001
ACAD
1000
DSTYLE
1002
{
1070
   270
1070
     2
1070
     6
1000
EX_NORM
1070
     7
1000
EX_NORM
1070
    41
1040
44.99999618530273
1070
    42
1040
10.49999982118607
1070
    44
1040
15.0
1070
    73
1070
     0
1070
    74
1070
     0
1070
    75
1070
     0
1070
    76
1070
     0
1070
    77
1070
     1
1070
    78
1070
     8
1070
   140
1040
59.99999618530273
1070
   147
1040
0.0
1070
   173
1070
     1
1070
   176
1070
     3
1070
   177
1070
     3
1070
   178
1070
     2
1070
   271
1070
     2
1070
   277
1070
     2
1070
   279
1070
     2
1070
   280
1070
     0
1070
   287
1070
     5
1070
   340
1005
123
1002
}
  0
DIMENSION
  5
54F
330
1F
100
AcDbEntity
  8
寸法
  6
CONTINUOUS
 62
     3
100
AcDbDimension
  2
*D19
 10
1475.999999999997
 20
3880.0
 30
0.0
 11
1440.750000089405
 21
3640.0
 31
0.0
 70
   160
  3
ISO-25
100
AcDbAlignedDimension
 13
904.9999999999982
 23
3400.0
 33
0.0
 14
1279.999999999997
 24
3880.0
 34
0.0
 50
90.0
100
AcDbRotatedDimension
1001
ACAD
1000
DSTYLE
1002
{
1070
   270
1070
     2
1070
     6
1000
EX_NORM
1070
     7
1000
EX_NORM
1070
    41
1040
44.99999618530273
1070
    42
1040
10.49999982118607
1070
    44
1040
15.0
1070
    73
1070
     0
1070
    74
1070
     0
1070
    75
1070
     0
1070
    76
1070
     1
1070
    77
1070
     1
1070
    78
1070
     8
1070
   140
1040
59.99999618530273
1070
   147
1040
0.0
1070
   173
1070
     1
1070
   176
1070
     3
1070
   177
1070
     3
1070
   178
1070
     2
1070
   271
1070
     2
1070
   277
1070
     2
1070
   279
1070
     2
1070
   280
1070
     0
1070
   287
1070
     5
1070
   340
1005
123
1002
}
  0
DIMENSION
  5
55B
330
1F
100
AcDbEntity
  8
寸法
  6
CONTINUOUS
 62
     3
100
AcDbDimension
  2
*D20
 10
1129.999999999997
 20
3268.5
 30
0.0
 11
904.9999999999978
 21
3303.749999910593
 31
0.0
 70
   160
  1
%%c<>
  3
ISO-25
100
AcDbAlignedDimension
 13
679.9999999999982
 23
3625.0
 33
0.0
 14
1129.999999999997
 24
3625.0
 34
0.0
100
AcDbRotatedDimension
1001
ACAD
1000
DSTYLE
1002
{
1070
   270
1070
     2
1070
     6
1000
EX_NORM
1070
     7
1000
EX_NORM
1070
    41
1040
44.99999618530273
1070
    42
1040
10.49999982118607
1070
    44
1040
15.0
1070
    73
1070
     0
1070
    74
1070
     0
1070
    75
1070
     0
1070
    76
1070
     0
1070
    77
1070
     1
1070
    78
1070
     8
1070
   140
1040
59.99999618530273
1070
   147
1040
0.0
1070
   173
1070
     1
1070
   176
1070
     3
1070
   177
1070
     3
1070
   178
1070
     2
1070
   271
1070
     2
1070
   277
1070
     2
1070
   279
1070
     2
1070
   280
1070
     0
1070
   287
1070
     5
1070
   340
1005
123
1002
}
  0
DIMENSION
  5
568
330
1F
100
AcDbEntity
  8
寸法
  6
CONTINUOUS
 62
     3
100
AcDbDimension
  2
*D21
 10
1394.999999999997
 20
1640.0
 30
0.0
 11
1359.750000089404
 21
1290.5
 31
0.0
 70
   160
  3
ISO-25
100
AcDbAlignedDimension
 13
1277.999999999997
 23
941.0
 33
0.0
 14
1279.999999999997
 24
1640.0
 34
0.0
 50
90.0
100
AcDbRotatedDimension
1001
ACAD
1000
DSTYLE
1002
{
1070
   270
1070
     2
1070
     6
1000
EX_NORM
1070
     7
1000
EX_NORM
1070
    41
1040
44.99999618530273
1070
    42
1040
10.49999982118607
1070
    44
1040
15.0
1070
    73
1070
     0
1070
    74
1070
     0
1070
    75
1070
     1
1070
    76
1070
     0
1070
    77
1070
     1
1070
    78
1070
     8
1070
   140
1040
59.99999618530273
1070
   147
1040
0.0
1070
   173
1070
     1
1070
   176
1070
     3
1070
   177
1070
     3
1070
   178
1070
     2
1070
   271
1070
     2
1070
   277
1070
     2
1070
   279
1070
     2
1070
   280
1070
     0
1070
   287
1070
     5
1070
   340
1005
123
1002
}
  0
DIMENSION
  5
574
330
1F
100
AcDbEntity
  8
寸法
  6
CONTINUOUS
 62
     3
100
AcDbDimension
  2
*D22
 10
1484.999999999997
 20
1810.0
 30
0.0
 11
1449.750000089404
 21
1375.5
 31
0.0
 70
   160
  3
ISO-25
100
AcDbAlignedDimension
 13
1277.999999999997
 23
941.0
 33
0.0
 14
904.9999999999982
 24
1810.0
 34
0.0
 50
90.0
100
AcDbRotatedDimension
1001
ACAD
1000
DSTYLE
1002
{
1070
   270
1070
     2
1070
     6
1000
EX_NORM
1070
     7
1000
EX_NORM
1070
    41
1040
44.99999618530273
1070
    42
1040
0.0
1070
    44
1040
0.0
1070
    73
1070
     0
1070
    74
1070
     0
1070
    75
1070
     1
1070
    76
1070
     1
1070
    77
1070
     1
1070
    78
1070
     8
1070
   140
1040
59.99999618530273
1070
   147
1040
0.0
1070
   173
1070
     1
1070
   176
1070
     3
1070
   177
1070
     3
1070
   178
1070
     2
1070
   271
1070
     2
1070
   277
1070
     2
1070
   279
1070
     2
1070
   280
1070
     0
1070
   287
1070
     5
1070
   340
1005
123
1002
}
  0
DIMENSION
  5
57F
330
1F
100
AcDbEntity
  8
寸法
  6
CONTINUOUS
 62
     3
100
AcDbDimension
  2
*D23
 10
2623.5
 20
941.0
 30
0.0
 11
2588.250000089407
 21
1161.0
 31
0.0
 70
   160
  1
440（壁給水）
  3
ISO-25
100
AcDbAlignedDimension
 13
2480.0
 23
1381.0
 33
0.0
 14
2623.5
 24
941.0
 34
0.0
 50
90.0
100
AcDbRotatedDimension
1001
ACAD
1000
DSTYLE
1002
{
1070
   270
1070
     2
1070
     6
1000
EX_NORM
1070
     7
1000
EX_NORM
1070
    41
1040
44.99999618530273
1070
    42
1040
7.5
1070
    44
1040
15.0
1070
    73
1070
     0
1070
    74
1070
     0
1070
    75
1070
     0
1070
    76
1070
     1
1070
    77
1070
     1
1070
    78
1070
     8
1070
   140
1040
59.99999618530273
1070
   147
1040
0.0
1070
   173
1070
     1
1070
   176
1070
     3
1070
   177
1070
     3
1070
   178
1070
     2
1070
   271
1070
     2
1070
   277
1070
     2
1070
   279
1070
     2
1070
   280
1070
     0
1070
   287
1070
     5
1070
   340
1005
123
1002
}
  0
LINE
  5
58B
330
1F
100
AcDbEntity
  8
寸法
  6
CONTINUOUS
 62
     3
100
AcDbLine
 10
930.0000000000109
 20
1810.0
 30
0.0
 11
1499.999999999997
 21
1810.0
 31
0.0
  0
DIMENSION
  5
58C
330
1F
100
AcDbEntity
  8
寸法
  6
CONTINUOUS
 62
     3
100
AcDbDimension
  2
*D24
 10
1318.499999999999
 20
2171.0
 30
0.0
 11
1283.250000089406
 21
2431.0
 31
0.0
 70
   160
  3
ISO-25
100
AcDbAlignedDimension
 13
1204.999999999999
 23
2691.0
 33
0.0
 14
1204.999999999999
 24
2171.0
 34
0.0
 50
90.0
100
AcDbRotatedDimension
1001
ACAD
1000
DSTYLE
1002
{
1070
   270
1070
     2
1070
     6
1000
EX_NORM
1070
     7
1000
EX_NORM
1070
    41
1040
44.99999618530273
1070
    42
1040
10.49999982118607
1070
    44
1040
15.0
1070
    73
1070
     0
1070
    74
1070
     0
1070
    75
1070
     0
1070
    76
1070
     0
1070
    77
1070
     1
1070
    78
1070
     8
1070
   140
1040
59.99999618530273
1070
   147
1040
0.0
1070
   173
1070
     1
1070
   176
1070
     3
1070
   177
1070
     3
1070
   178
1070
     2
1070
   271
1070
     2
1070
   277
1070
     2
1070
   279
1070
     2
1070
   280
1070
     0
1070
   287
1070
     5
1070
   340
1005
123
1002
}
  0
DIMENSION
  5
599
330
1F
100
AcDbEntity
  8
寸法
  6
CONTINUOUS
 62
     3
100
AcDbDimension
  2
*D25
 10
1054.999999999999
 20
2751.0
 30
0.0
 11
904.9999999999993
 21
2786.249999910593
 31
0.0
 70
   160
  1
<>（壁固定）
  3
ISO-25
100
AcDbAlignedDimension
 13
754.9999999999993
 23
2630.9807621135
 33
0.0
 14
1054.999999999999
 24
2630.9807621135
 34
0.0
100
AcDbRotatedDimension
1001
ACAD
1000
DSTYLE
1002
{
1070
   270
1070
     2
1070
     6
1000
EX_NORM
1070
     7
1000
EX_NORM
1070
    41
1040
44.99999618530273
1070
    42
1040
10.49999982118607
1070
    44
1040
15.0
1070
    73
1070
     0
1070
    74
1070
     0
1070
    75
1070
     0
1070
    76
1070
     0
1070
    77
1070
     1
1070
    78
1070
     8
1070
   140
1040
59.99999618530273
1070
   147
1040
0.0
1070
   173
1070
     1
1070
   176
1070
     3
1070
   177
1070
     3
1070
   178
1070
     2
1070
   271
1070
     2
1070
   277
1070
     2
1070
   279
1070
     2
1070
   280
1070
     0
1070
   287
1070
     5
1070
   340
1005
123
1002
}
  0
DIMENSION
  5
5A6
330
1F
100
AcDbEntity
  8
寸法
  6
CONTINUOUS
 62
     3
100
AcDbDimension
  2
*D26
 10
1204.999999999999
 20
2838.0
 30
0.0
 11
904.9999999999993
 21
2873.249999910593
 31
0.0
 70
   160
  3
ISO-25
100
AcDbAlignedDimension
 13
604.9999999999993
 23
2691.0
 33
0.0
 14
1204.999999999999
 24
2691.0
 34
0.0
100
AcDbRotatedDimension
1001
ACAD
1000
DSTYLE
1002
{
1070
   270
1070
     2
1070
     6
1000
EX_NORM
1070
     7
1000
EX_NORM
1070
    41
1040
44.99999618530273
1070
    42
1040
10.49999982118607
1070
    44
1040
15.0
1070
    73
1070
     0
1070
    74
1070
     0
1070
    75
1070
     0
1070
    76
1070
     0
1070
    77
1070
     1
1070
    78
1070
     8
1070
   140
1040
59.99999618530273
1070
   147
1040
0.0
1070
   173
1070
     1
1070
   176
1070
     3
1070
   177
1070
     3
1070
   178
1070
     2
1070
   271
1070
     2
1070
   277
1070
     2
1070
   279
1070
     2
1070
   280
1070
     0
1070
   287
1070
     5
1070
   340
1005
123
1002
}
  0
DIMENSION
  5
5B3
330
1F
100
AcDbEntity
  8
寸法
  6
CONTINUOUS
 62
     3
100
AcDbDimension
  2
*D27
 10
1574.999999999998
 20
2691.0
 30
0.0
 11
1539.750000089406
 21
1816.0
 31
0.0
 70
   160
  1
（1750）
  3
ISO-25
100
AcDbAlignedDimension
 13
1352.999999999999
 23
941.0
 33
0.0
 14
1204.999999999999
 24
2691.0
 34
0.0
 50
90.0
100
AcDbRotatedDimension
1001
ACAD
1000
DSTYLE
1002
{
1070
   270
1070
     2
1070
     6
1000
EX_NORM
1070
     7
1000
EX_NORM
1070
    41
1040
44.99999618530273
1070
    42
1040
10.49999982118607
1070
    44
1040
15.0
1070
    73
1070
     0
1070
    74
1070
     0
1070
    75
1070
     1
1070
    76
1070
     0
1070
    77
1070
     1
1070
    78
1070
     8
1070
   140
1040
59.99999618530273
1070
   147
1040
0.0
1070
   173
1070
     1
1070
   176
1070
     3
1070
   177
1070
     3
1070
   178
1070
     2
1070
   271
1070
     2
1070
   277
1070
     2
1070
   279
1070
     2
1070
   280
1070
     0
1070
   287
1070
     5
1070
   340
1005
123
1002
}
  0
DIMENSION
  5
5BF
330
1F
100
AcDbEntity
  8
寸法
  6
CONTINUOUS
 62
     3
100
AcDbDimension
  2
*D28
 10
2892.0
 20
2191.0
 30
0.0
 11
2856.750000089407
 21
1565.999999999997
 31
0.0
 70
   160
  1
（<>）
  3
ISO-25
100
AcDbAlignedDimension
 13
2456.999999999999
 23
941.0
 33
0.0
 14
2489.499999999999
 24
2191.0
 34
0.0
 50
90.0
100
AcDbRotatedDimension
1001
ACAD
1000
DSTYLE
1002
{
1070
   270
1070
     2
1070
     6
1000
EX_NORM
1070
     7
1000
EX_NORM
1070
    41
1040
44.99999618530273
1070
    42
1040
10.49999982118607
1070
    44
1040
15.0
1070
    73
1070
     0
1070
    74
1070
     0
1070
    75
1070
     0
1070
    76
1070
     0
1070
    77
1070
     1
1070
    78
1070
     8
1070
   140
1040
59.99999618530273
1070
   147
1040
0.0
1070
   173
1070
     1
1070
   176
1070
     3
1070
   177
1070
     3
1070
   178
1070
     2
1070
   271
1070
     2
1070
   277
1070
     2
1070
   279
1070
     2
1070
   280
1070
     0
1070
   287
1070
     5
1070
   340
1005
123
1002
}
  0
DIMENSION
  5
5CC
330
1F
100
AcDbEntity
  8
寸法
  6
CONTINUOUS
 62
     3
100
AcDbDimension
  2
*D29
 10
2456.999999999999
 20
2751.0
 30
0.0
 11
2322.299999999998
 21
2786.249999910593
 31
0.0
 70
   160
  1
38
  3
ISO-25
100
AcDbAlignedDimension
 13
2419.799999999998
 23
2692.2
 33
0.0
 14
2456.999999999999
 24
2690.0
 34
0.0
100
AcDbRotatedDimension
1001
ACAD
1000
DSTYLE
1002
{
1070
   270
1070
     2
1070
     6
1000
EX_NORM
1070
     7
1000
EX_NORM
1070
    41
1040
44.99999618530273
1070
    42
1040
10.49999982118607
1070
    44
1040
15.0
1070
    73
1070
     0
1070
    74
1070
     0
1070
    75
1070
     0
1070
    76
1070
     1
1070
    77
1070
     1
1070
    78
1070
     8
1070
   140
1040
59.99999618530273
1070
   147
1040
0.0
1070
   173
1070
     1
1070
   176
1070
     3
1070
   177
1070
     3
1070
   178
1070
     2
1070
   271
1070
     2
1070
   277
1070
     2
1070
   279
1070
     2
1070
   280
1070
     1
1070
   287
1070
     5
1070
   340
1005
123
1002
}
  0
LINE
  5
5DA
330
1F
100
AcDbEntity
  8
寸法
  6
CONTINUOUS
 62
     3
100
AcDbLine
 10
2499.999999821185
 20
2191.0
 30
0.0
 11
2907.0
 21
2190.999999999998
 31
0.0
  0
LINE
  5
5DB
330
1F
100
AcDbEntity
  8
寸法
  6
CONTINUOUS
 62
     3
100
AcDbLine
 10
2499.999999821185
 20
2630.9807621135
 30
0.0
 11
2907.0
 21
2630.980762113499
 31
0.0
  0
TEXT
  5
5DC
330
1F
100
AcDbEntity
  8
寸法
  6
CONTINUOUS
 62
     2
100
AcDbText
 10
2886.750000089407
 20
2247.490381056748
 30
0.0
 40
59.99999618530273
  1
４４０
 50
90.0
 41
1.029411764705882
  7
EXCADSTD
 72
     5
 11
2886.750000089407
 21
2397.490371520005
 31
0.0
100
AcDbText
  0
TEXT
  5
5DD
330
1F
100
AcDbEntity
  8
寸法
  6
CONTINUOUS
 62
     2
100
AcDbText
 10
2886.750000089407
 20
2389.990381056748
 30
0.0
 40
48.0
  1
（壁固定）
 50
90.00000000000014
 41
0.9655172413793105
  7
EXCADSTD
 72
     5
 11
2886.750000089407
 21
2581.990381056748
 31
0.0
100
AcDbText
  0
LINE
  5
5DE
330
1F
100
AcDbEntity
  8
寸法
  6
CONTINUOUS
 62
     3
100
AcDbLine
 10
2892.0
 20
2190.999999999998
 30
0.0
 11
2892.0
 21
2630.980762113499
 31
0.0
  0
LINE
  5
5DF
330
1F
100
AcDbEntity
  8
寸法
  6
CONTINUOUS
 62
     3
100
AcDbLine
 10
2884.5
 20
2235.999999999998
 30
0.0
 11
2892.0
 21
2190.999999999998
 31
0.0
  0
LINE
  5
5E0
330
1F
100
AcDbEntity
  8
寸法
  6
CONTINUOUS
 62
     3
100
AcDbLine
 10
2892.0
 20
2190.999999999998
 30
0.0
 11
2899.5
 21
2235.999999999998
 31
0.0
  0
LINE
  5
5E1
330
1F
100
AcDbEntity
  8
寸法
  6
CONTINUOUS
 62
     3
100
AcDbLine
 10
2899.5
 20
2585.980762113499
 30
0.0
 11
2892.0
 21
2630.980762113499
 31
0.0
  0
LINE
  5
5E2
330
1F
100
AcDbEntity
  8
寸法
  6
CONTINUOUS
 62
     3
100
AcDbLine
 10
2892.0
 20
2630.980762113499
 30
0.0
 11
2884.5
 21
2585.980762113499
 31
0.0
  0
DIMENSION
  5
5E3
330
1F
100
AcDbEntity
  8
寸法
  6
CONTINUOUS
 62
     3
100
AcDbDimension
  2
*D30
 10
2892.0
 20
2630.9807621135
 30
0.0
 11
2856.750000089409
 21
2788.499999999998
 31
0.0
 70
   160
  1
60
  3
ISO-25
100
AcDbAlignedDimension
 13
2444.499999999999
 23
2691.0
 33
0.0
 14
2489.499999999999
 24
2630.9807621135
 34
0.0
 50
90.0
100
AcDbRotatedDimension
1001
ACAD
1000
DSTYLE
1002
{
1070
   270
1070
     2
1070
     6
1000
EX_NORM
1070
     7
1000
EX_NORM
1070
    41
1040
44.99999618530273
1070
    42
1040
10.49999982118607
1070
    44
1040
15.0
1070
    73
1070
     0
1070
    74
1070
     0
1070
    75
1070
     0
1070
    76
1070
     0
1070
    77
1070
     1
1070
    78
1070
     8
1070
   140
1040
59.99999618530273
1070
   147
1040
0.0
1070
   173
1070
     1
1070
   176
1070
     3
1070
   177
1070
     3
1070
   178
1070
     2
1070
   271
1070
     2
1070
   277
1070
     2
1070
   279
1070
     2
1070
   280
1070
     1
1070
   287
1070
     5
1070
   340
1005
123
1002
}
  0
ENDSEC
  0
SECTION
  2
OBJECTS
  0
DICTIONARY
  5
C
330
0
100
AcDbDictionary
  3
ACAD_GROUP
350
D
  3
ACAD_LAYOUT
350
1A
  3
ACAD_MATERIAL
350
3B
  3
ACAD_MLEADERSTYLE
350
614
  3
ACAD_MLINESTYLE
350
17
  3
ACAD_PLOTSETTINGS
350
19
  3
ACAD_VISUALSTYLE
350
2A
  3
ACDBHEADERROUNDTRIPXREC
350
5F2
  3
ACDBVARIABLEDICTIONARY
350
612
  0
DICTIONARY
  5
D
102
{ACAD_REACTORS
330
C
102
}
330
C
100
AcDbDictionary
  0
DICTIONARY
  5
1A
102
{ACAD_REACTORS
330
C
102
}
330
C
100
AcDbDictionary
  0
DICTIONARY
  5
3B
102
{ACAD_REACTORS
330
C
102
}
330
C
100
AcDbDictionary
  3
BYBLOCK
350
3D
  3
BYLAYER
350
3C
  3
GLOBAL
350
3E
  0
DICTIONARY
  5
614
102
{ACAD_REACTORS
330
C
102
}
330
C
100
AcDbDictionary
  0
DICTIONARY
  5
17
102
{ACAD_REACTORS
330
C
102
}
330
C
100
AcDbDictionary
  3
STANDARD
350
18
  0
DICTIONARY
  5
19
102
{ACAD_REACTORS
330
C
102
}
330
C
100
AcDbDictionary
  0
DICTIONARY
  5
2A
102
{ACAD_REACTORS
330
C
102
}
330
C
100
AcDbDictionary
  3
2DWIREFRAME
350
2F
  3
3D_HIDDEN
350
31
  3
3DWIREFRAME
350
30
  3
BASIC
350
32
  3
BRIGHTEN
350
36
  3
COLORCHANGE
350
3A
  3
CONCEPTUAL
350
34
  3
DIM
350
35
  3
FACEPATTERN
350
39
  3
FLAT
350
2B
  3
FLATWITHEDGES
350
2C
  3
GOURAUD
350
2D
  3
GOURAUDWITHEDGES
350
2E
  3
LINEPATTERN
350
38
  3
REALISTIC
350
33
  3
THICKEN
350
37
  0
DICTIONARY
  5
5F2
102
{ACAD_REACTORS
330
C
102
}
330
C
100
AcDbDictionary
  3
CEPSNTYPE
350
5FB
  3
DIMSTYLEDATA
350
611
  3
FINGERPRINTGUID
350
5FC
  3
HYPERLINKBASE
350
5F5
  3
INSUNITS
350
5FA
  3
LAYOUTDICT
350
5F7
  3
LWETCUNION
350
5F9
  3
PLOTSETDICT
350
5F8
  3
PSVPSCALE
350
5FE
  3
PUCSBASE
350
601
  3
PUCSORGBACK
350
607
  3
PUCSORGBOTTOM
350
603
  3
PUCSORGFRONT
350
606
  3
PUCSORGLEFT
350
604
  3
PUCSORGRIGHT
350
605
  3
PUCSORGTOP
350
602
  3
PUCSORTHOREF
350
5FF
  3
PUCSORTHOVIEW
350
600
  3
STYLESHEET
350
5F6
  3
TSTACKALIGN
350
5F3
  3
TSTACKSIZE
350
5F4
  3
UCSBASE
350
60A
  3
UCSORGBACK
350
610
  3
UCSORGBOTTOM
350
60C
  3
UCSORGFRONT
350
60F
  3
UCSORGLEFT
350
60D
  3
UCSORGRIGHT
350
60E
  3
UCSORGTOP
350
60B
  3
UCSORTHOREF
350
608
  3
UCSORTHOVIEW
350
609
  3
VERSIONGUID
350
5FD
  0
DICTIONARY
  5
612
102
{ACAD_REACTORS
330
C
102
}
330
C
100
AcDbDictionary
  3
DIMASSOC
350
617
  3
HIDETEXT
350
618
  3
PSOLHEIGHT
350
616
  3
PSOLWIDTH
350
615
  0
MATERIAL
  5
3D
102
{ACAD_REACTORS
330
3B
102
}
102
{ACAD_XDICTIONARY
360
61B
102
}
330
3B
100
AcDbMaterial
  1
ByBlock
  0
MATERIAL
  5
3C
102
{ACAD_REACTORS
330
3B
102
}
102
{ACAD_XDICTIONARY
360
619
102
}
330
3B
100
AcDbMaterial
  1
ByLayer
  0
MATERIAL
  5
3E
102
{ACAD_REACTORS
330
3B
102
}
102
{ACAD_XDICTIONARY
360
61D
102
}
330
3B
100
AcDbMaterial
  1
Global
  0
MLINESTYLE
  5
18
102
{ACAD_REACTORS
330
17
102
}
330
17
100
AcDbMlineStyle
  2
Standard
 70
     0
  3

 62
   256
 51
90.0
 52
90.0
 71
     2
 49
0.5
 62
   256
  6
BYLAYER
 49
-0.5
 62
   256
  6
BYLAYER
  0
ACAD_PROXY_OBJECT
  5
2F
102
{ACAD_REACTORS
330
2A
102
}
330
2A
100
AcDbProxyObject
 90
      499
 91
      501
 93
      436
310
42CC9915DA5C99599C985B595049028333333333333E3BF0000000000000FB0107901411070040501600405405064090741402480A0340
1001
ACAD
1000
AcDbSavedByObjectVersion
1070
     0
  0
ACAD_PROXY_OBJECT
  5
31
102
{ACAD_REACTORS
330
2A
102
}
330
2A
100
AcDbProxyObject
 90
      499
 91
      501
 93
      500
310
424CD108121A5919195B90640502408333333333333E3BF0000000000000FB01079024090700405020000000000001110200405405064090740C02480A0340
1001
ACAD
1000
AcDbSavedByObjectVersion
1070
     0
  0
ACAD_PROXY_OBJECT
  5
30
102
{ACAD_REACTORS
330
2A
102
}
330
2A
100
AcDbProxyObject
 90
      499
 91
      501
 93
      436
310
42CCD915DA5C99599C985B595059028333333333333E3BF0000000000000FB0107901411070040501600405405064090741402480A0340
1001
ACAD
1000
AcDbSavedByObjectVersion
1070
     0
  0
ACAD_PROXY_OBJECT
  5
32
102
{ACAD_REACTORS
330
2A
102
}
330
2A
100
AcDbProxyObject
 90
      499
 91
      501
 93
      388
310
4150985CDA58D07406404333333333333E3BF0000000000000FB0107A41107004050150841D405064090741402480A0350
1001
ACAD
1000
AcDbSavedByObjectVersion
1070
     0
  0
ACAD_PROXY_OBJECT
  5
36
102
{ACAD_REACTORS
330
2A
102
}
330
2A
100
AcDbProxyObject
 90
      499
 91
      501
 93
      428
310
42109C9A59DA1D195B90C409028333333333333E3BF0000000000000FB010790141107004050150841D405064090741402480A029950
1001
ACAD
1000
AcDbSavedByObjectVersion
1070
     0
  0
ACAD_PROXY_OBJECT
  5
3A
102
{ACAD_REACTORS
330
2A
102
}
330
2A
100
AcDbProxyObject
 90
      499
 91
      501
 93
      452
310
42D0DBDB1BDC90DA185B99D95104090240C333333333333E3BF0000000000000FB0108901411070040501508421405064090741402480A0350
1001
ACAD
1000
AcDbSavedByObjectVersion
1070
     0
  0
ACAD_PROXY_OBJECT
  5
34
102
{ACAD_REACTORS
330
2A
102
}
330
2A
100
AcDbProxyObject
 90
      499
 91
      501
 93
      500
310
4290DBDB98D95C1D1D585B10940D028333333333333E3BF0000000000000FB0107902409070040501000000000000111010841D405064090740C02480A0340
1001
ACAD
1000
AcDbSavedByObjectVersion
1070
     0
  0
ACAD_PROXY_OBJECT
  5
35
102
{ACAD_REACTORS
330
2A
102
}
330
2A
100
AcDbProxyObject
 90
      499
 91
      501
 93
      412
310
40D11A5B50B409028333333333333E3BF0000000000000FB010790141107004050150841D405064090741402480A02677FFFFFD0
1001
ACAD
1000
AcDbSavedByObjectVersion
1070
     0
  0
ACAD_PROXY_OBJECT
  5
39
102
{ACAD_REACTORS
330
2A
102
}
330
2A
100
AcDbProxyObject
 90
      499
 91
      501
 93
      444
310
42D19858D95C185D1D195C9B90F409028333333333333E3BF0000000000000FB010790141107004050150841D405064090741402480A0350
1001
ACAD
1000
AcDbSavedByObjectVersion
1070
     0
  0
ACAD_PROXY_OBJECT
  5
2B
102
{ACAD_REACTORS
330
2A
102
}
330
2A
100
AcDbProxyObject
 90
      499
 91
      501
 93
      388
310
41119B185D240901404333333333333E3BF0000000000000F9010740A41107004050150841D405064090741402480A1B50
1001
ACAD
1000
AcDbSavedByObjectVersion
1070
     0
  0
ACAD_PROXY_OBJECT
  5
2C
102
{ACAD_REACTORS
330
2A
102
}
330
2A
100
AcDbProxyObject
 90
      499
 91
      501
 93
      476
310
43519B185D15DA5D1A115919D95CD0140901404333333333333E3BF0000000000000F9010740901411070040501600405405064090741402480A1B50
1001
ACAD
1000
AcDbSavedByObjectVersion
1070
     0
  0
ACAD_PROXY_OBJECT
  5
2D
102
{ACAD_REACTORS
330
2A
102
}
330
2A
100
AcDbProxyObject
 90
      499
 91
      501
 93
      412
310
41D1DBDD5C985D5910240902404333333333333E3BF0000000000000F9010740A411070040501641D405064090741402480A1B50
1001
ACAD
1000
AcDbSavedByObjectVersion
1070
     0
  0
ACAD_PROXY_OBJECT
  5
2E
102
{ACAD_REACTORS
330
2A
102
}
330
2A
100
AcDbProxyObject
 90
      499
 91
      501
 93
      500
310
4411DBDD5C985D5915DA5D1A115919D95CD0340902404333333333333E3BF0000000000000F9010740901411070040501600405405064090741402480A1B50
1001
ACAD
1000
AcDbSavedByObjectVersion
1070
     0
  0
ACAD_PROXY_OBJECT
  5
38
102
{ACAD_REACTORS
330
2A
102
}
330
2A
100
AcDbProxyObject
 90
      499
 91
      501
 93
      444
310
42D31A5B995C185D1D195C9B90E409028333333333333E3BF0000000000000FB010790141107004050750841D405064090741402483A0350
1001
ACAD
1000
AcDbSavedByObjectVersion
1070
     0
  0
ACAD_PROXY_OBJECT
  5
33
102
{ACAD_REACTORS
330
2A
102
}
330
2A
100
AcDbProxyObject
 90
      499
 91
      501
 93
      420
310
425499585B1A5CDD1A58D08409028333333333333E3BF0000000000000FB01079019070040501508421405064090741402480A1B40
1001
ACAD
1000
AcDbSavedByObjectVersion
1070
     0
  0
ACAD_PROXY_OBJECT
  5
37
102
{ACAD_REACTORS
330
2A
102
}
330
2A
100
AcDbProxyObject
 90
      499
 91
      501
 93
      412
310
41D51A1A58DAD95B90D409028333333333333E3BF0000000000000FB010790141107004050150C41D405064090741402480A0350
1001
ACAD
1000
AcDbSavedByObjectVersion
1070
     0
  0
XRECORD
  5
5FB
102
{ACAD_REACTORS
330
5F2
102
}
330
5F2
100
AcDbXrecord
 90
        0
  0
XRECORD
  5
611
102
{ACAD_REACTORS
330
5F2
102
}
330
5F2
100
AcDbXrecord
1000
DSTYLE
1002
{
1070
   340
340
11
1002
}
  0
XRECORD
  5
5FC
102
{ACAD_REACTORS
330
5F2
102
}
330
5F2
100
AcDbXrecord
  1
{BB5B5026-834B-4FFD-A1AC-970157264717}
  0
XRECORD
  5
5F5
102
{ACAD_REACTORS
330
5F2
102
}
330
5F2
100
AcDbXrecord
  1

  0
XRECORD
  5
5FA
102
{ACAD_REACTORS
330
5F2
102
}
330
5F2
100
AcDbXrecord
 90
        4
  0
XRECORD
  5
5F7
102
{ACAD_REACTORS
330
5F2
102
}
330
5F2
100
AcDbXrecord
340
1A
  0
XRECORD
  5
5F9
102
{ACAD_REACTORS
330
5F2
102
}
330
5F2
100
AcDbXrecord
 90
    10781
  0
XRECORD
  5
5F8
102
{ACAD_REACTORS
330
5F2
102
}
330
5F2
100
AcDbXrecord
340
19
  0
XRECORD
  5
5FE
102
{ACAD_REACTORS
330
5F2
102
}
330
5F2
100
AcDbXrecord
 40
0.0
  0
XRECORD
  5
601
102
{ACAD_REACTORS
330
5F2
102
}
330
5F2
100
AcDbXrecord
340
0
  0
XRECORD
  5
607
102
{ACAD_REACTORS
330
5F2
102
}
330
5F2
100
AcDbXrecord
 10
0.0
 20
0.0
 30
0.0
  0
XRECORD
  5
603
102
{ACAD_REACTORS
330
5F2
102
}
330
5F2
100
AcDbXrecord
 10
0.0
 20
0.0
 30
0.0
  0
XRECORD
  5
606
102
{ACAD_REACTORS
330
5F2
102
}
330
5F2
100
AcDbXrecord
 10
0.0
 20
0.0
 30
0.0
  0
XRECORD
  5
604
102
{ACAD_REACTORS
330
5F2
102
}
330
5F2
100
AcDbXrecord
 10
0.0
 20
0.0
 30
0.0
  0
XRECORD
  5
605
102
{ACAD_REACTORS
330
5F2
102
}
330
5F2
100
AcDbXrecord
 10
0.0
 20
0.0
 30
0.0
  0
XRECORD
  5
602
102
{ACAD_REACTORS
330
5F2
102
}
330
5F2
100
AcDbXrecord
 10
0.0
 20
0.0
 30
0.0
  0
XRECORD
  5
5FF
102
{ACAD_REACTORS
330
5F2
102
}
330
5F2
100
AcDbXrecord
340
0
  0
XRECORD
  5
600
102
{ACAD_REACTORS
330
5F2
102
}
330
5F2
100
AcDbXrecord
 70
     0
  0
XRECORD
  5
5F6
102
{ACAD_REACTORS
330
5F2
102
}
330
5F2
100
AcDbXrecord
  1

  0
XRECORD
  5
5F3
102
{ACAD_REACTORS
330
5F2
102
}
330
5F2
100
AcDbXrecord
 90
        1
  0
XRECORD
  5
5F4
102
{ACAD_REACTORS
330
5F2
102
}
330
5F2
100
AcDbXrecord
 90
       70
  0
XRECORD
  5
60A
102
{ACAD_REACTORS
330
5F2
102
}
330
5F2
100
AcDbXrecord
340
0
  0
XRECORD
  5
610
102
{ACAD_REACTORS
330
5F2
102
}
330
5F2
100
AcDbXrecord
 10
0.0
 20
0.0
 30
0.0
  0
XRECORD
  5
60C
102
{ACAD_REACTORS
330
5F2
102
}
330
5F2
100
AcDbXrecord
 10
0.0
 20
0.0
 30
0.0
  0
XRECORD
  5
60F
102
{ACAD_REACTORS
330
5F2
102
}
330
5F2
100
AcDbXrecord
 10
0.0
 20
0.0
 30
0.0
  0
XRECORD
  5
60D
102
{ACAD_REACTORS
330
5F2
102
}
330
5F2
100
AcDbXrecord
 10
0.0
 20
0.0
 30
0.0
  0
XRECORD
  5
60E
102
{ACAD_REACTORS
330
5F2
102
}
330
5F2
100
AcDbXrecord
 10
0.0
 20
0.0
 30
0.0
  0
XRECORD
  5
60B
102
{ACAD_REACTORS
330
5F2
102
}
330
5F2
100
AcDbXrecord
 10
0.0
 20
0.0
 30
0.0
  0
XRECORD
  5
608
102
{ACAD_REACTORS
330
5F2
102
}
330
5F2
100
AcDbXrecord
340
0
  0
XRECORD
  5
609
102
{ACAD_REACTORS
330
5F2
102
}
330
5F2
100
AcDbXrecord
 70
     0
  0
XRECORD
  5
5FD
102
{ACAD_REACTORS
330
5F2
102
}
330
5F2
100
AcDbXrecord
  1
{FAEB1C32-E019-11D5-929B-00C0DF256EC4}
  0
DICTIONARYVAR
  5
617
102
{ACAD_REACTORS
330
612
102
}
330
612
100
DictionaryVariables
280
     0
  1
2
  0
DICTIONARYVAR
  5
618
102
{ACAD_REACTORS
330
612
102
}
330
612
100
DictionaryVariables
280
     0
  1
1
  0
DICTIONARYVAR
  5
616
102
{ACAD_REACTORS
330
612
102
}
330
612
100
DictionaryVariables
280
     0
  1
80.000000
  0
DICTIONARYVAR
  5
615
102
{ACAD_REACTORS
330
612
102
}
330
612
100
DictionaryVariables
280
     0
  1
5.000000
  0
DICTIONARY
  5
61B
330
3D
100
AcDbDictionary
280
     1
  3
ACAD_XREC_ROUNDTRIP
360
61C
  0
DICTIONARY
  5
619
330
3C
100
AcDbDictionary
280
     1
  3
ACAD_XREC_ROUNDTRIP
360
61A
  0
DICTIONARY
  5
61D
330
3E
100
AcDbDictionary
280
     1
  3
ACAD_XREC_ROUNDTRIP
360
61E
  0
XRECORD
  5
61C
102
{ACAD_REACTORS
330
61B
102
}
330
61B
100
AcDbXrecord
102
MATERIAL
148
0.0
149
0.0
149
0.0
 93
        0
 94
      127
282
     0
 72
     1
 77
     1
171
     1
175
     1
179
     1
273
     0
  0
XRECORD
  5
61A
102
{ACAD_REACTORS
330
619
102
}
330
619
100
AcDbXrecord
102
MATERIAL
148
0.0
149
0.0
149
0.0
 93
        0
 94
      127
282
     0
 72
     1
 77
     1
171
     1
175
     1
179
     1
273
     0
  0
XRECORD
  5
61E
102
{ACAD_REACTORS
330
61D
102
}
330
61D
100
AcDbXrecord
102
MATERIAL
148
0.0
149
0.0
149
0.0
 93
        0
 94
      127
282
     0
 72
     1
 77
     1
171
     1
175
     1
179
     1
273
     0
  0
ENDSEC
  0
EOF
