  0
SECTION
  2
HEADER
  9
$ACADVER
  1
AC1014
  9
$ACADMAINTVER
 70
     9
  9
$DWGCODEPAGE
  3
ANSI_932
  9
$INSBASE
 10
0.0
 20
0.0
 30
0.0
  9
$EXTMIN
 10
0.0000000000000092
 20
13.5
 30
0.0
  9
$EXTMAX
 10
200.0
 20
288.5
 30
0.0
  9
$LIMMIN
 10
0.0
 20
0.0
  9
$LIMMAX
 10
210.0
 20
297.0
  9
$ORTHOMODE
 70
     0
  9
$REGENMODE
 70
     1
  9
$FILLMODE
 70
     1
  9
$QTEXTMODE
 70
     0
  9
$MIRRTEXT
 70
     1
  9
$DRAGMODE
 70
     2
  9
$LTSCALE
 40
1.0
  9
$OSMODE
 70
    37
  9
$ATTMODE
 70
     1
  9
$TEXTSIZE
 40
2.5
  9
$TRACEWID
 40
1.0
  9
$TEXTSTYLE
  7
STANDARD
  9
$CLAYER
  8
枠_表
  9
$CELTYPE
  6
BYLAYER
  9
$CECOLOR
 62
   256
  9
$CELTSCALE
 40
1.0
  9
$DELOBJ
 70
     1
  9
$DISPSILH
 70
     0
  9
$DIMSCALE
 40
1.0
  9
$DIMASZ
 40
2.5
  9
$DIMEXO
 40
0.625
  9
$DIMDLI
 40
3.75
  9
$DIMRND
 40
0.0
  9
$DIMDLE
 40
0.0
  9
$DIMEXE
 40
1.25
  9
$DIMTP
 40
0.0
  9
$DIMTM
 40
0.0
  9
$DIMTXT
 40
2.5
  9
$DIMCEN
 40
2.5
  9
$DIMTSZ
 40
0.0
  9
$DIMTOL
 70
     0
  9
$DIMLIM
 70
     0
  9
$DIMTIH
 70
     0
  9
$DIMTOH
 70
     0
  9
$DIMSE1
 70
     0
  9
$DIMSE2
 70
     0
  9
$DIMTAD
 70
     1
  9
$DIMZIN
 70
     8
  9
$DIMBLK
  1

  9
$DIMASO
 70
     1
  9
$DIMSHO
 70
     1
  9
$DIMPOST
  1

  9
$DIMAPOST
  1

  9
$DIMALT
 70
     0
  9
$DIMALTD
 70
     3
  9
$DIMALTF
 40
0.03937007874016
  9
$DIMLFAC
 40
1.0
  9
$DIMTOFL
 70
     1
  9
$DIMTVP
 40
0.0
  9
$DIMTIX
 70
     0
  9
$DIMSOXD
 70
     0
  9
$DIMSAH
 70
     0
  9
$DIMBLK1
  1

  9
$DIMBLK2
  1

  9
$DIMSTYLE
  2
ISO-25
  9
$DIMCLRD
 70
     0
  9
$DIMCLRE
 70
     0
  9
$DIMCLRT
 70
     0
  9
$DIMTFAC
 40
1.0
  9
$DIMGAP
 40
0.625
  9
$DIMJUST
 70
     0
  9
$DIMSD1
 70
     0
  9
$DIMSD2
 70
     0
  9
$DIMTOLJ
 70
     0
  9
$DIMTZIN
 70
     8
  9
$DIMALTZ
 70
     0
  9
$DIMALTTZ
 70
     0
  9
$DIMFIT
 70
     3
  9
$DIMUPT
 70
     0
  9
$DIMUNIT
 70
     2
  9
$DIMDEC
 70
     2
  9
$DIMTDEC
 70
     2
  9
$DIMALTU
 70
     2
  9
$DIMALTTD
 70
     3
  9
$DIMTXSTY
  7
STANDARD
  9
$DIMAUNIT
 70
     0
  9
$LUNITS
 70
     2
  9
$LUPREC
 70
     4
  9
$SKETCHINC
 40
1.0
  9
$FILLETRAD
 40
10.0
  9
$AUNITS
 70
     0
  9
$AUPREC
 70
     0
  9
$MENU
  1
.
  9
$ELEVATION
 40
0.0
  9
$PELEVATION
 40
0.0
  9
$THICKNESS
 40
0.0
  9
$LIMCHECK
 70
     0
  9
$CHAMFERA
 40
10.0
  9
$CHAMFERB
 40
10.0
  9
$CHAMFERC
 40
20.0
  9
$CHAMFERD
 40
0.0
  9
$SKPOLY
 70
     0
  9
$TDCREATE
 40
2457659.499268229
  9
$TDUPDATE
 40
2457659.499268403
  9
$TDINDWG
 40
0.0000000116
  9
$TDUSRTIMER
 40
0.0000000116
  9
$USRTIMER
 70
     1
  9
$ANGBASE
 50
0.0
  9
$ANGDIR
 70
     0
  9
$PDMODE
 70
     0
  9
$PDSIZE
 40
0.0
  9
$PLINEWID
 40
0.0
  9
$COORDS
 70
     1
  9
$SPLFRAME
 70
     0
  9
$SPLINETYPE
 70
     6
  9
$SPLINESEGS
 70
     8
  9
$ATTDIA
 70
     0
  9
$ATTREQ
 70
     1
  9
$HANDLING
 70
     1
  9
$HANDSEED
  5
6D0
  9
$SURFTAB1
 70
     6
  9
$SURFTAB2
 70
     6
  9
$SURFTYPE
 70
     6
  9
$SURFU
 70
     6
  9
$SURFV
 70
     6
  9
$UCSNAME
  2

  9
$UCSORG
 10
0.0
 20
0.0
 30
0.0
  9
$UCSXDIR
 10
1.0
 20
0.0
 30
0.0
  9
$UCSYDIR
 10
0.0
 20
1.0
 30
0.0
  9
$PUCSNAME
  2

  9
$PUCSORG
 10
0.0
 20
0.0
 30
0.0
  9
$PUCSXDIR
 10
1.0
 20
0.0
 30
0.0
  9
$PUCSYDIR
 10
0.0
 20
1.0
 30
0.0
  9
$USERI1
 70
     0
  9
$USERI2
 70
     0
  9
$USERI3
 70
     0
  9
$USERI4
 70
     0
  9
$USERI5
 70
     0
  9
$USERR1
 40
0.0
  9
$USERR2
 40
0.0
  9
$USERR3
 40
0.0
  9
$USERR4
 40
0.0
  9
$USERR5
 40
0.0
  9
$WORLDVIEW
 70
     1
  9
$SHADEDGE
 70
     3
  9
$SHADEDIF
 70
    70
  9
$TILEMODE
 70
     1
  9
$MAXACTVP
 70
    64
  9
$PINSBASE
 10
0.0
 20
0.0
 30
0.0
  9
$PLIMCHECK
 70
     0
  9
$PEXTMIN
 10
1.000000000000000E+20
 20
1.000000000000000E+20
 30
1.000000000000000E+20
  9
$PEXTMAX
 10
-1.000000000000000E+20
 20
-1.000000000000000E+20
 30
-1.000000000000000E+20
  9
$PLIMMIN
 10
0.0
 20
0.0
  9
$PLIMMAX
 10
420.0
 20
297.0
  9
$UNITMODE
 70
     0
  9
$VISRETAIN
 70
     1
  9
$PLINEGEN
 70
     0
  9
$PSLTSCALE
 70
     1
  9
$TREEDEPTH
 70
  3020
  9
$PICKSTYLE
 70
     1
  9
$CMLSTYLE
  2
STANDARD
  9
$CMLJUST
 70
     0
  9
$CMLSCALE
 40
20.0
  9
$PROXYGRAPHICS
 70
     1
  9
$MEASUREMENT
 70
     1
  0
ENDSEC
  0
SECTION
  2
CLASSES
  0
CLASS
  1
ACDBDICTIONARYWDFLT
  2
AcDbDictionaryWithDefault
  3
ObjectDBX Classes
 90
        0
280
     0
281
     0
  0
CLASS
  1
VISUALSTYLE
  2
AcDbVisualStyle
  3
ObjectDBX Classes
 90
     4095
280
     0
281
     0
  0
CLASS
  1
MATERIAL
  2
AcDbMaterial
  3
ObjectDBX Classes
 90
     1153
280
     0
281
     0
  0
CLASS
  1
SUN
  2
AcDbSun
  3
SCENEOE
 90
     1024
280
     0
281
     0
  0
CLASS
  1
DICTIONARYVAR
  2
AcDbDictionaryVar
  3
ObjectDBX Classes
 90
        0
280
     0
281
     0
  0
CLASS
  1
XRECORD
  2
AcDbXrecord
  3
AutoCAD 2000
 90
        0
280
     0
281
     0
  0
CLASS
  1
LWPOLYLINE
  2
AcDbPolyline
  3
AutoCAD 2000
 90
        0
280
     0
281
     1
  0
CLASS
  1
HATCH
  2
AcDbHatch
  3
AutoCAD 2000
 90
        0
280
     0
281
     1
  0
CLASS
  1
ACDBPLACEHOLDER
  2
AcDbPlaceHolder
  3
ObjectDBX Classes
 90
        0
280
     0
281
     0
  0
CLASS
  1
LAYOUT
  2
AcDbLayout
  3
ObjectDBX Classes
 90
        0
280
     0
281
     0
  0
ENDSEC
  0
SECTION
  2
TABLES
  0
TABLE
  2
VPORT
  5
8
330
0
100
AcDbSymbolTable
 70
     1
  0
VPORT
  5
29
330
8
100
AcDbSymbolTableRecord
100
AcDbViewportTableRecord
  2
*ACTIVE
 70
     0
 10
0.0
 20
0.0
 11
1.0
 21
1.0
 12
1500.0
 22
2265.0
 13
0.0
 23
0.0
 14
10.0
 24
10.0
 15
10.0
 25
10.0
 16
0.0
 26
0.0
 36
1.0
 17
0.0
 27
0.0
 37
0.0
 40
4125.0
 41
0.7272727272727274
 42
50.0
 43
0.0
 44
0.0
 50
0.0
 51
0.0
 71
     0
 72
  1000
 73
     1
 74
     3
 75
     0
 76
     0
 77
     0
 78
     0
  0
ENDTAB
  0
TABLE
  2
LTYPE
  5
5
330
0
100
AcDbSymbolTable
 70
     7
  0
LTYPE
  5
14
330
5
100
AcDbSymbolTableRecord
100
AcDbLinetypeTableRecord
  2
BYBLOCK
 70
     0
  3

 72
    65
 73
     0
 40
0.0
  0
LTYPE
  5
15
330
5
100
AcDbSymbolTableRecord
100
AcDbLinetypeTableRecord
  2
BYLAYER
 70
     0
  3

 72
    65
 73
     0
 40
0.0
  0
LTYPE
  5
16
330
5
100
AcDbSymbolTableRecord
100
AcDbLinetypeTableRecord
  2
CONTINUOUS
 70
     0
  3
Solid line
 72
    65
 73
     0
 40
0.0
  0
LTYPE
  5
40
330
5
100
AcDbSymbolTableRecord
100
AcDbLinetypeTableRecord
  2
EXLTYPE1
 70
     0
  3
破線
 72
    65
 73
     2
 40
3.0
 49
2.0
 74
     0
 49
-1.0
 74
     0
  0
LTYPE
  5
41
330
5
100
AcDbSymbolTableRecord
100
AcDbLinetypeTableRecord
  2
EXLTYPE2
 70
     0
  3
点線
 72
    65
 73
     2
 40
2.0
 49
1.0
 74
     0
 49
-1.0
 74
     0
  0
LTYPE
  5
42
330
5
100
AcDbSymbolTableRecord
100
AcDbLinetypeTableRecord
  2
EXLTYPE3
 70
     0
  3
一点鎖線
 72
    65
 73
     4
 40
10.0
 49
7.0
 74
     0
 49
-1.0
 74
     0
 49
1.0
 74
     0
 49
-1.0
 74
     0
  0
LTYPE
  5
43
330
5
100
AcDbSymbolTableRecord
100
AcDbLinetypeTableRecord
  2
EXLTYPE4
 70
     0
  3
二点鎖線
 72
    65
 73
     6
 40
12.0
 49
7.0
 74
     0
 49
-1.0
 74
     0
 49
1.0
 74
     0
 49
-1.0
 74
     0
 49
1.0
 74
     0
 49
-1.0
 74
     0
  0
LTYPE
  5
44
330
5
100
AcDbSymbolTableRecord
100
AcDbLinetypeTableRecord
  2
EXLTYPE5
 70
     0
  3
三点鎖線
 72
    65
 73
     8
 40
37.0
 49
30.0
 74
     0
 49
-1.0
 74
     0
 49
1.0
 74
     0
 49
-1.0
 74
     0
 49
1.0
 74
     0
 49
-1.0
 74
     0
 49
1.0
 74
     0
 49
-1.0
 74
     0
  0
LTYPE
  5
45
330
5
100
AcDbSymbolTableRecord
100
AcDbLinetypeTableRecord
  2
EXLTYPE6
 70
     0
  3
四点鎖線
 72
    65
 73
    10
 40
39.0
 49
30.0
 74
     0
 49
-1.0
 74
     0
 49
1.0
 74
     0
 49
-1.0
 74
     0
 49
1.0
 74
     0
 49
-1.0
 74
     0
 49
1.0
 74
     0
 49
-1.0
 74
     0
 49
1.0
 74
     0
 49
-1.0
 74
     0
  0
ENDTAB
  0
TABLE
  2
LAYER
  5
2
330
0
100
AcDbSymbolTable
 70
     7
  0
LAYER
  5
10
330
2
100
AcDbSymbolTableRecord
100
AcDbLayerTableRecord
  2
0
 70
     0
 62
     7
  6
CONTINUOUS
  0
LAYER
  5
48
330
2
100
AcDbSymbolTableRecord
100
AcDbLayerTableRecord
  2
枠_表
 70
     0
 62
     7
  6
CONTINUOUS
  0
LAYER
  5
49
330
2
100
AcDbSymbolTableRecord
100
AcDbLayerTableRecord
  2
化粧台
 70
     0
 62
     7
  6
CONTINUOUS
  0
LAYER
  5
4A
330
2
100
AcDbSymbolTableRecord
100
AcDbLayerTableRecord
  2
鏡台
 70
     0
 62
     7
  6
CONTINUOUS
  0
LAYER
  5
4B
330
2
100
AcDbSymbolTableRecord
100
AcDbLayerTableRecord
  2
付属金具
 70
     0
 62
     7
  6
CONTINUOUS
  0
LAYER
  5
4C
330
2
100
AcDbSymbolTableRecord
100
AcDbLayerTableRecord
  2
寸法
 70
     0
 62
     7
  6
CONTINUOUS
  0
LAYER
  5
E9
330
2
100
AcDbSymbolTableRecord
100
AcDbLayerTableRecord
  2
DEFPOINTS
 70
     0
 62
     7
  6
CONTINUOUS
  0
ENDTAB
  0
TABLE
  2
STYLE
  5
3
330
0
100
AcDbSymbolTable
 70
     5
  0
STYLE
  5
11
330
3
100
AcDbSymbolTableRecord
100
AcDbTextStyleTableRecord
  2
STANDARD
 70
     0
 40
0.0
 41
1.0
 50
0.0
 71
     0
 42
2.5
  3
monotxt
  4
extfont
  0
STYLE
  5
46
330
3
100
AcDbSymbolTableRecord
100
AcDbTextStyleTableRecord
  2
EXCADSTD
 70
     0
 40
0.0
 41
1.0
 50
0.0
 71
     0
 42
0.2
  3
monotxt
  4
extfont
  0
STYLE
  5
47
330
3
100
AcDbSymbolTableRecord
100
AcDbTextStyleTableRecord
  2
EXCADVERT
 70
     4
 40
0.0
 41
1.0
 50
0.0
 71
     0
 42
0.286885
  3
monotxt
  4
extfont
  0
STYLE
  5
D9
330
3
100
AcDbSymbolTableRecord
100
AcDbTextStyleTableRecord
  2
EXCADTTF1
 70
     0
 40
0.0
 41
1.0
 50
0.0
 71
     0
 42
0.2
  3
MSGOTHIC.TTC
  4

1001
ACAD
1000
MS Gothic
1071
    32817
  0
STYLE
  5
E7
330
3
100
AcDbSymbolTableRecord
100
AcDbTextStyleTableRecord
  2
EXCADDIM1
 70
     0
 40
0.0
 41
0.84
 50
0.0
 71
     0
 42
0.2
  3
monotxt
  4
extfont
  0
ENDTAB
  0
TABLE
  2
VIEW
  5
6
330
0
100
AcDbSymbolTable
 70
     0
  0
ENDTAB
  0
TABLE
  2
UCS
  5
7
330
0
100
AcDbSymbolTable
 70
     0
  0
ENDTAB
  0
TABLE
  2
APPID
  5
9
330
0
100
AcDbSymbolTable
 70
     1
  0
APPID
  5
12
330
9
100
AcDbSymbolTableRecord
100
AcDbRegAppTableRecord
  2
ACAD
 70
     0
  0
ENDTAB
  0
TABLE
  2
DIMSTYLE
  5
A
330
0
100
AcDbSymbolTable
 70
     1
  0
DIMSTYLE
105
27
102
{ACAD_REACTORS
330
E8
330
F6
330
409
330
416
330
445
330
454
330
461
330
491
330
4A5
330
501
330
510
330
51C
330
528
330
535
330
544
330
59A
330
5A7
330
5B4
330
5C0
330
5CC
330
5DB
330
5E8
330
5F5
330
602
330
60F
330
61C
102
}
330
A
100
AcDbSymbolTableRecord
100
AcDbDimStyleTableRecord
  2
ISO-25
 70
     0
  3

  4

  5

  6

  7

 40
1.0
 41
2.5
 42
0.625
 43
3.75
 44
1.25
 45
0.0
 46
0.0
 47
0.0
 48
0.0
140
2.5
141
2.5
142
0.0
143
0.03937007874016
144
1.0
145
0.0
146
1.0
147
0.625
 71
     0
 72
     0
 73
     0
 74
     0
 75
     0
 76
     0
 77
     1
 78
     8
170
     0
171
     3
172
     1
173
     0
174
     0
175
     0
176
     0
177
     0
178
     0
270
     2
271
     2
272
     2
273
     2
274
     3
340
11
275
     0
280
     0
281
     0
282
     0
283
     0
284
     8
285
     0
286
     0
287
     5
288
     0
  0
ENDTAB
  0
TABLE
  2
BLOCK_RECORD
  5
1
330
0
100
AcDbSymbolTable
 70
    41
  0
BLOCK_RECORD
  5
1F
330
1
100
AcDbSymbolTableRecord
100
AcDbBlockTableRecord
  2
*MODEL_SPACE
  0
BLOCK_RECORD
  5
1B
330
1
100
AcDbSymbolTableRecord
100
AcDbBlockTableRecord
  2
*PAPER_SPACE
  0
BLOCK_RECORD
  5
4D
330
1
100
AcDbSymbolTableRecord
100
AcDbBlockTableRecord
  2
EX_NORM
  0
BLOCK_RECORD
  5
50
330
1
100
AcDbSymbolTableRecord
100
AcDbBlockTableRecord
  2
EX_BNORM
  0
BLOCK_RECORD
  5
53
330
1
100
AcDbSymbolTableRecord
100
AcDbBlockTableRecord
  2
EX_BCIR
  0
BLOCK_RECORD
  5
56
330
1
100
AcDbSymbolTableRecord
100
AcDbBlockTableRecord
  2
EX_RCIVIL
  0
BLOCK_RECORD
  5
59
330
1
100
AcDbSymbolTableRecord
100
AcDbBlockTableRecord
  2
EX_SLANT
  0
BLOCK_RECORD
  5
5C
330
1
100
AcDbSymbolTableRecord
100
AcDbBlockTableRecord
  2
EX_NONE
  0
BLOCK_RECORD
  5
5F
330
1
100
AcDbSymbolTableRecord
100
AcDbBlockTableRecord
  2
EX_CIVIL
  0
BLOCK_RECORD
  5
62
330
1
100
AcDbSymbolTableRecord
100
AcDbBlockTableRecord
  2
EX_WCIR
  0
BLOCK_RECORD
  5
65
330
1
100
AcDbSymbolTableRecord
100
AcDbBlockTableRecord
  2
EX_WCIR2
  0
BLOCK_RECORD
  5
68
330
1
100
AcDbSymbolTableRecord
100
AcDbBlockTableRecord
  2
EX_WNORM
  0
BLOCK_RECORD
  5
6B
330
1
100
AcDbSymbolTableRecord
100
AcDbBlockTableRecord
  2
EX_NNORM
  0
BLOCK_RECORD
  5
6E
330
1
100
AcDbSymbolTableRecord
100
AcDbBlockTableRecord
  2
EX_BBOX
  0
BLOCK_RECORD
  5
71
330
1
100
AcDbSymbolTableRecord
100
AcDbBlockTableRecord
  2
EX_WBOX
  0
BLOCK_RECORD
  5
74
330
1
100
AcDbSymbolTableRecord
100
AcDbBlockTableRecord
  2
EX_INTEGRAL
  0
BLOCK_RECORD
  5
EA
330
1
100
AcDbSymbolTableRecord
100
AcDbBlockTableRecord
  2
*D15
  0
BLOCK_RECORD
  5
F7
330
1
100
AcDbSymbolTableRecord
100
AcDbBlockTableRecord
  2
*D16
  0
BLOCK_RECORD
  5
40A
330
1
100
AcDbSymbolTableRecord
100
AcDbBlockTableRecord
  2
*D17
  0
BLOCK_RECORD
  5
417
330
1
100
AcDbSymbolTableRecord
100
AcDbBlockTableRecord
  2
*D18
  0
BLOCK_RECORD
  5
446
330
1
100
AcDbSymbolTableRecord
100
AcDbBlockTableRecord
  2
*D19
  0
BLOCK_RECORD
  5
455
330
1
100
AcDbSymbolTableRecord
100
AcDbBlockTableRecord
  2
*D20
  0
BLOCK_RECORD
  5
462
330
1
100
AcDbSymbolTableRecord
100
AcDbBlockTableRecord
  2
*D21
  0
BLOCK_RECORD
  5
492
330
1
100
AcDbSymbolTableRecord
100
AcDbBlockTableRecord
  2
*D22
  0
BLOCK_RECORD
  5
4A6
330
1
100
AcDbSymbolTableRecord
100
AcDbBlockTableRecord
  2
*D23
  0
BLOCK_RECORD
  5
502
330
1
100
AcDbSymbolTableRecord
100
AcDbBlockTableRecord
  2
*D24
  0
BLOCK_RECORD
  5
511
330
1
100
AcDbSymbolTableRecord
100
AcDbBlockTableRecord
  2
*D25
  0
BLOCK_RECORD
  5
51D
330
1
100
AcDbSymbolTableRecord
100
AcDbBlockTableRecord
  2
*D26
  0
BLOCK_RECORD
  5
529
330
1
100
AcDbSymbolTableRecord
100
AcDbBlockTableRecord
  2
*D27
  0
BLOCK_RECORD
  5
536
330
1
100
AcDbSymbolTableRecord
100
AcDbBlockTableRecord
  2
*D28
  0
BLOCK_RECORD
  5
545
330
1
100
AcDbSymbolTableRecord
100
AcDbBlockTableRecord
  2
*D29
  0
BLOCK_RECORD
  5
59B
330
1
100
AcDbSymbolTableRecord
100
AcDbBlockTableRecord
  2
*D30
  0
BLOCK_RECORD
  5
5A8
330
1
100
AcDbSymbolTableRecord
100
AcDbBlockTableRecord
  2
*D31
  0
BLOCK_RECORD
  5
5B5
330
1
100
AcDbSymbolTableRecord
100
AcDbBlockTableRecord
  2
*D32
  0
BLOCK_RECORD
  5
5C1
330
1
100
AcDbSymbolTableRecord
100
AcDbBlockTableRecord
  2
*D33
  0
BLOCK_RECORD
  5
5CD
330
1
100
AcDbSymbolTableRecord
100
AcDbBlockTableRecord
  2
*D34
  0
BLOCK_RECORD
  5
5DC
330
1
100
AcDbSymbolTableRecord
100
AcDbBlockTableRecord
  2
*D35
  0
BLOCK_RECORD
  5
5E9
330
1
100
AcDbSymbolTableRecord
100
AcDbBlockTableRecord
  2
*D36
  0
BLOCK_RECORD
  5
5F6
330
1
100
AcDbSymbolTableRecord
100
AcDbBlockTableRecord
  2
*D37
  0
BLOCK_RECORD
  5
603
330
1
100
AcDbSymbolTableRecord
100
AcDbBlockTableRecord
  2
*D38
  0
BLOCK_RECORD
  5
610
330
1
100
AcDbSymbolTableRecord
100
AcDbBlockTableRecord
  2
*D39
  0
BLOCK_RECORD
  5
61D
330
1
100
AcDbSymbolTableRecord
100
AcDbBlockTableRecord
  2
*D40
  0
ENDTAB
  0
ENDSEC
  0
SECTION
  2
BLOCKS
  0
BLOCK
  5
20
330
1F
100
AcDbEntity
  8
0
100
AcDbBlockBegin
  2
*MODEL_SPACE
 70
     0
 10
0.0
 20
0.0
 30
0.0
  3
*MODEL_SPACE
  1

  0
ENDBLK
  5
21
330
1F
100
AcDbEntity
  8
0
100
AcDbBlockEnd
  0
BLOCK
  5
1C
330
1B
100
AcDbEntity
 67
     1
  8
0
100
AcDbBlockBegin
  2
*PAPER_SPACE
 70
     0
 10
0.0
 20
0.0
 30
0.0
  3
*PAPER_SPACE
  1

  0
ENDBLK
  5
1D
330
1B
100
AcDbEntity
 67
     1
  8
0
100
AcDbBlockEnd
  0
BLOCK
  5
4E
330
4D
100
AcDbEntity
  8
0
100
AcDbBlockBegin
  2
EX_NORM
 70
     0
 10
0.0
 20
0.0
 30
0.0
  3
EX_NORM
  1

  0
LINE
  5
77
330
4D
100
AcDbEntity
  8
0
  6
CONTINUOUS
 62
     0
100
AcDbLine
 10
0.0
 20
0.0
 30
0.0
 11
-1.0
 21
0.0
 31
0.0
  0
LINE
  5
78
330
4D
100
AcDbEntity
  8
0
  6
CONTINUOUS
 62
     0
100
AcDbLine
 10
0.0
 20
0.0
 30
0.0
 11
-1.0
 21
0.166666667
 31
0.0
  0
LINE
  5
79
330
4D
100
AcDbEntity
  8
0
  6
CONTINUOUS
 62
     0
100
AcDbLine
 10
0.0
 20
0.0
 30
0.0
 11
-1.0
 21
-0.166666667
 31
0.0
  0
ENDBLK
  5
4F
330
4D
100
AcDbEntity
  8
0
100
AcDbBlockEnd
  0
BLOCK
  5
51
330
50
100
AcDbEntity
  8
0
100
AcDbBlockBegin
  2
EX_BNORM
 70
     0
 10
0.0
 20
0.0
 30
0.0
  3
EX_BNORM
  1

  0
LINE
  5
7A
330
50
100
AcDbEntity
  8
0
  6
CONTINUOUS
 62
     0
100
AcDbLine
 10
0.0
 20
0.0
 30
0.0
 11
-1.0
 21
0.0
 31
0.0
  0
LINE
  5
7B
330
50
100
AcDbEntity
  8
0
  6
CONTINUOUS
 62
     0
100
AcDbLine
 10
0.0
 20
0.0
 30
0.0
 11
-1.0
 21
0.166666667
 31
0.0
  0
LINE
  5
7C
330
50
100
AcDbEntity
  8
0
  6
CONTINUOUS
 62
     0
100
AcDbLine
 10
0.0
 20
0.0
 30
0.0
 11
-1.0
 21
-0.166666667
 31
0.0
  0
LINE
  5
7D
330
50
100
AcDbEntity
  8
0
  6
CONTINUOUS
 62
     0
100
AcDbLine
 10
0.0
 20
0.0
 30
0.0
 11
-1.0
 21
0.083333333
 31
0.0
  0
LINE
  5
7E
330
50
100
AcDbEntity
  8
0
  6
CONTINUOUS
 62
     0
100
AcDbLine
 10
0.0
 20
0.0
 30
0.0
 11
-1.0
 21
-0.083333333
 31
0.0
  0
LINE
  5
7F
330
50
100
AcDbEntity
  8
0
  6
CONTINUOUS
 62
     0
100
AcDbLine
 10
-1.0
 20
0.166666667
 30
0.0
 11
-1.0
 21
-0.166666667
 31
0.0
  0
ENDBLK
  5
52
330
50
100
AcDbEntity
  8
0
100
AcDbBlockEnd
  0
BLOCK
  5
54
330
53
100
AcDbEntity
  8
0
100
AcDbBlockBegin
  2
EX_BCIR
 70
     0
 10
0.0
 20
0.0
 30
0.0
  3
EX_BCIR
  1

  0
LINE
  5
80
330
53
100
AcDbEntity
  8
0
  6
CONTINUOUS
 62
     0
100
AcDbLine
 10
0.0
 20
0.0
 30
0.0
 11
-1.0
 21
0.0
 31
0.0
  0
CIRCLE
  5
81
330
53
100
AcDbEntity
  8
0
  6
CONTINUOUS
 62
     0
100
AcDbCircle
 10
0.0
 20
0.0
 30
0.0
 40
0.5
  0
CIRCLE
  5
82
330
53
100
AcDbEntity
  8
0
  6
CONTINUOUS
 62
     0
100
AcDbCircle
 10
0.0
 20
0.0
 30
0.0
 40
0.25
  0
ENDBLK
  5
55
330
53
100
AcDbEntity
  8
0
100
AcDbBlockEnd
  0
BLOCK
  5
57
330
56
100
AcDbEntity
  8
0
100
AcDbBlockBegin
  2
EX_RCIVIL
 70
     0
 10
0.0
 20
0.0
 30
0.0
  3
EX_RCIVIL
  1

  0
LINE
  5
83
330
56
100
AcDbEntity
  8
0
  6
CONTINUOUS
 62
     0
100
AcDbLine
 10
0.0
 20
0.0
 30
0.0
 11
-1.0
 21
0.0
 31
0.0
  0
LINE
  5
84
330
56
100
AcDbEntity
  8
0
  6
CONTINUOUS
 62
     0
100
AcDbLine
 10
-1.0
 20
-0.25
 30
0.0
 11
0.0
 21
-0.25
 31
0.0
  0
LINE
  5
85
330
56
100
AcDbEntity
  8
0
  6
CONTINUOUS
 62
     0
100
AcDbLine
 10
-1.0
 20
-0.125
 30
0.0
 11
0.0
 21
-0.125
 31
0.0
  0
ENDBLK
  5
58
330
56
100
AcDbEntity
  8
0
100
AcDbBlockEnd
  0
BLOCK
  5
5A
330
59
100
AcDbEntity
  8
0
100
AcDbBlockBegin
  2
EX_SLANT
 70
     0
 10
0.0
 20
0.0
 30
0.0
  3
EX_SLANT
  1

  0
LINE
  5
86
330
59
100
AcDbEntity
  8
0
  6
CONTINUOUS
 62
     0
100
AcDbLine
 10
0.0
 20
0.0
 30
0.0
 11
-1.0
 21
0.0
 31
0.0
  0
LINE
  5
87
330
59
100
AcDbEntity
  8
0
  6
CONTINUOUS
 62
     0
100
AcDbLine
 10
0.707106781
 20
0.707106781
 30
0.0
 11
-0.707106781
 21
-0.707106781
 31
0.0
  0
ENDBLK
  5
5B
330
59
100
AcDbEntity
  8
0
100
AcDbBlockEnd
  0
BLOCK
  5
5D
330
5C
100
AcDbEntity
  8
0
100
AcDbBlockBegin
  2
EX_NONE
 70
     0
 10
0.0
 20
0.0
 30
0.0
  3
EX_NONE
  1

  0
LINE
  5
88
330
5C
100
AcDbEntity
  8
0
  6
CONTINUOUS
 62
     0
100
AcDbLine
 10
0.0
 20
0.0
 30
0.0
 11
-1.0
 21
0.0
 31
0.0
  0
ENDBLK
  5
5E
330
5C
100
AcDbEntity
  8
0
100
AcDbBlockEnd
  0
BLOCK
  5
60
330
5F
100
AcDbEntity
  8
0
100
AcDbBlockBegin
  2
EX_CIVIL
 70
     0
 10
0.0
 20
0.0
 30
0.0
  3
EX_CIVIL
  1

  0
LINE
  5
89
330
5F
100
AcDbEntity
  8
0
  6
CONTINUOUS
 62
     0
100
AcDbLine
 10
0.0
 20
0.0
 30
0.0
 11
-1.0
 21
0.0
 31
0.0
  0
LINE
  5
8A
330
5F
100
AcDbEntity
  8
0
  6
CONTINUOUS
 62
     0
100
AcDbLine
 10
-1.0
 20
0.25
 30
0.0
 11
0.0
 21
0.25
 31
0.0
  0
LINE
  5
8B
330
5F
100
AcDbEntity
  8
0
  6
CONTINUOUS
 62
     0
100
AcDbLine
 10
-1.0
 20
0.125
 30
0.0
 11
0.0
 21
0.125
 31
0.0
  0
ENDBLK
  5
61
330
5F
100
AcDbEntity
  8
0
100
AcDbBlockEnd
  0
BLOCK
  5
63
330
62
100
AcDbEntity
  8
0
100
AcDbBlockBegin
  2
EX_WCIR
 70
     0
 10
0.0
 20
0.0
 30
0.0
  3
EX_WCIR
  1

  0
LINE
  5
8C
330
62
100
AcDbEntity
  8
0
  6
CONTINUOUS
 62
     0
100
AcDbLine
 10
0.0
 20
0.0
 30
0.0
 11
-1.0
 21
0.0
 31
0.0
  0
CIRCLE
  5
8D
330
62
100
AcDbEntity
  8
0
  6
CONTINUOUS
 62
     0
100
AcDbCircle
 10
0.0
 20
0.0
 30
0.0
 40
0.5
  0
ENDBLK
  5
64
330
62
100
AcDbEntity
  8
0
100
AcDbBlockEnd
  0
BLOCK
  5
66
330
65
100
AcDbEntity
  8
0
100
AcDbBlockBegin
  2
EX_WCIR2
 70
     0
 10
0.0
 20
0.0
 30
0.0
  3
EX_WCIR2
  1

  0
LINE
  5
8E
330
65
100
AcDbEntity
  8
0
  6
CONTINUOUS
 62
     0
100
AcDbLine
 10
-0.5
 20
0.0
 30
0.0
 11
-1.0
 21
0.0
 31
0.0
  0
CIRCLE
  5
8F
330
65
100
AcDbEntity
  8
0
  6
CONTINUOUS
 62
     0
100
AcDbCircle
 10
0.0
 20
0.0
 30
0.0
 40
0.5
  0
ENDBLK
  5
67
330
65
100
AcDbEntity
  8
0
100
AcDbBlockEnd
  0
BLOCK
  5
69
330
68
100
AcDbEntity
  8
0
100
AcDbBlockBegin
  2
EX_WNORM
 70
     0
 10
0.0
 20
0.0
 30
0.0
  3
EX_WNORM
  1

  0
LINE
  5
90
330
68
100
AcDbEntity
  8
0
  6
CONTINUOUS
 62
     0
100
AcDbLine
 10
-1.0
 20
0.0
 30
0.0
 11
-1.0
 21
0.0
 31
0.0
  0
LINE
  5
91
330
68
100
AcDbEntity
  8
0
  6
CONTINUOUS
 62
     0
100
AcDbLine
 10
0.0
 20
0.0
 30
0.0
 11
-1.0
 21
0.166666667
 31
0.0
  0
LINE
  5
92
330
68
100
AcDbEntity
  8
0
  6
CONTINUOUS
 62
     0
100
AcDbLine
 10
0.0
 20
0.0
 30
0.0
 11
-1.0
 21
-0.166666667
 31
0.0
  0
LINE
  5
93
330
68
100
AcDbEntity
  8
0
  6
CONTINUOUS
 62
     0
100
AcDbLine
 10
-1.0
 20
0.166666667
 30
0.0
 11
-1.0
 21
-0.166666667
 31
0.0
  0
ENDBLK
  5
6A
330
68
100
AcDbEntity
  8
0
100
AcDbBlockEnd
  0
BLOCK
  5
6C
330
6B
100
AcDbEntity
  8
0
100
AcDbBlockBegin
  2
EX_NNORM
 70
     0
 10
0.0
 20
0.0
 30
0.0
  3
EX_NNORM
  1

  0
LINE
  5
94
330
6B
100
AcDbEntity
  8
0
  6
CONTINUOUS
 62
     0
100
AcDbLine
 10
0.0
 20
0.0
 30
0.0
 11
-1.0
 21
0.0
 31
0.0
  0
LINE
  5
95
330
6B
100
AcDbEntity
  8
0
  6
CONTINUOUS
 62
     0
100
AcDbLine
 10
0.0
 20
0.0
 30
0.0
 11
-1.0
 21
0.166666667
 31
0.0
  0
LINE
  5
96
330
6B
100
AcDbEntity
  8
0
  6
CONTINUOUS
 62
     0
100
AcDbLine
 10
0.0
 20
0.0
 30
0.0
 11
-1.0
 21
-0.166666667
 31
0.0
  0
LINE
  5
97
330
6B
100
AcDbEntity
  8
0
  6
CONTINUOUS
 62
     0
100
AcDbLine
 10
-1.0
 20
0.166666667
 30
0.0
 11
-1.0
 21
-0.166666667
 31
0.0
  0
ENDBLK
  5
6D
330
6B
100
AcDbEntity
  8
0
100
AcDbBlockEnd
  0
BLOCK
  5
6F
330
6E
100
AcDbEntity
  8
0
100
AcDbBlockBegin
  2
EX_BBOX
 70
     0
 10
0.0
 20
0.0
 30
0.0
  3
EX_BBOX
  1

  0
LINE
  5
98
330
6E
100
AcDbEntity
  8
0
  6
CONTINUOUS
 62
     0
100
AcDbLine
 10
0.0
 20
0.0
 30
0.0
 11
-1.0
 21
0.0
 31
0.0
  0
LINE
  5
99
330
6E
100
AcDbEntity
  8
0
  6
CONTINUOUS
 62
     0
100
AcDbLine
 10
-0.5
 20
0.5
 30
0.0
 11
0.5
 21
0.5
 31
0.0
  0
LINE
  5
9A
330
6E
100
AcDbEntity
  8
0
  6
CONTINUOUS
 62
     0
100
AcDbLine
 10
0.5
 20
0.5
 30
0.0
 11
0.5
 21
-0.5
 31
0.0
  0
LINE
  5
9B
330
6E
100
AcDbEntity
  8
0
  6
CONTINUOUS
 62
     0
100
AcDbLine
 10
0.5
 20
-0.5
 30
0.0
 11
-0.5
 21
-0.5
 31
0.0
  0
LINE
  5
9C
330
6E
100
AcDbEntity
  8
0
  6
CONTINUOUS
 62
     0
100
AcDbLine
 10
-0.5
 20
-0.5
 30
0.0
 11
-0.5
 21
0.5
 31
0.0
  0
LINE
  5
9D
330
6E
100
AcDbEntity
  8
0
  6
CONTINUOUS
 62
     0
100
AcDbLine
 10
-0.25
 20
0.25
 30
0.0
 11
0.25
 21
0.25
 31
0.0
  0
LINE
  5
9E
330
6E
100
AcDbEntity
  8
0
  6
CONTINUOUS
 62
     0
100
AcDbLine
 10
0.25
 20
0.25
 30
0.0
 11
0.25
 21
-0.25
 31
0.0
  0
LINE
  5
9F
330
6E
100
AcDbEntity
  8
0
  6
CONTINUOUS
 62
     0
100
AcDbLine
 10
0.25
 20
-0.25
 30
0.0
 11
-0.25
 21
-0.25
 31
0.0
  0
LINE
  5
A0
330
6E
100
AcDbEntity
  8
0
  6
CONTINUOUS
 62
     0
100
AcDbLine
 10
-0.25
 20
-0.25
 30
0.0
 11
-0.25
 21
0.25
 31
0.0
  0
ENDBLK
  5
70
330
6E
100
AcDbEntity
  8
0
100
AcDbBlockEnd
  0
BLOCK
  5
72
330
71
100
AcDbEntity
  8
0
100
AcDbBlockBegin
  2
EX_WBOX
 70
     0
 10
0.0
 20
0.0
 30
0.0
  3
EX_WBOX
  1

  0
LINE
  5
A1
330
71
100
AcDbEntity
  8
0
  6
CONTINUOUS
 62
     0
100
AcDbLine
 10
-0.5
 20
0.0
 30
0.0
 11
-1.0
 21
0.0
 31
0.0
  0
LINE
  5
A2
330
71
100
AcDbEntity
  8
0
  6
CONTINUOUS
 62
     0
100
AcDbLine
 10
-0.5
 20
0.5
 30
0.0
 11
0.5
 21
0.5
 31
0.0
  0
LINE
  5
A3
330
71
100
AcDbEntity
  8
0
  6
CONTINUOUS
 62
     0
100
AcDbLine
 10
0.5
 20
0.5
 30
0.0
 11
0.5
 21
-0.5
 31
0.0
  0
LINE
  5
A4
330
71
100
AcDbEntity
  8
0
  6
CONTINUOUS
 62
     0
100
AcDbLine
 10
0.5
 20
-0.5
 30
0.0
 11
-0.5
 21
-0.5
 31
0.0
  0
LINE
  5
A5
330
71
100
AcDbEntity
  8
0
  6
CONTINUOUS
 62
     0
100
AcDbLine
 10
-0.5
 20
-0.5
 30
0.0
 11
-0.5
 21
0.5
 31
0.0
  0
ENDBLK
  5
73
330
71
100
AcDbEntity
  8
0
100
AcDbBlockEnd
  0
BLOCK
  5
75
330
74
100
AcDbEntity
  8
0
100
AcDbBlockBegin
  2
EX_INTEGRAL
 70
     0
 10
0.0
 20
0.0
 30
0.0
  3
EX_INTEGRAL
  1

  0
LINE
  5
A6
330
74
100
AcDbEntity
  8
0
  6
CONTINUOUS
 62
     0
100
AcDbLine
 10
0.0
 20
0.0
 30
0.0
 11
-1.0
 21
0.0
 31
0.0
  0
ARC
  5
A7
330
74
100
AcDbEntity
  8
0
  6
CONTINUOUS
 62
     0
100
AcDbCircle
 10
0.542115
 20
0.164992
 30
0.0
 40
0.56667
100
AcDbArc
 50
73.07249033629006
 51
196.9275130221199
  0
ARC
  5
A8
330
74
100
AcDbEntity
  8
0
  6
CONTINUOUS
 62
     0
100
AcDbCircle
 10
-0.542115
 20
-0.164992
 30
0.0
 40
0.56667
100
AcDbArc
 50
253.0724869220464
 51
16.9275130559125
  0
ENDBLK
  5
76
330
74
100
AcDbEntity
  8
0
100
AcDbBlockEnd
  0
BLOCK
  5
EB
330
EA
100
AcDbEntity
  8
0
100
AcDbBlockBegin
  2
*D15
 70
     1
 10
0.0
 20
0.0
 30
0.0
  3
*D15
  1

  0
LINE
  5
ED
330
EA
100
AcDbEntity
  8
枠_表
  6
CONTINUOUS
 62
     3
100
AcDbLine
 10
1576.499999821186
 20
1032.5
 30
0.0
 11
1717.5
 21
1032.5
 31
0.0
  0
LINE
  5
EE
330
EA
100
AcDbEntity
  8
枠_表
  6
CONTINUOUS
 62
     3
100
AcDbLine
 10
1320.499999821186
 20
2782.5
 30
0.0
 11
1717.5
 21
2782.5
 31
0.0
  0
LINE
  5
EF
330
EA
100
AcDbEntity
  8
枠_表
  6
CONTINUOUS
 62
     3
100
AcDbLine
 10
1702.5
 20
1077.499996185303
 30
0.0
 11
1702.5
 21
2737.500003814697
 31
0.0
  0
INSERT
  5
F0
330
EA
100
AcDbEntity
  8
枠_表
 62
     3
100
AcDbBlockReference
  2
EX_NORM
 10
1702.5
 20
1032.5
 30
0.0
 41
44.99999618530273
 42
44.99999618530273
 43
44.99999618530273
 50
270.0
  0
INSERT
  5
F1
330
EA
100
AcDbEntity
  8
枠_表
 62
     3
100
AcDbBlockReference
  2
EX_NORM
 10
1702.5
 20
2782.5
 30
0.0
 41
44.99999618530273
 42
44.99999618530273
 43
44.99999618530273
 50
90.0
  0
MTEXT
  5
F2
330
EA
100
AcDbEntity
  8
枠_表
 62
     2
100
AcDbMText
 10
1667.250000089407
 20
1907.5
 30
0.0
 40
59.99999618530273
 41
0.0
 71
     5
 72
     1
  1
（1750）
  7
EXCADDIM1
 11
0.0
 21
1.0
 31
0.0
  0
POINT
  5
F3
330
EA
100
AcDbEntity
  8
DEFPOINTS
 62
     0
100
AcDbPoint
 10
1566.0
 20
1032.5
 30
0.0
  0
POINT
  5
F4
330
EA
100
AcDbEntity
  8
DEFPOINTS
 62
     0
100
AcDbPoint
 10
1310.0
 20
2782.5
 30
0.0
  0
POINT
  5
F5
330
EA
100
AcDbEntity
  8
DEFPOINTS
 62
     0
100
AcDbPoint
 10
1702.5
 20
2782.5
 30
0.0
  0
ENDBLK
  5
EC
330
EA
100
AcDbEntity
  8
0
100
AcDbBlockEnd
  0
BLOCK
  5
F8
330
F7
100
AcDbEntity
  8
0
100
AcDbBlockBegin
  2
*D16
 70
     1
 10
0.0
 20
0.0
 30
0.0
  3
*D16
  1

  0
LINE
  5
FA
330
F7
100
AcDbEntity
  8
枠_表
  6
CONTINUOUS
 62
     3
100
AcDbLine
 10
2831.999999821186
 20
1032.5
 30
0.0
 11
2911.5
 21
1032.5
 31
0.0
  0
LINE
  5
FB
330
F7
100
AcDbEntity
  8
枠_表
  6
CONTINUOUS
 62
     3
100
AcDbLine
 10
2896.5
 20
2301.300003814697
 30
0.0
 11
2896.5
 21
1077.499996185303
 31
0.0
  0
INSERT
  5
FC
330
F7
100
AcDbEntity
  8
枠_表
 62
     3
100
AcDbBlockReference
  2
EX_NORM
 10
2896.5
 20
2346.3
 30
0.0
 41
44.99999618530273
 42
44.99999618530273
 43
44.99999618530273
 50
90.0
  0
INSERT
  5
FD
330
F7
100
AcDbEntity
  8
枠_表
 62
     3
100
AcDbBlockReference
  2
EX_NORM
 10
2896.5
 20
1032.5
 30
0.0
 41
44.99999618530273
 42
44.99999618530273
 43
44.99999618530273
 50
270.0
  0
MTEXT
  5
FE
330
F7
100
AcDbEntity
  8
枠_表
 62
     2
100
AcDbMText
 10
2861.250000089407
 20
1689.4
 30
0.0
 40
59.99999618530273
 41
0.0
 71
     5
 72
     1
  1
（1315）
  7
EXCADDIM1
 11
0.0
 21
1.0
 31
0.0
  0
POINT
  5
FF
330
F7
100
AcDbEntity
  8
DEFPOINTS
 62
     0
100
AcDbPoint
 10
2896.5
 20
2346.3
 30
0.0
  0
POINT
  5
100
330
F7
100
AcDbEntity
  8
DEFPOINTS
 62
     0
100
AcDbPoint
 10
2821.5
 20
1032.5
 30
0.0
  0
POINT
  5
101
330
F7
100
AcDbEntity
  8
DEFPOINTS
 62
     0
100
AcDbPoint
 10
2896.5
 20
1032.5
 30
0.0
  0
ENDBLK
  5
F9
330
F7
100
AcDbEntity
  8
0
100
AcDbBlockEnd
  0
BLOCK
  5
40B
330
40A
100
AcDbEntity
  8
0
100
AcDbBlockBegin
  2
*D17
 70
     1
 10
0.0
 20
0.0
 30
0.0
  3
*D17
  1

  0
LINE
  5
40D
330
40A
100
AcDbEntity
  8
化粧台
  6
CONTINUOUS
 62
     3
100
AcDbLine
 10
755.0
 20
1014.000000178814
 30
0.0
 11
755.0
 21
784.5
 31
0.0
  0
LINE
  5
40E
330
40A
100
AcDbEntity
  8
化粧台
  6
CONTINUOUS
 62
     3
100
AcDbLine
 10
1085.0
 20
1014.000000178814
 30
0.0
 11
1085.0
 21
784.5
 31
0.0
  0
LINE
  5
40F
330
40A
100
AcDbEntity
  8
化粧台
  6
CONTINUOUS
 62
     3
100
AcDbLine
 10
799.9999961853027
 20
799.5
 30
0.0
 11
1040.000003814697
 21
799.5
 31
0.0
  0
INSERT
  5
410
330
40A
100
AcDbEntity
  8
化粧台
 62
     3
100
AcDbBlockReference
  2
EX_NORM
 10
755.0
 20
799.5
 30
0.0
 41
44.99999618530273
 42
44.99999618530273
 43
44.99999618530273
 50
180.0
  0
INSERT
  5
411
330
40A
100
AcDbEntity
  8
化粧台
 62
     3
100
AcDbBlockReference
  2
EX_NORM
 10
1085.0
 20
799.5
 30
0.0
 41
44.99999618530273
 42
44.99999618530273
 43
44.99999618530273
  0
MTEXT
  5
412
330
40A
100
AcDbEntity
  8
化粧台
 62
     2
100
AcDbMText
 10
569.0
 20
825.749999910593
 30
0.0
 40
59.99999618530273
 41
0.0
 71
     5
 72
     1
  1
330（床給水）
  7
EXCADDIM1
  0
POINT
  5
413
330
40A
100
AcDbEntity
  8
DEFPOINTS
 62
     0
100
AcDbPoint
 10
755.0
 20
1024.5
 30
0.0
  0
POINT
  5
414
330
40A
100
AcDbEntity
  8
DEFPOINTS
 62
     0
100
AcDbPoint
 10
1085.0
 20
1024.5
 30
0.0
  0
POINT
  5
415
330
40A
100
AcDbEntity
  8
DEFPOINTS
 62
     0
100
AcDbPoint
 10
1085.0
 20
799.5
 30
0.0
  0
ENDBLK
  5
40C
330
40A
100
AcDbEntity
  8
0
100
AcDbBlockEnd
  0
BLOCK
  5
418
330
417
100
AcDbEntity
  8
0
100
AcDbBlockBegin
  2
*D18
 70
     1
 10
0.0
 20
0.0
 30
0.0
  3
*D18
  1

  0
LINE
  5
41A
330
417
100
AcDbEntity
  8
化粧台
  6
CONTINUOUS
 62
     3
100
AcDbLine
 10
920.0
 20
1022.000000178814
 30
0.0
 11
920.0
 21
615.0
 31
0.0
  0
LINE
  5
41B
330
417
100
AcDbEntity
  8
化粧台
  6
CONTINUOUS
 62
     3
100
AcDbLine
 10
1160.0
 20
957.500000178814
 30
0.0
 11
1160.0
 21
615.0
 31
0.0
  0
LINE
  5
41C
330
417
100
AcDbEntity
  8
化粧台
  6
CONTINUOUS
 62
     3
100
AcDbLine
 10
964.9999961853027
 20
630.0
 30
0.0
 11
1115.000003814697
 21
630.0
 31
0.0
  0
INSERT
  5
41D
330
417
100
AcDbEntity
  8
化粧台
 62
     3
100
AcDbBlockReference
  2
EX_NORM
 10
920.0
 20
630.0
 30
0.0
 41
44.99999618530273
 42
44.99999618530273
 43
44.99999618530273
 50
180.0
  0
INSERT
  5
41E
330
417
100
AcDbEntity
  8
化粧台
 62
     3
100
AcDbBlockReference
  2
EX_NORM
 10
1160.0
 20
630.0
 30
0.0
 41
44.99999618530273
 42
44.99999618530273
 43
44.99999618530273
  0
MTEXT
  5
41F
330
417
100
AcDbEntity
  8
化粧台
 62
     2
100
AcDbMText
 10
687.5000000000001
 20
665.249999910593
 30
0.0
 40
59.99999618530273
 41
0.0
 71
     5
 72
     1
  1
240（床排水）
  7
EXCADDIM1
  0
POINT
  5
420
330
417
100
AcDbEntity
  8
DEFPOINTS
 62
     0
100
AcDbPoint
 10
920.0
 20
1032.5
 30
0.0
  0
POINT
  5
421
330
417
100
AcDbEntity
  8
DEFPOINTS
 62
     0
100
AcDbPoint
 10
1160.0
 20
968.0000000000002
 30
0.0
  0
POINT
  5
422
330
417
100
AcDbEntity
  8
DEFPOINTS
 62
     0
100
AcDbPoint
 10
1160.0
 20
630.0
 30
0.0
  0
ENDBLK
  5
419
330
417
100
AcDbEntity
  8
0
100
AcDbBlockEnd
  0
BLOCK
  5
447
330
446
100
AcDbEntity
  8
0
100
AcDbBlockBegin
  2
*D19
 70
     1
 10
0.0
 20
0.0
 30
0.0
  3
*D19
  1

  0
LINE
  5
449
330
446
100
AcDbEntity
  8
化粧台
  6
CONTINUOUS
 62
     3
100
AcDbLine
 10
2550.0
 20
1022.000000178814
 30
0.0
 11
2550.0
 21
885.0
 31
0.0
  0
LINE
  5
44A
330
446
100
AcDbEntity
  8
化粧台
  6
CONTINUOUS
 62
     3
100
AcDbLine
 10
2470.0
 20
1014.000000178814
 30
0.0
 11
2470.0
 21
885.0
 31
0.0
  0
LINE
  5
44B
330
446
100
AcDbEntity
  8
化粧台
  6
CONTINUOUS
 62
     3
100
AcDbLine
 10
2550.0
 20
900.0
 30
0.0
 11
2470.0
 21
900.0
 31
0.0
  0
LINE
  5
44C
330
446
100
AcDbEntity
  8
化粧台
  6
CONTINUOUS
 62
     3
100
AcDbLine
 10
2594.999996185303
 20
900.0
 30
0.0
 11
2639.999992370605
 21
900.0
 31
0.0
  0
LINE
  5
44D
330
446
100
AcDbEntity
  8
化粧台
  6
CONTINUOUS
 62
     3
100
AcDbLine
 10
2425.000003814697
 20
900.0
 30
0.0
 11
2380.000007629395
 21
900.0
 31
0.0
  0
INSERT
  5
44E
330
446
100
AcDbEntity
  8
化粧台
 62
     3
100
AcDbBlockReference
  2
EX_NORM
 10
2550.0
 20
900.0
 30
0.0
 41
44.99999618530273
 42
44.99999618530273
 43
44.99999618530273
 50
180.0
  0
INSERT
  5
44F
330
446
100
AcDbEntity
  8
化粧台
 62
     3
100
AcDbBlockReference
  2
EX_NORM
 10
2470.0
 20
900.0
 30
0.0
 41
44.99999618530273
 42
44.99999618530273
 43
44.99999618530273
  0
MTEXT
  5
450
330
446
100
AcDbEntity
  8
化粧台
 62
     2
100
AcDbMText
 10
2768.999999463558
 20
937.4999999999993
 30
0.0
 40
59.99999618530273
 41
0.0
 71
     5
 72
     1
  1
80（床給水）
  7
EXCADDIM1
  0
POINT
  5
451
330
446
100
AcDbEntity
  8
DEFPOINTS
 62
     0
100
AcDbPoint
 10
2550.0
 20
1032.5
 30
0.0
  0
POINT
  5
452
330
446
100
AcDbEntity
  8
DEFPOINTS
 62
     0
100
AcDbPoint
 10
2470.0
 20
1024.5
 30
0.0
  0
POINT
  5
453
330
446
100
AcDbEntity
  8
DEFPOINTS
 62
     0
100
AcDbPoint
 10
2470.0
 20
900.0
 30
0.0
  0
ENDBLK
  5
448
330
446
100
AcDbEntity
  8
0
100
AcDbBlockEnd
  0
BLOCK
  5
456
330
455
100
AcDbEntity
  8
0
100
AcDbBlockBegin
  2
*D20
 70
     1
 10
0.0
 20
0.0
 30
0.0
  3
*D20
  1

  0
LINE
  5
458
330
455
100
AcDbEntity
  8
化粧台
  6
CONTINUOUS
 62
     3
100
AcDbLine
 10
2450.0
 20
942.5000001788139
 30
0.0
 11
2450.0
 21
783.0
 31
0.0
  0
LINE
  5
459
330
455
100
AcDbEntity
  8
化粧台
  6
CONTINUOUS
 62
     3
100
AcDbLine
 10
2550.0
 20
1022.000000178814
 30
0.0
 11
2550.0
 21
783.0
 31
0.0
  0
LINE
  5
45A
330
455
100
AcDbEntity
  8
化粧台
  6
CONTINUOUS
 62
     3
100
AcDbLine
 10
2494.999996185303
 20
798.0
 30
0.0
 11
2505.000003814697
 21
798.0
 31
0.0
  0
INSERT
  5
45B
330
455
100
AcDbEntity
  8
化粧台
 62
     3
100
AcDbBlockReference
  2
EX_NORM
 10
2450.0
 20
798.0
 30
0.0
 41
44.99999618530273
 42
44.99999618530273
 43
44.99999618530273
 50
180.0
  0
INSERT
  5
45C
330
455
100
AcDbEntity
  8
化粧台
 62
     3
100
AcDbBlockReference
  2
EX_NORM
 10
2550.0
 20
798.0
 30
0.0
 41
44.99999618530273
 42
44.99999618530273
 43
44.99999618530273
  0
MTEXT
  5
45D
330
455
100
AcDbEntity
  8
化粧台
 62
     2
100
AcDbMText
 10
2792.999999374151
 20
835.5
 30
0.0
 40
59.99999618530273
 41
0.0
 71
     5
 72
     1
  1
100（床排水）
  7
EXCADDIM1
  0
POINT
  5
45E
330
455
100
AcDbEntity
  8
DEFPOINTS
 62
     0
100
AcDbPoint
 10
2450.0
 20
953.0
 30
0.0
  0
POINT
  5
45F
330
455
100
AcDbEntity
  8
DEFPOINTS
 62
     0
100
AcDbPoint
 10
2550.0
 20
1032.5
 30
0.0
  0
POINT
  5
460
330
455
100
AcDbEntity
  8
DEFPOINTS
 62
     0
100
AcDbPoint
 10
2550.0
 20
798.0
 30
0.0
  0
ENDBLK
  5
457
330
455
100
AcDbEntity
  8
0
100
AcDbBlockEnd
  0
BLOCK
  5
463
330
462
100
AcDbEntity
  8
0
100
AcDbBlockBegin
  2
*D21
 70
     1
 10
0.0
 20
0.0
 30
0.0
  3
*D21
  1

  0
LINE
  5
465
330
462
100
AcDbEntity
  8
化粧台
  6
CONTINUOUS
 62
     3
100
AcDbLine
 10
2125.0
 20
1022.000000178814
 30
0.0
 11
2125.0
 21
684.0
 31
0.0
  0
LINE
  5
466
330
462
100
AcDbEntity
  8
化粧台
  6
CONTINUOUS
 62
     3
100
AcDbLine
 10
2550.0
 20
1022.000000178814
 30
0.0
 11
2550.0
 21
684.0
 31
0.0
  0
LINE
  5
467
330
462
100
AcDbEntity
  8
化粧台
  6
CONTINUOUS
 62
     3
100
AcDbLine
 10
2169.999996185303
 20
699.0
 30
0.0
 11
2505.000003814697
 21
699.0
 31
0.0
  0
INSERT
  5
468
330
462
100
AcDbEntity
  8
化粧台
 62
     3
100
AcDbBlockReference
  2
EX_NORM
 10
2125.0
 20
699.0
 30
0.0
 41
44.99999618530273
 42
44.99999618530273
 43
44.99999618530273
 50
180.0
  0
INSERT
  5
469
330
462
100
AcDbEntity
  8
化粧台
 62
     3
100
AcDbBlockReference
  2
EX_NORM
 10
2550.0
 20
699.0
 30
0.0
 41
44.99999618530273
 42
44.99999618530273
 43
44.99999618530273
  0
MTEXT
  5
46A
330
462
100
AcDbEntity
  8
化粧台
 62
     2
100
AcDbMText
 10
2337.5
 20
736.5
 30
0.0
 40
59.99999618530273
 41
0.0
 71
     5
 72
     1
  1
425
  7
EXCADDIM1
  0
POINT
  5
46B
330
462
100
AcDbEntity
  8
DEFPOINTS
 62
     0
100
AcDbPoint
 10
2125.0
 20
1032.5
 30
0.0
  0
POINT
  5
46C
330
462
100
AcDbEntity
  8
DEFPOINTS
 62
     0
100
AcDbPoint
 10
2550.0
 20
1032.5
 30
0.0
  0
POINT
  5
46D
330
462
100
AcDbEntity
  8
DEFPOINTS
 62
     0
100
AcDbPoint
 10
2550.0
 20
699.0
 30
0.0
  0
ENDBLK
  5
464
330
462
100
AcDbEntity
  8
0
100
AcDbBlockEnd
  0
BLOCK
  5
493
330
492
100
AcDbEntity
  8
0
100
AcDbBlockBegin
  2
*D22
 70
     1
 10
0.0
 20
0.0
 30
0.0
  3
*D22
  1

  0
LINE
  5
495
330
492
100
AcDbEntity
  8
化粧台
  6
CONTINUOUS
 62
     3
100
AcDbLine
 10
920.0
 20
1022.000000178814
 30
0.0
 11
920.0
 21
690.0
 31
0.0
  0
LINE
  5
496
330
492
100
AcDbEntity
  8
化粧台
  6
CONTINUOUS
 62
     3
100
AcDbLine
 10
1120.0
 20
1407.066233219414
 30
0.0
 11
1120.0
 21
690.0
 31
0.0
  0
LINE
  5
497
330
492
100
AcDbEntity
  8
化粧台
  6
CONTINUOUS
 62
     3
100
AcDbLine
 10
964.9999961853027
 20
705.0
 30
0.0
 11
1075.000003814697
 21
705.0
 31
0.0
  0
INSERT
  5
498
330
492
100
AcDbEntity
  8
化粧台
 62
     3
100
AcDbBlockReference
  2
EX_NORM
 10
920.0
 20
705.0
 30
0.0
 41
44.99999618530273
 42
44.99999618530273
 43
44.99999618530273
 50
180.0
  0
INSERT
  5
499
330
492
100
AcDbEntity
  8
化粧台
 62
     3
100
AcDbBlockReference
  2
EX_NORM
 10
1120.0
 20
705.0
 30
0.0
 41
44.99999618530273
 42
44.99999618530273
 43
44.99999618530273
  0
MTEXT
  5
49A
330
492
100
AcDbEntity
  8
化粧台
 62
     2
100
AcDbMText
 10
677.0000006258489
 20
742.5
 30
0.0
 40
59.99999618530273
 41
0.0
 71
     5
 72
     1
  1
200（壁排水）
  7
EXCADDIM1
  0
POINT
  5
49B
330
492
100
AcDbEntity
  8
DEFPOINTS
 62
     0
100
AcDbPoint
 10
920.0
 20
1032.5
 30
0.0
  0
POINT
  5
49C
330
492
100
AcDbEntity
  8
DEFPOINTS
 62
     0
100
AcDbPoint
 10
1120.0
 20
1417.5662330406
 30
0.0
  0
POINT
  5
49D
330
492
100
AcDbEntity
  8
DEFPOINTS
 62
     0
100
AcDbPoint
 10
1120.0
 20
705.0
 30
0.0
  0
ENDBLK
  5
494
330
492
100
AcDbEntity
  8
0
100
AcDbBlockEnd
  0
BLOCK
  5
4A7
330
4A6
100
AcDbEntity
  8
0
100
AcDbBlockBegin
  2
*D23
 70
     1
 10
0.0
 20
0.0
 30
0.0
  3
*D23
  1

  0
LINE
  5
4A9
330
4A6
100
AcDbEntity
  8
化粧台
  6
CONTINUOUS
 62
     3
100
AcDbLine
 10
843.5543916547899
 20
1427.823515547114
 30
0.0
 11
843.5543916547899
 21
852.0
 31
0.0
  0
LINE
  5
4AA
330
4A6
100
AcDbEntity
  8
化粧台
  6
CONTINUOUS
 62
     3
100
AcDbLine
 10
995.0
 20
1412.000000178814
 30
0.0
 11
995.0
 21
852.0
 31
0.0
  0
LINE
  5
4AB
330
4A6
100
AcDbEntity
  8
化粧台
  6
CONTINUOUS
 62
     3
100
AcDbLine
 10
888.5543878400927
 20
867.0
 30
0.0
 11
950.0000038146973
 21
867.0
 31
0.0
  0
INSERT
  5
4AC
330
4A6
100
AcDbEntity
  8
化粧台
 62
     3
100
AcDbBlockReference
  2
EX_NORM
 10
843.5543916547899
 20
867.0
 30
0.0
 41
44.99999618530273
 42
44.99999618530273
 43
44.99999618530273
 50
180.0
  0
INSERT
  5
4AD
330
4A6
100
AcDbEntity
  8
化粧台
 62
     3
100
AcDbBlockReference
  2
EX_NORM
 10
995.0
 20
867.0
 30
0.0
 41
44.99999618530273
 42
44.99999618530273
 43
44.99999618530273
  0
MTEXT
  5
4AE
330
4A6
100
AcDbEntity
  8
化粧台
 62
     2
100
AcDbMText
 10
597.55439165479
 20
902.249999910593
 30
0.0
 40
59.99999618530273
 41
0.0
 71
     5
 72
     1
  1
150（壁給水）
  7
EXCADDIM1
  0
POINT
  5
4AF
330
4A6
100
AcDbEntity
  8
DEFPOINTS
 62
     0
100
AcDbPoint
 10
843.5543916547899
 20
1438.3235153683
 30
0.0
  0
POINT
  5
4B0
330
4A6
100
AcDbEntity
  8
DEFPOINTS
 62
     0
100
AcDbPoint
 10
995.0
 20
1422.5
 30
0.0
  0
POINT
  5
4B1
330
4A6
100
AcDbEntity
  8
DEFPOINTS
 62
     0
100
AcDbPoint
 10
995.0
 20
867.0
 30
0.0
  0
ENDBLK
  5
4A8
330
4A6
100
AcDbEntity
  8
0
100
AcDbBlockEnd
  0
BLOCK
  5
503
330
502
100
AcDbEntity
  8
0
100
AcDbBlockBegin
  2
*D24
 70
     1
 10
0.0
 20
0.0
 30
0.0
  3
*D24
  1

  0
LINE
  5
505
330
502
100
AcDbEntity
  8
化粧台
  6
CONTINUOUS
 62
     3
100
AcDbLine
 10
744.5000001788139
 20
1032.5
 30
0.0
 11
643.5
 21
1032.5
 31
0.0
  0
LINE
  5
506
330
502
100
AcDbEntity
  8
化粧台
  6
CONTINUOUS
 62
     3
100
AcDbLine
 10
744.5000001788139
 20
1242.5
 30
0.0
 11
643.5
 21
1242.5
 31
0.0
  0
LINE
  5
507
330
502
100
AcDbEntity
  8
化粧台
  6
CONTINUOUS
 62
     3
100
AcDbLine
 10
658.5
 20
1077.499996185303
 30
0.0
 11
658.5
 21
1197.500003814697
 31
0.0
  0
INSERT
  5
508
330
502
100
AcDbEntity
  8
化粧台
 62
     3
100
AcDbBlockReference
  2
EX_NORM
 10
658.5
 20
1032.5
 30
0.0
 41
44.99999618530273
 42
44.99999618530273
 43
44.99999618530273
 50
270.0
  0
INSERT
  5
509
330
502
100
AcDbEntity
  8
化粧台
 62
     3
100
AcDbBlockReference
  2
EX_NORM
 10
658.5
 20
1242.5
 30
0.0
 41
44.99999618530273
 42
44.99999618530273
 43
44.99999618530273
 50
90.0
  0
MTEXT
  5
50A
330
502
100
AcDbEntity
  8
化粧台
 62
     2
100
AcDbMText
 10
623.2500000894071
 20
1137.5
 30
0.0
 40
59.99999618530273
 41
0.0
 71
     5
 72
     1
  1
210
  7
EXCADDIM1
 11
0.0
 21
1.0
 31
0.0
  0
POINT
  5
50B
330
502
100
AcDbEntity
  8
DEFPOINTS
 62
     0
100
AcDbPoint
 10
755.0
 20
1032.5
 30
0.0
  0
POINT
  5
50C
330
502
100
AcDbEntity
  8
DEFPOINTS
 62
     0
100
AcDbPoint
 10
755.0
 20
1242.5
 30
0.0
  0
POINT
  5
50D
330
502
100
AcDbEntity
  8
DEFPOINTS
 62
     0
100
AcDbPoint
 10
658.5
 20
1242.5
 30
0.0
  0
ENDBLK
  5
504
330
502
100
AcDbEntity
  8
0
100
AcDbBlockEnd
  0
BLOCK
  5
512
330
511
100
AcDbEntity
  8
0
100
AcDbBlockBegin
  2
*D25
 70
     1
 10
0.0
 20
0.0
 30
0.0
  3
*D25
  1

  0
LINE
  5
514
330
511
100
AcDbEntity
  8
化粧台
  6
CONTINUOUS
 62
     3
100
AcDbLine
 10
1380.499999821186
 20
1731.5
 30
0.0
 11
1491.0
 21
1731.5
 31
0.0
  0
LINE
  5
515
330
511
100
AcDbEntity
  8
化粧台
  6
CONTINUOUS
 62
     3
100
AcDbLine
 10
1476.0
 20
1077.499996185303
 30
0.0
 11
1476.0
 21
1686.500003814697
 31
0.0
  0
INSERT
  5
516
330
511
100
AcDbEntity
  8
化粧台
 62
     3
100
AcDbBlockReference
  2
EX_NORM
 10
1476.0
 20
1032.5
 30
0.0
 41
44.99999618530273
 42
44.99999618530273
 43
44.99999618530273
 50
270.0
  0
INSERT
  5
517
330
511
100
AcDbEntity
  8
化粧台
 62
     3
100
AcDbBlockReference
  2
EX_NORM
 10
1476.0
 20
1731.5
 30
0.0
 41
44.99999618530273
 42
44.99999618530273
 43
44.99999618530273
 50
90.0
  0
MTEXT
  5
518
330
511
100
AcDbEntity
  8
化粧台
 62
     2
100
AcDbMText
 10
1440.750000089407
 20
1382.0
 30
0.0
 40
59.99999618530273
 41
0.0
 71
     5
 72
     1
  1
699
  7
EXCADDIM1
 11
0.0
 21
1.0
 31
0.0
  0
POINT
  5
519
330
511
100
AcDbEntity
  8
DEFPOINTS
 62
     0
100
AcDbPoint
 10
1368.0
 20
1032.5
 30
0.0
  0
POINT
  5
51A
330
511
100
AcDbEntity
  8
DEFPOINTS
 62
     0
100
AcDbPoint
 10
1370.0
 20
1731.5
 30
0.0
  0
POINT
  5
51B
330
511
100
AcDbEntity
  8
DEFPOINTS
 62
     0
100
AcDbPoint
 10
1476.0
 20
1731.5
 30
0.0
  0
ENDBLK
  5
513
330
511
100
AcDbEntity
  8
0
100
AcDbBlockEnd
  0
BLOCK
  5
51E
330
51D
100
AcDbEntity
  8
0
100
AcDbBlockBegin
  2
*D26
 70
     1
 10
0.0
 20
0.0
 30
0.0
  3
*D26
  1

  0
LINE
  5
520
330
51D
100
AcDbEntity
  8
化粧台
  6
CONTINUOUS
 62
     3
100
AcDbLine
 10
1200.499999821186
 20
1871.5
 30
0.0
 11
1581.0
 21
1871.5
 31
0.0
  0
LINE
  5
521
330
51D
100
AcDbEntity
  8
化粧台
  6
CONTINUOUS
 62
     3
100
AcDbLine
 10
1566.0
 20
1077.499996185303
 30
0.0
 11
1566.0
 21
1826.500003814697
 31
0.0
  0
INSERT
  5
522
330
51D
100
AcDbEntity
  8
化粧台
 62
     3
100
AcDbBlockReference
  2
EX_NORM
 10
1566.0
 20
1032.5
 30
0.0
 41
44.99999618530273
 42
44.99999618530273
 43
44.99999618530273
 50
270.0
  0
INSERT
  5
523
330
51D
100
AcDbEntity
  8
化粧台
 62
     3
100
AcDbBlockReference
  2
EX_NORM
 10
1566.0
 20
1871.5
 30
0.0
 41
44.99999618530273
 42
44.99999618530273
 43
44.99999618530273
 50
90.0
  0
MTEXT
  5
524
330
51D
100
AcDbEntity
  8
化粧台
 62
     2
100
AcDbMText
 10
1530.750000089407
 20
1452.0
 30
0.0
 40
59.99999618530273
 41
0.0
 71
     5
 72
     1
  1
839
  7
EXCADDIM1
 11
0.0
 21
1.0
 31
0.0
  0
POINT
  5
525
330
51D
100
AcDbEntity
  8
DEFPOINTS
 62
     0
100
AcDbPoint
 10
1368.0
 20
1032.5
 30
0.0
  0
POINT
  5
526
330
51D
100
AcDbEntity
  8
DEFPOINTS
 62
     0
100
AcDbPoint
 10
1190.0
 20
1871.5
 30
0.0
  0
POINT
  5
527
330
51D
100
AcDbEntity
  8
DEFPOINTS
 62
     0
100
AcDbPoint
 10
1566.0
 20
1871.5
 30
0.0
  0
ENDBLK
  5
51F
330
51D
100
AcDbEntity
  8
0
100
AcDbBlockEnd
  0
BLOCK
  5
52A
330
529
100
AcDbEntity
  8
0
100
AcDbBlockBegin
  2
*D27
 70
     1
 10
0.0
 20
0.0
 30
0.0
  3
*D27
  1

  0
LINE
  5
52C
330
529
100
AcDbEntity
  8
化粧台
  6
CONTINUOUS
 62
     3
100
AcDbLine
 10
2560.499999821186
 20
1032.5
 30
0.0
 11
2863.499994277955
 21
1032.5
 31
0.0
  0
LINE
  5
52D
330
529
100
AcDbEntity
  8
化粧台
  6
CONTINUOUS
 62
     3
100
AcDbLine
 10
2568.499999821186
 20
1452.5
 30
0.0
 11
2863.499994277955
 21
1452.5
 31
0.0
  0
LINE
  5
52E
330
529
100
AcDbEntity
  8
化粧台
  6
CONTINUOUS
 62
     3
100
AcDbLine
 10
2640.0
 20
1077.499996185303
 30
0.0
 11
2640.0
 21
1407.500003814697
 31
0.0
  0
INSERT
  5
52F
330
529
100
AcDbEntity
  8
化粧台
 62
     3
100
AcDbBlockReference
  2
EX_NORM
 10
2640.0
 20
1032.5
 30
0.0
 41
44.99999618530273
 42
44.99999618530273
 43
44.99999618530273
 50
270.0
  0
INSERT
  5
530
330
529
100
AcDbEntity
  8
化粧台
 62
     3
100
AcDbBlockReference
  2
EX_NORM
 10
2640.0
 20
1452.5
 30
0.0
 41
44.99999618530273
 42
44.99999618530273
 43
44.99999618530273
 50
90.0
  0
MTEXT
  5
531
330
529
100
AcDbEntity
  8
化粧台
 62
     2
100
AcDbMText
 10
2604.750000089407
 20
1242.5
 30
0.0
 40
59.99999618530273
 41
0.0
 71
     5
 72
     1
  1
420（壁給水）
  7
EXCADDIM1
 11
0.0
 21
1.0
 31
0.0
  0
POINT
  5
532
330
529
100
AcDbEntity
  8
DEFPOINTS
 62
     0
100
AcDbPoint
 10
2550.0
 20
1032.5
 30
0.0
  0
POINT
  5
533
330
529
100
AcDbEntity
  8
DEFPOINTS
 62
     0
100
AcDbPoint
 10
2558.0
 20
1452.5
 30
0.0
  0
POINT
  5
534
330
529
100
AcDbEntity
  8
DEFPOINTS
 62
     0
100
AcDbPoint
 10
2640.0
 20
1452.5
 30
0.0
  0
ENDBLK
  5
52B
330
529
100
AcDbEntity
  8
0
100
AcDbBlockEnd
  0
BLOCK
  5
537
330
536
100
AcDbEntity
  8
0
100
AcDbBlockBegin
  2
*D28
 70
     1
 10
0.0
 20
0.0
 30
0.0
  3
*D28
  1

  0
LINE
  5
539
330
536
100
AcDbEntity
  8
化粧台
  6
CONTINUOUS
 62
     3
100
AcDbLine
 10
2560.499999821186
 20
1032.5
 30
0.0
 11
2821.5
 21
1032.5
 31
0.0
  0
LINE
  5
53A
330
536
100
AcDbEntity
  8
化粧台
  6
CONTINUOUS
 62
     3
100
AcDbLine
 10
2592.999999821186
 20
1612.5
 30
0.0
 11
2821.5
 21
1612.5
 31
0.0
  0
LINE
  5
53B
330
536
100
AcDbEntity
  8
化粧台
  6
CONTINUOUS
 62
     3
100
AcDbLine
 10
2806.5
 20
1077.499996185303
 30
0.0
 11
2806.5
 21
1567.500003814697
 31
0.0
  0
INSERT
  5
53C
330
536
100
AcDbEntity
  8
化粧台
 62
     3
100
AcDbBlockReference
  2
EX_NORM
 10
2806.5
 20
1032.5
 30
0.0
 41
44.99999618530273
 42
44.99999618530273
 43
44.99999618530273
 50
270.0
  0
INSERT
  5
53D
330
536
100
AcDbEntity
  8
化粧台
 62
     3
100
AcDbBlockReference
  2
EX_NORM
 10
2806.5
 20
1612.5
 30
0.0
 41
44.99999618530273
 42
44.99999618530273
 43
44.99999618530273
 50
90.0
  0
MTEXT
  5
53E
330
536
100
AcDbEntity
  8
化粧台
 62
     2
100
AcDbMText
 10
2771.250000089407
 20
1322.5
 30
0.0
 40
59.99999618530273
 41
0.0
 71
     5
 72
     1
  1
580（壁固定）
  7
EXCADDIM1
 11
0.0
 21
1.0
 31
0.0
  0
POINT
  5
53F
330
536
100
AcDbEntity
  8
DEFPOINTS
 62
     0
100
AcDbPoint
 10
2550.0
 20
1032.5
 30
0.0
  0
POINT
  5
540
330
536
100
AcDbEntity
  8
DEFPOINTS
 62
     0
100
AcDbPoint
 10
2582.5
 20
1612.5
 30
0.0
  0
POINT
  5
541
330
536
100
AcDbEntity
  8
DEFPOINTS
 62
     0
100
AcDbPoint
 10
2806.5
 20
1612.5
 30
0.0
  0
ENDBLK
  5
538
330
536
100
AcDbEntity
  8
0
100
AcDbBlockEnd
  0
BLOCK
  5
546
330
545
100
AcDbEntity
  8
0
100
AcDbBlockBegin
  2
*D29
 70
     1
 10
0.0
 20
0.0
 30
0.0
  3
*D29
  1

  0
LINE
  5
548
330
545
100
AcDbEntity
  8
化粧台
  6
CONTINUOUS
 62
     3
100
AcDbLine
 10
2694.0
 20
1462.5
 30
0.0
 11
2737.5
 21
1462.5
 31
0.0
  0
LINE
  5
549
330
545
100
AcDbEntity
  8
化粧台
  6
CONTINUOUS
 62
     3
100
AcDbLine
 10
2724.0
 20
1032.5
 30
0.0
 11
2707.5
 21
1032.5
 31
0.0
  0
LINE
  5
54A
330
545
100
AcDbEntity
  8
化粧台
  6
CONTINUOUS
 62
     3
100
AcDbLine
 10
2722.5
 20
1417.500003814697
 30
0.0
 11
2722.5
 21
1077.499996185303
 31
0.0
  0
INSERT
  5
54B
330
545
100
AcDbEntity
  8
化粧台
 62
     3
100
AcDbBlockReference
  2
EX_NORM
 10
2722.5
 20
1462.5
 30
0.0
 41
44.99999618530273
 42
44.99999618530273
 43
44.99999618530273
 50
90.0
  0
INSERT
  5
54C
330
545
100
AcDbEntity
  8
化粧台
 62
     3
100
AcDbBlockReference
  2
EX_NORM
 10
2722.5
 20
1032.5
 30
0.0
 41
44.99999618530273
 42
44.99999618530273
 43
44.99999618530273
 50
270.0
  0
MTEXT
  5
54D
330
545
100
AcDbEntity
  8
化粧台
 62
     2
100
AcDbMText
 10
2687.250000089407
 20
1247.5
 30
0.0
 40
59.99999618530273
 41
0.0
 71
     5
 72
     1
  1
430（壁排水）
  7
EXCADDIM1
 11
0.0
 21
1.0
 31
0.0
  0
POINT
  5
54E
330
545
100
AcDbEntity
  8
DEFPOINTS
 62
     0
100
AcDbPoint
 10
2686.5
 20
1462.5
 30
0.0
  0
POINT
  5
54F
330
545
100
AcDbEntity
  8
DEFPOINTS
 62
     0
100
AcDbPoint
 10
2731.5
 20
1032.5
 30
0.0
  0
POINT
  5
550
330
545
100
AcDbEntity
  8
DEFPOINTS
 62
     0
100
AcDbPoint
 10
2722.5
 20
1032.5
 30
0.0
  0
ENDBLK
  5
547
330
545
100
AcDbEntity
  8
0
100
AcDbBlockEnd
  0
BLOCK
  5
59C
330
59B
100
AcDbEntity
  8
0
100
AcDbBlockBegin
  2
*D30
 70
     1
 10
0.0
 20
0.0
 30
0.0
  3
*D30
  1

  0
LINE
  5
59E
330
59B
100
AcDbEntity
  8
化粧台
  6
CONTINUOUS
 62
     3
100
AcDbLine
 10
644.9999999999998
 20
3336.000000178814
 30
0.0
 11
644.9999999999998
 21
3216.0
 31
0.0
  0
LINE
  5
59F
330
59B
100
AcDbEntity
  8
化粧台
  6
CONTINUOUS
 62
     3
100
AcDbLine
 10
1195.0
 20
3336.000000178814
 30
0.0
 11
1195.0
 21
3216.0
 31
0.0
  0
LINE
  5
5A0
330
59B
100
AcDbEntity
  8
化粧台
  6
CONTINUOUS
 62
     3
100
AcDbLine
 10
689.9999961853025
 20
3231.0
 30
0.0
 11
1150.000003814697
 21
3231.0
 31
0.0
  0
INSERT
  5
5A1
330
59B
100
AcDbEntity
  8
化粧台
 62
     3
100
AcDbBlockReference
  2
EX_NORM
 10
644.9999999999998
 20
3231.0
 30
0.0
 41
44.99999618530273
 42
44.99999618530273
 43
44.99999618530273
 50
180.0
  0
INSERT
  5
5A2
330
59B
100
AcDbEntity
  8
化粧台
 62
     3
100
AcDbBlockReference
  2
EX_NORM
 10
1195.0
 20
3231.0
 30
0.0
 41
44.99999618530273
 42
44.99999618530273
 43
44.99999618530273
  0
MTEXT
  5
5A3
330
59B
100
AcDbEntity
  8
化粧台
 62
     2
100
AcDbMText
 10
919.9999999999998
 20
3266.249999910593
 30
0.0
 40
59.99999618530273
 41
0.0
 71
     5
 72
     1
  1
550
  7
EXCADDIM1
  0
POINT
  5
5A4
330
59B
100
AcDbEntity
  8
DEFPOINTS
 62
     0
100
AcDbPoint
 10
644.9999999999998
 20
3346.5
 30
0.0
  0
POINT
  5
5A5
330
59B
100
AcDbEntity
  8
DEFPOINTS
 62
     0
100
AcDbPoint
 10
1195.0
 20
3346.5
 30
0.0
  0
POINT
  5
5A6
330
59B
100
AcDbEntity
  8
DEFPOINTS
 62
     0
100
AcDbPoint
 10
1195.0
 20
3231.0
 30
0.0
  0
ENDBLK
  5
59D
330
59B
100
AcDbEntity
  8
0
100
AcDbBlockEnd
  0
BLOCK
  5
5A9
330
5A8
100
AcDbEntity
  8
0
100
AcDbBlockBegin
  2
*D31
 70
     1
 10
0.0
 20
0.0
 30
0.0
  3
*D31
  1

  0
LINE
  5
5AB
330
5A8
100
AcDbEntity
  8
化粧台
  6
CONTINUOUS
 62
     3
100
AcDbLine
 10
469.9999999999998
 20
3376.000000178814
 30
0.0
 11
469.9999999999998
 21
3120.0
 31
0.0
  0
LINE
  5
5AC
330
5A8
100
AcDbEntity
  8
化粧台
  6
CONTINUOUS
 62
     3
100
AcDbLine
 10
1370.0
 20
3376.000000178814
 30
0.0
 11
1370.0
 21
3120.0
 31
0.0
  0
LINE
  5
5AD
330
5A8
100
AcDbEntity
  8
化粧台
  6
CONTINUOUS
 62
     3
100
AcDbLine
 10
514.9999961853025
 20
3135.0
 30
0.0
 11
1325.000003814697
 21
3135.0
 31
0.0
  0
INSERT
  5
5AE
330
5A8
100
AcDbEntity
  8
化粧台
 62
     3
100
AcDbBlockReference
  2
EX_NORM
 10
469.9999999999998
 20
3135.0
 30
0.0
 41
44.99999618530273
 42
44.99999618530273
 43
44.99999618530273
 50
180.0
  0
INSERT
  5
5AF
330
5A8
100
AcDbEntity
  8
化粧台
 62
     3
100
AcDbBlockReference
  2
EX_NORM
 10
1370.0
 20
3135.0
 30
0.0
 41
44.99999618530273
 42
44.99999618530273
 43
44.99999618530273
  0
MTEXT
  5
5B0
330
5A8
100
AcDbEntity
  8
化粧台
 62
     2
100
AcDbMText
 10
919.9999999999999
 20
3170.249999910593
 30
0.0
 40
59.99999618530273
 41
0.0
 71
     5
 72
     1
  1
900
  7
EXCADDIM1
  0
POINT
  5
5B1
330
5A8
100
AcDbEntity
  8
DEFPOINTS
 62
     0
100
AcDbPoint
 10
469.9999999999998
 20
3386.5
 30
0.0
  0
POINT
  5
5B2
330
5A8
100
AcDbEntity
  8
DEFPOINTS
 62
     0
100
AcDbPoint
 10
1370.0
 20
3386.5
 30
0.0
  0
POINT
  5
5B3
330
5A8
100
AcDbEntity
  8
DEFPOINTS
 62
     0
100
AcDbPoint
 10
1370.0
 20
3135.0
 30
0.0
  0
ENDBLK
  5
5AA
330
5A8
100
AcDbEntity
  8
0
100
AcDbBlockEnd
  0
BLOCK
  5
5B6
330
5B5
100
AcDbEntity
  8
0
100
AcDbBlockBegin
  2
*D32
 70
     1
 10
0.0
 20
0.0
 30
0.0
  3
*D32
  1

  0
LINE
  5
5B8
330
5B5
100
AcDbEntity
  8
化粧台
  6
CONTINUOUS
 62
     3
100
AcDbLine
 10
1380.499999821188
 20
3386.5
 30
0.0
 11
1491.0
 21
3386.5
 31
0.0
  0
LINE
  5
5B9
330
5B5
100
AcDbEntity
  8
化粧台
  6
CONTINUOUS
 62
     3
100
AcDbLine
 10
1476.0
 20
3791.500003814697
 30
0.0
 11
1476.0
 21
3431.499996185303
 31
0.0
  0
INSERT
  5
5BA
330
5B5
100
AcDbEntity
  8
化粧台
 62
     3
100
AcDbBlockReference
  2
EX_NORM
 10
1476.0
 20
3836.5
 30
0.0
 41
44.99999618530273
 42
44.99999618530273
 43
44.99999618530273
 50
90.0
  0
INSERT
  5
5BB
330
5B5
100
AcDbEntity
  8
化粧台
 62
     3
100
AcDbBlockReference
  2
EX_NORM
 10
1476.0
 20
3386.5
 30
0.0
 41
44.99999618530273
 42
44.99999618530273
 43
44.99999618530273
 50
270.0
  0
MTEXT
  5
5BC
330
5B5
100
AcDbEntity
  8
化粧台
 62
     2
100
AcDbMText
 10
1440.750000089407
 20
3611.5
 30
0.0
 40
59.99999618530273
 41
0.0
 71
     5
 72
     1
  1
450
  7
EXCADDIM1
 11
0.0
 21
1.0
 31
0.0
  0
POINT
  5
5BD
330
5B5
100
AcDbEntity
  8
DEFPOINTS
 62
     0
100
AcDbPoint
 10
1370.000000000002
 20
3836.5
 30
0.0
  0
POINT
  5
5BE
330
5B5
100
AcDbEntity
  8
DEFPOINTS
 62
     0
100
AcDbPoint
 10
1370.000000000002
 20
3386.5
 30
0.0
  0
POINT
  5
5BF
330
5B5
100
AcDbEntity
  8
DEFPOINTS
 62
     0
100
AcDbPoint
 10
1476.0
 20
3386.5
 30
0.0
  0
ENDBLK
  5
5B7
330
5B5
100
AcDbEntity
  8
0
100
AcDbBlockEnd
  0
BLOCK
  5
5C2
330
5C1
100
AcDbEntity
  8
0
100
AcDbBlockBegin
  2
*D33
 70
     1
 10
0.0
 20
0.0
 30
0.0
  3
*D33
  1

  0
LINE
  5
5C4
330
5C1
100
AcDbEntity
  8
化粧台
  6
CONTINUOUS
 62
     3
100
AcDbLine
 10
1195.499999821186
 20
3336.5
 30
0.0
 11
1576.5
 21
3336.5
 31
0.0
  0
LINE
  5
5C5
330
5C1
100
AcDbEntity
  8
化粧台
  6
CONTINUOUS
 62
     3
100
AcDbLine
 10
1561.5
 20
3381.499996185303
 30
0.0
 11
1561.5
 21
3791.500003814697
 31
0.0
  0
INSERT
  5
5C6
330
5C1
100
AcDbEntity
  8
化粧台
 62
     3
100
AcDbBlockReference
  2
EX_NORM
 10
1561.5
 20
3336.5
 30
0.0
 41
44.99999618530273
 42
44.99999618530273
 43
44.99999618530273
 50
270.0
  0
INSERT
  5
5C7
330
5C1
100
AcDbEntity
  8
化粧台
 62
     3
100
AcDbBlockReference
  2
EX_NORM
 10
1561.5
 20
3836.5
 30
0.0
 41
44.99999618530273
 42
44.99999618530273
 43
44.99999618530273
 50
90.0
  0
MTEXT
  5
5C8
330
5C1
100
AcDbEntity
  8
化粧台
 62
     2
100
AcDbMText
 10
1526.250000089407
 20
3586.5
 30
0.0
 40
59.99999618530273
 41
0.0
 71
     5
 72
     1
  1
500
  7
EXCADDIM1
 11
0.0
 21
1.0
 31
0.0
  0
POINT
  5
5C9
330
5C1
100
AcDbEntity
  8
DEFPOINTS
 62
     0
100
AcDbPoint
 10
1185.0
 20
3336.5
 30
0.0
  0
POINT
  5
5CA
330
5C1
100
AcDbEntity
  8
DEFPOINTS
 62
     0
100
AcDbPoint
 10
1370.0
 20
3836.5
 30
0.0
  0
POINT
  5
5CB
330
5C1
100
AcDbEntity
  8
DEFPOINTS
 62
     0
100
AcDbPoint
 10
1561.5
 20
3836.5
 30
0.0
  0
ENDBLK
  5
5C3
330
5C1
100
AcDbEntity
  8
0
100
AcDbBlockEnd
  0
BLOCK
  5
5CE
330
5CD
100
AcDbEntity
  8
0
100
AcDbBlockBegin
  2
*D34
 70
     1
 10
0.0
 20
0.0
 30
0.0
  3
*D34
  1

  0
LINE
  5
5D0
330
5CD
100
AcDbEntity
  8
化粧台
  6
CONTINUOUS
 62
     3
100
AcDbLine
 10
589.9999999999998
 20
3879.499999821186
 30
0.0
 11
589.9999999999998
 21
3939.0
 31
0.0
  0
LINE
  5
5D1
330
5CD
100
AcDbEntity
  8
化粧台
  6
CONTINUOUS
 62
     3
100
AcDbLine
 10
1250.0
 20
3879.499999821186
 30
0.0
 11
1250.0
 21
3939.0
 31
0.0
  0
LINE
  5
5D2
330
5CD
100
AcDbEntity
  8
化粧台
  6
CONTINUOUS
 62
     3
100
AcDbLine
 10
634.9999961853025
 20
3924.0
 30
0.0
 11
1205.000003814697
 21
3924.0
 31
0.0
  0
INSERT
  5
5D3
330
5CD
100
AcDbEntity
  8
化粧台
 62
     3
100
AcDbBlockReference
  2
EX_NORM
 10
589.9999999999998
 20
3924.0
 30
0.0
 41
44.99999618530273
 42
44.99999618530273
 43
44.99999618530273
 50
180.0
  0
INSERT
  5
5D4
330
5CD
100
AcDbEntity
  8
化粧台
 62
     3
100
AcDbBlockReference
  2
EX_NORM
 10
1250.0
 20
3924.0
 30
0.0
 41
44.99999618530273
 42
44.99999618530273
 43
44.99999618530273
  0
MTEXT
  5
5D5
330
5CD
100
AcDbEntity
  8
化粧台
 62
     2
100
AcDbMText
 10
919.9999999999998
 20
3959.249999910593
 30
0.0
 40
59.99999618530273
 41
0.0
 71
     5
 72
     1
  1
660（壁固定）
  7
EXCADDIM1
  0
POINT
  5
5D6
330
5CD
100
AcDbEntity
  8
DEFPOINTS
 62
     0
100
AcDbPoint
 10
589.9999999999998
 20
3869.0
 30
0.0
  0
POINT
  5
5D7
330
5CD
100
AcDbEntity
  8
DEFPOINTS
 62
     0
100
AcDbPoint
 10
1250.0
 20
3869.0
 30
0.0
  0
POINT
  5
5D8
330
5CD
100
AcDbEntity
  8
DEFPOINTS
 62
     0
100
AcDbPoint
 10
1250.0
 20
3924.0
 30
0.0
  0
ENDBLK
  5
5CF
330
5CD
100
AcDbEntity
  8
0
100
AcDbBlockEnd
  0
BLOCK
  5
5DD
330
5DC
100
AcDbEntity
  8
0
100
AcDbBlockBegin
  2
*D35
 70
     1
 10
0.0
 20
0.0
 30
0.0
  3
*D35
  1

  0
LINE
  5
5DF
330
5DC
100
AcDbEntity
  8
鏡台
  6
CONTINUOUS
 62
     3
100
AcDbLine
 10
695.0
 20
2791.799999821187
 30
0.0
 11
695.0
 21
2937.5
 31
0.0
  0
LINE
  5
5E0
330
5DC
100
AcDbEntity
  8
鏡台
  6
CONTINUOUS
 62
     3
100
AcDbLine
 10
1145.0
 20
2791.799999821187
 30
0.0
 11
1145.0
 21
2937.5
 31
0.0
  0
LINE
  5
5E1
330
5DC
100
AcDbEntity
  8
鏡台
  6
CONTINUOUS
 62
     3
100
AcDbLine
 10
739.9999961853027
 20
2922.5
 30
0.0
 11
1100.000003814697
 21
2922.5
 31
0.0
  0
INSERT
  5
5E2
330
5DC
100
AcDbEntity
  8
鏡台
 62
     3
100
AcDbBlockReference
  2
EX_NORM
 10
695.0
 20
2922.5
 30
0.0
 41
44.99999618530273
 42
44.99999618530273
 43
44.99999618530273
 50
180.0
  0
INSERT
  5
5E3
330
5DC
100
AcDbEntity
  8
鏡台
 62
     3
100
AcDbBlockReference
  2
EX_NORM
 10
1145.0
 20
2922.5
 30
0.0
 41
44.99999618530273
 42
44.99999618530273
 43
44.99999618530273
  0
MTEXT
  5
5E4
330
5DC
100
AcDbEntity
  8
鏡台
 62
     2
100
AcDbMText
 10
920.0
 20
2957.749999910593
 30
0.0
 40
59.99999618530273
 41
0.0
 71
     5
 72
     1
  1
450
  7
EXCADDIM1
  0
POINT
  5
5E5
330
5DC
100
AcDbEntity
  8
DEFPOINTS
 62
     0
100
AcDbPoint
 10
695.0
 20
2781.300000000001
 30
0.0
  0
POINT
  5
5E6
330
5DC
100
AcDbEntity
  8
DEFPOINTS
 62
     0
100
AcDbPoint
 10
1145.0
 20
2781.300000000001
 30
0.0
  0
POINT
  5
5E7
330
5DC
100
AcDbEntity
  8
DEFPOINTS
 62
     0
100
AcDbPoint
 10
1145.0
 20
2922.5
 30
0.0
  0
ENDBLK
  5
5DE
330
5DC
100
AcDbEntity
  8
0
100
AcDbBlockEnd
  0
BLOCK
  5
5EA
330
5E9
100
AcDbEntity
  8
0
100
AcDbBlockBegin
  2
*D36
 70
     1
 10
0.0
 20
0.0
 30
0.0
  3
*D36
  1

  0
LINE
  5
5EC
330
5E9
100
AcDbEntity
  8
鏡台
  6
CONTINUOUS
 62
     3
100
AcDbLine
 10
1153.999999821186
 20
2280.1
 30
0.0
 11
1310.0
 21
2280.1
 31
0.0
  0
LINE
  5
5ED
330
5E9
100
AcDbEntity
  8
鏡台
  6
CONTINUOUS
 62
     3
100
AcDbLine
 10
1153.999999821186
 20
2782.5
 30
0.0
 11
1310.0
 21
2782.5
 31
0.0
  0
LINE
  5
5EE
330
5E9
100
AcDbEntity
  8
鏡台
  6
CONTINUOUS
 62
     3
100
AcDbLine
 10
1295.0
 20
2325.099996185303
 30
0.0
 11
1295.0
 21
2737.500003814698
 31
0.0
  0
INSERT
  5
5EF
330
5E9
100
AcDbEntity
  8
鏡台
 62
     3
100
AcDbBlockReference
  2
EX_NORM
 10
1295.0
 20
2280.1
 30
0.0
 41
44.99999618530273
 42
44.99999618530273
 43
44.99999618530273
 50
270.0
  0
INSERT
  5
5F0
330
5E9
100
AcDbEntity
  8
鏡台
 62
     3
100
AcDbBlockReference
  2
EX_NORM
 10
1295.0
 20
2782.5
 30
0.0
 41
44.99999618530273
 42
44.99999618530273
 43
44.99999618530273
 50
90.0
  0
MTEXT
  5
5F1
330
5E9
100
AcDbEntity
  8
鏡台
 62
     2
100
AcDbMText
 10
1259.750000089408
 20
2531.3
 30
0.0
 40
59.99999618530273
 41
0.0
 71
     5
 72
     1
  1
503
  7
EXCADDIM1
 11
0.0
 21
1.0
 31
0.0
  0
POINT
  5
5F2
330
5E9
100
AcDbEntity
  8
DEFPOINTS
 62
     0
100
AcDbPoint
 10
1143.5
 20
2280.1
 30
0.0
  0
POINT
  5
5F3
330
5E9
100
AcDbEntity
  8
DEFPOINTS
 62
     0
100
AcDbPoint
 10
1143.5
 20
2782.5
 30
0.0
  0
POINT
  5
5F4
330
5E9
100
AcDbEntity
  8
DEFPOINTS
 62
     0
100
AcDbPoint
 10
1295.0
 20
2782.5
 30
0.0
  0
ENDBLK
  5
5EB
330
5E9
100
AcDbEntity
  8
0
100
AcDbBlockEnd
  0
BLOCK
  5
5F7
330
5F6
100
AcDbEntity
  8
0
100
AcDbBlockBegin
  2
*D37
 70
     1
 10
0.0
 20
0.0
 30
0.0
  3
*D37
  1

  0
LINE
  5
5F9
330
5F6
100
AcDbEntity
  8
鏡台
  6
CONTINUOUS
 62
     3
100
AcDbLine
 10
770.0000000000002
 20
2744.799999821187
 30
0.0
 11
770.0000000000002
 21
2857.5
 31
0.0
  0
LINE
  5
5FA
330
5F6
100
AcDbEntity
  8
鏡台
  6
CONTINUOUS
 62
     3
100
AcDbLine
 10
1070.0
 20
2744.799999821187
 30
0.0
 11
1070.0
 21
2857.5
 31
0.0
  0
LINE
  5
5FB
330
5F6
100
AcDbEntity
  8
鏡台
  6
CONTINUOUS
 62
     3
100
AcDbLine
 10
814.999996185303
 20
2842.5
 30
0.0
 11
1025.000003814697
 21
2842.5
 31
0.0
  0
INSERT
  5
5FC
330
5F6
100
AcDbEntity
  8
鏡台
 62
     3
100
AcDbBlockReference
  2
EX_NORM
 10
770.0000000000002
 20
2842.5
 30
0.0
 41
44.99999618530273
 42
44.99999618530273
 43
44.99999618530273
 50
180.0
  0
INSERT
  5
5FD
330
5F6
100
AcDbEntity
  8
鏡台
 62
     3
100
AcDbBlockReference
  2
EX_NORM
 10
1070.0
 20
2842.5
 30
0.0
 41
44.99999618530273
 42
44.99999618530273
 43
44.99999618530273
  0
MTEXT
  5
5FE
330
5F6
100
AcDbEntity
  8
鏡台
 62
     2
100
AcDbMText
 10
920.0000000000005
 20
2877.749999910593
 30
0.0
 40
59.99999618530273
 41
0.0
 71
     5
 72
     1
  1
300（壁固定）
  7
EXCADDIM1
  0
POINT
  5
5FF
330
5F6
100
AcDbEntity
  8
DEFPOINTS
 62
     0
100
AcDbPoint
 10
770.0000000000002
 20
2734.300000000001
 30
0.0
  0
POINT
  5
600
330
5F6
100
AcDbEntity
  8
DEFPOINTS
 62
     0
100
AcDbPoint
 10
1070.0
 20
2734.300000000001
 30
0.0
  0
POINT
  5
601
330
5F6
100
AcDbEntity
  8
DEFPOINTS
 62
     0
100
AcDbPoint
 10
1070.0
 20
2842.5
 30
0.0
  0
ENDBLK
  5
5F8
330
5F6
100
AcDbEntity
  8
0
100
AcDbBlockEnd
  0
BLOCK
  5
604
330
603
100
AcDbEntity
  8
0
100
AcDbBlockBegin
  2
*D38
 70
     1
 10
0.0
 20
0.0
 30
0.0
  3
*D38
  1

  0
LINE
  5
606
330
603
100
AcDbEntity
  8
鏡台
  6
CONTINUOUS
 62
     3
100
AcDbLine
 10
2428.8
 20
2792.999999821187
 30
0.0
 11
2428.8
 21
2857.5
 31
0.0
  0
LINE
  5
607
330
603
100
AcDbEntity
  8
鏡台
  6
CONTINUOUS
 62
     3
100
AcDbLine
 10
2550.0
 20
2786.799999821187
 30
0.0
 11
2550.0
 21
2857.5
 31
0.0
  0
LINE
  5
608
330
603
100
AcDbEntity
  8
鏡台
  6
CONTINUOUS
 62
     3
100
AcDbLine
 10
2473.799996185303
 20
2842.5
 30
0.0
 11
2505.000003814697
 21
2842.5
 31
0.0
  0
INSERT
  5
609
330
603
100
AcDbEntity
  8
鏡台
 62
     3
100
AcDbBlockReference
  2
EX_NORM
 10
2428.8
 20
2842.5
 30
0.0
 41
44.99999618530273
 42
44.99999618530273
 43
44.99999618530273
 50
180.0
  0
INSERT
  5
60A
330
603
100
AcDbEntity
  8
鏡台
 62
     3
100
AcDbBlockReference
  2
EX_NORM
 10
2550.0
 20
2842.5
 30
0.0
 41
44.99999618530273
 42
44.99999618530273
 43
44.99999618530273
  0
MTEXT
  5
60B
330
603
100
AcDbEntity
  8
鏡台
 62
     2
100
AcDbMText
 10
2489.4
 20
2877.749999910593
 30
0.0
 40
59.99999618530273
 41
0.0
 71
     5
 72
     1
  1
122
  7
EXCADDIM1
  0
POINT
  5
60C
330
603
100
AcDbEntity
  8
DEFPOINTS
 62
     0
100
AcDbPoint
 10
2428.8
 20
2782.5
 30
0.0
  0
POINT
  5
60D
330
603
100
AcDbEntity
  8
DEFPOINTS
 62
     0
100
AcDbPoint
 10
2550.0
 20
2776.300000000001
 30
0.0
  0
POINT
  5
60E
330
603
100
AcDbEntity
  8
DEFPOINTS
 62
     0
100
AcDbPoint
 10
2550.0
 20
2842.5
 30
0.0
  0
ENDBLK
  5
605
330
603
100
AcDbEntity
  8
0
100
AcDbBlockEnd
  0
BLOCK
  5
611
330
610
100
AcDbEntity
  8
0
100
AcDbBlockBegin
  2
*D39
 70
     1
 10
0.0
 20
0.0
 30
0.0
  3
*D39
  1

  0
LINE
  5
613
330
610
100
AcDbEntity
  8
鏡台
  6
CONTINUOUS
 62
     3
100
AcDbLine
 10
2593.699999821187
 20
2346.300000000001
 30
0.0
 11
2911.499999999999
 21
2346.300000000001
 31
0.0
  0
LINE
  5
614
330
610
100
AcDbEntity
  8
鏡台
  6
CONTINUOUS
 62
     3
100
AcDbLine
 10
2593.699999821187
 20
2726.300000000001
 30
0.0
 11
2911.499999999999
 21
2726.300000000001
 31
0.0
  0
LINE
  5
615
330
610
100
AcDbEntity
  8
鏡台
  6
CONTINUOUS
 62
     3
100
AcDbLine
 10
2896.499999999999
 20
2391.299996185303
 30
0.0
 11
2896.499999999999
 21
2681.300003814698
 31
0.0
  0
INSERT
  5
616
330
610
100
AcDbEntity
  8
鏡台
 62
     3
100
AcDbBlockReference
  2
EX_NORM
 10
2896.499999999999
 20
2346.300000000001
 30
0.0
 41
44.99999618530273
 42
44.99999618530273
 43
44.99999618530273
 50
270.0
  0
INSERT
  5
617
330
610
100
AcDbEntity
  8
鏡台
 62
     3
100
AcDbBlockReference
  2
EX_NORM
 10
2896.499999999999
 20
2726.300000000001
 30
0.0
 41
44.99999618530273
 42
44.99999618530273
 43
44.99999618530273
 50
90.0
  0
MTEXT
  5
618
330
610
100
AcDbEntity
  8
鏡台
 62
     2
100
AcDbMText
 10
2861.250000089406
 20
2536.299999999996
 30
0.0
 40
59.99999618530273
 41
0.0
 71
     5
 72
     1
  1
380（壁固定）
  7
EXCADDIM1
 11
0.0
 21
1.0
 31
0.0
  0
POINT
  5
619
330
610
100
AcDbEntity
  8
DEFPOINTS
 62
     0
100
AcDbPoint
 10
2583.200000000001
 20
2346.300000000001
 30
0.0
  0
POINT
  5
61A
330
610
100
AcDbEntity
  8
DEFPOINTS
 62
     0
100
AcDbPoint
 10
2583.200000000001
 20
2726.300000000001
 30
0.0
  0
POINT
  5
61B
330
610
100
AcDbEntity
  8
DEFPOINTS
 62
     0
100
AcDbPoint
 10
2896.499999999999
 20
2726.300000000001
 30
0.0
  0
ENDBLK
  5
612
330
610
100
AcDbEntity
  8
0
100
AcDbBlockEnd
  0
BLOCK
  5
61E
330
61D
100
AcDbEntity
  8
0
100
AcDbBlockBegin
  2
*D40
 70
     1
 10
0.0
 20
0.0
 30
0.0
  3
*D40
  1

  0
LINE
  5
620
330
61D
100
AcDbEntity
  8
鏡台
  6
CONTINUOUS
 62
     3
100
AcDbLine
 10
2593.699999821187
 20
2726.300000000001
 30
0.0
 11
2911.499999999998
 21
2726.300000000001
 31
0.0
  0
LINE
  5
621
330
61D
100
AcDbEntity
  8
鏡台
  6
CONTINUOUS
 62
     3
100
AcDbLine
 10
2459.299999821186
 20
2782.5
 30
0.0
 11
2911.499999999998
 21
2782.5
 31
0.0
  0
LINE
  5
622
330
61D
100
AcDbEntity
  8
鏡台
  6
CONTINUOUS
 62
     3
100
AcDbLine
 10
2896.499999999998
 20
2726.300000000001
 30
0.0
 11
2896.499999999998
 21
2782.5
 31
0.0
  0
LINE
  5
623
330
61D
100
AcDbEntity
  8
鏡台
  6
CONTINUOUS
 62
     3
100
AcDbLine
 10
2896.499999999998
 20
2681.300003814698
 30
0.0
 11
2896.499999999998
 21
2636.300007629395
 31
0.0
  0
LINE
  5
624
330
61D
100
AcDbEntity
  8
鏡台
  6
CONTINUOUS
 62
     3
100
AcDbLine
 10
2896.499999999998
 20
2827.499996185303
 30
0.0
 11
2896.499999999998
 21
2872.499992370606
 31
0.0
  0
INSERT
  5
625
330
61D
100
AcDbEntity
  8
鏡台
 62
     3
100
AcDbBlockReference
  2
EX_NORM
 10
2896.499999999998
 20
2726.300000000001
 30
0.0
 41
44.99999618530273
 42
44.99999618530273
 43
44.99999618530273
 50
90.0
  0
INSERT
  5
626
330
61D
100
AcDbEntity
  8
鏡台
 62
     3
100
AcDbBlockReference
  2
EX_NORM
 10
2896.499999999998
 20
2782.5
 30
0.0
 41
44.99999618530273
 42
44.99999618530273
 43
44.99999618530273
 50
270.0
  0
MTEXT
  5
627
330
61D
100
AcDbEntity
  8
鏡台
 62
     2
100
AcDbMText
 10
2861.250000089403
 20
2879.999999999997
 30
0.0
 40
59.99999618530273
 41
0.0
 71
     5
 72
     1
  1
56
  7
EXCADDIM1
 11
0.0
 21
1.0
 31
0.0
  0
POINT
  5
628
330
61D
100
AcDbEntity
  8
DEFPOINTS
 62
     0
100
AcDbPoint
 10
2583.200000000001
 20
2726.300000000001
 30
0.0
  0
POINT
  5
629
330
61D
100
AcDbEntity
  8
DEFPOINTS
 62
     0
100
AcDbPoint
 10
2448.8
 20
2782.5
 30
0.0
  0
POINT
  5
62A
330
61D
100
AcDbEntity
  8
DEFPOINTS
 62
     0
100
AcDbPoint
 10
2896.499999999998
 20
2782.5
 30
0.0
  0
ENDBLK
  5
61F
330
61D
100
AcDbEntity
  8
0
100
AcDbBlockEnd
  0
ENDSEC
  0
SECTION
  2
ENTITIES
  0
LINE
  5
A9
330
1F
100
AcDbEntity
  8
枠_表
  6
CONTINUOUS
 62
     7
100
AcDbLine
 10
269.9999999999998
 20
202.5
 30
0.0
 11
3000.0
 21
202.5
 31
0.0
  0
LINE
  5
AA
330
1F
100
AcDbEntity
  8
枠_表
  6
CONTINUOUS
 62
     7
100
AcDbLine
 10
3000.0
 20
202.5
 30
0.0
 11
3000.0
 21
4327.5
 31
0.0
  0
LINE
  5
AB
330
1F
100
AcDbEntity
  8
枠_表
  6
CONTINUOUS
 62
     7
100
AcDbLine
 10
269.9999999999998
 20
202.5
 30
0.0
 11
269.9999999999998
 21
4327.5
 31
0.0
  0
LINE
  5
AC
330
1F
100
AcDbEntity
  8
枠_表
  6
CONTINUOUS
 62
     7
100
AcDbLine
 10
269.9999999999998
 20
4327.5
 30
0.0
 11
3000.0
 21
4327.5
 31
0.0
  0
LINE
  5
AD
330
1F
100
AcDbEntity
  8
枠_表
  6
CONTINUOUS
 62
     7
100
AcDbLine
 10
269.9999999999998
 20
532.5
 30
0.0
 11
3000.0
 21
532.5
 31
0.0
  0
LINE
  5
AE
330
1F
100
AcDbEntity
  8
枠_表
  6
CONTINUOUS
 62
     6
100
AcDbLine
 10
3000.0
 20
352.5
 30
0.0
 11
1125.0
 21
352.5
 31
0.0
  0
LINE
  5
AF
330
1F
100
AcDbEntity
  8
枠_表
  6
CONTINUOUS
 62
     6
100
AcDbLine
 10
2790.0
 20
532.5
 30
0.0
 11
2790.0
 21
352.5
 31
0.0
  0
LINE
  5
B0
330
1F
100
AcDbEntity
  8
枠_表
  6
CONTINUOUS
 62
     6
100
AcDbLine
 10
2715.0
 20
532.5
 30
0.0
 11
2715.0
 21
352.5
 31
0.0
  0
LINE
  5
B1
330
1F
100
AcDbEntity
  8
枠_表
  6
CONTINUOUS
 62
     6
100
AcDbLine
 10
2160.0
 20
532.5
 30
0.0
 11
2160.0
 21
202.5
 31
0.0
  0
LINE
  5
B2
330
1F
100
AcDbEntity
  8
枠_表
  6
CONTINUOUS
 62
     6
100
AcDbLine
 10
2085.0
 20
532.5
 30
0.0
 11
2085.0
 21
202.5
 31
0.0
  0
LINE
  5
B3
330
1F
100
AcDbEntity
  8
枠_表
  6
CONTINUOUS
 62
     6
100
AcDbLine
 10
1200.0
 20
532.5
 30
0.0
 11
1200.0
 21
352.5
 31
0.0
  0
LINE
  5
B4
330
1F
100
AcDbEntity
  8
枠_表
  6
CONTINUOUS
 62
     6
100
AcDbLine
 10
1125.0
 20
532.5
 30
0.0
 11
1125.0
 21
202.5
 31
0.0
  0
LINE
  5
B5
330
1F
100
AcDbEntity
  8
枠_表
  6
CONTINUOUS
 62
     6
100
AcDbLine
 10
929.9999999999998
 20
532.5
 30
0.0
 11
929.9999999999998
 21
202.5
 31
0.0
  0
LINE
  5
B6
330
1F
100
AcDbEntity
  8
枠_表
  6
CONTINUOUS
 62
     6
100
AcDbLine
 10
734.9999999999998
 20
532.5
 30
0.0
 11
734.9999999999998
 21
202.5
 31
0.0
  0
LINE
  5
B7
330
1F
100
AcDbEntity
  8
枠_表
  6
CONTINUOUS
 62
     6
100
AcDbLine
 10
502.4999999999998
 20
532.5
 30
0.0
 11
502.4999999999998
 21
202.5
 31
0.0
  0
LINE
  5
B8
330
1F
100
AcDbEntity
  8
枠_表
  6
CONTINUOUS
 62
     6
100
AcDbLine
 10
269.9999999999998
 20
457.5
 30
0.0
 11
1125.0
 21
457.5
 31
0.0
  0
LINE
  5
B9
330
1F
100
AcDbEntity
  8
枠_表
  6
CONTINUOUS
 62
     6
100
AcDbLine
 10
2838.9807129
 20
387.0043945499998
 30
0.0
 11
2954.99084475
 21
505.0497436499998
 31
0.0
  0
CIRCLE
  5
BA
330
1F
100
AcDbEntity
  8
枠_表
  6
CONTINUOUS
 62
     6
100
AcDbCircle
 10
344.9999999999998
 20
240.0
 30
0.0
 40
1.5000003
  0
CIRCLE
  5
BB
330
1F
100
AcDbEntity
  8
枠_表
  6
CONTINUOUS
 62
     6
100
AcDbCircle
 10
419.9999999999998
 20
240.0
 30
0.0
 40
1.5000003
  0
CIRCLE
  5
BC
330
1F
100
AcDbEntity
  8
枠_表
  6
CONTINUOUS
 62
     6
100
AcDbCircle
 10
577.4999999999998
 20
240.0
 30
0.0
 40
1.5000003
  0
CIRCLE
  5
BD
330
1F
100
AcDbEntity
  8
枠_表
  6
CONTINUOUS
 62
     6
100
AcDbCircle
 10
652.4999999999998
 20
240.0
 30
0.0
 40
1.5000003
  0
LINE
  5
BE
330
1F
100
AcDbEntity
  8
枠_表
  6
CONTINUOUS
 62
     6
100
AcDbLine
 10
1875.0
 20
4252.5
 30
0.0
 11
2925.0
 21
4252.5
 31
0.0
  0
LINE
  5
BF
330
1F
100
AcDbEntity
  8
枠_表
  6
CONTINUOUS
 62
     6
100
AcDbLine
 10
1875.0
 20
4170.0
 30
0.0
 11
2925.0
 21
4170.0
 31
0.0
  0
LINE
  5
C0
330
1F
100
AcDbEntity
  8
枠_表
  6
CONTINUOUS
 62
     6
100
AcDbLine
 10
1875.0
 20
4087.5
 30
0.0
 11
2925.0
 21
4087.5
 31
0.0
  0
LINE
  5
C1
330
1F
100
AcDbEntity
  8
枠_表
  6
CONTINUOUS
 62
     6
100
AcDbLine
 10
1875.0
 20
4005.0
 30
0.0
 11
2925.0
 21
4005.0
 31
0.0
  0
LINE
  5
C2
330
1F
100
AcDbEntity
  8
枠_表
  6
EXLTYPE2
 62
     6
100
AcDbLine
 10
269.9999999999998
 20
277.5
 30
0.0
 11
734.9999999999998
 21
277.5
 31
0.0
  0
TEXT
  5
C3
330
1F
100
AcDbEntity
  8
枠_表
  6
CONTINUOUS
 62
     2
100
AcDbText
 10
2835.8056641
 20
454.0841674500001
 30
0.0
 40
44.99999618530273
  1
１
 41
1.101333426694527
  7
EXCADSTD
 72
     5
 11
2871.2056641
 21
454.0841674500001
 31
0.0
100
AcDbText
  0
TEXT
  5
C4
330
1F
100
AcDbEntity
  8
枠_表
  6
CONTINUOUS
 62
     2
100
AcDbText
 10
2896.91894535
 20
387.5232695999998
 30
0.0
 40
44.99999618530273
  1
１５
 41
1.098531308335255
  7
EXCADSTD
 72
     5
 11
2974.600795568535
 21
387.5232695999998
 31
0.0
100
AcDbText
  0
TEXT
  5
C5
330
1F
100
AcDbEntity
  8
枠_表
  6
CONTINUOUS
 62
     2
100
AcDbText
 10
303.7499999999998
 20
463.1250019073486
 30
0.0
 40
63.74999618530273
  1
製図
 41
1.509694103275157
  7
EXCADSTD
 72
     5
 11
454.9889895103453
 21
463.1250019073486
 31
0.0
100
AcDbText
  0
TEXT
  5
C6
330
1F
100
AcDbEntity
  8
枠_表
  6
CONTINUOUS
 62
     2
100
AcDbText
 10
536.2499999999998
 20
463.1250019073486
 30
0.0
 40
63.74999618530273
  1
写図
 41
1.509694103275156
  7
EXCADSTD
 72
     5
 11
687.4889895103452
 21
463.1250019073486
 31
0.0
100
AcDbText
  0
TEXT
  5
C7
330
1F
100
AcDbEntity
  8
枠_表
  6
CONTINUOUS
 62
     2
100
AcDbText
 10
761.2499999999998
 20
463.1250019073486
 30
0.0
 40
63.74999618530273
  1
検図
 41
1.303826737454632
  7
EXCADSTD
 72
     5
 11
891.8654921327588
 21
463.1250019073486
 31
0.0
100
AcDbText
  0
TEXT
  5
C8
330
1F
100
AcDbEntity
  8
枠_表
  6
CONTINUOUS
 62
     2
100
AcDbText
 10
956.2499999999998
 20
463.1250019073486
 30
0.0
 40
63.74999618530273
  1
承認
 41
1.303826737454632
  7
EXCADSTD
 72
     5
 11
1086.865492132759
 21
463.1250019073486
 31
0.0
100
AcDbText
  0
TEXT
  5
C9
330
1F
100
AcDbEntity
  8
枠_表
  6
CONTINUOUS
 62
     2
100
AcDbText
 10
1133.625
 20
448.1250019073486
 30
0.0
 40
63.74999618530273
  1
品
 41
1.119999999999999
  7
EXCADSTD
 72
     5
 11
1184.624996948242
 21
448.1250019073486
 31
0.0
100
AcDbText
  0
TEXT
  5
CA
330
1F
100
AcDbEntity
  8
枠_表
  6
CONTINUOUS
 62
     2
100
AcDbText
 10
1133.625
 20
373.1250019073486
 30
0.0
 40
63.74999618530273
  1
名
 41
1.119999999999999
  7
EXCADSTD
 72
     5
 11
1184.624996948242
 21
373.1250019073486
 31
0.0
100
AcDbText
  0
TEXT
  5
CB
330
1F
100
AcDbEntity
  8
枠_表
  6
CONTINUOUS
 62
     2
100
AcDbText
 10
2093.625
 20
448.1250019073486
 30
0.0
 40
63.74999618530273
  1
品
 41
1.120000000000004
  7
EXCADSTD
 72
     5
 11
2144.624996948242
 21
448.1250019073486
 31
0.0
100
AcDbText
  0
TEXT
  5
CC
330
1F
100
AcDbEntity
  8
枠_表
  6
CONTINUOUS
 62
     2
100
AcDbText
 10
2093.625
 20
373.1250019073486
 30
0.0
 40
63.74999618530273
  1
番
 41
1.120000000000004
  7
EXCADSTD
 72
     5
 11
2144.624996948242
 21
373.1250019073486
 31
0.0
100
AcDbText
  0
TEXT
  5
CD
330
1F
100
AcDbEntity
  8
枠_表
  6
CONTINUOUS
 62
     2
100
AcDbText
 10
2725.125
 20
448.1250019073486
 30
0.0
 40
63.74999618530273
  1
尺
 41
1.120000000000004
  7
EXCADSTD
 72
     5
 11
2776.124996948242
 21
448.1250019073486
 31
0.0
100
AcDbText
  0
TEXT
  5
CE
330
1F
100
AcDbEntity
  8
枠_表
  6
CONTINUOUS
 62
     2
100
AcDbText
 10
2725.125
 20
373.1250019073486
 30
0.0
 40
63.74999618530273
  1
度
 41
1.120000000000004
  7
EXCADSTD
 72
     5
 11
2776.124996948242
 21
373.1250019073486
 31
0.0
100
AcDbText
  0
TEXT
  5
CF
330
1F
100
AcDbEntity
  8
枠_表
  6
CONTINUOUS
 62
     2
100
AcDbText
 10
2093.625
 20
278.6250019073485
 30
0.0
 40
63.74999618530273
  1
図
 41
1.120000000000004
  7
EXCADSTD
 72
     5
 11
2144.624996948242
 21
278.6250019073485
 31
0.0
100
AcDbText
  0
TEXT
  5
D0
330
1F
100
AcDbEntity
  8
枠_表
  6
CONTINUOUS
 62
     2
100
AcDbText
 10
2093.625
 20
214.1250019073483
 30
0.0
 40
63.74999618530273
  1
番
 41
1.120000000000004
  7
EXCADSTD
 72
     5
 11
2144.624996948242
 21
214.1250019073483
 31
0.0
100
AcDbText
  0
TEXT
  5
D1
330
1F
100
AcDbEntity
  8
枠_表
  6
CONTINUOUS
 62
     2
100
AcDbText
 10
1995.0
 20
4181.250001907349
 30
0.0
 40
59.99999618530273
  1
品番
 41
2.041518237445141
  7
EXCADSTD
 72
     5
 11
2187.485993006897
 21
4181.250001907349
 31
0.0
100
AcDbText
  0
TEXT
  5
D2
330
1F
100
AcDbEntity
  8
枠_表
  6
CONTINUOUS
 62
     2
100
AcDbText
 10
2340.000000000001
 20
4098.750001907349
 30
0.0
 40
59.99999618530273
  1
洗面化粧台
 41
1.086206896551724
  7
EXCADSTD
 72
     5
 11
2609.999982833863
 21
4098.750001907349
 31
0.0
100
AcDbText
  0
TEXT
  5
D3
330
1F
100
AcDbEntity
  8
枠_表
  6
CONTINUOUS
 62
     2
100
AcDbText
 10
2340.000000000001
 20
4016.250001907349
 30
0.0
 40
59.99999618530273
  1
洗面化粧台：寒冷地仕様
 41
1.05
  7
EXCADSTD
 72
     5
 11
2924.999962806703
 21
4016.250001907349
 31
0.0
100
AcDbText
  0
TEXT
  5
D4
330
1F
100
AcDbEntity
  8
枠_表
  6
CONTINUOUS
 62
     2
100
AcDbText
 10
2520.0
 20
4181.250001907349
 30
0.0
 40
59.99999618530273
  1
品名
 41
2.041518237445141
  7
EXCADSTD
 72
     5
 11
2712.485993006897
 21
4181.250001907349
 31
0.0
100
AcDbText
  0
LINE
  5
D5
330
1F
100
AcDbEntity
  8
枠_表
  6
EXLTYPE2
 62
     6
100
AcDbLine
 10
270.0
 20
2265.0
 30
0.0
 11
0.0
 21
2265.0
 31
0.0
  0
TEXT
  5
D6
330
1F
100
AcDbEntity
  8
枠_表
  6
CONTINUOUS
 62
     2
100
AcDbText
 10
432.0000001499997
 20
210.0000019073486
 30
0.0
 40
59.99999618530273
  1
30
 41
0.4540540865305332
  7
EXCADSTD
 72
     5
 11
480.0000005314695
 21
210.0000019073486
 31
0.0
100
AcDbText
  0
TEXT
  5
D7
330
1F
100
AcDbEntity
  8
枠_表
  6
CONTINUOUS
 62
     2
100
AcDbText
 10
1390.5
 20
442.5
 30
0.0
 40
74.99999237060547
  1
900㎜幅
 41
0.8693548467492553
  7
EXCADSTD
 72
     5
 11
1679.249973297119
 21
442.5
 31
0.0
100
AcDbText
  0
TEXT
  5
D8
330
1F
100
AcDbEntity
  8
枠_表
  6
CONTINUOUS
 62
     2
100
AcDbText
 10
1390.5
 20
367.5000076293945
 30
0.0
 40
74.99999237060547
  1
　洗面化粧台
 41
1.320000012207033
  7
EXCADSTD
 72
     5
 11
1885.499954223632
 21
367.5000076293945
 31
0.0
100
AcDbText
  0
TEXT
  5
DA
330
1F
100
AcDbEntity
  8
枠_表
  6
CONTINUOUS
 62
     2
100
AcDbText
 10
1155.0
 20
232.5000038146973
 30
0.0
 40
67.4999942779541
  1
ジャニス工業株式会社
 41
1.025641044209626
  7
EXCADTTF1
 72
     5
 11
2054.99994
 21
232.5000038146973
 31
0.0
100
AcDbText
  0
TEXT
  5
DB
330
1F
100
AcDbEntity
  8
枠_表
  6
CONTINUOUS
 62
     2
100
AcDbText
 10
1890.0
 20
4098.750001907349
 30
0.0
 40
59.99999618530273
  1
ＬＵ９０５ＣＳＤ
 41
0.8340425304656325
  7
EXCADSTD
 72
     5
 11
2225.999969482422
 21
4098.750001907349
 31
0.0
100
AcDbText
  0
TEXT
  5
DC
330
1F
100
AcDbEntity
  8
枠_表
  6
CONTINUOUS
 62
     2
100
AcDbText
 10
1890.0
 20
4016.250001907349
 30
0.0
 40
59.99999618530273
  1
ＬＵ９０５ＣＳＤＹ
 41
0.8287735620234739
  7
EXCADSTD
 72
     5
 11
2266.499965667725
 21
4016.250001907349
 31
0.0
100
AcDbText
  0
TEXT
  5
DD
330
1F
100
AcDbEntity
  8
枠_表
  6
CONTINUOUS
 62
     2
100
AcDbText
 10
952.499999999992
 20
330.0000038146973
 30
0.0
 40
74.99999237060547
  1
間瀬
 41
1.224910918732915
  7
EXCADSTD
 72
     5
 11
1096.864486450855
 21
330.0000038146973
 31
0.0
100
AcDbText
  0
TEXT
  5
DE
330
1F
100
AcDbEntity
  8
枠_表
  6
CONTINUOUS
 62
     2
100
AcDbText
 10
311.2499999999922
 20
330.0000038146973
 30
0.0
 40
74.99999237060547
  1
亀井
 41
1.224910918732915
  7
EXCADSTD
 72
     5
 11
455.614486450855
 21
330.0000038146973
 31
0.0
100
AcDbText
  0
TEXT
  5
DF
330
1F
100
AcDbEntity
  8
枠_表
  6
CONTINUOUS
 62
     2
100
AcDbText
 10
276.74999985
 20
210.0000019073486
 30
0.0
 40
59.99999618530273
  1
28
 41
0.4540540865305326
  7
EXCADSTD
 72
     5
 11
324.7500002314697
 21
210.0000019073486
 31
0.0
100
AcDbText
  0
TEXT
  5
E0
330
1F
100
AcDbEntity
  8
枠_表
  6
CONTINUOUS
 62
     2
100
AcDbText
 10
365.6249999999998
 20
210.0000019073486
 30
0.0
 40
59.99999618530273
  1
9
 41
0.4798828430101295
  7
EXCADSTD
 72
     5
 11
387.5624999999998
 21
210.0000019073486
 31
0.0
100
AcDbText
  0
LINE
  5
E1
330
1F
100
AcDbEntity
  8
枠_表
  6
CONTINUOUS
 62
     6
100
AcDbLine
 10
1875.0
 20
3922.5
 30
0.0
 11
2925.0
 21
3922.5
 31
0.0
  0
TEXT
  5
E2
330
1F
100
AcDbEntity
  8
枠_表
  6
CONTINUOUS
 62
     2
100
AcDbText
 10
2340.000000000001
 20
3933.750001907349
 30
0.0
 40
59.99999618530273
  1
化粧鏡
 41
1.132352941176471
  7
EXCADSTD
 72
     5
 11
2504.999989509584
 21
3933.750001907349
 31
0.0
100
AcDbText
  0
TEXT
  5
E3
330
1F
100
AcDbEntity
  8
枠_表
  6
CONTINUOUS
 62
     2
100
AcDbText
 10
1890.0
 20
3933.750001907349
 30
0.0
 40
59.99999618530273
  1
ＬＵＭ４５１ＣＳ
 41
0.8340425304656314
  7
EXCADSTD
 72
     5
 11
2225.999969482422
 21
3933.750001907349
 31
0.0
100
AcDbText
  0
LINE
  5
E4
330
1F
100
AcDbEntity
  8
枠_表
  6
CONTINUOUS
 62
     6
100
AcDbLine
 10
1875.0
 20
3922.5
 30
0.0
 11
1875.0
 21
4252.5
 31
0.0
  0
LINE
  5
E5
330
1F
100
AcDbEntity
  8
枠_表
  6
CONTINUOUS
 62
     6
100
AcDbLine
 10
2325.0
 20
3922.5
 30
0.0
 11
2325.0
 21
4252.5
 31
0.0
  0
LINE
  5
E6
330
1F
100
AcDbEntity
  8
枠_表
  6
CONTINUOUS
 62
     6
100
AcDbLine
 10
2925.0
 20
3922.5
 30
0.0
 11
2925.0
 21
4252.5
 31
0.0
  0
DIMENSION
  5
E8
330
1F
100
AcDbEntity
  8
枠_表
  6
CONTINUOUS
 62
     3
100
AcDbDimension
  2
*D15
 10
1702.5
 20
2782.5
 30
0.0
 11
1667.250000089407
 21
1907.5
 31
0.0
 70
   160
  1
（1750）
  3
ISO-25
100
AcDbAlignedDimension
 13
1566.0
 23
1032.5
 33
0.0
 14
1310.0
 24
2782.5
 34
0.0
 50
90.0
100
AcDbRotatedDimension
1001
ACAD
1000
DSTYLE
1002
{
1070
   270
1070
     2
1070
     6
1000
EX_NORM
1070
     7
1000
EX_NORM
1070
    41
1040
44.99999618530273
1070
    42
1040
10.49999982118607
1070
    44
1040
15.0
1070
    73
1070
     0
1070
    74
1070
     0
1070
    75
1070
     0
1070
    76
1070
     0
1070
    77
1070
     1
1070
    78
1070
     8
1070
   140
1040
59.99999618530273
1070
   147
1040
0.0
1070
   173
1070
     1
1070
   176
1070
     3
1070
   177
1070
     3
1070
   178
1070
     2
1070
   271
1070
     1
1070
   277
1070
     2
1070
   279
1070
     2
1070
   280
1070
     0
1070
   287
1070
     5
1070
   340
1005
E7
1002
}
  0
DIMENSION
  5
F6
330
1F
100
AcDbEntity
  8
枠_表
  6
CONTINUOUS
 62
     3
100
AcDbDimension
  2
*D16
 10
2896.5
 20
1032.5
 30
0.0
 11
2861.250000089407
 21
1689.4
 31
0.0
 70
   160
  1
（1315）
  3
ISO-25
100
AcDbAlignedDimension
 13
2896.5
 23
2346.3
 33
0.0
 14
2821.5
 24
1032.5
 34
0.0
 50
90.0
100
AcDbRotatedDimension
1001
ACAD
1000
DSTYLE
1002
{
1070
   270
1070
     2
1070
     6
1000
EX_NORM
1070
     7
1000
EX_NORM
1070
    41
1040
44.99999618530273
1070
    42
1040
10.49999982118607
1070
    44
1040
15.0
1070
    73
1070
     0
1070
    74
1070
     0
1070
    75
1070
     1
1070
    76
1070
     0
1070
    77
1070
     1
1070
    78
1070
     8
1070
   140
1040
59.99999618530273
1070
   147
1040
0.0
1070
   173
1070
     1
1070
   176
1070
     3
1070
   177
1070
     3
1070
   178
1070
     2
1070
   271
1070
     1
1070
   277
1070
     2
1070
   279
1070
     2
1070
   280
1070
     0
1070
   287
1070
     5
1070
   340
1005
E7
1002
}
  0
TEXT
  5
102
330
1F
100
AcDbEntity
  8
枠_表
  6
CONTINUOUS
 62
     2
100
AcDbText
 10
1909.5
 20
3843.000003814698
 30
0.0
 40
59.99999618530273
  1
※止水栓・壁排水用のＬ管は
 41
1.111363707022238
  7
EXCADSTD
 72
     5
 11
2643.0
 21
3843.000003814698
 31
0.0
100
AcDbText
  0
TEXT
  5
103
330
1F
100
AcDbEntity
  8
枠_表
  6
CONTINUOUS
 62
     2
100
AcDbText
 10
1909.5
 20
3783.000007629395
 30
0.0
 40
59.99999618530273
  1
　別途手配となります。
 41
1.117307763344207
  7
EXCADSTD
 72
     5
 11
2532.0
 21
3783.000007629395
 31
0.0
100
AcDbText
  0
TEXT
  5
104
330
1F
100
AcDbEntity
  8
枠_表
  6
CONTINUOUS
 62
     2
100
AcDbText
 10
1909.5
 20
3723.000011444092
 30
0.0
 40
59.99999618530273
  1
※本図の止水栓位置は参考寸法とする
 41
1.103712941459308
  7
EXCADSTD
 72
     5
 11
2865.0
 21
3723.000011444092
 31
0.0
100
AcDbText
  0
LINE
  5
105
330
1F
100
AcDbEntity
  8
枠_表
  6
CONTINUOUS
 62
     6
100
AcDbLine
 10
1877.999999999999
 20
3709.5
 30
0.0
 11
2928.0
 21
3709.5
 31
0.0
  0
LINE
  5
106
330
1F
100
AcDbEntity
  8
枠_表
  6
CONTINUOUS
 62
     6
100
AcDbLine
 10
1877.999999999999
 20
3627.0
 30
0.0
 11
2928.0
 21
3627.0
 31
0.0
  0
LINE
  5
107
330
1F
100
AcDbEntity
  8
枠_表
  6
CONTINUOUS
 62
     6
100
AcDbLine
 10
1877.999999999999
 20
3462.0
 30
0.0
 11
2928.0
 21
3462.0
 31
0.0
  0
LINE
  5
108
330
1F
100
AcDbEntity
  8
枠_表
  6
CONTINUOUS
 62
     6
100
AcDbLine
 10
1877.999999999999
 20
3297.0
 30
0.0
 11
2928.0
 21
3297.0
 31
0.0
  0
TEXT
  5
109
330
1F
100
AcDbEntity
  8
枠_表
  6
CONTINUOUS
 62
     2
100
AcDbText
 10
2035.499999999999
 20
3638.250001907349
 30
0.0
 40
59.99999618530273
  1
品番
 41
2.041518237445141
  7
EXCADSTD
 72
     5
 11
2227.985993006896
 21
3638.250001907349
 31
0.0
100
AcDbText
  0
TEXT
  5
10A
330
1F
100
AcDbEntity
  8
枠_表
  6
CONTINUOUS
 62
     2
100
AcDbText
 10
2560.500000000002
 20
3638.250001907349
 30
0.0
 40
59.99999618530273
  1
品名
 41
2.041518237445141
  7
EXCADSTD
 72
     5
 11
2752.985993006899
 21
3638.250001907349
 31
0.0
100
AcDbText
  0
TEXT
  5
10B
330
1F
100
AcDbEntity
  8
枠_表
  6
CONTINUOUS
 62
     2
100
AcDbText
 10
2418.000000000002
 20
3555.750001907349
 30
0.0
 40
59.99999618530273
  1
アングル形止水栓
 41
1.061170212765957
  7
EXCADSTD
 72
     5
 11
2845.499972820284
 21
3555.750001907349
 31
0.0
100
AcDbText
  0
TEXT
  5
10C
330
1F
100
AcDbEntity
  8
枠_表
  6
CONTINUOUS
 62
     2
100
AcDbText
 10
2418.000000000002
 20
3473.250001907349
 30
0.0
 40
59.99999618530273
  1
（壁給水用、数量：２）
 41
0.9019230675085992
  7
EXCADSTD
 72
     5
 11
2920.499962806704
 21
3473.250001907349
 31
0.0
100
AcDbText
  0
TEXT
  5
10D
330
1F
100
AcDbEntity
  8
枠_表
  6
CONTINUOUS
 62
     2
100
AcDbText
 10
1892.999999999999
 20
3390.750001907349
 30
0.0
 40
59.99999618530273
  1
ＮＬ２２１Ｆ２００ＷＹ２５
 41
0.6681817855256961
  7
EXCADSTD
 72
     5
 11
2333.999950408935
 21
3390.750001907349
 31
0.0
100
AcDbText
  0
TEXT
  5
10E
330
1F
100
AcDbEntity
  8
枠_表
  6
CONTINUOUS
 62
     2
100
AcDbText
 10
1893.0
 20
3555.750001907349
 30
0.0
 40
59.99999618530273
  1
ＮＬ２２１－７５ＷＭＹ
 41
0.6730768905541816
  7
EXCADSTD
 72
     5
 11
2267.999958038331
 21
3555.750001907349
 31
0.0
100
AcDbText
  0
TEXT
  5
10F
330
1F
100
AcDbEntity
  8
枠_表
  6
CONTINUOUS
 62
     2
100
AcDbText
 10
2418.000000000002
 20
3308.250001907349
 30
0.0
 40
59.99999618530273
  1
（床給水用、数量：２）
 41
0.9019230675085992
  7
EXCADSTD
 72
     5
 11
2920.499962806704
 21
3308.250001907349
 31
0.0
100
AcDbText
  0
LINE
  5
110
330
1F
100
AcDbEntity
  8
枠_表
  6
CONTINUOUS
 62
     6
100
AcDbLine
 10
1877.999999999999
 20
3214.5
 30
0.0
 11
1877.999999999999
 21
3709.5
 31
0.0
  0
LINE
  5
111
330
1F
100
AcDbEntity
  8
枠_表
  6
CONTINUOUS
 62
     6
100
AcDbLine
 10
2928.0
 20
3214.5
 30
0.0
 11
2928.0
 21
3709.5
 31
0.0
  0
LINE
  5
112
330
1F
100
AcDbEntity
  8
枠_表
  6
CONTINUOUS
 62
     6
100
AcDbLine
 10
2402.999999999999
 20
3214.5
 30
0.0
 11
2402.999999999999
 21
3709.5
 31
0.0
  0
TEXT
  5
113
330
1F
100
AcDbEntity
  8
枠_表
  6
CONTINUOUS
 62
     2
100
AcDbText
 10
2418.0
 20
3390.750001907349
 30
0.0
 40
59.99999618530273
  1
ストレート形止水栓
 41
1.056603773584906
  7
EXCADSTD
 72
     5
 11
2897.999969482422
 21
3390.750001907349
 31
0.0
100
AcDbText
  0
TEXT
  5
114
330
1F
100
AcDbEntity
  8
枠_表
  6
CONTINUOUS
 62
     2
100
AcDbText
 10
2430.7
 20
3223.850001907349
 30
0.0
 40
59.99999618530273
  1
Ｌ管（壁排水用）
 41
1.061170212765957
  7
EXCADSTD
 72
     5
 11
2858.199972820282
 21
3223.850001907349
 31
0.0
100
AcDbText
  0
TEXT
  5
115
330
1F
100
AcDbEntity
  8
枠_表
  6
CONTINUOUS
 62
     2
100
AcDbText
 10
1899.6
 20
3222.050001907349
 30
0.0
 40
59.99999618530273
  1
４４１３１
 41
0.8629310126140186
  7
EXCADSTD
 72
     5
 11
2114.099980926514
 21
3222.050001907349
 31
0.0
100
AcDbText
  0
LINE
  5
116
330
1F
100
AcDbEntity
  8
枠_表
  6
CONTINUOUS
 62
     6
100
AcDbLine
 10
1877.999999999999
 20
3214.5
 30
0.0
 11
2928.0
 21
3214.5
 31
0.0
  0
TEXT
  5
117
330
1F
100
AcDbEntity
  8
枠_表
  6
CONTINUOUS
 62
     2
100
AcDbText
 10
2175.0
 20
442.5
 30
0.0
 40
74.99999237060547
  1
ＬＵ９０５ＣＳＤ（Ｙ）
 41
0.7323077202430167
  7
EXCADSTD
 72
     5
 11
2684.999967575073
 21
442.5
 31
0.0
100
AcDbText
  0
TEXT
  5
118
330
1F
100
AcDbEntity
  8
枠_表
  6
CONTINUOUS
 62
     2
100
AcDbText
 10
2175.0
 20
367.5000076293945
 30
0.0
 40
74.99999237060547
  1
ＬＵＭ４５１ＣＳ
 41
0.7446808794711528
  7
EXCADSTD
 72
     5
 11
2549.999976158142
 21
367.5000076293945
 31
0.0
100
AcDbText
  0
TEXT
  5
119
330
1F
100
AcDbEntity
  8
枠_表
  6
CONTINUOUS
 62
     7
100
AcDbText
 10
2178.000002503395
 20
227.2500038146969
 30
0.0
 40
104.9999923706055
  1
ＬＵＡ１０２７０
 41
1.140425528204549
  7
EXCADSTD
 72
     5
 11
2981.999941468238
 21
227.2500038146969
 31
0.0
100
AcDbText
  0
POLYLINE
  5
11A
330
1F
100
AcDbEntity
  8
化粧台
  6
CONTINUOUS
 62
     3
100
AcDb2dPolyline
 66
     1
 10
0.0
 20
0.0
 30
0.0
 70
   128
  0
VERTEX
  5
11B
330
11A
100
AcDbEntity
  8
化粧台
  6
CONTINUOUS
 62
     3
100
AcDbVertex
100
AcDb2dVertex
 10
2550.0
 20
2938.0
 30
0.0
  0
VERTEX
  5
11C
330
11A
100
AcDbEntity
  8
化粧台
  6
CONTINUOUS
 62
     3
100
AcDbVertex
100
AcDb2dVertex
 10
2504.0
 20
2958.0
 30
0.0
  0
SEQEND
  5
11D
330
11A
100
AcDbEntity
  8
化粧台
  6
CONTINUOUS
 62
     3
  0
LINE
  5
11E
330
1F
100
AcDbEntity
  8
化粧台
  6
CONTINUOUS
 62
     3
100
AcDbLine
 10
2505.741401632996
 20
2949.064649591751
 30
0.0
 11
2550.0
 21
2938.0
 31
0.0
  0
LINE
  5
11F
330
1F
100
AcDbEntity
  8
化粧台
  6
CONTINUOUS
 62
     3
100
AcDbLine
 10
2550.0
 20
2938.0
 30
0.0
 11
2511.722293304212
 21
2962.820700435549
 31
0.0
  0
POLYLINE
  5
120
330
1F
100
AcDbEntity
  8
化粧台
  6
CONTINUOUS
 62
     3
100
AcDb2dPolyline
 66
     1
 10
0.0
 20
0.0
 30
0.0
 70
   128
  0
VERTEX
  5
121
330
120
100
AcDbEntity
  8
化粧台
  6
CONTINUOUS
 62
     3
100
AcDbVertex
100
AcDb2dVertex
 10
2048.0
 20
1032.5
 30
0.0
  0
VERTEX
  5
122
330
120
100
AcDbEntity
  8
化粧台
  6
CONTINUOUS
 62
     3
100
AcDbVertex
100
AcDb2dVertex
 10
2029.0
 20
1081.5
 30
0.0
  0
SEQEND
  5
123
330
120
100
AcDbEntity
  8
化粧台
  6
CONTINUOUS
 62
     3
  0
LINE
  5
124
330
1F
100
AcDbEntity
  8
化粧台
  6
CONTINUOUS
 62
     3
100
AcDbLine
 10
2024.738536730784
 20
1071.744799994075
 30
0.0
 11
2048.0
 21
1032.5
 31
0.0
  0
LINE
  5
125
330
1F
100
AcDbEntity
  8
化粧台
  6
CONTINUOUS
 62
     3
100
AcDbLine
 10
2048.0
 20
1032.5
 30
0.0
 11
2038.723956365036
 21
1077.167717811438
 31
0.0
  0
LINE
  5
126
330
1F
100
AcDbEntity
  8
化粧台
  6
EXLTYPE4
 62
     6
100
AcDbLine
 10
1729.0
 20
1032.5
 30
0.0
 11
320.0
 21
1032.5
 31
0.0
  0
LINE
  5
127
330
1F
100
AcDbEntity
  8
化粧台
  6
CONTINUOUS
 62
     2
100
AcDbLine
 10
1353.000000000001
 20
1032.5
 30
0.0
 11
1353.000000000001
 21
1122.5
 31
0.0
  0
LINE
  5
128
330
1F
100
AcDbEntity
  8
化粧台
  6
CONTINUOUS
 62
     2
100
AcDbLine
 10
1370.000000000001
 20
1731.499999999999
 30
0.0
 11
1370.000000000001
 21
1712.499999999999
 31
0.0
  0
LINE
  5
129
330
1F
100
AcDbEntity
  8
化粧台
  6
CONTINUOUS
 62
     6
100
AcDbLine
 10
1250.000000000001
 20
1625.499999999999
 30
0.0
 11
1250.000000000001
 21
1599.499999999999
 31
0.0
  0
LINE
  5
12A
330
1F
100
AcDbEntity
  8
化粧台
  6
CONTINUOUS
 62
     6
100
AcDbLine
 10
1263.000000000001
 20
1612.499999999999
 30
0.0
 11
1237.000000000001
 21
1612.499999999999
 31
0.0
  0
LINE
  5
12B
330
1F
100
AcDbEntity
  8
化粧台
  6
CONTINUOUS
 62
     2
100
AcDbLine
 10
1368.000000000001
 20
1032.5
 30
0.0
 11
1368.000000000001
 21
1712.499999999999
 31
0.0
  0
LINE
  5
12C
330
1F
100
AcDbEntity
  8
化粧台
  6
CONTINUOUS
 62
     6
100
AcDbLine
 10
1365.000000000003
 20
1707.5
 30
0.0
 11
1365.000000000003
 21
1675.5
 31
0.0
  0
LINE
  5
12D
330
1F
100
AcDbEntity
  8
化粧台
  6
CONTINUOUS
 62
     2
100
AcDbLine
 10
1365.000000000001
 20
1675.5
 30
0.0
 11
1365.000000000001
 21
1532.5
 31
0.0
  0
LINE
  5
12E
330
1F
100
AcDbEntity
  8
化粧台
  6
CONTINUOUS
 62
     6
100
AcDbLine
 10
1365.000000000003
 20
1528.5
 30
0.0
 11
1365.000000000003
 21
1496.5
 31
0.0
  0
LINE
  5
12F
330
1F
100
AcDbEntity
  8
化粧台
  6
CONTINUOUS
 62
     2
100
AcDbLine
 10
1365.000000000001
 20
1496.5
 30
0.0
 11
1365.000000000001
 21
1122.5
 31
0.0
  0
LINE
  5
130
330
1F
100
AcDbEntity
  8
化粧台
  6
CONTINUOUS
 62
     2
100
AcDbLine
 10
1338.000000000001
 20
1032.5
 30
0.0
 11
1338.000000000001
 21
1122.5
 31
0.0
  0
LINE
  5
131
330
1F
100
AcDbEntity
  8
化粧台
  6
CONTINUOUS
 62
     6
100
AcDbLine
 10
1365.000000000003
 20
1675.5
 30
0.0
 11
475.0000000000018
 21
1675.5
 31
0.0
  0
LINE
  5
132
330
1F
100
AcDbEntity
  8
化粧台
  6
CONTINUOUS
 62
     6
100
AcDbLine
 10
1365.000000000003
 20
1679.5423136954
 30
0.0
 11
475.0000000000018
 21
1679.5423136954
 31
0.0
  0
LINE
  5
133
330
1F
100
AcDbEntity
  8
化粧台
  6
CONTINUOUS
 62
     6
100
AcDbLine
 10
1365.000000000003
 20
1496.5
 30
0.0
 11
475.0000000000018
 21
1496.5
 31
0.0
  0
LINE
  5
134
330
1F
100
AcDbEntity
  8
化粧台
  6
CONTINUOUS
 62
     6
100
AcDbLine
 10
1365.000000000003
 20
1500.5423136954
 30
0.0
 11
475.0000000000018
 21
1500.5423136954
 31
0.0
  0
LINE
  5
135
330
1F
100
AcDbEntity
  8
化粧台
  6
CONTINUOUS
 62
     2
100
AcDbLine
 10
1365.000000000001
 20
1532.5
 30
0.0
 11
475.0
 21
1532.5
 31
0.0
  0
LINE
  5
136
330
1F
100
AcDbEntity
  8
化粧台
  6
CONTINUOUS
 62
     6
100
AcDbLine
 10
1365.000000000003
 20
1528.5
 30
0.0
 11
475.0000000000018
 21
1528.5
 31
0.0
  0
LINE
  5
137
330
1F
100
AcDbEntity
  8
化粧台
  6
CONTINUOUS
 62
     6
100
AcDbLine
 10
1365.000000000003
 20
1518.5
 30
0.0
 11
475.0000000000018
 21
1518.5
 31
0.0
  0
LINE
  5
138
330
1F
100
AcDbEntity
  8
化粧台
  6
CONTINUOUS
 62
     6
100
AcDbLine
 10
1365.000000000003
 20
1707.5
 30
0.0
 11
475.0000000000018
 21
1707.5
 31
0.0
  0
LINE
  5
139
330
1F
100
AcDbEntity
  8
化粧台
  6
CONTINUOUS
 62
     6
100
AcDbLine
 10
1365.000000000003
 20
1697.5
 30
0.0
 11
475.0000000000018
 21
1697.5
 31
0.0
  0
LINE
  5
13A
330
1F
100
AcDbEntity
  8
化粧台
  6
CONTINUOUS
 62
     2
100
AcDbLine
 10
472.0
 20
1032.5
 30
0.0
 11
1368.000000000001
 21
1032.5
 31
0.0
  0
LINE
  5
13B
330
1F
100
AcDbEntity
  8
化粧台
  6
CONTINUOUS
 62
     2
100
AcDbLine
 10
1370.000000000001
 20
1731.499999999999
 30
0.0
 11
470.0
 21
1731.499999999999
 31
0.0
  0
LINE
  5
13C
330
1F
100
AcDbEntity
  8
化粧台
  6
CONTINUOUS
 62
     2
100
AcDbLine
 10
1370.000000000001
 20
1712.499999999999
 30
0.0
 11
470.0
 21
1712.499999999999
 31
0.0
  0
LINE
  5
13D
330
1F
100
AcDbEntity
  8
化粧台
  6
CONTINUOUS
 62
     2
100
AcDbLine
 10
502.0
 20
1032.5
 30
0.0
 11
502.0
 21
1122.5
 31
0.0
  0
LINE
  5
13E
330
1F
100
AcDbEntity
  8
化粧台
  6
CONTINUOUS
 62
     2
100
AcDbLine
 10
475.0
 20
1496.5
 30
0.0
 11
475.0
 21
1122.5
 31
0.0
  0
LINE
  5
13F
330
1F
100
AcDbEntity
  8
化粧台
  6
CONTINUOUS
 62
     6
100
AcDbLine
 10
475.0000000000018
 20
1528.5
 30
0.0
 11
475.0000000000018
 21
1496.5
 31
0.0
  0
LINE
  5
140
330
1F
100
AcDbEntity
  8
化粧台
  6
CONTINUOUS
 62
     2
100
AcDbLine
 10
475.0
 20
1675.5
 30
0.0
 11
475.0
 21
1532.5
 31
0.0
  0
LINE
  5
141
330
1F
100
AcDbEntity
  8
化粧台
  6
CONTINUOUS
 62
     6
100
AcDbLine
 10
475.0000000000018
 20
1707.5
 30
0.0
 11
475.0000000000018
 21
1675.5
 31
0.0
  0
LINE
  5
142
330
1F
100
AcDbEntity
  8
化粧台
  6
CONTINUOUS
 62
     2
100
AcDbLine
 10
472.0
 20
1032.5
 30
0.0
 11
472.0
 21
1712.5
 31
0.0
  0
LINE
  5
143
330
1F
100
AcDbEntity
  8
化粧台
  6
CONTINUOUS
 62
     6
100
AcDbLine
 10
577.0
 20
1612.499999999999
 30
0.0
 11
603.0
 21
1612.499999999999
 31
0.0
  0
LINE
  5
144
330
1F
100
AcDbEntity
  8
化粧台
  6
CONTINUOUS
 62
     6
100
AcDbLine
 10
590.0
 20
1625.499999999999
 30
0.0
 11
590.0
 21
1599.499999999999
 31
0.0
  0
LINE
  5
145
330
1F
100
AcDbEntity
  8
化粧台
  6
CONTINUOUS
 62
     2
100
AcDbLine
 10
470.0
 20
1731.499999999999
 30
0.0
 11
470.0
 21
1712.5
 31
0.0
  0
LINE
  5
146
330
1F
100
AcDbEntity
  8
化粧台
  6
CONTINUOUS
 62
     2
100
AcDbLine
 10
487.0
 20
1032.5
 30
0.0
 11
487.0
 21
1122.5
 31
0.0
  0
LINE
  5
147
330
1F
100
AcDbEntity
  8
化粧台
  6
CONTINUOUS
 62
     2
100
AcDbLine
 10
1189.996305873156
 20
1736.307834389494
 30
0.0
 11
1194.996305873156
 21
1866.307834389494
 31
0.0
  0
ARC
  5
148
330
1F
100
AcDbEntity
  8
化粧台
  6
CONTINUOUS
 62
     2
100
AcDbCircle
 10
1190.0
 20
1866.5
 30
0.0
 40
5.0
100
AcDbArc
 50
357.7974018382349
 51
90.00000000000001
  0
ARC
  5
149
330
1F
100
AcDbEntity
  8
化粧台
  6
CONTINUOUS
 62
     2
100
AcDbCircle
 10
1185.0
 20
1736.5
 30
0.0
 40
5.0
100
AcDbArc
 50
270.0000000000002
 51
357.7974018382349
  0
LINE
  5
14A
330
1F
100
AcDbEntity
  8
化粧台
  6
CONTINUOUS
 62
     2
100
AcDbLine
 10
650.0036941268436
 20
1736.307834389494
 30
0.0
 11
645.0036941268436
 21
1866.307834389494
 31
0.0
  0
ARC
  5
14B
330
1F
100
AcDbEntity
  8
化粧台
  6
CONTINUOUS
 62
     2
100
AcDbCircle
 10
650.0
 20
1866.5
 30
0.0
 40
5.0
100
AcDbArc
 50
90.00000000000001
 51
182.2025981617654
  0
ARC
  5
14C
330
1F
100
AcDbEntity
  8
化粧台
  6
CONTINUOUS
 62
     2
100
AcDbCircle
 10
655.0
 20
1736.5
 30
0.0
 40
5.0
100
AcDbArc
 50
182.2025981617654
 51
270.0000000000002
  0
LINE
  5
14D
330
1F
100
AcDbEntity
  8
化粧台
  6
CONTINUOUS
 62
     2
100
AcDbLine
 10
655.0
 20
1731.5
 30
0.0
 11
1185.0
 21
1731.5
 31
0.0
  0
LINE
  5
14E
330
1F
100
AcDbEntity
  8
化粧台
  6
CONTINUOUS
 62
     2
100
AcDbLine
 10
650.0
 20
1871.5
 30
0.0
 11
1190.0
 21
1871.5
 31
0.0
  0
LINE
  5
14F
330
1F
100
AcDbEntity
  8
化粧台
  6
CONTINUOUS
 62
     2
100
AcDbLine
 10
841.6148288605727
 20
1882.155404601815
 30
0.0
 11
845.2499999999463
 21
1873.40723934362
 31
0.0
  0
ARC
  5
150
330
1F
100
AcDbEntity
  8
化粧台
  6
CONTINUOUS
 62
     2
100
AcDbCircle
 10
842.9999999999372
 20
1882.730992053617
 30
0.0
 40
1.5
100
AcDbArc
 50
89.9999999999727
 51
202.5646074934731
  0
LINE
  5
151
330
1F
100
AcDbEntity
  8
化粧台
  6
CONTINUOUS
 62
     2
100
AcDbLine
 10
858.3851711393036
 20
1882.155404601826
 30
0.0
 11
854.74999999994
 21
1873.407239343626
 31
0.0
  0
ARC
  5
152
330
1F
100
AcDbEntity
  8
化粧台
  6
CONTINUOUS
 62
     2
100
AcDbCircle
 10
856.9999999999363
 20
1882.730992053626
 30
0.0
 40
1.5
100
AcDbArc
 50
337.4353925066305
 51
90.00000000011146
  0
LINE
  5
153
330
1F
100
AcDbEntity
  8
化粧台
  6
CONTINUOUS
 62
     2
100
AcDbLine
 10
842.9999999999363
 20
1884.230992053617
 30
0.0
 11
856.9999999999363
 21
1884.230992053626
 31
0.0
  0
LINE
  5
154
330
1F
100
AcDbEntity
  8
化粧台
  6
CONTINUOUS
 62
     2
100
AcDbLine
 10
845.2499999999454
 20
1871.5
 30
0.0
 11
845.2499999999418
 21
1873.407239343628
 31
0.0
  0
LINE
  5
155
330
1F
100
AcDbEntity
  8
化粧台
  6
CONTINUOUS
 62
     2
100
AcDbLine
 10
854.7499999999445
 20
1871.5
 30
0.0
 11
854.7499999999445
 21
1873.407239343635
 31
0.0
  0
ELLIPSE
  5
156
330
1F
100
AcDbEntity
  8
化粧台
  6
CONTINUOUS
 62
     2
100
AcDbEllipse
 10
920.0
 20
1924.4999999999
 30
0.0
 11
11.50000000000001
 21
0.0
 31
0.0
210
0.0
220
0.0
230
1.0
 40
0.4226182617406996
 41
0.0
 42
6.283185307179586
  0
CIRCLE
  5
157
330
1F
100
AcDbEntity
  8
化粧台
  6
CONTINUOUS
 62
     2
100
AcDbCircle
 10
920.0
 20
1990.0
 30
0.0
 40
4.0
  0
ELLIPSE
  5
158
330
1F
100
AcDbEntity
  8
化粧台
  6
CONTINUOUS
 62
     2
100
AcDbEllipse
 10
920.0
 20
1950.5
 30
0.0
 11
15.00000000000001
 21
0.0
 31
0.0
210
0.0
220
0.0
230
1.0
 40
0.8660254037844385
 41
0.0
 42
6.283185307179586
  0
ELLIPSE
  5
159
330
1F
100
AcDbEntity
  8
化粧台
  6
CONTINUOUS
 62
     2
100
AcDbEllipse
 10
920.0
 20
1892.4762979464
 30
0.0
 11
1.060575238719482E-15
 21
17.32050807560018
 31
0.0
210
0.0
220
0.0
230
1.0
 40
0.8660254037888688
 41
1.570796326794897
 42
4.71238898038469
  0
LINE
  5
15A
330
1F
100
AcDbEntity
  8
化粧台
  6
CONTINUOUS
 62
     2
100
AcDbLine
 10
905.0
 20
1950.5
 30
0.0
 11
905.0
 21
1892.4762979464
 31
0.0
  0
LINE
  5
15B
330
1F
100
AcDbEntity
  8
化粧台
  6
CONTINUOUS
 62
     2
100
AcDbLine
 10
935.0
 20
1950.5
 30
0.0
 11
935.0
 21
1892.4762979464
 31
0.0
  0
LINE
  5
15C
330
1F
100
AcDbEntity
  8
化粧台
  6
CONTINUOUS
 62
     2
100
AcDbLine
 10
908.5
 20
1924.4999999999
 30
0.0
 11
908.5
 21
1933.2902360689
 31
0.0
  0
LINE
  5
15D
330
1F
100
AcDbEntity
  8
化粧台
  6
CONTINUOUS
 62
     2
100
AcDbLine
 10
931.5
 20
1924.4999999999
 30
0.0
 11
931.5
 21
1933.2902360689
 31
0.0
  0
ELLIPSE
  5
15E
330
1F
100
AcDbEntity
  8
化粧台
  6
CONTINUOUS
 62
     2
100
AcDbEllipse
 10
920.0
 20
1933.2902360689
 30
0.0
 11
11.50000000000001
 21
0.0
 31
0.0
210
0.0
220
0.0
230
1.0
 40
0.1739668486608696
 41
0.0
 42
3.141592653589793
  0
LINE
  5
15F
330
1F
100
AcDbEntity
  8
化粧台
  6
CONTINUOUS
 62
     2
100
AcDbLine
 10
895.5
 20
1957.5
 30
0.0
 11
907.3640723859835
 21
1957.5
 31
0.0
  0
LINE
  5
160
330
1F
100
AcDbEntity
  8
化粧台
  6
CONTINUOUS
 62
     2
100
AcDbLine
 10
932.6359276140165
 20
1957.5
 30
0.0
 11
944.5
 21
1957.5
 31
0.0
  0
LINE
  5
161
330
1F
100
AcDbEntity
  8
化粧台
  6
CONTINUOUS
 62
     2
100
AcDbLine
 10
906.1556268951363
 20
1955.5
 30
0.0
 11
895.5
 21
1955.5
 31
0.0
  0
LINE
  5
162
330
1F
100
AcDbEntity
  8
化粧台
  6
CONTINUOUS
 62
     2
100
AcDbLine
 10
944.5
 20
1955.5
 30
0.0
 11
933.8443731048637
 21
1955.5
 31
0.0
  0
LINE
  5
163
330
1F
100
AcDbEntity
  8
化粧台
  6
CONTINUOUS
 62
     2
100
AcDbLine
 10
895.5
 20
1997.5
 30
0.0
 11
895.5
 21
1957.5
 31
0.0
  0
ARC
  5
164
330
1F
100
AcDbEntity
  8
化粧台
  6
CONTINUOUS
 62
     2
100
AcDbCircle
 10
897.5
 20
1997.5
 30
0.0
 40
2.0
100
AcDbArc
 50
90.00000000000001
 51
180.0
  0
LINE
  5
165
330
1F
100
AcDbEntity
  8
化粧台
  6
CONTINUOUS
 62
     2
100
AcDbLine
 10
944.5
 20
1997.5
 30
0.0
 11
944.5
 21
1957.5
 31
0.0
  0
LINE
  5
166
330
1F
100
AcDbEntity
  8
化粧台
  6
CONTINUOUS
 62
     2
100
AcDbLine
 10
897.5
 20
1999.5
 30
0.0
 11
942.5
 21
1999.5
 31
0.0
  0
ARC
  5
167
330
1F
100
AcDbEntity
  8
化粧台
  6
CONTINUOUS
 62
     2
100
AcDbCircle
 10
942.5
 20
1997.5
 30
0.0
 40
2.0
100
AcDbArc
 50
0.0
 51
90.00000000000001
  0
LINE
  5
168
330
1F
100
AcDbEntity
  8
化粧台
  6
CONTINUOUS
 62
     2
100
AcDbLine
 10
895.5
 20
1955.5
 30
0.0
 11
895.5
 21
1871.5
 31
0.0
  0
LINE
  5
169
330
1F
100
AcDbEntity
  8
化粧台
  6
CONTINUOUS
 62
     2
100
AcDbLine
 10
944.5
 20
1955.5
 30
0.0
 11
944.5
 21
1871.5
 31
0.0
  0
ELLIPSE
  5
16A
330
1F
100
AcDbEntity
  8
化粧台
  6
CONTINUOUS
 62
     6
100
AcDbEllipse
 10
920.0
 20
1910.4999999999
 30
0.0
 11
15.00000000000001
 21
0.0
 31
0.0
210
0.0
220
0.0
230
1.0
 40
0.8660254037844385
 41
3.141592653589793
 42
6.283185307179586
  0
LINE
  5
16B
330
1F
100
AcDbEntity
  8
化粧台
  6
EXLTYPE2
 62
     6
100
AcDbLine
 10
879.3867295401697
 20
1700.792893218813
 30
0.0
 11
875.0
 21
1731.5
 31
0.0
  0
ARC
  5
16C
330
1F
100
AcDbEntity
  8
化粧台
  6
EXLTYPE2
 62
     6
100
AcDbCircle
 10
884.3364770084754
 20
1701.5
 30
0.0
 40
5.0
100
AcDbArc
 50
188.1301023541575
 51
270.0000000000002
  0
LINE
  5
16D
330
1F
100
AcDbEntity
  8
化粧台
  6
EXLTYPE2
 62
     6
100
AcDbLine
 10
960.6132704598301
 20
1700.792893218813
 30
0.0
 11
964.9999999999998
 21
1731.5
 31
0.0
  0
LINE
  5
16E
330
1F
100
AcDbEntity
  8
化粧台
  6
EXLTYPE2
 62
     6
100
AcDbLine
 10
884.3364770084754
 20
1696.5
 30
0.0
 11
955.6635229915244
 21
1696.5
 31
0.0
  0
ARC
  5
16F
330
1F
100
AcDbEntity
  8
化粧台
  6
EXLTYPE2
 62
     6
100
AcDbCircle
 10
955.6635229915244
 20
1701.5
 30
0.0
 40
5.0
100
AcDbArc
 50
270.0000000000002
 51
351.8698976458425
  0
ARC
  5
170
330
1F
100
AcDbEntity
  8
化粧台
  6
EXLTYPE2
 62
     6
100
AcDbCircle
 10
765.1888888889334
 20
1626.5
 30
0.0
 40
174.5111111111056
100
AcDbArc
 50
351.7636205920222
 51
8.236379407977804
  0
LINE
  5
171
330
1F
100
AcDbEntity
  8
化粧台
  6
EXLTYPE2
 62
     6
100
AcDbLine
 10
937.9000000000051
 20
1601.500000000035
 30
0.0
 11
935.8000000000393
 21
1599.40000000007
 31
0.0
  0
ARC
  5
172
330
1F
100
AcDbEntity
  8
化粧台
  6
EXLTYPE2
 62
     6
100
AcDbCircle
 10
1074.811111111145
 20
1626.5
 30
0.0
 40
174.5111111111056
100
AcDbArc
 50
171.7636205920223
 51
188.2363794079779
  0
LINE
  5
173
330
1F
100
AcDbEntity
  8
化粧台
  6
EXLTYPE2
 62
     6
100
AcDbLine
 10
902.1000000000749
 20
1601.500000000035
 30
0.0
 11
904.2000000000389
 21
1599.40000000007
 31
0.0
  0
LINE
  5
174
330
1F
100
AcDbEntity
  8
化粧台
  6
EXLTYPE2
 62
     6
100
AcDbLine
 10
893.75
 20
1672.0
 30
0.0
 11
946.25
 21
1672.0
 31
0.0
  0
ARC
  5
175
330
1F
100
AcDbEntity
  8
化粧台
  6
EXLTYPE2
 62
     6
100
AcDbCircle
 10
896.75
 20
1656.0
 30
0.0
 40
3.000000000000002
100
AcDbArc
 50
180.0
 51
270.0000000000002
  0
ARC
  5
176
330
1F
100
AcDbEntity
  8
化粧台
  6
EXLTYPE2
 62
     6
100
AcDbCircle
 10
943.25
 20
1656.0
 30
0.0
 40
3.000000000000002
100
AcDbArc
 50
270.0000000000002
 51
0.0
  0
LINE
  5
177
330
1F
100
AcDbEntity
  8
化粧台
  6
EXLTYPE2
 62
     6
100
AcDbLine
 10
946.25
 20
1672.0
 30
0.0
 11
946.25
 21
1656.0
 31
0.0
  0
LINE
  5
178
330
1F
100
AcDbEntity
  8
化粧台
  6
EXLTYPE2
 62
     6
100
AcDbLine
 10
896.75
 20
1653.0
 30
0.0
 11
943.25
 21
1653.0
 31
0.0
  0
LINE
  5
179
330
1F
100
AcDbEntity
  8
化粧台
  6
EXLTYPE2
 62
     6
100
AcDbLine
 10
893.75
 20
1672.0
 30
0.0
 11
893.75
 21
1656.0
 31
0.0
  0
LINE
  5
17A
330
1F
100
AcDbEntity
  8
化粧台
  6
EXLTYPE2
 62
     6
100
AcDbLine
 10
902.1000000000004
 20
1651.5
 30
0.0
 11
902.1000000000004
 21
1653.0
 31
0.0
  0
LINE
  5
17B
330
1F
100
AcDbEntity
  8
化粧台
  6
EXLTYPE2
 62
     6
100
AcDbLine
 10
937.8999999999996
 20
1651.5
 30
0.0
 11
937.8999999999996
 21
1653.0
 31
0.0
  0
LINE
  5
17C
330
1F
100
AcDbEntity
  8
化粧台
  6
EXLTYPE2
 62
     6
100
AcDbLine
 10
891.7000000000407
 20
1687.2
 30
0.0
 11
948.3000000000393
 21
1687.2
 31
0.0
  0
LINE
  5
17D
330
1F
100
AcDbEntity
  8
化粧台
  6
EXLTYPE2
 62
     6
100
AcDbLine
 10
894.50000000004
 20
1687.2
 30
0.0
 11
894.50000000004
 21
1679.400000000001
 31
0.0
  0
LINE
  5
17E
330
1F
100
AcDbEntity
  8
化粧台
  6
EXLTYPE2
 62
     6
100
AcDbLine
 10
945.50000000004
 20
1687.2
 30
0.0
 11
945.50000000004
 21
1679.400000000001
 31
0.0
  0
LINE
  5
17F
330
1F
100
AcDbEntity
  8
化粧台
  6
EXLTYPE2
 62
     6
100
AcDbLine
 10
948.3000000000393
 20
1690.7
 30
0.0
 11
948.3000000000393
 21
1687.2
 31
0.0
  0
LINE
  5
180
330
1F
100
AcDbEntity
  8
化粧台
  6
EXLTYPE2
 62
     6
100
AcDbLine
 10
894.50000000004
 20
1679.400000000001
 30
0.0
 11
945.50000000004
 21
1679.400000000001
 31
0.0
  0
LINE
  5
181
330
1F
100
AcDbEntity
  8
化粧台
  6
EXLTYPE2
 62
     6
100
AcDbLine
 10
891.7000000000407
 20
1690.7
 30
0.0
 11
891.7000000000407
 21
1687.2
 31
0.0
  0
LINE
  5
182
330
1F
100
AcDbEntity
  8
化粧台
  6
EXLTYPE2
 62
     6
100
AcDbLine
 10
896.50000000004
 20
1679.400000000001
 30
0.0
 11
896.50000000004
 21
1672.0
 31
0.0
  0
LINE
  5
183
330
1F
100
AcDbEntity
  8
化粧台
  6
EXLTYPE2
 62
     6
100
AcDbLine
 10
943.50000000004
 20
1679.400000000001
 30
0.0
 11
943.50000000004
 21
1672.0
 31
0.0
  0
LINE
  5
184
330
1F
100
AcDbEntity
  8
化粧台
  6
EXLTYPE2
 62
     6
100
AcDbLine
 10
891.5
 20
1691.2
 30
0.0
 11
891.5
 21
1693.2
 31
0.0
  0
LINE
  5
185
330
1F
100
AcDbEntity
  8
化粧台
  6
EXLTYPE2
 62
     6
100
AcDbLine
 10
948.5
 20
1691.2
 30
0.0
 11
948.5
 21
1693.2
 31
0.0
  0
LINE
  5
186
330
1F
100
AcDbEntity
  8
化粧台
  6
EXLTYPE2
 62
     6
100
AcDbLine
 10
896.7250000000004
 20
1696.5
 30
0.0
 11
891.5
 21
1693.2
 31
0.0
  0
LINE
  5
187
330
1F
100
AcDbEntity
  8
化粧台
  6
EXLTYPE2
 62
     6
100
AcDbLine
 10
943.2749999999996
 20
1696.5
 30
0.0
 11
948.5
 21
1693.2
 31
0.0
  0
LINE
  5
188
330
1F
100
AcDbEntity
  8
化粧台
  6
EXLTYPE2
 62
     6
100
AcDbLine
 10
891.5
 20
1693.2
 30
0.0
 11
948.5
 21
1693.2
 31
0.0
  0
LINE
  5
189
330
1F
100
AcDbEntity
  8
化粧台
  6
EXLTYPE2
 62
     6
100
AcDbLine
 10
891.5
 20
1691.2
 30
0.0
 11
948.5
 21
1691.2
 31
0.0
  0
LINE
  5
18A
330
1F
100
AcDbEntity
  8
化粧台
  6
EXLTYPE2
 62
     6
100
AcDbLine
 10
891.7000000000407
 20
1690.7
 30
0.0
 11
948.3000000000393
 21
1690.7
 31
0.0
  0
LINE
  5
18B
330
1F
100
AcDbEntity
  8
化粧台
  6
EXLTYPE2
 62
     6
100
AcDbLine
 10
896.6207949498003
 20
1687.2
 30
0.0
 11
896.6207949498003
 21
1679.400000000001
 31
0.0
  0
LINE
  5
18C
330
1F
100
AcDbEntity
  8
化粧台
  6
EXLTYPE2
 62
     6
100
AcDbLine
 10
917.8792050502798
 20
1687.2
 30
0.0
 11
917.8792050502798
 21
1679.400000000001
 31
0.0
  0
LINE
  5
18D
330
1F
100
AcDbEntity
  8
化粧台
  6
EXLTYPE2
 62
     6
100
AcDbLine
 10
922.1207949498003
 20
1687.2
 30
0.0
 11
922.1207949498003
 21
1679.400000000001
 31
0.0
  0
LINE
  5
18E
330
1F
100
AcDbEntity
  8
化粧台
  6
EXLTYPE2
 62
     6
100
AcDbLine
 10
943.3792050502798
 20
1687.2
 30
0.0
 11
943.3792050502798
 21
1679.400000000001
 31
0.0
  0
LINE
  5
18F
330
1F
100
AcDbEntity
  8
化粧台
  6
EXLTYPE2
 62
     6
100
AcDbLine
 10
908.3282038836096
 20
1672.0
 30
0.0
 11
908.3282038836096
 21
1656.0
 31
0.0
  0
LINE
  5
190
330
1F
100
AcDbEntity
  8
化粧台
  6
EXLTYPE2
 62
     6
100
AcDbLine
 10
910.25641236505
 20
1672.0
 30
0.0
 11
910.25641236505
 21
1656.0
 31
0.0
  0
LINE
  5
191
330
1F
100
AcDbEntity
  8
化粧台
  6
EXLTYPE2
 62
     6
100
AcDbLine
 10
929.74358763495
 20
1672.0
 30
0.0
 11
929.74358763495
 21
1656.0
 31
0.0
  0
LINE
  5
192
330
1F
100
AcDbEntity
  8
化粧台
  6
EXLTYPE2
 62
     6
100
AcDbLine
 10
931.6717961163904
 20
1672.0
 30
0.0
 11
931.6717961163904
 21
1656.0
 31
0.0
  0
LINE
  5
193
330
1F
100
AcDbEntity
  8
化粧台
  6
EXLTYPE2
 62
     6
100
AcDbLine
 10
902.1000000000004
 20
1651.5
 30
0.0
 11
937.8999999999996
 21
1651.5
 31
0.0
  0
LINE
  5
194
330
1F
100
AcDbEntity
  8
化粧台
  6
EXLTYPE2
 62
     6
100
AcDbLine
 10
902.1000000001095
 20
1601.5
 30
0.0
 11
937.8999999999687
 21
1601.5
 31
0.0
  0
LINE
  5
195
330
1F
100
AcDbEntity
  8
化粧台
  6
EXLTYPE2
 62
     6
100
AcDbLine
 10
904.2000000000407
 20
1599.400000000071
 30
0.0
 11
935.8000000000393
 21
1599.400000000071
 31
0.0
  0
LINE
  5
196
330
1F
100
AcDbEntity
  8
化粧台
  6
EXLTYPE2
 62
     6
100
AcDbLine
 10
920.0
 20
1513.0
 30
0.0
 11
939.0
 21
1532.0
 31
0.0
  0
ARC
  5
197
330
1F
100
AcDbEntity
  8
化粧台
  6
EXLTYPE2
 62
     6
100
AcDbCircle
 10
953.9999999999998
 20
1547.0
 30
0.0
 40
15.00000000000001
100
AcDbArc
 50
180.0
 51
270.0000000000002
  0
LINE
  5
198
330
1F
100
AcDbEntity
  8
化粧台
  6
EXLTYPE2
 62
     6
100
AcDbLine
 10
938.0
 20
1494.0
 30
0.0
 11
938.0
 21
1531.0
 31
0.0
  0
LINE
  5
199
330
1F
100
AcDbEntity
  8
化粧台
  6
EXLTYPE2
 62
     6
100
AcDbLine
 10
901.0
 20
1531.0
 30
0.0
 11
938.0
 21
1531.0
 31
0.0
  0
LINE
  5
19A
330
1F
100
AcDbEntity
  8
化粧台
  6
EXLTYPE2
 62
     6
100
AcDbLine
 10
903.75
 20
1528.0
 30
0.0
 11
935.0
 21
1528.0
 31
0.0
  0
LINE
  5
19B
330
1F
100
AcDbEntity
  8
化粧台
  6
EXLTYPE2
 62
     6
100
AcDbLine
 10
935.0
 20
1496.75
 30
0.0
 11
935.0
 21
1528.0
 31
0.0
  0
LINE
  5
19C
330
1F
100
AcDbEntity
  8
化粧台
  6
EXLTYPE2
 62
     6
100
AcDbLine
 10
956.6999999999987
 20
1494.0
 30
0.0
 11
938.0
 21
1494.0
 31
0.0
  0
LINE
  5
19D
330
1F
100
AcDbEntity
  8
化粧台
  6
EXLTYPE2
 62
     6
100
AcDbLine
 10
901.0
 20
1531.0
 30
0.0
 11
901.0
 21
1549.7
 31
0.0
  0
LINE
  5
19E
330
1F
100
AcDbEntity
  8
化粧台
  6
EXLTYPE2
 62
     6
100
AcDbLine
 10
903.7499999999982
 20
1513.0
 30
0.0
 11
903.7499999999982
 21
1528.0
 31
0.0
  0
LINE
  5
19F
330
1F
100
AcDbEntity
  8
化粧台
  6
EXLTYPE2
 62
     6
100
AcDbLine
 10
919.9999999999982
 20
1496.75
 30
0.0
 11
935.0
 21
1496.75
 31
0.0
  0
ARC
  5
1A0
330
1F
100
AcDbEntity
  8
化粧台
  6
EXLTYPE2
 62
     6
100
AcDbCircle
 10
919.9999999999982
 20
1513.0
 30
0.0
 40
16.25
100
AcDbArc
 50
180.0
 51
270.0000000000002
  0
LINE
  5
1A1
330
1F
100
AcDbEntity
  8
化粧台
  6
EXLTYPE2
 62
     6
100
AcDbLine
 10
938.0
 20
1494.0
 30
0.0
 11
935.0
 21
1496.75
 31
0.0
  0
LINE
  5
1A2
330
1F
100
AcDbEntity
  8
化粧台
  6
EXLTYPE2
 62
     6
100
AcDbLine
 10
901.0
 20
1531.0
 30
0.0
 11
903.75
 21
1528.0
 31
0.0
  0
LINE
  5
1A3
330
1F
100
AcDbEntity
  8
化粧台
  6
EXLTYPE2
 62
     6
100
AcDbLine
 10
956.7000000000005
 20
1532.0
 30
0.0
 11
939.0
 21
1532.0
 31
0.0
  0
LINE
  5
1A4
330
1F
100
AcDbEntity
  8
化粧台
  6
EXLTYPE2
 62
     6
100
AcDbLine
 10
939.0
 20
1532.0
 30
0.0
 11
939.0
 21
1549.7
 31
0.0
  0
LINE
  5
1A5
330
1F
100
AcDbEntity
  8
化粧台
  6
EXLTYPE2
 62
     6
100
AcDbLine
 10
974.4999999999998
 20
1535.799999999999
 30
0.0
 11
956.7000000000005
 21
1535.799999999999
 31
0.0
  0
LINE
  5
1A6
330
1F
100
AcDbEntity
  8
化粧台
  6
EXLTYPE2
 62
     6
100
AcDbLine
 10
974.4999999999998
 20
1490.2
 30
0.0
 11
956.6999999999987
 21
1490.2
 31
0.0
  0
LINE
  5
1A7
330
1F
100
AcDbEntity
  8
化粧台
  6
EXLTYPE2
 62
     6
100
AcDbLine
 10
974.4999999999998
 20
1535.799999999999
 30
0.0
 11
974.4999999999998
 21
1490.2
 31
0.0
  0
LINE
  5
1A8
330
1F
100
AcDbEntity
  8
化粧台
  6
EXLTYPE2
 62
     6
100
AcDbLine
 10
956.7000000000005
 20
1535.799999999999
 30
0.0
 11
956.6999999999987
 21
1490.2
 31
0.0
  0
LINE
  5
1A9
330
1F
100
AcDbEntity
  8
化粧台
  6
EXLTYPE2
 62
     6
100
AcDbLine
 10
897.2000000000007
 20
1567.5
 30
0.0
 11
897.2000000000007
 21
1549.7
 31
0.0
  0
LINE
  5
1AA
330
1F
100
AcDbEntity
  8
化粧台
  6
EXLTYPE2
 62
     6
100
AcDbLine
 10
942.7999999999993
 20
1567.5
 30
0.0
 11
942.7999999999993
 21
1549.7
 31
0.0
  0
LINE
  5
1AB
330
1F
100
AcDbEntity
  8
化粧台
  6
EXLTYPE2
 62
     6
100
AcDbLine
 10
897.2000000000007
 20
1567.5
 30
0.0
 11
942.7999999999993
 21
1567.5
 31
0.0
  0
LINE
  5
1AC
330
1F
100
AcDbEntity
  8
化粧台
  6
EXLTYPE2
 62
     6
100
AcDbLine
 10
897.2000000000007
 20
1549.7
 30
0.0
 11
942.7999999999993
 21
1549.7
 31
0.0
  0
LINE
  5
1AD
330
1F
100
AcDbEntity
  8
化粧台
  6
EXLTYPE2
 62
     6
100
AcDbLine
 10
941.6433569164001
 20
1565.5
 30
0.0
 11
941.6433569164001
 21
1549.7
 31
0.0
  0
LINE
  5
1AE
330
1F
100
AcDbEntity
  8
化粧台
  6
EXLTYPE2
 62
     6
100
AcDbLine
 10
898.3566430835999
 20
1565.5
 30
0.0
 11
898.3566430835999
 21
1549.7
 31
0.0
  0
LINE
  5
1AF
330
1F
100
AcDbEntity
  8
化粧台
  6
EXLTYPE2
 62
     6
100
AcDbLine
 10
930.6007123057007
 20
1565.5
 30
0.0
 11
930.6007123057007
 21
1549.7
 31
0.0
  0
LINE
  5
1B0
330
1F
100
AcDbEntity
  8
化粧台
  6
EXLTYPE2
 62
     6
100
AcDbLine
 10
927.8083288865
 20
1565.5
 30
0.0
 11
927.8083288865
 21
1549.7
 31
0.0
  0
LINE
  5
1B1
330
1F
100
AcDbEntity
  8
化粧台
  6
EXLTYPE2
 62
     6
100
AcDbLine
 10
912.1916711135
 20
1565.5
 30
0.0
 11
912.1916711135
 21
1549.7
 31
0.0
  0
LINE
  5
1B2
330
1F
100
AcDbEntity
  8
化粧台
  6
EXLTYPE2
 62
     6
100
AcDbLine
 10
909.3992876943012
 20
1565.5
 30
0.0
 11
909.3992876943012
 21
1549.7
 31
0.0
  0
LINE
  5
1B3
330
1F
100
AcDbEntity
  8
化粧台
  6
EXLTYPE2
 62
     6
100
AcDbLine
 10
972.4999999999998
 20
1491.3566430836
 30
0.0
 11
956.6999999999987
 21
1491.3566430836
 31
0.0
  0
LINE
  5
1B4
330
1F
100
AcDbEntity
  8
化粧台
  6
EXLTYPE2
 62
     6
100
AcDbLine
 10
972.4999999999998
 20
1534.643356916399
 30
0.0
 11
956.7000000000005
 21
1534.643356916399
 31
0.0
  0
LINE
  5
1B5
330
1F
100
AcDbEntity
  8
化粧台
  6
EXLTYPE2
 62
     6
100
AcDbLine
 10
972.4999999999998
 20
1502.399287694299
 30
0.0
 11
956.6999999999987
 21
1502.399287694299
 31
0.0
  0
LINE
  5
1B6
330
1F
100
AcDbEntity
  8
化粧台
  6
EXLTYPE2
 62
     6
100
AcDbLine
 10
972.4999999999998
 20
1505.1916711135
 30
0.0
 11
956.6999999999987
 21
1505.1916711135
 31
0.0
  0
LINE
  5
1B7
330
1F
100
AcDbEntity
  8
化粧台
  6
EXLTYPE2
 62
     6
100
AcDbLine
 10
972.4999999999998
 20
1520.8083288865
 30
0.0
 11
956.7000000000005
 21
1520.8083288865
 31
0.0
  0
LINE
  5
1B8
330
1F
100
AcDbEntity
  8
化粧台
  6
EXLTYPE2
 62
     6
100
AcDbLine
 10
972.4999999999998
 20
1523.600712305699
 30
0.0
 11
956.7000000000005
 21
1523.600712305699
 31
0.0
  0
LINE
  5
1B9
330
1F
100
AcDbEntity
  8
化粧台
  6
EXLTYPE2
 62
     6
100
AcDbLine
 10
904.2000000000389
 20
1599.400000000071
 30
0.0
 11
904.2000000000389
 21
1567.5
 31
0.0
  0
LINE
  5
1BA
330
1F
100
AcDbEntity
  8
化粧台
  6
EXLTYPE2
 62
     6
100
AcDbLine
 10
935.8000000000393
 20
1599.400000000071
 30
0.0
 11
935.8000000000393
 21
1567.5
 31
0.0
  0
ARC
  5
1BB
330
1F
100
AcDbEntity
  8
化粧台
  6
EXLTYPE2
 62
     6
100
AcDbCircle
 10
1053.999999999992
 20
1497.0
 30
0.0
 40
32.0
100
AcDbArc
 50
0.0
 51
90.00000000000001
  0
LINE
  5
1BC
330
1F
100
AcDbEntity
  8
化粧台
  6
EXLTYPE2
 62
     6
100
AcDbLine
 10
1053.999999999992
 20
1528.999999999999
 30
0.0
 11
974.4999999999998
 21
1528.999999999999
 31
0.0
  0
LINE
  5
1BD
330
1F
100
AcDbEntity
  8
化粧台
  6
EXLTYPE2
 62
     6
100
AcDbLine
 10
1053.999999999997
 20
1497.0
 30
0.0
 11
974.4999999999998
 21
1497.0
 31
0.0
  0
LINE
  5
1BE
330
1F
100
AcDbEntity
  8
化粧台
  6
EXLTYPE2
 62
     6
100
AcDbLine
 10
1053.999999999997
 20
1466.0
 30
0.0
 11
1053.999999999997
 21
1497.0
 31
0.0
  0
LINE
  5
1BF
330
1F
100
AcDbEntity
  8
化粧台
  6
EXLTYPE2
 62
     6
100
AcDbLine
 10
1085.999999999992
 20
1466.0
 30
0.0
 11
1085.999999999992
 21
1497.0
 31
0.0
  0
LINE
  5
1C0
330
1F
100
AcDbEntity
  8
化粧台
  6
EXLTYPE2
 62
     6
100
AcDbLine
 10
981.9999999999998
 20
1486.5
 30
0.0
 11
981.9999999999998
 21
1475.5
 31
0.0
  0
LINE
  5
1C1
330
1F
100
AcDbEntity
  8
化粧台
  6
EXLTYPE2
 62
     6
100
AcDbLine
 10
1008.0
 20
1486.5
 30
0.0
 11
1008.0
 21
1475.5
 31
0.0
  0
LINE
  5
1C2
330
1F
100
AcDbEntity
  8
化粧台
  6
EXLTYPE2
 62
     6
100
AcDbLine
 10
981.9999999999998
 20
1486.5
 30
0.0
 11
1008.0
 21
1486.5
 31
0.0
  0
LINE
  5
1C3
330
1F
100
AcDbEntity
  8
化粧台
  6
EXLTYPE2
 62
     6
100
AcDbLine
 10
1005.0
 20
1515.5
 30
0.0
 11
1005.0
 21
1486.5
 31
0.0
  0
LINE
  5
1C4
330
1F
100
AcDbEntity
  8
化粧台
  6
EXLTYPE2
 62
     6
100
AcDbLine
 10
984.9999999999998
 20
1515.5
 30
0.0
 11
984.9999999999998
 21
1486.5
 31
0.0
  0
LINE
  5
1C5
330
1F
100
AcDbEntity
  8
化粧台
  6
EXLTYPE2
 62
     6
100
AcDbLine
 10
980.4999999999998
 20
1529.500000000001
 30
0.0
 11
1009.5
 21
1529.500000000001
 31
0.0
  0
LINE
  5
1C6
330
1F
100
AcDbEntity
  8
化粧台
  6
EXLTYPE2
 62
     6
100
AcDbLine
 10
980.4999999999998
 20
1515.5
 30
0.0
 11
980.4999999999998
 21
1529.5
 31
0.0
  0
LINE
  5
1C7
330
1F
100
AcDbEntity
  8
化粧台
  6
EXLTYPE2
 62
     6
100
AcDbLine
 10
1009.5
 20
1515.5
 30
0.0
 11
1009.5
 21
1529.5
 31
0.0
  0
LINE
  5
1C8
330
1F
100
AcDbEntity
  8
化粧台
  6
EXLTYPE2
 62
     6
100
AcDbLine
 10
980.4999999999998
 20
1515.5
 30
0.0
 11
1009.5
 21
1515.5
 31
0.0
  0
LINE
  5
1C9
330
1F
100
AcDbEntity
  8
化粧台
  6
EXLTYPE2
 62
     6
100
AcDbLine
 10
858.0
 20
1446.66369123504
 30
0.0
 11
858.0
 21
1458.33630876496
 31
0.0
  0
LINE
  5
1CA
330
1F
100
AcDbEntity
  8
化粧台
  6
EXLTYPE2
 62
     6
100
AcDbLine
 10
856.5543916547904
 20
1460.84017586672
 30
0.0
 11
846.4456083452096
 21
1466.67648463168
 31
0.0
  0
LINE
  5
1CB
330
1F
100
AcDbEntity
  8
化粧台
  6
EXLTYPE2
 62
     6
100
AcDbLine
 10
843.5543916547904
 20
1466.67648463168
 30
0.0
 11
833.4456083452096
 21
1460.84017586672
 31
0.0
  0
LINE
  5
1CC
330
1F
100
AcDbEntity
  8
化粧台
  6
EXLTYPE2
 62
     6
100
AcDbLine
 10
832.0
 20
1458.33630876496
 30
0.0
 11
832.0
 21
1446.66369123504
 31
0.0
  0
LINE
  5
1CD
330
1F
100
AcDbEntity
  8
化粧台
  6
EXLTYPE2
 62
     6
100
AcDbLine
 10
833.4456083452096
 20
1444.15982413328
 30
0.0
 11
843.5543916547904
 21
1438.32351536832
 31
0.0
  0
LINE
  5
1CE
330
1F
100
AcDbEntity
  8
化粧台
  6
EXLTYPE2
 62
     6
100
AcDbLine
 10
846.4456083452096
 20
1438.32351536832
 30
0.0
 11
856.5543916547904
 21
1444.15982413328
 31
0.0
  0
ARC
  5
1CF
330
1F
100
AcDbEntity
  8
化粧台
  6
EXLTYPE2
 62
     6
100
AcDbCircle
 10
845.0
 20
1452.5
 30
0.0
 40
14.25000000000001
100
AcDbArc
 50
264.1775448336001
 51
275.8224551664
  0
ARC
  5
1D0
330
1F
100
AcDbEntity
  8
化粧台
  6
EXLTYPE2
 62
     6
100
AcDbCircle
 10
845.0
 20
1452.5
 30
0.0
 40
14.25000000000001
100
AcDbArc
 50
324.1775448336001
 51
335.8224551664001
  0
ARC
  5
1D1
330
1F
100
AcDbEntity
  8
化粧台
  6
EXLTYPE2
 62
     6
100
AcDbCircle
 10
845.0
 20
1452.5
 30
0.0
 40
14.25000000000001
100
AcDbArc
 50
24.17754483359991
 51
35.82245516639971
  0
ARC
  5
1D2
330
1F
100
AcDbEntity
  8
化粧台
  6
EXLTYPE2
 62
     6
100
AcDbCircle
 10
845.0
 20
1452.5
 30
0.0
 40
14.25000000000001
100
AcDbArc
 50
144.1775448336404
 51
155.8224551663601
  0
ARC
  5
1D3
330
1F
100
AcDbEntity
  8
化粧台
  6
EXLTYPE2
 62
     6
100
AcDbCircle
 10
845.0
 20
1452.5
 30
0.0
 40
14.25000000000001
100
AcDbArc
 50
204.1775448336003
 51
215.8224551664
  0
CIRCLE
  5
1D4
330
1F
100
AcDbEntity
  8
化粧台
  6
EXLTYPE2
 62
     6
100
AcDbCircle
 10
845.0
 20
1452.5
 30
0.0
 40
4.75
  0
CIRCLE
  5
1D5
330
1F
100
AcDbEntity
  8
化粧台
  6
EXLTYPE2
 62
     6
100
AcDbCircle
 10
845.0
 20
1452.5
 30
0.0
 40
12.07434891639
  0
LINE
  5
1D6
330
1F
100
AcDbEntity
  8
化粧台
  6
EXLTYPE2
 62
     6
100
AcDbLine
 10
834.5
 20
1475.5
 30
0.0
 11
834.5
 21
1461.448929172444
 31
0.0
  0
LINE
  5
1D7
330
1F
100
AcDbEntity
  8
化粧台
  6
EXLTYPE2
 62
     6
100
AcDbLine
 10
855.5
 20
1475.5
 30
0.0
 11
855.5
 21
1461.448929172444
 31
0.0
  0
ARC
  5
1D8
330
1F
100
AcDbEntity
  8
化粧台
  6
EXLTYPE2
 62
     6
100
AcDbCircle
 10
845.0
 20
1452.5
 30
0.0
 40
14.25000000000001
100
AcDbArc
 50
84.1775448336001
 51
95.8224551663599
  0
LINE
  5
1D9
330
1F
100
AcDbEntity
  8
化粧台
  6
EXLTYPE2
 62
     6
100
AcDbLine
 10
832.0
 20
1486.5
 30
0.0
 11
832.0
 21
1475.5
 31
0.0
  0
LINE
  5
1DA
330
1F
100
AcDbEntity
  8
化粧台
  6
EXLTYPE2
 62
     6
100
AcDbLine
 10
858.0
 20
1486.5
 30
0.0
 11
858.0
 21
1475.5
 31
0.0
  0
LINE
  5
1DB
330
1F
100
AcDbEntity
  8
化粧台
  6
EXLTYPE2
 62
     6
100
AcDbLine
 10
832.0
 20
1486.5
 30
0.0
 11
858.0
 21
1486.5
 31
0.0
  0
LINE
  5
1DC
330
1F
100
AcDbEntity
  8
化粧台
  6
EXLTYPE2
 62
     6
100
AcDbLine
 10
855.0
 20
1515.5
 30
0.0
 11
855.0
 21
1486.5
 31
0.0
  0
LINE
  5
1DD
330
1F
100
AcDbEntity
  8
化粧台
  6
EXLTYPE2
 62
     6
100
AcDbLine
 10
835.0
 20
1515.5
 30
0.0
 11
835.0
 21
1486.5
 31
0.0
  0
LINE
  5
1DE
330
1F
100
AcDbEntity
  8
化粧台
  6
EXLTYPE2
 62
     6
100
AcDbLine
 10
830.5
 20
1529.500000000001
 30
0.0
 11
859.5
 21
1529.500000000001
 31
0.0
  0
LINE
  5
1DF
330
1F
100
AcDbEntity
  8
化粧台
  6
EXLTYPE2
 62
     6
100
AcDbLine
 10
830.5
 20
1515.5
 30
0.0
 11
830.5
 21
1529.5
 31
0.0
  0
LINE
  5
1E0
330
1F
100
AcDbEntity
  8
化粧台
  6
EXLTYPE2
 62
     6
100
AcDbLine
 10
859.5
 20
1515.5
 30
0.0
 11
859.5
 21
1529.5
 31
0.0
  0
LINE
  5
1E1
330
1F
100
AcDbEntity
  8
化粧台
  6
EXLTYPE2
 62
     6
100
AcDbLine
 10
830.5
 20
1515.5
 30
0.0
 11
859.5
 21
1515.5
 31
0.0
  0
LINE
  5
1E2
330
1F
100
AcDbEntity
  8
化粧台
  6
EXLTYPE2
 62
     6
100
AcDbLine
 10
832.0
 20
1475.5
 30
0.0
 11
858.0
 21
1475.5
 31
0.0
  0
LINE
  5
1E3
330
1F
100
AcDbEntity
  8
化粧台
  6
EXLTYPE2
 62
     6
100
AcDbLine
 10
839.0
 20
1580.374224567746
 30
0.0
 11
839.0
 21
1529.500000000001
 31
0.0
  0
LINE
  5
1E4
330
1F
100
AcDbEntity
  8
化粧台
  6
EXLTYPE2
 62
     6
100
AcDbLine
 10
851.0
 20
1529.500000000001
 30
0.0
 11
851.0
 21
1580.374224567746
 31
0.0
  0
ARC
  5
1E5
330
1F
100
AcDbEntity
  8
化粧台
  6
EXLTYPE2
 62
     6
100
AcDbCircle
 10
1051.0
 20
1580.374224567746
 30
0.0
 40
200.0000000000001
100
AcDbArc
 50
144.5052133271345
 51
180.0
  0
ARC
  5
1E6
330
1F
100
AcDbEntity
  8
化粧台
  6
EXLTYPE2
 62
     6
100
AcDbCircle
 10
1051.0
 20
1580.374224567746
 30
0.0
 40
212.0000000000001
100
AcDbArc
 50
144.2698192310888
 51
180.0
  0
ARC
  5
1E7
330
1F
100
AcDbEntity
  8
化粧台
  6
EXLTYPE2
 62
     6
100
AcDbCircle
 10
789.0
 20
1580.374224567746
 30
0.0
 40
200.0000000000001
100
AcDbArc
 50
0.0
 51
35.49478667286554
  0
ARC
  5
1E8
330
1F
100
AcDbEntity
  8
化粧台
  6
EXLTYPE2
 62
     6
100
AcDbCircle
 10
789.0
 20
1580.374224567746
 30
0.0
 40
212.0000000000001
100
AcDbArc
 50
0.0
 51
35.73018076891117
  0
LINE
  5
1E9
330
1F
100
AcDbEntity
  8
化粧台
  6
EXLTYPE2
 62
     6
100
AcDbLine
 10
988.9999999999998
 20
1580.374224567746
 30
0.0
 11
988.9999999999998
 21
1529.500000000001
 31
0.0
  0
LINE
  5
1EA
330
1F
100
AcDbEntity
  8
化粧台
  6
EXLTYPE2
 62
     6
100
AcDbLine
 10
1001.0
 20
1529.500000000001
 30
0.0
 11
1001.0
 21
1580.374224567746
 31
0.0
  0
LINE
  5
1EB
330
1F
100
AcDbEntity
  8
化粧台
  6
EXLTYPE2
 62
     6
100
AcDbLine
 10
1051.5
 20
1448.0
 30
0.0
 11
1051.5
 21
1413.0
 31
0.0
  0
LINE
  5
1EC
330
1F
100
AcDbEntity
  8
化粧台
  6
EXLTYPE2
 62
     6
100
AcDbLine
 10
1088.499999999999
 20
1448.0
 30
0.0
 11
1088.499999999999
 21
1413.0
 31
0.0
  0
LINE
  5
1ED
330
1F
100
AcDbEntity
  8
化粧台
  6
EXLTYPE2
 62
     6
100
AcDbLine
 10
1085.849999999999
 20
1410.35
 30
0.0
 11
1085.849999999999
 21
1370.0
 31
0.0
  0
LINE
  5
1EE
330
1F
100
AcDbEntity
  8
化粧台
  6
EXLTYPE2
 62
     6
100
AcDbLine
 10
1088.499999999999
 20
1413.0
 30
0.0
 11
1085.849999999999
 21
1410.35
 31
0.0
  0
LINE
  5
1EF
330
1F
100
AcDbEntity
  8
化粧台
  6
EXLTYPE2
 62
     6
100
AcDbLine
 10
1051.5
 20
1413.0
 30
0.0
 11
1054.149999999998
 21
1410.35
 31
0.0
  0
LINE
  5
1F0
330
1F
100
AcDbEntity
  8
化粧台
  6
EXLTYPE2
 62
     6
100
AcDbLine
 10
1046.599999999999
 20
1448.0
 30
0.0
 11
1093.399999999999
 21
1448.0
 31
0.0
  0
LINE
  5
1F1
330
1F
100
AcDbEntity
  8
化粧台
  6
EXLTYPE2
 62
     6
100
AcDbLine
 10
1048.599999999999
 20
1466.0
 30
0.0
 11
1091.399999999999
 21
1466.0
 31
0.0
  0
LINE
  5
1F2
330
1F
100
AcDbEntity
  8
化粧台
  6
EXLTYPE2
 62
     6
100
AcDbLine
 10
1046.599999999999
 20
1464.0
 30
0.0
 11
1046.599999999999
 21
1448.0
 31
0.0
  0
LINE
  5
1F3
330
1F
100
AcDbEntity
  8
化粧台
  6
EXLTYPE2
 62
     6
100
AcDbLine
 10
1093.399999999999
 20
1464.0
 30
0.0
 11
1093.399999999999
 21
1448.0
 31
0.0
  0
ARC
  5
1F4
330
1F
100
AcDbEntity
  8
化粧台
  6
EXLTYPE2
 62
     6
100
AcDbCircle
 10
1048.599999999999
 20
1464.0
 30
0.0
 40
2.0
100
AcDbArc
 50
90.00000000000001
 51
180.0
  0
ARC
  5
1F5
330
1F
100
AcDbEntity
  8
化粧台
  6
EXLTYPE2
 62
     6
100
AcDbCircle
 10
1091.399999999999
 20
1464.0
 30
0.0
 40
2.0
100
AcDbArc
 50
0.0
 51
90.00000000000001
  0
LINE
  5
1F6
330
1F
100
AcDbEntity
  8
化粧台
  6
EXLTYPE2
 62
     6
100
AcDbLine
 10
1054.149999999998
 20
1410.35
 30
0.0
 11
1085.849999999999
 21
1410.35
 31
0.0
  0
ARC
  5
1F7
330
1F
100
AcDbEntity
  8
化粧台
  6
EXLTYPE2
 62
     6
100
AcDbCircle
 10
1094.149999999999
 20
1372.593254606
 30
0.0
 40
40.0
100
AcDbArc
 50
180.0
 51
216.1437885097002
  0
LINE
  5
1F8
330
1F
100
AcDbEntity
  8
化粧台
  6
EXLTYPE2
 62
     6
100
AcDbLine
 10
1052.870011102999
 20
1464.0
 30
0.0
 11
1052.870011102999
 21
1448.0
 31
0.0
  0
LINE
  5
1F9
330
1F
100
AcDbEntity
  8
化粧台
  6
EXLTYPE2
 62
     6
100
AcDbLine
 10
1063.729988896999
 20
1464.0
 30
0.0
 11
1063.729988896999
 21
1448.0
 31
0.0
  0
LINE
  5
1FA
330
1F
100
AcDbEntity
  8
化粧台
  6
EXLTYPE2
 62
     6
100
AcDbLine
 10
1076.270011102998
 20
1464.0
 30
0.0
 11
1076.270011102998
 21
1448.0
 31
0.0
  0
LINE
  5
1FB
330
1F
100
AcDbEntity
  8
化粧台
  6
EXLTYPE2
 62
     6
100
AcDbLine
 10
1087.129988896999
 20
1464.0
 30
0.0
 11
1087.129988896999
 21
1448.0
 31
0.0
  0
LINE
  5
1FC
330
1F
100
AcDbEntity
  8
化粧台
  6
EXLTYPE2
 62
     6
100
AcDbLine
 10
1008.0
 20
1446.66369123504
 30
0.0
 11
1008.0
 21
1458.33630876496
 31
0.0
  0
LINE
  5
1FD
330
1F
100
AcDbEntity
  8
化粧台
  6
EXLTYPE2
 62
     6
100
AcDbLine
 10
1006.55439165479
 20
1460.84017586672
 30
0.0
 11
996.4456083452094
 21
1466.67648463168
 31
0.0
  0
LINE
  5
1FE
330
1F
100
AcDbEntity
  8
化粧台
  6
EXLTYPE2
 62
     6
100
AcDbLine
 10
993.5543916547902
 20
1466.67648463168
 30
0.0
 11
983.4456083452094
 21
1460.84017586672
 31
0.0
  0
LINE
  5
1FF
330
1F
100
AcDbEntity
  8
化粧台
  6
EXLTYPE2
 62
     6
100
AcDbLine
 10
981.9999999999998
 20
1458.33630876496
 30
0.0
 11
981.9999999999998
 21
1446.66369123504
 31
0.0
  0
LINE
  5
200
330
1F
100
AcDbEntity
  8
化粧台
  6
EXLTYPE2
 62
     6
100
AcDbLine
 10
983.4456083452094
 20
1444.15982413328
 30
0.0
 11
993.5543916547902
 21
1438.32351536832
 31
0.0
  0
LINE
  5
201
330
1F
100
AcDbEntity
  8
化粧台
  6
EXLTYPE2
 62
     6
100
AcDbLine
 10
996.4456083452094
 20
1438.32351536832
 30
0.0
 11
1006.55439165479
 21
1444.15982413328
 31
0.0
  0
ARC
  5
202
330
1F
100
AcDbEntity
  8
化粧台
  6
EXLTYPE2
 62
     6
100
AcDbCircle
 10
994.9999999999998
 20
1452.5
 30
0.0
 40
14.25000000000001
100
AcDbArc
 50
264.1775448336001
 51
275.8224551664
  0
ARC
  5
203
330
1F
100
AcDbEntity
  8
化粧台
  6
EXLTYPE2
 62
     6
100
AcDbCircle
 10
994.9999999999998
 20
1452.5
 30
0.0
 40
14.25000000000001
100
AcDbArc
 50
324.1775448336001
 51
335.8224551664001
  0
ARC
  5
204
330
1F
100
AcDbEntity
  8
化粧台
  6
EXLTYPE2
 62
     6
100
AcDbCircle
 10
994.9999999999998
 20
1452.5
 30
0.0
 40
14.25000000000001
100
AcDbArc
 50
24.17754483359991
 51
35.82245516639971
  0
ARC
  5
205
330
1F
100
AcDbEntity
  8
化粧台
  6
EXLTYPE2
 62
     6
100
AcDbCircle
 10
994.9999999999998
 20
1452.5
 30
0.0
 40
14.25000000000001
100
AcDbArc
 50
144.1775448336404
 51
155.8224551663601
  0
ARC
  5
206
330
1F
100
AcDbEntity
  8
化粧台
  6
EXLTYPE2
 62
     6
100
AcDbCircle
 10
994.9999999999998
 20
1452.5
 30
0.0
 40
14.25000000000001
100
AcDbArc
 50
204.1775448336003
 51
215.8224551664
  0
CIRCLE
  5
207
330
1F
100
AcDbEntity
  8
化粧台
  6
EXLTYPE2
 62
     6
100
AcDbCircle
 10
994.9999999999998
 20
1452.5
 30
0.0
 40
4.75
  0
CIRCLE
  5
208
330
1F
100
AcDbEntity
  8
化粧台
  6
EXLTYPE2
 62
     6
100
AcDbCircle
 10
994.9999999999998
 20
1452.5
 30
0.0
 40
12.07434891639
  0
LINE
  5
209
330
1F
100
AcDbEntity
  8
化粧台
  6
EXLTYPE2
 62
     6
100
AcDbLine
 10
984.4999999999998
 20
1475.5
 30
0.0
 11
984.4999999999998
 21
1461.448929172444
 31
0.0
  0
LINE
  5
20A
330
1F
100
AcDbEntity
  8
化粧台
  6
EXLTYPE2
 62
     6
100
AcDbLine
 10
1005.5
 20
1475.5
 30
0.0
 11
1005.5
 21
1461.448929172444
 31
0.0
  0
ARC
  5
20B
330
1F
100
AcDbEntity
  8
化粧台
  6
EXLTYPE2
 62
     6
100
AcDbCircle
 10
994.9999999999998
 20
1452.5
 30
0.0
 40
14.25000000000001
100
AcDbArc
 50
84.1775448336001
 51
95.8224551663599
  0
LINE
  5
20C
330
1F
100
AcDbEntity
  8
化粧台
  6
EXLTYPE2
 62
     6
100
AcDbLine
 10
981.9999999999998
 20
1475.5
 30
0.0
 11
1008.0
 21
1475.5
 31
0.0
  0
LINE
  5
20D
330
1F
100
AcDbEntity
  8
化粧台
  6
CONTINUOUS
 62
     6
100
AcDbLine
 10
815.0
 20
1452.5
 30
0.0
 11
875.0
 21
1452.5
 31
0.0
  0
LINE
  5
20E
330
1F
100
AcDbEntity
  8
化粧台
  6
CONTINUOUS
 62
     6
100
AcDbLine
 10
845.0
 20
1482.5
 30
0.0
 11
845.0
 21
1422.5
 31
0.0
  0
LINE
  5
20F
330
1F
100
AcDbEntity
  8
化粧台
  6
CONTINUOUS
 62
     6
100
AcDbLine
 10
964.9999999999998
 20
1452.5
 30
0.0
 11
1025.0
 21
1452.5
 31
0.0
  0
LINE
  5
210
330
1F
100
AcDbEntity
  8
化粧台
  6
CONTINUOUS
 62
     6
100
AcDbLine
 10
994.9999999999998
 20
1482.5
 30
0.0
 11
994.9999999999998
 21
1422.5
 31
0.0
  0
LINE
  5
211
330
1F
100
AcDbEntity
  8
化粧台
  6
EXLTYPE3
 62
     6
100
AcDbLine
 10
920.0
 20
2014.5
 30
0.0
 11
920.0
 21
1017.5
 31
0.0
  0
LINE
  5
212
330
1F
100
AcDbEntity
  8
化粧台
  6
EXLTYPE2
 62
     6
100
AcDbLine
 10
795.0
 20
1172.5
 30
0.0
 11
1045.0
 21
1172.5
 31
0.0
  0
LINE
  5
213
330
1F
100
AcDbEntity
  8
化粧台
  6
EXLTYPE2
 62
     6
100
AcDbLine
 10
795.0
 20
1137.5
 30
0.0
 11
1045.0
 21
1137.5
 31
0.0
  0
LINE
  5
214
330
1F
100
AcDbEntity
  8
化粧台
  6
EXLTYPE2
 62
     6
100
AcDbLine
 10
795.0
 20
1172.5
 30
0.0
 11
795.0
 21
1137.5
 31
0.0
  0
LINE
  5
215
330
1F
100
AcDbEntity
  8
化粧台
  6
EXLTYPE2
 62
     6
100
AcDbLine
 10
1045.0
 20
1172.5
 30
0.0
 11
1045.0
 21
1137.5
 31
0.0
  0
LINE
  5
216
330
1F
100
AcDbEntity
  8
化粧台
  6
EXLTYPE4
 62
     6
100
AcDbLine
 10
2550.0
 20
1032.5
 30
0.0
 11
1921.5
 21
1032.5
 31
0.0
  0
TEXT
  5
217
330
1F
100
AcDbEntity
  8
化粧台
  6
CONTINUOUS
 62
     2
100
AcDbText
 10
1921.5
 20
1032.5
 30
0.0
 40
59.99999618530273
  1
F.L.
 41
0.6227488631227187
  7
EXCADSTD
 72
     5
 11
2012.2434
 21
1032.5
 31
0.0
100
AcDbText
  0
LINE
  5
218
330
1F
100
AcDbEntity
  8
化粧台
  6
CONTINUOUS
 62
     2
100
AcDbLine
 10
2550.000000000001
 20
1731.499999999999
 30
0.0
 11
2550.000000000001
 21
1712.499999999999
 31
0.0
  0
ARC
  5
219
330
1F
100
AcDbEntity
  8
化粧台
  6
CONTINUOUS
 62
     2
100
AcDbCircle
 10
2102.000000000001
 20
1729.499999999999
 30
0.0
 40
2.0
100
AcDbArc
 50
90.00000000000001
 51
180.0
  0
LINE
  5
21A
330
1F
100
AcDbEntity
  8
化粧台
  6
CONTINUOUS
 62
     2
100
AcDbLine
 10
2100.000000000001
 20
1729.499999999999
 30
0.0
 11
2100.000000000001
 21
1714.499999999999
 31
0.0
  0
ARC
  5
21B
330
1F
100
AcDbEntity
  8
化粧台
  6
CONTINUOUS
 62
     2
100
AcDbCircle
 10
2102.000000000001
 20
1714.499999999999
 30
0.0
 40
2.0
100
AcDbArc
 50
180.0
 51
270.0000000000002
  0
LINE
  5
21C
330
1F
100
AcDbEntity
  8
化粧台
  6
CONTINUOUS
 62
     2
100
AcDbLine
 10
2125.000000000001
 20
1032.5
 30
0.0
 11
2550.000000000001
 21
1032.5
 31
0.0
  0
LINE
  5
21D
330
1F
100
AcDbEntity
  8
化粧台
  6
CONTINUOUS
 62
     2
100
AcDbLine
 10
2550.000000000001
 20
1032.5
 30
0.0
 11
2550.000000000001
 21
1712.499999999999
 31
0.0
  0
LINE
  5
21E
330
1F
100
AcDbEntity
  8
化粧台
  6
CONTINUOUS
 62
     2
100
AcDbLine
 10
2125.000000000001
 20
1032.5
 30
0.0
 11
2125.000000000001
 21
1712.499999999999
 31
0.0
  0
LINE
  5
21F
330
1F
100
AcDbEntity
  8
化粧台
  6
CONTINUOUS
 62
     2
100
AcDbLine
 10
2104.500000000001
 20
1122.5
 30
0.0
 11
2121.500000000001
 21
1122.5
 31
0.0
  0
LINE
  5
220
330
1F
100
AcDbEntity
  8
化粧台
  6
CONTINUOUS
 62
     2
100
AcDbLine
 10
2104.500000000001
 20
1532.5
 30
0.0
 11
2121.500000000001
 21
1532.5
 31
0.0
  0
LINE
  5
221
330
1F
100
AcDbEntity
  8
化粧台
  6
CONTINUOUS
 62
     2
100
AcDbLine
 10
2104.500000000001
 20
1677.5
 30
0.0
 11
2121.500000000001
 21
1677.5
 31
0.0
  0
LINE
  5
222
330
1F
100
AcDbEntity
  8
化粧台
  6
CONTINUOUS
 62
     2
100
AcDbLine
 10
2104.500000000001
 20
1532.5
 30
0.0
 11
2104.500000000001
 21
1677.5
 31
0.0
  0
LINE
  5
223
330
1F
100
AcDbEntity
  8
化粧台
  6
CONTINUOUS
 62
     2
100
AcDbLine
 10
2121.500000000001
 20
1532.5
 30
0.0
 11
2121.500000000001
 21
1677.5
 31
0.0
  0
LINE
  5
224
330
1F
100
AcDbEntity
  8
化粧台
  6
CONTINUOUS
 62
     6
100
AcDbLine
 10
2103.500000000007
 20
1677.499999999995
 30
0.0
 11
2121.500000000003
 21
1677.499999999995
 31
0.0
  0
ARC
  5
225
330
1F
100
AcDbEntity
  8
化粧台
  6
CONTINUOUS
 62
     6
100
AcDbCircle
 10
2120.149999999996
 20
1704.450000000009
 30
0.0
 40
1.0
100
AcDbArc
 50
0.0
 51
90.00000000000001
  0
ARC
  5
226
330
1F
100
AcDbEntity
  8
化粧台
  6
CONTINUOUS
 62
     6
100
AcDbCircle
 10
2120.000000000001
 20
1704.5
 30
0.0
 40
3.000000000000003
100
AcDbArc
 50
0.0
 51
90.00000000000001
  0
ARC
  5
227
330
1F
100
AcDbEntity
  8
化粧台
  6
CONTINUOUS
 62
     6
100
AcDbCircle
 10
2103.750000000001
 20
1699.25
 30
0.0
 40
1.750000000000001
100
AcDbArc
 50
170.7449623899685
 51
68.7663136548995
  0
ARC
  5
228
330
1F
100
AcDbEntity
  8
化粧台
  6
CONTINUOUS
 62
     6
100
AcDbCircle
 10
2116.827514544796
 20
1697.119011184754
 30
0.0
 40
13.00000000000001
100
AcDbArc
 50
142.344253969435
 51
163.1780394406755
  0
ARC
  5
229
330
1F
100
AcDbEntity
  8
化粧台
  6
CONTINUOUS
 62
     6
100
AcDbCircle
 10
2107.327167025332
 20
1704.450000000009
 30
0.0
 40
1.0
100
AcDbArc
 50
90.00000000000001
 51
142.3442539694352
  0
ARC
  5
22A
330
1F
100
AcDbEntity
  8
化粧台
  6
CONTINUOUS
 62
     6
100
AcDbCircle
 10
2116.827514544796
 20
1697.119011184754
 30
0.0
 40
15.00000000000001
100
AcDbArc
 50
142.0420920441203
 51
170.7449623899722
  0
ARC
  5
22B
330
1F
100
AcDbEntity
  8
化粧台
  6
CONTINUOUS
 62
     6
100
AcDbCircle
 10
2107.365960544042
 20
1704.5
 30
0.0
 40
3.000000000000003
100
AcDbArc
 50
90.00000000000001
 51
142.0420920441179
  0
LINE
  5
22C
330
1F
100
AcDbEntity
  8
化粧台
  6
CONTINUOUS
 62
     6
100
AcDbLine
 10
2107.365960544002
 20
1707.5
 30
0.0
 11
2120.000000000001
 21
1707.5
 31
0.0
  0
LINE
  5
22D
330
1F
100
AcDbEntity
  8
化粧台
  6
CONTINUOUS
 62
     6
100
AcDbLine
 10
2107.327167025301
 20
1705.45000000001
 30
0.0
 11
2120.149999999996
 21
1705.45000000001
 31
0.0
  0
LINE
  5
22E
330
1F
100
AcDbEntity
  8
化粧台
  6
CONTINUOUS
 62
     6
100
AcDbLine
 10
2121.149999999996
 20
1704.449999999999
 30
0.0
 11
2121.149999999996
 21
1688.060271065815
 31
0.0
  0
LINE
  5
22F
330
1F
100
AcDbEntity
  8
化粧台
  6
CONTINUOUS
 62
     6
100
AcDbLine
 10
2121.500000000003
 20
1677.499999999995
 30
0.0
 11
2121.500000000003
 21
1662.5
 31
0.0
  0
LINE
  5
230
330
1F
100
AcDbEntity
  8
化粧台
  6
CONTINUOUS
 62
     6
100
AcDbLine
 10
2102.950252619615
 20
1679.54231369542
 30
0.0
 11
2113.54797904309
 21
1680.070176405472
 31
0.0
  0
ARC
  5
231
330
1F
100
AcDbEntity
  8
化粧台
  6
CONTINUOUS
 62
     6
100
AcDbCircle
 10
2113.149999999996
 20
1688.060271065815
 30
0.0
 40
8.0
100
AcDbArc
 50
272.8514919099882
 51
0.0
  0
ARC
  5
232
330
1F
100
AcDbEntity
  8
化粧台
  6
CONTINUOUS
 62
     6
100
AcDbCircle
 10
2103.000000000001
 20
1678.543551862876
 30
0.0
 40
1.0
100
AcDbArc
 50
92.8514919099879
 51
180.0
  0
ARC
  5
233
330
1F
100
AcDbEntity
  8
化粧台
  6
CONTINUOUS
 62
     6
100
AcDbCircle
 10
2122.000000000001
 20
1663.5
 30
0.0
 40
1.0
100
AcDbArc
 50
269.999999999987
 51
0.0
  0
LINE
  5
234
330
1F
100
AcDbEntity
  8
化粧台
  6
CONTINUOUS
 62
     6
100
AcDbLine
 10
2123.000000000001
 20
1704.5
 30
0.0
 11
2123.000000000001
 21
1663.5
 31
0.0
  0
LINE
  5
235
330
1F
100
AcDbEntity
  8
化粧台
  6
CONTINUOUS
 62
     6
100
AcDbLine
 10
2121.500000000001
 20
1662.5
 30
0.0
 11
2122.000000000001
 21
1662.5
 31
0.0
  0
ARC
  5
236
330
1F
100
AcDbEntity
  8
化粧台
  6
CONTINUOUS
 62
     6
100
AcDbCircle
 10
2103.000000000001
 20
1676.5
 30
0.0
 40
1.0
100
AcDbArc
 50
180.0
 51
270.000000000026
  0
LINE
  5
237
330
1F
100
AcDbEntity
  8
化粧台
  6
CONTINUOUS
 62
     6
100
AcDbLine
 10
2103.500000000001
 20
1675.5
 30
0.0
 11
2103.000000000001
 21
1675.5
 31
0.0
  0
LINE
  5
238
330
1F
100
AcDbEntity
  8
化粧台
  6
CONTINUOUS
 62
     6
100
AcDbLine
 10
2102.000000000001
 20
1678.543551862876
 30
0.0
 11
2102.000000000001
 21
1676.5
 31
0.0
  0
LINE
  5
239
330
1F
100
AcDbEntity
  8
化粧台
  6
CONTINUOUS
 62
     6
100
AcDbLine
 10
2103.500000000001
 20
1677.499999999995
 30
0.0
 11
2103.500000000001
 21
1675.5
 31
0.0
  0
LINE
  5
23A
330
1F
100
AcDbEntity
  8
化粧台
  6
CONTINUOUS
 62
     2
100
AcDbLine
 10
2104.500000000001
 20
1498.5
 30
0.0
 11
2121.500000000001
 21
1498.5
 31
0.0
  0
LINE
  5
23B
330
1F
100
AcDbEntity
  8
化粧台
  6
CONTINUOUS
 62
     2
100
AcDbLine
 10
2104.500000000001
 20
1122.5
 30
0.0
 11
2104.500000000001
 21
1498.499999999995
 31
0.0
  0
LINE
  5
23C
330
1F
100
AcDbEntity
  8
化粧台
  6
CONTINUOUS
 62
     2
100
AcDbLine
 10
2121.500000000001
 20
1122.5
 30
0.0
 11
2121.500000000001
 21
1498.499999999995
 31
0.0
  0
LINE
  5
23D
330
1F
100
AcDbEntity
  8
化粧台
  6
CONTINUOUS
 62
     6
100
AcDbLine
 10
2103.500000000007
 20
1498.499999999995
 30
0.0
 11
2121.500000000003
 21
1498.499999999995
 31
0.0
  0
ARC
  5
23E
330
1F
100
AcDbEntity
  8
化粧台
  6
CONTINUOUS
 62
     6
100
AcDbCircle
 10
2120.149999999996
 20
1525.450000000009
 30
0.0
 40
1.0
100
AcDbArc
 50
0.0
 51
90.00000000000001
  0
ARC
  5
23F
330
1F
100
AcDbEntity
  8
化粧台
  6
CONTINUOUS
 62
     6
100
AcDbCircle
 10
2120.000000000001
 20
1525.5
 30
0.0
 40
3.000000000000003
100
AcDbArc
 50
0.0
 51
90.00000000000001
  0
ARC
  5
240
330
1F
100
AcDbEntity
  8
化粧台
  6
CONTINUOUS
 62
     6
100
AcDbCircle
 10
2103.750000000001
 20
1520.25
 30
0.0
 40
1.750000000000001
100
AcDbArc
 50
170.7449623899685
 51
68.7663136548995
  0
ARC
  5
241
330
1F
100
AcDbEntity
  8
化粧台
  6
CONTINUOUS
 62
     6
100
AcDbCircle
 10
2116.827514544796
 20
1518.119011184754
 30
0.0
 40
13.00000000000001
100
AcDbArc
 50
142.344253969435
 51
163.1780394406755
  0
ARC
  5
242
330
1F
100
AcDbEntity
  8
化粧台
  6
CONTINUOUS
 62
     6
100
AcDbCircle
 10
2107.327167025332
 20
1525.450000000009
 30
0.0
 40
1.0
100
AcDbArc
 50
90.00000000000001
 51
142.3442539694352
  0
ARC
  5
243
330
1F
100
AcDbEntity
  8
化粧台
  6
CONTINUOUS
 62
     6
100
AcDbCircle
 10
2116.827514544796
 20
1518.119011184754
 30
0.0
 40
15.00000000000001
100
AcDbArc
 50
142.0420920441203
 51
170.7449623899722
  0
ARC
  5
244
330
1F
100
AcDbEntity
  8
化粧台
  6
CONTINUOUS
 62
     6
100
AcDbCircle
 10
2107.365960544042
 20
1525.5
 30
0.0
 40
3.000000000000003
100
AcDbArc
 50
90.00000000000001
 51
142.0420920441179
  0
LINE
  5
245
330
1F
100
AcDbEntity
  8
化粧台
  6
CONTINUOUS
 62
     6
100
AcDbLine
 10
2107.365960544002
 20
1528.5
 30
0.0
 11
2120.000000000001
 21
1528.5
 31
0.0
  0
LINE
  5
246
330
1F
100
AcDbEntity
  8
化粧台
  6
CONTINUOUS
 62
     6
100
AcDbLine
 10
2107.327167025301
 20
1526.450000000008
 30
0.0
 11
2120.149999999996
 21
1526.450000000008
 31
0.0
  0
LINE
  5
247
330
1F
100
AcDbEntity
  8
化粧台
  6
CONTINUOUS
 62
     6
100
AcDbLine
 10
2121.149999999996
 20
1525.449999999999
 30
0.0
 11
2121.149999999996
 21
1509.060271065815
 31
0.0
  0
LINE
  5
248
330
1F
100
AcDbEntity
  8
化粧台
  6
CONTINUOUS
 62
     6
100
AcDbLine
 10
2121.500000000003
 20
1498.499999999995
 30
0.0
 11
2121.500000000003
 21
1483.5
 31
0.0
  0
LINE
  5
249
330
1F
100
AcDbEntity
  8
化粧台
  6
CONTINUOUS
 62
     6
100
AcDbLine
 10
2102.950252619615
 20
1500.54231369542
 30
0.0
 11
2113.54797904309
 21
1501.070176405471
 31
0.0
  0
ARC
  5
24A
330
1F
100
AcDbEntity
  8
化粧台
  6
CONTINUOUS
 62
     6
100
AcDbCircle
 10
2113.149999999996
 20
1509.060271065815
 30
0.0
 40
8.0
100
AcDbArc
 50
272.8514919099882
 51
0.0
  0
ARC
  5
24B
330
1F
100
AcDbEntity
  8
化粧台
  6
CONTINUOUS
 62
     6
100
AcDbCircle
 10
2103.000000000001
 20
1499.543551862876
 30
0.0
 40
1.0
100
AcDbArc
 50
92.8514919099879
 51
180.0
  0
ARC
  5
24C
330
1F
100
AcDbEntity
  8
化粧台
  6
CONTINUOUS
 62
     6
100
AcDbCircle
 10
2122.000000000001
 20
1484.5
 30
0.0
 40
1.0
100
AcDbArc
 50
269.999999999987
 51
0.0
  0
LINE
  5
24D
330
1F
100
AcDbEntity
  8
化粧台
  6
CONTINUOUS
 62
     6
100
AcDbLine
 10
2123.000000000001
 20
1525.499999999999
 30
0.0
 11
2123.000000000001
 21
1484.5
 31
0.0
  0
LINE
  5
24E
330
1F
100
AcDbEntity
  8
化粧台
  6
CONTINUOUS
 62
     6
100
AcDbLine
 10
2121.500000000001
 20
1483.5
 30
0.0
 11
2122.000000000001
 21
1483.5
 31
0.0
  0
ARC
  5
24F
330
1F
100
AcDbEntity
  8
化粧台
  6
CONTINUOUS
 62
     6
100
AcDbCircle
 10
2103.000000000001
 20
1497.5
 30
0.0
 40
1.0
100
AcDbArc
 50
180.0
 51
270.000000000026
  0
LINE
  5
250
330
1F
100
AcDbEntity
  8
化粧台
  6
CONTINUOUS
 62
     6
100
AcDbLine
 10
2103.500000000001
 20
1496.499999999999
 30
0.0
 11
2103.000000000001
 21
1496.499999999999
 31
0.0
  0
LINE
  5
251
330
1F
100
AcDbEntity
  8
化粧台
  6
CONTINUOUS
 62
     6
100
AcDbLine
 10
2102.000000000001
 20
1499.543551862876
 30
0.0
 11
2102.000000000001
 21
1497.5
 31
0.0
  0
LINE
  5
252
330
1F
100
AcDbEntity
  8
化粧台
  6
CONTINUOUS
 62
     6
100
AcDbLine
 10
2103.500000000001
 20
1498.499999999995
 30
0.0
 11
2103.500000000001
 21
1496.499999999999
 31
0.0
  0
LINE
  5
253
330
1F
100
AcDbEntity
  8
化粧台
  6
CONTINUOUS
 62
     2
100
AcDbLine
 10
2550.000000000001
 20
1731.499999999999
 30
0.0
 11
2102.000000000001
 21
1731.499999999999
 31
0.0
  0
LINE
  5
254
330
1F
100
AcDbEntity
  8
化粧台
  6
CONTINUOUS
 62
     2
100
AcDbLine
 10
2550.000000000001
 20
1712.499999999999
 30
0.0
 11
2102.000000000001
 21
1712.499999999999
 31
0.0
  0
LINE
  5
255
330
1F
100
AcDbEntity
  8
化粧台
  6
EXLTYPE2
 62
     6
100
AcDbLine
 10
2143.500000000001
 20
1712.499999999999
 30
0.0
 11
2143.500000000001
 21
1662.499999999999
 31
0.0
  0
LINE
  5
256
330
1F
100
AcDbEntity
  8
化粧台
  6
EXLTYPE2
 62
     6
100
AcDbLine
 10
2126.000000000001
 20
1712.499999999999
 30
0.0
 11
2126.000000000001
 21
1662.499999999999
 31
0.0
  0
LINE
  5
257
330
1F
100
AcDbEntity
  8
化粧台
  6
EXLTYPE2
 62
     6
100
AcDbLine
 10
2126.000000000001
 20
1662.499999999999
 30
0.0
 11
2143.500000000001
 21
1662.499999999999
 31
0.0
  0
LINE
  5
258
330
1F
100
AcDbEntity
  8
化粧台
  6
EXLTYPE2
 62
     6
100
AcDbLine
 10
2226.500000000003
 20
1562.5
 30
0.0
 11
2226.500000000003
 21
1622.5
 31
0.0
  0
LINE
  5
259
330
1F
100
AcDbEntity
  8
化粧台
  6
EXLTYPE2
 62
     6
100
AcDbLine
 10
2469.500000000001
 20
1622.5
 30
0.0
 11
2469.500000000001
 21
1547.5
 31
0.0
  0
LINE
  5
25A
330
1F
100
AcDbEntity
  8
化粧台
  6
EXLTYPE2
 62
     6
100
AcDbLine
 10
2391.500000000001
 20
1622.5
 30
0.0
 11
2391.500000000001
 21
1547.5
 31
0.0
  0
LINE
  5
25B
330
1F
100
AcDbEntity
  8
化粧台
  6
EXLTYPE2
 62
     6
100
AcDbLine
 10
2469.500000000001
 20
1547.5
 30
0.0
 11
2121.500000000001
 21
1547.5
 31
0.0
  0
LINE
  5
25C
330
1F
100
AcDbEntity
  8
化粧台
  6
EXLTYPE2
 62
     6
100
AcDbLine
 10
2241.500000000003
 20
1547.5
 30
0.0
 11
2241.500000000003
 21
1622.5
 31
0.0
  0
LINE
  5
25D
330
1F
100
AcDbEntity
  8
化粧台
  6
EXLTYPE2
 62
     6
100
AcDbLine
 10
2469.500000000001
 20
1622.5
 30
0.0
 11
2121.500000000001
 21
1622.5
 31
0.0
  0
LINE
  5
25E
330
1F
100
AcDbEntity
  8
化粧台
  6
EXLTYPE2
 62
     6
100
AcDbLine
 10
2226.5
 20
1562.5
 30
0.0
 11
2121.500000000001
 21
1562.5
 31
0.0
  0
LINE
  5
25F
330
1F
100
AcDbEntity
  8
化粧台
  6
EXLTYPE2
 62
     6
100
AcDbLine
 10
2469.500000000001
 20
1152.499999999999
 30
0.0
 11
2121.500000000001
 21
1152.499999999999
 31
0.0
  0
LINE
  5
260
330
1F
100
AcDbEntity
  8
化粧台
  6
EXLTYPE2
 62
     6
100
AcDbLine
 10
2469.500000000001
 20
1292.499999999999
 30
0.0
 11
2469.500000000001
 21
1152.499999999999
 31
0.0
  0
LINE
  5
261
330
1F
100
AcDbEntity
  8
化粧台
  6
EXLTYPE2
 62
     6
100
AcDbLine
 10
2391.500000000001
 20
1292.499999999999
 30
0.0
 11
2391.500000000001
 21
1152.499999999999
 31
0.0
  0
LINE
  5
262
330
1F
100
AcDbEntity
  8
化粧台
  6
EXLTYPE2
 62
     6
100
AcDbLine
 10
2376.500000000003
 20
1292.499999999999
 30
0.0
 11
2376.500000000001
 21
1167.499999999999
 31
0.0
  0
LINE
  5
263
330
1F
100
AcDbEntity
  8
化粧台
  6
EXLTYPE2
 62
     6
100
AcDbLine
 10
2469.500000000001
 20
1292.499999999999
 30
0.0
 11
2121.500000000001
 21
1292.499999999999
 31
0.0
  0
LINE
  5
264
330
1F
100
AcDbEntity
  8
化粧台
  6
EXLTYPE2
 62
     6
100
AcDbLine
 10
2376.5
 20
1167.499999999999
 30
0.0
 11
2121.500000000001
 21
1167.499999999999
 31
0.0
  0
LINE
  5
265
330
1F
100
AcDbEntity
  8
化粧台
  6
EXLTYPE2
 62
     6
100
AcDbLine
 10
2126.0
 20
1137.5
 30
0.0
 11
2126.0
 21
1122.5
 31
0.0
  0
LINE
  5
266
330
1F
100
AcDbEntity
  8
化粧台
  6
EXLTYPE2
 62
     6
100
AcDbLine
 10
2335.000000000001
 20
1032.5
 30
0.0
 11
2335.000000000001
 21
1122.5
 31
0.0
  0
LINE
  5
267
330
1F
100
AcDbEntity
  8
化粧台
  6
EXLTYPE2
 62
     6
100
AcDbLine
 10
2329.999999999998
 20
1137.5
 30
0.0
 11
2329.999999999998
 21
1134.5
 31
0.0
  0
LINE
  5
268
330
1F
100
AcDbEntity
  8
化粧台
  6
EXLTYPE2
 62
     6
100
AcDbLine
 10
2350.000000000001
 20
1032.5
 30
0.0
 11
2350.000000000001
 21
1134.5
 31
0.0
  0
LINE
  5
269
330
1F
100
AcDbEntity
  8
化粧台
  6
EXLTYPE2
 62
     6
100
AcDbLine
 10
2502.0
 20
1134.5
 30
0.0
 11
2502.0
 21
1119.5
 31
0.0
  0
LINE
  5
26A
330
1F
100
AcDbEntity
  8
化粧台
  6
EXLTYPE2
 62
     6
100
AcDbLine
 10
2126.0
 20
1122.5
 30
0.0
 11
2350.000000000001
 21
1122.5
 31
0.0
  0
LINE
  5
26B
330
1F
100
AcDbEntity
  8
化粧台
  6
EXLTYPE2
 62
     6
100
AcDbLine
 10
2502.0
 20
1119.5
 30
0.0
 11
2532.000000000001
 21
1119.5
 31
0.0
  0
LINE
  5
26C
330
1F
100
AcDbEntity
  8
化粧台
  6
EXLTYPE2
 62
     6
100
AcDbLine
 10
2330.000000000001
 20
1134.5
 30
0.0
 11
2532.0
 21
1134.5
 31
0.0
  0
LINE
  5
26D
330
1F
100
AcDbEntity
  8
化粧台
  6
EXLTYPE2
 62
     6
100
AcDbLine
 10
2126.0
 20
1137.5
 30
0.0
 11
2532.000000000001
 21
1137.5
 31
0.0
  0
LINE
  5
26E
330
1F
100
AcDbEntity
  8
化粧台
  6
EXLTYPE2
 62
     6
100
AcDbLine
 10
2535.000000000001
 20
1172.5
 30
0.0
 11
2550.000000000001
 21
1172.5
 31
0.0
  0
LINE
  5
26F
330
1F
100
AcDbEntity
  8
化粧台
  6
EXLTYPE2
 62
     6
100
AcDbLine
 10
2535.000000000001
 20
1592.499999999999
 30
0.0
 11
2550.000000000001
 21
1592.499999999999
 31
0.0
  0
LINE
  5
270
330
1F
100
AcDbEntity
  8
化粧台
  6
EXLTYPE2
 62
     6
100
AcDbLine
 10
2535.000000000001
 20
1122.5
 30
0.0
 11
2535.000000000001
 21
1712.499999999999
 31
0.0
  0
LINE
  5
271
330
1F
100
AcDbEntity
  8
化粧台
  6
EXLTYPE2
 62
     6
100
AcDbLine
 10
2532.000000000001
 20
1122.5
 30
0.0
 11
2550.000000000001
 21
1122.5
 31
0.0
  0
LINE
  5
272
330
1F
100
AcDbEntity
  8
化粧台
  6
EXLTYPE2
 62
     6
100
AcDbLine
 10
2532.000000000001
 20
1119.5
 30
0.0
 11
2532.000000000001
 21
1712.499999999999
 31
0.0
  0
LINE
  5
273
330
1F
100
AcDbEntity
  8
化粧台
  6
CONTINUOUS
 62
     2
100
AcDbLine
 10
2050.076463955303
 20
1865.628912853631
 30
0.0
 11
2073.076463955303
 21
1735.628912853631
 31
0.0
  0
LINE
  5
274
330
1F
100
AcDbEntity
  8
化粧台
  6
CONTINUOUS
 62
     2
100
AcDbLine
 10
2550.0
 20
1731.5
 30
0.0
 11
2078.0
 21
1731.5
 31
0.0
  0
LINE
  5
275
330
1F
100
AcDbEntity
  8
化粧台
  6
CONTINUOUS
 62
     2
100
AcDbLine
 10
2550.0
 20
1871.5
 30
0.0
 11
2055.0
 21
1871.5
 31
0.0
  0
ARC
  5
276
330
1F
100
AcDbEntity
  8
化粧台
  6
CONTINUOUS
 62
     2
100
AcDbCircle
 10
2055.0
 20
1866.5
 30
0.0
 40
5.0
100
AcDbArc
 50
90.00000000000001
 51
190.0331205543305
  0
ARC
  5
277
330
1F
100
AcDbEntity
  8
化粧台
  6
CONTINUOUS
 62
     2
100
AcDbCircle
 10
2078.0
 20
1736.5
 30
0.0
 40
5.0
100
AcDbArc
 50
190.0331205543305
 51
270.0000000000002
  0
LINE
  5
278
330
1F
100
AcDbEntity
  8
化粧台
  6
CONTINUOUS
 62
     2
100
AcDbLine
 10
2550.0
 20
1871.5
 30
0.0
 11
2550.0
 21
1731.5
 31
0.0
  0
LINE
  5
279
330
1F
100
AcDbEntity
  8
化粧台
  6
CONTINUOUS
 62
     2
100
AcDbLine
 10
2333.577460449084
 20
1929.360110009867
 30
0.0
 11
2354.422539550915
 21
1919.639889989835
 31
0.0
  0
LINE
  5
27A
330
1F
100
AcDbEntity
  8
化粧台
  6
CONTINUOUS
 62
     2
100
AcDbLine
 10
2333.577460449078
 20
1929.360110009919
 30
0.0
 11
2336.343012176595
 21
1935.290854828602
 31
0.0
  0
LINE
  5
27B
330
1F
100
AcDbEntity
  8
化粧台
  6
CONTINUOUS
 62
     2
100
AcDbLine
 10
2354.422539550921
 20
1919.639889989881
 30
0.0
 11
2356.337682219685
 21
1923.746926696807
 31
0.0
  0
LINE
  5
27C
330
1F
100
AcDbEntity
  8
化粧台
  6
CONTINUOUS
 62
     2
100
AcDbLine
 10
2380.0
 20
1994.0
 30
0.0
 11
2380.0
 21
1986.0
 31
0.0
  0
LINE
  5
27D
330
1F
100
AcDbEntity
  8
化粧台
  6
CONTINUOUS
 62
     2
100
AcDbLine
 10
2380.0
 20
1986.0
 30
0.0
 11
2440.5
 21
1986.0
 31
0.0
  0
LINE
  5
27E
330
1F
100
AcDbEntity
  8
化粧台
  6
CONTINUOUS
 62
     2
100
AcDbLine
 10
2380.0
 20
1994.0
 30
0.0
 11
2440.5
 21
1994.0
 31
0.0
  0
ELLIPSE
  5
27F
330
1F
100
AcDbEntity
  8
化粧台
  6
CONTINUOUS
 62
     2
100
AcDbEllipse
 10
2440.5
 20
1892.47629794645
 30
0.0
 11
-3.181725716167551E-15
 21
-17.32050807564974
 31
0.0
210
0.0
220
0.0
230
1.0
 40
0.2961015548620202
 41
0.0
 42
3.141592653589793
  0
LINE
  5
280
330
1F
100
AcDbEntity
  8
化粧台
  6
CONTINUOUS
 62
     2
100
AcDbLine
 10
2356.337682219715
 20
1923.746926696826
 30
0.0
 11
2440.5
 21
1875.155789870761
 31
0.0
  0
ELLIPSE
  5
281
330
1F
100
AcDbEntity
  8
化粧台
  6
CONTINUOUS
 62
     2
100
AcDbEllipse
 10
2346.34034719815
 20
1929.5188907627
 30
0.0
 11
9.997335021550128
 21
-5.77196406590008
 31
0.0
210
0.0
220
0.0
230
1.0
 40
0.4017250258051183
 41
0.0
 42
3.141592653594508
  0
LINE
  5
282
330
1F
100
AcDbEntity
  8
化粧台
  6
CONTINUOUS
 62
     2
100
AcDbLine
 10
2464.999999999921
 20
1957.500000000136
 30
0.0
 11
2489.5
 21
1971.645081595326
 31
0.0
  0
LINE
  5
283
330
1F
100
AcDbEntity
  8
化粧台
  6
CONTINUOUS
 62
     2
100
AcDbLine
 10
2440.5
 20
1955.5
 30
0.0
 11
2489.5
 21
1955.5
 31
0.0
  0
LINE
  5
284
330
1F
100
AcDbEntity
  8
化粧台
  6
CONTINUOUS
 62
     2
100
AcDbLine
 10
2440.5
 20
1957.5
 30
0.0
 11
2464.999999999685
 21
1957.5
 31
0.0
  0
LINE
  5
285
330
1F
100
AcDbEntity
  8
化粧台
  6
CONTINUOUS
 62
     2
100
AcDbLine
 10
2440.5
 20
1955.5
 30
0.0
 11
2440.5
 21
1909.7968060221
 31
0.0
  0
ARC
  5
286
330
1F
100
AcDbEntity
  8
化粧台
  6
CONTINUOUS
 62
     2
100
AcDbCircle
 10
2442.5
 20
1997.5
 30
0.0
 40
2.0
100
AcDbArc
 50
90.00000000000001
 51
180.0
  0
LINE
  5
287
330
1F
100
AcDbEntity
  8
化粧台
  6
CONTINUOUS
 62
     2
100
AcDbLine
 10
2489.5
 20
1997.5
 30
0.0
 11
2489.5
 21
1971.645081595326
 31
0.0
  0
LINE
  5
288
330
1F
100
AcDbEntity
  8
化粧台
  6
CONTINUOUS
 62
     2
100
AcDbLine
 10
2442.5
 20
1999.5
 30
0.0
 11
2487.5
 21
1999.5
 31
0.0
  0
ARC
  5
289
330
1F
100
AcDbEntity
  8
化粧台
  6
CONTINUOUS
 62
     2
100
AcDbCircle
 10
2487.5
 20
1997.5
 30
0.0
 40
2.0
100
AcDbArc
 50
0.0
 51
90.00000000000001
  0
LINE
  5
28A
330
1F
100
AcDbEntity
  8
化粧台
  6
CONTINUOUS
 62
     2
100
AcDbLine
 10
2348.366025404041
 20
1962.990381056618
 30
0.0
 11
2440.5
 21
1909.796806022138
 31
0.0
  0
ARC
  5
28B
330
1F
100
AcDbEntity
  8
化粧台
  6
CONTINUOUS
 62
     2
100
AcDbCircle
 10
2347.866025404042
 20
1962.124355652833
 30
0.0
 40
1.0
100
AcDbArc
 50
60.00000000000271
 51
150.0000000000029
  0
LINE
  5
28C
330
1F
100
AcDbEntity
  8
化粧台
  6
CONTINUOUS
 62
     2
100
AcDbLine
 10
2347.000000000257
 20
1962.624355652833
 30
0.0
 11
2333.000000000258
 21
1938.375644346869
 31
0.0
  0
LINE
  5
28D
330
1F
100
AcDbEntity
  8
化粧台
  6
CONTINUOUS
 62
     2
100
AcDbLine
 10
2333.366025404043
 20
1937.009618943084
 30
0.0
 11
2336.343012176589
 21
1935.290854828581
 31
0.0
  0
ARC
  5
28E
330
1F
100
AcDbEntity
  8
化粧台
  6
CONTINUOUS
 62
     2
100
AcDbCircle
 10
2333.866025404043
 20
1937.875644346869
 30
0.0
 40
1.0
100
AcDbArc
 50
150.0000000000029
 51
240.0000000000029
  0
ARC
  5
28F
330
1F
100
AcDbEntity
  8
化粧台
  6
CONTINUOUS
 62
     2
100
AcDbCircle
 10
2465.0000000003
 20
1955.5
 30
0.0
 40
21.50470878668207
100
AcDbArc
 50
0.0
 51
34.61977017493128
  0
LINE
  5
290
330
1F
100
AcDbEntity
  8
化粧台
  6
CONTINUOUS
 62
     2
100
AcDbLine
 10
2440.5
 20
1997.5
 30
0.0
 11
2440.5
 21
1994.0
 31
0.0
  0
LINE
  5
291
330
1F
100
AcDbEntity
  8
化粧台
  6
CONTINUOUS
 62
     2
100
AcDbLine
 10
2440.5
 20
1986.0
 30
0.0
 11
2440.5
 21
1957.5
 31
0.0
  0
ELLIPSE
  5
292
330
1F
100
AcDbEntity
  8
化粧台
  6
CONTINUOUS
 62
     2
100
AcDbEllipse
 10
2440.5
 20
1990.0
 30
0.0
 11
-1.531427479570780E-15
 21
4.0
 31
0.0
210
0.0
220
0.0
230
1.0
 40
0.1525819451966582
 41
3.141592653589784
 42
6.283185307179586
  0
LINE
  5
293
330
1F
100
AcDbEntity
  8
化粧台
  6
CONTINUOUS
 62
     6
100
AcDbLine
 10
2416.782032303014
 20
1923.490381056621
 30
0.0
 11
2401.782032303015
 21
1897.509618943087
 31
0.0
  0
LINE
  5
294
330
1F
100
AcDbEntity
  8
化粧台
  6
CONTINUOUS
 62
     2
100
AcDbLine
 10
2440.5
 20
1875.1557898708
 30
0.0
 11
2440.5
 21
1871.5
 31
0.0
  0
LINE
  5
295
330
1F
100
AcDbEntity
  8
化粧台
  6
CONTINUOUS
 62
     2
100
AcDbLine
 10
2489.5
 20
1955.5
 30
0.0
 11
2489.5
 21
1871.5
 31
0.0
  0
LINE
  5
296
330
1F
100
AcDbEntity
  8
化粧台
  6
EXLTYPE3
 62
     6
100
AcDbLine
 10
2465.0
 20
2014.5
 30
0.0
 11
2465.0
 21
1841.5
 31
0.0
  0
LINE
  5
297
330
1F
100
AcDbEntity
  8
化粧台
  6
EXLTYPE2
 62
     6
100
AcDbLine
 10
2274.386729540169
 20
1700.792893218813
 30
0.0
 11
2270.0
 21
1731.5
 31
0.0
  0
ARC
  5
298
330
1F
100
AcDbEntity
  8
化粧台
  6
EXLTYPE2
 62
     6
100
AcDbCircle
 10
2279.336477008475
 20
1701.5
 30
0.0
 40
5.0
100
AcDbArc
 50
188.1301023541575
 51
270.0000000000002
  0
LINE
  5
299
330
1F
100
AcDbEntity
  8
化粧台
  6
EXLTYPE2
 62
     6
100
AcDbLine
 10
2279.336477008475
 20
1696.5
 30
0.0
 11
2350.663522991524
 21
1696.5
 31
0.0
  0
ARC
  5
29A
330
1F
100
AcDbEntity
  8
化粧台
  6
EXLTYPE2
 62
     6
100
AcDbCircle
 10
2350.663522991524
 20
1701.5
 30
0.0
 40
5.0
100
AcDbArc
 50
270.0000000000002
 51
351.8698976458425
  0
ARC
  5
29B
330
1F
100
AcDbEntity
  8
化粧台
  6
EXLTYPE2
 62
     6
100
AcDbCircle
 10
2343.709237755403
 20
1733.706325208987
 30
0.0
 40
35.0
100
AcDbArc
 50
289.8838940558181
 51
338.8864999216353
  0
LINE
  5
29C
330
1F
100
AcDbEntity
  8
化粧台
  6
EXLTYPE2
 62
     6
100
AcDbLine
 10
2376.359641771943
 20
1721.098743460026
 30
0.0
 11
2380.375968554705
 21
1731.5
 31
0.0
  0
ARC
  5
29D
330
1F
100
AcDbEntity
  8
化粧台
  6
EXLTYPE2
 62
     6
100
AcDbCircle
 10
2469.811111111104
 20
1626.500000000001
 30
0.0
 40
174.5111111111056
100
AcDbArc
 50
171.7636205920223
 51
188.2363794079779
  0
LINE
  5
29E
330
1F
100
AcDbEntity
  8
化粧台
  6
EXLTYPE2
 62
     6
100
AcDbLine
 10
2297.100000000034
 20
1601.500000000035
 30
0.0
 11
2299.2
 21
1599.40000000007
 31
0.0
  0
LINE
  5
29F
330
1F
100
AcDbEntity
  8
化粧台
  6
EXLTYPE2
 62
     6
100
AcDbLine
 10
2332.899999999965
 20
1601.500000000035
 30
0.0
 11
2330.799999999999
 21
1599.40000000007
 31
0.0
  0
LINE
  5
2A0
330
1F
100
AcDbEntity
  8
化粧台
  6
EXLTYPE2
 62
     6
100
AcDbLine
 10
2362.0
 20
1633.0
 30
0.0
 11
2359.0
 21
1628.7
 31
0.0
  0
LINE
  5
2A1
330
1F
100
AcDbEntity
  8
化粧台
  6
EXLTYPE2
 62
     6
100
AcDbLine
 10
2362.0
 20
1600.0
 30
0.0
 11
2359.0
 21
1604.300000000001
 31
0.0
  0
LINE
  5
2A2
330
1F
100
AcDbEntity
  8
化粧台
  6
EXLTYPE2
 62
     6
100
AcDbLine
 10
2359.0
 20
1628.700000000001
 30
0.0
 11
2334.686132137128
 21
1628.700000000001
 31
0.0
  0
LINE
  5
2A3
330
1F
100
AcDbEntity
  8
化粧台
  6
EXLTYPE2
 62
     6
100
AcDbLine
 10
2359.0
 20
1604.300000000001
 30
0.0
 11
2333.282181367929
 21
1604.300000000001
 31
0.0
  0
LINE
  5
2A4
330
1F
100
AcDbEntity
  8
化粧台
  6
EXLTYPE2
 62
     6
100
AcDbLine
 10
2349.68613213713
 20
1628.7
 30
0.0
 11
2334.340225091729
 21
1637.7
 31
0.0
  0
LINE
  5
2A5
330
1F
100
AcDbEntity
  8
化粧台
  6
EXLTYPE2
 62
     6
100
AcDbLine
 10
2349.68613213713
 20
1604.300000000001
 30
0.0
 11
2330.799999999999
 21
1593.223744374882
 31
0.0
  0
LINE
  5
2A6
330
1F
100
AcDbEntity
  8
化粧台
  6
EXLTYPE2
 62
     6
100
AcDbLine
 10
2349.68613213713
 20
1617.750000000001
 30
0.0
 11
2328.399999999999
 21
1617.750000000001
 31
0.0
  0
LINE
  5
2A7
330
1F
100
AcDbEntity
  8
化粧台
  6
EXLTYPE2
 62
     6
100
AcDbLine
 10
2349.68613213713
 20
1615.250000000001
 30
0.0
 11
2328.399999999999
 21
1615.250000000001
 31
0.0
  0
LINE
  5
2A8
330
1F
100
AcDbEntity
  8
化粧台
  6
EXLTYPE2
 62
     6
100
AcDbLine
 10
2349.68613213713
 20
1617.750000000001
 30
0.0
 11
2349.68613213713
 21
1615.250000000001
 31
0.0
  0
ARC
  5
2A9
330
1F
100
AcDbEntity
  8
化粧台
  6
EXLTYPE2
 62
     6
100
AcDbCircle
 10
2160.188888888895
 20
1626.500000000001
 30
0.0
 40
174.5111111111056
100
AcDbArc
 50
351.7636205920222
 51
352.6914553742785
  0
ARC
  5
2AA
330
1F
100
AcDbEntity
  8
化粧台
  6
EXLTYPE2
 62
     6
100
AcDbCircle
 10
2160.188888888895
 20
1626.500000000001
 30
0.0
 40
174.5111111111056
100
AcDbArc
 50
0.7223268088028906
 51
8.236379407977633
  0
ELLIPSE
  5
2AB
330
1F
100
AcDbEntity
  8
化粧台
  6
EXLTYPE2
 62
     6
100
AcDbEllipse
 10
2333.984156752529
 20
1616.500000000001
 30
0.0
 11
-0.7019753845999901
 21
-12.20000000000005
 31
0.0
210
0.0
220
0.0
230
1.0
 40
0.2153535729318986
 41
3.141592653589879
 42
4.622148339603934
  0
ELLIPSE
  5
2AC
330
1F
100
AcDbEntity
  8
化粧台
  6
EXLTYPE2
 62
     6
100
AcDbEllipse
 10
2333.984156752529
 20
1616.500000000001
 30
0.0
 11
-0.7019753845999901
 21
-12.20000000000005
 31
0.0
210
0.0
220
0.0
230
1.0
 40
0.2153535729318986
 41
-1.455774510481848
 42
0.024781175480576
  0
LINE
  5
2AD
330
1F
100
AcDbEntity
  8
化粧台
  6
EXLTYPE2
 62
     6
100
AcDbLine
 10
2362.0
 20
1634.000000000001
 30
0.0
 11
2362.0
 21
1599.000000000001
 31
0.0
  0
LINE
  5
2AE
330
1F
100
AcDbEntity
  8
化粧台
  6
EXLTYPE2
 62
     6
100
AcDbLine
 10
2341.25
 20
1672.0
 30
0.0
 11
2288.75
 21
1672.0
 31
0.0
  0
ARC
  5
2AF
330
1F
100
AcDbEntity
  8
化粧台
  6
EXLTYPE2
 62
     6
100
AcDbCircle
 10
2338.25
 20
1656.0
 30
0.0
 40
3.000000000000003
100
AcDbArc
 50
270.0000000000002
 51
0.0
  0
ARC
  5
2B0
330
1F
100
AcDbEntity
  8
化粧台
  6
EXLTYPE2
 62
     6
100
AcDbCircle
 10
2291.75
 20
1656.0
 30
0.0
 40
3.000000000000003
100
AcDbArc
 50
180.0
 51
270.0000000000002
  0
LINE
  5
2B1
330
1F
100
AcDbEntity
  8
化粧台
  6
EXLTYPE2
 62
     6
100
AcDbLine
 10
2288.75
 20
1672.0
 30
0.0
 11
2288.75
 21
1656.0
 31
0.0
  0
LINE
  5
2B2
330
1F
100
AcDbEntity
  8
化粧台
  6
EXLTYPE2
 62
     6
100
AcDbLine
 10
2338.25
 20
1653.0
 30
0.0
 11
2291.75
 21
1653.0
 31
0.0
  0
LINE
  5
2B3
330
1F
100
AcDbEntity
  8
化粧台
  6
EXLTYPE2
 62
     6
100
AcDbLine
 10
2341.25
 20
1672.0
 30
0.0
 11
2341.25
 21
1656.0
 31
0.0
  0
LINE
  5
2B4
330
1F
100
AcDbEntity
  8
化粧台
  6
EXLTYPE2
 62
     6
100
AcDbLine
 10
2332.899999999999
 20
1651.500000000001
 30
0.0
 11
2332.899999999999
 21
1653.0
 31
0.0
  0
LINE
  5
2B5
330
1F
100
AcDbEntity
  8
化粧台
  6
EXLTYPE2
 62
     6
100
AcDbLine
 10
2297.1
 20
1651.500000000001
 30
0.0
 11
2297.1
 21
1653.0
 31
0.0
  0
LINE
  5
2B6
330
1F
100
AcDbEntity
  8
化粧台
  6
EXLTYPE2
 62
     6
100
AcDbLine
 10
2343.299999999999
 20
1690.7
 30
0.0
 11
2343.299999999999
 21
1679.400000000001
 31
0.0
  0
LINE
  5
2B7
330
1F
100
AcDbEntity
  8
化粧台
  6
EXLTYPE2
 62
     6
100
AcDbLine
 10
2286.7
 20
1690.7
 30
0.0
 11
2286.7
 21
1679.400000000001
 31
0.0
  0
LINE
  5
2B8
330
1F
100
AcDbEntity
  8
化粧台
  6
EXLTYPE2
 62
     6
100
AcDbLine
 10
2343.299999999999
 20
1679.400000000001
 30
0.0
 11
2286.7
 21
1679.400000000001
 31
0.0
  0
LINE
  5
2B9
330
1F
100
AcDbEntity
  8
化粧台
  6
EXLTYPE2
 62
     6
100
AcDbLine
 10
2343.299999999999
 20
1687.2
 30
0.0
 11
2286.7
 21
1687.2
 31
0.0
  0
LINE
  5
2BA
330
1F
100
AcDbEntity
  8
化粧台
  6
EXLTYPE2
 62
     6
100
AcDbLine
 10
2338.500000000001
 20
1679.400000000001
 30
0.0
 11
2338.500000000001
 21
1672.0
 31
0.0
  0
LINE
  5
2BB
330
1F
100
AcDbEntity
  8
化粧台
  6
EXLTYPE2
 62
     6
100
AcDbLine
 10
2291.5
 20
1679.400000000001
 30
0.0
 11
2291.5
 21
1672.0
 31
0.0
  0
LINE
  5
2BC
330
1F
100
AcDbEntity
  8
化粧台
  6
EXLTYPE2
 62
     6
100
AcDbLine
 10
2343.500000000001
 20
1691.2
 30
0.0
 11
2343.500000000001
 21
1693.2
 31
0.0
  0
LINE
  5
2BD
330
1F
100
AcDbEntity
  8
化粧台
  6
EXLTYPE2
 62
     6
100
AcDbLine
 10
2286.5
 20
1691.2
 30
0.0
 11
2286.5
 21
1693.2
 31
0.0
  0
LINE
  5
2BE
330
1F
100
AcDbEntity
  8
化粧台
  6
EXLTYPE2
 62
     6
100
AcDbLine
 10
2338.275000000001
 20
1696.5
 30
0.0
 11
2343.500000000001
 21
1693.2
 31
0.0
  0
LINE
  5
2BF
330
1F
100
AcDbEntity
  8
化粧台
  6
EXLTYPE2
 62
     6
100
AcDbLine
 10
2291.725
 20
1696.5
 30
0.0
 11
2286.5
 21
1693.2
 31
0.0
  0
LINE
  5
2C0
330
1F
100
AcDbEntity
  8
化粧台
  6
EXLTYPE2
 62
     6
100
AcDbLine
 10
2373.0
 20
1634.000000000001
 30
0.0
 11
2362.0
 21
1634.000000000001
 31
0.0
  0
LINE
  5
2C1
330
1F
100
AcDbEntity
  8
化粧台
  6
EXLTYPE2
 62
     6
100
AcDbLine
 10
2373.0
 20
1599.000000000001
 30
0.0
 11
2362.0
 21
1599.000000000001
 31
0.0
  0
LINE
  5
2C2
330
1F
100
AcDbEntity
  8
化粧台
  6
EXLTYPE2
 62
     6
100
AcDbLine
 10
2373.0
 20
1634.000000000001
 30
0.0
 11
2373.0
 21
1599.000000000001
 31
0.0
  0
LINE
  5
2C3
330
1F
100
AcDbEntity
  8
化粧台
  6
EXLTYPE2
 62
     6
100
AcDbLine
 10
2380.0
 20
1629.5
 30
0.0
 11
2380.0
 21
1603.5
 31
0.0
  0
LINE
  5
2C4
330
1F
100
AcDbEntity
  8
化粧台
  6
EXLTYPE2
 62
     6
100
AcDbLine
 10
2380.0
 20
1629.5
 30
0.0
 11
2373.0
 21
1632.0
 31
0.0
  0
LINE
  5
2C5
330
1F
100
AcDbEntity
  8
化粧台
  6
EXLTYPE2
 62
     6
100
AcDbLine
 10
2380.0
 20
1603.500000000002
 30
0.0
 11
2373.0
 21
1601.000000000002
 31
0.0
  0
LINE
  5
2C6
330
1F
100
AcDbEntity
  8
化粧台
  6
EXLTYPE2
 62
     6
100
AcDbLine
 10
2385.000000000043
 20
1620.0
 30
0.0
 11
2385.000000000043
 21
1613.0
 31
0.0
  0
LINE
  5
2C7
330
1F
100
AcDbEntity
  8
化粧台
  6
EXLTYPE2
 62
     6
100
AcDbLine
 10
2385.0
 20
1614.0
 30
0.0
 11
2407.899999999999
 21
1614.0
 31
0.0
  0
LINE
  5
2C8
330
1F
100
AcDbEntity
  8
化粧台
  6
EXLTYPE2
 62
     6
100
AcDbLine
 10
2385.000000000043
 20
1620.0
 30
0.0
 11
2380.0
 21
1620.0
 31
0.0
  0
LINE
  5
2C9
330
1F
100
AcDbEntity
  8
化粧台
  6
EXLTYPE2
 62
     6
100
AcDbLine
 10
2385.000000000043
 20
1613.0
 30
0.0
 11
2380.0
 21
1613.0
 31
0.0
  0
LINE
  5
2CA
330
1F
100
AcDbEntity
  8
化粧台
  6
EXLTYPE2
 62
     6
100
AcDbLine
 10
2407.899999999999
 20
1619.0
 30
0.0
 11
2385.000000000043
 21
1619.0
 31
0.0
  0
LINE
  5
2CB
330
1F
100
AcDbEntity
  8
化粧台
  6
EXLTYPE2
 62
     6
100
AcDbLine
 10
2343.500000000001
 20
1693.2
 30
0.0
 11
2286.5
 21
1693.2
 31
0.0
  0
LINE
  5
2CC
330
1F
100
AcDbEntity
  8
化粧台
  6
EXLTYPE2
 62
     6
100
AcDbLine
 10
2343.500000000001
 20
1691.2
 30
0.0
 11
2286.5
 21
1691.2
 31
0.0
  0
LINE
  5
2CD
330
1F
100
AcDbEntity
  8
化粧台
  6
EXLTYPE2
 62
     6
100
AcDbLine
 10
2343.299999999999
 20
1690.7
 30
0.0
 11
2286.7
 21
1690.7
 31
0.0
  0
LINE
  5
2CE
330
1F
100
AcDbEntity
  8
化粧台
  6
EXLTYPE2
 62
     6
100
AcDbLine
 10
2299.05312660052
 20
1687.2
 30
0.0
 11
2299.05312660052
 21
1679.400000000001
 31
0.0
  0
LINE
  5
2CF
330
1F
100
AcDbEntity
  8
化粧台
  6
EXLTYPE2
 62
     6
100
AcDbLine
 10
2302.726451205951
 20
1687.2
 30
0.0
 11
2302.726451205951
 21
1679.400000000001
 31
0.0
  0
LINE
  5
2D0
330
1F
100
AcDbEntity
  8
化粧台
  6
EXLTYPE2
 62
     6
100
AcDbLine
 10
2327.273548794049
 20
1687.2
 30
0.0
 11
2327.273548794049
 21
1679.400000000001
 31
0.0
  0
LINE
  5
2D1
330
1F
100
AcDbEntity
  8
化粧台
  6
EXLTYPE2
 62
     6
100
AcDbLine
 10
2330.94687339948
 20
1687.2
 30
0.0
 11
2330.94687339948
 21
1679.400000000001
 31
0.0
  0
LINE
  5
2D2
330
1F
100
AcDbEntity
  8
化粧台
  6
EXLTYPE2
 62
     6
100
AcDbLine
 10
2303.328203883609
 20
1672.0
 30
0.0
 11
2303.328203883609
 21
1656.0
 31
0.0
  0
LINE
  5
2D3
330
1F
100
AcDbEntity
  8
化粧台
  6
EXLTYPE2
 62
     6
100
AcDbLine
 10
2305.25641236505
 20
1672.0
 30
0.0
 11
2305.25641236505
 21
1656.0
 31
0.0
  0
LINE
  5
2D4
330
1F
100
AcDbEntity
  8
化粧台
  6
EXLTYPE2
 62
     6
100
AcDbLine
 10
2324.74358763495
 20
1672.0
 30
0.0
 11
2324.74358763495
 21
1656.0
 31
0.0
  0
LINE
  5
2D5
330
1F
100
AcDbEntity
  8
化粧台
  6
EXLTYPE2
 62
     6
100
AcDbLine
 10
2326.67179611639
 20
1672.0
 30
0.0
 11
2326.67179611639
 21
1656.0
 31
0.0
  0
LINE
  5
2D6
330
1F
100
AcDbEntity
  8
化粧台
  6
EXLTYPE2
 62
     6
100
AcDbLine
 10
2332.899999999999
 20
1651.500000000001
 30
0.0
 11
2297.1
 21
1651.500000000001
 31
0.0
  0
LINE
  5
2D7
330
1F
100
AcDbEntity
  8
化粧台
  6
EXLTYPE2
 62
     6
100
AcDbLine
 10
2332.89999999993
 20
1601.500000000001
 30
0.0
 11
2297.100000000071
 21
1601.500000000001
 31
0.0
  0
LINE
  5
2D8
330
1F
100
AcDbEntity
  8
化粧台
  6
EXLTYPE2
 62
     6
100
AcDbLine
 10
2330.799999999999
 20
1599.400000000071
 30
0.0
 11
2299.2
 21
1599.400000000071
 31
0.0
  0
LINE
  5
2D9
330
1F
100
AcDbEntity
  8
化粧台
  6
EXLTYPE2
 62
     6
100
AcDbLine
 10
2359.0
 20
1628.7
 30
0.0
 11
2359.0
 21
1604.300000000001
 31
0.0
  0
LINE
  5
2DA
330
1F
100
AcDbEntity
  8
化粧台
  6
EXLTYPE2
 62
     6
100
AcDbLine
 10
2315.0
 20
1513.0
 30
0.0
 11
2334.0
 21
1532.0
 31
0.0
  0
ARC
  5
2DB
330
1F
100
AcDbEntity
  8
化粧台
  6
EXLTYPE2
 62
     6
100
AcDbCircle
 10
2349.0
 20
1547.0
 30
0.0
 40
15.00000000000001
100
AcDbArc
 50
180.0
 51
270.0000000000002
  0
LINE
  5
2DC
330
1F
100
AcDbEntity
  8
化粧台
  6
EXLTYPE2
 62
     6
100
AcDbLine
 10
2333.0
 20
1494.0
 30
0.0
 11
2333.0
 21
1531.0
 31
0.0
  0
LINE
  5
2DD
330
1F
100
AcDbEntity
  8
化粧台
  6
EXLTYPE2
 62
     6
100
AcDbLine
 10
2296.0
 20
1531.0
 30
0.0
 11
2333.0
 21
1531.0
 31
0.0
  0
LINE
  5
2DE
330
1F
100
AcDbEntity
  8
化粧台
  6
EXLTYPE2
 62
     6
100
AcDbLine
 10
2298.75
 20
1528.0
 30
0.0
 11
2330.0
 21
1528.0
 31
0.0
  0
LINE
  5
2DF
330
1F
100
AcDbEntity
  8
化粧台
  6
EXLTYPE2
 62
     6
100
AcDbLine
 10
2330.0
 20
1496.75
 30
0.0
 11
2330.0
 21
1528.0
 31
0.0
  0
LINE
  5
2E0
330
1F
100
AcDbEntity
  8
化粧台
  6
EXLTYPE2
 62
     6
100
AcDbLine
 10
2351.699999999998
 20
1494.0
 30
0.0
 11
2333.0
 21
1494.0
 31
0.0
  0
LINE
  5
2E1
330
1F
100
AcDbEntity
  8
化粧台
  6
EXLTYPE2
 62
     6
100
AcDbLine
 10
2296.0
 20
1531.0
 30
0.0
 11
2296.0
 21
1549.7
 31
0.0
  0
LINE
  5
2E2
330
1F
100
AcDbEntity
  8
化粧台
  6
EXLTYPE2
 62
     6
100
AcDbLine
 10
2298.749999999998
 20
1513.0
 30
0.0
 11
2298.749999999998
 21
1528.0
 31
0.0
  0
LINE
  5
2E3
330
1F
100
AcDbEntity
  8
化粧台
  6
EXLTYPE2
 62
     6
100
AcDbLine
 10
2314.999999999998
 20
1496.75
 30
0.0
 11
2330.0
 21
1496.75
 31
0.0
  0
ARC
  5
2E4
330
1F
100
AcDbEntity
  8
化粧台
  6
EXLTYPE2
 62
     6
100
AcDbCircle
 10
2314.999999999998
 20
1513.0
 30
0.0
 40
16.25
100
AcDbArc
 50
180.0
 51
270.0000000000002
  0
LINE
  5
2E5
330
1F
100
AcDbEntity
  8
化粧台
  6
EXLTYPE2
 62
     6
100
AcDbLine
 10
2333.0
 20
1494.0
 30
0.0
 11
2330.0
 21
1496.75
 31
0.0
  0
LINE
  5
2E6
330
1F
100
AcDbEntity
  8
化粧台
  6
EXLTYPE2
 62
     6
100
AcDbLine
 10
2296.0
 20
1531.0
 30
0.0
 11
2298.75
 21
1528.0
 31
0.0
  0
LINE
  5
2E7
330
1F
100
AcDbEntity
  8
化粧台
  6
EXLTYPE2
 62
     6
100
AcDbLine
 10
2351.7
 20
1532.0
 30
0.0
 11
2334.0
 21
1532.0
 31
0.0
  0
LINE
  5
2E8
330
1F
100
AcDbEntity
  8
化粧台
  6
EXLTYPE2
 62
     6
100
AcDbLine
 10
2334.0
 20
1532.0
 30
0.0
 11
2334.0
 21
1549.7
 31
0.0
  0
LINE
  5
2E9
330
1F
100
AcDbEntity
  8
化粧台
  6
EXLTYPE2
 62
     6
100
AcDbLine
 10
2369.5
 20
1535.799999999999
 30
0.0
 11
2351.7
 21
1535.799999999999
 31
0.0
  0
LINE
  5
2EA
330
1F
100
AcDbEntity
  8
化粧台
  6
EXLTYPE2
 62
     6
100
AcDbLine
 10
2369.5
 20
1490.2
 30
0.0
 11
2351.699999999998
 21
1490.2
 31
0.0
  0
LINE
  5
2EB
330
1F
100
AcDbEntity
  8
化粧台
  6
EXLTYPE2
 62
     6
100
AcDbLine
 10
2369.5
 20
1535.799999999999
 30
0.0
 11
2369.5
 21
1490.2
 31
0.0
  0
LINE
  5
2EC
330
1F
100
AcDbEntity
  8
化粧台
  6
EXLTYPE2
 62
     6
100
AcDbLine
 10
2351.7
 20
1535.799999999999
 30
0.0
 11
2351.699999999998
 21
1490.2
 31
0.0
  0
LINE
  5
2ED
330
1F
100
AcDbEntity
  8
化粧台
  6
EXLTYPE2
 62
     6
100
AcDbLine
 10
2292.2
 20
1567.5
 30
0.0
 11
2292.2
 21
1549.7
 31
0.0
  0
LINE
  5
2EE
330
1F
100
AcDbEntity
  8
化粧台
  6
EXLTYPE2
 62
     6
100
AcDbLine
 10
2337.799999999999
 20
1567.5
 30
0.0
 11
2337.799999999999
 21
1549.7
 31
0.0
  0
LINE
  5
2EF
330
1F
100
AcDbEntity
  8
化粧台
  6
EXLTYPE2
 62
     6
100
AcDbLine
 10
2292.2
 20
1567.5
 30
0.0
 11
2337.799999999999
 21
1567.5
 31
0.0
  0
LINE
  5
2F0
330
1F
100
AcDbEntity
  8
化粧台
  6
EXLTYPE2
 62
     6
100
AcDbLine
 10
2292.2
 20
1549.7
 30
0.0
 11
2337.799999999999
 21
1549.7
 31
0.0
  0
LINE
  5
2F1
330
1F
100
AcDbEntity
  8
化粧台
  6
EXLTYPE2
 62
     6
100
AcDbLine
 10
2336.6433569164
 20
1565.5
 30
0.0
 11
2336.6433569164
 21
1549.7
 31
0.0
  0
LINE
  5
2F2
330
1F
100
AcDbEntity
  8
化粧台
  6
EXLTYPE2
 62
     6
100
AcDbLine
 10
2293.356643083599
 20
1565.5
 30
0.0
 11
2293.356643083599
 21
1549.7
 31
0.0
  0
LINE
  5
2F3
330
1F
100
AcDbEntity
  8
化粧台
  6
EXLTYPE2
 62
     6
100
AcDbLine
 10
2325.6007123057
 20
1565.5
 30
0.0
 11
2325.6007123057
 21
1549.7
 31
0.0
  0
LINE
  5
2F4
330
1F
100
AcDbEntity
  8
化粧台
  6
EXLTYPE2
 62
     6
100
AcDbLine
 10
2322.8083288865
 20
1565.5
 30
0.0
 11
2322.8083288865
 21
1549.7
 31
0.0
  0
LINE
  5
2F5
330
1F
100
AcDbEntity
  8
化粧台
  6
EXLTYPE2
 62
     6
100
AcDbLine
 10
2307.1916711135
 20
1565.5
 30
0.0
 11
2307.1916711135
 21
1549.7
 31
0.0
  0
LINE
  5
2F6
330
1F
100
AcDbEntity
  8
化粧台
  6
EXLTYPE2
 62
     6
100
AcDbLine
 10
2304.399287694301
 20
1565.5
 30
0.0
 11
2304.399287694301
 21
1549.7
 31
0.0
  0
LINE
  5
2F7
330
1F
100
AcDbEntity
  8
化粧台
  6
EXLTYPE2
 62
     6
100
AcDbLine
 10
2367.5
 20
1491.3566430836
 30
0.0
 11
2351.699999999998
 21
1491.3566430836
 31
0.0
  0
LINE
  5
2F8
330
1F
100
AcDbEntity
  8
化粧台
  6
EXLTYPE2
 62
     6
100
AcDbLine
 10
2367.5
 20
1534.643356916399
 30
0.0
 11
2351.7
 21
1534.643356916399
 31
0.0
  0
LINE
  5
2F9
330
1F
100
AcDbEntity
  8
化粧台
  6
EXLTYPE2
 62
     6
100
AcDbLine
 10
2367.5
 20
1502.399287694299
 30
0.0
 11
2351.699999999998
 21
1502.399287694299
 31
0.0
  0
LINE
  5
2FA
330
1F
100
AcDbEntity
  8
化粧台
  6
EXLTYPE2
 62
     6
100
AcDbLine
 10
2367.5
 20
1505.1916711135
 30
0.0
 11
2351.699999999998
 21
1505.1916711135
 31
0.0
  0
LINE
  5
2FB
330
1F
100
AcDbEntity
  8
化粧台
  6
EXLTYPE2
 62
     6
100
AcDbLine
 10
2367.5
 20
1520.8083288865
 30
0.0
 11
2351.7
 21
1520.8083288865
 31
0.0
  0
LINE
  5
2FC
330
1F
100
AcDbEntity
  8
化粧台
  6
EXLTYPE2
 62
     6
100
AcDbLine
 10
2367.5
 20
1523.600712305699
 30
0.0
 11
2351.7
 21
1523.600712305699
 31
0.0
  0
LINE
  5
2FD
330
1F
100
AcDbEntity
  8
化粧台
  6
EXLTYPE2
 62
     6
100
AcDbLine
 10
2299.2
 20
1599.400000000071
 30
0.0
 11
2299.2
 21
1567.5
 31
0.0
  0
LINE
  5
2FE
330
1F
100
AcDbEntity
  8
化粧台
  6
EXLTYPE2
 62
     6
100
AcDbLine
 10
2330.799999999999
 20
1599.400000000071
 30
0.0
 11
2330.799999999999
 21
1567.5
 31
0.0
  0
LINE
  5
2FF
330
1F
100
AcDbEntity
  8
化粧台
  6
EXLTYPE2
 62
     6
100
AcDbLine
 10
2433.999999999992
 20
1528.999999999999
 30
0.0
 11
2369.5
 21
1528.999999999999
 31
0.0
  0
LINE
  5
300
330
1F
100
AcDbEntity
  8
化粧台
  6
EXLTYPE2
 62
     6
100
AcDbLine
 10
2433.999999999998
 20
1497.0
 30
0.0
 11
2369.5
 21
1497.0
 31
0.0
  0
LINE
  5
301
330
1F
100
AcDbEntity
  8
化粧台
  6
EXLTYPE2
 62
     6
100
AcDbLine
 10
2433.999999999998
 20
1466.0
 30
0.0
 11
2433.999999999998
 21
1497.0
 31
0.0
  0
LINE
  5
302
330
1F
100
AcDbEntity
  8
化粧台
  6
CONTINUOUS
 62
     6
100
AcDbLine
 10
2550.0
 20
1442.0
 30
0.0
 11
2558.0
 21
1442.0
 31
0.0
  0
LINE
  5
303
330
1F
100
AcDbEntity
  8
化粧台
  6
CONTINUOUS
 62
     6
100
AcDbLine
 10
2558.0
 20
1463.0
 30
0.0
 11
2558.0
 21
1442.0
 31
0.0
  0
LINE
  5
304
330
1F
100
AcDbEntity
  8
化粧台
  6
CONTINUOUS
 62
     6
100
AcDbLine
 10
2550.0
 20
1463.0
 30
0.0
 11
2558.0
 21
1463.0
 31
0.0
  0
LINE
  5
305
330
1F
100
AcDbEntity
  8
化粧台
  6
CONTINUOUS
 62
     6
100
AcDbLine
 10
2465.0
 20
1482.5
 30
0.0
 11
2465.0
 21
1422.5
 31
0.0
  0
LINE
  5
306
330
1F
100
AcDbEntity
  8
化粧台
  6
CONTINUOUS
 62
     6
100
AcDbLine
 10
2417.0
 20
1452.5
 30
0.0
 11
2573.0
 21
1452.5
 31
0.0
  0
ARC
  5
307
330
1F
100
AcDbEntity
  8
化粧台
  6
EXLTYPE2
 62
     6
100
AcDbCircle
 10
2481.105879972376
 20
1471.5
 30
0.0
 40
6.500000000000004
100
AcDbArc
 50
270.0000000000002
 51
318.8458299263331
  0
ARC
  5
308
330
1F
100
AcDbEntity
  8
化粧台
  6
EXLTYPE2
 62
     6
100
AcDbCircle
 10
2481.105879972376
 20
1433.5
 30
0.0
 40
6.500000000000004
100
AcDbArc
 50
41.1541700736668
 51
90.00000000000001
  0
LINE
  5
309
330
1F
100
AcDbEntity
  8
化粧台
  6
EXLTYPE2
 62
     6
100
AcDbLine
 10
2493.0
 20
1464.75
 30
0.0
 11
2491.572540797569
 21
1467.22243186434
 31
0.0
  0
LINE
  5
30A
330
1F
100
AcDbEntity
  8
化粧台
  6
EXLTYPE2
 62
     6
100
AcDbLine
 10
2493.0
 20
1440.25
 30
0.0
 11
2491.572540797569
 21
1437.77756813566
 31
0.0
  0
LINE
  5
30B
330
1F
100
AcDbEntity
  8
化粧台
  6
EXLTYPE2
 62
     6
100
AcDbLine
 10
2491.572540797569
 20
1437.77756813566
 30
0.0
 11
2486.0
 21
1437.77756813566
 31
0.0
  0
ARC
  5
30C
330
1F
100
AcDbEntity
  8
化粧台
  6
EXLTYPE2
 62
     6
100
AcDbCircle
 10
2451.0
 20
1468.5
 30
0.0
 40
3.500000000000002
100
AcDbArc
 50
270.0000000000002
 51
0.0
  0
ARC
  5
30D
330
1F
100
AcDbEntity
  8
化粧台
  6
EXLTYPE2
 62
     6
100
AcDbCircle
 10
2479.0
 20
1468.5
 30
0.0
 40
3.500000000000002
100
AcDbArc
 50
180.0
 51
270.0000000000002
  0
LINE
  5
30E
330
1F
100
AcDbEntity
  8
化粧台
  6
EXLTYPE2
 62
     6
100
AcDbLine
 10
2479.0
 20
1465.0
 30
0.0
 11
2481.105879972376
 21
1465.0
 31
0.0
  0
LINE
  5
30F
330
1F
100
AcDbEntity
  8
化粧台
  6
EXLTYPE2
 62
     6
100
AcDbLine
 10
2437.6
 20
1447.2
 30
0.0
 11
2437.6
 21
1457.8
 31
0.0
  0
LINE
  5
310
330
1F
100
AcDbEntity
  8
化粧台
  6
EXLTYPE2
 62
     6
100
AcDbLine
 10
2450.5
 20
1439.75
 30
0.0
 11
2450.5
 21
1465.25
 31
0.0
  0
ARC
  5
311
330
1F
100
AcDbEntity
  8
化粧台
  6
EXLTYPE2
 62
     6
100
AcDbCircle
 10
2446.72508278236
 20
1443.75
 30
0.0
 40
5.5
100
AcDbArc
 50
217.1876259392006
 51
313.3417582272
  0
LINE
  5
312
330
1F
100
AcDbEntity
  8
化粧台
  6
EXLTYPE2
 62
     6
100
AcDbLine
 10
2437.6
 20
1447.2
 30
0.0
 11
2442.343450177721
 21
1440.42565108361
 31
0.0
  0
ARC
  5
313
330
1F
100
AcDbEntity
  8
化粧台
  6
EXLTYPE2
 62
     6
100
AcDbCircle
 10
2446.72508278236
 20
1461.25
 30
0.0
 40
5.5
100
AcDbArc
 50
46.65824177279988
 51
142.8123740608007
  0
LINE
  5
314
330
1F
100
AcDbEntity
  8
化粧台
  6
EXLTYPE2
 62
     6
100
AcDbLine
 10
2437.6
 20
1457.8
 30
0.0
 11
2442.343450177721
 21
1464.57434891639
 31
0.0
  0
LINE
  5
315
330
1F
100
AcDbEntity
  8
化粧台
  6
EXLTYPE2
 62
     6
100
AcDbLine
 10
2450.5
 20
1465.0
 30
0.0
 11
2451.0
 21
1465.0
 31
0.0
  0
LINE
  5
316
330
1F
100
AcDbEntity
  8
化粧台
  6
EXLTYPE2
 62
     6
100
AcDbLine
 10
2450.5
 20
1440.0
 30
0.0
 11
2481.105879972379
 21
1440.0
 31
0.0
  0
LINE
  5
317
330
1F
100
AcDbEntity
  8
化粧台
  6
EXLTYPE2
 62
     6
100
AcDbLine
 10
2432.0
 20
1457.25
 30
0.0
 11
2437.6
 21
1457.25
 31
0.0
  0
LINE
  5
318
330
1F
100
AcDbEntity
  8
化粧台
  6
EXLTYPE2
 62
     6
100
AcDbLine
 10
2432.0
 20
1447.75
 30
0.0
 11
2437.6
 21
1447.75
 31
0.0
  0
LINE
  5
319
330
1F
100
AcDbEntity
  8
化粧台
  6
EXLTYPE2
 62
     6
100
AcDbLine
 10
2432.0
 20
1457.25
 30
0.0
 11
2432.0
 21
1447.75
 31
0.0
  0
LINE
  5
31A
330
1F
100
AcDbEntity
  8
化粧台
  6
EXLTYPE2
 62
     6
100
AcDbLine
 10
2493.0
 20
1442.0
 30
0.0
 11
2550.0
 21
1442.0
 31
0.0
  0
LINE
  5
31B
330
1F
100
AcDbEntity
  8
化粧台
  6
EXLTYPE2
 62
     6
100
AcDbLine
 10
2491.572540797569
 20
1467.22243186434
 30
0.0
 11
2486.0
 21
1467.22243186434
 31
0.0
  0
LINE
  5
31C
330
1F
100
AcDbEntity
  8
化粧台
  6
EXLTYPE2
 62
     6
100
AcDbLine
 10
2475.0
 20
1515.5
 30
0.0
 11
2475.0
 21
1486.5
 31
0.0
  0
LINE
  5
31D
330
1F
100
AcDbEntity
  8
化粧台
  6
EXLTYPE2
 62
     6
100
AcDbLine
 10
2455.0
 20
1515.5
 30
0.0
 11
2455.0
 21
1486.5
 31
0.0
  0
LINE
  5
31E
330
1F
100
AcDbEntity
  8
化粧台
  6
EXLTYPE2
 62
     6
100
AcDbLine
 10
2477.0
 20
1486.5
 30
0.0
 11
2477.0
 21
1475.5
 31
0.0
  0
LINE
  5
31F
330
1F
100
AcDbEntity
  8
化粧台
  6
EXLTYPE2
 62
     6
100
AcDbLine
 10
2453.0
 20
1486.5
 30
0.0
 11
2453.0
 21
1475.5
 31
0.0
  0
LINE
  5
320
330
1F
100
AcDbEntity
  8
化粧台
  6
EXLTYPE2
 62
     6
100
AcDbLine
 10
2453.0
 20
1475.5
 30
0.0
 11
2477.0
 21
1475.5
 31
0.0
  0
LINE
  5
321
330
1F
100
AcDbEntity
  8
化粧台
  6
EXLTYPE2
 62
     6
100
AcDbLine
 10
2453.0
 20
1486.5
 30
0.0
 11
2477.0
 21
1486.5
 31
0.0
  0
LINE
  5
322
330
1F
100
AcDbEntity
  8
化粧台
  6
EXLTYPE2
 62
     6
100
AcDbLine
 10
2449.000000000001
 20
1529.5
 30
0.0
 11
2449.000000000001
 21
1515.5
 31
0.0
  0
LINE
  5
323
330
1F
100
AcDbEntity
  8
化粧台
  6
EXLTYPE2
 62
     6
100
AcDbLine
 10
2479.000000000001
 20
1527.5
 30
0.0
 11
2479.000000000001
 21
1515.5
 31
0.0
  0
LINE
  5
324
330
1F
100
AcDbEntity
  8
化粧台
  6
EXLTYPE2
 62
     6
100
AcDbLine
 10
2449.000000000001
 20
1515.5
 30
0.0
 11
2479.000000000001
 21
1515.5
 31
0.0
  0
LINE
  5
325
330
1F
100
AcDbEntity
  8
化粧台
  6
EXLTYPE2
 62
     6
100
AcDbLine
 10
2457.0
 20
1529.5
 30
0.0
 11
2457.0
 21
1515.5
 31
0.0
  0
LINE
  5
326
330
1F
100
AcDbEntity
  8
化粧台
  6
EXLTYPE2
 62
     6
100
AcDbLine
 10
2449.0
 20
1529.5
 30
0.0
 11
2457.0
 21
1529.5
 31
0.0
  0
LINE
  5
327
330
1F
100
AcDbEntity
  8
化粧台
  6
EXLTYPE2
 62
     6
100
AcDbLine
 10
2457.0
 20
1527.5
 30
0.0
 11
2479.000000000001
 21
1527.5
 31
0.0
  0
LINE
  5
328
330
1F
100
AcDbEntity
  8
化粧台
  6
EXLTYPE2
 62
     6
100
AcDbLine
 10
2457.5
 20
1529.5
 30
0.0
 11
2472.500000000001
 21
1529.5
 31
0.0
  0
LINE
  5
329
330
1F
100
AcDbEntity
  8
化粧台
  6
EXLTYPE2
 62
     6
100
AcDbLine
 10
2457.5
 20
1527.5
 30
0.0
 11
2457.5
 21
1529.5
 31
0.0
  0
LINE
  5
32A
330
1F
100
AcDbEntity
  8
化粧台
  6
EXLTYPE2
 62
     6
100
AcDbLine
 10
2472.500000000001
 20
1527.5
 30
0.0
 11
2472.500000000001
 21
1529.5
 31
0.0
  0
LINE
  5
32B
330
1F
100
AcDbEntity
  8
化粧台
  6
EXLTYPE2
 62
     6
100
AcDbLine
 10
2454.5
 20
1468.5
 30
0.0
 11
2454.5
 21
1475.5
 31
0.0
  0
LINE
  5
32C
330
1F
100
AcDbEntity
  8
化粧台
  6
EXLTYPE2
 62
     6
100
AcDbLine
 10
2475.5
 20
1468.5
 30
0.0
 11
2475.5
 21
1475.5
 31
0.0
  0
LINE
  5
32D
330
1F
100
AcDbEntity
  8
化粧台
  6
EXLTYPE2
 62
     6
100
AcDbLine
 10
2459.0
 20
1731.5
 30
0.0
 11
2459.0
 21
1529.5
 31
0.0
  0
LINE
  5
32E
330
1F
100
AcDbEntity
  8
化粧台
  6
EXLTYPE2
 62
     6
100
AcDbLine
 10
2471.000000000001
 20
1731.5
 30
0.0
 11
2471.000000000001
 21
1529.5
 31
0.0
  0
LINE
  5
32F
330
1F
100
AcDbEntity
  8
化粧台
  6
EXLTYPE3
 62
     6
100
AcDbLine
 10
2315.0
 20
1711.5
 30
0.0
 11
2315.0
 21
1516.500000000001
 31
0.0
  0
LINE
  5
330
330
1F
100
AcDbEntity
  8
化粧台
  6
CONTINUOUS
 62
     6
100
AcDbLine
 10
2550.000000000002
 20
1614.5
 30
0.0
 11
2582.500000000002
 21
1612.499999999999
 31
0.0
  0
LINE
  5
331
330
1F
100
AcDbEntity
  8
化粧台
  6
CONTINUOUS
 62
     6
100
AcDbLine
 10
2582.500000000002
 20
1612.499999999999
 30
0.0
 11
2550.000000000002
 21
1610.5
 31
0.0
  0
LINE
  5
332
330
1F
100
AcDbEntity
  8
化粧台
  6
CONTINUOUS
 62
     6
100
AcDbLine
 10
2532.0
 20
1620.0
 30
0.0
 11
2531.0
 21
1620.0
 31
0.0
  0
LINE
  5
333
330
1F
100
AcDbEntity
  8
化粧台
  6
CONTINUOUS
 62
     6
100
AcDbLine
 10
2532.0
 20
1604.999999999999
 30
0.0
 11
2531.0
 21
1604.999999999999
 31
0.0
  0
ARC
  5
334
330
1F
100
AcDbEntity
  8
化粧台
  6
CONTINUOUS
 62
     6
100
AcDbCircle
 10
2532.039655172414
 20
1612.499999999999
 30
0.0
 40
3.939655172413634
100
AcDbArc
 50
105.3013019106999
 51
254.6986980892994
  0
LINE
  5
335
330
1F
100
AcDbEntity
  8
化粧台
  6
CONTINUOUS
 62
     6
100
AcDbLine
 10
2531.0
 20
1620.0
 30
0.0
 11
2531.0
 21
1604.999999999999
 31
0.0
  0
LINE
  5
336
330
1F
100
AcDbEntity
  8
化粧台
  6
CONTINUOUS
 62
     6
100
AcDbLine
 10
2518.100000000001
 20
1612.499999999999
 30
0.0
 11
2592.5
 21
1612.499999999999
 31
0.0
  0
LINE
  5
337
330
1F
100
AcDbEntity
  8
化粧台
  6
EXLTYPE2
 62
     6
100
AcDbLine
 10
2532.0
 20
1172.5
 30
0.0
 11
2439.0
 21
1172.5
 31
0.0
  0
LINE
  5
338
330
1F
100
AcDbEntity
  8
化粧台
  6
EXLTYPE2
 62
     6
100
AcDbLine
 10
2532.0
 20
1137.5
 30
0.0
 11
2439.0
 21
1137.5
 31
0.0
  0
LINE
  5
339
330
1F
100
AcDbEntity
  8
化粧台
  6
EXLTYPE2
 62
     6
100
AcDbLine
 10
2439.0
 20
1172.5
 30
0.0
 11
2439.0
 21
1137.5
 31
0.0
  0
LINE
  5
33A
330
1F
100
AcDbEntity
  8
化粧台
  6
EXLTYPE2
 62
     6
100
AcDbLine
 10
2532.0
 20
1172.5
 30
0.0
 11
2532.0
 21
1137.5
 31
0.0
  0
ARC
  5
33B
330
1F
100
AcDbEntity
  8
化粧台
  6
EXLTYPE2
 62
     6
100
AcDbCircle
 10
1087.967785551999
 20
1370.4900624176
 30
0.0
 40
40.0
100
AcDbArc
 50
317.6935529327007
 51
358.6765942212
  0
LINE
  5
33C
330
1F
100
AcDbEntity
  8
化粧台
  6
EXLTYPE2
 62
     6
100
AcDbLine
 10
1118.128124999998
 20
1369.5662330406
 30
0.0
 11
1132.228124999999
 21
1369.5662330406
 31
0.0
  0
LINE
  5
33D
330
1F
100
AcDbEntity
  8
化粧台
  6
EXLTYPE2
 62
     6
100
AcDbLine
 10
1119.998136102999
 20
1415.5662330406
 30
0.0
 11
1119.998136102999
 21
1399.5662330406
 31
0.0
  0
LINE
  5
33E
330
1F
100
AcDbEntity
  8
化粧台
  6
EXLTYPE2
 62
     6
100
AcDbLine
 10
1130.858113896999
 20
1415.5662330406
 30
0.0
 11
1130.858113896999
 21
1399.5662330406
 31
0.0
  0
LINE
  5
33F
330
1F
100
AcDbEntity
  8
化粧台
  6
EXLTYPE2
 62
     6
100
AcDbLine
 10
1102.221874999999
 20
1399.5662330406
 30
0.0
 11
1137.128124999999
 21
1399.5662330406
 31
0.0
  0
LINE
  5
340
330
1F
100
AcDbEntity
  8
化粧台
  6
EXLTYPE2
 62
     6
100
AcDbLine
 10
1102.221874999999
 20
1374.5662330406
 30
0.0
 11
1117.549999999998
 21
1374.5662330406
 31
0.0
  0
LINE
  5
341
330
1F
100
AcDbEntity
  8
化粧台
  6
EXLTYPE2
 62
     6
100
AcDbLine
 10
1117.549999999998
 20
1374.5662330406
 30
0.0
 11
1117.549999999998
 21
1340.0662330406
 31
0.0
  0
LINE
  5
342
330
1F
100
AcDbEntity
  8
化粧台
  6
EXLTYPE2
 62
     6
100
AcDbLine
 10
1142.156249999999
 20
1415.5662330406
 30
0.0
 11
1142.156249999999
 21
1399.5662330406
 31
0.0
  0
LINE
  5
343
330
1F
100
AcDbEntity
  8
化粧台
  6
EXLTYPE2
 62
     6
100
AcDbLine
 10
1097.843750000001
 20
1415.5662330406
 30
0.0
 11
1097.843750000001
 21
1399.5662330406
 31
0.0
  0
ARC
  5
344
330
1F
100
AcDbEntity
  8
化粧台
  6
EXLTYPE2
 62
     6
100
AcDbCircle
 10
1099.843750000002
 20
1415.5662330406
 30
0.0
 40
2.0
100
AcDbArc
 50
90.00000000000001
 51
180.0
  0
LINE
  5
345
330
1F
100
AcDbEntity
  8
化粧台
  6
EXLTYPE2
 62
     6
100
AcDbLine
 10
1117.099999999998
 20
1325.5
 30
0.0
 11
1117.099999999998
 21
1340.5
 31
0.0
  0
LINE
  5
346
330
1F
100
AcDbEntity
  8
化粧台
  6
EXLTYPE2
 62
     6
100
AcDbLine
 10
1071.099999999998
 20
1325.5
 30
0.0
 11
1071.099999999998
 21
1340.5
 31
0.0
  0
ARC
  5
347
330
1F
100
AcDbEntity
  8
化粧台
  6
EXLTYPE2
 62
     6
100
AcDbCircle
 10
1072.599999999999
 20
1325.5
 30
0.0
 40
1.5
100
AcDbArc
 50
180.0
 51
270.0000000000002
  0
ARC
  5
348
330
1F
100
AcDbEntity
  8
化粧台
  6
EXLTYPE2
 62
     6
100
AcDbCircle
 10
1115.599999999999
 20
1325.5
 30
0.0
 40
1.5
100
AcDbArc
 50
270.0000000000002
 51
0.0
  0
LINE
  5
349
330
1F
100
AcDbEntity
  8
化粧台
  6
EXLTYPE2
 62
     6
100
AcDbLine
 10
1073.246341462999
 20
1324.0
 30
0.0
 11
1073.246341462999
 21
1340.5
 31
0.0
  0
LINE
  5
34A
330
1F
100
AcDbEntity
  8
化粧台
  6
EXLTYPE2
 62
     6
100
AcDbLine
 10
1114.953658536999
 20
1324.0
 30
0.0
 11
1114.953658536999
 21
1340.5
 31
0.0
  0
LINE
  5
34B
330
1F
100
AcDbEntity
  8
化粧台
  6
EXLTYPE2
 62
     6
100
AcDbLine
 10
1085.816461245999
 20
1325.5
 30
0.0
 11
1085.816461245999
 21
1340.5
 31
0.0
  0
LINE
  5
34C
330
1F
100
AcDbEntity
  8
化粧台
  6
EXLTYPE2
 62
     6
100
AcDbLine
 10
1102.383538754
 20
1325.5
 30
0.0
 11
1102.383538754
 21
1340.5
 31
0.0
  0
LINE
  5
34D
330
1F
100
AcDbEntity
  8
化粧台
  6
EXLTYPE2
 62
     6
100
AcDbLine
 10
1081.349999999999
 20
1340.5
 30
0.0
 11
1081.349999999999
 21
1325.5
 31
0.0
  0
LINE
  5
34E
330
1F
100
AcDbEntity
  8
化粧台
  6
EXLTYPE2
 62
     6
100
AcDbLine
 10
1106.849999999998
 20
1340.5
 30
0.0
 11
1106.849999999998
 21
1325.5
 31
0.0
  0
LINE
  5
34F
330
1F
100
AcDbEntity
  8
化粧台
  6
EXLTYPE2
 62
     6
100
AcDbLine
 10
1077.878124999999
 20
1344.72532196
 30
0.0
 11
1077.878124999999
 21
1340.2
 31
0.0
  0
LINE
  5
350
330
1F
100
AcDbEntity
  8
化粧台
  6
EXLTYPE2
 62
     6
100
AcDbLine
 10
1135.849999999999
 20
1399.5662330406
 30
0.0
 11
1135.849999999999
 21
1369.5662330406
 31
0.0
  0
LINE
  5
351
330
1F
100
AcDbEntity
  8
化粧台
  6
EXLTYPE2
 62
     6
100
AcDbLine
 10
1104.149999999998
 20
1399.5662330406
 30
0.0
 11
1104.149999999998
 21
1374.5662330406
 31
0.0
  0
LINE
  5
352
330
1F
100
AcDbEntity
  8
化粧台
  6
EXLTYPE2
 62
     6
100
AcDbLine
 10
1054.149999999998
 20
1410.35
 30
0.0
 11
1054.149999999998
 21
1382.650000000002
 31
0.0
  0
ARC
  5
353
330
1F
100
AcDbEntity
  8
化粧台
  6
EXLTYPE2
 62
     6
100
AcDbCircle
 10
1120.0
 20
1462.5
 30
0.0
 40
16.0
100
AcDbArc
 50
0.0
 51
180.0
  0
LINE
  5
354
330
1F
100
AcDbEntity
  8
化粧台
  6
EXLTYPE2
 62
     6
100
AcDbLine
 10
1104.871874999999
 20
1417.5662330406
 30
0.0
 11
1135.128124999998
 21
1417.5662330406
 31
0.0
  0
LINE
  5
355
330
1F
100
AcDbEntity
  8
化粧台
  6
EXLTYPE2
 62
     6
100
AcDbLine
 10
1129.578124999998
 20
1419.3943580406
 30
0.0
 11
1129.578124999998
 21
1417.5662330406
 31
0.0
  0
LINE
  5
356
330
1F
100
AcDbEntity
  8
化粧台
  6
EXLTYPE2
 62
     6
100
AcDbLine
 10
1136.0
 20
1462.5
 30
0.0
 11
1136.0
 21
1417.5662330406
 31
0.0
  0
LINE
  5
357
330
1F
100
AcDbEntity
  8
化粧台
  6
EXLTYPE2
 62
     6
100
AcDbLine
 10
1104.0
 20
1462.5
 30
0.0
 11
1104.0
 21
1417.5662330406
 31
0.0
  0
ARC
  5
358
330
1F
100
AcDbEntity
  8
化粧台
  6
EXLTYPE2
 62
     6
100
AcDbCircle
 10
1140.156249999998
 20
1415.5662330406
 30
0.0
 40
2.0
100
AcDbArc
 50
0.0
 51
90.00000000000001
  0
LINE
  5
359
330
1F
100
AcDbEntity
  8
化粧台
  6
EXLTYPE2
 62
     6
100
AcDbLine
 10
2461.849999999999
 20
1373.64285714286
 30
0.0
 11
2486.5
 21
1373.64285714286
 31
0.0
  0
LINE
  5
35A
330
1F
100
AcDbEntity
  8
化粧台
  6
EXLTYPE2
 62
     6
100
AcDbLine
 10
2431.5
 20
1411.64285714286
 30
0.0
 11
2468.499999999998
 21
1411.64285714286
 31
0.0
  0
LINE
  5
35B
330
1F
100
AcDbEntity
  8
化粧台
  6
EXLTYPE2
 62
     6
100
AcDbLine
 10
2468.499999999998
 20
1411.64285714286
 30
0.0
 11
2465.849999999999
 21
1408.99285714286
 31
0.0
  0
LINE
  5
35C
330
1F
100
AcDbEntity
  8
化粧台
  6
EXLTYPE2
 62
     6
100
AcDbLine
 10
2431.5
 20
1411.64285714286
 30
0.0
 11
2434.149999999998
 21
1408.99285714286
 31
0.0
  0
LINE
  5
35D
330
1F
100
AcDbEntity
  8
化粧台
  6
EXLTYPE2
 62
     6
100
AcDbLine
 10
2484.799999999999
 20
1368.64285714286
 30
0.0
 11
2519.499999999998
 21
1368.64285714286
 31
0.0
  0
ARC
  5
35E
330
1F
100
AcDbEntity
  8
化粧台
  6
EXLTYPE2
 62
     6
100
AcDbCircle
 10
2475.499999999996
 20
1380.10714013386
 30
0.0
 40
41.35
100
AcDbArc
 50
180.0
 51
244.9621776907013
  0
ARC
  5
35F
330
1F
100
AcDbEntity
  8
化粧台
  6
EXLTYPE2
 62
     6
100
AcDbCircle
 10
2475.499999999996
 20
1380.10714013386
 30
0.0
 40
41.35
100
AcDbArc
 50
295.0378223093015
 51
343.9038620463016
  0
LINE
  5
360
330
1F
100
AcDbEntity
  8
化粧台
  6
EXLTYPE2
 62
     6
100
AcDbLine
 10
2434.149999999998
 20
1408.99285714286
 30
0.0
 11
2465.849999999999
 21
1408.99285714286
 31
0.0
  0
POLYLINE
  5
361
330
1F
100
AcDbEntity
  8
化粧台
  6
EXLTYPE2
 62
     6
100
AcDb2dPolyline
 66
     1
 10
0.0
 20
0.0
 30
0.0
 70
   128
  0
VERTEX
  5
362
330
361
100
AcDbEntity
  8
化粧台
  6
EXLTYPE2
 62
     6
100
AcDbVertex
100
AcDb2dVertex
 10
2492.999999999996
 20
1342.64285714286
 30
0.0
  0
VERTEX
  5
363
330
361
100
AcDbEntity
  8
化粧台
  6
EXLTYPE2
 62
     6
100
AcDbVertex
100
AcDb2dVertex
 10
2492.927877136918
 20
1342.740677721566
 30
0.0
  0
VERTEX
  5
364
330
361
100
AcDbEntity
  8
化粧台
  6
EXLTYPE2
 62
     6
100
AcDbVertex
100
AcDb2dVertex
 10
2492.722175874732
 20
1343.017490565047
 30
0.0
  0
VERTEX
  5
365
330
361
100
AcDbEntity
  8
化粧台
  6
EXLTYPE2
 62
     6
100
AcDbVertex
100
AcDb2dVertex
 10
2492.398897204014
 20
1343.44832233434
 30
0.0
  0
VERTEX
  5
366
330
361
100
AcDbEntity
  8
化粧台
  6
EXLTYPE2
 62
     6
100
AcDbVertex
100
AcDb2dVertex
 10
2491.974042115337
 20
1344.008199690489
 30
0.0
  0
VERTEX
  5
367
330
361
100
AcDbEntity
  8
化粧台
  6
EXLTYPE2
 62
     6
100
AcDbVertex
100
AcDb2dVertex
 10
2491.463611599276
 20
1344.672149294532
 30
0.0
  0
VERTEX
  5
368
330
361
100
AcDbEntity
  8
化粧台
  6
EXLTYPE2
 62
     6
100
AcDbVertex
100
AcDb2dVertex
 10
2490.883606646405
 20
1345.415197807512
 30
0.0
  0
VERTEX
  5
369
330
361
100
AcDbEntity
  8
化粧台
  6
EXLTYPE2
 62
     6
100
AcDbVertex
100
AcDb2dVertex
 10
2490.250028247298
 20
1346.212371890467
 30
0.0
  0
VERTEX
  5
36A
330
361
100
AcDbEntity
  8
化粧台
  6
EXLTYPE2
 62
     6
100
AcDbVertex
100
AcDb2dVertex
 10
2489.578877392529
 20
1347.038698204439
 30
0.0
  0
VERTEX
  5
36B
330
361
100
AcDbEntity
  8
化粧台
  6
EXLTYPE2
 62
     6
100
AcDbVertex
100
AcDb2dVertex
 10
2488.886155072674
 20
1347.869203410468
 30
0.0
  0
VERTEX
  5
36C
330
361
100
AcDbEntity
  8
化粧台
  6
EXLTYPE2
 62
     6
100
AcDbVertex
100
AcDb2dVertex
 10
2488.187862278308
 20
1348.678914169595
 30
0.0
  0
VERTEX
  5
36D
330
361
100
AcDbEntity
  8
化粧台
  6
EXLTYPE2
 62
     6
100
AcDbVertex
100
AcDb2dVertex
 10
2487.5
 20
1349.44285714286
 30
0.0
  0
VERTEX
  5
36E
330
361
100
AcDbEntity
  8
化粧台
  6
EXLTYPE2
 62
     6
100
AcDbVertex
100
AcDb2dVertex
 10
2486.911884995711
 20
1350.065176740269
 30
0.0
  0
VERTEX
  5
36F
330
361
100
AcDbEntity
  8
化粧台
  6
EXLTYPE2
 62
     6
100
AcDbVertex
100
AcDb2dVertex
 10
2486.34823006377
 20
1350.643473280823
 30
0.0
  0
VERTEX
  5
370
330
361
100
AcDbEntity
  8
化粧台
  6
EXLTYPE2
 62
     6
100
AcDbVertex
100
AcDb2dVertex
 10
2485.812816786409
 20
1351.189067493812
 30
0.0
  0
VERTEX
  5
371
330
361
100
AcDbEntity
  8
化粧台
  6
EXLTYPE2
 62
     6
100
AcDbVertex
100
AcDb2dVertex
 10
2485.309426745858
 20
1351.713280108522
 30
0.0
  0
VERTEX
  5
372
330
361
100
AcDbEntity
  8
化粧台
  6
EXLTYPE2
 62
     6
100
AcDbVertex
100
AcDb2dVertex
 10
2484.841841524347
 20
1352.227431854242
 30
0.0
  0
VERTEX
  5
373
330
361
100
AcDbEntity
  8
化粧台
  6
EXLTYPE2
 62
     6
100
AcDbVertex
100
AcDb2dVertex
 10
2484.413842704106
 20
1352.742843460258
 30
0.0
  0
VERTEX
  5
374
330
361
100
AcDbEntity
  8
化粧台
  6
EXLTYPE2
 62
     6
100
AcDbVertex
100
AcDb2dVertex
 10
2484.029211867364
 20
1353.270835655858
 30
0.0
  0
VERTEX
  5
375
330
361
100
AcDbEntity
  8
化粧台
  6
EXLTYPE2
 62
     6
100
AcDbVertex
100
AcDb2dVertex
 10
2483.691730596352
 20
1353.822729170331
 30
0.0
  0
VERTEX
  5
376
330
361
100
AcDbEntity
  8
化粧台
  6
EXLTYPE2
 62
     6
100
AcDbVertex
100
AcDb2dVertex
 10
2483.4051804733
 20
1354.409844732964
 30
0.0
  0
VERTEX
  5
377
330
361
100
AcDbEntity
  8
化粧台
  6
EXLTYPE2
 62
     6
100
AcDbVertex
100
AcDb2dVertex
 10
2483.173343080439
 20
1355.043503073045
 30
0.0
  0
VERTEX
  5
378
330
361
100
AcDbEntity
  8
化粧台
  6
EXLTYPE2
 62
     6
100
AcDbVertex
100
AcDb2dVertex
 10
2482.999999999997
 20
1355.73502491986
 30
0.0
  0
VERTEX
  5
379
330
361
100
AcDbEntity
  8
化粧台
  6
EXLTYPE2
 62
     6
100
AcDbVertex
100
AcDb2dVertex
 10
2482.843046075469
 20
1357.04403799473
 30
0.0
  0
VERTEX
  5
37A
330
361
100
AcDbEntity
  8
化粧台
  6
EXLTYPE2
 62
     6
100
AcDbVertex
100
AcDb2dVertex
 10
2482.834693319949
 20
1358.493550371343
 30
0.0
  0
VERTEX
  5
37B
330
361
100
AcDbEntity
  8
化粧台
  6
EXLTYPE2
 62
     6
100
AcDbVertex
100
AcDb2dVertex
 10
2482.946780696309
 20
1360.027690696995
 30
0.0
  0
VERTEX
  5
37C
330
361
100
AcDbEntity
  8
化粧台
  6
EXLTYPE2
 62
     6
100
AcDbVertex
100
AcDb2dVertex
 10
2483.151147167428
 20
1361.590587618979
 30
0.0
  0
VERTEX
  5
37D
330
361
100
AcDbEntity
  8
化粧台
  6
EXLTYPE2
 62
     6
100
AcDbVertex
100
AcDb2dVertex
 10
2483.419631696179
 20
1363.126369784589
 30
0.0
  0
VERTEX
  5
37E
330
361
100
AcDbEntity
  8
化粧台
  6
EXLTYPE2
 62
     6
100
AcDbVertex
100
AcDb2dVertex
 10
2483.724073245438
 20
1364.579165841119
 30
0.0
  0
VERTEX
  5
37F
330
361
100
AcDbEntity
  8
化粧台
  6
EXLTYPE2
 62
     6
100
AcDbVertex
100
AcDb2dVertex
 10
2484.036310778082
 20
1365.893104435863
 30
0.0
  0
VERTEX
  5
380
330
361
100
AcDbEntity
  8
化粧台
  6
EXLTYPE2
 62
     6
100
AcDbVertex
100
AcDb2dVertex
 10
2484.328183256984
 20
1367.012314216115
 30
0.0
  0
VERTEX
  5
381
330
361
100
AcDbEntity
  8
化粧台
  6
EXLTYPE2
 62
     6
100
AcDbVertex
100
AcDb2dVertex
 10
2484.57152964502
 20
1367.88092382917
 30
0.0
  0
VERTEX
  5
382
330
361
100
AcDbEntity
  8
化粧台
  6
EXLTYPE2
 62
     6
100
AcDbVertex
100
AcDb2dVertex
 10
2484.738188905067
 20
1368.44306192232
 30
0.0
  0
VERTEX
  5
383
330
361
100
AcDbEntity
  8
化粧台
  6
EXLTYPE2
 62
     6
100
AcDbVertex
100
AcDb2dVertex
 10
2484.799999999999
 20
1368.64285714286
 30
0.0
  0
SEQEND
  5
384
330
361
100
AcDbEntity
  8
化粧台
  6
EXLTYPE2
 62
     6
  0
POLYLINE
  5
385
330
1F
100
AcDbEntity
  8
化粧台
  6
EXLTYPE2
 62
     6
100
AcDb2dPolyline
 66
     1
 10
0.0
 20
0.0
 30
0.0
 70
   128
  0
VERTEX
  5
386
330
385
100
AcDbEntity
  8
化粧台
  6
EXLTYPE2
 62
     6
100
AcDbVertex
100
AcDb2dVertex
 10
2457.999999999996
 20
1342.64285714286
 30
0.0
  0
VERTEX
  5
387
330
385
100
AcDbEntity
  8
化粧台
  6
EXLTYPE2
 62
     6
100
AcDbVertex
100
AcDb2dVertex
 10
2458.073699151286
 20
1342.707256886749
 30
0.0
  0
VERTEX
  5
388
330
385
100
AcDbEntity
  8
化粧台
  6
EXLTYPE2
 62
     6
100
AcDbVertex
100
AcDb2dVertex
 10
2458.283168184311
 20
1342.891555724992
 30
0.0
  0
VERTEX
  5
389
330
385
100
AcDbEntity
  8
化粧台
  6
EXLTYPE2
 62
     6
100
AcDbVertex
100
AcDb2dVertex
 10
2458.610964467799
 20
1343.182403067455
 30
0.0
  0
VERTEX
  5
38A
330
385
100
AcDbEntity
  8
化粧台
  6
EXLTYPE2
 62
     6
100
AcDbVertex
100
AcDb2dVertex
 10
2459.03964537048
 20
1343.566448324002
 30
0.0
  0
VERTEX
  5
38B
330
385
100
AcDbEntity
  8
化粧台
  6
EXLTYPE2
 62
     6
100
AcDbVertex
100
AcDb2dVertex
 10
2459.551768261086
 20
1344.030340904499
 30
0.0
  0
VERTEX
  5
38C
330
385
100
AcDbEntity
  8
化粧台
  6
EXLTYPE2
 62
     6
100
AcDbVertex
100
AcDb2dVertex
 10
2460.129890508346
 20
1344.56073021881
 30
0.0
  0
VERTEX
  5
38D
330
385
100
AcDbEntity
  8
化粧台
  6
EXLTYPE2
 62
     6
100
AcDbVertex
100
AcDb2dVertex
 10
2460.756569480989
 20
1345.144265676801
 30
0.0
  0
VERTEX
  5
38E
330
385
100
AcDbEntity
  8
化粧台
  6
EXLTYPE2
 62
     6
100
AcDbVertex
100
AcDb2dVertex
 10
2461.414362547746
 20
1345.767596688336
 30
0.0
  0
VERTEX
  5
38F
330
385
100
AcDbEntity
  8
化粧台
  6
EXLTYPE2
 62
     6
100
AcDbVertex
100
AcDb2dVertex
 10
2462.085827077347
 20
1346.417372663281
 30
0.0
  0
VERTEX
  5
390
330
385
100
AcDbEntity
  8
化粧台
  6
EXLTYPE2
 62
     6
100
AcDbVertex
100
AcDb2dVertex
 10
2462.753520438521
 20
1347.0802430115
 30
0.0
  0
VERTEX
  5
391
330
385
100
AcDbEntity
  8
化粧台
  6
EXLTYPE2
 62
     6
100
AcDbVertex
100
AcDb2dVertex
 10
2463.4
 20
1347.74285714286
 30
0.0
  0
VERTEX
  5
392
330
385
100
AcDbEntity
  8
化粧台
  6
EXLTYPE2
 62
     6
100
AcDbVertex
100
AcDb2dVertex
 10
2464.152126260497
 20
1348.54952863422
 30
0.0
  0
VERTEX
  5
393
330
385
100
AcDbEntity
  8
化粧台
  6
EXLTYPE2
 62
     6
100
AcDbVertex
100
AcDb2dVertex
 10
2464.842868787462
 20
1349.336465231092
 30
0.0
  0
VERTEX
  5
394
330
385
100
AcDbEntity
  8
化粧台
  6
EXLTYPE2
 62
     6
100
AcDbVertex
100
AcDb2dVertex
 10
2465.470425862585
 20
1350.104904512682
 30
0.0
  0
VERTEX
  5
395
330
385
100
AcDbEntity
  8
化粧台
  6
EXLTYPE2
 62
     6
100
AcDbVertex
100
AcDb2dVertex
 10
2466.032995767554
 20
1350.856084058194
 30
0.0
  0
VERTEX
  5
396
330
385
100
AcDbEntity
  8
化粧台
  6
EXLTYPE2
 62
     6
100
AcDbVertex
100
AcDb2dVertex
 10
2466.528776784061
 20
1351.591241446834
 30
0.0
  0
VERTEX
  5
397
330
385
100
AcDbEntity
  8
化粧台
  6
EXLTYPE2
 62
     6
100
AcDbVertex
100
AcDb2dVertex
 10
2466.955967193793
 20
1352.311614257808
 30
0.0
  0
VERTEX
  5
398
330
385
100
AcDbEntity
  8
化粧台
  6
EXLTYPE2
 62
     6
100
AcDbVertex
100
AcDb2dVertex
 10
2467.312765278443
 20
1353.01844007032
 30
0.0
  0
VERTEX
  5
399
330
385
100
AcDbEntity
  8
化粧台
  6
EXLTYPE2
 62
     6
100
AcDbVertex
100
AcDb2dVertex
 10
2467.597369319698
 20
1353.712956463576
 30
0.0
  0
VERTEX
  5
39A
330
385
100
AcDbEntity
  8
化粧台
  6
EXLTYPE2
 62
     6
100
AcDbVertex
100
AcDb2dVertex
 10
2467.807977599249
 20
1354.396401016781
 30
0.0
  0
VERTEX
  5
39B
330
385
100
AcDbEntity
  8
化粧台
  6
EXLTYPE2
 62
     6
100
AcDbVertex
100
AcDb2dVertex
 10
2467.942788398785
 20
1355.07001130914
 30
0.0
  0
VERTEX
  5
39C
330
385
100
AcDbEntity
  8
化粧台
  6
EXLTYPE2
 62
     6
100
AcDbVertex
100
AcDb2dVertex
 10
2467.999999999996
 20
1355.73502491986
 30
0.0
  0
VERTEX
  5
39D
330
385
100
AcDbEntity
  8
化粧台
  6
EXLTYPE2
 62
     6
100
AcDbVertex
100
AcDb2dVertex
 10
2467.959370176562
 20
1356.584693854211
 30
0.0
  0
VERTEX
  5
39E
330
385
100
AcDbEntity
  8
化粧台
  6
EXLTYPE2
 62
     6
100
AcDbVertex
100
AcDb2dVertex
 10
2467.801870645369
 20
1357.433160915776
 30
0.0
  0
VERTEX
  5
39F
330
385
100
AcDbEntity
  8
化粧台
  6
EXLTYPE2
 62
     6
100
AcDbVertex
100
AcDb2dVertex
 10
2467.543106024506
 20
1358.291502328482
 30
0.0
  0
VERTEX
  5
3A0
330
385
100
AcDbEntity
  8
化粧台
  6
EXLTYPE2
 62
     6
100
AcDbVertex
100
AcDb2dVertex
 10
2467.198680932059
 20
1359.170794316262
 30
0.0
  0
VERTEX
  5
3A1
330
385
100
AcDbEntity
  8
化粧台
  6
EXLTYPE2
 62
     6
100
AcDbVertex
100
AcDb2dVertex
 10
2466.784199986118
 20
1360.082113103043
 30
0.0
  0
VERTEX
  5
3A2
330
385
100
AcDbEntity
  8
化粧台
  6
EXLTYPE2
 62
     6
100
AcDbVertex
100
AcDb2dVertex
 10
2466.31526780477
 20
1361.036534912757
 30
0.0
  0
VERTEX
  5
3A3
330
385
100
AcDbEntity
  8
化粧台
  6
EXLTYPE2
 62
     6
100
AcDbVertex
100
AcDb2dVertex
 10
2465.807489006103
 20
1362.045135969334
 30
0.0
  0
VERTEX
  5
3A4
330
385
100
AcDbEntity
  8
化粧台
  6
EXLTYPE2
 62
     6
100
AcDbVertex
100
AcDb2dVertex
 10
2465.276468208204
 20
1363.118992496702
 30
0.0
  0
VERTEX
  5
3A5
330
385
100
AcDbEntity
  8
化粧台
  6
EXLTYPE2
 62
     6
100
AcDbVertex
100
AcDb2dVertex
 10
2464.737810029162
 20
1364.269180718793
 30
0.0
  0
VERTEX
  5
3A6
330
385
100
AcDbEntity
  8
化粧台
  6
EXLTYPE2
 62
     6
100
AcDbVertex
100
AcDb2dVertex
 10
2464.207119087065
 20
1365.506776859536
 30
0.0
  0
VERTEX
  5
3A7
330
385
100
AcDbEntity
  8
化粧台
  6
EXLTYPE2
 62
     6
100
AcDbVertex
100
AcDb2dVertex
 10
2463.699999999999
 20
1366.84285714286
 30
0.0
  0
VERTEX
  5
3A8
330
385
100
AcDbEntity
  8
化粧台
  6
EXLTYPE2
 62
     6
100
AcDbVertex
100
AcDb2dVertex
 10
2463.417254979357
 20
1367.680413485818
 30
0.0
  0
VERTEX
  5
3A9
330
385
100
AcDbEntity
  8
化粧台
  6
EXLTYPE2
 62
     6
100
AcDbVertex
100
AcDb2dVertex
 10
2463.150523314492
 20
1368.535764534153
 30
0.0
  0
VERTEX
  5
3AA
330
385
100
AcDbEntity
  8
化粧台
  6
EXLTYPE2
 62
     6
100
AcDbVertex
100
AcDb2dVertex
 10
2462.902104766977
 20
1369.38835375109
 30
0.0
  0
VERTEX
  5
3AB
330
385
100
AcDbEntity
  8
化粧台
  6
EXLTYPE2
 62
     6
100
AcDbVertex
100
AcDb2dVertex
 10
2462.674299098383
 20
1370.217624599849
 30
0.0
  0
VERTEX
  5
3AC
330
385
100
AcDbEntity
  8
化粧台
  6
EXLTYPE2
 62
     6
100
AcDbVertex
100
AcDb2dVertex
 10
2462.46940607028
 20
1371.003020543654
 30
0.0
  0
VERTEX
  5
3AD
330
385
100
AcDbEntity
  8
化粧台
  6
EXLTYPE2
 62
     6
100
AcDbVertex
100
AcDb2dVertex
 10
2462.289725444241
 20
1371.723985045725
 30
0.0
  0
VERTEX
  5
3AE
330
385
100
AcDbEntity
  8
化粧台
  6
EXLTYPE2
 62
     6
100
AcDbVertex
100
AcDb2dVertex
 10
2462.137556981837
 20
1372.359961569286
 30
0.0
  0
VERTEX
  5
3AF
330
385
100
AcDbEntity
  8
化粧台
  6
EXLTYPE2
 62
     6
100
AcDbVertex
100
AcDb2dVertex
 10
2462.01520044464
 20
1372.890393577557
 30
0.0
  0
VERTEX
  5
3B0
330
385
100
AcDbEntity
  8
化粧台
  6
EXLTYPE2
 62
     6
100
AcDbVertex
100
AcDb2dVertex
 10
2461.92495559422
 20
1373.294724533763
 30
0.0
  0
VERTEX
  5
3B1
330
385
100
AcDbEntity
  8
化粧台
  6
EXLTYPE2
 62
     6
100
AcDbVertex
100
AcDb2dVertex
 10
2461.869122192149
 20
1373.552397901123
 30
0.0
  0
VERTEX
  5
3B2
330
385
100
AcDbEntity
  8
化粧台
  6
EXLTYPE2
 62
     6
100
AcDbVertex
100
AcDb2dVertex
 10
2461.849999999999
 20
1373.64285714286
 30
0.0
  0
SEQEND
  5
3B3
330
385
100
AcDbEntity
  8
化粧台
  6
EXLTYPE2
 62
     6
  0
LINE
  5
3B4
330
1F
100
AcDbEntity
  8
化粧台
  6
EXLTYPE2
 62
     6
100
AcDbLine
 10
2457.999999999996
 20
1341.64285714286
 30
0.0
 11
2492.999999999996
 21
1341.64285714286
 31
0.0
  0
LINE
  5
3B5
330
1F
100
AcDbEntity
  8
化粧台
  6
EXLTYPE2
 62
     6
100
AcDbLine
 10
2457.999999999982
 20
1341.642857142877
 30
0.0
 11
2456.5
 21
1340.142857142894
 31
0.0
  0
LINE
  5
3B6
330
1F
100
AcDbEntity
  8
化粧台
  6
EXLTYPE2
 62
     6
100
AcDbLine
 10
2493.000000000015
 20
1341.642857142877
 30
0.0
 11
2494.499999999998
 21
1340.142857142894
 31
0.0
  0
LINE
  5
3B7
330
1F
100
AcDbEntity
  8
化粧台
  6
EXLTYPE2
 62
     6
100
AcDbLine
 10
2456.5
 20
1340.14285714289
 30
0.0
 11
2494.499999999998
 21
1340.14285714289
 31
0.0
  0
LINE
  5
3B8
330
1F
100
AcDbEntity
  8
化粧台
  6
EXLTYPE2
 62
     6
100
AcDbLine
 10
2457.999999999996
 20
1342.64285714286
 30
0.0
 11
2458.000000000002
 21
1341.64285714286
 31
0.0
  0
LINE
  5
3B9
330
1F
100
AcDbEntity
  8
化粧台
  6
EXLTYPE2
 62
     6
100
AcDbLine
 10
2492.999999999996
 20
1342.64285714286
 30
0.0
 11
2492.999999999996
 21
1341.64285714289
 31
0.0
  0
LINE
  5
3BA
330
1F
100
AcDbEntity
  8
化粧台
  6
EXLTYPE2
 62
     6
100
AcDbLine
 10
2431.5
 20
1444.89285714286
 30
0.0
 11
2431.5
 21
1411.64285714286
 31
0.0
  0
LINE
  5
3BB
330
1F
100
AcDbEntity
  8
化粧台
  6
EXLTYPE2
 62
     6
100
AcDbLine
 10
2431.499999999996
 20
1444.892857142859
 30
0.0
 11
2430.749999999998
 21
1445.642857142858
 31
0.0
  0
LINE
  5
3BC
330
1F
100
AcDbEntity
  8
化粧台
  6
EXLTYPE2
 62
     6
100
AcDbLine
 10
2430.749999999998
 20
1446.64285714287
 30
0.0
 11
2430.749999999998
 21
1445.64285714286
 31
0.0
  0
LINE
  5
3BD
330
1F
100
AcDbEntity
  8
化粧台
  6
EXLTYPE2
 62
     6
100
AcDbLine
 10
2482.5
 20
1396.892857142869
 30
0.0
 11
2519.499999999998
 21
1396.892857142869
 31
0.0
  0
LINE
  5
3BE
330
1F
100
AcDbEntity
  8
化粧台
  6
EXLTYPE2
 62
     6
100
AcDbLine
 10
2482.499999999998
 20
1396.892857142869
 30
0.0
 11
2481.749999999996
 21
1397.642857142868
 31
0.0
  0
LINE
  5
3BF
330
1F
100
AcDbEntity
  8
化粧台
  6
EXLTYPE2
 62
     6
100
AcDbLine
 10
2481.749999999996
 20
1398.64285714288
 30
0.0
 11
2481.749999999996
 21
1397.64285714287
 31
0.0
  0
LINE
  5
3C0
330
1F
100
AcDbEntity
  8
化粧台
  6
EXLTYPE2
 62
     6
100
AcDbLine
 10
2519.5
 20
1396.892857142869
 30
0.0
 11
2520.25
 21
1397.642857142868
 31
0.0
  0
LINE
  5
3C1
330
1F
100
AcDbEntity
  8
化粧台
  6
EXLTYPE2
 62
     6
100
AcDbLine
 10
2520.25
 20
1398.64285714288
 30
0.0
 11
2520.25
 21
1397.64285714287
 31
0.0
  0
LINE
  5
3C2
330
1F
100
AcDbEntity
  8
化粧台
  6
EXLTYPE2
 62
     6
100
AcDbLine
 10
2481.749999999996
 20
1397.64285714287
 30
0.0
 11
2520.25
 21
1397.64285714287
 31
0.0
  0
LINE
  5
3C3
330
1F
100
AcDbEntity
  8
化粧台
  6
EXLTYPE2
 62
     6
100
AcDbLine
 10
2520.25
 20
1398.64285714288
 30
0.0
 11
2481.749999999996
 21
1398.64285714288
 31
0.0
  0
LINE
  5
3C4
330
1F
100
AcDbEntity
  8
化粧台
  6
EXLTYPE2
 62
     6
100
AcDbLine
 10
2482.5
 20
1396.89285714287
 30
0.0
 11
2482.5
 21
1373.64285714286
 31
0.0
  0
LINE
  5
3C5
330
1F
100
AcDbEntity
  8
化粧台
  6
EXLTYPE2
 62
     6
100
AcDbLine
 10
2519.499999999998
 20
1396.89285714287
 30
0.0
 11
2519.499999999998
 21
1368.64285714286
 31
0.0
  0
LINE
  5
3C6
330
1F
100
AcDbEntity
  8
化粧台
  6
EXLTYPE2
 62
     6
100
AcDbLine
 10
2498.499999999998
 20
1323.64285714286
 30
0.0
 11
2498.499999999998
 21
1338.64285714286
 31
0.0
  0
LINE
  5
3C7
330
1F
100
AcDbEntity
  8
化粧台
  6
EXLTYPE2
 62
     6
100
AcDbLine
 10
2452.5
 20
1323.64285714286
 30
0.0
 11
2452.5
 21
1338.64285714286
 31
0.0
  0
ARC
  5
3C8
330
1F
100
AcDbEntity
  8
化粧台
  6
EXLTYPE2
 62
     6
100
AcDbCircle
 10
2454.0
 20
1323.64285714286
 30
0.0
 40
1.5
100
AcDbArc
 50
180.0
 51
270.0000000000002
  0
ARC
  5
3C9
330
1F
100
AcDbEntity
  8
化粧台
  6
EXLTYPE2
 62
     6
100
AcDbCircle
 10
2496.999999999998
 20
1323.64285714286
 30
0.0
 40
1.5
100
AcDbArc
 50
270.0000000000002
 51
0.0
  0
LINE
  5
3CA
330
1F
100
AcDbEntity
  8
化粧台
  6
EXLTYPE2
 62
     6
100
AcDbLine
 10
2454.646341462998
 20
1322.14285714286
 30
0.0
 11
2454.646341462998
 21
1338.64285714286
 31
0.0
  0
LINE
  5
3CB
330
1F
100
AcDbEntity
  8
化粧台
  6
EXLTYPE2
 62
     6
100
AcDbLine
 10
2496.353658536998
 20
1322.14285714286
 30
0.0
 11
2496.353658536998
 21
1338.64285714286
 31
0.0
  0
LINE
  5
3CC
330
1F
100
AcDbEntity
  8
化粧台
  6
EXLTYPE2
 62
     6
100
AcDbLine
 10
2467.216461245998
 20
1323.64285714286
 30
0.0
 11
2467.216461245998
 21
1338.64285714286
 31
0.0
  0
LINE
  5
3CD
330
1F
100
AcDbEntity
  8
化粧台
  6
EXLTYPE2
 62
     6
100
AcDbLine
 10
2483.783538754
 20
1323.64285714286
 30
0.0
 11
2483.783538754
 21
1338.64285714286
 31
0.0
  0
LINE
  5
3CE
330
1F
100
AcDbEntity
  8
化粧台
  6
EXLTYPE2
 62
     6
100
AcDbLine
 10
2462.75
 20
1338.64285714286
 30
0.0
 11
2462.75
 21
1323.64285714286
 31
0.0
  0
LINE
  5
3CF
330
1F
100
AcDbEntity
  8
化粧台
  6
EXLTYPE2
 62
     6
100
AcDbLine
 10
2488.249999999998
 20
1338.64285714286
 30
0.0
 11
2488.249999999998
 21
1323.64285714286
 31
0.0
  0
ARC
  5
3D0
330
1F
100
AcDbEntity
  8
化粧台
  6
EXLTYPE2
 62
     6
100
AcDbCircle
 10
2464.249999999996
 20
1323.64285714286
 30
0.0
 40
1.5
100
AcDbArc
 50
180.0
 51
270.0000000000002
  0
ARC
  5
3D1
330
1F
100
AcDbEntity
  8
化粧台
  6
EXLTYPE2
 62
     6
100
AcDbCircle
 10
2465.716461245996
 20
1323.64285714286
 30
0.0
 40
1.5
100
AcDbArc
 50
270.0000000000002
 51
0.0
  0
ARC
  5
3D2
330
1F
100
AcDbEntity
  8
化粧台
  6
EXLTYPE2
 62
     6
100
AcDbCircle
 10
2485.283538753996
 20
1323.64285714286
 30
0.0
 40
1.5
100
AcDbArc
 50
180.0
 51
270.0000000000002
  0
ARC
  5
3D3
330
1F
100
AcDbEntity
  8
化粧台
  6
EXLTYPE2
 62
     6
100
AcDbCircle
 10
2486.749999999996
 20
1323.64285714286
 30
0.0
 40
1.5
100
AcDbArc
 50
270.0000000000002
 51
0.0
  0
LINE
  5
3D4
330
1F
100
AcDbEntity
  8
化粧台
  6
EXLTYPE2
 62
     6
100
AcDbLine
 10
2456.5
 20
1338.64285714286
 30
0.0
 11
2456.5
 21
1340.14285714289
 31
0.0
  0
LINE
  5
3D5
330
1F
100
AcDbEntity
  8
化粧台
  6
EXLTYPE2
 62
     6
100
AcDbLine
 10
2494.499999999998
 20
1338.64285714286
 30
0.0
 11
2494.499999999998
 21
1340.14285714289
 31
0.0
  0
LINE
  5
3D6
330
1F
100
AcDbEntity
  8
化粧台
  6
EXLTYPE2
 62
     6
100
AcDbLine
 10
2458.000000000002
 20
1341.64285714286
 30
0.0
 11
2458.0
 21
1338.64285714286
 31
0.0
  0
LINE
  5
3D7
330
1F
100
AcDbEntity
  8
化粧台
  6
EXLTYPE2
 62
     6
100
AcDbLine
 10
2492.999999999996
 20
1341.64285714289
 30
0.0
 11
2492.999999999996
 21
1338.64285714286
 31
0.0
  0
LINE
  5
3D8
330
1F
100
AcDbEntity
  8
化粧台
  6
EXLTYPE2
 62
     6
100
AcDbLine
 10
2426.599999999999
 20
1464.0
 30
0.0
 11
2426.599999999999
 21
1448.0
 31
0.0
  0
ARC
  5
3D9
330
1F
100
AcDbEntity
  8
化粧台
  6
EXLTYPE2
 62
     6
100
AcDbCircle
 10
2428.599999999999
 20
1464.0
 30
0.0
 40
2.0
100
AcDbArc
 50
90.00000000000001
 51
180.0
  0
ARC
  5
3DA
330
1F
100
AcDbEntity
  8
化粧台
  6
EXLTYPE2
 62
     6
100
AcDbCircle
 10
2429.735005551
 20
1462.542935048
 30
0.0
 40
3.4570649519
100
AcDbArc
 50
24.92771808767458
 51
90.00000000000001
  0
LINE
  5
3DB
330
1F
100
AcDbEntity
  8
化粧台
  6
EXLTYPE2
 62
     6
100
AcDbLine
 10
2477.599999999999
 20
1400.00000000001
 30
0.0
 11
2524.4
 21
1400.00000000001
 31
0.0
  0
LINE
  5
3DC
330
1F
100
AcDbEntity
  8
化粧台
  6
EXLTYPE2
 62
     6
100
AcDbLine
 10
2479.599999999999
 20
1418.00000000001
 30
0.0
 11
2522.399999999998
 21
1418.00000000001
 31
0.0
  0
LINE
  5
3DD
330
1F
100
AcDbEntity
  8
化粧台
  6
EXLTYPE2
 62
     6
100
AcDbLine
 10
2477.599999999999
 20
1416.00000000001
 30
0.0
 11
2477.599999999999
 21
1400.00000000001
 31
0.0
  0
LINE
  5
3DE
330
1F
100
AcDbEntity
  8
化粧台
  6
EXLTYPE2
 62
     6
100
AcDbLine
 10
2524.4
 20
1416.00000000001
 30
0.0
 11
2524.4
 21
1400.00000000001
 31
0.0
  0
ARC
  5
3DF
330
1F
100
AcDbEntity
  8
化粧台
  6
EXLTYPE2
 62
     6
100
AcDbCircle
 10
2479.599999999999
 20
1416.00000000001
 30
0.0
 40
2.0
100
AcDbArc
 50
90.00000000000001
 51
180.0
  0
ARC
  5
3E0
330
1F
100
AcDbEntity
  8
化粧台
  6
EXLTYPE2
 62
     6
100
AcDbCircle
 10
2522.399999999998
 20
1416.00000000001
 30
0.0
 40
2.0
100
AcDbArc
 50
0.0
 51
90.00000000000001
  0
LINE
  5
3E1
330
1F
100
AcDbEntity
  8
化粧台
  6
EXLTYPE2
 62
     6
100
AcDbLine
 10
2483.870011102998
 20
1416.00000000001
 30
0.0
 11
2483.870011102998
 21
1400.00000000001
 31
0.0
  0
LINE
  5
3E2
330
1F
100
AcDbEntity
  8
化粧台
  6
EXLTYPE2
 62
     6
100
AcDbLine
 10
2494.729988896999
 20
1416.00000000001
 30
0.0
 11
2494.729988896999
 21
1400.00000000001
 31
0.0
  0
LINE
  5
3E3
330
1F
100
AcDbEntity
  8
化粧台
  6
EXLTYPE2
 62
     6
100
AcDbLine
 10
2507.270011102999
 20
1416.00000000001
 30
0.0
 11
2507.270011102999
 21
1400.00000000001
 31
0.0
  0
LINE
  5
3E4
330
1F
100
AcDbEntity
  8
化粧台
  6
EXLTYPE2
 62
     6
100
AcDbLine
 10
2518.129988896999
 20
1416.00000000001
 30
0.0
 11
2518.129988896999
 21
1400.00000000001
 31
0.0
  0
ARC
  5
3E5
330
1F
100
AcDbEntity
  8
化粧台
  6
EXLTYPE2
 62
     6
100
AcDbCircle
 10
2480.735005551
 20
1414.54293504801
 30
0.0
 40
3.4570649519
100
AcDbArc
 50
24.92771808767544
 51
90.00000000000001
  0
ARC
  5
3E6
330
1F
100
AcDbEntity
  8
化粧台
  6
EXLTYPE2
 62
     6
100
AcDbCircle
 10
2489.299999999999
 20
1409.62880514401
 30
0.0
 40
8.37119485569
100
AcDbArc
 50
49.5599850853871
 51
130.4400149146048
  0
ARC
  5
3E7
330
1F
100
AcDbEntity
  8
化粧台
  6
EXLTYPE2
 62
     6
100
AcDbCircle
 10
2500.999999999998
 20
1407.17174019201
 30
0.0
 40
10.82825980759
100
AcDbArc
 50
54.61684947401581
 51
125.3831505260017
  0
ARC
  5
3E8
330
1F
100
AcDbEntity
  8
化粧台
  6
EXLTYPE2
 62
     6
100
AcDbCircle
 10
2512.699999999999
 20
1409.62880514401
 30
0.0
 40
8.37119485569
100
AcDbArc
 50
49.55998508538246
 51
130.4400149146007
  0
ARC
  5
3E9
330
1F
100
AcDbEntity
  8
化粧台
  6
EXLTYPE2
 62
     6
100
AcDbCircle
 10
2521.264994449
 20
1414.54293504801
 30
0.0
 40
3.4570649519
100
AcDbArc
 50
90.00000000000001
 51
155.0722819122934
  0
LINE
  5
3EA
330
1F
100
AcDbEntity
  8
化粧台
  6
EXLTYPE2
 62
     6
100
AcDbLine
 10
2430.75
 20
1446.642857142863
 30
0.0
 11
2429.392857142881
 21
1447.999999999982
 31
0.0
  0
LINE
  5
3EB
330
1F
100
AcDbEntity
  8
化粧台
  6
EXLTYPE2
 62
     6
100
AcDbLine
 10
2430.499999999996
 20
1448.0
 30
0.0
 11
2430.499999999996
 21
1446.89285714287
 31
0.0
  0
LINE
  5
3EC
330
1F
100
AcDbEntity
  8
化粧台
  6
EXLTYPE2
 62
     6
100
AcDbLine
 10
2481.750000000002
 20
1398.642857142873
 30
0.0
 11
2480.392857142864
 21
1400.00000000001
 31
0.0
  0
LINE
  5
3ED
330
1F
100
AcDbEntity
  8
化粧台
  6
EXLTYPE2
 62
     6
100
AcDbLine
 10
2481.5
 20
1400.00000000001
 30
0.0
 11
2481.5
 21
1398.89285714288
 31
0.0
  0
LINE
  5
3EE
330
1F
100
AcDbEntity
  8
化粧台
  6
EXLTYPE2
 62
     6
100
AcDbLine
 10
2520.5
 20
1400.00000000001
 30
0.0
 11
2520.5
 21
1398.89285714288
 31
0.0
  0
LINE
  5
3EF
330
1F
100
AcDbEntity
  8
化粧台
  6
EXLTYPE2
 62
     6
100
AcDbLine
 10
2520.249999999996
 20
1398.642857142873
 30
0.0
 11
2521.607142857134
 21
1400.00000000001
 31
0.0
  0
LINE
  5
3F0
330
1F
100
AcDbEntity
  8
化粧台
  6
EXLTYPE2
 62
     6
100
AcDbLine
 10
2485.0
 20
1431.64285714287
 30
0.0
 11
2485.0
 21
1418.0
 31
0.0
  0
LINE
  5
3F1
330
1F
100
AcDbEntity
  8
化粧台
  6
EXLTYPE2
 62
     6
100
AcDbLine
 10
2516.999999999998
 20
1431.64285714287
 30
0.0
 11
2516.999999999998
 21
1418.0
 31
0.0
  0
LINE
  5
3F2
330
1F
100
AcDbEntity
  8
化粧台
  6
EXLTYPE2
 62
     6
100
AcDbLine
 10
2432.870011102998
 20
1464.0
 30
0.0
 11
2432.870011102998
 21
1457.25
 31
0.0
  0
ARC
  5
3F3
330
1F
100
AcDbEntity
  8
化粧台
  6
EXLTYPE2
 62
     6
100
AcDbCircle
 10
2438.299999999999
 20
1457.628805144
 30
0.0
 40
8.37119485569
100
AcDbArc
 50
59.44172736168336
 51
130.4400149146048
  0
LINE
  5
3F4
330
1F
100
AcDbEntity
  8
化粧台
  6
EXLTYPE2
 62
     6
100
AcDbLine
 10
2426.599999999999
 20
1448.0
 30
0.0
 11
2437.6
 21
1448.0
 31
0.0
  0
LINE
  5
3F5
330
1F
100
AcDbEntity
  8
化粧台
  6
EXLTYPE2
 62
     6
100
AcDbLine
 10
2437.990115628422
 20
1446.64285714287
 30
0.0
 11
2430.749999999998
 21
1446.64285714287
 31
0.0
  0
LINE
  5
3F6
330
1F
100
AcDbEntity
  8
化粧台
  6
EXLTYPE2
 62
     6
100
AcDbLine
 10
2430.749999999998
 20
1445.64285714286
 30
0.0
 11
2438.690323166639
 21
1445.64285714286
 31
0.0
  0
LINE
  5
3F7
330
1F
100
AcDbEntity
  8
化粧台
  6
EXLTYPE2
 62
     6
100
AcDbLine
 10
2431.5
 20
1444.892857142859
 30
0.0
 11
2439.215478820297
 21
1444.892857142859
 31
0.0
  0
LINE
  5
3F8
330
1F
100
AcDbEntity
  8
化粧台
  6
EXLTYPE2
 62
     6
100
AcDbLine
 10
2453.449489742783
 20
1466.0
 30
0.0
 11
2428.6
 21
1466.0
 31
0.0
  0
ARC
  5
3F9
330
1F
100
AcDbEntity
  8
化粧台
  6
EXLTYPE2
 62
     6
100
AcDbCircle
 10
2450.0
 20
1455.171740192
 30
0.0
 40
10.82825980759
100
AcDbArc
 50
74.20882919106016
 51
92.56099158295004
  0
LINE
  5
3FA
330
1F
100
AcDbEntity
  8
化粧台
  6
EXLTYPE2
 62
     6
100
AcDbLine
 10
2428.599999999999
 20
1466.0
 30
0.0
 11
2453.449489742783
 21
1466.0
 31
0.0
  0
LINE
  5
3FB
330
1F
100
AcDbEntity
  8
化粧台
  6
EXLTYPE2
 62
     6
100
AcDbLine
 10
2468.499999999998
 20
1440.0
 30
0.0
 11
2468.499999999998
 21
1411.64285714286
 31
0.0
  0
ARC
  5
3FC
330
1F
100
AcDbEntity
  8
化粧台
  6
EXLTYPE2
 62
     6
100
AcDbCircle
 10
2433.999999999992
 20
1497.0
 30
0.0
 40
32.0
100
AcDbArc
 50
62.04681311660233
 51
90.00000000000001
  0
ARC
  5
3FD
330
1F
100
AcDbEntity
  8
化粧台
  6
EXLTYPE2
 62
     6
100
AcDbCircle
 10
2530.999999999998
 20
1431.64285714287
 30
0.0
 40
46.00000000000004
100
AcDbArc
 50
171.6743059513909
 51
180.0
  0
ARC
  5
3FE
330
1F
100
AcDbEntity
  8
化粧台
  6
EXLTYPE2
 62
     6
100
AcDbCircle
 10
2530.999999999998
 20
1431.64285714287
 30
0.0
 40
46.00000000000004
100
AcDbArc
 50
145.6988472432056
 51
153.0369273045596
  0
LINE
  5
3FF
330
1F
100
AcDbEntity
  8
化粧台
  6
EXLTYPE2
 62
     6
100
AcDbLine
 10
2493.0
 20
1464.75
 30
0.0
 11
2493.0
 21
1457.565819936503
 31
0.0
  0
LINE
  5
400
330
1F
100
AcDbEntity
  8
化粧台
  6
EXLTYPE2
 62
     6
100
AcDbLine
 10
2493.0
 20
1452.5
 30
0.0
 11
2493.0
 21
1440.25
 31
0.0
  0
LINE
  5
401
330
1F
100
AcDbEntity
  8
化粧台
  6
EXLTYPE3
 62
     6
100
AcDbLine
 10
2510.25
 20
1462.5
 30
0.0
 11
2592.0
 21
1462.5
 31
0.0
  0
ARC
  5
402
330
1F
100
AcDbEntity
  8
化粧台
  6
EXLTYPE2
 62
     6
100
AcDbCircle
 10
2530.999999999998
 20
1432.49999999997
 30
0.0
 40
14.00000000000002
100
AcDbArc
 50
132.2859661513005
 51
180.0
  0
LINE
  5
403
330
1F
100
AcDbEntity
  8
化粧台
  6
EXLTYPE2
 62
     6
100
AcDbLine
 10
2579.999999999998
 20
1446.49999999997
 30
0.0
 11
2558.0
 21
1446.49999999997
 31
0.0
  0
LINE
  5
404
330
1F
100
AcDbEntity
  8
化粧台
  6
EXLTYPE2
 62
     6
100
AcDbLine
 10
2579.999999999998
 20
1478.49999999997
 30
0.0
 11
2579.999999999998
 21
1446.49999999997
 31
0.0
  0
LINE
  5
405
330
1F
100
AcDbEntity
  8
化粧台
  6
EXLTYPE2
 62
     6
100
AcDbLine
 10
2579.999999999998
 20
1478.49999999997
 30
0.0
 11
2530.999999999998
 21
1478.49999999997
 31
0.0
  0
ARC
  5
406
330
1F
100
AcDbEntity
  8
化粧台
  6
EXLTYPE2
 62
     6
100
AcDbCircle
 10
2530.999999999998
 20
1432.49999999997
 30
0.0
 40
46.00000000000004
100
AcDbArc
 50
90.00000000000001
 51
137.025169405615
  0
LINE
  5
407
330
1F
100
AcDbEntity
  8
化粧台
  6
EXLTYPE3
 62
     6
100
AcDbLine
 10
1120.0
 20
1432.5
 30
0.0
 11
1120.0
 21
1489.35
 31
0.0
  0
LINE
  5
408
330
1F
100
AcDbEntity
  8
化粧台
  6
EXLTYPE3
 62
     6
100
AcDbLine
 10
1150.15
 20
1462.5
 30
0.0
 11
1093.3
 21
1462.5
 31
0.0
  0
DIMENSION
  5
409
330
1F
100
AcDbEntity
  8
化粧台
  6
CONTINUOUS
 62
     3
100
AcDbDimension
  2
*D17
 10
1085.0
 20
799.5
 30
0.0
 11
569.0
 21
825.749999910593
 31
0.0
 70
   160
  1
330（床給水）
  3
ISO-25
100
AcDbAlignedDimension
 13
755.0
 23
1024.5
 33
0.0
 14
1085.0
 24
1024.5
 34
0.0
100
AcDbRotatedDimension
1001
ACAD
1000
DSTYLE
1002
{
1070
   270
1070
     2
1070
     6
1000
EX_NORM
1070
     7
1000
EX_NORM
1070
    41
1040
44.99999618530273
1070
    42
1040
10.49999982118607
1070
    44
1040
15.0
1070
    73
1070
     0
1070
    74
1070
     0
1070
    75
1070
     0
1070
    76
1070
     0
1070
    77
1070
     1
1070
    78
1070
     0
1070
   140
1040
59.99999618530273
1070
   147
1040
0.0
1070
   173
1070
     1
1070
   176
1070
     3
1070
   177
1070
     3
1070
   178
1070
     2
1070
   271
1070
     0
1070
   277
1070
     2
1070
   279
1070
     2
1070
   280
1070
     0
1070
   287
1070
     5
1070
   340
1005
E7
1002
}
  0
DIMENSION
  5
416
330
1F
100
AcDbEntity
  8
化粧台
  6
CONTINUOUS
 62
     3
100
AcDbDimension
  2
*D18
 10
1160.0
 20
630.0
 30
0.0
 11
687.5000000000001
 21
665.249999910593
 31
0.0
 70
   160
  1
240（床排水）
  3
ISO-25
100
AcDbAlignedDimension
 13
920.0
 23
1032.5
 33
0.0
 14
1160.0
 24
968.0000000000002
 34
0.0
100
AcDbRotatedDimension
1001
ACAD
1000
DSTYLE
1002
{
1070
   270
1070
     2
1070
     6
1000
EX_NORM
1070
     7
1000
EX_NORM
1070
    41
1040
44.99999618530273
1070
    42
1040
10.49999982118618
1070
    44
1040
15.0
1070
    73
1070
     0
1070
    74
1070
     0
1070
    75
1070
     0
1070
    76
1070
     0
1070
    77
1070
     1
1070
    78
1070
     8
1070
   140
1040
59.99999618530273
1070
   147
1040
0.0
1070
   173
1070
     1
1070
   176
1070
     3
1070
   177
1070
     3
1070
   178
1070
     2
1070
   271
1070
     2
1070
   277
1070
     2
1070
   279
1070
     2
1070
   280
1070
     1
1070
   287
1070
     5
1070
   340
1005
E7
1002
}
  0
LEADER
  5
423
330
1F
100
AcDbEntity
  8
化粧台
  6
CONTINUOUS
 62
     3
100
AcDbLeader
  3
ISO-25
 76
     3
 10
1175.849999999999
 20
1032.5
 30
0.0
 10
1314.0
 20
829.5000000000001
 30
0.0
 10
1744.5
 20
829.5000000000001
 30
0.0
1001
ACAD
1000
DSTYLE
1002
{
1070
     5
1000
EX_NORM
1070
    41
1040
45.0
1070
   341
1005
4D
1002
}
  0
TEXT
  5
424
330
1F
100
AcDbEntity
  8
化粧台
  6
CONTINUOUS
 62
     2
100
AcDbText
 10
1321.5
 20
894.7499960958959
 30
0.0
 40
59.99999618530273
  1
ＶＰ･ＶＵ４０･５０
 41
0.8542372745578565
  7
EXCADSTD
 72
     5
 11
1753.499965667724
 21
894.7499960958959
 31
0.0
100
AcDbText
  0
TEXT
  5
425
330
1F
100
AcDbEntity
  8
化粧台
  6
CONTINUOUS
 62
     2
100
AcDbText
 10
1321.5
 20
834.7499999105931
 30
0.0
 40
59.99999618530273
  1
４０～５０㎜立上げ
 41
0.9773584771306252
  7
EXCADSTD
 72
     5
 11
1765.499965667724
 21
834.7499999105931
 31
0.0
100
AcDbText
  0
LINE
  5
426
330
1F
100
AcDbEntity
  8
化粧台
  6
EXLTYPE3
 62
     6
100
AcDbLine
 10
2450.0
 20
953.0000000000001
 30
0.0
 11
2450.0
 21
1210.0
 31
0.0
  0
LINE
  5
427
330
1F
100
AcDbEntity
  8
化粧台
  6
EXLTYPE2
 62
     6
100
AcDbLine
 10
2427.200000000001
 20
1094.700000000001
 30
0.0
 11
2472.800000000001
 21
1094.700000000001
 31
0.0
  0
LINE
  5
428
330
1F
100
AcDbEntity
  8
化粧台
  6
EXLTYPE2
 62
     6
100
AcDbLine
 10
2427.200000000001
 20
1112.500000000001
 30
0.0
 11
2472.800000000001
 21
1112.500000000001
 31
0.0
  0
LINE
  5
429
330
1F
100
AcDbEntity
  8
化粧台
  6
EXLTYPE2
 62
     6
100
AcDbLine
 10
2472.800000000001
 20
1112.500000000001
 30
0.0
 11
2472.800000000001
 21
1094.700000000001
 31
0.0
  0
LINE
  5
42A
330
1F
100
AcDbEntity
  8
化粧台
  6
EXLTYPE2
 62
     6
100
AcDbLine
 10
2427.200000000001
 20
1112.500000000001
 30
0.0
 11
2427.200000000001
 21
1094.700000000001
 31
0.0
  0
LINE
  5
42B
330
1F
100
AcDbEntity
  8
化粧台
  6
EXLTYPE2
 62
     6
100
AcDbLine
 10
2416.500000000001
 20
1054.500000000001
 30
0.0
 11
2483.500000000003
 21
1054.500000000001
 31
0.0
  0
LINE
  5
42C
330
1F
100
AcDbEntity
  8
化粧台
  6
EXLTYPE2
 62
     6
100
AcDbLine
 10
2429.300000000002
 20
1094.700000000001
 30
0.0
 11
2429.300000000002
 21
1092.500000000001
 31
0.0
  0
LINE
  5
42D
330
1F
100
AcDbEntity
  8
化粧台
  6
EXLTYPE2
 62
     6
100
AcDbLine
 10
2470.700000000002
 20
1094.700000000001
 30
0.0
 11
2470.700000000002
 21
1092.500000000001
 31
0.0
  0
LINE
  5
42E
330
1F
100
AcDbEntity
  8
化粧台
  6
EXLTYPE2
 62
     6
100
AcDbLine
 10
2483.500000000003
 20
1074.500000000001
 30
0.0
 11
2483.500000000003
 21
1054.500000000001
 31
0.0
  0
ARC
  5
42F
330
1F
100
AcDbEntity
  8
化粧台
  6
EXLTYPE2
 62
     6
100
AcDbCircle
 10
2480.500000000003
 20
1074.500000000001
 30
0.0
 40
3.000000000000003
100
AcDbArc
 50
0.0
 51
90.00000000000001
  0
LINE
  5
430
330
1F
100
AcDbEntity
  8
化粧台
  6
EXLTYPE2
 62
     6
100
AcDbLine
 10
2477.000000000003
 20
1089.500000000001
 30
0.0
 11
2477.000000000003
 21
1077.500000000001
 31
0.0
  0
ARC
  5
431
330
1F
100
AcDbEntity
  8
化粧台
  6
EXLTYPE2
 62
     6
100
AcDbCircle
 10
2474.000000000003
 20
1089.500000000001
 30
0.0
 40
3.000000000000003
100
AcDbArc
 50
0.0
 51
90.00000000000001
  0
LINE
  5
432
330
1F
100
AcDbEntity
  8
化粧台
  6
EXLTYPE2
 62
     6
100
AcDbLine
 10
2423.000000000003
 20
1089.500000000001
 30
0.0
 11
2423.000000000003
 21
1077.500000000001
 31
0.0
  0
LINE
  5
433
330
1F
100
AcDbEntity
  8
化粧台
  6
EXLTYPE2
 62
     6
100
AcDbLine
 10
2426.000000000003
 20
1092.500000000001
 30
0.0
 11
2474.000000000003
 21
1092.500000000001
 31
0.0
  0
ARC
  5
434
330
1F
100
AcDbEntity
  8
化粧台
  6
EXLTYPE2
 62
     6
100
AcDbCircle
 10
2426.000000000003
 20
1089.500000000001
 30
0.0
 40
3.000000000000003
100
AcDbArc
 50
90.00000000000001
 51
180.0
  0
LINE
  5
435
330
1F
100
AcDbEntity
  8
化粧台
  6
EXLTYPE2
 62
     6
100
AcDbLine
 10
2416.500000000001
 20
1074.500000000001
 30
0.0
 11
2416.500000000001
 21
1054.500000000001
 31
0.0
  0
LINE
  5
436
330
1F
100
AcDbEntity
  8
化粧台
  6
EXLTYPE2
 62
     6
100
AcDbLine
 10
2419.500000000002
 20
1077.500000000001
 30
0.0
 11
2480.500000000003
 21
1077.500000000001
 31
0.0
  0
ARC
  5
437
330
1F
100
AcDbEntity
  8
化粧台
  6
EXLTYPE2
 62
     6
100
AcDbCircle
 10
2419.500000000002
 20
1074.500000000001
 30
0.0
 40
3.000000000000003
100
AcDbArc
 50
90.00000000000001
 51
180.0
  0
LINE
  5
438
330
1F
100
AcDbEntity
  8
化粧台
  6
EXLTYPE2
 62
     6
100
AcDbLine
 10
2439.399287694301
 20
1110.500000000001
 30
0.0
 11
2439.399287694301
 21
1094.700000000001
 31
0.0
  0
LINE
  5
439
330
1F
100
AcDbEntity
  8
化粧台
  6
EXLTYPE2
 62
     6
100
AcDbLine
 10
2442.191671113501
 20
1110.500000000001
 30
0.0
 11
2442.191671113501
 21
1094.700000000001
 31
0.0
  0
LINE
  5
43A
330
1F
100
AcDbEntity
  8
化粧台
  6
EXLTYPE2
 62
     6
100
AcDbLine
 10
2457.808328886501
 20
1110.500000000001
 30
0.0
 11
2457.808328886501
 21
1094.700000000001
 31
0.0
  0
LINE
  5
43B
330
1F
100
AcDbEntity
  8
化粧台
  6
EXLTYPE2
 62
     6
100
AcDbLine
 10
2460.6007123057
 20
1110.500000000001
 30
0.0
 11
2460.6007123057
 21
1094.700000000001
 31
0.0
  0
LINE
  5
43C
330
1F
100
AcDbEntity
  8
化粧台
  6
EXLTYPE2
 62
     6
100
AcDbLine
 10
2428.356643083601
 20
1110.5
 30
0.0
 11
2428.356643083601
 21
1094.700000000001
 31
0.0
  0
LINE
  5
43D
330
1F
100
AcDbEntity
  8
化粧台
  6
EXLTYPE2
 62
     6
100
AcDbLine
 10
2471.6433569164
 20
1110.500000000001
 30
0.0
 11
2471.6433569164
 21
1094.700000000001
 31
0.0
  0
LINE
  5
43E
330
1F
100
AcDbEntity
  8
化粧台
  6
EXLTYPE2
 62
     6
100
AcDbLine
 10
2439.0
 20
1172.5
 30
0.0
 11
2439.0
 21
1137.5
 31
0.0
  0
LINE
  5
43F
330
1F
100
AcDbEntity
  8
化粧台
  6
EXLTYPE4
 62
     6
100
AcDbLine
 10
2480.500000000001
 20
1232.5
 30
0.0
 11
2480.500000000001
 21
1024.5
 31
0.0
  0
LINE
  5
440
330
1F
100
AcDbEntity
  8
化粧台
  6
EXLTYPE4
 62
     6
100
AcDbLine
 10
2459.500000000001
 20
1232.5
 30
0.0
 11
2459.500000000001
 21
1024.5
 31
0.0
  0
LINE
  5
441
330
1F
100
AcDbEntity
  8
化粧台
  6
CONTINUOUS
 62
     6
100
AcDbLine
 10
2459.500000000001
 20
1024.5
 30
0.0
 11
2480.500000000001
 21
1024.5
 31
0.0
  0
LINE
  5
442
330
1F
100
AcDbEntity
  8
化粧台
  6
EXLTYPE3
 62
     6
100
AcDbLine
 10
2470.000000000001
 20
1242.5
 30
0.0
 11
2470.000000000001
 21
1014.5
 31
0.0
  0
LINE
  5
443
330
1F
100
AcDbEntity
  8
化粧台
  6
EXLTYPE2
 62
     6
100
AcDbLine
 10
2434.149999999998
 20
1408.99285714286
 30
0.0
 11
2434.149999999998
 21
1032.5
 31
0.0
  0
LINE
  5
444
330
1F
100
AcDbEntity
  8
化粧台
  6
EXLTYPE2
 62
     6
100
AcDbLine
 10
2465.849999999999
 20
1408.99285714286
 30
0.0
 11
2465.849999999999
 21
1032.5
 31
0.0
  0
DIMENSION
  5
445
330
1F
100
AcDbEntity
  8
化粧台
  6
CONTINUOUS
 62
     3
100
AcDbDimension
  2
*D19
 10
2470.0
 20
900.0
 30
0.0
 11
2768.999999463558
 21
937.4999999999993
 31
0.0
 70
   160
  1
80（床給水）
  3
ISO-25
100
AcDbAlignedDimension
 13
2550.0
 23
1032.5
 33
0.0
 14
2470.0
 24
1024.5
 34
0.0
100
AcDbRotatedDimension
1001
ACAD
1000
DSTYLE
1002
{
1070
   270
1070
     2
1070
     6
1000
EX_NORM
1070
     7
1000
EX_NORM
1070
    41
1040
44.99999618530273
1070
    42
1040
10.49999982118618
1070
    44
1040
15.0
1070
    73
1070
     0
1070
    74
1070
     0
1070
    75
1070
     0
1070
    76
1070
     0
1070
    77
1070
     1
1070
    78
1070
     8
1070
   140
1040
59.99999618530273
1070
   147
1040
0.0
1070
   173
1070
     1
1070
   176
1070
     3
1070
   177
1070
     3
1070
   178
1070
     2
1070
   271
1070
     1
1070
   277
1070
     2
1070
   279
1070
     2
1070
   280
1070
     1
1070
   287
1070
     5
1070
   340
1005
E7
1002
}
  0
DIMENSION
  5
454
330
1F
100
AcDbEntity
  8
化粧台
  6
CONTINUOUS
 62
     3
100
AcDbDimension
  2
*D20
 10
2550.0
 20
798.0
 30
0.0
 11
2792.999999374151
 21
835.5
 31
0.0
 70
   160
  1
100（床排水）
  3
ISO-25
100
AcDbAlignedDimension
 13
2450.0
 23
953.0
 33
0.0
 14
2550.0
 24
1032.5
 34
0.0
100
AcDbRotatedDimension
1001
ACAD
1000
DSTYLE
1002
{
1070
   270
1070
     2
1070
     6
1000
EX_NORM
1070
     7
1000
EX_NORM
1070
    41
1040
44.99999618530273
1070
    42
1040
10.49999982118607
1070
    44
1040
15.0
1070
    73
1070
     0
1070
    74
1070
     0
1070
    75
1070
     0
1070
    76
1070
     0
1070
    77
1070
     1
1070
    78
1070
     8
1070
   140
1040
59.99999618530273
1070
   147
1040
0.0
1070
   173
1070
     1
1070
   176
1070
     3
1070
   177
1070
     3
1070
   178
1070
     2
1070
   271
1070
     1
1070
   277
1070
     2
1070
   279
1070
     2
1070
   280
1070
     2
1070
   287
1070
     5
1070
   340
1005
E7
1002
}
  0
DIMENSION
  5
461
330
1F
100
AcDbEntity
  8
化粧台
  6
CONTINUOUS
 62
     3
100
AcDbDimension
  2
*D21
 10
2550.0
 20
699.0
 30
0.0
 11
2337.5
 21
736.5
 31
0.0
 70
   160
  3
ISO-25
100
AcDbAlignedDimension
 13
2125.0
 23
1032.5
 33
0.0
 14
2550.0
 24
1032.5
 34
0.0
100
AcDbRotatedDimension
1001
ACAD
1000
DSTYLE
1002
{
1070
   270
1070
     2
1070
     6
1000
EX_NORM
1070
     7
1000
EX_NORM
1070
    41
1040
44.99999618530273
1070
    42
1040
10.49999982118618
1070
    44
1040
15.0
1070
    73
1070
     0
1070
    74
1070
     0
1070
    75
1070
     0
1070
    76
1070
     0
1070
    77
1070
     1
1070
    78
1070
     8
1070
   140
1040
59.99999618530273
1070
   147
1040
0.0
1070
   173
1070
     1
1070
   176
1070
     3
1070
   177
1070
     3
1070
   178
1070
     2
1070
   271
1070
     1
1070
   277
1070
     2
1070
   279
1070
     2
1070
   280
1070
     0
1070
   287
1070
     5
1070
   340
1005
E7
1002
}
  0
LINE
  5
46E
330
1F
100
AcDbEntity
  8
化粧台
  6
EXLTYPE3
 62
     6
100
AcDbLine
 10
1084.999999999997
 20
1242.5
 30
0.0
 11
1084.999999999997
 21
1014.5
 31
0.0
  0
LINE
  5
46F
330
1F
100
AcDbEntity
  8
化粧台
  6
CONTINUOUS
 62
     6
100
AcDbLine
 10
1095.499999999997
 20
1024.5
 30
0.0
 11
1074.499999999997
 21
1024.5
 31
0.0
  0
LINE
  5
470
330
1F
100
AcDbEntity
  8
化粧台
  6
EXLTYPE3
 62
     6
100
AcDbLine
 10
755.0000000000018
 20
1242.5
 30
0.0
 11
755.0000000000018
 21
1014.5
 31
0.0
  0
LINE
  5
471
330
1F
100
AcDbEntity
  8
化粧台
  6
CONTINUOUS
 62
     6
100
AcDbLine
 10
744.5000000000018
 20
1024.5
 30
0.0
 11
765.5000000000018
 21
1024.5
 31
0.0
  0
LINE
  5
472
330
1F
100
AcDbEntity
  8
化粧台
  6
EXLTYPE2
 62
     6
100
AcDbLine
 10
1045.0
 20
1172.5
 30
0.0
 11
1045.0
 21
1137.5
 31
0.0
  0
LINE
  5
473
330
1F
100
AcDbEntity
  8
化粧台
  6
EXLTYPE2
 62
     6
100
AcDbLine
 10
795.0
 20
1172.5
 30
0.0
 11
795.0
 21
1137.5
 31
0.0
  0
LINE
  5
474
330
1F
100
AcDbEntity
  8
化粧台
  6
EXLTYPE2
 62
     6
100
AcDbLine
 10
795.0
 20
1137.5
 30
0.0
 11
1045.0
 21
1137.5
 31
0.0
  0
LINE
  5
475
330
1F
100
AcDbEntity
  8
化粧台
  6
EXLTYPE2
 62
     6
100
AcDbLine
 10
795.0
 20
1172.5
 30
0.0
 11
1045.0
 21
1172.5
 31
0.0
  0
LINE
  5
476
330
1F
100
AcDbEntity
  8
化粧台
  6
CONTINUOUS
 62
     2
100
AcDbLine
 10
1144.149999999996
 20
1032.5
 30
0.0
 11
1144.149999999998
 21
968.0000000000001
 31
0.0
  0
LINE
  5
477
330
1F
100
AcDbEntity
  8
化粧台
  6
CONTINUOUS
 62
     2
100
AcDbLine
 10
1175.849999999999
 20
968.0000000000001
 30
0.0
 11
1175.849999999999
 21
1032.5
 31
0.0
  0
LINE
  5
478
330
1F
100
AcDbEntity
  8
化粧台
  6
CONTINUOUS
 62
     2
100
AcDbLine
 10
1144.149999999998
 20
968.0000000000001
 30
0.0
 11
1175.849999999999
 21
968.0000000000001
 31
0.0
  0
LINE
  5
479
330
1F
100
AcDbEntity
  8
化粧台
  6
EXLTYPE2
 62
     6
100
AcDbLine
 10
1181.643356916401
 20
1110.500000000001
 30
0.0
 11
1181.643356916401
 21
1094.700000000001
 31
0.0
  0
LINE
  5
47A
330
1F
100
AcDbEntity
  8
化粧台
  6
EXLTYPE2
 62
     6
100
AcDbLine
 10
1138.356643083602
 20
1110.5
 30
0.0
 11
1138.356643083602
 21
1094.700000000001
 31
0.0
  0
LINE
  5
47B
330
1F
100
AcDbEntity
  8
化粧台
  6
EXLTYPE2
 62
     6
100
AcDbLine
 10
1170.6007123057
 20
1110.500000000001
 30
0.0
 11
1170.6007123057
 21
1094.700000000001
 31
0.0
  0
LINE
  5
47C
330
1F
100
AcDbEntity
  8
化粧台
  6
EXLTYPE2
 62
     6
100
AcDbLine
 10
1167.808328886502
 20
1110.500000000001
 30
0.0
 11
1167.808328886502
 21
1094.700000000001
 31
0.0
  0
LINE
  5
47D
330
1F
100
AcDbEntity
  8
化粧台
  6
EXLTYPE2
 62
     6
100
AcDbLine
 10
1152.191671113501
 20
1110.500000000001
 30
0.0
 11
1152.191671113501
 21
1094.700000000001
 31
0.0
  0
LINE
  5
47E
330
1F
100
AcDbEntity
  8
化粧台
  6
EXLTYPE2
 62
     6
100
AcDbLine
 10
1149.399287694301
 20
1110.500000000001
 30
0.0
 11
1149.399287694301
 21
1094.700000000001
 31
0.0
  0
ARC
  5
47F
330
1F
100
AcDbEntity
  8
化粧台
  6
EXLTYPE2
 62
     6
100
AcDbCircle
 10
1129.500000000003
 20
1074.500000000001
 30
0.0
 40
3.000000000000003
100
AcDbArc
 50
90.00000000000001
 51
180.0
  0
LINE
  5
480
330
1F
100
AcDbEntity
  8
化粧台
  6
EXLTYPE2
 62
     6
100
AcDbLine
 10
1129.500000000003
 20
1077.500000000001
 30
0.0
 11
1190.500000000003
 21
1077.500000000001
 31
0.0
  0
LINE
  5
481
330
1F
100
AcDbEntity
  8
化粧台
  6
EXLTYPE2
 62
     6
100
AcDbLine
 10
1126.500000000002
 20
1074.500000000001
 30
0.0
 11
1126.500000000002
 21
1054.500000000001
 31
0.0
  0
ARC
  5
482
330
1F
100
AcDbEntity
  8
化粧台
  6
EXLTYPE2
 62
     6
100
AcDbCircle
 10
1136.000000000003
 20
1089.500000000001
 30
0.0
 40
3.000000000000003
100
AcDbArc
 50
90.00000000000001
 51
180.0
  0
LINE
  5
483
330
1F
100
AcDbEntity
  8
化粧台
  6
EXLTYPE2
 62
     6
100
AcDbLine
 10
1136.000000000003
 20
1092.500000000001
 30
0.0
 11
1184.000000000003
 21
1092.500000000001
 31
0.0
  0
LINE
  5
484
330
1F
100
AcDbEntity
  8
化粧台
  6
EXLTYPE2
 62
     6
100
AcDbLine
 10
1133.000000000003
 20
1089.500000000001
 30
0.0
 11
1133.000000000003
 21
1077.500000000001
 31
0.0
  0
ARC
  5
485
330
1F
100
AcDbEntity
  8
化粧台
  6
EXLTYPE2
 62
     6
100
AcDbCircle
 10
1184.000000000003
 20
1089.500000000001
 30
0.0
 40
3.000000000000003
100
AcDbArc
 50
0.0
 51
90.00000000000001
  0
LINE
  5
486
330
1F
100
AcDbEntity
  8
化粧台
  6
EXLTYPE2
 62
     6
100
AcDbLine
 10
1187.000000000003
 20
1089.500000000001
 30
0.0
 11
1187.000000000003
 21
1077.500000000001
 31
0.0
  0
ARC
  5
487
330
1F
100
AcDbEntity
  8
化粧台
  6
EXLTYPE2
 62
     6
100
AcDbCircle
 10
1190.500000000003
 20
1074.500000000001
 30
0.0
 40
3.000000000000003
100
AcDbArc
 50
0.0
 51
90.00000000000001
  0
LINE
  5
488
330
1F
100
AcDbEntity
  8
化粧台
  6
EXLTYPE2
 62
     6
100
AcDbLine
 10
1193.500000000003
 20
1074.500000000001
 30
0.0
 11
1193.500000000003
 21
1054.500000000001
 31
0.0
  0
LINE
  5
489
330
1F
100
AcDbEntity
  8
化粧台
  6
EXLTYPE2
 62
     6
100
AcDbLine
 10
1180.700000000002
 20
1094.700000000001
 30
0.0
 11
1180.700000000002
 21
1092.500000000001
 31
0.0
  0
LINE
  5
48A
330
1F
100
AcDbEntity
  8
化粧台
  6
EXLTYPE2
 62
     6
100
AcDbLine
 10
1139.300000000003
 20
1094.700000000001
 30
0.0
 11
1139.300000000003
 21
1092.500000000001
 31
0.0
  0
LINE
  5
48B
330
1F
100
AcDbEntity
  8
化粧台
  6
EXLTYPE2
 62
     6
100
AcDbLine
 10
1126.500000000002
 20
1054.500000000001
 30
0.0
 11
1193.500000000003
 21
1054.500000000001
 31
0.0
  0
LINE
  5
48C
330
1F
100
AcDbEntity
  8
化粧台
  6
EXLTYPE2
 62
     6
100
AcDbLine
 10
1137.200000000001
 20
1112.500000000001
 30
0.0
 11
1137.200000000001
 21
1094.700000000001
 31
0.0
  0
LINE
  5
48D
330
1F
100
AcDbEntity
  8
化粧台
  6
EXLTYPE2
 62
     6
100
AcDbLine
 10
1182.800000000001
 20
1112.500000000001
 30
0.0
 11
1182.800000000001
 21
1094.700000000001
 31
0.0
  0
LINE
  5
48E
330
1F
100
AcDbEntity
  8
化粧台
  6
EXLTYPE2
 62
     6
100
AcDbLine
 10
1137.200000000001
 20
1112.500000000001
 30
0.0
 11
1182.800000000001
 21
1112.500000000001
 31
0.0
  0
LINE
  5
48F
330
1F
100
AcDbEntity
  8
化粧台
  6
EXLTYPE2
 62
     6
100
AcDbLine
 10
1137.200000000001
 20
1094.700000000001
 30
0.0
 11
1182.800000000001
 21
1094.700000000001
 31
0.0
  0
LINE
  5
490
330
1F
100
AcDbEntity
  8
化粧台
  6
CONTINUOUS
 62
     2
100
AcDbLine
 10
472.0
 20
1032.5
 30
0.0
 11
1368.000000000002
 21
1032.5
 31
0.0
  0
DIMENSION
  5
491
330
1F
100
AcDbEntity
  8
化粧台
  6
CONTINUOUS
 62
     3
100
AcDbDimension
  2
*D22
 10
1120.0
 20
705.0
 30
0.0
 11
677.0000006258489
 21
742.5
 31
0.0
 70
   160
  1
200（壁排水）
  3
ISO-25
100
AcDbAlignedDimension
 13
920.0
 23
1032.5
 33
0.0
 14
1120.0
 24
1417.5662330406
 34
0.0
100
AcDbRotatedDimension
1001
ACAD
1000
DSTYLE
1002
{
1070
   270
1070
     2
1070
     6
1000
EX_NORM
1070
     7
1000
EX_NORM
1070
    41
1040
44.99999618530273
1070
    42
1040
10.49999982118618
1070
    44
1040
15.0
1070
    73
1070
     0
1070
    74
1070
     0
1070
    75
1070
     0
1070
    76
1070
     0
1070
    77
1070
     1
1070
    78
1070
     8
1070
   140
1040
59.99999618530273
1070
   147
1040
0.0
1070
   173
1070
     1
1070
   176
1070
     3
1070
   177
1070
     3
1070
   178
1070
     2
1070
   271
1070
     1
1070
   277
1070
     2
1070
   279
1070
     2
1070
   280
1070
     1
1070
   287
1070
     5
1070
   340
1005
E7
1002
}
  0
LINE
  5
49E
330
1F
100
AcDbEntity
  8
化粧台
  6
CONTINUOUS
 62
     6
100
AcDbLine
 10
1071.099999999998
 20
1340.5
 30
0.0
 11
1117.099999999998
 21
1340.5
 31
0.0
  0
LINE
  5
49F
330
1F
100
AcDbEntity
  8
化粧台
  6
CONTINUOUS
 62
     6
100
AcDbLine
 10
1072.599999999999
 20
1324.0
 30
0.0
 11
1115.599999999999
 21
1324.0
 31
0.0
  0
LINE
  5
4A0
330
1F
100
AcDbEntity
  8
化粧台
  6
EXLTYPE3
 62
     6
100
AcDbLine
 10
2454.0
 20
1322.14285714286
 30
0.0
 11
2496.999999999998
 21
1322.14285714286
 31
0.0
  0
LINE
  5
4A1
330
1F
100
AcDbEntity
  8
化粧台
  6
CONTINUOUS
 62
     6
100
AcDbLine
 10
2452.5
 20
1338.64285714286
 30
0.0
 11
2498.499999999998
 21
1338.64285714286
 31
0.0
  0
LINE
  5
4A2
330
1F
100
AcDbEntity
  8
化粧台
  6
EXLTYPE2
 62
     6
100
AcDbLine
 10
1144.149999999997
 20
1245.0
 30
0.0
 11
1144.149999999996
 21
1032.5
 31
0.0
  0
LINE
  5
4A3
330
1F
100
AcDbEntity
  8
化粧台
  6
EXLTYPE2
 62
     6
100
AcDbLine
 10
1175.849999999999
 20
1032.5
 30
0.0
 11
1175.849999999999
 21
1245.0
 31
0.0
  0
LINE
  5
4A4
330
1F
100
AcDbEntity
  8
化粧台
  6
EXLTYPE3
 62
     6
100
AcDbLine
 10
1160.0
 20
1255.5
 30
0.0
 11
1160.0
 21
953.0000000000001
 31
0.0
  0
DIMENSION
  5
4A5
330
1F
100
AcDbEntity
  8
化粧台
  6
CONTINUOUS
 62
     3
100
AcDbDimension
  2
*D23
 10
995.0
 20
867.0
 30
0.0
 11
597.55439165479
 21
902.249999910593
 31
0.0
 70
   160
  1
150（壁給水）
  3
ISO-25
100
AcDbAlignedDimension
 13
843.5543916547899
 23
1438.3235153683
 33
0.0
 14
995.0
 24
1422.5
 34
0.0
100
AcDbRotatedDimension
1001
ACAD
1000
DSTYLE
1002
{
1070
   270
1070
     2
1070
     6
1000
EX_NORM
1070
     7
1000
EX_NORM
1070
    41
1040
44.99999618530273
1070
    42
1040
10.49999982118607
1070
    44
1040
15.0
1070
    73
1070
     0
1070
    74
1070
     0
1070
    75
1070
     0
1070
    76
1070
     0
1070
    77
1070
     1
1070
    78
1070
     8
1070
   140
1040
59.99999618530273
1070
   147
1040
0.0
1070
   173
1070
     1
1070
   176
1070
     3
1070
   177
1070
     3
1070
   178
1070
     2
1070
   271
1070
     1
1070
   277
1070
     2
1070
   279
1070
     2
1070
   280
1070
     0
1070
   287
1070
     5
1070
   340
1005
E7
1002
}
  0
ARC
  5
4B2
330
1F
100
AcDbEntity
  8
化粧台
  6
EXLTYPE2
 62
     6
100
AcDbCircle
 10
774.0
 20
1226.394120027623
 30
0.0
 40
6.500000000000004
100
AcDbArc
 50
180.0
 51
228.8458299263344
  0
ARC
  5
4B3
330
1F
100
AcDbEntity
  8
化粧台
  6
EXLTYPE2
 62
     6
100
AcDbCircle
 10
736.0
 20
1226.394120027623
 30
0.0
 40
6.500000000000004
100
AcDbArc
 50
311.154170073669
 51
0.0
  0
LINE
  5
4B4
330
1F
100
AcDbEntity
  8
化粧台
  6
EXLTYPE2
 62
     6
100
AcDbLine
 10
767.25
 20
1214.5
 30
0.0
 11
769.7224318643403
 21
1215.92745920243
 31
0.0
  0
LINE
  5
4B5
330
1F
100
AcDbEntity
  8
化粧台
  6
EXLTYPE2
 62
     6
100
AcDbLine
 10
742.75
 20
1214.5
 30
0.0
 11
740.2775681356597
 21
1215.92745920243
 31
0.0
  0
LINE
  5
4B6
330
1F
100
AcDbEntity
  8
化粧台
  6
EXLTYPE2
 62
     6
100
AcDbLine
 10
767.25
 20
1214.499999999999
 30
0.0
 11
742.75
 21
1214.499999999999
 31
0.0
  0
LINE
  5
4B7
330
1F
100
AcDbEntity
  8
化粧台
  6
EXLTYPE2
 62
     6
100
AcDbLine
 10
769.7224318643403
 20
1215.927459202429
 30
0.0
 11
769.7224318643403
 21
1221.499999999999
 31
0.0
  0
LINE
  5
4B8
330
1F
100
AcDbEntity
  8
化粧台
  6
EXLTYPE2
 62
     6
100
AcDbLine
 10
740.2775681356597
 20
1215.927459202429
 30
0.0
 11
740.2775681356597
 21
1221.499999999999
 31
0.0
  0
ARC
  5
4B9
330
1F
100
AcDbEntity
  8
化粧台
  6
EXLTYPE2
 62
     6
100
AcDbCircle
 10
771.0
 20
1256.499999999999
 30
0.0
 40
3.500000000000002
100
AcDbArc
 50
180.0
 51
270.0000000000002
  0
ARC
  5
4BA
330
1F
100
AcDbEntity
  8
化粧台
  6
EXLTYPE2
 62
     6
100
AcDbCircle
 10
771.0
 20
1228.499999999999
 30
0.0
 40
3.500000000000002
100
AcDbArc
 50
90.00000000000001
 51
180.0
  0
LINE
  5
4BB
330
1F
100
AcDbEntity
  8
化粧台
  6
EXLTYPE2
 62
     6
100
AcDbLine
 10
767.5
 20
1228.499999999999
 30
0.0
 11
767.5
 21
1226.394120027623
 31
0.0
  0
LINE
  5
4BC
330
1F
100
AcDbEntity
  8
化粧台
  6
EXLTYPE2
 62
     6
100
AcDbLine
 10
749.7000000000007
 20
1269.899999999999
 30
0.0
 11
760.3000000000002
 21
1269.899999999999
 31
0.0
  0
LINE
  5
4BD
330
1F
100
AcDbEntity
  8
化粧台
  6
EXLTYPE2
 62
     6
100
AcDbLine
 10
742.25
 20
1256.999999999999
 30
0.0
 11
767.75
 21
1256.999999999999
 31
0.0
  0
ARC
  5
4BE
330
1F
100
AcDbEntity
  8
化粧台
  6
EXLTYPE2
 62
     6
100
AcDbCircle
 10
746.25
 20
1260.774917217639
 30
0.0
 40
5.5
100
AcDbArc
 50
127.1876259391986
 51
223.3417582272012
  0
LINE
  5
4BF
330
1F
100
AcDbEntity
  8
化粧台
  6
EXLTYPE2
 62
     6
100
AcDbLine
 10
749.7000000000007
 20
1269.899999999999
 30
0.0
 11
742.9256510836094
 21
1265.156549822279
 31
0.0
  0
ARC
  5
4C0
330
1F
100
AcDbEntity
  8
化粧台
  6
EXLTYPE2
 62
     6
100
AcDbCircle
 10
763.75
 20
1260.774917217639
 30
0.0
 40
5.5
100
AcDbArc
 50
316.658241772799
 51
52.8123740608015
  0
LINE
  5
4C1
330
1F
100
AcDbEntity
  8
化粧台
  6
EXLTYPE2
 62
     6
100
AcDbLine
 10
760.3000000000002
 20
1269.899999999999
 30
0.0
 11
767.0743489163906
 21
1265.156549822279
 31
0.0
  0
LINE
  5
4C2
330
1F
100
AcDbEntity
  8
化粧台
  6
EXLTYPE2
 62
     6
100
AcDbLine
 10
742.9256510836094
 20
1265.156549822279
 30
0.0
 11
767.0743489164906
 21
1265.156549822279
 31
0.0
  0
LINE
  5
4C3
330
1F
100
AcDbEntity
  8
化粧台
  6
EXLTYPE2
 62
     6
100
AcDbLine
 10
767.5
 20
1256.999999999999
 30
0.0
 11
767.5
 21
1256.499999999999
 31
0.0
  0
LINE
  5
4C4
330
1F
100
AcDbEntity
  8
化粧台
  6
EXLTYPE2
 62
     6
100
AcDbLine
 10
742.5
 20
1256.999999999999
 30
0.0
 11
742.5
 21
1226.394120027619
 31
0.0
  0
ARC
  5
4C5
330
1F
100
AcDbEntity
  8
化粧台
  6
EXLTYPE2
 62
     6
100
AcDbCircle
 10
783.7000000000007
 20
1244.249999999999
 30
0.0
 40
11.0
100
AcDbArc
 50
56.94426884910051
 51
123.0557311508995
  0
LINE
  5
4C6
330
1F
100
AcDbEntity
  8
化粧台
  6
EXLTYPE2
 62
     6
100
AcDbLine
 10
777.7000000000007
 20
1253.469544457289
 30
0.0
 11
777.7000000000007
 21
1231.530455542709
 31
0.0
  0
LINE
  5
4C7
330
1F
100
AcDbEntity
  8
化粧台
  6
EXLTYPE2
 62
     6
100
AcDbLine
 10
789.7000000000007
 20
1253.469544457289
 30
0.0
 11
789.7000000000007
 21
1231.530455542709
 31
0.0
  0
ARC
  5
4C8
330
1F
100
AcDbEntity
  8
化粧台
  6
EXLTYPE2
 62
     6
100
AcDbCircle
 10
783.7000000000007
 20
1240.749999999999
 30
0.0
 40
11.0
100
AcDbArc
 50
236.9442688491005
 51
303.0557311508512
  0
LINE
  5
4C9
330
1F
100
AcDbEntity
  8
化粧台
  6
EXLTYPE2
 62
     6
100
AcDbLine
 10
771.0
 20
1252.999999999999
 30
0.0
 11
777.7000000000007
 21
1252.999999999999
 31
0.0
  0
LINE
  5
4CA
330
1F
100
AcDbEntity
  8
化粧台
  6
EXLTYPE2
 62
     6
100
AcDbLine
 10
771.0
 20
1231.999999999999
 30
0.0
 11
777.7000000000007
 21
1231.999999999999
 31
0.0
  0
LINE
  5
4CB
330
1F
100
AcDbEntity
  8
化粧台
  6
EXLTYPE2
 62
     6
100
AcDbLine
 10
759.75
 20
1275.499999999999
 30
0.0
 11
759.75
 21
1269.899999999999
 31
0.0
  0
LINE
  5
4CC
330
1F
100
AcDbEntity
  8
化粧台
  6
EXLTYPE2
 62
     6
100
AcDbLine
 10
750.25
 20
1275.499999999999
 30
0.0
 11
750.25
 21
1269.899999999999
 31
0.0
  0
LINE
  5
4CD
330
1F
100
AcDbEntity
  8
化粧台
  6
EXLTYPE2
 62
     6
100
AcDbLine
 10
759.75
 20
1275.499999999999
 30
0.0
 11
750.25
 21
1275.499999999999
 31
0.0
  0
LINE
  5
4CE
330
1F
100
AcDbEntity
  8
化粧台
  6
EXLTYPE2
 62
     6
100
AcDbLine
 10
789.7000000000003
 20
1249.000000000001
 30
0.0
 11
795.0
 21
1249.000000000001
 31
0.0
  0
LINE
  5
4CF
330
1F
100
AcDbEntity
  8
化粧台
  6
EXLTYPE2
 62
     6
100
AcDbLine
 10
789.7000000000003
 20
1235.999999999996
 30
0.0
 11
795.0
 21
1235.999999999996
 31
0.0
  0
ARC
  5
4D0
330
1F
100
AcDbEntity
  8
化粧台
  6
EXLTYPE2
 62
     6
100
AcDbCircle
 10
795.0000000000005
 20
1292.499999999999
 30
0.0
 40
56.50000000000004
100
AcDbArc
 50
270.0000000000002
 51
0.0
  0
ARC
  5
4D1
330
1F
100
AcDbEntity
  8
化粧台
  6
EXLTYPE2
 62
     6
100
AcDbCircle
 10
795.0000000000005
 20
1292.499999999999
 30
0.0
 40
43.50000000000004
100
AcDbArc
 50
270.0000000000002
 51
0.0
  0
LINE
  5
4D2
330
1F
100
AcDbEntity
  8
化粧台
  6
EXLTYPE3
 62
     6
100
AcDbLine
 10
785.0
 20
1242.499999999999
 30
0.0
 11
725.0
 21
1242.499999999999
 31
0.0
  0
ARC
  5
4D3
330
1F
100
AcDbEntity
  8
化粧台
  6
EXLTYPE2
 62
     6
100
AcDbCircle
 10
1066.0
 20
1226.394120027623
 30
0.0
 40
6.500000000000004
100
AcDbArc
 50
311.1541700736644
 51
0.0
  0
ARC
  5
4D4
330
1F
100
AcDbEntity
  8
化粧台
  6
EXLTYPE2
 62
     6
100
AcDbCircle
 10
1104.0
 20
1226.394120027623
 30
0.0
 40
6.500000000000004
100
AcDbArc
 50
180.0
 51
228.8458299263314
  0
LINE
  5
4D5
330
1F
100
AcDbEntity
  8
化粧台
  6
EXLTYPE2
 62
     6
100
AcDbLine
 10
1072.75
 20
1214.5
 30
0.0
 11
1070.277568135659
 21
1215.92745920243
 31
0.0
  0
LINE
  5
4D6
330
1F
100
AcDbEntity
  8
化粧台
  6
EXLTYPE2
 62
     6
100
AcDbLine
 10
1097.25
 20
1214.5
 30
0.0
 11
1099.72243186434
 21
1215.92745920243
 31
0.0
  0
LINE
  5
4D7
330
1F
100
AcDbEntity
  8
化粧台
  6
EXLTYPE2
 62
     6
100
AcDbLine
 10
1072.75
 20
1214.499999999999
 30
0.0
 11
1097.25
 21
1214.499999999999
 31
0.0
  0
LINE
  5
4D8
330
1F
100
AcDbEntity
  8
化粧台
  6
EXLTYPE2
 62
     6
100
AcDbLine
 10
1070.277568135659
 20
1215.927459202429
 30
0.0
 11
1070.277568135659
 21
1221.499999999999
 31
0.0
  0
LINE
  5
4D9
330
1F
100
AcDbEntity
  8
化粧台
  6
EXLTYPE2
 62
     6
100
AcDbLine
 10
1099.72243186434
 20
1215.927459202429
 30
0.0
 11
1099.72243186434
 21
1221.499999999999
 31
0.0
  0
ARC
  5
4DA
330
1F
100
AcDbEntity
  8
化粧台
  6
EXLTYPE2
 62
     6
100
AcDbCircle
 10
1069.0
 20
1256.499999999999
 30
0.0
 40
3.500000000000002
100
AcDbArc
 50
270.0000000000002
 51
0.0
  0
ARC
  5
4DB
330
1F
100
AcDbEntity
  8
化粧台
  6
EXLTYPE2
 62
     6
100
AcDbCircle
 10
1069.0
 20
1228.499999999999
 30
0.0
 40
3.500000000000002
100
AcDbArc
 50
0.0
 51
90.00000000000001
  0
LINE
  5
4DC
330
1F
100
AcDbEntity
  8
化粧台
  6
EXLTYPE2
 62
     6
100
AcDbLine
 10
1072.5
 20
1228.499999999999
 30
0.0
 11
1072.5
 21
1226.394120027623
 31
0.0
  0
LINE
  5
4DD
330
1F
100
AcDbEntity
  8
化粧台
  6
EXLTYPE2
 62
     6
100
AcDbLine
 10
1090.299999999999
 20
1269.899999999999
 30
0.0
 11
1079.699999999999
 21
1269.899999999999
 31
0.0
  0
LINE
  5
4DE
330
1F
100
AcDbEntity
  8
化粧台
  6
EXLTYPE2
 62
     6
100
AcDbLine
 10
1097.75
 20
1256.999999999999
 30
0.0
 11
1072.25
 21
1256.999999999999
 31
0.0
  0
ARC
  5
4DF
330
1F
100
AcDbEntity
  8
化粧台
  6
EXLTYPE2
 62
     6
100
AcDbCircle
 10
1093.75
 20
1260.774917217639
 30
0.0
 40
5.5
100
AcDbArc
 50
316.658241772799
 51
52.8123740608015
  0
LINE
  5
4E0
330
1F
100
AcDbEntity
  8
化粧台
  6
EXLTYPE2
 62
     6
100
AcDbLine
 10
1090.299999999999
 20
1269.899999999999
 30
0.0
 11
1097.07434891639
 21
1265.156549822279
 31
0.0
  0
ARC
  5
4E1
330
1F
100
AcDbEntity
  8
化粧台
  6
EXLTYPE2
 62
     6
100
AcDbCircle
 10
1076.25
 20
1260.774917217639
 30
0.0
 40
5.5
100
AcDbArc
 50
127.1876259391986
 51
223.3417582272012
  0
LINE
  5
4E2
330
1F
100
AcDbEntity
  8
化粧台
  6
EXLTYPE2
 62
     6
100
AcDbLine
 10
1079.699999999999
 20
1269.899999999999
 30
0.0
 11
1072.925651083609
 21
1265.156549822279
 31
0.0
  0
LINE
  5
4E3
330
1F
100
AcDbEntity
  8
化粧台
  6
EXLTYPE2
 62
     6
100
AcDbLine
 10
1097.07434891639
 20
1265.156549822279
 30
0.0
 11
1072.925651083509
 21
1265.156549822279
 31
0.0
  0
LINE
  5
4E4
330
1F
100
AcDbEntity
  8
化粧台
  6
EXLTYPE2
 62
     6
100
AcDbLine
 10
1072.5
 20
1256.999999999999
 30
0.0
 11
1072.5
 21
1256.499999999999
 31
0.0
  0
LINE
  5
4E5
330
1F
100
AcDbEntity
  8
化粧台
  6
EXLTYPE2
 62
     6
100
AcDbLine
 10
1097.5
 20
1256.999999999999
 30
0.0
 11
1097.5
 21
1226.394120027619
 31
0.0
  0
ARC
  5
4E6
330
1F
100
AcDbEntity
  8
化粧台
  6
EXLTYPE2
 62
     6
100
AcDbCircle
 10
1056.299999999999
 20
1244.249999999999
 30
0.0
 40
11.0
100
AcDbArc
 50
56.94426884910051
 51
123.0557311508995
  0
LINE
  5
4E7
330
1F
100
AcDbEntity
  8
化粧台
  6
EXLTYPE2
 62
     6
100
AcDbLine
 10
1062.299999999999
 20
1253.469544457289
 30
0.0
 11
1062.299999999999
 21
1231.530455542709
 31
0.0
  0
LINE
  5
4E8
330
1F
100
AcDbEntity
  8
化粧台
  6
EXLTYPE2
 62
     6
100
AcDbLine
 10
1050.299999999999
 20
1253.469544457289
 30
0.0
 11
1050.299999999999
 21
1231.530455542709
 31
0.0
  0
ARC
  5
4E9
330
1F
100
AcDbEntity
  8
化粧台
  6
EXLTYPE2
 62
     6
100
AcDbCircle
 10
1056.299999999999
 20
1240.749999999999
 30
0.0
 40
11.0
100
AcDbArc
 50
236.9442688491492
 51
303.0557311508995
  0
LINE
  5
4EA
330
1F
100
AcDbEntity
  8
化粧台
  6
EXLTYPE2
 62
     6
100
AcDbLine
 10
1069.0
 20
1252.999999999999
 30
0.0
 11
1062.299999999999
 21
1252.999999999999
 31
0.0
  0
LINE
  5
4EB
330
1F
100
AcDbEntity
  8
化粧台
  6
EXLTYPE2
 62
     6
100
AcDbLine
 10
1069.0
 20
1231.999999999999
 30
0.0
 11
1062.299999999999
 21
1231.999999999999
 31
0.0
  0
LINE
  5
4EC
330
1F
100
AcDbEntity
  8
化粧台
  6
EXLTYPE2
 62
     6
100
AcDbLine
 10
1080.25
 20
1275.499999999999
 30
0.0
 11
1080.25
 21
1269.899999999999
 31
0.0
  0
LINE
  5
4ED
330
1F
100
AcDbEntity
  8
化粧台
  6
EXLTYPE2
 62
     6
100
AcDbLine
 10
1089.75
 20
1275.499999999999
 30
0.0
 11
1089.75
 21
1269.899999999999
 31
0.0
  0
LINE
  5
4EE
330
1F
100
AcDbEntity
  8
化粧台
  6
EXLTYPE2
 62
     6
100
AcDbLine
 10
1080.25
 20
1275.499999999999
 30
0.0
 11
1089.75
 21
1275.499999999999
 31
0.0
  0
LINE
  5
4EF
330
1F
100
AcDbEntity
  8
化粧台
  6
EXLTYPE2
 62
     6
100
AcDbLine
 10
1050.299999999999
 20
1249.000000000001
 30
0.0
 11
1045.0
 21
1249.000000000001
 31
0.0
  0
LINE
  5
4F0
330
1F
100
AcDbEntity
  8
化粧台
  6
EXLTYPE2
 62
     6
100
AcDbLine
 10
1050.299999999999
 20
1235.999999999996
 30
0.0
 11
1045.0
 21
1235.999999999996
 31
0.0
  0
ARC
  5
4F1
330
1F
100
AcDbEntity
  8
化粧台
  6
EXLTYPE2
 62
     6
100
AcDbCircle
 10
1044.999999999999
 20
1292.499999999999
 30
0.0
 40
56.50000000000004
100
AcDbArc
 50
180.0
 51
269.9999999999998
  0
ARC
  5
4F2
330
1F
100
AcDbEntity
  8
化粧台
  6
EXLTYPE2
 62
     6
100
AcDbCircle
 10
1044.999999999999
 20
1292.499999999999
 30
0.0
 40
43.50000000000004
100
AcDbArc
 50
180.0
 51
269.9999999999997
  0
LINE
  5
4F3
330
1F
100
AcDbEntity
  8
化粧台
  6
EXLTYPE3
 62
     6
100
AcDbLine
 10
1055.0
 20
1242.499999999999
 30
0.0
 11
1115.0
 21
1242.499999999999
 31
0.0
  0
LINE
  5
4F4
330
1F
100
AcDbEntity
  8
化粧台
  6
EXLTYPE4
 62
     6
100
AcDbLine
 10
744.5000000000018
 20
1214.5
 30
0.0
 11
744.5000000000018
 21
1024.5
 31
0.0
  0
LINE
  5
4F5
330
1F
100
AcDbEntity
  8
化粧台
  6
EXLTYPE4
 62
     6
100
AcDbLine
 10
765.5000000000018
 20
1214.5
 30
0.0
 11
765.5000000000018
 21
1024.5
 31
0.0
  0
LINE
  5
4F6
330
1F
100
AcDbEntity
  8
化粧台
  6
EXLTYPE4
 62
     6
100
AcDbLine
 10
1074.499999999997
 20
1214.5
 30
0.0
 11
1074.499999999997
 21
1024.5
 31
0.0
  0
LINE
  5
4F7
330
1F
100
AcDbEntity
  8
化粧台
  6
EXLTYPE4
 62
     6
100
AcDbLine
 10
1095.499999999997
 20
1214.5
 30
0.0
 11
1095.499999999997
 21
1024.5
 31
0.0
  0
LINE
  5
4F8
330
1F
100
AcDbEntity
  8
化粧台
  6
EXLTYPE2
 62
     6
100
AcDbLine
 10
762.1500000000001
 20
1077.6
 30
0.0
 11
762.1500000000001
 21
1069.599999999999
 31
0.0
  0
TEXT
  5
4F9
330
1F
100
AcDbEntity
  8
化粧台
  6
CONTINUOUS
 62
     2
100
AcDbText
 10
551.6002041379003
 20
957.5499999105926
 30
0.0
 40
59.99999618530273
  1
Ｒ１/２
 41
0.8342465643686785
  7
EXCADSTD
 72
     5
 11
725.6001907864598
 21
957.5499999105926
 31
0.0
100
AcDbText
  0
POLYLINE
  5
4FA
330
1F
100
AcDbEntity
  8
化粧台
  6
CONTINUOUS
 62
     3
100
AcDb2dPolyline
 66
     1
 10
0.0
 20
0.0
 30
0.0
 70
   128
  0
VERTEX
  5
4FB
330
4FA
100
AcDbEntity
  8
化粧台
  6
CONTINUOUS
 62
     3
100
AcDbVertex
100
AcDb2dVertex
 10
745.1584732650722
 20
1032.253268521832
 30
0.0
  0
VERTEX
  5
4FC
330
4FA
100
AcDbEntity
  8
化粧台
  6
CONTINUOUS
 62
     3
100
AcDbVertex
100
AcDb2dVertex
 10
715.1997958621009
 20
952.2999999999995
 30
0.0
  0
VERTEX
  5
4FD
330
4FA
100
AcDbEntity
  8
化粧台
  6
CONTINUOUS
 62
     3
100
AcDbVertex
100
AcDb2dVertex
 10
548.6997958621005
 20
952.2999999999998
 30
0.0
  0
SEQEND
  5
4FE
330
4FA
100
AcDbEntity
  8
化粧台
  6
CONTINUOUS
 62
     3
  0
LINE
  5
4FF
330
1F
100
AcDbEntity
  8
化粧台
  6
CONTINUOUS
 62
     3
100
AcDbLine
 10
736.3920711918119
 20
987.4827403287231
 30
0.0
 11
745.1584732650722
 21
1032.253268521832
 31
0.0
  0
LINE
  5
500
330
1F
100
AcDbEntity
  8
化粧台
  6
CONTINUOUS
 62
     3
100
AcDbLine
 10
745.1584732650722
 20
1032.253268521832
 30
0.0
 11
722.3457594574663
 21
992.7459263088675
 31
0.0
  0
DIMENSION
  5
501
330
1F
100
AcDbEntity
  8
化粧台
  6
CONTINUOUS
 62
     3
100
AcDbDimension
  2
*D24
 10
658.5
 20
1242.5
 30
0.0
 11
623.2500000894071
 21
1137.5
 31
0.0
 70
   160
  3
ISO-25
100
AcDbAlignedDimension
 13
755.0
 23
1032.5
 33
0.0
 14
755.0
 24
1242.5
 34
0.0
 50
90.0
100
AcDbRotatedDimension
1001
ACAD
1000
DSTYLE
1002
{
1070
   270
1070
     2
1070
     6
1000
EX_NORM
1070
     7
1000
EX_NORM
1070
    41
1040
44.99999618530273
1070
    42
1040
10.49999982118607
1070
    44
1040
15.0
1070
    73
1070
     0
1070
    74
1070
     0
1070
    75
1070
     0
1070
    76
1070
     0
1070
    77
1070
     1
1070
    78
1070
     8
1070
   140
1040
59.99999618530273
1070
   147
1040
0.0
1070
   173
1070
     1
1070
   176
1070
     3
1070
   177
1070
     3
1070
   178
1070
     2
1070
   271
1070
     1
1070
   277
1070
     2
1070
   279
1070
     2
1070
   280
1070
     0
1070
   287
1070
     5
1070
   340
1005
E7
1002
}
  0
LINE
  5
50E
330
1F
100
AcDbEntity
  8
化粧台
  6
CONTINUOUS
 62
     2
100
AcDbLine
 10
1365.000000000001
 20
1122.5
 30
0.0
 11
666.0
 21
1122.5
 31
0.0
  0
LINE
  5
50F
330
1F
100
AcDbEntity
  8
化粧台
  6
CONTINUOUS
 62
     2
100
AcDbLine
 10
592.5
 20
1122.5
 30
0.0
 11
475.0
 21
1122.5
 31
0.0
  0
DIMENSION
  5
510
330
1F
100
AcDbEntity
  8
化粧台
  6
CONTINUOUS
 62
     3
100
AcDbDimension
  2
*D25
 10
1476.0
 20
1731.5
 30
0.0
 11
1440.750000089407
 21
1382.0
 31
0.0
 70
   160
  3
ISO-25
100
AcDbAlignedDimension
 13
1368.0
 23
1032.5
 33
0.0
 14
1370.0
 24
1731.5
 34
0.0
 50
90.0
100
AcDbRotatedDimension
1001
ACAD
1000
DSTYLE
1002
{
1070
   270
1070
     2
1070
     6
1000
EX_NORM
1070
     7
1000
EX_NORM
1070
    41
1040
44.99999618530273
1070
    42
1040
10.49999982118607
1070
    44
1040
15.0
1070
    73
1070
     0
1070
    74
1070
     0
1070
    75
1070
     1
1070
    76
1070
     0
1070
    77
1070
     1
1070
    78
1070
     8
1070
   140
1040
59.99999618530273
1070
   147
1040
0.0
1070
   173
1070
     1
1070
   176
1070
     3
1070
   177
1070
     3
1070
   178
1070
     2
1070
   271
1070
     2
1070
   277
1070
     2
1070
   279
1070
     2
1070
   280
1070
     0
1070
   287
1070
     5
1070
   340
1005
E7
1002
}
  0
DIMENSION
  5
51C
330
1F
100
AcDbEntity
  8
化粧台
  6
CONTINUOUS
 62
     3
100
AcDbDimension
  2
*D26
 10
1566.0
 20
1871.5
 30
0.0
 11
1530.750000089407
 21
1452.0
 31
0.0
 70
   160
  3
ISO-25
100
AcDbAlignedDimension
 13
1368.0
 23
1032.5
 33
0.0
 14
1190.0
 24
1871.5
 34
0.0
 50
90.0
100
AcDbRotatedDimension
1001
ACAD
1000
DSTYLE
1002
{
1070
   270
1070
     2
1070
     6
1000
EX_NORM
1070
     7
1000
EX_NORM
1070
    41
1040
44.99999618530273
1070
    42
1040
10.49999982118607
1070
    44
1040
15.0
1070
    73
1070
     0
1070
    74
1070
     0
1070
    75
1070
     1
1070
    76
1070
     0
1070
    77
1070
     1
1070
    78
1070
     8
1070
   140
1040
59.99999618530273
1070
   147
1040
0.0
1070
   173
1070
     1
1070
   176
1070
     3
1070
   177
1070
     3
1070
   178
1070
     2
1070
   271
1070
     2
1070
   277
1070
     2
1070
   279
1070
     2
1070
   280
1070
     0
1070
   287
1070
     5
1070
   340
1005
E7
1002
}
  0
DIMENSION
  5
528
330
1F
100
AcDbEntity
  8
化粧台
  6
CONTINUOUS
 62
     3
100
AcDbDimension
  2
*D27
 10
2640.0
 20
1452.5
 30
0.0
 11
2604.750000089407
 21
1242.5
 31
0.0
 70
   160
  1
420（壁給水）
  3
ISO-25
100
AcDbAlignedDimension
 13
2550.0
 23
1032.5
 33
0.0
 14
2558.0
 24
1452.5
 34
0.0
 50
90.0
100
AcDbRotatedDimension
1001
ACAD
1000
DSTYLE
1002
{
1070
   270
1070
     2
1070
     6
1000
EX_NORM
1070
     7
1000
EX_NORM
1070
    41
1040
44.99999618530273
1070
    42
1040
10.49999982118607
1070
    44
1040
223.4999942779541
1070
    73
1070
     0
1070
    74
1070
     0
1070
    75
1070
     0
1070
    76
1070
     0
1070
    77
1070
     1
1070
    78
1070
     8
1070
   140
1040
59.99999618530273
1070
   147
1040
0.0
1070
   173
1070
     1
1070
   176
1070
     3
1070
   177
1070
     3
1070
   178
1070
     2
1070
   271
1070
     2
1070
   277
1070
     2
1070
   279
1070
     2
1070
   280
1070
     0
1070
   287
1070
     5
1070
   340
1005
E7
1002
}
  0
DIMENSION
  5
535
330
1F
100
AcDbEntity
  8
化粧台
  6
CONTINUOUS
 62
     3
100
AcDbDimension
  2
*D28
 10
2806.5
 20
1612.5
 30
0.0
 11
2771.250000089407
 21
1322.5
 31
0.0
 70
   160
  1
580（壁固定）
  3
ISO-25
100
AcDbAlignedDimension
 13
2550.0
 23
1032.5
 33
0.0
 14
2582.5
 24
1612.5
 34
0.0
 50
90.0
100
AcDbRotatedDimension
1001
ACAD
1000
DSTYLE
1002
{
1070
   270
1070
     2
1070
     6
1000
EX_NORM
1070
     7
1000
EX_NORM
1070
    41
1040
44.99999618530273
1070
    42
1040
10.49999982118607
1070
    44
1040
15.0
1070
    73
1070
     0
1070
    74
1070
     0
1070
    75
1070
     0
1070
    76
1070
     0
1070
    77
1070
     1
1070
    78
1070
     8
1070
   140
1040
59.99999618530273
1070
   147
1040
0.0
1070
   173
1070
     1
1070
   176
1070
     3
1070
   177
1070
     3
1070
   178
1070
     2
1070
   271
1070
     2
1070
   277
1070
     2
1070
   279
1070
     2
1070
   280
1070
     0
1070
   287
1070
     5
1070
   340
1005
E7
1002
}
  0
TEXT
  5
542
330
1F
100
AcDbEntity
  8
化粧台
  6
CONTINUOUS
 62
     2
100
AcDbText
 10
2615.9502041379
 20
1739.052670344793
 30
0.0
 40
59.99999618530273
  1
Ｒ１/２
 41
0.8342465643686785
  7
EXCADSTD
 72
     5
 11
2789.950190786459
 21
1739.052670344793
 31
0.0
100
AcDbText
  0
LEADER
  5
543
330
1F
100
AcDbEntity
  8
化粧台
  6
CONTINUOUS
 62
     3
100
AcDbLeader
  3
ISO-25
 76
     3
 10
2558.0
 20
1463.0
 30
0.0
 10
2608.4502041379
 20
1733.8026704342
 30
0.0
 10
2774.9502041379
 20
1733.8026704342
 30
0.0
1001
ACAD
1000
DSTYLE
1002
{
1070
     5
1000
EX_NORM
1070
    41
1040
45.0
1070
   341
1005
4D
1002
}
  0
DIMENSION
  5
544
330
1F
100
AcDbEntity
  8
化粧台
  6
CONTINUOUS
 62
     3
100
AcDbDimension
  2
*D29
 10
2722.5
 20
1032.5
 30
0.0
 11
2687.250000089407
 21
1247.5
 31
0.0
 70
   160
  1
430（壁排水）
  3
ISO-25
100
AcDbAlignedDimension
 13
2686.5
 23
1462.5
 33
0.0
 14
2731.5
 24
1032.5
 34
0.0
 50
90.0
100
AcDbRotatedDimension
1001
ACAD
1000
DSTYLE
1002
{
1070
   270
1070
     2
1070
     6
1000
EX_NORM
1070
     7
1000
EX_NORM
1070
    41
1040
44.99999618530273
1070
    42
1040
7.5
1070
    44
1040
15.0
1070
    73
1070
     0
1070
    74
1070
     0
1070
    75
1070
     0
1070
    76
1070
     0
1070
    77
1070
     1
1070
    78
1070
     8
1070
   140
1040
59.99999618530273
1070
   147
1040
0.0
1070
   173
1070
     1
1070
   176
1070
     3
1070
   177
1070
     3
1070
   178
1070
     2
1070
   271
1070
     2
1070
   277
1070
     2
1070
   279
1070
     2
1070
   280
1070
     0
1070
   287
1070
     5
1070
   340
1005
E7
1002
}
  0
LINE
  5
551
330
1F
100
AcDbEntity
  8
化粧台
  6
CONTINUOUS
 62
     3
100
AcDbLine
 10
920.0
 20
1010.0
 30
0.0
 11
920.0
 21
909.0
 31
0.0
  0
LINE
  5
552
330
1F
100
AcDbEntity
  8
化粧台
  6
CONTINUOUS
 62
     3
100
AcDbLine
 10
1120.0
 20
1432.5
 30
0.0
 11
1120.0
 21
909.0
 31
0.0
  0
TEXT
  5
553
330
1F
100
AcDbEntity
  8
化粧台
  6
CONTINUOUS
 62
     2
100
AcDbText
 10
2614.5
 20
1652.749999910593
 30
0.0
 40
59.99999618530273
  1
φ３２
 41
1.070588224822399
  7
EXCADSTD
 72
     5
 11
2770.499988555908
 21
1652.749999910593
 31
0.0
100
AcDbText
  0
LEADER
  5
554
330
1F
100
AcDbEntity
  8
化粧台
  6
CONTINUOUS
 62
     3
100
AcDbLeader
  3
ISO-25
 76
     3
 10
2580.0
 20
1478.5
 30
0.0
 10
2615.5
 20
1647.5
 30
0.0
 10
2773.0
 20
1647.5
 30
0.0
1001
ACAD
1000
DSTYLE
1002
{
1070
     5
1000
EX_NORM
1070
    41
1040
45.0
1070
   341
1005
4D
1002
}
  0
POLYLINE
  5
555
330
1F
100
AcDbEntity
  8
化粧台
  6
CONTINUOUS
 62
     3
100
AcDb2dPolyline
 66
     1
 10
0.0
 20
0.0
 30
0.0
 70
   128
  0
VERTEX
  5
556
330
555
100
AcDbEntity
  8
化粧台
  6
CONTINUOUS
 62
     3
100
AcDbVertex
100
AcDb2dVertex
 10
1602.0
 20
3836.5
 30
0.0
  0
VERTEX
  5
557
330
555
100
AcDbEntity
  8
化粧台
  6
CONTINUOUS
 62
     3
100
AcDbVertex
100
AcDb2dVertex
 10
1625.0
 20
3787.0
 30
0.0
  0
SEQEND
  5
558
330
555
100
AcDbEntity
  8
化粧台
  6
CONTINUOUS
 62
     3
  0
LINE
  5
559
330
1F
100
AcDbEntity
  8
化粧台
  6
CONTINUOUS
 62
     3
100
AcDbLine
 10
1627.763749118671
 20
3798.850574621249
 30
0.0
 11
1602.0
 21
3836.5
 31
0.0
  0
LINE
  5
55A
330
1F
100
AcDbEntity
  8
化粧台
  6
CONTINUOUS
 62
     3
100
AcDbLine
 10
1602.0
 20
3836.5
 30
0.0
 11
1614.160489584012
 21
3792.529868170801
 31
0.0
  0
LINE
  5
55B
330
1F
100
AcDbEntity
  8
化粧台
  6
CONTINUOUS
 62
     2
100
AcDbLine
 10
1370.000000000001
 20
3836.5
 30
0.0
 11
1370.000000000001
 21
3386.5
 31
0.0
  0
LINE
  5
55C
330
1F
100
AcDbEntity
  8
化粧台
  6
CONTINUOUS
 62
     2
100
AcDbLine
 10
470.0000000000016
 20
3836.5
 30
0.0
 11
1370.000000000001
 21
3836.5
 31
0.0
  0
LINE
  5
55D
330
1F
100
AcDbEntity
  8
化粧台
  6
CONTINUOUS
 62
     2
100
AcDbLine
 10
470.0000000000016
 20
3836.5
 30
0.0
 11
470.0000000000016
 21
3386.5
 31
0.0
  0
ARC
  5
55E
330
1F
100
AcDbEntity
  8
化粧台
  6
CONTINUOUS
 62
     2
100
AcDbCircle
 10
654.9999999999998
 20
3346.5
 30
0.0
 40
10.0
100
AcDbArc
 50
180.0
 51
270.0000000000002
  0
ARC
  5
55F
330
1F
100
AcDbEntity
  8
化粧台
  6
CONTINUOUS
 62
     2
100
AcDbCircle
 10
1185.0
 20
3346.5
 30
0.0
 40
10.0
100
AcDbArc
 50
270.0000000000002
 51
0.0
  0
LINE
  5
560
330
1F
100
AcDbEntity
  8
化粧台
  6
CONTINUOUS
 62
     2
100
AcDbLine
 10
1195.0
 20
3836.5
 30
0.0
 11
1195.0
 21
3346.5
 31
0.0
  0
LINE
  5
561
330
1F
100
AcDbEntity
  8
化粧台
  6
CONTINUOUS
 62
     2
100
AcDbLine
 10
654.9999999999998
 20
3336.5
 30
0.0
 11
1185.0
 21
3336.5
 31
0.0
  0
LINE
  5
562
330
1F
100
AcDbEntity
  8
化粧台
  6
CONTINUOUS
 62
     2
100
AcDbLine
 10
644.9999999999998
 20
3836.5
 30
0.0
 11
644.9999999999998
 21
3346.5
 31
0.0
  0
LINE
  5
563
330
1F
100
AcDbEntity
  8
化粧台
  6
CONTINUOUS
 62
     2
100
AcDbLine
 10
675.9999999999998
 20
3347.5
 30
0.0
 11
1164.0
 21
3347.5
 31
0.0
  0
ARC
  5
564
330
1F
100
AcDbEntity
  8
化粧台
  6
CONTINUOUS
 62
     2
100
AcDbCircle
 10
675.9999999999998
 20
3367.5
 30
0.0
 40
20.0
100
AcDbArc
 50
180.0
 51
270.0000000000002
  0
ARC
  5
565
330
1F
100
AcDbEntity
  8
化粧台
  6
CONTINUOUS
 62
     2
100
AcDbCircle
 10
1164.0
 20
3367.5
 30
0.0
 40
20.0
100
AcDbArc
 50
270.0000000000002
 51
0.0
  0
ARC
  5
566
330
1F
100
AcDbEntity
  8
化粧台
  6
CONTINUOUS
 62
     2
100
AcDbCircle
 10
665.9999999999998
 20
3811.5
 30
0.0
 40
10.0
100
AcDbArc
 50
90.00000000000001
 51
180.0
  0
ARC
  5
567
330
1F
100
AcDbEntity
  8
化粧台
  6
CONTINUOUS
 62
     2
100
AcDbCircle
 10
1174.0
 20
3811.5
 30
0.0
 40
10.0
100
AcDbArc
 50
0.0
 51
90.00000000000001
  0
LINE
  5
568
330
1F
100
AcDbEntity
  8
化粧台
  6
CONTINUOUS
 62
     2
100
AcDbLine
 10
655.9999999999998
 20
3811.5
 30
0.0
 11
655.9999999999998
 21
3367.5
 31
0.0
  0
LINE
  5
569
330
1F
100
AcDbEntity
  8
化粧台
  6
CONTINUOUS
 62
     2
100
AcDbLine
 10
665.9999999999998
 20
3821.5
 30
0.0
 11
1174.0
 21
3821.5
 31
0.0
  0
LINE
  5
56A
330
1F
100
AcDbEntity
  8
化粧台
  6
CONTINUOUS
 62
     2
100
AcDbLine
 10
1184.0
 20
3811.5
 30
0.0
 11
1184.0
 21
3367.5
 31
0.0
  0
LINE
  5
56B
330
1F
100
AcDbEntity
  8
化粧台
  6
CONTINUOUS
 62
     2
100
AcDbLine
 10
676.4999999999998
 20
3686.5
 30
0.0
 11
671.4012519609475
 21
3812.161772545197
 31
0.0
  0
LINE
  5
56C
330
1F
100
AcDbEntity
  8
化粧台
  6
CONTINUOUS
 62
     2
100
AcDbLine
 10
1163.5
 20
3686.5
 30
0.0
 11
1168.598748039052
 21
3812.161772545197
 31
0.0
  0
LINE
  5
56D
330
1F
100
AcDbEntity
  8
化粧台
  6
CONTINUOUS
 62
     6
100
AcDbLine
 10
883.1000000000001
 20
3601.5
 30
0.0
 11
956.8999999999994
 21
3601.5
 31
0.0
  0
LINE
  5
56E
330
1F
100
AcDbEntity
  8
化粧台
  6
CONTINUOUS
 62
     6
100
AcDbLine
 10
890.9999999999998
 20
3751.5
 30
0.0
 11
948.9999999999998
 21
3751.5
 31
0.0
  0
ARC
  5
56F
330
1F
100
AcDbEntity
  8
化粧台
  6
CONTINUOUS
 62
     6
100
AcDbCircle
 10
251.062457331045
 20
4037.446075093719
 30
0.0
 40
800.0000000000006
100
AcDbArc
 50
301.6289008635034
 51
317.9381374214719
  0
ARC
  5
570
330
1F
100
AcDbEntity
  8
化粧台
  6
CONTINUOUS
 62
     6
100
AcDbCircle
 10
1588.937542668955
 20
4037.446075093719
 30
0.0
 40
800.0000000000006
100
AcDbArc
 50
222.0618625785282
 51
238.3710991364966
  0
LINE
  5
571
330
1F
100
AcDbEntity
  8
化粧台
  6
CONTINUOUS
 62
     6
100
AcDbLine
 10
844.9999999999998
 20
3647.5
 30
0.0
 11
844.9999999999998
 21
3501.5
 31
0.0
  0
LINE
  5
572
330
1F
100
AcDbEntity
  8
化粧台
  6
CONTINUOUS
 62
     6
100
AcDbLine
 10
844.9999999999998
 20
3501.5
 30
0.0
 11
994.9999999999998
 21
3501.5
 31
0.0
  0
LINE
  5
573
330
1F
100
AcDbEntity
  8
化粧台
  6
CONTINUOUS
 62
     6
100
AcDbLine
 10
994.9999999999998
 20
3647.5
 30
0.0
 11
994.9999999999998
 21
3501.5
 31
0.0
  0
LINE
  5
574
330
1F
100
AcDbEntity
  8
化粧台
  6
CONTINUOUS
 62
     6
100
AcDbLine
 10
994.9999999999998
 20
3647.5
 30
0.0
 11
1163.5
 21
3686.5
 31
0.0
  0
LINE
  5
575
330
1F
100
AcDbEntity
  8
化粧台
  6
CONTINUOUS
 62
     6
100
AcDbLine
 10
844.9999999999998
 20
3647.5
 30
0.0
 11
676.4999999999998
 21
3686.5
 31
0.0
  0
CIRCLE
  5
576
330
1F
100
AcDbEntity
  8
化粧台
  6
CONTINUOUS
 62
     2
100
AcDbCircle
 10
849.9999999999998
 20
3741.5
 30
0.0
 40
12.50000000000001
  0
CIRCLE
  5
577
330
1F
100
AcDbEntity
  8
化粧台
  6
CONTINUOUS
 62
     2
100
AcDbCircle
 10
849.9999999999998
 20
3741.5
 30
0.0
 40
7.500000000000004
  0
CIRCLE
  5
578
330
1F
100
AcDbEntity
  8
化粧台
  6
CONTINUOUS
 62
     2
100
AcDbCircle
 10
919.9999999999998
 20
3751.5
 30
0.0
 40
24.50000000000002
  0
LINE
  5
579
330
1F
100
AcDbEntity
  8
化粧台
  6
CONTINUOUS
 62
     2
100
AcDbLine
 10
915.9999999999998
 20
3666.499999999988
 30
0.0
 11
923.9999999999998
 21
3666.499999999988
 31
0.0
  0
LINE
  5
57A
330
1F
100
AcDbEntity
  8
化粧台
  6
CONTINUOUS
 62
     2
100
AcDbLine
 10
915.9999999999998
 20
3727.328736069456
 30
0.0
 11
915.9999999999998
 21
3666.499999999988
 31
0.0
  0
LINE
  5
57B
330
1F
100
AcDbEntity
  8
化粧台
  6
CONTINUOUS
 62
     2
100
AcDbLine
 10
923.9999999999998
 20
3727.328736069456
 30
0.0
 11
923.9999999999998
 21
3666.499999999988
 31
0.0
  0
ELLIPSE
  5
57C
330
1F
100
AcDbEntity
  8
化粧台
  6
CONTINUOUS
 62
     2
100
AcDbEllipse
 10
919.9999999999998
 20
3626.5
 30
0.0
 11
15.00000000000001
 21
0.0
 31
0.0
210
0.0
220
0.0
230
1.0
 40
0.4999999999999999
 41
0.0
 42
6.283185307179586
  0
LINE
  5
57D
330
1F
100
AcDbEntity
  8
化粧台
  6
CONTINUOUS
 62
     2
100
AcDbLine
 10
904.9999999999998
 20
3732.128629372189
 30
0.0
 11
904.9999999999998
 21
3626.5
 31
0.0
  0
LINE
  5
57E
330
1F
100
AcDbEntity
  8
化粧台
  6
CONTINUOUS
 62
     2
100
AcDbLine
 10
934.9999999999998
 20
3732.12862937219
 30
0.0
 11
934.9999999999998
 21
3626.5
 31
0.0
  0
ELLIPSE
  5
57F
330
1F
100
AcDbEntity
  8
化粧台
  6
CONTINUOUS
 62
     6
100
AcDbEllipse
 10
919.9999999999998
 20
3695.782032303
 30
0.0
 11
15.00000000000001
 21
0.0
 31
0.0
210
0.0
220
0.0
230
1.0
 40
0.5000000000000004
 41
0.0
 42
1.300863530961499
  0
ELLIPSE
  5
580
330
1F
100
AcDbEntity
  8
化粧台
  6
CONTINUOUS
 62
     6
100
AcDbEllipse
 10
919.9999999999998
 20
3695.782032303
 30
0.0
 11
15.00000000000001
 21
0.0
 31
0.0
210
0.0
220
0.0
230
1.0
 40
0.5000000000000004
 41
1.840729122628308
 42
3.141592653589793
  0
LINE
  5
581
330
1F
100
AcDbEntity
  8
化粧台
  6
CONTINUOUS
 62
     2
100
AcDbLine
 10
676.4999999999998
 20
3686.5
 30
0.0
 11
904.9999999999998
 21
3686.5
 31
0.0
  0
LINE
  5
582
330
1F
100
AcDbEntity
  8
化粧台
  6
CONTINUOUS
 62
     2
100
AcDbLine
 10
934.9999999999998
 20
3686.5
 30
0.0
 11
1163.5
 21
3686.5
 31
0.0
  0
ARC
  5
583
330
1F
100
AcDbEntity
  8
化粧台
  6
CONTINUOUS
 62
     2
100
AcDbCircle
 10
919.9999999999998
 20
3601.5
 30
0.0
 40
19.20000000000001
100
AcDbArc
 50
108.8435915236054
 51
71.15640847639474
  0
ARC
  5
584
330
1F
100
AcDbEntity
  8
化粧台
  6
CONTINUOUS
 62
     2
100
AcDbCircle
 10
919.9999999999998
 20
3601.5
 30
0.0
 40
26.90000000000001
100
AcDbArc
 50
122.1685825196834
 51
57.83141748031656
  0
LINE
  5
585
330
1F
100
AcDbEntity
  8
化粧台
  6
CONTINUOUS
 62
     6
100
AcDbLine
 10
844.9999999999998
 20
3647.5
 30
0.0
 11
904.9999999999998
 21
3647.5
 31
0.0
  0
LINE
  5
586
330
1F
100
AcDbEntity
  8
化粧台
  6
CONTINUOUS
 62
     6
100
AcDbLine
 10
934.9999999999998
 20
3647.5
 30
0.0
 11
994.9999999999998
 21
3647.5
 31
0.0
  0
LINE
  5
587
330
1F
100
AcDbEntity
  8
化粧台
  6
CONTINUOUS
 62
     6
100
AcDbLine
 10
855.4999999999998
 20
3836.5
 30
0.0
 11
855.4999999999998
 21
3844.5
 31
0.0
  0
LINE
  5
588
330
1F
100
AcDbEntity
  8
化粧台
  6
CONTINUOUS
 62
     6
100
AcDbLine
 10
834.4999999999998
 20
3844.5
 30
0.0
 11
855.4999999999998
 21
3844.5
 31
0.0
  0
LINE
  5
589
330
1F
100
AcDbEntity
  8
化粧台
  6
CONTINUOUS
 62
     6
100
AcDbLine
 10
834.4999999999998
 20
3836.5
 30
0.0
 11
834.4999999999998
 21
3844.5
 31
0.0
  0
LINE
  5
58A
330
1F
100
AcDbEntity
  8
化粧台
  6
CONTINUOUS
 62
     6
100
AcDbLine
 10
1005.5
 20
3836.5
 30
0.0
 11
1005.5
 21
3844.5
 31
0.0
  0
LINE
  5
58B
330
1F
100
AcDbEntity
  8
化粧台
  6
CONTINUOUS
 62
     6
100
AcDbLine
 10
984.4999999999998
 20
3844.5
 30
0.0
 11
1005.5
 21
3844.5
 31
0.0
  0
LINE
  5
58C
330
1F
100
AcDbEntity
  8
化粧台
  6
CONTINUOUS
 62
     6
100
AcDbLine
 10
984.4999999999998
 20
3836.5
 30
0.0
 11
984.4999999999998
 21
3844.5
 31
0.0
  0
LINE
  5
58D
330
1F
100
AcDbEntity
  8
化粧台
  6
CONTINUOUS
 62
     6
100
AcDbLine
 10
844.9999999999989
 20
3859.5
 30
0.0
 11
844.9999999999989
 21
3806.5
 31
0.0
  0
LINE
  5
58E
330
1F
100
AcDbEntity
  8
化粧台
  6
CONTINUOUS
 62
     6
100
AcDbLine
 10
994.9999999999989
 20
3859.5
 30
0.0
 11
994.9999999999989
 21
3806.5
 31
0.0
  0
LINE
  5
58F
330
1F
100
AcDbEntity
  8
化粧台
  6
EXLTYPE3
 62
     6
100
AcDbLine
 10
920.0000000000016
 20
3851.5
 30
0.0
 11
920.0000000000016
 21
3321.5
 31
0.0
  0
LINE
  5
590
330
1F
100
AcDbEntity
  8
化粧台
  6
CONTINUOUS
 62
     2
100
AcDbLine
 10
469.9999999999998
 20
3386.5
 30
0.0
 11
644.9999999999998
 21
3386.5
 31
0.0
  0
LINE
  5
591
330
1F
100
AcDbEntity
  8
化粧台
  6
CONTINUOUS
 62
     2
100
AcDbLine
 10
1195.0
 20
3386.5
 30
0.0
 11
1370.000000000001
 21
3386.5
 31
0.0
  0
LINE
  5
592
330
1F
100
AcDbEntity
  8
化粧台
  6
CONTINUOUS
 62
     6
100
AcDbLine
 10
587.9999999999998
 20
3836.500000000004
 30
0.0
 11
590.0000000000007
 21
3869.000000000004
 31
0.0
  0
LINE
  5
593
330
1F
100
AcDbEntity
  8
化粧台
  6
CONTINUOUS
 62
     6
100
AcDbLine
 10
590.0000000000007
 20
3869.000000000004
 30
0.0
 11
591.9999999999998
 21
3836.500000000004
 31
0.0
  0
LINE
  5
594
330
1F
100
AcDbEntity
  8
化粧台
  6
CONTINUOUS
 62
     6
100
AcDbLine
 10
590.0000000000007
 20
3821.5
 30
0.0
 11
590.0000000000007
 21
3879.0
 31
0.0
  0
LINE
  5
595
330
1F
100
AcDbEntity
  8
化粧台
  6
CONTINUOUS
 62
     6
100
AcDbLine
 10
1248.0
 20
3836.500000000004
 30
0.0
 11
1250.0
 21
3869.000000000004
 31
0.0
  0
LINE
  5
596
330
1F
100
AcDbEntity
  8
化粧台
  6
CONTINUOUS
 62
     6
100
AcDbLine
 10
1250.0
 20
3869.000000000004
 30
0.0
 11
1252.0
 21
3836.500000000004
 31
0.0
  0
LINE
  5
597
330
1F
100
AcDbEntity
  8
化粧台
  6
CONTINUOUS
 62
     6
100
AcDbLine
 10
1250.0
 20
3821.5
 30
0.0
 11
1250.0
 21
3879.0
 31
0.0
  0
LINE
  5
598
330
1F
100
AcDbEntity
  8
化粧台
  6
EXLTYPE4
 62
     6
100
AcDbLine
 10
332.9999999999998
 20
3836.5
 30
0.0
 11
1743.0
 21
3836.5
 31
0.0
  0
TEXT
  5
599
330
1F
100
AcDbEntity
  8
化粧台
  6
CONTINUOUS
 62
     2
100
AcDbText
 10
1644.000000536442
 20
3776.500003814697
 30
0.0
 40
59.99999618530273
  1
W.L.
 41
0.5571963512150641
  7
EXCADSTD
 72
     5
 11
1734.743400536442
 21
3776.500003814697
 31
0.0
100
AcDbText
  0
DIMENSION
  5
59A
330
1F
100
AcDbEntity
  8
化粧台
  6
CONTINUOUS
 62
     3
100
AcDbDimension
  2
*D30
 10
1195.0
 20
3231.0
 30
0.0
 11
919.9999999999998
 21
3266.249999910593
 31
0.0
 70
   160
  3
ISO-25
100
AcDbAlignedDimension
 13
644.9999999999998
 23
3346.5
 33
0.0
 14
1195.0
 24
3346.5
 34
0.0
100
AcDbRotatedDimension
1001
ACAD
1000
DSTYLE
1002
{
1070
   270
1070
     2
1070
     6
1000
EX_NORM
1070
     7
1000
EX_NORM
1070
    41
1040
44.99999618530273
1070
    42
1040
10.49999982118607
1070
    44
1040
15.0
1070
    73
1070
     0
1070
    74
1070
     0
1070
    75
1070
     0
1070
    76
1070
     0
1070
    77
1070
     1
1070
    78
1070
     8
1070
   140
1040
59.99999618530273
1070
   147
1040
0.0
1070
   173
1070
     1
1070
   176
1070
     3
1070
   177
1070
     3
1070
   178
1070
     2
1070
   271
1070
     2
1070
   277
1070
     2
1070
   279
1070
     2
1070
   280
1070
     0
1070
   287
1070
     5
1070
   340
1005
E7
1002
}
  0
DIMENSION
  5
5A7
330
1F
100
AcDbEntity
  8
化粧台
  6
CONTINUOUS
 62
     3
100
AcDbDimension
  2
*D31
 10
1370.0
 20
3135.0
 30
0.0
 11
919.9999999999999
 21
3170.249999910593
 31
0.0
 70
   160
  3
ISO-25
100
AcDbAlignedDimension
 13
469.9999999999998
 23
3386.5
 33
0.0
 14
1370.0
 24
3386.5
 34
0.0
100
AcDbRotatedDimension
1001
ACAD
1000
DSTYLE
1002
{
1070
   270
1070
     2
1070
     6
1000
EX_NORM
1070
     7
1000
EX_NORM
1070
    41
1040
44.99999618530273
1070
    42
1040
10.49999982118607
1070
    44
1040
15.0
1070
    73
1070
     0
1070
    74
1070
     0
1070
    75
1070
     0
1070
    76
1070
     0
1070
    77
1070
     1
1070
    78
1070
     8
1070
   140
1040
59.99999618530273
1070
   147
1040
0.0
1070
   173
1070
     1
1070
   176
1070
     3
1070
   177
1070
     3
1070
   178
1070
     2
1070
   271
1070
     2
1070
   277
1070
     2
1070
   279
1070
     2
1070
   280
1070
     0
1070
   287
1070
     5
1070
   340
1005
E7
1002
}
  0
DIMENSION
  5
5B4
330
1F
100
AcDbEntity
  8
化粧台
  6
CONTINUOUS
 62
     3
100
AcDbDimension
  2
*D32
 10
1476.0
 20
3386.5
 30
0.0
 11
1440.750000089407
 21
3611.5
 31
0.0
 70
   160
  3
ISO-25
100
AcDbAlignedDimension
 13
1370.000000000002
 23
3836.5
 33
0.0
 14
1370.000000000002
 24
3386.5
 34
0.0
 50
90.0
100
AcDbRotatedDimension
1001
ACAD
1000
DSTYLE
1002
{
1070
   270
1070
     2
1070
     6
1000
EX_NORM
1070
     7
1000
EX_NORM
1070
    41
1040
44.99999618530273
1070
    42
1040
10.49999982118607
1070
    44
1040
15.0
1070
    73
1070
     0
1070
    74
1070
     0
1070
    75
1070
     1
1070
    76
1070
     0
1070
    77
1070
     1
1070
    78
1070
     8
1070
   140
1040
59.99999618530273
1070
   147
1040
0.0
1070
   173
1070
     1
1070
   176
1070
     3
1070
   177
1070
     3
1070
   178
1070
     2
1070
   271
1070
     2
1070
   277
1070
     2
1070
   279
1070
     2
1070
   280
1070
     0
1070
   287
1070
     5
1070
   340
1005
E7
1002
}
  0
DIMENSION
  5
5C0
330
1F
100
AcDbEntity
  8
化粧台
  6
CONTINUOUS
 62
     3
100
AcDbDimension
  2
*D33
 10
1561.5
 20
3836.5
 30
0.0
 11
1526.250000089407
 21
3586.5
 31
0.0
 70
   160
  3
ISO-25
100
AcDbAlignedDimension
 13
1185.0
 23
3336.5
 33
0.0
 14
1370.0
 24
3836.5
 34
0.0
 50
90.0
100
AcDbRotatedDimension
1001
ACAD
1000
DSTYLE
1002
{
1070
   270
1070
     2
1070
     6
1000
EX_NORM
1070
     7
1000
EX_NORM
1070
    41
1040
44.99999618530273
1070
    42
1040
10.49999982118607
1070
    44
1040
15.0
1070
    73
1070
     0
1070
    74
1070
     0
1070
    75
1070
     0
1070
    76
1070
     1
1070
    77
1070
     1
1070
    78
1070
     8
1070
   140
1040
59.99999618530273
1070
   147
1040
0.0
1070
   173
1070
     1
1070
   176
1070
     3
1070
   177
1070
     3
1070
   178
1070
     2
1070
   271
1070
     2
1070
   277
1070
     2
1070
   279
1070
     2
1070
   280
1070
     0
1070
   287
1070
     5
1070
   340
1005
E7
1002
}
  0
DIMENSION
  5
5CC
330
1F
100
AcDbEntity
  8
化粧台
  6
CONTINUOUS
 62
     3
100
AcDbDimension
  2
*D34
 10
1250.0
 20
3924.0
 30
0.0
 11
919.9999999999998
 21
3959.249999910593
 31
0.0
 70
   160
  1
660（壁固定）
  3
ISO-25
100
AcDbAlignedDimension
 13
589.9999999999998
 23
3869.0
 33
0.0
 14
1250.0
 24
3869.0
 34
0.0
100
AcDbRotatedDimension
1001
ACAD
1000
DSTYLE
1002
{
1070
   270
1070
     2
1070
     6
1000
EX_NORM
1070
     7
1000
EX_NORM
1070
    41
1040
44.99999618530273
1070
    42
1040
10.49999982118607
1070
    44
1040
15.0
1070
    73
1070
     0
1070
    74
1070
     0
1070
    75
1070
     0
1070
    76
1070
     0
1070
    77
1070
     1
1070
    78
1070
     8
1070
   140
1040
59.99999618530273
1070
   147
1040
0.0
1070
   173
1070
     1
1070
   176
1070
     3
1070
   177
1070
     3
1070
   178
1070
     2
1070
   271
1070
     2
1070
   277
1070
     2
1070
   279
1070
     2
1070
   280
1070
     0
1070
   287
1070
     5
1070
   340
1005
E7
1002
}
  0
LINE
  5
5D9
330
1F
100
AcDbEntity
  8
化粧台
  6
EXLTYPE4
 62
     6
100
AcDbLine
 10
2550.0
 20
1032.5
 30
0.0
 11
2549.999999999999
 21
3090.0
 31
0.0
  0
TEXT
  5
5DA
330
1F
100
AcDbEntity
  8
化粧台
  6
CONTINUOUS
 62
     2
100
AcDbText
 10
2550.0
 20
2974.000000536442
 30
0.0
 40
59.99999618530273
  1
W.L.
 50
90.0
 41
0.5571963512150626
  7
EXCADSTD
 72
     5
 11
2550.0
 21
3064.743400536442
 31
0.0
100
AcDbText
  0
DIMENSION
  5
5DB
330
1F
100
AcDbEntity
  8
鏡台
  6
CONTINUOUS
 62
     3
100
AcDbDimension
  2
*D35
 10
1145.0
 20
2922.5
 30
0.0
 11
920.0
 21
2957.749999910593
 31
0.0
 70
   160
  3
ISO-25
100
AcDbAlignedDimension
 13
695.0
 23
2781.300000000001
 33
0.0
 14
1145.0
 24
2781.300000000001
 34
0.0
100
AcDbRotatedDimension
1001
ACAD
1000
DSTYLE
1002
{
1070
   270
1070
     2
1070
     6
1000
EX_NORM
1070
     7
1000
EX_NORM
1070
    41
1040
44.99999618530273
1070
    42
1040
10.49999982118607
1070
    44
1040
15.0
1070
    73
1070
     0
1070
    74
1070
     0
1070
    75
1070
     0
1070
    76
1070
     0
1070
    77
1070
     1
1070
    78
1070
     8
1070
   140
1040
59.99999618530273
1070
   147
1040
0.0
1070
   173
1070
     1
1070
   176
1070
     3
1070
   177
1070
     3
1070
   178
1070
     2
1070
   271
1070
     2
1070
   277
1070
     2
1070
   279
1070
     2
1070
   280
1070
     0
1070
   287
1070
     5
1070
   340
1005
E7
1002
}
  0
DIMENSION
  5
5E8
330
1F
100
AcDbEntity
  8
鏡台
  6
CONTINUOUS
 62
     3
100
AcDbDimension
  2
*D36
 10
1295.0
 20
2782.5
 30
0.0
 11
1259.750000089408
 21
2531.3
 31
0.0
 70
   160
  1
503
  3
ISO-25
100
AcDbAlignedDimension
 13
1143.5
 23
2280.1
 33
0.0
 14
1143.5
 24
2782.5
 34
0.0
 50
90.0
100
AcDbRotatedDimension
1001
ACAD
1000
DSTYLE
1002
{
1070
   270
1070
     2
1070
     6
1000
EX_NORM
1070
     7
1000
EX_NORM
1070
    41
1040
44.99999618530273
1070
    42
1040
10.49999982118607
1070
    44
1040
15.0
1070
    73
1070
     0
1070
    74
1070
     0
1070
    75
1070
     0
1070
    76
1070
     0
1070
    77
1070
     1
1070
    78
1070
     8
1070
   140
1040
59.99999618530273
1070
   147
1040
0.0
1070
   173
1070
     1
1070
   176
1070
     3
1070
   177
1070
     3
1070
   178
1070
     2
1070
   271
1070
     2
1070
   277
1070
     2
1070
   279
1070
     2
1070
   280
1070
     0
1070
   287
1070
     5
1070
   340
1005
E7
1002
}
  0
DIMENSION
  5
5F5
330
1F
100
AcDbEntity
  8
鏡台
  6
CONTINUOUS
 62
     3
100
AcDbDimension
  2
*D37
 10
1070.0
 20
2842.5
 30
0.0
 11
920.0000000000005
 21
2877.749999910593
 31
0.0
 70
   160
  1
<>（壁固定）
  3
ISO-25
100
AcDbAlignedDimension
 13
770.0000000000002
 23
2734.300000000001
 33
0.0
 14
1070.0
 24
2734.300000000001
 34
0.0
100
AcDbRotatedDimension
1001
ACAD
1000
DSTYLE
1002
{
1070
   270
1070
     2
1070
     6
1000
EX_NORM
1070
     7
1000
EX_NORM
1070
    41
1040
44.99999618530273
1070
    42
1040
10.49999982118607
1070
    44
1040
15.0
1070
    73
1070
     0
1070
    74
1070
     0
1070
    75
1070
     0
1070
    76
1070
     0
1070
    77
1070
     1
1070
    78
1070
     8
1070
   140
1040
59.99999618530273
1070
   147
1040
0.0
1070
   173
1070
     1
1070
   176
1070
     3
1070
   177
1070
     3
1070
   178
1070
     2
1070
   271
1070
     2
1070
   277
1070
     2
1070
   279
1070
     2
1070
   280
1070
     0
1070
   287
1070
     5
1070
   340
1005
E7
1002
}
  0
DIMENSION
  5
602
330
1F
100
AcDbEntity
  8
鏡台
  6
CONTINUOUS
 62
     3
100
AcDbDimension
  2
*D38
 10
2550.0
 20
2842.5
 30
0.0
 11
2489.4
 21
2877.749999910593
 31
0.0
 70
   160
  1
122
  3
ISO-25
100
AcDbAlignedDimension
 13
2428.8
 23
2782.5
 33
0.0
 14
2550.0
 24
2776.300000000001
 34
0.0
100
AcDbRotatedDimension
1001
ACAD
1000
DSTYLE
1002
{
1070
   270
1070
     2
1070
     6
1000
EX_NORM
1070
     7
1000
EX_NORM
1070
    41
1040
44.99999618530273
1070
    42
1040
10.49999982118607
1070
    44
1040
15.0
1070
    73
1070
     0
1070
    74
1070
     0
1070
    75
1070
     0
1070
    76
1070
     0
1070
    77
1070
     1
1070
    78
1070
     8
1070
   140
1040
59.99999618530273
1070
   147
1040
0.0
1070
   173
1070
     1
1070
   176
1070
     3
1070
   177
1070
     3
1070
   178
1070
     2
1070
   271
1070
     2
1070
   277
1070
     2
1070
   279
1070
     2
1070
   280
1070
     0
1070
   287
1070
     5
1070
   340
1005
E7
1002
}
  0
DIMENSION
  5
60F
330
1F
100
AcDbEntity
  8
鏡台
  6
CONTINUOUS
 62
     3
100
AcDbDimension
  2
*D39
 10
2896.499999999999
 20
2726.300000000001
 30
0.0
 11
2861.250000089406
 21
2536.299999999996
 31
0.0
 70
   160
  1
<>（壁固定）
  3
ISO-25
100
AcDbAlignedDimension
 13
2583.200000000001
 23
2346.300000000001
 33
0.0
 14
2583.200000000001
 24
2726.300000000001
 34
0.0
 50
90.0
100
AcDbRotatedDimension
1001
ACAD
1000
DSTYLE
1002
{
1070
   270
1070
     2
1070
     6
1000
EX_NORM
1070
     7
1000
EX_NORM
1070
    41
1040
44.99999618530273
1070
    42
1040
10.49999982118607
1070
    44
1040
15.0
1070
    73
1070
     0
1070
    74
1070
     0
1070
    75
1070
     0
1070
    76
1070
     0
1070
    77
1070
     1
1070
    78
1070
     8
1070
   140
1040
59.99999618530273
1070
   147
1040
0.0
1070
   173
1070
     1
1070
   176
1070
     3
1070
   177
1070
     3
1070
   178
1070
     2
1070
   271
1070
     2
1070
   277
1070
     2
1070
   279
1070
     2
1070
   280
1070
     0
1070
   287
1070
     5
1070
   340
1005
E7
1002
}
  0
DIMENSION
  5
61C
330
1F
100
AcDbEntity
  8
鏡台
  6
CONTINUOUS
 62
     3
100
AcDbDimension
  2
*D40
 10
2896.499999999998
 20
2782.5
 30
0.0
 11
2861.250000089403
 21
2879.999999999997
 31
0.0
 70
   160
  1
56
  3
ISO-25
100
AcDbAlignedDimension
 13
2583.200000000001
 23
2726.300000000001
 33
0.0
 14
2448.8
 24
2782.5
 34
0.0
 50
90.0
100
AcDbRotatedDimension
1001
ACAD
1000
DSTYLE
1002
{
1070
   270
1070
     2
1070
     6
1000
EX_NORM
1070
     7
1000
EX_NORM
1070
    41
1040
44.99999618530273
1070
    42
1040
10.49999982118607
1070
    44
1040
15.0
1070
    73
1070
     0
1070
    74
1070
     0
1070
    75
1070
     0
1070
    76
1070
     0
1070
    77
1070
     1
1070
    78
1070
     8
1070
   140
1040
59.99999618530273
1070
   147
1040
0.0
1070
   173
1070
     1
1070
   176
1070
     3
1070
   177
1070
     3
1070
   178
1070
     2
1070
   271
1070
     2
1070
   277
1070
     2
1070
   279
1070
     2
1070
   280
1070
     2
1070
   287
1070
     5
1070
   340
1005
E7
1002
}
  0
LINE
  5
62B
330
1F
100
AcDbEntity
  8
鏡台
  6
CONTINUOUS
 62
     2
100
AcDbLine
 10
2433.0
 20
2781.300000000001
 30
0.0
 11
2448.0
 21
2781.300000000001
 31
0.0
  0
LINE
  5
62C
330
1F
100
AcDbEntity
  8
鏡台
  6
CONTINUOUS
 62
     2
100
AcDbLine
 10
2433.0
 20
2281.300000000001
 30
0.0
 11
2448.0
 21
2281.300000000001
 31
0.0
  0
LINE
  5
62D
330
1F
100
AcDbEntity
  8
鏡台
  6
CONTINUOUS
 62
     2
100
AcDbLine
 10
2430.0
 20
2780.800000000001
 30
0.0
 11
2430.0
 21
2281.800000000001
 31
0.0
  0
LINE
  5
62E
330
1F
100
AcDbEntity
  8
鏡台
  6
CONTINUOUS
 62
     2
100
AcDbLine
 10
2430.0
 20
2780.800000000001
 30
0.0
 11
2433.0
 21
2780.800000000001
 31
0.0
  0
LINE
  5
62F
330
1F
100
AcDbEntity
  8
鏡台
  6
CONTINUOUS
 62
     2
100
AcDbLine
 10
2430.0
 20
2281.800000000001
 30
0.0
 11
2433.0
 21
2281.800000000001
 31
0.0
  0
LINE
  5
630
330
1F
100
AcDbEntity
  8
鏡台
  6
CONTINUOUS
 62
     2
100
AcDbLine
 10
2433.0
 20
2781.300000000001
 30
0.0
 11
2433.0
 21
2281.300000000001
 31
0.0
  0
LINE
  5
631
330
1F
100
AcDbEntity
  8
鏡台
  6
CONTINUOUS
 62
     4
100
AcDbLine
 10
2428.800000000003
 20
2782.5
 30
0.0
 11
2428.800000000003
 21
2772.5
 31
0.0
  0
LINE
  5
632
330
1F
100
AcDbEntity
  8
鏡台
  6
CONTINUOUS
 62
     4
100
AcDbLine
 10
2428.8
 20
2772.5
 30
0.0
 11
2430.0
 21
2772.5
 31
0.0
  0
LINE
  5
633
330
1F
100
AcDbEntity
  8
鏡台
  6
CONTINUOUS
 62
     4
100
AcDbLine
 10
2430.0
 20
2772.5
 30
0.0
 11
2430.0
 21
2781.300000000001
 31
0.0
  0
LINE
  5
634
330
1F
100
AcDbEntity
  8
鏡台
  6
CONTINUOUS
 62
     4
100
AcDbLine
 10
2428.8
 20
2290.100000000001
 30
0.0
 11
2430.0
 21
2290.100000000001
 31
0.0
  0
LINE
  5
635
330
1F
100
AcDbEntity
  8
鏡台
  6
CONTINUOUS
 62
     4
100
AcDbLine
 10
2428.800000000003
 20
2280.100000000001
 30
0.0
 11
2428.800000000003
 21
2290.100000000001
 31
0.0
  0
LINE
  5
636
330
1F
100
AcDbEntity
  8
鏡台
  6
CONTINUOUS
 62
     4
100
AcDbLine
 10
2430.0
 20
2290.100000000001
 30
0.0
 11
2430.0
 21
2281.300000000001
 31
0.0
  0
LINE
  5
637
330
1F
100
AcDbEntity
  8
鏡台
  6
CONTINUOUS
 62
     4
100
AcDbLine
 10
2448.8
 20
2782.5
 30
0.0
 11
2448.8
 21
2781.300000000001
 31
0.0
  0
LINE
  5
638
330
1F
100
AcDbEntity
  8
鏡台
  6
CONTINUOUS
 62
     4
100
AcDbLine
 10
2430.0
 20
2781.300000000001
 30
0.0
 11
2448.8
 21
2781.300000000001
 31
0.0
  0
LINE
  5
639
330
1F
100
AcDbEntity
  8
鏡台
  6
CONTINUOUS
 62
     4
100
AcDbLine
 10
2428.800000000003
 20
2782.5
 30
0.0
 11
2448.8
 21
2782.5
 31
0.0
  0
LINE
  5
63A
330
1F
100
AcDbEntity
  8
鏡台
  6
CONTINUOUS
 62
     4
100
AcDbLine
 10
2448.8
 20
2280.100000000001
 30
0.0
 11
2448.8
 21
2281.300000000001
 31
0.0
  0
LINE
  5
63B
330
1F
100
AcDbEntity
  8
鏡台
  6
CONTINUOUS
 62
     4
100
AcDbLine
 10
2428.800000000003
 20
2280.100000000001
 30
0.0
 11
2448.8
 21
2280.100000000001
 31
0.0
  0
LINE
  5
63C
330
1F
100
AcDbEntity
  8
鏡台
  6
CONTINUOUS
 62
     4
100
AcDbLine
 10
2430.0
 20
2281.300000000001
 30
0.0
 11
2448.8
 21
2281.300000000001
 31
0.0
  0
LINE
  5
63D
330
1F
100
AcDbEntity
  8
鏡台
  6
CONTINUOUS
 62
     2
100
AcDbLine
 10
2450.0
 20
2776.300000000001
 30
0.0
 11
2450.0
 21
2296.300000000001
 31
0.0
  0
LINE
  5
63E
330
1F
100
AcDbEntity
  8
鏡台
  6
CONTINUOUS
 62
     2
100
AcDbLine
 10
2550.0
 20
2776.300000000001
 30
0.0
 11
2550.0
 21
2296.300000000001
 31
0.0
  0
LINE
  5
63F
330
1F
100
AcDbEntity
  8
鏡台
  6
CONTINUOUS
 62
     2
100
AcDbLine
 10
2450.0
 20
2776.300000000001
 30
0.0
 11
2550.0
 21
2776.300000000001
 31
0.0
  0
LINE
  5
640
330
1F
100
AcDbEntity
  8
鏡台
  6
CONTINUOUS
 62
     2
100
AcDbLine
 10
2450.0
 20
2296.300000000001
 30
0.0
 11
2550.0
 21
2296.300000000001
 31
0.0
  0
LINE
  5
641
330
1F
100
AcDbEntity
  8
鏡台
  6
CONTINUOUS
 62
     2
100
AcDbLine
 10
2448.0
 20
2781.300000000001
 30
0.0
 11
2448.0
 21
2281.300000000001
 31
0.0
  0
LINE
  5
642
330
1F
100
AcDbEntity
  8
鏡台
  6
EXLTYPE3
 62
     6
100
AcDbLine
 10
2590.79999999984
 20
2726.3
 30
0.0
 11
2548.04999999984
 21
2726.3
 31
0.0
  0
ARC
  5
643
330
1F
100
AcDbEntity
  8
鏡台
  6
CONTINUOUS
 62
     6
100
AcDbCircle
 10
2576.661651584699
 20
2712.8
 30
0.0
 40
15.00000000000001
100
AcDbArc
 50
64.15806723683205
 51
90.00000000000001
  0
ARC
  5
644
330
1F
100
AcDbEntity
  8
鏡台
  6
CONTINUOUS
 62
     6
100
AcDbCircle
 10
2576.661651584729
 20
2739.8
 30
0.0
 40
15.00000000000001
100
AcDbArc
 50
270.0000000000002
 51
295.8419327630793
  0
LINE
  5
645
330
1F
100
AcDbEntity
  8
鏡台
  6
CONTINUOUS
 62
     6
100
AcDbLine
 10
2549.999999999999
 20
2724.8
 30
0.0
 11
2576.661651584729
 21
2724.8
 31
0.0
  0
LINE
  5
646
330
1F
100
AcDbEntity
  8
鏡台
  6
CONTINUOUS
 62
     6
100
AcDbLine
 10
2549.999999999999
 20
2727.8
 30
0.0
 11
2576.661651584699
 21
2727.8
 31
0.0
  0
LINE
  5
647
330
1F
100
AcDbEntity
  8
鏡台
  6
EXLTYPE3
 62
     6
100
AcDbLine
 10
2590.79999999984
 20
2346.3
 30
0.0
 11
2548.04999999984
 21
2346.300000000001
 31
0.0
  0
ARC
  5
648
330
1F
100
AcDbEntity
  8
鏡台
  6
CONTINUOUS
 62
     6
100
AcDbCircle
 10
2576.661651584699
 20
2332.8
 30
0.0
 40
15.00000000000001
100
AcDbArc
 50
64.15806723683205
 51
90.00000000000001
  0
ARC
  5
649
330
1F
100
AcDbEntity
  8
鏡台
  6
CONTINUOUS
 62
     6
100
AcDbCircle
 10
2576.661651584729
 20
2359.8
 30
0.0
 40
15.00000000000001
100
AcDbArc
 50
270.0000000000002
 51
295.8419327630793
  0
LINE
  5
64A
330
1F
100
AcDbEntity
  8
鏡台
  6
CONTINUOUS
 62
     6
100
AcDbLine
 10
2549.999999999999
 20
2344.800000000001
 30
0.0
 11
2576.661651584729
 21
2344.8
 31
0.0
  0
LINE
  5
64B
330
1F
100
AcDbEntity
  8
鏡台
  6
CONTINUOUS
 62
     6
100
AcDbLine
 10
2549.999999999999
 20
2347.800000000001
 30
0.0
 11
2576.661651584699
 21
2347.8
 31
0.0
  0
ARC
  5
64C
330
1F
100
AcDbEntity
  8
鏡台
  6
EXLTYPE2
 62
     6
100
AcDbCircle
 10
2469.75
 20
2561.55
 30
0.0
 40
1.250000000000569
100
AcDbArc
 50
180.0
 51
0.0
  0
ARC
  5
64D
330
1F
100
AcDbEntity
  8
鏡台
  6
EXLTYPE2
 62
     6
100
AcDbCircle
 10
2525.75
 20
2557.05
 30
0.0
 40
1.249999999999631
100
AcDbArc
 50
270.0000000000002
 51
90.00000000000001
  0
LINE
  5
64E
330
1F
100
AcDbEntity
  8
鏡台
  6
EXLTYPE2
 62
     6
100
AcDbLine
 10
2456.5
 20
2593.3
 30
0.0
 11
2456.5
 21
2570.8
 31
0.0
  0
LINE
  5
64F
330
1F
100
AcDbEntity
  8
鏡台
  6
EXLTYPE2
 62
     6
100
AcDbLine
 10
2454.0
 20
2593.3
 30
0.0
 11
2456.5
 21
2593.3
 31
0.0
  0
LINE
  5
650
330
1F
100
AcDbEntity
  8
鏡台
  6
EXLTYPE2
 62
     6
100
AcDbLine
 10
2454.0
 20
2593.3
 30
0.0
 11
2454.0
 21
2553.300000000001
 31
0.0
  0
LINE
  5
651
330
1F
100
AcDbEntity
  8
鏡台
  6
EXLTYPE2
 62
     6
100
AcDbLine
 10
2454.0
 20
2553.3
 30
0.0
 11
2456.5
 21
2553.3
 31
0.0
  0
LINE
  5
652
330
1F
100
AcDbEntity
  8
鏡台
  6
EXLTYPE2
 62
     6
100
AcDbLine
 10
2456.5
 20
2568.3
 30
0.0
 11
2456.5
 21
2553.3
 31
0.0
  0
LINE
  5
653
330
1F
100
AcDbEntity
  8
鏡台
  6
EXLTYPE2
 62
     6
100
AcDbLine
 10
2456.5
 20
2568.3
 30
0.0
 11
2468.5
 21
2568.3
 31
0.0
  0
LINE
  5
654
330
1F
100
AcDbEntity
  8
鏡台
  6
EXLTYPE2
 62
     6
100
AcDbLine
 10
2468.5
 20
2568.3
 30
0.0
 11
2468.5
 21
2561.550000000001
 31
0.0
  0
LINE
  5
655
330
1F
100
AcDbEntity
  8
鏡台
  6
EXLTYPE2
 62
     6
100
AcDbLine
 10
2471.0
 20
2568.3
 30
0.0
 11
2471.0
 21
2561.550000000001
 31
0.0
  0
LINE
  5
656
330
1F
100
AcDbEntity
  8
鏡台
  6
EXLTYPE2
 62
     6
100
AcDbLine
 10
2471.0
 20
2568.3
 30
0.0
 11
2516.5
 21
2568.3
 31
0.0
  0
LINE
  5
657
330
1F
100
AcDbEntity
  8
鏡台
  6
EXLTYPE2
 62
     6
100
AcDbLine
 10
2456.5
 20
2570.8
 30
0.0
 11
2532.0
 21
2570.8
 31
0.0
  0
LINE
  5
658
330
1F
100
AcDbEntity
  8
鏡台
  6
EXLTYPE2
 62
     6
100
AcDbLine
 10
2532.0
 20
2570.800000000001
 30
0.0
 11
2532.0
 21
2568.299999999999
 31
0.0
  0
LINE
  5
659
330
1F
100
AcDbEntity
  8
鏡台
  6
EXLTYPE2
 62
     6
100
AcDbLine
 10
2519.0
 20
2568.299999999999
 30
0.0
 11
2532.0
 21
2568.299999999999
 31
0.0
  0
LINE
  5
65A
330
1F
100
AcDbEntity
  8
鏡台
  6
EXLTYPE2
 62
     6
100
AcDbLine
 10
2519.0
 20
2568.299999999999
 30
0.0
 11
2519.0
 21
2558.299999999999
 31
0.0
  0
LINE
  5
65B
330
1F
100
AcDbEntity
  8
鏡台
  6
EXLTYPE2
 62
     6
100
AcDbLine
 10
2519.0
 20
2558.299999999999
 30
0.0
 11
2525.75
 21
2558.3
 31
0.0
  0
LINE
  5
65C
330
1F
100
AcDbEntity
  8
鏡台
  6
EXLTYPE2
 62
     6
100
AcDbLine
 10
2516.5
 20
2568.3
 30
0.0
 11
2516.5
 21
2555.8
 31
0.0
  0
LINE
  5
65D
330
1F
100
AcDbEntity
  8
鏡台
  6
EXLTYPE2
 62
     6
100
AcDbLine
 10
2516.5
 20
2555.8
 30
0.0
 11
2525.75
 21
2555.799999999999
 31
0.0
  0
ARC
  5
65E
330
1F
100
AcDbEntity
  8
鏡台
  6
EXLTYPE2
 62
     6
100
AcDbCircle
 10
2469.75
 20
2321.55
 30
0.0
 40
1.250000000000569
100
AcDbArc
 50
180.0
 51
0.0
  0
ARC
  5
65F
330
1F
100
AcDbEntity
  8
鏡台
  6
EXLTYPE2
 62
     6
100
AcDbCircle
 10
2525.75
 20
2317.05
 30
0.0
 40
1.249999999999631
100
AcDbArc
 50
270.0000000000002
 51
90.00000000000001
  0
LINE
  5
660
330
1F
100
AcDbEntity
  8
鏡台
  6
EXLTYPE2
 62
     6
100
AcDbLine
 10
2456.5
 20
2353.3
 30
0.0
 11
2456.5
 21
2330.8
 31
0.0
  0
LINE
  5
661
330
1F
100
AcDbEntity
  8
鏡台
  6
EXLTYPE2
 62
     6
100
AcDbLine
 10
2454.0
 20
2353.3
 30
0.0
 11
2456.5
 21
2353.3
 31
0.0
  0
LINE
  5
662
330
1F
100
AcDbEntity
  8
鏡台
  6
EXLTYPE2
 62
     6
100
AcDbLine
 10
2454.0
 20
2353.3
 30
0.0
 11
2454.0
 21
2313.300000000001
 31
0.0
  0
LINE
  5
663
330
1F
100
AcDbEntity
  8
鏡台
  6
EXLTYPE2
 62
     6
100
AcDbLine
 10
2454.0
 20
2313.3
 30
0.0
 11
2456.5
 21
2313.3
 31
0.0
  0
LINE
  5
664
330
1F
100
AcDbEntity
  8
鏡台
  6
EXLTYPE2
 62
     6
100
AcDbLine
 10
2456.5
 20
2328.3
 30
0.0
 11
2456.5
 21
2313.3
 31
0.0
  0
LINE
  5
665
330
1F
100
AcDbEntity
  8
鏡台
  6
EXLTYPE2
 62
     6
100
AcDbLine
 10
2456.5
 20
2328.3
 30
0.0
 11
2468.5
 21
2328.3
 31
0.0
  0
LINE
  5
666
330
1F
100
AcDbEntity
  8
鏡台
  6
EXLTYPE2
 62
     6
100
AcDbLine
 10
2468.5
 20
2328.3
 30
0.0
 11
2468.5
 21
2321.550000000001
 31
0.0
  0
LINE
  5
667
330
1F
100
AcDbEntity
  8
鏡台
  6
EXLTYPE2
 62
     6
100
AcDbLine
 10
2471.0
 20
2328.3
 30
0.0
 11
2471.0
 21
2321.550000000001
 31
0.0
  0
LINE
  5
668
330
1F
100
AcDbEntity
  8
鏡台
  6
EXLTYPE2
 62
     6
100
AcDbLine
 10
2471.0
 20
2328.3
 30
0.0
 11
2516.5
 21
2328.3
 31
0.0
  0
LINE
  5
669
330
1F
100
AcDbEntity
  8
鏡台
  6
EXLTYPE2
 62
     6
100
AcDbLine
 10
2456.5
 20
2330.8
 30
0.0
 11
2532.0
 21
2330.8
 31
0.0
  0
LINE
  5
66A
330
1F
100
AcDbEntity
  8
鏡台
  6
EXLTYPE2
 62
     6
100
AcDbLine
 10
2532.0
 20
2330.800000000001
 30
0.0
 11
2532.0
 21
2328.299999999999
 31
0.0
  0
LINE
  5
66B
330
1F
100
AcDbEntity
  8
鏡台
  6
EXLTYPE2
 62
     6
100
AcDbLine
 10
2519.0
 20
2328.299999999999
 30
0.0
 11
2532.0
 21
2328.299999999999
 31
0.0
  0
LINE
  5
66C
330
1F
100
AcDbEntity
  8
鏡台
  6
EXLTYPE2
 62
     6
100
AcDbLine
 10
2519.0
 20
2328.299999999999
 30
0.0
 11
2519.0
 21
2318.299999999999
 31
0.0
  0
LINE
  5
66D
330
1F
100
AcDbEntity
  8
鏡台
  6
EXLTYPE2
 62
     6
100
AcDbLine
 10
2519.0
 20
2318.299999999999
 30
0.0
 11
2525.75
 21
2318.3
 31
0.0
  0
LINE
  5
66E
330
1F
100
AcDbEntity
  8
鏡台
  6
EXLTYPE2
 62
     6
100
AcDbLine
 10
2516.5
 20
2328.3
 30
0.0
 11
2516.5
 21
2315.8
 31
0.0
  0
LINE
  5
66F
330
1F
100
AcDbEntity
  8
鏡台
  6
EXLTYPE2
 62
     6
100
AcDbLine
 10
2516.5
 20
2315.8
 30
0.0
 11
2525.75
 21
2315.799999999999
 31
0.0
  0
LINE
  5
670
330
1F
100
AcDbEntity
  8
鏡台
  6
CONTINUOUS
 62
     2
100
AcDbLine
 10
695.0000000000005
 20
2781.300000000001
 30
0.0
 11
695.0000000000005
 21
2281.300000000001
 31
0.0
  0
LINE
  5
671
330
1F
100
AcDbEntity
  8
鏡台
  6
CONTINUOUS
 62
     2
100
AcDbLine
 10
695.0000000000005
 20
2781.300000000001
 30
0.0
 11
696.5000000000005
 21
2781.300000000001
 31
0.0
  0
LINE
  5
672
330
1F
100
AcDbEntity
  8
鏡台
  6
CONTINUOUS
 62
     2
100
AcDbLine
 10
695.0000000000005
 20
2281.300000000001
 30
0.0
 11
696.5000000000005
 21
2281.300000000001
 31
0.0
  0
LINE
  5
673
330
1F
100
AcDbEntity
  8
鏡台
  6
CONTINUOUS
 62
     4
100
AcDbLine
 10
696.5000000000005
 20
2290.100000000001
 30
0.0
 11
696.5000000000005
 21
2280.100000000001
 31
0.0
  0
LINE
  5
674
330
1F
100
AcDbEntity
  8
鏡台
  6
CONTINUOUS
 62
     4
100
AcDbLine
 10
696.5000000000005
 20
2772.5
 30
0.0
 11
696.5000000000005
 21
2782.5
 31
0.0
  0
LINE
  5
675
330
1F
100
AcDbEntity
  8
鏡台
  6
CONTINUOUS
 62
     2
100
AcDbLine
 10
1143.5
 20
2781.300000000001
 30
0.0
 11
1145.0
 21
2781.300000000001
 31
0.0
  0
LINE
  5
676
330
1F
100
AcDbEntity
  8
鏡台
  6
CONTINUOUS
 62
     4
100
AcDbLine
 10
1143.5
 20
2772.5
 30
0.0
 11
1143.5
 21
2782.5
 31
0.0
  0
LINE
  5
677
330
1F
100
AcDbEntity
  8
鏡台
  6
CONTINUOUS
 62
     4
100
AcDbLine
 10
1143.5
 20
2782.5
 30
0.0
 11
696.5000000000005
 21
2782.5
 31
0.0
  0
LINE
  5
678
330
1F
100
AcDbEntity
  8
鏡台
  6
CONTINUOUS
 62
     4
100
AcDbLine
 10
1143.5
 20
2772.5
 30
0.0
 11
696.5000000000005
 21
2772.5
 31
0.0
  0
LINE
  5
679
330
1F
100
AcDbEntity
  8
鏡台
  6
EXLTYPE3
 62
     6
100
AcDbLine
 10
1145.0
 20
2781.300000000001
 30
0.0
 11
695.0000000000005
 21
2531.300000000001
 31
0.0
  0
LINE
  5
67A
330
1F
100
AcDbEntity
  8
鏡台
  6
CONTINUOUS
 62
     6
100
AcDbLine
 10
752.0000000000005
 20
2346.3
 30
0.0
 11
788.0000000000005
 21
2346.3
 31
0.0
  0
LINE
  5
67B
330
1F
100
AcDbEntity
  8
鏡台
  6
CONTINUOUS
 62
     6
100
AcDbLine
 10
770.0000000000005
 20
2328.300000000001
 30
0.0
 11
770.0000000000005
 21
2364.300000000001
 31
0.0
  0
CIRCLE
  5
67C
330
1F
100
AcDbEntity
  8
鏡台
  6
EXLTYPE2
 62
     6
100
AcDbCircle
 10
770.0000000000005
 20
2346.300000000001
 30
0.0
 40
2.5
  0
CIRCLE
  5
67D
330
1F
100
AcDbEntity
  8
鏡台
  6
EXLTYPE2
 62
     6
100
AcDbCircle
 10
770.0000000000005
 20
2346.300000000001
 30
0.0
 40
8.0
  0
LINE
  5
67E
330
1F
100
AcDbEntity
  8
鏡台
  6
CONTINUOUS
 62
     6
100
AcDbLine
 10
1052.0
 20
2346.3
 30
0.0
 11
1088.0
 21
2346.3
 31
0.0
  0
LINE
  5
67F
330
1F
100
AcDbEntity
  8
鏡台
  6
CONTINUOUS
 62
     6
100
AcDbLine
 10
1070.0
 20
2328.300000000001
 30
0.0
 11
1070.0
 21
2364.300000000001
 31
0.0
  0
CIRCLE
  5
680
330
1F
100
AcDbEntity
  8
鏡台
  6
EXLTYPE2
 62
     6
100
AcDbCircle
 10
1070.0
 20
2346.300000000001
 30
0.0
 40
2.5
  0
CIRCLE
  5
681
330
1F
100
AcDbEntity
  8
鏡台
  6
EXLTYPE2
 62
     6
100
AcDbCircle
 10
1070.0
 20
2346.300000000001
 30
0.0
 40
8.0
  0
LINE
  5
682
330
1F
100
AcDbEntity
  8
鏡台
  6
CONTINUOUS
 62
     6
100
AcDbLine
 10
1052.0
 20
2726.3
 30
0.0
 11
1088.0
 21
2726.3
 31
0.0
  0
LINE
  5
683
330
1F
100
AcDbEntity
  8
鏡台
  6
CONTINUOUS
 62
     6
100
AcDbLine
 10
1070.0
 20
2708.300000000001
 30
0.0
 11
1070.0
 21
2744.300000000001
 31
0.0
  0
CIRCLE
  5
684
330
1F
100
AcDbEntity
  8
鏡台
  6
EXLTYPE2
 62
     6
100
AcDbCircle
 10
1070.0
 20
2726.300000000001
 30
0.0
 40
2.5
  0
CIRCLE
  5
685
330
1F
100
AcDbEntity
  8
鏡台
  6
EXLTYPE2
 62
     6
100
AcDbCircle
 10
1070.0
 20
2726.300000000001
 30
0.0
 40
8.0
  0
LINE
  5
686
330
1F
100
AcDbEntity
  8
鏡台
  6
CONTINUOUS
 62
     6
100
AcDbLine
 10
752.0000000000005
 20
2726.3
 30
0.0
 11
788.0000000000005
 21
2726.3
 31
0.0
  0
LINE
  5
687
330
1F
100
AcDbEntity
  8
鏡台
  6
CONTINUOUS
 62
     6
100
AcDbLine
 10
770.0000000000005
 20
2708.300000000001
 30
0.0
 11
770.0000000000005
 21
2744.300000000001
 31
0.0
  0
CIRCLE
  5
688
330
1F
100
AcDbEntity
  8
鏡台
  6
EXLTYPE2
 62
     6
100
AcDbCircle
 10
770.0000000000005
 20
2726.300000000001
 30
0.0
 40
2.5
  0
CIRCLE
  5
689
330
1F
100
AcDbEntity
  8
鏡台
  6
EXLTYPE2
 62
     6
100
AcDbCircle
 10
770.0000000000005
 20
2726.300000000001
 30
0.0
 40
8.0
  0
LINE
  5
68A
330
1F
100
AcDbEntity
  8
鏡台
  6
CONTINUOUS
 62
     2
100
AcDbLine
 10
1145.0
 20
2281.300000000001
 30
0.0
 11
1143.5
 21
2281.300000000001
 31
0.0
  0
LINE
  5
68B
330
1F
100
AcDbEntity
  8
鏡台
  6
CONTINUOUS
 62
     4
100
AcDbLine
 10
1143.5
 20
2290.100000000001
 30
0.0
 11
1143.5
 21
2280.100000000001
 31
0.0
  0
LINE
  5
68C
330
1F
100
AcDbEntity
  8
鏡台
  6
CONTINUOUS
 62
     2
100
AcDbLine
 10
1145.0
 20
2781.300000000001
 30
0.0
 11
1145.0
 21
2281.3
 31
0.0
  0
LINE
  5
68D
330
1F
100
AcDbEntity
  8
鏡台
  6
CONTINUOUS
 62
     4
100
AcDbLine
 10
1143.5
 20
2290.100000000001
 30
0.0
 11
696.5000000000005
 21
2290.100000000001
 31
0.0
  0
LINE
  5
68E
330
1F
100
AcDbEntity
  8
鏡台
  6
CONTINUOUS
 62
     4
100
AcDbLine
 10
1143.5
 20
2280.100000000001
 30
0.0
 11
696.5000000000005
 21
2280.100000000001
 31
0.0
  0
LINE
  5
68F
330
1F
100
AcDbEntity
  8
鏡台
  6
EXLTYPE3
 62
     6
100
AcDbLine
 10
1145.0
 20
2281.300000000001
 30
0.0
 11
695.0000000000005
 21
2531.300000000001
 31
0.0
  0
LINE
  5
690
330
1F
100
AcDbEntity
  8
鏡台
  6
EXLTYPE2
 62
     6
100
AcDbLine
 10
1145.0
 20
2775.300000000001
 30
0.0
 11
695.0000000000005
 21
2775.300000000001
 31
0.0
  0
LINE
  5
691
330
1F
100
AcDbEntity
  8
鏡台
  6
EXLTYPE2
 62
     6
100
AcDbLine
 10
1145.0
 20
2296.3
 30
0.0
 11
695.0000000000002
 21
2296.3
 31
0.0
  0
LINE
  5
692
330
1F
100
AcDbEntity
  8
鏡台
  6
CONTINUOUS
 62
     6
100
AcDbLine
 10
837.2144660940687
 20
2407.585533905902
 30
0.0
 11
824.4644660940687
 21
2394.835533905906
 31
0.0
  0
LINE
  5
693
330
1F
100
AcDbEntity
  8
鏡台
  6
CONTINUOUS
 62
     6
100
AcDbLine
 10
816.5000000000002
 20
2379.799999999974
 30
0.0
 11
849.0000000000039
 21
2412.299999999972
 31
0.0
  0
LINE
  5
694
330
1F
100
AcDbEntity
  8
鏡台
  6
CONTINUOUS
 62
     6
100
AcDbLine
 10
827.0355339059336
 20
2383.264466094037
 30
0.0
 11
842.0355339059354
 21
2398.264466094035
 31
0.0
  0
LINE
  5
695
330
1F
100
AcDbEntity
  8
鏡台
  6
CONTINUOUS
 62
     6
100
AcDbLine
 10
1011.214466094069
 20
2510.585533905902
 30
0.0
 11
998.4644660940689
 21
2497.835533905906
 31
0.0
  0
LINE
  5
696
330
1F
100
AcDbEntity
  8
鏡台
  6
CONTINUOUS
 62
     6
100
AcDbLine
 10
990.4999999999986
 20
2482.799999999974
 30
0.0
 11
1023.000000000002
 21
2515.299999999972
 31
0.0
  0
LINE
  5
697
330
1F
100
AcDbEntity
  8
鏡台
  6
CONTINUOUS
 62
     6
100
AcDbLine
 10
1001.035533905934
 20
2486.264466094037
 30
0.0
 11
1016.035533905936
 21
2501.264466094035
 31
0.0
  0
LINE
  5
698
330
1F
100
AcDbEntity
  8
鏡台
  6
CONTINUOUS
 62
     6
100
AcDbLine
 10
855.110692509159
 20
2675.972326358702
 30
0.0
 11
842.360692509159
 21
2663.222326358705
 31
0.0
  0
LINE
  5
699
330
1F
100
AcDbEntity
  8
鏡台
  6
CONTINUOUS
 62
     6
100
AcDbLine
 10
834.3962264150887
 20
2648.186792452774
 30
0.0
 11
866.8962264150923
 21
2680.686792452771
 31
0.0
  0
LINE
  5
69A
330
1F
100
AcDbEntity
  8
鏡台
  6
CONTINUOUS
 62
     6
100
AcDbLine
 10
844.9317603210238
 20
2651.651258546837
 30
0.0
 11
859.9317603210256
 21
2666.651258546835
 31
0.0
  0
LINE
  5
69B
330
1F
100
AcDbEntity
  8
鏡台
  6
EXLTYPE2
 62
     6
100
AcDbLine
 10
711.0
 20
2593.300000000001
 30
0.0
 11
711.0
 21
2553.300000000001
 31
0.0
  0
LINE
  5
69C
330
1F
100
AcDbEntity
  8
鏡台
  6
EXLTYPE2
 62
     6
100
AcDbLine
 10
1129.0
 20
2593.300000000001
 30
0.0
 11
1129.0
 21
2553.300000000001
 31
0.0
  0
LINE
  5
69D
330
1F
100
AcDbEntity
  8
鏡台
  6
EXLTYPE2
 62
     6
100
AcDbLine
 10
1129.0
 20
2593.300000000001
 30
0.0
 11
711.0
 21
2593.300000000001
 31
0.0
  0
LINE
  5
69E
330
1F
100
AcDbEntity
  8
鏡台
  6
EXLTYPE2
 62
     6
100
AcDbLine
 10
1129.0
 20
2553.300000000001
 30
0.0
 11
711.0
 21
2553.300000000001
 31
0.0
  0
LINE
  5
69F
330
1F
100
AcDbEntity
  8
鏡台
  6
EXLTYPE2
 62
     6
100
AcDbLine
 10
711.0
 20
2353.300000000001
 30
0.0
 11
711.0
 21
2313.300000000001
 31
0.0
  0
LINE
  5
6A0
330
1F
100
AcDbEntity
  8
鏡台
  6
EXLTYPE2
 62
     6
100
AcDbLine
 10
1129.0
 20
2353.300000000001
 30
0.0
 11
1129.0
 21
2313.300000000001
 31
0.0
  0
LINE
  5
6A1
330
1F
100
AcDbEntity
  8
鏡台
  6
EXLTYPE2
 62
     6
100
AcDbLine
 10
1129.0
 20
2353.300000000001
 30
0.0
 11
711.0
 21
2353.300000000001
 31
0.0
  0
LINE
  5
6A2
330
1F
100
AcDbEntity
  8
鏡台
  6
EXLTYPE2
 62
     6
100
AcDbLine
 10
1129.0
 20
2313.300000000001
 30
0.0
 11
711.0
 21
2313.300000000001
 31
0.0
  0
ENDSEC
  0
SECTION
  2
OBJECTS
  0
DICTIONARY
  5
C
330
0
100
AcDbDictionary
  3
ACAD_GROUP
350
D
  3
ACAD_LAYOUT
350
1A
  3
ACAD_MATERIAL
350
3B
  3
ACAD_MLEADERSTYLE
350
6C5
  3
ACAD_MLINESTYLE
350
17
  3
ACAD_PLOTSETTINGS
350
19
  3
ACAD_VISUALSTYLE
350
2A
  3
ACDBHEADERROUNDTRIPXREC
350
6A3
  3
ACDBVARIABLEDICTIONARY
350
6C3
  0
DICTIONARY
  5
D
102
{ACAD_REACTORS
330
C
102
}
330
C
100
AcDbDictionary
  0
DICTIONARY
  5
1A
102
{ACAD_REACTORS
330
C
102
}
330
C
100
AcDbDictionary
  0
DICTIONARY
  5
3B
102
{ACAD_REACTORS
330
C
102
}
330
C
100
AcDbDictionary
  3
BYBLOCK
350
3D
  3
BYLAYER
350
3C
  3
GLOBAL
350
3E
  0
DICTIONARY
  5
6C5
102
{ACAD_REACTORS
330
C
102
}
330
C
100
AcDbDictionary
  0
DICTIONARY
  5
17
102
{ACAD_REACTORS
330
C
102
}
330
C
100
AcDbDictionary
  3
STANDARD
350
18
  0
DICTIONARY
  5
19
102
{ACAD_REACTORS
330
C
102
}
330
C
100
AcDbDictionary
  0
DICTIONARY
  5
2A
102
{ACAD_REACTORS
330
C
102
}
330
C
100
AcDbDictionary
  3
2DWIREFRAME
350
2F
  3
3D_HIDDEN
350
31
  3
3DWIREFRAME
350
30
  3
BASIC
350
32
  3
BRIGHTEN
350
36
  3
COLORCHANGE
350
3A
  3
CONCEPTUAL
350
34
  3
DIM
350
35
  3
FACEPATTERN
350
39
  3
FLAT
350
2B
  3
FLATWITHEDGES
350
2C
  3
GOURAUD
350
2D
  3
GOURAUDWITHEDGES
350
2E
  3
LINEPATTERN
350
38
  3
REALISTIC
350
33
  3
THICKEN
350
37
  0
DICTIONARY
  5
6A3
102
{ACAD_REACTORS
330
C
102
}
330
C
100
AcDbDictionary
  3
CEPSNTYPE
350
6AC
  3
DIMSTYLEDATA
350
6C2
  3
FINGERPRINTGUID
350
6AD
  3
HYPERLINKBASE
350
6A6
  3
INSUNITS
350
6AB
  3
LAYOUTDICT
350
6A8
  3
LWETCUNION
350
6AA
  3
PLOTSETDICT
350
6A9
  3
PSVPSCALE
350
6AF
  3
PUCSBASE
350
6B2
  3
PUCSORGBACK
350
6B8
  3
PUCSORGBOTTOM
350
6B4
  3
PUCSORGFRONT
350
6B7
  3
PUCSORGLEFT
350
6B5
  3
PUCSORGRIGHT
350
6B6
  3
PUCSORGTOP
350
6B3
  3
PUCSORTHOREF
350
6B0
  3
PUCSORTHOVIEW
350
6B1
  3
STYLESHEET
350
6A7
  3
TSTACKALIGN
350
6A4
  3
TSTACKSIZE
350
6A5
  3
UCSBASE
350
6BB
  3
UCSORGBACK
350
6C1
  3
UCSORGBOTTOM
350
6BD
  3
UCSORGFRONT
350
6C0
  3
UCSORGLEFT
350
6BE
  3
UCSORGRIGHT
350
6BF
  3
UCSORGTOP
350
6BC
  3
UCSORTHOREF
350
6B9
  3
UCSORTHOVIEW
350
6BA
  3
VERSIONGUID
350
6AE
  0
DICTIONARY
  5
6C3
102
{ACAD_REACTORS
330
C
102
}
330
C
100
AcDbDictionary
  3
DIMASSOC
350
6C8
  3
HIDETEXT
350
6C9
  3
PSOLHEIGHT
350
6C7
  3
PSOLWIDTH
350
6C6
  0
MATERIAL
  5
3D
102
{ACAD_REACTORS
330
3B
102
}
102
{ACAD_XDICTIONARY
360
6CC
102
}
330
3B
100
AcDbMaterial
  1
ByBlock
  0
MATERIAL
  5
3C
102
{ACAD_REACTORS
330
3B
102
}
102
{ACAD_XDICTIONARY
360
6CA
102
}
330
3B
100
AcDbMaterial
  1
ByLayer
  0
MATERIAL
  5
3E
102
{ACAD_REACTORS
330
3B
102
}
102
{ACAD_XDICTIONARY
360
6CE
102
}
330
3B
100
AcDbMaterial
  1
Global
  0
MLINESTYLE
  5
18
102
{ACAD_REACTORS
330
17
102
}
330
17
100
AcDbMlineStyle
  2
Standard
 70
     0
  3

 62
   256
 51
90.0
 52
90.0
 71
     2
 49
0.5
 62
   256
  6
BYLAYER
 49
-0.5
 62
   256
  6
BYLAYER
  0
ACAD_PROXY_OBJECT
  5
2F
102
{ACAD_REACTORS
330
2A
102
}
330
2A
100
AcDbProxyObject
 90
      499
 91
      501
 93
      436
310
42CC9915DA5C99599C985B595049028333333333333E3BF0000000000000FB0107901411070040501600405405064090741402480A0340
1001
ACAD
1000
AcDbSavedByObjectVersion
1070
     0
  0
ACAD_PROXY_OBJECT
  5
31
102
{ACAD_REACTORS
330
2A
102
}
330
2A
100
AcDbProxyObject
 90
      499
 91
      501
 93
      500
310
424CD108121A5919195B90640502408333333333333E3BF0000000000000FB01079024090700405020000000000001110200405405064090740C02480A0340
1001
ACAD
1000
AcDbSavedByObjectVersion
1070
     0
  0
ACAD_PROXY_OBJECT
  5
30
102
{ACAD_REACTORS
330
2A
102
}
330
2A
100
AcDbProxyObject
 90
      499
 91
      501
 93
      436
310
42CCD915DA5C99599C985B595059028333333333333E3BF0000000000000FB0107901411070040501600405405064090741402480A0340
1001
ACAD
1000
AcDbSavedByObjectVersion
1070
     0
  0
ACAD_PROXY_OBJECT
  5
32
102
{ACAD_REACTORS
330
2A
102
}
330
2A
100
AcDbProxyObject
 90
      499
 91
      501
 93
      388
310
4150985CDA58D07406404333333333333E3BF0000000000000FB0107A41107004050150841D405064090741402480A0350
1001
ACAD
1000
AcDbSavedByObjectVersion
1070
     0
  0
ACAD_PROXY_OBJECT
  5
36
102
{ACAD_REACTORS
330
2A
102
}
330
2A
100
AcDbProxyObject
 90
      499
 91
      501
 93
      428
310
42109C9A59DA1D195B90C409028333333333333E3BF0000000000000FB010790141107004050150841D405064090741402480A029950
1001
ACAD
1000
AcDbSavedByObjectVersion
1070
     0
  0
ACAD_PROXY_OBJECT
  5
3A
102
{ACAD_REACTORS
330
2A
102
}
330
2A
100
AcDbProxyObject
 90
      499
 91
      501
 93
      452
310
42D0DBDB1BDC90DA185B99D95104090240C333333333333E3BF0000000000000FB0108901411070040501508421405064090741402480A0350
1001
ACAD
1000
AcDbSavedByObjectVersion
1070
     0
  0
ACAD_PROXY_OBJECT
  5
34
102
{ACAD_REACTORS
330
2A
102
}
330
2A
100
AcDbProxyObject
 90
      499
 91
      501
 93
      500
310
4290DBDB98D95C1D1D585B10940D028333333333333E3BF0000000000000FB0107902409070040501000000000000111010841D405064090740C02480A0340
1001
ACAD
1000
AcDbSavedByObjectVersion
1070
     0
  0
ACAD_PROXY_OBJECT
  5
35
102
{ACAD_REACTORS
330
2A
102
}
330
2A
100
AcDbProxyObject
 90
      499
 91
      501
 93
      412
310
40D11A5B50B409028333333333333E3BF0000000000000FB010790141107004050150841D405064090741402480A02677FFFFFD0
1001
ACAD
1000
AcDbSavedByObjectVersion
1070
     0
  0
ACAD_PROXY_OBJECT
  5
39
102
{ACAD_REACTORS
330
2A
102
}
330
2A
100
AcDbProxyObject
 90
      499
 91
      501
 93
      444
310
42D19858D95C185D1D195C9B90F409028333333333333E3BF0000000000000FB010790141107004050150841D405064090741402480A0350
1001
ACAD
1000
AcDbSavedByObjectVersion
1070
     0
  0
ACAD_PROXY_OBJECT
  5
2B
102
{ACAD_REACTORS
330
2A
102
}
330
2A
100
AcDbProxyObject
 90
      499
 91
      501
 93
      388
310
41119B185D240901404333333333333E3BF0000000000000F9010740A41107004050150841D405064090741402480A1B50
1001
ACAD
1000
AcDbSavedByObjectVersion
1070
     0
  0
ACAD_PROXY_OBJECT
  5
2C
102
{ACAD_REACTORS
330
2A
102
}
330
2A
100
AcDbProxyObject
 90
      499
 91
      501
 93
      476
310
43519B185D15DA5D1A115919D95CD0140901404333333333333E3BF0000000000000F9010740901411070040501600405405064090741402480A1B50
1001
ACAD
1000
AcDbSavedByObjectVersion
1070
     0
  0
ACAD_PROXY_OBJECT
  5
2D
102
{ACAD_REACTORS
330
2A
102
}
330
2A
100
AcDbProxyObject
 90
      499
 91
      501
 93
      412
310
41D1DBDD5C985D5910240902404333333333333E3BF0000000000000F9010740A411070040501641D405064090741402480A1B50
1001
ACAD
1000
AcDbSavedByObjectVersion
1070
     0
  0
ACAD_PROXY_OBJECT
  5
2E
102
{ACAD_REACTORS
330
2A
102
}
330
2A
100
AcDbProxyObject
 90
      499
 91
      501
 93
      500
310
4411DBDD5C985D5915DA5D1A115919D95CD0340902404333333333333E3BF0000000000000F9010740901411070040501600405405064090741402480A1B50
1001
ACAD
1000
AcDbSavedByObjectVersion
1070
     0
  0
ACAD_PROXY_OBJECT
  5
38
102
{ACAD_REACTORS
330
2A
102
}
330
2A
100
AcDbProxyObject
 90
      499
 91
      501
 93
      444
310
42D31A5B995C185D1D195C9B90E409028333333333333E3BF0000000000000FB010790141107004050750841D405064090741402483A0350
1001
ACAD
1000
AcDbSavedByObjectVersion
1070
     0
  0
ACAD_PROXY_OBJECT
  5
33
102
{ACAD_REACTORS
330
2A
102
}
330
2A
100
AcDbProxyObject
 90
      499
 91
      501
 93
      420
310
425499585B1A5CDD1A58D08409028333333333333E3BF0000000000000FB01079019070040501508421405064090741402480A1B40
1001
ACAD
1000
AcDbSavedByObjectVersion
1070
     0
  0
ACAD_PROXY_OBJECT
  5
37
102
{ACAD_REACTORS
330
2A
102
}
330
2A
100
AcDbProxyObject
 90
      499
 91
      501
 93
      412
310
41D51A1A58DAD95B90D409028333333333333E3BF0000000000000FB010790141107004050150C41D405064090741402480A0350
1001
ACAD
1000
AcDbSavedByObjectVersion
1070
     0
  0
XRECORD
  5
6AC
102
{ACAD_REACTORS
330
6A3
102
}
330
6A3
100
AcDbXrecord
 90
        0
  0
XRECORD
  5
6C2
102
{ACAD_REACTORS
330
6A3
102
}
330
6A3
100
AcDbXrecord
1000
DSTYLE
1002
{
1070
   340
340
11
1002
}
  0
XRECORD
  5
6AD
102
{ACAD_REACTORS
330
6A3
102
}
330
6A3
100
AcDbXrecord
  1
{A25A7B87-351F-47E0-B3F5-972DD60C3B90}
  0
XRECORD
  5
6A6
102
{ACAD_REACTORS
330
6A3
102
}
330
6A3
100
AcDbXrecord
  1

  0
XRECORD
  5
6AB
102
{ACAD_REACTORS
330
6A3
102
}
330
6A3
100
AcDbXrecord
 90
        4
  0
XRECORD
  5
6A8
102
{ACAD_REACTORS
330
6A3
102
}
330
6A3
100
AcDbXrecord
340
1A
  0
XRECORD
  5
6AA
102
{ACAD_REACTORS
330
6A3
102
}
330
6A3
100
AcDbXrecord
 90
    10781
  0
XRECORD
  5
6A9
102
{ACAD_REACTORS
330
6A3
102
}
330
6A3
100
AcDbXrecord
340
19
  0
XRECORD
  5
6AF
102
{ACAD_REACTORS
330
6A3
102
}
330
6A3
100
AcDbXrecord
 40
0.0
  0
XRECORD
  5
6B2
102
{ACAD_REACTORS
330
6A3
102
}
330
6A3
100
AcDbXrecord
340
0
  0
XRECORD
  5
6B8
102
{ACAD_REACTORS
330
6A3
102
}
330
6A3
100
AcDbXrecord
 10
0.0
 20
0.0
 30
0.0
  0
XRECORD
  5
6B4
102
{ACAD_REACTORS
330
6A3
102
}
330
6A3
100
AcDbXrecord
 10
0.0
 20
0.0
 30
0.0
  0
XRECORD
  5
6B7
102
{ACAD_REACTORS
330
6A3
102
}
330
6A3
100
AcDbXrecord
 10
0.0
 20
0.0
 30
0.0
  0
XRECORD
  5
6B5
102
{ACAD_REACTORS
330
6A3
102
}
330
6A3
100
AcDbXrecord
 10
0.0
 20
0.0
 30
0.0
  0
XRECORD
  5
6B6
102
{ACAD_REACTORS
330
6A3
102
}
330
6A3
100
AcDbXrecord
 10
0.0
 20
0.0
 30
0.0
  0
XRECORD
  5
6B3
102
{ACAD_REACTORS
330
6A3
102
}
330
6A3
100
AcDbXrecord
 10
0.0
 20
0.0
 30
0.0
  0
XRECORD
  5
6B0
102
{ACAD_REACTORS
330
6A3
102
}
330
6A3
100
AcDbXrecord
340
0
  0
XRECORD
  5
6B1
102
{ACAD_REACTORS
330
6A3
102
}
330
6A3
100
AcDbXrecord
 70
     0
  0
XRECORD
  5
6A7
102
{ACAD_REACTORS
330
6A3
102
}
330
6A3
100
AcDbXrecord
  1

  0
XRECORD
  5
6A4
102
{ACAD_REACTORS
330
6A3
102
}
330
6A3
100
AcDbXrecord
 90
        1
  0
XRECORD
  5
6A5
102
{ACAD_REACTORS
330
6A3
102
}
330
6A3
100
AcDbXrecord
 90
       70
  0
XRECORD
  5
6BB
102
{ACAD_REACTORS
330
6A3
102
}
330
6A3
100
AcDbXrecord
340
0
  0
XRECORD
  5
6C1
102
{ACAD_REACTORS
330
6A3
102
}
330
6A3
100
AcDbXrecord
 10
0.0
 20
0.0
 30
0.0
  0
XRECORD
  5
6BD
102
{ACAD_REACTORS
330
6A3
102
}
330
6A3
100
AcDbXrecord
 10
0.0
 20
0.0
 30
0.0
  0
XRECORD
  5
6C0
102
{ACAD_REACTORS
330
6A3
102
}
330
6A3
100
AcDbXrecord
 10
0.0
 20
0.0
 30
0.0
  0
XRECORD
  5
6BE
102
{ACAD_REACTORS
330
6A3
102
}
330
6A3
100
AcDbXrecord
 10
0.0
 20
0.0
 30
0.0
  0
XRECORD
  5
6BF
102
{ACAD_REACTORS
330
6A3
102
}
330
6A3
100
AcDbXrecord
 10
0.0
 20
0.0
 30
0.0
  0
XRECORD
  5
6BC
102
{ACAD_REACTORS
330
6A3
102
}
330
6A3
100
AcDbXrecord
 10
0.0
 20
0.0
 30
0.0
  0
XRECORD
  5
6B9
102
{ACAD_REACTORS
330
6A3
102
}
330
6A3
100
AcDbXrecord
340
0
  0
XRECORD
  5
6BA
102
{ACAD_REACTORS
330
6A3
102
}
330
6A3
100
AcDbXrecord
 70
     0
  0
XRECORD
  5
6AE
102
{ACAD_REACTORS
330
6A3
102
}
330
6A3
100
AcDbXrecord
  1
{FAEB1C32-E019-11D5-929B-00C0DF256EC4}
  0
DICTIONARYVAR
  5
6C8
102
{ACAD_REACTORS
330
6C3
102
}
330
6C3
100
DictionaryVariables
280
     0
  1
2
  0
DICTIONARYVAR
  5
6C9
102
{ACAD_REACTORS
330
6C3
102
}
330
6C3
100
DictionaryVariables
280
     0
  1
1
  0
DICTIONARYVAR
  5
6C7
102
{ACAD_REACTORS
330
6C3
102
}
330
6C3
100
DictionaryVariables
280
     0
  1
80.000000
  0
DICTIONARYVAR
  5
6C6
102
{ACAD_REACTORS
330
6C3
102
}
330
6C3
100
DictionaryVariables
280
     0
  1
5.000000
  0
DICTIONARY
  5
6CC
330
3D
100
AcDbDictionary
280
     1
  3
ACAD_XREC_ROUNDTRIP
360
6CD
  0
DICTIONARY
  5
6CA
330
3C
100
AcDbDictionary
280
     1
  3
ACAD_XREC_ROUNDTRIP
360
6CB
  0
DICTIONARY
  5
6CE
330
3E
100
AcDbDictionary
280
     1
  3
ACAD_XREC_ROUNDTRIP
360
6CF
  0
XRECORD
  5
6CD
102
{ACAD_REACTORS
330
6CC
102
}
330
6CC
100
AcDbXrecord
102
MATERIAL
148
0.0
149
0.0
149
0.0
 93
        0
 94
      127
282
     0
 72
     1
 77
     1
171
     1
175
     1
179
     1
273
     0
  0
XRECORD
  5
6CB
102
{ACAD_REACTORS
330
6CA
102
}
330
6CA
100
AcDbXrecord
102
MATERIAL
148
0.0
149
0.0
149
0.0
 93
        0
 94
      127
282
     0
 72
     1
 77
     1
171
     1
175
     1
179
     1
273
     0
  0
XRECORD
  5
6CF
102
{ACAD_REACTORS
330
6CE
102
}
330
6CE
100
AcDbXrecord
102
MATERIAL
148
0.0
149
0.0
149
0.0
 93
        0
 94
      127
282
     0
 72
     1
 77
     1
171
     1
175
     1
179
     1
273
     0
  0
ENDSEC
  0
EOF
