  0
SECTION
  2
HEADER
  9
$ACADVER
  1
AC1014
  9
$ACADMAINTVER
 70
     9
  9
$DWGCODEPAGE
  3
ANSI_932
  9
$INSBASE
 10
0.0
 20
0.0
 30
0.0
  9
$EXTMIN
 10
0.0000000000000448
 20
13.5
 30
0.0
  9
$EXTMAX
 10
200.0
 20
288.5
 30
0.0
  9
$LIMMIN
 10
0.0
 20
0.0
  9
$LIMMAX
 10
210.0
 20
297.0
  9
$ORTHOMODE
 70
     0
  9
$REGENMODE
 70
     1
  9
$FILLMODE
 70
     1
  9
$QTEXTMODE
 70
     0
  9
$MIRRTEXT
 70
     1
  9
$DRAGMODE
 70
     2
  9
$LTSCALE
 40
1.0
  9
$OSMODE
 70
    37
  9
$ATTMODE
 70
     1
  9
$TEXTSIZE
 40
2.5
  9
$TRACEWID
 40
1.0
  9
$TEXTSTYLE
  7
STANDARD
  9
$CLAYER
  8
鏡台
  9
$CELTYPE
  6
BYLAYER
  9
$CECOLOR
 62
   256
  9
$CELTSCALE
 40
1.0
  9
$DELOBJ
 70
     1
  9
$DISPSILH
 70
     0
  9
$DIMSCALE
 40
1.0
  9
$DIMASZ
 40
2.5
  9
$DIMEXO
 40
0.625
  9
$DIMDLI
 40
3.75
  9
$DIMRND
 40
0.0
  9
$DIMDLE
 40
0.0
  9
$DIMEXE
 40
1.25
  9
$DIMTP
 40
0.0
  9
$DIMTM
 40
0.0
  9
$DIMTXT
 40
2.5
  9
$DIMCEN
 40
2.5
  9
$DIMTSZ
 40
0.0
  9
$DIMTOL
 70
     0
  9
$DIMLIM
 70
     0
  9
$DIMTIH
 70
     0
  9
$DIMTOH
 70
     0
  9
$DIMSE1
 70
     0
  9
$DIMSE2
 70
     0
  9
$DIMTAD
 70
     1
  9
$DIMZIN
 70
     8
  9
$DIMBLK
  1

  9
$DIMASO
 70
     1
  9
$DIMSHO
 70
     1
  9
$DIMPOST
  1

  9
$DIMAPOST
  1

  9
$DIMALT
 70
     0
  9
$DIMALTD
 70
     3
  9
$DIMALTF
 40
0.03937007874016
  9
$DIMLFAC
 40
1.0
  9
$DIMTOFL
 70
     1
  9
$DIMTVP
 40
0.0
  9
$DIMTIX
 70
     0
  9
$DIMSOXD
 70
     0
  9
$DIMSAH
 70
     0
  9
$DIMBLK1
  1

  9
$DIMBLK2
  1

  9
$DIMSTYLE
  2
ISO-25
  9
$DIMCLRD
 70
     0
  9
$DIMCLRE
 70
     0
  9
$DIMCLRT
 70
     0
  9
$DIMTFAC
 40
1.0
  9
$DIMGAP
 40
0.625
  9
$DIMJUST
 70
     0
  9
$DIMSD1
 70
     0
  9
$DIMSD2
 70
     0
  9
$DIMTOLJ
 70
     0
  9
$DIMTZIN
 70
     8
  9
$DIMALTZ
 70
     0
  9
$DIMALTTZ
 70
     0
  9
$DIMFIT
 70
     3
  9
$DIMUPT
 70
     0
  9
$DIMUNIT
 70
     2
  9
$DIMDEC
 70
     2
  9
$DIMTDEC
 70
     2
  9
$DIMALTU
 70
     2
  9
$DIMALTTD
 70
     3
  9
$DIMTXSTY
  7
STANDARD
  9
$DIMAUNIT
 70
     0
  9
$LUNITS
 70
     2
  9
$LUPREC
 70
     4
  9
$SKETCHINC
 40
1.0
  9
$FILLETRAD
 40
10.0
  9
$AUNITS
 70
     0
  9
$AUPREC
 70
     0
  9
$MENU
  1
.
  9
$ELEVATION
 40
0.0
  9
$PELEVATION
 40
0.0
  9
$THICKNESS
 40
0.0
  9
$LIMCHECK
 70
     0
  9
$CHAMFERA
 40
10.0
  9
$CHAMFERB
 40
10.0
  9
$CHAMFERC
 40
20.0
  9
$CHAMFERD
 40
0.0
  9
$SKPOLY
 70
     0
  9
$TDCREATE
 40
2457221.549277373
  9
$TDUPDATE
 40
2457221.549278276
  9
$TDINDWG
 40
0.0000000116
  9
$TDUSRTIMER
 40
0.0000000116
  9
$USRTIMER
 70
     1
  9
$ANGBASE
 50
0.0
  9
$ANGDIR
 70
     0
  9
$PDMODE
 70
     0
  9
$PDSIZE
 40
0.0
  9
$PLINEWID
 40
0.0
  9
$COORDS
 70
     1
  9
$SPLFRAME
 70
     0
  9
$SPLINETYPE
 70
     6
  9
$SPLINESEGS
 70
     8
  9
$ATTDIA
 70
     0
  9
$ATTREQ
 70
     1
  9
$HANDLING
 70
     1
  9
$HANDSEED
  5
385
  9
$SURFTAB1
 70
     6
  9
$SURFTAB2
 70
     6
  9
$SURFTYPE
 70
     6
  9
$SURFU
 70
     6
  9
$SURFV
 70
     6
  9
$UCSNAME
  2

  9
$UCSORG
 10
0.0
 20
0.0
 30
0.0
  9
$UCSXDIR
 10
1.0
 20
0.0
 30
0.0
  9
$UCSYDIR
 10
0.0
 20
1.0
 30
0.0
  9
$PUCSNAME
  2

  9
$PUCSORG
 10
0.0
 20
0.0
 30
0.0
  9
$PUCSXDIR
 10
1.0
 20
0.0
 30
0.0
  9
$PUCSYDIR
 10
0.0
 20
1.0
 30
0.0
  9
$USERI1
 70
     0
  9
$USERI2
 70
     0
  9
$USERI3
 70
     0
  9
$USERI4
 70
     0
  9
$USERI5
 70
     0
  9
$USERR1
 40
0.0
  9
$USERR2
 40
0.0
  9
$USERR3
 40
0.0
  9
$USERR4
 40
0.0
  9
$USERR5
 40
0.0
  9
$WORLDVIEW
 70
     1
  9
$SHADEDGE
 70
     3
  9
$SHADEDIF
 70
    70
  9
$TILEMODE
 70
     1
  9
$MAXACTVP
 70
    64
  9
$PINSBASE
 10
0.0
 20
0.0
 30
0.0
  9
$PLIMCHECK
 70
     0
  9
$PEXTMIN
 10
1.000000000000000E+20
 20
1.000000000000000E+20
 30
1.000000000000000E+20
  9
$PEXTMAX
 10
-1.000000000000000E+20
 20
-1.000000000000000E+20
 30
-1.000000000000000E+20
  9
$PLIMMIN
 10
0.0
 20
0.0
  9
$PLIMMAX
 10
420.0
 20
297.0
  9
$UNITMODE
 70
     0
  9
$VISRETAIN
 70
     1
  9
$PLINEGEN
 70
     0
  9
$PSLTSCALE
 70
     1
  9
$TREEDEPTH
 70
  3020
  9
$PICKSTYLE
 70
     1
  9
$CMLSTYLE
  2
STANDARD
  9
$CMLJUST
 70
     0
  9
$CMLSCALE
 40
20.0
  9
$PROXYGRAPHICS
 70
     1
  9
$MEASUREMENT
 70
     1
  0
ENDSEC
  0
SECTION
  2
CLASSES
  0
CLASS
  1
ACDBDICTIONARYWDFLT
  2
AcDbDictionaryWithDefault
  3
ObjectDBX Classes
 90
        0
280
     0
281
     0
  0
CLASS
  1
VISUALSTYLE
  2
AcDbVisualStyle
  3
ObjectDBX Classes
 90
     4095
280
     0
281
     0
  0
CLASS
  1
MATERIAL
  2
AcDbMaterial
  3
ObjectDBX Classes
 90
     1153
280
     0
281
     0
  0
CLASS
  1
SUN
  2
AcDbSun
  3
SCENEOE
 90
     1024
280
     0
281
     0
  0
CLASS
  1
DICTIONARYVAR
  2
AcDbDictionaryVar
  3
ObjectDBX Classes
 90
        0
280
     0
281
     0
  0
CLASS
  1
XRECORD
  2
AcDbXrecord
  3
AutoCAD 2000
 90
        0
280
     0
281
     0
  0
CLASS
  1
LWPOLYLINE
  2
AcDbPolyline
  3
AutoCAD 2000
 90
        0
280
     0
281
     1
  0
CLASS
  1
HATCH
  2
AcDbHatch
  3
AutoCAD 2000
 90
        0
280
     0
281
     1
  0
CLASS
  1
ACDBPLACEHOLDER
  2
AcDbPlaceHolder
  3
ObjectDBX Classes
 90
        0
280
     0
281
     0
  0
CLASS
  1
LAYOUT
  2
AcDbLayout
  3
ObjectDBX Classes
 90
        0
280
     0
281
     0
  0
ENDSEC
  0
SECTION
  2
TABLES
  0
TABLE
  2
VPORT
  5
8
330
0
100
AcDbSymbolTable
 70
     1
  0
VPORT
  5
29
330
8
100
AcDbSymbolTableRecord
100
AcDbViewportTableRecord
  2
*ACTIVE
 70
     0
 10
0.0
 20
0.0
 11
1.0
 21
1.0
 12
1000.0
 22
1510.0
 13
0.0
 23
0.0
 14
10.0
 24
10.0
 15
10.0
 25
10.0
 16
0.0
 26
0.0
 36
1.0
 17
0.0
 27
0.0
 37
0.0
 40
2750.0
 41
0.7272727272727271
 42
50.0
 43
0.0
 44
0.0
 50
0.0
 51
0.0
 71
     0
 72
  1000
 73
     1
 74
     3
 75
     0
 76
     0
 77
     0
 78
     0
  0
ENDTAB
  0
TABLE
  2
LTYPE
  5
5
330
0
100
AcDbSymbolTable
 70
     7
  0
LTYPE
  5
14
330
5
100
AcDbSymbolTableRecord
100
AcDbLinetypeTableRecord
  2
BYBLOCK
 70
     0
  3

 72
    65
 73
     0
 40
0.0
  0
LTYPE
  5
15
330
5
100
AcDbSymbolTableRecord
100
AcDbLinetypeTableRecord
  2
BYLAYER
 70
     0
  3

 72
    65
 73
     0
 40
0.0
  0
LTYPE
  5
16
330
5
100
AcDbSymbolTableRecord
100
AcDbLinetypeTableRecord
  2
CONTINUOUS
 70
     0
  3
Solid line
 72
    65
 73
     0
 40
0.0
  0
LTYPE
  5
40
330
5
100
AcDbSymbolTableRecord
100
AcDbLinetypeTableRecord
  2
EXLTYPE1
 70
     0
  3
破線
 72
    65
 73
     2
 40
3.0
 49
2.0
 74
     0
 49
-1.0
 74
     0
  0
LTYPE
  5
41
330
5
100
AcDbSymbolTableRecord
100
AcDbLinetypeTableRecord
  2
EXLTYPE2
 70
     0
  3
点線
 72
    65
 73
     2
 40
2.0
 49
1.0
 74
     0
 49
-1.0
 74
     0
  0
LTYPE
  5
42
330
5
100
AcDbSymbolTableRecord
100
AcDbLinetypeTableRecord
  2
EXLTYPE3
 70
     0
  3
一点鎖線
 72
    65
 73
     4
 40
10.0
 49
7.0
 74
     0
 49
-1.0
 74
     0
 49
1.0
 74
     0
 49
-1.0
 74
     0
  0
LTYPE
  5
43
330
5
100
AcDbSymbolTableRecord
100
AcDbLinetypeTableRecord
  2
EXLTYPE4
 70
     0
  3
二点鎖線
 72
    65
 73
     6
 40
12.0
 49
7.0
 74
     0
 49
-1.0
 74
     0
 49
1.0
 74
     0
 49
-1.0
 74
     0
 49
1.0
 74
     0
 49
-1.0
 74
     0
  0
LTYPE
  5
44
330
5
100
AcDbSymbolTableRecord
100
AcDbLinetypeTableRecord
  2
EXLTYPE5
 70
     0
  3
三点鎖線
 72
    65
 73
     8
 40
37.0
 49
30.0
 74
     0
 49
-1.0
 74
     0
 49
1.0
 74
     0
 49
-1.0
 74
     0
 49
1.0
 74
     0
 49
-1.0
 74
     0
 49
1.0
 74
     0
 49
-1.0
 74
     0
  0
LTYPE
  5
45
330
5
100
AcDbSymbolTableRecord
100
AcDbLinetypeTableRecord
  2
EXLTYPE6
 70
     0
  3
四点鎖線
 72
    65
 73
    10
 40
39.0
 49
30.0
 74
     0
 49
-1.0
 74
     0
 49
1.0
 74
     0
 49
-1.0
 74
     0
 49
1.0
 74
     0
 49
-1.0
 74
     0
 49
1.0
 74
     0
 49
-1.0
 74
     0
 49
1.0
 74
     0
 49
-1.0
 74
     0
  0
ENDTAB
  0
TABLE
  2
LAYER
  5
2
330
0
100
AcDbSymbolTable
 70
     5
  0
LAYER
  5
10
330
2
100
AcDbSymbolTableRecord
100
AcDbLayerTableRecord
  2
0
 70
     0
 62
     7
  6
CONTINUOUS
  0
LAYER
  5
48
330
2
100
AcDbSymbolTableRecord
100
AcDbLayerTableRecord
  2
枠_表
 70
     0
 62
     7
  6
CONTINUOUS
  0
LAYER
  5
49
330
2
100
AcDbSymbolTableRecord
100
AcDbLayerTableRecord
  2
鏡台
 70
     0
 62
     7
  6
CONTINUOUS
  0
LAYER
  5
4A
330
2
100
AcDbSymbolTableRecord
100
AcDbLayerTableRecord
  2
寸法
 70
     0
 62
     7
  6
CONTINUOUS
  0
LAYER
  5
29A
330
2
100
AcDbSymbolTableRecord
100
AcDbLayerTableRecord
  2
DEFPOINTS
 70
     0
 62
     7
  6
CONTINUOUS
  0
ENDTAB
  0
TABLE
  2
STYLE
  5
3
330
0
100
AcDbSymbolTable
 70
     5
  0
STYLE
  5
11
330
3
100
AcDbSymbolTableRecord
100
AcDbTextStyleTableRecord
  2
STANDARD
 70
     0
 40
0.0
 41
1.0
 50
0.0
 71
     0
 42
2.5
  3
monotxt
  4
extfont
  0
STYLE
  5
46
330
3
100
AcDbSymbolTableRecord
100
AcDbTextStyleTableRecord
  2
EXCADSTD
 70
     0
 40
0.0
 41
1.0
 50
0.0
 71
     0
 42
0.2
  3
monotxt
  4
extfont
  0
STYLE
  5
47
330
3
100
AcDbSymbolTableRecord
100
AcDbTextStyleTableRecord
  2
EXCADVERT
 70
     4
 40
0.0
 41
1.0
 50
0.0
 71
     0
 42
0.286885
  3
monotxt
  4
extfont
  0
STYLE
  5
298
330
3
100
AcDbSymbolTableRecord
100
AcDbTextStyleTableRecord
  2
EXCADDIM1
 70
     0
 40
0.0
 41
0.84
 50
0.0
 71
     0
 42
0.2
  3
monotxt
  4
extfont
  0
STYLE
  5
2B4
330
3
100
AcDbSymbolTableRecord
100
AcDbTextStyleTableRecord
  2
EXCADDIM2
 70
     0
 40
0.0
 41
0.95
 50
0.0
 71
     0
 42
0.2
  3
monotxt
  4
extfont
  0
ENDTAB
  0
TABLE
  2
VIEW
  5
6
330
0
100
AcDbSymbolTable
 70
     0
  0
ENDTAB
  0
TABLE
  2
UCS
  5
7
330
0
100
AcDbSymbolTable
 70
     0
  0
ENDTAB
  0
TABLE
  2
APPID
  5
9
330
0
100
AcDbSymbolTable
 70
     1
  0
APPID
  5
12
330
9
100
AcDbSymbolTableRecord
100
AcDbRegAppTableRecord
  2
ACAD
 70
     0
  0
ENDTAB
  0
TABLE
  2
DIMSTYLE
  5
A
330
0
100
AcDbSymbolTable
 70
     1
  0
DIMSTYLE
105
27
102
{ACAD_REACTORS
330
299
330
2A7
330
2B5
330
2C4
330
2D1
330
2E0
102
}
330
A
100
AcDbSymbolTableRecord
100
AcDbDimStyleTableRecord
  2
ISO-25
 70
     0
  3

  4

  5

  6

  7

 40
1.0
 41
2.5
 42
0.625
 43
3.75
 44
1.25
 45
0.0
 46
0.0
 47
0.0
 48
0.0
140
2.5
141
2.5
142
0.0
143
0.03937007874016
144
1.0
145
0.0
146
1.0
147
0.625
 71
     0
 72
     0
 73
     0
 74
     0
 75
     0
 76
     0
 77
     1
 78
     8
170
     0
171
     3
172
     1
173
     0
174
     0
175
     0
176
     0
177
     0
178
     0
270
     2
271
     2
272
     2
273
     2
274
     3
340
11
275
     0
280
     0
281
     0
282
     0
283
     0
284
     8
285
     0
286
     0
287
     5
288
     0
  0
ENDTAB
  0
TABLE
  2
BLOCK_RECORD
  5
1
330
0
100
AcDbSymbolTable
 70
    21
  0
BLOCK_RECORD
  5
1F
330
1
100
AcDbSymbolTableRecord
100
AcDbBlockTableRecord
  2
*MODEL_SPACE
  0
BLOCK_RECORD
  5
1B
330
1
100
AcDbSymbolTableRecord
100
AcDbBlockTableRecord
  2
*PAPER_SPACE
  0
BLOCK_RECORD
  5
4B
330
1
100
AcDbSymbolTableRecord
100
AcDbBlockTableRecord
  2
EX_NORM
  0
BLOCK_RECORD
  5
4E
330
1
100
AcDbSymbolTableRecord
100
AcDbBlockTableRecord
  2
EX_BNORM
  0
BLOCK_RECORD
  5
51
330
1
100
AcDbSymbolTableRecord
100
AcDbBlockTableRecord
  2
EX_BCIR
  0
BLOCK_RECORD
  5
54
330
1
100
AcDbSymbolTableRecord
100
AcDbBlockTableRecord
  2
EX_RCIVIL
  0
BLOCK_RECORD
  5
57
330
1
100
AcDbSymbolTableRecord
100
AcDbBlockTableRecord
  2
EX_SLANT
  0
BLOCK_RECORD
  5
5A
330
1
100
AcDbSymbolTableRecord
100
AcDbBlockTableRecord
  2
EX_NONE
  0
BLOCK_RECORD
  5
5D
330
1
100
AcDbSymbolTableRecord
100
AcDbBlockTableRecord
  2
EX_CIVIL
  0
BLOCK_RECORD
  5
60
330
1
100
AcDbSymbolTableRecord
100
AcDbBlockTableRecord
  2
EX_WCIR
  0
BLOCK_RECORD
  5
63
330
1
100
AcDbSymbolTableRecord
100
AcDbBlockTableRecord
  2
EX_WCIR2
  0
BLOCK_RECORD
  5
66
330
1
100
AcDbSymbolTableRecord
100
AcDbBlockTableRecord
  2
EX_WNORM
  0
BLOCK_RECORD
  5
69
330
1
100
AcDbSymbolTableRecord
100
AcDbBlockTableRecord
  2
EX_NNORM
  0
BLOCK_RECORD
  5
6C
330
1
100
AcDbSymbolTableRecord
100
AcDbBlockTableRecord
  2
EX_BBOX
  0
BLOCK_RECORD
  5
6F
330
1
100
AcDbSymbolTableRecord
100
AcDbBlockTableRecord
  2
EX_WBOX
  0
BLOCK_RECORD
  5
72
330
1
100
AcDbSymbolTableRecord
100
AcDbBlockTableRecord
  2
EX_INTEGRAL
  0
BLOCK_RECORD
  5
29B
330
1
100
AcDbSymbolTableRecord
100
AcDbBlockTableRecord
  2
*D15
  0
BLOCK_RECORD
  5
2A8
330
1
100
AcDbSymbolTableRecord
100
AcDbBlockTableRecord
  2
*D16
  0
BLOCK_RECORD
  5
2B6
330
1
100
AcDbSymbolTableRecord
100
AcDbBlockTableRecord
  2
*D17
  0
BLOCK_RECORD
  5
2C5
330
1
100
AcDbSymbolTableRecord
100
AcDbBlockTableRecord
  2
*D18
  0
BLOCK_RECORD
  5
2D2
330
1
100
AcDbSymbolTableRecord
100
AcDbBlockTableRecord
  2
*D19
  0
BLOCK_RECORD
  5
2E1
330
1
100
AcDbSymbolTableRecord
100
AcDbBlockTableRecord
  2
*D20
  0
ENDTAB
  0
ENDSEC
  0
SECTION
  2
BLOCKS
  0
BLOCK
  5
20
330
1F
100
AcDbEntity
  8
0
100
AcDbBlockBegin
  2
*MODEL_SPACE
 70
     0
 10
0.0
 20
0.0
 30
0.0
  3
*MODEL_SPACE
  1

  0
ENDBLK
  5
21
330
1F
100
AcDbEntity
  8
0
100
AcDbBlockEnd
  0
BLOCK
  5
1C
330
1B
100
AcDbEntity
 67
     1
  8
0
100
AcDbBlockBegin
  2
*PAPER_SPACE
 70
     0
 10
0.0
 20
0.0
 30
0.0
  3
*PAPER_SPACE
  1

  0
ENDBLK
  5
1D
330
1B
100
AcDbEntity
 67
     1
  8
0
100
AcDbBlockEnd
  0
BLOCK
  5
4C
330
4B
100
AcDbEntity
  8
0
100
AcDbBlockBegin
  2
EX_NORM
 70
     0
 10
0.0
 20
0.0
 30
0.0
  3
EX_NORM
  1

  0
LINE
  5
75
330
4B
100
AcDbEntity
  8
0
  6
CONTINUOUS
 62
     0
100
AcDbLine
 10
0.0
 20
0.0
 30
0.0
 11
-1.0
 21
0.0
 31
0.0
  0
LINE
  5
76
330
4B
100
AcDbEntity
  8
0
  6
CONTINUOUS
 62
     0
100
AcDbLine
 10
0.0
 20
0.0
 30
0.0
 11
-1.0
 21
0.166666667
 31
0.0
  0
LINE
  5
77
330
4B
100
AcDbEntity
  8
0
  6
CONTINUOUS
 62
     0
100
AcDbLine
 10
0.0
 20
0.0
 30
0.0
 11
-1.0
 21
-0.166666667
 31
0.0
  0
ENDBLK
  5
4D
330
4B
100
AcDbEntity
  8
0
100
AcDbBlockEnd
  0
BLOCK
  5
4F
330
4E
100
AcDbEntity
  8
0
100
AcDbBlockBegin
  2
EX_BNORM
 70
     0
 10
0.0
 20
0.0
 30
0.0
  3
EX_BNORM
  1

  0
LINE
  5
78
330
4E
100
AcDbEntity
  8
0
  6
CONTINUOUS
 62
     0
100
AcDbLine
 10
0.0
 20
0.0
 30
0.0
 11
-1.0
 21
0.0
 31
0.0
  0
LINE
  5
79
330
4E
100
AcDbEntity
  8
0
  6
CONTINUOUS
 62
     0
100
AcDbLine
 10
0.0
 20
0.0
 30
0.0
 11
-1.0
 21
0.166666667
 31
0.0
  0
LINE
  5
7A
330
4E
100
AcDbEntity
  8
0
  6
CONTINUOUS
 62
     0
100
AcDbLine
 10
0.0
 20
0.0
 30
0.0
 11
-1.0
 21
-0.166666667
 31
0.0
  0
LINE
  5
7B
330
4E
100
AcDbEntity
  8
0
  6
CONTINUOUS
 62
     0
100
AcDbLine
 10
0.0
 20
0.0
 30
0.0
 11
-1.0
 21
0.083333333
 31
0.0
  0
LINE
  5
7C
330
4E
100
AcDbEntity
  8
0
  6
CONTINUOUS
 62
     0
100
AcDbLine
 10
0.0
 20
0.0
 30
0.0
 11
-1.0
 21
-0.083333333
 31
0.0
  0
LINE
  5
7D
330
4E
100
AcDbEntity
  8
0
  6
CONTINUOUS
 62
     0
100
AcDbLine
 10
-1.0
 20
0.166666667
 30
0.0
 11
-1.0
 21
-0.166666667
 31
0.0
  0
ENDBLK
  5
50
330
4E
100
AcDbEntity
  8
0
100
AcDbBlockEnd
  0
BLOCK
  5
52
330
51
100
AcDbEntity
  8
0
100
AcDbBlockBegin
  2
EX_BCIR
 70
     0
 10
0.0
 20
0.0
 30
0.0
  3
EX_BCIR
  1

  0
LINE
  5
7E
330
51
100
AcDbEntity
  8
0
  6
CONTINUOUS
 62
     0
100
AcDbLine
 10
0.0
 20
0.0
 30
0.0
 11
-1.0
 21
0.0
 31
0.0
  0
CIRCLE
  5
7F
330
51
100
AcDbEntity
  8
0
  6
CONTINUOUS
 62
     0
100
AcDbCircle
 10
0.0
 20
0.0
 30
0.0
 40
0.5
  0
CIRCLE
  5
80
330
51
100
AcDbEntity
  8
0
  6
CONTINUOUS
 62
     0
100
AcDbCircle
 10
0.0
 20
0.0
 30
0.0
 40
0.25
  0
ENDBLK
  5
53
330
51
100
AcDbEntity
  8
0
100
AcDbBlockEnd
  0
BLOCK
  5
55
330
54
100
AcDbEntity
  8
0
100
AcDbBlockBegin
  2
EX_RCIVIL
 70
     0
 10
0.0
 20
0.0
 30
0.0
  3
EX_RCIVIL
  1

  0
LINE
  5
81
330
54
100
AcDbEntity
  8
0
  6
CONTINUOUS
 62
     0
100
AcDbLine
 10
0.0
 20
0.0
 30
0.0
 11
-1.0
 21
0.0
 31
0.0
  0
LINE
  5
82
330
54
100
AcDbEntity
  8
0
  6
CONTINUOUS
 62
     0
100
AcDbLine
 10
-1.0
 20
-0.25
 30
0.0
 11
0.0
 21
-0.25
 31
0.0
  0
LINE
  5
83
330
54
100
AcDbEntity
  8
0
  6
CONTINUOUS
 62
     0
100
AcDbLine
 10
-1.0
 20
-0.125
 30
0.0
 11
0.0
 21
-0.125
 31
0.0
  0
ENDBLK
  5
56
330
54
100
AcDbEntity
  8
0
100
AcDbBlockEnd
  0
BLOCK
  5
58
330
57
100
AcDbEntity
  8
0
100
AcDbBlockBegin
  2
EX_SLANT
 70
     0
 10
0.0
 20
0.0
 30
0.0
  3
EX_SLANT
  1

  0
LINE
  5
84
330
57
100
AcDbEntity
  8
0
  6
CONTINUOUS
 62
     0
100
AcDbLine
 10
0.0
 20
0.0
 30
0.0
 11
-1.0
 21
0.0
 31
0.0
  0
LINE
  5
85
330
57
100
AcDbEntity
  8
0
  6
CONTINUOUS
 62
     0
100
AcDbLine
 10
0.707106781
 20
0.707106781
 30
0.0
 11
-0.707106781
 21
-0.707106781
 31
0.0
  0
ENDBLK
  5
59
330
57
100
AcDbEntity
  8
0
100
AcDbBlockEnd
  0
BLOCK
  5
5B
330
5A
100
AcDbEntity
  8
0
100
AcDbBlockBegin
  2
EX_NONE
 70
     0
 10
0.0
 20
0.0
 30
0.0
  3
EX_NONE
  1

  0
LINE
  5
86
330
5A
100
AcDbEntity
  8
0
  6
CONTINUOUS
 62
     0
100
AcDbLine
 10
0.0
 20
0.0
 30
0.0
 11
-1.0
 21
0.0
 31
0.0
  0
ENDBLK
  5
5C
330
5A
100
AcDbEntity
  8
0
100
AcDbBlockEnd
  0
BLOCK
  5
5E
330
5D
100
AcDbEntity
  8
0
100
AcDbBlockBegin
  2
EX_CIVIL
 70
     0
 10
0.0
 20
0.0
 30
0.0
  3
EX_CIVIL
  1

  0
LINE
  5
87
330
5D
100
AcDbEntity
  8
0
  6
CONTINUOUS
 62
     0
100
AcDbLine
 10
0.0
 20
0.0
 30
0.0
 11
-1.0
 21
0.0
 31
0.0
  0
LINE
  5
88
330
5D
100
AcDbEntity
  8
0
  6
CONTINUOUS
 62
     0
100
AcDbLine
 10
-1.0
 20
0.25
 30
0.0
 11
0.0
 21
0.25
 31
0.0
  0
LINE
  5
89
330
5D
100
AcDbEntity
  8
0
  6
CONTINUOUS
 62
     0
100
AcDbLine
 10
-1.0
 20
0.125
 30
0.0
 11
0.0
 21
0.125
 31
0.0
  0
ENDBLK
  5
5F
330
5D
100
AcDbEntity
  8
0
100
AcDbBlockEnd
  0
BLOCK
  5
61
330
60
100
AcDbEntity
  8
0
100
AcDbBlockBegin
  2
EX_WCIR
 70
     0
 10
0.0
 20
0.0
 30
0.0
  3
EX_WCIR
  1

  0
LINE
  5
8A
330
60
100
AcDbEntity
  8
0
  6
CONTINUOUS
 62
     0
100
AcDbLine
 10
0.0
 20
0.0
 30
0.0
 11
-1.0
 21
0.0
 31
0.0
  0
CIRCLE
  5
8B
330
60
100
AcDbEntity
  8
0
  6
CONTINUOUS
 62
     0
100
AcDbCircle
 10
0.0
 20
0.0
 30
0.0
 40
0.5
  0
ENDBLK
  5
62
330
60
100
AcDbEntity
  8
0
100
AcDbBlockEnd
  0
BLOCK
  5
64
330
63
100
AcDbEntity
  8
0
100
AcDbBlockBegin
  2
EX_WCIR2
 70
     0
 10
0.0
 20
0.0
 30
0.0
  3
EX_WCIR2
  1

  0
LINE
  5
8C
330
63
100
AcDbEntity
  8
0
  6
CONTINUOUS
 62
     0
100
AcDbLine
 10
-0.5
 20
0.0
 30
0.0
 11
-1.0
 21
0.0
 31
0.0
  0
CIRCLE
  5
8D
330
63
100
AcDbEntity
  8
0
  6
CONTINUOUS
 62
     0
100
AcDbCircle
 10
0.0
 20
0.0
 30
0.0
 40
0.5
  0
ENDBLK
  5
65
330
63
100
AcDbEntity
  8
0
100
AcDbBlockEnd
  0
BLOCK
  5
67
330
66
100
AcDbEntity
  8
0
100
AcDbBlockBegin
  2
EX_WNORM
 70
     0
 10
0.0
 20
0.0
 30
0.0
  3
EX_WNORM
  1

  0
LINE
  5
8E
330
66
100
AcDbEntity
  8
0
  6
CONTINUOUS
 62
     0
100
AcDbLine
 10
-1.0
 20
0.0
 30
0.0
 11
-1.0
 21
0.0
 31
0.0
  0
LINE
  5
8F
330
66
100
AcDbEntity
  8
0
  6
CONTINUOUS
 62
     0
100
AcDbLine
 10
0.0
 20
0.0
 30
0.0
 11
-1.0
 21
0.166666667
 31
0.0
  0
LINE
  5
90
330
66
100
AcDbEntity
  8
0
  6
CONTINUOUS
 62
     0
100
AcDbLine
 10
0.0
 20
0.0
 30
0.0
 11
-1.0
 21
-0.166666667
 31
0.0
  0
LINE
  5
91
330
66
100
AcDbEntity
  8
0
  6
CONTINUOUS
 62
     0
100
AcDbLine
 10
-1.0
 20
0.166666667
 30
0.0
 11
-1.0
 21
-0.166666667
 31
0.0
  0
ENDBLK
  5
68
330
66
100
AcDbEntity
  8
0
100
AcDbBlockEnd
  0
BLOCK
  5
6A
330
69
100
AcDbEntity
  8
0
100
AcDbBlockBegin
  2
EX_NNORM
 70
     0
 10
0.0
 20
0.0
 30
0.0
  3
EX_NNORM
  1

  0
LINE
  5
92
330
69
100
AcDbEntity
  8
0
  6
CONTINUOUS
 62
     0
100
AcDbLine
 10
0.0
 20
0.0
 30
0.0
 11
-1.0
 21
0.0
 31
0.0
  0
LINE
  5
93
330
69
100
AcDbEntity
  8
0
  6
CONTINUOUS
 62
     0
100
AcDbLine
 10
0.0
 20
0.0
 30
0.0
 11
-1.0
 21
0.166666667
 31
0.0
  0
LINE
  5
94
330
69
100
AcDbEntity
  8
0
  6
CONTINUOUS
 62
     0
100
AcDbLine
 10
0.0
 20
0.0
 30
0.0
 11
-1.0
 21
-0.166666667
 31
0.0
  0
LINE
  5
95
330
69
100
AcDbEntity
  8
0
  6
CONTINUOUS
 62
     0
100
AcDbLine
 10
-1.0
 20
0.166666667
 30
0.0
 11
-1.0
 21
-0.166666667
 31
0.0
  0
ENDBLK
  5
6B
330
69
100
AcDbEntity
  8
0
100
AcDbBlockEnd
  0
BLOCK
  5
6D
330
6C
100
AcDbEntity
  8
0
100
AcDbBlockBegin
  2
EX_BBOX
 70
     0
 10
0.0
 20
0.0
 30
0.0
  3
EX_BBOX
  1

  0
LINE
  5
96
330
6C
100
AcDbEntity
  8
0
  6
CONTINUOUS
 62
     0
100
AcDbLine
 10
0.0
 20
0.0
 30
0.0
 11
-1.0
 21
0.0
 31
0.0
  0
LINE
  5
97
330
6C
100
AcDbEntity
  8
0
  6
CONTINUOUS
 62
     0
100
AcDbLine
 10
-0.5
 20
0.5
 30
0.0
 11
0.5
 21
0.5
 31
0.0
  0
LINE
  5
98
330
6C
100
AcDbEntity
  8
0
  6
CONTINUOUS
 62
     0
100
AcDbLine
 10
0.5
 20
0.5
 30
0.0
 11
0.5
 21
-0.5
 31
0.0
  0
LINE
  5
99
330
6C
100
AcDbEntity
  8
0
  6
CONTINUOUS
 62
     0
100
AcDbLine
 10
0.5
 20
-0.5
 30
0.0
 11
-0.5
 21
-0.5
 31
0.0
  0
LINE
  5
9A
330
6C
100
AcDbEntity
  8
0
  6
CONTINUOUS
 62
     0
100
AcDbLine
 10
-0.5
 20
-0.5
 30
0.0
 11
-0.5
 21
0.5
 31
0.0
  0
LINE
  5
9B
330
6C
100
AcDbEntity
  8
0
  6
CONTINUOUS
 62
     0
100
AcDbLine
 10
-0.25
 20
0.25
 30
0.0
 11
0.25
 21
0.25
 31
0.0
  0
LINE
  5
9C
330
6C
100
AcDbEntity
  8
0
  6
CONTINUOUS
 62
     0
100
AcDbLine
 10
0.25
 20
0.25
 30
0.0
 11
0.25
 21
-0.25
 31
0.0
  0
LINE
  5
9D
330
6C
100
AcDbEntity
  8
0
  6
CONTINUOUS
 62
     0
100
AcDbLine
 10
0.25
 20
-0.25
 30
0.0
 11
-0.25
 21
-0.25
 31
0.0
  0
LINE
  5
9E
330
6C
100
AcDbEntity
  8
0
  6
CONTINUOUS
 62
     0
100
AcDbLine
 10
-0.25
 20
-0.25
 30
0.0
 11
-0.25
 21
0.25
 31
0.0
  0
ENDBLK
  5
6E
330
6C
100
AcDbEntity
  8
0
100
AcDbBlockEnd
  0
BLOCK
  5
70
330
6F
100
AcDbEntity
  8
0
100
AcDbBlockBegin
  2
EX_WBOX
 70
     0
 10
0.0
 20
0.0
 30
0.0
  3
EX_WBOX
  1

  0
LINE
  5
9F
330
6F
100
AcDbEntity
  8
0
  6
CONTINUOUS
 62
     0
100
AcDbLine
 10
-0.5
 20
0.0
 30
0.0
 11
-1.0
 21
0.0
 31
0.0
  0
LINE
  5
A0
330
6F
100
AcDbEntity
  8
0
  6
CONTINUOUS
 62
     0
100
AcDbLine
 10
-0.5
 20
0.5
 30
0.0
 11
0.5
 21
0.5
 31
0.0
  0
LINE
  5
A1
330
6F
100
AcDbEntity
  8
0
  6
CONTINUOUS
 62
     0
100
AcDbLine
 10
0.5
 20
0.5
 30
0.0
 11
0.5
 21
-0.5
 31
0.0
  0
LINE
  5
A2
330
6F
100
AcDbEntity
  8
0
  6
CONTINUOUS
 62
     0
100
AcDbLine
 10
0.5
 20
-0.5
 30
0.0
 11
-0.5
 21
-0.5
 31
0.0
  0
LINE
  5
A3
330
6F
100
AcDbEntity
  8
0
  6
CONTINUOUS
 62
     0
100
AcDbLine
 10
-0.5
 20
-0.5
 30
0.0
 11
-0.5
 21
0.5
 31
0.0
  0
ENDBLK
  5
71
330
6F
100
AcDbEntity
  8
0
100
AcDbBlockEnd
  0
BLOCK
  5
73
330
72
100
AcDbEntity
  8
0
100
AcDbBlockBegin
  2
EX_INTEGRAL
 70
     0
 10
0.0
 20
0.0
 30
0.0
  3
EX_INTEGRAL
  1

  0
LINE
  5
A4
330
72
100
AcDbEntity
  8
0
  6
CONTINUOUS
 62
     0
100
AcDbLine
 10
0.0
 20
0.0
 30
0.0
 11
-1.0
 21
0.0
 31
0.0
  0
ARC
  5
A5
330
72
100
AcDbEntity
  8
0
  6
CONTINUOUS
 62
     0
100
AcDbCircle
 10
0.542115
 20
0.164992
 30
0.0
 40
0.56667
100
AcDbArc
 50
73.07249033629006
 51
196.9275130221199
  0
ARC
  5
A6
330
72
100
AcDbEntity
  8
0
  6
CONTINUOUS
 62
     0
100
AcDbCircle
 10
-0.542115
 20
-0.164992
 30
0.0
 40
0.56667
100
AcDbArc
 50
253.0724869220464
 51
16.9275130559125
  0
ENDBLK
  5
74
330
72
100
AcDbEntity
  8
0
100
AcDbBlockEnd
  0
BLOCK
  5
29C
330
29B
100
AcDbEntity
  8
0
100
AcDbBlockBegin
  2
*D15
 70
     1
 10
0.0
 20
0.0
 30
0.0
  3
*D15
  1

  0
LINE
  5
29E
330
29B
100
AcDbEntity
  8
鏡台
  6
CONTINUOUS
 62
     3
100
AcDbLine
 10
531.9999999999991
 20
1871.999999880791
 30
0.0
 11
531.9999999999991
 21
1998.0
 31
0.0
  0
LINE
  5
29F
330
29B
100
AcDbEntity
  8
鏡台
  6
CONTINUOUS
 62
     3
100
AcDbLine
 10
1131.999999999999
 20
1871.999999880791
 30
0.0
 11
1131.999999999999
 21
1998.0
 31
0.0
  0
LINE
  5
2A0
330
29B
100
AcDbEntity
  8
鏡台
  6
CONTINUOUS
 62
     3
100
AcDbLine
 10
561.9999999999991
 20
1988.0
 30
0.0
 11
1101.999999999999
 21
1988.0
 31
0.0
  0
INSERT
  5
2A1
330
29B
100
AcDbEntity
  8
鏡台
 62
     3
100
AcDbBlockReference
  2
EX_NORM
 10
531.9999999999991
 20
1988.0
 30
0.0
 41
30.0
 42
30.0
 43
30.0
 50
180.0
  0
INSERT
  5
2A2
330
29B
100
AcDbEntity
  8
鏡台
 62
     3
100
AcDbBlockReference
  2
EX_NORM
 10
1131.999999999999
 20
1988.0
 30
0.0
 41
30.0
 42
30.0
 43
30.0
  0
MTEXT
  5
2A3
330
29B
100
AcDbEntity
  8
鏡台
 62
     2
100
AcDbMText
 10
831.9999999999993
 20
2011.499999940395
 30
0.0
 40
40.0
 41
0.0
 71
     5
 72
     1
  1
600
  7
EXCADDIM1
  0
POINT
  5
2A4
330
29B
100
AcDbEntity
  8
DEFPOINTS
 62
     0
100
AcDbPoint
 10
531.9999999999991
 20
1865.0
 30
0.0
  0
POINT
  5
2A5
330
29B
100
AcDbEntity
  8
DEFPOINTS
 62
     0
100
AcDbPoint
 10
1131.999999999999
 20
1865.0
 30
0.0
  0
POINT
  5
2A6
330
29B
100
AcDbEntity
  8
DEFPOINTS
 62
     0
100
AcDbPoint
 10
1131.999999999999
 20
1988.0
 30
0.0
  0
ENDBLK
  5
29D
330
29B
100
AcDbEntity
  8
0
100
AcDbBlockEnd
  0
BLOCK
  5
2A9
330
2A8
100
AcDbEntity
  8
0
100
AcDbBlockBegin
  2
*D16
 70
     1
 10
0.0
 20
0.0
 30
0.0
  3
*D16
  1

  0
LINE
  5
2AB
330
2A8
100
AcDbEntity
  8
鏡台
  6
CONTINUOUS
 62
     3
100
AcDbLine
 10
1138.99999988079
 20
1865.0
 30
0.0
 11
1227.999999999999
 21
1865.0
 31
0.0
  0
LINE
  5
2AC
330
2A8
100
AcDbEntity
  8
鏡台
  6
CONTINUOUS
 62
     3
100
AcDbLine
 10
1138.99999988079
 20
1265.0
 30
0.0
 11
1227.999999999999
 21
1265.0
 31
0.0
  0
LINE
  5
2AD
330
2A8
100
AcDbEntity
  8
鏡台
  6
CONTINUOUS
 62
     3
100
AcDbLine
 10
1217.999999999999
 20
1835.0
 30
0.0
 11
1217.999999999999
 21
1295.0
 31
0.0
  0
INSERT
  5
2AE
330
2A8
100
AcDbEntity
  8
鏡台
 62
     3
100
AcDbBlockReference
  2
EX_NORM
 10
1217.999999999999
 20
1865.0
 30
0.0
 41
30.0
 42
30.0
 43
30.0
 50
90.0
  0
INSERT
  5
2AF
330
2A8
100
AcDbEntity
  8
鏡台
 62
     3
100
AcDbBlockReference
  2
EX_NORM
 10
1217.999999999999
 20
1265.0
 30
0.0
 41
30.0
 42
30.0
 43
30.0
 50
270.0
  0
MTEXT
  5
2B0
330
2A8
100
AcDbEntity
  8
鏡台
 62
     2
100
AcDbMText
 10
1194.500000059605
 20
1565.0
 30
0.0
 40
40.0
 41
0.0
 71
     5
 72
     1
  1
600
  7
EXCADDIM1
 11
0.0
 21
1.0
 31
0.0
  0
POINT
  5
2B1
330
2A8
100
AcDbEntity
  8
DEFPOINTS
 62
     0
100
AcDbPoint
 10
1131.999999999999
 20
1865.0
 30
0.0
  0
POINT
  5
2B2
330
2A8
100
AcDbEntity
  8
DEFPOINTS
 62
     0
100
AcDbPoint
 10
1131.999999999999
 20
1265.0
 30
0.0
  0
POINT
  5
2B3
330
2A8
100
AcDbEntity
  8
DEFPOINTS
 62
     0
100
AcDbPoint
 10
1217.999999999999
 20
1265.0
 30
0.0
  0
ENDBLK
  5
2AA
330
2A8
100
AcDbEntity
  8
0
100
AcDbBlockEnd
  0
BLOCK
  5
2B7
330
2B6
100
AcDbEntity
  8
0
100
AcDbBlockBegin
  2
*D17
 70
     1
 10
0.0
 20
0.0
 30
0.0
  3
*D17
  1

  0
LINE
  5
2B9
330
2B6
100
AcDbEntity
  8
鏡台
  6
CONTINUOUS
 62
     3
100
AcDbLine
 10
1618.0
 20
1870.0
 30
0.0
 11
1618.0
 21
1965.000000000001
 31
0.0
  0
LINE
  5
2BA
330
2B6
100
AcDbEntity
  8
鏡台
  6
CONTINUOUS
 62
     3
100
AcDbLine
 10
1575.599999999999
 20
1831.2
 30
0.0
 11
1575.599999999999
 21
1965.000000000001
 31
0.0
  0
LINE
  5
2BB
330
2B6
100
AcDbEntity
  8
鏡台
  6
CONTINUOUS
 62
     3
100
AcDbLine
 10
1618.0
 20
1955.000000000001
 30
0.0
 11
1575.599999999999
 21
1955.000000000001
 31
0.0
  0
LINE
  5
2BC
330
2B6
100
AcDbEntity
  8
鏡台
  6
CONTINUOUS
 62
     3
100
AcDbLine
 10
1648.0
 20
1955.000000000001
 30
0.0
 11
1678.0
 21
1955.000000000001
 31
0.0
  0
LINE
  5
2BD
330
2B6
100
AcDbEntity
  8
鏡台
  6
CONTINUOUS
 62
     3
100
AcDbLine
 10
1545.599999999999
 20
1955.000000000001
 30
0.0
 11
1515.599999999999
 21
1955.000000000001
 31
0.0
  0
INSERT
  5
2BE
330
2B6
100
AcDbEntity
  8
鏡台
 62
     3
100
AcDbBlockReference
  2
EX_NORM
 10
1618.0
 20
1955.000000000001
 30
0.0
 41
30.0
 42
30.0
 43
30.0
 50
180.0
  0
INSERT
  5
2BF
330
2B6
100
AcDbEntity
  8
鏡台
 62
     3
100
AcDbBlockReference
  2
EX_NORM
 10
1575.599999999999
 20
1955.000000000001
 30
0.0
 41
30.0
 42
30.0
 43
30.0
  0
MTEXT
  5
2C0
330
2B6
100
AcDbEntity
  8
鏡台
 62
     2
100
AcDbMText
 10
1688.000000000001
 20
1978.499999940393
 30
0.0
 40
40.0
 41
0.0
 71
     5
 72
     1
  1
43
  7
EXCADDIM2
  0
POINT
  5
2C1
330
2B6
100
AcDbEntity
  8
DEFPOINTS
 62
     0
100
AcDbPoint
 10
1618.0
 20
1865.0
 30
0.0
  0
POINT
  5
2C2
330
2B6
100
AcDbEntity
  8
DEFPOINTS
 62
     0
100
AcDbPoint
 10
1575.599999999999
 20
1826.2
 30
0.0
  0
POINT
  5
2C3
330
2B6
100
AcDbEntity
  8
DEFPOINTS
 62
     0
100
AcDbPoint
 10
1575.599999999999
 20
1955.000000000001
 30
0.0
  0
ENDBLK
  5
2B8
330
2B6
100
AcDbEntity
  8
0
100
AcDbBlockEnd
  0
BLOCK
  5
2C6
330
2C5
100
AcDbEntity
  8
0
100
AcDbBlockBegin
  2
*D18
 70
     1
 10
0.0
 20
0.0
 30
0.0
  3
*D18
  1

  0
LINE
  5
2C8
330
2C5
100
AcDbEntity
  8
鏡台
  6
CONTINUOUS
 62
     3
100
AcDbLine
 10
1663.7999999998
 20
1770.0
 30
0.0
 11
1750.499999999999
 21
1770.0
 31
0.0
  0
LINE
  5
2C9
330
2C5
100
AcDbEntity
  8
鏡台
  6
CONTINUOUS
 62
     3
100
AcDbLine
 10
1740.499999999999
 20
1315.0
 30
0.0
 11
1740.499999999999
 21
1419.5
 31
0.0
  0
LINE
  5
2CA
330
2C5
100
AcDbEntity
  8
鏡台
  6
CONTINUOUS
 62
     3
100
AcDbLine
 10
1740.499999999999
 20
1740.0
 30
0.0
 11
1740.499999999999
 21
1635.5
 31
0.0
  0
INSERT
  5
2CB
330
2C5
100
AcDbEntity
  8
鏡台
 62
     3
100
AcDbBlockReference
  2
EX_NORM
 10
1740.499999999999
 20
1285.0
 30
0.0
 41
30.0
 42
30.0
 43
30.0
 50
270.0
  0
INSERT
  5
2CC
330
2C5
100
AcDbEntity
  8
鏡台
 62
     3
100
AcDbBlockReference
  2
EX_NORM
 10
1740.499999999999
 20
1770.0
 30
0.0
 41
30.0
 42
30.0
 43
30.0
 50
90.0
  0
MTEXT
  5
2CD
330
2C5
100
AcDbEntity
  8
鏡台
 62
     2
100
AcDbMText
 10
1717.000000059604
 20
1527.5
 30
0.0
 40
40.0
 41
0.0
 71
     5
 72
     1
  1
485(壁固定)
  7
EXCADDIM1
 11
0.0
 21
1.0
 31
0.0
  0
POINT
  5
2CE
330
2C5
100
AcDbEntity
  8
DEFPOINTS
 62
     0
100
AcDbPoint
 10
1658.799999999839
 20
1285.0
 30
0.0
  0
POINT
  5
2CF
330
2C5
100
AcDbEntity
  8
DEFPOINTS
 62
     0
100
AcDbPoint
 10
1658.7999999998
 20
1770.0
 30
0.0
  0
POINT
  5
2D0
330
2C5
100
AcDbEntity
  8
DEFPOINTS
 62
     0
100
AcDbPoint
 10
1740.499999999999
 20
1770.0
 30
0.0
  0
ENDBLK
  5
2C7
330
2C5
100
AcDbEntity
  8
0
100
AcDbBlockEnd
  0
BLOCK
  5
2D3
330
2D2
100
AcDbEntity
  8
0
100
AcDbBlockBegin
  2
*D19
 70
     1
 10
0.0
 20
0.0
 30
0.0
  3
*D19
  1

  0
LINE
  5
2D5
330
2D2
100
AcDbEntity
  8
鏡台
  6
CONTINUOUS
 62
     3
100
AcDbLine
 10
1608.0
 20
1265.0
 30
0.0
 11
1750.5
 21
1265.0
 31
0.0
  0
LINE
  5
2D6
330
2D2
100
AcDbEntity
  8
鏡台
  6
CONTINUOUS
 62
     3
100
AcDbLine
 10
1663.79999999984
 20
1285.0
 30
0.0
 11
1750.5
 21
1285.0
 31
0.0
  0
LINE
  5
2D7
330
2D2
100
AcDbEntity
  8
鏡台
  6
CONTINUOUS
 62
     3
100
AcDbLine
 10
1740.5
 20
1265.0
 30
0.0
 11
1740.5
 21
1285.0
 31
0.0
  0
LINE
  5
2D8
330
2D2
100
AcDbEntity
  8
鏡台
  6
CONTINUOUS
 62
     3
100
AcDbLine
 10
1740.5
 20
1235.0
 30
0.0
 11
1740.5
 21
1205.0
 31
0.0
  0
LINE
  5
2D9
330
2D2
100
AcDbEntity
  8
鏡台
  6
CONTINUOUS
 62
     3
100
AcDbLine
 10
1740.5
 20
1315.0
 30
0.0
 11
1740.5
 21
1345.0
 31
0.0
  0
INSERT
  5
2DA
330
2D2
100
AcDbEntity
  8
鏡台
 62
     3
100
AcDbBlockReference
  2
EX_NORM
 10
1740.5
 20
1265.0
 30
0.0
 41
30.0
 42
30.0
 43
30.0
 50
90.0
  0
INSERT
  5
2DB
330
2D2
100
AcDbEntity
  8
鏡台
 62
     3
100
AcDbBlockReference
  2
EX_NONE
 10
1740.5
 20
1285.0
 30
0.0
 41
30.0
 42
30.0
 43
30.0
 50
270.0
  0
MTEXT
  5
2DC
330
2D2
100
AcDbEntity
  8
鏡台
 62
     2
100
AcDbMText
 10
1717.000000059607
 20
1199.999999999998
 30
0.0
 40
40.0
 41
0.0
 71
     5
 72
     1
  1
20
  7
EXCADDIM1
 11
0.0
 21
1.0
 31
0.0
  0
POINT
  5
2DD
330
2D2
100
AcDbEntity
  8
DEFPOINTS
 62
     0
100
AcDbPoint
 10
1603.0
 20
1265.0
 30
0.0
  0
POINT
  5
2DE
330
2D2
100
AcDbEntity
  8
DEFPOINTS
 62
     0
100
AcDbPoint
 10
1658.79999999984
 20
1285.0
 30
0.0
  0
POINT
  5
2DF
330
2D2
100
AcDbEntity
  8
DEFPOINTS
 62
     0
100
AcDbPoint
 10
1740.5
 20
1285.0
 30
0.0
  0
ENDBLK
  5
2D4
330
2D2
100
AcDbEntity
  8
0
100
AcDbBlockEnd
  0
BLOCK
  5
2E2
330
2E1
100
AcDbEntity
  8
0
100
AcDbBlockBegin
  2
*D20
 70
     1
 10
0.0
 20
0.0
 30
0.0
  3
*D20
  1

  0
LINE
  5
2E4
330
2E1
100
AcDbEntity
  8
鏡台
  6
CONTINUOUS
 62
     3
100
AcDbLine
 10
681.9999999999995
 20
1788.4
 30
0.0
 11
681.9999999999995
 21
1934.0
 31
0.0
  0
LINE
  5
2E5
330
2E1
100
AcDbEntity
  8
鏡台
  6
CONTINUOUS
 62
     3
100
AcDbLine
 10
982.0000000000005
 20
1788.4
 30
0.0
 11
982.0000000000005
 21
1934.0
 31
0.0
  0
LINE
  5
2E6
330
2E1
100
AcDbEntity
  8
鏡台
  6
CONTINUOUS
 62
     3
100
AcDbLine
 10
711.9999999999995
 20
1924.0
 30
0.0
 11
952.0000000000005
 21
1924.0
 31
0.0
  0
INSERT
  5
2E7
330
2E1
100
AcDbEntity
  8
鏡台
 62
     3
100
AcDbBlockReference
  2
EX_NORM
 10
681.9999999999995
 20
1924.0
 30
0.0
 41
30.0
 42
30.0
 43
30.0
 50
180.0
  0
INSERT
  5
2E8
330
2E1
100
AcDbEntity
  8
鏡台
 62
     3
100
AcDbBlockReference
  2
EX_NORM
 10
982.0000000000005
 20
1924.0
 30
0.0
 41
30.0
 42
30.0
 43
30.0
  0
MTEXT
  5
2E9
330
2E1
100
AcDbEntity
  8
鏡台
 62
     2
100
AcDbMText
 10
832.0000000000001
 20
1947.499999940395
 30
0.0
 40
40.0
 41
0.0
 71
     5
 72
     1
  1
300
  7
EXCADDIM1
  0
POINT
  5
2EA
330
2E1
100
AcDbEntity
  8
DEFPOINTS
 62
     0
100
AcDbPoint
 10
681.9999999999995
 20
1783.4
 30
0.0
  0
POINT
  5
2EB
330
2E1
100
AcDbEntity
  8
DEFPOINTS
 62
     0
100
AcDbPoint
 10
982.0000000000005
 20
1783.4
 30
0.0
  0
POINT
  5
2EC
330
2E1
100
AcDbEntity
  8
DEFPOINTS
 62
     0
100
AcDbPoint
 10
982.0000000000005
 20
1924.0
 30
0.0
  0
ENDBLK
  5
2E3
330
2E1
100
AcDbEntity
  8
0
100
AcDbBlockEnd
  0
ENDSEC
  0
SECTION
  2
ENTITIES
  0
LINE
  5
A7
330
1F
100
AcDbEntity
  8
枠_表
  6
EXLTYPE4
 62
     6
100
AcDbLine
 10
1618.0
 20
1170.0
 30
0.0
 11
1618.0
 21
2213.0
 31
0.0
  0
LINE
  5
A8
330
1F
100
AcDbEntity
  8
枠_表
  6
CONTINUOUS
 62
     7
100
AcDbLine
 10
180.0
 20
135.0
 30
0.0
 11
2000.0
 21
135.0
 31
0.0
  0
LINE
  5
A9
330
1F
100
AcDbEntity
  8
枠_表
  6
CONTINUOUS
 62
     7
100
AcDbLine
 10
2000.0
 20
135.0
 30
0.0
 11
2000.0
 21
2885.0
 31
0.0
  0
LINE
  5
AA
330
1F
100
AcDbEntity
  8
枠_表
  6
CONTINUOUS
 62
     7
100
AcDbLine
 10
180.0
 20
135.0
 30
0.0
 11
180.0
 21
2885.0
 31
0.0
  0
LINE
  5
AB
330
1F
100
AcDbEntity
  8
枠_表
  6
CONTINUOUS
 62
     7
100
AcDbLine
 10
180.0
 20
2885.0
 30
0.0
 11
2000.0
 21
2885.0
 31
0.0
  0
LINE
  5
AC
330
1F
100
AcDbEntity
  8
枠_表
  6
CONTINUOUS
 62
     7
100
AcDbLine
 10
180.0
 20
355.0
 30
0.0
 11
2000.0
 21
355.0
 31
0.0
  0
LINE
  5
AD
330
1F
100
AcDbEntity
  8
枠_表
  6
CONTINUOUS
 62
     6
100
AcDbLine
 10
2000.0
 20
235.0
 30
0.0
 11
750.0
 21
235.0
 31
0.0
  0
LINE
  5
AE
330
1F
100
AcDbEntity
  8
枠_表
  6
CONTINUOUS
 62
     6
100
AcDbLine
 10
1860.0
 20
355.0
 30
0.0
 11
1860.0
 21
235.0
 31
0.0
  0
LINE
  5
AF
330
1F
100
AcDbEntity
  8
枠_表
  6
CONTINUOUS
 62
     6
100
AcDbLine
 10
1810.0
 20
355.0
 30
0.0
 11
1810.0
 21
235.0
 31
0.0
  0
LINE
  5
B0
330
1F
100
AcDbEntity
  8
枠_表
  6
CONTINUOUS
 62
     6
100
AcDbLine
 10
1440.0
 20
355.0
 30
0.0
 11
1440.0
 21
135.0
 31
0.0
  0
LINE
  5
B1
330
1F
100
AcDbEntity
  8
枠_表
  6
CONTINUOUS
 62
     6
100
AcDbLine
 10
1390.0
 20
355.0
 30
0.0
 11
1390.0
 21
135.0
 31
0.0
  0
LINE
  5
B2
330
1F
100
AcDbEntity
  8
枠_表
  6
CONTINUOUS
 62
     6
100
AcDbLine
 10
800.0
 20
355.0
 30
0.0
 11
800.0
 21
235.0
 31
0.0
  0
LINE
  5
B3
330
1F
100
AcDbEntity
  8
枠_表
  6
CONTINUOUS
 62
     6
100
AcDbLine
 10
750.0
 20
355.0
 30
0.0
 11
750.0
 21
135.0
 31
0.0
  0
LINE
  5
B4
330
1F
100
AcDbEntity
  8
枠_表
  6
CONTINUOUS
 62
     6
100
AcDbLine
 10
620.0
 20
355.0
 30
0.0
 11
620.0
 21
135.0
 31
0.0
  0
LINE
  5
B5
330
1F
100
AcDbEntity
  8
枠_表
  6
CONTINUOUS
 62
     6
100
AcDbLine
 10
490.0
 20
355.0
 30
0.0
 11
490.0
 21
135.0
 31
0.0
  0
LINE
  5
B6
330
1F
100
AcDbEntity
  8
枠_表
  6
CONTINUOUS
 62
     6
100
AcDbLine
 10
335.0
 20
355.0
 30
0.0
 11
335.0
 21
135.0
 31
0.0
  0
LINE
  5
B7
330
1F
100
AcDbEntity
  8
枠_表
  6
CONTINUOUS
 62
     6
100
AcDbLine
 10
180.0
 20
305.0
 30
0.0
 11
750.0
 21
305.0
 31
0.0
  0
LINE
  5
B8
330
1F
100
AcDbEntity
  8
枠_表
  6
CONTINUOUS
 62
     6
100
AcDbLine
 10
1892.6538086
 20
258.0029297
 30
0.0
 11
1969.9938965
 21
336.6998291
 31
0.0
  0
LINE
  5
B9
330
1F
100
AcDbEntity
  8
枠_表
  6
EXLTYPE2
 62
     6
100
AcDbLine
 10
180.0
 20
185.0
 30
0.0
 11
490.0
 21
185.0
 31
0.0
  0
CIRCLE
  5
BA
330
1F
100
AcDbEntity
  8
枠_表
  6
CONTINUOUS
 62
     6
100
AcDbCircle
 10
230.0
 20
160.0
 30
0.0
 40
1.0000002
  0
CIRCLE
  5
BB
330
1F
100
AcDbEntity
  8
枠_表
  6
CONTINUOUS
 62
     6
100
AcDbCircle
 10
280.0
 20
160.0
 30
0.0
 40
1.0000002
  0
CIRCLE
  5
BC
330
1F
100
AcDbEntity
  8
枠_表
  6
CONTINUOUS
 62
     6
100
AcDbCircle
 10
385.0
 20
160.0
 30
0.0
 40
1.0000002
  0
CIRCLE
  5
BD
330
1F
100
AcDbEntity
  8
枠_表
  6
CONTINUOUS
 62
     6
100
AcDbCircle
 10
435.0
 20
160.0
 30
0.0
 40
1.0000002
  0
TEXT
  5
BE
330
1F
100
AcDbEntity
  8
枠_表
  6
CONTINUOUS
 62
     2
100
AcDbText
 10
1890.5371094
 20
302.7227783
 30
0.0
 40
30.0
  1
１
 41
1.101333333333329
  7
EXCADSTD
 72
     5
 11
1914.1371094
 21
302.7227783
 31
0.0
100
AcDbText
  0
TEXT
  5
BF
330
1F
100
AcDbEntity
  8
枠_表
  6
CONTINUOUS
 62
     2
100
AcDbText
 10
202.5
 20
308.75
 30
0.0
 40
42.5
  1
製図
 41
1.509694117647059
  7
EXCADSTD
 72
     5
 11
303.326
 21
308.75
 31
0.0
100
AcDbText
  0
TEXT
  5
C0
330
1F
100
AcDbEntity
  8
枠_表
  6
CONTINUOUS
 62
     2
100
AcDbText
 10
357.5
 20
308.75
 30
0.0
 40
42.5
  1
写図
 41
1.509694117647059
  7
EXCADSTD
 72
     5
 11
458.326
 21
308.75
 31
0.0
100
AcDbText
  0
TEXT
  5
C1
330
1F
100
AcDbEntity
  8
枠_表
  6
CONTINUOUS
 62
     2
100
AcDbText
 10
507.5
 20
308.75
 30
0.0
 40
42.5
  1
検図
 41
1.303826737967914
  7
EXCADSTD
 72
     5
 11
594.577
 21
308.75
 31
0.0
100
AcDbText
  0
TEXT
  5
C2
330
1F
100
AcDbEntity
  8
枠_表
  6
CONTINUOUS
 62
     2
100
AcDbText
 10
637.5
 20
308.75
 30
0.0
 40
42.5
  1
承認
 41
1.303826737967914
  7
EXCADSTD
 72
     5
 11
724.577
 21
308.75
 31
0.0
100
AcDbText
  0
TEXT
  5
C3
330
1F
100
AcDbEntity
  8
枠_表
  6
CONTINUOUS
 62
     2
100
AcDbText
 10
755.75
 20
298.75
 30
0.0
 40
42.5
  1
品
 41
1.12
  7
EXCADSTD
 72
     5
 11
789.75
 21
298.75
 31
0.0
100
AcDbText
  0
TEXT
  5
C4
330
1F
100
AcDbEntity
  8
枠_表
  6
CONTINUOUS
 62
     2
100
AcDbText
 10
755.75
 20
248.75
 30
0.0
 40
42.5
  1
名
 41
1.12
  7
EXCADSTD
 72
     5
 11
789.75
 21
248.75
 31
0.0
100
AcDbText
  0
TEXT
  5
C5
330
1F
100
AcDbEntity
  8
枠_表
  6
CONTINUOUS
 62
     2
100
AcDbText
 10
1395.75
 20
298.75
 30
0.0
 40
42.5
  1
品
 41
1.12
  7
EXCADSTD
 72
     5
 11
1429.75
 21
298.75
 31
0.0
100
AcDbText
  0
TEXT
  5
C6
330
1F
100
AcDbEntity
  8
枠_表
  6
CONTINUOUS
 62
     2
100
AcDbText
 10
1395.75
 20
248.75
 30
0.0
 40
42.5
  1
番
 41
1.12
  7
EXCADSTD
 72
     5
 11
1429.75
 21
248.75
 31
0.0
100
AcDbText
  0
TEXT
  5
C7
330
1F
100
AcDbEntity
  8
枠_表
  6
CONTINUOUS
 62
     2
100
AcDbText
 10
1816.75
 20
298.75
 30
0.0
 40
42.5
  1
尺
 41
1.12
  7
EXCADSTD
 72
     5
 11
1850.75
 21
298.75
 31
0.0
100
AcDbText
  0
TEXT
  5
C8
330
1F
100
AcDbEntity
  8
枠_表
  6
CONTINUOUS
 62
     2
100
AcDbText
 10
1816.75
 20
248.75
 30
0.0
 40
42.5
  1
度
 41
1.12
  7
EXCADSTD
 72
     5
 11
1850.75
 21
248.75
 31
0.0
100
AcDbText
  0
TEXT
  5
C9
330
1F
100
AcDbEntity
  8
枠_表
  6
CONTINUOUS
 62
     2
100
AcDbText
 10
1395.75
 20
185.75
 30
0.0
 40
42.5
  1
図
 41
1.12
  7
EXCADSTD
 72
     5
 11
1429.75
 21
185.75
 31
0.0
100
AcDbText
  0
TEXT
  5
CA
330
1F
100
AcDbEntity
  8
枠_表
  6
CONTINUOUS
 62
     2
100
AcDbText
 10
1395.75
 20
142.75
 30
0.0
 40
42.5
  1
番
 41
1.12
  7
EXCADSTD
 72
     5
 11
1429.75
 21
142.75
 31
0.0
100
AcDbText
  0
LINE
  5
CB
330
1F
100
AcDbEntity
  8
枠_表
  6
CONTINUOUS
 62
     3
100
AcDbLine
 10
827.4477539999999
 20
200.2879944
 30
0.0
 11
819.3840942999999
 21
200.2879944
 31
0.0
  0
LINE
  5
CC
330
1F
100
AcDbEntity
  8
枠_表
  6
CONTINUOUS
 62
     3
100
AcDbLine
 10
827.4477539999999
 20
208.3519592
 30
0.0
 11
827.4477539999999
 21
200.2879944
 31
0.0
  0
LINE
  5
CD
330
1F
100
AcDbEntity
  8
枠_表
  6
CONTINUOUS
 62
     3
100
AcDbLine
 10
819.3840942999999
 20
208.3519592
 30
0.0
 11
827.4477539999999
 21
208.3519592
 31
0.0
  0
LINE
  5
CE
330
1F
100
AcDbEntity
  8
枠_表
  6
CONTINUOUS
 62
     3
100
AcDbLine
 10
819.3840942999999
 20
208.3519592
 30
0.0
 11
819.3840942999999
 21
200.2879944
 31
0.0
  0
LINE
  5
CF
330
1F
100
AcDbEntity
  8
枠_表
  6
CONTINUOUS
 62
     3
100
AcDbLine
 10
816.3591918999999
 20
200.2879944
 30
0.0
 11
808.2955323
 21
200.2879944
 31
0.0
  0
LINE
  5
D0
330
1F
100
AcDbEntity
  8
枠_表
  6
CONTINUOUS
 62
     3
100
AcDbLine
 10
816.3591918999999
 20
208.3519592
 30
0.0
 11
816.3591918999999
 21
200.2879944
 31
0.0
  0
LINE
  5
D1
330
1F
100
AcDbEntity
  8
枠_表
  6
CONTINUOUS
 62
     3
100
AcDbLine
 10
808.2955323
 20
208.3519592
 30
0.0
 11
816.3591918999999
 21
208.3519592
 31
0.0
  0
LINE
  5
D2
330
1F
100
AcDbEntity
  8
枠_表
  6
CONTINUOUS
 62
     3
100
AcDbLine
 10
808.2955323
 20
208.3519592
 30
0.0
 11
808.2955323
 21
200.2879944
 31
0.0
  0
LINE
  5
D3
330
1F
100
AcDbEntity
  8
枠_表
  6
CONTINUOUS
 62
     3
100
AcDbLine
 10
799.8873291
 20
164.0
 30
0.0
 11
771.0
 21
164.0
 31
0.0
  0
ARC
  5
D4
330
1F
100
AcDbEntity
  8
枠_表
  6
CONTINUOUS
 62
     3
100
AcDbCircle
 10
799.8873291
 20
182.1440735
 30
0.0
 40
18.1439972
100
AcDbArc
 50
270.0000305200002
 51
334.0001373300001
  0
LINE
  5
D5
330
1F
100
AcDbEntity
  8
枠_表
  6
CONTINUOUS
 62
     3
100
AcDbLine
 10
827.4477539999999
 20
197.2640076
 30
0.0
 11
816.1930237
 21
174.1901245
 31
0.0
  0
LINE
  5
D6
330
1F
100
AcDbEntity
  8
枠_表
  6
CONTINUOUS
 62
     3
100
AcDbLine
 10
815.1122436999999
 20
197.2640076
 30
0.0
 11
827.4477539999999
 21
197.2640076
 31
0.0
  0
LINE
  5
D7
330
1F
100
AcDbEntity
  8
枠_表
  6
CONTINUOUS
 62
     3
100
AcDbLine
 10
806.01297
 20
178.6090698
 30
0.0
 11
815.1122436999999
 21
197.2640076
 31
0.0
  0
ARC
  5
D8
330
1F
100
AcDbEntity
  8
枠_表
  6
CONTINUOUS
 62
     3
100
AcDbCircle
 10
798.7655030000001
 20
182.1440735
 30
0.0
 40
8.064000000000002
100
AcDbArc
 50
270.0000305200002
 51
333.9985504200004
  0
LINE
  5
D9
330
1F
100
AcDbEntity
  8
枠_表
  6
CONTINUOUS
 62
     3
100
AcDbLine
 10
771.0
 20
174.0799561
 30
0.0
 11
798.7655030000001
 21
174.0799561
 31
0.0
  0
LINE
  5
DA
330
1F
100
AcDbEntity
  8
枠_表
  6
CONTINUOUS
 62
     3
100
AcDbLine
 10
771.0
 20
174.0799561
 30
0.0
 11
771.0
 21
164.0
 31
0.0
  0
LINE
  5
DB
330
1F
100
AcDbEntity
  8
枠_表
  6
CONTINUOUS
 62
     3
100
AcDbLine
 10
799.2249451
 20
187.1838989
 30
0.0
 11
771.0
 21
187.1838989
 31
0.0
  0
LINE
  5
DC
330
1F
100
AcDbEntity
  8
枠_表
  6
CONTINUOUS
 62
     3
100
AcDbLine
 10
799.2249451
 20
196.256012
 30
0.0
 11
799.2249451
 21
187.1838989
 31
0.0
  0
LINE
  5
DD
330
1F
100
AcDbEntity
  8
枠_表
  6
CONTINUOUS
 62
     3
100
AcDbLine
 10
771.0
 20
196.256012
 30
0.0
 11
799.2249451
 21
196.256012
 31
0.0
  0
LINE
  5
DE
330
1F
100
AcDbEntity
  8
枠_表
  6
CONTINUOUS
 62
     3
100
AcDbLine
 10
771.0
 20
196.256012
 30
0.0
 11
771.0
 21
187.1838989
 31
0.0
  0
LINE
  5
DF
330
1F
100
AcDbEntity
  8
枠_表
  6
CONTINUOUS
 62
     3
100
AcDbLine
 10
799.2249451
 20
199.2799988
 30
0.0
 11
771.0
 21
199.2799988
 31
0.0
  0
LINE
  5
E0
330
1F
100
AcDbEntity
  8
枠_表
  6
CONTINUOUS
 62
     3
100
AcDbLine
 10
799.2249451
 20
208.3519592
 30
0.0
 11
799.2249451
 21
199.2799988
 31
0.0
  0
LINE
  5
E1
330
1F
100
AcDbEntity
  8
枠_表
  6
CONTINUOUS
 62
     3
100
AcDbLine
 10
771.0
 20
208.3519592
 30
0.0
 11
799.2249451
 21
208.3519592
 31
0.0
  0
LINE
  5
E2
330
1F
100
AcDbEntity
  8
枠_表
  6
CONTINUOUS
 62
     3
100
AcDbLine
 10
771.0
 20
208.3519592
 30
0.0
 11
771.0
 21
199.2799988
 31
0.0
  0
LINE
  5
E3
330
1F
100
AcDbEntity
  8
枠_表
  6
CONTINUOUS
 62
     3
100
AcDbLine
 10
830.4726562999999
 20
197.2640076
 30
0.0
 11
830.4726562999999
 21
190.2078858
 31
0.0
  0
LINE
  5
E4
330
1F
100
AcDbEntity
  8
枠_表
  6
CONTINUOUS
 62
     3
100
AcDbLine
 10
830.4726562999999
 20
197.2640076
 30
0.0
 11
839.6540223
 21
197.2640076
 31
0.0
  0
LINE
  5
E5
330
1F
100
AcDbEntity
  8
枠_表
  6
CONTINUOUS
 62
     3
100
AcDbLine
 10
838.5363159999999
 20
204.3199768
 30
0.0
 11
839.6540223
 21
197.2640076
 31
0.0
  0
LINE
  5
E6
330
1F
100
AcDbEntity
  8
枠_表
  6
CONTINUOUS
 62
     3
100
AcDbLine
 10
838.5363159999999
 20
204.3199768
 30
0.0
 11
849.7623597
 21
204.3199768
 31
0.0
  0
LINE
  5
E7
330
1F
100
AcDbEntity
  8
枠_表
  6
CONTINUOUS
 62
     3
100
AcDbLine
 10
849.7623597
 20
204.3199768
 30
0.0
 11
850.8799134000001
 21
197.2640076
 31
0.0
  0
LINE
  5
E8
330
1F
100
AcDbEntity
  8
枠_表
  6
CONTINUOUS
 62
     3
100
AcDbLine
 10
850.8799134000001
 20
197.2640076
 30
0.0
 11
878.8567505000001
 21
197.2640076
 31
0.0
  0
LINE
  5
E9
330
1F
100
AcDbEntity
  8
枠_表
  6
CONTINUOUS
 62
     3
100
AcDbLine
 10
878.8567505000001
 20
197.2640076
 30
0.0
 11
872.9731141000001
 21
184.0505066
 31
0.0
  0
ARC
  5
EA
330
1F
100
AcDbEntity
  8
枠_表
  6
CONTINUOUS
 62
     3
100
AcDbCircle
 10
859.1610108
 20
190.200409
 30
0.0
 40
15.1201057
100
AcDbArc
 50
263.4657745200003
 51
335.9987792800001
  0
LINE
  5
EB
330
1F
100
AcDbEntity
  8
枠_表
  6
CONTINUOUS
 62
     3
100
AcDbLine
 10
857.4384461
 20
175.1785889
 30
0.0
 11
856.3370666999999
 21
182.1440735
 31
0.0
  0
ARC
  5
EC
330
1F
100
AcDbEntity
  8
枠_表
  6
CONTINUOUS
 62
     3
100
AcDbCircle
 10
856.0581360000001
 20
188.1920471
 30
0.0
 40
6.0480058
100
AcDbArc
 50
272.6237487800003
 51
336.0065307700002
  0
LINE
  5
ED
330
1F
100
AcDbEntity
  8
枠_表
  6
CONTINUOUS
 62
     3
100
AcDbLine
 10
861.585022
 20
185.7320252
 30
0.0
 11
863.576294
 21
190.2078858
 31
0.0
  0
LINE
  5
EE
330
1F
100
AcDbEntity
  8
枠_表
  6
CONTINUOUS
 62
     3
100
AcDbLine
 10
863.576294
 20
190.2078858
 30
0.0
 11
851.9976197
 21
190.2078858
 31
0.0
  0
LINE
  5
EF
330
1F
100
AcDbEntity
  8
枠_表
  6
CONTINUOUS
 62
     3
100
AcDbLine
 10
851.9976197
 20
190.2078858
 30
0.0
 11
856.1484681000001
 21
164.0
 31
0.0
  0
LINE
  5
F0
330
1F
100
AcDbEntity
  8
枠_表
  6
CONTINUOUS
 62
     3
100
AcDbLine
 10
856.1484681000001
 20
164.0
 30
0.0
 11
844.9224244
 21
164.0
 31
0.0
  0
LINE
  5
F1
330
1F
100
AcDbEntity
  8
枠_表
  6
CONTINUOUS
 62
     2
100
AcDbLine
 10
844.9224244
 20
164.0
 30
0.0
 11
840.7717286000001
 21
190.2078858
 31
0.0
  0
LINE
  5
F2
330
1F
100
AcDbEntity
  8
枠_表
  6
CONTINUOUS
 62
     2
100
AcDbLine
 10
840.7717286000001
 20
190.2078858
 30
0.0
 11
830.4726562999999
 21
190.2078858
 31
0.0
  0
LINE
  5
F3
330
1F
100
AcDbEntity
  8
枠_表
  6
CONTINUOUS
 62
     3
100
AcDbLine
 10
877.8476868
 20
164.0
 30
0.0
 11
877.8476868
 21
174.0799561
 31
0.0
  0
LINE
  5
F4
330
1F
100
AcDbEntity
  8
枠_表
  6
CONTINUOUS
 62
     3
100
AcDbLine
 10
877.8476868
 20
174.0799561
 30
0.0
 11
934.2954407000001
 21
174.0799561
 31
0.0
  0
LINE
  5
F5
330
1F
100
AcDbEntity
  8
枠_表
  6
CONTINUOUS
 62
     3
100
AcDbLine
 10
934.2954407000001
 20
174.0799561
 30
0.0
 11
934.2954407000001
 21
164.0
 31
0.0
  0
LINE
  5
F6
330
1F
100
AcDbEntity
  8
枠_表
  6
CONTINUOUS
 62
     3
100
AcDbLine
 10
934.2954407000001
 20
164.0
 30
0.0
 11
877.8476868
 21
164.0
 31
0.0
  0
LINE
  5
F7
330
1F
100
AcDbEntity
  8
枠_表
  6
CONTINUOUS
 62
     3
100
AcDbLine
 10
881.8795166
 20
208.3519592
 30
0.0
 11
881.8795166
 21
198.2720032
 31
0.0
  0
LINE
  5
F8
330
1F
100
AcDbEntity
  8
枠_表
  6
CONTINUOUS
 62
     3
100
AcDbLine
 10
881.8795166
 20
208.3519592
 30
0.0
 11
930.2636109
 21
208.3519592
 31
0.0
  0
LINE
  5
F9
330
1F
100
AcDbEntity
  8
枠_表
  6
CONTINUOUS
 62
     3
100
AcDbLine
 10
930.2636109
 20
208.3519592
 30
0.0
 11
930.2636109
 21
198.2720032
 31
0.0
  0
LINE
  5
FA
330
1F
100
AcDbEntity
  8
枠_表
  6
CONTINUOUS
 62
     3
100
AcDbLine
 10
930.2636109
 20
198.2720032
 30
0.0
 11
881.8795166
 21
198.2720032
 31
0.0
  0
LINE
  5
FB
330
1F
100
AcDbEntity
  8
枠_表
  6
CONTINUOUS
 62
     3
100
AcDbLine
 10
941.3521729
 20
208.3519592
 30
0.0
 11
941.3521729
 21
198.2720032
 31
0.0
  0
LINE
  5
FC
330
1F
100
AcDbEntity
  8
枠_表
  6
CONTINUOUS
 62
     3
100
AcDbLine
 10
941.3521729
 20
208.3519592
 30
0.0
 11
993.7680969999999
 21
208.3519592
 31
0.0
  0
LINE
  5
FD
330
1F
100
AcDbEntity
  8
枠_表
  6
CONTINUOUS
 62
     3
100
AcDbLine
 10
993.7680969999999
 20
208.3519592
 30
0.0
 11
978.0509339
 21
186.7189636
 31
0.0
  0
LINE
  5
FE
330
1F
100
AcDbEntity
  8
枠_表
  6
CONTINUOUS
 62
     3
100
AcDbLine
 10
978.0509339
 20
186.7189636
 30
0.0
 11
997.7999268000001
 21
164.0
 31
0.0
  0
LINE
  5
FF
330
1F
100
AcDbEntity
  8
枠_表
  6
CONTINUOUS
 62
     3
100
AcDbLine
 10
997.7999268000001
 20
164.0
 30
0.0
 11
983.1081543
 21
164.0
 31
0.0
  0
LINE
  5
100
330
1F
100
AcDbEntity
  8
枠_表
  6
CONTINUOUS
 62
     3
100
AcDbLine
 10
983.1081543
 20
164.0
 30
0.0
 11
971.3613282
 21
177.5127258
 31
0.0
  0
LINE
  5
101
330
1F
100
AcDbEntity
  8
枠_表
  6
CONTINUOUS
 62
     3
100
AcDbLine
 10
971.3613282
 20
177.5127258
 30
0.0
 11
966.9788513999999
 21
171.4792481
 31
0.0
  0
ARC
  5
102
330
1F
100
AcDbEntity
  8
枠_表
  6
CONTINUOUS
 62
     3
100
AcDbCircle
 10
952.2992859
 20
182.1440735
 30
0.0
 40
18.1439972
100
AcDbArc
 50
270.0000305200002
 51
324.0011596700001
  0
LINE
  5
103
330
1F
100
AcDbEntity
  8
枠_表
  6
CONTINUOUS
 62
     3
100
AcDbLine
 10
952.2992859
 20
164.0
 30
0.0
 11
937.3203431000001
 21
164.0
 31
0.0
  0
LINE
  5
104
330
1F
100
AcDbEntity
  8
枠_表
  6
CONTINUOUS
 62
     3
100
AcDbLine
 10
937.3203431000001
 20
164.0
 30
0.0
 11
937.3203431000001
 21
174.0799561
 31
0.0
  0
LINE
  5
105
330
1F
100
AcDbEntity
  8
枠_表
  6
CONTINUOUS
 62
     3
100
AcDbLine
 10
937.3203431000001
 20
174.0799561
 30
0.0
 11
950.0270997
 21
174.0799561
 31
0.0
  0
ARC
  5
106
330
1F
100
AcDbEntity
  8
枠_表
  6
CONTINUOUS
 62
     3
100
AcDbCircle
 10
950.0270997
 20
184.1599121
 30
0.0
 40
10.0799942
100
AcDbArc
 50
270.0000305200002
 51
323.9965972900001
  0
LINE
  5
107
330
1F
100
AcDbEntity
  8
枠_表
  6
CONTINUOUS
 62
     3
100
AcDbLine
 10
958.1809388
 20
178.2350769
 30
0.0
 11
972.739502
 21
198.2720032
 31
0.0
  0
LINE
  5
108
330
1F
100
AcDbEntity
  8
枠_表
  6
CONTINUOUS
 62
     3
100
AcDbLine
 10
972.739502
 20
198.2720032
 30
0.0
 11
941.3521729
 21
198.2720032
 31
0.0
  0
LINE
  5
109
330
1F
100
AcDbEntity
  8
枠_表
  6
CONTINUOUS
 62
     3
100
AcDbLine
 10
1009.8955689
 20
208.3519592
 30
0.0
 11
1009.8955689
 21
201.29599
 31
0.0
  0
LINE
  5
10A
330
1F
100
AcDbEntity
  8
枠_表
  6
CONTINUOUS
 62
     3
100
AcDbLine
 10
1009.8955689
 20
208.3519592
 30
0.0
 11
1062.3113404
 21
208.3519592
 31
0.0
  0
LINE
  5
10B
330
1F
100
AcDbEntity
  8
枠_表
  6
CONTINUOUS
 62
     3
100
AcDbLine
 10
1062.3113404
 20
208.3519592
 30
0.0
 11
1062.3113404
 21
201.29599
 31
0.0
  0
LINE
  5
10C
330
1F
100
AcDbEntity
  8
枠_表
  6
CONTINUOUS
 62
     3
100
AcDbLine
 10
1062.3113404
 20
201.29599
 30
0.0
 11
1041.6477356
 21
201.29599
 31
0.0
  0
LINE
  5
10D
330
1F
100
AcDbEntity
  8
枠_表
  6
CONTINUOUS
 62
     3
100
AcDbLine
 10
1041.6477356
 20
201.29599
 30
0.0
 11
1041.6477356
 21
172.0641174
 31
0.0
  0
LINE
  5
10E
330
1F
100
AcDbEntity
  8
枠_表
  6
CONTINUOUS
 62
     3
100
AcDbLine
 10
1041.6477356
 20
172.0641174
 30
0.0
 11
1064.3273316
 21
172.0641174
 31
0.0
  0
LINE
  5
10F
330
1F
100
AcDbEntity
  8
枠_表
  6
CONTINUOUS
 62
     3
100
AcDbLine
 10
1064.3273316
 20
172.0641174
 30
0.0
 11
1064.3273316
 21
164.0
 31
0.0
  0
LINE
  5
110
330
1F
100
AcDbEntity
  8
枠_表
  6
CONTINUOUS
 62
     3
100
AcDbLine
 10
1064.3273316
 20
164.0
 30
0.0
 11
1007.8795777
 21
164.0
 31
0.0
  0
LINE
  5
111
330
1F
100
AcDbEntity
  8
枠_表
  6
CONTINUOUS
 62
     3
100
AcDbLine
 10
1007.8795777
 20
164.0
 30
0.0
 11
1007.8795777
 21
172.0641174
 31
0.0
  0
LINE
  5
112
330
1F
100
AcDbEntity
  8
枠_表
  6
CONTINUOUS
 62
     3
100
AcDbLine
 10
1007.8795777
 20
172.0641174
 30
0.0
 11
1030.5591736
 21
172.0641174
 31
0.0
  0
LINE
  5
113
330
1F
100
AcDbEntity
  8
枠_表
  6
CONTINUOUS
 62
     3
100
AcDbLine
 10
1030.5591736
 20
172.0641174
 30
0.0
 11
1030.5591736
 21
201.29599
 31
0.0
  0
LINE
  5
114
330
1F
100
AcDbEntity
  8
枠_表
  6
CONTINUOUS
 62
     3
100
AcDbLine
 10
1030.5591736
 20
201.29599
 30
0.0
 11
1009.8955689
 21
201.29599
 31
0.0
  0
LINE
  5
115
330
1F
100
AcDbEntity
  8
枠_表
  6
CONTINUOUS
 62
     3
100
AcDbLine
 10
1065.3362427
 20
202.3039856
 30
0.0
 11
1065.3362427
 21
197.6671448
 31
0.0
  0
LINE
  5
116
330
1F
100
AcDbEntity
  8
枠_表
  6
CONTINUOUS
 62
     3
100
AcDbLine
 10
1065.3362427
 20
202.3039856
 30
0.0
 11
1074.0931092
 21
202.3039856
 31
0.0
  0
LINE
  5
117
330
1F
100
AcDbEntity
  8
枠_表
  6
CONTINUOUS
 62
     3
100
AcDbLine
 10
1074.0931092
 20
202.3039856
 30
0.0
 11
1069.3682251
 21
208.3519592
 31
0.0
  0
LINE
  5
118
330
1F
100
AcDbEntity
  8
枠_表
  6
CONTINUOUS
 62
     3
100
AcDbLine
 10
1069.3682251
 20
208.3519592
 30
0.0
 11
1078.32193
 21
208.3519592
 31
0.0
  0
LINE
  5
119
330
1F
100
AcDbEntity
  8
枠_表
  6
CONTINUOUS
 62
     3
100
AcDbLine
 10
1078.32193
 20
208.3519592
 30
0.0
 11
1083.046814
 21
202.3039856
 31
0.0
  0
LINE
  5
11A
330
1F
100
AcDbEntity
  8
枠_表
  6
CONTINUOUS
 62
     3
100
AcDbLine
 10
1083.046814
 20
202.3039856
 30
0.0
 11
1084.9930726
 21
202.3039856
 31
0.0
  0
LINE
  5
11B
330
1F
100
AcDbEntity
  8
枠_表
  6
CONTINUOUS
 62
     3
100
AcDbLine
 10
1084.9930726
 20
202.3039856
 30
0.0
 11
1084.9930726
 21
208.3519592
 31
0.0
  0
LINE
  5
11C
330
1F
100
AcDbEntity
  8
枠_表
  6
CONTINUOUS
 62
     3
100
AcDbLine
 10
1084.9930726
 20
208.3519592
 30
0.0
 11
1092.0476685
 21
208.3519592
 31
0.0
  0
LINE
  5
11D
330
1F
100
AcDbEntity
  8
枠_表
  6
CONTINUOUS
 62
     3
100
AcDbLine
 10
1092.0476685
 20
208.3519592
 30
0.0
 11
1092.0476685
 21
202.3039856
 31
0.0
  0
LINE
  5
11E
330
1F
100
AcDbEntity
  8
枠_表
  6
CONTINUOUS
 62
     3
100
AcDbLine
 10
1092.0476685
 20
202.3039856
 30
0.0
 11
1095.0725708
 21
202.3039856
 31
0.0
  0
LINE
  5
11F
330
1F
100
AcDbEntity
  8
枠_表
  6
CONTINUOUS
 62
     3
100
AcDbLine
 10
1095.0725708
 20
202.3039856
 30
0.0
 11
1095.0725708
 21
208.3519592
 31
0.0
  0
LINE
  5
120
330
1F
100
AcDbEntity
  8
枠_表
  6
CONTINUOUS
 62
     3
100
AcDbLine
 10
1095.0725708
 20
208.3519592
 30
0.0
 11
1102.1273194
 21
208.3519592
 31
0.0
  0
LINE
  5
121
330
1F
100
AcDbEntity
  8
枠_表
  6
CONTINUOUS
 62
     3
100
AcDbLine
 10
1102.1273194
 20
208.3519592
 30
0.0
 11
1102.1273194
 21
202.3039856
 31
0.0
  0
LINE
  5
122
330
1F
100
AcDbEntity
  8
枠_表
  6
CONTINUOUS
 62
     3
100
AcDbLine
 10
1102.1273194
 20
202.3039856
 30
0.0
 11
1104.0735779
 21
202.3039856
 31
0.0
  0
LINE
  5
123
330
1F
100
AcDbEntity
  8
枠_表
  6
CONTINUOUS
 62
     3
100
AcDbLine
 10
1104.0735779
 20
202.3039856
 30
0.0
 11
1108.798462
 21
208.3519592
 31
0.0
  0
LINE
  5
124
330
1F
100
AcDbEntity
  8
枠_表
  6
CONTINUOUS
 62
     3
100
AcDbLine
 10
1108.798462
 20
208.3519592
 30
0.0
 11
1117.7521668
 21
208.3519592
 31
0.0
  0
LINE
  5
125
330
1F
100
AcDbEntity
  8
枠_表
  6
CONTINUOUS
 62
     3
100
AcDbLine
 10
1117.7521668
 20
208.3519592
 30
0.0
 11
1113.0272828
 21
202.3039856
 31
0.0
  0
LINE
  5
126
330
1F
100
AcDbEntity
  8
枠_表
  6
CONTINUOUS
 62
     3
100
AcDbLine
 10
1113.0272828
 20
202.3039856
 30
0.0
 11
1121.7839966
 21
202.3039856
 31
0.0
  0
LINE
  5
127
330
1F
100
AcDbEntity
  8
枠_表
  6
CONTINUOUS
 62
     3
100
AcDbLine
 10
1121.7839966
 20
202.3039856
 30
0.0
 11
1121.7839966
 21
197.6671448
 31
0.0
  0
LINE
  5
128
330
1F
100
AcDbEntity
  8
枠_表
  6
CONTINUOUS
 62
     3
100
AcDbLine
 10
1121.7839966
 20
197.6671448
 30
0.0
 11
1111.1609803
 21
197.6671448
 31
0.0
  0
LINE
  5
129
330
1F
100
AcDbEntity
  8
枠_表
  6
CONTINUOUS
 62
     3
100
AcDbLine
 10
1111.1609803
 20
197.6671448
 30
0.0
 11
1109.3276368
 21
192.6273194
 31
0.0
  0
LINE
  5
12A
330
1F
100
AcDbEntity
  8
枠_表
  6
CONTINUOUS
 62
     3
100
AcDbLine
 10
1109.3276368
 20
192.6273194
 30
0.0
 11
1121.7839966
 21
192.6273194
 31
0.0
  0
LINE
  5
12B
330
1F
100
AcDbEntity
  8
枠_表
  6
CONTINUOUS
 62
     3
100
AcDbLine
 10
1121.7839966
 20
192.6273194
 30
0.0
 11
1121.7839966
 21
187.9904785
 31
0.0
  0
LINE
  5
12C
330
1F
100
AcDbEntity
  8
枠_表
  6
CONTINUOUS
 62
     3
100
AcDbLine
 10
1121.7839966
 20
187.9904785
 30
0.0
 11
1098.5999451
 21
187.9904785
 31
0.0
  0
LINE
  5
12D
330
1F
100
AcDbEntity
  8
枠_表
  6
CONTINUOUS
 62
     3
100
AcDbLine
 10
1098.5999451
 20
187.9904785
 30
0.0
 11
1098.5999451
 21
185.6720581
 31
0.0
  0
LINE
  5
12E
330
1F
100
AcDbEntity
  8
枠_表
  6
CONTINUOUS
 62
     3
100
AcDbLine
 10
1098.5999451
 20
185.6720581
 30
0.0
 11
1121.7839966
 21
185.6720581
 31
0.0
  0
LINE
  5
12F
330
1F
100
AcDbEntity
  8
枠_表
  6
CONTINUOUS
 62
     3
100
AcDbLine
 10
1121.7839966
 20
185.6720581
 30
0.0
 11
1121.7839966
 21
181.0352173
 31
0.0
  0
LINE
  5
130
330
1F
100
AcDbEntity
  8
枠_表
  6
CONTINUOUS
 62
     3
100
AcDbLine
 10
1121.7839966
 20
181.0352173
 30
0.0
 11
1098.5999451
 21
181.0352173
 31
0.0
  0
LINE
  5
131
330
1F
100
AcDbEntity
  8
枠_表
  6
CONTINUOUS
 62
     3
100
AcDbLine
 10
1098.5999451
 20
181.0352173
 30
0.0
 11
1098.5999451
 21
178.7167969
 31
0.0
  0
LINE
  5
132
330
1F
100
AcDbEntity
  8
枠_表
  6
CONTINUOUS
 62
     3
100
AcDbLine
 10
1098.5999451
 20
178.7167969
 30
0.0
 11
1121.7839966
 21
178.7167969
 31
0.0
  0
LINE
  5
133
330
1F
100
AcDbEntity
  8
枠_表
  6
CONTINUOUS
 62
     3
100
AcDbLine
 10
1121.7839966
 20
178.7167969
 30
0.0
 11
1121.7839966
 21
174.0799561
 31
0.0
  0
LINE
  5
134
330
1F
100
AcDbEntity
  8
枠_表
  6
CONTINUOUS
 62
     3
100
AcDbLine
 10
1121.7839966
 20
174.0799561
 30
0.0
 11
1110.6278382
 21
174.0799561
 31
0.0
  0
LINE
  5
135
330
1F
100
AcDbEntity
  8
枠_表
  6
CONTINUOUS
 62
     3
100
AcDbLine
 10
1110.6278382
 20
174.0799561
 30
0.0
 11
1121.7839966
 21
164.0
 31
0.0
  0
LINE
  5
136
330
1F
100
AcDbEntity
  8
枠_表
  6
CONTINUOUS
 62
     3
100
AcDbLine
 10
1121.7839966
 20
164.0
 30
0.0
 11
1109.7562562
 21
164.0
 31
0.0
  0
LINE
  5
137
330
1F
100
AcDbEntity
  8
枠_表
  6
CONTINUOUS
 62
     3
100
AcDbLine
 10
1109.7562562
 20
164.0
 30
0.0
 11
1098.5999451
 21
174.0799561
 31
0.0
  0
LINE
  5
138
330
1F
100
AcDbEntity
  8
枠_表
  6
CONTINUOUS
 62
     3
100
AcDbLine
 10
1098.5999451
 20
174.0799561
 30
0.0
 11
1098.5999451
 21
164.0
 31
0.0
  0
LINE
  5
139
330
1F
100
AcDbEntity
  8
枠_表
  6
CONTINUOUS
 62
     3
100
AcDbLine
 10
1098.5999451
 20
164.0
 30
0.0
 11
1088.5204468
 21
164.0
 31
0.0
  0
LINE
  5
13A
330
1F
100
AcDbEntity
  8
枠_表
  6
CONTINUOUS
 62
     3
100
AcDbLine
 10
1088.5204468
 20
164.0
 30
0.0
 11
1088.5204468
 21
174.0799561
 31
0.0
  0
LINE
  5
13B
330
1F
100
AcDbEntity
  8
枠_表
  6
CONTINUOUS
 62
     3
100
AcDbLine
 10
1088.5204468
 20
174.0799561
 30
0.0
 11
1077.3641358
 21
164.0
 31
0.0
  0
LINE
  5
13C
330
1F
100
AcDbEntity
  8
枠_表
  6
CONTINUOUS
 62
     3
100
AcDbLine
 10
1077.3641358
 20
164.0
 30
0.0
 11
1065.3362427
 21
164.0
 31
0.0
  0
LINE
  5
13D
330
1F
100
AcDbEntity
  8
枠_表
  6
CONTINUOUS
 62
     3
100
AcDbLine
 10
1065.3362427
 20
164.0
 30
0.0
 11
1076.4925538
 21
174.0799561
 31
0.0
  0
LINE
  5
13E
330
1F
100
AcDbEntity
  8
枠_表
  6
CONTINUOUS
 62
     3
100
AcDbLine
 10
1076.4925538
 20
174.0799561
 30
0.0
 11
1065.3362427
 21
174.0799561
 31
0.0
  0
LINE
  5
13F
330
1F
100
AcDbEntity
  8
枠_表
  6
CONTINUOUS
 62
     3
100
AcDbLine
 10
1065.3362427
 20
174.0799561
 30
0.0
 11
1065.3362427
 21
178.7167969
 31
0.0
  0
LINE
  5
140
330
1F
100
AcDbEntity
  8
枠_表
  6
CONTINUOUS
 62
     3
100
AcDbLine
 10
1065.3362427
 20
178.7167969
 30
0.0
 11
1088.5204468
 21
178.7167969
 31
0.0
  0
LINE
  5
141
330
1F
100
AcDbEntity
  8
枠_表
  6
CONTINUOUS
 62
     3
100
AcDbLine
 10
1088.5204468
 20
178.7167969
 30
0.0
 11
1088.5204468
 21
181.0352173
 31
0.0
  0
LINE
  5
142
330
1F
100
AcDbEntity
  8
枠_表
  6
CONTINUOUS
 62
     3
100
AcDbLine
 10
1088.5204468
 20
181.0352173
 30
0.0
 11
1065.3362427
 21
181.0352173
 31
0.0
  0
LINE
  5
143
330
1F
100
AcDbEntity
  8
枠_表
  6
CONTINUOUS
 62
     3
100
AcDbLine
 10
1065.3362427
 20
181.0352173
 30
0.0
 11
1065.3362427
 21
185.6720581
 31
0.0
  0
LINE
  5
144
330
1F
100
AcDbEntity
  8
枠_表
  6
CONTINUOUS
 62
     3
100
AcDbLine
 10
1065.3362427
 20
185.6720581
 30
0.0
 11
1088.5204468
 21
185.6720581
 31
0.0
  0
LINE
  5
145
330
1F
100
AcDbEntity
  8
枠_表
  6
CONTINUOUS
 62
     3
100
AcDbLine
 10
1088.5204468
 20
185.6720581
 30
0.0
 11
1088.5204468
 21
187.9904785
 31
0.0
  0
LINE
  5
146
330
1F
100
AcDbEntity
  8
枠_表
  6
CONTINUOUS
 62
     3
100
AcDbLine
 10
1088.5204468
 20
187.9904785
 30
0.0
 11
1065.3362427
 21
187.9904785
 31
0.0
  0
LINE
  5
147
330
1F
100
AcDbEntity
  8
枠_表
  6
CONTINUOUS
 62
     3
100
AcDbLine
 10
1065.3362427
 20
187.9904785
 30
0.0
 11
1065.3362427
 21
192.6273194
 31
0.0
  0
LINE
  5
148
330
1F
100
AcDbEntity
  8
枠_表
  6
CONTINUOUS
 62
     3
100
AcDbLine
 10
1065.3362427
 20
192.6273194
 30
0.0
 11
1077.7927552
 21
192.6273194
 31
0.0
  0
LINE
  5
149
330
1F
100
AcDbEntity
  8
枠_表
  6
CONTINUOUS
 62
     3
100
AcDbLine
 10
1077.7927552
 20
192.6273194
 30
0.0
 11
1075.9594117
 21
197.6671448
 31
0.0
  0
LINE
  5
14A
330
1F
100
AcDbEntity
  8
枠_表
  6
CONTINUOUS
 62
     3
100
AcDbLine
 10
1075.9594117
 20
197.6671448
 30
0.0
 11
1065.3362427
 21
197.6671448
 31
0.0
  0
LINE
  5
14B
330
1F
100
AcDbEntity
  8
枠_表
  6
CONTINUOUS
 62
     3
100
AcDbLine
 10
1086.6849671
 20
197.6671448
 30
0.0
 11
1100.4354249
 21
197.6671448
 31
0.0
  0
LINE
  5
14C
330
1F
100
AcDbEntity
  8
枠_表
  6
CONTINUOUS
 62
     3
100
AcDbLine
 10
1100.4354249
 20
197.6671448
 30
0.0
 11
1098.5999451
 21
192.6273194
 31
0.0
  0
LINE
  5
14D
330
1F
100
AcDbEntity
  8
枠_表
  6
CONTINUOUS
 62
     3
100
AcDbLine
 10
1098.5999451
 20
192.6273194
 30
0.0
 11
1088.5204468
 21
192.6273194
 31
0.0
  0
LINE
  5
14E
330
1F
100
AcDbEntity
  8
枠_表
  6
CONTINUOUS
 62
     3
100
AcDbLine
 10
1088.5204468
 20
192.6273194
 30
0.0
 11
1086.6849671
 21
197.6671448
 31
0.0
  0
LINE
  5
14F
330
1F
100
AcDbEntity
  8
枠_表
  6
CONTINUOUS
 62
     3
100
AcDbLine
 10
1149.2563782
 20
208.3519592
 30
0.0
 11
1145.9894715
 21
195.2480164
 31
0.0
  0
LINE
  5
150
330
1F
100
AcDbEntity
  8
枠_表
  6
CONTINUOUS
 62
     3
100
AcDbLine
 10
1149.2563782
 20
208.3519592
 30
0.0
 11
1157.5681458
 21
208.3519592
 31
0.0
  0
LINE
  5
151
330
1F
100
AcDbEntity
  8
枠_表
  6
CONTINUOUS
 62
     3
100
AcDbLine
 10
1157.5681458
 20
208.3519592
 30
0.0
 11
1156.3109742
 21
203.3119812
 31
0.0
  0
LINE
  5
152
330
1F
100
AcDbEntity
  8
枠_表
  6
CONTINUOUS
 62
     3
100
AcDbLine
 10
1156.3109742
 20
203.3119812
 30
0.0
 11
1159.584137
 21
203.3119812
 31
0.0
  0
LINE
  5
153
330
1F
100
AcDbEntity
  8
枠_表
  6
CONTINUOUS
 62
     3
100
AcDbLine
 10
1159.584137
 20
203.3119812
 30
0.0
 11
1159.584137
 21
208.3519592
 31
0.0
  0
LINE
  5
154
330
1F
100
AcDbEntity
  8
枠_表
  6
CONTINUOUS
 62
     3
100
AcDbLine
 10
1159.584137
 20
208.3519592
 30
0.0
 11
1168.6567078
 21
208.3519592
 31
0.0
  0
LINE
  5
155
330
1F
100
AcDbEntity
  8
枠_表
  6
CONTINUOUS
 62
     3
100
AcDbLine
 10
1168.6567078
 20
208.3519592
 30
0.0
 11
1168.6567078
 21
203.3119812
 31
0.0
  0
LINE
  5
156
330
1F
100
AcDbEntity
  8
枠_表
  6
CONTINUOUS
 62
     3
100
AcDbLine
 10
1168.6567078
 20
203.3119812
 30
0.0
 11
1180.2477417
 21
203.3119812
 31
0.0
  0
LINE
  5
157
330
1F
100
AcDbEntity
  8
枠_表
  6
CONTINUOUS
 62
     3
100
AcDbLine
 10
1180.2477417
 20
203.3119812
 30
0.0
 11
1180.2477417
 21
198.2720032
 31
0.0
  0
LINE
  5
158
330
1F
100
AcDbEntity
  8
枠_表
  6
CONTINUOUS
 62
     3
100
AcDbLine
 10
1168.6567078
 20
198.2720032
 30
0.0
 11
1180.2477417
 21
198.2720032
 31
0.0
  0
LINE
  5
159
330
1F
100
AcDbEntity
  8
枠_表
  6
CONTINUOUS
 62
     3
100
AcDbLine
 10
1168.6567078
 20
198.2720032
 30
0.0
 11
1168.6567078
 21
193.2320252
 31
0.0
  0
LINE
  5
15A
330
1F
100
AcDbEntity
  8
枠_表
  6
CONTINUOUS
 62
     3
100
AcDbLine
 10
1168.6567078
 20
193.2320252
 30
0.0
 11
1181.2566529
 21
193.2320252
 31
0.0
  0
LINE
  5
15B
330
1F
100
AcDbEntity
  8
枠_表
  6
CONTINUOUS
 62
     3
100
AcDbLine
 10
1181.2566529
 20
193.2320252
 30
0.0
 11
1181.2566529
 21
188.1920471
 31
0.0
  0
LINE
  5
15C
330
1F
100
AcDbEntity
  8
枠_表
  6
CONTINUOUS
 62
     3
100
AcDbLine
 10
1181.2566529
 20
188.1920471
 30
0.0
 11
1176.8515931
 21
188.1920471
 31
0.0
  0
LINE
  5
15D
330
1F
100
AcDbEntity
  8
枠_表
  6
CONTINUOUS
 62
     3
100
AcDbLine
 10
1176.8515931
 20
188.1920471
 30
0.0
 11
1181.2566529
 21
164.0
 31
0.0
  0
LINE
  5
15E
330
1F
100
AcDbEntity
  8
枠_表
  6
CONTINUOUS
 62
     3
100
AcDbLine
 10
1181.2566529
 20
164.0
 30
0.0
 11
1173.059784
 21
164.0
 31
0.0
  0
LINE
  5
15F
330
1F
100
AcDbEntity
  8
枠_表
  6
CONTINUOUS
 62
     3
100
AcDbLine
 10
1173.059784
 20
164.0
 30
0.0
 11
1168.6567078
 21
188.191742
 31
0.0
  0
LINE
  5
160
330
1F
100
AcDbEntity
  8
枠_表
  6
CONTINUOUS
 62
     3
100
AcDbLine
 10
1168.6567078
 20
188.191742
 30
0.0
 11
1168.6567078
 21
164.0
 31
0.0
  0
LINE
  5
161
330
1F
100
AcDbEntity
  8
枠_表
  6
CONTINUOUS
 62
     3
100
AcDbLine
 10
1168.6567078
 20
164.0
 30
0.0
 11
1159.584137
 21
164.0
 31
0.0
  0
LINE
  5
162
330
1F
100
AcDbEntity
  8
枠_表
  6
CONTINUOUS
 62
     3
100
AcDbLine
 10
1159.584137
 20
164.0
 30
0.0
 11
1159.584137
 21
188.1920471
 31
0.0
  0
LINE
  5
163
330
1F
100
AcDbEntity
  8
枠_表
  6
CONTINUOUS
 62
     3
100
AcDbLine
 10
1159.584137
 20
188.1920471
 30
0.0
 11
1155.1810608
 21
164.0
 31
0.0
  0
LINE
  5
164
330
1F
100
AcDbEntity
  8
枠_表
  6
CONTINUOUS
 62
     3
100
AcDbLine
 10
1155.1810608
 20
164.0
 30
0.0
 11
1146.9840394
 21
164.0
 31
0.0
  0
LINE
  5
165
330
1F
100
AcDbEntity
  8
枠_表
  6
CONTINUOUS
 62
     3
100
AcDbLine
 10
1146.9840394
 20
164.0
 30
0.0
 11
1151.3871155
 21
188.1920471
 31
0.0
  0
LINE
  5
166
330
1F
100
AcDbEntity
  8
枠_表
  6
CONTINUOUS
 62
     3
100
AcDbLine
 10
1151.3871155
 20
188.1920471
 30
0.0
 11
1146.9840394
 21
188.1920471
 31
0.0
  0
LINE
  5
167
330
1F
100
AcDbEntity
  8
枠_表
  6
CONTINUOUS
 62
     3
100
AcDbLine
 10
1146.9840394
 20
188.1920471
 30
0.0
 11
1146.9840394
 21
193.2320252
 31
0.0
  0
LINE
  5
168
330
1F
100
AcDbEntity
  8
枠_表
  6
CONTINUOUS
 62
     3
100
AcDbLine
 10
1146.9840394
 20
193.2320252
 30
0.0
 11
1159.584137
 21
193.2320252
 31
0.0
  0
LINE
  5
169
330
1F
100
AcDbEntity
  8
枠_表
  6
CONTINUOUS
 62
     3
100
AcDbLine
 10
1159.584137
 20
193.2320252
 30
0.0
 11
1159.584137
 21
198.2720032
 31
0.0
  0
LINE
  5
16A
330
1F
100
AcDbEntity
  8
枠_表
  6
CONTINUOUS
 62
     3
100
AcDbLine
 10
1159.584137
 20
198.2720032
 30
0.0
 11
1155.0539551
 21
198.2720032
 31
0.0
  0
LINE
  5
16B
330
1F
100
AcDbEntity
  8
枠_表
  6
CONTINUOUS
 62
     3
100
AcDbLine
 10
1155.0539551
 20
198.2720032
 30
0.0
 11
1154.3012391
 21
195.2480164
 31
0.0
  0
LINE
  5
16C
330
1F
100
AcDbEntity
  8
枠_表
  6
CONTINUOUS
 62
     3
100
AcDbLine
 10
1154.3012391
 20
195.2480164
 30
0.0
 11
1145.9894715
 21
195.2480164
 31
0.0
  0
LINE
  5
16D
330
1F
100
AcDbEntity
  8
枠_表
  6
CONTINUOUS
 62
     3
100
AcDbLine
 10
1123.7999878
 20
203.3119812
 30
0.0
 11
1123.7999878
 21
198.2720032
 31
0.0
  0
LINE
  5
16E
330
1F
100
AcDbEntity
  8
枠_表
  6
CONTINUOUS
 62
     3
100
AcDbLine
 10
1123.7999878
 20
203.3119812
 30
0.0
 11
1133.8796387
 21
203.3119812
 31
0.0
  0
LINE
  5
16F
330
1F
100
AcDbEntity
  8
枠_表
  6
CONTINUOUS
 62
     3
100
AcDbLine
 10
1133.8796387
 20
203.3119812
 30
0.0
 11
1133.8796387
 21
208.3519592
 31
0.0
  0
LINE
  5
170
330
1F
100
AcDbEntity
  8
枠_表
  6
CONTINUOUS
 62
     3
100
AcDbLine
 10
1133.8796387
 20
208.3519592
 30
0.0
 11
1142.9522095
 21
208.3519592
 31
0.0
  0
LINE
  5
171
330
1F
100
AcDbEntity
  8
枠_表
  6
CONTINUOUS
 62
     3
100
AcDbLine
 10
1142.9522095
 20
208.3519592
 30
0.0
 11
1142.9522095
 21
203.3119812
 31
0.0
  0
LINE
  5
172
330
1F
100
AcDbEntity
  8
枠_表
  6
CONTINUOUS
 62
     3
100
AcDbLine
 10
1142.9522095
 20
203.3119812
 30
0.0
 11
1145.9751282
 21
203.3119812
 31
0.0
  0
LINE
  5
173
330
1F
100
AcDbEntity
  8
枠_表
  6
CONTINUOUS
 62
     3
100
AcDbLine
 10
1145.9751282
 20
203.3119812
 30
0.0
 11
1145.9751282
 21
198.2720032
 31
0.0
  0
LINE
  5
174
330
1F
100
AcDbEntity
  8
枠_表
  6
CONTINUOUS
 62
     3
100
AcDbLine
 10
1145.9751282
 20
198.2720032
 30
0.0
 11
1142.9522095
 21
198.2720032
 31
0.0
  0
LINE
  5
175
330
1F
100
AcDbEntity
  8
枠_表
  6
CONTINUOUS
 62
     3
100
AcDbLine
 10
1142.9522095
 20
198.2720032
 30
0.0
 11
1145.9751282
 21
194.1100159
 31
0.0
  0
LINE
  5
176
330
1F
100
AcDbEntity
  8
枠_表
  6
CONTINUOUS
 62
     3
100
AcDbLine
 10
1145.9751282
 20
194.1100159
 30
0.0
 11
1145.9751282
 21
183.8207092
 31
0.0
  0
LINE
  5
177
330
1F
100
AcDbEntity
  8
枠_表
  6
CONTINUOUS
 62
     3
100
AcDbLine
 10
1145.9751282
 20
183.8207092
 30
0.0
 11
1142.9522095
 21
187.9828491
 31
0.0
  0
LINE
  5
178
330
1F
100
AcDbEntity
  8
枠_表
  6
CONTINUOUS
 62
     3
100
AcDbLine
 10
1142.9522095
 20
187.9828491
 30
0.0
 11
1142.9522095
 21
164.0
 31
0.0
  0
LINE
  5
179
330
1F
100
AcDbEntity
  8
枠_表
  6
CONTINUOUS
 62
     3
100
AcDbLine
 10
1142.9522095
 20
164.0
 30
0.0
 11
1133.8796387
 21
164.0
 31
0.0
  0
LINE
  5
17A
330
1F
100
AcDbEntity
  8
枠_表
  6
CONTINUOUS
 62
     3
100
AcDbLine
 10
1133.8796387
 20
164.0
 30
0.0
 11
1133.8796387
 21
198.2720032
 31
0.0
  0
LINE
  5
17B
330
1F
100
AcDbEntity
  8
枠_表
  6
CONTINUOUS
 62
     3
100
AcDbLine
 10
1133.4838257
 20
198.2720032
 30
0.0
 11
1129.8806153
 21
164.0
 31
0.0
  0
LINE
  5
17C
330
1F
100
AcDbEntity
  8
枠_表
  6
CONTINUOUS
 62
     3
100
AcDbLine
 10
1129.8806153
 20
164.0
 30
0.0
 11
1123.7999878
 21
164.0
 31
0.0
  0
LINE
  5
17D
330
1F
100
AcDbEntity
  8
枠_表
  6
CONTINUOUS
 62
     3
100
AcDbLine
 10
1123.7999878
 20
164.0
 30
0.0
 11
1127.4031983
 21
198.2720032
 31
0.0
  0
LINE
  5
17E
330
1F
100
AcDbEntity
  8
枠_表
  6
CONTINUOUS
 62
     3
100
AcDbLine
 10
1127.4031983
 20
198.2720032
 30
0.0
 11
1123.7999878
 21
198.2720032
 31
0.0
  0
LINE
  5
17F
330
1F
100
AcDbEntity
  8
枠_表
  6
CONTINUOUS
 62
     3
100
AcDbLine
 10
1186.2955628
 20
192.2240296
 30
0.0
 11
1186.2955628
 21
186.1760559
 31
0.0
  0
LINE
  5
180
330
1F
100
AcDbEntity
  8
枠_表
  6
CONTINUOUS
 62
     3
100
AcDbLine
 10
1186.2955628
 20
192.2240296
 30
0.0
 11
1216.5363465
 21
192.2240296
 31
0.0
  0
LINE
  5
181
330
1F
100
AcDbEntity
  8
枠_表
  6
CONTINUOUS
 62
     3
100
AcDbLine
 10
1216.5363465
 20
192.2240296
 30
0.0
 11
1216.5363465
 21
186.1760559
 31
0.0
  0
LINE
  5
182
330
1F
100
AcDbEntity
  8
枠_表
  6
CONTINUOUS
 62
     3
100
AcDbLine
 10
1216.5363465
 20
186.1760559
 30
0.0
 11
1206.9591675
 21
186.1760559
 31
0.0
  0
LINE
  5
183
330
1F
100
AcDbEntity
  8
枠_表
  6
CONTINUOUS
 62
     3
100
AcDbLine
 10
1206.9591675
 20
186.1760559
 30
0.0
 11
1206.9591675
 21
177.7741089
 31
0.0
  0
LINE
  5
184
330
1F
100
AcDbEntity
  8
枠_表
  6
CONTINUOUS
 62
     3
100
AcDbLine
 10
1206.9591675
 20
177.7741089
 30
0.0
 11
1217.040802
 21
179.9165955
 31
0.0
  0
LINE
  5
185
330
1F
100
AcDbEntity
  8
枠_表
  6
CONTINUOUS
 62
     3
100
AcDbLine
 10
1217.040802
 20
179.9165955
 30
0.0
 11
1217.040802
 21
170.6419983
 31
0.0
  0
LINE
  5
186
330
1F
100
AcDbEntity
  8
枠_表
  6
CONTINUOUS
 62
     3
100
AcDbLine
 10
1217.040802
 20
170.6419983
 30
0.0
 11
1185.7909546
 21
164.0
 31
0.0
  0
LINE
  5
187
330
1F
100
AcDbEntity
  8
枠_表
  6
CONTINUOUS
 62
     3
100
AcDbLine
 10
1185.7909546
 20
164.0
 30
0.0
 11
1185.7909546
 21
173.2745972
 31
0.0
  0
LINE
  5
188
330
1F
100
AcDbEntity
  8
枠_表
  6
CONTINUOUS
 62
     3
100
AcDbLine
 10
1185.7909546
 20
173.2745972
 30
0.0
 11
1195.8725892
 21
175.4172363
 31
0.0
  0
LINE
  5
189
330
1F
100
AcDbEntity
  8
枠_表
  6
CONTINUOUS
 62
     3
100
AcDbLine
 10
1195.8725892
 20
175.4172363
 30
0.0
 11
1195.8725892
 21
186.1760559
 31
0.0
  0
LINE
  5
18A
330
1F
100
AcDbEntity
  8
枠_表
  6
CONTINUOUS
 62
     3
100
AcDbLine
 10
1195.8725892
 20
186.1760559
 30
0.0
 11
1186.2955628
 21
186.1760559
 31
0.0
  0
LINE
  5
18B
330
1F
100
AcDbEntity
  8
枠_表
  6
CONTINUOUS
 62
     3
100
AcDbLine
 10
1183.2726441
 20
204.3199768
 30
0.0
 11
1183.2726441
 21
198.2720032
 31
0.0
  0
LINE
  5
18C
330
1F
100
AcDbEntity
  8
枠_表
  6
CONTINUOUS
 62
     3
100
AcDbLine
 10
1183.2726441
 20
204.3199768
 30
0.0
 11
1213.2448731
 21
204.3199768
 31
0.0
  0
LINE
  5
18D
330
1F
100
AcDbEntity
  8
枠_表
  6
CONTINUOUS
 62
     3
100
AcDbLine
 10
1213.2448731
 20
204.3199768
 30
0.0
 11
1211.7785035
 21
208.3519592
 31
0.0
  0
LINE
  5
18E
330
1F
100
AcDbEntity
  8
枠_表
  6
CONTINUOUS
 62
     3
100
AcDbLine
 10
1211.7785035
 20
208.3519592
 30
0.0
 11
1223.5765992
 21
208.3519592
 31
0.0
  0
LINE
  5
18F
330
1F
100
AcDbEntity
  8
枠_表
  6
CONTINUOUS
 62
     3
100
AcDbLine
 10
1223.5765992
 20
208.3519592
 30
0.0
 11
1225.0449524
 21
204.3199768
 31
0.0
  0
LINE
  5
190
330
1F
100
AcDbEntity
  8
枠_表
  6
CONTINUOUS
 62
     3
100
AcDbLine
 10
1225.0449524
 20
204.3199768
 30
0.0
 11
1227.6249085
 21
204.3199768
 31
0.0
  0
LINE
  5
191
330
1F
100
AcDbEntity
  8
枠_表
  6
CONTINUOUS
 62
     3
100
AcDbLine
 10
1227.6249085
 20
204.3199768
 30
0.0
 11
1227.6249085
 21
208.3519592
 31
0.0
  0
LINE
  5
192
330
1F
100
AcDbEntity
  8
枠_表
  6
CONTINUOUS
 62
     3
100
AcDbLine
 10
1227.6249085
 20
208.3519592
 30
0.0
 11
1236.6954957
 21
208.3519592
 31
0.0
  0
LINE
  5
193
330
1F
100
AcDbEntity
  8
枠_表
  6
CONTINUOUS
 62
     3
100
AcDbLine
 10
1236.6954957
 20
208.3519592
 30
0.0
 11
1236.6954957
 21
204.3199768
 31
0.0
  0
LINE
  5
194
330
1F
100
AcDbEntity
  8
枠_表
  6
CONTINUOUS
 62
     3
100
AcDbLine
 10
1236.6954957
 20
204.3199768
 30
0.0
 11
1239.720398
 21
204.3199768
 31
0.0
  0
LINE
  5
195
330
1F
100
AcDbEntity
  8
枠_表
  6
CONTINUOUS
 62
     3
100
AcDbLine
 10
1239.720398
 20
204.3199768
 30
0.0
 11
1239.720398
 21
198.2720032
 31
0.0
  0
LINE
  5
196
330
1F
100
AcDbEntity
  8
枠_表
  6
CONTINUOUS
 62
     3
100
AcDbLine
 10
1239.720398
 20
198.2720032
 30
0.0
 11
1227.2454224
 21
198.2720032
 31
0.0
  0
LINE
  5
197
330
1F
100
AcDbEntity
  8
枠_表
  6
CONTINUOUS
 62
     3
100
AcDbLine
 10
1227.2454224
 20
198.2720032
 30
0.0
 11
1239.720398
 21
164.0
 31
0.0
  0
LINE
  5
198
330
1F
100
AcDbEntity
  8
枠_表
  6
CONTINUOUS
 62
     3
100
AcDbLine
 10
1239.720398
 20
164.0
 30
0.0
 11
1227.9201661
 21
164.0
 31
0.0
  0
LINE
  5
199
330
1F
100
AcDbEntity
  8
枠_表
  6
CONTINUOUS
 62
     3
100
AcDbLine
 10
1227.9201661
 20
164.0
 30
0.0
 11
1215.4473267
 21
198.2720032
 31
0.0
  0
LINE
  5
19A
330
1F
100
AcDbEntity
  8
枠_表
  6
CONTINUOUS
 62
     3
100
AcDbLine
 10
1215.4473267
 20
198.2720032
 30
0.0
 11
1183.2726441
 21
198.2720032
 31
0.0
  0
LINE
  5
19B
330
1F
100
AcDbEntity
  8
枠_表
  6
CONTINUOUS
 62
     3
100
AcDbLine
 10
1241.7363892
 20
199.7478333
 30
0.0
 11
1241.7363892
 21
193.3699646
 31
0.0
  0
LINE
  5
19C
330
1F
100
AcDbEntity
  8
枠_表
  6
CONTINUOUS
 62
     3
100
AcDbLine
 10
1241.7363892
 20
199.7478333
 30
0.0
 11
1270.4636536
 21
209.3599548
 31
0.0
  0
LINE
  5
19D
330
1F
100
AcDbEntity
  8
枠_表
  6
CONTINUOUS
 62
     3
100
AcDbLine
 10
1270.4636536
 20
209.3599548
 30
0.0
 11
1299.1910706
 21
199.7475281
 31
0.0
  0
LINE
  5
19E
330
1F
100
AcDbEntity
  8
枠_表
  6
CONTINUOUS
 62
     3
100
AcDbLine
 10
1299.1910706
 20
199.7475281
 30
0.0
 11
1299.1910706
 21
193.3699646
 31
0.0
  0
LINE
  5
19F
330
1F
100
AcDbEntity
  8
枠_表
  6
CONTINUOUS
 62
     3
100
AcDbLine
 10
1299.1910706
 20
193.3699646
 30
0.0
 11
1290.624939
 21
196.2367859
 31
0.0
  0
LINE
  5
1A0
330
1F
100
AcDbEntity
  8
枠_表
  6
CONTINUOUS
 62
     3
100
AcDbLine
 10
1290.624939
 20
196.2367859
 30
0.0
 11
1290.624939
 21
191.216034
 31
0.0
  0
LINE
  5
1A1
330
1F
100
AcDbEntity
  8
枠_表
  6
CONTINUOUS
 62
     3
100
AcDbLine
 10
1290.624939
 20
191.216034
 30
0.0
 11
1250.3045044
 21
191.216034
 31
0.0
  0
LINE
  5
1A2
330
1F
100
AcDbEntity
  8
枠_表
  6
CONTINUOUS
 62
     3
100
AcDbLine
 10
1250.3045044
 20
191.216034
 30
0.0
 11
1250.3045044
 21
196.2367859
 31
0.0
  0
LINE
  5
1A3
330
1F
100
AcDbEntity
  8
枠_表
  6
CONTINUOUS
 62
     3
100
AcDbLine
 10
1250.3045044
 20
196.2367859
 30
0.0
 11
1241.7363892
 21
193.3699646
 31
0.0
  0
LINE
  5
1A4
330
1F
100
AcDbEntity
  8
枠_表
  6
CONTINUOUS
 62
     3
100
AcDbLine
 10
1253.3745728
 20
197.2640076
 30
0.0
 11
1270.4636536
 21
202.9822388
 31
0.0
  0
LINE
  5
1A5
330
1F
100
AcDbEntity
  8
枠_表
  6
CONTINUOUS
 62
     3
100
AcDbLine
 10
1270.4636536
 20
202.9822388
 30
0.0
 11
1287.5548707
 21
197.2640076
 31
0.0
  0
LINE
  5
1A6
330
1F
100
AcDbEntity
  8
枠_表
  6
CONTINUOUS
 62
     3
100
AcDbLine
 10
1287.5548707
 20
197.2640076
 30
0.0
 11
1253.3745728
 21
197.2640076
 31
0.0
  0
LINE
  5
1A7
330
1F
100
AcDbEntity
  8
枠_表
  6
CONTINUOUS
 62
     3
100
AcDbLine
 10
1241.7363892
 20
187.1838989
 30
0.0
 11
1241.7363892
 21
181.1359253
 31
0.0
  0
LINE
  5
1A8
330
1F
100
AcDbEntity
  8
枠_表
  6
CONTINUOUS
 62
     3
100
AcDbLine
 10
1241.7363892
 20
187.1838989
 30
0.0
 11
1299.1910706
 21
187.1838989
 31
0.0
  0
LINE
  5
1A9
330
1F
100
AcDbEntity
  8
枠_表
  6
CONTINUOUS
 62
     3
100
AcDbLine
 10
1299.1910706
 20
187.1838989
 30
0.0
 11
1299.1910706
 21
181.1359253
 31
0.0
  0
LINE
  5
1AA
330
1F
100
AcDbEntity
  8
枠_表
  6
CONTINUOUS
 62
     3
100
AcDbLine
 10
1299.1910706
 20
181.1359253
 30
0.0
 11
1291.2011109
 21
181.1359253
 31
0.0
  0
LINE
  5
1AB
330
1F
100
AcDbEntity
  8
枠_表
  6
CONTINUOUS
 62
     3
100
AcDbLine
 10
1291.2011109
 20
181.1359253
 30
0.0
 11
1299.1910706
 21
164.0
 31
0.0
  0
LINE
  5
1AC
330
1F
100
AcDbEntity
  8
枠_表
  6
CONTINUOUS
 62
     3
100
AcDbLine
 10
1299.1910706
 20
164.0
 30
0.0
 11
1241.7363892
 21
164.0
 31
0.0
  0
LINE
  5
1AD
330
1F
100
AcDbEntity
  8
枠_表
  6
CONTINUOUS
 62
     3
100
AcDbLine
 10
1241.7363892
 20
164.0
 30
0.0
 11
1249.7261963
 21
181.1359253
 31
0.0
  0
LINE
  5
1AE
330
1F
100
AcDbEntity
  8
枠_表
  6
CONTINUOUS
 62
     3
100
AcDbLine
 10
1249.7261963
 20
181.1359253
 30
0.0
 11
1241.7363892
 21
181.1359253
 31
0.0
  0
LINE
  5
1AF
330
1F
100
AcDbEntity
  8
枠_表
  6
CONTINUOUS
 62
     3
100
AcDbLine
 10
1260.8475647
 20
181.1359253
 30
0.0
 11
1280.0797425
 21
181.1359253
 31
0.0
  0
LINE
  5
1B0
330
1F
100
AcDbEntity
  8
枠_表
  6
CONTINUOUS
 62
     3
100
AcDbLine
 10
1280.0797425
 20
181.1359253
 30
0.0
 11
1285.2497254
 21
170.0479736
 31
0.0
  0
LINE
  5
1B1
330
1F
100
AcDbEntity
  8
枠_表
  6
CONTINUOUS
 62
     3
100
AcDbLine
 10
1285.2497254
 20
170.0479736
 30
0.0
 11
1255.6775818
 21
170.0479736
 31
0.0
  0
LINE
  5
1B2
330
1F
100
AcDbEntity
  8
枠_表
  6
CONTINUOUS
 62
     3
100
AcDbLine
 10
1260.8475647
 20
181.1359253
 30
0.0
 11
1255.6775818
 21
170.0479736
 31
0.0
  0
LINE
  5
1B3
330
1F
100
AcDbEntity
  8
枠_表
  6
CONTINUOUS
 62
     3
100
AcDbLine
 10
1328.4249268
 20
197.2640076
 30
0.0
 11
1328.4249268
 21
191.216034
 31
0.0
  0
LINE
  5
1B4
330
1F
100
AcDbEntity
  8
枠_表
  6
CONTINUOUS
 62
     3
100
AcDbLine
 10
1328.4249268
 20
197.2640076
 30
0.0
 11
1337.495514
 21
197.2640076
 31
0.0
  0
LINE
  5
1B5
330
1F
100
AcDbEntity
  8
枠_表
  6
CONTINUOUS
 62
     3
100
AcDbLine
 10
1337.495514
 20
197.2640076
 30
0.0
 11
1337.495514
 21
208.3519592
 31
0.0
  0
LINE
  5
1B6
330
1F
100
AcDbEntity
  8
枠_表
  6
CONTINUOUS
 62
     3
100
AcDbLine
 10
1337.495514
 20
208.3519592
 30
0.0
 11
1347.5750123
 21
208.3519592
 31
0.0
  0
LINE
  5
1B7
330
1F
100
AcDbEntity
  8
枠_表
  6
CONTINUOUS
 62
     3
100
AcDbLine
 10
1347.5750123
 20
208.3519592
 30
0.0
 11
1347.5750123
 21
197.2640076
 31
0.0
  0
LINE
  5
1B8
330
1F
100
AcDbEntity
  8
枠_表
  6
CONTINUOUS
 62
     3
100
AcDbLine
 10
1347.5750123
 20
197.2640076
 30
0.0
 11
1356.6477356
 21
197.2640076
 31
0.0
  0
LINE
  5
1B9
330
1F
100
AcDbEntity
  8
枠_表
  6
CONTINUOUS
 62
     3
100
AcDbLine
 10
1356.6477356
 20
197.2640076
 30
0.0
 11
1356.6477356
 21
191.216034
 31
0.0
  0
LINE
  5
1BA
330
1F
100
AcDbEntity
  8
枠_表
  6
CONTINUOUS
 62
     3
100
AcDbLine
 10
1356.6477356
 20
191.216034
 30
0.0
 11
1347.5750123
 21
191.216034
 31
0.0
  0
LINE
  5
1BB
330
1F
100
AcDbEntity
  8
枠_表
  6
CONTINUOUS
 62
     3
100
AcDbLine
 10
1347.5750123
 20
191.216034
 30
0.0
 11
1347.5750123
 21
170.0479736
 31
0.0
  0
LINE
  5
1BC
330
1F
100
AcDbEntity
  8
枠_表
  6
CONTINUOUS
 62
     3
100
AcDbLine
 10
1347.5750123
 20
170.0479736
 30
0.0
 11
1357.6566468
 21
170.0479736
 31
0.0
  0
LINE
  5
1BD
330
1F
100
AcDbEntity
  8
枠_表
  6
CONTINUOUS
 62
     3
100
AcDbLine
 10
1357.6566468
 20
170.0479736
 30
0.0
 11
1357.6566468
 21
164.0
 31
0.0
  0
LINE
  5
1BE
330
1F
100
AcDbEntity
  8
枠_表
  6
CONTINUOUS
 62
     3
100
AcDbLine
 10
1357.6566468
 20
164.0
 30
0.0
 11
1324.3909607
 21
164.0
 31
0.0
  0
LINE
  5
1BF
330
1F
100
AcDbEntity
  8
枠_表
  6
CONTINUOUS
 62
     3
100
AcDbLine
 10
1324.3909607
 20
164.0
 30
0.0
 11
1324.3909607
 21
170.0479736
 31
0.0
  0
LINE
  5
1C0
330
1F
100
AcDbEntity
  8
枠_表
  6
CONTINUOUS
 62
     3
100
AcDbLine
 10
1324.3909607
 20
170.0479736
 30
0.0
 11
1337.495514
 21
170.0479736
 31
0.0
  0
LINE
  5
1C1
330
1F
100
AcDbEntity
  8
枠_表
  6
CONTINUOUS
 62
     3
100
AcDbLine
 10
1337.495514
 20
170.0479736
 30
0.0
 11
1337.495514
 21
191.216034
 31
0.0
  0
LINE
  5
1C2
330
1F
100
AcDbEntity
  8
枠_表
  6
CONTINUOUS
 62
     3
100
AcDbLine
 10
1337.495514
 20
191.216034
 30
0.0
 11
1328.4249268
 21
191.216034
 31
0.0
  0
LINE
  5
1C3
330
1F
100
AcDbEntity
  8
枠_表
  6
CONTINUOUS
 62
     3
100
AcDbLine
 10
1301.2069092
 20
204.3199768
 30
0.0
 11
1301.2069092
 21
198.2720032
 31
0.0
  0
LINE
  5
1C4
330
1F
100
AcDbEntity
  8
枠_表
  6
CONTINUOUS
 62
     3
100
AcDbLine
 10
1301.2069092
 20
204.3199768
 30
0.0
 11
1310.2796326
 21
204.3199768
 31
0.0
  0
LINE
  5
1C5
330
1F
100
AcDbEntity
  8
枠_表
  6
CONTINUOUS
 62
     3
100
AcDbLine
 10
1310.2796326
 20
204.3199768
 30
0.0
 11
1310.2796326
 21
208.3519592
 31
0.0
  0
LINE
  5
1C6
330
1F
100
AcDbEntity
  8
枠_表
  6
CONTINUOUS
 62
     3
100
AcDbLine
 10
1310.2796326
 20
208.3519592
 30
0.0
 11
1320.3591309
 21
208.3519592
 31
0.0
  0
LINE
  5
1C7
330
1F
100
AcDbEntity
  8
枠_表
  6
CONTINUOUS
 62
     3
100
AcDbLine
 10
1320.3591309
 20
208.3519592
 30
0.0
 11
1320.3591309
 21
204.3199768
 31
0.0
  0
LINE
  5
1C8
330
1F
100
AcDbEntity
  8
枠_表
  6
CONTINUOUS
 62
     3
100
AcDbLine
 10
1320.3591309
 20
204.3199768
 30
0.0
 11
1329.4318543
 21
204.3199768
 31
0.0
  0
LINE
  5
1C9
330
1F
100
AcDbEntity
  8
枠_表
  6
CONTINUOUS
 62
     3
100
AcDbLine
 10
1329.4318543
 20
204.3199768
 30
0.0
 11
1319.0261231
 21
189.45578
 31
0.0
  0
LINE
  5
1CA
330
1F
100
AcDbEntity
  8
枠_表
  6
CONTINUOUS
 62
     3
100
AcDbLine
 10
1319.0261231
 20
189.45578
 30
0.0
 11
1328.4249268
 21
182.875885
 31
0.0
  0
LINE
  5
1CB
330
1F
100
AcDbEntity
  8
枠_表
  6
CONTINUOUS
 62
     3
100
AcDbLine
 10
1328.4249268
 20
182.875885
 30
0.0
 11
1328.4249268
 21
171.8012085
 31
0.0
  0
LINE
  5
1CC
330
1F
100
AcDbEntity
  8
枠_表
  6
CONTINUOUS
 62
     3
100
AcDbLine
 10
1328.4249268
 20
171.8012085
 30
0.0
 11
1320.3591309
 21
177.4477234
 31
0.0
  0
LINE
  5
1CD
330
1F
100
AcDbEntity
  8
枠_表
  6
CONTINUOUS
 62
     3
100
AcDbLine
 10
1320.3591309
 20
177.4477234
 30
0.0
 11
1320.3591309
 21
164.0
 31
0.0
  0
LINE
  5
1CE
330
1F
100
AcDbEntity
  8
枠_表
  6
CONTINUOUS
 62
     3
100
AcDbLine
 10
1320.3591309
 20
164.0
 30
0.0
 11
1310.2796326
 21
164.0
 31
0.0
  0
LINE
  5
1CF
330
1F
100
AcDbEntity
  8
枠_表
  6
CONTINUOUS
 62
     3
100
AcDbLine
 10
1310.2796326
 20
164.0
 30
0.0
 11
1310.2796326
 21
176.9598999
 31
0.0
  0
LINE
  5
1D0
330
1F
100
AcDbEntity
  8
枠_表
  6
CONTINUOUS
 62
     3
100
AcDbLine
 10
1310.2796326
 20
176.9598999
 30
0.0
 11
1301.2069092
 21
164.0
 31
0.0
  0
LINE
  5
1D1
330
1F
100
AcDbEntity
  8
枠_表
  6
CONTINUOUS
 62
     3
100
AcDbLine
 10
1301.2069092
 20
164.0
 30
0.0
 11
1301.2069092
 21
179.819397
 31
0.0
  0
LINE
  5
1D2
330
1F
100
AcDbEntity
  8
枠_表
  6
CONTINUOUS
 62
     3
100
AcDbLine
 10
1301.2069092
 20
179.819397
 30
0.0
 11
1314.1248475
 21
198.2720032
 31
0.0
  0
LINE
  5
1D3
330
1F
100
AcDbEntity
  8
枠_表
  6
CONTINUOUS
 62
     3
100
AcDbLine
 10
1314.1248475
 20
198.2720032
 30
0.0
 11
1301.2069092
 21
198.2720032
 31
0.0
  0
ARC
  5
1D4
330
1F
100
AcDbEntity
  8
枠_表
  6
CONTINUOUS
 62
     2
100
AcDbCircle
 10
859.1610108
 20
190.200409
 30
0.0
 40
6.300122100000002
100
AcDbArc
 50
310.7683105900002
 51
335.9987793400003
  0
LINE
  5
1D5
330
1F
100
AcDbEntity
  8
枠_表
  6
CONTINUOUS
 62
     2
100
AcDbLine
 10
866.4002381
 20
190.9641113
 30
0.0
 11
864.9196777999999
 21
187.6390686
 31
0.0
  0
LINE
  5
1D6
330
1F
100
AcDbEntity
  8
枠_表
  6
CONTINUOUS
 62
     2
100
AcDbLine
 10
848.9850769999999
 20
194.7440186
 30
0.0
 11
872.2184144
 21
194.7440186
 31
0.0
  0
ARC
  5
1D7
330
1F
100
AcDbEntity
  8
枠_表
  6
CONTINUOUS
 62
     2
100
AcDbCircle
 10
952.2992859
 20
182.1440735
 30
0.0
 40
15.6240082
100
AcDbArc
 50
270.0000305200002
 51
324.0011596700001
  0
ARC
  5
1D8
330
1F
100
AcDbEntity
  8
枠_表
  6
CONTINUOUS
 62
     2
100
AcDbCircle
 10
952.2992859
 20
182.1440735
 30
0.0
 40
13.1040096
100
AcDbArc
 50
270.0000305200002
 51
324.0011596700001
  0
ARC
  5
1D9
330
1F
100
AcDbEntity
  8
枠_表
  6
CONTINUOUS
 62
     2
100
AcDbCircle
 10
799.5656739000001
 20
182.1440735
 30
0.0
 40
15.6239796
100
AcDbArc
 50
270.0000305200002
 51
333.9985504200004
  0
ARC
  5
1DA
330
1F
100
AcDbEntity
  8
枠_表
  6
CONTINUOUS
 62
     2
100
AcDbCircle
 10
798.7655030000001
 20
182.1440735
 30
0.0
 40
10.583992
100
AcDbArc
 50
270.0000305200002
 51
333.9985504200004
  0
ARC
  5
1DB
330
1F
100
AcDbEntity
  8
枠_表
  6
CONTINUOUS
 62
     2
100
AcDbCircle
 10
799.1655883999999
 20
182.1440735
 30
0.0
 40
13.1039906
100
AcDbArc
 50
270.0000305200002
 51
333.9985504200004
  0
LINE
  5
1DC
330
1F
100
AcDbEntity
  8
枠_表
  6
CONTINUOUS
 62
     2
100
AcDbLine
 10
772.8408204
 20
206.0321274
 30
0.0
 11
797.3839722
 21
206.0321274
 31
0.0
  0
LINE
  5
1DD
330
1F
100
AcDbEntity
  8
枠_表
  6
CONTINUOUS
 62
     2
100
AcDbLine
 10
772.8408204
 20
203.712143
 30
0.0
 11
797.3839722
 21
203.712143
 31
0.0
  0
LINE
  5
1DE
330
1F
100
AcDbEntity
  8
枠_表
  6
CONTINUOUS
 62
     2
100
AcDbLine
 10
772.8408204
 20
201.3923111
 30
0.0
 11
797.3839722
 21
201.3923111
 31
0.0
  0
LINE
  5
1DF
330
1F
100
AcDbEntity
  8
枠_表
  6
CONTINUOUS
 62
     2
100
AcDbLine
 10
772.8408204
 20
194.1360321
 30
0.0
 11
797.3839722
 21
194.1360321
 31
0.0
  0
LINE
  5
1E0
330
1F
100
AcDbEntity
  8
枠_表
  6
CONTINUOUS
 62
     2
100
AcDbLine
 10
772.8408204
 20
191.6158905
 30
0.0
 11
797.3839722
 21
191.6158905
 31
0.0
  0
LINE
  5
1E1
330
1F
100
AcDbEntity
  8
枠_表
  6
CONTINUOUS
 62
     2
100
AcDbLine
 10
772.8408204
 20
189.2960587
 30
0.0
 11
797.3839722
 21
189.2960587
 31
0.0
  0
LINE
  5
1E2
330
1F
100
AcDbEntity
  8
枠_表
  6
CONTINUOUS
 62
     2
100
AcDbLine
 10
772.8408204
 20
171.5599671
 30
0.0
 11
798.7655030000001
 21
171.5599671
 31
0.0
  0
LINE
  5
1E3
330
1F
100
AcDbEntity
  8
枠_表
  6
CONTINUOUS
 62
     2
100
AcDbLine
 10
772.8408204
 20
169.039978
 30
0.0
 11
798.7655030000001
 21
169.039978
 31
0.0
  0
LINE
  5
1E4
330
1F
100
AcDbEntity
  8
枠_表
  6
CONTINUOUS
 62
     2
100
AcDbLine
 10
772.8408204
 20
166.519989
 30
0.0
 11
798.7655030000001
 21
166.519989
 31
0.0
  0
LINE
  5
1E5
330
1F
100
AcDbEntity
  8
枠_表
  6
CONTINUOUS
 62
     2
100
AcDbLine
 10
808.2770691000001
 20
177.5040283
 30
0.0
 11
817.1082459
 21
195.6103649
 31
0.0
  0
LINE
  5
1E6
330
1F
100
AcDbEntity
  8
枠_表
  6
CONTINUOUS
 62
     2
100
AcDbLine
 10
810.9412537000001
 20
176.3995972
 30
0.0
 11
820.3116761
 21
195.6103745
 31
0.0
  0
LINE
  5
1E7
330
1F
100
AcDbEntity
  8
枠_表
  6
CONTINUOUS
 62
     2
100
AcDbLine
 10
813.6052857
 20
175.2942505
 30
0.0
 11
823.5131226
 21
195.6103459
 31
0.0
  0
LINE
  5
1E8
330
1F
100
AcDbEntity
  8
枠_表
  6
CONTINUOUS
 62
     2
100
AcDbLine
 10
810.1363526
 20
205.6959763
 30
0.0
 11
814.5183715999999
 21
205.6959763
 31
0.0
  0
LINE
  5
1E9
330
1F
100
AcDbEntity
  8
枠_表
  6
CONTINUOUS
 62
     2
100
AcDbLine
 10
810.1363526
 20
202.8399887
 30
0.0
 11
814.5183715999999
 21
202.8399887
 31
0.0
  0
LINE
  5
1EA
330
1F
100
AcDbEntity
  8
枠_表
  6
CONTINUOUS
 62
     2
100
AcDbLine
 10
821.2249146
 20
205.6959763
 30
0.0
 11
825.6069336
 21
205.6959763
 31
0.0
  0
LINE
  5
1EB
330
1F
100
AcDbEntity
  8
枠_表
  6
CONTINUOUS
 62
     2
100
AcDbLine
 10
821.2249146
 20
202.8399887
 30
0.0
 11
825.6069336
 21
202.8399887
 31
0.0
  0
LINE
  5
1EC
330
1F
100
AcDbEntity
  8
枠_表
  6
CONTINUOUS
 62
     2
100
AcDbLine
 10
832.3134766
 20
192.2241821
 30
0.0
 11
844.2806396999999
 21
192.2241821
 31
0.0
  0
LINE
  5
1ED
330
1F
100
AcDbEntity
  8
枠_表
  6
CONTINUOUS
 62
     2
100
AcDbLine
 10
841.3753663
 20
202.5026837
 30
0.0
 11
842.6050721
 21
194.7440186
 31
0.0
  0
LINE
  5
1EE
330
1F
100
AcDbEntity
  8
枠_表
  6
CONTINUOUS
 62
     2
100
AcDbLine
 10
847.1880494
 20
165.8173027
 30
0.0
 11
843.4490357
 21
189.4190445
 31
0.0
  0
ARC
  5
1EF
330
1F
100
AcDbEntity
  8
枠_表
  6
CONTINUOUS
 62
     2
100
AcDbCircle
 10
858.9609681000001
 20
190.200409
 30
0.0
 40
8.8201213
100
AcDbArc
 50
272.67138672
 51
335.9987793000003
  0
ARC
  5
1F0
330
1F
100
AcDbEntity
  8
枠_表
  6
CONTINUOUS
 62
     2
100
AcDbCircle
 10
858.7609252999999
 20
190.200409
 30
0.0
 40
11.3401127
100
AcDbArc
 50
267.3674316300002
 51
335.9987792900002
  0
LINE
  5
1F1
330
1F
100
AcDbEntity
  8
枠_表
  6
CONTINUOUS
 62
     2
100
AcDbLine
 10
873.3516846
 20
195.0905266
 30
0.0
 11
869.1214904999999
 21
185.5885925
 31
0.0
  0
LINE
  5
1F2
330
1F
100
AcDbEntity
  8
枠_表
  6
CONTINUOUS
 62
     2
100
AcDbLine
 10
853.0906067
 20
165.8173027
 30
0.0
 11
849.2203675000001
 21
190.2488175
 31
0.0
  0
LINE
  5
1F3
330
1F
100
AcDbEntity
  8
枠_表
  6
CONTINUOUS
 62
     2
100
AcDbLine
 10
850.3392945
 20
165.8173027
 30
0.0
 11
844.5284424
 21
202.5026741
 31
0.0
  0
LINE
  5
1F4
330
1F
100
AcDbEntity
  8
枠_表
  6
CONTINUOUS
 62
     2
100
AcDbLine
 10
847.2797547
 20
202.5026741
 30
0.0
 11
848.3956299
 21
195.459465
 31
0.0
  0
LINE
  5
1F5
330
1F
100
AcDbEntity
  8
枠_表
  6
CONTINUOUS
 62
     2
100
AcDbLine
 10
832.3134766
 20
194.7440186
 30
0.0
 11
840.6051026
 21
194.7440186
 31
0.0
  0
LINE
  5
1F6
330
1F
100
AcDbEntity
  8
枠_表
  6
CONTINUOUS
 62
     2
100
AcDbLine
 10
869.6698914
 20
192.5703945
 30
0.0
 11
867.0205079
 21
186.6135254
 31
0.0
  0
LINE
  5
1F7
330
1F
100
AcDbEntity
  8
枠_表
  6
CONTINUOUS
 62
     2
100
AcDbLine
 10
848.1073914
 20
192.2241821
 30
0.0
 11
867.3381958
 21
192.2241821
 31
0.0
  0
ARC
  5
1F8
330
1F
100
AcDbEntity
  8
枠_表
  6
CONTINUOUS
 62
     2
100
AcDbCircle
 10
858.5608826
 20
190.200409
 30
0.0
 40
13.8601112
100
AcDbArc
 50
269.6113281200002
 51
335.9987792900002
  0
LINE
  5
1F9
330
1F
100
AcDbEntity
  8
枠_表
  6
CONTINUOUS
 62
     2
100
AcDbLine
 10
875.9098206
 20
195.0905552
 30
0.0
 11
871.2224732
 21
184.5633545
 31
0.0
  0
LINE
  5
1FA
330
1F
100
AcDbEntity
  8
枠_表
  6
CONTINUOUS
 62
     2
100
AcDbLine
 10
983.3126221
 20
203.3121338
 30
0.0
 11
962.8806457999999
 21
175.1827088
 31
0.0
  0
LINE
  5
1FB
330
1F
100
AcDbEntity
  8
枠_表
  6
CONTINUOUS
 62
     2
100
AcDbLine
 10
977.8681336
 20
200.7922974
 30
0.0
 11
960.3420411000001
 21
176.664032
 31
0.0
  0
ARC
  5
1FC
330
1F
100
AcDbEntity
  8
枠_表
  6
CONTINUOUS
 62
     2
100
AcDbCircle
 10
952.9993592
 20
181.7440643
 30
0.0
 40
9.3240207
100
AcDbArc
 50
270.0000305200002
 51
324.0011596700001
  0
LINE
  5
1FD
330
1F
100
AcDbEntity
  8
枠_表
  6
CONTINUOUS
 62
     2
100
AcDbLine
 10
883.8794860999999
 20
206.0155907
 30
0.0
 11
928.2636414
 21
206.0155907
 31
0.0
  0
LINE
  5
1FE
330
1F
100
AcDbEntity
  8
枠_表
  6
CONTINUOUS
 62
     2
100
AcDbLine
 10
883.8794860999999
 20
203.395752
 30
0.0
 11
928.2636414
 21
203.395752
 31
0.0
  0
LINE
  5
1FF
330
1F
100
AcDbEntity
  8
枠_表
  6
CONTINUOUS
 62
     2
100
AcDbLine
 10
883.8794860999999
 20
200.675911
 30
0.0
 11
928.2636414
 21
200.675911
 31
0.0
  0
LINE
  5
200
330
1F
100
AcDbEntity
  8
枠_表
  6
CONTINUOUS
 62
     2
100
AcDbLine
 10
879.8476562999999
 20
171.644043
 30
0.0
 11
932.2954712000001
 21
171.644043
 31
0.0
  0
LINE
  5
201
330
1F
100
AcDbEntity
  8
枠_表
  6
CONTINUOUS
 62
     2
100
AcDbLine
 10
879.8476562999999
 20
169.124054
 30
0.0
 11
932.2954712000001
 21
169.124054
 31
0.0
  0
LINE
  5
202
330
1F
100
AcDbEntity
  8
枠_表
  6
CONTINUOUS
 62
     2
100
AcDbLine
 10
879.8476562999999
 20
166.4039078
 30
0.0
 11
932.2954712000001
 21
166.4039078
 31
0.0
  0
LINE
  5
203
330
1F
100
AcDbEntity
  8
枠_表
  6
CONTINUOUS
 62
     2
100
AcDbLine
 10
943.3521424
 20
205.9321251
 30
0.0
 11
986.2568054999999
 21
205.9321251
 31
0.0
  0
LINE
  5
204
330
1F
100
AcDbEntity
  8
枠_表
  6
CONTINUOUS
 62
     2
100
AcDbLine
 10
988.8569031
 20
205.8321228
 30
0.0
 11
965.519043
 21
173.7006226
 31
0.0
  0
LINE
  5
205
330
1F
100
AcDbEntity
  8
枠_表
  6
CONTINUOUS
 62
     2
100
AcDbLine
 10
943.3521424
 20
203.3121338
 30
0.0
 11
981.3125
 21
203.3121338
 31
0.0
  0
LINE
  5
206
330
1F
100
AcDbEntity
  8
枠_表
  6
CONTINUOUS
 62
     2
100
AcDbLine
 10
952.2992859
 20
171.6599693
 30
0.0
 11
939.3203125
 21
171.6599693
 31
0.0
  0
LINE
  5
207
330
1F
100
AcDbEntity
  8
枠_表
  6
CONTINUOUS
 62
     2
100
AcDbLine
 10
952.2992859
 20
169.039978
 30
0.0
 11
939.3203125
 21
169.039978
 31
0.0
  0
LINE
  5
208
330
1F
100
AcDbEntity
  8
枠_表
  6
CONTINUOUS
 62
     2
100
AcDbLine
 10
952.2992859
 20
166.4199867
 30
0.0
 11
939.3203125
 21
166.4199867
 31
0.0
  0
LINE
  5
209
330
1F
100
AcDbEntity
  8
枠_表
  6
CONTINUOUS
 62
     2
100
AcDbLine
 10
972.4318848
 20
179.7371521
 30
0.0
 11
984.3715821000001
 21
165.9999981
 31
0.0
  0
LINE
  5
20A
330
1F
100
AcDbEntity
  8
枠_表
  6
CONTINUOUS
 62
     2
100
AcDbLine
 10
973.9534913
 20
181.5305081
 30
0.0
 11
987.4517212000001
 21
165.9999981
 31
0.0
  0
LINE
  5
20B
330
1F
100
AcDbEntity
  8
枠_表
  6
CONTINUOUS
 62
     2
100
AcDbLine
 10
975.4731141000001
 20
183.3229485
 30
0.0
 11
990.529419
 21
165.9999981
 31
0.0
  0
LINE
  5
20C
330
1F
100
AcDbEntity
  8
枠_表
  6
CONTINUOUS
 62
     2
100
AcDbLine
 10
976.9927369
 20
185.1158466
 30
0.0
 11
993.6092530000001
 21
165.9999981
 31
0.0
  0
LINE
  5
20D
330
1F
100
AcDbEntity
  8
枠_表
  6
CONTINUOUS
 62
     2
100
AcDbLine
 10
943.3521424
 20
200.5922928
 30
0.0
 11
975.367981
 21
200.5922928
 31
0.0
  0
LINE
  5
20E
330
1F
100
AcDbEntity
  8
枠_表
  6
CONTINUOUS
 62
     2
100
AcDbLine
 10
1011.8955384
 20
206.0321274
 30
0.0
 11
1060.3113709
 21
206.0321274
 31
0.0
  0
LINE
  5
20F
330
1F
100
AcDbEntity
  8
枠_表
  6
CONTINUOUS
 62
     2
100
AcDbLine
 10
1011.8955384
 20
203.5121384
 30
0.0
 11
1060.3113709
 21
203.5121384
 31
0.0
  0
LINE
  5
210
330
1F
100
AcDbEntity
  8
枠_表
  6
CONTINUOUS
 62
     2
100
AcDbLine
 10
1032.6773987
 20
171.4799156
 30
0.0
 11
1032.6773987
 21
201.2122193
 31
0.0
  0
LINE
  5
211
330
1F
100
AcDbEntity
  8
枠_表
  6
CONTINUOUS
 62
     2
100
AcDbLine
 10
1035.1958619
 20
171.4799156
 30
0.0
 11
1035.1958619
 21
201.2122193
 31
0.0
  0
LINE
  5
212
330
1F
100
AcDbEntity
  8
枠_表
  6
CONTINUOUS
 62
     2
100
AcDbLine
 10
1037.7141724
 20
171.4799156
 30
0.0
 11
1037.7141724
 21
201.2122193
 31
0.0
  0
LINE
  5
213
330
1F
100
AcDbEntity
  8
枠_表
  6
CONTINUOUS
 62
     2
100
AcDbLine
 10
1040.0324402
 20
171.4799156
 30
0.0
 11
1040.0324402
 21
201.2122193
 31
0.0
  0
LINE
  5
214
330
1F
100
AcDbEntity
  8
枠_表
  6
CONTINUOUS
 62
     2
100
AcDbLine
 10
1009.8795472
 20
169.4799175
 30
0.0
 11
1062.3273621
 21
169.4799175
 31
0.0
  0
LINE
  5
215
330
1F
100
AcDbEntity
  8
枠_表
  6
CONTINUOUS
 62
     2
100
AcDbLine
 10
1009.8795472
 20
166.4599266
 30
0.0
 11
1062.3273621
 21
166.4599266
 31
0.0
  0
LINE
  5
216
330
1F
100
AcDbEntity
  8
枠_表
  6
CONTINUOUS
 62
     2
100
AcDbLine
 10
1074.127594
 20
206.3519612
 30
0.0
 11
1077.8708802
 21
201.5615025
 31
0.0
  0
LINE
  5
217
330
1F
100
AcDbEntity
  8
枠_表
  6
CONTINUOUS
 62
     2
100
AcDbLine
 10
1077.3247681
 20
206.3519612
 30
0.0
 11
1081.0680542
 21
201.5615025
 31
0.0
  0
LINE
  5
218
330
1F
100
AcDbEntity
  8
枠_表
  6
CONTINUOUS
 62
     2
100
AcDbLine
 10
1087.3113404
 20
206.3519612
 30
0.0
 11
1087.3113404
 21
201.9855633
 31
0.0
  0
LINE
  5
219
330
1F
100
AcDbEntity
  8
枠_表
  6
CONTINUOUS
 62
     2
100
AcDbLine
 10
1090.0298462
 20
206.3519612
 30
0.0
 11
1090.0298462
 21
201.9855633
 31
0.0
  0
LINE
  5
21A
330
1F
100
AcDbEntity
  8
枠_表
  6
CONTINUOUS
 62
     2
100
AcDbLine
 10
1097.3909913
 20
206.3519612
 30
0.0
 11
1097.3909913
 21
201.9855633
 31
0.0
  0
LINE
  5
21B
330
1F
100
AcDbEntity
  8
枠_表
  6
CONTINUOUS
 62
     2
100
AcDbLine
 10
1100.3093873
 20
206.3519612
 30
0.0
 11
1100.3093873
 21
201.9855633
 31
0.0
  0
LINE
  5
21C
330
1F
100
AcDbEntity
  8
枠_表
  6
CONTINUOUS
 62
     2
100
AcDbLine
 10
1109.9956666
 20
206.3519612
 30
0.0
 11
1106.2523804
 21
201.5615025
 31
0.0
  0
LINE
  5
21D
330
1F
100
AcDbEntity
  8
枠_表
  6
CONTINUOUS
 62
     2
100
AcDbLine
 10
1113.3928833
 20
206.3519612
 30
0.0
 11
1109.6495972
 21
201.5615025
 31
0.0
  0
LINE
  5
21E
330
1F
100
AcDbEntity
  8
枠_表
  6
CONTINUOUS
 62
     2
100
AcDbLine
 10
1067.3362122
 20
199.9855652
 30
0.0
 11
1119.7840271
 21
199.9855652
 31
0.0
  0
LINE
  5
21F
330
1F
100
AcDbEntity
  8
枠_表
  6
CONTINUOUS
 62
     2
100
AcDbLine
 10
1080.4317627
 20
192.1882858
 30
0.0
 11
1078.2778321
 21
198.1061783
 31
0.0
  0
LINE
  5
220
330
1F
100
AcDbEntity
  8
枠_表
  6
CONTINUOUS
 62
     2
100
AcDbLine
 10
1083.5122071
 20
192.1882858
 30
0.0
 11
1081.3582764
 21
198.1061783
 31
0.0
  0
LINE
  5
221
330
1F
100
AcDbEntity
  8
枠_表
  6
CONTINUOUS
 62
     2
100
AcDbLine
 10
1086.3926087
 20
192.1885147
 30
0.0
 11
1084.2411194
 21
198.1059494
 31
0.0
  0
LINE
  5
222
330
1F
100
AcDbEntity
  8
枠_表
  6
CONTINUOUS
 62
     2
100
AcDbLine
 10
1100.9194336
 20
192.1880665
 30
0.0
 11
1103.0756531
 21
198.1063976
 31
0.0
  0
LINE
  5
223
330
1F
100
AcDbEntity
  8
枠_表
  6
CONTINUOUS
 62
     2
100
AcDbLine
 10
1104.0020142
 20
192.1880665
 30
0.0
 11
1106.1582337
 21
198.1063976
 31
0.0
  0
LINE
  5
224
330
1F
100
AcDbEntity
  8
枠_表
  6
CONTINUOUS
 62
     2
100
AcDbLine
 10
1106.8824158
 20
192.1880665
 30
0.0
 11
1109.0386353
 21
198.1063976
 31
0.0
  0
LINE
  5
225
330
1F
100
AcDbEntity
  8
枠_表
  6
CONTINUOUS
 62
     2
100
AcDbLine
 10
1067.3362122
 20
190.3088989
 30
0.0
 11
1119.7840271
 21
190.3088989
 31
0.0
  0
LINE
  5
226
330
1F
100
AcDbEntity
  8
枠_表
  6
CONTINUOUS
 62
     2
100
AcDbLine
 10
1067.3362122
 20
183.3536377
 30
0.0
 11
1088.8387452
 21
183.3536377
 31
0.0
  0
LINE
  5
227
330
1F
100
AcDbEntity
  8
枠_表
  6
CONTINUOUS
 62
     2
100
AcDbLine
 10
1067.3362122
 20
176.3983765
 30
0.0
 11
1088.8387452
 21
176.3983765
 31
0.0
  0
LINE
  5
228
330
1F
100
AcDbEntity
  8
枠_表
  6
CONTINUOUS
 62
     2
100
AcDbLine
 10
1098.475586
 20
176.3983765
 30
0.0
 11
1119.7840271
 21
176.3983765
 31
0.0
  0
LINE
  5
229
330
1F
100
AcDbEntity
  8
枠_表
  6
CONTINUOUS
 62
     2
100
AcDbLine
 10
1070.5088196
 20
165.9999981
 30
0.0
 11
1080.5332337
 21
175.057539
 31
0.0
  0
LINE
  5
22A
330
1F
100
AcDbEntity
  8
枠_表
  6
CONTINUOUS
 62
     2
100
AcDbLine
 10
1073.8677369
 20
165.9999981
 30
0.0
 11
1083.8924561
 21
175.0575581
 31
0.0
  0
LINE
  5
22B
330
1F
100
AcDbEntity
  8
枠_表
  6
CONTINUOUS
 62
     2
100
AcDbLine
 10
1077.0287476
 20
165.9999981
 30
0.0
 11
1087.0534668
 21
175.0575581
 31
0.0
  0
LINE
  5
22C
330
1F
100
AcDbEntity
  8
枠_表
  6
CONTINUOUS
 62
     2
100
AcDbLine
 10
1090.8387146
 20
165.9999981
 30
0.0
 11
1090.8387146
 21
188.3089008
 31
0.0
  0
LINE
  5
22D
330
1F
100
AcDbEntity
  8
枠_表
  6
CONTINUOUS
 62
     2
100
AcDbLine
 10
1093.7571106
 20
165.9999981
 30
0.0
 11
1093.7571106
 21
188.3089008
 31
0.0
  0
LINE
  5
22E
330
1F
100
AcDbEntity
  8
枠_表
  6
CONTINUOUS
 62
     2
100
AcDbLine
 10
1096.4756165
 20
165.9999981
 30
0.0
 11
1096.4756165
 21
188.3089008
 31
0.0
  0
LINE
  5
22F
330
1F
100
AcDbEntity
  8
枠_表
  6
CONTINUOUS
 62
     2
100
AcDbLine
 10
1110.171753
 20
165.9999981
 30
0.0
 11
1100.1473389
 21
175.057539
 31
0.0
  0
LINE
  5
230
330
1F
100
AcDbEntity
  8
枠_表
  6
CONTINUOUS
 62
     2
100
AcDbLine
 10
1113.5308228
 20
165.9999981
 30
0.0
 11
1103.5061036
 21
175.0575581
 31
0.0
  0
LINE
  5
231
330
1F
100
AcDbEntity
  8
枠_表
  6
CONTINUOUS
 62
     2
100
AcDbLine
 10
1116.8918763
 20
165.9999981
 30
0.0
 11
1106.867157
 21
175.0575581
 31
0.0
  0
LINE
  5
232
330
1F
100
AcDbEntity
  8
枠_表
  6
CONTINUOUS
 62
     2
100
AcDbLine
 10
1135.9978638
 20
206.3519612
 30
0.0
 11
1135.9978638
 21
202.7919903
 31
0.0
  0
LINE
  5
233
330
1F
100
AcDbEntity
  8
枠_表
  6
CONTINUOUS
 62
     2
100
AcDbLine
 10
1138.5161744
 20
206.3519612
 30
0.0
 11
1138.5161744
 21
202.7919903
 31
0.0
  0
LINE
  5
234
330
1F
100
AcDbEntity
  8
枠_表
  6
CONTINUOUS
 62
     2
100
AcDbLine
 10
1141.0346375
 20
206.3519612
 30
0.0
 11
1141.0346375
 21
202.7919903
 31
0.0
  0
LINE
  5
235
330
1F
100
AcDbEntity
  8
枠_表
  6
CONTINUOUS
 62
     2
100
AcDbLine
 10
1125.7999573
 20
200.7919922
 30
0.0
 11
1143.9751587
 21
200.7919922
 31
0.0
  0
LINE
  5
236
330
1F
100
AcDbEntity
  8
枠_表
  6
CONTINUOUS
 62
     2
100
AcDbLine
 10
1125.9441529
 20
165.9890499
 30
0.0
 11
1129.3920289
 21
198.8029423
 31
0.0
  0
LINE
  5
237
330
1F
100
AcDbEntity
  8
枠_表
  6
CONTINUOUS
 62
     2
100
AcDbLine
 10
1128.276764
 20
165.9890499
 30
0.0
 11
1131.7247925
 21
198.8029423
 31
0.0
  0
LINE
  5
238
330
1F
100
AcDbEntity
  8
枠_表
  6
CONTINUOUS
 62
     2
100
AcDbLine
 10
1135.9978638
 20
165.9999981
 30
0.0
 11
1135.9978638
 21
198.7919941
 31
0.0
  0
LINE
  5
239
330
1F
100
AcDbEntity
  8
枠_表
  6
CONTINUOUS
 62
     2
100
AcDbLine
 10
1138.5161744
 20
165.9999981
 30
0.0
 11
1138.5161744
 21
198.7919941
 31
0.0
  0
LINE
  5
23A
330
1F
100
AcDbEntity
  8
枠_表
  6
CONTINUOUS
 62
     2
100
AcDbLine
 10
1141.0346375
 20
165.9999981
 30
0.0
 11
1141.0346375
 21
198.7919941
 31
0.0
  0
LINE
  5
23B
330
1F
100
AcDbEntity
  8
枠_表
  6
CONTINUOUS
 62
     2
100
AcDbLine
 10
1142.2092591
 20
196.1542454
 30
0.0
 11
1144.8003541
 21
192.5838413
 31
0.0
  0
LINE
  5
23C
330
1F
100
AcDbEntity
  8
枠_表
  6
CONTINUOUS
 62
     2
100
AcDbLine
 10
1142.2092591
 20
192.264246
 30
0.0
 11
1144.8003541
 21
188.6938419
 31
0.0
  0
LINE
  5
23D
330
1F
100
AcDbEntity
  8
枠_表
  6
CONTINUOUS
 62
     2
100
AcDbLine
 10
1148.4691773
 20
197.1886006
 30
0.0
 11
1150.7688294
 21
206.4113751
 31
0.0
  0
LINE
  5
23E
330
1F
100
AcDbEntity
  8
枠_表
  6
CONTINUOUS
 62
     2
100
AcDbLine
 10
1150.8674012
 20
197.1886864
 30
0.0
 11
1153.1652222
 21
206.4112892
 31
0.0
  0
LINE
  5
23F
330
1F
100
AcDbEntity
  8
枠_表
  6
CONTINUOUS
 62
     2
100
AcDbLine
 10
1152.9638062
 20
197.1886006
 30
0.0
 11
1155.2634583
 21
206.4113751
 31
0.0
  0
LINE
  5
240
330
1F
100
AcDbEntity
  8
枠_表
  6
CONTINUOUS
 62
     2
100
AcDbLine
 10
1161.7023621
 20
202.7919903
 30
0.0
 11
1161.7023621
 21
206.3519612
 31
0.0
  0
LINE
  5
241
330
1F
100
AcDbEntity
  8
枠_表
  6
CONTINUOUS
 62
     2
100
AcDbLine
 10
1164.4207154
 20
202.7919903
 30
0.0
 11
1164.4207154
 21
206.3519612
 31
0.0
  0
LINE
  5
242
330
1F
100
AcDbEntity
  8
枠_表
  6
CONTINUOUS
 62
     2
100
AcDbLine
 10
1166.9391785
 20
202.7919903
 30
0.0
 11
1166.9391785
 21
206.3519612
 31
0.0
  0
LINE
  5
243
330
1F
100
AcDbEntity
  8
枠_表
  6
CONTINUOUS
 62
     2
100
AcDbLine
 10
1155.8622132
 20
200.7919922
 30
0.0
 11
1178.2477723
 21
200.7919922
 31
0.0
  0
LINE
  5
244
330
1F
100
AcDbEntity
  8
枠_表
  6
CONTINUOUS
 62
     2
100
AcDbLine
 10
1161.7023621
 20
198.7919941
 30
0.0
 11
1161.7023621
 21
192.7120342
 31
0.0
  0
LINE
  5
245
330
1F
100
AcDbEntity
  8
枠_表
  6
CONTINUOUS
 62
     2
100
AcDbLine
 10
1164.4207154
 20
198.7919941
 30
0.0
 11
1164.4207154
 21
192.7120342
 31
0.0
  0
LINE
  5
246
330
1F
100
AcDbEntity
  8
枠_表
  6
CONTINUOUS
 62
     2
100
AcDbLine
 10
1166.9391785
 20
198.7919941
 30
0.0
 11
1166.9391785
 21
192.7120342
 31
0.0
  0
LINE
  5
247
330
1F
100
AcDbEntity
  8
枠_表
  6
CONTINUOUS
 62
     2
100
AcDbLine
 10
1148.9840088
 20
190.7120361
 30
0.0
 11
1179.2566834
 21
190.7120361
 31
0.0
  0
LINE
  5
248
330
1F
100
AcDbEntity
  8
枠_表
  6
CONTINUOUS
 62
     2
100
AcDbLine
 10
1153.4479676
 20
188.7443867
 30
0.0
 11
1149.3007813
 21
165.9676495
 31
0.0
  0
LINE
  5
249
330
1F
100
AcDbEntity
  8
枠_表
  6
CONTINUOUS
 62
     2
100
AcDbLine
 10
1155.8072815
 20
188.7443867
 30
0.0
 11
1151.6602478
 21
165.9676495
 31
0.0
  0
LINE
  5
24A
330
1F
100
AcDbEntity
  8
枠_表
  6
CONTINUOUS
 62
     2
100
AcDbLine
 10
1157.8891907
 20
188.7444153
 30
0.0
 11
1153.7400208
 21
165.9676209
 31
0.0
  0
LINE
  5
24B
330
1F
100
AcDbEntity
  8
枠_表
  6
CONTINUOUS
 62
     2
100
AcDbLine
 10
1161.7023621
 20
188.7120381
 30
0.0
 11
1161.7023621
 21
165.9999981
 31
0.0
  0
LINE
  5
24C
330
1F
100
AcDbEntity
  8
枠_表
  6
CONTINUOUS
 62
     2
100
AcDbLine
 10
1164.2206727
 20
188.7120381
 30
0.0
 11
1164.2206727
 21
165.9999981
 31
0.0
  0
LINE
  5
24D
330
1F
100
AcDbEntity
  8
枠_表
  6
CONTINUOUS
 62
     3
100
AcDbLine
 10
1166.9391785
 20
188.7120381
 30
0.0
 11
1166.9391785
 21
165.9999981
 31
0.0
  0
LINE
  5
24E
330
1F
100
AcDbEntity
  8
枠_表
  6
CONTINUOUS
 62
     2
100
AcDbLine
 10
1170.3495179
 20
188.7444153
 30
0.0
 11
1174.4986878
 21
165.9676209
 31
0.0
  0
LINE
  5
24F
330
1F
100
AcDbEntity
  8
枠_表
  6
CONTINUOUS
 62
     2
100
AcDbLine
 10
1172.5109253
 20
188.7444153
 30
0.0
 11
1176.6600953
 21
165.9676209
 31
0.0
  0
LINE
  5
250
330
1F
100
AcDbEntity
  8
枠_表
  6
CONTINUOUS
 62
     2
100
AcDbLine
 10
1175.070282
 20
188.7444153
 30
0.0
 11
1179.219452
 21
165.9676209
 31
0.0
  0
LINE
  5
251
330
1F
100
AcDbEntity
  8
枠_表
  6
CONTINUOUS
 62
     2
100
AcDbLine
 10
1185.2726136
 20
202.4001541
 30
0.0
 11
1213.8240967
 21
202.4001541
 31
0.0
  0
LINE
  5
252
330
1F
100
AcDbEntity
  8
枠_表
  6
CONTINUOUS
 62
     2
100
AcDbLine
 10
1185.2726136
 20
199.8801651
 30
0.0
 11
1214.7413025
 21
199.8801651
 31
0.0
  0
LINE
  5
253
330
1F
100
AcDbEntity
  8
枠_表
  6
CONTINUOUS
 62
     2
100
AcDbLine
 10
1229.1166077
 20
165.8793869
 30
0.0
 11
1214.34198
 21
206.4725723
 31
0.0
  0
LINE
  5
254
330
1F
100
AcDbEntity
  8
枠_表
  6
CONTINUOUS
 62
     2
100
AcDbLine
 10
1231.7969666
 20
165.8793965
 30
0.0
 11
1217.0229493
 21
206.4725628
 31
0.0
  0
LINE
  5
255
330
1F
100
AcDbEntity
  8
枠_表
  6
CONTINUOUS
 62
     2
100
AcDbLine
 10
1234.4773255
 20
165.8793965
 30
0.0
 11
1219.7033082
 21
206.4725628
 31
0.0
  0
LINE
  5
256
330
1F
100
AcDbEntity
  8
枠_表
  6
CONTINUOUS
 62
     2
100
AcDbLine
 10
1237.1576844
 20
165.8793583
 30
0.0
 11
1222.3813782
 21
206.4725914
 31
0.0
  0
LINE
  5
257
330
1F
100
AcDbEntity
  8
枠_表
  6
CONTINUOUS
 62
     2
100
AcDbLine
 10
1229.5430909
 20
204.4001522
 30
0.0
 11
1229.5430909
 21
206.3519612
 31
0.0
  0
LINE
  5
258
330
1F
100
AcDbEntity
  8
枠_表
  6
CONTINUOUS
 62
     2
100
AcDbLine
 10
1232.2615967
 20
204.4001522
 30
0.0
 11
1232.2615967
 21
206.3519612
 31
0.0
  0
LINE
  5
259
330
1F
100
AcDbEntity
  8
枠_表
  6
CONTINUOUS
 62
     2
100
AcDbLine
 10
1234.97995
 20
204.4001522
 30
0.0
 11
1234.97995
 21
206.3519612
 31
0.0
  0
LINE
  5
25A
330
1F
100
AcDbEntity
  8
枠_表
  6
CONTINUOUS
 62
     2
100
AcDbLine
 10
1225.8637391
 20
202.4001541
 30
0.0
 11
1237.7204285
 21
202.4001541
 31
0.0
  0
LINE
  5
25B
330
1F
100
AcDbEntity
  8
枠_表
  6
CONTINUOUS
 62
     2
100
AcDbLine
 10
1226.7810975
 20
199.8801651
 30
0.0
 11
1237.7204285
 21
199.8801651
 31
0.0
  0
LINE
  5
25C
330
1F
100
AcDbEntity
  8
枠_表
  6
CONTINUOUS
 62
     2
100
AcDbLine
 10
1188.2955323
 20
190.3640976
 30
0.0
 11
1214.536377
 21
190.3640976
 31
0.0
  0
LINE
  5
25D
330
1F
100
AcDbEntity
  8
枠_表
  6
CONTINUOUS
 62
     2
100
AcDbLine
 10
1188.2955323
 20
187.843956
 30
0.0
 11
1214.536377
 21
187.843956
 31
0.0
  0
LINE
  5
25E
330
1F
100
AcDbEntity
  8
枠_表
  6
CONTINUOUS
 62
     2
100
AcDbLine
 10
1197.7909241
 20
185.8439579
 30
0.0
 11
1197.7909241
 21
175.791153
 31
0.0
  0
LINE
  5
25F
330
1F
100
AcDbEntity
  8
枠_表
  6
CONTINUOUS
 62
     2
100
AcDbLine
 10
1200.3092347
 20
185.8439579
 30
0.0
 11
1200.3092347
 21
176.3264313
 31
0.0
  0
LINE
  5
260
330
1F
100
AcDbEntity
  8
枠_表
  6
CONTINUOUS
 62
     2
100
AcDbLine
 10
1202.8275452
 20
185.8439579
 30
0.0
 11
1202.8275452
 21
176.8617191
 31
0.0
  0
LINE
  5
261
330
1F
100
AcDbEntity
  8
枠_表
  6
CONTINUOUS
 62
     2
100
AcDbLine
 10
1205.3460083
 20
185.8439579
 30
0.0
 11
1205.3460083
 21
177.3970261
 31
0.0
  0
LINE
  5
262
330
1F
100
AcDbEntity
  8
枠_表
  6
CONTINUOUS
 62
     2
100
AcDbLine
 10
1187.747284
 20
171.6563168
 30
0.0
 11
1215.0844727
 21
177.4669972
 31
0.0
  0
LINE
  5
263
330
1F
100
AcDbEntity
  8
枠_表
  6
CONTINUOUS
 62
     2
100
AcDbLine
 10
1187.747284
 20
168.8800278
 30
0.0
 11
1215.0844727
 21
174.6908512
 31
0.0
  0
LINE
  5
264
330
1F
100
AcDbEntity
  8
枠_表
  6
CONTINUOUS
 62
     2
100
AcDbLine
 10
1187.747284
 20
166.5037289
 30
0.0
 11
1215.0844727
 21
172.3144093
 31
0.0
  0
LINE
  5
265
330
1F
100
AcDbEntity
  8
枠_表
  6
CONTINUOUS
 62
     2
100
AcDbLine
 10
1243.6330567
 20
198.325943
 30
0.0
 11
1269.5153199
 21
206.9854012
 31
0.0
  0
LINE
  5
266
330
1F
100
AcDbEntity
  8
枠_表
  6
CONTINUOUS
 62
     2
100
AcDbLine
 10
1243.6330567
 20
195.6686249
 30
0.0
 11
1269.5153199
 21
204.3282356
 31
0.0
  0
LINE
  5
267
330
1F
100
AcDbEntity
  8
枠_表
  6
CONTINUOUS
 62
     2
100
AcDbLine
 10
1271.4119874
 20
206.9853916
 30
0.0
 11
1297.2944031
 21
198.325304
 31
0.0
  0
LINE
  5
268
330
1F
100
AcDbEntity
  8
枠_表
  6
CONTINUOUS
 62
     2
100
AcDbLine
 10
1271.4119874
 20
204.5282307
 30
0.0
 11
1297.2944031
 21
195.8681431
 31
0.0
  0
LINE
  5
269
330
1F
100
AcDbEntity
  8
枠_表
  6
CONTINUOUS
 62
     2
100
AcDbLine
 10
1288.6249695
 20
195.5961075
 30
0.0
 11
1252.3044739
 21
195.5961075
 31
0.0
  0
LINE
  5
26A
330
1F
100
AcDbEntity
  8
枠_表
  6
CONTINUOUS
 62
     2
100
AcDbLine
 10
1288.6249695
 20
192.8759613
 30
0.0
 11
1252.3044739
 21
192.8759613
 31
0.0
  0
LINE
  5
26B
330
1F
100
AcDbEntity
  8
枠_表
  6
CONTINUOUS
 62
     2
100
AcDbLine
 10
1243.7363587
 20
185.0639191
 30
0.0
 11
1297.1911011
 21
185.0639191
 31
0.0
  0
LINE
  5
26C
330
1F
100
AcDbEntity
  8
枠_表
  6
CONTINUOUS
 62
     2
100
AcDbLine
 10
1243.7363587
 20
182.7440872
 30
0.0
 11
1297.1911011
 21
182.7440872
 31
0.0
  0
LINE
  5
26D
330
1F
100
AcDbEntity
  8
枠_表
  6
CONTINUOUS
 62
     2
100
AcDbLine
 10
1252.0133362
 20
180.9315338
 30
0.0
 11
1246.9112549
 21
169.9924603
 31
0.0
  0
LINE
  5
26E
330
1F
100
AcDbEntity
  8
枠_表
  6
CONTINUOUS
 62
     2
100
AcDbLine
 10
1255.194336
 20
180.9315434
 30
0.0
 11
1250.0921021
 21
169.9924603
 31
0.0
  0
LINE
  5
26F
330
1F
100
AcDbEntity
  8
枠_表
  6
CONTINUOUS
 62
     2
100
AcDbLine
 10
1258.3753357
 20
180.9315434
 30
0.0
 11
1253.2731019
 21
169.9924603
 31
0.0
  0
LINE
  5
270
330
1F
100
AcDbEntity
  8
枠_表
  6
CONTINUOUS
 62
     2
100
AcDbLine
 10
1282.5541077
 20
180.9316673
 30
0.0
 11
1287.6583252
 21
169.9923363
 31
0.0
  0
LINE
  5
271
330
1F
100
AcDbEntity
  8
枠_表
  6
CONTINUOUS
 62
     2
100
AcDbLine
 10
1285.7370911
 20
180.9314194
 30
0.0
 11
1290.8370362
 21
169.9925842
 31
0.0
  0
LINE
  5
272
330
1F
100
AcDbEntity
  8
枠_表
  6
CONTINUOUS
 62
     2
100
AcDbLine
 10
1288.9199219
 20
180.9313145
 30
0.0
 11
1294.0181885
 21
169.9926891
 31
0.0
  0
LINE
  5
273
330
1F
100
AcDbEntity
  8
枠_表
  6
CONTINUOUS
 62
     2
100
AcDbLine
 10
1245.6853638
 20
168.1799164
 30
0.0
 11
1295.242096
 21
168.1799164
 31
0.0
  0
LINE
  5
274
330
1F
100
AcDbEntity
  8
枠_表
  6
CONTINUOUS
 62
     2
100
AcDbLine
 10
1244.5102845
 20
165.6599274
 30
0.0
 11
1296.4171753
 21
165.6599274
 31
0.0
  0
LINE
  5
275
330
1F
100
AcDbEntity
  8
枠_表
  6
CONTINUOUS
 62
     2
100
AcDbLine
 10
1312.3978577
 20
204.4001522
 30
0.0
 11
1312.3978577
 21
206.3519612
 31
0.0
  0
LINE
  5
276
330
1F
100
AcDbEntity
  8
枠_表
  6
CONTINUOUS
 62
     2
100
AcDbLine
 10
1315.3162537
 20
204.4001522
 30
0.0
 11
1315.3162537
 21
206.3519612
 31
0.0
  0
LINE
  5
277
330
1F
100
AcDbEntity
  8
枠_表
  6
CONTINUOUS
 62
     2
100
AcDbLine
 10
1318.2348023
 20
204.4001522
 30
0.0
 11
1318.2348023
 21
206.3519612
 31
0.0
  0
LINE
  5
278
330
1F
100
AcDbEntity
  8
枠_表
  6
CONTINUOUS
 62
     2
100
AcDbLine
 10
1303.2068787
 20
202.4001541
 30
0.0
 11
1326.0878907
 21
202.4001541
 31
0.0
  0
LINE
  5
279
330
1F
100
AcDbEntity
  8
枠_表
  6
CONTINUOUS
 62
     2
100
AcDbLine
 10
1303.2068787
 20
199.8801651
 30
0.0
 11
1324.3238221
 21
199.8801651
 31
0.0
  0
LINE
  5
27A
330
1F
100
AcDbEntity
  8
枠_表
  6
CONTINUOUS
 62
     2
100
AcDbLine
 10
1316.379181
 20
198.2416763
 30
0.0
 11
1302.3537598
 21
178.2047215
 31
0.0
  0
LINE
  5
27B
330
1F
100
AcDbEntity
  8
枠_表
  6
CONTINUOUS
 62
     2
100
AcDbLine
 10
1319.6566163
 20
198.2418003
 30
0.0
 11
1302.3539124
 21
173.528513
 31
0.0
  0
LINE
  5
27C
330
1F
100
AcDbEntity
  8
枠_表
  6
CONTINUOUS
 62
     2
100
AcDbLine
 10
1322.7379761
 20
198.2417717
 30
0.0
 11
1302.3539124
 21
169.1257324
 31
0.0
  0
LINE
  5
27D
330
1F
100
AcDbEntity
  8
枠_表
  6
CONTINUOUS
 62
     2
100
AcDbLine
 10
1317.9299317
 20
187.8869095
 30
0.0
 11
1326.7867432
 21
181.6846409
 31
0.0
  0
LINE
  5
27E
330
1F
100
AcDbEntity
  8
枠_表
  6
CONTINUOUS
 62
     2
100
AcDbLine
 10
1316.4844666
 20
185.8219948
 30
0.0
 11
1326.7865906
 21
178.6079922
 31
0.0
  0
LINE
  5
27F
330
1F
100
AcDbEntity
  8
枠_表
  6
CONTINUOUS
 62
     2
100
AcDbLine
 10
1314.9450074
 20
183.623127
 30
0.0
 11
1326.7865906
 21
175.331501
 31
0.0
  0
LINE
  5
280
330
1F
100
AcDbEntity
  8
枠_表
  6
CONTINUOUS
 62
     2
100
AcDbLine
 10
1312.3978577
 20
181.472229
 30
0.0
 11
1312.3978577
 21
165.9999981
 31
0.0
  0
LINE
  5
281
330
1F
100
AcDbEntity
  8
枠_表
  6
CONTINUOUS
 62
     2
100
AcDbLine
 10
1315.3162537
 20
181.3631573
 30
0.0
 11
1315.3162537
 21
165.9999981
 31
0.0
  0
LINE
  5
282
330
1F
100
AcDbEntity
  8
枠_表
  6
CONTINUOUS
 62
     2
100
AcDbLine
 10
1318.2348023
 20
179.3195667
 30
0.0
 11
1318.2348023
 21
165.9999981
 31
0.0
  0
LINE
  5
283
330
1F
100
AcDbEntity
  8
枠_表
  6
CONTINUOUS
 62
     2
100
AcDbLine
 10
1339.6137391
 20
170.1799145
 30
0.0
 11
1339.6137391
 21
206.3519612
 31
0.0
  0
LINE
  5
284
330
1F
100
AcDbEntity
  8
枠_表
  6
CONTINUOUS
 62
     2
100
AcDbLine
 10
1342.5321351
 20
170.1799145
 30
0.0
 11
1342.5321351
 21
206.3519612
 31
0.0
  0
LINE
  5
285
330
1F
100
AcDbEntity
  8
枠_表
  6
CONTINUOUS
 62
     2
100
AcDbLine
 10
1345.4506836
 20
170.1799145
 30
0.0
 11
1345.4506836
 21
206.3519612
 31
0.0
  0
LINE
  5
286
330
1F
100
AcDbEntity
  8
枠_表
  6
CONTINUOUS
 62
     2
100
AcDbLine
 10
1330.4248963
 20
195.3440323
 30
0.0
 11
1337.6137696
 21
195.3440323
 31
0.0
  0
LINE
  5
287
330
1F
100
AcDbEntity
  8
枠_表
  6
CONTINUOUS
 62
     2
100
AcDbLine
 10
1330.4248963
 20
192.8241959
 30
0.0
 11
1337.6137696
 21
192.8241959
 31
0.0
  0
LINE
  5
288
330
1F
100
AcDbEntity
  8
枠_表
  6
CONTINUOUS
 62
     2
100
AcDbLine
 10
1347.4506531
 20
195.3440323
 30
0.0
 11
1354.6477662
 21
195.3440323
 31
0.0
  0
LINE
  5
289
330
1F
100
AcDbEntity
  8
枠_表
  6
CONTINUOUS
 62
     2
100
AcDbLine
 10
1347.4506531
 20
192.6241913
 30
0.0
 11
1354.6477662
 21
192.6241913
 31
0.0
  0
LINE
  5
28A
330
1F
100
AcDbEntity
  8
枠_表
  6
CONTINUOUS
 62
     2
100
AcDbLine
 10
1326.3909302
 20
168.1799164
 30
0.0
 11
1355.6566773
 21
168.1799164
 31
0.0
  0
LINE
  5
28B
330
1F
100
AcDbEntity
  8
枠_表
  6
CONTINUOUS
 62
     2
100
AcDbLine
 10
1326.3909302
 20
165.6599274
 30
0.0
 11
1355.6566773
 21
165.6599274
 31
0.0
  0
LINE
  5
28C
330
1F
100
AcDbEntity
  8
枠_表
  6
CONTINUOUS
 62
     2
100
AcDbLine
 10
1098.475586
 20
183.3536377
 30
0.0
 11
1119.7840271
 21
183.3536377
 31
0.0
  0
TEXT
  5
28D
330
1F
100
AcDbEntity
  8
枠_表
  6
CONTINUOUS
 62
     2
100
AcDbText
 10
1931.2792969
 20
258.3488464
 30
0.0
 40
30.0
  1
１０
 41
1.098531212121213
  7
EXCADSTD
 72
     5
 11
1983.0671969
 21
258.3488464
 31
0.0
100
AcDbText
  0
TEXT
  5
28E
330
1F
100
AcDbEntity
  8
枠_表
  6
CONTINUOUS
 62
     2
100
AcDbText
 10
504.9999999999949
 20
220.0
 30
0.0
 40
50.0
  1
中村
 41
1.22491090909091
  7
EXCADSTD
 72
     5
 11
601.2429999999949
 21
220.0
 31
0.0
100
AcDbText
  0
TEXT
  5
28F
330
1F
100
AcDbEntity
  8
枠_表
  6
CONTINUOUS
 62
     2
100
AcDbText
 10
634.9999999999949
 20
220.0
 30
0.0
 40
50.0
  1
古林
 41
1.22491090909091
  7
EXCADSTD
 72
     5
 11
731.2429999999949
 21
220.0
 31
0.0
100
AcDbText
  0
TEXT
  5
290
330
1F
100
AcDbEntity
  8
枠_表
  6
CONTINUOUS
 62
     2
100
AcDbText
 10
207.4999999999949
 20
220.0
 30
0.0
 40
50.0
  1
間瀬
 41
1.224910909090909
  7
EXCADSTD
 72
     5
 11
303.7429999999949
 21
220.0
 31
0.0
100
AcDbText
  0
TEXT
  5
291
330
1F
100
AcDbEntity
  8
枠_表
  6
CONTINUOUS
 62
     2
100
AcDbText
 10
851.25
 20
264.9999999999967
 30
0.0
 40
60.0
  1
600mm幅　化粧鏡
 41
0.8242753623188404
  7
EXCADSTD
 72
     5
 11
1338.75
 21
264.9999999999967
 31
0.0
100
AcDbText
  0
TEXT
  5
292
330
1F
100
AcDbEntity
  8
枠_表
  6
CONTINUOUS
 62
     7
100
AcDbText
 10
1452.00000166893
 20
151.5
 30
0.0
 40
70.0
  1
ＬＵ９１０６８０
 41
1.140425531914894
  7
EXCADSTD
 72
     5
 11
1988.00000166893
 21
151.5
 31
0.0
100
AcDbText
  0
TEXT
  5
293
330
1F
100
AcDbEntity
  8
枠_表
  6
CONTINUOUS
 62
     2
100
AcDbText
 10
1459.0
 20
270.0
 30
0.0
 40
50.0
  1
ＬＵＭ６０１ＣＳ
 41
0.9829787234042555
  7
EXCADSTD
 72
     5
 11
1789.0
 21
270.0
 31
0.0
100
AcDbText
  0
TEXT
  5
294
330
1F
100
AcDbEntity
  8
枠_表
  6
CONTINUOUS
 62
     2
100
AcDbText
 10
184.4999999
 20
140.0
 30
0.0
 40
40.0
  1
19
 41
0.4666666666666667
  7
EXCADSTD
 72
     5
 11
216.4999999
 21
140.0
 31
0.0
100
AcDbText
  0
TEXT
  5
295
330
1F
100
AcDbEntity
  8
枠_表
  6
CONTINUOUS
 62
     2
100
AcDbText
 10
243.75
 20
140.0
 30
0.0
 40
40.0
  1
7
 41
0.4516544117647059
  7
EXCADSTD
 72
     5
 11
258.375
 21
140.0
 31
0.0
100
AcDbText
  0
TEXT
  5
296
330
1F
100
AcDbEntity
  8
枠_表
  6
CONTINUOUS
 62
     2
100
AcDbText
 10
296.7500001
 20
140.0
 30
0.0
 40
40.0
  1
6
 41
0.4516544117647059
  7
EXCADSTD
 72
     5
 11
311.3750001
 21
140.0
 31
0.0
100
AcDbText
  0
LINE
  5
297
330
1F
100
AcDbEntity
  8
枠_表
  6
EXLTYPE2
 62
     6
100
AcDbLine
 10
0.0000000000003553
 20
1510.0
 30
0.0
 11
180.0
 21
1510.0
 31
0.0
  0
DIMENSION
  5
299
330
1F
100
AcDbEntity
  8
鏡台
  6
CONTINUOUS
 62
     3
100
AcDbDimension
  2
*D15
 10
1131.999999999999
 20
1988.0
 30
0.0
 11
831.9999999999993
 21
2011.499999940395
 31
0.0
 70
   160
  3
ISO-25
100
AcDbAlignedDimension
 13
531.9999999999991
 23
1865.0
 33
0.0
 14
1131.999999999999
 24
1865.0
 34
0.0
100
AcDbRotatedDimension
1001
ACAD
1000
DSTYLE
1002
{
1070
   270
1070
     2
1070
     6
1000
EX_NORM
1070
     7
1000
EX_NORM
1070
    41
1040
30.0
1070
    42
1040
6.99999988079071
1070
    44
1040
10.0
1070
    73
1070
     0
1070
    74
1070
     0
1070
    75
1070
     0
1070
    76
1070
     0
1070
    77
1070
     1
1070
    78
1070
     8
1070
   140
1040
40.0
1070
   147
1040
0.0
1070
   173
1070
     1
1070
   176
1070
     3
1070
   177
1070
     3
1070
   178
1070
     2
1070
   271
1070
     2
1070
   277
1070
     2
1070
   279
1070
     2
1070
   280
1070
     0
1070
   287
1070
     5
1070
   340
1005
298
1002
}
  0
DIMENSION
  5
2A7
330
1F
100
AcDbEntity
  8
鏡台
  6
CONTINUOUS
 62
     3
100
AcDbDimension
  2
*D16
 10
1217.999999999999
 20
1265.0
 30
0.0
 11
1194.500000059605
 21
1565.0
 31
0.0
 70
   160
  3
ISO-25
100
AcDbAlignedDimension
 13
1131.999999999999
 23
1865.0
 33
0.0
 14
1131.999999999999
 24
1265.0
 34
0.0
 50
90.0
100
AcDbRotatedDimension
1001
ACAD
1000
DSTYLE
1002
{
1070
   270
1070
     2
1070
     6
1000
EX_NORM
1070
     7
1000
EX_NORM
1070
    41
1040
30.0
1070
    42
1040
6.99999988079071
1070
    44
1040
10.0
1070
    73
1070
     0
1070
    74
1070
     0
1070
    75
1070
     0
1070
    76
1070
     0
1070
    77
1070
     1
1070
    78
1070
     8
1070
   140
1040
40.0
1070
   147
1040
0.0
1070
   173
1070
     1
1070
   176
1070
     3
1070
   177
1070
     3
1070
   178
1070
     2
1070
   271
1070
     2
1070
   277
1070
     2
1070
   279
1070
     2
1070
   280
1070
     0
1070
   287
1070
     5
1070
   340
1005
298
1002
}
  0
DIMENSION
  5
2B5
330
1F
100
AcDbEntity
  8
鏡台
  6
CONTINUOUS
 62
     3
100
AcDbDimension
  2
*D17
 10
1575.599999999999
 20
1955.000000000001
 30
0.0
 11
1688.000000000001
 21
1978.499999940393
 31
0.0
 70
   160
  1
43
  3
ISO-25
100
AcDbAlignedDimension
 13
1618.0
 23
1865.0
 33
0.0
 14
1575.599999999999
 24
1826.2
 34
0.0
100
AcDbRotatedDimension
1001
ACAD
1000
DSTYLE
1002
{
1070
   270
1070
     2
1070
     6
1000
EX_NORM
1070
     7
1000
EX_NORM
1070
    41
1040
30.0
1070
    42
1040
5.0
1070
    44
1040
10.0
1070
    73
1070
     0
1070
    74
1070
     0
1070
    75
1070
     0
1070
    76
1070
     0
1070
    77
1070
     1
1070
    78
1070
     8
1070
   140
1040
40.0
1070
   147
1040
0.0
1070
   173
1070
     1
1070
   176
1070
     3
1070
   177
1070
     3
1070
   178
1070
     2
1070
   271
1070
     2
1070
   277
1070
     2
1070
   279
1070
     2
1070
   280
1070
     1
1070
   287
1070
     5
1070
   340
1005
2B4
1002
}
  0
DIMENSION
  5
2C4
330
1F
100
AcDbEntity
  8
鏡台
  6
CONTINUOUS
 62
     3
100
AcDbDimension
  2
*D18
 10
1740.499999999999
 20
1770.0
 30
0.0
 11
1717.000000059604
 21
1527.5
 31
0.0
 70
   160
  1
485(壁固定)
  3
ISO-25
100
AcDbAlignedDimension
 13
1658.799999999839
 23
1285.0
 33
0.0
 14
1658.7999999998
 24
1770.0
 34
0.0
 50
90.0
100
AcDbRotatedDimension
1001
ACAD
1000
DSTYLE
1002
{
1070
   270
1070
     2
1070
     6
1000
EX_NORM
1070
     7
1000
EX_NORM
1070
    41
1040
30.0
1070
    42
1040
5.0
1070
    44
1040
10.0
1070
    73
1070
     0
1070
    74
1070
     0
1070
    75
1070
     1
1070
    76
1070
     0
1070
    77
1070
     1
1070
    78
1070
     8
1070
   140
1040
40.0
1070
   147
1040
0.0
1070
   173
1070
     1
1070
   176
1070
     3
1070
   177
1070
     3
1070
   178
1070
     2
1070
   271
1070
     2
1070
   277
1070
     2
1070
   279
1070
     2
1070
   280
1070
     0
1070
   287
1070
     5
1070
   340
1005
298
1002
}
  0
DIMENSION
  5
2D1
330
1F
100
AcDbEntity
  8
鏡台
  6
CONTINUOUS
 62
     3
100
AcDbDimension
  2
*D19
 10
1740.5
 20
1285.0
 30
0.0
 11
1717.000000059607
 21
1199.999999999998
 31
0.0
 70
   160
  3
ISO-25
100
AcDbAlignedDimension
 13
1603.0
 23
1265.0
 33
0.0
 14
1658.79999999984
 24
1285.0
 34
0.0
 50
90.0
100
AcDbRotatedDimension
1001
ACAD
1000
DSTYLE
1002
{
1070
   270
1070
     2
1070
     6
1000
EX_NORM
1070
     7
1000
EX_NONE
1070
    41
1040
30.0
1070
    42
1040
5.0
1070
    44
1040
10.0
1070
    73
1070
     0
1070
    74
1070
     0
1070
    75
1070
     0
1070
    76
1070
     0
1070
    77
1070
     1
1070
    78
1070
     8
1070
   140
1040
40.0
1070
   147
1040
0.0
1070
   173
1070
     1
1070
   176
1070
     3
1070
   177
1070
     3
1070
   178
1070
     2
1070
   271
1070
     2
1070
   277
1070
     2
1070
   279
1070
     2
1070
   280
1070
     1
1070
   287
1070
     5
1070
   340
1005
298
1002
}
  0
DIMENSION
  5
2E0
330
1F
100
AcDbEntity
  8
鏡台
  6
CONTINUOUS
 62
     3
100
AcDbDimension
  2
*D20
 10
982.0000000000005
 20
1924.0
 30
0.0
 11
832.0000000000001
 21
1947.499999940395
 31
0.0
 70
   160
  3
ISO-25
100
AcDbAlignedDimension
 13
681.9999999999995
 23
1783.4
 33
0.0
 14
982.0000000000005
 24
1783.4
 34
0.0
100
AcDbRotatedDimension
1001
ACAD
1000
DSTYLE
1002
{
1070
   270
1070
     2
1070
     6
1000
EX_NORM
1070
     7
1000
EX_NORM
1070
    41
1040
30.0
1070
    42
1040
5.000000000000227
1070
    44
1040
10.0
1070
    73
1070
     0
1070
    74
1070
     0
1070
    75
1070
     0
1070
    76
1070
     0
1070
    77
1070
     1
1070
    78
1070
     8
1070
   140
1040
40.0
1070
   147
1040
0.0
1070
   173
1070
     1
1070
   176
1070
     3
1070
   177
1070
     3
1070
   178
1070
     2
1070
   271
1070
     2
1070
   277
1070
     2
1070
   279
1070
     2
1070
   280
1070
     0
1070
   287
1070
     5
1070
   340
1005
298
1002
}
  0
LINE
  5
2ED
330
1F
100
AcDbEntity
  8
鏡台
  6
EXLTYPE2
 62
     6
100
AcDbLine
 10
578.0
 20
2285.0
 30
0.0
 11
1086.0
 21
2285.0
 31
0.0
  0
LINE
  5
2EE
330
1F
100
AcDbEntity
  8
鏡台
  6
CONTINUOUS
 62
     2
100
AcDbLine
 10
531.9999999999991
 20
2268.0
 30
0.0
 11
531.9999999999991
 21
2285.0
 31
0.0
  0
LINE
  5
2EF
330
1F
100
AcDbEntity
  8
鏡台
  6
CONTINUOUS
 62
     2
100
AcDbLine
 10
631.9999999999991
 20
2285.0
 30
0.0
 11
631.9999999999991
 21
2300.0
 31
0.0
  0
LINE
  5
2F0
330
1F
100
AcDbEntity
  8
鏡台
  6
CONTINUOUS
 62
     2
100
AcDbLine
 10
531.9999999999991
 20
2285.0
 30
0.0
 11
1131.999999999999
 21
2285.0
 31
0.0
  0
LINE
  5
2F1
330
1F
100
AcDbEntity
  8
鏡台
  6
CONTINUOUS
 62
     2
100
AcDbLine
 10
1131.999999999999
 20
2268.0
 30
0.0
 11
1131.999999999999
 21
2285.0
 31
0.0
  0
LINE
  5
2F2
330
1F
100
AcDbEntity
  8
鏡台
  6
CONTINUOUS
 62
     2
100
AcDbLine
 10
1031.999999999999
 20
2285.0
 30
0.0
 11
631.9999999999991
 21
2285.0
 31
0.0
  0
LINE
  5
2F3
330
1F
100
AcDbEntity
  8
鏡台
  6
CONTINUOUS
 62
     2
100
AcDbLine
 10
1031.999999999999
 20
2300.0
 30
0.0
 11
631.9999999999991
 21
2300.0
 31
0.0
  0
LINE
  5
2F4
330
1F
100
AcDbEntity
  8
鏡台
  6
CONTINUOUS
 62
     2
100
AcDbLine
 10
1031.999999999999
 20
2285.0
 30
0.0
 11
1031.999999999999
 21
2300.0
 31
0.0
  0
LINE
  5
2F5
330
1F
100
AcDbEntity
  8
鏡台
  6
CONTINUOUS
 62
     2
100
AcDbLine
 10
531.9999999999991
 20
2268.0
 30
0.0
 11
1131.999999999999
 21
2268.0
 31
0.0
  0
LINE
  5
2F6
330
1F
100
AcDbEntity
  8
鏡台
  6
EXLTYPE3
 62
     6
100
AcDbLine
 10
682.0
 20
2340.799999999839
 30
0.0
 11
682.0
 21
2298.049999999839
 31
0.0
  0
ARC
  5
2F7
330
1F
100
AcDbEntity
  8
鏡台
  6
CONTINUOUS
 62
     6
100
AcDbCircle
 10
668.5
 20
2326.661651584698
 30
0.0
 40
15.00000000000001
100
AcDbArc
 50
0.0000000000001719
 51
25.84193276316773
  0
ARC
  5
2F8
330
1F
100
AcDbEntity
  8
鏡台
  6
CONTINUOUS
 62
     6
100
AcDbCircle
 10
695.5
 20
2326.661651584729
 30
0.0
 40
15.00000000000001
100
AcDbArc
 50
154.1580672369207
 51
180.0000000000002
  0
LINE
  5
2F9
330
1F
100
AcDbEntity
  8
鏡台
  6
CONTINUOUS
 62
     6
100
AcDbLine
 10
680.5
 20
2299.999999999998
 30
0.0
 11
680.5
 21
2326.661651584729
 31
0.0
  0
LINE
  5
2FA
330
1F
100
AcDbEntity
  8
鏡台
  6
CONTINUOUS
 62
     6
100
AcDbLine
 10
683.5
 20
2299.999999999998
 30
0.0
 11
683.5
 21
2326.661651584698
 31
0.0
  0
LINE
  5
2FB
330
1F
100
AcDbEntity
  8
鏡台
  6
EXLTYPE3
 62
     6
100
AcDbLine
 10
982.0000000000005
 20
2340.799999999839
 30
0.0
 11
982.0000000000005
 21
2298.049999999839
 31
0.0
  0
ARC
  5
2FC
330
1F
100
AcDbEntity
  8
鏡台
  6
CONTINUOUS
 62
     6
100
AcDbCircle
 10
995.5000000000005
 20
2326.661651584698
 30
0.0
 40
15.00000000000001
100
AcDbArc
 50
154.1580672368321
 51
180.0
  0
ARC
  5
2FD
330
1F
100
AcDbEntity
  8
鏡台
  6
CONTINUOUS
 62
     6
100
AcDbCircle
 10
968.5000000000005
 20
2326.661651584729
 30
0.0
 40
15.00000000000001
100
AcDbArc
 50
0.0
 51
25.84193276307938
  0
LINE
  5
2FE
330
1F
100
AcDbEntity
  8
鏡台
  6
CONTINUOUS
 62
     6
100
AcDbLine
 10
983.5000000000005
 20
2299.999999999998
 30
0.0
 11
983.5000000000005
 21
2326.661651584729
 31
0.0
  0
LINE
  5
2FF
330
1F
100
AcDbEntity
  8
鏡台
  6
CONTINUOUS
 62
     6
100
AcDbLine
 10
980.5000000000005
 20
2299.999999999998
 30
0.0
 11
980.5000000000005
 21
2326.661651584698
 31
0.0
  0
LINE
  5
300
330
1F
100
AcDbEntity
  8
鏡台
  6
CONTINUOUS
 62
     2
100
AcDbLine
 10
1090.999999999999
 20
2257.6
 30
0.0
 11
572.9999999999991
 21
2257.6
 31
0.0
  0
LINE
  5
301
330
1F
100
AcDbEntity
  8
鏡台
  6
CONTINUOUS
 62
     2
100
AcDbLine
 10
572.9999999999991
 20
2257.6
 30
0.0
 11
572.9999999999991
 21
2268.0
 31
0.0
  0
LINE
  5
302
330
1F
100
AcDbEntity
  8
鏡台
  6
CONTINUOUS
 62
     2
100
AcDbLine
 10
1090.999999999999
 20
2257.6
 30
0.0
 11
1090.999999999999
 21
2268.0
 31
0.0
  0
LINE
  5
303
330
1F
100
AcDbEntity
  8
鏡台
  6
EXLTYPE3
 62
     6
100
AcDbLine
 10
831.9999999999995
 20
2310.0
 30
0.0
 11
831.9999999999995
 21
2242.0
 31
0.0
  0
LINE
  5
304
330
1F
100
AcDbEntity
  8
鏡台
  6
CONTINUOUS
 62
     2
100
AcDbLine
 10
531.9999999999991
 20
1865.0
 30
0.0
 11
1131.999999999999
 21
1865.0
 31
0.0
  0
LINE
  5
305
330
1F
100
AcDbEntity
  8
鏡台
  6
CONTINUOUS
 62
     2
100
AcDbLine
 10
531.9999999999991
 20
1865.0
 30
0.0
 11
531.9999999999991
 21
1265.0
 31
0.0
  0
LINE
  5
306
330
1F
100
AcDbEntity
  8
鏡台
  6
CONTINUOUS
 62
     2
100
AcDbLine
 10
531.9999999999991
 20
1265.0
 30
0.0
 11
1131.999999999999
 21
1265.0
 31
0.0
  0
LINE
  5
307
330
1F
100
AcDbEntity
  8
鏡台
  6
CONTINUOUS
 62
     2
100
AcDbLine
 10
1131.999999999999
 20
1865.0
 30
0.0
 11
1131.999999999999
 21
1265.0
 31
0.0
  0
LINE
  5
308
330
1F
100
AcDbEntity
  8
鏡台
  6
CONTINUOUS
 62
     2
100
AcDbLine
 10
1091.999999999998
 20
1825.0
 30
0.0
 11
1091.999999999998
 21
1305.0
 31
0.0
  0
LINE
  5
309
330
1F
100
AcDbEntity
  8
鏡台
  6
CONTINUOUS
 62
     2
100
AcDbLine
 10
571.9999999999982
 20
1825.0
 30
0.0
 11
571.9999999999982
 21
1305.0
 31
0.0
  0
LINE
  5
30A
330
1F
100
AcDbEntity
  8
鏡台
  6
CONTINUOUS
 62
     6
100
AcDbLine
 10
1090.999999999998
 20
1826.2
 30
0.0
 11
1090.999999999998
 21
1818.2
 31
0.0
  0
LINE
  5
30B
330
1F
100
AcDbEntity
  8
鏡台
  6
CONTINUOUS
 62
     6
100
AcDbLine
 10
572.9999999999982
 20
1826.2
 30
0.0
 11
572.9999999999982
 21
1818.2
 31
0.0
  0
LINE
  5
30C
330
1F
100
AcDbEntity
  8
鏡台
  6
CONTINUOUS
 62
     6
100
AcDbLine
 10
1090.999999999998
 20
1818.2
 30
0.0
 11
572.9999999999982
 21
1818.2
 31
0.0
  0
LINE
  5
30D
330
1F
100
AcDbEntity
  8
鏡台
  6
EXLTYPE2
 62
     6
100
AcDbLine
 10
571.9999999999982
 20
1825.0
 30
0.0
 11
572.9999999999982
 21
1825.0
 31
0.0
  0
LINE
  5
30E
330
1F
100
AcDbEntity
  8
鏡台
  6
CONTINUOUS
 62
     6
100
AcDbLine
 10
1090.999999999998
 20
1826.2
 30
0.0
 11
572.9999999999982
 21
1826.2
 31
0.0
  0
LINE
  5
30F
330
1F
100
AcDbEntity
  8
鏡台
  6
EXLTYPE2
 62
     6
100
AcDbLine
 10
1092.000000000002
 20
1825.0
 30
0.0
 11
1091.000000000002
 21
1825.0
 31
0.0
  0
LINE
  5
310
330
1F
100
AcDbEntity
  8
鏡台
  6
CONTINUOUS
 62
     6
100
AcDbLine
 10
1090.999999999998
 20
1303.799999999999
 30
0.0
 11
1090.999999999998
 21
1311.8
 31
0.0
  0
LINE
  5
311
330
1F
100
AcDbEntity
  8
鏡台
  6
CONTINUOUS
 62
     6
100
AcDbLine
 10
572.9999999999982
 20
1303.799999999999
 30
0.0
 11
572.9999999999982
 21
1311.8
 31
0.0
  0
LINE
  5
312
330
1F
100
AcDbEntity
  8
鏡台
  6
CONTINUOUS
 62
     6
100
AcDbLine
 10
572.9999999999982
 20
1303.799999999999
 30
0.0
 11
1090.999999999998
 21
1303.799999999999
 31
0.0
  0
LINE
  5
313
330
1F
100
AcDbEntity
  8
鏡台
  6
CONTINUOUS
 62
     6
100
AcDbLine
 10
572.9999999999982
 20
1311.799999999999
 30
0.0
 11
1090.999999999998
 21
1311.799999999999
 31
0.0
  0
LINE
  5
314
330
1F
100
AcDbEntity
  8
鏡台
  6
EXLTYPE2
 62
     6
100
AcDbLine
 10
571.9999999999982
 20
1305.0
 30
0.0
 11
572.9999999999982
 21
1305.0
 31
0.0
  0
LINE
  5
315
330
1F
100
AcDbEntity
  8
鏡台
  6
CONTINUOUS
 62
     6
100
AcDbLine
 10
1092.0
 20
1305.0
 30
0.0
 11
1090.999999999998
 21
1305.0
 31
0.0
  0
LINE
  5
316
330
1F
100
AcDbEntity
  8
鏡台
  6
CONTINUOUS
 62
     6
100
AcDbLine
 10
708.2144660940662
 20
1555.785533905902
 30
0.0
 11
695.4644660940671
 21
1543.035533905905
 31
0.0
  0
LINE
  5
317
330
1F
100
AcDbEntity
  8
鏡台
  6
CONTINUOUS
 62
     6
100
AcDbLine
 10
687.4999999999977
 20
1527.999999999974
 30
0.0
 11
720.0000000000014
 21
1560.499999999971
 31
0.0
  0
LINE
  5
318
330
1F
100
AcDbEntity
  8
鏡台
  6
CONTINUOUS
 62
     6
100
AcDbLine
 10
698.035533905932
 20
1531.464466094037
 30
0.0
 11
713.0355339059329
 21
1546.464466094035
 31
0.0
  0
LINE
  5
319
330
1F
100
AcDbEntity
  8
鏡台
  6
CONTINUOUS
 62
     6
100
AcDbLine
 10
935.2144660940658
 20
1717.785533905902
 30
0.0
 11
922.4644660940667
 21
1705.035533905905
 31
0.0
  0
LINE
  5
31A
330
1F
100
AcDbEntity
  8
鏡台
  6
CONTINUOUS
 62
     6
100
AcDbLine
 10
925.0355339059315
 20
1693.464466094037
 30
0.0
 11
940.0355339059324
 21
1708.464466094035
 31
0.0
  0
LINE
  5
31B
330
1F
100
AcDbEntity
  8
鏡台
  6
CONTINUOUS
 62
     6
100
AcDbLine
 10
914.4999999999973
 20
1689.999999999974
 30
0.0
 11
947.0000000000009
 21
1722.499999999971
 31
0.0
  0
LINE
  5
31C
330
1F
100
AcDbEntity
  8
鏡台
  6
CONTINUOUS
 62
     6
100
AcDbLine
 10
926.2144660940676
 20
1400.785533905902
 30
0.0
 11
913.4644660940685
 21
1388.035533905905
 31
0.0
  0
LINE
  5
31D
330
1F
100
AcDbEntity
  8
鏡台
  6
CONTINUOUS
 62
     6
100
AcDbLine
 10
905.4999999999991
 20
1372.999999999974
 30
0.0
 11
938.0000000000027
 21
1405.499999999971
 31
0.0
  0
LINE
  5
31E
330
1F
100
AcDbEntity
  8
鏡台
  6
CONTINUOUS
 62
     6
100
AcDbLine
 10
916.0355339059333
 20
1376.464466094037
 30
0.0
 11
931.0355339059342
 21
1391.464466094036
 31
0.0
  0
LINE
  5
31F
330
1F
100
AcDbEntity
  8
鏡台
  6
CONTINUOUS
 62
     6
100
AcDbLine
 10
682.0
 20
1783.4
 30
0.0
 11
682.0
 21
1755.05
 31
0.0
  0
LINE
  5
320
330
1F
100
AcDbEntity
  8
鏡台
  6
CONTINUOUS
 62
     6
100
AcDbLine
 10
668.5999999999999
 20
1770.0
 30
0.0
 11
696.9499999999998
 21
1770.0
 31
0.0
  0
LINE
  5
321
330
1F
100
AcDbEntity
  8
鏡台
  6
CONTINUOUS
 62
     6
100
AcDbLine
 10
982.0000000000009
 20
1783.4
 30
0.0
 11
982.0000000000009
 21
1755.05
 31
0.0
  0
LINE
  5
322
330
1F
100
AcDbEntity
  8
鏡台
  6
CONTINUOUS
 62
     6
100
AcDbLine
 10
995.4000000000005
 20
1770.0
 30
0.0
 11
967.0500000000011
 21
1770.0
 31
0.0
  0
LINE
  5
323
330
1F
100
AcDbEntity
  8
鏡台
  6
CONTINUOUS
 62
     6
100
AcDbLine
 10
681.9999999999995
 20
1298.4
 30
0.0
 11
681.9999999999995
 21
1270.05
 31
0.0
  0
LINE
  5
324
330
1F
100
AcDbEntity
  8
鏡台
  6
CONTINUOUS
 62
     6
100
AcDbLine
 10
668.5999999999999
 20
1285.0
 30
0.0
 11
696.9499999999998
 21
1285.0
 31
0.0
  0
LINE
  5
325
330
1F
100
AcDbEntity
  8
鏡台
  6
CONTINUOUS
 62
     6
100
AcDbLine
 10
982.0000000000009
 20
1298.4
 30
0.0
 11
982.0000000000009
 21
1270.05
 31
0.0
  0
LINE
  5
326
330
1F
100
AcDbEntity
  8
鏡台
  6
CONTINUOUS
 62
     6
100
AcDbLine
 10
995.4000000000005
 20
1285.0
 30
0.0
 11
967.0500000000006
 21
1285.0
 31
0.0
  0
LINE
  5
327
330
1F
100
AcDbEntity
  8
鏡台
  6
CONTINUOUS
 62
     6
100
AcDbLine
 10
1575.599999999999
 20
1826.2
 30
0.0
 11
1585.999999999999
 21
1826.2
 31
0.0
  0
LINE
  5
328
330
1F
100
AcDbEntity
  8
鏡台
  6
CONTINUOUS
 62
     6
100
AcDbLine
 10
1575.599999999999
 20
1826.2
 30
0.0
 11
1575.599999999999
 21
1818.2
 31
0.0
  0
LINE
  5
329
330
1F
100
AcDbEntity
  8
鏡台
  6
CONTINUOUS
 62
     6
100
AcDbLine
 10
1584.799999999998
 20
1825.0
 30
0.0
 11
1576.799999999998
 21
1825.0
 31
0.0
  0
LINE
  5
32A
330
1F
100
AcDbEntity
  8
鏡台
  6
CONTINUOUS
 62
     6
100
AcDbLine
 10
1584.799999999998
 20
1801.2
 30
0.0
 11
1584.799999999998
 21
1825.0
 31
0.0
  0
LINE
  5
32B
330
1F
100
AcDbEntity
  8
鏡台
  6
CONTINUOUS
 62
     6
100
AcDbLine
 10
1575.599999999999
 20
1818.2
 30
0.0
 11
1576.799999999998
 21
1818.2
 31
0.0
  0
LINE
  5
32C
330
1F
100
AcDbEntity
  8
鏡台
  6
CONTINUOUS
 62
     6
100
AcDbLine
 10
1584.799999999998
 20
1801.2
 30
0.0
 11
1585.999999999999
 21
1801.2
 31
0.0
  0
LINE
  5
32D
330
1F
100
AcDbEntity
  8
鏡台
  6
CONTINUOUS
 62
     6
100
AcDbLine
 10
1584.799999999998
 20
1328.8
 30
0.0
 11
1585.999999999999
 21
1328.8
 31
0.0
  0
LINE
  5
32E
330
1F
100
AcDbEntity
  8
鏡台
  6
CONTINUOUS
 62
     6
100
AcDbLine
 10
1575.599999999999
 20
1311.800000000001
 30
0.0
 11
1576.799999999998
 21
1311.800000000001
 31
0.0
  0
LINE
  5
32F
330
1F
100
AcDbEntity
  8
鏡台
  6
CONTINUOUS
 62
     6
100
AcDbLine
 10
1584.799999999998
 20
1328.8
 30
0.0
 11
1584.799999999998
 21
1305.0
 31
0.0
  0
LINE
  5
330
330
1F
100
AcDbEntity
  8
鏡台
  6
CONTINUOUS
 62
     6
100
AcDbLine
 10
1584.799999999998
 20
1305.0
 30
0.0
 11
1576.799999999998
 21
1305.0
 31
0.0
  0
LINE
  5
331
330
1F
100
AcDbEntity
  8
鏡台
  6
CONTINUOUS
 62
     6
100
AcDbLine
 10
1575.599999999999
 20
1303.8
 30
0.0
 11
1575.599999999999
 21
1311.8
 31
0.0
  0
LINE
  5
332
330
1F
100
AcDbEntity
  8
鏡台
  6
CONTINUOUS
 62
     6
100
AcDbLine
 10
1575.599999999999
 20
1303.8
 30
0.0
 11
1585.999999999999
 21
1303.8
 31
0.0
  0
LINE
  5
333
330
1F
100
AcDbEntity
  8
鏡台
  6
CONTINUOUS
 62
     2
100
AcDbLine
 10
1618.0
 20
1300.000000000001
 30
0.0
 11
1603.000000000001
 21
1300.000000000001
 31
0.0
  0
LINE
  5
334
330
1F
100
AcDbEntity
  8
鏡台
  6
CONTINUOUS
 62
     2
100
AcDbLine
 10
1617.999999999999
 20
1329.999999999998
 30
0.0
 11
1617.999999999999
 21
1270.0
 31
0.0
  0
LINE
  5
335
330
1F
100
AcDbEntity
  8
鏡台
  6
CONTINUOUS
 62
     2
100
AcDbLine
 10
1602.999999999999
 20
1299.999999999998
 30
0.0
 11
1618.0
 21
1299.999999999998
 31
0.0
  0
LINE
  5
336
330
1F
100
AcDbEntity
  8
鏡台
  6
CONTINUOUS
 62
     6
100
AcDbLine
 10
1617.999999999997
 20
1283.5
 30
0.0
 11
1644.661651584697
 21
1283.5
 31
0.0
  0
LINE
  5
337
330
1F
100
AcDbEntity
  8
鏡台
  6
CONTINUOUS
 62
     6
100
AcDbLine
 10
1617.999999999997
 20
1286.5
 30
0.0
 11
1644.661651584728
 21
1286.5
 31
0.0
  0
ARC
  5
338
330
1F
100
AcDbEntity
  8
鏡台
  6
CONTINUOUS
 62
     6
100
AcDbCircle
 10
1644.661651584728
 20
1271.5
 30
0.0
 40
15.00000000000001
100
AcDbArc
 50
64.15806723692059
 51
90.00000000000004
  0
ARC
  5
339
330
1F
100
AcDbEntity
  8
鏡台
  6
CONTINUOUS
 62
     6
100
AcDbCircle
 10
1644.661651584697
 20
1298.5
 30
0.0
 40
15.00000000000001
100
AcDbArc
 50
270.0000000000002
 51
295.8419327631677
  0
LINE
  5
33A
330
1F
100
AcDbEntity
  8
鏡台
  6
EXLTYPE3
 62
     6
100
AcDbLine
 10
1658.7999999998
 20
1770.0
 30
0.0
 11
1616.0499999998
 21
1770.0
 31
0.0
  0
LINE
  5
33B
330
1F
100
AcDbEntity
  8
鏡台
  6
CONTINUOUS
 62
     6
100
AcDbLine
 10
1617.999999999999
 20
1771.5
 30
0.0
 11
1644.661651584718
 21
1771.5
 31
0.0
  0
LINE
  5
33C
330
1F
100
AcDbEntity
  8
鏡台
  6
CONTINUOUS
 62
     6
100
AcDbLine
 10
1617.999999999999
 20
1768.5
 30
0.0
 11
1644.661651584687
 21
1768.5
 31
0.0
  0
ARC
  5
33D
330
1F
100
AcDbEntity
  8
鏡台
  6
CONTINUOUS
 62
     6
100
AcDbCircle
 10
1644.661651584687
 20
1783.5
 30
0.0
 40
15.00000000000001
100
AcDbArc
 50
270.0000000000002
 51
295.8419327631677
  0
ARC
  5
33E
330
1F
100
AcDbEntity
  8
鏡台
  6
CONTINUOUS
 62
     6
100
AcDbCircle
 10
1644.661651584718
 20
1756.5
 30
0.0
 40
15.00000000000001
100
AcDbArc
 50
64.15806723692059
 51
90.00000000000004
  0
LINE
  5
33F
330
1F
100
AcDbEntity
  8
鏡台
  6
EXLTYPE3
 62
     6
100
AcDbLine
 10
1658.799999999839
 20
1285.0
 30
0.0
 11
1616.049999999839
 21
1285.0
 31
0.0
  0
LINE
  5
340
330
1F
100
AcDbEntity
  8
鏡台
  6
CONTINUOUS
 62
     2
100
AcDbLine
 10
1605.8
 20
1270.0
 30
0.0
 11
1605.8
 21
1269.711555580961
 31
0.0
  0
LINE
  5
341
330
1F
100
AcDbEntity
  8
鏡台
  6
CONTINUOUS
 62
     2
100
AcDbLine
 10
1605.799999999999
 20
1270.0
 30
0.0
 11
1615.2
 21
1270.0
 31
0.0
  0
LINE
  5
342
330
1F
100
AcDbEntity
  8
鏡台
  6
CONTINUOUS
 62
     2
100
AcDbLine
 10
1615.2
 20
1270.0
 30
0.0
 11
1615.2
 21
1269.711555580961
 31
0.0
  0
ARC
  5
343
330
1F
100
AcDbEntity
  8
鏡台
  6
CONTINUOUS
 62
     2
100
AcDbCircle
 10
1610.5
 20
1273.6
 30
0.0
 40
6.100000000000004
100
AcDbArc
 50
219.60192708105
 51
320.3980729189502
  0
LINE
  5
344
330
1F
100
AcDbEntity
  8
鏡台
  6
CONTINUOUS
 62
     6
100
AcDbLine
 10
1605.799999999999
 20
1269.711555580961
 30
0.0
 11
1615.2
 21
1269.711555580961
 31
0.0
  0
LINE
  5
345
330
1F
100
AcDbEntity
  8
鏡台
  6
CONTINUOUS
 62
     6
100
AcDbLine
 10
1610.499999999988
 20
1267.499999999981
 30
0.0
 11
1608.767949192419
 21
1268.49999999998
 31
0.0
  0
LINE
  5
346
330
1F
100
AcDbEntity
  8
鏡台
  6
CONTINUOUS
 62
     6
100
AcDbLine
 10
1610.500000000011
 20
1267.499999999981
 30
0.0
 11
1612.23205080758
 21
1268.49999999998
 31
0.0
  0
LINE
  5
347
330
1F
100
AcDbEntity
  8
鏡台
  6
CONTINUOUS
 62
     2
100
AcDbLine
 10
1603.000000000001
 20
1270.000000000001
 30
0.0
 11
1603.000000000001
 21
1300.000000000001
 31
0.0
  0
LINE
  5
348
330
1F
100
AcDbEntity
  8
鏡台
  6
CONTINUOUS
 62
     2
100
AcDbLine
 10
1618.0
 20
1270.000000000001
 30
0.0
 11
1603.000000000001
 21
1270.000000000001
 31
0.0
  0
LINE
  5
349
330
1F
100
AcDbEntity
  8
鏡台
  6
CONTINUOUS
 62
     2
100
AcDbLine
 10
1618.000000000029
 20
1779.019237886417
 30
0.0
 11
1602.999999999999
 21
1805.000000000005
 31
0.0
  0
LINE
  5
34A
330
1F
100
AcDbEntity
  8
鏡台
  6
CONTINUOUS
 62
     2
100
AcDbLine
 10
1602.999999999999
 20
1754.999999999984
 30
0.0
 11
1617.999999999999
 21
1754.999999999984
 31
0.0
  0
LINE
  5
34B
330
1F
100
AcDbEntity
  8
鏡台
  6
CONTINUOUS
 62
     2
100
AcDbLine
 10
1617.999999999999
 20
1829.019237886399
 30
0.0
 11
1617.999999999999
 21
1754.999999999984
 31
0.0
  0
LINE
  5
34C
330
1F
100
AcDbEntity
  8
鏡台
  6
CONTINUOUS
 62
     2
100
AcDbLine
 10
1602.999999999999
 20
1805.000000000005
 30
0.0
 11
1602.999999999999
 21
1754.999999999984
 31
0.0
  0
LINE
  5
34D
330
1F
100
AcDbEntity
  8
鏡台
  6
CONTINUOUS
 62
     2
100
AcDbLine
 10
1585.999999999998
 20
1865.0
 30
0.0
 11
1602.999999999998
 21
1865.0
 31
0.0
  0
LINE
  5
34E
330
1F
100
AcDbEntity
  8
鏡台
  6
CONTINUOUS
 62
     2
100
AcDbLine
 10
1602.999999999999
 20
1829.0192378864
 30
0.0
 11
1617.999999999999
 21
1829.0192378864
 31
0.0
  0
LINE
  5
34F
330
1F
100
AcDbEntity
  8
鏡台
  6
CONTINUOUS
 62
     2
100
AcDbLine
 10
1618.000000000029
 20
1779.019237886417
 30
0.0
 11
1602.999999999999
 21
1805.000000000005
 31
0.0
  0
LINE
  5
350
330
1F
100
AcDbEntity
  8
鏡台
  6
CONTINUOUS
 62
     2
100
AcDbLine
 10
1617.999999999999
 20
1829.0192378864
 30
0.0
 11
1617.999999999999
 21
1779.019237886469
 31
0.0
  0
LINE
  5
351
330
1F
100
AcDbEntity
  8
鏡台
  6
CONTINUOUS
 62
     2
100
AcDbLine
 10
1576.799999999999
 20
1825.0
 30
0.0
 11
1576.799999999999
 21
1305.0
 31
0.0
  0
LINE
  5
352
330
1F
100
AcDbEntity
  8
鏡台
  6
CONTINUOUS
 62
     2
100
AcDbLine
 10
1581.799999999999
 20
1825.0
 30
0.0
 11
1581.799999999999
 21
1305.0
 31
0.0
  0
LINE
  5
353
330
1F
100
AcDbEntity
  8
鏡台
  6
CONTINUOUS
 62
     2
100
AcDbLine
 10
1585.999999999998
 20
1865.0
 30
0.0
 11
1585.999999999998
 21
1265.0
 31
0.0
  0
LINE
  5
354
330
1F
100
AcDbEntity
  8
鏡台
  6
CONTINUOUS
 62
     2
100
AcDbLine
 10
1602.999999999998
 20
1865.0
 30
0.0
 11
1602.999999999998
 21
1265.0
 31
0.0
  0
LINE
  5
355
330
1F
100
AcDbEntity
  8
鏡台
  6
CONTINUOUS
 62
     2
100
AcDbLine
 10
1602.999999999999
 20
1329.999999999998
 30
0.0
 11
1617.999999999999
 21
1329.999999999998
 31
0.0
  0
LINE
  5
356
330
1F
100
AcDbEntity
  8
鏡台
  6
CONTINUOUS
 62
     2
100
AcDbLine
 10
1585.999999999998
 20
1265.0
 30
0.0
 11
1602.999999999998
 21
1265.0
 31
0.0
  0
TEXT
  5
357
330
1F
100
AcDbEntity
  8
鏡台
  6
CONTINUOUS
 62
     2
100
AcDbText
 10
1614.500000059604
 20
2123.5
 30
0.0
 40
40.0
  1
Ｗ.Ｌ
 50
90.00000000000016
 41
0.9767441860465117
  7
EXCADSTD
 72
     5
 11
1614.500000059604
 21
2203.5
 31
0.0
100
AcDbText
  0
ENDSEC
  0
SECTION
  2
OBJECTS
  0
DICTIONARY
  5
C
330
0
100
AcDbDictionary
  3
ACAD_GROUP
350
D
  3
ACAD_LAYOUT
350
1A
  3
ACAD_MATERIAL
350
3B
  3
ACAD_MLEADERSTYLE
350
37A
  3
ACAD_MLINESTYLE
350
17
  3
ACAD_PLOTSETTINGS
350
19
  3
ACAD_VISUALSTYLE
350
2A
  3
ACDBHEADERROUNDTRIPXREC
350
358
  3
ACDBVARIABLEDICTIONARY
350
378
  0
DICTIONARY
  5
D
102
{ACAD_REACTORS
330
C
102
}
330
C
100
AcDbDictionary
  0
DICTIONARY
  5
1A
102
{ACAD_REACTORS
330
C
102
}
330
C
100
AcDbDictionary
  0
DICTIONARY
  5
3B
102
{ACAD_REACTORS
330
C
102
}
330
C
100
AcDbDictionary
  3
BYBLOCK
350
3D
  3
BYLAYER
350
3C
  3
GLOBAL
350
3E
  0
DICTIONARY
  5
37A
102
{ACAD_REACTORS
330
C
102
}
330
C
100
AcDbDictionary
  0
DICTIONARY
  5
17
102
{ACAD_REACTORS
330
C
102
}
330
C
100
AcDbDictionary
  3
STANDARD
350
18
  0
DICTIONARY
  5
19
102
{ACAD_REACTORS
330
C
102
}
330
C
100
AcDbDictionary
  0
DICTIONARY
  5
2A
102
{ACAD_REACTORS
330
C
102
}
330
C
100
AcDbDictionary
  3
2DWIREFRAME
350
2F
  3
3D_HIDDEN
350
31
  3
3DWIREFRAME
350
30
  3
BASIC
350
32
  3
BRIGHTEN
350
36
  3
COLORCHANGE
350
3A
  3
CONCEPTUAL
350
34
  3
DIM
350
35
  3
FACEPATTERN
350
39
  3
FLAT
350
2B
  3
FLATWITHEDGES
350
2C
  3
GOURAUD
350
2D
  3
GOURAUDWITHEDGES
350
2E
  3
LINEPATTERN
350
38
  3
REALISTIC
350
33
  3
THICKEN
350
37
  0
DICTIONARY
  5
358
102
{ACAD_REACTORS
330
C
102
}
330
C
100
AcDbDictionary
  3
CEPSNTYPE
350
361
  3
DIMSTYLEDATA
350
377
  3
FINGERPRINTGUID
350
362
  3
HYPERLINKBASE
350
35B
  3
INSUNITS
350
360
  3
LAYOUTDICT
350
35D
  3
LWETCUNION
350
35F
  3
PLOTSETDICT
350
35E
  3
PSVPSCALE
350
364
  3
PUCSBASE
350
367
  3
PUCSORGBACK
350
36D
  3
PUCSORGBOTTOM
350
369
  3
PUCSORGFRONT
350
36C
  3
PUCSORGLEFT
350
36A
  3
PUCSORGRIGHT
350
36B
  3
PUCSORGTOP
350
368
  3
PUCSORTHOREF
350
365
  3
PUCSORTHOVIEW
350
366
  3
STYLESHEET
350
35C
  3
TSTACKALIGN
350
359
  3
TSTACKSIZE
350
35A
  3
UCSBASE
350
370
  3
UCSORGBACK
350
376
  3
UCSORGBOTTOM
350
372
  3
UCSORGFRONT
350
375
  3
UCSORGLEFT
350
373
  3
UCSORGRIGHT
350
374
  3
UCSORGTOP
350
371
  3
UCSORTHOREF
350
36E
  3
UCSORTHOVIEW
350
36F
  3
VERSIONGUID
350
363
  0
DICTIONARY
  5
378
102
{ACAD_REACTORS
330
C
102
}
330
C
100
AcDbDictionary
  3
DIMASSOC
350
37D
  3
HIDETEXT
350
37E
  3
PSOLHEIGHT
350
37C
  3
PSOLWIDTH
350
37B
  0
MATERIAL
  5
3D
102
{ACAD_REACTORS
330
3B
102
}
102
{ACAD_XDICTIONARY
360
381
102
}
330
3B
100
AcDbMaterial
  1
ByBlock
  0
MATERIAL
  5
3C
102
{ACAD_REACTORS
330
3B
102
}
102
{ACAD_XDICTIONARY
360
37F
102
}
330
3B
100
AcDbMaterial
  1
ByLayer
  0
MATERIAL
  5
3E
102
{ACAD_REACTORS
330
3B
102
}
102
{ACAD_XDICTIONARY
360
383
102
}
330
3B
100
AcDbMaterial
  1
Global
  0
MLINESTYLE
  5
18
102
{ACAD_REACTORS
330
17
102
}
330
17
100
AcDbMlineStyle
  2
Standard
 70
     0
  3

 62
   256
 51
90.0
 52
90.0
 71
     2
 49
0.5
 62
   256
  6
BYLAYER
 49
-0.5
 62
   256
  6
BYLAYER
  0
ACAD_PROXY_OBJECT
  5
2F
102
{ACAD_REACTORS
330
2A
102
}
330
2A
100
AcDbProxyObject
 90
      499
 91
      501
 93
      436
310
42CC9915DA5C99599C985B595049028333333333333E3BF0000000000000FB0107901411070040501600405405064090741402480A0340
1001
ACAD
1000
AcDbSavedByObjectVersion
1070
     0
  0
ACAD_PROXY_OBJECT
  5
31
102
{ACAD_REACTORS
330
2A
102
}
330
2A
100
AcDbProxyObject
 90
      499
 91
      501
 93
      500
310
424CD108121A5919195B90640502408333333333333E3BF0000000000000FB01079024090700405020000000000001110200405405064090740C02480A0340
1001
ACAD
1000
AcDbSavedByObjectVersion
1070
     0
  0
ACAD_PROXY_OBJECT
  5
30
102
{ACAD_REACTORS
330
2A
102
}
330
2A
100
AcDbProxyObject
 90
      499
 91
      501
 93
      436
310
42CCD915DA5C99599C985B595059028333333333333E3BF0000000000000FB0107901411070040501600405405064090741402480A0340
1001
ACAD
1000
AcDbSavedByObjectVersion
1070
     0
  0
ACAD_PROXY_OBJECT
  5
32
102
{ACAD_REACTORS
330
2A
102
}
330
2A
100
AcDbProxyObject
 90
      499
 91
      501
 93
      388
310
4150985CDA58D07406404333333333333E3BF0000000000000FB0107A41107004050150841D405064090741402480A0350
1001
ACAD
1000
AcDbSavedByObjectVersion
1070
     0
  0
ACAD_PROXY_OBJECT
  5
36
102
{ACAD_REACTORS
330
2A
102
}
330
2A
100
AcDbProxyObject
 90
      499
 91
      501
 93
      428
310
42109C9A59DA1D195B90C409028333333333333E3BF0000000000000FB010790141107004050150841D405064090741402480A029950
1001
ACAD
1000
AcDbSavedByObjectVersion
1070
     0
  0
ACAD_PROXY_OBJECT
  5
3A
102
{ACAD_REACTORS
330
2A
102
}
330
2A
100
AcDbProxyObject
 90
      499
 91
      501
 93
      452
310
42D0DBDB1BDC90DA185B99D95104090240C333333333333E3BF0000000000000FB0108901411070040501508421405064090741402480A0350
1001
ACAD
1000
AcDbSavedByObjectVersion
1070
     0
  0
ACAD_PROXY_OBJECT
  5
34
102
{ACAD_REACTORS
330
2A
102
}
330
2A
100
AcDbProxyObject
 90
      499
 91
      501
 93
      500
310
4290DBDB98D95C1D1D585B10940D028333333333333E3BF0000000000000FB0107902409070040501000000000000111010841D405064090740C02480A0340
1001
ACAD
1000
AcDbSavedByObjectVersion
1070
     0
  0
ACAD_PROXY_OBJECT
  5
35
102
{ACAD_REACTORS
330
2A
102
}
330
2A
100
AcDbProxyObject
 90
      499
 91
      501
 93
      412
310
40D11A5B50B409028333333333333E3BF0000000000000FB010790141107004050150841D405064090741402480A02677FFFFFD0
1001
ACAD
1000
AcDbSavedByObjectVersion
1070
     0
  0
ACAD_PROXY_OBJECT
  5
39
102
{ACAD_REACTORS
330
2A
102
}
330
2A
100
AcDbProxyObject
 90
      499
 91
      501
 93
      444
310
42D19858D95C185D1D195C9B90F409028333333333333E3BF0000000000000FB010790141107004050150841D405064090741402480A0350
1001
ACAD
1000
AcDbSavedByObjectVersion
1070
     0
  0
ACAD_PROXY_OBJECT
  5
2B
102
{ACAD_REACTORS
330
2A
102
}
330
2A
100
AcDbProxyObject
 90
      499
 91
      501
 93
      388
310
41119B185D240901404333333333333E3BF0000000000000F9010740A41107004050150841D405064090741402480A1B50
1001
ACAD
1000
AcDbSavedByObjectVersion
1070
     0
  0
ACAD_PROXY_OBJECT
  5
2C
102
{ACAD_REACTORS
330
2A
102
}
330
2A
100
AcDbProxyObject
 90
      499
 91
      501
 93
      476
310
43519B185D15DA5D1A115919D95CD0140901404333333333333E3BF0000000000000F9010740901411070040501600405405064090741402480A1B50
1001
ACAD
1000
AcDbSavedByObjectVersion
1070
     0
  0
ACAD_PROXY_OBJECT
  5
2D
102
{ACAD_REACTORS
330
2A
102
}
330
2A
100
AcDbProxyObject
 90
      499
 91
      501
 93
      412
310
41D1DBDD5C985D5910240902404333333333333E3BF0000000000000F9010740A411070040501641D405064090741402480A1B50
1001
ACAD
1000
AcDbSavedByObjectVersion
1070
     0
  0
ACAD_PROXY_OBJECT
  5
2E
102
{ACAD_REACTORS
330
2A
102
}
330
2A
100
AcDbProxyObject
 90
      499
 91
      501
 93
      500
310
4411DBDD5C985D5915DA5D1A115919D95CD0340902404333333333333E3BF0000000000000F9010740901411070040501600405405064090741402480A1B50
1001
ACAD
1000
AcDbSavedByObjectVersion
1070
     0
  0
ACAD_PROXY_OBJECT
  5
38
102
{ACAD_REACTORS
330
2A
102
}
330
2A
100
AcDbProxyObject
 90
      499
 91
      501
 93
      444
310
42D31A5B995C185D1D195C9B90E409028333333333333E3BF0000000000000FB010790141107004050750841D405064090741402483A0350
1001
ACAD
1000
AcDbSavedByObjectVersion
1070
     0
  0
ACAD_PROXY_OBJECT
  5
33
102
{ACAD_REACTORS
330
2A
102
}
330
2A
100
AcDbProxyObject
 90
      499
 91
      501
 93
      420
310
425499585B1A5CDD1A58D08409028333333333333E3BF0000000000000FB01079019070040501508421405064090741402480A1B40
1001
ACAD
1000
AcDbSavedByObjectVersion
1070
     0
  0
ACAD_PROXY_OBJECT
  5
37
102
{ACAD_REACTORS
330
2A
102
}
330
2A
100
AcDbProxyObject
 90
      499
 91
      501
 93
      412
310
41D51A1A58DAD95B90D409028333333333333E3BF0000000000000FB010790141107004050150C41D405064090741402480A0350
1001
ACAD
1000
AcDbSavedByObjectVersion
1070
     0
  0
XRECORD
  5
361
102
{ACAD_REACTORS
330
358
102
}
330
358
100
AcDbXrecord
 90
        0
  0
XRECORD
  5
377
102
{ACAD_REACTORS
330
358
102
}
330
358
100
AcDbXrecord
1000
DSTYLE
1002
{
1070
   340
340
11
1002
}
  0
XRECORD
  5
362
102
{ACAD_REACTORS
330
358
102
}
330
358
100
AcDbXrecord
  1
{80A45C48-B6AF-435F-ACA6-4CBBF84D4558}
  0
XRECORD
  5
35B
102
{ACAD_REACTORS
330
358
102
}
330
358
100
AcDbXrecord
  1

  0
XRECORD
  5
360
102
{ACAD_REACTORS
330
358
102
}
330
358
100
AcDbXrecord
 90
        4
  0
XRECORD
  5
35D
102
{ACAD_REACTORS
330
358
102
}
330
358
100
AcDbXrecord
340
1A
  0
XRECORD
  5
35F
102
{ACAD_REACTORS
330
358
102
}
330
358
100
AcDbXrecord
 90
    10781
  0
XRECORD
  5
35E
102
{ACAD_REACTORS
330
358
102
}
330
358
100
AcDbXrecord
340
19
  0
XRECORD
  5
364
102
{ACAD_REACTORS
330
358
102
}
330
358
100
AcDbXrecord
 40
0.0
  0
XRECORD
  5
367
102
{ACAD_REACTORS
330
358
102
}
330
358
100
AcDbXrecord
340
0
  0
XRECORD
  5
36D
102
{ACAD_REACTORS
330
358
102
}
330
358
100
AcDbXrecord
 10
0.0
 20
0.0
 30
0.0
  0
XRECORD
  5
369
102
{ACAD_REACTORS
330
358
102
}
330
358
100
AcDbXrecord
 10
0.0
 20
0.0
 30
0.0
  0
XRECORD
  5
36C
102
{ACAD_REACTORS
330
358
102
}
330
358
100
AcDbXrecord
 10
0.0
 20
0.0
 30
0.0
  0
XRECORD
  5
36A
102
{ACAD_REACTORS
330
358
102
}
330
358
100
AcDbXrecord
 10
0.0
 20
0.0
 30
0.0
  0
XRECORD
  5
36B
102
{ACAD_REACTORS
330
358
102
}
330
358
100
AcDbXrecord
 10
0.0
 20
0.0
 30
0.0
  0
XRECORD
  5
368
102
{ACAD_REACTORS
330
358
102
}
330
358
100
AcDbXrecord
 10
0.0
 20
0.0
 30
0.0
  0
XRECORD
  5
365
102
{ACAD_REACTORS
330
358
102
}
330
358
100
AcDbXrecord
340
0
  0
XRECORD
  5
366
102
{ACAD_REACTORS
330
358
102
}
330
358
100
AcDbXrecord
 70
     0
  0
XRECORD
  5
35C
102
{ACAD_REACTORS
330
358
102
}
330
358
100
AcDbXrecord
  1

  0
XRECORD
  5
359
102
{ACAD_REACTORS
330
358
102
}
330
358
100
AcDbXrecord
 90
        1
  0
XRECORD
  5
35A
102
{ACAD_REACTORS
330
358
102
}
330
358
100
AcDbXrecord
 90
       70
  0
XRECORD
  5
370
102
{ACAD_REACTORS
330
358
102
}
330
358
100
AcDbXrecord
340
0
  0
XRECORD
  5
376
102
{ACAD_REACTORS
330
358
102
}
330
358
100
AcDbXrecord
 10
0.0
 20
0.0
 30
0.0
  0
XRECORD
  5
372
102
{ACAD_REACTORS
330
358
102
}
330
358
100
AcDbXrecord
 10
0.0
 20
0.0
 30
0.0
  0
XRECORD
  5
375
102
{ACAD_REACTORS
330
358
102
}
330
358
100
AcDbXrecord
 10
0.0
 20
0.0
 30
0.0
  0
XRECORD
  5
373
102
{ACAD_REACTORS
330
358
102
}
330
358
100
AcDbXrecord
 10
0.0
 20
0.0
 30
0.0
  0
XRECORD
  5
374
102
{ACAD_REACTORS
330
358
102
}
330
358
100
AcDbXrecord
 10
0.0
 20
0.0
 30
0.0
  0
XRECORD
  5
371
102
{ACAD_REACTORS
330
358
102
}
330
358
100
AcDbXrecord
 10
0.0
 20
0.0
 30
0.0
  0
XRECORD
  5
36E
102
{ACAD_REACTORS
330
358
102
}
330
358
100
AcDbXrecord
340
0
  0
XRECORD
  5
36F
102
{ACAD_REACTORS
330
358
102
}
330
358
100
AcDbXrecord
 70
     0
  0
XRECORD
  5
363
102
{ACAD_REACTORS
330
358
102
}
330
358
100
AcDbXrecord
  1
{FAEB1C32-E019-11D5-929B-00C0DF256EC4}
  0
DICTIONARYVAR
  5
37D
102
{ACAD_REACTORS
330
378
102
}
330
378
100
DictionaryVariables
280
     0
  1
2
  0
DICTIONARYVAR
  5
37E
102
{ACAD_REACTORS
330
378
102
}
330
378
100
DictionaryVariables
280
     0
  1
1
  0
DICTIONARYVAR
  5
37C
102
{ACAD_REACTORS
330
378
102
}
330
378
100
DictionaryVariables
280
     0
  1
80.000000
  0
DICTIONARYVAR
  5
37B
102
{ACAD_REACTORS
330
378
102
}
330
378
100
DictionaryVariables
280
     0
  1
5.000000
  0
DICTIONARY
  5
381
330
3D
100
AcDbDictionary
280
     1
  3
ACAD_XREC_ROUNDTRIP
360
382
  0
DICTIONARY
  5
37F
330
3C
100
AcDbDictionary
280
     1
  3
ACAD_XREC_ROUNDTRIP
360
380
  0
DICTIONARY
  5
383
330
3E
100
AcDbDictionary
280
     1
  3
ACAD_XREC_ROUNDTRIP
360
384
  0
XRECORD
  5
382
102
{ACAD_REACTORS
330
381
102
}
330
381
100
AcDbXrecord
102
MATERIAL
148
0.0
149
0.0
149
0.0
 93
        0
 94
      127
282
     0
 72
     1
 77
     1
171
     1
175
     1
179
     1
273
     0
  0
XRECORD
  5
380
102
{ACAD_REACTORS
330
37F
102
}
330
37F
100
AcDbXrecord
102
MATERIAL
148
0.0
149
0.0
149
0.0
 93
        0
 94
      127
282
     0
 72
     1
 77
     1
171
     1
175
     1
179
     1
273
     0
  0
XRECORD
  5
384
102
{ACAD_REACTORS
330
383
102
}
330
383
100
AcDbXrecord
102
MATERIAL
148
0.0
149
0.0
149
0.0
 93
        0
 94
      127
282
     0
 72
     1
 77
     1
171
     1
175
     1
179
     1
273
     0
  0
ENDSEC
  0
EOF
