  0
SECTION
  2
HEADER
  9
$ACADVER
  1
AC1014
  9
$ACADMAINTVER
 70
     9
  9
$DWGCODEPAGE
  3
ANSI_932
  9
$INSBASE
 10
0.0
 20
0.0
 30
0.0
  9
$EXTMIN
 10
-0.9999999999999908
 20
13.49999999999991
 30
0.0
  9
$EXTMAX
 10
200.0000000000001
 20
288.4999999999999
 30
0.0
  9
$LIMMIN
 10
0.0
 20
0.0
  9
$LIMMAX
 10
210.0
 20
297.0
  9
$ORTHOMODE
 70
     0
  9
$REGENMODE
 70
     1
  9
$FILLMODE
 70
     1
  9
$QTEXTMODE
 70
     0
  9
$MIRRTEXT
 70
     1
  9
$DRAGMODE
 70
     2
  9
$LTSCALE
 40
1.0
  9
$OSMODE
 70
    37
  9
$ATTMODE
 70
     1
  9
$TEXTSIZE
 40
2.5
  9
$TRACEWID
 40
1.0
  9
$TEXTSTYLE
  7
STANDARD
  9
$CLAYER
  8
枠_表
  9
$CELTYPE
  6
BYLAYER
  9
$CECOLOR
 62
   256
  9
$CELTSCALE
 40
1.0
  9
$DELOBJ
 70
     1
  9
$DISPSILH
 70
     0
  9
$DIMSCALE
 40
1.0
  9
$DIMASZ
 40
2.5
  9
$DIMEXO
 40
0.625
  9
$DIMDLI
 40
3.75
  9
$DIMRND
 40
0.0
  9
$DIMDLE
 40
0.0
  9
$DIMEXE
 40
1.25
  9
$DIMTP
 40
0.0
  9
$DIMTM
 40
0.0
  9
$DIMTXT
 40
2.5
  9
$DIMCEN
 40
2.5
  9
$DIMTSZ
 40
0.0
  9
$DIMTOL
 70
     0
  9
$DIMLIM
 70
     0
  9
$DIMTIH
 70
     0
  9
$DIMTOH
 70
     0
  9
$DIMSE1
 70
     0
  9
$DIMSE2
 70
     0
  9
$DIMTAD
 70
     1
  9
$DIMZIN
 70
     8
  9
$DIMBLK
  1

  9
$DIMASO
 70
     1
  9
$DIMSHO
 70
     1
  9
$DIMPOST
  1

  9
$DIMAPOST
  1

  9
$DIMALT
 70
     0
  9
$DIMALTD
 70
     3
  9
$DIMALTF
 40
0.03937007874016
  9
$DIMLFAC
 40
1.0
  9
$DIMTOFL
 70
     1
  9
$DIMTVP
 40
0.0
  9
$DIMTIX
 70
     0
  9
$DIMSOXD
 70
     0
  9
$DIMSAH
 70
     0
  9
$DIMBLK1
  1

  9
$DIMBLK2
  1

  9
$DIMSTYLE
  2
ISO-25
  9
$DIMCLRD
 70
     0
  9
$DIMCLRE
 70
     0
  9
$DIMCLRT
 70
     0
  9
$DIMTFAC
 40
1.0
  9
$DIMGAP
 40
0.625
  9
$DIMJUST
 70
     0
  9
$DIMSD1
 70
     0
  9
$DIMSD2
 70
     0
  9
$DIMTOLJ
 70
     0
  9
$DIMTZIN
 70
     8
  9
$DIMALTZ
 70
     0
  9
$DIMALTTZ
 70
     0
  9
$DIMFIT
 70
     3
  9
$DIMUPT
 70
     0
  9
$DIMUNIT
 70
     2
  9
$DIMDEC
 70
     2
  9
$DIMTDEC
 70
     2
  9
$DIMALTU
 70
     2
  9
$DIMALTTD
 70
     3
  9
$DIMTXSTY
  7
STANDARD
  9
$DIMAUNIT
 70
     0
  9
$LUNITS
 70
     2
  9
$LUPREC
 70
     4
  9
$SKETCHINC
 40
1.0
  9
$FILLETRAD
 40
10.0
  9
$AUNITS
 70
     0
  9
$AUPREC
 70
     0
  9
$MENU
  1
.
  9
$ELEVATION
 40
0.0
  9
$PELEVATION
 40
0.0
  9
$THICKNESS
 40
0.0
  9
$LIMCHECK
 70
     0
  9
$CHAMFERA
 40
10.0
  9
$CHAMFERB
 40
10.0
  9
$CHAMFERC
 40
20.0
  9
$CHAMFERD
 40
0.0
  9
$SKPOLY
 70
     0
  9
$TDCREATE
 40
2457221.591250718
  9
$TDUPDATE
 40
2457221.591250891
  9
$TDINDWG
 40
0.0000000116
  9
$TDUSRTIMER
 40
0.0000000116
  9
$USRTIMER
 70
     1
  9
$ANGBASE
 50
0.0
  9
$ANGDIR
 70
     0
  9
$PDMODE
 70
     0
  9
$PDSIZE
 40
0.0
  9
$PLINEWID
 40
0.0
  9
$COORDS
 70
     1
  9
$SPLFRAME
 70
     0
  9
$SPLINETYPE
 70
     6
  9
$SPLINESEGS
 70
     8
  9
$ATTDIA
 70
     0
  9
$ATTREQ
 70
     1
  9
$HANDLING
 70
     1
  9
$HANDSEED
  5
32C
  9
$SURFTAB1
 70
     6
  9
$SURFTAB2
 70
     6
  9
$SURFTYPE
 70
     6
  9
$SURFU
 70
     6
  9
$SURFV
 70
     6
  9
$UCSNAME
  2

  9
$UCSORG
 10
0.0
 20
0.0
 30
0.0
  9
$UCSXDIR
 10
1.0
 20
0.0
 30
0.0
  9
$UCSYDIR
 10
0.0
 20
1.0
 30
0.0
  9
$PUCSNAME
  2

  9
$PUCSORG
 10
0.0
 20
0.0
 30
0.0
  9
$PUCSXDIR
 10
1.0
 20
0.0
 30
0.0
  9
$PUCSYDIR
 10
0.0
 20
1.0
 30
0.0
  9
$USERI1
 70
     0
  9
$USERI2
 70
     0
  9
$USERI3
 70
     0
  9
$USERI4
 70
     0
  9
$USERI5
 70
     0
  9
$USERR1
 40
0.0
  9
$USERR2
 40
0.0
  9
$USERR3
 40
0.0
  9
$USERR4
 40
0.0
  9
$USERR5
 40
0.0
  9
$WORLDVIEW
 70
     1
  9
$SHADEDGE
 70
     3
  9
$SHADEDIF
 70
    70
  9
$TILEMODE
 70
     1
  9
$MAXACTVP
 70
    64
  9
$PINSBASE
 10
0.0
 20
0.0
 30
0.0
  9
$PLIMCHECK
 70
     0
  9
$PEXTMIN
 10
1.000000000000000E+20
 20
1.000000000000000E+20
 30
1.000000000000000E+20
  9
$PEXTMAX
 10
-1.000000000000000E+20
 20
-1.000000000000000E+20
 30
-1.000000000000000E+20
  9
$PLIMMIN
 10
0.0
 20
0.0
  9
$PLIMMAX
 10
420.0
 20
297.0
  9
$UNITMODE
 70
     0
  9
$VISRETAIN
 70
     1
  9
$PLINEGEN
 70
     0
  9
$PSLTSCALE
 70
     1
  9
$TREEDEPTH
 70
  3020
  9
$PICKSTYLE
 70
     1
  9
$CMLSTYLE
  2
STANDARD
  9
$CMLJUST
 70
     0
  9
$CMLSCALE
 40
20.0
  9
$PROXYGRAPHICS
 70
     1
  9
$MEASUREMENT
 70
     1
  0
ENDSEC
  0
SECTION
  2
CLASSES
  0
CLASS
  1
ACDBDICTIONARYWDFLT
  2
AcDbDictionaryWithDefault
  3
ObjectDBX Classes
 90
        0
280
     0
281
     0
  0
CLASS
  1
VISUALSTYLE
  2
AcDbVisualStyle
  3
ObjectDBX Classes
 90
     4095
280
     0
281
     0
  0
CLASS
  1
MATERIAL
  2
AcDbMaterial
  3
ObjectDBX Classes
 90
     1153
280
     0
281
     0
  0
CLASS
  1
SUN
  2
AcDbSun
  3
SCENEOE
 90
     1024
280
     0
281
     0
  0
CLASS
  1
DICTIONARYVAR
  2
AcDbDictionaryVar
  3
ObjectDBX Classes
 90
        0
280
     0
281
     0
  0
CLASS
  1
XRECORD
  2
AcDbXrecord
  3
AutoCAD 2000
 90
        0
280
     0
281
     0
  0
CLASS
  1
LWPOLYLINE
  2
AcDbPolyline
  3
AutoCAD 2000
 90
        0
280
     0
281
     1
  0
CLASS
  1
HATCH
  2
AcDbHatch
  3
AutoCAD 2000
 90
        0
280
     0
281
     1
  0
CLASS
  1
ACDBPLACEHOLDER
  2
AcDbPlaceHolder
  3
ObjectDBX Classes
 90
        0
280
     0
281
     0
  0
CLASS
  1
LAYOUT
  2
AcDbLayout
  3
ObjectDBX Classes
 90
        0
280
     0
281
     0
  0
ENDSEC
  0
SECTION
  2
TABLES
  0
TABLE
  2
VPORT
  5
8
330
0
100
AcDbSymbolTable
 70
     1
  0
VPORT
  5
29
330
8
100
AcDbSymbolTableRecord
100
AcDbViewportTableRecord
  2
*ACTIVE
 70
     0
 10
0.0
 20
0.0
 11
1.0
 21
1.0
 12
995.0000000000002
 22
1509.999999999999
 13
0.0
 23
0.0
 14
10.0
 24
10.0
 15
10.0
 25
10.0
 16
0.0
 26
0.0
 36
1.0
 17
0.0
 27
0.0
 37
0.0
 40
2750.0
 41
0.730909090909091
 42
50.0
 43
0.0
 44
0.0
 50
0.0
 51
0.0
 71
     0
 72
  1000
 73
     1
 74
     3
 75
     0
 76
     0
 77
     0
 78
     0
  0
ENDTAB
  0
TABLE
  2
LTYPE
  5
5
330
0
100
AcDbSymbolTable
 70
     7
  0
LTYPE
  5
14
330
5
100
AcDbSymbolTableRecord
100
AcDbLinetypeTableRecord
  2
BYBLOCK
 70
     0
  3

 72
    65
 73
     0
 40
0.0
  0
LTYPE
  5
15
330
5
100
AcDbSymbolTableRecord
100
AcDbLinetypeTableRecord
  2
BYLAYER
 70
     0
  3

 72
    65
 73
     0
 40
0.0
  0
LTYPE
  5
16
330
5
100
AcDbSymbolTableRecord
100
AcDbLinetypeTableRecord
  2
CONTINUOUS
 70
     0
  3
Solid line
 72
    65
 73
     0
 40
0.0
  0
LTYPE
  5
40
330
5
100
AcDbSymbolTableRecord
100
AcDbLinetypeTableRecord
  2
EXLTYPE1
 70
     0
  3
破線
 72
    65
 73
     2
 40
3.0
 49
2.0
 74
     0
 49
-1.0
 74
     0
  0
LTYPE
  5
41
330
5
100
AcDbSymbolTableRecord
100
AcDbLinetypeTableRecord
  2
EXLTYPE2
 70
     0
  3
点線
 72
    65
 73
     2
 40
2.0
 49
1.0
 74
     0
 49
-1.0
 74
     0
  0
LTYPE
  5
42
330
5
100
AcDbSymbolTableRecord
100
AcDbLinetypeTableRecord
  2
EXLTYPE3
 70
     0
  3
一点鎖線
 72
    65
 73
     4
 40
10.0
 49
7.0
 74
     0
 49
-1.0
 74
     0
 49
1.0
 74
     0
 49
-1.0
 74
     0
  0
LTYPE
  5
43
330
5
100
AcDbSymbolTableRecord
100
AcDbLinetypeTableRecord
  2
EXLTYPE4
 70
     0
  3
二点鎖線
 72
    65
 73
     6
 40
12.0
 49
7.0
 74
     0
 49
-1.0
 74
     0
 49
1.0
 74
     0
 49
-1.0
 74
     0
 49
1.0
 74
     0
 49
-1.0
 74
     0
  0
LTYPE
  5
44
330
5
100
AcDbSymbolTableRecord
100
AcDbLinetypeTableRecord
  2
EXLTYPE5
 70
     0
  3
三点鎖線
 72
    65
 73
     8
 40
37.0
 49
30.0
 74
     0
 49
-1.0
 74
     0
 49
1.0
 74
     0
 49
-1.0
 74
     0
 49
1.0
 74
     0
 49
-1.0
 74
     0
 49
1.0
 74
     0
 49
-1.0
 74
     0
  0
LTYPE
  5
45
330
5
100
AcDbSymbolTableRecord
100
AcDbLinetypeTableRecord
  2
EXLTYPE6
 70
     0
  3
四点鎖線
 72
    65
 73
    10
 40
39.0
 49
30.0
 74
     0
 49
-1.0
 74
     0
 49
1.0
 74
     0
 49
-1.0
 74
     0
 49
1.0
 74
     0
 49
-1.0
 74
     0
 49
1.0
 74
     0
 49
-1.0
 74
     0
 49
1.0
 74
     0
 49
-1.0
 74
     0
  0
ENDTAB
  0
TABLE
  2
LAYER
  5
2
330
0
100
AcDbSymbolTable
 70
     6
  0
LAYER
  5
10
330
2
100
AcDbSymbolTableRecord
100
AcDbLayerTableRecord
  2
0
 70
     0
 62
     7
  6
CONTINUOUS
  0
LAYER
  5
48
330
2
100
AcDbSymbolTableRecord
100
AcDbLayerTableRecord
  2
枠_表
 70
     0
 62
     7
  6
CONTINUOUS
  0
LAYER
  5
49
330
2
100
AcDbSymbolTableRecord
100
AcDbLayerTableRecord
  2
鏡台
 70
     0
 62
     7
  6
CONTINUOUS
  0
LAYER
  5
4A
330
2
100
AcDbSymbolTableRecord
100
AcDbLayerTableRecord
  2
付属金具
 70
     0
 62
     7
  6
CONTINUOUS
  0
LAYER
  5
4B
330
2
100
AcDbSymbolTableRecord
100
AcDbLayerTableRecord
  2
寸法
 70
     0
 62
     7
  6
CONTINUOUS
  0
LAYER
  5
24A
330
2
100
AcDbSymbolTableRecord
100
AcDbLayerTableRecord
  2
DEFPOINTS
 70
     0
 62
     7
  6
CONTINUOUS
  0
ENDTAB
  0
TABLE
  2
STYLE
  5
3
330
0
100
AcDbSymbolTable
 70
     5
  0
STYLE
  5
11
330
3
100
AcDbSymbolTableRecord
100
AcDbTextStyleTableRecord
  2
STANDARD
 70
     0
 40
0.0
 41
1.0
 50
0.0
 71
     0
 42
2.5
  3
monotxt
  4
extfont
  0
STYLE
  5
46
330
3
100
AcDbSymbolTableRecord
100
AcDbTextStyleTableRecord
  2
EXCADSTD
 70
     0
 40
0.0
 41
1.0
 50
0.0
 71
     0
 42
0.2
  3
monotxt
  4
extfont
  0
STYLE
  5
47
330
3
100
AcDbSymbolTableRecord
100
AcDbTextStyleTableRecord
  2
EXCADVERT
 70
     4
 40
0.0
 41
1.0
 50
0.0
 71
     0
 42
0.286885
  3
monotxt
  4
extfont
  0
STYLE
  5
FB
330
3
100
AcDbSymbolTableRecord
100
AcDbTextStyleTableRecord
  2
EXCADTTF1
 70
     0
 40
0.0
 41
1.0
 50
0.0
 71
     0
 42
0.2
  3
MSGOTHIC.TTC
  4

1001
ACAD
1000
MS Gothic
1071
    32817
  0
STYLE
  5
248
330
3
100
AcDbSymbolTableRecord
100
AcDbTextStyleTableRecord
  2
EXCADDIM1
 70
     0
 40
0.0
 41
0.84
 50
0.0
 71
     0
 42
0.2
  3
monotxt
  4
extfont
  0
ENDTAB
  0
TABLE
  2
VIEW
  5
6
330
0
100
AcDbSymbolTable
 70
     0
  0
ENDTAB
  0
TABLE
  2
UCS
  5
7
330
0
100
AcDbSymbolTable
 70
     0
  0
ENDTAB
  0
TABLE
  2
APPID
  5
9
330
0
100
AcDbSymbolTable
 70
     1
  0
APPID
  5
12
330
9
100
AcDbSymbolTableRecord
100
AcDbRegAppTableRecord
  2
ACAD
 70
     0
  0
ENDTAB
  0
TABLE
  2
DIMSTYLE
  5
A
330
0
100
AcDbSymbolTable
 70
     1
  0
DIMSTYLE
105
27
102
{ACAD_REACTORS
330
249
330
259
330
266
330
275
330
282
330
292
330
29F
330
2AB
330
2B8
330
2C7
330
2D4
330
2E3
330
2F2
102
}
330
A
100
AcDbSymbolTableRecord
100
AcDbDimStyleTableRecord
  2
ISO-25
 70
     0
  3

  4

  5

  6

  7

 40
1.0
 41
2.5
 42
0.625
 43
3.75
 44
1.25
 45
0.0
 46
0.0
 47
0.0
 48
0.0
140
2.5
141
2.5
142
0.0
143
0.03937007874016
144
1.0
145
0.0
146
1.0
147
0.625
 71
     0
 72
     0
 73
     0
 74
     0
 75
     0
 76
     0
 77
     1
 78
     8
170
     0
171
     3
172
     1
173
     0
174
     0
175
     0
176
     0
177
     0
178
     0
270
     2
271
     2
272
     2
273
     2
274
     3
340
11
275
     0
280
     0
281
     0
282
     0
283
     0
284
     8
285
     0
286
     0
287
     5
288
     0
  0
ENDTAB
  0
TABLE
  2
BLOCK_RECORD
  5
1
330
0
100
AcDbSymbolTable
 70
    28
  0
BLOCK_RECORD
  5
1F
330
1
100
AcDbSymbolTableRecord
100
AcDbBlockTableRecord
  2
*MODEL_SPACE
  0
BLOCK_RECORD
  5
1B
330
1
100
AcDbSymbolTableRecord
100
AcDbBlockTableRecord
  2
*PAPER_SPACE
  0
BLOCK_RECORD
  5
4C
330
1
100
AcDbSymbolTableRecord
100
AcDbBlockTableRecord
  2
EX_NORM
  0
BLOCK_RECORD
  5
4F
330
1
100
AcDbSymbolTableRecord
100
AcDbBlockTableRecord
  2
EX_BNORM
  0
BLOCK_RECORD
  5
52
330
1
100
AcDbSymbolTableRecord
100
AcDbBlockTableRecord
  2
EX_BCIR
  0
BLOCK_RECORD
  5
55
330
1
100
AcDbSymbolTableRecord
100
AcDbBlockTableRecord
  2
EX_RCIVIL
  0
BLOCK_RECORD
  5
58
330
1
100
AcDbSymbolTableRecord
100
AcDbBlockTableRecord
  2
EX_SLANT
  0
BLOCK_RECORD
  5
5B
330
1
100
AcDbSymbolTableRecord
100
AcDbBlockTableRecord
  2
EX_NONE
  0
BLOCK_RECORD
  5
5E
330
1
100
AcDbSymbolTableRecord
100
AcDbBlockTableRecord
  2
EX_CIVIL
  0
BLOCK_RECORD
  5
61
330
1
100
AcDbSymbolTableRecord
100
AcDbBlockTableRecord
  2
EX_WCIR
  0
BLOCK_RECORD
  5
64
330
1
100
AcDbSymbolTableRecord
100
AcDbBlockTableRecord
  2
EX_WCIR2
  0
BLOCK_RECORD
  5
67
330
1
100
AcDbSymbolTableRecord
100
AcDbBlockTableRecord
  2
EX_WNORM
  0
BLOCK_RECORD
  5
6A
330
1
100
AcDbSymbolTableRecord
100
AcDbBlockTableRecord
  2
EX_NNORM
  0
BLOCK_RECORD
  5
6D
330
1
100
AcDbSymbolTableRecord
100
AcDbBlockTableRecord
  2
EX_BBOX
  0
BLOCK_RECORD
  5
70
330
1
100
AcDbSymbolTableRecord
100
AcDbBlockTableRecord
  2
EX_WBOX
  0
BLOCK_RECORD
  5
73
330
1
100
AcDbSymbolTableRecord
100
AcDbBlockTableRecord
  2
EX_INTEGRAL
  0
BLOCK_RECORD
  5
24B
330
1
100
AcDbSymbolTableRecord
100
AcDbBlockTableRecord
  2
*D15
  0
BLOCK_RECORD
  5
25A
330
1
100
AcDbSymbolTableRecord
100
AcDbBlockTableRecord
  2
*D16
  0
BLOCK_RECORD
  5
267
330
1
100
AcDbSymbolTableRecord
100
AcDbBlockTableRecord
  2
*D17
  0
BLOCK_RECORD
  5
276
330
1
100
AcDbSymbolTableRecord
100
AcDbBlockTableRecord
  2
*D18
  0
BLOCK_RECORD
  5
283
330
1
100
AcDbSymbolTableRecord
100
AcDbBlockTableRecord
  2
*D19
  0
BLOCK_RECORD
  5
293
330
1
100
AcDbSymbolTableRecord
100
AcDbBlockTableRecord
  2
*D20
  0
BLOCK_RECORD
  5
2A0
330
1
100
AcDbSymbolTableRecord
100
AcDbBlockTableRecord
  2
*D21
  0
BLOCK_RECORD
  5
2AC
330
1
100
AcDbSymbolTableRecord
100
AcDbBlockTableRecord
  2
*D22
  0
BLOCK_RECORD
  5
2B9
330
1
100
AcDbSymbolTableRecord
100
AcDbBlockTableRecord
  2
*D23
  0
BLOCK_RECORD
  5
2C8
330
1
100
AcDbSymbolTableRecord
100
AcDbBlockTableRecord
  2
*D24
  0
BLOCK_RECORD
  5
2D5
330
1
100
AcDbSymbolTableRecord
100
AcDbBlockTableRecord
  2
*D25
  0
BLOCK_RECORD
  5
2E4
330
1
100
AcDbSymbolTableRecord
100
AcDbBlockTableRecord
  2
*D26
  0
BLOCK_RECORD
  5
2F3
330
1
100
AcDbSymbolTableRecord
100
AcDbBlockTableRecord
  2
*D27
  0
ENDTAB
  0
ENDSEC
  0
SECTION
  2
BLOCKS
  0
BLOCK
  5
20
330
1F
100
AcDbEntity
  8
0
100
AcDbBlockBegin
  2
*MODEL_SPACE
 70
     0
 10
0.0
 20
0.0
 30
0.0
  3
*MODEL_SPACE
  1

  0
ENDBLK
  5
21
330
1F
100
AcDbEntity
  8
0
100
AcDbBlockEnd
  0
BLOCK
  5
1C
330
1B
100
AcDbEntity
 67
     1
  8
0
100
AcDbBlockBegin
  2
*PAPER_SPACE
 70
     0
 10
0.0
 20
0.0
 30
0.0
  3
*PAPER_SPACE
  1

  0
ENDBLK
  5
1D
330
1B
100
AcDbEntity
 67
     1
  8
0
100
AcDbBlockEnd
  0
BLOCK
  5
4D
330
4C
100
AcDbEntity
  8
0
100
AcDbBlockBegin
  2
EX_NORM
 70
     0
 10
0.0
 20
0.0
 30
0.0
  3
EX_NORM
  1

  0
LINE
  5
76
330
4C
100
AcDbEntity
  8
0
  6
CONTINUOUS
 62
     0
100
AcDbLine
 10
0.0
 20
0.0
 30
0.0
 11
-1.0
 21
0.0
 31
0.0
  0
LINE
  5
77
330
4C
100
AcDbEntity
  8
0
  6
CONTINUOUS
 62
     0
100
AcDbLine
 10
0.0
 20
0.0
 30
0.0
 11
-1.0
 21
0.166666667
 31
0.0
  0
LINE
  5
78
330
4C
100
AcDbEntity
  8
0
  6
CONTINUOUS
 62
     0
100
AcDbLine
 10
0.0
 20
0.0
 30
0.0
 11
-1.0
 21
-0.166666667
 31
0.0
  0
ENDBLK
  5
4E
330
4C
100
AcDbEntity
  8
0
100
AcDbBlockEnd
  0
BLOCK
  5
50
330
4F
100
AcDbEntity
  8
0
100
AcDbBlockBegin
  2
EX_BNORM
 70
     0
 10
0.0
 20
0.0
 30
0.0
  3
EX_BNORM
  1

  0
LINE
  5
79
330
4F
100
AcDbEntity
  8
0
  6
CONTINUOUS
 62
     0
100
AcDbLine
 10
0.0
 20
0.0
 30
0.0
 11
-1.0
 21
0.0
 31
0.0
  0
LINE
  5
7A
330
4F
100
AcDbEntity
  8
0
  6
CONTINUOUS
 62
     0
100
AcDbLine
 10
0.0
 20
0.0
 30
0.0
 11
-1.0
 21
0.166666667
 31
0.0
  0
LINE
  5
7B
330
4F
100
AcDbEntity
  8
0
  6
CONTINUOUS
 62
     0
100
AcDbLine
 10
0.0
 20
0.0
 30
0.0
 11
-1.0
 21
-0.166666667
 31
0.0
  0
LINE
  5
7C
330
4F
100
AcDbEntity
  8
0
  6
CONTINUOUS
 62
     0
100
AcDbLine
 10
0.0
 20
0.0
 30
0.0
 11
-1.0
 21
0.083333333
 31
0.0
  0
LINE
  5
7D
330
4F
100
AcDbEntity
  8
0
  6
CONTINUOUS
 62
     0
100
AcDbLine
 10
0.0
 20
0.0
 30
0.0
 11
-1.0
 21
-0.083333333
 31
0.0
  0
LINE
  5
7E
330
4F
100
AcDbEntity
  8
0
  6
CONTINUOUS
 62
     0
100
AcDbLine
 10
-1.0
 20
0.166666667
 30
0.0
 11
-1.0
 21
-0.166666667
 31
0.0
  0
ENDBLK
  5
51
330
4F
100
AcDbEntity
  8
0
100
AcDbBlockEnd
  0
BLOCK
  5
53
330
52
100
AcDbEntity
  8
0
100
AcDbBlockBegin
  2
EX_BCIR
 70
     0
 10
0.0
 20
0.0
 30
0.0
  3
EX_BCIR
  1

  0
LINE
  5
7F
330
52
100
AcDbEntity
  8
0
  6
CONTINUOUS
 62
     0
100
AcDbLine
 10
0.0
 20
0.0
 30
0.0
 11
-1.0
 21
0.0
 31
0.0
  0
CIRCLE
  5
80
330
52
100
AcDbEntity
  8
0
  6
CONTINUOUS
 62
     0
100
AcDbCircle
 10
0.0
 20
0.0
 30
0.0
 40
0.5
  0
CIRCLE
  5
81
330
52
100
AcDbEntity
  8
0
  6
CONTINUOUS
 62
     0
100
AcDbCircle
 10
0.0
 20
0.0
 30
0.0
 40
0.25
  0
ENDBLK
  5
54
330
52
100
AcDbEntity
  8
0
100
AcDbBlockEnd
  0
BLOCK
  5
56
330
55
100
AcDbEntity
  8
0
100
AcDbBlockBegin
  2
EX_RCIVIL
 70
     0
 10
0.0
 20
0.0
 30
0.0
  3
EX_RCIVIL
  1

  0
LINE
  5
82
330
55
100
AcDbEntity
  8
0
  6
CONTINUOUS
 62
     0
100
AcDbLine
 10
0.0
 20
0.0
 30
0.0
 11
-1.0
 21
0.0
 31
0.0
  0
LINE
  5
83
330
55
100
AcDbEntity
  8
0
  6
CONTINUOUS
 62
     0
100
AcDbLine
 10
-1.0
 20
-0.25
 30
0.0
 11
0.0
 21
-0.25
 31
0.0
  0
LINE
  5
84
330
55
100
AcDbEntity
  8
0
  6
CONTINUOUS
 62
     0
100
AcDbLine
 10
-1.0
 20
-0.125
 30
0.0
 11
0.0
 21
-0.125
 31
0.0
  0
ENDBLK
  5
57
330
55
100
AcDbEntity
  8
0
100
AcDbBlockEnd
  0
BLOCK
  5
59
330
58
100
AcDbEntity
  8
0
100
AcDbBlockBegin
  2
EX_SLANT
 70
     0
 10
0.0
 20
0.0
 30
0.0
  3
EX_SLANT
  1

  0
LINE
  5
85
330
58
100
AcDbEntity
  8
0
  6
CONTINUOUS
 62
     0
100
AcDbLine
 10
0.0
 20
0.0
 30
0.0
 11
-1.0
 21
0.0
 31
0.0
  0
LINE
  5
86
330
58
100
AcDbEntity
  8
0
  6
CONTINUOUS
 62
     0
100
AcDbLine
 10
0.707106781
 20
0.707106781
 30
0.0
 11
-0.707106781
 21
-0.707106781
 31
0.0
  0
ENDBLK
  5
5A
330
58
100
AcDbEntity
  8
0
100
AcDbBlockEnd
  0
BLOCK
  5
5C
330
5B
100
AcDbEntity
  8
0
100
AcDbBlockBegin
  2
EX_NONE
 70
     0
 10
0.0
 20
0.0
 30
0.0
  3
EX_NONE
  1

  0
LINE
  5
87
330
5B
100
AcDbEntity
  8
0
  6
CONTINUOUS
 62
     0
100
AcDbLine
 10
0.0
 20
0.0
 30
0.0
 11
-1.0
 21
0.0
 31
0.0
  0
ENDBLK
  5
5D
330
5B
100
AcDbEntity
  8
0
100
AcDbBlockEnd
  0
BLOCK
  5
5F
330
5E
100
AcDbEntity
  8
0
100
AcDbBlockBegin
  2
EX_CIVIL
 70
     0
 10
0.0
 20
0.0
 30
0.0
  3
EX_CIVIL
  1

  0
LINE
  5
88
330
5E
100
AcDbEntity
  8
0
  6
CONTINUOUS
 62
     0
100
AcDbLine
 10
0.0
 20
0.0
 30
0.0
 11
-1.0
 21
0.0
 31
0.0
  0
LINE
  5
89
330
5E
100
AcDbEntity
  8
0
  6
CONTINUOUS
 62
     0
100
AcDbLine
 10
-1.0
 20
0.25
 30
0.0
 11
0.0
 21
0.25
 31
0.0
  0
LINE
  5
8A
330
5E
100
AcDbEntity
  8
0
  6
CONTINUOUS
 62
     0
100
AcDbLine
 10
-1.0
 20
0.125
 30
0.0
 11
0.0
 21
0.125
 31
0.0
  0
ENDBLK
  5
60
330
5E
100
AcDbEntity
  8
0
100
AcDbBlockEnd
  0
BLOCK
  5
62
330
61
100
AcDbEntity
  8
0
100
AcDbBlockBegin
  2
EX_WCIR
 70
     0
 10
0.0
 20
0.0
 30
0.0
  3
EX_WCIR
  1

  0
LINE
  5
8B
330
61
100
AcDbEntity
  8
0
  6
CONTINUOUS
 62
     0
100
AcDbLine
 10
0.0
 20
0.0
 30
0.0
 11
-1.0
 21
0.0
 31
0.0
  0
CIRCLE
  5
8C
330
61
100
AcDbEntity
  8
0
  6
CONTINUOUS
 62
     0
100
AcDbCircle
 10
0.0
 20
0.0
 30
0.0
 40
0.5
  0
ENDBLK
  5
63
330
61
100
AcDbEntity
  8
0
100
AcDbBlockEnd
  0
BLOCK
  5
65
330
64
100
AcDbEntity
  8
0
100
AcDbBlockBegin
  2
EX_WCIR2
 70
     0
 10
0.0
 20
0.0
 30
0.0
  3
EX_WCIR2
  1

  0
LINE
  5
8D
330
64
100
AcDbEntity
  8
0
  6
CONTINUOUS
 62
     0
100
AcDbLine
 10
-0.5
 20
0.0
 30
0.0
 11
-1.0
 21
0.0
 31
0.0
  0
CIRCLE
  5
8E
330
64
100
AcDbEntity
  8
0
  6
CONTINUOUS
 62
     0
100
AcDbCircle
 10
0.0
 20
0.0
 30
0.0
 40
0.5
  0
ENDBLK
  5
66
330
64
100
AcDbEntity
  8
0
100
AcDbBlockEnd
  0
BLOCK
  5
68
330
67
100
AcDbEntity
  8
0
100
AcDbBlockBegin
  2
EX_WNORM
 70
     0
 10
0.0
 20
0.0
 30
0.0
  3
EX_WNORM
  1

  0
LINE
  5
8F
330
67
100
AcDbEntity
  8
0
  6
CONTINUOUS
 62
     0
100
AcDbLine
 10
-1.0
 20
0.0
 30
0.0
 11
-1.0
 21
0.0
 31
0.0
  0
LINE
  5
90
330
67
100
AcDbEntity
  8
0
  6
CONTINUOUS
 62
     0
100
AcDbLine
 10
0.0
 20
0.0
 30
0.0
 11
-1.0
 21
0.166666667
 31
0.0
  0
LINE
  5
91
330
67
100
AcDbEntity
  8
0
  6
CONTINUOUS
 62
     0
100
AcDbLine
 10
0.0
 20
0.0
 30
0.0
 11
-1.0
 21
-0.166666667
 31
0.0
  0
LINE
  5
92
330
67
100
AcDbEntity
  8
0
  6
CONTINUOUS
 62
     0
100
AcDbLine
 10
-1.0
 20
0.166666667
 30
0.0
 11
-1.0
 21
-0.166666667
 31
0.0
  0
ENDBLK
  5
69
330
67
100
AcDbEntity
  8
0
100
AcDbBlockEnd
  0
BLOCK
  5
6B
330
6A
100
AcDbEntity
  8
0
100
AcDbBlockBegin
  2
EX_NNORM
 70
     0
 10
0.0
 20
0.0
 30
0.0
  3
EX_NNORM
  1

  0
LINE
  5
93
330
6A
100
AcDbEntity
  8
0
  6
CONTINUOUS
 62
     0
100
AcDbLine
 10
0.0
 20
0.0
 30
0.0
 11
-1.0
 21
0.0
 31
0.0
  0
LINE
  5
94
330
6A
100
AcDbEntity
  8
0
  6
CONTINUOUS
 62
     0
100
AcDbLine
 10
0.0
 20
0.0
 30
0.0
 11
-1.0
 21
0.166666667
 31
0.0
  0
LINE
  5
95
330
6A
100
AcDbEntity
  8
0
  6
CONTINUOUS
 62
     0
100
AcDbLine
 10
0.0
 20
0.0
 30
0.0
 11
-1.0
 21
-0.166666667
 31
0.0
  0
LINE
  5
96
330
6A
100
AcDbEntity
  8
0
  6
CONTINUOUS
 62
     0
100
AcDbLine
 10
-1.0
 20
0.166666667
 30
0.0
 11
-1.0
 21
-0.166666667
 31
0.0
  0
ENDBLK
  5
6C
330
6A
100
AcDbEntity
  8
0
100
AcDbBlockEnd
  0
BLOCK
  5
6E
330
6D
100
AcDbEntity
  8
0
100
AcDbBlockBegin
  2
EX_BBOX
 70
     0
 10
0.0
 20
0.0
 30
0.0
  3
EX_BBOX
  1

  0
LINE
  5
97
330
6D
100
AcDbEntity
  8
0
  6
CONTINUOUS
 62
     0
100
AcDbLine
 10
0.0
 20
0.0
 30
0.0
 11
-1.0
 21
0.0
 31
0.0
  0
LINE
  5
98
330
6D
100
AcDbEntity
  8
0
  6
CONTINUOUS
 62
     0
100
AcDbLine
 10
-0.5
 20
0.5
 30
0.0
 11
0.5
 21
0.5
 31
0.0
  0
LINE
  5
99
330
6D
100
AcDbEntity
  8
0
  6
CONTINUOUS
 62
     0
100
AcDbLine
 10
0.5
 20
0.5
 30
0.0
 11
0.5
 21
-0.5
 31
0.0
  0
LINE
  5
9A
330
6D
100
AcDbEntity
  8
0
  6
CONTINUOUS
 62
     0
100
AcDbLine
 10
0.5
 20
-0.5
 30
0.0
 11
-0.5
 21
-0.5
 31
0.0
  0
LINE
  5
9B
330
6D
100
AcDbEntity
  8
0
  6
CONTINUOUS
 62
     0
100
AcDbLine
 10
-0.5
 20
-0.5
 30
0.0
 11
-0.5
 21
0.5
 31
0.0
  0
LINE
  5
9C
330
6D
100
AcDbEntity
  8
0
  6
CONTINUOUS
 62
     0
100
AcDbLine
 10
-0.25
 20
0.25
 30
0.0
 11
0.25
 21
0.25
 31
0.0
  0
LINE
  5
9D
330
6D
100
AcDbEntity
  8
0
  6
CONTINUOUS
 62
     0
100
AcDbLine
 10
0.25
 20
0.25
 30
0.0
 11
0.25
 21
-0.25
 31
0.0
  0
LINE
  5
9E
330
6D
100
AcDbEntity
  8
0
  6
CONTINUOUS
 62
     0
100
AcDbLine
 10
0.25
 20
-0.25
 30
0.0
 11
-0.25
 21
-0.25
 31
0.0
  0
LINE
  5
9F
330
6D
100
AcDbEntity
  8
0
  6
CONTINUOUS
 62
     0
100
AcDbLine
 10
-0.25
 20
-0.25
 30
0.0
 11
-0.25
 21
0.25
 31
0.0
  0
ENDBLK
  5
6F
330
6D
100
AcDbEntity
  8
0
100
AcDbBlockEnd
  0
BLOCK
  5
71
330
70
100
AcDbEntity
  8
0
100
AcDbBlockBegin
  2
EX_WBOX
 70
     0
 10
0.0
 20
0.0
 30
0.0
  3
EX_WBOX
  1

  0
LINE
  5
A0
330
70
100
AcDbEntity
  8
0
  6
CONTINUOUS
 62
     0
100
AcDbLine
 10
-0.5
 20
0.0
 30
0.0
 11
-1.0
 21
0.0
 31
0.0
  0
LINE
  5
A1
330
70
100
AcDbEntity
  8
0
  6
CONTINUOUS
 62
     0
100
AcDbLine
 10
-0.5
 20
0.5
 30
0.0
 11
0.5
 21
0.5
 31
0.0
  0
LINE
  5
A2
330
70
100
AcDbEntity
  8
0
  6
CONTINUOUS
 62
     0
100
AcDbLine
 10
0.5
 20
0.5
 30
0.0
 11
0.5
 21
-0.5
 31
0.0
  0
LINE
  5
A3
330
70
100
AcDbEntity
  8
0
  6
CONTINUOUS
 62
     0
100
AcDbLine
 10
0.5
 20
-0.5
 30
0.0
 11
-0.5
 21
-0.5
 31
0.0
  0
LINE
  5
A4
330
70
100
AcDbEntity
  8
0
  6
CONTINUOUS
 62
     0
100
AcDbLine
 10
-0.5
 20
-0.5
 30
0.0
 11
-0.5
 21
0.5
 31
0.0
  0
ENDBLK
  5
72
330
70
100
AcDbEntity
  8
0
100
AcDbBlockEnd
  0
BLOCK
  5
74
330
73
100
AcDbEntity
  8
0
100
AcDbBlockBegin
  2
EX_INTEGRAL
 70
     0
 10
0.0
 20
0.0
 30
0.0
  3
EX_INTEGRAL
  1

  0
LINE
  5
A5
330
73
100
AcDbEntity
  8
0
  6
CONTINUOUS
 62
     0
100
AcDbLine
 10
0.0
 20
0.0
 30
0.0
 11
-1.0
 21
0.0
 31
0.0
  0
ARC
  5
A6
330
73
100
AcDbEntity
  8
0
  6
CONTINUOUS
 62
     0
100
AcDbCircle
 10
0.542115
 20
0.164992
 30
0.0
 40
0.56667
100
AcDbArc
 50
73.07249033629006
 51
196.9275130221199
  0
ARC
  5
A7
330
73
100
AcDbEntity
  8
0
  6
CONTINUOUS
 62
     0
100
AcDbCircle
 10
-0.542115
 20
-0.164992
 30
0.0
 40
0.56667
100
AcDbArc
 50
253.0724869220464
 51
16.9275130559125
  0
ENDBLK
  5
75
330
73
100
AcDbEntity
  8
0
100
AcDbBlockEnd
  0
BLOCK
  5
24C
330
24B
100
AcDbEntity
  8
0
100
AcDbBlockBegin
  2
*D15
 70
     1
 10
0.0
 20
0.0
 30
0.0
  3
*D15
  1

  0
LINE
  5
24E
330
24B
100
AcDbEntity
  8
寸法
  6
CONTINUOUS
 62
     3
100
AcDbLine
 10
453.4999999999993
 20
2027.99999988079
 30
0.0
 11
453.4999999999993
 21
2110.999999999999
 31
0.0
  0
LINE
  5
24F
330
24B
100
AcDbEntity
  8
寸法
  6
CONTINUOUS
 62
     3
100
AcDbLine
 10
473.4999999999993
 20
2060.49999988079
 30
0.0
 11
473.4999999999993
 21
2110.999999999999
 31
0.0
  0
LINE
  5
250
330
24B
100
AcDbEntity
  8
寸法
  6
CONTINUOUS
 62
     3
100
AcDbLine
 10
453.4999999999993
 20
2100.999999999999
 30
0.0
 11
473.4999999999993
 21
2100.999999999999
 31
0.0
  0
LINE
  5
251
330
24B
100
AcDbEntity
  8
寸法
  6
CONTINUOUS
 62
     3
100
AcDbLine
 10
423.4999999999993
 20
2100.999999999999
 30
0.0
 11
393.4999999999993
 21
2100.999999999999
 31
0.0
  0
LINE
  5
252
330
24B
100
AcDbEntity
  8
寸法
  6
CONTINUOUS
 62
     3
100
AcDbLine
 10
503.4999999999993
 20
2100.999999999999
 30
0.0
 11
533.4999999999993
 21
2100.999999999999
 31
0.0
  0
INSERT
  5
253
330
24B
100
AcDbEntity
  8
寸法
 62
     3
100
AcDbBlockReference
  2
EX_NORM
 10
453.4999999999993
 20
2100.999999999999
 30
0.0
 41
30.0
 42
30.0
 43
30.0
  0
INSERT
  5
254
330
24B
100
AcDbEntity
  8
寸法
 62
     3
100
AcDbBlockReference
  2
EX_NORM
 10
473.4999999999993
 20
2100.999999999999
 30
0.0
 41
30.0
 42
30.0
 43
30.0
 50
180.0
  0
MTEXT
  5
255
330
24B
100
AcDbEntity
  8
寸法
 62
     2
100
AcDbMText
 10
388.4999999999994
 20
2124.499999940394
 30
0.0
 40
40.0
 41
0.0
 71
     5
 72
     1
  1
20
  7
EXCADDIM1
  0
POINT
  5
256
330
24B
100
AcDbEntity
  8
DEFPOINTS
 62
     0
100
AcDbPoint
 10
453.4999999999993
 20
2020.999999999999
 30
0.0
  0
POINT
  5
257
330
24B
100
AcDbEntity
  8
DEFPOINTS
 62
     0
100
AcDbPoint
 10
473.4999999999993
 20
2053.499999999999
 30
0.0
  0
POINT
  5
258
330
24B
100
AcDbEntity
  8
DEFPOINTS
 62
     0
100
AcDbPoint
 10
473.4999999999993
 20
2100.999999999999
 30
0.0
  0
ENDBLK
  5
24D
330
24B
100
AcDbEntity
  8
0
100
AcDbBlockEnd
  0
BLOCK
  5
25B
330
25A
100
AcDbEntity
  8
0
100
AcDbBlockBegin
  2
*D16
 70
     1
 10
0.0
 20
0.0
 30
0.0
  3
*D16
  1

  0
LINE
  5
25D
330
25A
100
AcDbEntity
  8
寸法
  6
CONTINUOUS
 62
     3
100
AcDbLine
 10
978.4999999999993
 20
2060.49999988079
 30
0.0
 11
978.4999999999993
 21
2110.999999999999
 31
0.0
  0
LINE
  5
25E
330
25A
100
AcDbEntity
  8
寸法
  6
CONTINUOUS
 62
     3
100
AcDbLine
 10
1053.499999999999
 20
2027.99999988079
 30
0.0
 11
1053.499999999999
 21
2110.999999999999
 31
0.0
  0
LINE
  5
25F
330
25A
100
AcDbEntity
  8
寸法
  6
CONTINUOUS
 62
     3
100
AcDbLine
 10
1008.499999999999
 20
2100.999999999999
 30
0.0
 11
1023.499999999999
 21
2100.999999999999
 31
0.0
  0
INSERT
  5
260
330
25A
100
AcDbEntity
  8
寸法
 62
     3
100
AcDbBlockReference
  2
EX_NORM
 10
978.4999999999993
 20
2100.999999999999
 30
0.0
 41
30.0
 42
30.0
 43
30.0
 50
180.0
  0
INSERT
  5
261
330
25A
100
AcDbEntity
  8
寸法
 62
     3
100
AcDbBlockReference
  2
EX_NORM
 10
1053.499999999999
 20
2100.999999999999
 30
0.0
 41
30.0
 42
30.0
 43
30.0
  0
MTEXT
  5
262
330
25A
100
AcDbEntity
  8
寸法
 62
     2
100
AcDbMText
 10
1118.5
 20
2124.499999940394
 30
0.0
 40
40.0
 41
0.0
 71
     5
 72
     1
  1
75
  7
EXCADDIM1
  0
POINT
  5
263
330
25A
100
AcDbEntity
  8
DEFPOINTS
 62
     0
100
AcDbPoint
 10
978.4999999999993
 20
2053.499999999999
 30
0.0
  0
POINT
  5
264
330
25A
100
AcDbEntity
  8
DEFPOINTS
 62
     0
100
AcDbPoint
 10
1053.499999999999
 20
2020.999999999999
 30
0.0
  0
POINT
  5
265
330
25A
100
AcDbEntity
  8
DEFPOINTS
 62
     0
100
AcDbPoint
 10
1053.499999999999
 20
2100.999999999999
 30
0.0
  0
ENDBLK
  5
25C
330
25A
100
AcDbEntity
  8
0
100
AcDbBlockEnd
  0
BLOCK
  5
268
330
267
100
AcDbEntity
  8
0
100
AcDbBlockBegin
  2
*D17
 70
     1
 10
0.0
 20
0.0
 30
0.0
  3
*D17
  1

  0
LINE
  5
26A
330
267
100
AcDbEntity
  8
寸法
  6
CONTINUOUS
 62
     3
100
AcDbLine
 10
1523.499999999999
 20
1492.99999988079
 30
0.0
 11
1523.499999999999
 21
1569.999999999999
 31
0.0
  0
LINE
  5
26B
330
267
100
AcDbEntity
  8
寸法
  6
CONTINUOUS
 62
     3
100
AcDbLine
 10
1700.499999999999
 20
1506.99999988079
 30
0.0
 11
1700.499999999999
 21
1569.999999999999
 31
0.0
  0
LINE
  5
26C
330
267
100
AcDbEntity
  8
寸法
  6
CONTINUOUS
 62
     3
100
AcDbLine
 10
1553.499999999999
 20
1559.999999999999
 30
0.0
 11
1670.499999999999
 21
1559.999999999999
 31
0.0
  0
INSERT
  5
26D
330
267
100
AcDbEntity
  8
寸法
 62
     3
100
AcDbBlockReference
  2
EX_NORM
 10
1523.499999999999
 20
1559.999999999999
 30
0.0
 41
30.0
 42
30.0
 43
30.0
 50
180.0
  0
INSERT
  5
26E
330
267
100
AcDbEntity
  8
寸法
 62
     3
100
AcDbBlockReference
  2
EX_NORM
 10
1700.499999999999
 20
1559.999999999999
 30
0.0
 41
30.0
 42
30.0
 43
30.0
  0
MTEXT
  5
26F
330
267
100
AcDbEntity
  8
寸法
 62
     2
100
AcDbMText
 10
1611.999999999999
 20
1583.499999940394
 30
0.0
 40
40.0
 41
0.0
 71
     5
 72
     1
  1
177
  7
EXCADDIM1
  0
POINT
  5
270
330
267
100
AcDbEntity
  8
DEFPOINTS
 62
     0
100
AcDbPoint
 10
1523.499999999999
 20
1485.999999999999
 30
0.0
  0
POINT
  5
271
330
267
100
AcDbEntity
  8
DEFPOINTS
 62
     0
100
AcDbPoint
 10
1700.499999999999
 20
1499.999999999999
 30
0.0
  0
POINT
  5
272
330
267
100
AcDbEntity
  8
DEFPOINTS
 62
     0
100
AcDbPoint
 10
1700.499999999999
 20
1559.999999999999
 30
0.0
  0
ENDBLK
  5
269
330
267
100
AcDbEntity
  8
0
100
AcDbBlockEnd
  0
BLOCK
  5
277
330
276
100
AcDbEntity
  8
0
100
AcDbBlockBegin
  2
*D18
 70
     1
 10
0.0
 20
0.0
 30
0.0
  3
*D18
  1

  0
LINE
  5
279
330
276
100
AcDbEntity
  8
寸法
  6
CONTINUOUS
 62
     3
100
AcDbLine
 10
1739.99999988079
 20
819.9999999999991
 30
0.0
 11
1801.999999999999
 21
819.9999999999992
 31
0.0
  0
LINE
  5
27A
330
276
100
AcDbEntity
  8
寸法
  6
CONTINUOUS
 62
     3
100
AcDbLine
 10
1739.99999988079
 20
1319.999999999999
 30
0.0
 11
1801.999999999999
 21
1319.999999999999
 31
0.0
  0
LINE
  5
27B
330
276
100
AcDbEntity
  8
寸法
  6
CONTINUOUS
 62
     3
100
AcDbLine
 10
1791.999999999999
 20
849.9999999999992
 30
0.0
 11
1791.999999999999
 21
1289.999999999999
 31
0.0
  0
INSERT
  5
27C
330
276
100
AcDbEntity
  8
寸法
 62
     3
100
AcDbBlockReference
  2
EX_NORM
 10
1791.999999999999
 20
819.9999999999992
 30
0.0
 41
30.0
 42
30.0
 43
30.0
 50
270.0
  0
INSERT
  5
27D
330
276
100
AcDbEntity
  8
寸法
 62
     3
100
AcDbBlockReference
  2
EX_NORM
 10
1791.999999999999
 20
1319.999999999999
 30
0.0
 41
30.0
 42
30.0
 43
30.0
 50
90.0
  0
MTEXT
  5
27E
330
276
100
AcDbEntity
  8
寸法
 62
     2
100
AcDbMText
 10
1768.500000059604
 20
1069.999999999999
 30
0.0
 40
40.0
 41
0.0
 71
     5
 72
     1
  1
500
  7
EXCADDIM1
 11
0.0
 21
1.0
 31
0.0
  0
POINT
  5
27F
330
276
100
AcDbEntity
  8
DEFPOINTS
 62
     0
100
AcDbPoint
 10
1732.999999999999
 20
819.9999999999991
 30
0.0
  0
POINT
  5
280
330
276
100
AcDbEntity
  8
DEFPOINTS
 62
     0
100
AcDbPoint
 10
1732.999999999999
 20
1319.999999999999
 30
0.0
  0
POINT
  5
281
330
276
100
AcDbEntity
  8
DEFPOINTS
 62
     0
100
AcDbPoint
 10
1791.999999999999
 20
1319.999999999999
 30
0.0
  0
ENDBLK
  5
278
330
276
100
AcDbEntity
  8
0
100
AcDbBlockEnd
  0
BLOCK
  5
284
330
283
100
AcDbEntity
  8
0
100
AcDbBlockBegin
  2
*D19
 70
     1
 10
0.0
 20
0.0
 30
0.0
  3
*D19
  1

  0
LINE
  5
286
330
283
100
AcDbEntity
  8
寸法
  6
CONTINUOUS
 62
     3
100
AcDbLine
 10
1577.000000000001
 20
641.9999998807898
 30
0.0
 11
1577.000000000001
 21
729.9999999999991
 31
0.0
  0
LINE
  5
287
330
283
100
AcDbEntity
  8
寸法
  6
CONTINUOUS
 62
     3
100
AcDbLine
 10
1607.000000000001
 20
719.9999999999991
 30
0.0
 11
1670.5
 21
719.9999999999991
 31
0.0
  0
INSERT
  5
288
330
283
100
AcDbEntity
  8
寸法
 62
     3
100
AcDbBlockReference
  2
EX_NORM
 10
1577.000000000001
 20
719.9999999999991
 30
0.0
 41
30.0
 42
30.0
 43
30.0
 50
180.0
  0
INSERT
  5
289
330
283
100
AcDbEntity
  8
寸法
 62
     3
100
AcDbBlockReference
  2
EX_NORM
 10
1700.5
 20
719.9999999999991
 30
0.0
 41
30.0
 42
30.0
 43
30.0
  0
MTEXT
  5
28A
330
283
100
AcDbEntity
  8
寸法
 62
     2
100
AcDbMText
 10
1497.000000000001
 20
743.4999999403944
 30
0.0
 40
40.0
 41
0.0
 71
     5
 72
     1
  1
124
  7
EXCADDIM1
  0
POINT
  5
28B
330
283
100
AcDbEntity
  8
DEFPOINTS
 62
     0
100
AcDbPoint
 10
1577.000000000001
 20
634.9999999999991
 30
0.0
  0
POINT
  5
28C
330
283
100
AcDbEntity
  8
DEFPOINTS
 62
     0
100
AcDbPoint
 10
1700.5
 20
645.9999999999991
 30
0.0
  0
POINT
  5
28D
330
283
100
AcDbEntity
  8
DEFPOINTS
 62
     0
100
AcDbPoint
 10
1700.5
 20
719.9999999999991
 30
0.0
  0
ENDBLK
  5
285
330
283
100
AcDbEntity
  8
0
100
AcDbBlockEnd
  0
BLOCK
  5
294
330
293
100
AcDbEntity
  8
0
100
AcDbBlockBegin
  2
*D20
 70
     1
 10
0.0
 20
0.0
 30
0.0
  3
*D20
  1

  0
LINE
  5
296
330
293
100
AcDbEntity
  8
寸法
  6
CONTINUOUS
 62
     3
100
AcDbLine
 10
453.4999999999993
 20
1498.99999988079
 30
0.0
 11
453.4999999999993
 21
1569.999999999999
 31
0.0
  0
LINE
  5
297
330
293
100
AcDbEntity
  8
寸法
  6
CONTINUOUS
 62
     3
100
AcDbLine
 10
1053.499999999999
 20
1498.99999988079
 30
0.0
 11
1053.499999999999
 21
1569.999999999999
 31
0.0
  0
LINE
  5
298
330
293
100
AcDbEntity
  8
寸法
  6
CONTINUOUS
 62
     3
100
AcDbLine
 10
483.4999999999993
 20
1559.999999999999
 30
0.0
 11
1023.499999999999
 21
1559.999999999999
 31
0.0
  0
INSERT
  5
299
330
293
100
AcDbEntity
  8
寸法
 62
     3
100
AcDbBlockReference
  2
EX_NORM
 10
453.4999999999993
 20
1559.999999999999
 30
0.0
 41
30.0
 42
30.0
 43
30.0
 50
180.0
  0
INSERT
  5
29A
330
293
100
AcDbEntity
  8
寸法
 62
     3
100
AcDbBlockReference
  2
EX_NORM
 10
1053.499999999999
 20
1559.999999999999
 30
0.0
 41
30.0
 42
30.0
 43
30.0
  0
MTEXT
  5
29B
330
293
100
AcDbEntity
  8
寸法
 62
     2
100
AcDbMText
 10
753.4999999999994
 20
1583.499999940394
 30
0.0
 40
40.0
 41
0.0
 71
     5
 72
     1
  1
600
  7
EXCADDIM1
  0
POINT
  5
29C
330
293
100
AcDbEntity
  8
DEFPOINTS
 62
     0
100
AcDbPoint
 10
453.4999999999993
 20
1491.999999999999
 30
0.0
  0
POINT
  5
29D
330
293
100
AcDbEntity
  8
DEFPOINTS
 62
     0
100
AcDbPoint
 10
1053.499999999999
 20
1491.999999999999
 30
0.0
  0
POINT
  5
29E
330
293
100
AcDbEntity
  8
DEFPOINTS
 62
     0
100
AcDbPoint
 10
1053.499999999999
 20
1559.999999999999
 30
0.0
  0
ENDBLK
  5
295
330
293
100
AcDbEntity
  8
0
100
AcDbBlockEnd
  0
BLOCK
  5
2A1
330
2A0
100
AcDbEntity
  8
0
100
AcDbBlockBegin
  2
*D21
 70
     1
 10
0.0
 20
0.0
 30
0.0
  3
*D21
  1

  0
LINE
  5
2A3
330
2A0
100
AcDbEntity
  8
寸法
  6
CONTINUOUS
 62
     3
100
AcDbLine
 10
883.4999999999993
 20
1043.000000119208
 30
0.0
 11
883.4999999999993
 21
709.9999999999991
 31
0.0
  0
LINE
  5
2A4
330
2A0
100
AcDbEntity
  8
寸法
  6
CONTINUOUS
 62
     3
100
AcDbLine
 10
913.4999999999993
 20
719.9999999999991
 30
0.0
 11
1023.499999999999
 21
719.9999999999991
 31
0.0
  0
INSERT
  5
2A5
330
2A0
100
AcDbEntity
  8
寸法
 62
     3
100
AcDbBlockReference
  2
EX_NORM
 10
883.4999999999993
 20
719.9999999999991
 30
0.0
 41
30.0
 42
30.0
 43
30.0
 50
180.0
  0
INSERT
  5
2A6
330
2A0
100
AcDbEntity
  8
寸法
 62
     3
100
AcDbBlockReference
  2
EX_NORM
 10
1053.499999999999
 20
719.9999999999991
 30
0.0
 41
30.0
 42
30.0
 43
30.0
  0
MTEXT
  5
2A7
330
2A0
100
AcDbEntity
  8
寸法
 62
     2
100
AcDbMText
 10
968.4999999999993
 20
743.4999999403944
 30
0.0
 40
40.0
 41
0.0
 71
     5
 72
     1
  1
※170
  7
EXCADDIM1
  0
POINT
  5
2A8
330
2A0
100
AcDbEntity
  8
DEFPOINTS
 62
     0
100
AcDbPoint
 10
883.4999999999993
 20
1049.999999999999
 30
0.0
  0
POINT
  5
2A9
330
2A0
100
AcDbEntity
  8
DEFPOINTS
 62
     0
100
AcDbPoint
 10
1053.499999999999
 20
1491.999999999999
 30
0.0
  0
POINT
  5
2AA
330
2A0
100
AcDbEntity
  8
DEFPOINTS
 62
     0
100
AcDbPoint
 10
1053.499999999999
 20
719.9999999999991
 30
0.0
  0
ENDBLK
  5
2A2
330
2A0
100
AcDbEntity
  8
0
100
AcDbBlockEnd
  0
BLOCK
  5
2AD
330
2AC
100
AcDbEntity
  8
0
100
AcDbBlockBegin
  2
*D22
 70
     1
 10
0.0
 20
0.0
 30
0.0
  3
*D22
  1

  0
LINE
  5
2AF
330
2AC
100
AcDbEntity
  8
寸法
  6
CONTINUOUS
 62
     3
100
AcDbLine
 10
1060.49999988079
 20
494.9999999999991
 30
0.0
 11
1300.999999999999
 21
494.9999999999991
 31
0.0
  0
LINE
  5
2B0
330
2AC
100
AcDbEntity
  8
寸法
  6
CONTINUOUS
 62
     3
100
AcDbLine
 10
1052.49999988079
 20
1499.999999999999
 30
0.0
 11
1300.999999999999
 21
1499.999999999999
 31
0.0
  0
LINE
  5
2B1
330
2AC
100
AcDbEntity
  8
寸法
  6
CONTINUOUS
 62
     3
100
AcDbLine
 10
1290.999999999999
 20
524.9999999999991
 30
0.0
 11
1290.999999999999
 21
1469.999999999999
 31
0.0
  0
INSERT
  5
2B2
330
2AC
100
AcDbEntity
  8
寸法
 62
     3
100
AcDbBlockReference
  2
EX_NORM
 10
1290.999999999999
 20
494.9999999999991
 30
0.0
 41
30.0
 42
30.0
 43
30.0
 50
270.0
  0
INSERT
  5
2B3
330
2AC
100
AcDbEntity
  8
寸法
 62
     3
100
AcDbBlockReference
  2
EX_NORM
 10
1290.999999999999
 20
1499.999999999999
 30
0.0
 41
30.0
 42
30.0
 43
30.0
 50
90.0
  0
MTEXT
  5
2B4
330
2AC
100
AcDbEntity
  8
寸法
 62
     2
100
AcDbMText
 10
1267.500000059604
 20
997.4999999999986
 30
0.0
 40
40.0
 41
0.0
 71
     5
 72
     1
  1
1005
  7
EXCADDIM1
 11
0.0
 21
1.0
 31
0.0
  0
POINT
  5
2B5
330
2AC
100
AcDbEntity
  8
DEFPOINTS
 62
     0
100
AcDbPoint
 10
1053.499999999999
 20
494.9999999999991
 30
0.0
  0
POINT
  5
2B6
330
2AC
100
AcDbEntity
  8
DEFPOINTS
 62
     0
100
AcDbPoint
 10
1045.499999999999
 20
1499.999999999999
 30
0.0
  0
POINT
  5
2B7
330
2AC
100
AcDbEntity
  8
DEFPOINTS
 62
     0
100
AcDbPoint
 10
1290.999999999999
 20
1499.999999999999
 30
0.0
  0
ENDBLK
  5
2AE
330
2AC
100
AcDbEntity
  8
0
100
AcDbBlockEnd
  0
BLOCK
  5
2BA
330
2B9
100
AcDbEntity
  8
0
100
AcDbBlockBegin
  2
*D23
 70
     1
 10
0.0
 20
0.0
 30
0.0
  3
*D23
  1

  0
LINE
  5
2BC
330
2B9
100
AcDbEntity
  8
寸法
  6
CONTINUOUS
 62
     3
100
AcDbLine
 10
1060.49999988079
 20
494.9999999999991
 30
0.0
 11
1180.999999999999
 21
494.9999999999991
 31
0.0
  0
LINE
  5
2BD
330
2B9
100
AcDbEntity
  8
寸法
  6
CONTINUOUS
 62
     3
100
AcDbLine
 10
1060.49999988079
 20
549.9999999999991
 30
0.0
 11
1180.999999999999
 21
549.9999999999991
 31
0.0
  0
LINE
  5
2BE
330
2B9
100
AcDbEntity
  8
寸法
  6
CONTINUOUS
 62
     3
100
AcDbLine
 10
1170.999999999999
 20
494.9999999999991
 30
0.0
 11
1170.999999999999
 21
549.9999999999991
 31
0.0
  0
LINE
  5
2BF
330
2B9
100
AcDbEntity
  8
寸法
  6
CONTINUOUS
 62
     3
100
AcDbLine
 10
1170.999999999999
 20
464.9999999999991
 30
0.0
 11
1170.999999999999
 21
434.9999999999991
 31
0.0
  0
LINE
  5
2C0
330
2B9
100
AcDbEntity
  8
寸法
  6
CONTINUOUS
 62
     3
100
AcDbLine
 10
1170.999999999999
 20
579.9999999999991
 30
0.0
 11
1170.999999999999
 21
609.9999999999991
 31
0.0
  0
INSERT
  5
2C1
330
2B9
100
AcDbEntity
  8
寸法
 62
     3
100
AcDbBlockReference
  2
EX_NORM
 10
1170.999999999999
 20
494.9999999999991
 30
0.0
 41
30.0
 42
30.0
 43
30.0
 50
90.0
  0
INSERT
  5
2C2
330
2B9
100
AcDbEntity
  8
寸法
 62
     3
100
AcDbBlockReference
  2
EX_NORM
 10
1170.999999999999
 20
549.9999999999991
 30
0.0
 41
30.0
 42
30.0
 43
30.0
 50
270.0
  0
MTEXT
  5
2C3
330
2B9
100
AcDbEntity
  8
寸法
 62
     2
100
AcDbMText
 10
1147.500000059604
 20
614.9999999999989
 30
0.0
 40
40.0
 41
0.0
 71
     5
 72
     1
  1
55
  7
EXCADDIM1
 11
0.0
 21
1.0
 31
0.0
  0
POINT
  5
2C4
330
2B9
100
AcDbEntity
  8
DEFPOINTS
 62
     0
100
AcDbPoint
 10
1053.499999999999
 20
494.9999999999991
 30
0.0
  0
POINT
  5
2C5
330
2B9
100
AcDbEntity
  8
DEFPOINTS
 62
     0
100
AcDbPoint
 10
1053.499999999999
 20
549.9999999999991
 30
0.0
  0
POINT
  5
2C6
330
2B9
100
AcDbEntity
  8
DEFPOINTS
 62
     0
100
AcDbPoint
 10
1170.999999999999
 20
549.9999999999991
 30
0.0
  0
ENDBLK
  5
2BB
330
2B9
100
AcDbEntity
  8
0
100
AcDbBlockEnd
  0
BLOCK
  5
2C9
330
2C8
100
AcDbEntity
  8
0
100
AcDbBlockBegin
  2
*D24
 70
     1
 10
0.0
 20
0.0
 30
0.0
  3
*D24
  1

  0
LINE
  5
2CB
330
2C8
100
AcDbEntity
  8
寸法
  6
CONTINUOUS
 62
     3
100
AcDbLine
 10
1060.49999988079
 20
494.9999999999991
 30
0.0
 11
1240.999999999999
 21
494.9999999999991
 31
0.0
  0
LINE
  5
2CC
330
2C8
100
AcDbEntity
  8
寸法
  6
CONTINUOUS
 62
     3
100
AcDbLine
 10
895.49999988079
 20
1049.999999999999
 30
0.0
 11
1240.999999999999
 21
1049.999999999999
 31
0.0
  0
LINE
  5
2CD
330
2C8
100
AcDbEntity
  8
寸法
  6
CONTINUOUS
 62
     3
100
AcDbLine
 10
1230.999999999999
 20
524.9999999999991
 30
0.0
 11
1230.999999999999
 21
1019.999999999999
 31
0.0
  0
INSERT
  5
2CE
330
2C8
100
AcDbEntity
  8
寸法
 62
     3
100
AcDbBlockReference
  2
EX_NORM
 10
1230.999999999999
 20
494.9999999999991
 30
0.0
 41
30.0
 42
30.0
 43
30.0
 50
270.0
  0
INSERT
  5
2CF
330
2C8
100
AcDbEntity
  8
寸法
 62
     3
100
AcDbBlockReference
  2
EX_NORM
 10
1230.999999999999
 20
1049.999999999999
 30
0.0
 41
30.0
 42
30.0
 43
30.0
 50
90.0
  0
MTEXT
  5
2D0
330
2C8
100
AcDbEntity
  8
寸法
 62
     2
100
AcDbMText
 10
1207.500000059604
 20
772.4999999999986
 30
0.0
 40
40.0
 41
0.0
 71
     5
 72
     1
  1
※555
  7
EXCADDIM1
 11
0.0
 21
1.0
 31
0.0
  0
POINT
  5
2D1
330
2C8
100
AcDbEntity
  8
DEFPOINTS
 62
     0
100
AcDbPoint
 10
1053.499999999999
 20
494.9999999999991
 30
0.0
  0
POINT
  5
2D2
330
2C8
100
AcDbEntity
  8
DEFPOINTS
 62
     0
100
AcDbPoint
 10
888.4999999999993
 20
1049.999999999999
 30
0.0
  0
POINT
  5
2D3
330
2C8
100
AcDbEntity
  8
DEFPOINTS
 62
     0
100
AcDbPoint
 10
1230.999999999999
 20
1049.999999999999
 30
0.0
  0
ENDBLK
  5
2CA
330
2C8
100
AcDbEntity
  8
0
100
AcDbBlockEnd
  0
BLOCK
  5
2D6
330
2D5
100
AcDbEntity
  8
0
100
AcDbBlockBegin
  2
*D25
 70
     1
 10
0.0
 20
0.0
 30
0.0
  3
*D25
  1

  0
LINE
  5
2D8
330
2D5
100
AcDbEntity
  8
寸法
  6
CONTINUOUS
 62
     3
100
AcDbLine
 10
1670.5
 20
488.0000001192084
 30
0.0
 11
1670.5
 21
404.9999999999991
 31
0.0
  0
LINE
  5
2D9
330
2D5
100
AcDbEntity
  8
寸法
  6
CONTINUOUS
 62
     3
100
AcDbLine
 10
1700.5
 20
488.0000001192084
 30
0.0
 11
1700.5
 21
404.9999999999991
 31
0.0
  0
LINE
  5
2DA
330
2D5
100
AcDbEntity
  8
寸法
  6
CONTINUOUS
 62
     3
100
AcDbLine
 10
1670.5
 20
414.9999999999991
 30
0.0
 11
1700.5
 21
414.9999999999991
 31
0.0
  0
LINE
  5
2DB
330
2D5
100
AcDbEntity
  8
寸法
  6
CONTINUOUS
 62
     3
100
AcDbLine
 10
1640.5
 20
414.9999999999991
 30
0.0
 11
1610.5
 21
414.9999999999991
 31
0.0
  0
LINE
  5
2DC
330
2D5
100
AcDbEntity
  8
寸法
  6
CONTINUOUS
 62
     3
100
AcDbLine
 10
1730.5
 20
414.9999999999991
 30
0.0
 11
1760.5
 21
414.9999999999991
 31
0.0
  0
INSERT
  5
2DD
330
2D5
100
AcDbEntity
  8
寸法
 62
     3
100
AcDbBlockReference
  2
EX_NORM
 10
1670.5
 20
414.9999999999991
 30
0.0
 41
30.0
 42
30.0
 43
30.0
  0
INSERT
  5
2DE
330
2D5
100
AcDbEntity
  8
寸法
 62
     3
100
AcDbBlockReference
  2
EX_NORM
 10
1700.5
 20
414.9999999999991
 30
0.0
 41
30.0
 42
30.0
 43
30.0
 50
180.0
  0
MTEXT
  5
2DF
330
2D5
100
AcDbEntity
  8
寸法
 62
     2
100
AcDbMText
 10
1605.5
 20
438.4999999403945
 30
0.0
 40
40.0
 41
0.0
 71
     5
 72
     1
  1
30
  7
EXCADDIM1
  0
POINT
  5
2E0
330
2D5
100
AcDbEntity
  8
DEFPOINTS
 62
     0
100
AcDbPoint
 10
1670.5
 20
494.9999999999991
 30
0.0
  0
POINT
  5
2E1
330
2D5
100
AcDbEntity
  8
DEFPOINTS
 62
     0
100
AcDbPoint
 10
1700.5
 20
494.9999999999991
 30
0.0
  0
POINT
  5
2E2
330
2D5
100
AcDbEntity
  8
DEFPOINTS
 62
     0
100
AcDbPoint
 10
1700.5
 20
414.9999999999991
 30
0.0
  0
ENDBLK
  5
2D7
330
2D5
100
AcDbEntity
  8
0
100
AcDbBlockEnd
  0
BLOCK
  5
2E5
330
2E4
100
AcDbEntity
  8
0
100
AcDbBlockBegin
  2
*D26
 70
     1
 10
0.0
 20
0.0
 30
0.0
  3
*D26
  1

  0
LINE
  5
2E7
330
2E4
100
AcDbEntity
  8
寸法
  6
CONTINUOUS
 62
     3
100
AcDbLine
 10
1707.49999988079
 20
494.9999999999991
 30
0.0
 11
1802.000000000001
 21
494.9999999999991
 31
0.0
  0
LINE
  5
2E8
330
2E4
100
AcDbEntity
  8
寸法
  6
CONTINUOUS
 62
     3
100
AcDbLine
 10
1739.99999988079
 20
539.9999999999991
 30
0.0
 11
1802.000000000001
 21
539.9999999999991
 31
0.0
  0
LINE
  5
2E9
330
2E4
100
AcDbEntity
  8
寸法
  6
CONTINUOUS
 62
     3
100
AcDbLine
 10
1792.000000000001
 20
494.9999999999991
 30
0.0
 11
1792.000000000001
 21
539.9999999999991
 31
0.0
  0
LINE
  5
2EA
330
2E4
100
AcDbEntity
  8
寸法
  6
CONTINUOUS
 62
     3
100
AcDbLine
 10
1792.000000000001
 20
464.9999999999991
 30
0.0
 11
1792.000000000001
 21
434.9999999999991
 31
0.0
  0
LINE
  5
2EB
330
2E4
100
AcDbEntity
  8
寸法
  6
CONTINUOUS
 62
     3
100
AcDbLine
 10
1792.000000000001
 20
569.9999999999991
 30
0.0
 11
1792.000000000001
 21
599.9999999999991
 31
0.0
  0
INSERT
  5
2EC
330
2E4
100
AcDbEntity
  8
寸法
 62
     3
100
AcDbBlockReference
  2
EX_NORM
 10
1792.000000000001
 20
494.9999999999991
 30
0.0
 41
30.0
 42
30.0
 43
30.0
 50
90.0
  0
INSERT
  5
2ED
330
2E4
100
AcDbEntity
  8
寸法
 62
     3
100
AcDbBlockReference
  2
EX_NORM
 10
1792.000000000001
 20
539.9999999999991
 30
0.0
 41
30.0
 42
30.0
 43
30.0
 50
270.0
  0
MTEXT
  5
2EE
330
2E4
100
AcDbEntity
  8
寸法
 62
     2
100
AcDbMText
 10
1768.500000059605
 20
429.9999999999977
 30
0.0
 40
40.0
 41
0.0
 71
     5
 72
     1
  1
45
  7
EXCADDIM1
 11
0.0
 21
1.0
 31
0.0
  0
POINT
  5
2EF
330
2E4
100
AcDbEntity
  8
DEFPOINTS
 62
     0
100
AcDbPoint
 10
1700.5
 20
494.9999999999991
 30
0.0
  0
POINT
  5
2F0
330
2E4
100
AcDbEntity
  8
DEFPOINTS
 62
     0
100
AcDbPoint
 10
1733.0
 20
539.9999999999991
 30
0.0
  0
POINT
  5
2F1
330
2E4
100
AcDbEntity
  8
DEFPOINTS
 62
     0
100
AcDbPoint
 10
1792.000000000001
 20
539.9999999999991
 30
0.0
  0
ENDBLK
  5
2E6
330
2E4
100
AcDbEntity
  8
0
100
AcDbBlockEnd
  0
BLOCK
  5
2F4
330
2F3
100
AcDbEntity
  8
0
100
AcDbBlockBegin
  2
*D27
 70
     1
 10
0.0
 20
0.0
 30
0.0
  3
*D27
  1

  0
LINE
  5
2F6
330
2F3
100
AcDbEntity
  8
寸法
  6
CONTINUOUS
 62
     3
100
AcDbLine
 10
1739.99999988079
 20
539.9999999999991
 30
0.0
 11
1801.999999999999
 21
539.9999999999991
 31
0.0
  0
LINE
  5
2F7
330
2F3
100
AcDbEntity
  8
寸法
  6
CONTINUOUS
 62
     3
100
AcDbLine
 10
1739.99999988079
 20
819.9999999999991
 30
0.0
 11
1801.999999999999
 21
819.9999999999991
 31
0.0
  0
LINE
  5
2F8
330
2F3
100
AcDbEntity
  8
寸法
  6
CONTINUOUS
 62
     3
100
AcDbLine
 10
1791.999999999999
 20
569.9999999999991
 30
0.0
 11
1791.999999999999
 21
789.9999999999991
 31
0.0
  0
INSERT
  5
2F9
330
2F3
100
AcDbEntity
  8
寸法
 62
     3
100
AcDbBlockReference
  2
EX_NORM
 10
1791.999999999999
 20
539.9999999999991
 30
0.0
 41
30.0
 42
30.0
 43
30.0
 50
270.0
  0
INSERT
  5
2FA
330
2F3
100
AcDbEntity
  8
寸法
 62
     3
100
AcDbBlockReference
  2
EX_NORM
 10
1791.999999999999
 20
819.9999999999991
 30
0.0
 41
30.0
 42
30.0
 43
30.0
 50
90.0
  0
MTEXT
  5
2FB
330
2F3
100
AcDbEntity
  8
寸法
 62
     2
100
AcDbMText
 10
1768.500000059604
 20
679.9999999999986
 30
0.0
 40
40.0
 41
0.0
 71
     5
 72
     1
  1
280
  7
EXCADDIM1
 11
0.0
 21
1.0
 31
0.0
  0
POINT
  5
2FC
330
2F3
100
AcDbEntity
  8
DEFPOINTS
 62
     0
100
AcDbPoint
 10
1732.999999999999
 20
539.9999999999991
 30
0.0
  0
POINT
  5
2FD
330
2F3
100
AcDbEntity
  8
DEFPOINTS
 62
     0
100
AcDbPoint
 10
1732.999999999999
 20
819.9999999999991
 30
0.0
  0
POINT
  5
2FE
330
2F3
100
AcDbEntity
  8
DEFPOINTS
 62
     0
100
AcDbPoint
 10
1791.999999999999
 20
819.9999999999991
 30
0.0
  0
ENDBLK
  5
2F5
330
2F3
100
AcDbEntity
  8
0
100
AcDbBlockEnd
  0
ENDSEC
  0
SECTION
  2
ENTITIES
  0
TEXT
  5
A8
330
1F
100
AcDbEntity
  8
枠_表
  6
CONTINUOUS
 62
     2
100
AcDbText
 10
1890.5371094
 20
302.7227782999989
 30
0.0
 40
30.0
  1
１
 41
1.101333404541018
  7
EXCADSTD
 72
     5
 11
1914.137110925879
 21
302.7227782999989
 31
0.0
100
AcDbText
  0
TEXT
  5
A9
330
1F
100
AcDbEntity
  8
枠_表
  6
CONTINUOUS
 62
     2
100
AcDbText
 10
202.4999999999993
 20
308.7499999999991
 30
0.0
 40
42.5
  1
製図
 41
1.509694117647058
  7
EXCADSTD
 72
     5
 11
303.3259999999992
 21
308.7499999999991
 31
0.0
100
AcDbText
  0
TEXT
  5
AA
330
1F
100
AcDbEntity
  8
枠_表
  6
CONTINUOUS
 62
     2
100
AcDbText
 10
357.4999999999993
 20
308.7499999999991
 30
0.0
 40
42.5
  1
写図
 41
1.509694117647058
  7
EXCADSTD
 72
     5
 11
458.3259999999992
 21
308.7499999999991
 31
0.0
100
AcDbText
  0
TEXT
  5
AB
330
1F
100
AcDbEntity
  8
枠_表
  6
CONTINUOUS
 62
     2
100
AcDbText
 10
507.4999999999993
 20
308.7499999999991
 30
0.0
 40
42.5
  1
検図
 41
1.303826737967914
  7
EXCADSTD
 72
     5
 11
594.5769999999993
 21
308.7499999999991
 31
0.0
100
AcDbText
  0
TEXT
  5
AC
330
1F
100
AcDbEntity
  8
枠_表
  6
CONTINUOUS
 62
     2
100
AcDbText
 10
637.4999999999993
 20
308.7499999999991
 30
0.0
 40
42.5
  1
承認
 41
1.303826737967914
  7
EXCADSTD
 72
     5
 11
724.5769999999993
 21
308.7499999999991
 31
0.0
100
AcDbText
  0
TEXT
  5
AD
330
1F
100
AcDbEntity
  8
枠_表
  6
CONTINUOUS
 62
     2
100
AcDbText
 10
755.7499999999993
 20
298.7499999999991
 30
0.0
 40
42.5
  1
品
 41
1.12
  7
EXCADSTD
 72
     5
 11
789.7499999999993
 21
298.7499999999991
 31
0.0
100
AcDbText
  0
TEXT
  5
AE
330
1F
100
AcDbEntity
  8
枠_表
  6
CONTINUOUS
 62
     2
100
AcDbText
 10
755.7499999999993
 20
248.7499999999991
 30
0.0
 40
42.5
  1
名
 41
1.12
  7
EXCADSTD
 72
     5
 11
789.7499999999993
 21
248.7499999999991
 31
0.0
100
AcDbText
  0
TEXT
  5
AF
330
1F
100
AcDbEntity
  8
枠_表
  6
CONTINUOUS
 62
     2
100
AcDbText
 10
1395.749999999998
 20
298.7499999999991
 30
0.0
 40
42.5
  1
品
 41
1.12
  7
EXCADSTD
 72
     5
 11
1429.749999999998
 21
298.7499999999991
 31
0.0
100
AcDbText
  0
TEXT
  5
B0
330
1F
100
AcDbEntity
  8
枠_表
  6
CONTINUOUS
 62
     2
100
AcDbText
 10
1395.749999999998
 20
248.7499999999991
 30
0.0
 40
42.5
  1
番
 41
1.12
  7
EXCADSTD
 72
     5
 11
1429.749999999998
 21
248.7499999999991
 31
0.0
100
AcDbText
  0
TEXT
  5
B1
330
1F
100
AcDbEntity
  8
枠_表
  6
CONTINUOUS
 62
     2
100
AcDbText
 10
1816.75
 20
298.7499999999991
 30
0.0
 40
42.5
  1
尺
 41
1.12
  7
EXCADSTD
 72
     5
 11
1850.75
 21
298.7499999999991
 31
0.0
100
AcDbText
  0
TEXT
  5
B2
330
1F
100
AcDbEntity
  8
枠_表
  6
CONTINUOUS
 62
     2
100
AcDbText
 10
1816.75
 20
248.7499999999991
 30
0.0
 40
42.5
  1
度
 41
1.12
  7
EXCADSTD
 72
     5
 11
1850.75
 21
248.7499999999991
 31
0.0
100
AcDbText
  0
TEXT
  5
B3
330
1F
100
AcDbEntity
  8
枠_表
  6
CONTINUOUS
 62
     2
100
AcDbText
 10
1395.749999999998
 20
185.7499999999986
 30
0.0
 40
42.5
  1
図
 41
1.12
  7
EXCADSTD
 72
     5
 11
1429.749999999998
 21
185.7499999999986
 31
0.0
100
AcDbText
  0
TEXT
  5
B4
330
1F
100
AcDbEntity
  8
枠_表
  6
CONTINUOUS
 62
     2
100
AcDbText
 10
1395.749999999998
 20
142.7499999999986
 30
0.0
 40
42.5
  1
番
 41
1.12
  7
EXCADSTD
 72
     5
 11
1429.749999999998
 21
142.7499999999986
 31
0.0
100
AcDbText
  0
TEXT
  5
B5
330
1F
100
AcDbEntity
  8
枠_表
  6
CONTINUOUS
 62
     2
100
AcDbText
 10
1931.2792969
 20
258.3488463999988
 30
0.0
 40
30.0
  1
１０
 41
1.098531286290486
  7
EXCADSTD
 72
     5
 11
1983.067200396552
 21
258.3488463999988
 31
0.0
100
AcDbText
  0
LINE
  5
B6
330
1F
100
AcDbEntity
  8
枠_表
  6
CONTINUOUS
 62
     7
100
AcDbLine
 10
179.9999999999993
 20
134.9999999999991
 30
0.0
 11
2000.0
 21
134.9999999999991
 31
0.0
  0
LINE
  5
B7
330
1F
100
AcDbEntity
  8
枠_表
  6
CONTINUOUS
 62
     7
100
AcDbLine
 10
2000.0
 20
134.9999999999991
 30
0.0
 11
2000.0
 21
2884.999999999999
 31
0.0
  0
LINE
  5
B8
330
1F
100
AcDbEntity
  8
枠_表
  6
CONTINUOUS
 62
     7
100
AcDbLine
 10
179.9999999999993
 20
134.9999999999991
 30
0.0
 11
179.9999999999993
 21
2884.999999999999
 31
0.0
  0
LINE
  5
B9
330
1F
100
AcDbEntity
  8
枠_表
  6
CONTINUOUS
 62
     7
100
AcDbLine
 10
179.9999999999993
 20
2884.999999999999
 30
0.0
 11
2000.0
 21
2884.999999999999
 31
0.0
  0
LINE
  5
BA
330
1F
100
AcDbEntity
  8
枠_表
  6
CONTINUOUS
 62
     7
100
AcDbLine
 10
179.9999999999993
 20
354.9999999999991
 30
0.0
 11
2000.0
 21
354.9999999999991
 31
0.0
  0
LINE
  5
BB
330
1F
100
AcDbEntity
  8
枠_表
  6
CONTINUOUS
 62
     6
100
AcDbLine
 10
2000.0
 20
234.9999999999991
 30
0.0
 11
749.9999999999993
 21
234.9999999999991
 31
0.0
  0
LINE
  5
BC
330
1F
100
AcDbEntity
  8
枠_表
  6
CONTINUOUS
 62
     6
100
AcDbLine
 10
1860.0
 20
354.9999999999991
 30
0.0
 11
1860.0
 21
234.9999999999991
 31
0.0
  0
LINE
  5
BD
330
1F
100
AcDbEntity
  8
枠_表
  6
CONTINUOUS
 62
     6
100
AcDbLine
 10
1810.0
 20
354.9999999999991
 30
0.0
 11
1810.0
 21
234.9999999999991
 31
0.0
  0
LINE
  5
BE
330
1F
100
AcDbEntity
  8
枠_表
  6
CONTINUOUS
 62
     6
100
AcDbLine
 10
1440.0
 20
354.9999999999991
 30
0.0
 11
1440.0
 21
134.9999999999991
 31
0.0
  0
LINE
  5
BF
330
1F
100
AcDbEntity
  8
枠_表
  6
CONTINUOUS
 62
     6
100
AcDbLine
 10
1390.0
 20
354.9999999999991
 30
0.0
 11
1390.0
 21
134.9999999999991
 31
0.0
  0
LINE
  5
C0
330
1F
100
AcDbEntity
  8
枠_表
  6
CONTINUOUS
 62
     6
100
AcDbLine
 10
799.9999999999993
 20
354.9999999999991
 30
0.0
 11
799.9999999999993
 21
234.9999999999991
 31
0.0
  0
LINE
  5
C1
330
1F
100
AcDbEntity
  8
枠_表
  6
CONTINUOUS
 62
     6
100
AcDbLine
 10
749.9999999999993
 20
354.9999999999991
 30
0.0
 11
749.9999999999993
 21
134.9999999999991
 31
0.0
  0
LINE
  5
C2
330
1F
100
AcDbEntity
  8
枠_表
  6
CONTINUOUS
 62
     6
100
AcDbLine
 10
619.9999999999993
 20
354.9999999999991
 30
0.0
 11
619.9999999999993
 21
134.9999999999991
 31
0.0
  0
LINE
  5
C3
330
1F
100
AcDbEntity
  8
枠_表
  6
CONTINUOUS
 62
     6
100
AcDbLine
 10
489.9999999999993
 20
354.9999999999991
 30
0.0
 11
489.9999999999993
 21
134.9999999999991
 31
0.0
  0
LINE
  5
C4
330
1F
100
AcDbEntity
  8
枠_表
  6
CONTINUOUS
 62
     6
100
AcDbLine
 10
334.9999999999993
 20
354.9999999999991
 30
0.0
 11
334.9999999999993
 21
134.9999999999991
 31
0.0
  0
LINE
  5
C5
330
1F
100
AcDbEntity
  8
枠_表
  6
CONTINUOUS
 62
     6
100
AcDbLine
 10
179.9999999999993
 20
304.9999999999991
 30
0.0
 11
749.9999999999993
 21
304.9999999999991
 31
0.0
  0
LINE
  5
C6
330
1F
100
AcDbEntity
  8
枠_表
  6
CONTINUOUS
 62
     6
100
AcDbLine
 10
1892.653808599998
 20
258.0029296999987
 30
0.0
 11
1969.9938965
 21
336.6998290999986
 31
0.0
  0
CIRCLE
  5
C7
330
1F
100
AcDbEntity
  8
枠_表
  6
CONTINUOUS
 62
     6
100
AcDbCircle
 10
229.9999999999993
 20
159.9999999999991
 30
0.0
 40
1.0000002
  0
CIRCLE
  5
C8
330
1F
100
AcDbEntity
  8
枠_表
  6
CONTINUOUS
 62
     6
100
AcDbCircle
 10
279.9999999999993
 20
159.9999999999991
 30
0.0
 40
1.0000002
  0
CIRCLE
  5
C9
330
1F
100
AcDbEntity
  8
枠_表
  6
CONTINUOUS
 62
     6
100
AcDbCircle
 10
384.9999999999993
 20
159.9999999999991
 30
0.0
 40
1.0000002
  0
CIRCLE
  5
CA
330
1F
100
AcDbEntity
  8
枠_表
  6
CONTINUOUS
 62
     6
100
AcDbCircle
 10
434.9999999999993
 20
159.9999999999991
 30
0.0
 40
1.0000002
  0
LINE
  5
CB
330
1F
100
AcDbEntity
  8
枠_表
  6
EXLTYPE2
 62
     6
100
AcDbLine
 10
179.9999999999993
 20
184.9999999999991
 30
0.0
 11
489.9999999999993
 21
184.9999999999991
 31
0.0
  0
TEXT
  5
CC
330
1F
100
AcDbEntity
  8
枠_表
  6
CONTINUOUS
 62
     2
100
AcDbText
 10
207.4999999999938
 20
219.9999999999991
 30
0.0
 40
50.0
  1
中村
 41
1.224910909090909
  7
EXCADSTD
 72
     5
 11
303.7429999999938
 21
219.9999999999991
 31
0.0
100
AcDbText
  0
TEXT
  5
CD
330
1F
100
AcDbEntity
  8
枠_表
  6
CONTINUOUS
 62
     2
100
AcDbText
 10
184.4999998999994
 20
139.9999999999991
 30
0.0
 40
40.0
  1
10
 41
0.454054054054054
  7
EXCADSTD
 72
     5
 11
216.4999998999994
 21
139.9999999999991
 31
0.0
100
AcDbText
  0
TEXT
  5
CE
330
1F
100
AcDbEntity
  8
枠_表
  6
CONTINUOUS
 62
     2
100
AcDbText
 10
243.7499999999993
 20
139.9999999999991
 30
0.0
 40
40.0
  1
8
 41
0.4516544117647059
  7
EXCADSTD
 72
     5
 11
258.3749999999993
 21
139.9999999999991
 31
0.0
100
AcDbText
  0
TEXT
  5
CF
330
1F
100
AcDbEntity
  8
枠_表
  6
CONTINUOUS
 62
     2
100
AcDbText
 10
288.0000000999991
 20
139.9999999999991
 30
0.0
 40
40.0
  1
27
 41
0.454054054054054
  7
EXCADSTD
 72
     5
 11
320.0000000999991
 21
139.9999999999991
 31
0.0
100
AcDbText
  0
TEXT
  5
D0
330
1F
100
AcDbEntity
  8
枠_表
  6
CONTINUOUS
 62
     2
100
AcDbText
 10
1450.0
 20
294.9999999999991
 30
0.0
 40
50.0
  1
ＬＵＭ６０１ＳＫＨ(Ｓ)
 41
0.6794117647058826
  7
EXCADSTD
 72
     5
 11
1780.0
 21
294.9999999999991
 31
0.0
100
AcDbText
  0
TEXT
  5
D1
330
1F
100
AcDbEntity
  8
枠_表
  6
CONTINUOUS
 62
     2
100
AcDbText
 10
1450.0
 20
244.9999999999991
 30
0.0
 40
50.0
  1
ＬＵＭ６０１ＳＫ(Ｓ)
 41
0.6774193548387099
  7
EXCADSTD
 72
     5
 11
1750.0
 21
244.9999999999991
 31
0.0
100
AcDbText
  0
TEXT
  5
D2
330
1F
100
AcDbEntity
  8
枠_表
  6
CONTINUOUS
 62
     2
100
AcDbText
 10
809.9999999999993
 20
294.9999999999991
 30
0.0
 40
50.0
  1
600㎜幅  化粧鏡台
 41
0.9485507246376813
  7
EXCADSTD
 72
     5
 11
1277.499999999999
 21
294.9999999999991
 31
0.0
100
AcDbText
  0
TEXT
  5
D3
330
1F
100
AcDbEntity
  8
枠_表
  6
CONTINUOUS
 62
     2
100
AcDbText
 10
809.9999999999993
 20
244.9999999999991
 30
0.0
 40
50.0
  1
（ショートタイプ）
 41
1.307547169811321
  7
EXCADSTD
 72
     5
 11
1304.999999999999
 21
244.9999999999991
 31
0.0
100
AcDbText
  0
TEXT
  5
D4
330
1F
100
AcDbEntity
  8
枠_表
  6
CONTINUOUS
 62
     2
100
AcDbText
 10
994.9999999999993
 20
2759.999999999999
 30
0.0
 40
40.0
  1
本体
 41
1.195746363636364
  7
EXCADSTD
 72
     5
 11
1070.161199999999
 21
2759.999999999999
 31
0.0
100
AcDbText
  0
TEXT
  5
D5
330
1F
100
AcDbEntity
  8
枠_表
  6
CONTINUOUS
 62
     2
100
AcDbText
 10
994.9999999999993
 20
2659.999999999999
 30
0.0
 40
40.0
  1
照明器具
 41
1.18695652173913
  7
EXCADSTD
 72
     5
 11
1150.999999999999
 21
2659.999999999999
 31
0.0
100
AcDbText
  0
TEXT
  5
D6
330
1F
100
AcDbEntity
  8
枠_表
  6
CONTINUOUS
 62
     2
100
AcDbText
 10
994.9999999999993
 20
2559.999999999999
 30
0.0
 40
40.0
  1
電源コード
 41
1.164655172413793
  7
EXCADSTD
 72
     5
 11
1187.999999999999
 21
2559.999999999999
 31
0.0
100
AcDbText
  0
TEXT
  5
D7
330
1F
100
AcDbEntity
  8
枠_表
  6
CONTINUOUS
 62
     2
100
AcDbText
 10
994.9999999999993
 20
2709.999999999999
 30
0.0
 40
40.0
  1
鏡
 41
1.26
  7
EXCADSTD
 72
     5
 11
1030.999999999999
 21
2709.999999999999
 31
0.0
100
AcDbText
  0
TEXT
  5
D8
330
1F
100
AcDbEntity
  8
枠_表
  6
CONTINUOUS
 62
     2
100
AcDbText
 10
994.9999999999993
 20
2609.999999999999
 30
0.0
 40
40.0
  1
コンセント
 41
1.164655172413793
  7
EXCADSTD
 72
     5
 11
1187.999999999999
 21
2609.999999999999
 31
0.0
100
AcDbText
  0
TEXT
  5
D9
330
1F
100
AcDbEntity
  8
枠_表
  6
CONTINUOUS
 62
     2
100
AcDbText
 10
989.9999999999993
 20
2809.999999999999
 30
0.0
 40
40.0
  1
化粧鏡台仕様
 41
1.225
  7
EXCADSTD
 72
     5
 11
1234.999999999999
 21
2809.999999999999
 31
0.0
100
AcDbText
  0
LINE
  5
DA
330
1F
100
AcDbEntity
  8
枠_表
  6
CONTINUOUS
 62
     6
100
AcDbLine
 10
989.9999999999993
 20
2804.999999999999
 30
0.0
 11
1949.999999999999
 21
2804.999999999999
 31
0.0
  0
LINE
  5
DB
330
1F
100
AcDbEntity
  8
枠_表
  6
CONTINUOUS
 62
     6
100
AcDbLine
 10
989.9999999999993
 20
2754.999999999999
 30
0.0
 11
1949.999999999999
 21
2754.999999999999
 31
0.0
  0
LINE
  5
DC
330
1F
100
AcDbEntity
  8
枠_表
  6
CONTINUOUS
 62
     6
100
AcDbLine
 10
989.9999999999993
 20
2704.999999999999
 30
0.0
 11
1949.999999999999
 21
2704.999999999999
 31
0.0
  0
LINE
  5
DD
330
1F
100
AcDbEntity
  8
枠_表
  6
CONTINUOUS
 62
     6
100
AcDbLine
 10
989.9999999999993
 20
2654.999999999999
 30
0.0
 11
1949.999999999999
 21
2654.999999999999
 31
0.0
  0
LINE
  5
DE
330
1F
100
AcDbEntity
  8
枠_表
  6
CONTINUOUS
 62
     6
100
AcDbLine
 10
989.9999999999993
 20
2604.999999999999
 30
0.0
 11
1949.999999999999
 21
2604.999999999999
 31
0.0
  0
LINE
  5
DF
330
1F
100
AcDbEntity
  8
枠_表
  6
CONTINUOUS
 62
     6
100
AcDbLine
 10
989.9999999999993
 20
2554.999999999999
 30
0.0
 11
1949.999999999999
 21
2554.999999999999
 31
0.0
  0
LINE
  5
E0
330
1F
100
AcDbEntity
  8
枠_表
  6
CONTINUOUS
 62
     6
100
AcDbLine
 10
989.9999999999993
 20
2504.999999999999
 30
0.0
 11
1949.999999999999
 21
2504.999999999999
 31
0.0
  0
LINE
  5
E1
330
1F
100
AcDbEntity
  8
枠_表
  6
CONTINUOUS
 62
     6
100
AcDbLine
 10
989.9999999999993
 20
2454.999999999999
 30
0.0
 11
1949.999999999999
 21
2454.999999999999
 31
0.0
  0
LINE
  5
E2
330
1F
100
AcDbEntity
  8
枠_表
  6
CONTINUOUS
 62
     6
100
AcDbLine
 10
989.9999999999993
 20
2404.999999999999
 30
0.0
 11
1949.999999999999
 21
2404.999999999999
 31
0.0
  0
LINE
  5
E3
330
1F
100
AcDbEntity
  8
枠_表
  6
CONTINUOUS
 62
     6
100
AcDbLine
 10
989.9999999999993
 20
2354.999999999999
 30
0.0
 11
1949.999999999999
 21
2354.999999999999
 31
0.0
  0
LINE
  5
E4
330
1F
100
AcDbEntity
  8
枠_表
  6
CONTINUOUS
 62
     6
100
AcDbLine
 10
989.9999999999993
 20
2304.999999999999
 30
0.0
 11
1949.999999999999
 21
2304.999999999999
 31
0.0
  0
TEXT
  5
E5
330
1F
100
AcDbEntity
  8
枠_表
  6
CONTINUOUS
 62
     2
100
AcDbText
 10
1244.999999999999
 20
2709.999999999999
 30
0.0
 40
40.0
  1
防湿形
 41
1.225
  7
EXCADSTD
 72
     5
 11
1363.999999999999
 21
2709.999999999999
 31
0.0
100
AcDbText
  0
TEXT
  5
E6
330
1F
100
AcDbEntity
  8
枠_表
  6
CONTINUOUS
 62
     2
100
AcDbText
 10
1244.999999999999
 20
2609.999999999999
 30
0.0
 40
40.0
  1
許容電力：１２００Ｗ（１口）
 41
1.109036144578313
  7
EXCADSTD
 72
     5
 11
1770.999999999999
 21
2609.999999999999
 31
0.0
100
AcDbText
  0
TEXT
  5
E7
330
1F
100
AcDbEntity
  8
枠_表
  6
CONTINUOUS
 62
     2
100
AcDbText
 10
1244.999999999999
 20
2559.999999999999
 30
0.0
 40
40.0
  1
ＶＦＦ　プラグ付（２.０m㎡）
 41
1.003505535055351
  7
EXCADSTD
 72
     5
 11
1762.999999999999
 21
2559.999999999999
 31
0.0
100
AcDbText
  0
TEXT
  5
E8
330
1F
100
AcDbEntity
  8
枠_表
  6
CONTINUOUS
 62
     2
100
AcDbText
 10
1244.999999999999
 20
2759.999999999999
 30
0.0
 40
40.0
  1
合成樹脂（ＨｉＰＳ）
 41
1.121186440677966
  7
EXCADSTD
 72
     5
 11
1622.999999999999
 21
2759.999999999999
 31
0.0
100
AcDbText
  0
TEXT
  5
E9
330
1F
100
AcDbEntity
  8
枠_表
  6
CONTINUOUS
 62
     2
100
AcDbText
 10
994.9999999999993
 20
2509.999999999999
 30
0.0
 40
40.0
  1
歯ブラシ立て
 41
1.15
  7
EXCADSTD
 72
     5
 11
1224.999999999999
 21
2509.999999999999
 31
0.0
100
AcDbText
  0
TEXT
  5
EA
330
1F
100
AcDbEntity
  8
枠_表
  6
CONTINUOUS
 62
     2
100
AcDbText
 10
1244.999999999999
 20
2509.999999999999
 30
0.0
 40
40.0
  1
合成樹脂（ＨｉＰＳ）
 41
1.121186440677966
  7
EXCADSTD
 72
     5
 11
1622.999999999999
 21
2509.999999999999
 31
0.0
100
AcDbText
  0
TEXT
  5
EB
330
1F
100
AcDbEntity
  8
枠_表
  6
CONTINUOUS
 62
     2
100
AcDbText
 10
994.9999999999993
 20
2359.999999999999
 30
0.0
 40
40.0
  1
防曇ヒーター
 41
1.15
  7
EXCADSTD
 72
     5
 11
1224.999999999999
 21
2359.999999999999
 31
0.0
100
AcDbText
  0
TEXT
  5
EC
330
1F
100
AcDbEntity
  8
枠_表
  6
CONTINUOUS
 62
     2
100
AcDbText
 10
1244.999999999999
 20
2460.0
 30
0.0
 40
40.0
  1
スポンジ
 41
1.18695652173913
  7
EXCADSTD
 72
     5
 11
1400.999999999999
 21
2460.0
 31
0.0
100
AcDbText
  0
TEXT
  5
ED
330
1F
100
AcDbEntity
  8
枠_表
  6
CONTINUOUS
 62
     2
100
AcDbText
 10
994.9999999999993
 20
2309.999999999999
 30
0.0
 40
40.0
  1
電源
 41
1.195746363636364
  7
EXCADSTD
 72
     5
 11
1070.161199999999
 21
2309.999999999999
 31
0.0
100
AcDbText
  0
TEXT
  5
EE
330
1F
100
AcDbEntity
  8
枠_表
  6
CONTINUOUS
 62
     2
100
AcDbText
 10
1244.999999999999
 20
2309.999999999999
 30
0.0
 40
40.0
  1
ＡＣ１００Ｖ　５０/６０Ｈｚ
 41
1.044812252964427
  7
EXCADSTD
 72
     5
 11
1748.499999999999
 21
2309.999999999999
 31
0.0
100
AcDbText
  0
TEXT
  5
EF
330
1F
100
AcDbEntity
  8
枠_表
  6
CONTINUOUS
 62
     2
100
AcDbText
 10
994.9999999999993
 20
2409.999999999999
 30
0.0
 40
40.0
  1
取付ねじ
 41
1.18695652173913
  7
EXCADSTD
 72
     5
 11
1150.999999999999
 21
2409.999999999999
 31
0.0
100
AcDbText
  0
TEXT
  5
F0
330
1F
100
AcDbEntity
  8
枠_表
  6
CONTINUOUS
 62
     2
100
AcDbText
 10
1244.999999999999
 20
2410.0
 30
0.0
 40
40.0
  1
化粧キャップ付木ねじ
 41
1.121186440677966
  7
EXCADSTD
 72
     5
 11
1622.999999999999
 21
2410.0
 31
0.0
100
AcDbText
  0
TEXT
  5
F1
330
1F
100
AcDbEntity
  8
枠_表
  6
CONTINUOUS
 62
     2
100
AcDbText
 10
994.9999999999993
 20
2459.999999999999
 30
0.0
 40
40.0
  1
防水テープ
 41
1.164655172413793
  7
EXCADSTD
 72
     5
 11
1187.999999999999
 21
2459.999999999999
 31
0.0
100
AcDbText
  0
LINE
  5
F2
330
1F
100
AcDbEntity
  8
枠_表
  6
CONTINUOUS
 62
     6
100
AcDbLine
 10
989.9999999999993
 20
2304.999999999999
 30
0.0
 11
989.9999999999993
 21
2804.999999999999
 31
0.0
  0
LINE
  5
F3
330
1F
100
AcDbEntity
  8
枠_表
  6
CONTINUOUS
 62
     6
100
AcDbLine
 10
1239.999999999999
 20
2304.999999999999
 30
0.0
 11
1239.999999999999
 21
2804.999999999999
 31
0.0
  0
LINE
  5
F4
330
1F
100
AcDbEntity
  8
枠_表
  6
CONTINUOUS
 62
     6
100
AcDbLine
 10
1949.999999999999
 20
2304.999999999999
 30
0.0
 11
1949.999999999999
 21
2804.999999999999
 31
0.0
  0
TEXT
  5
F5
330
1F
100
AcDbEntity
  8
枠_表
  6
CONTINUOUS
 62
     2
100
AcDbText
 10
1244.999999999999
 20
2359.999999999999
 30
0.0
 40
40.0
  1
１３Ｗ（ＬＵＭ６０１ＳＫＨ(Ｓ)のみ）
 41
1.056344410876133
  7
EXCADSTD
 72
     5
 11
1910.999999999999
 21
2359.999999999999
 31
0.0
100
AcDbText
  0
TEXT
  5
F6
330
1F
100
AcDbEntity
  8
枠_表
  6
CONTINUOUS
 62
     2
100
AcDbText
 10
1349.999999999999
 20
2219.999999999999
 30
0.0
 40
40.0
  1
・電源コードの取出しは、右
 41
1.111363636363637
  7
EXCADSTD
 72
     5
 11
1838.999999999999
 21
2219.999999999999
 31
0.0
100
AcDbText
  0
TEXT
  5
F7
330
1F
100
AcDbEntity
  8
枠_表
  6
CONTINUOUS
 62
     2
100
AcDbText
 10
1349.999999999999
 20
2179.999999999999
 30
0.0
 40
40.0
  1
　有効コード長さ（参考値）
 41
1.111363636363637
  7
EXCADSTD
 72
     5
 11
1838.999999999999
 21
2179.999999999999
 31
0.0
100
AcDbText
  0
TEXT
  5
F8
330
1F
100
AcDbEntity
  8
枠_表
  6
CONTINUOUS
 62
     2
100
AcDbText
 10
1349.999999999999
 20
2139.999999999999
 30
0.0
 40
40.0
  1
　　右取出し：１６００㎜
 41
1.114084507042254
  7
EXCADSTD
 72
     5
 11
1801.999999999999
 21
2139.999999999999
 31
0.0
100
AcDbText
  0
TEXT
  5
F9
330
1F
100
AcDbEntity
  8
枠_表
  6
CONTINUOUS
 62
     2
100
AcDbText
 10
1349.999999999999
 20
2099.999999999999
 30
0.0
 40
40.0
  1
・※付の寸法は、直結配線の場合の
 41
1.105263157894737
  7
EXCADSTD
 72
     5
 11
1949.999999999999
 21
2099.999999999999
 31
0.0
100
AcDbText
  0
TEXT
  5
FA
330
1F
100
AcDbEntity
  8
枠_表
  6
CONTINUOUS
 62
     2
100
AcDbText
 10
1349.999999999999
 20
2059.999999999999
 30
0.0
 40
40.0
  1
　コード取出位置を示す
 41
1.117307692307692
  7
EXCADSTD
 72
     5
 11
1764.999999999999
 21
2059.999999999999
 31
0.0
100
AcDbText
  0
TEXT
  5
FC
330
1F
100
AcDbEntity
  8
枠_表
  6
CONTINUOUS
 62
     2
100
AcDbText
 10
770.0000000000002
 20
155.0
 30
0.0
 40
45.0
  1
ジャニス工業株式会社
 41
1.025641025641026
  7
EXCADTTF1
 72
     5
 11
1370.0
 21
155.0
 31
0.0
100
AcDbText
  0
LINE
  5
FD
330
1F
100
AcDbEntity
  8
枠_表
  6
EXLTYPE2
 62
     6
100
AcDbLine
 10
180.0
 20
1510.0
 30
0.0
 11
-10.0
 21
1510.0
 31
0.0
  0
TEXT
  5
FE
330
1F
100
AcDbEntity
  8
枠_表
  6
CONTINUOUS
 62
     2
100
AcDbText
 10
931.7
 20
2660.1
 30
0.0
 40
30.0
  1
1
 41
1.034090909090909
  7
EXCADSTD
 72
     5
 11
947.95
 21
2660.1
 31
0.0
100
AcDbText
  0
TEXT
  5
FF
330
1F
100
AcDbEntity
  8
枠_表
  6
CONTINUOUS
 62
     2
100
AcDbText
 10
915.6050311679087
 20
2650.675868430807
 30
0.0
 40
55.0
  1
△
 41
1.321599875710226
  7
EXCADSTD
 72
     5
 11
967.5250262850961
 21
2650.675868430807
 31
0.0
100
AcDbText
  0
LINE
  5
100
330
1F
100
AcDbEntity
  8
枠_表
  6
CONTINUOUS
 62
     6
100
AcDbLine
 10
1255.0
 20
2688.0
 30
0.0
 11
1356.0
 21
2688.0
 31
0.0
  0
LINE
  5
101
330
1F
100
AcDbEntity
  8
枠_表
  6
CONTINUOUS
 62
     6
100
AcDbLine
 10
1255.0
 20
2676.0
 30
0.0
 11
1356.0
 21
2676.0
 31
0.0
  0
TEXT
  5
102
330
1F
100
AcDbEntity
  8
枠_表
  6
CONTINUOUS
 62
     2
100
AcDbText
 10
1245.0
 20
2660.000000000001
 30
0.0
 40
40.0
  1
１３Ｗ １２Ｗ電球型蛍光灯
 41
1.046634615384616
  7
EXCADSTD
 72
     5
 11
1711.5
 21
2660.000000000001
 31
0.0
100
AcDbText
  0
TEXT
  5
103
330
1F
100
AcDbEntity
  8
枠_表
  6
CONTINUOUS
 62
     2
100
AcDbText
 10
264.0141790751261
 20
367.2043700401962
 30
0.0
 40
35.0
  1
消費電力の変更  10-089  H23.1 間瀬
 41
0.5912863070539419
  7
EXCADSTD
 72
     5
 11
739.0141790751261
 21
367.2043700401962
 31
0.0
100
AcDbText
  0
TEXT
  5
104
330
1F
100
AcDbEntity
  8
枠_表
  6
CONTINUOUS
 62
     2
100
AcDbText
 10
193.6050311679087
 20
357.675868430807
 30
0.0
 40
55.0
  1
△
 41
1.321599875710228
  7
EXCADSTD
 72
     5
 11
245.5250262850962
 21
357.675868430807
 31
0.0
100
AcDbText
  0
TEXT
  5
105
330
1F
100
AcDbEntity
  8
枠_表
  6
CONTINUOUS
 62
     2
100
AcDbText
 10
209.7
 20
367.1
 30
0.0
 40
30.0
  1
1
 41
1.034090909090909
  7
EXCADSTD
 72
     5
 11
225.95
 21
367.1
 31
0.0
100
AcDbText
  0
TEXT
  5
106
330
1F
100
AcDbEntity
  8
枠_表
  6
CONTINUOUS
 62
     7
100
AcDbText
 10
1452.00000166893
 20
151.4999999999986
 30
0.0
 40
70.0
  1
ＬＵ９１０７６１
 41
1.140425531914894
  7
EXCADSTD
 72
     5
 11
1988.00000166893
 21
151.4999999999986
 31
0.0
100
AcDbText
  0
LINE
  5
107
330
1F
100
AcDbEntity
  8
鏡台
  6
CONTINUOUS
 62
     2
100
AcDbLine
 10
734.5000000000011
 20
1968.999999999999
 30
0.0
 11
734.5000000000011
 21
1954.999999999999
 31
0.0
  0
LINE
  5
108
330
1F
100
AcDbEntity
  8
鏡台
  6
CONTINUOUS
 62
     2
100
AcDbLine
 10
772.4999999999993
 20
1968.999999999999
 30
0.0
 11
772.4999999999993
 21
1954.999999999999
 31
0.0
  0
LINE
  5
109
330
1F
100
AcDbEntity
  8
鏡台
  6
CONTINUOUS
 62
     2
100
AcDbLine
 10
734.4999999999993
 20
1954.999999999988
 30
0.0
 11
772.4999999999993
 21
1954.999999999988
 31
0.0
  0
LINE
  5
10A
330
1F
100
AcDbEntity
  8
鏡台
  6
CONTINUOUS
 62
     6
100
AcDbLine
 10
730.499999995621
 20
1924.514699677363
 30
0.0
 11
776.4999999956228
 21
1924.514699677363
 31
0.0
  0
LINE
  5
10B
330
1F
100
AcDbEntity
  8
鏡台
  6
CONTINUOUS
 62
     6
100
AcDbLine
 10
779.2999999956221
 20
1914.308819019624
 30
0.0
 11
727.6999999956236
 21
1914.308819019624
 31
0.0
  0
POLYLINE
  5
10C
330
1F
100
AcDbEntity
  8
鏡台
  6
CONTINUOUS
 62
     6
100
AcDb2dPolyline
 66
     1
 10
0.0
 20
0.0
 30
0.0
 70
   128
  0
VERTEX
  5
10D
330
10C
100
AcDbEntity
  8
鏡台
  6
CONTINUOUS
 62
     6
100
AcDbVertex
100
AcDb2dVertex
 10
775.9999999956228
 20
1930.499998033015
 30
0.0
  0
VERTEX
  5
10E
330
10C
100
AcDbEntity
  8
鏡台
  6
CONTINUOUS
 62
     6
100
AcDbVertex
100
AcDb2dVertex
 10
775.9999999956228
 20
1936.999998033016
 30
0.0
  0
SEQEND
  5
10F
330
10C
100
AcDbEntity
  8
鏡台
  6
CONTINUOUS
 62
     6
  0
POLYLINE
  5
110
330
1F
100
AcDbEntity
  8
鏡台
  6
CONTINUOUS
 62
     6
100
AcDb2dPolyline
 66
     1
 10
0.0
 20
0.0
 30
0.0
 70
   128
  0
VERTEX
  5
111
330
110
100
AcDbEntity
  8
鏡台
  6
CONTINUOUS
 62
     6
100
AcDbVertex
100
AcDb2dVertex
 10
730.9999999956228
 20
1936.999998033016
 30
0.0
  0
VERTEX
  5
112
330
110
100
AcDbEntity
  8
鏡台
  6
CONTINUOUS
 62
     6
100
AcDbVertex
100
AcDb2dVertex
 10
730.9999999956228
 20
1930.499998033015
 30
0.0
  0
SEQEND
  5
113
330
110
100
AcDbEntity
  8
鏡台
  6
CONTINUOUS
 62
     6
  0
LINE
  5
114
330
1F
100
AcDbEntity
  8
鏡台
  6
CONTINUOUS
 62
     6
100
AcDbLine
 10
776.4999999956228
 20
1930.499998033015
 30
0.0
 11
730.499999995621
 21
1930.499998033015
 31
0.0
  0
POLYLINE
  5
115
330
1F
100
AcDbEntity
  8
鏡台
  6
CONTINUOUS
 62
     6
100
AcDb2dPolyline
 66
     1
 10
0.0
 20
0.0
 30
0.0
 70
   128
  0
VERTEX
  5
116
330
115
100
AcDbEntity
  8
鏡台
  6
CONTINUOUS
 62
     6
100
AcDbVertex
100
AcDb2dVertex
 10
776.4999999956228
 20
1924.514699677363
 30
0.0
  0
VERTEX
  5
117
330
115
100
AcDbEntity
  8
鏡台
  6
CONTINUOUS
 62
     6
100
AcDbVertex
100
AcDb2dVertex
 10
776.4999999956228
 20
1930.499998033015
 30
0.0
  0
SEQEND
  5
118
330
115
100
AcDbEntity
  8
鏡台
  6
CONTINUOUS
 62
     6
  0
ARC
  5
119
330
1F
100
AcDbEntity
  8
鏡台
  6
CONTINUOUS
 62
     6
100
AcDbCircle
 10
796.4999999956228
 20
1924.514699677363
 30
0.0
 40
19.99999999999999
100
AcDbArc
 50
180.0
 51
210.6834171089936
  0
ARC
  5
11A
330
1F
100
AcDbEntity
  8
鏡台
  6
CONTINUOUS
 62
     6
100
AcDbCircle
 10
710.4999999956228
 20
1924.514699677363
 30
0.0
 40
19.99999999999999
100
AcDbArc
 50
329.3165828910066
 51
0.0
  0
POLYLINE
  5
11B
330
1F
100
AcDbEntity
  8
鏡台
  6
CONTINUOUS
 62
     6
100
AcDb2dPolyline
 66
     1
 10
0.0
 20
0.0
 30
0.0
 70
   128
  0
VERTEX
  5
11C
330
11B
100
AcDbEntity
  8
鏡台
  6
CONTINUOUS
 62
     6
100
AcDbVertex
100
AcDb2dVertex
 10
730.499999995621
 20
1930.499998033015
 30
0.0
  0
VERTEX
  5
11D
330
11B
100
AcDbEntity
  8
鏡台
  6
CONTINUOUS
 62
     6
100
AcDbVertex
100
AcDb2dVertex
 10
730.499999995621
 20
1924.514699677363
 30
0.0
  0
SEQEND
  5
11E
330
11B
100
AcDbEntity
  8
鏡台
  6
CONTINUOUS
 62
     6
  0
ARC
  5
11F
330
1F
100
AcDbEntity
  8
鏡台
  6
CONTINUOUS
 62
     6
100
AcDbCircle
 10
753.4999999956228
 20
1898.999998033017
 30
0.0
 40
30.00000000000002
100
AcDbArc
 50
149.3165828910039
 51
30.68341710897474
  0
POLYLINE
  5
120
330
1F
100
AcDbEntity
  8
鏡台
  6
CONTINUOUS
 62
     6
100
AcDb2dPolyline
 66
     1
 10
0.0
 20
0.0
 30
0.0
 70
   128
  0
VERTEX
  5
121
330
120
100
AcDbEntity
  8
鏡台
  6
CONTINUOUS
 62
     6
100
AcDbVertex
100
AcDb2dVertex
 10
736.5000005966351
 20
1954.999999999969
 30
0.0
  0
VERTEX
  5
122
330
120
100
AcDbEntity
  8
鏡台
  6
CONTINUOUS
 62
     6
100
AcDbVertex
100
AcDb2dVertex
 10
730.9999999956228
 20
1936.999998033016
 30
0.0
  0
SEQEND
  5
123
330
120
100
AcDbEntity
  8
鏡台
  6
CONTINUOUS
 62
     6
  0
POLYLINE
  5
124
330
1F
100
AcDbEntity
  8
鏡台
  6
CONTINUOUS
 62
     6
100
AcDb2dPolyline
 66
     1
 10
0.0
 20
0.0
 30
0.0
 70
   128
  0
VERTEX
  5
125
330
124
100
AcDbEntity
  8
鏡台
  6
CONTINUOUS
 62
     6
100
AcDbVertex
100
AcDb2dVertex
 10
775.9999999956228
 20
1936.999998033016
 30
0.0
  0
VERTEX
  5
126
330
124
100
AcDbEntity
  8
鏡台
  6
CONTINUOUS
 62
     6
100
AcDbVertex
100
AcDb2dVertex
 10
770.4999993946087
 20
1954.999999999969
 30
0.0
  0
SEQEND
  5
127
330
124
100
AcDbEntity
  8
鏡台
  6
CONTINUOUS
 62
     6
  0
LINE
  5
128
330
1F
100
AcDbEntity
  8
鏡台
  6
CONTINUOUS
 62
     6
100
AcDbLine
 10
775.9999999956228
 20
1936.999998033016
 30
0.0
 11
730.9999999956228
 21
1936.999998033016
 31
0.0
  0
ARC
  5
129
330
1F
100
AcDbEntity
  8
鏡台
  6
CONTINUOUS
 62
     2
100
AcDbCircle
 10
753.4999999999993
 20
2032.999999999999
 30
0.0
 40
185.0000000000001
100
AcDbArc
 50
206.3109966473091
 51
333.6890033526913
  0
ARC
  5
12A
330
1F
100
AcDbEntity
  8
鏡台
  6
CONTINUOUS
 62
     2
100
AcDbCircle
 10
753.4999999999993
 20
2032.999999999999
 30
0.0
 40
189.0000000000001
100
AcDbArc
 50
205.7129308458842
 51
334.2870691541158
  0
ARC
  5
12B
330
1F
100
AcDbEntity
  8
鏡台
  6
CONTINUOUS
 62
     2
100
AcDbCircle
 10
978.998949920023
 20
1965.575391621109
 30
0.0
 40
63.50000000000004
100
AcDbArc
 50
284.6885077952481
 51
356.8386196555426
  0
ARC
  5
12C
330
1F
100
AcDbEntity
  8
鏡台
  6
CONTINUOUS
 62
     2
100
AcDbCircle
 10
943.4999999999993
 20
2100.999999999999
 30
0.0
 40
203.5000000000001
100
AcDbArc
 50
255.3114922047528
 51
284.688507795248
  0
ARC
  5
12D
330
1F
100
AcDbEntity
  8
鏡台
  6
CONTINUOUS
 62
     2
100
AcDbCircle
 10
978.998949920023
 20
1965.575391621109
 30
0.0
 40
60.50000000000004
100
AcDbArc
 50
284.6885077952482
 51
356.838619655543
  0
LINE
  5
12E
330
1F
100
AcDbEntity
  8
鏡台
  6
CONTINUOUS
 62
     2
100
AcDbLine
 10
1043.827001102639
 20
1987.867809436796
 30
0.0
 11
1042.402313289803
 21
1962.073461667543
 31
0.0
  0
LINE
  5
12F
330
1F
100
AcDbEntity
  8
鏡台
  6
CONTINUOUS
 62
     2
100
AcDbLine
 10
1039.406878799892
 20
1962.238907177159
 30
0.0
 11
1040.762145642381
 21
1986.7763700096
 31
0.0
  0
ARC
  5
130
330
1F
100
AcDbEntity
  8
鏡台
  6
CONTINUOUS
 62
     2
100
AcDbCircle
 10
934.3730099967227
 20
3306.188919614471
 30
0.0
 40
1400.0
100
AcDbArc
 50
250.0930585355464
 51
255.4644461930923
  0
LINE
  5
131
330
1F
100
AcDbEntity
  8
鏡台
  6
CONTINUOUS
 62
     2
100
AcDbLine
 10
453.4999999999993
 20
2020.999999999999
 30
0.0
 11
454.3874018610015
 21
1994.377944169926
 31
0.0
  0
ARC
  5
132
330
1F
100
AcDbEntity
  8
鏡台
  6
CONTINUOUS
 62
     2
100
AcDbCircle
 10
459.384626395896
 20
1994.54451832109
 30
0.0
 40
5.0
100
AcDbArc
 50
181.9091524329973
 51
250.0930585355482
  0
ARC
  5
133
330
1F
100
AcDbEntity
  8
鏡台
  6
CONTINUOUS
 62
     2
100
AcDbCircle
 10
572.6269900032796
 20
3306.188919614471
 30
0.0
 40
1400.0
100
AcDbArc
 50
284.535553806908
 51
289.9069414644537
  0
LINE
  5
134
330
1F
100
AcDbEntity
  8
鏡台
  6
CONTINUOUS
 62
     2
100
AcDbLine
 10
1052.612598138997
 20
1994.377944169924
 30
0.0
 11
1053.499999999999
 21
2020.999999999999
 31
0.0
  0
ARC
  5
135
330
1F
100
AcDbEntity
  8
鏡台
  6
CONTINUOUS
 62
     2
100
AcDbCircle
 10
1047.615373604101
 20
1994.544518321088
 30
0.0
 40
5.0
100
AcDbArc
 50
289.9069414644522
 51
358.090847567003
  0
LINE
  5
136
330
1F
100
AcDbEntity
  8
鏡台
  6
CONTINUOUS
 62
     2
100
AcDbLine
 10
848.0057952922664
 20
1955.447842369626
 30
0.0
 11
846.9942047077395
 21
1964.552157630374
 31
0.0
  0
LINE
  5
137
330
1F
100
AcDbEntity
  8
鏡台
  6
CONTINUOUS
 62
     2
100
AcDbLine
 10
852.9752139656332
 20
1950.999999999999
 30
0.0
 11
924.0000000000066
 21
1950.999999999999
 31
0.0
  0
ARC
  5
138
330
1F
100
AcDbEntity
  8
鏡台
  6
CONTINUOUS
 62
     2
100
AcDbCircle
 10
852.9752139656332
 20
1955.999999999999
 30
0.0
 40
5.0
100
AcDbArc
 50
186.3401917459164
 51
270.0000000000002
  0
ARC
  5
139
330
1F
100
AcDbEntity
  8
鏡台
  6
CONTINUOUS
 62
     2
100
AcDbCircle
 10
842.0247860343709
 20
1963.999999999999
 30
0.0
 40
5.0
100
AcDbArc
 50
6.340191745915316
 51
90.00000000000004
  0
LINE
  5
13A
330
1F
100
AcDbEntity
  8
鏡台
  6
CONTINUOUS
 62
     2
100
AcDbLine
 10
844.2438029126417
 20
1968.480620949602
 30
0.0
 11
844.5976867101974
 21
1962.073461667543
 31
0.0
  0
LINE
  5
13B
330
1F
100
AcDbEntity
  8
鏡台
  6
CONTINUOUS
 62
     2
100
AcDbLine
 10
664.9752139656296
 20
1968.999999999999
 30
0.0
 11
842.0247860343709
 21
1968.999999999999
 31
0.0
  0
LINE
  5
13C
330
1F
100
AcDbEntity
  8
鏡台
  6
CONTINUOUS
 62
     2
100
AcDbLine
 10
658.9942047077341
 20
1955.447842369626
 30
0.0
 11
660.0057952922627
 21
1964.552157630374
 31
0.0
  0
LINE
  5
13D
330
1F
100
AcDbEntity
  8
鏡台
  6
CONTINUOUS
 62
     2
100
AcDbLine
 10
582.9999999999957
 20
1950.999999999999
 30
0.0
 11
654.0247860343673
 21
1950.999999999999
 31
0.0
  0
ARC
  5
13E
330
1F
100
AcDbEntity
  8
鏡台
  6
CONTINUOUS
 62
     2
100
AcDbCircle
 10
654.0247860343673
 20
1955.999999999999
 30
0.0
 40
5.0
100
AcDbArc
 50
270.0000000000002
 51
353.6598082540934
  0
ARC
  5
13F
330
1F
100
AcDbEntity
  8
鏡台
  6
CONTINUOUS
 62
     2
100
AcDbCircle
 10
664.9752139656296
 20
1963.999999999999
 30
0.0
 40
5.0
100
AcDbArc
 50
90.00000000000004
 51
173.6598082540944
  0
LINE
  5
140
330
1F
100
AcDbEntity
  8
鏡台
  6
CONTINUOUS
 62
     2
100
AcDbLine
 10
453.4999999999993
 20
2020.999999999999
 30
0.0
 11
1053.499999999999
 21
2020.999999999999
 31
0.0
  0
ARC
  5
141
330
1F
100
AcDbEntity
  8
鏡台
  6
CONTINUOUS
 62
     2
100
AcDbCircle
 10
908.0010500799774
 20
1965.575391621109
 30
0.0
 40
60.50000000000004
100
AcDbArc
 50
191.6899169319215
 51
252.4686377378514
  0
ARC
  5
142
330
1F
100
AcDbEntity
  8
鏡台
  6
CONTINUOUS
 62
     2
100
AcDbCircle
 10
908.0010500799774
 20
1965.575391621109
 30
0.0
 40
63.50000000000004
100
AcDbArc
 50
183.1613803444576
 51
251.182248758614
  0
ARC
  5
143
330
1F
100
AcDbEntity
  8
鏡台
  6
CONTINUOUS
 62
     2
100
AcDbCircle
 10
908.0010500799774
 20
1965.575391621109
 30
0.0
 40
63.50000000000004
100
AcDbArc
 50
255.2149600572401
 51
255.3114922047523
  0
ARC
  5
144
330
1F
100
AcDbEntity
  8
鏡台
  6
CONTINUOUS
 62
     2
100
AcDbCircle
 10
943.4999999999993
 20
2100.999999999999
 30
0.0
 40
200.5000000000001
100
AcDbArc
 50
255.7330638439913
 51
284.6885077952481
  0
LINE
  5
145
330
1F
100
AcDbEntity
  8
鏡台
  6
CONTINUOUS
 62
     6
100
AcDbLine
 10
473.4999999999974
 20
2005.999999999998
 30
0.0
 11
473.4999999999993
 21
2068.499999999998
 31
0.0
  0
LINE
  5
146
330
1F
100
AcDbEntity
  8
鏡台
  6
CONTINUOUS
 62
     6
100
AcDbLine
 10
471.4999999999993
 20
2020.999999999998
 30
0.0
 11
473.4999999999993
 21
2053.499999999998
 31
0.0
  0
LINE
  5
147
330
1F
100
AcDbEntity
  8
鏡台
  6
CONTINUOUS
 62
     6
100
AcDbLine
 10
473.4999999999993
 20
2053.499999999998
 30
0.0
 11
475.4999999999993
 21
2020.999999999998
 31
0.0
  0
LINE
  5
148
330
1F
100
AcDbEntity
  8
鏡台
  6
CONTINUOUS
 62
     6
100
AcDbLine
 10
978.4999999999975
 20
2005.999999999998
 30
0.0
 11
978.4999999999993
 21
2068.499999999998
 31
0.0
  0
LINE
  5
149
330
1F
100
AcDbEntity
  8
鏡台
  6
CONTINUOUS
 62
     6
100
AcDbLine
 10
976.4999999999993
 20
2020.999999999998
 30
0.0
 11
978.4999999999993
 21
2053.499999999998
 31
0.0
  0
LINE
  5
14A
330
1F
100
AcDbEntity
  8
鏡台
  6
CONTINUOUS
 62
     6
100
AcDbLine
 10
978.4999999999993
 20
2053.499999999998
 30
0.0
 11
980.4999999999993
 21
2020.999999999998
 31
0.0
  0
LINE
  5
14B
330
1F
100
AcDbEntity
  8
鏡台
  6
CONTINUOUS
 62
     2
100
AcDbLine
 10
453.4999999999993
 20
1389.999999999999
 30
0.0
 11
1053.499999999999
 21
1389.999999999999
 31
0.0
  0
LINE
  5
14C
330
1F
100
AcDbEntity
  8
鏡台
  6
CONTINUOUS
 62
     2
100
AcDbLine
 10
565.9999999999993
 20
628.9999999999991
 30
0.0
 11
565.9999999999993
 21
628.0000000000318
 31
0.0
  0
LINE
  5
14D
330
1F
100
AcDbEntity
  8
鏡台
  6
CONTINUOUS
 62
     2
100
AcDbLine
 10
550.9999999999993
 20
628.9999999999991
 30
0.0
 11
550.9999999999993
 21
628.0000000000318
 31
0.0
  0
ARC
  5
14E
330
1F
100
AcDbEntity
  8
鏡台
  6
CONTINUOUS
 62
     2
100
AcDbCircle
 10
558.4999999999993
 20
628.9999999999991
 30
0.0
 40
7.500000000000006
100
AcDbArc
 50
0.0
 51
180.0
  0
LINE
  5
14F
330
1F
100
AcDbEntity
  8
鏡台
  6
CONTINUOUS
 62
     2
100
AcDbLine
 10
550.9999999999993
 20
628.0000000000318
 30
0.0
 11
565.9999999999993
 21
628.0000000000318
 31
0.0
  0
LINE
  5
150
330
1F
100
AcDbEntity
  8
鏡台
  6
CONTINUOUS
 62
     2
100
AcDbLine
 10
755.9999999999993
 20
628.9999999999991
 30
0.0
 11
755.9999999999993
 21
628.0000000000318
 31
0.0
  0
LINE
  5
151
330
1F
100
AcDbEntity
  8
鏡台
  6
CONTINUOUS
 62
     2
100
AcDbLine
 10
770.9999999999993
 20
628.9999999999991
 30
0.0
 11
770.9999999999993
 21
628.0000000000318
 31
0.0
  0
ARC
  5
152
330
1F
100
AcDbEntity
  8
鏡台
  6
CONTINUOUS
 62
     2
100
AcDbCircle
 10
763.4999999999993
 20
628.9999999999991
 30
0.0
 40
7.500000000000006
100
AcDbArc
 50
0.0
 51
180.0
  0
LINE
  5
153
330
1F
100
AcDbEntity
  8
鏡台
  6
CONTINUOUS
 62
     2
100
AcDbLine
 10
770.9999999999993
 20
628.0000000000318
 30
0.0
 11
755.9999999999993
 21
628.0000000000318
 31
0.0
  0
LINE
  5
154
330
1F
100
AcDbEntity
  8
鏡台
  6
CONTINUOUS
 62
     2
100
AcDbLine
 10
565.9999999999993
 20
1388.999999999999
 30
0.0
 11
565.9999999999993
 21
1389.999999999966
 31
0.0
  0
LINE
  5
155
330
1F
100
AcDbEntity
  8
鏡台
  6
CONTINUOUS
 62
     2
100
AcDbLine
 10
550.9999999999993
 20
1388.999999999999
 30
0.0
 11
550.9999999999993
 21
1389.999999999966
 31
0.0
  0
ARC
  5
156
330
1F
100
AcDbEntity
  8
鏡台
  6
CONTINUOUS
 62
     2
100
AcDbCircle
 10
558.4999999999993
 20
1388.999999999999
 30
0.0
 40
7.500000000000006
100
AcDbArc
 50
180.0
 51
0.0
  0
LINE
  5
157
330
1F
100
AcDbEntity
  8
鏡台
  6
CONTINUOUS
 62
     2
100
AcDbLine
 10
550.9999999999993
 20
1389.999999999966
 30
0.0
 11
565.9999999999993
 21
1389.999999999966
 31
0.0
  0
LINE
  5
158
330
1F
100
AcDbEntity
  8
鏡台
  6
CONTINUOUS
 62
     2
100
AcDbLine
 10
755.9999999999993
 20
1388.999999999999
 30
0.0
 11
755.9999999999993
 21
1389.999999999966
 31
0.0
  0
LINE
  5
159
330
1F
100
AcDbEntity
  8
鏡台
  6
CONTINUOUS
 62
     2
100
AcDbLine
 10
770.9999999999993
 20
1388.999999999999
 30
0.0
 11
770.9999999999993
 21
1389.999999999966
 31
0.0
  0
ARC
  5
15A
330
1F
100
AcDbEntity
  8
鏡台
  6
CONTINUOUS
 62
     2
100
AcDbCircle
 10
763.4999999999993
 20
1388.999999999999
 30
0.0
 40
7.500000000000006
100
AcDbArc
 50
180.0
 51
0.0
  0
LINE
  5
15B
330
1F
100
AcDbEntity
  8
鏡台
  6
CONTINUOUS
 62
     2
100
AcDbLine
 10
770.9999999999993
 20
1389.999999999966
 30
0.0
 11
755.9999999999993
 21
1389.999999999966
 31
0.0
  0
LINE
  5
15C
330
1F
100
AcDbEntity
  8
鏡台
  6
CONTINUOUS
 62
     2
100
AcDbLine
 10
492.6213203435393
 20
630.5000000000309
 30
0.0
 11
490.4999999999793
 21
632.6213203435909
 31
0.0
  0
LINE
  5
15D
330
1F
100
AcDbEntity
  8
鏡台
  6
CONTINUOUS
 62
     2
100
AcDbLine
 10
831.4999999999793
 20
632.6213203435909
 30
0.0
 11
829.3786796564193
 21
630.5000000000309
 31
0.0
  0
LINE
  5
15E
330
1F
100
AcDbEntity
  8
鏡台
  6
CONTINUOUS
 62
     2
100
AcDbLine
 10
490.4999999999793
 20
1386.37867965647
 30
0.0
 11
490.4999999999793
 21
632.6213203435909
 31
0.0
  0
LINE
  5
15F
330
1F
100
AcDbEntity
  8
鏡台
  6
CONTINUOUS
 62
     2
100
AcDbLine
 10
490.4999999999793
 20
1386.37867965647
 30
0.0
 11
492.6213203435393
 21
1388.50000000003
 31
0.0
  0
LINE
  5
160
330
1F
100
AcDbEntity
  8
鏡台
  6
CONTINUOUS
 62
     2
100
AcDbLine
 10
831.4999999999793
 20
1386.37867965647
 30
0.0
 11
831.4999999999793
 21
632.6213203435909
 31
0.0
  0
LINE
  5
161
330
1F
100
AcDbEntity
  8
鏡台
  6
CONTINUOUS
 62
     2
100
AcDbLine
 10
831.4999999999793
 20
1386.37867965647
 30
0.0
 11
829.3786796564193
 21
1388.50000000003
 31
0.0
  0
LINE
  5
162
330
1F
100
AcDbEntity
  8
鏡台
  6
CONTINUOUS
 62
     2
100
AcDbLine
 10
551.0166852264495
 20
1388.50000000003
 30
0.0
 11
492.6213203435393
 21
1388.50000000003
 31
0.0
  0
LINE
  5
163
330
1F
100
AcDbEntity
  8
鏡台
  6
CONTINUOUS
 62
     2
100
AcDbLine
 10
829.3786796564193
 20
1388.50000000003
 30
0.0
 11
770.9833147735492
 21
1388.50000000003
 31
0.0
  0
LINE
  5
164
330
1F
100
AcDbEntity
  8
鏡台
  6
CONTINUOUS
 62
     2
100
AcDbLine
 10
756.0166852264495
 20
1388.50000000003
 30
0.0
 11
565.9833147735492
 21
1388.50000000003
 31
0.0
  0
LINE
  5
165
330
1F
100
AcDbEntity
  8
鏡台
  6
CONTINUOUS
 62
     2
100
AcDbLine
 10
829.3786796564193
 20
630.5000000000309
 30
0.0
 11
770.8484692283412
 21
630.5000000000309
 31
0.0
  0
LINE
  5
166
330
1F
100
AcDbEntity
  8
鏡台
  6
CONTINUOUS
 62
     2
100
AcDbLine
 10
756.1515307716556
 20
630.5000000000309
 30
0.0
 11
565.8484692283412
 21
630.5000000000309
 31
0.0
  0
LINE
  5
167
330
1F
100
AcDbEntity
  8
鏡台
  6
CONTINUOUS
 62
     2
100
AcDbLine
 10
551.1515307716556
 20
630.5000000000309
 30
0.0
 11
492.6213203435393
 21
630.5000000000309
 31
0.0
  0
LINE
  5
168
330
1F
100
AcDbEntity
  8
鏡台
  6
CONTINUOUS
 62
     2
100
AcDbLine
 10
582.9999999999993
 20
1499.999999999999
 30
0.0
 11
582.9999999999993
 21
1389.999999999999
 31
0.0
  0
LINE
  5
169
330
1F
100
AcDbEntity
  8
鏡台
  6
CONTINUOUS
 62
     2
100
AcDbLine
 10
924.000000000003
 20
1499.999999999999
 30
0.0
 11
924.000000000003
 21
1389.999999999999
 31
0.0
  0
LINE
  5
16A
330
1F
100
AcDbEntity
  8
鏡台
  6
CONTINUOUS
 62
     2
100
AcDbLine
 10
843.9999999999993
 20
1133.499999999999
 30
0.0
 11
845.7352227079184
 21
1139.284075693065
 31
0.0
  0
ARC
  5
16B
330
1F
100
AcDbEntity
  8
鏡台
  6
CONTINUOUS
 62
     2
100
AcDbCircle
 10
855.3134855601304
 20
1136.410596837401
 30
0.0
 40
10.0
100
AcDbArc
 50
95.3100592767302
 51
163.3007557660029
  0
LINE
  5
16C
330
1F
100
AcDbEntity
  8
鏡台
  6
CONTINUOUS
 62
     2
100
AcDbLine
 10
1042.999999999999
 20
1133.499999999999
 30
0.0
 11
1041.26477729208
 21
1139.284075693065
 31
0.0
  0
ARC
  5
16D
330
1F
100
AcDbEntity
  8
鏡台
  6
CONTINUOUS
 62
     2
100
AcDbCircle
 10
1031.686514439868
 20
1136.410596837401
 30
0.0
 40
10.0
100
AcDbArc
 50
16.69924423399711
 51
84.68994072326981
  0
ARC
  5
16E
330
1F
100
AcDbEntity
  8
鏡台
  6
CONTINUOUS
 62
     2
100
AcDbCircle
 10
943.4999999999993
 20
187.600000000004
 30
0.0
 40
962.8999999999953
100
AcDbArc
 50
84.68994072327212
 51
95.31005927672784
  0
ARC
  5
16F
330
1F
100
AcDbEntity
  8
鏡台
  6
CONTINUOUS
 62
     2
100
AcDbCircle
 10
842.4999999999993
 20
1186.999999999999
 30
0.0
 40
3.000000000000002
100
AcDbArc
 50
90.00000000000004
 51
180.0
  0
LINE
  5
170
330
1F
100
AcDbEntity
  8
鏡台
  6
CONTINUOUS
 62
     2
100
AcDbLine
 10
843.9999999999993
 20
1133.499999999999
 30
0.0
 11
842.4999999999993
 21
1133.499999999999
 31
0.0
  0
LINE
  5
171
330
1F
100
AcDbEntity
  8
鏡台
  6
CONTINUOUS
 62
     2
100
AcDbLine
 10
839.4999999999993
 20
1186.999999999999
 30
0.0
 11
839.4999999999993
 21
1136.499999999999
 31
0.0
  0
ARC
  5
172
330
1F
100
AcDbEntity
  8
鏡台
  6
CONTINUOUS
 62
     2
100
AcDbCircle
 10
842.4999999999993
 20
1136.499999999999
 30
0.0
 40
3.000000000000002
100
AcDbArc
 50
180.0
 51
270.0000000000002
  0
LINE
  5
173
330
1F
100
AcDbEntity
  8
鏡台
  6
CONTINUOUS
 62
     2
100
AcDbLine
 10
842.4999999999993
 20
1189.999999999999
 30
0.0
 11
1044.499999999999
 21
1189.999999999999
 31
0.0
  0
ARC
  5
174
330
1F
100
AcDbEntity
  8
鏡台
  6
CONTINUOUS
 62
     2
100
AcDbCircle
 10
1044.499999999999
 20
1186.999999999999
 30
0.0
 40
3.000000000000002
100
AcDbArc
 50
0.0
 51
90.00000000000004
  0
LINE
  5
175
330
1F
100
AcDbEntity
  8
鏡台
  6
CONTINUOUS
 62
     2
100
AcDbLine
 10
1044.499999999999
 20
1133.499999999999
 30
0.0
 11
1042.999999999997
 21
1133.499999999999
 31
0.0
  0
LINE
  5
176
330
1F
100
AcDbEntity
  8
鏡台
  6
CONTINUOUS
 62
     2
100
AcDbLine
 10
1047.499999999999
 20
1186.999999999999
 30
0.0
 11
1047.499999999999
 21
1136.499999999999
 31
0.0
  0
ARC
  5
177
330
1F
100
AcDbEntity
  8
鏡台
  6
CONTINUOUS
 62
     2
100
AcDbCircle
 10
1044.499999999999
 20
1136.499999999999
 30
0.0
 40
3.000000000000002
100
AcDbArc
 50
270.0000000000002
 51
0.0
  0
LINE
  5
178
330
1F
100
AcDbEntity
  8
鏡台
  6
CONTINUOUS
 62
     2
100
AcDbLine
 10
843.9999999999993
 20
880.4999999999991
 30
0.0
 11
845.7352227079184
 21
886.2840756930655
 31
0.0
  0
ARC
  5
179
330
1F
100
AcDbEntity
  8
鏡台
  6
CONTINUOUS
 62
     2
100
AcDbCircle
 10
855.3134855601304
 20
883.4105968374015
 30
0.0
 40
10.0
100
AcDbArc
 50
95.3100592767302
 51
163.3007557660029
  0
LINE
  5
17A
330
1F
100
AcDbEntity
  8
鏡台
  6
CONTINUOUS
 62
     2
100
AcDbLine
 10
1042.999999999999
 20
880.4999999999991
 30
0.0
 11
1041.26477729208
 21
886.2840756930655
 31
0.0
  0
ARC
  5
17B
330
1F
100
AcDbEntity
  8
鏡台
  6
CONTINUOUS
 62
     2
100
AcDbCircle
 10
1031.686514439868
 20
883.4105968374015
 30
0.0
 40
10.0
100
AcDbArc
 50
16.69924423399711
 51
84.68994072326981
  0
ARC
  5
17C
330
1F
100
AcDbEntity
  8
鏡台
  6
CONTINUOUS
 62
     2
100
AcDbCircle
 10
943.4999999999993
 20
-65.399999999996
 30
0.0
 40
962.8999999999953
100
AcDbArc
 50
84.68994072327212
 51
95.31005927672784
  0
ARC
  5
17D
330
1F
100
AcDbEntity
  8
鏡台
  6
CONTINUOUS
 62
     2
100
AcDbCircle
 10
842.4999999999993
 20
933.9999999999991
 30
0.0
 40
3.000000000000002
100
AcDbArc
 50
90.00000000000004
 51
180.0
  0
LINE
  5
17E
330
1F
100
AcDbEntity
  8
鏡台
  6
CONTINUOUS
 62
     2
100
AcDbLine
 10
843.9999999999993
 20
880.4999999999991
 30
0.0
 11
842.4999999999993
 21
880.4999999999991
 31
0.0
  0
LINE
  5
17F
330
1F
100
AcDbEntity
  8
鏡台
  6
CONTINUOUS
 62
     2
100
AcDbLine
 10
839.4999999999993
 20
933.9999999999991
 30
0.0
 11
839.4999999999993
 21
883.4999999999991
 31
0.0
  0
ARC
  5
180
330
1F
100
AcDbEntity
  8
鏡台
  6
CONTINUOUS
 62
     2
100
AcDbCircle
 10
842.4999999999993
 20
883.4999999999991
 30
0.0
 40
3.000000000000002
100
AcDbArc
 50
180.0
 51
270.0000000000002
  0
LINE
  5
181
330
1F
100
AcDbEntity
  8
鏡台
  6
CONTINUOUS
 62
     2
100
AcDbLine
 10
842.4999999999993
 20
936.9999999999991
 30
0.0
 11
1044.499999999999
 21
936.9999999999991
 31
0.0
  0
ARC
  5
182
330
1F
100
AcDbEntity
  8
鏡台
  6
CONTINUOUS
 62
     2
100
AcDbCircle
 10
1044.499999999999
 20
933.9999999999991
 30
0.0
 40
3.000000000000002
100
AcDbArc
 50
0.0
 51
90.00000000000004
  0
LINE
  5
183
330
1F
100
AcDbEntity
  8
鏡台
  6
CONTINUOUS
 62
     2
100
AcDbLine
 10
1044.499999999999
 20
880.4999999999991
 30
0.0
 11
1042.999999999997
 21
880.4999999999991
 31
0.0
  0
LINE
  5
184
330
1F
100
AcDbEntity
  8
鏡台
  6
CONTINUOUS
 62
     2
100
AcDbLine
 10
1047.499999999999
 20
933.9999999999991
 30
0.0
 11
1047.499999999999
 21
883.4999999999991
 31
0.0
  0
ARC
  5
185
330
1F
100
AcDbEntity
  8
鏡台
  6
CONTINUOUS
 62
     2
100
AcDbCircle
 10
1044.499999999999
 20
883.4999999999991
 30
0.0
 40
3.000000000000002
100
AcDbArc
 50
270.0000000000002
 51
0.0
  0
LINE
  5
186
330
1F
100
AcDbEntity
  8
鏡台
  6
CONTINUOUS
 62
     2
100
AcDbLine
 10
843.9999999999993
 20
578.4999999999991
 30
0.0
 11
845.7352227079184
 21
584.2840756930655
 31
0.0
  0
ARC
  5
187
330
1F
100
AcDbEntity
  8
鏡台
  6
CONTINUOUS
 62
     2
100
AcDbCircle
 10
855.3134855601304
 20
581.4105968374015
 30
0.0
 40
10.0
100
AcDbArc
 50
95.3100592767302
 51
163.3007557660029
  0
LINE
  5
188
330
1F
100
AcDbEntity
  8
鏡台
  6
CONTINUOUS
 62
     2
100
AcDbLine
 10
1042.999999999999
 20
578.4999999999991
 30
0.0
 11
1041.26477729208
 21
584.2840756930655
 31
0.0
  0
ARC
  5
189
330
1F
100
AcDbEntity
  8
鏡台
  6
CONTINUOUS
 62
     2
100
AcDbCircle
 10
1031.686514439868
 20
581.4105968374015
 30
0.0
 40
10.0
100
AcDbArc
 50
16.69924423399711
 51
84.68994072326981
  0
ARC
  5
18A
330
1F
100
AcDbEntity
  8
鏡台
  6
CONTINUOUS
 62
     2
100
AcDbCircle
 10
943.4999999999993
 20
-367.399999999996
 30
0.0
 40
962.8999999999953
100
AcDbArc
 50
84.68994072327212
 51
95.31005927672784
  0
ARC
  5
18B
330
1F
100
AcDbEntity
  8
鏡台
  6
CONTINUOUS
 62
     2
100
AcDbCircle
 10
842.4999999999993
 20
631.9999999999991
 30
0.0
 40
3.000000000000002
100
AcDbArc
 50
90.00000000000004
 51
180.0
  0
LINE
  5
18C
330
1F
100
AcDbEntity
  8
鏡台
  6
CONTINUOUS
 62
     2
100
AcDbLine
 10
843.9999999999993
 20
578.4999999999991
 30
0.0
 11
842.4999999999993
 21
578.4999999999991
 31
0.0
  0
LINE
  5
18D
330
1F
100
AcDbEntity
  8
鏡台
  6
CONTINUOUS
 62
     2
100
AcDbLine
 10
839.4999999999993
 20
631.9999999999991
 30
0.0
 11
839.4999999999993
 21
581.4999999999991
 31
0.0
  0
ARC
  5
18E
330
1F
100
AcDbEntity
  8
鏡台
  6
CONTINUOUS
 62
     2
100
AcDbCircle
 10
842.4999999999993
 20
581.4999999999991
 30
0.0
 40
3.000000000000002
100
AcDbArc
 50
180.0
 51
270.0000000000002
  0
LINE
  5
18F
330
1F
100
AcDbEntity
  8
鏡台
  6
CONTINUOUS
 62
     2
100
AcDbLine
 10
842.4999999999993
 20
634.9999999999991
 30
0.0
 11
1044.499999999999
 21
634.9999999999991
 31
0.0
  0
ARC
  5
190
330
1F
100
AcDbEntity
  8
鏡台
  6
CONTINUOUS
 62
     2
100
AcDbCircle
 10
1044.499999999999
 20
631.9999999999991
 30
0.0
 40
3.000000000000002
100
AcDbArc
 50
0.0
 51
90.00000000000004
  0
LINE
  5
191
330
1F
100
AcDbEntity
  8
鏡台
  6
CONTINUOUS
 62
     2
100
AcDbLine
 10
1044.499999999999
 20
578.4999999999991
 30
0.0
 11
1042.999999999997
 21
578.4999999999991
 31
0.0
  0
LINE
  5
192
330
1F
100
AcDbEntity
  8
鏡台
  6
CONTINUOUS
 62
     2
100
AcDbLine
 10
1047.499999999999
 20
631.9999999999991
 30
0.0
 11
1047.499999999999
 21
581.4999999999991
 31
0.0
  0
ARC
  5
193
330
1F
100
AcDbEntity
  8
鏡台
  6
CONTINUOUS
 62
     2
100
AcDbCircle
 10
1044.499999999999
 20
581.4999999999991
 30
0.0
 40
3.000000000000002
100
AcDbArc
 50
270.0000000000002
 51
0.0
  0
LINE
  5
194
330
1F
100
AcDbEntity
  8
鏡台
  6
CONTINUOUS
 62
     2
100
AcDbLine
 10
844.6827156454995
 20
580.7757188183987
 30
0.0
 11
1042.317284354499
 21
580.7757188183987
 31
0.0
  0
LINE
  5
195
330
1F
100
AcDbEntity
  8
鏡台
  6
CONTINUOUS
 62
     2
100
AcDbLine
 10
846.4999999999993
 20
882.6379283872138
 30
0.0
 11
846.4999999999993
 21
634.9999999999991
 31
0.0
  0
LINE
  5
196
330
1F
100
AcDbEntity
  8
鏡台
  6
CONTINUOUS
 62
     2
100
AcDbLine
 10
1040.499999999999
 20
882.6379283872147
 30
0.0
 11
1040.499999999999
 21
634.9999999999991
 31
0.0
  0
LINE
  5
197
330
1F
100
AcDbEntity
  8
鏡台
  6
CONTINUOUS
 62
     2
100
AcDbLine
 10
1040.499999999999
 20
1135.637928387215
 30
0.0
 11
1040.499999999999
 21
936.9999999999991
 31
0.0
  0
LINE
  5
198
330
1F
100
AcDbEntity
  8
鏡台
  6
CONTINUOUS
 62
     2
100
AcDbLine
 10
846.4999999999993
 20
1135.637928387214
 30
0.0
 11
846.4999999999993
 21
936.9999999999991
 31
0.0
  0
ARC
  5
199
330
1F
100
AcDbEntity
  8
鏡台
  6
CONTINUOUS
 62
     2
100
AcDbCircle
 10
943.4999999999993
 20
2173.999999999975
 30
0.0
 40
1295.0
100
AcDbArc
 50
265.7043237762043
 51
274.295676223796
  0
LINE
  5
19A
330
1F
100
AcDbEntity
  8
鏡台
  6
CONTINUOUS
 62
     2
100
AcDbLine
 10
846.4999999999993
 20
1386.999999999999
 30
0.0
 11
846.4999999999993
 21
1189.999999999999
 31
0.0
  0
LINE
  5
19B
330
1F
100
AcDbEntity
  8
鏡台
  6
CONTINUOUS
 62
     2
100
AcDbLine
 10
1040.499999999999
 20
1386.999999999999
 30
0.0
 11
1040.499999999999
 21
1189.999999999999
 31
0.0
  0
ARC
  5
19C
330
1F
100
AcDbEntity
  8
鏡台
  6
CONTINUOUS
 62
     2
100
AcDbCircle
 10
849.4999999999993
 20
1386.999999999999
 30
0.0
 40
3.000000000000002
100
AcDbArc
 50
90.00000000000004
 51
180.0
  0
ARC
  5
19D
330
1F
100
AcDbEntity
  8
鏡台
  6
CONTINUOUS
 62
     2
100
AcDbCircle
 10
1037.499999999999
 20
1386.999999999999
 30
0.0
 40
3.000000000000002
100
AcDbArc
 50
0.0
 51
90.00000000000004
  0
LINE
  5
19E
330
1F
100
AcDbEntity
  8
鏡台
  6
CONTINUOUS
 62
     2
100
AcDbLine
 10
923.785055128202
 20
1485.999999999999
 30
0.0
 11
583.2149448717985
 21
1485.999999999999
 31
0.0
  0
LINE
  5
19F
330
1F
100
AcDbEntity
  8
鏡台
  6
CONTINUOUS
 62
     6
100
AcDbLine
 10
923.785055128202
 20
1475.000000000004
 30
0.0
 11
583.2149448717985
 21
1474.999999999999
 31
0.0
  0
LINE
  5
1A0
330
1F
100
AcDbEntity
  8
鏡台
  6
CONTINUOUS
 62
     6
100
AcDbLine
 10
923.785055128202
 20
1470.000000000004
 30
0.0
 11
583.2149448717985
 21
1469.999999999999
 31
0.0
  0
ARC
  5
1A1
330
1F
100
AcDbEntity
  8
鏡台
  6
CONTINUOUS
 62
     2
100
AcDbCircle
 10
865.5000000000066
 20
957.9999999999973
 30
0.0
 40
10.0
100
AcDbArc
 50
180.0
 51
270.0000000000002
  0
LINE
  5
1A2
330
1F
100
AcDbEntity
  8
鏡台
  6
CONTINUOUS
 62
     2
100
AcDbLine
 10
865.5000000000066
 20
947.9999999999973
 30
0.0
 11
891.500000000003
 21
947.9999999999973
 31
0.0
  0
ARC
  5
1A3
330
1F
100
AcDbEntity
  8
鏡台
  6
CONTINUOUS
 62
     2
100
AcDbCircle
 10
891.500000000003
 20
957.9999999999973
 30
0.0
 40
10.0
100
AcDbArc
 50
270.0000000000002
 51
0.0
  0
LINE
  5
1A4
330
1F
100
AcDbEntity
  8
鏡台
  6
CONTINUOUS
 62
     2
100
AcDbLine
 10
901.500000000003
 20
1120.999999999987
 30
0.0
 11
901.500000000003
 21
957.9999999999973
 31
0.0
  0
ARC
  5
1A5
330
1F
100
AcDbEntity
  8
鏡台
  6
CONTINUOUS
 62
     2
100
AcDbCircle
 10
891.500000000003
 20
1120.999999999987
 30
0.0
 40
10.0
100
AcDbArc
 50
0.0
 51
90.00000000000004
  0
LINE
  5
1A6
330
1F
100
AcDbEntity
  8
鏡台
  6
CONTINUOUS
 62
     2
100
AcDbLine
 10
865.5000000000066
 20
1130.999999999987
 30
0.0
 11
891.500000000003
 21
1130.999999999987
 31
0.0
  0
LINE
  5
1A7
330
1F
100
AcDbEntity
  8
鏡台
  6
CONTINUOUS
 62
     2
100
AcDbLine
 10
855.5000000000066
 20
1120.999999999987
 30
0.0
 11
855.5000000000066
 21
957.9999999999973
 31
0.0
  0
ARC
  5
1A8
330
1F
100
AcDbEntity
  8
鏡台
  6
CONTINUOUS
 62
     2
100
AcDbCircle
 10
865.5000000000066
 20
1120.999999999987
 30
0.0
 40
10.0
100
AcDbArc
 50
90.00000000000004
 51
180.0
  0
ARC
  5
1A9
330
1F
100
AcDbEntity
  8
鏡台
  6
CONTINUOUS
 62
     2
100
AcDbCircle
 10
943.4999999999993
 20
2426.999999999975
 30
0.0
 40
1295.0
100
AcDbArc
 50
268.504388190688
 51
274.295676223796
  0
LINE
  5
1AA
330
1F
100
AcDbEntity
  8
鏡台
  6
CONTINUOUS
 62
     2
100
AcDbLine
 10
844.6827156454995
 20
1135.775718818399
 30
0.0
 11
909.6999999999928
 21
1135.775718818399
 31
0.0
  0
LINE
  5
1AB
330
1F
100
AcDbEntity
  8
鏡台
  6
CONTINUOUS
 62
     2
100
AcDbLine
 10
909.6999999999928
 20
1135.775718818399
 30
0.0
 11
909.6999999999928
 21
936.9999999999991
 31
0.0
  0
LINE
  5
1AC
330
1F
100
AcDbEntity
  8
鏡台
  6
CONTINUOUS
 62
     6
100
AcDbLine
 10
503.4999999999974
 20
1319.999999999998
 30
0.0
 11
443.4999999999974
 21
1319.999999999998
 31
0.0
  0
LINE
  5
1AD
330
1F
100
AcDbEntity
  8
鏡台
  6
CONTINUOUS
 62
     6
100
AcDbLine
 10
473.4999999999974
 20
1349.999999999998
 30
0.0
 11
473.4999999999974
 21
1289.999999999998
 31
0.0
  0
CIRCLE
  5
1AE
330
1F
100
AcDbEntity
  8
鏡台
  6
CONTINUOUS
 62
     2
100
AcDbCircle
 10
473.4999999999993
 20
1319.999999999999
 30
0.0
 40
7.000000000000004
  0
LINE
  5
1AF
330
1F
100
AcDbEntity
  8
鏡台
  6
CONTINUOUS
 62
     6
100
AcDbLine
 10
1008.499999999997
 20
1319.999999999998
 30
0.0
 11
948.4999999999975
 21
1319.999999999998
 31
0.0
  0
LINE
  5
1B0
330
1F
100
AcDbEntity
  8
鏡台
  6
CONTINUOUS
 62
     6
100
AcDbLine
 10
978.4999999999975
 20
1349.999999999998
 30
0.0
 11
978.4999999999975
 21
1289.999999999998
 31
0.0
  0
CIRCLE
  5
1B1
330
1F
100
AcDbEntity
  8
鏡台
  6
CONTINUOUS
 62
     2
100
AcDbCircle
 10
978.4999999999993
 20
1319.999999999999
 30
0.0
 40
7.000000000000004
  0
LINE
  5
1B2
330
1F
100
AcDbEntity
  8
鏡台
  6
CONTINUOUS
 62
     6
100
AcDbLine
 10
1008.499999999997
 20
819.9999999999982
 30
0.0
 11
948.4999999999975
 21
819.9999999999982
 31
0.0
  0
LINE
  5
1B3
330
1F
100
AcDbEntity
  8
鏡台
  6
CONTINUOUS
 62
     6
100
AcDbLine
 10
978.4999999999975
 20
849.9999999999982
 30
0.0
 11
978.4999999999975
 21
789.9999999999982
 31
0.0
  0
CIRCLE
  5
1B4
330
1F
100
AcDbEntity
  8
鏡台
  6
CONTINUOUS
 62
     2
100
AcDbCircle
 10
978.4999999999993
 20
819.9999999999991
 30
0.0
 40
7.000000000000004
  0
LINE
  5
1B5
330
1F
100
AcDbEntity
  8
鏡台
  6
CONTINUOUS
 62
     6
100
AcDbLine
 10
881.5000000000084
 20
1068.249999999999
 30
0.0
 11
875.5000000000084
 21
1068.249999999999
 31
0.0
  0
LINE
  5
1B6
330
1F
100
AcDbEntity
  8
鏡台
  6
CONTINUOUS
 62
     6
100
AcDbLine
 10
866.900000000008
 20
1047.750000000005
 30
0.0
 11
866.900000000008
 21
1076.250000000005
 31
0.0
  0
LINE
  5
1B7
330
1F
100
AcDbEntity
  8
鏡台
  6
CONTINUOUS
 62
     6
100
AcDbLine
 10
866.900000000008
 20
1047.750000000005
 30
0.0
 11
890.1000000000088
 21
1047.750000000005
 31
0.0
  0
LINE
  5
1B8
330
1F
100
AcDbEntity
  8
鏡台
  6
CONTINUOUS
 62
     6
100
AcDbLine
 10
890.1000000000088
 20
1047.750000000005
 30
0.0
 11
890.1000000000088
 21
1076.250000000005
 31
0.0
  0
LINE
  5
1B9
330
1F
100
AcDbEntity
  8
鏡台
  6
CONTINUOUS
 62
     6
100
AcDbLine
 10
866.900000000008
 20
1076.250000000005
 30
0.0
 11
890.1000000000088
 21
1076.250000000005
 31
0.0
  0
LINE
  5
1BA
330
1F
100
AcDbEntity
  8
鏡台
  6
CONTINUOUS
 62
     6
100
AcDbLine
 10
886.3000000000095
 20
1073.750000000005
 30
0.0
 11
886.3000000000095
 21
1050.250000000005
 31
0.0
  0
LINE
  5
1BB
330
1F
100
AcDbEntity
  8
鏡台
  6
CONTINUOUS
 62
     6
100
AcDbLine
 10
886.3000000000095
 20
1073.750000000005
 30
0.0
 11
870.7000000000091
 21
1073.750000000005
 31
0.0
  0
LINE
  5
1BC
330
1F
100
AcDbEntity
  8
鏡台
  6
CONTINUOUS
 62
     6
100
AcDbLine
 10
870.7000000000091
 20
1050.250000000005
 30
0.0
 11
886.3000000000095
 21
1050.250000000005
 31
0.0
  0
LINE
  5
1BD
330
1F
100
AcDbEntity
  8
鏡台
  6
CONTINUOUS
 62
     6
100
AcDbLine
 10
870.7000000000091
 20
1073.750000000005
 30
0.0
 11
870.7000000000091
 21
1050.250000000005
 31
0.0
  0
LINE
  5
1BE
330
1F
100
AcDbEntity
  8
鏡台
  6
CONTINUOUS
 62
     6
100
AcDbLine
 10
866.900000000008
 20
1002.750000000005
 30
0.0
 11
866.9000000000099
 21
1031.250000000005
 31
0.0
  0
LINE
  5
1BF
330
1F
100
AcDbEntity
  8
鏡台
  6
CONTINUOUS
 62
     6
100
AcDbLine
 10
866.900000000008
 20
1002.750000000005
 30
0.0
 11
890.1000000000088
 21
1002.750000000005
 31
0.0
  0
LINE
  5
1C0
330
1F
100
AcDbEntity
  8
鏡台
  6
CONTINUOUS
 62
     6
100
AcDbLine
 10
890.1000000000088
 20
1002.750000000005
 30
0.0
 11
890.1000000000088
 21
1031.250000000005
 31
0.0
  0
LINE
  5
1C1
330
1F
100
AcDbEntity
  8
鏡台
  6
CONTINUOUS
 62
     6
100
AcDbLine
 10
866.9000000000099
 20
1031.250000000005
 30
0.0
 11
890.1000000000088
 21
1031.250000000005
 31
0.0
  0
LINE
  5
1C2
330
1F
100
AcDbEntity
  8
鏡台
  6
CONTINUOUS
 62
     6
100
AcDbLine
 10
874.9999999999993
 20
1022.999999999988
 30
0.0
 11
882.0000000000048
 21
1022.999999999988
 31
0.0
  0
LINE
  5
1C3
330
1F
100
AcDbEntity
  8
鏡台
  6
CONTINUOUS
 62
     6
100
AcDbLine
 10
873.9999999999993
 20
1010.999999999988
 30
0.0
 11
883.0000000000048
 21
1010.999999999988
 31
0.0
  0
ARC
  5
1C4
330
1F
100
AcDbEntity
  8
鏡台
  6
CONTINUOUS
 62
     6
100
AcDbCircle
 10
867.4999999999993
 20
1106.499999999999
 30
0.0
 40
8.0
100
AcDbArc
 50
90.00000000000004
 51
180.0
  0
LINE
  5
1C5
330
1F
100
AcDbEntity
  8
鏡台
  6
CONTINUOUS
 62
     6
100
AcDbLine
 10
867.4999999999993
 20
1114.499999999999
 30
0.0
 11
889.4999999999993
 21
1114.499999999999
 31
0.0
  0
ARC
  5
1C6
330
1F
100
AcDbEntity
  8
鏡台
  6
CONTINUOUS
 62
     6
100
AcDbCircle
 10
889.4999999999993
 20
1106.499999999999
 30
0.0
 40
8.0
100
AcDbArc
 50
0.0
 51
90.00000000000004
  0
LINE
  5
1C7
330
1F
100
AcDbEntity
  8
鏡台
  6
CONTINUOUS
 62
     6
100
AcDbLine
 10
897.4999999999993
 20
1106.499999999999
 30
0.0
 11
897.4999999999993
 21
972.4999999999991
 31
0.0
  0
ARC
  5
1C8
330
1F
100
AcDbEntity
  8
鏡台
  6
CONTINUOUS
 62
     6
100
AcDbCircle
 10
889.4999999999993
 20
972.4999999999991
 30
0.0
 40
8.0
100
AcDbArc
 50
270.0000000000002
 51
0.0
  0
LINE
  5
1C9
330
1F
100
AcDbEntity
  8
鏡台
  6
CONTINUOUS
 62
     6
100
AcDbLine
 10
859.4999999999993
 20
1106.499999999999
 30
0.0
 11
859.4999999999993
 21
972.4999999999991
 31
0.0
  0
LINE
  5
1CA
330
1F
100
AcDbEntity
  8
鏡台
  6
CONTINUOUS
 62
     6
100
AcDbLine
 10
867.4999999999993
 20
964.4999999999991
 30
0.0
 11
889.4999999999993
 21
964.4999999999991
 31
0.0
  0
ARC
  5
1CB
330
1F
100
AcDbEntity
  8
鏡台
  6
CONTINUOUS
 62
     6
100
AcDbCircle
 10
867.4999999999993
 20
972.4999999999991
 30
0.0
 40
8.0
100
AcDbArc
 50
180.0
 51
270.0000000000002
  0
ARC
  5
1CC
330
1F
100
AcDbEntity
  8
鏡台
  6
CONTINUOUS
 62
     6
100
AcDbCircle
 10
753.4999999999975
 20
4293.200000001375
 30
0.0
 40
2902.200000001376
100
AcDbArc
 50
266.6362684044902
 51
273.3637315955098
  0
LINE
  5
1CD
330
1F
100
AcDbEntity
  8
鏡台
  6
CONTINUOUS
 62
     6
100
AcDbLine
 10
923.785055128202
 20
1485.999999999999
 30
0.0
 11
923.785055128202
 21
1395.999999999999
 31
0.0
  0
LINE
  5
1CE
330
1F
100
AcDbEntity
  8
鏡台
  6
CONTINUOUS
 62
     6
100
AcDbLine
 10
583.2149448717985
 20
1485.999999999999
 30
0.0
 11
583.2149448717985
 21
1395.999999999999
 31
0.0
  0
LINE
  5
1CF
330
1F
100
AcDbEntity
  8
鏡台
  6
CONTINUOUS
 62
     2
100
AcDbLine
 10
461.4999999999993
 20
1499.999999999999
 30
0.0
 11
1045.499999999999
 21
1499.999999999999
 31
0.0
  0
ARC
  5
1D0
330
1F
100
AcDbEntity
  8
鏡台
  6
CONTINUOUS
 62
     2
100
AcDbCircle
 10
1045.499999999999
 20
1491.999999999999
 30
0.0
 40
8.0
100
AcDbArc
 50
0.0
 51
90.00000000000004
  0
ARC
  5
1D1
330
1F
100
AcDbEntity
  8
鏡台
  6
CONTINUOUS
 62
     2
100
AcDbCircle
 10
461.4999999999993
 20
1491.999999999999
 30
0.0
 40
8.0
100
AcDbArc
 50
90.00000000000004
 51
180.0
  0
LINE
  5
1D2
330
1F
100
AcDbEntity
  8
鏡台
  6
CONTINUOUS
 62
     6
100
AcDbLine
 10
753.0830085889986
 20
1275.333008588999
 30
0.0
 11
700.0499999999986
 21
1222.299999999999
 31
0.0
  0
LINE
  5
1D3
330
1F
100
AcDbEntity
  8
鏡台
  6
CONTINUOUS
 62
     6
100
AcDbLine
 10
730.4431457504991
 20
1264.006854248999
 30
0.0
 11
711.4931457504983
 21
1245.056854248999
 31
0.0
  0
LINE
  5
1D4
330
1F
100
AcDbEntity
  8
鏡台
  6
CONTINUOUS
 62
     6
100
AcDbLine
 10
746.9568542494992
 20
1257.893145750999
 30
0.0
 11
717.2568542494985
 21
1228.193145750999
 31
0.0
  0
LINE
  5
1D5
330
1F
100
AcDbEntity
  8
鏡台
  6
CONTINUOUS
 62
     6
100
AcDbLine
 10
597.0830085889986
 20
1012.833008588999
 30
0.0
 11
544.0499999999986
 21
959.7999999999993
 31
0.0
  0
LINE
  5
1D6
330
1F
100
AcDbEntity
  8
鏡台
  6
CONTINUOUS
 62
     6
100
AcDbLine
 10
574.4431457504991
 20
1001.506854248999
 30
0.0
 11
555.4931457504983
 21
982.5568542489991
 31
0.0
  0
LINE
  5
1D7
330
1F
100
AcDbEntity
  8
鏡台
  6
CONTINUOUS
 62
     6
100
AcDbLine
 10
590.9568542494992
 20
995.3931457509984
 30
0.0
 11
561.2568542494985
 21
965.6931457509991
 31
0.0
  0
LINE
  5
1D8
330
1F
100
AcDbEntity
  8
鏡台
  6
CONTINUOUS
 62
     6
100
AcDbLine
 10
717.0830085889986
 20
801.3330085889993
 30
0.0
 11
664.0499999999986
 21
748.2999999999993
 31
0.0
  0
LINE
  5
1D9
330
1F
100
AcDbEntity
  8
鏡台
  6
CONTINUOUS
 62
     6
100
AcDbLine
 10
694.4431457504991
 20
790.0068542489989
 30
0.0
 11
675.4931457504983
 21
771.0568542489991
 31
0.0
  0
LINE
  5
1DA
330
1F
100
AcDbEntity
  8
鏡台
  6
CONTINUOUS
 62
     6
100
AcDbLine
 10
710.9568542494992
 20
783.8931457509984
 30
0.0
 11
681.2568542494985
 21
754.1931457509991
 31
0.0
  0
LINE
  5
1DB
330
1F
100
AcDbEntity
  8
鏡台
  6
CONTINUOUS
 62
     6
100
AcDbLine
 10
843.9999999999993
 20
1185.000000000017
 30
0.0
 11
843.9999999999993
 21
1133.499999999999
 31
0.0
  0
LINE
  5
1DC
330
1F
100
AcDbEntity
  8
鏡台
  6
CONTINUOUS
 62
     6
100
AcDbLine
 10
842.9999999999993
 20
1189.999999999999
 30
0.0
 11
842.9999999999993
 21
1185.000000000017
 31
0.0
  0
LINE
  5
1DD
330
1F
100
AcDbEntity
  8
鏡台
  6
CONTINUOUS
 62
     6
100
AcDbLine
 10
842.9999999999993
 20
1185.000000000017
 30
0.0
 11
1043.999999999999
 21
1185.000000000017
 31
0.0
  0
LINE
  5
1DE
330
1F
100
AcDbEntity
  8
鏡台
  6
CONTINUOUS
 62
     6
100
AcDbLine
 10
1043.999999999999
 20
1189.999999999999
 30
0.0
 11
1043.999999999999
 21
1185.000000000017
 31
0.0
  0
LINE
  5
1DF
330
1F
100
AcDbEntity
  8
鏡台
  6
CONTINUOUS
 62
     6
100
AcDbLine
 10
1042.999999999997
 20
1185.000000000017
 30
0.0
 11
1042.999999999997
 21
1133.499999999999
 31
0.0
  0
LINE
  5
1E0
330
1F
100
AcDbEntity
  8
鏡台
  6
CONTINUOUS
 62
     6
100
AcDbLine
 10
842.9999999999993
 20
936.9999999999991
 30
0.0
 11
842.9999999999993
 21
932.0000000000173
 31
0.0
  0
LINE
  5
1E1
330
1F
100
AcDbEntity
  8
鏡台
  6
CONTINUOUS
 62
     6
100
AcDbLine
 10
842.9999999999993
 20
932.0000000000173
 30
0.0
 11
1043.999999999999
 21
932.0000000000173
 31
0.0
  0
LINE
  5
1E2
330
1F
100
AcDbEntity
  8
鏡台
  6
CONTINUOUS
 62
     6
100
AcDbLine
 10
1043.999999999999
 20
936.9999999999991
 30
0.0
 11
1043.999999999999
 21
932.0000000000173
 31
0.0
  0
LINE
  5
1E3
330
1F
100
AcDbEntity
  8
鏡台
  6
CONTINUOUS
 62
     6
100
AcDbLine
 10
1042.999999999997
 20
932.0000000000173
 30
0.0
 11
1042.999999999997
 21
880.4999999999991
 31
0.0
  0
LINE
  5
1E4
330
1F
100
AcDbEntity
  8
鏡台
  6
CONTINUOUS
 62
     6
100
AcDbLine
 10
843.9999999999993
 20
932.0000000000173
 30
0.0
 11
843.9999999999993
 21
880.4999999999991
 31
0.0
  0
LINE
  5
1E5
330
1F
100
AcDbEntity
  8
鏡台
  6
CONTINUOUS
 62
     6
100
AcDbLine
 10
842.9999999999993
 20
634.9999999999991
 30
0.0
 11
842.9999999999993
 21
630.0000000000173
 31
0.0
  0
LINE
  5
1E6
330
1F
100
AcDbEntity
  8
鏡台
  6
CONTINUOUS
 62
     6
100
AcDbLine
 10
842.9999999999993
 20
630.0000000000173
 30
0.0
 11
1043.999999999999
 21
630.0000000000173
 31
0.0
  0
LINE
  5
1E7
330
1F
100
AcDbEntity
  8
鏡台
  6
CONTINUOUS
 62
     6
100
AcDbLine
 10
1043.999999999999
 20
634.9999999999991
 30
0.0
 11
1043.999999999999
 21
630.0000000000173
 31
0.0
  0
LINE
  5
1E8
330
1F
100
AcDbEntity
  8
鏡台
  6
CONTINUOUS
 62
     6
100
AcDbLine
 10
1042.999999999997
 20
630.0000000000173
 30
0.0
 11
1042.999999999997
 21
578.4999999999991
 31
0.0
  0
LINE
  5
1E9
330
1F
100
AcDbEntity
  8
鏡台
  6
CONTINUOUS
 62
     6
100
AcDbLine
 10
843.9999999999993
 20
630.0000000000173
 30
0.0
 11
843.9999999999993
 21
578.4999999999991
 31
0.0
  0
LINE
  5
1EA
330
1F
100
AcDbEntity
  8
鏡台
  6
CONTINUOUS
 62
     1
100
AcDbLine
 10
883.4999999999975
 20
1065.000000000009
 30
0.0
 11
883.4999999999975
 21
1035.000000000009
 31
0.0
  0
LINE
  5
1EB
330
1F
100
AcDbEntity
  8
鏡台
  6
CONTINUOUS
 62
     1
100
AcDbLine
 10
898.4999999999975
 20
1050.000000000009
 30
0.0
 11
868.4999999999975
 21
1050.000000000009
 31
0.0
  0
CIRCLE
  5
1EC
330
1F
100
AcDbEntity
  8
鏡台
  6
CONTINUOUS
 62
     1
100
AcDbCircle
 10
883.4999999999993
 20
1049.999999999999
 30
0.0
 40
5.0
  0
LINE
  5
1ED
330
1F
100
AcDbEntity
  8
鏡台
  6
CONTINUOUS
 62
     6
100
AcDbLine
 10
1023.499999999999
 20
549.9999999999991
 30
0.0
 11
1086.576696830599
 21
549.9999999999991
 31
0.0
  0
LINE
  5
1EE
330
1F
100
AcDbEntity
  8
鏡台
  6
CONTINUOUS
 62
     6
100
AcDbLine
 10
1109.107801638999
 20
664.5872669101991
 30
0.0
 11
1098.482689378999
 21
667.4342680582986
 31
0.0
  0
LINE
  5
1EF
330
1F
100
AcDbEntity
  8
鏡台
  6
CONTINUOUS
 62
     6
100
AcDbLine
 10
1105.354861993999
 20
650.581392085699
 30
0.0
 11
1091.504666240998
 21
654.9149284016994
 31
0.0
  0
LINE
  5
1F0
330
1F
100
AcDbEntity
  8
鏡台
  6
CONTINUOUS
 62
     6
100
AcDbLine
 10
1099.552538553998
 20
647.4773263694988
 30
0.0
 11
1090.497530399999
 21
649.9036623491993
 31
0.0
  0
LINE
  5
1F1
330
1F
100
AcDbEntity
  8
鏡台
  6
CONTINUOUS
 62
     6
100
AcDbLine
 10
1091.504666240998
 20
654.9149284016994
 30
0.0
 11
1087.029978232998
 21
632.6498031211986
 31
0.0
  0
LINE
  5
1F2
330
1F
100
AcDbEntity
  8
鏡台
  6
CONTINUOUS
 62
     6
100
AcDbLine
 10
1093.907174017998
 20
630.8057711292995
 30
0.0
 11
1100.114595964998
 21
649.137244389799
 31
0.0
  0
LINE
  5
1F3
330
1F
100
AcDbEntity
  8
鏡台
  6
CONTINUOUS
 62
     6
100
AcDbLine
 10
1124.174427210998
 20
658.9973023498997
 30
0.0
 11
1108.719541935999
 21
663.1383693547987
 31
0.0
  0
LINE
  5
1F4
330
1F
100
AcDbEntity
  8
鏡台
  6
CONTINUOUS
 62
     6
100
AcDbLine
 10
1121.844993954998
 20
650.3039229308988
 30
0.0
 11
1106.390230302998
 21
654.4449995726991
 31
0.0
  0
LINE
  5
1F5
330
1F
100
AcDbEntity
  8
鏡台
  6
CONTINUOUS
 62
     6
100
AcDbLine
 10
1098.482567843999
 20
667.4342574252987
 30
0.0
 11
1095.376848790999
 21
655.8432237920997
 31
0.0
  0
LINE
  5
1F6
330
1F
100
AcDbEntity
  8
鏡台
  6
CONTINUOUS
 62
     6
100
AcDbLine
 10
1106.001971682999
 20
652.9961011081987
 30
0.0
 11
1095.376848790999
 21
655.8432237920997
 31
0.0
  0
LINE
  5
1F7
330
1F
100
AcDbEntity
  8
鏡台
  6
CONTINUOUS
 62
     6
100
AcDbLine
 10
1105.354861993999
 20
650.581392085699
 30
0.0
 11
1103.828637358999
 21
651.0453533567988
 31
0.0
  0
LINE
  5
1F8
330
1F
100
AcDbEntity
  8
鏡台
  6
CONTINUOUS
 62
     6
100
AcDbLine
 10
1109.884198337998
 20
667.4850532932987
 30
0.0
 11
1096.054394118998
 21
670.2199234410991
 31
0.0
  0
LINE
  5
1F9
330
1F
100
AcDbEntity
  8
鏡台
  6
CONTINUOUS
 62
     6
100
AcDbLine
 10
1105.354861993999
 20
650.581392085699
 30
0.0
 11
1109.884198337998
 21
667.4850532932987
 31
0.0
  0
LINE
  5
1FA
330
1F
100
AcDbEntity
  8
鏡台
  6
CONTINUOUS
 62
     6
100
AcDbLine
 10
1091.245784778999
 20
655.8809042251987
 30
0.0
 11
1094.894412077999
 21
669.497790410499
 31
0.0
  0
LINE
  5
1FB
330
1F
100
AcDbEntity
  8
鏡台
  6
CONTINUOUS
 62
     6
100
AcDbLine
 10
1092.701123576998
 20
630.1606048548992
 30
0.0
 11
1087.751515879999
 21
631.4868277983996
 31
0.0
  0
ARC
  5
1FC
330
1F
100
AcDbEntity
  8
鏡台
  6
CONTINUOUS
 62
     6
100
AcDbCircle
 10
1235.156676999998
 20
604.8349609999996
 30
0.0
 40
150.0
100
AcDbArc
 50
169.7364188339999
 51
175.9890140000003
  0
ARC
  5
1FD
330
1F
100
AcDbEntity
  8
鏡台
  6
CONTINUOUS
 62
     6
100
AcDbCircle
 10
1240.649474999998
 20
605.1166989999992
 30
0.0
 40
150.0
100
AcDbArc
 50
170.3937176707998
 51
175.6141359999999
  0
ARC
  5
1FE
330
1F
100
AcDbEntity
  8
鏡台
  6
CONTINUOUS
 62
     6
100
AcDbCircle
 10
1102.956094715
 20
648.1750589176991
 30
0.0
 40
3.000000000000002
100
AcDbArc
 50
73.09075899999961
 51
161.29272500001
  0
ARC
  5
1FF
330
1F
100
AcDbEntity
  8
鏡台
  6
CONTINUOUS
 62
     6
100
AcDbCircle
 10
1088.010355233998
 20
632.4527608012986
 30
0.0
 40
1.0
100
AcDbArc
 50
168.6365359999535
 51
254.9999389999938
  0
ARC
  5
200
330
1F
100
AcDbEntity
  8
鏡台
  6
CONTINUOUS
 62
     6
100
AcDbCircle
 10
1092.959963017999
 20
631.1265368614995
 30
0.0
 40
1.0
100
AcDbArc
 50
255.0000000000056
 51
341.2927249999935
  0
ARC
  5
201
330
1F
100
AcDbEntity
  8
鏡台
  6
CONTINUOUS
 62
     6
100
AcDbCircle
 10
1114.383656700998
 20
656.9619192266991
 30
0.0
 40
10.0
100
AcDbArc
 50
318.2563779999982
 51
11.74365199999793
  0
ARC
  5
202
330
1F
100
AcDbEntity
  8
鏡台
  6
CONTINUOUS
 62
     6
100
AcDbCircle
 10
1095.860344083999
 20
669.2389509696986
 30
0.0
 40
1.0
100
AcDbArc
 50
78.8137819999758
 51
165.0000000000056
  0
ARC
  5
203
330
1F
100
AcDbEntity
  8
鏡台
  6
CONTINUOUS
 62
     6
100
AcDbCircle
 10
1092.211716784999
 20
655.6220647844993
 30
0.0
 40
1.0
100
AcDbArc
 50
164.9999999999553
 51
253.0908809999582
  0
ARC
  5
204
330
1F
100
AcDbEntity
  8
鏡台
  6
CONTINUOUS
 62
     6
100
AcDbCircle
 10
965.2486569999976
 20
616.8100589999985
 30
0.0
 40
120.0000000000001
100
AcDbArc
 50
332.4231260000005
 51
355.4096070000001
  0
ARC
  5
205
330
1F
100
AcDbEntity
  8
鏡台
  6
CONTINUOUS
 62
     6
100
AcDbCircle
 10
971.1446529999987
 20
615.5830079999987
 30
0.0
 40
120.0000000000001
100
AcDbArc
 50
330.778137
 51
356.6508789999999
  0
ARC
  5
206
330
1F
100
AcDbEntity
  8
鏡台
  6
CONTINUOUS
 62
     6
100
AcDbCircle
 10
1102.956094715
 20
648.1750589176991
 30
0.0
 40
3.000000000000002
100
AcDbArc
 50
73.09075899999961
 51
161.29272500001
  0
ARC
  5
207
330
1F
100
AcDbEntity
  8
鏡台
  6
CONTINUOUS
 62
     6
100
AcDbCircle
 10
1088.010355233998
 20
632.4527608012986
 30
0.0
 40
1.0
100
AcDbArc
 50
168.6365359999535
 51
254.9999389999938
  0
ARC
  5
208
330
1F
100
AcDbEntity
  8
鏡台
  6
CONTINUOUS
 62
     6
100
AcDbCircle
 10
1092.959963017999
 20
631.1265368614995
 30
0.0
 40
1.0
100
AcDbArc
 50
255.0000000000056
 51
341.2927249999935
  0
ARC
  5
209
330
1F
100
AcDbEntity
  8
鏡台
  6
CONTINUOUS
 62
     6
100
AcDbCircle
 10
1114.383656700998
 20
656.9619192266991
 30
0.0
 40
10.0
100
AcDbArc
 50
318.2563779999982
 51
11.74365199999793
  0
ARC
  5
20A
330
1F
100
AcDbEntity
  8
鏡台
  6
CONTINUOUS
 62
     6
100
AcDbCircle
 10
1095.860344083999
 20
669.2389509696986
 30
0.0
 40
1.0
100
AcDbArc
 50
78.8137819999758
 51
165.0000000000056
  0
ARC
  5
20B
330
1F
100
AcDbEntity
  8
鏡台
  6
CONTINUOUS
 62
     6
100
AcDbCircle
 10
1092.211716784999
 20
655.6220647844993
 30
0.0
 40
1.0
100
AcDbArc
 50
164.9999999999553
 51
253.0908809999582
  0
ARC
  5
20C
330
1F
100
AcDbEntity
  8
鏡台
  6
CONTINUOUS
 62
     6
100
AcDbCircle
 10
1082.127807999999
 20
623.9847409999993
 30
0.0
 40
17.00025
100
AcDbArc
 50
231.9271239999991
 51
288.0711059999998
  0
ARC
  5
20D
330
1F
100
AcDbEntity
  8
鏡台
  6
CONTINUOUS
 62
     6
100
AcDbCircle
 10
1092.674560999999
 20
591.6614379999983
 30
0.0
 40
17.000208
100
AcDbArc
 50
79.99896199999944
 51
108.0710449999981
  0
ARC
  5
20E
330
1F
100
AcDbEntity
  8
鏡台
  6
CONTINUOUS
 62
     6
100
AcDbCircle
 10
1092.674682999999
 20
591.6616209999993
 30
0.0
 40
17.000029
100
AcDbArc
 50
51.92639200000016
 51
79.99896199999789
  0
ARC
  5
20F
330
1F
100
AcDbEntity
  8
鏡台
  6
CONTINUOUS
 62
     6
100
AcDbCircle
 10
1082.127807999999
 20
631.9847409999993
 30
0.0
 40
17.00025
100
AcDbArc
 50
231.9271239999991
 51
288.0711059999998
  0
ARC
  5
210
330
1F
100
AcDbEntity
  8
鏡台
  6
CONTINUOUS
 62
     6
100
AcDbCircle
 10
1092.674560999999
 20
599.6614379999983
 30
0.0
 40
17.000208
100
AcDbArc
 50
79.99896199999944
 51
108.0710449999981
  0
ARC
  5
211
330
1F
100
AcDbEntity
  8
鏡台
  6
CONTINUOUS
 62
     6
100
AcDbCircle
 10
1092.674682999999
 20
599.6616209999993
 30
0.0
 40
17.000029
100
AcDbArc
 50
51.92639200000016
 51
79.99896199999789
  0
ARC
  5
212
330
1F
100
AcDbEntity
  8
鏡台
  6
CONTINUOUS
 62
     6
100
AcDbCircle
 10
1053.499999999999
 20
576.9999999999991
 30
0.0
 40
30.00000000000002
100
AcDbArc
 50
270.0000000000002
 51
318.2063289999991
  0
ARC
  5
213
330
1F
100
AcDbEntity
  8
鏡台
  6
CONTINUOUS
 62
     6
100
AcDbCircle
 10
1053.499999999999
 20
576.9999999999991
 30
0.0
 40
24.00000000000002
100
AcDbArc
 50
270.0000000000002
 51
319.0090329999999
  0
LINE
  5
214
330
1F
100
AcDbEntity
  8
鏡台
  6
CONTINUOUS
 62
     6
100
AcDbLine
 10
503.4999999999974
 20
539.9999999999982
 30
0.0
 11
443.4999999999974
 21
539.9999999999982
 31
0.0
  0
LINE
  5
215
330
1F
100
AcDbEntity
  8
鏡台
  6
CONTINUOUS
 62
     6
100
AcDbLine
 10
473.4999999999974
 20
569.9999999999982
 30
0.0
 11
473.4999999999974
 21
509.9999999999982
 31
0.0
  0
CIRCLE
  5
216
330
1F
100
AcDbEntity
  8
鏡台
  6
CONTINUOUS
 62
     2
100
AcDbCircle
 10
473.4999999999993
 20
539.9999999999991
 30
0.0
 40
7.000000000000004
  0
LINE
  5
217
330
1F
100
AcDbEntity
  8
鏡台
  6
CONTINUOUS
 62
     6
100
AcDbLine
 10
1008.499999999997
 20
539.9999999999982
 30
0.0
 11
948.4999999999975
 21
539.9999999999982
 31
0.0
  0
LINE
  5
218
330
1F
100
AcDbEntity
  8
鏡台
  6
CONTINUOUS
 62
     6
100
AcDbLine
 10
978.4999999999975
 20
569.9999999999982
 30
0.0
 11
978.4999999999975
 21
509.9999999999982
 31
0.0
  0
CIRCLE
  5
219
330
1F
100
AcDbEntity
  8
鏡台
  6
CONTINUOUS
 62
     2
100
AcDbCircle
 10
978.4999999999993
 20
539.9999999999991
 30
0.0
 40
7.000000000000004
  0
LINE
  5
21A
330
1F
100
AcDbEntity
  8
鏡台
  6
CONTINUOUS
 62
     2
100
AcDbLine
 10
1053.499999999999
 20
1491.999999999999
 30
0.0
 11
1053.499999999999
 21
494.9999999999991
 31
0.0
  0
LINE
  5
21B
330
1F
100
AcDbEntity
  8
鏡台
  6
CONTINUOUS
 62
     2
100
AcDbLine
 10
453.4999999999993
 20
1491.999999999999
 30
0.0
 11
453.4999999999993
 21
494.9999999999991
 31
0.0
  0
LINE
  5
21C
330
1F
100
AcDbEntity
  8
鏡台
  6
CONTINUOUS
 62
     2
100
AcDbLine
 10
1670.499999999999
 20
1498.999999999999
 30
0.0
 11
1700.499999999999
 21
1499.999999999999
 31
0.0
  0
LINE
  5
21D
330
1F
100
AcDbEntity
  8
鏡台
  6
CONTINUOUS
 62
     2
100
AcDbLine
 10
1523.499999999999
 20
1485.999999999999
 30
0.0
 11
1523.499999999999
 21
1390.999999999999
 31
0.0
  0
LINE
  5
21E
330
1F
100
AcDbEntity
  8
鏡台
  6
CONTINUOUS
 62
     2
100
AcDbLine
 10
1523.499999999999
 20
1390.999999999999
 30
0.0
 11
1630.499999999999
 21
1395.999999999999
 31
0.0
  0
LINE
  5
21F
330
1F
100
AcDbEntity
  8
鏡台
  6
CONTINUOUS
 62
     2
100
AcDbLine
 10
1523.499999999999
 20
1485.999999999999
 30
0.0
 11
1630.499999999999
 21
1485.999999999999
 31
0.0
  0
LINE
  5
220
330
1F
100
AcDbEntity
  8
鏡台
  6
CONTINUOUS
 62
     6
100
AcDbLine
 10
1523.499999999999
 20
1474.999999999999
 30
0.0
 11
1630.499999999999
 21
1474.999999999999
 31
0.0
  0
LINE
  5
221
330
1F
100
AcDbEntity
  8
鏡台
  6
CONTINUOUS
 62
     6
100
AcDbLine
 10
1523.499999999999
 20
1469.999999999999
 30
0.0
 11
1630.499999999999
 21
1469.999999999999
 31
0.0
  0
LINE
  5
222
330
1F
100
AcDbEntity
  8
鏡台
  6
CONTINUOUS
 62
     2
100
AcDbLine
 10
1576.999999999999
 20
1189.999999999999
 30
0.0
 11
1576.999999999999
 21
1184.999999999999
 31
0.0
  0
LINE
  5
223
330
1F
100
AcDbEntity
  8
鏡台
  6
CONTINUOUS
 62
     2
100
AcDbLine
 10
1577.999999999999
 20
1150.499999999999
 30
0.0
 11
1670.499999999999
 21
1133.499999999999
 31
0.0
  0
LINE
  5
224
330
1F
100
AcDbEntity
  8
鏡台
  6
CONTINUOUS
 62
     2
100
AcDbLine
 10
1576.999999999999
 20
1189.999999999999
 30
0.0
 11
1670.499999999999
 21
1189.999999999999
 31
0.0
  0
LINE
  5
225
330
1F
100
AcDbEntity
  8
鏡台
  6
CONTINUOUS
 62
     2
100
AcDbLine
 10
1577.999999999999
 20
1184.999999999999
 30
0.0
 11
1577.999999999999
 21
1150.499999999999
 31
0.0
  0
LINE
  5
226
330
1F
100
AcDbEntity
  8
鏡台
  6
CONTINUOUS
 62
     2
100
AcDbLine
 10
1576.999999999999
 20
936.9999999999991
 30
0.0
 11
1576.999999999999
 21
931.9999999999991
 31
0.0
  0
LINE
  5
227
330
1F
100
AcDbEntity
  8
鏡台
  6
CONTINUOUS
 62
     2
100
AcDbLine
 10
1577.999999999999
 20
897.4999999999991
 30
0.0
 11
1670.499999999999
 21
880.4999999999991
 31
0.0
  0
LINE
  5
228
330
1F
100
AcDbEntity
  8
鏡台
  6
CONTINUOUS
 62
     2
100
AcDbLine
 10
1576.999999999999
 20
936.9999999999991
 30
0.0
 11
1670.499999999999
 21
936.9999999999991
 31
0.0
  0
LINE
  5
229
330
1F
100
AcDbEntity
  8
鏡台
  6
CONTINUOUS
 62
     2
100
AcDbLine
 10
1577.999999999999
 20
931.9999999999991
 30
0.0
 11
1577.999999999999
 21
897.4999999999991
 31
0.0
  0
LINE
  5
22A
330
1F
100
AcDbEntity
  8
鏡台
  6
CONTINUOUS
 62
     2
100
AcDbLine
 10
1576.999999999999
 20
634.9999999999991
 30
0.0
 11
1576.999999999999
 21
629.9999999999991
 31
0.0
  0
LINE
  5
22B
330
1F
100
AcDbEntity
  8
鏡台
  6
CONTINUOUS
 62
     2
100
AcDbLine
 10
1577.999999999999
 20
595.4999999999991
 30
0.0
 11
1670.499999999999
 21
578.4999999999991
 31
0.0
  0
LINE
  5
22C
330
1F
100
AcDbEntity
  8
鏡台
  6
CONTINUOUS
 62
     2
100
AcDbLine
 10
1576.999999999999
 20
634.9999999999991
 30
0.0
 11
1670.499999999999
 21
634.9999999999991
 31
0.0
  0
LINE
  5
22D
330
1F
100
AcDbEntity
  8
鏡台
  6
CONTINUOUS
 62
     2
100
AcDbLine
 10
1577.999999999999
 20
629.9999999999991
 30
0.0
 11
1577.999999999999
 21
595.4999999999991
 31
0.0
  0
LINE
  5
22E
330
1F
100
AcDbEntity
  8
鏡台
  6
CONTINUOUS
 62
     2
100
AcDbLine
 10
1650.499999999999
 20
1137.175675675675
 30
0.0
 11
1650.499999999999
 21
936.9999999999991
 31
0.0
  0
LINE
  5
22F
330
1F
100
AcDbEntity
  8
鏡台
  6
CONTINUOUS
 62
     6
100
AcDbLine
 10
1685.499999999997
 20
1319.999999999999
 30
0.0
 11
1747.999999999997
 21
1319.999999999999
 31
0.0
  0
LINE
  5
230
330
1F
100
AcDbEntity
  8
鏡台
  6
CONTINUOUS
 62
     6
100
AcDbLine
 10
1700.499999999997
 20
1321.999999999999
 30
0.0
 11
1732.999999999997
 21
1319.999999999999
 31
0.0
  0
LINE
  5
231
330
1F
100
AcDbEntity
  8
鏡台
  6
CONTINUOUS
 62
     6
100
AcDbLine
 10
1732.999999999997
 20
1319.999999999999
 30
0.0
 11
1700.499999999997
 21
1317.999999999999
 31
0.0
  0
LINE
  5
232
330
1F
100
AcDbEntity
  8
鏡台
  6
CONTINUOUS
 62
     6
100
AcDbLine
 10
1685.499999999997
 20
819.9999999999991
 30
0.0
 11
1747.999999999997
 21
819.9999999999991
 31
0.0
  0
LINE
  5
233
330
1F
100
AcDbEntity
  8
鏡台
  6
CONTINUOUS
 62
     6
100
AcDbLine
 10
1700.499999999997
 20
821.9999999999991
 30
0.0
 11
1732.999999999997
 21
819.9999999999991
 31
0.0
  0
LINE
  5
234
330
1F
100
AcDbEntity
  8
鏡台
  6
CONTINUOUS
 62
     6
100
AcDbLine
 10
1732.999999999997
 20
819.9999999999991
 30
0.0
 11
1700.499999999997
 21
817.9999999999991
 31
0.0
  0
LINE
  5
235
330
1F
100
AcDbEntity
  8
鏡台
  6
CONTINUOUS
 62
     2
100
AcDbLine
 10
1635.002481404893
 20
1495.450248140489
 30
0.0
 11
1670.499999999999
 21
1498.999999999999
 31
0.0
  0
ARC
  5
236
330
1F
100
AcDbEntity
  8
鏡台
  6
CONTINUOUS
 62
     2
100
AcDbCircle
 10
1635.499999999999
 20
1490.475062189439
 30
0.0
 40
5.0
100
AcDbArc
 50
95.7105931375006
 51
180.0
  0
ARC
  5
237
330
1F
100
AcDbEntity
  8
鏡台
  6
CONTINUOUS
 62
     2
100
AcDbCircle
 10
1675.499999999999
 20
1494.163889660065
 30
0.0
 40
5.0
100
AcDbArc
 50
91.90915243299736
 51
180.0
  0
LINE
  5
238
330
1F
100
AcDbEntity
  8
鏡台
  6
CONTINUOUS
 62
     2
100
AcDbLine
 10
1630.499999999999
 20
1490.475062189439
 30
0.0
 11
1630.499999999999
 21
1394.853747659175
 31
0.0
  0
LINE
  5
239
330
1F
100
AcDbEntity
  8
鏡台
  6
CONTINUOUS
 62
     2
100
AcDbLine
 10
1670.499999999999
 20
1389.999999999999
 30
0.0
 11
1633.350187149167
 21
1391.857490642541
 31
0.0
  0
ARC
  5
23A
330
1F
100
AcDbEntity
  8
鏡台
  6
CONTINUOUS
 62
     2
100
AcDbCircle
 10
1633.499999999999
 20
1394.853747659175
 30
0.0
 40
3.000000000000002
100
AcDbArc
 50
180.0
 51
267.1375947738941
  0
LINE
  5
23B
330
1F
100
AcDbEntity
  8
鏡台
  6
CONTINUOUS
 62
     6
100
AcDbLine
 10
1667.499999999999
 20
1189.999999999999
 30
0.0
 11
1667.499999999999
 21
1134.051351351351
 31
0.0
  0
LINE
  5
23C
330
1F
100
AcDbEntity
  8
鏡台
  6
CONTINUOUS
 62
     6
100
AcDbLine
 10
1576.999999999999
 20
1184.999999999999
 30
0.0
 11
1667.499999999999
 21
1184.999999999999
 31
0.0
  0
LINE
  5
23D
330
1F
100
AcDbEntity
  8
鏡台
  6
CONTINUOUS
 62
     6
100
AcDbLine
 10
1576.999999999999
 20
931.9999999999991
 30
0.0
 11
1667.499999999999
 21
931.9999999999991
 31
0.0
  0
LINE
  5
23E
330
1F
100
AcDbEntity
  8
鏡台
  6
CONTINUOUS
 62
     6
100
AcDbLine
 10
1667.499999999999
 20
936.9999999999991
 30
0.0
 11
1667.499999999999
 21
881.0513513513506
 31
0.0
  0
LINE
  5
23F
330
1F
100
AcDbEntity
  8
鏡台
  6
CONTINUOUS
 62
     6
100
AcDbLine
 10
1576.999999999999
 20
629.9999999999991
 30
0.0
 11
1667.499999999999
 21
629.9999999999991
 31
0.0
  0
LINE
  5
240
330
1F
100
AcDbEntity
  8
鏡台
  6
CONTINUOUS
 62
     6
100
AcDbLine
 10
1667.499999999999
 20
634.9999999999991
 30
0.0
 11
1667.499999999999
 21
579.0513513513506
 31
0.0
  0
LINE
  5
241
330
1F
100
AcDbEntity
  8
鏡台
  6
CONTINUOUS
 62
     6
100
AcDbLine
 10
1685.499999999997
 20
539.9999999999991
 30
0.0
 11
1747.999999999997
 21
539.9999999999991
 31
0.0
  0
LINE
  5
242
330
1F
100
AcDbEntity
  8
鏡台
  6
CONTINUOUS
 62
     6
100
AcDbLine
 10
1700.499999999997
 20
541.9999999999991
 30
0.0
 11
1732.999999999997
 21
539.9999999999991
 31
0.0
  0
LINE
  5
243
330
1F
100
AcDbEntity
  8
鏡台
  6
CONTINUOUS
 62
     6
100
AcDbLine
 10
1732.999999999997
 20
539.9999999999991
 30
0.0
 11
1700.499999999997
 21
537.9999999999991
 31
0.0
  0
LINE
  5
244
330
1F
100
AcDbEntity
  8
鏡台
  6
CONTINUOUS
 62
     2
100
AcDbLine
 10
1700.499999999999
 20
494.9999999999991
 30
0.0
 11
1700.499999999999
 21
1499.999999999999
 31
0.0
  0
LINE
  5
245
330
1F
100
AcDbEntity
  8
鏡台
  6
CONTINUOUS
 62
     2
100
AcDbLine
 10
1670.499999999999
 20
494.9999999999991
 30
0.0
 11
1670.499999999999
 21
1494.163889660065
 31
0.0
  0
LINE
  5
246
330
1F
100
AcDbEntity
  8
鏡台
  6
CONTINUOUS
 62
     2
100
AcDbLine
 10
1700.5
 20
494.9999999999991
 30
0.0
 11
1670.5
 21
494.9999999999991
 31
0.0
  0
LINE
  5
247
330
1F
100
AcDbEntity
  8
鏡台
  6
CONTINUOUS
 62
     2
100
AcDbLine
 10
1053.500000000002
 20
494.9999999999991
 30
0.0
 11
453.5000000000002
 21
494.9999999999991
 31
0.0
  0
DIMENSION
  5
249
330
1F
100
AcDbEntity
  8
寸法
  6
CONTINUOUS
 62
     3
100
AcDbDimension
  2
*D15
 10
473.4999999999993
 20
2100.999999999999
 30
0.0
 11
388.4999999999994
 21
2124.499999940394
 31
0.0
 70
   160
  3
ISO-25
100
AcDbAlignedDimension
 13
453.4999999999993
 23
2020.999999999999
 33
0.0
 14
473.4999999999993
 24
2053.499999999999
 34
0.0
100
AcDbRotatedDimension
1001
ACAD
1000
DSTYLE
1002
{
1070
   270
1070
     2
1070
     6
1000
EX_NORM
1070
     7
1000
EX_NORM
1070
    41
1040
30.0
1070
    42
1040
6.99999988079071
1070
    44
1040
10.0
1070
    73
1070
     0
1070
    74
1070
     0
1070
    75
1070
     0
1070
    76
1070
     0
1070
    77
1070
     1
1070
    78
1070
     8
1070
   140
1040
40.0
1070
   147
1040
0.0
1070
   173
1070
     1
1070
   176
1070
     3
1070
   177
1070
     3
1070
   178
1070
     2
1070
   271
1070
     2
1070
   277
1070
     2
1070
   279
1070
     2
1070
   280
1070
     1
1070
   287
1070
     5
1070
   340
1005
248
1002
}
  0
DIMENSION
  5
259
330
1F
100
AcDbEntity
  8
寸法
  6
CONTINUOUS
 62
     3
100
AcDbDimension
  2
*D16
 10
1053.499999999999
 20
2100.999999999999
 30
0.0
 11
1118.5
 21
2124.499999940394
 31
0.0
 70
   160
  3
ISO-25
100
AcDbAlignedDimension
 13
978.4999999999993
 23
2053.499999999999
 33
0.0
 14
1053.499999999999
 24
2020.999999999999
 34
0.0
100
AcDbRotatedDimension
1001
ACAD
1000
DSTYLE
1002
{
1070
   270
1070
     2
1070
     6
1000
EX_NORM
1070
     7
1000
EX_NORM
1070
    41
1040
30.0
1070
    42
1040
6.99999988079071
1070
    44
1040
10.0
1070
    73
1070
     0
1070
    74
1070
     0
1070
    75
1070
     0
1070
    76
1070
     0
1070
    77
1070
     1
1070
    78
1070
     8
1070
   140
1040
40.0
1070
   147
1040
0.0
1070
   173
1070
     1
1070
   176
1070
     3
1070
   177
1070
     3
1070
   178
1070
     2
1070
   271
1070
     2
1070
   277
1070
     2
1070
   279
1070
     2
1070
   280
1070
     2
1070
   287
1070
     5
1070
   340
1005
248
1002
}
  0
DIMENSION
  5
266
330
1F
100
AcDbEntity
  8
寸法
  6
CONTINUOUS
 62
     3
100
AcDbDimension
  2
*D17
 10
1700.499999999999
 20
1559.999999999999
 30
0.0
 11
1611.999999999999
 21
1583.499999940394
 31
0.0
 70
   160
  3
ISO-25
100
AcDbAlignedDimension
 13
1523.499999999999
 23
1485.999999999999
 33
0.0
 14
1700.499999999999
 24
1499.999999999999
 34
0.0
100
AcDbRotatedDimension
1001
ACAD
1000
DSTYLE
1002
{
1070
   270
1070
     2
1070
     6
1000
EX_NORM
1070
     7
1000
EX_NORM
1070
    41
1040
30.0
1070
    42
1040
6.99999988079071
1070
    44
1040
10.0
1070
    73
1070
     0
1070
    74
1070
     0
1070
    75
1070
     0
1070
    76
1070
     0
1070
    77
1070
     1
1070
    78
1070
     8
1070
   140
1040
40.0
1070
   147
1040
0.0
1070
   173
1070
     1
1070
   176
1070
     3
1070
   177
1070
     3
1070
   178
1070
     2
1070
   271
1070
     2
1070
   277
1070
     2
1070
   279
1070
     2
1070
   280
1070
     0
1070
   287
1070
     5
1070
   340
1005
248
1002
}
  0
TEXT
  5
273
330
1F
100
AcDbEntity
  8
寸法
  6
CONTINUOUS
 62
     2
100
AcDbText
 10
1750.999999999999
 20
1378.500016629694
 30
0.0
 40
40.0
  1
取付ねじ
 41
1.034782608695652
  7
EXCADSTD
 72
     5
 11
1886.999999999999
 21
1378.500016629694
 31
0.0
100
AcDbText
  0
LEADER
  5
274
330
1F
100
AcDbEntity
  8
寸法
  6
CONTINUOUS
 62
     3
100
AcDbLeader
  3
ISO-25
 76
     3
 10
1713.703842409999
 20
1321.187455851699
 30
0.0
 10
1745.999999999999
 20
1375.000016689299
 30
0.0
 10
1882.999999999999
 20
1375.000016689299
 30
0.0
1001
ACAD
1000
DSTYLE
1002
{
1070
     5
1000
EX_NORM
1070
    41
1040
30.0
1070
   341
1005
4C
1002
}
  0
DIMENSION
  5
275
330
1F
100
AcDbEntity
  8
寸法
  6
CONTINUOUS
 62
     3
100
AcDbDimension
  2
*D18
 10
1791.999999999999
 20
1319.999999999999
 30
0.0
 11
1768.500000059604
 21
1069.999999999999
 31
0.0
 70
   160
  3
ISO-25
100
AcDbAlignedDimension
 13
1732.999999999999
 23
819.9999999999991
 33
0.0
 14
1732.999999999999
 24
1319.999999999999
 34
0.0
 50
90.0
100
AcDbRotatedDimension
1001
ACAD
1000
DSTYLE
1002
{
1070
   270
1070
     2
1070
     6
1000
EX_NORM
1070
     7
1000
EX_NORM
1070
    41
1040
30.0
1070
    42
1040
6.999999880790938
1070
    44
1040
10.0
1070
    73
1070
     0
1070
    74
1070
     0
1070
    75
1070
     0
1070
    76
1070
     0
1070
    77
1070
     1
1070
    78
1070
     8
1070
   140
1040
40.0
1070
   147
1040
0.0
1070
   173
1070
     1
1070
   176
1070
     3
1070
   177
1070
     3
1070
   178
1070
     2
1070
   271
1070
     2
1070
   277
1070
     2
1070
   279
1070
     2
1070
   280
1070
     0
1070
   287
1070
     5
1070
   340
1005
248
1002
}
  0
DIMENSION
  5
282
330
1F
100
AcDbEntity
  8
寸法
  6
CONTINUOUS
 62
     3
100
AcDbDimension
  2
*D19
 10
1700.5
 20
719.9999999999991
 30
0.0
 11
1497.000000000001
 21
743.4999999403944
 31
0.0
 70
   160
  1
124
  3
ISO-25
100
AcDbAlignedDimension
 13
1577.000000000001
 23
634.9999999999991
 33
0.0
 14
1700.5
 24
645.9999999999991
 34
0.0
100
AcDbRotatedDimension
1001
ACAD
1000
DSTYLE
1002
{
1070
   270
1070
     2
1070
     6
1000
EX_NORM
1070
     7
1000
EX_NORM
1070
    41
1040
30.0
1070
    42
1040
6.99999988079071
1070
    44
1040
10.0
1070
    73
1070
     0
1070
    74
1070
     0
1070
    75
1070
     0
1070
    76
1070
     1
1070
    77
1070
     1
1070
    78
1070
     8
1070
   140
1040
40.0
1070
   147
1040
0.0
1070
   173
1070
     1
1070
   176
1070
     3
1070
   177
1070
     3
1070
   178
1070
     2
1070
   271
1070
     2
1070
   277
1070
     2
1070
   279
1070
     2
1070
   280
1070
     1
1070
   287
1070
     5
1070
   340
1005
248
1002
}
  0
TEXT
  5
28E
330
1F
100
AcDbEntity
  8
寸法
  6
CONTINUOUS
 62
     2
100
AcDbText
 10
645.9999999999993
 20
422.4999999403944
 30
0.0
 40
40.0
  1
防水テープ
 41
1.013793103448276
  7
EXCADSTD
 72
     5
 11
813.9999999999993
 21
422.4999999403944
 31
0.0
100
AcDbText
  0
LEADER
  5
28F
330
1F
100
AcDbEntity
  8
寸法
  6
CONTINUOUS
 62
     3
100
AcDbLeader
  3
ISO-25
 76
     3
 10
601.9999999999993
 20
494.9999999999991
 30
0.0
 10
640.9999999999993
 20
418.9999999999991
 30
0.0
 10
817.9999999999993
 20
418.9999999999991
 30
0.0
1001
ACAD
1000
DSTYLE
1002
{
1070
     5
1000
EX_NORM
1070
    41
1040
30.0
1070
   341
1005
4C
1002
}
  0
TEXT
  5
290
330
1F
100
AcDbEntity
  8
寸法
  6
CONTINUOUS
 62
     2
100
AcDbText
 10
1154.460863882904
 20
733.8483772939489
 30
0.0
 40
40.0
  1
電源コード
 50
90.0
 41
1.013793103448276
  7
EXCADSTD
 72
     5
 11
1154.460863882904
 21
901.8483772939489
 31
0.0
100
AcDbText
  0
LEADER
  5
291
330
1F
100
AcDbEntity
  8
寸法
  6
CONTINUOUS
 62
     3
100
AcDbLeader
  3
ISO-25
 76
     3
 10
1102.9692962285
 20
668.8524883671889
 30
0.0
 10
1157.9608638233
 20
728.8483772939489
 30
0.0
 10
1157.9608638233
 20
898.8483772939489
 30
0.0
1001
ACAD
1000
DSTYLE
1002
{
1070
     5
1000
EX_NORM
1070
    41
1040
30.0
1070
   341
1005
4C
1002
}
  0
DIMENSION
  5
292
330
1F
100
AcDbEntity
  8
寸法
  6
CONTINUOUS
 62
     3
100
AcDbDimension
  2
*D20
 10
1053.499999999999
 20
1559.999999999999
 30
0.0
 11
753.4999999999994
 21
1583.499999940394
 31
0.0
 70
   160
  3
ISO-25
100
AcDbAlignedDimension
 13
453.4999999999993
 23
1491.999999999999
 33
0.0
 14
1053.499999999999
 24
1491.999999999999
 34
0.0
100
AcDbRotatedDimension
1001
ACAD
1000
DSTYLE
1002
{
1070
   270
1070
     2
1070
     6
1000
EX_NORM
1070
     7
1000
EX_NORM
1070
    41
1040
30.0
1070
    42
1040
6.999999880790483
1070
    44
1040
10.0
1070
    73
1070
     0
1070
    74
1070
     0
1070
    75
1070
     0
1070
    76
1070
     0
1070
    77
1070
     1
1070
    78
1070
     8
1070
   140
1040
40.0
1070
   147
1040
0.0
1070
   173
1070
     1
1070
   176
1070
     3
1070
   177
1070
     3
1070
   178
1070
     2
1070
   271
1070
     2
1070
   277
1070
     2
1070
   279
1070
     2
1070
   280
1070
     0
1070
   287
1070
     5
1070
   340
1005
248
1002
}
  0
DIMENSION
  5
29F
330
1F
100
AcDbEntity
  8
寸法
  6
CONTINUOUS
 62
     3
100
AcDbDimension
  2
*D21
 10
1053.499999999999
 20
719.9999999999991
 30
0.0
 11
968.4999999999993
 21
743.4999999403944
 31
0.0
 70
   160
  1
※170
  3
ISO-25
100
AcDbAlignedDimension
 13
883.4999999999993
 23
1049.999999999999
 33
0.0
 14
1053.499999999999
 24
1491.999999999999
 34
0.0
100
AcDbRotatedDimension
1001
ACAD
1000
DSTYLE
1002
{
1070
   270
1070
     2
1070
     6
1000
EX_NORM
1070
     7
1000
EX_NORM
1070
    41
1040
30.0
1070
    42
1040
6.99999988079071
1070
    44
1040
10.0
1070
    73
1070
     0
1070
    74
1070
     0
1070
    75
1070
     0
1070
    76
1070
     1
1070
    77
1070
     1
1070
    78
1070
     8
1070
   140
1040
40.0
1070
   147
1040
0.0
1070
   173
1070
     1
1070
   176
1070
     3
1070
   177
1070
     3
1070
   178
1070
     2
1070
   271
1070
     2
1070
   277
1070
     2
1070
   279
1070
     2
1070
   280
1070
     0
1070
   287
1070
     5
1070
   340
1005
248
1002
}
  0
DIMENSION
  5
2AB
330
1F
100
AcDbEntity
  8
寸法
  6
CONTINUOUS
 62
     3
100
AcDbDimension
  2
*D22
 10
1290.999999999999
 20
1499.999999999999
 30
0.0
 11
1267.500000059604
 21
997.4999999999986
 31
0.0
 70
   160
  3
ISO-25
100
AcDbAlignedDimension
 13
1053.499999999999
 23
494.9999999999991
 33
0.0
 14
1045.499999999999
 24
1499.999999999999
 34
0.0
 50
90.0
100
AcDbRotatedDimension
1001
ACAD
1000
DSTYLE
1002
{
1070
   270
1070
     2
1070
     6
1000
EX_NORM
1070
     7
1000
EX_NORM
1070
    41
1040
30.0
1070
    42
1040
6.99999988079071
1070
    44
1040
10.0
1070
    73
1070
     0
1070
    74
1070
     0
1070
    75
1070
     0
1070
    76
1070
     0
1070
    77
1070
     1
1070
    78
1070
     0
1070
   140
1040
40.0
1070
   147
1040
0.0
1070
   173
1070
     1
1070
   176
1070
     3
1070
   177
1070
     3
1070
   178
1070
     2
1070
   271
1070
     0
1070
   277
1070
     2
1070
   279
1070
     2
1070
   280
1070
     0
1070
   287
1070
     5
1070
   340
1005
248
1002
}
  0
DIMENSION
  5
2B8
330
1F
100
AcDbEntity
  8
寸法
  6
CONTINUOUS
 62
     3
100
AcDbDimension
  2
*D23
 10
1170.999999999999
 20
549.9999999999991
 30
0.0
 11
1147.500000059604
 21
614.9999999999989
 31
0.0
 70
   160
  3
ISO-25
100
AcDbAlignedDimension
 13
1053.499999999999
 23
494.9999999999991
 33
0.0
 14
1053.499999999999
 24
549.9999999999991
 34
0.0
 50
90.0
100
AcDbRotatedDimension
1001
ACAD
1000
DSTYLE
1002
{
1070
   270
1070
     2
1070
     6
1000
EX_NORM
1070
     7
1000
EX_NORM
1070
    41
1040
30.0
1070
    42
1040
6.99999988079071
1070
    44
1040
10.0
1070
    73
1070
     0
1070
    74
1070
     0
1070
    75
1070
     0
1070
    76
1070
     0
1070
    77
1070
     1
1070
    78
1070
     0
1070
   140
1040
40.0
1070
   147
1040
0.0
1070
   173
1070
     1
1070
   176
1070
     3
1070
   177
1070
     3
1070
   178
1070
     2
1070
   271
1070
     0
1070
   277
1070
     2
1070
   279
1070
     2
1070
   280
1070
     2
1070
   287
1070
     5
1070
   340
1005
248
1002
}
  0
DIMENSION
  5
2C7
330
1F
100
AcDbEntity
  8
寸法
  6
CONTINUOUS
 62
     3
100
AcDbDimension
  2
*D24
 10
1230.999999999999
 20
1049.999999999999
 30
0.0
 11
1207.500000059604
 21
772.4999999999986
 31
0.0
 70
   160
  1
※555
  3
ISO-25
100
AcDbAlignedDimension
 13
1053.499999999999
 23
494.9999999999991
 33
0.0
 14
888.4999999999993
 24
1049.999999999999
 34
0.0
 50
90.0
100
AcDbRotatedDimension
1001
ACAD
1000
DSTYLE
1002
{
1070
   270
1070
     2
1070
     6
1000
EX_NORM
1070
     7
1000
EX_NORM
1070
    41
1040
30.0
1070
    42
1040
6.99999988079071
1070
    44
1040
10.0
1070
    73
1070
     0
1070
    74
1070
     0
1070
    75
1070
     0
1070
    76
1070
     0
1070
    77
1070
     1
1070
    78
1070
     0
1070
   140
1040
40.0
1070
   147
1040
0.0
1070
   173
1070
     1
1070
   176
1070
     3
1070
   177
1070
     3
1070
   178
1070
     2
1070
   271
1070
     0
1070
   277
1070
     2
1070
   279
1070
     2
1070
   280
1070
     0
1070
   287
1070
     5
1070
   340
1005
248
1002
}
  0
DIMENSION
  5
2D4
330
1F
100
AcDbEntity
  8
寸法
  6
CONTINUOUS
 62
     3
100
AcDbDimension
  2
*D25
 10
1700.5
 20
414.9999999999991
 30
0.0
 11
1605.5
 21
438.4999999403945
 31
0.0
 70
   160
  3
ISO-25
100
AcDbAlignedDimension
 13
1670.5
 23
494.9999999999991
 33
0.0
 14
1700.5
 24
494.9999999999991
 34
0.0
100
AcDbRotatedDimension
1001
ACAD
1000
DSTYLE
1002
{
1070
   270
1070
     2
1070
     6
1000
EX_NORM
1070
     7
1000
EX_NORM
1070
    41
1040
30.0
1070
    42
1040
6.99999988079071
1070
    44
1040
10.0
1070
    73
1070
     0
1070
    74
1070
     0
1070
    75
1070
     0
1070
    76
1070
     0
1070
    77
1070
     1
1070
    78
1070
     0
1070
   140
1040
40.0
1070
   147
1040
0.0
1070
   173
1070
     1
1070
   176
1070
     3
1070
   177
1070
     3
1070
   178
1070
     2
1070
   271
1070
     0
1070
   277
1070
     2
1070
   279
1070
     2
1070
   280
1070
     1
1070
   287
1070
     5
1070
   340
1005
248
1002
}
  0
DIMENSION
  5
2E3
330
1F
100
AcDbEntity
  8
寸法
  6
CONTINUOUS
 62
     3
100
AcDbDimension
  2
*D26
 10
1792.000000000001
 20
539.9999999999991
 30
0.0
 11
1768.500000059605
 21
429.9999999999977
 31
0.0
 70
   160
  3
ISO-25
100
AcDbAlignedDimension
 13
1700.5
 23
494.9999999999991
 33
0.0
 14
1733.0
 24
539.9999999999991
 34
0.0
 50
90.0
100
AcDbRotatedDimension
1001
ACAD
1000
DSTYLE
1002
{
1070
   270
1070
     2
1070
     6
1000
EX_NORM
1070
     7
1000
EX_NORM
1070
    41
1040
30.0
1070
    42
1040
6.99999988079071
1070
    44
1040
10.0
1070
    73
1070
     0
1070
    74
1070
     0
1070
    75
1070
     0
1070
    76
1070
     0
1070
    77
1070
     1
1070
    78
1070
     0
1070
   140
1040
40.0
1070
   147
1040
0.0
1070
   173
1070
     1
1070
   176
1070
     3
1070
   177
1070
     3
1070
   178
1070
     2
1070
   271
1070
     0
1070
   277
1070
     2
1070
   279
1070
     2
1070
   280
1070
     1
1070
   287
1070
     5
1070
   340
1005
248
1002
}
  0
DIMENSION
  5
2F2
330
1F
100
AcDbEntity
  8
寸法
  6
CONTINUOUS
 62
     3
100
AcDbDimension
  2
*D27
 10
1791.999999999999
 20
819.9999999999991
 30
0.0
 11
1768.500000059604
 21
679.9999999999986
 31
0.0
 70
   160
  3
ISO-25
100
AcDbAlignedDimension
 13
1732.999999999999
 23
539.9999999999991
 33
0.0
 14
1732.999999999999
 24
819.9999999999991
 34
0.0
 50
90.0
100
AcDbRotatedDimension
1001
ACAD
1000
DSTYLE
1002
{
1070
   270
1070
     2
1070
     6
1000
EX_NORM
1070
     7
1000
EX_NORM
1070
    41
1040
30.0
1070
    42
1040
6.999999880790938
1070
    44
1040
10.0
1070
    73
1070
     0
1070
    74
1070
     0
1070
    75
1070
     0
1070
    76
1070
     0
1070
    77
1070
     1
1070
    78
1070
     0
1070
   140
1040
40.0
1070
   147
1040
0.0
1070
   173
1070
     1
1070
   176
1070
     3
1070
   177
1070
     3
1070
   178
1070
     2
1070
   271
1070
     0
1070
   277
1070
     2
1070
   279
1070
     2
1070
   280
1070
     0
1070
   287
1070
     5
1070
   340
1005
248
1002
}
  0
ENDSEC
  0
SECTION
  2
OBJECTS
  0
DICTIONARY
  5
C
330
0
100
AcDbDictionary
  3
ACAD_GROUP
350
D
  3
ACAD_LAYOUT
350
1A
  3
ACAD_MATERIAL
350
3B
  3
ACAD_MLEADERSTYLE
350
321
  3
ACAD_MLINESTYLE
350
17
  3
ACAD_PLOTSETTINGS
350
19
  3
ACAD_VISUALSTYLE
350
2A
  3
ACDBHEADERROUNDTRIPXREC
350
2FF
  3
ACDBVARIABLEDICTIONARY
350
31F
  0
DICTIONARY
  5
D
102
{ACAD_REACTORS
330
C
102
}
330
C
100
AcDbDictionary
  0
DICTIONARY
  5
1A
102
{ACAD_REACTORS
330
C
102
}
330
C
100
AcDbDictionary
  0
DICTIONARY
  5
3B
102
{ACAD_REACTORS
330
C
102
}
330
C
100
AcDbDictionary
  3
BYBLOCK
350
3D
  3
BYLAYER
350
3C
  3
GLOBAL
350
3E
  0
DICTIONARY
  5
321
102
{ACAD_REACTORS
330
C
102
}
330
C
100
AcDbDictionary
  0
DICTIONARY
  5
17
102
{ACAD_REACTORS
330
C
102
}
330
C
100
AcDbDictionary
  3
STANDARD
350
18
  0
DICTIONARY
  5
19
102
{ACAD_REACTORS
330
C
102
}
330
C
100
AcDbDictionary
  0
DICTIONARY
  5
2A
102
{ACAD_REACTORS
330
C
102
}
330
C
100
AcDbDictionary
  3
2DWIREFRAME
350
2F
  3
3D_HIDDEN
350
31
  3
3DWIREFRAME
350
30
  3
BASIC
350
32
  3
BRIGHTEN
350
36
  3
COLORCHANGE
350
3A
  3
CONCEPTUAL
350
34
  3
DIM
350
35
  3
FACEPATTERN
350
39
  3
FLAT
350
2B
  3
FLATWITHEDGES
350
2C
  3
GOURAUD
350
2D
  3
GOURAUDWITHEDGES
350
2E
  3
LINEPATTERN
350
38
  3
REALISTIC
350
33
  3
THICKEN
350
37
  0
DICTIONARY
  5
2FF
102
{ACAD_REACTORS
330
C
102
}
330
C
100
AcDbDictionary
  3
CEPSNTYPE
350
308
  3
DIMSTYLEDATA
350
31E
  3
FINGERPRINTGUID
350
309
  3
HYPERLINKBASE
350
302
  3
INSUNITS
350
307
  3
LAYOUTDICT
350
304
  3
LWETCUNION
350
306
  3
PLOTSETDICT
350
305
  3
PSVPSCALE
350
30B
  3
PUCSBASE
350
30E
  3
PUCSORGBACK
350
314
  3
PUCSORGBOTTOM
350
310
  3
PUCSORGFRONT
350
313
  3
PUCSORGLEFT
350
311
  3
PUCSORGRIGHT
350
312
  3
PUCSORGTOP
350
30F
  3
PUCSORTHOREF
350
30C
  3
PUCSORTHOVIEW
350
30D
  3
STYLESHEET
350
303
  3
TSTACKALIGN
350
300
  3
TSTACKSIZE
350
301
  3
UCSBASE
350
317
  3
UCSORGBACK
350
31D
  3
UCSORGBOTTOM
350
319
  3
UCSORGFRONT
350
31C
  3
UCSORGLEFT
350
31A
  3
UCSORGRIGHT
350
31B
  3
UCSORGTOP
350
318
  3
UCSORTHOREF
350
315
  3
UCSORTHOVIEW
350
316
  3
VERSIONGUID
350
30A
  0
DICTIONARY
  5
31F
102
{ACAD_REACTORS
330
C
102
}
330
C
100
AcDbDictionary
  3
DIMASSOC
350
324
  3
HIDETEXT
350
325
  3
PSOLHEIGHT
350
323
  3
PSOLWIDTH
350
322
  0
MATERIAL
  5
3D
102
{ACAD_REACTORS
330
3B
102
}
102
{ACAD_XDICTIONARY
360
328
102
}
330
3B
100
AcDbMaterial
  1
ByBlock
  0
MATERIAL
  5
3C
102
{ACAD_REACTORS
330
3B
102
}
102
{ACAD_XDICTIONARY
360
326
102
}
330
3B
100
AcDbMaterial
  1
ByLayer
  0
MATERIAL
  5
3E
102
{ACAD_REACTORS
330
3B
102
}
102
{ACAD_XDICTIONARY
360
32A
102
}
330
3B
100
AcDbMaterial
  1
Global
  0
MLINESTYLE
  5
18
102
{ACAD_REACTORS
330
17
102
}
330
17
100
AcDbMlineStyle
  2
Standard
 70
     0
  3

 62
   256
 51
90.0
 52
90.0
 71
     2
 49
0.5
 62
   256
  6
BYLAYER
 49
-0.5
 62
   256
  6
BYLAYER
  0
ACAD_PROXY_OBJECT
  5
2F
102
{ACAD_REACTORS
330
2A
102
}
330
2A
100
AcDbProxyObject
 90
      499
 91
      501
 93
      436
310
42CC9915DA5C99599C985B595049028333333333333E3BF0000000000000FB0107901411070040501600405405064090741402480A0340
1001
ACAD
1000
AcDbSavedByObjectVersion
1070
     0
  0
ACAD_PROXY_OBJECT
  5
31
102
{ACAD_REACTORS
330
2A
102
}
330
2A
100
AcDbProxyObject
 90
      499
 91
      501
 93
      500
310
424CD108121A5919195B90640502408333333333333E3BF0000000000000FB01079024090700405020000000000001110200405405064090740C02480A0340
1001
ACAD
1000
AcDbSavedByObjectVersion
1070
     0
  0
ACAD_PROXY_OBJECT
  5
30
102
{ACAD_REACTORS
330
2A
102
}
330
2A
100
AcDbProxyObject
 90
      499
 91
      501
 93
      436
310
42CCD915DA5C99599C985B595059028333333333333E3BF0000000000000FB0107901411070040501600405405064090741402480A0340
1001
ACAD
1000
AcDbSavedByObjectVersion
1070
     0
  0
ACAD_PROXY_OBJECT
  5
32
102
{ACAD_REACTORS
330
2A
102
}
330
2A
100
AcDbProxyObject
 90
      499
 91
      501
 93
      388
310
4150985CDA58D07406404333333333333E3BF0000000000000FB0107A41107004050150841D405064090741402480A0350
1001
ACAD
1000
AcDbSavedByObjectVersion
1070
     0
  0
ACAD_PROXY_OBJECT
  5
36
102
{ACAD_REACTORS
330
2A
102
}
330
2A
100
AcDbProxyObject
 90
      499
 91
      501
 93
      428
310
42109C9A59DA1D195B90C409028333333333333E3BF0000000000000FB010790141107004050150841D405064090741402480A029950
1001
ACAD
1000
AcDbSavedByObjectVersion
1070
     0
  0
ACAD_PROXY_OBJECT
  5
3A
102
{ACAD_REACTORS
330
2A
102
}
330
2A
100
AcDbProxyObject
 90
      499
 91
      501
 93
      452
310
42D0DBDB1BDC90DA185B99D95104090240C333333333333E3BF0000000000000FB0108901411070040501508421405064090741402480A0350
1001
ACAD
1000
AcDbSavedByObjectVersion
1070
     0
  0
ACAD_PROXY_OBJECT
  5
34
102
{ACAD_REACTORS
330
2A
102
}
330
2A
100
AcDbProxyObject
 90
      499
 91
      501
 93
      500
310
4290DBDB98D95C1D1D585B10940D028333333333333E3BF0000000000000FB0107902409070040501000000000000111010841D405064090740C02480A0340
1001
ACAD
1000
AcDbSavedByObjectVersion
1070
     0
  0
ACAD_PROXY_OBJECT
  5
35
102
{ACAD_REACTORS
330
2A
102
}
330
2A
100
AcDbProxyObject
 90
      499
 91
      501
 93
      412
310
40D11A5B50B409028333333333333E3BF0000000000000FB010790141107004050150841D405064090741402480A02677FFFFFD0
1001
ACAD
1000
AcDbSavedByObjectVersion
1070
     0
  0
ACAD_PROXY_OBJECT
  5
39
102
{ACAD_REACTORS
330
2A
102
}
330
2A
100
AcDbProxyObject
 90
      499
 91
      501
 93
      444
310
42D19858D95C185D1D195C9B90F409028333333333333E3BF0000000000000FB010790141107004050150841D405064090741402480A0350
1001
ACAD
1000
AcDbSavedByObjectVersion
1070
     0
  0
ACAD_PROXY_OBJECT
  5
2B
102
{ACAD_REACTORS
330
2A
102
}
330
2A
100
AcDbProxyObject
 90
      499
 91
      501
 93
      388
310
41119B185D240901404333333333333E3BF0000000000000F9010740A41107004050150841D405064090741402480A1B50
1001
ACAD
1000
AcDbSavedByObjectVersion
1070
     0
  0
ACAD_PROXY_OBJECT
  5
2C
102
{ACAD_REACTORS
330
2A
102
}
330
2A
100
AcDbProxyObject
 90
      499
 91
      501
 93
      476
310
43519B185D15DA5D1A115919D95CD0140901404333333333333E3BF0000000000000F9010740901411070040501600405405064090741402480A1B50
1001
ACAD
1000
AcDbSavedByObjectVersion
1070
     0
  0
ACAD_PROXY_OBJECT
  5
2D
102
{ACAD_REACTORS
330
2A
102
}
330
2A
100
AcDbProxyObject
 90
      499
 91
      501
 93
      412
310
41D1DBDD5C985D5910240902404333333333333E3BF0000000000000F9010740A411070040501641D405064090741402480A1B50
1001
ACAD
1000
AcDbSavedByObjectVersion
1070
     0
  0
ACAD_PROXY_OBJECT
  5
2E
102
{ACAD_REACTORS
330
2A
102
}
330
2A
100
AcDbProxyObject
 90
      499
 91
      501
 93
      500
310
4411DBDD5C985D5915DA5D1A115919D95CD0340902404333333333333E3BF0000000000000F9010740901411070040501600405405064090741402480A1B50
1001
ACAD
1000
AcDbSavedByObjectVersion
1070
     0
  0
ACAD_PROXY_OBJECT
  5
38
102
{ACAD_REACTORS
330
2A
102
}
330
2A
100
AcDbProxyObject
 90
      499
 91
      501
 93
      444
310
42D31A5B995C185D1D195C9B90E409028333333333333E3BF0000000000000FB010790141107004050750841D405064090741402483A0350
1001
ACAD
1000
AcDbSavedByObjectVersion
1070
     0
  0
ACAD_PROXY_OBJECT
  5
33
102
{ACAD_REACTORS
330
2A
102
}
330
2A
100
AcDbProxyObject
 90
      499
 91
      501
 93
      420
310
425499585B1A5CDD1A58D08409028333333333333E3BF0000000000000FB01079019070040501508421405064090741402480A1B40
1001
ACAD
1000
AcDbSavedByObjectVersion
1070
     0
  0
ACAD_PROXY_OBJECT
  5
37
102
{ACAD_REACTORS
330
2A
102
}
330
2A
100
AcDbProxyObject
 90
      499
 91
      501
 93
      412
310
41D51A1A58DAD95B90D409028333333333333E3BF0000000000000FB010790141107004050150C41D405064090741402480A0350
1001
ACAD
1000
AcDbSavedByObjectVersion
1070
     0
  0
XRECORD
  5
308
102
{ACAD_REACTORS
330
2FF
102
}
330
2FF
100
AcDbXrecord
 90
        0
  0
XRECORD
  5
31E
102
{ACAD_REACTORS
330
2FF
102
}
330
2FF
100
AcDbXrecord
1000
DSTYLE
1002
{
1070
   340
340
11
1002
}
  0
XRECORD
  5
309
102
{ACAD_REACTORS
330
2FF
102
}
330
2FF
100
AcDbXrecord
  1
{7E2C62CD-8C84-4F8A-871A-3DD5861885A6}
  0
XRECORD
  5
302
102
{ACAD_REACTORS
330
2FF
102
}
330
2FF
100
AcDbXrecord
  1

  0
XRECORD
  5
307
102
{ACAD_REACTORS
330
2FF
102
}
330
2FF
100
AcDbXrecord
 90
        4
  0
XRECORD
  5
304
102
{ACAD_REACTORS
330
2FF
102
}
330
2FF
100
AcDbXrecord
340
1A
  0
XRECORD
  5
306
102
{ACAD_REACTORS
330
2FF
102
}
330
2FF
100
AcDbXrecord
 90
    10781
  0
XRECORD
  5
305
102
{ACAD_REACTORS
330
2FF
102
}
330
2FF
100
AcDbXrecord
340
19
  0
XRECORD
  5
30B
102
{ACAD_REACTORS
330
2FF
102
}
330
2FF
100
AcDbXrecord
 40
0.0
  0
XRECORD
  5
30E
102
{ACAD_REACTORS
330
2FF
102
}
330
2FF
100
AcDbXrecord
340
0
  0
XRECORD
  5
314
102
{ACAD_REACTORS
330
2FF
102
}
330
2FF
100
AcDbXrecord
 10
0.0
 20
0.0
 30
0.0
  0
XRECORD
  5
310
102
{ACAD_REACTORS
330
2FF
102
}
330
2FF
100
AcDbXrecord
 10
0.0
 20
0.0
 30
0.0
  0
XRECORD
  5
313
102
{ACAD_REACTORS
330
2FF
102
}
330
2FF
100
AcDbXrecord
 10
0.0
 20
0.0
 30
0.0
  0
XRECORD
  5
311
102
{ACAD_REACTORS
330
2FF
102
}
330
2FF
100
AcDbXrecord
 10
0.0
 20
0.0
 30
0.0
  0
XRECORD
  5
312
102
{ACAD_REACTORS
330
2FF
102
}
330
2FF
100
AcDbXrecord
 10
0.0
 20
0.0
 30
0.0
  0
XRECORD
  5
30F
102
{ACAD_REACTORS
330
2FF
102
}
330
2FF
100
AcDbXrecord
 10
0.0
 20
0.0
 30
0.0
  0
XRECORD
  5
30C
102
{ACAD_REACTORS
330
2FF
102
}
330
2FF
100
AcDbXrecord
340
0
  0
XRECORD
  5
30D
102
{ACAD_REACTORS
330
2FF
102
}
330
2FF
100
AcDbXrecord
 70
     0
  0
XRECORD
  5
303
102
{ACAD_REACTORS
330
2FF
102
}
330
2FF
100
AcDbXrecord
  1

  0
XRECORD
  5
300
102
{ACAD_REACTORS
330
2FF
102
}
330
2FF
100
AcDbXrecord
 90
        1
  0
XRECORD
  5
301
102
{ACAD_REACTORS
330
2FF
102
}
330
2FF
100
AcDbXrecord
 90
       70
  0
XRECORD
  5
317
102
{ACAD_REACTORS
330
2FF
102
}
330
2FF
100
AcDbXrecord
340
0
  0
XRECORD
  5
31D
102
{ACAD_REACTORS
330
2FF
102
}
330
2FF
100
AcDbXrecord
 10
0.0
 20
0.0
 30
0.0
  0
XRECORD
  5
319
102
{ACAD_REACTORS
330
2FF
102
}
330
2FF
100
AcDbXrecord
 10
0.0
 20
0.0
 30
0.0
  0
XRECORD
  5
31C
102
{ACAD_REACTORS
330
2FF
102
}
330
2FF
100
AcDbXrecord
 10
0.0
 20
0.0
 30
0.0
  0
XRECORD
  5
31A
102
{ACAD_REACTORS
330
2FF
102
}
330
2FF
100
AcDbXrecord
 10
0.0
 20
0.0
 30
0.0
  0
XRECORD
  5
31B
102
{ACAD_REACTORS
330
2FF
102
}
330
2FF
100
AcDbXrecord
 10
0.0
 20
0.0
 30
0.0
  0
XRECORD
  5
318
102
{ACAD_REACTORS
330
2FF
102
}
330
2FF
100
AcDbXrecord
 10
0.0
 20
0.0
 30
0.0
  0
XRECORD
  5
315
102
{ACAD_REACTORS
330
2FF
102
}
330
2FF
100
AcDbXrecord
340
0
  0
XRECORD
  5
316
102
{ACAD_REACTORS
330
2FF
102
}
330
2FF
100
AcDbXrecord
 70
     0
  0
XRECORD
  5
30A
102
{ACAD_REACTORS
330
2FF
102
}
330
2FF
100
AcDbXrecord
  1
{FAEB1C32-E019-11D5-929B-00C0DF256EC4}
  0
DICTIONARYVAR
  5
324
102
{ACAD_REACTORS
330
31F
102
}
330
31F
100
DictionaryVariables
280
     0
  1
2
  0
DICTIONARYVAR
  5
325
102
{ACAD_REACTORS
330
31F
102
}
330
31F
100
DictionaryVariables
280
     0
  1
1
  0
DICTIONARYVAR
  5
323
102
{ACAD_REACTORS
330
31F
102
}
330
31F
100
DictionaryVariables
280
     0
  1
80.000000
  0
DICTIONARYVAR
  5
322
102
{ACAD_REACTORS
330
31F
102
}
330
31F
100
DictionaryVariables
280
     0
  1
5.000000
  0
DICTIONARY
  5
328
330
3D
100
AcDbDictionary
280
     1
  3
ACAD_XREC_ROUNDTRIP
360
329
  0
DICTIONARY
  5
326
330
3C
100
AcDbDictionary
280
     1
  3
ACAD_XREC_ROUNDTRIP
360
327
  0
DICTIONARY
  5
32A
330
3E
100
AcDbDictionary
280
     1
  3
ACAD_XREC_ROUNDTRIP
360
32B
  0
XRECORD
  5
329
102
{ACAD_REACTORS
330
328
102
}
330
328
100
AcDbXrecord
102
MATERIAL
148
0.0
149
0.0
149
0.0
 93
        0
 94
      127
282
     0
 72
     1
 77
     1
171
     1
175
     1
179
     1
273
     0
  0
XRECORD
  5
327
102
{ACAD_REACTORS
330
326
102
}
330
326
100
AcDbXrecord
102
MATERIAL
148
0.0
149
0.0
149
0.0
 93
        0
 94
      127
282
     0
 72
     1
 77
     1
171
     1
175
     1
179
     1
273
     0
  0
XRECORD
  5
32B
102
{ACAD_REACTORS
330
32A
102
}
330
32A
100
AcDbXrecord
102
MATERIAL
148
0.0
149
0.0
149
0.0
 93
        0
 94
      127
282
     0
 72
     1
 77
     1
171
     1
175
     1
179
     1
273
     0
  0
ENDSEC
  0
EOF
