  0
SECTION
  2
HEADER
  9
$ACADVER
  1
AC1014
  9
$ACADMAINTVER
 70
     9
  9
$DWGCODEPAGE
  3
ANSI_932
  9
$INSBASE
 10
0.0
 20
0.0
 30
0.0
  9
$EXTMIN
 10
1.000000000000009
 20
13.5
 30
0.0
  9
$EXTMAX
 10
200.0
 20
288.5
 30
0.0
  9
$LIMMIN
 10
0.0
 20
0.0
  9
$LIMMAX
 10
210.0
 20
297.0
  9
$ORTHOMODE
 70
     0
  9
$REGENMODE
 70
     1
  9
$FILLMODE
 70
     1
  9
$QTEXTMODE
 70
     0
  9
$MIRRTEXT
 70
     1
  9
$DRAGMODE
 70
     2
  9
$LTSCALE
 40
1.0
  9
$OSMODE
 70
    37
  9
$ATTMODE
 70
     1
  9
$TEXTSIZE
 40
2.5
  9
$TRACEWID
 40
1.0
  9
$TEXTSTYLE
  7
STANDARD
  9
$CLAYER
  8
枠_表
  9
$CELTYPE
  6
BYLAYER
  9
$CECOLOR
 62
   256
  9
$CELTSCALE
 40
1.0
  9
$DELOBJ
 70
     1
  9
$DISPSILH
 70
     0
  9
$DIMSCALE
 40
1.0
  9
$DIMASZ
 40
2.5
  9
$DIMEXO
 40
0.625
  9
$DIMDLI
 40
3.75
  9
$DIMRND
 40
0.0
  9
$DIMDLE
 40
0.0
  9
$DIMEXE
 40
1.25
  9
$DIMTP
 40
0.0
  9
$DIMTM
 40
0.0
  9
$DIMTXT
 40
2.5
  9
$DIMCEN
 40
2.5
  9
$DIMTSZ
 40
0.0
  9
$DIMTOL
 70
     0
  9
$DIMLIM
 70
     0
  9
$DIMTIH
 70
     0
  9
$DIMTOH
 70
     0
  9
$DIMSE1
 70
     0
  9
$DIMSE2
 70
     0
  9
$DIMTAD
 70
     1
  9
$DIMZIN
 70
     8
  9
$DIMBLK
  1

  9
$DIMASO
 70
     1
  9
$DIMSHO
 70
     1
  9
$DIMPOST
  1

  9
$DIMAPOST
  1

  9
$DIMALT
 70
     0
  9
$DIMALTD
 70
     3
  9
$DIMALTF
 40
0.03937007874016
  9
$DIMLFAC
 40
1.0
  9
$DIMTOFL
 70
     1
  9
$DIMTVP
 40
0.0
  9
$DIMTIX
 70
     0
  9
$DIMSOXD
 70
     0
  9
$DIMSAH
 70
     0
  9
$DIMBLK1
  1

  9
$DIMBLK2
  1

  9
$DIMSTYLE
  2
ISO-25
  9
$DIMCLRD
 70
     0
  9
$DIMCLRE
 70
     0
  9
$DIMCLRT
 70
     0
  9
$DIMTFAC
 40
1.0
  9
$DIMGAP
 40
0.625
  9
$DIMJUST
 70
     0
  9
$DIMSD1
 70
     0
  9
$DIMSD2
 70
     0
  9
$DIMTOLJ
 70
     0
  9
$DIMTZIN
 70
     8
  9
$DIMALTZ
 70
     0
  9
$DIMALTTZ
 70
     0
  9
$DIMFIT
 70
     3
  9
$DIMUPT
 70
     0
  9
$DIMUNIT
 70
     2
  9
$DIMDEC
 70
     2
  9
$DIMTDEC
 70
     2
  9
$DIMALTU
 70
     2
  9
$DIMALTTD
 70
     3
  9
$DIMTXSTY
  7
STANDARD
  9
$DIMAUNIT
 70
     0
  9
$LUNITS
 70
     2
  9
$LUPREC
 70
     4
  9
$SKETCHINC
 40
1.0
  9
$FILLETRAD
 40
10.0
  9
$AUNITS
 70
     0
  9
$AUPREC
 70
     0
  9
$MENU
  1
.
  9
$ELEVATION
 40
0.0
  9
$PELEVATION
 40
0.0
  9
$THICKNESS
 40
0.0
  9
$LIMCHECK
 70
     0
  9
$CHAMFERA
 40
10.0
  9
$CHAMFERB
 40
10.0
  9
$CHAMFERC
 40
20.0
  9
$CHAMFERD
 40
0.0
  9
$SKPOLY
 70
     0
  9
$TDCREATE
 40
2457221.579380185
  9
$TDUPDATE
 40
2457221.57938037
  9
$TDINDWG
 40
0.0000000116
  9
$TDUSRTIMER
 40
0.0000000116
  9
$USRTIMER
 70
     1
  9
$ANGBASE
 50
0.0
  9
$ANGDIR
 70
     0
  9
$PDMODE
 70
     0
  9
$PDSIZE
 40
0.0
  9
$PLINEWID
 40
0.0
  9
$COORDS
 70
     1
  9
$SPLFRAME
 70
     0
  9
$SPLINETYPE
 70
     6
  9
$SPLINESEGS
 70
     8
  9
$ATTDIA
 70
     0
  9
$ATTREQ
 70
     1
  9
$HANDLING
 70
     1
  9
$HANDSEED
  5
342
  9
$SURFTAB1
 70
     6
  9
$SURFTAB2
 70
     6
  9
$SURFTYPE
 70
     6
  9
$SURFU
 70
     6
  9
$SURFV
 70
     6
  9
$UCSNAME
  2

  9
$UCSORG
 10
0.0
 20
0.0
 30
0.0
  9
$UCSXDIR
 10
1.0
 20
0.0
 30
0.0
  9
$UCSYDIR
 10
0.0
 20
1.0
 30
0.0
  9
$PUCSNAME
  2

  9
$PUCSORG
 10
0.0
 20
0.0
 30
0.0
  9
$PUCSXDIR
 10
1.0
 20
0.0
 30
0.0
  9
$PUCSYDIR
 10
0.0
 20
1.0
 30
0.0
  9
$USERI1
 70
     0
  9
$USERI2
 70
     0
  9
$USERI3
 70
     0
  9
$USERI4
 70
     0
  9
$USERI5
 70
     0
  9
$USERR1
 40
0.0
  9
$USERR2
 40
0.0
  9
$USERR3
 40
0.0
  9
$USERR4
 40
0.0
  9
$USERR5
 40
0.0
  9
$WORLDVIEW
 70
     1
  9
$SHADEDGE
 70
     3
  9
$SHADEDIF
 70
    70
  9
$TILEMODE
 70
     1
  9
$MAXACTVP
 70
    64
  9
$PINSBASE
 10
0.0
 20
0.0
 30
0.0
  9
$PLIMCHECK
 70
     0
  9
$PEXTMIN
 10
1.000000000000000E+20
 20
1.000000000000000E+20
 30
1.000000000000000E+20
  9
$PEXTMAX
 10
-1.000000000000000E+20
 20
-1.000000000000000E+20
 30
-1.000000000000000E+20
  9
$PLIMMIN
 10
0.0
 20
0.0
  9
$PLIMMAX
 10
420.0
 20
297.0
  9
$UNITMODE
 70
     0
  9
$VISRETAIN
 70
     1
  9
$PLINEGEN
 70
     0
  9
$PSLTSCALE
 70
     1
  9
$TREEDEPTH
 70
  3020
  9
$PICKSTYLE
 70
     1
  9
$CMLSTYLE
  2
STANDARD
  9
$CMLJUST
 70
     0
  9
$CMLSCALE
 40
20.0
  9
$PROXYGRAPHICS
 70
     1
  9
$MEASUREMENT
 70
     1
  0
ENDSEC
  0
SECTION
  2
CLASSES
  0
CLASS
  1
ACDBDICTIONARYWDFLT
  2
AcDbDictionaryWithDefault
  3
ObjectDBX Classes
 90
        0
280
     0
281
     0
  0
CLASS
  1
VISUALSTYLE
  2
AcDbVisualStyle
  3
ObjectDBX Classes
 90
     4095
280
     0
281
     0
  0
CLASS
  1
MATERIAL
  2
AcDbMaterial
  3
ObjectDBX Classes
 90
     1153
280
     0
281
     0
  0
CLASS
  1
SUN
  2
AcDbSun
  3
SCENEOE
 90
     1024
280
     0
281
     0
  0
CLASS
  1
DICTIONARYVAR
  2
AcDbDictionaryVar
  3
ObjectDBX Classes
 90
        0
280
     0
281
     0
  0
CLASS
  1
XRECORD
  2
AcDbXrecord
  3
AutoCAD 2000
 90
        0
280
     0
281
     0
  0
CLASS
  1
LWPOLYLINE
  2
AcDbPolyline
  3
AutoCAD 2000
 90
        0
280
     0
281
     1
  0
CLASS
  1
HATCH
  2
AcDbHatch
  3
AutoCAD 2000
 90
        0
280
     0
281
     1
  0
CLASS
  1
ACDBPLACEHOLDER
  2
AcDbPlaceHolder
  3
ObjectDBX Classes
 90
        0
280
     0
281
     0
  0
CLASS
  1
LAYOUT
  2
AcDbLayout
  3
ObjectDBX Classes
 90
        0
280
     0
281
     0
  0
ENDSEC
  0
SECTION
  2
TABLES
  0
TABLE
  2
VPORT
  5
8
330
0
100
AcDbSymbolTable
 70
     1
  0
VPORT
  5
29
330
8
100
AcDbSymbolTableRecord
100
AcDbViewportTableRecord
  2
*ACTIVE
 70
     0
 10
0.0
 20
0.0
 11
1.0
 21
1.0
 12
1005.0
 22
1510.0
 13
0.0
 23
0.0
 14
10.0
 24
10.0
 15
10.0
 25
10.0
 16
0.0
 26
0.0
 36
1.0
 17
0.0
 27
0.0
 37
0.0
 40
2750.0
 41
0.7236363636363635
 42
50.0
 43
0.0
 44
0.0
 50
0.0
 51
0.0
 71
     0
 72
  1000
 73
     1
 74
     3
 75
     0
 76
     0
 77
     0
 78
     0
  0
ENDTAB
  0
TABLE
  2
LTYPE
  5
5
330
0
100
AcDbSymbolTable
 70
     7
  0
LTYPE
  5
14
330
5
100
AcDbSymbolTableRecord
100
AcDbLinetypeTableRecord
  2
BYBLOCK
 70
     0
  3

 72
    65
 73
     0
 40
0.0
  0
LTYPE
  5
15
330
5
100
AcDbSymbolTableRecord
100
AcDbLinetypeTableRecord
  2
BYLAYER
 70
     0
  3

 72
    65
 73
     0
 40
0.0
  0
LTYPE
  5
16
330
5
100
AcDbSymbolTableRecord
100
AcDbLinetypeTableRecord
  2
CONTINUOUS
 70
     0
  3
Solid line
 72
    65
 73
     0
 40
0.0
  0
LTYPE
  5
40
330
5
100
AcDbSymbolTableRecord
100
AcDbLinetypeTableRecord
  2
EXLTYPE1
 70
     0
  3
破線
 72
    65
 73
     2
 40
3.0
 49
2.0
 74
     0
 49
-1.0
 74
     0
  0
LTYPE
  5
41
330
5
100
AcDbSymbolTableRecord
100
AcDbLinetypeTableRecord
  2
EXLTYPE2
 70
     0
  3
点線
 72
    65
 73
     2
 40
2.0
 49
1.0
 74
     0
 49
-1.0
 74
     0
  0
LTYPE
  5
42
330
5
100
AcDbSymbolTableRecord
100
AcDbLinetypeTableRecord
  2
EXLTYPE3
 70
     0
  3
一点鎖線
 72
    65
 73
     4
 40
10.0
 49
7.0
 74
     0
 49
-1.0
 74
     0
 49
1.0
 74
     0
 49
-1.0
 74
     0
  0
LTYPE
  5
43
330
5
100
AcDbSymbolTableRecord
100
AcDbLinetypeTableRecord
  2
EXLTYPE4
 70
     0
  3
二点鎖線
 72
    65
 73
     6
 40
12.0
 49
7.0
 74
     0
 49
-1.0
 74
     0
 49
1.0
 74
     0
 49
-1.0
 74
     0
 49
1.0
 74
     0
 49
-1.0
 74
     0
  0
LTYPE
  5
44
330
5
100
AcDbSymbolTableRecord
100
AcDbLinetypeTableRecord
  2
EXLTYPE5
 70
     0
  3
三点鎖線
 72
    65
 73
     8
 40
37.0
 49
30.0
 74
     0
 49
-1.0
 74
     0
 49
1.0
 74
     0
 49
-1.0
 74
     0
 49
1.0
 74
     0
 49
-1.0
 74
     0
 49
1.0
 74
     0
 49
-1.0
 74
     0
  0
LTYPE
  5
45
330
5
100
AcDbSymbolTableRecord
100
AcDbLinetypeTableRecord
  2
EXLTYPE6
 70
     0
  3
四点鎖線
 72
    65
 73
    10
 40
39.0
 49
30.0
 74
     0
 49
-1.0
 74
     0
 49
1.0
 74
     0
 49
-1.0
 74
     0
 49
1.0
 74
     0
 49
-1.0
 74
     0
 49
1.0
 74
     0
 49
-1.0
 74
     0
 49
1.0
 74
     0
 49
-1.0
 74
     0
  0
ENDTAB
  0
TABLE
  2
LAYER
  5
2
330
0
100
AcDbSymbolTable
 70
     6
  0
LAYER
  5
10
330
2
100
AcDbSymbolTableRecord
100
AcDbLayerTableRecord
  2
0
 70
     0
 62
     7
  6
CONTINUOUS
  0
LAYER
  5
48
330
2
100
AcDbSymbolTableRecord
100
AcDbLayerTableRecord
  2
枠_表
 70
     0
 62
     7
  6
CONTINUOUS
  0
LAYER
  5
49
330
2
100
AcDbSymbolTableRecord
100
AcDbLayerTableRecord
  2
鏡台
 70
     0
 62
     7
  6
CONTINUOUS
  0
LAYER
  5
4A
330
2
100
AcDbSymbolTableRecord
100
AcDbLayerTableRecord
  2
付属金具
 70
     0
 62
     7
  6
CONTINUOUS
  0
LAYER
  5
4B
330
2
100
AcDbSymbolTableRecord
100
AcDbLayerTableRecord
  2
寸法
 70
     0
 62
     7
  6
CONTINUOUS
  0
LAYER
  5
253
330
2
100
AcDbSymbolTableRecord
100
AcDbLayerTableRecord
  2
DEFPOINTS
 70
     0
 62
     7
  6
CONTINUOUS
  0
ENDTAB
  0
TABLE
  2
STYLE
  5
3
330
0
100
AcDbSymbolTable
 70
     5
  0
STYLE
  5
11
330
3
100
AcDbSymbolTableRecord
100
AcDbTextStyleTableRecord
  2
STANDARD
 70
     0
 40
0.0
 41
1.0
 50
0.0
 71
     0
 42
2.5
  3
monotxt
  4
extfont
  0
STYLE
  5
46
330
3
100
AcDbSymbolTableRecord
100
AcDbTextStyleTableRecord
  2
EXCADSTD
 70
     0
 40
0.0
 41
1.0
 50
0.0
 71
     0
 42
0.2
  3
monotxt
  4
extfont
  0
STYLE
  5
47
330
3
100
AcDbSymbolTableRecord
100
AcDbTextStyleTableRecord
  2
EXCADVERT
 70
     4
 40
0.0
 41
1.0
 50
0.0
 71
     0
 42
0.286885
  3
monotxt
  4
extfont
  0
STYLE
  5
FB
330
3
100
AcDbSymbolTableRecord
100
AcDbTextStyleTableRecord
  2
EXCADTTF1
 70
     0
 40
0.0
 41
1.0
 50
0.0
 71
     0
 42
0.2
  3
MSGOTHIC.TTC
  4

1001
ACAD
1000
MS Gothic
1071
    32817
  0
STYLE
  5
251
330
3
100
AcDbSymbolTableRecord
100
AcDbTextStyleTableRecord
  2
EXCADDIM1
 70
     0
 40
0.0
 41
0.84
 50
0.0
 71
     0
 42
0.2
  3
monotxt
  4
extfont
  0
ENDTAB
  0
TABLE
  2
VIEW
  5
6
330
0
100
AcDbSymbolTable
 70
     0
  0
ENDTAB
  0
TABLE
  2
UCS
  5
7
330
0
100
AcDbSymbolTable
 70
     0
  0
ENDTAB
  0
TABLE
  2
APPID
  5
9
330
0
100
AcDbSymbolTable
 70
     1
  0
APPID
  5
12
330
9
100
AcDbSymbolTableRecord
100
AcDbRegAppTableRecord
  2
ACAD
 70
     0
  0
ENDTAB
  0
TABLE
  2
DIMSTYLE
  5
A
330
0
100
AcDbSymbolTable
 70
     1
  0
DIMSTYLE
105
27
102
{ACAD_REACTORS
330
252
330
262
330
26F
330
27C
330
289
330
295
330
2A4
330
2B1
330
2C0
330
2CD
330
2DE
330
2ED
330
2FA
330
309
102
}
330
A
100
AcDbSymbolTableRecord
100
AcDbDimStyleTableRecord
  2
ISO-25
 70
     0
  3

  4

  5

  6

  7

 40
1.0
 41
2.5
 42
0.625
 43
3.75
 44
1.25
 45
0.0
 46
0.0
 47
0.0
 48
0.0
140
2.5
141
2.5
142
0.0
143
0.03937007874016
144
1.0
145
0.0
146
1.0
147
0.625
 71
     0
 72
     0
 73
     0
 74
     0
 75
     0
 76
     0
 77
     1
 78
     8
170
     0
171
     3
172
     1
173
     0
174
     0
175
     0
176
     0
177
     0
178
     0
270
     2
271
     2
272
     2
273
     2
274
     3
340
11
275
     0
280
     0
281
     0
282
     0
283
     0
284
     8
285
     0
286
     0
287
     5
288
     0
  0
ENDTAB
  0
TABLE
  2
BLOCK_RECORD
  5
1
330
0
100
AcDbSymbolTable
 70
    29
  0
BLOCK_RECORD
  5
1F
330
1
100
AcDbSymbolTableRecord
100
AcDbBlockTableRecord
  2
*MODEL_SPACE
  0
BLOCK_RECORD
  5
1B
330
1
100
AcDbSymbolTableRecord
100
AcDbBlockTableRecord
  2
*PAPER_SPACE
  0
BLOCK_RECORD
  5
4C
330
1
100
AcDbSymbolTableRecord
100
AcDbBlockTableRecord
  2
EX_NORM
  0
BLOCK_RECORD
  5
4F
330
1
100
AcDbSymbolTableRecord
100
AcDbBlockTableRecord
  2
EX_BNORM
  0
BLOCK_RECORD
  5
52
330
1
100
AcDbSymbolTableRecord
100
AcDbBlockTableRecord
  2
EX_BCIR
  0
BLOCK_RECORD
  5
55
330
1
100
AcDbSymbolTableRecord
100
AcDbBlockTableRecord
  2
EX_RCIVIL
  0
BLOCK_RECORD
  5
58
330
1
100
AcDbSymbolTableRecord
100
AcDbBlockTableRecord
  2
EX_SLANT
  0
BLOCK_RECORD
  5
5B
330
1
100
AcDbSymbolTableRecord
100
AcDbBlockTableRecord
  2
EX_NONE
  0
BLOCK_RECORD
  5
5E
330
1
100
AcDbSymbolTableRecord
100
AcDbBlockTableRecord
  2
EX_CIVIL
  0
BLOCK_RECORD
  5
61
330
1
100
AcDbSymbolTableRecord
100
AcDbBlockTableRecord
  2
EX_WCIR
  0
BLOCK_RECORD
  5
64
330
1
100
AcDbSymbolTableRecord
100
AcDbBlockTableRecord
  2
EX_WCIR2
  0
BLOCK_RECORD
  5
67
330
1
100
AcDbSymbolTableRecord
100
AcDbBlockTableRecord
  2
EX_WNORM
  0
BLOCK_RECORD
  5
6A
330
1
100
AcDbSymbolTableRecord
100
AcDbBlockTableRecord
  2
EX_NNORM
  0
BLOCK_RECORD
  5
6D
330
1
100
AcDbSymbolTableRecord
100
AcDbBlockTableRecord
  2
EX_BBOX
  0
BLOCK_RECORD
  5
70
330
1
100
AcDbSymbolTableRecord
100
AcDbBlockTableRecord
  2
EX_WBOX
  0
BLOCK_RECORD
  5
73
330
1
100
AcDbSymbolTableRecord
100
AcDbBlockTableRecord
  2
EX_INTEGRAL
  0
BLOCK_RECORD
  5
254
330
1
100
AcDbSymbolTableRecord
100
AcDbBlockTableRecord
  2
*D15
  0
BLOCK_RECORD
  5
263
330
1
100
AcDbSymbolTableRecord
100
AcDbBlockTableRecord
  2
*D16
  0
BLOCK_RECORD
  5
270
330
1
100
AcDbSymbolTableRecord
100
AcDbBlockTableRecord
  2
*D17
  0
BLOCK_RECORD
  5
27D
330
1
100
AcDbSymbolTableRecord
100
AcDbBlockTableRecord
  2
*D18
  0
BLOCK_RECORD
  5
28A
330
1
100
AcDbSymbolTableRecord
100
AcDbBlockTableRecord
  2
*D19
  0
BLOCK_RECORD
  5
296
330
1
100
AcDbSymbolTableRecord
100
AcDbBlockTableRecord
  2
*D20
  0
BLOCK_RECORD
  5
2A5
330
1
100
AcDbSymbolTableRecord
100
AcDbBlockTableRecord
  2
*D21
  0
BLOCK_RECORD
  5
2B2
330
1
100
AcDbSymbolTableRecord
100
AcDbBlockTableRecord
  2
*D22
  0
BLOCK_RECORD
  5
2C1
330
1
100
AcDbSymbolTableRecord
100
AcDbBlockTableRecord
  2
*D23
  0
BLOCK_RECORD
  5
2CE
330
1
100
AcDbSymbolTableRecord
100
AcDbBlockTableRecord
  2
*D24
  0
BLOCK_RECORD
  5
2DF
330
1
100
AcDbSymbolTableRecord
100
AcDbBlockTableRecord
  2
*D25
  0
BLOCK_RECORD
  5
2EE
330
1
100
AcDbSymbolTableRecord
100
AcDbBlockTableRecord
  2
*D26
  0
BLOCK_RECORD
  5
2FB
330
1
100
AcDbSymbolTableRecord
100
AcDbBlockTableRecord
  2
*D27
  0
BLOCK_RECORD
  5
30A
330
1
100
AcDbSymbolTableRecord
100
AcDbBlockTableRecord
  2
*D28
  0
ENDTAB
  0
ENDSEC
  0
SECTION
  2
BLOCKS
  0
BLOCK
  5
20
330
1F
100
AcDbEntity
  8
0
100
AcDbBlockBegin
  2
*MODEL_SPACE
 70
     0
 10
0.0
 20
0.0
 30
0.0
  3
*MODEL_SPACE
  1

  0
ENDBLK
  5
21
330
1F
100
AcDbEntity
  8
0
100
AcDbBlockEnd
  0
BLOCK
  5
1C
330
1B
100
AcDbEntity
 67
     1
  8
0
100
AcDbBlockBegin
  2
*PAPER_SPACE
 70
     0
 10
0.0
 20
0.0
 30
0.0
  3
*PAPER_SPACE
  1

  0
ENDBLK
  5
1D
330
1B
100
AcDbEntity
 67
     1
  8
0
100
AcDbBlockEnd
  0
BLOCK
  5
4D
330
4C
100
AcDbEntity
  8
0
100
AcDbBlockBegin
  2
EX_NORM
 70
     0
 10
0.0
 20
0.0
 30
0.0
  3
EX_NORM
  1

  0
LINE
  5
76
330
4C
100
AcDbEntity
  8
0
  6
CONTINUOUS
 62
     0
100
AcDbLine
 10
0.0
 20
0.0
 30
0.0
 11
-1.0
 21
0.0
 31
0.0
  0
LINE
  5
77
330
4C
100
AcDbEntity
  8
0
  6
CONTINUOUS
 62
     0
100
AcDbLine
 10
0.0
 20
0.0
 30
0.0
 11
-1.0
 21
0.166666667
 31
0.0
  0
LINE
  5
78
330
4C
100
AcDbEntity
  8
0
  6
CONTINUOUS
 62
     0
100
AcDbLine
 10
0.0
 20
0.0
 30
0.0
 11
-1.0
 21
-0.166666667
 31
0.0
  0
ENDBLK
  5
4E
330
4C
100
AcDbEntity
  8
0
100
AcDbBlockEnd
  0
BLOCK
  5
50
330
4F
100
AcDbEntity
  8
0
100
AcDbBlockBegin
  2
EX_BNORM
 70
     0
 10
0.0
 20
0.0
 30
0.0
  3
EX_BNORM
  1

  0
LINE
  5
79
330
4F
100
AcDbEntity
  8
0
  6
CONTINUOUS
 62
     0
100
AcDbLine
 10
0.0
 20
0.0
 30
0.0
 11
-1.0
 21
0.0
 31
0.0
  0
LINE
  5
7A
330
4F
100
AcDbEntity
  8
0
  6
CONTINUOUS
 62
     0
100
AcDbLine
 10
0.0
 20
0.0
 30
0.0
 11
-1.0
 21
0.166666667
 31
0.0
  0
LINE
  5
7B
330
4F
100
AcDbEntity
  8
0
  6
CONTINUOUS
 62
     0
100
AcDbLine
 10
0.0
 20
0.0
 30
0.0
 11
-1.0
 21
-0.166666667
 31
0.0
  0
LINE
  5
7C
330
4F
100
AcDbEntity
  8
0
  6
CONTINUOUS
 62
     0
100
AcDbLine
 10
0.0
 20
0.0
 30
0.0
 11
-1.0
 21
0.083333333
 31
0.0
  0
LINE
  5
7D
330
4F
100
AcDbEntity
  8
0
  6
CONTINUOUS
 62
     0
100
AcDbLine
 10
0.0
 20
0.0
 30
0.0
 11
-1.0
 21
-0.083333333
 31
0.0
  0
LINE
  5
7E
330
4F
100
AcDbEntity
  8
0
  6
CONTINUOUS
 62
     0
100
AcDbLine
 10
-1.0
 20
0.166666667
 30
0.0
 11
-1.0
 21
-0.166666667
 31
0.0
  0
ENDBLK
  5
51
330
4F
100
AcDbEntity
  8
0
100
AcDbBlockEnd
  0
BLOCK
  5
53
330
52
100
AcDbEntity
  8
0
100
AcDbBlockBegin
  2
EX_BCIR
 70
     0
 10
0.0
 20
0.0
 30
0.0
  3
EX_BCIR
  1

  0
LINE
  5
7F
330
52
100
AcDbEntity
  8
0
  6
CONTINUOUS
 62
     0
100
AcDbLine
 10
0.0
 20
0.0
 30
0.0
 11
-1.0
 21
0.0
 31
0.0
  0
CIRCLE
  5
80
330
52
100
AcDbEntity
  8
0
  6
CONTINUOUS
 62
     0
100
AcDbCircle
 10
0.0
 20
0.0
 30
0.0
 40
0.5
  0
CIRCLE
  5
81
330
52
100
AcDbEntity
  8
0
  6
CONTINUOUS
 62
     0
100
AcDbCircle
 10
0.0
 20
0.0
 30
0.0
 40
0.25
  0
ENDBLK
  5
54
330
52
100
AcDbEntity
  8
0
100
AcDbBlockEnd
  0
BLOCK
  5
56
330
55
100
AcDbEntity
  8
0
100
AcDbBlockBegin
  2
EX_RCIVIL
 70
     0
 10
0.0
 20
0.0
 30
0.0
  3
EX_RCIVIL
  1

  0
LINE
  5
82
330
55
100
AcDbEntity
  8
0
  6
CONTINUOUS
 62
     0
100
AcDbLine
 10
0.0
 20
0.0
 30
0.0
 11
-1.0
 21
0.0
 31
0.0
  0
LINE
  5
83
330
55
100
AcDbEntity
  8
0
  6
CONTINUOUS
 62
     0
100
AcDbLine
 10
-1.0
 20
-0.25
 30
0.0
 11
0.0
 21
-0.25
 31
0.0
  0
LINE
  5
84
330
55
100
AcDbEntity
  8
0
  6
CONTINUOUS
 62
     0
100
AcDbLine
 10
-1.0
 20
-0.125
 30
0.0
 11
0.0
 21
-0.125
 31
0.0
  0
ENDBLK
  5
57
330
55
100
AcDbEntity
  8
0
100
AcDbBlockEnd
  0
BLOCK
  5
59
330
58
100
AcDbEntity
  8
0
100
AcDbBlockBegin
  2
EX_SLANT
 70
     0
 10
0.0
 20
0.0
 30
0.0
  3
EX_SLANT
  1

  0
LINE
  5
85
330
58
100
AcDbEntity
  8
0
  6
CONTINUOUS
 62
     0
100
AcDbLine
 10
0.0
 20
0.0
 30
0.0
 11
-1.0
 21
0.0
 31
0.0
  0
LINE
  5
86
330
58
100
AcDbEntity
  8
0
  6
CONTINUOUS
 62
     0
100
AcDbLine
 10
0.707106781
 20
0.707106781
 30
0.0
 11
-0.707106781
 21
-0.707106781
 31
0.0
  0
ENDBLK
  5
5A
330
58
100
AcDbEntity
  8
0
100
AcDbBlockEnd
  0
BLOCK
  5
5C
330
5B
100
AcDbEntity
  8
0
100
AcDbBlockBegin
  2
EX_NONE
 70
     0
 10
0.0
 20
0.0
 30
0.0
  3
EX_NONE
  1

  0
LINE
  5
87
330
5B
100
AcDbEntity
  8
0
  6
CONTINUOUS
 62
     0
100
AcDbLine
 10
0.0
 20
0.0
 30
0.0
 11
-1.0
 21
0.0
 31
0.0
  0
ENDBLK
  5
5D
330
5B
100
AcDbEntity
  8
0
100
AcDbBlockEnd
  0
BLOCK
  5
5F
330
5E
100
AcDbEntity
  8
0
100
AcDbBlockBegin
  2
EX_CIVIL
 70
     0
 10
0.0
 20
0.0
 30
0.0
  3
EX_CIVIL
  1

  0
LINE
  5
88
330
5E
100
AcDbEntity
  8
0
  6
CONTINUOUS
 62
     0
100
AcDbLine
 10
0.0
 20
0.0
 30
0.0
 11
-1.0
 21
0.0
 31
0.0
  0
LINE
  5
89
330
5E
100
AcDbEntity
  8
0
  6
CONTINUOUS
 62
     0
100
AcDbLine
 10
-1.0
 20
0.25
 30
0.0
 11
0.0
 21
0.25
 31
0.0
  0
LINE
  5
8A
330
5E
100
AcDbEntity
  8
0
  6
CONTINUOUS
 62
     0
100
AcDbLine
 10
-1.0
 20
0.125
 30
0.0
 11
0.0
 21
0.125
 31
0.0
  0
ENDBLK
  5
60
330
5E
100
AcDbEntity
  8
0
100
AcDbBlockEnd
  0
BLOCK
  5
62
330
61
100
AcDbEntity
  8
0
100
AcDbBlockBegin
  2
EX_WCIR
 70
     0
 10
0.0
 20
0.0
 30
0.0
  3
EX_WCIR
  1

  0
LINE
  5
8B
330
61
100
AcDbEntity
  8
0
  6
CONTINUOUS
 62
     0
100
AcDbLine
 10
0.0
 20
0.0
 30
0.0
 11
-1.0
 21
0.0
 31
0.0
  0
CIRCLE
  5
8C
330
61
100
AcDbEntity
  8
0
  6
CONTINUOUS
 62
     0
100
AcDbCircle
 10
0.0
 20
0.0
 30
0.0
 40
0.5
  0
ENDBLK
  5
63
330
61
100
AcDbEntity
  8
0
100
AcDbBlockEnd
  0
BLOCK
  5
65
330
64
100
AcDbEntity
  8
0
100
AcDbBlockBegin
  2
EX_WCIR2
 70
     0
 10
0.0
 20
0.0
 30
0.0
  3
EX_WCIR2
  1

  0
LINE
  5
8D
330
64
100
AcDbEntity
  8
0
  6
CONTINUOUS
 62
     0
100
AcDbLine
 10
-0.5
 20
0.0
 30
0.0
 11
-1.0
 21
0.0
 31
0.0
  0
CIRCLE
  5
8E
330
64
100
AcDbEntity
  8
0
  6
CONTINUOUS
 62
     0
100
AcDbCircle
 10
0.0
 20
0.0
 30
0.0
 40
0.5
  0
ENDBLK
  5
66
330
64
100
AcDbEntity
  8
0
100
AcDbBlockEnd
  0
BLOCK
  5
68
330
67
100
AcDbEntity
  8
0
100
AcDbBlockBegin
  2
EX_WNORM
 70
     0
 10
0.0
 20
0.0
 30
0.0
  3
EX_WNORM
  1

  0
LINE
  5
8F
330
67
100
AcDbEntity
  8
0
  6
CONTINUOUS
 62
     0
100
AcDbLine
 10
-1.0
 20
0.0
 30
0.0
 11
-1.0
 21
0.0
 31
0.0
  0
LINE
  5
90
330
67
100
AcDbEntity
  8
0
  6
CONTINUOUS
 62
     0
100
AcDbLine
 10
0.0
 20
0.0
 30
0.0
 11
-1.0
 21
0.166666667
 31
0.0
  0
LINE
  5
91
330
67
100
AcDbEntity
  8
0
  6
CONTINUOUS
 62
     0
100
AcDbLine
 10
0.0
 20
0.0
 30
0.0
 11
-1.0
 21
-0.166666667
 31
0.0
  0
LINE
  5
92
330
67
100
AcDbEntity
  8
0
  6
CONTINUOUS
 62
     0
100
AcDbLine
 10
-1.0
 20
0.166666667
 30
0.0
 11
-1.0
 21
-0.166666667
 31
0.0
  0
ENDBLK
  5
69
330
67
100
AcDbEntity
  8
0
100
AcDbBlockEnd
  0
BLOCK
  5
6B
330
6A
100
AcDbEntity
  8
0
100
AcDbBlockBegin
  2
EX_NNORM
 70
     0
 10
0.0
 20
0.0
 30
0.0
  3
EX_NNORM
  1

  0
LINE
  5
93
330
6A
100
AcDbEntity
  8
0
  6
CONTINUOUS
 62
     0
100
AcDbLine
 10
0.0
 20
0.0
 30
0.0
 11
-1.0
 21
0.0
 31
0.0
  0
LINE
  5
94
330
6A
100
AcDbEntity
  8
0
  6
CONTINUOUS
 62
     0
100
AcDbLine
 10
0.0
 20
0.0
 30
0.0
 11
-1.0
 21
0.166666667
 31
0.0
  0
LINE
  5
95
330
6A
100
AcDbEntity
  8
0
  6
CONTINUOUS
 62
     0
100
AcDbLine
 10
0.0
 20
0.0
 30
0.0
 11
-1.0
 21
-0.166666667
 31
0.0
  0
LINE
  5
96
330
6A
100
AcDbEntity
  8
0
  6
CONTINUOUS
 62
     0
100
AcDbLine
 10
-1.0
 20
0.166666667
 30
0.0
 11
-1.0
 21
-0.166666667
 31
0.0
  0
ENDBLK
  5
6C
330
6A
100
AcDbEntity
  8
0
100
AcDbBlockEnd
  0
BLOCK
  5
6E
330
6D
100
AcDbEntity
  8
0
100
AcDbBlockBegin
  2
EX_BBOX
 70
     0
 10
0.0
 20
0.0
 30
0.0
  3
EX_BBOX
  1

  0
LINE
  5
97
330
6D
100
AcDbEntity
  8
0
  6
CONTINUOUS
 62
     0
100
AcDbLine
 10
0.0
 20
0.0
 30
0.0
 11
-1.0
 21
0.0
 31
0.0
  0
LINE
  5
98
330
6D
100
AcDbEntity
  8
0
  6
CONTINUOUS
 62
     0
100
AcDbLine
 10
-0.5
 20
0.5
 30
0.0
 11
0.5
 21
0.5
 31
0.0
  0
LINE
  5
99
330
6D
100
AcDbEntity
  8
0
  6
CONTINUOUS
 62
     0
100
AcDbLine
 10
0.5
 20
0.5
 30
0.0
 11
0.5
 21
-0.5
 31
0.0
  0
LINE
  5
9A
330
6D
100
AcDbEntity
  8
0
  6
CONTINUOUS
 62
     0
100
AcDbLine
 10
0.5
 20
-0.5
 30
0.0
 11
-0.5
 21
-0.5
 31
0.0
  0
LINE
  5
9B
330
6D
100
AcDbEntity
  8
0
  6
CONTINUOUS
 62
     0
100
AcDbLine
 10
-0.5
 20
-0.5
 30
0.0
 11
-0.5
 21
0.5
 31
0.0
  0
LINE
  5
9C
330
6D
100
AcDbEntity
  8
0
  6
CONTINUOUS
 62
     0
100
AcDbLine
 10
-0.25
 20
0.25
 30
0.0
 11
0.25
 21
0.25
 31
0.0
  0
LINE
  5
9D
330
6D
100
AcDbEntity
  8
0
  6
CONTINUOUS
 62
     0
100
AcDbLine
 10
0.25
 20
0.25
 30
0.0
 11
0.25
 21
-0.25
 31
0.0
  0
LINE
  5
9E
330
6D
100
AcDbEntity
  8
0
  6
CONTINUOUS
 62
     0
100
AcDbLine
 10
0.25
 20
-0.25
 30
0.0
 11
-0.25
 21
-0.25
 31
0.0
  0
LINE
  5
9F
330
6D
100
AcDbEntity
  8
0
  6
CONTINUOUS
 62
     0
100
AcDbLine
 10
-0.25
 20
-0.25
 30
0.0
 11
-0.25
 21
0.25
 31
0.0
  0
ENDBLK
  5
6F
330
6D
100
AcDbEntity
  8
0
100
AcDbBlockEnd
  0
BLOCK
  5
71
330
70
100
AcDbEntity
  8
0
100
AcDbBlockBegin
  2
EX_WBOX
 70
     0
 10
0.0
 20
0.0
 30
0.0
  3
EX_WBOX
  1

  0
LINE
  5
A0
330
70
100
AcDbEntity
  8
0
  6
CONTINUOUS
 62
     0
100
AcDbLine
 10
-0.5
 20
0.0
 30
0.0
 11
-1.0
 21
0.0
 31
0.0
  0
LINE
  5
A1
330
70
100
AcDbEntity
  8
0
  6
CONTINUOUS
 62
     0
100
AcDbLine
 10
-0.5
 20
0.5
 30
0.0
 11
0.5
 21
0.5
 31
0.0
  0
LINE
  5
A2
330
70
100
AcDbEntity
  8
0
  6
CONTINUOUS
 62
     0
100
AcDbLine
 10
0.5
 20
0.5
 30
0.0
 11
0.5
 21
-0.5
 31
0.0
  0
LINE
  5
A3
330
70
100
AcDbEntity
  8
0
  6
CONTINUOUS
 62
     0
100
AcDbLine
 10
0.5
 20
-0.5
 30
0.0
 11
-0.5
 21
-0.5
 31
0.0
  0
LINE
  5
A4
330
70
100
AcDbEntity
  8
0
  6
CONTINUOUS
 62
     0
100
AcDbLine
 10
-0.5
 20
-0.5
 30
0.0
 11
-0.5
 21
0.5
 31
0.0
  0
ENDBLK
  5
72
330
70
100
AcDbEntity
  8
0
100
AcDbBlockEnd
  0
BLOCK
  5
74
330
73
100
AcDbEntity
  8
0
100
AcDbBlockBegin
  2
EX_INTEGRAL
 70
     0
 10
0.0
 20
0.0
 30
0.0
  3
EX_INTEGRAL
  1

  0
LINE
  5
A5
330
73
100
AcDbEntity
  8
0
  6
CONTINUOUS
 62
     0
100
AcDbLine
 10
0.0
 20
0.0
 30
0.0
 11
-1.0
 21
0.0
 31
0.0
  0
ARC
  5
A6
330
73
100
AcDbEntity
  8
0
  6
CONTINUOUS
 62
     0
100
AcDbCircle
 10
0.542115
 20
0.164992
 30
0.0
 40
0.56667
100
AcDbArc
 50
73.07249033629006
 51
196.9275130221199
  0
ARC
  5
A7
330
73
100
AcDbEntity
  8
0
  6
CONTINUOUS
 62
     0
100
AcDbCircle
 10
-0.542115
 20
-0.164992
 30
0.0
 40
0.56667
100
AcDbArc
 50
253.0724869220464
 51
16.9275130559125
  0
ENDBLK
  5
75
330
73
100
AcDbEntity
  8
0
100
AcDbBlockEnd
  0
BLOCK
  5
255
330
254
100
AcDbEntity
  8
0
100
AcDbBlockBegin
  2
*D15
 70
     1
 10
0.0
 20
0.0
 30
0.0
  3
*D15
  1

  0
LINE
  5
257
330
254
100
AcDbEntity
  8
寸法
  6
CONTINUOUS
 62
     3
100
AcDbLine
 10
378.4999999999995
 20
2027.99999988079
 30
0.0
 11
378.4999999999995
 21
2110.999999999999
 31
0.0
  0
LINE
  5
258
330
254
100
AcDbEntity
  8
寸法
  6
CONTINUOUS
 62
     3
100
AcDbLine
 10
398.4999999999995
 20
2060.49999988079
 30
0.0
 11
398.4999999999995
 21
2110.999999999999
 31
0.0
  0
LINE
  5
259
330
254
100
AcDbEntity
  8
寸法
  6
CONTINUOUS
 62
     3
100
AcDbLine
 10
378.4999999999995
 20
2100.999999999999
 30
0.0
 11
398.4999999999995
 21
2100.999999999999
 31
0.0
  0
LINE
  5
25A
330
254
100
AcDbEntity
  8
寸法
  6
CONTINUOUS
 62
     3
100
AcDbLine
 10
348.4999999999995
 20
2100.999999999999
 30
0.0
 11
318.4999999999995
 21
2100.999999999999
 31
0.0
  0
LINE
  5
25B
330
254
100
AcDbEntity
  8
寸法
  6
CONTINUOUS
 62
     3
100
AcDbLine
 10
428.4999999999995
 20
2100.999999999999
 30
0.0
 11
458.4999999999995
 21
2100.999999999999
 31
0.0
  0
INSERT
  5
25C
330
254
100
AcDbEntity
  8
寸法
 62
     3
100
AcDbBlockReference
  2
EX_NORM
 10
378.4999999999995
 20
2100.999999999999
 30
0.0
 41
30.0
 42
30.0
 43
30.0
  0
INSERT
  5
25D
330
254
100
AcDbEntity
  8
寸法
 62
     3
100
AcDbBlockReference
  2
EX_NORM
 10
398.4999999999995
 20
2100.999999999999
 30
0.0
 41
30.0
 42
30.0
 43
30.0
 50
180.0
  0
MTEXT
  5
25E
330
254
100
AcDbEntity
  8
寸法
 62
     2
100
AcDbMText
 10
313.4999999999997
 20
2124.499999940394
 30
0.0
 40
40.0
 41
0.0
 71
     5
 72
     1
  1
20
  7
EXCADDIM1
  0
POINT
  5
25F
330
254
100
AcDbEntity
  8
DEFPOINTS
 62
     0
100
AcDbPoint
 10
378.4999999999995
 20
2020.999999999999
 30
0.0
  0
POINT
  5
260
330
254
100
AcDbEntity
  8
DEFPOINTS
 62
     0
100
AcDbPoint
 10
398.4999999999995
 20
2053.499999999999
 30
0.0
  0
POINT
  5
261
330
254
100
AcDbEntity
  8
DEFPOINTS
 62
     0
100
AcDbPoint
 10
398.4999999999995
 20
2100.999999999999
 30
0.0
  0
ENDBLK
  5
256
330
254
100
AcDbEntity
  8
0
100
AcDbBlockEnd
  0
BLOCK
  5
264
330
263
100
AcDbEntity
  8
0
100
AcDbBlockBegin
  2
*D16
 70
     1
 10
0.0
 20
0.0
 30
0.0
  3
*D16
  1

  0
LINE
  5
266
330
263
100
AcDbEntity
  8
寸法
  6
CONTINUOUS
 62
     3
100
AcDbLine
 10
378.4999999999995
 20
2027.99999988079
 30
0.0
 11
378.4999999999995
 21
2170.999999999999
 31
0.0
  0
LINE
  5
267
330
263
100
AcDbEntity
  8
寸法
  6
CONTINUOUS
 62
     3
100
AcDbLine
 10
453.4999999999995
 20
2060.49999988079
 30
0.0
 11
453.4999999999995
 21
2170.999999999999
 31
0.0
  0
LINE
  5
268
330
263
100
AcDbEntity
  8
寸法
  6
CONTINUOUS
 62
     3
100
AcDbLine
 10
408.4999999999995
 20
2160.999999999999
 30
0.0
 11
423.4999999999995
 21
2160.999999999999
 31
0.0
  0
INSERT
  5
269
330
263
100
AcDbEntity
  8
寸法
 62
     3
100
AcDbBlockReference
  2
EX_NORM
 10
378.4999999999995
 20
2160.999999999999
 30
0.0
 41
30.0
 42
30.0
 43
30.0
 50
180.0
  0
INSERT
  5
26A
330
263
100
AcDbEntity
  8
寸法
 62
     3
100
AcDbBlockReference
  2
EX_NORM
 10
453.4999999999995
 20
2160.999999999999
 30
0.0
 41
30.0
 42
30.0
 43
30.0
  0
MTEXT
  5
26B
330
263
100
AcDbEntity
  8
寸法
 62
     2
100
AcDbMText
 10
313.4999999999997
 20
2184.499999940394
 30
0.0
 40
40.0
 41
0.0
 71
     5
 72
     1
  1
75
  7
EXCADDIM1
  0
POINT
  5
26C
330
263
100
AcDbEntity
  8
DEFPOINTS
 62
     0
100
AcDbPoint
 10
378.4999999999995
 20
2020.999999999999
 30
0.0
  0
POINT
  5
26D
330
263
100
AcDbEntity
  8
DEFPOINTS
 62
     0
100
AcDbPoint
 10
453.4999999999995
 20
2053.499999999999
 30
0.0
  0
POINT
  5
26E
330
263
100
AcDbEntity
  8
DEFPOINTS
 62
     0
100
AcDbPoint
 10
453.4999999999995
 20
2160.999999999999
 30
0.0
  0
ENDBLK
  5
265
330
263
100
AcDbEntity
  8
0
100
AcDbBlockEnd
  0
BLOCK
  5
271
330
270
100
AcDbEntity
  8
0
100
AcDbBlockBegin
  2
*D17
 70
     1
 10
0.0
 20
0.0
 30
0.0
  3
*D17
  1

  0
LINE
  5
273
330
270
100
AcDbEntity
  8
寸法
  6
CONTINUOUS
 62
     3
100
AcDbLine
 10
1053.5
 20
2060.49999988079
 30
0.0
 11
1053.5
 21
2110.999999999999
 31
0.0
  0
LINE
  5
274
330
270
100
AcDbEntity
  8
寸法
  6
CONTINUOUS
 62
     3
100
AcDbLine
 10
1128.5
 20
2027.99999988079
 30
0.0
 11
1128.5
 21
2110.999999999999
 31
0.0
  0
LINE
  5
275
330
270
100
AcDbEntity
  8
寸法
  6
CONTINUOUS
 62
     3
100
AcDbLine
 10
1083.5
 20
2100.999999999999
 30
0.0
 11
1098.5
 21
2100.999999999999
 31
0.0
  0
INSERT
  5
276
330
270
100
AcDbEntity
  8
寸法
 62
     3
100
AcDbBlockReference
  2
EX_NORM
 10
1053.5
 20
2100.999999999999
 30
0.0
 41
30.0
 42
30.0
 43
30.0
 50
180.0
  0
INSERT
  5
277
330
270
100
AcDbEntity
  8
寸法
 62
     3
100
AcDbBlockReference
  2
EX_NORM
 10
1128.5
 20
2100.999999999999
 30
0.0
 41
30.0
 42
30.0
 43
30.0
  0
MTEXT
  5
278
330
270
100
AcDbEntity
  8
寸法
 62
     2
100
AcDbMText
 10
1193.5
 20
2124.499999940394
 30
0.0
 40
40.0
 41
0.0
 71
     5
 72
     1
  1
75
  7
EXCADDIM1
  0
POINT
  5
279
330
270
100
AcDbEntity
  8
DEFPOINTS
 62
     0
100
AcDbPoint
 10
1053.5
 20
2053.499999999999
 30
0.0
  0
POINT
  5
27A
330
270
100
AcDbEntity
  8
DEFPOINTS
 62
     0
100
AcDbPoint
 10
1128.5
 20
2020.999999999999
 30
0.0
  0
POINT
  5
27B
330
270
100
AcDbEntity
  8
DEFPOINTS
 62
     0
100
AcDbPoint
 10
1128.5
 20
2100.999999999999
 30
0.0
  0
ENDBLK
  5
272
330
270
100
AcDbEntity
  8
0
100
AcDbBlockEnd
  0
BLOCK
  5
27E
330
27D
100
AcDbEntity
  8
0
100
AcDbBlockBegin
  2
*D18
 70
     1
 10
0.0
 20
0.0
 30
0.0
  3
*D18
  1

  0
LINE
  5
280
330
27D
100
AcDbEntity
  8
寸法
  6
CONTINUOUS
 62
     3
100
AcDbLine
 10
378.4999999999999
 20
1623.99999988079
 30
0.0
 11
378.5
 21
1694.999999999999
 31
0.0
  0
LINE
  5
281
330
27D
100
AcDbEntity
  8
寸法
  6
CONTINUOUS
 62
     3
100
AcDbLine
 10
1128.5
 20
1623.99999988079
 30
0.0
 11
1128.5
 21
1694.999999999999
 31
0.0
  0
LINE
  5
282
330
27D
100
AcDbEntity
  8
寸法
  6
CONTINUOUS
 62
     3
100
AcDbLine
 10
408.5
 20
1684.999999999999
 30
0.0
 11
1098.5
 21
1684.999999999999
 31
0.0
  0
INSERT
  5
283
330
27D
100
AcDbEntity
  8
寸法
 62
     3
100
AcDbBlockReference
  2
EX_NORM
 10
378.5
 20
1684.999999999999
 30
0.0
 41
30.0
 42
30.0
 43
30.0
 50
180.0
  0
INSERT
  5
284
330
27D
100
AcDbEntity
  8
寸法
 62
     3
100
AcDbBlockReference
  2
EX_NORM
 10
1128.5
 20
1684.999999999999
 30
0.0
 41
30.0
 42
30.0
 43
30.0
  0
MTEXT
  5
285
330
27D
100
AcDbEntity
  8
寸法
 62
     2
100
AcDbMText
 10
753.5
 20
1708.499999940394
 30
0.0
 40
40.0
 41
0.0
 71
     5
 72
     1
  1
750
  7
EXCADDIM1
  0
POINT
  5
286
330
27D
100
AcDbEntity
  8
DEFPOINTS
 62
     0
100
AcDbPoint
 10
378.4999999999999
 20
1616.999999999999
 30
0.0
  0
POINT
  5
287
330
27D
100
AcDbEntity
  8
DEFPOINTS
 62
     0
100
AcDbPoint
 10
1128.5
 20
1616.999999999999
 30
0.0
  0
POINT
  5
288
330
27D
100
AcDbEntity
  8
DEFPOINTS
 62
     0
100
AcDbPoint
 10
1128.5
 20
1684.999999999999
 30
0.0
  0
ENDBLK
  5
27F
330
27D
100
AcDbEntity
  8
0
100
AcDbBlockEnd
  0
BLOCK
  5
28B
330
28A
100
AcDbEntity
  8
0
100
AcDbBlockBegin
  2
*D19
 70
     1
 10
0.0
 20
0.0
 30
0.0
  3
*D19
  1

  0
LINE
  5
28D
330
28A
100
AcDbEntity
  8
寸法
  6
CONTINUOUS
 62
     3
100
AcDbLine
 10
958.5
 20
1163.000000119208
 30
0.0
 11
958.5
 21
832.9999999999991
 31
0.0
  0
LINE
  5
28E
330
28A
100
AcDbEntity
  8
寸法
  6
CONTINUOUS
 62
     3
100
AcDbLine
 10
988.5
 20
842.9999999999991
 30
0.0
 11
1098.5
 21
842.9999999999991
 31
0.0
  0
INSERT
  5
28F
330
28A
100
AcDbEntity
  8
寸法
 62
     3
100
AcDbBlockReference
  2
EX_NORM
 10
958.5
 20
842.9999999999991
 30
0.0
 41
30.0
 42
30.0
 43
30.0
 50
180.0
  0
INSERT
  5
290
330
28A
100
AcDbEntity
  8
寸法
 62
     3
100
AcDbBlockReference
  2
EX_NORM
 10
1128.5
 20
842.9999999999991
 30
0.0
 41
30.0
 42
30.0
 43
30.0
  0
MTEXT
  5
291
330
28A
100
AcDbEntity
  8
寸法
 62
     2
100
AcDbMText
 10
1043.5
 20
866.4999999403944
 30
0.0
 40
40.0
 41
0.0
 71
     5
 72
     1
  1
※170
  7
EXCADDIM1
  0
POINT
  5
292
330
28A
100
AcDbEntity
  8
DEFPOINTS
 62
     0
100
AcDbPoint
 10
958.5
 20
1169.999999999999
 30
0.0
  0
POINT
  5
293
330
28A
100
AcDbEntity
  8
DEFPOINTS
 62
     0
100
AcDbPoint
 10
1128.5
 20
1059.999999999999
 30
0.0
  0
POINT
  5
294
330
28A
100
AcDbEntity
  8
DEFPOINTS
 62
     0
100
AcDbPoint
 10
1128.5
 20
842.9999999999991
 30
0.0
  0
ENDBLK
  5
28C
330
28A
100
AcDbEntity
  8
0
100
AcDbBlockEnd
  0
BLOCK
  5
297
330
296
100
AcDbEntity
  8
0
100
AcDbBlockBegin
  2
*D20
 70
     1
 10
0.0
 20
0.0
 30
0.0
  3
*D20
  1

  0
LINE
  5
299
330
296
100
AcDbEntity
  8
寸法
  6
CONTINUOUS
 62
     3
100
AcDbLine
 10
1670.5
 20
493.0000001192084
 30
0.0
 11
1670.5
 21
404.9999999999991
 31
0.0
  0
LINE
  5
29A
330
296
100
AcDbEntity
  8
寸法
  6
CONTINUOUS
 62
     3
100
AcDbLine
 10
1700.5
 20
488.0000001192084
 30
0.0
 11
1700.5
 21
404.9999999999991
 31
0.0
  0
LINE
  5
29B
330
296
100
AcDbEntity
  8
寸法
  6
CONTINUOUS
 62
     3
100
AcDbLine
 10
1670.5
 20
414.9999999999991
 30
0.0
 11
1700.5
 21
414.9999999999991
 31
0.0
  0
LINE
  5
29C
330
296
100
AcDbEntity
  8
寸法
  6
CONTINUOUS
 62
     3
100
AcDbLine
 10
1640.5
 20
414.9999999999991
 30
0.0
 11
1610.5
 21
414.9999999999991
 31
0.0
  0
LINE
  5
29D
330
296
100
AcDbEntity
  8
寸法
  6
CONTINUOUS
 62
     3
100
AcDbLine
 10
1730.5
 20
414.9999999999991
 30
0.0
 11
1760.5
 21
414.9999999999991
 31
0.0
  0
INSERT
  5
29E
330
296
100
AcDbEntity
  8
寸法
 62
     3
100
AcDbBlockReference
  2
EX_NORM
 10
1670.5
 20
414.9999999999991
 30
0.0
 41
30.0
 42
30.0
 43
30.0
  0
INSERT
  5
29F
330
296
100
AcDbEntity
  8
寸法
 62
     3
100
AcDbBlockReference
  2
EX_NORM
 10
1700.5
 20
414.9999999999991
 30
0.0
 41
30.0
 42
30.0
 43
30.0
 50
180.0
  0
MTEXT
  5
2A0
330
296
100
AcDbEntity
  8
寸法
 62
     2
100
AcDbMText
 10
1605.5
 20
438.4999999403945
 30
0.0
 40
40.0
 41
0.0
 71
     5
 72
     1
  1
30
  7
EXCADDIM1
  0
POINT
  5
2A1
330
296
100
AcDbEntity
  8
DEFPOINTS
 62
     0
100
AcDbPoint
 10
1670.5
 20
499.9999999999991
 30
0.0
  0
POINT
  5
2A2
330
296
100
AcDbEntity
  8
DEFPOINTS
 62
     0
100
AcDbPoint
 10
1700.5
 20
494.9999999999991
 30
0.0
  0
POINT
  5
2A3
330
296
100
AcDbEntity
  8
DEFPOINTS
 62
     0
100
AcDbPoint
 10
1700.5
 20
414.9999999999991
 30
0.0
  0
ENDBLK
  5
298
330
296
100
AcDbEntity
  8
0
100
AcDbBlockEnd
  0
BLOCK
  5
2A6
330
2A5
100
AcDbEntity
  8
0
100
AcDbBlockBegin
  2
*D21
 70
     1
 10
0.0
 20
0.0
 30
0.0
  3
*D21
  1

  0
LINE
  5
2A8
330
2A5
100
AcDbEntity
  8
寸法
  6
CONTINUOUS
 62
     3
100
AcDbLine
 10
1523.5
 20
1617.99999988079
 30
0.0
 11
1523.5
 21
1694.999999999999
 31
0.0
  0
LINE
  5
2A9
330
2A5
100
AcDbEntity
  8
寸法
  6
CONTINUOUS
 62
     3
100
AcDbLine
 10
1700.5
 20
1631.99999988079
 30
0.0
 11
1700.5
 21
1694.999999999999
 31
0.0
  0
LINE
  5
2AA
330
2A5
100
AcDbEntity
  8
寸法
  6
CONTINUOUS
 62
     3
100
AcDbLine
 10
1553.5
 20
1684.999999999999
 30
0.0
 11
1670.5
 21
1684.999999999999
 31
0.0
  0
INSERT
  5
2AB
330
2A5
100
AcDbEntity
  8
寸法
 62
     3
100
AcDbBlockReference
  2
EX_NORM
 10
1523.5
 20
1684.999999999999
 30
0.0
 41
30.0
 42
30.0
 43
30.0
 50
180.0
  0
INSERT
  5
2AC
330
2A5
100
AcDbEntity
  8
寸法
 62
     3
100
AcDbBlockReference
  2
EX_NORM
 10
1700.5
 20
1684.999999999999
 30
0.0
 41
30.0
 42
30.0
 43
30.0
  0
MTEXT
  5
2AD
330
2A5
100
AcDbEntity
  8
寸法
 62
     2
100
AcDbMText
 10
1612.0
 20
1708.499999940394
 30
0.0
 40
40.0
 41
0.0
 71
     5
 72
     1
  1
177
  7
EXCADDIM1
  0
POINT
  5
2AE
330
2A5
100
AcDbEntity
  8
DEFPOINTS
 62
     0
100
AcDbPoint
 10
1523.5
 20
1610.999999999999
 30
0.0
  0
POINT
  5
2AF
330
2A5
100
AcDbEntity
  8
DEFPOINTS
 62
     0
100
AcDbPoint
 10
1700.5
 20
1624.999999999999
 30
0.0
  0
POINT
  5
2B0
330
2A5
100
AcDbEntity
  8
DEFPOINTS
 62
     0
100
AcDbPoint
 10
1700.5
 20
1684.999999999999
 30
0.0
  0
ENDBLK
  5
2A7
330
2A5
100
AcDbEntity
  8
0
100
AcDbBlockEnd
  0
BLOCK
  5
2B3
330
2B2
100
AcDbEntity
  8
0
100
AcDbBlockBegin
  2
*D22
 70
     1
 10
0.0
 20
0.0
 30
0.0
  3
*D22
  1

  0
LINE
  5
2B5
330
2B2
100
AcDbEntity
  8
寸法
  6
CONTINUOUS
 62
     3
100
AcDbLine
 10
1127.49999988079
 20
494.9999999999991
 30
0.0
 11
1255.0
 21
494.9999999999991
 31
0.0
  0
LINE
  5
2B6
330
2B2
100
AcDbEntity
  8
寸法
  6
CONTINUOUS
 62
     3
100
AcDbLine
 10
1148.576696711391
 20
509.9999999999991
 30
0.0
 11
1255.0
 21
509.9999999999991
 31
0.0
  0
LINE
  5
2B7
330
2B2
100
AcDbEntity
  8
寸法
  6
CONTINUOUS
 62
     3
100
AcDbLine
 10
1245.0
 20
494.9999999999991
 30
0.0
 11
1245.0
 21
509.9999999999991
 31
0.0
  0
LINE
  5
2B8
330
2B2
100
AcDbEntity
  8
寸法
  6
CONTINUOUS
 62
     3
100
AcDbLine
 10
1245.0
 20
464.9999999999991
 30
0.0
 11
1245.0
 21
434.9999999999991
 31
0.0
  0
LINE
  5
2B9
330
2B2
100
AcDbEntity
  8
寸法
  6
CONTINUOUS
 62
     3
100
AcDbLine
 10
1245.0
 20
539.9999999999991
 30
0.0
 11
1245.0
 21
569.9999999999991
 31
0.0
  0
INSERT
  5
2BA
330
2B2
100
AcDbEntity
  8
寸法
 62
     3
100
AcDbBlockReference
  2
EX_NORM
 10
1245.0
 20
494.9999999999991
 30
0.0
 41
30.0
 42
30.0
 43
30.0
 50
90.0
  0
INSERT
  5
2BB
330
2B2
100
AcDbEntity
  8
寸法
 62
     3
100
AcDbBlockReference
  2
EX_NORM
 10
1245.0
 20
509.9999999999991
 30
0.0
 41
30.0
 42
30.0
 43
30.0
 50
270.0
  0
MTEXT
  5
2BC
330
2B2
100
AcDbEntity
  8
寸法
 62
     2
100
AcDbMText
 10
1221.500000059605
 20
574.9999999999989
 30
0.0
 40
40.0
 41
0.0
 71
     5
 72
     1
  1
15
  7
EXCADDIM1
 11
0.0
 21
1.0
 31
0.0
  0
POINT
  5
2BD
330
2B2
100
AcDbEntity
  8
DEFPOINTS
 62
     0
100
AcDbPoint
 10
1120.5
 20
494.9999999999991
 30
0.0
  0
POINT
  5
2BE
330
2B2
100
AcDbEntity
  8
DEFPOINTS
 62
     0
100
AcDbPoint
 10
1141.5766968306
 20
509.9999999999991
 30
0.0
  0
POINT
  5
2BF
330
2B2
100
AcDbEntity
  8
DEFPOINTS
 62
     0
100
AcDbPoint
 10
1245.0
 20
509.9999999999991
 30
0.0
  0
ENDBLK
  5
2B4
330
2B2
100
AcDbEntity
  8
0
100
AcDbBlockEnd
  0
BLOCK
  5
2C2
330
2C1
100
AcDbEntity
  8
0
100
AcDbBlockBegin
  2
*D23
 70
     1
 10
0.0
 20
0.0
 30
0.0
  3
*D23
  1

  0
LINE
  5
2C4
330
2C1
100
AcDbEntity
  8
寸法
  6
CONTINUOUS
 62
     3
100
AcDbLine
 10
1127.499999880791
 20
494.9999999999991
 30
0.0
 11
1315.0
 21
494.9999999999991
 31
0.0
  0
LINE
  5
2C5
330
2C1
100
AcDbEntity
  8
寸法
  6
CONTINUOUS
 62
     3
100
AcDbLine
 10
970.4999998807907
 20
1174.999999999999
 30
0.0
 11
1315.0
 21
1174.999999999999
 31
0.0
  0
LINE
  5
2C6
330
2C1
100
AcDbEntity
  8
寸法
  6
CONTINUOUS
 62
     3
100
AcDbLine
 10
1305.0
 20
524.9999999999991
 30
0.0
 11
1305.0
 21
1144.999999999999
 31
0.0
  0
INSERT
  5
2C7
330
2C1
100
AcDbEntity
  8
寸法
 62
     3
100
AcDbBlockReference
  2
EX_NORM
 10
1305.0
 20
494.9999999999991
 30
0.0
 41
30.0
 42
30.0
 43
30.0
 50
270.0
  0
INSERT
  5
2C8
330
2C1
100
AcDbEntity
  8
寸法
 62
     3
100
AcDbBlockReference
  2
EX_NORM
 10
1305.0
 20
1174.999999999999
 30
0.0
 41
30.0
 42
30.0
 43
30.0
 50
90.0
  0
MTEXT
  5
2C9
330
2C1
100
AcDbEntity
  8
寸法
 62
     2
100
AcDbMText
 10
1281.500000059604
 20
834.9999999999991
 30
0.0
 40
40.0
 41
0.0
 71
     5
 72
     1
  1
※680
  7
EXCADDIM1
 11
0.0
 21
1.0
 31
0.0
  0
POINT
  5
2CA
330
2C1
100
AcDbEntity
  8
DEFPOINTS
 62
     0
100
AcDbPoint
 10
1120.5
 20
494.9999999999991
 30
0.0
  0
POINT
  5
2CB
330
2C1
100
AcDbEntity
  8
DEFPOINTS
 62
     0
100
AcDbPoint
 10
963.5
 20
1174.999999999999
 30
0.0
  0
POINT
  5
2CC
330
2C1
100
AcDbEntity
  8
DEFPOINTS
 62
     0
100
AcDbPoint
 10
1305.0
 20
1174.999999999999
 30
0.0
  0
ENDBLK
  5
2C3
330
2C1
100
AcDbEntity
  8
0
100
AcDbBlockEnd
  0
BLOCK
  5
2CF
330
2CE
100
AcDbEntity
  8
0
100
AcDbBlockBegin
  2
*D24
 70
     1
 10
0.0
 20
0.0
 30
0.0
  3
*D24
  1

  0
LINE
  5
2D1
330
2CE
100
AcDbEntity
  8
寸法
  6
CONTINUOUS
 62
     3
100
AcDbLine
 10
1127.499999880791
 20
494.9999999999991
 30
0.0
 11
1375.0
 21
494.9999999999991
 31
0.0
  0
LINE
  5
2D2
330
2CE
100
AcDbEntity
  8
寸法
  6
CONTINUOUS
 62
     3
100
AcDbLine
 10
1127.499999880791
 20
1624.999999999999
 30
0.0
 11
1375.0
 21
1624.999999999999
 31
0.0
  0
LINE
  5
2D3
330
2CE
100
AcDbEntity
  8
寸法
  6
CONTINUOUS
 62
     3
100
AcDbLine
 10
1365.0
 20
524.9999999999991
 30
0.0
 11
1365.0
 21
1594.999999999999
 31
0.0
  0
INSERT
  5
2D4
330
2CE
100
AcDbEntity
  8
寸法
 62
     3
100
AcDbBlockReference
  2
EX_NORM
 10
1365.0
 20
494.9999999999991
 30
0.0
 41
30.0
 42
30.0
 43
30.0
 50
270.0
  0
INSERT
  5
2D5
330
2CE
100
AcDbEntity
  8
寸法
 62
     3
100
AcDbBlockReference
  2
EX_NORM
 10
1365.0
 20
1624.999999999999
 30
0.0
 41
30.0
 42
30.0
 43
30.0
 50
90.0
  0
MTEXT
  5
2D6
330
2CE
100
AcDbEntity
  8
寸法
 62
     2
100
AcDbMText
 10
1341.500000059604
 20
1059.999999999999
 30
0.0
 40
40.0
 41
0.0
 71
     5
 72
     1
  1
1130
  7
EXCADDIM1
 11
0.0
 21
1.0
 31
0.0
  0
POINT
  5
2D7
330
2CE
100
AcDbEntity
  8
DEFPOINTS
 62
     0
100
AcDbPoint
 10
1120.5
 20
494.9999999999991
 30
0.0
  0
POINT
  5
2D8
330
2CE
100
AcDbEntity
  8
DEFPOINTS
 62
     0
100
AcDbPoint
 10
1120.5
 20
1624.999999999999
 30
0.0
  0
POINT
  5
2D9
330
2CE
100
AcDbEntity
  8
DEFPOINTS
 62
     0
100
AcDbPoint
 10
1365.0
 20
1624.999999999999
 30
0.0
  0
ENDBLK
  5
2D0
330
2CE
100
AcDbEntity
  8
0
100
AcDbBlockEnd
  0
BLOCK
  5
2E0
330
2DF
100
AcDbEntity
  8
0
100
AcDbBlockBegin
  2
*D25
 70
     1
 10
0.0
 20
0.0
 30
0.0
  3
*D25
  1

  0
LINE
  5
2E2
330
2DF
100
AcDbEntity
  8
寸法
  6
CONTINUOUS
 62
     3
100
AcDbLine
 10
1707.49999988079
 20
494.9999999999991
 30
0.0
 11
1790.5
 21
494.9999999999991
 31
0.0
  0
LINE
  5
2E3
330
2DF
100
AcDbEntity
  8
寸法
  6
CONTINUOUS
 62
     3
100
AcDbLine
 10
1739.999999880791
 20
544.9999999999991
 30
0.0
 11
1790.5
 21
544.9999999999991
 31
0.0
  0
LINE
  5
2E4
330
2DF
100
AcDbEntity
  8
寸法
  6
CONTINUOUS
 62
     3
100
AcDbLine
 10
1780.5
 20
494.9999999999991
 30
0.0
 11
1780.5
 21
544.9999999999991
 31
0.0
  0
LINE
  5
2E5
330
2DF
100
AcDbEntity
  8
寸法
  6
CONTINUOUS
 62
     3
100
AcDbLine
 10
1780.5
 20
464.9999999999991
 30
0.0
 11
1780.5
 21
434.9999999999991
 31
0.0
  0
LINE
  5
2E6
330
2DF
100
AcDbEntity
  8
寸法
  6
CONTINUOUS
 62
     3
100
AcDbLine
 10
1780.5
 20
574.9999999999991
 30
0.0
 11
1780.5
 21
604.9999999999991
 31
0.0
  0
INSERT
  5
2E7
330
2DF
100
AcDbEntity
  8
寸法
 62
     3
100
AcDbBlockReference
  2
EX_NORM
 10
1780.5
 20
494.9999999999991
 30
0.0
 41
30.0
 42
30.0
 43
30.0
 50
90.0
  0
INSERT
  5
2E8
330
2DF
100
AcDbEntity
  8
寸法
 62
     3
100
AcDbBlockReference
  2
EX_NORM
 10
1780.5
 20
544.9999999999991
 30
0.0
 41
30.0
 42
30.0
 43
30.0
 50
270.0
  0
MTEXT
  5
2E9
330
2DF
100
AcDbEntity
  8
寸法
 62
     2
100
AcDbMText
 10
1757.000000059604
 20
429.9999999999986
 30
0.0
 40
40.0
 41
0.0
 71
     5
 72
     1
  1
50
  7
EXCADDIM1
 11
0.0
 21
1.0
 31
0.0
  0
POINT
  5
2EA
330
2DF
100
AcDbEntity
  8
DEFPOINTS
 62
     0
100
AcDbPoint
 10
1700.5
 20
494.9999999999991
 30
0.0
  0
POINT
  5
2EB
330
2DF
100
AcDbEntity
  8
DEFPOINTS
 62
     0
100
AcDbPoint
 10
1733.0
 20
544.9999999999991
 30
0.0
  0
POINT
  5
2EC
330
2DF
100
AcDbEntity
  8
DEFPOINTS
 62
     0
100
AcDbPoint
 10
1780.5
 20
544.9999999999991
 30
0.0
  0
ENDBLK
  5
2E1
330
2DF
100
AcDbEntity
  8
0
100
AcDbBlockEnd
  0
BLOCK
  5
2EF
330
2EE
100
AcDbEntity
  8
0
100
AcDbBlockBegin
  2
*D26
 70
     1
 10
0.0
 20
0.0
 30
0.0
  3
*D26
  1

  0
LINE
  5
2F1
330
2EE
100
AcDbEntity
  8
寸法
  6
CONTINUOUS
 62
     3
100
AcDbLine
 10
1739.999999880791
 20
544.9999999999991
 30
0.0
 11
1790.5
 21
544.9999999999991
 31
0.0
  0
LINE
  5
2F2
330
2EE
100
AcDbEntity
  8
寸法
  6
CONTINUOUS
 62
     3
100
AcDbLine
 10
1739.999999880791
 20
944.9999999999991
 30
0.0
 11
1790.5
 21
944.9999999999991
 31
0.0
  0
LINE
  5
2F3
330
2EE
100
AcDbEntity
  8
寸法
  6
CONTINUOUS
 62
     3
100
AcDbLine
 10
1780.5
 20
574.9999999999991
 30
0.0
 11
1780.5
 21
914.9999999999991
 31
0.0
  0
INSERT
  5
2F4
330
2EE
100
AcDbEntity
  8
寸法
 62
     3
100
AcDbBlockReference
  2
EX_NORM
 10
1780.5
 20
544.9999999999991
 30
0.0
 41
30.0
 42
30.0
 43
30.0
 50
270.0
  0
INSERT
  5
2F5
330
2EE
100
AcDbEntity
  8
寸法
 62
     3
100
AcDbBlockReference
  2
EX_NORM
 10
1780.5
 20
944.9999999999991
 30
0.0
 41
30.0
 42
30.0
 43
30.0
 50
90.0
  0
MTEXT
  5
2F6
330
2EE
100
AcDbEntity
  8
寸法
 62
     2
100
AcDbMText
 10
1757.000000059604
 20
744.9999999999991
 30
0.0
 40
40.0
 41
0.0
 71
     5
 72
     1
  1
400
  7
EXCADDIM1
 11
0.0
 21
1.0
 31
0.0
  0
POINT
  5
2F7
330
2EE
100
AcDbEntity
  8
DEFPOINTS
 62
     0
100
AcDbPoint
 10
1733.0
 20
544.9999999999991
 30
0.0
  0
POINT
  5
2F8
330
2EE
100
AcDbEntity
  8
DEFPOINTS
 62
     0
100
AcDbPoint
 10
1733.0
 20
944.9999999999991
 30
0.0
  0
POINT
  5
2F9
330
2EE
100
AcDbEntity
  8
DEFPOINTS
 62
     0
100
AcDbPoint
 10
1780.5
 20
944.9999999999991
 30
0.0
  0
ENDBLK
  5
2F0
330
2EE
100
AcDbEntity
  8
0
100
AcDbBlockEnd
  0
BLOCK
  5
2FC
330
2FB
100
AcDbEntity
  8
0
100
AcDbBlockBegin
  2
*D27
 70
     1
 10
0.0
 20
0.0
 30
0.0
  3
*D27
  1

  0
LINE
  5
2FE
330
2FB
100
AcDbEntity
  8
寸法
  6
CONTINUOUS
 62
     3
100
AcDbLine
 10
1739.999999880791
 20
944.9999999999991
 30
0.0
 11
1790.5
 21
944.9999999999992
 31
0.0
  0
LINE
  5
2FF
330
2FB
100
AcDbEntity
  8
寸法
  6
CONTINUOUS
 62
     3
100
AcDbLine
 10
1739.999999880791
 20
1444.999999999999
 30
0.0
 11
1790.5
 21
1444.999999999999
 31
0.0
  0
LINE
  5
300
330
2FB
100
AcDbEntity
  8
寸法
  6
CONTINUOUS
 62
     3
100
AcDbLine
 10
1780.5
 20
974.9999999999992
 30
0.0
 11
1780.5
 21
1414.999999999999
 31
0.0
  0
INSERT
  5
301
330
2FB
100
AcDbEntity
  8
寸法
 62
     3
100
AcDbBlockReference
  2
EX_NORM
 10
1780.5
 20
944.9999999999992
 30
0.0
 41
30.0
 42
30.0
 43
30.0
 50
270.0
  0
INSERT
  5
302
330
2FB
100
AcDbEntity
  8
寸法
 62
     3
100
AcDbBlockReference
  2
EX_NORM
 10
1780.5
 20
1444.999999999999
 30
0.0
 41
30.0
 42
30.0
 43
30.0
 50
90.0
  0
MTEXT
  5
303
330
2FB
100
AcDbEntity
  8
寸法
 62
     2
100
AcDbMText
 10
1757.000000059604
 20
1194.999999999999
 30
0.0
 40
40.0
 41
0.0
 71
     5
 72
     1
  1
500
  7
EXCADDIM1
 11
0.0
 21
1.0
 31
0.0
  0
POINT
  5
304
330
2FB
100
AcDbEntity
  8
DEFPOINTS
 62
     0
100
AcDbPoint
 10
1733.0
 20
944.9999999999991
 30
0.0
  0
POINT
  5
305
330
2FB
100
AcDbEntity
  8
DEFPOINTS
 62
     0
100
AcDbPoint
 10
1733.0
 20
1444.999999999999
 30
0.0
  0
POINT
  5
306
330
2FB
100
AcDbEntity
  8
DEFPOINTS
 62
     0
100
AcDbPoint
 10
1780.5
 20
1444.999999999999
 30
0.0
  0
ENDBLK
  5
2FD
330
2FB
100
AcDbEntity
  8
0
100
AcDbBlockEnd
  0
BLOCK
  5
30B
330
30A
100
AcDbEntity
  8
0
100
AcDbBlockBegin
  2
*D28
 70
     1
 10
0.0
 20
0.0
 30
0.0
  3
*D28
  1

  0
LINE
  5
30D
330
30A
100
AcDbEntity
  8
寸法
  6
CONTINUOUS
 62
     3
100
AcDbLine
 10
1577.000000000001
 20
766.9999998807898
 30
0.0
 11
1577.000000000001
 21
854.9999999999991
 31
0.0
  0
LINE
  5
30E
330
30A
100
AcDbEntity
  8
寸法
  6
CONTINUOUS
 62
     3
100
AcDbLine
 10
1607.000000000001
 20
844.9999999999991
 30
0.0
 11
1670.5
 21
844.9999999999991
 31
0.0
  0
INSERT
  5
30F
330
30A
100
AcDbEntity
  8
寸法
 62
     3
100
AcDbBlockReference
  2
EX_NORM
 10
1577.000000000001
 20
844.9999999999991
 30
0.0
 41
30.0
 42
30.0
 43
30.0
 50
180.0
  0
INSERT
  5
310
330
30A
100
AcDbEntity
  8
寸法
 62
     3
100
AcDbBlockReference
  2
EX_NORM
 10
1700.5
 20
844.9999999999991
 30
0.0
 41
30.0
 42
30.0
 43
30.0
  0
MTEXT
  5
311
330
30A
100
AcDbEntity
  8
寸法
 62
     2
100
AcDbMText
 10
1497.000000000001
 20
868.4999999403944
 30
0.0
 40
40.0
 41
0.0
 71
     5
 72
     1
  1
124
  7
EXCADDIM1
  0
POINT
  5
312
330
30A
100
AcDbEntity
  8
DEFPOINTS
 62
     0
100
AcDbPoint
 10
1577.000000000001
 20
759.9999999999991
 30
0.0
  0
POINT
  5
313
330
30A
100
AcDbEntity
  8
DEFPOINTS
 62
     0
100
AcDbPoint
 10
1700.5
 20
770.9999999999991
 30
0.0
  0
POINT
  5
314
330
30A
100
AcDbEntity
  8
DEFPOINTS
 62
     0
100
AcDbPoint
 10
1700.5
 20
844.9999999999991
 30
0.0
  0
ENDBLK
  5
30C
330
30A
100
AcDbEntity
  8
0
100
AcDbBlockEnd
  0
ENDSEC
  0
SECTION
  2
ENTITIES
  0
TEXT
  5
A8
330
1F
100
AcDbEntity
  8
枠_表
  6
CONTINUOUS
 62
     2
100
AcDbText
 10
1890.5371094
 20
302.7227782999998
 30
0.0
 40
30.0
  1
１
 41
1.101333404541018
  7
EXCADSTD
 72
     5
 11
1914.137110925878
 21
302.7227782999998
 31
0.0
100
AcDbText
  0
TEXT
  5
A9
330
1F
100
AcDbEntity
  8
枠_表
  6
CONTINUOUS
 62
     2
100
AcDbText
 10
202.4999999999999
 20
308.75
 30
0.0
 40
42.5
  1
製図
 41
1.509694117647058
  7
EXCADSTD
 72
     5
 11
303.3259999999999
 21
308.75
 31
0.0
100
AcDbText
  0
TEXT
  5
AA
330
1F
100
AcDbEntity
  8
枠_表
  6
CONTINUOUS
 62
     2
100
AcDbText
 10
357.4999999999999
 20
308.75
 30
0.0
 40
42.5
  1
写図
 41
1.509694117647058
  7
EXCADSTD
 72
     5
 11
458.3259999999999
 21
308.75
 31
0.0
100
AcDbText
  0
TEXT
  5
AB
330
1F
100
AcDbEntity
  8
枠_表
  6
CONTINUOUS
 62
     2
100
AcDbText
 10
507.4999999999995
 20
308.75
 30
0.0
 40
42.5
  1
検図
 41
1.303826737967914
  7
EXCADSTD
 72
     5
 11
594.5769999999995
 21
308.75
 31
0.0
100
AcDbText
  0
TEXT
  5
AC
330
1F
100
AcDbEntity
  8
枠_表
  6
CONTINUOUS
 62
     2
100
AcDbText
 10
637.4999999999982
 20
308.75
 30
0.0
 40
42.5
  1
承認
 41
1.303826737967914
  7
EXCADSTD
 72
     5
 11
724.5769999999982
 21
308.75
 31
0.0
100
AcDbText
  0
TEXT
  5
AD
330
1F
100
AcDbEntity
  8
枠_表
  6
CONTINUOUS
 62
     2
100
AcDbText
 10
755.7499999999977
 20
298.75
 30
0.0
 40
42.5
  1
品
 41
1.12
  7
EXCADSTD
 72
     5
 11
789.7499999999977
 21
298.75
 31
0.0
100
AcDbText
  0
TEXT
  5
AE
330
1F
100
AcDbEntity
  8
枠_表
  6
CONTINUOUS
 62
     2
100
AcDbText
 10
755.7499999999977
 20
248.75
 30
0.0
 40
42.5
  1
名
 41
1.12
  7
EXCADSTD
 72
     5
 11
789.7499999999977
 21
248.75
 31
0.0
100
AcDbText
  0
TEXT
  5
AF
330
1F
100
AcDbEntity
  8
枠_表
  6
CONTINUOUS
 62
     2
100
AcDbText
 10
1395.749999999999
 20
298.75
 30
0.0
 40
42.5
  1
品
 41
1.12
  7
EXCADSTD
 72
     5
 11
1429.749999999999
 21
298.75
 31
0.0
100
AcDbText
  0
TEXT
  5
B0
330
1F
100
AcDbEntity
  8
枠_表
  6
CONTINUOUS
 62
     2
100
AcDbText
 10
1395.749999999999
 20
248.75
 30
0.0
 40
42.5
  1
番
 41
1.12
  7
EXCADSTD
 72
     5
 11
1429.749999999999
 21
248.75
 31
0.0
100
AcDbText
  0
TEXT
  5
B1
330
1F
100
AcDbEntity
  8
枠_表
  6
CONTINUOUS
 62
     2
100
AcDbText
 10
1816.749999999999
 20
298.75
 30
0.0
 40
42.5
  1
尺
 41
1.12
  7
EXCADSTD
 72
     5
 11
1850.749999999999
 21
298.75
 31
0.0
100
AcDbText
  0
TEXT
  5
B2
330
1F
100
AcDbEntity
  8
枠_表
  6
CONTINUOUS
 62
     2
100
AcDbText
 10
1816.749999999999
 20
248.75
 30
0.0
 40
42.5
  1
度
 41
1.12
  7
EXCADSTD
 72
     5
 11
1850.749999999999
 21
248.75
 31
0.0
100
AcDbText
  0
TEXT
  5
B3
330
1F
100
AcDbEntity
  8
枠_表
  6
CONTINUOUS
 62
     2
100
AcDbText
 10
1395.749999999999
 20
185.7499999999991
 30
0.0
 40
42.5
  1
図
 41
1.12
  7
EXCADSTD
 72
     5
 11
1429.749999999999
 21
185.7499999999991
 31
0.0
100
AcDbText
  0
TEXT
  5
B4
330
1F
100
AcDbEntity
  8
枠_表
  6
CONTINUOUS
 62
     2
100
AcDbText
 10
1395.749999999999
 20
142.75
 30
0.0
 40
42.5
  1
番
 41
1.12
  7
EXCADSTD
 72
     5
 11
1429.749999999999
 21
142.75
 31
0.0
100
AcDbText
  0
TEXT
  5
B5
330
1F
100
AcDbEntity
  8
枠_表
  6
CONTINUOUS
 62
     2
100
AcDbText
 10
184.4999999000001
 20
140.0
 30
0.0
 40
40.0
  1
10
 41
0.454054054054054
  7
EXCADSTD
 72
     5
 11
216.4999999000001
 21
140.0
 31
0.0
100
AcDbText
  0
TEXT
  5
B6
330
1F
100
AcDbEntity
  8
枠_表
  6
CONTINUOUS
 62
     2
100
AcDbText
 10
1931.2792969
 20
258.3488464000002
 30
0.0
 40
30.0
  1
１０
 41
1.098531286290486
  7
EXCADSTD
 72
     5
 11
1983.067200396551
 21
258.3488464000002
 31
0.0
100
AcDbText
  0
LINE
  5
B7
330
1F
100
AcDbEntity
  8
枠_表
  6
CONTINUOUS
 62
     7
100
AcDbLine
 10
179.9999999999999
 20
135.0
 30
0.0
 11
1999.999999999999
 21
135.0
 31
0.0
  0
LINE
  5
B8
330
1F
100
AcDbEntity
  8
枠_表
  6
CONTINUOUS
 62
     7
100
AcDbLine
 10
1999.999999999999
 20
135.0
 30
0.0
 11
1999.999999999999
 21
2885.0
 31
0.0
  0
LINE
  5
B9
330
1F
100
AcDbEntity
  8
枠_表
  6
CONTINUOUS
 62
     7
100
AcDbLine
 10
179.9999999999999
 20
135.0
 30
0.0
 11
179.9999999999999
 21
2885.0
 31
0.0
  0
LINE
  5
BA
330
1F
100
AcDbEntity
  8
枠_表
  6
CONTINUOUS
 62
     7
100
AcDbLine
 10
179.9999999999999
 20
2885.0
 30
0.0
 11
1999.999999999999
 21
2885.0
 31
0.0
  0
LINE
  5
BB
330
1F
100
AcDbEntity
  8
枠_表
  6
CONTINUOUS
 62
     7
100
AcDbLine
 10
179.9999999999999
 20
355.0
 30
0.0
 11
1999.999999999999
 21
355.0
 31
0.0
  0
LINE
  5
BC
330
1F
100
AcDbEntity
  8
枠_表
  6
CONTINUOUS
 62
     6
100
AcDbLine
 10
1999.999999999999
 20
235.0
 30
0.0
 11
749.9999999999982
 21
235.0
 31
0.0
  0
LINE
  5
BD
330
1F
100
AcDbEntity
  8
枠_表
  6
CONTINUOUS
 62
     6
100
AcDbLine
 10
1860.0
 20
355.0
 30
0.0
 11
1860.0
 21
235.0
 31
0.0
  0
LINE
  5
BE
330
1F
100
AcDbEntity
  8
枠_表
  6
CONTINUOUS
 62
     6
100
AcDbLine
 10
1810.0
 20
355.0
 30
0.0
 11
1810.0
 21
235.0
 31
0.0
  0
LINE
  5
BF
330
1F
100
AcDbEntity
  8
枠_表
  6
CONTINUOUS
 62
     6
100
AcDbLine
 10
1440.0
 20
355.0
 30
0.0
 11
1440.0
 21
135.0
 31
0.0
  0
LINE
  5
C0
330
1F
100
AcDbEntity
  8
枠_表
  6
CONTINUOUS
 62
     6
100
AcDbLine
 10
1390.0
 20
355.0
 30
0.0
 11
1390.0
 21
135.0
 31
0.0
  0
LINE
  5
C1
330
1F
100
AcDbEntity
  8
枠_表
  6
CONTINUOUS
 62
     6
100
AcDbLine
 10
799.9999999999982
 20
355.0
 30
0.0
 11
799.9999999999982
 21
235.0
 31
0.0
  0
LINE
  5
C2
330
1F
100
AcDbEntity
  8
枠_表
  6
CONTINUOUS
 62
     6
100
AcDbLine
 10
749.9999999999982
 20
355.0
 30
0.0
 11
749.9999999999982
 21
135.0
 31
0.0
  0
LINE
  5
C3
330
1F
100
AcDbEntity
  8
枠_表
  6
CONTINUOUS
 62
     6
100
AcDbLine
 10
619.9999999999995
 20
355.0
 30
0.0
 11
619.9999999999995
 21
135.0
 31
0.0
  0
LINE
  5
C4
330
1F
100
AcDbEntity
  8
枠_表
  6
CONTINUOUS
 62
     6
100
AcDbLine
 10
489.9999999999995
 20
355.0
 30
0.0
 11
489.9999999999995
 21
135.0
 31
0.0
  0
LINE
  5
C5
330
1F
100
AcDbEntity
  8
枠_表
  6
CONTINUOUS
 62
     6
100
AcDbLine
 10
334.9999999999999
 20
355.0
 30
0.0
 11
334.9999999999999
 21
135.0
 31
0.0
  0
LINE
  5
C6
330
1F
100
AcDbEntity
  8
枠_表
  6
CONTINUOUS
 62
     6
100
AcDbLine
 10
179.9999999999999
 20
305.0
 30
0.0
 11
749.9999999999982
 21
305.0
 31
0.0
  0
LINE
  5
C7
330
1F
100
AcDbEntity
  8
枠_表
  6
CONTINUOUS
 62
     6
100
AcDbLine
 10
1892.653808599999
 20
258.0029297000001
 30
0.0
 11
1969.9938965
 21
336.6998290999991
 31
0.0
  0
CIRCLE
  5
C8
330
1F
100
AcDbEntity
  8
枠_表
  6
CONTINUOUS
 62
     6
100
AcDbCircle
 10
229.9999999999999
 20
160.0
 30
0.0
 40
1.0000002
  0
CIRCLE
  5
C9
330
1F
100
AcDbEntity
  8
枠_表
  6
CONTINUOUS
 62
     6
100
AcDbCircle
 10
279.9999999999999
 20
160.0
 30
0.0
 40
1.0000002
  0
CIRCLE
  5
CA
330
1F
100
AcDbEntity
  8
枠_表
  6
CONTINUOUS
 62
     6
100
AcDbCircle
 10
384.9999999999999
 20
160.0
 30
0.0
 40
1.0000002
  0
CIRCLE
  5
CB
330
1F
100
AcDbEntity
  8
枠_表
  6
CONTINUOUS
 62
     6
100
AcDbCircle
 10
434.9999999999999
 20
160.0
 30
0.0
 40
1.0000002
  0
LINE
  5
CC
330
1F
100
AcDbEntity
  8
枠_表
  6
EXLTYPE2
 62
     6
100
AcDbLine
 10
179.9999999999999
 20
185.0
 30
0.0
 11
489.9999999999995
 21
185.0
 31
0.0
  0
TEXT
  5
CD
330
1F
100
AcDbEntity
  8
枠_表
  6
CONTINUOUS
 62
     2
100
AcDbText
 10
207.4999999999949
 20
220.0
 30
0.0
 40
50.0
  1
中村
 41
1.224910909090909
  7
EXCADSTD
 72
     5
 11
303.7429999999949
 21
220.0
 31
0.0
100
AcDbText
  0
TEXT
  5
CE
330
1F
100
AcDbEntity
  8
枠_表
  6
CONTINUOUS
 62
     2
100
AcDbText
 10
243.7499999999999
 20
140.0
 30
0.0
 40
40.0
  1
8
 41
0.4516544117647059
  7
EXCADSTD
 72
     5
 11
258.3749999999999
 21
140.0
 31
0.0
100
AcDbText
  0
TEXT
  5
CF
330
1F
100
AcDbEntity
  8
枠_表
  6
CONTINUOUS
 62
     2
100
AcDbText
 10
288.0000001000002
 20
140.0
 30
0.0
 40
40.0
  1
27
 41
0.454054054054054
  7
EXCADSTD
 72
     5
 11
320.0000001000002
 21
140.0
 31
0.0
100
AcDbText
  0
TEXT
  5
D0
330
1F
100
AcDbEntity
  8
枠_表
  6
CONTINUOUS
 62
     2
100
AcDbText
 10
809.9999999999982
 20
270.0
 30
0.0
 40
50.0
  1
750㎜幅  化粧鏡台
 41
0.9485507246376813
  7
EXCADSTD
 72
     5
 11
1277.499999999998
 21
270.0
 31
0.0
100
AcDbText
  0
TEXT
  5
D1
330
1F
100
AcDbEntity
  8
枠_表
  6
CONTINUOUS
 62
     2
100
AcDbText
 10
1450.0
 20
295.0
 30
0.0
 40
50.0
  1
ＬＵＭ７５１ＳＫＨ
 41
0.7396226415094341
  7
EXCADSTD
 72
     5
 11
1730.0
 21
295.0
 31
0.0
100
AcDbText
  0
TEXT
  5
D2
330
1F
100
AcDbEntity
  8
枠_表
  6
CONTINUOUS
 62
     2
100
AcDbText
 10
1450.0
 20
245.0
 30
0.0
 40
50.0
  1
ＬＵＭ７５１ＳＫ
 41
0.7446808510638299
  7
EXCADSTD
 72
     5
 11
1700.0
 21
245.0
 31
0.0
100
AcDbText
  0
TEXT
  5
D3
330
1F
100
AcDbEntity
  8
枠_表
  6
CONTINUOUS
 62
     2
100
AcDbText
 10
995.0000000000014
 20
2760.0
 30
0.0
 40
40.0
  1
本体
 41
1.195746363636364
  7
EXCADSTD
 72
     5
 11
1070.161200000001
 21
2760.0
 31
0.0
100
AcDbText
  0
TEXT
  5
D4
330
1F
100
AcDbEntity
  8
枠_表
  6
CONTINUOUS
 62
     2
100
AcDbText
 10
995.0000000000014
 20
2660.0
 30
0.0
 40
40.0
  1
照明器具
 41
1.18695652173913
  7
EXCADSTD
 72
     5
 11
1151.000000000001
 21
2660.0
 31
0.0
100
AcDbText
  0
TEXT
  5
D5
330
1F
100
AcDbEntity
  8
枠_表
  6
CONTINUOUS
 62
     2
100
AcDbText
 10
995.0000000000014
 20
2560.0
 30
0.0
 40
40.0
  1
電源コード
 41
1.164655172413793
  7
EXCADSTD
 72
     5
 11
1188.000000000001
 21
2560.0
 31
0.0
100
AcDbText
  0
TEXT
  5
D6
330
1F
100
AcDbEntity
  8
枠_表
  6
CONTINUOUS
 62
     2
100
AcDbText
 10
995.0000000000014
 20
2710.0
 30
0.0
 40
40.0
  1
鏡
 41
1.26
  7
EXCADSTD
 72
     5
 11
1031.000000000001
 21
2710.0
 31
0.0
100
AcDbText
  0
TEXT
  5
D7
330
1F
100
AcDbEntity
  8
枠_表
  6
CONTINUOUS
 62
     2
100
AcDbText
 10
995.0000000000014
 20
2610.0
 30
0.0
 40
40.0
  1
コンセント
 41
1.164655172413793
  7
EXCADSTD
 72
     5
 11
1188.000000000001
 21
2610.0
 31
0.0
100
AcDbText
  0
TEXT
  5
D8
330
1F
100
AcDbEntity
  8
枠_表
  6
CONTINUOUS
 62
     2
100
AcDbText
 10
990.0000000000014
 20
2810.0
 30
0.0
 40
40.0
  1
化粧鏡台仕様
 41
1.225
  7
EXCADSTD
 72
     5
 11
1235.000000000001
 21
2810.0
 31
0.0
100
AcDbText
  0
LINE
  5
D9
330
1F
100
AcDbEntity
  8
枠_表
  6
CONTINUOUS
 62
     6
100
AcDbLine
 10
990.0000000000005
 20
2805.0
 30
0.0
 11
1950.0
 21
2805.0
 31
0.0
  0
LINE
  5
DA
330
1F
100
AcDbEntity
  8
枠_表
  6
CONTINUOUS
 62
     6
100
AcDbLine
 10
990.0000000000005
 20
2755.0
 30
0.0
 11
1950.0
 21
2755.0
 31
0.0
  0
LINE
  5
DB
330
1F
100
AcDbEntity
  8
枠_表
  6
CONTINUOUS
 62
     6
100
AcDbLine
 10
990.0000000000005
 20
2705.0
 30
0.0
 11
1950.0
 21
2705.0
 31
0.0
  0
LINE
  5
DC
330
1F
100
AcDbEntity
  8
枠_表
  6
CONTINUOUS
 62
     6
100
AcDbLine
 10
990.0000000000005
 20
2655.0
 30
0.0
 11
1950.0
 21
2655.0
 31
0.0
  0
LINE
  5
DD
330
1F
100
AcDbEntity
  8
枠_表
  6
CONTINUOUS
 62
     6
100
AcDbLine
 10
990.0000000000005
 20
2605.0
 30
0.0
 11
1950.0
 21
2605.0
 31
0.0
  0
LINE
  5
DE
330
1F
100
AcDbEntity
  8
枠_表
  6
CONTINUOUS
 62
     6
100
AcDbLine
 10
990.0000000000005
 20
2555.0
 30
0.0
 11
1950.0
 21
2555.0
 31
0.0
  0
LINE
  5
DF
330
1F
100
AcDbEntity
  8
枠_表
  6
CONTINUOUS
 62
     6
100
AcDbLine
 10
990.0000000000005
 20
2505.0
 30
0.0
 11
1950.0
 21
2505.0
 31
0.0
  0
LINE
  5
E0
330
1F
100
AcDbEntity
  8
枠_表
  6
CONTINUOUS
 62
     6
100
AcDbLine
 10
990.0000000000005
 20
2455.0
 30
0.0
 11
1950.0
 21
2455.0
 31
0.0
  0
LINE
  5
E1
330
1F
100
AcDbEntity
  8
枠_表
  6
CONTINUOUS
 62
     6
100
AcDbLine
 10
990.0000000000005
 20
2405.0
 30
0.0
 11
1950.0
 21
2405.0
 31
0.0
  0
LINE
  5
E2
330
1F
100
AcDbEntity
  8
枠_表
  6
CONTINUOUS
 62
     6
100
AcDbLine
 10
990.0000000000005
 20
2355.0
 30
0.0
 11
1950.0
 21
2355.0
 31
0.0
  0
LINE
  5
E3
330
1F
100
AcDbEntity
  8
枠_表
  6
CONTINUOUS
 62
     6
100
AcDbLine
 10
990.0000000000005
 20
2305.0
 30
0.0
 11
1950.0
 21
2305.0
 31
0.0
  0
TEXT
  5
E4
330
1F
100
AcDbEntity
  8
枠_表
  6
CONTINUOUS
 62
     2
100
AcDbText
 10
1245.000000000001
 20
2710.0
 30
0.0
 40
40.0
  1
防湿形
 41
1.225
  7
EXCADSTD
 72
     5
 11
1364.000000000001
 21
2710.0
 31
0.0
100
AcDbText
  0
TEXT
  5
E5
330
1F
100
AcDbEntity
  8
枠_表
  6
CONTINUOUS
 62
     2
100
AcDbText
 10
1245.000000000001
 20
2610.0
 30
0.0
 40
40.0
  1
許容電力：１２００Ｗ（１口）
 41
1.109036144578313
  7
EXCADSTD
 72
     5
 11
1771.000000000001
 21
2610.0
 31
0.0
100
AcDbText
  0
TEXT
  5
E6
330
1F
100
AcDbEntity
  8
枠_表
  6
CONTINUOUS
 62
     2
100
AcDbText
 10
1245.000000000001
 20
2560.0
 30
0.0
 40
40.0
  1
ＶＦＦ　プラグ付（２.０m㎡）
 41
1.003505535055351
  7
EXCADSTD
 72
     5
 11
1763.000000000001
 21
2560.0
 31
0.0
100
AcDbText
  0
TEXT
  5
E7
330
1F
100
AcDbEntity
  8
枠_表
  6
CONTINUOUS
 62
     2
100
AcDbText
 10
1245.000000000001
 20
2760.0
 30
0.0
 40
40.0
  1
合成樹脂（ＨｉＰＳ）
 41
1.121186440677966
  7
EXCADSTD
 72
     5
 11
1623.000000000001
 21
2760.0
 31
0.0
100
AcDbText
  0
TEXT
  5
E8
330
1F
100
AcDbEntity
  8
枠_表
  6
CONTINUOUS
 62
     2
100
AcDbText
 10
995.0000000000014
 20
2510.0
 30
0.0
 40
40.0
  1
歯ブラシ立て
 41
1.15
  7
EXCADSTD
 72
     5
 11
1225.000000000001
 21
2510.0
 31
0.0
100
AcDbText
  0
TEXT
  5
E9
330
1F
100
AcDbEntity
  8
枠_表
  6
CONTINUOUS
 62
     2
100
AcDbText
 10
1245.000000000001
 20
2510.0
 30
0.0
 40
40.0
  1
合成樹脂（ＨｉＰＳ）
 41
1.121186440677966
  7
EXCADSTD
 72
     5
 11
1623.000000000001
 21
2510.0
 31
0.0
100
AcDbText
  0
TEXT
  5
EA
330
1F
100
AcDbEntity
  8
枠_表
  6
CONTINUOUS
 62
     2
100
AcDbText
 10
995.0000000000014
 20
2360.0
 30
0.0
 40
40.0
  1
防曇ヒーター
 41
1.15
  7
EXCADSTD
 72
     5
 11
1225.000000000001
 21
2360.0
 31
0.0
100
AcDbText
  0
TEXT
  5
EB
330
1F
100
AcDbEntity
  8
枠_表
  6
CONTINUOUS
 62
     2
100
AcDbText
 10
1245.000000000001
 20
2460.0
 30
0.0
 40
40.0
  1
スポンジ
 41
1.18695652173913
  7
EXCADSTD
 72
     5
 11
1401.000000000001
 21
2460.0
 31
0.0
100
AcDbText
  0
TEXT
  5
EC
330
1F
100
AcDbEntity
  8
枠_表
  6
CONTINUOUS
 62
     2
100
AcDbText
 10
995.0000000000014
 20
2310.0
 30
0.0
 40
40.0
  1
電源
 41
1.195746363636364
  7
EXCADSTD
 72
     5
 11
1070.161200000001
 21
2310.0
 31
0.0
100
AcDbText
  0
TEXT
  5
ED
330
1F
100
AcDbEntity
  8
枠_表
  6
CONTINUOUS
 62
     2
100
AcDbText
 10
1245.000000000001
 20
2310.0
 30
0.0
 40
40.0
  1
ＡＣ１００Ｖ　５０/６０Ｈｚ
 41
1.044812252964427
  7
EXCADSTD
 72
     5
 11
1748.500000000001
 21
2310.0
 31
0.0
100
AcDbText
  0
TEXT
  5
EE
330
1F
100
AcDbEntity
  8
枠_表
  6
CONTINUOUS
 62
     2
100
AcDbText
 10
995.0000000000005
 20
2410.0
 30
0.0
 40
40.0
  1
取付ねじ
 41
1.18695652173913
  7
EXCADSTD
 72
     5
 11
1151.0
 21
2410.0
 31
0.0
100
AcDbText
  0
TEXT
  5
EF
330
1F
100
AcDbEntity
  8
枠_表
  6
CONTINUOUS
 62
     2
100
AcDbText
 10
1245.000000000001
 20
2410.0
 30
0.0
 40
40.0
  1
化粧キャップ付木ねじ
 41
1.121186440677966
  7
EXCADSTD
 72
     5
 11
1623.000000000001
 21
2410.0
 31
0.0
100
AcDbText
  0
TEXT
  5
F0
330
1F
100
AcDbEntity
  8
枠_表
  6
CONTINUOUS
 62
     2
100
AcDbText
 10
995.0000000000014
 20
2460.0
 30
0.0
 40
40.0
  1
防水テープ
 41
1.164655172413793
  7
EXCADSTD
 72
     5
 11
1188.000000000001
 21
2460.0
 31
0.0
100
AcDbText
  0
LINE
  5
F1
330
1F
100
AcDbEntity
  8
枠_表
  6
CONTINUOUS
 62
     6
100
AcDbLine
 10
990.0000000000005
 20
2305.0
 30
0.0
 11
990.0000000000005
 21
2805.0
 31
0.0
  0
LINE
  5
F2
330
1F
100
AcDbEntity
  8
枠_表
  6
CONTINUOUS
 62
     6
100
AcDbLine
 10
1240.0
 20
2305.0
 30
0.0
 11
1240.0
 21
2805.0
 31
0.0
  0
LINE
  5
F3
330
1F
100
AcDbEntity
  8
枠_表
  6
CONTINUOUS
 62
     6
100
AcDbLine
 10
1950.0
 20
2305.0
 30
0.0
 11
1950.0
 21
2805.0
 31
0.0
  0
TEXT
  5
F4
330
1F
100
AcDbEntity
  8
枠_表
  6
CONTINUOUS
 62
     2
100
AcDbText
 10
1245.000000000001
 20
2360.0
 30
0.0
 40
40.0
  1
１３Ｗ（ＬＵＭ７５１ＳＫＨのみ）
 41
1.105263157894737
  7
EXCADSTD
 72
     5
 11
1845.000000000001
 21
2360.0
 31
0.0
100
AcDbText
  0
TEXT
  5
F5
330
1F
100
AcDbEntity
  8
枠_表
  6
CONTINUOUS
 62
     2
100
AcDbText
 10
1350.0
 20
2220.0
 30
0.0
 40
40.0
  1
・電源コードの取出しは、左又は右
 41
1.105263157894737
  7
EXCADSTD
 72
     5
 11
1950.0
 21
2220.0
 31
0.0
100
AcDbText
  0
TEXT
  5
F6
330
1F
100
AcDbEntity
  8
枠_表
  6
CONTINUOUS
 62
     2
100
AcDbText
 10
1350.0
 20
2180.0
 30
0.0
 40
40.0
  1
　有効コード長さ（参考値）
 41
1.111363636363637
  7
EXCADSTD
 72
     5
 11
1839.0
 21
2180.0
 31
0.0
100
AcDbText
  0
TEXT
  5
F7
330
1F
100
AcDbEntity
  8
枠_表
  6
CONTINUOUS
 62
     2
100
AcDbText
 10
1350.0
 20
2140.0
 30
0.0
 40
40.0
  1
　　右取出し：１６００㎜
 41
1.114084507042254
  7
EXCADSTD
 72
     5
 11
1802.0
 21
2140.0
 31
0.0
100
AcDbText
  0
TEXT
  5
F8
330
1F
100
AcDbEntity
  8
枠_表
  6
CONTINUOUS
 62
     2
100
AcDbText
 10
1350.0
 20
2100.0
 30
0.0
 40
40.0
  1
　　左取出し：　９００㎜
 41
1.114084507042254
  7
EXCADSTD
 72
     5
 11
1802.0
 21
2100.0
 31
0.0
100
AcDbText
  0
TEXT
  5
F9
330
1F
100
AcDbEntity
  8
枠_表
  6
CONTINUOUS
 62
     2
100
AcDbText
 10
1350.0
 20
2060.0
 30
0.0
 40
40.0
  1
・※付の寸法は、直結配線の場合の
 41
1.105263157894737
  7
EXCADSTD
 72
     5
 11
1950.0
 21
2060.0
 31
0.0
100
AcDbText
  0
TEXT
  5
FA
330
1F
100
AcDbEntity
  8
枠_表
  6
CONTINUOUS
 62
     2
100
AcDbText
 10
1350.0
 20
2020.0
 30
0.0
 40
40.0
  1
　コード取出位置を示す
 41
1.117307692307692
  7
EXCADSTD
 72
     5
 11
1765.0
 21
2020.0
 31
0.0
100
AcDbText
  0
TEXT
  5
FC
330
1F
100
AcDbEntity
  8
枠_表
  6
CONTINUOUS
 62
     2
100
AcDbText
 10
770.0000000000005
 20
155.0
 30
0.0
 40
45.0
  1
ジャニス工業株式会社
 41
1.025641025641026
  7
EXCADTTF1
 72
     5
 11
1370.0
 21
155.0
 31
0.0
100
AcDbText
  0
LINE
  5
FD
330
1F
100
AcDbEntity
  8
枠_表
  6
EXLTYPE2
 62
     6
100
AcDbLine
 10
180.0
 20
1510.0
 30
0.0
 11
10.0
 21
1510.0
 31
0.0
  0
TEXT
  5
FE
330
1F
100
AcDbEntity
  8
枠_表
  6
CONTINUOUS
 62
     2
100
AcDbText
 10
931.7
 20
2660.1
 30
0.0
 40
30.0
  1
1
 41
1.034090909090909
  7
EXCADSTD
 72
     5
 11
947.95
 21
2660.1
 31
0.0
100
AcDbText
  0
TEXT
  5
FF
330
1F
100
AcDbEntity
  8
枠_表
  6
CONTINUOUS
 62
     2
100
AcDbText
 10
915.6050311679087
 20
2650.675868430807
 30
0.0
 40
55.0
  1
△
 41
1.321599875710226
  7
EXCADSTD
 72
     5
 11
967.5250262850961
 21
2650.675868430807
 31
0.0
100
AcDbText
  0
LINE
  5
100
330
1F
100
AcDbEntity
  8
枠_表
  6
CONTINUOUS
 62
     6
100
AcDbLine
 10
1255.0
 20
2688.0
 30
0.0
 11
1356.0
 21
2688.0
 31
0.0
  0
LINE
  5
101
330
1F
100
AcDbEntity
  8
枠_表
  6
CONTINUOUS
 62
     6
100
AcDbLine
 10
1255.0
 20
2676.0
 30
0.0
 11
1356.0
 21
2676.0
 31
0.0
  0
TEXT
  5
102
330
1F
100
AcDbEntity
  8
枠_表
  6
CONTINUOUS
 62
     2
100
AcDbText
 10
1245.0
 20
2660.000000000001
 30
0.0
 40
40.0
  1
１３Ｗ １２Ｗ電球型蛍光灯
 41
1.046634615384616
  7
EXCADSTD
 72
     5
 11
1711.5
 21
2660.000000000001
 31
0.0
100
AcDbText
  0
TEXT
  5
103
330
1F
100
AcDbEntity
  8
枠_表
  6
CONTINUOUS
 62
     2
100
AcDbText
 10
264.0141790751261
 20
367.2043700401962
 30
0.0
 40
35.0
  1
消費電力の変更  10-089  H23.1 間瀬
 41
0.5912863070539419
  7
EXCADSTD
 72
     5
 11
739.0141790751261
 21
367.2043700401962
 31
0.0
100
AcDbText
  0
TEXT
  5
104
330
1F
100
AcDbEntity
  8
枠_表
  6
CONTINUOUS
 62
     2
100
AcDbText
 10
193.6050311679087
 20
357.675868430807
 30
0.0
 40
55.0
  1
△
 41
1.321599875710228
  7
EXCADSTD
 72
     5
 11
245.5250262850962
 21
357.675868430807
 31
0.0
100
AcDbText
  0
TEXT
  5
105
330
1F
100
AcDbEntity
  8
枠_表
  6
CONTINUOUS
 62
     2
100
AcDbText
 10
209.7
 20
367.1
 30
0.0
 40
30.0
  1
1
 41
1.034090909090909
  7
EXCADSTD
 72
     5
 11
225.95
 21
367.1
 31
0.0
100
AcDbText
  0
TEXT
  5
106
330
1F
100
AcDbEntity
  8
枠_表
  6
CONTINUOUS
 62
     7
100
AcDbText
 10
1452.00000166893
 20
151.5
 30
0.0
 40
70.0
  1
ＬＵ９１０７８１
 41
1.140425531914894
  7
EXCADSTD
 72
     5
 11
1988.00000166893
 21
151.5
 31
0.0
100
AcDbText
  0
ARC
  5
107
330
1F
100
AcDbEntity
  8
鏡台
  6
CONTINUOUS
 62
     2
100
AcDbCircle
 10
1053.998949920023
 20
1965.575391621109
 30
0.0
 40
63.50000000000004
100
AcDbArc
 50
284.6885077952481
 51
356.8386196555426
  0
ARC
  5
108
330
1F
100
AcDbEntity
  8
鏡台
  6
CONTINUOUS
 62
     2
100
AcDbCircle
 10
1053.998949920023
 20
1965.575391621109
 30
0.0
 40
60.50000000000004
100
AcDbArc
 50
284.6885077952482
 51
356.838619655543
  0
LINE
  5
109
330
1F
100
AcDbEntity
  8
鏡台
  6
CONTINUOUS
 62
     6
100
AcDbLine
 10
1053.499999999999
 20
2005.999999999998
 30
0.0
 11
1053.5
 21
2068.499999999998
 31
0.0
  0
LINE
  5
10A
330
1F
100
AcDbEntity
  8
鏡台
  6
CONTINUOUS
 62
     6
100
AcDbLine
 10
1051.5
 20
2020.999999999998
 30
0.0
 11
1053.5
 21
2053.499999999998
 31
0.0
  0
LINE
  5
10B
330
1F
100
AcDbEntity
  8
鏡台
  6
CONTINUOUS
 62
     6
100
AcDbLine
 10
1053.5
 20
2053.499999999998
 30
0.0
 11
1055.5
 21
2020.999999999998
 31
0.0
  0
LINE
  5
10C
330
1F
100
AcDbEntity
  8
鏡台
  6
CONTINUOUS
 62
     2
100
AcDbLine
 10
642.0000000000023
 20
1968.999999999999
 30
0.0
 11
642.0000000000023
 21
1954.999999999999
 31
0.0
  0
LINE
  5
10D
330
1F
100
AcDbEntity
  8
鏡台
  6
CONTINUOUS
 62
     2
100
AcDbLine
 10
680.0000000000005
 20
1968.999999999999
 30
0.0
 11
680.0000000000005
 21
1954.999999999999
 31
0.0
  0
LINE
  5
10E
330
1F
100
AcDbEntity
  8
鏡台
  6
CONTINUOUS
 62
     2
100
AcDbLine
 10
641.9999999999995
 20
1954.999999999988
 30
0.0
 11
679.9999999999995
 21
1954.999999999988
 31
0.0
  0
LINE
  5
10F
330
1F
100
AcDbEntity
  8
鏡台
  6
CONTINUOUS
 62
     6
100
AcDbLine
 10
637.9999999956212
 20
1924.514699677363
 30
0.0
 11
683.999999995623
 21
1924.514699677363
 31
0.0
  0
LINE
  5
110
330
1F
100
AcDbEntity
  8
鏡台
  6
CONTINUOUS
 62
     6
100
AcDbLine
 10
686.7999999956223
 20
1914.308819019624
 30
0.0
 11
635.1999999956238
 21
1914.308819019624
 31
0.0
  0
POLYLINE
  5
111
330
1F
100
AcDbEntity
  8
鏡台
  6
CONTINUOUS
 62
     6
100
AcDb2dPolyline
 66
     1
 10
0.0
 20
0.0
 30
0.0
 70
   128
  0
VERTEX
  5
112
330
111
100
AcDbEntity
  8
鏡台
  6
CONTINUOUS
 62
     6
100
AcDbVertex
100
AcDb2dVertex
 10
683.499999995623
 20
1930.499998033015
 30
0.0
  0
VERTEX
  5
113
330
111
100
AcDbEntity
  8
鏡台
  6
CONTINUOUS
 62
     6
100
AcDbVertex
100
AcDb2dVertex
 10
683.499999995623
 20
1936.999998033016
 30
0.0
  0
SEQEND
  5
114
330
111
100
AcDbEntity
  8
鏡台
  6
CONTINUOUS
 62
     6
  0
POLYLINE
  5
115
330
1F
100
AcDbEntity
  8
鏡台
  6
CONTINUOUS
 62
     6
100
AcDb2dPolyline
 66
     1
 10
0.0
 20
0.0
 30
0.0
 70
   128
  0
VERTEX
  5
116
330
115
100
AcDbEntity
  8
鏡台
  6
CONTINUOUS
 62
     6
100
AcDbVertex
100
AcDb2dVertex
 10
638.499999995623
 20
1936.999998033016
 30
0.0
  0
VERTEX
  5
117
330
115
100
AcDbEntity
  8
鏡台
  6
CONTINUOUS
 62
     6
100
AcDbVertex
100
AcDb2dVertex
 10
638.499999995623
 20
1930.499998033015
 30
0.0
  0
SEQEND
  5
118
330
115
100
AcDbEntity
  8
鏡台
  6
CONTINUOUS
 62
     6
  0
LINE
  5
119
330
1F
100
AcDbEntity
  8
鏡台
  6
CONTINUOUS
 62
     6
100
AcDbLine
 10
683.999999995623
 20
1930.499998033015
 30
0.0
 11
637.9999999956212
 21
1930.499998033015
 31
0.0
  0
POLYLINE
  5
11A
330
1F
100
AcDbEntity
  8
鏡台
  6
CONTINUOUS
 62
     6
100
AcDb2dPolyline
 66
     1
 10
0.0
 20
0.0
 30
0.0
 70
   128
  0
VERTEX
  5
11B
330
11A
100
AcDbEntity
  8
鏡台
  6
CONTINUOUS
 62
     6
100
AcDbVertex
100
AcDb2dVertex
 10
683.999999995623
 20
1924.514699677363
 30
0.0
  0
VERTEX
  5
11C
330
11A
100
AcDbEntity
  8
鏡台
  6
CONTINUOUS
 62
     6
100
AcDbVertex
100
AcDb2dVertex
 10
683.999999995623
 20
1930.499998033015
 30
0.0
  0
SEQEND
  5
11D
330
11A
100
AcDbEntity
  8
鏡台
  6
CONTINUOUS
 62
     6
  0
ARC
  5
11E
330
1F
100
AcDbEntity
  8
鏡台
  6
CONTINUOUS
 62
     6
100
AcDbCircle
 10
703.999999995623
 20
1924.514699677363
 30
0.0
 40
19.99999999999999
100
AcDbArc
 50
180.0
 51
210.6834171089936
  0
ARC
  5
11F
330
1F
100
AcDbEntity
  8
鏡台
  6
CONTINUOUS
 62
     6
100
AcDbCircle
 10
617.999999995623
 20
1924.514699677363
 30
0.0
 40
19.99999999999999
100
AcDbArc
 50
329.3165828910066
 51
0.0
  0
POLYLINE
  5
120
330
1F
100
AcDbEntity
  8
鏡台
  6
CONTINUOUS
 62
     6
100
AcDb2dPolyline
 66
     1
 10
0.0
 20
0.0
 30
0.0
 70
   128
  0
VERTEX
  5
121
330
120
100
AcDbEntity
  8
鏡台
  6
CONTINUOUS
 62
     6
100
AcDbVertex
100
AcDb2dVertex
 10
637.9999999956212
 20
1930.499998033015
 30
0.0
  0
VERTEX
  5
122
330
120
100
AcDbEntity
  8
鏡台
  6
CONTINUOUS
 62
     6
100
AcDbVertex
100
AcDb2dVertex
 10
637.9999999956212
 20
1924.514699677363
 30
0.0
  0
SEQEND
  5
123
330
120
100
AcDbEntity
  8
鏡台
  6
CONTINUOUS
 62
     6
  0
ARC
  5
124
330
1F
100
AcDbEntity
  8
鏡台
  6
CONTINUOUS
 62
     6
100
AcDbCircle
 10
660.999999995623
 20
1898.999998033017
 30
0.0
 40
30.00000000000002
100
AcDbArc
 50
149.3165828910039
 51
30.68341710897474
  0
POLYLINE
  5
125
330
1F
100
AcDbEntity
  8
鏡台
  6
CONTINUOUS
 62
     6
100
AcDb2dPolyline
 66
     1
 10
0.0
 20
0.0
 30
0.0
 70
   128
  0
VERTEX
  5
126
330
125
100
AcDbEntity
  8
鏡台
  6
CONTINUOUS
 62
     6
100
AcDbVertex
100
AcDb2dVertex
 10
644.0000005966363
 20
1954.999999999969
 30
0.0
  0
VERTEX
  5
127
330
125
100
AcDbEntity
  8
鏡台
  6
CONTINUOUS
 62
     6
100
AcDbVertex
100
AcDb2dVertex
 10
638.499999995623
 20
1936.999998033016
 30
0.0
  0
SEQEND
  5
128
330
125
100
AcDbEntity
  8
鏡台
  6
CONTINUOUS
 62
     6
  0
POLYLINE
  5
129
330
1F
100
AcDbEntity
  8
鏡台
  6
CONTINUOUS
 62
     6
100
AcDb2dPolyline
 66
     1
 10
0.0
 20
0.0
 30
0.0
 70
   128
  0
VERTEX
  5
12A
330
129
100
AcDbEntity
  8
鏡台
  6
CONTINUOUS
 62
     6
100
AcDbVertex
100
AcDb2dVertex
 10
683.499999995623
 20
1936.999998033016
 30
0.0
  0
VERTEX
  5
12B
330
129
100
AcDbEntity
  8
鏡台
  6
CONTINUOUS
 62
     6
100
AcDbVertex
100
AcDb2dVertex
 10
677.999999394609
 20
1954.999999999969
 30
0.0
  0
SEQEND
  5
12C
330
129
100
AcDbEntity
  8
鏡台
  6
CONTINUOUS
 62
     6
  0
LINE
  5
12D
330
1F
100
AcDbEntity
  8
鏡台
  6
CONTINUOUS
 62
     6
100
AcDbLine
 10
683.499999995623
 20
1936.999998033016
 30
0.0
 11
638.499999995623
 21
1936.999998033016
 31
0.0
  0
ARC
  5
12E
330
1F
100
AcDbEntity
  8
鏡台
  6
CONTINUOUS
 62
     2
100
AcDbCircle
 10
660.9999999999995
 20
2032.999999999999
 30
0.0
 40
185.0000000000001
100
AcDbArc
 50
206.3109966473091
 51
333.6890033526913
  0
ARC
  5
12F
330
1F
100
AcDbEntity
  8
鏡台
  6
CONTINUOUS
 62
     2
100
AcDbCircle
 10
660.9999999999995
 20
2032.999999999999
 30
0.0
 40
189.0000000000001
100
AcDbArc
 50
205.7129308458842
 51
334.2870691541158
  0
LINE
  5
130
330
1F
100
AcDbEntity
  8
鏡台
  6
CONTINUOUS
 62
     2
100
AcDbLine
 10
755.5057952922675
 20
1955.447842369626
 30
0.0
 11
754.4942047077398
 21
1964.552157630374
 31
0.0
  0
LINE
  5
131
330
1F
100
AcDbEntity
  8
鏡台
  6
CONTINUOUS
 62
     2
100
AcDbLine
 10
760.4752139656343
 20
1950.999999999999
 30
0.0
 11
831.5000000000068
 21
1950.999999999999
 31
0.0
  0
ARC
  5
132
330
1F
100
AcDbEntity
  8
鏡台
  6
CONTINUOUS
 62
     2
100
AcDbCircle
 10
760.4752139656343
 20
1955.999999999999
 30
0.0
 40
5.0
100
AcDbArc
 50
186.3401917459164
 51
270.0000000000002
  0
ARC
  5
133
330
1F
100
AcDbEntity
  8
鏡台
  6
CONTINUOUS
 62
     2
100
AcDbCircle
 10
749.524786034372
 20
1963.999999999999
 30
0.0
 40
5.0
100
AcDbArc
 50
6.340191745915316
 51
90.00000000000004
  0
LINE
  5
134
330
1F
100
AcDbEntity
  8
鏡台
  6
CONTINUOUS
 62
     2
100
AcDbLine
 10
572.4752139656307
 20
1968.999999999999
 30
0.0
 11
749.524786034372
 21
1968.999999999999
 31
0.0
  0
LINE
  5
135
330
1F
100
AcDbEntity
  8
鏡台
  6
CONTINUOUS
 62
     2
100
AcDbLine
 10
566.4942047077352
 20
1955.447842369626
 30
0.0
 11
567.505795292263
 21
1964.552157630374
 31
0.0
  0
LINE
  5
136
330
1F
100
AcDbEntity
  8
鏡台
  6
CONTINUOUS
 62
     2
100
AcDbLine
 10
490.4999999999959
 20
1950.999999999999
 30
0.0
 11
561.5247860343684
 21
1950.999999999999
 31
0.0
  0
ARC
  5
137
330
1F
100
AcDbEntity
  8
鏡台
  6
CONTINUOUS
 62
     2
100
AcDbCircle
 10
561.5247860343684
 20
1955.999999999999
 30
0.0
 40
5.0
100
AcDbArc
 50
270.0000000000002
 51
353.6598082540934
  0
ARC
  5
138
330
1F
100
AcDbEntity
  8
鏡台
  6
CONTINUOUS
 62
     2
100
AcDbCircle
 10
572.4752139656307
 20
1963.999999999999
 30
0.0
 40
5.0
100
AcDbArc
 50
90.00000000000004
 51
173.6598082540944
  0
ARC
  5
139
330
1F
100
AcDbEntity
  8
鏡台
  6
CONTINUOUS
 62
     2
100
AcDbCircle
 10
815.5010500799776
 20
1965.575391621109
 30
0.0
 40
63.50000000000004
100
AcDbArc
 50
255.2149600572401
 51
255.3114922047523
  0
ARC
  5
13A
330
1F
100
AcDbEntity
  8
鏡台
  6
CONTINUOUS
 62
     2
100
AcDbCircle
 10
983.0010500799758
 20
1965.575391621109
 30
0.0
 40
60.50000000000004
100
AcDbArc
 50
183.1613803444572
 51
255.3114922047519
  0
ARC
  5
13B
330
1F
100
AcDbEntity
  8
鏡台
  6
CONTINUOUS
 62
     2
100
AcDbCircle
 10
1018.5
 20
2100.999999999999
 30
0.0
 40
200.5000000000001
100
AcDbArc
 50
255.3114922047519
 51
284.6885077952481
  0
ARC
  5
13C
330
1F
100
AcDbEntity
  8
鏡台
  6
CONTINUOUS
 62
     2
100
AcDbCircle
 10
1018.5
 20
2100.999999999999
 30
0.0
 40
203.5000000000001
100
AcDbArc
 50
255.3114922047523
 51
284.688507795248
  0
ARC
  5
13D
330
1F
100
AcDbEntity
  8
鏡台
  6
CONTINUOUS
 62
     2
100
AcDbCircle
 10
983.0010500799758
 20
1965.575391621109
 30
0.0
 40
63.50000000000004
100
AcDbArc
 50
183.1613803444575
 51
255.3114922047523
  0
LINE
  5
13E
330
1F
100
AcDbEntity
  8
鏡台
  6
CONTINUOUS
 62
     2
100
AcDbLine
 10
1119.000000000026
 20
1990.999999999999
 30
0.0
 11
1117.402313289803
 21
1962.073461667543
 31
0.0
  0
LINE
  5
13F
330
1F
100
AcDbEntity
  8
鏡台
  6
CONTINUOUS
 62
     2
100
AcDbLine
 10
1114.406878799893
 20
1962.238907177159
 30
0.0
 11
1115.995427531387
 21
1990.999999999999
 31
0.0
  0
LINE
  5
140
330
1F
100
AcDbEntity
  8
鏡台
  6
CONTINUOUS
 62
     6
100
AcDbLine
 10
398.4999999999986
 20
2005.999999999998
 30
0.0
 11
398.4999999999995
 21
2068.499999999998
 31
0.0
  0
LINE
  5
141
330
1F
100
AcDbEntity
  8
鏡台
  6
CONTINUOUS
 62
     6
100
AcDbLine
 10
396.4999999999995
 20
2020.999999999998
 30
0.0
 11
398.4999999999995
 21
2053.499999999998
 31
0.0
  0
LINE
  5
142
330
1F
100
AcDbEntity
  8
鏡台
  6
CONTINUOUS
 62
     6
100
AcDbLine
 10
398.4999999999995
 20
2053.499999999998
 30
0.0
 11
400.4999999999995
 21
2020.999999999998
 31
0.0
  0
LINE
  5
143
330
1F
100
AcDbEntity
  8
鏡台
  6
CONTINUOUS
 62
     6
100
AcDbLine
 10
453.4999999999986
 20
2005.999999999998
 30
0.0
 11
453.4999999999995
 21
2068.499999999998
 31
0.0
  0
LINE
  5
144
330
1F
100
AcDbEntity
  8
鏡台
  6
CONTINUOUS
 62
     6
100
AcDbLine
 10
451.4999999999995
 20
2020.999999999998
 30
0.0
 11
453.4999999999995
 21
2053.499999999998
 31
0.0
  0
LINE
  5
145
330
1F
100
AcDbEntity
  8
鏡台
  6
CONTINUOUS
 62
     6
100
AcDbLine
 10
453.4999999999995
 20
2053.499999999998
 30
0.0
 11
455.4999999999995
 21
2020.999999999998
 31
0.0
  0
ARC
  5
146
330
1F
100
AcDbEntity
  8
鏡台
  6
CONTINUOUS
 62
     2
100
AcDbCircle
 10
417.0539807655131
 20
3288.24885385656
 30
0.0
 40
1400.0
100
AcDbArc
 50
287.2194831619273
 51
292.0881649541795
  0
LINE
  5
147
330
1F
100
AcDbEntity
  8
鏡台
  6
CONTINUOUS
 62
     2
100
AcDbLine
 10
918.5440470293806
 20
1981.149885362298
 30
0.0
 11
919.5976867101958
 21
1962.073461667543
 31
0.0
  0
LINE
  5
148
330
1F
100
AcDbEntity
  8
鏡台
  6
CONTINUOUS
 62
     2
100
AcDbLine
 10
922.5931212001065
 20
1962.238907177159
 30
0.0
 11
921.4860655596972
 21
1982.282440877199
 31
0.0
  0
ARC
  5
149
330
1F
100
AcDbEntity
  8
鏡台
  6
CONTINUOUS
 62
     2
100
AcDbCircle
 10
909.2058340509034
 20
3286.921189491257
 30
0.0
 40
1400.0
100
AcDbArc
 50
247.9007189240573
 51
252.5979102698896
  0
LINE
  5
14A
330
1F
100
AcDbEntity
  8
鏡台
  6
CONTINUOUS
 62
     2
100
AcDbLine
 10
378.4999999999995
 20
2020.999999999999
 30
0.0
 11
379.3919803337571
 21
1994.240589987262
 31
0.0
  0
ARC
  5
14B
330
1F
100
AcDbEntity
  8
鏡台
  6
CONTINUOUS
 62
     2
100
AcDbCircle
 10
384.3892048686525
 20
1994.407164138425
 30
0.0
 40
5.0
100
AcDbArc
 50
181.9091524329955
 51
247.9007189240582
  0
LINE
  5
14C
330
1F
100
AcDbEntity
  8
鏡台
  6
CONTINUOUS
 62
     2
100
AcDbLine
 10
943.5000000000014
 20
1990.999999999999
 30
0.0
 11
1122.663889660065
 21
1990.999999999999
 31
0.0
  0
LINE
  5
14D
330
1F
100
AcDbEntity
  8
鏡台
  6
CONTINUOUS
 62
     2
100
AcDbLine
 10
1127.661114194961
 20
1995.833425848836
 30
0.0
 11
1128.5
 21
2020.999999999999
 31
0.0
  0
ARC
  5
14E
330
1F
100
AcDbEntity
  8
鏡台
  6
CONTINUOUS
 62
     2
100
AcDbCircle
 10
1122.663889660065
 20
1995.999999999999
 30
0.0
 40
5.0
100
AcDbArc
 50
270.0000000000002
 51
358.0908475670049
  0
LINE
  5
14F
330
1F
100
AcDbEntity
  8
鏡台
  6
CONTINUOUS
 62
     2
100
AcDbLine
 10
378.4999999999995
 20
2020.999999999999
 30
0.0
 11
1128.5
 21
2020.999999999999
 31
0.0
  0
LINE
  5
150
330
1F
100
AcDbEntity
  8
鏡台
  6
CONTINUOUS
 62
     2
100
AcDbLine
 10
830.9999999999995
 20
1513.999999999999
 30
0.0
 11
830.9999999999995
 21
1514.999999999966
 31
0.0
  0
LINE
  5
151
330
1F
100
AcDbEntity
  8
鏡台
  6
CONTINUOUS
 62
     2
100
AcDbLine
 10
845.9999999999995
 20
1513.999999999999
 30
0.0
 11
845.9999999999995
 21
1514.999999999966
 31
0.0
  0
ARC
  5
152
330
1F
100
AcDbEntity
  8
鏡台
  6
CONTINUOUS
 62
     2
100
AcDbCircle
 10
838.4999999999995
 20
1513.999999999999
 30
0.0
 40
7.500000000000006
100
AcDbArc
 50
180.0
 51
0.0
  0
LINE
  5
153
330
1F
100
AcDbEntity
  8
鏡台
  6
CONTINUOUS
 62
     2
100
AcDbLine
 10
906.4999999999804
 20
1511.37867965647
 30
0.0
 11
904.3786796564204
 21
1513.50000000003
 31
0.0
  0
LINE
  5
154
330
1F
100
AcDbEntity
  8
鏡台
  6
CONTINUOUS
 62
     2
100
AcDbLine
 10
904.3786796564204
 20
1513.50000000003
 30
0.0
 11
845.9833147735494
 21
1513.50000000003
 31
0.0
  0
LINE
  5
155
330
1F
100
AcDbEntity
  8
鏡台
  6
CONTINUOUS
 62
     2
100
AcDbLine
 10
918.9999999999995
 20
1258.499999999999
 30
0.0
 11
920.7352227079195
 21
1264.284075693065
 31
0.0
  0
ARC
  5
156
330
1F
100
AcDbEntity
  8
鏡台
  6
CONTINUOUS
 62
     2
100
AcDbCircle
 10
930.3134855601306
 20
1261.410596837401
 30
0.0
 40
10.0
100
AcDbArc
 50
95.3100592767302
 51
163.3007557660029
  0
LINE
  5
157
330
1F
100
AcDbEntity
  8
鏡台
  6
CONTINUOUS
 62
     2
100
AcDbLine
 10
1118.0
 20
1258.499999999999
 30
0.0
 11
1116.26477729208
 21
1264.284075693065
 31
0.0
  0
ARC
  5
158
330
1F
100
AcDbEntity
  8
鏡台
  6
CONTINUOUS
 62
     2
100
AcDbCircle
 10
1106.686514439869
 20
1261.410596837401
 30
0.0
 40
10.0
100
AcDbArc
 50
16.69924423399711
 51
84.68994072326981
  0
ARC
  5
159
330
1F
100
AcDbEntity
  8
鏡台
  6
CONTINUOUS
 62
     2
100
AcDbCircle
 10
1018.5
 20
312.600000000004
 30
0.0
 40
962.8999999999953
100
AcDbArc
 50
84.68994072327212
 51
95.31005927672784
  0
ARC
  5
15A
330
1F
100
AcDbEntity
  8
鏡台
  6
CONTINUOUS
 62
     2
100
AcDbCircle
 10
917.5000000000005
 20
1311.999999999999
 30
0.0
 40
3.000000000000002
100
AcDbArc
 50
90.00000000000004
 51
180.0
  0
LINE
  5
15B
330
1F
100
AcDbEntity
  8
鏡台
  6
CONTINUOUS
 62
     2
100
AcDbLine
 10
918.9999999999995
 20
1258.499999999999
 30
0.0
 11
917.5000000000005
 21
1258.499999999999
 31
0.0
  0
LINE
  5
15C
330
1F
100
AcDbEntity
  8
鏡台
  6
CONTINUOUS
 62
     2
100
AcDbLine
 10
914.5000000000005
 20
1311.999999999999
 30
0.0
 11
914.5000000000005
 21
1261.499999999999
 31
0.0
  0
ARC
  5
15D
330
1F
100
AcDbEntity
  8
鏡台
  6
CONTINUOUS
 62
     2
100
AcDbCircle
 10
917.5000000000005
 20
1261.499999999999
 30
0.0
 40
3.000000000000002
100
AcDbArc
 50
180.0
 51
270.0000000000002
  0
LINE
  5
15E
330
1F
100
AcDbEntity
  8
鏡台
  6
CONTINUOUS
 62
     2
100
AcDbLine
 10
917.5000000000005
 20
1314.999999999999
 30
0.0
 11
1119.5
 21
1314.999999999999
 31
0.0
  0
ARC
  5
15F
330
1F
100
AcDbEntity
  8
鏡台
  6
CONTINUOUS
 62
     2
100
AcDbCircle
 10
1119.5
 20
1311.999999999999
 30
0.0
 40
3.000000000000002
100
AcDbArc
 50
0.0
 51
90.00000000000004
  0
LINE
  5
160
330
1F
100
AcDbEntity
  8
鏡台
  6
CONTINUOUS
 62
     2
100
AcDbLine
 10
1119.5
 20
1258.499999999999
 30
0.0
 11
1117.999999999999
 21
1258.499999999999
 31
0.0
  0
LINE
  5
161
330
1F
100
AcDbEntity
  8
鏡台
  6
CONTINUOUS
 62
     2
100
AcDbLine
 10
1122.5
 20
1311.999999999999
 30
0.0
 11
1122.5
 21
1261.499999999999
 31
0.0
  0
ARC
  5
162
330
1F
100
AcDbEntity
  8
鏡台
  6
CONTINUOUS
 62
     2
100
AcDbCircle
 10
1119.5
 20
1261.499999999999
 30
0.0
 40
3.000000000000002
100
AcDbArc
 50
270.0000000000002
 51
0.0
  0
LINE
  5
163
330
1F
100
AcDbEntity
  8
鏡台
  6
CONTINUOUS
 62
     2
100
AcDbLine
 10
918.9999999999995
 20
1005.499999999999
 30
0.0
 11
920.7352227079195
 21
1011.284075693065
 31
0.0
  0
ARC
  5
164
330
1F
100
AcDbEntity
  8
鏡台
  6
CONTINUOUS
 62
     2
100
AcDbCircle
 10
930.3134855601306
 20
1008.410596837401
 30
0.0
 40
10.0
100
AcDbArc
 50
95.3100592767302
 51
163.3007557660029
  0
LINE
  5
165
330
1F
100
AcDbEntity
  8
鏡台
  6
CONTINUOUS
 62
     2
100
AcDbLine
 10
1118.0
 20
1005.499999999999
 30
0.0
 11
1116.26477729208
 21
1011.284075693065
 31
0.0
  0
ARC
  5
166
330
1F
100
AcDbEntity
  8
鏡台
  6
CONTINUOUS
 62
     2
100
AcDbCircle
 10
1106.686514439869
 20
1008.410596837401
 30
0.0
 40
10.0
100
AcDbArc
 50
16.69924423399711
 51
84.68994072326981
  0
ARC
  5
167
330
1F
100
AcDbEntity
  8
鏡台
  6
CONTINUOUS
 62
     2
100
AcDbCircle
 10
1018.5
 20
59.600000000004
 30
0.0
 40
962.8999999999953
100
AcDbArc
 50
84.68994072327212
 51
95.31005927672784
  0
ARC
  5
168
330
1F
100
AcDbEntity
  8
鏡台
  6
CONTINUOUS
 62
     2
100
AcDbCircle
 10
917.5000000000005
 20
1058.999999999999
 30
0.0
 40
3.000000000000002
100
AcDbArc
 50
90.00000000000004
 51
180.0
  0
LINE
  5
169
330
1F
100
AcDbEntity
  8
鏡台
  6
CONTINUOUS
 62
     2
100
AcDbLine
 10
918.9999999999995
 20
1005.499999999999
 30
0.0
 11
917.5000000000005
 21
1005.499999999999
 31
0.0
  0
LINE
  5
16A
330
1F
100
AcDbEntity
  8
鏡台
  6
CONTINUOUS
 62
     2
100
AcDbLine
 10
914.5000000000005
 20
1058.999999999999
 30
0.0
 11
914.5000000000005
 21
1008.499999999999
 31
0.0
  0
ARC
  5
16B
330
1F
100
AcDbEntity
  8
鏡台
  6
CONTINUOUS
 62
     2
100
AcDbCircle
 10
917.5000000000005
 20
1008.499999999999
 30
0.0
 40
3.000000000000002
100
AcDbArc
 50
180.0
 51
270.0000000000002
  0
LINE
  5
16C
330
1F
100
AcDbEntity
  8
鏡台
  6
CONTINUOUS
 62
     2
100
AcDbLine
 10
917.5000000000005
 20
1061.999999999999
 30
0.0
 11
1119.5
 21
1061.999999999999
 31
0.0
  0
ARC
  5
16D
330
1F
100
AcDbEntity
  8
鏡台
  6
CONTINUOUS
 62
     2
100
AcDbCircle
 10
1119.5
 20
1058.999999999999
 30
0.0
 40
3.000000000000002
100
AcDbArc
 50
0.0
 51
90.00000000000004
  0
LINE
  5
16E
330
1F
100
AcDbEntity
  8
鏡台
  6
CONTINUOUS
 62
     2
100
AcDbLine
 10
1119.5
 20
1005.499999999999
 30
0.0
 11
1117.999999999999
 21
1005.499999999999
 31
0.0
  0
LINE
  5
16F
330
1F
100
AcDbEntity
  8
鏡台
  6
CONTINUOUS
 62
     2
100
AcDbLine
 10
1122.5
 20
1058.999999999999
 30
0.0
 11
1122.5
 21
1008.499999999999
 31
0.0
  0
ARC
  5
170
330
1F
100
AcDbEntity
  8
鏡台
  6
CONTINUOUS
 62
     2
100
AcDbCircle
 10
1119.5
 20
1008.499999999999
 30
0.0
 40
3.000000000000002
100
AcDbArc
 50
270.0000000000002
 51
0.0
  0
LINE
  5
171
330
1F
100
AcDbEntity
  8
鏡台
  6
CONTINUOUS
 62
     2
100
AcDbLine
 10
918.9999999999995
 20
703.4999999999991
 30
0.0
 11
920.7352227079195
 21
709.2840756930655
 31
0.0
  0
ARC
  5
172
330
1F
100
AcDbEntity
  8
鏡台
  6
CONTINUOUS
 62
     2
100
AcDbCircle
 10
930.3134855601306
 20
706.4105968374015
 30
0.0
 40
10.0
100
AcDbArc
 50
95.3100592767302
 51
163.3007557660029
  0
LINE
  5
173
330
1F
100
AcDbEntity
  8
鏡台
  6
CONTINUOUS
 62
     2
100
AcDbLine
 10
1118.0
 20
703.4999999999991
 30
0.0
 11
1116.26477729208
 21
709.2840756930655
 31
0.0
  0
ARC
  5
174
330
1F
100
AcDbEntity
  8
鏡台
  6
CONTINUOUS
 62
     2
100
AcDbCircle
 10
1106.686514439869
 20
706.4105968374015
 30
0.0
 40
10.0
100
AcDbArc
 50
16.69924423399711
 51
84.68994072326981
  0
ARC
  5
175
330
1F
100
AcDbEntity
  8
鏡台
  6
CONTINUOUS
 62
     2
100
AcDbCircle
 10
1018.5
 20
-242.399999999996
 30
0.0
 40
962.8999999999953
100
AcDbArc
 50
84.68994072327212
 51
95.31005927672784
  0
ARC
  5
176
330
1F
100
AcDbEntity
  8
鏡台
  6
CONTINUOUS
 62
     2
100
AcDbCircle
 10
917.5000000000005
 20
756.9999999999991
 30
0.0
 40
3.000000000000002
100
AcDbArc
 50
90.00000000000004
 51
180.0
  0
LINE
  5
177
330
1F
100
AcDbEntity
  8
鏡台
  6
CONTINUOUS
 62
     2
100
AcDbLine
 10
918.9999999999995
 20
703.4999999999991
 30
0.0
 11
917.5000000000005
 21
703.4999999999991
 31
0.0
  0
LINE
  5
178
330
1F
100
AcDbEntity
  8
鏡台
  6
CONTINUOUS
 62
     2
100
AcDbLine
 10
914.5000000000005
 20
756.9999999999991
 30
0.0
 11
914.5000000000005
 21
706.4999999999991
 31
0.0
  0
ARC
  5
179
330
1F
100
AcDbEntity
  8
鏡台
  6
CONTINUOUS
 62
     2
100
AcDbCircle
 10
917.5000000000005
 20
706.4999999999991
 30
0.0
 40
3.000000000000002
100
AcDbArc
 50
180.0
 51
270.0000000000002
  0
LINE
  5
17A
330
1F
100
AcDbEntity
  8
鏡台
  6
CONTINUOUS
 62
     2
100
AcDbLine
 10
917.5000000000005
 20
759.9999999999991
 30
0.0
 11
1119.5
 21
759.9999999999991
 31
0.0
  0
ARC
  5
17B
330
1F
100
AcDbEntity
  8
鏡台
  6
CONTINUOUS
 62
     2
100
AcDbCircle
 10
1119.5
 20
756.9999999999991
 30
0.0
 40
3.000000000000002
100
AcDbArc
 50
0.0
 51
90.00000000000004
  0
LINE
  5
17C
330
1F
100
AcDbEntity
  8
鏡台
  6
CONTINUOUS
 62
     2
100
AcDbLine
 10
1119.5
 20
703.4999999999991
 30
0.0
 11
1117.999999999999
 21
703.4999999999991
 31
0.0
  0
LINE
  5
17D
330
1F
100
AcDbEntity
  8
鏡台
  6
CONTINUOUS
 62
     2
100
AcDbLine
 10
1122.5
 20
756.9999999999991
 30
0.0
 11
1122.5
 21
706.4999999999991
 31
0.0
  0
ARC
  5
17E
330
1F
100
AcDbEntity
  8
鏡台
  6
CONTINUOUS
 62
     2
100
AcDbCircle
 10
1119.5
 20
706.4999999999991
 30
0.0
 40
3.000000000000002
100
AcDbArc
 50
270.0000000000002
 51
0.0
  0
LINE
  5
17F
330
1F
100
AcDbEntity
  8
鏡台
  6
CONTINUOUS
 62
     2
100
AcDbLine
 10
919.6827156454997
 20
705.7757188183987
 30
0.0
 11
1117.317284354499
 21
705.7757188183987
 31
0.0
  0
LINE
  5
180
330
1F
100
AcDbEntity
  8
鏡台
  6
CONTINUOUS
 62
     2
100
AcDbLine
 10
921.5000000000005
 20
1007.637928387214
 30
0.0
 11
921.5000000000005
 21
759.9999999999991
 31
0.0
  0
LINE
  5
181
330
1F
100
AcDbEntity
  8
鏡台
  6
CONTINUOUS
 62
     2
100
AcDbLine
 10
1115.5
 20
1007.637928387215
 30
0.0
 11
1115.5
 21
759.9999999999991
 31
0.0
  0
LINE
  5
182
330
1F
100
AcDbEntity
  8
鏡台
  6
CONTINUOUS
 62
     2
100
AcDbLine
 10
1115.5
 20
1260.637928387215
 30
0.0
 11
1115.5
 21
1061.999999999999
 31
0.0
  0
LINE
  5
183
330
1F
100
AcDbEntity
  8
鏡台
  6
CONTINUOUS
 62
     2
100
AcDbLine
 10
921.5000000000005
 20
1260.637928387214
 30
0.0
 11
921.5000000000005
 21
1061.999999999999
 31
0.0
  0
ARC
  5
184
330
1F
100
AcDbEntity
  8
鏡台
  6
CONTINUOUS
 62
     2
100
AcDbCircle
 10
1018.5
 20
2298.999999999975
 30
0.0
 40
1295.0
100
AcDbArc
 50
265.7043237762043
 51
274.295676223796
  0
LINE
  5
185
330
1F
100
AcDbEntity
  8
鏡台
  6
CONTINUOUS
 62
     2
100
AcDbLine
 10
921.5000000000005
 20
1511.999999999999
 30
0.0
 11
921.5000000000005
 21
1314.999999999999
 31
0.0
  0
LINE
  5
186
330
1F
100
AcDbEntity
  8
鏡台
  6
CONTINUOUS
 62
     2
100
AcDbLine
 10
1115.5
 20
1511.999999999999
 30
0.0
 11
1115.5
 21
1314.999999999999
 31
0.0
  0
ARC
  5
187
330
1F
100
AcDbEntity
  8
鏡台
  6
CONTINUOUS
 62
     2
100
AcDbCircle
 10
924.5000000000005
 20
1511.999999999999
 30
0.0
 40
3.000000000000002
100
AcDbArc
 50
90.00000000000004
 51
180.0
  0
ARC
  5
188
330
1F
100
AcDbEntity
  8
鏡台
  6
CONTINUOUS
 62
     2
100
AcDbCircle
 10
1112.5
 20
1511.999999999999
 30
0.0
 40
3.000000000000002
100
AcDbArc
 50
0.0
 51
90.00000000000004
  0
ARC
  5
189
330
1F
100
AcDbEntity
  8
鏡台
  6
CONTINUOUS
 62
     2
100
AcDbCircle
 10
940.5000000000068
 20
1082.999999999997
 30
0.0
 40
10.0
100
AcDbArc
 50
180.0
 51
270.0000000000002
  0
LINE
  5
18A
330
1F
100
AcDbEntity
  8
鏡台
  6
CONTINUOUS
 62
     2
100
AcDbLine
 10
940.5000000000068
 20
1072.999999999997
 30
0.0
 11
966.5000000000041
 21
1072.999999999997
 31
0.0
  0
ARC
  5
18B
330
1F
100
AcDbEntity
  8
鏡台
  6
CONTINUOUS
 62
     2
100
AcDbCircle
 10
966.5000000000041
 20
1082.999999999997
 30
0.0
 40
10.0
100
AcDbArc
 50
270.0000000000002
 51
0.0
  0
LINE
  5
18C
330
1F
100
AcDbEntity
  8
鏡台
  6
CONTINUOUS
 62
     2
100
AcDbLine
 10
976.5000000000041
 20
1245.999999999987
 30
0.0
 11
976.5000000000041
 21
1082.999999999997
 31
0.0
  0
ARC
  5
18D
330
1F
100
AcDbEntity
  8
鏡台
  6
CONTINUOUS
 62
     2
100
AcDbCircle
 10
966.5000000000041
 20
1245.999999999987
 30
0.0
 40
10.0
100
AcDbArc
 50
0.0
 51
90.00000000000004
  0
LINE
  5
18E
330
1F
100
AcDbEntity
  8
鏡台
  6
CONTINUOUS
 62
     2
100
AcDbLine
 10
940.5000000000068
 20
1255.999999999987
 30
0.0
 11
966.5000000000041
 21
1255.999999999987
 31
0.0
  0
LINE
  5
18F
330
1F
100
AcDbEntity
  8
鏡台
  6
CONTINUOUS
 62
     2
100
AcDbLine
 10
930.5000000000068
 20
1245.999999999987
 30
0.0
 11
930.5000000000068
 21
1082.999999999997
 31
0.0
  0
ARC
  5
190
330
1F
100
AcDbEntity
  8
鏡台
  6
CONTINUOUS
 62
     2
100
AcDbCircle
 10
940.5000000000068
 20
1245.999999999987
 30
0.0
 40
10.0
100
AcDbArc
 50
90.00000000000004
 51
180.0
  0
ARC
  5
191
330
1F
100
AcDbEntity
  8
鏡台
  6
CONTINUOUS
 62
     2
100
AcDbCircle
 10
1018.5
 20
2551.999999999975
 30
0.0
 40
1295.0
100
AcDbArc
 50
268.504388190688
 51
274.295676223796
  0
LINE
  5
192
330
1F
100
AcDbEntity
  8
鏡台
  6
CONTINUOUS
 62
     2
100
AcDbLine
 10
919.6827156454997
 20
1260.775718818399
 30
0.0
 11
984.699999999993
 21
1260.775718818399
 31
0.0
  0
LINE
  5
193
330
1F
100
AcDbEntity
  8
鏡台
  6
CONTINUOUS
 62
     2
100
AcDbLine
 10
984.699999999993
 20
1260.775718818399
 30
0.0
 11
984.699999999993
 21
1061.999999999999
 31
0.0
  0
LINE
  5
194
330
1F
100
AcDbEntity
  8
鏡台
  6
CONTINUOUS
 62
     6
100
AcDbLine
 10
1083.499999999999
 20
1444.999999999998
 30
0.0
 11
1023.499999999999
 21
1444.999999999998
 31
0.0
  0
LINE
  5
195
330
1F
100
AcDbEntity
  8
鏡台
  6
CONTINUOUS
 62
     6
100
AcDbLine
 10
1053.499999999999
 20
1474.999999999998
 30
0.0
 11
1053.499999999999
 21
1414.999999999998
 31
0.0
  0
CIRCLE
  5
196
330
1F
100
AcDbEntity
  8
鏡台
  6
CONTINUOUS
 62
     2
100
AcDbCircle
 10
1053.5
 20
1444.999999999999
 30
0.0
 40
7.000000000000004
  0
LINE
  5
197
330
1F
100
AcDbEntity
  8
鏡台
  6
CONTINUOUS
 62
     6
100
AcDbLine
 10
1083.499999999999
 20
944.9999999999982
 30
0.0
 11
1023.499999999999
 21
944.9999999999982
 31
0.0
  0
LINE
  5
198
330
1F
100
AcDbEntity
  8
鏡台
  6
CONTINUOUS
 62
     6
100
AcDbLine
 10
1053.499999999999
 20
974.9999999999982
 30
0.0
 11
1053.499999999999
 21
914.9999999999982
 31
0.0
  0
CIRCLE
  5
199
330
1F
100
AcDbEntity
  8
鏡台
  6
CONTINUOUS
 62
     2
100
AcDbCircle
 10
1053.5
 20
944.9999999999991
 30
0.0
 40
7.000000000000004
  0
LINE
  5
19A
330
1F
100
AcDbEntity
  8
鏡台
  6
CONTINUOUS
 62
     6
100
AcDbLine
 10
1083.499999999999
 20
544.9999999999982
 30
0.0
 11
1023.499999999999
 21
544.9999999999982
 31
0.0
  0
LINE
  5
19B
330
1F
100
AcDbEntity
  8
鏡台
  6
CONTINUOUS
 62
     6
100
AcDbLine
 10
1053.499999999999
 20
574.9999999999982
 30
0.0
 11
1053.499999999999
 21
514.9999999999982
 31
0.0
  0
CIRCLE
  5
19C
330
1F
100
AcDbEntity
  8
鏡台
  6
CONTINUOUS
 62
     2
100
AcDbCircle
 10
1053.5
 20
544.9999999999991
 30
0.0
 40
7.000000000000004
  0
LINE
  5
19D
330
1F
100
AcDbEntity
  8
鏡台
  6
CONTINUOUS
 62
     6
100
AcDbLine
 10
956.5000000000095
 20
1193.249999999999
 30
0.0
 11
950.5000000000095
 21
1193.249999999999
 31
0.0
  0
LINE
  5
19E
330
1F
100
AcDbEntity
  8
鏡台
  6
CONTINUOUS
 62
     6
100
AcDbLine
 10
941.9000000000092
 20
1172.750000000005
 30
0.0
 11
941.9000000000092
 21
1201.250000000005
 31
0.0
  0
LINE
  5
19F
330
1F
100
AcDbEntity
  8
鏡台
  6
CONTINUOUS
 62
     6
100
AcDbLine
 10
941.9000000000092
 20
1172.750000000005
 30
0.0
 11
965.100000000009
 21
1172.750000000005
 31
0.0
  0
LINE
  5
1A0
330
1F
100
AcDbEntity
  8
鏡台
  6
CONTINUOUS
 62
     6
100
AcDbLine
 10
965.100000000009
 20
1172.750000000005
 30
0.0
 11
965.1000000000099
 21
1201.250000000005
 31
0.0
  0
LINE
  5
1A1
330
1F
100
AcDbEntity
  8
鏡台
  6
CONTINUOUS
 62
     6
100
AcDbLine
 10
941.9000000000092
 20
1201.250000000005
 30
0.0
 11
965.1000000000099
 21
1201.250000000005
 31
0.0
  0
LINE
  5
1A2
330
1F
100
AcDbEntity
  8
鏡台
  6
CONTINUOUS
 62
     6
100
AcDbLine
 10
961.3000000000097
 20
1198.750000000005
 30
0.0
 11
961.3000000000097
 21
1175.250000000005
 31
0.0
  0
LINE
  5
1A3
330
1F
100
AcDbEntity
  8
鏡台
  6
CONTINUOUS
 62
     6
100
AcDbLine
 10
961.3000000000097
 20
1198.750000000005
 30
0.0
 11
945.7000000000103
 21
1198.750000000005
 31
0.0
  0
LINE
  5
1A4
330
1F
100
AcDbEntity
  8
鏡台
  6
CONTINUOUS
 62
     6
100
AcDbLine
 10
945.7000000000094
 20
1175.250000000005
 30
0.0
 11
961.3000000000097
 21
1175.250000000005
 31
0.0
  0
LINE
  5
1A5
330
1F
100
AcDbEntity
  8
鏡台
  6
CONTINUOUS
 62
     6
100
AcDbLine
 10
945.7000000000103
 20
1198.750000000005
 30
0.0
 11
945.7000000000094
 21
1175.250000000005
 31
0.0
  0
LINE
  5
1A6
330
1F
100
AcDbEntity
  8
鏡台
  6
CONTINUOUS
 62
     6
100
AcDbLine
 10
941.9000000000092
 20
1127.750000000005
 30
0.0
 11
941.9000000000101
 21
1156.250000000005
 31
0.0
  0
LINE
  5
1A7
330
1F
100
AcDbEntity
  8
鏡台
  6
CONTINUOUS
 62
     6
100
AcDbLine
 10
941.9000000000092
 20
1127.750000000005
 30
0.0
 11
965.1000000000099
 21
1127.750000000005
 31
0.0
  0
LINE
  5
1A8
330
1F
100
AcDbEntity
  8
鏡台
  6
CONTINUOUS
 62
     6
100
AcDbLine
 10
965.1000000000099
 20
1127.750000000005
 30
0.0
 11
965.1000000000099
 21
1156.250000000005
 31
0.0
  0
LINE
  5
1A9
330
1F
100
AcDbEntity
  8
鏡台
  6
CONTINUOUS
 62
     6
100
AcDbLine
 10
941.9000000000101
 20
1156.250000000005
 30
0.0
 11
965.1000000000099
 21
1156.250000000005
 31
0.0
  0
LINE
  5
1AA
330
1F
100
AcDbEntity
  8
鏡台
  6
CONTINUOUS
 62
     6
100
AcDbLine
 10
949.9999999999995
 20
1147.999999999988
 30
0.0
 11
957.0000000000059
 21
1147.999999999988
 31
0.0
  0
LINE
  5
1AB
330
1F
100
AcDbEntity
  8
鏡台
  6
CONTINUOUS
 62
     6
100
AcDbLine
 10
948.9999999999995
 20
1135.999999999988
 30
0.0
 11
958.000000000005
 21
1135.999999999988
 31
0.0
  0
ARC
  5
1AC
330
1F
100
AcDbEntity
  8
鏡台
  6
CONTINUOUS
 62
     6
100
AcDbCircle
 10
942.4999999999995
 20
1231.499999999999
 30
0.0
 40
8.0
100
AcDbArc
 50
90.00000000000004
 51
180.0
  0
LINE
  5
1AD
330
1F
100
AcDbEntity
  8
鏡台
  6
CONTINUOUS
 62
     6
100
AcDbLine
 10
942.4999999999995
 20
1239.499999999999
 30
0.0
 11
964.4999999999995
 21
1239.499999999999
 31
0.0
  0
ARC
  5
1AE
330
1F
100
AcDbEntity
  8
鏡台
  6
CONTINUOUS
 62
     6
100
AcDbCircle
 10
964.4999999999995
 20
1231.499999999999
 30
0.0
 40
8.0
100
AcDbArc
 50
0.0
 51
90.00000000000004
  0
LINE
  5
1AF
330
1F
100
AcDbEntity
  8
鏡台
  6
CONTINUOUS
 62
     6
100
AcDbLine
 10
972.4999999999995
 20
1231.499999999999
 30
0.0
 11
972.4999999999995
 21
1097.499999999999
 31
0.0
  0
ARC
  5
1B0
330
1F
100
AcDbEntity
  8
鏡台
  6
CONTINUOUS
 62
     6
100
AcDbCircle
 10
964.4999999999995
 20
1097.499999999999
 30
0.0
 40
8.0
100
AcDbArc
 50
270.0000000000002
 51
0.0
  0
LINE
  5
1B1
330
1F
100
AcDbEntity
  8
鏡台
  6
CONTINUOUS
 62
     6
100
AcDbLine
 10
934.4999999999995
 20
1231.499999999999
 30
0.0
 11
934.4999999999995
 21
1097.499999999999
 31
0.0
  0
LINE
  5
1B2
330
1F
100
AcDbEntity
  8
鏡台
  6
CONTINUOUS
 62
     6
100
AcDbLine
 10
942.4999999999995
 20
1089.499999999999
 30
0.0
 11
964.4999999999995
 21
1089.499999999999
 31
0.0
  0
ARC
  5
1B3
330
1F
100
AcDbEntity
  8
鏡台
  6
CONTINUOUS
 62
     6
100
AcDbCircle
 10
942.4999999999995
 20
1097.499999999999
 30
0.0
 40
8.0
100
AcDbArc
 50
180.0
 51
270.0000000000002
  0
LINE
  5
1B4
330
1F
100
AcDbEntity
  8
鏡台
  6
CONTINUOUS
 62
     2
100
AcDbLine
 10
1128.5
 20
1616.999999999999
 30
0.0
 11
1128.5
 21
502.9999999999991
 31
0.0
  0
ARC
  5
1B5
330
1F
100
AcDbEntity
  8
鏡台
  6
CONTINUOUS
 62
     2
100
AcDbCircle
 10
1120.5
 20
502.9999999999991
 30
0.0
 40
8.0
100
AcDbArc
 50
270.0000000000002
 51
0.0
  0
ARC
  5
1B6
330
1F
100
AcDbEntity
  8
鏡台
  6
CONTINUOUS
 62
     2
100
AcDbCircle
 10
1120.5
 20
1616.999999999999
 30
0.0
 40
8.0
100
AcDbArc
 50
0.0
 51
90.00000000000004
  0
LINE
  5
1B7
330
1F
100
AcDbEntity
  8
鏡台
  6
CONTINUOUS
 62
     6
100
AcDbLine
 10
1098.5
 20
509.9999999999991
 30
0.0
 11
1161.576696830599
 21
509.9999999999991
 31
0.0
  0
LINE
  5
1B8
330
1F
100
AcDbEntity
  8
鏡台
  6
CONTINUOUS
 62
     6
100
AcDbLine
 10
1184.107801639
 20
624.5872669101991
 30
0.0
 11
1173.482689378999
 21
627.4342680582986
 31
0.0
  0
LINE
  5
1B9
330
1F
100
AcDbEntity
  8
鏡台
  6
CONTINUOUS
 62
     6
100
AcDbLine
 10
1180.354861993999
 20
610.581392085699
 30
0.0
 11
1166.504666240999
 21
614.9149284016994
 31
0.0
  0
LINE
  5
1BA
330
1F
100
AcDbEntity
  8
鏡台
  6
CONTINUOUS
 62
     6
100
AcDbLine
 10
1174.552538553999
 20
607.4773263694988
 30
0.0
 11
1165.4975304
 21
609.9036623491993
 31
0.0
  0
LINE
  5
1BB
330
1F
100
AcDbEntity
  8
鏡台
  6
CONTINUOUS
 62
     6
100
AcDbLine
 10
1166.504666240999
 20
614.9149284016994
 30
0.0
 11
1162.029978232999
 21
592.6498031211986
 31
0.0
  0
LINE
  5
1BC
330
1F
100
AcDbEntity
  8
鏡台
  6
CONTINUOUS
 62
     6
100
AcDbLine
 10
1168.907174017999
 20
590.8057711292995
 30
0.0
 11
1175.114595964999
 21
609.137244389799
 31
0.0
  0
LINE
  5
1BD
330
1F
100
AcDbEntity
  8
鏡台
  6
CONTINUOUS
 62
     6
100
AcDbLine
 10
1199.174427211
 20
618.9973023498997
 30
0.0
 11
1183.719541935999
 21
623.1383693547987
 31
0.0
  0
LINE
  5
1BE
330
1F
100
AcDbEntity
  8
鏡台
  6
CONTINUOUS
 62
     6
100
AcDbLine
 10
1196.844993955
 20
610.3039229308988
 30
0.0
 11
1181.390230302999
 21
614.4449995726991
 31
0.0
  0
LINE
  5
1BF
330
1F
100
AcDbEntity
  8
鏡台
  6
CONTINUOUS
 62
     6
100
AcDbLine
 10
1173.482567844
 20
627.4342574252987
 30
0.0
 11
1170.376848791
 21
615.8432237920997
 31
0.0
  0
LINE
  5
1C0
330
1F
100
AcDbEntity
  8
鏡台
  6
CONTINUOUS
 62
     6
100
AcDbLine
 10
1181.001971682999
 20
612.9961011081987
 30
0.0
 11
1170.376848791
 21
615.8432237920997
 31
0.0
  0
LINE
  5
1C1
330
1F
100
AcDbEntity
  8
鏡台
  6
CONTINUOUS
 62
     6
100
AcDbLine
 10
1180.354861993999
 20
610.581392085699
 30
0.0
 11
1178.828637358999
 21
611.0453533567988
 31
0.0
  0
LINE
  5
1C2
330
1F
100
AcDbEntity
  8
鏡台
  6
CONTINUOUS
 62
     6
100
AcDbLine
 10
1184.884198337999
 20
627.4850532932987
 30
0.0
 11
1171.054394118999
 21
630.2199234410991
 31
0.0
  0
LINE
  5
1C3
330
1F
100
AcDbEntity
  8
鏡台
  6
CONTINUOUS
 62
     6
100
AcDbLine
 10
1180.354861993999
 20
610.581392085699
 30
0.0
 11
1184.884198337999
 21
627.4850532932987
 31
0.0
  0
LINE
  5
1C4
330
1F
100
AcDbEntity
  8
鏡台
  6
CONTINUOUS
 62
     6
100
AcDbLine
 10
1166.245784778999
 20
615.8809042251987
 30
0.0
 11
1169.894412077999
 21
629.497790410499
 31
0.0
  0
LINE
  5
1C5
330
1F
100
AcDbEntity
  8
鏡台
  6
CONTINUOUS
 62
     6
100
AcDbLine
 10
1167.701123576999
 20
590.1606048548992
 30
0.0
 11
1162.751515879999
 21
591.4868277983996
 31
0.0
  0
ARC
  5
1C6
330
1F
100
AcDbEntity
  8
鏡台
  6
CONTINUOUS
 62
     6
100
AcDbCircle
 10
1310.156676999999
 20
564.8349609999996
 30
0.0
 40
150.0
100
AcDbArc
 50
169.7364188339999
 51
175.9890140000003
  0
ARC
  5
1C7
330
1F
100
AcDbEntity
  8
鏡台
  6
CONTINUOUS
 62
     6
100
AcDbCircle
 10
1315.649474999999
 20
565.1166989999992
 30
0.0
 40
150.0
100
AcDbArc
 50
170.3937176707998
 51
175.6141359999999
  0
ARC
  5
1C8
330
1F
100
AcDbEntity
  8
鏡台
  6
CONTINUOUS
 62
     6
100
AcDbCircle
 10
1177.956094715
 20
608.1750589176991
 30
0.0
 40
3.000000000000002
100
AcDbArc
 50
73.09075899999961
 51
161.29272500001
  0
ARC
  5
1C9
330
1F
100
AcDbEntity
  8
鏡台
  6
CONTINUOUS
 62
     6
100
AcDbCircle
 10
1163.010355233999
 20
592.4527608012986
 30
0.0
 40
1.0
100
AcDbArc
 50
168.6365359999535
 51
254.9999389999938
  0
ARC
  5
1CA
330
1F
100
AcDbEntity
  8
鏡台
  6
CONTINUOUS
 62
     6
100
AcDbCircle
 10
1167.959963018
 20
591.1265368614995
 30
0.0
 40
1.0
100
AcDbArc
 50
255.0000000000056
 51
341.2927249999935
  0
ARC
  5
1CB
330
1F
100
AcDbEntity
  8
鏡台
  6
CONTINUOUS
 62
     6
100
AcDbCircle
 10
1189.383656700999
 20
616.9619192266991
 30
0.0
 40
10.0
100
AcDbArc
 50
318.2563779999982
 51
11.74365199999793
  0
ARC
  5
1CC
330
1F
100
AcDbEntity
  8
鏡台
  6
CONTINUOUS
 62
     6
100
AcDbCircle
 10
1170.860344083999
 20
629.2389509696986
 30
0.0
 40
1.0
100
AcDbArc
 50
78.8137819999758
 51
165.0000000000056
  0
ARC
  5
1CD
330
1F
100
AcDbEntity
  8
鏡台
  6
CONTINUOUS
 62
     6
100
AcDbCircle
 10
1167.211716784999
 20
615.6220647844993
 30
0.0
 40
1.0
100
AcDbArc
 50
164.9999999999553
 51
253.0908809999582
  0
ARC
  5
1CE
330
1F
100
AcDbEntity
  8
鏡台
  6
CONTINUOUS
 62
     6
100
AcDbCircle
 10
1040.248656999999
 20
576.8100589999985
 30
0.0
 40
120.0000000000001
100
AcDbArc
 50
332.4231260000005
 51
355.4096070000001
  0
ARC
  5
1CF
330
1F
100
AcDbEntity
  8
鏡台
  6
CONTINUOUS
 62
     6
100
AcDbCircle
 10
1046.144652999999
 20
575.5830079999987
 30
0.0
 40
120.0000000000001
100
AcDbArc
 50
330.778137
 51
356.6508789999999
  0
ARC
  5
1D0
330
1F
100
AcDbEntity
  8
鏡台
  6
CONTINUOUS
 62
     6
100
AcDbCircle
 10
1177.956094715
 20
608.1750589176991
 30
0.0
 40
3.000000000000002
100
AcDbArc
 50
73.09075899999961
 51
161.29272500001
  0
ARC
  5
1D1
330
1F
100
AcDbEntity
  8
鏡台
  6
CONTINUOUS
 62
     6
100
AcDbCircle
 10
1163.010355233999
 20
592.4527608012986
 30
0.0
 40
1.0
100
AcDbArc
 50
168.6365359999535
 51
254.9999389999938
  0
ARC
  5
1D2
330
1F
100
AcDbEntity
  8
鏡台
  6
CONTINUOUS
 62
     6
100
AcDbCircle
 10
1167.959963018
 20
591.1265368614995
 30
0.0
 40
1.0
100
AcDbArc
 50
255.0000000000056
 51
341.2927249999935
  0
ARC
  5
1D3
330
1F
100
AcDbEntity
  8
鏡台
  6
CONTINUOUS
 62
     6
100
AcDbCircle
 10
1189.383656700999
 20
616.9619192266991
 30
0.0
 40
10.0
100
AcDbArc
 50
318.2563779999982
 51
11.74365199999793
  0
ARC
  5
1D4
330
1F
100
AcDbEntity
  8
鏡台
  6
CONTINUOUS
 62
     6
100
AcDbCircle
 10
1170.860344083999
 20
629.2389509696986
 30
0.0
 40
1.0
100
AcDbArc
 50
78.8137819999758
 51
165.0000000000056
  0
ARC
  5
1D5
330
1F
100
AcDbEntity
  8
鏡台
  6
CONTINUOUS
 62
     6
100
AcDbCircle
 10
1167.211716784999
 20
615.6220647844993
 30
0.0
 40
1.0
100
AcDbArc
 50
164.9999999999553
 51
253.0908809999582
  0
ARC
  5
1D6
330
1F
100
AcDbEntity
  8
鏡台
  6
CONTINUOUS
 62
     6
100
AcDbCircle
 10
1157.127807999999
 20
583.9847409999993
 30
0.0
 40
17.00025
100
AcDbArc
 50
231.9271239999991
 51
288.0711059999998
  0
ARC
  5
1D7
330
1F
100
AcDbEntity
  8
鏡台
  6
CONTINUOUS
 62
     6
100
AcDbCircle
 10
1167.674560999999
 20
551.6614379999983
 30
0.0
 40
17.000208
100
AcDbArc
 50
79.99896199999944
 51
108.0710449999981
  0
ARC
  5
1D8
330
1F
100
AcDbEntity
  8
鏡台
  6
CONTINUOUS
 62
     6
100
AcDbCircle
 10
1167.674682999999
 20
551.6616209999993
 30
0.0
 40
17.000029
100
AcDbArc
 50
51.92639200000016
 51
79.99896199999789
  0
ARC
  5
1D9
330
1F
100
AcDbEntity
  8
鏡台
  6
CONTINUOUS
 62
     6
100
AcDbCircle
 10
1157.127807999999
 20
591.9847409999993
 30
0.0
 40
17.00025
100
AcDbArc
 50
231.9271239999991
 51
288.0711059999998
  0
ARC
  5
1DA
330
1F
100
AcDbEntity
  8
鏡台
  6
CONTINUOUS
 62
     6
100
AcDbCircle
 10
1167.674560999999
 20
559.6614379999983
 30
0.0
 40
17.000208
100
AcDbArc
 50
79.99896199999944
 51
108.0710449999981
  0
ARC
  5
1DB
330
1F
100
AcDbEntity
  8
鏡台
  6
CONTINUOUS
 62
     6
100
AcDbCircle
 10
1167.674682999999
 20
559.6616209999993
 30
0.0
 40
17.000029
100
AcDbArc
 50
51.92639200000016
 51
79.99896199999789
  0
ARC
  5
1DC
330
1F
100
AcDbEntity
  8
鏡台
  6
CONTINUOUS
 62
     6
100
AcDbCircle
 10
1128.5
 20
536.9999999999991
 30
0.0
 40
30.00000000000002
100
AcDbArc
 50
270.0000000000002
 51
318.2063289999991
  0
ARC
  5
1DD
330
1F
100
AcDbEntity
  8
鏡台
  6
CONTINUOUS
 62
     6
100
AcDbCircle
 10
1128.5
 20
536.9999999999991
 30
0.0
 40
24.00000000000002
100
AcDbArc
 50
270.0000000000002
 51
319.0090329999999
  0
LINE
  5
1DE
330
1F
100
AcDbEntity
  8
鏡台
  6
CONTINUOUS
 62
     6
100
AcDbLine
 10
918.9999999999995
 20
1310.000000000017
 30
0.0
 11
918.9999999999995
 21
1258.499999999999
 31
0.0
  0
LINE
  5
1DF
330
1F
100
AcDbEntity
  8
鏡台
  6
CONTINUOUS
 62
     6
100
AcDbLine
 10
917.9999999999995
 20
1314.999999999999
 30
0.0
 11
917.9999999999995
 21
1310.000000000017
 31
0.0
  0
LINE
  5
1E0
330
1F
100
AcDbEntity
  8
鏡台
  6
CONTINUOUS
 62
     6
100
AcDbLine
 10
917.9999999999995
 20
1310.000000000017
 30
0.0
 11
1119.0
 21
1310.000000000017
 31
0.0
  0
LINE
  5
1E1
330
1F
100
AcDbEntity
  8
鏡台
  6
CONTINUOUS
 62
     6
100
AcDbLine
 10
1119.0
 20
1314.999999999999
 30
0.0
 11
1119.0
 21
1310.000000000017
 31
0.0
  0
LINE
  5
1E2
330
1F
100
AcDbEntity
  8
鏡台
  6
CONTINUOUS
 62
     6
100
AcDbLine
 10
1117.999999999999
 20
1310.000000000017
 30
0.0
 11
1117.999999999999
 21
1258.499999999999
 31
0.0
  0
LINE
  5
1E3
330
1F
100
AcDbEntity
  8
鏡台
  6
CONTINUOUS
 62
     6
100
AcDbLine
 10
917.9999999999995
 20
1061.999999999999
 30
0.0
 11
917.9999999999995
 21
1057.000000000017
 31
0.0
  0
LINE
  5
1E4
330
1F
100
AcDbEntity
  8
鏡台
  6
CONTINUOUS
 62
     6
100
AcDbLine
 10
917.9999999999995
 20
1057.000000000017
 30
0.0
 11
1119.0
 21
1057.000000000017
 31
0.0
  0
LINE
  5
1E5
330
1F
100
AcDbEntity
  8
鏡台
  6
CONTINUOUS
 62
     6
100
AcDbLine
 10
1119.0
 20
1061.999999999999
 30
0.0
 11
1119.0
 21
1057.000000000017
 31
0.0
  0
LINE
  5
1E6
330
1F
100
AcDbEntity
  8
鏡台
  6
CONTINUOUS
 62
     6
100
AcDbLine
 10
1117.999999999999
 20
1057.000000000017
 30
0.0
 11
1117.999999999999
 21
1005.499999999999
 31
0.0
  0
LINE
  5
1E7
330
1F
100
AcDbEntity
  8
鏡台
  6
CONTINUOUS
 62
     6
100
AcDbLine
 10
918.9999999999995
 20
1057.000000000017
 30
0.0
 11
918.9999999999995
 21
1005.499999999999
 31
0.0
  0
LINE
  5
1E8
330
1F
100
AcDbEntity
  8
鏡台
  6
CONTINUOUS
 62
     6
100
AcDbLine
 10
917.9999999999995
 20
759.9999999999991
 30
0.0
 11
917.9999999999995
 21
755.0000000000173
 31
0.0
  0
LINE
  5
1E9
330
1F
100
AcDbEntity
  8
鏡台
  6
CONTINUOUS
 62
     6
100
AcDbLine
 10
917.9999999999995
 20
755.0000000000173
 30
0.0
 11
1119.0
 21
755.0000000000173
 31
0.0
  0
LINE
  5
1EA
330
1F
100
AcDbEntity
  8
鏡台
  6
CONTINUOUS
 62
     6
100
AcDbLine
 10
1119.0
 20
759.9999999999991
 30
0.0
 11
1119.0
 21
755.0000000000173
 31
0.0
  0
LINE
  5
1EB
330
1F
100
AcDbEntity
  8
鏡台
  6
CONTINUOUS
 62
     6
100
AcDbLine
 10
1117.999999999999
 20
755.0000000000173
 30
0.0
 11
1117.999999999999
 21
703.4999999999991
 31
0.0
  0
LINE
  5
1EC
330
1F
100
AcDbEntity
  8
鏡台
  6
CONTINUOUS
 62
     6
100
AcDbLine
 10
918.9999999999995
 20
755.0000000000173
 30
0.0
 11
918.9999999999995
 21
703.4999999999991
 31
0.0
  0
LINE
  5
1ED
330
1F
100
AcDbEntity
  8
鏡台
  6
CONTINUOUS
 62
     2
100
AcDbLine
 10
378.5000000000004
 20
1514.999999999999
 30
0.0
 11
1128.5
 21
1514.999999999999
 31
0.0
  0
LINE
  5
1EE
330
1F
100
AcDbEntity
  8
鏡台
  6
CONTINUOUS
 62
     2
100
AcDbLine
 10
490.9999999999995
 20
1513.999999999999
 30
0.0
 11
490.9999999999995
 21
1514.999999999966
 31
0.0
  0
LINE
  5
1EF
330
1F
100
AcDbEntity
  8
鏡台
  6
CONTINUOUS
 62
     2
100
AcDbLine
 10
475.9999999999995
 20
1513.999999999999
 30
0.0
 11
475.9999999999995
 21
1514.999999999966
 31
0.0
  0
ARC
  5
1F0
330
1F
100
AcDbEntity
  8
鏡台
  6
CONTINUOUS
 62
     2
100
AcDbCircle
 10
483.4999999999995
 20
1513.999999999999
 30
0.0
 40
7.500000000000012
100
AcDbArc
 50
180.0
 51
0.0
  0
LINE
  5
1F1
330
1F
100
AcDbEntity
  8
鏡台
  6
CONTINUOUS
 62
     2
100
AcDbLine
 10
475.9999999999995
 20
1514.999999999966
 30
0.0
 11
490.9999999999995
 21
1514.999999999966
 31
0.0
  0
LINE
  5
1F2
330
1F
100
AcDbEntity
  8
鏡台
  6
CONTINUOUS
 62
     2
100
AcDbLine
 10
415.4999999999804
 20
1511.37867965647
 30
0.0
 11
417.6213203435404
 21
1513.50000000003
 31
0.0
  0
LINE
  5
1F3
330
1F
100
AcDbEntity
  8
鏡台
  6
CONTINUOUS
 62
     2
100
AcDbLine
 10
476.0166852264496
 20
1513.50000000003
 30
0.0
 11
417.6213203435404
 21
1513.50000000003
 31
0.0
  0
LINE
  5
1F4
330
1F
100
AcDbEntity
  8
鏡台
  6
CONTINUOUS
 62
     2
100
AcDbLine
 10
831.0166852264497
 20
1513.50000000003
 30
0.0
 11
490.9833147735494
 21
1513.50000000003
 31
0.0
  0
LINE
  5
1F5
330
1F
100
AcDbEntity
  8
鏡台
  6
CONTINUOUS
 62
     6
100
AcDbLine
 10
428.4999999999981
 20
1444.999999999998
 30
0.0
 11
368.4999999999986
 21
1444.999999999998
 31
0.0
  0
LINE
  5
1F6
330
1F
100
AcDbEntity
  8
鏡台
  6
CONTINUOUS
 62
     6
100
AcDbLine
 10
398.4999999999981
 20
1474.999999999998
 30
0.0
 11
398.4999999999981
 21
1414.999999999998
 31
0.0
  0
CIRCLE
  5
1F7
330
1F
100
AcDbEntity
  8
鏡台
  6
CONTINUOUS
 62
     2
100
AcDbCircle
 10
398.4999999999995
 20
1444.999999999999
 30
0.0
 40
7.000000000000004
  0
LINE
  5
1F8
330
1F
100
AcDbEntity
  8
鏡台
  6
CONTINUOUS
 62
     6
100
AcDbLine
 10
483.4999999999986
 20
544.9999999999982
 30
0.0
 11
423.4999999999986
 21
544.9999999999982
 31
0.0
  0
LINE
  5
1F9
330
1F
100
AcDbEntity
  8
鏡台
  6
CONTINUOUS
 62
     6
100
AcDbLine
 10
453.4999999999986
 20
574.9999999999982
 30
0.0
 11
453.4999999999986
 21
514.9999999999982
 31
0.0
  0
CIRCLE
  5
1FA
330
1F
100
AcDbEntity
  8
鏡台
  6
CONTINUOUS
 62
     2
100
AcDbCircle
 10
453.4999999999995
 20
544.9999999999991
 30
0.0
 40
7.000000000000004
  0
LINE
  5
1FB
330
1F
100
AcDbEntity
  8
鏡台
  6
CONTINUOUS
 62
     2
100
AcDbLine
 10
386.5000000000004
 20
1624.999999999999
 30
0.0
 11
1120.5
 21
1624.999999999999
 31
0.0
  0
LINE
  5
1FC
330
1F
100
AcDbEntity
  8
鏡台
  6
CONTINUOUS
 62
     2
100
AcDbLine
 10
378.5000000000004
 20
1616.999999999999
 30
0.0
 11
378.5000000000004
 21
502.9999999999991
 31
0.0
  0
ARC
  5
1FD
330
1F
100
AcDbEntity
  8
鏡台
  6
CONTINUOUS
 62
     2
100
AcDbCircle
 10
386.5000000000004
 20
502.9999999999991
 30
0.0
 40
8.0
100
AcDbArc
 50
180.0000000000002
 51
270.0000000000002
  0
ARC
  5
1FE
330
1F
100
AcDbEntity
  8
鏡台
  6
CONTINUOUS
 62
     2
100
AcDbCircle
 10
386.5000000000004
 20
1616.999999999999
 30
0.0
 40
8.0
100
AcDbArc
 50
90.00000000000004
 51
180.0
  0
LINE
  5
1FF
330
1F
100
AcDbEntity
  8
鏡台
  6
CONTINUOUS
 62
     2
100
AcDbLine
 10
678.4999999999995
 20
1514.999999999966
 30
0.0
 11
663.4999999999995
 21
1514.999999999966
 31
0.0
  0
LINE
  5
200
330
1F
100
AcDbEntity
  8
鏡台
  6
CONTINUOUS
 62
     2
100
AcDbLine
 10
490.4999999999995
 20
1624.999999999999
 30
0.0
 11
490.4999999999995
 21
1514.999999999999
 31
0.0
  0
LINE
  5
201
330
1F
100
AcDbEntity
  8
鏡台
  6
CONTINUOUS
 62
     2
100
AcDbLine
 10
831.5000000000032
 20
1624.999999999999
 30
0.0
 11
831.5000000000032
 21
1514.999999999999
 31
0.0
  0
LINE
  5
202
330
1F
100
AcDbEntity
  8
鏡台
  6
CONTINUOUS
 62
     2
100
AcDbLine
 10
831.2850551282031
 20
1610.999999999999
 30
0.0
 11
490.7149448717996
 21
1610.999999999999
 31
0.0
  0
LINE
  5
203
330
1F
100
AcDbEntity
  8
鏡台
  6
CONTINUOUS
 62
     6
100
AcDbLine
 10
831.2850551282031
 20
1600.000000000004
 30
0.0
 11
490.7149448717996
 21
1599.999999999999
 31
0.0
  0
LINE
  5
204
330
1F
100
AcDbEntity
  8
鏡台
  6
CONTINUOUS
 62
     6
100
AcDbLine
 10
831.2850551282031
 20
1595.000000000004
 30
0.0
 11
490.7149448717996
 21
1594.999999999999
 31
0.0
  0
ARC
  5
205
330
1F
100
AcDbEntity
  8
鏡台
  6
CONTINUOUS
 62
     6
100
AcDbCircle
 10
660.9999999999986
 20
4418.200000001375
 30
0.0
 40
2902.200000001376
100
AcDbArc
 50
266.6362684044902
 51
273.3637315955098
  0
LINE
  5
206
330
1F
100
AcDbEntity
  8
鏡台
  6
CONTINUOUS
 62
     6
100
AcDbLine
 10
831.2850551282031
 20
1610.999999999999
 30
0.0
 11
831.2850551282022
 21
1520.999999999999
 31
0.0
  0
LINE
  5
207
330
1F
100
AcDbEntity
  8
鏡台
  6
CONTINUOUS
 62
     6
100
AcDbLine
 10
490.7149448717996
 20
1610.999999999999
 30
0.0
 11
490.7149448717996
 21
1520.999999999999
 31
0.0
  0
LINE
  5
208
330
1F
100
AcDbEntity
  8
鏡台
  6
CONTINUOUS
 62
     2
100
AcDbLine
 10
830.9999999999995
 20
643.9999999999691
 30
0.0
 11
830.9999999999995
 21
643.0000000000018
 31
0.0
  0
LINE
  5
209
330
1F
100
AcDbEntity
  8
鏡台
  6
CONTINUOUS
 62
     2
100
AcDbLine
 10
845.9999999999995
 20
643.9999999999691
 30
0.0
 11
845.9999999999995
 21
643.0000000000018
 31
0.0
  0
ARC
  5
20A
330
1F
100
AcDbEntity
  8
鏡台
  6
CONTINUOUS
 62
     2
100
AcDbCircle
 10
838.4999999999995
 20
643.9999999999691
 30
0.0
 40
7.500000000000012
100
AcDbArc
 50
0.0
 51
180.0
  0
LINE
  5
20B
330
1F
100
AcDbEntity
  8
鏡台
  6
CONTINUOUS
 62
     2
100
AcDbLine
 10
845.9999999999995
 20
643.0000000000018
 30
0.0
 11
830.9999999999995
 21
643.0000000000018
 31
0.0
  0
LINE
  5
20C
330
1F
100
AcDbEntity
  8
鏡台
  6
CONTINUOUS
 62
     2
100
AcDbLine
 10
906.4999999999804
 20
647.6213203435609
 30
0.0
 11
904.3786796564204
 21
645.5000000000009
 31
0.0
  0
LINE
  5
20D
330
1F
100
AcDbEntity
  8
鏡台
  6
CONTINUOUS
 62
     2
100
AcDbLine
 10
906.4999999999804
 20
1511.37867965647
 30
0.0
 11
906.4999999999804
 21
647.6213203435609
 31
0.0
  0
LINE
  5
20E
330
1F
100
AcDbEntity
  8
鏡台
  6
CONTINUOUS
 62
     2
100
AcDbLine
 10
904.3786796564204
 20
645.5000000000009
 30
0.0
 11
845.8484692283423
 21
645.5000000000009
 31
0.0
  0
LINE
  5
20F
330
1F
100
AcDbEntity
  8
鏡台
  6
CONTINUOUS
 62
     2
100
AcDbLine
 10
490.9999999999995
 20
643.9999999999691
 30
0.0
 11
490.9999999999995
 21
643.0000000000018
 31
0.0
  0
LINE
  5
210
330
1F
100
AcDbEntity
  8
鏡台
  6
CONTINUOUS
 62
     2
100
AcDbLine
 10
475.9999999999995
 20
643.9999999999691
 30
0.0
 11
475.9999999999995
 21
643.0000000000018
 31
0.0
  0
ARC
  5
211
330
1F
100
AcDbEntity
  8
鏡台
  6
CONTINUOUS
 62
     2
100
AcDbCircle
 10
483.4999999999995
 20
643.9999999999691
 30
0.0
 40
7.500000000000012
100
AcDbArc
 50
0.0
 51
180.0
  0
LINE
  5
212
330
1F
100
AcDbEntity
  8
鏡台
  6
CONTINUOUS
 62
     2
100
AcDbLine
 10
475.9999999999995
 20
643.0000000000018
 30
0.0
 11
490.9999999999995
 21
643.0000000000018
 31
0.0
  0
LINE
  5
213
330
1F
100
AcDbEntity
  8
鏡台
  6
CONTINUOUS
 62
     2
100
AcDbLine
 10
417.6213203435404
 20
645.5000000000009
 30
0.0
 11
415.4999999999804
 21
647.6213203435609
 31
0.0
  0
LINE
  5
214
330
1F
100
AcDbEntity
  8
鏡台
  6
CONTINUOUS
 62
     2
100
AcDbLine
 10
415.4999999999804
 20
1511.37867965647
 30
0.0
 11
415.4999999999804
 21
647.6213203435609
 31
0.0
  0
LINE
  5
215
330
1F
100
AcDbEntity
  8
鏡台
  6
CONTINUOUS
 62
     2
100
AcDbLine
 10
831.1515307716568
 20
645.5000000000009
 30
0.0
 11
490.8484692283418
 21
645.5000000000009
 31
0.0
  0
LINE
  5
216
330
1F
100
AcDbEntity
  8
鏡台
  6
CONTINUOUS
 62
     2
100
AcDbLine
 10
476.1515307716567
 20
645.5000000000009
 30
0.0
 11
417.6213203435404
 21
645.5000000000009
 31
0.0
  0
LINE
  5
217
330
1F
100
AcDbEntity
  8
鏡台
  6
CONTINUOUS
 62
     1
100
AcDbLine
 10
958.4999999999986
 20
1190.000000000009
 30
0.0
 11
958.4999999999986
 21
1160.000000000009
 31
0.0
  0
LINE
  5
218
330
1F
100
AcDbEntity
  8
鏡台
  6
CONTINUOUS
 62
     1
100
AcDbLine
 10
973.4999999999986
 20
1175.000000000009
 30
0.0
 11
943.4999999999986
 21
1175.000000000009
 31
0.0
  0
CIRCLE
  5
219
330
1F
100
AcDbEntity
  8
鏡台
  6
CONTINUOUS
 62
     1
100
AcDbCircle
 10
958.4999999999995
 20
1174.999999999999
 30
0.0
 40
5.0
  0
LINE
  5
21A
330
1F
100
AcDbEntity
  8
鏡台
  6
CONTINUOUS
 62
     6
100
AcDbLine
 10
714.0830085889988
 20
926.3330085889993
 30
0.0
 11
661.0499999999988
 21
873.2999999999993
 31
0.0
  0
LINE
  5
21B
330
1F
100
AcDbEntity
  8
鏡台
  6
CONTINUOUS
 62
     6
100
AcDbLine
 10
691.4431457504993
 20
915.0068542489989
 30
0.0
 11
672.4931457504995
 21
896.0568542489991
 31
0.0
  0
LINE
  5
21C
330
1F
100
AcDbEntity
  8
鏡台
  6
CONTINUOUS
 62
     6
100
AcDbLine
 10
707.9568542494994
 20
908.893145750998
 30
0.0
 11
678.2568542494996
 21
879.1931457509991
 31
0.0
  0
LINE
  5
21D
330
1F
100
AcDbEntity
  8
鏡台
  6
CONTINUOUS
 62
     6
100
AcDbLine
 10
825.0830085889988
 20
1370.333008588999
 30
0.0
 11
772.0499999999988
 21
1317.299999999999
 31
0.0
  0
LINE
  5
21E
330
1F
100
AcDbEntity
  8
鏡台
  6
CONTINUOUS
 62
     6
100
AcDbLine
 10
802.4431457504993
 20
1359.006854248999
 30
0.0
 11
783.4931457504995
 21
1340.056854248999
 31
0.0
  0
LINE
  5
21F
330
1F
100
AcDbEntity
  8
鏡台
  6
CONTINUOUS
 62
     6
100
AcDbLine
 10
818.9568542494994
 20
1352.893145750998
 30
0.0
 11
789.2568542494996
 21
1323.193145750999
 31
0.0
  0
LINE
  5
220
330
1F
100
AcDbEntity
  8
鏡台
  6
CONTINUOUS
 62
     6
100
AcDbLine
 10
549.0830085889988
 20
1130.333008588999
 30
0.0
 11
496.0499999999988
 21
1077.299999999999
 31
0.0
  0
LINE
  5
221
330
1F
100
AcDbEntity
  8
鏡台
  6
CONTINUOUS
 62
     6
100
AcDbLine
 10
526.4431457504988
 20
1119.006854248999
 30
0.0
 11
507.493145750499
 21
1100.056854248999
 31
0.0
  0
LINE
  5
222
330
1F
100
AcDbEntity
  8
鏡台
  6
CONTINUOUS
 62
     6
100
AcDbLine
 10
542.956854249499
 20
1112.893145750998
 30
0.0
 11
513.2568542494996
 21
1083.193145750999
 31
0.0
  0
LINE
  5
223
330
1F
100
AcDbEntity
  8
鏡台
  6
CONTINUOUS
 62
     2
100
AcDbLine
 10
943.5000000000005
 20
1619.163889660099
 30
0.0
 11
943.5000000000005
 21
1514.999999999999
 31
0.0
  0
LINE
  5
224
330
1F
100
AcDbEntity
  8
鏡台
  6
CONTINUOUS
 62
     2
100
AcDbLine
 10
1700.5
 20
494.9999999999991
 30
0.0
 11
1700.5
 21
1624.999999999999
 31
0.0
  0
LINE
  5
225
330
1F
100
AcDbEntity
  8
鏡台
  6
CONTINUOUS
 62
     2
100
AcDbLine
 10
1670.5
 20
1623.999999999999
 30
0.0
 11
1700.5
 21
1624.999999999999
 31
0.0
  0
LINE
  5
226
330
1F
100
AcDbEntity
  8
鏡台
  6
CONTINUOUS
 62
     2
100
AcDbLine
 10
1523.5
 20
1610.999999999999
 30
0.0
 11
1523.5
 21
1515.999999999999
 31
0.0
  0
LINE
  5
227
330
1F
100
AcDbEntity
  8
鏡台
  6
CONTINUOUS
 62
     2
100
AcDbLine
 10
1523.5
 20
1515.999999999999
 30
0.0
 11
1630.5
 21
1520.999999999999
 31
0.0
  0
LINE
  5
228
330
1F
100
AcDbEntity
  8
鏡台
  6
CONTINUOUS
 62
     2
100
AcDbLine
 10
1523.5
 20
1610.999999999999
 30
0.0
 11
1630.5
 21
1610.999999999999
 31
0.0
  0
LINE
  5
229
330
1F
100
AcDbEntity
  8
鏡台
  6
CONTINUOUS
 62
     6
100
AcDbLine
 10
1523.5
 20
1599.999999999999
 30
0.0
 11
1630.5
 21
1599.999999999999
 31
0.0
  0
LINE
  5
22A
330
1F
100
AcDbEntity
  8
鏡台
  6
CONTINUOUS
 62
     6
100
AcDbLine
 10
1523.5
 20
1594.999999999999
 30
0.0
 11
1630.5
 21
1594.999999999999
 31
0.0
  0
LINE
  5
22B
330
1F
100
AcDbEntity
  8
鏡台
  6
CONTINUOUS
 62
     2
100
AcDbLine
 10
1577.0
 20
1314.999999999999
 30
0.0
 11
1577.0
 21
1309.999999999999
 31
0.0
  0
LINE
  5
22C
330
1F
100
AcDbEntity
  8
鏡台
  6
CONTINUOUS
 62
     2
100
AcDbLine
 10
1578.0
 20
1275.499999999999
 30
0.0
 11
1670.5
 21
1258.499999999999
 31
0.0
  0
LINE
  5
22D
330
1F
100
AcDbEntity
  8
鏡台
  6
CONTINUOUS
 62
     2
100
AcDbLine
 10
1577.0
 20
1314.999999999999
 30
0.0
 11
1670.5
 21
1314.999999999999
 31
0.0
  0
LINE
  5
22E
330
1F
100
AcDbEntity
  8
鏡台
  6
CONTINUOUS
 62
     2
100
AcDbLine
 10
1578.0
 20
1309.999999999999
 30
0.0
 11
1578.0
 21
1275.499999999999
 31
0.0
  0
LINE
  5
22F
330
1F
100
AcDbEntity
  8
鏡台
  6
CONTINUOUS
 62
     2
100
AcDbLine
 10
1577.0
 20
1061.999999999999
 30
0.0
 11
1577.0
 21
1056.999999999999
 31
0.0
  0
LINE
  5
230
330
1F
100
AcDbEntity
  8
鏡台
  6
CONTINUOUS
 62
     2
100
AcDbLine
 10
1578.0
 20
1022.499999999999
 30
0.0
 11
1670.5
 21
1005.499999999999
 31
0.0
  0
LINE
  5
231
330
1F
100
AcDbEntity
  8
鏡台
  6
CONTINUOUS
 62
     2
100
AcDbLine
 10
1577.0
 20
1061.999999999999
 30
0.0
 11
1670.5
 21
1061.999999999999
 31
0.0
  0
LINE
  5
232
330
1F
100
AcDbEntity
  8
鏡台
  6
CONTINUOUS
 62
     2
100
AcDbLine
 10
1578.0
 20
1056.999999999999
 30
0.0
 11
1578.0
 21
1022.499999999999
 31
0.0
  0
LINE
  5
233
330
1F
100
AcDbEntity
  8
鏡台
  6
CONTINUOUS
 62
     2
100
AcDbLine
 10
1577.0
 20
759.9999999999991
 30
0.0
 11
1577.0
 21
754.9999999999991
 31
0.0
  0
LINE
  5
234
330
1F
100
AcDbEntity
  8
鏡台
  6
CONTINUOUS
 62
     2
100
AcDbLine
 10
1578.0
 20
720.4999999999991
 30
0.0
 11
1670.5
 21
703.4999999999991
 31
0.0
  0
LINE
  5
235
330
1F
100
AcDbEntity
  8
鏡台
  6
CONTINUOUS
 62
     2
100
AcDbLine
 10
1577.0
 20
759.9999999999991
 30
0.0
 11
1670.5
 21
759.9999999999991
 31
0.0
  0
LINE
  5
236
330
1F
100
AcDbEntity
  8
鏡台
  6
CONTINUOUS
 62
     2
100
AcDbLine
 10
1578.0
 20
754.9999999999991
 30
0.0
 11
1578.0
 21
720.4999999999991
 31
0.0
  0
LINE
  5
237
330
1F
100
AcDbEntity
  8
鏡台
  6
CONTINUOUS
 62
     2
100
AcDbLine
 10
1650.5
 20
1262.175675675675
 30
0.0
 11
1650.5
 21
1061.999999999999
 31
0.0
  0
LINE
  5
238
330
1F
100
AcDbEntity
  8
鏡台
  6
CONTINUOUS
 62
     6
100
AcDbLine
 10
1685.499999999999
 20
1444.999999999999
 30
0.0
 11
1747.999999999999
 21
1444.999999999999
 31
0.0
  0
LINE
  5
239
330
1F
100
AcDbEntity
  8
鏡台
  6
CONTINUOUS
 62
     6
100
AcDbLine
 10
1700.499999999999
 20
1446.999999999999
 30
0.0
 11
1732.999999999999
 21
1444.999999999999
 31
0.0
  0
LINE
  5
23A
330
1F
100
AcDbEntity
  8
鏡台
  6
CONTINUOUS
 62
     6
100
AcDbLine
 10
1732.999999999999
 20
1444.999999999999
 30
0.0
 11
1700.499999999999
 21
1442.999999999999
 31
0.0
  0
LINE
  5
23B
330
1F
100
AcDbEntity
  8
鏡台
  6
CONTINUOUS
 62
     6
100
AcDbLine
 10
1685.499999999999
 20
944.9999999999991
 30
0.0
 11
1747.999999999999
 21
944.9999999999991
 31
0.0
  0
LINE
  5
23C
330
1F
100
AcDbEntity
  8
鏡台
  6
CONTINUOUS
 62
     6
100
AcDbLine
 10
1700.499999999999
 20
946.9999999999991
 30
0.0
 11
1732.999999999999
 21
944.9999999999991
 31
0.0
  0
LINE
  5
23D
330
1F
100
AcDbEntity
  8
鏡台
  6
CONTINUOUS
 62
     6
100
AcDbLine
 10
1732.999999999999
 20
944.9999999999991
 30
0.0
 11
1700.499999999999
 21
942.9999999999991
 31
0.0
  0
LINE
  5
23E
330
1F
100
AcDbEntity
  8
鏡台
  6
CONTINUOUS
 62
     6
100
AcDbLine
 10
1685.499999999999
 20
544.9999999999991
 30
0.0
 11
1747.999999999999
 21
544.9999999999991
 31
0.0
  0
LINE
  5
23F
330
1F
100
AcDbEntity
  8
鏡台
  6
CONTINUOUS
 62
     6
100
AcDbLine
 10
1700.499999999999
 20
546.9999999999991
 30
0.0
 11
1732.999999999999
 21
544.9999999999991
 31
0.0
  0
LINE
  5
240
330
1F
100
AcDbEntity
  8
鏡台
  6
CONTINUOUS
 62
     6
100
AcDbLine
 10
1732.999999999999
 20
544.9999999999991
 30
0.0
 11
1700.499999999999
 21
542.9999999999991
 31
0.0
  0
LINE
  5
241
330
1F
100
AcDbEntity
  8
鏡台
  6
CONTINUOUS
 62
     2
100
AcDbLine
 10
1635.002481404894
 20
1620.450248140489
 30
0.0
 11
1670.5
 21
1623.999999999999
 31
0.0
  0
ARC
  5
242
330
1F
100
AcDbEntity
  8
鏡台
  6
CONTINUOUS
 62
     2
100
AcDbCircle
 10
1635.5
 20
1615.475062189439
 30
0.0
 40
5.0
100
AcDbArc
 50
95.7105931375006
 51
180.0
  0
ARC
  5
243
330
1F
100
AcDbEntity
  8
鏡台
  6
CONTINUOUS
 62
     2
100
AcDbCircle
 10
1675.5
 20
1619.163889660065
 30
0.0
 40
5.0
100
AcDbArc
 50
91.90915243299736
 51
180.0
  0
LINE
  5
244
330
1F
100
AcDbEntity
  8
鏡台
  6
CONTINUOUS
 62
     2
100
AcDbLine
 10
1630.5
 20
1615.475062189439
 30
0.0
 11
1630.5
 21
1519.853747659175
 31
0.0
  0
LINE
  5
245
330
1F
100
AcDbEntity
  8
鏡台
  6
CONTINUOUS
 62
     2
100
AcDbLine
 10
1670.5
 20
1514.999999999999
 30
0.0
 11
1633.350187149168
 21
1516.857490642541
 31
0.0
  0
ARC
  5
246
330
1F
100
AcDbEntity
  8
鏡台
  6
CONTINUOUS
 62
     2
100
AcDbCircle
 10
1633.5
 20
1519.853747659175
 30
0.0
 40
3.000000000000002
100
AcDbArc
 50
180.0
 51
267.1375947738941
  0
LINE
  5
247
330
1F
100
AcDbEntity
  8
鏡台
  6
CONTINUOUS
 62
     2
100
AcDbLine
 10
1670.5
 20
499.9999999999991
 30
0.0
 11
1670.5
 21
1619.163889660065
 31
0.0
  0
ARC
  5
248
330
1F
100
AcDbEntity
  8
鏡台
  6
CONTINUOUS
 62
     2
100
AcDbCircle
 10
1675.5
 20
499.9999999999991
 30
0.0
 40
5.0
100
AcDbArc
 50
180.0
 51
270.0000000000002
  0
LINE
  5
249
330
1F
100
AcDbEntity
  8
鏡台
  6
CONTINUOUS
 62
     6
100
AcDbLine
 10
1667.5
 20
1314.999999999999
 30
0.0
 11
1667.5
 21
1259.051351351351
 31
0.0
  0
LINE
  5
24A
330
1F
100
AcDbEntity
  8
鏡台
  6
CONTINUOUS
 62
     6
100
AcDbLine
 10
1577.0
 20
1309.999999999999
 30
0.0
 11
1667.5
 21
1309.999999999999
 31
0.0
  0
LINE
  5
24B
330
1F
100
AcDbEntity
  8
鏡台
  6
CONTINUOUS
 62
     6
100
AcDbLine
 10
1577.0
 20
1056.999999999999
 30
0.0
 11
1667.5
 21
1056.999999999999
 31
0.0
  0
LINE
  5
24C
330
1F
100
AcDbEntity
  8
鏡台
  6
CONTINUOUS
 62
     6
100
AcDbLine
 10
1667.5
 20
1061.999999999999
 30
0.0
 11
1667.5
 21
1006.051351351351
 31
0.0
  0
LINE
  5
24D
330
1F
100
AcDbEntity
  8
鏡台
  6
CONTINUOUS
 62
     6
100
AcDbLine
 10
1577.0
 20
754.9999999999991
 30
0.0
 11
1667.5
 21
754.9999999999991
 31
0.0
  0
LINE
  5
24E
330
1F
100
AcDbEntity
  8
鏡台
  6
CONTINUOUS
 62
     6
100
AcDbLine
 10
1667.5
 20
759.9999999999991
 30
0.0
 11
1667.5
 21
704.0513513513506
 31
0.0
  0
LINE
  5
24F
330
1F
100
AcDbEntity
  8
鏡台
  6
CONTINUOUS
 62
     2
100
AcDbLine
 10
1700.5
 20
495.0
 30
0.0
 11
1675.5
 21
495.0
 31
0.0
  0
LINE
  5
250
330
1F
100
AcDbEntity
  8
鏡台
  6
CONTINUOUS
 62
     2
100
AcDbLine
 10
1120.5
 20
495.0
 30
0.0
 11
386.4999999999999
 21
495.0
 31
0.0
  0
DIMENSION
  5
252
330
1F
100
AcDbEntity
  8
寸法
  6
CONTINUOUS
 62
     3
100
AcDbDimension
  2
*D15
 10
398.4999999999995
 20
2100.999999999999
 30
0.0
 11
313.4999999999997
 21
2124.499999940394
 31
0.0
 70
   160
  3
ISO-25
100
AcDbAlignedDimension
 13
378.4999999999995
 23
2020.999999999999
 33
0.0
 14
398.4999999999995
 24
2053.499999999999
 34
0.0
100
AcDbRotatedDimension
1001
ACAD
1000
DSTYLE
1002
{
1070
   270
1070
     2
1070
     6
1000
EX_NORM
1070
     7
1000
EX_NORM
1070
    41
1040
30.0
1070
    42
1040
6.99999988079071
1070
    44
1040
10.0
1070
    73
1070
     0
1070
    74
1070
     0
1070
    75
1070
     0
1070
    76
1070
     0
1070
    77
1070
     1
1070
    78
1070
     0
1070
   140
1040
40.0
1070
   147
1040
0.0
1070
   173
1070
     1
1070
   176
1070
     3
1070
   177
1070
     3
1070
   178
1070
     2
1070
   271
1070
     0
1070
   277
1070
     2
1070
   279
1070
     2
1070
   280
1070
     1
1070
   287
1070
     5
1070
   340
1005
251
1002
}
  0
DIMENSION
  5
262
330
1F
100
AcDbEntity
  8
寸法
  6
CONTINUOUS
 62
     3
100
AcDbDimension
  2
*D16
 10
453.4999999999995
 20
2160.999999999999
 30
0.0
 11
313.4999999999997
 21
2184.499999940394
 31
0.0
 70
   160
  3
ISO-25
100
AcDbAlignedDimension
 13
378.4999999999995
 23
2020.999999999999
 33
0.0
 14
453.4999999999995
 24
2053.499999999999
 34
0.0
100
AcDbRotatedDimension
1001
ACAD
1000
DSTYLE
1002
{
1070
   270
1070
     2
1070
     6
1000
EX_NORM
1070
     7
1000
EX_NORM
1070
    41
1040
30.0
1070
    42
1040
6.99999988079071
1070
    44
1040
10.0
1070
    73
1070
     0
1070
    74
1070
     0
1070
    75
1070
     0
1070
    76
1070
     0
1070
    77
1070
     1
1070
    78
1070
     0
1070
   140
1040
40.0
1070
   147
1040
0.0
1070
   173
1070
     1
1070
   176
1070
     3
1070
   177
1070
     3
1070
   178
1070
     2
1070
   271
1070
     0
1070
   277
1070
     2
1070
   279
1070
     2
1070
   280
1070
     1
1070
   287
1070
     5
1070
   340
1005
251
1002
}
  0
DIMENSION
  5
26F
330
1F
100
AcDbEntity
  8
寸法
  6
CONTINUOUS
 62
     3
100
AcDbDimension
  2
*D17
 10
1128.5
 20
2100.999999999999
 30
0.0
 11
1193.5
 21
2124.499999940394
 31
0.0
 70
   160
  3
ISO-25
100
AcDbAlignedDimension
 13
1053.5
 23
2053.499999999999
 33
0.0
 14
1128.5
 24
2020.999999999999
 34
0.0
100
AcDbRotatedDimension
1001
ACAD
1000
DSTYLE
1002
{
1070
   270
1070
     2
1070
     6
1000
EX_NORM
1070
     7
1000
EX_NORM
1070
    41
1040
30.0
1070
    42
1040
6.99999988079071
1070
    44
1040
10.0
1070
    73
1070
     0
1070
    74
1070
     0
1070
    75
1070
     0
1070
    76
1070
     0
1070
    77
1070
     1
1070
    78
1070
     0
1070
   140
1040
40.0
1070
   147
1040
0.0
1070
   173
1070
     1
1070
   176
1070
     3
1070
   177
1070
     3
1070
   178
1070
     2
1070
   271
1070
     0
1070
   277
1070
     2
1070
   279
1070
     2
1070
   280
1070
     2
1070
   287
1070
     5
1070
   340
1005
251
1002
}
  0
DIMENSION
  5
27C
330
1F
100
AcDbEntity
  8
寸法
  6
CONTINUOUS
 62
     3
100
AcDbDimension
  2
*D18
 10
1128.5
 20
1684.999999999999
 30
0.0
 11
753.5
 21
1708.499999940394
 31
0.0
 70
   160
  3
ISO-25
100
AcDbAlignedDimension
 13
378.4999999999999
 23
1616.999999999999
 33
0.0
 14
1128.5
 24
1616.999999999999
 34
0.0
100
AcDbRotatedDimension
1001
ACAD
1000
DSTYLE
1002
{
1070
   270
1070
     2
1070
     6
1000
EX_NORM
1070
     7
1000
EX_NORM
1070
    41
1040
30.0
1070
    42
1040
6.999999880790938
1070
    44
1040
10.0
1070
    73
1070
     0
1070
    74
1070
     0
1070
    75
1070
     0
1070
    76
1070
     0
1070
    77
1070
     1
1070
    78
1070
     0
1070
   140
1040
40.0
1070
   147
1040
0.0
1070
   173
1070
     1
1070
   176
1070
     3
1070
   177
1070
     3
1070
   178
1070
     2
1070
   271
1070
     0
1070
   277
1070
     2
1070
   279
1070
     2
1070
   280
1070
     0
1070
   287
1070
     5
1070
   340
1005
251
1002
}
  0
DIMENSION
  5
289
330
1F
100
AcDbEntity
  8
寸法
  6
CONTINUOUS
 62
     3
100
AcDbDimension
  2
*D19
 10
1128.5
 20
842.9999999999991
 30
0.0
 11
1043.5
 21
866.4999999403944
 31
0.0
 70
   160
  1
※170
  3
ISO-25
100
AcDbAlignedDimension
 13
958.5
 23
1169.999999999999
 33
0.0
 14
1128.5
 24
1059.999999999999
 34
0.0
100
AcDbRotatedDimension
1001
ACAD
1000
DSTYLE
1002
{
1070
   270
1070
     2
1070
     6
1000
EX_NORM
1070
     7
1000
EX_NORM
1070
    41
1040
30.0
1070
    42
1040
6.99999988079071
1070
    44
1040
10.0
1070
    73
1070
     0
1070
    74
1070
     0
1070
    75
1070
     0
1070
    76
1070
     1
1070
    77
1070
     1
1070
    78
1070
     0
1070
   140
1040
40.0
1070
   147
1040
0.0
1070
   173
1070
     1
1070
   176
1070
     3
1070
   177
1070
     3
1070
   178
1070
     2
1070
   271
1070
     0
1070
   277
1070
     2
1070
   279
1070
     2
1070
   280
1070
     0
1070
   287
1070
     5
1070
   340
1005
251
1002
}
  0
DIMENSION
  5
295
330
1F
100
AcDbEntity
  8
寸法
  6
CONTINUOUS
 62
     3
100
AcDbDimension
  2
*D20
 10
1700.5
 20
414.9999999999991
 30
0.0
 11
1605.5
 21
438.4999999403945
 31
0.0
 70
   160
  3
ISO-25
100
AcDbAlignedDimension
 13
1670.5
 23
499.9999999999991
 33
0.0
 14
1700.5
 24
494.9999999999991
 34
0.0
100
AcDbRotatedDimension
1001
ACAD
1000
DSTYLE
1002
{
1070
   270
1070
     2
1070
     6
1000
EX_NORM
1070
     7
1000
EX_NORM
1070
    41
1040
30.0
1070
    42
1040
6.99999988079071
1070
    44
1040
10.0
1070
    73
1070
     0
1070
    74
1070
     0
1070
    75
1070
     0
1070
    76
1070
     0
1070
    77
1070
     1
1070
    78
1070
     0
1070
   140
1040
40.0
1070
   147
1040
0.0
1070
   173
1070
     1
1070
   176
1070
     3
1070
   177
1070
     3
1070
   178
1070
     2
1070
   271
1070
     0
1070
   277
1070
     2
1070
   279
1070
     2
1070
   280
1070
     1
1070
   287
1070
     5
1070
   340
1005
251
1002
}
  0
DIMENSION
  5
2A4
330
1F
100
AcDbEntity
  8
寸法
  6
CONTINUOUS
 62
     3
100
AcDbDimension
  2
*D21
 10
1700.5
 20
1684.999999999999
 30
0.0
 11
1612.0
 21
1708.499999940394
 31
0.0
 70
   160
  3
ISO-25
100
AcDbAlignedDimension
 13
1523.5
 23
1610.999999999999
 33
0.0
 14
1700.5
 24
1624.999999999999
 34
0.0
100
AcDbRotatedDimension
1001
ACAD
1000
DSTYLE
1002
{
1070
   270
1070
     2
1070
     6
1000
EX_NORM
1070
     7
1000
EX_NORM
1070
    41
1040
30.0
1070
    42
1040
6.99999988079071
1070
    44
1040
10.0
1070
    73
1070
     0
1070
    74
1070
     0
1070
    75
1070
     0
1070
    76
1070
     0
1070
    77
1070
     1
1070
    78
1070
     0
1070
   140
1040
40.0
1070
   147
1040
0.0
1070
   173
1070
     1
1070
   176
1070
     3
1070
   177
1070
     3
1070
   178
1070
     2
1070
   271
1070
     0
1070
   277
1070
     2
1070
   279
1070
     2
1070
   280
1070
     0
1070
   287
1070
     5
1070
   340
1005
251
1002
}
  0
DIMENSION
  5
2B1
330
1F
100
AcDbEntity
  8
寸法
  6
CONTINUOUS
 62
     3
100
AcDbDimension
  2
*D22
 10
1245.0
 20
509.9999999999991
 30
0.0
 11
1221.500000059605
 21
574.9999999999989
 31
0.0
 70
   160
  3
ISO-25
100
AcDbAlignedDimension
 13
1120.5
 23
494.9999999999991
 33
0.0
 14
1141.5766968306
 24
509.9999999999991
 34
0.0
 50
90.0
100
AcDbRotatedDimension
1001
ACAD
1000
DSTYLE
1002
{
1070
   270
1070
     2
1070
     6
1000
EX_NORM
1070
     7
1000
EX_NORM
1070
    41
1040
30.0
1070
    42
1040
6.99999988079071
1070
    44
1040
10.0
1070
    73
1070
     0
1070
    74
1070
     0
1070
    75
1070
     0
1070
    76
1070
     0
1070
    77
1070
     1
1070
    78
1070
     0
1070
   140
1040
40.0
1070
   147
1040
0.0
1070
   173
1070
     1
1070
   176
1070
     3
1070
   177
1070
     3
1070
   178
1070
     2
1070
   271
1070
     0
1070
   277
1070
     2
1070
   279
1070
     2
1070
   280
1070
     2
1070
   287
1070
     5
1070
   340
1005
251
1002
}
  0
DIMENSION
  5
2C0
330
1F
100
AcDbEntity
  8
寸法
  6
CONTINUOUS
 62
     3
100
AcDbDimension
  2
*D23
 10
1305.0
 20
1174.999999999999
 30
0.0
 11
1281.500000059604
 21
834.9999999999991
 31
0.0
 70
   160
  1
※<>
  3
ISO-25
100
AcDbAlignedDimension
 13
1120.5
 23
494.9999999999991
 33
0.0
 14
963.5
 24
1174.999999999999
 34
0.0
 50
90.0
100
AcDbRotatedDimension
1001
ACAD
1000
DSTYLE
1002
{
1070
   270
1070
     2
1070
     6
1000
EX_NORM
1070
     7
1000
EX_NORM
1070
    41
1040
30.0
1070
    42
1040
6.99999988079071
1070
    44
1040
10.0
1070
    73
1070
     0
1070
    74
1070
     0
1070
    75
1070
     0
1070
    76
1070
     0
1070
    77
1070
     1
1070
    78
1070
     0
1070
   140
1040
40.0
1070
   147
1040
0.0
1070
   173
1070
     1
1070
   176
1070
     3
1070
   177
1070
     3
1070
   178
1070
     2
1070
   271
1070
     0
1070
   277
1070
     2
1070
   279
1070
     2
1070
   280
1070
     0
1070
   287
1070
     5
1070
   340
1005
251
1002
}
  0
DIMENSION
  5
2CD
330
1F
100
AcDbEntity
  8
寸法
  6
CONTINUOUS
 62
     3
100
AcDbDimension
  2
*D24
 10
1365.0
 20
1624.999999999999
 30
0.0
 11
1341.500000059604
 21
1059.999999999999
 31
0.0
 70
   160
  3
ISO-25
100
AcDbAlignedDimension
 13
1120.5
 23
494.9999999999991
 33
0.0
 14
1120.5
 24
1624.999999999999
 34
0.0
 50
90.0
100
AcDbRotatedDimension
1001
ACAD
1000
DSTYLE
1002
{
1070
   270
1070
     2
1070
     6
1000
EX_NORM
1070
     7
1000
EX_NORM
1070
    41
1040
30.0
1070
    42
1040
6.99999988079071
1070
    44
1040
10.0
1070
    73
1070
     0
1070
    74
1070
     0
1070
    75
1070
     0
1070
    76
1070
     0
1070
    77
1070
     1
1070
    78
1070
     0
1070
   140
1040
40.0
1070
   147
1040
0.0
1070
   173
1070
     1
1070
   176
1070
     3
1070
   177
1070
     3
1070
   178
1070
     2
1070
   271
1070
     0
1070
   277
1070
     2
1070
   279
1070
     2
1070
   280
1070
     0
1070
   287
1070
     5
1070
   340
1005
251
1002
}
  0
TEXT
  5
2DA
330
1F
100
AcDbEntity
  8
寸法
  6
CONTINUOUS
 62
     2
100
AcDbText
 10
646.0
 20
422.4999999403944
 30
0.0
 40
40.0
  1
防水テープ
 41
1.013793103448276
  7
EXCADSTD
 72
     5
 11
814.0
 21
422.4999999403944
 31
0.0
100
AcDbText
  0
LEADER
  5
2DB
330
1F
100
AcDbEntity
  8
寸法
  6
CONTINUOUS
 62
     3
100
AcDbLeader
  3
ISO-25
 76
     3
 10
602.0
 20
494.9999999999991
 30
0.0
 10
641.0
 20
418.9999999999991
 30
0.0
 10
818.0
 20
418.9999999999991
 30
0.0
1001
ACAD
1000
DSTYLE
1002
{
1070
     5
1000
EX_NORM
1070
    41
1040
30.0
1070
   341
1005
4C
1002
}
  0
TEXT
  5
2DC
330
1F
100
AcDbEntity
  8
寸法
  6
CONTINUOUS
 62
     2
100
AcDbText
 10
1229.460863882905
 20
693.8483772939489
 30
0.0
 40
40.0
  1
電源コード
 50
90.0
 41
1.013793103448276
  7
EXCADSTD
 72
     5
 11
1229.460863882905
 21
861.8483772939489
 31
0.0
100
AcDbText
  0
LEADER
  5
2DD
330
1F
100
AcDbEntity
  8
寸法
  6
CONTINUOUS
 62
     3
100
AcDbLeader
  3
ISO-25
 76
     3
 10
1177.9692962285
 20
628.8524883671889
 30
0.0
 10
1232.9608638233
 20
688.8483772939489
 30
0.0
 10
1232.9608638233
 20
858.8483772939489
 30
0.0
1001
ACAD
1000
DSTYLE
1002
{
1070
     5
1000
EX_NORM
1070
    41
1040
30.0
1070
   341
1005
4C
1002
}
  0
DIMENSION
  5
2DE
330
1F
100
AcDbEntity
  8
寸法
  6
CONTINUOUS
 62
     3
100
AcDbDimension
  2
*D25
 10
1780.5
 20
544.9999999999991
 30
0.0
 11
1757.000000059604
 21
429.9999999999986
 31
0.0
 70
   160
  3
ISO-25
100
AcDbAlignedDimension
 13
1700.5
 23
494.9999999999991
 33
0.0
 14
1733.0
 24
544.9999999999991
 34
0.0
 50
90.0
100
AcDbRotatedDimension
1001
ACAD
1000
DSTYLE
1002
{
1070
   270
1070
     2
1070
     6
1000
EX_NORM
1070
     7
1000
EX_NORM
1070
    41
1040
30.0
1070
    42
1040
6.99999988079071
1070
    44
1040
10.0
1070
    73
1070
     0
1070
    74
1070
     0
1070
    75
1070
     0
1070
    76
1070
     0
1070
    77
1070
     1
1070
    78
1070
     0
1070
   140
1040
40.0
1070
   147
1040
0.0
1070
   173
1070
     1
1070
   176
1070
     3
1070
   177
1070
     3
1070
   178
1070
     2
1070
   271
1070
     0
1070
   277
1070
     2
1070
   279
1070
     2
1070
   280
1070
     1
1070
   287
1070
     5
1070
   340
1005
251
1002
}
  0
DIMENSION
  5
2ED
330
1F
100
AcDbEntity
  8
寸法
  6
CONTINUOUS
 62
     3
100
AcDbDimension
  2
*D26
 10
1780.5
 20
944.9999999999991
 30
0.0
 11
1757.000000059604
 21
744.9999999999991
 31
0.0
 70
   160
  3
ISO-25
100
AcDbAlignedDimension
 13
1733.0
 23
544.9999999999991
 33
0.0
 14
1733.0
 24
944.9999999999991
 34
0.0
 50
90.0
100
AcDbRotatedDimension
1001
ACAD
1000
DSTYLE
1002
{
1070
   270
1070
     2
1070
     6
1000
EX_NORM
1070
     7
1000
EX_NORM
1070
    41
1040
30.0
1070
    42
1040
6.99999988079071
1070
    44
1040
10.0
1070
    73
1070
     0
1070
    74
1070
     0
1070
    75
1070
     0
1070
    76
1070
     0
1070
    77
1070
     1
1070
    78
1070
     0
1070
   140
1040
40.0
1070
   147
1040
0.0
1070
   173
1070
     1
1070
   176
1070
     3
1070
   177
1070
     3
1070
   178
1070
     2
1070
   271
1070
     0
1070
   277
1070
     2
1070
   279
1070
     2
1070
   280
1070
     0
1070
   287
1070
     5
1070
   340
1005
251
1002
}
  0
DIMENSION
  5
2FA
330
1F
100
AcDbEntity
  8
寸法
  6
CONTINUOUS
 62
     3
100
AcDbDimension
  2
*D27
 10
1780.5
 20
1444.999999999999
 30
0.0
 11
1757.000000059604
 21
1194.999999999999
 31
0.0
 70
   160
  3
ISO-25
100
AcDbAlignedDimension
 13
1733.0
 23
944.9999999999991
 33
0.0
 14
1733.0
 24
1444.999999999999
 34
0.0
 50
90.0
100
AcDbRotatedDimension
1001
ACAD
1000
DSTYLE
1002
{
1070
   270
1070
     2
1070
     6
1000
EX_NORM
1070
     7
1000
EX_NORM
1070
    41
1040
30.0
1070
    42
1040
6.99999988079071
1070
    44
1040
10.0
1070
    73
1070
     0
1070
    74
1070
     0
1070
    75
1070
     0
1070
    76
1070
     0
1070
    77
1070
     1
1070
    78
1070
     0
1070
   140
1040
40.0
1070
   147
1040
0.0
1070
   173
1070
     1
1070
   176
1070
     3
1070
   177
1070
     3
1070
   178
1070
     2
1070
   271
1070
     0
1070
   277
1070
     2
1070
   279
1070
     2
1070
   280
1070
     0
1070
   287
1070
     5
1070
   340
1005
251
1002
}
  0
TEXT
  5
307
330
1F
100
AcDbEntity
  8
寸法
  6
CONTINUOUS
 62
     2
100
AcDbText
 10
1751.0
 20
1503.500016629695
 30
0.0
 40
40.0
  1
取付ねじ
 41
1.034782608695652
  7
EXCADSTD
 72
     5
 11
1887.0
 21
1503.500016629695
 31
0.0
100
AcDbText
  0
LEADER
  5
308
330
1F
100
AcDbEntity
  8
寸法
  6
CONTINUOUS
 62
     3
100
AcDbLeader
  3
ISO-25
 76
     3
 10
1713.703842410001
 20
1446.187455851699
 30
0.0
 10
1746.0
 20
1500.0000166893
 30
0.0
 10
1883.0
 20
1500.0000166893
 30
0.0
1001
ACAD
1000
DSTYLE
1002
{
1070
     5
1000
EX_NORM
1070
    41
1040
30.0
1070
   341
1005
4C
1002
}
  0
DIMENSION
  5
309
330
1F
100
AcDbEntity
  8
寸法
  6
CONTINUOUS
 62
     3
100
AcDbDimension
  2
*D28
 10
1700.5
 20
844.9999999999991
 30
0.0
 11
1497.000000000001
 21
868.4999999403944
 31
0.0
 70
   160
  1
124
  3
ISO-25
100
AcDbAlignedDimension
 13
1577.000000000001
 23
759.9999999999991
 33
0.0
 14
1700.5
 24
770.9999999999991
 34
0.0
100
AcDbRotatedDimension
1001
ACAD
1000
DSTYLE
1002
{
1070
   270
1070
     2
1070
     6
1000
EX_NORM
1070
     7
1000
EX_NORM
1070
    41
1040
30.0
1070
    42
1040
6.99999988079071
1070
    44
1040
10.0
1070
    73
1070
     0
1070
    74
1070
     0
1070
    75
1070
     0
1070
    76
1070
     1
1070
    77
1070
     1
1070
    78
1070
     8
1070
   140
1040
40.0
1070
   147
1040
0.0
1070
   173
1070
     1
1070
   176
1070
     3
1070
   177
1070
     3
1070
   178
1070
     2
1070
   271
1070
     2
1070
   277
1070
     2
1070
   279
1070
     2
1070
   280
1070
     1
1070
   287
1070
     5
1070
   340
1005
251
1002
}
  0
ENDSEC
  0
SECTION
  2
OBJECTS
  0
DICTIONARY
  5
C
330
0
100
AcDbDictionary
  3
ACAD_GROUP
350
D
  3
ACAD_LAYOUT
350
1A
  3
ACAD_MATERIAL
350
3B
  3
ACAD_MLEADERSTYLE
350
337
  3
ACAD_MLINESTYLE
350
17
  3
ACAD_PLOTSETTINGS
350
19
  3
ACAD_VISUALSTYLE
350
2A
  3
ACDBHEADERROUNDTRIPXREC
350
315
  3
ACDBVARIABLEDICTIONARY
350
335
  0
DICTIONARY
  5
D
102
{ACAD_REACTORS
330
C
102
}
330
C
100
AcDbDictionary
  0
DICTIONARY
  5
1A
102
{ACAD_REACTORS
330
C
102
}
330
C
100
AcDbDictionary
  0
DICTIONARY
  5
3B
102
{ACAD_REACTORS
330
C
102
}
330
C
100
AcDbDictionary
  3
BYBLOCK
350
3D
  3
BYLAYER
350
3C
  3
GLOBAL
350
3E
  0
DICTIONARY
  5
337
102
{ACAD_REACTORS
330
C
102
}
330
C
100
AcDbDictionary
  0
DICTIONARY
  5
17
102
{ACAD_REACTORS
330
C
102
}
330
C
100
AcDbDictionary
  3
STANDARD
350
18
  0
DICTIONARY
  5
19
102
{ACAD_REACTORS
330
C
102
}
330
C
100
AcDbDictionary
  0
DICTIONARY
  5
2A
102
{ACAD_REACTORS
330
C
102
}
330
C
100
AcDbDictionary
  3
2DWIREFRAME
350
2F
  3
3D_HIDDEN
350
31
  3
3DWIREFRAME
350
30
  3
BASIC
350
32
  3
BRIGHTEN
350
36
  3
COLORCHANGE
350
3A
  3
CONCEPTUAL
350
34
  3
DIM
350
35
  3
FACEPATTERN
350
39
  3
FLAT
350
2B
  3
FLATWITHEDGES
350
2C
  3
GOURAUD
350
2D
  3
GOURAUDWITHEDGES
350
2E
  3
LINEPATTERN
350
38
  3
REALISTIC
350
33
  3
THICKEN
350
37
  0
DICTIONARY
  5
315
102
{ACAD_REACTORS
330
C
102
}
330
C
100
AcDbDictionary
  3
CEPSNTYPE
350
31E
  3
DIMSTYLEDATA
350
334
  3
FINGERPRINTGUID
350
31F
  3
HYPERLINKBASE
350
318
  3
INSUNITS
350
31D
  3
LAYOUTDICT
350
31A
  3
LWETCUNION
350
31C
  3
PLOTSETDICT
350
31B
  3
PSVPSCALE
350
321
  3
PUCSBASE
350
324
  3
PUCSORGBACK
350
32A
  3
PUCSORGBOTTOM
350
326
  3
PUCSORGFRONT
350
329
  3
PUCSORGLEFT
350
327
  3
PUCSORGRIGHT
350
328
  3
PUCSORGTOP
350
325
  3
PUCSORTHOREF
350
322
  3
PUCSORTHOVIEW
350
323
  3
STYLESHEET
350
319
  3
TSTACKALIGN
350
316
  3
TSTACKSIZE
350
317
  3
UCSBASE
350
32D
  3
UCSORGBACK
350
333
  3
UCSORGBOTTOM
350
32F
  3
UCSORGFRONT
350
332
  3
UCSORGLEFT
350
330
  3
UCSORGRIGHT
350
331
  3
UCSORGTOP
350
32E
  3
UCSORTHOREF
350
32B
  3
UCSORTHOVIEW
350
32C
  3
VERSIONGUID
350
320
  0
DICTIONARY
  5
335
102
{ACAD_REACTORS
330
C
102
}
330
C
100
AcDbDictionary
  3
DIMASSOC
350
33A
  3
HIDETEXT
350
33B
  3
PSOLHEIGHT
350
339
  3
PSOLWIDTH
350
338
  0
MATERIAL
  5
3D
102
{ACAD_REACTORS
330
3B
102
}
102
{ACAD_XDICTIONARY
360
33E
102
}
330
3B
100
AcDbMaterial
  1
ByBlock
  0
MATERIAL
  5
3C
102
{ACAD_REACTORS
330
3B
102
}
102
{ACAD_XDICTIONARY
360
33C
102
}
330
3B
100
AcDbMaterial
  1
ByLayer
  0
MATERIAL
  5
3E
102
{ACAD_REACTORS
330
3B
102
}
102
{ACAD_XDICTIONARY
360
340
102
}
330
3B
100
AcDbMaterial
  1
Global
  0
MLINESTYLE
  5
18
102
{ACAD_REACTORS
330
17
102
}
330
17
100
AcDbMlineStyle
  2
Standard
 70
     0
  3

 62
   256
 51
90.0
 52
90.0
 71
     2
 49
0.5
 62
   256
  6
BYLAYER
 49
-0.5
 62
   256
  6
BYLAYER
  0
ACAD_PROXY_OBJECT
  5
2F
102
{ACAD_REACTORS
330
2A
102
}
330
2A
100
AcDbProxyObject
 90
      499
 91
      501
 93
      436
310
42CC9915DA5C99599C985B595049028333333333333E3BF0000000000000FB0107901411070040501600405405064090741402480A0340
1001
ACAD
1000
AcDbSavedByObjectVersion
1070
     0
  0
ACAD_PROXY_OBJECT
  5
31
102
{ACAD_REACTORS
330
2A
102
}
330
2A
100
AcDbProxyObject
 90
      499
 91
      501
 93
      500
310
424CD108121A5919195B90640502408333333333333E3BF0000000000000FB01079024090700405020000000000001110200405405064090740C02480A0340
1001
ACAD
1000
AcDbSavedByObjectVersion
1070
     0
  0
ACAD_PROXY_OBJECT
  5
30
102
{ACAD_REACTORS
330
2A
102
}
330
2A
100
AcDbProxyObject
 90
      499
 91
      501
 93
      436
310
42CCD915DA5C99599C985B595059028333333333333E3BF0000000000000FB0107901411070040501600405405064090741402480A0340
1001
ACAD
1000
AcDbSavedByObjectVersion
1070
     0
  0
ACAD_PROXY_OBJECT
  5
32
102
{ACAD_REACTORS
330
2A
102
}
330
2A
100
AcDbProxyObject
 90
      499
 91
      501
 93
      388
310
4150985CDA58D07406404333333333333E3BF0000000000000FB0107A41107004050150841D405064090741402480A0350
1001
ACAD
1000
AcDbSavedByObjectVersion
1070
     0
  0
ACAD_PROXY_OBJECT
  5
36
102
{ACAD_REACTORS
330
2A
102
}
330
2A
100
AcDbProxyObject
 90
      499
 91
      501
 93
      428
310
42109C9A59DA1D195B90C409028333333333333E3BF0000000000000FB010790141107004050150841D405064090741402480A029950
1001
ACAD
1000
AcDbSavedByObjectVersion
1070
     0
  0
ACAD_PROXY_OBJECT
  5
3A
102
{ACAD_REACTORS
330
2A
102
}
330
2A
100
AcDbProxyObject
 90
      499
 91
      501
 93
      452
310
42D0DBDB1BDC90DA185B99D95104090240C333333333333E3BF0000000000000FB0108901411070040501508421405064090741402480A0350
1001
ACAD
1000
AcDbSavedByObjectVersion
1070
     0
  0
ACAD_PROXY_OBJECT
  5
34
102
{ACAD_REACTORS
330
2A
102
}
330
2A
100
AcDbProxyObject
 90
      499
 91
      501
 93
      500
310
4290DBDB98D95C1D1D585B10940D028333333333333E3BF0000000000000FB0107902409070040501000000000000111010841D405064090740C02480A0340
1001
ACAD
1000
AcDbSavedByObjectVersion
1070
     0
  0
ACAD_PROXY_OBJECT
  5
35
102
{ACAD_REACTORS
330
2A
102
}
330
2A
100
AcDbProxyObject
 90
      499
 91
      501
 93
      412
310
40D11A5B50B409028333333333333E3BF0000000000000FB010790141107004050150841D405064090741402480A02677FFFFFD0
1001
ACAD
1000
AcDbSavedByObjectVersion
1070
     0
  0
ACAD_PROXY_OBJECT
  5
39
102
{ACAD_REACTORS
330
2A
102
}
330
2A
100
AcDbProxyObject
 90
      499
 91
      501
 93
      444
310
42D19858D95C185D1D195C9B90F409028333333333333E3BF0000000000000FB010790141107004050150841D405064090741402480A0350
1001
ACAD
1000
AcDbSavedByObjectVersion
1070
     0
  0
ACAD_PROXY_OBJECT
  5
2B
102
{ACAD_REACTORS
330
2A
102
}
330
2A
100
AcDbProxyObject
 90
      499
 91
      501
 93
      388
310
41119B185D240901404333333333333E3BF0000000000000F9010740A41107004050150841D405064090741402480A1B50
1001
ACAD
1000
AcDbSavedByObjectVersion
1070
     0
  0
ACAD_PROXY_OBJECT
  5
2C
102
{ACAD_REACTORS
330
2A
102
}
330
2A
100
AcDbProxyObject
 90
      499
 91
      501
 93
      476
310
43519B185D15DA5D1A115919D95CD0140901404333333333333E3BF0000000000000F9010740901411070040501600405405064090741402480A1B50
1001
ACAD
1000
AcDbSavedByObjectVersion
1070
     0
  0
ACAD_PROXY_OBJECT
  5
2D
102
{ACAD_REACTORS
330
2A
102
}
330
2A
100
AcDbProxyObject
 90
      499
 91
      501
 93
      412
310
41D1DBDD5C985D5910240902404333333333333E3BF0000000000000F9010740A411070040501641D405064090741402480A1B50
1001
ACAD
1000
AcDbSavedByObjectVersion
1070
     0
  0
ACAD_PROXY_OBJECT
  5
2E
102
{ACAD_REACTORS
330
2A
102
}
330
2A
100
AcDbProxyObject
 90
      499
 91
      501
 93
      500
310
4411DBDD5C985D5915DA5D1A115919D95CD0340902404333333333333E3BF0000000000000F9010740901411070040501600405405064090741402480A1B50
1001
ACAD
1000
AcDbSavedByObjectVersion
1070
     0
  0
ACAD_PROXY_OBJECT
  5
38
102
{ACAD_REACTORS
330
2A
102
}
330
2A
100
AcDbProxyObject
 90
      499
 91
      501
 93
      444
310
42D31A5B995C185D1D195C9B90E409028333333333333E3BF0000000000000FB010790141107004050750841D405064090741402483A0350
1001
ACAD
1000
AcDbSavedByObjectVersion
1070
     0
  0
ACAD_PROXY_OBJECT
  5
33
102
{ACAD_REACTORS
330
2A
102
}
330
2A
100
AcDbProxyObject
 90
      499
 91
      501
 93
      420
310
425499585B1A5CDD1A58D08409028333333333333E3BF0000000000000FB01079019070040501508421405064090741402480A1B40
1001
ACAD
1000
AcDbSavedByObjectVersion
1070
     0
  0
ACAD_PROXY_OBJECT
  5
37
102
{ACAD_REACTORS
330
2A
102
}
330
2A
100
AcDbProxyObject
 90
      499
 91
      501
 93
      412
310
41D51A1A58DAD95B90D409028333333333333E3BF0000000000000FB010790141107004050150C41D405064090741402480A0350
1001
ACAD
1000
AcDbSavedByObjectVersion
1070
     0
  0
XRECORD
  5
31E
102
{ACAD_REACTORS
330
315
102
}
330
315
100
AcDbXrecord
 90
        0
  0
XRECORD
  5
334
102
{ACAD_REACTORS
330
315
102
}
330
315
100
AcDbXrecord
1000
DSTYLE
1002
{
1070
   340
340
11
1002
}
  0
XRECORD
  5
31F
102
{ACAD_REACTORS
330
315
102
}
330
315
100
AcDbXrecord
  1
{CE17C9D3-65DB-460E-BABB-0C7D2BB92856}
  0
XRECORD
  5
318
102
{ACAD_REACTORS
330
315
102
}
330
315
100
AcDbXrecord
  1

  0
XRECORD
  5
31D
102
{ACAD_REACTORS
330
315
102
}
330
315
100
AcDbXrecord
 90
        4
  0
XRECORD
  5
31A
102
{ACAD_REACTORS
330
315
102
}
330
315
100
AcDbXrecord
340
1A
  0
XRECORD
  5
31C
102
{ACAD_REACTORS
330
315
102
}
330
315
100
AcDbXrecord
 90
    10781
  0
XRECORD
  5
31B
102
{ACAD_REACTORS
330
315
102
}
330
315
100
AcDbXrecord
340
19
  0
XRECORD
  5
321
102
{ACAD_REACTORS
330
315
102
}
330
315
100
AcDbXrecord
 40
0.0
  0
XRECORD
  5
324
102
{ACAD_REACTORS
330
315
102
}
330
315
100
AcDbXrecord
340
0
  0
XRECORD
  5
32A
102
{ACAD_REACTORS
330
315
102
}
330
315
100
AcDbXrecord
 10
0.0
 20
0.0
 30
0.0
  0
XRECORD
  5
326
102
{ACAD_REACTORS
330
315
102
}
330
315
100
AcDbXrecord
 10
0.0
 20
0.0
 30
0.0
  0
XRECORD
  5
329
102
{ACAD_REACTORS
330
315
102
}
330
315
100
AcDbXrecord
 10
0.0
 20
0.0
 30
0.0
  0
XRECORD
  5
327
102
{ACAD_REACTORS
330
315
102
}
330
315
100
AcDbXrecord
 10
0.0
 20
0.0
 30
0.0
  0
XRECORD
  5
328
102
{ACAD_REACTORS
330
315
102
}
330
315
100
AcDbXrecord
 10
0.0
 20
0.0
 30
0.0
  0
XRECORD
  5
325
102
{ACAD_REACTORS
330
315
102
}
330
315
100
AcDbXrecord
 10
0.0
 20
0.0
 30
0.0
  0
XRECORD
  5
322
102
{ACAD_REACTORS
330
315
102
}
330
315
100
AcDbXrecord
340
0
  0
XRECORD
  5
323
102
{ACAD_REACTORS
330
315
102
}
330
315
100
AcDbXrecord
 70
     0
  0
XRECORD
  5
319
102
{ACAD_REACTORS
330
315
102
}
330
315
100
AcDbXrecord
  1

  0
XRECORD
  5
316
102
{ACAD_REACTORS
330
315
102
}
330
315
100
AcDbXrecord
 90
        1
  0
XRECORD
  5
317
102
{ACAD_REACTORS
330
315
102
}
330
315
100
AcDbXrecord
 90
       70
  0
XRECORD
  5
32D
102
{ACAD_REACTORS
330
315
102
}
330
315
100
AcDbXrecord
340
0
  0
XRECORD
  5
333
102
{ACAD_REACTORS
330
315
102
}
330
315
100
AcDbXrecord
 10
0.0
 20
0.0
 30
0.0
  0
XRECORD
  5
32F
102
{ACAD_REACTORS
330
315
102
}
330
315
100
AcDbXrecord
 10
0.0
 20
0.0
 30
0.0
  0
XRECORD
  5
332
102
{ACAD_REACTORS
330
315
102
}
330
315
100
AcDbXrecord
 10
0.0
 20
0.0
 30
0.0
  0
XRECORD
  5
330
102
{ACAD_REACTORS
330
315
102
}
330
315
100
AcDbXrecord
 10
0.0
 20
0.0
 30
0.0
  0
XRECORD
  5
331
102
{ACAD_REACTORS
330
315
102
}
330
315
100
AcDbXrecord
 10
0.0
 20
0.0
 30
0.0
  0
XRECORD
  5
32E
102
{ACAD_REACTORS
330
315
102
}
330
315
100
AcDbXrecord
 10
0.0
 20
0.0
 30
0.0
  0
XRECORD
  5
32B
102
{ACAD_REACTORS
330
315
102
}
330
315
100
AcDbXrecord
340
0
  0
XRECORD
  5
32C
102
{ACAD_REACTORS
330
315
102
}
330
315
100
AcDbXrecord
 70
     0
  0
XRECORD
  5
320
102
{ACAD_REACTORS
330
315
102
}
330
315
100
AcDbXrecord
  1
{FAEB1C32-E019-11D5-929B-00C0DF256EC4}
  0
DICTIONARYVAR
  5
33A
102
{ACAD_REACTORS
330
335
102
}
330
335
100
DictionaryVariables
280
     0
  1
2
  0
DICTIONARYVAR
  5
33B
102
{ACAD_REACTORS
330
335
102
}
330
335
100
DictionaryVariables
280
     0
  1
1
  0
DICTIONARYVAR
  5
339
102
{ACAD_REACTORS
330
335
102
}
330
335
100
DictionaryVariables
280
     0
  1
80.000000
  0
DICTIONARYVAR
  5
338
102
{ACAD_REACTORS
330
335
102
}
330
335
100
DictionaryVariables
280
     0
  1
5.000000
  0
DICTIONARY
  5
33E
330
3D
100
AcDbDictionary
280
     1
  3
ACAD_XREC_ROUNDTRIP
360
33F
  0
DICTIONARY
  5
33C
330
3C
100
AcDbDictionary
280
     1
  3
ACAD_XREC_ROUNDTRIP
360
33D
  0
DICTIONARY
  5
340
330
3E
100
AcDbDictionary
280
     1
  3
ACAD_XREC_ROUNDTRIP
360
341
  0
XRECORD
  5
33F
102
{ACAD_REACTORS
330
33E
102
}
330
33E
100
AcDbXrecord
102
MATERIAL
148
0.0
149
0.0
149
0.0
 93
        0
 94
      127
282
     0
 72
     1
 77
     1
171
     1
175
     1
179
     1
273
     0
  0
XRECORD
  5
33D
102
{ACAD_REACTORS
330
33C
102
}
330
33C
100
AcDbXrecord
102
MATERIAL
148
0.0
149
0.0
149
0.0
 93
        0
 94
      127
282
     0
 72
     1
 77
     1
171
     1
175
     1
179
     1
273
     0
  0
XRECORD
  5
341
102
{ACAD_REACTORS
330
340
102
}
330
340
100
AcDbXrecord
102
MATERIAL
148
0.0
149
0.0
149
0.0
 93
        0
 94
      127
282
     0
 72
     1
 77
     1
171
     1
175
     1
179
     1
273
     0
  0
ENDSEC
  0
EOF
