  0
SECTION
  2
HEADER
  9
$ACADVER
  1
AC1014
  9
$ACADMAINTVER
 70
     9
  9
$DWGCODEPAGE
  3
ANSI_932
  9
$INSBASE
 10
0.0
 20
0.0
 30
0.0
  9
$EXTMIN
 10
0.0000000000000092
 20
12.5
 30
0.0
  9
$EXTMAX
 10
199.0
 20
287.5
 30
0.0
  9
$LIMMIN
 10
0.0
 20
0.0
  9
$LIMMAX
 10
210.0
 20
297.0
  9
$ORTHOMODE
 70
     0
  9
$REGENMODE
 70
     1
  9
$FILLMODE
 70
     1
  9
$QTEXTMODE
 70
     0
  9
$MIRRTEXT
 70
     1
  9
$DRAGMODE
 70
     2
  9
$LTSCALE
 40
1.0
  9
$OSMODE
 70
    37
  9
$ATTMODE
 70
     1
  9
$TEXTSIZE
 40
2.5
  9
$TRACEWID
 40
1.0
  9
$TEXTSTYLE
  7
STANDARD
  9
$CLAYER
  8
化粧台
  9
$CELTYPE
  6
BYLAYER
  9
$CECOLOR
 62
   256
  9
$CELTSCALE
 40
1.0
  9
$DELOBJ
 70
     1
  9
$DISPSILH
 70
     0
  9
$DIMSCALE
 40
1.0
  9
$DIMASZ
 40
2.5
  9
$DIMEXO
 40
0.625
  9
$DIMDLI
 40
3.75
  9
$DIMRND
 40
0.0
  9
$DIMDLE
 40
0.0
  9
$DIMEXE
 40
1.25
  9
$DIMTP
 40
0.0
  9
$DIMTM
 40
0.0
  9
$DIMTXT
 40
2.5
  9
$DIMCEN
 40
2.5
  9
$DIMTSZ
 40
0.0
  9
$DIMTOL
 70
     0
  9
$DIMLIM
 70
     0
  9
$DIMTIH
 70
     0
  9
$DIMTOH
 70
     0
  9
$DIMSE1
 70
     0
  9
$DIMSE2
 70
     0
  9
$DIMTAD
 70
     1
  9
$DIMZIN
 70
     8
  9
$DIMBLK
  1

  9
$DIMASO
 70
     1
  9
$DIMSHO
 70
     1
  9
$DIMPOST
  1

  9
$DIMAPOST
  1

  9
$DIMALT
 70
     0
  9
$DIMALTD
 70
     3
  9
$DIMALTF
 40
0.03937007874016
  9
$DIMLFAC
 40
1.0
  9
$DIMTOFL
 70
     1
  9
$DIMTVP
 40
0.0
  9
$DIMTIX
 70
     0
  9
$DIMSOXD
 70
     0
  9
$DIMSAH
 70
     0
  9
$DIMBLK1
  1

  9
$DIMBLK2
  1

  9
$DIMSTYLE
  2
ISO-25
  9
$DIMCLRD
 70
     0
  9
$DIMCLRE
 70
     0
  9
$DIMCLRT
 70
     0
  9
$DIMTFAC
 40
1.0
  9
$DIMGAP
 40
0.625
  9
$DIMJUST
 70
     0
  9
$DIMSD1
 70
     0
  9
$DIMSD2
 70
     0
  9
$DIMTOLJ
 70
     0
  9
$DIMTZIN
 70
     8
  9
$DIMALTZ
 70
     0
  9
$DIMALTTZ
 70
     0
  9
$DIMFIT
 70
     3
  9
$DIMUPT
 70
     0
  9
$DIMUNIT
 70
     2
  9
$DIMDEC
 70
     2
  9
$DIMTDEC
 70
     2
  9
$DIMALTU
 70
     2
  9
$DIMALTTD
 70
     3
  9
$DIMTXSTY
  7
STANDARD
  9
$DIMAUNIT
 70
     0
  9
$LUNITS
 70
     2
  9
$LUPREC
 70
     4
  9
$SKETCHINC
 40
1.0
  9
$FILLETRAD
 40
10.0
  9
$AUNITS
 70
     0
  9
$AUPREC
 70
     0
  9
$MENU
  1
.
  9
$ELEVATION
 40
0.0
  9
$PELEVATION
 40
0.0
  9
$THICKNESS
 40
0.0
  9
$LIMCHECK
 70
     0
  9
$CHAMFERA
 40
10.0
  9
$CHAMFERB
 40
10.0
  9
$CHAMFERC
 40
20.0
  9
$CHAMFERD
 40
0.0
  9
$SKPOLY
 70
     0
  9
$TDCREATE
 40
2457329.597853588
  9
$TDUPDATE
 40
2457329.597854132
  9
$TDINDWG
 40
0.0000000116
  9
$TDUSRTIMER
 40
0.0000000116
  9
$USRTIMER
 70
     1
  9
$ANGBASE
 50
0.0
  9
$ANGDIR
 70
     0
  9
$PDMODE
 70
     0
  9
$PDSIZE
 40
0.0
  9
$PLINEWID
 40
0.0
  9
$COORDS
 70
     1
  9
$SPLFRAME
 70
     0
  9
$SPLINETYPE
 70
     6
  9
$SPLINESEGS
 70
     8
  9
$ATTDIA
 70
     0
  9
$ATTREQ
 70
     1
  9
$HANDLING
 70
     1
  9
$HANDSEED
  5
5D7
  9
$SURFTAB1
 70
     6
  9
$SURFTAB2
 70
     6
  9
$SURFTYPE
 70
     6
  9
$SURFU
 70
     6
  9
$SURFV
 70
     6
  9
$UCSNAME
  2

  9
$UCSORG
 10
0.0
 20
0.0
 30
0.0
  9
$UCSXDIR
 10
1.0
 20
0.0
 30
0.0
  9
$UCSYDIR
 10
0.0
 20
1.0
 30
0.0
  9
$PUCSNAME
  2

  9
$PUCSORG
 10
0.0
 20
0.0
 30
0.0
  9
$PUCSXDIR
 10
1.0
 20
0.0
 30
0.0
  9
$PUCSYDIR
 10
0.0
 20
1.0
 30
0.0
  9
$USERI1
 70
     0
  9
$USERI2
 70
     0
  9
$USERI3
 70
     0
  9
$USERI4
 70
     0
  9
$USERI5
 70
     0
  9
$USERR1
 40
0.0
  9
$USERR2
 40
0.0
  9
$USERR3
 40
0.0
  9
$USERR4
 40
0.0
  9
$USERR5
 40
0.0
  9
$WORLDVIEW
 70
     1
  9
$SHADEDGE
 70
     3
  9
$SHADEDIF
 70
    70
  9
$TILEMODE
 70
     1
  9
$MAXACTVP
 70
    64
  9
$PINSBASE
 10
0.0
 20
0.0
 30
0.0
  9
$PLIMCHECK
 70
     0
  9
$PEXTMIN
 10
1.000000000000000E+20
 20
1.000000000000000E+20
 30
1.000000000000000E+20
  9
$PEXTMAX
 10
-1.000000000000000E+20
 20
-1.000000000000000E+20
 30
-1.000000000000000E+20
  9
$PLIMMIN
 10
0.0
 20
0.0
  9
$PLIMMAX
 10
420.0
 20
297.0
  9
$UNITMODE
 70
     0
  9
$VISRETAIN
 70
     1
  9
$PLINEGEN
 70
     0
  9
$PSLTSCALE
 70
     1
  9
$TREEDEPTH
 70
  3020
  9
$PICKSTYLE
 70
     1
  9
$CMLSTYLE
  2
STANDARD
  9
$CMLJUST
 70
     0
  9
$CMLSCALE
 40
20.0
  9
$PROXYGRAPHICS
 70
     1
  9
$MEASUREMENT
 70
     1
  0
ENDSEC
  0
SECTION
  2
CLASSES
  0
CLASS
  1
ACDBDICTIONARYWDFLT
  2
AcDbDictionaryWithDefault
  3
ObjectDBX Classes
 90
        0
280
     0
281
     0
  0
CLASS
  1
VISUALSTYLE
  2
AcDbVisualStyle
  3
ObjectDBX Classes
 90
     4095
280
     0
281
     0
  0
CLASS
  1
MATERIAL
  2
AcDbMaterial
  3
ObjectDBX Classes
 90
     1153
280
     0
281
     0
  0
CLASS
  1
SUN
  2
AcDbSun
  3
SCENEOE
 90
     1024
280
     0
281
     0
  0
CLASS
  1
DICTIONARYVAR
  2
AcDbDictionaryVar
  3
ObjectDBX Classes
 90
        0
280
     0
281
     0
  0
CLASS
  1
XRECORD
  2
AcDbXrecord
  3
AutoCAD 2000
 90
        0
280
     0
281
     0
  0
CLASS
  1
LWPOLYLINE
  2
AcDbPolyline
  3
AutoCAD 2000
 90
        0
280
     0
281
     1
  0
CLASS
  1
HATCH
  2
AcDbHatch
  3
AutoCAD 2000
 90
        0
280
     0
281
     1
  0
CLASS
  1
ACDBPLACEHOLDER
  2
AcDbPlaceHolder
  3
ObjectDBX Classes
 90
        0
280
     0
281
     0
  0
CLASS
  1
LAYOUT
  2
AcDbLayout
  3
ObjectDBX Classes
 90
        0
280
     0
281
     0
  0
ENDSEC
  0
SECTION
  2
TABLES
  0
TABLE
  2
VPORT
  5
8
330
0
100
AcDbSymbolTable
 70
     1
  0
VPORT
  5
29
330
8
100
AcDbSymbolTableRecord
100
AcDbViewportTableRecord
  2
*ACTIVE
 70
     0
 10
0.0
 20
0.0
 11
1.0
 21
1.0
 12
1492.5
 22
2250.0
 13
0.0
 23
0.0
 14
10.0
 24
10.0
 15
10.0
 25
10.0
 16
0.0
 26
0.0
 36
1.0
 17
0.0
 27
0.0
 37
0.0
 40
4125.0
 41
0.7236363636363637
 42
50.0
 43
0.0
 44
0.0
 50
0.0
 51
0.0
 71
     0
 72
  1000
 73
     1
 74
     3
 75
     0
 76
     0
 77
     0
 78
     0
  0
ENDTAB
  0
TABLE
  2
LTYPE
  5
5
330
0
100
AcDbSymbolTable
 70
     7
  0
LTYPE
  5
14
330
5
100
AcDbSymbolTableRecord
100
AcDbLinetypeTableRecord
  2
BYBLOCK
 70
     0
  3

 72
    65
 73
     0
 40
0.0
  0
LTYPE
  5
15
330
5
100
AcDbSymbolTableRecord
100
AcDbLinetypeTableRecord
  2
BYLAYER
 70
     0
  3

 72
    65
 73
     0
 40
0.0
  0
LTYPE
  5
16
330
5
100
AcDbSymbolTableRecord
100
AcDbLinetypeTableRecord
  2
CONTINUOUS
 70
     0
  3
Solid line
 72
    65
 73
     0
 40
0.0
  0
LTYPE
  5
40
330
5
100
AcDbSymbolTableRecord
100
AcDbLinetypeTableRecord
  2
EXLTYPE1
 70
     0
  3
破線
 72
    65
 73
     2
 40
3.0
 49
2.0
 74
     0
 49
-1.0
 74
     0
  0
LTYPE
  5
41
330
5
100
AcDbSymbolTableRecord
100
AcDbLinetypeTableRecord
  2
EXLTYPE2
 70
     0
  3
点線
 72
    65
 73
     2
 40
2.0
 49
1.0
 74
     0
 49
-1.0
 74
     0
  0
LTYPE
  5
42
330
5
100
AcDbSymbolTableRecord
100
AcDbLinetypeTableRecord
  2
EXLTYPE3
 70
     0
  3
一点鎖線
 72
    65
 73
     4
 40
10.0
 49
7.0
 74
     0
 49
-1.0
 74
     0
 49
1.0
 74
     0
 49
-1.0
 74
     0
  0
LTYPE
  5
43
330
5
100
AcDbSymbolTableRecord
100
AcDbLinetypeTableRecord
  2
EXLTYPE4
 70
     0
  3
二点鎖線
 72
    65
 73
     6
 40
12.0
 49
7.0
 74
     0
 49
-1.0
 74
     0
 49
1.0
 74
     0
 49
-1.0
 74
     0
 49
1.0
 74
     0
 49
-1.0
 74
     0
  0
LTYPE
  5
44
330
5
100
AcDbSymbolTableRecord
100
AcDbLinetypeTableRecord
  2
EXLTYPE5
 70
     0
  3
三点鎖線
 72
    65
 73
     8
 40
37.0
 49
30.0
 74
     0
 49
-1.0
 74
     0
 49
1.0
 74
     0
 49
-1.0
 74
     0
 49
1.0
 74
     0
 49
-1.0
 74
     0
 49
1.0
 74
     0
 49
-1.0
 74
     0
  0
LTYPE
  5
45
330
5
100
AcDbSymbolTableRecord
100
AcDbLinetypeTableRecord
  2
EXLTYPE6
 70
     0
  3
四点鎖線
 72
    65
 73
    10
 40
39.0
 49
30.0
 74
     0
 49
-1.0
 74
     0
 49
1.0
 74
     0
 49
-1.0
 74
     0
 49
1.0
 74
     0
 49
-1.0
 74
     0
 49
1.0
 74
     0
 49
-1.0
 74
     0
 49
1.0
 74
     0
 49
-1.0
 74
     0
  0
ENDTAB
  0
TABLE
  2
LAYER
  5
2
330
0
100
AcDbSymbolTable
 70
     7
  0
LAYER
  5
10
330
2
100
AcDbSymbolTableRecord
100
AcDbLayerTableRecord
  2
0
 70
     0
 62
     7
  6
CONTINUOUS
  0
LAYER
  5
48
330
2
100
AcDbSymbolTableRecord
100
AcDbLayerTableRecord
  2
枠_表
 70
     0
 62
     7
  6
CONTINUOUS
  0
LAYER
  5
49
330
2
100
AcDbSymbolTableRecord
100
AcDbLayerTableRecord
  2
化粧台
 70
     0
 62
     7
  6
CONTINUOUS
  0
LAYER
  5
4A
330
2
100
AcDbSymbolTableRecord
100
AcDbLayerTableRecord
  2
鏡台
 70
     0
 62
     7
  6
CONTINUOUS
  0
LAYER
  5
4B
330
2
100
AcDbSymbolTableRecord
100
AcDbLayerTableRecord
  2
付属金具
 70
     0
 62
     7
  6
CONTINUOUS
  0
LAYER
  5
4C
330
2
100
AcDbSymbolTableRecord
100
AcDbLayerTableRecord
  2
寸法
 70
     0
 62
     7
  6
CONTINUOUS
  0
LAYER
  5
394
330
2
100
AcDbSymbolTableRecord
100
AcDbLayerTableRecord
  2
DEFPOINTS
 70
     0
 62
     7
  6
CONTINUOUS
  0
ENDTAB
  0
TABLE
  2
STYLE
  5
3
330
0
100
AcDbSymbolTable
 70
     6
  0
STYLE
  5
11
330
3
100
AcDbSymbolTableRecord
100
AcDbTextStyleTableRecord
  2
STANDARD
 70
     0
 40
0.0
 41
1.0
 50
0.0
 71
     0
 42
2.5
  3
monotxt
  4
extfont
  0
STYLE
  5
46
330
3
100
AcDbSymbolTableRecord
100
AcDbTextStyleTableRecord
  2
EXCADSTD
 70
     0
 40
0.0
 41
1.0
 50
0.0
 71
     0
 42
0.2
  3
monotxt
  4
extfont
  0
STYLE
  5
47
330
3
100
AcDbSymbolTableRecord
100
AcDbTextStyleTableRecord
  2
EXCADVERT
 70
     4
 40
0.0
 41
1.0
 50
0.0
 71
     0
 42
0.286885
  3
monotxt
  4
extfont
  0
STYLE
  5
D5
330
3
100
AcDbSymbolTableRecord
100
AcDbTextStyleTableRecord
  2
EXCADTTF1
 70
     0
 40
0.0
 41
1.0
 50
0.0
 71
     0
 42
0.2
  3
MSGOTHIC.TTC
  4

1001
ACAD
1000
MS Gothic
1071
    32817
  0
STYLE
  5
392
330
3
100
AcDbSymbolTableRecord
100
AcDbTextStyleTableRecord
  2
EXCADDIM1
 70
     0
 40
0.0
 41
0.95
 50
0.0
 71
     0
 42
0.2
  3
monotxt
  4
extfont
  0
STYLE
  5
3A3
330
3
100
AcDbSymbolTableRecord
100
AcDbTextStyleTableRecord
  2
EXCADDIM2
 70
     0
 40
0.0
 41
0.84
 50
0.0
 71
     0
 42
0.2
  3
monotxt
  4
extfont
  0
ENDTAB
  0
TABLE
  2
VIEW
  5
6
330
0
100
AcDbSymbolTable
 70
     0
  0
ENDTAB
  0
TABLE
  2
UCS
  5
7
330
0
100
AcDbSymbolTable
 70
     0
  0
ENDTAB
  0
TABLE
  2
APPID
  5
9
330
0
100
AcDbSymbolTable
 70
     1
  0
APPID
  5
12
330
9
100
AcDbSymbolTableRecord
100
AcDbRegAppTableRecord
  2
ACAD
 70
     0
  0
ENDTAB
  0
TABLE
  2
DIMSTYLE
  5
A
330
0
100
AcDbSymbolTable
 70
     1
  0
DIMSTYLE
105
27
102
{ACAD_REACTORS
330
393
330
3A4
330
3E2
330
3EF
330
526
330
532
330
53E
330
54B
330
561
330
56D
330
579
330
592
330
59E
102
}
330
A
100
AcDbSymbolTableRecord
100
AcDbDimStyleTableRecord
  2
ISO-25
 70
     0
  3

  4

  5

  6

  7

 40
1.0
 41
2.5
 42
0.625
 43
3.75
 44
1.25
 45
0.0
 46
0.0
 47
0.0
 48
0.0
140
2.5
141
2.5
142
0.0
143
0.03937007874016
144
1.0
145
0.0
146
1.0
147
0.625
 71
     0
 72
     0
 73
     0
 74
     0
 75
     0
 76
     0
 77
     1
 78
     8
170
     0
171
     3
172
     1
173
     0
174
     0
175
     0
176
     0
177
     0
178
     0
270
     2
271
     2
272
     2
273
     2
274
     3
340
11
275
     0
280
     0
281
     0
282
     0
283
     0
284
     8
285
     0
286
     0
287
     5
288
     0
  0
ENDTAB
  0
TABLE
  2
BLOCK_RECORD
  5
1
330
0
100
AcDbSymbolTable
 70
    28
  0
BLOCK_RECORD
  5
1F
330
1
100
AcDbSymbolTableRecord
100
AcDbBlockTableRecord
  2
*MODEL_SPACE
  0
BLOCK_RECORD
  5
1B
330
1
100
AcDbSymbolTableRecord
100
AcDbBlockTableRecord
  2
*PAPER_SPACE
  0
BLOCK_RECORD
  5
4D
330
1
100
AcDbSymbolTableRecord
100
AcDbBlockTableRecord
  2
EX_NORM
  0
BLOCK_RECORD
  5
50
330
1
100
AcDbSymbolTableRecord
100
AcDbBlockTableRecord
  2
EX_BNORM
  0
BLOCK_RECORD
  5
53
330
1
100
AcDbSymbolTableRecord
100
AcDbBlockTableRecord
  2
EX_BCIR
  0
BLOCK_RECORD
  5
56
330
1
100
AcDbSymbolTableRecord
100
AcDbBlockTableRecord
  2
EX_RCIVIL
  0
BLOCK_RECORD
  5
59
330
1
100
AcDbSymbolTableRecord
100
AcDbBlockTableRecord
  2
EX_SLANT
  0
BLOCK_RECORD
  5
5C
330
1
100
AcDbSymbolTableRecord
100
AcDbBlockTableRecord
  2
EX_NONE
  0
BLOCK_RECORD
  5
5F
330
1
100
AcDbSymbolTableRecord
100
AcDbBlockTableRecord
  2
EX_CIVIL
  0
BLOCK_RECORD
  5
62
330
1
100
AcDbSymbolTableRecord
100
AcDbBlockTableRecord
  2
EX_WCIR
  0
BLOCK_RECORD
  5
65
330
1
100
AcDbSymbolTableRecord
100
AcDbBlockTableRecord
  2
EX_WCIR2
  0
BLOCK_RECORD
  5
68
330
1
100
AcDbSymbolTableRecord
100
AcDbBlockTableRecord
  2
EX_WNORM
  0
BLOCK_RECORD
  5
6B
330
1
100
AcDbSymbolTableRecord
100
AcDbBlockTableRecord
  2
EX_NNORM
  0
BLOCK_RECORD
  5
6E
330
1
100
AcDbSymbolTableRecord
100
AcDbBlockTableRecord
  2
EX_BBOX
  0
BLOCK_RECORD
  5
71
330
1
100
AcDbSymbolTableRecord
100
AcDbBlockTableRecord
  2
EX_WBOX
  0
BLOCK_RECORD
  5
74
330
1
100
AcDbSymbolTableRecord
100
AcDbBlockTableRecord
  2
EX_INTEGRAL
  0
BLOCK_RECORD
  5
395
330
1
100
AcDbSymbolTableRecord
100
AcDbBlockTableRecord
  2
*D15
  0
BLOCK_RECORD
  5
3A5
330
1
100
AcDbSymbolTableRecord
100
AcDbBlockTableRecord
  2
*D16
  0
BLOCK_RECORD
  5
3E3
330
1
100
AcDbSymbolTableRecord
100
AcDbBlockTableRecord
  2
*D17
  0
BLOCK_RECORD
  5
3F0
330
1
100
AcDbSymbolTableRecord
100
AcDbBlockTableRecord
  2
*D18
  0
BLOCK_RECORD
  5
527
330
1
100
AcDbSymbolTableRecord
100
AcDbBlockTableRecord
  2
*D19
  0
BLOCK_RECORD
  5
533
330
1
100
AcDbSymbolTableRecord
100
AcDbBlockTableRecord
  2
*D20
  0
BLOCK_RECORD
  5
53F
330
1
100
AcDbSymbolTableRecord
100
AcDbBlockTableRecord
  2
*D21
  0
BLOCK_RECORD
  5
54C
330
1
100
AcDbSymbolTableRecord
100
AcDbBlockTableRecord
  2
*D22
  0
BLOCK_RECORD
  5
562
330
1
100
AcDbSymbolTableRecord
100
AcDbBlockTableRecord
  2
*D23
  0
BLOCK_RECORD
  5
56E
330
1
100
AcDbSymbolTableRecord
100
AcDbBlockTableRecord
  2
*D24
  0
BLOCK_RECORD
  5
57A
330
1
100
AcDbSymbolTableRecord
100
AcDbBlockTableRecord
  2
*D25
  0
BLOCK_RECORD
  5
593
330
1
100
AcDbSymbolTableRecord
100
AcDbBlockTableRecord
  2
*D26
  0
BLOCK_RECORD
  5
59F
330
1
100
AcDbSymbolTableRecord
100
AcDbBlockTableRecord
  2
*D27
  0
ENDTAB
  0
ENDSEC
  0
SECTION
  2
BLOCKS
  0
BLOCK
  5
20
330
1F
100
AcDbEntity
  8
0
100
AcDbBlockBegin
  2
*MODEL_SPACE
 70
     0
 10
0.0
 20
0.0
 30
0.0
  3
*MODEL_SPACE
  1

  0
ENDBLK
  5
21
330
1F
100
AcDbEntity
  8
0
100
AcDbBlockEnd
  0
BLOCK
  5
1C
330
1B
100
AcDbEntity
 67
     1
  8
0
100
AcDbBlockBegin
  2
*PAPER_SPACE
 70
     0
 10
0.0
 20
0.0
 30
0.0
  3
*PAPER_SPACE
  1

  0
ENDBLK
  5
1D
330
1B
100
AcDbEntity
 67
     1
  8
0
100
AcDbBlockEnd
  0
BLOCK
  5
4E
330
4D
100
AcDbEntity
  8
0
100
AcDbBlockBegin
  2
EX_NORM
 70
     0
 10
0.0
 20
0.0
 30
0.0
  3
EX_NORM
  1

  0
LINE
  5
77
330
4D
100
AcDbEntity
  8
0
  6
CONTINUOUS
 62
     0
100
AcDbLine
 10
0.0
 20
0.0
 30
0.0
 11
-1.0
 21
0.0
 31
0.0
  0
LINE
  5
78
330
4D
100
AcDbEntity
  8
0
  6
CONTINUOUS
 62
     0
100
AcDbLine
 10
0.0
 20
0.0
 30
0.0
 11
-1.0
 21
0.166666667
 31
0.0
  0
LINE
  5
79
330
4D
100
AcDbEntity
  8
0
  6
CONTINUOUS
 62
     0
100
AcDbLine
 10
0.0
 20
0.0
 30
0.0
 11
-1.0
 21
-0.166666667
 31
0.0
  0
ENDBLK
  5
4F
330
4D
100
AcDbEntity
  8
0
100
AcDbBlockEnd
  0
BLOCK
  5
51
330
50
100
AcDbEntity
  8
0
100
AcDbBlockBegin
  2
EX_BNORM
 70
     0
 10
0.0
 20
0.0
 30
0.0
  3
EX_BNORM
  1

  0
LINE
  5
7A
330
50
100
AcDbEntity
  8
0
  6
CONTINUOUS
 62
     0
100
AcDbLine
 10
0.0
 20
0.0
 30
0.0
 11
-1.0
 21
0.0
 31
0.0
  0
LINE
  5
7B
330
50
100
AcDbEntity
  8
0
  6
CONTINUOUS
 62
     0
100
AcDbLine
 10
0.0
 20
0.0
 30
0.0
 11
-1.0
 21
0.166666667
 31
0.0
  0
LINE
  5
7C
330
50
100
AcDbEntity
  8
0
  6
CONTINUOUS
 62
     0
100
AcDbLine
 10
0.0
 20
0.0
 30
0.0
 11
-1.0
 21
-0.166666667
 31
0.0
  0
LINE
  5
7D
330
50
100
AcDbEntity
  8
0
  6
CONTINUOUS
 62
     0
100
AcDbLine
 10
0.0
 20
0.0
 30
0.0
 11
-1.0
 21
0.083333333
 31
0.0
  0
LINE
  5
7E
330
50
100
AcDbEntity
  8
0
  6
CONTINUOUS
 62
     0
100
AcDbLine
 10
0.0
 20
0.0
 30
0.0
 11
-1.0
 21
-0.083333333
 31
0.0
  0
LINE
  5
7F
330
50
100
AcDbEntity
  8
0
  6
CONTINUOUS
 62
     0
100
AcDbLine
 10
-1.0
 20
0.166666667
 30
0.0
 11
-1.0
 21
-0.166666667
 31
0.0
  0
ENDBLK
  5
52
330
50
100
AcDbEntity
  8
0
100
AcDbBlockEnd
  0
BLOCK
  5
54
330
53
100
AcDbEntity
  8
0
100
AcDbBlockBegin
  2
EX_BCIR
 70
     0
 10
0.0
 20
0.0
 30
0.0
  3
EX_BCIR
  1

  0
LINE
  5
80
330
53
100
AcDbEntity
  8
0
  6
CONTINUOUS
 62
     0
100
AcDbLine
 10
0.0
 20
0.0
 30
0.0
 11
-1.0
 21
0.0
 31
0.0
  0
CIRCLE
  5
81
330
53
100
AcDbEntity
  8
0
  6
CONTINUOUS
 62
     0
100
AcDbCircle
 10
0.0
 20
0.0
 30
0.0
 40
0.5
  0
CIRCLE
  5
82
330
53
100
AcDbEntity
  8
0
  6
CONTINUOUS
 62
     0
100
AcDbCircle
 10
0.0
 20
0.0
 30
0.0
 40
0.25
  0
ENDBLK
  5
55
330
53
100
AcDbEntity
  8
0
100
AcDbBlockEnd
  0
BLOCK
  5
57
330
56
100
AcDbEntity
  8
0
100
AcDbBlockBegin
  2
EX_RCIVIL
 70
     0
 10
0.0
 20
0.0
 30
0.0
  3
EX_RCIVIL
  1

  0
LINE
  5
83
330
56
100
AcDbEntity
  8
0
  6
CONTINUOUS
 62
     0
100
AcDbLine
 10
0.0
 20
0.0
 30
0.0
 11
-1.0
 21
0.0
 31
0.0
  0
LINE
  5
84
330
56
100
AcDbEntity
  8
0
  6
CONTINUOUS
 62
     0
100
AcDbLine
 10
-1.0
 20
-0.25
 30
0.0
 11
0.0
 21
-0.25
 31
0.0
  0
LINE
  5
85
330
56
100
AcDbEntity
  8
0
  6
CONTINUOUS
 62
     0
100
AcDbLine
 10
-1.0
 20
-0.125
 30
0.0
 11
0.0
 21
-0.125
 31
0.0
  0
ENDBLK
  5
58
330
56
100
AcDbEntity
  8
0
100
AcDbBlockEnd
  0
BLOCK
  5
5A
330
59
100
AcDbEntity
  8
0
100
AcDbBlockBegin
  2
EX_SLANT
 70
     0
 10
0.0
 20
0.0
 30
0.0
  3
EX_SLANT
  1

  0
LINE
  5
86
330
59
100
AcDbEntity
  8
0
  6
CONTINUOUS
 62
     0
100
AcDbLine
 10
0.0
 20
0.0
 30
0.0
 11
-1.0
 21
0.0
 31
0.0
  0
LINE
  5
87
330
59
100
AcDbEntity
  8
0
  6
CONTINUOUS
 62
     0
100
AcDbLine
 10
0.707106781
 20
0.707106781
 30
0.0
 11
-0.707106781
 21
-0.707106781
 31
0.0
  0
ENDBLK
  5
5B
330
59
100
AcDbEntity
  8
0
100
AcDbBlockEnd
  0
BLOCK
  5
5D
330
5C
100
AcDbEntity
  8
0
100
AcDbBlockBegin
  2
EX_NONE
 70
     0
 10
0.0
 20
0.0
 30
0.0
  3
EX_NONE
  1

  0
LINE
  5
88
330
5C
100
AcDbEntity
  8
0
  6
CONTINUOUS
 62
     0
100
AcDbLine
 10
0.0
 20
0.0
 30
0.0
 11
-1.0
 21
0.0
 31
0.0
  0
ENDBLK
  5
5E
330
5C
100
AcDbEntity
  8
0
100
AcDbBlockEnd
  0
BLOCK
  5
60
330
5F
100
AcDbEntity
  8
0
100
AcDbBlockBegin
  2
EX_CIVIL
 70
     0
 10
0.0
 20
0.0
 30
0.0
  3
EX_CIVIL
  1

  0
LINE
  5
89
330
5F
100
AcDbEntity
  8
0
  6
CONTINUOUS
 62
     0
100
AcDbLine
 10
0.0
 20
0.0
 30
0.0
 11
-1.0
 21
0.0
 31
0.0
  0
LINE
  5
8A
330
5F
100
AcDbEntity
  8
0
  6
CONTINUOUS
 62
     0
100
AcDbLine
 10
-1.0
 20
0.25
 30
0.0
 11
0.0
 21
0.25
 31
0.0
  0
LINE
  5
8B
330
5F
100
AcDbEntity
  8
0
  6
CONTINUOUS
 62
     0
100
AcDbLine
 10
-1.0
 20
0.125
 30
0.0
 11
0.0
 21
0.125
 31
0.0
  0
ENDBLK
  5
61
330
5F
100
AcDbEntity
  8
0
100
AcDbBlockEnd
  0
BLOCK
  5
63
330
62
100
AcDbEntity
  8
0
100
AcDbBlockBegin
  2
EX_WCIR
 70
     0
 10
0.0
 20
0.0
 30
0.0
  3
EX_WCIR
  1

  0
LINE
  5
8C
330
62
100
AcDbEntity
  8
0
  6
CONTINUOUS
 62
     0
100
AcDbLine
 10
0.0
 20
0.0
 30
0.0
 11
-1.0
 21
0.0
 31
0.0
  0
CIRCLE
  5
8D
330
62
100
AcDbEntity
  8
0
  6
CONTINUOUS
 62
     0
100
AcDbCircle
 10
0.0
 20
0.0
 30
0.0
 40
0.5
  0
ENDBLK
  5
64
330
62
100
AcDbEntity
  8
0
100
AcDbBlockEnd
  0
BLOCK
  5
66
330
65
100
AcDbEntity
  8
0
100
AcDbBlockBegin
  2
EX_WCIR2
 70
     0
 10
0.0
 20
0.0
 30
0.0
  3
EX_WCIR2
  1

  0
LINE
  5
8E
330
65
100
AcDbEntity
  8
0
  6
CONTINUOUS
 62
     0
100
AcDbLine
 10
-0.5
 20
0.0
 30
0.0
 11
-1.0
 21
0.0
 31
0.0
  0
CIRCLE
  5
8F
330
65
100
AcDbEntity
  8
0
  6
CONTINUOUS
 62
     0
100
AcDbCircle
 10
0.0
 20
0.0
 30
0.0
 40
0.5
  0
ENDBLK
  5
67
330
65
100
AcDbEntity
  8
0
100
AcDbBlockEnd
  0
BLOCK
  5
69
330
68
100
AcDbEntity
  8
0
100
AcDbBlockBegin
  2
EX_WNORM
 70
     0
 10
0.0
 20
0.0
 30
0.0
  3
EX_WNORM
  1

  0
LINE
  5
90
330
68
100
AcDbEntity
  8
0
  6
CONTINUOUS
 62
     0
100
AcDbLine
 10
-1.0
 20
0.0
 30
0.0
 11
-1.0
 21
0.0
 31
0.0
  0
LINE
  5
91
330
68
100
AcDbEntity
  8
0
  6
CONTINUOUS
 62
     0
100
AcDbLine
 10
0.0
 20
0.0
 30
0.0
 11
-1.0
 21
0.166666667
 31
0.0
  0
LINE
  5
92
330
68
100
AcDbEntity
  8
0
  6
CONTINUOUS
 62
     0
100
AcDbLine
 10
0.0
 20
0.0
 30
0.0
 11
-1.0
 21
-0.166666667
 31
0.0
  0
LINE
  5
93
330
68
100
AcDbEntity
  8
0
  6
CONTINUOUS
 62
     0
100
AcDbLine
 10
-1.0
 20
0.166666667
 30
0.0
 11
-1.0
 21
-0.166666667
 31
0.0
  0
ENDBLK
  5
6A
330
68
100
AcDbEntity
  8
0
100
AcDbBlockEnd
  0
BLOCK
  5
6C
330
6B
100
AcDbEntity
  8
0
100
AcDbBlockBegin
  2
EX_NNORM
 70
     0
 10
0.0
 20
0.0
 30
0.0
  3
EX_NNORM
  1

  0
LINE
  5
94
330
6B
100
AcDbEntity
  8
0
  6
CONTINUOUS
 62
     0
100
AcDbLine
 10
0.0
 20
0.0
 30
0.0
 11
-1.0
 21
0.0
 31
0.0
  0
LINE
  5
95
330
6B
100
AcDbEntity
  8
0
  6
CONTINUOUS
 62
     0
100
AcDbLine
 10
0.0
 20
0.0
 30
0.0
 11
-1.0
 21
0.166666667
 31
0.0
  0
LINE
  5
96
330
6B
100
AcDbEntity
  8
0
  6
CONTINUOUS
 62
     0
100
AcDbLine
 10
0.0
 20
0.0
 30
0.0
 11
-1.0
 21
-0.166666667
 31
0.0
  0
LINE
  5
97
330
6B
100
AcDbEntity
  8
0
  6
CONTINUOUS
 62
     0
100
AcDbLine
 10
-1.0
 20
0.166666667
 30
0.0
 11
-1.0
 21
-0.166666667
 31
0.0
  0
ENDBLK
  5
6D
330
6B
100
AcDbEntity
  8
0
100
AcDbBlockEnd
  0
BLOCK
  5
6F
330
6E
100
AcDbEntity
  8
0
100
AcDbBlockBegin
  2
EX_BBOX
 70
     0
 10
0.0
 20
0.0
 30
0.0
  3
EX_BBOX
  1

  0
LINE
  5
98
330
6E
100
AcDbEntity
  8
0
  6
CONTINUOUS
 62
     0
100
AcDbLine
 10
0.0
 20
0.0
 30
0.0
 11
-1.0
 21
0.0
 31
0.0
  0
LINE
  5
99
330
6E
100
AcDbEntity
  8
0
  6
CONTINUOUS
 62
     0
100
AcDbLine
 10
-0.5
 20
0.5
 30
0.0
 11
0.5
 21
0.5
 31
0.0
  0
LINE
  5
9A
330
6E
100
AcDbEntity
  8
0
  6
CONTINUOUS
 62
     0
100
AcDbLine
 10
0.5
 20
0.5
 30
0.0
 11
0.5
 21
-0.5
 31
0.0
  0
LINE
  5
9B
330
6E
100
AcDbEntity
  8
0
  6
CONTINUOUS
 62
     0
100
AcDbLine
 10
0.5
 20
-0.5
 30
0.0
 11
-0.5
 21
-0.5
 31
0.0
  0
LINE
  5
9C
330
6E
100
AcDbEntity
  8
0
  6
CONTINUOUS
 62
     0
100
AcDbLine
 10
-0.5
 20
-0.5
 30
0.0
 11
-0.5
 21
0.5
 31
0.0
  0
LINE
  5
9D
330
6E
100
AcDbEntity
  8
0
  6
CONTINUOUS
 62
     0
100
AcDbLine
 10
-0.25
 20
0.25
 30
0.0
 11
0.25
 21
0.25
 31
0.0
  0
LINE
  5
9E
330
6E
100
AcDbEntity
  8
0
  6
CONTINUOUS
 62
     0
100
AcDbLine
 10
0.25
 20
0.25
 30
0.0
 11
0.25
 21
-0.25
 31
0.0
  0
LINE
  5
9F
330
6E
100
AcDbEntity
  8
0
  6
CONTINUOUS
 62
     0
100
AcDbLine
 10
0.25
 20
-0.25
 30
0.0
 11
-0.25
 21
-0.25
 31
0.0
  0
LINE
  5
A0
330
6E
100
AcDbEntity
  8
0
  6
CONTINUOUS
 62
     0
100
AcDbLine
 10
-0.25
 20
-0.25
 30
0.0
 11
-0.25
 21
0.25
 31
0.0
  0
ENDBLK
  5
70
330
6E
100
AcDbEntity
  8
0
100
AcDbBlockEnd
  0
BLOCK
  5
72
330
71
100
AcDbEntity
  8
0
100
AcDbBlockBegin
  2
EX_WBOX
 70
     0
 10
0.0
 20
0.0
 30
0.0
  3
EX_WBOX
  1

  0
LINE
  5
A1
330
71
100
AcDbEntity
  8
0
  6
CONTINUOUS
 62
     0
100
AcDbLine
 10
-0.5
 20
0.0
 30
0.0
 11
-1.0
 21
0.0
 31
0.0
  0
LINE
  5
A2
330
71
100
AcDbEntity
  8
0
  6
CONTINUOUS
 62
     0
100
AcDbLine
 10
-0.5
 20
0.5
 30
0.0
 11
0.5
 21
0.5
 31
0.0
  0
LINE
  5
A3
330
71
100
AcDbEntity
  8
0
  6
CONTINUOUS
 62
     0
100
AcDbLine
 10
0.5
 20
0.5
 30
0.0
 11
0.5
 21
-0.5
 31
0.0
  0
LINE
  5
A4
330
71
100
AcDbEntity
  8
0
  6
CONTINUOUS
 62
     0
100
AcDbLine
 10
0.5
 20
-0.5
 30
0.0
 11
-0.5
 21
-0.5
 31
0.0
  0
LINE
  5
A5
330
71
100
AcDbEntity
  8
0
  6
CONTINUOUS
 62
     0
100
AcDbLine
 10
-0.5
 20
-0.5
 30
0.0
 11
-0.5
 21
0.5
 31
0.0
  0
ENDBLK
  5
73
330
71
100
AcDbEntity
  8
0
100
AcDbBlockEnd
  0
BLOCK
  5
75
330
74
100
AcDbEntity
  8
0
100
AcDbBlockBegin
  2
EX_INTEGRAL
 70
     0
 10
0.0
 20
0.0
 30
0.0
  3
EX_INTEGRAL
  1

  0
LINE
  5
A6
330
74
100
AcDbEntity
  8
0
  6
CONTINUOUS
 62
     0
100
AcDbLine
 10
0.0
 20
0.0
 30
0.0
 11
-1.0
 21
0.0
 31
0.0
  0
ARC
  5
A7
330
74
100
AcDbEntity
  8
0
  6
CONTINUOUS
 62
     0
100
AcDbCircle
 10
0.542115
 20
0.164992
 30
0.0
 40
0.56667
100
AcDbArc
 50
73.07249033629006
 51
196.9275130221199
  0
ARC
  5
A8
330
74
100
AcDbEntity
  8
0
  6
CONTINUOUS
 62
     0
100
AcDbCircle
 10
-0.542115
 20
-0.164992
 30
0.0
 40
0.56667
100
AcDbArc
 50
253.0724869220464
 51
16.9275130559125
  0
ENDBLK
  5
76
330
74
100
AcDbEntity
  8
0
100
AcDbBlockEnd
  0
BLOCK
  5
396
330
395
100
AcDbEntity
  8
0
100
AcDbBlockBegin
  2
*D15
 70
     1
 10
0.0
 20
0.0
 30
0.0
  3
*D15
  1

  0
LINE
  5
398
330
395
100
AcDbEntity
  8
化粧台
  6
CONTINUOUS
 62
     3
100
AcDbLine
 10
2435.0
 20
2775.0
 30
0.0
 11
2435.0
 21
2872.500000000001
 31
0.0
  0
LINE
  5
399
330
395
100
AcDbEntity
  8
化粧台
  6
CONTINUOUS
 62
     3
100
AcDbLine
 10
2392.599999999999
 20
2736.2
 30
0.0
 11
2392.599999999999
 21
2872.500000000001
 31
0.0
  0
LINE
  5
39A
330
395
100
AcDbEntity
  8
化粧台
  6
CONTINUOUS
 62
     3
100
AcDbLine
 10
2435.0
 20
2857.500000000001
 30
0.0
 11
2392.599999999999
 21
2857.500000000001
 31
0.0
  0
LINE
  5
39B
330
395
100
AcDbEntity
  8
化粧台
  6
CONTINUOUS
 62
     3
100
AcDbLine
 10
2479.999996185303
 20
2857.500000000001
 30
0.0
 11
2524.999992370605
 21
2857.500000000001
 31
0.0
  0
LINE
  5
39C
330
395
100
AcDbEntity
  8
化粧台
  6
CONTINUOUS
 62
     3
100
AcDbLine
 10
2347.600003814697
 20
2857.500000000001
 30
0.0
 11
2302.600007629394
 21
2857.500000000001
 31
0.0
  0
INSERT
  5
39D
330
395
100
AcDbEntity
  8
化粧台
 62
     3
100
AcDbBlockReference
  2
EX_NORM
 10
2435.0
 20
2857.500000000001
 30
0.0
 41
44.99999618530273
 42
44.99999618530273
 43
44.99999618530273
 50
180.0
  0
INSERT
  5
39E
330
395
100
AcDbEntity
  8
化粧台
 62
     3
100
AcDbBlockReference
  2
EX_NORM
 10
2392.599999999999
 20
2857.500000000001
 30
0.0
 41
44.99999618530273
 42
44.99999618530273
 43
44.99999618530273
  0
MTEXT
  5
39F
330
395
100
AcDbEntity
  8
化粧台
 62
     2
100
AcDbMText
 10
2540.000000000002
 20
2892.74999991059
 30
0.0
 40
59.99999618530273
 41
0.0
 71
     5
 72
     1
  1
43
  7
EXCADDIM1
  0
POINT
  5
3A0
330
395
100
AcDbEntity
  8
DEFPOINTS
 62
     0
100
AcDbPoint
 10
2435.0
 20
2767.5
 30
0.0
  0
POINT
  5
3A1
330
395
100
AcDbEntity
  8
DEFPOINTS
 62
     0
100
AcDbPoint
 10
2392.599999999999
 20
2728.7
 30
0.0
  0
POINT
  5
3A2
330
395
100
AcDbEntity
  8
DEFPOINTS
 62
     0
100
AcDbPoint
 10
2392.599999999999
 20
2857.500000000001
 30
0.0
  0
ENDBLK
  5
397
330
395
100
AcDbEntity
  8
0
100
AcDbBlockEnd
  0
BLOCK
  5
3A6
330
3A5
100
AcDbEntity
  8
0
100
AcDbBlockBegin
  2
*D16
 70
     1
 10
0.0
 20
0.0
 30
0.0
  3
*D16
  1

  0
LINE
  5
3A8
330
3A5
100
AcDbEntity
  8
化粧台
  6
CONTINUOUS
 62
     3
100
AcDbLine
 10
2483.299999999839
 20
2187.5
 30
0.0
 11
2572.499999999999
 21
2187.5
 31
0.0
  0
LINE
  5
3A9
330
3A5
100
AcDbEntity
  8
化粧台
  6
CONTINUOUS
 62
     3
100
AcDbLine
 10
2483.2999999998
 20
2672.5
 30
0.0
 11
2572.499999999999
 21
2672.5
 31
0.0
  0
LINE
  5
3AA
330
3A5
100
AcDbEntity
  8
化粧台
  6
CONTINUOUS
 62
     3
100
AcDbLine
 10
2557.499999999999
 20
2232.499996185303
 30
0.0
 11
2557.499999999999
 21
2268.000010299683
 31
0.0
  0
LINE
  5
3AB
330
3A5
100
AcDbEntity
  8
化粧台
  6
CONTINUOUS
 62
     3
100
AcDbLine
 10
2557.499999999999
 20
2627.500003814697
 30
0.0
 11
2557.499999999999
 21
2591.999989700317
 31
0.0
  0
INSERT
  5
3AC
330
3A5
100
AcDbEntity
  8
化粧台
 62
     3
100
AcDbBlockReference
  2
EX_NORM
 10
2557.499999999999
 20
2187.5
 30
0.0
 41
44.99999618530273
 42
44.99999618530273
 43
44.99999618530273
 50
270.0
  0
INSERT
  5
3AD
330
3A5
100
AcDbEntity
  8
化粧台
 62
     3
100
AcDbBlockReference
  2
EX_NORM
 10
2557.499999999999
 20
2672.5
 30
0.0
 41
44.99999618530273
 42
44.99999618530273
 43
44.99999618530273
 50
90.0
  0
MTEXT
  5
3AE
330
3A5
100
AcDbEntity
  8
化粧台
 62
     2
100
AcDbMText
 10
2522.250000089407
 20
2430.0
 30
0.0
 40
59.99999618530273
 41
0.0
 71
     5
 72
     1
  1
485(壁固定)
  7
EXCADDIM2
 11
0.0
 21
1.0
 31
0.0
  0
POINT
  5
3AF
330
3A5
100
AcDbEntity
  8
DEFPOINTS
 62
     0
100
AcDbPoint
 10
2475.799999999839
 20
2187.5
 30
0.0
  0
POINT
  5
3B0
330
3A5
100
AcDbEntity
  8
DEFPOINTS
 62
     0
100
AcDbPoint
 10
2475.7999999998
 20
2672.5
 30
0.0
  0
POINT
  5
3B1
330
3A5
100
AcDbEntity
  8
DEFPOINTS
 62
     0
100
AcDbPoint
 10
2557.499999999999
 20
2672.5
 30
0.0
  0
ENDBLK
  5
3A7
330
3A5
100
AcDbEntity
  8
0
100
AcDbBlockEnd
  0
BLOCK
  5
3E4
330
3E3
100
AcDbEntity
  8
0
100
AcDbBlockBegin
  2
*D17
 70
     1
 10
0.0
 20
0.0
 30
0.0
  3
*D17
  1

  0
LINE
  5
3E6
330
3E3
100
AcDbEntity
  8
鏡台
  6
CONTINUOUS
 62
     3
100
AcDbLine
 10
604.9999999999991
 20
2777.999999821186
 30
0.0
 11
604.9999999999991
 21
2928.0
 31
0.0
  0
LINE
  5
3E7
330
3E3
100
AcDbEntity
  8
鏡台
  6
CONTINUOUS
 62
     3
100
AcDbLine
 10
1204.999999999998
 20
2777.999999821186
 30
0.0
 11
1204.999999999998
 21
2928.0
 31
0.0
  0
LINE
  5
3E8
330
3E3
100
AcDbEntity
  8
鏡台
  6
CONTINUOUS
 62
     3
100
AcDbLine
 10
649.9999961853018
 20
2913.0
 30
0.0
 11
1160.000003814696
 21
2913.0
 31
0.0
  0
INSERT
  5
3E9
330
3E3
100
AcDbEntity
  8
鏡台
 62
     3
100
AcDbBlockReference
  2
EX_NORM
 10
604.9999999999991
 20
2913.0
 30
0.0
 41
44.99999618530273
 42
44.99999618530273
 43
44.99999618530273
 50
180.0
  0
INSERT
  5
3EA
330
3E3
100
AcDbEntity
  8
鏡台
 62
     3
100
AcDbBlockReference
  2
EX_NORM
 10
1204.999999999998
 20
2913.0
 30
0.0
 41
44.99999618530273
 42
44.99999618530273
 43
44.99999618530273
  0
MTEXT
  5
3EB
330
3E3
100
AcDbEntity
  8
鏡台
 62
     2
100
AcDbMText
 10
904.9999999999989
 20
2948.249999910593
 30
0.0
 40
59.99999618530273
 41
0.0
 71
     5
 72
     1
  1
600
  7
EXCADDIM2
  0
POINT
  5
3EC
330
3E3
100
AcDbEntity
  8
DEFPOINTS
 62
     0
100
AcDbPoint
 10
604.9999999999991
 20
2767.5
 30
0.0
  0
POINT
  5
3ED
330
3E3
100
AcDbEntity
  8
DEFPOINTS
 62
     0
100
AcDbPoint
 10
1204.999999999998
 20
2767.5
 30
0.0
  0
POINT
  5
3EE
330
3E3
100
AcDbEntity
  8
DEFPOINTS
 62
     0
100
AcDbPoint
 10
1204.999999999998
 20
2913.0
 30
0.0
  0
ENDBLK
  5
3E5
330
3E3
100
AcDbEntity
  8
0
100
AcDbBlockEnd
  0
BLOCK
  5
3F1
330
3F0
100
AcDbEntity
  8
0
100
AcDbBlockBegin
  2
*D18
 70
     1
 10
0.0
 20
0.0
 30
0.0
  3
*D18
  1

  0
LINE
  5
3F3
330
3F0
100
AcDbEntity
  8
鏡台
  6
CONTINUOUS
 62
     3
100
AcDbLine
 10
1215.499999821184
 20
2767.5
 30
0.0
 11
1475.0
 21
2767.5
 31
0.0
  0
LINE
  5
3F4
330
3F0
100
AcDbEntity
  8
鏡台
  6
CONTINUOUS
 62
     3
100
AcDbLine
 10
1215.499999821184
 20
2167.5
 30
0.0
 11
1475.0
 21
2167.5
 31
0.0
  0
LINE
  5
3F5
330
3F0
100
AcDbEntity
  8
鏡台
  6
CONTINUOUS
 62
     3
100
AcDbLine
 10
1460.000000000001
 20
2722.500003814697
 30
0.0
 11
1460.000000000001
 21
2212.499996185303
 31
0.0
  0
INSERT
  5
3F6
330
3F0
100
AcDbEntity
  8
鏡台
 62
     3
100
AcDbBlockReference
  2
EX_NORM
 10
1460.000000000001
 20
2767.5
 30
0.0
 41
44.99999618530273
 42
44.99999618530273
 43
44.99999618530273
 50
90.0
  0
INSERT
  5
3F7
330
3F0
100
AcDbEntity
  8
鏡台
 62
     3
100
AcDbBlockReference
  2
EX_NORM
 10
1460.000000000001
 20
2167.5
 30
0.0
 41
44.99999618530273
 42
44.99999618530273
 43
44.99999618530273
 50
270.0
  0
MTEXT
  5
3F8
330
3F0
100
AcDbEntity
  8
鏡台
 62
     2
100
AcDbMText
 10
1424.75000008941
 20
2467.499999999998
 30
0.0
 40
59.99999618530273
 41
0.0
 71
     5
 72
     1
  1
600
  7
EXCADDIM2
 11
0.0
 21
1.0
 31
0.0
  0
POINT
  5
3F9
330
3F0
100
AcDbEntity
  8
DEFPOINTS
 62
     0
100
AcDbPoint
 10
1204.999999999998
 20
2767.5
 30
0.0
  0
POINT
  5
3FA
330
3F0
100
AcDbEntity
  8
DEFPOINTS
 62
     0
100
AcDbPoint
 10
1204.999999999998
 20
2167.5
 30
0.0
  0
POINT
  5
3FB
330
3F0
100
AcDbEntity
  8
DEFPOINTS
 62
     0
100
AcDbPoint
 10
1460.000000000001
 20
2167.5
 30
0.0
  0
ENDBLK
  5
3F2
330
3F0
100
AcDbEntity
  8
0
100
AcDbBlockEnd
  0
BLOCK
  5
528
330
527
100
AcDbEntity
  8
0
100
AcDbBlockBegin
  2
*D19
 70
     1
 10
0.0
 20
0.0
 30
0.0
  3
*D19
  1

  0
LINE
  5
52A
330
527
100
AcDbEntity
  8
寸法
  6
CONTINUOUS
 62
     3
100
AcDbLine
 10
1365.499999821185
 20
3479.5
 30
0.0
 11
1474.999999999999
 21
3479.5
 31
0.0
  0
LINE
  5
52B
330
527
100
AcDbEntity
  8
寸法
  6
CONTINUOUS
 62
     3
100
AcDbLine
 10
1459.999999999999
 20
3524.499996185303
 30
0.0
 11
1459.999999999999
 21
3884.500003814697
 31
0.0
  0
INSERT
  5
52C
330
527
100
AcDbEntity
  8
寸法
 62
     3
100
AcDbBlockReference
  2
EX_NORM
 10
1459.999999999999
 20
3479.5
 30
0.0
 41
44.99999618530273
 42
44.99999618530273
 43
44.99999618530273
 50
270.0
  0
INSERT
  5
52D
330
527
100
AcDbEntity
  8
寸法
 62
     3
100
AcDbBlockReference
  2
EX_NORM
 10
1459.999999999999
 20
3929.5
 30
0.0
 41
44.99999618530273
 42
44.99999618530273
 43
44.99999618530273
 50
90.0
  0
MTEXT
  5
52E
330
527
100
AcDbEntity
  8
寸法
 62
     2
100
AcDbMText
 10
1424.750000089407
 20
3704.5
 30
0.0
 40
59.99999618530273
 41
0.0
 71
     5
 72
     1
  1
450
  7
EXCADDIM2
 11
0.0
 21
1.0
 31
0.0
  0
POINT
  5
52F
330
527
100
AcDbEntity
  8
DEFPOINTS
 62
     0
100
AcDbPoint
 10
1354.999999999999
 20
3479.5
 30
0.0
  0
POINT
  5
530
330
527
100
AcDbEntity
  8
DEFPOINTS
 62
     0
100
AcDbPoint
 10
1354.999999999999
 20
3929.5
 30
0.0
  0
POINT
  5
531
330
527
100
AcDbEntity
  8
DEFPOINTS
 62
     0
100
AcDbPoint
 10
1459.999999999999
 20
3929.5
 30
0.0
  0
ENDBLK
  5
529
330
527
100
AcDbEntity
  8
0
100
AcDbBlockEnd
  0
BLOCK
  5
534
330
533
100
AcDbEntity
  8
0
100
AcDbBlockBegin
  2
*D20
 70
     1
 10
0.0
 20
0.0
 30
0.0
  3
*D20
  1

  0
LINE
  5
536
330
533
100
AcDbEntity
  8
寸法
  6
CONTINUOUS
 62
     3
100
AcDbLine
 10
1180.499999821185
 20
3429.5
 30
0.0
 11
1564.999999999999
 21
3429.5
 31
0.0
  0
LINE
  5
537
330
533
100
AcDbEntity
  8
寸法
  6
CONTINUOUS
 62
     3
100
AcDbLine
 10
1549.999999999999
 20
3474.499996185303
 30
0.0
 11
1549.999999999999
 21
3884.500003814697
 31
0.0
  0
INSERT
  5
538
330
533
100
AcDbEntity
  8
寸法
 62
     3
100
AcDbBlockReference
  2
EX_NORM
 10
1549.999999999999
 20
3429.5
 30
0.0
 41
44.99999618530273
 42
44.99999618530273
 43
44.99999618530273
 50
270.0
  0
INSERT
  5
539
330
533
100
AcDbEntity
  8
寸法
 62
     3
100
AcDbBlockReference
  2
EX_NORM
 10
1549.999999999999
 20
3929.5
 30
0.0
 41
44.99999618530273
 42
44.99999618530273
 43
44.99999618530273
 50
90.0
  0
MTEXT
  5
53A
330
533
100
AcDbEntity
  8
寸法
 62
     2
100
AcDbMText
 10
1514.750000089407
 20
3679.5
 30
0.0
 40
59.99999618530273
 41
0.0
 71
     5
 72
     1
  1
500
  7
EXCADDIM2
 11
0.0
 21
1.0
 31
0.0
  0
POINT
  5
53B
330
533
100
AcDbEntity
  8
DEFPOINTS
 62
     0
100
AcDbPoint
 10
1169.999999999999
 20
3429.5
 30
0.0
  0
POINT
  5
53C
330
533
100
AcDbEntity
  8
DEFPOINTS
 62
     0
100
AcDbPoint
 10
1354.999999999999
 20
3929.5
 30
0.0
  0
POINT
  5
53D
330
533
100
AcDbEntity
  8
DEFPOINTS
 62
     0
100
AcDbPoint
 10
1549.999999999999
 20
3929.5
 30
0.0
  0
ENDBLK
  5
535
330
533
100
AcDbEntity
  8
0
100
AcDbBlockEnd
  0
BLOCK
  5
540
330
53F
100
AcDbEntity
  8
0
100
AcDbBlockBegin
  2
*D21
 70
     1
 10
0.0
 20
0.0
 30
0.0
  3
*D21
  1

  0
LINE
  5
542
330
53F
100
AcDbEntity
  8
寸法
  6
CONTINUOUS
 62
     3
100
AcDbLine
 10
630.0
 20
3429.000000178814
 30
0.0
 11
630.0
 21
3309.5
 31
0.0
  0
LINE
  5
543
330
53F
100
AcDbEntity
  8
寸法
  6
CONTINUOUS
 62
     3
100
AcDbLine
 10
1179.999999999999
 20
3429.000000178814
 30
0.0
 11
1179.999999999999
 21
3309.5
 31
0.0
  0
LINE
  5
544
330
53F
100
AcDbEntity
  8
寸法
  6
CONTINUOUS
 62
     3
100
AcDbLine
 10
674.9999961853027
 20
3324.5
 30
0.0
 11
1135.000003814696
 21
3324.5
 31
0.0
  0
INSERT
  5
545
330
53F
100
AcDbEntity
  8
寸法
 62
     3
100
AcDbBlockReference
  2
EX_NORM
 10
630.0
 20
3324.5
 30
0.0
 41
44.99999618530273
 42
44.99999618530273
 43
44.99999618530273
 50
180.0
  0
INSERT
  5
546
330
53F
100
AcDbEntity
  8
寸法
 62
     3
100
AcDbBlockReference
  2
EX_NORM
 10
1179.999999999999
 20
3324.5
 30
0.0
 41
44.99999618530273
 42
44.99999618530273
 43
44.99999618530273
  0
MTEXT
  5
547
330
53F
100
AcDbEntity
  8
寸法
 62
     2
100
AcDbMText
 10
904.9999999999998
 20
3359.749999910593
 30
0.0
 40
59.99999618530273
 41
0.0
 71
     5
 72
     1
  1
550
  7
EXCADDIM2
  0
POINT
  5
548
330
53F
100
AcDbEntity
  8
DEFPOINTS
 62
     0
100
AcDbPoint
 10
630.0
 20
3439.5
 30
0.0
  0
POINT
  5
549
330
53F
100
AcDbEntity
  8
DEFPOINTS
 62
     0
100
AcDbPoint
 10
1179.999999999999
 20
3439.5
 30
0.0
  0
POINT
  5
54A
330
53F
100
AcDbEntity
  8
DEFPOINTS
 62
     0
100
AcDbPoint
 10
1179.999999999999
 20
3324.5
 30
0.0
  0
ENDBLK
  5
541
330
53F
100
AcDbEntity
  8
0
100
AcDbBlockEnd
  0
BLOCK
  5
54D
330
54C
100
AcDbEntity
  8
0
100
AcDbBlockBegin
  2
*D22
 70
     1
 10
0.0
 20
0.0
 30
0.0
  3
*D22
  1

  0
LINE
  5
54F
330
54C
100
AcDbEntity
  8
寸法
  6
CONTINUOUS
 62
     3
100
AcDbLine
 10
455.0
 20
3469.000000178814
 30
0.0
 11
455.0
 21
3219.5
 31
0.0
  0
LINE
  5
550
330
54C
100
AcDbEntity
  8
寸法
  6
CONTINUOUS
 62
     3
100
AcDbLine
 10
1354.999999999999
 20
3469.000000178814
 30
0.0
 11
1354.999999999999
 21
3219.5
 31
0.0
  0
LINE
  5
551
330
54C
100
AcDbEntity
  8
寸法
  6
CONTINUOUS
 62
     3
100
AcDbLine
 10
499.9999961853027
 20
3234.5
 30
0.0
 11
1310.000003814696
 21
3234.5
 31
0.0
  0
INSERT
  5
552
330
54C
100
AcDbEntity
  8
寸法
 62
     3
100
AcDbBlockReference
  2
EX_NORM
 10
455.0
 20
3234.5
 30
0.0
 41
44.99999618530273
 42
44.99999618530273
 43
44.99999618530273
 50
180.0
  0
INSERT
  5
553
330
54C
100
AcDbEntity
  8
寸法
 62
     3
100
AcDbBlockReference
  2
EX_NORM
 10
1354.999999999999
 20
3234.5
 30
0.0
 41
44.99999618530273
 42
44.99999618530273
 43
44.99999618530273
  0
MTEXT
  5
554
330
54C
100
AcDbEntity
  8
寸法
 62
     2
100
AcDbMText
 10
904.9999999999998
 20
3269.749999910593
 30
0.0
 40
59.99999618530273
 41
0.0
 71
     5
 72
     1
  1
900
  7
EXCADDIM2
  0
POINT
  5
555
330
54C
100
AcDbEntity
  8
DEFPOINTS
 62
     0
100
AcDbPoint
 10
455.0
 20
3479.5
 30
0.0
  0
POINT
  5
556
330
54C
100
AcDbEntity
  8
DEFPOINTS
 62
     0
100
AcDbPoint
 10
1354.999999999999
 20
3479.5
 30
0.0
  0
POINT
  5
557
330
54C
100
AcDbEntity
  8
DEFPOINTS
 62
     0
100
AcDbPoint
 10
1354.999999999999
 20
3234.5
 30
0.0
  0
ENDBLK
  5
54E
330
54C
100
AcDbEntity
  8
0
100
AcDbBlockEnd
  0
BLOCK
  5
563
330
562
100
AcDbEntity
  8
0
100
AcDbBlockBegin
  2
*D23
 70
     1
 10
0.0
 20
0.0
 30
0.0
  3
*D23
  1

  0
LINE
  5
565
330
562
100
AcDbEntity
  8
寸法
  6
CONTINUOUS
 62
     3
100
AcDbLine
 10
1365.499999821185
 20
1717.5
 30
0.0
 11
1474.999999999999
 21
1717.5
 31
0.0
  0
LINE
  5
566
330
562
100
AcDbEntity
  8
寸法
  6
CONTINUOUS
 62
     3
100
AcDbLine
 10
1459.999999999999
 20
1062.499996185303
 30
0.0
 11
1459.999999999999
 21
1672.500003814697
 31
0.0
  0
INSERT
  5
567
330
562
100
AcDbEntity
  8
寸法
 62
     3
100
AcDbBlockReference
  2
EX_NORM
 10
1459.999999999999
 20
1017.5
 30
0.0
 41
44.99999618530273
 42
44.99999618530273
 43
44.99999618530273
 50
270.0
  0
INSERT
  5
568
330
562
100
AcDbEntity
  8
寸法
 62
     3
100
AcDbBlockReference
  2
EX_NORM
 10
1459.999999999999
 20
1717.5
 30
0.0
 41
44.99999618530273
 42
44.99999618530273
 43
44.99999618530273
 50
90.0
  0
MTEXT
  5
569
330
562
100
AcDbEntity
  8
寸法
 62
     2
100
AcDbMText
 10
1424.750000089407
 20
1367.5
 30
0.0
 40
59.99999618530273
 41
0.0
 71
     5
 72
     1
  1
700
  7
EXCADDIM2
 11
0.0
 21
1.0
 31
0.0
  0
POINT
  5
56A
330
562
100
AcDbEntity
  8
DEFPOINTS
 62
     0
100
AcDbPoint
 10
1352.999999999999
 20
1017.5
 30
0.0
  0
POINT
  5
56B
330
562
100
AcDbEntity
  8
DEFPOINTS
 62
     0
100
AcDbPoint
 10
1354.999999999999
 20
1717.5
 30
0.0
  0
POINT
  5
56C
330
562
100
AcDbEntity
  8
DEFPOINTS
 62
     0
100
AcDbPoint
 10
1459.999999999999
 20
1717.5
 30
0.0
  0
ENDBLK
  5
564
330
562
100
AcDbEntity
  8
0
100
AcDbBlockEnd
  0
BLOCK
  5
56F
330
56E
100
AcDbEntity
  8
0
100
AcDbBlockBegin
  2
*D24
 70
     1
 10
0.0
 20
0.0
 30
0.0
  3
*D24
  1

  0
LINE
  5
571
330
56E
100
AcDbEntity
  8
寸法
  6
CONTINUOUS
 62
     3
100
AcDbLine
 10
1185.499999821185
 20
1857.5
 30
0.0
 11
1474.999999999998
 21
1857.5
 31
0.0
  0
LINE
  5
572
330
56E
100
AcDbEntity
  8
寸法
  6
CONTINUOUS
 62
     3
100
AcDbLine
 10
1459.999999999998
 20
1762.499996185303
 30
0.0
 11
1459.999999999998
 21
1812.500003814697
 31
0.0
  0
INSERT
  5
573
330
56E
100
AcDbEntity
  8
寸法
 62
     3
100
AcDbBlockReference
  2
EX_NORM
 10
1459.999999999998
 20
1717.5
 30
0.0
 41
44.99999618530273
 42
44.99999618530273
 43
44.99999618530273
 50
270.0
  0
INSERT
  5
574
330
56E
100
AcDbEntity
  8
寸法
 62
     3
100
AcDbBlockReference
  2
EX_NORM
 10
1459.999999999998
 20
1857.5
 30
0.0
 41
44.99999618530273
 42
44.99999618530273
 43
44.99999618530273
 50
90.0
  0
MTEXT
  5
575
330
56E
100
AcDbEntity
  8
寸法
 62
     2
100
AcDbMText
 10
1424.750000089406
 20
1787.499999999999
 30
0.0
 40
59.99999618530273
 41
0.0
 71
     5
 72
     1
  1
140
  7
EXCADDIM2
 11
0.0
 21
1.0
 31
0.0
  0
POINT
  5
576
330
56E
100
AcDbEntity
  8
DEFPOINTS
 62
     0
100
AcDbPoint
 10
1354.999999999999
 20
1717.5
 30
0.0
  0
POINT
  5
577
330
56E
100
AcDbEntity
  8
DEFPOINTS
 62
     0
100
AcDbPoint
 10
1174.999999999999
 20
1857.5
 30
0.0
  0
POINT
  5
578
330
56E
100
AcDbEntity
  8
DEFPOINTS
 62
     0
100
AcDbPoint
 10
1459.999999999998
 20
1857.5
 30
0.0
  0
ENDBLK
  5
570
330
56E
100
AcDbEntity
  8
0
100
AcDbBlockEnd
  0
BLOCK
  5
57B
330
57A
100
AcDbEntity
  8
0
100
AcDbBlockBegin
  2
*D25
 70
     1
 10
0.0
 20
0.0
 30
0.0
  3
*D25
  1

  0
LINE
  5
57D
330
57A
100
AcDbEntity
  8
寸法
  6
CONTINUOUS
 62
     3
100
AcDbLine
 10
1185.499999821185
 20
1857.5
 30
0.0
 11
1565.0
 21
1857.5
 31
0.0
  0
LINE
  5
57E
330
57A
100
AcDbEntity
  8
寸法
  6
CONTINUOUS
 62
     3
100
AcDbLine
 10
1550.0
 20
1062.499996185303
 30
0.0
 11
1550.0
 21
1812.500003814697
 31
0.0
  0
INSERT
  5
57F
330
57A
100
AcDbEntity
  8
寸法
 62
     3
100
AcDbBlockReference
  2
EX_NORM
 10
1550.0
 20
1017.5
 30
0.0
 41
44.99999618530273
 42
44.99999618530273
 43
44.99999618530273
 50
270.0
  0
INSERT
  5
580
330
57A
100
AcDbEntity
  8
寸法
 62
     3
100
AcDbBlockReference
  2
EX_NORM
 10
1550.0
 20
1857.5
 30
0.0
 41
44.99999618530273
 42
44.99999618530273
 43
44.99999618530273
 50
90.0
  0
MTEXT
  5
581
330
57A
100
AcDbEntity
  8
寸法
 62
     2
100
AcDbMText
 10
1514.750000089407
 20
1437.5
 30
0.0
 40
59.99999618530273
 41
0.0
 71
     5
 72
     1
  1
840
  7
EXCADDIM2
 11
0.0
 21
1.0
 31
0.0
  0
POINT
  5
582
330
57A
100
AcDbEntity
  8
DEFPOINTS
 62
     0
100
AcDbPoint
 10
1352.999999999999
 20
1017.5
 30
0.0
  0
POINT
  5
583
330
57A
100
AcDbEntity
  8
DEFPOINTS
 62
     0
100
AcDbPoint
 10
1174.999999999999
 20
1857.5
 30
0.0
  0
POINT
  5
584
330
57A
100
AcDbEntity
  8
DEFPOINTS
 62
     0
100
AcDbPoint
 10
1550.0
 20
1857.5
 30
0.0
  0
ENDBLK
  5
57C
330
57A
100
AcDbEntity
  8
0
100
AcDbBlockEnd
  0
BLOCK
  5
594
330
593
100
AcDbEntity
  8
0
100
AcDbBlockBegin
  2
*D26
 70
     1
 10
0.0
 20
0.0
 30
0.0
  3
*D26
  1

  0
LINE
  5
596
330
593
100
AcDbEntity
  8
寸法
  6
CONTINUOUS
 62
     3
100
AcDbLine
 10
1215.499999821184
 20
2767.5
 30
0.0
 11
1659.0
 21
2767.5
 31
0.0
  0
LINE
  5
597
330
593
100
AcDbEntity
  8
寸法
  6
CONTINUOUS
 62
     3
100
AcDbLine
 10
1644.0
 20
1062.499996185303
 30
0.0
 11
1644.0
 21
2722.500003814697
 31
0.0
  0
INSERT
  5
598
330
593
100
AcDbEntity
  8
寸法
 62
     3
100
AcDbBlockReference
  2
EX_NORM
 10
1644.0
 20
1017.5
 30
0.0
 41
44.99999618530273
 42
44.99999618530273
 43
44.99999618530273
 50
270.0
  0
INSERT
  5
599
330
593
100
AcDbEntity
  8
寸法
 62
     3
100
AcDbBlockReference
  2
EX_NORM
 10
1644.0
 20
2767.5
 30
0.0
 41
44.99999618530273
 42
44.99999618530273
 43
44.99999618530273
 50
90.0
  0
MTEXT
  5
59A
330
593
100
AcDbEntity
  8
寸法
 62
     2
100
AcDbMText
 10
1608.750000089408
 20
1892.5
 30
0.0
 40
59.99999618530273
 41
0.0
 71
     5
 72
     1
  1
（1750）
  7
EXCADDIM2
 11
0.0
 21
1.0
 31
0.0
  0
POINT
  5
59B
330
593
100
AcDbEntity
  8
DEFPOINTS
 62
     0
100
AcDbPoint
 10
1277.999999999997
 20
1017.5
 30
0.0
  0
POINT
  5
59C
330
593
100
AcDbEntity
  8
DEFPOINTS
 62
     0
100
AcDbPoint
 10
1204.999999999997
 20
2767.5
 30
0.0
  0
POINT
  5
59D
330
593
100
AcDbEntity
  8
DEFPOINTS
 62
     0
100
AcDbPoint
 10
1644.0
 20
2767.5
 30
0.0
  0
ENDBLK
  5
595
330
593
100
AcDbEntity
  8
0
100
AcDbBlockEnd
  0
BLOCK
  5
5A0
330
59F
100
AcDbEntity
  8
0
100
AcDbBlockBegin
  2
*D27
 70
     1
 10
0.0
 20
0.0
 30
0.0
  3
*D27
  1

  0
LINE
  5
5A2
330
59F
100
AcDbEntity
  8
寸法
  6
CONTINUOUS
 62
     3
100
AcDbLine
 10
2565.0
 20
2187.5
 30
0.0
 11
2915.0
 21
2187.5
 31
0.0
  0
LINE
  5
5A3
330
59F
100
AcDbEntity
  8
寸法
  6
CONTINUOUS
 62
     3
100
AcDbLine
 10
2900.0
 20
2142.500003814697
 30
0.0
 11
2900.0
 21
1062.499996185303
 31
0.0
  0
INSERT
  5
5A4
330
59F
100
AcDbEntity
  8
寸法
 62
     3
100
AcDbBlockReference
  2
EX_NORM
 10
2900.0
 20
2187.5
 30
0.0
 41
44.99999618530273
 42
44.99999618530273
 43
44.99999618530273
 50
90.0
  0
INSERT
  5
5A5
330
59F
100
AcDbEntity
  8
寸法
 62
     3
100
AcDbBlockReference
  2
EX_NORM
 10
2900.0
 20
1017.5
 30
0.0
 41
44.99999618530273
 42
44.99999618530273
 43
44.99999618530273
 50
270.0
  0
MTEXT
  5
5A6
330
59F
100
AcDbEntity
  8
寸法
 62
     2
100
AcDbMText
 10
2864.750000089407
 20
1602.5
 30
0.0
 40
59.99999618530273
 41
0.0
 71
     5
 72
     1
  1
（1170）
  7
EXCADDIM2
 11
0.0
 21
1.0
 31
0.0
  0
POINT
  5
5A7
330
59F
100
AcDbEntity
  8
DEFPOINTS
 62
     0
100
AcDbPoint
 10
2557.5
 20
2187.5
 30
0.0
  0
POINT
  5
5A8
330
59F
100
AcDbEntity
  8
DEFPOINTS
 62
     0
100
AcDbPoint
 10
2900.0
 20
1017.5
 30
0.0
  0
POINT
  5
5A9
330
59F
100
AcDbEntity
  8
DEFPOINTS
 62
     0
100
AcDbPoint
 10
2900.0
 20
1017.5
 30
0.0
  0
ENDBLK
  5
5A1
330
59F
100
AcDbEntity
  8
0
100
AcDbBlockEnd
  0
ENDSEC
  0
SECTION
  2
ENTITIES
  0
LINE
  5
A9
330
1F
100
AcDbEntity
  8
枠_表
  6
CONTINUOUS
 62
     7
100
AcDbLine
 10
17.0
 20
12.5
 30
0.0
 11
199.0
 21
12.5
 31
0.0
  0
LINE
  5
AA
330
1F
100
AcDbEntity
  8
枠_表
  6
CONTINUOUS
 62
     7
100
AcDbLine
 10
199.0
 20
12.5
 30
0.0
 11
199.0
 21
287.5
 31
0.0
  0
LINE
  5
AB
330
1F
100
AcDbEntity
  8
枠_表
  6
CONTINUOUS
 62
     7
100
AcDbLine
 10
17.0
 20
12.5
 30
0.0
 11
17.0
 21
287.5
 31
0.0
  0
LINE
  5
AC
330
1F
100
AcDbEntity
  8
枠_表
  6
CONTINUOUS
 62
     7
100
AcDbLine
 10
17.0
 20
287.5
 30
0.0
 11
199.0
 21
287.5
 31
0.0
  0
LINE
  5
AD
330
1F
100
AcDbEntity
  8
枠_表
  6
CONTINUOUS
 62
     7
100
AcDbLine
 10
17.0
 20
34.5
 30
0.0
 11
199.0
 21
34.5
 31
0.0
  0
LINE
  5
AE
330
1F
100
AcDbEntity
  8
枠_表
  6
CONTINUOUS
 62
     6
100
AcDbLine
 10
199.0
 20
22.5
 30
0.0
 11
73.99999999999989
 21
22.5
 31
0.0
  0
LINE
  5
AF
330
1F
100
AcDbEntity
  8
枠_表
  6
CONTINUOUS
 62
     6
100
AcDbLine
 10
185.0
 20
34.5
 30
0.0
 11
185.0
 21
22.5
 31
0.0
  0
LINE
  5
B0
330
1F
100
AcDbEntity
  8
枠_表
  6
CONTINUOUS
 62
     6
100
AcDbLine
 10
180.0
 20
34.5
 30
0.0
 11
180.0
 21
22.5
 31
0.0
  0
LINE
  5
B1
330
1F
100
AcDbEntity
  8
枠_表
  6
CONTINUOUS
 62
     6
100
AcDbLine
 10
142.9999999999999
 20
34.5
 30
0.0
 11
142.9999999999999
 21
12.5
 31
0.0
  0
LINE
  5
B2
330
1F
100
AcDbEntity
  8
枠_表
  6
CONTINUOUS
 62
     6
100
AcDbLine
 10
137.9999999999999
 20
34.5
 30
0.0
 11
137.9999999999999
 21
12.5
 31
0.0
  0
LINE
  5
B3
330
1F
100
AcDbEntity
  8
枠_表
  6
CONTINUOUS
 62
     6
100
AcDbLine
 10
78.99999999999989
 20
34.5
 30
0.0
 11
78.99999999999989
 21
22.5
 31
0.0
  0
LINE
  5
B4
330
1F
100
AcDbEntity
  8
枠_表
  6
CONTINUOUS
 62
     6
100
AcDbLine
 10
73.99999999999989
 20
34.5
 30
0.0
 11
73.99999999999989
 21
12.5
 31
0.0
  0
LINE
  5
B5
330
1F
100
AcDbEntity
  8
枠_表
  6
CONTINUOUS
 62
     6
100
AcDbLine
 10
60.99999999999989
 20
34.5
 30
0.0
 11
60.99999999999989
 21
12.5
 31
0.0
  0
LINE
  5
B6
330
1F
100
AcDbEntity
  8
枠_表
  6
CONTINUOUS
 62
     6
100
AcDbLine
 10
47.99999999999989
 20
34.5
 30
0.0
 11
47.99999999999989
 21
12.5
 31
0.0
  0
LINE
  5
B7
330
1F
100
AcDbEntity
  8
枠_表
  6
CONTINUOUS
 62
     6
100
AcDbLine
 10
32.49999999999994
 20
34.5
 30
0.0
 11
32.49999999999994
 21
12.5
 31
0.0
  0
LINE
  5
B8
330
1F
100
AcDbEntity
  8
枠_表
  6
CONTINUOUS
 62
     6
100
AcDbLine
 10
17.0
 20
29.5
 30
0.0
 11
73.99999999999989
 21
29.5
 31
0.0
  0
LINE
  5
B9
330
1F
100
AcDbEntity
  8
枠_表
  6
CONTINUOUS
 62
     6
100
AcDbLine
 10
188.2653808599999
 20
24.80029296999999
 30
0.0
 11
195.99938965
 21
32.66998290999999
 31
0.0
  0
CIRCLE
  5
BA
330
1F
100
AcDbEntity
  8
枠_表
  6
CONTINUOUS
 62
     6
100
AcDbCircle
 10
22.0
 20
15.0
 30
0.0
 40
0.10000002
  0
CIRCLE
  5
BB
330
1F
100
AcDbEntity
  8
枠_表
  6
CONTINUOUS
 62
     6
100
AcDbCircle
 10
27.0
 20
15.0
 30
0.0
 40
0.10000002
  0
CIRCLE
  5
BC
330
1F
100
AcDbEntity
  8
枠_表
  6
CONTINUOUS
 62
     6
100
AcDbCircle
 10
37.49999999999994
 20
15.0
 30
0.0
 40
0.10000002
  0
CIRCLE
  5
BD
330
1F
100
AcDbEntity
  8
枠_表
  6
CONTINUOUS
 62
     6
100
AcDbCircle
 10
42.49999999999994
 20
15.0
 30
0.0
 40
0.10000002
  0
LINE
  5
BE
330
1F
100
AcDbEntity
  8
枠_表
  6
EXLTYPE2
 62
     6
100
AcDbLine
 10
17.0
 20
17.5
 30
0.0
 11
47.99999999999989
 21
17.5
 31
0.0
  0
TEXT
  5
BF
330
1F
100
AcDbEntity
  8
枠_表
  6
CONTINUOUS
 62
     2
100
AcDbText
 10
188.05371094
 20
29.27227783000001
 30
0.0
 40
3.0
  1
１
 41
1.101333351135257
  7
EXCADSTD
 72
     5
 11
190.413710978147
 21
29.27227783000001
 31
0.0
100
AcDbText
  0
TEXT
  5
C0
330
1F
100
AcDbEntity
  8
枠_表
  6
CONTINUOUS
 62
     2
100
AcDbText
 10
192.12792969
 20
24.83488463999998
 30
0.0
 40
3.0
  1
１５
 41
1.098531230663534
  7
EXCADSTD
 72
     5
 11
197.3067197774138
 21
24.83488463999998
 31
0.0
100
AcDbText
  0
TEXT
  5
C1
330
1F
100
AcDbEntity
  8
枠_表
  6
CONTINUOUS
 62
     2
100
AcDbText
 10
19.25
 20
29.875
 30
0.0
 40
4.25
  1
製図
 41
1.509694117647059
  7
EXCADSTD
 72
     5
 11
29.3326
 21
29.875
 31
0.0
100
AcDbText
  0
TEXT
  5
C2
330
1F
100
AcDbEntity
  8
枠_表
  6
CONTINUOUS
 62
     2
100
AcDbText
 10
34.74999999999994
 20
29.875
 30
0.0
 40
4.25
  1
写図
 41
1.509694117647059
  7
EXCADSTD
 72
     5
 11
44.83259999999994
 21
29.875
 31
0.0
100
AcDbText
  0
TEXT
  5
C3
330
1F
100
AcDbEntity
  8
枠_表
  6
CONTINUOUS
 62
     2
100
AcDbText
 10
49.74999999999989
 20
29.875
 30
0.0
 40
4.25
  1
検図
 41
1.303826737967915
  7
EXCADSTD
 72
     5
 11
58.45769999999989
 21
29.875
 31
0.0
100
AcDbText
  0
TEXT
  5
C4
330
1F
100
AcDbEntity
  8
枠_表
  6
CONTINUOUS
 62
     2
100
AcDbText
 10
62.74999999999989
 20
29.875
 30
0.0
 40
4.25
  1
承認
 41
1.303826737967915
  7
EXCADSTD
 72
     5
 11
71.45769999999989
 21
29.875
 31
0.0
100
AcDbText
  0
TEXT
  5
C5
330
1F
100
AcDbEntity
  8
枠_表
  6
CONTINUOUS
 62
     2
100
AcDbText
 10
74.57499999999987
 20
28.875
 30
0.0
 40
4.25
  1
品
 41
1.120000000000002
  7
EXCADSTD
 72
     5
 11
77.97499999999988
 21
28.875
 31
0.0
100
AcDbText
  0
TEXT
  5
C6
330
1F
100
AcDbEntity
  8
枠_表
  6
CONTINUOUS
 62
     2
100
AcDbText
 10
74.57499999999987
 20
23.875
 30
0.0
 40
4.25
  1
名
 41
1.120000000000002
  7
EXCADSTD
 72
     5
 11
77.97499999999988
 21
23.875
 31
0.0
100
AcDbText
  0
TEXT
  5
C7
330
1F
100
AcDbEntity
  8
枠_表
  6
CONTINUOUS
 62
     2
100
AcDbText
 10
138.5749999999999
 20
28.875
 30
0.0
 40
4.25
  1
品
 41
1.120000000000002
  7
EXCADSTD
 72
     5
 11
141.9749999999999
 21
28.875
 31
0.0
100
AcDbText
  0
TEXT
  5
C8
330
1F
100
AcDbEntity
  8
枠_表
  6
CONTINUOUS
 62
     2
100
AcDbText
 10
138.5749999999999
 20
23.875
 30
0.0
 40
4.25
  1
番
 41
1.120000000000002
  7
EXCADSTD
 72
     5
 11
141.9749999999999
 21
23.875
 31
0.0
100
AcDbText
  0
TEXT
  5
C9
330
1F
100
AcDbEntity
  8
枠_表
  6
CONTINUOUS
 62
     2
100
AcDbText
 10
180.675
 20
28.875
 30
0.0
 40
4.25
  1
尺
 41
1.120000000000002
  7
EXCADSTD
 72
     5
 11
184.075
 21
28.875
 31
0.0
100
AcDbText
  0
TEXT
  5
CA
330
1F
100
AcDbEntity
  8
枠_表
  6
CONTINUOUS
 62
     2
100
AcDbText
 10
180.675
 20
23.875
 30
0.0
 40
4.25
  1
度
 41
1.120000000000002
  7
EXCADSTD
 72
     5
 11
184.075
 21
23.875
 31
0.0
100
AcDbText
  0
TEXT
  5
CB
330
1F
100
AcDbEntity
  8
枠_表
  6
CONTINUOUS
 62
     2
100
AcDbText
 10
138.5749999999999
 20
17.57499999999999
 30
0.0
 40
4.25
  1
図
 41
1.120000000000002
  7
EXCADSTD
 72
     5
 11
141.9749999999999
 21
17.57499999999999
 31
0.0
100
AcDbText
  0
TEXT
  5
CC
330
1F
100
AcDbEntity
  8
枠_表
  6
CONTINUOUS
 62
     2
100
AcDbText
 10
138.5749999999999
 20
13.27499999999998
 30
0.0
 40
4.25
  1
番
 41
1.120000000000002
  7
EXCADSTD
 72
     5
 11
141.9749999999999
 21
13.27499999999998
 31
0.0
100
AcDbText
  0
LINE
  5
CD
330
1F
100
AcDbEntity
  8
枠_表
  6
CONTINUOUS
 62
     6
100
AcDbLine
 10
123.9999999999999
 20
282.5
 30
0.0
 11
194.0
 21
282.5
 31
0.0
  0
LINE
  5
CE
330
1F
100
AcDbEntity
  8
枠_表
  6
CONTINUOUS
 62
     6
100
AcDbLine
 10
123.9999999999999
 20
277.0
 30
0.0
 11
194.0
 21
277.0
 31
0.0
  0
LINE
  5
CF
330
1F
100
AcDbEntity
  8
枠_表
  6
CONTINUOUS
 62
     6
100
AcDbLine
 10
123.9999999999999
 20
271.5
 30
0.0
 11
194.0
 21
271.5
 31
0.0
  0
TEXT
  5
D0
330
1F
100
AcDbEntity
  8
枠_表
  6
CONTINUOUS
 62
     2
100
AcDbText
 10
131.9999999999999
 20
277.75
 30
0.0
 40
4.0
  1
品番
 41
2.041518181818183
  7
EXCADSTD
 72
     5
 11
144.8324
 21
277.75
 31
0.0
100
AcDbText
  0
TEXT
  5
D1
330
1F
100
AcDbEntity
  8
枠_表
  6
CONTINUOUS
 62
     2
100
AcDbText
 10
167.0000000000001
 20
277.75
 30
0.0
 40
4.0
  1
品名
 41
2.041518181818183
  7
EXCADSTD
 72
     5
 11
179.8324000000001
 21
277.75
 31
0.0
100
AcDbText
  0
TEXT
  5
D2
330
1F
100
AcDbEntity
  8
枠_表
  6
CONTINUOUS
 62
     2
100
AcDbText
 10
155.0000000000001
 20
272.25
 30
0.0
 40
4.0
  1
洗面化粧台
 41
1.086206896551724
  7
EXCADSTD
 72
     5
 11
173.0000000000001
 21
272.25
 31
0.0
100
AcDbText
  0
TEXT
  5
D3
330
1F
100
AcDbEntity
  8
枠_表
  6
CONTINUOUS
 62
     2
100
AcDbText
 10
79.99999999999989
 20
28.5
 30
0.0
 40
5.0
  1
900㎜幅
 41
0.8693548387096776
  7
EXCADSTD
 72
     5
 11
99.24999999999989
 21
28.5
 31
0.0
100
AcDbText
  0
TEXT
  5
D4
330
1F
100
AcDbEntity
  8
枠_表
  6
CONTINUOUS
 62
     2
100
AcDbText
 10
79.99999999999989
 20
23.5
 30
0.0
 40
5.0
  1
　洗面化粧ユニット
 41
1.307547169811321
  7
EXCADSTD
 72
     5
 11
129.4999999999999
 21
23.5
 31
0.0
100
AcDbText
  0
TEXT
  5
D6
330
1F
100
AcDbEntity
  8
枠_表
  6
CONTINUOUS
 62
     2
100
AcDbText
 10
75.99999999999994
 20
14.5
 30
0.0
 40
4.5
  1
ジャニス工業株式会社
 41
1.025641025641026
  7
EXCADTTF1
 72
     5
 11
135.9999999999999
 21
14.5
 31
0.0
100
AcDbText
  0
TEXT
  5
D7
330
1F
100
AcDbEntity
  8
枠_表
  6
CONTINUOUS
 62
     2
100
AcDbText
 10
62.49999999999949
 20
21.0
 30
0.0
 40
5.0
  1
古林
 41
1.22491090909091
  7
EXCADSTD
 72
     5
 11
72.1242999999995
 21
21.0
 31
0.0
100
AcDbText
  0
TEXT
  5
D8
330
1F
100
AcDbEntity
  8
枠_表
  6
CONTINUOUS
 62
     2
100
AcDbText
 10
124.9999999999999
 20
272.25
 30
0.0
 40
4.0
  1
ＬＵ９０１ＴＳＤＲ
 41
0.8287735817567363
  7
EXCADSTD
 72
     5
 11
150.0999999046325
 21
272.25
 31
0.0
100
AcDbText
  0
LINE
  5
D9
330
1F
100
AcDbEntity
  8
枠_表
  6
CONTINUOUS
 62
     6
100
AcDbLine
 10
123.9999999999999
 20
266.0
 30
0.0
 11
194.0
 21
266.0
 31
0.0
  0
TEXT
  5
DA
330
1F
100
AcDbEntity
  8
枠_表
  6
CONTINUOUS
 62
     2
100
AcDbText
 10
155.0000000000001
 20
266.75
 30
0.0
 40
4.0
  1
化粧鏡
 41
1.132352941176471
  7
EXCADSTD
 72
     5
 11
166.0000000000001
 21
266.75
 31
0.0
100
AcDbText
  0
LINE
  5
DB
330
1F
100
AcDbEntity
  8
枠_表
  6
CONTINUOUS
 62
     6
100
AcDbLine
 10
123.9999999999999
 20
255.0
 30
0.0
 11
194.0
 21
255.0
 31
0.0
  0
LINE
  5
DC
330
1F
100
AcDbEntity
  8
枠_表
  6
CONTINUOUS
 62
     6
100
AcDbLine
 10
123.9999999999999
 20
249.5
 30
0.0
 11
194.0
 21
249.5
 31
0.0
  0
LINE
  5
DD
330
1F
100
AcDbEntity
  8
枠_表
  6
CONTINUOUS
 62
     6
100
AcDbLine
 10
123.9999999999999
 20
244.0
 30
0.0
 11
194.0
 21
244.0
 31
0.0
  0
LINE
  5
DE
330
1F
100
AcDbEntity
  8
枠_表
  6
CONTINUOUS
 62
     6
100
AcDbLine
 10
123.9999999999999
 20
238.5
 30
0.0
 11
194.0
 21
238.5
 31
0.0
  0
LINE
  5
DF
330
1F
100
AcDbEntity
  8
枠_表
  6
CONTINUOUS
 62
     6
100
AcDbLine
 10
123.9999999999999
 20
233.0
 30
0.0
 11
194.0
 21
233.0
 31
0.0
  0
LINE
  5
E0
330
1F
100
AcDbEntity
  8
枠_表
  6
CONTINUOUS
 62
     6
100
AcDbLine
 10
123.9999999999999
 20
227.5
 30
0.0
 11
194.0
 21
227.5
 31
0.0
  0
LINE
  5
E1
330
1F
100
AcDbEntity
  8
枠_表
  6
CONTINUOUS
 62
     6
100
AcDbLine
 10
123.9999999999999
 20
222.0
 30
0.0
 11
194.0
 21
222.0
 31
0.0
  0
LINE
  5
E2
330
1F
100
AcDbEntity
  8
枠_表
  6
CONTINUOUS
 62
     6
100
AcDbLine
 10
123.9999999999999
 20
216.5
 30
0.0
 11
194.0
 21
216.5
 31
0.0
  0
LINE
  5
E3
330
1F
100
AcDbEntity
  8
枠_表
  6
CONTINUOUS
 62
     6
100
AcDbLine
 10
123.9999999999999
 20
216.5
 30
0.0
 11
123.9999999999999
 21
255.0
 31
0.0
  0
LINE
  5
E4
330
1F
100
AcDbEntity
  8
枠_表
  6
CONTINUOUS
 62
     6
100
AcDbLine
 10
194.0
 20
216.5
 30
0.0
 11
194.0
 21
255.0
 31
0.0
  0
TEXT
  5
E5
330
1F
100
AcDbEntity
  8
枠_表
  6
CONTINUOUS
 62
     2
100
AcDbText
 10
124.9999999999999
 20
244.75
 30
0.0
 40
4.0
  1
Ｐ２２３４
 41
0.8629310316052923
  7
EXCADSTD
 72
     5
 11
139.2999999523162
 21
244.75
 31
0.0
100
AcDbText
  0
TEXT
  5
E6
330
1F
100
AcDbEntity
  8
枠_表
  6
CONTINUOUS
 62
     2
100
AcDbText
 10
124.9999999999999
 20
239.25
 30
0.0
 40
4.0
  1
Ｐ２２３３
 41
0.8629310316052923
  7
EXCADSTD
 72
     5
 11
139.2999999523162
 21
239.25
 31
0.0
100
AcDbText
  0
TEXT
  5
E7
330
1F
100
AcDbEntity
  8
枠_表
  6
CONTINUOUS
 62
     2
100
AcDbText
 10
124.9999999999999
 20
233.75
 30
0.0
 40
4.0
  1
Ｐ２２３２
 41
0.8629310316052923
  7
EXCADSTD
 72
     5
 11
139.2999999523162
 21
233.75
 31
0.0
100
AcDbText
  0
TEXT
  5
E8
330
1F
100
AcDbEntity
  8
枠_表
  6
CONTINUOUS
 62
     2
100
AcDbText
 10
124.9999999999999
 20
217.25
 30
0.0
 40
4.0
  1
ＮＬ２１１－３７５ＷＹ
 41
0.8211538429443651
  7
EXCADSTD
 72
     5
 11
155.4999998807906
 21
217.25
 31
0.0
100
AcDbText
  0
LINE
  5
E9
330
1F
100
AcDbEntity
  8
枠_表
  6
CONTINUOUS
 62
     6
100
AcDbLine
 10
158.9999999999999
 20
216.5
 30
0.0
 11
158.9999999999999
 21
255.0
 31
0.0
  0
TEXT
  5
EA
330
1F
100
AcDbEntity
  8
枠_表
  6
CONTINUOUS
 62
     2
100
AcDbText
 10
160.0000000000001
 20
244.75
 30
0.0
 40
4.0
  1
Ｐトラップ
 41
1.086206896551724
  7
EXCADSTD
 72
     5
 11
178.0000000000001
 21
244.75
 31
0.0
100
AcDbText
  0
TEXT
  5
EB
330
1F
100
AcDbEntity
  8
枠_表
  6
CONTINUOUS
 62
     2
100
AcDbText
 10
160.0000000000001
 20
239.25
 30
0.0
 40
4.0
  1
Ｓトラップ
 41
1.086206896551724
  7
EXCADSTD
 72
     5
 11
178.0000000000001
 21
239.25
 31
0.0
100
AcDbText
  0
TEXT
  5
EC
330
1F
100
AcDbEntity
  8
枠_表
  6
CONTINUOUS
 62
     2
100
AcDbText
 10
160.0000000000001
 20
233.75
 30
0.0
 40
4.0
  1
ボトルトラップ
 41
1.067073170731707
  7
EXCADSTD
 72
     5
 11
185.0000000000001
 21
233.75
 31
0.0
100
AcDbText
  0
TEXT
  5
ED
330
1F
100
AcDbEntity
  8
枠_表
  6
CONTINUOUS
 62
     2
100
AcDbText
 10
160.0000000000001
 20
228.25
 30
0.0
 40
4.0
  1
配管アダプター
 41
1.067073170731707
  7
EXCADSTD
 72
     5
 11
185.0000000000001
 21
228.25
 31
0.0
100
AcDbText
  0
TEXT
  5
EE
330
1F
100
AcDbEntity
  8
枠_表
  6
CONTINUOUS
 62
     2
100
AcDbText
 10
160.0000000000001
 20
222.75
 30
0.0
 40
4.0
  1
アングル形止水栓
 41
1.061170212765957
  7
EXCADSTD
 72
     5
 11
188.5000000000001
 21
222.75
 31
0.0
100
AcDbText
  0
TEXT
  5
EF
330
1F
100
AcDbEntity
  8
枠_表
  6
CONTINUOUS
 62
     2
100
AcDbText
 10
160.0000000000001
 20
217.25
 30
0.0
 40
4.0
  1
ストレート形止水栓
 41
1.056603773584906
  7
EXCADSTD
 72
     5
 11
192.0000000000001
 21
217.25
 31
0.0
100
AcDbText
  0
TEXT
  5
F0
330
1F
100
AcDbEntity
  8
枠_表
  6
CONTINUOUS
 62
     2
100
AcDbText
 10
134.4999999999999
 20
250.25
 30
0.0
 40
4.0
  1
品番
 41
2.041518181818183
  7
EXCADSTD
 72
     5
 11
147.3323999999999
 21
250.25
 31
0.0
100
AcDbText
  0
TEXT
  5
F1
330
1F
100
AcDbEntity
  8
枠_表
  6
CONTINUOUS
 62
     2
100
AcDbText
 10
169.5000000000001
 20
250.25
 30
0.0
 40
4.0
  1
品名
 41
2.041518181818183
  7
EXCADSTD
 72
     5
 11
182.3324000000001
 21
250.25
 31
0.0
100
AcDbText
  0
TEXT
  5
F2
330
1F
100
AcDbEntity
  8
枠_表
  6
CONTINUOUS
 62
     2
100
AcDbText
 10
124.3999999999999
 20
256.0
 30
0.0
 40
4.0
  1
※選択部材（別途手配）
 41
0.9692307660212882
  7
EXCADSTD
 72
     5
 11
160.3999998807906
 21
256.0
 31
0.0
100
AcDbText
  0
LINE
  5
F3
330
1F
100
AcDbEntity
  8
枠_表
  6
CONTINUOUS
 62
     6
100
AcDbLine
 10
123.9999999999999
 20
266.0
 30
0.0
 11
123.9999999999999
 21
282.5
 31
0.0
  0
LINE
  5
F4
330
1F
100
AcDbEntity
  8
枠_表
  6
CONTINUOUS
 62
     6
100
AcDbLine
 10
154.0
 20
266.0
 30
0.0
 11
154.0
 21
282.5
 31
0.0
  0
LINE
  5
F5
330
1F
100
AcDbEntity
  8
枠_表
  6
CONTINUOUS
 62
     6
100
AcDbLine
 10
194.0
 20
266.0
 30
0.0
 11
194.0
 21
282.5
 31
0.0
  0
TEXT
  5
F6
330
1F
100
AcDbEntity
  8
枠_表
  6
CONTINUOUS
 62
     2
100
AcDbText
 10
19.74999999999955
 20
21.0
 30
0.0
 40
5.0
  1
間瀬
 41
1.224910909090909
  7
EXCADSTD
 72
     5
 11
29.37429999999954
 21
21.0
 31
0.0
100
AcDbText
  0
TEXT
  5
F7
330
1F
100
AcDbEntity
  8
枠_表
  6
CONTINUOUS
 62
     2
100
AcDbText
 10
124.9999999999999
 20
222.75
 30
0.0
 40
4.0
  1
ＮＬ２２１－７５ＷＭＹ
 41
0.8211538429443651
  7
EXCADSTD
 72
     5
 11
155.4999998807906
 21
222.75
 31
0.0
100
AcDbText
  0
TEXT
  5
F8
330
1F
100
AcDbEntity
  8
枠_表
  6
CONTINUOUS
 62
     2
100
AcDbText
 10
124.9999999999999
 20
228.25
 30
0.0
 40
4.0
  1
ＬＵＭＥＨ７０－２０－３２Ｂ
 41
0.6662650569734804
  7
EXCADSTD
 72
     5
 11
156.5999998450278
 21
228.25
 31
0.0
100
AcDbText
  0
TEXT
  5
F9
330
1F
100
AcDbEntity
  8
枠_表
  6
CONTINUOUS
 62
     2
100
AcDbText
 10
17.44999999000004
 20
13.0
 30
0.0
 40
4.0
  1
22
 41
0.454054054054054
  7
EXCADSTD
 72
     5
 11
20.64999999000004
 21
13.0
 31
0.0
100
AcDbText
  0
TEXT
  5
FA
330
1F
100
AcDbEntity
  8
枠_表
  6
CONTINUOUS
 62
     2
100
AcDbText
 10
23.375
 20
13.0
 30
0.0
 40
4.0
  1
4
 41
0.4265624999999996
  7
EXCADSTD
 72
     5
 11
24.8375
 21
13.0
 31
0.0
100
AcDbText
  0
TEXT
  5
FB
330
1F
100
AcDbEntity
  8
枠_表
  6
CONTINUOUS
 62
     2
100
AcDbText
 10
27.80000001000002
 20
13.0
 30
0.0
 40
4.0
  1
23
 41
0.454054054054054
  7
EXCADSTD
 72
     5
 11
31.00000001000002
 21
13.0
 31
0.0
100
AcDbText
  0
TEXT
  5
FC
330
1F
100
AcDbEntity
  8
枠_表
  6
CONTINUOUS
 62
     2
100
AcDbText
 10
143.9999999999999
 20
28.5
 30
0.0
 40
5.0
  1
ＬＵ９０１ＴＳＤＲ型
 41
0.8542372881355933
  7
EXCADSTD
 72
     5
 11
179.9999999999999
 21
28.5
 31
0.0
100
AcDbText
  0
TEXT
  5
FD
330
1F
100
AcDbEntity
  8
枠_表
  6
CONTINUOUS
 62
     2
100
AcDbText
 10
143.9999999999999
 20
23.5
 30
0.0
 40
5.0
  1
ＬＵＭ６０１ＣＳ
 41
0.8638297872340426
  7
EXCADSTD
 72
     5
 11
172.9999999999999
 21
23.5
 31
0.0
100
AcDbText
  0
TEXT
  5
FE
330
1F
100
AcDbEntity
  8
枠_表
  6
CONTINUOUS
 62
     7
100
AcDbText
 10
144.200000166893
 20
14.14999999999998
 30
0.0
 40
7.0
  1
ＬＵＡ１０１８０
 41
1.140425524813064
  7
EXCADSTD
 72
     5
 11
197.799999833107
 21
14.14999999999998
 31
0.0
100
AcDbText
  0
TEXT
  5
FF
330
1F
100
AcDbEntity
  8
枠_表
  6
CONTINUOUS
 62
     2
100
AcDbText
 10
124.9999999999999
 20
266.75
 30
0.0
 40
4.0
  1
ＬＵＭ６０１ＣＳ
 41
0.8340425500844394
  7
EXCADSTD
 72
     5
 11
147.3999999165534
 21
266.75
 31
0.0
100
AcDbText
  0
POLYLINE
  5
100
330
1F
100
AcDbEntity
  8
化粧台
  6
CONTINUOUS
 62
     3
100
AcDb2dPolyline
 66
     1
 10
0.0
 20
0.0
 30
0.0
 70
   128
  0
VERTEX
  5
101
330
100
100
AcDbEntity
  8
化粧台
  6
CONTINUOUS
 62
     3
100
AcDbVertex
100
AcDb2dVertex
 10
1586.999999999998
 20
3929.5
 30
0.0
  0
VERTEX
  5
102
330
100
100
AcDbEntity
  8
化粧台
  6
CONTINUOUS
 62
     3
100
AcDbVertex
100
AcDb2dVertex
 10
1609.999999999998
 20
3880.0
 30
0.0
  0
SEQEND
  5
103
330
100
100
AcDbEntity
  8
化粧台
  6
CONTINUOUS
 62
     3
  0
LINE
  5
104
330
1F
100
AcDbEntity
  8
化粧台
  6
CONTINUOUS
 62
     3
100
AcDbLine
 10
1612.763749118669
 20
3891.850574621249
 30
0.0
 11
1586.999999999998
 21
3929.5
 31
0.0
  0
LINE
  5
105
330
1F
100
AcDbEntity
  8
化粧台
  6
CONTINUOUS
 62
     3
100
AcDbLine
 10
1586.999999999998
 20
3929.5
 30
0.0
 11
1599.160489584011
 21
3885.529868170801
 31
0.0
  0
POLYLINE
  5
106
330
1F
100
AcDbEntity
  8
化粧台
  6
CONTINUOUS
 62
     3
100
AcDb2dPolyline
 66
     1
 10
0.0
 20
0.0
 30
0.0
 70
   128
  0
VERTEX
  5
107
330
106
100
AcDbEntity
  8
化粧台
  6
CONTINUOUS
 62
     3
100
AcDbVertex
100
AcDb2dVertex
 10
2435.0
 20
2921.5
 30
0.0
  0
VERTEX
  5
108
330
106
100
AcDbEntity
  8
化粧台
  6
CONTINUOUS
 62
     3
100
AcDbVertex
100
AcDb2dVertex
 10
2389.0
 20
2941.5
 30
0.0
  0
SEQEND
  5
109
330
106
100
AcDbEntity
  8
化粧台
  6
CONTINUOUS
 62
     3
  0
LINE
  5
10A
330
1F
100
AcDbEntity
  8
化粧台
  6
CONTINUOUS
 62
     3
100
AcDbLine
 10
2390.741401632996
 20
2932.564649591751
 30
0.0
 11
2435.0
 21
2921.5
 31
0.0
  0
LINE
  5
10B
330
1F
100
AcDbEntity
  8
化粧台
  6
CONTINUOUS
 62
     3
100
AcDbLine
 10
2435.0
 20
2921.5
 30
0.0
 11
2396.722293304213
 21
2946.320700435549
 31
0.0
  0
POLYLINE
  5
10C
330
1F
100
AcDbEntity
  8
化粧台
  6
CONTINUOUS
 62
     3
100
AcDb2dPolyline
 66
     1
 10
0.0
 20
0.0
 30
0.0
 70
   128
  0
VERTEX
  5
10D
330
10C
100
AcDbEntity
  8
化粧台
  6
CONTINUOUS
 62
     3
100
AcDbVertex
100
AcDb2dVertex
 10
1932.999999999998
 20
1017.5
 30
0.0
  0
VERTEX
  5
10E
330
10C
100
AcDbEntity
  8
化粧台
  6
CONTINUOUS
 62
     3
100
AcDbVertex
100
AcDb2dVertex
 10
1913.999999999998
 20
1066.5
 30
0.0
  0
SEQEND
  5
10F
330
10C
100
AcDbEntity
  8
化粧台
  6
CONTINUOUS
 62
     3
  0
LINE
  5
110
330
1F
100
AcDbEntity
  8
化粧台
  6
CONTINUOUS
 62
     3
100
AcDbLine
 10
1909.738536730783
 20
1056.744799994075
 30
0.0
 11
1932.999999999998
 21
1017.5
 31
0.0
  0
LINE
  5
111
330
1F
100
AcDbEntity
  8
化粧台
  6
CONTINUOUS
 62
     3
100
AcDbLine
 10
1932.999999999998
 20
1017.5
 30
0.0
 11
1923.723956365035
 21
1062.167717811438
 31
0.0
  0
LINE
  5
112
330
1F
100
AcDbEntity
  8
化粧台
  6
EXLTYPE4
 62
     6
100
AcDbLine
 10
1713.999999999998
 20
1017.5
 30
0.0
 11
305.0
 21
1017.5
 31
0.0
  0
LINE
  5
113
330
1F
100
AcDbEntity
  8
化粧台
  6
EXLTYPE4
 62
     6
100
AcDbLine
 10
318.0
 20
3929.5
 30
0.0
 11
1727.999999999998
 21
3929.5
 31
0.0
  0
TEXT
  5
114
330
1F
100
AcDbEntity
  8
化粧台
  6
CONTINUOUS
 62
     2
100
AcDbText
 10
1629.00000053644
 20
3869.500003814697
 30
0.0
 40
59.99999618530273
  1
W.L.
 41
0.5571963512150641
  7
EXCADSTD
 72
     5
 11
1719.74340053644
 21
3869.500003814697
 31
0.0
100
AcDbText
  0
ARC
  5
115
330
1F
100
AcDbEntity
  8
化粧台
  6
CONTINUOUS
 62
     2
100
AcDbCircle
 10
640.0000000000009
 20
3439.5
 30
0.0
 40
10.0
100
AcDbArc
 50
180.0
 51
270.0000000000002
  0
ARC
  5
116
330
1F
100
AcDbEntity
  8
化粧台
  6
CONTINUOUS
 62
     2
100
AcDbCircle
 10
1170.0
 20
3439.5
 30
0.0
 40
10.0
100
AcDbArc
 50
270.0000000000002
 51
0.0
  0
LINE
  5
117
330
1F
100
AcDbEntity
  8
化粧台
  6
CONTINUOUS
 62
     2
100
AcDbLine
 10
1180.0
 20
3929.5
 30
0.0
 11
1180.0
 21
3439.5
 31
0.0
  0
LINE
  5
118
330
1F
100
AcDbEntity
  8
化粧台
  6
CONTINUOUS
 62
     2
100
AcDbLine
 10
640.0000000000009
 20
3429.5
 30
0.0
 11
1170.0
 21
3429.5
 31
0.0
  0
LINE
  5
119
330
1F
100
AcDbEntity
  8
化粧台
  6
CONTINUOUS
 62
     2
100
AcDbLine
 10
630.0000000000009
 20
3929.5
 30
0.0
 11
630.0000000000009
 21
3439.5
 31
0.0
  0
LINE
  5
11A
330
1F
100
AcDbEntity
  8
化粧台
  6
CONTINUOUS
 62
     2
100
AcDbLine
 10
661.0000000000009
 20
3440.5
 30
0.0
 11
1149.0
 21
3440.5
 31
0.0
  0
ARC
  5
11B
330
1F
100
AcDbEntity
  8
化粧台
  6
CONTINUOUS
 62
     2
100
AcDbCircle
 10
661.0000000000009
 20
3460.5
 30
0.0
 40
20.0
100
AcDbArc
 50
180.0
 51
270.0000000000002
  0
ARC
  5
11C
330
1F
100
AcDbEntity
  8
化粧台
  6
CONTINUOUS
 62
     2
100
AcDbCircle
 10
1149.0
 20
3460.5
 30
0.0
 40
20.0
100
AcDbArc
 50
270.0000000000002
 51
0.0
  0
LINE
  5
11D
330
1F
100
AcDbEntity
  8
化粧台
  6
CONTINUOUS
 62
     2
100
AcDbLine
 10
980.0000000000018
 20
3740.5
 30
0.0
 11
980.0000000000018
 21
3594.5
 31
0.0
  0
LINE
  5
11E
330
1F
100
AcDbEntity
  8
化粧台
  6
CONTINUOUS
 62
     2
100
AcDbLine
 10
830.0000000000018
 20
3740.5
 30
0.0
 11
830.0000000000018
 21
3594.5
 31
0.0
  0
LINE
  5
11F
330
1F
100
AcDbEntity
  8
化粧台
  6
CONTINUOUS
 62
     2
100
AcDbLine
 10
830.0000000000018
 20
3594.5
 30
0.0
 11
980.0000000000018
 21
3594.5
 31
0.0
  0
ARC
  5
120
330
1F
100
AcDbEntity
  8
化粧台
  6
CONTINUOUS
 62
     2
100
AcDbCircle
 10
236.0624573310461
 20
4130.446075093718
 30
0.0
 40
800.0000000000006
100
AcDbArc
 50
301.6289008635034
 51
317.9381374214719
  0
ARC
  5
121
330
1F
100
AcDbEntity
  8
化粧台
  6
CONTINUOUS
 62
     2
100
AcDbCircle
 10
1573.937542668956
 20
4130.446075093718
 30
0.0
 40
800.0000000000006
100
AcDbArc
 50
222.0618625785282
 51
238.3710991364966
  0
ARC
  5
122
330
1F
100
AcDbEntity
  8
化粧台
  6
CONTINUOUS
 62
     2
100
AcDbCircle
 10
651.0000000000009
 20
3904.5
 30
0.0
 40
10.0
100
AcDbArc
 50
90.00000000000004
 51
180.0
  0
ARC
  5
123
330
1F
100
AcDbEntity
  8
化粧台
  6
CONTINUOUS
 62
     2
100
AcDbCircle
 10
1159.0
 20
3904.5
 30
0.0
 40
10.0
100
AcDbArc
 50
0.0
 51
90.00000000000004
  0
LINE
  5
124
330
1F
100
AcDbEntity
  8
化粧台
  6
CONTINUOUS
 62
     2
100
AcDbLine
 10
641.0000000000009
 20
3904.5
 30
0.0
 11
641.0000000000009
 21
3460.5
 31
0.0
  0
LINE
  5
125
330
1F
100
AcDbEntity
  8
化粧台
  6
CONTINUOUS
 62
     2
100
AcDbLine
 10
651.0000000000009
 20
3914.5
 30
0.0
 11
1159.0
 21
3914.5
 31
0.0
  0
LINE
  5
126
330
1F
100
AcDbEntity
  8
化粧台
  6
CONTINUOUS
 62
     2
100
AcDbLine
 10
1169.0
 20
3904.5
 30
0.0
 11
1169.0
 21
3460.5
 31
0.0
  0
LINE
  5
127
330
1F
100
AcDbEntity
  8
化粧台
  6
CONTINUOUS
 62
     2
100
AcDbLine
 10
980.0000000000018
 20
3740.5
 30
0.0
 11
1148.5
 21
3779.5
 31
0.0
  0
LINE
  5
128
330
1F
100
AcDbEntity
  8
化粧台
  6
CONTINUOUS
 62
     2
100
AcDbLine
 10
830.0000000000018
 20
3740.5
 30
0.0
 11
661.5000000000009
 21
3779.5
 31
0.0
  0
LINE
  5
129
330
1F
100
AcDbEntity
  8
化粧台
  6
CONTINUOUS
 62
     2
100
AcDbLine
 10
661.5000000000009
 20
3779.5
 30
0.0
 11
656.4012519609487
 21
3905.161772545196
 31
0.0
  0
LINE
  5
12A
330
1F
100
AcDbEntity
  8
化粧台
  6
CONTINUOUS
 62
     2
100
AcDbLine
 10
1148.5
 20
3779.5
 30
0.0
 11
1153.598748039051
 21
3905.161772545196
 31
0.0
  0
LINE
  5
12B
330
1F
100
AcDbEntity
  8
化粧台
  6
CONTINUOUS
 62
     6
100
AcDbLine
 10
868.1000000000004
 20
3694.5
 30
0.0
 11
941.9000000000015
 21
3694.5
 31
0.0
  0
LINE
  5
12C
330
1F
100
AcDbEntity
  8
化粧台
  6
EXLTYPE3
 62
     6
100
AcDbLine
 10
905.0000000000009
 20
3939.5
 30
0.0
 11
905.0000000000009
 21
3419.5
 31
0.0
  0
CIRCLE
  5
12D
330
1F
100
AcDbEntity
  8
化粧台
  6
CONTINUOUS
 62
     2
100
AcDbCircle
 10
905.0000000000018
 20
3694.5
 30
0.0
 40
18.0
  0
LINE
  5
12E
330
1F
100
AcDbEntity
  8
化粧台
  6
CONTINUOUS
 62
     2
100
AcDbLine
 10
455.0000000000018
 20
3479.5
 30
0.0
 11
455.0000000000018
 21
3929.5
 31
0.0
  0
LINE
  5
12F
330
1F
100
AcDbEntity
  8
化粧台
  6
CONTINUOUS
 62
     2
100
AcDbLine
 10
455.0000000000018
 20
3479.5
 30
0.0
 11
630.0000000000009
 21
3479.5
 31
0.0
  0
LINE
  5
130
330
1F
100
AcDbEntity
  8
化粧台
  6
CONTINUOUS
 62
     2
100
AcDbLine
 10
1355.0
 20
3479.5
 30
0.0
 11
1355.0
 21
3929.5
 31
0.0
  0
LINE
  5
131
330
1F
100
AcDbEntity
  8
化粧台
  6
CONTINUOUS
 62
     2
100
AcDbLine
 10
1179.999999999999
 20
3479.5
 30
0.0
 11
1355.0
 21
3479.5
 31
0.0
  0
LINE
  5
132
330
1F
100
AcDbEntity
  8
化粧台
  6
CONTINUOUS
 62
     2
100
AcDbLine
 10
455.0000000000018
 20
3929.5
 30
0.0
 11
1355.0
 21
3929.5
 31
0.0
  0
LINE
  5
133
330
1F
100
AcDbEntity
  8
化粧台
  6
CONTINUOUS
 62
     6
100
AcDbLine
 10
587.0000000000018
 20
3914.5
 30
0.0
 11
587.0000000000018
 21
3972.0
 31
0.0
  0
LINE
  5
134
330
1F
100
AcDbEntity
  8
化粧台
  6
CONTINUOUS
 62
     6
100
AcDbLine
 10
587.0000000000018
 20
3962.000000000004
 30
0.0
 11
589.0000000000009
 21
3929.500000000004
 31
0.0
  0
LINE
  5
135
330
1F
100
AcDbEntity
  8
化粧台
  6
CONTINUOUS
 62
     6
100
AcDbLine
 10
585.0000000000009
 20
3929.500000000004
 30
0.0
 11
587.0000000000018
 21
3962.000000000004
 31
0.0
  0
LINE
  5
136
330
1F
100
AcDbEntity
  8
化粧台
  6
CONTINUOUS
 62
     6
100
AcDbLine
 10
1223.000000000001
 20
3914.5
 30
0.0
 11
1223.000000000001
 21
3972.0
 31
0.0
  0
LINE
  5
137
330
1F
100
AcDbEntity
  8
化粧台
  6
CONTINUOUS
 62
     6
100
AcDbLine
 10
1223.000000000001
 20
3962.000000000004
 30
0.0
 11
1225.0
 21
3929.500000000004
 31
0.0
  0
LINE
  5
138
330
1F
100
AcDbEntity
  8
化粧台
  6
CONTINUOUS
 62
     6
100
AcDbLine
 10
1221.0
 20
3929.500000000004
 30
0.0
 11
1223.000000000001
 21
3962.000000000004
 31
0.0
  0
LINE
  5
139
330
1F
100
AcDbEntity
  8
化粧台
  6
CONTINUOUS
 62
     2
100
AcDbLine
 10
1174.996305873157
 20
1722.307834389494
 30
0.0
 11
1179.996305873157
 21
1852.307834389494
 31
0.0
  0
ARC
  5
13A
330
1F
100
AcDbEntity
  8
化粧台
  6
CONTINUOUS
 62
     2
100
AcDbCircle
 10
1175.000000000001
 20
1852.5
 30
0.0
 40
5.0
100
AcDbArc
 50
357.7974018382349
 51
90.00000000000004
  0
ARC
  5
13B
330
1F
100
AcDbEntity
  8
化粧台
  6
CONTINUOUS
 62
     2
100
AcDbCircle
 10
1170.000000000001
 20
1722.5
 30
0.0
 40
5.0
100
AcDbArc
 50
270.0000000000002
 51
357.7974018382349
  0
LINE
  5
13C
330
1F
100
AcDbEntity
  8
化粧台
  6
CONTINUOUS
 62
     2
100
AcDbLine
 10
635.0036941268454
 20
1722.307834389494
 30
0.0
 11
630.0036941268454
 21
1852.307834389494
 31
0.0
  0
ARC
  5
13D
330
1F
100
AcDbEntity
  8
化粧台
  6
CONTINUOUS
 62
     2
100
AcDbCircle
 10
635.0000000000018
 20
1852.5
 30
0.0
 40
5.0
100
AcDbArc
 50
90.00000000000004
 51
182.2025981617654
  0
ARC
  5
13E
330
1F
100
AcDbEntity
  8
化粧台
  6
CONTINUOUS
 62
     2
100
AcDbCircle
 10
640.0000000000018
 20
1722.5
 30
0.0
 40
5.0
100
AcDbArc
 50
182.2025981617654
 51
270.0000000000002
  0
LINE
  5
13F
330
1F
100
AcDbEntity
  8
化粧台
  6
CONTINUOUS
 62
     2
100
AcDbLine
 10
635.0000000000018
 20
1857.5
 30
0.0
 11
1175.000000000001
 21
1857.5
 31
0.0
  0
ARC
  5
140
330
1F
100
AcDbEntity
  8
化粧台
  6
CONTINUOUS
 62
     2
100
AcDbCircle
 10
828.2500000000009
 20
1441.2
 30
0.0
 40
11.0
100
AcDbArc
 50
146.9442688491492
 51
152.4198007964095
  0
ARC
  5
141
330
1F
100
AcDbEntity
  8
化粧台
  6
CONTINUOUS
 62
     2
100
AcDbCircle
 10
828.2500000000009
 20
1441.2
 30
0.0
 40
11.0
100
AcDbArc
 50
207.5801992036012
 51
213.0557311508995
  0
ARC
  5
142
330
1F
100
AcDbEntity
  8
化粧台
  6
CONTINUOUS
 62
     2
100
AcDbCircle
 10
831.7500000000009
 20
1441.2
 30
0.0
 40
11.0
100
AcDbArc
 50
326.9442688491007
 51
332.4198007963992
  0
ARC
  5
143
330
1F
100
AcDbEntity
  8
化粧台
  6
CONTINUOUS
 62
     2
100
AcDbCircle
 10
831.7500000000009
 20
1441.2
 30
0.0
 40
11.0
100
AcDbArc
 50
27.58019920360115
 51
33.05573115089945
  0
LINE
  5
144
330
1F
100
AcDbEntity
  8
化粧台
  6
CONTINUOUS
 62
     2
100
AcDbLine
 10
818.5000000000009
 20
1446.29288719687
 30
0.0
 11
818.5000000000009
 21
1436.10711280313
 31
0.0
  0
LINE
  5
145
330
1F
100
AcDbEntity
  8
化粧台
  6
CONTINUOUS
 62
     2
100
AcDbLine
 10
841.5000000000009
 20
1446.29288719687
 30
0.0
 11
841.5000000000009
 21
1436.10711280313
 31
0.0
  0
LINE
  5
146
330
1F
100
AcDbEntity
  8
化粧台
  6
CONTINUOUS
 62
     2
100
AcDbLine
 10
840.9695444572908
 20
1447.2
 30
0.0
 11
819.030455542711
 21
1447.2
 31
0.0
  0
LINE
  5
147
330
1F
100
AcDbEntity
  8
化粧台
  6
CONTINUOUS
 62
     2
100
AcDbLine
 10
840.9695444572908
 20
1435.2
 30
0.0
 11
819.030455542711
 21
1435.2
 31
0.0
  0
LINE
  5
148
330
1F
100
AcDbEntity
  8
化粧台
  6
CONTINUOUS
 62
     2
100
AcDbLine
 10
836.4999999999982
 20
1585.975339050051
 30
0.0
 11
836.4999999999982
 21
1447.2
 31
0.0
  0
ARC
  5
149
330
1F
100
AcDbEntity
  8
化粧台
  6
CONTINUOUS
 62
     2
100
AcDbCircle
 10
1123.499999999997
 20
1585.975339050051
 30
0.0
 40
287.0
100
AcDbArc
 50
163.4974479361903
 51
180.0
  0
LINE
  5
14A
330
1F
100
AcDbEntity
  8
化粧台
  6
CONTINUOUS
 62
     2
100
AcDbLine
 10
823.4999999999982
 20
1447.200000000001
 30
0.0
 11
823.4999999999982
 21
1585.975339050051
 31
0.0
  0
ARC
  5
14B
330
1F
100
AcDbEntity
  8
化粧台
  6
CONTINUOUS
 62
     2
100
AcDbCircle
 10
1123.499999999997
 20
1585.975339050051
 30
0.0
 40
300.0
100
AcDbArc
 50
164.231638666689
 51
180.0
  0
ARC
  5
14C
330
1F
100
AcDbEntity
  8
化粧台
  6
CONTINUOUS
 62
     2
100
AcDbCircle
 10
981.7500000000009
 20
1441.2
 30
0.0
 40
11.0
100
AcDbArc
 50
27.58019920359027
 51
33.05573115085006
  0
ARC
  5
14D
330
1F
100
AcDbEntity
  8
化粧台
  6
CONTINUOUS
 62
     2
100
AcDbCircle
 10
981.7500000000009
 20
1441.2
 30
0.0
 40
11.0
100
AcDbArc
 50
326.9442688491004
 51
332.4198007964001
  0
ARC
  5
14E
330
1F
100
AcDbEntity
  8
化粧台
  6
CONTINUOUS
 62
     2
100
AcDbCircle
 10
978.2500000000009
 20
1441.2
 30
0.0
 40
11.0
100
AcDbArc
 50
207.5801992036001
 51
213.0557311509001
  0
ARC
  5
14F
330
1F
100
AcDbEntity
  8
化粧台
  6
CONTINUOUS
 62
     2
100
AcDbCircle
 10
978.2500000000009
 20
1441.2
 30
0.0
 40
11.0
100
AcDbArc
 50
146.9442688490998
 51
152.4198007963999
  0
LINE
  5
150
330
1F
100
AcDbEntity
  8
化粧台
  6
CONTINUOUS
 62
     2
100
AcDbLine
 10
991.5000000000009
 20
1446.29288719687
 30
0.0
 11
991.5000000000009
 21
1436.10711280313
 31
0.0
  0
LINE
  5
151
330
1F
100
AcDbEntity
  8
化粧台
  6
CONTINUOUS
 62
     2
100
AcDbLine
 10
968.5000000000009
 20
1446.29288719687
 30
0.0
 11
968.5000000000009
 21
1436.10711280313
 31
0.0
  0
LINE
  5
152
330
1F
100
AcDbEntity
  8
化粧台
  6
CONTINUOUS
 62
     2
100
AcDbLine
 10
969.030455542711
 20
1447.2
 30
0.0
 11
990.9695444572908
 21
1447.2
 31
0.0
  0
LINE
  5
153
330
1F
100
AcDbEntity
  8
化粧台
  6
CONTINUOUS
 62
     2
100
AcDbLine
 10
969.030455542711
 20
1435.2
 30
0.0
 11
990.9695444572908
 21
1435.2
 31
0.0
  0
LINE
  5
154
330
1F
100
AcDbEntity
  8
化粧台
  6
CONTINUOUS
 62
     2
100
AcDbLine
 10
973.5000000000036
 20
1585.975339050051
 30
0.0
 11
973.5000000000036
 21
1447.2
 31
0.0
  0
LINE
  5
155
330
1F
100
AcDbEntity
  8
化粧台
  6
CONTINUOUS
 62
     2
100
AcDbLine
 10
986.5000000000036
 20
1447.200000000001
 30
0.0
 11
986.5000000000036
 21
1585.975339050051
 31
0.0
  0
ARC
  5
156
330
1F
100
AcDbEntity
  8
化粧台
  6
CONTINUOUS
 62
     2
100
AcDbCircle
 10
686.5000000000036
 20
1585.975339050051
 30
0.0
 40
300.0
100
AcDbArc
 50
0.0
 51
15.76836133331106
  0
ARC
  5
157
330
1F
100
AcDbEntity
  8
化粧台
  6
CONTINUOUS
 62
     2
100
AcDbCircle
 10
686.5000000000036
 20
1585.975339050051
 30
0.0
 40
287.0
100
AcDbArc
 50
0.0
 51
16.50255206380972
  0
LINE
  5
158
330
1F
100
AcDbEntity
  8
化粧台
  6
CONTINUOUS
 62
     2
100
AcDbLine
 10
885.0000000000036
 20
1660.000000000001
 30
0.0
 11
885.0000000000036
 21
1622.500000000001
 31
0.0
  0
LINE
  5
159
330
1F
100
AcDbEntity
  8
化粧台
  6
CONTINUOUS
 62
     2
100
AcDbLine
 10
921.0000000000036
 20
1620.5
 30
0.0
 11
925.0000000000036
 21
1622.500000000001
 31
0.0
  0
LINE
  5
15A
330
1F
100
AcDbEntity
  8
化粧台
  6
CONTINUOUS
 62
     2
100
AcDbLine
 10
889.0000000000036
 20
1620.5
 30
0.0
 11
885.0000000000036
 21
1622.500000000001
 31
0.0
  0
LINE
  5
15B
330
1F
100
AcDbEntity
  8
化粧台
  6
CONTINUOUS
 62
     2
100
AcDbLine
 10
921.0000000000036
 20
1620.5
 30
0.0
 11
889.0000000000036
 21
1620.5
 31
0.0
  0
LINE
  5
15C
330
1F
100
AcDbEntity
  8
化粧台
  6
CONTINUOUS
 62
     2
100
AcDbLine
 10
925.0000000000036
 20
1622.500000000001
 30
0.0
 11
885.0000000000036
 21
1622.500000000001
 31
0.0
  0
LINE
  5
15D
330
1F
100
AcDbEntity
  8
化粧台
  6
CONTINUOUS
 62
     2
100
AcDbLine
 10
925.0
 20
1660.000000000001
 30
0.0
 11
925.0
 21
1622.500000000001
 31
0.0
  0
LINE
  5
15E
330
1F
100
AcDbEntity
  8
化粧台
  6
CONTINUOUS
 62
     2
100
AcDbLine
 10
922.5000000000036
 20
1667.33333333333
 30
0.0
 11
922.5000000000036
 21
1667.000000000001
 31
0.0
  0
LINE
  5
15F
330
1F
100
AcDbEntity
  8
化粧台
  6
CONTINUOUS
 62
     2
100
AcDbLine
 10
887.5000000000036
 20
1667.33333333333
 30
0.0
 11
887.5000000000036
 21
1667.000000000001
 31
0.0
  0
LINE
  5
160
330
1F
100
AcDbEntity
  8
化粧台
  6
CONTINUOUS
 62
     2
100
AcDbLine
 10
923.0000000000036
 20
1667.000000000001
 30
0.0
 11
887.0000000000036
 21
1667.000000000001
 31
0.0
  0
LINE
  5
161
330
1F
100
AcDbEntity
  8
化粧台
  6
CONTINUOUS
 62
     2
100
AcDbLine
 10
885.5000000000018
 20
1666.66227766017
 30
0.0
 11
885.5000000000018
 21
1660.33772233983
 31
0.0
  0
LINE
  5
162
330
1F
100
AcDbEntity
  8
化粧台
  6
CONTINUOUS
 62
     2
100
AcDbLine
 10
924.5000000000018
 20
1666.66227766017
 30
0.0
 11
924.5000000000018
 21
1660.33772233983
 31
0.0
  0
ARC
  5
163
330
1F
100
AcDbEntity
  8
化粧台
  6
CONTINUOUS
 62
     2
100
AcDbCircle
 10
887.0000000000036
 20
1663.500000000001
 30
0.0
 40
3.500000000000002
100
AcDbArc
 50
90.00000000000004
 51
115.3769335251844
  0
ARC
  5
164
330
1F
100
AcDbEntity
  8
化粧台
  6
CONTINUOUS
 62
     2
100
AcDbCircle
 10
887.0000000000036
 20
1663.500000000001
 30
0.0
 40
3.500000000000002
100
AcDbArc
 50
244.6230664748158
 51
270.0000000000002
  0
ARC
  5
165
330
1F
100
AcDbEntity
  8
化粧台
  6
CONTINUOUS
 62
     2
100
AcDbCircle
 10
923.0000000000036
 20
1663.500000000001
 30
0.0
 40
3.500000000000002
100
AcDbArc
 50
270.0000000000002
 51
295.37693352512
  0
ARC
  5
166
330
1F
100
AcDbEntity
  8
化粧台
  6
CONTINUOUS
 62
     2
100
AcDbCircle
 10
923.0000000000036
 20
1663.500000000001
 30
0.0
 40
3.500000000000002
100
AcDbArc
 50
64.62306647488015
 51
90.00000000000009
  0
LINE
  5
167
330
1F
100
AcDbEntity
  8
化粧台
  6
CONTINUOUS
 62
     2
100
AcDbLine
 10
925.0
 20
1660.000000000001
 30
0.0
 11
885.0000000000036
 21
1660.000000000001
 31
0.0
  0
ELLIPSE
  5
168
330
1F
100
AcDbEntity
  8
化粧台
  6
CONTINUOUS
 62
     6
100
AcDbEllipse
 10
914.7500000000018
 20
1663.5
 30
0.0
 11
7.84219357069992
 21
0.0
 31
0.0
210
0.0
220
0.0
230
1.0
 40
0.4033884710279674
 41
0.0
 42
6.283185307179586
  0
ELLIPSE
  5
169
330
1F
100
AcDbEntity
  8
化粧台
  6
CONTINUOUS
 62
     6
100
AcDbEllipse
 10
895.2500000000018
 20
1663.5
 30
0.0
 11
7.84219357069992
 21
0.0
 31
0.0
210
0.0
220
0.0
230
1.0
 40
0.4033884710279674
 41
0.0
 42
6.283185307179586
  0
ELLIPSE
  5
16A
330
1F
100
AcDbEntity
  8
化粧台
  6
CONTINUOUS
 62
     6
100
AcDbEllipse
 10
824.2490288903509
 20
1441.2
 30
0.0
 11
-9.355482006098073E-16
 21
-5.09288719687
 31
0.0
210
0.0
220
0.0
230
1.0
 40
0.936409683937426
 41
0.0
 42
6.283185307179586
  0
ELLIPSE
  5
16B
330
1F
100
AcDbEntity
  8
化粧台
  6
CONTINUOUS
 62
     6
100
AcDbEllipse
 10
835.7509711096509
 20
1441.2
 30
0.0
 11
3.118494002032691E-16
 21
5.09288719687
 31
0.0
210
0.0
220
0.0
230
1.0
 40
0.936409683937426
 41
0.0
 42
6.283185307179586
  0
ELLIPSE
  5
16C
330
1F
100
AcDbEntity
  8
化粧台
  6
CONTINUOUS
 62
     6
100
AcDbEllipse
 10
974.24902889035
 20
1441.2
 30
0.0
 11
-9.355482006098073E-16
 21
-5.09288719687
 31
0.0
210
0.0
220
0.0
230
1.0
 40
0.936409683937426
 41
0.0
 42
6.283185307179586
  0
ELLIPSE
  5
16D
330
1F
100
AcDbEntity
  8
化粧台
  6
CONTINUOUS
 62
     6
100
AcDbEllipse
 10
985.75097110965
 20
1441.2
 30
0.0
 11
3.118494002032691E-16
 21
5.09288719687
 31
0.0
210
0.0
220
0.0
230
1.0
 40
0.936409683937426
 41
0.0
 42
6.283185307179586
  0
LINE
  5
16E
330
1F
100
AcDbEntity
  8
化粧台
  6
CONTINUOUS
 62
     2
100
AcDbLine
 10
455.0000000000018
 20
1717.5
 30
0.0
 11
455.0000000000018
 21
1708.5
 31
0.0
  0
LINE
  5
16F
330
1F
100
AcDbEntity
  8
化粧台
  6
CONTINUOUS
 62
     2
100
AcDbLine
 10
507.0000000000082
 20
1017.5
 30
0.0
 11
457.0000000000091
 21
1017.5
 31
0.0
  0
LINE
  5
170
330
1F
100
AcDbEntity
  8
化粧台
  6
CONTINUOUS
 62
     2
100
AcDbLine
 10
457.0000000000091
 20
1708.5
 30
0.0
 11
457.0000000000091
 21
1017.5
 31
0.0
  0
LINE
  5
171
330
1F
100
AcDbEntity
  8
化粧台
  6
CONTINUOUS
 62
     2
100
AcDbLine
 10
507.0000000000082
 20
1667.5
 30
0.0
 11
507.0000000000082
 21
1017.5
 31
0.0
  0
LINE
  5
172
330
1F
100
AcDbEntity
  8
化粧台
  6
CONTINUOUS
 62
     2
100
AcDbLine
 10
465.9999999993834
 20
1708.5
 30
0.0
 11
455.0000000000018
 21
1708.5
 31
0.0
  0
LINE
  5
173
330
1F
100
AcDbEntity
  8
化粧台
  6
CONTINUOUS
 62
     2
100
AcDbLine
 10
506.9999999996917
 20
1667.499999999691
 30
0.0
 11
465.9999999993834
 21
1708.5
 31
0.0
  0
LINE
  5
174
330
1F
100
AcDbEntity
  8
化粧台
  6
CONTINUOUS
 62
     6
100
AcDbLine
 10
507.0000000000082
 20
1666.085786437001
 30
0.0
 11
465.58578643701
 21
1707.5
 31
0.0
  0
LINE
  5
175
330
1F
100
AcDbEntity
  8
化粧台
  6
CONTINUOUS
 62
     6
100
AcDbLine
 10
465.58578643701
 20
1707.5
 30
0.0
 11
457.0000000000091
 21
1707.5
 31
0.0
  0
LINE
  5
176
330
1F
100
AcDbEntity
  8
化粧台
  6
CONTINUOUS
 62
     6
100
AcDbLine
 10
587.0000000000009
 20
1650.5
 30
0.0
 11
587.0000000000009
 21
1624.5
 31
0.0
  0
LINE
  5
177
330
1F
100
AcDbEntity
  8
化粧台
  6
CONTINUOUS
 62
     6
100
AcDbLine
 10
599.9999999999991
 20
1637.5
 30
0.0
 11
573.9999999999991
 21
1637.5
 31
0.0
  0
LINE
  5
178
330
1F
100
AcDbEntity
  8
化粧台
  6
CONTINUOUS
 62
     2
100
AcDbLine
 10
1355.0
 20
1717.5
 30
0.0
 11
1355.0
 21
1708.5
 31
0.0
  0
LINE
  5
179
330
1F
100
AcDbEntity
  8
化粧台
  6
CONTINUOUS
 62
     2
100
AcDbLine
 10
1302.999999999991
 20
1017.5
 30
0.0
 11
1352.999999999991
 21
1017.5
 31
0.0
  0
LINE
  5
17A
330
1F
100
AcDbEntity
  8
化粧台
  6
CONTINUOUS
 62
     2
100
AcDbLine
 10
1352.999999999991
 20
1708.5
 30
0.0
 11
1352.999999999993
 21
1017.5
 31
0.0
  0
LINE
  5
17B
330
1F
100
AcDbEntity
  8
化粧台
  6
CONTINUOUS
 62
     2
100
AcDbLine
 10
1302.999999999989
 20
1667.5
 30
0.0
 11
1302.999999999991
 21
1017.5
 31
0.0
  0
LINE
  5
17C
330
1F
100
AcDbEntity
  8
化粧台
  6
CONTINUOUS
 62
     2
100
AcDbLine
 10
1344.000000000615
 20
1708.5
 30
0.0
 11
1355.0
 21
1708.5
 31
0.0
  0
LINE
  5
17D
330
1F
100
AcDbEntity
  8
化粧台
  6
CONTINUOUS
 62
     2
100
AcDbLine
 10
1303.000000000307
 20
1667.499999999691
 30
0.0
 11
1344.000000000615
 21
1708.5
 31
0.0
  0
LINE
  5
17E
330
1F
100
AcDbEntity
  8
化粧台
  6
CONTINUOUS
 62
     6
100
AcDbLine
 10
1352.999999999991
 20
1707.5
 30
0.0
 11
1344.414213562988
 21
1707.5
 31
0.0
  0
LINE
  5
17F
330
1F
100
AcDbEntity
  8
化粧台
  6
CONTINUOUS
 62
     6
100
AcDbLine
 10
1344.414213562988
 20
1707.5
 30
0.0
 11
1302.999999999989
 21
1666.085786436999
 31
0.0
  0
LINE
  5
180
330
1F
100
AcDbEntity
  8
化粧台
  6
CONTINUOUS
 62
     6
100
AcDbLine
 10
1223.0
 20
1650.5
 30
0.0
 11
1223.0
 21
1624.5
 31
0.0
  0
LINE
  5
181
330
1F
100
AcDbEntity
  8
化粧台
  6
CONTINUOUS
 62
     6
100
AcDbLine
 10
1210.0
 20
1637.5
 30
0.0
 11
1236.0
 21
1637.5
 31
0.0
  0
LINE
  5
182
330
1F
100
AcDbEntity
  8
化粧台
  6
CONTINUOUS
 62
     2
100
AcDbLine
 10
455.0000000000018
 20
1717.5
 30
0.0
 11
1355.0
 21
1717.5
 31
0.0
  0
LINE
  5
183
330
1F
100
AcDbEntity
  8
化粧台
  6
CONTINUOUS
 62
     2
100
AcDbLine
 10
507.0000000000082
 20
1667.5
 30
0.0
 11
1302.999999999989
 21
1667.500000000002
 31
0.0
  0
LINE
  5
184
330
1F
100
AcDbEntity
  8
化粧台
  6
CONTINUOUS
 62
     2
100
AcDbLine
 10
507.0000000000082
 20
1267.5
 30
0.0
 11
1302.999999999991
 21
1267.500000000002
 31
0.0
  0
CIRCLE
  5
185
330
1F
100
AcDbEntity
  8
化粧台
  6
CONTINUOUS
 62
     2
100
AcDbCircle
 10
587.0
 20
1637.5
 30
0.0
 40
5.0
  0
CIRCLE
  5
186
330
1F
100
AcDbEntity
  8
化粧台
  6
CONTINUOUS
 62
     2
100
AcDbCircle
 10
1222.999999999999
 20
1637.5
 30
0.0
 40
5.0
  0
LINE
  5
187
330
1F
100
AcDbEntity
  8
化粧台
  6
CONTINUOUS
 62
     6
100
AcDbLine
 10
888.2500000000018
 20
1484.499999999951
 30
0.0
 11
888.2500000000018
 21
1435.274886499952
 31
0.0
  0
LINE
  5
188
330
1F
100
AcDbEntity
  8
化粧台
  6
CONTINUOUS
 62
     6
100
AcDbLine
 10
921.7499999999982
 20
1484.499999999951
 30
0.0
 11
921.7499999999982
 21
1435.274886499952
 31
0.0
  0
LINE
  5
189
330
1F
100
AcDbEntity
  8
化粧台
  6
CONTINUOUS
 62
     6
100
AcDbLine
 10
921.7500000000309
 20
1435.274886499921
 30
0.0
 11
921.0
 21
1434.52488649989
 31
0.0
  0
LINE
  5
18A
330
1F
100
AcDbEntity
  8
化粧台
  6
CONTINUOUS
 62
     6
100
AcDbLine
 10
888.2500000000127
 20
1435.274886499963
 30
0.0
 11
889.0
 21
1434.524886499974
 31
0.0
  0
LINE
  5
18B
330
1F
100
AcDbEntity
  8
化粧台
  6
CONTINUOUS
 62
     6
100
AcDbLine
 10
889.0
 20
1434.89988649997
 30
0.0
 11
921.0
 21
1434.89988649997
 31
0.0
  0
ELLIPSE
  5
18C
330
1F
100
AcDbEntity
  8
化粧台
  6
CONTINUOUS
 62
     6
100
AcDbEllipse
 10
915.7500000000009
 20
1490.499999999951
 30
0.0
 11
9.236476601000053
 21
0.0
 31
0.0
210
0.0
220
0.0
230
1.0
 40
0.6495983543497931
 41
0.0
 42
6.283185307179586
  0
LINE
  5
18D
330
1F
100
AcDbEntity
  8
化粧台
  6
CONTINUOUS
 62
     6
100
AcDbLine
 10
926.5
 20
1496.499999999951
 30
0.0
 11
926.5
 21
1484.499999999951
 31
0.0
  0
ELLIPSE
  5
18E
330
1F
100
AcDbEntity
  8
化粧台
  6
CONTINUOUS
 62
     6
100
AcDbEllipse
 10
894.2500000000009
 20
1490.499999999951
 30
0.0
 11
9.236476601000053
 21
0.0
 31
0.0
210
0.0
220
0.0
230
1.0
 40
0.6495983543497931
 41
0.0
 42
6.283185307179586
  0
LINE
  5
18F
330
1F
100
AcDbEntity
  8
化粧台
  6
CONTINUOUS
 62
     6
100
AcDbLine
 10
883.5000000000009
 20
1496.499999999951
 30
0.0
 11
883.5000000000009
 21
1484.499999999951
 31
0.0
  0
LINE
  5
190
330
1F
100
AcDbEntity
  8
化粧台
  6
CONTINUOUS
 62
     6
100
AcDbLine
 10
883.5000000000009
 20
1484.499999999951
 30
0.0
 11
926.5
 21
1484.499999999951
 31
0.0
  0
LINE
  5
191
330
1F
100
AcDbEntity
  8
化粧台
  6
CONTINUOUS
 62
     6
100
AcDbLine
 10
883.5000000000009
 20
1496.499999999951
 30
0.0
 11
926.5
 21
1496.499999999951
 31
0.0
  0
LINE
  5
192
330
1F
100
AcDbEntity
  8
化粧台
  6
CONTINUOUS
 62
     6
100
AcDbLine
 10
926.5
 20
1413.499999999951
 30
0.0
 11
926.5
 21
1401.499999999951
 31
0.0
  0
LINE
  5
193
330
1F
100
AcDbEntity
  8
化粧台
  6
CONTINUOUS
 62
     6
100
AcDbLine
 10
883.5000000000009
 20
1413.499999999951
 30
0.0
 11
883.5000000000009
 21
1401.499999999951
 31
0.0
  0
ELLIPSE
  5
194
330
1F
100
AcDbEntity
  8
化粧台
  6
CONTINUOUS
 62
     6
100
AcDbEllipse
 10
894.2500000000009
 20
1407.499999999951
 30
0.0
 11
9.236476601000053
 21
0.0
 31
0.0
210
0.0
220
0.0
230
1.0
 40
0.6495983543497932
 41
2.175354430434986
 42
4.107830876744602
  0
ELLIPSE
  5
195
330
1F
100
AcDbEntity
  8
化粧台
  6
CONTINUOUS
 62
     6
100
AcDbEllipse
 10
915.7500000000009
 20
1407.499999999951
 30
0.0
 11
9.236476601000053
 21
0.0
 31
0.0
210
0.0
220
0.0
230
1.0
 40
0.6495983543497932
 41
5.316947084024834
 42
7.249423530334343
  0
LINE
  5
196
330
1F
100
AcDbEntity
  8
化粧台
  6
CONTINUOUS
 62
     6
100
AcDbLine
 10
883.5000000000009
 20
1413.499999999951
 30
0.0
 11
889.0000000000018
 21
1413.499999999951
 31
0.0
  0
LINE
  5
197
330
1F
100
AcDbEntity
  8
化粧台
  6
CONTINUOUS
 62
     6
100
AcDbLine
 10
883.5000000000009
 20
1401.499999999951
 30
0.0
 11
889.0000000000018
 21
1401.499999999951
 31
0.0
  0
LINE
  5
198
330
1F
100
AcDbEntity
  8
化粧台
  6
CONTINUOUS
 62
     6
100
AcDbLine
 10
921.0
 20
1401.499999999951
 30
0.0
 11
926.5
 21
1401.499999999951
 31
0.0
  0
LINE
  5
199
330
1F
100
AcDbEntity
  8
化粧台
  6
CONTINUOUS
 62
     6
100
AcDbLine
 10
921.0
 20
1413.499999999951
 30
0.0
 11
926.5
 21
1413.499999999951
 31
0.0
  0
ARC
  5
19A
330
1F
100
AcDbEntity
  8
化粧台
  6
CONTINUOUS
 62
     6
100
AcDbCircle
 10
905.0000000000009
 20
1452.5
 30
0.0
 40
33.0
100
AcDbArc
 50
120.5024866625967
 51
240.9974539733312
  0
ARC
  5
19B
330
1F
100
AcDbEntity
  8
化粧台
  6
CONTINUOUS
 62
     6
100
AcDbCircle
 10
905.0000000000009
 20
1452.5
 30
0.0
 40
33.0
100
AcDbArc
 50
299.0025460266706
 51
59.49751333740528
  0
LINE
  5
19C
330
1F
100
AcDbEntity
  8
化粧台
  6
CONTINUOUS
 62
     6
100
AcDbLine
 10
889.0000000000018
 20
1434.89988649997
 30
0.0
 11
889.0000000000018
 21
1360.5
 31
0.0
  0
LINE
  5
19D
330
1F
100
AcDbEntity
  8
化粧台
  6
CONTINUOUS
 62
     6
100
AcDbLine
 10
921.0
 20
1434.89988649997
 30
0.0
 11
921.0
 21
1360.5
 31
0.0
  0
ARC
  5
19E
330
1F
100
AcDbEntity
  8
化粧台
  6
CONTINUOUS
 62
     6
100
AcDbCircle
 10
905.0000000000009
 20
1360.500000000002
 30
0.0
 40
15.99999999999955
100
AcDbArc
 50
180.0
 51
0.0
  0
LINE
  5
19F
330
1F
100
AcDbEntity
  8
化粧台
  6
CONTINUOUS
 62
     6
100
AcDbLine
 10
948.0
 20
1452.500000000001
 30
0.0
 11
862.0000000000009
 21
1452.500000000001
 31
0.0
  0
LINE
  5
1A0
330
1F
100
AcDbEntity
  8
化粧台
  6
CONTINUOUS
 62
     6
100
AcDbLine
 10
843.0000000000009
 20
1406.66369123504
 30
0.0
 11
843.0000000000009
 21
1418.33630876496
 31
0.0
  0
LINE
  5
1A1
330
1F
100
AcDbEntity
  8
化粧台
  6
CONTINUOUS
 62
     6
100
AcDbLine
 10
841.5543916547904
 20
1420.840175866721
 30
0.0
 11
831.4456083452105
 21
1426.67648463168
 31
0.0
  0
LINE
  5
1A2
330
1F
100
AcDbEntity
  8
化粧台
  6
CONTINUOUS
 62
     6
100
AcDbLine
 10
828.5543916547904
 20
1426.67648463168
 30
0.0
 11
818.4456083452105
 21
1420.840175866721
 31
0.0
  0
LINE
  5
1A3
330
1F
100
AcDbEntity
  8
化粧台
  6
CONTINUOUS
 62
     6
100
AcDbLine
 10
817.0000000000009
 20
1418.33630876496
 30
0.0
 11
817.0000000000009
 21
1406.66369123504
 31
0.0
  0
LINE
  5
1A4
330
1F
100
AcDbEntity
  8
化粧台
  6
CONTINUOUS
 62
     6
100
AcDbLine
 10
818.4456083452105
 20
1404.159824133279
 30
0.0
 11
828.5543916547904
 21
1398.32351536832
 31
0.0
  0
LINE
  5
1A5
330
1F
100
AcDbEntity
  8
化粧台
  6
CONTINUOUS
 62
     6
100
AcDbLine
 10
831.4456083452105
 20
1398.32351536832
 30
0.0
 11
841.5543916547904
 21
1404.159824133279
 31
0.0
  0
ARC
  5
1A6
330
1F
100
AcDbEntity
  8
化粧台
  6
CONTINUOUS
 62
     6
100
AcDbCircle
 10
830.0000000000009
 20
1412.5
 30
0.0
 40
14.25000000000001
100
AcDbArc
 50
264.1775448336001
 51
275.8224551664
  0
ARC
  5
1A7
330
1F
100
AcDbEntity
  8
化粧台
  6
CONTINUOUS
 62
     6
100
AcDbCircle
 10
830.0000000000009
 20
1412.5
 30
0.0
 40
14.25000000000001
100
AcDbArc
 50
324.1775448336001
 51
335.8224551664001
  0
ARC
  5
1A8
330
1F
100
AcDbEntity
  8
化粧台
  6
CONTINUOUS
 62
     6
100
AcDbCircle
 10
830.0000000000009
 20
1412.5
 30
0.0
 40
14.25000000000001
100
AcDbArc
 50
24.17754483359991
 51
35.82245516639971
  0
ARC
  5
1A9
330
1F
100
AcDbEntity
  8
化粧台
  6
CONTINUOUS
 62
     6
100
AcDbCircle
 10
830.0000000000009
 20
1412.5
 30
0.0
 40
14.25000000000001
100
AcDbArc
 50
84.1775448336001
 51
95.82245516635992
  0
ARC
  5
1AA
330
1F
100
AcDbEntity
  8
化粧台
  6
CONTINUOUS
 62
     6
100
AcDbCircle
 10
830.0000000000009
 20
1412.5
 30
0.0
 40
14.25000000000001
100
AcDbArc
 50
144.1775448336404
 51
155.8224551663601
  0
ARC
  5
1AB
330
1F
100
AcDbEntity
  8
化粧台
  6
CONTINUOUS
 62
     6
100
AcDbCircle
 10
830.0000000000009
 20
1412.5
 30
0.0
 40
14.25000000000001
100
AcDbArc
 50
204.1775448336003
 51
215.8224551664
  0
CIRCLE
  5
1AC
330
1F
100
AcDbEntity
  8
化粧台
  6
CONTINUOUS
 62
     6
100
AcDbCircle
 10
830.0000000000009
 20
1412.5
 30
0.0
 40
4.75
  0
CIRCLE
  5
1AD
330
1F
100
AcDbEntity
  8
化粧台
  6
CONTINUOUS
 62
     6
100
AcDbCircle
 10
830.0000000000009
 20
1412.5
 30
0.0
 40
12.07434891639
  0
LINE
  5
1AE
330
1F
100
AcDbEntity
  8
化粧台
  6
CONTINUOUS
 62
     6
100
AcDbLine
 10
840.5000000000009
 20
1435.2
 30
0.0
 11
840.5000000000009
 21
1421.448929172444
 31
0.0
  0
LINE
  5
1AF
330
1F
100
AcDbEntity
  8
化粧台
  6
CONTINUOUS
 62
     6
100
AcDbLine
 10
819.5000000000009
 20
1435.2
 30
0.0
 11
819.5000000000009
 21
1421.448929172444
 31
0.0
  0
LINE
  5
1B0
330
1F
100
AcDbEntity
  8
化粧台
  6
CONTINUOUS
 62
     6
100
AcDbLine
 10
800.0
 20
1412.5
 30
0.0
 11
860.0
 21
1412.5
 31
0.0
  0
LINE
  5
1B1
330
1F
100
AcDbEntity
  8
化粧台
  6
CONTINUOUS
 62
     6
100
AcDbLine
 10
830.0000000000009
 20
1442.5
 30
0.0
 11
830.0000000000009
 21
1382.5
 31
0.0
  0
LINE
  5
1B2
330
1F
100
AcDbEntity
  8
化粧台
  6
CONTINUOUS
 62
     6
100
AcDbLine
 10
993.0
 20
1406.66369123504
 30
0.0
 11
993.0
 21
1418.33630876496
 31
0.0
  0
LINE
  5
1B3
330
1F
100
AcDbEntity
  8
化粧台
  6
CONTINUOUS
 62
     6
100
AcDbLine
 10
991.5543916547904
 20
1420.840175866721
 30
0.0
 11
981.4456083452105
 21
1426.67648463168
 31
0.0
  0
LINE
  5
1B4
330
1F
100
AcDbEntity
  8
化粧台
  6
CONTINUOUS
 62
     6
100
AcDbLine
 10
978.5543916547904
 20
1426.67648463168
 30
0.0
 11
968.4456083452105
 21
1420.840175866721
 31
0.0
  0
LINE
  5
1B5
330
1F
100
AcDbEntity
  8
化粧台
  6
CONTINUOUS
 62
     6
100
AcDbLine
 10
967.0
 20
1418.33630876496
 30
0.0
 11
967.0
 21
1406.66369123504
 31
0.0
  0
LINE
  5
1B6
330
1F
100
AcDbEntity
  8
化粧台
  6
CONTINUOUS
 62
     6
100
AcDbLine
 10
968.4456083452105
 20
1404.159824133279
 30
0.0
 11
978.5543916547904
 21
1398.32351536832
 31
0.0
  0
LINE
  5
1B7
330
1F
100
AcDbEntity
  8
化粧台
  6
CONTINUOUS
 62
     6
100
AcDbLine
 10
981.4456083452105
 20
1398.32351536832
 30
0.0
 11
991.5543916547904
 21
1404.159824133279
 31
0.0
  0
ARC
  5
1B8
330
1F
100
AcDbEntity
  8
化粧台
  6
CONTINUOUS
 62
     6
100
AcDbCircle
 10
980.0
 20
1412.5
 30
0.0
 40
14.25000000000001
100
AcDbArc
 50
264.1775448336001
 51
275.8224551664
  0
ARC
  5
1B9
330
1F
100
AcDbEntity
  8
化粧台
  6
CONTINUOUS
 62
     6
100
AcDbCircle
 10
980.0
 20
1412.5
 30
0.0
 40
14.25000000000001
100
AcDbArc
 50
324.1775448336001
 51
335.8224551664001
  0
ARC
  5
1BA
330
1F
100
AcDbEntity
  8
化粧台
  6
CONTINUOUS
 62
     6
100
AcDbCircle
 10
980.0
 20
1412.5
 30
0.0
 40
14.25000000000001
100
AcDbArc
 50
24.17754483359991
 51
35.82245516639971
  0
ARC
  5
1BB
330
1F
100
AcDbEntity
  8
化粧台
  6
CONTINUOUS
 62
     6
100
AcDbCircle
 10
980.0
 20
1412.5
 30
0.0
 40
14.25000000000001
100
AcDbArc
 50
84.1775448336001
 51
95.82245516635992
  0
ARC
  5
1BC
330
1F
100
AcDbEntity
  8
化粧台
  6
CONTINUOUS
 62
     6
100
AcDbCircle
 10
980.0
 20
1412.5
 30
0.0
 40
14.25000000000001
100
AcDbArc
 50
144.1775448336404
 51
155.8224551663601
  0
ARC
  5
1BD
330
1F
100
AcDbEntity
  8
化粧台
  6
CONTINUOUS
 62
     6
100
AcDbCircle
 10
980.0
 20
1412.5
 30
0.0
 40
14.25000000000001
100
AcDbArc
 50
204.1775448336003
 51
215.8224551664
  0
CIRCLE
  5
1BE
330
1F
100
AcDbEntity
  8
化粧台
  6
CONTINUOUS
 62
     6
100
AcDbCircle
 10
980.0
 20
1412.5
 30
0.0
 40
4.75
  0
CIRCLE
  5
1BF
330
1F
100
AcDbEntity
  8
化粧台
  6
CONTINUOUS
 62
     6
100
AcDbCircle
 10
980.0
 20
1412.5
 30
0.0
 40
12.07434891639
  0
LINE
  5
1C0
330
1F
100
AcDbEntity
  8
化粧台
  6
CONTINUOUS
 62
     6
100
AcDbLine
 10
990.5
 20
1435.2
 30
0.0
 11
990.5
 21
1421.448929172444
 31
0.0
  0
LINE
  5
1C1
330
1F
100
AcDbEntity
  8
化粧台
  6
CONTINUOUS
 62
     6
100
AcDbLine
 10
969.5
 20
1435.2
 30
0.0
 11
969.5
 21
1421.448929172444
 31
0.0
  0
LINE
  5
1C2
330
1F
100
AcDbEntity
  8
化粧台
  6
CONTINUOUS
 62
     6
100
AcDbLine
 10
950.0
 20
1412.5
 30
0.0
 11
1010.0
 21
1412.5
 31
0.0
  0
LINE
  5
1C3
330
1F
100
AcDbEntity
  8
化粧台
  6
CONTINUOUS
 62
     6
100
AcDbLine
 10
980.0
 20
1442.5
 30
0.0
 11
980.0
 21
1382.5
 31
0.0
  0
ARC
  5
1C4
330
1F
100
AcDbEntity
  8
化粧台
  6
CONTINUOUS
 62
     6
100
AcDbCircle
 10
830.0
 20
1412.5
 30
0.0
 40
27.50000000000002
100
AcDbArc
 50
114.7198511829102
 51
65.2801488170889
  0
ARC
  5
1C5
330
1F
100
AcDbEntity
  8
化粧台
  6
CONTINUOUS
 62
     6
100
AcDbCircle
 10
980.0
 20
1412.5
 30
0.0
 40
27.50000000000002
100
AcDbArc
 50
114.7198511829092
 51
65.28014881708833
  0
LINE
  5
1C6
330
1F
100
AcDbEntity
  8
化粧台
  6
CONTINUOUS
 62
     6
100
AcDbLine
 10
889.0000000000018
 20
987.5
 30
0.0
 11
921.0000000000018
 21
987.5
 31
0.0
  0
LINE
  5
1C7
330
1F
100
AcDbEntity
  8
化粧台
  6
EXLTYPE4
 62
     6
100
AcDbLine
 10
921.0000000000018
 20
1217.5
 30
0.0
 11
921.0000000000018
 21
987.5000000000009
 31
0.0
  0
LINE
  5
1C8
330
1F
100
AcDbEntity
  8
化粧台
  6
EXLTYPE4
 62
     6
100
AcDbLine
 10
889.0000000000018
 20
1217.5
 30
0.0
 11
889.0000000000018
 21
987.5000000000009
 31
0.0
  0
LINE
  5
1C9
330
1F
100
AcDbEntity
  8
化粧台
  6
CONTINUOUS
 62
     6
100
AcDbLine
 10
990.5000000000009
 20
1009.5
 30
0.0
 11
969.5000000000009
 21
1009.5
 31
0.0
  0
LINE
  5
1CA
330
1F
100
AcDbEntity
  8
化粧台
  6
EXLTYPE3
 62
     6
100
AcDbLine
 10
980.0000000000009
 20
1227.5
 30
0.0
 11
980.0000000000009
 21
999.5
 31
0.0
  0
LINE
  5
1CB
330
1F
100
AcDbEntity
  8
化粧台
  6
EXLTYPE4
 62
     6
100
AcDbLine
 10
969.5000000000009
 20
1217.5
 30
0.0
 11
969.5000000000009
 21
1009.5
 31
0.0
  0
LINE
  5
1CC
330
1F
100
AcDbEntity
  8
化粧台
  6
EXLTYPE4
 62
     6
100
AcDbLine
 10
990.5000000000009
 20
1217.5
 30
0.0
 11
990.5000000000009
 21
1009.5
 31
0.0
  0
LINE
  5
1CD
330
1F
100
AcDbEntity
  8
化粧台
  6
CONTINUOUS
 62
     6
100
AcDbLine
 10
819.5000000000018
 20
1009.5
 30
0.0
 11
840.5000000000018
 21
1009.5
 31
0.0
  0
LINE
  5
1CE
330
1F
100
AcDbEntity
  8
化粧台
  6
EXLTYPE3
 62
     6
100
AcDbLine
 10
830.0000000000018
 20
1227.5
 30
0.0
 11
830.0000000000018
 21
999.5
 31
0.0
  0
LINE
  5
1CF
330
1F
100
AcDbEntity
  8
化粧台
  6
EXLTYPE4
 62
     6
100
AcDbLine
 10
840.5000000000018
 20
1217.5
 30
0.0
 11
840.5000000000018
 21
1009.5
 31
0.0
  0
LINE
  5
1D0
330
1F
100
AcDbEntity
  8
化粧台
  6
EXLTYPE4
 62
     6
100
AcDbLine
 10
819.5000000000018
 20
1217.5
 30
0.0
 11
819.5000000000018
 21
1009.5
 31
0.0
  0
LINE
  5
1D1
330
1F
100
AcDbEntity
  8
化粧台
  6
CONTINUOUS
 62
     2
100
AcDbLine
 10
889.1250000000036
 20
1620.5
 30
0.0
 11
889.1250000000036
 21
1496.499999999951
 31
0.0
  0
LINE
  5
1D2
330
1F
100
AcDbEntity
  8
化粧台
  6
CONTINUOUS
 62
     2
100
AcDbLine
 10
920.8750000000036
 20
1620.5
 30
0.0
 11
920.8750000000036
 21
1496.499999999951
 31
0.0
  0
LINE
  5
1D3
330
1F
100
AcDbEntity
  8
化粧台
  6
EXLTYPE4
 62
     6
100
AcDbLine
 10
2435.0
 20
1017.5
 30
0.0
 11
1806.499999999998
 21
1017.5
 31
0.0
  0
TEXT
  5
1D4
330
1F
100
AcDbEntity
  8
化粧台
  6
CONTINUOUS
 62
     2
100
AcDbText
 10
1806.499999999998
 20
1017.5
 30
0.0
 40
59.99999618530273
  1
F.L.
 41
0.6227488631227187
  7
EXCADSTD
 72
     5
 11
1897.243399999998
 21
1017.5
 31
0.0
100
AcDbText
  0
LINE
  5
1D5
330
1F
100
AcDbEntity
  8
化粧台
  6
CONTINUOUS
 62
     2
100
AcDbLine
 10
1985.0
 20
1717.5
 30
0.0
 11
1985.0
 21
1017.5
 31
0.0
  0
LINE
  5
1D6
330
1F
100
AcDbEntity
  8
化粧台
  6
CONTINUOUS
 62
     2
100
AcDbLine
 10
2435.000000000001
 20
1717.5
 30
0.0
 11
2435.000000000001
 21
1017.5
 31
0.0
  0
LINE
  5
1D7
330
1F
100
AcDbEntity
  8
化粧台
  6
CONTINUOUS
 62
     2
100
AcDbLine
 10
1985.0
 20
1017.5
 30
0.0
 11
2435.000000000001
 21
1017.5
 31
0.0
  0
LINE
  5
1D8
330
1F
100
AcDbEntity
  8
化粧台
  6
CONTINUOUS
 62
     6
100
AcDbLine
 10
2434.400000000004
 20
1639.5
 30
0.0
 11
2466.900000000004
 21
1637.499999999998
 31
0.0
  0
LINE
  5
1D9
330
1F
100
AcDbEntity
  8
化粧台
  6
CONTINUOUS
 62
     6
100
AcDbLine
 10
2466.900000000004
 20
1637.499999999998
 30
0.0
 11
2434.400000000004
 21
1635.5
 31
0.0
  0
LINE
  5
1DA
330
1F
100
AcDbEntity
  8
化粧台
  6
CONTINUOUS
 62
     6
100
AcDbLine
 10
2402.500000000003
 20
1637.499999999998
 30
0.0
 11
2476.900000000001
 21
1637.499999999998
 31
0.0
  0
LINE
  5
1DB
330
1F
100
AcDbEntity
  8
化粧台
  6
CONTINUOUS
 62
     2
100
AcDbLine
 10
1935.076463955304
 20
1851.62891285363
 30
0.0
 11
1958.076463955304
 21
1721.62891285363
 31
0.0
  0
ARC
  5
1DC
330
1F
100
AcDbEntity
  8
化粧台
  6
CONTINUOUS
 62
     2
100
AcDbCircle
 10
1963.000000000001
 20
1722.5
 30
0.0
 40
5.0
100
AcDbArc
 50
190.0331205543305
 51
270.0000000000002
  0
LINE
  5
1DD
330
1F
100
AcDbEntity
  8
化粧台
  6
CONTINUOUS
 62
     2
100
AcDbLine
 10
2435.000000000002
 20
1857.5
 30
0.0
 11
2435.000000000002
 21
1717.5
 31
0.0
  0
LINE
  5
1DE
330
1F
100
AcDbEntity
  8
化粧台
  6
CONTINUOUS
 62
     2
100
AcDbLine
 10
2435.000000000002
 20
1857.5
 30
0.0
 11
1940.000000000001
 21
1857.5
 31
0.0
  0
ARC
  5
1DF
330
1F
100
AcDbEntity
  8
化粧台
  6
CONTINUOUS
 62
     2
100
AcDbCircle
 10
1940.000000000001
 20
1852.5
 30
0.0
 40
5.0
100
AcDbArc
 50
90.00000000000004
 51
190.0331205543371
  0
LINE
  5
1E0
330
1F
100
AcDbEntity
  8
化粧台
  6
CONTINUOUS
 62
     2
100
AcDbLine
 10
2435.000000000002
 20
1717.5
 30
0.0
 11
1962.999999999999
 21
1717.5
 31
0.0
  0
LINE
  5
1E1
330
1F
100
AcDbEntity
  8
化粧台
  6
EXLTYPE2
 62
     6
100
AcDbLine
 10
2159.386729540171
 20
1686.792893218813
 30
0.0
 11
2154.999999999973
 21
1717.500000000196
 31
0.0
  0
LINE
  5
1E2
330
1F
100
AcDbEntity
  8
化粧台
  6
EXLTYPE2
 62
     6
100
AcDbLine
 10
2261.359641771945
 20
1707.098743460027
 30
0.0
 11
2265.390718197872
 21
1717.5
 31
0.0
  0
LINE
  5
1E3
330
1F
100
AcDbEntity
  8
化粧台
  6
EXLTYPE2
 62
     6
100
AcDbLine
 10
2164.336477008499
 20
1682.5
 30
0.0
 11
2235.663522991549
 21
1682.5
 31
0.0
  0
LINE
  5
1E4
330
1F
100
AcDbEntity
  8
化粧台
  6
EXLTYPE2
 62
     6
100
AcDbLine
 10
2223.088235294117
 20
1682.5
 30
0.0
 11
2227.500000000004
 21
1678.33333333333
 31
0.0
  0
LINE
  5
1E5
330
1F
100
AcDbEntity
  8
化粧台
  6
EXLTYPE2
 62
     6
100
AcDbLine
 10
2176.911764705888
 20
1682.5
 30
0.0
 11
2172.500000000004
 21
1678.33333333333
 31
0.0
  0
POLYLINE
  5
1E6
330
1F
100
AcDbEntity
  8
化粧台
  6
EXLTYPE2
 62
     6
100
AcDb2dPolyline
 66
     1
 10
0.0
 20
0.0
 30
0.0
 70
   128
  0
VERTEX
  5
1E7
330
1E6
100
AcDbEntity
  8
化粧台
  6
EXLTYPE2
 62
     6
100
AcDbVertex
100
AcDb2dVertex
 10
2178.584808000003
 20
1663.500204
 30
0.0
  0
VERTEX
  5
1E8
330
1E6
100
AcDbEntity
  8
化粧台
  6
EXLTYPE2
 62
     6
100
AcDbVertex
100
AcDb2dVertex
 10
2178.596946000003
 20
1663.234399999999
 30
0.0
  0
VERTEX
  5
1E9
330
1E6
100
AcDbEntity
  8
化粧台
  6
EXLTYPE2
 62
     6
100
AcDbVertex
100
AcDb2dVertex
 10
2178.631740000003
 20
1662.976546
 30
0.0
  0
VERTEX
  5
1EA
330
1E6
100
AcDbEntity
  8
化粧台
  6
EXLTYPE2
 62
     6
100
AcDbVertex
100
AcDb2dVertex
 10
2178.686292000004
 20
1662.73489
 30
0.0
  0
VERTEX
  5
1EB
330
1E6
100
AcDbEntity
  8
化粧台
  6
EXLTYPE2
 62
     6
100
AcDbVertex
100
AcDb2dVertex
 10
2178.757064000003
 20
1662.510399999999
 30
0.0
  0
VERTEX
  5
1EC
330
1E6
100
AcDbEntity
  8
化粧台
  6
EXLTYPE2
 62
     6
100
AcDbVertex
100
AcDb2dVertex
 10
2178.852764000003
 20
1662.27821
 30
0.0
  0
VERTEX
  5
1ED
330
1E6
100
AcDbEntity
  8
化粧台
  6
EXLTYPE2
 62
     6
100
AcDbVertex
100
AcDb2dVertex
 10
2178.961394000004
 20
1662.068298
 30
0.0
  0
VERTEX
  5
1EE
330
1E6
100
AcDbEntity
  8
化粧台
  6
EXLTYPE2
 62
     6
100
AcDbVertex
100
AcDb2dVertex
 10
2179.079238000004
 20
1661.880126
 30
0.0
  0
VERTEX
  5
1EF
330
1E6
100
AcDbEntity
  8
化粧台
  6
EXLTYPE2
 62
     6
100
AcDbVertex
100
AcDb2dVertex
 10
2179.308210000003
 20
1661.587611999999
 30
0.0
  0
VERTEX
  5
1F0
330
1E6
100
AcDbEntity
  8
化粧台
  6
EXLTYPE2
 62
     6
100
AcDbVertex
100
AcDb2dVertex
 10
2179.552738000004
 20
1661.345890000001
 30
0.0
  0
VERTEX
  5
1F1
330
1E6
100
AcDbEntity
  8
化粧台
  6
EXLTYPE2
 62
     6
100
AcDbVertex
100
AcDb2dVertex
 10
2179.806316000004
 20
1661.146556
 30
0.0
  0
VERTEX
  5
1F2
330
1E6
100
AcDbEntity
  8
化粧台
  6
EXLTYPE2
 62
     6
100
AcDbVertex
100
AcDb2dVertex
 10
2180.197242000004
 20
1660.905189999999
 30
0.0
  0
VERTEX
  5
1F3
330
1E6
100
AcDbEntity
  8
化粧台
  6
EXLTYPE2
 62
     6
100
AcDbVertex
100
AcDb2dVertex
 10
2180.596570000003
 20
1660.720906
 30
0.0
  0
VERTEX
  5
1F4
330
1E6
100
AcDbEntity
  8
化粧台
  6
EXLTYPE2
 62
     6
100
AcDbVertex
100
AcDb2dVertex
 10
2181.002012000003
 20
1660.584806000001
 30
0.0
  0
VERTEX
  5
1F5
330
1E6
100
AcDbEntity
  8
化粧台
  6
EXLTYPE2
 62
     6
100
AcDbVertex
100
AcDb2dVertex
 10
2181.411284000003
 20
1660.487986
 30
0.0
  0
VERTEX
  5
1F6
330
1E6
100
AcDbEntity
  8
化粧台
  6
EXLTYPE2
 62
     6
100
AcDbVertex
100
AcDb2dVertex
 10
2181.822104000003
 20
1660.421546
 30
0.0
  0
VERTEX
  5
1F7
330
1E6
100
AcDbEntity
  8
化粧台
  6
EXLTYPE2
 62
     6
100
AcDbVertex
100
AcDb2dVertex
 10
2182.232184000002
 20
1660.376586
 30
0.0
  0
VERTEX
  5
1F8
330
1E6
100
AcDbEntity
  8
化粧台
  6
EXLTYPE2
 62
     6
100
AcDbVertex
100
AcDb2dVertex
 10
2182.821524000003
 20
1660.340952
 30
0.0
  0
VERTEX
  5
1F9
330
1E6
100
AcDbEntity
  8
化粧台
  6
EXLTYPE2
 62
     6
100
AcDbVertex
100
AcDb2dVertex
 10
2183.411268000003
 20
1660.341178000001
 30
0.0
  0
VERTEX
  5
1FA
330
1E6
100
AcDbEntity
  8
化粧台
  6
EXLTYPE2
 62
     6
100
AcDbVertex
100
AcDb2dVertex
 10
2184.000600000003
 20
1660.377296000001
 30
0.0
  0
VERTEX
  5
1FB
330
1E6
100
AcDbEntity
  8
化粧台
  6
EXLTYPE2
 62
     6
100
AcDbVertex
100
AcDb2dVertex
 10
2184.614344000003
 20
1660.45707
 30
0.0
  0
VERTEX
  5
1FC
330
1E6
100
AcDbEntity
  8
化粧台
  6
EXLTYPE2
 62
     6
100
AcDbVertex
100
AcDb2dVertex
 10
2185.225340000003
 20
1660.595294000001
 30
0.0
  0
VERTEX
  5
1FD
330
1E6
100
AcDbEntity
  8
化粧台
  6
EXLTYPE2
 62
     6
100
AcDbVertex
100
AcDb2dVertex
 10
2185.562402000003
 20
1660.703774
 30
0.0
  0
VERTEX
  5
1FE
330
1E6
100
AcDbEntity
  8
化粧台
  6
EXLTYPE2
 62
     6
100
AcDbVertex
100
AcDb2dVertex
 10
2185.897218000004
 20
1660.842581999999
 30
0.0
  0
VERTEX
  5
1FF
330
1E6
100
AcDbEntity
  8
化粧台
  6
EXLTYPE2
 62
     6
100
AcDbVertex
100
AcDb2dVertex
 10
2186.226952000003
 20
1661.019844
 30
0.0
  0
VERTEX
  5
200
330
1E6
100
AcDbEntity
  8
化粧台
  6
EXLTYPE2
 62
     6
100
AcDbVertex
100
AcDb2dVertex
 10
2186.548766000004
 20
1661.243678000001
 30
0.0
  0
VERTEX
  5
201
330
1E6
100
AcDbEntity
  8
化粧台
  6
EXLTYPE2
 62
     6
100
AcDbVertex
100
AcDb2dVertex
 10
2186.782716000003
 20
1661.448528000001
 30
0.0
  0
VERTEX
  5
202
330
1E6
100
AcDbEntity
  8
化粧台
  6
EXLTYPE2
 62
     6
100
AcDbVertex
100
AcDb2dVertex
 10
2187.006626000004
 20
1661.693542000001
 30
0.0
  0
VERTEX
  5
203
330
1E6
100
AcDbEntity
  8
化粧台
  6
EXLTYPE2
 62
     6
100
AcDbVertex
100
AcDb2dVertex
 10
2187.149188000003
 20
1661.885028000001
 30
0.0
  0
VERTEX
  5
204
330
1E6
100
AcDbEntity
  8
化粧台
  6
EXLTYPE2
 62
     6
100
AcDbVertex
100
AcDb2dVertex
 10
2187.282650000003
 20
1662.101986
 30
0.0
  0
VERTEX
  5
205
330
1E6
100
AcDbEntity
  8
化粧台
  6
EXLTYPE2
 62
     6
100
AcDbVertex
100
AcDb2dVertex
 10
2187.402790000002
 20
1662.346264
 30
0.0
  0
VERTEX
  5
206
330
1E6
100
AcDbEntity
  8
化粧台
  6
EXLTYPE2
 62
     6
100
AcDbVertex
100
AcDb2dVertex
 10
2187.494372000003
 20
1662.587092
 30
0.0
  0
VERTEX
  5
207
330
1E6
100
AcDbEntity
  8
化粧台
  6
EXLTYPE2
 62
     6
100
AcDbVertex
100
AcDb2dVertex
 10
2187.567722000003
 20
1662.851294
 30
0.0
  0
VERTEX
  5
208
330
1E6
100
AcDbEntity
  8
化粧台
  6
EXLTYPE2
 62
     6
100
AcDbVertex
100
AcDb2dVertex
 10
2187.612842000002
 20
1663.100428
 30
0.0
  0
VERTEX
  5
209
330
1E6
100
AcDbEntity
  8
化粧台
  6
EXLTYPE2
 62
     6
100
AcDbVertex
100
AcDb2dVertex
 10
2187.636902000004
 20
1663.360774000001
 30
0.0
  0
VERTEX
  5
20A
330
1E6
100
AcDbEntity
  8
化粧台
  6
EXLTYPE2
 62
     6
100
AcDbVertex
100
AcDb2dVertex
 10
2187.640192000003
 20
1663.500204
 30
0.0
  0
VERTEX
  5
20B
330
1E6
100
AcDbEntity
  8
化粧台
  6
EXLTYPE2
 62
     6
100
AcDbVertex
100
AcDb2dVertex
 10
2187.628038000003
 20
1663.765804000001
 30
0.0
  0
VERTEX
  5
20C
330
1E6
100
AcDbEntity
  8
化粧台
  6
EXLTYPE2
 62
     6
100
AcDbVertex
100
AcDb2dVertex
 10
2187.593260000003
 20
1664.02346
 30
0.0
  0
VERTEX
  5
20D
330
1E6
100
AcDbEntity
  8
化粧台
  6
EXLTYPE2
 62
     6
100
AcDbVertex
100
AcDb2dVertex
 10
2187.538708000002
 20
1664.265117999999
 30
0.0
  0
VERTEX
  5
20E
330
1E6
100
AcDbEntity
  8
化粧台
  6
EXLTYPE2
 62
     6
100
AcDbVertex
100
AcDb2dVertex
 10
2187.467936000003
 20
1664.489608
 30
0.0
  0
VERTEX
  5
20F
330
1E6
100
AcDbEntity
  8
化粧台
  6
EXLTYPE2
 62
     6
100
AcDbVertex
100
AcDb2dVertex
 10
2187.372236000003
 20
1664.721798
 30
0.0
  0
VERTEX
  5
210
330
1E6
100
AcDbEntity
  8
化粧台
  6
EXLTYPE2
 62
     6
100
AcDbVertex
100
AcDb2dVertex
 10
2187.263606000002
 20
1664.931708
 30
0.0
  0
VERTEX
  5
211
330
1E6
100
AcDbEntity
  8
化粧台
  6
EXLTYPE2
 62
     6
100
AcDbVertex
100
AcDb2dVertex
 10
2187.145762000002
 20
1665.119882000001
 30
0.0
  0
VERTEX
  5
212
330
1E6
100
AcDbEntity
  8
化粧台
  6
EXLTYPE2
 62
     6
100
AcDbVertex
100
AcDb2dVertex
 10
2186.916790000003
 20
1665.412396
 30
0.0
  0
VERTEX
  5
213
330
1E6
100
AcDbEntity
  8
化粧台
  6
EXLTYPE2
 62
     6
100
AcDbVertex
100
AcDb2dVertex
 10
2186.672262000002
 20
1665.654116
 30
0.0
  0
VERTEX
  5
214
330
1E6
100
AcDbEntity
  8
化粧台
  6
EXLTYPE2
 62
     6
100
AcDbVertex
100
AcDb2dVertex
 10
2186.418686000003
 20
1665.853450000001
 30
0.0
  0
VERTEX
  5
215
330
1E6
100
AcDbEntity
  8
化粧台
  6
EXLTYPE2
 62
     6
100
AcDbVertex
100
AcDb2dVertex
 10
2186.027758000002
 20
1666.094818
 30
0.0
  0
VERTEX
  5
216
330
1E6
100
AcDbEntity
  8
化粧台
  6
EXLTYPE2
 62
     6
100
AcDbVertex
100
AcDb2dVertex
 10
2185.628430000002
 20
1666.2791
 30
0.0
  0
VERTEX
  5
217
330
1E6
100
AcDbEntity
  8
化粧台
  6
EXLTYPE2
 62
     6
100
AcDbVertex
100
AcDb2dVertex
 10
2185.222988000003
 20
1666.415202
 30
0.0
  0
VERTEX
  5
218
330
1E6
100
AcDbEntity
  8
化粧台
  6
EXLTYPE2
 62
     6
100
AcDbVertex
100
AcDb2dVertex
 10
2184.813716000002
 20
1666.512022000001
 30
0.0
  0
VERTEX
  5
219
330
1E6
100
AcDbEntity
  8
化粧台
  6
EXLTYPE2
 62
     6
100
AcDbVertex
100
AcDb2dVertex
 10
2184.402896000003
 20
1666.578461999999
 30
0.0
  0
VERTEX
  5
21A
330
1E6
100
AcDbEntity
  8
化粧台
  6
EXLTYPE2
 62
     6
100
AcDbVertex
100
AcDb2dVertex
 10
2183.992818000002
 20
1666.623422000001
 30
0.0
  0
VERTEX
  5
21B
330
1E6
100
AcDbEntity
  8
化粧台
  6
EXLTYPE2
 62
     6
100
AcDbVertex
100
AcDb2dVertex
 10
2183.403478000002
 20
1666.659056
 30
0.0
  0
VERTEX
  5
21C
330
1E6
100
AcDbEntity
  8
化粧台
  6
EXLTYPE2
 62
     6
100
AcDbVertex
100
AcDb2dVertex
 10
2182.813732000002
 20
1666.65883
 30
0.0
  0
VERTEX
  5
21D
330
1E6
100
AcDbEntity
  8
化粧台
  6
EXLTYPE2
 62
     6
100
AcDbVertex
100
AcDb2dVertex
 10
2182.224400000003
 20
1666.62271
 30
0.0
  0
VERTEX
  5
21E
330
1E6
100
AcDbEntity
  8
化粧台
  6
EXLTYPE2
 62
     6
100
AcDbVertex
100
AcDb2dVertex
 10
2181.610658000003
 20
1666.542938000001
 30
0.0
  0
VERTEX
  5
21F
330
1E6
100
AcDbEntity
  8
化粧台
  6
EXLTYPE2
 62
     6
100
AcDbVertex
100
AcDb2dVertex
 10
2180.999660000003
 20
1666.404714
 30
0.0
  0
VERTEX
  5
220
330
1E6
100
AcDbEntity
  8
化粧台
  6
EXLTYPE2
 62
     6
100
AcDbVertex
100
AcDb2dVertex
 10
2180.662598000003
 20
1666.296233999999
 30
0.0
  0
VERTEX
  5
221
330
1E6
100
AcDbEntity
  8
化粧台
  6
EXLTYPE2
 62
     6
100
AcDbVertex
100
AcDb2dVertex
 10
2180.327782000002
 20
1666.157426
 30
0.0
  0
VERTEX
  5
222
330
1E6
100
AcDbEntity
  8
化粧台
  6
EXLTYPE2
 62
     6
100
AcDbVertex
100
AcDb2dVertex
 10
2179.998048000003
 20
1665.980164000001
 30
0.0
  0
VERTEX
  5
223
330
1E6
100
AcDbEntity
  8
化粧台
  6
EXLTYPE2
 62
     6
100
AcDbVertex
100
AcDb2dVertex
 10
2179.676234000002
 20
1665.756327999999
 30
0.0
  0
VERTEX
  5
224
330
1E6
100
AcDbEntity
  8
化粧台
  6
EXLTYPE2
 62
     6
100
AcDbVertex
100
AcDb2dVertex
 10
2179.442284000002
 20
1665.55148
 30
0.0
  0
VERTEX
  5
225
330
1E6
100
AcDbEntity
  8
化粧台
  6
EXLTYPE2
 62
     6
100
AcDbVertex
100
AcDb2dVertex
 10
2179.218374000002
 20
1665.306463999999
 30
0.0
  0
VERTEX
  5
226
330
1E6
100
AcDbEntity
  8
化粧台
  6
EXLTYPE2
 62
     6
100
AcDbVertex
100
AcDb2dVertex
 10
2179.075812000003
 20
1665.11498
 30
0.0
  0
VERTEX
  5
227
330
1E6
100
AcDbEntity
  8
化粧台
  6
EXLTYPE2
 62
     6
100
AcDbVertex
100
AcDb2dVertex
 10
2178.942350000003
 20
1664.898021999999
 30
0.0
  0
VERTEX
  5
228
330
1E6
100
AcDbEntity
  8
化粧台
  6
EXLTYPE2
 62
     6
100
AcDbVertex
100
AcDb2dVertex
 10
2178.822210000004
 20
1664.653742
 30
0.0
  0
VERTEX
  5
229
330
1E6
100
AcDbEntity
  8
化粧台
  6
EXLTYPE2
 62
     6
100
AcDbVertex
100
AcDb2dVertex
 10
2178.730630000004
 20
1664.412915999999
 30
0.0
  0
VERTEX
  5
22A
330
1E6
100
AcDbEntity
  8
化粧台
  6
EXLTYPE2
 62
     6
100
AcDbVertex
100
AcDb2dVertex
 10
2178.657278000002
 20
1664.148714000001
 30
0.0
  0
VERTEX
  5
22B
330
1E6
100
AcDbEntity
  8
化粧台
  6
EXLTYPE2
 62
     6
100
AcDbVertex
100
AcDb2dVertex
 10
2178.612158000004
 20
1663.899579999999
 30
0.0
  0
VERTEX
  5
22C
330
1E6
100
AcDbEntity
  8
化粧台
  6
EXLTYPE2
 62
     6
100
AcDbVertex
100
AcDb2dVertex
 10
2178.588098000002
 20
1663.639234
 30
0.0
  0
VERTEX
  5
22D
330
1E6
100
AcDbEntity
  8
化粧台
  6
EXLTYPE2
 62
     6
100
AcDbVertex
100
AcDb2dVertex
 10
2178.584808000003
 20
1663.500204
 30
0.0
  0
SEQEND
  5
22E
330
1E6
100
AcDbEntity
  8
化粧台
  6
EXLTYPE2
 62
     6
  0
POLYLINE
  5
22F
330
1F
100
AcDbEntity
  8
化粧台
  6
EXLTYPE2
 62
     6
100
AcDb2dPolyline
 66
     1
 10
0.0
 20
0.0
 30
0.0
 70
   128
  0
VERTEX
  5
230
330
22F
100
AcDbEntity
  8
化粧台
  6
EXLTYPE2
 62
     6
100
AcDbVertex
100
AcDb2dVertex
 10
2199.999996000002
 20
1660.337726
 30
0.0
  0
VERTEX
  5
231
330
22F
100
AcDbEntity
  8
化粧台
  6
EXLTYPE2
 62
     6
100
AcDbVertex
100
AcDb2dVertex
 10
2200.584264000003
 20
1660.34151
 30
0.0
  0
VERTEX
  5
232
330
22F
100
AcDbEntity
  8
化粧台
  6
EXLTYPE2
 62
     6
100
AcDbVertex
100
AcDb2dVertex
 10
2201.168428000003
 20
1660.353598
 30
0.0
  0
VERTEX
  5
233
330
22F
100
AcDbEntity
  8
化粧台
  6
EXLTYPE2
 62
     6
100
AcDbVertex
100
AcDb2dVertex
 10
2201.752438000003
 20
1660.374954000001
 30
0.0
  0
VERTEX
  5
234
330
22F
100
AcDbEntity
  8
化粧台
  6
EXLTYPE2
 62
     6
100
AcDbVertex
100
AcDb2dVertex
 10
2202.335972000003
 20
1660.406714000001
 30
0.0
  0
VERTEX
  5
235
330
22F
100
AcDbEntity
  8
化粧台
  6
EXLTYPE2
 62
     6
100
AcDbVertex
100
AcDb2dVertex
 10
2202.918502000002
 20
1660.44994
 30
0.0
  0
VERTEX
  5
236
330
22F
100
AcDbEntity
  8
化粧台
  6
EXLTYPE2
 62
     6
100
AcDbVertex
100
AcDb2dVertex
 10
2203.499996000002
 20
1660.505332000001
 30
0.0
  0
VERTEX
  5
237
330
22F
100
AcDbEntity
  8
化粧台
  6
EXLTYPE2
 62
     6
100
AcDbVertex
100
AcDb2dVertex
 10
2204.214676000003
 20
1660.592144
 30
0.0
  0
VERTEX
  5
238
330
22F
100
AcDbEntity
  8
化粧台
  6
EXLTYPE2
 62
     6
100
AcDbVertex
100
AcDb2dVertex
 10
2204.927784000003
 20
1660.705857999999
 30
0.0
  0
VERTEX
  5
239
330
22F
100
AcDbEntity
  8
化粧台
  6
EXLTYPE2
 62
     6
100
AcDbVertex
100
AcDb2dVertex
 10
2205.633550000002
 20
1660.855165999999
 30
0.0
  0
VERTEX
  5
23A
330
22F
100
AcDbEntity
  8
化粧台
  6
EXLTYPE2
 62
     6
100
AcDbVertex
100
AcDb2dVertex
 10
2206.326208000002
 20
1661.04876
 30
0.0
  0
VERTEX
  5
23B
330
22F
100
AcDbEntity
  8
化粧台
  6
EXLTYPE2
 62
     6
100
AcDbVertex
100
AcDb2dVertex
 10
2206.999996000002
 20
1661.295332
 30
0.0
  0
VERTEX
  5
23C
330
22F
100
AcDbEntity
  8
化粧台
  6
EXLTYPE2
 62
     6
100
AcDbVertex
100
AcDb2dVertex
 10
2207.441340000003
 20
1661.498572
 30
0.0
  0
VERTEX
  5
23D
330
22F
100
AcDbEntity
  8
化粧台
  6
EXLTYPE2
 62
     6
100
AcDbVertex
100
AcDb2dVertex
 10
2207.863524000002
 20
1661.740342000001
 30
0.0
  0
VERTEX
  5
23E
330
22F
100
AcDbEntity
  8
化粧台
  6
EXLTYPE2
 62
     6
100
AcDbVertex
100
AcDb2dVertex
 10
2208.254054000003
 20
1662.027066000001
 30
0.0
  0
VERTEX
  5
23F
330
22F
100
AcDbEntity
  8
化粧台
  6
EXLTYPE2
 62
     6
100
AcDbVertex
100
AcDb2dVertex
 10
2208.510384000003
 20
1662.268545999999
 30
0.0
  0
VERTEX
  5
240
330
22F
100
AcDbEntity
  8
化粧台
  6
EXLTYPE2
 62
     6
100
AcDbVertex
100
AcDb2dVertex
 10
2208.732678000002
 20
1662.541123999999
 30
0.0
  0
VERTEX
  5
241
330
22F
100
AcDbEntity
  8
化粧台
  6
EXLTYPE2
 62
     6
100
AcDbVertex
100
AcDb2dVertex
 10
2208.856990000002
 20
1662.743904000001
 30
0.0
  0
VERTEX
  5
242
330
22F
100
AcDbEntity
  8
化粧台
  6
EXLTYPE2
 62
     6
100
AcDbVertex
100
AcDb2dVertex
 10
2208.955522000002
 20
1662.96126
 30
0.0
  0
VERTEX
  5
243
330
22F
100
AcDbEntity
  8
化粧台
  6
EXLTYPE2
 62
     6
100
AcDbVertex
100
AcDb2dVertex
 10
2209.022442000003
 20
1663.188918
 30
0.0
  0
VERTEX
  5
244
330
22F
100
AcDbEntity
  8
化粧台
  6
EXLTYPE2
 62
     6
100
AcDbVertex
100
AcDb2dVertex
 10
2209.053858000003
 20
1663.438924
 30
0.0
  0
VERTEX
  5
245
330
22F
100
AcDbEntity
  8
化粧台
  6
EXLTYPE2
 62
     6
100
AcDbVertex
100
AcDb2dVertex
 10
2209.043040000002
 20
1663.690628
 30
0.0
  0
VERTEX
  5
246
330
22F
100
AcDbEntity
  8
化粧台
  6
EXLTYPE2
 62
     6
100
AcDbVertex
100
AcDb2dVertex
 10
2208.990162000004
 20
1663.936392
 30
0.0
  0
VERTEX
  5
247
330
22F
100
AcDbEntity
  8
化粧台
  6
EXLTYPE2
 62
     6
100
AcDbVertex
100
AcDb2dVertex
 10
2208.900018000002
 20
1664.171262
 30
0.0
  0
VERTEX
  5
248
330
22F
100
AcDbEntity
  8
化粧台
  6
EXLTYPE2
 62
     6
100
AcDbVertex
100
AcDb2dVertex
 10
2208.721402000003
 20
1664.474700000001
 30
0.0
  0
VERTEX
  5
249
330
22F
100
AcDbEntity
  8
化粧台
  6
EXLTYPE2
 62
     6
100
AcDbVertex
100
AcDb2dVertex
 10
2208.496342000004
 20
1664.746302
 30
0.0
  0
VERTEX
  5
24A
330
22F
100
AcDbEntity
  8
化粧台
  6
EXLTYPE2
 62
     6
100
AcDbVertex
100
AcDb2dVertex
 10
2208.219596000003
 20
1665.001758
 30
0.0
  0
VERTEX
  5
24B
330
22F
100
AcDbEntity
  8
化粧台
  6
EXLTYPE2
 62
     6
100
AcDbVertex
100
AcDb2dVertex
 10
2207.914938000004
 20
1665.225702
 30
0.0
  0
VERTEX
  5
24C
330
22F
100
AcDbEntity
  8
化粧台
  6
EXLTYPE2
 62
     6
100
AcDbVertex
100
AcDb2dVertex
 10
2207.591798000003
 20
1665.420994
 30
0.0
  0
VERTEX
  5
24D
330
22F
100
AcDbEntity
  8
化粧台
  6
EXLTYPE2
 62
     6
100
AcDbVertex
100
AcDb2dVertex
 10
2207.087092000003
 20
1665.668718000001
 30
0.0
  0
VERTEX
  5
24E
330
22F
100
AcDbEntity
  8
化粧台
  6
EXLTYPE2
 62
     6
100
AcDbVertex
100
AcDb2dVertex
 10
2206.561414000003
 20
1665.87284
 30
0.0
  0
VERTEX
  5
24F
330
22F
100
AcDbEntity
  8
化粧台
  6
EXLTYPE2
 62
     6
100
AcDbVertex
100
AcDb2dVertex
 10
2206.021714000002
 20
1666.040186
 30
0.0
  0
VERTEX
  5
250
330
22F
100
AcDbEntity
  8
化粧台
  6
EXLTYPE2
 62
     6
100
AcDbVertex
100
AcDb2dVertex
 10
2205.474940000002
 20
1666.177582
 30
0.0
  0
VERTEX
  5
251
330
22F
100
AcDbEntity
  8
化粧台
  6
EXLTYPE2
 62
     6
100
AcDbVertex
100
AcDb2dVertex
 10
2204.980480000004
 20
1666.281046
 30
0.0
  0
VERTEX
  5
252
330
22F
100
AcDbEntity
  8
化粧台
  6
EXLTYPE2
 62
     6
100
AcDbVertex
100
AcDb2dVertex
 10
2204.482862000003
 20
1666.36825
 30
0.0
  0
VERTEX
  5
253
330
22F
100
AcDbEntity
  8
化粧台
  6
EXLTYPE2
 62
     6
100
AcDbVertex
100
AcDb2dVertex
 10
2203.982220000004
 20
1666.440790000001
 30
0.0
  0
VERTEX
  5
254
330
22F
100
AcDbEntity
  8
化粧台
  6
EXLTYPE2
 62
     6
100
AcDbVertex
100
AcDb2dVertex
 10
2203.479844000003
 20
1666.500076
 30
0.0
  0
VERTEX
  5
255
330
22F
100
AcDbEntity
  8
化粧台
  6
EXLTYPE2
 62
     6
100
AcDbVertex
100
AcDb2dVertex
 10
2202.975704000002
 20
1666.547712
 30
0.0
  0
VERTEX
  5
256
330
22F
100
AcDbEntity
  8
化粧台
  6
EXLTYPE2
 62
     6
100
AcDbVertex
100
AcDb2dVertex
 10
2202.470706000002
 20
1666.585208
 30
0.0
  0
VERTEX
  5
257
330
22F
100
AcDbEntity
  8
化粧台
  6
EXLTYPE2
 62
     6
100
AcDbVertex
100
AcDb2dVertex
 10
2201.965666000002
 20
1666.614090000001
 30
0.0
  0
VERTEX
  5
258
330
22F
100
AcDbEntity
  8
化粧台
  6
EXLTYPE2
 62
     6
100
AcDbVertex
100
AcDb2dVertex
 10
2201.460260000003
 20
1666.6358
 30
0.0
  0
VERTEX
  5
259
330
22F
100
AcDbEntity
  8
化粧台
  6
EXLTYPE2
 62
     6
100
AcDbVertex
100
AcDb2dVertex
 10
2200.771122000004
 20
1666.655608000001
 30
0.0
  0
VERTEX
  5
25A
330
22F
100
AcDbEntity
  8
化粧台
  6
EXLTYPE2
 62
     6
100
AcDbVertex
100
AcDb2dVertex
 10
2200.081752000004
 20
1666.663914000001
 30
0.0
  0
VERTEX
  5
25B
330
22F
100
AcDbEntity
  8
化粧台
  6
EXLTYPE2
 62
     6
100
AcDbVertex
100
AcDb2dVertex
 10
2199.392146000004
 20
1666.660003999999
 30
0.0
  0
VERTEX
  5
25C
330
22F
100
AcDbEntity
  8
化粧台
  6
EXLTYPE2
 62
     6
100
AcDbVertex
100
AcDb2dVertex
 10
2198.702734000002
 20
1666.64321
 30
0.0
  0
VERTEX
  5
25D
330
22F
100
AcDbEntity
  8
化粧台
  6
EXLTYPE2
 62
     6
100
AcDbVertex
100
AcDb2dVertex
 10
2198.014062000004
 20
1666.61298
 30
0.0
  0
VERTEX
  5
25E
330
22F
100
AcDbEntity
  8
化粧台
  6
EXLTYPE2
 62
     6
100
AcDbVertex
100
AcDb2dVertex
 10
2197.326132000004
 20
1666.569092
 30
0.0
  0
VERTEX
  5
25F
330
22F
100
AcDbEntity
  8
化粧台
  6
EXLTYPE2
 62
     6
100
AcDbVertex
100
AcDb2dVertex
 10
2196.518988000003
 20
1666.498610000001
 30
0.0
  0
VERTEX
  5
260
330
22F
100
AcDbEntity
  8
化粧台
  6
EXLTYPE2
 62
     6
100
AcDbVertex
100
AcDb2dVertex
 10
2195.712534000004
 20
1666.400525999999
 30
0.0
  0
VERTEX
  5
261
330
22F
100
AcDbEntity
  8
化粧台
  6
EXLTYPE2
 62
     6
100
AcDbVertex
100
AcDb2dVertex
 10
2194.912332000004
 20
1666.264884
 30
0.0
  0
VERTEX
  5
262
330
22F
100
AcDbEntity
  8
化粧台
  6
EXLTYPE2
 62
     6
100
AcDbVertex
100
AcDb2dVertex
 10
2194.123948000002
 20
1666.081728000001
 30
0.0
  0
VERTEX
  5
263
330
22F
100
AcDbEntity
  8
化粧台
  6
EXLTYPE2
 62
     6
100
AcDbVertex
100
AcDb2dVertex
 10
2193.352946000003
 20
1665.841104000001
 30
0.0
  0
VERTEX
  5
264
330
22F
100
AcDbEntity
  8
化粧台
  6
EXLTYPE2
 62
     6
100
AcDbVertex
100
AcDb2dVertex
 10
2192.847228000002
 20
1665.63941
 30
0.0
  0
VERTEX
  5
265
330
22F
100
AcDbEntity
  8
化粧台
  6
EXLTYPE2
 62
     6
100
AcDbVertex
100
AcDb2dVertex
 10
2192.360106000002
 20
1665.394813999999
 30
0.0
  0
VERTEX
  5
266
330
22F
100
AcDbEntity
  8
化粧台
  6
EXLTYPE2
 62
     6
100
AcDbVertex
100
AcDb2dVertex
 10
2191.905016000002
 20
1665.098844
 30
0.0
  0
VERTEX
  5
267
330
22F
100
AcDbEntity
  8
化粧台
  6
EXLTYPE2
 62
     6
100
AcDbVertex
100
AcDb2dVertex
 10
2191.619550000003
 20
1664.861000000001
 30
0.0
  0
VERTEX
  5
268
330
22F
100
AcDbEntity
  8
化粧台
  6
EXLTYPE2
 62
     6
100
AcDbVertex
100
AcDb2dVertex
 10
2191.365984000002
 20
1664.589982
 30
0.0
  0
VERTEX
  5
269
330
22F
100
AcDbEntity
  8
化粧台
  6
EXLTYPE2
 62
     6
100
AcDbVertex
100
AcDb2dVertex
 10
2191.219268000003
 20
1664.386364
 30
0.0
  0
VERTEX
  5
26A
330
22F
100
AcDbEntity
  8
化粧台
  6
EXLTYPE2
 62
     6
100
AcDbVertex
100
AcDb2dVertex
 10
2191.097776000002
 20
1664.165886000001
 30
0.0
  0
VERTEX
  5
26B
330
22F
100
AcDbEntity
  8
化粧台
  6
EXLTYPE2
 62
     6
100
AcDbVertex
100
AcDb2dVertex
 10
2191.008364000003
 20
1663.932094
 30
0.0
  0
VERTEX
  5
26C
330
22F
100
AcDbEntity
  8
化粧台
  6
EXLTYPE2
 62
     6
100
AcDbVertex
100
AcDb2dVertex
 10
2190.956310000003
 20
1663.683616
 30
0.0
  0
VERTEX
  5
26D
330
22F
100
AcDbEntity
  8
化粧台
  6
EXLTYPE2
 62
     6
100
AcDbVertex
100
AcDb2dVertex
 10
2190.946270000002
 20
1663.430044000001
 30
0.0
  0
VERTEX
  5
26E
330
22F
100
AcDbEntity
  8
化粧台
  6
EXLTYPE2
 62
     6
100
AcDbVertex
100
AcDb2dVertex
 10
2190.980008000002
 20
1663.178558
 30
0.0
  0
VERTEX
  5
26F
330
22F
100
AcDbEntity
  8
化粧台
  6
EXLTYPE2
 62
     6
100
AcDbVertex
100
AcDb2dVertex
 10
2191.053894000002
 20
1662.935648000001
 30
0.0
  0
VERTEX
  5
270
330
22F
100
AcDbEntity
  8
化粧台
  6
EXLTYPE2
 62
     6
100
AcDbVertex
100
AcDb2dVertex
 10
2191.201040000004
 20
1662.642524000001
 30
0.0
  0
VERTEX
  5
271
330
22F
100
AcDbEntity
  8
化粧台
  6
EXLTYPE2
 62
     6
100
AcDbVertex
100
AcDb2dVertex
 10
2191.393688000002
 20
1662.376420000001
 30
0.0
  0
VERTEX
  5
272
330
22F
100
AcDbEntity
  8
化粧台
  6
EXLTYPE2
 62
     6
100
AcDbVertex
100
AcDb2dVertex
 10
2191.626104000003
 20
1662.13278
 30
0.0
  0
VERTEX
  5
273
330
22F
100
AcDbEntity
  8
化粧台
  6
EXLTYPE2
 62
     6
100
AcDbVertex
100
AcDb2dVertex
 10
2191.885350000002
 20
1661.915838000001
 30
0.0
  0
VERTEX
  5
274
330
22F
100
AcDbEntity
  8
化粧台
  6
EXLTYPE2
 62
     6
100
AcDbVertex
100
AcDb2dVertex
 10
2192.163024000003
 20
1661.723958
 30
0.0
  0
VERTEX
  5
275
330
22F
100
AcDbEntity
  8
化粧台
  6
EXLTYPE2
 62
     6
100
AcDbVertex
100
AcDb2dVertex
 10
2192.580552000003
 20
1661.487118000001
 30
0.0
  0
VERTEX
  5
276
330
22F
100
AcDbEntity
  8
化粧台
  6
EXLTYPE2
 62
     6
100
AcDbVertex
100
AcDb2dVertex
 10
2193.018312000002
 20
1661.286588000001
 30
0.0
  0
VERTEX
  5
277
330
22F
100
AcDbEntity
  8
化粧台
  6
EXLTYPE2
 62
     6
100
AcDbVertex
100
AcDb2dVertex
 10
2193.470082000003
 20
1661.117334
 30
0.0
  0
VERTEX
  5
278
330
22F
100
AcDbEntity
  8
化粧台
  6
EXLTYPE2
 62
     6
100
AcDbVertex
100
AcDb2dVertex
 10
2193.929642000003
 20
1660.974328
 30
0.0
  0
VERTEX
  5
279
330
22F
100
AcDbEntity
  8
化粧台
  6
EXLTYPE2
 62
     6
100
AcDbVertex
100
AcDb2dVertex
 10
2194.663138000004
 20
1660.790832000001
 30
0.0
  0
VERTEX
  5
27A
330
22F
100
AcDbEntity
  8
化粧台
  6
EXLTYPE2
 62
     6
100
AcDbVertex
100
AcDb2dVertex
 10
2195.407028000003
 20
1660.649866
 30
0.0
  0
VERTEX
  5
27B
330
22F
100
AcDbEntity
  8
化粧台
  6
EXLTYPE2
 62
     6
100
AcDbVertex
100
AcDb2dVertex
 10
2196.157402000003
 20
1660.543806
 30
0.0
  0
VERTEX
  5
27C
330
22F
100
AcDbEntity
  8
化粧台
  6
EXLTYPE2
 62
     6
100
AcDbVertex
100
AcDb2dVertex
 10
2196.910356000002
 20
1660.465028000001
 30
0.0
  0
VERTEX
  5
27D
330
22F
100
AcDbEntity
  8
化粧台
  6
EXLTYPE2
 62
     6
100
AcDbVertex
100
AcDb2dVertex
 10
2197.424154000002
 20
1660.423596000001
 30
0.0
  0
VERTEX
  5
27E
330
22F
100
AcDbEntity
  8
化粧台
  6
EXLTYPE2
 62
     6
100
AcDbVertex
100
AcDb2dVertex
 10
2197.938590000003
 20
1660.391009999999
 30
0.0
  0
VERTEX
  5
27F
330
22F
100
AcDbEntity
  8
化粧台
  6
EXLTYPE2
 62
     6
100
AcDbVertex
100
AcDb2dVertex
 10
2198.453642000002
 20
1660.366755999999
 30
0.0
  0
VERTEX
  5
280
330
22F
100
AcDbEntity
  8
化粧台
  6
EXLTYPE2
 62
     6
100
AcDbVertex
100
AcDb2dVertex
 10
2198.969002000003
 20
1660.350224
 30
0.0
  0
VERTEX
  5
281
330
22F
100
AcDbEntity
  8
化粧台
  6
EXLTYPE2
 62
     6
100
AcDbVertex
100
AcDb2dVertex
 10
2199.484464000003
 20
1660.340768
 30
0.0
  0
VERTEX
  5
282
330
22F
100
AcDbEntity
  8
化粧台
  6
EXLTYPE2
 62
     6
100
AcDbVertex
100
AcDb2dVertex
 10
2199.999996000002
 20
1660.337726
 30
0.0
  0
SEQEND
  5
283
330
22F
100
AcDbEntity
  8
化粧台
  6
EXLTYPE2
 62
     6
  0
POLYLINE
  5
284
330
1F
100
AcDbEntity
  8
化粧台
  6
EXLTYPE2
 62
     6
100
AcDb2dPolyline
 66
     1
 10
0.0
 20
0.0
 30
0.0
 70
   128
  0
VERTEX
  5
285
330
284
100
AcDbEntity
  8
化粧台
  6
EXLTYPE2
 62
     6
100
AcDbVertex
100
AcDb2dVertex
 10
2212.359798000003
 20
1663.500204
 30
0.0
  0
VERTEX
  5
286
330
284
100
AcDbEntity
  8
化粧台
  6
EXLTYPE2
 62
     6
100
AcDbVertex
100
AcDb2dVertex
 10
2212.371936000003
 20
1663.234399999999
 30
0.0
  0
VERTEX
  5
287
330
284
100
AcDbEntity
  8
化粧台
  6
EXLTYPE2
 62
     6
100
AcDbVertex
100
AcDb2dVertex
 10
2212.406730000002
 20
1662.976546
 30
0.0
  0
VERTEX
  5
288
330
284
100
AcDbEntity
  8
化粧台
  6
EXLTYPE2
 62
     6
100
AcDbVertex
100
AcDb2dVertex
 10
2212.461282000002
 20
1662.73489
 30
0.0
  0
VERTEX
  5
289
330
284
100
AcDbEntity
  8
化粧台
  6
EXLTYPE2
 62
     6
100
AcDbVertex
100
AcDb2dVertex
 10
2212.532054000003
 20
1662.510399999999
 30
0.0
  0
VERTEX
  5
28A
330
284
100
AcDbEntity
  8
化粧台
  6
EXLTYPE2
 62
     6
100
AcDbVertex
100
AcDb2dVertex
 10
2212.627754000003
 20
1662.27821
 30
0.0
  0
VERTEX
  5
28B
330
284
100
AcDbEntity
  8
化粧台
  6
EXLTYPE2
 62
     6
100
AcDbVertex
100
AcDb2dVertex
 10
2212.736384000003
 20
1662.068298
 30
0.0
  0
VERTEX
  5
28C
330
284
100
AcDbEntity
  8
化粧台
  6
EXLTYPE2
 62
     6
100
AcDbVertex
100
AcDb2dVertex
 10
2212.854228000002
 20
1661.880126
 30
0.0
  0
VERTEX
  5
28D
330
284
100
AcDbEntity
  8
化粧台
  6
EXLTYPE2
 62
     6
100
AcDbVertex
100
AcDb2dVertex
 10
2213.083200000003
 20
1661.587611999999
 30
0.0
  0
VERTEX
  5
28E
330
284
100
AcDbEntity
  8
化粧台
  6
EXLTYPE2
 62
     6
100
AcDbVertex
100
AcDb2dVertex
 10
2213.327730000003
 20
1661.345890000001
 30
0.0
  0
VERTEX
  5
28F
330
284
100
AcDbEntity
  8
化粧台
  6
EXLTYPE2
 62
     6
100
AcDbVertex
100
AcDb2dVertex
 10
2213.581306000002
 20
1661.146556
 30
0.0
  0
VERTEX
  5
290
330
284
100
AcDbEntity
  8
化粧台
  6
EXLTYPE2
 62
     6
100
AcDbVertex
100
AcDb2dVertex
 10
2213.972234000003
 20
1660.905189999999
 30
0.0
  0
VERTEX
  5
291
330
284
100
AcDbEntity
  8
化粧台
  6
EXLTYPE2
 62
     6
100
AcDbVertex
100
AcDb2dVertex
 10
2214.371560000003
 20
1660.720906
 30
0.0
  0
VERTEX
  5
292
330
284
100
AcDbEntity
  8
化粧台
  6
EXLTYPE2
 62
     6
100
AcDbVertex
100
AcDb2dVertex
 10
2214.777002000003
 20
1660.584806000001
 30
0.0
  0
VERTEX
  5
293
330
284
100
AcDbEntity
  8
化粧台
  6
EXLTYPE2
 62
     6
100
AcDbVertex
100
AcDb2dVertex
 10
2215.186276000002
 20
1660.487986
 30
0.0
  0
VERTEX
  5
294
330
284
100
AcDbEntity
  8
化粧台
  6
EXLTYPE2
 62
     6
100
AcDbVertex
100
AcDb2dVertex
 10
2215.597094000002
 20
1660.421546
 30
0.0
  0
VERTEX
  5
295
330
284
100
AcDbEntity
  8
化粧台
  6
EXLTYPE2
 62
     6
100
AcDbVertex
100
AcDb2dVertex
 10
2216.007174000004
 20
1660.376586
 30
0.0
  0
VERTEX
  5
296
330
284
100
AcDbEntity
  8
化粧台
  6
EXLTYPE2
 62
     6
100
AcDbVertex
100
AcDb2dVertex
 10
2216.596514000003
 20
1660.340952
 30
0.0
  0
VERTEX
  5
297
330
284
100
AcDbEntity
  8
化粧台
  6
EXLTYPE2
 62
     6
100
AcDbVertex
100
AcDb2dVertex
 10
2217.186260000002
 20
1660.341178000001
 30
0.0
  0
VERTEX
  5
298
330
284
100
AcDbEntity
  8
化粧台
  6
EXLTYPE2
 62
     6
100
AcDbVertex
100
AcDb2dVertex
 10
2217.775592000004
 20
1660.377296000001
 30
0.0
  0
VERTEX
  5
299
330
284
100
AcDbEntity
  8
化粧台
  6
EXLTYPE2
 62
     6
100
AcDbVertex
100
AcDb2dVertex
 10
2218.389334000003
 20
1660.45707
 30
0.0
  0
VERTEX
  5
29A
330
284
100
AcDbEntity
  8
化粧台
  6
EXLTYPE2
 62
     6
100
AcDbVertex
100
AcDb2dVertex
 10
2219.000332000003
 20
1660.595294000001
 30
0.0
  0
VERTEX
  5
29B
330
284
100
AcDbEntity
  8
化粧台
  6
EXLTYPE2
 62
     6
100
AcDbVertex
100
AcDb2dVertex
 10
2219.337392000003
 20
1660.703774
 30
0.0
  0
VERTEX
  5
29C
330
284
100
AcDbEntity
  8
化粧台
  6
EXLTYPE2
 62
     6
100
AcDbVertex
100
AcDb2dVertex
 10
2219.672208000002
 20
1660.842581999999
 30
0.0
  0
VERTEX
  5
29D
330
284
100
AcDbEntity
  8
化粧台
  6
EXLTYPE2
 62
     6
100
AcDbVertex
100
AcDb2dVertex
 10
2220.001942000003
 20
1661.019844
 30
0.0
  0
VERTEX
  5
29E
330
284
100
AcDbEntity
  8
化粧台
  6
EXLTYPE2
 62
     6
100
AcDbVertex
100
AcDb2dVertex
 10
2220.323756000003
 20
1661.243678000001
 30
0.0
  0
VERTEX
  5
29F
330
284
100
AcDbEntity
  8
化粧台
  6
EXLTYPE2
 62
     6
100
AcDbVertex
100
AcDb2dVertex
 10
2220.557706000003
 20
1661.448528000001
 30
0.0
  0
VERTEX
  5
2A0
330
284
100
AcDbEntity
  8
化粧台
  6
EXLTYPE2
 62
     6
100
AcDbVertex
100
AcDb2dVertex
 10
2220.781616000002
 20
1661.693542000001
 30
0.0
  0
VERTEX
  5
2A1
330
284
100
AcDbEntity
  8
化粧台
  6
EXLTYPE2
 62
     6
100
AcDbVertex
100
AcDb2dVertex
 10
2220.924178000003
 20
1661.885028000001
 30
0.0
  0
VERTEX
  5
2A2
330
284
100
AcDbEntity
  8
化粧台
  6
EXLTYPE2
 62
     6
100
AcDbVertex
100
AcDb2dVertex
 10
2221.057640000003
 20
1662.101986
 30
0.0
  0
VERTEX
  5
2A3
330
284
100
AcDbEntity
  8
化粧台
  6
EXLTYPE2
 62
     6
100
AcDbVertex
100
AcDb2dVertex
 10
2221.177780000004
 20
1662.346264
 30
0.0
  0
VERTEX
  5
2A4
330
284
100
AcDbEntity
  8
化粧台
  6
EXLTYPE2
 62
     6
100
AcDbVertex
100
AcDb2dVertex
 10
2221.269362000003
 20
1662.587092
 30
0.0
  0
VERTEX
  5
2A5
330
284
100
AcDbEntity
  8
化粧台
  6
EXLTYPE2
 62
     6
100
AcDbVertex
100
AcDb2dVertex
 10
2221.342714000004
 20
1662.851294
 30
0.0
  0
VERTEX
  5
2A6
330
284
100
AcDbEntity
  8
化粧台
  6
EXLTYPE2
 62
     6
100
AcDbVertex
100
AcDb2dVertex
 10
2221.387832000002
 20
1663.100428
 30
0.0
  0
VERTEX
  5
2A7
330
284
100
AcDbEntity
  8
化粧台
  6
EXLTYPE2
 62
     6
100
AcDbVertex
100
AcDb2dVertex
 10
2221.411894000003
 20
1663.360774000001
 30
0.0
  0
VERTEX
  5
2A8
330
284
100
AcDbEntity
  8
化粧台
  6
EXLTYPE2
 62
     6
100
AcDbVertex
100
AcDb2dVertex
 10
2221.415184000003
 20
1663.500204
 30
0.0
  0
VERTEX
  5
2A9
330
284
100
AcDbEntity
  8
化粧台
  6
EXLTYPE2
 62
     6
100
AcDbVertex
100
AcDb2dVertex
 10
2221.403028000002
 20
1663.765804000001
 30
0.0
  0
VERTEX
  5
2AA
330
284
100
AcDbEntity
  8
化粧台
  6
EXLTYPE2
 62
     6
100
AcDbVertex
100
AcDb2dVertex
 10
2221.368250000003
 20
1664.02346
 30
0.0
  0
VERTEX
  5
2AB
330
284
100
AcDbEntity
  8
化粧台
  6
EXLTYPE2
 62
     6
100
AcDbVertex
100
AcDb2dVertex
 10
2221.313700000002
 20
1664.265117999999
 30
0.0
  0
VERTEX
  5
2AC
330
284
100
AcDbEntity
  8
化粧台
  6
EXLTYPE2
 62
     6
100
AcDbVertex
100
AcDb2dVertex
 10
2221.242928000003
 20
1664.489608
 30
0.0
  0
VERTEX
  5
2AD
330
284
100
AcDbEntity
  8
化粧台
  6
EXLTYPE2
 62
     6
100
AcDbVertex
100
AcDb2dVertex
 10
2221.147228000003
 20
1664.721798
 30
0.0
  0
VERTEX
  5
2AE
330
284
100
AcDbEntity
  8
化粧台
  6
EXLTYPE2
 62
     6
100
AcDbVertex
100
AcDb2dVertex
 10
2221.038598000003
 20
1664.931708
 30
0.0
  0
VERTEX
  5
2AF
330
284
100
AcDbEntity
  8
化粧台
  6
EXLTYPE2
 62
     6
100
AcDbVertex
100
AcDb2dVertex
 10
2220.920754000002
 20
1665.119882000001
 30
0.0
  0
VERTEX
  5
2B0
330
284
100
AcDbEntity
  8
化粧台
  6
EXLTYPE2
 62
     6
100
AcDbVertex
100
AcDb2dVertex
 10
2220.691782000004
 20
1665.412396
 30
0.0
  0
VERTEX
  5
2B1
330
284
100
AcDbEntity
  8
化粧台
  6
EXLTYPE2
 62
     6
100
AcDbVertex
100
AcDb2dVertex
 10
2220.447252000004
 20
1665.654116
 30
0.0
  0
VERTEX
  5
2B2
330
284
100
AcDbEntity
  8
化粧台
  6
EXLTYPE2
 62
     6
100
AcDbVertex
100
AcDb2dVertex
 10
2220.193676000003
 20
1665.853450000001
 30
0.0
  0
VERTEX
  5
2B3
330
284
100
AcDbEntity
  8
化粧台
  6
EXLTYPE2
 62
     6
100
AcDbVertex
100
AcDb2dVertex
 10
2219.802748000004
 20
1666.094818
 30
0.0
  0
VERTEX
  5
2B4
330
284
100
AcDbEntity
  8
化粧台
  6
EXLTYPE2
 62
     6
100
AcDbVertex
100
AcDb2dVertex
 10
2219.403422000003
 20
1666.2791
 30
0.0
  0
VERTEX
  5
2B5
330
284
100
AcDbEntity
  8
化粧台
  6
EXLTYPE2
 62
     6
100
AcDbVertex
100
AcDb2dVertex
 10
2218.997980000002
 20
1666.415202
 30
0.0
  0
VERTEX
  5
2B6
330
284
100
AcDbEntity
  8
化粧台
  6
EXLTYPE2
 62
     6
100
AcDbVertex
100
AcDb2dVertex
 10
2218.588706000002
 20
1666.512022000001
 30
0.0
  0
VERTEX
  5
2B7
330
284
100
AcDbEntity
  8
化粧台
  6
EXLTYPE2
 62
     6
100
AcDbVertex
100
AcDb2dVertex
 10
2218.177888000004
 20
1666.578461999999
 30
0.0
  0
VERTEX
  5
2B8
330
284
100
AcDbEntity
  8
化粧台
  6
EXLTYPE2
 62
     6
100
AcDbVertex
100
AcDb2dVertex
 10
2217.767808000002
 20
1666.623422000001
 30
0.0
  0
VERTEX
  5
2B9
330
284
100
AcDbEntity
  8
化粧台
  6
EXLTYPE2
 62
     6
100
AcDbVertex
100
AcDb2dVertex
 10
2217.178468000004
 20
1666.659056
 30
0.0
  0
VERTEX
  5
2BA
330
284
100
AcDbEntity
  8
化粧台
  6
EXLTYPE2
 62
     6
100
AcDbVertex
100
AcDb2dVertex
 10
2216.588722000002
 20
1666.65883
 30
0.0
  0
VERTEX
  5
2BB
330
284
100
AcDbEntity
  8
化粧台
  6
EXLTYPE2
 62
     6
100
AcDbVertex
100
AcDb2dVertex
 10
2215.999390000003
 20
1666.62271
 30
0.0
  0
VERTEX
  5
2BC
330
284
100
AcDbEntity
  8
化粧台
  6
EXLTYPE2
 62
     6
100
AcDbVertex
100
AcDb2dVertex
 10
2215.385648000003
 20
1666.542938000001
 30
0.0
  0
VERTEX
  5
2BD
330
284
100
AcDbEntity
  8
化粧台
  6
EXLTYPE2
 62
     6
100
AcDbVertex
100
AcDb2dVertex
 10
2214.774650000003
 20
1666.404714
 30
0.0
  0
VERTEX
  5
2BE
330
284
100
AcDbEntity
  8
化粧台
  6
EXLTYPE2
 62
     6
100
AcDbVertex
100
AcDb2dVertex
 10
2214.437590000003
 20
1666.296233999999
 30
0.0
  0
VERTEX
  5
2BF
330
284
100
AcDbEntity
  8
化粧台
  6
EXLTYPE2
 62
     6
100
AcDbVertex
100
AcDb2dVertex
 10
2214.102772000004
 20
1666.157426
 30
0.0
  0
VERTEX
  5
2C0
330
284
100
AcDbEntity
  8
化粧台
  6
EXLTYPE2
 62
     6
100
AcDbVertex
100
AcDb2dVertex
 10
2213.773040000002
 20
1665.980164000001
 30
0.0
  0
VERTEX
  5
2C1
330
284
100
AcDbEntity
  8
化粧台
  6
EXLTYPE2
 62
     6
100
AcDbVertex
100
AcDb2dVertex
 10
2213.451226000003
 20
1665.756327999999
 30
0.0
  0
VERTEX
  5
2C2
330
284
100
AcDbEntity
  8
化粧台
  6
EXLTYPE2
 62
     6
100
AcDbVertex
100
AcDb2dVertex
 10
2213.217276000003
 20
1665.55148
 30
0.0
  0
VERTEX
  5
2C3
330
284
100
AcDbEntity
  8
化粧台
  6
EXLTYPE2
 62
     6
100
AcDbVertex
100
AcDb2dVertex
 10
2212.993366000002
 20
1665.306463999999
 30
0.0
  0
VERTEX
  5
2C4
330
284
100
AcDbEntity
  8
化粧台
  6
EXLTYPE2
 62
     6
100
AcDbVertex
100
AcDb2dVertex
 10
2212.850804000003
 20
1665.11498
 30
0.0
  0
VERTEX
  5
2C5
330
284
100
AcDbEntity
  8
化粧台
  6
EXLTYPE2
 62
     6
100
AcDbVertex
100
AcDb2dVertex
 10
2212.717342000004
 20
1664.898021999999
 30
0.0
  0
VERTEX
  5
2C6
330
284
100
AcDbEntity
  8
化粧台
  6
EXLTYPE2
 62
     6
100
AcDbVertex
100
AcDb2dVertex
 10
2212.597202000003
 20
1664.653742
 30
0.0
  0
VERTEX
  5
2C7
330
284
100
AcDbEntity
  8
化粧台
  6
EXLTYPE2
 62
     6
100
AcDbVertex
100
AcDb2dVertex
 10
2212.505620000004
 20
1664.412915999999
 30
0.0
  0
VERTEX
  5
2C8
330
284
100
AcDbEntity
  8
化粧台
  6
EXLTYPE2
 62
     6
100
AcDbVertex
100
AcDb2dVertex
 10
2212.432268000002
 20
1664.148714000001
 30
0.0
  0
VERTEX
  5
2C9
330
284
100
AcDbEntity
  8
化粧台
  6
EXLTYPE2
 62
     6
100
AcDbVertex
100
AcDb2dVertex
 10
2212.387150000002
 20
1663.899579999999
 30
0.0
  0
VERTEX
  5
2CA
330
284
100
AcDbEntity
  8
化粧台
  6
EXLTYPE2
 62
     6
100
AcDbVertex
100
AcDb2dVertex
 10
2212.363088000004
 20
1663.639234
 30
0.0
  0
VERTEX
  5
2CB
330
284
100
AcDbEntity
  8
化粧台
  6
EXLTYPE2
 62
     6
100
AcDbVertex
100
AcDb2dVertex
 10
2212.359798000003
 20
1663.500204
 30
0.0
  0
SEQEND
  5
2CC
330
284
100
AcDbEntity
  8
化粧台
  6
EXLTYPE2
 62
     6
  0
LINE
  5
2CD
330
1F
100
AcDbEntity
  8
化粧台
  6
EXLTYPE2
 62
     6
100
AcDbLine
 10
2211.322576000002
 20
1667.33333333333
 30
0.0
 11
2211.322576000002
 21
1674.33333333333
 31
0.0
  0
LINE
  5
2CE
330
1F
100
AcDbEntity
  8
化粧台
  6
EXLTYPE2
 62
     6
100
AcDbLine
 10
2210.064512000003
 20
1667.33333333333
 30
0.0
 11
2210.064512000003
 21
1674.33333333333
 31
0.0
  0
LINE
  5
2CF
330
1F
100
AcDbEntity
  8
化粧台
  6
EXLTYPE2
 62
     6
100
AcDbLine
 10
2189.935480000002
 20
1667.33333333333
 30
0.0
 11
2189.935480000002
 21
1674.33333333333
 31
0.0
  0
LINE
  5
2D0
330
1F
100
AcDbEntity
  8
化粧台
  6
EXLTYPE2
 62
     6
100
AcDbLine
 10
2188.677416000002
 20
1667.33333333333
 30
0.0
 11
2188.677416000002
 21
1674.33333333333
 31
0.0
  0
LINE
  5
2D1
330
1F
100
AcDbEntity
  8
化粧台
  6
EXLTYPE2
 62
     6
100
AcDbLine
 10
2172.500000000002
 20
1676.83333333333
 30
0.0
 11
2227.500000000002
 21
1676.83333333333
 31
0.0
  0
LINE
  5
2D2
330
1F
100
AcDbEntity
  8
化粧台
  6
EXLTYPE2
 62
     6
100
AcDbLine
 10
2172.500000000002
 20
1678.33333333333
 30
0.0
 11
2227.500000000002
 21
1678.33333333333
 31
0.0
  0
LINE
  5
2D3
330
1F
100
AcDbEntity
  8
化粧台
  6
EXLTYPE2
 62
     6
100
AcDbLine
 10
2220.967736000002
 20
1667.33333333333
 30
0.0
 11
2220.967736000002
 21
1674.33333333333
 31
0.0
  0
LINE
  5
2D4
330
1F
100
AcDbEntity
  8
化粧台
  6
EXLTYPE2
 62
     6
100
AcDbLine
 10
2179.032256000002
 20
1667.33333333333
 30
0.0
 11
2220.967736000002
 21
1667.33333333333
 31
0.0
  0
LINE
  5
2D5
330
1F
100
AcDbEntity
  8
化粧台
  6
EXLTYPE2
 62
     6
100
AcDbLine
 10
2179.032256000002
 20
1667.33333333333
 30
0.0
 11
2179.032256000002
 21
1674.33333333333
 31
0.0
  0
LINE
  5
2D6
330
1F
100
AcDbEntity
  8
化粧台
  6
EXLTYPE2
 62
     6
100
AcDbLine
 10
2174.000000000002
 20
1674.33333333333
 30
0.0
 11
2226.000000000002
 21
1674.33333333333
 31
0.0
  0
LINE
  5
2D7
330
1F
100
AcDbEntity
  8
化粧台
  6
EXLTYPE2
 62
     6
100
AcDbLine
 10
2174.000000000002
 20
1674.33333333333
 30
0.0
 11
2174.000000000002
 21
1675.83333333333
 31
0.0
  0
LINE
  5
2D8
330
1F
100
AcDbEntity
  8
化粧台
  6
EXLTYPE2
 62
     6
100
AcDbLine
 10
2226.000000000002
 20
1674.33333333333
 30
0.0
 11
2226.000000000002
 21
1675.83333333333
 31
0.0
  0
LINE
  5
2D9
330
1F
100
AcDbEntity
  8
化粧台
  6
EXLTYPE2
 62
     6
100
AcDbLine
 10
2220.000000000002
 20
1660.0
 30
0.0
 11
2180.000000000002
 21
1660.0
 31
0.0
  0
LINE
  5
2DA
330
1F
100
AcDbEntity
  8
化粧台
  6
EXLTYPE2
 62
     6
100
AcDbLine
 10
2255.500000000002
 20
1651.0
 30
0.0
 11
2250.500000000002
 21
1651.0
 31
0.0
  0
LINE
  5
2DB
330
1F
100
AcDbEntity
  8
化粧台
  6
EXLTYPE2
 62
     6
100
AcDbLine
 10
2182.500000000002
 20
1667.33333333333
 30
0.0
 11
2182.500000000002
 21
1667.0
 31
0.0
  0
LINE
  5
2DC
330
1F
100
AcDbEntity
  8
化粧台
  6
EXLTYPE2
 62
     6
100
AcDbLine
 10
2217.500000000002
 20
1667.33333333333
 30
0.0
 11
2217.500000000002
 21
1667.0
 31
0.0
  0
LINE
  5
2DD
330
1F
100
AcDbEntity
  8
化粧台
  6
EXLTYPE2
 62
     6
100
AcDbLine
 10
2227.500000000004
 20
1678.33333333333
 30
0.0
 11
2227.500000000004
 21
1675.83333333333
 31
0.0
  0
LINE
  5
2DE
330
1F
100
AcDbEntity
  8
化粧台
  6
EXLTYPE2
 62
     6
100
AcDbLine
 10
2172.500000000004
 20
1678.33333333333
 30
0.0
 11
2172.500000000004
 21
1675.83333333333
 31
0.0
  0
LINE
  5
2DF
330
1F
100
AcDbEntity
  8
化粧台
  6
EXLTYPE2
 62
     6
100
AcDbLine
 10
2174.000000000002
 20
1675.83333333333
 30
0.0
 11
2226.000000000002
 21
1675.83333333333
 31
0.0
  0
LINE
  5
2E0
330
1F
100
AcDbEntity
  8
化粧台
  6
EXLTYPE2
 62
     6
100
AcDbLine
 10
2172.500000000002
 20
1676.83333333333
 30
0.0
 11
2227.500000000002
 21
1676.83333333333
 31
0.0
  0
LINE
  5
2E1
330
1F
100
AcDbEntity
  8
化粧台
  6
EXLTYPE2
 62
     6
100
AcDbLine
 10
2172.500000000002
 20
1675.83333333333
 30
0.0
 11
2227.500000000002
 21
1675.83333333333
 31
0.0
  0
LINE
  5
2E2
330
1F
100
AcDbEntity
  8
化粧台
  6
EXLTYPE2
 62
     6
100
AcDbLine
 10
2218.000000000002
 20
1667.0
 30
0.0
 11
2182.000000000002
 21
1667.0
 31
0.0
  0
ARC
  5
2E3
330
1F
100
AcDbEntity
  8
化粧台
  6
EXLTYPE2
 62
     6
100
AcDbCircle
 10
2218.000000000002
 20
1663.5
 30
0.0
 40
3.500000000000002
100
AcDbArc
 50
270.0000000000002
 51
90.00000000000004
  0
ARC
  5
2E4
330
1F
100
AcDbEntity
  8
化粧台
  6
EXLTYPE2
 62
     6
100
AcDbCircle
 10
2182.000000000002
 20
1663.5
 30
0.0
 40
3.500000000000002
100
AcDbArc
 50
90.00000000000004
 51
270.0000000000002
  0
LINE
  5
2E5
330
1F
100
AcDbEntity
  8
化粧台
  6
EXLTYPE2
 62
     6
100
AcDbLine
 10
2180.000000000002
 20
1660.0
 30
0.0
 11
2180.000000000002
 21
1622.5
 31
0.0
  0
ARC
  5
2E6
330
1F
100
AcDbEntity
  8
化粧台
  6
EXLTYPE2
 62
     6
100
AcDbCircle
 10
2223.000000000002
 20
1652.678400000001
 30
0.0
 40
3.000000000000003
100
AcDbArc
 50
180.0
 51
263.5169260000002
  0
LINE
  5
2E7
330
1F
100
AcDbEntity
  8
化粧台
  6
EXLTYPE2
 62
     6
100
AcDbLine
 10
2222.661264000004
 20
1649.697584
 30
0.0
 11
2242.000000000002
 21
1647.5
 31
0.0
  0
LINE
  5
2E8
330
1F
100
AcDbEntity
  8
化粧台
  6
EXLTYPE2
 62
     6
100
AcDbLine
 10
2220.000000000002
 20
1660.0
 30
0.0
 11
2220.000000000002
 21
1652.678400000001
 31
0.0
  0
LINE
  5
2E9
330
1F
100
AcDbEntity
  8
化粧台
  6
EXLTYPE2
 62
     6
100
AcDbLine
 10
2242.000000000002
 20
1650.0
 30
0.0
 11
2242.000000000002
 21
1629.0
 31
0.0
  0
LINE
  5
2EA
330
1F
100
AcDbEntity
  8
化粧台
  6
EXLTYPE2
 62
     6
100
AcDbLine
 10
2262.000000000002
 20
1651.5
 30
0.0
 11
2255.500000000002
 21
1651.5
 31
0.0
  0
LINE
  5
2EB
330
1F
100
AcDbEntity
  8
化粧台
  6
EXLTYPE2
 62
     6
100
AcDbLine
 10
2250.500000000002
 20
1651.0
 30
0.0
 11
2250.500000000002
 21
1628.0
 31
0.0
  0
LINE
  5
2EC
330
1F
100
AcDbEntity
  8
化粧台
  6
EXLTYPE2
 62
     6
100
AcDbLine
 10
2250.500000000002
 20
1650.0
 30
0.0
 11
2242.000000000002
 21
1650.0
 31
0.0
  0
LINE
  5
2ED
330
1F
100
AcDbEntity
  8
化粧台
  6
EXLTYPE2
 62
     6
100
AcDbLine
 10
2255.500000000002
 20
1651.5
 30
0.0
 11
2255.500000000002
 21
1627.5
 31
0.0
  0
LINE
  5
2EE
330
1F
100
AcDbEntity
  8
化粧台
  6
EXLTYPE2
 62
     6
100
AcDbLine
 10
2164.336477008476
 20
1682.5
 30
0.0
 11
2178.500000000001
 21
1682.5
 31
0.0
  0
ARC
  5
2EF
330
1F
100
AcDbEntity
  8
化粧台
  6
EXLTYPE2
 62
     6
100
AcDbCircle
 10
2228.709237755405
 20
1719.706325208987
 30
0.0
 40
35.0
100
AcDbArc
 50
289.8838940558181
 51
338.8864999216353
  0
ARC
  5
2F0
330
1F
100
AcDbEntity
  8
化粧台
  6
EXLTYPE2
 62
     6
100
AcDbCircle
 10
2235.663522991525
 20
1687.5
 30
0.0
 40
5.0
100
AcDbArc
 50
270.0000000000002
 51
351.8698976458426
  0
ARC
  5
2F1
330
1F
100
AcDbEntity
  8
化粧台
  6
EXLTYPE2
 62
     6
100
AcDbCircle
 10
2164.336477008476
 20
1687.5
 30
0.0
 40
5.0
100
AcDbArc
 50
188.1301023541575
 51
270.0000000000002
  0
LINE
  5
2F2
330
1F
100
AcDbEntity
  8
化粧台
  6
EXLTYPE2
 62
     6
100
AcDbLine
 10
2341.743689760486
 20
1717.5
 30
0.0
 11
2317.325036024315
 21
1543.752250544016
 31
0.0
  0
LINE
  5
2F3
330
1F
100
AcDbEntity
  8
化粧台
  6
EXLTYPE2
 62
     6
100
AcDbLine
 10
2317.325036024318
 20
1543.752250544014
 30
0.0
 11
2323.266644436769
 21
1542.917211938255
 31
0.0
  0
LINE
  5
2F4
330
1F
100
AcDbEntity
  8
化粧台
  6
EXLTYPE2
 62
     6
100
AcDbLine
 10
2323.266644436769
 20
1542.917211938255
 30
0.0
 11
2343.500000000002
 21
1686.885017495337
 31
0.0
  0
LINE
  5
2F5
330
1F
100
AcDbEntity
  8
化粧台
  6
EXLTYPE2
 62
     6
100
AcDbLine
 10
2255.500000000002
 20
1628.0
 30
0.0
 11
2250.500000000002
 21
1628.0
 31
0.0
  0
LINE
  5
2F6
330
1F
100
AcDbEntity
  8
化粧台
  6
EXLTYPE2
 62
     6
100
AcDbLine
 10
2184.000000000002
 20
1620.5
 30
0.0
 11
2180.000000000002
 21
1622.5
 31
0.0
  0
LINE
  5
2F7
330
1F
100
AcDbEntity
  8
化粧台
  6
EXLTYPE2
 62
     6
100
AcDbLine
 10
2216.000000000002
 20
1620.5
 30
0.0
 11
2220.000000000002
 21
1622.5
 31
0.0
  0
LINE
  5
2F8
330
1F
100
AcDbEntity
  8
化粧台
  6
EXLTYPE2
 62
     6
100
AcDbLine
 10
2216.000000000002
 20
1620.5
 30
0.0
 11
2184.000000000002
 21
1620.5
 31
0.0
  0
LINE
  5
2F9
330
1F
100
AcDbEntity
  8
化粧台
  6
EXLTYPE2
 62
     6
100
AcDbLine
 10
2220.000000000002
 20
1622.5
 30
0.0
 11
2180.000000000002
 21
1622.5
 31
0.0
  0
LINE
  5
2FA
330
1F
100
AcDbEntity
  8
化粧台
  6
EXLTYPE2
 62
     6
100
AcDbLine
 10
2220.000000000002
 20
1626.321608
 30
0.0
 11
2220.000000000002
 21
1622.5
 31
0.0
  0
ARC
  5
2FB
330
1F
100
AcDbEntity
  8
化粧台
  6
EXLTYPE2
 62
     6
100
AcDbCircle
 10
2223.000000000002
 20
1626.321608
 30
0.0
 40
3.000000000000003
100
AcDbArc
 50
96.48307400000006
 51
180.0
  0
LINE
  5
2FC
330
1F
100
AcDbEntity
  8
化粧台
  6
EXLTYPE2
 62
     6
100
AcDbLine
 10
2222.661264000004
 20
1629.302424
 30
0.0
 11
2242.000000000002
 21
1631.5
 31
0.0
  0
LINE
  5
2FD
330
1F
100
AcDbEntity
  8
化粧台
  6
EXLTYPE2
 62
     6
100
AcDbLine
 10
2262.000000000002
 20
1627.5
 30
0.0
 11
2255.500000000002
 21
1627.5
 31
0.0
  0
LINE
  5
2FE
330
1F
100
AcDbEntity
  8
化粧台
  6
EXLTYPE2
 62
     6
100
AcDbLine
 10
2250.500000000002
 20
1629.0
 30
0.0
 11
2242.000000000002
 21
1629.0
 31
0.0
  0
LINE
  5
2FF
330
1F
100
AcDbEntity
  8
化粧台
  6
EXLTYPE2
 62
     6
100
AcDbLine
 10
2184.125000000002
 20
1620.5
 30
0.0
 11
2184.125000000002
 21
1496.49999999995
 31
0.0
  0
LINE
  5
300
330
1F
100
AcDbEntity
  8
化粧台
  6
EXLTYPE2
 62
     6
100
AcDbLine
 10
2215.875000000002
 20
1620.5
 30
0.0
 11
2215.875000000002
 21
1496.49999999995
 31
0.0
  0
LINE
  5
301
330
1F
100
AcDbEntity
  8
化粧台
  6
EXLTYPE2
 62
     6
100
AcDbLine
 10
2271.000000000002
 20
1650.5
 30
0.0
 11
2262.000000000002
 21
1650.5
 31
0.0
  0
LINE
  5
302
330
1F
100
AcDbEntity
  8
化粧台
  6
EXLTYPE2
 62
     6
100
AcDbLine
 10
2262.000000000002
 20
1651.5
 30
0.0
 11
2262.000000000002
 21
1627.5
 31
0.0
  0
LINE
  5
303
330
1F
100
AcDbEntity
  8
化粧台
  6
EXLTYPE2
 62
     6
100
AcDbLine
 10
2395.000000000003
 20
1642.5
 30
0.0
 11
2395.000000000003
 21
1636.5
 31
0.0
  0
LINE
  5
304
330
1F
100
AcDbEntity
  8
化粧台
  6
EXLTYPE2
 62
     6
100
AcDbLine
 10
2395.000000000003
 20
1636.5
 30
0.0
 11
2274.000000000002
 21
1636.5
 31
0.0
  0
LINE
  5
305
330
1F
100
AcDbEntity
  8
化粧台
  6
EXLTYPE2
 62
     6
100
AcDbLine
 10
2395.000000000003
 20
1642.5
 30
0.0
 11
2274.000000000002
 21
1642.5
 31
0.0
  0
ARC
  5
306
330
1F
100
AcDbEntity
  8
化粧台
  6
EXLTYPE2
 62
     6
100
AcDbCircle
 10
2271.000000000002
 20
1647.5
 30
0.0
 40
3.000000000000003
100
AcDbArc
 50
0.0
 51
90.00000000000004
  0
LINE
  5
307
330
1F
100
AcDbEntity
  8
化粧台
  6
EXLTYPE2
 62
     6
100
AcDbLine
 10
2274.000000000002
 20
1647.5
 30
0.0
 11
2274.000000000002
 21
1631.5
 31
0.0
  0
LINE
  5
308
330
1F
100
AcDbEntity
  8
化粧台
  6
EXLTYPE2
 62
     6
100
AcDbLine
 10
2271.000000000002
 20
1628.5
 30
0.0
 11
2262.000000000002
 21
1628.5
 31
0.0
  0
ARC
  5
309
330
1F
100
AcDbEntity
  8
化粧台
  6
EXLTYPE2
 62
     6
100
AcDbCircle
 10
2271.000000000002
 20
1631.5
 30
0.0
 40
3.000000000000003
100
AcDbArc
 50
270.0000000000002
 51
0.0
  0
ELLIPSE
  5
30A
330
1F
100
AcDbEntity
  8
化粧台
  6
EXLTYPE2
 62
     6
100
AcDbEllipse
 10
2359.978226350162
 20
1441.199999999999
 30
0.0
 11
3.118494002032691E-16
 21
5.09288719687
 31
0.0
210
0.0
220
0.0
230
1.0
 40
0.544244068775661
 41
0.0
 42
6.283185307179586
  0
ELLIPSE
  5
30B
330
1F
100
AcDbEntity
  8
化粧台
  6
EXLTYPE2
 62
     6
100
AcDbEllipse
 10
2350.0
 20
1441.199999999999
 30
0.0
 11
5.50567888639
 21
0.0
 31
0.0
210
0.0
220
0.0
230
1.0
 40
0.9250243797290071
 41
0.0
 42
6.283185307179586
  0
ELLIPSE
  5
30C
330
1F
100
AcDbEntity
  8
化粧台
  6
EXLTYPE2
 62
     6
100
AcDbEllipse
 10
2340.021773649842
 20
1441.199999999999
 30
0.0
 11
-9.355482006098073E-16
 21
-5.09288719687
 31
0.0
210
0.0
220
0.0
230
1.0
 40
0.544244068775661
 41
0.0
 42
6.283185307179586
  0
LINE
  5
30D
330
1F
100
AcDbEntity
  8
化粧台
  6
EXLTYPE2
 62
     6
100
AcDbLine
 10
2360.96954445729
 20
1447.199999999999
 30
0.0
 11
2339.03045554271
 21
1447.199999999999
 31
0.0
  0
ARC
  5
30E
330
1F
100
AcDbEntity
  8
化粧台
  6
EXLTYPE2
 62
     6
100
AcDbCircle
 10
2351.75
 20
1441.199999999999
 30
0.0
 40
11.0
100
AcDbArc
 50
326.9442688491002
 51
33.05573115089992
  0
LINE
  5
30F
330
1F
100
AcDbEntity
  8
化粧台
  6
EXLTYPE2
 62
     6
100
AcDbLine
 10
2360.96954445729
 20
1435.199999999999
 30
0.0
 11
2339.03045554271
 21
1435.199999999999
 31
0.0
  0
ARC
  5
310
330
1F
100
AcDbEntity
  8
化粧台
  6
EXLTYPE2
 62
     6
100
AcDbCircle
 10
2348.25
 20
1441.199999999999
 30
0.0
 40
11.0
100
AcDbArc
 50
146.9442688491499
 51
213.0557311508992
  0
LINE
  5
311
330
1F
100
AcDbEntity
  8
化粧台
  6
EXLTYPE2
 62
     6
100
AcDbLine
 10
2343.499999999999
 20
1717.5
 30
0.0
 11
2343.499999999999
 21
1447.199999999999
 31
0.0
  0
LINE
  5
312
330
1F
100
AcDbEntity
  8
化粧台
  6
EXLTYPE2
 62
     6
100
AcDbLine
 10
2356.5
 20
1717.5
 30
0.0
 11
2356.5
 21
1447.199999999999
 31
0.0
  0
LINE
  5
313
330
1F
100
AcDbEntity
  8
化粧台
  6
EXLTYPE2
 62
     6
100
AcDbLine
 10
2416.400000000001
 20
1667.4999999994
 30
0.0
 11
2416.400000000001
 21
1267.4999999994
 31
0.0
  0
LINE
  5
314
330
1F
100
AcDbEntity
  8
化粧台
  6
EXLTYPE2
 62
     6
100
AcDbLine
 10
2416.400000000001
 20
1267.4999999994
 30
0.0
 11
2435.000000000001
 21
1267.4999999994
 31
0.0
  0
LINE
  5
315
330
1F
100
AcDbEntity
  8
化粧台
  6
EXLTYPE2
 62
     6
100
AcDbLine
 10
1985.0
 20
1667.4999999994
 30
0.0
 11
2435.000000000001
 21
1667.4999999994
 31
0.0
  0
LINE
  5
316
330
1F
100
AcDbEntity
  8
化粧台
  6
CONTINUOUS
 62
     6
100
AcDbLine
 10
2365.500000000001
 20
1009.5
 30
0.0
 11
2344.500000000001
 21
1009.5
 31
0.0
  0
LINE
  5
317
330
1F
100
AcDbEntity
  8
化粧台
  6
CONTINUOUS
 62
     6
100
AcDbLine
 10
2289.000000000001
 20
987.5
 30
0.0
 11
2321.000000000002
 21
987.5
 31
0.0
  0
LINE
  5
318
330
1F
100
AcDbEntity
  8
化粧台
  6
EXLTYPE4
 62
     6
100
AcDbLine
 10
2321.000000000002
 20
1217.5
 30
0.0
 11
2321.000000000002
 21
987.5
 31
0.0
  0
LINE
  5
319
330
1F
100
AcDbEntity
  8
化粧台
  6
EXLTYPE4
 62
     6
100
AcDbLine
 10
2289.000000000001
 20
1217.5
 30
0.0
 11
2289.000000000001
 21
987.5
 31
0.0
  0
LINE
  5
31A
330
1F
100
AcDbEntity
  8
化粧台
  6
EXLTYPE3
 62
     6
100
AcDbLine
 10
2305.000000000001
 20
1227.5
 30
0.0
 11
2305.000000000001
 21
977.5
 31
0.0
  0
LINE
  5
31B
330
1F
100
AcDbEntity
  8
化粧台
  6
EXLTYPE3
 62
     6
100
AcDbLine
 10
2355.000000000001
 20
1227.5
 30
0.0
 11
2355.000000000001
 21
999.5
 31
0.0
  0
LINE
  5
31C
330
1F
100
AcDbEntity
  8
化粧台
  6
EXLTYPE4
 62
     6
100
AcDbLine
 10
2344.500000000001
 20
1217.5
 30
0.0
 11
2344.500000000001
 21
1009.5
 31
0.0
  0
LINE
  5
31D
330
1F
100
AcDbEntity
  8
化粧台
  6
EXLTYPE4
 62
     6
100
AcDbLine
 10
2365.500000000001
 20
1217.5
 30
0.0
 11
2365.500000000001
 21
1009.5
 31
0.0
  0
LINE
  5
31E
330
1F
100
AcDbEntity
  8
化粧台
  6
CONTINUOUS
 62
     6
100
AcDbLine
 10
2465.0
 20
1506.500000000001
 30
0.0
 11
2465.0
 21
1538.5
 31
0.0
  0
LINE
  5
31F
330
1F
100
AcDbEntity
  8
化粧台
  6
EXLTYPE4
 62
     6
100
AcDbLine
 10
2314.0
 20
1538.500000000001
 30
0.0
 11
2464.999999999999
 21
1538.5
 31
0.0
  0
LINE
  5
320
330
1F
100
AcDbEntity
  8
化粧台
  6
EXLTYPE4
 62
     6
100
AcDbLine
 10
2314.0
 20
1506.500000000002
 30
0.0
 11
2464.999999999999
 21
1506.500000000002
 31
0.0
  0
LINE
  5
321
330
1F
100
AcDbEntity
  8
化粧台
  6
EXLTYPE3
 62
     6
100
AcDbLine
 10
2304.0
 20
1522.5
 30
0.0
 11
2474.999999999999
 21
1522.5
 31
0.0
  0
LINE
  5
322
330
1F
100
AcDbEntity
  8
化粧台
  6
EXLTYPE2
 62
     6
100
AcDbLine
 10
2177.999999999999
 20
1496.49999999995
 30
0.0
 11
2221.999999999999
 21
1496.49999999995
 31
0.0
  0
LINE
  5
323
330
1F
100
AcDbEntity
  8
化粧台
  6
EXLTYPE2
 62
     6
100
AcDbLine
 10
2183.999999999999
 20
1434.524886499969
 30
0.0
 11
2183.999999999999
 21
1398.499999999951
 31
0.0
  0
LINE
  5
324
330
1F
100
AcDbEntity
  8
化粧台
  6
EXLTYPE2
 62
     6
100
AcDbLine
 10
2215.999999999999
 20
1434.524886499889
 30
0.0
 11
2215.999999999999
 21
1398.499999999949
 31
0.0
  0
ARC
  5
325
330
1F
100
AcDbEntity
  8
化粧台
  6
EXLTYPE2
 62
     6
100
AcDbCircle
 10
2237.999999999999
 20
1398.49999999995
 30
0.0
 40
21.99999999999954
100
AcDbArc
 50
179.9999999999995
 51
0.0
  0
ARC
  5
326
330
1F
100
AcDbEntity
  8
化粧台
  6
EXLTYPE2
 62
     6
100
AcDbCircle
 10
2237.999999999999
 20
1398.49999999995
 30
0.0
 40
54.00000000000048
100
AcDbArc
 50
179.9999999999998
 51
0.0
  0
LINE
  5
327
330
1F
100
AcDbEntity
  8
化粧台
  6
EXLTYPE2
 62
     6
100
AcDbLine
 10
2183.999999999999
 20
1434.899886499969
 30
0.0
 11
2215.999999999999
 21
1434.899886499969
 31
0.0
  0
LINE
  5
328
330
1F
100
AcDbEntity
  8
化粧台
  6
EXLTYPE2
 62
     6
100
AcDbLine
 10
2183.250000000011
 20
1435.274886499962
 30
0.0
 11
2183.999999999999
 21
1434.524886499973
 31
0.0
  0
LINE
  5
329
330
1F
100
AcDbEntity
  8
化粧台
  6
EXLTYPE2
 62
     6
100
AcDbLine
 10
2216.750000000029
 20
1435.27488649992
 30
0.0
 11
2215.999999999999
 21
1434.524886499889
 31
0.0
  0
LINE
  5
32A
330
1F
100
AcDbEntity
  8
化粧台
  6
EXLTYPE2
 62
     6
100
AcDbLine
 10
2216.749999999997
 20
1484.49999999995
 30
0.0
 11
2216.749999999997
 21
1435.274886499951
 31
0.0
  0
LINE
  5
32B
330
1F
100
AcDbEntity
  8
化粧台
  6
EXLTYPE2
 62
     6
100
AcDbLine
 10
2183.25
 20
1484.49999999995
 30
0.0
 11
2183.25
 21
1435.274886499951
 31
0.0
  0
ELLIPSE
  5
32C
330
1F
100
AcDbEntity
  8
化粧台
  6
EXLTYPE2
 62
     6
100
AcDbEllipse
 10
2181.356568035279
 20
1490.49999999995
 30
0.0
 11
3.673969509765480E-16
 21
6.00004754403219
 31
0.0
210
0.0
220
0.0
230
1.0
 40
0.8927542650237517
 41
0.0
 42
6.283185307179586
  0
ELLIPSE
  5
32D
330
1F
100
AcDbEntity
  8
化粧台
  6
EXLTYPE2
 62
     6
100
AcDbEllipse
 10
2199.999999999999
 20
1490.49999999995
 30
0.0
 11
10.66536450385001
 21
0.0
 31
0.0
210
0.0
220
0.0
230
1.0
 40
0.5625686771262349
 41
0.0
 42
6.283185307179586
  0
ELLIPSE
  5
32E
330
1F
100
AcDbEntity
  8
化粧台
  6
EXLTYPE2
 62
     6
100
AcDbEllipse
 10
2218.643431964719
 20
1490.49999999995
 30
0.0
 11
3.673969509765456E-16
 21
6.000047544032152
 31
0.0
210
0.0
220
0.0
230
1.0
 40
0.8927542650237573
 41
0.0
 42
6.283185307179586
  0
LINE
  5
32F
330
1F
100
AcDbEntity
  8
化粧台
  6
EXLTYPE2
 62
     6
100
AcDbLine
 10
2177.999999999999
 20
1484.49999999995
 30
0.0
 11
2221.999999999999
 21
1484.49999999995
 31
0.0
  0
ARC
  5
330
330
1F
100
AcDbEntity
  8
化粧台
  6
EXLTYPE2
 62
     6
100
AcDbCircle
 10
2213.999999999999
 20
1490.49999999995
 30
0.0
 40
10.0
100
AcDbArc
 50
323.1301023541562
 51
36.869897645844
  0
ARC
  5
331
330
1F
100
AcDbEntity
  8
化粧台
  6
EXLTYPE2
 62
     6
100
AcDbCircle
 10
2185.999999999999
 20
1490.49999999995
 30
0.0
 40
10.0
100
AcDbArc
 50
143.1301023541561
 51
216.8698976458443
  0
ARC
  5
332
330
1F
100
AcDbEntity
  8
化粧台
  6
EXLTYPE2
 62
     6
100
AcDbCircle
 10
2314.0
 20
1414.499999999948
 30
0.0
 40
54.00000000000068
100
AcDbArc
 50
90.00000000000004
 51
181.0610936076217
  0
ARC
  5
333
330
1F
100
AcDbEntity
  8
化粧台
  6
EXLTYPE2
 62
     6
100
AcDbCircle
 10
2314.000000000002
 20
1414.499999999949
 30
0.0
 40
22.00000000000069
100
AcDbArc
 50
90.00000000000004
 51
182.6052512650556
  0
LINE
  5
334
330
1F
100
AcDbEntity
  8
化粧台
  6
EXLTYPE2
 62
     6
100
AcDbLine
 10
2376.400000000002
 20
1474.497008
 30
0.0
 11
2376.400000000002
 21
1430.502992000001
 31
0.0
  0
ARC
  5
335
330
1F
100
AcDbEntity
  8
化粧台
  6
EXLTYPE2
 62
     6
100
AcDbCircle
 10
2387.402990000001
 20
1474.497008
 30
0.0
 40
11.002992
100
AcDbArc
 50
90.00000000000009
 51
180.0000000000002
  0
ARC
  5
336
330
1F
100
AcDbEntity
  8
化粧台
  6
EXLTYPE2
 62
     6
100
AcDbCircle
 10
2387.402990000001
 20
1430.502992000001
 30
0.0
 40
11.002992
100
AcDbArc
 50
180.0000000000002
 51
270.0000000000002
  0
LINE
  5
337
330
1F
100
AcDbEntity
  8
化粧台
  6
EXLTYPE2
 62
     6
100
AcDbLine
 10
2416.400000000002
 20
1485.500000000001
 30
0.0
 11
2416.400000000002
 21
1419.500000000001
 31
0.0
  0
LINE
  5
338
330
1F
100
AcDbEntity
  8
化粧台
  6
EXLTYPE2
 62
     6
100
AcDbLine
 10
2387.402990000001
 20
1485.500000000001
 30
0.0
 11
2416.400000000002
 21
1485.500000000001
 31
0.0
  0
LINE
  5
339
330
1F
100
AcDbEntity
  8
化粧台
  6
EXLTYPE2
 62
     6
100
AcDbLine
 10
2387.402990000001
 20
1419.500000000001
 30
0.0
 11
2416.400000000002
 21
1419.500000000001
 31
0.0
  0
ARC
  5
33A
330
1F
100
AcDbEntity
  8
化粧台
  6
EXLTYPE2
 62
     6
100
AcDbCircle
 10
2424.000000000001
 20
1438.5
 30
0.0
 40
10.0
100
AcDbArc
 50
233.1301023541561
 51
306.8698976458444
  0
ARC
  5
33B
330
1F
100
AcDbEntity
  8
化粧台
  6
EXLTYPE2
 62
     6
100
AcDbCircle
 10
2424.000000000001
 20
1466.5
 30
0.0
 40
10.0
100
AcDbArc
 50
53.13010235415626
 51
126.869897645844
  0
ELLIPSE
  5
33C
330
1F
100
AcDbEntity
  8
化粧台
  6
EXLTYPE2
 62
     6
100
AcDbEllipse
 10
2424.000000000001
 20
1471.14343196472
 30
0.0
 11
-6.000047544032152
 21
-4.594318843831003E-15
 31
0.0
210
0.0
220
0.0
230
1.0
 40
0.8927542650237573
 41
0.0
 42
6.283185307179586
  0
ELLIPSE
  5
33D
330
1F
100
AcDbEntity
  8
化粧台
  6
EXLTYPE2
 62
     6
100
AcDbEllipse
 10
2424.000000000001
 20
1452.5
 30
0.0
 11
-6.451494717847500E-15
 21
10.66536450385001
 31
0.0
210
0.0
220
0.0
230
1.0
 40
0.5625686771262349
 41
0.0
 42
6.283185307179586
  0
ELLIPSE
  5
33E
330
1F
100
AcDbEntity
  8
化粧台
  6
EXLTYPE2
 62
     6
100
AcDbEllipse
 10
2424.000000000001
 20
1433.85656803528
 30
0.0
 11
-6.00004754403219
 21
-4.594318843831032E-15
 31
0.0
210
0.0
220
0.0
230
1.0
 40
0.8927542650237517
 41
0.0
 42
6.283185307179586
  0
LINE
  5
33F
330
1F
100
AcDbEntity
  8
化粧台
  6
EXLTYPE2
 62
     6
100
AcDbLine
 10
2418.000000000001
 20
1430.5
 30
0.0
 11
2418.000000000001
 21
1474.5
 31
0.0
  0
LINE
  5
340
330
1F
100
AcDbEntity
  8
化粧台
  6
EXLTYPE2
 62
     6
100
AcDbLine
 10
2430.000000000001
 20
1430.5
 30
0.0
 11
2430.000000000001
 21
1474.5
 31
0.0
  0
LINE
  5
341
330
1F
100
AcDbEntity
  8
化粧台
  6
EXLTYPE2
 62
     6
100
AcDbLine
 10
2435.000000000005
 20
1422.5
 30
0.0
 11
2435.000000000005
 21
1482.5
 31
0.0
  0
LINE
  5
342
330
1F
100
AcDbEntity
  8
化粧台
  6
EXLTYPE2
 62
     6
100
AcDbLine
 10
2433.000000000005
 20
1422.5
 30
0.0
 11
2433.000000000005
 21
1482.5
 31
0.0
  0
LINE
  5
343
330
1F
100
AcDbEntity
  8
化粧台
  6
EXLTYPE2
 62
     6
100
AcDbLine
 10
2433.000000000005
 20
1422.5
 30
0.0
 11
2435.000000000001
 21
1422.5
 31
0.0
  0
LINE
  5
344
330
1F
100
AcDbEntity
  8
化粧台
  6
EXLTYPE2
 62
     6
100
AcDbLine
 10
2433.000000000005
 20
1482.5
 30
0.0
 11
2435.000000000001
 21
1482.5
 31
0.0
  0
LINE
  5
345
330
1F
100
AcDbEntity
  8
化粧台
  6
EXLTYPE2
 62
     6
100
AcDbLine
 10
2430.000000000001
 20
1472.500000000002
 30
0.0
 11
2433.000000000005
 21
1472.500000000002
 31
0.0
  0
LINE
  5
346
330
1F
100
AcDbEntity
  8
化粧台
  6
EXLTYPE2
 62
     6
100
AcDbLine
 10
2430.000000000001
 20
1432.500000000002
 30
0.0
 11
2433.000000000005
 21
1432.500000000002
 31
0.0
  0
LINE
  5
347
330
1F
100
AcDbEntity
  8
化粧台
  6
EXLTYPE2
 62
     6
100
AcDbLine
 10
2470.0
 20
1452.5
 30
0.0
 11
2314.000000000001
 21
1452.5
 31
0.0
  0
LINE
  5
348
330
1F
100
AcDbEntity
  8
化粧台
  6
EXLTYPE2
 62
     6
100
AcDbLine
 10
2314.0
 20
1468.500000000002
 30
0.0
 11
2376.400000000002
 21
1468.500000000002
 31
0.0
  0
LINE
  5
349
330
1F
100
AcDbEntity
  8
化粧台
  6
EXLTYPE2
 62
     6
100
AcDbLine
 10
2314.000000000002
 20
1436.500000000002
 30
0.0
 11
2376.400000000002
 21
1436.500000000002
 31
0.0
  0
ARC
  5
34A
330
1F
100
AcDbEntity
  8
化粧台
  6
EXLTYPE2
 62
     6
100
AcDbCircle
 10
2366.105879972377
 20
1431.5
 30
0.0
 40
6.500000000000004
100
AcDbArc
 50
270.0000000000002
 51
318.8458299263331
  0
ARC
  5
34B
330
1F
100
AcDbEntity
  8
化粧台
  6
EXLTYPE2
 62
     6
100
AcDbCircle
 10
2366.105879972377
 20
1393.5
 30
0.0
 40
6.500000000000004
100
AcDbArc
 50
41.1541700736668
 51
90.00000000000004
  0
LINE
  5
34C
330
1F
100
AcDbEntity
  8
化粧台
  6
EXLTYPE2
 62
     6
100
AcDbLine
 10
2378.0
 20
1424.749999999999
 30
0.0
 11
2376.57254079757
 21
1427.222431864339
 31
0.0
  0
LINE
  5
34D
330
1F
100
AcDbEntity
  8
化粧台
  6
EXLTYPE2
 62
     6
100
AcDbLine
 10
2378.0
 20
1400.25
 30
0.0
 11
2376.57254079757
 21
1397.77756813566
 31
0.0
  0
LINE
  5
34E
330
1F
100
AcDbEntity
  8
化粧台
  6
EXLTYPE2
 62
     6
100
AcDbLine
 10
2378.0
 20
1424.75
 30
0.0
 11
2378.0
 21
1400.25
 31
0.0
  0
LINE
  5
34F
330
1F
100
AcDbEntity
  8
化粧台
  6
EXLTYPE2
 62
     6
100
AcDbLine
 10
2376.572540797571
 20
1427.222431864339
 30
0.0
 11
2371.0
 21
1427.222431864339
 31
0.0
  0
LINE
  5
350
330
1F
100
AcDbEntity
  8
化粧台
  6
EXLTYPE2
 62
     6
100
AcDbLine
 10
2376.572540797571
 20
1397.77756813566
 30
0.0
 11
2371.0
 21
1397.77756813566
 31
0.0
  0
ARC
  5
351
330
1F
100
AcDbEntity
  8
化粧台
  6
EXLTYPE2
 62
     6
100
AcDbCircle
 10
2336.000000000001
 20
1428.5
 30
0.0
 40
3.500000000000002
100
AcDbArc
 50
270.0000000000002
 51
0.0
  0
ARC
  5
352
330
1F
100
AcDbEntity
  8
化粧台
  6
EXLTYPE2
 62
     6
100
AcDbCircle
 10
2364.000000000001
 20
1428.5
 30
0.0
 40
3.500000000000002
100
AcDbArc
 50
180.0
 51
270.0000000000002
  0
LINE
  5
353
330
1F
100
AcDbEntity
  8
化粧台
  6
EXLTYPE2
 62
     6
100
AcDbLine
 10
2364.000000000001
 20
1425.0
 30
0.0
 11
2366.105879972377
 21
1425.0
 31
0.0
  0
LINE
  5
354
330
1F
100
AcDbEntity
  8
化粧台
  6
EXLTYPE2
 62
     6
100
AcDbLine
 10
2322.6
 20
1407.199999999999
 30
0.0
 11
2322.6
 21
1417.799999999999
 31
0.0
  0
LINE
  5
355
330
1F
100
AcDbEntity
  8
化粧台
  6
EXLTYPE2
 62
     6
100
AcDbLine
 10
2335.500000000001
 20
1399.75
 30
0.0
 11
2335.500000000001
 21
1425.25
 31
0.0
  0
ARC
  5
356
330
1F
100
AcDbEntity
  8
化粧台
  6
EXLTYPE2
 62
     6
100
AcDbCircle
 10
2331.725082782361
 20
1403.75
 30
0.0
 40
5.5
100
AcDbArc
 50
217.1876259392006
 51
313.3417582272002
  0
LINE
  5
357
330
1F
100
AcDbEntity
  8
化粧台
  6
EXLTYPE2
 62
     6
100
AcDbLine
 10
2322.6
 20
1407.199999999999
 30
0.0
 11
2327.34345017772
 21
1400.425651083609
 31
0.0
  0
ARC
  5
358
330
1F
100
AcDbEntity
  8
化粧台
  6
EXLTYPE2
 62
     6
100
AcDbCircle
 10
2331.725082782361
 20
1421.25
 30
0.0
 40
5.5
100
AcDbArc
 50
46.65824177279989
 51
142.8123740608007
  0
LINE
  5
359
330
1F
100
AcDbEntity
  8
化粧台
  6
EXLTYPE2
 62
     6
100
AcDbLine
 10
2322.6
 20
1417.799999999999
 30
0.0
 11
2327.34345017772
 21
1424.57434891639
 31
0.0
  0
LINE
  5
35A
330
1F
100
AcDbEntity
  8
化粧台
  6
EXLTYPE2
 62
     6
100
AcDbLine
 10
2327.34345017772
 20
1400.425651083609
 30
0.0
 11
2327.34345017772
 21
1424.574348916489
 31
0.0
  0
ELLIPSE
  5
35B
330
1F
100
AcDbEntity
  8
化粧台
  6
EXLTYPE2
 62
     6
100
AcDbEllipse
 10
2331.725082782361
 20
1401.20491206664
 30
0.0
 11
-3.49106001094
 21
-2.673152616792092E-15
 31
0.0
210
0.0
220
0.0
230
1.0
 40
0.8464225929603442
 41
0.0
 42
6.283185307179586
  0
ELLIPSE
  5
35C
330
1F
100
AcDbEntity
  8
化粧台
  6
EXLTYPE2
 62
     6
100
AcDbEllipse
 10
2331.725082782361
 20
1412.5
 30
0.0
 11
-3.530391779415926E-15
 21
5.83630876496
 31
0.0
210
0.0
220
0.0
230
1.0
 40
0.5981623234020119
 41
0.0
 42
6.283185307179586
  0
ELLIPSE
  5
35D
330
1F
100
AcDbEntity
  8
化粧台
  6
EXLTYPE2
 62
     6
100
AcDbEllipse
 10
2331.725082782361
 20
1423.795087933359
 30
0.0
 11
-3.49106001094
 21
-2.673152616792092E-15
 31
0.0
210
0.0
220
0.0
230
1.0
 40
0.8464225929603442
 41
0.0
 42
6.283185307179586
  0
LINE
  5
35E
330
1F
100
AcDbEntity
  8
化粧台
  6
EXLTYPE2
 62
     6
100
AcDbLine
 10
2335.500000000001
 20
1425.0
 30
0.0
 11
2336.000000000001
 21
1425.0
 31
0.0
  0
LINE
  5
35F
330
1F
100
AcDbEntity
  8
化粧台
  6
EXLTYPE2
 62
     6
100
AcDbLine
 10
2335.500000000001
 20
1400.0
 30
0.0
 11
2366.105879972381
 21
1400.0
 31
0.0
  0
ARC
  5
360
330
1F
100
AcDbEntity
  8
化粧台
  6
EXLTYPE2
 62
     6
100
AcDbCircle
 10
2371.60996418852
 20
1423.541823898255
 30
0.0
 40
3.730808399165569
100
AcDbArc
 50
149.9277603900981
 51
260.590250305647
  0
ARC
  5
361
330
1F
100
AcDbEntity
  8
化粧台
  6
EXLTYPE2
 62
     6
100
AcDbCircle
 10
2378.160901979814
 20
1412.5
 30
0.0
 40
10.26966490030429
100
AcDbArc
 50
134.209728477994
 51
225.790271522007
  0
ARC
  5
362
330
1F
100
AcDbEntity
  8
化粧台
  6
EXLTYPE2
 62
     6
100
AcDbCircle
 10
2371.609964188521
 20
1401.458176101744
 30
0.0
 40
3.730808399165755
100
AcDbArc
 50
99.40974969436748
 51
210.0722396099043
  0
LINE
  5
363
330
1F
100
AcDbEntity
  8
化粧台
  6
EXLTYPE2
 62
     6
100
AcDbLine
 10
2376.572540797571
 20
1405.138784067829
 30
0.0
 11
2371.0
 21
1405.138784067829
 31
0.0
  0
ARC
  5
364
330
1F
100
AcDbEntity
  8
化粧台
  6
EXLTYPE2
 62
     6
100
AcDbCircle
 10
2353.350108933171
 20
1412.5
 30
0.0
 40
24.36121593222906
100
AcDbArc
 50
342.4120462260467
 51
17.58795377395367
  0
LINE
  5
365
330
1F
100
AcDbEntity
  8
化粧台
  6
EXLTYPE2
 62
     6
100
AcDbLine
 10
2376.572540797571
 20
1419.861215932169
 30
0.0
 11
2371.0
 21
1419.861215932169
 31
0.0
  0
LINE
  5
366
330
1F
100
AcDbEntity
  8
化粧台
  6
EXLTYPE2
 62
     6
100
AcDbLine
 10
2339.500000000001
 20
1428.5
 30
0.0
 11
2339.500000000001
 21
1435.199999999999
 31
0.0
  0
LINE
  5
367
330
1F
100
AcDbEntity
  8
化粧台
  6
EXLTYPE2
 62
     6
100
AcDbLine
 10
2360.500000000001
 20
1428.5
 30
0.0
 11
2360.500000000001
 21
1435.199999999999
 31
0.0
  0
LINE
  5
368
330
1F
100
AcDbEntity
  8
化粧台
  6
EXLTYPE2
 62
     6
100
AcDbLine
 10
2317.000000000001
 20
1417.25
 30
0.0
 11
2322.6
 21
1417.25
 31
0.0
  0
LINE
  5
369
330
1F
100
AcDbEntity
  8
化粧台
  6
EXLTYPE2
 62
     6
100
AcDbLine
 10
2317.000000000001
 20
1407.75
 30
0.0
 11
2322.6
 21
1407.75
 31
0.0
  0
LINE
  5
36A
330
1F
100
AcDbEntity
  8
化粧台
  6
EXLTYPE2
 62
     6
100
AcDbLine
 10
2317.000000000001
 20
1417.25
 30
0.0
 11
2317.000000000001
 21
1407.75
 31
0.0
  0
ARC
  5
36B
330
1F
100
AcDbEntity
  8
化粧台
  6
EXLTYPE2
 62
     6
100
AcDbCircle
 10
2371.233492688989
 20
1423.541823898255
 30
0.0
 40
6.484775223996668
100
AcDbArc
 50
325.4185791236709
 51
25.41857912362466
  0
ARC
  5
36C
330
1F
100
AcDbEntity
  8
化粧台
  6
EXLTYPE2
 62
     6
100
AcDbCircle
 10
2371.233492688986
 20
1401.458176101744
 30
0.0
 40
6.48477522399863
100
AcDbArc
 50
334.5814208763676
 51
34.58142087631842
  0
LINE
  5
36D
330
1F
100
AcDbEntity
  8
化粧台
  6
EXLTYPE2
 62
     6
100
AcDbLine
 10
2416.400000000001
 20
1385.0
 30
0.0
 11
2416.400000000001
 21
1440.0
 31
0.0
  0
ARC
  5
36E
330
1F
100
AcDbEntity
  8
化粧台
  6
EXLTYPE2
 62
     6
100
AcDbCircle
 10
2425.672907943694
 20
1422.079477010213
 30
0.0
 40
25.3
100
AcDbArc
 50
156.4191633962913
 51
177.3482222838639
  0
ARC
  5
36F
330
1F
100
AcDbEntity
  8
化粧台
  6
EXLTYPE2
 62
     6
100
AcDbCircle
 10
2414.400000000001
 20
1427.0
 30
0.0
 40
13.00000000000001
100
AcDbArc
 50
90.00000000000004
 51
156.4191633962913
  0
LINE
  5
370
330
1F
100
AcDbEntity
  8
化粧台
  6
EXLTYPE2
 62
     6
100
AcDbLine
 10
2414.400000000001
 20
1440.0
 30
0.0
 11
2416.400000000001
 21
1440.0
 31
0.0
  0
ARC
  5
371
330
1F
100
AcDbEntity
  8
化粧台
  6
EXLTYPE2
 62
     6
100
AcDbCircle
 10
2425.672907943694
 20
1402.920522989787
 30
0.0
 40
25.3
100
AcDbArc
 50
182.6517777161361
 51
203.5808366037087
  0
ARC
  5
372
330
1F
100
AcDbEntity
  8
化粧台
  6
EXLTYPE2
 62
     6
100
AcDbCircle
 10
2414.400000000001
 20
1398.0
 30
0.0
 40
13.00000000000001
100
AcDbArc
 50
203.5808366037087
 51
270.0000000000002
  0
LINE
  5
373
330
1F
100
AcDbEntity
  8
化粧台
  6
EXLTYPE2
 62
     6
100
AcDbLine
 10
2414.400000000001
 20
1385.0
 30
0.0
 11
2416.400000000001
 21
1385.0
 31
0.0
  0
LINE
  5
374
330
1F
100
AcDbEntity
  8
化粧台
  6
EXLTYPE2
 62
     6
100
AcDbLine
 10
2400.400000000001
 20
1401.75
 30
0.0
 11
2400.400000000001
 21
1423.25
 31
0.0
  0
LINE
  5
375
330
1F
100
AcDbEntity
  8
化粧台
  6
EXLTYPE2
 62
     6
100
AcDbLine
 10
2416.400000000001
 20
1423.0
 30
0.0
 11
2443.0
 21
1423.0
 31
0.0
  0
LINE
  5
376
330
1F
100
AcDbEntity
  8
化粧台
  6
EXLTYPE2
 62
     6
100
AcDbLine
 10
2378.000000000001
 20
1423.0
 30
0.0
 11
2400.400000000001
 21
1423.0
 31
0.0
  0
LINE
  5
377
330
1F
100
AcDbEntity
  8
化粧台
  6
EXLTYPE2
 62
     6
100
AcDbLine
 10
2378.000000000001
 20
1402.0
 30
0.0
 11
2400.400000000001
 21
1402.0
 31
0.0
  0
LINE
  5
378
330
1F
100
AcDbEntity
  8
化粧台
  6
EXLTYPE2
 62
     6
100
AcDbLine
 10
2307.000000000001
 20
1412.5
 30
0.0
 11
2453.0
 21
1412.5
 31
0.0
  0
LINE
  5
379
330
1F
100
AcDbEntity
  8
化粧台
  6
EXLTYPE2
 62
     6
100
AcDbLine
 10
2350.000000000001
 20
1442.5
 30
0.0
 11
2350.000000000001
 21
1382.5
 31
0.0
  0
LINE
  5
37A
330
1F
100
AcDbEntity
  8
化粧台
  6
EXLTYPE2
 62
     6
100
AcDbLine
 10
2416.400000000001
 20
1402.0
 30
0.0
 11
2443.0
 21
1402.0
 31
0.0
  0
LINE
  5
37B
330
1F
100
AcDbEntity
  8
化粧台
  6
EXLTYPE2
 62
     6
100
AcDbLine
 10
2292.0
 20
1401.499999999949
 30
0.0
 11
2292.0
 21
1398.49999999995
 31
0.0
  0
LINE
  5
37C
330
1F
100
AcDbEntity
  8
化粧台
  6
EXLTYPE2
 62
     6
100
AcDbLine
 10
2259.999999999999
 20
1401.499999999949
 30
0.0
 11
2259.999999999999
 21
1398.499999999949
 31
0.0
  0
ELLIPSE
  5
37D
330
1F
100
AcDbEntity
  8
化粧台
  6
EXLTYPE2
 62
     6
100
AcDbEllipse
 10
2257.356568035279
 20
1407.49999999995
 30
0.0
 11
3.673969509765480E-16
 21
6.00004754403219
 31
0.0
210
0.0
220
0.0
230
1.0
 40
0.8927542650237517
 41
0.0
 42
6.283185307179586
  0
ELLIPSE
  5
37E
330
1F
100
AcDbEntity
  8
化粧台
  6
EXLTYPE2
 62
     6
100
AcDbEllipse
 10
2275.999999999999
 20
1407.49999999995
 30
0.0
 11
10.66536450385001
 21
0.0
 31
0.0
210
0.0
220
0.0
230
1.0
 40
0.5625686771262349
 41
0.0
 42
6.283185307179586
  0
ELLIPSE
  5
37F
330
1F
100
AcDbEntity
  8
化粧台
  6
EXLTYPE2
 62
     6
100
AcDbEllipse
 10
2294.643431964719
 20
1407.49999999995
 30
0.0
 11
3.673969509765456E-16
 21
6.000047544032152
 31
0.0
210
0.0
220
0.0
230
1.0
 40
0.8927542650237573
 41
0.0
 42
6.283185307179586
  0
LINE
  5
380
330
1F
100
AcDbEntity
  8
化粧台
  6
EXLTYPE2
 62
     6
100
AcDbLine
 10
2253.999999999999
 20
1413.49999999995
 30
0.0
 11
2298.0
 21
1413.49999999995
 31
0.0
  0
LINE
  5
381
330
1F
100
AcDbEntity
  8
化粧台
  6
EXLTYPE2
 62
     6
100
AcDbLine
 10
2253.999999999999
 20
1401.499999999949
 30
0.0
 11
2298.0
 21
1401.499999999949
 31
0.0
  0
ARC
  5
382
330
1F
100
AcDbEntity
  8
化粧台
  6
EXLTYPE2
 62
     6
100
AcDbCircle
 10
2289.999999999999
 20
1407.49999999995
 30
0.0
 40
10.0
100
AcDbArc
 50
323.1301023541562
 51
36.869897645844
  0
ARC
  5
383
330
1F
100
AcDbEntity
  8
化粧台
  6
EXLTYPE2
 62
     6
100
AcDbCircle
 10
2261.999999999999
 20
1407.49999999995
 30
0.0
 40
10.0
100
AcDbArc
 50
143.1301023541561
 51
216.8698976458443
  0
LINE
  5
384
330
1F
100
AcDbEntity
  8
化粧台
  6
CONTINUOUS
 62
     6
100
AcDbLine
 10
2435.000000000005
 20
1427.0
 30
0.0
 11
2460.000000000001
 21
1427.0
 31
0.0
  0
LINE
  5
385
330
1F
100
AcDbEntity
  8
化粧台
  6
CONTINUOUS
 62
     6
100
AcDbLine
 10
2460.000000000001
 20
1427.0
 30
0.0
 11
2460.000000000001
 21
1478.0
 31
0.0
  0
LINE
  5
386
330
1F
100
AcDbEntity
  8
化粧台
  6
CONTINUOUS
 62
     6
100
AcDbLine
 10
2435.000000000005
 20
1478.0
 30
0.0
 11
2460.000000000001
 21
1478.0
 31
0.0
  0
LINE
  5
387
330
1F
100
AcDbEntity
  8
化粧台
  6
CONTINUOUS
 62
     6
100
AcDbLine
 10
2443.0
 20
1423.0
 30
0.0
 11
2443.0
 21
1402.0
 31
0.0
  0
LINE
  5
388
330
1F
100
AcDbEntity
  8
化粧台
  6
EXLTYPE4
 62
     6
100
AcDbLine
 10
2435.0
 20
1017.5
 30
0.0
 11
2435.0
 21
3056.5
 31
0.0
  0
TEXT
  5
389
330
1F
100
AcDbEntity
  8
化粧台
  6
CONTINUOUS
 62
     2
100
AcDbText
 10
2435.0
 20
2957.500000536442
 30
0.0
 40
59.99999618530273
  1
W.L.
 50
90.0
 41
0.5571963512150626
  7
EXCADSTD
 72
     5
 11
2435.0
 21
3048.243400536442
 31
0.0
100
AcDbText
  0
LINE
  5
38A
330
1F
100
AcDbEntity
  8
化粧台
  6
EXLTYPE3
 62
     6
100
AcDbLine
 10
2200.000000000001
 20
1727.5
 30
0.0
 11
2200.000000000001
 21
1434.500000000001
 31
0.0
  0
LINE
  5
38B
330
1F
100
AcDbEntity
  8
化粧台
  6
EXLTYPE2
 62
     1
100
AcDbLine
 10
255.0
 20
2250.0
 30
0.0
 11
0.0
 21
2250.0
 31
0.0
  0
LINE
  5
38C
330
1F
100
AcDbEntity
  8
化粧台
  6
CONTINUOUS
 62
     2
100
AcDbLine
 10
830.0000000000018
 20
3740.5
 30
0.0
 11
890.0000000000007
 21
3740.5
 31
0.0
  0
LINE
  5
38D
330
1F
100
AcDbEntity
  8
化粧台
  6
CONTINUOUS
 62
     2
100
AcDbLine
 10
661.5000000000009
 20
3779.5
 30
0.0
 11
890.0000000000007
 21
3779.5
 31
0.0
  0
LINE
  5
38E
330
1F
100
AcDbEntity
  8
化粧台
  6
CONTINUOUS
 62
     2
100
AcDbLine
 10
920.0000000000007
 20
3740.5
 30
0.0
 11
980.0000000000018
 21
3740.5
 31
0.0
  0
LINE
  5
38F
330
1F
100
AcDbEntity
  8
化粧台
  6
CONTINUOUS
 62
     2
100
AcDbLine
 10
920.0000000000007
 20
3779.5
 30
0.0
 11
1148.5
 21
3779.5
 31
0.0
  0
ARC
  5
390
330
1F
100
AcDbEntity
  8
化粧台
  6
CONTINUOUS
 62
     2
100
AcDbCircle
 10
905.0000000000018
 20
3694.5
 30
0.0
 40
27.00000000000002
100
AcDbArc
 50
103.3902651493732
 51
76.60973485063151
  0
LINE
  5
391
330
1F
100
AcDbEntity
  8
化粧台
  6
EXLTYPE3
 62
     6
100
AcDbLine
 10
905.0000000000009
 20
2014.35
 30
0.0
 11
905.0000000000009
 21
977.5000000000009
 31
0.0
  0
DIMENSION
  5
393
330
1F
100
AcDbEntity
  8
化粧台
  6
CONTINUOUS
 62
     3
100
AcDbDimension
  2
*D15
 10
2392.599999999999
 20
2857.500000000001
 30
0.0
 11
2540.000000000002
 21
2892.74999991059
 31
0.0
 70
   160
  1
43
  3
ISO-25
100
AcDbAlignedDimension
 13
2435.0
 23
2767.5
 33
0.0
 14
2392.599999999999
 24
2728.7
 34
0.0
100
AcDbRotatedDimension
1001
ACAD
1000
DSTYLE
1002
{
1070
   270
1070
     2
1070
     6
1000
EX_NORM
1070
     7
1000
EX_NORM
1070
    41
1040
44.99999618530273
1070
    42
1040
7.5
1070
    44
1040
15.0
1070
    73
1070
     0
1070
    74
1070
     0
1070
    75
1070
     0
1070
    76
1070
     0
1070
    77
1070
     1
1070
    78
1070
     8
1070
   140
1040
59.99999618530273
1070
   147
1040
0.0
1070
   173
1070
     1
1070
   176
1070
     3
1070
   177
1070
     3
1070
   178
1070
     2
1070
   271
1070
     2
1070
   277
1070
     2
1070
   279
1070
     2
1070
   280
1070
     1
1070
   287
1070
     5
1070
   340
1005
392
1002
}
  0
DIMENSION
  5
3A4
330
1F
100
AcDbEntity
  8
化粧台
  6
CONTINUOUS
 62
     3
100
AcDbDimension
  2
*D16
 10
2557.499999999999
 20
2672.5
 30
0.0
 11
2522.250000089407
 21
2430.0
 31
0.0
 70
   160
  1
485(壁固定)
  3
ISO-25
100
AcDbAlignedDimension
 13
2475.799999999839
 23
2187.5
 33
0.0
 14
2475.7999999998
 24
2672.5
 34
0.0
 50
90.0
100
AcDbRotatedDimension
1001
ACAD
1000
DSTYLE
1002
{
1070
   270
1070
     2
1070
     6
1000
EX_NORM
1070
     7
1000
EX_NORM
1070
    41
1040
44.99999618530273
1070
    42
1040
7.5
1070
    44
1040
15.0
1070
    73
1070
     0
1070
    74
1070
     0
1070
    75
1070
     0
1070
    76
1070
     0
1070
    77
1070
     1
1070
    78
1070
     8
1070
   140
1040
59.99999618530273
1070
   147
1040
0.0
1070
   173
1070
     1
1070
   176
1070
     3
1070
   177
1070
     3
1070
   178
1070
     2
1070
   271
1070
     2
1070
   277
1070
     2
1070
   279
1070
     2
1070
   280
1070
     0
1070
   287
1070
     5
1070
   340
1005
3A3
1002
}
  0
LINE
  5
3B2
330
1F
100
AcDbEntity
  8
化粧台
  6
CONTINUOUS
 62
     6
100
AcDbLine
 10
2392.599999999999
 20
2728.7
 30
0.0
 11
2402.999999999999
 21
2728.7
 31
0.0
  0
LINE
  5
3B3
330
1F
100
AcDbEntity
  8
化粧台
  6
CONTINUOUS
 62
     6
100
AcDbLine
 10
2392.599999999999
 20
2728.7
 30
0.0
 11
2392.599999999999
 21
2720.7
 31
0.0
  0
LINE
  5
3B4
330
1F
100
AcDbEntity
  8
化粧台
  6
CONTINUOUS
 62
     6
100
AcDbLine
 10
2401.799999999998
 20
2727.5
 30
0.0
 11
2393.799999999998
 21
2727.5
 31
0.0
  0
LINE
  5
3B5
330
1F
100
AcDbEntity
  8
化粧台
  6
CONTINUOUS
 62
     6
100
AcDbLine
 10
2401.799999999998
 20
2703.7
 30
0.0
 11
2401.799999999998
 21
2727.5
 31
0.0
  0
LINE
  5
3B6
330
1F
100
AcDbEntity
  8
化粧台
  6
CONTINUOUS
 62
     6
100
AcDbLine
 10
2392.599999999999
 20
2720.7
 30
0.0
 11
2393.799999999998
 21
2720.7
 31
0.0
  0
LINE
  5
3B7
330
1F
100
AcDbEntity
  8
化粧台
  6
CONTINUOUS
 62
     6
100
AcDbLine
 10
2401.799999999998
 20
2703.7
 30
0.0
 11
2402.999999999999
 21
2703.7
 31
0.0
  0
LINE
  5
3B8
330
1F
100
AcDbEntity
  8
化粧台
  6
CONTINUOUS
 62
     6
100
AcDbLine
 10
2401.799999999998
 20
2231.3
 30
0.0
 11
2402.999999999999
 21
2231.3
 31
0.0
  0
LINE
  5
3B9
330
1F
100
AcDbEntity
  8
化粧台
  6
CONTINUOUS
 62
     6
100
AcDbLine
 10
2392.599999999999
 20
2214.300000000001
 30
0.0
 11
2393.799999999998
 21
2214.300000000001
 31
0.0
  0
LINE
  5
3BA
330
1F
100
AcDbEntity
  8
化粧台
  6
CONTINUOUS
 62
     6
100
AcDbLine
 10
2401.799999999998
 20
2231.3
 30
0.0
 11
2401.799999999998
 21
2207.5
 31
0.0
  0
LINE
  5
3BB
330
1F
100
AcDbEntity
  8
化粧台
  6
CONTINUOUS
 62
     6
100
AcDbLine
 10
2401.799999999998
 20
2207.5
 30
0.0
 11
2393.799999999998
 21
2207.5
 31
0.0
  0
LINE
  5
3BC
330
1F
100
AcDbEntity
  8
化粧台
  6
CONTINUOUS
 62
     6
100
AcDbLine
 10
2392.599999999999
 20
2206.3
 30
0.0
 11
2392.599999999999
 21
2214.3
 31
0.0
  0
LINE
  5
3BD
330
1F
100
AcDbEntity
  8
化粧台
  6
CONTINUOUS
 62
     6
100
AcDbLine
 10
2392.599999999999
 20
2206.3
 30
0.0
 11
2402.999999999999
 21
2206.3
 31
0.0
  0
LINE
  5
3BE
330
1F
100
AcDbEntity
  8
化粧台
  6
CONTINUOUS
 62
     2
100
AcDbLine
 10
2435.0
 20
2202.500000000002
 30
0.0
 11
2420.000000000001
 21
2202.500000000002
 31
0.0
  0
LINE
  5
3BF
330
1F
100
AcDbEntity
  8
化粧台
  6
CONTINUOUS
 62
     2
100
AcDbLine
 10
2434.999999999999
 20
2232.499999999998
 30
0.0
 11
2434.999999999999
 21
2172.5
 31
0.0
  0
LINE
  5
3C0
330
1F
100
AcDbEntity
  8
化粧台
  6
CONTINUOUS
 62
     2
100
AcDbLine
 10
2419.999999999999
 20
2202.499999999998
 30
0.0
 11
2435.0
 21
2202.499999999998
 31
0.0
  0
LINE
  5
3C1
330
1F
100
AcDbEntity
  8
化粧台
  6
CONTINUOUS
 62
     6
100
AcDbLine
 10
2434.999999999997
 20
2186.0
 30
0.0
 11
2461.661651584697
 21
2186.0
 31
0.0
  0
LINE
  5
3C2
330
1F
100
AcDbEntity
  8
化粧台
  6
CONTINUOUS
 62
     6
100
AcDbLine
 10
2434.999999999997
 20
2189.0
 30
0.0
 11
2461.661651584728
 21
2189.0
 31
0.0
  0
ARC
  5
3C3
330
1F
100
AcDbEntity
  8
化粧台
  6
CONTINUOUS
 62
     6
100
AcDbCircle
 10
2461.661651584728
 20
2174.0
 30
0.0
 40
15.00000000000001
100
AcDbArc
 50
64.15806723692059
 51
90.00000000000004
  0
ARC
  5
3C4
330
1F
100
AcDbEntity
  8
化粧台
  6
CONTINUOUS
 62
     6
100
AcDbCircle
 10
2461.661651584697
 20
2201.0
 30
0.0
 40
15.00000000000001
100
AcDbArc
 50
270.0000000000002
 51
295.8419327631677
  0
LINE
  5
3C5
330
1F
100
AcDbEntity
  8
化粧台
  6
EXLTYPE3
 62
     6
100
AcDbLine
 10
2475.7999999998
 20
2672.5
 30
0.0
 11
2433.0499999998
 21
2672.5
 31
0.0
  0
LINE
  5
3C6
330
1F
100
AcDbEntity
  8
化粧台
  6
CONTINUOUS
 62
     6
100
AcDbLine
 10
2434.999999999999
 20
2674.0
 30
0.0
 11
2461.661651584718
 21
2674.0
 31
0.0
  0
LINE
  5
3C7
330
1F
100
AcDbEntity
  8
化粧台
  6
CONTINUOUS
 62
     6
100
AcDbLine
 10
2434.999999999999
 20
2671.0
 30
0.0
 11
2461.661651584687
 21
2671.0
 31
0.0
  0
ARC
  5
3C8
330
1F
100
AcDbEntity
  8
化粧台
  6
CONTINUOUS
 62
     6
100
AcDbCircle
 10
2461.661651584687
 20
2686.0
 30
0.0
 40
15.00000000000001
100
AcDbArc
 50
270.0000000000002
 51
295.8419327631677
  0
ARC
  5
3C9
330
1F
100
AcDbEntity
  8
化粧台
  6
CONTINUOUS
 62
     6
100
AcDbCircle
 10
2461.661651584718
 20
2659.0
 30
0.0
 40
15.00000000000001
100
AcDbArc
 50
64.15806723692059
 51
90.00000000000004
  0
LINE
  5
3CA
330
1F
100
AcDbEntity
  8
化粧台
  6
EXLTYPE3
 62
     6
100
AcDbLine
 10
2475.799999999839
 20
2187.5
 30
0.0
 11
2433.049999999839
 21
2187.5
 31
0.0
  0
LINE
  5
3CB
330
1F
100
AcDbEntity
  8
化粧台
  6
CONTINUOUS
 62
     2
100
AcDbLine
 10
2422.8
 20
2172.5
 30
0.0
 11
2422.8
 21
2172.211555580961
 31
0.0
  0
LINE
  5
3CC
330
1F
100
AcDbEntity
  8
化粧台
  6
CONTINUOUS
 62
     2
100
AcDbLine
 10
2422.799999999999
 20
2172.5
 30
0.0
 11
2432.2
 21
2172.5
 31
0.0
  0
LINE
  5
3CD
330
1F
100
AcDbEntity
  8
化粧台
  6
CONTINUOUS
 62
     2
100
AcDbLine
 10
2432.2
 20
2172.5
 30
0.0
 11
2432.2
 21
2172.211555580961
 31
0.0
  0
ARC
  5
3CE
330
1F
100
AcDbEntity
  8
化粧台
  6
CONTINUOUS
 62
     2
100
AcDbCircle
 10
2427.5
 20
2176.1
 30
0.0
 40
6.100000000000004
100
AcDbArc
 50
219.60192708105
 51
320.3980729189502
  0
LINE
  5
3CF
330
1F
100
AcDbEntity
  8
化粧台
  6
CONTINUOUS
 62
     6
100
AcDbLine
 10
2422.799999999999
 20
2172.211555580961
 30
0.0
 11
2432.2
 21
2172.211555580961
 31
0.0
  0
LINE
  5
3D0
330
1F
100
AcDbEntity
  8
化粧台
  6
CONTINUOUS
 62
     6
100
AcDbLine
 10
2427.499999999988
 20
2169.999999999981
 30
0.0
 11
2425.767949192419
 21
2170.99999999998
 31
0.0
  0
LINE
  5
3D1
330
1F
100
AcDbEntity
  8
化粧台
  6
CONTINUOUS
 62
     6
100
AcDbLine
 10
2427.500000000011
 20
2169.999999999981
 30
0.0
 11
2429.23205080758
 21
2170.99999999998
 31
0.0
  0
LINE
  5
3D2
330
1F
100
AcDbEntity
  8
化粧台
  6
CONTINUOUS
 62
     2
100
AcDbLine
 10
2420.000000000001
 20
2172.500000000002
 30
0.0
 11
2420.000000000001
 21
2202.500000000002
 31
0.0
  0
LINE
  5
3D3
330
1F
100
AcDbEntity
  8
化粧台
  6
CONTINUOUS
 62
     2
100
AcDbLine
 10
2435.0
 20
2172.500000000002
 30
0.0
 11
2420.000000000001
 21
2172.500000000002
 31
0.0
  0
LINE
  5
3D4
330
1F
100
AcDbEntity
  8
化粧台
  6
CONTINUOUS
 62
     2
100
AcDbLine
 10
2435.000000000029
 20
2681.519237886417
 30
0.0
 11
2419.999999999999
 21
2707.500000000005
 31
0.0
  0
LINE
  5
3D5
330
1F
100
AcDbEntity
  8
化粧台
  6
CONTINUOUS
 62
     2
100
AcDbLine
 10
2419.999999999999
 20
2657.499999999984
 30
0.0
 11
2434.999999999999
 21
2657.499999999984
 31
0.0
  0
LINE
  5
3D6
330
1F
100
AcDbEntity
  8
化粧台
  6
CONTINUOUS
 62
     2
100
AcDbLine
 10
2434.999999999999
 20
2731.519237886399
 30
0.0
 11
2434.999999999999
 21
2657.499999999984
 31
0.0
  0
LINE
  5
3D7
330
1F
100
AcDbEntity
  8
化粧台
  6
CONTINUOUS
 62
     2
100
AcDbLine
 10
2419.999999999999
 20
2707.500000000005
 30
0.0
 11
2419.999999999999
 21
2657.499999999984
 31
0.0
  0
LINE
  5
3D8
330
1F
100
AcDbEntity
  8
化粧台
  6
CONTINUOUS
 62
     2
100
AcDbLine
 10
2402.999999999998
 20
2767.5
 30
0.0
 11
2419.999999999998
 21
2767.5
 31
0.0
  0
LINE
  5
3D9
330
1F
100
AcDbEntity
  8
化粧台
  6
CONTINUOUS
 62
     2
100
AcDbLine
 10
2419.999999999999
 20
2731.519237886399
 30
0.0
 11
2434.999999999999
 21
2731.519237886399
 31
0.0
  0
LINE
  5
3DA
330
1F
100
AcDbEntity
  8
化粧台
  6
CONTINUOUS
 62
     2
100
AcDbLine
 10
2435.000000000029
 20
2681.519237886418
 30
0.0
 11
2419.999999999999
 21
2707.500000000005
 31
0.0
  0
LINE
  5
3DB
330
1F
100
AcDbEntity
  8
化粧台
  6
CONTINUOUS
 62
     2
100
AcDbLine
 10
2434.999999999999
 20
2731.519237886399
 30
0.0
 11
2434.999999999999
 21
2681.519237886469
 31
0.0
  0
LINE
  5
3DC
330
1F
100
AcDbEntity
  8
化粧台
  6
CONTINUOUS
 62
     2
100
AcDbLine
 10
2393.799999999999
 20
2727.5
 30
0.0
 11
2393.799999999999
 21
2207.5
 31
0.0
  0
LINE
  5
3DD
330
1F
100
AcDbEntity
  8
化粧台
  6
CONTINUOUS
 62
     2
100
AcDbLine
 10
2398.799999999999
 20
2727.5
 30
0.0
 11
2398.799999999999
 21
2207.5
 31
0.0
  0
LINE
  5
3DE
330
1F
100
AcDbEntity
  8
化粧台
  6
CONTINUOUS
 62
     2
100
AcDbLine
 10
2402.999999999998
 20
2767.5
 30
0.0
 11
2402.999999999998
 21
2167.5
 31
0.0
  0
LINE
  5
3DF
330
1F
100
AcDbEntity
  8
化粧台
  6
CONTINUOUS
 62
     2
100
AcDbLine
 10
2419.999999999998
 20
2767.5
 30
0.0
 11
2419.999999999998
 21
2167.5
 31
0.0
  0
LINE
  5
3E0
330
1F
100
AcDbEntity
  8
化粧台
  6
CONTINUOUS
 62
     2
100
AcDbLine
 10
2419.999999999999
 20
2232.499999999998
 30
0.0
 11
2434.999999999999
 21
2232.499999999998
 31
0.0
  0
LINE
  5
3E1
330
1F
100
AcDbEntity
  8
化粧台
  6
CONTINUOUS
 62
     2
100
AcDbLine
 10
2402.999999999998
 20
2167.5
 30
0.0
 11
2419.999999999998
 21
2167.5
 31
0.0
  0
DIMENSION
  5
3E2
330
1F
100
AcDbEntity
  8
鏡台
  6
CONTINUOUS
 62
     3
100
AcDbDimension
  2
*D17
 10
1204.999999999998
 20
2913.0
 30
0.0
 11
904.9999999999989
 21
2948.249999910593
 31
0.0
 70
   160
  3
ISO-25
100
AcDbAlignedDimension
 13
604.9999999999991
 23
2767.5
 33
0.0
 14
1204.999999999998
 24
2767.5
 34
0.0
100
AcDbRotatedDimension
1001
ACAD
1000
DSTYLE
1002
{
1070
   270
1070
     2
1070
     6
1000
EX_NORM
1070
     7
1000
EX_NORM
1070
    41
1040
44.99999618530273
1070
    42
1040
10.49999982118607
1070
    44
1040
15.0
1070
    73
1070
     0
1070
    74
1070
     0
1070
    75
1070
     0
1070
    76
1070
     0
1070
    77
1070
     1
1070
    78
1070
     8
1070
   140
1040
59.99999618530273
1070
   147
1040
0.0
1070
   173
1070
     1
1070
   176
1070
     3
1070
   177
1070
     3
1070
   178
1070
     2
1070
   271
1070
     2
1070
   277
1070
     2
1070
   279
1070
     2
1070
   280
1070
     0
1070
   287
1070
     5
1070
   340
1005
3A3
1002
}
  0
DIMENSION
  5
3EF
330
1F
100
AcDbEntity
  8
鏡台
  6
CONTINUOUS
 62
     3
100
AcDbDimension
  2
*D18
 10
1460.000000000001
 20
2167.5
 30
0.0
 11
1424.75000008941
 21
2467.499999999998
 31
0.0
 70
   160
  3
ISO-25
100
AcDbAlignedDimension
 13
1204.999999999998
 23
2767.5
 33
0.0
 14
1204.999999999998
 24
2167.5
 34
0.0
 50
90.0
100
AcDbRotatedDimension
1001
ACAD
1000
DSTYLE
1002
{
1070
   270
1070
     2
1070
     6
1000
EX_NORM
1070
     7
1000
EX_NORM
1070
    41
1040
44.99999618530273
1070
    42
1040
10.49999982118607
1070
    44
1040
14.99999999999909
1070
    73
1070
     0
1070
    74
1070
     0
1070
    75
1070
     0
1070
    76
1070
     0
1070
    77
1070
     1
1070
    78
1070
     8
1070
   140
1040
59.99999618530273
1070
   147
1040
0.0
1070
   173
1070
     1
1070
   176
1070
     3
1070
   177
1070
     3
1070
   178
1070
     2
1070
   271
1070
     2
1070
   277
1070
     2
1070
   279
1070
     2
1070
   280
1070
     0
1070
   287
1070
     5
1070
   340
1005
3A3
1002
}
  0
LINE
  5
3FC
330
1F
100
AcDbEntity
  8
鏡台
  6
CONTINUOUS
 62
     3
100
AcDbLine
 10
754.9999999999995
 20
2693.4
 30
0.0
 11
754.9999999999995
 21
2841.5
 31
0.0
  0
LINE
  5
3FD
330
1F
100
AcDbEntity
  8
鏡台
  6
CONTINUOUS
 62
     3
100
AcDbLine
 10
1055.0
 20
2693.4
 30
0.0
 11
1055.0
 21
2841.5
 31
0.0
  0
TEXT
  5
3FE
330
1F
100
AcDbEntity
  8
鏡台
  6
CONTINUOUS
 62
     2
100
AcDbText
 10
765.5
 20
2831.749999910593
 30
0.0
 40
59.99999618530273
  1
３００
 41
1.029411764705882
  7
EXCADSTD
 72
     5
 11
915.4999904632568
 21
2831.749999910593
 31
0.0
100
AcDbText
  0
TEXT
  5
3FF
330
1F
100
AcDbEntity
  8
鏡台
  6
CONTINUOUS
 62
     2
100
AcDbText
 10
908.0
 20
2831.749999910593
 30
0.0
 40
36.0
  1
（壁固定）
 41
0.9655172413793104
  7
EXCADSTD
 72
     5
 11
1052.0
 21
2831.749999910593
 31
0.0
100
AcDbText
  0
LINE
  5
400
330
1F
100
AcDbEntity
  8
鏡台
  6
CONTINUOUS
 62
     3
100
AcDbLine
 10
754.9999999999998
 20
2826.5
 30
0.0
 11
1055.000000000001
 21
2826.5
 31
0.0
  0
LINE
  5
401
330
1F
100
AcDbEntity
  8
鏡台
  6
CONTINUOUS
 62
     3
100
AcDbLine
 10
799.9999999999995
 20
2834.0
 30
0.0
 11
754.9999999999995
 21
2826.5
 31
0.0
  0
LINE
  5
402
330
1F
100
AcDbEntity
  8
鏡台
  6
CONTINUOUS
 62
     3
100
AcDbLine
 10
754.9999999999995
 20
2826.5
 30
0.0
 11
799.9999999999995
 21
2819.0
 31
0.0
  0
LINE
  5
403
330
1F
100
AcDbEntity
  8
鏡台
  6
CONTINUOUS
 62
     3
100
AcDbLine
 10
1010.0
 20
2819.0
 30
0.0
 11
1055.0
 21
2826.5
 31
0.0
  0
LINE
  5
404
330
1F
100
AcDbEntity
  8
鏡台
  6
CONTINUOUS
 62
     3
100
AcDbLine
 10
1055.0
 20
2826.5
 30
0.0
 11
1010.0
 21
2834.0
 31
0.0
  0
LINE
  5
405
330
1F
100
AcDbEntity
  8
鏡台
  6
CONTINUOUS
 62
     2
100
AcDbLine
 10
604.9999999999991
 20
2767.5
 30
0.0
 11
1204.999999999998
 21
2767.5
 31
0.0
  0
LINE
  5
406
330
1F
100
AcDbEntity
  8
鏡台
  6
CONTINUOUS
 62
     2
100
AcDbLine
 10
604.9999999999991
 20
2767.5
 30
0.0
 11
604.9999999999991
 21
2167.5
 31
0.0
  0
LINE
  5
407
330
1F
100
AcDbEntity
  8
鏡台
  6
CONTINUOUS
 62
     2
100
AcDbLine
 10
604.9999999999991
 20
2167.5
 30
0.0
 11
1204.999999999998
 21
2167.5
 31
0.0
  0
LINE
  5
408
330
1F
100
AcDbEntity
  8
鏡台
  6
CONTINUOUS
 62
     2
100
AcDbLine
 10
1204.999999999998
 20
2767.5
 30
0.0
 11
1204.999999999998
 21
2167.5
 31
0.0
  0
LINE
  5
409
330
1F
100
AcDbEntity
  8
鏡台
  6
CONTINUOUS
 62
     2
100
AcDbLine
 10
1164.999999999997
 20
2727.5
 30
0.0
 11
1164.999999999997
 21
2207.5
 31
0.0
  0
LINE
  5
40A
330
1F
100
AcDbEntity
  8
鏡台
  6
CONTINUOUS
 62
     2
100
AcDbLine
 10
644.9999999999982
 20
2727.5
 30
0.0
 11
644.9999999999982
 21
2207.5
 31
0.0
  0
LINE
  5
40B
330
1F
100
AcDbEntity
  8
鏡台
  6
CONTINUOUS
 62
     6
100
AcDbLine
 10
1163.999999999997
 20
2728.7
 30
0.0
 11
1163.999999999997
 21
2720.7
 31
0.0
  0
LINE
  5
40C
330
1F
100
AcDbEntity
  8
鏡台
  6
CONTINUOUS
 62
     6
100
AcDbLine
 10
645.9999999999982
 20
2728.7
 30
0.0
 11
645.9999999999982
 21
2720.7
 31
0.0
  0
LINE
  5
40D
330
1F
100
AcDbEntity
  8
鏡台
  6
CONTINUOUS
 62
     6
100
AcDbLine
 10
1163.999999999997
 20
2720.7
 30
0.0
 11
645.9999999999982
 21
2720.7
 31
0.0
  0
LINE
  5
40E
330
1F
100
AcDbEntity
  8
鏡台
  6
EXLTYPE2
 62
     6
100
AcDbLine
 10
644.9999999999982
 20
2727.5
 30
0.0
 11
645.9999999999982
 21
2727.5
 31
0.0
  0
LINE
  5
40F
330
1F
100
AcDbEntity
  8
鏡台
  6
CONTINUOUS
 62
     6
100
AcDbLine
 10
1163.999999999997
 20
2728.7
 30
0.0
 11
645.9999999999982
 21
2728.7
 31
0.0
  0
LINE
  5
410
330
1F
100
AcDbEntity
  8
鏡台
  6
EXLTYPE2
 62
     6
100
AcDbLine
 10
1165.000000000001
 20
2727.5
 30
0.0
 11
1164.000000000002
 21
2727.5
 31
0.0
  0
LINE
  5
411
330
1F
100
AcDbEntity
  8
鏡台
  6
CONTINUOUS
 62
     6
100
AcDbLine
 10
1163.999999999997
 20
2206.299999999999
 30
0.0
 11
1163.999999999997
 21
2214.3
 31
0.0
  0
LINE
  5
412
330
1F
100
AcDbEntity
  8
鏡台
  6
CONTINUOUS
 62
     6
100
AcDbLine
 10
645.9999999999982
 20
2206.299999999999
 30
0.0
 11
645.9999999999982
 21
2214.3
 31
0.0
  0
LINE
  5
413
330
1F
100
AcDbEntity
  8
鏡台
  6
CONTINUOUS
 62
     6
100
AcDbLine
 10
645.9999999999982
 20
2206.299999999999
 30
0.0
 11
1163.999999999997
 21
2206.299999999999
 31
0.0
  0
LINE
  5
414
330
1F
100
AcDbEntity
  8
鏡台
  6
CONTINUOUS
 62
     6
100
AcDbLine
 10
645.9999999999982
 20
2214.299999999999
 30
0.0
 11
1163.999999999997
 21
2214.299999999999
 31
0.0
  0
LINE
  5
415
330
1F
100
AcDbEntity
  8
鏡台
  6
EXLTYPE2
 62
     6
100
AcDbLine
 10
644.9999999999982
 20
2207.5
 30
0.0
 11
645.9999999999982
 21
2207.5
 31
0.0
  0
LINE
  5
416
330
1F
100
AcDbEntity
  8
鏡台
  6
CONTINUOUS
 62
     6
100
AcDbLine
 10
1164.999999999999
 20
2207.5
 30
0.0
 11
1163.999999999997
 21
2207.5
 31
0.0
  0
LINE
  5
417
330
1F
100
AcDbEntity
  8
鏡台
  6
CONTINUOUS
 62
     6
100
AcDbLine
 10
781.2144660940662
 20
2458.285533905902
 30
0.0
 11
768.4644660940671
 21
2445.535533905905
 31
0.0
  0
LINE
  5
418
330
1F
100
AcDbEntity
  8
鏡台
  6
CONTINUOUS
 62
     6
100
AcDbLine
 10
760.4999999999977
 20
2430.499999999974
 30
0.0
 11
793.0000000000014
 21
2462.999999999971
 31
0.0
  0
LINE
  5
419
330
1F
100
AcDbEntity
  8
鏡台
  6
CONTINUOUS
 62
     6
100
AcDbLine
 10
771.035533905932
 20
2433.964466094037
 30
0.0
 11
786.0355339059329
 21
2448.964466094036
 31
0.0
  0
LINE
  5
41A
330
1F
100
AcDbEntity
  8
鏡台
  6
CONTINUOUS
 62
     6
100
AcDbLine
 10
1008.214466094066
 20
2620.285533905902
 30
0.0
 11
995.4644660940667
 21
2607.535533905905
 31
0.0
  0
LINE
  5
41B
330
1F
100
AcDbEntity
  8
鏡台
  6
CONTINUOUS
 62
     6
100
AcDbLine
 10
998.0355339059315
 20
2595.964466094037
 30
0.0
 11
1013.035533905932
 21
2610.964466094036
 31
0.0
  0
LINE
  5
41C
330
1F
100
AcDbEntity
  8
鏡台
  6
CONTINUOUS
 62
     6
100
AcDbLine
 10
987.4999999999973
 20
2592.499999999974
 30
0.0
 11
1020.000000000001
 21
2624.999999999971
 31
0.0
  0
LINE
  5
41D
330
1F
100
AcDbEntity
  8
鏡台
  6
CONTINUOUS
 62
     6
100
AcDbLine
 10
999.2144660940676
 20
2303.285533905902
 30
0.0
 11
986.4644660940685
 21
2290.535533905905
 31
0.0
  0
LINE
  5
41E
330
1F
100
AcDbEntity
  8
鏡台
  6
CONTINUOUS
 62
     6
100
AcDbLine
 10
978.4999999999991
 20
2275.499999999974
 30
0.0
 11
1011.000000000003
 21
2307.999999999971
 31
0.0
  0
LINE
  5
41F
330
1F
100
AcDbEntity
  8
鏡台
  6
CONTINUOUS
 62
     6
100
AcDbLine
 10
989.0355339059333
 20
2278.964466094037
 30
0.0
 11
1004.035533905934
 21
2293.964466094036
 31
0.0
  0
LINE
  5
420
330
1F
100
AcDbEntity
  8
鏡台
  6
CONTINUOUS
 62
     6
100
AcDbLine
 10
755.0
 20
2685.9
 30
0.0
 11
755.0
 21
2657.55
 31
0.0
  0
LINE
  5
421
330
1F
100
AcDbEntity
  8
鏡台
  6
CONTINUOUS
 62
     6
100
AcDbLine
 10
741.5999999999999
 20
2672.5
 30
0.0
 11
769.9499999999998
 21
2672.5
 31
0.0
  0
LINE
  5
422
330
1F
100
AcDbEntity
  8
鏡台
  6
CONTINUOUS
 62
     6
100
AcDbLine
 10
1055.000000000001
 20
2685.9
 30
0.0
 11
1055.000000000001
 21
2657.55
 31
0.0
  0
LINE
  5
423
330
1F
100
AcDbEntity
  8
鏡台
  6
CONTINUOUS
 62
     6
100
AcDbLine
 10
1068.400000000001
 20
2672.5
 30
0.0
 11
1040.050000000001
 21
2672.5
 31
0.0
  0
LINE
  5
424
330
1F
100
AcDbEntity
  8
鏡台
  6
CONTINUOUS
 62
     6
100
AcDbLine
 10
754.9999999999995
 20
2200.9
 30
0.0
 11
754.9999999999995
 21
2172.55
 31
0.0
  0
LINE
  5
425
330
1F
100
AcDbEntity
  8
鏡台
  6
CONTINUOUS
 62
     6
100
AcDbLine
 10
741.5999999999999
 20
2187.5
 30
0.0
 11
769.9499999999998
 21
2187.5
 31
0.0
  0
LINE
  5
426
330
1F
100
AcDbEntity
  8
鏡台
  6
CONTINUOUS
 62
     6
100
AcDbLine
 10
1055.000000000001
 20
2200.9
 30
0.0
 11
1055.000000000001
 21
2172.55
 31
0.0
  0
LINE
  5
427
330
1F
100
AcDbEntity
  8
鏡台
  6
CONTINUOUS
 62
     6
100
AcDbLine
 10
1068.400000000001
 20
2187.5
 30
0.0
 11
1040.050000000001
 21
2187.5
 31
0.0
  0
LINE
  5
428
330
1F
100
AcDbEntity
  8
付属金具
  6
CONTINUOUS
 62
     6
100
AcDbLine
 10
867.5000000000023
 20
3844.5
 30
0.0
 11
942.5000000000023
 21
3844.5
 31
0.0
  0
CIRCLE
  5
429
330
1F
100
AcDbEntity
  8
付属金具
  6
CONTINUOUS
 62
     2
100
AcDbCircle
 10
905.0000000000007
 20
3844.499999999999
 30
0.0
 40
25.00000000010004
  0
ELLIPSE
  5
42A
330
1F
100
AcDbEntity
  8
付属金具
  6
CONTINUOUS
 62
     2
100
AcDbEllipse
 10
905.0000000000007
 20
3750.940536449099
 30
0.0
 11
-7.500000000000006
 21
9.184850993605156E-16
 31
0.0
210
0.0
220
0.0
230
1.0
 40
0.4388120546666563
 41
0.0
 42
6.283185307179586
  0
ELLIPSE
  5
42B
330
1F
100
AcDbEntity
  8
付属金具
  6
CONTINUOUS
 62
     2
100
AcDbEllipse
 10
905.0000000000007
 20
3726.7145230735
 30
0.0
 11
-15.00000000000001
 21
1.836970198721031E-15
 31
0.0
210
0.0
220
0.0
230
1.0
 40
0.4362793889666742
 41
0.0
 42
6.283185307179586
  0
LINE
  5
42C
330
1F
100
AcDbEntity
  8
付属金具
  6
CONTINUOUS
 62
     2
100
AcDbLine
 10
890.0000000000007
 20
3726.7145230735
 30
0.0
 11
890.0000000000007
 21
3824.499999999874
 31
0.0
  0
LINE
  5
42D
330
1F
100
AcDbEntity
  8
付属金具
  6
CONTINUOUS
 62
     2
100
AcDbLine
 10
920.0000000000007
 20
3726.7145230735
 30
0.0
 11
920.0000000000007
 21
3824.499999999874
 31
0.0
  0
LINE
  5
42E
330
1F
100
AcDbEntity
  8
付属金具
  6
CONTINUOUS
 62
     2
100
AcDbLine
 10
897.5000000000007
 20
3750.940536449099
 30
0.0
 11
897.5000000000007
 21
3820.651519964471
 31
0.0
  0
LINE
  5
42F
330
1F
100
AcDbEntity
  8
付属金具
  6
CONTINUOUS
 62
     2
100
AcDbLine
 10
912.5000000000007
 20
3750.940536449099
 30
0.0
 11
912.5000000000007
 21
3820.651519964471
 31
0.0
  0
LINE
  5
430
330
1F
100
AcDbEntity
  8
付属金具
  6
CONTINUOUS
 62
     2
100
AcDbLine
 10
899.1589155674322
 20
3891.668597735305
 30
0.0
 11
910.8410844325775
 21
3891.668597735305
 31
0.0
  0
ARC
  5
431
330
1F
100
AcDbEntity
  8
付属金具
  6
CONTINUOUS
 62
     2
100
AcDbCircle
 10
905.000000000004
 20
3874.117513245893
 30
0.0
 40
18.55108448941109
100
AcDbArc
 50
72.29820692448698
 51
107.7017930755134
  0
ARC
  5
432
330
1F
100
AcDbEntity
  8
付属金具
  6
CONTINUOUS
 62
     2
100
AcDbCircle
 10
909.7262244781253
 20
3877.168597735305
 30
0.0
 40
0.5
100
AcDbArc
 50
270.0000000000002
 51
356.9147122891804
  0
ARC
  5
433
330
1F
100
AcDbEntity
  8
付属金具
  6
CONTINUOUS
 62
     2
100
AcDbCircle
 10
910.4886646356402
 20
3891.313914374082
 30
0.0
 40
0.5
100
AcDbArc
 50
356.9147122891804
 51
72.29820692448467
  0
LINE
  5
434
330
1F
100
AcDbEntity
  8
付属金具
  6
CONTINUOUS
 62
     2
100
AcDbLine
 10
910.2254997399499
 20
3877.14168653077
 30
0.0
 11
910.9879398974648
 21
3891.287003169548
 31
0.0
  0
ARC
  5
435
330
1F
100
AcDbEntity
  8
付属金具
  6
CONTINUOUS
 62
     2
100
AcDbCircle
 10
900.2737755218853
 20
3877.168597735305
 30
0.0
 40
0.5
100
AcDbArc
 50
183.0852877108198
 51
270.0000000000002
  0
ARC
  5
436
330
1F
100
AcDbEntity
  8
付属金具
  6
CONTINUOUS
 62
     2
100
AcDbCircle
 10
899.5113353643677
 20
3891.313914374085
 30
0.0
 40
0.5
100
AcDbArc
 50
107.7017930755155
 51
183.0852877108198
  0
LINE
  5
437
330
1F
100
AcDbEntity
  8
付属金具
  6
CONTINUOUS
 62
     2
100
AcDbLine
 10
899.7745002600599
 20
3877.14168653077
 30
0.0
 11
899.0120601025432
 21
3891.287003169548
 31
0.0
  0
LINE
  5
438
330
1F
100
AcDbEntity
  8
付属金具
  6
CONTINUOUS
 62
     2
100
AcDbLine
 10
900.2737755218844
 20
3876.668597735304
 30
0.0
 11
905.0000000000049
 21
3876.668597735304
 31
0.0
  0
LINE
  5
439
330
1F
100
AcDbEntity
  8
付属金具
  6
CONTINUOUS
 62
     2
100
AcDbLine
 10
905.0000000000049
 20
3876.668597735304
 30
0.0
 11
909.7262244781253
 21
3876.668597735304
 31
0.0
  0
LINE
  5
43A
330
1F
100
AcDbEntity
  8
付属金具
  6
CONTINUOUS
 62
     2
100
AcDbLine
 10
902.00000000001
 20
3876.668597735304
 30
0.0
 11
902.00000000001
 21
3869.319347292083
 31
0.0
  0
LINE
  5
43B
330
1F
100
AcDbEntity
  8
付属金具
  6
CONTINUOUS
 62
     2
100
AcDbLine
 10
907.9999999999877
 20
3876.668597735304
 30
0.0
 11
907.9999999999877
 21
3869.319347292083
 31
0.0
  0
LINE
  5
43C
330
1F
100
AcDbEntity
  8
付属金具
  6
CONTINUOUS
 62
     2
100
AcDbLine
 10
930.000000000011
 20
1994.05006443
 30
0.0
 11
930.000000000011
 21
1958.48680492919
 31
0.0
  0
LINE
  5
43D
330
1F
100
AcDbEntity
  8
付属金具
  6
CONTINUOUS
 62
     2
100
AcDbLine
 10
880.000000000011
 20
1994.050064430001
 30
0.0
 11
880.000000000011
 21
1958.486804929187
 31
0.0
  0
ARC
  5
43E
330
1F
100
AcDbEntity
  8
付属金具
  6
CONTINUOUS
 62
     2
100
AcDbCircle
 10
905.000000000011
 20
1920.248878861733
 30
0.0
 40
15.00000000000001
100
AcDbArc
 50
322.9040503969896
 51
217.0959496030113
  0
ELLIPSE
  5
43F
330
1F
100
AcDbEntity
  8
付属金具
  6
CONTINUOUS
 62
     2
100
AcDbEllipse
 10
905.000000000011
 20
1910.778688230791
 30
0.0
 11
-12.0
 21
1.469576158976824E-15
 31
0.0
210
0.0
220
0.0
230
1.0
 40
0.2210297627753829
 41
3.141592653589793
 42
6.283185307179586
  0
ELLIPSE
  5
440
330
1F
100
AcDbEntity
  8
付属金具
  6
CONTINUOUS
 62
     2
100
AcDbEllipse
 10
905.000000000011
 20
1901.558272645283
 30
0.0
 11
-12.0
 21
1.469576158976824E-15
 31
0.0
210
0.0
220
0.0
230
1.0
 40
0.1736481776669242
 41
0.0
 42
6.283185307179586
  0
LINE
  5
441
330
1F
100
AcDbEntity
  8
付属金具
  6
CONTINUOUS
 62
     2
100
AcDbLine
 10
893.0000000000124
 20
1901.558272645282
 30
0.0
 11
893.0000000000124
 21
1910.99027786969
 31
0.0
  0
LINE
  5
442
330
1F
100
AcDbEntity
  8
付属金具
  6
CONTINUOUS
 62
     2
100
AcDbLine
 10
917.0000000000124
 20
1901.558272645282
 30
0.0
 11
917.0000000000124
 21
1910.990277869689
 31
0.0
  0
LINE
  5
443
330
1F
100
AcDbEntity
  8
付属金具
  6
CONTINUOUS
 62
     2
100
AcDbLine
 10
928.0000000000101
 20
1954.95073020372
 30
0.0
 11
882.0558308131214
 21
1954.949950781922
 31
0.0
  0
LINE
  5
444
330
1F
100
AcDbEntity
  8
付属金具
  6
CONTINUOUS
 62
     2
100
AcDbLine
 10
930.0000000000124
 20
1958.486804929193
 30
0.0
 11
880.0000000000101
 21
1958.486804929181
 31
0.0
  0
ARC
  5
445
330
1F
100
AcDbEntity
  8
付属金具
  6
CONTINUOUS
 62
     2
100
AcDbCircle
 10
882.0000000000092
 20
1952.95073020372
 30
0.0
 40
2.0
100
AcDbArc
 50
88.4003572161888
 51
180.0
  0
LINE
  5
446
330
1F
100
AcDbEntity
  8
付属金具
  6
CONTINUOUS
 62
     2
100
AcDbLine
 10
880.5000000000124
 20
1948.95073020372
 30
0.0
 11
880.000000000011
 21
1948.45073020372
 31
0.0
  0
LINE
  5
447
330
1F
100
AcDbEntity
  8
付属金具
  6
CONTINUOUS
 62
     2
100
AcDbLine
 10
880.0000000000101
 20
1952.95073020372
 30
0.0
 11
880.0000000000101
 21
1948.95073020372
 31
0.0
  0
ARC
  5
448
330
1F
100
AcDbEntity
  8
付属金具
  6
CONTINUOUS
 62
     2
100
AcDbCircle
 10
905.020088785012
 20
1950.833489362619
 30
0.0
 40
22.5
100
AcDbArc
 50
160.1141478017408
 51
167.4257172175327
  0
ARC
  5
449
330
1F
100
AcDbEntity
  8
付属金具
  6
CONTINUOUS
 62
     2
100
AcDbCircle
 10
882.0837462196761
 20
1955.949561071023
 30
0.0
 40
1.0
100
AcDbArc
 50
268.400357216189
 51
347.4257172175328
  0
ARC
  5
44A
330
1F
100
AcDbEntity
  8
付属金具
  6
CONTINUOUS
 62
     2
100
AcDbCircle
 10
928.0000000000101
 20
1952.95073020372
 30
0.0
 40
2.0
100
AcDbArc
 50
0.0
 51
90.00000000000004
  0
LINE
  5
44B
330
1F
100
AcDbEntity
  8
付属金具
  6
CONTINUOUS
 62
     2
100
AcDbLine
 10
929.5000000000124
 20
1948.95073020372
 30
0.0
 11
930.000000000011
 21
1948.45073020372
 31
0.0
  0
LINE
  5
44C
330
1F
100
AcDbEntity
  8
付属金具
  6
CONTINUOUS
 62
     2
100
AcDbLine
 10
930.0000000000101
 20
1952.95073020372
 30
0.0
 11
930.0000000000101
 21
1948.950730203721
 31
0.0
  0
ARC
  5
44D
330
1F
100
AcDbEntity
  8
付属金具
  6
CONTINUOUS
 62
     2
100
AcDbCircle
 10
927.9159929678741
 20
1955.95073020372
 30
0.0
 40
1.0
100
AcDbArc
 50
192.577203333104
 51
270.0000000000002
  0
LINE
  5
44E
330
1F
100
AcDbEntity
  8
付属金具
  6
CONTINUOUS
 62
     2
100
AcDbLine
 10
927.9159929678741
 20
1954.95073020372
 30
0.0
 11
928.0000000000101
 21
1954.95073020372
 31
0.0
  0
ARC
  5
44F
330
1F
100
AcDbEntity
  8
付属金具
  6
CONTINUOUS
 62
     2
100
AcDbCircle
 10
904.9799112150082
 20
1950.833489362619
 30
0.0
 40
22.5
100
AcDbArc
 50
12.57720333310406
 51
19.88585219829311
  0
ELLIPSE
  5
450
330
1F
100
AcDbEntity
  8
付属金具
  6
CONTINUOUS
 62
     2
100
AcDbEllipse
 10
905.0000000000101
 20
2000.58044566679
 30
0.0
 11
-7.500000000000004
 21
9.184850993605154E-16
 31
0.0
210
0.0
220
0.0
230
1.0
 40
0.9636802955882259
 41
0.0
 42
6.283185307179586
  0
LINE
  5
451
330
1F
100
AcDbEntity
  8
付属金具
  6
CONTINUOUS
 62
     2
100
AcDbLine
 10
912.5000000000092
 20
1988.792790390406
 30
0.0
 11
912.5000000000092
 21
2000.58044566679
 31
0.0
  0
LINE
  5
452
330
1F
100
AcDbEntity
  8
付属金具
  6
CONTINUOUS
 62
     2
100
AcDbLine
 10
897.5000000000101
 20
1988.792790390406
 30
0.0
 11
897.5000000000101
 21
2000.58044566679
 31
0.0
  0
ARC
  5
453
330
1F
100
AcDbEntity
  8
付属金具
  6
CONTINUOUS
 62
     2
100
AcDbCircle
 10
882.0000000000101
 20
1994.050064430001
 30
0.0
 40
2.0
100
AcDbArc
 50
97.46279399830908
 51
180.0
  0
ARC
  5
454
330
1F
100
AcDbEntity
  8
付属金具
  6
CONTINUOUS
 62
     2
100
AcDbCircle
 10
928.0000000000101
 20
1994.05006443
 30
0.0
 40
2.0
100
AcDbArc
 50
0.0
 51
82.53720600166474
  0
ELLIPSE
  5
455
330
1F
100
AcDbEntity
  8
付属金具
  6
CONTINUOUS
 62
     2
100
AcDbEllipse
 10
905.0000000000101
 20
1988.792790390406
 30
0.0
 11
-7.500000000000004
 21
9.184850993605154E-16
 31
0.0
210
0.0
220
0.0
230
1.0
 40
0.9636802955882259
 41
0.0
 42
3.141592653589793
  0
ARC
  5
456
330
1F
100
AcDbEntity
  8
付属金具
  6
CONTINUOUS
 62
     2
100
AcDbCircle
 10
905.000000000011
 20
2068.147391797715
 30
0.0
 40
154.6227815628025
100
AcDbArc
 50
264.9181466667475
 51
275.0818533332528
  0
ARC
  5
457
330
1F
100
AcDbEntity
  8
付属金具
  6
CONTINUOUS
 62
     2
100
AcDbCircle
 10
905.0000000000101
 20
1818.466731096814
 30
0.0
 40
179.0833333331876
100
AcDbArc
 50
92.40024603941616
 51
97.46279399833533
  0
ARC
  5
458
330
1F
100
AcDbEntity
  8
付属金具
  6
CONTINUOUS
 62
     2
100
AcDbCircle
 10
905.0000000000101
 20
1818.466731096814
 30
0.0
 40
179.0833333331876
100
AcDbArc
 50
82.53720600166474
 51
87.59975396058384
  0
CIRCLE
  5
459
330
1F
100
AcDbEntity
  8
付属金具
  6
CONTINUOUS
 62
     2
100
AcDbCircle
 10
905.0000000000101
 20
1972.550730203723
 30
0.0
 40
5.099999999999
  0
LINE
  5
45A
330
1F
100
AcDbEntity
  8
付属金具
  6
CONTINUOUS
 62
     2
100
AcDbLine
 10
905.000000000011
 20
1948.95073020372
 30
0.0
 11
880.0000000000101
 21
1948.95073020372
 31
0.0
  0
LINE
  5
45B
330
1F
100
AcDbEntity
  8
付属金具
  6
CONTINUOUS
 62
     2
100
AcDbLine
 10
930.0000000000101
 20
1948.95073020372
 30
0.0
 11
905.000000000011
 21
1948.95073020372
 31
0.0
  0
LINE
  5
45C
330
1F
100
AcDbEntity
  8
付属金具
  6
CONTINUOUS
 62
     2
100
AcDbLine
 10
880.000000000011
 20
1948.45073020372
 30
0.0
 11
880.000000000011
 21
1857.5
 31
0.0
  0
LINE
  5
45D
330
1F
100
AcDbEntity
  8
付属金具
  6
CONTINUOUS
 62
     2
100
AcDbLine
 10
930.000000000011
 20
1948.45073020372
 30
0.0
 11
930.000000000011
 21
1857.5
 31
0.0
  0
POLYLINE
  5
45E
330
1F
100
AcDbEntity
  8
付属金具
  6
CONTINUOUS
 62
     2
100
AcDb2dPolyline
 66
     1
 10
0.0
 20
0.0
 30
0.0
 70
   128
  0
VERTEX
  5
45F
330
45E
100
AcDbEntity
  8
付属金具
  6
CONTINUOUS
 62
     2
100
AcDbVertex
100
AcDb2dVertex
 10
2325.017563042749
 20
1967.548769419419
 30
0.0
  0
VERTEX
  5
460
330
45E
100
AcDbEntity
  8
付属金具
  6
CONTINUOUS
 62
     2
100
AcDbVertex
100
AcDb2dVertex
 10
2325.017565617755
 20
1967.544956282268
 30
0.0
  0
VERTEX
  5
461
330
45E
100
AcDbEntity
  8
付属金具
  6
CONTINUOUS
 62
     2
100
AcDbVertex
100
AcDb2dVertex
 10
2325.017570842467
 20
1967.534128221328
 30
0.0
  0
VERTEX
  5
462
330
45E
100
AcDbEntity
  8
付属金具
  6
CONTINUOUS
 62
     2
100
AcDbVertex
100
AcDb2dVertex
 10
2325.017574966432
 20
1967.517202262371
 30
0.0
  0
VERTEX
  5
463
330
45E
100
AcDbEntity
  8
付属金具
  6
CONTINUOUS
 62
     2
100
AcDbVertex
100
AcDb2dVertex
 10
2325.017574239191
 20
1967.495095431167
 30
0.0
  0
VERTEX
  5
464
330
45E
100
AcDbEntity
  8
付属金具
  6
CONTINUOUS
 62
     2
100
AcDbVertex
100
AcDb2dVertex
 10
2325.017564910289
 20
1967.468724753488
 30
0.0
  0
VERTEX
  5
465
330
45E
100
AcDbEntity
  8
付属金具
  6
CONTINUOUS
 62
     2
100
AcDbVertex
100
AcDb2dVertex
 10
2325.01754322927
 20
1967.439007255105
 30
0.0
  0
VERTEX
  5
466
330
45E
100
AcDbEntity
  8
付属金具
  6
CONTINUOUS
 62
     2
100
AcDbVertex
100
AcDb2dVertex
 10
2325.017505445677
 20
1967.406859961789
 30
0.0
  0
VERTEX
  5
467
330
45E
100
AcDbEntity
  8
付属金具
  6
CONTINUOUS
 62
     2
100
AcDbVertex
100
AcDb2dVertex
 10
2325.017447809055
 20
1967.373199899311
 30
0.0
  0
VERTEX
  5
468
330
45E
100
AcDbEntity
  8
付属金具
  6
CONTINUOUS
 62
     2
100
AcDbVertex
100
AcDb2dVertex
 10
2325.017366568946
 20
1967.338944093444
 30
0.0
  0
VERTEX
  5
469
330
45E
100
AcDbEntity
  8
付属金具
  6
CONTINUOUS
 62
     2
100
AcDbVertex
100
AcDb2dVertex
 10
2325.017257974896
 20
1967.305009569955
 30
0.0
  0
VERTEX
  5
46A
330
45E
100
AcDbEntity
  8
付属金具
  6
CONTINUOUS
 62
     2
100
AcDbVertex
100
AcDb2dVertex
 10
2325.017118276447
 20
1967.272313354619
 30
0.0
  0
VERTEX
  5
46B
330
45E
100
AcDbEntity
  8
付属金具
  6
CONTINUOUS
 62
     2
100
AcDbVertex
100
AcDb2dVertex
 10
2325.016952104258
 20
1967.24275435245
 30
0.0
  0
VERTEX
  5
46C
330
45E
100
AcDbEntity
  8
付属金具
  6
CONTINUOUS
 62
     2
100
AcDbVertex
100
AcDb2dVertex
 10
2325.016755093211
 20
1967.214957675631
 30
0.0
  0
VERTEX
  5
46D
330
45E
100
AcDbEntity
  8
付属金具
  6
CONTINUOUS
 62
     2
100
AcDbVertex
100
AcDb2dVertex
 10
2325.016528558203
 20
1967.188697344639
 30
0.0
  0
VERTEX
  5
46E
330
45E
100
AcDbEntity
  8
付属金具
  6
CONTINUOUS
 62
     2
100
AcDbVertex
100
AcDb2dVertex
 10
2325.016273814132
 20
1967.163747379953
 30
0.0
  0
VERTEX
  5
46F
330
45E
100
AcDbEntity
  8
付属金具
  6
CONTINUOUS
 62
     2
100
AcDbVertex
100
AcDb2dVertex
 10
2325.015992175892
 20
1967.13988180205
 30
0.0
  0
VERTEX
  5
470
330
45E
100
AcDbEntity
  8
付属金具
  6
CONTINUOUS
 62
     2
100
AcDbVertex
100
AcDb2dVertex
 10
2325.015684958382
 20
1967.116874631407
 30
0.0
  0
VERTEX
  5
471
330
45E
100
AcDbEntity
  8
付属金具
  6
CONTINUOUS
 62
     2
100
AcDbVertex
100
AcDb2dVertex
 10
2325.015353476498
 20
1967.094499888502
 30
0.0
  0
VERTEX
  5
472
330
45E
100
AcDbEntity
  8
付属金具
  6
CONTINUOUS
 62
     2
100
AcDbVertex
100
AcDb2dVertex
 10
2325.014999045135
 20
1967.072531593813
 30
0.0
  0
VERTEX
  5
473
330
45E
100
AcDbEntity
  8
付属金具
  6
CONTINUOUS
 62
     2
100
AcDbVertex
100
AcDb2dVertex
 10
2325.014622979192
 20
1967.050743767818
 30
0.0
  0
VERTEX
  5
474
330
45E
100
AcDbEntity
  8
付属金具
  6
CONTINUOUS
 62
     2
100
AcDbVertex
100
AcDb2dVertex
 10
2325.014226593564
 20
1967.028910430994
 30
0.0
  0
VERTEX
  5
475
330
45E
100
AcDbEntity
  8
付属金具
  6
CONTINUOUS
 62
     2
100
AcDbVertex
100
AcDb2dVertex
 10
2325.013811203149
 20
1967.006805603819
 30
0.0
  0
VERTEX
  5
476
330
45E
100
AcDbEntity
  8
付属金具
  6
CONTINUOUS
 62
     2
100
AcDbVertex
100
AcDb2dVertex
 10
2325.013438970567
 20
1966.987411038311
 30
0.0
  0
VERTEX
  5
477
330
45E
100
AcDbEntity
  8
付属金具
  6
CONTINUOUS
 62
     2
100
AcDbVertex
100
AcDb2dVertex
 10
2325.013052304307
 20
1966.967670688823
 30
0.0
  0
VERTEX
  5
478
330
45E
100
AcDbEntity
  8
付属金具
  6
CONTINUOUS
 62
     2
100
AcDbVertex
100
AcDb2dVertex
 10
2325.012649884602
 20
1966.947607556906
 30
0.0
  0
VERTEX
  5
479
330
45E
100
AcDbEntity
  8
付属金具
  6
CONTINUOUS
 62
     2
100
AcDbVertex
100
AcDb2dVertex
 10
2325.012230391685
 20
1966.927244644114
 30
0.0
  0
VERTEX
  5
47A
330
45E
100
AcDbEntity
  8
付属金具
  6
CONTINUOUS
 62
     2
100
AcDbVertex
100
AcDb2dVertex
 10
2325.01179250579
 20
1966.906604951997
 30
0.0
  0
VERTEX
  5
47B
330
45E
100
AcDbEntity
  8
付属金具
  6
CONTINUOUS
 62
     2
100
AcDbVertex
100
AcDb2dVertex
 10
2325.011334907151
 20
1966.885711482109
 30
0.0
  0
VERTEX
  5
47C
330
45E
100
AcDbEntity
  8
付属金具
  6
CONTINUOUS
 62
     2
100
AcDbVertex
100
AcDb2dVertex
 10
2325.010856276
 20
1966.864587236001
 30
0.0
  0
VERTEX
  5
47D
330
45E
100
AcDbEntity
  8
付属金具
  6
CONTINUOUS
 62
     2
100
AcDbVertex
100
AcDb2dVertex
 10
2325.010355292571
 20
1966.843255215226
 30
0.0
  0
VERTEX
  5
47E
330
45E
100
AcDbEntity
  8
付属金具
  6
CONTINUOUS
 62
     2
100
AcDbVertex
100
AcDb2dVertex
 10
2325.009830637096
 20
1966.821738421336
 30
0.0
  0
VERTEX
  5
47F
330
45E
100
AcDbEntity
  8
付属金具
  6
CONTINUOUS
 62
     2
100
AcDbVertex
100
AcDb2dVertex
 10
2325.009280989811
 20
1966.800059855882
 30
0.0
  0
VERTEX
  5
480
330
45E
100
AcDbEntity
  8
付属金具
  6
CONTINUOUS
 62
     2
100
AcDbVertex
100
AcDb2dVertex
 10
2325.008705030948
 20
1966.778242520419
 30
0.0
  0
VERTEX
  5
481
330
45E
100
AcDbEntity
  8
付属金具
  6
CONTINUOUS
 62
     2
100
AcDbVertex
100
AcDb2dVertex
 10
2325.008236886984
 20
1966.761138671601
 30
0.0
  0
VERTEX
  5
482
330
45E
100
AcDbEntity
  8
付属金具
  6
CONTINUOUS
 62
     2
100
AcDbVertex
100
AcDb2dVertex
 10
2325.007754811124
 20
1966.744026292875
 30
0.0
  0
VERTEX
  5
483
330
45E
100
AcDbEntity
  8
付属金具
  6
CONTINUOUS
 62
     2
100
AcDbVertex
100
AcDb2dVertex
 10
2325.007261708496
 20
1966.726967397288
 30
0.0
  0
VERTEX
  5
484
330
45E
100
AcDbEntity
  8
付属金具
  6
CONTINUOUS
 62
     2
100
AcDbVertex
100
AcDb2dVertex
 10
2325.006760484231
 20
1966.710023997884
 30
0.0
  0
VERTEX
  5
485
330
45E
100
AcDbEntity
  8
付属金具
  6
CONTINUOUS
 62
     2
100
AcDbVertex
100
AcDb2dVertex
 10
2325.006254043458
 20
1966.693258107712
 30
0.0
  0
VERTEX
  5
486
330
45E
100
AcDbEntity
  8
付属金具
  6
CONTINUOUS
 62
     2
100
AcDbVertex
100
AcDb2dVertex
 10
2325.005745291308
 20
1966.676731739817
 30
0.0
  0
VERTEX
  5
487
330
45E
100
AcDbEntity
  8
付属金具
  6
CONTINUOUS
 62
     2
100
AcDbVertex
100
AcDb2dVertex
 10
2325.005237132911
 20
1966.660506907246
 30
0.0
  0
VERTEX
  5
488
330
45E
100
AcDbEntity
  8
付属金具
  6
CONTINUOUS
 62
     2
100
AcDbVertex
100
AcDb2dVertex
 10
2325.004732473396
 20
1966.644645623044
 30
0.0
  0
VERTEX
  5
489
330
45E
100
AcDbEntity
  8
付属金具
  6
CONTINUOUS
 62
     2
100
AcDbVertex
100
AcDb2dVertex
 10
2325.004234217894
 20
1966.629209900258
 30
0.0
  0
VERTEX
  5
48A
330
45E
100
AcDbEntity
  8
付属金具
  6
CONTINUOUS
 62
     2
100
AcDbVertex
100
AcDb2dVertex
 10
2325.003745271535
 20
1966.614261751934
 30
0.0
  0
VERTEX
  5
48B
330
45E
100
AcDbEntity
  8
付属金具
  6
CONTINUOUS
 62
     2
100
AcDbVertex
100
AcDb2dVertex
 10
2325.003268539448
 20
1966.599863191119
 30
0.0
  0
VERTEX
  5
48C
330
45E
100
AcDbEntity
  8
付属金具
  6
CONTINUOUS
 62
     2
100
AcDbVertex
100
AcDb2dVertex
 10
2325.00297715141
 20
1966.591148662224
 30
0.0
  0
VERTEX
  5
48D
330
45E
100
AcDbEntity
  8
付属金具
  6
CONTINUOUS
 62
     2
100
AcDbVertex
100
AcDb2dVertex
 10
2325.002686388875
 20
1966.582542416101
 30
0.0
  0
VERTEX
  5
48E
330
45E
100
AcDbEntity
  8
付属金具
  6
CONTINUOUS
 62
     2
100
AcDbVertex
100
AcDb2dVertex
 10
2325.002390974365
 20
1966.573913951788
 30
0.0
  0
VERTEX
  5
48F
330
45E
100
AcDbEntity
  8
付属金具
  6
CONTINUOUS
 62
     2
100
AcDbVertex
100
AcDb2dVertex
 10
2325.002085630403
 20
1966.565132768324
 30
0.0
  0
VERTEX
  5
490
330
45E
100
AcDbEntity
  8
付属金具
  6
CONTINUOUS
 62
     2
100
AcDbVertex
100
AcDb2dVertex
 10
2325.001765079507
 20
1966.556068364748
 30
0.0
  0
VERTEX
  5
491
330
45E
100
AcDbEntity
  8
付属金具
  6
CONTINUOUS
 62
     2
100
AcDbVertex
100
AcDb2dVertex
 10
2325.001424044201
 20
1966.546590240099
 30
0.0
  0
VERTEX
  5
492
330
45E
100
AcDbEntity
  8
付属金具
  6
CONTINUOUS
 62
     2
100
AcDbVertex
100
AcDb2dVertex
 10
2325.001057247005
 20
1966.536567893415
 30
0.0
  0
VERTEX
  5
493
330
45E
100
AcDbEntity
  8
付属金具
  6
CONTINUOUS
 62
     2
100
AcDbVertex
100
AcDb2dVertex
 10
2325.00065941044
 20
1966.525870823737
 30
0.0
  0
VERTEX
  5
494
330
45E
100
AcDbEntity
  8
付属金具
  6
CONTINUOUS
 62
     2
100
AcDbVertex
100
AcDb2dVertex
 10
2325.000225257028
 20
1966.514368530102
 30
0.0
  0
VERTEX
  5
495
330
45E
100
AcDbEntity
  8
付属金具
  6
CONTINUOUS
 62
     2
100
AcDbVertex
100
AcDb2dVertex
 10
2324.999749509291
 20
1966.50193051155
 30
0.0
  0
VERTEX
  5
496
330
45E
100
AcDbEntity
  8
付属金具
  6
CONTINUOUS
 62
     2
100
AcDbVertex
100
AcDb2dVertex
 10
2324.999226889749
 20
1966.488426267119
 30
0.0
  0
VERTEX
  5
497
330
45E
100
AcDbEntity
  8
付属金具
  6
CONTINUOUS
 62
     2
100
AcDbVertex
100
AcDb2dVertex
 10
2324.999039265314
 20
1966.483611351738
 30
0.0
  0
VERTEX
  5
498
330
45E
100
AcDbEntity
  8
付属金具
  6
CONTINUOUS
 62
     2
100
AcDbVertex
100
AcDb2dVertex
 10
2324.998849820729
 20
1966.478763108672
 30
0.0
  0
VERTEX
  5
499
330
45E
100
AcDbEntity
  8
付属金具
  6
CONTINUOUS
 62
     2
100
AcDbVertex
100
AcDb2dVertex
 10
2324.998662704543
 20
1966.473985180517
 30
0.0
  0
VERTEX
  5
49A
330
45E
100
AcDbEntity
  8
付属金具
  6
CONTINUOUS
 62
     2
100
AcDbVertex
100
AcDb2dVertex
 10
2324.998482065304
 20
1966.469381209871
 30
0.0
  0
VERTEX
  5
49B
330
45E
100
AcDbEntity
  8
付属金具
  6
CONTINUOUS
 62
     2
100
AcDbVertex
100
AcDb2dVertex
 10
2324.998312051561
 20
1966.46505483933
 30
0.0
  0
VERTEX
  5
49C
330
45E
100
AcDbEntity
  8
付属金具
  6
CONTINUOUS
 62
     2
100
AcDbVertex
100
AcDb2dVertex
 10
2324.998156811863
 20
1966.461109711491
 30
0.0
  0
VERTEX
  5
49D
330
45E
100
AcDbEntity
  8
付属金具
  6
CONTINUOUS
 62
     2
100
AcDbVertex
100
AcDb2dVertex
 10
2324.998020494758
 20
1966.457649468951
 30
0.0
  0
VERTEX
  5
49E
330
45E
100
AcDbEntity
  8
付属金具
  6
CONTINUOUS
 62
     2
100
AcDbVertex
100
AcDb2dVertex
 10
2324.997907248795
 20
1966.454777754308
 30
0.0
  0
VERTEX
  5
49F
330
45E
100
AcDbEntity
  8
付属金具
  6
CONTINUOUS
 62
     2
100
AcDbVertex
100
AcDb2dVertex
 10
2324.997821222524
 20
1966.452598210156
 30
0.0
  0
VERTEX
  5
4A0
330
45E
100
AcDbEntity
  8
付属金具
  6
CONTINUOUS
 62
     2
100
AcDbVertex
100
AcDb2dVertex
 10
2324.997766564491
 20
1966.451214479095
 30
0.0
  0
VERTEX
  5
4A1
330
45E
100
AcDbEntity
  8
付属金具
  6
CONTINUOUS
 62
     2
100
AcDbVertex
100
AcDb2dVertex
 10
2324.997747423248
 20
1966.450730203719
 30
0.0
  0
SEQEND
  5
4A2
330
45E
100
AcDbEntity
  8
付属金具
  6
CONTINUOUS
 62
     2
  0
ARC
  5
4A3
330
1F
100
AcDbEntity
  8
付属金具
  6
CONTINUOUS
 62
     2
100
AcDbCircle
 10
2382.107634770288
 20
1885.944222140094
 30
0.0
 40
4.0
100
AcDbArc
 50
90.00000000000004
 51
152.0000000000157
  0
LINE
  5
4A4
330
1F
100
AcDbEntity
  8
付属金具
  6
CONTINUOUS
 62
     2
100
AcDbLine
 10
2397.168597735204
 20
1898.785306572668
 30
0.0
 11
2397.168597735204
 21
1887.103137707523
 31
0.0
  0
ARC
  5
4A5
330
1F
100
AcDbEntity
  8
付属金具
  6
CONTINUOUS
 62
     2
100
AcDbCircle
 10
2379.617513245792
 20
1892.944222140096
 30
0.0
 40
18.55108448941109
100
AcDbArc
 50
342.298206924487
 51
17.70179307551334
  0
ARC
  5
4A6
330
1F
100
AcDbEntity
  8
付属金具
  6
CONTINUOUS
 62
     2
100
AcDbCircle
 10
2382.668597735204
 20
1888.217997661975
 30
0.0
 40
0.5
100
AcDbArc
 50
180.0
 51
266.9147122891804
  0
ARC
  5
4A7
330
1F
100
AcDbEntity
  8
付属金具
  6
CONTINUOUS
 62
     2
100
AcDbCircle
 10
2396.813914373981
 20
1887.45555750446
 30
0.0
 40
0.5
100
AcDbArc
 50
266.9147122891804
 51
342.2982069244847
  0
LINE
  5
4A8
330
1F
100
AcDbEntity
  8
付属金具
  6
CONTINUOUS
 62
     2
100
AcDbLine
 10
2382.64168653067
 20
1887.71872240015
 30
0.0
 11
2396.787003169448
 21
1886.956282242635
 31
0.0
  0
LINE
  5
4A9
330
1F
100
AcDbEntity
  8
付属金具
  6
CONTINUOUS
 62
     2
100
AcDbLine
 10
2318.925576107131
 20
1981.565188173492
 30
0.0
 11
2254.03088677923
 21
1993.007872806695
 31
0.0
  0
LINE
  5
4AA
330
1F
100
AcDbEntity
  8
付属金具
  6
CONTINUOUS
 62
     2
100
AcDbLine
 10
2232.196642246251
 20
1937.545865254327
 30
0.0
 11
2324.999999999955
 21
1921.182129382008
 31
0.0
  0
LINE
  5
4AB
330
1F
100
AcDbEntity
  8
付属金具
  6
CONTINUOUS
 62
     2
100
AcDbLine
 10
2261.847710805345
 20
1901.85478350395
 30
0.0
 11
2324.999999999955
 21
1890.719331025436
 31
0.0
  0
ARC
  5
4AC
330
1F
100
AcDbEntity
  8
付属金具
  6
CONTINUOUS
 62
     2
100
AcDbCircle
 10
2382.668597735204
 20
1897.670446618215
 30
0.0
 40
0.5
100
AcDbArc
 50
93.08528771081971
 51
180.0
  0
ARC
  5
4AD
330
1F
100
AcDbEntity
  8
付属金具
  6
CONTINUOUS
 62
     2
100
AcDbCircle
 10
2396.813914373984
 20
1898.432886775732
 30
0.0
 40
0.5
100
AcDbArc
 50
17.70179307551546
 51
93.08528771081971
  0
LINE
  5
4AE
330
1F
100
AcDbEntity
  8
付属金具
  6
CONTINUOUS
 62
     2
100
AcDbLine
 10
2382.64168653067
 20
1898.16972188004
 30
0.0
 11
2396.787003169448
 21
1898.932162037557
 31
0.0
  0
ARC
  5
4AF
330
1F
100
AcDbEntity
  8
付属金具
  6
CONTINUOUS
 62
     2
100
AcDbCircle
 10
2372.999999999957
 20
1952.95073020372
 30
0.0
 40
2.0
100
AcDbArc
 50
0.0
 51
91.59964278381122
  0
LINE
  5
4B0
330
1F
100
AcDbEntity
  8
付属金具
  6
CONTINUOUS
 62
     2
100
AcDbLine
 10
2374.499999999955
 20
1948.95073020372
 30
0.0
 11
2374.999999999955
 21
1948.45073020372
 31
0.0
  0
LINE
  5
4B1
330
1F
100
AcDbEntity
  8
付属金具
  6
CONTINUOUS
 62
     2
100
AcDbLine
 10
2374.999999999957
 20
1952.95073020372
 30
0.0
 11
2374.999999999957
 21
1948.95073020372
 31
0.0
  0
ARC
  5
4B2
330
1F
100
AcDbEntity
  8
付属金具
  6
CONTINUOUS
 62
     2
100
AcDbCircle
 10
2372.91625378029
 20
1955.949561071023
 30
0.0
 40
1.0
100
AcDbArc
 50
192.5742827824677
 51
271.5996427838118
  0
LINE
  5
4B3
330
1F
100
AcDbEntity
  8
付属金具
  6
CONTINUOUS
 62
     2
100
AcDbLine
 10
2325.499999999955
 20
1948.95073020372
 30
0.0
 11
2324.999999999955
 21
1948.45073020372
 31
0.0
  0
LINE
  5
4B4
330
1F
100
AcDbEntity
  8
付属金具
  6
CONTINUOUS
 62
     2
100
AcDbLine
 10
2327.084007032092
 20
1954.95073020372
 30
0.0
 11
2326.999999999957
 21
1954.95073020372
 31
0.0
  0
ARC
  5
4B5
330
1F
100
AcDbEntity
  8
付属金具
  6
CONTINUOUS
 62
     2
100
AcDbCircle
 10
2327.084007032092
 20
1955.95073020372
 30
0.0
 40
1.0
100
AcDbArc
 50
270.0000000000002
 51
347.4227966668945
  0
LINE
  5
4B6
330
1F
100
AcDbEntity
  8
付属金具
  6
CONTINUOUS
 62
     2
100
AcDbLine
 10
2324.999999999957
 20
1952.95073020372
 30
0.0
 11
2324.999999999957
 21
1948.950730203721
 31
0.0
  0
ARC
  5
4B7
330
1F
100
AcDbEntity
  8
付属金具
  6
CONTINUOUS
 62
     2
100
AcDbCircle
 10
2326.999999999957
 20
1952.95073020372
 30
0.0
 40
2.0
100
AcDbArc
 50
90.00000000000004
 51
180.0
  0
ARC
  5
4B8
330
1F
100
AcDbEntity
  8
付属金具
  6
CONTINUOUS
 62
     2
100
AcDbCircle
 10
2349.999999999952
 20
1818.466731096811
 30
0.0
 40
179.0833333331876
100
AcDbArc
 50
82.53720600166491
 51
97.46279399833509
  0
ARC
  5
4B9
330
1F
100
AcDbEntity
  8
付属金具
  6
CONTINUOUS
 62
     2
100
AcDbCircle
 10
2349.999999999952
 20
1818.466731096811
 30
0.0
 40
179.0833333331876
100
AcDbArc
 50
82.53720600166491
 51
97.46279399833509
  0
ARC
  5
4BA
330
1F
100
AcDbEntity
  8
付属金具
  6
CONTINUOUS
 62
     2
100
AcDbCircle
 10
2372.999999999959
 20
1994.050064429996
 30
0.0
 40
2.0
100
AcDbArc
 50
0.0
 51
90.00000000000004
  0
ARC
  5
4BB
330
1F
100
AcDbEntity
  8
付属金具
  6
CONTINUOUS
 62
     2
100
AcDbCircle
 10
2372.999999999959
 20
1994.050064429996
 30
0.0
 40
2.0
100
AcDbArc
 50
0.0
 51
90.00000000000004
  0
LINE
  5
4BC
330
1F
100
AcDbEntity
  8
付属金具
  6
CONTINUOUS
 62
     2
100
AcDbLine
 10
2374.999999999959
 20
1965.185534739965
 30
0.0
 11
2374.999999999959
 21
1994.050064429996
 31
0.0
  0
LINE
  5
4BD
330
1F
100
AcDbEntity
  8
付属金具
  6
CONTINUOUS
 62
     2
100
AcDbLine
 10
2374.999999999959
 20
1965.185534739965
 30
0.0
 11
2374.999999999959
 21
1994.050064429996
 31
0.0
  0
LINE
  5
4BE
330
1F
100
AcDbEntity
  8
付属金具
  6
CONTINUOUS
 62
     2
100
AcDbLine
 10
2320.720341316141
 20
1988.864422232251
 30
0.0
 11
2321.935878559807
 21
1995.758076503338
 31
0.0
  0
ARC
  5
4BF
330
1F
100
AcDbEntity
  8
付属金具
  6
CONTINUOUS
 62
     2
100
AcDbCircle
 10
2321.443474683304
 20
1995.844900592169
 30
0.0
 40
0.5
100
AcDbArc
 50
350.0000000000475
 51
79.99999999999613
  0
ARC
  5
4C0
330
1F
100
AcDbEntity
  8
付属金具
  6
CONTINUOUS
 62
     2
100
AcDbCircle
 10
2321.994161992148
 20
1993.209233031972
 30
0.0
 40
0.5
100
AcDbArc
 50
170.0000000000474
 51
259.9999999999962
  0
ARC
  5
4C1
330
1F
100
AcDbEntity
  8
付属金具
  6
CONTINUOUS
 62
     2
100
AcDbCircle
 10
2319.012400195965
 20
1982.057592049996
 30
0.0
 40
0.5
100
AcDbArc
 50
259.9999999999962
 51
349.9999999999964
  0
ARC
  5
4C2
330
1F
100
AcDbEntity
  8
付属金具
  6
CONTINUOUS
 62
     2
100
AcDbCircle
 10
2320.431328393146
 20
1984.345963254862
 30
0.0
 40
0.5
100
AcDbArc
 50
79.99999999999613
 51
170.0000000000474
  0
LINE
  5
4C3
330
1F
100
AcDbEntity
  8
付属金具
  6
CONTINUOUS
 62
     2
100
AcDbLine
 10
2319.504804072475
 20
1981.970767961164
 30
0.0
 11
2320.720341316143
 21
1988.864422232251
 31
0.0
  0
ARC
  5
4C4
330
1F
100
AcDbEntity
  8
付属金具
  6
CONTINUOUS
 62
     2
100
AcDbCircle
 10
2330.069440018166
 20
1972.550730203719
 30
0.0
 40
7.55007125855991
100
AcDbArc
 50
137.5077625694678
 51
222.4922374305324
  0
ARC
  5
4C5
330
1F
100
AcDbEntity
  8
付属金具
  6
CONTINUOUS
 62
     2
100
AcDbCircle
 10
2326.999999999955
 20
1994.050064429996
 30
0.0
 40
2.0
100
AcDbArc
 50
90.00000000000004
 51
180.0
  0
ARC
  5
4C6
330
1F
100
AcDbEntity
  8
付属金具
  6
CONTINUOUS
 62
     2
100
AcDbCircle
 10
2326.999999999955
 20
1994.050064429996
 30
0.0
 40
2.0
100
AcDbArc
 50
90.00000000000004
 51
180.0
  0
LINE
  5
4C7
330
1F
100
AcDbEntity
  8
付属金具
  6
CONTINUOUS
 62
     2
100
AcDbLine
 10
2324.999999999955
 20
1977.65073020372
 30
0.0
 11
2324.502252576617
 21
1977.65073020372
 31
0.0
  0
ARC
  5
4C8
330
1F
100
AcDbEntity
  8
付属金具
  6
CONTINUOUS
 62
     2
100
AcDbCircle
 10
2303.334229433686
 20
1909.770990112396
 30
0.0
 40
78.0
100
AcDbArc
 50
160.1509730893505
 51
174.7549748694838
  0
LINE
  5
4C9
330
1F
100
AcDbEntity
  8
付属金具
  6
CONTINUOUS
 62
     2
100
AcDbLine
 10
2252.070284598552
 20
1902.234114569559
 30
0.0
 11
2230.404514032281
 21
1906.054374478233
 31
0.0
  0
LINE
  5
4CA
330
1F
100
AcDbEntity
  8
付属金具
  6
CONTINUOUS
 62
     2
100
AcDbLine
 10
2230.404514032281
 20
1906.054374478232
 30
0.0
 11
2252.070284598552
 21
1902.23411456956
 31
0.0
  0
LINE
  5
4CB
330
1F
100
AcDbEntity
  8
付属金具
  6
CONTINUOUS
 62
     2
100
AcDbLine
 10
2252.070284598552
 20
1902.234114569559
 30
0.0
 11
2253.155348173685
 21
1902.629045413194
 31
0.0
  0
LINE
  5
4CC
330
1F
100
AcDbEntity
  8
付属金具
  6
CONTINUOUS
 62
     2
100
AcDbLine
 10
2252.070284598551
 20
1902.23411456956
 30
0.0
 11
2253.155348173683
 21
1902.629045413195
 31
0.0
  0
LINE
  5
4CD
330
1F
100
AcDbEntity
  8
付属金具
  6
CONTINUOUS
 62
     2
100
AcDbLine
 10
2257.402914443251
 20
1909.441879325976
 30
0.0
 11
2261.847710805345
 21
1901.85478350395
 31
0.0
  0
LINE
  5
4CE
330
1F
100
AcDbEntity
  8
付属金具
  6
CONTINUOUS
 62
     2
100
AcDbLine
 10
2230.404514032284
 20
1906.054374478232
 30
0.0
 11
2229.519962101392
 21
1906.7966016772
 31
0.0
  0
LINE
  5
4CF
330
1F
100
AcDbEntity
  8
付属金具
  6
CONTINUOUS
 62
     2
100
AcDbLine
 10
2230.404514032281
 20
1906.054374478232
 30
0.0
 11
2229.51996210139
 21
1906.7966016772
 31
0.0
  0
ARC
  5
4D0
330
1F
100
AcDbEntity
  8
付属金具
  6
CONTINUOUS
 62
     2
100
AcDbCircle
 10
2227.65245141173
 20
1916.718541870775
 30
0.0
 40
2.0
100
AcDbArc
 50
174.7549748694831
 51
259.9999999999939
  0
ARC
  5
4D1
330
1F
100
AcDbEntity
  8
付属金具
  6
CONTINUOUS
 62
     2
100
AcDbCircle
 10
2231.849345890916
 20
1935.576249748303
 30
0.0
 40
2.0
100
AcDbArc
 50
79.99999999999385
 51
160.1509730893505
  0
LINE
  5
4D2
330
1F
100
AcDbEntity
  8
付属金具
  6
CONTINUOUS
 62
     2
100
AcDbLine
 10
2253.146757458812
 20
1994.179195272207
 30
0.0
 11
2255.404183768481
 21
2006.981696061364
 31
0.0
  0
ARC
  5
4D3
330
1F
100
AcDbEntity
  8
付属金具
  6
CONTINUOUS
 62
     2
100
AcDbCircle
 10
2254.131565211824
 20
1994.005547094539
 30
0.0
 40
1.0
100
AcDbArc
 50
169.9999999999962
 51
259.9999999999962
  0
ARC
  5
4D4
330
1F
100
AcDbEntity
  8
付属金具
  6
CONTINUOUS
 62
     2
100
AcDbCircle
 10
2256.388991521494
 20
2006.808047883697
 30
0.0
 40
1.0
100
AcDbArc
 50
79.99999999999613
 51
169.9999999999962
  0
LINE
  5
4D5
330
1F
100
AcDbEntity
  8
付属金具
  6
CONTINUOUS
 62
     2
100
AcDbLine
 10
2324.99999999996
 20
1958.486804929187
 30
0.0
 11
2324.99999999996
 21
1966.45073020372
 31
0.0
  0
LINE
  5
4D6
330
1F
100
AcDbEntity
  8
付属金具
  6
CONTINUOUS
 62
     2
100
AcDbLine
 10
2324.999999999955
 20
1958.486804929187
 30
0.0
 11
2324.999999999954
 21
1972.550730203722
 31
0.0
  0
LINE
  5
4D7
330
1F
100
AcDbEntity
  8
付属金具
  6
CONTINUOUS
 62
     2
100
AcDbLine
 10
2321.907337903316
 20
1992.716829155465
 30
0.0
 11
2324.999999999955
 21
1992.171509385614
 31
0.0
  0
LINE
  5
4D8
330
1F
100
AcDbEntity
  8
付属金具
  6
CONTINUOUS
 62
     2
100
AcDbLine
 10
2320.51815248198
 20
1984.838367131368
 30
0.0
 11
2324.999999999955
 21
1984.048096490528
 31
0.0
  0
LINE
  5
4D9
330
1F
100
AcDbEntity
  8
付属金具
  6
CONTINUOUS
 62
     2
100
AcDbLine
 10
2349.99999999995
 20
1958.486804929187
 30
0.0
 11
2374.999999999959
 21
1965.185534739965
 31
0.0
  0
LINE
  5
4DA
330
1F
100
AcDbEntity
  8
付属金具
  6
CONTINUOUS
 62
     2
100
AcDbLine
 10
2324.999999999955
 20
1958.486804929187
 30
0.0
 11
2349.99999999995
 21
1958.486804929187
 31
0.0
  0
ARC
  5
4DB
330
1F
100
AcDbEntity
  8
付属金具
  6
CONTINUOUS
 62
     2
100
AcDbCircle
 10
2350.020088784957
 20
1950.833489362619
 30
0.0
 40
22.5
100
AcDbArc
 50
160.1141478017083
 51
167.4227966668966
  0
ARC
  5
4DC
330
1F
100
AcDbEntity
  8
付属金具
  6
CONTINUOUS
 62
     2
100
AcDbCircle
 10
2349.979911214954
 20
1950.833489362619
 30
0.0
 40
22.5
100
AcDbArc
 50
12.57428278246711
 51
34.16720412636025
  0
LINE
  5
4DD
330
1F
100
AcDbEntity
  8
付属金具
  6
CONTINUOUS
 62
     2
100
AcDbLine
 10
2382.168597735203
 20
1897.670446618216
 30
0.0
 11
2382.168597735203
 21
1892.944222140095
 31
0.0
  0
LINE
  5
4DE
330
1F
100
AcDbEntity
  8
付属金具
  6
CONTINUOUS
 62
     2
100
AcDbLine
 10
2382.168597735203
 20
1892.944222140095
 30
0.0
 11
2382.168597735203
 21
1888.217997661975
 31
0.0
  0
LINE
  5
4DF
330
1F
100
AcDbEntity
  8
付属金具
  6
CONTINUOUS
 62
     2
100
AcDbLine
 10
2374.999999999955
 20
1948.45073020372
 30
0.0
 11
2374.999999999955
 21
1887.48708659884
 31
0.0
  0
LINE
  5
4E0
330
1F
100
AcDbEntity
  8
付属金具
  6
CONTINUOUS
 62
     2
100
AcDbLine
 10
2242.630798148068
 20
1912.046601990981
 30
0.0
 11
2257.402914443251
 21
1909.441879325976
 31
0.0
  0
LINE
  5
4E1
330
1F
100
AcDbEntity
  8
付属金具
  6
CONTINUOUS
 62
     2
100
AcDbLine
 10
2227.305155056397
 20
1914.74892636475
 30
0.0
 11
2242.630798148068
 21
1912.046601990979
 31
0.0
  0
LINE
  5
4E2
330
1F
100
AcDbEntity
  8
付属金具
  6
CONTINUOUS
 62
     2
100
AcDbLine
 10
2230.813105111922
 20
1914.130380122983
 30
0.0
 11
2229.519962101392
 21
1906.7966016772
 31
0.0
  0
LINE
  5
4E3
330
1F
100
AcDbEntity
  8
付属金具
  6
CONTINUOUS
 62
     2
100
AcDbLine
 10
2254.448491184215
 20
1909.962823858976
 30
0.0
 11
2253.155348173685
 21
1902.629045413194
 31
0.0
  0
LINE
  5
4E4
330
1F
100
AcDbEntity
  8
付属金具
  6
CONTINUOUS
 62
     2
100
AcDbLine
 10
2324.999999999955
 20
1948.45073020372
 30
0.0
 11
2324.999999999953
 21
1921.182129382008
 31
0.0
  0
LINE
  5
4E5
330
1F
100
AcDbEntity
  8
付属金具
  6
CONTINUOUS
 62
     2
100
AcDbLine
 10
2324.999999999955
 20
1992.171509385607
 30
0.0
 11
2324.999999999955
 21
1994.050064429996
 31
0.0
  0
LINE
  5
4E6
330
1F
100
AcDbEntity
  8
付属金具
  6
CONTINUOUS
 62
     2
100
AcDbLine
 10
2324.999999999955
 20
1972.550730203722
 30
0.0
 11
2324.999999999955
 21
1984.048096490532
 31
0.0
  0
ARC
  5
4E7
330
1F
100
AcDbEntity
  8
付属金具
  6
CONTINUOUS
 62
     2
100
AcDbCircle
 10
2307.583227049449
 20
1905.950730203725
 30
0.0
 40
23.13740480126591
100
AcDbArc
 50
318.8295003524858
 51
41.17049964751445
  0
ARC
  5
4E8
330
1F
100
AcDbEntity
  8
付属金具
  6
CONTINUOUS
 62
     2
100
AcDbCircle
 10
2320.184405712156
 20
1988.10980293807
 30
0.0
 40
6.29979425145349
100
AcDbArc
 50
319.854088080027
 51
40.14591191997305
  0
LINE
  5
4E9
330
1F
100
AcDbEntity
  8
付属金具
  6
CONTINUOUS
 62
     2
100
AcDbLine
 10
2349.999999999955
 20
1948.95073020372
 30
0.0
 11
2374.999999999957
 21
1948.95073020372
 31
0.0
  0
LINE
  5
4EA
330
1F
100
AcDbEntity
  8
付属金具
  6
CONTINUOUS
 62
     2
100
AcDbLine
 10
2324.999999999957
 20
1948.95073020372
 30
0.0
 11
2349.999999999955
 21
1948.95073020372
 31
0.0
  0
LINE
  5
4EB
330
1F
100
AcDbEntity
  8
付属金具
  6
CONTINUOUS
 62
     2
100
AcDbLine
 10
2321.344509642359
 20
1996.37006410498
 30
0.0
 11
2256.56263969916
 21
2007.792855636711
 31
0.0
  0
ARC
  5
4EC
330
1F
100
AcDbEntity
  8
付属金具
  6
CONTINUOUS
 62
     2
100
AcDbCircle
 10
2382.107634770288
 20
1885.944222140094
 30
0.0
 40
10.0
100
AcDbArc
 50
90.00000000000004
 51
135.2970679141359
  0
LINE
  5
4ED
330
1F
100
AcDbEntity
  8
付属金具
  6
CONTINUOUS
 62
     2
100
AcDbLine
 10
2374.999999999955
 20
1881.09692319427
 30
0.0
 11
2378.575844398853
 21
1887.822108391238
 31
0.0
  0
LINE
  5
4EE
330
1F
100
AcDbEntity
  8
付属金具
  6
CONTINUOUS
 62
     2
100
AcDbLine
 10
2324.999999999955
 20
1890.719331025436
 30
0.0
 11
2324.999999999955
 21
1857.5
 31
0.0
  0
LINE
  5
4EF
330
1F
100
AcDbEntity
  8
付属金具
  6
CONTINUOUS
 62
     2
100
AcDbLine
 10
2374.999999999955
 20
1887.48708659884
 30
0.0
 11
2374.999999999955
 21
1857.5
 31
0.0
  0
LINE
  5
4F0
330
1F
100
AcDbEntity
  8
寸法
  6
CONTINUOUS
 62
     3
100
AcDbLine
 10
2445.499999821186
 20
1017.5
 30
0.0
 11
2555.0
 21
1017.499999999998
 31
0.0
  0
LINE
  5
4F1
330
1F
100
AcDbEntity
  8
寸法
  6
CONTINUOUS
 62
     3
100
AcDbLine
 10
2453.499999821186
 20
1412.5
 30
0.0
 11
2555.0
 21
1412.5
 31
0.0
  0
TEXT
  5
4F2
330
1F
100
AcDbEntity
  8
寸法
  6
CONTINUOUS
 62
     2
100
AcDbText
 10
2534.750000089407
 20
1051.499999999999
 30
0.0
 40
59.99999618530273
  1
３９５
 50
90.0
 41
1.029411764705882
  7
EXCADSTD
 72
     5
 11
2534.750000089407
 21
1201.499990463256
 31
0.0
100
AcDbText
  0
TEXT
  5
4F3
330
1F
100
AcDbEntity
  8
寸法
  6
CONTINUOUS
 62
     2
100
AcDbText
 10
2534.750000089407
 20
1193.999999999999
 30
0.0
 40
48.0
  1
（壁給水）
 50
90.0
 41
0.9655172413793105
  7
EXCADSTD
 72
     5
 11
2534.750000089407
 21
1385.999999999999
 31
0.0
100
AcDbText
  0
LINE
  5
4F4
330
1F
100
AcDbEntity
  8
寸法
  6
CONTINUOUS
 62
     3
100
AcDbLine
 10
2540.0
 20
1017.499999999998
 30
0.0
 11
2540.0
 21
1412.5
 31
0.0
  0
LINE
  5
4F5
330
1F
100
AcDbEntity
  8
寸法
  6
CONTINUOUS
 62
     3
100
AcDbLine
 10
2532.5
 20
1062.499999999998
 30
0.0
 11
2540.0
 21
1017.499999999998
 31
0.0
  0
LINE
  5
4F6
330
1F
100
AcDbEntity
  8
寸法
  6
CONTINUOUS
 62
     3
100
AcDbLine
 10
2540.0
 20
1017.499999999998
 30
0.0
 11
2547.5
 21
1062.499999999998
 31
0.0
  0
LINE
  5
4F7
330
1F
100
AcDbEntity
  8
寸法
  6
CONTINUOUS
 62
     3
100
AcDbLine
 10
2547.5
 20
1367.5
 30
0.0
 11
2540.0
 21
1412.5
 31
0.0
  0
LINE
  5
4F8
330
1F
100
AcDbEntity
  8
寸法
  6
CONTINUOUS
 62
     3
100
AcDbLine
 10
2540.0
 20
1412.5
 30
0.0
 11
2532.5
 21
1367.5
 31
0.0
  0
LINE
  5
4F9
330
1F
100
AcDbEntity
  8
寸法
  6
CONTINUOUS
 62
     3
100
AcDbLine
 10
2445.499999821186
 20
1017.5
 30
0.0
 11
2645.0
 21
1017.499999999998
 31
0.0
  0
LINE
  5
4FA
330
1F
100
AcDbEntity
  8
寸法
  6
CONTINUOUS
 62
     3
100
AcDbLine
 10
2470.499999821186
 20
1452.5
 30
0.0
 11
2645.0
 21
1452.5
 31
0.0
  0
TEXT
  5
4FB
330
1F
100
AcDbEntity
  8
寸法
  6
CONTINUOUS
 62
     2
100
AcDbText
 10
2624.750000089407
 20
1035.499999999999
 30
0.0
 40
59.99999618530273
  1
４３５
 50
90.0
 41
1.029411764705882
  7
EXCADSTD
 72
     5
 11
2624.750000089407
 21
1185.499990463256
 31
0.0
100
AcDbText
  0
TEXT
  5
4FC
330
1F
100
AcDbEntity
  8
寸法
  6
CONTINUOUS
 62
     2
100
AcDbText
 10
2624.750000089407
 20
1177.999999999999
 30
0.0
 40
48.0
  1
（Ｐトラップ）
 50
90.0
 41
0.9390243902439025
  7
EXCADSTD
 72
     5
 11
2624.750000089407
 21
1441.999999999999
 31
0.0
100
AcDbText
  0
LINE
  5
4FD
330
1F
100
AcDbEntity
  8
寸法
  6
CONTINUOUS
 62
     3
100
AcDbLine
 10
2630.0
 20
1017.499999999998
 30
0.0
 11
2630.0
 21
1452.5
 31
0.0
  0
LINE
  5
4FE
330
1F
100
AcDbEntity
  8
寸法
  6
CONTINUOUS
 62
     3
100
AcDbLine
 10
2622.5
 20
1062.499999999998
 30
0.0
 11
2630.0
 21
1017.499999999998
 31
0.0
  0
LINE
  5
4FF
330
1F
100
AcDbEntity
  8
寸法
  6
CONTINUOUS
 62
     3
100
AcDbLine
 10
2630.0
 20
1017.499999999998
 30
0.0
 11
2637.5
 21
1062.499999999998
 31
0.0
  0
LINE
  5
500
330
1F
100
AcDbEntity
  8
寸法
  6
CONTINUOUS
 62
     3
100
AcDbLine
 10
2637.5
 20
1407.5
 30
0.0
 11
2630.0
 21
1452.5
 31
0.0
  0
LINE
  5
501
330
1F
100
AcDbEntity
  8
寸法
  6
CONTINUOUS
 62
     3
100
AcDbLine
 10
2630.0
 20
1452.5
 30
0.0
 11
2622.5
 21
1407.5
 31
0.0
  0
LINE
  5
502
330
1F
100
AcDbEntity
  8
寸法
  6
CONTINUOUS
 62
     3
100
AcDbLine
 10
2445.499999821186
 20
1017.5
 30
0.0
 11
2735.0
 21
1017.499999999998
 31
0.0
  0
LINE
  5
503
330
1F
100
AcDbEntity
  8
寸法
  6
CONTINUOUS
 62
     3
100
AcDbLine
 10
2475.499999821186
 20
1522.5
 30
0.0
 11
2735.0
 21
1522.5
 31
0.0
  0
TEXT
  5
504
330
1F
100
AcDbEntity
  8
寸法
  6
CONTINUOUS
 62
     2
100
AcDbText
 10
2714.750000089407
 20
1034.499999999999
 30
0.0
 40
59.99999618530273
  1
５０５
 50
90.0
 41
1.029411764705882
  7
EXCADSTD
 72
     5
 11
2714.750000089407
 21
1184.499990463256
 31
0.0
100
AcDbText
  0
TEXT
  5
505
330
1F
100
AcDbEntity
  8
寸法
  6
CONTINUOUS
 62
     2
100
AcDbText
 10
2714.750000089407
 20
1176.999999999999
 30
0.0
 40
48.0
  1
（ボトルトラップ）
 50
90.0
 41
0.9245283018867926
  7
EXCADSTD
 72
     5
 11
2714.750000089407
 21
1512.999999999999
 31
0.0
100
AcDbText
  0
LINE
  5
506
330
1F
100
AcDbEntity
  8
寸法
  6
CONTINUOUS
 62
     3
100
AcDbLine
 10
2720.0
 20
1017.499999999998
 30
0.0
 11
2720.0
 21
1522.5
 31
0.0
  0
LINE
  5
507
330
1F
100
AcDbEntity
  8
寸法
  6
CONTINUOUS
 62
     3
100
AcDbLine
 10
2712.5
 20
1062.499999999998
 30
0.0
 11
2720.0
 21
1017.499999999998
 31
0.0
  0
LINE
  5
508
330
1F
100
AcDbEntity
  8
寸法
  6
CONTINUOUS
 62
     3
100
AcDbLine
 10
2720.0
 20
1017.499999999998
 30
0.0
 11
2727.5
 21
1062.499999999998
 31
0.0
  0
LINE
  5
509
330
1F
100
AcDbEntity
  8
寸法
  6
CONTINUOUS
 62
     3
100
AcDbLine
 10
2727.5
 20
1477.5
 30
0.0
 11
2720.0
 21
1522.5
 31
0.0
  0
LINE
  5
50A
330
1F
100
AcDbEntity
  8
寸法
  6
CONTINUOUS
 62
     3
100
AcDbLine
 10
2720.0
 20
1522.5
 30
0.0
 11
2712.5
 21
1477.5
 31
0.0
  0
LINE
  5
50B
330
1F
100
AcDbEntity
  8
寸法
  6
CONTINUOUS
 62
     3
100
AcDbLine
 10
2477.399999821186
 20
1637.5
 30
0.0
 11
2825.000000000001
 21
1637.5
 31
0.0
  0
TEXT
  5
50C
330
1F
100
AcDbEntity
  8
寸法
  6
CONTINUOUS
 62
     2
100
AcDbText
 10
2804.750000089408
 20
1163.999999999999
 30
0.0
 40
59.99999618530273
  1
６２０
 50
90.0
 41
1.029411764705882
  7
EXCADSTD
 72
     5
 11
2804.750000089408
 21
1313.999990463255
 31
0.0
100
AcDbText
  0
TEXT
  5
50D
330
1F
100
AcDbEntity
  8
寸法
  6
CONTINUOUS
 62
     2
100
AcDbText
 10
2804.750000089408
 20
1306.499999999999
 30
0.0
 40
48.0
  1
（壁固定）
 50
90.0
 41
0.9655172413793105
  7
EXCADSTD
 72
     5
 11
2804.750000089408
 21
1498.499999999999
 31
0.0
100
AcDbText
  0
LINE
  5
50E
330
1F
100
AcDbEntity
  8
寸法
  6
CONTINUOUS
 62
     3
100
AcDbLine
 10
2810.000000000001
 20
1017.499999999997
 30
0.0
 11
2810.000000000001
 21
1637.5
 31
0.0
  0
LINE
  5
50F
330
1F
100
AcDbEntity
  8
寸法
  6
CONTINUOUS
 62
     3
100
AcDbLine
 10
2802.500000000001
 20
1062.499999999997
 30
0.0
 11
2810.000000000001
 21
1017.499999999997
 31
0.0
  0
LINE
  5
510
330
1F
100
AcDbEntity
  8
寸法
  6
CONTINUOUS
 62
     3
100
AcDbLine
 10
2810.000000000001
 20
1017.499999999997
 30
0.0
 11
2817.500000000001
 21
1062.499999999997
 31
0.0
  0
LINE
  5
511
330
1F
100
AcDbEntity
  8
寸法
  6
CONTINUOUS
 62
     3
100
AcDbLine
 10
2817.500000000001
 20
1592.5
 30
0.0
 11
2810.000000000001
 21
1637.5
 31
0.0
  0
LINE
  5
512
330
1F
100
AcDbEntity
  8
寸法
  6
CONTINUOUS
 62
     3
100
AcDbLine
 10
2810.000000000001
 20
1637.5
 30
0.0
 11
2802.500000000001
 21
1592.5
 31
0.0
  0
LINE
  5
513
330
1F
100
AcDbEntity
  8
寸法
  6
CONTINUOUS
 62
     3
100
AcDbLine
 10
2445.499999821186
 20
1017.5
 30
0.0
 11
2926.5
 21
1017.499999999996
 31
0.0
  0
LINE
  5
514
330
1F
100
AcDbEntity
  8
寸法
  6
CONTINUOUS
 62
     3
100
AcDbLine
 10
2355.0
 20
999.0000001788139
 30
0.0
 11
2355.0
 21
882.5
 31
0.0
  0
LINE
  5
515
330
1F
100
AcDbEntity
  8
寸法
  6
CONTINUOUS
 62
     3
100
AcDbLine
 10
2435.0
 20
1007.000000178814
 30
0.0
 11
2435.0
 21
882.5
 31
0.0
  0
TEXT
  5
516
330
1F
100
AcDbEntity
  8
寸法
  6
CONTINUOUS
 62
     2
100
AcDbText
 10
2480.0
 20
902.749999910593
 30
0.0
 40
59.99999618530273
  1
８０
 41
1.020759090909089
  7
EXCADSTD
 72
     5
 11
2576.242993881035
 21
902.749999910593
 31
0.0
100
AcDbText
  0
TEXT
  5
517
330
1F
100
AcDbEntity
  8
寸法
  6
CONTINUOUS
 62
     2
100
AcDbText
 10
2577.5
 20
902.749999910593
 30
0.0
 40
48.0
  1
（床給水）
 41
0.9655172413793105
  7
EXCADSTD
 72
     5
 11
2769.5
 21
902.749999910593
 31
0.0
100
AcDbText
  0
LINE
  5
518
330
1F
100
AcDbEntity
  8
寸法
  6
CONTINUOUS
 62
     3
100
AcDbLine
 10
2310.0
 20
897.5
 30
0.0
 11
2767.249994277954
 21
897.5
 31
0.0
  0
LINE
  5
519
330
1F
100
AcDbEntity
  8
寸法
  6
CONTINUOUS
 62
     3
100
AcDbLine
 10
2310.0
 20
890.0
 30
0.0
 11
2355.0
 21
897.5
 31
0.0
  0
LINE
  5
51A
330
1F
100
AcDbEntity
  8
寸法
  6
CONTINUOUS
 62
     3
100
AcDbLine
 10
2355.0
 20
897.5
 30
0.0
 11
2310.0
 21
905.0000000000001
 31
0.0
  0
LINE
  5
51B
330
1F
100
AcDbEntity
  8
寸法
  6
CONTINUOUS
 62
     3
100
AcDbLine
 10
2480.0
 20
905.0
 30
0.0
 11
2435.0
 21
897.5
 31
0.0
  0
LINE
  5
51C
330
1F
100
AcDbEntity
  8
寸法
  6
CONTINUOUS
 62
     3
100
AcDbLine
 10
2435.0
 20
897.5
 30
0.0
 11
2480.0
 21
890.0
 31
0.0
  0
LINE
  5
51D
330
1F
100
AcDbEntity
  8
寸法
  6
CONTINUOUS
 62
     3
100
AcDbLine
 10
2305.0
 20
977.0000001788138
 30
0.0
 11
2305.0
 21
792.5
 31
0.0
  0
LINE
  5
51E
330
1F
100
AcDbEntity
  8
寸法
  6
CONTINUOUS
 62
     3
100
AcDbLine
 10
2435.0
 20
1007.000000178814
 30
0.0
 11
2435.0
 21
792.5
 31
0.0
  0
TEXT
  5
51F
330
1F
100
AcDbEntity
  8
寸法
  6
CONTINUOUS
 62
     2
100
AcDbText
 10
2480.0
 20
812.749999910593
 30
0.0
 40
59.99999618530273
  1
１３０
 41
1.029411764705882
  7
EXCADSTD
 72
     5
 11
2629.999990463256
 21
812.749999910593
 31
0.0
100
AcDbText
  0
TEXT
  5
520
330
1F
100
AcDbEntity
  8
寸法
  6
CONTINUOUS
 62
     2
100
AcDbText
 10
2622.5
 20
812.749999910593
 30
0.0
 40
48.0
  1
（Ｓトラップ）
 41
0.9390243902439025
  7
EXCADSTD
 72
     5
 11
2886.5
 21
812.749999910593
 31
0.0
100
AcDbText
  0
LINE
  5
521
330
1F
100
AcDbEntity
  8
寸法
  6
CONTINUOUS
 62
     3
100
AcDbLine
 10
2260.0
 20
807.5
 30
0.0
 11
2884.250011444092
 21
807.5
 31
0.0
  0
LINE
  5
522
330
1F
100
AcDbEntity
  8
寸法
  6
CONTINUOUS
 62
     3
100
AcDbLine
 10
2260.0
 20
800.0
 30
0.0
 11
2305.0
 21
807.5
 31
0.0
  0
LINE
  5
523
330
1F
100
AcDbEntity
  8
寸法
  6
CONTINUOUS
 62
     3
100
AcDbLine
 10
2305.0
 20
807.5
 30
0.0
 11
2260.0
 21
815.0000000000001
 31
0.0
  0
LINE
  5
524
330
1F
100
AcDbEntity
  8
寸法
  6
CONTINUOUS
 62
     3
100
AcDbLine
 10
2480.0
 20
815.0
 30
0.0
 11
2435.0
 21
807.5
 31
0.0
  0
LINE
  5
525
330
1F
100
AcDbEntity
  8
寸法
  6
CONTINUOUS
 62
     3
100
AcDbLine
 10
2435.0
 20
807.5
 30
0.0
 11
2480.0
 21
800.0
 31
0.0
  0
DIMENSION
  5
526
330
1F
100
AcDbEntity
  8
寸法
  6
CONTINUOUS
 62
     3
100
AcDbDimension
  2
*D19
 10
1459.999999999999
 20
3929.5
 30
0.0
 11
1424.750000089407
 21
3704.5
 31
0.0
 70
   160
  3
ISO-25
100
AcDbAlignedDimension
 13
1354.999999999999
 23
3479.5
 33
0.0
 14
1354.999999999999
 24
3929.5
 34
0.0
 50
90.0
100
AcDbRotatedDimension
1001
ACAD
1000
DSTYLE
1002
{
1070
   270
1070
     2
1070
     6
1000
EX_NORM
1070
     7
1000
EX_NORM
1070
    41
1040
44.99999618530273
1070
    42
1040
10.49999982118607
1070
    44
1040
15.0
1070
    73
1070
     0
1070
    74
1070
     0
1070
    75
1070
     0
1070
    76
1070
     1
1070
    77
1070
     1
1070
    78
1070
     0
1070
   140
1040
59.99999618530273
1070
   147
1040
0.0
1070
   173
1070
     1
1070
   176
1070
     3
1070
   177
1070
     3
1070
   178
1070
     2
1070
   271
1070
     0
1070
   277
1070
     2
1070
   279
1070
     2
1070
   280
1070
     0
1070
   287
1070
     5
1070
   340
1005
3A3
1002
}
  0
DIMENSION
  5
532
330
1F
100
AcDbEntity
  8
寸法
  6
CONTINUOUS
 62
     3
100
AcDbDimension
  2
*D20
 10
1549.999999999999
 20
3929.5
 30
0.0
 11
1514.750000089407
 21
3679.5
 31
0.0
 70
   160
  3
ISO-25
100
AcDbAlignedDimension
 13
1169.999999999999
 23
3429.5
 33
0.0
 14
1354.999999999999
 24
3929.5
 34
0.0
 50
90.0
100
AcDbRotatedDimension
1001
ACAD
1000
DSTYLE
1002
{
1070
   270
1070
     2
1070
     6
1000
EX_NORM
1070
     7
1000
EX_NORM
1070
    41
1040
44.99999618530273
1070
    42
1040
10.49999982118607
1070
    44
1040
15.0
1070
    73
1070
     0
1070
    74
1070
     0
1070
    75
1070
     0
1070
    76
1070
     1
1070
    77
1070
     1
1070
    78
1070
     0
1070
   140
1040
59.99999618530273
1070
   147
1040
0.0
1070
   173
1070
     1
1070
   176
1070
     3
1070
   177
1070
     3
1070
   178
1070
     2
1070
   271
1070
     0
1070
   277
1070
     2
1070
   279
1070
     2
1070
   280
1070
     0
1070
   287
1070
     5
1070
   340
1005
3A3
1002
}
  0
DIMENSION
  5
53E
330
1F
100
AcDbEntity
  8
寸法
  6
CONTINUOUS
 62
     3
100
AcDbDimension
  2
*D21
 10
1179.999999999999
 20
3324.5
 30
0.0
 11
904.9999999999998
 21
3359.749999910593
 31
0.0
 70
   160
  3
ISO-25
100
AcDbAlignedDimension
 13
630.0
 23
3439.5
 33
0.0
 14
1179.999999999999
 24
3439.5
 34
0.0
100
AcDbRotatedDimension
1001
ACAD
1000
DSTYLE
1002
{
1070
   270
1070
     2
1070
     6
1000
EX_NORM
1070
     7
1000
EX_NORM
1070
    41
1040
44.99999618530273
1070
    42
1040
10.49999982118607
1070
    44
1040
15.0
1070
    73
1070
     0
1070
    74
1070
     0
1070
    75
1070
     0
1070
    76
1070
     0
1070
    77
1070
     1
1070
    78
1070
     0
1070
   140
1040
59.99999618530273
1070
   147
1040
0.0
1070
   173
1070
     1
1070
   176
1070
     3
1070
   177
1070
     3
1070
   178
1070
     2
1070
   271
1070
     0
1070
   277
1070
     2
1070
   279
1070
     2
1070
   280
1070
     0
1070
   287
1070
     5
1070
   340
1005
3A3
1002
}
  0
DIMENSION
  5
54B
330
1F
100
AcDbEntity
  8
寸法
  6
CONTINUOUS
 62
     3
100
AcDbDimension
  2
*D22
 10
1354.999999999999
 20
3234.5
 30
0.0
 11
904.9999999999998
 21
3269.749999910593
 31
0.0
 70
   160
  3
ISO-25
100
AcDbAlignedDimension
 13
455.0
 23
3479.5
 33
0.0
 14
1354.999999999999
 24
3479.5
 34
0.0
100
AcDbRotatedDimension
1001
ACAD
1000
DSTYLE
1002
{
1070
   270
1070
     2
1070
     6
1000
EX_NORM
1070
     7
1000
EX_NORM
1070
    41
1040
44.99999618530273
1070
    42
1040
10.49999982118607
1070
    44
1040
15.0
1070
    73
1070
     0
1070
    74
1070
     0
1070
    75
1070
     0
1070
    76
1070
     0
1070
    77
1070
     1
1070
    78
1070
     0
1070
   140
1040
59.99999618530273
1070
   147
1040
0.0
1070
   173
1070
     1
1070
   176
1070
     3
1070
   177
1070
     3
1070
   178
1070
     2
1070
   271
1070
     0
1070
   277
1070
     2
1070
   279
1070
     2
1070
   280
1070
     0
1070
   287
1070
     5
1070
   340
1005
3A3
1002
}
  0
LINE
  5
558
330
1F
100
AcDbEntity
  8
寸法
  6
CONTINUOUS
 62
     3
100
AcDbLine
 10
587.0
 20
3972.499999821186
 30
0.0
 11
587.0
 21
4034.5
 31
0.0
  0
LINE
  5
559
330
1F
100
AcDbEntity
  8
寸法
  6
CONTINUOUS
 62
     3
100
AcDbLine
 10
1222.999999999999
 20
3972.499999821186
 30
0.0
 11
1222.999999999999
 21
4034.5
 31
0.0
  0
TEXT
  5
55A
330
1F
100
AcDbEntity
  8
寸法
  6
CONTINUOUS
 62
     2
100
AcDbText
 10
741.4999999999998
 20
4024.749999910593
 30
0.0
 40
59.99999618530273
  1
６３６
 41
1.029411764705882
  7
EXCADSTD
 72
     5
 11
891.4999904632566
 21
4024.749999910593
 31
0.0
100
AcDbText
  0
TEXT
  5
55B
330
1F
100
AcDbEntity
  8
寸法
  6
CONTINUOUS
 62
     2
100
AcDbText
 10
883.9999999999998
 20
4024.749999910593
 30
0.0
 40
48.0
  1
（壁固定）
 41
0.9655172413793105
  7
EXCADSTD
 72
     5
 11
1076.0
 21
4024.749999910593
 31
0.0
100
AcDbText
  0
LINE
  5
55C
330
1F
100
AcDbEntity
  8
寸法
  6
CONTINUOUS
 62
     3
100
AcDbLine
 10
587.0000000000002
 20
4019.5
 30
0.0
 11
1222.999999999999
 21
4019.5
 31
0.0
  0
LINE
  5
55D
330
1F
100
AcDbEntity
  8
寸法
  6
CONTINUOUS
 62
     3
100
AcDbLine
 10
632.0
 20
4027.0
 30
0.0
 11
587.0
 21
4019.5
 31
0.0
  0
LINE
  5
55E
330
1F
100
AcDbEntity
  8
寸法
  6
CONTINUOUS
 62
     3
100
AcDbLine
 10
587.0
 20
4019.5
 30
0.0
 11
632.0
 21
4012.0
 31
0.0
  0
LINE
  5
55F
330
1F
100
AcDbEntity
  8
寸法
  6
CONTINUOUS
 62
     3
100
AcDbLine
 10
1177.999999999999
 20
4012.0
 30
0.0
 11
1222.999999999999
 21
4019.5
 31
0.0
  0
LINE
  5
560
330
1F
100
AcDbEntity
  8
寸法
  6
CONTINUOUS
 62
     3
100
AcDbLine
 10
1222.999999999999
 20
4019.5
 30
0.0
 11
1177.999999999999
 21
4027.0
 31
0.0
  0
DIMENSION
  5
561
330
1F
100
AcDbEntity
  8
寸法
  6
CONTINUOUS
 62
     3
100
AcDbDimension
  2
*D23
 10
1459.999999999999
 20
1717.5
 30
0.0
 11
1424.750000089407
 21
1367.5
 31
0.0
 70
   160
  3
ISO-25
100
AcDbAlignedDimension
 13
1352.999999999999
 23
1017.5
 33
0.0
 14
1354.999999999999
 24
1717.5
 34
0.0
 50
90.0
100
AcDbRotatedDimension
1001
ACAD
1000
DSTYLE
1002
{
1070
   270
1070
     2
1070
     6
1000
EX_NORM
1070
     7
1000
EX_NORM
1070
    41
1040
44.99999618530273
1070
    42
1040
10.49999982118607
1070
    44
1040
15.0
1070
    73
1070
     0
1070
    74
1070
     0
1070
    75
1070
     1
1070
    76
1070
     0
1070
    77
1070
     1
1070
    78
1070
     0
1070
   140
1040
59.99999618530273
1070
   147
1040
0.0
1070
   173
1070
     1
1070
   176
1070
     3
1070
   177
1070
     3
1070
   178
1070
     2
1070
   271
1070
     0
1070
   277
1070
     2
1070
   279
1070
     2
1070
   280
1070
     0
1070
   287
1070
     5
1070
   340
1005
3A3
1002
}
  0
DIMENSION
  5
56D
330
1F
100
AcDbEntity
  8
寸法
  6
CONTINUOUS
 62
     3
100
AcDbDimension
  2
*D24
 10
1459.999999999998
 20
1857.5
 30
0.0
 11
1424.750000089406
 21
1787.499999999999
 31
0.0
 70
   160
  3
ISO-25
100
AcDbAlignedDimension
 13
1354.999999999999
 23
1717.5
 33
0.0
 14
1174.999999999999
 24
1857.5
 34
0.0
 50
90.0
100
AcDbRotatedDimension
1001
ACAD
1000
DSTYLE
1002
{
1070
   270
1070
     2
1070
     6
1000
EX_NORM
1070
     7
1000
EX_NORM
1070
    41
1040
44.99999618530273
1070
    42
1040
10.49999982118607
1070
    44
1040
15.0
1070
    73
1070
     0
1070
    74
1070
     0
1070
    75
1070
     1
1070
    76
1070
     0
1070
    77
1070
     1
1070
    78
1070
     0
1070
   140
1040
59.99999618530273
1070
   147
1040
0.0
1070
   173
1070
     1
1070
   176
1070
     3
1070
   177
1070
     3
1070
   178
1070
     2
1070
   271
1070
     0
1070
   277
1070
     2
1070
   279
1070
     2
1070
   280
1070
     0
1070
   287
1070
     5
1070
   340
1005
3A3
1002
}
  0
DIMENSION
  5
579
330
1F
100
AcDbEntity
  8
寸法
  6
CONTINUOUS
 62
     3
100
AcDbDimension
  2
*D25
 10
1550.0
 20
1857.5
 30
0.0
 11
1514.750000089407
 21
1437.5
 31
0.0
 70
   160
  3
ISO-25
100
AcDbAlignedDimension
 13
1352.999999999999
 23
1017.5
 33
0.0
 14
1174.999999999999
 24
1857.5
 34
0.0
 50
90.0
100
AcDbRotatedDimension
1001
ACAD
1000
DSTYLE
1002
{
1070
   270
1070
     2
1070
     6
1000
EX_NORM
1070
     7
1000
EX_NORM
1070
    41
1040
44.99999618530273
1070
    42
1040
10.49999982118607
1070
    44
1040
15.0
1070
    73
1070
     0
1070
    74
1070
     0
1070
    75
1070
     1
1070
    76
1070
     0
1070
    77
1070
     1
1070
    78
1070
     0
1070
   140
1040
59.99999618530273
1070
   147
1040
0.0
1070
   173
1070
     1
1070
   176
1070
     3
1070
   177
1070
     3
1070
   178
1070
     2
1070
   271
1070
     0
1070
   277
1070
     2
1070
   279
1070
     2
1070
   280
1070
     0
1070
   287
1070
     5
1070
   340
1005
3A3
1002
}
  0
LINE
  5
585
330
1F
100
AcDbEntity
  8
寸法
  6
CONTINUOUS
 62
     3
100
AcDbLine
 10
830.0
 20
999.0000001788139
 30
0.0
 11
830.0
 21
882.5
 31
0.0
  0
LINE
  5
586
330
1F
100
AcDbEntity
  8
寸法
  6
CONTINUOUS
 62
     3
100
AcDbLine
 10
979.9999999999991
 20
999.0000001788139
 30
0.0
 11
979.9999999999991
 21
882.5
 31
0.0
  0
TEXT
  5
587
330
1F
100
AcDbEntity
  8
寸法
  6
CONTINUOUS
 62
     2
100
AcDbText
 10
1024.999999999999
 20
902.749999910593
 30
0.0
 40
59.99999618530273
  1
１５０
 41
1.029411764705882
  7
EXCADSTD
 72
     5
 11
1174.999990463256
 21
902.749999910593
 31
0.0
100
AcDbText
  0
TEXT
  5
588
330
1F
100
AcDbEntity
  8
寸法
  6
CONTINUOUS
 62
     2
100
AcDbText
 10
1167.499999999999
 20
902.749999910593
 30
0.0
 40
48.0
  1
（壁･床給水）
 41
0.853658536585366
  7
EXCADSTD
 72
     5
 11
1407.499999999999
 21
902.749999910593
 31
0.0
100
AcDbText
  0
LINE
  5
589
330
1F
100
AcDbEntity
  8
寸法
  6
CONTINUOUS
 62
     3
100
AcDbLine
 10
785.0000000000001
 20
897.5
 30
0.0
 11
1405.250005722045
 21
897.5
 31
0.0
  0
LINE
  5
58A
330
1F
100
AcDbEntity
  8
寸法
  6
CONTINUOUS
 62
     3
100
AcDbLine
 10
785.0
 20
890.0
 30
0.0
 11
830.0
 21
897.5
 31
0.0
  0
LINE
  5
58B
330
1F
100
AcDbEntity
  8
寸法
  6
CONTINUOUS
 62
     3
100
AcDbLine
 10
830.0
 20
897.5
 30
0.0
 11
785.0
 21
905.0000000000001
 31
0.0
  0
LINE
  5
58C
330
1F
100
AcDbEntity
  8
寸法
  6
CONTINUOUS
 62
     3
100
AcDbLine
 10
1024.999999999999
 20
905.0
 30
0.0
 11
979.9999999999991
 21
897.5
 31
0.0
  0
LINE
  5
58D
330
1F
100
AcDbEntity
  8
寸法
  6
CONTINUOUS
 62
     3
100
AcDbLine
 10
979.9999999999991
 20
897.5
 30
0.0
 11
1024.999999999999
 21
890.0
 31
0.0
  0
TEXT
  5
58E
330
1F
100
AcDbEntity
  8
寸法
  6
CONTINUOUS
 62
     2
100
AcDbText
 10
2655.0
 20
1667.249999910593
 30
0.0
 40
59.99999618530273
  1
Ｒ１/２
 41
0.8342465643686785
  7
EXCADSTD
 72
     5
 11
2828.99998664856
 21
1667.249999910593
 31
0.0
100
AcDbText
  0
LEADER
  5
58F
330
1F
100
AcDbEntity
  8
寸法
  6
CONTINUOUS
 62
     3
100
AcDbLeader
  3
ISO-25
 76
     3
 10
2443.0
 20
1423.0
 30
0.0
 10
2647.5
 20
1662.0
 30
0.0
 10
2812.5
 20
1662.0
 30
0.0
1001
ACAD
1000
DSTYLE
1002
{
1070
     5
1000
EX_NORM
1070
    41
1040
45.0
1070
   341
1005
4D
1002
}
  0
TEXT
  5
590
330
1F
100
AcDbEntity
  8
寸法
  6
CONTINUOUS
 62
     2
100
AcDbText
 10
2575.931476947
 20
1786.667904700793
 30
0.0
 40
59.99999618530273
  1
ＶＰ･ＶＵ５０
 41
0.9048780357546915
  7
EXCADSTD
 72
     5
 11
2893.931452151468
 21
1786.667904700793
 31
0.0
100
AcDbText
  0
LEADER
  5
591
330
1F
100
AcDbEntity
  8
寸法
  6
CONTINUOUS
 62
     3
100
AcDbLeader
  3
ISO-25
 76
     3
 10
2460.0
 20
1478.0
 30
0.0
 10
2568.431476947
 20
1781.4179047902
 30
0.0
 10
2872.931476947
 20
1781.4179047902
 30
0.0
1001
ACAD
1000
DSTYLE
1002
{
1070
     5
1000
EX_NORM
1070
    41
1040
45.0
1070
   341
1005
4D
1002
}
  0
DIMENSION
  5
592
330
1F
100
AcDbEntity
  8
寸法
  6
CONTINUOUS
 62
     3
100
AcDbDimension
  2
*D26
 10
1644.0
 20
2767.5
 30
0.0
 11
1608.750000089408
 21
1892.5
 31
0.0
 70
   160
  1
（1750）
  3
ISO-25
100
AcDbAlignedDimension
 13
1277.999999999997
 23
1017.5
 33
0.0
 14
1204.999999999997
 24
2767.5
 34
0.0
 50
90.0
100
AcDbRotatedDimension
1001
ACAD
1000
DSTYLE
1002
{
1070
   270
1070
     2
1070
     6
1000
EX_NORM
1070
     7
1000
EX_NORM
1070
    41
1040
44.99999618530273
1070
    42
1040
10.49999982118607
1070
    44
1040
15.0
1070
    73
1070
     0
1070
    74
1070
     0
1070
    75
1070
     1
1070
    76
1070
     0
1070
    77
1070
     1
1070
    78
1070
     8
1070
   140
1040
59.99999618530273
1070
   147
1040
0.0
1070
   173
1070
     1
1070
   176
1070
     3
1070
   177
1070
     3
1070
   178
1070
     2
1070
   271
1070
     2
1070
   277
1070
     2
1070
   279
1070
     2
1070
   280
1070
     0
1070
   287
1070
     5
1070
   340
1005
3A3
1002
}
  0
DIMENSION
  5
59E
330
1F
100
AcDbEntity
  8
寸法
  6
CONTINUOUS
 62
     3
100
AcDbDimension
  2
*D27
 10
2900.0
 20
1017.5
 30
0.0
 11
2864.750000089407
 21
1602.5
 31
0.0
 70
   160
  1
（1170）
  3
ISO-25
100
AcDbAlignedDimension
 13
2557.5
 23
2187.5
 33
0.0
 14
2900.0
 24
1017.5
 34
0.0
 50
90.0
100
AcDbRotatedDimension
1001
ACAD
1000
DSTYLE
1002
{
1070
   270
1070
     2
1070
     6
1000
EX_NORM
1070
     7
1000
EX_NORM
1070
    41
1040
44.99999618530273
1070
    42
1040
7.5
1070
    44
1040
15.0
1070
    73
1070
     0
1070
    74
1070
     0
1070
    75
1070
     0
1070
    76
1070
     1
1070
    77
1070
     1
1070
    78
1070
     8
1070
   140
1040
59.99999618530273
1070
   147
1040
0.0
1070
   173
1070
     1
1070
   176
1070
     3
1070
   177
1070
     3
1070
   178
1070
     2
1070
   271
1070
     2
1070
   277
1070
     2
1070
   279
1070
     2
1070
   280
1070
     0
1070
   287
1070
     5
1070
   340
1005
3A3
1002
}
  0
ENDSEC
  0
SECTION
  2
OBJECTS
  0
DICTIONARY
  5
C
330
0
100
AcDbDictionary
  3
ACAD_GROUP
350
D
  3
ACAD_LAYOUT
350
1A
  3
ACAD_MATERIAL
350
3B
  3
ACAD_MLEADERSTYLE
350
5CC
  3
ACAD_MLINESTYLE
350
17
  3
ACAD_PLOTSETTINGS
350
19
  3
ACAD_VISUALSTYLE
350
2A
  3
ACDBHEADERROUNDTRIPXREC
350
5AA
  3
ACDBVARIABLEDICTIONARY
350
5CA
  0
DICTIONARY
  5
D
102
{ACAD_REACTORS
330
C
102
}
330
C
100
AcDbDictionary
  0
DICTIONARY
  5
1A
102
{ACAD_REACTORS
330
C
102
}
330
C
100
AcDbDictionary
  0
DICTIONARY
  5
3B
102
{ACAD_REACTORS
330
C
102
}
330
C
100
AcDbDictionary
  3
BYBLOCK
350
3D
  3
BYLAYER
350
3C
  3
GLOBAL
350
3E
  0
DICTIONARY
  5
5CC
102
{ACAD_REACTORS
330
C
102
}
330
C
100
AcDbDictionary
  0
DICTIONARY
  5
17
102
{ACAD_REACTORS
330
C
102
}
330
C
100
AcDbDictionary
  3
STANDARD
350
18
  0
DICTIONARY
  5
19
102
{ACAD_REACTORS
330
C
102
}
330
C
100
AcDbDictionary
  0
DICTIONARY
  5
2A
102
{ACAD_REACTORS
330
C
102
}
330
C
100
AcDbDictionary
  3
2DWIREFRAME
350
2F
  3
3D_HIDDEN
350
31
  3
3DWIREFRAME
350
30
  3
BASIC
350
32
  3
BRIGHTEN
350
36
  3
COLORCHANGE
350
3A
  3
CONCEPTUAL
350
34
  3
DIM
350
35
  3
FACEPATTERN
350
39
  3
FLAT
350
2B
  3
FLATWITHEDGES
350
2C
  3
GOURAUD
350
2D
  3
GOURAUDWITHEDGES
350
2E
  3
LINEPATTERN
350
38
  3
REALISTIC
350
33
  3
THICKEN
350
37
  0
DICTIONARY
  5
5AA
102
{ACAD_REACTORS
330
C
102
}
330
C
100
AcDbDictionary
  3
CEPSNTYPE
350
5B3
  3
DIMSTYLEDATA
350
5C9
  3
FINGERPRINTGUID
350
5B4
  3
HYPERLINKBASE
350
5AD
  3
INSUNITS
350
5B2
  3
LAYOUTDICT
350
5AF
  3
LWETCUNION
350
5B1
  3
PLOTSETDICT
350
5B0
  3
PSVPSCALE
350
5B6
  3
PUCSBASE
350
5B9
  3
PUCSORGBACK
350
5BF
  3
PUCSORGBOTTOM
350
5BB
  3
PUCSORGFRONT
350
5BE
  3
PUCSORGLEFT
350
5BC
  3
PUCSORGRIGHT
350
5BD
  3
PUCSORGTOP
350
5BA
  3
PUCSORTHOREF
350
5B7
  3
PUCSORTHOVIEW
350
5B8
  3
STYLESHEET
350
5AE
  3
TSTACKALIGN
350
5AB
  3
TSTACKSIZE
350
5AC
  3
UCSBASE
350
5C2
  3
UCSORGBACK
350
5C8
  3
UCSORGBOTTOM
350
5C4
  3
UCSORGFRONT
350
5C7
  3
UCSORGLEFT
350
5C5
  3
UCSORGRIGHT
350
5C6
  3
UCSORGTOP
350
5C3
  3
UCSORTHOREF
350
5C0
  3
UCSORTHOVIEW
350
5C1
  3
VERSIONGUID
350
5B5
  0
DICTIONARY
  5
5CA
102
{ACAD_REACTORS
330
C
102
}
330
C
100
AcDbDictionary
  3
DIMASSOC
350
5CF
  3
HIDETEXT
350
5D0
  3
PSOLHEIGHT
350
5CE
  3
PSOLWIDTH
350
5CD
  0
MATERIAL
  5
3D
102
{ACAD_REACTORS
330
3B
102
}
102
{ACAD_XDICTIONARY
360
5D3
102
}
330
3B
100
AcDbMaterial
  1
ByBlock
  0
MATERIAL
  5
3C
102
{ACAD_REACTORS
330
3B
102
}
102
{ACAD_XDICTIONARY
360
5D1
102
}
330
3B
100
AcDbMaterial
  1
ByLayer
  0
MATERIAL
  5
3E
102
{ACAD_REACTORS
330
3B
102
}
102
{ACAD_XDICTIONARY
360
5D5
102
}
330
3B
100
AcDbMaterial
  1
Global
  0
MLINESTYLE
  5
18
102
{ACAD_REACTORS
330
17
102
}
330
17
100
AcDbMlineStyle
  2
Standard
 70
     0
  3

 62
   256
 51
90.0
 52
90.0
 71
     2
 49
0.5
 62
   256
  6
BYLAYER
 49
-0.5
 62
   256
  6
BYLAYER
  0
ACAD_PROXY_OBJECT
  5
2F
102
{ACAD_REACTORS
330
2A
102
}
330
2A
100
AcDbProxyObject
 90
      499
 91
      501
 93
      436
310
42CC9915DA5C99599C985B595049028333333333333E3BF0000000000000FB0107901411070040501600405405064090741402480A0340
1001
ACAD
1000
AcDbSavedByObjectVersion
1070
     0
  0
ACAD_PROXY_OBJECT
  5
31
102
{ACAD_REACTORS
330
2A
102
}
330
2A
100
AcDbProxyObject
 90
      499
 91
      501
 93
      500
310
424CD108121A5919195B90640502408333333333333E3BF0000000000000FB01079024090700405020000000000001110200405405064090740C02480A0340
1001
ACAD
1000
AcDbSavedByObjectVersion
1070
     0
  0
ACAD_PROXY_OBJECT
  5
30
102
{ACAD_REACTORS
330
2A
102
}
330
2A
100
AcDbProxyObject
 90
      499
 91
      501
 93
      436
310
42CCD915DA5C99599C985B595059028333333333333E3BF0000000000000FB0107901411070040501600405405064090741402480A0340
1001
ACAD
1000
AcDbSavedByObjectVersion
1070
     0
  0
ACAD_PROXY_OBJECT
  5
32
102
{ACAD_REACTORS
330
2A
102
}
330
2A
100
AcDbProxyObject
 90
      499
 91
      501
 93
      388
310
4150985CDA58D07406404333333333333E3BF0000000000000FB0107A41107004050150841D405064090741402480A0350
1001
ACAD
1000
AcDbSavedByObjectVersion
1070
     0
  0
ACAD_PROXY_OBJECT
  5
36
102
{ACAD_REACTORS
330
2A
102
}
330
2A
100
AcDbProxyObject
 90
      499
 91
      501
 93
      428
310
42109C9A59DA1D195B90C409028333333333333E3BF0000000000000FB010790141107004050150841D405064090741402480A029950
1001
ACAD
1000
AcDbSavedByObjectVersion
1070
     0
  0
ACAD_PROXY_OBJECT
  5
3A
102
{ACAD_REACTORS
330
2A
102
}
330
2A
100
AcDbProxyObject
 90
      499
 91
      501
 93
      452
310
42D0DBDB1BDC90DA185B99D95104090240C333333333333E3BF0000000000000FB0108901411070040501508421405064090741402480A0350
1001
ACAD
1000
AcDbSavedByObjectVersion
1070
     0
  0
ACAD_PROXY_OBJECT
  5
34
102
{ACAD_REACTORS
330
2A
102
}
330
2A
100
AcDbProxyObject
 90
      499
 91
      501
 93
      500
310
4290DBDB98D95C1D1D585B10940D028333333333333E3BF0000000000000FB0107902409070040501000000000000111010841D405064090740C02480A0340
1001
ACAD
1000
AcDbSavedByObjectVersion
1070
     0
  0
ACAD_PROXY_OBJECT
  5
35
102
{ACAD_REACTORS
330
2A
102
}
330
2A
100
AcDbProxyObject
 90
      499
 91
      501
 93
      412
310
40D11A5B50B409028333333333333E3BF0000000000000FB010790141107004050150841D405064090741402480A02677FFFFFD0
1001
ACAD
1000
AcDbSavedByObjectVersion
1070
     0
  0
ACAD_PROXY_OBJECT
  5
39
102
{ACAD_REACTORS
330
2A
102
}
330
2A
100
AcDbProxyObject
 90
      499
 91
      501
 93
      444
310
42D19858D95C185D1D195C9B90F409028333333333333E3BF0000000000000FB010790141107004050150841D405064090741402480A0350
1001
ACAD
1000
AcDbSavedByObjectVersion
1070
     0
  0
ACAD_PROXY_OBJECT
  5
2B
102
{ACAD_REACTORS
330
2A
102
}
330
2A
100
AcDbProxyObject
 90
      499
 91
      501
 93
      388
310
41119B185D240901404333333333333E3BF0000000000000F9010740A41107004050150841D405064090741402480A1B50
1001
ACAD
1000
AcDbSavedByObjectVersion
1070
     0
  0
ACAD_PROXY_OBJECT
  5
2C
102
{ACAD_REACTORS
330
2A
102
}
330
2A
100
AcDbProxyObject
 90
      499
 91
      501
 93
      476
310
43519B185D15DA5D1A115919D95CD0140901404333333333333E3BF0000000000000F9010740901411070040501600405405064090741402480A1B50
1001
ACAD
1000
AcDbSavedByObjectVersion
1070
     0
  0
ACAD_PROXY_OBJECT
  5
2D
102
{ACAD_REACTORS
330
2A
102
}
330
2A
100
AcDbProxyObject
 90
      499
 91
      501
 93
      412
310
41D1DBDD5C985D5910240902404333333333333E3BF0000000000000F9010740A411070040501641D405064090741402480A1B50
1001
ACAD
1000
AcDbSavedByObjectVersion
1070
     0
  0
ACAD_PROXY_OBJECT
  5
2E
102
{ACAD_REACTORS
330
2A
102
}
330
2A
100
AcDbProxyObject
 90
      499
 91
      501
 93
      500
310
4411DBDD5C985D5915DA5D1A115919D95CD0340902404333333333333E3BF0000000000000F9010740901411070040501600405405064090741402480A1B50
1001
ACAD
1000
AcDbSavedByObjectVersion
1070
     0
  0
ACAD_PROXY_OBJECT
  5
38
102
{ACAD_REACTORS
330
2A
102
}
330
2A
100
AcDbProxyObject
 90
      499
 91
      501
 93
      444
310
42D31A5B995C185D1D195C9B90E409028333333333333E3BF0000000000000FB010790141107004050750841D405064090741402483A0350
1001
ACAD
1000
AcDbSavedByObjectVersion
1070
     0
  0
ACAD_PROXY_OBJECT
  5
33
102
{ACAD_REACTORS
330
2A
102
}
330
2A
100
AcDbProxyObject
 90
      499
 91
      501
 93
      420
310
425499585B1A5CDD1A58D08409028333333333333E3BF0000000000000FB01079019070040501508421405064090741402480A1B40
1001
ACAD
1000
AcDbSavedByObjectVersion
1070
     0
  0
ACAD_PROXY_OBJECT
  5
37
102
{ACAD_REACTORS
330
2A
102
}
330
2A
100
AcDbProxyObject
 90
      499
 91
      501
 93
      412
310
41D51A1A58DAD95B90D409028333333333333E3BF0000000000000FB010790141107004050150C41D405064090741402480A0350
1001
ACAD
1000
AcDbSavedByObjectVersion
1070
     0
  0
XRECORD
  5
5B3
102
{ACAD_REACTORS
330
5AA
102
}
330
5AA
100
AcDbXrecord
 90
        0
  0
XRECORD
  5
5C9
102
{ACAD_REACTORS
330
5AA
102
}
330
5AA
100
AcDbXrecord
1000
DSTYLE
1002
{
1070
   340
340
11
1002
}
  0
XRECORD
  5
5B4
102
{ACAD_REACTORS
330
5AA
102
}
330
5AA
100
AcDbXrecord
  1
{3931A376-C8D6-4D0A-A90A-C9DB4E2D0E8F}
  0
XRECORD
  5
5AD
102
{ACAD_REACTORS
330
5AA
102
}
330
5AA
100
AcDbXrecord
  1

  0
XRECORD
  5
5B2
102
{ACAD_REACTORS
330
5AA
102
}
330
5AA
100
AcDbXrecord
 90
        4
  0
XRECORD
  5
5AF
102
{ACAD_REACTORS
330
5AA
102
}
330
5AA
100
AcDbXrecord
340
1A
  0
XRECORD
  5
5B1
102
{ACAD_REACTORS
330
5AA
102
}
330
5AA
100
AcDbXrecord
 90
    10781
  0
XRECORD
  5
5B0
102
{ACAD_REACTORS
330
5AA
102
}
330
5AA
100
AcDbXrecord
340
19
  0
XRECORD
  5
5B6
102
{ACAD_REACTORS
330
5AA
102
}
330
5AA
100
AcDbXrecord
 40
0.0
  0
XRECORD
  5
5B9
102
{ACAD_REACTORS
330
5AA
102
}
330
5AA
100
AcDbXrecord
340
0
  0
XRECORD
  5
5BF
102
{ACAD_REACTORS
330
5AA
102
}
330
5AA
100
AcDbXrecord
 10
0.0
 20
0.0
 30
0.0
  0
XRECORD
  5
5BB
102
{ACAD_REACTORS
330
5AA
102
}
330
5AA
100
AcDbXrecord
 10
0.0
 20
0.0
 30
0.0
  0
XRECORD
  5
5BE
102
{ACAD_REACTORS
330
5AA
102
}
330
5AA
100
AcDbXrecord
 10
0.0
 20
0.0
 30
0.0
  0
XRECORD
  5
5BC
102
{ACAD_REACTORS
330
5AA
102
}
330
5AA
100
AcDbXrecord
 10
0.0
 20
0.0
 30
0.0
  0
XRECORD
  5
5BD
102
{ACAD_REACTORS
330
5AA
102
}
330
5AA
100
AcDbXrecord
 10
0.0
 20
0.0
 30
0.0
  0
XRECORD
  5
5BA
102
{ACAD_REACTORS
330
5AA
102
}
330
5AA
100
AcDbXrecord
 10
0.0
 20
0.0
 30
0.0
  0
XRECORD
  5
5B7
102
{ACAD_REACTORS
330
5AA
102
}
330
5AA
100
AcDbXrecord
340
0
  0
XRECORD
  5
5B8
102
{ACAD_REACTORS
330
5AA
102
}
330
5AA
100
AcDbXrecord
 70
     0
  0
XRECORD
  5
5AE
102
{ACAD_REACTORS
330
5AA
102
}
330
5AA
100
AcDbXrecord
  1

  0
XRECORD
  5
5AB
102
{ACAD_REACTORS
330
5AA
102
}
330
5AA
100
AcDbXrecord
 90
        1
  0
XRECORD
  5
5AC
102
{ACAD_REACTORS
330
5AA
102
}
330
5AA
100
AcDbXrecord
 90
       70
  0
XRECORD
  5
5C2
102
{ACAD_REACTORS
330
5AA
102
}
330
5AA
100
AcDbXrecord
340
0
  0
XRECORD
  5
5C8
102
{ACAD_REACTORS
330
5AA
102
}
330
5AA
100
AcDbXrecord
 10
0.0
 20
0.0
 30
0.0
  0
XRECORD
  5
5C4
102
{ACAD_REACTORS
330
5AA
102
}
330
5AA
100
AcDbXrecord
 10
0.0
 20
0.0
 30
0.0
  0
XRECORD
  5
5C7
102
{ACAD_REACTORS
330
5AA
102
}
330
5AA
100
AcDbXrecord
 10
0.0
 20
0.0
 30
0.0
  0
XRECORD
  5
5C5
102
{ACAD_REACTORS
330
5AA
102
}
330
5AA
100
AcDbXrecord
 10
0.0
 20
0.0
 30
0.0
  0
XRECORD
  5
5C6
102
{ACAD_REACTORS
330
5AA
102
}
330
5AA
100
AcDbXrecord
 10
0.0
 20
0.0
 30
0.0
  0
XRECORD
  5
5C3
102
{ACAD_REACTORS
330
5AA
102
}
330
5AA
100
AcDbXrecord
 10
0.0
 20
0.0
 30
0.0
  0
XRECORD
  5
5C0
102
{ACAD_REACTORS
330
5AA
102
}
330
5AA
100
AcDbXrecord
340
0
  0
XRECORD
  5
5C1
102
{ACAD_REACTORS
330
5AA
102
}
330
5AA
100
AcDbXrecord
 70
     0
  0
XRECORD
  5
5B5
102
{ACAD_REACTORS
330
5AA
102
}
330
5AA
100
AcDbXrecord
  1
{FAEB1C32-E019-11D5-929B-00C0DF256EC4}
  0
DICTIONARYVAR
  5
5CF
102
{ACAD_REACTORS
330
5CA
102
}
330
5CA
100
DictionaryVariables
280
     0
  1
2
  0
DICTIONARYVAR
  5
5D0
102
{ACAD_REACTORS
330
5CA
102
}
330
5CA
100
DictionaryVariables
280
     0
  1
1
  0
DICTIONARYVAR
  5
5CE
102
{ACAD_REACTORS
330
5CA
102
}
330
5CA
100
DictionaryVariables
280
     0
  1
80.000000
  0
DICTIONARYVAR
  5
5CD
102
{ACAD_REACTORS
330
5CA
102
}
330
5CA
100
DictionaryVariables
280
     0
  1
5.000000
  0
DICTIONARY
  5
5D3
330
3D
100
AcDbDictionary
280
     1
  3
ACAD_XREC_ROUNDTRIP
360
5D4
  0
DICTIONARY
  5
5D1
330
3C
100
AcDbDictionary
280
     1
  3
ACAD_XREC_ROUNDTRIP
360
5D2
  0
DICTIONARY
  5
5D5
330
3E
100
AcDbDictionary
280
     1
  3
ACAD_XREC_ROUNDTRIP
360
5D6
  0
XRECORD
  5
5D4
102
{ACAD_REACTORS
330
5D3
102
}
330
5D3
100
AcDbXrecord
102
MATERIAL
148
0.0
149
0.0
149
0.0
 93
        0
 94
      127
282
     0
 72
     1
 77
     1
171
     1
175
     1
179
     1
273
     0
  0
XRECORD
  5
5D2
102
{ACAD_REACTORS
330
5D1
102
}
330
5D1
100
AcDbXrecord
102
MATERIAL
148
0.0
149
0.0
149
0.0
 93
        0
 94
      127
282
     0
 72
     1
 77
     1
171
     1
175
     1
179
     1
273
     0
  0
XRECORD
  5
5D6
102
{ACAD_REACTORS
330
5D5
102
}
330
5D5
100
AcDbXrecord
102
MATERIAL
148
0.0
149
0.0
149
0.0
 93
        0
 94
      127
282
     0
 72
     1
 77
     1
171
     1
175
     1
179
     1
273
     0
  0
ENDSEC
  0
EOF
