  0
SECTION
  2
HEADER
  9
$ACADVER
  1
AC1014
  9
$ACADMAINTVER
 70
     9
  9
$DWGCODEPAGE
  3
ANSI_932
  9
$INSBASE
 10
0.0
 20
0.0
 30
0.0
  9
$EXTMIN
 10
0.9000000000000078
 20
13.5
 30
0.0
  9
$EXTMAX
 10
200.0
 20
288.5
 30
0.0
  9
$LIMMIN
 10
0.0
 20
0.0
  9
$LIMMAX
 10
210.0
 20
297.0
  9
$ORTHOMODE
 70
     0
  9
$REGENMODE
 70
     1
  9
$FILLMODE
 70
     1
  9
$QTEXTMODE
 70
     0
  9
$MIRRTEXT
 70
     1
  9
$DRAGMODE
 70
     2
  9
$LTSCALE
 40
1.0
  9
$OSMODE
 70
    37
  9
$ATTMODE
 70
     1
  9
$TEXTSIZE
 40
2.5
  9
$TRACEWID
 40
1.0
  9
$TEXTSTYLE
  7
STANDARD
  9
$CLAYER
  8
化粧台
  9
$CELTYPE
  6
BYLAYER
  9
$CECOLOR
 62
   256
  9
$CELTSCALE
 40
1.0
  9
$DELOBJ
 70
     1
  9
$DISPSILH
 70
     0
  9
$DIMSCALE
 40
1.0
  9
$DIMASZ
 40
2.5
  9
$DIMEXO
 40
0.625
  9
$DIMDLI
 40
3.75
  9
$DIMRND
 40
0.0
  9
$DIMDLE
 40
0.0
  9
$DIMEXE
 40
1.25
  9
$DIMTP
 40
0.0
  9
$DIMTM
 40
0.0
  9
$DIMTXT
 40
2.5
  9
$DIMCEN
 40
2.5
  9
$DIMTSZ
 40
0.0
  9
$DIMTOL
 70
     0
  9
$DIMLIM
 70
     0
  9
$DIMTIH
 70
     0
  9
$DIMTOH
 70
     0
  9
$DIMSE1
 70
     0
  9
$DIMSE2
 70
     0
  9
$DIMTAD
 70
     1
  9
$DIMZIN
 70
     8
  9
$DIMBLK
  1

  9
$DIMASO
 70
     1
  9
$DIMSHO
 70
     1
  9
$DIMPOST
  1

  9
$DIMAPOST
  1

  9
$DIMALT
 70
     0
  9
$DIMALTD
 70
     3
  9
$DIMALTF
 40
0.03937007874016
  9
$DIMLFAC
 40
1.0
  9
$DIMTOFL
 70
     1
  9
$DIMTVP
 40
0.0
  9
$DIMTIX
 70
     0
  9
$DIMSOXD
 70
     0
  9
$DIMSAH
 70
     0
  9
$DIMBLK1
  1

  9
$DIMBLK2
  1

  9
$DIMSTYLE
  2
ISO-25
  9
$DIMCLRD
 70
     0
  9
$DIMCLRE
 70
     0
  9
$DIMCLRT
 70
     0
  9
$DIMTFAC
 40
1.0
  9
$DIMGAP
 40
0.625
  9
$DIMJUST
 70
     0
  9
$DIMSD1
 70
     0
  9
$DIMSD2
 70
     0
  9
$DIMTOLJ
 70
     0
  9
$DIMTZIN
 70
     8
  9
$DIMALTZ
 70
     0
  9
$DIMALTTZ
 70
     0
  9
$DIMFIT
 70
     3
  9
$DIMUPT
 70
     0
  9
$DIMUNIT
 70
     2
  9
$DIMDEC
 70
     2
  9
$DIMTDEC
 70
     2
  9
$DIMALTU
 70
     2
  9
$DIMALTTD
 70
     3
  9
$DIMTXSTY
  7
STANDARD
  9
$DIMAUNIT
 70
     0
  9
$LUNITS
 70
     2
  9
$LUPREC
 70
     4
  9
$SKETCHINC
 40
1.0
  9
$FILLETRAD
 40
10.0
  9
$AUNITS
 70
     0
  9
$AUPREC
 70
     0
  9
$MENU
  1
.
  9
$ELEVATION
 40
0.0
  9
$PELEVATION
 40
0.0
  9
$THICKNESS
 40
0.0
  9
$LIMCHECK
 70
     0
  9
$CHAMFERA
 40
10.0
  9
$CHAMFERB
 40
10.0
  9
$CHAMFERC
 40
20.0
  9
$CHAMFERD
 40
0.0
  9
$SKPOLY
 70
     0
  9
$TDCREATE
 40
2457221.500330139
  9
$TDUPDATE
 40
2457221.500330324
  9
$TDINDWG
 40
0.0000000116
  9
$TDUSRTIMER
 40
0.0000000116
  9
$USRTIMER
 70
     1
  9
$ANGBASE
 50
0.0
  9
$ANGDIR
 70
     0
  9
$PDMODE
 70
     0
  9
$PDSIZE
 40
0.0
  9
$PLINEWID
 40
0.0
  9
$COORDS
 70
     1
  9
$SPLFRAME
 70
     0
  9
$SPLINETYPE
 70
     6
  9
$SPLINESEGS
 70
     8
  9
$ATTDIA
 70
     0
  9
$ATTREQ
 70
     1
  9
$HANDLING
 70
     1
  9
$HANDSEED
  5
40B
  9
$SURFTAB1
 70
     6
  9
$SURFTAB2
 70
     6
  9
$SURFTYPE
 70
     6
  9
$SURFU
 70
     6
  9
$SURFV
 70
     6
  9
$UCSNAME
  2

  9
$UCSORG
 10
0.0
 20
0.0
 30
0.0
  9
$UCSXDIR
 10
1.0
 20
0.0
 30
0.0
  9
$UCSYDIR
 10
0.0
 20
1.0
 30
0.0
  9
$PUCSNAME
  2

  9
$PUCSORG
 10
0.0
 20
0.0
 30
0.0
  9
$PUCSXDIR
 10
1.0
 20
0.0
 30
0.0
  9
$PUCSYDIR
 10
0.0
 20
1.0
 30
0.0
  9
$USERI1
 70
     0
  9
$USERI2
 70
     0
  9
$USERI3
 70
     0
  9
$USERI4
 70
     0
  9
$USERI5
 70
     0
  9
$USERR1
 40
0.0
  9
$USERR2
 40
0.0
  9
$USERR3
 40
0.0
  9
$USERR4
 40
0.0
  9
$USERR5
 40
0.0
  9
$WORLDVIEW
 70
     1
  9
$SHADEDGE
 70
     3
  9
$SHADEDIF
 70
    70
  9
$TILEMODE
 70
     1
  9
$MAXACTVP
 70
    64
  9
$PINSBASE
 10
0.0
 20
0.0
 30
0.0
  9
$PLIMCHECK
 70
     0
  9
$PEXTMIN
 10
1.000000000000000E+20
 20
1.000000000000000E+20
 30
1.000000000000000E+20
  9
$PEXTMAX
 10
-1.000000000000000E+20
 20
-1.000000000000000E+20
 30
-1.000000000000000E+20
  9
$PLIMMIN
 10
0.0
 20
0.0
  9
$PLIMMAX
 10
420.0
 20
297.0
  9
$UNITMODE
 70
     0
  9
$VISRETAIN
 70
     1
  9
$PLINEGEN
 70
     0
  9
$PSLTSCALE
 70
     1
  9
$TREEDEPTH
 70
  3020
  9
$PICKSTYLE
 70
     1
  9
$CMLSTYLE
  2
STANDARD
  9
$CMLJUST
 70
     0
  9
$CMLSCALE
 40
20.0
  9
$PROXYGRAPHICS
 70
     1
  9
$MEASUREMENT
 70
     1
  0
ENDSEC
  0
SECTION
  2
CLASSES
  0
CLASS
  1
ACDBDICTIONARYWDFLT
  2
AcDbDictionaryWithDefault
  3
ObjectDBX Classes
 90
        0
280
     0
281
     0
  0
CLASS
  1
VISUALSTYLE
  2
AcDbVisualStyle
  3
ObjectDBX Classes
 90
     4095
280
     0
281
     0
  0
CLASS
  1
MATERIAL
  2
AcDbMaterial
  3
ObjectDBX Classes
 90
     1153
280
     0
281
     0
  0
CLASS
  1
SUN
  2
AcDbSun
  3
SCENEOE
 90
     1024
280
     0
281
     0
  0
CLASS
  1
DICTIONARYVAR
  2
AcDbDictionaryVar
  3
ObjectDBX Classes
 90
        0
280
     0
281
     0
  0
CLASS
  1
XRECORD
  2
AcDbXrecord
  3
AutoCAD 2000
 90
        0
280
     0
281
     0
  0
CLASS
  1
LWPOLYLINE
  2
AcDbPolyline
  3
AutoCAD 2000
 90
        0
280
     0
281
     1
  0
CLASS
  1
HATCH
  2
AcDbHatch
  3
AutoCAD 2000
 90
        0
280
     0
281
     1
  0
CLASS
  1
ACDBPLACEHOLDER
  2
AcDbPlaceHolder
  3
ObjectDBX Classes
 90
        0
280
     0
281
     0
  0
CLASS
  1
LAYOUT
  2
AcDbLayout
  3
ObjectDBX Classes
 90
        0
280
     0
281
     0
  0
ENDSEC
  0
SECTION
  2
TABLES
  0
TABLE
  2
VPORT
  5
8
330
0
100
AcDbSymbolTable
 70
     1
  0
VPORT
  5
29
330
8
100
AcDbSymbolTableRecord
100
AcDbViewportTableRecord
  2
*ACTIVE
 70
     0
 10
0.0
 20
0.0
 11
1.0
 21
1.0
 12
1004.5
 22
1510.0
 13
0.0
 23
0.0
 14
10.0
 24
10.0
 15
10.0
 25
10.0
 16
0.0
 26
0.0
 36
1.0
 17
0.0
 27
0.0
 37
0.0
 40
2750.0
 41
0.7240000000000001
 42
50.0
 43
0.0
 44
0.0
 50
0.0
 51
0.0
 71
     0
 72
  1000
 73
     1
 74
     3
 75
     0
 76
     0
 77
     0
 78
     0
  0
ENDTAB
  0
TABLE
  2
LTYPE
  5
5
330
0
100
AcDbSymbolTable
 70
     7
  0
LTYPE
  5
14
330
5
100
AcDbSymbolTableRecord
100
AcDbLinetypeTableRecord
  2
BYBLOCK
 70
     0
  3

 72
    65
 73
     0
 40
0.0
  0
LTYPE
  5
15
330
5
100
AcDbSymbolTableRecord
100
AcDbLinetypeTableRecord
  2
BYLAYER
 70
     0
  3

 72
    65
 73
     0
 40
0.0
  0
LTYPE
  5
16
330
5
100
AcDbSymbolTableRecord
100
AcDbLinetypeTableRecord
  2
CONTINUOUS
 70
     0
  3
Solid line
 72
    65
 73
     0
 40
0.0
  0
LTYPE
  5
40
330
5
100
AcDbSymbolTableRecord
100
AcDbLinetypeTableRecord
  2
EXLTYPE1
 70
     0
  3
破線
 72
    65
 73
     2
 40
3.0
 49
2.0
 74
     0
 49
-1.0
 74
     0
  0
LTYPE
  5
41
330
5
100
AcDbSymbolTableRecord
100
AcDbLinetypeTableRecord
  2
EXLTYPE2
 70
     0
  3
点線
 72
    65
 73
     2
 40
2.0
 49
1.0
 74
     0
 49
-1.0
 74
     0
  0
LTYPE
  5
42
330
5
100
AcDbSymbolTableRecord
100
AcDbLinetypeTableRecord
  2
EXLTYPE3
 70
     0
  3
一点鎖線
 72
    65
 73
     4
 40
10.0
 49
7.0
 74
     0
 49
-1.0
 74
     0
 49
1.0
 74
     0
 49
-1.0
 74
     0
  0
LTYPE
  5
43
330
5
100
AcDbSymbolTableRecord
100
AcDbLinetypeTableRecord
  2
EXLTYPE4
 70
     0
  3
二点鎖線
 72
    65
 73
     6
 40
12.0
 49
7.0
 74
     0
 49
-1.0
 74
     0
 49
1.0
 74
     0
 49
-1.0
 74
     0
 49
1.0
 74
     0
 49
-1.0
 74
     0
  0
LTYPE
  5
44
330
5
100
AcDbSymbolTableRecord
100
AcDbLinetypeTableRecord
  2
EXLTYPE5
 70
     0
  3
三点鎖線
 72
    65
 73
     8
 40
37.0
 49
30.0
 74
     0
 49
-1.0
 74
     0
 49
1.0
 74
     0
 49
-1.0
 74
     0
 49
1.0
 74
     0
 49
-1.0
 74
     0
 49
1.0
 74
     0
 49
-1.0
 74
     0
  0
LTYPE
  5
45
330
5
100
AcDbSymbolTableRecord
100
AcDbLinetypeTableRecord
  2
EXLTYPE6
 70
     0
  3
四点鎖線
 72
    65
 73
    10
 40
39.0
 49
30.0
 74
     0
 49
-1.0
 74
     0
 49
1.0
 74
     0
 49
-1.0
 74
     0
 49
1.0
 74
     0
 49
-1.0
 74
     0
 49
1.0
 74
     0
 49
-1.0
 74
     0
 49
1.0
 74
     0
 49
-1.0
 74
     0
  0
ENDTAB
  0
TABLE
  2
LAYER
  5
2
330
0
100
AcDbSymbolTable
 70
     7
  0
LAYER
  5
10
330
2
100
AcDbSymbolTableRecord
100
AcDbLayerTableRecord
  2
0
 70
     0
 62
     7
  6
CONTINUOUS
  0
LAYER
  5
48
330
2
100
AcDbSymbolTableRecord
100
AcDbLayerTableRecord
  2
枠_表
 70
     0
 62
     7
  6
CONTINUOUS
  0
LAYER
  5
49
330
2
100
AcDbSymbolTableRecord
100
AcDbLayerTableRecord
  2
化粧台
 70
     0
 62
     7
  6
CONTINUOUS
  0
LAYER
  5
4A
330
2
100
AcDbSymbolTableRecord
100
AcDbLayerTableRecord
  2
鏡台
 70
     0
 62
     7
  6
CONTINUOUS
  0
LAYER
  5
4B
330
2
100
AcDbSymbolTableRecord
100
AcDbLayerTableRecord
  2
付属金具
 70
     0
 62
     7
  6
CONTINUOUS
  0
LAYER
  5
4C
330
2
100
AcDbSymbolTableRecord
100
AcDbLayerTableRecord
  2
寸法
 70
     0
 62
     7
  6
CONTINUOUS
  0
LAYER
  5
329
330
2
100
AcDbSymbolTableRecord
100
AcDbLayerTableRecord
  2
DEFPOINTS
 70
     0
 62
     7
  6
CONTINUOUS
  0
ENDTAB
  0
TABLE
  2
STYLE
  5
3
330
0
100
AcDbSymbolTable
 70
     4
  0
STYLE
  5
11
330
3
100
AcDbSymbolTableRecord
100
AcDbTextStyleTableRecord
  2
STANDARD
 70
     0
 40
0.0
 41
1.0
 50
0.0
 71
     0
 42
2.5
  3
monotxt
  4
extfont
  0
STYLE
  5
46
330
3
100
AcDbSymbolTableRecord
100
AcDbTextStyleTableRecord
  2
EXCADSTD
 70
     0
 40
0.0
 41
1.0
 50
0.0
 71
     0
 42
0.2
  3
monotxt
  4
extfont
  0
STYLE
  5
47
330
3
100
AcDbSymbolTableRecord
100
AcDbTextStyleTableRecord
  2
EXCADVERT
 70
     4
 40
0.0
 41
1.0
 50
0.0
 71
     0
 42
0.286885
  3
monotxt
  4
extfont
  0
STYLE
  5
327
330
3
100
AcDbSymbolTableRecord
100
AcDbTextStyleTableRecord
  2
EXCADDIM1
 70
     0
 40
0.0
 41
0.84
 50
0.0
 71
     0
 42
0.2
  3
monotxt
  4
extfont
  0
ENDTAB
  0
TABLE
  2
VIEW
  5
6
330
0
100
AcDbSymbolTable
 70
     0
  0
ENDTAB
  0
TABLE
  2
UCS
  5
7
330
0
100
AcDbSymbolTable
 70
     0
  0
ENDTAB
  0
TABLE
  2
APPID
  5
9
330
0
100
AcDbSymbolTable
 70
     1
  0
APPID
  5
12
330
9
100
AcDbSymbolTableRecord
100
AcDbRegAppTableRecord
  2
ACAD
 70
     0
  0
ENDTAB
  0
TABLE
  2
DIMSTYLE
  5
A
330
0
100
AcDbSymbolTable
 70
     1
  0
DIMSTYLE
105
27
102
{ACAD_REACTORS
330
328
330
336
330
345
330
352
330
35F
330
36C
330
379
330
386
330
395
330
3AA
330
3BB
330
3C6
330
3D2
102
}
330
A
100
AcDbSymbolTableRecord
100
AcDbDimStyleTableRecord
  2
ISO-25
 70
     0
  3

  4

  5

  6

  7

 40
1.0
 41
2.5
 42
0.625
 43
3.75
 44
1.25
 45
0.0
 46
0.0
 47
0.0
 48
0.0
140
2.5
141
2.5
142
0.0
143
0.03937007874016
144
1.0
145
0.0
146
1.0
147
0.625
 71
     0
 72
     0
 73
     0
 74
     0
 75
     0
 76
     0
 77
     1
 78
     8
170
     0
171
     3
172
     1
173
     0
174
     0
175
     0
176
     0
177
     0
178
     0
270
     2
271
     2
272
     2
273
     2
274
     3
340
11
275
     0
280
     0
281
     0
282
     0
283
     0
284
     8
285
     0
286
     0
287
     5
288
     0
  0
ENDTAB
  0
TABLE
  2
BLOCK_RECORD
  5
1
330
0
100
AcDbSymbolTable
 70
    28
  0
BLOCK_RECORD
  5
1F
330
1
100
AcDbSymbolTableRecord
100
AcDbBlockTableRecord
  2
*MODEL_SPACE
  0
BLOCK_RECORD
  5
1B
330
1
100
AcDbSymbolTableRecord
100
AcDbBlockTableRecord
  2
*PAPER_SPACE
  0
BLOCK_RECORD
  5
4D
330
1
100
AcDbSymbolTableRecord
100
AcDbBlockTableRecord
  2
EX_NORM
  0
BLOCK_RECORD
  5
50
330
1
100
AcDbSymbolTableRecord
100
AcDbBlockTableRecord
  2
EX_BNORM
  0
BLOCK_RECORD
  5
53
330
1
100
AcDbSymbolTableRecord
100
AcDbBlockTableRecord
  2
EX_BCIR
  0
BLOCK_RECORD
  5
56
330
1
100
AcDbSymbolTableRecord
100
AcDbBlockTableRecord
  2
EX_RCIVIL
  0
BLOCK_RECORD
  5
59
330
1
100
AcDbSymbolTableRecord
100
AcDbBlockTableRecord
  2
EX_SLANT
  0
BLOCK_RECORD
  5
5C
330
1
100
AcDbSymbolTableRecord
100
AcDbBlockTableRecord
  2
EX_NONE
  0
BLOCK_RECORD
  5
5F
330
1
100
AcDbSymbolTableRecord
100
AcDbBlockTableRecord
  2
EX_CIVIL
  0
BLOCK_RECORD
  5
62
330
1
100
AcDbSymbolTableRecord
100
AcDbBlockTableRecord
  2
EX_WCIR
  0
BLOCK_RECORD
  5
65
330
1
100
AcDbSymbolTableRecord
100
AcDbBlockTableRecord
  2
EX_WCIR2
  0
BLOCK_RECORD
  5
68
330
1
100
AcDbSymbolTableRecord
100
AcDbBlockTableRecord
  2
EX_WNORM
  0
BLOCK_RECORD
  5
6B
330
1
100
AcDbSymbolTableRecord
100
AcDbBlockTableRecord
  2
EX_NNORM
  0
BLOCK_RECORD
  5
6E
330
1
100
AcDbSymbolTableRecord
100
AcDbBlockTableRecord
  2
EX_BBOX
  0
BLOCK_RECORD
  5
71
330
1
100
AcDbSymbolTableRecord
100
AcDbBlockTableRecord
  2
EX_WBOX
  0
BLOCK_RECORD
  5
74
330
1
100
AcDbSymbolTableRecord
100
AcDbBlockTableRecord
  2
EX_INTEGRAL
  0
BLOCK_RECORD
  5
32A
330
1
100
AcDbSymbolTableRecord
100
AcDbBlockTableRecord
  2
*D15
  0
BLOCK_RECORD
  5
337
330
1
100
AcDbSymbolTableRecord
100
AcDbBlockTableRecord
  2
*D16
  0
BLOCK_RECORD
  5
346
330
1
100
AcDbSymbolTableRecord
100
AcDbBlockTableRecord
  2
*D17
  0
BLOCK_RECORD
  5
353
330
1
100
AcDbSymbolTableRecord
100
AcDbBlockTableRecord
  2
*D18
  0
BLOCK_RECORD
  5
360
330
1
100
AcDbSymbolTableRecord
100
AcDbBlockTableRecord
  2
*D19
  0
BLOCK_RECORD
  5
36D
330
1
100
AcDbSymbolTableRecord
100
AcDbBlockTableRecord
  2
*D20
  0
BLOCK_RECORD
  5
37A
330
1
100
AcDbSymbolTableRecord
100
AcDbBlockTableRecord
  2
*D21
  0
BLOCK_RECORD
  5
387
330
1
100
AcDbSymbolTableRecord
100
AcDbBlockTableRecord
  2
*D22
  0
BLOCK_RECORD
  5
396
330
1
100
AcDbSymbolTableRecord
100
AcDbBlockTableRecord
  2
*D23
  0
BLOCK_RECORD
  5
3AB
330
1
100
AcDbSymbolTableRecord
100
AcDbBlockTableRecord
  2
*D24
  0
BLOCK_RECORD
  5
3BC
330
1
100
AcDbSymbolTableRecord
100
AcDbBlockTableRecord
  2
*D25
  0
BLOCK_RECORD
  5
3C7
330
1
100
AcDbSymbolTableRecord
100
AcDbBlockTableRecord
  2
*D26
  0
BLOCK_RECORD
  5
3D3
330
1
100
AcDbSymbolTableRecord
100
AcDbBlockTableRecord
  2
*D27
  0
ENDTAB
  0
ENDSEC
  0
SECTION
  2
BLOCKS
  0
BLOCK
  5
20
330
1F
100
AcDbEntity
  8
0
100
AcDbBlockBegin
  2
*MODEL_SPACE
 70
     0
 10
0.0
 20
0.0
 30
0.0
  3
*MODEL_SPACE
  1

  0
ENDBLK
  5
21
330
1F
100
AcDbEntity
  8
0
100
AcDbBlockEnd
  0
BLOCK
  5
1C
330
1B
100
AcDbEntity
 67
     1
  8
0
100
AcDbBlockBegin
  2
*PAPER_SPACE
 70
     0
 10
0.0
 20
0.0
 30
0.0
  3
*PAPER_SPACE
  1

  0
ENDBLK
  5
1D
330
1B
100
AcDbEntity
 67
     1
  8
0
100
AcDbBlockEnd
  0
BLOCK
  5
4E
330
4D
100
AcDbEntity
  8
0
100
AcDbBlockBegin
  2
EX_NORM
 70
     0
 10
0.0
 20
0.0
 30
0.0
  3
EX_NORM
  1

  0
LINE
  5
77
330
4D
100
AcDbEntity
  8
0
  6
CONTINUOUS
 62
     0
100
AcDbLine
 10
0.0
 20
0.0
 30
0.0
 11
-1.0
 21
0.0
 31
0.0
  0
LINE
  5
78
330
4D
100
AcDbEntity
  8
0
  6
CONTINUOUS
 62
     0
100
AcDbLine
 10
0.0
 20
0.0
 30
0.0
 11
-1.0
 21
0.166666667
 31
0.0
  0
LINE
  5
79
330
4D
100
AcDbEntity
  8
0
  6
CONTINUOUS
 62
     0
100
AcDbLine
 10
0.0
 20
0.0
 30
0.0
 11
-1.0
 21
-0.166666667
 31
0.0
  0
ENDBLK
  5
4F
330
4D
100
AcDbEntity
  8
0
100
AcDbBlockEnd
  0
BLOCK
  5
51
330
50
100
AcDbEntity
  8
0
100
AcDbBlockBegin
  2
EX_BNORM
 70
     0
 10
0.0
 20
0.0
 30
0.0
  3
EX_BNORM
  1

  0
LINE
  5
7A
330
50
100
AcDbEntity
  8
0
  6
CONTINUOUS
 62
     0
100
AcDbLine
 10
0.0
 20
0.0
 30
0.0
 11
-1.0
 21
0.0
 31
0.0
  0
LINE
  5
7B
330
50
100
AcDbEntity
  8
0
  6
CONTINUOUS
 62
     0
100
AcDbLine
 10
0.0
 20
0.0
 30
0.0
 11
-1.0
 21
0.166666667
 31
0.0
  0
LINE
  5
7C
330
50
100
AcDbEntity
  8
0
  6
CONTINUOUS
 62
     0
100
AcDbLine
 10
0.0
 20
0.0
 30
0.0
 11
-1.0
 21
-0.166666667
 31
0.0
  0
LINE
  5
7D
330
50
100
AcDbEntity
  8
0
  6
CONTINUOUS
 62
     0
100
AcDbLine
 10
0.0
 20
0.0
 30
0.0
 11
-1.0
 21
0.083333333
 31
0.0
  0
LINE
  5
7E
330
50
100
AcDbEntity
  8
0
  6
CONTINUOUS
 62
     0
100
AcDbLine
 10
0.0
 20
0.0
 30
0.0
 11
-1.0
 21
-0.083333333
 31
0.0
  0
LINE
  5
7F
330
50
100
AcDbEntity
  8
0
  6
CONTINUOUS
 62
     0
100
AcDbLine
 10
-1.0
 20
0.166666667
 30
0.0
 11
-1.0
 21
-0.166666667
 31
0.0
  0
ENDBLK
  5
52
330
50
100
AcDbEntity
  8
0
100
AcDbBlockEnd
  0
BLOCK
  5
54
330
53
100
AcDbEntity
  8
0
100
AcDbBlockBegin
  2
EX_BCIR
 70
     0
 10
0.0
 20
0.0
 30
0.0
  3
EX_BCIR
  1

  0
LINE
  5
80
330
53
100
AcDbEntity
  8
0
  6
CONTINUOUS
 62
     0
100
AcDbLine
 10
0.0
 20
0.0
 30
0.0
 11
-1.0
 21
0.0
 31
0.0
  0
CIRCLE
  5
81
330
53
100
AcDbEntity
  8
0
  6
CONTINUOUS
 62
     0
100
AcDbCircle
 10
0.0
 20
0.0
 30
0.0
 40
0.5
  0
CIRCLE
  5
82
330
53
100
AcDbEntity
  8
0
  6
CONTINUOUS
 62
     0
100
AcDbCircle
 10
0.0
 20
0.0
 30
0.0
 40
0.25
  0
ENDBLK
  5
55
330
53
100
AcDbEntity
  8
0
100
AcDbBlockEnd
  0
BLOCK
  5
57
330
56
100
AcDbEntity
  8
0
100
AcDbBlockBegin
  2
EX_RCIVIL
 70
     0
 10
0.0
 20
0.0
 30
0.0
  3
EX_RCIVIL
  1

  0
LINE
  5
83
330
56
100
AcDbEntity
  8
0
  6
CONTINUOUS
 62
     0
100
AcDbLine
 10
0.0
 20
0.0
 30
0.0
 11
-1.0
 21
0.0
 31
0.0
  0
LINE
  5
84
330
56
100
AcDbEntity
  8
0
  6
CONTINUOUS
 62
     0
100
AcDbLine
 10
-1.0
 20
-0.25
 30
0.0
 11
0.0
 21
-0.25
 31
0.0
  0
LINE
  5
85
330
56
100
AcDbEntity
  8
0
  6
CONTINUOUS
 62
     0
100
AcDbLine
 10
-1.0
 20
-0.125
 30
0.0
 11
0.0
 21
-0.125
 31
0.0
  0
ENDBLK
  5
58
330
56
100
AcDbEntity
  8
0
100
AcDbBlockEnd
  0
BLOCK
  5
5A
330
59
100
AcDbEntity
  8
0
100
AcDbBlockBegin
  2
EX_SLANT
 70
     0
 10
0.0
 20
0.0
 30
0.0
  3
EX_SLANT
  1

  0
LINE
  5
86
330
59
100
AcDbEntity
  8
0
  6
CONTINUOUS
 62
     0
100
AcDbLine
 10
0.0
 20
0.0
 30
0.0
 11
-1.0
 21
0.0
 31
0.0
  0
LINE
  5
87
330
59
100
AcDbEntity
  8
0
  6
CONTINUOUS
 62
     0
100
AcDbLine
 10
0.707106781
 20
0.707106781
 30
0.0
 11
-0.707106781
 21
-0.707106781
 31
0.0
  0
ENDBLK
  5
5B
330
59
100
AcDbEntity
  8
0
100
AcDbBlockEnd
  0
BLOCK
  5
5D
330
5C
100
AcDbEntity
  8
0
100
AcDbBlockBegin
  2
EX_NONE
 70
     0
 10
0.0
 20
0.0
 30
0.0
  3
EX_NONE
  1

  0
LINE
  5
88
330
5C
100
AcDbEntity
  8
0
  6
CONTINUOUS
 62
     0
100
AcDbLine
 10
0.0
 20
0.0
 30
0.0
 11
-1.0
 21
0.0
 31
0.0
  0
ENDBLK
  5
5E
330
5C
100
AcDbEntity
  8
0
100
AcDbBlockEnd
  0
BLOCK
  5
60
330
5F
100
AcDbEntity
  8
0
100
AcDbBlockBegin
  2
EX_CIVIL
 70
     0
 10
0.0
 20
0.0
 30
0.0
  3
EX_CIVIL
  1

  0
LINE
  5
89
330
5F
100
AcDbEntity
  8
0
  6
CONTINUOUS
 62
     0
100
AcDbLine
 10
0.0
 20
0.0
 30
0.0
 11
-1.0
 21
0.0
 31
0.0
  0
LINE
  5
8A
330
5F
100
AcDbEntity
  8
0
  6
CONTINUOUS
 62
     0
100
AcDbLine
 10
-1.0
 20
0.25
 30
0.0
 11
0.0
 21
0.25
 31
0.0
  0
LINE
  5
8B
330
5F
100
AcDbEntity
  8
0
  6
CONTINUOUS
 62
     0
100
AcDbLine
 10
-1.0
 20
0.125
 30
0.0
 11
0.0
 21
0.125
 31
0.0
  0
ENDBLK
  5
61
330
5F
100
AcDbEntity
  8
0
100
AcDbBlockEnd
  0
BLOCK
  5
63
330
62
100
AcDbEntity
  8
0
100
AcDbBlockBegin
  2
EX_WCIR
 70
     0
 10
0.0
 20
0.0
 30
0.0
  3
EX_WCIR
  1

  0
LINE
  5
8C
330
62
100
AcDbEntity
  8
0
  6
CONTINUOUS
 62
     0
100
AcDbLine
 10
0.0
 20
0.0
 30
0.0
 11
-1.0
 21
0.0
 31
0.0
  0
CIRCLE
  5
8D
330
62
100
AcDbEntity
  8
0
  6
CONTINUOUS
 62
     0
100
AcDbCircle
 10
0.0
 20
0.0
 30
0.0
 40
0.5
  0
ENDBLK
  5
64
330
62
100
AcDbEntity
  8
0
100
AcDbBlockEnd
  0
BLOCK
  5
66
330
65
100
AcDbEntity
  8
0
100
AcDbBlockBegin
  2
EX_WCIR2
 70
     0
 10
0.0
 20
0.0
 30
0.0
  3
EX_WCIR2
  1

  0
LINE
  5
8E
330
65
100
AcDbEntity
  8
0
  6
CONTINUOUS
 62
     0
100
AcDbLine
 10
-0.5
 20
0.0
 30
0.0
 11
-1.0
 21
0.0
 31
0.0
  0
CIRCLE
  5
8F
330
65
100
AcDbEntity
  8
0
  6
CONTINUOUS
 62
     0
100
AcDbCircle
 10
0.0
 20
0.0
 30
0.0
 40
0.5
  0
ENDBLK
  5
67
330
65
100
AcDbEntity
  8
0
100
AcDbBlockEnd
  0
BLOCK
  5
69
330
68
100
AcDbEntity
  8
0
100
AcDbBlockBegin
  2
EX_WNORM
 70
     0
 10
0.0
 20
0.0
 30
0.0
  3
EX_WNORM
  1

  0
LINE
  5
90
330
68
100
AcDbEntity
  8
0
  6
CONTINUOUS
 62
     0
100
AcDbLine
 10
-1.0
 20
0.0
 30
0.0
 11
-1.0
 21
0.0
 31
0.0
  0
LINE
  5
91
330
68
100
AcDbEntity
  8
0
  6
CONTINUOUS
 62
     0
100
AcDbLine
 10
0.0
 20
0.0
 30
0.0
 11
-1.0
 21
0.166666667
 31
0.0
  0
LINE
  5
92
330
68
100
AcDbEntity
  8
0
  6
CONTINUOUS
 62
     0
100
AcDbLine
 10
0.0
 20
0.0
 30
0.0
 11
-1.0
 21
-0.166666667
 31
0.0
  0
LINE
  5
93
330
68
100
AcDbEntity
  8
0
  6
CONTINUOUS
 62
     0
100
AcDbLine
 10
-1.0
 20
0.166666667
 30
0.0
 11
-1.0
 21
-0.166666667
 31
0.0
  0
ENDBLK
  5
6A
330
68
100
AcDbEntity
  8
0
100
AcDbBlockEnd
  0
BLOCK
  5
6C
330
6B
100
AcDbEntity
  8
0
100
AcDbBlockBegin
  2
EX_NNORM
 70
     0
 10
0.0
 20
0.0
 30
0.0
  3
EX_NNORM
  1

  0
LINE
  5
94
330
6B
100
AcDbEntity
  8
0
  6
CONTINUOUS
 62
     0
100
AcDbLine
 10
0.0
 20
0.0
 30
0.0
 11
-1.0
 21
0.0
 31
0.0
  0
LINE
  5
95
330
6B
100
AcDbEntity
  8
0
  6
CONTINUOUS
 62
     0
100
AcDbLine
 10
0.0
 20
0.0
 30
0.0
 11
-1.0
 21
0.166666667
 31
0.0
  0
LINE
  5
96
330
6B
100
AcDbEntity
  8
0
  6
CONTINUOUS
 62
     0
100
AcDbLine
 10
0.0
 20
0.0
 30
0.0
 11
-1.0
 21
-0.166666667
 31
0.0
  0
LINE
  5
97
330
6B
100
AcDbEntity
  8
0
  6
CONTINUOUS
 62
     0
100
AcDbLine
 10
-1.0
 20
0.166666667
 30
0.0
 11
-1.0
 21
-0.166666667
 31
0.0
  0
ENDBLK
  5
6D
330
6B
100
AcDbEntity
  8
0
100
AcDbBlockEnd
  0
BLOCK
  5
6F
330
6E
100
AcDbEntity
  8
0
100
AcDbBlockBegin
  2
EX_BBOX
 70
     0
 10
0.0
 20
0.0
 30
0.0
  3
EX_BBOX
  1

  0
LINE
  5
98
330
6E
100
AcDbEntity
  8
0
  6
CONTINUOUS
 62
     0
100
AcDbLine
 10
0.0
 20
0.0
 30
0.0
 11
-1.0
 21
0.0
 31
0.0
  0
LINE
  5
99
330
6E
100
AcDbEntity
  8
0
  6
CONTINUOUS
 62
     0
100
AcDbLine
 10
-0.5
 20
0.5
 30
0.0
 11
0.5
 21
0.5
 31
0.0
  0
LINE
  5
9A
330
6E
100
AcDbEntity
  8
0
  6
CONTINUOUS
 62
     0
100
AcDbLine
 10
0.5
 20
0.5
 30
0.0
 11
0.5
 21
-0.5
 31
0.0
  0
LINE
  5
9B
330
6E
100
AcDbEntity
  8
0
  6
CONTINUOUS
 62
     0
100
AcDbLine
 10
0.5
 20
-0.5
 30
0.0
 11
-0.5
 21
-0.5
 31
0.0
  0
LINE
  5
9C
330
6E
100
AcDbEntity
  8
0
  6
CONTINUOUS
 62
     0
100
AcDbLine
 10
-0.5
 20
-0.5
 30
0.0
 11
-0.5
 21
0.5
 31
0.0
  0
LINE
  5
9D
330
6E
100
AcDbEntity
  8
0
  6
CONTINUOUS
 62
     0
100
AcDbLine
 10
-0.25
 20
0.25
 30
0.0
 11
0.25
 21
0.25
 31
0.0
  0
LINE
  5
9E
330
6E
100
AcDbEntity
  8
0
  6
CONTINUOUS
 62
     0
100
AcDbLine
 10
0.25
 20
0.25
 30
0.0
 11
0.25
 21
-0.25
 31
0.0
  0
LINE
  5
9F
330
6E
100
AcDbEntity
  8
0
  6
CONTINUOUS
 62
     0
100
AcDbLine
 10
0.25
 20
-0.25
 30
0.0
 11
-0.25
 21
-0.25
 31
0.0
  0
LINE
  5
A0
330
6E
100
AcDbEntity
  8
0
  6
CONTINUOUS
 62
     0
100
AcDbLine
 10
-0.25
 20
-0.25
 30
0.0
 11
-0.25
 21
0.25
 31
0.0
  0
ENDBLK
  5
70
330
6E
100
AcDbEntity
  8
0
100
AcDbBlockEnd
  0
BLOCK
  5
72
330
71
100
AcDbEntity
  8
0
100
AcDbBlockBegin
  2
EX_WBOX
 70
     0
 10
0.0
 20
0.0
 30
0.0
  3
EX_WBOX
  1

  0
LINE
  5
A1
330
71
100
AcDbEntity
  8
0
  6
CONTINUOUS
 62
     0
100
AcDbLine
 10
-0.5
 20
0.0
 30
0.0
 11
-1.0
 21
0.0
 31
0.0
  0
LINE
  5
A2
330
71
100
AcDbEntity
  8
0
  6
CONTINUOUS
 62
     0
100
AcDbLine
 10
-0.5
 20
0.5
 30
0.0
 11
0.5
 21
0.5
 31
0.0
  0
LINE
  5
A3
330
71
100
AcDbEntity
  8
0
  6
CONTINUOUS
 62
     0
100
AcDbLine
 10
0.5
 20
0.5
 30
0.0
 11
0.5
 21
-0.5
 31
0.0
  0
LINE
  5
A4
330
71
100
AcDbEntity
  8
0
  6
CONTINUOUS
 62
     0
100
AcDbLine
 10
0.5
 20
-0.5
 30
0.0
 11
-0.5
 21
-0.5
 31
0.0
  0
LINE
  5
A5
330
71
100
AcDbEntity
  8
0
  6
CONTINUOUS
 62
     0
100
AcDbLine
 10
-0.5
 20
-0.5
 30
0.0
 11
-0.5
 21
0.5
 31
0.0
  0
ENDBLK
  5
73
330
71
100
AcDbEntity
  8
0
100
AcDbBlockEnd
  0
BLOCK
  5
75
330
74
100
AcDbEntity
  8
0
100
AcDbBlockBegin
  2
EX_INTEGRAL
 70
     0
 10
0.0
 20
0.0
 30
0.0
  3
EX_INTEGRAL
  1

  0
LINE
  5
A6
330
74
100
AcDbEntity
  8
0
  6
CONTINUOUS
 62
     0
100
AcDbLine
 10
0.0
 20
0.0
 30
0.0
 11
-1.0
 21
0.0
 31
0.0
  0
ARC
  5
A7
330
74
100
AcDbEntity
  8
0
  6
CONTINUOUS
 62
     0
100
AcDbCircle
 10
0.542115
 20
0.164992
 30
0.0
 40
0.56667
100
AcDbArc
 50
73.07249033629006
 51
196.9275130221199
  0
ARC
  5
A8
330
74
100
AcDbEntity
  8
0
  6
CONTINUOUS
 62
     0
100
AcDbCircle
 10
-0.542115
 20
-0.164992
 30
0.0
 40
0.56667
100
AcDbArc
 50
253.0724869220464
 51
16.9275130559125
  0
ENDBLK
  5
76
330
74
100
AcDbEntity
  8
0
100
AcDbBlockEnd
  0
BLOCK
  5
32B
330
32A
100
AcDbEntity
  8
0
100
AcDbBlockBegin
  2
*D15
 70
     1
 10
0.0
 20
0.0
 30
0.0
  3
*D15
  1

  0
LINE
  5
32D
330
32A
100
AcDbEntity
  8
化粧台
  6
CONTINUOUS
 62
     3
100
AcDbLine
 10
1476.0
 20
1305.000000119209
 30
0.0
 11
1476.0
 21
1292.7
 31
0.0
  0
LINE
  5
32E
330
32A
100
AcDbEntity
  8
化粧台
  6
CONTINUOUS
 62
     3
100
AcDbLine
 10
1376.0
 20
1305.000000119209
 30
0.0
 11
1376.0
 21
1292.7
 31
0.0
  0
LINE
  5
32F
330
32A
100
AcDbEntity
  8
化粧台
  6
CONTINUOUS
 62
     3
100
AcDbLine
 10
1446.0
 20
1302.7
 30
0.0
 11
1406.0
 21
1302.7
 31
0.0
  0
INSERT
  5
330
330
32A
100
AcDbEntity
  8
化粧台
 62
     3
100
AcDbBlockReference
  2
EX_NORM
 10
1476.0
 20
1302.7
 30
0.0
 41
30.0
 42
30.0
 43
30.0
  0
INSERT
  5
331
330
32A
100
AcDbEntity
  8
化粧台
 62
     3
100
AcDbBlockReference
  2
EX_NORM
 10
1376.0
 20
1302.7
 30
0.0
 41
30.0
 42
30.0
 43
30.0
 50
180.0
  0
MTEXT
  5
332
330
32A
100
AcDbEntity
  8
化粧台
 62
     2
100
AcDbMText
 10
1556.0
 20
1326.199999940395
 30
0.0
 40
40.0
 41
0.0
 71
     5
 72
     1
  1
100
  7
EXCADDIM1
  0
POINT
  5
333
330
32A
100
AcDbEntity
  8
DEFPOINTS
 62
     0
100
AcDbPoint
 10
1476.0
 20
1312.0
 30
0.0
  0
POINT
  5
334
330
32A
100
AcDbEntity
  8
DEFPOINTS
 62
     0
100
AcDbPoint
 10
1376.0
 20
1312.0
 30
0.0
  0
POINT
  5
335
330
32A
100
AcDbEntity
  8
DEFPOINTS
 62
     0
100
AcDbPoint
 10
1376.0
 20
1302.7
 30
0.0
  0
ENDBLK
  5
32C
330
32A
100
AcDbEntity
  8
0
100
AcDbBlockEnd
  0
BLOCK
  5
338
330
337
100
AcDbEntity
  8
0
100
AcDbBlockBegin
  2
*D16
 70
     1
 10
0.0
 20
0.0
 30
0.0
  3
*D16
  1

  0
LINE
  5
33A
330
337
100
AcDbEntity
  8
化粧台
  6
CONTINUOUS
 62
     3
100
AcDbLine
 10
1374.8
 20
1290.000000119209
 30
0.0
 11
1374.8
 21
1233.3
 31
0.0
  0
LINE
  5
33B
330
337
100
AcDbEntity
  8
化粧台
  6
CONTINUOUS
 62
     3
100
AcDbLine
 10
1376.0
 20
1305.000000119209
 30
0.0
 11
1376.0
 21
1233.3
 31
0.0
  0
LINE
  5
33C
330
337
100
AcDbEntity
  8
化粧台
  6
CONTINUOUS
 62
     3
100
AcDbLine
 10
1374.8
 20
1243.3
 30
0.0
 11
1376.0
 21
1243.3
 31
0.0
  0
LINE
  5
33D
330
337
100
AcDbEntity
  8
化粧台
  6
CONTINUOUS
 62
     3
100
AcDbLine
 10
1344.8
 20
1243.3
 30
0.0
 11
1314.8
 21
1243.3
 31
0.0
  0
LINE
  5
33E
330
337
100
AcDbEntity
  8
化粧台
  6
CONTINUOUS
 62
     3
100
AcDbLine
 10
1406.0
 20
1243.3
 30
0.0
 11
1436.0
 21
1243.3
 31
0.0
  0
INSERT
  5
33F
330
337
100
AcDbEntity
  8
化粧台
 62
     3
100
AcDbBlockReference
  2
EX_NORM
 10
1374.8
 20
1243.3
 30
0.0
 41
30.0
 42
30.0
 43
30.0
  0
INSERT
  5
340
330
337
100
AcDbEntity
  8
化粧台
 62
     3
100
AcDbBlockReference
  2
EX_NORM
 10
1376.0
 20
1243.3
 30
0.0
 41
30.0
 42
30.0
 43
30.0
 50
180.0
  0
MTEXT
  5
341
330
337
100
AcDbEntity
  8
化粧台
 62
     2
100
AcDbMText
 10
1304.8
 20
1266.799999940395
 30
0.0
 40
40.0
 41
0.0
 71
     5
 72
     1
  1
1.2
  7
EXCADDIM1
  0
POINT
  5
342
330
337
100
AcDbEntity
  8
DEFPOINTS
 62
     0
100
AcDbPoint
 10
1374.8
 20
1297.0
 30
0.0
  0
POINT
  5
343
330
337
100
AcDbEntity
  8
DEFPOINTS
 62
     0
100
AcDbPoint
 10
1376.0
 20
1312.0
 30
0.0
  0
POINT
  5
344
330
337
100
AcDbEntity
  8
DEFPOINTS
 62
     0
100
AcDbPoint
 10
1376.0
 20
1243.3
 30
0.0
  0
ENDBLK
  5
339
330
337
100
AcDbEntity
  8
0
100
AcDbBlockEnd
  0
BLOCK
  5
347
330
346
100
AcDbEntity
  8
0
100
AcDbBlockBegin
  2
*D17
 70
     1
 10
0.0
 20
0.0
 30
0.0
  3
*D17
  1

  0
LINE
  5
349
330
346
100
AcDbEntity
  8
化粧台
  6
CONTINUOUS
 62
     3
100
AcDbLine
 10
1482.99999988079
 20
1792.0
 30
0.0
 11
1693.0
 21
1792.0
 31
0.0
  0
LINE
  5
34A
330
346
100
AcDbEntity
  8
化粧台
  6
CONTINUOUS
 62
     3
100
AcDbLine
 10
1482.99999988079
 20
1312.0
 30
0.0
 11
1693.0
 21
1312.0
 31
0.0
  0
LINE
  5
34B
330
346
100
AcDbEntity
  8
化粧台
  6
CONTINUOUS
 62
     3
100
AcDbLine
 10
1683.0
 20
1762.0
 30
0.0
 11
1683.0
 21
1342.0
 31
0.0
  0
INSERT
  5
34C
330
346
100
AcDbEntity
  8
化粧台
 62
     3
100
AcDbBlockReference
  2
EX_NORM
 10
1683.0
 20
1792.0
 30
0.0
 41
30.0
 42
30.0
 43
30.0
 50
90.0
  0
INSERT
  5
34D
330
346
100
AcDbEntity
  8
化粧台
 62
     3
100
AcDbBlockReference
  2
EX_NORM
 10
1683.0
 20
1312.0
 30
0.0
 41
30.0
 42
30.0
 43
30.0
 50
270.0
  0
MTEXT
  5
34E
330
346
100
AcDbEntity
  8
化粧台
 62
     2
100
AcDbMText
 10
1659.500000059605
 20
1552.0
 30
0.0
 40
40.0
 41
0.0
 71
     5
 72
     1
  1
480
  7
EXCADDIM1
 11
0.0
 21
1.0
 31
0.0
  0
POINT
  5
34F
330
346
100
AcDbEntity
  8
DEFPOINTS
 62
     0
100
AcDbPoint
 10
1476.0
 20
1792.0
 30
0.0
  0
POINT
  5
350
330
346
100
AcDbEntity
  8
DEFPOINTS
 62
     0
100
AcDbPoint
 10
1476.0
 20
1312.0
 30
0.0
  0
POINT
  5
351
330
346
100
AcDbEntity
  8
DEFPOINTS
 62
     0
100
AcDbPoint
 10
1683.0
 20
1312.0
 30
0.0
  0
ENDBLK
  5
348
330
346
100
AcDbEntity
  8
0
100
AcDbBlockEnd
  0
BLOCK
  5
354
330
353
100
AcDbEntity
  8
0
100
AcDbBlockBegin
  2
*D18
 70
     1
 10
0.0
 20
0.0
 30
0.0
  3
*D18
  1

  0
LINE
  5
356
330
353
100
AcDbEntity
  8
寸法
  6
CONTINUOUS
 62
     3
100
AcDbLine
 10
674.9999999999999
 20
1803.999999880791
 30
0.0
 11
674.9999999999999
 21
1922.0
 31
0.0
  0
LINE
  5
357
330
353
100
AcDbEntity
  8
寸法
  6
CONTINUOUS
 62
     3
100
AcDbLine
 10
1125.0
 20
1803.999999880791
 30
0.0
 11
1125.0
 21
1922.0
 31
0.0
  0
LINE
  5
358
330
353
100
AcDbEntity
  8
寸法
  6
CONTINUOUS
 62
     3
100
AcDbLine
 10
704.9999999999999
 20
1912.0
 30
0.0
 11
1095.0
 21
1912.0
 31
0.0
  0
INSERT
  5
359
330
353
100
AcDbEntity
  8
寸法
 62
     3
100
AcDbBlockReference
  2
EX_NORM
 10
674.9999999999999
 20
1912.0
 30
0.0
 41
30.0
 42
30.0
 43
30.0
 50
180.0
  0
INSERT
  5
35A
330
353
100
AcDbEntity
  8
寸法
 62
     3
100
AcDbBlockReference
  2
EX_NORM
 10
1125.0
 20
1912.0
 30
0.0
 41
30.0
 42
30.0
 43
30.0
  0
MTEXT
  5
35B
330
353
100
AcDbEntity
  8
寸法
 62
     2
100
AcDbMText
 10
900.0000000000001
 20
1935.499999940395
 30
0.0
 40
40.0
 41
0.0
 71
     5
 72
     1
  1
450
  7
EXCADDIM1
  0
POINT
  5
35C
330
353
100
AcDbEntity
  8
DEFPOINTS
 62
     0
100
AcDbPoint
 10
674.9999999999999
 20
1797.0
 30
0.0
  0
POINT
  5
35D
330
353
100
AcDbEntity
  8
DEFPOINTS
 62
     0
100
AcDbPoint
 10
1125.0
 20
1797.0
 30
0.0
  0
POINT
  5
35E
330
353
100
AcDbEntity
  8
DEFPOINTS
 62
     0
100
AcDbPoint
 10
1125.0
 20
1912.0
 30
0.0
  0
ENDBLK
  5
355
330
353
100
AcDbEntity
  8
0
100
AcDbBlockEnd
  0
BLOCK
  5
361
330
360
100
AcDbEntity
  8
0
100
AcDbBlockBegin
  2
*D19
 70
     1
 10
0.0
 20
0.0
 30
0.0
  3
*D19
  1

  0
LINE
  5
363
330
360
100
AcDbEntity
  8
寸法
  6
CONTINUOUS
 62
     3
100
AcDbLine
 10
1354.8
 20
1805.199999880791
 30
0.0
 11
1354.8
 21
1862.0
 31
0.0
  0
LINE
  5
364
330
360
100
AcDbEntity
  8
寸法
  6
CONTINUOUS
 62
     3
100
AcDbLine
 10
1476.0
 20
1798.999999880791
 30
0.0
 11
1476.0
 21
1862.0
 31
0.0
  0
LINE
  5
365
330
360
100
AcDbEntity
  8
寸法
  6
CONTINUOUS
 62
     3
100
AcDbLine
 10
1384.8
 20
1852.0
 30
0.0
 11
1446.0
 21
1852.0
 31
0.0
  0
INSERT
  5
366
330
360
100
AcDbEntity
  8
寸法
 62
     3
100
AcDbBlockReference
  2
EX_NORM
 10
1354.8
 20
1852.0
 30
0.0
 41
30.0
 42
30.0
 43
30.0
 50
180.0
  0
INSERT
  5
367
330
360
100
AcDbEntity
  8
寸法
 62
     3
100
AcDbBlockReference
  2
EX_NORM
 10
1476.0
 20
1852.0
 30
0.0
 41
30.0
 42
30.0
 43
30.0
  0
MTEXT
  5
368
330
360
100
AcDbEntity
  8
寸法
 62
     2
100
AcDbMText
 10
1415.4
 20
1875.499999940395
 30
0.0
 40
40.0
 41
0.0
 71
     5
 72
     1
  1
122
  7
EXCADDIM1
  0
POINT
  5
369
330
360
100
AcDbEntity
  8
DEFPOINTS
 62
     0
100
AcDbPoint
 10
1354.8
 20
1798.2
 30
0.0
  0
POINT
  5
36A
330
360
100
AcDbEntity
  8
DEFPOINTS
 62
     0
100
AcDbPoint
 10
1476.0
 20
1792.0
 30
0.0
  0
POINT
  5
36B
330
360
100
AcDbEntity
  8
DEFPOINTS
 62
     0
100
AcDbPoint
 10
1476.0
 20
1852.0
 30
0.0
  0
ENDBLK
  5
362
330
360
100
AcDbEntity
  8
0
100
AcDbBlockEnd
  0
BLOCK
  5
36E
330
36D
100
AcDbEntity
  8
0
100
AcDbBlockBegin
  2
*D20
 70
     1
 10
0.0
 20
0.0
 30
0.0
  3
*D20
  1

  0
LINE
  5
370
330
36D
100
AcDbEntity
  8
寸法
  6
CONTINUOUS
 62
     3
100
AcDbLine
 10
1130.499999880791
 20
1295.8
 30
0.0
 11
1219.0
 21
1295.8
 31
0.0
  0
LINE
  5
371
330
36D
100
AcDbEntity
  8
寸法
  6
CONTINUOUS
 62
     3
100
AcDbLine
 10
1130.499999880791
 20
1798.2
 30
0.0
 11
1219.0
 21
1798.2
 31
0.0
  0
LINE
  5
372
330
36D
100
AcDbEntity
  8
寸法
  6
CONTINUOUS
 62
     3
100
AcDbLine
 10
1209.0
 20
1325.8
 30
0.0
 11
1209.0
 21
1768.2
 31
0.0
  0
INSERT
  5
373
330
36D
100
AcDbEntity
  8
寸法
 62
     3
100
AcDbBlockReference
  2
EX_NORM
 10
1209.0
 20
1295.8
 30
0.0
 41
30.0
 42
30.0
 43
30.0
 50
270.0
  0
INSERT
  5
374
330
36D
100
AcDbEntity
  8
寸法
 62
     3
100
AcDbBlockReference
  2
EX_NORM
 10
1209.0
 20
1798.2
 30
0.0
 41
30.0
 42
30.0
 43
30.0
 50
90.0
  0
MTEXT
  5
375
330
36D
100
AcDbEntity
  8
寸法
 62
     2
100
AcDbMText
 10
1185.500000059605
 20
1547.0
 30
0.0
 40
40.0
 41
0.0
 71
     5
 72
     1
  1
503
  7
EXCADDIM1
 11
0.0
 21
1.0
 31
0.0
  0
POINT
  5
376
330
36D
100
AcDbEntity
  8
DEFPOINTS
 62
     0
100
AcDbPoint
 10
1123.5
 20
1295.8
 30
0.0
  0
POINT
  5
377
330
36D
100
AcDbEntity
  8
DEFPOINTS
 62
     0
100
AcDbPoint
 10
1123.5
 20
1798.2
 30
0.0
  0
POINT
  5
378
330
36D
100
AcDbEntity
  8
DEFPOINTS
 62
     0
100
AcDbPoint
 10
1209.0
 20
1798.2
 30
0.0
  0
ENDBLK
  5
36F
330
36D
100
AcDbEntity
  8
0
100
AcDbBlockEnd
  0
BLOCK
  5
37B
330
37A
100
AcDbEntity
  8
0
100
AcDbBlockBegin
  2
*D21
 70
     1
 10
0.0
 20
0.0
 30
0.0
  3
*D21
  1

  0
LINE
  5
37D
330
37A
100
AcDbEntity
  8
寸法
  6
CONTINUOUS
 62
     3
100
AcDbLine
 10
1516.199999880791
 20
1362.0
 30
0.0
 11
1579.0
 21
1362.0
 31
0.0
  0
LINE
  5
37E
330
37A
100
AcDbEntity
  8
寸法
  6
CONTINUOUS
 62
     3
100
AcDbLine
 10
1516.199999880791
 20
1742.0
 30
0.0
 11
1579.0
 21
1742.0
 31
0.0
  0
LINE
  5
37F
330
37A
100
AcDbEntity
  8
寸法
  6
CONTINUOUS
 62
     3
100
AcDbLine
 10
1569.0
 20
1392.0
 30
0.0
 11
1569.0
 21
1712.0
 31
0.0
  0
INSERT
  5
380
330
37A
100
AcDbEntity
  8
寸法
 62
     3
100
AcDbBlockReference
  2
EX_NORM
 10
1569.0
 20
1362.0
 30
0.0
 41
30.0
 42
30.0
 43
30.0
 50
270.0
  0
INSERT
  5
381
330
37A
100
AcDbEntity
  8
寸法
 62
     3
100
AcDbBlockReference
  2
EX_NORM
 10
1569.0
 20
1742.0
 30
0.0
 41
30.0
 42
30.0
 43
30.0
 50
90.0
  0
MTEXT
  5
382
330
37A
100
AcDbEntity
  8
寸法
 62
     2
100
AcDbMText
 10
1545.500000059605
 20
1552.0
 30
0.0
 40
40.0
 41
0.0
 71
     5
 72
     1
  1
380（壁固定）
  7
EXCADDIM1
 11
0.0
 21
1.0
 31
0.0
  0
POINT
  5
383
330
37A
100
AcDbEntity
  8
DEFPOINTS
 62
     0
100
AcDbPoint
 10
1509.2
 20
1362.0
 30
0.0
  0
POINT
  5
384
330
37A
100
AcDbEntity
  8
DEFPOINTS
 62
     0
100
AcDbPoint
 10
1509.2
 20
1742.0
 30
0.0
  0
POINT
  5
385
330
37A
100
AcDbEntity
  8
DEFPOINTS
 62
     0
100
AcDbPoint
 10
1569.0
 20
1742.0
 30
0.0
  0
ENDBLK
  5
37C
330
37A
100
AcDbEntity
  8
0
100
AcDbBlockEnd
  0
BLOCK
  5
388
330
387
100
AcDbEntity
  8
0
100
AcDbBlockBegin
  2
*D22
 70
     1
 10
0.0
 20
0.0
 30
0.0
  3
*D22
  1

  0
LINE
  5
38A
330
387
100
AcDbEntity
  8
寸法
  6
CONTINUOUS
 62
     3
100
AcDbLine
 10
1516.199999880791
 20
1742.0
 30
0.0
 11
1579.0
 21
1742.0
 31
0.0
  0
LINE
  5
38B
330
387
100
AcDbEntity
  8
寸法
  6
CONTINUOUS
 62
     3
100
AcDbLine
 10
1381.799999880791
 20
1798.2
 30
0.0
 11
1579.0
 21
1798.2
 31
0.0
  0
LINE
  5
38C
330
387
100
AcDbEntity
  8
寸法
  6
CONTINUOUS
 62
     3
100
AcDbLine
 10
1569.0
 20
1742.0
 30
0.0
 11
1569.0
 21
1798.2
 31
0.0
  0
LINE
  5
38D
330
387
100
AcDbEntity
  8
寸法
  6
CONTINUOUS
 62
     3
100
AcDbLine
 10
1569.0
 20
1712.0
 30
0.0
 11
1569.0
 21
1682.0
 31
0.0
  0
LINE
  5
38E
330
387
100
AcDbEntity
  8
寸法
  6
CONTINUOUS
 62
     3
100
AcDbLine
 10
1569.0
 20
1828.2
 30
0.0
 11
1569.0
 21
1858.2
 31
0.0
  0
INSERT
  5
38F
330
387
100
AcDbEntity
  8
寸法
 62
     3
100
AcDbBlockReference
  2
EX_NORM
 10
1569.0
 20
1742.0
 30
0.0
 41
30.0
 42
30.0
 43
30.0
 50
90.0
  0
INSERT
  5
390
330
387
100
AcDbEntity
  8
寸法
 62
     3
100
AcDbBlockReference
  2
EX_NORM
 10
1569.0
 20
1798.2
 30
0.0
 41
30.0
 42
30.0
 43
30.0
 50
270.0
  0
MTEXT
  5
391
330
387
100
AcDbEntity
  8
寸法
 62
     2
100
AcDbMText
 10
1545.500000059605
 20
1770.1
 30
0.0
 40
40.0
 41
0.0
 71
     5
 72
     1
  1
56
  7
EXCADDIM1
 11
0.0
 21
1.0
 31
0.0
  0
POINT
  5
392
330
387
100
AcDbEntity
  8
DEFPOINTS
 62
     0
100
AcDbPoint
 10
1509.2
 20
1742.0
 30
0.0
  0
POINT
  5
393
330
387
100
AcDbEntity
  8
DEFPOINTS
 62
     0
100
AcDbPoint
 10
1374.8
 20
1798.2
 30
0.0
  0
POINT
  5
394
330
387
100
AcDbEntity
  8
DEFPOINTS
 62
     0
100
AcDbPoint
 10
1569.0
 20
1798.2
 30
0.0
  0
ENDBLK
  5
389
330
387
100
AcDbEntity
  8
0
100
AcDbBlockEnd
  0
BLOCK
  5
397
330
396
100
AcDbEntity
  8
0
100
AcDbBlockBegin
  2
*D23
 70
     1
 10
0.0
 20
0.0
 30
0.0
  3
*D23
  1

  0
LINE
  5
399
330
396
100
AcDbEntity
  8
寸法
  6
CONTINUOUS
 62
     3
100
AcDbLine
 10
750.0000000000001
 20
1756.999999880791
 30
0.0
 11
750.0000000000001
 21
1862.0
 31
0.0
  0
LINE
  5
39A
330
396
100
AcDbEntity
  8
寸法
  6
CONTINUOUS
 62
     3
100
AcDbLine
 10
1050.0
 20
1756.999999880791
 30
0.0
 11
1050.0
 21
1862.0
 31
0.0
  0
LINE
  5
39B
330
396
100
AcDbEntity
  8
寸法
  6
CONTINUOUS
 62
     3
100
AcDbLine
 10
780.0000000000001
 20
1852.0
 30
0.0
 11
1020.0
 21
1852.0
 31
0.0
  0
INSERT
  5
39C
330
396
100
AcDbEntity
  8
寸法
 62
     3
100
AcDbBlockReference
  2
EX_NORM
 10
750.0000000000001
 20
1852.0
 30
0.0
 41
30.0
 42
30.0
 43
30.0
 50
180.0
  0
INSERT
  5
39D
330
396
100
AcDbEntity
  8
寸法
 62
     3
100
AcDbBlockReference
  2
EX_NORM
 10
1050.0
 20
1852.0
 30
0.0
 41
30.0
 42
30.0
 43
30.0
  0
MTEXT
  5
39E
330
396
100
AcDbEntity
  8
寸法
 62
     2
100
AcDbMText
 10
900.0
 20
1875.499999940395
 30
0.0
 40
40.0
 41
0.0
 71
     5
 72
     1
  1
300（壁固定）
  7
EXCADDIM1
  0
POINT
  5
39F
330
396
100
AcDbEntity
  8
DEFPOINTS
 62
     0
100
AcDbPoint
 10
750.0000000000001
 20
1750.0
 30
0.0
  0
POINT
  5
3A0
330
396
100
AcDbEntity
  8
DEFPOINTS
 62
     0
100
AcDbPoint
 10
1050.0
 20
1750.0
 30
0.0
  0
POINT
  5
3A1
330
396
100
AcDbEntity
  8
DEFPOINTS
 62
     0
100
AcDbPoint
 10
1050.0
 20
1852.0
 30
0.0
  0
ENDBLK
  5
398
330
396
100
AcDbEntity
  8
0
100
AcDbBlockEnd
  0
BLOCK
  5
3AC
330
3AB
100
AcDbEntity
  8
0
100
AcDbBlockBegin
  2
*D24
 70
     1
 10
0.0
 20
0.0
 30
0.0
  3
*D24
  1

  0
LINE
  5
3AE
330
3AB
100
AcDbEntity
  8
寸法
  6
CONTINUOUS
 62
     3
100
AcDbLine
 10
1376.0
 20
1306.6
 30
0.0
 11
1376.0
 21
1238.0
 31
0.0
  0
LINE
  5
3AF
330
3AB
100
AcDbEntity
  8
寸法
  6
CONTINUOUS
 62
     3
100
AcDbLine
 10
1461.0
 20
1306.6
 30
0.0
 11
1461.0
 21
1238.0
 31
0.0
  0
LINE
  5
3B0
330
3AB
100
AcDbEntity
  8
寸法
  6
CONTINUOUS
 62
     3
100
AcDbLine
 10
1406.0
 20
1248.0
 30
0.0
 11
1431.0
 21
1248.0
 31
0.0
  0
INSERT
  5
3B1
330
3AB
100
AcDbEntity
  8
寸法
 62
     3
100
AcDbBlockReference
  2
EX_NORM
 10
1376.0
 20
1248.0
 30
0.0
 41
30.0
 42
30.0
 43
30.0
 50
180.0
  0
INSERT
  5
3B2
330
3AB
100
AcDbEntity
  8
寸法
 62
     3
100
AcDbBlockReference
  2
EX_NORM
 10
1461.0
 20
1248.0
 30
0.0
 41
30.0
 42
30.0
 43
30.0
  0
MTEXT
  5
3B3
330
3AB
100
AcDbEntity
  8
寸法
 62
     2
100
AcDbMText
 10
1418.5
 20
1271.499999940395
 30
0.0
 40
40.0
 41
0.0
 71
     5
 72
     1
  1
85
  7
EXCADDIM1
  0
POINT
  5
3B4
330
3AB
100
AcDbEntity
  8
DEFPOINTS
 62
     0
100
AcDbPoint
 10
1376.0
 20
1524.0
 30
0.0
  0
POINT
  5
3B5
330
3AB
100
AcDbEntity
  8
DEFPOINTS
 62
     0
100
AcDbPoint
 10
1461.0
 20
1524.0
 30
0.0
  0
POINT
  5
3B6
330
3AB
100
AcDbEntity
  8
DEFPOINTS
 62
     0
100
AcDbPoint
 10
1461.0
 20
1248.0
 30
0.0
  0
ENDBLK
  5
3AD
330
3AB
100
AcDbEntity
  8
0
100
AcDbBlockEnd
  0
BLOCK
  5
3BD
330
3BC
100
AcDbEntity
  8
0
100
AcDbBlockBegin
  2
*D25
 70
     1
 10
0.0
 20
0.0
 30
0.0
  3
*D25
  1

  0
LINE
  5
3BF
330
3BC
100
AcDbEntity
  8
寸法
  6
CONTINUOUS
 62
     3
100
AcDbLine
 10
720.0
 20
1509.0
 30
0.0
 11
1080.0
 21
1509.0
 31
0.0
  0
INSERT
  5
3C0
330
3BC
100
AcDbEntity
  8
寸法
 62
     3
100
AcDbBlockReference
  2
EX_NORM
 10
690.0
 20
1509.0
 30
0.0
 41
30.0
 42
30.0
 43
30.0
 50
180.0
  0
INSERT
  5
3C1
330
3BC
100
AcDbEntity
  8
寸法
 62
     3
100
AcDbBlockReference
  2
EX_NORM
 10
1110.0
 20
1509.0
 30
0.0
 41
30.0
 42
30.0
 43
30.0
  0
MTEXT
  5
3C2
330
3BC
100
AcDbEntity
  8
寸法
 62
     2
100
AcDbMText
 10
900.0000000000001
 20
1532.499999940395
 30
0.0
 40
40.0
 41
0.0
 71
     5
 72
     1
  1
420
  7
EXCADDIM1
  0
POINT
  5
3C3
330
3BC
100
AcDbEntity
  8
DEFPOINTS
 62
     0
100
AcDbPoint
 10
690.0
 20
1791.0
 30
0.0
  0
POINT
  5
3C4
330
3BC
100
AcDbEntity
  8
DEFPOINTS
 62
     0
100
AcDbPoint
 10
1110.0
 20
1791.0
 30
0.0
  0
POINT
  5
3C5
330
3BC
100
AcDbEntity
  8
DEFPOINTS
 62
     0
100
AcDbPoint
 10
1110.0
 20
1509.0
 30
0.0
  0
ENDBLK
  5
3BE
330
3BC
100
AcDbEntity
  8
0
100
AcDbBlockEnd
  0
BLOCK
  5
3C8
330
3C7
100
AcDbEntity
  8
0
100
AcDbBlockBegin
  2
*D26
 70
     1
 10
0.0
 20
0.0
 30
0.0
  3
*D26
  1

  0
LINE
  5
3CA
330
3C7
100
AcDbEntity
  8
寸法
  6
CONTINUOUS
 62
     3
100
AcDbLine
 10
1428.0
 20
1616.5
 30
0.0
 11
1428.0
 21
1746.0
 31
0.0
  0
INSERT
  5
3CB
330
3C7
100
AcDbEntity
  8
寸法
 62
     3
100
AcDbBlockReference
  2
EX_NORM
 10
1428.0
 20
1586.5
 30
0.0
 41
30.0
 42
30.0
 43
30.0
 50
270.0
  0
INSERT
  5
3CC
330
3C7
100
AcDbEntity
  8
寸法
 62
     3
100
AcDbBlockReference
  2
EX_NORM
 10
1428.0
 20
1776.0
 30
0.0
 41
30.0
 42
30.0
 43
30.0
 50
90.0
  0
MTEXT
  5
3CD
330
3C7
100
AcDbEntity
  8
寸法
 62
     2
100
AcDbMText
 10
1404.500000059605
 20
1681.25
 30
0.0
 40
40.0
 41
0.0
 71
     5
 72
     1
  1
（188）
  7
EXCADDIM1
 11
0.0
 21
1.0
 31
0.0
  0
POINT
  5
3CE
330
3C7
100
AcDbEntity
  8
DEFPOINTS
 62
     0
100
AcDbPoint
 10
1382.5
 20
1586.5
 30
0.0
  0
POINT
  5
3CF
330
3C7
100
AcDbEntity
  8
DEFPOINTS
 62
     0
100
AcDbPoint
 10
1398.0
 20
1776.0
 30
0.0
  0
POINT
  5
3D0
330
3C7
100
AcDbEntity
  8
DEFPOINTS
 62
     0
100
AcDbPoint
 10
1428.0
 20
1776.0
 30
0.0
  0
ENDBLK
  5
3C9
330
3C7
100
AcDbEntity
  8
0
100
AcDbBlockEnd
  0
BLOCK
  5
3D4
330
3D3
100
AcDbEntity
  8
0
100
AcDbBlockBegin
  2
*D27
 70
     1
 10
0.0
 20
0.0
 30
0.0
  3
*D27
  1

  0
LINE
  5
3D6
330
3D3
100
AcDbEntity
  8
寸法
  6
CONTINUOUS
 62
     3
100
AcDbLine
 10
1428.3
 20
1584.0
 30
0.0
 11
1429.0
 21
1584.0
 31
0.0
  0
LINE
  5
3D7
330
3D3
100
AcDbEntity
  8
寸法
  6
CONTINUOUS
 62
     3
100
AcDbLine
 10
1429.0
 20
1376.5
 30
0.0
 11
1429.0
 21
1554.0
 31
0.0
  0
INSERT
  5
3D8
330
3D3
100
AcDbEntity
  8
寸法
 62
     3
100
AcDbBlockReference
  2
EX_NORM
 10
1429.0
 20
1346.5
 30
0.0
 41
30.0
 42
30.0
 43
30.0
 50
270.0
  0
INSERT
  5
3D9
330
3D3
100
AcDbEntity
  8
寸法
 62
     3
100
AcDbBlockReference
  2
EX_NORM
 10
1429.0
 20
1584.0
 30
0.0
 41
30.0
 42
30.0
 43
30.0
 50
90.0
  0
MTEXT
  5
3DA
330
3D3
100
AcDbEntity
  8
寸法
 62
     2
100
AcDbMText
 10
1405.500000059605
 20
1465.25
 30
0.0
 40
40.0
 41
0.0
 71
     5
 72
     1
  1
（236）
  7
EXCADDIM1
 11
0.0
 21
1.0
 31
0.0
  0
POINT
  5
3DB
330
3D3
100
AcDbEntity
  8
DEFPOINTS
 62
     0
100
AcDbPoint
 10
1429.0
 20
1346.5
 30
0.0
  0
POINT
  5
3DC
330
3D3
100
AcDbEntity
  8
DEFPOINTS
 62
     0
100
AcDbPoint
 10
1428.3
 20
1584.0
 30
0.0
  0
POINT
  5
3DD
330
3D3
100
AcDbEntity
  8
DEFPOINTS
 62
     0
100
AcDbPoint
 10
1429.0
 20
1584.0
 30
0.0
  0
ENDBLK
  5
3D5
330
3D3
100
AcDbEntity
  8
0
100
AcDbBlockEnd
  0
ENDSEC
  0
SECTION
  2
ENTITIES
  0
TEXT
  5
A9
330
1F
100
AcDbEntity
  8
枠_表
  6
CONTINUOUS
 62
     2
100
AcDbText
 10
189.05371094
 20
30.27227783
 30
0.0
 40
3.0
  1
１
 41
1.101333351135257
  7
EXCADSTD
 72
     5
 11
191.413710978147
 21
30.27227783
 31
0.0
100
AcDbText
  0
TEXT
  5
AA
330
1F
100
AcDbEntity
  8
枠_表
  6
CONTINUOUS
 62
     2
100
AcDbText
 10
20.25
 20
30.875
 30
0.0
 40
4.25
  1
製図
 41
1.509694117647059
  7
EXCADSTD
 72
     5
 11
30.3326
 21
30.875
 31
0.0
100
AcDbText
  0
TEXT
  5
AB
330
1F
100
AcDbEntity
  8
枠_表
  6
CONTINUOUS
 62
     2
100
AcDbText
 10
35.75
 20
30.875
 30
0.0
 40
4.25
  1
写図
 41
1.509694117647059
  7
EXCADSTD
 72
     5
 11
45.8326
 21
30.875
 31
0.0
100
AcDbText
  0
TEXT
  5
AC
330
1F
100
AcDbEntity
  8
枠_表
  6
CONTINUOUS
 62
     2
100
AcDbText
 10
50.75
 20
30.875
 30
0.0
 40
4.25
  1
検図
 41
1.303826737967915
  7
EXCADSTD
 72
     5
 11
59.4577
 21
30.875
 31
0.0
100
AcDbText
  0
TEXT
  5
AD
330
1F
100
AcDbEntity
  8
枠_表
  6
CONTINUOUS
 62
     2
100
AcDbText
 10
63.75
 20
30.875
 30
0.0
 40
4.25
  1
承認
 41
1.303826737967915
  7
EXCADSTD
 72
     5
 11
72.4577
 21
30.875
 31
0.0
100
AcDbText
  0
TEXT
  5
AE
330
1F
100
AcDbEntity
  8
枠_表
  6
CONTINUOUS
 62
     2
100
AcDbText
 10
75.575
 20
29.875
 30
0.0
 40
4.25
  1
品
 41
1.120000000000002
  7
EXCADSTD
 72
     5
 11
78.97500000000001
 21
29.875
 31
0.0
100
AcDbText
  0
TEXT
  5
AF
330
1F
100
AcDbEntity
  8
枠_表
  6
CONTINUOUS
 62
     2
100
AcDbText
 10
75.575
 20
24.875
 30
0.0
 40
4.25
  1
名
 41
1.120000000000002
  7
EXCADSTD
 72
     5
 11
78.97500000000001
 21
24.875
 31
0.0
100
AcDbText
  0
TEXT
  5
B0
330
1F
100
AcDbEntity
  8
枠_表
  6
CONTINUOUS
 62
     2
100
AcDbText
 10
139.575
 20
29.875
 30
0.0
 40
4.25
  1
品
 41
1.120000000000002
  7
EXCADSTD
 72
     5
 11
142.975
 21
29.875
 31
0.0
100
AcDbText
  0
TEXT
  5
B1
330
1F
100
AcDbEntity
  8
枠_表
  6
CONTINUOUS
 62
     2
100
AcDbText
 10
139.575
 20
24.875
 30
0.0
 40
4.25
  1
番
 41
1.120000000000002
  7
EXCADSTD
 72
     5
 11
142.975
 21
24.875
 31
0.0
100
AcDbText
  0
TEXT
  5
B2
330
1F
100
AcDbEntity
  8
枠_表
  6
CONTINUOUS
 62
     2
100
AcDbText
 10
181.675
 20
29.875
 30
0.0
 40
4.25
  1
尺
 41
1.120000000000002
  7
EXCADSTD
 72
     5
 11
185.075
 21
29.875
 31
0.0
100
AcDbText
  0
TEXT
  5
B3
330
1F
100
AcDbEntity
  8
枠_表
  6
CONTINUOUS
 62
     2
100
AcDbText
 10
181.675
 20
24.875
 30
0.0
 40
4.25
  1
度
 41
1.120000000000002
  7
EXCADSTD
 72
     5
 11
185.075
 21
24.875
 31
0.0
100
AcDbText
  0
TEXT
  5
B4
330
1F
100
AcDbEntity
  8
枠_表
  6
CONTINUOUS
 62
     2
100
AcDbText
 10
139.575
 20
18.575
 30
0.0
 40
4.25
  1
図
 41
1.120000000000002
  7
EXCADSTD
 72
     5
 11
142.975
 21
18.575
 31
0.0
100
AcDbText
  0
TEXT
  5
B5
330
1F
100
AcDbEntity
  8
枠_表
  6
CONTINUOUS
 62
     2
100
AcDbText
 10
139.575
 20
14.275
 30
0.0
 40
4.25
  1
番
 41
1.120000000000002
  7
EXCADSTD
 72
     5
 11
142.975
 21
14.275
 31
0.0
100
AcDbText
  0
TEXT
  5
B6
330
1F
100
AcDbEntity
  8
枠_表
  6
CONTINUOUS
 62
     2
100
AcDbText
 10
193.12792969
 20
25.83488464
 30
0.0
 40
3.0
  1
１０
 41
1.098531230663528
  7
EXCADSTD
 72
     5
 11
198.3067197774138
 21
25.83488464
 31
0.0
100
AcDbText
  0
LINE
  5
B7
330
1F
100
AcDbEntity
  8
枠_表
  6
CONTINUOUS
 62
     7
100
AcDbLine
 10
18.0
 20
13.5
 30
0.0
 11
200.0
 21
13.5
 31
0.0
  0
LINE
  5
B8
330
1F
100
AcDbEntity
  8
枠_表
  6
CONTINUOUS
 62
     7
100
AcDbLine
 10
200.0
 20
13.5
 30
0.0
 11
200.0
 21
288.5
 31
0.0
  0
LINE
  5
B9
330
1F
100
AcDbEntity
  8
枠_表
  6
CONTINUOUS
 62
     7
100
AcDbLine
 10
18.0
 20
13.5
 30
0.0
 11
18.0
 21
288.5
 31
0.0
  0
LINE
  5
BA
330
1F
100
AcDbEntity
  8
枠_表
  6
CONTINUOUS
 62
     7
100
AcDbLine
 10
18.0
 20
288.5
 30
0.0
 11
200.0
 21
288.5
 31
0.0
  0
LINE
  5
BB
330
1F
100
AcDbEntity
  8
枠_表
  6
CONTINUOUS
 62
     7
100
AcDbLine
 10
18.0
 20
35.5
 30
0.0
 11
200.0
 21
35.5
 31
0.0
  0
LINE
  5
BC
330
1F
100
AcDbEntity
  8
枠_表
  6
CONTINUOUS
 62
     2
100
AcDbLine
 10
84.49224244
 20
16.4
 30
0.0
 11
84.07717286
 21
19.02078858
 31
0.0
  0
LINE
  5
BD
330
1F
100
AcDbEntity
  8
枠_表
  6
CONTINUOUS
 62
     2
100
AcDbLine
 10
84.07717286
 20
19.02078858
 30
0.0
 11
83.04726563
 21
19.02078858
 31
0.0
  0
ARC
  5
BE
330
1F
100
AcDbEntity
  8
枠_表
  6
CONTINUOUS
 62
     2
100
AcDbCircle
 10
85.91610108
 20
19.0200409
 30
0.0
 40
0.6300122100000001
100
AcDbArc
 50
310.7683105900002
 51
335.9987793400003
  0
LINE
  5
BF
330
1F
100
AcDbEntity
  8
枠_表
  6
CONTINUOUS
 62
     2
100
AcDbLine
 10
86.64002381
 20
19.09641113
 30
0.0
 11
86.49196778
 21
18.76390686
 31
0.0
  0
LINE
  5
C0
330
1F
100
AcDbEntity
  8
枠_表
  6
CONTINUOUS
 62
     2
100
AcDbLine
 10
84.8985077
 20
19.47440186
 30
0.0
 11
87.22184144
 21
19.47440186
 31
0.0
  0
ARC
  5
C1
330
1F
100
AcDbEntity
  8
枠_表
  6
CONTINUOUS
 62
     2
100
AcDbCircle
 10
95.22992859
 20
18.21440735
 30
0.0
 40
1.56240082
100
AcDbArc
 50
270.0000305200002
 51
324.0011596700001
  0
ARC
  5
C2
330
1F
100
AcDbEntity
  8
枠_表
  6
CONTINUOUS
 62
     2
100
AcDbCircle
 10
95.22992859
 20
18.21440735
 30
0.0
 40
1.31040096
100
AcDbArc
 50
270.0000305200002
 51
324.0011596700001
  0
ARC
  5
C3
330
1F
100
AcDbEntity
  8
枠_表
  6
CONTINUOUS
 62
     2
100
AcDbCircle
 10
79.95656739
 20
18.21440735
 30
0.0
 40
1.56239796
100
AcDbArc
 50
270.0000305200002
 51
333.9985504200004
  0
ARC
  5
C4
330
1F
100
AcDbEntity
  8
枠_表
  6
CONTINUOUS
 62
     2
100
AcDbCircle
 10
79.8765503
 20
18.21440735
 30
0.0
 40
1.0583992
100
AcDbArc
 50
270.0000305200002
 51
333.9985504200004
  0
ARC
  5
C5
330
1F
100
AcDbEntity
  8
枠_表
  6
CONTINUOUS
 62
     2
100
AcDbCircle
 10
79.91655884
 20
18.21440735
 30
0.0
 40
1.31039906
100
AcDbArc
 50
270.0000305200002
 51
333.9985504200004
  0
LINE
  5
C6
330
1F
100
AcDbEntity
  8
枠_表
  6
CONTINUOUS
 62
     2
100
AcDbLine
 10
77.28408204
 20
20.60321274
 30
0.0
 11
79.73839722
 21
20.60321274
 31
0.0
  0
LINE
  5
C7
330
1F
100
AcDbEntity
  8
枠_表
  6
CONTINUOUS
 62
     2
100
AcDbLine
 10
77.28408204
 20
20.3712143
 30
0.0
 11
79.73839722
 21
20.3712143
 31
0.0
  0
LINE
  5
C8
330
1F
100
AcDbEntity
  8
枠_表
  6
CONTINUOUS
 62
     2
100
AcDbLine
 10
77.28408204
 20
20.13923111
 30
0.0
 11
79.73839722
 21
20.13923111
 31
0.0
  0
LINE
  5
C9
330
1F
100
AcDbEntity
  8
枠_表
  6
CONTINUOUS
 62
     2
100
AcDbLine
 10
77.28408204
 20
19.41360321
 30
0.0
 11
79.73839722
 21
19.41360321
 31
0.0
  0
LINE
  5
CA
330
1F
100
AcDbEntity
  8
枠_表
  6
CONTINUOUS
 62
     2
100
AcDbLine
 10
77.28408204
 20
19.16158905
 30
0.0
 11
79.73839722
 21
19.16158905
 31
0.0
  0
LINE
  5
CB
330
1F
100
AcDbEntity
  8
枠_表
  6
CONTINUOUS
 62
     2
100
AcDbLine
 10
77.28408204
 20
18.92960587
 30
0.0
 11
79.73839722
 21
18.92960587
 31
0.0
  0
LINE
  5
CC
330
1F
100
AcDbEntity
  8
枠_表
  6
CONTINUOUS
 62
     2
100
AcDbLine
 10
77.28408204
 20
17.15599671
 30
0.0
 11
79.8765503
 21
17.15599671
 31
0.0
  0
LINE
  5
CD
330
1F
100
AcDbEntity
  8
枠_表
  6
CONTINUOUS
 62
     2
100
AcDbLine
 10
77.28408204
 20
16.9039978
 30
0.0
 11
79.8765503
 21
16.9039978
 31
0.0
  0
LINE
  5
CE
330
1F
100
AcDbEntity
  8
枠_表
  6
CONTINUOUS
 62
     2
100
AcDbLine
 10
77.28408204
 20
16.6519989
 30
0.0
 11
79.8765503
 21
16.6519989
 31
0.0
  0
LINE
  5
CF
330
1F
100
AcDbEntity
  8
枠_表
  6
CONTINUOUS
 62
     2
100
AcDbLine
 10
80.82770691
 20
17.75040283
 30
0.0
 11
81.71082459
 21
19.56103649
 31
0.0
  0
LINE
  5
D0
330
1F
100
AcDbEntity
  8
枠_表
  6
CONTINUOUS
 62
     2
100
AcDbLine
 10
81.09412537
 20
17.63995972
 30
0.0
 11
82.03116761
 21
19.56103745
 31
0.0
  0
LINE
  5
D1
330
1F
100
AcDbEntity
  8
枠_表
  6
CONTINUOUS
 62
     2
100
AcDbLine
 10
81.36052857
 20
17.52942505
 30
0.0
 11
82.35131226
 21
19.56103459
 31
0.0
  0
LINE
  5
D2
330
1F
100
AcDbEntity
  8
枠_表
  6
CONTINUOUS
 62
     2
100
AcDbLine
 10
81.01363526
 20
20.56959763
 30
0.0
 11
81.45183716
 21
20.56959763
 31
0.0
  0
LINE
  5
D3
330
1F
100
AcDbEntity
  8
枠_表
  6
CONTINUOUS
 62
     2
100
AcDbLine
 10
81.01363526
 20
20.28399887
 30
0.0
 11
81.45183716
 21
20.28399887
 31
0.0
  0
LINE
  5
D4
330
1F
100
AcDbEntity
  8
枠_表
  6
CONTINUOUS
 62
     2
100
AcDbLine
 10
82.12249146
 20
20.56959763
 30
0.0
 11
82.56069336
 21
20.56959763
 31
0.0
  0
LINE
  5
D5
330
1F
100
AcDbEntity
  8
枠_表
  6
CONTINUOUS
 62
     2
100
AcDbLine
 10
82.12249146
 20
20.28399887
 30
0.0
 11
82.56069336
 21
20.28399887
 31
0.0
  0
LINE
  5
D6
330
1F
100
AcDbEntity
  8
枠_表
  6
CONTINUOUS
 62
     2
100
AcDbLine
 10
83.23134766
 20
19.22241821
 30
0.0
 11
84.42806397
 21
19.22241821
 31
0.0
  0
LINE
  5
D7
330
1F
100
AcDbEntity
  8
枠_表
  6
CONTINUOUS
 62
     2
100
AcDbLine
 10
84.13753663
 20
20.25026837
 30
0.0
 11
84.26050721
 21
19.47440186
 31
0.0
  0
LINE
  5
D8
330
1F
100
AcDbEntity
  8
枠_表
  6
CONTINUOUS
 62
     2
100
AcDbLine
 10
84.71880494
 20
16.58173027
 30
0.0
 11
84.34490357
 21
18.94190445
 31
0.0
  0
ARC
  5
D9
330
1F
100
AcDbEntity
  8
枠_表
  6
CONTINUOUS
 62
     2
100
AcDbCircle
 10
85.89609681
 20
19.0200409
 30
0.0
 40
0.8820121300000001
100
AcDbArc
 50
272.67138672
 51
335.9987793000003
  0
ARC
  5
DA
330
1F
100
AcDbEntity
  8
枠_表
  6
CONTINUOUS
 62
     2
100
AcDbCircle
 10
85.87609253
 20
19.0200409
 30
0.0
 40
1.13401127
100
AcDbArc
 50
267.3674316300002
 51
335.9987792900002
  0
LINE
  5
DB
330
1F
100
AcDbEntity
  8
枠_表
  6
CONTINUOUS
 62
     2
100
AcDbLine
 10
87.33516846
 20
19.50905266
 30
0.0
 11
86.91214905
 21
18.55885925
 31
0.0
  0
LINE
  5
DC
330
1F
100
AcDbEntity
  8
枠_表
  6
CONTINUOUS
 62
     2
100
AcDbLine
 10
85.30906067
 20
16.58173027
 30
0.0
 11
84.92203675
 21
19.02488175
 31
0.0
  0
LINE
  5
DD
330
1F
100
AcDbEntity
  8
枠_表
  6
CONTINUOUS
 62
     2
100
AcDbLine
 10
85.03392945
 20
16.58173027
 30
0.0
 11
84.45284424
 21
20.25026741
 31
0.0
  0
LINE
  5
DE
330
1F
100
AcDbEntity
  8
枠_表
  6
CONTINUOUS
 62
     2
100
AcDbLine
 10
84.72797547
 20
20.25026741
 30
0.0
 11
84.83956299
 21
19.5459465
 31
0.0
  0
LINE
  5
DF
330
1F
100
AcDbEntity
  8
枠_表
  6
CONTINUOUS
 62
     2
100
AcDbLine
 10
83.23134766
 20
19.47440186
 30
0.0
 11
84.06051026
 21
19.47440186
 31
0.0
  0
LINE
  5
E0
330
1F
100
AcDbEntity
  8
枠_表
  6
CONTINUOUS
 62
     2
100
AcDbLine
 10
86.96698914
 20
19.25703945
 30
0.0
 11
86.70205079
 21
18.66135254
 31
0.0
  0
LINE
  5
E1
330
1F
100
AcDbEntity
  8
枠_表
  6
CONTINUOUS
 62
     2
100
AcDbLine
 10
84.81073914
 20
19.22241821
 30
0.0
 11
86.73381958
 21
19.22241821
 31
0.0
  0
ARC
  5
E2
330
1F
100
AcDbEntity
  8
枠_表
  6
CONTINUOUS
 62
     2
100
AcDbCircle
 10
85.85608826
 20
19.0200409
 30
0.0
 40
1.38601112
100
AcDbArc
 50
269.6113281200002
 51
335.9987792900002
  0
LINE
  5
E3
330
1F
100
AcDbEntity
  8
枠_表
  6
CONTINUOUS
 62
     2
100
AcDbLine
 10
87.59098206
 20
19.50905552
 30
0.0
 11
87.12224732
 21
18.45633545
 31
0.0
  0
LINE
  5
E4
330
1F
100
AcDbEntity
  8
枠_表
  6
CONTINUOUS
 62
     2
100
AcDbLine
 10
98.33126221
 20
20.33121338
 30
0.0
 11
96.28806458
 21
17.51827088
 31
0.0
  0
LINE
  5
E5
330
1F
100
AcDbEntity
  8
枠_表
  6
CONTINUOUS
 62
     2
100
AcDbLine
 10
97.78681336
 20
20.07922974
 30
0.0
 11
96.03420411
 21
17.6664032
 31
0.0
  0
ARC
  5
E6
330
1F
100
AcDbEntity
  8
枠_表
  6
CONTINUOUS
 62
     2
100
AcDbCircle
 10
95.29993592
 20
18.17440643
 30
0.0
 40
0.9324020700000001
100
AcDbArc
 50
270.0000305200002
 51
324.0011596700001
  0
LINE
  5
E7
330
1F
100
AcDbEntity
  8
枠_表
  6
CONTINUOUS
 62
     2
100
AcDbLine
 10
88.38794861
 20
20.60155907
 30
0.0
 11
92.82636414
 21
20.60155907
 31
0.0
  0
LINE
  5
E8
330
1F
100
AcDbEntity
  8
枠_表
  6
CONTINUOUS
 62
     2
100
AcDbLine
 10
88.38794861
 20
20.3395752
 30
0.0
 11
92.82636414
 21
20.3395752
 31
0.0
  0
LINE
  5
E9
330
1F
100
AcDbEntity
  8
枠_表
  6
CONTINUOUS
 62
     2
100
AcDbLine
 10
88.38794861
 20
20.0675911
 30
0.0
 11
92.82636414
 21
20.0675911
 31
0.0
  0
LINE
  5
EA
330
1F
100
AcDbEntity
  8
枠_表
  6
CONTINUOUS
 62
     2
100
AcDbLine
 10
87.98476563
 20
17.1644043
 30
0.0
 11
93.22954712
 21
17.1644043
 31
0.0
  0
LINE
  5
EB
330
1F
100
AcDbEntity
  8
枠_表
  6
CONTINUOUS
 62
     2
100
AcDbLine
 10
87.98476563
 20
16.9124054
 30
0.0
 11
93.22954712
 21
16.9124054
 31
0.0
  0
LINE
  5
EC
330
1F
100
AcDbEntity
  8
枠_表
  6
CONTINUOUS
 62
     2
100
AcDbLine
 10
87.98476563
 20
16.64039078
 30
0.0
 11
93.22954712
 21
16.64039078
 31
0.0
  0
LINE
  5
ED
330
1F
100
AcDbEntity
  8
枠_表
  6
CONTINUOUS
 62
     2
100
AcDbLine
 10
94.33521424
 20
20.59321251
 30
0.0
 11
98.62568055
 21
20.59321251
 31
0.0
  0
LINE
  5
EE
330
1F
100
AcDbEntity
  8
枠_表
  6
CONTINUOUS
 62
     2
100
AcDbLine
 10
98.88569031
 20
20.58321228
 30
0.0
 11
96.5519043
 21
17.37006226
 31
0.0
  0
LINE
  5
EF
330
1F
100
AcDbEntity
  8
枠_表
  6
CONTINUOUS
 62
     2
100
AcDbLine
 10
94.33521424
 20
20.33121338
 30
0.0
 11
98.13125
 21
20.33121338
 31
0.0
  0
LINE
  5
F0
330
1F
100
AcDbEntity
  8
枠_表
  6
CONTINUOUS
 62
     2
100
AcDbLine
 10
95.22992859
 20
17.16599693
 30
0.0
 11
93.93203125
 21
17.16599693
 31
0.0
  0
LINE
  5
F1
330
1F
100
AcDbEntity
  8
枠_表
  6
CONTINUOUS
 62
     2
100
AcDbLine
 10
95.22992859
 20
16.9039978
 30
0.0
 11
93.93203125
 21
16.9039978
 31
0.0
  0
LINE
  5
F2
330
1F
100
AcDbEntity
  8
枠_表
  6
CONTINUOUS
 62
     2
100
AcDbLine
 10
95.22992859
 20
16.64199867
 30
0.0
 11
93.93203125
 21
16.64199867
 31
0.0
  0
LINE
  5
F3
330
1F
100
AcDbEntity
  8
枠_表
  6
CONTINUOUS
 62
     2
100
AcDbLine
 10
97.24318848
 20
17.97371521
 30
0.0
 11
98.43715821
 21
16.59999981
 31
0.0
  0
LINE
  5
F4
330
1F
100
AcDbEntity
  8
枠_表
  6
CONTINUOUS
 62
     2
100
AcDbLine
 10
97.39534913
 20
18.15305081
 30
0.0
 11
98.74517212
 21
16.59999981
 31
0.0
  0
LINE
  5
F5
330
1F
100
AcDbEntity
  8
枠_表
  6
CONTINUOUS
 62
     2
100
AcDbLine
 10
97.54731141
 20
18.33229485
 30
0.0
 11
99.0529419
 21
16.59999981
 31
0.0
  0
LINE
  5
F6
330
1F
100
AcDbEntity
  8
枠_表
  6
CONTINUOUS
 62
     2
100
AcDbLine
 10
97.69927369
 20
18.51158466
 30
0.0
 11
99.3609253
 21
16.59999981
 31
0.0
  0
LINE
  5
F7
330
1F
100
AcDbEntity
  8
枠_表
  6
CONTINUOUS
 62
     2
100
AcDbLine
 10
94.33521424
 20
20.05922928
 30
0.0
 11
97.5367981
 21
20.05922928
 31
0.0
  0
LINE
  5
F8
330
1F
100
AcDbEntity
  8
枠_表
  6
CONTINUOUS
 62
     2
100
AcDbLine
 10
101.18955384
 20
20.60321274
 30
0.0
 11
106.03113709
 21
20.60321274
 31
0.0
  0
LINE
  5
F9
330
1F
100
AcDbEntity
  8
枠_表
  6
CONTINUOUS
 62
     2
100
AcDbLine
 10
101.18955384
 20
20.35121384
 30
0.0
 11
106.03113709
 21
20.35121384
 31
0.0
  0
LINE
  5
FA
330
1F
100
AcDbEntity
  8
枠_表
  6
CONTINUOUS
 62
     2
100
AcDbLine
 10
103.26773987
 20
17.14799156
 30
0.0
 11
103.26773987
 21
20.12122193
 31
0.0
  0
LINE
  5
FB
330
1F
100
AcDbEntity
  8
枠_表
  6
CONTINUOUS
 62
     2
100
AcDbLine
 10
103.51958619
 20
17.14799156
 30
0.0
 11
103.51958619
 21
20.12122193
 31
0.0
  0
LINE
  5
FC
330
1F
100
AcDbEntity
  8
枠_表
  6
CONTINUOUS
 62
     2
100
AcDbLine
 10
103.77141724
 20
17.14799156
 30
0.0
 11
103.77141724
 21
20.12122193
 31
0.0
  0
LINE
  5
FD
330
1F
100
AcDbEntity
  8
枠_表
  6
CONTINUOUS
 62
     2
100
AcDbLine
 10
104.00324402
 20
17.14799156
 30
0.0
 11
104.00324402
 21
20.12122193
 31
0.0
  0
LINE
  5
FE
330
1F
100
AcDbEntity
  8
枠_表
  6
CONTINUOUS
 62
     2
100
AcDbLine
 10
100.98795472
 20
16.94799175
 30
0.0
 11
106.23273621
 21
16.94799175
 31
0.0
  0
LINE
  5
FF
330
1F
100
AcDbEntity
  8
枠_表
  6
CONTINUOUS
 62
     2
100
AcDbLine
 10
100.98795472
 20
16.64599266
 30
0.0
 11
106.23273621
 21
16.64599266
 31
0.0
  0
LINE
  5
100
330
1F
100
AcDbEntity
  8
枠_表
  6
CONTINUOUS
 62
     2
100
AcDbLine
 10
107.4127594
 20
20.63519612
 30
0.0
 11
107.78708802
 21
20.15615025
 31
0.0
  0
LINE
  5
101
330
1F
100
AcDbEntity
  8
枠_表
  6
CONTINUOUS
 62
     2
100
AcDbLine
 10
107.73247681
 20
20.63519612
 30
0.0
 11
108.10680542
 21
20.15615025
 31
0.0
  0
LINE
  5
102
330
1F
100
AcDbEntity
  8
枠_表
  6
CONTINUOUS
 62
     2
100
AcDbLine
 10
108.73113404
 20
20.63519612
 30
0.0
 11
108.73113404
 21
20.19855633
 31
0.0
  0
LINE
  5
103
330
1F
100
AcDbEntity
  8
枠_表
  6
CONTINUOUS
 62
     2
100
AcDbLine
 10
109.00298462
 20
20.63519612
 30
0.0
 11
109.00298462
 21
20.19855633
 31
0.0
  0
LINE
  5
104
330
1F
100
AcDbEntity
  8
枠_表
  6
CONTINUOUS
 62
     2
100
AcDbLine
 10
109.73909913
 20
20.63519612
 30
0.0
 11
109.73909913
 21
20.19855633
 31
0.0
  0
LINE
  5
105
330
1F
100
AcDbEntity
  8
枠_表
  6
CONTINUOUS
 62
     2
100
AcDbLine
 10
110.03093873
 20
20.63519612
 30
0.0
 11
110.03093873
 21
20.19855633
 31
0.0
  0
LINE
  5
106
330
1F
100
AcDbEntity
  8
枠_表
  6
CONTINUOUS
 62
     2
100
AcDbLine
 10
110.99956666
 20
20.63519612
 30
0.0
 11
110.62523804
 21
20.15615025
 31
0.0
  0
LINE
  5
107
330
1F
100
AcDbEntity
  8
枠_表
  6
CONTINUOUS
 62
     2
100
AcDbLine
 10
111.33928833
 20
20.63519612
 30
0.0
 11
110.96495972
 21
20.15615025
 31
0.0
  0
LINE
  5
108
330
1F
100
AcDbEntity
  8
枠_表
  6
CONTINUOUS
 62
     2
100
AcDbLine
 10
106.73362122
 20
19.99855652
 30
0.0
 11
111.97840271
 21
19.99855652
 31
0.0
  0
LINE
  5
109
330
1F
100
AcDbEntity
  8
枠_表
  6
CONTINUOUS
 62
     2
100
AcDbLine
 10
108.04317627
 20
19.21882858
 30
0.0
 11
107.82778321
 21
19.81061783
 31
0.0
  0
LINE
  5
10A
330
1F
100
AcDbEntity
  8
枠_表
  6
CONTINUOUS
 62
     2
100
AcDbLine
 10
108.35122071
 20
19.21882858
 30
0.0
 11
108.13582764
 21
19.81061783
 31
0.0
  0
LINE
  5
10B
330
1F
100
AcDbEntity
  8
枠_表
  6
CONTINUOUS
 62
     2
100
AcDbLine
 10
108.63926087
 20
19.21885147
 30
0.0
 11
108.42411194
 21
19.81059494
 31
0.0
  0
LINE
  5
10C
330
1F
100
AcDbEntity
  8
枠_表
  6
CONTINUOUS
 62
     2
100
AcDbLine
 10
110.09194336
 20
19.21880665
 30
0.0
 11
110.30756531
 21
19.81063976
 31
0.0
  0
LINE
  5
10D
330
1F
100
AcDbEntity
  8
枠_表
  6
CONTINUOUS
 62
     2
100
AcDbLine
 10
110.40020142
 20
19.21880665
 30
0.0
 11
110.61582337
 21
19.81063976
 31
0.0
  0
LINE
  5
10E
330
1F
100
AcDbEntity
  8
枠_表
  6
CONTINUOUS
 62
     2
100
AcDbLine
 10
110.68824158
 20
19.21880665
 30
0.0
 11
110.90386353
 21
19.81063976
 31
0.0
  0
LINE
  5
10F
330
1F
100
AcDbEntity
  8
枠_表
  6
CONTINUOUS
 62
     2
100
AcDbLine
 10
106.73362122
 20
19.03088989
 30
0.0
 11
111.97840271
 21
19.03088989
 31
0.0
  0
LINE
  5
110
330
1F
100
AcDbEntity
  8
枠_表
  6
CONTINUOUS
 62
     2
100
AcDbLine
 10
106.73362122
 20
18.33536377
 30
0.0
 11
108.88387452
 21
18.33536377
 31
0.0
  0
LINE
  5
111
330
1F
100
AcDbEntity
  8
枠_表
  6
CONTINUOUS
 62
     2
100
AcDbLine
 10
106.73362122
 20
17.63983765
 30
0.0
 11
108.88387452
 21
17.63983765
 31
0.0
  0
LINE
  5
112
330
1F
100
AcDbEntity
  8
枠_表
  6
CONTINUOUS
 62
     2
100
AcDbLine
 10
109.8475586
 20
17.63983765
 30
0.0
 11
111.97840271
 21
17.63983765
 31
0.0
  0
LINE
  5
113
330
1F
100
AcDbEntity
  8
枠_表
  6
CONTINUOUS
 62
     2
100
AcDbLine
 10
107.05088196
 20
16.59999981
 30
0.0
 11
108.05332337
 21
17.5057539
 31
0.0
  0
LINE
  5
114
330
1F
100
AcDbEntity
  8
枠_表
  6
CONTINUOUS
 62
     2
100
AcDbLine
 10
107.38677369
 20
16.59999981
 30
0.0
 11
108.38924561
 21
17.50575581
 31
0.0
  0
LINE
  5
115
330
1F
100
AcDbEntity
  8
枠_表
  6
CONTINUOUS
 62
     2
100
AcDbLine
 10
107.70287476
 20
16.59999981
 30
0.0
 11
108.70534668
 21
17.50575581
 31
0.0
  0
LINE
  5
116
330
1F
100
AcDbEntity
  8
枠_表
  6
CONTINUOUS
 62
     2
100
AcDbLine
 10
109.08387146
 20
16.59999981
 30
0.0
 11
109.08387146
 21
18.83089008
 31
0.0
  0
LINE
  5
117
330
1F
100
AcDbEntity
  8
枠_表
  6
CONTINUOUS
 62
     2
100
AcDbLine
 10
109.37571106
 20
16.59999981
 30
0.0
 11
109.37571106
 21
18.83089008
 31
0.0
  0
LINE
  5
118
330
1F
100
AcDbEntity
  8
枠_表
  6
CONTINUOUS
 62
     2
100
AcDbLine
 10
109.64756165
 20
16.59999981
 30
0.0
 11
109.64756165
 21
18.83089008
 31
0.0
  0
LINE
  5
119
330
1F
100
AcDbEntity
  8
枠_表
  6
CONTINUOUS
 62
     2
100
AcDbLine
 10
111.0171753
 20
16.59999981
 30
0.0
 11
110.01473389
 21
17.5057539
 31
0.0
  0
LINE
  5
11A
330
1F
100
AcDbEntity
  8
枠_表
  6
CONTINUOUS
 62
     2
100
AcDbLine
 10
111.35308228
 20
16.59999981
 30
0.0
 11
110.35061036
 21
17.50575581
 31
0.0
  0
LINE
  5
11B
330
1F
100
AcDbEntity
  8
枠_表
  6
CONTINUOUS
 62
     2
100
AcDbLine
 10
111.68918763
 20
16.59999981
 30
0.0
 11
110.6867157
 21
17.50575581
 31
0.0
  0
LINE
  5
11C
330
1F
100
AcDbEntity
  8
枠_表
  6
CONTINUOUS
 62
     2
100
AcDbLine
 10
113.59978638
 20
20.63519612
 30
0.0
 11
113.59978638
 21
20.27919903
 31
0.0
  0
LINE
  5
11D
330
1F
100
AcDbEntity
  8
枠_表
  6
CONTINUOUS
 62
     2
100
AcDbLine
 10
113.85161744
 20
20.63519612
 30
0.0
 11
113.85161744
 21
20.27919903
 31
0.0
  0
LINE
  5
11E
330
1F
100
AcDbEntity
  8
枠_表
  6
CONTINUOUS
 62
     2
100
AcDbLine
 10
114.10346375
 20
20.63519612
 30
0.0
 11
114.10346375
 21
20.27919903
 31
0.0
  0
LINE
  5
11F
330
1F
100
AcDbEntity
  8
枠_表
  6
CONTINUOUS
 62
     2
100
AcDbLine
 10
112.57999573
 20
20.07919922
 30
0.0
 11
114.39751587
 21
20.07919922
 31
0.0
  0
LINE
  5
120
330
1F
100
AcDbEntity
  8
枠_表
  6
CONTINUOUS
 62
     2
100
AcDbLine
 10
112.59441529
 20
16.59890499
 30
0.0
 11
112.93920289
 21
19.88029423
 31
0.0
  0
LINE
  5
121
330
1F
100
AcDbEntity
  8
枠_表
  6
CONTINUOUS
 62
     2
100
AcDbLine
 10
112.8276764
 20
16.59890499
 30
0.0
 11
113.17247925
 21
19.88029423
 31
0.0
  0
LINE
  5
122
330
1F
100
AcDbEntity
  8
枠_表
  6
CONTINUOUS
 62
     2
100
AcDbLine
 10
113.59978638
 20
16.59999981
 30
0.0
 11
113.59978638
 21
19.87919941
 31
0.0
  0
LINE
  5
123
330
1F
100
AcDbEntity
  8
枠_表
  6
CONTINUOUS
 62
     2
100
AcDbLine
 10
113.85161744
 20
16.59999981
 30
0.0
 11
113.85161744
 21
19.87919941
 31
0.0
  0
LINE
  5
124
330
1F
100
AcDbEntity
  8
枠_表
  6
CONTINUOUS
 62
     2
100
AcDbLine
 10
114.10346375
 20
16.59999981
 30
0.0
 11
114.10346375
 21
19.87919941
 31
0.0
  0
LINE
  5
125
330
1F
100
AcDbEntity
  8
枠_表
  6
CONTINUOUS
 62
     2
100
AcDbLine
 10
114.22092591
 20
19.61542454
 30
0.0
 11
114.48003541
 21
19.25838413
 31
0.0
  0
LINE
  5
126
330
1F
100
AcDbEntity
  8
枠_表
  6
CONTINUOUS
 62
     2
100
AcDbLine
 10
114.22092591
 20
19.2264246
 30
0.0
 11
114.48003541
 21
18.86938419
 31
0.0
  0
LINE
  5
127
330
1F
100
AcDbEntity
  8
枠_表
  6
CONTINUOUS
 62
     2
100
AcDbLine
 10
114.84691773
 20
19.71886006
 30
0.0
 11
115.07688294
 21
20.64113751
 31
0.0
  0
LINE
  5
128
330
1F
100
AcDbEntity
  8
枠_表
  6
CONTINUOUS
 62
     2
100
AcDbLine
 10
115.08674012
 20
19.71886864
 30
0.0
 11
115.31652222
 21
20.64112892
 31
0.0
  0
LINE
  5
129
330
1F
100
AcDbEntity
  8
枠_表
  6
CONTINUOUS
 62
     2
100
AcDbLine
 10
115.29638062
 20
19.71886006
 30
0.0
 11
115.52634583
 21
20.64113751
 31
0.0
  0
LINE
  5
12A
330
1F
100
AcDbEntity
  8
枠_表
  6
CONTINUOUS
 62
     2
100
AcDbLine
 10
116.17023621
 20
20.27919903
 30
0.0
 11
116.17023621
 21
20.63519612
 31
0.0
  0
LINE
  5
12B
330
1F
100
AcDbEntity
  8
枠_表
  6
CONTINUOUS
 62
     2
100
AcDbLine
 10
116.44207154
 20
20.27919903
 30
0.0
 11
116.44207154
 21
20.63519612
 31
0.0
  0
LINE
  5
12C
330
1F
100
AcDbEntity
  8
枠_表
  6
CONTINUOUS
 62
     2
100
AcDbLine
 10
116.69391785
 20
20.27919903
 30
0.0
 11
116.69391785
 21
20.63519612
 31
0.0
  0
LINE
  5
12D
330
1F
100
AcDbEntity
  8
枠_表
  6
CONTINUOUS
 62
     2
100
AcDbLine
 10
115.58622132
 20
20.07919922
 30
0.0
 11
117.82477723
 21
20.07919922
 31
0.0
  0
LINE
  5
12E
330
1F
100
AcDbEntity
  8
枠_表
  6
CONTINUOUS
 62
     2
100
AcDbLine
 10
116.17023621
 20
19.87919941
 30
0.0
 11
116.17023621
 21
19.27120342
 31
0.0
  0
LINE
  5
12F
330
1F
100
AcDbEntity
  8
枠_表
  6
CONTINUOUS
 62
     2
100
AcDbLine
 10
116.44207154
 20
19.87919941
 30
0.0
 11
116.44207154
 21
19.27120342
 31
0.0
  0
LINE
  5
130
330
1F
100
AcDbEntity
  8
枠_表
  6
CONTINUOUS
 62
     2
100
AcDbLine
 10
116.69391785
 20
19.87919941
 30
0.0
 11
116.69391785
 21
19.27120342
 31
0.0
  0
LINE
  5
131
330
1F
100
AcDbEntity
  8
枠_表
  6
CONTINUOUS
 62
     2
100
AcDbLine
 10
114.89840088
 20
19.07120361
 30
0.0
 11
117.92566834
 21
19.07120361
 31
0.0
  0
LINE
  5
132
330
1F
100
AcDbEntity
  8
枠_表
  6
CONTINUOUS
 62
     2
100
AcDbLine
 10
115.34479676
 20
18.87443867
 30
0.0
 11
114.93007813
 21
16.59676495
 31
0.0
  0
LINE
  5
133
330
1F
100
AcDbEntity
  8
枠_表
  6
CONTINUOUS
 62
     2
100
AcDbLine
 10
115.58072815
 20
18.87443867
 30
0.0
 11
115.16602478
 21
16.59676495
 31
0.0
  0
LINE
  5
134
330
1F
100
AcDbEntity
  8
枠_表
  6
CONTINUOUS
 62
     2
100
AcDbLine
 10
115.78891907
 20
18.87444153
 30
0.0
 11
115.37400208
 21
16.59676209
 31
0.0
  0
LINE
  5
135
330
1F
100
AcDbEntity
  8
枠_表
  6
CONTINUOUS
 62
     2
100
AcDbLine
 10
116.17023621
 20
18.87120381
 30
0.0
 11
116.17023621
 21
16.59999981
 31
0.0
  0
LINE
  5
136
330
1F
100
AcDbEntity
  8
枠_表
  6
CONTINUOUS
 62
     2
100
AcDbLine
 10
116.42206727
 20
18.87120381
 30
0.0
 11
116.42206727
 21
16.59999981
 31
0.0
  0
LINE
  5
137
330
1F
100
AcDbEntity
  8
枠_表
  6
CONTINUOUS
 62
     2
100
AcDbLine
 10
117.03495179
 20
18.87444153
 30
0.0
 11
117.44986878
 21
16.59676209
 31
0.0
  0
LINE
  5
138
330
1F
100
AcDbEntity
  8
枠_表
  6
CONTINUOUS
 62
     2
100
AcDbLine
 10
117.25109253
 20
18.87444153
 30
0.0
 11
117.66600953
 21
16.59676209
 31
0.0
  0
LINE
  5
139
330
1F
100
AcDbEntity
  8
枠_表
  6
CONTINUOUS
 62
     2
100
AcDbLine
 10
117.5070282
 20
18.87444153
 30
0.0
 11
117.9219452
 21
16.59676209
 31
0.0
  0
LINE
  5
13A
330
1F
100
AcDbEntity
  8
枠_表
  6
CONTINUOUS
 62
     2
100
AcDbLine
 10
118.52726136
 20
20.24001541
 30
0.0
 11
121.38240967
 21
20.24001541
 31
0.0
  0
LINE
  5
13B
330
1F
100
AcDbEntity
  8
枠_表
  6
CONTINUOUS
 62
     2
100
AcDbLine
 10
118.52726136
 20
19.98801651
 30
0.0
 11
121.47413025
 21
19.98801651
 31
0.0
  0
LINE
  5
13C
330
1F
100
AcDbEntity
  8
枠_表
  6
CONTINUOUS
 62
     2
100
AcDbLine
 10
122.91166077
 20
16.58793869
 30
0.0
 11
121.434198
 21
20.64725723
 31
0.0
  0
LINE
  5
13D
330
1F
100
AcDbEntity
  8
枠_表
  6
CONTINUOUS
 62
     2
100
AcDbLine
 10
123.17969666
 20
16.58793965
 30
0.0
 11
121.70229493
 21
20.64725628
 31
0.0
  0
LINE
  5
13E
330
1F
100
AcDbEntity
  8
枠_表
  6
CONTINUOUS
 62
     2
100
AcDbLine
 10
123.44773255
 20
16.58793965
 30
0.0
 11
121.97033082
 21
20.64725628
 31
0.0
  0
LINE
  5
13F
330
1F
100
AcDbEntity
  8
枠_表
  6
CONTINUOUS
 62
     2
100
AcDbLine
 10
123.71576844
 20
16.58793583
 30
0.0
 11
122.23813782
 21
20.64725914
 31
0.0
  0
LINE
  5
140
330
1F
100
AcDbEntity
  8
枠_表
  6
CONTINUOUS
 62
     2
100
AcDbLine
 10
122.95430909
 20
20.44001522
 30
0.0
 11
122.95430909
 21
20.63519612
 31
0.0
  0
LINE
  5
141
330
1F
100
AcDbEntity
  8
枠_表
  6
CONTINUOUS
 62
     2
100
AcDbLine
 10
123.22615967
 20
20.44001522
 30
0.0
 11
123.22615967
 21
20.63519612
 31
0.0
  0
LINE
  5
142
330
1F
100
AcDbEntity
  8
枠_表
  6
CONTINUOUS
 62
     2
100
AcDbLine
 10
123.497995
 20
20.44001522
 30
0.0
 11
123.497995
 21
20.63519612
 31
0.0
  0
LINE
  5
143
330
1F
100
AcDbEntity
  8
枠_表
  6
CONTINUOUS
 62
     2
100
AcDbLine
 10
122.58637391
 20
20.24001541
 30
0.0
 11
123.77204285
 21
20.24001541
 31
0.0
  0
LINE
  5
144
330
1F
100
AcDbEntity
  8
枠_表
  6
CONTINUOUS
 62
     2
100
AcDbLine
 10
122.67810975
 20
19.98801651
 30
0.0
 11
123.77204285
 21
19.98801651
 31
0.0
  0
LINE
  5
145
330
1F
100
AcDbEntity
  8
枠_表
  6
CONTINUOUS
 62
     2
100
AcDbLine
 10
118.82955323
 20
19.03640976
 30
0.0
 11
121.4536377
 21
19.03640976
 31
0.0
  0
LINE
  5
146
330
1F
100
AcDbEntity
  8
枠_表
  6
CONTINUOUS
 62
     2
100
AcDbLine
 10
118.82955323
 20
18.7843956
 30
0.0
 11
121.4536377
 21
18.7843956
 31
0.0
  0
LINE
  5
147
330
1F
100
AcDbEntity
  8
枠_表
  6
CONTINUOUS
 62
     2
100
AcDbLine
 10
119.77909241
 20
18.58439579
 30
0.0
 11
119.77909241
 21
17.5791153
 31
0.0
  0
LINE
  5
148
330
1F
100
AcDbEntity
  8
枠_表
  6
CONTINUOUS
 62
     2
100
AcDbLine
 10
120.03092347
 20
18.58439579
 30
0.0
 11
120.03092347
 21
17.63264313
 31
0.0
  0
LINE
  5
149
330
1F
100
AcDbEntity
  8
枠_表
  6
CONTINUOUS
 62
     2
100
AcDbLine
 10
120.28275452
 20
18.58439579
 30
0.0
 11
120.28275452
 21
17.68617191
 31
0.0
  0
LINE
  5
14A
330
1F
100
AcDbEntity
  8
枠_表
  6
CONTINUOUS
 62
     2
100
AcDbLine
 10
120.53460083
 20
18.58439579
 30
0.0
 11
120.53460083
 21
17.73970261
 31
0.0
  0
LINE
  5
14B
330
1F
100
AcDbEntity
  8
枠_表
  6
CONTINUOUS
 62
     2
100
AcDbLine
 10
118.7747284
 20
17.16563168
 30
0.0
 11
121.50844727
 21
17.74669972
 31
0.0
  0
LINE
  5
14C
330
1F
100
AcDbEntity
  8
枠_表
  6
CONTINUOUS
 62
     2
100
AcDbLine
 10
118.7747284
 20
16.88800278
 30
0.0
 11
121.50844727
 21
17.46908512
 31
0.0
  0
LINE
  5
14D
330
1F
100
AcDbEntity
  8
枠_表
  6
CONTINUOUS
 62
     2
100
AcDbLine
 10
118.7747284
 20
16.65037289
 30
0.0
 11
121.50844727
 21
17.23144093
 31
0.0
  0
LINE
  5
14E
330
1F
100
AcDbEntity
  8
枠_表
  6
CONTINUOUS
 62
     2
100
AcDbLine
 10
124.36330567
 20
19.8325943
 30
0.0
 11
126.95153199
 21
20.69854012
 31
0.0
  0
LINE
  5
14F
330
1F
100
AcDbEntity
  8
枠_表
  6
CONTINUOUS
 62
     2
100
AcDbLine
 10
124.36330567
 20
19.56686249
 30
0.0
 11
126.95153199
 21
20.43282356
 31
0.0
  0
LINE
  5
150
330
1F
100
AcDbEntity
  8
枠_表
  6
CONTINUOUS
 62
     2
100
AcDbLine
 10
127.14119874
 20
20.69853916
 30
0.0
 11
129.72944031
 21
19.8325304
 31
0.0
  0
LINE
  5
151
330
1F
100
AcDbEntity
  8
枠_表
  6
CONTINUOUS
 62
     2
100
AcDbLine
 10
127.14119874
 20
20.45282307
 30
0.0
 11
129.72944031
 21
19.58681431
 31
0.0
  0
LINE
  5
152
330
1F
100
AcDbEntity
  8
枠_表
  6
CONTINUOUS
 62
     2
100
AcDbLine
 10
128.86249695
 20
19.55961075
 30
0.0
 11
125.23044739
 21
19.55961075
 31
0.0
  0
LINE
  5
153
330
1F
100
AcDbEntity
  8
枠_表
  6
CONTINUOUS
 62
     2
100
AcDbLine
 10
128.86249695
 20
19.28759613
 30
0.0
 11
125.23044739
 21
19.28759613
 31
0.0
  0
LINE
  5
154
330
1F
100
AcDbEntity
  8
枠_表
  6
CONTINUOUS
 62
     2
100
AcDbLine
 10
124.37363587
 20
18.50639191
 30
0.0
 11
129.71911011
 21
18.50639191
 31
0.0
  0
LINE
  5
155
330
1F
100
AcDbEntity
  8
枠_表
  6
CONTINUOUS
 62
     2
100
AcDbLine
 10
124.37363587
 20
18.27440872
 30
0.0
 11
129.71911011
 21
18.27440872
 31
0.0
  0
LINE
  5
156
330
1F
100
AcDbEntity
  8
枠_表
  6
CONTINUOUS
 62
     2
100
AcDbLine
 10
125.20133362
 20
18.09315338
 30
0.0
 11
124.69112549
 21
16.99924603
 31
0.0
  0
LINE
  5
157
330
1F
100
AcDbEntity
  8
枠_表
  6
CONTINUOUS
 62
     2
100
AcDbLine
 10
125.5194336
 20
18.09315434
 30
0.0
 11
125.00921021
 21
16.99924603
 31
0.0
  0
LINE
  5
158
330
1F
100
AcDbEntity
  8
枠_表
  6
CONTINUOUS
 62
     2
100
AcDbLine
 10
125.83753357
 20
18.09315434
 30
0.0
 11
125.32731019
 21
16.99924603
 31
0.0
  0
LINE
  5
159
330
1F
100
AcDbEntity
  8
枠_表
  6
CONTINUOUS
 62
     2
100
AcDbLine
 10
128.25541077
 20
18.09316673
 30
0.0
 11
128.76583252
 21
16.99923363
 31
0.0
  0
LINE
  5
15A
330
1F
100
AcDbEntity
  8
枠_表
  6
CONTINUOUS
 62
     2
100
AcDbLine
 10
128.57370911
 20
18.09314194
 30
0.0
 11
129.08370362
 21
16.99925842
 31
0.0
  0
LINE
  5
15B
330
1F
100
AcDbEntity
  8
枠_表
  6
CONTINUOUS
 62
     2
100
AcDbLine
 10
128.89199219
 20
18.09313145
 30
0.0
 11
129.40181885
 21
16.99926891
 31
0.0
  0
LINE
  5
15C
330
1F
100
AcDbEntity
  8
枠_表
  6
CONTINUOUS
 62
     2
100
AcDbLine
 10
124.56853638
 20
16.81799164
 30
0.0
 11
129.5242096
 21
16.81799164
 31
0.0
  0
LINE
  5
15D
330
1F
100
AcDbEntity
  8
枠_表
  6
CONTINUOUS
 62
     2
100
AcDbLine
 10
124.45102845
 20
16.56599274
 30
0.0
 11
129.64171753
 21
16.56599274
 31
0.0
  0
LINE
  5
15E
330
1F
100
AcDbEntity
  8
枠_表
  6
CONTINUOUS
 62
     2
100
AcDbLine
 10
131.23978577
 20
20.44001522
 30
0.0
 11
131.23978577
 21
20.63519612
 31
0.0
  0
LINE
  5
15F
330
1F
100
AcDbEntity
  8
枠_表
  6
CONTINUOUS
 62
     2
100
AcDbLine
 10
131.53162537
 20
20.44001522
 30
0.0
 11
131.53162537
 21
20.63519612
 31
0.0
  0
LINE
  5
160
330
1F
100
AcDbEntity
  8
枠_表
  6
CONTINUOUS
 62
     2
100
AcDbLine
 10
131.82348023
 20
20.44001522
 30
0.0
 11
131.82348023
 21
20.63519612
 31
0.0
  0
LINE
  5
161
330
1F
100
AcDbEntity
  8
枠_表
  6
CONTINUOUS
 62
     2
100
AcDbLine
 10
130.32068787
 20
20.24001541
 30
0.0
 11
132.60878907
 21
20.24001541
 31
0.0
  0
LINE
  5
162
330
1F
100
AcDbEntity
  8
枠_表
  6
CONTINUOUS
 62
     2
100
AcDbLine
 10
130.32068787
 20
19.98801651
 30
0.0
 11
132.43238221
 21
19.98801651
 31
0.0
  0
LINE
  5
163
330
1F
100
AcDbEntity
  8
枠_表
  6
CONTINUOUS
 62
     2
100
AcDbLine
 10
131.6379181
 20
19.82416763
 30
0.0
 11
130.23537598
 21
17.82047215
 31
0.0
  0
LINE
  5
164
330
1F
100
AcDbEntity
  8
枠_表
  6
CONTINUOUS
 62
     2
100
AcDbLine
 10
131.96566163
 20
19.82418003
 30
0.0
 11
130.23539124
 21
17.3528513
 31
0.0
  0
LINE
  5
165
330
1F
100
AcDbEntity
  8
枠_表
  6
CONTINUOUS
 62
     2
100
AcDbLine
 10
132.27379761
 20
19.82417717
 30
0.0
 11
130.23539124
 21
16.91257324
 31
0.0
  0
LINE
  5
166
330
1F
100
AcDbEntity
  8
枠_表
  6
CONTINUOUS
 62
     2
100
AcDbLine
 10
131.79299317
 20
18.78869095
 30
0.0
 11
132.67867432
 21
18.16846409
 31
0.0
  0
LINE
  5
167
330
1F
100
AcDbEntity
  8
枠_表
  6
CONTINUOUS
 62
     2
100
AcDbLine
 10
131.64844666
 20
18.58219948
 30
0.0
 11
132.67865906
 21
17.86079922
 31
0.0
  0
LINE
  5
168
330
1F
100
AcDbEntity
  8
枠_表
  6
CONTINUOUS
 62
     2
100
AcDbLine
 10
131.49450074
 20
18.3623127
 30
0.0
 11
132.67865906
 21
17.5331501
 31
0.0
  0
LINE
  5
169
330
1F
100
AcDbEntity
  8
枠_表
  6
CONTINUOUS
 62
     2
100
AcDbLine
 10
131.23978577
 20
18.1472229
 30
0.0
 11
131.23978577
 21
16.59999981
 31
0.0
  0
LINE
  5
16A
330
1F
100
AcDbEntity
  8
枠_表
  6
CONTINUOUS
 62
     2
100
AcDbLine
 10
131.53162537
 20
18.13631573
 30
0.0
 11
131.53162537
 21
16.59999981
 31
0.0
  0
LINE
  5
16B
330
1F
100
AcDbEntity
  8
枠_表
  6
CONTINUOUS
 62
     2
100
AcDbLine
 10
131.82348023
 20
17.93195667
 30
0.0
 11
131.82348023
 21
16.59999981
 31
0.0
  0
LINE
  5
16C
330
1F
100
AcDbEntity
  8
枠_表
  6
CONTINUOUS
 62
     2
100
AcDbLine
 10
133.96137391
 20
17.01799145
 30
0.0
 11
133.96137391
 21
20.63519612
 31
0.0
  0
LINE
  5
16D
330
1F
100
AcDbEntity
  8
枠_表
  6
CONTINUOUS
 62
     2
100
AcDbLine
 10
134.25321351
 20
17.01799145
 30
0.0
 11
134.25321351
 21
20.63519612
 31
0.0
  0
LINE
  5
16E
330
1F
100
AcDbEntity
  8
枠_表
  6
CONTINUOUS
 62
     2
100
AcDbLine
 10
134.54506836
 20
17.01799145
 30
0.0
 11
134.54506836
 21
20.63519612
 31
0.0
  0
LINE
  5
16F
330
1F
100
AcDbEntity
  8
枠_表
  6
CONTINUOUS
 62
     2
100
AcDbLine
 10
133.04248963
 20
19.53440323
 30
0.0
 11
133.76137696
 21
19.53440323
 31
0.0
  0
LINE
  5
170
330
1F
100
AcDbEntity
  8
枠_表
  6
CONTINUOUS
 62
     2
100
AcDbLine
 10
133.04248963
 20
19.28241959
 30
0.0
 11
133.76137696
 21
19.28241959
 31
0.0
  0
LINE
  5
171
330
1F
100
AcDbEntity
  8
枠_表
  6
CONTINUOUS
 62
     2
100
AcDbLine
 10
134.74506531
 20
19.53440323
 30
0.0
 11
135.46477662
 21
19.53440323
 31
0.0
  0
LINE
  5
172
330
1F
100
AcDbEntity
  8
枠_表
  6
CONTINUOUS
 62
     2
100
AcDbLine
 10
134.74506531
 20
19.26241913
 30
0.0
 11
135.46477662
 21
19.26241913
 31
0.0
  0
LINE
  5
173
330
1F
100
AcDbEntity
  8
枠_表
  6
CONTINUOUS
 62
     2
100
AcDbLine
 10
132.63909302
 20
16.81799164
 30
0.0
 11
135.56566773
 21
16.81799164
 31
0.0
  0
LINE
  5
174
330
1F
100
AcDbEntity
  8
枠_表
  6
CONTINUOUS
 62
     2
100
AcDbLine
 10
132.63909302
 20
16.56599274
 30
0.0
 11
135.56566773
 21
16.56599274
 31
0.0
  0
LINE
  5
175
330
1F
100
AcDbEntity
  8
枠_表
  6
CONTINUOUS
 62
     2
100
AcDbLine
 10
109.8475586
 20
18.33536377
 30
0.0
 11
111.97840271
 21
18.33536377
 31
0.0
  0
LINE
  5
176
330
1F
100
AcDbEntity
  8
枠_表
  6
CONTINUOUS
 62
     3
100
AcDbLine
 10
82.7447754
 20
20.02879944
 30
0.0
 11
81.93840943
 21
20.02879944
 31
0.0
  0
LINE
  5
177
330
1F
100
AcDbEntity
  8
枠_表
  6
CONTINUOUS
 62
     3
100
AcDbLine
 10
82.7447754
 20
20.83519592
 30
0.0
 11
82.7447754
 21
20.02879944
 31
0.0
  0
LINE
  5
178
330
1F
100
AcDbEntity
  8
枠_表
  6
CONTINUOUS
 62
     3
100
AcDbLine
 10
81.93840943
 20
20.83519592
 30
0.0
 11
82.7447754
 21
20.83519592
 31
0.0
  0
LINE
  5
179
330
1F
100
AcDbEntity
  8
枠_表
  6
CONTINUOUS
 62
     3
100
AcDbLine
 10
81.93840943
 20
20.83519592
 30
0.0
 11
81.93840943
 21
20.02879944
 31
0.0
  0
LINE
  5
17A
330
1F
100
AcDbEntity
  8
枠_表
  6
CONTINUOUS
 62
     3
100
AcDbLine
 10
81.63591919
 20
20.02879944
 30
0.0
 11
80.82955323
 21
20.02879944
 31
0.0
  0
LINE
  5
17B
330
1F
100
AcDbEntity
  8
枠_表
  6
CONTINUOUS
 62
     3
100
AcDbLine
 10
81.63591919
 20
20.83519592
 30
0.0
 11
81.63591919
 21
20.02879944
 31
0.0
  0
LINE
  5
17C
330
1F
100
AcDbEntity
  8
枠_表
  6
CONTINUOUS
 62
     3
100
AcDbLine
 10
80.82955323
 20
20.83519592
 30
0.0
 11
81.63591919
 21
20.83519592
 31
0.0
  0
LINE
  5
17D
330
1F
100
AcDbEntity
  8
枠_表
  6
CONTINUOUS
 62
     3
100
AcDbLine
 10
80.82955323
 20
20.83519592
 30
0.0
 11
80.82955323
 21
20.02879944
 31
0.0
  0
LINE
  5
17E
330
1F
100
AcDbEntity
  8
枠_表
  6
CONTINUOUS
 62
     3
100
AcDbLine
 10
79.98873291
 20
16.4
 30
0.0
 11
77.1
 21
16.4
 31
0.0
  0
ARC
  5
17F
330
1F
100
AcDbEntity
  8
枠_表
  6
CONTINUOUS
 62
     3
100
AcDbCircle
 10
79.98873291
 20
18.21440735
 30
0.0
 40
1.81439972
100
AcDbArc
 50
270.0000305200002
 51
334.0001373300001
  0
LINE
  5
180
330
1F
100
AcDbEntity
  8
枠_表
  6
CONTINUOUS
 62
     3
100
AcDbLine
 10
82.7447754
 20
19.72640076
 30
0.0
 11
81.61930237
 21
17.41901245
 31
0.0
  0
LINE
  5
181
330
1F
100
AcDbEntity
  8
枠_表
  6
CONTINUOUS
 62
     3
100
AcDbLine
 10
81.51122437
 20
19.72640076
 30
0.0
 11
82.7447754
 21
19.72640076
 31
0.0
  0
LINE
  5
182
330
1F
100
AcDbEntity
  8
枠_表
  6
CONTINUOUS
 62
     3
100
AcDbLine
 10
80.601297
 20
17.86090698
 30
0.0
 11
81.51122437
 21
19.72640076
 31
0.0
  0
ARC
  5
183
330
1F
100
AcDbEntity
  8
枠_表
  6
CONTINUOUS
 62
     3
100
AcDbCircle
 10
79.8765503
 20
18.21440735
 30
0.0
 40
0.8064000000000001
100
AcDbArc
 50
270.0000305200002
 51
333.9985504200004
  0
LINE
  5
184
330
1F
100
AcDbEntity
  8
枠_表
  6
CONTINUOUS
 62
     3
100
AcDbLine
 10
77.1
 20
17.40799561
 30
0.0
 11
79.8765503
 21
17.40799561
 31
0.0
  0
LINE
  5
185
330
1F
100
AcDbEntity
  8
枠_表
  6
CONTINUOUS
 62
     3
100
AcDbLine
 10
77.1
 20
17.40799561
 30
0.0
 11
77.1
 21
16.4
 31
0.0
  0
LINE
  5
186
330
1F
100
AcDbEntity
  8
枠_表
  6
CONTINUOUS
 62
     3
100
AcDbLine
 10
79.92249451
 20
18.71838989
 30
0.0
 11
77.1
 21
18.71838989
 31
0.0
  0
LINE
  5
187
330
1F
100
AcDbEntity
  8
枠_表
  6
CONTINUOUS
 62
     3
100
AcDbLine
 10
79.92249451
 20
19.6256012
 30
0.0
 11
79.92249451
 21
18.71838989
 31
0.0
  0
LINE
  5
188
330
1F
100
AcDbEntity
  8
枠_表
  6
CONTINUOUS
 62
     3
100
AcDbLine
 10
77.1
 20
19.6256012
 30
0.0
 11
79.92249451
 21
19.6256012
 31
0.0
  0
LINE
  5
189
330
1F
100
AcDbEntity
  8
枠_表
  6
CONTINUOUS
 62
     3
100
AcDbLine
 10
77.1
 20
19.6256012
 30
0.0
 11
77.1
 21
18.71838989
 31
0.0
  0
LINE
  5
18A
330
1F
100
AcDbEntity
  8
枠_表
  6
CONTINUOUS
 62
     3
100
AcDbLine
 10
79.92249451
 20
19.92799988
 30
0.0
 11
77.1
 21
19.92799988
 31
0.0
  0
LINE
  5
18B
330
1F
100
AcDbEntity
  8
枠_表
  6
CONTINUOUS
 62
     3
100
AcDbLine
 10
79.92249451
 20
20.83519592
 30
0.0
 11
79.92249451
 21
19.92799988
 31
0.0
  0
LINE
  5
18C
330
1F
100
AcDbEntity
  8
枠_表
  6
CONTINUOUS
 62
     3
100
AcDbLine
 10
77.1
 20
20.83519592
 30
0.0
 11
79.92249451
 21
20.83519592
 31
0.0
  0
LINE
  5
18D
330
1F
100
AcDbEntity
  8
枠_表
  6
CONTINUOUS
 62
     3
100
AcDbLine
 10
77.1
 20
20.83519592
 30
0.0
 11
77.1
 21
19.92799988
 31
0.0
  0
LINE
  5
18E
330
1F
100
AcDbEntity
  8
枠_表
  6
CONTINUOUS
 62
     3
100
AcDbLine
 10
83.04726563
 20
19.72640076
 30
0.0
 11
83.04726563
 21
19.02078858
 31
0.0
  0
LINE
  5
18F
330
1F
100
AcDbEntity
  8
枠_表
  6
CONTINUOUS
 62
     3
100
AcDbLine
 10
83.04726563
 20
19.72640076
 30
0.0
 11
83.96540223
 21
19.72640076
 31
0.0
  0
LINE
  5
190
330
1F
100
AcDbEntity
  8
枠_表
  6
CONTINUOUS
 62
     3
100
AcDbLine
 10
83.8536316
 20
20.43199768
 30
0.0
 11
83.96540223
 21
19.72640076
 31
0.0
  0
LINE
  5
191
330
1F
100
AcDbEntity
  8
枠_表
  6
CONTINUOUS
 62
     3
100
AcDbLine
 10
83.8536316
 20
20.43199768
 30
0.0
 11
84.97623597
 21
20.43199768
 31
0.0
  0
LINE
  5
192
330
1F
100
AcDbEntity
  8
枠_表
  6
CONTINUOUS
 62
     3
100
AcDbLine
 10
84.97623597
 20
20.43199768
 30
0.0
 11
85.08799134
 21
19.72640076
 31
0.0
  0
LINE
  5
193
330
1F
100
AcDbEntity
  8
枠_表
  6
CONTINUOUS
 62
     3
100
AcDbLine
 10
85.08799134
 20
19.72640076
 30
0.0
 11
87.88567505
 21
19.72640076
 31
0.0
  0
LINE
  5
194
330
1F
100
AcDbEntity
  8
枠_表
  6
CONTINUOUS
 62
     3
100
AcDbLine
 10
87.88567505
 20
19.72640076
 30
0.0
 11
87.29731141
 21
18.40505066
 31
0.0
  0
ARC
  5
195
330
1F
100
AcDbEntity
  8
枠_表
  6
CONTINUOUS
 62
     3
100
AcDbCircle
 10
85.91610108
 20
19.0200409
 30
0.0
 40
1.51201057
100
AcDbArc
 50
263.4657745200003
 51
335.9987792800001
  0
LINE
  5
196
330
1F
100
AcDbEntity
  8
枠_表
  6
CONTINUOUS
 62
     3
100
AcDbLine
 10
85.74384461
 20
17.51785889
 30
0.0
 11
85.63370667
 21
18.21440735
 31
0.0
  0
ARC
  5
197
330
1F
100
AcDbEntity
  8
枠_表
  6
CONTINUOUS
 62
     3
100
AcDbCircle
 10
85.6058136
 20
18.81920471
 30
0.0
 40
0.60480058
100
AcDbArc
 50
272.6237487800003
 51
336.0065307700002
  0
LINE
  5
198
330
1F
100
AcDbEntity
  8
枠_表
  6
CONTINUOUS
 62
     3
100
AcDbLine
 10
86.1585022
 20
18.57320252
 30
0.0
 11
86.3576294
 21
19.02078858
 31
0.0
  0
LINE
  5
199
330
1F
100
AcDbEntity
  8
枠_表
  6
CONTINUOUS
 62
     3
100
AcDbLine
 10
86.3576294
 20
19.02078858
 30
0.0
 11
85.19976197
 21
19.02078858
 31
0.0
  0
LINE
  5
19A
330
1F
100
AcDbEntity
  8
枠_表
  6
CONTINUOUS
 62
     3
100
AcDbLine
 10
85.19976197
 20
19.02078858
 30
0.0
 11
85.61484681
 21
16.4
 31
0.0
  0
LINE
  5
19B
330
1F
100
AcDbEntity
  8
枠_表
  6
CONTINUOUS
 62
     3
100
AcDbLine
 10
85.61484681
 20
16.4
 30
0.0
 11
84.49224244
 21
16.4
 31
0.0
  0
LINE
  5
19C
330
1F
100
AcDbEntity
  8
枠_表
  6
CONTINUOUS
 62
     3
100
AcDbLine
 10
87.78476868
 20
16.4
 30
0.0
 11
87.78476868
 21
17.40799561
 31
0.0
  0
LINE
  5
19D
330
1F
100
AcDbEntity
  8
枠_表
  6
CONTINUOUS
 62
     3
100
AcDbLine
 10
87.78476868
 20
17.40799561
 30
0.0
 11
93.42954407
 21
17.40799561
 31
0.0
  0
LINE
  5
19E
330
1F
100
AcDbEntity
  8
枠_表
  6
CONTINUOUS
 62
     3
100
AcDbLine
 10
93.42954407
 20
17.40799561
 30
0.0
 11
93.42954407
 21
16.4
 31
0.0
  0
LINE
  5
19F
330
1F
100
AcDbEntity
  8
枠_表
  6
CONTINUOUS
 62
     3
100
AcDbLine
 10
93.42954407
 20
16.4
 30
0.0
 11
87.78476868
 21
16.4
 31
0.0
  0
LINE
  5
1A0
330
1F
100
AcDbEntity
  8
枠_表
  6
CONTINUOUS
 62
     3
100
AcDbLine
 10
88.18795166
 20
20.83519592
 30
0.0
 11
88.18795166
 21
19.82720032
 31
0.0
  0
LINE
  5
1A1
330
1F
100
AcDbEntity
  8
枠_表
  6
CONTINUOUS
 62
     3
100
AcDbLine
 10
88.18795166
 20
20.83519592
 30
0.0
 11
93.02636109
 21
20.83519592
 31
0.0
  0
LINE
  5
1A2
330
1F
100
AcDbEntity
  8
枠_表
  6
CONTINUOUS
 62
     3
100
AcDbLine
 10
93.02636109
 20
20.83519592
 30
0.0
 11
93.02636109
 21
19.82720032
 31
0.0
  0
LINE
  5
1A3
330
1F
100
AcDbEntity
  8
枠_表
  6
CONTINUOUS
 62
     3
100
AcDbLine
 10
93.02636109
 20
19.82720032
 30
0.0
 11
88.18795166
 21
19.82720032
 31
0.0
  0
LINE
  5
1A4
330
1F
100
AcDbEntity
  8
枠_表
  6
CONTINUOUS
 62
     3
100
AcDbLine
 10
94.13521729
 20
20.83519592
 30
0.0
 11
94.13521729
 21
19.82720032
 31
0.0
  0
LINE
  5
1A5
330
1F
100
AcDbEntity
  8
枠_表
  6
CONTINUOUS
 62
     3
100
AcDbLine
 10
94.13521729
 20
20.83519592
 30
0.0
 11
99.3768097
 21
20.83519592
 31
0.0
  0
LINE
  5
1A6
330
1F
100
AcDbEntity
  8
枠_表
  6
CONTINUOUS
 62
     3
100
AcDbLine
 10
99.3768097
 20
20.83519592
 30
0.0
 11
97.80509339
 21
18.67189636
 31
0.0
  0
LINE
  5
1A7
330
1F
100
AcDbEntity
  8
枠_表
  6
CONTINUOUS
 62
     3
100
AcDbLine
 10
97.80509339
 20
18.67189636
 30
0.0
 11
99.77999268
 21
16.4
 31
0.0
  0
LINE
  5
1A8
330
1F
100
AcDbEntity
  8
枠_表
  6
CONTINUOUS
 62
     3
100
AcDbLine
 10
99.77999268
 20
16.4
 30
0.0
 11
98.31081543
 21
16.4
 31
0.0
  0
LINE
  5
1A9
330
1F
100
AcDbEntity
  8
枠_表
  6
CONTINUOUS
 62
     3
100
AcDbLine
 10
98.31081543
 20
16.4
 30
0.0
 11
97.13613282
 21
17.75127258
 31
0.0
  0
LINE
  5
1AA
330
1F
100
AcDbEntity
  8
枠_表
  6
CONTINUOUS
 62
     3
100
AcDbLine
 10
97.13613282
 20
17.75127258
 30
0.0
 11
96.69788514
 21
17.14792481
 31
0.0
  0
ARC
  5
1AB
330
1F
100
AcDbEntity
  8
枠_表
  6
CONTINUOUS
 62
     3
100
AcDbCircle
 10
95.22992859
 20
18.21440735
 30
0.0
 40
1.81439972
100
AcDbArc
 50
270.0000305200002
 51
324.0011596700001
  0
LINE
  5
1AC
330
1F
100
AcDbEntity
  8
枠_表
  6
CONTINUOUS
 62
     3
100
AcDbLine
 10
95.22992859
 20
16.4
 30
0.0
 11
93.73203431
 21
16.4
 31
0.0
  0
LINE
  5
1AD
330
1F
100
AcDbEntity
  8
枠_表
  6
CONTINUOUS
 62
     3
100
AcDbLine
 10
93.73203431
 20
16.4
 30
0.0
 11
93.73203431
 21
17.40799561
 31
0.0
  0
LINE
  5
1AE
330
1F
100
AcDbEntity
  8
枠_表
  6
CONTINUOUS
 62
     3
100
AcDbLine
 10
93.73203431
 20
17.40799561
 30
0.0
 11
95.00270997
 21
17.40799561
 31
0.0
  0
ARC
  5
1AF
330
1F
100
AcDbEntity
  8
枠_表
  6
CONTINUOUS
 62
     3
100
AcDbCircle
 10
95.00270997
 20
18.41599121
 30
0.0
 40
1.00799942
100
AcDbArc
 50
270.0000305200002
 51
323.9965972900001
  0
LINE
  5
1B0
330
1F
100
AcDbEntity
  8
枠_表
  6
CONTINUOUS
 62
     3
100
AcDbLine
 10
95.81809388
 20
17.82350769
 30
0.0
 11
97.2739502
 21
19.82720032
 31
0.0
  0
LINE
  5
1B1
330
1F
100
AcDbEntity
  8
枠_表
  6
CONTINUOUS
 62
     3
100
AcDbLine
 10
97.2739502
 20
19.82720032
 30
0.0
 11
94.13521729
 21
19.82720032
 31
0.0
  0
LINE
  5
1B2
330
1F
100
AcDbEntity
  8
枠_表
  6
CONTINUOUS
 62
     3
100
AcDbLine
 10
100.98955689
 20
20.83519592
 30
0.0
 11
100.98955689
 21
20.129599
 31
0.0
  0
LINE
  5
1B3
330
1F
100
AcDbEntity
  8
枠_表
  6
CONTINUOUS
 62
     3
100
AcDbLine
 10
100.98955689
 20
20.83519592
 30
0.0
 11
106.23113404
 21
20.83519592
 31
0.0
  0
LINE
  5
1B4
330
1F
100
AcDbEntity
  8
枠_表
  6
CONTINUOUS
 62
     3
100
AcDbLine
 10
106.23113404
 20
20.83519592
 30
0.0
 11
106.23113404
 21
20.129599
 31
0.0
  0
LINE
  5
1B5
330
1F
100
AcDbEntity
  8
枠_表
  6
CONTINUOUS
 62
     3
100
AcDbLine
 10
106.23113404
 20
20.129599
 30
0.0
 11
104.16477356
 21
20.129599
 31
0.0
  0
LINE
  5
1B6
330
1F
100
AcDbEntity
  8
枠_表
  6
CONTINUOUS
 62
     3
100
AcDbLine
 10
104.16477356
 20
20.129599
 30
0.0
 11
104.16477356
 21
17.20641174
 31
0.0
  0
LINE
  5
1B7
330
1F
100
AcDbEntity
  8
枠_表
  6
CONTINUOUS
 62
     3
100
AcDbLine
 10
104.16477356
 20
17.20641174
 30
0.0
 11
106.43273316
 21
17.20641174
 31
0.0
  0
LINE
  5
1B8
330
1F
100
AcDbEntity
  8
枠_表
  6
CONTINUOUS
 62
     3
100
AcDbLine
 10
106.43273316
 20
17.20641174
 30
0.0
 11
106.43273316
 21
16.4
 31
0.0
  0
LINE
  5
1B9
330
1F
100
AcDbEntity
  8
枠_表
  6
CONTINUOUS
 62
     3
100
AcDbLine
 10
106.43273316
 20
16.4
 30
0.0
 11
100.78795777
 21
16.4
 31
0.0
  0
LINE
  5
1BA
330
1F
100
AcDbEntity
  8
枠_表
  6
CONTINUOUS
 62
     3
100
AcDbLine
 10
100.78795777
 20
16.4
 30
0.0
 11
100.78795777
 21
17.20641174
 31
0.0
  0
LINE
  5
1BB
330
1F
100
AcDbEntity
  8
枠_表
  6
CONTINUOUS
 62
     3
100
AcDbLine
 10
100.78795777
 20
17.20641174
 30
0.0
 11
103.05591736
 21
17.20641174
 31
0.0
  0
LINE
  5
1BC
330
1F
100
AcDbEntity
  8
枠_表
  6
CONTINUOUS
 62
     3
100
AcDbLine
 10
103.05591736
 20
17.20641174
 30
0.0
 11
103.05591736
 21
20.129599
 31
0.0
  0
LINE
  5
1BD
330
1F
100
AcDbEntity
  8
枠_表
  6
CONTINUOUS
 62
     3
100
AcDbLine
 10
103.05591736
 20
20.129599
 30
0.0
 11
100.98955689
 21
20.129599
 31
0.0
  0
LINE
  5
1BE
330
1F
100
AcDbEntity
  8
枠_表
  6
CONTINUOUS
 62
     3
100
AcDbLine
 10
106.53362427
 20
20.23039856
 30
0.0
 11
106.53362427
 21
19.76671448
 31
0.0
  0
LINE
  5
1BF
330
1F
100
AcDbEntity
  8
枠_表
  6
CONTINUOUS
 62
     3
100
AcDbLine
 10
106.53362427
 20
20.23039856
 30
0.0
 11
107.40931092
 21
20.23039856
 31
0.0
  0
LINE
  5
1C0
330
1F
100
AcDbEntity
  8
枠_表
  6
CONTINUOUS
 62
     3
100
AcDbLine
 10
107.40931092
 20
20.23039856
 30
0.0
 11
106.93682251
 21
20.83519592
 31
0.0
  0
LINE
  5
1C1
330
1F
100
AcDbEntity
  8
枠_表
  6
CONTINUOUS
 62
     3
100
AcDbLine
 10
106.93682251
 20
20.83519592
 30
0.0
 11
107.832193
 21
20.83519592
 31
0.0
  0
LINE
  5
1C2
330
1F
100
AcDbEntity
  8
枠_表
  6
CONTINUOUS
 62
     3
100
AcDbLine
 10
107.832193
 20
20.83519592
 30
0.0
 11
108.3046814
 21
20.23039856
 31
0.0
  0
LINE
  5
1C3
330
1F
100
AcDbEntity
  8
枠_表
  6
CONTINUOUS
 62
     3
100
AcDbLine
 10
108.3046814
 20
20.23039856
 30
0.0
 11
108.49930726
 21
20.23039856
 31
0.0
  0
LINE
  5
1C4
330
1F
100
AcDbEntity
  8
枠_表
  6
CONTINUOUS
 62
     3
100
AcDbLine
 10
108.49930726
 20
20.23039856
 30
0.0
 11
108.49930726
 21
20.83519592
 31
0.0
  0
LINE
  5
1C5
330
1F
100
AcDbEntity
  8
枠_表
  6
CONTINUOUS
 62
     3
100
AcDbLine
 10
108.49930726
 20
20.83519592
 30
0.0
 11
109.20476685
 21
20.83519592
 31
0.0
  0
LINE
  5
1C6
330
1F
100
AcDbEntity
  8
枠_表
  6
CONTINUOUS
 62
     3
100
AcDbLine
 10
109.20476685
 20
20.83519592
 30
0.0
 11
109.20476685
 21
20.23039856
 31
0.0
  0
LINE
  5
1C7
330
1F
100
AcDbEntity
  8
枠_表
  6
CONTINUOUS
 62
     3
100
AcDbLine
 10
109.20476685
 20
20.23039856
 30
0.0
 11
109.50725708
 21
20.23039856
 31
0.0
  0
LINE
  5
1C8
330
1F
100
AcDbEntity
  8
枠_表
  6
CONTINUOUS
 62
     3
100
AcDbLine
 10
109.50725708
 20
20.23039856
 30
0.0
 11
109.50725708
 21
20.83519592
 31
0.0
  0
LINE
  5
1C9
330
1F
100
AcDbEntity
  8
枠_表
  6
CONTINUOUS
 62
     3
100
AcDbLine
 10
109.50725708
 20
20.83519592
 30
0.0
 11
110.21273194
 21
20.83519592
 31
0.0
  0
LINE
  5
1CA
330
1F
100
AcDbEntity
  8
枠_表
  6
CONTINUOUS
 62
     3
100
AcDbLine
 10
110.21273194
 20
20.83519592
 30
0.0
 11
110.21273194
 21
20.23039856
 31
0.0
  0
LINE
  5
1CB
330
1F
100
AcDbEntity
  8
枠_表
  6
CONTINUOUS
 62
     3
100
AcDbLine
 10
110.21273194
 20
20.23039856
 30
0.0
 11
110.40735779
 21
20.23039856
 31
0.0
  0
LINE
  5
1CC
330
1F
100
AcDbEntity
  8
枠_表
  6
CONTINUOUS
 62
     3
100
AcDbLine
 10
110.40735779
 20
20.23039856
 30
0.0
 11
110.8798462
 21
20.83519592
 31
0.0
  0
LINE
  5
1CD
330
1F
100
AcDbEntity
  8
枠_表
  6
CONTINUOUS
 62
     3
100
AcDbLine
 10
110.8798462
 20
20.83519592
 30
0.0
 11
111.77521668
 21
20.83519592
 31
0.0
  0
LINE
  5
1CE
330
1F
100
AcDbEntity
  8
枠_表
  6
CONTINUOUS
 62
     3
100
AcDbLine
 10
111.77521668
 20
20.83519592
 30
0.0
 11
111.30272828
 21
20.23039856
 31
0.0
  0
LINE
  5
1CF
330
1F
100
AcDbEntity
  8
枠_表
  6
CONTINUOUS
 62
     3
100
AcDbLine
 10
111.30272828
 20
20.23039856
 30
0.0
 11
112.17839966
 21
20.23039856
 31
0.0
  0
LINE
  5
1D0
330
1F
100
AcDbEntity
  8
枠_表
  6
CONTINUOUS
 62
     3
100
AcDbLine
 10
112.17839966
 20
20.23039856
 30
0.0
 11
112.17839966
 21
19.76671448
 31
0.0
  0
LINE
  5
1D1
330
1F
100
AcDbEntity
  8
枠_表
  6
CONTINUOUS
 62
     3
100
AcDbLine
 10
112.17839966
 20
19.76671448
 30
0.0
 11
111.11609803
 21
19.76671448
 31
0.0
  0
LINE
  5
1D2
330
1F
100
AcDbEntity
  8
枠_表
  6
CONTINUOUS
 62
     3
100
AcDbLine
 10
111.11609803
 20
19.76671448
 30
0.0
 11
110.93276368
 21
19.26273194
 31
0.0
  0
LINE
  5
1D3
330
1F
100
AcDbEntity
  8
枠_表
  6
CONTINUOUS
 62
     3
100
AcDbLine
 10
110.93276368
 20
19.26273194
 30
0.0
 11
112.17839966
 21
19.26273194
 31
0.0
  0
LINE
  5
1D4
330
1F
100
AcDbEntity
  8
枠_表
  6
CONTINUOUS
 62
     3
100
AcDbLine
 10
112.17839966
 20
19.26273194
 30
0.0
 11
112.17839966
 21
18.79904785
 31
0.0
  0
LINE
  5
1D5
330
1F
100
AcDbEntity
  8
枠_表
  6
CONTINUOUS
 62
     3
100
AcDbLine
 10
112.17839966
 20
18.79904785
 30
0.0
 11
109.85999451
 21
18.79904785
 31
0.0
  0
LINE
  5
1D6
330
1F
100
AcDbEntity
  8
枠_表
  6
CONTINUOUS
 62
     3
100
AcDbLine
 10
109.85999451
 20
18.79904785
 30
0.0
 11
109.85999451
 21
18.56720581
 31
0.0
  0
LINE
  5
1D7
330
1F
100
AcDbEntity
  8
枠_表
  6
CONTINUOUS
 62
     3
100
AcDbLine
 10
109.85999451
 20
18.56720581
 30
0.0
 11
112.17839966
 21
18.56720581
 31
0.0
  0
LINE
  5
1D8
330
1F
100
AcDbEntity
  8
枠_表
  6
CONTINUOUS
 62
     3
100
AcDbLine
 10
112.17839966
 20
18.56720581
 30
0.0
 11
112.17839966
 21
18.10352173
 31
0.0
  0
LINE
  5
1D9
330
1F
100
AcDbEntity
  8
枠_表
  6
CONTINUOUS
 62
     3
100
AcDbLine
 10
112.17839966
 20
18.10352173
 30
0.0
 11
109.85999451
 21
18.10352173
 31
0.0
  0
LINE
  5
1DA
330
1F
100
AcDbEntity
  8
枠_表
  6
CONTINUOUS
 62
     3
100
AcDbLine
 10
109.85999451
 20
18.10352173
 30
0.0
 11
109.85999451
 21
17.87167969
 31
0.0
  0
LINE
  5
1DB
330
1F
100
AcDbEntity
  8
枠_表
  6
CONTINUOUS
 62
     3
100
AcDbLine
 10
109.85999451
 20
17.87167969
 30
0.0
 11
112.17839966
 21
17.87167969
 31
0.0
  0
LINE
  5
1DC
330
1F
100
AcDbEntity
  8
枠_表
  6
CONTINUOUS
 62
     3
100
AcDbLine
 10
112.17839966
 20
17.87167969
 30
0.0
 11
112.17839966
 21
17.40799561
 31
0.0
  0
LINE
  5
1DD
330
1F
100
AcDbEntity
  8
枠_表
  6
CONTINUOUS
 62
     3
100
AcDbLine
 10
112.17839966
 20
17.40799561
 30
0.0
 11
111.06278382
 21
17.40799561
 31
0.0
  0
LINE
  5
1DE
330
1F
100
AcDbEntity
  8
枠_表
  6
CONTINUOUS
 62
     3
100
AcDbLine
 10
111.06278382
 20
17.40799561
 30
0.0
 11
112.17839966
 21
16.4
 31
0.0
  0
LINE
  5
1DF
330
1F
100
AcDbEntity
  8
枠_表
  6
CONTINUOUS
 62
     3
100
AcDbLine
 10
112.17839966
 20
16.4
 30
0.0
 11
110.97562562
 21
16.4
 31
0.0
  0
LINE
  5
1E0
330
1F
100
AcDbEntity
  8
枠_表
  6
CONTINUOUS
 62
     3
100
AcDbLine
 10
110.97562562
 20
16.4
 30
0.0
 11
109.85999451
 21
17.40799561
 31
0.0
  0
LINE
  5
1E1
330
1F
100
AcDbEntity
  8
枠_表
  6
CONTINUOUS
 62
     3
100
AcDbLine
 10
109.85999451
 20
17.40799561
 30
0.0
 11
109.85999451
 21
16.4
 31
0.0
  0
LINE
  5
1E2
330
1F
100
AcDbEntity
  8
枠_表
  6
CONTINUOUS
 62
     3
100
AcDbLine
 10
109.85999451
 20
16.4
 30
0.0
 11
108.85204468
 21
16.4
 31
0.0
  0
LINE
  5
1E3
330
1F
100
AcDbEntity
  8
枠_表
  6
CONTINUOUS
 62
     3
100
AcDbLine
 10
108.85204468
 20
16.4
 30
0.0
 11
108.85204468
 21
17.40799561
 31
0.0
  0
LINE
  5
1E4
330
1F
100
AcDbEntity
  8
枠_表
  6
CONTINUOUS
 62
     3
100
AcDbLine
 10
108.85204468
 20
17.40799561
 30
0.0
 11
107.73641358
 21
16.4
 31
0.0
  0
LINE
  5
1E5
330
1F
100
AcDbEntity
  8
枠_表
  6
CONTINUOUS
 62
     3
100
AcDbLine
 10
107.73641358
 20
16.4
 30
0.0
 11
106.53362427
 21
16.4
 31
0.0
  0
LINE
  5
1E6
330
1F
100
AcDbEntity
  8
枠_表
  6
CONTINUOUS
 62
     3
100
AcDbLine
 10
106.53362427
 20
16.4
 30
0.0
 11
107.64925538
 21
17.40799561
 31
0.0
  0
LINE
  5
1E7
330
1F
100
AcDbEntity
  8
枠_表
  6
CONTINUOUS
 62
     3
100
AcDbLine
 10
107.64925538
 20
17.40799561
 30
0.0
 11
106.53362427
 21
17.40799561
 31
0.0
  0
LINE
  5
1E8
330
1F
100
AcDbEntity
  8
枠_表
  6
CONTINUOUS
 62
     3
100
AcDbLine
 10
106.53362427
 20
17.40799561
 30
0.0
 11
106.53362427
 21
17.87167969
 31
0.0
  0
LINE
  5
1E9
330
1F
100
AcDbEntity
  8
枠_表
  6
CONTINUOUS
 62
     3
100
AcDbLine
 10
106.53362427
 20
17.87167969
 30
0.0
 11
108.85204468
 21
17.87167969
 31
0.0
  0
LINE
  5
1EA
330
1F
100
AcDbEntity
  8
枠_表
  6
CONTINUOUS
 62
     3
100
AcDbLine
 10
108.85204468
 20
17.87167969
 30
0.0
 11
108.85204468
 21
18.10352173
 31
0.0
  0
LINE
  5
1EB
330
1F
100
AcDbEntity
  8
枠_表
  6
CONTINUOUS
 62
     3
100
AcDbLine
 10
108.85204468
 20
18.10352173
 30
0.0
 11
106.53362427
 21
18.10352173
 31
0.0
  0
LINE
  5
1EC
330
1F
100
AcDbEntity
  8
枠_表
  6
CONTINUOUS
 62
     3
100
AcDbLine
 10
106.53362427
 20
18.10352173
 30
0.0
 11
106.53362427
 21
18.56720581
 31
0.0
  0
LINE
  5
1ED
330
1F
100
AcDbEntity
  8
枠_表
  6
CONTINUOUS
 62
     3
100
AcDbLine
 10
106.53362427
 20
18.56720581
 30
0.0
 11
108.85204468
 21
18.56720581
 31
0.0
  0
LINE
  5
1EE
330
1F
100
AcDbEntity
  8
枠_表
  6
CONTINUOUS
 62
     3
100
AcDbLine
 10
108.85204468
 20
18.56720581
 30
0.0
 11
108.85204468
 21
18.79904785
 31
0.0
  0
LINE
  5
1EF
330
1F
100
AcDbEntity
  8
枠_表
  6
CONTINUOUS
 62
     3
100
AcDbLine
 10
108.85204468
 20
18.79904785
 30
0.0
 11
106.53362427
 21
18.79904785
 31
0.0
  0
LINE
  5
1F0
330
1F
100
AcDbEntity
  8
枠_表
  6
CONTINUOUS
 62
     3
100
AcDbLine
 10
106.53362427
 20
18.79904785
 30
0.0
 11
106.53362427
 21
19.26273194
 31
0.0
  0
LINE
  5
1F1
330
1F
100
AcDbEntity
  8
枠_表
  6
CONTINUOUS
 62
     3
100
AcDbLine
 10
106.53362427
 20
19.26273194
 30
0.0
 11
107.77927552
 21
19.26273194
 31
0.0
  0
LINE
  5
1F2
330
1F
100
AcDbEntity
  8
枠_表
  6
CONTINUOUS
 62
     3
100
AcDbLine
 10
107.77927552
 20
19.26273194
 30
0.0
 11
107.59594117
 21
19.76671448
 31
0.0
  0
LINE
  5
1F3
330
1F
100
AcDbEntity
  8
枠_表
  6
CONTINUOUS
 62
     3
100
AcDbLine
 10
107.59594117
 20
19.76671448
 30
0.0
 11
106.53362427
 21
19.76671448
 31
0.0
  0
LINE
  5
1F4
330
1F
100
AcDbEntity
  8
枠_表
  6
CONTINUOUS
 62
     3
100
AcDbLine
 10
108.66849671
 20
19.76671448
 30
0.0
 11
110.04354249
 21
19.76671448
 31
0.0
  0
LINE
  5
1F5
330
1F
100
AcDbEntity
  8
枠_表
  6
CONTINUOUS
 62
     3
100
AcDbLine
 10
110.04354249
 20
19.76671448
 30
0.0
 11
109.85999451
 21
19.26273194
 31
0.0
  0
LINE
  5
1F6
330
1F
100
AcDbEntity
  8
枠_表
  6
CONTINUOUS
 62
     3
100
AcDbLine
 10
109.85999451
 20
19.26273194
 30
0.0
 11
108.85204468
 21
19.26273194
 31
0.0
  0
LINE
  5
1F7
330
1F
100
AcDbEntity
  8
枠_表
  6
CONTINUOUS
 62
     3
100
AcDbLine
 10
108.85204468
 20
19.26273194
 30
0.0
 11
108.66849671
 21
19.76671448
 31
0.0
  0
LINE
  5
1F8
330
1F
100
AcDbEntity
  8
枠_表
  6
CONTINUOUS
 62
     3
100
AcDbLine
 10
114.92563782
 20
20.83519592
 30
0.0
 11
114.59894715
 21
19.52480164
 31
0.0
  0
LINE
  5
1F9
330
1F
100
AcDbEntity
  8
枠_表
  6
CONTINUOUS
 62
     3
100
AcDbLine
 10
114.92563782
 20
20.83519592
 30
0.0
 11
115.75681458
 21
20.83519592
 31
0.0
  0
LINE
  5
1FA
330
1F
100
AcDbEntity
  8
枠_表
  6
CONTINUOUS
 62
     3
100
AcDbLine
 10
115.75681458
 20
20.83519592
 30
0.0
 11
115.63109742
 21
20.33119812
 31
0.0
  0
LINE
  5
1FB
330
1F
100
AcDbEntity
  8
枠_表
  6
CONTINUOUS
 62
     3
100
AcDbLine
 10
115.63109742
 20
20.33119812
 30
0.0
 11
115.9584137
 21
20.33119812
 31
0.0
  0
LINE
  5
1FC
330
1F
100
AcDbEntity
  8
枠_表
  6
CONTINUOUS
 62
     3
100
AcDbLine
 10
115.9584137
 20
20.33119812
 30
0.0
 11
115.9584137
 21
20.83519592
 31
0.0
  0
LINE
  5
1FD
330
1F
100
AcDbEntity
  8
枠_表
  6
CONTINUOUS
 62
     3
100
AcDbLine
 10
115.9584137
 20
20.83519592
 30
0.0
 11
116.86567078
 21
20.83519592
 31
0.0
  0
LINE
  5
1FE
330
1F
100
AcDbEntity
  8
枠_表
  6
CONTINUOUS
 62
     3
100
AcDbLine
 10
116.86567078
 20
20.83519592
 30
0.0
 11
116.86567078
 21
20.33119812
 31
0.0
  0
LINE
  5
1FF
330
1F
100
AcDbEntity
  8
枠_表
  6
CONTINUOUS
 62
     3
100
AcDbLine
 10
116.86567078
 20
20.33119812
 30
0.0
 11
118.02477417
 21
20.33119812
 31
0.0
  0
LINE
  5
200
330
1F
100
AcDbEntity
  8
枠_表
  6
CONTINUOUS
 62
     3
100
AcDbLine
 10
118.02477417
 20
20.33119812
 30
0.0
 11
118.02477417
 21
19.82720032
 31
0.0
  0
LINE
  5
201
330
1F
100
AcDbEntity
  8
枠_表
  6
CONTINUOUS
 62
     3
100
AcDbLine
 10
116.86567078
 20
19.82720032
 30
0.0
 11
118.02477417
 21
19.82720032
 31
0.0
  0
LINE
  5
202
330
1F
100
AcDbEntity
  8
枠_表
  6
CONTINUOUS
 62
     3
100
AcDbLine
 10
116.86567078
 20
19.82720032
 30
0.0
 11
116.86567078
 21
19.32320252
 31
0.0
  0
LINE
  5
203
330
1F
100
AcDbEntity
  8
枠_表
  6
CONTINUOUS
 62
     3
100
AcDbLine
 10
116.86567078
 20
19.32320252
 30
0.0
 11
118.12566529
 21
19.32320252
 31
0.0
  0
LINE
  5
204
330
1F
100
AcDbEntity
  8
枠_表
  6
CONTINUOUS
 62
     3
100
AcDbLine
 10
118.12566529
 20
19.32320252
 30
0.0
 11
118.12566529
 21
18.81920471
 31
0.0
  0
LINE
  5
205
330
1F
100
AcDbEntity
  8
枠_表
  6
CONTINUOUS
 62
     3
100
AcDbLine
 10
118.12566529
 20
18.81920471
 30
0.0
 11
117.68515931
 21
18.81920471
 31
0.0
  0
LINE
  5
206
330
1F
100
AcDbEntity
  8
枠_表
  6
CONTINUOUS
 62
     3
100
AcDbLine
 10
117.68515931
 20
18.81920471
 30
0.0
 11
118.12566529
 21
16.4
 31
0.0
  0
LINE
  5
207
330
1F
100
AcDbEntity
  8
枠_表
  6
CONTINUOUS
 62
     3
100
AcDbLine
 10
118.12566529
 20
16.4
 30
0.0
 11
117.3059784
 21
16.4
 31
0.0
  0
LINE
  5
208
330
1F
100
AcDbEntity
  8
枠_表
  6
CONTINUOUS
 62
     3
100
AcDbLine
 10
117.3059784
 20
16.4
 30
0.0
 11
116.86567078
 21
18.8191742
 31
0.0
  0
LINE
  5
209
330
1F
100
AcDbEntity
  8
枠_表
  6
CONTINUOUS
 62
     3
100
AcDbLine
 10
116.86567078
 20
18.8191742
 30
0.0
 11
116.86567078
 21
16.4
 31
0.0
  0
LINE
  5
20A
330
1F
100
AcDbEntity
  8
枠_表
  6
CONTINUOUS
 62
     3
100
AcDbLine
 10
116.86567078
 20
16.4
 30
0.0
 11
115.9584137
 21
16.4
 31
0.0
  0
LINE
  5
20B
330
1F
100
AcDbEntity
  8
枠_表
  6
CONTINUOUS
 62
     3
100
AcDbLine
 10
115.9584137
 20
16.4
 30
0.0
 11
115.9584137
 21
18.81920471
 31
0.0
  0
LINE
  5
20C
330
1F
100
AcDbEntity
  8
枠_表
  6
CONTINUOUS
 62
     3
100
AcDbLine
 10
115.9584137
 20
18.81920471
 30
0.0
 11
115.51810608
 21
16.4
 31
0.0
  0
LINE
  5
20D
330
1F
100
AcDbEntity
  8
枠_表
  6
CONTINUOUS
 62
     3
100
AcDbLine
 10
115.51810608
 20
16.4
 30
0.0
 11
114.69840394
 21
16.4
 31
0.0
  0
LINE
  5
20E
330
1F
100
AcDbEntity
  8
枠_表
  6
CONTINUOUS
 62
     3
100
AcDbLine
 10
114.69840394
 20
16.4
 30
0.0
 11
115.13871155
 21
18.81920471
 31
0.0
  0
LINE
  5
20F
330
1F
100
AcDbEntity
  8
枠_表
  6
CONTINUOUS
 62
     3
100
AcDbLine
 10
115.13871155
 20
18.81920471
 30
0.0
 11
114.69840394
 21
18.81920471
 31
0.0
  0
LINE
  5
210
330
1F
100
AcDbEntity
  8
枠_表
  6
CONTINUOUS
 62
     3
100
AcDbLine
 10
114.69840394
 20
18.81920471
 30
0.0
 11
114.69840394
 21
19.32320252
 31
0.0
  0
LINE
  5
211
330
1F
100
AcDbEntity
  8
枠_表
  6
CONTINUOUS
 62
     3
100
AcDbLine
 10
114.69840394
 20
19.32320252
 30
0.0
 11
115.9584137
 21
19.32320252
 31
0.0
  0
LINE
  5
212
330
1F
100
AcDbEntity
  8
枠_表
  6
CONTINUOUS
 62
     3
100
AcDbLine
 10
115.9584137
 20
19.32320252
 30
0.0
 11
115.9584137
 21
19.82720032
 31
0.0
  0
LINE
  5
213
330
1F
100
AcDbEntity
  8
枠_表
  6
CONTINUOUS
 62
     3
100
AcDbLine
 10
115.9584137
 20
19.82720032
 30
0.0
 11
115.50539551
 21
19.82720032
 31
0.0
  0
LINE
  5
214
330
1F
100
AcDbEntity
  8
枠_表
  6
CONTINUOUS
 62
     3
100
AcDbLine
 10
115.50539551
 20
19.82720032
 30
0.0
 11
115.43012391
 21
19.52480164
 31
0.0
  0
LINE
  5
215
330
1F
100
AcDbEntity
  8
枠_表
  6
CONTINUOUS
 62
     3
100
AcDbLine
 10
115.43012391
 20
19.52480164
 30
0.0
 11
114.59894715
 21
19.52480164
 31
0.0
  0
LINE
  5
216
330
1F
100
AcDbEntity
  8
枠_表
  6
CONTINUOUS
 62
     3
100
AcDbLine
 10
112.37999878
 20
20.33119812
 30
0.0
 11
112.37999878
 21
19.82720032
 31
0.0
  0
LINE
  5
217
330
1F
100
AcDbEntity
  8
枠_表
  6
CONTINUOUS
 62
     3
100
AcDbLine
 10
112.37999878
 20
20.33119812
 30
0.0
 11
113.38796387
 21
20.33119812
 31
0.0
  0
LINE
  5
218
330
1F
100
AcDbEntity
  8
枠_表
  6
CONTINUOUS
 62
     3
100
AcDbLine
 10
113.38796387
 20
20.33119812
 30
0.0
 11
113.38796387
 21
20.83519592
 31
0.0
  0
LINE
  5
219
330
1F
100
AcDbEntity
  8
枠_表
  6
CONTINUOUS
 62
     3
100
AcDbLine
 10
113.38796387
 20
20.83519592
 30
0.0
 11
114.29522095
 21
20.83519592
 31
0.0
  0
LINE
  5
21A
330
1F
100
AcDbEntity
  8
枠_表
  6
CONTINUOUS
 62
     3
100
AcDbLine
 10
114.29522095
 20
20.83519592
 30
0.0
 11
114.29522095
 21
20.33119812
 31
0.0
  0
LINE
  5
21B
330
1F
100
AcDbEntity
  8
枠_表
  6
CONTINUOUS
 62
     3
100
AcDbLine
 10
114.29522095
 20
20.33119812
 30
0.0
 11
114.59751282
 21
20.33119812
 31
0.0
  0
LINE
  5
21C
330
1F
100
AcDbEntity
  8
枠_表
  6
CONTINUOUS
 62
     3
100
AcDbLine
 10
114.59751282
 20
20.33119812
 30
0.0
 11
114.59751282
 21
19.82720032
 31
0.0
  0
LINE
  5
21D
330
1F
100
AcDbEntity
  8
枠_表
  6
CONTINUOUS
 62
     3
100
AcDbLine
 10
114.59751282
 20
19.82720032
 30
0.0
 11
114.29522095
 21
19.82720032
 31
0.0
  0
LINE
  5
21E
330
1F
100
AcDbEntity
  8
枠_表
  6
CONTINUOUS
 62
     3
100
AcDbLine
 10
114.29522095
 20
19.82720032
 30
0.0
 11
114.59751282
 21
19.41100159
 31
0.0
  0
LINE
  5
21F
330
1F
100
AcDbEntity
  8
枠_表
  6
CONTINUOUS
 62
     3
100
AcDbLine
 10
114.59751282
 20
19.41100159
 30
0.0
 11
114.59751282
 21
18.38207092
 31
0.0
  0
LINE
  5
220
330
1F
100
AcDbEntity
  8
枠_表
  6
CONTINUOUS
 62
     3
100
AcDbLine
 10
114.59751282
 20
18.38207092
 30
0.0
 11
114.29522095
 21
18.79828491
 31
0.0
  0
LINE
  5
221
330
1F
100
AcDbEntity
  8
枠_表
  6
CONTINUOUS
 62
     3
100
AcDbLine
 10
114.29522095
 20
18.79828491
 30
0.0
 11
114.29522095
 21
16.4
 31
0.0
  0
LINE
  5
222
330
1F
100
AcDbEntity
  8
枠_表
  6
CONTINUOUS
 62
     3
100
AcDbLine
 10
114.29522095
 20
16.4
 30
0.0
 11
113.38796387
 21
16.4
 31
0.0
  0
LINE
  5
223
330
1F
100
AcDbEntity
  8
枠_表
  6
CONTINUOUS
 62
     3
100
AcDbLine
 10
113.38796387
 20
16.4
 30
0.0
 11
113.38796387
 21
19.82720032
 31
0.0
  0
LINE
  5
224
330
1F
100
AcDbEntity
  8
枠_表
  6
CONTINUOUS
 62
     3
100
AcDbLine
 10
113.34838257
 20
19.82720032
 30
0.0
 11
112.98806153
 21
16.4
 31
0.0
  0
LINE
  5
225
330
1F
100
AcDbEntity
  8
枠_表
  6
CONTINUOUS
 62
     3
100
AcDbLine
 10
112.98806153
 20
16.4
 30
0.0
 11
112.37999878
 21
16.4
 31
0.0
  0
LINE
  5
226
330
1F
100
AcDbEntity
  8
枠_表
  6
CONTINUOUS
 62
     3
100
AcDbLine
 10
112.37999878
 20
16.4
 30
0.0
 11
112.74031983
 21
19.82720032
 31
0.0
  0
LINE
  5
227
330
1F
100
AcDbEntity
  8
枠_表
  6
CONTINUOUS
 62
     3
100
AcDbLine
 10
112.74031983
 20
19.82720032
 30
0.0
 11
112.37999878
 21
19.82720032
 31
0.0
  0
LINE
  5
228
330
1F
100
AcDbEntity
  8
枠_表
  6
CONTINUOUS
 62
     3
100
AcDbLine
 10
118.62955628
 20
19.22240296
 30
0.0
 11
118.62955628
 21
18.61760559
 31
0.0
  0
LINE
  5
229
330
1F
100
AcDbEntity
  8
枠_表
  6
CONTINUOUS
 62
     3
100
AcDbLine
 10
118.62955628
 20
19.22240296
 30
0.0
 11
121.65363465
 21
19.22240296
 31
0.0
  0
LINE
  5
22A
330
1F
100
AcDbEntity
  8
枠_表
  6
CONTINUOUS
 62
     3
100
AcDbLine
 10
121.65363465
 20
19.22240296
 30
0.0
 11
121.65363465
 21
18.61760559
 31
0.0
  0
LINE
  5
22B
330
1F
100
AcDbEntity
  8
枠_表
  6
CONTINUOUS
 62
     3
100
AcDbLine
 10
121.65363465
 20
18.61760559
 30
0.0
 11
120.69591675
 21
18.61760559
 31
0.0
  0
LINE
  5
22C
330
1F
100
AcDbEntity
  8
枠_表
  6
CONTINUOUS
 62
     3
100
AcDbLine
 10
120.69591675
 20
18.61760559
 30
0.0
 11
120.69591675
 21
17.77741089
 31
0.0
  0
LINE
  5
22D
330
1F
100
AcDbEntity
  8
枠_表
  6
CONTINUOUS
 62
     3
100
AcDbLine
 10
120.69591675
 20
17.77741089
 30
0.0
 11
121.7040802
 21
17.99165955
 31
0.0
  0
LINE
  5
22E
330
1F
100
AcDbEntity
  8
枠_表
  6
CONTINUOUS
 62
     3
100
AcDbLine
 10
121.7040802
 20
17.99165955
 30
0.0
 11
121.7040802
 21
17.06419983
 31
0.0
  0
LINE
  5
22F
330
1F
100
AcDbEntity
  8
枠_表
  6
CONTINUOUS
 62
     3
100
AcDbLine
 10
121.7040802
 20
17.06419983
 30
0.0
 11
118.57909546
 21
16.4
 31
0.0
  0
LINE
  5
230
330
1F
100
AcDbEntity
  8
枠_表
  6
CONTINUOUS
 62
     3
100
AcDbLine
 10
118.57909546
 20
16.4
 30
0.0
 11
118.57909546
 21
17.32745972
 31
0.0
  0
LINE
  5
231
330
1F
100
AcDbEntity
  8
枠_表
  6
CONTINUOUS
 62
     3
100
AcDbLine
 10
118.57909546
 20
17.32745972
 30
0.0
 11
119.58725892
 21
17.54172363
 31
0.0
  0
LINE
  5
232
330
1F
100
AcDbEntity
  8
枠_表
  6
CONTINUOUS
 62
     3
100
AcDbLine
 10
119.58725892
 20
17.54172363
 30
0.0
 11
119.58725892
 21
18.61760559
 31
0.0
  0
LINE
  5
233
330
1F
100
AcDbEntity
  8
枠_表
  6
CONTINUOUS
 62
     3
100
AcDbLine
 10
119.58725892
 20
18.61760559
 30
0.0
 11
118.62955628
 21
18.61760559
 31
0.0
  0
LINE
  5
234
330
1F
100
AcDbEntity
  8
枠_表
  6
CONTINUOUS
 62
     3
100
AcDbLine
 10
118.32726441
 20
20.43199768
 30
0.0
 11
118.32726441
 21
19.82720032
 31
0.0
  0
LINE
  5
235
330
1F
100
AcDbEntity
  8
枠_表
  6
CONTINUOUS
 62
     3
100
AcDbLine
 10
118.32726441
 20
20.43199768
 30
0.0
 11
121.32448731
 21
20.43199768
 31
0.0
  0
LINE
  5
236
330
1F
100
AcDbEntity
  8
枠_表
  6
CONTINUOUS
 62
     3
100
AcDbLine
 10
121.32448731
 20
20.43199768
 30
0.0
 11
121.17785035
 21
20.83519592
 31
0.0
  0
LINE
  5
237
330
1F
100
AcDbEntity
  8
枠_表
  6
CONTINUOUS
 62
     3
100
AcDbLine
 10
121.17785035
 20
20.83519592
 30
0.0
 11
122.35765992
 21
20.83519592
 31
0.0
  0
LINE
  5
238
330
1F
100
AcDbEntity
  8
枠_表
  6
CONTINUOUS
 62
     3
100
AcDbLine
 10
122.35765992
 20
20.83519592
 30
0.0
 11
122.50449524
 21
20.43199768
 31
0.0
  0
LINE
  5
239
330
1F
100
AcDbEntity
  8
枠_表
  6
CONTINUOUS
 62
     3
100
AcDbLine
 10
122.50449524
 20
20.43199768
 30
0.0
 11
122.76249085
 21
20.43199768
 31
0.0
  0
LINE
  5
23A
330
1F
100
AcDbEntity
  8
枠_表
  6
CONTINUOUS
 62
     3
100
AcDbLine
 10
122.76249085
 20
20.43199768
 30
0.0
 11
122.76249085
 21
20.83519592
 31
0.0
  0
LINE
  5
23B
330
1F
100
AcDbEntity
  8
枠_表
  6
CONTINUOUS
 62
     3
100
AcDbLine
 10
122.76249085
 20
20.83519592
 30
0.0
 11
123.66954957
 21
20.83519592
 31
0.0
  0
LINE
  5
23C
330
1F
100
AcDbEntity
  8
枠_表
  6
CONTINUOUS
 62
     3
100
AcDbLine
 10
123.66954957
 20
20.83519592
 30
0.0
 11
123.66954957
 21
20.43199768
 31
0.0
  0
LINE
  5
23D
330
1F
100
AcDbEntity
  8
枠_表
  6
CONTINUOUS
 62
     3
100
AcDbLine
 10
123.66954957
 20
20.43199768
 30
0.0
 11
123.9720398
 21
20.43199768
 31
0.0
  0
LINE
  5
23E
330
1F
100
AcDbEntity
  8
枠_表
  6
CONTINUOUS
 62
     3
100
AcDbLine
 10
123.9720398
 20
20.43199768
 30
0.0
 11
123.9720398
 21
19.82720032
 31
0.0
  0
LINE
  5
23F
330
1F
100
AcDbEntity
  8
枠_表
  6
CONTINUOUS
 62
     3
100
AcDbLine
 10
123.9720398
 20
19.82720032
 30
0.0
 11
122.72454224
 21
19.82720032
 31
0.0
  0
LINE
  5
240
330
1F
100
AcDbEntity
  8
枠_表
  6
CONTINUOUS
 62
     3
100
AcDbLine
 10
122.72454224
 20
19.82720032
 30
0.0
 11
123.9720398
 21
16.4
 31
0.0
  0
LINE
  5
241
330
1F
100
AcDbEntity
  8
枠_表
  6
CONTINUOUS
 62
     3
100
AcDbLine
 10
123.9720398
 20
16.4
 30
0.0
 11
122.79201661
 21
16.4
 31
0.0
  0
LINE
  5
242
330
1F
100
AcDbEntity
  8
枠_表
  6
CONTINUOUS
 62
     3
100
AcDbLine
 10
122.79201661
 20
16.4
 30
0.0
 11
121.54473267
 21
19.82720032
 31
0.0
  0
LINE
  5
243
330
1F
100
AcDbEntity
  8
枠_表
  6
CONTINUOUS
 62
     3
100
AcDbLine
 10
121.54473267
 20
19.82720032
 30
0.0
 11
118.32726441
 21
19.82720032
 31
0.0
  0
LINE
  5
244
330
1F
100
AcDbEntity
  8
枠_表
  6
CONTINUOUS
 62
     3
100
AcDbLine
 10
124.17363892
 20
19.97478333
 30
0.0
 11
124.17363892
 21
19.33699646
 31
0.0
  0
LINE
  5
245
330
1F
100
AcDbEntity
  8
枠_表
  6
CONTINUOUS
 62
     3
100
AcDbLine
 10
124.17363892
 20
19.97478333
 30
0.0
 11
127.04636536
 21
20.93599548
 31
0.0
  0
LINE
  5
246
330
1F
100
AcDbEntity
  8
枠_表
  6
CONTINUOUS
 62
     3
100
AcDbLine
 10
127.04636536
 20
20.93599548
 30
0.0
 11
129.91910706
 21
19.97475281
 31
0.0
  0
LINE
  5
247
330
1F
100
AcDbEntity
  8
枠_表
  6
CONTINUOUS
 62
     3
100
AcDbLine
 10
129.91910706
 20
19.97475281
 30
0.0
 11
129.91910706
 21
19.33699646
 31
0.0
  0
LINE
  5
248
330
1F
100
AcDbEntity
  8
枠_表
  6
CONTINUOUS
 62
     3
100
AcDbLine
 10
129.91910706
 20
19.33699646
 30
0.0
 11
129.0624939
 21
19.62367859
 31
0.0
  0
LINE
  5
249
330
1F
100
AcDbEntity
  8
枠_表
  6
CONTINUOUS
 62
     3
100
AcDbLine
 10
129.0624939
 20
19.62367859
 30
0.0
 11
129.0624939
 21
19.1216034
 31
0.0
  0
LINE
  5
24A
330
1F
100
AcDbEntity
  8
枠_表
  6
CONTINUOUS
 62
     3
100
AcDbLine
 10
129.0624939
 20
19.1216034
 30
0.0
 11
125.03045044
 21
19.1216034
 31
0.0
  0
LINE
  5
24B
330
1F
100
AcDbEntity
  8
枠_表
  6
CONTINUOUS
 62
     3
100
AcDbLine
 10
125.03045044
 20
19.1216034
 30
0.0
 11
125.03045044
 21
19.62367859
 31
0.0
  0
LINE
  5
24C
330
1F
100
AcDbEntity
  8
枠_表
  6
CONTINUOUS
 62
     3
100
AcDbLine
 10
125.03045044
 20
19.62367859
 30
0.0
 11
124.17363892
 21
19.33699646
 31
0.0
  0
LINE
  5
24D
330
1F
100
AcDbEntity
  8
枠_表
  6
CONTINUOUS
 62
     3
100
AcDbLine
 10
125.33745728
 20
19.72640076
 30
0.0
 11
127.04636536
 21
20.29822388
 31
0.0
  0
LINE
  5
24E
330
1F
100
AcDbEntity
  8
枠_表
  6
CONTINUOUS
 62
     3
100
AcDbLine
 10
127.04636536
 20
20.29822388
 30
0.0
 11
128.75548707
 21
19.72640076
 31
0.0
  0
LINE
  5
24F
330
1F
100
AcDbEntity
  8
枠_表
  6
CONTINUOUS
 62
     3
100
AcDbLine
 10
128.75548707
 20
19.72640076
 30
0.0
 11
125.33745728
 21
19.72640076
 31
0.0
  0
LINE
  5
250
330
1F
100
AcDbEntity
  8
枠_表
  6
CONTINUOUS
 62
     3
100
AcDbLine
 10
124.17363892
 20
18.71838989
 30
0.0
 11
124.17363892
 21
18.11359253
 31
0.0
  0
LINE
  5
251
330
1F
100
AcDbEntity
  8
枠_表
  6
CONTINUOUS
 62
     3
100
AcDbLine
 10
124.17363892
 20
18.71838989
 30
0.0
 11
129.91910706
 21
18.71838989
 31
0.0
  0
LINE
  5
252
330
1F
100
AcDbEntity
  8
枠_表
  6
CONTINUOUS
 62
     3
100
AcDbLine
 10
129.91910706
 20
18.71838989
 30
0.0
 11
129.91910706
 21
18.11359253
 31
0.0
  0
LINE
  5
253
330
1F
100
AcDbEntity
  8
枠_表
  6
CONTINUOUS
 62
     3
100
AcDbLine
 10
129.91910706
 20
18.11359253
 30
0.0
 11
129.12011109
 21
18.11359253
 31
0.0
  0
LINE
  5
254
330
1F
100
AcDbEntity
  8
枠_表
  6
CONTINUOUS
 62
     3
100
AcDbLine
 10
129.12011109
 20
18.11359253
 30
0.0
 11
129.91910706
 21
16.4
 31
0.0
  0
LINE
  5
255
330
1F
100
AcDbEntity
  8
枠_表
  6
CONTINUOUS
 62
     3
100
AcDbLine
 10
129.91910706
 20
16.4
 30
0.0
 11
124.17363892
 21
16.4
 31
0.0
  0
LINE
  5
256
330
1F
100
AcDbEntity
  8
枠_表
  6
CONTINUOUS
 62
     3
100
AcDbLine
 10
124.17363892
 20
16.4
 30
0.0
 11
124.97261963
 21
18.11359253
 31
0.0
  0
LINE
  5
257
330
1F
100
AcDbEntity
  8
枠_表
  6
CONTINUOUS
 62
     3
100
AcDbLine
 10
124.97261963
 20
18.11359253
 30
0.0
 11
124.17363892
 21
18.11359253
 31
0.0
  0
LINE
  5
258
330
1F
100
AcDbEntity
  8
枠_表
  6
CONTINUOUS
 62
     3
100
AcDbLine
 10
126.08475647
 20
18.11359253
 30
0.0
 11
128.00797425
 21
18.11359253
 31
0.0
  0
LINE
  5
259
330
1F
100
AcDbEntity
  8
枠_表
  6
CONTINUOUS
 62
     3
100
AcDbLine
 10
128.00797425
 20
18.11359253
 30
0.0
 11
128.52497254
 21
17.00479736
 31
0.0
  0
LINE
  5
25A
330
1F
100
AcDbEntity
  8
枠_表
  6
CONTINUOUS
 62
     3
100
AcDbLine
 10
128.52497254
 20
17.00479736
 30
0.0
 11
125.56775818
 21
17.00479736
 31
0.0
  0
LINE
  5
25B
330
1F
100
AcDbEntity
  8
枠_表
  6
CONTINUOUS
 62
     3
100
AcDbLine
 10
126.08475647
 20
18.11359253
 30
0.0
 11
125.56775818
 21
17.00479736
 31
0.0
  0
LINE
  5
25C
330
1F
100
AcDbEntity
  8
枠_表
  6
CONTINUOUS
 62
     3
100
AcDbLine
 10
132.84249268
 20
19.72640076
 30
0.0
 11
132.84249268
 21
19.1216034
 31
0.0
  0
LINE
  5
25D
330
1F
100
AcDbEntity
  8
枠_表
  6
CONTINUOUS
 62
     3
100
AcDbLine
 10
132.84249268
 20
19.72640076
 30
0.0
 11
133.7495514
 21
19.72640076
 31
0.0
  0
LINE
  5
25E
330
1F
100
AcDbEntity
  8
枠_表
  6
CONTINUOUS
 62
     3
100
AcDbLine
 10
133.7495514
 20
19.72640076
 30
0.0
 11
133.7495514
 21
20.83519592
 31
0.0
  0
LINE
  5
25F
330
1F
100
AcDbEntity
  8
枠_表
  6
CONTINUOUS
 62
     3
100
AcDbLine
 10
133.7495514
 20
20.83519592
 30
0.0
 11
134.75750123
 21
20.83519592
 31
0.0
  0
LINE
  5
260
330
1F
100
AcDbEntity
  8
枠_表
  6
CONTINUOUS
 62
     3
100
AcDbLine
 10
134.75750123
 20
20.83519592
 30
0.0
 11
134.75750123
 21
19.72640076
 31
0.0
  0
LINE
  5
261
330
1F
100
AcDbEntity
  8
枠_表
  6
CONTINUOUS
 62
     3
100
AcDbLine
 10
134.75750123
 20
19.72640076
 30
0.0
 11
135.66477356
 21
19.72640076
 31
0.0
  0
LINE
  5
262
330
1F
100
AcDbEntity
  8
枠_表
  6
CONTINUOUS
 62
     3
100
AcDbLine
 10
135.66477356
 20
19.72640076
 30
0.0
 11
135.66477356
 21
19.1216034
 31
0.0
  0
LINE
  5
263
330
1F
100
AcDbEntity
  8
枠_表
  6
CONTINUOUS
 62
     3
100
AcDbLine
 10
135.66477356
 20
19.1216034
 30
0.0
 11
134.75750123
 21
19.1216034
 31
0.0
  0
LINE
  5
264
330
1F
100
AcDbEntity
  8
枠_表
  6
CONTINUOUS
 62
     3
100
AcDbLine
 10
134.75750123
 20
19.1216034
 30
0.0
 11
134.75750123
 21
17.00479736
 31
0.0
  0
LINE
  5
265
330
1F
100
AcDbEntity
  8
枠_表
  6
CONTINUOUS
 62
     3
100
AcDbLine
 10
134.75750123
 20
17.00479736
 30
0.0
 11
135.76566468
 21
17.00479736
 31
0.0
  0
LINE
  5
266
330
1F
100
AcDbEntity
  8
枠_表
  6
CONTINUOUS
 62
     3
100
AcDbLine
 10
135.76566468
 20
17.00479736
 30
0.0
 11
135.76566468
 21
16.4
 31
0.0
  0
LINE
  5
267
330
1F
100
AcDbEntity
  8
枠_表
  6
CONTINUOUS
 62
     3
100
AcDbLine
 10
135.76566468
 20
16.4
 30
0.0
 11
132.43909607
 21
16.4
 31
0.0
  0
LINE
  5
268
330
1F
100
AcDbEntity
  8
枠_表
  6
CONTINUOUS
 62
     3
100
AcDbLine
 10
132.43909607
 20
16.4
 30
0.0
 11
132.43909607
 21
17.00479736
 31
0.0
  0
LINE
  5
269
330
1F
100
AcDbEntity
  8
枠_表
  6
CONTINUOUS
 62
     3
100
AcDbLine
 10
132.43909607
 20
17.00479736
 30
0.0
 11
133.7495514
 21
17.00479736
 31
0.0
  0
LINE
  5
26A
330
1F
100
AcDbEntity
  8
枠_表
  6
CONTINUOUS
 62
     3
100
AcDbLine
 10
133.7495514
 20
17.00479736
 30
0.0
 11
133.7495514
 21
19.1216034
 31
0.0
  0
LINE
  5
26B
330
1F
100
AcDbEntity
  8
枠_表
  6
CONTINUOUS
 62
     3
100
AcDbLine
 10
133.7495514
 20
19.1216034
 30
0.0
 11
132.84249268
 21
19.1216034
 31
0.0
  0
LINE
  5
26C
330
1F
100
AcDbEntity
  8
枠_表
  6
CONTINUOUS
 62
     3
100
AcDbLine
 10
130.12069092
 20
20.43199768
 30
0.0
 11
130.12069092
 21
19.82720032
 31
0.0
  0
LINE
  5
26D
330
1F
100
AcDbEntity
  8
枠_表
  6
CONTINUOUS
 62
     3
100
AcDbLine
 10
130.12069092
 20
20.43199768
 30
0.0
 11
131.02796326
 21
20.43199768
 31
0.0
  0
LINE
  5
26E
330
1F
100
AcDbEntity
  8
枠_表
  6
CONTINUOUS
 62
     3
100
AcDbLine
 10
131.02796326
 20
20.43199768
 30
0.0
 11
131.02796326
 21
20.83519592
 31
0.0
  0
LINE
  5
26F
330
1F
100
AcDbEntity
  8
枠_表
  6
CONTINUOUS
 62
     3
100
AcDbLine
 10
131.02796326
 20
20.83519592
 30
0.0
 11
132.03591309
 21
20.83519592
 31
0.0
  0
LINE
  5
270
330
1F
100
AcDbEntity
  8
枠_表
  6
CONTINUOUS
 62
     3
100
AcDbLine
 10
132.03591309
 20
20.83519592
 30
0.0
 11
132.03591309
 21
20.43199768
 31
0.0
  0
LINE
  5
271
330
1F
100
AcDbEntity
  8
枠_表
  6
CONTINUOUS
 62
     3
100
AcDbLine
 10
132.03591309
 20
20.43199768
 30
0.0
 11
132.94318543
 21
20.43199768
 31
0.0
  0
LINE
  5
272
330
1F
100
AcDbEntity
  8
枠_表
  6
CONTINUOUS
 62
     3
100
AcDbLine
 10
132.94318543
 20
20.43199768
 30
0.0
 11
131.90261231
 21
18.945578
 31
0.0
  0
LINE
  5
273
330
1F
100
AcDbEntity
  8
枠_表
  6
CONTINUOUS
 62
     3
100
AcDbLine
 10
131.90261231
 20
18.945578
 30
0.0
 11
132.84249268
 21
18.2875885
 31
0.0
  0
LINE
  5
274
330
1F
100
AcDbEntity
  8
枠_表
  6
CONTINUOUS
 62
     3
100
AcDbLine
 10
132.84249268
 20
18.2875885
 30
0.0
 11
132.84249268
 21
17.18012085
 31
0.0
  0
LINE
  5
275
330
1F
100
AcDbEntity
  8
枠_表
  6
CONTINUOUS
 62
     3
100
AcDbLine
 10
132.84249268
 20
17.18012085
 30
0.0
 11
132.03591309
 21
17.74477234
 31
0.0
  0
LINE
  5
276
330
1F
100
AcDbEntity
  8
枠_表
  6
CONTINUOUS
 62
     3
100
AcDbLine
 10
132.03591309
 20
17.74477234
 30
0.0
 11
132.03591309
 21
16.4
 31
0.0
  0
LINE
  5
277
330
1F
100
AcDbEntity
  8
枠_表
  6
CONTINUOUS
 62
     3
100
AcDbLine
 10
132.03591309
 20
16.4
 30
0.0
 11
131.02796326
 21
16.4
 31
0.0
  0
LINE
  5
278
330
1F
100
AcDbEntity
  8
枠_表
  6
CONTINUOUS
 62
     3
100
AcDbLine
 10
131.02796326
 20
16.4
 30
0.0
 11
131.02796326
 21
17.69598999
 31
0.0
  0
LINE
  5
279
330
1F
100
AcDbEntity
  8
枠_表
  6
CONTINUOUS
 62
     3
100
AcDbLine
 10
131.02796326
 20
17.69598999
 30
0.0
 11
130.12069092
 21
16.4
 31
0.0
  0
LINE
  5
27A
330
1F
100
AcDbEntity
  8
枠_表
  6
CONTINUOUS
 62
     3
100
AcDbLine
 10
130.12069092
 20
16.4
 30
0.0
 11
130.12069092
 21
17.9819397
 31
0.0
  0
LINE
  5
27B
330
1F
100
AcDbEntity
  8
枠_表
  6
CONTINUOUS
 62
     3
100
AcDbLine
 10
130.12069092
 20
17.9819397
 30
0.0
 11
131.41248475
 21
19.82720032
 31
0.0
  0
LINE
  5
27C
330
1F
100
AcDbEntity
  8
枠_表
  6
CONTINUOUS
 62
     3
100
AcDbLine
 10
131.41248475
 20
19.82720032
 30
0.0
 11
130.12069092
 21
19.82720032
 31
0.0
  0
LINE
  5
27D
330
1F
100
AcDbEntity
  8
枠_表
  6
CONTINUOUS
 62
     3
100
AcDbLine
 10
116.69391785
 20
18.87120381
 30
0.0
 11
116.69391785
 21
16.59999981
 31
0.0
  0
LINE
  5
27E
330
1F
100
AcDbEntity
  8
枠_表
  6
CONTINUOUS
 62
     6
100
AcDbLine
 10
200.0
 20
23.5
 30
0.0
 11
75.0
 21
23.5
 31
0.0
  0
LINE
  5
27F
330
1F
100
AcDbEntity
  8
枠_表
  6
CONTINUOUS
 62
     6
100
AcDbLine
 10
186.0
 20
35.5
 30
0.0
 11
186.0
 21
23.5
 31
0.0
  0
LINE
  5
280
330
1F
100
AcDbEntity
  8
枠_表
  6
CONTINUOUS
 62
     6
100
AcDbLine
 10
181.0
 20
35.5
 30
0.0
 11
181.0
 21
23.5
 31
0.0
  0
LINE
  5
281
330
1F
100
AcDbEntity
  8
枠_表
  6
CONTINUOUS
 62
     6
100
AcDbLine
 10
144.0
 20
35.5
 30
0.0
 11
144.0
 21
13.5
 31
0.0
  0
LINE
  5
282
330
1F
100
AcDbEntity
  8
枠_表
  6
CONTINUOUS
 62
     6
100
AcDbLine
 10
139.0
 20
35.5
 30
0.0
 11
139.0
 21
13.5
 31
0.0
  0
LINE
  5
283
330
1F
100
AcDbEntity
  8
枠_表
  6
CONTINUOUS
 62
     6
100
AcDbLine
 10
80.0
 20
35.5
 30
0.0
 11
80.0
 21
23.5
 31
0.0
  0
LINE
  5
284
330
1F
100
AcDbEntity
  8
枠_表
  6
CONTINUOUS
 62
     6
100
AcDbLine
 10
75.0
 20
35.5
 30
0.0
 11
75.0
 21
13.5
 31
0.0
  0
LINE
  5
285
330
1F
100
AcDbEntity
  8
枠_表
  6
CONTINUOUS
 62
     6
100
AcDbLine
 10
62.0
 20
35.5
 30
0.0
 11
62.0
 21
13.5
 31
0.0
  0
LINE
  5
286
330
1F
100
AcDbEntity
  8
枠_表
  6
CONTINUOUS
 62
     6
100
AcDbLine
 10
49.0
 20
35.5
 30
0.0
 11
49.0
 21
13.5
 31
0.0
  0
LINE
  5
287
330
1F
100
AcDbEntity
  8
枠_表
  6
CONTINUOUS
 62
     6
100
AcDbLine
 10
33.5
 20
35.5
 30
0.0
 11
33.5
 21
13.5
 31
0.0
  0
LINE
  5
288
330
1F
100
AcDbEntity
  8
枠_表
  6
CONTINUOUS
 62
     6
100
AcDbLine
 10
18.0
 20
30.5
 30
0.0
 11
75.0
 21
30.5
 31
0.0
  0
LINE
  5
289
330
1F
100
AcDbEntity
  8
枠_表
  6
CONTINUOUS
 62
     6
100
AcDbLine
 10
189.26538086
 20
25.80029297
 30
0.0
 11
196.99938965
 21
33.66998291
 31
0.0
  0
CIRCLE
  5
28A
330
1F
100
AcDbEntity
  8
枠_表
  6
CONTINUOUS
 62
     6
100
AcDbCircle
 10
23.0
 20
16.0
 30
0.0
 40
0.10000002
  0
CIRCLE
  5
28B
330
1F
100
AcDbEntity
  8
枠_表
  6
CONTINUOUS
 62
     6
100
AcDbCircle
 10
28.0
 20
16.0
 30
0.0
 40
0.10000002
  0
CIRCLE
  5
28C
330
1F
100
AcDbEntity
  8
枠_表
  6
CONTINUOUS
 62
     6
100
AcDbCircle
 10
38.5
 20
16.0
 30
0.0
 40
0.10000002
  0
CIRCLE
  5
28D
330
1F
100
AcDbEntity
  8
枠_表
  6
CONTINUOUS
 62
     6
100
AcDbCircle
 10
43.5
 20
16.0
 30
0.0
 40
0.10000002
  0
LINE
  5
28E
330
1F
100
AcDbEntity
  8
枠_表
  6
EXLTYPE2
 62
     6
100
AcDbLine
 10
18.0
 20
18.5
 30
0.0
 11
49.0
 21
18.5
 31
0.0
  0
TEXT
  5
28F
330
1F
100
AcDbEntity
  8
枠_表
  6
CONTINUOUS
 62
     2
100
AcDbText
 10
81.0
 20
29.5
 30
0.0
 40
5.0
  1
450㎜幅
 41
0.8693548387096776
  7
EXCADSTD
 72
     5
 11
100.25
 21
29.5
 31
0.0
100
AcDbText
  0
TEXT
  5
290
330
1F
100
AcDbEntity
  8
枠_表
  6
CONTINUOUS
 62
     2
100
AcDbText
 10
81.0
 20
24.5
 30
0.0
 40
5.0
  1
　　収納棚付１面鏡
 41
1.307547169811321
  7
EXCADSTD
 72
     5
 11
130.5
 21
24.5
 31
0.0
100
AcDbText
  0
TEXT
  5
291
330
1F
100
AcDbEntity
  8
枠_表
  6
CONTINUOUS
 62
     2
100
AcDbText
 10
145.0
 20
27.0
 30
0.0
 40
5.0
  1
ＬＵＭ４５１ＣＳ
 41
0.9829787234042554
  7
EXCADSTD
 72
     5
 11
178.0
 21
27.0
 31
0.0
100
AcDbText
  0
TEXT
  5
292
330
1F
100
AcDbEntity
  8
枠_表
  6
CONTINUOUS
 62
     2
100
AcDbText
 10
18.44999999
 20
14.0
 30
0.0
 40
4.0
  1
08
 41
0.454054054054054
  7
EXCADSTD
 72
     5
 11
21.64999999
 21
14.0
 31
0.0
100
AcDbText
  0
TEXT
  5
293
330
1F
100
AcDbEntity
  8
枠_表
  6
CONTINUOUS
 62
     2
100
AcDbText
 10
23.5
 20
14.0
 30
0.0
 40
4.0
  1
10
 41
0.454054054054054
  7
EXCADSTD
 72
     5
 11
26.7
 21
14.0
 31
0.0
100
AcDbText
  0
TEXT
  5
294
330
1F
100
AcDbEntity
  8
枠_表
  6
CONTINUOUS
 62
     2
100
AcDbText
 10
29.67500001
 20
14.0
 30
0.0
 40
4.0
  1
8
 41
0.4516544117647054
  7
EXCADSTD
 72
     5
 11
31.13750001
 21
14.0
 31
0.0
100
AcDbText
  0
TEXT
  5
295
330
1F
100
AcDbEntity
  8
枠_表
  6
CONTINUOUS
 62
     2
100
AcDbText
 10
20.74999999999949
 20
22.0
 30
0.0
 40
5.0
  1
中村
 41
1.224910909090909
  7
EXCADSTD
 72
     5
 11
30.37429999999949
 21
22.0
 31
0.0
100
AcDbText
  0
LINE
  5
296
330
1F
100
AcDbEntity
  8
枠_表
  6
EXLTYPE2
 62
     6
100
AcDbLine
 10
18.0
 20
151.0
 30
0.0
 11
0.8999999999999986
 21
151.0
 31
0.0
  0
LINE
  5
297
330
1F
100
AcDbEntity
  8
化粧台
  6
CONTINUOUS
 62
     2
100
AcDbLine
 10
675.0000000000002
 20
1797.0
 30
0.0
 11
675.0000000000002
 21
1297.0
 31
0.0
  0
LINE
  5
298
330
1F
100
AcDbEntity
  8
化粧台
  6
CONTINUOUS
 62
     2
100
AcDbLine
 10
675.0000000000002
 20
1797.0
 30
0.0
 11
676.5000000000002
 21
1797.0
 31
0.0
  0
LINE
  5
299
330
1F
100
AcDbEntity
  8
化粧台
  6
CONTINUOUS
 62
     2
100
AcDbLine
 10
675.0000000000002
 20
1297.0
 30
0.0
 11
676.5000000000002
 21
1297.0
 31
0.0
  0
LINE
  5
29A
330
1F
100
AcDbEntity
  8
化粧台
  6
CONTINUOUS
 62
     4
100
AcDbLine
 10
676.5000000000002
 20
1305.8
 30
0.0
 11
676.5000000000002
 21
1295.8
 31
0.0
  0
LINE
  5
29B
330
1F
100
AcDbEntity
  8
化粧台
  6
CONTINUOUS
 62
     4
100
AcDbLine
 10
676.5000000000002
 20
1788.2
 30
0.0
 11
676.5000000000002
 21
1798.2
 31
0.0
  0
LINE
  5
29C
330
1F
100
AcDbEntity
  8
化粧台
  6
CONTINUOUS
 62
     2
100
AcDbLine
 10
690.0000000000002
 20
2073.999999999999
 30
0.0
 11
690.0000000000002
 21
2173.999999999999
 31
0.0
  0
LINE
  5
29D
330
1F
100
AcDbEntity
  8
化粧台
  6
CONTINUOUS
 62
     2
100
AcDbLine
 10
675.0000000000002
 20
2073.999999999999
 30
0.0
 11
675.0000000000002
 21
2173.999999999999
 31
0.0
  0
LINE
  5
29E
330
1F
100
AcDbEntity
  8
化粧台
  6
CONTINUOUS
 62
     2
100
AcDbLine
 10
675.0000000000002
 20
2073.999999999999
 30
0.0
 11
690.0000000000002
 21
2073.999999999999
 31
0.0
  0
LINE
  5
29F
330
1F
100
AcDbEntity
  8
化粧台
  6
CONTINUOUS
 62
     2
100
AcDbLine
 10
675.0000000000002
 20
2072.0
 30
0.0
 11
676.5000000000002
 21
2072.0
 31
0.0
  0
LINE
  5
2A0
330
1F
100
AcDbEntity
  8
化粧台
  6
CONTINUOUS
 62
     2
100
AcDbLine
 10
675.0000000000002
 20
2057.0
 30
0.0
 11
675.0000000000002
 21
2072.0
 31
0.0
  0
LINE
  5
2A1
330
1F
100
AcDbEntity
  8
化粧台
  6
CONTINUOUS
 62
     2
100
AcDbLine
 10
675.5000000000039
 20
2056.999999999999
 30
0.0
 11
675.5000000000039
 21
2054.0
 31
0.0
  0
LINE
  5
2A2
330
1F
100
AcDbEntity
  8
化粧台
  6
CONTINUOUS
 62
     2
100
AcDbLine
 10
675.0000000000002
 20
2056.999999999999
 30
0.0
 11
676.5000000000002
 21
2056.999999999999
 31
0.0
  0
LINE
  5
2A3
330
1F
100
AcDbEntity
  8
化粧台
  6
CONTINUOUS
 62
     2
100
AcDbLine
 10
675.5000000000002
 20
2054.0
 30
0.0
 11
676.5000000000002
 21
2054.0
 31
0.0
  0
LINE
  5
2A4
330
1F
100
AcDbEntity
  8
化粧台
  6
CONTINUOUS
 62
     4
100
AcDbLine
 10
676.5000000000002
 20
2052.799999999999
 30
0.0
 11
676.5000000000002
 21
2072.799999999999
 31
0.0
  0
LINE
  5
2A5
330
1F
100
AcDbEntity
  8
化粧台
  6
CONTINUOUS
 62
     2
100
AcDbLine
 10
1123.5
 20
1797.0
 30
0.0
 11
1125.0
 21
1797.0
 31
0.0
  0
LINE
  5
2A6
330
1F
100
AcDbEntity
  8
化粧台
  6
CONTINUOUS
 62
     4
100
AcDbLine
 10
1123.5
 20
1788.2
 30
0.0
 11
1123.5
 21
1798.2
 31
0.0
  0
LINE
  5
2A7
330
1F
100
AcDbEntity
  8
化粧台
  6
CONTINUOUS
 62
     4
100
AcDbLine
 10
1123.5
 20
1798.2
 30
0.0
 11
676.5000000000002
 21
1798.2
 31
0.0
  0
LINE
  5
2A8
330
1F
100
AcDbEntity
  8
化粧台
  6
CONTINUOUS
 62
     4
100
AcDbLine
 10
1123.5
 20
1788.2
 30
0.0
 11
676.5000000000002
 21
1788.2
 31
0.0
  0
LINE
  5
2A9
330
1F
100
AcDbEntity
  8
化粧台
  6
EXLTYPE3
 62
     6
100
AcDbLine
 10
1125.0
 20
1797.0
 30
0.0
 11
675.0000000000002
 21
1547.0
 31
0.0
  0
LINE
  5
2AA
330
1F
100
AcDbEntity
  8
化粧台
  6
CONTINUOUS
 62
     2
100
AcDbLine
 10
675.0000000000002
 20
2173.999999999999
 30
0.0
 11
1125.0
 21
2173.999999999999
 31
0.0
  0
LINE
  5
2AB
330
1F
100
AcDbEntity
  8
化粧台
  6
CONTINUOUS
 62
     2
100
AcDbLine
 10
1110.0
 20
2073.999999999999
 30
0.0
 11
1110.0
 21
2173.999999999999
 31
0.0
  0
LINE
  5
2AC
330
1F
100
AcDbEntity
  8
化粧台
  6
CONTINUOUS
 62
     2
100
AcDbLine
 10
1125.0
 20
2073.999999999999
 30
0.0
 11
1125.0
 21
2173.999999999999
 31
0.0
  0
LINE
  5
2AD
330
1F
100
AcDbEntity
  8
化粧台
  6
CONTINUOUS
 62
     2
100
AcDbLine
 10
690.0000000000002
 20
2074.999999999999
 30
0.0
 11
1110.0
 21
2074.999999999999
 31
0.0
  0
LINE
  5
2AE
330
1F
100
AcDbEntity
  8
化粧台
  6
CONTINUOUS
 62
     2
100
AcDbLine
 10
1110.0
 20
2073.999999999999
 30
0.0
 11
1125.0
 21
2073.999999999999
 31
0.0
  0
LINE
  5
2AF
330
1F
100
AcDbEntity
  8
化粧台
  6
CONTINUOUS
 62
     2
100
AcDbLine
 10
1123.5
 20
2072.0
 30
0.0
 11
1125.0
 21
2072.0
 31
0.0
  0
LINE
  5
2B0
330
1F
100
AcDbEntity
  8
化粧台
  6
CONTINUOUS
 62
     4
100
AcDbLine
 10
676.5000000000002
 20
2052.799999999999
 30
0.0
 11
1123.5
 21
2052.799999999999
 31
0.0
  0
LINE
  5
2B1
330
1F
100
AcDbEntity
  8
化粧台
  6
CONTINUOUS
 62
     2
100
AcDbLine
 10
1125.0
 20
2072.0
 30
0.0
 11
1125.0
 21
2056.999999999999
 31
0.0
  0
LINE
  5
2B2
330
1F
100
AcDbEntity
  8
化粧台
  6
CONTINUOUS
 62
     2
100
AcDbLine
 10
1124.500000000033
 20
2056.999999999999
 30
0.0
 11
1124.500000000033
 21
2054.0
 31
0.0
  0
LINE
  5
2B3
330
1F
100
AcDbEntity
  8
化粧台
  6
CONTINUOUS
 62
     2
100
AcDbLine
 10
1123.5
 20
2056.999999999999
 30
0.0
 11
1125.0
 21
2056.999999999999
 31
0.0
  0
LINE
  5
2B4
330
1F
100
AcDbEntity
  8
化粧台
  6
CONTINUOUS
 62
     2
100
AcDbLine
 10
1123.5
 20
2054.0
 30
0.0
 11
1124.5
 21
2054.0
 31
0.0
  0
LINE
  5
2B5
330
1F
100
AcDbEntity
  8
化粧台
  6
CONTINUOUS
 62
     4
100
AcDbLine
 10
676.5000000000002
 20
2072.799999999999
 30
0.0
 11
1123.5
 21
2072.799999999999
 31
0.0
  0
LINE
  5
2B6
330
1F
100
AcDbEntity
  8
化粧台
  6
CONTINUOUS
 62
     4
100
AcDbLine
 10
1123.5
 20
2052.799999999999
 30
0.0
 11
1123.5
 21
2072.799999999999
 31
0.0
  0
LINE
  5
2B7
330
1F
100
AcDbEntity
  8
化粧台
  6
CONTINUOUS
 62
     2
100
AcDbLine
 10
1359.0
 20
1797.0
 30
0.0
 11
1374.0
 21
1797.0
 31
0.0
  0
LINE
  5
2B8
330
1F
100
AcDbEntity
  8
化粧台
  6
CONTINUOUS
 62
     2
100
AcDbLine
 10
1359.0
 20
1297.0
 30
0.0
 11
1374.0
 21
1297.0
 31
0.0
  0
LINE
  5
2B9
330
1F
100
AcDbEntity
  8
化粧台
  6
CONTINUOUS
 62
     2
100
AcDbLine
 10
1356.0
 20
1796.5
 30
0.0
 11
1356.0
 21
1297.5
 31
0.0
  0
LINE
  5
2BA
330
1F
100
AcDbEntity
  8
化粧台
  6
CONTINUOUS
 62
     2
100
AcDbLine
 10
1356.0
 20
1796.5
 30
0.0
 11
1359.0
 21
1796.5
 31
0.0
  0
LINE
  5
2BB
330
1F
100
AcDbEntity
  8
化粧台
  6
CONTINUOUS
 62
     2
100
AcDbLine
 10
1356.0
 20
1297.5
 30
0.0
 11
1359.0
 21
1297.5
 31
0.0
  0
LINE
  5
2BC
330
1F
100
AcDbEntity
  8
化粧台
  6
CONTINUOUS
 62
     2
100
AcDbLine
 10
1359.0
 20
1797.0
 30
0.0
 11
1359.0
 21
1297.0
 31
0.0
  0
LINE
  5
2BD
330
1F
100
AcDbEntity
  8
化粧台
  6
CONTINUOUS
 62
     4
100
AcDbLine
 10
1354.800000000003
 20
1798.2
 30
0.0
 11
1354.800000000003
 21
1788.2
 31
0.0
  0
LINE
  5
2BE
330
1F
100
AcDbEntity
  8
化粧台
  6
CONTINUOUS
 62
     4
100
AcDbLine
 10
1354.799999999999
 20
1788.2
 30
0.0
 11
1356.0
 21
1788.2
 31
0.0
  0
LINE
  5
2BF
330
1F
100
AcDbEntity
  8
化粧台
  6
CONTINUOUS
 62
     4
100
AcDbLine
 10
1356.0
 20
1788.2
 30
0.0
 11
1356.0
 21
1797.0
 31
0.0
  0
LINE
  5
2C0
330
1F
100
AcDbEntity
  8
化粧台
  6
CONTINUOUS
 62
     4
100
AcDbLine
 10
1354.799999999999
 20
1305.8
 30
0.0
 11
1356.0
 21
1305.8
 31
0.0
  0
LINE
  5
2C1
330
1F
100
AcDbEntity
  8
化粧台
  6
CONTINUOUS
 62
     4
100
AcDbLine
 10
1354.800000000003
 20
1295.8
 30
0.0
 11
1354.800000000003
 21
1305.8
 31
0.0
  0
LINE
  5
2C2
330
1F
100
AcDbEntity
  8
化粧台
  6
CONTINUOUS
 62
     4
100
AcDbLine
 10
1356.0
 20
1305.8
 30
0.0
 11
1356.0
 21
1297.0
 31
0.0
  0
LINE
  5
2C3
330
1F
100
AcDbEntity
  8
化粧台
  6
CONTINUOUS
 62
     4
100
AcDbLine
 10
1374.799999999999
 20
1798.2
 30
0.0
 11
1374.799999999999
 21
1797.0
 31
0.0
  0
LINE
  5
2C4
330
1F
100
AcDbEntity
  8
化粧台
  6
CONTINUOUS
 62
     4
100
AcDbLine
 10
1356.0
 20
1797.0
 30
0.0
 11
1374.799999999999
 21
1797.0
 31
0.0
  0
LINE
  5
2C5
330
1F
100
AcDbEntity
  8
化粧台
  6
CONTINUOUS
 62
     4
100
AcDbLine
 10
1354.800000000003
 20
1798.2
 30
0.0
 11
1374.799999999999
 21
1798.2
 31
0.0
  0
LINE
  5
2C6
330
1F
100
AcDbEntity
  8
化粧台
  6
CONTINUOUS
 62
     4
100
AcDbLine
 10
1374.799999999999
 20
1295.8
 30
0.0
 11
1374.799999999999
 21
1297.0
 31
0.0
  0
LINE
  5
2C7
330
1F
100
AcDbEntity
  8
化粧台
  6
CONTINUOUS
 62
     4
100
AcDbLine
 10
1354.800000000003
 20
1295.8
 30
0.0
 11
1374.799999999999
 21
1295.8
 31
0.0
  0
LINE
  5
2C8
330
1F
100
AcDbEntity
  8
化粧台
  6
CONTINUOUS
 62
     4
100
AcDbLine
 10
1356.0
 20
1297.0
 30
0.0
 11
1374.799999999999
 21
1297.0
 31
0.0
  0
LINE
  5
2C9
330
1F
100
AcDbEntity
  8
化粧台
  6
CONTINUOUS
 62
     2
100
AcDbLine
 10
1476.0
 20
1792.0
 30
0.0
 11
1476.0
 21
1312.0
 31
0.0
  0
LINE
  5
2CA
330
1F
100
AcDbEntity
  8
化粧台
  6
CONTINUOUS
 62
     2
100
AcDbLine
 10
1376.0
 20
1792.0
 30
0.0
 11
1476.0
 21
1792.0
 31
0.0
  0
LINE
  5
2CB
330
1F
100
AcDbEntity
  8
化粧台
  6
CONTINUOUS
 62
     2
100
AcDbLine
 10
1376.0
 20
1312.0
 30
0.0
 11
1476.0
 21
1312.0
 31
0.0
  0
LINE
  5
2CC
330
1F
100
AcDbEntity
  8
化粧台
  6
CONTINUOUS
 62
     2
100
AcDbLine
 10
1374.0
 20
1797.0
 30
0.0
 11
1374.0
 21
1297.0
 31
0.0
  0
LINE
  5
2CD
330
1F
100
AcDbEntity
  8
化粧台
  6
CONTINUOUS
 62
     6
100
AcDbLine
 10
732.0000000000003
 20
1361.999999999999
 30
0.0
 11
768.0000000000003
 21
1361.999999999999
 31
0.0
  0
LINE
  5
2CE
330
1F
100
AcDbEntity
  8
化粧台
  6
CONTINUOUS
 62
     6
100
AcDbLine
 10
750.0000000000003
 20
1344.0
 30
0.0
 11
750.0000000000003
 21
1380.0
 31
0.0
  0
CIRCLE
  5
2CF
330
1F
100
AcDbEntity
  8
化粧台
  6
EXLTYPE2
 62
     6
100
AcDbCircle
 10
750.0000000000003
 20
1362.0
 30
0.0
 40
2.5
  0
CIRCLE
  5
2D0
330
1F
100
AcDbEntity
  8
化粧台
  6
EXLTYPE2
 62
     6
100
AcDbCircle
 10
750.0000000000003
 20
1362.0
 30
0.0
 40
8.0
  0
LINE
  5
2D1
330
1F
100
AcDbEntity
  8
化粧台
  6
CONTINUOUS
 62
     6
100
AcDbLine
 10
1032.0
 20
1361.999999999999
 30
0.0
 11
1068.0
 21
1361.999999999999
 31
0.0
  0
LINE
  5
2D2
330
1F
100
AcDbEntity
  8
化粧台
  6
CONTINUOUS
 62
     6
100
AcDbLine
 10
1050.0
 20
1344.0
 30
0.0
 11
1050.0
 21
1380.0
 31
0.0
  0
CIRCLE
  5
2D3
330
1F
100
AcDbEntity
  8
化粧台
  6
EXLTYPE2
 62
     6
100
AcDbCircle
 10
1050.0
 20
1362.0
 30
0.0
 40
2.5
  0
CIRCLE
  5
2D4
330
1F
100
AcDbEntity
  8
化粧台
  6
EXLTYPE2
 62
     6
100
AcDbCircle
 10
1050.0
 20
1362.0
 30
0.0
 40
8.0
  0
LINE
  5
2D5
330
1F
100
AcDbEntity
  8
化粧台
  6
CONTINUOUS
 62
     6
100
AcDbLine
 10
1032.0
 20
1741.999999999999
 30
0.0
 11
1068.0
 21
1741.999999999999
 31
0.0
  0
LINE
  5
2D6
330
1F
100
AcDbEntity
  8
化粧台
  6
CONTINUOUS
 62
     6
100
AcDbLine
 10
1050.0
 20
1724.0
 30
0.0
 11
1050.0
 21
1760.0
 31
0.0
  0
CIRCLE
  5
2D7
330
1F
100
AcDbEntity
  8
化粧台
  6
EXLTYPE2
 62
     6
100
AcDbCircle
 10
1050.0
 20
1742.0
 30
0.0
 40
2.5
  0
CIRCLE
  5
2D8
330
1F
100
AcDbEntity
  8
化粧台
  6
EXLTYPE2
 62
     6
100
AcDbCircle
 10
1050.0
 20
1742.0
 30
0.0
 40
8.0
  0
LINE
  5
2D9
330
1F
100
AcDbEntity
  8
化粧台
  6
CONTINUOUS
 62
     6
100
AcDbLine
 10
732.0000000000003
 20
1741.999999999999
 30
0.0
 11
768.0000000000003
 21
1741.999999999999
 31
0.0
  0
LINE
  5
2DA
330
1F
100
AcDbEntity
  8
化粧台
  6
CONTINUOUS
 62
     6
100
AcDbLine
 10
750.0000000000003
 20
1724.0
 30
0.0
 11
750.0000000000003
 21
1760.0
 31
0.0
  0
CIRCLE
  5
2DB
330
1F
100
AcDbEntity
  8
化粧台
  6
EXLTYPE2
 62
     6
100
AcDbCircle
 10
750.0000000000003
 20
1742.0
 30
0.0
 40
2.5
  0
CIRCLE
  5
2DC
330
1F
100
AcDbEntity
  8
化粧台
  6
EXLTYPE2
 62
     6
100
AcDbCircle
 10
750.0000000000003
 20
1742.0
 30
0.0
 40
8.0
  0
LINE
  5
2DD
330
1F
100
AcDbEntity
  8
化粧台
  6
EXLTYPE3
 62
     6
100
AcDbLine
 10
1050.000000000001
 20
2214.799999999839
 30
0.0
 11
1050.000000000001
 21
2172.049999999839
 31
0.0
  0
ARC
  5
2DE
330
1F
100
AcDbEntity
  8
化粧台
  6
CONTINUOUS
 62
     6
100
AcDbCircle
 10
1063.500000000001
 20
2200.661651584698
 30
0.0
 40
15.00000000000001
100
AcDbArc
 50
154.1580672368321
 51
180.0
  0
ARC
  5
2DF
330
1F
100
AcDbEntity
  8
化粧台
  6
CONTINUOUS
 62
     6
100
AcDbCircle
 10
1036.500000000001
 20
2200.661651584729
 30
0.0
 40
15.00000000000001
100
AcDbArc
 50
0.0
 51
25.84193276307938
  0
LINE
  5
2E0
330
1F
100
AcDbEntity
  8
化粧台
  6
CONTINUOUS
 62
     6
100
AcDbLine
 10
1051.500000000001
 20
2173.999999999998
 30
0.0
 11
1051.500000000001
 21
2200.661651584729
 31
0.0
  0
LINE
  5
2E1
330
1F
100
AcDbEntity
  8
化粧台
  6
CONTINUOUS
 62
     6
100
AcDbLine
 10
1048.500000000001
 20
2173.999999999998
 30
0.0
 11
1048.500000000001
 21
2200.661651584698
 31
0.0
  0
LINE
  5
2E2
330
1F
100
AcDbEntity
  8
化粧台
  6
EXLTYPE3
 62
     6
100
AcDbLine
 10
750.0000000000007
 20
2214.799999999839
 30
0.0
 11
750.0000000000007
 21
2172.049999999839
 31
0.0
  0
ARC
  5
2E3
330
1F
100
AcDbEntity
  8
化粧台
  6
CONTINUOUS
 62
     6
100
AcDbCircle
 10
763.5000000000007
 20
2200.661651584698
 30
0.0
 40
15.00000000000001
100
AcDbArc
 50
154.1580672368321
 51
180.0
  0
ARC
  5
2E4
330
1F
100
AcDbEntity
  8
化粧台
  6
CONTINUOUS
 62
     6
100
AcDbCircle
 10
736.5000000000007
 20
2200.661651584729
 30
0.0
 40
15.00000000000001
100
AcDbArc
 50
0.0
 51
25.84193276307938
  0
LINE
  5
2E5
330
1F
100
AcDbEntity
  8
化粧台
  6
CONTINUOUS
 62
     6
100
AcDbLine
 10
751.5000000000007
 20
2173.999999999998
 30
0.0
 11
751.5000000000007
 21
2200.661651584729
 31
0.0
  0
LINE
  5
2E6
330
1F
100
AcDbEntity
  8
化粧台
  6
CONTINUOUS
 62
     6
100
AcDbLine
 10
748.5000000000007
 20
2173.999999999998
 30
0.0
 11
748.5000000000007
 21
2200.661651584698
 31
0.0
  0
LINE
  5
2E7
330
1F
100
AcDbEntity
  8
化粧台
  6
EXLTYPE3
 62
     6
100
AcDbLine
 10
1516.799999999839
 20
1742.0
 30
0.0
 11
1474.049999999839
 21
1742.0
 31
0.0
  0
ARC
  5
2E8
330
1F
100
AcDbEntity
  8
化粧台
  6
CONTINUOUS
 62
     6
100
AcDbCircle
 10
1502.661651584698
 20
1728.5
 30
0.0
 40
15.00000000000001
100
AcDbArc
 50
64.15806723683205
 51
90.00000000000004
  0
ARC
  5
2E9
330
1F
100
AcDbEntity
  8
化粧台
  6
CONTINUOUS
 62
     6
100
AcDbCircle
 10
1502.661651584729
 20
1755.5
 30
0.0
 40
15.00000000000001
100
AcDbArc
 50
270.0000000000002
 51
295.8419327630793
  0
LINE
  5
2EA
330
1F
100
AcDbEntity
  8
化粧台
  6
CONTINUOUS
 62
     6
100
AcDbLine
 10
1475.999999999998
 20
1740.5
 30
0.0
 11
1502.661651584729
 21
1740.5
 31
0.0
  0
LINE
  5
2EB
330
1F
100
AcDbEntity
  8
化粧台
  6
CONTINUOUS
 62
     6
100
AcDbLine
 10
1475.999999999998
 20
1743.5
 30
0.0
 11
1502.661651584698
 21
1743.5
 31
0.0
  0
LINE
  5
2EC
330
1F
100
AcDbEntity
  8
化粧台
  6
EXLTYPE3
 62
     6
100
AcDbLine
 10
1516.799999999839
 20
1362.0
 30
0.0
 11
1474.049999999839
 21
1362.0
 31
0.0
  0
ARC
  5
2ED
330
1F
100
AcDbEntity
  8
化粧台
  6
CONTINUOUS
 62
     6
100
AcDbCircle
 10
1502.661651584698
 20
1348.5
 30
0.0
 40
15.00000000000001
100
AcDbArc
 50
64.15806723683205
 51
90.00000000000004
  0
ARC
  5
2EE
330
1F
100
AcDbEntity
  8
化粧台
  6
CONTINUOUS
 62
     6
100
AcDbCircle
 10
1502.661651584729
 20
1375.5
 30
0.0
 40
15.00000000000001
100
AcDbArc
 50
270.0000000000002
 51
295.8419327630793
  0
LINE
  5
2EF
330
1F
100
AcDbEntity
  8
化粧台
  6
CONTINUOUS
 62
     6
100
AcDbLine
 10
1475.999999999998
 20
1360.5
 30
0.0
 11
1502.661651584729
 21
1360.5
 31
0.0
  0
LINE
  5
2F0
330
1F
100
AcDbEntity
  8
化粧台
  6
CONTINUOUS
 62
     6
100
AcDbLine
 10
1475.999999999998
 20
1363.5
 30
0.0
 11
1502.661651584698
 21
1363.5
 31
0.0
  0
LINE
  5
2F1
330
1F
100
AcDbEntity
  8
化粧台
  6
CONTINUOUS
 62
     2
100
AcDbLine
 10
1125.0
 20
1297.0
 30
0.0
 11
1123.5
 21
1297.0
 31
0.0
  0
LINE
  5
2F2
330
1F
100
AcDbEntity
  8
化粧台
  6
CONTINUOUS
 62
     4
100
AcDbLine
 10
1123.5
 20
1305.8
 30
0.0
 11
1123.5
 21
1295.8
 31
0.0
  0
LINE
  5
2F3
330
1F
100
AcDbEntity
  8
化粧台
  6
CONTINUOUS
 62
     2
100
AcDbLine
 10
1125.0
 20
1797.0
 30
0.0
 11
1125.0
 21
1297.0
 31
0.0
  0
LINE
  5
2F4
330
1F
100
AcDbEntity
  8
化粧台
  6
CONTINUOUS
 62
     4
100
AcDbLine
 10
1123.5
 20
1305.8
 30
0.0
 11
676.5000000000002
 21
1305.8
 31
0.0
  0
LINE
  5
2F5
330
1F
100
AcDbEntity
  8
化粧台
  6
CONTINUOUS
 62
     4
100
AcDbLine
 10
1123.5
 20
1295.8
 30
0.0
 11
676.5000000000002
 21
1295.8
 31
0.0
  0
LINE
  5
2F6
330
1F
100
AcDbEntity
  8
化粧台
  6
EXLTYPE3
 62
     6
100
AcDbLine
 10
1125.0
 20
1297.0
 30
0.0
 11
675.0000000000002
 21
1547.0
 31
0.0
  0
LINE
  5
2F7
330
1F
100
AcDbEntity
  8
化粧台
  6
EXLTYPE2
 62
     6
100
AcDbLine
 10
1125.0
 20
1791.0
 30
0.0
 11
675.0000000000002
 21
1791.0
 31
0.0
  0
LINE
  5
2F8
330
1F
100
AcDbEntity
  8
化粧台
  6
EXLTYPE2
 62
     6
100
AcDbLine
 10
1125.0
 20
1312.0
 30
0.0
 11
675.0000000000001
 21
1312.0
 31
0.0
  0
ARC
  5
2F9
330
1F
100
AcDbEntity
  8
化粧台
  6
EXLTYPE2
 62
     6
100
AcDbCircle
 10
1395.75
 20
1577.249999999999
 30
0.0
 40
1.250000000000569
100
AcDbArc
 50
180.0
 51
0.0
  0
ARC
  5
2FA
330
1F
100
AcDbEntity
  8
化粧台
  6
EXLTYPE2
 62
     6
100
AcDbCircle
 10
1451.75
 20
1572.749999999999
 30
0.0
 40
1.249999999999631
100
AcDbArc
 50
270.0000000000002
 51
90.00000000000004
  0
LINE
  5
2FB
330
1F
100
AcDbEntity
  8
化粧台
  6
EXLTYPE2
 62
     6
100
AcDbLine
 10
1382.5
 20
1608.999999999999
 30
0.0
 11
1382.5
 21
1586.499999999999
 31
0.0
  0
LINE
  5
2FC
330
1F
100
AcDbEntity
  8
化粧台
  6
EXLTYPE2
 62
     6
100
AcDbLine
 10
1380.0
 20
1608.999999999999
 30
0.0
 11
1382.5
 21
1608.999999999999
 31
0.0
  0
LINE
  5
2FD
330
1F
100
AcDbEntity
  8
化粧台
  6
EXLTYPE2
 62
     6
100
AcDbLine
 10
1380.0
 20
1608.999999999999
 30
0.0
 11
1380.0
 21
1569.0
 31
0.0
  0
LINE
  5
2FE
330
1F
100
AcDbEntity
  8
化粧台
  6
EXLTYPE2
 62
     6
100
AcDbLine
 10
1380.0
 20
1568.999999999999
 30
0.0
 11
1382.5
 21
1568.999999999999
 31
0.0
  0
LINE
  5
2FF
330
1F
100
AcDbEntity
  8
化粧台
  6
EXLTYPE2
 62
     6
100
AcDbLine
 10
1382.5
 20
1583.999999999999
 30
0.0
 11
1382.5
 21
1568.999999999999
 31
0.0
  0
LINE
  5
300
330
1F
100
AcDbEntity
  8
化粧台
  6
EXLTYPE2
 62
     6
100
AcDbLine
 10
1382.5
 20
1583.999999999999
 30
0.0
 11
1394.5
 21
1583.999999999999
 31
0.0
  0
LINE
  5
301
330
1F
100
AcDbEntity
  8
化粧台
  6
EXLTYPE2
 62
     6
100
AcDbLine
 10
1394.5
 20
1583.999999999999
 30
0.0
 11
1394.5
 21
1577.25
 31
0.0
  0
LINE
  5
302
330
1F
100
AcDbEntity
  8
化粧台
  6
EXLTYPE2
 62
     6
100
AcDbLine
 10
1397.0
 20
1583.999999999999
 30
0.0
 11
1397.0
 21
1577.25
 31
0.0
  0
LINE
  5
303
330
1F
100
AcDbEntity
  8
化粧台
  6
EXLTYPE2
 62
     6
100
AcDbLine
 10
1397.0
 20
1583.999999999999
 30
0.0
 11
1442.5
 21
1583.999999999999
 31
0.0
  0
LINE
  5
304
330
1F
100
AcDbEntity
  8
化粧台
  6
EXLTYPE2
 62
     6
100
AcDbLine
 10
1382.5
 20
1586.499999999999
 30
0.0
 11
1458.0
 21
1586.499999999999
 31
0.0
  0
LINE
  5
305
330
1F
100
AcDbEntity
  8
化粧台
  6
EXLTYPE2
 62
     6
100
AcDbLine
 10
1458.0
 20
1586.5
 30
0.0
 11
1458.0
 21
1583.999999999998
 31
0.0
  0
LINE
  5
306
330
1F
100
AcDbEntity
  8
化粧台
  6
EXLTYPE2
 62
     6
100
AcDbLine
 10
1445.0
 20
1583.999999999998
 30
0.0
 11
1458.0
 21
1583.999999999998
 31
0.0
  0
LINE
  5
307
330
1F
100
AcDbEntity
  8
化粧台
  6
EXLTYPE2
 62
     6
100
AcDbLine
 10
1445.0
 20
1583.999999999998
 30
0.0
 11
1445.0
 21
1573.999999999998
 31
0.0
  0
LINE
  5
308
330
1F
100
AcDbEntity
  8
化粧台
  6
EXLTYPE2
 62
     6
100
AcDbLine
 10
1445.0
 20
1573.999999999998
 30
0.0
 11
1451.75
 21
1573.999999999999
 31
0.0
  0
LINE
  5
309
330
1F
100
AcDbEntity
  8
化粧台
  6
EXLTYPE2
 62
     6
100
AcDbLine
 10
1442.5
 20
1583.999999999999
 30
0.0
 11
1442.499999999999
 21
1571.499999999999
 31
0.0
  0
LINE
  5
30A
330
1F
100
AcDbEntity
  8
化粧台
  6
EXLTYPE2
 62
     6
100
AcDbLine
 10
1442.499999999999
 20
1571.499999999999
 30
0.0
 11
1451.75
 21
1571.499999999998
 31
0.0
  0
ARC
  5
30B
330
1F
100
AcDbEntity
  8
化粧台
  6
EXLTYPE2
 62
     6
100
AcDbCircle
 10
1395.75
 20
1337.249999999999
 30
0.0
 40
1.250000000000569
100
AcDbArc
 50
180.0
 51
0.0
  0
ARC
  5
30C
330
1F
100
AcDbEntity
  8
化粧台
  6
EXLTYPE2
 62
     6
100
AcDbCircle
 10
1451.75
 20
1332.749999999999
 30
0.0
 40
1.249999999999631
100
AcDbArc
 50
270.0000000000002
 51
90.00000000000004
  0
LINE
  5
30D
330
1F
100
AcDbEntity
  8
化粧台
  6
EXLTYPE2
 62
     6
100
AcDbLine
 10
1382.5
 20
1368.999999999999
 30
0.0
 11
1382.5
 21
1346.499999999999
 31
0.0
  0
LINE
  5
30E
330
1F
100
AcDbEntity
  8
化粧台
  6
EXLTYPE2
 62
     6
100
AcDbLine
 10
1380.0
 20
1368.999999999999
 30
0.0
 11
1382.5
 21
1368.999999999999
 31
0.0
  0
LINE
  5
30F
330
1F
100
AcDbEntity
  8
化粧台
  6
EXLTYPE2
 62
     6
100
AcDbLine
 10
1380.0
 20
1368.999999999999
 30
0.0
 11
1380.0
 21
1329.0
 31
0.0
  0
LINE
  5
310
330
1F
100
AcDbEntity
  8
化粧台
  6
EXLTYPE2
 62
     6
100
AcDbLine
 10
1380.0
 20
1328.999999999999
 30
0.0
 11
1382.5
 21
1328.999999999999
 31
0.0
  0
LINE
  5
311
330
1F
100
AcDbEntity
  8
化粧台
  6
EXLTYPE2
 62
     6
100
AcDbLine
 10
1382.5
 20
1343.999999999999
 30
0.0
 11
1382.5
 21
1328.999999999999
 31
0.0
  0
LINE
  5
312
330
1F
100
AcDbEntity
  8
化粧台
  6
EXLTYPE2
 62
     6
100
AcDbLine
 10
1382.5
 20
1343.999999999999
 30
0.0
 11
1394.5
 21
1343.999999999999
 31
0.0
  0
LINE
  5
313
330
1F
100
AcDbEntity
  8
化粧台
  6
EXLTYPE2
 62
     6
100
AcDbLine
 10
1394.5
 20
1343.999999999999
 30
0.0
 11
1394.5
 21
1337.25
 31
0.0
  0
LINE
  5
314
330
1F
100
AcDbEntity
  8
化粧台
  6
EXLTYPE2
 62
     6
100
AcDbLine
 10
1397.0
 20
1343.999999999999
 30
0.0
 11
1397.0
 21
1337.25
 31
0.0
  0
LINE
  5
315
330
1F
100
AcDbEntity
  8
化粧台
  6
EXLTYPE2
 62
     6
100
AcDbLine
 10
1397.0
 20
1343.999999999999
 30
0.0
 11
1442.5
 21
1343.999999999999
 31
0.0
  0
LINE
  5
316
330
1F
100
AcDbEntity
  8
化粧台
  6
EXLTYPE2
 62
     6
100
AcDbLine
 10
1382.5
 20
1346.499999999999
 30
0.0
 11
1458.0
 21
1346.499999999999
 31
0.0
  0
LINE
  5
317
330
1F
100
AcDbEntity
  8
化粧台
  6
EXLTYPE2
 62
     6
100
AcDbLine
 10
1458.0
 20
1346.5
 30
0.0
 11
1458.0
 21
1343.999999999998
 31
0.0
  0
LINE
  5
318
330
1F
100
AcDbEntity
  8
化粧台
  6
EXLTYPE2
 62
     6
100
AcDbLine
 10
1445.0
 20
1343.999999999998
 30
0.0
 11
1458.0
 21
1343.999999999998
 31
0.0
  0
LINE
  5
319
330
1F
100
AcDbEntity
  8
化粧台
  6
EXLTYPE2
 62
     6
100
AcDbLine
 10
1445.0
 20
1343.999999999998
 30
0.0
 11
1445.0
 21
1333.999999999998
 31
0.0
  0
LINE
  5
31A
330
1F
100
AcDbEntity
  8
化粧台
  6
EXLTYPE2
 62
     6
100
AcDbLine
 10
1445.0
 20
1333.999999999998
 30
0.0
 11
1451.75
 21
1333.999999999999
 31
0.0
  0
LINE
  5
31B
330
1F
100
AcDbEntity
  8
化粧台
  6
EXLTYPE2
 62
     6
100
AcDbLine
 10
1442.5
 20
1343.999999999999
 30
0.0
 11
1442.499999999999
 21
1331.499999999999
 31
0.0
  0
LINE
  5
31C
330
1F
100
AcDbEntity
  8
化粧台
  6
EXLTYPE2
 62
     6
100
AcDbLine
 10
1442.499999999999
 20
1331.499999999999
 30
0.0
 11
1451.75
 21
1331.499999999998
 31
0.0
  0
LINE
  5
31D
330
1F
100
AcDbEntity
  8
化粧台
  6
CONTINUOUS
 62
     6
100
AcDbLine
 10
817.2144660940686
 20
1423.285533905902
 30
0.0
 11
804.4644660940686
 21
1410.535533905905
 31
0.0
  0
LINE
  5
31E
330
1F
100
AcDbEntity
  8
化粧台
  6
CONTINUOUS
 62
     6
100
AcDbLine
 10
796.5000000000001
 20
1395.499999999974
 30
0.0
 11
829.0000000000038
 21
1427.999999999971
 31
0.0
  0
LINE
  5
31F
330
1F
100
AcDbEntity
  8
化粧台
  6
CONTINUOUS
 62
     6
100
AcDbLine
 10
807.0355339059334
 20
1398.964466094037
 30
0.0
 11
822.0355339059353
 21
1413.964466094035
 31
0.0
  0
LINE
  5
320
330
1F
100
AcDbEntity
  8
化粧台
  6
CONTINUOUS
 62
     6
100
AcDbLine
 10
991.2144660940687
 20
1526.285533905902
 30
0.0
 11
978.4644660940687
 21
1513.535533905905
 31
0.0
  0
LINE
  5
321
330
1F
100
AcDbEntity
  8
化粧台
  6
CONTINUOUS
 62
     6
100
AcDbLine
 10
970.4999999999984
 20
1498.499999999974
 30
0.0
 11
1003.000000000002
 21
1530.999999999971
 31
0.0
  0
LINE
  5
322
330
1F
100
AcDbEntity
  8
化粧台
  6
CONTINUOUS
 62
     6
100
AcDbLine
 10
981.0355339059336
 20
1501.964466094037
 30
0.0
 11
996.0355339059354
 21
1516.964466094035
 31
0.0
  0
LINE
  5
323
330
1F
100
AcDbEntity
  8
化粧台
  6
CONTINUOUS
 62
     6
100
AcDbLine
 10
835.1106925091588
 20
1691.672326358702
 30
0.0
 11
822.3606925091588
 21
1678.922326358705
 31
0.0
  0
LINE
  5
324
330
1F
100
AcDbEntity
  8
化粧台
  6
CONTINUOUS
 62
     6
100
AcDbLine
 10
814.3962264150884
 20
1663.886792452774
 30
0.0
 11
846.8962264150921
 21
1696.386792452771
 31
0.0
  0
LINE
  5
325
330
1F
100
AcDbEntity
  8
化粧台
  6
CONTINUOUS
 62
     6
100
AcDbLine
 10
824.9317603210236
 20
1667.351258546837
 30
0.0
 11
839.9317603210254
 21
1682.351258546835
 31
0.0
  0
LINE
  5
326
330
1F
100
AcDbEntity
  8
化粧台
  6
CONTINUOUS
 62
     2
100
AcDbLine
 10
1376.0
 20
1792.0
 30
0.0
 11
1376.0
 21
1312.0
 31
0.0
  0
DIMENSION
  5
328
330
1F
100
AcDbEntity
  8
化粧台
  6
CONTINUOUS
 62
     3
100
AcDbDimension
  2
*D15
 10
1376.0
 20
1302.7
 30
0.0
 11
1556.0
 21
1326.199999940395
 31
0.0
 70
   160
  3
ISO-25
100
AcDbAlignedDimension
 13
1476.0
 23
1312.0
 33
0.0
 14
1376.0
 24
1312.0
 34
0.0
100
AcDbRotatedDimension
1001
ACAD
1000
DSTYLE
1002
{
1070
   270
1070
     2
1070
     6
1000
EX_NORM
1070
     7
1000
EX_NORM
1070
    41
1040
30.0
1070
    42
1040
6.99999988079071
1070
    44
1040
10.0
1070
    73
1070
     0
1070
    74
1070
     0
1070
    75
1070
     0
1070
    76
1070
     0
1070
    77
1070
     1
1070
    78
1070
     8
1070
   140
1040
40.0
1070
   147
1040
0.0
1070
   173
1070
     1
1070
   176
1070
     3
1070
   177
1070
     3
1070
   178
1070
     2
1070
   271
1070
     1
1070
   277
1070
     2
1070
   279
1070
     2
1070
   280
1070
     1
1070
   287
1070
     5
1070
   340
1005
327
1002
}
  0
DIMENSION
  5
336
330
1F
100
AcDbEntity
  8
化粧台
  6
CONTINUOUS
 62
     3
100
AcDbDimension
  2
*D16
 10
1376.0
 20
1243.3
 30
0.0
 11
1304.8
 21
1266.799999940395
 31
0.0
 70
   160
  3
ISO-25
100
AcDbAlignedDimension
 13
1374.8
 23
1297.0
 33
0.0
 14
1376.0
 24
1312.0
 34
0.0
100
AcDbRotatedDimension
1001
ACAD
1000
DSTYLE
1002
{
1070
   270
1070
     2
1070
     6
1000
EX_NORM
1070
     7
1000
EX_NORM
1070
    41
1040
30.0
1070
    42
1040
6.99999988079071
1070
    44
1040
10.0
1070
    73
1070
     0
1070
    74
1070
     0
1070
    75
1070
     0
1070
    76
1070
     0
1070
    77
1070
     1
1070
    78
1070
     8
1070
   140
1040
40.0
1070
   147
1040
0.0
1070
   173
1070
     1
1070
   176
1070
     3
1070
   177
1070
     3
1070
   178
1070
     2
1070
   271
1070
     1
1070
   277
1070
     2
1070
   279
1070
     2
1070
   280
1070
     1
1070
   287
1070
     5
1070
   340
1005
327
1002
}
  0
DIMENSION
  5
345
330
1F
100
AcDbEntity
  8
化粧台
  6
CONTINUOUS
 62
     3
100
AcDbDimension
  2
*D17
 10
1683.0
 20
1312.0
 30
0.0
 11
1659.500000059605
 21
1552.0
 31
0.0
 70
   160
  3
ISO-25
100
AcDbAlignedDimension
 13
1476.0
 23
1792.0
 33
0.0
 14
1476.0
 24
1312.0
 34
0.0
 50
90.0
100
AcDbRotatedDimension
1001
ACAD
1000
DSTYLE
1002
{
1070
   270
1070
     2
1070
     6
1000
EX_NORM
1070
     7
1000
EX_NORM
1070
    41
1040
30.0
1070
    42
1040
6.99999988079071
1070
    44
1040
10.0
1070
    73
1070
     0
1070
    74
1070
     0
1070
    75
1070
     0
1070
    76
1070
     0
1070
    77
1070
     1
1070
    78
1070
     8
1070
   140
1040
40.0
1070
   147
1040
0.0
1070
   173
1070
     1
1070
   176
1070
     3
1070
   177
1070
     3
1070
   178
1070
     2
1070
   271
1070
     1
1070
   277
1070
     2
1070
   279
1070
     2
1070
   280
1070
     0
1070
   287
1070
     5
1070
   340
1005
327
1002
}
  0
DIMENSION
  5
352
330
1F
100
AcDbEntity
  8
寸法
  6
CONTINUOUS
 62
     3
100
AcDbDimension
  2
*D18
 10
1125.0
 20
1912.0
 30
0.0
 11
900.0000000000001
 21
1935.499999940395
 31
0.0
 70
   160
  3
ISO-25
100
AcDbAlignedDimension
 13
674.9999999999999
 23
1797.0
 33
0.0
 14
1125.0
 24
1797.0
 34
0.0
100
AcDbRotatedDimension
1001
ACAD
1000
DSTYLE
1002
{
1070
   270
1070
     2
1070
     6
1000
EX_NORM
1070
     7
1000
EX_NORM
1070
    41
1040
30.0
1070
    42
1040
6.999999880790938
1070
    44
1040
10.0
1070
    73
1070
     0
1070
    74
1070
     0
1070
    75
1070
     0
1070
    76
1070
     0
1070
    77
1070
     1
1070
    78
1070
     8
1070
   140
1040
40.0
1070
   147
1040
0.0
1070
   173
1070
     1
1070
   176
1070
     3
1070
   177
1070
     3
1070
   178
1070
     2
1070
   271
1070
     2
1070
   277
1070
     2
1070
   279
1070
     2
1070
   280
1070
     0
1070
   287
1070
     5
1070
   340
1005
327
1002
}
  0
DIMENSION
  5
35F
330
1F
100
AcDbEntity
  8
寸法
  6
CONTINUOUS
 62
     3
100
AcDbDimension
  2
*D19
 10
1476.0
 20
1852.0
 30
0.0
 11
1415.4
 21
1875.499999940395
 31
0.0
 70
   160
  1
122
  3
ISO-25
100
AcDbAlignedDimension
 13
1354.8
 23
1798.2
 33
0.0
 14
1476.0
 24
1792.0
 34
0.0
100
AcDbRotatedDimension
1001
ACAD
1000
DSTYLE
1002
{
1070
   270
1070
     2
1070
     6
1000
EX_NORM
1070
     7
1000
EX_NORM
1070
    41
1040
30.0
1070
    42
1040
6.999999880790938
1070
    44
1040
10.0
1070
    73
1070
     0
1070
    74
1070
     0
1070
    75
1070
     0
1070
    76
1070
     0
1070
    77
1070
     1
1070
    78
1070
     8
1070
   140
1040
40.0
1070
   147
1040
0.0
1070
   173
1070
     1
1070
   176
1070
     3
1070
   177
1070
     3
1070
   178
1070
     2
1070
   271
1070
     2
1070
   277
1070
     2
1070
   279
1070
     2
1070
   280
1070
     0
1070
   287
1070
     5
1070
   340
1005
327
1002
}
  0
DIMENSION
  5
36C
330
1F
100
AcDbEntity
  8
寸法
  6
CONTINUOUS
 62
     3
100
AcDbDimension
  2
*D20
 10
1209.0
 20
1798.2
 30
0.0
 11
1185.500000059605
 21
1547.0
 31
0.0
 70
   160
  1
503
  3
ISO-25
100
AcDbAlignedDimension
 13
1123.5
 23
1295.8
 33
0.0
 14
1123.5
 24
1798.2
 34
0.0
 50
90.0
100
AcDbRotatedDimension
1001
ACAD
1000
DSTYLE
1002
{
1070
   270
1070
     2
1070
     6
1000
EX_NORM
1070
     7
1000
EX_NORM
1070
    41
1040
30.0
1070
    42
1040
6.99999988079071
1070
    44
1040
10.0
1070
    73
1070
     0
1070
    74
1070
     0
1070
    75
1070
     0
1070
    76
1070
     0
1070
    77
1070
     1
1070
    78
1070
     8
1070
   140
1040
40.0
1070
   147
1040
0.0
1070
   173
1070
     1
1070
   176
1070
     3
1070
   177
1070
     3
1070
   178
1070
     2
1070
   271
1070
     2
1070
   277
1070
     2
1070
   279
1070
     2
1070
   280
1070
     0
1070
   287
1070
     5
1070
   340
1005
327
1002
}
  0
DIMENSION
  5
379
330
1F
100
AcDbEntity
  8
寸法
  6
CONTINUOUS
 62
     3
100
AcDbDimension
  2
*D21
 10
1569.0
 20
1742.0
 30
0.0
 11
1545.500000059605
 21
1552.0
 31
0.0
 70
   160
  1
<>（壁固定）
  3
ISO-25
100
AcDbAlignedDimension
 13
1509.2
 23
1362.0
 33
0.0
 14
1509.2
 24
1742.0
 34
0.0
 50
90.0
100
AcDbRotatedDimension
1001
ACAD
1000
DSTYLE
1002
{
1070
   270
1070
     2
1070
     6
1000
EX_NORM
1070
     7
1000
EX_NORM
1070
    41
1040
30.0
1070
    42
1040
6.99999988079071
1070
    44
1040
10.0
1070
    73
1070
     0
1070
    74
1070
     0
1070
    75
1070
     0
1070
    76
1070
     0
1070
    77
1070
     1
1070
    78
1070
     8
1070
   140
1040
40.0
1070
   147
1040
0.0
1070
   173
1070
     1
1070
   176
1070
     3
1070
   177
1070
     3
1070
   178
1070
     2
1070
   271
1070
     2
1070
   277
1070
     2
1070
   279
1070
     2
1070
   280
1070
     0
1070
   287
1070
     5
1070
   340
1005
327
1002
}
  0
DIMENSION
  5
386
330
1F
100
AcDbEntity
  8
寸法
  6
CONTINUOUS
 62
     3
100
AcDbDimension
  2
*D22
 10
1569.0
 20
1798.2
 30
0.0
 11
1545.500000059605
 21
1770.1
 31
0.0
 70
   160
  1
56
  3
ISO-25
100
AcDbAlignedDimension
 13
1509.2
 23
1742.0
 33
0.0
 14
1374.8
 24
1798.2
 34
0.0
 50
90.0
100
AcDbRotatedDimension
1001
ACAD
1000
DSTYLE
1002
{
1070
   270
1070
     2
1070
     6
1000
EX_NORM
1070
     7
1000
EX_NORM
1070
    41
1040
30.0
1070
    42
1040
6.99999988079071
1070
    44
1040
10.0
1070
    73
1070
     0
1070
    74
1070
     0
1070
    75
1070
     0
1070
    76
1070
     0
1070
    77
1070
     1
1070
    78
1070
     8
1070
   140
1040
40.0
1070
   147
1040
0.0
1070
   173
1070
     1
1070
   176
1070
     3
1070
   177
1070
     3
1070
   178
1070
     2
1070
   271
1070
     2
1070
   277
1070
     2
1070
   279
1070
     2
1070
   280
1070
     0
1070
   287
1070
     5
1070
   340
1005
327
1002
}
  0
DIMENSION
  5
395
330
1F
100
AcDbEntity
  8
寸法
  6
CONTINUOUS
 62
     3
100
AcDbDimension
  2
*D23
 10
1050.0
 20
1852.0
 30
0.0
 11
900.0
 21
1875.499999940395
 31
0.0
 70
   160
  1
<>（壁固定）
  3
ISO-25
100
AcDbAlignedDimension
 13
750.0000000000001
 23
1750.0
 33
0.0
 14
1050.0
 24
1750.0
 34
0.0
100
AcDbRotatedDimension
1001
ACAD
1000
DSTYLE
1002
{
1070
   270
1070
     2
1070
     6
1000
EX_NORM
1070
     7
1000
EX_NORM
1070
    41
1040
30.0
1070
    42
1040
6.99999988079071
1070
    44
1040
10.0
1070
    73
1070
     0
1070
    74
1070
     0
1070
    75
1070
     0
1070
    76
1070
     0
1070
    77
1070
     1
1070
    78
1070
     8
1070
   140
1040
40.0
1070
   147
1040
0.0
1070
   173
1070
     1
1070
   176
1070
     3
1070
   177
1070
     3
1070
   178
1070
     2
1070
   271
1070
     2
1070
   277
1070
     2
1070
   279
1070
     2
1070
   280
1070
     0
1070
   287
1070
     5
1070
   340
1005
327
1002
}
  0
LINE
  5
3A2
330
1F
100
AcDbEntity
  8
寸法
  6
EXLTYPE2
 62
     6
100
AcDbLine
 10
691.0
 20
1609.0
 30
0.0
 11
691.0
 21
1569.0
 31
0.0
  0
LINE
  5
3A3
330
1F
100
AcDbEntity
  8
寸法
  6
EXLTYPE2
 62
     6
100
AcDbLine
 10
1109.0
 20
1609.0
 30
0.0
 11
1109.0
 21
1569.0
 31
0.0
  0
LINE
  5
3A4
330
1F
100
AcDbEntity
  8
寸法
  6
EXLTYPE2
 62
     6
100
AcDbLine
 10
1109.0
 20
1609.0
 30
0.0
 11
691.0
 21
1609.0
 31
0.0
  0
LINE
  5
3A5
330
1F
100
AcDbEntity
  8
寸法
  6
EXLTYPE2
 62
     6
100
AcDbLine
 10
1109.0
 20
1569.0
 30
0.0
 11
691.0
 21
1569.0
 31
0.0
  0
LINE
  5
3A6
330
1F
100
AcDbEntity
  8
寸法
  6
EXLTYPE2
 62
     6
100
AcDbLine
 10
691.0
 20
1369.0
 30
0.0
 11
691.0
 21
1329.0
 31
0.0
  0
LINE
  5
3A7
330
1F
100
AcDbEntity
  8
寸法
  6
EXLTYPE2
 62
     6
100
AcDbLine
 10
1109.0
 20
1369.0
 30
0.0
 11
1109.0
 21
1329.0
 31
0.0
  0
LINE
  5
3A8
330
1F
100
AcDbEntity
  8
寸法
  6
EXLTYPE2
 62
     6
100
AcDbLine
 10
1109.0
 20
1369.0
 30
0.0
 11
691.0
 21
1369.0
 31
0.0
  0
LINE
  5
3A9
330
1F
100
AcDbEntity
  8
寸法
  6
EXLTYPE2
 62
     6
100
AcDbLine
 10
1109.0
 20
1329.0
 30
0.0
 11
691.0
 21
1329.0
 31
0.0
  0
DIMENSION
  5
3AA
330
1F
100
AcDbEntity
  8
寸法
  6
CONTINUOUS
 62
     3
100
AcDbDimension
  2
*D24
 10
1461.0
 20
1248.0
 30
0.0
 11
1418.5
 21
1271.499999940395
 31
0.0
 70
   160
  3
ISO-25
100
AcDbAlignedDimension
 13
1376.0
 23
1524.0
 33
0.0
 14
1461.0
 24
1524.0
 34
0.0
100
AcDbRotatedDimension
1001
ACAD
1000
DSTYLE
1002
{
1070
   270
1070
     2
1070
     6
1000
EX_NORM
1070
     7
1000
EX_NORM
1070
    41
1040
30.0
1070
    42
1040
217.4000000000001
1070
    44
1040
10.0
1070
    73
1070
     0
1070
    74
1070
     0
1070
    75
1070
     0
1070
    76
1070
     0
1070
    77
1070
     1
1070
    78
1070
     8
1070
   140
1040
40.0
1070
   147
1040
0.0
1070
   173
1070
     1
1070
   176
1070
     3
1070
   177
1070
     3
1070
   178
1070
     2
1070
   271
1070
     2
1070
   277
1070
     2
1070
   279
1070
     2
1070
   280
1070
     0
1070
   287
1070
     5
1070
   340
1005
327
1002
}
  0
LINE
  5
3B7
330
1F
100
AcDbEntity
  8
寸法
  6
EXLTYPE2
 62
     6
100
AcDbLine
 10
1382.5
 20
1331.5
 30
0.0
 11
1461.0
 21
1331.5
 31
0.0
  0
LINE
  5
3B8
330
1F
100
AcDbEntity
  8
寸法
  6
EXLTYPE2
 62
     6
100
AcDbLine
 10
1377.0
 20
1776.0
 30
0.0
 11
1461.0
 21
1776.0
 31
0.0
  0
LINE
  5
3B9
330
1F
100
AcDbEntity
  8
寸法
  6
EXLTYPE2
 62
     6
100
AcDbLine
 10
690.0000000000001
 20
1791.0
 30
0.0
 11
690.0000000000002
 21
1312.0
 31
0.0
  0
LINE
  5
3BA
330
1F
100
AcDbEntity
  8
寸法
  6
EXLTYPE2
 62
     6
100
AcDbLine
 10
1110.0
 20
1791.0
 30
0.0
 11
1110.0
 21
1312.0
 31
0.0
  0
DIMENSION
  5
3BB
330
1F
100
AcDbEntity
  8
寸法
  6
CONTINUOUS
 62
     3
100
AcDbDimension
  2
*D25
 10
1110.0
 20
1509.0
 30
0.0
 11
900.0000000000001
 21
1532.499999940395
 31
0.0
 70
   160
  3
ISO-25
100
AcDbAlignedDimension
 13
690.0
 23
1791.0
 33
0.0
 14
1110.0
 24
1791.0
 34
0.0
100
AcDbRotatedDimension
1001
ACAD
1000
DSTYLE
1002
{
1070
   270
1070
     2
1070
     6
1000
EX_NORM
1070
     7
1000
EX_NORM
1070
    41
1040
30.0
1070
    42
1040
0.0
1070
    44
1040
0.0
1070
    73
1070
     0
1070
    74
1070
     0
1070
    75
1070
     1
1070
    76
1070
     1
1070
    77
1070
     1
1070
    78
1070
     8
1070
   140
1040
40.0
1070
   147
1040
0.0
1070
   173
1070
     1
1070
   176
1070
     3
1070
   177
1070
     3
1070
   178
1070
     2
1070
   271
1070
     2
1070
   277
1070
     2
1070
   279
1070
     2
1070
   280
1070
     0
1070
   287
1070
     5
1070
   340
1005
327
1002
}
  0
DIMENSION
  5
3C6
330
1F
100
AcDbEntity
  8
寸法
  6
CONTINUOUS
 62
     3
100
AcDbDimension
  2
*D26
 10
1428.0
 20
1776.0
 30
0.0
 11
1404.500000059605
 21
1681.25
 31
0.0
 70
   160
  1
（188）
  3
ISO-25
100
AcDbAlignedDimension
 13
1382.5
 23
1586.5
 33
0.0
 14
1398.0
 24
1776.0
 34
0.0
 50
90.0
100
AcDbRotatedDimension
1001
ACAD
1000
DSTYLE
1002
{
1070
   270
1070
     2
1070
     6
1000
EX_NORM
1070
     7
1000
EX_NORM
1070
    41
1040
30.0
1070
    42
1040
0.0
1070
    44
1040
0.0
1070
    73
1070
     0
1070
    74
1070
     0
1070
    75
1070
     1
1070
    76
1070
     1
1070
    77
1070
     1
1070
    78
1070
     8
1070
   140
1040
40.0
1070
   147
1040
0.0
1070
   173
1070
     1
1070
   176
1070
     3
1070
   177
1070
     3
1070
   178
1070
     2
1070
   271
1070
     2
1070
   277
1070
     2
1070
   279
1070
     2
1070
   280
1070
     0
1070
   287
1070
     5
1070
   340
1005
327
1002
}
  0
LINE
  5
3D1
330
1F
100
AcDbEntity
  8
寸法
  6
EXLTYPE2
 62
     6
100
AcDbLine
 10
1461.0
 20
1776.0
 30
0.0
 11
1461.0
 21
1331.5
 31
0.0
  0
DIMENSION
  5
3D2
330
1F
100
AcDbEntity
  8
寸法
  6
CONTINUOUS
 62
     3
100
AcDbDimension
  2
*D27
 10
1429.0
 20
1584.0
 30
0.0
 11
1405.500000059605
 21
1465.25
 31
0.0
 70
   160
  1
（236）
  3
ISO-25
100
AcDbAlignedDimension
 13
1429.0
 23
1346.5
 33
0.0
 14
1428.3
 24
1584.0
 34
0.0
 50
90.0
100
AcDbRotatedDimension
1001
ACAD
1000
DSTYLE
1002
{
1070
   270
1070
     2
1070
     6
1000
EX_NORM
1070
     7
1000
EX_NORM
1070
    41
1040
30.0
1070
    42
1040
0.0
1070
    44
1040
0.0
1070
    73
1070
     0
1070
    74
1070
     0
1070
    75
1070
     1
1070
    76
1070
     0
1070
    77
1070
     1
1070
    78
1070
     8
1070
   140
1040
40.0
1070
   147
1040
0.0
1070
   173
1070
     1
1070
   176
1070
     3
1070
   177
1070
     3
1070
   178
1070
     2
1070
   271
1070
     2
1070
   277
1070
     2
1070
   279
1070
     2
1070
   280
1070
     0
1070
   287
1070
     5
1070
   340
1005
327
1002
}
  0
ENDSEC
  0
SECTION
  2
OBJECTS
  0
DICTIONARY
  5
C
330
0
100
AcDbDictionary
  3
ACAD_GROUP
350
D
  3
ACAD_LAYOUT
350
1A
  3
ACAD_MATERIAL
350
3B
  3
ACAD_MLEADERSTYLE
350
400
  3
ACAD_MLINESTYLE
350
17
  3
ACAD_PLOTSETTINGS
350
19
  3
ACAD_VISUALSTYLE
350
2A
  3
ACDBHEADERROUNDTRIPXREC
350
3DE
  3
ACDBVARIABLEDICTIONARY
350
3FE
  0
DICTIONARY
  5
D
102
{ACAD_REACTORS
330
C
102
}
330
C
100
AcDbDictionary
  0
DICTIONARY
  5
1A
102
{ACAD_REACTORS
330
C
102
}
330
C
100
AcDbDictionary
  0
DICTIONARY
  5
3B
102
{ACAD_REACTORS
330
C
102
}
330
C
100
AcDbDictionary
  3
BYBLOCK
350
3D
  3
BYLAYER
350
3C
  3
GLOBAL
350
3E
  0
DICTIONARY
  5
400
102
{ACAD_REACTORS
330
C
102
}
330
C
100
AcDbDictionary
  0
DICTIONARY
  5
17
102
{ACAD_REACTORS
330
C
102
}
330
C
100
AcDbDictionary
  3
STANDARD
350
18
  0
DICTIONARY
  5
19
102
{ACAD_REACTORS
330
C
102
}
330
C
100
AcDbDictionary
  0
DICTIONARY
  5
2A
102
{ACAD_REACTORS
330
C
102
}
330
C
100
AcDbDictionary
  3
2DWIREFRAME
350
2F
  3
3D_HIDDEN
350
31
  3
3DWIREFRAME
350
30
  3
BASIC
350
32
  3
BRIGHTEN
350
36
  3
COLORCHANGE
350
3A
  3
CONCEPTUAL
350
34
  3
DIM
350
35
  3
FACEPATTERN
350
39
  3
FLAT
350
2B
  3
FLATWITHEDGES
350
2C
  3
GOURAUD
350
2D
  3
GOURAUDWITHEDGES
350
2E
  3
LINEPATTERN
350
38
  3
REALISTIC
350
33
  3
THICKEN
350
37
  0
DICTIONARY
  5
3DE
102
{ACAD_REACTORS
330
C
102
}
330
C
100
AcDbDictionary
  3
CEPSNTYPE
350
3E7
  3
DIMSTYLEDATA
350
3FD
  3
FINGERPRINTGUID
350
3E8
  3
HYPERLINKBASE
350
3E1
  3
INSUNITS
350
3E6
  3
LAYOUTDICT
350
3E3
  3
LWETCUNION
350
3E5
  3
PLOTSETDICT
350
3E4
  3
PSVPSCALE
350
3EA
  3
PUCSBASE
350
3ED
  3
PUCSORGBACK
350
3F3
  3
PUCSORGBOTTOM
350
3EF
  3
PUCSORGFRONT
350
3F2
  3
PUCSORGLEFT
350
3F0
  3
PUCSORGRIGHT
350
3F1
  3
PUCSORGTOP
350
3EE
  3
PUCSORTHOREF
350
3EB
  3
PUCSORTHOVIEW
350
3EC
  3
STYLESHEET
350
3E2
  3
TSTACKALIGN
350
3DF
  3
TSTACKSIZE
350
3E0
  3
UCSBASE
350
3F6
  3
UCSORGBACK
350
3FC
  3
UCSORGBOTTOM
350
3F8
  3
UCSORGFRONT
350
3FB
  3
UCSORGLEFT
350
3F9
  3
UCSORGRIGHT
350
3FA
  3
UCSORGTOP
350
3F7
  3
UCSORTHOREF
350
3F4
  3
UCSORTHOVIEW
350
3F5
  3
VERSIONGUID
350
3E9
  0
DICTIONARY
  5
3FE
102
{ACAD_REACTORS
330
C
102
}
330
C
100
AcDbDictionary
  3
DIMASSOC
350
403
  3
HIDETEXT
350
404
  3
PSOLHEIGHT
350
402
  3
PSOLWIDTH
350
401
  0
MATERIAL
  5
3D
102
{ACAD_REACTORS
330
3B
102
}
102
{ACAD_XDICTIONARY
360
407
102
}
330
3B
100
AcDbMaterial
  1
ByBlock
  0
MATERIAL
  5
3C
102
{ACAD_REACTORS
330
3B
102
}
102
{ACAD_XDICTIONARY
360
405
102
}
330
3B
100
AcDbMaterial
  1
ByLayer
  0
MATERIAL
  5
3E
102
{ACAD_REACTORS
330
3B
102
}
102
{ACAD_XDICTIONARY
360
409
102
}
330
3B
100
AcDbMaterial
  1
Global
  0
MLINESTYLE
  5
18
102
{ACAD_REACTORS
330
17
102
}
330
17
100
AcDbMlineStyle
  2
Standard
 70
     0
  3

 62
   256
 51
90.0
 52
90.0
 71
     2
 49
0.5
 62
   256
  6
BYLAYER
 49
-0.5
 62
   256
  6
BYLAYER
  0
ACAD_PROXY_OBJECT
  5
2F
102
{ACAD_REACTORS
330
2A
102
}
330
2A
100
AcDbProxyObject
 90
      499
 91
      501
 93
      436
310
42CC9915DA5C99599C985B595049028333333333333E3BF0000000000000FB0107901411070040501600405405064090741402480A0340
1001
ACAD
1000
AcDbSavedByObjectVersion
1070
     0
  0
ACAD_PROXY_OBJECT
  5
31
102
{ACAD_REACTORS
330
2A
102
}
330
2A
100
AcDbProxyObject
 90
      499
 91
      501
 93
      500
310
424CD108121A5919195B90640502408333333333333E3BF0000000000000FB01079024090700405020000000000001110200405405064090740C02480A0340
1001
ACAD
1000
AcDbSavedByObjectVersion
1070
     0
  0
ACAD_PROXY_OBJECT
  5
30
102
{ACAD_REACTORS
330
2A
102
}
330
2A
100
AcDbProxyObject
 90
      499
 91
      501
 93
      436
310
42CCD915DA5C99599C985B595059028333333333333E3BF0000000000000FB0107901411070040501600405405064090741402480A0340
1001
ACAD
1000
AcDbSavedByObjectVersion
1070
     0
  0
ACAD_PROXY_OBJECT
  5
32
102
{ACAD_REACTORS
330
2A
102
}
330
2A
100
AcDbProxyObject
 90
      499
 91
      501
 93
      388
310
4150985CDA58D07406404333333333333E3BF0000000000000FB0107A41107004050150841D405064090741402480A0350
1001
ACAD
1000
AcDbSavedByObjectVersion
1070
     0
  0
ACAD_PROXY_OBJECT
  5
36
102
{ACAD_REACTORS
330
2A
102
}
330
2A
100
AcDbProxyObject
 90
      499
 91
      501
 93
      428
310
42109C9A59DA1D195B90C409028333333333333E3BF0000000000000FB010790141107004050150841D405064090741402480A029950
1001
ACAD
1000
AcDbSavedByObjectVersion
1070
     0
  0
ACAD_PROXY_OBJECT
  5
3A
102
{ACAD_REACTORS
330
2A
102
}
330
2A
100
AcDbProxyObject
 90
      499
 91
      501
 93
      452
310
42D0DBDB1BDC90DA185B99D95104090240C333333333333E3BF0000000000000FB0108901411070040501508421405064090741402480A0350
1001
ACAD
1000
AcDbSavedByObjectVersion
1070
     0
  0
ACAD_PROXY_OBJECT
  5
34
102
{ACAD_REACTORS
330
2A
102
}
330
2A
100
AcDbProxyObject
 90
      499
 91
      501
 93
      500
310
4290DBDB98D95C1D1D585B10940D028333333333333E3BF0000000000000FB0107902409070040501000000000000111010841D405064090740C02480A0340
1001
ACAD
1000
AcDbSavedByObjectVersion
1070
     0
  0
ACAD_PROXY_OBJECT
  5
35
102
{ACAD_REACTORS
330
2A
102
}
330
2A
100
AcDbProxyObject
 90
      499
 91
      501
 93
      412
310
40D11A5B50B409028333333333333E3BF0000000000000FB010790141107004050150841D405064090741402480A02677FFFFFD0
1001
ACAD
1000
AcDbSavedByObjectVersion
1070
     0
  0
ACAD_PROXY_OBJECT
  5
39
102
{ACAD_REACTORS
330
2A
102
}
330
2A
100
AcDbProxyObject
 90
      499
 91
      501
 93
      444
310
42D19858D95C185D1D195C9B90F409028333333333333E3BF0000000000000FB010790141107004050150841D405064090741402480A0350
1001
ACAD
1000
AcDbSavedByObjectVersion
1070
     0
  0
ACAD_PROXY_OBJECT
  5
2B
102
{ACAD_REACTORS
330
2A
102
}
330
2A
100
AcDbProxyObject
 90
      499
 91
      501
 93
      388
310
41119B185D240901404333333333333E3BF0000000000000F9010740A41107004050150841D405064090741402480A1B50
1001
ACAD
1000
AcDbSavedByObjectVersion
1070
     0
  0
ACAD_PROXY_OBJECT
  5
2C
102
{ACAD_REACTORS
330
2A
102
}
330
2A
100
AcDbProxyObject
 90
      499
 91
      501
 93
      476
310
43519B185D15DA5D1A115919D95CD0140901404333333333333E3BF0000000000000F9010740901411070040501600405405064090741402480A1B50
1001
ACAD
1000
AcDbSavedByObjectVersion
1070
     0
  0
ACAD_PROXY_OBJECT
  5
2D
102
{ACAD_REACTORS
330
2A
102
}
330
2A
100
AcDbProxyObject
 90
      499
 91
      501
 93
      412
310
41D1DBDD5C985D5910240902404333333333333E3BF0000000000000F9010740A411070040501641D405064090741402480A1B50
1001
ACAD
1000
AcDbSavedByObjectVersion
1070
     0
  0
ACAD_PROXY_OBJECT
  5
2E
102
{ACAD_REACTORS
330
2A
102
}
330
2A
100
AcDbProxyObject
 90
      499
 91
      501
 93
      500
310
4411DBDD5C985D5915DA5D1A115919D95CD0340902404333333333333E3BF0000000000000F9010740901411070040501600405405064090741402480A1B50
1001
ACAD
1000
AcDbSavedByObjectVersion
1070
     0
  0
ACAD_PROXY_OBJECT
  5
38
102
{ACAD_REACTORS
330
2A
102
}
330
2A
100
AcDbProxyObject
 90
      499
 91
      501
 93
      444
310
42D31A5B995C185D1D195C9B90E409028333333333333E3BF0000000000000FB010790141107004050750841D405064090741402483A0350
1001
ACAD
1000
AcDbSavedByObjectVersion
1070
     0
  0
ACAD_PROXY_OBJECT
  5
33
102
{ACAD_REACTORS
330
2A
102
}
330
2A
100
AcDbProxyObject
 90
      499
 91
      501
 93
      420
310
425499585B1A5CDD1A58D08409028333333333333E3BF0000000000000FB01079019070040501508421405064090741402480A1B40
1001
ACAD
1000
AcDbSavedByObjectVersion
1070
     0
  0
ACAD_PROXY_OBJECT
  5
37
102
{ACAD_REACTORS
330
2A
102
}
330
2A
100
AcDbProxyObject
 90
      499
 91
      501
 93
      412
310
41D51A1A58DAD95B90D409028333333333333E3BF0000000000000FB010790141107004050150C41D405064090741402480A0350
1001
ACAD
1000
AcDbSavedByObjectVersion
1070
     0
  0
XRECORD
  5
3E7
102
{ACAD_REACTORS
330
3DE
102
}
330
3DE
100
AcDbXrecord
 90
        0
  0
XRECORD
  5
3FD
102
{ACAD_REACTORS
330
3DE
102
}
330
3DE
100
AcDbXrecord
1000
DSTYLE
1002
{
1070
   340
340
11
1002
}
  0
XRECORD
  5
3E8
102
{ACAD_REACTORS
330
3DE
102
}
330
3DE
100
AcDbXrecord
  1
{3D58018D-F1CD-4618-A6E5-991DCFC3C849}
  0
XRECORD
  5
3E1
102
{ACAD_REACTORS
330
3DE
102
}
330
3DE
100
AcDbXrecord
  1

  0
XRECORD
  5
3E6
102
{ACAD_REACTORS
330
3DE
102
}
330
3DE
100
AcDbXrecord
 90
        4
  0
XRECORD
  5
3E3
102
{ACAD_REACTORS
330
3DE
102
}
330
3DE
100
AcDbXrecord
340
1A
  0
XRECORD
  5
3E5
102
{ACAD_REACTORS
330
3DE
102
}
330
3DE
100
AcDbXrecord
 90
    10781
  0
XRECORD
  5
3E4
102
{ACAD_REACTORS
330
3DE
102
}
330
3DE
100
AcDbXrecord
340
19
  0
XRECORD
  5
3EA
102
{ACAD_REACTORS
330
3DE
102
}
330
3DE
100
AcDbXrecord
 40
0.0
  0
XRECORD
  5
3ED
102
{ACAD_REACTORS
330
3DE
102
}
330
3DE
100
AcDbXrecord
340
0
  0
XRECORD
  5
3F3
102
{ACAD_REACTORS
330
3DE
102
}
330
3DE
100
AcDbXrecord
 10
0.0
 20
0.0
 30
0.0
  0
XRECORD
  5
3EF
102
{ACAD_REACTORS
330
3DE
102
}
330
3DE
100
AcDbXrecord
 10
0.0
 20
0.0
 30
0.0
  0
XRECORD
  5
3F2
102
{ACAD_REACTORS
330
3DE
102
}
330
3DE
100
AcDbXrecord
 10
0.0
 20
0.0
 30
0.0
  0
XRECORD
  5
3F0
102
{ACAD_REACTORS
330
3DE
102
}
330
3DE
100
AcDbXrecord
 10
0.0
 20
0.0
 30
0.0
  0
XRECORD
  5
3F1
102
{ACAD_REACTORS
330
3DE
102
}
330
3DE
100
AcDbXrecord
 10
0.0
 20
0.0
 30
0.0
  0
XRECORD
  5
3EE
102
{ACAD_REACTORS
330
3DE
102
}
330
3DE
100
AcDbXrecord
 10
0.0
 20
0.0
 30
0.0
  0
XRECORD
  5
3EB
102
{ACAD_REACTORS
330
3DE
102
}
330
3DE
100
AcDbXrecord
340
0
  0
XRECORD
  5
3EC
102
{ACAD_REACTORS
330
3DE
102
}
330
3DE
100
AcDbXrecord
 70
     0
  0
XRECORD
  5
3E2
102
{ACAD_REACTORS
330
3DE
102
}
330
3DE
100
AcDbXrecord
  1

  0
XRECORD
  5
3DF
102
{ACAD_REACTORS
330
3DE
102
}
330
3DE
100
AcDbXrecord
 90
        1
  0
XRECORD
  5
3E0
102
{ACAD_REACTORS
330
3DE
102
}
330
3DE
100
AcDbXrecord
 90
       70
  0
XRECORD
  5
3F6
102
{ACAD_REACTORS
330
3DE
102
}
330
3DE
100
AcDbXrecord
340
0
  0
XRECORD
  5
3FC
102
{ACAD_REACTORS
330
3DE
102
}
330
3DE
100
AcDbXrecord
 10
0.0
 20
0.0
 30
0.0
  0
XRECORD
  5
3F8
102
{ACAD_REACTORS
330
3DE
102
}
330
3DE
100
AcDbXrecord
 10
0.0
 20
0.0
 30
0.0
  0
XRECORD
  5
3FB
102
{ACAD_REACTORS
330
3DE
102
}
330
3DE
100
AcDbXrecord
 10
0.0
 20
0.0
 30
0.0
  0
XRECORD
  5
3F9
102
{ACAD_REACTORS
330
3DE
102
}
330
3DE
100
AcDbXrecord
 10
0.0
 20
0.0
 30
0.0
  0
XRECORD
  5
3FA
102
{ACAD_REACTORS
330
3DE
102
}
330
3DE
100
AcDbXrecord
 10
0.0
 20
0.0
 30
0.0
  0
XRECORD
  5
3F7
102
{ACAD_REACTORS
330
3DE
102
}
330
3DE
100
AcDbXrecord
 10
0.0
 20
0.0
 30
0.0
  0
XRECORD
  5
3F4
102
{ACAD_REACTORS
330
3DE
102
}
330
3DE
100
AcDbXrecord
340
0
  0
XRECORD
  5
3F5
102
{ACAD_REACTORS
330
3DE
102
}
330
3DE
100
AcDbXrecord
 70
     0
  0
XRECORD
  5
3E9
102
{ACAD_REACTORS
330
3DE
102
}
330
3DE
100
AcDbXrecord
  1
{FAEB1C32-E019-11D5-929B-00C0DF256EC4}
  0
DICTIONARYVAR
  5
403
102
{ACAD_REACTORS
330
3FE
102
}
330
3FE
100
DictionaryVariables
280
     0
  1
2
  0
DICTIONARYVAR
  5
404
102
{ACAD_REACTORS
330
3FE
102
}
330
3FE
100
DictionaryVariables
280
     0
  1
1
  0
DICTIONARYVAR
  5
402
102
{ACAD_REACTORS
330
3FE
102
}
330
3FE
100
DictionaryVariables
280
     0
  1
80.000000
  0
DICTIONARYVAR
  5
401
102
{ACAD_REACTORS
330
3FE
102
}
330
3FE
100
DictionaryVariables
280
     0
  1
5.000000
  0
DICTIONARY
  5
407
330
3D
100
AcDbDictionary
280
     1
  3
ACAD_XREC_ROUNDTRIP
360
408
  0
DICTIONARY
  5
405
330
3C
100
AcDbDictionary
280
     1
  3
ACAD_XREC_ROUNDTRIP
360
406
  0
DICTIONARY
  5
409
330
3E
100
AcDbDictionary
280
     1
  3
ACAD_XREC_ROUNDTRIP
360
40A
  0
XRECORD
  5
408
102
{ACAD_REACTORS
330
407
102
}
330
407
100
AcDbXrecord
102
MATERIAL
148
0.0
149
0.0
149
0.0
 93
        0
 94
      127
282
     0
 72
     1
 77
     1
171
     1
175
     1
179
     1
273
     0
  0
XRECORD
  5
406
102
{ACAD_REACTORS
330
405
102
}
330
405
100
AcDbXrecord
102
MATERIAL
148
0.0
149
0.0
149
0.0
 93
        0
 94
      127
282
     0
 72
     1
 77
     1
171
     1
175
     1
179
     1
273
     0
  0
XRECORD
  5
40A
102
{ACAD_REACTORS
330
409
102
}
330
409
100
AcDbXrecord
102
MATERIAL
148
0.0
149
0.0
149
0.0
 93
        0
 94
      127
282
     0
 72
     1
 77
     1
171
     1
175
     1
179
     1
273
     0
  0
ENDSEC
  0
EOF
