  0
SECTION
  2
HEADER
  9
$ACADVER
  1
AC1014
  9
$ACADMAINTVER
 70
     9
  9
$DWGCODEPAGE
  3
ANSI_932
  9
$INSBASE
 10
0.0
 20
0.0
 30
0.0
  9
$EXTMIN
 10
-220.15
 20
9.299999999999955
 30
0.0
  9
$EXTMAX
 10
200.2999999999071
 20
289.3
 30
0.0
  9
$LIMMIN
 10
0.0
 20
0.0
  9
$LIMMAX
 10
210.0
 20
297.0
  9
$ORTHOMODE
 70
     0
  9
$REGENMODE
 70
     1
  9
$FILLMODE
 70
     1
  9
$QTEXTMODE
 70
     0
  9
$MIRRTEXT
 70
     1
  9
$DRAGMODE
 70
     2
  9
$LTSCALE
 40
1.0
  9
$OSMODE
 70
    37
  9
$ATTMODE
 70
     1
  9
$TEXTSIZE
 40
2.5
  9
$TRACEWID
 40
1.0
  9
$TEXTSTYLE
  7
STANDARD
  9
$CLAYER
  8
化粧台
  9
$CELTYPE
  6
BYLAYER
  9
$CECOLOR
 62
   256
  9
$CELTSCALE
 40
1.0
  9
$DELOBJ
 70
     1
  9
$DISPSILH
 70
     0
  9
$DIMSCALE
 40
1.0
  9
$DIMASZ
 40
2.5
  9
$DIMEXO
 40
0.625
  9
$DIMDLI
 40
3.75
  9
$DIMRND
 40
0.0
  9
$DIMDLE
 40
0.0
  9
$DIMEXE
 40
1.25
  9
$DIMTP
 40
0.0
  9
$DIMTM
 40
0.0
  9
$DIMTXT
 40
2.5
  9
$DIMCEN
 40
2.5
  9
$DIMTSZ
 40
0.0
  9
$DIMTOL
 70
     0
  9
$DIMLIM
 70
     0
  9
$DIMTIH
 70
     0
  9
$DIMTOH
 70
     0
  9
$DIMSE1
 70
     0
  9
$DIMSE2
 70
     0
  9
$DIMTAD
 70
     1
  9
$DIMZIN
 70
     8
  9
$DIMBLK
  1

  9
$DIMASO
 70
     1
  9
$DIMSHO
 70
     1
  9
$DIMPOST
  1

  9
$DIMAPOST
  1

  9
$DIMALT
 70
     0
  9
$DIMALTD
 70
     3
  9
$DIMALTF
 40
0.03937007874016
  9
$DIMLFAC
 40
1.0
  9
$DIMTOFL
 70
     1
  9
$DIMTVP
 40
0.0
  9
$DIMTIX
 70
     0
  9
$DIMSOXD
 70
     0
  9
$DIMSAH
 70
     0
  9
$DIMBLK1
  1

  9
$DIMBLK2
  1

  9
$DIMSTYLE
  2
ISO-25
  9
$DIMCLRD
 70
     0
  9
$DIMCLRE
 70
     0
  9
$DIMCLRT
 70
     0
  9
$DIMTFAC
 40
1.0
  9
$DIMGAP
 40
0.625
  9
$DIMJUST
 70
     0
  9
$DIMSD1
 70
     0
  9
$DIMSD2
 70
     0
  9
$DIMTOLJ
 70
     0
  9
$DIMTZIN
 70
     8
  9
$DIMALTZ
 70
     0
  9
$DIMALTTZ
 70
     0
  9
$DIMFIT
 70
     3
  9
$DIMUPT
 70
     0
  9
$DIMUNIT
 70
     2
  9
$DIMDEC
 70
     2
  9
$DIMTDEC
 70
     2
  9
$DIMALTU
 70
     2
  9
$DIMALTTD
 70
     3
  9
$DIMTXSTY
  7
STANDARD
  9
$DIMAUNIT
 70
     0
  9
$LUNITS
 70
     2
  9
$LUPREC
 70
     4
  9
$SKETCHINC
 40
1.0
  9
$FILLETRAD
 40
10.0
  9
$AUNITS
 70
     0
  9
$AUPREC
 70
     0
  9
$MENU
  1
.
  9
$ELEVATION
 40
0.0
  9
$PELEVATION
 40
0.0
  9
$THICKNESS
 40
0.0
  9
$LIMCHECK
 70
     0
  9
$CHAMFERA
 40
10.0
  9
$CHAMFERB
 40
10.0
  9
$CHAMFERC
 40
20.0
  9
$CHAMFERD
 40
0.0
  9
$SKPOLY
 70
     0
  9
$TDCREATE
 40
2460047.378909063
  9
$TDUPDATE
 40
2460047.378909306
  9
$TDINDWG
 40
0.0000000116
  9
$TDUSRTIMER
 40
0.0000000116
  9
$USRTIMER
 70
     1
  9
$ANGBASE
 50
0.0
  9
$ANGDIR
 70
     0
  9
$PDMODE
 70
     0
  9
$PDSIZE
 40
0.0
  9
$PLINEWID
 40
0.0
  9
$COORDS
 70
     1
  9
$SPLFRAME
 70
     0
  9
$SPLINETYPE
 70
     6
  9
$SPLINESEGS
 70
     8
  9
$ATTDIA
 70
     0
  9
$ATTREQ
 70
     1
  9
$HANDLING
 70
     1
  9
$HANDSEED
  5
6C7
  9
$SURFTAB1
 70
     6
  9
$SURFTAB2
 70
     6
  9
$SURFTYPE
 70
     6
  9
$SURFU
 70
     6
  9
$SURFV
 70
     6
  9
$UCSNAME
  2

  9
$UCSORG
 10
0.0
 20
0.0
 30
0.0
  9
$UCSXDIR
 10
1.0
 20
0.0
 30
0.0
  9
$UCSYDIR
 10
0.0
 20
1.0
 30
0.0
  9
$PUCSNAME
  2

  9
$PUCSORG
 10
0.0
 20
0.0
 30
0.0
  9
$PUCSXDIR
 10
1.0
 20
0.0
 30
0.0
  9
$PUCSYDIR
 10
0.0
 20
1.0
 30
0.0
  9
$USERI1
 70
     0
  9
$USERI2
 70
     0
  9
$USERI3
 70
     0
  9
$USERI4
 70
     0
  9
$USERI5
 70
     0
  9
$USERR1
 40
0.0
  9
$USERR2
 40
0.0
  9
$USERR3
 40
0.0
  9
$USERR4
 40
0.0
  9
$USERR5
 40
0.0
  9
$WORLDVIEW
 70
     1
  9
$SHADEDGE
 70
     3
  9
$SHADEDIF
 70
    70
  9
$TILEMODE
 70
     1
  9
$MAXACTVP
 70
    64
  9
$PINSBASE
 10
0.0
 20
0.0
 30
0.0
  9
$PLIMCHECK
 70
     0
  9
$PEXTMIN
 10
1.000000000000000E+20
 20
1.000000000000000E+20
 30
1.000000000000000E+20
  9
$PEXTMAX
 10
-1.000000000000000E+20
 20
-1.000000000000000E+20
 30
-1.000000000000000E+20
  9
$PLIMMIN
 10
0.0
 20
0.0
  9
$PLIMMAX
 10
420.0
 20
297.0
  9
$UNITMODE
 70
     0
  9
$VISRETAIN
 70
     1
  9
$PLINEGEN
 70
     0
  9
$PSLTSCALE
 70
     1
  9
$TREEDEPTH
 70
  3020
  9
$PICKSTYLE
 70
     1
  9
$CMLSTYLE
  2
STANDARD
  9
$CMLJUST
 70
     0
  9
$CMLSCALE
 40
20.0
  9
$PROXYGRAPHICS
 70
     1
  9
$MEASUREMENT
 70
     1
  0
ENDSEC
  0
SECTION
  2
CLASSES
  0
CLASS
  1
ACDBDICTIONARYWDFLT
  2
AcDbDictionaryWithDefault
  3
ObjectDBX Classes
 90
        0
280
     0
281
     0
  0
CLASS
  1
VISUALSTYLE
  2
AcDbVisualStyle
  3
ObjectDBX Classes
 90
     4095
280
     0
281
     0
  0
CLASS
  1
MATERIAL
  2
AcDbMaterial
  3
ObjectDBX Classes
 90
     1153
280
     0
281
     0
  0
CLASS
  1
SUN
  2
AcDbSun
  3
SCENEOE
 90
     1024
280
     0
281
     0
  0
CLASS
  1
DICTIONARYVAR
  2
AcDbDictionaryVar
  3
ObjectDBX Classes
 90
        0
280
     0
281
     0
  0
CLASS
  1
XRECORD
  2
AcDbXrecord
  3
AutoCAD 2000
 90
        0
280
     0
281
     0
  0
CLASS
  1
LWPOLYLINE
  2
AcDbPolyline
  3
AutoCAD 2000
 90
        0
280
     0
281
     1
  0
CLASS
  1
HATCH
  2
AcDbHatch
  3
AutoCAD 2000
 90
        0
280
     0
281
     1
  0
CLASS
  1
ACDBPLACEHOLDER
  2
AcDbPlaceHolder
  3
ObjectDBX Classes
 90
        0
280
     0
281
     0
  0
CLASS
  1
LAYOUT
  2
AcDbLayout
  3
ObjectDBX Classes
 90
        0
280
     0
281
     0
  0
ENDSEC
  0
SECTION
  2
TABLES
  0
TABLE
  2
VPORT
  5
8
330
0
100
AcDbSymbolTable
 70
     1
  0
VPORT
  5
29
330
8
100
AcDbSymbolTableRecord
100
AcDbViewportTableRecord
  2
*ACTIVE
 70
     0
 10
0.0
 20
0.0
 11
1.0
 21
1.0
 12
-99.25000000046467
 22
1493.0
 13
0.0
 23
0.0
 14
10.0
 24
10.0
 15
10.0
 25
10.0
 16
0.0
 26
0.0
 36
1.0
 17
0.0
 27
0.0
 37
0.0
 40
2800.0
 41
1.501607142856811
 42
50.0
 43
0.0
 44
0.0
 50
0.0
 51
0.0
 71
     0
 72
  1000
 73
     1
 74
     3
 75
     0
 76
     0
 77
     0
 78
     0
  0
ENDTAB
  0
TABLE
  2
LTYPE
  5
5
330
0
100
AcDbSymbolTable
 70
     7
  0
LTYPE
  5
14
330
5
100
AcDbSymbolTableRecord
100
AcDbLinetypeTableRecord
  2
BYBLOCK
 70
     0
  3

 72
    65
 73
     0
 40
0.0
  0
LTYPE
  5
15
330
5
100
AcDbSymbolTableRecord
100
AcDbLinetypeTableRecord
  2
BYLAYER
 70
     0
  3

 72
    65
 73
     0
 40
0.0
  0
LTYPE
  5
16
330
5
100
AcDbSymbolTableRecord
100
AcDbLinetypeTableRecord
  2
CONTINUOUS
 70
     0
  3
Solid line
 72
    65
 73
     0
 40
0.0
  0
LTYPE
  5
40
330
5
100
AcDbSymbolTableRecord
100
AcDbLinetypeTableRecord
  2
EXLTYPE1
 70
     0
  3
破線
 72
    65
 73
     2
 40
3.0
 49
2.0
 74
     0
 49
-1.0
 74
     0
  0
LTYPE
  5
41
330
5
100
AcDbSymbolTableRecord
100
AcDbLinetypeTableRecord
  2
EXLTYPE2
 70
     0
  3
点線
 72
    65
 73
     2
 40
2.0
 49
1.0
 74
     0
 49
-1.0
 74
     0
  0
LTYPE
  5
42
330
5
100
AcDbSymbolTableRecord
100
AcDbLinetypeTableRecord
  2
EXLTYPE3
 70
     0
  3
一点鎖線
 72
    65
 73
     4
 40
10.0
 49
7.0
 74
     0
 49
-1.0
 74
     0
 49
1.0
 74
     0
 49
-1.0
 74
     0
  0
LTYPE
  5
43
330
5
100
AcDbSymbolTableRecord
100
AcDbLinetypeTableRecord
  2
EXLTYPE4
 70
     0
  3
二点鎖線
 72
    65
 73
     6
 40
12.0
 49
7.0
 74
     0
 49
-1.0
 74
     0
 49
1.0
 74
     0
 49
-1.0
 74
     0
 49
1.0
 74
     0
 49
-1.0
 74
     0
  0
LTYPE
  5
44
330
5
100
AcDbSymbolTableRecord
100
AcDbLinetypeTableRecord
  2
EXLTYPE5
 70
     0
  3
三点鎖線
 72
    65
 73
     8
 40
37.0
 49
30.0
 74
     0
 49
-1.0
 74
     0
 49
1.0
 74
     0
 49
-1.0
 74
     0
 49
1.0
 74
     0
 49
-1.0
 74
     0
 49
1.0
 74
     0
 49
-1.0
 74
     0
  0
LTYPE
  5
45
330
5
100
AcDbSymbolTableRecord
100
AcDbLinetypeTableRecord
  2
EXLTYPE6
 70
     0
  3
四点鎖線
 72
    65
 73
    10
 40
39.0
 49
30.0
 74
     0
 49
-1.0
 74
     0
 49
1.0
 74
     0
 49
-1.0
 74
     0
 49
1.0
 74
     0
 49
-1.0
 74
     0
 49
1.0
 74
     0
 49
-1.0
 74
     0
 49
1.0
 74
     0
 49
-1.0
 74
     0
  0
ENDTAB
  0
TABLE
  2
LAYER
  5
2
330
0
100
AcDbSymbolTable
 70
     7
  0
LAYER
  5
10
330
2
100
AcDbSymbolTableRecord
100
AcDbLayerTableRecord
  2
0
 70
     0
 62
     7
  6
CONTINUOUS
  0
LAYER
  5
48
330
2
100
AcDbSymbolTableRecord
100
AcDbLayerTableRecord
  2
枠_表
 70
     0
 62
     7
  6
CONTINUOUS
  0
LAYER
  5
49
330
2
100
AcDbSymbolTableRecord
100
AcDbLayerTableRecord
  2
化粧台
 70
     0
 62
     7
  6
CONTINUOUS
  0
LAYER
  5
4A
330
2
100
AcDbSymbolTableRecord
100
AcDbLayerTableRecord
  2
トラップ
 70
     0
 62
     7
  6
CONTINUOUS
  0
LAYER
  5
4B
330
2
100
AcDbSymbolTableRecord
100
AcDbLayerTableRecord
  2
寸法
 70
     0
 62
     7
  6
CONTINUOUS
  0
LAYER
  5
4C
330
2
100
AcDbSymbolTableRecord
100
AcDbLayerTableRecord
  2
固定ボルト穴詳細
 70
     0
 62
     7
  6
CONTINUOUS
  0
LAYER
  5
55F
330
2
100
AcDbSymbolTableRecord
100
AcDbLayerTableRecord
  2
DEFPOINTS
 70
     0
 62
     7
  6
CONTINUOUS
  0
ENDTAB
  0
TABLE
  2
STYLE
  5
3
330
0
100
AcDbSymbolTable
 70
     5
  0
STYLE
  5
11
330
3
100
AcDbSymbolTableRecord
100
AcDbTextStyleTableRecord
  2
STANDARD
 70
     0
 40
0.0
 41
1.0
 50
0.0
 71
     0
 42
2.5
  3
monotxt
  4
extfont
  0
STYLE
  5
46
330
3
100
AcDbSymbolTableRecord
100
AcDbTextStyleTableRecord
  2
EXCADSTD
 70
     0
 40
0.0
 41
1.0
 50
0.0
 71
     0
 42
0.2
  3
monotxt
  4
extfont
  0
STYLE
  5
47
330
3
100
AcDbSymbolTableRecord
100
AcDbTextStyleTableRecord
  2
EXCADVERT
 70
     4
 40
0.0
 41
1.0
 50
0.0
 71
     0
 42
0.286885
  3
monotxt
  4
extfont
  0
STYLE
  5
AF
330
3
100
AcDbSymbolTableRecord
100
AcDbTextStyleTableRecord
  2
EXCADTTF1
 70
     0
 40
0.0
 41
1.0
 50
0.0
 71
     0
 42
0.2
  3
MSGOTHIC.TTC
  4

1001
ACAD
1000
MS Gothic
1071
    32817
  0
STYLE
  5
55D
330
3
100
AcDbSymbolTableRecord
100
AcDbTextStyleTableRecord
  2
EXCADDIM1
 70
     0
 40
0.0
 41
0.84
 50
0.0
 71
     0
 42
0.2
  3
monotxt
  4
extfont
  0
ENDTAB
  0
TABLE
  2
VIEW
  5
6
330
0
100
AcDbSymbolTable
 70
     0
  0
ENDTAB
  0
TABLE
  2
UCS
  5
7
330
0
100
AcDbSymbolTable
 70
     0
  0
ENDTAB
  0
TABLE
  2
APPID
  5
9
330
0
100
AcDbSymbolTable
 70
     1
  0
APPID
  5
12
330
9
100
AcDbSymbolTableRecord
100
AcDbRegAppTableRecord
  2
ACAD
 70
     0
  0
ENDTAB
  0
TABLE
  2
DIMSTYLE
  5
A
330
0
100
AcDbSymbolTable
 70
     1
  0
DIMSTYLE
105
27
102
{ACAD_REACTORS
330
55E
330
56B
330
578
330
587
330
593
330
59E
330
5AB
330
5BC
330
5C9
330
5D5
330
5E1
330
5EC
330
5F8
330
608
330
614
330
620
330
62C
330
639
330
646
330
653
330
665
330
672
330
681
102
}
330
A
100
AcDbSymbolTableRecord
100
AcDbDimStyleTableRecord
  2
ISO-25
 70
     0
  3

  4

  5

  6

  7

 40
1.0
 41
2.5
 42
0.625
 43
3.75
 44
1.25
 45
0.0
 46
0.0
 47
0.0
 48
0.0
140
2.5
141
2.5
142
0.0
143
0.03937007874016
144
1.0
145
0.0
146
1.0
147
0.625
 71
     0
 72
     0
 73
     0
 74
     0
 75
     0
 76
     0
 77
     1
 78
     8
170
     0
171
     3
172
     1
173
     0
174
     0
175
     0
176
     0
177
     0
178
     0
270
     2
271
     2
272
     2
273
     2
274
     3
340
11
275
     0
280
     0
281
     0
282
     0
283
     0
284
     8
285
     0
286
     0
287
     5
288
     0
  0
ENDTAB
  0
TABLE
  2
BLOCK_RECORD
  5
1
330
0
100
AcDbSymbolTable
 70
    38
  0
BLOCK_RECORD
  5
1F
330
1
100
AcDbSymbolTableRecord
100
AcDbBlockTableRecord
  2
*MODEL_SPACE
  0
BLOCK_RECORD
  5
1B
330
1
100
AcDbSymbolTableRecord
100
AcDbBlockTableRecord
  2
*PAPER_SPACE
  0
BLOCK_RECORD
  5
4D
330
1
100
AcDbSymbolTableRecord
100
AcDbBlockTableRecord
  2
EX_NORM
  0
BLOCK_RECORD
  5
50
330
1
100
AcDbSymbolTableRecord
100
AcDbBlockTableRecord
  2
EX_BNORM
  0
BLOCK_RECORD
  5
53
330
1
100
AcDbSymbolTableRecord
100
AcDbBlockTableRecord
  2
EX_BCIR
  0
BLOCK_RECORD
  5
56
330
1
100
AcDbSymbolTableRecord
100
AcDbBlockTableRecord
  2
EX_RCIVIL
  0
BLOCK_RECORD
  5
59
330
1
100
AcDbSymbolTableRecord
100
AcDbBlockTableRecord
  2
EX_SLANT
  0
BLOCK_RECORD
  5
5C
330
1
100
AcDbSymbolTableRecord
100
AcDbBlockTableRecord
  2
EX_NONE
  0
BLOCK_RECORD
  5
5F
330
1
100
AcDbSymbolTableRecord
100
AcDbBlockTableRecord
  2
EX_CIVIL
  0
BLOCK_RECORD
  5
62
330
1
100
AcDbSymbolTableRecord
100
AcDbBlockTableRecord
  2
EX_WCIR
  0
BLOCK_RECORD
  5
65
330
1
100
AcDbSymbolTableRecord
100
AcDbBlockTableRecord
  2
EX_WCIR2
  0
BLOCK_RECORD
  5
68
330
1
100
AcDbSymbolTableRecord
100
AcDbBlockTableRecord
  2
EX_WNORM
  0
BLOCK_RECORD
  5
6B
330
1
100
AcDbSymbolTableRecord
100
AcDbBlockTableRecord
  2
EX_NNORM
  0
BLOCK_RECORD
  5
6E
330
1
100
AcDbSymbolTableRecord
100
AcDbBlockTableRecord
  2
EX_BBOX
  0
BLOCK_RECORD
  5
71
330
1
100
AcDbSymbolTableRecord
100
AcDbBlockTableRecord
  2
EX_WBOX
  0
BLOCK_RECORD
  5
74
330
1
100
AcDbSymbolTableRecord
100
AcDbBlockTableRecord
  2
EX_INTEGRAL
  0
BLOCK_RECORD
  5
560
330
1
100
AcDbSymbolTableRecord
100
AcDbBlockTableRecord
  2
*D15
  0
BLOCK_RECORD
  5
56C
330
1
100
AcDbSymbolTableRecord
100
AcDbBlockTableRecord
  2
*D16
  0
BLOCK_RECORD
  5
579
330
1
100
AcDbSymbolTableRecord
100
AcDbBlockTableRecord
  2
*D17
  0
BLOCK_RECORD
  5
588
330
1
100
AcDbSymbolTableRecord
100
AcDbBlockTableRecord
  2
*D18
  0
BLOCK_RECORD
  5
594
330
1
100
AcDbSymbolTableRecord
100
AcDbBlockTableRecord
  2
*D19
  0
BLOCK_RECORD
  5
59F
330
1
100
AcDbSymbolTableRecord
100
AcDbBlockTableRecord
  2
*D20
  0
BLOCK_RECORD
  5
5AC
330
1
100
AcDbSymbolTableRecord
100
AcDbBlockTableRecord
  2
*D21
  0
BLOCK_RECORD
  5
5BD
330
1
100
AcDbSymbolTableRecord
100
AcDbBlockTableRecord
  2
*D22
  0
BLOCK_RECORD
  5
5CA
330
1
100
AcDbSymbolTableRecord
100
AcDbBlockTableRecord
  2
*D23
  0
BLOCK_RECORD
  5
5D6
330
1
100
AcDbSymbolTableRecord
100
AcDbBlockTableRecord
  2
*D24
  0
BLOCK_RECORD
  5
5E2
330
1
100
AcDbSymbolTableRecord
100
AcDbBlockTableRecord
  2
*D25
  0
BLOCK_RECORD
  5
5ED
330
1
100
AcDbSymbolTableRecord
100
AcDbBlockTableRecord
  2
*D26
  0
BLOCK_RECORD
  5
5F9
330
1
100
AcDbSymbolTableRecord
100
AcDbBlockTableRecord
  2
*D27
  0
BLOCK_RECORD
  5
609
330
1
100
AcDbSymbolTableRecord
100
AcDbBlockTableRecord
  2
*D28
  0
BLOCK_RECORD
  5
615
330
1
100
AcDbSymbolTableRecord
100
AcDbBlockTableRecord
  2
*D29
  0
BLOCK_RECORD
  5
621
330
1
100
AcDbSymbolTableRecord
100
AcDbBlockTableRecord
  2
*D30
  0
BLOCK_RECORD
  5
62D
330
1
100
AcDbSymbolTableRecord
100
AcDbBlockTableRecord
  2
*D31
  0
BLOCK_RECORD
  5
63A
330
1
100
AcDbSymbolTableRecord
100
AcDbBlockTableRecord
  2
*D32
  0
BLOCK_RECORD
  5
647
330
1
100
AcDbSymbolTableRecord
100
AcDbBlockTableRecord
  2
*D33
  0
BLOCK_RECORD
  5
654
330
1
100
AcDbSymbolTableRecord
100
AcDbBlockTableRecord
  2
*D34
  0
BLOCK_RECORD
  5
666
330
1
100
AcDbSymbolTableRecord
100
AcDbBlockTableRecord
  2
*D35
  0
BLOCK_RECORD
  5
673
330
1
100
AcDbSymbolTableRecord
100
AcDbBlockTableRecord
  2
*D36
  0
BLOCK_RECORD
  5
682
330
1
100
AcDbSymbolTableRecord
100
AcDbBlockTableRecord
  2
*D37
  0
ENDTAB
  0
ENDSEC
  0
SECTION
  2
BLOCKS
  0
BLOCK
  5
20
330
1F
100
AcDbEntity
  8
0
100
AcDbBlockBegin
  2
*MODEL_SPACE
 70
     0
 10
0.0
 20
0.0
 30
0.0
  3
*MODEL_SPACE
  1

  0
ENDBLK
  5
21
330
1F
100
AcDbEntity
  8
0
100
AcDbBlockEnd
  0
BLOCK
  5
1C
330
1B
100
AcDbEntity
 67
     1
  8
0
100
AcDbBlockBegin
  2
*PAPER_SPACE
 70
     0
 10
0.0
 20
0.0
 30
0.0
  3
*PAPER_SPACE
  1

  0
ENDBLK
  5
1D
330
1B
100
AcDbEntity
 67
     1
  8
0
100
AcDbBlockEnd
  0
BLOCK
  5
4E
330
4D
100
AcDbEntity
  8
0
100
AcDbBlockBegin
  2
EX_NORM
 70
     0
 10
0.0
 20
0.0
 30
0.0
  3
EX_NORM
  1

  0
LINE
  5
77
330
4D
100
AcDbEntity
  8
0
  6
CONTINUOUS
 62
     0
100
AcDbLine
 10
0.0
 20
0.0
 30
0.0
 11
-1.0
 21
0.0
 31
0.0
  0
LINE
  5
78
330
4D
100
AcDbEntity
  8
0
  6
CONTINUOUS
 62
     0
100
AcDbLine
 10
0.0
 20
0.0
 30
0.0
 11
-1.0
 21
0.166666667
 31
0.0
  0
LINE
  5
79
330
4D
100
AcDbEntity
  8
0
  6
CONTINUOUS
 62
     0
100
AcDbLine
 10
0.0
 20
0.0
 30
0.0
 11
-1.0
 21
-0.166666667
 31
0.0
  0
ENDBLK
  5
4F
330
4D
100
AcDbEntity
  8
0
100
AcDbBlockEnd
  0
BLOCK
  5
51
330
50
100
AcDbEntity
  8
0
100
AcDbBlockBegin
  2
EX_BNORM
 70
     0
 10
0.0
 20
0.0
 30
0.0
  3
EX_BNORM
  1

  0
LINE
  5
7A
330
50
100
AcDbEntity
  8
0
  6
CONTINUOUS
 62
     0
100
AcDbLine
 10
0.0
 20
0.0
 30
0.0
 11
-1.0
 21
0.0
 31
0.0
  0
LINE
  5
7B
330
50
100
AcDbEntity
  8
0
  6
CONTINUOUS
 62
     0
100
AcDbLine
 10
0.0
 20
0.0
 30
0.0
 11
-1.0
 21
0.166666667
 31
0.0
  0
LINE
  5
7C
330
50
100
AcDbEntity
  8
0
  6
CONTINUOUS
 62
     0
100
AcDbLine
 10
0.0
 20
0.0
 30
0.0
 11
-1.0
 21
-0.166666667
 31
0.0
  0
LINE
  5
7D
330
50
100
AcDbEntity
  8
0
  6
CONTINUOUS
 62
     0
100
AcDbLine
 10
0.0
 20
0.0
 30
0.0
 11
-1.0
 21
0.083333333
 31
0.0
  0
LINE
  5
7E
330
50
100
AcDbEntity
  8
0
  6
CONTINUOUS
 62
     0
100
AcDbLine
 10
0.0
 20
0.0
 30
0.0
 11
-1.0
 21
-0.083333333
 31
0.0
  0
LINE
  5
7F
330
50
100
AcDbEntity
  8
0
  6
CONTINUOUS
 62
     0
100
AcDbLine
 10
-1.0
 20
0.166666667
 30
0.0
 11
-1.0
 21
-0.166666667
 31
0.0
  0
ENDBLK
  5
52
330
50
100
AcDbEntity
  8
0
100
AcDbBlockEnd
  0
BLOCK
  5
54
330
53
100
AcDbEntity
  8
0
100
AcDbBlockBegin
  2
EX_BCIR
 70
     0
 10
0.0
 20
0.0
 30
0.0
  3
EX_BCIR
  1

  0
LINE
  5
80
330
53
100
AcDbEntity
  8
0
  6
CONTINUOUS
 62
     0
100
AcDbLine
 10
0.0
 20
0.0
 30
0.0
 11
-1.0
 21
0.0
 31
0.0
  0
CIRCLE
  5
81
330
53
100
AcDbEntity
  8
0
  6
CONTINUOUS
 62
     0
100
AcDbCircle
 10
0.0
 20
0.0
 30
0.0
 40
0.5
  0
CIRCLE
  5
82
330
53
100
AcDbEntity
  8
0
  6
CONTINUOUS
 62
     0
100
AcDbCircle
 10
0.0
 20
0.0
 30
0.0
 40
0.25
  0
ENDBLK
  5
55
330
53
100
AcDbEntity
  8
0
100
AcDbBlockEnd
  0
BLOCK
  5
57
330
56
100
AcDbEntity
  8
0
100
AcDbBlockBegin
  2
EX_RCIVIL
 70
     0
 10
0.0
 20
0.0
 30
0.0
  3
EX_RCIVIL
  1

  0
LINE
  5
83
330
56
100
AcDbEntity
  8
0
  6
CONTINUOUS
 62
     0
100
AcDbLine
 10
0.0
 20
0.0
 30
0.0
 11
-1.0
 21
0.0
 31
0.0
  0
LINE
  5
84
330
56
100
AcDbEntity
  8
0
  6
CONTINUOUS
 62
     0
100
AcDbLine
 10
-1.0
 20
-0.25
 30
0.0
 11
0.0
 21
-0.25
 31
0.0
  0
LINE
  5
85
330
56
100
AcDbEntity
  8
0
  6
CONTINUOUS
 62
     0
100
AcDbLine
 10
-1.0
 20
-0.125
 30
0.0
 11
0.0
 21
-0.125
 31
0.0
  0
ENDBLK
  5
58
330
56
100
AcDbEntity
  8
0
100
AcDbBlockEnd
  0
BLOCK
  5
5A
330
59
100
AcDbEntity
  8
0
100
AcDbBlockBegin
  2
EX_SLANT
 70
     0
 10
0.0
 20
0.0
 30
0.0
  3
EX_SLANT
  1

  0
LINE
  5
86
330
59
100
AcDbEntity
  8
0
  6
CONTINUOUS
 62
     0
100
AcDbLine
 10
0.0
 20
0.0
 30
0.0
 11
-1.0
 21
0.0
 31
0.0
  0
LINE
  5
87
330
59
100
AcDbEntity
  8
0
  6
CONTINUOUS
 62
     0
100
AcDbLine
 10
0.707106781
 20
0.707106781
 30
0.0
 11
-0.707106781
 21
-0.707106781
 31
0.0
  0
ENDBLK
  5
5B
330
59
100
AcDbEntity
  8
0
100
AcDbBlockEnd
  0
BLOCK
  5
5D
330
5C
100
AcDbEntity
  8
0
100
AcDbBlockBegin
  2
EX_NONE
 70
     0
 10
0.0
 20
0.0
 30
0.0
  3
EX_NONE
  1

  0
LINE
  5
88
330
5C
100
AcDbEntity
  8
0
  6
CONTINUOUS
 62
     0
100
AcDbLine
 10
0.0
 20
0.0
 30
0.0
 11
-1.0
 21
0.0
 31
0.0
  0
ENDBLK
  5
5E
330
5C
100
AcDbEntity
  8
0
100
AcDbBlockEnd
  0
BLOCK
  5
60
330
5F
100
AcDbEntity
  8
0
100
AcDbBlockBegin
  2
EX_CIVIL
 70
     0
 10
0.0
 20
0.0
 30
0.0
  3
EX_CIVIL
  1

  0
LINE
  5
89
330
5F
100
AcDbEntity
  8
0
  6
CONTINUOUS
 62
     0
100
AcDbLine
 10
0.0
 20
0.0
 30
0.0
 11
-1.0
 21
0.0
 31
0.0
  0
LINE
  5
8A
330
5F
100
AcDbEntity
  8
0
  6
CONTINUOUS
 62
     0
100
AcDbLine
 10
-1.0
 20
0.25
 30
0.0
 11
0.0
 21
0.25
 31
0.0
  0
LINE
  5
8B
330
5F
100
AcDbEntity
  8
0
  6
CONTINUOUS
 62
     0
100
AcDbLine
 10
-1.0
 20
0.125
 30
0.0
 11
0.0
 21
0.125
 31
0.0
  0
ENDBLK
  5
61
330
5F
100
AcDbEntity
  8
0
100
AcDbBlockEnd
  0
BLOCK
  5
63
330
62
100
AcDbEntity
  8
0
100
AcDbBlockBegin
  2
EX_WCIR
 70
     0
 10
0.0
 20
0.0
 30
0.0
  3
EX_WCIR
  1

  0
LINE
  5
8C
330
62
100
AcDbEntity
  8
0
  6
CONTINUOUS
 62
     0
100
AcDbLine
 10
0.0
 20
0.0
 30
0.0
 11
-1.0
 21
0.0
 31
0.0
  0
CIRCLE
  5
8D
330
62
100
AcDbEntity
  8
0
  6
CONTINUOUS
 62
     0
100
AcDbCircle
 10
0.0
 20
0.0
 30
0.0
 40
0.5
  0
ENDBLK
  5
64
330
62
100
AcDbEntity
  8
0
100
AcDbBlockEnd
  0
BLOCK
  5
66
330
65
100
AcDbEntity
  8
0
100
AcDbBlockBegin
  2
EX_WCIR2
 70
     0
 10
0.0
 20
0.0
 30
0.0
  3
EX_WCIR2
  1

  0
LINE
  5
8E
330
65
100
AcDbEntity
  8
0
  6
CONTINUOUS
 62
     0
100
AcDbLine
 10
-0.5
 20
0.0
 30
0.0
 11
-1.0
 21
0.0
 31
0.0
  0
CIRCLE
  5
8F
330
65
100
AcDbEntity
  8
0
  6
CONTINUOUS
 62
     0
100
AcDbCircle
 10
0.0
 20
0.0
 30
0.0
 40
0.5
  0
ENDBLK
  5
67
330
65
100
AcDbEntity
  8
0
100
AcDbBlockEnd
  0
BLOCK
  5
69
330
68
100
AcDbEntity
  8
0
100
AcDbBlockBegin
  2
EX_WNORM
 70
     0
 10
0.0
 20
0.0
 30
0.0
  3
EX_WNORM
  1

  0
LINE
  5
90
330
68
100
AcDbEntity
  8
0
  6
CONTINUOUS
 62
     0
100
AcDbLine
 10
-1.0
 20
0.0
 30
0.0
 11
-1.0
 21
0.0
 31
0.0
  0
LINE
  5
91
330
68
100
AcDbEntity
  8
0
  6
CONTINUOUS
 62
     0
100
AcDbLine
 10
0.0
 20
0.0
 30
0.0
 11
-1.0
 21
0.166666667
 31
0.0
  0
LINE
  5
92
330
68
100
AcDbEntity
  8
0
  6
CONTINUOUS
 62
     0
100
AcDbLine
 10
0.0
 20
0.0
 30
0.0
 11
-1.0
 21
-0.166666667
 31
0.0
  0
LINE
  5
93
330
68
100
AcDbEntity
  8
0
  6
CONTINUOUS
 62
     0
100
AcDbLine
 10
-1.0
 20
0.166666667
 30
0.0
 11
-1.0
 21
-0.166666667
 31
0.0
  0
ENDBLK
  5
6A
330
68
100
AcDbEntity
  8
0
100
AcDbBlockEnd
  0
BLOCK
  5
6C
330
6B
100
AcDbEntity
  8
0
100
AcDbBlockBegin
  2
EX_NNORM
 70
     0
 10
0.0
 20
0.0
 30
0.0
  3
EX_NNORM
  1

  0
LINE
  5
94
330
6B
100
AcDbEntity
  8
0
  6
CONTINUOUS
 62
     0
100
AcDbLine
 10
0.0
 20
0.0
 30
0.0
 11
-1.0
 21
0.0
 31
0.0
  0
LINE
  5
95
330
6B
100
AcDbEntity
  8
0
  6
CONTINUOUS
 62
     0
100
AcDbLine
 10
0.0
 20
0.0
 30
0.0
 11
-1.0
 21
0.166666667
 31
0.0
  0
LINE
  5
96
330
6B
100
AcDbEntity
  8
0
  6
CONTINUOUS
 62
     0
100
AcDbLine
 10
0.0
 20
0.0
 30
0.0
 11
-1.0
 21
-0.166666667
 31
0.0
  0
LINE
  5
97
330
6B
100
AcDbEntity
  8
0
  6
CONTINUOUS
 62
     0
100
AcDbLine
 10
-1.0
 20
0.166666667
 30
0.0
 11
-1.0
 21
-0.166666667
 31
0.0
  0
ENDBLK
  5
6D
330
6B
100
AcDbEntity
  8
0
100
AcDbBlockEnd
  0
BLOCK
  5
6F
330
6E
100
AcDbEntity
  8
0
100
AcDbBlockBegin
  2
EX_BBOX
 70
     0
 10
0.0
 20
0.0
 30
0.0
  3
EX_BBOX
  1

  0
LINE
  5
98
330
6E
100
AcDbEntity
  8
0
  6
CONTINUOUS
 62
     0
100
AcDbLine
 10
0.0
 20
0.0
 30
0.0
 11
-1.0
 21
0.0
 31
0.0
  0
LINE
  5
99
330
6E
100
AcDbEntity
  8
0
  6
CONTINUOUS
 62
     0
100
AcDbLine
 10
-0.5
 20
0.5
 30
0.0
 11
0.5
 21
0.5
 31
0.0
  0
LINE
  5
9A
330
6E
100
AcDbEntity
  8
0
  6
CONTINUOUS
 62
     0
100
AcDbLine
 10
0.5
 20
0.5
 30
0.0
 11
0.5
 21
-0.5
 31
0.0
  0
LINE
  5
9B
330
6E
100
AcDbEntity
  8
0
  6
CONTINUOUS
 62
     0
100
AcDbLine
 10
0.5
 20
-0.5
 30
0.0
 11
-0.5
 21
-0.5
 31
0.0
  0
LINE
  5
9C
330
6E
100
AcDbEntity
  8
0
  6
CONTINUOUS
 62
     0
100
AcDbLine
 10
-0.5
 20
-0.5
 30
0.0
 11
-0.5
 21
0.5
 31
0.0
  0
LINE
  5
9D
330
6E
100
AcDbEntity
  8
0
  6
CONTINUOUS
 62
     0
100
AcDbLine
 10
-0.25
 20
0.25
 30
0.0
 11
0.25
 21
0.25
 31
0.0
  0
LINE
  5
9E
330
6E
100
AcDbEntity
  8
0
  6
CONTINUOUS
 62
     0
100
AcDbLine
 10
0.25
 20
0.25
 30
0.0
 11
0.25
 21
-0.25
 31
0.0
  0
LINE
  5
9F
330
6E
100
AcDbEntity
  8
0
  6
CONTINUOUS
 62
     0
100
AcDbLine
 10
0.25
 20
-0.25
 30
0.0
 11
-0.25
 21
-0.25
 31
0.0
  0
LINE
  5
A0
330
6E
100
AcDbEntity
  8
0
  6
CONTINUOUS
 62
     0
100
AcDbLine
 10
-0.25
 20
-0.25
 30
0.0
 11
-0.25
 21
0.25
 31
0.0
  0
ENDBLK
  5
70
330
6E
100
AcDbEntity
  8
0
100
AcDbBlockEnd
  0
BLOCK
  5
72
330
71
100
AcDbEntity
  8
0
100
AcDbBlockBegin
  2
EX_WBOX
 70
     0
 10
0.0
 20
0.0
 30
0.0
  3
EX_WBOX
  1

  0
LINE
  5
A1
330
71
100
AcDbEntity
  8
0
  6
CONTINUOUS
 62
     0
100
AcDbLine
 10
-0.5
 20
0.0
 30
0.0
 11
-1.0
 21
0.0
 31
0.0
  0
LINE
  5
A2
330
71
100
AcDbEntity
  8
0
  6
CONTINUOUS
 62
     0
100
AcDbLine
 10
-0.5
 20
0.5
 30
0.0
 11
0.5
 21
0.5
 31
0.0
  0
LINE
  5
A3
330
71
100
AcDbEntity
  8
0
  6
CONTINUOUS
 62
     0
100
AcDbLine
 10
0.5
 20
0.5
 30
0.0
 11
0.5
 21
-0.5
 31
0.0
  0
LINE
  5
A4
330
71
100
AcDbEntity
  8
0
  6
CONTINUOUS
 62
     0
100
AcDbLine
 10
0.5
 20
-0.5
 30
0.0
 11
-0.5
 21
-0.5
 31
0.0
  0
LINE
  5
A5
330
71
100
AcDbEntity
  8
0
  6
CONTINUOUS
 62
     0
100
AcDbLine
 10
-0.5
 20
-0.5
 30
0.0
 11
-0.5
 21
0.5
 31
0.0
  0
ENDBLK
  5
73
330
71
100
AcDbEntity
  8
0
100
AcDbBlockEnd
  0
BLOCK
  5
75
330
74
100
AcDbEntity
  8
0
100
AcDbBlockBegin
  2
EX_INTEGRAL
 70
     0
 10
0.0
 20
0.0
 30
0.0
  3
EX_INTEGRAL
  1

  0
LINE
  5
A6
330
74
100
AcDbEntity
  8
0
  6
CONTINUOUS
 62
     0
100
AcDbLine
 10
0.0
 20
0.0
 30
0.0
 11
-1.0
 21
0.0
 31
0.0
  0
ARC
  5
A7
330
74
100
AcDbEntity
  8
0
  6
CONTINUOUS
 62
     0
100
AcDbCircle
 10
0.542115
 20
0.164992
 30
0.0
 40
0.56667
100
AcDbArc
 50
73.07249033629006
 51
196.9275130221199
  0
ARC
  5
A8
330
74
100
AcDbEntity
  8
0
  6
CONTINUOUS
 62
     0
100
AcDbCircle
 10
-0.542115
 20
-0.164992
 30
0.0
 40
0.56667
100
AcDbArc
 50
253.0724869220464
 51
16.9275130559125
  0
ENDBLK
  5
76
330
74
100
AcDbEntity
  8
0
100
AcDbBlockEnd
  0
BLOCK
  5
561
330
560
100
AcDbEntity
  8
0
100
AcDbBlockBegin
  2
*D15
 70
     1
 10
0.0
 20
0.0
 30
0.0
  3
*D15
  1

  0
LINE
  5
563
330
560
100
AcDbEntity
  8
寸法
  6
CONTINUOUS
 62
     3
100
AcDbLine
 10
1625.57489
 20
630.0000001192093
 30
0.0
 11
1625.57489
 21
549.82578446293
 31
0.0
  0
LINE
  5
564
330
560
100
AcDbEntity
  8
寸法
  6
CONTINUOUS
 62
     3
100
AcDbLine
 10
1555.7903976676
 20
559.82578446293
 30
0.0
 11
1595.57489
 21
559.82578446293
 31
0.0
  0
INSERT
  5
565
330
560
100
AcDbEntity
  8
寸法
 62
     3
100
AcDbBlockReference
  2
EX_NORM
 10
1525.7903976676
 20
559.82578446293
 30
0.0
 41
30.0
 42
30.0
 43
30.0
 50
180.0
  0
INSERT
  5
566
330
560
100
AcDbEntity
  8
寸法
 62
     3
100
AcDbBlockReference
  2
EX_NORM
 10
1625.57489
 20
559.82578446293
 30
0.0
 41
30.0
 42
30.0
 43
30.0
  0
MTEXT
  5
567
330
560
100
AcDbEntity
  8
寸法
 62
     2
100
AcDbMText
 10
1780.57489
 20
583.3257844033253
 30
0.0
 40
40.0
 41
0.0
 71
     5
 72
     1
  1
100（床給水）
  7
EXCADDIM1
  0
POINT
  5
568
330
560
100
AcDbEntity
  8
DEFPOINTS
 62
     0
100
AcDbPoint
 10
1525.7903976676
 20
637.0
 30
0.0
  0
POINT
  5
569
330
560
100
AcDbEntity
  8
DEFPOINTS
 62
     0
100
AcDbPoint
 10
1625.57489
 20
637.0
 30
0.0
  0
POINT
  5
56A
330
560
100
AcDbEntity
  8
DEFPOINTS
 62
     0
100
AcDbPoint
 10
1625.57489
 20
559.82578446293
 30
0.0
  0
ENDBLK
  5
562
330
560
100
AcDbEntity
  8
0
100
AcDbBlockEnd
  0
BLOCK
  5
56D
330
56C
100
AcDbEntity
  8
0
100
AcDbBlockBegin
  2
*D16
 70
     1
 10
0.0
 20
0.0
 30
0.0
  3
*D16
  1

  0
LINE
  5
56F
330
56C
100
AcDbEntity
  8
寸法
  6
CONTINUOUS
 62
     3
100
AcDbLine
 10
1525.7903976676
 20
588.2
 30
0.0
 11
1525.7903976676
 21
490.9999999999999
 31
0.0
  0
LINE
  5
570
330
56C
100
AcDbEntity
  8
寸法
  6
CONTINUOUS
 62
     3
100
AcDbLine
 10
1625.57489
 20
596.2
 30
0.0
 11
1625.57489
 21
490.9999999999999
 31
0.0
  0
LINE
  5
571
330
56C
100
AcDbEntity
  8
寸法
  6
CONTINUOUS
 62
     3
100
AcDbLine
 10
1555.7903976676
 20
500.9999999999999
 30
0.0
 11
1595.57489
 21
500.9999999999999
 31
0.0
  0
INSERT
  5
572
330
56C
100
AcDbEntity
  8
寸法
 62
     3
100
AcDbBlockReference
  2
EX_NORM
 10
1525.7903976676
 20
500.9999999999999
 30
0.0
 41
30.0
 42
30.0
 43
30.0
 50
180.0
  0
INSERT
  5
573
330
56C
100
AcDbEntity
  8
寸法
 62
     3
100
AcDbBlockReference
  2
EX_NORM
 10
1625.57489
 20
500.9999999999999
 30
0.0
 41
30.0
 42
30.0
 43
30.0
  0
MTEXT
  5
574
330
56C
100
AcDbEntity
  8
寸法
 62
     2
100
AcDbMText
 10
1780.57489
 20
524.4999999403952
 30
0.0
 40
40.0
 41
0.0
 71
     5
 72
     1
  1
100（床排水）
  7
EXCADDIM1
  0
POINT
  5
575
330
56C
100
AcDbEntity
  8
DEFPOINTS
 62
     0
100
AcDbPoint
 10
1525.7903976676
 20
629.0
 30
0.0
  0
POINT
  5
576
330
56C
100
AcDbEntity
  8
DEFPOINTS
 62
     0
100
AcDbPoint
 10
1625.57489
 20
637.0
 30
0.0
  0
POINT
  5
577
330
56C
100
AcDbEntity
  8
DEFPOINTS
 62
     0
100
AcDbPoint
 10
1625.57489
 20
500.9999999999999
 30
0.0
  0
ENDBLK
  5
56E
330
56C
100
AcDbEntity
  8
0
100
AcDbBlockEnd
  0
BLOCK
  5
57A
330
579
100
AcDbEntity
  8
0
100
AcDbBlockBegin
  2
*D17
 70
     1
 10
0.0
 20
0.0
 30
0.0
  3
*D17
  1

  0
LINE
  5
57C
330
579
100
AcDbEntity
  8
寸法
  6
CONTINUOUS
 62
     3
100
AcDbLine
 10
534.9289321881407
 20
2417.410851842059
 30
0.0
 11
549.0710678118795
 21
2431.552987465782
 31
0.0
  0
MTEXT
  5
57D
330
579
100
AcDbEntity
  8
寸法
 62
     2
100
AcDbMText
 10
459.2685066854505
 20
2374.984444970908
 30
0.0
 40
40.0
 41
0.0
 71
     5
 72
     1
  1
%%c80
  7
EXCADDIM1
 11
0.707106781186944
 21
0.707106781186151
 31
0.0
  0
LINE
  5
57E
330
579
100
AcDbEntity
  8
寸法
  6
CONTINUOUS
 62
     3
100
AcDbLine
 10
570.2842712474878
 20
2452.766190901366
 30
0.0
 11
513.7157287525324
 21
2396.197648406474
 31
0.0
  0
INSERT
  5
57F
330
579
100
AcDbEntity
  8
寸法
 62
     3
100
AcDbBlockReference
  2
EX_NORM
 10
570.2842712474878
 20
2452.766190901366
 30
0.0
 41
30.0
 42
30.0
 43
30.0
 50
44.99999999996787
  0
INSERT
  5
580
330
579
100
AcDbEntity
  8
寸法
 62
     3
100
AcDbBlockReference
  2
EX_NORM
 10
513.7157287525324
 20
2396.197648406474
 30
0.0
 41
30.0
 42
30.0
 43
30.0
 50
224.9999999999679
  0
POINT
  5
581
330
579
100
AcDbEntity
  8
DEFPOINTS
 62
     0
100
AcDbPoint
 10
513.7157287525324
 20
2396.197648406474
 30
0.0
  0
POINT
  5
582
330
579
100
AcDbEntity
  8
DEFPOINTS
 62
     0
100
AcDbPoint
 10
570.2842712474878
 20
2452.766190901366
 30
0.0
  0
ENDBLK
  5
57B
330
579
100
AcDbEntity
  8
0
100
AcDbBlockEnd
  0
BLOCK
  5
589
330
588
100
AcDbEntity
  8
0
100
AcDbBlockBegin
  2
*D18
 70
     1
 10
0.0
 20
0.0
 30
0.0
  3
*D18
  1

  0
LINE
  5
58B
330
588
100
AcDbEntity
  8
寸法
  6
CONTINUOUS
 62
     3
100
AcDbLine
 10
1474.57489
 20
1149.500019499209
 30
0.0
 11
1474.57489
 21
852.4999999404
 31
0.0
  0
LINE
  5
58C
330
588
100
AcDbEntity
  8
寸法
  6
CONTINUOUS
 62
     3
100
AcDbLine
 10
1595.57489
 20
862.4999999404
 30
0.0
 11
1504.57489
 21
862.4999999404
 31
0.0
  0
INSERT
  5
58D
330
588
100
AcDbEntity
  8
寸法
 62
     3
100
AcDbBlockReference
  2
EX_NORM
 10
1625.57489
 20
862.4999999404
 30
0.0
 41
30.0
 42
30.0
 43
30.0
  0
INSERT
  5
58E
330
588
100
AcDbEntity
  8
寸法
 62
     3
100
AcDbBlockReference
  2
EX_NORM
 10
1474.57489
 20
862.4999999404
 30
0.0
 41
30.0
 42
30.0
 43
30.0
 50
180.0
  0
MTEXT
  5
58F
330
588
100
AcDbEntity
  8
寸法
 62
     2
100
AcDbMText
 10
1550.07489
 20
885.9999998807954
 30
0.0
 40
40.0
 41
0.0
 71
     5
 72
     1
  1
151
  7
EXCADDIM1
  0
POINT
  5
590
330
588
100
AcDbEntity
  8
DEFPOINTS
 62
     0
100
AcDbPoint
 10
1625.57489
 20
1182.0000404
 30
0.0
  0
POINT
  5
591
330
588
100
AcDbEntity
  8
DEFPOINTS
 62
     0
100
AcDbPoint
 10
1474.57489
 20
1156.50001938
 30
0.0
  0
POINT
  5
592
330
588
100
AcDbEntity
  8
DEFPOINTS
 62
     0
100
AcDbPoint
 10
1474.57489
 20
862.4999999404
 30
0.0
  0
ENDBLK
  5
58A
330
588
100
AcDbEntity
  8
0
100
AcDbBlockEnd
  0
BLOCK
  5
595
330
594
100
AcDbEntity
  8
0
100
AcDbBlockBegin
  2
*D19
 70
     1
 10
0.0
 20
0.0
 30
0.0
  3
*D19
  1

  0
LINE
  5
597
330
594
100
AcDbEntity
  8
寸法
  6
CONTINUOUS
 62
     3
100
AcDbLine
 10
640.0
 20
859.0
 30
0.0
 11
600.0
 21
859.0
 31
0.0
  0
INSERT
  5
598
330
594
100
AcDbEntity
  8
寸法
 62
     3
100
AcDbBlockReference
  2
EX_NORM
 10
670.0
 20
859.0
 30
0.0
 41
30.0
 42
30.0
 43
30.0
  0
INSERT
  5
599
330
594
100
AcDbEntity
  8
寸法
 62
     3
100
AcDbBlockReference
  2
EX_NORM
 10
570.0
 20
859.0
 30
0.0
 41
30.0
 42
30.0
 43
30.0
 50
180.0
  0
MTEXT
  5
59A
330
594
100
AcDbEntity
  8
寸法
 62
     2
100
AcDbMText
 10
620.0000000000002
 20
882.4999999403952
 30
0.0
 40
40.0
 41
0.0
 71
     5
 72
     1
  1
100
  7
EXCADDIM1
  0
POINT
  5
59B
330
594
100
AcDbEntity
  8
DEFPOINTS
 62
     0
100
AcDbPoint
 10
670.0
 20
929.5
 30
0.0
  0
POINT
  5
59C
330
594
100
AcDbEntity
  8
DEFPOINTS
 62
     0
100
AcDbPoint
 10
570.0
 20
924.0
 30
0.0
  0
POINT
  5
59D
330
594
100
AcDbEntity
  8
DEFPOINTS
 62
     0
100
AcDbPoint
 10
570.0
 20
859.0
 30
0.0
  0
ENDBLK
  5
596
330
594
100
AcDbEntity
  8
0
100
AcDbBlockEnd
  0
BLOCK
  5
5A0
330
59F
100
AcDbEntity
  8
0
100
AcDbBlockBegin
  2
*D20
 70
     1
 10
0.0
 20
0.0
 30
0.0
  3
*D20
  1

  0
LINE
  5
5A2
330
59F
100
AcDbEntity
  8
寸法
  6
CONTINUOUS
 62
     3
100
AcDbLine
 10
495.0000000000003
 20
1439.000018880773
 30
0.0
 11
495.0000000000003
 21
1599.0
 31
0.0
  0
LINE
  5
5A3
330
59F
100
AcDbEntity
  8
寸法
  6
CONTINUOUS
 62
     3
100
AcDbLine
 10
844.9723756906101
 20
1438.475157002291
 30
0.0
 11
844.9723756906101
 21
1599.0
 31
0.0
  0
LINE
  5
5A4
330
59F
100
AcDbEntity
  8
寸法
  6
CONTINUOUS
 62
     3
100
AcDbLine
 10
525.0000000000002
 20
1589.0
 30
0.0
 11
814.9723756906101
 21
1589.0
 31
0.0
  0
INSERT
  5
5A5
330
59F
100
AcDbEntity
  8
寸法
 62
     3
100
AcDbBlockReference
  2
EX_NORM
 10
495.0000000000003
 20
1589.0
 30
0.0
 41
30.0
 42
30.0
 43
30.0
 50
180.0
  0
INSERT
  5
5A6
330
59F
100
AcDbEntity
  8
寸法
 62
     3
100
AcDbBlockReference
  2
EX_NORM
 10
844.9723756906101
 20
1589.0
 30
0.0
 41
30.0
 42
30.0
 43
30.0
  0
MTEXT
  5
5A7
330
59F
100
AcDbEntity
  8
寸法
 62
     2
100
AcDbMText
 10
669.9861878453053
 20
1612.499999940395
 30
0.0
 40
40.0
 41
0.0
 71
     5
 72
     1
  1
350
  7
EXCADDIM1
  0
POINT
  5
5A8
330
59F
100
AcDbEntity
  8
DEFPOINTS
 62
     0
100
AcDbPoint
 10
495.0000000000003
 20
1432.000018999983
 30
0.0
  0
POINT
  5
5A9
330
59F
100
AcDbEntity
  8
DEFPOINTS
 62
     0
100
AcDbPoint
 10
844.9723756906101
 20
1431.4751571215
 30
0.0
  0
POINT
  5
5AA
330
59F
100
AcDbEntity
  8
DEFPOINTS
 62
     0
100
AcDbPoint
 10
844.9723756906101
 20
1589.0
 30
0.0
  0
ENDBLK
  5
5A1
330
59F
100
AcDbEntity
  8
0
100
AcDbBlockEnd
  0
BLOCK
  5
5AD
330
5AC
100
AcDbEntity
  8
0
100
AcDbBlockBegin
  2
*D21
 70
     1
 10
0.0
 20
0.0
 30
0.0
  3
*D21
  1

  0
LINE
  5
5AF
330
5AC
100
AcDbEntity
  8
寸法
  6
CONTINUOUS
 62
     3
100
AcDbLine
 10
1345.575197660826
 20
1439.000018880771
 30
0.0
 11
1345.575197660826
 21
1585.0
 31
0.0
  0
LINE
  5
5B0
330
5AC
100
AcDbEntity
  8
寸法
  6
CONTINUOUS
 62
     3
100
AcDbLine
 10
1625.57489
 20
1571.000000119209
 30
0.0
 11
1625.57489
 21
1565.0
 31
0.0
  0
LINE
  5
5B1
330
5AC
100
AcDbEntity
  8
寸法
  6
CONTINUOUS
 62
     3
100
AcDbLine
 10
1375.575197660826
 20
1575.0
 30
0.0
 11
1595.57489
 21
1575.0
 31
0.0
  0
INSERT
  5
5B2
330
5AC
100
AcDbEntity
  8
寸法
 62
     3
100
AcDbBlockReference
  2
EX_NORM
 10
1345.575197660826
 20
1575.0
 30
0.0
 41
30.0
 42
30.0
 43
30.0
 50
180.0
  0
INSERT
  5
5B3
330
5AC
100
AcDbEntity
  8
寸法
 62
     3
100
AcDbBlockReference
  2
EX_NORM
 10
1625.57489
 20
1575.0
 30
0.0
 41
30.0
 42
30.0
 43
30.0
  0
MTEXT
  5
5B4
330
5AC
100
AcDbEntity
  8
寸法
 62
     2
100
AcDbMText
 10
1485.575043830413
 20
1598.499999940395
 30
0.0
 40
40.0
 41
0.0
 71
     5
 72
     1
  1
280
  7
EXCADDIM1
  0
POINT
  5
5B5
330
5AC
100
AcDbEntity
  8
DEFPOINTS
 62
     0
100
AcDbPoint
 10
1345.575197660826
 20
1432.000018999981
 30
0.0
  0
POINT
  5
5B6
330
5AC
100
AcDbEntity
  8
DEFPOINTS
 62
     0
100
AcDbPoint
 10
1625.57489
 20
1578.0
 30
0.0
  0
POINT
  5
5B7
330
5AC
100
AcDbEntity
  8
DEFPOINTS
 62
     0
100
AcDbPoint
 10
1625.57489
 20
1575.0
 30
0.0
  0
ENDBLK
  5
5AE
330
5AC
100
AcDbEntity
  8
0
100
AcDbBlockEnd
  0
BLOCK
  5
5BE
330
5BD
100
AcDbEntity
  8
0
100
AcDbBlockBegin
  2
*D22
 70
     1
 10
0.0
 20
0.0
 30
0.0
  3
*D22
  1

  0
LINE
  5
5C0
330
5BD
100
AcDbEntity
  8
寸法
  6
CONTINUOUS
 62
     3
100
AcDbLine
 10
920.0000000000006
 20
1337.000019
 30
0.0
 11
920.0000000000001
 21
1317.000019
 31
0.0
  0
LINE
  5
5C1
330
5BD
100
AcDbEntity
  8
寸法
  6
CONTINUOUS
 62
     3
100
AcDbLine
 10
920.0000000000013
 20
1367.000019
 30
0.0
 11
920.0000000000019
 21
1397.000019
 31
0.0
  0
LINE
  5
5C2
330
5BD
100
AcDbEntity
  8
寸法
  6
CONTINUOUS
 62
     3
100
AcDbLine
 10
919.9999999999994
 20
1287.000019
 30
0.0
 11
919.9999999999987
 21
1257.000019
 31
0.0
  0
INSERT
  5
5C3
330
5BD
100
AcDbEntity
  8
寸法
 62
     3
100
AcDbBlockReference
  2
EX_NORM
 10
920.0000000000006
 20
1337.000019
 30
0.0
 41
30.0
 42
30.0
 43
30.0
 50
269.9999999999987
  0
INSERT
  5
5C4
330
5BD
100
AcDbEntity
  8
寸法
 62
     3
100
AcDbBlockReference
  2
EX_NORM
 10
920.0000000000001
 20
1317.000019
 30
0.0
 41
30.0
 42
30.0
 43
30.0
 50
89.9999999999987
  0
MTEXT
  5
5C5
330
5BD
100
AcDbEntity
  8
寸法
 62
     2
100
AcDbMText
 10
896.5000000596029
 20
1207.000019000001
 30
0.0
 40
40.0
 41
0.0
 71
     5
 72
     1
  1
（～28）
  7
EXCADDIM1
 11
2.273736754432347E-14
 21
1.0
 31
0.0
  0
POINT
  5
5C6
330
5BD
100
AcDbEntity
  8
DEFPOINTS
 62
     0
100
AcDbPoint
 10
920.0000000000006
 20
1337.000019
 30
0.0
  0
POINT
  5
5C7
330
5BD
100
AcDbEntity
  8
DEFPOINTS
 62
     0
100
AcDbPoint
 10
920.0000000000001
 20
1317.000019
 30
0.0
  0
POINT
  5
5C8
330
5BD
100
AcDbEntity
  8
DEFPOINTS
 62
     0
100
AcDbPoint
 10
920.0000000000001
 20
1317.000019
 30
0.0
  0
ENDBLK
  5
5BF
330
5BD
100
AcDbEntity
  8
0
100
AcDbBlockEnd
  0
BLOCK
  5
5CB
330
5CA
100
AcDbEntity
  8
0
100
AcDbBlockBegin
  2
*D23
 70
     1
 10
0.0
 20
0.0
 30
0.0
  3
*D23
  1

  0
LINE
  5
5CD
330
5CA
100
AcDbEntity
  8
寸法
  6
CONTINUOUS
 62
     3
100
AcDbLine
 10
851.9500043807907
 20
1337.000019
 30
0.0
 11
1001.0
 21
1337.000019
 31
0.0
  0
LINE
  5
5CE
330
5CA
100
AcDbEntity
  8
寸法
  6
CONTINUOUS
 62
     3
100
AcDbLine
 10
991.0000000000002
 20
667.0
 30
0.0
 11
991.0000000000002
 21
1307.000019
 31
0.0
  0
INSERT
  5
5CF
330
5CA
100
AcDbEntity
  8
寸法
 62
     3
100
AcDbBlockReference
  2
EX_NORM
 10
991.0000000000002
 20
637.0
 30
0.0
 41
30.0
 42
30.0
 43
30.0
 50
270.0
  0
INSERT
  5
5D0
330
5CA
100
AcDbEntity
  8
寸法
 62
     3
100
AcDbBlockReference
  2
EX_NORM
 10
991.0000000000002
 20
1337.000019
 30
0.0
 41
30.0
 42
30.0
 43
30.0
 50
90.0
  0
MTEXT
  5
5D1
330
5CA
100
AcDbEntity
  8
寸法
 62
     2
100
AcDbMText
 10
967.5000000596049
 20
987.0000094999996
 30
0.0
 40
40.0
 41
0.0
 71
     5
 72
     1
  1
（700）
  7
EXCADDIM1
 11
0.0
 21
1.0
 31
0.0
  0
POINT
  5
5D2
330
5CA
100
AcDbEntity
  8
DEFPOINTS
 62
     0
100
AcDbPoint
 10
844.1251145000001
 20
637.0
 30
0.0
  0
POINT
  5
5D3
330
5CA
100
AcDbEntity
  8
DEFPOINTS
 62
     0
100
AcDbPoint
 10
844.9500045
 20
1337.000019
 30
0.0
  0
POINT
  5
5D4
330
5CA
100
AcDbEntity
  8
DEFPOINTS
 62
     0
100
AcDbPoint
 10
991.0000000000002
 20
1337.000019
 30
0.0
  0
ENDBLK
  5
5CC
330
5CA
100
AcDbEntity
  8
0
100
AcDbBlockEnd
  0
BLOCK
  5
5D7
330
5D6
100
AcDbEntity
  8
0
100
AcDbBlockBegin
  2
*D24
 70
     1
 10
0.0
 20
0.0
 30
0.0
  3
*D24
  1

  0
LINE
  5
5D9
330
5D6
100
AcDbEntity
  8
寸法
  6
CONTINUOUS
 62
     3
100
AcDbLine
 10
846.9999998807907
 20
1437.000019
 30
0.0
 11
1064.0
 21
1437.000019
 31
0.0
  0
LINE
  5
5DA
330
5D6
100
AcDbEntity
  8
寸法
  6
CONTINUOUS
 62
     3
100
AcDbLine
 10
1054.0
 20
667.0
 30
0.0
 11
1054.0
 21
1407.000019
 31
0.0
  0
INSERT
  5
5DB
330
5D6
100
AcDbEntity
  8
寸法
 62
     3
100
AcDbBlockReference
  2
EX_NORM
 10
1054.0
 20
637.0
 30
0.0
 41
30.0
 42
30.0
 43
30.0
 50
270.0
  0
INSERT
  5
5DC
330
5D6
100
AcDbEntity
  8
寸法
 62
     3
100
AcDbBlockReference
  2
EX_NORM
 10
1054.0
 20
1437.000019
 30
0.0
 41
30.0
 42
30.0
 43
30.0
 50
90.0
  0
MTEXT
  5
5DD
330
5D6
100
AcDbEntity
  8
寸法
 62
     2
100
AcDbMText
 10
1030.500000059604
 20
1037.000009499999
 30
0.0
 40
40.0
 41
0.0
 71
     5
 72
     1
  1
800
  7
EXCADDIM1
 11
0.0
 21
1.0
 31
0.0
  0
POINT
  5
5DE
330
5D6
100
AcDbEntity
  8
DEFPOINTS
 62
     0
100
AcDbPoint
 10
891.4500045
 20
637.0
 30
0.0
  0
POINT
  5
5DF
330
5D6
100
AcDbEntity
  8
DEFPOINTS
 62
     0
100
AcDbPoint
 10
840.0
 20
1437.000019
 30
0.0
  0
POINT
  5
5E0
330
5D6
100
AcDbEntity
  8
DEFPOINTS
 62
     0
100
AcDbPoint
 10
1054.0
 20
1437.000019
 30
0.0
  0
ENDBLK
  5
5D8
330
5D6
100
AcDbEntity
  8
0
100
AcDbBlockEnd
  0
BLOCK
  5
5E3
330
5E2
100
AcDbEntity
  8
0
100
AcDbBlockBegin
  2
*D25
 70
     1
 10
0.0
 20
0.0
 30
0.0
  3
*D25
  1

  0
LINE
  5
5E5
330
5E2
100
AcDbEntity
  8
寸法
  6
CONTINUOUS
 62
     3
100
AcDbLine
 10
991.0
 20
1367.000019
 30
0.0
 11
991.0
 21
1407.000019
 31
0.0
  0
INSERT
  5
5E6
330
5E2
100
AcDbEntity
  8
寸法
 62
     3
100
AcDbBlockReference
  2
EX_NORM
 10
991.0
 20
1337.000019
 30
0.0
 41
30.0
 42
30.0
 43
30.0
 50
270.0
  0
INSERT
  5
5E7
330
5E2
100
AcDbEntity
  8
寸法
 62
     3
100
AcDbBlockReference
  2
EX_NORM
 10
991.0
 20
1437.000019
 30
0.0
 41
30.0
 42
30.0
 43
30.0
 50
90.0
  0
MTEXT
  5
5E8
330
5E2
100
AcDbEntity
  8
寸法
 62
     2
100
AcDbMText
 10
967.5000000596053
 20
1387.000018999999
 30
0.0
 40
40.0
 41
0.0
 71
     5
 72
     1
  1
100
  7
EXCADDIM1
 11
0.0
 21
1.0
 31
0.0
  0
POINT
  5
5E9
330
5E2
100
AcDbEntity
  8
DEFPOINTS
 62
     0
100
AcDbPoint
 10
844.9500045
 20
1337.000019
 30
0.0
  0
POINT
  5
5EA
330
5E2
100
AcDbEntity
  8
DEFPOINTS
 62
     0
100
AcDbPoint
 10
840.0
 20
1437.000019
 30
0.0
  0
POINT
  5
5EB
330
5E2
100
AcDbEntity
  8
DEFPOINTS
 62
     0
100
AcDbPoint
 10
991.0
 20
1437.000019
 30
0.0
  0
ENDBLK
  5
5E4
330
5E2
100
AcDbEntity
  8
0
100
AcDbBlockEnd
  0
BLOCK
  5
5EE
330
5ED
100
AcDbEntity
  8
0
100
AcDbBlockBegin
  2
*D26
 70
     1
 10
0.0
 20
0.0
 30
0.0
  3
*D26
  1

  0
LINE
  5
5F0
330
5ED
100
AcDbEntity
  8
寸法
  6
CONTINUOUS
 62
     3
100
AcDbLine
 10
1674.215507548391
 20
957.0
 30
0.0
 11
1804.0
 21
957.0
 31
0.0
  0
LINE
  5
5F1
330
5ED
100
AcDbEntity
  8
寸法
  6
CONTINUOUS
 62
     3
100
AcDbLine
 10
1794.0
 20
667.0
 30
0.0
 11
1794.0
 21
927.0
 31
0.0
  0
INSERT
  5
5F2
330
5ED
100
AcDbEntity
  8
寸法
 62
     3
100
AcDbBlockReference
  2
EX_NORM
 10
1794.0
 20
637.0
 30
0.0
 41
30.0
 42
30.0
 43
30.0
 50
270.0
  0
INSERT
  5
5F3
330
5ED
100
AcDbEntity
  8
寸法
 62
     3
100
AcDbBlockReference
  2
EX_NORM
 10
1794.0
 20
957.0
 30
0.0
 41
30.0
 42
30.0
 43
30.0
 50
90.0
  0
MTEXT
  5
5F4
330
5ED
100
AcDbEntity
  8
寸法
 62
     2
100
AcDbMText
 10
1770.500000059605
 20
796.9999999999984
 30
0.0
 40
40.0
 41
0.0
 71
     5
 72
     1
  1
320（壁給水）
  7
EXCADDIM1
 11
0.0
 21
1.0
 31
0.0
  0
POINT
  5
5F5
330
5ED
100
AcDbEntity
  8
DEFPOINTS
 62
     0
100
AcDbPoint
 10
1640.7903976676
 20
637.0
 30
0.0
  0
POINT
  5
5F6
330
5ED
100
AcDbEntity
  8
DEFPOINTS
 62
     0
100
AcDbPoint
 10
1667.2155076676
 20
957.0
 30
0.0
  0
POINT
  5
5F7
330
5ED
100
AcDbEntity
  8
DEFPOINTS
 62
     0
100
AcDbPoint
 10
1794.0
 20
957.0
 30
0.0
  0
ENDBLK
  5
5EF
330
5ED
100
AcDbEntity
  8
0
100
AcDbBlockEnd
  0
BLOCK
  5
5FA
330
5F9
100
AcDbEntity
  8
0
100
AcDbBlockBegin
  2
*D27
 70
     1
 10
0.0
 20
0.0
 30
0.0
  3
*D27
  1

  0
LINE
  5
5FC
330
5F9
100
AcDbEntity
  8
寸法
  6
CONTINUOUS
 62
     3
100
AcDbLine
 10
1647.790397548391
 20
637.0
 30
0.0
 11
1874.0
 21
636.9999999999999
 31
0.0
  0
LINE
  5
5FD
330
5F9
100
AcDbEntity
  8
寸法
  6
CONTINUOUS
 62
     3
100
AcDbLine
 10
1689.915507548391
 20
1212.0
 30
0.0
 11
1874.0
 21
1212.0
 31
0.0
  0
LINE
  5
5FE
330
5F9
100
AcDbEntity
  8
寸法
  6
CONTINUOUS
 62
     3
100
AcDbLine
 10
1864.0
 20
666.9999999999999
 30
0.0
 11
1864.0
 21
1182.0
 31
0.0
  0
INSERT
  5
5FF
330
5F9
100
AcDbEntity
  8
寸法
 62
     3
100
AcDbBlockReference
  2
EX_NORM
 10
1864.0
 20
636.9999999999999
 30
0.0
 41
30.0
 42
30.0
 43
30.0
 50
270.0
  0
INSERT
  5
600
330
5F9
100
AcDbEntity
  8
寸法
 62
     3
100
AcDbBlockReference
  2
EX_NORM
 10
1864.0
 20
1212.0
 30
0.0
 41
30.0
 42
30.0
 43
30.0
 50
90.0
  0
MTEXT
  5
601
330
5F9
100
AcDbEntity
  8
寸法
 62
     2
100
AcDbMText
 10
1840.500000059605
 20
924.4999999999966
 30
0.0
 40
40.0
 41
0.0
 71
     5
 72
     1
  1
575（壁排水）
  7
EXCADDIM1
 11
0.0
 21
1.0
 31
0.0
  0
POINT
  5
602
330
5F9
100
AcDbEntity
  8
DEFPOINTS
 62
     0
100
AcDbPoint
 10
1640.7903976676
 20
637.0
 30
0.0
  0
POINT
  5
603
330
5F9
100
AcDbEntity
  8
DEFPOINTS
 62
     0
100
AcDbPoint
 10
1682.9155076676
 20
1212.0
 30
0.0
  0
POINT
  5
604
330
5F9
100
AcDbEntity
  8
DEFPOINTS
 62
     0
100
AcDbPoint
 10
1864.0
 20
1212.0
 30
0.0
  0
ENDBLK
  5
5FB
330
5F9
100
AcDbEntity
  8
0
100
AcDbBlockEnd
  0
BLOCK
  5
60A
330
609
100
AcDbEntity
  8
0
100
AcDbBlockBegin
  2
*D28
 70
     1
 10
0.0
 20
0.0
 30
0.0
  3
*D28
  1

  0
LINE
  5
60C
330
609
100
AcDbEntity
  8
寸法
  6
CONTINUOUS
 62
     3
100
AcDbLine
 10
542.00000000001
 20
2377.799999602346
 30
0.0
 11
542.00000000001
 21
2303.5
 31
0.0
  0
LINE
  5
60D
330
609
100
AcDbEntity
  8
寸法
  6
CONTINUOUS
 62
     3
100
AcDbLine
 10
612.0000000000002
 20
2313.5
 30
0.0
 11
572.00000000001
 21
2313.5
 31
0.0
  0
INSERT
  5
60E
330
609
100
AcDbEntity
  8
寸法
 62
     3
100
AcDbBlockReference
  2
EX_NORM
 10
642.0000000000002
 20
2313.5
 30
0.0
 41
30.0
 42
30.0
 43
30.0
  0
INSERT
  5
60F
330
609
100
AcDbEntity
  8
寸法
 62
     3
100
AcDbBlockReference
  2
EX_NORM
 10
542.00000000001
 20
2313.5
 30
0.0
 41
30.0
 42
30.0
 43
30.0
 50
180.0
  0
MTEXT
  5
610
330
609
100
AcDbEntity
  8
寸法
 62
     2
100
AcDbMText
 10
592.0000000000055
 20
2336.999999940395
 30
0.0
 40
40.0
 41
0.0
 71
     5
 72
     1
  1
100
  7
EXCADDIM1
  0
POINT
  5
611
330
609
100
AcDbEntity
  8
DEFPOINTS
 62
     0
100
AcDbPoint
 10
642.0000000000002
 20
2433.78191965392
 30
0.0
  0
POINT
  5
612
330
609
100
AcDbEntity
  8
DEFPOINTS
 62
     0
100
AcDbPoint
 10
542.00000000001
 20
2390.981919653921
 30
0.0
  0
POINT
  5
613
330
609
100
AcDbEntity
  8
DEFPOINTS
 62
     0
100
AcDbPoint
 10
542.00000000001
 20
2313.5
 30
0.0
  0
ENDBLK
  5
60B
330
609
100
AcDbEntity
  8
0
100
AcDbBlockEnd
  0
BLOCK
  5
616
330
615
100
AcDbEntity
  8
0
100
AcDbBlockBegin
  2
*D29
 70
     1
 10
0.0
 20
0.0
 30
0.0
  3
*D29
  1

  0
LINE
  5
618
330
615
100
AcDbEntity
  8
寸法
  6
CONTINUOUS
 62
     3
100
AcDbLine
 10
489.9000000953677
 20
2424.481919653921
 30
0.0
 11
387.4999999999989
 21
2424.481919653921
 31
0.0
  0
LINE
  5
619
330
615
100
AcDbEntity
  8
寸法
  6
CONTINUOUS
 62
     3
100
AcDbLine
 10
397.4999999999989
 20
2545.48191965392
 30
0.0
 11
397.4999999999989
 21
2454.481919653921
 31
0.0
  0
INSERT
  5
61A
330
615
100
AcDbEntity
  8
寸法
 62
     3
100
AcDbBlockReference
  2
EX_NORM
 10
397.4999999999989
 20
2575.48191965392
 30
0.0
 41
30.0
 42
30.0
 43
30.0
 50
90.0
  0
INSERT
  5
61B
330
615
100
AcDbEntity
  8
寸法
 62
     3
100
AcDbBlockReference
  2
EX_NORM
 10
397.4999999999989
 20
2424.481919653921
 30
0.0
 41
30.0
 42
30.0
 43
30.0
 50
270.0
  0
MTEXT
  5
61C
330
615
100
AcDbEntity
  8
寸法
 62
     2
100
AcDbMText
 10
374.0000000596049
 20
2499.98191965392
 30
0.0
 40
40.0
 41
0.0
 71
     5
 72
     1
  1
151
  7
EXCADDIM1
 11
0.0
 21
1.0
 31
0.0
  0
POINT
  5
61D
330
615
100
AcDbEntity
  8
DEFPOINTS
 62
     0
100
AcDbPoint
 10
447.0000000000002
 20
2575.48191965392
 30
0.0
  0
POINT
  5
61E
330
615
100
AcDbEntity
  8
DEFPOINTS
 62
     0
100
AcDbPoint
 10
502.5000000000003
 20
2424.481919653921
 30
0.0
  0
POINT
  5
61F
330
615
100
AcDbEntity
  8
DEFPOINTS
 62
     0
100
AcDbPoint
 10
397.4999999999989
 20
2424.481919653921
 30
0.0
  0
ENDBLK
  5
617
330
615
100
AcDbEntity
  8
0
100
AcDbBlockEnd
  0
BLOCK
  5
622
330
621
100
AcDbEntity
  8
0
100
AcDbBlockBegin
  2
*D30
 70
     1
 10
0.0
 20
0.0
 30
0.0
  3
*D30
  1

  0
LINE
  5
624
330
621
100
AcDbEntity
  8
寸法
  6
CONTINUOUS
 62
     3
100
AcDbLine
 10
513.5000000000002
 20
2484.48193002825
 30
0.0
 11
441.7999999999991
 21
2484.48193002825
 31
0.0
  0
LINE
  5
625
330
621
100
AcDbEntity
  8
寸法
  6
CONTINUOUS
 62
     3
100
AcDbLine
 10
451.7999999999991
 20
2545.48191965392
 30
0.0
 11
451.7999999999991
 21
2514.48193002825
 31
0.0
  0
INSERT
  5
626
330
621
100
AcDbEntity
  8
寸法
 62
     3
100
AcDbBlockReference
  2
EX_NORM
 10
451.7999999999991
 20
2575.48191965392
 30
0.0
 41
30.0
 42
30.0
 43
30.0
 50
90.0
  0
INSERT
  5
627
330
621
100
AcDbEntity
  8
寸法
 62
     3
100
AcDbBlockReference
  2
EX_NORM
 10
451.7999999999991
 20
2484.48193002825
 30
0.0
 41
30.0
 42
30.0
 43
30.0
 50
270.0
  0
MTEXT
  5
628
330
621
100
AcDbEntity
  8
寸法
 62
     2
100
AcDbMText
 10
428.3000000596053
 20
2529.981924841085
 30
0.0
 40
40.0
 41
0.0
 71
     5
 72
     1
  1
91
  7
EXCADDIM1
 11
0.0
 21
1.0
 31
0.0
  0
POINT
  5
629
330
621
100
AcDbEntity
  8
DEFPOINTS
 62
     0
100
AcDbPoint
 10
447.0000000000002
 20
2575.48191965392
 30
0.0
  0
POINT
  5
62A
330
621
100
AcDbEntity
  8
DEFPOINTS
 62
     0
100
AcDbPoint
 10
553.5000000000002
 20
2484.48193002825
 30
0.0
  0
POINT
  5
62B
330
621
100
AcDbEntity
  8
DEFPOINTS
 62
     0
100
AcDbPoint
 10
451.7999999999991
 20
2484.48193002825
 30
0.0
  0
ENDBLK
  5
623
330
621
100
AcDbEntity
  8
0
100
AcDbBlockEnd
  0
BLOCK
  5
62E
330
62D
100
AcDbEntity
  8
0
100
AcDbBlockBegin
  2
*D31
 70
     1
 10
0.0
 20
0.0
 30
0.0
  3
*D31
  1

  0
LINE
  5
630
330
62D
100
AcDbEntity
  8
寸法
  6
CONTINUOUS
 62
     3
100
AcDbLine
 10
592.0000000000002
 20
2555.5
 30
0.0
 11
592.0000000000002
 21
2629.5
 31
0.0
  0
LINE
  5
631
330
62D
100
AcDbEntity
  8
寸法
  6
CONTINUOUS
 62
     3
100
AcDbLine
 10
692.0000000000002
 20
2555.5
 30
0.0
 11
692.0000000000002
 21
2629.5
 31
0.0
  0
LINE
  5
632
330
62D
100
AcDbEntity
  8
寸法
  6
CONTINUOUS
 62
     3
100
AcDbLine
 10
622.0000000000002
 20
2619.5
 30
0.0
 11
662.0000000000002
 21
2619.5
 31
0.0
  0
INSERT
  5
633
330
62D
100
AcDbEntity
  8
寸法
 62
     3
100
AcDbBlockReference
  2
EX_NORM
 10
592.0000000000002
 20
2619.5
 30
0.0
 41
30.0
 42
30.0
 43
30.0
 50
180.0
  0
INSERT
  5
634
330
62D
100
AcDbEntity
  8
寸法
 62
     3
100
AcDbBlockReference
  2
EX_NORM
 10
692.0000000000002
 20
2619.5
 30
0.0
 41
30.0
 42
30.0
 43
30.0
  0
MTEXT
  5
635
330
62D
100
AcDbEntity
  8
寸法
 62
     2
100
AcDbMText
 10
642.0000000000005
 20
2642.999999940395
 30
0.0
 40
40.0
 41
0.0
 71
     5
 72
     1
  1
100
  7
EXCADDIM1
  0
POINT
  5
636
330
62D
100
AcDbEntity
  8
DEFPOINTS
 62
     0
100
AcDbPoint
 10
592.0000000000002
 20
2490.5
 30
0.0
  0
POINT
  5
637
330
62D
100
AcDbEntity
  8
DEFPOINTS
 62
     0
100
AcDbPoint
 10
692.0000000000002
 20
2490.5
 30
0.0
  0
POINT
  5
638
330
62D
100
AcDbEntity
  8
DEFPOINTS
 62
     0
100
AcDbPoint
 10
692.0000000000002
 20
2619.5
 30
0.0
  0
ENDBLK
  5
62F
330
62D
100
AcDbEntity
  8
0
100
AcDbBlockEnd
  0
BLOCK
  5
63B
330
63A
100
AcDbEntity
  8
0
100
AcDbBlockBegin
  2
*D32
 70
     1
 10
0.0
 20
0.0
 30
0.0
  3
*D32
  1

  0
LINE
  5
63D
330
63A
100
AcDbEntity
  8
寸法
  6
CONTINUOUS
 62
     3
100
AcDbLine
 10
744.0000000000001
 20
2575.48191965392
 30
0.0
 11
744.0000000000001
 21
2555.5
 31
0.0
  0
LINE
  5
63E
330
63A
100
AcDbEntity
  8
寸法
  6
CONTINUOUS
 62
     3
100
AcDbLine
 10
744.0000000000001
 20
2605.48191965392
 30
0.0
 11
744.0000000000001
 21
2635.48191965392
 31
0.0
  0
LINE
  5
63F
330
63A
100
AcDbEntity
  8
寸法
  6
CONTINUOUS
 62
     3
100
AcDbLine
 10
744.0000000000001
 20
2525.5
 30
0.0
 11
744.0000000000001
 21
2495.5
 31
0.0
  0
INSERT
  5
640
330
63A
100
AcDbEntity
  8
寸法
 62
     3
100
AcDbBlockReference
  2
EX_NORM
 10
744.0000000000001
 20
2575.48191965392
 30
0.0
 41
30.0
 42
30.0
 43
30.0
 50
270.0
  0
INSERT
  5
641
330
63A
100
AcDbEntity
  8
寸法
 62
     3
100
AcDbBlockReference
  2
EX_NORM
 10
744.0000000000001
 20
2555.5
 30
0.0
 41
30.0
 42
30.0
 43
30.0
 50
90.0
  0
MTEXT
  5
642
330
63A
100
AcDbEntity
  8
寸法
 62
     2
100
AcDbMText
 10
720.5000000596059
 20
2640.481919653919
 30
0.0
 40
40.0
 41
0.0
 71
     5
 72
     1
  1
20
  7
EXCADDIM1
 11
-3.828568698926949E-16
 21
1.0
 31
0.0
  0
POINT
  5
643
330
63A
100
AcDbEntity
  8
DEFPOINTS
 62
     0
100
AcDbPoint
 10
642.0000000000002
 20
2575.48191965392
 30
0.0
  0
POINT
  5
644
330
63A
100
AcDbEntity
  8
DEFPOINTS
 62
     0
100
AcDbPoint
 10
672.0000000000002
 20
2555.5
 30
0.0
  0
POINT
  5
645
330
63A
100
AcDbEntity
  8
DEFPOINTS
 62
     0
100
AcDbPoint
 10
744.0000000000001
 20
2555.5
 30
0.0
  0
ENDBLK
  5
63C
330
63A
100
AcDbEntity
  8
0
100
AcDbBlockEnd
  0
BLOCK
  5
648
330
647
100
AcDbEntity
  8
0
100
AcDbBlockBegin
  2
*D33
 70
     1
 10
0.0
 20
0.0
 30
0.0
  3
*D33
  1

  0
LINE
  5
64A
330
647
100
AcDbEntity
  8
寸法
  6
CONTINUOUS
 62
     3
100
AcDbLine
 10
692.0000000000002
 20
2555.5
 30
0.0
 11
754.0000000000001
 21
2555.5
 31
0.0
  0
LINE
  5
64B
330
647
100
AcDbEntity
  8
寸法
  6
CONTINUOUS
 62
     3
100
AcDbLine
 10
692.0000000000002
 20
2470.5
 30
0.0
 11
754.0000000000001
 21
2470.5
 31
0.0
  0
LINE
  5
64C
330
647
100
AcDbEntity
  8
寸法
  6
CONTINUOUS
 62
     3
100
AcDbLine
 10
744.0000000000001
 20
2525.5
 30
0.0
 11
744.0000000000001
 21
2500.5
 31
0.0
  0
INSERT
  5
64D
330
647
100
AcDbEntity
  8
寸法
 62
     3
100
AcDbBlockReference
  2
EX_NORM
 10
744.0000000000001
 20
2555.5
 30
0.0
 41
30.0
 42
30.0
 43
30.0
 50
90.0
  0
INSERT
  5
64E
330
647
100
AcDbEntity
  8
寸法
 62
     3
100
AcDbBlockReference
  2
EX_NORM
 10
744.0000000000001
 20
2470.5
 30
0.0
 41
30.0
 42
30.0
 43
30.0
 50
270.0
  0
MTEXT
  5
64F
330
647
100
AcDbEntity
  8
寸法
 62
     2
100
AcDbMText
 10
720.5000000596053
 20
2513.000000000001
 30
0.0
 40
40.0
 41
0.0
 71
     5
 72
     1
  1
85
  7
EXCADDIM1
 11
0.0
 21
1.0
 31
0.0
  0
POINT
  5
650
330
647
100
AcDbEntity
  8
DEFPOINTS
 62
     0
100
AcDbPoint
 10
672.0000000000002
 20
2555.5
 30
0.0
  0
POINT
  5
651
330
647
100
AcDbEntity
  8
DEFPOINTS
 62
     0
100
AcDbPoint
 10
672.0000000000002
 20
2470.5
 30
0.0
  0
POINT
  5
652
330
647
100
AcDbEntity
  8
DEFPOINTS
 62
     0
100
AcDbPoint
 10
744.0000000000001
 20
2470.5
 30
0.0
  0
ENDBLK
  5
649
330
647
100
AcDbEntity
  8
0
100
AcDbBlockEnd
  0
BLOCK
  5
655
330
654
100
AcDbEntity
  8
0
100
AcDbBlockBegin
  2
*D34
 70
     1
 10
0.0
 20
0.0
 30
0.0
  3
*D34
  1

  0
LINE
  5
657
330
654
100
AcDbEntity
  8
寸法
  6
CONTINUOUS
 62
     3
100
AcDbLine
 10
519.5000000000002
 20
2504.381919653942
 30
0.0
 11
519.5000000000002
 21
2689.5
 31
0.0
  0
LINE
  5
658
330
654
100
AcDbEntity
  8
寸法
  6
CONTINUOUS
 62
     3
100
AcDbLine
 10
764.5000000000002
 20
2500.281919653941
 30
0.0
 11
764.5000000000002
 21
2689.5
 31
0.0
  0
LINE
  5
659
330
654
100
AcDbEntity
  8
寸法
  6
CONTINUOUS
 62
     3
100
AcDbLine
 10
549.5000000000002
 20
2679.5
 30
0.0
 11
734.5000000000002
 21
2679.5
 31
0.0
  0
INSERT
  5
65A
330
654
100
AcDbEntity
  8
寸法
 62
     3
100
AcDbBlockReference
  2
EX_NORM
 10
519.5000000000002
 20
2679.5
 30
0.0
 41
30.0
 42
30.0
 43
30.0
 50
180.0
  0
INSERT
  5
65B
330
654
100
AcDbEntity
  8
寸法
 62
     3
100
AcDbBlockReference
  2
EX_NORM
 10
764.5000000000002
 20
2679.5
 30
0.0
 41
30.0
 42
30.0
 43
30.0
  0
MTEXT
  5
65C
330
654
100
AcDbEntity
  8
寸法
 62
     2
100
AcDbMText
 10
642.0000000000005
 20
2702.999999940395
 30
0.0
 40
40.0
 41
0.0
 71
     5
 72
     1
  1
245
  7
EXCADDIM1
  0
POINT
  5
65D
330
654
100
AcDbEntity
  8
DEFPOINTS
 62
     0
100
AcDbPoint
 10
519.5000000000002
 20
2504.381919653921
 30
0.0
  0
POINT
  5
65E
330
654
100
AcDbEntity
  8
DEFPOINTS
 62
     0
100
AcDbPoint
 10
764.5000000000002
 20
2500.28191965392
 30
0.0
  0
POINT
  5
65F
330
654
100
AcDbEntity
  8
DEFPOINTS
 62
     0
100
AcDbPoint
 10
764.5000000000002
 20
2679.5
 30
0.0
  0
ENDBLK
  5
656
330
654
100
AcDbEntity
  8
0
100
AcDbBlockEnd
  0
BLOCK
  5
667
330
666
100
AcDbEntity
  8
0
100
AcDbBlockBegin
  2
*D35
 70
     1
 10
0.0
 20
0.0
 30
0.0
  3
*D35
  1

  0
LINE
  5
669
330
666
100
AcDbEntity
  8
固定ボルト穴詳細
  6
CONTINUOUS
 62
     3
100
AcDbLine
 10
929.9999999999999
 20
2259.025644346999
 30
0.0
 11
789.2000000000002
 21
2259.025644346999
 31
0.0
  0
LINE
  5
66A
330
666
100
AcDbEntity
  8
固定ボルト穴詳細
  6
CONTINUOUS
 62
     3
100
AcDbLine
 10
929.9999999999999
 20
2159.025644346999
 30
0.0
 11
789.2000000000002
 21
2159.025644346999
 31
0.0
  0
LINE
  5
66B
330
666
100
AcDbEntity
  8
固定ボルト穴詳細
  6
CONTINUOUS
 62
     3
100
AcDbLine
 10
799.2000000000002
 20
2229.025644346999
 30
0.0
 11
799.2000000000002
 21
2189.025644346999
 31
0.0
  0
INSERT
  5
66C
330
666
100
AcDbEntity
  8
固定ボルト穴詳細
 62
     3
100
AcDbBlockReference
  2
EX_NORM
 10
799.2000000000002
 20
2259.025644346999
 30
0.0
 41
30.0
 42
30.0
 43
30.0
 50
90.0
  0
INSERT
  5
66D
330
666
100
AcDbEntity
  8
固定ボルト穴詳細
 62
     3
100
AcDbBlockReference
  2
EX_NORM
 10
799.2000000000002
 20
2159.025644346999
 30
0.0
 41
30.0
 42
30.0
 43
30.0
 50
270.0
  0
MTEXT
  5
66E
330
666
100
AcDbEntity
  8
固定ボルト穴詳細
 62
     2
100
AcDbMText
 10
775.7000000596051
 20
2209.025644346999
 30
0.0
 40
40.0
 41
0.0
 71
     5
 72
     1
  1
20
  7
EXCADDIM1
 11
0.0
 21
1.0
 31
0.0
  0
POINT
  5
66F
330
666
100
AcDbEntity
  8
DEFPOINTS
 62
     0
100
AcDbPoint
 10
930.0
 20
2259.025644346999
 30
0.0
  0
POINT
  5
670
330
666
100
AcDbEntity
  8
DEFPOINTS
 62
     0
100
AcDbPoint
 10
930.0
 20
2159.025644346999
 30
0.0
  0
POINT
  5
671
330
666
100
AcDbEntity
  8
DEFPOINTS
 62
     0
100
AcDbPoint
 10
799.2000000000002
 20
2159.025644346999
 30
0.0
  0
ENDBLK
  5
668
330
666
100
AcDbEntity
  8
0
100
AcDbBlockEnd
  0
BLOCK
  5
674
330
673
100
AcDbEntity
  8
0
100
AcDbBlockBegin
  2
*D36
 70
     1
 10
0.0
 20
0.0
 30
0.0
  3
*D36
  1

  0
LINE
  5
676
330
673
100
AcDbEntity
  8
固定ボルト穴詳細
  6
CONTINUOUS
 62
     3
100
AcDbLine
 10
890.3000000000001
 20
2229.025644346999
 30
0.0
 11
844.8000000000004
 21
2229.025644346999
 31
0.0
  0
LINE
  5
677
330
673
100
AcDbEntity
  8
固定ボルト穴詳細
  6
CONTINUOUS
 62
     3
100
AcDbLine
 10
890.3000000000001
 20
2189.025644346999
 30
0.0
 11
844.8000000000004
 21
2189.025644346999
 31
0.0
  0
LINE
  5
678
330
673
100
AcDbEntity
  8
固定ボルト穴詳細
  6
CONTINUOUS
 62
     3
100
AcDbLine
 10
854.7999999999998
 20
2229.025644346999
 30
0.0
 11
854.7999999999998
 21
2189.025644346999
 31
0.0
  0
LINE
  5
679
330
673
100
AcDbEntity
  8
固定ボルト穴詳細
  6
CONTINUOUS
 62
     3
100
AcDbLine
 10
854.7999999999998
 20
2259.025644346999
 30
0.0
 11
854.7999999999998
 21
2289.025644346999
 31
0.0
  0
LINE
  5
67A
330
673
100
AcDbEntity
  8
固定ボルト穴詳細
  6
CONTINUOUS
 62
     3
100
AcDbLine
 10
854.7999999999998
 20
2159.025644346999
 30
0.0
 11
854.7999999999998
 21
2129.025644346999
 31
0.0
  0
INSERT
  5
67B
330
673
100
AcDbEntity
  8
固定ボルト穴詳細
 62
     3
100
AcDbBlockReference
  2
EX_NORM
 10
854.7999999999998
 20
2229.025644346999
 30
0.0
 41
30.0
 42
30.0
 43
30.0
 50
270.0
  0
INSERT
  5
67C
330
673
100
AcDbEntity
  8
固定ボルト穴詳細
 62
     3
100
AcDbBlockReference
  2
EX_NORM
 10
854.7999999999998
 20
2189.025644346999
 30
0.0
 41
30.0
 42
30.0
 43
30.0
 50
90.0
  0
MTEXT
  5
67D
330
673
100
AcDbEntity
  8
固定ボルト穴詳細
 62
     2
100
AcDbMText
 10
831.3000000596046
 20
2209.025644346999
 30
0.0
 40
40.0
 41
0.0
 71
     5
 72
     1
  1
8
  7
EXCADDIM1
 11
0.0
 21
1.0
 31
0.0
  0
POINT
  5
67E
330
673
100
AcDbEntity
  8
DEFPOINTS
 62
     0
100
AcDbPoint
 10
900.0
 20
2229.025644346999
 30
0.0
  0
POINT
  5
67F
330
673
100
AcDbEntity
  8
DEFPOINTS
 62
     0
100
AcDbPoint
 10
900.0
 20
2189.025644346999
 30
0.0
  0
POINT
  5
680
330
673
100
AcDbEntity
  8
DEFPOINTS
 62
     0
100
AcDbPoint
 10
854.7999999999998
 20
2189.025644346999
 30
0.0
  0
ENDBLK
  5
675
330
673
100
AcDbEntity
  8
0
100
AcDbBlockEnd
  0
BLOCK
  5
683
330
682
100
AcDbEntity
  8
0
100
AcDbBlockBegin
  2
*D37
 70
     1
 10
0.0
 20
0.0
 30
0.0
  3
*D37
  1

  0
LINE
  5
685
330
682
100
AcDbEntity
  8
固定ボルト穴詳細
  6
CONTINUOUS
 62
     3
100
AcDbLine
 10
900.0
 20
2229.025644346999
 30
0.0
 11
900.0
 21
2307.725644347
 31
0.0
  0
LINE
  5
686
330
682
100
AcDbEntity
  8
固定ボルト穴詳細
  6
CONTINUOUS
 62
     3
100
AcDbLine
 10
960.0
 20
2229.025644346999
 30
0.0
 11
960.0
 21
2307.725644347
 31
0.0
  0
LINE
  5
687
330
682
100
AcDbEntity
  8
固定ボルト穴詳細
  6
CONTINUOUS
 62
     3
100
AcDbLine
 10
930.0
 20
2297.725644347
 30
0.0
 11
930.0
 21
2297.725644347
 31
0.0
  0
INSERT
  5
688
330
682
100
AcDbEntity
  8
固定ボルト穴詳細
 62
     3
100
AcDbBlockReference
  2
EX_NORM
 10
900.0
 20
2297.725644347
 30
0.0
 41
30.0
 42
30.0
 43
30.0
 50
180.0
  0
INSERT
  5
689
330
682
100
AcDbEntity
  8
固定ボルト穴詳細
 62
     3
100
AcDbBlockReference
  2
EX_NORM
 10
960.0
 20
2297.725644347
 30
0.0
 41
30.0
 42
30.0
 43
30.0
  0
MTEXT
  5
68A
330
682
100
AcDbEntity
  8
固定ボルト穴詳細
 62
     2
100
AcDbMText
 10
930.0000000000001
 20
2321.225644287395
 30
0.0
 40
40.0
 41
0.0
 71
     5
 72
     1
  1
12
  7
EXCADDIM1
  0
POINT
  5
68B
330
682
100
AcDbEntity
  8
DEFPOINTS
 62
     0
100
AcDbPoint
 10
900.0
 20
2229.025644346999
 30
0.0
  0
POINT
  5
68C
330
682
100
AcDbEntity
  8
DEFPOINTS
 62
     0
100
AcDbPoint
 10
960.0
 20
2229.025644346999
 30
0.0
  0
POINT
  5
68D
330
682
100
AcDbEntity
  8
DEFPOINTS
 62
     0
100
AcDbPoint
 10
960.0
 20
2297.725644347
 30
0.0
  0
ENDBLK
  5
684
330
682
100
AcDbEntity
  8
0
100
AcDbBlockEnd
  0
ENDSEC
  0
SECTION
  2
ENTITIES
  0
LINE
  5
A9
330
1F
100
AcDbEntity
  8
枠_表
  6
CONTINUOUS
 62
     7
100
AcDbLine
 10
173.9999999999998
 20
92.99999999999955
 30
0.0
 11
1993.999999999999
 21
92.99999999999955
 31
0.0
  0
HATCH
  5
AA
330
1F
100
AcDbEntity
  8
枠_表
  6
CONTINUOUS
 62
     3
100
AcDbHatch
 10
0.0
 20
0.0
 30
0.0
210
0.0
220
0.0
230
1.0
  2
SOLID
 70
     1
 71
     1
 91
        1
 92
        3
 72
     1
 73
     1
 93
       10
 10
774.7252657332523
 20
123.21699329754
 42
-0.017362223501556
 10
774.813015733253
 20
176.184243297541
 42
-0.0267627618865285
 10
774.8130157332521
 20
176.1842432975408
 42
0.0737939047395297
 10
787.7325157332523
 20
176.2382432975406
 42
0.0183878899657109
 10
787.2127657332531
 20
128.4819932975411
 42
-0.1144749489451909
 10
785.1202657332523
 20
118.4244932975405
 42
-0.1929163439413163
 10
775.1640157332533
 20
110.6079932975399
 42
-0.0603888289562337
 10
769.885515733252
 20
109.2917432975401
 42
0.0
 10
768.6502657332518
 20
113.0514932975406
 42
0.0860918333465722
 10
772.3425157332529
 20
115.01574329754
 42
0.1331843103855141
 97
        0
 75
     0
 76
     1
 98
        1
 10
0.0
 20
0.0
  0
HATCH
  5
AB
330
1F
100
AcDbEntity
  8
枠_表
  6
CONTINUOUS
 62
     3
100
AcDbHatch
 10
0.0
 20
0.0
 30
0.0
210
0.0
220
0.0
230
1.0
  2
SOLID
 70
     1
 71
     1
 91
        1
 92
        3
 72
     1
 73
     1
 93
       16
 10
833.8687657332528
 20
122.1032432975406
 42
-0.0386228372648426
 10
833.8080157332527
 20
154.6449932975407
 42
-0.0398707891902887
 10
839.7142657332523
 20
154.6719932975414
 42
-0.1256886216044368
 10
839.4442657332529
 20
149.1504932975413
 42
-0.0367815758121429
 10
839.4442657332529
 20
149.1504932975399
 42
-0.268021535028829
 10
851.3580157332526
 20
155.3334932975407
 42
-0.2571134422124888
 10
859.5052657332516
 20
151.303743297541
 42
-0.1522526366014298
 10
861.5775157332522
 20
144.6009932975401
 42
-0.0158825412051521
 10
861.4290157332523
 20
122.0694932975412
 42
-0.0285251271418421
 10
855.7252657332532
 20
122.0694932975406
 42
-0.0452212723224612
 10
856.0155157332522
 20
142.8864932975404
 42
-0.0315567291532142
 10
854.2470157332525
 20
149.0357432975414
 42
-0.1476272403790709
 10
842.7315157332526
 20
149.9199932975405
 42
-0.3908144705745794
 10
839.484765733252
 20
141.8402432975405
 42
-0.2046259928850854
 10
839.484765733252
 20
141.8402432975404
 42
0.0
 10
839.991015733253
 20
122.0492432975408
 42
-0.0304995761723369
 97
        0
 75
     0
 76
     1
 98
        1
 10
0.0
 20
0.0
  0
HATCH
  5
AC
330
1F
100
AcDbEntity
  8
枠_表
  6
CONTINUOUS
 62
     3
100
AcDbHatch
 10
0.0
 20
0.0
 30
0.0
210
0.0
220
0.0
230
1.0
  2
SOLID
 70
     1
 71
     1
 91
        2
 92
        1
 93
        1
 72
     2
 10
876.285514038338
 20
166.5835466873705
 40
3.572334466769884
 50
0.0
 51
360.0
 73
     1
 97
        0
 92
        3
 72
     1
 73
     1
 93
        3
 10
873.0930157332518
 20
154.6989932975412
 42
0.1200283885712921
 10
879.3030157332519
 20
122.0627432975403
 42
-0.0401820615762149
 10
873.0997657332518
 20
122.0424932975407
 42
-0.0237521668114666
 97
        0
 75
     0
 76
     1
 98
        1
 10
0.0
 20
0.0
  0
HATCH
  5
AD
330
1F
100
AcDbEntity
  8
枠_表
  6
CONTINUOUS
 62
     3
100
AcDbHatch
 10
0.0
 20
0.0
 30
0.0
210
0.0
220
0.0
230
1.0
  2
SOLID
 70
     1
 71
     1
 91
        1
 92
        3
 72
     1
 73
     1
 93
       30
 10
907.7340157332516
 20
153.3354932975412
 42
-0.0009362235736497
 10
907.7340157332495
 20
153.3354932975402
 42
0.0681165430304653
 10
906.0970934867333
 20
148.4282432975408
 42
0.0
 10
899.9310157332525
 20
152.6469932975415
 42
-0.302112590907374
 10
899.931015733253
 20
152.6469932975408
 42
0.0
 10
893.714265733252
 20
147.8814932975413
 42
-0.3704245237568778
 10
893.7142657332521
 20
147.8814932975411
 42
0.0
 10
894.0382657332524
 20
144.6954932975402
 42
-0.0262822419456939
 10
897.8722657332523
 20
141.6309932975411
 42
-0.180060563604375
 10
903.9877657332523
 20
139.7679932975409
 42
-0.0298130817160724
 10
903.987765733252
 20
139.7679932975406
 42
-0.3153987453686078
 10
909.6240157332528
 20
133.3217432975403
 42
0.0
 10
909.5902657332533
 20
130.439493297541
 42
-0.3510306079065168
 10
898.7227657332522
 20
121.3269932975413
 42
0.0
 10
895.5502657332515
 20
121.3269932975405
 42
-0.1053356344842436
 10
888.5302657332527
 20
123.3519932975408
 42
0.1188608286962634
 10
889.8127657332526
 20
128.4819932975415
 42
0.0
 10
897.5077657332523
 20
123.7569932975408
 42
-0.2447573632916039
 10
897.5077657332525
 20
123.7569932975407
 42
0.0
 10
904.9327657332524
 20
128.9544932975409
 42
-0.3734162676407277
 10
904.9327657332532
 20
128.95449329754
 42
0.0
 10
902.239515733253
 20
134.1452432975409
 42
-0.261219770190848
 10
895.9552657332516
 20
136.4267432975409
 42
-0.0572747914118363
 10
895.9552657332526
 20
136.4267432975408
 42
-0.1189658875692221
 10
890.9602657332525
 20
139.3562432975409
 42
-0.2005226878639636
 10
888.8677657332522
 20
144.0744932975622
 42
0.0
 10
888.8340157332523
 20
145.8632432975405
 42
-0.2622894489606957
 10
894.2002657332532
 20
154.0644932975404
 42
-0.0988461274137808
 10
899.222265733253
 20
155.2727432975405
 42
0.0
 10
901.0852657332524
 20
155.2727432975403
 42
-0.0920156312561188
 97
        0
 75
     0
 76
     1
 98
        1
 10
0.0
 20
0.0
  0
HATCH
  5
AE
330
1F
100
AcDbEntity
  8
枠_表
  6
CONTINUOUS
 62
     3
100
AcDbHatch
 10
0.0
 20
0.0
 30
0.0
210
0.0
220
0.0
230
1.0
  2
SOLID
 70
     1
 71
     1
 91
        2
 92
        3
 72
     1
 73
     1
 93
       27
 10
800.1727657332519
 20
151.3644932975409
 42
-0.1769427732109284
 10
800.1727657332532
 20
151.364493297541
 42
0.0
 10
800.1727657332532
 20
147.7194932975408
 42
0.0
 10
801.0502657332526
 20
147.7194932975404
 42
-0.207533601427307
 10
806.747422789573
 20
151.9932359129042
 42
-0.1226604740888933
 10
811.7827657332525
 20
152.1002432975408
 42
-0.3213715781137954
 10
816.9883280222108
 20
145.7106514378481
 42
-0.064704004662446
 10
817.0140157332521
 20
142.3329932975406
 42
-0.257798906330806
 10
815.9542657332532
 20
141.05049329754
 42
-0.056602577721096
 10
813.686265733253
 20
140.2607432975415
 42
-0.0166741689362636
 10
805.3702657332522
 20
138.6812432975407
 42
0.1186092302783404
 10
799.8825157332523
 20
136.0487432975412
 42
0.1699204224386695
 10
797.493015733253
 20
132.05274329754
 42
0.1006533494296199
 10
797.2720866795844
 20
128.5853555095727
 42
0.1675695228968024
 10
799.4370157332534
 20
123.9392432975413
 42
0.1376980079804242
 10
803.3722657332518
 20
121.6644932975403
 42
0.0719813663796923
 10
805.1610157332522
 20
121.3674932975414
 42
0.0
 10
807.9015157332532
 20
121.3674932975415
 42
0.1944607457809085
 10
816.9937657332533
 20
126.0452432975407
 42
0.1288538183665954
 10
817.9117657332523
 20
123.750243297541
 42
0.2098387395261546
 10
820.9087657332526
 20
122.0964932975403
 42
0.0
 10
823.0822657332532
 20
122.0829932975404
 42
0.0945009641609563
 10
826.2210157332521
 20
122.7512432975414
 42
0.0
 10
826.2210157332519
 20
124.3239932975407
 42
-0.2395739894657535
 10
823.4805157332527
 20
124.2969932975405
 42
-0.2502312110031057
 10
822.1305157332524
 20
126.834993297542
 42
-0.0104343570771765
 10
822.3127657332528
 20
145.7619932975412
 42
0.4051015674140716
 97
        0
 92
        3
 72
     1
 73
     1
 93
        8
 10
817.1355157332526
 20
139.0254932975406
 42
-0.0339435190873666
 10
817.1355157332546
 20
139.0254932975297
 42
-0.0001110072973599
 10
816.8520157332528
 20
128.6844932975405
 42
-0.2253076310552528
 10
809.7645157332528
 20
123.952743297541
 42
0.0
 10
808.0297657332521
 20
123.952743297541
 42
-0.3657967558150132
 10
802.8727657332519
 20
129.4337432975408
 42
0.0
 10
802.8727657332527
 20
131.3912432975414
 42
-0.2530797830369341
 10
806.3557657332531
 20
136.2107432975412
 42
-0.0724473624720066
 97
        0
 75
     0
 76
     1
 98
        1
 10
0.0
 20
0.0
  0
TEXT
  5
B0
330
1F
100
AcDbEntity
  8
枠_表
  6
CONTINUOUS
 62
     2
100
AcDbText
 10
923.0000000000045
 20
116.5000000000009
 30
0.0
 40
33.75
  1
ジャニス工業株式会社
 41
1.025641025641026
  7
EXCADTTF1
 72
     5
 11
1373.000000000005
 21
116.5000000000009
 31
0.0
100
AcDbText
  0
ARC
  5
B1
330
1F
100
AcDbEntity
  8
枠_表
  6
CONTINUOUS
 62
     3
100
AcDbCircle
 10
811.2685324125545
 20
137.6167288926888
 30
0.0
 40
17.66683515327064
100
AcDbArc
 50
88.77000393305703
 51
128.9068631829044
  0
ARC
  5
B2
330
1F
100
AcDbEntity
  8
枠_表
  6
CONTINUOUS
 62
     3
100
AcDbCircle
 10
812.0706272602814
 20
145.0191625973321
 30
0.0
 40
10.2690407511459
100
AcDbArc
 50
4.148222840814693
 51
92.36000944257292
  0
ARC
  5
B3
330
1F
100
AcDbEntity
  8
枠_表
  6
CONTINUOUS
 62
     3
100
AcDbCircle
 10
1275.650135838712
 20
131.9323843931738
 30
0.0
 40
453.5482655865662
100
AcDbArc
 50
178.2526643324597
 51
180.6439560401927
  0
ARC
  5
B4
330
1F
100
AcDbEntity
  8
枠_表
  6
CONTINUOUS
 62
     3
100
AcDbCircle
 10
825.1823989446058
 20
126.8302928780474
 30
0.0
 40
3.05188683107389
100
AcDbArc
 50
179.9117548191414
 51
236.1065985968857
  0
ARC
  5
B5
330
1F
100
AcDbEntity
  8
枠_表
  6
CONTINUOUS
 62
     3
100
AcDbCircle
 10
824.824207845798
 20
127.006118874109
 30
0.0
 40
3.0240485913648
100
AcDbArc
 50
243.6191685566582
 51
297.5097757939563
  0
LINE
  5
B6
330
1F
100
AcDbEntity
  8
枠_表
  6
CONTINUOUS
 62
     3
100
AcDbLine
 10
826.2210157332521
 20
122.7512432975414
 30
0.0
 11
826.2210157332521
 21
124.3239932975405
 31
0.0
  0
LINE
  5
B7
330
1F
100
AcDbEntity
  8
枠_表
  6
CONTINUOUS
 62
     3
100
AcDbLine
 10
820.9087657332526
 20
122.0964932975403
 30
0.0
 11
823.0822657332527
 21
122.0964932975403
 31
0.0
  0
ARC
  5
B8
330
1F
100
AcDbEntity
  8
枠_表
  6
CONTINUOUS
 62
     3
100
AcDbCircle
 10
822.8995891945618
 20
130.6464512823027
 30
0.0
 40
8.56540620020894
100
AcDbArc
 50
271.2220539293239
 51
292.8159509797653
  0
ARC
  5
B9
330
1F
100
AcDbEntity
  8
枠_表
  6
CONTINUOUS
 62
     3
100
AcDbCircle
 10
821.2937735081488
 20
126.3367456528636
 30
0.0
 40
4.25769550620398
100
AcDbArc
 50
217.4081478714985
 51
264.8118660441384
  0
ARC
  5
BA
330
1F
100
AcDbEntity
  8
枠_表
  6
CONTINUOUS
 62
     3
100
AcDbCircle
 10
821.8315560558341
 20
126.6492594265731
 30
0.0
 40
4.87535134009722
100
AcDbArc
 50
187.1167640402297
 51
216.4860549324747
  0
ARC
  5
BB
330
1F
100
AcDbEntity
  8
枠_表
  6
CONTINUOUS
 62
     3
100
AcDbCircle
 10
806.6613045867035
 20
134.9534026256833
 30
0.0
 40
13.64239920103932
100
AcDbArc
 50
275.2158792069686
 51
319.2336424873511
  0
LINE
  5
BC
330
1F
100
AcDbEntity
  8
枠_表
  6
CONTINUOUS
 62
     3
100
AcDbLine
 10
805.1610157332522
 20
121.3674932975414
 30
0.0
 11
807.9015157332532
 21
121.3674932975414
 31
0.0
  0
ARC
  5
BD
330
1F
100
AcDbEntity
  8
枠_表
  6
CONTINUOUS
 62
     3
100
AcDbCircle
 10
805.2928130736774
 20
127.6963494387405
 30
0.0
 40
6.330228320917859
100
AcDbArc
 50
252.3384873625213
 51
268.8069976857606
  0
ARC
  5
BE
330
1F
100
AcDbEntity
  8
枠_表
  6
CONTINUOUS
 62
     3
100
AcDbCircle
 10
805.4562953036913
 20
129.8111104772602
 30
0.0
 40
8.408956577563659
100
AcDbArc
 50
224.289750990011
 51
255.6505938786759
  0
ARC
  5
BF
330
1F
100
AcDbEntity
  8
枠_表
  6
CONTINUOUS
 62
     3
100
AcDbCircle
 10
805.0915332915525
 20
129.4015021572864
 30
0.0
 40
7.8619234712629
100
AcDbArc
 50
185.9586126338419
 51
224.0091989319859
  0
ARC
  5
C0
330
1F
100
AcDbEntity
  8
枠_表
  6
CONTINUOUS
 62
     3
100
AcDbCircle
 10
805.9075018570019
 20
129.7758712547738
 30
0.0
 40
8.71709372588669
100
AcDbArc
 50
164.8589457925044
 51
187.8495628504518
  0
ARC
  5
C1
330
1F
100
AcDbEntity
  8
枠_表
  6
CONTINUOUS
 62
     3
100
AcDbCircle
 10
804.3972379030168
 20
130.6366332500806
 30
0.0
 40
7.04795370557922
100
AcDbArc
 50
129.8344892359069
 51
168.4089447024628
  0
ARC
  5
C2
330
1F
100
AcDbEntity
  8
枠_表
  6
CONTINUOUS
 62
     3
100
AcDbCircle
 10
808.0970138675804
 20
125.9608481482871
 30
0.0
 40
13.0093661698492
100
AcDbArc
 50
102.0988446293839
 51
129.1556705448828
  0
ARC
  5
C3
330
1F
100
AcDbEntity
  8
枠_表
  6
CONTINUOUS
 62
     3
100
AcDbCircle
 10
785.8530099985813
 20
264.1202029775218
 30
0.0
 40
126.9482409370382
100
AcDbArc
 50
278.8438342053764
 51
282.6649181367123
  0
ARC
  5
C4
330
1F
100
AcDbEntity
  8
枠_表
  6
CONTINUOUS
 62
     3
100
AcDbCircle
 10
811.3433050110922
 20
150.6407362688742
 30
0.0
 40
10.64113335272784
100
AcDbArc
 50
282.7195832898965
 51
295.6781112778079
  0
ARC
  5
C5
330
1F
100
AcDbEntity
  8
枠_表
  6
CONTINUOUS
 62
     3
100
AcDbCircle
 10
815.3230955673365
 20
142.6511332504288
 30
0.0
 40
1.72058828228131
100
AcDbArc
 50
291.5204897073511
 51
349.3445900274031
  0
ARC
  5
C6
330
1F
100
AcDbEntity
  8
枠_表
  6
CONTINUOUS
 62
     3
100
AcDbCircle
 10
804.0053873566586
 20
143.9229870375129
 30
0.0
 40
13.10543751018921
100
AcDbArc
 50
353.0315250986587
 51
7.839947970678348
  0
ARC
  5
C7
330
1F
100
AcDbEntity
  8
枠_表
  6
CONTINUOUS
 62
     3
100
AcDbCircle
 10
809.9283412817709
 20
145.2741886153422
 30
0.0
 40
7.07346538626002
100
AcDbArc
 50
3.537639967999379
 51
74.8013566619203
  0
ARC
  5
C8
330
1F
100
AcDbEntity
  8
枠_表
  6
CONTINUOUS
 62
     3
100
AcDbCircle
 10
809.4799095798334
 20
141.9383830513016
 30
0.0
 40
10.4195273466423
100
AcDbArc
 50
77.23143261361693
 51
105.203415964315
  0
ARC
  5
C9
330
1F
100
AcDbEntity
  8
枠_表
  6
CONTINUOUS
 62
     3
100
AcDbCircle
 10
808.8253617703009
 20
143.2890191857882
 30
0.0
 40
8.94881105176719
100
AcDbArc
 50
103.4267945469744
 51
150.3242613737993
  0
LINE
  5
CA
330
1F
100
AcDbEntity
  8
枠_表
  6
CONTINUOUS
 62
     3
100
AcDbLine
 10
800.1727657332532
 20
151.364493297541
 30
0.0
 11
800.1727657332532
 21
147.7194932975408
 31
0.0
  0
ARC
  5
CB
330
1F
100
AcDbEntity
  8
枠_表
  6
CONTINUOUS
 62
     3
100
AcDbCircle
 10
705.1439565227093
 20
126.7342761922782
 30
0.0
 40
69.67015049800598
100
AcDbArc
 50
353.1274757312911
 51
357.106204490141
  0
ARC
  5
CC
330
1F
100
AcDbEntity
  8
枠_表
  6
CONTINUOUS
 62
     3
100
AcDbCircle
 10
280.3385521229342
 20
150.5197335838841
 30
0.0
 40
495.1400430399008
100
AcDbArc
 50
356.8390243485978
 51
2.971133813187157
  0
ARC
  5
CD
330
1F
100
AcDbEntity
  8
枠_表
  6
CONTINUOUS
 62
     3
100
AcDbCircle
 10
767.0927386496049
 20
120.3407518472909
 30
0.0
 40
7.47769185530633
100
AcDbArc
 50
314.592391474832
 51
344.9374073189123
  0
ARC
  5
CE
330
1F
100
AcDbEntity
  8
枠_表
  6
CONTINUOUS
 62
     3
100
AcDbCircle
 10
764.8347289685461
 20
124.675985944599
 30
0.0
 40
12.23467000390025
100
AcDbArc
 50
288.1715191042997
 51
307.8537826235693
  0
LINE
  5
CF
330
1F
100
AcDbEntity
  8
枠_表
  6
CONTINUOUS
 62
     3
100
AcDbLine
 10
769.885515733252
 20
109.2917432975401
 30
0.0
 11
768.6502657332522
 21
113.0514932975404
 31
0.0
  0
ARC
  5
D0
330
1F
100
AcDbEntity
  8
枠_表
  6
CONTINUOUS
 62
     3
100
AcDbCircle
 10
767.0955749866681
 20
131.7223152915381
 30
0.0
 40
22.60341410821362
100
AcDbArc
 50
277.0901027239701
 51
290.9134154817058
  0
ARC
  5
D1
330
1F
100
AcDbEntity
  8
枠_表
  6
CONTINUOUS
 62
     3
100
AcDbCircle
 10
770.3897327885505
 20
126.938351862683
 30
0.0
 40
17.01394688196115
100
AcDbArc
 50
286.2966123578915
 51
329.973223283839
  0
ARC
  5
D2
330
1F
100
AcDbEntity
  8
枠_表
  6
CONTINUOUS
 62
     3
100
AcDbCircle
 10
764.4899361790641
 20
127.96313568801
 30
0.0
 40
22.72875263114311
100
AcDbArc
 50
335.1860595856123
 51
1.308075913059364
  0
ARC
  5
D3
330
1F
100
AcDbEntity
  8
枠_表
  6
CONTINUOUS
 62
     3
100
AcDbCircle
 10
1436.542531413436
 20
145.2960360950851
 30
0.0
 40
649.5474244683604
100
AcDbArc
 50
177.2695926307304
 51
181.4833117237826
  0
ARC
  5
D4
330
1F
100
AcDbEntity
  8
枠_表
  6
CONTINUOUS
 62
     3
100
AcDbCircle
 10
781.0908200122293
 20
219.7417570522225
 30
0.0
 40
44.00758833490465
100
AcDbArc
 50
261.7986203004403
 51
278.6803384946418
  0
ARC
  5
D5
330
1F
100
AcDbEntity
  8
枠_表
  6
CONTINUOUS
 62
     3
100
AcDbCircle
 10
805.6056099353754
 20
178.7501381160507
 30
0.0
 40
41.36406814694017
100
AcDbArc
 50
278.4088456599976
 51
286.1851416003176
  0
ARC
  5
D6
330
1F
100
AcDbEntity
  8
枠_表
  6
CONTINUOUS
 62
     3
100
AcDbCircle
 10
814.5660651757731
 20
118.8318862667984
 30
0.0
 40
19.22065786155208
100
AcDbArc
 50
98.71271710191789
 51
115.2874718053599
  0
ARC
  5
D7
330
1F
100
AcDbEntity
  8
枠_表
  6
CONTINUOUS
 62
     3
100
AcDbCircle
 10
809.0701866837861
 20
130.5807479047189
 30
0.0
 40
6.25019433457053
100
AcDbArc
 50
115.7403688633493
 51
172.5491744442191
  0
LINE
  5
D8
330
1F
100
AcDbEntity
  8
枠_表
  6
CONTINUOUS
 62
     3
100
AcDbLine
 10
802.8727657332519
 20
131.3912432975405
 30
0.0
 11
802.8727657332519
 21
129.4337432975408
 31
0.0
  0
ARC
  5
D9
330
1F
100
AcDbEntity
  8
枠_表
  6
CONTINUOUS
 62
     3
100
AcDbCircle
 10
808.6959653488765
 20
129.7461380097786
 30
0.0
 40
5.83157304846997
100
AcDbArc
 50
183.0707787095794
 51
263.4402016072427
  0
LINE
  5
DA
330
1F
100
AcDbEntity
  8
枠_表
  6
CONTINUOUS
 62
     3
100
AcDbLine
 10
808.0297657332522
 20
123.952743297541
 30
0.0
 11
809.7645157332528
 21
123.952743297541
 31
0.0
  0
ARC
  5
DB
330
1F
100
AcDbEntity
  8
枠_表
  6
CONTINUOUS
 62
     3
100
AcDbCircle
 10
808.324469076594
 20
133.7836489530207
 30
0.0
 40
9.935816039979159
100
AcDbArc
 50
278.3335103000368
 51
329.1221464187299
  0
ARC
  5
DC
330
1F
100
AcDbEntity
  8
枠_表
  6
CONTINUOUS
 62
     3
100
AcDbCircle
 10
-22472.01542217735
 20
772.3265245587834
 30
0.0
 40
23297.76001260591
100
AcDbArc
 50
358.4169008257799
 51
358.4423418242109
  0
ARC
  5
DD
330
1F
100
AcDbEntity
  8
枠_表
  6
CONTINUOUS
 62
     3
100
AcDbCircle
 10
836.5808780069341
 20
82.5069254511709
 30
0.0
 40
39.68909094418497
100
AcDbArc
 50
85.07099551674689
 51
93.91830029343228
  0
ARC
  5
DE
330
1F
100
AcDbEntity
  8
枠_表
  6
CONTINUOUS
 62
     3
100
AcDbCircle
 10
913.4088578951065
 20
130.9150147009814
 30
0.0
 40
73.95120993114925
100
AcDbArc
 50
179.8977458165987
 51
186.8855675734268
  0
ARC
  5
DF
330
1F
100
AcDbEntity
  8
枠_表
  6
CONTINUOUS
 62
     3
100
AcDbCircle
 10
850.566172236642
 20
142.0795225138056
 30
0.0
 40
11.08398956318131
100
AcDbArc
 50
134.9787476233347
 51
181.2369872983282
  0
ARC
  5
E0
330
1F
100
AcDbEntity
  8
枠_表
  6
CONTINUOUS
 62
     3
100
AcDbCircle
 10
848.0100145205557
 20
143.2366273138689
 30
0.0
 40
8.51645057047003
100
AcDbArc
 50
42.91644474042847
 51
128.3015542351336
  0
ARC
  5
E1
330
1F
100
AcDbEntity
  8
枠_表
  6
CONTINUOUS
 62
     3
100
AcDbCircle
 10
844.9447404568554
 20
143.0315138821561
 30
0.0
 40
11.07172507744154
100
AcDbArc
 50
359.2495022237244
 51
32.84055016678327
  0
ARC
  5
E2
330
1F
100
AcDbEntity
  8
枠_表
  6
CONTINUOUS
 62
     3
100
AcDbCircle
 10
691.1173378649761
 20
134.775133788246
 30
0.0
 40
165.0975566668588
100
AcDbArc
 50
355.5862454873798
 51
2.816115806820253
  0
ARC
  5
E3
330
1F
100
AcDbEntity
  8
枠_表
  6
CONTINUOUS
 62
     3
100
AcDbCircle
 10
858.5771407332533
 20
90.60152619227779
 30
0.0
 40
31.59693252126744
100
AcDbArc
 50
84.82155189294139
 51
95.17844810705873
  0
ARC
  5
E4
330
1F
100
AcDbEntity
  8
枠_表
  6
CONTINUOUS
 62
     3
100
AcDbCircle
 10
1024.6576336617
 20
129.9067374739138
 30
0.0
 40
163.4166579853822
100
AcDbArc
 50
176.2131780319488
 51
182.7488833337936
  0
ARC
  5
E5
330
1F
100
AcDbEntity
  8
枠_表
  6
CONTINUOUS
 62
     3
100
AcDbCircle
 10
800.1913601210077
 20
142.3315774812136
 30
0.0
 40
61.42809087866958
100
AcDbArc
 50
358.4775281223095
 51
2.117232414210064
  0
ARC
  5
E6
330
1F
100
AcDbEntity
  8
枠_表
  6
CONTINUOUS
 62
     3
100
AcDbCircle
 10
849.7905515344843
 20
144.6285942451527
 30
0.0
 40
11.7869965146059
100
AcDbArc
 50
359.8658335690532
 51
34.49363429411157
  0
ARC
  5
E7
330
1F
100
AcDbEntity
  8
枠_表
  6
CONTINUOUS
 62
     3
100
AcDbCircle
 10
851.772405741379
 20
145.9204664797994
 30
0.0
 40
9.4221437555554
100
AcDbArc
 50
34.84393737091607
 51
92.5207065423111
  0
ARC
  5
E8
330
1F
100
AcDbEntity
  8
枠_表
  6
CONTINUOUS
 62
     3
100
AcDbCircle
 10
850.7541069002576
 20
141.9275988818595
 30
0.0
 40
13.4194899665726
100
AcDbArc
 50
87.42068310381028
 51
147.4361518966862
  0
ARC
  5
E9
330
1F
100
AcDbEntity
  8
枠_表
  6
CONTINUOUS
 62
     3
100
AcDbCircle
 10
877.0574727396189
 20
150.0785681383059
 30
0.0
 40
37.6246550045818
100
AcDbArc
 50
172.9875214416311
 51
181.4134392789641
  0
ARC
  5
EA
330
1F
100
AcDbEntity
  8
枠_表
  6
CONTINUOUS
 62
     3
100
AcDbCircle
 10
836.7082849861259
 20
166.2206879814494
 30
0.0
 40
11.93349358546016
100
AcDbArc
 50
255.9341994177206
 51
284.5896440601899
  0
ARC
  5
EB
330
1F
100
AcDbEntity
  8
枠_表
  6
CONTINUOUS
 62
     3
100
AcDbCircle
 10
630.117698867162
 20
137.9938058671746
 30
0.0
 40
204.3697806131072
100
AcDbArc
 50
355.5405243117485
 51
4.673398698656258
  0
LINE
  5
EC
330
1F
100
AcDbEntity
  8
枠_表
  6
CONTINUOUS
 62
     3
100
AcDbLine
 10
839.484765733252
 20
141.8402432975404
 30
0.0
 11
839.484765733252
 21
131.0469932975411
 31
0.0
  0
CIRCLE
  5
ED
330
1F
100
AcDbEntity
  8
枠_表
  6
CONTINUOUS
 62
     3
100
AcDbCircle
 10
876.285514038338
 20
166.5835466873705
 30
0.0
 40
3.57233446676989
  0
ARC
  5
EE
330
1F
100
AcDbEntity
  8
枠_表
  6
CONTINUOUS
 62
     3
100
AcDbCircle
 10
876.1456076027747
 20
167.5332474358083
 30
0.0
 40
13.19228548840207
100
AcDbArc
 50
256.6209501743446
 51
283.9984576255729
  0
ARC
  5
EF
330
1F
100
AcDbEntity
  8
枠_表
  6
CONTINUOUS
 62
     3
100
AcDbCircle
 10
876.4144089371354
 20
56.79804184123327
 30
0.0
 40
65.32859485251088
100
AcDbArc
 50
87.46575055044718
 51
92.90832285102188
  0
ARC
  5
F0
330
1F
100
AcDbEntity
  8
枠_表
  6
CONTINUOUS
 62
     3
100
AcDbCircle
 10
1082.254047179559
 20
138.1881005739388
 30
0.0
 40
203.5906390589
100
AcDbArc
 50
175.3387608397566
 51
184.5428594926176
  0
ARC
  5
F1
330
1F
100
AcDbEntity
  8
枠_表
  6
CONTINUOUS
 62
     3
100
AcDbCircle
 10
651.6900575363894
 20
138.3249792766242
 30
0.0
 40
222.0076085035812
100
AcDbArc
 50
355.7940354718673
 51
4.229650257234378
  0
ARC
  5
F2
330
1F
100
AcDbEntity
  8
枠_表
  6
CONTINUOUS
 62
     3
100
AcDbCircle
 10
1221.644453232816
 20
965.0297432964203
 30
0.0
 40
870.2800228963156
100
AcDbArc
 50
248.6422112053103
 51
248.8567777804232
  0
ARC
  5
F3
330
1F
100
AcDbEntity
  8
枠_表
  6
CONTINUOUS
 62
     3
100
AcDbCircle
 10
900.8542828460594
 20
145.1663038363949
 30
0.0
 40
10.10907867592157
100
AcDbArc
 50
67.66151957087348
 51
88.69073168448988
  0
ARC
  5
F4
330
1F
100
AcDbEntity
  8
枠_表
  6
CONTINUOUS
 62
     3
100
AcDbCircle
 10
899.7711044283932
 20
142.0979097937607
 30
0.0
 40
13.19974865367525
100
AcDbArc
 50
92.38301574576484
 51
114.9635286746436
  0
ARC
  5
F5
330
1F
100
AcDbEntity
  8
枠_表
  6
CONTINUOUS
 62
     3
100
AcDbCircle
 10
898.7963496799631
 20
145.2009291101865
 30
0.0
 40
9.9843256030919
100
AcDbArc
 50
117.4083995939977
 51
176.1964688215695
  0
ARC
  5
F6
330
1F
100
AcDbEntity
  8
枠_表
  6
CONTINUOUS
 62
     3
100
AcDbCircle
 10
895.5599257926025
 20
144.219276907553
 30
0.0
 40
6.693726059056109
100
AcDbArc
 50
181.2393899443581
 51
226.5942921332421
  0
ARC
  5
F7
330
1F
100
AcDbEntity
  8
枠_表
  6
CONTINUOUS
 62
     3
100
AcDbCircle
 10
899.526814579952
 20
148.2396411006687
 30
0.0
 40
12.34100950779567
100
AcDbArc
 50
226.0402388947521
 51
253.1776672992999
  0
ARC
  5
F8
330
1F
100
AcDbEntity
  8
枠_表
  6
CONTINUOUS
 62
     3
100
AcDbCircle
 10
889.1714891830446
 20
107.9457141755211
 30
0.0
 40
29.27778413972754
100
AcDbArc
 50
63.49050203733571
 51
76.60259219849584
  0
ARC
  5
F9
330
1F
100
AcDbEntity
  8
枠_表
  6
CONTINUOUS
 62
     3
100
AcDbCircle
 10
900.3080045853693
 20
129.9846225433168
 30
0.0
 40
4.58710152219014
100
AcDbArc
 50
6.53892419415897
 51
65.09756080693691
  0
ARC
  5
FA
330
1F
100
AcDbEntity
  8
枠_表
  6
CONTINUOUS
 62
     3
100
AcDbCircle
 10
899.035777744653
 20
129.7002363757167
 30
0.0
 40
5.943954918766759
100
AcDbArc
 50
270.8867385422408
 51
352.7925382056677
  0
ARC
  5
FB
330
1F
100
AcDbEntity
  8
枠_表
  6
CONTINUOUS
 62
     3
100
AcDbCircle
 10
898.6361043234882
 20
132.6658639777384
 30
0.0
 40
8.98004035462527
100
AcDbArc
 50
207.7689879465537
 51
262.7817283832026
  0
ARC
  5
FC
330
1F
100
AcDbEntity
  8
枠_表
  6
CONTINUOUS
 62
     3
100
AcDbCircle
 10
896.793005459279
 20
138.8156576811025
 30
0.0
 40
17.5327631578002
100
AcDbArc
 50
241.8829576087176
 51
265.9354096935781
  0
ARC
  5
FD
330
1F
100
AcDbEntity
  8
枠_表
  6
CONTINUOUS
 62
     3
100
AcDbCircle
 10
898.4663886467587
 20
132.669246711805
 30
0.0
 40
11.34515058180645
100
AcDbArc
 50
271.2948770866743
 51
348.6654156292868
  0
ARC
  5
FE
330
1F
100
AcDbEntity
  8
枠_表
  6
CONTINUOUS
 62
     3
100
AcDbCircle
 10
902.2045721291971
 20
132.5217258531575
 30
0.0
 40
7.462450757296059
100
AcDbArc
 50
6.154262763177246
 51
76.17509904255616
  0
ARC
  5
FF
330
1F
100
AcDbEntity
  8
枠_表
  6
CONTINUOUS
 62
     3
100
AcDbCircle
 10
916.5384669692077
 20
191.9359310503512
 30
0.0
 40
53.65644258516679
100
AcDbArc
 50
249.6420733479936
 51
256.4727051201885
  0
ARC
  5
100
330
1F
100
AcDbEntity
  8
枠_表
  6
CONTINUOUS
 62
     3
100
AcDbCircle
 10
900.0721352387467
 20
148.3138641766618
 30
0.0
 40
7.03563707337184
100
AcDbArc
 50
210.9501336849607
 51
251.7794729821079
  0
ARC
  5
101
330
1F
100
AcDbEntity
  8
枠_表
  6
CONTINUOUS
 62
     3
100
AcDbCircle
 10
907.303140733265
 20
149.3823182975439
 30
0.0
 40
14.068519372934
100
AcDbArc
 50
193.4375782160214
 51
199.459638038058
  0
ARC
  5
102
330
1F
100
AcDbEntity
  8
枠_表
  6
CONTINUOUS
 62
     3
100
AcDbCircle
 10
899.0350964860551
 20
147.2674994707927
 30
0.0
 40
5.35613931103931
100
AcDbArc
 50
92.11404364449162
 51
173.4175047026091
  0
ARC
  5
103
330
1F
100
AcDbEntity
  8
枠_表
  6
CONTINUOUS
 62
     3
100
AcDbCircle
 10
899.4147339127522
 20
146.5429236291675
 30
0.0
 40
6.12586430102253
100
AcDbArc
 50
17.92452211681263
 51
85.16543319077402
  0
LINE
  5
104
330
1F
100
AcDbEntity
  8
枠_表
  6
CONTINUOUS
 62
     3
100
AcDbLine
 10
901.0852657332526
 20
155.2727432975405
 30
0.0
 11
899.222265733253
 21
155.2727432975405
 31
0.0
  0
LINE
  5
105
330
1F
100
AcDbEntity
  8
枠_表
  6
CONTINUOUS
 62
     3
100
AcDbLine
 10
897.5077657332525
 20
123.7569932975407
 30
0.0
 11
899.1277657332529
 21
123.7569932975407
 31
0.0
  0
LINE
  5
106
330
1F
100
AcDbEntity
  8
枠_表
  6
CONTINUOUS
 62
     3
100
AcDbLine
 10
890.6902657332529
 20
128.4819932975415
 30
0.0
 11
889.8127657332526
 21
128.4819932975415
 31
0.0
  0
LINE
  5
107
330
1F
100
AcDbEntity
  8
枠_表
  6
CONTINUOUS
 62
     3
100
AcDbLine
 10
895.5502657332528
 20
121.3269932975413
 30
0.0
 11
898.7227657332522
 21
121.3269932975413
 31
0.0
  0
LINE
  5
108
330
1F
100
AcDbEntity
  8
枠_表
  6
CONTINUOUS
 62
     3
100
AcDbLine
 10
800.1727657332532
 20
147.7194932975408
 30
0.0
 11
801.0502657332523
 21
147.7194932975408
 31
0.0
  0
ARC
  5
109
330
1F
100
AcDbEntity
  8
枠_表
  6
CONTINUOUS
 62
     3
100
AcDbCircle
 10
878.5344131320966
 20
128.5779759565003
 30
0.0
 40
11.27953740078838
100
AcDbArc
 50
332.3987521421788
 51
359.5124385477116
  0
LINE
  5
10A
330
1F
100
AcDbEntity
  8
枠_表
  6
CONTINUOUS
 62
     3
100
AcDbLine
 10
904.8652657332519
 20
130.5069932975402
 30
0.0
 11
904.9327657332532
 21
128.95449329754
 31
0.0
  0
LINE
  5
10B
330
1F
100
AcDbEntity
  8
枠_表
  6
CONTINUOUS
 62
     3
100
AcDbLine
 10
909.6240157332528
 20
133.3217432975403
 30
0.0
 11
909.5902657332516
 21
130.4394932975401
 31
0.0
  0
LINE
  5
10C
330
1F
100
AcDbEntity
  8
枠_表
  6
CONTINUOUS
 62
     3
100
AcDbLine
 10
893.7142657332521
 20
147.8814932975411
 30
0.0
 11
893.6197657332519
 21
146.1129932975405
 31
0.0
  0
LINE
  5
10D
330
1F
100
AcDbEntity
  8
枠_表
  6
CONTINUOUS
 62
     3
100
AcDbLine
 10
888.8340157332522
 20
145.8632432975401
 30
0.0
 11
888.8677657332522
 21
144.0744932975622
 31
0.0
  0
LINE
  5
10E
330
1F
100
AcDbEntity
  8
枠_表
  6
CONTINUOUS
 62
     3
100
AcDbLine
 10
898.8375157332524
 20
152.6199932975408
 30
0.0
 11
899.931015733253
 21
152.6469932975408
 31
0.0
  0
LINE
  5
10F
330
1F
100
AcDbEntity
  8
枠_表
  6
CONTINUOUS
 62
     3
100
AcDbLine
 10
905.2432657332525
 20
148.4282432975408
 30
0.0
 11
906.0970934867333
 21
148.4282432975408
 31
0.0
  0
ARC
  5
110
330
1F
100
AcDbEntity
  8
枠_表
  6
CONTINUOUS
 62
     3
100
AcDbCircle
 10
924.8424810688704
 20
144.9019437507491
 30
0.0
 40
19.07418003737831
100
AcDbArc
 50
153.7591918158497
 51
169.3462759801917
  0
TEXT
  5
111
330
1F
100
AcDbEntity
  8
枠_表
  6
CONTINUOUS
 62
     2
100
AcDbText
 10
1884.537109400001
 20
260.7227783000008
 30
0.0
 40
30.0
  1
１
 41
1.101333333333329
  7
EXCADSTD
 72
     5
 11
1908.137109400001
 21
260.7227783000008
 31
0.0
100
AcDbText
  0
TEXT
  5
112
330
1F
100
AcDbEntity
  8
枠_表
  6
CONTINUOUS
 62
     2
100
AcDbText
 10
196.5000000000026
 20
266.7499999999995
 30
0.0
 40
42.5
  1
製図
 41
1.509694117647059
  7
EXCADSTD
 72
     5
 11
297.3260000000026
 21
266.7499999999995
 31
0.0
100
AcDbText
  0
TEXT
  5
113
330
1F
100
AcDbEntity
  8
枠_表
  6
CONTINUOUS
 62
     2
100
AcDbText
 10
351.5000000000026
 20
266.7499999999995
 30
0.0
 40
42.5
  1
写図
 41
1.509694117647059
  7
EXCADSTD
 72
     5
 11
452.3260000000026
 21
266.7499999999995
 31
0.0
100
AcDbText
  0
TEXT
  5
114
330
1F
100
AcDbEntity
  8
枠_表
  6
CONTINUOUS
 62
     2
100
AcDbText
 10
501.5000000000026
 20
266.7499999999995
 30
0.0
 40
42.5
  1
検図
 41
1.303826737967914
  7
EXCADSTD
 72
     5
 11
588.5770000000026
 21
266.7499999999995
 31
0.0
100
AcDbText
  0
TEXT
  5
115
330
1F
100
AcDbEntity
  8
枠_表
  6
CONTINUOUS
 62
     2
100
AcDbText
 10
631.5000000000026
 20
266.7499999999995
 30
0.0
 40
42.5
  1
承認
 41
1.303826737967914
  7
EXCADSTD
 72
     5
 11
718.5770000000026
 21
266.7499999999995
 31
0.0
100
AcDbText
  0
TEXT
  5
116
330
1F
100
AcDbEntity
  8
枠_表
  6
CONTINUOUS
 62
     2
100
AcDbText
 10
749.7500000000019
 20
256.7499999999995
 30
0.0
 40
42.5
  1
品
 41
1.12
  7
EXCADSTD
 72
     5
 11
783.7500000000019
 21
256.7499999999995
 31
0.0
100
AcDbText
  0
TEXT
  5
117
330
1F
100
AcDbEntity
  8
枠_表
  6
CONTINUOUS
 62
     2
100
AcDbText
 10
749.7500000000019
 20
206.7499999999995
 30
0.0
 40
42.5
  1
名
 41
1.12
  7
EXCADSTD
 72
     5
 11
783.7500000000019
 21
206.7499999999995
 31
0.0
100
AcDbText
  0
TEXT
  5
118
330
1F
100
AcDbEntity
  8
枠_表
  6
CONTINUOUS
 62
     2
100
AcDbText
 10
1389.750000000002
 20
256.7499999999995
 30
0.0
 40
42.5
  1
品
 41
1.12
  7
EXCADSTD
 72
     5
 11
1423.750000000002
 21
256.7499999999995
 31
0.0
100
AcDbText
  0
TEXT
  5
119
330
1F
100
AcDbEntity
  8
枠_表
  6
CONTINUOUS
 62
     2
100
AcDbText
 10
1389.750000000002
 20
206.7499999999995
 30
0.0
 40
42.5
  1
番
 41
1.12
  7
EXCADSTD
 72
     5
 11
1423.750000000002
 21
206.7499999999995
 31
0.0
100
AcDbText
  0
TEXT
  5
11A
330
1F
100
AcDbEntity
  8
枠_表
  6
CONTINUOUS
 62
     2
100
AcDbText
 10
1810.750000000001
 20
256.7499999999995
 30
0.0
 40
42.5
  1
尺
 41
1.12
  7
EXCADSTD
 72
     5
 11
1844.750000000001
 21
256.7499999999995
 31
0.0
100
AcDbText
  0
TEXT
  5
11B
330
1F
100
AcDbEntity
  8
枠_表
  6
CONTINUOUS
 62
     2
100
AcDbText
 10
1810.750000000001
 20
206.7499999999995
 30
0.0
 40
42.5
  1
度
 41
1.12
  7
EXCADSTD
 72
     5
 11
1844.750000000001
 21
206.7499999999995
 31
0.0
100
AcDbText
  0
TEXT
  5
11C
330
1F
100
AcDbEntity
  8
枠_表
  6
CONTINUOUS
 62
     2
100
AcDbText
 10
1389.750000000002
 20
143.75
 30
0.0
 40
42.5
  1
図
 41
1.12
  7
EXCADSTD
 72
     5
 11
1423.750000000002
 21
143.75
 31
0.0
100
AcDbText
  0
TEXT
  5
11D
330
1F
100
AcDbEntity
  8
枠_表
  6
CONTINUOUS
 62
     2
100
AcDbText
 10
1389.750000000002
 20
100.7500000000005
 30
0.0
 40
42.5
  1
番
 41
1.12
  7
EXCADSTD
 72
     5
 11
1423.750000000002
 21
100.7500000000005
 31
0.0
100
AcDbText
  0
TEXT
  5
11E
330
1F
100
AcDbEntity
  8
枠_表
  6
CONTINUOUS
 62
     2
100
AcDbText
 10
1925.279296900001
 20
216.3488464
 30
0.0
 40
30.0
  1
１０
 41
1.098531212121213
  7
EXCADSTD
 72
     5
 11
1977.067196900001
 21
216.3488464
 31
0.0
100
AcDbText
  0
LINE
  5
11F
330
1F
100
AcDbEntity
  8
枠_表
  6
CONTINUOUS
 62
     7
100
AcDbLine
 10
174.0000000000026
 20
312.9999999999995
 30
0.0
 11
1994.000000000001
 21
312.9999999999995
 31
0.0
  0
LINE
  5
120
330
1F
100
AcDbEntity
  8
枠_表
  6
CONTINUOUS
 62
     7
100
AcDbLine
 10
1994.000000000001
 20
92.99999999999955
 30
0.0
 11
1994.000000000001
 21
2893.0
 31
0.0
  0
LINE
  5
121
330
1F
100
AcDbEntity
  8
枠_表
  6
CONTINUOUS
 62
     7
100
AcDbLine
 10
174.0000000000026
 20
2893.0
 30
0.0
 11
1994.000000000001
 21
2893.0
 31
0.0
  0
LINE
  5
122
330
1F
100
AcDbEntity
  8
枠_表
  6
CONTINUOUS
 62
     6
100
AcDbLine
 10
1994.000000000001
 20
192.9999999999995
 30
0.0
 11
744.0000000000026
 21
192.9999999999995
 31
0.0
  0
LINE
  5
123
330
1F
100
AcDbEntity
  8
枠_表
  6
CONTINUOUS
 62
     6
100
AcDbLine
 10
1854.000000000001
 20
312.9999999999995
 30
0.0
 11
1854.000000000001
 21
192.9999999999995
 31
0.0
  0
LINE
  5
124
330
1F
100
AcDbEntity
  8
枠_表
  6
CONTINUOUS
 62
     6
100
AcDbLine
 10
1804.000000000001
 20
312.9999999999995
 30
0.0
 11
1804.000000000001
 21
192.9999999999995
 31
0.0
  0
LINE
  5
125
330
1F
100
AcDbEntity
  8
枠_表
  6
CONTINUOUS
 62
     6
100
AcDbLine
 10
1434.000000000001
 20
312.9999999999995
 30
0.0
 11
1434.000000000001
 21
92.99999999999955
 31
0.0
  0
LINE
  5
126
330
1F
100
AcDbEntity
  8
枠_表
  6
CONTINUOUS
 62
     6
100
AcDbLine
 10
1384.000000000001
 20
312.9999999999995
 30
0.0
 11
1384.000000000001
 21
92.99999999999955
 31
0.0
  0
LINE
  5
127
330
1F
100
AcDbEntity
  8
枠_表
  6
CONTINUOUS
 62
     6
100
AcDbLine
 10
794.0000000000026
 20
312.9999999999995
 30
0.0
 11
794.0000000000026
 21
192.9999999999995
 31
0.0
  0
LINE
  5
128
330
1F
100
AcDbEntity
  8
枠_表
  6
CONTINUOUS
 62
     6
100
AcDbLine
 10
744.0000000000026
 20
312.9999999999995
 30
0.0
 11
744.0000000000026
 21
92.99999999999955
 31
0.0
  0
LINE
  5
129
330
1F
100
AcDbEntity
  8
枠_表
  6
CONTINUOUS
 62
     6
100
AcDbLine
 10
614.0000000000026
 20
312.9999999999995
 30
0.0
 11
614.0000000000026
 21
92.99999999999955
 31
0.0
  0
LINE
  5
12A
330
1F
100
AcDbEntity
  8
枠_表
  6
CONTINUOUS
 62
     6
100
AcDbLine
 10
484.0000000000026
 20
312.9999999999995
 30
0.0
 11
484.0000000000026
 21
92.99999999999955
 31
0.0
  0
LINE
  5
12B
330
1F
100
AcDbEntity
  8
枠_表
  6
CONTINUOUS
 62
     6
100
AcDbLine
 10
329.0000000000026
 20
312.9999999999995
 30
0.0
 11
329.0000000000026
 21
92.99999999999955
 31
0.0
  0
LINE
  5
12C
330
1F
100
AcDbEntity
  8
枠_表
  6
CONTINUOUS
 62
     6
100
AcDbLine
 10
174.0000000000026
 20
262.9999999999995
 30
0.0
 11
744.0000000000026
 21
262.9999999999995
 31
0.0
  0
LINE
  5
12D
330
1F
100
AcDbEntity
  8
枠_表
  6
CONTINUOUS
 62
     6
100
AcDbLine
 10
1886.653808600002
 20
216.0029297000005
 30
0.0
 11
1963.993896500001
 21
294.6998291
 31
0.0
  0
CIRCLE
  5
12E
330
1F
100
AcDbEntity
  8
枠_表
  6
CONTINUOUS
 62
     6
100
AcDbCircle
 10
224.0000000000026
 20
117.9999999999995
 30
0.0
 40
1.0000002
  0
CIRCLE
  5
12F
330
1F
100
AcDbEntity
  8
枠_表
  6
CONTINUOUS
 62
     6
100
AcDbCircle
 10
274.0000000000026
 20
117.9999999999995
 30
0.0
 40
1.0000002
  0
CIRCLE
  5
130
330
1F
100
AcDbEntity
  8
枠_表
  6
CONTINUOUS
 62
     6
100
AcDbCircle
 10
379.0000000000026
 20
117.9999999999995
 30
0.0
 40
1.0000002
  0
CIRCLE
  5
131
330
1F
100
AcDbEntity
  8
枠_表
  6
CONTINUOUS
 62
     6
100
AcDbCircle
 10
429.0000000000026
 20
117.9999999999995
 30
0.0
 40
1.0000002
  0
LINE
  5
132
330
1F
100
AcDbEntity
  8
枠_表
  6
EXLTYPE2
 62
     6
100
AcDbLine
 10
174.0000000000026
 20
142.9999999999995
 30
0.0
 11
484.0000000000026
 21
142.9999999999995
 31
0.0
  0
CIRCLE
  5
133
330
1F
100
AcDbEntity
  8
枠_表
  6
CONTINUOUS
 62
     6
100
AcDbCircle
 10
224.0000000000026
 20
117.9999999999995
 30
0.0
 40
1.0000002
  0
CIRCLE
  5
134
330
1F
100
AcDbEntity
  8
枠_表
  6
CONTINUOUS
 62
     6
100
AcDbCircle
 10
274.0000000000026
 20
117.9999999999995
 30
0.0
 40
1.0000002
  0
LINE
  5
135
330
1F
100
AcDbEntity
  8
枠_表
  6
CONTINUOUS
 62
     7
100
AcDbLine
 10
174.0000000000026
 20
92.99999999999955
 30
0.0
 11
174.0000000000026
 21
2893.0
 31
0.0
  0
TEXT
  5
136
330
1F
100
AcDbEntity
  8
枠_表
  6
CONTINUOUS
 62
     2
100
AcDbText
 10
1214.000000000033
 20
2780.249999999998
 30
0.0
 40
40.0
  1
品番
 41
1.895695454545453
  7
EXCADSTD
 72
     5
 11
1333.158000000033
 21
2780.249999999998
 31
0.0
100
AcDbText
  0
TEXT
  5
137
330
1F
100
AcDbEntity
  8
枠_表
  6
CONTINUOUS
 62
     2
100
AcDbText
 10
1553.000000000032
 20
2780.249999999998
 30
0.0
 40
40.0
  1
品名
 41
1.895695454545453
  7
EXCADSTD
 72
     5
 11
1672.158000000032
 21
2780.249999999998
 31
0.0
100
AcDbText
  0
TEXT
  5
138
330
1F
100
AcDbEntity
  8
枠_表
  6
CONTINUOUS
 62
     2
100
AcDbText
 10
1840.000000059642
 20
2780.249999999998
 30
0.0
 40
40.0
  1
個数
 41
1.049923636363638
  7
EXCADSTD
 72
     5
 11
1905.995200059642
 21
2780.249999999998
 31
0.0
100
AcDbText
  0
LINE
  5
139
330
1F
100
AcDbEntity
  8
枠_表
  6
CONTINUOUS
 62
     6
100
AcDbLine
 10
1126.000000000037
 20
2775.499999999996
 30
0.0
 11
1926.000000000038
 21
2775.499999999996
 31
0.0
  0
LINE
  5
13A
330
1F
100
AcDbEntity
  8
枠_表
  6
CONTINUOUS
 62
     6
100
AcDbLine
 10
1126.000000000037
 20
2824.999999999997
 30
0.0
 11
1926.000000000038
 21
2824.999999999997
 31
0.0
  0
LINE
  5
13B
330
1F
100
AcDbEntity
  8
枠_表
  6
CONTINUOUS
 62
     2
100
AcDbLine
 10
241.9999999999986
 20
2825.0
 30
0.0
 11
1042.0
 21
2825.0
 31
0.0
  0
TEXT
  5
13C
330
1F
100
AcDbEntity
  8
枠_表
  6
CONTINUOUS
 62
     2
100
AcDbText
 10
261.9999999999986
 20
2765.999999999998
 30
0.0
 40
40.0
  1
◇カウンター穴加工寸法
 41
0.9692307692307693
  7
EXCADSTD
 72
     5
 11
621.9999999999986
 21
2765.999999999998
 31
0.0
100
AcDbText
  0
TEXT
  5
13D
330
1F
100
AcDbEntity
  8
枠_表
  6
CONTINUOUS
 62
     2
100
AcDbText
 10
1856.000000000038
 20
2689.249999999996
 30
0.0
 40
40.0
  1
１
 41
1.12
  7
EXCADSTD
 72
     5
 11
1888.000000000038
 21
2689.249999999996
 31
0.0
100
AcDbText
  0
LINE
  5
13E
330
1F
100
AcDbEntity
  8
枠_表
  6
CONTINUOUS
 62
     2
100
AcDbLine
 10
242.0000000000002
 20
2825.000000000001
 30
0.0
 11
242.0
 21
2025.0
 31
0.0
  0
LINE
  5
13F
330
1F
100
AcDbEntity
  8
枠_表
  6
CONTINUOUS
 62
     2
100
AcDbLine
 10
1042.0
 20
2825.000000000001
 30
0.0
 11
1042.0
 21
2025.0
 31
0.0
  0
LINE
  5
140
330
1F
100
AcDbEntity
  8
枠_表
  6
CONTINUOUS
 62
     2
100
AcDbLine
 10
241.9999999999985
 20
2025.000000000001
 30
0.0
 11
1042.0
 21
2025.000000000001
 31
0.0
  0
LINE
  5
141
330
1F
100
AcDbEntity
  8
枠_表
  6
CONTINUOUS
 62
     2
100
AcDbLine
 10
712.0000000000002
 20
2355.000000000001
 30
0.0
 11
712.0000000000002
 21
2025.000000000001
 31
0.0
  0
LINE
  5
142
330
1F
100
AcDbEntity
  8
枠_表
  6
CONTINUOUS
 62
     2
100
AcDbLine
 10
1042.0
 20
2355.000000000001
 30
0.0
 11
712.0000000000002
 21
2355.000000000001
 31
0.0
  0
TEXT
  5
143
330
1F
100
AcDbEntity
  8
枠_表
  6
CONTINUOUS
 62
     2
100
AcDbText
 10
1484.9999999999
 20
2729.749999999996
 30
0.0
 40
40.0
  1
手洗器セット
  7
EXCADSTD
 72
     5
 11
1684.9999999999
 21
2729.749999999996
 31
0.0
100
AcDbText
  0
TEXT
  5
144
330
1F
100
AcDbEntity
  8
枠_表
  6
CONTINUOUS
 62
     2
100
AcDbText
 10
1484.9999999999
 20
2689.749999999996
 30
0.0
 40
40.0
  1
・手洗器
 41
1.034782608695652
  7
EXCADSTD
 72
     5
 11
1620.9999999999
 21
2689.749999999996
 31
0.0
100
AcDbText
  0
TEXT
  5
145
330
1F
100
AcDbEntity
  8
枠_表
  6
CONTINUOUS
 62
     2
100
AcDbText
 10
1484.9999999999
 20
2649.749999999996
 30
0.0
 40
40.0
  1
・手洗器固定金具
 41
0.9829787234042554
  7
EXCADSTD
 72
     5
 11
1748.9999999999
 21
2649.749999999996
 31
0.0
100
AcDbText
  0
TEXT
  5
146
330
1F
100
AcDbEntity
  8
枠_表
  6
CONTINUOUS
 62
     2
100
AcDbText
 10
1484.9999999999
 20
2609.749999999996
 30
0.0
 40
40.0
  1
・施工説明書
  7
EXCADSTD
 72
     5
 11
1684.9999999999
 21
2609.749999999996
 31
0.0
100
AcDbText
  0
LINE
  5
147
330
1F
100
AcDbEntity
  8
枠_表
  6
CONTINUOUS
 62
     6
100
AcDbLine
 10
1126.000000000037
 20
2605.499999999996
 30
0.0
 11
1926.000000000038
 21
2605.499999999996
 31
0.0
  0
TEXT
  5
148
330
1F
100
AcDbEntity
  8
枠_表
  6
CONTINUOUS
 62
     2
100
AcDbText
 10
1856.000000000038
 20
2560.749999999995
 30
0.0
 40
40.0
  1
１
 41
1.12
  7
EXCADSTD
 72
     5
 11
1888.000000000038
 21
2560.749999999995
 31
0.0
100
AcDbText
  0
LINE
  5
149
330
1F
100
AcDbEntity
  8
枠_表
  6
CONTINUOUS
 62
     6
100
AcDbLine
 10
1126.000000000037
 20
2555.999999999996
 30
0.0
 11
1926.000000000038
 21
2555.999999999996
 31
0.0
  0
TEXT
  5
14A
330
1F
100
AcDbEntity
  8
枠_表
  6
CONTINUOUS
 62
     2
100
AcDbText
 10
1007.000000715246
 20
222.9999999999995
 30
0.0
 40
60.0
  1
手洗器
 41
1.125490182988784
  7
EXCADSTD
 72
     5
 11
1170.999998807897
 21
222.9999999999995
 31
0.0
100
AcDbText
  0
TEXT
  5
14B
330
1F
100
AcDbEntity
  8
枠_表
  6
CONTINUOUS
 62
     2
100
AcDbText
 10
1526.500000000031
 20
227.9999999999995
 30
0.0
 40
50.0
  1
Ｌ１２０
 41
1.126086956521739
  7
EXCADSTD
 72
     5
 11
1711.500000000031
 21
227.9999999999995
 31
0.0
100
AcDbText
  0
TEXT
  5
14C
330
1F
100
AcDbEntity
  8
枠_表
  6
CONTINUOUS
 62
     2
100
AcDbText
 10
1133.000000000031
 20
2673.249999999995
 30
0.0
 40
40.0
  1
ＭＥＬＳ１２０
 41
0.9390243902439025
  7
EXCADSTD
 72
     5
 11
1353.000000000031
 21
2673.249999999995
 31
0.0
100
AcDbText
  0
TEXT
  5
14D
330
1F
100
AcDbEntity
  8
枠_表
  6
CONTINUOUS
 62
     2
100
AcDbText
 10
1133.00000000003
 20
2560.749999999995
 30
0.0
 40
40.0
  1
ＭＥＪＬ１１９０ＮＣ０１
 41
0.8528169014084508
  7
EXCADSTD
 72
     5
 11
1479.00000000003
 21
2560.749999999995
 31
0.0
100
AcDbText
  0
TEXT
  5
14E
330
1F
100
AcDbEntity
  8
枠_表
  6
CONTINUOUS
 62
     7
100
AcDbText
 10
1483.99999999997
 20
114.5000000000005
 30
0.0
 40
60.0
  1
Ｌ０１２０００２０
 41
1.012578616352201
  7
EXCADSTD
 72
     5
 11
1943.99999999997
 21
114.5000000000005
 31
0.0
100
AcDbText
  0
CIRCLE
  5
14F
330
1F
100
AcDbEntity
  8
枠_表
  6
CONTINUOUS
 62
     6
100
AcDbCircle
 10
224.0000000000026
 20
117.9999999999995
 30
0.0
 40
1.0000002
  0
CIRCLE
  5
150
330
1F
100
AcDbEntity
  8
枠_表
  6
CONTINUOUS
 62
     6
100
AcDbCircle
 10
274.0000000000026
 20
117.9999999999995
 30
0.0
 40
1.0000002
  0
TEXT
  5
151
330
1F
100
AcDbEntity
  8
枠_表
  6
CONTINUOUS
 62
     6
100
AcDbText
 10
201.500000000006
 20
178.0000000000017
 30
0.0
 40
50.0
  1
伊藤
 41
1.166581818181818
  7
EXCADSTD
 72
     5
 11
293.160000000006
 21
178.0000000000017
 31
0.0
100
AcDbText
  0
TEXT
  5
152
330
1F
100
AcDbEntity
  8
枠_表
  6
CONTINUOUS
 62
     6
100
AcDbText
 10
180.3441156754815
 20
102.4500732000001
 30
0.0
 40
30.0
  1
'23
 41
0.4689784042553192
  7
EXCADSTD
 72
     5
 11
211.8326656754815
 21
102.4500732000001
 31
0.0
100
AcDbText
  0
TEXT
  5
153
330
1F
100
AcDbEntity
  8
枠_表
  6
CONTINUOUS
 62
     6
100
AcDbText
 10
499.5000000000059
 20
178.0000000000017
 30
0.0
 40
50.0
  1
川野
 41
1.166581818181818
  7
EXCADSTD
 72
     5
 11
591.1600000000059
 21
178.0000000000017
 31
0.0
100
AcDbText
  0
TEXT
  5
154
330
1F
100
AcDbEntity
  8
枠_表
  6
CONTINUOUS
 62
     2
100
AcDbText
 10
1484.9999999999
 20
2559.749999999996
 30
0.0
 40
40.0
  1
単水栓
 41
1.070588235294118
  7
EXCADSTD
 72
     5
 11
1588.9999999999
 21
2559.749999999996
 31
0.0
100
AcDbText
  0
LINE
  5
155
330
1F
100
AcDbEntity
  8
枠_表
  6
CONTINUOUS
 62
     6
100
AcDbLine
 10
1126.000000000037
 20
2555.999999999996
 30
0.0
 11
1126.000000000037
 21
2824.999999999999
 31
0.0
  0
LINE
  5
156
330
1F
100
AcDbEntity
  8
枠_表
  6
CONTINUOUS
 62
     6
100
AcDbLine
 10
1476.000000000038
 20
2555.999999999996
 30
0.0
 11
1476.000000000038
 21
2824.999999999997
 31
0.0
  0
LINE
  5
157
330
1F
100
AcDbEntity
  8
枠_表
  6
CONTINUOUS
 62
     6
100
AcDbLine
 10
1826.000000000038
 20
2555.999999999996
 30
0.0
 11
1826.000000000038
 21
2824.999999999997
 31
0.0
  0
LINE
  5
158
330
1F
100
AcDbEntity
  8
枠_表
  6
CONTINUOUS
 62
     6
100
AcDbLine
 10
1926.000000000038
 20
2555.999999999996
 30
0.0
 11
1926.000000000038
 21
2824.999999999999
 31
0.0
  0
TEXT
  5
159
330
1F
100
AcDbEntity
  8
枠_表
  6
CONTINUOUS
 62
     2
100
AcDbText
 10
1126.00000000003
 20
2472.249999999997
 30
0.0
 40
40.0
  1
※トラップ（別途手配）
 41
1.05
  7
EXCADSTD
 72
     5
 11
1516.00000000003
 21
2472.249999999997
 31
0.0
100
AcDbText
  0
LINE
  5
15A
330
1F
100
AcDbEntity
  8
枠_表
  6
CONTINUOUS
 62
     6
100
AcDbLine
 10
1926.000000000038
 20
2198.5
 30
0.0
 11
1926.000000000038
 21
2297.499999999997
 31
0.0
  0
LINE
  5
15B
330
1F
100
AcDbEntity
  8
枠_表
  6
CONTINUOUS
 62
     6
100
AcDbLine
 10
1826.000000000038
 20
2198.499999999996
 30
0.0
 11
1826.000000000038
 21
2297.499999999997
 31
0.0
  0
LINE
  5
15C
330
1F
100
AcDbEntity
  8
枠_表
  6
CONTINUOUS
 62
     6
100
AcDbLine
 10
1476.000000000038
 20
2198.499999999996
 30
0.0
 11
1476.000000000038
 21
2297.499999999997
 31
0.0
  0
LINE
  5
15D
330
1F
100
AcDbEntity
  8
枠_表
  6
CONTINUOUS
 62
     6
100
AcDbLine
 10
1126.000000000037
 20
2198.499999999996
 30
0.0
 11
1126.000000000037
 21
2297.499999999997
 31
0.0
  0
LINE
  5
15E
330
1F
100
AcDbEntity
  8
枠_表
  6
CONTINUOUS
 62
     6
100
AcDbLine
 10
1126.000000000037
 20
2198.499999999996
 30
0.0
 11
1926.000000000038
 21
2198.499999999996
 31
0.0
  0
TEXT
  5
15F
330
1F
100
AcDbEntity
  8
枠_表
  6
CONTINUOUS
 62
     2
100
AcDbText
 10
1856.000000000037
 20
2204.249999999997
 30
0.0
 40
40.0
  1
１
 41
1.12
  7
EXCADSTD
 72
     5
 11
1888.000000000037
 21
2204.249999999997
 31
0.0
100
AcDbText
  0
TEXT
  5
160
330
1F
100
AcDbEntity
  8
枠_表
  6
CONTINUOUS
 62
     2
100
AcDbText
 10
1856.000000000037
 20
2253.749999999997
 30
0.0
 40
40.0
  1
１
 41
1.12
  7
EXCADSTD
 72
     5
 11
1888.000000000037
 21
2253.749999999997
 31
0.0
100
AcDbText
  0
LINE
  5
161
330
1F
100
AcDbEntity
  8
枠_表
  6
CONTINUOUS
 62
     6
100
AcDbLine
 10
1926.000000000038
 20
2367.5
 30
0.0
 11
1926.000000000038
 21
2466.499999999997
 31
0.0
  0
LINE
  5
162
330
1F
100
AcDbEntity
  8
枠_表
  6
CONTINUOUS
 62
     6
100
AcDbLine
 10
1826.000000000038
 20
2367.499999999996
 30
0.0
 11
1826.000000000038
 21
2466.499999999997
 31
0.0
  0
LINE
  5
163
330
1F
100
AcDbEntity
  8
枠_表
  6
CONTINUOUS
 62
     6
100
AcDbLine
 10
1476.000000000038
 20
2367.499999999996
 30
0.0
 11
1476.000000000038
 21
2466.499999999997
 31
0.0
  0
LINE
  5
164
330
1F
100
AcDbEntity
  8
枠_表
  6
CONTINUOUS
 62
     6
100
AcDbLine
 10
1126.000000000037
 20
2367.499999999996
 30
0.0
 11
1126.000000000037
 21
2466.499999999997
 31
0.0
  0
TEXT
  5
165
330
1F
100
AcDbEntity
  8
枠_表
  6
CONTINUOUS
 62
     2
100
AcDbText
 10
1856.000000000037
 20
2372.249999999995
 30
0.0
 40
40.0
  1
１
 41
1.12
  7
EXCADSTD
 72
     5
 11
1888.000000000037
 21
2372.249999999995
 31
0.0
100
AcDbText
  0
LINE
  5
166
330
1F
100
AcDbEntity
  8
枠_表
  6
CONTINUOUS
 62
     6
100
AcDbLine
 10
1126.000000000037
 20
2367.499999999996
 30
0.0
 11
1926.000000000038
 21
2367.499999999996
 31
0.0
  0
LINE
  5
167
330
1F
100
AcDbEntity
  8
枠_表
  6
CONTINUOUS
 62
     6
100
AcDbLine
 10
1126.000000000037
 20
2297.499999999997
 30
0.0
 11
1926.000000000038
 21
2297.499999999997
 31
0.0
  0
LINE
  5
168
330
1F
100
AcDbEntity
  8
枠_表
  6
CONTINUOUS
 62
     6
100
AcDbLine
 10
1126.000000000037
 20
2247.999999999996
 30
0.0
 11
1926.000000000038
 21
2247.999999999996
 31
0.0
  0
TEXT
  5
169
330
1F
100
AcDbEntity
  8
枠_表
  6
CONTINUOUS
 62
     2
100
AcDbText
 10
1122.999999999067
 20
2307.500000000004
 30
0.0
 40
40.0
  1
※止水栓（別途手配）
 41
1.052966101694915
  7
EXCADSTD
 72
     5
 11
1477.999999999067
 21
2307.500000000004
 31
0.0
100
AcDbText
  0
LINE
  5
16A
330
1F
100
AcDbEntity
  8
枠_表
  6
CONTINUOUS
 62
     6
100
AcDbLine
 10
1126.000000000037
 20
2416.999999999996
 30
0.0
 11
1926.000000000038
 21
2416.999999999996
 31
0.0
  0
TEXT
  5
16B
330
1F
100
AcDbEntity
  8
枠_表
  6
CONTINUOUS
 62
     2
100
AcDbText
 10
1856.000000000037
 20
2421.749999999995
 30
0.0
 40
40.0
  1
１
 41
1.12
  7
EXCADSTD
 72
     5
 11
1888.000000000037
 21
2421.749999999995
 31
0.0
100
AcDbText
  0
LINE
  5
16C
330
1F
100
AcDbEntity
  8
枠_表
  6
CONTINUOUS
 62
     6
100
AcDbLine
 10
1126.000000000037
 20
2466.499999999997
 30
0.0
 11
1926.000000000038
 21
2466.499999999997
 31
0.0
  0
TEXT
  5
16D
330
1F
100
AcDbEntity
  8
枠_表
  6
CONTINUOUS
 62
     2
100
AcDbText
 10
1133.000000000031
 20
2421.749999999995
 30
0.0
 40
40.0
  1
ＮＬ８１ＤＰ
 41
0.95
  7
EXCADSTD
 72
     5
 11
1323.000000000031
 21
2421.749999999995
 31
0.0
100
AcDbText
  0
TEXT
  5
16E
330
1F
100
AcDbEntity
  8
枠_表
  6
CONTINUOUS
 62
     2
100
AcDbText
 10
1133.00000000003
 20
2372.249999999995
 30
0.0
 40
40.0
  1
ＪＬ８２ＤＳ
 41
0.95
  7
EXCADSTD
 72
     5
 11
1323.00000000003
 21
2372.249999999995
 31
0.0
100
AcDbText
  0
TEXT
  5
16F
330
1F
100
AcDbEntity
  8
枠_表
  6
CONTINUOUS
 62
     2
100
AcDbText
 10
1482.9999999999
 20
2204.249999999997
 30
0.0
 40
40.0
  1
床給水用止水栓
 41
0.9902439024390244
  7
EXCADSTD
 72
     5
 11
1714.9999999999
 21
2204.249999999997
 31
0.0
100
AcDbText
  0
TEXT
  5
170
330
1F
100
AcDbEntity
  8
枠_表
  6
CONTINUOUS
 62
     2
100
AcDbText
 10
1482.9999999999
 20
2253.749999999997
 30
0.0
 40
40.0
  1
壁給水用止水栓
 41
0.9902439024390244
  7
EXCADSTD
 72
     5
 11
1714.9999999999
 21
2253.749999999997
 31
0.0
100
AcDbText
  0
TEXT
  5
171
330
1F
100
AcDbEntity
  8
枠_表
  6
CONTINUOUS
 62
     2
100
AcDbText
 10
1484.9999999999
 20
2371.249999999996
 30
0.0
 40
40.0
  1
Ｓトラップ
 41
1.013793103448276
  7
EXCADSTD
 72
     5
 11
1652.9999999999
 21
2371.249999999996
 31
0.0
100
AcDbText
  0
TEXT
  5
172
330
1F
100
AcDbEntity
  8
枠_表
  6
CONTINUOUS
 62
     2
100
AcDbText
 10
1484.9999999999
 20
2420.749999999996
 30
0.0
 40
40.0
  1
Ｐトラップ
 41
1.013793103448276
  7
EXCADSTD
 72
     5
 11
1652.9999999999
 21
2420.749999999996
 31
0.0
100
AcDbText
  0
TEXT
  5
173
330
1F
100
AcDbEntity
  8
枠_表
  6
CONTINUOUS
 62
     2
100
AcDbText
 10
1122.999999999071
 20
2138.500000000003
 30
0.0
 40
40.0
  1
※本図は水あふれ縁高さ８００ミリの場合を表わす
 41
1.034671532846715
  7
EXCADSTD
 72
     5
 11
1932.999999999071
 21
2138.500000000003
 31
0.0
100
AcDbText
  0
TEXT
  5
174
330
1F
100
AcDbEntity
  8
枠_表
  6
CONTINUOUS
 62
     2
100
AcDbText
 10
1122.999999999071
 20
2098.500000000003
 30
0.0
 40
40.0
  1
　（器具は手洗器設置高さに合わせ適宜選定すること）
 41
1.033557046979865
  7
EXCADSTD
 72
     5
 11
2002.999999999071
 21
2098.500000000003
 31
0.0
100
AcDbText
  0
TEXT
  5
175
330
1F
100
AcDbEntity
  8
枠_表
  6
CONTINUOUS
 62
     2
100
AcDbText
 10
1122.999999999071
 20
2058.500000000003
 30
0.0
 40
40.0
  1
※配管アダプターは別途用意してください
 41
1.037610619469026
  7
EXCADSTD
 72
     5
 11
1792.999999999071
 21
2058.500000000003
 31
0.0
100
AcDbText
  0
TEXT
  5
176
330
1F
100
AcDbEntity
  8
枠_表
  6
CONTINUOUS
 62
     2
100
AcDbText
 10
1122.999999999071
 20
2018.500000000003
 30
0.0
 40
40.0
  1
　トラップ管径はφ２５
 41
1.05
  7
EXCADSTD
 72
     5
 11
1512.999999999071
 21
2018.500000000003
 31
0.0
100
AcDbText
  0
TEXT
  5
177
330
1F
100
AcDbEntity
  8
枠_表
  6
CONTINUOUS
 62
     2
100
AcDbText
 10
1122.999999999071
 20
1978.500000000003
 30
0.0
 40
40.0
  1
※カウンターは別途手配
 41
1.05
  7
EXCADSTD
 72
     5
 11
1512.999999999071
 21
1978.500000000003
 31
0.0
100
AcDbText
  0
TEXT
  5
178
330
1F
100
AcDbEntity
  8
枠_表
  6
CONTINUOUS
 62
     2
100
AcDbText
 10
1122.999999999071
 20
1938.500000000003
 30
0.0
 40
40.0
  1
※単水栓はハンドル式
 41
1.052966101694915
  7
EXCADSTD
 72
     5
 11
1477.999999999071
 21
1938.500000000003
 31
0.0
100
AcDbText
  0
TEXT
  5
179
330
1F
100
AcDbEntity
  8
枠_表
  6
CONTINUOUS
 62
     2
100
AcDbText
 10
1133.00000000003
 20
2203.249999999997
 30
0.0
 40
40.0
  1
ＪＬ２１１Ｆ３００ＷＭＹ４０
 41
0.7000000000000001
  7
EXCADSTD
 72
     5
 11
1465.00000000003
 21
2203.249999999997
 31
0.0
100
AcDbText
  0
TEXT
  5
17A
330
1F
100
AcDbEntity
  8
枠_表
  6
CONTINUOUS
 62
     2
100
AcDbText
 10
1133.000000000031
 20
2252.749999999997
 30
0.0
 40
40.0
  1
ＪＬ２２１Ｆ６０ＷＭＹ４０
 41
0.7022727272727274
  7
EXCADSTD
 72
     5
 11
1442.000000000031
 21
2252.749999999997
 31
0.0
100
AcDbText
  0
TEXT
  5
17B
330
1F
100
AcDbEntity
  8
枠_表
  6
CONTINUOUS
 62
     6
100
AcDbText
 10
243.0691160569512
 20
102.4500732000001
 30
0.0
 40
30.0
  1
2
 41
0.4683823529411765
  7
EXCADSTD
 72
     5
 11
254.4441160569512
 21
102.4500732000001
 31
0.0
100
AcDbText
  0
TEXT
  5
17C
330
1F
100
AcDbEntity
  8
枠_表
  6
CONTINUOUS
 62
     6
100
AcDbText
 10
294.6441158542956
 20
102.4500732000001
 30
0.0
 40
30.0
  1
8
 41
0.4683823529411765
  7
EXCADSTD
 72
     5
 11
306.0191158542956
 21
102.4500732000001
 31
0.0
100
AcDbText
  0
LINE
  5
17D
330
1F
100
AcDbEntity
  8
化粧台
  6
CONTINUOUS
 62
     1
100
AcDbLine
 10
428.2842712474621
 20
1317.000019
 30
0.0
 11
448.2842712474619
 21
1337.000019
 31
0.0
  0
LINE
  5
17E
330
1F
100
AcDbEntity
  8
化粧台
  6
CONTINUOUS
 62
     1
100
AcDbLine
 10
456.568542494924
 20
1317.000019
 30
0.0
 11
476.5685424949238
 21
1337.000019
 31
0.0
  0
LINE
  5
17F
330
1F
100
AcDbEntity
  8
化粧台
  6
CONTINUOUS
 62
     1
100
AcDbLine
 10
484.8528137423859
 20
1317.000019
 30
0.0
 11
504.8528137423857
 21
1337.000019
 31
0.0
  0
LINE
  5
180
330
1F
100
AcDbEntity
  8
化粧台
  6
CONTINUOUS
 62
     1
100
AcDbLine
 10
513.1370849898478
 20
1317.000019
 30
0.0
 11
533.1370849898476
 21
1337.000019
 31
0.0
  0
LINE
  5
181
330
1F
100
AcDbEntity
  8
化粧台
  6
CONTINUOUS
 62
     1
100
AcDbLine
 10
541.4213562373097
 20
1317.000019
 30
0.0
 11
561.4213562373095
 21
1337.000019
 31
0.0
  0
LINE
  5
182
330
1F
100
AcDbEntity
  8
化粧台
  6
CONTINUOUS
 62
     1
100
AcDbLine
 10
569.7056274847716
 20
1317.000019
 30
0.0
 11
589.7056274847716
 21
1337.000019
 31
0.0
  0
LINE
  5
183
330
1F
100
AcDbEntity
  8
化粧台
  6
CONTINUOUS
 62
     1
100
AcDbLine
 10
597.9898987322335
 20
1317.000019
 30
0.0
 11
617.9898987322335
 21
1337.000019
 31
0.0
  0
LINE
  5
184
330
1F
100
AcDbEntity
  8
化粧台
  6
CONTINUOUS
 62
     1
100
AcDbLine
 10
626.2741699796952
 20
1317.000019
 30
0.0
 11
646.2741699796951
 21
1337.000019
 31
0.0
  0
LINE
  5
185
330
1F
100
AcDbEntity
  8
化粧台
  6
CONTINUOUS
 62
     1
100
AcDbLine
 10
654.5584412271572
 20
1317.000019
 30
0.0
 11
674.5584412271572
 21
1337.000019
 31
0.0
  0
LINE
  5
186
330
1F
100
AcDbEntity
  8
化粧台
  6
CONTINUOUS
 62
     1
100
AcDbLine
 10
682.8427124746192
 20
1317.000019
 30
0.0
 11
702.8427124746192
 21
1337.000019
 31
0.0
  0
LINE
  5
187
330
1F
100
AcDbEntity
  8
化粧台
  6
CONTINUOUS
 62
     1
100
AcDbLine
 10
711.1269837220811
 20
1317.000019
 30
0.0
 11
731.1269837220811
 21
1337.000019
 31
0.0
  0
LINE
  5
188
330
1F
100
AcDbEntity
  8
化粧台
  6
CONTINUOUS
 62
     1
100
AcDbLine
 10
739.4112549695428
 20
1317.000019
 30
0.0
 11
759.4112549695428
 21
1337.000019
 31
0.0
  0
LINE
  5
189
330
1F
100
AcDbEntity
  8
化粧台
  6
CONTINUOUS
 62
     1
100
AcDbLine
 10
767.695526217005
 20
1317.000019
 30
0.0
 11
787.695526217005
 21
1337.000019
 31
0.0
  0
LINE
  5
18A
330
1F
100
AcDbEntity
  8
化粧台
  6
CONTINUOUS
 62
     1
100
AcDbLine
 10
795.9797974644671
 20
1317.000019
 30
0.0
 11
815.9797974644666
 21
1337.000019
 31
0.0
  0
LINE
  5
18B
330
1F
100
AcDbEntity
  8
化粧台
  6
CONTINUOUS
 62
     1
100
AcDbLine
 10
824.2640687119288
 20
1317.000019
 30
0.0
 11
844.2640687119288
 21
1337.000019
 31
0.0
  0
LINE
  5
18C
330
1F
100
AcDbEntity
  8
化粧台
  6
CONTINUOUS
 62
     1
100
AcDbLine
 10
852.5483399593907
 20
1317.000019
 30
0.0
 11
872.5483399593907
 21
1337.000019
 31
0.0
  0
LINE
  5
18D
330
1F
100
AcDbEntity
  8
化粧台
  6
CONTINUOUS
 62
     1
100
AcDbLine
 10
880.8326112068526
 20
1317.000019
 30
0.0
 11
900.8326112068526
 21
1337.000019
 31
0.0
  0
LINE
  5
18E
330
1F
100
AcDbEntity
  8
化粧台
  6
CONTINUOUS
 62
     1
100
AcDbLine
 10
1345.852813742386
 20
1317.000019
 30
0.0
 11
1365.852813742386
 21
1337.000019
 31
0.0
  0
LINE
  5
18F
330
1F
100
AcDbEntity
  8
化粧台
  6
CONTINUOUS
 62
     1
100
AcDbLine
 10
1374.137084989848
 20
1317.000019
 30
0.0
 11
1394.137084989848
 21
1337.000019
 31
0.0
  0
LINE
  5
190
330
1F
100
AcDbEntity
  8
化粧台
  6
CONTINUOUS
 62
     1
100
AcDbLine
 10
1402.42135623731
 20
1317.000019
 30
0.0
 11
1422.421356237309
 21
1337.000019
 31
0.0
  0
LINE
  5
191
330
1F
100
AcDbEntity
  8
化粧台
  6
CONTINUOUS
 62
     1
100
AcDbLine
 10
1430.705627484771
 20
1317.000019
 30
0.0
 11
1450.705627484771
 21
1337.000019
 31
0.0
  0
LINE
  5
192
330
1F
100
AcDbEntity
  8
化粧台
  6
CONTINUOUS
 62
     1
100
AcDbLine
 10
1458.989898732233
 20
1317.000019
 30
0.0
 11
1478.989898732233
 21
1337.000019
 31
0.0
  0
LINE
  5
193
330
1F
100
AcDbEntity
  8
化粧台
  6
CONTINUOUS
 62
     1
100
AcDbLine
 10
1487.274169979695
 20
1317.000019
 30
0.0
 11
1507.274169979695
 21
1337.000019
 31
0.0
  0
LINE
  5
194
330
1F
100
AcDbEntity
  8
化粧台
  6
CONTINUOUS
 62
     1
100
AcDbLine
 10
1515.558441227157
 20
1317.000019
 30
0.0
 11
1535.558441227157
 21
1337.000019
 31
0.0
  0
LINE
  5
195
330
1F
100
AcDbEntity
  8
化粧台
  6
CONTINUOUS
 62
     1
100
AcDbLine
 10
1543.842712474619
 20
1317.000019
 30
0.0
 11
1563.842712474619
 21
1337.000019
 31
0.0
  0
LINE
  5
196
330
1F
100
AcDbEntity
  8
化粧台
  6
CONTINUOUS
 62
     1
100
AcDbLine
 10
1572.126983722081
 20
1317.000019
 30
0.0
 11
1592.126983722081
 21
1337.000019
 31
0.0
  0
LINE
  5
197
330
1F
100
AcDbEntity
  8
化粧台
  6
CONTINUOUS
 62
     1
100
AcDbLine
 10
1600.411254969543
 20
1317.000019
 30
0.0
 11
1620.411254969543
 21
1337.000019
 31
0.0
  0
LINE
  5
198
330
1F
100
AcDbEntity
  8
化粧台
  6
CONTINUOUS
 62
     1
100
AcDbLine
 10
1325.57489
 20
1325.006366505076
 30
0.0
 11
1337.568542494924
 21
1337.000019
 31
0.0
  0
ARC
  5
199
330
1F
100
AcDbEntity
  8
化粧台
  6
CONTINUOUS
 62
     7
100
AcDbCircle
 10
500.0000000000003
 20
1432.000018999983
 30
0.0
 40
5.0
100
AcDbArc
 50
90.00000000000001
 51
186.0255750083663
  0
ARC
  5
19A
330
1F
100
AcDbEntity
  8
化粧台
  6
CONTINUOUS
 62
     7
100
AcDbCircle
 10
509.5000000000002
 20
1342.000018999979
 30
0.0
 40
5.0
100
AcDbArc
 50
186.0255750083667
 51
270.0
  0
ARC
  5
19B
330
1F
100
AcDbEntity
  8
化粧台
  6
CONTINUOUS
 62
     7
100
AcDbCircle
 10
830.5000000000001
 20
1342.000018999979
 30
0.0
 40
5.0
100
AcDbArc
 50
270.0
 51
353.9744249916336
  0
ARC
  5
19C
330
1F
100
AcDbEntity
  8
化粧台
  6
CONTINUOUS
 62
     7
100
AcDbCircle
 10
840.0
 20
1432.000018999983
 30
0.0
 40
5.0
100
AcDbArc
 50
353.9744249916333
 51
90.00000000000001
  0
LINE
  5
19D
330
1F
100
AcDbEntity
  8
化粧台
  6
CONTINUOUS
 62
     7
100
AcDbLine
 10
500.0000000000003
 20
1437.000018999983
 30
0.0
 11
840.0
 21
1437.000018999983
 31
0.0
  0
LINE
  5
19E
330
1F
100
AcDbEntity
  8
化粧台
  6
CONTINUOUS
 62
     7
100
AcDbLine
 10
495.0276243093924
 20
1431.475157121529
 30
0.0
 11
504.5276243093924
 21
1341.475157121527
 31
0.0
  0
LINE
  5
19F
330
1F
100
AcDbEntity
  8
化粧台
  6
CONTINUOUS
 62
     7
100
AcDbLine
 10
844.9723756906078
 20
1431.475157121529
 30
0.0
 11
835.4723756906078
 21
1341.475157121527
 31
0.0
  0
LINE
  5
1A0
330
1F
100
AcDbEntity
  8
化粧台
  6
EXLTYPE3
 62
     6
100
AcDbLine
 10
669.9999999999981
 20
801.9999999999991
 30
0.0
 11
669.9999999999981
 21
608.999999999899
 31
0.0
  0
LINE
  5
1A1
330
1F
100
AcDbEntity
  8
化粧台
  6
CONTINUOUS
 62
     6
100
AcDbLine
 10
659.4999999999982
 20
628.999999999899
 30
0.0
 11
680.4999999999873
 21
628.999999999899
 31
0.0
  0
LINE
  5
1A2
330
1F
100
AcDbEntity
  8
化粧台
  6
CONTINUOUS
 62
     6
100
AcDbLine
 10
680.4999999999873
 20
636.999999999899
 30
0.0
 11
680.4999999999873
 21
628.999999999899
 31
0.0
  0
LINE
  5
1A3
330
1F
100
AcDbEntity
  8
化粧台
  6
CONTINUOUS
 62
     6
100
AcDbLine
 10
659.49999999998
 20
636.999999999899
 30
0.0
 11
659.49999999998
 21
628.999999999899
 31
0.0
  0
LINE
  5
1A4
330
1F
100
AcDbEntity
  8
化粧台
  6
EXLTYPE4
 62
     6
100
AcDbLine
 10
659.4999999999982
 20
636.999999999899
 30
0.0
 11
659.4999999999982
 21
783.499999999899
 31
0.0
  0
LINE
  5
1A5
330
1F
100
AcDbEntity
  8
化粧台
  6
EXLTYPE4
 62
     6
100
AcDbLine
 10
680.4999999999982
 20
636.999999999899
 30
0.0
 11
680.4999999999982
 21
783.499999999899
 31
0.0
  0
TEXT
  5
1A6
330
1F
100
AcDbEntity
  8
化粧台
  6
CONTINUOUS
 62
     2
100
AcDbText
 10
297.8500044999732
 20
644.6999999999998
 30
0.0
 40
40.0
  1
Ｆ.Ｌ.
 41
0.9086538461538461
  7
EXCADSTD
 72
     5
 11
387.8500044999732
 21
644.6999999999998
 31
0.0
100
AcDbText
  0
LINE
  5
1A7
330
1F
100
AcDbEntity
  8
化粧台
  6
EXLTYPE3
 62
     6
100
AcDbLine
 10
707.3999999999999
 20
956.9999999999999
 30
0.0
 11
631.8
 21
957.0
 31
0.0
  0
LINE
  5
1A8
330
1F
100
AcDbEntity
  8
化粧台
  6
CONTINUOUS
 62
     6
100
AcDbLine
 10
582.6999999999571
 20
651.00000000003
 30
0.0
 11
582.6999999999571
 21
744.3000069999999
 31
0.0
  0
LINE
  5
1A9
330
1F
100
AcDbEntity
  8
化粧台
  6
CONTINUOUS
 62
     6
100
AcDbLine
 10
557.3000000000002
 20
744.3000069999999
 30
0.0
 11
557.3000000000002
 21
651.00000000003
 31
0.0
  0
ARC
  5
1AA
330
1F
100
AcDbEntity
  8
化粧台
  6
CONTINUOUS
 62
     6
100
AcDbCircle
 10
588.0
 20
639.00000000003
 30
0.0
 40
12.0
100
AcDbArc
 50
0.0
 51
90.00000000000001
  0
LINE
  5
1AB
330
1F
100
AcDbEntity
  8
化粧台
  6
CONTINUOUS
 62
     6
100
AcDbLine
 10
599.9999999999991
 20
637.0
 30
0.0
 11
599.9999999999991
 21
639.0000000000296
 31
0.0
  0
ARC
  5
1AC
330
1F
100
AcDbEntity
  8
化粧台
  6
CONTINUOUS
 62
     6
100
AcDbCircle
 10
552.000000000002
 20
639.00000000003
 30
0.0
 40
12.0
100
AcDbArc
 50
90.00000000000001
 51
180.0
  0
LINE
  5
1AD
330
1F
100
AcDbEntity
  8
化粧台
  6
CONTINUOUS
 62
     6
100
AcDbLine
 10
540.000000000002
 20
637.0
 30
0.0
 11
540.000000000002
 21
639.0000000000296
 31
0.0
  0
LINE
  5
1AE
330
1F
100
AcDbEntity
  8
化粧台
  6
CONTINUOUS
 62
     6
100
AcDbLine
 10
552.000000000002
 20
651.00000000003
 30
0.0
 11
588.0
 21
651.00000000003
 31
0.0
  0
LINE
  5
1AF
330
1F
100
AcDbEntity
  8
化粧台
  6
CONTINUOUS
 62
     2
100
AcDbLine
 10
920.0
 20
1337.000019
 30
0.0
 11
420.0
 21
1337.000019
 31
0.0
  0
LINE
  5
1B0
330
1F
100
AcDbEntity
  8
化粧台
  6
CONTINUOUS
 62
     2
100
AcDbLine
 10
920.0
 20
1317.000019
 30
0.0
 11
420.0
 21
1317.000019
 31
0.0
  0
LINE
  5
1B1
330
1F
100
AcDbEntity
  8
化粧台
  6
EXLTYPE3
 62
     6
100
AcDbLine
 10
569.9999999999982
 20
591.3258249999999
 30
0.0
 11
569.9999999999982
 21
1321.4
 31
0.0
  0
LINE
  5
1B2
330
1F
100
AcDbEntity
  8
化粧台
  6
EXLTYPE3
 62
     6
100
AcDbLine
 10
669.9999999999981
 20
1538.0
 30
0.0
 11
669.9999999999981
 21
587.3258249999999
 31
0.0
  0
LINE
  5
1B3
330
1F
100
AcDbEntity
  8
化粧台
  6
CONTINUOUS
 62
     7
100
AcDbLine
 10
1296.933868
 20
637.0
 30
0.0
 11
1625.57489
 21
637.0
 31
0.0
  0
ARC
  5
1B4
330
1F
100
AcDbEntity
  8
化粧台
  6
CONTINUOUS
 62
     7
100
AcDbCircle
 10
1616.781517654758
 20
1342.000018999981
 30
0.0
 40
5.0
100
AcDbArc
 50
270.0
 51
357.5862971699695
  0
ARC
  5
1B5
330
1F
100
AcDbEntity
  8
化粧台
  6
CONTINUOUS
 62
     7
100
AcDbCircle
 10
1620.57519766083
 20
1432.000018999977
 30
0.0
 40
5.0
100
AcDbArc
 50
357.5862971699695
 51
90.00000000000001
  0
ARC
  5
1B6
330
1F
100
AcDbEntity
  8
化粧台
  6
CONTINUOUS
 62
     7
100
AcDbCircle
 10
1350.575197660826
 20
1432.000018999981
 30
0.0
 40
5.0
100
AcDbArc
 50
89.99999999999939
 51
189.6017550789933
  0
ARC
  5
1B7
330
1F
100
AcDbEntity
  8
化粧台
  6
CONTINUOUS
 62
     7
100
AcDbCircle
 10
1365.800393991872
 20
1342.000018999981
 30
0.0
 40
5.0
100
AcDbArc
 50
189.6017550789919
 51
270.0
  0
LINE
  5
1B8
330
1F
100
AcDbEntity
  8
化粧台
  6
CONTINUOUS
 62
     7
100
AcDbLine
 10
1345.645243020011
 20
1431.166024252096
 30
0.0
 11
1360.870439351056
 21
1341.166024252096
 31
0.0
  0
LINE
  5
1B9
330
1F
100
AcDbEntity
  8
化粧台
  6
CONTINUOUS
 62
     7
100
AcDbLine
 10
1620.5751976608
 20
1437.000018999977
 30
0.0
 11
1350.575197660826
 21
1437.000018999977
 31
0.0
  0
LINE
  5
1BA
330
1F
100
AcDbEntity
  8
化粧台
  6
CONTINUOUS
 62
     7
100
AcDbLine
 10
1625.570761593655
 20
1431.789445988743
 30
0.0
 11
1621.777081587584
 21
1341.789445988746
 31
0.0
  0
LINE
  5
1BB
330
1F
100
AcDbEntity
  8
化粧台
  6
CONTINUOUS
 62
     6
100
AcDbLine
 10
1536.290397667601
 20
629.0
 30
0.0
 11
1515.2903976676
 21
629.0
 31
0.0
  0
LINE
  5
1BC
330
1F
100
AcDbEntity
  8
化粧台
  6
CONTINUOUS
 62
     6
100
AcDbLine
 10
1513.290397667601
 20
612.6313708498997
 30
0.0
 11
1538.290397667601
 21
612.6313708498997
 31
0.0
  0
LINE
  5
1BD
330
1F
100
AcDbEntity
  8
化粧台
  6
CONTINUOUS
 62
     2
100
AcDbLine
 10
1625.57489
 20
1317.000019
 30
0.0
 11
1325.57489
 21
1317.000019
 31
0.0
  0
LINE
  5
1BE
330
1F
100
AcDbEntity
  8
化粧台
  6
CONTINUOUS
 62
     2
100
AcDbLine
 10
1625.57489
 20
1337.000019
 30
0.0
 11
1325.57489
 21
1337.000019
 31
0.0
  0
ARC
  5
1BF
330
1F
100
AcDbEntity
  8
化粧台
  6
CONTINUOUS
 62
     6
100
AcDbCircle
 10
1564.8580979568
 20
1058.76464331385
 30
0.0
 40
19.36562
100
AcDbArc
 50
26.65711298160386
 51
26.657301
  0
LINE
  5
1C0
330
1F
100
AcDbEntity
  8
化粧台
  6
EXLTYPE3
 62
     6
100
AcDbLine
 10
1664.0
 20
957.0000000000002
 30
0.0
 11
1531.0
 21
957.0000000000002
 31
0.0
  0
LINE
  5
1C1
330
1F
100
AcDbEntity
  8
化粧台
  6
CONTINUOUS
 62
     7
100
AcDbLine
 10
296.9500045000007
 20
637.0
 30
0.0
 11
1096.0
 21
637.0000000000001
 31
0.0
  0
LINE
  5
1C2
330
1F
100
AcDbEntity
  8
化粧台
  6
CONTINUOUS
 62
     6
100
AcDbLine
 10
582.6999999999571
 20
757.000004
 30
0.0
 11
582.6999999999571
 21
820.0
 31
0.0
  0
LINE
  5
1C3
330
1F
100
AcDbEntity
  8
化粧台
  6
CONTINUOUS
 62
     6
100
AcDbLine
 10
557.3000000000002
 20
820.0
 30
0.0
 11
557.3000000000002
 21
757.000004
 31
0.0
  0
LINE
  5
1C4
330
1F
100
AcDbEntity
  8
化粧台
  6
CONTINUOUS
 62
     7
100
AcDbLine
 10
1625.57489
 20
1765.0
 30
0.0
 11
1625.57489
 21
637.0
 31
0.0
  0
TEXT
  5
1C5
330
1F
100
AcDbEntity
  8
化粧台
  6
CONTINUOUS
 62
     2
100
AcDbText
 10
1617.074889999895
 20
1671.65
 30
0.0
 40
40.0
  1
Ｗ.Ｌ.
 50
90.0
 41
0.9086538461538461
  7
EXCADSTD
 72
     5
 11
1617.074889999895
 21
1761.65
 31
0.0
100
AcDbText
  0
LINE
  5
1C6
330
1F
100
AcDbEntity
  8
化粧台
  6
EXLTYPE4
 62
     6
100
AcDbLine
 10
1515.2903976676
 20
783.4999999999
 30
0.0
 11
1515.2903976676
 21
629.0000000000005
 31
0.0
  0
LINE
  5
1C7
330
1F
100
AcDbEntity
  8
化粧台
  6
EXLTYPE4
 62
     6
100
AcDbLine
 10
1536.2903976676
 20
783.4999999999
 30
0.0
 11
1536.2903976676
 21
629.0000000000005
 31
0.0
  0
LINE
  5
1C8
330
1F
100
AcDbEntity
  8
化粧台
  6
EXLTYPE3
 62
     6
100
AcDbLine
 10
1525.7903976676
 20
572.3258249999999
 30
0.0
 11
1525.7903976676
 21
825.5000000000001
 31
0.0
  0
LINE
  5
1C9
330
1F
100
AcDbEntity
  8
化粧台
  6
EXLTYPE4
 62
     6
100
AcDbLine
 10
1513.290397667601
 20
612.631370849901
 30
0.0
 11
1513.290397667601
 21
782.7
 31
0.0
  0
LINE
  5
1CA
330
1F
100
AcDbEntity
  8
化粧台
  6
EXLTYPE4
 62
     6
100
AcDbLine
 10
1538.290397667601
 20
612.631370849901
 30
0.0
 11
1538.290397667601
 21
783.4999999999
 31
0.0
  0
LINE
  5
1CB
330
1F
100
AcDbEntity
  8
化粧台
  6
EXLTYPE3
 62
     6
100
AcDbLine
 10
772.7199999999923
 20
2484.48193002825
 30
0.0
 11
755.7799999999921
 21
2484.48193002825
 31
0.0
  0
LINE
  5
1CC
330
1F
100
AcDbEntity
  8
化粧台
  6
EXLTYPE3
 62
     6
100
AcDbLine
 10
772.4399999999921
 20
2492.48193002825
 30
0.0
 11
754.0999999999924
 21
2492.48193002825
 31
0.0
  0
LINE
  5
1CD
330
1F
100
AcDbEntity
  8
化粧台
  6
EXLTYPE3
 62
     6
100
AcDbLine
 10
764.5000000000002
 20
2474.28191965392
 30
0.0
 11
764.5000000000002
 21
2500.28191965392
 31
0.0
  0
LINE
  5
1CE
330
1F
100
AcDbEntity
  8
化粧台
  6
EXLTYPE3
 62
     6
100
AcDbLine
 10
511.2800000000004
 20
2484.48193002825
 30
0.0
 11
528.2200000000005
 21
2484.48193002825
 31
0.0
  0
LINE
  5
1CF
330
1F
100
AcDbEntity
  8
化粧台
  6
EXLTYPE3
 62
     6
100
AcDbLine
 10
511.5600000000002
 20
2492.48193002825
 30
0.0
 11
529.9000000000003
 21
2492.48193002825
 31
0.0
  0
LINE
  5
1D0
330
1F
100
AcDbEntity
  8
化粧台
  6
EXLTYPE3
 62
     6
100
AcDbLine
 10
519.5000000000002
 20
2474.28191965392
 30
0.0
 11
519.5000000000002
 21
2495.53191965392
 31
0.0
  0
LINE
  5
1D1
330
1F
100
AcDbEntity
  8
化粧台
  6
EXLTYPE3
 62
     6
100
AcDbLine
 10
519.5000000000002
 20
2474.28191965392
 30
0.0
 11
519.5000000000002
 21
2504.38191965392
 31
0.0
  0
LINE
  5
1D2
330
1F
100
AcDbEntity
  8
化粧台
  6
EXLTYPE3
 62
     6
100
AcDbLine
 10
497.8000000000009
 20
2424.481919653928
 30
0.0
 11
590.2261529711602
 21
2424.481919653901
 31
0.0
  0
LINE
  5
1D3
330
1F
100
AcDbEntity
  8
化粧台
  6
EXLTYPE3
 62
     6
100
AcDbLine
 10
542.0000000000143
 20
2377.93191965392
 30
0.0
 11
542.0000000000143
 21
2463.09400711474
 31
0.0
  0
CIRCLE
  5
1D4
330
1F
100
AcDbEntity
  8
化粧台
  6
CONTINUOUS
 62
     2
100
AcDbCircle
 10
542.0000000000102
 20
2424.481919653921
 30
0.0
 40
40.0
  0
LINE
  5
1D5
330
1F
100
AcDbEntity
  8
化粧台
  6
CONTINUOUS
 62
     2
100
AcDbLine
 10
525.4999732968874
 20
2492.464029284044
 30
0.0
 11
525.4745106620705
 21
2483.92946070889
 31
0.0
  0
ARC
  5
1D6
330
1F
100
AcDbEntity
  8
化粧台
  6
CONTINUOUS
 62
     2
100
AcDbCircle
 10
519.5000000000002
 20
2492.48193002825
 30
0.0
 40
6.000000000000001
100
AcDbArc
 50
359.8290602308876
 51
180.0
  0
LINE
  5
1D7
330
1F
100
AcDbEntity
  8
化粧台
  6
CONTINUOUS
 62
     2
100
AcDbLine
 10
513.5000000000002
 20
2492.48193002825
 30
0.0
 11
513.5000000000002
 21
2484.48193002825
 31
0.0
  0
ARC
  5
1D8
330
1F
100
AcDbEntity
  8
化粧台
  6
CONTINUOUS
 62
     2
100
AcDbCircle
 10
519.5000000000002
 20
2484.48193002825
 30
0.0
 40
6.000000000000001
100
AcDbArc
 50
175.2198081528
 51
4.941297338673849
  0
LINE
  5
1D9
330
1F
100
AcDbEntity
  8
化粧台
  6
EXLTYPE3
 62
     6
100
AcDbLine
 10
641.9999999999961
 20
2597.18191965392
 30
0.0
 11
641.9999999999961
 21
2303.5
 31
0.0
  0
LINE
  5
1DA
330
1F
100
AcDbEntity
  8
化粧台
  6
CONTINUOUS
 62
     2
100
AcDbLine
 10
770.4999999999922
 20
2492.48193002825
 30
0.0
 11
770.4999999999922
 21
2484.48193002825
 31
0.0
  0
ARC
  5
1DB
330
1F
100
AcDbEntity
  8
化粧台
  6
CONTINUOUS
 62
     2
100
AcDbCircle
 10
764.499999999992
 20
2492.48193002825
 30
0.0
 40
6.000000000000001
100
AcDbArc
 50
0.0
 51
180.1709397691124
  0
LINE
  5
1DC
330
1F
100
AcDbEntity
  8
化粧台
  6
CONTINUOUS
 62
     2
100
AcDbLine
 10
758.5000267031053
 20
2492.464029284044
 30
0.0
 11
758.5254893379222
 21
2483.92946070891
 31
0.0
  0
ARC
  5
1DD
330
1F
100
AcDbEntity
  8
化粧台
  6
CONTINUOUS
 62
     2
100
AcDbCircle
 10
764.499999999992
 20
2484.48193002825
 30
0.0
 40
6.000000000000001
100
AcDbArc
 50
184.9458824066563
 51
0.0
  0
LINE
  5
1DE
330
1F
100
AcDbEntity
  8
化粧台
  6
CONTINUOUS
 62
     2
100
AcDbLine
 10
950.0
 20
2575.48191965392
 30
0.0
 11
315.0
 21
2575.48191965392
 31
0.0
  0
LINE
  5
1DF
330
1F
100
AcDbEntity
  8
化粧台
  6
CONTINUOUS
 62
     2
100
AcDbLine
 10
692.0000000000002
 20
2470.5
 30
0.0
 11
591.9999999999961
 21
2470.5
 31
0.0
  0
LINE
  5
1E0
330
1F
100
AcDbEntity
  8
化粧台
  6
CONTINUOUS
 62
     2
100
AcDbLine
 10
692.0000000000002
 20
2470.5
 30
0.0
 11
692.0000000000002
 21
2555.5
 31
0.0
  0
LINE
  5
1E1
330
1F
100
AcDbEntity
  8
化粧台
  6
CONTINUOUS
 62
     2
100
AcDbLine
 10
692.0000000000002
 20
2555.5
 30
0.0
 11
591.9999999999961
 21
2555.5
 31
0.0
  0
LINE
  5
1E2
330
1F
100
AcDbEntity
  8
化粧台
  6
CONTINUOUS
 62
     2
100
AcDbLine
 10
591.9999999999961
 20
2555.5
 30
0.0
 11
591.9999999999961
 21
2470.5
 31
0.0
  0
LINE
  5
1E3
330
1F
100
AcDbEntity
  8
化粧台
  6
CONTINUOUS
 62
     2
100
AcDbLine
 10
816.7000000000002
 20
1337.000018999998
 30
0.0
 11
765.5999999999998
 21
1337.000018999998
 31
0.0
  0
LINE
  5
1E4
330
1F
100
AcDbEntity
  8
化粧台
  6
EXLTYPE3
 62
     6
100
AcDbLine
 10
792.5
 20
1296.200019
 30
0.0
 11
792.5
 21
1320.8
 31
0.0
  0
LINE
  5
1E5
330
1F
100
AcDbEntity
  8
化粧台
  6
EXLTYPE3
 62
     6
100
AcDbLine
 10
547.4999999999968
 20
1296.200019
 30
0.0
 11
547.4999999999968
 21
1320.8
 31
0.0
  0
LINE
  5
1E6
330
1F
100
AcDbEntity
  8
化粧台
  6
EXLTYPE3
 62
     6
100
AcDbLine
 10
1532.574900374401
 20
1296.200019000001
 30
0.0
 11
1532.574900374401
 21
1320.8
 31
0.0
  0
LINE
  5
1E7
330
1F
100
AcDbEntity
  8
化粧台
  6
CONTINUOUS
 62
     6
100
AcDbLine
 10
795.8000000000002
 20
1299.000019
 30
0.0
 11
796.5
 21
1299.700019
 31
0.0
  0
LINE
  5
1E8
330
1F
100
AcDbEntity
  8
化粧台
  6
CONTINUOUS
 62
     6
100
AcDbLine
 10
789.2000000000002
 20
1299.000019000001
 30
0.0
 11
795.8000000000002
 21
1299.000019
 31
0.0
  0
LINE
  5
1E9
330
1F
100
AcDbEntity
  8
化粧台
  6
CONTINUOUS
 62
     6
100
AcDbLine
 10
789.2000000000002
 20
1299.000019000001
 30
0.0
 11
788.5
 21
1299.700019
 31
0.0
  0
LINE
  5
1EA
330
1F
100
AcDbEntity
  8
化粧台
  6
CONTINUOUS
 62
     6
100
AcDbLine
 10
796.5
 20
1299.700019
 30
0.0
 11
788.5
 21
1299.700019
 31
0.0
  0
LINE
  5
1EB
330
1F
100
AcDbEntity
  8
化粧台
  6
CONTINUOUS
 62
     6
100
AcDbLine
 10
803.500000000001
 20
1316.000019
 30
0.0
 11
781.500000000001
 21
1316.000019
 31
0.0
  0
LINE
  5
1EC
330
1F
100
AcDbEntity
  8
化粧台
  6
CONTINUOUS
 62
     6
100
AcDbLine
 10
803.500000000001
 20
1316.000019
 30
0.0
 11
803.500000000001
 21
1317.000019
 31
0.0
  0
LINE
  5
1ED
330
1F
100
AcDbEntity
  8
化粧台
  6
CONTINUOUS
 62
     6
100
AcDbLine
 10
781.500000000001
 20
1316.000019
 30
0.0
 11
781.500000000001
 21
1317.000019
 31
0.0
  0
LINE
  5
1EE
330
1F
100
AcDbEntity
  8
化粧台
  6
CONTINUOUS
 62
     6
100
AcDbLine
 10
784.9944465005001
 20
1316.000019000001
 30
0.0
 11
800.0055534994999
 21
1316.000019000001
 31
0.0
  0
LINE
  5
1EF
330
1F
100
AcDbEntity
  8
化粧台
  6
CONTINUOUS
 62
     6
100
AcDbLine
 10
786.0
 20
1309.500019
 30
0.0
 11
799.0
 21
1309.500019
 31
0.0
  0
ARC
  5
1F0
330
1F
100
AcDbEntity
  8
化粧台
  6
CONTINUOUS
 62
     6
100
AcDbCircle
 10
786.8708348754001
 20
1312.822588573001
 30
0.0
 40
3.32256957295
100
AcDbArc
 50
235.615752531999
 51
304.3842474680388
  0
ARC
  5
1F1
330
1F
100
AcDbEntity
  8
化粧台
  6
CONTINUOUS
 62
     6
100
AcDbCircle
 10
792.5
 20
1321.919462416401
 30
0.0
 40
12.4194434164
100
AcDbArc
 50
252.412046226
 51
287.5879537739898
  0
ARC
  5
1F2
330
1F
100
AcDbEntity
  8
化粧台
  6
CONTINUOUS
 62
     6
100
AcDbCircle
 10
798.1291651245999
 20
1312.822588573001
 30
0.0
 40
3.32256957295
100
AcDbArc
 50
235.615752531999
 51
304.3842474680388
  0
LINE
  5
1F3
330
1F
100
AcDbEntity
  8
化粧台
  6
CONTINUOUS
 62
     6
100
AcDbLine
 10
799.0
 20
1309.500019
 30
0.0
 11
800.0055534994999
 21
1310.080575583601
 31
0.0
  0
LINE
  5
1F4
330
1F
100
AcDbEntity
  8
化粧台
  6
CONTINUOUS
 62
     6
100
AcDbLine
 10
786.0
 20
1309.500019
 30
0.0
 11
784.9944465005001
 21
1310.080575583601
 31
0.0
  0
LINE
  5
1F5
330
1F
100
AcDbEntity
  8
化粧台
  6
CONTINUOUS
 62
     6
100
AcDbLine
 10
788.7472232503001
 20
1310.080575583601
 30
0.0
 11
788.7472232503001
 21
1316.000019000001
 31
0.0
  0
LINE
  5
1F6
330
1F
100
AcDbEntity
  8
化粧台
  6
CONTINUOUS
 62
     6
100
AcDbLine
 10
796.2527767496999
 20
1310.080575583601
 30
0.0
 11
796.2527767496999
 21
1316.000019000001
 31
0.0
  0
LINE
  5
1F7
330
1F
100
AcDbEntity
  8
化粧台
  6
CONTINUOUS
 62
     6
100
AcDbLine
 10
800.0055534994999
 20
1310.080575583601
 30
0.0
 11
800.0055534994999
 21
1316.000019000001
 31
0.0
  0
LINE
  5
1F8
330
1F
100
AcDbEntity
  8
化粧台
  6
CONTINUOUS
 62
     6
100
AcDbLine
 10
784.9944465005001
 20
1310.080575583601
 30
0.0
 11
784.9944465005001
 21
1316.000019000001
 31
0.0
  0
LINE
  5
1F9
330
1F
100
AcDbEntity
  8
化粧台
  6
CONTINUOUS
 62
     6
100
AcDbLine
 10
788.5
 20
1299.700019
 30
0.0
 11
788.5
 21
1309.500019
 31
0.0
  0
LINE
  5
1FA
330
1F
100
AcDbEntity
  8
化粧台
  6
CONTINUOUS
 62
     6
100
AcDbLine
 10
796.5
 20
1299.700019
 30
0.0
 11
796.5
 21
1309.926852127141
 31
0.0
  0
LINE
  5
1FB
330
1F
100
AcDbEntity
  8
化粧台
  6
CONTINUOUS
 62
     6
100
AcDbLine
 10
795.8000000000002
 20
1299.000019
 30
0.0
 11
795.8000000000002
 21
1309.500019
 31
0.0
  0
LINE
  5
1FC
330
1F
100
AcDbEntity
  8
化粧台
  6
CONTINUOUS
 62
     6
100
AcDbLine
 10
789.2000000000002
 20
1299.000019000001
 30
0.0
 11
789.2000000000002
 21
1309.500019
 31
0.0
  0
LINE
  5
1FD
330
1F
100
AcDbEntity
  8
化粧台
  6
CONTINUOUS
 62
     6
100
AcDbLine
 10
544.1999999999966
 20
1299.000019
 30
0.0
 11
543.4999999999968
 21
1299.700019
 31
0.0
  0
LINE
  5
1FE
330
1F
100
AcDbEntity
  8
化粧台
  6
CONTINUOUS
 62
     6
100
AcDbLine
 10
550.7999999999968
 20
1299.000019000001
 30
0.0
 11
544.1999999999966
 21
1299.000019
 31
0.0
  0
LINE
  5
1FF
330
1F
100
AcDbEntity
  8
化粧台
  6
CONTINUOUS
 62
     6
100
AcDbLine
 10
550.7999999999968
 20
1299.000019000001
 30
0.0
 11
551.4999999999968
 21
1299.700019
 31
0.0
  0
LINE
  5
200
330
1F
100
AcDbEntity
  8
化粧台
  6
CONTINUOUS
 62
     6
100
AcDbLine
 10
543.4999999999968
 20
1299.700019
 30
0.0
 11
551.4999999999968
 21
1299.700019
 31
0.0
  0
LINE
  5
201
330
1F
100
AcDbEntity
  8
化粧台
  6
CONTINUOUS
 62
     6
100
AcDbLine
 10
536.4999999999957
 20
1316.000019
 30
0.0
 11
536.4999999999957
 21
1317.000019
 31
0.0
  0
ARC
  5
202
330
1F
100
AcDbEntity
  8
化粧台
  6
CONTINUOUS
 62
     6
100
AcDbCircle
 10
547.4999999999968
 20
1321.919462416401
 30
0.0
 40
12.4194434164
100
AcDbArc
 50
252.4120462260102
 51
287.5879537739997
  0
ARC
  5
203
330
1F
100
AcDbEntity
  8
化粧台
  6
CONTINUOUS
 62
     6
100
AcDbCircle
 10
541.8708348753969
 20
1312.822588573001
 30
0.0
 40
3.32256957295
100
AcDbArc
 50
235.6157525319612
 51
304.3842474680018
  0
LINE
  5
204
330
1F
100
AcDbEntity
  8
化粧台
  6
CONTINUOUS
 62
     6
100
AcDbLine
 10
540.9999999999968
 20
1309.500019
 30
0.0
 11
539.9944465004969
 21
1310.080575583601
 31
0.0
  0
LINE
  5
205
330
1F
100
AcDbEntity
  8
化粧台
  6
CONTINUOUS
 62
     6
100
AcDbLine
 10
543.7472232502969
 20
1310.080575583601
 30
0.0
 11
543.7472232502969
 21
1316.000019000001
 31
0.0
  0
LINE
  5
206
330
1F
100
AcDbEntity
  8
化粧台
  6
CONTINUOUS
 62
     6
100
AcDbLine
 10
539.9944465004969
 20
1310.080575583601
 30
0.0
 11
539.9944465004969
 21
1316.000019000001
 31
0.0
  0
LINE
  5
207
330
1F
100
AcDbEntity
  8
化粧台
  6
CONTINUOUS
 62
     6
100
AcDbLine
 10
551.4999999999968
 20
1299.700019
 30
0.0
 11
551.4999999999968
 21
1309.500019
 31
0.0
  0
LINE
  5
208
330
1F
100
AcDbEntity
  8
化粧台
  6
CONTINUOUS
 62
     6
100
AcDbLine
 10
543.4999999999968
 20
1299.700019
 30
0.0
 11
543.4999999999968
 21
1309.926852127141
 31
0.0
  0
LINE
  5
209
330
1F
100
AcDbEntity
  8
化粧台
  6
CONTINUOUS
 62
     6
100
AcDbLine
 10
544.1999999999966
 20
1299.000019
 30
0.0
 11
544.1999999999966
 21
1309.500019
 31
0.0
  0
LINE
  5
20A
330
1F
100
AcDbEntity
  8
化粧台
  6
CONTINUOUS
 62
     6
100
AcDbLine
 10
550.7999999999965
 20
1299.000019000001
 30
0.0
 11
550.7999999999965
 21
1309.500019
 31
0.0
  0
ARC
  5
20B
330
1F
100
AcDbEntity
  8
化粧台
  6
CONTINUOUS
 62
     6
100
AcDbCircle
 10
553.1291651245967
 20
1312.822588573001
 30
0.0
 40
3.322569572950001
100
AcDbArc
 50
235.6157525319612
 51
240.2134136737151
  0
LINE
  5
20C
330
1F
100
AcDbEntity
  8
化粧台
  6
CONTINUOUS
 62
     6
100
AcDbLine
 10
551.6891070763211
 20
1309.500019
 30
0.0
 11
540.9999999999968
 21
1309.500019
 31
0.0
  0
LINE
  5
20D
330
1F
100
AcDbEntity
  8
化粧台
  6
CONTINUOUS
 62
     6
100
AcDbLine
 10
536.4999999999957
 20
1316.000019
 30
0.0
 11
551.1691656235138
 21
1316.000019
 31
0.0
  0
LINE
  5
20E
330
1F
100
AcDbEntity
  8
化粧台
  6
CONTINUOUS
 62
     6
100
AcDbLine
 10
1535.874900374401
 20
1299.000019000001
 30
0.0
 11
1536.574900374401
 21
1299.700019000001
 31
0.0
  0
LINE
  5
20F
330
1F
100
AcDbEntity
  8
化粧台
  6
CONTINUOUS
 62
     6
100
AcDbLine
 10
1529.274900374401
 20
1299.000019000001
 30
0.0
 11
1535.874900374401
 21
1299.000019000001
 31
0.0
  0
LINE
  5
210
330
1F
100
AcDbEntity
  8
化粧台
  6
CONTINUOUS
 62
     6
100
AcDbLine
 10
1529.274900374401
 20
1299.000019000001
 30
0.0
 11
1528.574900374401
 21
1299.700019000001
 31
0.0
  0
LINE
  5
211
330
1F
100
AcDbEntity
  8
化粧台
  6
CONTINUOUS
 62
     6
100
AcDbLine
 10
1536.574900374401
 20
1299.700019000001
 30
0.0
 11
1528.574900374401
 21
1299.700019000001
 31
0.0
  0
LINE
  5
212
330
1F
100
AcDbEntity
  8
化粧台
  6
CONTINUOUS
 62
     6
100
AcDbLine
 10
1543.574900374402
 20
1316.000019000001
 30
0.0
 11
1521.574900374402
 21
1316.000019000001
 31
0.0
  0
LINE
  5
213
330
1F
100
AcDbEntity
  8
化粧台
  6
CONTINUOUS
 62
     6
100
AcDbLine
 10
1543.574900374402
 20
1316.000019000001
 30
0.0
 11
1543.574900374402
 21
1317.000019
 31
0.0
  0
LINE
  5
214
330
1F
100
AcDbEntity
  8
化粧台
  6
CONTINUOUS
 62
     6
100
AcDbLine
 10
1525.0693468749
 20
1316.000019000001
 30
0.0
 11
1540.080453873901
 21
1316.000019000001
 31
0.0
  0
LINE
  5
215
330
1F
100
AcDbEntity
  8
化粧台
  6
CONTINUOUS
 62
     6
100
AcDbLine
 10
1526.074900374401
 20
1309.500019000001
 30
0.0
 11
1539.074900374401
 21
1309.500019000001
 31
0.0
  0
ARC
  5
216
330
1F
100
AcDbEntity
  8
化粧台
  6
CONTINUOUS
 62
     6
100
AcDbCircle
 10
1526.945735249801
 20
1312.822588573001
 30
0.0
 40
3.32256957295
100
AcDbArc
 50
235.615752531999
 51
304.3842474680388
  0
ARC
  5
217
330
1F
100
AcDbEntity
  8
化粧台
  6
CONTINUOUS
 62
     6
100
AcDbCircle
 10
1532.574900374401
 20
1321.919462416401
 30
0.0
 40
12.4194434164
100
AcDbArc
 50
252.412046226
 51
287.5879537739898
  0
ARC
  5
218
330
1F
100
AcDbEntity
  8
化粧台
  6
CONTINUOUS
 62
     6
100
AcDbCircle
 10
1538.204065499001
 20
1312.822588573001
 30
0.0
 40
3.32256957295
100
AcDbArc
 50
235.615752531999
 51
304.3842474680388
  0
LINE
  5
219
330
1F
100
AcDbEntity
  8
化粧台
  6
CONTINUOUS
 62
     6
100
AcDbLine
 10
1539.074900374401
 20
1309.500019000001
 30
0.0
 11
1540.080453873901
 21
1310.080575583601
 31
0.0
  0
LINE
  5
21A
330
1F
100
AcDbEntity
  8
化粧台
  6
CONTINUOUS
 62
     6
100
AcDbLine
 10
1526.074900374401
 20
1309.500019000001
 30
0.0
 11
1525.0693468749
 21
1310.080575583601
 31
0.0
  0
LINE
  5
21B
330
1F
100
AcDbEntity
  8
化粧台
  6
CONTINUOUS
 62
     6
100
AcDbLine
 10
1528.8221236247
 20
1310.080575583601
 30
0.0
 11
1528.822123624701
 21
1316.000019000001
 31
0.0
  0
LINE
  5
21C
330
1F
100
AcDbEntity
  8
化粧台
  6
CONTINUOUS
 62
     6
100
AcDbLine
 10
1536.327677124101
 20
1310.080575583601
 30
0.0
 11
1536.327677124101
 21
1316.000019000001
 31
0.0
  0
LINE
  5
21D
330
1F
100
AcDbEntity
  8
化粧台
  6
CONTINUOUS
 62
     6
100
AcDbLine
 10
1540.080453873901
 20
1310.080575583601
 30
0.0
 11
1540.080453873901
 21
1316.000019000001
 31
0.0
  0
LINE
  5
21E
330
1F
100
AcDbEntity
  8
化粧台
  6
CONTINUOUS
 62
     6
100
AcDbLine
 10
1525.0693468749
 20
1310.080575583601
 30
0.0
 11
1525.0693468749
 21
1316.000019000001
 31
0.0
  0
LINE
  5
21F
330
1F
100
AcDbEntity
  8
化粧台
  6
CONTINUOUS
 62
     6
100
AcDbLine
 10
1521.574900374402
 20
1316.000019000001
 30
0.0
 11
1521.574900374402
 21
1317.000019
 31
0.0
  0
LINE
  5
220
330
1F
100
AcDbEntity
  8
化粧台
  6
CONTINUOUS
 62
     6
100
AcDbLine
 10
1528.574900374401
 20
1299.700019
 30
0.0
 11
1528.574900374401
 21
1309.500019
 31
0.0
  0
LINE
  5
221
330
1F
100
AcDbEntity
  8
化粧台
  6
CONTINUOUS
 62
     6
100
AcDbLine
 10
1536.574900374401
 20
1299.700019
 30
0.0
 11
1536.574900374401
 21
1309.926852127141
 31
0.0
  0
LINE
  5
222
330
1F
100
AcDbEntity
  8
化粧台
  6
CONTINUOUS
 62
     6
100
AcDbLine
 10
1535.874900374401
 20
1299.000019000001
 30
0.0
 11
1535.874900374401
 21
1309.500019
 31
0.0
  0
LINE
  5
223
330
1F
100
AcDbEntity
  8
化粧台
  6
CONTINUOUS
 62
     6
100
AcDbLine
 10
1529.274900374401
 20
1299.000019000001
 30
0.0
 11
1529.274900374401
 21
1309.500019
 31
0.0
  0
ARC
  5
224
330
1F
100
AcDbEntity
  8
化粧台
  6
CONTINUOUS
 62
     6
100
AcDbCircle
 10
1564.8580979568
 20
1058.76464331385
 30
0.0
 40
19.36562
100
AcDbArc
 50
26.65711298160386
 51
26.657301
  0
LINE
  5
225
330
1F
100
AcDbEntity
  8
化粧台
  6
CONTINUOUS
 62
     6
100
AcDbLine
 10
1532.574890000008
 20
943.5000000000108
 30
0.0
 11
1573.574889999996
 21
943.5000000000108
 31
0.0
  0
LINE
  5
226
330
1F
100
AcDbEntity
  8
化粧台
  6
CONTINUOUS
 62
     6
100
AcDbLine
 10
1532.574890000008
 20
943.5000000000108
 30
0.0
 11
1531.574890000009
 21
944.5000000000108
 31
0.0
  0
LINE
  5
227
330
1F
100
AcDbEntity
  8
化粧台
  6
CONTINUOUS
 62
     6
100
AcDbLine
 10
1531.574890000009
 20
944.5000000000108
 30
0.0
 11
1531.574890000009
 21
969.499999999999
 31
0.0
  0
LINE
  5
228
330
1F
100
AcDbEntity
  8
化粧台
  6
CONTINUOUS
 62
     6
100
AcDbLine
 10
1531.574890000009
 20
969.499999999999
 30
0.0
 11
1532.574890000008
 21
970.499999999999
 31
0.0
  0
LINE
  5
229
330
1F
100
AcDbEntity
  8
化粧台
  6
CONTINUOUS
 62
     6
100
AcDbLine
 10
1532.574890000008
 20
970.499999999999
 30
0.0
 11
1538.074889999995
 21
970.499999999999
 31
0.0
  0
LINE
  5
22A
330
1F
100
AcDbEntity
  8
化粧台
  6
CONTINUOUS
 62
     6
100
AcDbLine
 10
1539.074889999995
 20
970.4999999999985
 30
0.0
 11
1536.07489
 21
970.4999999999985
 31
0.0
  0
ARC
  5
22B
330
1F
100
AcDbEntity
  8
化粧台
  6
CONTINUOUS
 62
     6
100
AcDbCircle
 10
1539.074889999995
 20
973.4999999999985
 30
0.0
 40
3.0
100
AcDbArc
 50
270.0
 51
0.0
  0
LINE
  5
22C
330
1F
100
AcDbEntity
  8
化粧台
  6
CONTINUOUS
 62
     6
100
AcDbLine
 10
1573.574890000005
 20
970.5000000000008
 30
0.0
 11
1572.07489
 21
970.5000000000008
 31
0.0
  0
ARC
  5
22D
330
1F
100
AcDbEntity
  8
化粧台
  6
CONTINUOUS
 62
     6
100
AcDbCircle
 10
1572.07489
 20
973.5000000000008
 30
0.0
 40
3.0
100
AcDbArc
 50
180.0
 51
270.0
  0
LINE
  5
22E
330
1F
100
AcDbEntity
  8
化粧台
  6
CONTINUOUS
 62
     6
100
AcDbLine
 10
1573.557499375207
 20
943.4999999999985
 30
0.0
 11
1575.260682669316
 21
940.5500000000001
 31
0.0
  0
LINE
  5
22F
330
1F
100
AcDbEntity
  8
化粧台
  6
CONTINUOUS
 62
     6
100
AcDbLine
 10
1573.557499375207
 20
970.5000000000008
 30
0.0
 11
1575.260682669316
 21
973.4499999999997
 31
0.0
  0
ARC
  5
230
330
1F
100
AcDbEntity
  8
化粧台
  6
CONTINUOUS
 62
     6
100
AcDbCircle
 10
1579.343967984213
 20
969.3499999999898
 30
0.0
 40
5.786468609005347
100
AcDbArc
 50
165.1170287414844
 51
225.1170287413586
  0
LINE
  5
231
330
1F
100
AcDbEntity
  8
化粧台
  6
CONTINUOUS
 62
     6
100
AcDbLine
 10
1583.574890000001
 20
970.750000000009
 30
0.0
 11
1580.874890000011
 21
973.4499999999988
 31
0.0
  0
LINE
  5
232
330
1F
100
AcDbEntity
  8
化粧台
  6
CONTINUOUS
 62
     6
100
AcDbLine
 10
1583.574890000001
 20
943.2499999999885
 30
0.0
 11
1580.874890000011
 21
940.5499999999984
 31
0.0
  0
LINE
  5
233
330
1F
100
AcDbEntity
  8
化粧台
  6
CONTINUOUS
 62
     6
100
AcDbLine
 10
1580.874890000013
 20
940.5500000000001
 30
0.0
 11
1575.260682669316
 21
940.5500000000001
 31
0.0
  0
LINE
  5
234
330
1F
100
AcDbEntity
  8
化粧台
  6
CONTINUOUS
 62
     6
100
AcDbLine
 10
1580.874890000011
 20
973.4499999999997
 30
0.0
 11
1575.260682669316
 21
973.4499999999997
 31
0.0
  0
LINE
  5
235
330
1F
100
AcDbEntity
  8
化粧台
  6
CONTINUOUS
 62
     6
100
AcDbLine
 10
1580.874890000013
 20
965.2500000000003
 30
0.0
 11
1575.260682669311
 21
965.2500000000003
 31
0.0
  0
ARC
  5
236
330
1F
100
AcDbEntity
  8
化粧台
  6
CONTINUOUS
 62
     6
100
AcDbCircle
 10
1579.111927037033
 20
969.3499999999995
 30
0.0
 40
4.462962962968728
100
AcDbArc
 50
293.2672679980691
 51
23.26726799807314
  0
LINE
  5
237
330
1F
100
AcDbEntity
  8
化粧台
  6
CONTINUOUS
 62
     6
100
AcDbLine
 10
1527.97489000001
 20
957.9999999999985
 30
0.0
 11
1530.97489000001
 21
957.9999999999985
 31
0.0
  0
LINE
  5
238
330
1F
100
AcDbEntity
  8
化粧台
  6
CONTINUOUS
 62
     6
100
AcDbLine
 10
1527.97489000001
 20
955.9999999999985
 30
0.0
 11
1530.97489000001
 21
955.9999999999985
 31
0.0
  0
LINE
  5
239
330
1F
100
AcDbEntity
  8
化粧台
  6
CONTINUOUS
 62
     6
100
AcDbLine
 10
1530.97489000001
 20
955.9999999999991
 30
0.0
 11
1530.97489000001
 21
957.999999999999
 31
0.0
  0
LINE
  5
23A
330
1F
100
AcDbEntity
  8
化粧台
  6
CONTINUOUS
 62
     6
100
AcDbLine
 10
1543.278565805141
 20
969.1036758051386
 30
0.0
 11
1553.978565805141
 21
958.4036758051388
 31
0.0
  0
LINE
  5
23B
330
1F
100
AcDbEntity
  8
化粧台
  6
CONTINUOUS
 62
     6
100
AcDbLine
 10
1567.871214194855
 20
969.1036758051386
 30
0.0
 11
1557.171214194855
 21
958.4036758051388
 31
0.0
  0
LINE
  5
23C
330
1F
100
AcDbEntity
  8
化粧台
  6
CONTINUOUS
 62
     6
100
AcDbLine
 10
1527.97489000001
 20
957.9999999999985
 30
0.0
 11
1530.97489000001
 21
957.9999999999985
 31
0.0
  0
LINE
  5
23D
330
1F
100
AcDbEntity
  8
化粧台
  6
CONTINUOUS
 62
     6
100
AcDbLine
 10
1527.97489000001
 20
955.9999999999985
 30
0.0
 11
1530.97489000001
 21
955.9999999999985
 31
0.0
  0
LINE
  5
23E
330
1F
100
AcDbEntity
  8
化粧台
  6
CONTINUOUS
 62
     6
100
AcDbLine
 10
1530.97489000001
 20
955.9999999999991
 30
0.0
 11
1530.97489000001
 21
957.999999999999
 31
0.0
  0
LINE
  5
23F
330
1F
100
AcDbEntity
  8
化粧台
  6
CONTINUOUS
 62
     6
100
AcDbLine
 10
1531.57489000001
 20
961.7499999999985
 30
0.0
 11
1528.97489000001
 21
961.7499999999985
 31
0.0
  0
LINE
  5
240
330
1F
100
AcDbEntity
  8
化粧台
  6
CONTINUOUS
 62
     6
100
AcDbLine
 10
1528.97489000001
 20
961.7499999999985
 30
0.0
 11
1527.97489000001
 21
960.7499999999985
 31
0.0
  0
LINE
  5
241
330
1F
100
AcDbEntity
  8
化粧台
  6
CONTINUOUS
 62
     6
100
AcDbLine
 10
1531.57489000001
 20
952.2499999999991
 30
0.0
 11
1528.97489000001
 21
952.2499999999991
 31
0.0
  0
LINE
  5
242
330
1F
100
AcDbEntity
  8
化粧台
  6
CONTINUOUS
 62
     6
100
AcDbLine
 10
1528.97489000001
 20
952.2499999999991
 30
0.0
 11
1527.97489000001
 21
953.249999999999
 31
0.0
  0
LINE
  5
243
330
1F
100
AcDbEntity
  8
化粧台
  6
CONTINUOUS
 62
     6
100
AcDbLine
 10
1527.97489000001
 20
955.9999999999985
 30
0.0
 11
1527.97489000001
 21
953.249999999999
 31
0.0
  0
LINE
  5
244
330
1F
100
AcDbEntity
  8
化粧台
  6
CONTINUOUS
 62
     6
100
AcDbLine
 10
1527.97489000001
 20
957.9999999999985
 30
0.0
 11
1527.97489000001
 21
960.7499999999985
 31
0.0
  0
LINE
  5
245
330
1F
100
AcDbEntity
  8
化粧台
  6
CONTINUOUS
 62
     6
100
AcDbLine
 10
1583.574890000001
 20
946.5249980124003
 30
0.0
 11
1584.374847280001
 21
946.4999999999999
 31
0.0
  0
LINE
  5
246
330
1F
100
AcDbEntity
  8
化粧台
  6
CONTINUOUS
 62
     6
100
AcDbLine
 10
1586.914886340001
 20
946.5000000000003
 30
0.0
 11
1586.914886340001
 21
947.5956268300001
 31
0.0
  0
LINE
  5
247
330
1F
100
AcDbEntity
  8
化粧台
  6
CONTINUOUS
 62
     6
100
AcDbLine
 10
1583.574890000001
 20
946.5249980124003
 30
0.0
 11
1584.374847280001
 21
946.4999999999999
 31
0.0
  0
LINE
  5
248
330
1F
100
AcDbEntity
  8
化粧台
  6
CONTINUOUS
 62
     6
100
AcDbLine
 10
1583.574890000001
 20
967.4750019876001
 30
0.0
 11
1584.374847280001
 21
967.5
 31
0.0
  0
LINE
  5
249
330
1F
100
AcDbEntity
  8
化粧台
  6
CONTINUOUS
 62
     6
100
AcDbLine
 10
1586.914886340001
 20
947.5956268300001
 30
0.0
 11
1583.574890000001
 21
947.6999997506999
 31
0.0
  0
LINE
  5
24A
330
1F
100
AcDbEntity
  8
化粧台
  6
CONTINUOUS
 62
     6
100
AcDbLine
 10
1586.914886340001
 20
966.4043731700002
 30
0.0
 11
1583.574890000001
 21
966.3000002492998
 31
0.0
  0
LINE
  5
24B
330
1F
100
AcDbEntity
  8
化粧台
  6
CONTINUOUS
 62
     6
100
AcDbLine
 10
1573.557499375207
 20
943.5000000000099
 30
0.0
 11
1573.557499375207
 21
970.5000000000008
 31
0.0
  0
LINE
  5
24C
330
1F
100
AcDbEntity
  8
化粧台
  6
CONTINUOUS
 62
     6
100
AcDbLine
 10
1580.874890000013
 20
948.7500000000003
 30
0.0
 11
1575.260682669311
 21
948.7500000000003
 31
0.0
  0
ARC
  5
24D
330
1F
100
AcDbEntity
  8
化粧台
  6
CONTINUOUS
 62
     6
100
AcDbCircle
 10
1579.343967984213
 20
944.6500000000095
 30
0.0
 40
5.786468609005347
100
AcDbArc
 50
134.8829712587569
 51
194.8829712585156
  0
ARC
  5
24E
330
1F
100
AcDbEntity
  8
化粧台
  6
CONTINUOUS
 62
     6
100
AcDbCircle
 10
1594.390058495177
 20
956.9999999999994
 30
0.0
 40
20.83255911996942
100
AcDbArc
 50
156.6707256133637
 51
203.3292743866052
  0
ARC
  5
24F
330
1F
100
AcDbEntity
  8
化粧台
  6
CONTINUOUS
 62
     6
100
AcDbCircle
 10
1569.620723333292
 20
956.9999999999985
 30
0.0
 40
13.95416666670988
100
AcDbArc
 50
323.756279504305
 51
36.24372049567557
  0
LINE
  5
250
330
1F
100
AcDbEntity
  8
化粧台
  6
CONTINUOUS
 62
     6
100
AcDbLine
 10
1583.574889999999
 20
943.2499999999853
 30
0.0
 11
1583.574889999999
 21
970.7499999999999
 31
0.0
  0
LINE
  5
251
330
1F
100
AcDbEntity
  8
化粧台
  6
CONTINUOUS
 62
     6
100
AcDbLine
 10
1586.914886340001
 20
946.4999999999999
 30
0.0
 11
1586.914886340001
 21
967.5
 31
0.0
  0
LINE
  5
252
330
1F
100
AcDbEntity
  8
化粧台
  6
CONTINUOUS
 62
     6
100
AcDbLine
 10
1542.074889999996
 20
975.5000000000109
 30
0.0
 11
1543.074889999995
 21
976.5000000000108
 31
0.0
  0
LINE
  5
253
330
1F
100
AcDbEntity
  8
化粧台
  6
CONTINUOUS
 62
     6
100
AcDbLine
 10
1569.07489
 20
975.5000000000109
 30
0.0
 11
1568.07489
 21
976.5000000000108
 31
0.0
  0
LINE
  5
254
330
1F
100
AcDbEntity
  8
化粧台
  6
CONTINUOUS
 62
     6
100
AcDbLine
 10
1542.074889999996
 20
973.4999999999985
 30
0.0
 11
1542.074889999996
 21
975.5000000000109
 31
0.0
  0
LINE
  5
255
330
1F
100
AcDbEntity
  8
化粧台
  6
CONTINUOUS
 62
     6
100
AcDbLine
 10
1569.07489
 20
973.5000000000008
 30
0.0
 11
1569.07489
 21
975.5000000000109
 31
0.0
  0
ARC
  5
256
330
1F
100
AcDbEntity
  8
化粧台
  6
CONTINUOUS
 62
     6
100
AcDbCircle
 10
1579.111927037033
 20
944.6499999999982
 30
0.0
 40
4.462962962968728
100
AcDbArc
 50
336.7327320019205
 51
67.29207281001285
  0
LINE
  5
257
330
1F
100
AcDbEntity
  8
化粧台
  6
CONTINUOUS
 62
     6
100
AcDbLine
 10
1623.574890000001
 20
929.5000000000005
 30
0.0
 11
1625.574890000001
 21
929.5000000000005
 31
0.0
  0
ARC
  5
258
330
1F
100
AcDbEntity
  8
化粧台
  6
CONTINUOUS
 62
     6
100
AcDbCircle
 10
1623.574890000001
 20
942.5000000000003
 30
0.0
 40
13.00000000000001
100
AcDbArc
 50
206.0514679
 51
270.0
  0
LINE
  5
259
330
1F
100
AcDbEntity
  8
化粧台
  6
CONTINUOUS
 62
     6
100
AcDbLine
 10
1625.574890000001
 20
967.5275116000001
 30
0.0
 11
1634.052291730001
 21
967.2625885000002
 31
0.0
  0
LINE
  5
25A
330
1F
100
AcDbEntity
  8
化粧台
  6
CONTINUOUS
 62
     6
100
AcDbLine
 10
1623.574890000001
 20
984.5000000000005
 30
0.0
 11
1625.574890000001
 21
984.5000000000005
 31
0.0
  0
LINE
  5
25B
330
1F
100
AcDbEntity
  8
化粧台
  6
CONTINUOUS
 62
     6
100
AcDbLine
 10
1625.574890000001
 20
984.5000000000005
 30
0.0
 11
1625.574890000001
 21
929.5000000000005
 31
0.0
  0
LINE
  5
25C
330
1F
100
AcDbEntity
  8
化粧台
  6
CONTINUOUS
 62
     6
100
AcDbLine
 10
1634.052291730001
 20
946.7374115000001
 30
0.0
 11
1634.052291730001
 21
967.2625885000002
 31
0.0
  0
LINE
  5
25D
330
1F
100
AcDbEntity
  8
化粧台
  6
CONTINUOUS
 62
     6
100
AcDbLine
 10
1634.052291730001
 20
967.2625885000002
 30
0.0
 11
1635.414886340001
 21
965.8999939000004
 31
0.0
  0
LINE
  5
25E
330
1F
100
AcDbEntity
  8
化粧台
  6
CONTINUOUS
 62
     6
100
AcDbLine
 10
1635.414886340001
 20
965.8999939000004
 30
0.0
 11
1635.414886340001
 21
948.1000061000003
 31
0.0
  0
LINE
  5
25F
330
1F
100
AcDbEntity
  8
化粧台
  6
CONTINUOUS
 62
     6
100
AcDbLine
 10
1634.052291730001
 20
946.7374115000001
 30
0.0
 11
1635.414886340001
 21
948.1000061000003
 31
0.0
  0
LINE
  5
260
330
1F
100
AcDbEntity
  8
化粧台
  6
CONTINUOUS
 62
     6
100
AcDbLine
 10
1625.574890000001
 20
946.4724980154006
 30
0.0
 11
1634.052291730001
 21
946.7374115000001
 31
0.0
  0
LINE
  5
261
330
1F
100
AcDbEntity
  8
化粧台
  6
CONTINUOUS
 62
     6
100
AcDbLine
 10
1625.574890000001
 20
966.3525085400005
 30
0.0
 11
1635.26519762
 21
966.0496826200006
 31
0.0
  0
LINE
  5
262
330
1F
100
AcDbEntity
  8
化粧台
  6
CONTINUOUS
 62
     6
100
AcDbLine
 10
1625.574890000001
 20
947.6475009678006
 30
0.0
 11
1635.26519762
 21
947.9503173800003
 31
0.0
  0
LINE
  5
263
330
1F
100
AcDbEntity
  8
化粧台
  6
EXLTYPE3
 62
     6
100
AcDbLine
 10
1491.0
 20
957.0000000000005
 30
0.0
 11
1647.0
 21
957.0000000000005
 31
0.0
  0
LINE
  5
264
330
1F
100
AcDbEntity
  8
化粧台
  6
CONTINUOUS
 62
     6
100
AcDbLine
 10
683.4999999999997
 20
975.5000000000109
 30
0.0
 11
682.4999999999997
 21
976.5000000000108
 31
0.0
  0
LINE
  5
265
330
1F
100
AcDbEntity
  8
化粧台
  6
CONTINUOUS
 62
     6
100
AcDbLine
 10
682.4999999999992
 20
976.5000000000108
 30
0.0
 11
657.4999999999951
 21
976.5000000000108
 31
0.0
  0
LINE
  5
266
330
1F
100
AcDbEntity
  8
化粧台
  6
CONTINUOUS
 62
     6
100
AcDbLine
 10
683.4999999999994
 20
957.0
 30
0.0
 11
683.4999999999994
 21
975.5000000000109
 31
0.0
  0
CIRCLE
  5
267
330
1F
100
AcDbEntity
  8
化粧台
  6
CONTINUOUS
 62
     6
100
AcDbCircle
 10
670.0000000000001
 20
957.0
 30
0.0
 40
4.749999999985334
  0
LINE
  5
268
330
1F
100
AcDbEntity
  8
化粧台
  6
CONTINUOUS
 62
     6
100
AcDbLine
 10
665.356456094763
 20
957.9999999999985
 30
0.0
 11
669.40000000001
 21
957.9999999999985
 31
0.0
  0
LINE
  5
269
330
1F
100
AcDbEntity
  8
化粧台
  6
CONTINUOUS
 62
     6
100
AcDbLine
 10
666.4000000000102
 20
957.9999999999985
 30
0.0
 11
674.6435439052372
 21
957.9999999999985
 31
0.0
  0
LINE
  5
26A
330
1F
100
AcDbEntity
  8
化粧台
  6
CONTINUOUS
 62
     6
100
AcDbLine
 10
666.4000000000102
 20
955.9999999999985
 30
0.0
 11
674.6435439052365
 21
955.9999999999985
 31
0.0
  0
LINE
  5
26B
330
1F
100
AcDbEntity
  8
化粧台
  6
CONTINUOUS
 62
     6
100
AcDbLine
 10
665.3564560947635
 20
955.9999999999985
 30
0.0
 11
669.40000000001
 21
955.9999999999985
 31
0.0
  0
ARC
  5
26C
330
1F
100
AcDbEntity
  8
化粧台
  6
CONTINUOUS
 62
     6
100
AcDbCircle
 10
669.9999999999992
 20
954.8000000000008
 30
0.0
 40
14.25000000000001
100
AcDbArc
 50
264.1775448336018
 51
275.8224551664008
  0
ARC
  5
26D
330
1F
100
AcDbEntity
  8
化粧台
  6
CONTINUOUS
 62
     6
100
AcDbCircle
 10
671.905255888299
 20
958.0999999999807
 30
0.0
 40
14.25000000000001
100
AcDbArc
 50
24.17754483360003
 51
35.82245516639684
  0
ARC
  5
26E
330
1F
100
AcDbEntity
  8
化粧台
  6
CONTINUOUS
 62
     6
100
AcDbCircle
 10
671.905255888299
 20
955.9000000000208
 30
0.0
 40
14.25000000000001
100
AcDbArc
 50
324.1775448335982
 51
335.8224551664001
  0
LINE
  5
26F
330
1F
100
AcDbEntity
  8
化粧台
  6
CONTINUOUS
 62
     6
100
AcDbLine
 10
671.4456083452197
 20
940.6235153683208
 30
0.0
 11
683.4596475431002
 21
947.559824133265
 31
0.0
  0
LINE
  5
270
330
1F
100
AcDbEntity
  8
化粧台
  6
CONTINUOUS
 62
     6
100
AcDbLine
 10
684.9052558883001
 20
963.93630876494
 30
0.0
 11
684.9052558883001
 21
950.0636912350508
 31
0.0
  0
LINE
  5
271
330
1F
100
AcDbEntity
  8
化粧台
  6
CONTINUOUS
 62
     6
100
AcDbLine
 10
656.499999999995
 20
975.5000000000109
 30
0.0
 11
657.4999999999951
 21
976.5000000000108
 31
0.0
  0
CIRCLE
  5
272
330
1F
100
AcDbEntity
  8
化粧台
  6
CONTINUOUS
 62
     6
100
AcDbCircle
 10
670.0000000000001
 20
957.0
 30
0.0
 40
13.5
  0
LINE
  5
273
330
1F
100
AcDbEntity
  8
化粧台
  6
CONTINUOUS
 62
     6
100
AcDbLine
 10
656.5403524569124
 20
947.5598241332682
 30
0.0
 11
668.5543916547996
 21
940.6235153683208
 31
0.0
  0
ARC
  5
274
330
1F
100
AcDbEntity
  8
化粧台
  6
CONTINUOUS
 62
     6
100
AcDbCircle
 10
668.0947441116894
 20
955.9000000000007
 30
0.0
 40
14.25000000000001
100
AcDbArc
 50
204.177544833601
 51
215.8224551663995
  0
LINE
  5
275
330
1F
100
AcDbEntity
  8
化粧台
  6
CONTINUOUS
 62
     6
100
AcDbLine
 10
656.499999999995
 20
957.0
 30
0.0
 11
656.499999999995
 21
975.5000000000109
 31
0.0
  0
LINE
  5
276
330
1F
100
AcDbEntity
  8
化粧台
  6
CONTINUOUS
 62
     6
100
AcDbLine
 10
655.0947441116901
 20
963.936308765076
 30
0.0
 11
655.0947441116901
 21
950.0636912350508
 31
0.0
  0
ARC
  5
277
330
1F
100
AcDbEntity
  8
化粧台
  6
CONTINUOUS
 62
     6
100
AcDbCircle
 10
668.0947441116493
 20
958.1000000000207
 30
0.0
 40
14.25000000000001
100
AcDbArc
 50
144.1775448336397
 51
155.8224551663601
  0
LINE
  5
278
330
1F
100
AcDbEntity
  8
化粧台
  6
EXLTYPE3
 62
     6
100
AcDbLine
 10
1568.743249419071
 20
1337.000019
 30
0.0
 11
1553.34422446667
 21
929.4957401524376
 31
0.0
  0
LINE
  5
279
330
1F
100
AcDbEntity
  8
化粧台
  6
CONTINUOUS
 62
     6
100
AcDbLine
 10
687.5000000000009
 20
1456.568033634691
 30
0.0
 11
687.5000000000009
 21
1437.000018999996
 31
0.0
  0
LINE
  5
27A
330
1F
100
AcDbEntity
  8
化粧台
  6
CONTINUOUS
 62
     6
100
AcDbLine
 10
652.5000000000009
 20
1499.436907164993
 30
0.0
 11
652.5000000000009
 21
1437.000018999996
 31
0.0
  0
LINE
  5
27B
330
1F
100
AcDbEntity
  8
化粧台
  6
CONTINUOUS
 62
     6
100
AcDbLine
 10
681.9999999999991
 20
1503.068033634691
 30
0.0
 11
681.9999999999991
 21
1509.50588035689
 31
0.0
  0
LINE
  5
27C
330
1F
100
AcDbEntity
  8
化粧台
  6
CONTINUOUS
 62
     6
100
AcDbLine
 10
657.9999999999992
 20
1503.068033634691
 30
0.0
 11
657.9999999999992
 21
1509.50588035689
 31
0.0
  0
ELLIPSE
  5
27D
330
1F
100
AcDbEntity
  8
化粧台
  6
CONTINUOUS
 62
     6
100
AcDbEllipse
 10
669.9999999999992
 20
1503.068033634691
 30
0.0
 11
12.00000000000002
 21
0.0
 31
0.0
210
0.0
220
0.0
230
1.0
 40
0.4226182617406989
 41
0.0
 42
6.283185307179586
  0
ELLIPSE
  5
27E
330
1F
100
AcDbEntity
  8
化粧台
  6
CONTINUOUS
 62
     6
100
AcDbEllipse
 10
669.9999999999992
 20
1509.50588035689
 30
0.0
 11
12.00000000000002
 21
0.0
 31
0.0
210
0.0
220
0.0
230
1.0
 40
0.4226182617406989
 41
0.0
 42
3.141592653589793
  0
ELLIPSE
  5
27F
330
1F
100
AcDbEntity
  8
化粧台
  6
CONTINUOUS
 62
     6
100
AcDbEllipse
 10
725.9275498326289
 20
1490.655363858789
 30
0.0
 11
17.43340721660556
 21
-1.52522549808399
 31
0.0
210
0.0
220
0.0
230
1.0
 40
0.2794104048720002
 41
0.0
 42
6.283185307179586
  0
LINE
  5
280
330
1F
100
AcDbEntity
  8
化粧台
  6
CONTINUOUS
 62
     6
100
AcDbLine
 10
747.4999999999992
 20
1490.068033634691
 30
0.0
 11
747.4999999999992
 21
1474.068033634691
 31
0.0
  0
LINE
  5
281
330
1F
100
AcDbEntity
  8
化粧台
  6
CONTINUOUS
 62
     6
100
AcDbLine
 10
697.4999999999774
 20
1464.568033635342
 30
0.0
 11
718.2950580364369
 21
1465.294213063601
 31
0.0
  0
ARC
  5
282
330
1F
100
AcDbEntity
  8
化粧台
  6
CONTINUOUS
 62
     6
100
AcDbCircle
 10
716.2010882342885
 20
1525.257662684746
 30
0.0
 40
60.0
100
AcDbArc
 50
271.9999999999976
 51
301.4428966914533
  0
ARC
  5
283
330
1F
100
AcDbEntity
  8
化粧台
  6
CONTINUOUS
 62
     6
100
AcDbCircle
 10
716.2010882342885
 20
1438.878404584636
 30
0.0
 40
60.0
100
AcDbArc
 50
58.55710330854682
 51
88.00000000000246
  0
LINE
  5
284
330
1F
100
AcDbEntity
  8
化粧台
  6
CONTINUOUS
 62
     6
100
AcDbLine
 10
697.4999999999774
 20
1499.568033634039
 30
0.0
 11
718.2950580364369
 21
1498.841854205781
 31
0.0
  0
LINE
  5
285
330
1F
100
AcDbEntity
  8
化粧台
  6
CONTINUOUS
 62
     6
100
AcDbLine
 10
695.500000000001
 20
1464.568033634691
 30
0.0
 11
697.5000000000009
 21
1464.568033634691
 31
0.0
  0
LINE
  5
286
330
1F
100
AcDbEntity
  8
化粧台
  6
CONTINUOUS
 62
     6
100
AcDbLine
 10
695.3410084231047
 20
1499.568033634691
 30
0.0
 11
697.5000000000009
 21
1499.568033634691
 31
0.0
  0
ARC
  5
287
330
1F
100
AcDbEntity
  8
化粧台
  6
CONTINUOUS
 62
     6
100
AcDbCircle
 10
487.4999999999974
 20
1499.436907164991
 30
0.0
 40
200.0000000000001
100
AcDbArc
 50
2.24037485110208
 51
5.984350480638444
  0
ARC
  5
288
330
1F
100
AcDbEntity
  8
化粧台
  6
CONTINUOUS
 62
     6
100
AcDbCircle
 10
695.500000000001
 20
1456.568033634691
 30
0.0
 40
8.0
100
AcDbArc
 50
90.00000000000001
 51
180.0
  0
ARC
  5
289
330
1F
100
AcDbEntity
  8
化粧台
  6
CONTINUOUS
 62
     6
100
AcDbCircle
 10
695.3410084231047
 20
1507.568033634691
 30
0.0
 40
8.0
100
AcDbArc
 50
182.2403748511015
 51
270.0000000000002
  0
ARC
  5
28A
330
1F
100
AcDbEntity
  8
化粧台
  6
CONTINUOUS
 62
     6
100
AcDbCircle
 10
669.9999999999992
 20
1518.568033634691
 30
0.0
 40
16.5
100
AcDbArc
 50
5.984350480639131
 51
174.015649519361
  0
ARC
  5
28B
330
1F
100
AcDbEntity
  8
化粧台
  6
CONTINUOUS
 62
     6
100
AcDbCircle
 10
852.5000000000011
 20
1499.436907164991
 30
0.0
 40
200.0000000000001
100
AcDbArc
 50
174.0156495193615
 51
180.0
  0
ELLIPSE
  5
28C
330
1F
100
AcDbEntity
  8
化粧台
  6
CONTINUOUS
 62
     6
100
AcDbEllipse
 10
669.9999999999992
 20
1509.50588035689
 30
0.0
 11
15.00000000000001
 21
0.0
 31
0.0
210
0.0
220
0.0
230
1.0
 40
0.5634910156533309
 41
5.639684198386308
 42
10.06827906956268
  0
LINE
  5
28D
330
1F
100
AcDbEntity
  8
化粧台
  6
CONTINUOUS
 62
     6
100
AcDbLine
 10
697.5000000000009
 20
1464.568033634691
 30
0.0
 11
697.5000000000009
 21
1499.568033634691
 31
0.0
  0
LINE
  5
28E
330
1F
100
AcDbEntity
  8
化粧台
  6
CONTINUOUS
 62
     6
100
AcDbLine
 10
1584.374847279993
 20
946.5000000000003
 30
0.0
 11
1609.574890000001
 21
946.5000000000003
 31
0.0
  0
LINE
  5
28F
330
1F
100
AcDbEntity
  8
化粧台
  6
CONTINUOUS
 62
     6
100
AcDbLine
 10
1584.292886340001
 20
967.5000000000003
 30
0.0
 11
1609.574890000001
 21
967.5000000000003
 31
0.0
  0
ARC
  5
290
330
1F
100
AcDbEntity
  8
化粧台
  6
CONTINUOUS
 62
     6
100
AcDbCircle
 10
1634.625213490001
 20
966.0980987500005
 30
0.0
 40
25.30000305
100
AcDbArc
 50
153.9485168499999
 51
171.9438666038999
  0
LINE
  5
291
330
1F
100
AcDbEntity
  8
化粧台
  6
CONTINUOUS
 62
     6
100
AcDbLine
 10
1609.574890000001
 20
969.6437224436003
 30
0.0
 11
1609.574890000001
 21
944.3562775464005
 31
0.0
  0
ARC
  5
292
330
1F
100
AcDbEntity
  8
化粧台
  6
CONTINUOUS
 62
     6
100
AcDbCircle
 10
1634.625213490001
 20
947.9019012400003
 30
0.0
 40
25.30000305
100
AcDbArc
 50
188.0561333961001
 51
206.0514831500001
  0
ARC
  5
293
330
1F
100
AcDbEntity
  8
化粧台
  6
CONTINUOUS
 62
     6
100
AcDbCircle
 10
1623.574890000001
 20
971.5000000000003
 30
0.0
 40
13.00000000000001
100
AcDbArc
 50
90.00000000000001
 51
153.9485321
  0
ARC
  5
294
330
1F
100
AcDbEntity
  8
化粧台
  6
CONTINUOUS
 62
     6
100
AcDbCircle
 10
1525.882392231536
 20
1448.651279312614
 30
0.0
 40
22.290250048
100
AcDbArc
 50
14.21368499999832
 51
14.69099199999863
  0
LINE
  5
295
330
1F
100
AcDbEntity
  8
化粧台
  6
CONTINUOUS
 62
     6
100
AcDbLine
 10
1548.064222974753
 20
1437.000018999977
 30
0.0
 11
1547.46497107621
 21
1454.160348146919
 31
0.0
  0
ARC
  5
296
330
1F
100
AcDbEntity
  8
化粧台
  6
CONTINUOUS
 62
     6
100
AcDbCircle
 10
1548.201977548281
 20
1435.855949310258
 30
0.0
 40
0.2001221096
100
AcDbArc
 50
156.7881739998772
 51
181.7954589998156
  0
LINE
  5
297
330
1F
100
AcDbEntity
  8
化粧台
  6
CONTINUOUS
 62
     6
100
AcDbLine
 10
1581.394542866054
 20
1485.424328763675
 30
0.0
 11
1583.085557025194
 21
1437.000018999996
 31
0.0
  0
LINE
  5
298
330
1F
100
AcDbEntity
  8
化粧台
  6
CONTINUOUS
 62
     6
100
AcDbLine
 10
1546.521782139657
 20
1481.169745424923
 30
0.0
 11
1548.064222974732
 21
1437.000018999996
 31
0.0
  0
LINE
  5
299
330
1F
100
AcDbEntity
  8
化粧台
  6
CONTINUOUS
 62
     6
100
AcDbLine
 10
1503.891931212018
 20
1495.876770139299
 30
0.0
 11
1506.667442082371
 21
1502.415463989623
 31
0.0
  0
LINE
  5
29A
330
1F
100
AcDbEntity
  8
化粧台
  6
CONTINUOUS
 62
     6
100
AcDbLine
 10
1481.799814729144
 20
1505.254317223002
 30
0.0
 11
1484.575325599497
 21
1511.793011073325
 31
0.0
  0
LINE
  5
29B
330
1F
100
AcDbEntity
  8
化粧台
  6
CONTINUOUS
 62
     6
100
AcDbLine
 10
1481.799814729129
 20
1505.254317223008
 30
0.0
 11
1503.891931211947
 21
1495.876770139328
 31
0.0
  0
CIRCLE
  5
29C
330
1F
100
AcDbEntity
  8
化粧台
  6
CONTINUOUS
 62
     6
100
AcDbCircle
 10
1564.002143888838
 20
1482.037574985641
 30
0.0
 40
8.0
  0
ELLIPSE
  5
29D
330
1F
100
AcDbEntity
  8
化粧台
  6
CONTINUOUS
 62
     6
100
AcDbEllipse
 10
1553.998583831741
 20
1491.366045653937
 30
0.0
 11
4.09199016036733
 21
4.38812220972216
 31
0.0
210
0.0
220
0.0
230
1.0
 40
0.5729548600241788
 41
0.0
 42
6.283185307179586
  0
CIRCLE
  5
29E
330
1F
100
AcDbEntity
  8
化粧台
  6
CONTINUOUS
 62
     6
100
AcDbCircle
 10
1564.002143888838
 20
1482.037574985641
 30
0.0
 40
17.5
  0
ARC
  5
29F
330
1F
100
AcDbEntity
  8
化粧台
  6
CONTINUOUS
 62
     6
100
AcDbCircle
 10
1531.425001515103
 20
1483.679353928463
 30
0.0
 40
50.00000000000004
100
AcDbArc
 50
2.000000000100005
 51
85.02071889590698
  0
ARC
  5
2A0
330
1F
100
AcDbEntity
  8
化粧台
  6
CONTINUOUS
 62
     6
100
AcDbCircle
 10
1521.537011464181
 20
1480.297258007317
 30
0.0
 40
25.00000000000002
100
AcDbArc
 50
2.000000000100005
 51
121.4089117966544
  0
LINE
  5
2A1
330
1F
100
AcDbEntity
  8
化粧台
  6
CONTINUOUS
 62
     6
100
AcDbLine
 10
1477.211286771877
 20
1514.918860101227
 30
0.0
 11
1508.508451789334
 21
1501.634001732626
 31
0.0
  0
ARC
  5
2A2
330
1F
100
AcDbEntity
  8
化粧台
  6
CONTINUOUS
 62
     6
100
AcDbCircle
 10
1528.821136510525
 20
1453.792569440366
 30
0.0
 40
80.0
100
AcDbArc
 50
85.02071889590641
 51
130.174907341017
  0
LINE
  5
2A3
330
1F
100
AcDbEntity
  8
化粧台
  6
CONTINUOUS
 62
     6
100
AcDbLine
 10
1568.07489
 20
976.5000000000108
 30
0.0
 11
1543.074889999996
 21
976.5000000000108
 31
0.0
  0
ARC
  5
2A4
330
1F
100
AcDbEntity
  8
化粧台
  6
CONTINUOUS
 62
     6
100
AcDbCircle
 10
1552.6545315694
 20
984.2400000000004
 30
0.0
 40
10.0
100
AcDbArc
 50
143.1301023541998
 51
216.8698976458003
  0
ELLIPSE
  5
2A5
330
1F
100
AcDbEntity
  8
化粧台
  6
CONTINUOUS
 62
     6
100
AcDbEllipse
 10
1555.654531569401
 20
984.2400000000004
 30
0.0
 11
-6.062177826490008
 21
7.424026671073048E-16
 31
0.0
210
0.0
220
0.0
230
1.0
 40
0.8689660757576403
 41
4.71238898038469
 42
7.853981633974483
  0
ELLIPSE
  5
2A6
330
1F
100
AcDbEntity
  8
化粧台
  6
CONTINUOUS
 62
     6
100
AcDbEllipse
 10
1545.69042995426
 20
984.2400000000004
 30
0.0
 11
-9.676840984023605E-16
 21
-5.267826876430004
 31
0.0
210
0.0
220
0.0
230
1.0
 40
0.5763094452559959
 41
0.0
 42
6.283185307179586
  0
LINE
  5
2A7
330
1F
100
AcDbEntity
  8
化粧台
  6
CONTINUOUS
 62
     6
100
AcDbLine
 10
1544.6545315694
 20
990.2400000000002
 30
0.0
 11
1555.654531569401
 21
990.2400000000002
 31
0.0
  0
LINE
  5
2A8
330
1F
100
AcDbEntity
  8
化粧台
  6
CONTINUOUS
 62
     6
100
AcDbLine
 10
1544.6545315694
 20
978.2400000000002
 30
0.0
 11
1566.6545315694
 21
978.2400000000002
 31
0.0
  0
ARC
  5
2A9
330
1F
100
AcDbEntity
  8
化粧台
  6
CONTINUOUS
 62
     6
100
AcDbCircle
 10
1558.6545315694
 20
984.2400000000004
 30
0.0
 40
10.0
100
AcDbArc
 50
323.1301023541997
 51
36.86989764580022
  0
ELLIPSE
  5
2AA
330
1F
100
AcDbEntity
  8
化粧台
  6
CONTINUOUS
 62
     6
100
AcDbEllipse
 10
1555.654531569401
 20
984.2400000000004
 30
0.0
 11
-6.062177826490008
 21
7.424026671073048E-16
 31
0.0
210
0.0
220
0.0
230
1.0
 40
0.8689660757576403
 41
1.570796326794897
 42
4.71238898038469
  0
ELLIPSE
  5
2AB
330
1F
100
AcDbEntity
  8
化粧台
  6
CONTINUOUS
 62
     6
100
AcDbEllipse
 10
1565.61863318454
 20
984.2400000000004
 30
0.0
 11
-9.676840984023605E-16
 21
-5.267826876430004
 31
0.0
210
0.0
220
0.0
230
1.0
 40
0.5763094452559959
 41
0.0
 42
6.283185307179586
  0
LINE
  5
2AC
330
1F
100
AcDbEntity
  8
化粧台
  6
CONTINUOUS
 62
     6
100
AcDbLine
 10
1566.6545315694
 20
990.2400000000002
 30
0.0
 11
1555.654531569401
 21
990.2400000000002
 31
0.0
  0
LINE
  5
2AD
330
1F
100
AcDbEntity
  8
化粧台
  6
CONTINUOUS
 62
     6
100
AcDbLine
 10
1560.0
 20
1317.000019
 30
0.0
 11
1547.63988687041
 21
990.2400000000002
 31
0.0
  0
LINE
  5
2AE
330
1F
100
AcDbEntity
  8
化粧台
  6
CONTINUOUS
 62
     6
100
AcDbLine
 10
1563.61484084861
 20
990.2400000000002
 30
0.0
 11
1575.9749539782
 21
1317.000019
 31
0.0
  0
LINE
  5
2AF
330
1F
100
AcDbEntity
  8
化粧台
  6
CONTINUOUS
 62
     6
100
AcDbLine
 10
1545.297390000002
 20
976.5000000000109
 30
0.0
 11
1546.301979468383
 21
978.2400000000002
 31
0.0
  0
LINE
  5
2B0
330
1F
100
AcDbEntity
  8
化粧台
  6
CONTINUOUS
 62
     6
100
AcDbLine
 10
1566.252390000003
 20
976.5000000000109
 30
0.0
 11
1565.247800531622
 21
978.2400000000002
 31
0.0
  0
LINE
  5
2B1
330
1F
100
AcDbEntity
  8
化粧台
  6
CONTINUOUS
 62
     6
100
AcDbLine
 10
1545.297390000003
 20
978.2400000000002
 30
0.0
 11
1545.297390000003
 21
976.5000000000219
 31
0.0
  0
LINE
  5
2B2
330
1F
100
AcDbEntity
  8
化粧台
  6
CONTINUOUS
 62
     6
100
AcDbLine
 10
1566.252390000002
 20
978.2400000000002
 30
0.0
 11
1566.252390000002
 21
976.5000000000219
 31
0.0
  0
ARC
  5
2B3
330
1F
100
AcDbEntity
  8
化粧台
  6
CONTINUOUS
 62
     6
100
AcDbCircle
 10
667.0796415694
 20
984.2400000000004
 30
0.0
 40
10.0
100
AcDbArc
 50
143.1301023541998
 51
216.8698976458003
  0
ELLIPSE
  5
2B4
330
1F
100
AcDbEntity
  8
化粧台
  6
CONTINUOUS
 62
     6
100
AcDbEllipse
 10
670.0796415694001
 20
984.2400000000004
 30
0.0
 11
-6.062177826490008
 21
7.424026671073048E-16
 31
0.0
210
0.0
220
0.0
230
1.0
 40
0.8689660757576403
 41
4.71238898038469
 42
7.853981633974483
  0
ELLIPSE
  5
2B5
330
1F
100
AcDbEntity
  8
化粧台
  6
CONTINUOUS
 62
     6
100
AcDbEllipse
 10
660.11553995426
 20
984.2400000000004
 30
0.0
 11
-9.676840984023605E-16
 21
-5.267826876430004
 31
0.0
210
0.0
220
0.0
230
1.0
 40
0.5763094452559959
 41
0.0
 42
6.283185307179586
  0
LINE
  5
2B6
330
1F
100
AcDbEntity
  8
化粧台
  6
CONTINUOUS
 62
     6
100
AcDbLine
 10
659.0796415694001
 20
990.2400000000002
 30
0.0
 11
670.0796415694001
 21
990.2400000000002
 31
0.0
  0
ARC
  5
2B7
330
1F
100
AcDbEntity
  8
化粧台
  6
CONTINUOUS
 62
     6
100
AcDbCircle
 10
673.0796415694001
 20
984.2400000000004
 30
0.0
 40
10.0
100
AcDbArc
 50
323.1301023541997
 51
36.86989764580022
  0
ELLIPSE
  5
2B8
330
1F
100
AcDbEntity
  8
化粧台
  6
CONTINUOUS
 62
     6
100
AcDbEllipse
 10
670.0796415694001
 20
984.2400000000004
 30
0.0
 11
-6.062177826490008
 21
7.424026671073048E-16
 31
0.0
210
0.0
220
0.0
230
1.0
 40
0.8689660757576403
 41
1.570796326794897
 42
4.71238898038469
  0
ELLIPSE
  5
2B9
330
1F
100
AcDbEntity
  8
化粧台
  6
CONTINUOUS
 62
     6
100
AcDbEllipse
 10
680.0437431845401
 20
984.2400000000004
 30
0.0
 11
-9.676840984023605E-16
 21
-5.267826876430004
 31
0.0
210
0.0
220
0.0
230
1.0
 40
0.5763094452559959
 41
0.0
 42
6.283185307179586
  0
LINE
  5
2BA
330
1F
100
AcDbEntity
  8
化粧台
  6
CONTINUOUS
 62
     6
100
AcDbLine
 10
681.0796415694001
 20
990.2400000000002
 30
0.0
 11
670.0796415694001
 21
990.2400000000002
 31
0.0
  0
LINE
  5
2BB
330
1F
100
AcDbEntity
  8
化粧台
  6
CONTINUOUS
 62
     6
100
AcDbLine
 10
659.7225000000017
 20
976.5000000000109
 30
0.0
 11
660.7270894683827
 21
978.2400000000002
 31
0.0
  0
LINE
  5
2BC
330
1F
100
AcDbEntity
  8
化粧台
  6
CONTINUOUS
 62
     6
100
AcDbLine
 10
680.6775000000027
 20
976.5000000000109
 30
0.0
 11
679.6729105316217
 21
978.2400000000002
 31
0.0
  0
LINE
  5
2BD
330
1F
100
AcDbEntity
  8
化粧台
  6
CONTINUOUS
 62
     6
100
AcDbLine
 10
659.0796415694001
 20
978.2400000000002
 30
0.0
 11
681.0796415694001
 21
978.2400000000002
 31
0.0
  0
LINE
  5
2BE
330
1F
100
AcDbEntity
  8
化粧台
  6
CONTINUOUS
 62
     6
100
AcDbLine
 10
659.7225000000026
 20
978.2400000000002
 30
0.0
 11
659.7225000000026
 21
976.5000000000219
 31
0.0
  0
LINE
  5
2BF
330
1F
100
AcDbEntity
  8
化粧台
  6
CONTINUOUS
 62
     6
100
AcDbLine
 10
680.6775000000016
 20
978.2400000000002
 30
0.0
 11
680.6775000000016
 21
976.5000000000219
 31
0.0
  0
LINE
  5
2C0
330
1F
100
AcDbEntity
  8
化粧台
  6
CONTINUOUS
 62
     6
100
AcDbLine
 10
662.0547369219402
 20
1317.000019
 30
0.0
 11
662.0547369219402
 21
990.2400000000002
 31
0.0
  0
LINE
  5
2C1
330
1F
100
AcDbEntity
  8
化粧台
  6
CONTINUOUS
 62
     6
100
AcDbLine
 10
678.0296909001399
 20
1317.000019
 30
0.0
 11
678.0296909001399
 21
990.2400000000002
 31
0.0
  0
ARC
  5
2C2
330
1F
100
AcDbEntity
  8
化粧台
  6
CONTINUOUS
 62
     6
100
AcDbCircle
 10
670.0
 20
957.0
 30
0.0
 40
27.5
100
AcDbArc
 50
117.1095795423823
 51
62.56580505655295
  0
LINE
  5
2C3
330
1F
100
AcDbEntity
  8
トラップ
  6
CONTINUOUS
 62
     2
100
AcDbLine
 10
586.7498779500002
 20
1307.37155552998
 30
0.0
 11
553.2501220500003
 21
1307.37155552998
 31
0.0
  0
ARC
  5
2C4
330
1F
100
AcDbEntity
  8
トラップ
  6
CONTINUOUS
 62
     2
100
AcDbCircle
 10
558.3000182999999
 20
1198.5359688
 30
0.0
 40
1.9999999
100
AcDbArc
 50
180.0
 51
209.9980468800041
  0
ARC
  5
2C5
330
1F
100
AcDbEntity
  8
トラップ
  6
CONTINUOUS
 62
     2
100
AcDbCircle
 10
555.2999877999996
 20
1195.732318899999
 30
0.0
 40
1.9999999
100
AcDbArc
 50
0.0
 51
29.99809264999456
  0
LINE
  5
2C6
330
1F
100
AcDbEntity
  8
トラップ
  6
CONTINUOUS
 62
     2
100
AcDbLine
 10
556.3000488999996
 20
1198.5359688
 30
0.0
 11
556.3000488999996
 21
1234.2000313
 31
0.0
  0
LINE
  5
2C7
330
1F
100
AcDbEntity
  8
トラップ
  6
CONTINUOUS
 62
     2
100
AcDbLine
 10
586.7501831500001
 20
1249.0000648
 30
0.0
 11
553.2498168500001
 21
1249.0000648
 31
0.0
  0
ARC
  5
2C8
330
1F
100
AcDbEntity
  8
トラップ
  6
CONTINUOUS
 62
     2
100
AcDbCircle
 10
559.1999816500002
 20
1243.0001564
 30
0.0
 40
8.450000300000006
100
AcDbArc
 50
134.7615051299997
 51
225.2407531699997
  0
ARC
  5
2C9
330
1F
100
AcDbEntity
  8
トラップ
  6
CONTINUOUS
 62
     2
100
AcDbCircle
 10
580.8000183500003
 20
1243.0001564
 30
0.0
 40
8.450000300000006
100
AcDbArc
 50
314.7592773400013
 51
45.23849487000022
  0
LINE
  5
2CA
330
1F
100
AcDbEntity
  8
トラップ
  6
CONTINUOUS
 62
     2
100
AcDbLine
 10
586.7498779500002
 20
1237.0000954
 30
0.0
 11
553.2501220500001
 21
1237.0000954
 31
0.0
  0
ARC
  5
2CB
330
1F
100
AcDbEntity
  8
トラップ
  6
CONTINUOUS
 62
     2
100
AcDbCircle
 10
554.9999999500001
 20
1234.199955
 30
0.0
 40
1.3
100
AcDbArc
 50
0.0
 51
90.00000000000001
  0
ARC
  5
2CC
330
1F
100
AcDbEntity
  8
トラップ
  6
CONTINUOUS
 62
     2
100
AcDbCircle
 10
584.9999999500001
 20
1234.199955
 30
0.0
 40
1.3
100
AcDbArc
 50
90.00000000000001
 51
180.0
  0
LINE
  5
2CD
330
1F
100
AcDbEntity
  8
トラップ
  6
CONTINUOUS
 62
     2
100
AcDbLine
 10
554.9999999500001
 20
1235.5000038
 30
0.0
 11
584.9999999500001
 21
1235.5000038
 31
0.0
  0
LINE
  5
2CE
330
1F
100
AcDbEntity
  8
トラップ
  6
CONTINUOUS
 62
     2
100
AcDbLine
 10
584.9999999500001
 20
1235.5000038
 30
0.0
 11
584.9999999500001
 21
1237.0000954
 31
0.0
  0
LINE
  5
2CF
330
1F
100
AcDbEntity
  8
トラップ
  6
CONTINUOUS
 62
     2
100
AcDbLine
 10
554.9999999500001
 20
1235.5000038
 30
0.0
 11
554.9999999500001
 21
1237.0000954
 31
0.0
  0
ARC
  5
2D0
330
1F
100
AcDbEntity
  8
トラップ
  6
CONTINUOUS
 62
     2
100
AcDbCircle
 10
581.6999817000001
 20
1198.5359688
 30
0.0
 40
1.9999999
100
AcDbArc
 50
330.0019531199969
 51
0.0
  0
ARC
  5
2D1
330
1F
100
AcDbEntity
  8
トラップ
  6
CONTINUOUS
 62
     2
100
AcDbCircle
 10
584.7000122000004
 20
1195.732318899999
 30
0.0
 40
1.9999999
100
AcDbArc
 50
150.0019073500054
 51
180.0
  0
LINE
  5
2D2
330
1F
100
AcDbEntity
  8
トラップ
  6
CONTINUOUS
 62
     2
100
AcDbLine
 10
582.9679870000004
 20
1196.7322273
 30
0.0
 11
583.4320898720011
 21
1197.536014403296
 31
0.0
  0
LINE
  5
2D3
330
1F
100
AcDbEntity
  8
トラップ
  6
CONTINUOUS
 62
     2
100
AcDbLine
 10
557.0320129999996
 20
1196.7322273
 30
0.0
 11
556.5679779707216
 21
1197.535896905412
 31
0.0
  0
LINE
  5
2D4
330
1F
100
AcDbEntity
  8
トラップ
  6
CONTINUOUS
 62
     2
100
AcDbLine
 10
583.6999511999998
 20
1198.524941603072
 30
0.0
 11
583.6999511999998
 21
1234.2000313
 31
0.0
  0
LINE
  5
2D5
330
1F
100
AcDbEntity
  8
トラップ
  6
CONTINUOUS
 62
     2
100
AcDbLine
 10
553.4999083499999
 20
1237.0000954
 30
0.0
 11
554.9999999500001
 21
1235.5000038
 31
0.0
  0
LINE
  5
2D6
330
1F
100
AcDbEntity
  8
トラップ
  6
CONTINUOUS
 62
     2
100
AcDbLine
 10
584.9999999500001
 20
1235.5000038
 30
0.0
 11
586.5000917000004
 21
1237.0000954
 31
0.0
  0
LINE
  5
2D7
330
1F
100
AcDbEntity
  8
トラップ
  6
CONTINUOUS
 62
     2
100
AcDbLine
 10
582.7000427999994
 20
1158.7500496
 30
0.0
 11
582.7000427999994
 21
1195.743364218476
 31
0.0
  0
POLYLINE
  5
2D8
330
1F
100
AcDbEntity
  8
トラップ
  6
CONTINUOUS
 62
     6
100
AcDb2dPolyline
 66
     1
 10
0.0
 20
0.0
 30
0.0
 70
   128
  0
VERTEX
  5
2D9
330
2D8
100
AcDbEntity
  8
トラップ
  6
CONTINUOUS
 62
     6
100
AcDbVertex
100
AcDb2dVertex
 10
578.0195617500001
 20
1243.0001564
 30
0.0
  0
VERTEX
  5
2DA
330
2D8
100
AcDbEntity
  8
トラップ
  6
CONTINUOUS
 62
     6
100
AcDbVertex
100
AcDb2dVertex
 10
577.7864935500002
 20
1244.232387
 30
0.0
  0
VERTEX
  5
2DB
330
2D8
100
AcDbEntity
  8
トラップ
  6
CONTINUOUS
 62
     6
100
AcDbVertex
100
AcDb2dVertex
 10
577.1009601500002
 20
1245.3930006
 30
0.0
  0
VERTEX
  5
2DC
330
2D8
100
AcDbEntity
  8
トラップ
  6
CONTINUOUS
 62
     6
100
AcDbVertex
100
AcDb2dVertex
 10
576.0026641500001
 20
1246.4145538
 30
0.0
  0
VERTEX
  5
2DD
330
2D8
100
AcDbEntity
  8
トラップ
  6
CONTINUOUS
 62
     6
100
AcDbVertex
100
AcDb2dVertex
 10
574.5555275500001
 20
1247.2377285
 30
0.0
  0
VERTEX
  5
2DE
330
2D8
100
AcDbEntity
  8
トラップ
  6
CONTINUOUS
 62
     6
100
AcDbVertex
100
AcDb2dVertex
 10
572.8437115500001
 20
1247.8146215
 30
0.0
  0
VERTEX
  5
2DF
330
2D8
100
AcDbEntity
  8
トラップ
  6
CONTINUOUS
 62
     6
100
AcDbVertex
100
AcDb2dVertex
 10
570.9666347500001
 20
1248.1116811
 30
0.0
  0
VERTEX
  5
2E0
330
2D8
100
AcDbEntity
  8
トラップ
  6
CONTINUOUS
 62
     6
100
AcDbVertex
100
AcDb2dVertex
 10
569.0333652500001
 20
1248.1116811
 30
0.0
  0
VERTEX
  5
2E1
330
2D8
100
AcDbEntity
  8
トラップ
  6
CONTINUOUS
 62
     6
100
AcDbVertex
100
AcDb2dVertex
 10
567.1562884500001
 20
1247.8146215
 30
0.0
  0
VERTEX
  5
2E2
330
2D8
100
AcDbEntity
  8
トラップ
  6
CONTINUOUS
 62
     6
100
AcDbVertex
100
AcDb2dVertex
 10
565.4444724500001
 20
1247.2377285
 30
0.0
  0
VERTEX
  5
2E3
330
2D8
100
AcDbEntity
  8
トラップ
  6
CONTINUOUS
 62
     6
100
AcDbVertex
100
AcDb2dVertex
 10
563.9973358500001
 20
1246.4145538
 30
0.0
  0
VERTEX
  5
2E4
330
2D8
100
AcDbEntity
  8
トラップ
  6
CONTINUOUS
 62
     6
100
AcDbVertex
100
AcDb2dVertex
 10
562.89903985
 20
1245.3930006
 30
0.0
  0
VERTEX
  5
2E5
330
2D8
100
AcDbEntity
  8
トラップ
  6
CONTINUOUS
 62
     6
100
AcDbVertex
100
AcDb2dVertex
 10
562.2135064500003
 20
1244.232387
 30
0.0
  0
VERTEX
  5
2E6
330
2D8
100
AcDbEntity
  8
トラップ
  6
CONTINUOUS
 62
     6
100
AcDbVertex
100
AcDb2dVertex
 10
561.9804382500001
 20
1243.0001564
 30
0.0
  0
VERTEX
  5
2E7
330
2D8
100
AcDbEntity
  8
トラップ
  6
CONTINUOUS
 62
     6
100
AcDbVertex
100
AcDb2dVertex
 10
562.2135064500003
 20
1241.7679258
 30
0.0
  0
VERTEX
  5
2E8
330
2D8
100
AcDbEntity
  8
トラップ
  6
CONTINUOUS
 62
     6
100
AcDbVertex
100
AcDb2dVertex
 10
562.89903985
 20
1240.6073122
 30
0.0
  0
VERTEX
  5
2E9
330
2D8
100
AcDbEntity
  8
トラップ
  6
CONTINUOUS
 62
     6
100
AcDbVertex
100
AcDb2dVertex
 10
563.9973358500001
 20
1239.585759
 30
0.0
  0
VERTEX
  5
2EA
330
2D8
100
AcDbEntity
  8
トラップ
  6
CONTINUOUS
 62
     6
100
AcDbVertex
100
AcDb2dVertex
 10
565.4444724500001
 20
1238.7625843
 30
0.0
  0
VERTEX
  5
2EB
330
2D8
100
AcDbEntity
  8
トラップ
  6
CONTINUOUS
 62
     6
100
AcDbVertex
100
AcDb2dVertex
 10
567.1562884500001
 20
1238.1856913
 30
0.0
  0
VERTEX
  5
2EC
330
2D8
100
AcDbEntity
  8
トラップ
  6
CONTINUOUS
 62
     6
100
AcDbVertex
100
AcDb2dVertex
 10
569.0333652500001
 20
1237.8886317
 30
0.0
  0
VERTEX
  5
2ED
330
2D8
100
AcDbEntity
  8
トラップ
  6
CONTINUOUS
 62
     6
100
AcDbVertex
100
AcDb2dVertex
 10
570.9666347500001
 20
1237.8886317
 30
0.0
  0
VERTEX
  5
2EE
330
2D8
100
AcDbEntity
  8
トラップ
  6
CONTINUOUS
 62
     6
100
AcDbVertex
100
AcDb2dVertex
 10
572.8437115500001
 20
1238.1856913
 30
0.0
  0
VERTEX
  5
2EF
330
2D8
100
AcDbEntity
  8
トラップ
  6
CONTINUOUS
 62
     6
100
AcDbVertex
100
AcDb2dVertex
 10
574.5555275500001
 20
1238.7625843
 30
0.0
  0
VERTEX
  5
2F0
330
2D8
100
AcDbEntity
  8
トラップ
  6
CONTINUOUS
 62
     6
100
AcDbVertex
100
AcDb2dVertex
 10
576.0026641500001
 20
1239.585759
 30
0.0
  0
VERTEX
  5
2F1
330
2D8
100
AcDbEntity
  8
トラップ
  6
CONTINUOUS
 62
     6
100
AcDbVertex
100
AcDb2dVertex
 10
577.1009601500002
 20
1240.6073122
 30
0.0
  0
VERTEX
  5
2F2
330
2D8
100
AcDbEntity
  8
トラップ
  6
CONTINUOUS
 62
     6
100
AcDbVertex
100
AcDb2dVertex
 10
577.7864935500002
 20
1241.7679258
 30
0.0
  0
VERTEX
  5
2F3
330
2D8
100
AcDbEntity
  8
トラップ
  6
CONTINUOUS
 62
     6
100
AcDbVertex
100
AcDb2dVertex
 10
578.0195617500001
 20
1243.0001564
 30
0.0
  0
SEQEND
  5
2F4
330
2D8
100
AcDbEntity
  8
トラップ
  6
CONTINUOUS
 62
     6
  0
POLYLINE
  5
2F5
330
1F
100
AcDbEntity
  8
トラップ
  6
CONTINUOUS
 62
     6
100
AcDb2dPolyline
 66
     1
 10
0.0
 20
0.0
 30
0.0
 70
   128
  0
VERTEX
  5
2F6
330
2F5
100
AcDbEntity
  8
トラップ
  6
CONTINUOUS
 62
     6
100
AcDbVertex
100
AcDb2dVertex
 10
558.8543701500002
 20
1243.0001564
 30
0.0
  0
VERTEX
  5
2F7
330
2F5
100
AcDbEntity
  8
トラップ
  6
CONTINUOUS
 62
     6
100
AcDbVertex
100
AcDb2dVertex
 10
558.7378360500002
 20
1244.232387
 30
0.0
  0
VERTEX
  5
2F8
330
2F5
100
AcDbEntity
  8
トラップ
  6
CONTINUOUS
 62
     6
100
AcDbVertex
100
AcDb2dVertex
 10
558.3950769500002
 20
1245.3930006
 30
0.0
  0
VERTEX
  5
2F9
330
2F5
100
AcDbEntity
  8
トラップ
  6
CONTINUOUS
 62
     6
100
AcDbVertex
100
AcDb2dVertex
 10
557.8459743500002
 20
1246.4145538
 30
0.0
  0
VERTEX
  5
2FA
330
2F5
100
AcDbEntity
  8
トラップ
  6
CONTINUOUS
 62
     6
100
AcDbVertex
100
AcDb2dVertex
 10
557.1224247499999
 20
1247.2377285
 30
0.0
  0
VERTEX
  5
2FB
330
2F5
100
AcDbEntity
  8
トラップ
  6
CONTINUOUS
 62
     6
100
AcDbVertex
100
AcDb2dVertex
 10
556.26647955
 20
1247.8146215
 30
0.0
  0
VERTEX
  5
2FC
330
2F5
100
AcDbEntity
  8
トラップ
  6
CONTINUOUS
 62
     6
100
AcDbVertex
100
AcDb2dVertex
 10
555.3279462500002
 20
1248.1116811
 30
0.0
  0
VERTEX
  5
2FD
330
2F5
100
AcDbEntity
  8
トラップ
  6
CONTINUOUS
 62
     6
100
AcDbVertex
100
AcDb2dVertex
 10
554.3613089500002
 20
1248.1116811
 30
0.0
  0
VERTEX
  5
2FE
330
2F5
100
AcDbEntity
  8
トラップ
  6
CONTINUOUS
 62
     6
100
AcDbVertex
100
AcDb2dVertex
 10
553.4227048500002
 20
1247.8146215
 30
0.0
  0
VERTEX
  5
2FF
330
2F5
100
AcDbEntity
  8
トラップ
  6
CONTINUOUS
 62
     6
100
AcDbVertex
100
AcDb2dVertex
 10
552.5667537500001
 20
1247.2377285
 30
0.0
  0
VERTEX
  5
300
330
2F5
100
AcDbEntity
  8
トラップ
  6
CONTINUOUS
 62
     6
100
AcDbVertex
100
AcDb2dVertex
 10
551.8432041500002
 20
1246.4145538
 30
0.0
  0
VERTEX
  5
301
330
2F5
100
AcDbEntity
  8
トラップ
  6
CONTINUOUS
 62
     6
100
AcDbVertex
100
AcDb2dVertex
 10
551.2941014500002
 20
1245.3930006
 30
0.0
  0
VERTEX
  5
302
330
2F5
100
AcDbEntity
  8
トラップ
  6
CONTINUOUS
 62
     6
100
AcDbVertex
100
AcDb2dVertex
 10
550.9513424500001
 20
1244.232387
 30
0.0
  0
VERTEX
  5
303
330
2F5
100
AcDbEntity
  8
トラップ
  6
CONTINUOUS
 62
     6
100
AcDbVertex
100
AcDb2dVertex
 10
550.8348083500002
 20
1243.0001564
 30
0.0
  0
VERTEX
  5
304
330
2F5
100
AcDbEntity
  8
トラップ
  6
CONTINUOUS
 62
     6
100
AcDbVertex
100
AcDb2dVertex
 10
550.9513424500001
 20
1241.7679258
 30
0.0
  0
VERTEX
  5
305
330
2F5
100
AcDbEntity
  8
トラップ
  6
CONTINUOUS
 62
     6
100
AcDbVertex
100
AcDb2dVertex
 10
551.2941014500002
 20
1240.6073122
 30
0.0
  0
VERTEX
  5
306
330
2F5
100
AcDbEntity
  8
トラップ
  6
CONTINUOUS
 62
     6
100
AcDbVertex
100
AcDb2dVertex
 10
551.8432041500002
 20
1239.585759
 30
0.0
  0
VERTEX
  5
307
330
2F5
100
AcDbEntity
  8
トラップ
  6
CONTINUOUS
 62
     6
100
AcDbVertex
100
AcDb2dVertex
 10
552.5667537500001
 20
1238.7625843
 30
0.0
  0
VERTEX
  5
308
330
2F5
100
AcDbEntity
  8
トラップ
  6
CONTINUOUS
 62
     6
100
AcDbVertex
100
AcDb2dVertex
 10
553.4227048500002
 20
1238.1856913
 30
0.0
  0
VERTEX
  5
309
330
2F5
100
AcDbEntity
  8
トラップ
  6
CONTINUOUS
 62
     6
100
AcDbVertex
100
AcDb2dVertex
 10
554.3613089500002
 20
1237.8886317
 30
0.0
  0
VERTEX
  5
30A
330
2F5
100
AcDbEntity
  8
トラップ
  6
CONTINUOUS
 62
     6
100
AcDbVertex
100
AcDb2dVertex
 10
555.3279462500002
 20
1237.8886317
 30
0.0
  0
VERTEX
  5
30B
330
2F5
100
AcDbEntity
  8
トラップ
  6
CONTINUOUS
 62
     6
100
AcDbVertex
100
AcDb2dVertex
 10
556.26647955
 20
1238.1856913
 30
0.0
  0
VERTEX
  5
30C
330
2F5
100
AcDbEntity
  8
トラップ
  6
CONTINUOUS
 62
     6
100
AcDbVertex
100
AcDb2dVertex
 10
557.1224247499999
 20
1238.7625843
 30
0.0
  0
VERTEX
  5
30D
330
2F5
100
AcDbEntity
  8
トラップ
  6
CONTINUOUS
 62
     6
100
AcDbVertex
100
AcDb2dVertex
 10
557.8459743500002
 20
1239.585759
 30
0.0
  0
VERTEX
  5
30E
330
2F5
100
AcDbEntity
  8
トラップ
  6
CONTINUOUS
 62
     6
100
AcDbVertex
100
AcDb2dVertex
 10
558.3950769500002
 20
1240.6073122
 30
0.0
  0
VERTEX
  5
30F
330
2F5
100
AcDbEntity
  8
トラップ
  6
CONTINUOUS
 62
     6
100
AcDbVertex
100
AcDb2dVertex
 10
558.7378360500002
 20
1241.7679258
 30
0.0
  0
VERTEX
  5
310
330
2F5
100
AcDbEntity
  8
トラップ
  6
CONTINUOUS
 62
     6
100
AcDbVertex
100
AcDb2dVertex
 10
558.8543701500002
 20
1243.0001564
 30
0.0
  0
SEQEND
  5
311
330
2F5
100
AcDbEntity
  8
トラップ
  6
CONTINUOUS
 62
     6
  0
LINE
  5
312
330
1F
100
AcDbEntity
  8
トラップ
  6
CONTINUOUS
 62
     6
100
AcDbLine
 10
582.6998901000002
 20
1198.0000801
 30
0.0
 11
557.3001098999998
 21
1198.0000801
 31
0.0
  0
LINE
  5
313
330
1F
100
AcDbEntity
  8
トラップ
  6
CONTINUOUS
 62
     2
100
AcDbLine
 10
557.2999572999997
 20
1159.000019
 30
0.0
 11
557.2999572999997
 21
1195.732318899999
 31
0.0
  0
LINE
  5
314
330
1F
100
AcDbEntity
  8
トラップ
  6
CONTINUOUS
 62
     2
100
AcDbLine
 10
557.2999572999997
 20
1249.0000648
 30
0.0
 11
557.2999572999997
 21
1307.37163187998
 31
0.0
  0
LINE
  5
315
330
1F
100
AcDbEntity
  8
トラップ
  6
CONTINUOUS
 62
     2
100
AcDbLine
 10
582.7000427999997
 20
1249.0000648
 30
0.0
 11
582.7000427999997
 21
1307.37163187998
 31
0.0
  0
ARC
  5
316
330
1F
100
AcDbEntity
  8
トラップ
  6
CONTINUOUS
 62
     2
100
AcDbCircle
 10
570.0000000499999
 20
1126.999868836074
 30
0.0
 40
12.70004274999997
100
AcDbArc
 50
180.0
 51
0.0
  0
LINE
  5
317
330
1F
100
AcDbEntity
  8
トラップ
  6
CONTINUOUS
 62
     2
100
AcDbLine
 10
557.2999573000002
 20
1159.000019
 30
0.0
 11
557.2999573000002
 21
1126.999868836074
 31
0.0
  0
LINE
  5
318
330
1F
100
AcDbEntity
  8
トラップ
  6
CONTINUOUS
 62
     2
100
AcDbLine
 10
582.7000428000001
 20
1159.000019
 30
0.0
 11
582.7000428000001
 21
1126.999868836074
 31
0.0
  0
ARC
  5
319
330
1F
100
AcDbEntity
  8
トラップ
  6
CONTINUOUS
 62
     2
100
AcDbCircle
 10
570.0
 20
1212.000019
 30
0.0
 40
30.00002140000001
100
AcDbArc
 50
295.0452854895318
 51
56.21480937542234
  0
ARC
  5
31A
330
1F
100
AcDbEntity
  8
トラップ
  6
CONTINUOUS
 62
     2
100
AcDbCircle
 10
570.0
 20
1212.000019
 30
0.0
 40
30.00002140000001
100
AcDbArc
 50
123.8219123046726
 51
244.9547147212735
  0
LINE
  5
31B
330
1F
100
AcDbEntity
  8
トラップ
  6
CONTINUOUS
 62
     2
100
AcDbLine
 10
586.7501831
 20
1174.5000191
 30
0.0
 11
553.2498168999996
 21
1174.5000191
 31
0.0
  0
ARC
  5
31C
330
1F
100
AcDbEntity
  8
トラップ
  6
CONTINUOUS
 62
     2
100
AcDbCircle
 10
580.8000182999997
 20
1168.5001106
 30
0.0
 40
8.450000300000006
100
AcDbArc
 50
314.7592773400012
 51
45.23849486999776
  0
LINE
  5
31D
330
1F
100
AcDbEntity
  8
トラップ
  6
CONTINUOUS
 62
     2
100
AcDbLine
 10
586.7498778999998
 20
1162.5000496
 30
0.0
 11
553.2501219999999
 21
1162.5000496
 31
0.0
  0
LINE
  5
31E
330
1F
100
AcDbEntity
  8
トラップ
  6
CONTINUOUS
 62
     2
100
AcDbLine
 10
554.9999999999998
 20
1161.5001411
 30
0.0
 11
584.9999999999998
 21
1161.5001411
 31
0.0
  0
LINE
  5
31F
330
1F
100
AcDbEntity
  8
トラップ
  6
CONTINUOUS
 62
     2
100
AcDbLine
 10
584.9999999999998
 20
1161.5001411
 30
0.0
 11
586.0000609999997
 21
1162.5002022
 31
0.0
  0
ARC
  5
320
330
1F
100
AcDbEntity
  8
トラップ
  6
CONTINUOUS
 62
     2
100
AcDbCircle
 10
559.1999817000001
 20
1168.5001106
 30
0.0
 40
8.450000300000006
100
AcDbArc
 50
134.7615051299997
 51
225.2407531700008
  0
LINE
  5
321
330
1F
100
AcDbEntity
  8
トラップ
  6
CONTINUOUS
 62
     2
100
AcDbLine
 10
553.9999388999997
 20
1162.5002022
 30
0.0
 11
554.9999999999998
 21
1161.5001411
 31
0.0
  0
POLYLINE
  5
322
330
1F
100
AcDbEntity
  8
トラップ
  6
CONTINUOUS
 62
     6
100
AcDb2dPolyline
 66
     1
 10
0.0
 20
0.0
 30
0.0
 70
   128
  0
VERTEX
  5
323
330
322
100
AcDbEntity
  8
トラップ
  6
CONTINUOUS
 62
     6
100
AcDbVertex
100
AcDb2dVertex
 10
558.8543700999999
 20
1168.5001106
 30
0.0
  0
VERTEX
  5
324
330
322
100
AcDbEntity
  8
トラップ
  6
CONTINUOUS
 62
     6
100
AcDbVertex
100
AcDb2dVertex
 10
558.7378359999998
 20
1169.7323413
 30
0.0
  0
VERTEX
  5
325
330
322
100
AcDbEntity
  8
トラップ
  6
CONTINUOUS
 62
     6
100
AcDbVertex
100
AcDb2dVertex
 10
558.3950769999997
 20
1170.8929548
 30
0.0
  0
VERTEX
  5
326
330
322
100
AcDbEntity
  8
トラップ
  6
CONTINUOUS
 62
     6
100
AcDbVertex
100
AcDb2dVertex
 10
557.8459742999999
 20
1171.914508
 30
0.0
  0
VERTEX
  5
327
330
322
100
AcDbEntity
  8
トラップ
  6
CONTINUOUS
 62
     6
100
AcDbVertex
100
AcDb2dVertex
 10
557.1224247
 20
1172.7376827
 30
0.0
  0
VERTEX
  5
328
330
322
100
AcDbEntity
  8
トラップ
  6
CONTINUOUS
 62
     6
100
AcDbVertex
100
AcDb2dVertex
 10
556.2664794999998
 20
1173.3145758
 30
0.0
  0
VERTEX
  5
329
330
322
100
AcDbEntity
  8
トラップ
  6
CONTINUOUS
 62
     6
100
AcDbVertex
100
AcDb2dVertex
 10
555.3279461999998
 20
1173.6116353
 30
0.0
  0
VERTEX
  5
32A
330
322
100
AcDbEntity
  8
トラップ
  6
CONTINUOUS
 62
     6
100
AcDbVertex
100
AcDb2dVertex
 10
554.3613088999996
 20
1173.6116353
 30
0.0
  0
VERTEX
  5
32B
330
322
100
AcDbEntity
  8
トラップ
  6
CONTINUOUS
 62
     6
100
AcDbVertex
100
AcDb2dVertex
 10
553.4227047999998
 20
1173.3145758
 30
0.0
  0
VERTEX
  5
32C
330
322
100
AcDbEntity
  8
トラップ
  6
CONTINUOUS
 62
     6
100
AcDbVertex
100
AcDb2dVertex
 10
552.5667536999999
 20
1172.7376827
 30
0.0
  0
VERTEX
  5
32D
330
322
100
AcDbEntity
  8
トラップ
  6
CONTINUOUS
 62
     6
100
AcDbVertex
100
AcDb2dVertex
 10
551.8432040999996
 20
1171.914508
 30
0.0
  0
VERTEX
  5
32E
330
322
100
AcDbEntity
  8
トラップ
  6
CONTINUOUS
 62
     6
100
AcDbVertex
100
AcDb2dVertex
 10
551.2941013999998
 20
1170.8929548
 30
0.0
  0
VERTEX
  5
32F
330
322
100
AcDbEntity
  8
トラップ
  6
CONTINUOUS
 62
     6
100
AcDbVertex
100
AcDb2dVertex
 10
550.9513423999997
 20
1169.7323413
 30
0.0
  0
VERTEX
  5
330
330
322
100
AcDbEntity
  8
トラップ
  6
CONTINUOUS
 62
     6
100
AcDbVertex
100
AcDb2dVertex
 10
550.8348083000001
 20
1168.5001106
 30
0.0
  0
VERTEX
  5
331
330
322
100
AcDbEntity
  8
トラップ
  6
CONTINUOUS
 62
     6
100
AcDbVertex
100
AcDb2dVertex
 10
550.9513423999997
 20
1167.26788
 30
0.0
  0
VERTEX
  5
332
330
322
100
AcDbEntity
  8
トラップ
  6
CONTINUOUS
 62
     6
100
AcDbVertex
100
AcDb2dVertex
 10
551.2941013999998
 20
1166.1072664
 30
0.0
  0
VERTEX
  5
333
330
322
100
AcDbEntity
  8
トラップ
  6
CONTINUOUS
 62
     6
100
AcDbVertex
100
AcDb2dVertex
 10
551.8432040999996
 20
1165.0857133
 30
0.0
  0
VERTEX
  5
334
330
322
100
AcDbEntity
  8
トラップ
  6
CONTINUOUS
 62
     6
100
AcDbVertex
100
AcDb2dVertex
 10
552.5667536999999
 20
1164.2625385
 30
0.0
  0
VERTEX
  5
335
330
322
100
AcDbEntity
  8
トラップ
  6
CONTINUOUS
 62
     6
100
AcDbVertex
100
AcDb2dVertex
 10
553.4227047999998
 20
1163.6856455
 30
0.0
  0
VERTEX
  5
336
330
322
100
AcDbEntity
  8
トラップ
  6
CONTINUOUS
 62
     6
100
AcDbVertex
100
AcDb2dVertex
 10
554.3613088999996
 20
1163.3885859
 30
0.0
  0
VERTEX
  5
337
330
322
100
AcDbEntity
  8
トラップ
  6
CONTINUOUS
 62
     6
100
AcDbVertex
100
AcDb2dVertex
 10
555.3279461999998
 20
1163.3885859
 30
0.0
  0
VERTEX
  5
338
330
322
100
AcDbEntity
  8
トラップ
  6
CONTINUOUS
 62
     6
100
AcDbVertex
100
AcDb2dVertex
 10
556.2664794999998
 20
1163.6856455
 30
0.0
  0
VERTEX
  5
339
330
322
100
AcDbEntity
  8
トラップ
  6
CONTINUOUS
 62
     6
100
AcDbVertex
100
AcDb2dVertex
 10
557.1224247
 20
1164.2625385
 30
0.0
  0
VERTEX
  5
33A
330
322
100
AcDbEntity
  8
トラップ
  6
CONTINUOUS
 62
     6
100
AcDbVertex
100
AcDb2dVertex
 10
557.8459742999999
 20
1165.0857133
 30
0.0
  0
VERTEX
  5
33B
330
322
100
AcDbEntity
  8
トラップ
  6
CONTINUOUS
 62
     6
100
AcDbVertex
100
AcDb2dVertex
 10
558.3950769999997
 20
1166.1072664
 30
0.0
  0
VERTEX
  5
33C
330
322
100
AcDbEntity
  8
トラップ
  6
CONTINUOUS
 62
     6
100
AcDbVertex
100
AcDb2dVertex
 10
558.7378359999998
 20
1167.26788
 30
0.0
  0
VERTEX
  5
33D
330
322
100
AcDbEntity
  8
トラップ
  6
CONTINUOUS
 62
     6
100
AcDbVertex
100
AcDb2dVertex
 10
558.8543700999999
 20
1168.5001106
 30
0.0
  0
SEQEND
  5
33E
330
322
100
AcDbEntity
  8
トラップ
  6
CONTINUOUS
 62
     6
  0
POLYLINE
  5
33F
330
1F
100
AcDbEntity
  8
トラップ
  6
CONTINUOUS
 62
     6
100
AcDb2dPolyline
 66
     1
 10
0.0
 20
0.0
 30
0.0
 70
   128
  0
VERTEX
  5
340
330
33F
100
AcDbEntity
  8
トラップ
  6
CONTINUOUS
 62
     6
100
AcDbVertex
100
AcDb2dVertex
 10
578.0195616999999
 20
1168.5001106
 30
0.0
  0
VERTEX
  5
341
330
33F
100
AcDbEntity
  8
トラップ
  6
CONTINUOUS
 62
     6
100
AcDbVertex
100
AcDb2dVertex
 10
577.7864935999999
 20
1169.7323413
 30
0.0
  0
VERTEX
  5
342
330
33F
100
AcDbEntity
  8
トラップ
  6
CONTINUOUS
 62
     6
100
AcDbVertex
100
AcDb2dVertex
 10
577.1009600999998
 20
1170.8929548
 30
0.0
  0
VERTEX
  5
343
330
33F
100
AcDbEntity
  8
トラップ
  6
CONTINUOUS
 62
     6
100
AcDbVertex
100
AcDb2dVertex
 10
576.0026640999997
 20
1171.914508
 30
0.0
  0
VERTEX
  5
344
330
33F
100
AcDbEntity
  8
トラップ
  6
CONTINUOUS
 62
     6
100
AcDbVertex
100
AcDb2dVertex
 10
574.5555274999999
 20
1172.7376827
 30
0.0
  0
VERTEX
  5
345
330
33F
100
AcDbEntity
  8
トラップ
  6
CONTINUOUS
 62
     6
100
AcDbVertex
100
AcDb2dVertex
 10
572.8437114999997
 20
1173.3145758
 30
0.0
  0
VERTEX
  5
346
330
33F
100
AcDbEntity
  8
トラップ
  6
CONTINUOUS
 62
     6
100
AcDbVertex
100
AcDb2dVertex
 10
570.9666346999998
 20
1173.6116353
 30
0.0
  0
VERTEX
  5
347
330
33F
100
AcDbEntity
  8
トラップ
  6
CONTINUOUS
 62
     6
100
AcDbVertex
100
AcDb2dVertex
 10
569.0333651999999
 20
1173.6116353
 30
0.0
  0
VERTEX
  5
348
330
33F
100
AcDbEntity
  8
トラップ
  6
CONTINUOUS
 62
     6
100
AcDbVertex
100
AcDb2dVertex
 10
567.1562883999998
 20
1173.3145758
 30
0.0
  0
VERTEX
  5
349
330
33F
100
AcDbEntity
  8
トラップ
  6
CONTINUOUS
 62
     6
100
AcDbVertex
100
AcDb2dVertex
 10
565.4444723999995
 20
1172.7376827
 30
0.0
  0
VERTEX
  5
34A
330
33F
100
AcDbEntity
  8
トラップ
  6
CONTINUOUS
 62
     6
100
AcDbVertex
100
AcDb2dVertex
 10
563.9973357999997
 20
1171.914508
 30
0.0
  0
VERTEX
  5
34B
330
33F
100
AcDbEntity
  8
トラップ
  6
CONTINUOUS
 62
     6
100
AcDbVertex
100
AcDb2dVertex
 10
562.8990398999999
 20
1170.8929548
 30
0.0
  0
VERTEX
  5
34C
330
33F
100
AcDbEntity
  8
トラップ
  6
CONTINUOUS
 62
     6
100
AcDbVertex
100
AcDb2dVertex
 10
562.2135063999999
 20
1169.7323413
 30
0.0
  0
VERTEX
  5
34D
330
33F
100
AcDbEntity
  8
トラップ
  6
CONTINUOUS
 62
     6
100
AcDbVertex
100
AcDb2dVertex
 10
561.9804381999998
 20
1168.5001106
 30
0.0
  0
VERTEX
  5
34E
330
33F
100
AcDbEntity
  8
トラップ
  6
CONTINUOUS
 62
     6
100
AcDbVertex
100
AcDb2dVertex
 10
562.2135063999999
 20
1167.26788
 30
0.0
  0
VERTEX
  5
34F
330
33F
100
AcDbEntity
  8
トラップ
  6
CONTINUOUS
 62
     6
100
AcDbVertex
100
AcDb2dVertex
 10
562.8990398999999
 20
1166.1072664
 30
0.0
  0
VERTEX
  5
350
330
33F
100
AcDbEntity
  8
トラップ
  6
CONTINUOUS
 62
     6
100
AcDbVertex
100
AcDb2dVertex
 10
563.9973357999997
 20
1165.0857133
 30
0.0
  0
VERTEX
  5
351
330
33F
100
AcDbEntity
  8
トラップ
  6
CONTINUOUS
 62
     6
100
AcDbVertex
100
AcDb2dVertex
 10
565.4444723999995
 20
1164.2625385
 30
0.0
  0
VERTEX
  5
352
330
33F
100
AcDbEntity
  8
トラップ
  6
CONTINUOUS
 62
     6
100
AcDbVertex
100
AcDb2dVertex
 10
567.1562883999998
 20
1163.6856455
 30
0.0
  0
VERTEX
  5
353
330
33F
100
AcDbEntity
  8
トラップ
  6
CONTINUOUS
 62
     6
100
AcDbVertex
100
AcDb2dVertex
 10
569.0333651999999
 20
1163.3885859
 30
0.0
  0
VERTEX
  5
354
330
33F
100
AcDbEntity
  8
トラップ
  6
CONTINUOUS
 62
     6
100
AcDbVertex
100
AcDb2dVertex
 10
570.9666346999998
 20
1163.3885859
 30
0.0
  0
VERTEX
  5
355
330
33F
100
AcDbEntity
  8
トラップ
  6
CONTINUOUS
 62
     6
100
AcDbVertex
100
AcDb2dVertex
 10
572.8437114999997
 20
1163.6856455
 30
0.0
  0
VERTEX
  5
356
330
33F
100
AcDbEntity
  8
トラップ
  6
CONTINUOUS
 62
     6
100
AcDbVertex
100
AcDb2dVertex
 10
574.5555274999999
 20
1164.2625385
 30
0.0
  0
VERTEX
  5
357
330
33F
100
AcDbEntity
  8
トラップ
  6
CONTINUOUS
 62
     6
100
AcDbVertex
100
AcDb2dVertex
 10
576.0026640999997
 20
1165.0857133
 30
0.0
  0
VERTEX
  5
358
330
33F
100
AcDbEntity
  8
トラップ
  6
CONTINUOUS
 62
     6
100
AcDbVertex
100
AcDb2dVertex
 10
577.1009600999998
 20
1166.1072664
 30
0.0
  0
VERTEX
  5
359
330
33F
100
AcDbEntity
  8
トラップ
  6
CONTINUOUS
 62
     6
100
AcDbVertex
100
AcDb2dVertex
 10
577.7864935999999
 20
1167.26788
 30
0.0
  0
VERTEX
  5
35A
330
33F
100
AcDbEntity
  8
トラップ
  6
CONTINUOUS
 62
     6
100
AcDbVertex
100
AcDb2dVertex
 10
578.0195616999999
 20
1168.5001106
 30
0.0
  0
SEQEND
  5
35B
330
33F
100
AcDbEntity
  8
トラップ
  6
CONTINUOUS
 62
     6
  0
POLYLINE
  5
35C
330
1F
100
AcDbEntity
  8
トラップ
  6
CONTINUOUS
 62
     6
100
AcDb2dPolyline
 66
     1
 10
0.0
 20
0.0
 30
0.0
 70
   128
  0
VERTEX
  5
35D
330
35C
100
AcDbEntity
  8
トラップ
  6
CONTINUOUS
 62
     6
100
AcDbVertex
100
AcDb2dVertex
 10
589.2500304999996
 20
1168.5001106
 30
0.0
  0
VERTEX
  5
35E
330
35C
100
AcDbEntity
  8
トラップ
  6
CONTINUOUS
 62
     6
100
AcDbVertex
100
AcDb2dVertex
 10
589.1322862999996
 20
1169.7323413
 30
0.0
  0
VERTEX
  5
35F
330
35C
100
AcDbEntity
  8
トラップ
  6
CONTINUOUS
 62
     6
100
AcDbVertex
100
AcDb2dVertex
 10
588.7858445999996
 20
1170.8929548
 30
0.0
  0
VERTEX
  5
360
330
35C
100
AcDbEntity
  8
トラップ
  6
CONTINUOUS
 62
     6
100
AcDbVertex
100
AcDb2dVertex
 10
588.2309512999996
 20
1171.914508
 30
0.0
  0
VERTEX
  5
361
330
35C
100
AcDbEntity
  8
トラップ
  6
CONTINUOUS
 62
     6
100
AcDbVertex
100
AcDb2dVertex
 10
587.4997193999998
 20
1172.7376827
 30
0.0
  0
VERTEX
  5
362
330
35C
100
AcDbEntity
  8
トラップ
  6
CONTINUOUS
 62
     6
100
AcDbVertex
100
AcDb2dVertex
 10
586.6347383999996
 20
1173.3145758
 30
0.0
  0
VERTEX
  5
363
330
35C
100
AcDbEntity
  8
トラップ
  6
CONTINUOUS
 62
     6
100
AcDbVertex
100
AcDb2dVertex
 10
585.6862364999997
 20
1173.6116353
 30
0.0
  0
VERTEX
  5
364
330
35C
100
AcDbEntity
  8
トラップ
  6
CONTINUOUS
 62
     6
100
AcDbVertex
100
AcDb2dVertex
 10
584.7093470999998
 20
1173.6116353
 30
0.0
  0
VERTEX
  5
365
330
35C
100
AcDbEntity
  8
トラップ
  6
CONTINUOUS
 62
     6
100
AcDbVertex
100
AcDb2dVertex
 10
583.7609159999997
 20
1173.3145758
 30
0.0
  0
VERTEX
  5
366
330
35C
100
AcDbEntity
  8
トラップ
  6
CONTINUOUS
 62
     6
100
AcDbVertex
100
AcDb2dVertex
 10
582.8959409999998
 20
1172.7376827
 30
0.0
  0
VERTEX
  5
367
330
35C
100
AcDbEntity
  8
トラップ
  6
CONTINUOUS
 62
     6
100
AcDbVertex
100
AcDb2dVertex
 10
582.1647089999997
 20
1171.914508
 30
0.0
  0
VERTEX
  5
368
330
35C
100
AcDbEntity
  8
トラップ
  6
CONTINUOUS
 62
     6
100
AcDbVertex
100
AcDb2dVertex
 10
581.6098156999997
 20
1170.8929548
 30
0.0
  0
VERTEX
  5
369
330
35C
100
AcDbEntity
  8
トラップ
  6
CONTINUOUS
 62
     6
100
AcDbVertex
100
AcDb2dVertex
 10
581.2633740999997
 20
1169.7323413
 30
0.0
  0
VERTEX
  5
36A
330
35C
100
AcDbEntity
  8
トラップ
  6
CONTINUOUS
 62
     6
100
AcDbVertex
100
AcDb2dVertex
 10
581.1456298999997
 20
1168.5001106
 30
0.0
  0
VERTEX
  5
36B
330
35C
100
AcDbEntity
  8
トラップ
  6
CONTINUOUS
 62
     6
100
AcDbVertex
100
AcDb2dVertex
 10
581.2633740999997
 20
1167.26788
 30
0.0
  0
VERTEX
  5
36C
330
35C
100
AcDbEntity
  8
トラップ
  6
CONTINUOUS
 62
     6
100
AcDbVertex
100
AcDb2dVertex
 10
581.6098156999997
 20
1166.1072664
 30
0.0
  0
VERTEX
  5
36D
330
35C
100
AcDbEntity
  8
トラップ
  6
CONTINUOUS
 62
     6
100
AcDbVertex
100
AcDb2dVertex
 10
582.1647089999997
 20
1165.0857133
 30
0.0
  0
VERTEX
  5
36E
330
35C
100
AcDbEntity
  8
トラップ
  6
CONTINUOUS
 62
     6
100
AcDbVertex
100
AcDb2dVertex
 10
582.8959409999998
 20
1164.2625385
 30
0.0
  0
VERTEX
  5
36F
330
35C
100
AcDbEntity
  8
トラップ
  6
CONTINUOUS
 62
     6
100
AcDbVertex
100
AcDb2dVertex
 10
583.7609159999997
 20
1163.6856455
 30
0.0
  0
VERTEX
  5
370
330
35C
100
AcDbEntity
  8
トラップ
  6
CONTINUOUS
 62
     6
100
AcDbVertex
100
AcDb2dVertex
 10
584.7093470999998
 20
1163.3885859
 30
0.0
  0
VERTEX
  5
371
330
35C
100
AcDbEntity
  8
トラップ
  6
CONTINUOUS
 62
     6
100
AcDbVertex
100
AcDb2dVertex
 10
585.6862364999997
 20
1163.3885859
 30
0.0
  0
VERTEX
  5
372
330
35C
100
AcDbEntity
  8
トラップ
  6
CONTINUOUS
 62
     6
100
AcDbVertex
100
AcDb2dVertex
 10
586.6347383999996
 20
1163.6856455
 30
0.0
  0
VERTEX
  5
373
330
35C
100
AcDbEntity
  8
トラップ
  6
CONTINUOUS
 62
     6
100
AcDbVertex
100
AcDb2dVertex
 10
587.4997193999998
 20
1164.2625385
 30
0.0
  0
VERTEX
  5
374
330
35C
100
AcDbEntity
  8
トラップ
  6
CONTINUOUS
 62
     6
100
AcDbVertex
100
AcDb2dVertex
 10
588.2309512999996
 20
1165.0857133
 30
0.0
  0
VERTEX
  5
375
330
35C
100
AcDbEntity
  8
トラップ
  6
CONTINUOUS
 62
     6
100
AcDbVertex
100
AcDb2dVertex
 10
588.7858445999996
 20
1166.1072664
 30
0.0
  0
VERTEX
  5
376
330
35C
100
AcDbEntity
  8
トラップ
  6
CONTINUOUS
 62
     6
100
AcDbVertex
100
AcDb2dVertex
 10
589.1322862999996
 20
1167.26788
 30
0.0
  0
VERTEX
  5
377
330
35C
100
AcDbEntity
  8
トラップ
  6
CONTINUOUS
 62
     6
100
AcDbVertex
100
AcDb2dVertex
 10
589.2500304999996
 20
1168.5001106
 30
0.0
  0
SEQEND
  5
378
330
35C
100
AcDbEntity
  8
トラップ
  6
CONTINUOUS
 62
     6
  0
LINE
  5
379
330
1F
100
AcDbEntity
  8
トラップ
  6
CONTINUOUS
 62
     2
100
AcDbLine
 10
557.2999572999997
 20
1160.749496742711
 30
0.0
 11
555.9997558
 21
1161.5001411
 31
0.0
  0
LINE
  5
37A
330
1F
100
AcDbEntity
  8
トラップ
  6
CONTINUOUS
 62
     2
100
AcDbLine
 10
582.7000427999994
 20
1160.749496858176
 30
0.0
 11
584.0002440999997
 21
1161.5001411
 31
0.0
  0
ARC
  5
37B
330
1F
100
AcDbEntity
  8
トラップ
  6
CONTINUOUS
 62
     2
100
AcDbCircle
 10
559.1999816500002
 20
1313.37161662998
 30
0.0
 40
8.450000300000006
100
AcDbArc
 50
154.5707197491576
 51
225.2407531699997
  0
POLYLINE
  5
37C
330
1F
100
AcDbEntity
  8
トラップ
  6
CONTINUOUS
 62
     6
100
AcDb2dPolyline
 66
     1
 10
0.0
 20
0.0
 30
0.0
 70
   128
  0
VERTEX
  5
37D
330
37C
100
AcDbEntity
  8
トラップ
  6
CONTINUOUS
 62
     6
100
AcDbVertex
100
AcDb2dVertex
 10
552.0313091342771
 20
1317.000019
 30
0.0
  0
VERTEX
  5
37E
330
37C
100
AcDbEntity
  8
トラップ
  6
CONTINUOUS
 62
     6
100
AcDbVertex
100
AcDb2dVertex
 10
551.8432041500002
 20
1316.78601392998
 30
0.0
  0
VERTEX
  5
37F
330
37C
100
AcDbEntity
  8
トラップ
  6
CONTINUOUS
 62
     6
100
AcDbVertex
100
AcDb2dVertex
 10
551.2941014500004
 20
1315.76446082998
 30
0.0
  0
VERTEX
  5
380
330
37C
100
AcDbEntity
  8
トラップ
  6
CONTINUOUS
 62
     6
100
AcDbVertex
100
AcDb2dVertex
 10
550.9513424500003
 20
1314.60384722998
 30
0.0
  0
VERTEX
  5
381
330
37C
100
AcDbEntity
  8
トラップ
  6
CONTINUOUS
 62
     6
100
AcDbVertex
100
AcDb2dVertex
 10
550.8348083500002
 20
1313.37161662998
 30
0.0
  0
VERTEX
  5
382
330
37C
100
AcDbEntity
  8
トラップ
  6
CONTINUOUS
 62
     6
100
AcDbVertex
100
AcDb2dVertex
 10
550.9513424500003
 20
1312.13938592998
 30
0.0
  0
VERTEX
  5
383
330
37C
100
AcDbEntity
  8
トラップ
  6
CONTINUOUS
 62
     6
100
AcDbVertex
100
AcDb2dVertex
 10
551.2941014500004
 20
1310.97877242998
 30
0.0
  0
VERTEX
  5
384
330
37C
100
AcDbEntity
  8
トラップ
  6
CONTINUOUS
 62
     6
100
AcDbVertex
100
AcDb2dVertex
 10
551.8432041500002
 20
1309.95721922998
 30
0.0
  0
VERTEX
  5
385
330
37C
100
AcDbEntity
  8
トラップ
  6
CONTINUOUS
 62
     6
100
AcDbVertex
100
AcDb2dVertex
 10
552.5667537500001
 20
1309.13404452998
 30
0.0
  0
VERTEX
  5
386
330
37C
100
AcDbEntity
  8
トラップ
  6
CONTINUOUS
 62
     6
100
AcDbVertex
100
AcDb2dVertex
 10
553.4227048500002
 20
1308.55715142998
 30
0.0
  0
VERTEX
  5
387
330
37C
100
AcDbEntity
  8
トラップ
  6
CONTINUOUS
 62
     6
100
AcDbVertex
100
AcDb2dVertex
 10
554.3613089500004
 20
1308.26009192998
 30
0.0
  0
VERTEX
  5
388
330
37C
100
AcDbEntity
  8
トラップ
  6
CONTINUOUS
 62
     6
100
AcDbVertex
100
AcDb2dVertex
 10
555.3279462500004
 20
1308.26009192998
 30
0.0
  0
VERTEX
  5
389
330
37C
100
AcDbEntity
  8
トラップ
  6
CONTINUOUS
 62
     6
100
AcDbVertex
100
AcDb2dVertex
 10
556.2664795500002
 20
1308.55715142998
 30
0.0
  0
VERTEX
  5
38A
330
37C
100
AcDbEntity
  8
トラップ
  6
CONTINUOUS
 62
     6
100
AcDbVertex
100
AcDb2dVertex
 10
557.1224247500002
 20
1309.13404452998
 30
0.0
  0
VERTEX
  5
38B
330
37C
100
AcDbEntity
  8
トラップ
  6
CONTINUOUS
 62
     6
100
AcDbVertex
100
AcDb2dVertex
 10
557.8459743500002
 20
1309.95721922998
 30
0.0
  0
VERTEX
  5
38C
330
37C
100
AcDbEntity
  8
トラップ
  6
CONTINUOUS
 62
     6
100
AcDbVertex
100
AcDb2dVertex
 10
558.3950769500004
 20
1310.97877242998
 30
0.0
  0
VERTEX
  5
38D
330
37C
100
AcDbEntity
  8
トラップ
  6
CONTINUOUS
 62
     6
100
AcDbVertex
100
AcDb2dVertex
 10
558.7378360500002
 20
1312.13938592998
 30
0.0
  0
VERTEX
  5
38E
330
37C
100
AcDbEntity
  8
トラップ
  6
CONTINUOUS
 62
     6
100
AcDbVertex
100
AcDb2dVertex
 10
558.8543701500002
 20
1313.37161662998
 30
0.0
  0
SEQEND
  5
38F
330
37C
100
AcDbEntity
  8
トラップ
  6
CONTINUOUS
 62
     6
  0
POLYLINE
  5
390
330
1F
100
AcDbEntity
  8
トラップ
  6
CONTINUOUS
 62
     6
100
AcDb2dPolyline
 66
     1
 10
0.0
 20
0.0
 30
0.0
 70
   128
  0
VERTEX
  5
391
330
390
100
AcDbEntity
  8
トラップ
  6
CONTINUOUS
 62
     6
100
AcDbVertex
100
AcDb2dVertex
 10
558.8543701500002
 20
1313.37161662998
 30
0.0
  0
VERTEX
  5
392
330
390
100
AcDbEntity
  8
トラップ
  6
CONTINUOUS
 62
     6
100
AcDbVertex
100
AcDb2dVertex
 10
558.7378360500002
 20
1314.60384722998
 30
0.0
  0
VERTEX
  5
393
330
390
100
AcDbEntity
  8
トラップ
  6
CONTINUOUS
 62
     6
100
AcDbVertex
100
AcDb2dVertex
 10
558.3950769500004
 20
1315.76446082998
 30
0.0
  0
VERTEX
  5
394
330
390
100
AcDbEntity
  8
トラップ
  6
CONTINUOUS
 62
     6
100
AcDbVertex
100
AcDb2dVertex
 10
557.8459743500002
 20
1316.78601392998
 30
0.0
  0
VERTEX
  5
395
330
390
100
AcDbEntity
  8
トラップ
  6
CONTINUOUS
 62
     6
100
AcDbVertex
100
AcDb2dVertex
 10
557.6578693657234
 20
1317.000019
 30
0.0
  0
SEQEND
  5
396
330
390
100
AcDbEntity
  8
トラップ
  6
CONTINUOUS
 62
     6
  0
POLYLINE
  5
397
330
1F
100
AcDbEntity
  8
トラップ
  6
CONTINUOUS
 62
     6
100
AcDb2dPolyline
 66
     1
 10
0.0
 20
0.0
 30
0.0
 70
   128
  0
VERTEX
  5
398
330
397
100
AcDbEntity
  8
トラップ
  6
CONTINUOUS
 62
     6
100
AcDbVertex
100
AcDb2dVertex
 10
564.3735555416279
 20
1317.000019
 30
0.0
  0
VERTEX
  5
399
330
397
100
AcDbEntity
  8
トラップ
  6
CONTINUOUS
 62
     6
100
AcDbVertex
100
AcDb2dVertex
 10
563.9973358500001
 20
1316.78601392998
 30
0.0
  0
VERTEX
  5
39A
330
397
100
AcDbEntity
  8
トラップ
  6
CONTINUOUS
 62
     6
100
AcDbVertex
100
AcDb2dVertex
 10
562.89903985
 20
1315.76446082998
 30
0.0
  0
VERTEX
  5
39B
330
397
100
AcDbEntity
  8
トラップ
  6
CONTINUOUS
 62
     6
100
AcDbVertex
100
AcDb2dVertex
 10
562.2135064500003
 20
1314.60384722998
 30
0.0
  0
VERTEX
  5
39C
330
397
100
AcDbEntity
  8
トラップ
  6
CONTINUOUS
 62
     6
100
AcDbVertex
100
AcDb2dVertex
 10
561.9804382500001
 20
1313.37161662998
 30
0.0
  0
VERTEX
  5
39D
330
397
100
AcDbEntity
  8
トラップ
  6
CONTINUOUS
 62
     6
100
AcDbVertex
100
AcDb2dVertex
 10
562.2135064500003
 20
1312.13938592998
 30
0.0
  0
VERTEX
  5
39E
330
397
100
AcDbEntity
  8
トラップ
  6
CONTINUOUS
 62
     6
100
AcDbVertex
100
AcDb2dVertex
 10
562.89903985
 20
1310.97877242998
 30
0.0
  0
VERTEX
  5
39F
330
397
100
AcDbEntity
  8
トラップ
  6
CONTINUOUS
 62
     6
100
AcDbVertex
100
AcDb2dVertex
 10
563.9973358500001
 20
1309.95721922998
 30
0.0
  0
VERTEX
  5
3A0
330
397
100
AcDbEntity
  8
トラップ
  6
CONTINUOUS
 62
     6
100
AcDbVertex
100
AcDb2dVertex
 10
565.4444724500004
 20
1309.13404452998
 30
0.0
  0
VERTEX
  5
3A1
330
397
100
AcDbEntity
  8
トラップ
  6
CONTINUOUS
 62
     6
100
AcDbVertex
100
AcDb2dVertex
 10
567.1562884500001
 20
1308.55715142998
 30
0.0
  0
VERTEX
  5
3A2
330
397
100
AcDbEntity
  8
トラップ
  6
CONTINUOUS
 62
     6
100
AcDbVertex
100
AcDb2dVertex
 10
569.0333652500003
 20
1308.26009192998
 30
0.0
  0
VERTEX
  5
3A3
330
397
100
AcDbEntity
  8
トラップ
  6
CONTINUOUS
 62
     6
100
AcDbVertex
100
AcDb2dVertex
 10
570.9666347500001
 20
1308.26009192998
 30
0.0
  0
VERTEX
  5
3A4
330
397
100
AcDbEntity
  8
トラップ
  6
CONTINUOUS
 62
     6
100
AcDbVertex
100
AcDb2dVertex
 10
572.8437115500001
 20
1308.55715142998
 30
0.0
  0
VERTEX
  5
3A5
330
397
100
AcDbEntity
  8
トラップ
  6
CONTINUOUS
 62
     6
100
AcDbVertex
100
AcDb2dVertex
 10
574.5555275500001
 20
1309.13404452998
 30
0.0
  0
VERTEX
  5
3A6
330
397
100
AcDbEntity
  8
トラップ
  6
CONTINUOUS
 62
     6
100
AcDbVertex
100
AcDb2dVertex
 10
576.0026641500001
 20
1309.95721922998
 30
0.0
  0
VERTEX
  5
3A7
330
397
100
AcDbEntity
  8
トラップ
  6
CONTINUOUS
 62
     6
100
AcDbVertex
100
AcDb2dVertex
 10
577.1009601500002
 20
1310.97877242998
 30
0.0
  0
VERTEX
  5
3A8
330
397
100
AcDbEntity
  8
トラップ
  6
CONTINUOUS
 62
     6
100
AcDbVertex
100
AcDb2dVertex
 10
577.7864935500002
 20
1312.13938592998
 30
0.0
  0
VERTEX
  5
3A9
330
397
100
AcDbEntity
  8
トラップ
  6
CONTINUOUS
 62
     6
100
AcDbVertex
100
AcDb2dVertex
 10
578.0195617500003
 20
1313.37161662998
 30
0.0
  0
SEQEND
  5
3AA
330
397
100
AcDbEntity
  8
トラップ
  6
CONTINUOUS
 62
     6
  0
POLYLINE
  5
3AB
330
1F
100
AcDbEntity
  8
トラップ
  6
CONTINUOUS
 62
     6
100
AcDb2dPolyline
 66
     1
 10
0.0
 20
0.0
 30
0.0
 70
   128
  0
VERTEX
  5
3AC
330
3AB
100
AcDbEntity
  8
トラップ
  6
CONTINUOUS
 62
     6
100
AcDbVertex
100
AcDb2dVertex
 10
578.0195617500003
 20
1313.37161662998
 30
0.0
  0
VERTEX
  5
3AD
330
3AB
100
AcDbEntity
  8
トラップ
  6
CONTINUOUS
 62
     6
100
AcDbVertex
100
AcDb2dVertex
 10
577.7864935500002
 20
1314.60384722998
 30
0.0
  0
VERTEX
  5
3AE
330
3AB
100
AcDbEntity
  8
トラップ
  6
CONTINUOUS
 62
     6
100
AcDbVertex
100
AcDb2dVertex
 10
577.1009601500002
 20
1315.76446082998
 30
0.0
  0
VERTEX
  5
3AF
330
3AB
100
AcDbEntity
  8
トラップ
  6
CONTINUOUS
 62
     6
100
AcDbVertex
100
AcDb2dVertex
 10
576.0026641500001
 20
1316.78601392998
 30
0.0
  0
VERTEX
  5
3B0
330
3AB
100
AcDbEntity
  8
トラップ
  6
CONTINUOUS
 62
     6
100
AcDbVertex
100
AcDb2dVertex
 10
575.6264444583726
 20
1317.000019
 30
0.0
  0
SEQEND
  5
3B1
330
3AB
100
AcDbEntity
  8
トラップ
  6
CONTINUOUS
 62
     6
  0
POLYLINE
  5
3B2
330
1F
100
AcDbEntity
  8
トラップ
  6
CONTINUOUS
 62
     6
100
AcDb2dPolyline
 66
     1
 10
0.0
 20
0.0
 30
0.0
 70
   128
  0
VERTEX
  5
3B3
330
3B2
100
AcDbEntity
  8
トラップ
  6
CONTINUOUS
 62
     6
100
AcDbVertex
100
AcDb2dVertex
 10
582.354811242099
 20
1317.000019
 30
0.0
  0
VERTEX
  5
3B4
330
3B2
100
AcDbEntity
  8
トラップ
  6
CONTINUOUS
 62
     6
100
AcDbVertex
100
AcDb2dVertex
 10
582.1647090500003
 20
1316.78601392998
 30
0.0
  0
VERTEX
  5
3B5
330
3B2
100
AcDbEntity
  8
トラップ
  6
CONTINUOUS
 62
     6
100
AcDbVertex
100
AcDb2dVertex
 10
581.6098157500003
 20
1315.76446082998
 30
0.0
  0
VERTEX
  5
3B6
330
3B2
100
AcDbEntity
  8
トラップ
  6
CONTINUOUS
 62
     6
100
AcDbVertex
100
AcDb2dVertex
 10
581.2633741500001
 20
1314.60384722998
 30
0.0
  0
VERTEX
  5
3B7
330
3B2
100
AcDbEntity
  8
トラップ
  6
CONTINUOUS
 62
     6
100
AcDbVertex
100
AcDb2dVertex
 10
581.1456298500002
 20
1313.37161662998
 30
0.0
  0
VERTEX
  5
3B8
330
3B2
100
AcDbEntity
  8
トラップ
  6
CONTINUOUS
 62
     6
100
AcDbVertex
100
AcDb2dVertex
 10
581.2633741500001
 20
1312.13938592998
 30
0.0
  0
VERTEX
  5
3B9
330
3B2
100
AcDbEntity
  8
トラップ
  6
CONTINUOUS
 62
     6
100
AcDbVertex
100
AcDb2dVertex
 10
581.6098157500003
 20
1310.97877242998
 30
0.0
  0
VERTEX
  5
3BA
330
3B2
100
AcDbEntity
  8
トラップ
  6
CONTINUOUS
 62
     6
100
AcDbVertex
100
AcDb2dVertex
 10
582.1647090500003
 20
1309.95721922998
 30
0.0
  0
VERTEX
  5
3BB
330
3B2
100
AcDbEntity
  8
トラップ
  6
CONTINUOUS
 62
     6
100
AcDbVertex
100
AcDb2dVertex
 10
582.8959409500003
 20
1309.13404452998
 30
0.0
  0
VERTEX
  5
3BC
330
3B2
100
AcDbEntity
  8
トラップ
  6
CONTINUOUS
 62
     6
100
AcDbVertex
100
AcDb2dVertex
 10
583.7609160500003
 20
1308.55715142998
 30
0.0
  0
VERTEX
  5
3BD
330
3B2
100
AcDbEntity
  8
トラップ
  6
CONTINUOUS
 62
     6
100
AcDbVertex
100
AcDb2dVertex
 10
584.7093471500002
 20
1308.26009192998
 30
0.0
  0
VERTEX
  5
3BE
330
3B2
100
AcDbEntity
  8
トラップ
  6
CONTINUOUS
 62
     6
100
AcDbVertex
100
AcDb2dVertex
 10
585.6862365500001
 20
1308.26009192998
 30
0.0
  0
VERTEX
  5
3BF
330
3B2
100
AcDbEntity
  8
トラップ
  6
CONTINUOUS
 62
     6
100
AcDbVertex
100
AcDb2dVertex
 10
586.6347384500002
 20
1308.55715142998
 30
0.0
  0
VERTEX
  5
3C0
330
3B2
100
AcDbEntity
  8
トラップ
  6
CONTINUOUS
 62
     6
100
AcDbVertex
100
AcDb2dVertex
 10
587.4997194500002
 20
1309.13404452998
 30
0.0
  0
VERTEX
  5
3C1
330
3B2
100
AcDbEntity
  8
トラップ
  6
CONTINUOUS
 62
     6
100
AcDbVertex
100
AcDb2dVertex
 10
588.2309513500002
 20
1309.95721922998
 30
0.0
  0
VERTEX
  5
3C2
330
3B2
100
AcDbEntity
  8
トラップ
  6
CONTINUOUS
 62
     6
100
AcDbVertex
100
AcDb2dVertex
 10
588.7858446500002
 20
1310.97877242998
 30
0.0
  0
VERTEX
  5
3C3
330
3B2
100
AcDbEntity
  8
トラップ
  6
CONTINUOUS
 62
     6
100
AcDbVertex
100
AcDb2dVertex
 10
589.1322862500001
 20
1312.13938592998
 30
0.0
  0
VERTEX
  5
3C4
330
3B2
100
AcDbEntity
  8
トラップ
  6
CONTINUOUS
 62
     6
100
AcDbVertex
100
AcDb2dVertex
 10
589.2500305500002
 20
1313.37161662998
 30
0.0
  0
SEQEND
  5
3C5
330
3B2
100
AcDbEntity
  8
トラップ
  6
CONTINUOUS
 62
     6
  0
POLYLINE
  5
3C6
330
1F
100
AcDbEntity
  8
トラップ
  6
CONTINUOUS
 62
     6
100
AcDb2dPolyline
 66
     1
 10
0.0
 20
0.0
 30
0.0
 70
   128
  0
VERTEX
  5
3C7
330
3C6
100
AcDbEntity
  8
トラップ
  6
CONTINUOUS
 62
     6
100
AcDbVertex
100
AcDb2dVertex
 10
589.2500305500002
 20
1313.37161662998
 30
0.0
  0
VERTEX
  5
3C8
330
3C6
100
AcDbEntity
  8
トラップ
  6
CONTINUOUS
 62
     6
100
AcDbVertex
100
AcDb2dVertex
 10
589.1322862500001
 20
1314.60384722998
 30
0.0
  0
VERTEX
  5
3C9
330
3C6
100
AcDbEntity
  8
トラップ
  6
CONTINUOUS
 62
     6
100
AcDbVertex
100
AcDb2dVertex
 10
588.7858446500002
 20
1315.76446082998
 30
0.0
  0
VERTEX
  5
3CA
330
3C6
100
AcDbEntity
  8
トラップ
  6
CONTINUOUS
 62
     6
100
AcDbVertex
100
AcDb2dVertex
 10
588.2309513500002
 20
1316.78601392998
 30
0.0
  0
VERTEX
  5
3CB
330
3C6
100
AcDbEntity
  8
トラップ
  6
CONTINUOUS
 62
     6
100
AcDbVertex
100
AcDb2dVertex
 10
588.0408491579014
 20
1317.000019
 30
0.0
  0
SEQEND
  5
3CC
330
3C6
100
AcDbEntity
  8
トラップ
  6
CONTINUOUS
 62
     6
  0
ARC
  5
3CD
330
1F
100
AcDbEntity
  8
トラップ
  6
CONTINUOUS
 62
     2
100
AcDbCircle
 10
580.8000183500003
 20
1313.37161662998
 30
0.0
 40
8.450000300000006
100
AcDbArc
 50
314.7592773400003
 51
25.42928025084243
  0
LINE
  5
3CE
330
1F
100
AcDbEntity
  8
トラップ
  6
EXLTYPE3
 62
     6
100
AcDbLine
 10
639.0
 20
1212.000019
 30
0.0
 11
508.0
 21
1212.000019
 31
0.0
  0
POLYLINE
  5
3CF
330
1F
100
AcDbEntity
  8
トラップ
  6
CONTINUOUS
 62
     6
100
AcDb2dPolyline
 66
     1
 10
0.0
 20
0.0
 30
0.0
 70
   128
  0
VERTEX
  5
3D0
330
3CF
100
AcDbEntity
  8
トラップ
  6
CONTINUOUS
 62
     6
100
AcDbVertex
100
AcDb2dVertex
 10
589.2500305500002
 20
1243.0001564
 30
0.0
  0
VERTEX
  5
3D1
330
3CF
100
AcDbEntity
  8
トラップ
  6
CONTINUOUS
 62
     6
100
AcDbVertex
100
AcDb2dVertex
 10
589.1322862500001
 20
1244.232387
 30
0.0
  0
VERTEX
  5
3D2
330
3CF
100
AcDbEntity
  8
トラップ
  6
CONTINUOUS
 62
     6
100
AcDbVertex
100
AcDb2dVertex
 10
588.7858446500002
 20
1245.3930006
 30
0.0
  0
VERTEX
  5
3D3
330
3CF
100
AcDbEntity
  8
トラップ
  6
CONTINUOUS
 62
     6
100
AcDbVertex
100
AcDb2dVertex
 10
588.2309513500002
 20
1246.4145538
 30
0.0
  0
VERTEX
  5
3D4
330
3CF
100
AcDbEntity
  8
トラップ
  6
CONTINUOUS
 62
     6
100
AcDbVertex
100
AcDb2dVertex
 10
587.4997194500002
 20
1247.2377285
 30
0.0
  0
VERTEX
  5
3D5
330
3CF
100
AcDbEntity
  8
トラップ
  6
CONTINUOUS
 62
     6
100
AcDbVertex
100
AcDb2dVertex
 10
586.63473845
 20
1247.8146215
 30
0.0
  0
VERTEX
  5
3D6
330
3CF
100
AcDbEntity
  8
トラップ
  6
CONTINUOUS
 62
     6
100
AcDbVertex
100
AcDb2dVertex
 10
585.6862365500001
 20
1248.1116811
 30
0.0
  0
VERTEX
  5
3D7
330
3CF
100
AcDbEntity
  8
トラップ
  6
CONTINUOUS
 62
     6
100
AcDbVertex
100
AcDb2dVertex
 10
584.7093471500002
 20
1248.1116811
 30
0.0
  0
VERTEX
  5
3D8
330
3CF
100
AcDbEntity
  8
トラップ
  6
CONTINUOUS
 62
     6
100
AcDbVertex
100
AcDb2dVertex
 10
583.7609160500001
 20
1247.8146215
 30
0.0
  0
VERTEX
  5
3D9
330
3CF
100
AcDbEntity
  8
トラップ
  6
CONTINUOUS
 62
     6
100
AcDbVertex
100
AcDb2dVertex
 10
582.8959409500001
 20
1247.2377285
 30
0.0
  0
VERTEX
  5
3DA
330
3CF
100
AcDbEntity
  8
トラップ
  6
CONTINUOUS
 62
     6
100
AcDbVertex
100
AcDb2dVertex
 10
582.16470905
 20
1246.4145538
 30
0.0
  0
VERTEX
  5
3DB
330
3CF
100
AcDbEntity
  8
トラップ
  6
CONTINUOUS
 62
     6
100
AcDbVertex
100
AcDb2dVertex
 10
581.60981575
 20
1245.3930006
 30
0.0
  0
VERTEX
  5
3DC
330
3CF
100
AcDbEntity
  8
トラップ
  6
CONTINUOUS
 62
     6
100
AcDbVertex
100
AcDb2dVertex
 10
581.2633741500001
 20
1244.232387
 30
0.0
  0
VERTEX
  5
3DD
330
3CF
100
AcDbEntity
  8
トラップ
  6
CONTINUOUS
 62
     6
100
AcDbVertex
100
AcDb2dVertex
 10
581.1456298500002
 20
1243.0001564
 30
0.0
  0
VERTEX
  5
3DE
330
3CF
100
AcDbEntity
  8
トラップ
  6
CONTINUOUS
 62
     6
100
AcDbVertex
100
AcDb2dVertex
 10
581.2633741500001
 20
1241.7679258
 30
0.0
  0
VERTEX
  5
3DF
330
3CF
100
AcDbEntity
  8
トラップ
  6
CONTINUOUS
 62
     6
100
AcDbVertex
100
AcDb2dVertex
 10
581.60981575
 20
1240.6073122
 30
0.0
  0
VERTEX
  5
3E0
330
3CF
100
AcDbEntity
  8
トラップ
  6
CONTINUOUS
 62
     6
100
AcDbVertex
100
AcDb2dVertex
 10
582.16470905
 20
1239.585759
 30
0.0
  0
VERTEX
  5
3E1
330
3CF
100
AcDbEntity
  8
トラップ
  6
CONTINUOUS
 62
     6
100
AcDbVertex
100
AcDb2dVertex
 10
582.8959409500001
 20
1238.7625843
 30
0.0
  0
VERTEX
  5
3E2
330
3CF
100
AcDbEntity
  8
トラップ
  6
CONTINUOUS
 62
     6
100
AcDbVertex
100
AcDb2dVertex
 10
583.7609160500001
 20
1238.1856913
 30
0.0
  0
VERTEX
  5
3E3
330
3CF
100
AcDbEntity
  8
トラップ
  6
CONTINUOUS
 62
     6
100
AcDbVertex
100
AcDb2dVertex
 10
584.7093471500002
 20
1237.8886317
 30
0.0
  0
VERTEX
  5
3E4
330
3CF
100
AcDbEntity
  8
トラップ
  6
CONTINUOUS
 62
     6
100
AcDbVertex
100
AcDb2dVertex
 10
585.6862365500001
 20
1237.8886317
 30
0.0
  0
VERTEX
  5
3E5
330
3CF
100
AcDbEntity
  8
トラップ
  6
CONTINUOUS
 62
     6
100
AcDbVertex
100
AcDb2dVertex
 10
586.63473845
 20
1238.1856913
 30
0.0
  0
VERTEX
  5
3E6
330
3CF
100
AcDbEntity
  8
トラップ
  6
CONTINUOUS
 62
     6
100
AcDbVertex
100
AcDb2dVertex
 10
587.4997194500002
 20
1238.7625843
 30
0.0
  0
VERTEX
  5
3E7
330
3CF
100
AcDbEntity
  8
トラップ
  6
CONTINUOUS
 62
     6
100
AcDbVertex
100
AcDb2dVertex
 10
588.2309513500002
 20
1239.585759
 30
0.0
  0
VERTEX
  5
3E8
330
3CF
100
AcDbEntity
  8
トラップ
  6
CONTINUOUS
 62
     6
100
AcDbVertex
100
AcDb2dVertex
 10
588.7858446500002
 20
1240.6073122
 30
0.0
  0
VERTEX
  5
3E9
330
3CF
100
AcDbEntity
  8
トラップ
  6
CONTINUOUS
 62
     6
100
AcDbVertex
100
AcDb2dVertex
 10
589.1322862500001
 20
1241.7679258
 30
0.0
  0
VERTEX
  5
3EA
330
3CF
100
AcDbEntity
  8
トラップ
  6
CONTINUOUS
 62
     6
100
AcDbVertex
100
AcDb2dVertex
 10
589.2500305500002
 20
1243.0001564
 30
0.0
  0
SEQEND
  5
3EB
330
3CF
100
AcDbEntity
  8
トラップ
  6
CONTINUOUS
 62
     6
  0
POLYLINE
  5
3EC
330
1F
100
AcDbEntity
  8
トラップ
  6
CONTINUOUS
 62
     6
100
AcDb2dPolyline
 66
     1
 10
0.0
 20
0.0
 30
0.0
 70
   128
  0
VERTEX
  5
3ED
330
3EC
100
AcDbEntity
  8
トラップ
  6
CONTINUOUS
 62
     6
100
AcDbVertex
100
AcDb2dVertex
 10
589.2500305500002
 20
1243.0001564
 30
0.0
  0
VERTEX
  5
3EE
330
3EC
100
AcDbEntity
  8
トラップ
  6
CONTINUOUS
 62
     6
100
AcDbVertex
100
AcDb2dVertex
 10
589.1322862500001
 20
1244.232387
 30
0.0
  0
VERTEX
  5
3EF
330
3EC
100
AcDbEntity
  8
トラップ
  6
CONTINUOUS
 62
     6
100
AcDbVertex
100
AcDb2dVertex
 10
588.7858446500002
 20
1245.3930006
 30
0.0
  0
VERTEX
  5
3F0
330
3EC
100
AcDbEntity
  8
トラップ
  6
CONTINUOUS
 62
     6
100
AcDbVertex
100
AcDb2dVertex
 10
588.2309513500002
 20
1246.4145538
 30
0.0
  0
VERTEX
  5
3F1
330
3EC
100
AcDbEntity
  8
トラップ
  6
CONTINUOUS
 62
     6
100
AcDbVertex
100
AcDb2dVertex
 10
587.4997194500002
 20
1247.2377285
 30
0.0
  0
VERTEX
  5
3F2
330
3EC
100
AcDbEntity
  8
トラップ
  6
CONTINUOUS
 62
     6
100
AcDbVertex
100
AcDb2dVertex
 10
586.63473845
 20
1247.8146215
 30
0.0
  0
VERTEX
  5
3F3
330
3EC
100
AcDbEntity
  8
トラップ
  6
CONTINUOUS
 62
     6
100
AcDbVertex
100
AcDb2dVertex
 10
585.6862365500001
 20
1248.1116811
 30
0.0
  0
VERTEX
  5
3F4
330
3EC
100
AcDbEntity
  8
トラップ
  6
CONTINUOUS
 62
     6
100
AcDbVertex
100
AcDb2dVertex
 10
584.7093471500002
 20
1248.1116811
 30
0.0
  0
VERTEX
  5
3F5
330
3EC
100
AcDbEntity
  8
トラップ
  6
CONTINUOUS
 62
     6
100
AcDbVertex
100
AcDb2dVertex
 10
583.7609160500001
 20
1247.8146215
 30
0.0
  0
VERTEX
  5
3F6
330
3EC
100
AcDbEntity
  8
トラップ
  6
CONTINUOUS
 62
     6
100
AcDbVertex
100
AcDb2dVertex
 10
582.8959409500001
 20
1247.2377285
 30
0.0
  0
VERTEX
  5
3F7
330
3EC
100
AcDbEntity
  8
トラップ
  6
CONTINUOUS
 62
     6
100
AcDbVertex
100
AcDb2dVertex
 10
582.16470905
 20
1246.4145538
 30
0.0
  0
VERTEX
  5
3F8
330
3EC
100
AcDbEntity
  8
トラップ
  6
CONTINUOUS
 62
     6
100
AcDbVertex
100
AcDb2dVertex
 10
581.60981575
 20
1245.3930006
 30
0.0
  0
VERTEX
  5
3F9
330
3EC
100
AcDbEntity
  8
トラップ
  6
CONTINUOUS
 62
     6
100
AcDbVertex
100
AcDb2dVertex
 10
581.2633741500001
 20
1244.232387
 30
0.0
  0
VERTEX
  5
3FA
330
3EC
100
AcDbEntity
  8
トラップ
  6
CONTINUOUS
 62
     6
100
AcDbVertex
100
AcDb2dVertex
 10
581.1456298500002
 20
1243.0001564
 30
0.0
  0
VERTEX
  5
3FB
330
3EC
100
AcDbEntity
  8
トラップ
  6
CONTINUOUS
 62
     6
100
AcDbVertex
100
AcDb2dVertex
 10
581.2633741500001
 20
1241.7679258
 30
0.0
  0
VERTEX
  5
3FC
330
3EC
100
AcDbEntity
  8
トラップ
  6
CONTINUOUS
 62
     6
100
AcDbVertex
100
AcDb2dVertex
 10
581.60981575
 20
1240.6073122
 30
0.0
  0
VERTEX
  5
3FD
330
3EC
100
AcDbEntity
  8
トラップ
  6
CONTINUOUS
 62
     6
100
AcDbVertex
100
AcDb2dVertex
 10
582.16470905
 20
1239.585759
 30
0.0
  0
VERTEX
  5
3FE
330
3EC
100
AcDbEntity
  8
トラップ
  6
CONTINUOUS
 62
     6
100
AcDbVertex
100
AcDb2dVertex
 10
582.8959409500001
 20
1238.7625843
 30
0.0
  0
VERTEX
  5
3FF
330
3EC
100
AcDbEntity
  8
トラップ
  6
CONTINUOUS
 62
     6
100
AcDbVertex
100
AcDb2dVertex
 10
583.7609160500001
 20
1238.1856913
 30
0.0
  0
VERTEX
  5
400
330
3EC
100
AcDbEntity
  8
トラップ
  6
CONTINUOUS
 62
     6
100
AcDbVertex
100
AcDb2dVertex
 10
584.7093471500002
 20
1237.8886317
 30
0.0
  0
VERTEX
  5
401
330
3EC
100
AcDbEntity
  8
トラップ
  6
CONTINUOUS
 62
     6
100
AcDbVertex
100
AcDb2dVertex
 10
585.6862365500001
 20
1237.8886317
 30
0.0
  0
VERTEX
  5
402
330
3EC
100
AcDbEntity
  8
トラップ
  6
CONTINUOUS
 62
     6
100
AcDbVertex
100
AcDb2dVertex
 10
586.63473845
 20
1238.1856913
 30
0.0
  0
VERTEX
  5
403
330
3EC
100
AcDbEntity
  8
トラップ
  6
CONTINUOUS
 62
     6
100
AcDbVertex
100
AcDb2dVertex
 10
587.4997194500002
 20
1238.7625843
 30
0.0
  0
VERTEX
  5
404
330
3EC
100
AcDbEntity
  8
トラップ
  6
CONTINUOUS
 62
     6
100
AcDbVertex
100
AcDb2dVertex
 10
588.2309513500002
 20
1239.585759
 30
0.0
  0
VERTEX
  5
405
330
3EC
100
AcDbEntity
  8
トラップ
  6
CONTINUOUS
 62
     6
100
AcDbVertex
100
AcDb2dVertex
 10
588.7858446500002
 20
1240.6073122
 30
0.0
  0
VERTEX
  5
406
330
3EC
100
AcDbEntity
  8
トラップ
  6
CONTINUOUS
 62
     6
100
AcDbVertex
100
AcDb2dVertex
 10
589.1322862500001
 20
1241.7679258
 30
0.0
  0
VERTEX
  5
407
330
3EC
100
AcDbEntity
  8
トラップ
  6
CONTINUOUS
 62
     6
100
AcDbVertex
100
AcDb2dVertex
 10
589.2500305500002
 20
1243.0001564
 30
0.0
  0
SEQEND
  5
408
330
3EC
100
AcDbEntity
  8
トラップ
  6
CONTINUOUS
 62
     6
  0
LINE
  5
409
330
1F
100
AcDbEntity
  8
トラップ
  6
CONTINUOUS
 62
     2
100
AcDbLine
 10
1491.32476795
 20
1307.37155552998
 30
0.0
 11
1457.82501205
 21
1307.37155552998
 31
0.0
  0
ARC
  5
40A
330
1F
100
AcDbEntity
  8
トラップ
  6
CONTINUOUS
 62
     2
100
AcDbCircle
 10
1462.8749083
 20
1198.5359688
 30
0.0
 40
1.9999999
100
AcDbArc
 50
180.0
 51
209.9980468800041
  0
ARC
  5
40B
330
1F
100
AcDbEntity
  8
トラップ
  6
CONTINUOUS
 62
     2
100
AcDbCircle
 10
1459.874877799999
 20
1195.732318899999
 30
0.0
 40
1.9999999
100
AcDbArc
 50
0.0
 51
29.99809264999456
  0
LINE
  5
40C
330
1F
100
AcDbEntity
  8
トラップ
  6
CONTINUOUS
 62
     2
100
AcDbLine
 10
1460.8749389
 20
1198.5359688
 30
0.0
 11
1460.8749389
 21
1234.2000313
 31
0.0
  0
LINE
  5
40D
330
1F
100
AcDbEntity
  8
トラップ
  6
CONTINUOUS
 62
     2
100
AcDbLine
 10
1491.32507315
 20
1249.0000648
 30
0.0
 11
1457.82470685
 21
1249.0000648
 31
0.0
  0
ARC
  5
40E
330
1F
100
AcDbEntity
  8
トラップ
  6
CONTINUOUS
 62
     2
100
AcDbCircle
 10
1463.77487165
 20
1243.0001564
 30
0.0
 40
8.450000300000006
100
AcDbArc
 50
134.7615051299997
 51
225.2407531699997
  0
ARC
  5
40F
330
1F
100
AcDbEntity
  8
トラップ
  6
CONTINUOUS
 62
     2
100
AcDbCircle
 10
1485.37490835
 20
1243.0001564
 30
0.0
 40
8.450000300000006
100
AcDbArc
 50
314.7592773400013
 51
45.23849487000022
  0
POLYLINE
  5
410
330
1F
100
AcDbEntity
  8
トラップ
  6
CONTINUOUS
 62
     2
100
AcDb2dPolyline
 66
     1
 10
0.0
 20
0.0
 30
0.0
 70
   128
  0
VERTEX
  5
411
330
410
100
AcDbEntity
  8
トラップ
  6
CONTINUOUS
 62
     2
100
AcDbVertex
100
AcDb2dVertex
 10
1493.82492055
 20
1243.0001564
 30
0.0
  0
VERTEX
  5
412
330
410
100
AcDbEntity
  8
トラップ
  6
CONTINUOUS
 62
     2
100
AcDbVertex
100
AcDb2dVertex
 10
1493.70717625
 20
1244.232387
 30
0.0
  0
VERTEX
  5
413
330
410
100
AcDbEntity
  8
トラップ
  6
CONTINUOUS
 62
     2
100
AcDbVertex
100
AcDb2dVertex
 10
1493.36073465
 20
1245.3930006
 30
0.0
  0
VERTEX
  5
414
330
410
100
AcDbEntity
  8
トラップ
  6
CONTINUOUS
 62
     2
100
AcDbVertex
100
AcDb2dVertex
 10
1492.80584135
 20
1246.4145538
 30
0.0
  0
VERTEX
  5
415
330
410
100
AcDbEntity
  8
トラップ
  6
CONTINUOUS
 62
     2
100
AcDbVertex
100
AcDb2dVertex
 10
1492.07460945
 20
1247.2377285
 30
0.0
  0
VERTEX
  5
416
330
410
100
AcDbEntity
  8
トラップ
  6
CONTINUOUS
 62
     2
100
AcDbVertex
100
AcDb2dVertex
 10
1491.20962845
 20
1247.8146215
 30
0.0
  0
VERTEX
  5
417
330
410
100
AcDbEntity
  8
トラップ
  6
CONTINUOUS
 62
     2
100
AcDbVertex
100
AcDb2dVertex
 10
1490.26112655
 20
1248.1116811
 30
0.0
  0
VERTEX
  5
418
330
410
100
AcDbEntity
  8
トラップ
  6
CONTINUOUS
 62
     2
100
AcDbVertex
100
AcDb2dVertex
 10
1489.28423715
 20
1248.1116811
 30
0.0
  0
VERTEX
  5
419
330
410
100
AcDbEntity
  8
トラップ
  6
CONTINUOUS
 62
     2
100
AcDbVertex
100
AcDb2dVertex
 10
1488.33580605
 20
1247.8146215
 30
0.0
  0
VERTEX
  5
41A
330
410
100
AcDbEntity
  8
トラップ
  6
CONTINUOUS
 62
     2
100
AcDbVertex
100
AcDb2dVertex
 10
1487.47083095
 20
1247.2377285
 30
0.0
  0
VERTEX
  5
41B
330
410
100
AcDbEntity
  8
トラップ
  6
CONTINUOUS
 62
     2
100
AcDbVertex
100
AcDb2dVertex
 10
1486.73959905
 20
1246.4145538
 30
0.0
  0
VERTEX
  5
41C
330
410
100
AcDbEntity
  8
トラップ
  6
CONTINUOUS
 62
     2
100
AcDbVertex
100
AcDb2dVertex
 10
1486.18470575
 20
1245.3930006
 30
0.0
  0
VERTEX
  5
41D
330
410
100
AcDbEntity
  8
トラップ
  6
CONTINUOUS
 62
     2
100
AcDbVertex
100
AcDb2dVertex
 10
1485.83826415
 20
1244.232387
 30
0.0
  0
VERTEX
  5
41E
330
410
100
AcDbEntity
  8
トラップ
  6
CONTINUOUS
 62
     2
100
AcDbVertex
100
AcDb2dVertex
 10
1485.72051985
 20
1243.0001564
 30
0.0
  0
VERTEX
  5
41F
330
410
100
AcDbEntity
  8
トラップ
  6
CONTINUOUS
 62
     2
100
AcDbVertex
100
AcDb2dVertex
 10
1485.83826415
 20
1241.7679258
 30
0.0
  0
VERTEX
  5
420
330
410
100
AcDbEntity
  8
トラップ
  6
CONTINUOUS
 62
     2
100
AcDbVertex
100
AcDb2dVertex
 10
1486.18470575
 20
1240.6073122
 30
0.0
  0
VERTEX
  5
421
330
410
100
AcDbEntity
  8
トラップ
  6
CONTINUOUS
 62
     2
100
AcDbVertex
100
AcDb2dVertex
 10
1486.73959905
 20
1239.585759
 30
0.0
  0
VERTEX
  5
422
330
410
100
AcDbEntity
  8
トラップ
  6
CONTINUOUS
 62
     2
100
AcDbVertex
100
AcDb2dVertex
 10
1487.47083095
 20
1238.7625843
 30
0.0
  0
VERTEX
  5
423
330
410
100
AcDbEntity
  8
トラップ
  6
CONTINUOUS
 62
     2
100
AcDbVertex
100
AcDb2dVertex
 10
1488.33580605
 20
1238.1856913
 30
0.0
  0
VERTEX
  5
424
330
410
100
AcDbEntity
  8
トラップ
  6
CONTINUOUS
 62
     2
100
AcDbVertex
100
AcDb2dVertex
 10
1489.28423715
 20
1237.8886317
 30
0.0
  0
VERTEX
  5
425
330
410
100
AcDbEntity
  8
トラップ
  6
CONTINUOUS
 62
     2
100
AcDbVertex
100
AcDb2dVertex
 10
1490.26112655
 20
1237.8886317
 30
0.0
  0
VERTEX
  5
426
330
410
100
AcDbEntity
  8
トラップ
  6
CONTINUOUS
 62
     2
100
AcDbVertex
100
AcDb2dVertex
 10
1491.20962845
 20
1238.1856913
 30
0.0
  0
VERTEX
  5
427
330
410
100
AcDbEntity
  8
トラップ
  6
CONTINUOUS
 62
     2
100
AcDbVertex
100
AcDb2dVertex
 10
1492.07460945
 20
1238.7625843
 30
0.0
  0
VERTEX
  5
428
330
410
100
AcDbEntity
  8
トラップ
  6
CONTINUOUS
 62
     2
100
AcDbVertex
100
AcDb2dVertex
 10
1492.80584135
 20
1239.585759
 30
0.0
  0
VERTEX
  5
429
330
410
100
AcDbEntity
  8
トラップ
  6
CONTINUOUS
 62
     2
100
AcDbVertex
100
AcDb2dVertex
 10
1493.36073465
 20
1240.6073122
 30
0.0
  0
VERTEX
  5
42A
330
410
100
AcDbEntity
  8
トラップ
  6
CONTINUOUS
 62
     2
100
AcDbVertex
100
AcDb2dVertex
 10
1493.70717625
 20
1241.7679258
 30
0.0
  0
VERTEX
  5
42B
330
410
100
AcDbEntity
  8
トラップ
  6
CONTINUOUS
 62
     2
100
AcDbVertex
100
AcDb2dVertex
 10
1493.82492055
 20
1243.0001564
 30
0.0
  0
SEQEND
  5
42C
330
410
100
AcDbEntity
  8
トラップ
  6
CONTINUOUS
 62
     2
  0
LINE
  5
42D
330
1F
100
AcDbEntity
  8
トラップ
  6
CONTINUOUS
 62
     2
100
AcDbLine
 10
1491.32476795
 20
1237.0000954
 30
0.0
 11
1457.82501205
 21
1237.0000954
 31
0.0
  0
ARC
  5
42E
330
1F
100
AcDbEntity
  8
トラップ
  6
CONTINUOUS
 62
     2
100
AcDbCircle
 10
1459.57488995
 20
1234.199955
 30
0.0
 40
1.3
100
AcDbArc
 50
0.0
 51
90.00000000000001
  0
ARC
  5
42F
330
1F
100
AcDbEntity
  8
トラップ
  6
CONTINUOUS
 62
     2
100
AcDbCircle
 10
1489.57488995
 20
1234.199955
 30
0.0
 40
1.3
100
AcDbArc
 50
90.00000000000001
 51
180.0
  0
LINE
  5
430
330
1F
100
AcDbEntity
  8
トラップ
  6
CONTINUOUS
 62
     2
100
AcDbLine
 10
1459.57488995
 20
1235.5000038
 30
0.0
 11
1489.57488995
 21
1235.5000038
 31
0.0
  0
LINE
  5
431
330
1F
100
AcDbEntity
  8
トラップ
  6
CONTINUOUS
 62
     2
100
AcDbLine
 10
1489.57488995
 20
1235.5000038
 30
0.0
 11
1489.57488995
 21
1237.0000954
 31
0.0
  0
LINE
  5
432
330
1F
100
AcDbEntity
  8
トラップ
  6
CONTINUOUS
 62
     2
100
AcDbLine
 10
1459.57488995
 20
1235.5000038
 30
0.0
 11
1459.57488995
 21
1237.0000954
 31
0.0
  0
ARC
  5
433
330
1F
100
AcDbEntity
  8
トラップ
  6
CONTINUOUS
 62
     2
100
AcDbCircle
 10
1486.2748717
 20
1198.5359688
 30
0.0
 40
1.9999999
100
AcDbArc
 50
330.0019531199969
 51
0.0
  0
ARC
  5
434
330
1F
100
AcDbEntity
  8
トラップ
  6
CONTINUOUS
 62
     2
100
AcDbCircle
 10
1489.2749022
 20
1195.732318899999
 30
0.0
 40
1.9999999
100
AcDbArc
 50
150.0019073500054
 51
180.0
  0
LINE
  5
435
330
1F
100
AcDbEntity
  8
トラップ
  6
CONTINUOUS
 62
     2
100
AcDbLine
 10
1487.542877
 20
1196.7322273
 30
0.0
 11
1488.006979872001
 21
1197.536014403296
 31
0.0
  0
LINE
  5
436
330
1F
100
AcDbEntity
  8
トラップ
  6
CONTINUOUS
 62
     2
100
AcDbLine
 10
1461.606902999999
 20
1196.7322273
 30
0.0
 11
1461.142867970721
 21
1197.535896905412
 31
0.0
  0
LINE
  5
437
330
1F
100
AcDbEntity
  8
トラップ
  6
CONTINUOUS
 62
     2
100
AcDbLine
 10
1488.274841199999
 20
1198.524941603072
 30
0.0
 11
1488.274841199999
 21
1234.2000313
 31
0.0
  0
LINE
  5
438
330
1F
100
AcDbEntity
  8
トラップ
  6
CONTINUOUS
 62
     2
100
AcDbLine
 10
1458.07479835
 20
1237.0000954
 30
0.0
 11
1459.57488995
 21
1235.5000038
 31
0.0
  0
LINE
  5
439
330
1F
100
AcDbEntity
  8
トラップ
  6
CONTINUOUS
 62
     2
100
AcDbLine
 10
1489.57488995
 20
1235.5000038
 30
0.0
 11
1491.0749817
 21
1237.0000954
 31
0.0
  0
LINE
  5
43A
330
1F
100
AcDbEntity
  8
トラップ
  6
CONTINUOUS
 62
     2
100
AcDbLine
 10
1487.274932799999
 20
1158.7500496
 30
0.0
 11
1487.274932799999
 21
1195.743364218476
 31
0.0
  0
POLYLINE
  5
43B
330
1F
100
AcDbEntity
  8
トラップ
  6
CONTINUOUS
 62
     6
100
AcDb2dPolyline
 66
     1
 10
0.0
 20
0.0
 30
0.0
 70
   128
  0
VERTEX
  5
43C
330
43B
100
AcDbEntity
  8
トラップ
  6
CONTINUOUS
 62
     6
100
AcDbVertex
100
AcDb2dVertex
 10
1493.82492055
 20
1243.0001564
 30
0.0
  0
VERTEX
  5
43D
330
43B
100
AcDbEntity
  8
トラップ
  6
CONTINUOUS
 62
     6
100
AcDbVertex
100
AcDb2dVertex
 10
1493.70717625
 20
1244.232387
 30
0.0
  0
VERTEX
  5
43E
330
43B
100
AcDbEntity
  8
トラップ
  6
CONTINUOUS
 62
     6
100
AcDbVertex
100
AcDb2dVertex
 10
1493.36073465
 20
1245.3930006
 30
0.0
  0
VERTEX
  5
43F
330
43B
100
AcDbEntity
  8
トラップ
  6
CONTINUOUS
 62
     6
100
AcDbVertex
100
AcDb2dVertex
 10
1492.80584135
 20
1246.4145538
 30
0.0
  0
VERTEX
  5
440
330
43B
100
AcDbEntity
  8
トラップ
  6
CONTINUOUS
 62
     6
100
AcDbVertex
100
AcDb2dVertex
 10
1492.07460945
 20
1247.2377285
 30
0.0
  0
VERTEX
  5
441
330
43B
100
AcDbEntity
  8
トラップ
  6
CONTINUOUS
 62
     6
100
AcDbVertex
100
AcDb2dVertex
 10
1491.20962845
 20
1247.8146215
 30
0.0
  0
VERTEX
  5
442
330
43B
100
AcDbEntity
  8
トラップ
  6
CONTINUOUS
 62
     6
100
AcDbVertex
100
AcDb2dVertex
 10
1490.26112655
 20
1248.1116811
 30
0.0
  0
VERTEX
  5
443
330
43B
100
AcDbEntity
  8
トラップ
  6
CONTINUOUS
 62
     6
100
AcDbVertex
100
AcDb2dVertex
 10
1489.28423715
 20
1248.1116811
 30
0.0
  0
VERTEX
  5
444
330
43B
100
AcDbEntity
  8
トラップ
  6
CONTINUOUS
 62
     6
100
AcDbVertex
100
AcDb2dVertex
 10
1488.33580605
 20
1247.8146215
 30
0.0
  0
VERTEX
  5
445
330
43B
100
AcDbEntity
  8
トラップ
  6
CONTINUOUS
 62
     6
100
AcDbVertex
100
AcDb2dVertex
 10
1487.47083095
 20
1247.2377285
 30
0.0
  0
VERTEX
  5
446
330
43B
100
AcDbEntity
  8
トラップ
  6
CONTINUOUS
 62
     6
100
AcDbVertex
100
AcDb2dVertex
 10
1486.73959905
 20
1246.4145538
 30
0.0
  0
VERTEX
  5
447
330
43B
100
AcDbEntity
  8
トラップ
  6
CONTINUOUS
 62
     6
100
AcDbVertex
100
AcDb2dVertex
 10
1486.18470575
 20
1245.3930006
 30
0.0
  0
VERTEX
  5
448
330
43B
100
AcDbEntity
  8
トラップ
  6
CONTINUOUS
 62
     6
100
AcDbVertex
100
AcDb2dVertex
 10
1485.83826415
 20
1244.232387
 30
0.0
  0
VERTEX
  5
449
330
43B
100
AcDbEntity
  8
トラップ
  6
CONTINUOUS
 62
     6
100
AcDbVertex
100
AcDb2dVertex
 10
1485.72051985
 20
1243.0001564
 30
0.0
  0
VERTEX
  5
44A
330
43B
100
AcDbEntity
  8
トラップ
  6
CONTINUOUS
 62
     6
100
AcDbVertex
100
AcDb2dVertex
 10
1485.83826415
 20
1241.7679258
 30
0.0
  0
VERTEX
  5
44B
330
43B
100
AcDbEntity
  8
トラップ
  6
CONTINUOUS
 62
     6
100
AcDbVertex
100
AcDb2dVertex
 10
1486.18470575
 20
1240.6073122
 30
0.0
  0
VERTEX
  5
44C
330
43B
100
AcDbEntity
  8
トラップ
  6
CONTINUOUS
 62
     6
100
AcDbVertex
100
AcDb2dVertex
 10
1486.73959905
 20
1239.585759
 30
0.0
  0
VERTEX
  5
44D
330
43B
100
AcDbEntity
  8
トラップ
  6
CONTINUOUS
 62
     6
100
AcDbVertex
100
AcDb2dVertex
 10
1487.47083095
 20
1238.7625843
 30
0.0
  0
VERTEX
  5
44E
330
43B
100
AcDbEntity
  8
トラップ
  6
CONTINUOUS
 62
     6
100
AcDbVertex
100
AcDb2dVertex
 10
1488.33580605
 20
1238.1856913
 30
0.0
  0
VERTEX
  5
44F
330
43B
100
AcDbEntity
  8
トラップ
  6
CONTINUOUS
 62
     6
100
AcDbVertex
100
AcDb2dVertex
 10
1489.28423715
 20
1237.8886317
 30
0.0
  0
VERTEX
  5
450
330
43B
100
AcDbEntity
  8
トラップ
  6
CONTINUOUS
 62
     6
100
AcDbVertex
100
AcDb2dVertex
 10
1490.26112655
 20
1237.8886317
 30
0.0
  0
VERTEX
  5
451
330
43B
100
AcDbEntity
  8
トラップ
  6
CONTINUOUS
 62
     6
100
AcDbVertex
100
AcDb2dVertex
 10
1491.20962845
 20
1238.1856913
 30
0.0
  0
VERTEX
  5
452
330
43B
100
AcDbEntity
  8
トラップ
  6
CONTINUOUS
 62
     6
100
AcDbVertex
100
AcDb2dVertex
 10
1492.07460945
 20
1238.7625843
 30
0.0
  0
VERTEX
  5
453
330
43B
100
AcDbEntity
  8
トラップ
  6
CONTINUOUS
 62
     6
100
AcDbVertex
100
AcDb2dVertex
 10
1492.80584135
 20
1239.585759
 30
0.0
  0
VERTEX
  5
454
330
43B
100
AcDbEntity
  8
トラップ
  6
CONTINUOUS
 62
     6
100
AcDbVertex
100
AcDb2dVertex
 10
1493.36073465
 20
1240.6073122
 30
0.0
  0
VERTEX
  5
455
330
43B
100
AcDbEntity
  8
トラップ
  6
CONTINUOUS
 62
     6
100
AcDbVertex
100
AcDb2dVertex
 10
1493.70717625
 20
1241.7679258
 30
0.0
  0
VERTEX
  5
456
330
43B
100
AcDbEntity
  8
トラップ
  6
CONTINUOUS
 62
     6
100
AcDbVertex
100
AcDb2dVertex
 10
1493.82492055
 20
1243.0001564
 30
0.0
  0
SEQEND
  5
457
330
43B
100
AcDbEntity
  8
トラップ
  6
CONTINUOUS
 62
     6
  0
POLYLINE
  5
458
330
1F
100
AcDbEntity
  8
トラップ
  6
CONTINUOUS
 62
     6
100
AcDb2dPolyline
 66
     1
 10
0.0
 20
0.0
 30
0.0
 70
   128
  0
VERTEX
  5
459
330
458
100
AcDbEntity
  8
トラップ
  6
CONTINUOUS
 62
     6
100
AcDbVertex
100
AcDb2dVertex
 10
1482.59445175
 20
1243.0001564
 30
0.0
  0
VERTEX
  5
45A
330
458
100
AcDbEntity
  8
トラップ
  6
CONTINUOUS
 62
     6
100
AcDbVertex
100
AcDb2dVertex
 10
1482.36138355
 20
1244.232387
 30
0.0
  0
VERTEX
  5
45B
330
458
100
AcDbEntity
  8
トラップ
  6
CONTINUOUS
 62
     6
100
AcDbVertex
100
AcDb2dVertex
 10
1481.67585015
 20
1245.3930006
 30
0.0
  0
VERTEX
  5
45C
330
458
100
AcDbEntity
  8
トラップ
  6
CONTINUOUS
 62
     6
100
AcDbVertex
100
AcDb2dVertex
 10
1480.57755415
 20
1246.4145538
 30
0.0
  0
VERTEX
  5
45D
330
458
100
AcDbEntity
  8
トラップ
  6
CONTINUOUS
 62
     6
100
AcDbVertex
100
AcDb2dVertex
 10
1479.13041755
 20
1247.2377285
 30
0.0
  0
VERTEX
  5
45E
330
458
100
AcDbEntity
  8
トラップ
  6
CONTINUOUS
 62
     6
100
AcDbVertex
100
AcDb2dVertex
 10
1477.41860155
 20
1247.8146215
 30
0.0
  0
VERTEX
  5
45F
330
458
100
AcDbEntity
  8
トラップ
  6
CONTINUOUS
 62
     6
100
AcDbVertex
100
AcDb2dVertex
 10
1475.54152475
 20
1248.1116811
 30
0.0
  0
VERTEX
  5
460
330
458
100
AcDbEntity
  8
トラップ
  6
CONTINUOUS
 62
     6
100
AcDbVertex
100
AcDb2dVertex
 10
1473.60825525
 20
1248.1116811
 30
0.0
  0
VERTEX
  5
461
330
458
100
AcDbEntity
  8
トラップ
  6
CONTINUOUS
 62
     6
100
AcDbVertex
100
AcDb2dVertex
 10
1471.73117845
 20
1247.8146215
 30
0.0
  0
VERTEX
  5
462
330
458
100
AcDbEntity
  8
トラップ
  6
CONTINUOUS
 62
     6
100
AcDbVertex
100
AcDb2dVertex
 10
1470.01936245
 20
1247.2377285
 30
0.0
  0
VERTEX
  5
463
330
458
100
AcDbEntity
  8
トラップ
  6
CONTINUOUS
 62
     6
100
AcDbVertex
100
AcDb2dVertex
 10
1468.57222585
 20
1246.4145538
 30
0.0
  0
VERTEX
  5
464
330
458
100
AcDbEntity
  8
トラップ
  6
CONTINUOUS
 62
     6
100
AcDbVertex
100
AcDb2dVertex
 10
1467.47392985
 20
1245.3930006
 30
0.0
  0
VERTEX
  5
465
330
458
100
AcDbEntity
  8
トラップ
  6
CONTINUOUS
 62
     6
100
AcDbVertex
100
AcDb2dVertex
 10
1466.78839645
 20
1244.232387
 30
0.0
  0
VERTEX
  5
466
330
458
100
AcDbEntity
  8
トラップ
  6
CONTINUOUS
 62
     6
100
AcDbVertex
100
AcDb2dVertex
 10
1466.55532825
 20
1243.0001564
 30
0.0
  0
VERTEX
  5
467
330
458
100
AcDbEntity
  8
トラップ
  6
CONTINUOUS
 62
     6
100
AcDbVertex
100
AcDb2dVertex
 10
1466.78839645
 20
1241.7679258
 30
0.0
  0
VERTEX
  5
468
330
458
100
AcDbEntity
  8
トラップ
  6
CONTINUOUS
 62
     6
100
AcDbVertex
100
AcDb2dVertex
 10
1467.47392985
 20
1240.6073122
 30
0.0
  0
VERTEX
  5
469
330
458
100
AcDbEntity
  8
トラップ
  6
CONTINUOUS
 62
     6
100
AcDbVertex
100
AcDb2dVertex
 10
1468.57222585
 20
1239.585759
 30
0.0
  0
VERTEX
  5
46A
330
458
100
AcDbEntity
  8
トラップ
  6
CONTINUOUS
 62
     6
100
AcDbVertex
100
AcDb2dVertex
 10
1470.01936245
 20
1238.7625843
 30
0.0
  0
VERTEX
  5
46B
330
458
100
AcDbEntity
  8
トラップ
  6
CONTINUOUS
 62
     6
100
AcDbVertex
100
AcDb2dVertex
 10
1471.73117845
 20
1238.1856913
 30
0.0
  0
VERTEX
  5
46C
330
458
100
AcDbEntity
  8
トラップ
  6
CONTINUOUS
 62
     6
100
AcDbVertex
100
AcDb2dVertex
 10
1473.60825525
 20
1237.8886317
 30
0.0
  0
VERTEX
  5
46D
330
458
100
AcDbEntity
  8
トラップ
  6
CONTINUOUS
 62
     6
100
AcDbVertex
100
AcDb2dVertex
 10
1475.54152475
 20
1237.8886317
 30
0.0
  0
VERTEX
  5
46E
330
458
100
AcDbEntity
  8
トラップ
  6
CONTINUOUS
 62
     6
100
AcDbVertex
100
AcDb2dVertex
 10
1477.41860155
 20
1238.1856913
 30
0.0
  0
VERTEX
  5
46F
330
458
100
AcDbEntity
  8
トラップ
  6
CONTINUOUS
 62
     6
100
AcDbVertex
100
AcDb2dVertex
 10
1479.13041755
 20
1238.7625843
 30
0.0
  0
VERTEX
  5
470
330
458
100
AcDbEntity
  8
トラップ
  6
CONTINUOUS
 62
     6
100
AcDbVertex
100
AcDb2dVertex
 10
1480.57755415
 20
1239.585759
 30
0.0
  0
VERTEX
  5
471
330
458
100
AcDbEntity
  8
トラップ
  6
CONTINUOUS
 62
     6
100
AcDbVertex
100
AcDb2dVertex
 10
1481.67585015
 20
1240.6073122
 30
0.0
  0
VERTEX
  5
472
330
458
100
AcDbEntity
  8
トラップ
  6
CONTINUOUS
 62
     6
100
AcDbVertex
100
AcDb2dVertex
 10
1482.36138355
 20
1241.7679258
 30
0.0
  0
VERTEX
  5
473
330
458
100
AcDbEntity
  8
トラップ
  6
CONTINUOUS
 62
     6
100
AcDbVertex
100
AcDb2dVertex
 10
1482.59445175
 20
1243.0001564
 30
0.0
  0
SEQEND
  5
474
330
458
100
AcDbEntity
  8
トラップ
  6
CONTINUOUS
 62
     6
  0
POLYLINE
  5
475
330
1F
100
AcDbEntity
  8
トラップ
  6
CONTINUOUS
 62
     6
100
AcDb2dPolyline
 66
     1
 10
0.0
 20
0.0
 30
0.0
 70
   128
  0
VERTEX
  5
476
330
475
100
AcDbEntity
  8
トラップ
  6
CONTINUOUS
 62
     6
100
AcDbVertex
100
AcDb2dVertex
 10
1463.42926015
 20
1243.0001564
 30
0.0
  0
VERTEX
  5
477
330
475
100
AcDbEntity
  8
トラップ
  6
CONTINUOUS
 62
     6
100
AcDbVertex
100
AcDb2dVertex
 10
1463.31272605
 20
1244.232387
 30
0.0
  0
VERTEX
  5
478
330
475
100
AcDbEntity
  8
トラップ
  6
CONTINUOUS
 62
     6
100
AcDbVertex
100
AcDb2dVertex
 10
1462.96996695
 20
1245.3930006
 30
0.0
  0
VERTEX
  5
479
330
475
100
AcDbEntity
  8
トラップ
  6
CONTINUOUS
 62
     6
100
AcDbVertex
100
AcDb2dVertex
 10
1462.42086435
 20
1246.4145538
 30
0.0
  0
VERTEX
  5
47A
330
475
100
AcDbEntity
  8
トラップ
  6
CONTINUOUS
 62
     6
100
AcDbVertex
100
AcDb2dVertex
 10
1461.69731475
 20
1247.2377285
 30
0.0
  0
VERTEX
  5
47B
330
475
100
AcDbEntity
  8
トラップ
  6
CONTINUOUS
 62
     6
100
AcDbVertex
100
AcDb2dVertex
 10
1460.84136955
 20
1247.8146215
 30
0.0
  0
VERTEX
  5
47C
330
475
100
AcDbEntity
  8
トラップ
  6
CONTINUOUS
 62
     6
100
AcDbVertex
100
AcDb2dVertex
 10
1459.90283625
 20
1248.1116811
 30
0.0
  0
VERTEX
  5
47D
330
475
100
AcDbEntity
  8
トラップ
  6
CONTINUOUS
 62
     6
100
AcDbVertex
100
AcDb2dVertex
 10
1458.93619895
 20
1248.1116811
 30
0.0
  0
VERTEX
  5
47E
330
475
100
AcDbEntity
  8
トラップ
  6
CONTINUOUS
 62
     6
100
AcDbVertex
100
AcDb2dVertex
 10
1457.99759485
 20
1247.8146215
 30
0.0
  0
VERTEX
  5
47F
330
475
100
AcDbEntity
  8
トラップ
  6
CONTINUOUS
 62
     6
100
AcDbVertex
100
AcDb2dVertex
 10
1457.14164375
 20
1247.2377285
 30
0.0
  0
VERTEX
  5
480
330
475
100
AcDbEntity
  8
トラップ
  6
CONTINUOUS
 62
     6
100
AcDbVertex
100
AcDb2dVertex
 10
1456.41809415
 20
1246.4145538
 30
0.0
  0
VERTEX
  5
481
330
475
100
AcDbEntity
  8
トラップ
  6
CONTINUOUS
 62
     6
100
AcDbVertex
100
AcDb2dVertex
 10
1455.86899145
 20
1245.3930006
 30
0.0
  0
VERTEX
  5
482
330
475
100
AcDbEntity
  8
トラップ
  6
CONTINUOUS
 62
     6
100
AcDbVertex
100
AcDb2dVertex
 10
1455.52623245
 20
1244.232387
 30
0.0
  0
VERTEX
  5
483
330
475
100
AcDbEntity
  8
トラップ
  6
CONTINUOUS
 62
     6
100
AcDbVertex
100
AcDb2dVertex
 10
1455.40969835
 20
1243.0001564
 30
0.0
  0
VERTEX
  5
484
330
475
100
AcDbEntity
  8
トラップ
  6
CONTINUOUS
 62
     6
100
AcDbVertex
100
AcDb2dVertex
 10
1455.52623245
 20
1241.7679258
 30
0.0
  0
VERTEX
  5
485
330
475
100
AcDbEntity
  8
トラップ
  6
CONTINUOUS
 62
     6
100
AcDbVertex
100
AcDb2dVertex
 10
1455.86899145
 20
1240.6073122
 30
0.0
  0
VERTEX
  5
486
330
475
100
AcDbEntity
  8
トラップ
  6
CONTINUOUS
 62
     6
100
AcDbVertex
100
AcDb2dVertex
 10
1456.41809415
 20
1239.585759
 30
0.0
  0
VERTEX
  5
487
330
475
100
AcDbEntity
  8
トラップ
  6
CONTINUOUS
 62
     6
100
AcDbVertex
100
AcDb2dVertex
 10
1457.14164375
 20
1238.7625843
 30
0.0
  0
VERTEX
  5
488
330
475
100
AcDbEntity
  8
トラップ
  6
CONTINUOUS
 62
     6
100
AcDbVertex
100
AcDb2dVertex
 10
1457.99759485
 20
1238.1856913
 30
0.0
  0
VERTEX
  5
489
330
475
100
AcDbEntity
  8
トラップ
  6
CONTINUOUS
 62
     6
100
AcDbVertex
100
AcDb2dVertex
 10
1458.93619895
 20
1237.8886317
 30
0.0
  0
VERTEX
  5
48A
330
475
100
AcDbEntity
  8
トラップ
  6
CONTINUOUS
 62
     6
100
AcDbVertex
100
AcDb2dVertex
 10
1459.90283625
 20
1237.8886317
 30
0.0
  0
VERTEX
  5
48B
330
475
100
AcDbEntity
  8
トラップ
  6
CONTINUOUS
 62
     6
100
AcDbVertex
100
AcDb2dVertex
 10
1460.84136955
 20
1238.1856913
 30
0.0
  0
VERTEX
  5
48C
330
475
100
AcDbEntity
  8
トラップ
  6
CONTINUOUS
 62
     6
100
AcDbVertex
100
AcDb2dVertex
 10
1461.69731475
 20
1238.7625843
 30
0.0
  0
VERTEX
  5
48D
330
475
100
AcDbEntity
  8
トラップ
  6
CONTINUOUS
 62
     6
100
AcDbVertex
100
AcDb2dVertex
 10
1462.42086435
 20
1239.585759
 30
0.0
  0
VERTEX
  5
48E
330
475
100
AcDbEntity
  8
トラップ
  6
CONTINUOUS
 62
     6
100
AcDbVertex
100
AcDb2dVertex
 10
1462.96996695
 20
1240.6073122
 30
0.0
  0
VERTEX
  5
48F
330
475
100
AcDbEntity
  8
トラップ
  6
CONTINUOUS
 62
     6
100
AcDbVertex
100
AcDb2dVertex
 10
1463.31272605
 20
1241.7679258
 30
0.0
  0
VERTEX
  5
490
330
475
100
AcDbEntity
  8
トラップ
  6
CONTINUOUS
 62
     6
100
AcDbVertex
100
AcDb2dVertex
 10
1463.42926015
 20
1243.0001564
 30
0.0
  0
SEQEND
  5
491
330
475
100
AcDbEntity
  8
トラップ
  6
CONTINUOUS
 62
     6
  0
LINE
  5
492
330
1F
100
AcDbEntity
  8
トラップ
  6
CONTINUOUS
 62
     6
100
AcDbLine
 10
1487.2747801
 20
1198.0000801
 30
0.0
 11
1461.8749999
 21
1198.0000801
 31
0.0
  0
ARC
  5
493
330
1F
100
AcDbEntity
  8
トラップ
  6
CONTINUOUS
 62
     2
100
AcDbCircle
 10
1552.574981499999
 20
1159.9989815
 30
0.0
 40
1.3
100
AcDbArc
 50
120.0018005400026
 51
180.0
  0
LINE
  5
494
330
1F
100
AcDbEntity
  8
トラップ
  6
CONTINUOUS
 62
     2
100
AcDbLine
 10
1551.924957099999
 20
1161.1247749
 30
0.0
 11
1552.575134099999
 21
1161.5001411
 31
0.0
  0
ARC
  5
495
330
1F
100
AcDbEntity
  8
トラップ
  6
CONTINUOUS
 62
     2
100
AcDbCircle
 10
1552.574981499999
 20
1159.9989815
 30
0.0
 40
1.3
100
AcDbArc
 50
120.0018005400026
 51
180.0
  0
LINE
  5
496
330
1F
100
AcDbEntity
  8
トラップ
  6
CONTINUOUS
 62
     2
100
AcDbLine
 10
1551.274932699999
 20
1158.7500496
 30
0.0
 11
1551.274932699999
 21
1159.9989815
 31
0.0
  0
ARC
  5
497
330
1F
100
AcDbEntity
  8
トラップ
  6
CONTINUOUS
 62
     2
100
AcDbCircle
 10
1527.7748717
 20
1168.5001106
 30
0.0
 40
8.450000300000006
100
AcDbArc
 50
134.7615051299997
 51
225.2407531700008
  0
LINE
  5
498
330
1F
100
AcDbEntity
  8
トラップ
  6
CONTINUOUS
 62
     2
100
AcDbLine
 10
1522.574828899999
 20
1162.5002022
 30
0.0
 11
1523.574889999999
 21
1161.5001411
 31
0.0
  0
LINE
  5
499
330
1F
100
AcDbEntity
  8
トラップ
  6
CONTINUOUS
 62
     2
100
AcDbLine
 10
1525.2248228
 20
1161.1247749
 30
0.0
 11
1524.5746458
 21
1161.5001411
 31
0.0
  0
ARC
  5
49A
330
1F
100
AcDbEntity
  8
トラップ
  6
CONTINUOUS
 62
     2
100
AcDbCircle
 10
1524.5747984
 20
1159.9989815
 30
0.0
 40
1.3
100
AcDbArc
 50
0.0
 51
59.99819945999737
  0
ARC
  5
49B
330
1F
100
AcDbEntity
  8
トラップ
  6
CONTINUOUS
 62
     2
100
AcDbCircle
 10
1524.5747984
 20
1159.9989815
 30
0.0
 40
1.3
100
AcDbArc
 50
0.0
 51
59.99819945999737
  0
POLYLINE
  5
49C
330
1F
100
AcDbEntity
  8
トラップ
  6
CONTINUOUS
 62
     6
100
AcDb2dPolyline
 66
     1
 10
0.0
 20
0.0
 30
0.0
 70
   128
  0
VERTEX
  5
49D
330
49C
100
AcDbEntity
  8
トラップ
  6
CONTINUOUS
 62
     6
100
AcDbVertex
100
AcDb2dVertex
 10
1527.4292601
 20
1168.5001106
 30
0.0
  0
VERTEX
  5
49E
330
49C
100
AcDbEntity
  8
トラップ
  6
CONTINUOUS
 62
     6
100
AcDbVertex
100
AcDb2dVertex
 10
1527.312725999999
 20
1169.7323413
 30
0.0
  0
VERTEX
  5
49F
330
49C
100
AcDbEntity
  8
トラップ
  6
CONTINUOUS
 62
     6
100
AcDbVertex
100
AcDb2dVertex
 10
1526.969966999999
 20
1170.8929548
 30
0.0
  0
VERTEX
  5
4A0
330
49C
100
AcDbEntity
  8
トラップ
  6
CONTINUOUS
 62
     6
100
AcDbVertex
100
AcDb2dVertex
 10
1526.420864299999
 20
1171.914508
 30
0.0
  0
VERTEX
  5
4A1
330
49C
100
AcDbEntity
  8
トラップ
  6
CONTINUOUS
 62
     6
100
AcDbVertex
100
AcDb2dVertex
 10
1525.6973147
 20
1172.7376827
 30
0.0
  0
VERTEX
  5
4A2
330
49C
100
AcDbEntity
  8
トラップ
  6
CONTINUOUS
 62
     6
100
AcDbVertex
100
AcDb2dVertex
 10
1524.841369499999
 20
1173.3145758
 30
0.0
  0
VERTEX
  5
4A3
330
49C
100
AcDbEntity
  8
トラップ
  6
CONTINUOUS
 62
     6
100
AcDbVertex
100
AcDb2dVertex
 10
1523.902836199999
 20
1173.6116353
 30
0.0
  0
VERTEX
  5
4A4
330
49C
100
AcDbEntity
  8
トラップ
  6
CONTINUOUS
 62
     6
100
AcDbVertex
100
AcDb2dVertex
 10
1522.936198899999
 20
1173.6116353
 30
0.0
  0
VERTEX
  5
4A5
330
49C
100
AcDbEntity
  8
トラップ
  6
CONTINUOUS
 62
     6
100
AcDbVertex
100
AcDb2dVertex
 10
1521.997594799999
 20
1173.3145758
 30
0.0
  0
VERTEX
  5
4A6
330
49C
100
AcDbEntity
  8
トラップ
  6
CONTINUOUS
 62
     6
100
AcDbVertex
100
AcDb2dVertex
 10
1521.1416437
 20
1172.7376827
 30
0.0
  0
VERTEX
  5
4A7
330
49C
100
AcDbEntity
  8
トラップ
  6
CONTINUOUS
 62
     6
100
AcDbVertex
100
AcDb2dVertex
 10
1520.418094099999
 20
1171.914508
 30
0.0
  0
VERTEX
  5
4A8
330
49C
100
AcDbEntity
  8
トラップ
  6
CONTINUOUS
 62
     6
100
AcDbVertex
100
AcDb2dVertex
 10
1519.868991399999
 20
1170.8929548
 30
0.0
  0
VERTEX
  5
4A9
330
49C
100
AcDbEntity
  8
トラップ
  6
CONTINUOUS
 62
     6
100
AcDbVertex
100
AcDb2dVertex
 10
1519.526232399999
 20
1169.7323413
 30
0.0
  0
VERTEX
  5
4AA
330
49C
100
AcDbEntity
  8
トラップ
  6
CONTINUOUS
 62
     6
100
AcDbVertex
100
AcDb2dVertex
 10
1519.4096983
 20
1168.5001106
 30
0.0
  0
VERTEX
  5
4AB
330
49C
100
AcDbEntity
  8
トラップ
  6
CONTINUOUS
 62
     6
100
AcDbVertex
100
AcDb2dVertex
 10
1519.526232399999
 20
1167.26788
 30
0.0
  0
VERTEX
  5
4AC
330
49C
100
AcDbEntity
  8
トラップ
  6
CONTINUOUS
 62
     6
100
AcDbVertex
100
AcDb2dVertex
 10
1519.868991399999
 20
1166.1072664
 30
0.0
  0
VERTEX
  5
4AD
330
49C
100
AcDbEntity
  8
トラップ
  6
CONTINUOUS
 62
     6
100
AcDbVertex
100
AcDb2dVertex
 10
1520.418094099999
 20
1165.0857133
 30
0.0
  0
VERTEX
  5
4AE
330
49C
100
AcDbEntity
  8
トラップ
  6
CONTINUOUS
 62
     6
100
AcDbVertex
100
AcDb2dVertex
 10
1521.1416437
 20
1164.2625385
 30
0.0
  0
VERTEX
  5
4AF
330
49C
100
AcDbEntity
  8
トラップ
  6
CONTINUOUS
 62
     6
100
AcDbVertex
100
AcDb2dVertex
 10
1521.997594799999
 20
1163.6856455
 30
0.0
  0
VERTEX
  5
4B0
330
49C
100
AcDbEntity
  8
トラップ
  6
CONTINUOUS
 62
     6
100
AcDbVertex
100
AcDb2dVertex
 10
1522.936198899999
 20
1163.3885859
 30
0.0
  0
VERTEX
  5
4B1
330
49C
100
AcDbEntity
  8
トラップ
  6
CONTINUOUS
 62
     6
100
AcDbVertex
100
AcDb2dVertex
 10
1523.902836199999
 20
1163.3885859
 30
0.0
  0
VERTEX
  5
4B2
330
49C
100
AcDbEntity
  8
トラップ
  6
CONTINUOUS
 62
     6
100
AcDbVertex
100
AcDb2dVertex
 10
1524.841369499999
 20
1163.6856455
 30
0.0
  0
VERTEX
  5
4B3
330
49C
100
AcDbEntity
  8
トラップ
  6
CONTINUOUS
 62
     6
100
AcDbVertex
100
AcDb2dVertex
 10
1525.6973147
 20
1164.2625385
 30
0.0
  0
VERTEX
  5
4B4
330
49C
100
AcDbEntity
  8
トラップ
  6
CONTINUOUS
 62
     6
100
AcDbVertex
100
AcDb2dVertex
 10
1526.420864299999
 20
1165.0857133
 30
0.0
  0
VERTEX
  5
4B5
330
49C
100
AcDbEntity
  8
トラップ
  6
CONTINUOUS
 62
     6
100
AcDbVertex
100
AcDb2dVertex
 10
1526.969966999999
 20
1166.1072664
 30
0.0
  0
VERTEX
  5
4B6
330
49C
100
AcDbEntity
  8
トラップ
  6
CONTINUOUS
 62
     6
100
AcDbVertex
100
AcDb2dVertex
 10
1527.312725999999
 20
1167.26788
 30
0.0
  0
VERTEX
  5
4B7
330
49C
100
AcDbEntity
  8
トラップ
  6
CONTINUOUS
 62
     6
100
AcDbVertex
100
AcDb2dVertex
 10
1527.4292601
 20
1168.5001106
 30
0.0
  0
SEQEND
  5
4B8
330
49C
100
AcDbEntity
  8
トラップ
  6
CONTINUOUS
 62
     6
  0
LINE
  5
4B9
330
1F
100
AcDbEntity
  8
トラップ
  6
CONTINUOUS
 62
     2
100
AcDbLine
 10
1461.8748473
 20
1159.000019
 30
0.0
 11
1461.8748473
 21
1195.732318899999
 31
0.0
  0
LINE
  5
4BA
330
1F
100
AcDbEntity
  8
トラップ
  6
CONTINUOUS
 62
     2
100
AcDbLine
 10
1525.8748472
 20
1158.7500496
 30
0.0
 11
1525.8748472
 21
1159.9989815
 31
0.0
  0
LINE
  5
4BB
330
1F
100
AcDbEntity
  8
トラップ
  6
CONTINUOUS
 62
     2
100
AcDbLine
 10
1551.274932699999
 20
1174.5000191
 30
0.0
 11
1551.274932699999
 21
1180.040617253142
 31
0.0
  0
LINE
  5
4BC
330
1F
100
AcDbEntity
  8
トラップ
  6
CONTINUOUS
 62
     2
100
AcDbLine
 10
1525.8748472
 20
1174.5000191
 30
0.0
 11
1525.8748472
 21
1180.000019
 31
0.0
  0
ARC
  5
4BD
330
1F
100
AcDbEntity
  8
トラップ
  6
CONTINUOUS
 62
     2
100
AcDbCircle
 10
1506.57489
 20
1159.000019
 30
0.0
 40
19.29999999999996
100
AcDbArc
 50
179.8793351053381
 51
0.1206648956643306
  0
LINE
  5
4BE
330
1F
100
AcDbEntity
  8
トラップ
  6
CONTINUOUS
 62
     2
100
AcDbLine
 10
1461.8748473
 20
1249.0000648
 30
0.0
 11
1461.8748473
 21
1307.37163187998
 31
0.0
  0
LINE
  5
4BF
330
1F
100
AcDbEntity
  8
トラップ
  6
CONTINUOUS
 62
     2
100
AcDbLine
 10
1487.274932799999
 20
1249.0000648
 30
0.0
 11
1487.274932799999
 21
1307.37163187998
 31
0.0
  0
LINE
  5
4C0
330
1F
100
AcDbEntity
  8
トラップ
  6
CONTINUOUS
 62
     2
100
AcDbLine
 10
1650.574889999999
 20
1224.7000831
 30
0.0
 11
1650.574889999999
 21
1199.2999976
 31
0.0
  0
ARC
  5
4C1
330
1F
100
AcDbEntity
  8
トラップ
  6
CONTINUOUS
 62
     2
100
AcDbCircle
 10
1622.5748595
 20
1195.9999794
 30
0.0
 40
13.99999620000001
100
AcDbArc
 50
180.0000000000002
 51
270.0000000000002
  0
ARC
  5
4C2
330
1F
100
AcDbEntity
  8
トラップ
  6
CONTINUOUS
 62
     2
100
AcDbCircle
 10
1622.5748595
 20
1228.0001014
 30
0.0
 40
13.99999620000001
100
AcDbArc
 50
90.00000000000001
 51
180.0000000000002
  0
LINE
  5
4C3
330
1F
100
AcDbEntity
  8
トラップ
  6
CONTINUOUS
 62
     2
100
AcDbLine
 10
1622.5748595
 20
1182.0000404
 30
0.0
 11
1625.574889999999
 21
1182.0000404
 31
0.0
  0
LINE
  5
4C4
330
1F
100
AcDbEntity
  8
トラップ
  6
CONTINUOUS
 62
     2
100
AcDbLine
 10
1622.5748595
 20
1242.0000404
 30
0.0
 11
1625.574889999999
 21
1242.0000404
 31
0.0
  0
LINE
  5
4C5
330
1F
100
AcDbEntity
  8
トラップ
  6
CONTINUOUS
 62
     2
100
AcDbLine
 10
1608.5749206
 20
1228.0001014
 30
0.0
 11
1608.5749206
 21
1195.9999794
 31
0.0
  0
LINE
  5
4C6
330
1F
100
AcDbEntity
  8
トラップ
  6
CONTINUOUS
 62
     2
100
AcDbLine
 10
1625.574889999999
 20
1242.0000404
 30
0.0
 11
1625.574889999999
 21
1182.0000404
 31
0.0
  0
LINE
  5
4C7
330
1F
100
AcDbEntity
  8
トラップ
  6
CONTINUOUS
 62
     2
100
AcDbLine
 10
1650.574889999999
 20
1224.7000404
 30
0.0
 11
1625.574889999999
 21
1224.7000404
 31
0.0
  0
LINE
  5
4C8
330
1F
100
AcDbEntity
  8
トラップ
  6
CONTINUOUS
 62
     2
100
AcDbLine
 10
1650.574889999999
 20
1199.2999976
 30
0.0
 11
1625.574889999999
 21
1199.2999976
 31
0.0
  0
POLYLINE
  5
4C9
330
1F
100
AcDbEntity
  8
トラップ
  6
CONTINUOUS
 62
     6
100
AcDb2dPolyline
 66
     1
 10
0.0
 20
0.0
 30
0.0
 70
   128
  0
VERTEX
  5
4CA
330
4C9
100
AcDbEntity
  8
トラップ
  6
CONTINUOUS
 62
     6
100
AcDbVertex
100
AcDb2dVertex
 10
1468.948445541628
 20
1317.000019
 30
0.0
  0
VERTEX
  5
4CB
330
4C9
100
AcDbEntity
  8
トラップ
  6
CONTINUOUS
 62
     6
100
AcDbVertex
100
AcDb2dVertex
 10
1468.57222585
 20
1316.78601392998
 30
0.0
  0
VERTEX
  5
4CC
330
4C9
100
AcDbEntity
  8
トラップ
  6
CONTINUOUS
 62
     6
100
AcDbVertex
100
AcDb2dVertex
 10
1467.47392985
 20
1315.76446082998
 30
0.0
  0
VERTEX
  5
4CD
330
4C9
100
AcDbEntity
  8
トラップ
  6
CONTINUOUS
 62
     6
100
AcDbVertex
100
AcDb2dVertex
 10
1466.78839645
 20
1314.60384722998
 30
0.0
  0
VERTEX
  5
4CE
330
4C9
100
AcDbEntity
  8
トラップ
  6
CONTINUOUS
 62
     6
100
AcDbVertex
100
AcDb2dVertex
 10
1466.55532825
 20
1313.37161662998
 30
0.0
  0
VERTEX
  5
4CF
330
4C9
100
AcDbEntity
  8
トラップ
  6
CONTINUOUS
 62
     6
100
AcDbVertex
100
AcDb2dVertex
 10
1466.78839645
 20
1312.13938592998
 30
0.0
  0
VERTEX
  5
4D0
330
4C9
100
AcDbEntity
  8
トラップ
  6
CONTINUOUS
 62
     6
100
AcDbVertex
100
AcDb2dVertex
 10
1467.47392985
 20
1310.97877242998
 30
0.0
  0
VERTEX
  5
4D1
330
4C9
100
AcDbEntity
  8
トラップ
  6
CONTINUOUS
 62
     6
100
AcDbVertex
100
AcDb2dVertex
 10
1468.57222585
 20
1309.95721922998
 30
0.0
  0
VERTEX
  5
4D2
330
4C9
100
AcDbEntity
  8
トラップ
  6
CONTINUOUS
 62
     6
100
AcDbVertex
100
AcDb2dVertex
 10
1470.01936245
 20
1309.13404452998
 30
0.0
  0
VERTEX
  5
4D3
330
4C9
100
AcDbEntity
  8
トラップ
  6
CONTINUOUS
 62
     6
100
AcDbVertex
100
AcDb2dVertex
 10
1471.73117845
 20
1308.55715142998
 30
0.0
  0
VERTEX
  5
4D4
330
4C9
100
AcDbEntity
  8
トラップ
  6
CONTINUOUS
 62
     6
100
AcDbVertex
100
AcDb2dVertex
 10
1473.60825525
 20
1308.26009192998
 30
0.0
  0
VERTEX
  5
4D5
330
4C9
100
AcDbEntity
  8
トラップ
  6
CONTINUOUS
 62
     6
100
AcDbVertex
100
AcDb2dVertex
 10
1475.54152475
 20
1308.26009192998
 30
0.0
  0
VERTEX
  5
4D6
330
4C9
100
AcDbEntity
  8
トラップ
  6
CONTINUOUS
 62
     6
100
AcDbVertex
100
AcDb2dVertex
 10
1477.41860155
 20
1308.55715142998
 30
0.0
  0
VERTEX
  5
4D7
330
4C9
100
AcDbEntity
  8
トラップ
  6
CONTINUOUS
 62
     6
100
AcDbVertex
100
AcDb2dVertex
 10
1479.13041755
 20
1309.13404452998
 30
0.0
  0
VERTEX
  5
4D8
330
4C9
100
AcDbEntity
  8
トラップ
  6
CONTINUOUS
 62
     6
100
AcDbVertex
100
AcDb2dVertex
 10
1480.57755415
 20
1309.95721922998
 30
0.0
  0
VERTEX
  5
4D9
330
4C9
100
AcDbEntity
  8
トラップ
  6
CONTINUOUS
 62
     6
100
AcDbVertex
100
AcDb2dVertex
 10
1481.67585015
 20
1310.97877242998
 30
0.0
  0
VERTEX
  5
4DA
330
4C9
100
AcDbEntity
  8
トラップ
  6
CONTINUOUS
 62
     6
100
AcDbVertex
100
AcDb2dVertex
 10
1482.36138355
 20
1312.13938592998
 30
0.0
  0
VERTEX
  5
4DB
330
4C9
100
AcDbEntity
  8
トラップ
  6
CONTINUOUS
 62
     6
100
AcDbVertex
100
AcDb2dVertex
 10
1482.59445175
 20
1313.37161662998
 30
0.0
  0
SEQEND
  5
4DC
330
4C9
100
AcDbEntity
  8
トラップ
  6
CONTINUOUS
 62
     6
  0
POLYLINE
  5
4DD
330
1F
100
AcDbEntity
  8
トラップ
  6
CONTINUOUS
 62
     6
100
AcDb2dPolyline
 66
     1
 10
0.0
 20
0.0
 30
0.0
 70
   128
  0
VERTEX
  5
4DE
330
4DD
100
AcDbEntity
  8
トラップ
  6
CONTINUOUS
 62
     6
100
AcDbVertex
100
AcDb2dVertex
 10
1482.59445175
 20
1313.37161662998
 30
0.0
  0
VERTEX
  5
4DF
330
4DD
100
AcDbEntity
  8
トラップ
  6
CONTINUOUS
 62
     6
100
AcDbVertex
100
AcDb2dVertex
 10
1482.36138355
 20
1314.60384722998
 30
0.0
  0
VERTEX
  5
4E0
330
4DD
100
AcDbEntity
  8
トラップ
  6
CONTINUOUS
 62
     6
100
AcDbVertex
100
AcDb2dVertex
 10
1481.67585015
 20
1315.76446082998
 30
0.0
  0
VERTEX
  5
4E1
330
4DD
100
AcDbEntity
  8
トラップ
  6
CONTINUOUS
 62
     6
100
AcDbVertex
100
AcDb2dVertex
 10
1480.57755415
 20
1316.78601392998
 30
0.0
  0
VERTEX
  5
4E2
330
4DD
100
AcDbEntity
  8
トラップ
  6
CONTINUOUS
 62
     6
100
AcDbVertex
100
AcDb2dVertex
 10
1480.201334458372
 20
1317.000019
 30
0.0
  0
SEQEND
  5
4E3
330
4DD
100
AcDbEntity
  8
トラップ
  6
CONTINUOUS
 62
     6
  0
POLYLINE
  5
4E4
330
1F
100
AcDbEntity
  8
トラップ
  6
CONTINUOUS
 62
     6
100
AcDb2dPolyline
 66
     1
 10
0.0
 20
0.0
 30
0.0
 70
   128
  0
VERTEX
  5
4E5
330
4E4
100
AcDbEntity
  8
トラップ
  6
CONTINUOUS
 62
     6
100
AcDbVertex
100
AcDb2dVertex
 10
1486.929701242099
 20
1317.000019
 30
0.0
  0
VERTEX
  5
4E6
330
4E4
100
AcDbEntity
  8
トラップ
  6
CONTINUOUS
 62
     6
100
AcDbVertex
100
AcDb2dVertex
 10
1486.73959905
 20
1316.78601392998
 30
0.0
  0
VERTEX
  5
4E7
330
4E4
100
AcDbEntity
  8
トラップ
  6
CONTINUOUS
 62
     6
100
AcDbVertex
100
AcDb2dVertex
 10
1486.18470575
 20
1315.76446082998
 30
0.0
  0
VERTEX
  5
4E8
330
4E4
100
AcDbEntity
  8
トラップ
  6
CONTINUOUS
 62
     6
100
AcDbVertex
100
AcDb2dVertex
 10
1485.83826415
 20
1314.60384722998
 30
0.0
  0
VERTEX
  5
4E9
330
4E4
100
AcDbEntity
  8
トラップ
  6
CONTINUOUS
 62
     6
100
AcDbVertex
100
AcDb2dVertex
 10
1485.72051985
 20
1313.37161662998
 30
0.0
  0
VERTEX
  5
4EA
330
4E4
100
AcDbEntity
  8
トラップ
  6
CONTINUOUS
 62
     6
100
AcDbVertex
100
AcDb2dVertex
 10
1485.83826415
 20
1312.13938592998
 30
0.0
  0
VERTEX
  5
4EB
330
4E4
100
AcDbEntity
  8
トラップ
  6
CONTINUOUS
 62
     6
100
AcDbVertex
100
AcDb2dVertex
 10
1486.18470575
 20
1310.97877242998
 30
0.0
  0
VERTEX
  5
4EC
330
4E4
100
AcDbEntity
  8
トラップ
  6
CONTINUOUS
 62
     6
100
AcDbVertex
100
AcDb2dVertex
 10
1486.73959905
 20
1309.95721922998
 30
0.0
  0
VERTEX
  5
4ED
330
4E4
100
AcDbEntity
  8
トラップ
  6
CONTINUOUS
 62
     6
100
AcDbVertex
100
AcDb2dVertex
 10
1487.470830949999
 20
1309.13404452998
 30
0.0
  0
VERTEX
  5
4EE
330
4E4
100
AcDbEntity
  8
トラップ
  6
CONTINUOUS
 62
     6
100
AcDbVertex
100
AcDb2dVertex
 10
1488.33580605
 20
1308.55715142998
 30
0.0
  0
VERTEX
  5
4EF
330
4E4
100
AcDbEntity
  8
トラップ
  6
CONTINUOUS
 62
     6
100
AcDbVertex
100
AcDb2dVertex
 10
1489.28423715
 20
1308.26009192998
 30
0.0
  0
VERTEX
  5
4F0
330
4E4
100
AcDbEntity
  8
トラップ
  6
CONTINUOUS
 62
     6
100
AcDbVertex
100
AcDb2dVertex
 10
1490.26112655
 20
1308.26009192998
 30
0.0
  0
VERTEX
  5
4F1
330
4E4
100
AcDbEntity
  8
トラップ
  6
CONTINUOUS
 62
     6
100
AcDbVertex
100
AcDb2dVertex
 10
1491.20962845
 20
1308.55715142998
 30
0.0
  0
VERTEX
  5
4F2
330
4E4
100
AcDbEntity
  8
トラップ
  6
CONTINUOUS
 62
     6
100
AcDbVertex
100
AcDb2dVertex
 10
1492.07460945
 20
1309.13404452998
 30
0.0
  0
VERTEX
  5
4F3
330
4E4
100
AcDbEntity
  8
トラップ
  6
CONTINUOUS
 62
     6
100
AcDbVertex
100
AcDb2dVertex
 10
1492.80584135
 20
1309.95721922998
 30
0.0
  0
VERTEX
  5
4F4
330
4E4
100
AcDbEntity
  8
トラップ
  6
CONTINUOUS
 62
     6
100
AcDbVertex
100
AcDb2dVertex
 10
1493.36073465
 20
1310.97877242998
 30
0.0
  0
VERTEX
  5
4F5
330
4E4
100
AcDbEntity
  8
トラップ
  6
CONTINUOUS
 62
     6
100
AcDbVertex
100
AcDb2dVertex
 10
1493.70717625
 20
1312.13938592998
 30
0.0
  0
VERTEX
  5
4F6
330
4E4
100
AcDbEntity
  8
トラップ
  6
CONTINUOUS
 62
     6
100
AcDbVertex
100
AcDb2dVertex
 10
1493.82492055
 20
1313.37161662998
 30
0.0
  0
SEQEND
  5
4F7
330
4E4
100
AcDbEntity
  8
トラップ
  6
CONTINUOUS
 62
     6
  0
POLYLINE
  5
4F8
330
1F
100
AcDbEntity
  8
トラップ
  6
CONTINUOUS
 62
     6
100
AcDb2dPolyline
 66
     1
 10
0.0
 20
0.0
 30
0.0
 70
   128
  0
VERTEX
  5
4F9
330
4F8
100
AcDbEntity
  8
トラップ
  6
CONTINUOUS
 62
     6
100
AcDbVertex
100
AcDb2dVertex
 10
1493.82492055
 20
1313.37161662998
 30
0.0
  0
VERTEX
  5
4FA
330
4F8
100
AcDbEntity
  8
トラップ
  6
CONTINUOUS
 62
     6
100
AcDbVertex
100
AcDb2dVertex
 10
1493.70717625
 20
1314.60384722998
 30
0.0
  0
VERTEX
  5
4FB
330
4F8
100
AcDbEntity
  8
トラップ
  6
CONTINUOUS
 62
     6
100
AcDbVertex
100
AcDb2dVertex
 10
1493.36073465
 20
1315.76446082998
 30
0.0
  0
VERTEX
  5
4FC
330
4F8
100
AcDbEntity
  8
トラップ
  6
CONTINUOUS
 62
     6
100
AcDbVertex
100
AcDb2dVertex
 10
1492.80584135
 20
1316.78601392998
 30
0.0
  0
VERTEX
  5
4FD
330
4F8
100
AcDbEntity
  8
トラップ
  6
CONTINUOUS
 62
     6
100
AcDbVertex
100
AcDb2dVertex
 10
1492.615739157901
 20
1317.000019
 30
0.0
  0
SEQEND
  5
4FE
330
4F8
100
AcDbEntity
  8
トラップ
  6
CONTINUOUS
 62
     6
  0
POLYLINE
  5
4FF
330
1F
100
AcDbEntity
  8
トラップ
  6
CONTINUOUS
 62
     6
100
AcDb2dPolyline
 66
     1
 10
0.0
 20
0.0
 30
0.0
 70
   128
  0
VERTEX
  5
500
330
4FF
100
AcDbEntity
  8
トラップ
  6
CONTINUOUS
 62
     6
100
AcDbVertex
100
AcDb2dVertex
 10
1463.42926015
 20
1313.37161662998
 30
0.0
  0
VERTEX
  5
501
330
4FF
100
AcDbEntity
  8
トラップ
  6
CONTINUOUS
 62
     6
100
AcDbVertex
100
AcDb2dVertex
 10
1463.31272605
 20
1314.60384722998
 30
0.0
  0
VERTEX
  5
502
330
4FF
100
AcDbEntity
  8
トラップ
  6
CONTINUOUS
 62
     6
100
AcDbVertex
100
AcDb2dVertex
 10
1462.96996695
 20
1315.76446082998
 30
0.0
  0
VERTEX
  5
503
330
4FF
100
AcDbEntity
  8
トラップ
  6
CONTINUOUS
 62
     6
100
AcDbVertex
100
AcDb2dVertex
 10
1462.42086435
 20
1316.78601392998
 30
0.0
  0
VERTEX
  5
504
330
4FF
100
AcDbEntity
  8
トラップ
  6
CONTINUOUS
 62
     6
100
AcDbVertex
100
AcDb2dVertex
 10
1462.232759365723
 20
1317.000019
 30
0.0
  0
SEQEND
  5
505
330
4FF
100
AcDbEntity
  8
トラップ
  6
CONTINUOUS
 62
     6
  0
POLYLINE
  5
506
330
1F
100
AcDbEntity
  8
トラップ
  6
CONTINUOUS
 62
     6
100
AcDb2dPolyline
 66
     1
 10
0.0
 20
0.0
 30
0.0
 70
   128
  0
VERTEX
  5
507
330
506
100
AcDbEntity
  8
トラップ
  6
CONTINUOUS
 62
     6
100
AcDbVertex
100
AcDb2dVertex
 10
1456.606199134277
 20
1317.000019
 30
0.0
  0
VERTEX
  5
508
330
506
100
AcDbEntity
  8
トラップ
  6
CONTINUOUS
 62
     6
100
AcDbVertex
100
AcDb2dVertex
 10
1456.41809415
 20
1316.78601392998
 30
0.0
  0
VERTEX
  5
509
330
506
100
AcDbEntity
  8
トラップ
  6
CONTINUOUS
 62
     6
100
AcDbVertex
100
AcDb2dVertex
 10
1455.86899145
 20
1315.76446082998
 30
0.0
  0
VERTEX
  5
50A
330
506
100
AcDbEntity
  8
トラップ
  6
CONTINUOUS
 62
     6
100
AcDbVertex
100
AcDb2dVertex
 10
1455.52623245
 20
1314.60384722998
 30
0.0
  0
VERTEX
  5
50B
330
506
100
AcDbEntity
  8
トラップ
  6
CONTINUOUS
 62
     6
100
AcDbVertex
100
AcDb2dVertex
 10
1455.40969835
 20
1313.37161662998
 30
0.0
  0
VERTEX
  5
50C
330
506
100
AcDbEntity
  8
トラップ
  6
CONTINUOUS
 62
     6
100
AcDbVertex
100
AcDb2dVertex
 10
1455.52623245
 20
1312.13938592998
 30
0.0
  0
VERTEX
  5
50D
330
506
100
AcDbEntity
  8
トラップ
  6
CONTINUOUS
 62
     6
100
AcDbVertex
100
AcDb2dVertex
 10
1455.86899145
 20
1310.97877242998
 30
0.0
  0
VERTEX
  5
50E
330
506
100
AcDbEntity
  8
トラップ
  6
CONTINUOUS
 62
     6
100
AcDbVertex
100
AcDb2dVertex
 10
1456.41809415
 20
1309.95721922998
 30
0.0
  0
VERTEX
  5
50F
330
506
100
AcDbEntity
  8
トラップ
  6
CONTINUOUS
 62
     6
100
AcDbVertex
100
AcDb2dVertex
 10
1457.14164375
 20
1309.13404452998
 30
0.0
  0
VERTEX
  5
510
330
506
100
AcDbEntity
  8
トラップ
  6
CONTINUOUS
 62
     6
100
AcDbVertex
100
AcDb2dVertex
 10
1457.99759485
 20
1308.55715142998
 30
0.0
  0
VERTEX
  5
511
330
506
100
AcDbEntity
  8
トラップ
  6
CONTINUOUS
 62
     6
100
AcDbVertex
100
AcDb2dVertex
 10
1458.93619895
 20
1308.26009192998
 30
0.0
  0
VERTEX
  5
512
330
506
100
AcDbEntity
  8
トラップ
  6
CONTINUOUS
 62
     6
100
AcDbVertex
100
AcDb2dVertex
 10
1459.90283625
 20
1308.26009192998
 30
0.0
  0
VERTEX
  5
513
330
506
100
AcDbEntity
  8
トラップ
  6
CONTINUOUS
 62
     6
100
AcDbVertex
100
AcDb2dVertex
 10
1460.84136955
 20
1308.55715142998
 30
0.0
  0
VERTEX
  5
514
330
506
100
AcDbEntity
  8
トラップ
  6
CONTINUOUS
 62
     6
100
AcDbVertex
100
AcDb2dVertex
 10
1461.69731475
 20
1309.13404452998
 30
0.0
  0
VERTEX
  5
515
330
506
100
AcDbEntity
  8
トラップ
  6
CONTINUOUS
 62
     6
100
AcDbVertex
100
AcDb2dVertex
 10
1462.42086435
 20
1309.95721922998
 30
0.0
  0
VERTEX
  5
516
330
506
100
AcDbEntity
  8
トラップ
  6
CONTINUOUS
 62
     6
100
AcDbVertex
100
AcDb2dVertex
 10
1462.96996695
 20
1310.97877242998
 30
0.0
  0
VERTEX
  5
517
330
506
100
AcDbEntity
  8
トラップ
  6
CONTINUOUS
 62
     6
100
AcDbVertex
100
AcDb2dVertex
 10
1463.31272605
 20
1312.13938592998
 30
0.0
  0
VERTEX
  5
518
330
506
100
AcDbEntity
  8
トラップ
  6
CONTINUOUS
 62
     6
100
AcDbVertex
100
AcDb2dVertex
 10
1463.42926015
 20
1313.37161662998
 30
0.0
  0
SEQEND
  5
519
330
506
100
AcDbEntity
  8
トラップ
  6
CONTINUOUS
 62
     6
  0
ARC
  5
51A
330
1F
100
AcDbEntity
  8
トラップ
  6
CONTINUOUS
 62
     2
100
AcDbCircle
 10
1463.77487165
 20
1313.37161662998
 30
0.0
 40
8.450000300000006
100
AcDbArc
 50
154.5707197491535
 51
225.2407531699997
  0
ARC
  5
51B
330
1F
100
AcDbEntity
  8
トラップ
  6
CONTINUOUS
 62
     2
100
AcDbCircle
 10
1485.37490835
 20
1313.37161662998
 30
0.0
 40
8.450000300000006
100
AcDbArc
 50
314.7592773400003
 51
25.42928025084656
  0
ARC
  5
51C
330
1F
100
AcDbEntity
  8
トラップ
  6
EXLTYPE3
 62
     6
100
AcDbCircle
 10
1506.57489
 20
1159.000019
 30
0.0
 40
31.99999999999996
100
AcDbArc
 50
180.0
 51
0.0
  0
ARC
  5
51D
330
1F
100
AcDbEntity
  8
トラップ
  6
EXLTYPE3
 62
     6
100
AcDbCircle
 10
1570.57489
 20
1180.000019
 30
0.0
 40
31.99999999999996
100
AcDbArc
 50
90.00000000000001
 51
180.0
  0
LINE
  5
51E
330
1F
100
AcDbEntity
  8
トラップ
  6
EXLTYPE3
 62
     6
100
AcDbLine
 10
1692.47489
 20
1212.000019
 30
0.0
 11
1570.57489
 21
1212.000019
 31
0.0
  0
LINE
  5
51F
330
1F
100
AcDbEntity
  8
トラップ
  6
EXLTYPE3
 62
     6
100
AcDbLine
 10
1538.57489
 20
1159.000019
 30
0.0
 11
1538.57489
 21
1180.000019
 31
0.0
  0
ARC
  5
520
330
1F
100
AcDbEntity
  8
トラップ
  6
CONTINUOUS
 62
     2
100
AcDbCircle
 10
1506.57489
 20
1159.000019
 30
0.0
 40
44.69999999999995
100
AcDbArc
 50
320.6843198310331
 51
0.5860643667092009
  0
POLYLINE
  5
521
330
1F
100
AcDbEntity
  8
トラップ
  6
CONTINUOUS
 62
     6
100
AcDb2dPolyline
 66
     1
 10
0.0
 20
0.0
 30
0.0
 70
   128
  0
VERTEX
  5
522
330
521
100
AcDbEntity
  8
トラップ
  6
CONTINUOUS
 62
     6
100
AcDbVertex
100
AcDb2dVertex
 10
1545.491669365583
 20
1171.064266011751
 30
0.0
  0
VERTEX
  5
523
330
521
100
AcDbEntity
  8
トラップ
  6
CONTINUOUS
 62
     6
100
AcDbVertex
100
AcDb2dVertex
 10
1544.577554099999
 20
1171.914508
 30
0.0
  0
VERTEX
  5
524
330
521
100
AcDbEntity
  8
トラップ
  6
CONTINUOUS
 62
     6
100
AcDbVertex
100
AcDb2dVertex
 10
1543.1304175
 20
1172.7376827
 30
0.0
  0
VERTEX
  5
525
330
521
100
AcDbEntity
  8
トラップ
  6
CONTINUOUS
 62
     6
100
AcDbVertex
100
AcDb2dVertex
 10
1541.4186015
 20
1173.3145758
 30
0.0
  0
VERTEX
  5
526
330
521
100
AcDbEntity
  8
トラップ
  6
CONTINUOUS
 62
     6
100
AcDbVertex
100
AcDb2dVertex
 10
1539.541524699999
 20
1173.6116353
 30
0.0
  0
VERTEX
  5
527
330
521
100
AcDbEntity
  8
トラップ
  6
CONTINUOUS
 62
     6
100
AcDbVertex
100
AcDb2dVertex
 10
1537.6082552
 20
1173.6116353
 30
0.0
  0
VERTEX
  5
528
330
521
100
AcDbEntity
  8
トラップ
  6
CONTINUOUS
 62
     6
100
AcDbVertex
100
AcDb2dVertex
 10
1535.731178399999
 20
1173.3145758
 30
0.0
  0
VERTEX
  5
529
330
521
100
AcDbEntity
  8
トラップ
  6
CONTINUOUS
 62
     6
100
AcDbVertex
100
AcDb2dVertex
 10
1534.019362399999
 20
1172.7376827
 30
0.0
  0
VERTEX
  5
52A
330
521
100
AcDbEntity
  8
トラップ
  6
CONTINUOUS
 62
     6
100
AcDbVertex
100
AcDb2dVertex
 10
1532.572225799999
 20
1171.914508
 30
0.0
  0
VERTEX
  5
52B
330
521
100
AcDbEntity
  8
トラップ
  6
CONTINUOUS
 62
     6
100
AcDbVertex
100
AcDb2dVertex
 10
1531.473929899999
 20
1170.8929548
 30
0.0
  0
VERTEX
  5
52C
330
521
100
AcDbEntity
  8
トラップ
  6
CONTINUOUS
 62
     6
100
AcDbVertex
100
AcDb2dVertex
 10
1530.788396399999
 20
1169.7323413
 30
0.0
  0
VERTEX
  5
52D
330
521
100
AcDbEntity
  8
トラップ
  6
CONTINUOUS
 62
     6
100
AcDbVertex
100
AcDb2dVertex
 10
1530.555328199999
 20
1168.5001106
 30
0.0
  0
VERTEX
  5
52E
330
521
100
AcDbEntity
  8
トラップ
  6
CONTINUOUS
 62
     6
100
AcDbVertex
100
AcDb2dVertex
 10
1530.788396399999
 20
1167.26788
 30
0.0
  0
VERTEX
  5
52F
330
521
100
AcDbEntity
  8
トラップ
  6
CONTINUOUS
 62
     6
100
AcDbVertex
100
AcDb2dVertex
 10
1531.473929899999
 20
1166.1072664
 30
0.0
  0
VERTEX
  5
530
330
521
100
AcDbEntity
  8
トラップ
  6
CONTINUOUS
 62
     6
100
AcDbVertex
100
AcDb2dVertex
 10
1532.572225799999
 20
1165.0857133
 30
0.0
  0
VERTEX
  5
531
330
521
100
AcDbEntity
  8
トラップ
  6
CONTINUOUS
 62
     6
100
AcDbVertex
100
AcDb2dVertex
 10
1534.019362399999
 20
1164.2625385
 30
0.0
  0
VERTEX
  5
532
330
521
100
AcDbEntity
  8
トラップ
  6
CONTINUOUS
 62
     6
100
AcDbVertex
100
AcDb2dVertex
 10
1535.731178399999
 20
1163.6856455
 30
0.0
  0
VERTEX
  5
533
330
521
100
AcDbEntity
  8
トラップ
  6
CONTINUOUS
 62
     6
100
AcDbVertex
100
AcDb2dVertex
 10
1537.6082552
 20
1163.3885859
 30
0.0
  0
VERTEX
  5
534
330
521
100
AcDbEntity
  8
トラップ
  6
CONTINUOUS
 62
     6
100
AcDbVertex
100
AcDb2dVertex
 10
1539.541524699999
 20
1163.3885859
 30
0.0
  0
VERTEX
  5
535
330
521
100
AcDbEntity
  8
トラップ
  6
CONTINUOUS
 62
     6
100
AcDbVertex
100
AcDb2dVertex
 10
1541.4186015
 20
1163.6856455
 30
0.0
  0
VERTEX
  5
536
330
521
100
AcDbEntity
  8
トラップ
  6
CONTINUOUS
 62
     6
100
AcDbVertex
100
AcDb2dVertex
 10
1543.1304175
 20
1164.2625385
 30
0.0
  0
VERTEX
  5
537
330
521
100
AcDbEntity
  8
トラップ
  6
CONTINUOUS
 62
     6
100
AcDbVertex
100
AcDb2dVertex
 10
1544.577554099999
 20
1165.0857133
 30
0.0
  0
VERTEX
  5
538
330
521
100
AcDbEntity
  8
トラップ
  6
CONTINUOUS
 62
     6
100
AcDbVertex
100
AcDb2dVertex
 10
1544.795987445364
 20
1165.288883721361
 30
0.0
  0
SEQEND
  5
539
330
521
100
AcDbEntity
  8
トラップ
  6
CONTINUOUS
 62
     6
  0
ARC
  5
53A
330
1F
100
AcDbEntity
  8
トラップ
  6
CONTINUOUS
 62
     2
100
AcDbCircle
 10
1570.57489
 20
1180.000019
 30
0.0
 40
44.69999999999995
100
AcDbArc
 50
109.1011814731235
 51
115.6738985490428
  0
LINE
  5
53B
330
1F
100
AcDbEntity
  8
トラップ
  6
EXLTYPE3
 62
     6
100
AcDbLine
 10
1474.57489
 20
1156.500019379979
 30
0.0
 11
1474.57489
 21
1337.000019
 31
0.0
  0
ARC
  5
53C
330
1F
100
AcDbEntity
  8
トラップ
  6
CONTINUOUS
 62
     2
100
AcDbCircle
 10
1506.57489
 20
1159.000019
 30
0.0
 40
44.69999999999995
100
AcDbArc
 50
180.0
 51
320.6843198310781
  0
ARC
  5
53D
330
1F
100
AcDbEntity
  8
トラップ
  6
CONTINUOUS
 62
     2
100
AcDbCircle
 10
1570.57489
 20
1180.000019
 30
0.0
 40
44.69999999999995
100
AcDbArc
 50
115.6738985490827
 51
180.0
  0
ARC
  5
53E
330
1F
100
AcDbEntity
  8
トラップ
  6
CONTINUOUS
 62
     2
100
AcDbCircle
 10
1570.57489
 20
1180.000019
 30
0.0
 40
19.29999999999996
100
AcDbArc
 50
142.5048487920521
 51
180.0
  0
LINE
  5
53F
330
1F
100
AcDbEntity
  8
トラップ
  6
CONTINUOUS
 62
     2
100
AcDbLine
 10
1545.63971321652
 20
1161.5001411
 30
0.0
 11
1553.57489
 21
1161.5001411
 31
0.0
  0
LINE
  5
540
330
1F
100
AcDbEntity
  8
トラップ
  6
CONTINUOUS
 62
     2
100
AcDbLine
 10
1554.155842241207
 20
1162.5000496
 30
0.0
 11
1545.766978357458
 21
1162.5000496
 31
0.0
  0
LINE
  5
541
330
1F
100
AcDbEntity
  8
トラップ
  6
CONTINUOUS
 62
     2
100
AcDbLine
 10
1547.2059573607
 20
1174.5000191
 30
0.0
 11
1521.824706899999
 21
1174.5000191
 31
0.0
  0
LINE
  5
542
330
1F
100
AcDbEntity
  8
トラップ
  6
CONTINUOUS
 62
     2
100
AcDbLine
 10
1545.7669783575
 20
1162.5000496
 30
0.0
 11
1521.825012
 21
1162.5000496
 31
0.0
  0
LINE
  5
543
330
1F
100
AcDbEntity
  8
トラップ
  6
CONTINUOUS
 62
     2
100
AcDbLine
 10
1523.574889999999
 20
1161.5001411
 30
0.0
 11
1546.1
 21
1161.5001411
 31
0.0
  0
LINE
  5
544
330
1F
100
AcDbEntity
  8
トラップ
  6
CONTINUOUS
 62
     2
100
AcDbLine
 10
1554.609756343139
 20
1174.5000191
 30
0.0
 11
1547.205957360728
 21
1174.5000191
 31
0.0
  0
POLYLINE
  5
545
330
1F
100
AcDbEntity
  8
トラップ
  6
CONTINUOUS
 62
     6
100
AcDb2dPolyline
 66
     1
 10
0.0
 20
0.0
 30
0.0
 70
   128
  0
VERTEX
  5
546
330
545
100
AcDbEntity
  8
トラップ
  6
CONTINUOUS
 62
     6
100
AcDbVertex
100
AcDb2dVertex
 10
1549.7205199
 20
1168.5001106
 30
0.0
  0
VERTEX
  5
547
330
545
100
AcDbEntity
  8
トラップ
  6
CONTINUOUS
 62
     6
100
AcDbVertex
100
AcDb2dVertex
 10
1549.837054
 20
1169.7323413
 30
0.0
  0
VERTEX
  5
548
330
545
100
AcDbEntity
  8
トラップ
  6
CONTINUOUS
 62
     6
100
AcDbVertex
100
AcDb2dVertex
 10
1550.179813
 20
1170.8929548
 30
0.0
  0
VERTEX
  5
549
330
545
100
AcDbEntity
  8
トラップ
  6
CONTINUOUS
 62
     6
100
AcDbVertex
100
AcDb2dVertex
 10
1550.7289157
 20
1171.914508
 30
0.0
  0
VERTEX
  5
54A
330
545
100
AcDbEntity
  8
トラップ
  6
CONTINUOUS
 62
     6
100
AcDbVertex
100
AcDb2dVertex
 10
1551.4524653
 20
1172.7376827
 30
0.0
  0
VERTEX
  5
54B
330
545
100
AcDbEntity
  8
トラップ
  6
CONTINUOUS
 62
     6
100
AcDbVertex
100
AcDb2dVertex
 10
1552.3084105
 20
1173.3145758
 30
0.0
  0
VERTEX
  5
54C
330
545
100
AcDbEntity
  8
トラップ
  6
CONTINUOUS
 62
     6
100
AcDbVertex
100
AcDb2dVertex
 10
1553.2469438
 20
1173.6116353
 30
0.0
  0
VERTEX
  5
54D
330
545
100
AcDbEntity
  8
トラップ
  6
CONTINUOUS
 62
     6
100
AcDbVertex
100
AcDb2dVertex
 10
1554.213581100001
 20
1173.6116353
 30
0.0
  0
VERTEX
  5
54E
330
545
100
AcDbEntity
  8
トラップ
  6
CONTINUOUS
 62
     6
100
AcDbVertex
100
AcDb2dVertex
 10
1554.571862867438
 20
1173.498242440653
 30
0.0
  0
SEQEND
  5
54F
330
545
100
AcDbEntity
  8
トラップ
  6
CONTINUOUS
 62
     6
  0
LINE
  5
550
330
1F
100
AcDbEntity
  8
トラップ
  6
CONTINUOUS
 62
     2
100
AcDbLine
 10
1554.139371667717
 20
1162.064622767716
 30
0.0
 11
1553.57489
 21
1161.5001411
 31
0.0
  0
POLYLINE
  5
551
330
1F
100
AcDbEntity
  8
トラップ
  6
CONTINUOUS
 62
     6
100
AcDb2dPolyline
 66
     1
 10
0.0
 20
0.0
 30
0.0
 70
   128
  0
VERTEX
  5
552
330
551
100
AcDbEntity
  8
トラップ
  6
CONTINUOUS
 62
     6
100
AcDbVertex
100
AcDb2dVertex
 10
1554.189452256353
 20
1163.3885859
 30
0.0
  0
VERTEX
  5
553
330
551
100
AcDbEntity
  8
トラップ
  6
CONTINUOUS
 62
     6
100
AcDbVertex
100
AcDb2dVertex
 10
1553.2469438
 20
1163.3885859
 30
0.0
  0
VERTEX
  5
554
330
551
100
AcDbEntity
  8
トラップ
  6
CONTINUOUS
 62
     6
100
AcDbVertex
100
AcDb2dVertex
 10
1552.3084105
 20
1163.6856455
 30
0.0
  0
VERTEX
  5
555
330
551
100
AcDbEntity
  8
トラップ
  6
CONTINUOUS
 62
     6
100
AcDbVertex
100
AcDb2dVertex
 10
1551.4524653
 20
1164.2625385
 30
0.0
  0
VERTEX
  5
556
330
551
100
AcDbEntity
  8
トラップ
  6
CONTINUOUS
 62
     6
100
AcDbVertex
100
AcDb2dVertex
 10
1550.7289157
 20
1165.0857133
 30
0.0
  0
VERTEX
  5
557
330
551
100
AcDbEntity
  8
トラップ
  6
CONTINUOUS
 62
     6
100
AcDbVertex
100
AcDb2dVertex
 10
1550.179813
 20
1166.1072664
 30
0.0
  0
VERTEX
  5
558
330
551
100
AcDbEntity
  8
トラップ
  6
CONTINUOUS
 62
     6
100
AcDbVertex
100
AcDb2dVertex
 10
1549.837054
 20
1167.26788
 30
0.0
  0
VERTEX
  5
559
330
551
100
AcDbEntity
  8
トラップ
  6
CONTINUOUS
 62
     6
100
AcDbVertex
100
AcDb2dVertex
 10
1549.7205199
 20
1168.5001106
 30
0.0
  0
SEQEND
  5
55A
330
551
100
AcDbEntity
  8
トラップ
  6
CONTINUOUS
 62
     6
  0
LINE
  5
55B
330
1F
100
AcDbEntity
  8
トラップ
  6
CONTINUOUS
 62
     2
100
AcDbLine
 10
1608.5749206
 20
1199.2999976
 30
0.0
 11
1571.522801036383
 21
1199.2999976
 31
0.0
  0
LINE
  5
55C
330
1F
100
AcDbEntity
  8
トラップ
  6
CONTINUOUS
 62
     2
100
AcDbLine
 10
1608.5749206
 20
1224.7000404
 30
0.0
 11
1572.483589946437
 21
1224.7000404
 31
0.0
  0
DIMENSION
  5
55E
330
1F
100
AcDbEntity
  8
寸法
  6
CONTINUOUS
 62
     3
100
AcDbDimension
  2
*D15
 10
1625.57489
 20
559.82578446293
 30
0.0
 11
1780.57489
 21
583.3257844033253
 31
0.0
 70
   160
  1
100（床給水）
  3
ISO-25
100
AcDbAlignedDimension
 13
1525.7903976676
 23
637.0
 33
0.0
 14
1625.57489
 24
637.0
 34
0.0
100
AcDbRotatedDimension
1001
ACAD
1000
DSTYLE
1002
{
1070
   270
1070
     2
1070
     6
1000
EX_NORM
1070
     7
1000
EX_NORM
1070
    41
1040
30.0
1070
    42
1040
6.99999988079071
1070
    44
1040
10.0
1070
    73
1070
     0
1070
    74
1070
     0
1070
    75
1070
     1
1070
    76
1070
     0
1070
    77
1070
     1
1070
    78
1070
     0
1070
   140
1040
40.0
1070
   147
1040
0.0
1070
   173
1070
     1
1070
   176
1070
     3
1070
   177
1070
     3
1070
   178
1070
     2
1070
   271
1070
     0
1070
   277
1070
     2
1070
   279
1070
     2
1070
   280
1070
     2
1070
   287
1070
     5
1070
   340
1005
55D
1002
}
  0
DIMENSION
  5
56B
330
1F
100
AcDbEntity
  8
寸法
  6
CONTINUOUS
 62
     3
100
AcDbDimension
  2
*D16
 10
1625.57489
 20
500.9999999999999
 30
0.0
 11
1780.57489
 21
524.4999999403952
 31
0.0
 70
   160
  1
100（床排水）
  3
ISO-25
100
AcDbAlignedDimension
 13
1525.7903976676
 23
629.0
 33
0.0
 14
1625.57489
 24
637.0
 34
0.0
100
AcDbRotatedDimension
1001
ACAD
1000
DSTYLE
1002
{
1070
   270
1070
     2
1070
     6
1000
EX_NORM
1070
     7
1000
EX_NORM
1070
    41
1040
30.0
1070
    42
1040
40.79999999999995
1070
    44
1040
10.0
1070
    73
1070
     0
1070
    74
1070
     0
1070
    75
1070
     0
1070
    76
1070
     0
1070
    77
1070
     1
1070
    78
1070
     0
1070
   140
1040
40.0
1070
   147
1040
0.0
1070
   173
1070
     1
1070
   176
1070
     3
1070
   177
1070
     3
1070
   178
1070
     2
1070
   271
1070
     0
1070
   277
1070
     2
1070
   279
1070
     2
1070
   280
1070
     2
1070
   287
1070
     5
1070
   340
1005
55D
1002
}
  0
DIMENSION
  5
578
330
1F
100
AcDbEntity
  8
寸法
  6
CONTINUOUS
 62
     3
100
AcDbDimension
  2
*D17
 10
570.2842712474878
 20
2452.766190901366
 30
0.0
 11
459.2685066854505
 21
2374.984444970908
 31
0.0
 70
   163
  3
ISO-25
100
AcDbDiametricDimension
 15
513.7157287525324
 25
2396.197648406474
 35
0.0
 40
0.0
1001
ACAD
1000
DSTYLE
1002
{
1070
   270
1070
     2
1070
     6
1000
EX_NORM
1070
     7
1000
EX_NORM
1070
    41
1040
30.0
1070
    73
1070
     0
1070
    74
1070
     0
1070
    77
1070
     1
1070
    78
1070
     0
1070
   140
1040
40.0
1070
   147
1040
0.0
1070
   173
1070
     1
1070
   176
1070
     3
1070
   177
1070
     3
1070
   178
1070
     2
1070
   271
1070
     0
1070
   277
1070
     2
1070
   279
1070
     2
1070
   280
1070
     1
1070
   287
1070
     5
1070
   340
1005
55D
1002
}
  0
LEADER
  5
583
330
1F
100
AcDbEntity
  8
寸法
  6
CONTINUOUS
 62
     3
100
AcDbLeader
  3
ISO-25
 76
     3
 10
1387.999999999999
 20
1317.000019
 30
0.0
 10
1325.999999999999
 20
1231.000019
 30
0.0
 10
1159.999999999999
 20
1231.000019
 30
0.0
1001
ACAD
1000
DSTYLE
1002
{
1070
     5
1000
EX_NORM
1070
    41
1040
30.0
1070
   341
1005
4D
1002
}
  0
TEXT
  5
584
330
1F
100
AcDbEntity
  8
寸法
  6
CONTINUOUS
 62
     2
100
AcDbText
 10
1158.000000476836
 20
1234.500018940395
 30
0.0
 40
40.0
  1
カウンター
 41
1.013793103448276
  7
EXCADSTD
 72
     5
 11
1326.000000476836
 21
1234.500018940395
 31
0.0
100
AcDbText
  0
TEXT
  5
585
330
1F
100
AcDbEntity
  8
寸法
  6
CONTINUOUS
 62
     2
100
AcDbText
 10
1273.747807641327
 20
1065.984096586535
 30
0.0
 40
40.0
  1
トラップ
 41
1.034782608695652
  7
EXCADSTD
 72
     5
 11
1409.747807641327
 21
1065.984096586535
 31
0.0
100
AcDbText
  0
LEADER
  5
586
330
1F
100
AcDbEntity
  8
寸法
  6
CONTINUOUS
 62
     3
100
AcDbLeader
  3
ISO-25
 76
     3
 10
1465.4978072837
 20
1141.371539896139
 30
0.0
 10
1409.747807283699
 20
1062.48409664614
 30
0.0
 10
1280.147807283699
 20
1062.48409664614
 30
0.0
1001
ACAD
1000
DSTYLE
1002
{
1070
     5
1000
EX_NORM
1070
    41
1040
30.0
1070
   341
1005
4D
1002
}
  0
DIMENSION
  5
587
330
1F
100
AcDbEntity
  8
寸法
  6
CONTINUOUS
 62
     3
100
AcDbDimension
  2
*D18
 10
1474.57489
 20
862.4999999404
 30
0.0
 11
1550.07489
 21
885.9999998807954
 31
0.0
 70
   160
  3
ISO-25
100
AcDbAlignedDimension
 13
1625.57489
 23
1182.0000404
 33
0.0
 14
1474.57489
 24
1156.50001938
 34
0.0
100
AcDbRotatedDimension
1001
ACAD
1000
DSTYLE
1002
{
1070
   270
1070
     2
1070
     6
1000
EX_NORM
1070
     7
1000
EX_NORM
1070
    41
1040
30.0
1070
    42
1040
6.99999988079071
1070
    44
1040
10.0
1070
    73
1070
     0
1070
    74
1070
     0
1070
    75
1070
     1
1070
    76
1070
     0
1070
    77
1070
     1
1070
    78
1070
     0
1070
   140
1040
40.0
1070
   147
1040
0.0
1070
   173
1070
     1
1070
   176
1070
     3
1070
   177
1070
     3
1070
   178
1070
     2
1070
   271
1070
     0
1070
   277
1070
     2
1070
   279
1070
     2
1070
   280
1070
     0
1070
   287
1070
     5
1070
   340
1005
55D
1002
}
  0
DIMENSION
  5
593
330
1F
100
AcDbEntity
  8
寸法
  6
CONTINUOUS
 62
     3
100
AcDbDimension
  2
*D19
 10
570.0
 20
859.0
 30
0.0
 11
620.0000000000002
 21
882.4999999403952
 31
0.0
 70
   160
  3
ISO-25
100
AcDbAlignedDimension
 13
670.0
 23
929.5
 33
0.0
 14
570.0
 24
924.0
 34
0.0
100
AcDbRotatedDimension
1001
ACAD
1000
DSTYLE
1002
{
1070
   270
1070
     2
1070
     6
1000
EX_NORM
1070
     7
1000
EX_NORM
1070
    41
1040
30.0
1070
    42
1040
0.0
1070
    44
1040
0.0
1070
    73
1070
     0
1070
    74
1070
     0
1070
    75
1070
     1
1070
    76
1070
     1
1070
    77
1070
     1
1070
    78
1070
     0
1070
   140
1040
40.0
1070
   147
1040
0.0
1070
   173
1070
     1
1070
   176
1070
     3
1070
   177
1070
     3
1070
   178
1070
     2
1070
   271
1070
     0
1070
   277
1070
     2
1070
   279
1070
     2
1070
   280
1070
     0
1070
   287
1070
     5
1070
   340
1005
55D
1002
}
  0
DIMENSION
  5
59E
330
1F
100
AcDbEntity
  8
寸法
  6
CONTINUOUS
 62
     3
100
AcDbDimension
  2
*D20
 10
844.9723756906101
 20
1589.0
 30
0.0
 11
669.9861878453053
 21
1612.499999940395
 31
0.0
 70
   160
  3
ISO-25
100
AcDbAlignedDimension
 13
495.0000000000003
 23
1432.000018999983
 33
0.0
 14
844.9723756906101
 24
1431.4751571215
 34
0.0
100
AcDbRotatedDimension
1001
ACAD
1000
DSTYLE
1002
{
1070
   270
1070
     2
1070
     6
1000
EX_NORM
1070
     7
1000
EX_NORM
1070
    41
1040
30.0
1070
    42
1040
6.99999988079071
1070
    44
1040
10.0
1070
    73
1070
     0
1070
    74
1070
     0
1070
    75
1070
     0
1070
    76
1070
     0
1070
    77
1070
     1
1070
    78
1070
     0
1070
   140
1040
40.0
1070
   147
1040
0.0
1070
   173
1070
     1
1070
   176
1070
     3
1070
   177
1070
     3
1070
   178
1070
     2
1070
   271
1070
     0
1070
   277
1070
     2
1070
   279
1070
     2
1070
   280
1070
     0
1070
   287
1070
     5
1070
   340
1005
55D
1002
}
  0
DIMENSION
  5
5AB
330
1F
100
AcDbEntity
  8
寸法
  6
CONTINUOUS
 62
     3
100
AcDbDimension
  2
*D21
 10
1625.57489
 20
1575.0
 30
0.0
 11
1485.575043830413
 21
1598.499999940395
 31
0.0
 70
   160
  3
ISO-25
100
AcDbAlignedDimension
 13
1345.575197660826
 23
1432.000018999981
 33
0.0
 14
1625.57489
 24
1578.0
 34
0.0
100
AcDbRotatedDimension
1001
ACAD
1000
DSTYLE
1002
{
1070
   270
1070
     2
1070
     6
1000
EX_NORM
1070
     7
1000
EX_NORM
1070
    41
1040
30.0
1070
    42
1040
6.99999988079071
1070
    44
1040
10.0
1070
    73
1070
     0
1070
    74
1070
     0
1070
    75
1070
     0
1070
    76
1070
     0
1070
    77
1070
     1
1070
    78
1070
     0
1070
   140
1040
40.0
1070
   147
1040
0.0
1070
   173
1070
     1
1070
   176
1070
     3
1070
   177
1070
     3
1070
   178
1070
     2
1070
   271
1070
     0
1070
   277
1070
     2
1070
   279
1070
     2
1070
   280
1070
     0
1070
   287
1070
     5
1070
   340
1005
55D
1002
}
  0
LINE
  5
5B8
330
1F
100
AcDbEntity
  8
寸法
  6
CONTINUOUS
 62
     2
100
AcDbLine
 10
1325.57489
 20
1317.000019
 30
0.0
 11
1325.57489
 21
1337.000019
 31
0.0
  0
TEXT
  5
5B9
330
1F
100
AcDbEntity
  8
寸法
  6
CONTINUOUS
 62
     2
100
AcDbText
 10
1672.2141357435
 20
1048.670307224495
 30
0.0
 40
40.0
  1
Ｒ１/２
 41
0.8342465753424658
  7
EXCADSTD
 72
     5
 11
1788.2141357435
 21
1048.670307224495
 31
0.0
100
AcDbText
  0
LEADER
  5
5BA
330
1F
100
AcDbEntity
  8
寸法
  6
CONTINUOUS
 62
     3
100
AcDbLeader
  3
ISO-25
 76
     3
 10
1633.574889999963
 20
967.4999999998688
 30
0.0
 10
1667.2141357435
 20
1045.1703072841
 30
0.0
 10
1777.1
 20
1045.1703072841
 30
0.0
1001
ACAD
1000
DSTYLE
1002
{
1070
     5
1000
EX_NORM
1070
    41
1040
30.0
1070
   341
1005
4D
1002
}
  0
LEADER
  5
5BB
330
1F
100
AcDbEntity
  8
寸法
  6
CONTINUOUS
 62
     3
100
AcDbLeader
  3
ISO-25
 76
     3
 10
1579.6
 20
971.72243186434
 30
0.0
 10
1667.2141357435
 20
1097.9
 30
0.0
 10
1777.1
 20
1097.9
 30
0.0
1001
ACAD
1000
DSTYLE
1002
{
1070
     5
1000
EX_NORM
1070
    41
1040
30.0
1070
   341
1005
4D
1002
}
  0
DIMENSION
  5
5BC
330
1F
100
AcDbEntity
  8
寸法
  6
CONTINUOUS
 62
     3
100
AcDbDimension
  2
*D22
 10
920.0000000000001
 20
1317.000019
 30
0.0
 11
896.5000000596029
 21
1207.000019000001
 31
0.0
 70
   160
  1
（～28）
  3
ISO-25
100
AcDbAlignedDimension
 13
920.0000000000006
 23
1337.000019
 33
0.0
 14
920.0000000000001
 24
1317.000019
 34
0.0
 50
90.0
100
AcDbRotatedDimension
1001
ACAD
1000
DSTYLE
1002
{
1070
   270
1070
     2
1070
     6
1000
EX_NORM
1070
     7
1000
EX_NORM
1070
    41
1040
30.0
1070
    42
1040
0.0
1070
    44
1040
0.0
1070
    73
1070
     0
1070
    74
1070
     0
1070
    75
1070
     1
1070
    76
1070
     1
1070
    77
1070
     1
1070
    78
1070
     0
1070
   140
1040
40.0
1070
   147
1040
0.0
1070
   173
1070
     1
1070
   176
1070
     3
1070
   177
1070
     3
1070
   178
1070
     2
1070
   271
1070
     0
1070
   277
1070
     2
1070
   279
1070
     2
1070
   280
1070
     2
1070
   287
1070
     5
1070
   340
1005
55D
1002
}
  0
DIMENSION
  5
5C9
330
1F
100
AcDbEntity
  8
寸法
  6
CONTINUOUS
 62
     3
100
AcDbDimension
  2
*D23
 10
991.0000000000002
 20
1337.000019
 30
0.0
 11
967.5000000596049
 21
987.0000094999996
 31
0.0
 70
   160
  1
（700）
  3
ISO-25
100
AcDbAlignedDimension
 13
844.1251145000001
 23
637.0
 33
0.0
 14
844.9500045
 24
1337.000019
 34
0.0
 50
90.0
100
AcDbRotatedDimension
1001
ACAD
1000
DSTYLE
1002
{
1070
   270
1070
     2
1070
     6
1000
EX_NORM
1070
     7
1000
EX_NORM
1070
    41
1040
30.0
1070
    42
1040
6.99999988079071
1070
    44
1040
10.0
1070
    73
1070
     0
1070
    74
1070
     0
1070
    75
1070
     1
1070
    76
1070
     0
1070
    77
1070
     1
1070
    78
1070
     0
1070
   140
1040
40.0
1070
   147
1040
0.0
1070
   173
1070
     1
1070
   176
1070
     3
1070
   177
1070
     3
1070
   178
1070
     2
1070
   271
1070
     0
1070
   277
1070
     2
1070
   279
1070
     2
1070
   280
1070
     0
1070
   287
1070
     5
1070
   340
1005
55D
1002
}
  0
DIMENSION
  5
5D5
330
1F
100
AcDbEntity
  8
寸法
  6
CONTINUOUS
 62
     3
100
AcDbDimension
  2
*D24
 10
1054.0
 20
1437.000019
 30
0.0
 11
1030.500000059604
 21
1037.000009499999
 31
0.0
 70
   160
  1
800
  3
ISO-25
100
AcDbAlignedDimension
 13
891.4500045
 23
637.0
 33
0.0
 14
840.0
 24
1437.000019
 34
0.0
 50
90.0
100
AcDbRotatedDimension
1001
ACAD
1000
DSTYLE
1002
{
1070
   270
1070
     2
1070
     6
1000
EX_NORM
1070
     7
1000
EX_NORM
1070
    41
1040
30.0
1070
    42
1040
6.99999988079071
1070
    44
1040
10.0
1070
    73
1070
     0
1070
    74
1070
     0
1070
    75
1070
     1
1070
    76
1070
     0
1070
    77
1070
     1
1070
    78
1070
     0
1070
   140
1040
40.0
1070
   147
1040
0.0
1070
   173
1070
     1
1070
   176
1070
     3
1070
   177
1070
     3
1070
   178
1070
     2
1070
   271
1070
     0
1070
   277
1070
     2
1070
   279
1070
     2
1070
   280
1070
     0
1070
   287
1070
     5
1070
   340
1005
55D
1002
}
  0
DIMENSION
  5
5E1
330
1F
100
AcDbEntity
  8
寸法
  6
CONTINUOUS
 62
     3
100
AcDbDimension
  2
*D25
 10
991.0
 20
1437.000019
 30
0.0
 11
967.5000000596053
 21
1387.000018999999
 31
0.0
 70
   160
  3
ISO-25
100
AcDbAlignedDimension
 13
844.9500045
 23
1337.000019
 33
0.0
 14
840.0
 24
1437.000019
 34
0.0
 50
90.0
100
AcDbRotatedDimension
1001
ACAD
1000
DSTYLE
1002
{
1070
   270
1070
     2
1070
     6
1000
EX_NORM
1070
     7
1000
EX_NORM
1070
    41
1040
30.0
1070
    42
1040
0.0
1070
    44
1040
0.0
1070
    73
1070
     0
1070
    74
1070
     0
1070
    75
1070
     1
1070
    76
1070
     1
1070
    77
1070
     1
1070
    78
1070
     0
1070
   140
1040
40.0
1070
   147
1040
0.0
1070
   173
1070
     1
1070
   176
1070
     3
1070
   177
1070
     3
1070
   178
1070
     2
1070
   271
1070
     0
1070
   277
1070
     2
1070
   279
1070
     2
1070
   280
1070
     0
1070
   287
1070
     5
1070
   340
1005
55D
1002
}
  0
DIMENSION
  5
5EC
330
1F
100
AcDbEntity
  8
寸法
  6
CONTINUOUS
 62
     3
100
AcDbDimension
  2
*D26
 10
1794.0
 20
957.0
 30
0.0
 11
1770.500000059605
 21
796.9999999999984
 31
0.0
 70
   160
  1
320（壁給水）
  3
ISO-25
100
AcDbAlignedDimension
 13
1640.7903976676
 23
637.0
 33
0.0
 14
1667.2155076676
 24
957.0
 34
0.0
 50
90.0
100
AcDbRotatedDimension
1001
ACAD
1000
DSTYLE
1002
{
1070
   270
1070
     2
1070
     6
1000
EX_NORM
1070
     7
1000
EX_NORM
1070
    41
1040
30.0
1070
    42
1040
6.99999988079071
1070
    44
1040
10.0
1070
    73
1070
     0
1070
    74
1070
     0
1070
    75
1070
     1
1070
    76
1070
     0
1070
    77
1070
     1
1070
    78
1070
     0
1070
   140
1040
40.0
1070
   147
1040
0.0
1070
   173
1070
     1
1070
   176
1070
     3
1070
   177
1070
     3
1070
   178
1070
     2
1070
   271
1070
     0
1070
   277
1070
     2
1070
   279
1070
     2
1070
   280
1070
     0
1070
   287
1070
     5
1070
   340
1005
55D
1002
}
  0
DIMENSION
  5
5F8
330
1F
100
AcDbEntity
  8
寸法
  6
CONTINUOUS
 62
     3
100
AcDbDimension
  2
*D27
 10
1864.0
 20
1212.0
 30
0.0
 11
1840.500000059605
 21
924.4999999999966
 31
0.0
 70
   160
  1
575（壁排水）
  3
ISO-25
100
AcDbAlignedDimension
 13
1640.7903976676
 23
637.0
 33
0.0
 14
1682.9155076676
 24
1212.0
 34
0.0
 50
90.0
100
AcDbRotatedDimension
1001
ACAD
1000
DSTYLE
1002
{
1070
   270
1070
     2
1070
     6
1000
EX_NORM
1070
     7
1000
EX_NORM
1070
    41
1040
30.0
1070
    42
1040
6.99999988079071
1070
    44
1040
10.0
1070
    73
1070
     0
1070
    74
1070
     0
1070
    75
1070
     0
1070
    76
1070
     0
1070
    77
1070
     1
1070
    78
1070
     0
1070
   140
1040
40.0
1070
   147
1040
0.0
1070
   173
1070
     1
1070
   176
1070
     3
1070
   177
1070
     3
1070
   178
1070
     2
1070
   271
1070
     0
1070
   277
1070
     2
1070
   279
1070
     2
1070
   280
1070
     0
1070
   287
1070
     5
1070
   340
1005
55D
1002
}
  0
TEXT
  5
605
330
1F
100
AcDbEntity
  8
寸法
  6
CONTINUOUS
 62
     2
100
AcDbText
 10
1672.3155076676
 20
1101.278062607995
 30
0.0
 40
40.0
  1
止水栓
 41
1.070588235294118
  7
EXCADSTD
 72
     5
 11
1776.3155076676
 21
1101.278062607995
 31
0.0
100
AcDbText
  0
TEXT
  5
606
330
1F
100
AcDbEntity
  8
寸法
  6
CONTINUOUS
 62
     2
100
AcDbText
 10
1689.2141357435
 20
1305.870347624595
 30
0.0
 40
40.0
  1
φ２５
 41
1.070588235294118
  7
EXCADSTD
 72
     5
 11
1793.2141357435
 21
1305.870347624595
 31
0.0
100
AcDbText
  0
LEADER
  5
607
330
1F
100
AcDbEntity
  8
寸法
  6
CONTINUOUS
 62
     3
100
AcDbLeader
  3
ISO-25
 76
     3
 10
1650.574889999963
 20
1224.700040399969
 30
0.0
 10
1684.2141357435
 20
1302.3703476842
 30
0.0
 10
1781.214135743501
 20
1302.3703476842
 30
0.0
1001
ACAD
1000
DSTYLE
1002
{
1070
     5
1000
EX_NORM
1070
    41
1040
30.0
1070
   341
1005
4D
1002
}
  0
DIMENSION
  5
608
330
1F
100
AcDbEntity
  8
寸法
  6
CONTINUOUS
 62
     3
100
AcDbDimension
  2
*D28
 10
542.00000000001
 20
2313.5
 30
0.0
 11
592.0000000000055
 21
2336.999999940395
 31
0.0
 70
   160
  3
ISO-25
100
AcDbAlignedDimension
 13
642.0000000000002
 23
2433.78191965392
 33
0.0
 14
542.00000000001
 24
2390.981919653921
 34
0.0
100
AcDbRotatedDimension
1001
ACAD
1000
DSTYLE
1002
{
1070
   270
1070
     2
1070
     6
1000
EX_NORM
1070
     7
1000
EX_NORM
1070
    41
1040
30.0
1070
    42
1040
13.18192005157471
1070
    44
1040
10.0
1070
    73
1070
     0
1070
    74
1070
     0
1070
    75
1070
     1
1070
    76
1070
     0
1070
    77
1070
     1
1070
    78
1070
     0
1070
   140
1040
40.0
1070
   147
1040
0.0
1070
   173
1070
     1
1070
   176
1070
     3
1070
   177
1070
     3
1070
   178
1070
     2
1070
   271
1070
     0
1070
   277
1070
     2
1070
   279
1070
     2
1070
   280
1070
     0
1070
   287
1070
     5
1070
   340
1005
55D
1002
}
  0
DIMENSION
  5
614
330
1F
100
AcDbEntity
  8
寸法
  6
CONTINUOUS
 62
     3
100
AcDbDimension
  2
*D29
 10
397.4999999999989
 20
2424.481919653921
 30
0.0
 11
374.0000000596049
 21
2499.98191965392
 31
0.0
 70
   160
  3
ISO-25
100
AcDbAlignedDimension
 13
447.0000000000002
 23
2575.48191965392
 33
0.0
 14
502.5000000000003
 24
2424.481919653921
 34
0.0
 50
90.0
100
AcDbRotatedDimension
1001
ACAD
1000
DSTYLE
1002
{
1070
   270
1070
     2
1070
     6
1000
EX_NORM
1070
     7
1000
EX_NORM
1070
    41
1040
30.0
1070
    42
1040
12.59999990463257
1070
    44
1040
10.0
1070
    73
1070
     0
1070
    74
1070
     0
1070
    75
1070
     1
1070
    76
1070
     0
1070
    77
1070
     1
1070
    78
1070
     0
1070
   140
1040
40.0
1070
   147
1040
0.0
1070
   173
1070
     1
1070
   176
1070
     3
1070
   177
1070
     3
1070
   178
1070
     2
1070
   271
1070
     0
1070
   277
1070
     2
1070
   279
1070
     2
1070
   280
1070
     0
1070
   287
1070
     5
1070
   340
1005
55D
1002
}
  0
DIMENSION
  5
620
330
1F
100
AcDbEntity
  8
寸法
  6
CONTINUOUS
 62
     3
100
AcDbDimension
  2
*D30
 10
451.7999999999991
 20
2484.48193002825
 30
0.0
 11
428.3000000596053
 21
2529.981924841085
 31
0.0
 70
   160
  3
ISO-25
100
AcDbAlignedDimension
 13
447.0000000000002
 23
2575.48191965392
 33
0.0
 14
553.5000000000002
 24
2484.48193002825
 34
0.0
 50
90.0
100
AcDbRotatedDimension
1001
ACAD
1000
DSTYLE
1002
{
1070
   270
1070
     2
1070
     6
1000
EX_NORM
1070
     7
1000
EX_NORM
1070
    41
1040
30.0
1070
    42
1040
40.0
1070
    44
1040
10.0
1070
    73
1070
     0
1070
    74
1070
     0
1070
    75
1070
     1
1070
    76
1070
     0
1070
    77
1070
     1
1070
    78
1070
     0
1070
   140
1040
40.0
1070
   147
1040
0.0
1070
   173
1070
     1
1070
   176
1070
     3
1070
   177
1070
     3
1070
   178
1070
     2
1070
   271
1070
     0
1070
   277
1070
     2
1070
   279
1070
     2
1070
   280
1070
     0
1070
   287
1070
     5
1070
   340
1005
55D
1002
}
  0
DIMENSION
  5
62C
330
1F
100
AcDbEntity
  8
寸法
  6
CONTINUOUS
 62
     3
100
AcDbDimension
  2
*D31
 10
692.0000000000002
 20
2619.5
 30
0.0
 11
642.0000000000005
 21
2642.999999940395
 31
0.0
 70
   160
  3
ISO-25
100
AcDbAlignedDimension
 13
592.0000000000002
 23
2490.5
 33
0.0
 14
692.0000000000002
 24
2490.5
 34
0.0
100
AcDbRotatedDimension
1001
ACAD
1000
DSTYLE
1002
{
1070
   270
1070
     2
1070
     6
1000
EX_NORM
1070
     7
1000
EX_NORM
1070
    41
1040
30.0
1070
    42
1040
65.0
1070
    44
1040
10.0
1070
    73
1070
     0
1070
    74
1070
     0
1070
    75
1070
     0
1070
    76
1070
     0
1070
    77
1070
     1
1070
    78
1070
     0
1070
   140
1040
40.0
1070
   147
1040
0.0
1070
   173
1070
     1
1070
   176
1070
     3
1070
   177
1070
     3
1070
   178
1070
     2
1070
   271
1070
     0
1070
   277
1070
     2
1070
   279
1070
     2
1070
   280
1070
     0
1070
   287
1070
     5
1070
   340
1005
55D
1002
}
  0
DIMENSION
  5
639
330
1F
100
AcDbEntity
  8
寸法
  6
CONTINUOUS
 62
     3
100
AcDbDimension
  2
*D32
 10
744.0000000000001
 20
2555.5
 30
0.0
 11
720.5000000596059
 21
2640.481919653919
 31
0.0
 70
   160
 53
90.00000000000001
  3
ISO-25
100
AcDbAlignedDimension
 13
642.0000000000002
 23
2575.48191965392
 33
0.0
 14
672.0000000000002
 24
2555.5
 34
0.0
 50
90.0
100
AcDbRotatedDimension
1001
ACAD
1000
DSTYLE
1002
{
1070
   270
1070
     2
1070
     6
1000
EX_NORM
1070
     7
1000
EX_NORM
1070
    41
1040
30.0
1070
    42
1040
0.0
1070
    44
1040
0.0
1070
    73
1070
     0
1070
    74
1070
     0
1070
    75
1070
     1
1070
    76
1070
     1
1070
    77
1070
     1
1070
    78
1070
     0
1070
   140
1040
40.0
1070
   147
1040
0.0
1070
   173
1070
     1
1070
   176
1070
     3
1070
   177
1070
     3
1070
   178
1070
     2
1070
   271
1070
     0
1070
   277
1070
     2
1070
   279
1070
     2
1070
   280
1070
     0
1070
   287
1070
     5
1070
   340
1005
55D
1002
}
  0
DIMENSION
  5
646
330
1F
100
AcDbEntity
  8
寸法
  6
CONTINUOUS
 62
     3
100
AcDbDimension
  2
*D33
 10
744.0000000000001
 20
2470.5
 30
0.0
 11
720.5000000596053
 21
2513.000000000001
 31
0.0
 70
   160
  3
ISO-25
100
AcDbAlignedDimension
 13
672.0000000000002
 23
2555.5
 33
0.0
 14
672.0000000000002
 24
2470.5
 34
0.0
 50
90.0
100
AcDbRotatedDimension
1001
ACAD
1000
DSTYLE
1002
{
1070
   270
1070
     2
1070
     6
1000
EX_NORM
1070
     7
1000
EX_NORM
1070
    41
1040
30.0
1070
    42
1040
20.0
1070
    44
1040
10.0
1070
    73
1070
     0
1070
    74
1070
     0
1070
    75
1070
     0
1070
    76
1070
     0
1070
    77
1070
     1
1070
    78
1070
     0
1070
   140
1040
40.0
1070
   147
1040
0.0
1070
   173
1070
     1
1070
   176
1070
     3
1070
   177
1070
     3
1070
   178
1070
     2
1070
   271
1070
     0
1070
   277
1070
     2
1070
   279
1070
     2
1070
   280
1070
     0
1070
   287
1070
     5
1070
   340
1005
55D
1002
}
  0
DIMENSION
  5
653
330
1F
100
AcDbEntity
  8
寸法
  6
CONTINUOUS
 62
     3
100
AcDbDimension
  2
*D34
 10
764.5000000000002
 20
2679.5
 30
0.0
 11
642.0000000000005
 21
2702.999999940395
 31
0.0
 70
   160
  3
ISO-25
100
AcDbAlignedDimension
 13
519.5000000000002
 23
2504.381919653921
 33
0.0
 14
764.5000000000002
 24
2500.28191965392
 34
0.0
100
AcDbRotatedDimension
1001
ACAD
1000
DSTYLE
1002
{
1070
   270
1070
     2
1070
     6
1000
EX_NORM
1070
     7
1000
EX_NORM
1070
    41
1040
30.0
1070
    42
1040
0.0000000000213731
1070
    44
1040
10.0
1070
    73
1070
     0
1070
    74
1070
     0
1070
    75
1070
     0
1070
    76
1070
     0
1070
    77
1070
     1
1070
    78
1070
     0
1070
   140
1040
40.0
1070
   147
1040
0.0
1070
   173
1070
     1
1070
   176
1070
     3
1070
   177
1070
     3
1070
   178
1070
     2
1070
   271
1070
     0
1070
   277
1070
     2
1070
   279
1070
     2
1070
   280
1070
     0
1070
   287
1070
     5
1070
   340
1005
55D
1002
}
  0
TEXT
  5
660
330
1F
100
AcDbEntity
  8
寸法
  6
CONTINUOUS
 62
     2
100
AcDbText
 10
859.9999999999745
 20
2530.481919653899
 30
0.0
 40
40.0
  1
Ｗ.Ｌ.
 41
0.9086538461538461
  7
EXCADSTD
 72
     5
 11
949.9999999999745
 21
2530.481919653899
 31
0.0
100
AcDbText
  0
TEXT
  5
661
330
1F
100
AcDbEntity
  8
寸法
  6
CONTINUOUS
 62
     2
100
AcDbText
 10
1222.000000238418
 20
1503.010707599096
 30
0.0
 40
40.0
  1
手洗器
 41
1.070588235294118
  7
EXCADSTD
 72
     5
 11
1326.000000238418
 21
1503.010707599096
 31
0.0
100
AcDbText
  0
LEADER
  5
662
330
1F
100
AcDbEntity
  8
寸法
  6
CONTINUOUS
 62
     3
100
AcDbLeader
  3
ISO-25
 76
     3
 10
1371.06584531209
 20
1437.000018999993
 30
0.0
 10
1325.999999999999
 20
1499.5107076587
 30
0.0
 10
1220.0
 20
1499.5107076587
 30
0.0
1001
ACAD
1000
DSTYLE
1002
{
1070
     5
1000
EX_NORM
1070
    41
1040
30.0
1070
   341
1005
4D
1002
}
  0
LEADER
  5
663
330
1F
100
AcDbEntity
  8
寸法
  6
CONTINUOUS
 62
     3
100
AcDbLeader
  3
ISO-25
 76
     3
 10
1579.216870646072
 20
1498.374157260351
 30
0.0
 10
1639.5668651069
 20
1560.1092658927
 30
0.0
 10
1759.3892043628
 20
1560.0169888603
 30
0.0
1001
ACAD
1000
DSTYLE
1002
{
1070
     5
1000
EX_NORM
1070
    41
1040
30.0
1070
   341
1005
4D
1002
}
  0
TEXT
  5
664
330
1F
100
AcDbEntity
  8
寸法
  6
CONTINUOUS
 62
     2
100
AcDbText
 10
1649.165488776218
 20
1563.521781780296
 30
0.0
 40
40.0
  1
単水栓
 41
1.070588235294118
  7
EXCADSTD
 72
     5
 11
1753.165488776218
 21
1563.521781780296
 31
0.0
100
AcDbText
  0
DIMENSION
  5
665
330
1F
100
AcDbEntity
  8
固定ボルト穴詳細
  6
CONTINUOUS
 62
     3
100
AcDbDimension
  2
*D35
 10
799.2000000000002
 20
2159.025644346999
 30
0.0
 11
775.7000000596051
 21
2209.025644346999
 31
0.0
 70
   160
  3
ISO-25
100
AcDbAlignedDimension
 13
930.0
 23
2259.025644346999
 33
0.0
 14
930.0
 24
2159.025644346999
 34
0.0
 50
90.0
100
AcDbRotatedDimension
1001
ACAD
1000
DSTYLE
1002
{
1070
   270
1070
     2
1070
     6
1000
EX_NORM
1070
     7
1000
EX_NORM
1070
    41
1040
30.0
1070
    42
1040
0.0000000000001137
1070
    44
1040
10.0
1070
    73
1070
     0
1070
    74
1070
     0
1070
    75
1070
     0
1070
    76
1070
     0
1070
    77
1070
     1
1070
    78
1070
     0
1070
   140
1040
40.0
1070
   144
1040
0.2
1070
   147
1040
0.0
1070
   173
1070
     1
1070
   176
1070
     3
1070
   177
1070
     3
1070
   178
1070
     2
1070
   271
1070
     0
1070
   277
1070
     2
1070
   279
1070
     2
1070
   280
1070
     0
1070
   287
1070
     5
1070
   340
1005
55D
1002
}
  0
DIMENSION
  5
672
330
1F
100
AcDbEntity
  8
固定ボルト穴詳細
  6
CONTINUOUS
 62
     3
100
AcDbDimension
  2
*D36
 10
854.7999999999998
 20
2189.025644346999
 30
0.0
 11
831.3000000596046
 21
2209.025644346999
 31
0.0
 70
   160
  3
ISO-25
100
AcDbAlignedDimension
 13
900.0
 23
2229.025644346999
 33
0.0
 14
900.0
 24
2189.025644346999
 34
0.0
 50
90.0
100
AcDbRotatedDimension
1001
ACAD
1000
DSTYLE
1002
{
1070
   270
1070
     2
1070
     6
1000
EX_NORM
1070
     7
1000
EX_NORM
1070
    41
1040
30.0
1070
    42
1040
9.699999999999932
1070
    44
1040
9.999999999999432
1070
    73
1070
     0
1070
    74
1070
     0
1070
    75
1070
     0
1070
    76
1070
     0
1070
    77
1070
     1
1070
    78
1070
     0
1070
   140
1040
40.0
1070
   144
1040
0.2
1070
   147
1040
0.0
1070
   173
1070
     1
1070
   176
1070
     3
1070
   177
1070
     3
1070
   178
1070
     2
1070
   271
1070
     0
1070
   277
1070
     2
1070
   279
1070
     2
1070
   280
1070
     0
1070
   287
1070
     5
1070
   340
1005
55D
1002
}
  0
DIMENSION
  5
681
330
1F
100
AcDbEntity
  8
固定ボルト穴詳細
  6
CONTINUOUS
 62
     3
100
AcDbDimension
  2
*D37
 10
960.0
 20
2297.725644347
 30
0.0
 11
930.0000000000001
 21
2321.225644287395
 31
0.0
 70
   160
  3
ISO-25
100
AcDbAlignedDimension
 13
900.0
 23
2229.025644346999
 33
0.0
 14
960.0
 24
2229.025644346999
 34
0.0
100
AcDbRotatedDimension
1001
ACAD
1000
DSTYLE
1002
{
1070
   270
1070
     2
1070
     6
1000
EX_NORM
1070
     7
1000
EX_NORM
1070
    41
1040
30.0
1070
    42
1040
0.0
1070
    44
1040
10.0
1070
    73
1070
     0
1070
    74
1070
     0
1070
    75
1070
     0
1070
    76
1070
     0
1070
    77
1070
     1
1070
    78
1070
     0
1070
   140
1040
40.0
1070
   144
1040
0.2
1070
   147
1040
0.0
1070
   173
1070
     1
1070
   176
1070
     3
1070
   177
1070
     3
1070
   178
1070
     2
1070
   271
1070
     0
1070
   277
1070
     2
1070
   279
1070
     2
1070
   280
1070
     0
1070
   287
1070
     5
1070
   340
1005
55D
1002
}
  0
TEXT
  5
68E
330
1F
100
AcDbEntity
  8
固定ボルト穴詳細
  6
CONTINUOUS
 62
     2
100
AcDbText
 10
365.0000002384114
 20
2620.499999940396
 30
0.0
 40
40.0
  1
固定穴
 41
1.070588235294118
  7
EXCADSTD
 72
     5
 11
469.0000002384114
 21
2620.499999940396
 31
0.0
100
AcDbText
  0
LEADER
  5
68F
330
1F
100
AcDbEntity
  8
固定ボルト穴詳細
  6
CONTINUOUS
 62
     3
100
AcDbLeader
  3
ISO-25
 76
     3
 10
515.8255567016926
 20
2497.2251848651
 30
0.0
 10
468.9999999999925
 20
2617.0
 30
0.0
 10
366.9999999999928
 20
2617.0
 30
0.0
1001
ACAD
1000
DSTYLE
1002
{
1070
     5
1000
EX_NORM
1070
    41
1040
30.0
1070
   341
1005
4D
1002
}
  0
TEXT
  5
690
330
1F
100
AcDbEntity
  8
固定ボルト穴詳細
  6
CONTINUOUS
 62
     2
100
AcDbText
 10
780.0000002980232
 20
2076.125644347
 30
0.0
 40
40.0
  1
固定穴詳細図
  7
EXCADSTD
 72
     5
 11
980.0000002980232
 21
2076.125644347
 31
0.0
100
AcDbText
  0
TEXT
  5
691
330
1F
100
AcDbEntity
  8
固定ボルト穴詳細
  6
CONTINUOUS
 62
     2
100
AcDbText
 10
780.0000002980232
 20
2036.125644347
 30
0.0
 40
40.0
  1
Ｓ＝１／２
 41
1.013793103448276
  7
EXCADSTD
 72
     5
 11
948.0000002980232
 21
2036.125644347
 31
0.0
100
AcDbText
  0
LINE
  5
692
330
1F
100
AcDbEntity
  8
固定ボルト穴詳細
  6
EXLTYPE3
 62
     6
100
AcDbLine
 10
888.9000000000017
 20
2189.025644346999
 30
0.0
 11
973.600000000002
 21
2189.025644346999
 31
0.0
  0
LINE
  5
693
330
1F
100
AcDbEntity
  8
固定ボルト穴詳細
  6
EXLTYPE3
 62
     6
100
AcDbLine
 10
930.0000000000007
 20
2138.02559247535
 30
0.0
 11
930.0000000000007
 21
2244.27559247535
 31
0.0
  0
LINE
  5
694
330
1F
100
AcDbEntity
  8
固定ボルト穴詳細
  6
EXLTYPE3
 62
     6
100
AcDbLine
 10
930.0000000000007
 20
2138.02559247535
 30
0.0
 11
930.0000000000007
 21
2288.52559247535
 31
0.0
  0
ARC
  5
695
330
1F
100
AcDbEntity
  8
固定ボルト穴詳細
  6
CONTINUOUS
 62
     2
100
AcDbCircle
 10
930.0
 20
2189.025644346999
 30
0.0
 40
30.0
100
AcDbArc
 50
180.0
 51
0.0
  0
LINE
  5
696
330
1F
100
AcDbEntity
  8
固定ボルト穴詳細
  6
CONTINUOUS
 62
     2
100
AcDbLine
 10
900.0000000000002
 20
2189.025644346999
 30
0.0
 11
900.0000000000002
 21
2229.025644346999
 31
0.0
  0
LINE
  5
697
330
1F
100
AcDbEntity
  8
固定ボルト穴詳細
  6
CONTINUOUS
 62
     2
100
AcDbLine
 10
960.0000000000002
 20
2229.025644346999
 30
0.0
 11
960.0000000000002
 21
2189.025644346999
 31
0.0
  0
ARC
  5
698
330
1F
100
AcDbEntity
  8
固定ボルト穴詳細
  6
CONTINUOUS
 62
     2
100
AcDbCircle
 10
930.0
 20
2229.025644346999
 30
0.0
 40
30.0
100
AcDbArc
 50
0.0
 51
180.0
  0
LINE
  5
699
330
1F
100
AcDbEntity
  8
固定ボルト穴詳細
  6
EXLTYPE3
 62
     6
100
AcDbLine
 10
890.3000000000004
 20
2229.025644346999
 30
0.0
 11
973.5999999999999
 21
2229.025644346999
 31
0.0
  0
ENDSEC
  0
SECTION
  2
OBJECTS
  0
DICTIONARY
  5
C
330
0
100
AcDbDictionary
  3
ACAD_GROUP
350
D
  3
ACAD_LAYOUT
350
1A
  3
ACAD_MATERIAL
350
3B
  3
ACAD_MLEADERSTYLE
350
6BC
  3
ACAD_MLINESTYLE
350
17
  3
ACAD_PLOTSETTINGS
350
19
  3
ACAD_VISUALSTYLE
350
2A
  3
ACDBHEADERROUNDTRIPXREC
350
69A
  3
ACDBVARIABLEDICTIONARY
350
6BA
  0
DICTIONARY
  5
D
102
{ACAD_REACTORS
330
C
102
}
330
C
100
AcDbDictionary
  0
DICTIONARY
  5
1A
102
{ACAD_REACTORS
330
C
102
}
330
C
100
AcDbDictionary
  0
DICTIONARY
  5
3B
102
{ACAD_REACTORS
330
C
102
}
330
C
100
AcDbDictionary
  3
BYBLOCK
350
3D
  3
BYLAYER
350
3C
  3
GLOBAL
350
3E
  0
DICTIONARY
  5
6BC
102
{ACAD_REACTORS
330
C
102
}
330
C
100
AcDbDictionary
  0
DICTIONARY
  5
17
102
{ACAD_REACTORS
330
C
102
}
330
C
100
AcDbDictionary
  3
STANDARD
350
18
  0
DICTIONARY
  5
19
102
{ACAD_REACTORS
330
C
102
}
330
C
100
AcDbDictionary
  0
DICTIONARY
  5
2A
102
{ACAD_REACTORS
330
C
102
}
330
C
100
AcDbDictionary
  3
2DWIREFRAME
350
2F
  3
3D_HIDDEN
350
31
  3
3DWIREFRAME
350
30
  3
BASIC
350
32
  3
BRIGHTEN
350
36
  3
COLORCHANGE
350
3A
  3
CONCEPTUAL
350
34
  3
DIM
350
35
  3
FACEPATTERN
350
39
  3
FLAT
350
2B
  3
FLATWITHEDGES
350
2C
  3
GOURAUD
350
2D
  3
GOURAUDWITHEDGES
350
2E
  3
LINEPATTERN
350
38
  3
REALISTIC
350
33
  3
THICKEN
350
37
  0
DICTIONARY
  5
69A
102
{ACAD_REACTORS
330
C
102
}
330
C
100
AcDbDictionary
  3
CEPSNTYPE
350
6A3
  3
DIMSTYLEDATA
350
6B9
  3
FINGERPRINTGUID
350
6A4
  3
HYPERLINKBASE
350
69D
  3
INSUNITS
350
6A2
  3
LAYOUTDICT
350
69F
  3
LWETCUNION
350
6A1
  3
PLOTSETDICT
350
6A0
  3
PSVPSCALE
350
6A6
  3
PUCSBASE
350
6A9
  3
PUCSORGBACK
350
6AF
  3
PUCSORGBOTTOM
350
6AB
  3
PUCSORGFRONT
350
6AE
  3
PUCSORGLEFT
350
6AC
  3
PUCSORGRIGHT
350
6AD
  3
PUCSORGTOP
350
6AA
  3
PUCSORTHOREF
350
6A7
  3
PUCSORTHOVIEW
350
6A8
  3
STYLESHEET
350
69E
  3
TSTACKALIGN
350
69B
  3
TSTACKSIZE
350
69C
  3
UCSBASE
350
6B2
  3
UCSORGBACK
350
6B8
  3
UCSORGBOTTOM
350
6B4
  3
UCSORGFRONT
350
6B7
  3
UCSORGLEFT
350
6B5
  3
UCSORGRIGHT
350
6B6
  3
UCSORGTOP
350
6B3
  3
UCSORTHOREF
350
6B0
  3
UCSORTHOVIEW
350
6B1
  3
VERSIONGUID
350
6A5
  0
DICTIONARY
  5
6BA
102
{ACAD_REACTORS
330
C
102
}
330
C
100
AcDbDictionary
  3
DIMASSOC
350
6BF
  3
HIDETEXT
350
6C0
  3
PSOLHEIGHT
350
6BE
  3
PSOLWIDTH
350
6BD
  0
MATERIAL
  5
3D
102
{ACAD_REACTORS
330
3B
102
}
102
{ACAD_XDICTIONARY
360
6C3
102
}
330
3B
100
AcDbMaterial
  1
ByBlock
  0
MATERIAL
  5
3C
102
{ACAD_REACTORS
330
3B
102
}
102
{ACAD_XDICTIONARY
360
6C1
102
}
330
3B
100
AcDbMaterial
  1
ByLayer
  0
MATERIAL
  5
3E
102
{ACAD_REACTORS
330
3B
102
}
102
{ACAD_XDICTIONARY
360
6C5
102
}
330
3B
100
AcDbMaterial
  1
Global
  0
MLINESTYLE
  5
18
102
{ACAD_REACTORS
330
17
102
}
330
17
100
AcDbMlineStyle
  2
Standard
 70
     0
  3

 62
   256
 51
90.0
 52
90.0
 71
     2
 49
0.5
 62
   256
  6
BYLAYER
 49
-0.5
 62
   256
  6
BYLAYER
  0
ACAD_PROXY_OBJECT
  5
2F
102
{ACAD_REACTORS
330
2A
102
}
330
2A
100
AcDbProxyObject
 90
      499
 91
      501
 93
      436
310
42CC9915DA5C99599C985B595049028333333333333E3BF0000000000000FB0107901411070040501600405405064090741402480A0340
1001
ACAD
1000
AcDbSavedByObjectVersion
1070
     0
  0
ACAD_PROXY_OBJECT
  5
31
102
{ACAD_REACTORS
330
2A
102
}
330
2A
100
AcDbProxyObject
 90
      499
 91
      501
 93
      500
310
424CD108121A5919195B90640502408333333333333E3BF0000000000000FB01079024090700405020000000000001110200405405064090740C02480A0340
1001
ACAD
1000
AcDbSavedByObjectVersion
1070
     0
  0
ACAD_PROXY_OBJECT
  5
30
102
{ACAD_REACTORS
330
2A
102
}
330
2A
100
AcDbProxyObject
 90
      499
 91
      501
 93
      436
310
42CCD915DA5C99599C985B595059028333333333333E3BF0000000000000FB0107901411070040501600405405064090741402480A0340
1001
ACAD
1000
AcDbSavedByObjectVersion
1070
     0
  0
ACAD_PROXY_OBJECT
  5
32
102
{ACAD_REACTORS
330
2A
102
}
330
2A
100
AcDbProxyObject
 90
      499
 91
      501
 93
      388
310
4150985CDA58D07406404333333333333E3BF0000000000000FB0107A41107004050150841D405064090741402480A0350
1001
ACAD
1000
AcDbSavedByObjectVersion
1070
     0
  0
ACAD_PROXY_OBJECT
  5
36
102
{ACAD_REACTORS
330
2A
102
}
330
2A
100
AcDbProxyObject
 90
      499
 91
      501
 93
      428
310
42109C9A59DA1D195B90C409028333333333333E3BF0000000000000FB010790141107004050150841D405064090741402480A029950
1001
ACAD
1000
AcDbSavedByObjectVersion
1070
     0
  0
ACAD_PROXY_OBJECT
  5
3A
102
{ACAD_REACTORS
330
2A
102
}
330
2A
100
AcDbProxyObject
 90
      499
 91
      501
 93
      452
310
42D0DBDB1BDC90DA185B99D95104090240C333333333333E3BF0000000000000FB0108901411070040501508421405064090741402480A0350
1001
ACAD
1000
AcDbSavedByObjectVersion
1070
     0
  0
ACAD_PROXY_OBJECT
  5
34
102
{ACAD_REACTORS
330
2A
102
}
330
2A
100
AcDbProxyObject
 90
      499
 91
      501
 93
      500
310
4290DBDB98D95C1D1D585B10940D028333333333333E3BF0000000000000FB0107902409070040501000000000000111010841D405064090740C02480A0340
1001
ACAD
1000
AcDbSavedByObjectVersion
1070
     0
  0
ACAD_PROXY_OBJECT
  5
35
102
{ACAD_REACTORS
330
2A
102
}
330
2A
100
AcDbProxyObject
 90
      499
 91
      501
 93
      412
310
40D11A5B50B409028333333333333E3BF0000000000000FB010790141107004050150841D405064090741402480A02677FFFFFD0
1001
ACAD
1000
AcDbSavedByObjectVersion
1070
     0
  0
ACAD_PROXY_OBJECT
  5
39
102
{ACAD_REACTORS
330
2A
102
}
330
2A
100
AcDbProxyObject
 90
      499
 91
      501
 93
      444
310
42D19858D95C185D1D195C9B90F409028333333333333E3BF0000000000000FB010790141107004050150841D405064090741402480A0350
1001
ACAD
1000
AcDbSavedByObjectVersion
1070
     0
  0
ACAD_PROXY_OBJECT
  5
2B
102
{ACAD_REACTORS
330
2A
102
}
330
2A
100
AcDbProxyObject
 90
      499
 91
      501
 93
      388
310
41119B185D240901404333333333333E3BF0000000000000F9010740A41107004050150841D405064090741402480A1B50
1001
ACAD
1000
AcDbSavedByObjectVersion
1070
     0
  0
ACAD_PROXY_OBJECT
  5
2C
102
{ACAD_REACTORS
330
2A
102
}
330
2A
100
AcDbProxyObject
 90
      499
 91
      501
 93
      476
310
43519B185D15DA5D1A115919D95CD0140901404333333333333E3BF0000000000000F9010740901411070040501600405405064090741402480A1B50
1001
ACAD
1000
AcDbSavedByObjectVersion
1070
     0
  0
ACAD_PROXY_OBJECT
  5
2D
102
{ACAD_REACTORS
330
2A
102
}
330
2A
100
AcDbProxyObject
 90
      499
 91
      501
 93
      412
310
41D1DBDD5C985D5910240902404333333333333E3BF0000000000000F9010740A411070040501641D405064090741402480A1B50
1001
ACAD
1000
AcDbSavedByObjectVersion
1070
     0
  0
ACAD_PROXY_OBJECT
  5
2E
102
{ACAD_REACTORS
330
2A
102
}
330
2A
100
AcDbProxyObject
 90
      499
 91
      501
 93
      500
310
4411DBDD5C985D5915DA5D1A115919D95CD0340902404333333333333E3BF0000000000000F9010740901411070040501600405405064090741402480A1B50
1001
ACAD
1000
AcDbSavedByObjectVersion
1070
     0
  0
ACAD_PROXY_OBJECT
  5
38
102
{ACAD_REACTORS
330
2A
102
}
330
2A
100
AcDbProxyObject
 90
      499
 91
      501
 93
      444
310
42D31A5B995C185D1D195C9B90E409028333333333333E3BF0000000000000FB010790141107004050750841D405064090741402483A0350
1001
ACAD
1000
AcDbSavedByObjectVersion
1070
     0
  0
ACAD_PROXY_OBJECT
  5
33
102
{ACAD_REACTORS
330
2A
102
}
330
2A
100
AcDbProxyObject
 90
      499
 91
      501
 93
      420
310
425499585B1A5CDD1A58D08409028333333333333E3BF0000000000000FB01079019070040501508421405064090741402480A1B40
1001
ACAD
1000
AcDbSavedByObjectVersion
1070
     0
  0
ACAD_PROXY_OBJECT
  5
37
102
{ACAD_REACTORS
330
2A
102
}
330
2A
100
AcDbProxyObject
 90
      499
 91
      501
 93
      412
310
41D51A1A58DAD95B90D409028333333333333E3BF0000000000000FB010790141107004050150C41D405064090741402480A0350
1001
ACAD
1000
AcDbSavedByObjectVersion
1070
     0
  0
XRECORD
  5
6A3
102
{ACAD_REACTORS
330
69A
102
}
330
69A
100
AcDbXrecord
 90
        0
  0
XRECORD
  5
6B9
102
{ACAD_REACTORS
330
69A
102
}
330
69A
100
AcDbXrecord
1000
DSTYLE
1002
{
1070
   340
340
11
1002
}
  0
XRECORD
  5
6A4
102
{ACAD_REACTORS
330
69A
102
}
330
69A
100
AcDbXrecord
  1
{36212603-0AB0-4FC4-A293-A91FEDF6647C}
  0
XRECORD
  5
69D
102
{ACAD_REACTORS
330
69A
102
}
330
69A
100
AcDbXrecord
  1

  0
XRECORD
  5
6A2
102
{ACAD_REACTORS
330
69A
102
}
330
69A
100
AcDbXrecord
 90
        4
  0
XRECORD
  5
69F
102
{ACAD_REACTORS
330
69A
102
}
330
69A
100
AcDbXrecord
340
1A
  0
XRECORD
  5
6A1
102
{ACAD_REACTORS
330
69A
102
}
330
69A
100
AcDbXrecord
 90
    10781
  0
XRECORD
  5
6A0
102
{ACAD_REACTORS
330
69A
102
}
330
69A
100
AcDbXrecord
340
19
  0
XRECORD
  5
6A6
102
{ACAD_REACTORS
330
69A
102
}
330
69A
100
AcDbXrecord
 40
0.0
  0
XRECORD
  5
6A9
102
{ACAD_REACTORS
330
69A
102
}
330
69A
100
AcDbXrecord
340
0
  0
XRECORD
  5
6AF
102
{ACAD_REACTORS
330
69A
102
}
330
69A
100
AcDbXrecord
 10
0.0
 20
0.0
 30
0.0
  0
XRECORD
  5
6AB
102
{ACAD_REACTORS
330
69A
102
}
330
69A
100
AcDbXrecord
 10
0.0
 20
0.0
 30
0.0
  0
XRECORD
  5
6AE
102
{ACAD_REACTORS
330
69A
102
}
330
69A
100
AcDbXrecord
 10
0.0
 20
0.0
 30
0.0
  0
XRECORD
  5
6AC
102
{ACAD_REACTORS
330
69A
102
}
330
69A
100
AcDbXrecord
 10
0.0
 20
0.0
 30
0.0
  0
XRECORD
  5
6AD
102
{ACAD_REACTORS
330
69A
102
}
330
69A
100
AcDbXrecord
 10
0.0
 20
0.0
 30
0.0
  0
XRECORD
  5
6AA
102
{ACAD_REACTORS
330
69A
102
}
330
69A
100
AcDbXrecord
 10
0.0
 20
0.0
 30
0.0
  0
XRECORD
  5
6A7
102
{ACAD_REACTORS
330
69A
102
}
330
69A
100
AcDbXrecord
340
0
  0
XRECORD
  5
6A8
102
{ACAD_REACTORS
330
69A
102
}
330
69A
100
AcDbXrecord
 70
     0
  0
XRECORD
  5
69E
102
{ACAD_REACTORS
330
69A
102
}
330
69A
100
AcDbXrecord
  1

  0
XRECORD
  5
69B
102
{ACAD_REACTORS
330
69A
102
}
330
69A
100
AcDbXrecord
 90
        1
  0
XRECORD
  5
69C
102
{ACAD_REACTORS
330
69A
102
}
330
69A
100
AcDbXrecord
 90
       70
  0
XRECORD
  5
6B2
102
{ACAD_REACTORS
330
69A
102
}
330
69A
100
AcDbXrecord
340
0
  0
XRECORD
  5
6B8
102
{ACAD_REACTORS
330
69A
102
}
330
69A
100
AcDbXrecord
 10
0.0
 20
0.0
 30
0.0
  0
XRECORD
  5
6B4
102
{ACAD_REACTORS
330
69A
102
}
330
69A
100
AcDbXrecord
 10
0.0
 20
0.0
 30
0.0
  0
XRECORD
  5
6B7
102
{ACAD_REACTORS
330
69A
102
}
330
69A
100
AcDbXrecord
 10
0.0
 20
0.0
 30
0.0
  0
XRECORD
  5
6B5
102
{ACAD_REACTORS
330
69A
102
}
330
69A
100
AcDbXrecord
 10
0.0
 20
0.0
 30
0.0
  0
XRECORD
  5
6B6
102
{ACAD_REACTORS
330
69A
102
}
330
69A
100
AcDbXrecord
 10
0.0
 20
0.0
 30
0.0
  0
XRECORD
  5
6B3
102
{ACAD_REACTORS
330
69A
102
}
330
69A
100
AcDbXrecord
 10
0.0
 20
0.0
 30
0.0
  0
XRECORD
  5
6B0
102
{ACAD_REACTORS
330
69A
102
}
330
69A
100
AcDbXrecord
340
0
  0
XRECORD
  5
6B1
102
{ACAD_REACTORS
330
69A
102
}
330
69A
100
AcDbXrecord
 70
     0
  0
XRECORD
  5
6A5
102
{ACAD_REACTORS
330
69A
102
}
330
69A
100
AcDbXrecord
  1
{FAEB1C32-E019-11D5-929B-00C0DF256EC4}
  0
DICTIONARYVAR
  5
6BF
102
{ACAD_REACTORS
330
6BA
102
}
330
6BA
100
DictionaryVariables
280
     0
  1
2
  0
DICTIONARYVAR
  5
6C0
102
{ACAD_REACTORS
330
6BA
102
}
330
6BA
100
DictionaryVariables
280
     0
  1
1
  0
DICTIONARYVAR
  5
6BE
102
{ACAD_REACTORS
330
6BA
102
}
330
6BA
100
DictionaryVariables
280
     0
  1
80.000000
  0
DICTIONARYVAR
  5
6BD
102
{ACAD_REACTORS
330
6BA
102
}
330
6BA
100
DictionaryVariables
280
     0
  1
5.000000
  0
DICTIONARY
  5
6C3
330
3D
100
AcDbDictionary
280
     1
  3
ACAD_XREC_ROUNDTRIP
360
6C4
  0
DICTIONARY
  5
6C1
330
3C
100
AcDbDictionary
280
     1
  3
ACAD_XREC_ROUNDTRIP
360
6C2
  0
DICTIONARY
  5
6C5
330
3E
100
AcDbDictionary
280
     1
  3
ACAD_XREC_ROUNDTRIP
360
6C6
  0
XRECORD
  5
6C4
102
{ACAD_REACTORS
330
6C3
102
}
330
6C3
100
AcDbXrecord
102
MATERIAL
148
0.0
149
0.0
149
0.0
 93
        0
 94
      127
282
     0
 72
     1
 77
     1
171
     1
175
     1
179
     1
273
     0
  0
XRECORD
  5
6C2
102
{ACAD_REACTORS
330
6C1
102
}
330
6C1
100
AcDbXrecord
102
MATERIAL
148
0.0
149
0.0
149
0.0
 93
        0
 94
      127
282
     0
 72
     1
 77
     1
171
     1
175
     1
179
     1
273
     0
  0
XRECORD
  5
6C6
102
{ACAD_REACTORS
330
6C5
102
}
330
6C5
100
AcDbXrecord
102
MATERIAL
148
0.0
149
0.0
149
0.0
 93
        0
 94
      127
282
     0
 72
     1
 77
     1
171
     1
175
     1
179
     1
273
     0
  0
ENDSEC
  0
EOF
