  0
SECTION
  2
HEADER
  9
$ACADVER
  1
AC1014
  9
$ACADMAINTVER
 70
     9
  9
$DWGCODEPAGE
  3
ANSI_932
  9
$INSBASE
 10
0.0
 20
0.0
 30
0.0
  9
$EXTMIN
 10
0.0000000000000091
 20
11.5
 30
0.0
  9
$EXTMAX
 10
200.0
 20
289.5
 30
0.0
  9
$LIMMIN
 10
0.0
 20
0.0
  9
$LIMMAX
 10
210.0
 20
297.0
  9
$ORTHOMODE
 70
     0
  9
$REGENMODE
 70
     1
  9
$FILLMODE
 70
     1
  9
$QTEXTMODE
 70
     0
  9
$MIRRTEXT
 70
     1
  9
$DRAGMODE
 70
     2
  9
$LTSCALE
 40
1.0
  9
$OSMODE
 70
    37
  9
$ATTMODE
 70
     1
  9
$TEXTSIZE
 40
2.5
  9
$TRACEWID
 40
1.0
  9
$TEXTSTYLE
  7
STANDARD
  9
$CLAYER
  8
LAY-2
  9
$CELTYPE
  6
BYLAYER
  9
$CECOLOR
 62
   256
  9
$CELTSCALE
 40
1.0
  9
$DELOBJ
 70
     1
  9
$DISPSILH
 70
     0
  9
$DIMSCALE
 40
1.0
  9
$DIMASZ
 40
2.5
  9
$DIMEXO
 40
0.625
  9
$DIMDLI
 40
3.75
  9
$DIMRND
 40
0.0
  9
$DIMDLE
 40
0.0
  9
$DIMEXE
 40
1.25
  9
$DIMTP
 40
0.0
  9
$DIMTM
 40
0.0
  9
$DIMTXT
 40
2.5
  9
$DIMCEN
 40
2.5
  9
$DIMTSZ
 40
0.0
  9
$DIMTOL
 70
     0
  9
$DIMLIM
 70
     0
  9
$DIMTIH
 70
     0
  9
$DIMTOH
 70
     0
  9
$DIMSE1
 70
     0
  9
$DIMSE2
 70
     0
  9
$DIMTAD
 70
     1
  9
$DIMZIN
 70
     8
  9
$DIMBLK
  1

  9
$DIMASO
 70
     1
  9
$DIMSHO
 70
     1
  9
$DIMPOST
  1

  9
$DIMAPOST
  1

  9
$DIMALT
 70
     0
  9
$DIMALTD
 70
     3
  9
$DIMALTF
 40
0.03937007874016
  9
$DIMLFAC
 40
1.0
  9
$DIMTOFL
 70
     1
  9
$DIMTVP
 40
0.0
  9
$DIMTIX
 70
     0
  9
$DIMSOXD
 70
     0
  9
$DIMSAH
 70
     0
  9
$DIMBLK1
  1

  9
$DIMBLK2
  1

  9
$DIMSTYLE
  2
ISO-25
  9
$DIMCLRD
 70
     0
  9
$DIMCLRE
 70
     0
  9
$DIMCLRT
 70
     0
  9
$DIMTFAC
 40
1.0
  9
$DIMGAP
 40
0.625
  9
$DIMJUST
 70
     0
  9
$DIMSD1
 70
     0
  9
$DIMSD2
 70
     0
  9
$DIMTOLJ
 70
     0
  9
$DIMTZIN
 70
     8
  9
$DIMALTZ
 70
     0
  9
$DIMALTTZ
 70
     0
  9
$DIMFIT
 70
     3
  9
$DIMUPT
 70
     0
  9
$DIMUNIT
 70
     2
  9
$DIMDEC
 70
     2
  9
$DIMTDEC
 70
     2
  9
$DIMALTU
 70
     2
  9
$DIMALTTD
 70
     3
  9
$DIMTXSTY
  7
STANDARD
  9
$DIMAUNIT
 70
     0
  9
$LUNITS
 70
     2
  9
$LUPREC
 70
     4
  9
$SKETCHINC
 40
1.0
  9
$FILLETRAD
 40
10.0
  9
$AUNITS
 70
     0
  9
$AUPREC
 70
     0
  9
$MENU
  1
.
  9
$ELEVATION
 40
0.0
  9
$PELEVATION
 40
0.0
  9
$THICKNESS
 40
0.0
  9
$LIMCHECK
 70
     0
  9
$CHAMFERA
 40
10.0
  9
$CHAMFERB
 40
10.0
  9
$CHAMFERC
 40
20.0
  9
$CHAMFERD
 40
0.0
  9
$SKPOLY
 70
     0
  9
$TDCREATE
 40
2460192.44126
  9
$TDUPDATE
 40
2460192.441260151
  9
$TDINDWG
 40
0.0000000116
  9
$TDUSRTIMER
 40
0.0000000116
  9
$USRTIMER
 70
     1
  9
$ANGBASE
 50
0.0
  9
$ANGDIR
 70
     0
  9
$PDMODE
 70
     0
  9
$PDSIZE
 40
0.0
  9
$PLINEWID
 40
0.0
  9
$COORDS
 70
     1
  9
$SPLFRAME
 70
     0
  9
$SPLINETYPE
 70
     6
  9
$SPLINESEGS
 70
     8
  9
$ATTDIA
 70
     0
  9
$ATTREQ
 70
     1
  9
$HANDLING
 70
     1
  9
$HANDSEED
  5
419
  9
$SURFTAB1
 70
     6
  9
$SURFTAB2
 70
     6
  9
$SURFTYPE
 70
     6
  9
$SURFU
 70
     6
  9
$SURFV
 70
     6
  9
$UCSNAME
  2

  9
$UCSORG
 10
0.0
 20
0.0
 30
0.0
  9
$UCSXDIR
 10
1.0
 20
0.0
 30
0.0
  9
$UCSYDIR
 10
0.0
 20
1.0
 30
0.0
  9
$PUCSNAME
  2

  9
$PUCSORG
 10
0.0
 20
0.0
 30
0.0
  9
$PUCSXDIR
 10
1.0
 20
0.0
 30
0.0
  9
$PUCSYDIR
 10
0.0
 20
1.0
 30
0.0
  9
$USERI1
 70
     0
  9
$USERI2
 70
     0
  9
$USERI3
 70
     0
  9
$USERI4
 70
     0
  9
$USERI5
 70
     0
  9
$USERR1
 40
0.0
  9
$USERR2
 40
0.0
  9
$USERR3
 40
0.0
  9
$USERR4
 40
0.0
  9
$USERR5
 40
0.0
  9
$WORLDVIEW
 70
     1
  9
$SHADEDGE
 70
     3
  9
$SHADEDIF
 70
    70
  9
$TILEMODE
 70
     1
  9
$MAXACTVP
 70
    64
  9
$PINSBASE
 10
0.0
 20
0.0
 30
0.0
  9
$PLIMCHECK
 70
     0
  9
$PEXTMIN
 10
1.000000000000000E+20
 20
1.000000000000000E+20
 30
1.000000000000000E+20
  9
$PEXTMAX
 10
-1.000000000000000E+20
 20
-1.000000000000000E+20
 30
-1.000000000000000E+20
  9
$PLIMMIN
 10
0.0
 20
0.0
  9
$PLIMMAX
 10
420.0
 20
297.0
  9
$UNITMODE
 70
     0
  9
$VISRETAIN
 70
     1
  9
$PLINEGEN
 70
     0
  9
$PSLTSCALE
 70
     1
  9
$TREEDEPTH
 70
  3020
  9
$PICKSTYLE
 70
     1
  9
$CMLSTYLE
  2
STANDARD
  9
$CMLJUST
 70
     0
  9
$CMLSCALE
 40
20.0
  9
$PROXYGRAPHICS
 70
     1
  9
$MEASUREMENT
 70
     1
  0
ENDSEC
  0
SECTION
  2
CLASSES
  0
CLASS
  1
ACDBDICTIONARYWDFLT
  2
AcDbDictionaryWithDefault
  3
ObjectDBX Classes
 90
        0
280
     0
281
     0
  0
CLASS
  1
VISUALSTYLE
  2
AcDbVisualStyle
  3
ObjectDBX Classes
 90
     4095
280
     0
281
     0
  0
CLASS
  1
MATERIAL
  2
AcDbMaterial
  3
ObjectDBX Classes
 90
     1153
280
     0
281
     0
  0
CLASS
  1
SUN
  2
AcDbSun
  3
SCENEOE
 90
     1024
280
     0
281
     0
  0
CLASS
  1
DICTIONARYVAR
  2
AcDbDictionaryVar
  3
ObjectDBX Classes
 90
        0
280
     0
281
     0
  0
CLASS
  1
XRECORD
  2
AcDbXrecord
  3
AutoCAD 2000
 90
        0
280
     0
281
     0
  0
CLASS
  1
LWPOLYLINE
  2
AcDbPolyline
  3
AutoCAD 2000
 90
        0
280
     0
281
     1
  0
CLASS
  1
HATCH
  2
AcDbHatch
  3
AutoCAD 2000
 90
        0
280
     0
281
     1
  0
CLASS
  1
ACDBPLACEHOLDER
  2
AcDbPlaceHolder
  3
ObjectDBX Classes
 90
        0
280
     0
281
     0
  0
CLASS
  1
LAYOUT
  2
AcDbLayout
  3
ObjectDBX Classes
 90
        0
280
     0
281
     0
  0
ENDSEC
  0
SECTION
  2
TABLES
  0
TABLE
  2
VPORT
  5
8
330
0
100
AcDbSymbolTable
 70
     1
  0
VPORT
  5
29
330
8
100
AcDbSymbolTableRecord
100
AcDbViewportTableRecord
  2
*ACTIVE
 70
     0
 10
0.0
 20
0.0
 11
1.0
 21
1.0
 12
1000.0
 22
1505.0
 13
0.0
 23
0.0
 14
10.0
 24
10.0
 15
10.0
 25
10.0
 16
0.0
 26
0.0
 36
1.0
 17
0.0
 27
0.0
 37
0.0
 40
2780.0
 41
0.7194244604316548
 42
50.0
 43
0.0
 44
0.0
 50
0.0
 51
0.0
 71
     0
 72
  1000
 73
     1
 74
     3
 75
     0
 76
     0
 77
     0
 78
     0
  0
ENDTAB
  0
TABLE
  2
LTYPE
  5
5
330
0
100
AcDbSymbolTable
 70
     7
  0
LTYPE
  5
14
330
5
100
AcDbSymbolTableRecord
100
AcDbLinetypeTableRecord
  2
BYBLOCK
 70
     0
  3

 72
    65
 73
     0
 40
0.0
  0
LTYPE
  5
15
330
5
100
AcDbSymbolTableRecord
100
AcDbLinetypeTableRecord
  2
BYLAYER
 70
     0
  3

 72
    65
 73
     0
 40
0.0
  0
LTYPE
  5
16
330
5
100
AcDbSymbolTableRecord
100
AcDbLinetypeTableRecord
  2
CONTINUOUS
 70
     0
  3
Solid line
 72
    65
 73
     0
 40
0.0
  0
LTYPE
  5
40
330
5
100
AcDbSymbolTableRecord
100
AcDbLinetypeTableRecord
  2
EXLTYPE1
 70
     0
  3
破線
 72
    65
 73
     2
 40
3.0
 49
2.0
 74
     0
 49
-1.0
 74
     0
  0
LTYPE
  5
41
330
5
100
AcDbSymbolTableRecord
100
AcDbLinetypeTableRecord
  2
EXLTYPE2
 70
     0
  3
点線
 72
    65
 73
     2
 40
2.0
 49
1.0
 74
     0
 49
-1.0
 74
     0
  0
LTYPE
  5
42
330
5
100
AcDbSymbolTableRecord
100
AcDbLinetypeTableRecord
  2
EXLTYPE3
 70
     0
  3
一点鎖線
 72
    65
 73
     4
 40
10.0
 49
7.0
 74
     0
 49
-1.0
 74
     0
 49
1.0
 74
     0
 49
-1.0
 74
     0
  0
LTYPE
  5
43
330
5
100
AcDbSymbolTableRecord
100
AcDbLinetypeTableRecord
  2
EXLTYPE4
 70
     0
  3
二点鎖線
 72
    65
 73
     6
 40
12.0
 49
7.0
 74
     0
 49
-1.0
 74
     0
 49
1.0
 74
     0
 49
-1.0
 74
     0
 49
1.0
 74
     0
 49
-1.0
 74
     0
  0
LTYPE
  5
44
330
5
100
AcDbSymbolTableRecord
100
AcDbLinetypeTableRecord
  2
EXLTYPE5
 70
     0
  3
三点鎖線
 72
    65
 73
     8
 40
37.0
 49
30.0
 74
     0
 49
-1.0
 74
     0
 49
1.0
 74
     0
 49
-1.0
 74
     0
 49
1.0
 74
     0
 49
-1.0
 74
     0
 49
1.0
 74
     0
 49
-1.0
 74
     0
  0
LTYPE
  5
45
330
5
100
AcDbSymbolTableRecord
100
AcDbLinetypeTableRecord
  2
EXLTYPE6
 70
     0
  3
四点鎖線
 72
    65
 73
    10
 40
39.0
 49
30.0
 74
     0
 49
-1.0
 74
     0
 49
1.0
 74
     0
 49
-1.0
 74
     0
 49
1.0
 74
     0
 49
-1.0
 74
     0
 49
1.0
 74
     0
 49
-1.0
 74
     0
 49
1.0
 74
     0
 49
-1.0
 74
     0
  0
ENDTAB
  0
TABLE
  2
LAYER
  5
2
330
0
100
AcDbSymbolTable
 70
     5
  0
LAYER
  5
10
330
2
100
AcDbSymbolTableRecord
100
AcDbLayerTableRecord
  2
0
 70
     0
 62
     7
  6
CONTINUOUS
  0
LAYER
  5
48
330
2
100
AcDbSymbolTableRecord
100
AcDbLayerTableRecord
  2
LAY-1
 70
     0
 62
     7
  6
CONTINUOUS
  0
LAYER
  5
49
330
2
100
AcDbSymbolTableRecord
100
AcDbLayerTableRecord
  2
LAY-2
 70
     0
 62
     7
  6
CONTINUOUS
  0
LAYER
  5
4A
330
2
100
AcDbSymbolTableRecord
100
AcDbLayerTableRecord
  2
LAY-3
 70
     0
 62
     7
  6
CONTINUOUS
  0
LAYER
  5
3AC
330
2
100
AcDbSymbolTableRecord
100
AcDbLayerTableRecord
  2
DEFPOINTS
 70
     0
 62
     7
  6
CONTINUOUS
  0
ENDTAB
  0
TABLE
  2
STYLE
  5
3
330
0
100
AcDbSymbolTable
 70
     4
  0
STYLE
  5
11
330
3
100
AcDbSymbolTableRecord
100
AcDbTextStyleTableRecord
  2
STANDARD
 70
     0
 40
0.0
 41
1.0
 50
0.0
 71
     0
 42
2.5
  3
monotxt
  4
extfont
  0
STYLE
  5
46
330
3
100
AcDbSymbolTableRecord
100
AcDbTextStyleTableRecord
  2
EXCADSTD
 70
     0
 40
0.0
 41
1.0
 50
0.0
 71
     0
 42
0.2
  3
monotxt
  4
extfont
  0
STYLE
  5
47
330
3
100
AcDbSymbolTableRecord
100
AcDbTextStyleTableRecord
  2
EXCADVERT
 70
     4
 40
0.0
 41
1.0
 50
0.0
 71
     0
 42
0.286885
  3
monotxt
  4
extfont
  0
STYLE
  5
3AA
330
3
100
AcDbSymbolTableRecord
100
AcDbTextStyleTableRecord
  2
EXCADDIM1
 70
     0
 40
0.0
 41
0.84
 50
0.0
 71
     0
 42
0.2
  3
monotxt
  4
extfont
  0
ENDTAB
  0
TABLE
  2
VIEW
  5
6
330
0
100
AcDbSymbolTable
 70
     0
  0
ENDTAB
  0
TABLE
  2
UCS
  5
7
330
0
100
AcDbSymbolTable
 70
     0
  0
ENDTAB
  0
TABLE
  2
APPID
  5
9
330
0
100
AcDbSymbolTable
 70
     1
  0
APPID
  5
12
330
9
100
AcDbSymbolTableRecord
100
AcDbRegAppTableRecord
  2
ACAD
 70
     0
  0
ENDTAB
  0
TABLE
  2
DIMSTYLE
  5
A
330
0
100
AcDbSymbolTable
 70
     1
  0
DIMSTYLE
105
27
102
{ACAD_REACTORS
330
3AB
330
3B9
330
3C6
330
3D3
330
3E0
102
}
330
A
100
AcDbSymbolTableRecord
100
AcDbDimStyleTableRecord
  2
ISO-25
 70
     0
  3

  4

  5

  6

  7

 40
1.0
 41
2.5
 42
0.625
 43
3.75
 44
1.25
 45
0.0
 46
0.0
 47
0.0
 48
0.0
140
2.5
141
2.5
142
0.0
143
0.03937007874016
144
1.0
145
0.0
146
1.0
147
0.625
 71
     0
 72
     0
 73
     0
 74
     0
 75
     0
 76
     0
 77
     1
 78
     8
170
     0
171
     3
172
     1
173
     0
174
     0
175
     0
176
     0
177
     0
178
     0
270
     2
271
     2
272
     2
273
     2
274
     3
340
11
275
     0
280
     0
281
     0
282
     0
283
     0
284
     8
285
     0
286
     0
287
     5
288
     0
  0
ENDTAB
  0
TABLE
  2
BLOCK_RECORD
  5
1
330
0
100
AcDbSymbolTable
 70
    20
  0
BLOCK_RECORD
  5
1F
330
1
100
AcDbSymbolTableRecord
100
AcDbBlockTableRecord
  2
*MODEL_SPACE
  0
BLOCK_RECORD
  5
1B
330
1
100
AcDbSymbolTableRecord
100
AcDbBlockTableRecord
  2
*PAPER_SPACE
  0
BLOCK_RECORD
  5
4B
330
1
100
AcDbSymbolTableRecord
100
AcDbBlockTableRecord
  2
EX_NORM
  0
BLOCK_RECORD
  5
4E
330
1
100
AcDbSymbolTableRecord
100
AcDbBlockTableRecord
  2
EX_BNORM
  0
BLOCK_RECORD
  5
51
330
1
100
AcDbSymbolTableRecord
100
AcDbBlockTableRecord
  2
EX_BCIR
  0
BLOCK_RECORD
  5
54
330
1
100
AcDbSymbolTableRecord
100
AcDbBlockTableRecord
  2
EX_RCIVIL
  0
BLOCK_RECORD
  5
57
330
1
100
AcDbSymbolTableRecord
100
AcDbBlockTableRecord
  2
EX_SLANT
  0
BLOCK_RECORD
  5
5A
330
1
100
AcDbSymbolTableRecord
100
AcDbBlockTableRecord
  2
EX_NONE
  0
BLOCK_RECORD
  5
5D
330
1
100
AcDbSymbolTableRecord
100
AcDbBlockTableRecord
  2
EX_CIVIL
  0
BLOCK_RECORD
  5
60
330
1
100
AcDbSymbolTableRecord
100
AcDbBlockTableRecord
  2
EX_WCIR
  0
BLOCK_RECORD
  5
63
330
1
100
AcDbSymbolTableRecord
100
AcDbBlockTableRecord
  2
EX_WCIR2
  0
BLOCK_RECORD
  5
66
330
1
100
AcDbSymbolTableRecord
100
AcDbBlockTableRecord
  2
EX_WNORM
  0
BLOCK_RECORD
  5
69
330
1
100
AcDbSymbolTableRecord
100
AcDbBlockTableRecord
  2
EX_NNORM
  0
BLOCK_RECORD
  5
6C
330
1
100
AcDbSymbolTableRecord
100
AcDbBlockTableRecord
  2
EX_BBOX
  0
BLOCK_RECORD
  5
6F
330
1
100
AcDbSymbolTableRecord
100
AcDbBlockTableRecord
  2
EX_WBOX
  0
BLOCK_RECORD
  5
72
330
1
100
AcDbSymbolTableRecord
100
AcDbBlockTableRecord
  2
EX_INTEGRAL
  0
BLOCK_RECORD
  5
3AD
330
1
100
AcDbSymbolTableRecord
100
AcDbBlockTableRecord
  2
*D15
  0
BLOCK_RECORD
  5
3BA
330
1
100
AcDbSymbolTableRecord
100
AcDbBlockTableRecord
  2
*D16
  0
BLOCK_RECORD
  5
3C7
330
1
100
AcDbSymbolTableRecord
100
AcDbBlockTableRecord
  2
*D17
  0
BLOCK_RECORD
  5
3D4
330
1
100
AcDbSymbolTableRecord
100
AcDbBlockTableRecord
  2
*D18
  0
BLOCK_RECORD
  5
3E1
330
1
100
AcDbSymbolTableRecord
100
AcDbBlockTableRecord
  2
*D19
  0
ENDTAB
  0
ENDSEC
  0
SECTION
  2
BLOCKS
  0
BLOCK
  5
20
330
1F
100
AcDbEntity
  8
0
100
AcDbBlockBegin
  2
*MODEL_SPACE
 70
     0
 10
0.0
 20
0.0
 30
0.0
  3
*MODEL_SPACE
  1

  0
ENDBLK
  5
21
330
1F
100
AcDbEntity
  8
0
100
AcDbBlockEnd
  0
BLOCK
  5
1C
330
1B
100
AcDbEntity
 67
     1
  8
0
100
AcDbBlockBegin
  2
*PAPER_SPACE
 70
     0
 10
0.0
 20
0.0
 30
0.0
  3
*PAPER_SPACE
  1

  0
ENDBLK
  5
1D
330
1B
100
AcDbEntity
 67
     1
  8
0
100
AcDbBlockEnd
  0
BLOCK
  5
4C
330
4B
100
AcDbEntity
  8
0
100
AcDbBlockBegin
  2
EX_NORM
 70
     0
 10
0.0
 20
0.0
 30
0.0
  3
EX_NORM
  1

  0
LINE
  5
75
330
4B
100
AcDbEntity
  8
0
  6
CONTINUOUS
 62
     0
100
AcDbLine
 10
0.0
 20
0.0
 30
0.0
 11
-1.0
 21
0.0
 31
0.0
  0
LINE
  5
76
330
4B
100
AcDbEntity
  8
0
  6
CONTINUOUS
 62
     0
100
AcDbLine
 10
0.0
 20
0.0
 30
0.0
 11
-1.0
 21
0.166666667
 31
0.0
  0
LINE
  5
77
330
4B
100
AcDbEntity
  8
0
  6
CONTINUOUS
 62
     0
100
AcDbLine
 10
0.0
 20
0.0
 30
0.0
 11
-1.0
 21
-0.166666667
 31
0.0
  0
ENDBLK
  5
4D
330
4B
100
AcDbEntity
  8
0
100
AcDbBlockEnd
  0
BLOCK
  5
4F
330
4E
100
AcDbEntity
  8
0
100
AcDbBlockBegin
  2
EX_BNORM
 70
     0
 10
0.0
 20
0.0
 30
0.0
  3
EX_BNORM
  1

  0
LINE
  5
78
330
4E
100
AcDbEntity
  8
0
  6
CONTINUOUS
 62
     0
100
AcDbLine
 10
0.0
 20
0.0
 30
0.0
 11
-1.0
 21
0.0
 31
0.0
  0
LINE
  5
79
330
4E
100
AcDbEntity
  8
0
  6
CONTINUOUS
 62
     0
100
AcDbLine
 10
0.0
 20
0.0
 30
0.0
 11
-1.0
 21
0.166666667
 31
0.0
  0
LINE
  5
7A
330
4E
100
AcDbEntity
  8
0
  6
CONTINUOUS
 62
     0
100
AcDbLine
 10
0.0
 20
0.0
 30
0.0
 11
-1.0
 21
-0.166666667
 31
0.0
  0
LINE
  5
7B
330
4E
100
AcDbEntity
  8
0
  6
CONTINUOUS
 62
     0
100
AcDbLine
 10
0.0
 20
0.0
 30
0.0
 11
-1.0
 21
0.083333333
 31
0.0
  0
LINE
  5
7C
330
4E
100
AcDbEntity
  8
0
  6
CONTINUOUS
 62
     0
100
AcDbLine
 10
0.0
 20
0.0
 30
0.0
 11
-1.0
 21
-0.083333333
 31
0.0
  0
LINE
  5
7D
330
4E
100
AcDbEntity
  8
0
  6
CONTINUOUS
 62
     0
100
AcDbLine
 10
-1.0
 20
0.166666667
 30
0.0
 11
-1.0
 21
-0.166666667
 31
0.0
  0
ENDBLK
  5
50
330
4E
100
AcDbEntity
  8
0
100
AcDbBlockEnd
  0
BLOCK
  5
52
330
51
100
AcDbEntity
  8
0
100
AcDbBlockBegin
  2
EX_BCIR
 70
     0
 10
0.0
 20
0.0
 30
0.0
  3
EX_BCIR
  1

  0
LINE
  5
7E
330
51
100
AcDbEntity
  8
0
  6
CONTINUOUS
 62
     0
100
AcDbLine
 10
0.0
 20
0.0
 30
0.0
 11
-1.0
 21
0.0
 31
0.0
  0
CIRCLE
  5
7F
330
51
100
AcDbEntity
  8
0
  6
CONTINUOUS
 62
     0
100
AcDbCircle
 10
0.0
 20
0.0
 30
0.0
 40
0.5
  0
CIRCLE
  5
80
330
51
100
AcDbEntity
  8
0
  6
CONTINUOUS
 62
     0
100
AcDbCircle
 10
0.0
 20
0.0
 30
0.0
 40
0.25
  0
ENDBLK
  5
53
330
51
100
AcDbEntity
  8
0
100
AcDbBlockEnd
  0
BLOCK
  5
55
330
54
100
AcDbEntity
  8
0
100
AcDbBlockBegin
  2
EX_RCIVIL
 70
     0
 10
0.0
 20
0.0
 30
0.0
  3
EX_RCIVIL
  1

  0
LINE
  5
81
330
54
100
AcDbEntity
  8
0
  6
CONTINUOUS
 62
     0
100
AcDbLine
 10
0.0
 20
0.0
 30
0.0
 11
-1.0
 21
0.0
 31
0.0
  0
LINE
  5
82
330
54
100
AcDbEntity
  8
0
  6
CONTINUOUS
 62
     0
100
AcDbLine
 10
-1.0
 20
-0.25
 30
0.0
 11
0.0
 21
-0.25
 31
0.0
  0
LINE
  5
83
330
54
100
AcDbEntity
  8
0
  6
CONTINUOUS
 62
     0
100
AcDbLine
 10
-1.0
 20
-0.125
 30
0.0
 11
0.0
 21
-0.125
 31
0.0
  0
ENDBLK
  5
56
330
54
100
AcDbEntity
  8
0
100
AcDbBlockEnd
  0
BLOCK
  5
58
330
57
100
AcDbEntity
  8
0
100
AcDbBlockBegin
  2
EX_SLANT
 70
     0
 10
0.0
 20
0.0
 30
0.0
  3
EX_SLANT
  1

  0
LINE
  5
84
330
57
100
AcDbEntity
  8
0
  6
CONTINUOUS
 62
     0
100
AcDbLine
 10
0.0
 20
0.0
 30
0.0
 11
-1.0
 21
0.0
 31
0.0
  0
LINE
  5
85
330
57
100
AcDbEntity
  8
0
  6
CONTINUOUS
 62
     0
100
AcDbLine
 10
0.707106781
 20
0.707106781
 30
0.0
 11
-0.707106781
 21
-0.707106781
 31
0.0
  0
ENDBLK
  5
59
330
57
100
AcDbEntity
  8
0
100
AcDbBlockEnd
  0
BLOCK
  5
5B
330
5A
100
AcDbEntity
  8
0
100
AcDbBlockBegin
  2
EX_NONE
 70
     0
 10
0.0
 20
0.0
 30
0.0
  3
EX_NONE
  1

  0
LINE
  5
86
330
5A
100
AcDbEntity
  8
0
  6
CONTINUOUS
 62
     0
100
AcDbLine
 10
0.0
 20
0.0
 30
0.0
 11
-1.0
 21
0.0
 31
0.0
  0
ENDBLK
  5
5C
330
5A
100
AcDbEntity
  8
0
100
AcDbBlockEnd
  0
BLOCK
  5
5E
330
5D
100
AcDbEntity
  8
0
100
AcDbBlockBegin
  2
EX_CIVIL
 70
     0
 10
0.0
 20
0.0
 30
0.0
  3
EX_CIVIL
  1

  0
LINE
  5
87
330
5D
100
AcDbEntity
  8
0
  6
CONTINUOUS
 62
     0
100
AcDbLine
 10
0.0
 20
0.0
 30
0.0
 11
-1.0
 21
0.0
 31
0.0
  0
LINE
  5
88
330
5D
100
AcDbEntity
  8
0
  6
CONTINUOUS
 62
     0
100
AcDbLine
 10
-1.0
 20
0.25
 30
0.0
 11
0.0
 21
0.25
 31
0.0
  0
LINE
  5
89
330
5D
100
AcDbEntity
  8
0
  6
CONTINUOUS
 62
     0
100
AcDbLine
 10
-1.0
 20
0.125
 30
0.0
 11
0.0
 21
0.125
 31
0.0
  0
ENDBLK
  5
5F
330
5D
100
AcDbEntity
  8
0
100
AcDbBlockEnd
  0
BLOCK
  5
61
330
60
100
AcDbEntity
  8
0
100
AcDbBlockBegin
  2
EX_WCIR
 70
     0
 10
0.0
 20
0.0
 30
0.0
  3
EX_WCIR
  1

  0
LINE
  5
8A
330
60
100
AcDbEntity
  8
0
  6
CONTINUOUS
 62
     0
100
AcDbLine
 10
0.0
 20
0.0
 30
0.0
 11
-1.0
 21
0.0
 31
0.0
  0
CIRCLE
  5
8B
330
60
100
AcDbEntity
  8
0
  6
CONTINUOUS
 62
     0
100
AcDbCircle
 10
0.0
 20
0.0
 30
0.0
 40
0.5
  0
ENDBLK
  5
62
330
60
100
AcDbEntity
  8
0
100
AcDbBlockEnd
  0
BLOCK
  5
64
330
63
100
AcDbEntity
  8
0
100
AcDbBlockBegin
  2
EX_WCIR2
 70
     0
 10
0.0
 20
0.0
 30
0.0
  3
EX_WCIR2
  1

  0
LINE
  5
8C
330
63
100
AcDbEntity
  8
0
  6
CONTINUOUS
 62
     0
100
AcDbLine
 10
-0.5
 20
0.0
 30
0.0
 11
-1.0
 21
0.0
 31
0.0
  0
CIRCLE
  5
8D
330
63
100
AcDbEntity
  8
0
  6
CONTINUOUS
 62
     0
100
AcDbCircle
 10
0.0
 20
0.0
 30
0.0
 40
0.5
  0
ENDBLK
  5
65
330
63
100
AcDbEntity
  8
0
100
AcDbBlockEnd
  0
BLOCK
  5
67
330
66
100
AcDbEntity
  8
0
100
AcDbBlockBegin
  2
EX_WNORM
 70
     0
 10
0.0
 20
0.0
 30
0.0
  3
EX_WNORM
  1

  0
LINE
  5
8E
330
66
100
AcDbEntity
  8
0
  6
CONTINUOUS
 62
     0
100
AcDbLine
 10
-1.0
 20
0.0
 30
0.0
 11
-1.0
 21
0.0
 31
0.0
  0
LINE
  5
8F
330
66
100
AcDbEntity
  8
0
  6
CONTINUOUS
 62
     0
100
AcDbLine
 10
0.0
 20
0.0
 30
0.0
 11
-1.0
 21
0.166666667
 31
0.0
  0
LINE
  5
90
330
66
100
AcDbEntity
  8
0
  6
CONTINUOUS
 62
     0
100
AcDbLine
 10
0.0
 20
0.0
 30
0.0
 11
-1.0
 21
-0.166666667
 31
0.0
  0
LINE
  5
91
330
66
100
AcDbEntity
  8
0
  6
CONTINUOUS
 62
     0
100
AcDbLine
 10
-1.0
 20
0.166666667
 30
0.0
 11
-1.0
 21
-0.166666667
 31
0.0
  0
ENDBLK
  5
68
330
66
100
AcDbEntity
  8
0
100
AcDbBlockEnd
  0
BLOCK
  5
6A
330
69
100
AcDbEntity
  8
0
100
AcDbBlockBegin
  2
EX_NNORM
 70
     0
 10
0.0
 20
0.0
 30
0.0
  3
EX_NNORM
  1

  0
LINE
  5
92
330
69
100
AcDbEntity
  8
0
  6
CONTINUOUS
 62
     0
100
AcDbLine
 10
0.0
 20
0.0
 30
0.0
 11
-1.0
 21
0.0
 31
0.0
  0
LINE
  5
93
330
69
100
AcDbEntity
  8
0
  6
CONTINUOUS
 62
     0
100
AcDbLine
 10
0.0
 20
0.0
 30
0.0
 11
-1.0
 21
0.166666667
 31
0.0
  0
LINE
  5
94
330
69
100
AcDbEntity
  8
0
  6
CONTINUOUS
 62
     0
100
AcDbLine
 10
0.0
 20
0.0
 30
0.0
 11
-1.0
 21
-0.166666667
 31
0.0
  0
LINE
  5
95
330
69
100
AcDbEntity
  8
0
  6
CONTINUOUS
 62
     0
100
AcDbLine
 10
-1.0
 20
0.166666667
 30
0.0
 11
-1.0
 21
-0.166666667
 31
0.0
  0
ENDBLK
  5
6B
330
69
100
AcDbEntity
  8
0
100
AcDbBlockEnd
  0
BLOCK
  5
6D
330
6C
100
AcDbEntity
  8
0
100
AcDbBlockBegin
  2
EX_BBOX
 70
     0
 10
0.0
 20
0.0
 30
0.0
  3
EX_BBOX
  1

  0
LINE
  5
96
330
6C
100
AcDbEntity
  8
0
  6
CONTINUOUS
 62
     0
100
AcDbLine
 10
0.0
 20
0.0
 30
0.0
 11
-1.0
 21
0.0
 31
0.0
  0
LINE
  5
97
330
6C
100
AcDbEntity
  8
0
  6
CONTINUOUS
 62
     0
100
AcDbLine
 10
-0.5
 20
0.5
 30
0.0
 11
0.5
 21
0.5
 31
0.0
  0
LINE
  5
98
330
6C
100
AcDbEntity
  8
0
  6
CONTINUOUS
 62
     0
100
AcDbLine
 10
0.5
 20
0.5
 30
0.0
 11
0.5
 21
-0.5
 31
0.0
  0
LINE
  5
99
330
6C
100
AcDbEntity
  8
0
  6
CONTINUOUS
 62
     0
100
AcDbLine
 10
0.5
 20
-0.5
 30
0.0
 11
-0.5
 21
-0.5
 31
0.0
  0
LINE
  5
9A
330
6C
100
AcDbEntity
  8
0
  6
CONTINUOUS
 62
     0
100
AcDbLine
 10
-0.5
 20
-0.5
 30
0.0
 11
-0.5
 21
0.5
 31
0.0
  0
LINE
  5
9B
330
6C
100
AcDbEntity
  8
0
  6
CONTINUOUS
 62
     0
100
AcDbLine
 10
-0.25
 20
0.25
 30
0.0
 11
0.25
 21
0.25
 31
0.0
  0
LINE
  5
9C
330
6C
100
AcDbEntity
  8
0
  6
CONTINUOUS
 62
     0
100
AcDbLine
 10
0.25
 20
0.25
 30
0.0
 11
0.25
 21
-0.25
 31
0.0
  0
LINE
  5
9D
330
6C
100
AcDbEntity
  8
0
  6
CONTINUOUS
 62
     0
100
AcDbLine
 10
0.25
 20
-0.25
 30
0.0
 11
-0.25
 21
-0.25
 31
0.0
  0
LINE
  5
9E
330
6C
100
AcDbEntity
  8
0
  6
CONTINUOUS
 62
     0
100
AcDbLine
 10
-0.25
 20
-0.25
 30
0.0
 11
-0.25
 21
0.25
 31
0.0
  0
ENDBLK
  5
6E
330
6C
100
AcDbEntity
  8
0
100
AcDbBlockEnd
  0
BLOCK
  5
70
330
6F
100
AcDbEntity
  8
0
100
AcDbBlockBegin
  2
EX_WBOX
 70
     0
 10
0.0
 20
0.0
 30
0.0
  3
EX_WBOX
  1

  0
LINE
  5
9F
330
6F
100
AcDbEntity
  8
0
  6
CONTINUOUS
 62
     0
100
AcDbLine
 10
-0.5
 20
0.0
 30
0.0
 11
-1.0
 21
0.0
 31
0.0
  0
LINE
  5
A0
330
6F
100
AcDbEntity
  8
0
  6
CONTINUOUS
 62
     0
100
AcDbLine
 10
-0.5
 20
0.5
 30
0.0
 11
0.5
 21
0.5
 31
0.0
  0
LINE
  5
A1
330
6F
100
AcDbEntity
  8
0
  6
CONTINUOUS
 62
     0
100
AcDbLine
 10
0.5
 20
0.5
 30
0.0
 11
0.5
 21
-0.5
 31
0.0
  0
LINE
  5
A2
330
6F
100
AcDbEntity
  8
0
  6
CONTINUOUS
 62
     0
100
AcDbLine
 10
0.5
 20
-0.5
 30
0.0
 11
-0.5
 21
-0.5
 31
0.0
  0
LINE
  5
A3
330
6F
100
AcDbEntity
  8
0
  6
CONTINUOUS
 62
     0
100
AcDbLine
 10
-0.5
 20
-0.5
 30
0.0
 11
-0.5
 21
0.5
 31
0.0
  0
ENDBLK
  5
71
330
6F
100
AcDbEntity
  8
0
100
AcDbBlockEnd
  0
BLOCK
  5
73
330
72
100
AcDbEntity
  8
0
100
AcDbBlockBegin
  2
EX_INTEGRAL
 70
     0
 10
0.0
 20
0.0
 30
0.0
  3
EX_INTEGRAL
  1

  0
LINE
  5
A4
330
72
100
AcDbEntity
  8
0
  6
CONTINUOUS
 62
     0
100
AcDbLine
 10
0.0
 20
0.0
 30
0.0
 11
-1.0
 21
0.0
 31
0.0
  0
ARC
  5
A5
330
72
100
AcDbEntity
  8
0
  6
CONTINUOUS
 62
     0
100
AcDbCircle
 10
0.542115
 20
0.164992
 30
0.0
 40
0.56667
100
AcDbArc
 50
73.07249033629006
 51
196.9275130221199
  0
ARC
  5
A6
330
72
100
AcDbEntity
  8
0
  6
CONTINUOUS
 62
     0
100
AcDbCircle
 10
-0.542115
 20
-0.164992
 30
0.0
 40
0.56667
100
AcDbArc
 50
253.0724869220464
 51
16.9275130559125
  0
ENDBLK
  5
74
330
72
100
AcDbEntity
  8
0
100
AcDbBlockEnd
  0
BLOCK
  5
3AE
330
3AD
100
AcDbEntity
  8
0
100
AcDbBlockBegin
  2
*D15
 70
     1
 10
0.0
 20
0.0
 30
0.0
  3
*D15
  1

  0
LINE
  5
3B0
330
3AD
100
AcDbEntity
  8
LAY-2
  6
CONTINUOUS
 62
     3
100
AcDbLine
 10
566.380995
 20
2059.364890180791
 30
0.0
 11
566.380995
 21
2222.0
 31
0.0
  0
LINE
  5
3B1
330
3AD
100
AcDbEntity
  8
LAY-2
  6
CONTINUOUS
 62
     3
100
AcDbLine
 10
1009.881416
 20
2024.863852580791
 30
0.0
 11
1009.881416
 21
2222.0
 31
0.0
  0
LINE
  5
3B2
330
3AD
100
AcDbEntity
  8
LAY-2
  6
CONTINUOUS
 62
     3
100
AcDbLine
 10
596.380995
 20
2212.0
 30
0.0
 11
979.8814160000001
 21
2212.0
 31
0.0
  0
INSERT
  5
3B3
330
3AD
100
AcDbEntity
  8
LAY-2
 62
     3
100
AcDbBlockReference
  2
EX_NORM
 10
566.380995
 20
2212.0
 30
0.0
 41
30.0
 42
30.0
 43
30.0
 50
180.0
  0
INSERT
  5
3B4
330
3AD
100
AcDbEntity
  8
LAY-2
 62
     3
100
AcDbBlockReference
  2
EX_NORM
 10
1009.881416
 20
2212.0
 30
0.0
 41
30.0
 42
30.0
 43
30.0
  0
MTEXT
  5
3B5
330
3AD
100
AcDbEntity
  8
LAY-2
 62
     2
100
AcDbMText
 10
788.1312055000002
 20
2235.499999940395
 30
0.0
 40
40.0
 41
0.0
 71
     5
 72
     1
  1
444
  7
EXCADDIM1
  0
POINT
  5
3B6
330
3AD
100
AcDbEntity
  8
DEFPOINTS
 62
     0
100
AcDbPoint
 10
566.380995
 20
2052.3648903
 30
0.0
  0
POINT
  5
3B7
330
3AD
100
AcDbEntity
  8
DEFPOINTS
 62
     0
100
AcDbPoint
 10
1009.881416
 20
2017.8638527
 30
0.0
  0
POINT
  5
3B8
330
3AD
100
AcDbEntity
  8
DEFPOINTS
 62
     0
100
AcDbPoint
 10
1009.881416
 20
2212.0
 30
0.0
  0
ENDBLK
  5
3AF
330
3AD
100
AcDbEntity
  8
0
100
AcDbBlockEnd
  0
BLOCK
  5
3BB
330
3BA
100
AcDbEntity
  8
0
100
AcDbBlockBegin
  2
*D16
 70
     1
 10
0.0
 20
0.0
 30
0.0
  3
*D16
  1

  0
LINE
  5
3BD
330
3BA
100
AcDbEntity
  8
LAY-2
  6
CONTINUOUS
 62
     3
100
AcDbLine
 10
1009.8809798563
 20
1264.928856019209
 30
0.0
 11
1009.8809798563
 21
1123.0
 31
0.0
  0
LINE
  5
3BE
330
3BA
100
AcDbEntity
  8
LAY-2
  6
CONTINUOUS
 62
     3
100
AcDbLine
 10
591.380995
 20
1274.928825419209
 30
0.0
 11
591.380995
 21
1123.0
 31
0.0
  0
LINE
  5
3BF
330
3BA
100
AcDbEntity
  8
LAY-2
  6
CONTINUOUS
 62
     3
100
AcDbLine
 10
979.8809798563
 20
1133.0
 30
0.0
 11
621.380995
 21
1133.0
 31
0.0
  0
INSERT
  5
3C0
330
3BA
100
AcDbEntity
  8
LAY-2
 62
     3
100
AcDbBlockReference
  2
EX_NORM
 10
1009.8809798563
 20
1133.0
 30
0.0
 41
30.0
 42
30.0
 43
30.0
  0
INSERT
  5
3C1
330
3BA
100
AcDbEntity
  8
LAY-2
 62
     3
100
AcDbBlockReference
  2
EX_NORM
 10
591.380995
 20
1133.0
 30
0.0
 41
30.0
 42
30.0
 43
30.0
 50
180.0
  0
MTEXT
  5
3C2
330
3BA
100
AcDbEntity
  8
LAY-2
 62
     2
100
AcDbMText
 10
800.63098742815
 20
1156.499999940395
 30
0.0
 40
40.0
 41
0.0
 71
     5
 72
     1
  1
419
  7
EXCADDIM1
  0
POINT
  5
3C3
330
3BA
100
AcDbEntity
  8
DEFPOINTS
 62
     0
100
AcDbPoint
 10
1009.8809798563
 20
1271.9288559
 30
0.0
  0
POINT
  5
3C4
330
3BA
100
AcDbEntity
  8
DEFPOINTS
 62
     0
100
AcDbPoint
 10
591.380995
 20
1281.9288253
 30
0.0
  0
POINT
  5
3C5
330
3BA
100
AcDbEntity
  8
DEFPOINTS
 62
     0
100
AcDbPoint
 10
591.380995
 20
1133.0
 30
0.0
  0
ENDBLK
  5
3BC
330
3BA
100
AcDbEntity
  8
0
100
AcDbBlockEnd
  0
BLOCK
  5
3C8
330
3C7
100
AcDbEntity
  8
0
100
AcDbBlockBegin
  2
*D17
 70
     1
 10
0.0
 20
0.0
 30
0.0
  3
*D17
  1

  0
LINE
  5
3CA
330
3C7
100
AcDbEntity
  8
LAY-3
  6
CONTINUOUS
 62
     3
100
AcDbLine
 10
788.3809948807908
 20
1773.3638471
 30
0.0
 11
1099.0
 21
1773.3638471
 31
0.0
  0
LINE
  5
3CB
330
3C7
100
AcDbEntity
  8
LAY-3
  6
CONTINUOUS
 62
     3
100
AcDbLine
 10
788.3809948807908
 20
2139.3639442
 30
0.0
 11
1099.0
 21
2139.3639442
 31
0.0
  0
LINE
  5
3CC
330
3C7
100
AcDbEntity
  8
LAY-3
  6
CONTINUOUS
 62
     3
100
AcDbLine
 10
1089.0
 20
1803.3638471
 30
0.0
 11
1089.0
 21
2109.3639442
 31
0.0
  0
INSERT
  5
3CD
330
3C7
100
AcDbEntity
  8
LAY-3
 62
     3
100
AcDbBlockReference
  2
EX_NORM
 10
1089.0
 20
1773.3638471
 30
0.0
 41
30.0
 42
30.0
 43
30.0
 50
270.0
  0
INSERT
  5
3CE
330
3C7
100
AcDbEntity
  8
LAY-3
 62
     3
100
AcDbBlockReference
  2
EX_NORM
 10
1089.0
 20
2139.3639442
 30
0.0
 41
30.0
 42
30.0
 43
30.0
 50
90.0
  0
MTEXT
  5
3CF
330
3C7
100
AcDbEntity
  8
LAY-3
 62
     2
100
AcDbMText
 10
1065.5
 20
1956.36389565
 30
0.0
 40
40.0
 41
0.0
 71
     5
 72
     1
  1
368
  7
EXCADDIM1
 11
0.0
 21
1.0
 31
0.0
  0
POINT
  5
3D0
330
3C7
100
AcDbEntity
  8
DEFPOINTS
 62
     0
100
AcDbPoint
 10
781.3809950000001
 20
1773.3638471
 30
0.0
  0
POINT
  5
3D1
330
3C7
100
AcDbEntity
  8
DEFPOINTS
 62
     0
100
AcDbPoint
 10
781.3809950000001
 20
2139.3639442
 30
0.0
  0
POINT
  5
3D2
330
3C7
100
AcDbEntity
  8
DEFPOINTS
 62
     0
100
AcDbPoint
 10
1089.0
 20
2139.3639442
 30
0.0
  0
ENDBLK
  5
3C9
330
3C7
100
AcDbEntity
  8
0
100
AcDbBlockEnd
  0
BLOCK
  5
3D5
330
3D4
100
AcDbEntity
  8
0
100
AcDbBlockBegin
  2
*D18
 70
     1
 10
0.0
 20
0.0
 30
0.0
  3
*D18
  1

  0
LINE
  5
3D7
330
3D4
100
AcDbEntity
  8
LAY-3
  6
CONTINUOUS
 62
     3
100
AcDbLine
 10
535.3819716192093
 20
1886.3639137
 30
0.0
 11
494.0000000000001
 21
1886.3639137
 31
0.0
  0
LINE
  5
3D8
330
3D4
100
AcDbEntity
  8
LAY-3
  6
CONTINUOUS
 62
     3
100
AcDbLine
 10
535.3819716192093
 20
2026.3639137
 30
0.0
 11
494.0000000000001
 21
2026.3639137
 31
0.0
  0
LINE
  5
3D9
330
3D4
100
AcDbEntity
  8
LAY-3
  6
CONTINUOUS
 62
     3
100
AcDbLine
 10
504.0000000000001
 20
1916.3639137
 30
0.0
 11
504.0000000000001
 21
1996.3639137
 31
0.0
  0
INSERT
  5
3DA
330
3D4
100
AcDbEntity
  8
LAY-3
 62
     3
100
AcDbBlockReference
  2
EX_NORM
 10
504.0000000000001
 20
1886.3639137
 30
0.0
 41
30.0
 42
30.0
 43
30.0
 50
270.0
  0
INSERT
  5
3DB
330
3D4
100
AcDbEntity
  8
LAY-3
 62
     3
100
AcDbBlockReference
  2
EX_NORM
 10
504.0000000000001
 20
2026.3639137
 30
0.0
 41
30.0
 42
30.0
 43
30.0
 50
90.0
  0
MTEXT
  5
3DC
330
3D4
100
AcDbEntity
  8
LAY-3
 62
     2
100
AcDbMText
 10
480.5000000000002
 20
1956.3639137
 30
0.0
 40
40.0
 41
0.0
 71
     5
 72
     1
  1
140
  7
EXCADDIM1
 11
0.0
 21
1.0
 31
0.0
  0
POINT
  5
3DD
330
3D4
100
AcDbEntity
  8
DEFPOINTS
 62
     0
100
AcDbPoint
 10
542.3819715
 20
1886.3639137
 30
0.0
  0
POINT
  5
3DE
330
3D4
100
AcDbEntity
  8
DEFPOINTS
 62
     0
100
AcDbPoint
 10
542.3819715
 20
2026.3639137
 30
0.0
  0
POINT
  5
3DF
330
3D4
100
AcDbEntity
  8
DEFPOINTS
 62
     0
100
AcDbPoint
 10
504.0000000000001
 20
2026.3639137
 30
0.0
  0
ENDBLK
  5
3D6
330
3D4
100
AcDbEntity
  8
0
100
AcDbBlockEnd
  0
BLOCK
  5
3E2
330
3E1
100
AcDbEntity
  8
0
100
AcDbBlockBegin
  2
*D19
 70
     1
 10
0.0
 20
0.0
 30
0.0
  3
*D19
  1

  0
LINE
  5
3E4
330
3E1
100
AcDbEntity
  8
LAY-3
  6
CONTINUOUS
 62
     3
100
AcDbLine
 10
1418.870605619209
 20
1193.9288253
 30
0.0
 11
1362.0
 21
1193.9288253
 31
0.0
  0
LINE
  5
3E5
330
3E1
100
AcDbEntity
  8
LAY-3
  6
CONTINUOUS
 62
     3
100
AcDbLine
 10
1372.0
 20
1223.9288253
 30
0.0
 11
1372.0
 21
1228.9288253
 31
0.0
  0
INSERT
  5
3E6
330
3E1
100
AcDbEntity
  8
LAY-3
 62
     3
100
AcDbBlockReference
  2
EX_NORM
 10
1372.0
 20
1193.9288253
 30
0.0
 41
30.0
 42
30.0
 43
30.0
 50
270.0
  0
INSERT
  5
3E7
330
3E1
100
AcDbEntity
  8
LAY-3
 62
     3
100
AcDbBlockReference
  2
EX_NORM
 10
1372.0
 20
1258.9288253
 30
0.0
 41
30.0
 42
30.0
 43
30.0
 50
90.0
  0
MTEXT
  5
3E8
330
3E1
100
AcDbEntity
  8
LAY-3
 62
     2
100
AcDbMText
 10
1348.5
 20
1226.4288253
 30
0.0
 40
40.0
 41
0.0
 71
     5
 72
     1
  1
65
  7
EXCADDIM1
 11
0.0
 21
1.0
 31
0.0
  0
POINT
  5
3E9
330
3E1
100
AcDbEntity
  8
DEFPOINTS
 62
     0
100
AcDbPoint
 10
1425.8706055
 20
1193.9288253
 30
0.0
  0
POINT
  5
3EA
330
3E1
100
AcDbEntity
  8
DEFPOINTS
 62
     0
100
AcDbPoint
 10
1398.6440445983
 20
1258.9288253
 30
0.0
  0
POINT
  5
3EB
330
3E1
100
AcDbEntity
  8
DEFPOINTS
 62
     0
100
AcDbPoint
 10
1372.0
 20
1258.9288253
 30
0.0
  0
ENDBLK
  5
3E3
330
3E1
100
AcDbEntity
  8
0
100
AcDbBlockEnd
  0
ENDSEC
  0
SECTION
  2
ENTITIES
  0
LINE
  5
A7
330
1F
100
AcDbEntity
  8
LAY-1
  6
EXLTYPE2
 62
     6
100
AcDbLine
 10
180.0
 20
165.0
 30
0.0
 11
490.0
 21
165.0
 31
0.0
  0
CIRCLE
  5
A8
330
1F
100
AcDbEntity
  8
LAY-1
  6
CONTINUOUS
 62
     6
100
AcDbCircle
 10
385.0
 20
140.0
 30
0.0
 40
1.0000002
  0
CIRCLE
  5
A9
330
1F
100
AcDbEntity
  8
LAY-1
  6
CONTINUOUS
 62
     6
100
AcDbCircle
 10
435.0
 20
140.0
 30
0.0
 40
1.0000002
  0
CIRCLE
  5
AA
330
1F
100
AcDbEntity
  8
LAY-1
  6
CONTINUOUS
 62
     6
100
AcDbCircle
 10
230.0
 20
140.0
 30
0.0
 40
1.0000002
  0
CIRCLE
  5
AB
330
1F
100
AcDbEntity
  8
LAY-1
  6
CONTINUOUS
 62
     6
100
AcDbCircle
 10
280.0
 20
140.0
 30
0.0
 40
1.0000002
  0
TEXT
  5
AC
330
1F
100
AcDbEntity
  8
LAY-1
  6
CONTINUOUS
 62
     6
100
AcDbText
 10
206.4999997615845
 20
200.0
 30
0.0
 40
50.0
  1
風穴
 41
1.18991346010815
  7
EXCADSTD
 72
     5
 11
299.9932001986534
 21
200.0
 31
0.0
100
AcDbText
  0
TEXT
  5
AD
330
1F
100
AcDbEntity
  8
LAY-1
  6
CONTINUOUS
 62
     6
100
AcDbText
 10
184.8441162
 20
126.9500732
 30
0.0
 40
25.0
  1
１８
 41
1.052256742147966
  7
EXCADSTD
 72
     5
 11
226.1827739272415
 21
126.9500732
 31
0.0
100
AcDbText
  0
TEXT
  5
AE
330
1F
100
AcDbEntity
  8
LAY-1
  6
CONTINUOUS
 62
     6
100
AcDbText
 10
244.1191159973442
 20
126.9500732
 30
0.0
 40
25.0
  1
４
 41
1.189439965820314
  7
EXCADSTD
 72
     5
 11
265.3591153869926
 21
126.9500732
 31
0.0
100
AcDbText
  0
TEXT
  5
AF
330
1F
100
AcDbEntity
  8
LAY-1
  6
CONTINUOUS
 62
     6
100
AcDbText
 10
511.4999997615846
 20
200.0
 30
0.0
 40
50.0
  1
間瀬
 41
1.073255278289969
  7
EXCADSTD
 72
     5
 11
595.8272001986536
 21
200.0
 31
0.0
100
AcDbText
  0
TEXT
  5
B0
330
1F
100
AcDbEntity
  8
LAY-1
  6
CONTINUOUS
 62
     6
100
AcDbText
 10
660.0000000000032
 20
200.0
 30
0.0
 40
50.0
  1
堀
 41
1.232
  7
EXCADSTD
 72
     5
 11
704.0000000000032
 21
200.0
 31
0.0
100
AcDbText
  0
TEXT
  5
B1
330
1F
100
AcDbEntity
  8
LAY-1
  6
CONTINUOUS
 62
     6
100
AcDbText
 10
284.8441162
 20
126.9500732
 30
0.0
 40
25.0
  1
２１
 41
1.052256742147966
  7
EXCADSTD
 72
     5
 11
326.1827739272415
 21
126.9500732
 31
0.0
100
AcDbText
  0
TEXT
  5
B2
330
1F
100
AcDbEntity
  8
LAY-1
  6
CONTINUOUS
 62
     7
100
AcDbText
 10
1500.000000298023
 20
131.5
 30
0.0
 40
70.0
  1
２５０６００
 41
1.257142857142857
  7
EXCADSTD
 72
     5
 11
1940.000000298023
 21
131.5
 31
0.0
100
AcDbText
  0
LINE
  5
B3
330
1F
100
AcDbEntity
  8
LAY-1
  6
CONTINUOUS
 62
     7
100
AcDbLine
 10
180.0
 20
115.0
 30
0.0
 11
2000.0
 21
115.0
 31
0.0
  0
LINE
  5
B4
330
1F
100
AcDbEntity
  8
LAY-1
  6
CONTINUOUS
 62
     7
100
AcDbLine
 10
2000.0
 20
115.0
 30
0.0
 11
2000.0
 21
2895.0
 31
0.0
  0
LINE
  5
B5
330
1F
100
AcDbEntity
  8
LAY-1
  6
CONTINUOUS
 62
     7
100
AcDbLine
 10
180.0
 20
115.0
 30
0.0
 11
180.0
 21
2895.0
 31
0.0
  0
LINE
  5
B6
330
1F
100
AcDbEntity
  8
LAY-1
  6
CONTINUOUS
 62
     7
100
AcDbLine
 10
180.0
 20
335.0
 30
0.0
 11
2000.0
 21
335.0
 31
0.0
  0
LINE
  5
B7
330
1F
100
AcDbEntity
  8
LAY-1
  6
CONTINUOUS
 62
     6
100
AcDbLine
 10
2000.0
 20
215.0
 30
0.0
 11
750.0
 21
215.0
 31
0.0
  0
LINE
  5
B8
330
1F
100
AcDbEntity
  8
LAY-1
  6
CONTINUOUS
 62
     6
100
AcDbLine
 10
1860.0
 20
335.0
 30
0.0
 11
1860.0
 21
215.0
 31
0.0
  0
LINE
  5
B9
330
1F
100
AcDbEntity
  8
LAY-1
  6
CONTINUOUS
 62
     6
100
AcDbLine
 10
1810.0
 20
335.0
 30
0.0
 11
1810.0
 21
215.0
 31
0.0
  0
LINE
  5
BA
330
1F
100
AcDbEntity
  8
LAY-1
  6
CONTINUOUS
 62
     6
100
AcDbLine
 10
1440.0
 20
335.0
 30
0.0
 11
1440.0
 21
115.0
 31
0.0
  0
LINE
  5
BB
330
1F
100
AcDbEntity
  8
LAY-1
  6
CONTINUOUS
 62
     6
100
AcDbLine
 10
1390.0
 20
335.0
 30
0.0
 11
1390.0
 21
115.0
 31
0.0
  0
LINE
  5
BC
330
1F
100
AcDbEntity
  8
LAY-1
  6
CONTINUOUS
 62
     6
100
AcDbLine
 10
800.0
 20
335.0
 30
0.0
 11
800.0
 21
215.0
 31
0.0
  0
LINE
  5
BD
330
1F
100
AcDbEntity
  8
LAY-1
  6
CONTINUOUS
 62
     6
100
AcDbLine
 10
750.0
 20
335.0
 30
0.0
 11
750.0
 21
115.0
 31
0.0
  0
LINE
  5
BE
330
1F
100
AcDbEntity
  8
LAY-1
  6
CONTINUOUS
 62
     6
100
AcDbLine
 10
620.0
 20
335.0
 30
0.0
 11
620.0
 21
115.0
 31
0.0
  0
LINE
  5
BF
330
1F
100
AcDbEntity
  8
LAY-1
  6
CONTINUOUS
 62
     6
100
AcDbLine
 10
490.0
 20
335.0
 30
0.0
 11
490.0
 21
115.0
 31
0.0
  0
LINE
  5
C0
330
1F
100
AcDbEntity
  8
LAY-1
  6
CONTINUOUS
 62
     6
100
AcDbLine
 10
335.0
 20
335.0
 30
0.0
 11
335.0
 21
115.0
 31
0.0
  0
LINE
  5
C1
330
1F
100
AcDbEntity
  8
LAY-1
  6
CONTINUOUS
 62
     6
100
AcDbLine
 10
180.0
 20
285.0
 30
0.0
 11
750.0
 21
285.0
 31
0.0
  0
LINE
  5
C2
330
1F
100
AcDbEntity
  8
LAY-1
  6
CONTINUOUS
 62
     6
100
AcDbLine
 10
1892.6538086
 20
238.0029297
 30
0.0
 11
1969.9938965
 21
316.6998291
 31
0.0
  0
TEXT
  5
C3
330
1F
100
AcDbEntity
  8
LAY-1
  6
CONTINUOUS
 62
     2
100
AcDbText
 10
1890.5371094
 20
282.7227783
 30
0.0
 40
30.0
  1
１
 41
1.101333333333329
  7
EXCADSTD
 72
     5
 11
1914.1371094
 21
282.7227783
 31
0.0
100
AcDbText
  0
TEXT
  5
C4
330
1F
100
AcDbEntity
  8
LAY-1
  6
CONTINUOUS
 62
     2
100
AcDbText
 10
1931.2792969
 20
238.3488464
 30
0.0
 40
30.0
  1
１０
 41
1.098531212121213
  7
EXCADSTD
 72
     5
 11
1983.0671969
 21
238.3488464
 31
0.0
100
AcDbText
  0
TEXT
  5
C5
330
1F
100
AcDbEntity
  8
LAY-1
  6
CONTINUOUS
 62
     2
100
AcDbText
 10
202.5
 20
288.75
 30
0.0
 40
42.5
  1
製図
 41
1.509694117647059
  7
EXCADSTD
 72
     5
 11
303.326
 21
288.75
 31
0.0
100
AcDbText
  0
TEXT
  5
C6
330
1F
100
AcDbEntity
  8
LAY-1
  6
CONTINUOUS
 62
     2
100
AcDbText
 10
357.5
 20
288.75
 30
0.0
 40
42.5
  1
写図
 41
1.509694117647059
  7
EXCADSTD
 72
     5
 11
458.326
 21
288.75
 31
0.0
100
AcDbText
  0
TEXT
  5
C7
330
1F
100
AcDbEntity
  8
LAY-1
  6
CONTINUOUS
 62
     2
100
AcDbText
 10
507.5
 20
288.75
 30
0.0
 40
42.5
  1
検図
 41
1.303826737967914
  7
EXCADSTD
 72
     5
 11
594.577
 21
288.75
 31
0.0
100
AcDbText
  0
TEXT
  5
C8
330
1F
100
AcDbEntity
  8
LAY-1
  6
CONTINUOUS
 62
     2
100
AcDbText
 10
637.5
 20
288.75
 30
0.0
 40
42.5
  1
承認
 41
1.303826737967914
  7
EXCADSTD
 72
     5
 11
724.577
 21
288.75
 31
0.0
100
AcDbText
  0
TEXT
  5
C9
330
1F
100
AcDbEntity
  8
LAY-1
  6
CONTINUOUS
 62
     2
100
AcDbText
 10
755.75
 20
278.75
 30
0.0
 40
42.5
  1
品
 41
1.12
  7
EXCADSTD
 72
     5
 11
789.75
 21
278.75
 31
0.0
100
AcDbText
  0
TEXT
  5
CA
330
1F
100
AcDbEntity
  8
LAY-1
  6
CONTINUOUS
 62
     2
100
AcDbText
 10
755.75
 20
228.75
 30
0.0
 40
42.5
  1
名
 41
1.12
  7
EXCADSTD
 72
     5
 11
789.75
 21
228.75
 31
0.0
100
AcDbText
  0
TEXT
  5
CB
330
1F
100
AcDbEntity
  8
LAY-1
  6
CONTINUOUS
 62
     2
100
AcDbText
 10
1395.75
 20
278.75
 30
0.0
 40
42.5
  1
品
 41
1.12
  7
EXCADSTD
 72
     5
 11
1429.75
 21
278.75
 31
0.0
100
AcDbText
  0
TEXT
  5
CC
330
1F
100
AcDbEntity
  8
LAY-1
  6
CONTINUOUS
 62
     2
100
AcDbText
 10
1395.75
 20
228.75
 30
0.0
 40
42.5
  1
番
 41
1.12
  7
EXCADSTD
 72
     5
 11
1429.75
 21
228.75
 31
0.0
100
AcDbText
  0
TEXT
  5
CD
330
1F
100
AcDbEntity
  8
LAY-1
  6
CONTINUOUS
 62
     2
100
AcDbText
 10
1816.75
 20
278.75
 30
0.0
 40
42.5
  1
尺
 41
1.12
  7
EXCADSTD
 72
     5
 11
1850.75
 21
278.75
 31
0.0
100
AcDbText
  0
TEXT
  5
CE
330
1F
100
AcDbEntity
  8
LAY-1
  6
CONTINUOUS
 62
     2
100
AcDbText
 10
1816.75
 20
228.75
 30
0.0
 40
42.5
  1
度
 41
1.12
  7
EXCADSTD
 72
     5
 11
1850.75
 21
228.75
 31
0.0
100
AcDbText
  0
TEXT
  5
CF
330
1F
100
AcDbEntity
  8
LAY-1
  6
CONTINUOUS
 62
     2
100
AcDbText
 10
1395.75
 20
165.75
 30
0.0
 40
42.5
  1
図
 41
1.12
  7
EXCADSTD
 72
     5
 11
1429.75
 21
165.75
 31
0.0
100
AcDbText
  0
TEXT
  5
D0
330
1F
100
AcDbEntity
  8
LAY-1
  6
CONTINUOUS
 62
     2
100
AcDbText
 10
1395.75
 20
122.75
 30
0.0
 40
42.5
  1
番
 41
1.12
  7
EXCADSTD
 72
     5
 11
1429.75
 21
122.75
 31
0.0
100
AcDbText
  0
LINE
  5
D1
330
1F
100
AcDbEntity
  8
LAY-1
  6
CONTINUOUS
 62
     3
100
AcDbLine
 10
827.4477539999999
 20
180.2879944
 30
0.0
 11
819.3840942999999
 21
180.2879944
 31
0.0
  0
LINE
  5
D2
330
1F
100
AcDbEntity
  8
LAY-1
  6
CONTINUOUS
 62
     3
100
AcDbLine
 10
827.4477539999999
 20
188.3519592
 30
0.0
 11
827.4477539999999
 21
180.2879944
 31
0.0
  0
LINE
  5
D3
330
1F
100
AcDbEntity
  8
LAY-1
  6
CONTINUOUS
 62
     3
100
AcDbLine
 10
819.3840942999999
 20
188.3519592
 30
0.0
 11
827.4477539999999
 21
188.3519592
 31
0.0
  0
LINE
  5
D4
330
1F
100
AcDbEntity
  8
LAY-1
  6
CONTINUOUS
 62
     3
100
AcDbLine
 10
819.3840942999999
 20
188.3519592
 30
0.0
 11
819.3840942999999
 21
180.2879944
 31
0.0
  0
LINE
  5
D5
330
1F
100
AcDbEntity
  8
LAY-1
  6
CONTINUOUS
 62
     3
100
AcDbLine
 10
816.3591918999999
 20
180.2879944
 30
0.0
 11
808.2955323
 21
180.2879944
 31
0.0
  0
LINE
  5
D6
330
1F
100
AcDbEntity
  8
LAY-1
  6
CONTINUOUS
 62
     3
100
AcDbLine
 10
816.3591918999999
 20
188.3519592
 30
0.0
 11
816.3591918999999
 21
180.2879944
 31
0.0
  0
LINE
  5
D7
330
1F
100
AcDbEntity
  8
LAY-1
  6
CONTINUOUS
 62
     3
100
AcDbLine
 10
808.2955323
 20
188.3519592
 30
0.0
 11
816.3591918999999
 21
188.3519592
 31
0.0
  0
LINE
  5
D8
330
1F
100
AcDbEntity
  8
LAY-1
  6
CONTINUOUS
 62
     3
100
AcDbLine
 10
808.2955323
 20
188.3519592
 30
0.0
 11
808.2955323
 21
180.2879944
 31
0.0
  0
LINE
  5
D9
330
1F
100
AcDbEntity
  8
LAY-1
  6
CONTINUOUS
 62
     3
100
AcDbLine
 10
799.8873291000001
 20
144.0
 30
0.0
 11
771.0
 21
144.0
 31
0.0
  0
ARC
  5
DA
330
1F
100
AcDbEntity
  8
LAY-1
  6
CONTINUOUS
 62
     3
100
AcDbCircle
 10
799.8873291000001
 20
162.1440735
 30
0.0
 40
18.1439972
100
AcDbArc
 50
270.0000305200002
 51
334.0001373300001
  0
LINE
  5
DB
330
1F
100
AcDbEntity
  8
LAY-1
  6
CONTINUOUS
 62
     3
100
AcDbLine
 10
827.4477539999999
 20
177.2640076
 30
0.0
 11
816.1930237000001
 21
154.1901245
 31
0.0
  0
LINE
  5
DC
330
1F
100
AcDbEntity
  8
LAY-1
  6
CONTINUOUS
 62
     3
100
AcDbLine
 10
815.1122436999999
 20
177.2640076
 30
0.0
 11
827.4477539999999
 21
177.2640076
 31
0.0
  0
LINE
  5
DD
330
1F
100
AcDbEntity
  8
LAY-1
  6
CONTINUOUS
 62
     3
100
AcDbLine
 10
806.01297
 20
158.6090698
 30
0.0
 11
815.1122436999999
 21
177.2640076
 31
0.0
  0
ARC
  5
DE
330
1F
100
AcDbEntity
  8
LAY-1
  6
CONTINUOUS
 62
     3
100
AcDbCircle
 10
798.7655030000002
 20
162.1440735
 30
0.0
 40
8.064000000000002
100
AcDbArc
 50
270.0000305200002
 51
333.9985504200004
  0
LINE
  5
DF
330
1F
100
AcDbEntity
  8
LAY-1
  6
CONTINUOUS
 62
     3
100
AcDbLine
 10
771.0
 20
154.0799561
 30
0.0
 11
798.7655030000002
 21
154.0799561
 31
0.0
  0
LINE
  5
E0
330
1F
100
AcDbEntity
  8
LAY-1
  6
CONTINUOUS
 62
     3
100
AcDbLine
 10
771.0
 20
154.0799561
 30
0.0
 11
771.0
 21
144.0
 31
0.0
  0
LINE
  5
E1
330
1F
100
AcDbEntity
  8
LAY-1
  6
CONTINUOUS
 62
     3
100
AcDbLine
 10
799.2249451
 20
167.1838989
 30
0.0
 11
771.0
 21
167.1838989
 31
0.0
  0
LINE
  5
E2
330
1F
100
AcDbEntity
  8
LAY-1
  6
CONTINUOUS
 62
     3
100
AcDbLine
 10
799.2249451
 20
176.256012
 30
0.0
 11
799.2249451
 21
167.1838989
 31
0.0
  0
LINE
  5
E3
330
1F
100
AcDbEntity
  8
LAY-1
  6
CONTINUOUS
 62
     3
100
AcDbLine
 10
771.0
 20
176.256012
 30
0.0
 11
799.2249451
 21
176.256012
 31
0.0
  0
LINE
  5
E4
330
1F
100
AcDbEntity
  8
LAY-1
  6
CONTINUOUS
 62
     3
100
AcDbLine
 10
771.0
 20
176.256012
 30
0.0
 11
771.0
 21
167.1838989
 31
0.0
  0
LINE
  5
E5
330
1F
100
AcDbEntity
  8
LAY-1
  6
CONTINUOUS
 62
     3
100
AcDbLine
 10
799.2249451
 20
179.2799988
 30
0.0
 11
771.0
 21
179.2799988
 31
0.0
  0
LINE
  5
E6
330
1F
100
AcDbEntity
  8
LAY-1
  6
CONTINUOUS
 62
     3
100
AcDbLine
 10
799.2249451
 20
188.3519592
 30
0.0
 11
799.2249451
 21
179.2799988
 31
0.0
  0
LINE
  5
E7
330
1F
100
AcDbEntity
  8
LAY-1
  6
CONTINUOUS
 62
     3
100
AcDbLine
 10
771.0
 20
188.3519592
 30
0.0
 11
799.2249451
 21
188.3519592
 31
0.0
  0
LINE
  5
E8
330
1F
100
AcDbEntity
  8
LAY-1
  6
CONTINUOUS
 62
     3
100
AcDbLine
 10
771.0
 20
188.3519592
 30
0.0
 11
771.0
 21
179.2799988
 31
0.0
  0
LINE
  5
E9
330
1F
100
AcDbEntity
  8
LAY-1
  6
CONTINUOUS
 62
     3
100
AcDbLine
 10
830.4726562999999
 20
177.2640076
 30
0.0
 11
830.4726562999999
 21
170.2078858
 31
0.0
  0
LINE
  5
EA
330
1F
100
AcDbEntity
  8
LAY-1
  6
CONTINUOUS
 62
     3
100
AcDbLine
 10
830.4726562999999
 20
177.2640076
 30
0.0
 11
839.6540223
 21
177.2640076
 31
0.0
  0
LINE
  5
EB
330
1F
100
AcDbEntity
  8
LAY-1
  6
CONTINUOUS
 62
     3
100
AcDbLine
 10
838.5363159999999
 20
184.3199768
 30
0.0
 11
839.6540223
 21
177.2640076
 31
0.0
  0
LINE
  5
EC
330
1F
100
AcDbEntity
  8
LAY-1
  6
CONTINUOUS
 62
     3
100
AcDbLine
 10
838.5363159999999
 20
184.3199768
 30
0.0
 11
849.7623597
 21
184.3199768
 31
0.0
  0
LINE
  5
ED
330
1F
100
AcDbEntity
  8
LAY-1
  6
CONTINUOUS
 62
     3
100
AcDbLine
 10
849.7623597
 20
184.3199768
 30
0.0
 11
850.8799134000001
 21
177.2640076
 31
0.0
  0
LINE
  5
EE
330
1F
100
AcDbEntity
  8
LAY-1
  6
CONTINUOUS
 62
     3
100
AcDbLine
 10
850.8799134000001
 20
177.2640076
 30
0.0
 11
878.8567505000001
 21
177.2640076
 31
0.0
  0
LINE
  5
EF
330
1F
100
AcDbEntity
  8
LAY-1
  6
CONTINUOUS
 62
     3
100
AcDbLine
 10
878.8567505000001
 20
177.2640076
 30
0.0
 11
872.9731141000002
 21
164.0505066
 31
0.0
  0
ARC
  5
F0
330
1F
100
AcDbEntity
  8
LAY-1
  6
CONTINUOUS
 62
     3
100
AcDbCircle
 10
859.1610108
 20
170.200409
 30
0.0
 40
15.1201057
100
AcDbArc
 50
263.4657745200003
 51
335.9987792800001
  0
LINE
  5
F1
330
1F
100
AcDbEntity
  8
LAY-1
  6
CONTINUOUS
 62
     3
100
AcDbLine
 10
857.4384461
 20
155.1785889
 30
0.0
 11
856.3370666999999
 21
162.1440735
 31
0.0
  0
ARC
  5
F2
330
1F
100
AcDbEntity
  8
LAY-1
  6
CONTINUOUS
 62
     3
100
AcDbCircle
 10
856.0581360000001
 20
168.1920471
 30
0.0
 40
6.0480058
100
AcDbArc
 50
272.6237487800003
 51
336.0065307700002
  0
LINE
  5
F3
330
1F
100
AcDbEntity
  8
LAY-1
  6
CONTINUOUS
 62
     3
100
AcDbLine
 10
861.585022
 20
165.7320252
 30
0.0
 11
863.5762940000001
 21
170.2078858
 31
0.0
  0
LINE
  5
F4
330
1F
100
AcDbEntity
  8
LAY-1
  6
CONTINUOUS
 62
     3
100
AcDbLine
 10
863.5762940000001
 20
170.2078858
 30
0.0
 11
851.9976197
 21
170.2078858
 31
0.0
  0
LINE
  5
F5
330
1F
100
AcDbEntity
  8
LAY-1
  6
CONTINUOUS
 62
     3
100
AcDbLine
 10
851.9976197
 20
170.2078858
 30
0.0
 11
856.1484681000002
 21
144.0
 31
0.0
  0
LINE
  5
F6
330
1F
100
AcDbEntity
  8
LAY-1
  6
CONTINUOUS
 62
     3
100
AcDbLine
 10
856.1484681000002
 20
144.0
 30
0.0
 11
844.9224244
 21
144.0
 31
0.0
  0
LINE
  5
F7
330
1F
100
AcDbEntity
  8
LAY-1
  6
CONTINUOUS
 62
     3
100
AcDbLine
 10
844.9224244
 20
144.0
 30
0.0
 11
840.7717286000002
 21
170.2078858
 31
0.0
  0
LINE
  5
F8
330
1F
100
AcDbEntity
  8
LAY-1
  6
CONTINUOUS
 62
     3
100
AcDbLine
 10
840.7717286000002
 20
170.2078858
 30
0.0
 11
830.4726562999999
 21
170.2078858
 31
0.0
  0
LINE
  5
F9
330
1F
100
AcDbEntity
  8
LAY-1
  6
CONTINUOUS
 62
     3
100
AcDbLine
 10
877.8476868000001
 20
144.0
 30
0.0
 11
877.8476868000001
 21
154.0799561
 31
0.0
  0
LINE
  5
FA
330
1F
100
AcDbEntity
  8
LAY-1
  6
CONTINUOUS
 62
     3
100
AcDbLine
 10
877.8476868000001
 20
154.0799561
 30
0.0
 11
934.2954407000002
 21
154.0799561
 31
0.0
  0
LINE
  5
FB
330
1F
100
AcDbEntity
  8
LAY-1
  6
CONTINUOUS
 62
     3
100
AcDbLine
 10
934.2954407000002
 20
154.0799561
 30
0.0
 11
934.2954407000002
 21
144.0
 31
0.0
  0
LINE
  5
FC
330
1F
100
AcDbEntity
  8
LAY-1
  6
CONTINUOUS
 62
     3
100
AcDbLine
 10
934.2954407000002
 20
144.0
 30
0.0
 11
877.8476868000001
 21
144.0
 31
0.0
  0
LINE
  5
FD
330
1F
100
AcDbEntity
  8
LAY-1
  6
CONTINUOUS
 62
     3
100
AcDbLine
 10
881.8795166000001
 20
188.3519592
 30
0.0
 11
881.8795166000001
 21
178.2720032
 31
0.0
  0
LINE
  5
FE
330
1F
100
AcDbEntity
  8
LAY-1
  6
CONTINUOUS
 62
     3
100
AcDbLine
 10
881.8795166000001
 20
188.3519592
 30
0.0
 11
930.2636109
 21
188.3519592
 31
0.0
  0
LINE
  5
FF
330
1F
100
AcDbEntity
  8
LAY-1
  6
CONTINUOUS
 62
     3
100
AcDbLine
 10
930.2636109
 20
188.3519592
 30
0.0
 11
930.2636109
 21
178.2720032
 31
0.0
  0
LINE
  5
100
330
1F
100
AcDbEntity
  8
LAY-1
  6
CONTINUOUS
 62
     3
100
AcDbLine
 10
930.2636109
 20
178.2720032
 30
0.0
 11
881.8795166000001
 21
178.2720032
 31
0.0
  0
LINE
  5
101
330
1F
100
AcDbEntity
  8
LAY-1
  6
CONTINUOUS
 62
     3
100
AcDbLine
 10
941.3521729000001
 20
188.3519592
 30
0.0
 11
941.3521729000001
 21
178.2720032
 31
0.0
  0
LINE
  5
102
330
1F
100
AcDbEntity
  8
LAY-1
  6
CONTINUOUS
 62
     3
100
AcDbLine
 10
941.3521729000001
 20
188.3519592
 30
0.0
 11
993.7680969999999
 21
188.3519592
 31
0.0
  0
LINE
  5
103
330
1F
100
AcDbEntity
  8
LAY-1
  6
CONTINUOUS
 62
     3
100
AcDbLine
 10
993.7680969999999
 20
188.3519592
 30
0.0
 11
978.0509339
 21
166.7189636
 31
0.0
  0
LINE
  5
104
330
1F
100
AcDbEntity
  8
LAY-1
  6
CONTINUOUS
 62
     3
100
AcDbLine
 10
978.0509339
 20
166.7189636
 30
0.0
 11
997.7999268000002
 21
144.0
 31
0.0
  0
LINE
  5
105
330
1F
100
AcDbEntity
  8
LAY-1
  6
CONTINUOUS
 62
     3
100
AcDbLine
 10
997.7999268000002
 20
144.0
 30
0.0
 11
983.1081543
 21
144.0
 31
0.0
  0
LINE
  5
106
330
1F
100
AcDbEntity
  8
LAY-1
  6
CONTINUOUS
 62
     3
100
AcDbLine
 10
983.1081543
 20
144.0
 30
0.0
 11
971.3613282
 21
157.5127258
 31
0.0
  0
LINE
  5
107
330
1F
100
AcDbEntity
  8
LAY-1
  6
CONTINUOUS
 62
     3
100
AcDbLine
 10
971.3613282
 20
157.5127258
 30
0.0
 11
966.9788513999999
 21
151.4792481
 31
0.0
  0
ARC
  5
108
330
1F
100
AcDbEntity
  8
LAY-1
  6
CONTINUOUS
 62
     3
100
AcDbCircle
 10
952.2992859
 20
162.1440735
 30
0.0
 40
18.1439972
100
AcDbArc
 50
270.0000305200002
 51
324.0011596700001
  0
LINE
  5
109
330
1F
100
AcDbEntity
  8
LAY-1
  6
CONTINUOUS
 62
     3
100
AcDbLine
 10
952.2992859
 20
144.0
 30
0.0
 11
937.3203431000002
 21
144.0
 31
0.0
  0
LINE
  5
10A
330
1F
100
AcDbEntity
  8
LAY-1
  6
CONTINUOUS
 62
     3
100
AcDbLine
 10
937.3203431000002
 20
144.0
 30
0.0
 11
937.3203431000002
 21
154.0799561
 31
0.0
  0
LINE
  5
10B
330
1F
100
AcDbEntity
  8
LAY-1
  6
CONTINUOUS
 62
     3
100
AcDbLine
 10
937.3203431000002
 20
154.0799561
 30
0.0
 11
950.0270997000001
 21
154.0799561
 31
0.0
  0
ARC
  5
10C
330
1F
100
AcDbEntity
  8
LAY-1
  6
CONTINUOUS
 62
     3
100
AcDbCircle
 10
950.0270997000001
 20
164.1599121
 30
0.0
 40
10.0799942
100
AcDbArc
 50
270.0000305200002
 51
323.9965972900001
  0
LINE
  5
10D
330
1F
100
AcDbEntity
  8
LAY-1
  6
CONTINUOUS
 62
     3
100
AcDbLine
 10
958.1809388
 20
158.2350769
 30
0.0
 11
972.739502
 21
178.2720032
 31
0.0
  0
LINE
  5
10E
330
1F
100
AcDbEntity
  8
LAY-1
  6
CONTINUOUS
 62
     3
100
AcDbLine
 10
972.739502
 20
178.2720032
 30
0.0
 11
941.3521729000001
 21
178.2720032
 31
0.0
  0
LINE
  5
10F
330
1F
100
AcDbEntity
  8
LAY-1
  6
CONTINUOUS
 62
     3
100
AcDbLine
 10
1009.8955689
 20
188.3519592
 30
0.0
 11
1009.8955689
 21
181.29599
 31
0.0
  0
LINE
  5
110
330
1F
100
AcDbEntity
  8
LAY-1
  6
CONTINUOUS
 62
     3
100
AcDbLine
 10
1009.8955689
 20
188.3519592
 30
0.0
 11
1062.3113404
 21
188.3519592
 31
0.0
  0
LINE
  5
111
330
1F
100
AcDbEntity
  8
LAY-1
  6
CONTINUOUS
 62
     3
100
AcDbLine
 10
1062.3113404
 20
188.3519592
 30
0.0
 11
1062.3113404
 21
181.29599
 31
0.0
  0
LINE
  5
112
330
1F
100
AcDbEntity
  8
LAY-1
  6
CONTINUOUS
 62
     3
100
AcDbLine
 10
1062.3113404
 20
181.29599
 30
0.0
 11
1041.6477356
 21
181.29599
 31
0.0
  0
LINE
  5
113
330
1F
100
AcDbEntity
  8
LAY-1
  6
CONTINUOUS
 62
     3
100
AcDbLine
 10
1041.6477356
 20
181.29599
 30
0.0
 11
1041.6477356
 21
152.0641174
 31
0.0
  0
LINE
  5
114
330
1F
100
AcDbEntity
  8
LAY-1
  6
CONTINUOUS
 62
     3
100
AcDbLine
 10
1041.6477356
 20
152.0641174
 30
0.0
 11
1064.3273316
 21
152.0641174
 31
0.0
  0
LINE
  5
115
330
1F
100
AcDbEntity
  8
LAY-1
  6
CONTINUOUS
 62
     3
100
AcDbLine
 10
1064.3273316
 20
152.0641174
 30
0.0
 11
1064.3273316
 21
144.0
 31
0.0
  0
LINE
  5
116
330
1F
100
AcDbEntity
  8
LAY-1
  6
CONTINUOUS
 62
     3
100
AcDbLine
 10
1064.3273316
 20
144.0
 30
0.0
 11
1007.8795777
 21
144.0
 31
0.0
  0
LINE
  5
117
330
1F
100
AcDbEntity
  8
LAY-1
  6
CONTINUOUS
 62
     3
100
AcDbLine
 10
1007.8795777
 20
144.0
 30
0.0
 11
1007.8795777
 21
152.0641174
 31
0.0
  0
LINE
  5
118
330
1F
100
AcDbEntity
  8
LAY-1
  6
CONTINUOUS
 62
     3
100
AcDbLine
 10
1007.8795777
 20
152.0641174
 30
0.0
 11
1030.5591736
 21
152.0641174
 31
0.0
  0
LINE
  5
119
330
1F
100
AcDbEntity
  8
LAY-1
  6
CONTINUOUS
 62
     3
100
AcDbLine
 10
1030.5591736
 20
152.0641174
 30
0.0
 11
1030.5591736
 21
181.29599
 31
0.0
  0
LINE
  5
11A
330
1F
100
AcDbEntity
  8
LAY-1
  6
CONTINUOUS
 62
     3
100
AcDbLine
 10
1030.5591736
 20
181.29599
 30
0.0
 11
1009.8955689
 21
181.29599
 31
0.0
  0
LINE
  5
11B
330
1F
100
AcDbEntity
  8
LAY-1
  6
CONTINUOUS
 62
     3
100
AcDbLine
 10
1065.3362427
 20
182.3039856
 30
0.0
 11
1065.3362427
 21
177.6671448
 31
0.0
  0
LINE
  5
11C
330
1F
100
AcDbEntity
  8
LAY-1
  6
CONTINUOUS
 62
     3
100
AcDbLine
 10
1065.3362427
 20
182.3039856
 30
0.0
 11
1074.0931092
 21
182.3039856
 31
0.0
  0
LINE
  5
11D
330
1F
100
AcDbEntity
  8
LAY-1
  6
CONTINUOUS
 62
     3
100
AcDbLine
 10
1074.0931092
 20
182.3039856
 30
0.0
 11
1069.3682251
 21
188.3519592
 31
0.0
  0
LINE
  5
11E
330
1F
100
AcDbEntity
  8
LAY-1
  6
CONTINUOUS
 62
     3
100
AcDbLine
 10
1069.3682251
 20
188.3519592
 30
0.0
 11
1078.32193
 21
188.3519592
 31
0.0
  0
LINE
  5
11F
330
1F
100
AcDbEntity
  8
LAY-1
  6
CONTINUOUS
 62
     3
100
AcDbLine
 10
1078.32193
 20
188.3519592
 30
0.0
 11
1083.046814
 21
182.3039856
 31
0.0
  0
LINE
  5
120
330
1F
100
AcDbEntity
  8
LAY-1
  6
CONTINUOUS
 62
     3
100
AcDbLine
 10
1083.046814
 20
182.3039856
 30
0.0
 11
1084.9930726
 21
182.3039856
 31
0.0
  0
LINE
  5
121
330
1F
100
AcDbEntity
  8
LAY-1
  6
CONTINUOUS
 62
     3
100
AcDbLine
 10
1084.9930726
 20
182.3039856
 30
0.0
 11
1084.9930726
 21
188.3519592
 31
0.0
  0
LINE
  5
122
330
1F
100
AcDbEntity
  8
LAY-1
  6
CONTINUOUS
 62
     3
100
AcDbLine
 10
1084.9930726
 20
188.3519592
 30
0.0
 11
1092.0476685
 21
188.3519592
 31
0.0
  0
LINE
  5
123
330
1F
100
AcDbEntity
  8
LAY-1
  6
CONTINUOUS
 62
     3
100
AcDbLine
 10
1092.0476685
 20
188.3519592
 30
0.0
 11
1092.0476685
 21
182.3039856
 31
0.0
  0
LINE
  5
124
330
1F
100
AcDbEntity
  8
LAY-1
  6
CONTINUOUS
 62
     3
100
AcDbLine
 10
1092.0476685
 20
182.3039856
 30
0.0
 11
1095.0725708
 21
182.3039856
 31
0.0
  0
LINE
  5
125
330
1F
100
AcDbEntity
  8
LAY-1
  6
CONTINUOUS
 62
     3
100
AcDbLine
 10
1095.0725708
 20
182.3039856
 30
0.0
 11
1095.0725708
 21
188.3519592
 31
0.0
  0
LINE
  5
126
330
1F
100
AcDbEntity
  8
LAY-1
  6
CONTINUOUS
 62
     3
100
AcDbLine
 10
1095.0725708
 20
188.3519592
 30
0.0
 11
1102.1273194
 21
188.3519592
 31
0.0
  0
LINE
  5
127
330
1F
100
AcDbEntity
  8
LAY-1
  6
CONTINUOUS
 62
     3
100
AcDbLine
 10
1102.1273194
 20
188.3519592
 30
0.0
 11
1102.1273194
 21
182.3039856
 31
0.0
  0
LINE
  5
128
330
1F
100
AcDbEntity
  8
LAY-1
  6
CONTINUOUS
 62
     3
100
AcDbLine
 10
1102.1273194
 20
182.3039856
 30
0.0
 11
1104.0735779
 21
182.3039856
 31
0.0
  0
LINE
  5
129
330
1F
100
AcDbEntity
  8
LAY-1
  6
CONTINUOUS
 62
     3
100
AcDbLine
 10
1104.0735779
 20
182.3039856
 30
0.0
 11
1108.798462
 21
188.3519592
 31
0.0
  0
LINE
  5
12A
330
1F
100
AcDbEntity
  8
LAY-1
  6
CONTINUOUS
 62
     3
100
AcDbLine
 10
1108.798462
 20
188.3519592
 30
0.0
 11
1117.7521668
 21
188.3519592
 31
0.0
  0
LINE
  5
12B
330
1F
100
AcDbEntity
  8
LAY-1
  6
CONTINUOUS
 62
     3
100
AcDbLine
 10
1117.7521668
 20
188.3519592
 30
0.0
 11
1113.0272828
 21
182.3039856
 31
0.0
  0
LINE
  5
12C
330
1F
100
AcDbEntity
  8
LAY-1
  6
CONTINUOUS
 62
     3
100
AcDbLine
 10
1113.0272828
 20
182.3039856
 30
0.0
 11
1121.7839966
 21
182.3039856
 31
0.0
  0
LINE
  5
12D
330
1F
100
AcDbEntity
  8
LAY-1
  6
CONTINUOUS
 62
     3
100
AcDbLine
 10
1121.7839966
 20
182.3039856
 30
0.0
 11
1121.7839966
 21
177.6671448
 31
0.0
  0
LINE
  5
12E
330
1F
100
AcDbEntity
  8
LAY-1
  6
CONTINUOUS
 62
     3
100
AcDbLine
 10
1121.7839966
 20
177.6671448
 30
0.0
 11
1111.1609803
 21
177.6671448
 31
0.0
  0
LINE
  5
12F
330
1F
100
AcDbEntity
  8
LAY-1
  6
CONTINUOUS
 62
     3
100
AcDbLine
 10
1111.1609803
 20
177.6671448
 30
0.0
 11
1109.3276368
 21
172.6273194
 31
0.0
  0
LINE
  5
130
330
1F
100
AcDbEntity
  8
LAY-1
  6
CONTINUOUS
 62
     3
100
AcDbLine
 10
1109.3276368
 20
172.6273194
 30
0.0
 11
1121.7839966
 21
172.6273194
 31
0.0
  0
LINE
  5
131
330
1F
100
AcDbEntity
  8
LAY-1
  6
CONTINUOUS
 62
     3
100
AcDbLine
 10
1121.7839966
 20
172.6273194
 30
0.0
 11
1121.7839966
 21
167.9904785
 31
0.0
  0
LINE
  5
132
330
1F
100
AcDbEntity
  8
LAY-1
  6
CONTINUOUS
 62
     3
100
AcDbLine
 10
1121.7839966
 20
167.9904785
 30
0.0
 11
1098.5999451
 21
167.9904785
 31
0.0
  0
LINE
  5
133
330
1F
100
AcDbEntity
  8
LAY-1
  6
CONTINUOUS
 62
     3
100
AcDbLine
 10
1098.5999451
 20
167.9904785
 30
0.0
 11
1098.5999451
 21
165.6720581
 31
0.0
  0
LINE
  5
134
330
1F
100
AcDbEntity
  8
LAY-1
  6
CONTINUOUS
 62
     3
100
AcDbLine
 10
1098.5999451
 20
165.6720581
 30
0.0
 11
1121.7839966
 21
165.6720581
 31
0.0
  0
LINE
  5
135
330
1F
100
AcDbEntity
  8
LAY-1
  6
CONTINUOUS
 62
     3
100
AcDbLine
 10
1121.7839966
 20
165.6720581
 30
0.0
 11
1121.7839966
 21
161.0352173
 31
0.0
  0
LINE
  5
136
330
1F
100
AcDbEntity
  8
LAY-1
  6
CONTINUOUS
 62
     3
100
AcDbLine
 10
1121.7839966
 20
161.0352173
 30
0.0
 11
1098.5999451
 21
161.0352173
 31
0.0
  0
LINE
  5
137
330
1F
100
AcDbEntity
  8
LAY-1
  6
CONTINUOUS
 62
     3
100
AcDbLine
 10
1098.5999451
 20
161.0352173
 30
0.0
 11
1098.5999451
 21
158.7167969
 31
0.0
  0
LINE
  5
138
330
1F
100
AcDbEntity
  8
LAY-1
  6
CONTINUOUS
 62
     3
100
AcDbLine
 10
1098.5999451
 20
158.7167969
 30
0.0
 11
1121.7839966
 21
158.7167969
 31
0.0
  0
LINE
  5
139
330
1F
100
AcDbEntity
  8
LAY-1
  6
CONTINUOUS
 62
     3
100
AcDbLine
 10
1121.7839966
 20
158.7167969
 30
0.0
 11
1121.7839966
 21
154.0799561
 31
0.0
  0
LINE
  5
13A
330
1F
100
AcDbEntity
  8
LAY-1
  6
CONTINUOUS
 62
     3
100
AcDbLine
 10
1121.7839966
 20
154.0799561
 30
0.0
 11
1110.6278382
 21
154.0799561
 31
0.0
  0
LINE
  5
13B
330
1F
100
AcDbEntity
  8
LAY-1
  6
CONTINUOUS
 62
     3
100
AcDbLine
 10
1110.6278382
 20
154.0799561
 30
0.0
 11
1121.7839966
 21
144.0
 31
0.0
  0
LINE
  5
13C
330
1F
100
AcDbEntity
  8
LAY-1
  6
CONTINUOUS
 62
     3
100
AcDbLine
 10
1121.7839966
 20
144.0
 30
0.0
 11
1109.7562562
 21
144.0
 31
0.0
  0
LINE
  5
13D
330
1F
100
AcDbEntity
  8
LAY-1
  6
CONTINUOUS
 62
     3
100
AcDbLine
 10
1109.7562562
 20
144.0
 30
0.0
 11
1098.5999451
 21
154.0799561
 31
0.0
  0
LINE
  5
13E
330
1F
100
AcDbEntity
  8
LAY-1
  6
CONTINUOUS
 62
     3
100
AcDbLine
 10
1098.5999451
 20
154.0799561
 30
0.0
 11
1098.5999451
 21
144.0
 31
0.0
  0
LINE
  5
13F
330
1F
100
AcDbEntity
  8
LAY-1
  6
CONTINUOUS
 62
     3
100
AcDbLine
 10
1098.5999451
 20
144.0
 30
0.0
 11
1088.5204468
 21
144.0
 31
0.0
  0
LINE
  5
140
330
1F
100
AcDbEntity
  8
LAY-1
  6
CONTINUOUS
 62
     3
100
AcDbLine
 10
1088.5204468
 20
144.0
 30
0.0
 11
1088.5204468
 21
154.0799561
 31
0.0
  0
LINE
  5
141
330
1F
100
AcDbEntity
  8
LAY-1
  6
CONTINUOUS
 62
     3
100
AcDbLine
 10
1088.5204468
 20
154.0799561
 30
0.0
 11
1077.3641358
 21
144.0
 31
0.0
  0
LINE
  5
142
330
1F
100
AcDbEntity
  8
LAY-1
  6
CONTINUOUS
 62
     3
100
AcDbLine
 10
1077.3641358
 20
144.0
 30
0.0
 11
1065.3362427
 21
144.0
 31
0.0
  0
LINE
  5
143
330
1F
100
AcDbEntity
  8
LAY-1
  6
CONTINUOUS
 62
     3
100
AcDbLine
 10
1065.3362427
 20
144.0
 30
0.0
 11
1076.4925538
 21
154.0799561
 31
0.0
  0
LINE
  5
144
330
1F
100
AcDbEntity
  8
LAY-1
  6
CONTINUOUS
 62
     3
100
AcDbLine
 10
1076.4925538
 20
154.0799561
 30
0.0
 11
1065.3362427
 21
154.0799561
 31
0.0
  0
LINE
  5
145
330
1F
100
AcDbEntity
  8
LAY-1
  6
CONTINUOUS
 62
     3
100
AcDbLine
 10
1065.3362427
 20
154.0799561
 30
0.0
 11
1065.3362427
 21
158.7167969
 31
0.0
  0
LINE
  5
146
330
1F
100
AcDbEntity
  8
LAY-1
  6
CONTINUOUS
 62
     3
100
AcDbLine
 10
1065.3362427
 20
158.7167969
 30
0.0
 11
1088.5204468
 21
158.7167969
 31
0.0
  0
LINE
  5
147
330
1F
100
AcDbEntity
  8
LAY-1
  6
CONTINUOUS
 62
     3
100
AcDbLine
 10
1088.5204468
 20
158.7167969
 30
0.0
 11
1088.5204468
 21
161.0352173
 31
0.0
  0
LINE
  5
148
330
1F
100
AcDbEntity
  8
LAY-1
  6
CONTINUOUS
 62
     3
100
AcDbLine
 10
1088.5204468
 20
161.0352173
 30
0.0
 11
1065.3362427
 21
161.0352173
 31
0.0
  0
LINE
  5
149
330
1F
100
AcDbEntity
  8
LAY-1
  6
CONTINUOUS
 62
     3
100
AcDbLine
 10
1065.3362427
 20
161.0352173
 30
0.0
 11
1065.3362427
 21
165.6720581
 31
0.0
  0
LINE
  5
14A
330
1F
100
AcDbEntity
  8
LAY-1
  6
CONTINUOUS
 62
     3
100
AcDbLine
 10
1065.3362427
 20
165.6720581
 30
0.0
 11
1088.5204468
 21
165.6720581
 31
0.0
  0
LINE
  5
14B
330
1F
100
AcDbEntity
  8
LAY-1
  6
CONTINUOUS
 62
     3
100
AcDbLine
 10
1088.5204468
 20
165.6720581
 30
0.0
 11
1088.5204468
 21
167.9904785
 31
0.0
  0
LINE
  5
14C
330
1F
100
AcDbEntity
  8
LAY-1
  6
CONTINUOUS
 62
     3
100
AcDbLine
 10
1088.5204468
 20
167.9904785
 30
0.0
 11
1065.3362427
 21
167.9904785
 31
0.0
  0
LINE
  5
14D
330
1F
100
AcDbEntity
  8
LAY-1
  6
CONTINUOUS
 62
     3
100
AcDbLine
 10
1065.3362427
 20
167.9904785
 30
0.0
 11
1065.3362427
 21
172.6273194
 31
0.0
  0
LINE
  5
14E
330
1F
100
AcDbEntity
  8
LAY-1
  6
CONTINUOUS
 62
     3
100
AcDbLine
 10
1065.3362427
 20
172.6273194
 30
0.0
 11
1077.7927552
 21
172.6273194
 31
0.0
  0
LINE
  5
14F
330
1F
100
AcDbEntity
  8
LAY-1
  6
CONTINUOUS
 62
     3
100
AcDbLine
 10
1077.7927552
 20
172.6273194
 30
0.0
 11
1075.9594117
 21
177.6671448
 31
0.0
  0
LINE
  5
150
330
1F
100
AcDbEntity
  8
LAY-1
  6
CONTINUOUS
 62
     3
100
AcDbLine
 10
1075.9594117
 20
177.6671448
 30
0.0
 11
1065.3362427
 21
177.6671448
 31
0.0
  0
LINE
  5
151
330
1F
100
AcDbEntity
  8
LAY-1
  6
CONTINUOUS
 62
     3
100
AcDbLine
 10
1086.6849671
 20
177.6671448
 30
0.0
 11
1100.4354249
 21
177.6671448
 31
0.0
  0
LINE
  5
152
330
1F
100
AcDbEntity
  8
LAY-1
  6
CONTINUOUS
 62
     3
100
AcDbLine
 10
1100.4354249
 20
177.6671448
 30
0.0
 11
1098.5999451
 21
172.6273194
 31
0.0
  0
LINE
  5
153
330
1F
100
AcDbEntity
  8
LAY-1
  6
CONTINUOUS
 62
     3
100
AcDbLine
 10
1098.5999451
 20
172.6273194
 30
0.0
 11
1088.5204468
 21
172.6273194
 31
0.0
  0
LINE
  5
154
330
1F
100
AcDbEntity
  8
LAY-1
  6
CONTINUOUS
 62
     3
100
AcDbLine
 10
1088.5204468
 20
172.6273194
 30
0.0
 11
1086.6849671
 21
177.6671448
 31
0.0
  0
LINE
  5
155
330
1F
100
AcDbEntity
  8
LAY-1
  6
CONTINUOUS
 62
     3
100
AcDbLine
 10
1149.2563782
 20
188.3519592
 30
0.0
 11
1145.9894715
 21
175.2480164
 31
0.0
  0
LINE
  5
156
330
1F
100
AcDbEntity
  8
LAY-1
  6
CONTINUOUS
 62
     3
100
AcDbLine
 10
1149.2563782
 20
188.3519592
 30
0.0
 11
1157.5681458
 21
188.3519592
 31
0.0
  0
LINE
  5
157
330
1F
100
AcDbEntity
  8
LAY-1
  6
CONTINUOUS
 62
     3
100
AcDbLine
 10
1157.5681458
 20
188.3519592
 30
0.0
 11
1156.3109742
 21
183.3119812
 31
0.0
  0
LINE
  5
158
330
1F
100
AcDbEntity
  8
LAY-1
  6
CONTINUOUS
 62
     3
100
AcDbLine
 10
1156.3109742
 20
183.3119812
 30
0.0
 11
1159.584137
 21
183.3119812
 31
0.0
  0
LINE
  5
159
330
1F
100
AcDbEntity
  8
LAY-1
  6
CONTINUOUS
 62
     3
100
AcDbLine
 10
1159.584137
 20
183.3119812
 30
0.0
 11
1159.584137
 21
188.3519592
 31
0.0
  0
LINE
  5
15A
330
1F
100
AcDbEntity
  8
LAY-1
  6
CONTINUOUS
 62
     3
100
AcDbLine
 10
1159.584137
 20
188.3519592
 30
0.0
 11
1168.6567078
 21
188.3519592
 31
0.0
  0
LINE
  5
15B
330
1F
100
AcDbEntity
  8
LAY-1
  6
CONTINUOUS
 62
     3
100
AcDbLine
 10
1168.6567078
 20
188.3519592
 30
0.0
 11
1168.6567078
 21
183.3119812
 31
0.0
  0
LINE
  5
15C
330
1F
100
AcDbEntity
  8
LAY-1
  6
CONTINUOUS
 62
     3
100
AcDbLine
 10
1168.6567078
 20
183.3119812
 30
0.0
 11
1180.2477417
 21
183.3119812
 31
0.0
  0
LINE
  5
15D
330
1F
100
AcDbEntity
  8
LAY-1
  6
CONTINUOUS
 62
     3
100
AcDbLine
 10
1180.2477417
 20
183.3119812
 30
0.0
 11
1180.2477417
 21
178.2720032
 31
0.0
  0
LINE
  5
15E
330
1F
100
AcDbEntity
  8
LAY-1
  6
CONTINUOUS
 62
     3
100
AcDbLine
 10
1168.6567078
 20
178.2720032
 30
0.0
 11
1180.2477417
 21
178.2720032
 31
0.0
  0
LINE
  5
15F
330
1F
100
AcDbEntity
  8
LAY-1
  6
CONTINUOUS
 62
     3
100
AcDbLine
 10
1168.6567078
 20
178.2720032
 30
0.0
 11
1168.6567078
 21
173.2320252
 31
0.0
  0
LINE
  5
160
330
1F
100
AcDbEntity
  8
LAY-1
  6
CONTINUOUS
 62
     3
100
AcDbLine
 10
1168.6567078
 20
173.2320252
 30
0.0
 11
1181.2566529
 21
173.2320252
 31
0.0
  0
LINE
  5
161
330
1F
100
AcDbEntity
  8
LAY-1
  6
CONTINUOUS
 62
     3
100
AcDbLine
 10
1181.2566529
 20
173.2320252
 30
0.0
 11
1181.2566529
 21
168.1920471
 31
0.0
  0
LINE
  5
162
330
1F
100
AcDbEntity
  8
LAY-1
  6
CONTINUOUS
 62
     3
100
AcDbLine
 10
1181.2566529
 20
168.1920471
 30
0.0
 11
1176.8515931
 21
168.1920471
 31
0.0
  0
LINE
  5
163
330
1F
100
AcDbEntity
  8
LAY-1
  6
CONTINUOUS
 62
     3
100
AcDbLine
 10
1176.8515931
 20
168.1920471
 30
0.0
 11
1181.2566529
 21
144.0
 31
0.0
  0
LINE
  5
164
330
1F
100
AcDbEntity
  8
LAY-1
  6
CONTINUOUS
 62
     3
100
AcDbLine
 10
1181.2566529
 20
144.0
 30
0.0
 11
1173.059784
 21
144.0
 31
0.0
  0
LINE
  5
165
330
1F
100
AcDbEntity
  8
LAY-1
  6
CONTINUOUS
 62
     3
100
AcDbLine
 10
1173.059784
 20
144.0
 30
0.0
 11
1168.6567078
 21
168.191742
 31
0.0
  0
LINE
  5
166
330
1F
100
AcDbEntity
  8
LAY-1
  6
CONTINUOUS
 62
     3
100
AcDbLine
 10
1168.6567078
 20
168.191742
 30
0.0
 11
1168.6567078
 21
144.0
 31
0.0
  0
LINE
  5
167
330
1F
100
AcDbEntity
  8
LAY-1
  6
CONTINUOUS
 62
     3
100
AcDbLine
 10
1168.6567078
 20
144.0
 30
0.0
 11
1159.584137
 21
144.0
 31
0.0
  0
LINE
  5
168
330
1F
100
AcDbEntity
  8
LAY-1
  6
CONTINUOUS
 62
     3
100
AcDbLine
 10
1159.584137
 20
144.0
 30
0.0
 11
1159.584137
 21
168.1920471
 31
0.0
  0
LINE
  5
169
330
1F
100
AcDbEntity
  8
LAY-1
  6
CONTINUOUS
 62
     3
100
AcDbLine
 10
1159.584137
 20
168.1920471
 30
0.0
 11
1155.1810608
 21
144.0
 31
0.0
  0
LINE
  5
16A
330
1F
100
AcDbEntity
  8
LAY-1
  6
CONTINUOUS
 62
     3
100
AcDbLine
 10
1155.1810608
 20
144.0
 30
0.0
 11
1146.9840394
 21
144.0
 31
0.0
  0
LINE
  5
16B
330
1F
100
AcDbEntity
  8
LAY-1
  6
CONTINUOUS
 62
     3
100
AcDbLine
 10
1146.9840394
 20
144.0
 30
0.0
 11
1151.3871155
 21
168.1920471
 31
0.0
  0
LINE
  5
16C
330
1F
100
AcDbEntity
  8
LAY-1
  6
CONTINUOUS
 62
     3
100
AcDbLine
 10
1151.3871155
 20
168.1920471
 30
0.0
 11
1146.9840394
 21
168.1920471
 31
0.0
  0
LINE
  5
16D
330
1F
100
AcDbEntity
  8
LAY-1
  6
CONTINUOUS
 62
     3
100
AcDbLine
 10
1146.9840394
 20
168.1920471
 30
0.0
 11
1146.9840394
 21
173.2320252
 31
0.0
  0
LINE
  5
16E
330
1F
100
AcDbEntity
  8
LAY-1
  6
CONTINUOUS
 62
     3
100
AcDbLine
 10
1146.9840394
 20
173.2320252
 30
0.0
 11
1159.584137
 21
173.2320252
 31
0.0
  0
LINE
  5
16F
330
1F
100
AcDbEntity
  8
LAY-1
  6
CONTINUOUS
 62
     3
100
AcDbLine
 10
1159.584137
 20
173.2320252
 30
0.0
 11
1159.584137
 21
178.2720032
 31
0.0
  0
LINE
  5
170
330
1F
100
AcDbEntity
  8
LAY-1
  6
CONTINUOUS
 62
     3
100
AcDbLine
 10
1159.584137
 20
178.2720032
 30
0.0
 11
1155.0539551
 21
178.2720032
 31
0.0
  0
LINE
  5
171
330
1F
100
AcDbEntity
  8
LAY-1
  6
CONTINUOUS
 62
     3
100
AcDbLine
 10
1155.0539551
 20
178.2720032
 30
0.0
 11
1154.3012391
 21
175.2480164
 31
0.0
  0
LINE
  5
172
330
1F
100
AcDbEntity
  8
LAY-1
  6
CONTINUOUS
 62
     3
100
AcDbLine
 10
1154.3012391
 20
175.2480164
 30
0.0
 11
1145.9894715
 21
175.2480164
 31
0.0
  0
LINE
  5
173
330
1F
100
AcDbEntity
  8
LAY-1
  6
CONTINUOUS
 62
     3
100
AcDbLine
 10
1123.7999878
 20
183.3119812
 30
0.0
 11
1123.7999878
 21
178.2720032
 31
0.0
  0
LINE
  5
174
330
1F
100
AcDbEntity
  8
LAY-1
  6
CONTINUOUS
 62
     3
100
AcDbLine
 10
1123.7999878
 20
183.3119812
 30
0.0
 11
1133.8796387
 21
183.3119812
 31
0.0
  0
LINE
  5
175
330
1F
100
AcDbEntity
  8
LAY-1
  6
CONTINUOUS
 62
     3
100
AcDbLine
 10
1133.8796387
 20
183.3119812
 30
0.0
 11
1133.8796387
 21
188.3519592
 31
0.0
  0
LINE
  5
176
330
1F
100
AcDbEntity
  8
LAY-1
  6
CONTINUOUS
 62
     3
100
AcDbLine
 10
1133.8796387
 20
188.3519592
 30
0.0
 11
1142.9522095
 21
188.3519592
 31
0.0
  0
LINE
  5
177
330
1F
100
AcDbEntity
  8
LAY-1
  6
CONTINUOUS
 62
     3
100
AcDbLine
 10
1142.9522095
 20
188.3519592
 30
0.0
 11
1142.9522095
 21
183.3119812
 31
0.0
  0
LINE
  5
178
330
1F
100
AcDbEntity
  8
LAY-1
  6
CONTINUOUS
 62
     3
100
AcDbLine
 10
1142.9522095
 20
183.3119812
 30
0.0
 11
1145.9751282
 21
183.3119812
 31
0.0
  0
LINE
  5
179
330
1F
100
AcDbEntity
  8
LAY-1
  6
CONTINUOUS
 62
     3
100
AcDbLine
 10
1145.9751282
 20
183.3119812
 30
0.0
 11
1145.9751282
 21
178.2720032
 31
0.0
  0
LINE
  5
17A
330
1F
100
AcDbEntity
  8
LAY-1
  6
CONTINUOUS
 62
     3
100
AcDbLine
 10
1145.9751282
 20
178.2720032
 30
0.0
 11
1142.9522095
 21
178.2720032
 31
0.0
  0
LINE
  5
17B
330
1F
100
AcDbEntity
  8
LAY-1
  6
CONTINUOUS
 62
     3
100
AcDbLine
 10
1142.9522095
 20
178.2720032
 30
0.0
 11
1145.9751282
 21
174.1100159
 31
0.0
  0
LINE
  5
17C
330
1F
100
AcDbEntity
  8
LAY-1
  6
CONTINUOUS
 62
     3
100
AcDbLine
 10
1145.9751282
 20
174.1100159
 30
0.0
 11
1145.9751282
 21
163.8207092
 31
0.0
  0
LINE
  5
17D
330
1F
100
AcDbEntity
  8
LAY-1
  6
CONTINUOUS
 62
     3
100
AcDbLine
 10
1145.9751282
 20
163.8207092
 30
0.0
 11
1142.9522095
 21
167.9828491
 31
0.0
  0
LINE
  5
17E
330
1F
100
AcDbEntity
  8
LAY-1
  6
CONTINUOUS
 62
     3
100
AcDbLine
 10
1142.9522095
 20
167.9828491
 30
0.0
 11
1142.9522095
 21
144.0
 31
0.0
  0
LINE
  5
17F
330
1F
100
AcDbEntity
  8
LAY-1
  6
CONTINUOUS
 62
     3
100
AcDbLine
 10
1142.9522095
 20
144.0
 30
0.0
 11
1133.8796387
 21
144.0
 31
0.0
  0
LINE
  5
180
330
1F
100
AcDbEntity
  8
LAY-1
  6
CONTINUOUS
 62
     3
100
AcDbLine
 10
1133.8796387
 20
144.0
 30
0.0
 11
1133.8796387
 21
178.2720032
 31
0.0
  0
LINE
  5
181
330
1F
100
AcDbEntity
  8
LAY-1
  6
CONTINUOUS
 62
     3
100
AcDbLine
 10
1133.4838257
 20
178.2720032
 30
0.0
 11
1129.8806153
 21
144.0
 31
0.0
  0
LINE
  5
182
330
1F
100
AcDbEntity
  8
LAY-1
  6
CONTINUOUS
 62
     3
100
AcDbLine
 10
1129.8806153
 20
144.0
 30
0.0
 11
1123.7999878
 21
144.0
 31
0.0
  0
LINE
  5
183
330
1F
100
AcDbEntity
  8
LAY-1
  6
CONTINUOUS
 62
     3
100
AcDbLine
 10
1123.7999878
 20
144.0
 30
0.0
 11
1127.4031983
 21
178.2720032
 31
0.0
  0
LINE
  5
184
330
1F
100
AcDbEntity
  8
LAY-1
  6
CONTINUOUS
 62
     3
100
AcDbLine
 10
1127.4031983
 20
178.2720032
 30
0.0
 11
1123.7999878
 21
178.2720032
 31
0.0
  0
LINE
  5
185
330
1F
100
AcDbEntity
  8
LAY-1
  6
CONTINUOUS
 62
     3
100
AcDbLine
 10
1186.2955628
 20
172.2240296
 30
0.0
 11
1186.2955628
 21
166.1760559
 31
0.0
  0
LINE
  5
186
330
1F
100
AcDbEntity
  8
LAY-1
  6
CONTINUOUS
 62
     3
100
AcDbLine
 10
1186.2955628
 20
172.2240296
 30
0.0
 11
1216.5363465
 21
172.2240296
 31
0.0
  0
LINE
  5
187
330
1F
100
AcDbEntity
  8
LAY-1
  6
CONTINUOUS
 62
     3
100
AcDbLine
 10
1216.5363465
 20
172.2240296
 30
0.0
 11
1216.5363465
 21
166.1760559
 31
0.0
  0
LINE
  5
188
330
1F
100
AcDbEntity
  8
LAY-1
  6
CONTINUOUS
 62
     3
100
AcDbLine
 10
1216.5363465
 20
166.1760559
 30
0.0
 11
1206.9591675
 21
166.1760559
 31
0.0
  0
LINE
  5
189
330
1F
100
AcDbEntity
  8
LAY-1
  6
CONTINUOUS
 62
     3
100
AcDbLine
 10
1206.9591675
 20
166.1760559
 30
0.0
 11
1206.9591675
 21
157.7741089
 31
0.0
  0
LINE
  5
18A
330
1F
100
AcDbEntity
  8
LAY-1
  6
CONTINUOUS
 62
     3
100
AcDbLine
 10
1206.9591675
 20
157.7741089
 30
0.0
 11
1217.040802
 21
159.9165955
 31
0.0
  0
LINE
  5
18B
330
1F
100
AcDbEntity
  8
LAY-1
  6
CONTINUOUS
 62
     3
100
AcDbLine
 10
1217.040802
 20
159.9165955
 30
0.0
 11
1217.040802
 21
150.6419983
 31
0.0
  0
LINE
  5
18C
330
1F
100
AcDbEntity
  8
LAY-1
  6
CONTINUOUS
 62
     3
100
AcDbLine
 10
1217.040802
 20
150.6419983
 30
0.0
 11
1185.7909546
 21
144.0
 31
0.0
  0
LINE
  5
18D
330
1F
100
AcDbEntity
  8
LAY-1
  6
CONTINUOUS
 62
     3
100
AcDbLine
 10
1185.7909546
 20
144.0
 30
0.0
 11
1185.7909546
 21
153.2745972
 31
0.0
  0
LINE
  5
18E
330
1F
100
AcDbEntity
  8
LAY-1
  6
CONTINUOUS
 62
     3
100
AcDbLine
 10
1185.7909546
 20
153.2745972
 30
0.0
 11
1195.8725892
 21
155.4172363
 31
0.0
  0
LINE
  5
18F
330
1F
100
AcDbEntity
  8
LAY-1
  6
CONTINUOUS
 62
     3
100
AcDbLine
 10
1195.8725892
 20
155.4172363
 30
0.0
 11
1195.8725892
 21
166.1760559
 31
0.0
  0
LINE
  5
190
330
1F
100
AcDbEntity
  8
LAY-1
  6
CONTINUOUS
 62
     3
100
AcDbLine
 10
1195.8725892
 20
166.1760559
 30
0.0
 11
1186.2955628
 21
166.1760559
 31
0.0
  0
LINE
  5
191
330
1F
100
AcDbEntity
  8
LAY-1
  6
CONTINUOUS
 62
     3
100
AcDbLine
 10
1183.2726441
 20
184.3199768
 30
0.0
 11
1183.2726441
 21
178.2720032
 31
0.0
  0
LINE
  5
192
330
1F
100
AcDbEntity
  8
LAY-1
  6
CONTINUOUS
 62
     3
100
AcDbLine
 10
1183.2726441
 20
184.3199768
 30
0.0
 11
1213.2448731
 21
184.3199768
 31
0.0
  0
LINE
  5
193
330
1F
100
AcDbEntity
  8
LAY-1
  6
CONTINUOUS
 62
     3
100
AcDbLine
 10
1213.2448731
 20
184.3199768
 30
0.0
 11
1211.7785035
 21
188.3519592
 31
0.0
  0
LINE
  5
194
330
1F
100
AcDbEntity
  8
LAY-1
  6
CONTINUOUS
 62
     3
100
AcDbLine
 10
1211.7785035
 20
188.3519592
 30
0.0
 11
1223.5765992
 21
188.3519592
 31
0.0
  0
LINE
  5
195
330
1F
100
AcDbEntity
  8
LAY-1
  6
CONTINUOUS
 62
     3
100
AcDbLine
 10
1223.5765992
 20
188.3519592
 30
0.0
 11
1225.0449524
 21
184.3199768
 31
0.0
  0
LINE
  5
196
330
1F
100
AcDbEntity
  8
LAY-1
  6
CONTINUOUS
 62
     3
100
AcDbLine
 10
1225.0449524
 20
184.3199768
 30
0.0
 11
1227.6249085
 21
184.3199768
 31
0.0
  0
LINE
  5
197
330
1F
100
AcDbEntity
  8
LAY-1
  6
CONTINUOUS
 62
     3
100
AcDbLine
 10
1227.6249085
 20
184.3199768
 30
0.0
 11
1227.6249085
 21
188.3519592
 31
0.0
  0
LINE
  5
198
330
1F
100
AcDbEntity
  8
LAY-1
  6
CONTINUOUS
 62
     3
100
AcDbLine
 10
1227.6249085
 20
188.3519592
 30
0.0
 11
1236.6954957
 21
188.3519592
 31
0.0
  0
LINE
  5
199
330
1F
100
AcDbEntity
  8
LAY-1
  6
CONTINUOUS
 62
     3
100
AcDbLine
 10
1236.6954957
 20
188.3519592
 30
0.0
 11
1236.6954957
 21
184.3199768
 31
0.0
  0
LINE
  5
19A
330
1F
100
AcDbEntity
  8
LAY-1
  6
CONTINUOUS
 62
     3
100
AcDbLine
 10
1236.6954957
 20
184.3199768
 30
0.0
 11
1239.720398
 21
184.3199768
 31
0.0
  0
LINE
  5
19B
330
1F
100
AcDbEntity
  8
LAY-1
  6
CONTINUOUS
 62
     3
100
AcDbLine
 10
1239.720398
 20
184.3199768
 30
0.0
 11
1239.720398
 21
178.2720032
 31
0.0
  0
LINE
  5
19C
330
1F
100
AcDbEntity
  8
LAY-1
  6
CONTINUOUS
 62
     3
100
AcDbLine
 10
1239.720398
 20
178.2720032
 30
0.0
 11
1227.2454224
 21
178.2720032
 31
0.0
  0
LINE
  5
19D
330
1F
100
AcDbEntity
  8
LAY-1
  6
CONTINUOUS
 62
     3
100
AcDbLine
 10
1227.2454224
 20
178.2720032
 30
0.0
 11
1239.720398
 21
144.0
 31
0.0
  0
LINE
  5
19E
330
1F
100
AcDbEntity
  8
LAY-1
  6
CONTINUOUS
 62
     3
100
AcDbLine
 10
1239.720398
 20
144.0
 30
0.0
 11
1227.9201661
 21
144.0
 31
0.0
  0
LINE
  5
19F
330
1F
100
AcDbEntity
  8
LAY-1
  6
CONTINUOUS
 62
     3
100
AcDbLine
 10
1227.9201661
 20
144.0
 30
0.0
 11
1215.4473267
 21
178.2720032
 31
0.0
  0
LINE
  5
1A0
330
1F
100
AcDbEntity
  8
LAY-1
  6
CONTINUOUS
 62
     3
100
AcDbLine
 10
1215.4473267
 20
178.2720032
 30
0.0
 11
1183.2726441
 21
178.2720032
 31
0.0
  0
LINE
  5
1A1
330
1F
100
AcDbEntity
  8
LAY-1
  6
CONTINUOUS
 62
     3
100
AcDbLine
 10
1241.7363892
 20
179.7478333
 30
0.0
 11
1241.7363892
 21
173.3699646
 31
0.0
  0
LINE
  5
1A2
330
1F
100
AcDbEntity
  8
LAY-1
  6
CONTINUOUS
 62
     3
100
AcDbLine
 10
1241.7363892
 20
179.7478333
 30
0.0
 11
1270.4636536
 21
189.3599548
 31
0.0
  0
LINE
  5
1A3
330
1F
100
AcDbEntity
  8
LAY-1
  6
CONTINUOUS
 62
     3
100
AcDbLine
 10
1270.4636536
 20
189.3599548
 30
0.0
 11
1299.1910706
 21
179.7475281
 31
0.0
  0
LINE
  5
1A4
330
1F
100
AcDbEntity
  8
LAY-1
  6
CONTINUOUS
 62
     3
100
AcDbLine
 10
1299.1910706
 20
179.7475281
 30
0.0
 11
1299.1910706
 21
173.3699646
 31
0.0
  0
LINE
  5
1A5
330
1F
100
AcDbEntity
  8
LAY-1
  6
CONTINUOUS
 62
     3
100
AcDbLine
 10
1299.1910706
 20
173.3699646
 30
0.0
 11
1290.624939
 21
176.2367859
 31
0.0
  0
LINE
  5
1A6
330
1F
100
AcDbEntity
  8
LAY-1
  6
CONTINUOUS
 62
     3
100
AcDbLine
 10
1290.624939
 20
176.2367859
 30
0.0
 11
1290.624939
 21
171.216034
 31
0.0
  0
LINE
  5
1A7
330
1F
100
AcDbEntity
  8
LAY-1
  6
CONTINUOUS
 62
     3
100
AcDbLine
 10
1290.624939
 20
171.216034
 30
0.0
 11
1250.3045044
 21
171.216034
 31
0.0
  0
LINE
  5
1A8
330
1F
100
AcDbEntity
  8
LAY-1
  6
CONTINUOUS
 62
     3
100
AcDbLine
 10
1250.3045044
 20
171.216034
 30
0.0
 11
1250.3045044
 21
176.2367859
 31
0.0
  0
LINE
  5
1A9
330
1F
100
AcDbEntity
  8
LAY-1
  6
CONTINUOUS
 62
     3
100
AcDbLine
 10
1250.3045044
 20
176.2367859
 30
0.0
 11
1241.7363892
 21
173.3699646
 31
0.0
  0
LINE
  5
1AA
330
1F
100
AcDbEntity
  8
LAY-1
  6
CONTINUOUS
 62
     3
100
AcDbLine
 10
1253.3745728
 20
177.2640076
 30
0.0
 11
1270.4636536
 21
182.9822388
 31
0.0
  0
LINE
  5
1AB
330
1F
100
AcDbEntity
  8
LAY-1
  6
CONTINUOUS
 62
     3
100
AcDbLine
 10
1270.4636536
 20
182.9822388
 30
0.0
 11
1287.5548707
 21
177.2640076
 31
0.0
  0
LINE
  5
1AC
330
1F
100
AcDbEntity
  8
LAY-1
  6
CONTINUOUS
 62
     3
100
AcDbLine
 10
1287.5548707
 20
177.2640076
 30
0.0
 11
1253.3745728
 21
177.2640076
 31
0.0
  0
LINE
  5
1AD
330
1F
100
AcDbEntity
  8
LAY-1
  6
CONTINUOUS
 62
     3
100
AcDbLine
 10
1241.7363892
 20
167.1838989
 30
0.0
 11
1241.7363892
 21
161.1359253
 31
0.0
  0
LINE
  5
1AE
330
1F
100
AcDbEntity
  8
LAY-1
  6
CONTINUOUS
 62
     3
100
AcDbLine
 10
1241.7363892
 20
167.1838989
 30
0.0
 11
1299.1910706
 21
167.1838989
 31
0.0
  0
LINE
  5
1AF
330
1F
100
AcDbEntity
  8
LAY-1
  6
CONTINUOUS
 62
     3
100
AcDbLine
 10
1299.1910706
 20
167.1838989
 30
0.0
 11
1299.1910706
 21
161.1359253
 31
0.0
  0
LINE
  5
1B0
330
1F
100
AcDbEntity
  8
LAY-1
  6
CONTINUOUS
 62
     3
100
AcDbLine
 10
1299.1910706
 20
161.1359253
 30
0.0
 11
1291.2011109
 21
161.1359253
 31
0.0
  0
LINE
  5
1B1
330
1F
100
AcDbEntity
  8
LAY-1
  6
CONTINUOUS
 62
     3
100
AcDbLine
 10
1291.2011109
 20
161.1359253
 30
0.0
 11
1299.1910706
 21
144.0
 31
0.0
  0
LINE
  5
1B2
330
1F
100
AcDbEntity
  8
LAY-1
  6
CONTINUOUS
 62
     3
100
AcDbLine
 10
1299.1910706
 20
144.0
 30
0.0
 11
1241.7363892
 21
144.0
 31
0.0
  0
LINE
  5
1B3
330
1F
100
AcDbEntity
  8
LAY-1
  6
CONTINUOUS
 62
     3
100
AcDbLine
 10
1241.7363892
 20
144.0
 30
0.0
 11
1249.7261963
 21
161.1359253
 31
0.0
  0
LINE
  5
1B4
330
1F
100
AcDbEntity
  8
LAY-1
  6
CONTINUOUS
 62
     3
100
AcDbLine
 10
1249.7261963
 20
161.1359253
 30
0.0
 11
1241.7363892
 21
161.1359253
 31
0.0
  0
LINE
  5
1B5
330
1F
100
AcDbEntity
  8
LAY-1
  6
CONTINUOUS
 62
     3
100
AcDbLine
 10
1260.8475647
 20
161.1359253
 30
0.0
 11
1280.0797425
 21
161.1359253
 31
0.0
  0
LINE
  5
1B6
330
1F
100
AcDbEntity
  8
LAY-1
  6
CONTINUOUS
 62
     3
100
AcDbLine
 10
1280.0797425
 20
161.1359253
 30
0.0
 11
1285.2497254
 21
150.0479736
 31
0.0
  0
LINE
  5
1B7
330
1F
100
AcDbEntity
  8
LAY-1
  6
CONTINUOUS
 62
     3
100
AcDbLine
 10
1285.2497254
 20
150.0479736
 30
0.0
 11
1255.6775818
 21
150.0479736
 31
0.0
  0
LINE
  5
1B8
330
1F
100
AcDbEntity
  8
LAY-1
  6
CONTINUOUS
 62
     3
100
AcDbLine
 10
1260.8475647
 20
161.1359253
 30
0.0
 11
1255.6775818
 21
150.0479736
 31
0.0
  0
LINE
  5
1B9
330
1F
100
AcDbEntity
  8
LAY-1
  6
CONTINUOUS
 62
     3
100
AcDbLine
 10
1328.4249268
 20
177.2640076
 30
0.0
 11
1328.4249268
 21
171.216034
 31
0.0
  0
LINE
  5
1BA
330
1F
100
AcDbEntity
  8
LAY-1
  6
CONTINUOUS
 62
     3
100
AcDbLine
 10
1328.4249268
 20
177.2640076
 30
0.0
 11
1337.495514
 21
177.2640076
 31
0.0
  0
LINE
  5
1BB
330
1F
100
AcDbEntity
  8
LAY-1
  6
CONTINUOUS
 62
     3
100
AcDbLine
 10
1337.495514
 20
177.2640076
 30
0.0
 11
1337.495514
 21
188.3519592
 31
0.0
  0
LINE
  5
1BC
330
1F
100
AcDbEntity
  8
LAY-1
  6
CONTINUOUS
 62
     3
100
AcDbLine
 10
1337.495514
 20
188.3519592
 30
0.0
 11
1347.5750123
 21
188.3519592
 31
0.0
  0
LINE
  5
1BD
330
1F
100
AcDbEntity
  8
LAY-1
  6
CONTINUOUS
 62
     3
100
AcDbLine
 10
1347.5750123
 20
188.3519592
 30
0.0
 11
1347.5750123
 21
177.2640076
 31
0.0
  0
LINE
  5
1BE
330
1F
100
AcDbEntity
  8
LAY-1
  6
CONTINUOUS
 62
     3
100
AcDbLine
 10
1347.5750123
 20
177.2640076
 30
0.0
 11
1356.6477356
 21
177.2640076
 31
0.0
  0
LINE
  5
1BF
330
1F
100
AcDbEntity
  8
LAY-1
  6
CONTINUOUS
 62
     3
100
AcDbLine
 10
1356.6477356
 20
177.2640076
 30
0.0
 11
1356.6477356
 21
171.216034
 31
0.0
  0
LINE
  5
1C0
330
1F
100
AcDbEntity
  8
LAY-1
  6
CONTINUOUS
 62
     3
100
AcDbLine
 10
1356.6477356
 20
171.216034
 30
0.0
 11
1347.5750123
 21
171.216034
 31
0.0
  0
LINE
  5
1C1
330
1F
100
AcDbEntity
  8
LAY-1
  6
CONTINUOUS
 62
     3
100
AcDbLine
 10
1347.5750123
 20
171.216034
 30
0.0
 11
1347.5750123
 21
150.0479736
 31
0.0
  0
LINE
  5
1C2
330
1F
100
AcDbEntity
  8
LAY-1
  6
CONTINUOUS
 62
     3
100
AcDbLine
 10
1347.5750123
 20
150.0479736
 30
0.0
 11
1357.6566468
 21
150.0479736
 31
0.0
  0
LINE
  5
1C3
330
1F
100
AcDbEntity
  8
LAY-1
  6
CONTINUOUS
 62
     3
100
AcDbLine
 10
1357.6566468
 20
150.0479736
 30
0.0
 11
1357.6566468
 21
144.0
 31
0.0
  0
LINE
  5
1C4
330
1F
100
AcDbEntity
  8
LAY-1
  6
CONTINUOUS
 62
     3
100
AcDbLine
 10
1357.6566468
 20
144.0
 30
0.0
 11
1324.3909607
 21
144.0
 31
0.0
  0
LINE
  5
1C5
330
1F
100
AcDbEntity
  8
LAY-1
  6
CONTINUOUS
 62
     3
100
AcDbLine
 10
1324.3909607
 20
144.0
 30
0.0
 11
1324.3909607
 21
150.0479736
 31
0.0
  0
LINE
  5
1C6
330
1F
100
AcDbEntity
  8
LAY-1
  6
CONTINUOUS
 62
     3
100
AcDbLine
 10
1324.3909607
 20
150.0479736
 30
0.0
 11
1337.495514
 21
150.0479736
 31
0.0
  0
LINE
  5
1C7
330
1F
100
AcDbEntity
  8
LAY-1
  6
CONTINUOUS
 62
     3
100
AcDbLine
 10
1337.495514
 20
150.0479736
 30
0.0
 11
1337.495514
 21
171.216034
 31
0.0
  0
LINE
  5
1C8
330
1F
100
AcDbEntity
  8
LAY-1
  6
CONTINUOUS
 62
     3
100
AcDbLine
 10
1337.495514
 20
171.216034
 30
0.0
 11
1328.4249268
 21
171.216034
 31
0.0
  0
LINE
  5
1C9
330
1F
100
AcDbEntity
  8
LAY-1
  6
CONTINUOUS
 62
     3
100
AcDbLine
 10
1301.2069092
 20
184.3199768
 30
0.0
 11
1301.2069092
 21
178.2720032
 31
0.0
  0
LINE
  5
1CA
330
1F
100
AcDbEntity
  8
LAY-1
  6
CONTINUOUS
 62
     3
100
AcDbLine
 10
1301.2069092
 20
184.3199768
 30
0.0
 11
1310.2796326
 21
184.3199768
 31
0.0
  0
LINE
  5
1CB
330
1F
100
AcDbEntity
  8
LAY-1
  6
CONTINUOUS
 62
     3
100
AcDbLine
 10
1310.2796326
 20
184.3199768
 30
0.0
 11
1310.2796326
 21
188.3519592
 31
0.0
  0
LINE
  5
1CC
330
1F
100
AcDbEntity
  8
LAY-1
  6
CONTINUOUS
 62
     3
100
AcDbLine
 10
1310.2796326
 20
188.3519592
 30
0.0
 11
1320.3591309
 21
188.3519592
 31
0.0
  0
LINE
  5
1CD
330
1F
100
AcDbEntity
  8
LAY-1
  6
CONTINUOUS
 62
     3
100
AcDbLine
 10
1320.3591309
 20
188.3519592
 30
0.0
 11
1320.3591309
 21
184.3199768
 31
0.0
  0
LINE
  5
1CE
330
1F
100
AcDbEntity
  8
LAY-1
  6
CONTINUOUS
 62
     3
100
AcDbLine
 10
1320.3591309
 20
184.3199768
 30
0.0
 11
1329.4318543
 21
184.3199768
 31
0.0
  0
LINE
  5
1CF
330
1F
100
AcDbEntity
  8
LAY-1
  6
CONTINUOUS
 62
     3
100
AcDbLine
 10
1329.4318543
 20
184.3199768
 30
0.0
 11
1319.0261231
 21
169.45578
 31
0.0
  0
LINE
  5
1D0
330
1F
100
AcDbEntity
  8
LAY-1
  6
CONTINUOUS
 62
     3
100
AcDbLine
 10
1319.0261231
 20
169.45578
 30
0.0
 11
1328.4249268
 21
162.875885
 31
0.0
  0
LINE
  5
1D1
330
1F
100
AcDbEntity
  8
LAY-1
  6
CONTINUOUS
 62
     3
100
AcDbLine
 10
1328.4249268
 20
162.875885
 30
0.0
 11
1328.4249268
 21
151.8012085
 31
0.0
  0
LINE
  5
1D2
330
1F
100
AcDbEntity
  8
LAY-1
  6
CONTINUOUS
 62
     3
100
AcDbLine
 10
1328.4249268
 20
151.8012085
 30
0.0
 11
1320.3591309
 21
157.4477234
 31
0.0
  0
LINE
  5
1D3
330
1F
100
AcDbEntity
  8
LAY-1
  6
CONTINUOUS
 62
     3
100
AcDbLine
 10
1320.3591309
 20
157.4477234
 30
0.0
 11
1320.3591309
 21
144.0
 31
0.0
  0
LINE
  5
1D4
330
1F
100
AcDbEntity
  8
LAY-1
  6
CONTINUOUS
 62
     3
100
AcDbLine
 10
1320.3591309
 20
144.0
 30
0.0
 11
1310.2796326
 21
144.0
 31
0.0
  0
LINE
  5
1D5
330
1F
100
AcDbEntity
  8
LAY-1
  6
CONTINUOUS
 62
     3
100
AcDbLine
 10
1310.2796326
 20
144.0
 30
0.0
 11
1310.2796326
 21
156.9598999
 31
0.0
  0
LINE
  5
1D6
330
1F
100
AcDbEntity
  8
LAY-1
  6
CONTINUOUS
 62
     3
100
AcDbLine
 10
1310.2796326
 20
156.9598999
 30
0.0
 11
1301.2069092
 21
144.0
 31
0.0
  0
LINE
  5
1D7
330
1F
100
AcDbEntity
  8
LAY-1
  6
CONTINUOUS
 62
     3
100
AcDbLine
 10
1301.2069092
 20
144.0
 30
0.0
 11
1301.2069092
 21
159.819397
 31
0.0
  0
LINE
  5
1D8
330
1F
100
AcDbEntity
  8
LAY-1
  6
CONTINUOUS
 62
     3
100
AcDbLine
 10
1301.2069092
 20
159.819397
 30
0.0
 11
1314.1248475
 21
178.2720032
 31
0.0
  0
LINE
  5
1D9
330
1F
100
AcDbEntity
  8
LAY-1
  6
CONTINUOUS
 62
     3
100
AcDbLine
 10
1314.1248475
 20
178.2720032
 30
0.0
 11
1301.2069092
 21
178.2720032
 31
0.0
  0
ARC
  5
1DA
330
1F
100
AcDbEntity
  8
LAY-1
  6
CONTINUOUS
 62
     2
100
AcDbCircle
 10
859.1610108
 20
170.200409
 30
0.0
 40
6.300122100000003
100
AcDbArc
 50
310.7683105900002
 51
335.9987793400003
  0
LINE
  5
1DB
330
1F
100
AcDbEntity
  8
LAY-1
  6
CONTINUOUS
 62
     2
100
AcDbLine
 10
866.4002381
 20
170.9641113
 30
0.0
 11
864.9196777999999
 21
167.6390686
 31
0.0
  0
LINE
  5
1DC
330
1F
100
AcDbEntity
  8
LAY-1
  6
CONTINUOUS
 62
     2
100
AcDbLine
 10
848.9850769999999
 20
174.7440186
 30
0.0
 11
872.2184144
 21
174.7440186
 31
0.0
  0
ARC
  5
1DD
330
1F
100
AcDbEntity
  8
LAY-1
  6
CONTINUOUS
 62
     2
100
AcDbCircle
 10
952.2992859
 20
162.1440735
 30
0.0
 40
15.62400820000001
100
AcDbArc
 50
270.0000305200002
 51
324.0011596700001
  0
ARC
  5
1DE
330
1F
100
AcDbEntity
  8
LAY-1
  6
CONTINUOUS
 62
     2
100
AcDbCircle
 10
952.2992859
 20
162.1440735
 30
0.0
 40
13.1040096
100
AcDbArc
 50
270.0000305200002
 51
324.0011596700001
  0
ARC
  5
1DF
330
1F
100
AcDbEntity
  8
LAY-1
  6
CONTINUOUS
 62
     2
100
AcDbCircle
 10
799.5656739000001
 20
162.1440735
 30
0.0
 40
15.6239796
100
AcDbArc
 50
270.0000305200002
 51
333.9985504200004
  0
ARC
  5
1E0
330
1F
100
AcDbEntity
  8
LAY-1
  6
CONTINUOUS
 62
     2
100
AcDbCircle
 10
798.7655030000002
 20
162.1440735
 30
0.0
 40
10.583992
100
AcDbArc
 50
270.0000305200002
 51
333.9985504200004
  0
ARC
  5
1E1
330
1F
100
AcDbEntity
  8
LAY-1
  6
CONTINUOUS
 62
     2
100
AcDbCircle
 10
799.1655883999999
 20
162.1440735
 30
0.0
 40
13.1039906
100
AcDbArc
 50
270.0000305200002
 51
333.9985504200004
  0
LINE
  5
1E2
330
1F
100
AcDbEntity
  8
LAY-1
  6
CONTINUOUS
 62
     2
100
AcDbLine
 10
772.8408204
 20
186.0321274
 30
0.0
 11
797.3839722
 21
186.0321274
 31
0.0
  0
LINE
  5
1E3
330
1F
100
AcDbEntity
  8
LAY-1
  6
CONTINUOUS
 62
     2
100
AcDbLine
 10
772.8408204
 20
183.712143
 30
0.0
 11
797.3839722
 21
183.712143
 31
0.0
  0
LINE
  5
1E4
330
1F
100
AcDbEntity
  8
LAY-1
  6
CONTINUOUS
 62
     2
100
AcDbLine
 10
772.8408204
 20
181.3923111
 30
0.0
 11
797.3839722
 21
181.3923111
 31
0.0
  0
LINE
  5
1E5
330
1F
100
AcDbEntity
  8
LAY-1
  6
CONTINUOUS
 62
     2
100
AcDbLine
 10
772.8408204
 20
174.1360321
 30
0.0
 11
797.3839722
 21
174.1360321
 31
0.0
  0
LINE
  5
1E6
330
1F
100
AcDbEntity
  8
LAY-1
  6
CONTINUOUS
 62
     2
100
AcDbLine
 10
772.8408204
 20
171.6158905
 30
0.0
 11
797.3839722
 21
171.6158905
 31
0.0
  0
LINE
  5
1E7
330
1F
100
AcDbEntity
  8
LAY-1
  6
CONTINUOUS
 62
     2
100
AcDbLine
 10
772.8408204
 20
169.2960587
 30
0.0
 11
797.3839722
 21
169.2960587
 31
0.0
  0
LINE
  5
1E8
330
1F
100
AcDbEntity
  8
LAY-1
  6
CONTINUOUS
 62
     2
100
AcDbLine
 10
772.8408204
 20
151.5599671
 30
0.0
 11
798.7655030000002
 21
151.5599671
 31
0.0
  0
LINE
  5
1E9
330
1F
100
AcDbEntity
  8
LAY-1
  6
CONTINUOUS
 62
     2
100
AcDbLine
 10
772.8408204
 20
149.039978
 30
0.0
 11
798.7655030000002
 21
149.039978
 31
0.0
  0
LINE
  5
1EA
330
1F
100
AcDbEntity
  8
LAY-1
  6
CONTINUOUS
 62
     2
100
AcDbLine
 10
772.8408204
 20
146.519989
 30
0.0
 11
798.7655030000002
 21
146.519989
 31
0.0
  0
LINE
  5
1EB
330
1F
100
AcDbEntity
  8
LAY-1
  6
CONTINUOUS
 62
     2
100
AcDbLine
 10
808.2770691000002
 20
157.5040283
 30
0.0
 11
817.1082459000002
 21
175.6103649
 31
0.0
  0
LINE
  5
1EC
330
1F
100
AcDbEntity
  8
LAY-1
  6
CONTINUOUS
 62
     2
100
AcDbLine
 10
810.9412537000001
 20
156.3995972
 30
0.0
 11
820.3116761000001
 21
175.6103745
 31
0.0
  0
LINE
  5
1ED
330
1F
100
AcDbEntity
  8
LAY-1
  6
CONTINUOUS
 62
     2
100
AcDbLine
 10
813.6052857
 20
155.2942505
 30
0.0
 11
823.5131226
 21
175.6103459
 31
0.0
  0
LINE
  5
1EE
330
1F
100
AcDbEntity
  8
LAY-1
  6
CONTINUOUS
 62
     2
100
AcDbLine
 10
810.1363526
 20
185.6959763
 30
0.0
 11
814.5183715999999
 21
185.6959763
 31
0.0
  0
LINE
  5
1EF
330
1F
100
AcDbEntity
  8
LAY-1
  6
CONTINUOUS
 62
     2
100
AcDbLine
 10
810.1363526
 20
182.8399887
 30
0.0
 11
814.5183715999999
 21
182.8399887
 31
0.0
  0
LINE
  5
1F0
330
1F
100
AcDbEntity
  8
LAY-1
  6
CONTINUOUS
 62
     2
100
AcDbLine
 10
821.2249146
 20
185.6959763
 30
0.0
 11
825.6069336000002
 21
185.6959763
 31
0.0
  0
LINE
  5
1F1
330
1F
100
AcDbEntity
  8
LAY-1
  6
CONTINUOUS
 62
     2
100
AcDbLine
 10
821.2249146
 20
182.8399887
 30
0.0
 11
825.6069336000002
 21
182.8399887
 31
0.0
  0
LINE
  5
1F2
330
1F
100
AcDbEntity
  8
LAY-1
  6
CONTINUOUS
 62
     2
100
AcDbLine
 10
832.3134766
 20
172.2241821
 30
0.0
 11
844.2806396999999
 21
172.2241821
 31
0.0
  0
LINE
  5
1F3
330
1F
100
AcDbEntity
  8
LAY-1
  6
CONTINUOUS
 62
     2
100
AcDbLine
 10
841.3753663
 20
182.5026837
 30
0.0
 11
842.6050721000001
 21
174.7440186
 31
0.0
  0
LINE
  5
1F4
330
1F
100
AcDbEntity
  8
LAY-1
  6
CONTINUOUS
 62
     2
100
AcDbLine
 10
847.1880494
 20
145.8173027
 30
0.0
 11
843.4490357
 21
169.4190445
 31
0.0
  0
ARC
  5
1F5
330
1F
100
AcDbEntity
  8
LAY-1
  6
CONTINUOUS
 62
     2
100
AcDbCircle
 10
858.9609681000002
 20
170.200409
 30
0.0
 40
8.8201213
100
AcDbArc
 50
272.67138672
 51
335.9987793000003
  0
ARC
  5
1F6
330
1F
100
AcDbEntity
  8
LAY-1
  6
CONTINUOUS
 62
     2
100
AcDbCircle
 10
858.7609252999999
 20
170.200409
 30
0.0
 40
11.3401127
100
AcDbArc
 50
267.3674316300002
 51
335.9987792900002
  0
LINE
  5
1F7
330
1F
100
AcDbEntity
  8
LAY-1
  6
CONTINUOUS
 62
     2
100
AcDbLine
 10
873.3516846
 20
175.0905266
 30
0.0
 11
869.1214904999999
 21
165.5885925
 31
0.0
  0
LINE
  5
1F8
330
1F
100
AcDbEntity
  8
LAY-1
  6
CONTINUOUS
 62
     2
100
AcDbLine
 10
853.0906067000001
 20
145.8173027
 30
0.0
 11
849.2203675000002
 21
170.2488175
 31
0.0
  0
LINE
  5
1F9
330
1F
100
AcDbEntity
  8
LAY-1
  6
CONTINUOUS
 62
     2
100
AcDbLine
 10
850.3392945000002
 20
145.8173027
 30
0.0
 11
844.5284424
 21
182.5026741
 31
0.0
  0
LINE
  5
1FA
330
1F
100
AcDbEntity
  8
LAY-1
  6
CONTINUOUS
 62
     2
100
AcDbLine
 10
847.2797547
 20
182.5026741
 30
0.0
 11
848.3956299
 21
175.459465
 31
0.0
  0
LINE
  5
1FB
330
1F
100
AcDbEntity
  8
LAY-1
  6
CONTINUOUS
 62
     2
100
AcDbLine
 10
832.3134766
 20
174.7440186
 30
0.0
 11
840.6051026
 21
174.7440186
 31
0.0
  0
LINE
  5
1FC
330
1F
100
AcDbEntity
  8
LAY-1
  6
CONTINUOUS
 62
     2
100
AcDbLine
 10
869.6698914000001
 20
172.5703945
 30
0.0
 11
867.0205079
 21
166.6135254
 31
0.0
  0
LINE
  5
1FD
330
1F
100
AcDbEntity
  8
LAY-1
  6
CONTINUOUS
 62
     2
100
AcDbLine
 10
848.1073914000001
 20
172.2241821
 30
0.0
 11
867.3381958
 21
172.2241821
 31
0.0
  0
ARC
  5
1FE
330
1F
100
AcDbEntity
  8
LAY-1
  6
CONTINUOUS
 62
     2
100
AcDbCircle
 10
858.5608826
 20
170.200409
 30
0.0
 40
13.8601112
100
AcDbArc
 50
269.6113281200002
 51
335.9987792900002
  0
LINE
  5
1FF
330
1F
100
AcDbEntity
  8
LAY-1
  6
CONTINUOUS
 62
     2
100
AcDbLine
 10
875.9098206
 20
175.0905552
 30
0.0
 11
871.2224732
 21
164.5633545
 31
0.0
  0
LINE
  5
200
330
1F
100
AcDbEntity
  8
LAY-1
  6
CONTINUOUS
 62
     2
100
AcDbLine
 10
983.3126221
 20
183.3121338
 30
0.0
 11
962.8806457999999
 21
155.1827088
 31
0.0
  0
LINE
  5
201
330
1F
100
AcDbEntity
  8
LAY-1
  6
CONTINUOUS
 62
     2
100
AcDbLine
 10
977.8681336
 20
180.7922974
 30
0.0
 11
960.3420411000002
 21
156.664032
 31
0.0
  0
ARC
  5
202
330
1F
100
AcDbEntity
  8
LAY-1
  6
CONTINUOUS
 62
     2
100
AcDbCircle
 10
952.9993592
 20
161.7440643
 30
0.0
 40
9.3240207
100
AcDbArc
 50
270.0000305200002
 51
324.0011596700001
  0
LINE
  5
203
330
1F
100
AcDbEntity
  8
LAY-1
  6
CONTINUOUS
 62
     2
100
AcDbLine
 10
883.8794860999999
 20
186.0155907
 30
0.0
 11
928.2636414000001
 21
186.0155907
 31
0.0
  0
LINE
  5
204
330
1F
100
AcDbEntity
  8
LAY-1
  6
CONTINUOUS
 62
     2
100
AcDbLine
 10
883.8794860999999
 20
183.395752
 30
0.0
 11
928.2636414000001
 21
183.395752
 31
0.0
  0
LINE
  5
205
330
1F
100
AcDbEntity
  8
LAY-1
  6
CONTINUOUS
 62
     2
100
AcDbLine
 10
883.8794860999999
 20
180.675911
 30
0.0
 11
928.2636414000001
 21
180.675911
 31
0.0
  0
LINE
  5
206
330
1F
100
AcDbEntity
  8
LAY-1
  6
CONTINUOUS
 62
     2
100
AcDbLine
 10
879.8476562999999
 20
151.644043
 30
0.0
 11
932.2954712000001
 21
151.644043
 31
0.0
  0
LINE
  5
207
330
1F
100
AcDbEntity
  8
LAY-1
  6
CONTINUOUS
 62
     2
100
AcDbLine
 10
879.8476562999999
 20
149.124054
 30
0.0
 11
932.2954712000001
 21
149.124054
 31
0.0
  0
LINE
  5
208
330
1F
100
AcDbEntity
  8
LAY-1
  6
CONTINUOUS
 62
     2
100
AcDbLine
 10
879.8476562999999
 20
146.4039078
 30
0.0
 11
932.2954712000001
 21
146.4039078
 31
0.0
  0
LINE
  5
209
330
1F
100
AcDbEntity
  8
LAY-1
  6
CONTINUOUS
 62
     2
100
AcDbLine
 10
943.3521424
 20
185.9321251
 30
0.0
 11
986.2568054999999
 21
185.9321251
 31
0.0
  0
LINE
  5
20A
330
1F
100
AcDbEntity
  8
LAY-1
  6
CONTINUOUS
 62
     2
100
AcDbLine
 10
988.8569031
 20
185.8321228
 30
0.0
 11
965.519043
 21
153.7006226
 31
0.0
  0
LINE
  5
20B
330
1F
100
AcDbEntity
  8
LAY-1
  6
CONTINUOUS
 62
     2
100
AcDbLine
 10
943.3521424
 20
183.3121338
 30
0.0
 11
981.3125
 21
183.3121338
 31
0.0
  0
LINE
  5
20C
330
1F
100
AcDbEntity
  8
LAY-1
  6
CONTINUOUS
 62
     2
100
AcDbLine
 10
952.2992859
 20
151.6599693
 30
0.0
 11
939.3203125
 21
151.6599693
 31
0.0
  0
LINE
  5
20D
330
1F
100
AcDbEntity
  8
LAY-1
  6
CONTINUOUS
 62
     2
100
AcDbLine
 10
952.2992859
 20
149.039978
 30
0.0
 11
939.3203125
 21
149.039978
 31
0.0
  0
LINE
  5
20E
330
1F
100
AcDbEntity
  8
LAY-1
  6
CONTINUOUS
 62
     2
100
AcDbLine
 10
952.2992859
 20
146.4199867
 30
0.0
 11
939.3203125
 21
146.4199867
 31
0.0
  0
LINE
  5
20F
330
1F
100
AcDbEntity
  8
LAY-1
  6
CONTINUOUS
 62
     2
100
AcDbLine
 10
972.4318848000001
 20
159.7371521
 30
0.0
 11
984.3715821000001
 21
145.9999981
 31
0.0
  0
LINE
  5
210
330
1F
100
AcDbEntity
  8
LAY-1
  6
CONTINUOUS
 62
     2
100
AcDbLine
 10
973.9534913
 20
161.5305081
 30
0.0
 11
987.4517212000001
 21
145.9999981
 31
0.0
  0
LINE
  5
211
330
1F
100
AcDbEntity
  8
LAY-1
  6
CONTINUOUS
 62
     2
100
AcDbLine
 10
975.4731141000002
 20
163.3229485
 30
0.0
 11
990.5294190000001
 21
145.9999981
 31
0.0
  0
LINE
  5
212
330
1F
100
AcDbEntity
  8
LAY-1
  6
CONTINUOUS
 62
     2
100
AcDbLine
 10
976.9927369
 20
165.1158466
 30
0.0
 11
993.6092530000002
 21
145.9999981
 31
0.0
  0
LINE
  5
213
330
1F
100
AcDbEntity
  8
LAY-1
  6
CONTINUOUS
 62
     2
100
AcDbLine
 10
943.3521424
 20
180.5922928
 30
0.0
 11
975.367981
 21
180.5922928
 31
0.0
  0
LINE
  5
214
330
1F
100
AcDbEntity
  8
LAY-1
  6
CONTINUOUS
 62
     2
100
AcDbLine
 10
1011.8955384
 20
186.0321274
 30
0.0
 11
1060.3113709
 21
186.0321274
 31
0.0
  0
LINE
  5
215
330
1F
100
AcDbEntity
  8
LAY-1
  6
CONTINUOUS
 62
     2
100
AcDbLine
 10
1011.8955384
 20
183.5121384
 30
0.0
 11
1060.3113709
 21
183.5121384
 31
0.0
  0
LINE
  5
216
330
1F
100
AcDbEntity
  8
LAY-1
  6
CONTINUOUS
 62
     2
100
AcDbLine
 10
1032.6773987
 20
151.4799156
 30
0.0
 11
1032.6773987
 21
181.2122193
 31
0.0
  0
LINE
  5
217
330
1F
100
AcDbEntity
  8
LAY-1
  6
CONTINUOUS
 62
     2
100
AcDbLine
 10
1035.1958619
 20
151.4799156
 30
0.0
 11
1035.1958619
 21
181.2122193
 31
0.0
  0
LINE
  5
218
330
1F
100
AcDbEntity
  8
LAY-1
  6
CONTINUOUS
 62
     2
100
AcDbLine
 10
1037.7141724
 20
151.4799156
 30
0.0
 11
1037.7141724
 21
181.2122193
 31
0.0
  0
LINE
  5
219
330
1F
100
AcDbEntity
  8
LAY-1
  6
CONTINUOUS
 62
     2
100
AcDbLine
 10
1040.0324402
 20
151.4799156
 30
0.0
 11
1040.0324402
 21
181.2122193
 31
0.0
  0
LINE
  5
21A
330
1F
100
AcDbEntity
  8
LAY-1
  6
CONTINUOUS
 62
     2
100
AcDbLine
 10
1009.8795472
 20
149.4799175
 30
0.0
 11
1062.3273621
 21
149.4799175
 31
0.0
  0
LINE
  5
21B
330
1F
100
AcDbEntity
  8
LAY-1
  6
CONTINUOUS
 62
     2
100
AcDbLine
 10
1009.8795472
 20
146.4599266
 30
0.0
 11
1062.3273621
 21
146.4599266
 31
0.0
  0
LINE
  5
21C
330
1F
100
AcDbEntity
  8
LAY-1
  6
CONTINUOUS
 62
     2
100
AcDbLine
 10
1074.127594
 20
186.3519612
 30
0.0
 11
1077.8708802
 21
181.5615025
 31
0.0
  0
LINE
  5
21D
330
1F
100
AcDbEntity
  8
LAY-1
  6
CONTINUOUS
 62
     2
100
AcDbLine
 10
1077.3247681
 20
186.3519612
 30
0.0
 11
1081.0680542
 21
181.5615025
 31
0.0
  0
LINE
  5
21E
330
1F
100
AcDbEntity
  8
LAY-1
  6
CONTINUOUS
 62
     2
100
AcDbLine
 10
1087.3113404
 20
186.3519612
 30
0.0
 11
1087.3113404
 21
181.9855633
 31
0.0
  0
LINE
  5
21F
330
1F
100
AcDbEntity
  8
LAY-1
  6
CONTINUOUS
 62
     2
100
AcDbLine
 10
1090.0298462
 20
186.3519612
 30
0.0
 11
1090.0298462
 21
181.9855633
 31
0.0
  0
LINE
  5
220
330
1F
100
AcDbEntity
  8
LAY-1
  6
CONTINUOUS
 62
     2
100
AcDbLine
 10
1097.3909913
 20
186.3519612
 30
0.0
 11
1097.3909913
 21
181.9855633
 31
0.0
  0
LINE
  5
221
330
1F
100
AcDbEntity
  8
LAY-1
  6
CONTINUOUS
 62
     2
100
AcDbLine
 10
1100.3093873
 20
186.3519612
 30
0.0
 11
1100.3093873
 21
181.9855633
 31
0.0
  0
LINE
  5
222
330
1F
100
AcDbEntity
  8
LAY-1
  6
CONTINUOUS
 62
     2
100
AcDbLine
 10
1109.9956666
 20
186.3519612
 30
0.0
 11
1106.2523804
 21
181.5615025
 31
0.0
  0
LINE
  5
223
330
1F
100
AcDbEntity
  8
LAY-1
  6
CONTINUOUS
 62
     2
100
AcDbLine
 10
1113.3928833
 20
186.3519612
 30
0.0
 11
1109.6495972
 21
181.5615025
 31
0.0
  0
LINE
  5
224
330
1F
100
AcDbEntity
  8
LAY-1
  6
CONTINUOUS
 62
     2
100
AcDbLine
 10
1067.3362122
 20
179.9855652
 30
0.0
 11
1119.7840271
 21
179.9855652
 31
0.0
  0
LINE
  5
225
330
1F
100
AcDbEntity
  8
LAY-1
  6
CONTINUOUS
 62
     2
100
AcDbLine
 10
1080.4317627
 20
172.1882858
 30
0.0
 11
1078.2778321
 21
178.1061783
 31
0.0
  0
LINE
  5
226
330
1F
100
AcDbEntity
  8
LAY-1
  6
CONTINUOUS
 62
     2
100
AcDbLine
 10
1083.5122071
 20
172.1882858
 30
0.0
 11
1081.3582764
 21
178.1061783
 31
0.0
  0
LINE
  5
227
330
1F
100
AcDbEntity
  8
LAY-1
  6
CONTINUOUS
 62
     2
100
AcDbLine
 10
1086.3926087
 20
172.1885147
 30
0.0
 11
1084.2411194
 21
178.1059494
 31
0.0
  0
LINE
  5
228
330
1F
100
AcDbEntity
  8
LAY-1
  6
CONTINUOUS
 62
     2
100
AcDbLine
 10
1100.9194336
 20
172.1880665
 30
0.0
 11
1103.0756531
 21
178.1063976
 31
0.0
  0
LINE
  5
229
330
1F
100
AcDbEntity
  8
LAY-1
  6
CONTINUOUS
 62
     2
100
AcDbLine
 10
1104.0020142
 20
172.1880665
 30
0.0
 11
1106.1582337
 21
178.1063976
 31
0.0
  0
LINE
  5
22A
330
1F
100
AcDbEntity
  8
LAY-1
  6
CONTINUOUS
 62
     2
100
AcDbLine
 10
1106.8824158
 20
172.1880665
 30
0.0
 11
1109.0386353
 21
178.1063976
 31
0.0
  0
LINE
  5
22B
330
1F
100
AcDbEntity
  8
LAY-1
  6
CONTINUOUS
 62
     2
100
AcDbLine
 10
1067.3362122
 20
170.3088989
 30
0.0
 11
1119.7840271
 21
170.3088989
 31
0.0
  0
LINE
  5
22C
330
1F
100
AcDbEntity
  8
LAY-1
  6
CONTINUOUS
 62
     2
100
AcDbLine
 10
1067.3362122
 20
163.3536377
 30
0.0
 11
1088.8387452
 21
163.3536377
 31
0.0
  0
LINE
  5
22D
330
1F
100
AcDbEntity
  8
LAY-1
  6
CONTINUOUS
 62
     2
100
AcDbLine
 10
1067.3362122
 20
156.3983765
 30
0.0
 11
1088.8387452
 21
156.3983765
 31
0.0
  0
LINE
  5
22E
330
1F
100
AcDbEntity
  8
LAY-1
  6
CONTINUOUS
 62
     2
100
AcDbLine
 10
1098.475586
 20
156.3983765
 30
0.0
 11
1119.7840271
 21
156.3983765
 31
0.0
  0
LINE
  5
22F
330
1F
100
AcDbEntity
  8
LAY-1
  6
CONTINUOUS
 62
     2
100
AcDbLine
 10
1070.5088196
 20
145.9999981
 30
0.0
 11
1080.5332337
 21
155.057539
 31
0.0
  0
LINE
  5
230
330
1F
100
AcDbEntity
  8
LAY-1
  6
CONTINUOUS
 62
     2
100
AcDbLine
 10
1073.8677369
 20
145.9999981
 30
0.0
 11
1083.8924561
 21
155.0575581
 31
0.0
  0
LINE
  5
231
330
1F
100
AcDbEntity
  8
LAY-1
  6
CONTINUOUS
 62
     2
100
AcDbLine
 10
1077.0287476
 20
145.9999981
 30
0.0
 11
1087.0534668
 21
155.0575581
 31
0.0
  0
LINE
  5
232
330
1F
100
AcDbEntity
  8
LAY-1
  6
CONTINUOUS
 62
     2
100
AcDbLine
 10
1090.8387146
 20
145.9999981
 30
0.0
 11
1090.8387146
 21
168.3089008
 31
0.0
  0
LINE
  5
233
330
1F
100
AcDbEntity
  8
LAY-1
  6
CONTINUOUS
 62
     2
100
AcDbLine
 10
1093.7571106
 20
145.9999981
 30
0.0
 11
1093.7571106
 21
168.3089008
 31
0.0
  0
LINE
  5
234
330
1F
100
AcDbEntity
  8
LAY-1
  6
CONTINUOUS
 62
     2
100
AcDbLine
 10
1096.4756165
 20
145.9999981
 30
0.0
 11
1096.4756165
 21
168.3089008
 31
0.0
  0
LINE
  5
235
330
1F
100
AcDbEntity
  8
LAY-1
  6
CONTINUOUS
 62
     2
100
AcDbLine
 10
1110.171753
 20
145.9999981
 30
0.0
 11
1100.1473389
 21
155.057539
 31
0.0
  0
LINE
  5
236
330
1F
100
AcDbEntity
  8
LAY-1
  6
CONTINUOUS
 62
     2
100
AcDbLine
 10
1113.5308228
 20
145.9999981
 30
0.0
 11
1103.5061036
 21
155.0575581
 31
0.0
  0
LINE
  5
237
330
1F
100
AcDbEntity
  8
LAY-1
  6
CONTINUOUS
 62
     2
100
AcDbLine
 10
1116.8918763
 20
145.9999981
 30
0.0
 11
1106.867157
 21
155.0575581
 31
0.0
  0
LINE
  5
238
330
1F
100
AcDbEntity
  8
LAY-1
  6
CONTINUOUS
 62
     2
100
AcDbLine
 10
1135.9978638
 20
186.3519612
 30
0.0
 11
1135.9978638
 21
182.7919903
 31
0.0
  0
LINE
  5
239
330
1F
100
AcDbEntity
  8
LAY-1
  6
CONTINUOUS
 62
     2
100
AcDbLine
 10
1138.5161744
 20
186.3519612
 30
0.0
 11
1138.5161744
 21
182.7919903
 31
0.0
  0
LINE
  5
23A
330
1F
100
AcDbEntity
  8
LAY-1
  6
CONTINUOUS
 62
     2
100
AcDbLine
 10
1141.0346375
 20
186.3519612
 30
0.0
 11
1141.0346375
 21
182.7919903
 31
0.0
  0
LINE
  5
23B
330
1F
100
AcDbEntity
  8
LAY-1
  6
CONTINUOUS
 62
     2
100
AcDbLine
 10
1125.7999573
 20
180.7919922
 30
0.0
 11
1143.9751587
 21
180.7919922
 31
0.0
  0
LINE
  5
23C
330
1F
100
AcDbEntity
  8
LAY-1
  6
CONTINUOUS
 62
     2
100
AcDbLine
 10
1125.9441529
 20
145.9890499
 30
0.0
 11
1129.3920289
 21
178.8029423
 31
0.0
  0
LINE
  5
23D
330
1F
100
AcDbEntity
  8
LAY-1
  6
CONTINUOUS
 62
     2
100
AcDbLine
 10
1128.276764
 20
145.9890499
 30
0.0
 11
1131.7247925
 21
178.8029423
 31
0.0
  0
LINE
  5
23E
330
1F
100
AcDbEntity
  8
LAY-1
  6
CONTINUOUS
 62
     2
100
AcDbLine
 10
1135.9978638
 20
145.9999981
 30
0.0
 11
1135.9978638
 21
178.7919941
 31
0.0
  0
LINE
  5
23F
330
1F
100
AcDbEntity
  8
LAY-1
  6
CONTINUOUS
 62
     2
100
AcDbLine
 10
1138.5161744
 20
145.9999981
 30
0.0
 11
1138.5161744
 21
178.7919941
 31
0.0
  0
LINE
  5
240
330
1F
100
AcDbEntity
  8
LAY-1
  6
CONTINUOUS
 62
     2
100
AcDbLine
 10
1141.0346375
 20
145.9999981
 30
0.0
 11
1141.0346375
 21
178.7919941
 31
0.0
  0
LINE
  5
241
330
1F
100
AcDbEntity
  8
LAY-1
  6
CONTINUOUS
 62
     2
100
AcDbLine
 10
1142.2092591
 20
176.1542454
 30
0.0
 11
1144.8003541
 21
172.5838413
 31
0.0
  0
LINE
  5
242
330
1F
100
AcDbEntity
  8
LAY-1
  6
CONTINUOUS
 62
     2
100
AcDbLine
 10
1142.2092591
 20
172.264246
 30
0.0
 11
1144.8003541
 21
168.6938419
 31
0.0
  0
LINE
  5
243
330
1F
100
AcDbEntity
  8
LAY-1
  6
CONTINUOUS
 62
     2
100
AcDbLine
 10
1148.4691773
 20
177.1886006
 30
0.0
 11
1150.7688294
 21
186.4113751
 31
0.0
  0
LINE
  5
244
330
1F
100
AcDbEntity
  8
LAY-1
  6
CONTINUOUS
 62
     2
100
AcDbLine
 10
1150.8674012
 20
177.1886864
 30
0.0
 11
1153.1652222
 21
186.4112892
 31
0.0
  0
LINE
  5
245
330
1F
100
AcDbEntity
  8
LAY-1
  6
CONTINUOUS
 62
     2
100
AcDbLine
 10
1152.9638062
 20
177.1886006
 30
0.0
 11
1155.2634583
 21
186.4113751
 31
0.0
  0
LINE
  5
246
330
1F
100
AcDbEntity
  8
LAY-1
  6
CONTINUOUS
 62
     2
100
AcDbLine
 10
1161.7023621
 20
182.7919903
 30
0.0
 11
1161.7023621
 21
186.3519612
 31
0.0
  0
LINE
  5
247
330
1F
100
AcDbEntity
  8
LAY-1
  6
CONTINUOUS
 62
     2
100
AcDbLine
 10
1164.4207154
 20
182.7919903
 30
0.0
 11
1164.4207154
 21
186.3519612
 31
0.0
  0
LINE
  5
248
330
1F
100
AcDbEntity
  8
LAY-1
  6
CONTINUOUS
 62
     2
100
AcDbLine
 10
1166.9391785
 20
182.7919903
 30
0.0
 11
1166.9391785
 21
186.3519612
 31
0.0
  0
LINE
  5
249
330
1F
100
AcDbEntity
  8
LAY-1
  6
CONTINUOUS
 62
     2
100
AcDbLine
 10
1155.8622132
 20
180.7919922
 30
0.0
 11
1178.2477723
 21
180.7919922
 31
0.0
  0
LINE
  5
24A
330
1F
100
AcDbEntity
  8
LAY-1
  6
CONTINUOUS
 62
     2
100
AcDbLine
 10
1161.7023621
 20
178.7919941
 30
0.0
 11
1161.7023621
 21
172.7120342
 31
0.0
  0
LINE
  5
24B
330
1F
100
AcDbEntity
  8
LAY-1
  6
CONTINUOUS
 62
     2
100
AcDbLine
 10
1164.4207154
 20
178.7919941
 30
0.0
 11
1164.4207154
 21
172.7120342
 31
0.0
  0
LINE
  5
24C
330
1F
100
AcDbEntity
  8
LAY-1
  6
CONTINUOUS
 62
     2
100
AcDbLine
 10
1166.9391785
 20
178.7919941
 30
0.0
 11
1166.9391785
 21
172.7120342
 31
0.0
  0
LINE
  5
24D
330
1F
100
AcDbEntity
  8
LAY-1
  6
CONTINUOUS
 62
     2
100
AcDbLine
 10
1148.9840088
 20
170.7120361
 30
0.0
 11
1179.2566834
 21
170.7120361
 31
0.0
  0
LINE
  5
24E
330
1F
100
AcDbEntity
  8
LAY-1
  6
CONTINUOUS
 62
     2
100
AcDbLine
 10
1153.4479676
 20
168.7443867
 30
0.0
 11
1149.3007813
 21
145.9676495
 31
0.0
  0
LINE
  5
24F
330
1F
100
AcDbEntity
  8
LAY-1
  6
CONTINUOUS
 62
     2
100
AcDbLine
 10
1155.8072815
 20
168.7443867
 30
0.0
 11
1151.6602478
 21
145.9676495
 31
0.0
  0
LINE
  5
250
330
1F
100
AcDbEntity
  8
LAY-1
  6
CONTINUOUS
 62
     2
100
AcDbLine
 10
1157.8891907
 20
168.7444153
 30
0.0
 11
1153.7400208
 21
145.9676209
 31
0.0
  0
LINE
  5
251
330
1F
100
AcDbEntity
  8
LAY-1
  6
CONTINUOUS
 62
     2
100
AcDbLine
 10
1161.7023621
 20
168.7120381
 30
0.0
 11
1161.7023621
 21
145.9999981
 31
0.0
  0
LINE
  5
252
330
1F
100
AcDbEntity
  8
LAY-1
  6
CONTINUOUS
 62
     2
100
AcDbLine
 10
1164.2206727
 20
168.7120381
 30
0.0
 11
1164.2206727
 21
145.9999981
 31
0.0
  0
LINE
  5
253
330
1F
100
AcDbEntity
  8
LAY-1
  6
CONTINUOUS
 62
     2
100
AcDbLine
 10
1166.9391785
 20
168.7120381
 30
0.0
 11
1166.9391785
 21
145.9999981
 31
0.0
  0
LINE
  5
254
330
1F
100
AcDbEntity
  8
LAY-1
  6
CONTINUOUS
 62
     2
100
AcDbLine
 10
1170.3495179
 20
168.7444153
 30
0.0
 11
1174.4986878
 21
145.9676209
 31
0.0
  0
LINE
  5
255
330
1F
100
AcDbEntity
  8
LAY-1
  6
CONTINUOUS
 62
     2
100
AcDbLine
 10
1172.5109253
 20
168.7444153
 30
0.0
 11
1176.6600953
 21
145.9676209
 31
0.0
  0
LINE
  5
256
330
1F
100
AcDbEntity
  8
LAY-1
  6
CONTINUOUS
 62
     2
100
AcDbLine
 10
1175.070282
 20
168.7444153
 30
0.0
 11
1179.219452
 21
145.9676209
 31
0.0
  0
LINE
  5
257
330
1F
100
AcDbEntity
  8
LAY-1
  6
CONTINUOUS
 62
     2
100
AcDbLine
 10
1185.2726136
 20
182.4001541
 30
0.0
 11
1213.8240967
 21
182.4001541
 31
0.0
  0
LINE
  5
258
330
1F
100
AcDbEntity
  8
LAY-1
  6
CONTINUOUS
 62
     2
100
AcDbLine
 10
1185.2726136
 20
179.8801651
 30
0.0
 11
1214.7413025
 21
179.8801651
 31
0.0
  0
LINE
  5
259
330
1F
100
AcDbEntity
  8
LAY-1
  6
CONTINUOUS
 62
     2
100
AcDbLine
 10
1229.1166077
 20
145.8793869
 30
0.0
 11
1214.34198
 21
186.4725723
 31
0.0
  0
LINE
  5
25A
330
1F
100
AcDbEntity
  8
LAY-1
  6
CONTINUOUS
 62
     2
100
AcDbLine
 10
1231.7969666
 20
145.8793965
 30
0.0
 11
1217.0229493
 21
186.4725628
 31
0.0
  0
LINE
  5
25B
330
1F
100
AcDbEntity
  8
LAY-1
  6
CONTINUOUS
 62
     2
100
AcDbLine
 10
1234.4773255
 20
145.8793965
 30
0.0
 11
1219.7033082
 21
186.4725628
 31
0.0
  0
LINE
  5
25C
330
1F
100
AcDbEntity
  8
LAY-1
  6
CONTINUOUS
 62
     2
100
AcDbLine
 10
1237.1576844
 20
145.8793583
 30
0.0
 11
1222.3813782
 21
186.4725914
 31
0.0
  0
LINE
  5
25D
330
1F
100
AcDbEntity
  8
LAY-1
  6
CONTINUOUS
 62
     2
100
AcDbLine
 10
1229.5430909
 20
184.4001522
 30
0.0
 11
1229.5430909
 21
186.3519612
 31
0.0
  0
LINE
  5
25E
330
1F
100
AcDbEntity
  8
LAY-1
  6
CONTINUOUS
 62
     2
100
AcDbLine
 10
1232.2615967
 20
184.4001522
 30
0.0
 11
1232.2615967
 21
186.3519612
 31
0.0
  0
LINE
  5
25F
330
1F
100
AcDbEntity
  8
LAY-1
  6
CONTINUOUS
 62
     2
100
AcDbLine
 10
1234.97995
 20
184.4001522
 30
0.0
 11
1234.97995
 21
186.3519612
 31
0.0
  0
LINE
  5
260
330
1F
100
AcDbEntity
  8
LAY-1
  6
CONTINUOUS
 62
     2
100
AcDbLine
 10
1225.8637391
 20
182.4001541
 30
0.0
 11
1237.7204285
 21
182.4001541
 31
0.0
  0
LINE
  5
261
330
1F
100
AcDbEntity
  8
LAY-1
  6
CONTINUOUS
 62
     2
100
AcDbLine
 10
1226.7810975
 20
179.8801651
 30
0.0
 11
1237.7204285
 21
179.8801651
 31
0.0
  0
LINE
  5
262
330
1F
100
AcDbEntity
  8
LAY-1
  6
CONTINUOUS
 62
     2
100
AcDbLine
 10
1188.2955323
 20
170.3640976
 30
0.0
 11
1214.536377
 21
170.3640976
 31
0.0
  0
LINE
  5
263
330
1F
100
AcDbEntity
  8
LAY-1
  6
CONTINUOUS
 62
     2
100
AcDbLine
 10
1188.2955323
 20
167.843956
 30
0.0
 11
1214.536377
 21
167.843956
 31
0.0
  0
LINE
  5
264
330
1F
100
AcDbEntity
  8
LAY-1
  6
CONTINUOUS
 62
     2
100
AcDbLine
 10
1197.7909241
 20
165.8439579
 30
0.0
 11
1197.7909241
 21
155.791153
 31
0.0
  0
LINE
  5
265
330
1F
100
AcDbEntity
  8
LAY-1
  6
CONTINUOUS
 62
     2
100
AcDbLine
 10
1200.3092347
 20
165.8439579
 30
0.0
 11
1200.3092347
 21
156.3264313
 31
0.0
  0
LINE
  5
266
330
1F
100
AcDbEntity
  8
LAY-1
  6
CONTINUOUS
 62
     2
100
AcDbLine
 10
1202.8275452
 20
165.8439579
 30
0.0
 11
1202.8275452
 21
156.8617191
 31
0.0
  0
LINE
  5
267
330
1F
100
AcDbEntity
  8
LAY-1
  6
CONTINUOUS
 62
     2
100
AcDbLine
 10
1205.3460083
 20
165.8439579
 30
0.0
 11
1205.3460083
 21
157.3970261
 31
0.0
  0
LINE
  5
268
330
1F
100
AcDbEntity
  8
LAY-1
  6
CONTINUOUS
 62
     2
100
AcDbLine
 10
1187.747284
 20
151.6563168
 30
0.0
 11
1215.0844727
 21
157.4669972
 31
0.0
  0
LINE
  5
269
330
1F
100
AcDbEntity
  8
LAY-1
  6
CONTINUOUS
 62
     2
100
AcDbLine
 10
1187.747284
 20
148.8800278
 30
0.0
 11
1215.0844727
 21
154.6908512
 31
0.0
  0
LINE
  5
26A
330
1F
100
AcDbEntity
  8
LAY-1
  6
CONTINUOUS
 62
     2
100
AcDbLine
 10
1187.747284
 20
146.5037289
 30
0.0
 11
1215.0844727
 21
152.3144093
 31
0.0
  0
LINE
  5
26B
330
1F
100
AcDbEntity
  8
LAY-1
  6
CONTINUOUS
 62
     2
100
AcDbLine
 10
1243.6330567
 20
178.325943
 30
0.0
 11
1269.5153199
 21
186.9854012
 31
0.0
  0
LINE
  5
26C
330
1F
100
AcDbEntity
  8
LAY-1
  6
CONTINUOUS
 62
     2
100
AcDbLine
 10
1243.6330567
 20
175.6686249
 30
0.0
 11
1269.5153199
 21
184.3282356
 31
0.0
  0
LINE
  5
26D
330
1F
100
AcDbEntity
  8
LAY-1
  6
CONTINUOUS
 62
     2
100
AcDbLine
 10
1271.4119874
 20
186.9853916
 30
0.0
 11
1297.2944031
 21
178.325304
 31
0.0
  0
LINE
  5
26E
330
1F
100
AcDbEntity
  8
LAY-1
  6
CONTINUOUS
 62
     2
100
AcDbLine
 10
1271.4119874
 20
184.5282307
 30
0.0
 11
1297.2944031
 21
175.8681431
 31
0.0
  0
LINE
  5
26F
330
1F
100
AcDbEntity
  8
LAY-1
  6
CONTINUOUS
 62
     2
100
AcDbLine
 10
1288.6249695
 20
175.5961075
 30
0.0
 11
1252.3044739
 21
175.5961075
 31
0.0
  0
LINE
  5
270
330
1F
100
AcDbEntity
  8
LAY-1
  6
CONTINUOUS
 62
     2
100
AcDbLine
 10
1288.6249695
 20
172.8759613
 30
0.0
 11
1252.3044739
 21
172.8759613
 31
0.0
  0
LINE
  5
271
330
1F
100
AcDbEntity
  8
LAY-1
  6
CONTINUOUS
 62
     2
100
AcDbLine
 10
1243.7363587
 20
165.0639191
 30
0.0
 11
1297.1911011
 21
165.0639191
 31
0.0
  0
LINE
  5
272
330
1F
100
AcDbEntity
  8
LAY-1
  6
CONTINUOUS
 62
     2
100
AcDbLine
 10
1243.7363587
 20
162.7440872
 30
0.0
 11
1297.1911011
 21
162.7440872
 31
0.0
  0
LINE
  5
273
330
1F
100
AcDbEntity
  8
LAY-1
  6
CONTINUOUS
 62
     2
100
AcDbLine
 10
1252.0133362
 20
160.9315338
 30
0.0
 11
1246.9112549
 21
149.9924603
 31
0.0
  0
LINE
  5
274
330
1F
100
AcDbEntity
  8
LAY-1
  6
CONTINUOUS
 62
     2
100
AcDbLine
 10
1255.194336
 20
160.9315434
 30
0.0
 11
1250.0921021
 21
149.9924603
 31
0.0
  0
LINE
  5
275
330
1F
100
AcDbEntity
  8
LAY-1
  6
CONTINUOUS
 62
     2
100
AcDbLine
 10
1258.3753357
 20
160.9315434
 30
0.0
 11
1253.2731019
 21
149.9924603
 31
0.0
  0
LINE
  5
276
330
1F
100
AcDbEntity
  8
LAY-1
  6
CONTINUOUS
 62
     2
100
AcDbLine
 10
1282.5541077
 20
160.9316673
 30
0.0
 11
1287.6583252
 21
149.9923363
 31
0.0
  0
LINE
  5
277
330
1F
100
AcDbEntity
  8
LAY-1
  6
CONTINUOUS
 62
     2
100
AcDbLine
 10
1285.7370911
 20
160.9314194
 30
0.0
 11
1290.8370362
 21
149.9925842
 31
0.0
  0
LINE
  5
278
330
1F
100
AcDbEntity
  8
LAY-1
  6
CONTINUOUS
 62
     2
100
AcDbLine
 10
1288.9199219
 20
160.9313145
 30
0.0
 11
1294.0181885
 21
149.9926891
 31
0.0
  0
LINE
  5
279
330
1F
100
AcDbEntity
  8
LAY-1
  6
CONTINUOUS
 62
     2
100
AcDbLine
 10
1245.6853638
 20
148.1799164
 30
0.0
 11
1295.242096
 21
148.1799164
 31
0.0
  0
LINE
  5
27A
330
1F
100
AcDbEntity
  8
LAY-1
  6
CONTINUOUS
 62
     2
100
AcDbLine
 10
1244.5102845
 20
145.6599274
 30
0.0
 11
1296.4171753
 21
145.6599274
 31
0.0
  0
LINE
  5
27B
330
1F
100
AcDbEntity
  8
LAY-1
  6
CONTINUOUS
 62
     2
100
AcDbLine
 10
1312.3978577
 20
184.4001522
 30
0.0
 11
1312.3978577
 21
186.3519612
 31
0.0
  0
LINE
  5
27C
330
1F
100
AcDbEntity
  8
LAY-1
  6
CONTINUOUS
 62
     2
100
AcDbLine
 10
1315.3162537
 20
184.4001522
 30
0.0
 11
1315.3162537
 21
186.3519612
 31
0.0
  0
LINE
  5
27D
330
1F
100
AcDbEntity
  8
LAY-1
  6
CONTINUOUS
 62
     2
100
AcDbLine
 10
1318.2348023
 20
184.4001522
 30
0.0
 11
1318.2348023
 21
186.3519612
 31
0.0
  0
LINE
  5
27E
330
1F
100
AcDbEntity
  8
LAY-1
  6
CONTINUOUS
 62
     2
100
AcDbLine
 10
1303.2068787
 20
182.4001541
 30
0.0
 11
1326.0878907
 21
182.4001541
 31
0.0
  0
LINE
  5
27F
330
1F
100
AcDbEntity
  8
LAY-1
  6
CONTINUOUS
 62
     2
100
AcDbLine
 10
1303.2068787
 20
179.8801651
 30
0.0
 11
1324.3238221
 21
179.8801651
 31
0.0
  0
LINE
  5
280
330
1F
100
AcDbEntity
  8
LAY-1
  6
CONTINUOUS
 62
     2
100
AcDbLine
 10
1316.379181
 20
178.2416763
 30
0.0
 11
1302.3537598
 21
158.2047215
 31
0.0
  0
LINE
  5
281
330
1F
100
AcDbEntity
  8
LAY-1
  6
CONTINUOUS
 62
     2
100
AcDbLine
 10
1319.6566163
 20
178.2418003
 30
0.0
 11
1302.3539124
 21
153.528513
 31
0.0
  0
LINE
  5
282
330
1F
100
AcDbEntity
  8
LAY-1
  6
CONTINUOUS
 62
     2
100
AcDbLine
 10
1322.7379761
 20
178.2417717
 30
0.0
 11
1302.3539124
 21
149.1257324
 31
0.0
  0
LINE
  5
283
330
1F
100
AcDbEntity
  8
LAY-1
  6
CONTINUOUS
 62
     2
100
AcDbLine
 10
1317.9299317
 20
167.8869095
 30
0.0
 11
1326.7867432
 21
161.6846409
 31
0.0
  0
LINE
  5
284
330
1F
100
AcDbEntity
  8
LAY-1
  6
CONTINUOUS
 62
     2
100
AcDbLine
 10
1316.4844666
 20
165.8219948
 30
0.0
 11
1326.7865906
 21
158.6079922
 31
0.0
  0
LINE
  5
285
330
1F
100
AcDbEntity
  8
LAY-1
  6
CONTINUOUS
 62
     2
100
AcDbLine
 10
1314.9450074
 20
163.623127
 30
0.0
 11
1326.7865906
 21
155.331501
 31
0.0
  0
LINE
  5
286
330
1F
100
AcDbEntity
  8
LAY-1
  6
CONTINUOUS
 62
     2
100
AcDbLine
 10
1312.3978577
 20
161.472229
 30
0.0
 11
1312.3978577
 21
145.9999981
 31
0.0
  0
LINE
  5
287
330
1F
100
AcDbEntity
  8
LAY-1
  6
CONTINUOUS
 62
     2
100
AcDbLine
 10
1315.3162537
 20
161.3631573
 30
0.0
 11
1315.3162537
 21
145.9999981
 31
0.0
  0
LINE
  5
288
330
1F
100
AcDbEntity
  8
LAY-1
  6
CONTINUOUS
 62
     2
100
AcDbLine
 10
1318.2348023
 20
159.3195667
 30
0.0
 11
1318.2348023
 21
145.9999981
 31
0.0
  0
LINE
  5
289
330
1F
100
AcDbEntity
  8
LAY-1
  6
CONTINUOUS
 62
     2
100
AcDbLine
 10
1339.6137391
 20
150.1799145
 30
0.0
 11
1339.6137391
 21
186.3519612
 31
0.0
  0
LINE
  5
28A
330
1F
100
AcDbEntity
  8
LAY-1
  6
CONTINUOUS
 62
     2
100
AcDbLine
 10
1342.5321351
 20
150.1799145
 30
0.0
 11
1342.5321351
 21
186.3519612
 31
0.0
  0
LINE
  5
28B
330
1F
100
AcDbEntity
  8
LAY-1
  6
CONTINUOUS
 62
     2
100
AcDbLine
 10
1345.4506836
 20
150.1799145
 30
0.0
 11
1345.4506836
 21
186.3519612
 31
0.0
  0
LINE
  5
28C
330
1F
100
AcDbEntity
  8
LAY-1
  6
CONTINUOUS
 62
     2
100
AcDbLine
 10
1330.4248963
 20
175.3440323
 30
0.0
 11
1337.6137696
 21
175.3440323
 31
0.0
  0
LINE
  5
28D
330
1F
100
AcDbEntity
  8
LAY-1
  6
CONTINUOUS
 62
     2
100
AcDbLine
 10
1330.4248963
 20
172.8241959
 30
0.0
 11
1337.6137696
 21
172.8241959
 31
0.0
  0
LINE
  5
28E
330
1F
100
AcDbEntity
  8
LAY-1
  6
CONTINUOUS
 62
     2
100
AcDbLine
 10
1347.4506531
 20
175.3440323
 30
0.0
 11
1354.6477662
 21
175.3440323
 31
0.0
  0
LINE
  5
28F
330
1F
100
AcDbEntity
  8
LAY-1
  6
CONTINUOUS
 62
     2
100
AcDbLine
 10
1347.4506531
 20
172.6241913
 30
0.0
 11
1354.6477662
 21
172.6241913
 31
0.0
  0
LINE
  5
290
330
1F
100
AcDbEntity
  8
LAY-1
  6
CONTINUOUS
 62
     2
100
AcDbLine
 10
1326.3909302
 20
148.1799164
 30
0.0
 11
1355.6566773
 21
148.1799164
 31
0.0
  0
LINE
  5
291
330
1F
100
AcDbEntity
  8
LAY-1
  6
CONTINUOUS
 62
     2
100
AcDbLine
 10
1326.3909302
 20
145.6599274
 30
0.0
 11
1355.6566773
 21
145.6599274
 31
0.0
  0
LINE
  5
292
330
1F
100
AcDbEntity
  8
LAY-1
  6
CONTINUOUS
 62
     2
100
AcDbLine
 10
1098.475586
 20
163.3536377
 30
0.0
 11
1119.7840271
 21
163.3536377
 31
0.0
  0
LINE
  5
293
330
1F
100
AcDbEntity
  8
LAY-1
  6
EXLTYPE2
 62
     6
100
AcDbLine
 10
0.0
 20
1485.0
 30
0.0
 11
180.0
 21
1485.0
 31
0.0
  0
LINE
  5
294
330
1F
100
AcDbEntity
  8
LAY-1
  6
CONTINUOUS
 62
     7
100
AcDbLine
 10
180.0
 20
2895.0
 30
0.0
 11
2000.0
 21
2895.0
 31
0.0
  0
TEXT
  5
295
330
1F
100
AcDbEntity
  8
LAY-1
  6
CONTINUOUS
 62
     2
100
AcDbText
 10
850.0
 20
242.5
 30
0.0
 40
65.0
  1
ふた付前割便座
 41
1.287054409005628
  7
EXCADSTD
 72
     5
 11
1340.0
 21
242.5
 31
0.0
100
AcDbText
  0
TEXT
  5
296
330
1F
100
AcDbEntity
  8
LAY-1
  6
CONTINUOUS
 62
     2
100
AcDbText
 10
1486.5000009537
 20
245.0
 30
0.0
 40
60.0
  1
ＮＣ８０Ｗ
 41
1.114367816091954
  7
EXCADSTD
 72
     5
 11
1763.5000009537
 21
245.0
 31
0.0
100
AcDbText
  0
LINE
  5
297
330
1F
100
AcDbEntity
  8
LAY-2
  6
EXLTYPE3
 62
     6
100
AcDbLine
 10
566.380995
 20
1263.5
 30
0.0
 11
566.3809949999999
 21
1189.5
 31
0.0
  0
LINE
  5
298
330
1F
100
AcDbEntity
  8
LAY-2
  6
CONTINUOUS
 62
     6
100
AcDbLine
 10
585.5728895000002
 20
1305.6613083
 30
0.0
 11
583.0557997
 21
1292.9287643
 31
0.0
  0
LINE
  5
299
330
1F
100
AcDbEntity
  8
LAY-2
  6
CONTINUOUS
 62
     6
100
AcDbLine
 10
588.7443144512999
 20
1321.7045926019
 30
0.0
 11
585.5728895000002
 21
1305.6613083
 31
0.0
  0
ARC
  5
29A
330
1F
100
AcDbEntity
  8
LAY-2
  6
CONTINUOUS
 62
     6
100
AcDbCircle
 10
562.4381238999999
 20
305.9287947999999
 30
0.0
 40
1008.5001927
100
AcDbArc
 50
85.81477214999994
 51
88.59044948999998
  0
ARC
  5
29B
330
1F
100
AcDbEntity
  8
LAY-2
  6
CONTINUOUS
 62
     6
100
AcDbCircle
 10
781.3809949999998
 20
3297.930290200001
 30
0.0
 40
1991.5004329
100
AcDbArc
 50
265.8146424600001
 51
270.0000175600001
  0
LINE
  5
29C
330
1F
100
AcDbEntity
  8
LAY-2
  6
CONTINUOUS
 62
     6
100
AcDbLine
 10
781.3809949999998
 20
1306.4288253
 30
0.0
 11
985.5094128999999
 21
1306.4288253
 31
0.0
  0
ARC
  5
29D
330
1F
100
AcDbEntity
  8
LAY-2
  6
CONTINUOUS
 62
     6
100
AcDbCircle
 10
985.5094128999999
 20
1291.4288253
 30
0.0
 40
15.0012966
100
AcDbArc
 50
25.84360080000031
 51
90.00000000000004
  0
ARC
  5
29E
330
1F
100
AcDbEntity
  8
LAY-2
  6
CONTINUOUS
 62
     6
100
AcDbCircle
 10
562.4381238999999
 20
305.9287947999999
 30
0.0
 40
999.9997407000002
100
AcDbArc
 50
85.81477285000001
 51
88.67432413
  0
LINE
  5
29F
330
1F
100
AcDbEntity
  8
LAY-2
  6
CONTINUOUS
 62
     6
100
AcDbLine
 10
600.9610731
 20
1292.9287643
 30
0.0
 11
601.6031555942002
 21
1305.1612911153
 31
0.0
  0
LINE
  5
2A0
330
1F
100
AcDbEntity
  8
LAY-2
  6
CONTINUOUS
 62
     6
100
AcDbLine
 10
998.2096083000001
 20
1292.9287643
 30
0.0
 11
612.2818738999999
 21
1292.9287643
 31
0.0
  0
ARC
  5
2A1
330
1F
100
AcDbEntity
  8
LAY-2
  6
CONTINUOUS
 62
     6
100
AcDbCircle
 10
888.3805067000001
 20
1299.4288559
 30
0.0
 40
9.000401800000002
100
AcDbArc
 50
189.5942269400001
 51
226.2470884700012
  0
ARC
  5
2A2
330
1F
100
AcDbEntity
  8
LAY-2
  6
CONTINUOUS
 62
     6
100
AcDbCircle
 10
781.3809949999998
 20
3297.930290200001
 30
0.0
 40
2000.0002742
100
AcDbArc
 50
265.8146422
 51
270.0000174900002
  0
LINE
  5
2A3
330
1F
100
AcDbEntity
  8
LAY-2
  6
CONTINUOUS
 62
     6
100
AcDbLine
 10
781.3761121999996
 20
1297.929985
 30
0.0
 11
897.2550184000002
 21
1297.9287643
 31
0.0
  0
LINE
  5
2A4
330
1F
100
AcDbEntity
  8
LAY-2
  6
CONTINUOUS
 62
     6
100
AcDbLine
 10
897.2550184000002
 20
1297.9287643
 30
0.0
 11
1012.3819715
 21
1297.9287643
 31
0.0
  0
ARC
  5
2A5
330
1F
100
AcDbEntity
  8
LAY-2
  6
CONTINUOUS
 62
     6
100
AcDbCircle
 10
992.8018934000002
 20
1293.8499374
 30
0.0
 40
20.0005317
100
AcDbArc
 50
11.76900214999991
 51
81.43555134000108
  0
ARC
  5
2A6
330
1F
100
AcDbEntity
  8
LAY-2
  6
CONTINUOUS
 62
     6
100
AcDbCircle
 10
923.8736708000001
 20
818.8246078
 30
0.0
 40
500.0003167000003
100
AcDbArc
 50
81.73141132000002
 51
85.5222726899999
  0
ARC
  5
2A7
330
1F
100
AcDbEntity
  8
LAY-2
  6
CONTINUOUS
 62
     6
100
AcDbCircle
 10
767.733534
 20
-1175.0711136
 30
0.0
 40
2500.000263100001
100
AcDbArc
 50
85.52232710999996
 51
89.99987411
  0
LINE
  5
2A8
330
1F
100
AcDbEntity
  8
LAY-2
  6
CONTINUOUS
 62
     6
100
AcDbLine
 10
767.7384169000002
 20
1324.9288864
 30
0.0
 11
592.6683786567
 21
1324.9288864
 31
0.0
  0
ARC
  5
2A9
330
1F
100
AcDbEntity
  8
LAY-2
  6
CONTINUOUS
 62
     6
100
AcDbCircle
 10
888.3805067000001
 20
1299.4288559
 30
0.0
 40
9.000506100000003
100
AcDbArc
 50
313.7642642600001
 51
350.4058152299982
  0
ARC
  5
2AA
330
1F
100
AcDbEntity
  8
LAY-2
  6
CONTINUOUS
 62
     6
100
AcDbCircle
 10
592.6683786567
 20
1320.9288864
 30
0.0
 40
4.0
100
AcDbArc
 50
90.00000000000004
 51
168.8179775152016
  0
ARC
  5
2AB
330
1F
100
AcDbEntity
  8
LAY-2
  6
CONTINUOUS
 62
     6
100
AcDbCircle
 10
566.3809949999998
 20
1227.9288253
 30
0.0
 40
12.5
100
AcDbArc
 50
0.0
 51
61.31459798587831
  0
ARC
  5
2AC
330
1F
100
AcDbEntity
  8
LAY-2
  6
CONTINUOUS
 62
     6
100
AcDbCircle
 10
566.3809949999998
 20
1227.9288253
 30
0.0
 40
12.5
100
AcDbArc
 50
118.6854020140992
 51
180.0
  0
LINE
  5
2AD
330
1F
100
AcDbEntity
  8
LAY-2
  6
CONTINUOUS
 62
     6
100
AcDbLine
 10
560.3809950000002
 20
1238.9288253
 30
0.0
 11
572.380995
 21
1238.9288253
 31
0.0
  0
LINE
  5
2AE
330
1F
100
AcDbEntity
  8
LAY-2
  6
CONTINUOUS
 62
     6
100
AcDbLine
 10
553.8809949999998
 20
1227.9288253
 30
0.0
 11
578.8809949999998
 21
1227.9288253
 31
0.0
  0
LINE
  5
2AF
330
1F
100
AcDbEntity
  8
LAY-2
  6
CONTINUOUS
 62
     6
100
AcDbLine
 10
553.8809949999998
 20
1227.4288253
 30
0.0
 11
578.8809949999998
 21
1227.4288253
 31
0.0
  0
LINE
  5
2B0
330
1F
100
AcDbEntity
  8
LAY-2
  6
CONTINUOUS
 62
     6
100
AcDbLine
 10
553.8809949999998
 20
1225.4288253
 30
0.0
 11
578.8809949999998
 21
1225.4288253
 31
0.0
  0
LINE
  5
2B1
330
1F
100
AcDbEntity
  8
LAY-2
  6
CONTINUOUS
 62
     6
100
AcDbLine
 10
560.3809950000002
 20
1243.9288253
 30
0.0
 11
572.380995
 21
1243.9288253
 31
0.0
  0
LINE
  5
2B2
330
1F
100
AcDbEntity
  8
LAY-2
  6
CONTINUOUS
 62
     6
100
AcDbLine
 10
561.3809949999998
 20
1243.9288253
 30
0.0
 11
560.3809950000002
 21
1245.6608761076
 31
0.0
  0
LINE
  5
2B3
330
1F
100
AcDbEntity
  8
LAY-2
  6
CONTINUOUS
 62
     6
100
AcDbLine
 10
571.3809949999998
 20
1243.9288253
 30
0.0
 11
572.380995
 21
1245.6608761076
 31
0.0
  0
LINE
  5
2B4
330
1F
100
AcDbEntity
  8
LAY-2
  6
CONTINUOUS
 62
     6
100
AcDbLine
 10
561.3809949999998
 20
1193.9288253
 30
0.0
 11
571.3809949999998
 21
1193.9288253
 31
0.0
  0
LINE
  5
2B5
330
1F
100
AcDbEntity
  8
LAY-2
  6
CONTINUOUS
 62
     6
100
AcDbLine
 10
561.3809949999998
 20
1194.9288253
 30
0.0
 11
571.3809949999998
 21
1194.9288253
 31
0.0
  0
LINE
  5
2B6
330
1F
100
AcDbEntity
  8
LAY-2
  6
CONTINUOUS
 62
     6
100
AcDbLine
 10
572.380995
 20
1195.5061755692
 30
0.0
 11
560.3809950000002
 21
1195.5061755692
 31
0.0
  0
LINE
  5
2B7
330
1F
100
AcDbEntity
  8
LAY-2
  6
CONTINUOUS
 62
     6
100
AcDbLine
 10
561.3809949999998
 20
1194.9288253
 30
0.0
 11
560.3809950000002
 21
1195.5061755692
 31
0.0
  0
LINE
  5
2B8
330
1F
100
AcDbEntity
  8
LAY-2
  6
CONTINUOUS
 62
     6
100
AcDbLine
 10
571.3809949999998
 20
1194.9288253
 30
0.0
 11
572.380995
 21
1195.5061755692
 31
0.0
  0
LINE
  5
2B9
330
1F
100
AcDbEntity
  8
LAY-2
  6
CONTINUOUS
 62
     6
100
AcDbLine
 10
560.3809950000002
 20
1195.5061755692
 30
0.0
 11
560.3809950000002
 21
1215.4288253
 31
0.0
  0
LINE
  5
2BA
330
1F
100
AcDbEntity
  8
LAY-2
  6
CONTINUOUS
 62
     6
100
AcDbLine
 10
560.3809950000002
 20
1238.9288253
 30
0.0
 11
560.3809950000002
 21
1258.9288253
 31
0.0
  0
LINE
  5
2BB
330
1F
100
AcDbEntity
  8
LAY-2
  6
CONTINUOUS
 62
     6
100
AcDbLine
 10
561.3809949999998
 20
1193.9288253
 30
0.0
 11
561.3809949999998
 21
1215.4288253
 31
0.0
  0
LINE
  5
2BC
330
1F
100
AcDbEntity
  8
LAY-2
  6
CONTINUOUS
 62
     6
100
AcDbLine
 10
561.3809949999998
 20
1238.9288253
 30
0.0
 11
561.3809949999998
 21
1243.9288253
 31
0.0
  0
LINE
  5
2BD
330
1F
100
AcDbEntity
  8
LAY-2
  6
CONTINUOUS
 62
     6
100
AcDbLine
 10
571.3809949999998
 20
1243.9288253
 30
0.0
 11
571.3809949999998
 21
1238.9288253
 31
0.0
  0
LINE
  5
2BE
330
1F
100
AcDbEntity
  8
LAY-2
  6
CONTINUOUS
 62
     6
100
AcDbLine
 10
571.3809949999998
 20
1215.4288253
 30
0.0
 11
571.3809949999998
 21
1193.9288253
 31
0.0
  0
LINE
  5
2BF
330
1F
100
AcDbEntity
  8
LAY-2
  6
CONTINUOUS
 62
     6
100
AcDbLine
 10
572.380995
 20
1258.9288253
 30
0.0
 11
572.380995
 21
1238.9288253
 31
0.0
  0
LINE
  5
2C0
330
1F
100
AcDbEntity
  8
LAY-2
  6
CONTINUOUS
 62
     6
100
AcDbLine
 10
572.380995
 20
1215.4288253
 30
0.0
 11
572.380995
 21
1195.5061755692
 31
0.0
  0
LINE
  5
2C1
330
1F
100
AcDbEntity
  8
LAY-2
  6
CONTINUOUS
 62
     6
100
AcDbLine
 10
557.1533830597
 20
1217.9288253
 30
0.0
 11
557.8809950000002
 21
1215.4288253
 31
0.0
  0
LINE
  5
2C2
330
1F
100
AcDbEntity
  8
LAY-2
  6
CONTINUOUS
 62
     6
100
AcDbLine
 10
575.6086069403
 20
1217.9288253
 30
0.0
 11
574.880995
 21
1215.4288253
 31
0.0
  0
LINE
  5
2C3
330
1F
100
AcDbEntity
  8
LAY-2
  6
CONTINUOUS
 62
     6
100
AcDbLine
 10
557.8809950000002
 20
1215.4288253
 30
0.0
 11
574.880995
 21
1215.4288253
 31
0.0
  0
ARC
  5
2C4
330
1F
100
AcDbEntity
  8
LAY-2
  6
CONTINUOUS
 62
     6
100
AcDbCircle
 10
566.3809949999998
 20
1223.8490608759
 30
0.0
 40
8.420235575852002
100
AcDbArc
 50
224.6759428469014
 51
315.3240571531006
  0
LINE
  5
2C5
330
1F
100
AcDbEntity
  8
LAY-2
  6
CONTINUOUS
 62
     6
100
AcDbLine
 10
557.1533830597
 20
1217.9288253
 30
0.0
 11
560.3934096871001
 21
1217.9288253
 31
0.0
  0
LINE
  5
2C6
330
1F
100
AcDbEntity
  8
LAY-2
  6
CONTINUOUS
 62
     6
100
AcDbLine
 10
572.3685803128999
 20
1217.9288253
 30
0.0
 11
575.6086069403
 21
1217.9288253
 31
0.0
  0
LINE
  5
2C7
330
1F
100
AcDbEntity
  8
LAY-2
  6
CONTINUOUS
 62
     6
100
AcDbLine
 10
557.1533830597
 20
1217.9288253
 30
0.0
 11
557.1533830597
 21
1225.4288253
 31
0.0
  0
LINE
  5
2C8
330
1F
100
AcDbEntity
  8
LAY-2
  6
CONTINUOUS
 62
     6
100
AcDbLine
 10
560.3934096871001
 20
1217.9288253
 30
0.0
 11
560.3934096871001
 21
1225.4288253
 31
0.0
  0
LINE
  5
2C9
330
1F
100
AcDbEntity
  8
LAY-2
  6
CONTINUOUS
 62
     6
100
AcDbLine
 10
572.3685803128999
 20
1217.9288253
 30
0.0
 11
572.3685803128999
 21
1225.4288253
 31
0.0
  0
LINE
  5
2CA
330
1F
100
AcDbEntity
  8
LAY-2
  6
CONTINUOUS
 62
     6
100
AcDbLine
 10
575.6086069403
 20
1217.9288253
 30
0.0
 11
575.6086069403
 21
1225.4288253
 31
0.0
  0
LINE
  5
2CB
330
1F
100
AcDbEntity
  8
LAY-2
  6
CONTINUOUS
 62
     6
100
AcDbLine
 10
553.8809949999998
 20
1225.4288253
 30
0.0
 11
553.8809949999998
 21
1227.9288253
 31
0.0
  0
LINE
  5
2CC
330
1F
100
AcDbEntity
  8
LAY-2
  6
CONTINUOUS
 62
     6
100
AcDbLine
 10
578.8809949999998
 20
1225.4288253
 30
0.0
 11
578.8809949999998
 21
1227.9288253
 31
0.0
  0
LINE
  5
2CD
330
1F
100
AcDbEntity
  8
LAY-2
  6
CONTINUOUS
 62
     6
100
AcDbLine
 10
542.3810560000002
 20
1266.9288559
 30
0.0
 11
542.3810560000002
 21
1258.9288253
 31
0.0
  0
LINE
  5
2CE
330
1F
100
AcDbEntity
  8
LAY-2
  6
CONTINUOUS
 62
     6
100
AcDbLine
 10
542.3810560000002
 20
1266.9288559
 30
0.0
 11
573.4781628999999
 21
1269.9627609
 31
0.0
  0
LINE
  5
2CF
330
1F
100
AcDbEntity
  8
LAY-2
  6
CONTINUOUS
 62
     6
100
AcDbLine
 10
733.0411511999998
 20
1264.7999496
 30
0.0
 11
870.7682020000002
 21
1268.34655
 31
0.0
  0
LINE
  5
2D0
330
1F
100
AcDbEntity
  8
LAY-2
  6
CONTINUOUS
 62
     6
100
AcDbLine
 10
706.8473036
 20
1263.9288253
 30
0.0
 11
733.0411511999998
 21
1263.9288253
 31
0.0
  0
LINE
  5
2D1
330
1F
100
AcDbEntity
  8
LAY-2
  6
CONTINUOUS
 62
     6
100
AcDbLine
 10
660.3800183999999
 20
1262.9287643
 30
0.0
 11
706.8473036
 21
1264.1253585
 31
0.0
  0
LINE
  5
2D2
330
1F
100
AcDbEntity
  8
LAY-2
  6
CONTINUOUS
 62
     6
100
AcDbLine
 10
660.3800183999999
 20
1262.9287643
 30
0.0
 11
658.9957411
 21
1271.9288559
 31
0.0
  0
LINE
  5
2D3
330
1F
100
AcDbEntity
  8
LAY-2
  6
CONTINUOUS
 62
     6
100
AcDbLine
 10
706.8473036
 20
1263.9288253
 30
0.0
 11
706.8473036
 21
1271.9288559
 31
0.0
  0
ARC
  5
2D4
330
1F
100
AcDbEntity
  8
LAY-2
  6
CONTINUOUS
 62
     6
100
AcDbCircle
 10
709.8477919000002
 20
1261.9288559
 30
0.0
 40
3.000488300000002
100
AcDbArc
 50
180.0000227599993
 51
270.0000000000002
  0
ARC
  5
2D5
330
1F
100
AcDbEntity
  8
LAY-2
  6
CONTINUOUS
 62
     6
100
AcDbCircle
 10
730.0406628999999
 20
1261.9288559
 30
0.0
 40
3.000030500000002
100
AcDbArc
 50
270.0000000000002
 51
0.0
  0
LINE
  5
2D6
330
1F
100
AcDbEntity
  8
LAY-2
  6
CONTINUOUS
 62
     6
100
AcDbLine
 10
733.0411511999998
 20
1261.9288559
 30
0.0
 11
733.0411511999998
 21
1271.9288559
 31
0.0
  0
LINE
  5
2D7
330
1F
100
AcDbEntity
  8
LAY-2
  6
CONTINUOUS
 62
     6
100
AcDbLine
 10
870.7682020000002
 20
1263.9288253
 30
0.0
 11
870.7682020000002
 21
1271.9288559
 31
0.0
  0
ARC
  5
2D8
330
1F
100
AcDbEntity
  8
LAY-2
  6
CONTINUOUS
 62
     6
100
AcDbCircle
 10
873.7686902999999
 20
1261.9288559
 30
0.0
 40
3.000488300000002
100
AcDbArc
 50
180.0000227599993
 51
270.0000000000002
  0
LINE
  5
2D9
330
1F
100
AcDbEntity
  8
LAY-2
  6
CONTINUOUS
 62
     6
100
AcDbLine
 10
870.7682020000002
 20
1263.9288253
 30
0.0
 11
900.7218152999999
 21
1263.9288253
 31
0.0
  0
LINE
  5
2DA
330
1F
100
AcDbEntity
  8
LAY-2
  6
CONTINUOUS
 62
     6
100
AcDbLine
 10
900.7218152999999
 20
1261.9288559
 30
0.0
 11
900.7218152999999
 21
1271.9288559
 31
0.0
  0
LINE
  5
2DB
330
1F
100
AcDbEntity
  8
LAY-2
  6
CONTINUOUS
 62
     6
100
AcDbLine
 10
870.7682020000002
 20
1263.9288253
 30
0.0
 11
870.7682020000002
 21
1261.9288559
 31
0.0
  0
ARC
  5
2DC
330
1F
100
AcDbEntity
  8
LAY-2
  6
CONTINUOUS
 62
     6
100
AcDbCircle
 10
897.7213270000002
 20
1261.9288559
 30
0.0
 40
3.000030500000002
100
AcDbArc
 50
270.0000000000002
 51
0.0
  0
LINE
  5
2DD
330
1F
100
AcDbEntity
  8
LAY-2
  6
CONTINUOUS
 62
     6
100
AcDbLine
 10
706.8473036
 20
1261.9288559
 30
0.0
 11
706.8473036
 21
1263.9288253
 31
0.0
  0
LINE
  5
2DE
330
1F
100
AcDbEntity
  8
LAY-2
  6
CONTINUOUS
 62
     6
100
AcDbLine
 10
873.7162838356958
 20
1258.9288253
 30
0.0
 11
897.7213270000002
 21
1258.9288253
 31
0.0
  0
LINE
  5
2DF
330
1F
100
AcDbEntity
  8
LAY-2
  6
CONTINUOUS
 62
     6
100
AcDbLine
 10
709.7953854356958
 20
1258.9288253
 30
0.0
 11
730.0406628999999
 21
1258.9288253
 31
0.0
  0
LINE
  5
2E0
330
1F
100
AcDbEntity
  8
LAY-2
  6
CONTINUOUS
 62
     6
100
AcDbLine
 10
542.3810560000002
 20
1258.9288253
 30
0.0
 11
595.3800183999999
 21
1258.9288253
 31
0.0
  0
CIRCLE
  5
2E1
330
1F
100
AcDbEntity
  8
LAY-2
  6
EXLTYPE2
 62
     6
100
AcDbCircle
 10
566.3809949999998
 20
1886.3639137
 30
0.0
 40
6.000976600000003
  0
CIRCLE
  5
2E2
330
1F
100
AcDbEntity
  8
LAY-2
  6
EXLTYPE2
 62
     6
100
AcDbCircle
 10
566.3809949999998
 20
2026.3639137
 30
0.0
 40
6.000976600000003
  0
LINE
  5
2E3
330
1F
100
AcDbEntity
  8
LAY-2
  6
CONTINUOUS
 62
     6
100
AcDbLine
 10
542.3819715
 20
2008.3638832
 30
0.0
 11
542.3819715
 21
2038.3638832
 31
0.0
  0
LINE
  5
2E4
330
1F
100
AcDbEntity
  8
LAY-2
  6
CONTINUOUS
 62
     6
100
AcDbLine
 10
542.3819715
 20
2008.3638832
 30
0.0
 11
580.8805067000001
 21
2008.3638832
 31
0.0
  0
LINE
  5
2E5
330
1F
100
AcDbEntity
  8
LAY-2
  6
CONTINUOUS
 62
     6
100
AcDbLine
 10
580.8805067000001
 20
1987.3639747
 30
0.0
 11
580.8805067000001
 21
2018.3638832
 31
0.0
  0
LINE
  5
2E6
330
1F
100
AcDbEntity
  8
LAY-2
  6
CONTINUOUS
 62
     6
100
AcDbLine
 10
580.8805067000001
 20
1925.3638527
 30
0.0
 11
580.8805067000001
 21
1894.3639442
 31
0.0
  0
LINE
  5
2E7
330
1F
100
AcDbEntity
  8
LAY-2
  6
CONTINUOUS
 62
     6
100
AcDbLine
 10
542.3819715
 20
1904.3639442
 30
0.0
 11
580.8805067000001
 21
1904.3639442
 31
0.0
  0
LINE
  5
2E8
330
1F
100
AcDbEntity
  8
LAY-2
  6
CONTINUOUS
 62
     6
100
AcDbLine
 10
542.3819715
 20
1904.3639442
 30
0.0
 11
542.3819715
 21
1874.3639442
 31
0.0
  0
LINE
  5
2E9
330
1F
100
AcDbEntity
  8
LAY-2
  6
CONTINUOUS
 62
     6
100
AcDbLine
 10
542.3819715
 20
1874.3639442
 30
0.0
 11
585.8805067000001
 21
1874.3639442
 31
0.0
  0
LINE
  5
2EA
330
1F
100
AcDbEntity
  8
LAY-2
  6
CONTINUOUS
 62
     6
100
AcDbLine
 10
585.8805067000001
 20
1893.8639137
 30
0.0
 11
572.3819715
 21
1893.8639137
 31
0.0
  0
LINE
  5
2EB
330
1F
100
AcDbEntity
  8
LAY-2
  6
CONTINUOUS
 62
     6
100
AcDbLine
 10
580.8805067000001
 20
1894.3639442
 30
0.0
 11
585.8805067000001
 21
1894.3639442
 31
0.0
  0
LINE
  5
2EC
330
1F
100
AcDbEntity
  8
LAY-2
  6
CONTINUOUS
 62
     6
100
AcDbLine
 10
580.8805067000001
 20
1925.3638527
 30
0.0
 11
585.8805067000001
 21
1925.3638527
 31
0.0
  0
LINE
  5
2ED
330
1F
100
AcDbEntity
  8
LAY-2
  6
CONTINUOUS
 62
     6
100
AcDbLine
 10
585.8805067000001
 20
1987.3639747
 30
0.0
 11
580.8805067000001
 21
1987.3639747
 31
0.0
  0
LINE
  5
2EE
330
1F
100
AcDbEntity
  8
LAY-2
  6
CONTINUOUS
 62
     6
100
AcDbLine
 10
580.8805067000001
 20
2018.3638832
 30
0.0
 11
585.8805067000001
 21
2018.3638832
 31
0.0
  0
LINE
  5
2EF
330
1F
100
AcDbEntity
  8
LAY-2
  6
CONTINUOUS
 62
     6
100
AcDbLine
 10
585.8805067000001
 20
2018.8639137
 30
0.0
 11
572.3819715
 21
2018.8639137
 31
0.0
  0
LINE
  5
2F0
330
1F
100
AcDbEntity
  8
LAY-2
  6
CONTINUOUS
 62
     6
100
AcDbLine
 10
585.8805067000001
 20
2038.3638832
 30
0.0
 11
542.3819715
 21
2038.3638832
 31
0.0
  0
ARC
  5
2F1
330
1F
100
AcDbEntity
  8
LAY-2
  6
CONTINUOUS
 62
     6
100
AcDbCircle
 10
628.8809950000001
 20
2076.3634559
 30
0.0
 40
25.0000708
100
AcDbArc
 50
117.9848511599999
 51
172.5470792700005
  0
ARC
  5
2F2
330
1F
100
AcDbEntity
  8
LAY-2
  6
CONTINUOUS
 62
     6
100
AcDbCircle
 10
781.3809949999998
 20
1789.3639442
 30
0.0
 40
350.0
100
AcDbArc
 50
89.99997501999998
 51
117.98446393
  0
ARC
  5
2F3
330
1F
100
AcDbEntity
  8
LAY-2
  6
CONTINUOUS
 62
     6
100
AcDbCircle
 10
781.3809949999998
 20
1849.3639442
 30
0.0
 40
290.0003174
100
AcDbArc
 50
43.66090498999996
 51
89.99996984999994
  0
ARC
  5
2F4
330
1F
100
AcDbEntity
  8
LAY-2
  6
CONTINUOUS
 62
     6
100
AcDbCircle
 10
904.3643934000002
 20
1966.7301246
 30
0.0
 40
120.0005594
100
AcDbArc
 50
31.65396724
 51
43.6606443700001
  0
ARC
  5
2F5
330
1F
100
AcDbEntity
  8
LAY-2
  6
CONTINUOUS
 62
     6
100
AcDbCircle
 10
987.3819715
 20
2017.8638527
 30
0.0
 40
22.4994445
100
AcDbArc
 50
326.9088231300009
 51
31.75557441999899
  0
ARC
  5
2F6
330
1F
100
AcDbEntity
  8
LAY-2
  6
CONTINUOUS
 62
     6
100
AcDbCircle
 10
781.3809949999998
 20
1795.3638527
 30
0.0
 40
329.0000916
100
AcDbArc
 50
89.99997342999993
 51
123.6750472
  0
ARC
  5
2F7
330
1F
100
AcDbEntity
  8
LAY-2
  6
CONTINUOUS
 62
     6
100
AcDbCircle
 10
781.3809949999998
 20
1849.3639442
 30
0.0
 40
275.0009011000001
100
AcDbArc
 50
41.39599071999983
 51
89.99996820999988
  0
ARC
  5
2F8
330
1F
100
AcDbEntity
  8
LAY-2
  6
CONTINUOUS
 62
     6
100
AcDbCircle
 10
998.9273817000001
 20
2041.1298439
 30
0.0
 40
14.9993101
100
AcDbArc
 50
221.3925316899999
 51
270.0000000000002
  0
ARC
  5
2F9
330
1F
100
AcDbEntity
  8
LAY-2
  6
CONTINUOUS
 62
     6
100
AcDbCircle
 10
987.3819715
 20
1894.8639747
 30
0.0
 40
22.49893400000001
100
AcDbArc
 50
328.244390270001
 51
33.09144708999992
  0
ARC
  5
2FA
330
1F
100
AcDbEntity
  8
LAY-2
  6
CONTINUOUS
 62
     6
100
AcDbCircle
 10
904.3643934000002
 20
1945.9977028
 30
0.0
 40
120.0009934
100
AcDbArc
 50
316.3395370500003
 51
328.3462283300003
  0
LINE
  5
2FB
330
1F
100
AcDbEntity
  8
LAY-2
  6
CONTINUOUS
 62
     6
100
AcDbLine
 10
987.0108777999999
 20
1858.8733742
 30
0.0
 11
991.1783583000001
 21
1863.1510231
 31
0.0
  0
ARC
  5
2FC
330
1F
100
AcDbEntity
  8
LAY-2
  6
CONTINUOUS
 62
     6
100
AcDbCircle
 10
781.3809949999998
 20
2063.3638832
 30
0.0
 40
290.0000000000002
100
AcDbArc
 50
270.0000301500006
 51
315.1590476500002
  0
ARC
  5
2FD
330
1F
100
AcDbEntity
  8
LAY-2
  6
CONTINUOUS
 62
     6
100
AcDbCircle
 10
781.3809949999998
 20
2123.3638832
 30
0.0
 40
350.0000361
100
AcDbArc
 50
242.0155360700003
 51
270.0000249800005
  0
ARC
  5
2FE
330
1F
100
AcDbEntity
  8
LAY-2
  6
CONTINUOUS
 62
     6
100
AcDbCircle
 10
628.8809950000001
 20
1836.3643715
 30
0.0
 40
25.00121440000001
100
AcDbArc
 50
187.4522064599998
 51
242.0151551200001
  0
ARC
  5
2FF
330
1F
100
AcDbEntity
  8
LAY-2
  6
CONTINUOUS
 62
     6
100
AcDbCircle
 10
998.9273817000001
 20
1871.5979835
 30
0.0
 40
15.0
100
AcDbArc
 50
90.00000000000004
 51
138.6079713799992
  0
ARC
  5
300
330
1F
100
AcDbEntity
  8
LAY-2
  6
CONTINUOUS
 62
     6
100
AcDbCircle
 10
781.3809949999998
 20
2063.3638832
 30
0.0
 40
275.0000000000002
100
AcDbArc
 50
270.0000317900001
 51
318.6040205900003
  0
ARC
  5
301
330
1F
100
AcDbEntity
  8
LAY-2
  6
CONTINUOUS
 62
     6
100
AcDbCircle
 10
781.3809949999998
 20
2117.3639747
 30
0.0
 40
328.9997093000001
100
AcDbArc
 50
236.3249454400002
 51
270.0000265700001
  0
ARC
  5
302
330
1F
100
AcDbEntity
  8
LAY-2
  6
CONTINUOUS
 62
     6
100
AcDbCircle
 10
612.8800183999999
 20
1864.3346474
 30
0.0
 40
25.0
100
AcDbArc
 50
180.0000218600003
 51
236.154843830001
  0
LINE
  5
303
330
1F
100
AcDbEntity
  8
LAY-2
  6
CONTINUOUS
 62
     6
100
AcDbLine
 10
587.8800183999999
 20
2048.3931801
 30
0.0
 11
587.8800183999999
 21
1864.3346474
 31
0.0
  0
ARC
  5
304
330
1F
100
AcDbEntity
  8
LAY-2
  6
CONTINUOUS
 62
     6
100
AcDbCircle
 10
612.8800183999999
 20
2048.3931801
 30
0.0
 40
24.9991809
100
AcDbArc
 50
123.8452582499993
 51
180.0000218600001
  0
LINE
  5
305
330
1F
100
AcDbEntity
  8
LAY-2
  6
CONTINUOUS
 62
     6
100
AcDbLine
 10
580.8805067000001
 20
1986.8639442
 30
0.0
 11
580.8805067000001
 21
1925.8638832
 31
0.0
  0
LINE
  5
306
330
1F
100
AcDbEntity
  8
LAY-2
  6
CONTINUOUS
 62
     6
100
AcDbLine
 10
585.8805067000001
 20
1986.8639442
 30
0.0
 11
580.8805067000001
 21
1986.8639442
 31
0.0
  0
LINE
  5
307
330
1F
100
AcDbEntity
  8
LAY-2
  6
CONTINUOUS
 62
     6
100
AcDbLine
 10
585.8805067000001
 20
2051.5567848
 30
0.0
 11
585.8805067000001
 21
1986.8639442
 31
0.0
  0
ARC
  5
308
330
1F
100
AcDbEntity
  8
LAY-2
  6
CONTINUOUS
 62
     6
100
AcDbCircle
 10
615.8805067000001
 20
2051.5567848
 30
0.0
 40
29.9992356
100
AcDbArc
 50
122.9813764299994
 51
180.0000182099995
  0
ARC
  5
309
330
1F
100
AcDbEntity
  8
LAY-2
  6
CONTINUOUS
 62
     6
100
AcDbCircle
 10
781.3809949999998
 20
1795.3638527
 30
0.0
 40
335.0
100
AcDbArc
 50
89.9999738999999
 51
122.8731374
  0
ARC
  5
30A
330
1F
100
AcDbEntity
  8
LAY-2
  6
CONTINUOUS
 62
     6
100
AcDbCircle
 10
781.3809949999998
 20
1849.3639442
 30
0.0
 40
281.0002219
100
AcDbArc
 50
38.98077883999989
 51
89.99996888999993
  0
ARC
  5
30B
330
1F
100
AcDbEntity
  8
LAY-2
  6
CONTINUOUS
 62
     6
100
AcDbCircle
 10
812.3819715
 20
1956.3639137
 30
0.0
 40
199.999345
100
AcDbArc
 50
339.5841762900004
 51
20.41582371
  0
ARC
  5
30C
330
1F
100
AcDbEntity
  8
LAY-2
  6
CONTINUOUS
 62
     6
100
AcDbCircle
 10
781.3809949999998
 20
2063.3638832
 30
0.0
 40
280.9999084000003
100
AcDbArc
 50
270.0000311100001
 51
321.0192937200001
  0
ARC
  5
30D
330
1F
100
AcDbEntity
  8
LAY-2
  6
CONTINUOUS
 62
     6
100
AcDbCircle
 10
781.3809949999998
 20
2117.3639747
 30
0.0
 40
334.9998959
100
AcDbArc
 50
237.1269206100001
 51
270.0000261000002
  0
ARC
  5
30E
330
1F
100
AcDbEntity
  8
LAY-2
  6
CONTINUOUS
 62
     6
100
AcDbCircle
 10
615.8805067000001
 20
1861.1710426
 30
0.0
 40
30.00000000000002
100
AcDbArc
 50
180.0000182100002
 51
237.01860033
  0
LINE
  5
30F
330
1F
100
AcDbEntity
  8
LAY-2
  6
CONTINUOUS
 62
     6
100
AcDbLine
 10
585.8805067000001
 20
1925.8638832
 30
0.0
 11
585.8805067000001
 21
1861.1710426
 31
0.0
  0
LINE
  5
310
330
1F
100
AcDbEntity
  8
LAY-2
  6
CONTINUOUS
 62
     6
100
AcDbLine
 10
580.8805067000001
 20
1925.8638832
 30
0.0
 11
585.8805067000001
 21
1925.8638832
 31
0.0
  0
LINE
  5
311
330
1F
100
AcDbEntity
  8
LAY-2
  6
CONTINUOUS
 62
     6
100
AcDbLine
 10
580.8805067000001
 20
1956.3639137
 30
0.0
 11
580.8805067000001
 21
1925.8638832
 31
0.0
  0
LINE
  5
312
330
1F
100
AcDbEntity
  8
LAY-2
  6
CONTINUOUS
 62
     6
100
AcDbLine
 10
540.3800183999999
 20
2026.3639137
 30
0.0
 11
592.3819716
 21
2026.3639137
 31
0.0
  0
LINE
  5
313
330
1F
100
AcDbEntity
  8
LAY-2
  6
CONTINUOUS
 62
     6
100
AcDbLine
 10
540.3800183999999
 20
1886.3639137
 30
0.0
 11
592.3819716
 21
1886.3639137
 31
0.0
  0
LINE
  5
314
330
1F
100
AcDbEntity
  8
LAY-2
  6
CONTINUOUS
 62
     6
100
AcDbLine
 10
566.3809950000001
 20
1860.3629371
 30
0.0
 11
566.3809950000001
 21
1912.3648903
 31
0.0
  0
LINE
  5
315
330
1F
100
AcDbEntity
  8
LAY-2
  6
CONTINUOUS
 62
     6
100
AcDbLine
 10
566.3809950000001
 20
2000.3629371
 30
0.0
 11
566.3809950000001
 21
2052.3648903
 31
0.0
  0
ARC
  5
316
330
1F
100
AcDbEntity
  8
LAY-2
  6
EXLTYPE2
 62
     6
100
AcDbCircle
 10
987.3819715000004
 20
1894.8641274
 30
0.0
 40
22.49893190000001
100
AcDbArc
 50
33.09263442217128
 51
77.08999633999983
  0
ARC
  5
317
330
1F
100
AcDbEntity
  8
LAY-2
  6
EXLTYPE2
 62
     6
100
AcDbCircle
 10
965.3067762000003
 20
1799.895560499999
 30
0.0
 40
120.0002766
100
AcDbArc
 50
76.94709778000026
 51
91.79211425999999
  0
ARC
  5
318
330
1F
100
AcDbEntity
  8
LAY-2
  6
EXLTYPE2
 62
     6
100
AcDbCircle
 10
963.3609753999999
 20
1859.8641274
 30
0.0
 40
59.99988560000003
100
AcDbArc
 50
91.72549437999997
 51
131.72909546
  0
ARC
  5
319
330
1F
100
AcDbEntity
  8
LAY-2
  6
EXLTYPE2
 62
     6
100
AcDbCircle
 10
781.3809949999998
 20
2063.363883199999
 30
0.0
 40
213.0001831000001
100
AcDbArc
 50
258.2174530000001
 51
311.8259582500007
  0
ARC
  5
31A
330
1F
100
AcDbEntity
  8
LAY-2
  6
EXLTYPE2
 62
     6
100
AcDbCircle
 10
754.3082411000003
 20
1933.1485817
 30
0.0
 40
80.00118260000002
100
AcDbArc
 50
215.4768676800001
 51
258.1551055900002
  0
ARC
  5
31B
330
1F
100
AcDbEntity
  8
LAY-2
  6
EXLTYPE2
 62
     6
100
AcDbCircle
 10
786.8814832
 20
1956.3639137
 30
0.0
 40
120.0007820000001
100
AcDbArc
 50
144.52275085
 51
215.4773407
  0
ARC
  5
31C
330
1F
100
AcDbEntity
  8
LAY-2
  6
EXLTYPE2
 62
     6
100
AcDbCircle
 10
754.3082411000003
 20
1979.5792458
 30
0.0
 40
80.00022890000001
100
AcDbArc
 50
101.8447876000001
 51
144.5231323200003
  0
ARC
  5
31D
330
1F
100
AcDbEntity
  8
LAY-2
  6
EXLTYPE2
 62
     6
100
AcDbCircle
 10
781.3809949999998
 20
1849.3639442
 30
0.0
 40
213.0000305
100
AcDbArc
 50
48.17399596999986
 51
101.7825469999998
  0
ARC
  5
31E
330
1F
100
AcDbEntity
  8
LAY-2
  6
EXLTYPE2
 62
     6
100
AcDbCircle
 10
963.3609753999999
 20
2052.864005299999
 30
0.0
 40
59.99995230000003
100
AcDbArc
 50
228.2709045400007
 51
268.2745056200003
  0
ARC
  5
31F
330
1F
100
AcDbEntity
  8
LAY-2
  6
EXLTYPE2
 62
     6
100
AcDbCircle
 10
965.3067762000003
 20
2112.833792899999
 30
0.0
 40
120.001173
100
AcDbArc
 50
268.2078857400002
 51
283.0527954100002
  0
ARC
  5
320
330
1F
100
AcDbEntity
  8
LAY-2
  6
EXLTYPE2
 62
     6
100
AcDbCircle
 10
987.3819715000004
 20
2017.864005299999
 30
0.0
 40
22.49988560000001
100
AcDbArc
 50
282.9098510699984
 51
326.9048674176312
  0
LINE
  5
321
330
1F
100
AcDbEntity
  8
LAY-2
  6
EXLTYPE3
 62
     6
100
AcDbLine
 10
1032.3813165
 20
1956.3639137
 30
0.0
 11
566.3809950000001
 21
1956.3639137
 31
0.0
  0
LINE
  5
322
330
1F
100
AcDbEntity
  8
LAY-2
  6
CONTINUOUS
 62
     6
100
AcDbLine
 10
1470.4995117
 20
1299.9298019
 30
0.0
 11
1470.4995117
 21
1292.9278488
 31
0.0
  0
LINE
  5
323
330
1F
100
AcDbEntity
  8
LAY-2
  6
CONTINUOUS
 62
     6
100
AcDbLine
 10
1531.5004883
 20
1299.9298019
 30
0.0
 11
1531.5004883
 21
1292.9278488
 31
0.0
  0
ARC
  5
324
330
1F
100
AcDbEntity
  8
LAY-2
  6
CONTINUOUS
 62
     6
100
AcDbCircle
 10
1501.0
 20
26.92916099999991
 30
0.0
 40
1299.9996948
100
AcDbArc
 50
85.14453124999994
 51
94.85546874999994
  0
ARC
  5
325
330
1F
100
AcDbEntity
  8
LAY-2
  6
CONTINUOUS
 62
     6
100
AcDbCircle
 10
1407.8945313
 20
1122.9791183
 30
0.0
 40
200.0
100
AcDbArc
 50
94.85569763
 51
111.8932495100001
  0
ARC
  5
326
330
1F
100
AcDbEntity
  8
LAY-2
  6
CONTINUOUS
 62
     6
100
AcDbCircle
 10
1354.2470703
 20
1287.0611495
 30
0.0
 40
29.9994278
100
AcDbArc
 50
134.2416229199989
 51
154.5986480699991
  0
ARC
  5
327
330
1F
100
AcDbEntity
  8
LAY-2
  6
CONTINUOUS
 62
     6
100
AcDbCircle
 10
1376.0
 20
1301.4288253
 30
0.0
 40
9.0002239
100
AcDbArc
 50
189.587493900003
 51
350.4124755899983
  0
ARC
  5
328
330
1F
100
AcDbEntity
  8
LAY-2
  6
CONTINUOUS
 62
     6
100
AcDbCircle
 10
1626.0
 20
1301.4288253
 30
0.0
 40
9.0002239
100
AcDbArc
 50
189.5874939000032
 51
250.8081207300041
  0
ARC
  5
329
330
1F
100
AcDbEntity
  8
LAY-2
  6
CONTINUOUS
 62
     6
100
AcDbCircle
 10
1626.0
 20
1301.4288253
 30
0.0
 40
9.001232400000003
100
AcDbArc
 50
289.19181824
 51
350.4126586900001
  0
ARC
  5
32A
330
1F
100
AcDbEntity
  8
LAY-2
  6
CONTINUOUS
 62
     6
100
AcDbCircle
 10
1423.2338867
 20
1299.8907394
 30
0.0
 40
8.000583600000002
100
AcDbArc
 50
0.2797451000028196
 51
89.99996947999934
  0
ARC
  5
32B
330
1F
100
AcDbEntity
  8
LAY-2
  6
CONTINUOUS
 62
     6
100
AcDbCircle
 10
1578.7661133
 20
1299.8907394
 30
0.0
 40
7.998046900000003
100
AcDbArc
 50
89.99996947999887
 51
179.7201843299994
  0
ARC
  5
32C
330
1F
100
AcDbEntity
  8
LAY-2
  6
CONTINUOUS
 62
     6
100
AcDbCircle
 10
1328.9785156
 20
1285.928337
 30
0.0
 40
6.999511700000003
100
AcDbArc
 50
89.99996947999766
 51
148.549774169998
  0
ARC
  5
32D
330
1F
100
AcDbEntity
  8
LAY-2
  6
CONTINUOUS
 62
     6
100
AcDbCircle
 10
1352.862793
 20
1271.3165206
 30
0.0
 40
34.99939920000001
100
AcDbArc
 50
148.5440979000006
 51
178.99679565
  0
ARC
  5
32E
330
1F
100
AcDbEntity
  8
LAY-2
  6
CONTINUOUS
 62
     6
100
AcDbCircle
 10
1648.8808594
 20
1271.2261886
 30
0.0
 40
34.9997425
100
AcDbArc
 50
1.151117320000277
 51
31.67665099999981
  0
ARC
  5
32F
330
1F
100
AcDbEntity
  8
LAY-2
  6
CONTINUOUS
 62
     6
100
AcDbCircle
 10
1672.7089844
 20
1285.928337
 30
0.0
 40
7.000340800000001
100
AcDbArc
 50
31.68342589999968
 51
89.99996948000208
  0
ARC
  5
330
330
1F
100
AcDbEntity
  8
LAY-2
  6
CONTINUOUS
 62
     6
100
AcDbCircle
 10
1548.7905273
 20
1285.928337
 30
0.0
 40
6.999511700000003
100
AcDbArc
 50
89.99996947999766
 51
148.3165130599989
  0
ARC
  5
331
330
1F
100
AcDbEntity
  8
LAY-2
  6
CONTINUOUS
 62
     6
100
AcDbCircle
 10
1572.6186523
 20
1271.2261886
 30
0.0
 40
34.99914170000001
100
AcDbArc
 50
148.3233947800002
 51
178.8488769499999
  0
ARC
  5
332
330
1F
100
AcDbEntity
  8
LAY-2
  6
CONTINUOUS
 62
     6
100
AcDbCircle
 10
1453.2070313
 20
1285.928337
 30
0.0
 40
7.000340800000001
100
AcDbArc
 50
31.6834259000061
 51
89.99996948000208
  0
ARC
  5
333
330
1F
100
AcDbEntity
  8
LAY-2
  6
CONTINUOUS
 62
     6
100
AcDbCircle
 10
1429.3789063
 20
1271.2261886
 30
0.0
 40
34.9997425
100
AcDbArc
 50
1.151117320000277
 51
31.67665099999981
  0
LINE
  5
334
330
1F
100
AcDbEntity
  8
LAY-2
  6
CONTINUOUS
 62
     6
100
AcDbLine
 10
1672.7089844
 20
1292.9278488
 30
0.0
 11
1328.9785156
 21
1292.9278488
 31
0.0
  0
LINE
  5
335
330
1F
100
AcDbEntity
  8
LAY-2
  6
CONTINUOUS
 62
     6
100
AcDbLine
 10
1332.6577148
 20
1307.8887863
 30
0.0
 11
1423.2338867
 21
1307.8887863
 31
0.0
  0
ARC
  5
336
330
1F
100
AcDbEntity
  8
LAY-2
  6
CONTINUOUS
 62
     6
100
AcDbCircle
 10
1594.1054688
 20
1122.9791183
 30
0.0
 40
200.0007629000001
100
AcDbArc
 50
67.60029602000009
 51
85.14442443999994
  0
LINE
  5
337
330
1F
100
AcDbEntity
  8
LAY-2
  6
CONTINUOUS
 62
     6
100
AcDbLine
 10
1327.1474609
 20
1299.9298019
 30
0.0
 11
1675.6281433
 21
1299.9298019
 31
0.0
  0
ARC
  5
338
330
1F
100
AcDbEntity
  8
LAY-2
  6
CONTINUOUS
 62
     6
100
AcDbCircle
 10
1648.3364258
 20
1287.4761886
 30
0.0
 40
29.99883650000001
100
AcDbArc
 50
24.52790833000047
 51
42.88003539999951
  0
LINE
  5
339
330
1F
100
AcDbEntity
  8
LAY-2
  6
CONTINUOUS
 62
     6
100
AcDbLine
 10
1670.3196106
 20
1307.8887863
 30
0.0
 11
1578.7661133
 21
1307.8887863
 31
0.0
  0
ARC
  5
33A
330
1F
100
AcDbEntity
  8
LAY-2
  6
CONTINUOUS
 62
     6
100
AcDbCircle
 10
1430.8706055
 20
1227.9288253
 30
0.0
 40
12.5
100
AcDbArc
 50
0.0
 51
61.3145979858807
  0
ARC
  5
33B
330
1F
100
AcDbEntity
  8
LAY-2
  6
CONTINUOUS
 62
     6
100
AcDbCircle
 10
1430.8706055
 20
1227.9288253
 30
0.0
 40
12.5
100
AcDbArc
 50
118.6854020140989
 51
180.0
  0
LINE
  5
33C
330
1F
100
AcDbEntity
  8
LAY-2
  6
CONTINUOUS
 62
     6
100
AcDbLine
 10
1424.8706055
 20
1238.9288253
 30
0.0
 11
1436.8706055
 21
1238.9288253
 31
0.0
  0
LINE
  5
33D
330
1F
100
AcDbEntity
  8
LAY-2
  6
CONTINUOUS
 62
     6
100
AcDbLine
 10
1418.3706055
 20
1227.9288253
 30
0.0
 11
1443.3706055
 21
1227.9288253
 31
0.0
  0
LINE
  5
33E
330
1F
100
AcDbEntity
  8
LAY-2
  6
CONTINUOUS
 62
     6
100
AcDbLine
 10
1418.3706055
 20
1227.4288253
 30
0.0
 11
1443.3706055
 21
1227.4288253
 31
0.0
  0
LINE
  5
33F
330
1F
100
AcDbEntity
  8
LAY-2
  6
CONTINUOUS
 62
     6
100
AcDbLine
 10
1418.3706055
 20
1225.4288253
 30
0.0
 11
1443.3706055
 21
1225.4288253
 31
0.0
  0
LINE
  5
340
330
1F
100
AcDbEntity
  8
LAY-2
  6
CONTINUOUS
 62
     6
100
AcDbLine
 10
1424.8706055
 20
1243.9288253
 30
0.0
 11
1436.8706055
 21
1243.9288253
 31
0.0
  0
LINE
  5
341
330
1F
100
AcDbEntity
  8
LAY-2
  6
CONTINUOUS
 62
     6
100
AcDbLine
 10
1425.8706055
 20
1243.9288253
 30
0.0
 11
1424.8706055
 21
1245.6608761076
 31
0.0
  0
LINE
  5
342
330
1F
100
AcDbEntity
  8
LAY-2
  6
CONTINUOUS
 62
     6
100
AcDbLine
 10
1435.8706055
 20
1243.9288253
 30
0.0
 11
1436.8706055
 21
1245.6608761076
 31
0.0
  0
LINE
  5
343
330
1F
100
AcDbEntity
  8
LAY-2
  6
CONTINUOUS
 62
     6
100
AcDbLine
 10
1425.8706055
 20
1193.9288253
 30
0.0
 11
1435.8706055
 21
1193.9288253
 31
0.0
  0
LINE
  5
344
330
1F
100
AcDbEntity
  8
LAY-2
  6
CONTINUOUS
 62
     6
100
AcDbLine
 10
1425.8706055
 20
1194.9288253
 30
0.0
 11
1435.8706055
 21
1194.9288253
 31
0.0
  0
LINE
  5
345
330
1F
100
AcDbEntity
  8
LAY-2
  6
CONTINUOUS
 62
     6
100
AcDbLine
 10
1436.8706055
 20
1195.5061755692
 30
0.0
 11
1424.8706055
 21
1195.5061755692
 31
0.0
  0
LINE
  5
346
330
1F
100
AcDbEntity
  8
LAY-2
  6
CONTINUOUS
 62
     6
100
AcDbLine
 10
1425.8706055
 20
1194.9288253
 30
0.0
 11
1424.8706055
 21
1195.5061755692
 31
0.0
  0
LINE
  5
347
330
1F
100
AcDbEntity
  8
LAY-2
  6
CONTINUOUS
 62
     6
100
AcDbLine
 10
1435.8706055
 20
1194.9288253
 30
0.0
 11
1436.8706055
 21
1195.5061755692
 31
0.0
  0
LINE
  5
348
330
1F
100
AcDbEntity
  8
LAY-2
  6
CONTINUOUS
 62
     6
100
AcDbLine
 10
1424.8706055
 20
1195.5061755692
 30
0.0
 11
1424.8706055
 21
1215.4288253
 31
0.0
  0
LINE
  5
349
330
1F
100
AcDbEntity
  8
LAY-2
  6
CONTINUOUS
 62
     6
100
AcDbLine
 10
1424.8706055
 20
1238.9288253
 30
0.0
 11
1424.8706055
 21
1258.9288253
 31
0.0
  0
LINE
  5
34A
330
1F
100
AcDbEntity
  8
LAY-2
  6
CONTINUOUS
 62
     6
100
AcDbLine
 10
1425.8706055
 20
1193.9288253
 30
0.0
 11
1425.8706055
 21
1215.4288253
 31
0.0
  0
LINE
  5
34B
330
1F
100
AcDbEntity
  8
LAY-2
  6
CONTINUOUS
 62
     6
100
AcDbLine
 10
1425.8706055
 20
1238.9288253
 30
0.0
 11
1425.8706055
 21
1243.9288253
 31
0.0
  0
LINE
  5
34C
330
1F
100
AcDbEntity
  8
LAY-2
  6
CONTINUOUS
 62
     6
100
AcDbLine
 10
1435.8706055
 20
1243.9288253
 30
0.0
 11
1435.8706055
 21
1238.9288253
 31
0.0
  0
LINE
  5
34D
330
1F
100
AcDbEntity
  8
LAY-2
  6
CONTINUOUS
 62
     6
100
AcDbLine
 10
1435.8706055
 20
1215.4288253
 30
0.0
 11
1435.8706055
 21
1193.9288253
 31
0.0
  0
LINE
  5
34E
330
1F
100
AcDbEntity
  8
LAY-2
  6
CONTINUOUS
 62
     6
100
AcDbLine
 10
1436.8706055
 20
1258.9288253
 30
0.0
 11
1436.8706055
 21
1238.9288253
 31
0.0
  0
LINE
  5
34F
330
1F
100
AcDbEntity
  8
LAY-2
  6
CONTINUOUS
 62
     6
100
AcDbLine
 10
1436.8706055
 20
1215.4288253
 30
0.0
 11
1436.8706055
 21
1195.5061755692
 31
0.0
  0
LINE
  5
350
330
1F
100
AcDbEntity
  8
LAY-2
  6
CONTINUOUS
 62
     6
100
AcDbLine
 10
1421.6429935597
 20
1217.9288253
 30
0.0
 11
1422.3706055
 21
1215.4288253
 31
0.0
  0
LINE
  5
351
330
1F
100
AcDbEntity
  8
LAY-2
  6
CONTINUOUS
 62
     6
100
AcDbLine
 10
1440.0982174403
 20
1217.9288253
 30
0.0
 11
1439.3706055
 21
1215.4288253
 31
0.0
  0
LINE
  5
352
330
1F
100
AcDbEntity
  8
LAY-2
  6
CONTINUOUS
 62
     6
100
AcDbLine
 10
1422.3706055
 20
1215.4288253
 30
0.0
 11
1439.3706055
 21
1215.4288253
 31
0.0
  0
ARC
  5
353
330
1F
100
AcDbEntity
  8
LAY-2
  6
CONTINUOUS
 62
     6
100
AcDbCircle
 10
1430.8706055
 20
1223.8490608759
 30
0.0
 40
8.420235575852002
100
AcDbArc
 50
224.6759428469028
 51
315.3240571531028
  0
LINE
  5
354
330
1F
100
AcDbEntity
  8
LAY-2
  6
CONTINUOUS
 62
     6
100
AcDbLine
 10
1421.6429935597
 20
1217.9288253
 30
0.0
 11
1424.883020187101
 21
1217.9288253
 31
0.0
  0
LINE
  5
355
330
1F
100
AcDbEntity
  8
LAY-2
  6
CONTINUOUS
 62
     6
100
AcDbLine
 10
1436.8581908129
 20
1217.9288253
 30
0.0
 11
1440.0982174403
 21
1217.9288253
 31
0.0
  0
LINE
  5
356
330
1F
100
AcDbEntity
  8
LAY-2
  6
CONTINUOUS
 62
     6
100
AcDbLine
 10
1421.6429935597
 20
1217.9288253
 30
0.0
 11
1421.6429935597
 21
1225.4288253
 31
0.0
  0
LINE
  5
357
330
1F
100
AcDbEntity
  8
LAY-2
  6
CONTINUOUS
 62
     6
100
AcDbLine
 10
1424.883020187101
 20
1217.9288253
 30
0.0
 11
1424.883020187101
 21
1225.4288253
 31
0.0
  0
LINE
  5
358
330
1F
100
AcDbEntity
  8
LAY-2
  6
CONTINUOUS
 62
     6
100
AcDbLine
 10
1436.8581908129
 20
1217.9288253
 30
0.0
 11
1436.8581908129
 21
1225.4288253
 31
0.0
  0
LINE
  5
359
330
1F
100
AcDbEntity
  8
LAY-2
  6
CONTINUOUS
 62
     6
100
AcDbLine
 10
1440.0982174403
 20
1217.9288253
 30
0.0
 11
1440.0982174403
 21
1225.4288253
 31
0.0
  0
LINE
  5
35A
330
1F
100
AcDbEntity
  8
LAY-2
  6
CONTINUOUS
 62
     6
100
AcDbLine
 10
1418.3706055
 20
1225.4288253
 30
0.0
 11
1418.3706055
 21
1227.9288253
 31
0.0
  0
LINE
  5
35B
330
1F
100
AcDbEntity
  8
LAY-2
  6
CONTINUOUS
 62
     6
100
AcDbLine
 10
1443.3706055
 20
1225.4288253
 30
0.0
 11
1443.3706055
 21
1227.9288253
 31
0.0
  0
ARC
  5
35C
330
1F
100
AcDbEntity
  8
LAY-2
  6
CONTINUOUS
 62
     6
100
AcDbCircle
 10
1570.8706055
 20
1227.9288253
 30
0.0
 40
12.5
100
AcDbArc
 50
0.0
 51
61.3145979858807
  0
ARC
  5
35D
330
1F
100
AcDbEntity
  8
LAY-2
  6
CONTINUOUS
 62
     6
100
AcDbCircle
 10
1570.8706055
 20
1227.9288253
 30
0.0
 40
12.5
100
AcDbArc
 50
118.6854020140989
 51
180.0
  0
LINE
  5
35E
330
1F
100
AcDbEntity
  8
LAY-2
  6
CONTINUOUS
 62
     6
100
AcDbLine
 10
1564.8706055
 20
1238.9288253
 30
0.0
 11
1576.8706055
 21
1238.9288253
 31
0.0
  0
LINE
  5
35F
330
1F
100
AcDbEntity
  8
LAY-2
  6
CONTINUOUS
 62
     6
100
AcDbLine
 10
1558.3706055
 20
1227.9288253
 30
0.0
 11
1583.3706055
 21
1227.9288253
 31
0.0
  0
LINE
  5
360
330
1F
100
AcDbEntity
  8
LAY-2
  6
CONTINUOUS
 62
     6
100
AcDbLine
 10
1558.3706055
 20
1227.4288253
 30
0.0
 11
1583.3706055
 21
1227.4288253
 31
0.0
  0
LINE
  5
361
330
1F
100
AcDbEntity
  8
LAY-2
  6
CONTINUOUS
 62
     6
100
AcDbLine
 10
1558.3706055
 20
1225.4288253
 30
0.0
 11
1583.3706055
 21
1225.4288253
 31
0.0
  0
LINE
  5
362
330
1F
100
AcDbEntity
  8
LAY-2
  6
CONTINUOUS
 62
     6
100
AcDbLine
 10
1564.8706055
 20
1243.9288253
 30
0.0
 11
1576.8706055
 21
1243.9288253
 31
0.0
  0
LINE
  5
363
330
1F
100
AcDbEntity
  8
LAY-2
  6
CONTINUOUS
 62
     6
100
AcDbLine
 10
1565.8706055
 20
1243.9288253
 30
0.0
 11
1564.8706055
 21
1245.6608761076
 31
0.0
  0
LINE
  5
364
330
1F
100
AcDbEntity
  8
LAY-2
  6
CONTINUOUS
 62
     6
100
AcDbLine
 10
1575.8706055
 20
1243.9288253
 30
0.0
 11
1576.8706055
 21
1245.6608761076
 31
0.0
  0
LINE
  5
365
330
1F
100
AcDbEntity
  8
LAY-2
  6
CONTINUOUS
 62
     6
100
AcDbLine
 10
1565.8706055
 20
1193.9288253
 30
0.0
 11
1575.8706055
 21
1193.9288253
 31
0.0
  0
LINE
  5
366
330
1F
100
AcDbEntity
  8
LAY-2
  6
CONTINUOUS
 62
     6
100
AcDbLine
 10
1565.8706055
 20
1194.9288253
 30
0.0
 11
1575.8706055
 21
1194.9288253
 31
0.0
  0
LINE
  5
367
330
1F
100
AcDbEntity
  8
LAY-2
  6
CONTINUOUS
 62
     6
100
AcDbLine
 10
1576.8706055
 20
1195.5061755692
 30
0.0
 11
1564.8706055
 21
1195.5061755692
 31
0.0
  0
LINE
  5
368
330
1F
100
AcDbEntity
  8
LAY-2
  6
CONTINUOUS
 62
     6
100
AcDbLine
 10
1565.8706055
 20
1194.9288253
 30
0.0
 11
1564.8706055
 21
1195.5061755692
 31
0.0
  0
LINE
  5
369
330
1F
100
AcDbEntity
  8
LAY-2
  6
CONTINUOUS
 62
     6
100
AcDbLine
 10
1575.8706055
 20
1194.9288253
 30
0.0
 11
1576.8706055
 21
1195.5061755692
 31
0.0
  0
LINE
  5
36A
330
1F
100
AcDbEntity
  8
LAY-2
  6
CONTINUOUS
 62
     6
100
AcDbLine
 10
1564.8706055
 20
1195.5061755692
 30
0.0
 11
1564.8706055
 21
1215.4288253
 31
0.0
  0
LINE
  5
36B
330
1F
100
AcDbEntity
  8
LAY-2
  6
CONTINUOUS
 62
     6
100
AcDbLine
 10
1564.8706055
 20
1238.9288253
 30
0.0
 11
1564.8706055
 21
1258.9288253
 31
0.0
  0
LINE
  5
36C
330
1F
100
AcDbEntity
  8
LAY-2
  6
CONTINUOUS
 62
     6
100
AcDbLine
 10
1565.8706055
 20
1193.9288253
 30
0.0
 11
1565.8706055
 21
1215.4288253
 31
0.0
  0
LINE
  5
36D
330
1F
100
AcDbEntity
  8
LAY-2
  6
CONTINUOUS
 62
     6
100
AcDbLine
 10
1565.8706055
 20
1238.9288253
 30
0.0
 11
1565.8706055
 21
1243.9288253
 31
0.0
  0
LINE
  5
36E
330
1F
100
AcDbEntity
  8
LAY-2
  6
CONTINUOUS
 62
     6
100
AcDbLine
 10
1575.8706055
 20
1243.9288253
 30
0.0
 11
1575.8706055
 21
1238.9288253
 31
0.0
  0
LINE
  5
36F
330
1F
100
AcDbEntity
  8
LAY-2
  6
CONTINUOUS
 62
     6
100
AcDbLine
 10
1575.8706055
 20
1215.4288253
 30
0.0
 11
1575.8706055
 21
1193.9288253
 31
0.0
  0
LINE
  5
370
330
1F
100
AcDbEntity
  8
LAY-2
  6
CONTINUOUS
 62
     6
100
AcDbLine
 10
1576.8706055
 20
1258.9288253
 30
0.0
 11
1576.8706055
 21
1238.9288253
 31
0.0
  0
LINE
  5
371
330
1F
100
AcDbEntity
  8
LAY-2
  6
CONTINUOUS
 62
     6
100
AcDbLine
 10
1576.8706055
 20
1215.4288253
 30
0.0
 11
1576.8706055
 21
1195.5061755692
 31
0.0
  0
LINE
  5
372
330
1F
100
AcDbEntity
  8
LAY-2
  6
CONTINUOUS
 62
     6
100
AcDbLine
 10
1561.6429935597
 20
1217.9288253
 30
0.0
 11
1562.3706055
 21
1215.4288253
 31
0.0
  0
LINE
  5
373
330
1F
100
AcDbEntity
  8
LAY-2
  6
CONTINUOUS
 62
     6
100
AcDbLine
 10
1580.0982174403
 20
1217.9288253
 30
0.0
 11
1579.3706055
 21
1215.4288253
 31
0.0
  0
LINE
  5
374
330
1F
100
AcDbEntity
  8
LAY-2
  6
CONTINUOUS
 62
     6
100
AcDbLine
 10
1562.3706055
 20
1215.4288253
 30
0.0
 11
1579.3706055
 21
1215.4288253
 31
0.0
  0
ARC
  5
375
330
1F
100
AcDbEntity
  8
LAY-2
  6
CONTINUOUS
 62
     6
100
AcDbCircle
 10
1570.8706055
 20
1223.8490608759
 30
0.0
 40
8.420235575852002
100
AcDbArc
 50
224.6759428469028
 51
315.3240571531028
  0
LINE
  5
376
330
1F
100
AcDbEntity
  8
LAY-2
  6
CONTINUOUS
 62
     6
100
AcDbLine
 10
1561.6429935597
 20
1217.9288253
 30
0.0
 11
1564.883020187101
 21
1217.9288253
 31
0.0
  0
LINE
  5
377
330
1F
100
AcDbEntity
  8
LAY-2
  6
CONTINUOUS
 62
     6
100
AcDbLine
 10
1576.8581908129
 20
1217.9288253
 30
0.0
 11
1580.0982174403
 21
1217.9288253
 31
0.0
  0
LINE
  5
378
330
1F
100
AcDbEntity
  8
LAY-2
  6
CONTINUOUS
 62
     6
100
AcDbLine
 10
1561.6429935597
 20
1217.9288253
 30
0.0
 11
1561.6429935597
 21
1225.4288253
 31
0.0
  0
LINE
  5
379
330
1F
100
AcDbEntity
  8
LAY-2
  6
CONTINUOUS
 62
     6
100
AcDbLine
 10
1564.883020187101
 20
1217.9288253
 30
0.0
 11
1564.883020187101
 21
1225.4288253
 31
0.0
  0
LINE
  5
37A
330
1F
100
AcDbEntity
  8
LAY-2
  6
CONTINUOUS
 62
     6
100
AcDbLine
 10
1576.8581908129
 20
1217.9288253
 30
0.0
 11
1576.8581908129
 21
1225.4288253
 31
0.0
  0
LINE
  5
37B
330
1F
100
AcDbEntity
  8
LAY-2
  6
CONTINUOUS
 62
     6
100
AcDbLine
 10
1580.0982174403
 20
1217.9288253
 30
0.0
 11
1580.0982174403
 21
1225.4288253
 31
0.0
  0
LINE
  5
37C
330
1F
100
AcDbEntity
  8
LAY-2
  6
CONTINUOUS
 62
     6
100
AcDbLine
 10
1558.3706055
 20
1225.4288253
 30
0.0
 11
1558.3706055
 21
1227.9288253
 31
0.0
  0
LINE
  5
37D
330
1F
100
AcDbEntity
  8
LAY-2
  6
CONTINUOUS
 62
     6
100
AcDbLine
 10
1583.3706055
 20
1225.4288253
 30
0.0
 11
1583.3706055
 21
1227.9288253
 31
0.0
  0
LINE
  5
37E
330
1F
100
AcDbEntity
  8
LAY-2
  6
CONTINUOUS
 62
     6
100
AcDbLine
 10
1664.4936523
 20
1261.9293136
 30
0.0
 11
1664.4936523
 21
1271.9293136
 31
0.0
  0
LINE
  5
37F
330
1F
100
AcDbEntity
  8
LAY-2
  6
CONTINUOUS
 62
     6
100
AcDbLine
 10
1647.9677734
 20
1261.9293136
 30
0.0
 11
1647.9677734
 21
1271.9293136
 31
0.0
  0
ARC
  5
380
330
1F
100
AcDbEntity
  8
LAY-2
  6
CONTINUOUS
 62
     6
100
AcDbCircle
 10
1644.9672852
 20
1261.9293136
 30
0.0
 40
3.000488300000002
100
AcDbArc
 50
270.0000305200091
 51
0.0
  0
ARC
  5
381
330
1F
100
AcDbEntity
  8
LAY-2
  6
CONTINUOUS
 62
     6
100
AcDbCircle
 10
1661.4931641
 20
1261.9293136
 30
0.0
 40
3.000488300000002
100
AcDbArc
 50
270.0000305199981
 51
0.0
  0
ARC
  5
382
330
1F
100
AcDbEntity
  8
LAY-2
  6
CONTINUOUS
 62
     6
100
AcDbCircle
 10
1501.0024414
 20
3372.812950100001
 30
0.0
 40
2110.8856201
100
AcDbArc
 50
267.3020935100002
 51
272.6978454600001
  0
LINE
  5
383
330
1F
100
AcDbEntity
  8
LAY-2
  6
CONTINUOUS
 62
     6
100
AcDbLine
 10
1600.3579102
 20
1264.2681808
 30
0.0
 11
1600.3579102
 21
1271.9293136
 31
0.0
  0
LINE
  5
384
330
1F
100
AcDbEntity
  8
LAY-2
  6
CONTINUOUS
 62
     6
100
AcDbLine
 10
1582.9995117
 20
1258.9288253
 30
0.0
 11
1582.9995117
 21
1263.5235519
 31
0.0
  0
LINE
  5
385
330
1F
100
AcDbEntity
  8
LAY-2
  6
CONTINUOUS
 62
     6
100
AcDbLine
 10
1552.9995117
 20
1258.9288253
 30
0.0
 11
1552.9995117
 21
1262.568962
 31
0.0
  0
LINE
  5
386
330
1F
100
AcDbEntity
  8
LAY-2
  6
CONTINUOUS
 62
     6
100
AcDbLine
 10
1449.0004883
 20
1258.9288253
 30
0.0
 11
1449.0004883
 21
1262.568962
 31
0.0
  0
LINE
  5
387
330
1F
100
AcDbEntity
  8
LAY-2
  6
CONTINUOUS
 62
     6
100
AcDbLine
 10
1419.0004883
 20
1258.9288253
 30
0.0
 11
1419.0004883
 21
1263.5235519
 31
0.0
  0
LINE
  5
388
330
1F
100
AcDbEntity
  8
LAY-2
  6
CONTINUOUS
 62
     6
100
AcDbLine
 10
1401.6420898
 20
1261.9293136
 30
0.0
 11
1401.6420898
 21
1271.9293136
 31
0.0
  0
LINE
  5
389
330
1F
100
AcDbEntity
  8
LAY-2
  6
CONTINUOUS
 62
     6
100
AcDbLine
 10
1354.0371094
 20
1263.9288253
 30
0.0
 11
1354.0371094
 21
1271.9293136
 31
0.0
  0
LINE
  5
38A
330
1F
100
AcDbEntity
  8
LAY-2
  6
CONTINUOUS
 62
     6
100
AcDbLine
 10
1337.5112305
 20
1263.9288253
 30
0.0
 11
1337.5112305
 21
1271.9293136
 31
0.0
  0
ARC
  5
38B
330
1F
100
AcDbEntity
  8
LAY-2
  6
CONTINUOUS
 62
     6
100
AcDbCircle
 10
1340.5092773
 20
1261.9293136
 30
0.0
 40
3.000488300000002
100
AcDbArc
 50
180.0
 51
270.0000000000002
  0
LINE
  5
38C
330
1F
100
AcDbEntity
  8
LAY-2
  6
CONTINUOUS
 62
     6
100
AcDbLine
 10
1354.0371094
 20
1263.9288253
 30
0.0
 11
1354.0371094
 21
1261.9293136
 31
0.0
  0
ARC
  5
38D
330
1F
100
AcDbEntity
  8
LAY-2
  6
CONTINUOUS
 62
     6
100
AcDbCircle
 10
1603.355957
 20
1261.9293136
 30
0.0
 40
3.000488300000002
100
AcDbArc
 50
180.0
 51
270.0000000000002
  0
LINE
  5
38E
330
1F
100
AcDbEntity
  8
LAY-2
  6
CONTINUOUS
 62
     6
100
AcDbLine
 10
1600.3579102
 20
1264.2681808
 30
0.0
 11
1600.3579102
 21
1261.9293136
 31
0.0
  0
LINE
  5
38F
330
1F
100
AcDbEntity
  8
LAY-2
  6
CONTINUOUS
 62
     6
100
AcDbLine
 10
1337.5112305
 20
1263.9288253
 30
0.0
 11
1337.5112305
 21
1261.9293136
 31
0.0
  0
LINE
  5
390
330
1F
100
AcDbEntity
  8
LAY-2
  6
CONTINUOUS
 62
     6
100
AcDbLine
 10
1664.4936523
 20
1263.9288253
 30
0.0
 11
1600.3579102
 21
1263.9288253
 31
0.0
  0
LINE
  5
391
330
1F
100
AcDbEntity
  8
LAY-2
  6
CONTINUOUS
 62
     6
100
AcDbLine
 10
1317.8676758
 20
1271.9293136
 30
0.0
 11
1683.8735352
 21
1271.9293136
 31
0.0
  0
LINE
  5
392
330
1F
100
AcDbEntity
  8
LAY-2
  6
CONTINUOUS
 62
     6
100
AcDbLine
 10
1337.5112305
 20
1263.9288253
 30
0.0
 11
1401.6420898
 21
1263.9288253
 31
0.0
  0
ARC
  5
393
330
1F
100
AcDbEntity
  8
LAY-2
  6
CONTINUOUS
 62
     6
100
AcDbCircle
 10
1356.7739258
 20
1261.9293136
 30
0.0
 40
3.000488300000002
100
AcDbArc
 50
180.0
 51
269.9999694799912
  0
LINE
  5
394
330
1F
100
AcDbEntity
  8
LAY-2
  6
CONTINUOUS
 62
     6
100
AcDbLine
 10
1603.355957
 20
1258.9288253
 30
0.0
 11
1661.4931656983
 21
1258.9288253
 31
0.0
  0
LINE
  5
395
330
1F
100
AcDbEntity
  8
LAY-2
  6
CONTINUOUS
 62
     6
100
AcDbLine
 10
1552.9995117
 20
1258.9288253
 30
0.0
 11
1582.9995117
 21
1258.9288253
 31
0.0
  0
ARC
  5
396
330
1F
100
AcDbEntity
  8
LAY-2
  6
CONTINUOUS
 62
     6
100
AcDbCircle
 10
1398.644043
 20
1261.9293136
 30
0.0
 40
3.000488300000002
100
AcDbArc
 50
270.0000305203127
 51
0.0
  0
LINE
  5
397
330
1F
100
AcDbEntity
  8
LAY-2
  6
CONTINUOUS
 62
     6
100
AcDbLine
 10
1340.5092773
 20
1258.9288253
 30
0.0
 11
1398.6440445983
 21
1258.9288253
 31
0.0
  0
LINE
  5
398
330
1F
100
AcDbEntity
  8
LAY-2
  6
CONTINUOUS
 62
     6
100
AcDbLine
 10
1448.7416993
 20
1258.9288253
 30
0.0
 11
1418.7416993
 21
1258.9288253
 31
0.0
  0
ARC
  5
399
330
1F
100
AcDbEntity
  8
LAY-2
  6
CONTINUOUS
 62
     6
100
AcDbCircle
 10
591.8326550999998
 20
1283.9288253
 30
0.0
 40
9.000652000000002
100
AcDbArc
 50
347.1964227899994
 51
90.00000000000004
  0
LINE
  5
39A
330
1F
100
AcDbEntity
  8
LAY-2
  6
CONTINUOUS
 62
     6
100
AcDbLine
 10
582.8800183999999
 20
1292.9287643
 30
0.0
 11
591.8326550999998
 21
1292.9287643
 31
0.0
  0
LINE
  5
39B
330
1F
100
AcDbEntity
  8
LAY-2
  6
CONTINUOUS
 62
     6
100
AcDbLine
 10
578.7149794000002
 20
1274.6014328
 30
0.0
 11
582.8800183999999
 21
1292.9287643
 31
0.0
  0
LINE
  5
39C
330
1F
100
AcDbEntity
  8
LAY-2
  6
CONTINUOUS
 62
     6
100
AcDbLine
 10
591.8326550999998
 20
1292.9287643
 30
0.0
 11
612.2818738999999
 21
1292.9287643
 31
0.0
  0
ARC
  5
39D
330
1F
100
AcDbEntity
  8
LAY-2
  6
CONTINUOUS
 62
     6
100
AcDbCircle
 10
612.2818738999999
 20
1285.9287948
 30
0.0
 40
6.999969500000002
100
AcDbArc
 50
90.00000000000004
 51
162.5828265900031
  0
ARC
  5
39E
330
1F
100
AcDbEntity
  8
LAY-2
  6
CONTINUOUS
 62
     6
100
AcDbCircle
 10
662.9117567000001
 20
1270.2621383
 30
0.0
 40
59.99900910000005
100
AcDbArc
 50
162.7800689399999
 51
177.4526875800003
  0
LINE
  5
39F
330
1F
100
AcDbEntity
  8
LAY-2
  6
CONTINUOUS
 62
     6
100
AcDbLine
 10
600.6095106
 20
1281.9341964
 30
0.0
 11
598.5636122
 21
1272.9287643
 31
0.0
  0
LINE
  5
3A0
330
1F
100
AcDbEntity
  8
LAY-2
  6
CONTINUOUS
 62
     6
100
AcDbLine
 10
598.5636122
 20
1272.9287643
 30
0.0
 11
595.3800183999999
 21
1258.9288253
 31
0.0
  0
ARC
  5
3A1
330
1F
100
AcDbEntity
  8
LAY-2
  6
CONTINUOUS
 62
     6
100
AcDbCircle
 10
572.8653699999998
 20
1275.9312362
 30
0.0
 40
5.999851100000003
100
AcDbArc
 50
275.8621090800016
 51
347.1925207500028
  0
LINE
  5
3A2
330
1F
100
AcDbEntity
  8
LAY-2
  6
CONTINUOUS
 62
     6
100
AcDbLine
 10
598.5636122
 20
1272.9287643
 30
0.0
 11
602.9727919000002
 21
1272.9287643
 31
0.0
  0
ARC
  5
3A3
330
1F
100
AcDbEntity
  8
LAY-2
  6
CONTINUOUS
 62
     6
100
AcDbCircle
 10
604.4986707999999
 20
1273.4287948
 30
0.0
 40
1.4993565
100
AcDbArc
 50
199.4749665399983
 51
270.0000000000002
  0
LINE
  5
3A4
330
1F
100
AcDbEntity
  8
LAY-2
  6
CONTINUOUS
 62
     6
100
AcDbLine
 10
591.380995
 20
1271.9288253
 30
0.0
 11
591.380995
 21
1291.9288253
 31
0.0
  0
LINE
  5
3A5
330
1F
100
AcDbEntity
  8
LAY-2
  6
CONTINUOUS
 62
     6
100
AcDbLine
 10
581.380995
 20
1281.9288253
 30
0.0
 11
601.380995
 21
1281.9288253
 31
0.0
  0
LINE
  5
3A6
330
1F
100
AcDbEntity
  8
LAY-2
  6
CONTINUOUS
 62
     6
100
AcDbLine
 10
603.8809950000001
 20
1271.9288559
 30
0.0
 11
1009.881416
 21
1271.9288559
 31
0.0
  0
LINE
  5
3A7
330
1F
100
AcDbEntity
  8
LAY-2
  6
CONTINUOUS
 62
     6
100
AcDbLine
 10
900.7218152999999
 20
1269.1177292
 30
0.0
 11
1009.881415710944
 21
1271.928867124369
 31
0.0
  0
ARC
  5
3A8
330
1F
100
AcDbEntity
  8
LAY-2
  6
CONTINUOUS
 62
     6
100
AcDbCircle
 10
974.8911816434999
 20
1271.1135900318
 30
0.0
 40
34.99973110000002
100
AcDbArc
 50
1.334757749999866
 51
31.94719799000003
  0
ARC
  5
3A9
330
1F
100
AcDbEntity
  8
LAY-2
  6
CONTINUOUS
 62
     6
100
AcDbCircle
 10
998.6485059435001
 20
1285.9288060318
 30
0.0
 40
6.999491000000003
100
AcDbArc
 50
31.9375954499984
 51
90.00000000000004
  0
DIMENSION
  5
3AB
330
1F
100
AcDbEntity
  8
LAY-2
  6
CONTINUOUS
 62
     3
100
AcDbDimension
  2
*D15
 10
1009.881416
 20
2212.0
 30
0.0
 11
788.1312055000002
 21
2235.499999940395
 31
0.0
 70
   160
  1
444
  3
ISO-25
100
AcDbAlignedDimension
 13
566.380995
 23
2052.3648903
 33
0.0
 14
1009.881416
 24
2017.8638527
 34
0.0
100
AcDbRotatedDimension
1001
ACAD
1000
DSTYLE
1002
{
1070
   270
1070
     2
1070
     6
1000
EX_NORM
1070
     7
1000
EX_NORM
1070
    41
1040
30.0
1070
    42
1040
6.99999988079071
1070
    44
1040
10.0
1070
    73
1070
     0
1070
    74
1070
     0
1070
    75
1070
     0
1070
    76
1070
     0
1070
    77
1070
     1
1070
    78
1070
     8
1070
   140
1040
40.0
1070
   147
1040
0.0
1070
   173
1070
     1
1070
   176
1070
     3
1070
   177
1070
     3
1070
   178
1070
     2
1070
   271
1070
     1
1070
   277
1070
     2
1070
   279
1070
     2
1070
   280
1070
     0
1070
   287
1070
     5
1070
   340
1005
3AA
1002
}
  0
DIMENSION
  5
3B9
330
1F
100
AcDbEntity
  8
LAY-2
  6
CONTINUOUS
 62
     3
100
AcDbDimension
  2
*D16
 10
591.380995
 20
1133.0
 30
0.0
 11
800.63098742815
 21
1156.499999940395
 31
0.0
 70
   160
  1
419
  3
ISO-25
100
AcDbAlignedDimension
 13
1009.8809798563
 23
1271.9288559
 33
0.0
 14
591.380995
 24
1281.9288253
 34
0.0
100
AcDbRotatedDimension
1001
ACAD
1000
DSTYLE
1002
{
1070
   270
1070
     2
1070
     6
1000
EX_NORM
1070
     7
1000
EX_NORM
1070
    41
1040
30.0
1070
    42
1040
6.99999988079071
1070
    44
1040
10.0
1070
    73
1070
     0
1070
    74
1070
     0
1070
    75
1070
     0
1070
    76
1070
     0
1070
    77
1070
     1
1070
    78
1070
     8
1070
   140
1040
40.0
1070
   147
1040
0.0
1070
   173
1070
     1
1070
   176
1070
     3
1070
   177
1070
     3
1070
   178
1070
     2
1070
   271
1070
     1
1070
   277
1070
     2
1070
   279
1070
     2
1070
   280
1070
     0
1070
   287
1070
     5
1070
   340
1005
3AA
1002
}
  0
DIMENSION
  5
3C6
330
1F
100
AcDbEntity
  8
LAY-3
  6
CONTINUOUS
 62
     3
100
AcDbDimension
  2
*D17
 10
1089.0
 20
2139.3639442
 30
0.0
 11
1065.5
 21
1956.36389565
 31
0.0
 70
   160
  1
368
  3
ISO-25
100
AcDbAlignedDimension
 13
781.3809950000001
 23
1773.3638471
 33
0.0
 14
781.3809950000001
 24
2139.3639442
 34
0.0
 50
90.0
100
AcDbRotatedDimension
1001
ACAD
1000
DSTYLE
1002
{
1070
   270
1070
     2
1070
     6
1000
EX_NORM
1070
     7
1000
EX_NORM
1070
    41
1040
30.0
1070
    42
1040
6.99999988079071
1070
    44
1040
9.999999999999545
1070
    73
1070
     0
1070
    74
1070
     0
1070
    75
1070
     0
1070
    76
1070
     0
1070
    77
1070
     1
1070
    78
1070
     0
1070
   140
1040
40.0
1070
   147
1040
0.0
1070
   173
1070
     1
1070
   176
1070
     3
1070
   177
1070
     3
1070
   178
1070
     2
1070
   271
1070
     0
1070
   277
1070
     2
1070
   279
1070
     2
1070
   280
1070
     0
1070
   287
1070
     5
1070
   340
1005
3AA
1002
}
  0
DIMENSION
  5
3D3
330
1F
100
AcDbEntity
  8
LAY-3
  6
CONTINUOUS
 62
     3
100
AcDbDimension
  2
*D18
 10
504.0000000000001
 20
2026.3639137
 30
0.0
 11
480.5000000000002
 21
1956.3639137
 31
0.0
 70
   160
  3
ISO-25
100
AcDbAlignedDimension
 13
542.3819715
 23
1886.3639137
 33
0.0
 14
542.3819715
 24
2026.3639137
 34
0.0
 50
90.0
100
AcDbRotatedDimension
1001
ACAD
1000
DSTYLE
1002
{
1070
   270
1070
     2
1070
     6
1000
EX_NORM
1070
     7
1000
EX_NORM
1070
    41
1040
30.0
1070
    42
1040
6.99999988079071
1070
    44
1040
10.0
1070
    73
1070
     0
1070
    74
1070
     0
1070
    75
1070
     0
1070
    76
1070
     0
1070
    77
1070
     1
1070
    78
1070
     0
1070
   140
1040
40.0
1070
   147
1040
0.0
1070
   173
1070
     1
1070
   176
1070
     3
1070
   177
1070
     3
1070
   178
1070
     2
1070
   271
1070
     0
1070
   277
1070
     2
1070
   279
1070
     2
1070
   280
1070
     0
1070
   287
1070
     5
1070
   340
1005
3AA
1002
}
  0
DIMENSION
  5
3E0
330
1F
100
AcDbEntity
  8
LAY-3
  6
CONTINUOUS
 62
     3
100
AcDbDimension
  2
*D19
 10
1372.0
 20
1258.9288253
 30
0.0
 11
1348.5
 21
1226.4288253
 31
0.0
 70
   160
  3
ISO-25
100
AcDbAlignedDimension
 13
1425.8706055
 23
1193.9288253
 33
0.0
 14
1398.6440445983
 24
1258.9288253
 34
0.0
 50
90.0
100
AcDbRotatedDimension
1001
ACAD
1000
DSTYLE
1002
{
1070
   270
1070
     2
1070
     6
1000
EX_NORM
1070
     7
1000
EX_NORM
1070
    41
1040
30.0
1070
    42
1040
6.99999988079071
1070
    44
1040
10.0
1070
    73
1070
     0
1070
    74
1070
     0
1070
    75
1070
     0
1070
    76
1070
     1
1070
    77
1070
     1
1070
    78
1070
     0
1070
   140
1040
40.0
1070
   147
1040
0.0
1070
   173
1070
     1
1070
   176
1070
     3
1070
   177
1070
     3
1070
   178
1070
     2
1070
   271
1070
     0
1070
   277
1070
     2
1070
   279
1070
     2
1070
   280
1070
     0
1070
   287
1070
     5
1070
   340
1005
3AA
1002
}
  0
ENDSEC
  0
SECTION
  2
OBJECTS
  0
DICTIONARY
  5
C
330
0
100
AcDbDictionary
  3
ACAD_GROUP
350
D
  3
ACAD_LAYOUT
350
1A
  3
ACAD_MATERIAL
350
3B
  3
ACAD_MLEADERSTYLE
350
40E
  3
ACAD_MLINESTYLE
350
17
  3
ACAD_PLOTSETTINGS
350
19
  3
ACAD_VISUALSTYLE
350
2A
  3
ACDBHEADERROUNDTRIPXREC
350
3EC
  3
ACDBVARIABLEDICTIONARY
350
40C
  0
DICTIONARY
  5
D
102
{ACAD_REACTORS
330
C
102
}
330
C
100
AcDbDictionary
  0
DICTIONARY
  5
1A
102
{ACAD_REACTORS
330
C
102
}
330
C
100
AcDbDictionary
  0
DICTIONARY
  5
3B
102
{ACAD_REACTORS
330
C
102
}
330
C
100
AcDbDictionary
  3
BYBLOCK
350
3D
  3
BYLAYER
350
3C
  3
GLOBAL
350
3E
  0
DICTIONARY
  5
40E
102
{ACAD_REACTORS
330
C
102
}
330
C
100
AcDbDictionary
  0
DICTIONARY
  5
17
102
{ACAD_REACTORS
330
C
102
}
330
C
100
AcDbDictionary
  3
STANDARD
350
18
  0
DICTIONARY
  5
19
102
{ACAD_REACTORS
330
C
102
}
330
C
100
AcDbDictionary
  0
DICTIONARY
  5
2A
102
{ACAD_REACTORS
330
C
102
}
330
C
100
AcDbDictionary
  3
2DWIREFRAME
350
2F
  3
3D_HIDDEN
350
31
  3
3DWIREFRAME
350
30
  3
BASIC
350
32
  3
BRIGHTEN
350
36
  3
COLORCHANGE
350
3A
  3
CONCEPTUAL
350
34
  3
DIM
350
35
  3
FACEPATTERN
350
39
  3
FLAT
350
2B
  3
FLATWITHEDGES
350
2C
  3
GOURAUD
350
2D
  3
GOURAUDWITHEDGES
350
2E
  3
LINEPATTERN
350
38
  3
REALISTIC
350
33
  3
THICKEN
350
37
  0
DICTIONARY
  5
3EC
102
{ACAD_REACTORS
330
C
102
}
330
C
100
AcDbDictionary
  3
CEPSNTYPE
350
3F5
  3
DIMSTYLEDATA
350
40B
  3
FINGERPRINTGUID
350
3F6
  3
HYPERLINKBASE
350
3EF
  3
INSUNITS
350
3F4
  3
LAYOUTDICT
350
3F1
  3
LWETCUNION
350
3F3
  3
PLOTSETDICT
350
3F2
  3
PSVPSCALE
350
3F8
  3
PUCSBASE
350
3FB
  3
PUCSORGBACK
350
401
  3
PUCSORGBOTTOM
350
3FD
  3
PUCSORGFRONT
350
400
  3
PUCSORGLEFT
350
3FE
  3
PUCSORGRIGHT
350
3FF
  3
PUCSORGTOP
350
3FC
  3
PUCSORTHOREF
350
3F9
  3
PUCSORTHOVIEW
350
3FA
  3
STYLESHEET
350
3F0
  3
TSTACKALIGN
350
3ED
  3
TSTACKSIZE
350
3EE
  3
UCSBASE
350
404
  3
UCSORGBACK
350
40A
  3
UCSORGBOTTOM
350
406
  3
UCSORGFRONT
350
409
  3
UCSORGLEFT
350
407
  3
UCSORGRIGHT
350
408
  3
UCSORGTOP
350
405
  3
UCSORTHOREF
350
402
  3
UCSORTHOVIEW
350
403
  3
VERSIONGUID
350
3F7
  0
DICTIONARY
  5
40C
102
{ACAD_REACTORS
330
C
102
}
330
C
100
AcDbDictionary
  3
DIMASSOC
350
411
  3
HIDETEXT
350
412
  3
PSOLHEIGHT
350
410
  3
PSOLWIDTH
350
40F
  0
MATERIAL
  5
3D
102
{ACAD_REACTORS
330
3B
102
}
102
{ACAD_XDICTIONARY
360
415
102
}
330
3B
100
AcDbMaterial
  1
ByBlock
  0
MATERIAL
  5
3C
102
{ACAD_REACTORS
330
3B
102
}
102
{ACAD_XDICTIONARY
360
413
102
}
330
3B
100
AcDbMaterial
  1
ByLayer
  0
MATERIAL
  5
3E
102
{ACAD_REACTORS
330
3B
102
}
102
{ACAD_XDICTIONARY
360
417
102
}
330
3B
100
AcDbMaterial
  1
Global
  0
MLINESTYLE
  5
18
102
{ACAD_REACTORS
330
17
102
}
330
17
100
AcDbMlineStyle
  2
Standard
 70
     0
  3

 62
   256
 51
90.0
 52
90.0
 71
     2
 49
0.5
 62
   256
  6
BYLAYER
 49
-0.5
 62
   256
  6
BYLAYER
  0
ACAD_PROXY_OBJECT
  5
2F
102
{ACAD_REACTORS
330
2A
102
}
330
2A
100
AcDbProxyObject
 90
      499
 91
      501
 93
      436
310
42CC9915DA5C99599C985B595049028333333333333E3BF0000000000000FB0107901411070040501600405405064090741402480A0340
1001
ACAD
1000
AcDbSavedByObjectVersion
1070
     0
  0
ACAD_PROXY_OBJECT
  5
31
102
{ACAD_REACTORS
330
2A
102
}
330
2A
100
AcDbProxyObject
 90
      499
 91
      501
 93
      500
310
424CD108121A5919195B90640502408333333333333E3BF0000000000000FB01079024090700405020000000000001110200405405064090740C02480A0340
1001
ACAD
1000
AcDbSavedByObjectVersion
1070
     0
  0
ACAD_PROXY_OBJECT
  5
30
102
{ACAD_REACTORS
330
2A
102
}
330
2A
100
AcDbProxyObject
 90
      499
 91
      501
 93
      436
310
42CCD915DA5C99599C985B595059028333333333333E3BF0000000000000FB0107901411070040501600405405064090741402480A0340
1001
ACAD
1000
AcDbSavedByObjectVersion
1070
     0
  0
ACAD_PROXY_OBJECT
  5
32
102
{ACAD_REACTORS
330
2A
102
}
330
2A
100
AcDbProxyObject
 90
      499
 91
      501
 93
      388
310
4150985CDA58D07406404333333333333E3BF0000000000000FB0107A41107004050150841D405064090741402480A0350
1001
ACAD
1000
AcDbSavedByObjectVersion
1070
     0
  0
ACAD_PROXY_OBJECT
  5
36
102
{ACAD_REACTORS
330
2A
102
}
330
2A
100
AcDbProxyObject
 90
      499
 91
      501
 93
      428
310
42109C9A59DA1D195B90C409028333333333333E3BF0000000000000FB010790141107004050150841D405064090741402480A029950
1001
ACAD
1000
AcDbSavedByObjectVersion
1070
     0
  0
ACAD_PROXY_OBJECT
  5
3A
102
{ACAD_REACTORS
330
2A
102
}
330
2A
100
AcDbProxyObject
 90
      499
 91
      501
 93
      452
310
42D0DBDB1BDC90DA185B99D95104090240C333333333333E3BF0000000000000FB0108901411070040501508421405064090741402480A0350
1001
ACAD
1000
AcDbSavedByObjectVersion
1070
     0
  0
ACAD_PROXY_OBJECT
  5
34
102
{ACAD_REACTORS
330
2A
102
}
330
2A
100
AcDbProxyObject
 90
      499
 91
      501
 93
      500
310
4290DBDB98D95C1D1D585B10940D028333333333333E3BF0000000000000FB0107902409070040501000000000000111010841D405064090740C02480A0340
1001
ACAD
1000
AcDbSavedByObjectVersion
1070
     0
  0
ACAD_PROXY_OBJECT
  5
35
102
{ACAD_REACTORS
330
2A
102
}
330
2A
100
AcDbProxyObject
 90
      499
 91
      501
 93
      412
310
40D11A5B50B409028333333333333E3BF0000000000000FB010790141107004050150841D405064090741402480A02677FFFFFD0
1001
ACAD
1000
AcDbSavedByObjectVersion
1070
     0
  0
ACAD_PROXY_OBJECT
  5
39
102
{ACAD_REACTORS
330
2A
102
}
330
2A
100
AcDbProxyObject
 90
      499
 91
      501
 93
      444
310
42D19858D95C185D1D195C9B90F409028333333333333E3BF0000000000000FB010790141107004050150841D405064090741402480A0350
1001
ACAD
1000
AcDbSavedByObjectVersion
1070
     0
  0
ACAD_PROXY_OBJECT
  5
2B
102
{ACAD_REACTORS
330
2A
102
}
330
2A
100
AcDbProxyObject
 90
      499
 91
      501
 93
      388
310
41119B185D240901404333333333333E3BF0000000000000F9010740A41107004050150841D405064090741402480A1B50
1001
ACAD
1000
AcDbSavedByObjectVersion
1070
     0
  0
ACAD_PROXY_OBJECT
  5
2C
102
{ACAD_REACTORS
330
2A
102
}
330
2A
100
AcDbProxyObject
 90
      499
 91
      501
 93
      476
310
43519B185D15DA5D1A115919D95CD0140901404333333333333E3BF0000000000000F9010740901411070040501600405405064090741402480A1B50
1001
ACAD
1000
AcDbSavedByObjectVersion
1070
     0
  0
ACAD_PROXY_OBJECT
  5
2D
102
{ACAD_REACTORS
330
2A
102
}
330
2A
100
AcDbProxyObject
 90
      499
 91
      501
 93
      412
310
41D1DBDD5C985D5910240902404333333333333E3BF0000000000000F9010740A411070040501641D405064090741402480A1B50
1001
ACAD
1000
AcDbSavedByObjectVersion
1070
     0
  0
ACAD_PROXY_OBJECT
  5
2E
102
{ACAD_REACTORS
330
2A
102
}
330
2A
100
AcDbProxyObject
 90
      499
 91
      501
 93
      500
310
4411DBDD5C985D5915DA5D1A115919D95CD0340902404333333333333E3BF0000000000000F9010740901411070040501600405405064090741402480A1B50
1001
ACAD
1000
AcDbSavedByObjectVersion
1070
     0
  0
ACAD_PROXY_OBJECT
  5
38
102
{ACAD_REACTORS
330
2A
102
}
330
2A
100
AcDbProxyObject
 90
      499
 91
      501
 93
      444
310
42D31A5B995C185D1D195C9B90E409028333333333333E3BF0000000000000FB010790141107004050750841D405064090741402483A0350
1001
ACAD
1000
AcDbSavedByObjectVersion
1070
     0
  0
ACAD_PROXY_OBJECT
  5
33
102
{ACAD_REACTORS
330
2A
102
}
330
2A
100
AcDbProxyObject
 90
      499
 91
      501
 93
      420
310
425499585B1A5CDD1A58D08409028333333333333E3BF0000000000000FB01079019070040501508421405064090741402480A1B40
1001
ACAD
1000
AcDbSavedByObjectVersion
1070
     0
  0
ACAD_PROXY_OBJECT
  5
37
102
{ACAD_REACTORS
330
2A
102
}
330
2A
100
AcDbProxyObject
 90
      499
 91
      501
 93
      412
310
41D51A1A58DAD95B90D409028333333333333E3BF0000000000000FB010790141107004050150C41D405064090741402480A0350
1001
ACAD
1000
AcDbSavedByObjectVersion
1070
     0
  0
XRECORD
  5
3F5
102
{ACAD_REACTORS
330
3EC
102
}
330
3EC
100
AcDbXrecord
 90
        0
  0
XRECORD
  5
40B
102
{ACAD_REACTORS
330
3EC
102
}
330
3EC
100
AcDbXrecord
1000
DSTYLE
1002
{
1070
   340
340
11
1002
}
  0
XRECORD
  5
3F6
102
{ACAD_REACTORS
330
3EC
102
}
330
3EC
100
AcDbXrecord
  1
{10863163-FF6A-4286-B40A-C5C0A85C293F}
  0
XRECORD
  5
3EF
102
{ACAD_REACTORS
330
3EC
102
}
330
3EC
100
AcDbXrecord
  1

  0
XRECORD
  5
3F4
102
{ACAD_REACTORS
330
3EC
102
}
330
3EC
100
AcDbXrecord
 90
        4
  0
XRECORD
  5
3F1
102
{ACAD_REACTORS
330
3EC
102
}
330
3EC
100
AcDbXrecord
340
1A
  0
XRECORD
  5
3F3
102
{ACAD_REACTORS
330
3EC
102
}
330
3EC
100
AcDbXrecord
 90
    10781
  0
XRECORD
  5
3F2
102
{ACAD_REACTORS
330
3EC
102
}
330
3EC
100
AcDbXrecord
340
19
  0
XRECORD
  5
3F8
102
{ACAD_REACTORS
330
3EC
102
}
330
3EC
100
AcDbXrecord
 40
0.0
  0
XRECORD
  5
3FB
102
{ACAD_REACTORS
330
3EC
102
}
330
3EC
100
AcDbXrecord
340
0
  0
XRECORD
  5
401
102
{ACAD_REACTORS
330
3EC
102
}
330
3EC
100
AcDbXrecord
 10
0.0
 20
0.0
 30
0.0
  0
XRECORD
  5
3FD
102
{ACAD_REACTORS
330
3EC
102
}
330
3EC
100
AcDbXrecord
 10
0.0
 20
0.0
 30
0.0
  0
XRECORD
  5
400
102
{ACAD_REACTORS
330
3EC
102
}
330
3EC
100
AcDbXrecord
 10
0.0
 20
0.0
 30
0.0
  0
XRECORD
  5
3FE
102
{ACAD_REACTORS
330
3EC
102
}
330
3EC
100
AcDbXrecord
 10
0.0
 20
0.0
 30
0.0
  0
XRECORD
  5
3FF
102
{ACAD_REACTORS
330
3EC
102
}
330
3EC
100
AcDbXrecord
 10
0.0
 20
0.0
 30
0.0
  0
XRECORD
  5
3FC
102
{ACAD_REACTORS
330
3EC
102
}
330
3EC
100
AcDbXrecord
 10
0.0
 20
0.0
 30
0.0
  0
XRECORD
  5
3F9
102
{ACAD_REACTORS
330
3EC
102
}
330
3EC
100
AcDbXrecord
340
0
  0
XRECORD
  5
3FA
102
{ACAD_REACTORS
330
3EC
102
}
330
3EC
100
AcDbXrecord
 70
     0
  0
XRECORD
  5
3F0
102
{ACAD_REACTORS
330
3EC
102
}
330
3EC
100
AcDbXrecord
  1

  0
XRECORD
  5
3ED
102
{ACAD_REACTORS
330
3EC
102
}
330
3EC
100
AcDbXrecord
 90
        1
  0
XRECORD
  5
3EE
102
{ACAD_REACTORS
330
3EC
102
}
330
3EC
100
AcDbXrecord
 90
       70
  0
XRECORD
  5
404
102
{ACAD_REACTORS
330
3EC
102
}
330
3EC
100
AcDbXrecord
340
0
  0
XRECORD
  5
40A
102
{ACAD_REACTORS
330
3EC
102
}
330
3EC
100
AcDbXrecord
 10
0.0
 20
0.0
 30
0.0
  0
XRECORD
  5
406
102
{ACAD_REACTORS
330
3EC
102
}
330
3EC
100
AcDbXrecord
 10
0.0
 20
0.0
 30
0.0
  0
XRECORD
  5
409
102
{ACAD_REACTORS
330
3EC
102
}
330
3EC
100
AcDbXrecord
 10
0.0
 20
0.0
 30
0.0
  0
XRECORD
  5
407
102
{ACAD_REACTORS
330
3EC
102
}
330
3EC
100
AcDbXrecord
 10
0.0
 20
0.0
 30
0.0
  0
XRECORD
  5
408
102
{ACAD_REACTORS
330
3EC
102
}
330
3EC
100
AcDbXrecord
 10
0.0
 20
0.0
 30
0.0
  0
XRECORD
  5
405
102
{ACAD_REACTORS
330
3EC
102
}
330
3EC
100
AcDbXrecord
 10
0.0
 20
0.0
 30
0.0
  0
XRECORD
  5
402
102
{ACAD_REACTORS
330
3EC
102
}
330
3EC
100
AcDbXrecord
340
0
  0
XRECORD
  5
403
102
{ACAD_REACTORS
330
3EC
102
}
330
3EC
100
AcDbXrecord
 70
     0
  0
XRECORD
  5
3F7
102
{ACAD_REACTORS
330
3EC
102
}
330
3EC
100
AcDbXrecord
  1
{FAEB1C32-E019-11D5-929B-00C0DF256EC4}
  0
DICTIONARYVAR
  5
411
102
{ACAD_REACTORS
330
40C
102
}
330
40C
100
DictionaryVariables
280
     0
  1
2
  0
DICTIONARYVAR
  5
412
102
{ACAD_REACTORS
330
40C
102
}
330
40C
100
DictionaryVariables
280
     0
  1
1
  0
DICTIONARYVAR
  5
410
102
{ACAD_REACTORS
330
40C
102
}
330
40C
100
DictionaryVariables
280
     0
  1
80.000000
  0
DICTIONARYVAR
  5
40F
102
{ACAD_REACTORS
330
40C
102
}
330
40C
100
DictionaryVariables
280
     0
  1
5.000000
  0
DICTIONARY
  5
415
330
3D
100
AcDbDictionary
280
     1
  3
ACAD_XREC_ROUNDTRIP
360
416
  0
DICTIONARY
  5
413
330
3C
100
AcDbDictionary
280
     1
  3
ACAD_XREC_ROUNDTRIP
360
414
  0
DICTIONARY
  5
417
330
3E
100
AcDbDictionary
280
     1
  3
ACAD_XREC_ROUNDTRIP
360
418
  0
XRECORD
  5
416
102
{ACAD_REACTORS
330
415
102
}
330
415
100
AcDbXrecord
102
MATERIAL
148
0.0
149
0.0
149
0.0
 93
        0
 94
      127
282
     0
 72
     1
 77
     1
171
     1
175
     1
179
     1
273
     0
  0
XRECORD
  5
414
102
{ACAD_REACTORS
330
413
102
}
330
413
100
AcDbXrecord
102
MATERIAL
148
0.0
149
0.0
149
0.0
 93
        0
 94
      127
282
     0
 72
     1
 77
     1
171
     1
175
     1
179
     1
273
     0
  0
XRECORD
  5
418
102
{ACAD_REACTORS
330
417
102
}
330
417
100
AcDbXrecord
102
MATERIAL
148
0.0
149
0.0
149
0.0
 93
        0
 94
      127
282
     0
 72
     1
 77
     1
171
     1
175
     1
179
     1
273
     0
  0
ENDSEC
  0
EOF
