  0
SECTION
  2
HEADER
  9
$ACADVER
  1
AC1014
  9
$ACADMAINTVER
 70
     0
  9
$DWGCODEPAGE
  3
ANSI_932
  9
$INSBASE
 10
0.0
 20
0.0
 30
0.0
  9
$EXTMIN
 10
0.0
 20
8.5
 30
0.0
  9
$EXTMAX
 10
200.0
 20
288.5
 30
0.0
  9
$LIMMIN
 10
0.0
 20
0.0
  9
$LIMMAX
 10
210.0
 20
297.0
  9
$ORTHOMODE
 70
     0
  9
$REGENMODE
 70
     1
  9
$FILLMODE
 70
     1
  9
$QTEXTMODE
 70
     0
  9
$MIRRTEXT
 70
     1
  9
$DRAGMODE
 70
     2
  9
$LTSCALE
 40
1.0
  9
$OSMODE
 70
     0
  9
$ATTMODE
 70
     1
  9
$TEXTSIZE
 40
0.2
  9
$TRACEWID
 40
0.05
  9
$TEXTSTYLE
  7
STANDARD
  9
$CLAYER
  8
LAY-2
  9
$CELTYPE
  6
CONTINUOUS
  9
$CECOLOR
 62
   256
  9
$CELTSCALE
 40
1.0
  9
$DELOBJ
 70
     1
  9
$DISPSILH
 70
     0
  9
$DIMSCALE
 40
1.0
  9
$DIMASZ
 40
0.18
  9
$DIMEXO
 40
0.0625
  9
$DIMDLI
 40
0.38
  9
$DIMRND
 40
0.0
  9
$DIMDLE
 40
0.0
  9
$DIMEXE
 40
0.18
  9
$DIMTP
 40
0.0
  9
$DIMTM
 40
0.0
  9
$DIMTXT
 40
0.18
  9
$DIMCEN
 40
0.09
  9
$DIMTSZ
 40
0.0
  9
$DIMTOL
 70
     0
  9
$DIMLIM
 70
     0
  9
$DIMTIH
 70
     1
  9
$DIMTOH
 70
     1
  9
$DIMSE1
 70
     0
  9
$DIMSE2
 70
     0
  9
$DIMTAD
 70
     0
  9
$DIMZIN
 70
     0
  9
$DIMBLK
  1

  9
$DIMASO
 70
     1
  9
$DIMSHO
 70
     1
  9
$DIMPOST
  1

  9
$DIMAPOST
  1

  9
$DIMALT
 70
     0
  9
$DIMALTD
 70
     2
  9
$DIMALTF
 40
25.4
  9
$DIMLFAC
 40
1.0
  9
$DIMTOFL
 70
     0
  9
$DIMTVP
 40
0.0
  9
$DIMTIX
 70
     0
  9
$DIMSOXD
 70
     0
  9
$DIMSAH
 70
     0
  9
$DIMBLK1
  1

  9
$DIMBLK2
  1

  9
$DIMSTYLE
  2
STANDARD
  9
$DIMCLRD
 70
     0
  9
$DIMCLRE
 70
     0
  9
$DIMCLRT
 70
     0
  9
$DIMTFAC
 40
1.0
  9
$DIMGAP
 40
0.09
  9
$DIMJUST
 70
     0
  9
$DIMSD1
 70
     0
  9
$DIMSD2
 70
     0
  9
$DIMTOLJ
 70
     1
  9
$DIMTZIN
 70
     0
  9
$DIMALTZ
 70
     0
  9
$DIMALTTZ
 70
     0
  9
$DIMFIT
 70
     3
  9
$DIMUPT
 70
     0
  9
$DIMUNIT
 70
     2
  9
$DIMDEC
 70
     4
  9
$DIMTDEC
 70
     4
  9
$DIMALTU
 70
     2
  9
$DIMALTTD
 70
     2
  9
$DIMTXSTY
  7
STANDARD
  9
$DIMAUNIT
 70
     0
  9
$LUNITS
 70
     2
  9
$LUPREC
 70
     4
  9
$SKETCHINC
 40
0.1
  9
$FILLETRAD
 40
0.0
  9
$AUNITS
 70
     0
  9
$AUPREC
 70
     0
  9
$MENU
  1
acad
  9
$ELEVATION
 40
0.0
  9
$PELEVATION
 40
0.0
  9
$THICKNESS
 40
0.0
  9
$LIMCHECK
 70
     0
  9
$BLIPMODE
 70
     1
  9
$CHAMFERA
 40
0.0
  9
$CHAMFERB
 40
0.0
  9
$CHAMFERC
 40
0.0
  9
$CHAMFERD
 40
0.0
  9
$SKPOLY
 70
     0
  9
$TDCREATE
 40
2454514.444856296
  9
$TDUPDATE
 40
2454514.444856296
  9
$TDINDWG
 40
0.0000000000
  9
$TDUSRTIMER
 40
0.0000000000
  9
$USRTIMER
 70
     1
  9
$ANGBASE
 50
0.0
  9
$ANGDIR
 70
     0
  9
$PDMODE
 70
     0
  9
$PDSIZE
 40
0.0
  9
$PLINEWID
 40
0.0
  9
$COORDS
 70
     1
  9
$SPLFRAME
 70
     0
  9
$SPLINETYPE
 70
     6
  9
$SPLINESEGS
 70
     8
  9
$ATTDIA
 70
     0
  9
$ATTREQ
 70
     1
  9
$HANDLING
 70
     1
  9
$HANDSEED
  5
466
  9
$SURFTAB1
 70
     6
  9
$SURFTAB2
 70
     6
  9
$SURFTYPE
 70
     6
  9
$SURFU
 70
     6
  9
$SURFV
 70
     6
  9
$UCSNAME
  2

  9
$UCSORG
 10
0.0
 20
0.0
 30
0.0
  9
$UCSXDIR
 10
1.0
 20
0.0
 30
0.0
  9
$UCSYDIR
 10
0.0
 20
1.0
 30
0.0
  9
$PUCSNAME
  2

  9
$PUCSORG
 10
0.0
 20
0.0
 30
0.0
  9
$PUCSXDIR
 10
1.0
 20
0.0
 30
0.0
  9
$PUCSYDIR
 10
0.0
 20
1.0
 30
0.0
  9
$USERI1
 70
     0
  9
$USERI2
 70
     0
  9
$USERI3
 70
     0
  9
$USERI4
 70
     0
  9
$USERI5
 70
     0
  9
$USERR1
 40
0.0
  9
$USERR2
 40
0.0
  9
$USERR3
 40
0.0
  9
$USERR4
 40
0.0
  9
$USERR5
 40
0.0
  9
$WORLDVIEW
 70
     1
  9
$SHADEDGE
 70
     3
  9
$SHADEDIF
 70
    70
  9
$TILEMODE
 70
     1
  9
$MAXACTVP
 70
    16
  9
$PINSBASE
 10
0.0
 20
0.0
 30
0.0
  9
$PLIMCHECK
 70
     0
  9
$PEXTMIN
 10
1.000000E+20
 20
1.000000E+20
 30
1.000000E+20
  9
$PEXTMAX
 10
-1.000000E+20
 20
-1.000000E+20
 30
-1.000000E+20
  9
$PLIMMIN
 10
0.0
 20
0.0
  9
$PLIMMAX
 10
12.0
 20
9.0
  9
$UNITMODE
 70
     0
  9
$VISRETAIN
 70
     0
  9
$PLINEGEN
 70
     1
  9
$PSLTSCALE
 70
     0
  9
$TREEDEPTH
 70
  3020
  9
$PICKSTYLE
 70
     1
  9
$CMLSTYLE
  2
Standard
  9
$CMLJUST
 70
     0
  9
$CMLSCALE
 40
1.0
  9
$PROXYGRAPHICS
 70
     0
  9
$MEASUREMENT
 70
     0
  0
ENDSEC
  0
SECTION
  2
CLASSES
  0
CLASS
  1
LWPOLYLINE
  2
AcDbPolyline
  3
"AutoCAD"
 90
        0
280
     0
281
     1
  0
CLASS
  1
IMAGE
  2
AcDbRasterImage
  3
ISM
 90
      127
280
     0
281
     1
  0
CLASS
  1
OLE2FRAME
  2
AcDbOle2Frame
  3
""
 90
        0
280
     0
281
     1
  0
CLASS
  1
HATCH
  2
AcDbHatch
  3
"ACAD_SEDONA"
 90
        0
280
     0
281
     1
  0
CLASS
  1
DICTIONARYVAR
  2
AcDbDictionaryVar
  3
"AutoCAD"
 90
        0
280
     0
281
     0
  0
CLASS
  1
RASTERVARIABLES
  2
AcDbRasterVariables
  3
ISM
 90
        0
280
     0
281
     0
  0
CLASS
  1
IMAGEDEF
  2
AcDbRasterImageDef
  3
ISM
 90
        0
280
     0
281
     0
  0
CLASS
  1
IMAGEDEF_REACTOR
  2
AcDbRasterImageDefReactor
  3
ISM
 90
        1
280
     0
281
     0
  0
CLASS
  1
IDBUFFER
  2
AcDbIdBuffer
  3
"Acad"
 90
        0
280
     0
281
     0
  0
CLASS
  1
SPATIAL_FILTER
  2
AcDbSpatialFilter
  3
"Acad"
 90
        0
280
     0
281
     0
  0
CLASS
  1
XRECORD
  2
AcDbXrecord
  3
"<Built In>"
 90
        0
280
     0
281
     0
  0
CLASS
  1
SORTENTSTABLE
  2
AcDbSortentsTable
  3
"AutoCAD"
 90
        0
280
     0
281
     0
  0
CLASS
  1
LAYER_INDEX
  2
AcDbLayerIndex
  3
"Acad"
 90
        0
280
     0
281
     0
  0
CLASS
  1
SPATIAL_INDEX
  2
AcDbSpatialIndex
  3
"Acad"
 90
        0
280
     0
281
     0
  0
CLASS
  1
OBJECT_PTR
  2
CAseDLPNTableRecord
  3
"ASE-LPNTableRecord"
 90
        1
280
     0
281
     0
  0
CLASS
  1
LAYOUT
  2
AcDbLayout
  3
"AutoCAD 2000"
 90
        1
280
     0
281
     0
  0
CLASS
  1
PLOTSETTINGS
  2
AcDbPlotSettings
  3
"AutoCAD 2000"
 90
        1
280
     0
281
     0
  0
CLASS
  1
ACDBDICTIONARYWDFLT
  2
AcDbDictionaryWithDefault
  3
"AutoCAD 2000"
 90
        1
280
     0
281
     0
  0
CLASS
  1
ACDBPLACEHOLDER
  2
AcDbPlaceHolder
  3
"AutoCAD 2000"
 90
        1
280
     0
281
     0
  0
CLASS
  1
VBA_PROJECT
  2
AcDbVbaProject
  3
"acadvba"
 90
        1
280
     0
281
     0
  0
CLASS
  1
WIPEOUT
  2
AcDbWipeout
  3
WipeOut|AutoCAD Express Tool|expresstools@autodesk.com
 90
      127
280
     0
281
     1
  0
CLASS
  1
WIPEOUTVARIABLES
  2
AcDbWipeoutVariables
  3
WipeOut|AutoCAD Express Tool|expresstools@autodesk.com
 90
        0
280
     0
281
     0
  0
CLASS
  1
RTEXT
  2
RText
  3
RText|AutoCAD Express Tool|expresstools@autodesk.com
 90
        0
280
     0
281
     1
  0
CLASS
  1
ARCALIGNEDTEXT
  2
AcDbArcAlignedText
  3
ATEXT|AutoCAD Express Tool|expresstools@autodesk.com
 90
        0
280
     0
281
     1
  0
ENDSEC
  0
SECTION
  2
TABLES
  0
TABLE
  2
VPORT
  5
7
100
AcDbSymbolTable
 70
     1
  0
VPORT
  5
15
100
AcDbSymbolTableRecord
100
AcDbViewportTableRecord
  2
*ACTIVE
 70
     0
 10
0.0
 20
0.0
 11
1.0
 21
1.0
 12
1000.0
 22
1485.0
 13
0.0
 23
0.0
 14
1.0
 24
1.0
 15
0.0
 25
0.0
 16
0.0
 26
0.0
 36
1.0
 17
0.0
 27
0.0
 37
0.0
 40
2800.0
 41
1.722533
 42
50.0
 43
0.0
 44
0.0
 50
0.0
 51
0.0
 71
     0
 72
   100
 73
     1
 74
     1
 75
     0
 76
     0
 77
     0
 78
     0
  0
ENDTAB
  0
TABLE
  2
LTYPE
  5
4
100
AcDbSymbolTable
 70
     9
  0
LTYPE
  5
11
100
AcDbSymbolTableRecord
100
AcDbLinetypeTableRecord
  2
BYBLOCK
 70
    64
  3

 72
    65
 73
     0
 40
0.0
  0
LTYPE
  5
12
100
AcDbSymbolTableRecord
100
AcDbLinetypeTableRecord
  2
BYLAYER
 70
    64
  3

 72
    65
 73
     0
 40
0.0
  0
LTYPE
  5
13
100
AcDbSymbolTableRecord
100
AcDbLinetypeTableRecord
  2
CONTINUOUS
 70
    64
  3
実線
 72
    65
 73
     0
 40
0.0
  0
LTYPE
  5
1D
100
AcDbSymbolTableRecord
100
AcDbLinetypeTableRecord
  2
EXLTYPE1
 70
    64
  3
破線
 72
    65
 73
     2
 40
3.0
 49
2.0
 74
     0
 49
-1.0
 74
     0
  0
LTYPE
  5
1E
100
AcDbSymbolTableRecord
100
AcDbLinetypeTableRecord
  2
EXLTYPE2
 70
    64
  3
点線
 72
    65
 73
     2
 40
2.0
 49
1.0
 74
     0
 49
-1.0
 74
     0
  0
LTYPE
  5
1F
100
AcDbSymbolTableRecord
100
AcDbLinetypeTableRecord
  2
EXLTYPE3
 70
    64
  3
一点鎖線
 72
    65
 73
     4
 40
10.0
 49
7.0
 74
     0
 49
-1.0
 74
     0
 49
1.0
 74
     0
 49
-1.0
 74
     0
  0
LTYPE
  5
20
100
AcDbSymbolTableRecord
100
AcDbLinetypeTableRecord
  2
EXLTYPE4
 70
    64
  3
二点鎖線
 72
    65
 73
     6
 40
12.0
 49
7.0
 74
     0
 49
-1.0
 74
     0
 49
1.0
 74
     0
 49
-1.0
 74
     0
 49
1.0
 74
     0
 49
-1.0
 74
     0
  0
LTYPE
  5
21
100
AcDbSymbolTableRecord
100
AcDbLinetypeTableRecord
  2
EXLTYPE5
 70
    64
  3
三点鎖線
 72
    65
 73
     8
 40
37.0
 49
30.0
 74
     0
 49
-1.0
 74
     0
 49
1.0
 74
     0
 49
-1.0
 74
     0
 49
1.0
 74
     0
 49
-1.0
 74
     0
 49
1.0
 74
     0
 49
-1.0
 74
     0
  0
LTYPE
  5
22
100
AcDbSymbolTableRecord
100
AcDbLinetypeTableRecord
  2
EXLTYPE6
 70
    64
  3
四点鎖線
 72
    65
 73
    10
 40
39.0
 49
30.0
 74
     0
 49
-1.0
 74
     0
 49
1.0
 74
     0
 49
-1.0
 74
     0
 49
1.0
 74
     0
 49
-1.0
 74
     0
 49
1.0
 74
     0
 49
-1.0
 74
     0
 49
1.0
 74
     0
 49
-1.0
 74
     0
  0
ENDTAB
  0
TABLE
  2
LAYER
  5
2
100
AcDbSymbolTable
 70
     4
  0
LAYER
  5
14
100
AcDbSymbolTableRecord
100
AcDbLayerTableRecord
  2
0
 70
     0
 62
     7
  6
CONTINUOUS
  0
LAYER
  5
25
100
AcDbSymbolTableRecord
100
AcDbLayerTableRecord
  2
LAY-1
 70
    64
 62
     7
  6
CONTINUOUS
  0
LAYER
  5
26
100
AcDbSymbolTableRecord
100
AcDbLayerTableRecord
  2
LAY-2
 70
    64
 62
     7
  6
CONTINUOUS
  0
LAYER
  5
27
100
AcDbSymbolTableRecord
100
AcDbLayerTableRecord
  2
LAY-3
 70
    64
 62
     7
  6
CONTINUOUS
  0
ENDTAB
  0
TABLE
  2
STYLE
  5
3
100
AcDbSymbolTable
 70
     5
  0
STYLE
  5
17
100
AcDbSymbolTableRecord
100
AcDbTextStyleTableRecord
  2
STANDARD
 70
     0
 40
0.0
 41
1.0
 50
0.0
 71
     0
 42
0.0
  3
monotxt
  4
extfont
  0
STYLE
  5
23
100
AcDbSymbolTableRecord
100
AcDbTextStyleTableRecord
  2
EXCADSTD
 70
    64
 40
0.0
 41
1.0
 50
0.0
 71
     0
 42
0.2
  3
monotxt
  4
extfont
  0
STYLE
  5
24
100
AcDbSymbolTableRecord
100
AcDbTextStyleTableRecord
  2
EXCADVERT
 70
    68
 40
0.0
 41
1.0
 50
0.0
 71
     0
 42
0.286885
  3
monotxt
  4
extfont
  0
STYLE
  5
40F
100
AcDbSymbolTableRecord
100
AcDbTextStyleTableRecord
  2
EXCADDIM1
 70
    64
 40
0.0
 41
0.84
 50
0.0
 71
     0
 42
0.2
  3
monotxt
  4
extfont
  0
STYLE
  5
464
100
AcDbSymbolTableRecord
100
AcDbTextStyleTableRecord
  2
EXCADDIM2
 70
    64
 40
0.0
 41
0.95
 50
0.0
 71
     0
 42
0.2
  3
monotxt
  4
extfont
  0
ENDTAB
  0
TABLE
  2
VIEW
  5
5
100
AcDbSymbolTable
 70
     0
  0
ENDTAB
  0
TABLE
  2
UCS
  5
6
100
AcDbSymbolTable
 70
     0
  0
ENDTAB
  0
TABLE
  2
APPID
  5
8
100
AcDbSymbolTable
 70
     1
  0
APPID
  5
16
100
AcDbSymbolTableRecord
100
AcDbRegAppTableRecord
  2
ACAD
 70
     0
  0
ENDTAB
  0
TABLE
  2
DIMSTYLE
  5
9
100
AcDbSymbolTable
 70
     1
  0
DIMSTYLE
105
18
100
AcDbSymbolTableRecord
100
AcDbDimStyleTableRecord
  2
STANDARD
 70
     0
  3

  4

  5

  6

  7

 40
1.0
 41
0.18
 42
0.0625
 43
0.38
 44
0.18
 45
0.0
 46
0.0
 47
0.0
 48
0.0
 71
     0
 72
     0
 73
     1
 74
     1
 75
     0
 76
     0
 77
     0
 78
     0
140
0.18
141
0.09
142
0.0
143
25.4
144
1.0
145
0.0
146
1.0
147
0.09
170
     0
171
     2
172
     1
173
     0
174
     0
175
     0
176
     0
177
     0
178
     0
270
     2
271
     4
272
     4
273
     2
274
     2
275
     0
280
     0
281
     0
282
     0
283
     1
284
     0
285
     0
286
     0
287
     0
288
     0
340
17
  0
ENDTAB
  0
TABLE
  2
BLOCK_RECORD
  5
1
100
AcDbSymbolTable
 70
    22
  0
BLOCK_RECORD
  5
A
100
AcDbSymbolTableRecord
100
AcDbBlockTableRecord
  2
*MODEL_SPACE
  0
BLOCK_RECORD
  5
B
100
AcDbSymbolTableRecord
100
AcDbBlockTableRecord
  2
*PAPER_SPACE
  0
BLOCK_RECORD
  5
28
100
AcDbSymbolTableRecord
100
AcDbBlockTableRecord
  2
_EX_NORM
  0
BLOCK_RECORD
  5
29
100
AcDbSymbolTableRecord
100
AcDbBlockTableRecord
  2
_EX_BNORM
  0
BLOCK_RECORD
  5
2A
100
AcDbSymbolTableRecord
100
AcDbBlockTableRecord
  2
_EX_BCIR
  0
BLOCK_RECORD
  5
2B
100
AcDbSymbolTableRecord
100
AcDbBlockTableRecord
  2
_EX_RCIVIL
  0
BLOCK_RECORD
  5
2C
100
AcDbSymbolTableRecord
100
AcDbBlockTableRecord
  2
_EX_SLANT
  0
BLOCK_RECORD
  5
2D
100
AcDbSymbolTableRecord
100
AcDbBlockTableRecord
  2
_EX_NONE
  0
BLOCK_RECORD
  5
2E
100
AcDbSymbolTableRecord
100
AcDbBlockTableRecord
  2
_EX_CIVIL
  0
BLOCK_RECORD
  5
2F
100
AcDbSymbolTableRecord
100
AcDbBlockTableRecord
  2
_EX_WCIR
  0
BLOCK_RECORD
  5
30
100
AcDbSymbolTableRecord
100
AcDbBlockTableRecord
  2
_EX_WCIR2
  0
BLOCK_RECORD
  5
31
100
AcDbSymbolTableRecord
100
AcDbBlockTableRecord
  2
_EX_WNORM
  0
BLOCK_RECORD
  5
32
100
AcDbSymbolTableRecord
100
AcDbBlockTableRecord
  2
_EX_NNORM
  0
BLOCK_RECORD
  5
33
100
AcDbSymbolTableRecord
100
AcDbBlockTableRecord
  2
_EX_BBOX
  0
BLOCK_RECORD
  5
34
100
AcDbSymbolTableRecord
100
AcDbBlockTableRecord
  2
_EX_WBOX
  0
BLOCK_RECORD
  5
35
100
AcDbSymbolTableRecord
100
AcDbBlockTableRecord
  2
_EX_INTEGRAL
  0
BLOCK_RECORD
  5
404
100
AcDbSymbolTableRecord
100
AcDbBlockTableRecord
  2
*D14
  0
BLOCK_RECORD
  5
411
100
AcDbSymbolTableRecord
100
AcDbBlockTableRecord
  2
*D15
  0
BLOCK_RECORD
  5
41D
100
AcDbSymbolTableRecord
100
AcDbBlockTableRecord
  2
*D16
  0
BLOCK_RECORD
  5
429
100
AcDbSymbolTableRecord
100
AcDbBlockTableRecord
  2
*D17
  0
BLOCK_RECORD
  5
435
100
AcDbSymbolTableRecord
100
AcDbBlockTableRecord
  2
*D18
  0
BLOCK_RECORD
  5
441
100
AcDbSymbolTableRecord
100
AcDbBlockTableRecord
  2
*D19
  0
BLOCK_RECORD
  5
44D
100
AcDbSymbolTableRecord
100
AcDbBlockTableRecord
  2
*D20
  0
BLOCK_RECORD
  5
459
100
AcDbSymbolTableRecord
100
AcDbBlockTableRecord
  2
*D21
  0
ENDTAB
  0
ENDSEC
  0
SECTION
  2
BLOCKS
  0
BLOCK
  5
D
100
AcDbEntity
  8
0
100
AcDbBlockBegin
  2
*MODEL_SPACE
 70
     0
 10
0.0
 20
0.0
 30
0.0
  3
*MODEL_SPACE
  1

  0
ENDBLK
  5
E
100
AcDbEntity
  8
0
100
AcDbBlockEnd
  0
BLOCK
  5
F
100
AcDbEntity
 67
     1
  8
0
100
AcDbBlockBegin
  2
*PAPER_SPACE
 70
     0
 10
0.0
 20
0.0
 30
0.0
  3
*PAPER_SPACE
  1

  0
ENDBLK
  5
10
100
AcDbEntity
 67
     1
  8
0
100
AcDbBlockEnd
  0
BLOCK
  5
36
100
AcDbEntity
  8
0
100
AcDbBlockBegin
  2
_EX_NORM
 70
     0
 10
0.0
 20
0.0
 30
0.0
  3
_EX_NORM
  1

  0
LINE
  5
37
100
AcDbEntity
  8
0
  6
CONTINUOUS
 62
     0
100
AcDbLine
 10
0.0
 20
0.0
 30
0.0
 11
-1.0
 21
0.0
 31
0.0
  0
LINE
  5
38
100
AcDbEntity
  8
0
  6
CONTINUOUS
 62
     0
100
AcDbLine
 10
0.0
 20
0.0
 30
0.0
 11
-1.0
 21
0.166667
 31
0.0
  0
LINE
  5
39
100
AcDbEntity
  8
0
  6
CONTINUOUS
 62
     0
100
AcDbLine
 10
0.0
 20
0.0
 30
0.0
 11
-1.0
 21
-0.166667
 31
0.0
  0
ENDBLK
  5
3A
100
AcDbEntity
  8
0
100
AcDbBlockEnd
  0
BLOCK
  5
3B
100
AcDbEntity
  8
0
100
AcDbBlockBegin
  2
_EX_BNORM
 70
     0
 10
0.0
 20
0.0
 30
0.0
  3
_EX_BNORM
  1

  0
LINE
  5
3C
100
AcDbEntity
  8
0
  6
CONTINUOUS
 62
     0
100
AcDbLine
 10
0.0
 20
0.0
 30
0.0
 11
-1.0
 21
0.0
 31
0.0
  0
LINE
  5
3D
100
AcDbEntity
  8
0
  6
CONTINUOUS
 62
     0
100
AcDbLine
 10
0.0
 20
0.0
 30
0.0
 11
-1.0
 21
0.166667
 31
0.0
  0
LINE
  5
3E
100
AcDbEntity
  8
0
  6
CONTINUOUS
 62
     0
100
AcDbLine
 10
0.0
 20
0.0
 30
0.0
 11
-1.0
 21
-0.166667
 31
0.0
  0
LINE
  5
3F
100
AcDbEntity
  8
0
  6
CONTINUOUS
 62
     0
100
AcDbLine
 10
0.0
 20
0.0
 30
0.0
 11
-1.0
 21
0.083333
 31
0.0
  0
LINE
  5
40
100
AcDbEntity
  8
0
  6
CONTINUOUS
 62
     0
100
AcDbLine
 10
0.0
 20
0.0
 30
0.0
 11
-1.0
 21
-0.083333
 31
0.0
  0
LINE
  5
41
100
AcDbEntity
  8
0
  6
CONTINUOUS
 62
     0
100
AcDbLine
 10
-1.0
 20
0.166667
 30
0.0
 11
-1.0
 21
-0.166667
 31
0.0
  0
ENDBLK
  5
42
100
AcDbEntity
  8
0
100
AcDbBlockEnd
  0
BLOCK
  5
43
100
AcDbEntity
  8
0
100
AcDbBlockBegin
  2
_EX_BCIR
 70
     0
 10
0.0
 20
0.0
 30
0.0
  3
_EX_BCIR
  1

  0
LINE
  5
44
100
AcDbEntity
  8
0
  6
CONTINUOUS
 62
     0
100
AcDbLine
 10
0.0
 20
0.0
 30
0.0
 11
-1.0
 21
0.0
 31
0.0
  0
CIRCLE
  5
45
100
AcDbEntity
  8
0
  6
CONTINUOUS
 62
     0
100
AcDbCircle
 10
0.0
 20
0.0
 30
0.0
 40
0.5
  0
CIRCLE
  5
46
100
AcDbEntity
  8
0
  6
CONTINUOUS
 62
     0
100
AcDbCircle
 10
0.0
 20
0.0
 30
0.0
 40
0.25
  0
ENDBLK
  5
47
100
AcDbEntity
  8
0
100
AcDbBlockEnd
  0
BLOCK
  5
48
100
AcDbEntity
  8
0
100
AcDbBlockBegin
  2
_EX_RCIVIL
 70
     0
 10
0.0
 20
0.0
 30
0.0
  3
_EX_RCIVIL
  1

  0
LINE
  5
49
100
AcDbEntity
  8
0
  6
CONTINUOUS
 62
     0
100
AcDbLine
 10
0.0
 20
0.0
 30
0.0
 11
-1.0
 21
0.0
 31
0.0
  0
LINE
  5
4A
100
AcDbEntity
  8
0
  6
CONTINUOUS
 62
     0
100
AcDbLine
 10
-1.0
 20
-0.25
 30
0.0
 11
0.0
 21
-0.25
 31
0.0
  0
LINE
  5
4B
100
AcDbEntity
  8
0
  6
CONTINUOUS
 62
     0
100
AcDbLine
 10
-1.0
 20
-0.125
 30
0.0
 11
0.0
 21
-0.125
 31
0.0
  0
ENDBLK
  5
4C
100
AcDbEntity
  8
0
100
AcDbBlockEnd
  0
BLOCK
  5
4D
100
AcDbEntity
  8
0
100
AcDbBlockBegin
  2
_EX_SLANT
 70
     0
 10
0.0
 20
0.0
 30
0.0
  3
_EX_SLANT
  1

  0
LINE
  5
4E
100
AcDbEntity
  8
0
  6
CONTINUOUS
 62
     0
100
AcDbLine
 10
0.0
 20
0.0
 30
0.0
 11
-1.0
 21
0.0
 31
0.0
  0
LINE
  5
4F
100
AcDbEntity
  8
0
  6
CONTINUOUS
 62
     0
100
AcDbLine
 10
0.707107
 20
0.707107
 30
0.0
 11
-0.707107
 21
-0.707107
 31
0.0
  0
ENDBLK
  5
50
100
AcDbEntity
  8
0
100
AcDbBlockEnd
  0
BLOCK
  5
51
100
AcDbEntity
  8
0
100
AcDbBlockBegin
  2
_EX_NONE
 70
     0
 10
0.0
 20
0.0
 30
0.0
  3
_EX_NONE
  1

  0
LINE
  5
52
100
AcDbEntity
  8
0
  6
CONTINUOUS
 62
     0
100
AcDbLine
 10
0.0
 20
0.0
 30
0.0
 11
-1.0
 21
0.0
 31
0.0
  0
ENDBLK
  5
53
100
AcDbEntity
  8
0
100
AcDbBlockEnd
  0
BLOCK
  5
54
100
AcDbEntity
  8
0
100
AcDbBlockBegin
  2
_EX_CIVIL
 70
     0
 10
0.0
 20
0.0
 30
0.0
  3
_EX_CIVIL
  1

  0
LINE
  5
55
100
AcDbEntity
  8
0
  6
CONTINUOUS
 62
     0
100
AcDbLine
 10
0.0
 20
0.0
 30
0.0
 11
-1.0
 21
0.0
 31
0.0
  0
LINE
  5
56
100
AcDbEntity
  8
0
  6
CONTINUOUS
 62
     0
100
AcDbLine
 10
-1.0
 20
0.25
 30
0.0
 11
0.0
 21
0.25
 31
0.0
  0
LINE
  5
57
100
AcDbEntity
  8
0
  6
CONTINUOUS
 62
     0
100
AcDbLine
 10
-1.0
 20
0.125
 30
0.0
 11
0.0
 21
0.125
 31
0.0
  0
ENDBLK
  5
58
100
AcDbEntity
  8
0
100
AcDbBlockEnd
  0
BLOCK
  5
59
100
AcDbEntity
  8
0
100
AcDbBlockBegin
  2
_EX_WCIR
 70
     0
 10
0.0
 20
0.0
 30
0.0
  3
_EX_WCIR
  1

  0
LINE
  5
5A
100
AcDbEntity
  8
0
  6
CONTINUOUS
 62
     0
100
AcDbLine
 10
0.0
 20
0.0
 30
0.0
 11
-1.0
 21
0.0
 31
0.0
  0
CIRCLE
  5
5B
100
AcDbEntity
  8
0
  6
CONTINUOUS
 62
     0
100
AcDbCircle
 10
0.0
 20
0.0
 30
0.0
 40
0.5
  0
ENDBLK
  5
5C
100
AcDbEntity
  8
0
100
AcDbBlockEnd
  0
BLOCK
  5
5D
100
AcDbEntity
  8
0
100
AcDbBlockBegin
  2
_EX_WCIR2
 70
     0
 10
0.0
 20
0.0
 30
0.0
  3
_EX_WCIR2
  1

  0
LINE
  5
5E
100
AcDbEntity
  8
0
  6
CONTINUOUS
 62
     0
100
AcDbLine
 10
-0.5
 20
0.0
 30
0.0
 11
-1.0
 21
0.0
 31
0.0
  0
CIRCLE
  5
5F
100
AcDbEntity
  8
0
  6
CONTINUOUS
 62
     0
100
AcDbCircle
 10
0.0
 20
0.0
 30
0.0
 40
0.5
  0
ENDBLK
  5
60
100
AcDbEntity
  8
0
100
AcDbBlockEnd
  0
BLOCK
  5
61
100
AcDbEntity
  8
0
100
AcDbBlockBegin
  2
_EX_WNORM
 70
     0
 10
0.0
 20
0.0
 30
0.0
  3
_EX_WNORM
  1

  0
LINE
  5
62
100
AcDbEntity
  8
0
  6
CONTINUOUS
 62
     0
100
AcDbLine
 10
-1.0
 20
0.0
 30
0.0
 11
-1.0
 21
0.0
 31
0.0
  0
LINE
  5
63
100
AcDbEntity
  8
0
  6
CONTINUOUS
 62
     0
100
AcDbLine
 10
0.0
 20
0.0
 30
0.0
 11
-1.0
 21
0.166667
 31
0.0
  0
LINE
  5
64
100
AcDbEntity
  8
0
  6
CONTINUOUS
 62
     0
100
AcDbLine
 10
0.0
 20
0.0
 30
0.0
 11
-1.0
 21
-0.166667
 31
0.0
  0
LINE
  5
65
100
AcDbEntity
  8
0
  6
CONTINUOUS
 62
     0
100
AcDbLine
 10
-1.0
 20
0.166667
 30
0.0
 11
-1.0
 21
-0.166667
 31
0.0
  0
ENDBLK
  5
66
100
AcDbEntity
  8
0
100
AcDbBlockEnd
  0
BLOCK
  5
67
100
AcDbEntity
  8
0
100
AcDbBlockBegin
  2
_EX_NNORM
 70
     0
 10
0.0
 20
0.0
 30
0.0
  3
_EX_NNORM
  1

  0
LINE
  5
68
100
AcDbEntity
  8
0
  6
CONTINUOUS
 62
     0
100
AcDbLine
 10
0.0
 20
0.0
 30
0.0
 11
-1.0
 21
0.0
 31
0.0
  0
LINE
  5
69
100
AcDbEntity
  8
0
  6
CONTINUOUS
 62
     0
100
AcDbLine
 10
0.0
 20
0.0
 30
0.0
 11
-1.0
 21
0.166667
 31
0.0
  0
LINE
  5
6A
100
AcDbEntity
  8
0
  6
CONTINUOUS
 62
     0
100
AcDbLine
 10
0.0
 20
0.0
 30
0.0
 11
-1.0
 21
-0.166667
 31
0.0
  0
LINE
  5
6B
100
AcDbEntity
  8
0
  6
CONTINUOUS
 62
     0
100
AcDbLine
 10
-1.0
 20
0.166667
 30
0.0
 11
-1.0
 21
-0.166667
 31
0.0
  0
ENDBLK
  5
6C
100
AcDbEntity
  8
0
100
AcDbBlockEnd
  0
BLOCK
  5
6D
100
AcDbEntity
  8
0
100
AcDbBlockBegin
  2
_EX_BBOX
 70
     0
 10
0.0
 20
0.0
 30
0.0
  3
_EX_BBOX
  1

  0
LINE
  5
6E
100
AcDbEntity
  8
0
  6
CONTINUOUS
 62
     0
100
AcDbLine
 10
0.0
 20
0.0
 30
0.0
 11
-1.0
 21
0.0
 31
0.0
  0
LINE
  5
6F
100
AcDbEntity
  8
0
  6
CONTINUOUS
 62
     0
100
AcDbLine
 10
-0.5
 20
0.5
 30
0.0
 11
0.5
 21
0.5
 31
0.0
  0
LINE
  5
70
100
AcDbEntity
  8
0
  6
CONTINUOUS
 62
     0
100
AcDbLine
 10
0.5
 20
0.5
 30
0.0
 11
0.5
 21
-0.5
 31
0.0
  0
LINE
  5
71
100
AcDbEntity
  8
0
  6
CONTINUOUS
 62
     0
100
AcDbLine
 10
0.5
 20
-0.5
 30
0.0
 11
-0.5
 21
-0.5
 31
0.0
  0
LINE
  5
72
100
AcDbEntity
  8
0
  6
CONTINUOUS
 62
     0
100
AcDbLine
 10
-0.5
 20
-0.5
 30
0.0
 11
-0.5
 21
0.5
 31
0.0
  0
LINE
  5
73
100
AcDbEntity
  8
0
  6
CONTINUOUS
 62
     0
100
AcDbLine
 10
-0.25
 20
0.25
 30
0.0
 11
0.25
 21
0.25
 31
0.0
  0
LINE
  5
74
100
AcDbEntity
  8
0
  6
CONTINUOUS
 62
     0
100
AcDbLine
 10
0.25
 20
0.25
 30
0.0
 11
0.25
 21
-0.25
 31
0.0
  0
LINE
  5
75
100
AcDbEntity
  8
0
  6
CONTINUOUS
 62
     0
100
AcDbLine
 10
0.25
 20
-0.25
 30
0.0
 11
-0.25
 21
-0.25
 31
0.0
  0
LINE
  5
76
100
AcDbEntity
  8
0
  6
CONTINUOUS
 62
     0
100
AcDbLine
 10
-0.25
 20
-0.25
 30
0.0
 11
-0.25
 21
0.25
 31
0.0
  0
ENDBLK
  5
77
100
AcDbEntity
  8
0
100
AcDbBlockEnd
  0
BLOCK
  5
78
100
AcDbEntity
  8
0
100
AcDbBlockBegin
  2
_EX_WBOX
 70
     0
 10
0.0
 20
0.0
 30
0.0
  3
_EX_WBOX
  1

  0
LINE
  5
79
100
AcDbEntity
  8
0
  6
CONTINUOUS
 62
     0
100
AcDbLine
 10
-0.5
 20
0.0
 30
0.0
 11
-1.0
 21
0.0
 31
0.0
  0
LINE
  5
7A
100
AcDbEntity
  8
0
  6
CONTINUOUS
 62
     0
100
AcDbLine
 10
-0.5
 20
0.5
 30
0.0
 11
0.5
 21
0.5
 31
0.0
  0
LINE
  5
7B
100
AcDbEntity
  8
0
  6
CONTINUOUS
 62
     0
100
AcDbLine
 10
0.5
 20
0.5
 30
0.0
 11
0.5
 21
-0.5
 31
0.0
  0
LINE
  5
7C
100
AcDbEntity
  8
0
  6
CONTINUOUS
 62
     0
100
AcDbLine
 10
0.5
 20
-0.5
 30
0.0
 11
-0.5
 21
-0.5
 31
0.0
  0
LINE
  5
7D
100
AcDbEntity
  8
0
  6
CONTINUOUS
 62
     0
100
AcDbLine
 10
-0.5
 20
-0.5
 30
0.0
 11
-0.5
 21
0.5
 31
0.0
  0
ENDBLK
  5
7E
100
AcDbEntity
  8
0
100
AcDbBlockEnd
  0
BLOCK
  5
7F
100
AcDbEntity
  8
0
100
AcDbBlockBegin
  2
_EX_INTEGRAL
 70
     0
 10
0.0
 20
0.0
 30
0.0
  3
_EX_INTEGRAL
  1

  0
LINE
  5
80
100
AcDbEntity
  8
0
  6
CONTINUOUS
 62
     0
100
AcDbLine
 10
0.0
 20
0.0
 30
0.0
 11
-1.0
 21
0.0
 31
0.0
  0
ARC
  5
81
100
AcDbEntity
  8
0
  6
CONTINUOUS
 62
     0
100
AcDbCircle
 10
0.542115
 20
0.164992
 30
0.0
 40
0.56667
100
AcDbArc
 50
73.07249
 51
196.927513
  0
ARC
  5
82
100
AcDbEntity
  8
0
  6
CONTINUOUS
 62
     0
100
AcDbCircle
 10
-0.542115
 20
-0.164992
 30
0.0
 40
0.56667
100
AcDbArc
 50
253.072487
 51
16.927513
  0
ENDBLK
  5
83
100
AcDbEntity
  8
0
100
AcDbBlockEnd
  0
BLOCK
  5
405
100
AcDbEntity
  8
0
100
AcDbBlockBegin
  2
*D14
 70
    65
 10
0.0
 20
0.0
 30
0.0
  3
*D14
  1

  0
LINE
  5
406
100
AcDbEntity
  8
LAY-3
  6
CONTINUOUS
 62
     3
100
AcDbLine
 10
810.364876
 20
2118.111027
 30
0.0
 11
1181.0
 21
2118.111027
 31
0.0
  0
LINE
  5
407
100
AcDbEntity
  8
LAY-3
  6
CONTINUOUS
 62
     3
100
AcDbLine
 10
810.364876
 20
1752.111027
 30
0.0
 11
1181.0
 21
1752.111027
 31
0.0
  0
TEXT
  5
408
100
AcDbEntity
  8
LAY-3
  6
CONTINUOUS
 62
     2
100
AcDbText
 10
1167.5
 20
1893.111027
 30
0.0
 40
40.0
  1
366
 50
90.0
 41
0.84
  7
EXCADSTD
 72
     1
 11
1167.5
 21
1935.111027
 31
0.0
100
AcDbText
  0
LINE
  5
409
100
AcDbEntity
  8
LAY-3
  6
CONTINUOUS
 62
     3
100
AcDbLine
 10
1171.0
 20
2118.111027
 30
0.0
 11
1171.0
 21
1752.111027
 31
0.0
  0
LINE
  5
40A
100
AcDbEntity
  8
LAY-3
  6
CONTINUOUS
 62
     3
100
AcDbLine
 10
1176.0
 20
2088.111027
 30
0.0
 11
1171.0
 21
2118.111027
 31
0.0
  0
LINE
  5
40B
100
AcDbEntity
  8
LAY-3
  6
CONTINUOUS
 62
     3
100
AcDbLine
 10
1171.0
 20
2118.111027
 30
0.0
 11
1166.0
 21
2088.111027
 31
0.0
  0
LINE
  5
40C
100
AcDbEntity
  8
LAY-3
  6
CONTINUOUS
 62
     3
100
AcDbLine
 10
1166.0
 20
1782.111027
 30
0.0
 11
1171.0
 21
1752.111027
 31
0.0
  0
LINE
  5
40D
100
AcDbEntity
  8
LAY-3
  6
CONTINUOUS
 62
     3
100
AcDbLine
 10
1171.0
 20
1752.111027
 30
0.0
 11
1176.0
 21
1782.111027
 31
0.0
  0
ENDBLK
  5
40E
100
AcDbEntity
  8
0
100
AcDbBlockEnd
  0
BLOCK
  5
412
100
AcDbEntity
  8
0
100
AcDbBlockBegin
  2
*D15
 70
    65
 10
0.0
 20
0.0
 30
0.0
  3
*D15
  1

  0
LINE
  5
413
100
AcDbEntity
  8
LAY-3
  6
CONTINUOUS
 62
     3
100
AcDbLine
 10
615.864877
 20
2046.276625
 30
0.0
 11
615.864877
 21
2184.0
 31
0.0
  0
LINE
  5
414
100
AcDbEntity
  8
LAY-3
  6
CONTINUOUS
 62
     3
100
AcDbLine
 10
1095.864876
 20
1942.111027
 30
0.0
 11
1095.864876
 21
2184.0
 31
0.0
  0
TEXT
  5
415
100
AcDbEntity
  8
LAY-3
  6
CONTINUOUS
 62
     2
100
AcDbText
 10
813.864877
 20
2177.5
 30
0.0
 40
40.0
  1
480
 41
0.84
  7
EXCADSTD
 72
     1
 11
855.864877
 21
2177.5
 31
0.0
100
AcDbText
  0
LINE
  5
416
100
AcDbEntity
  8
LAY-3
  6
CONTINUOUS
 62
     3
100
AcDbLine
 10
615.864877
 20
2174.0
 30
0.0
 11
1095.864876
 21
2174.0
 31
0.0
  0
LINE
  5
417
100
AcDbEntity
  8
LAY-3
  6
CONTINUOUS
 62
     3
100
AcDbLine
 10
645.864877
 20
2179.0
 30
0.0
 11
615.864877
 21
2174.0
 31
0.0
  0
LINE
  5
418
100
AcDbEntity
  8
LAY-3
  6
CONTINUOUS
 62
     3
100
AcDbLine
 10
615.864877
 20
2174.0
 30
0.0
 11
645.864877
 21
2169.0
 31
0.0
  0
LINE
  5
419
100
AcDbEntity
  8
LAY-3
  6
CONTINUOUS
 62
     3
100
AcDbLine
 10
1065.864876
 20
2169.0
 30
0.0
 11
1095.864876
 21
2174.0
 31
0.0
  0
LINE
  5
41A
100
AcDbEntity
  8
LAY-3
  6
CONTINUOUS
 62
     3
100
AcDbLine
 10
1095.864876
 20
2174.0
 30
0.0
 11
1065.864876
 21
2179.0
 31
0.0
  0
ENDBLK
  5
41B
100
AcDbEntity
  8
0
100
AcDbBlockEnd
  0
BLOCK
  5
41E
100
AcDbEntity
  8
0
100
AcDbBlockBegin
  2
*D16
 70
    65
 10
0.0
 20
0.0
 30
0.0
  3
*D16
  1

  0
LINE
  5
41F
100
AcDbEntity
  8
LAY-3
  6
CONTINUOUS
 62
     3
100
AcDbLine
 10
722.864876
 20
1928.111027
 30
0.0
 11
722.864876
 21
1680.0
 31
0.0
  0
LINE
  5
420
100
AcDbEntity
  8
LAY-3
  6
CONTINUOUS
 62
     3
100
AcDbLine
 10
1026.864876
 20
1928.111027
 30
0.0
 11
1026.864876
 21
1680.0
 31
0.0
  0
TEXT
  5
421
100
AcDbEntity
  8
LAY-3
  6
CONTINUOUS
 62
     2
100
AcDbText
 10
832.864876
 20
1693.5
 30
0.0
 40
40.0
  1
304
 41
0.84
  7
EXCADSTD
 72
     1
 11
874.864876
 21
1693.5
 31
0.0
100
AcDbText
  0
LINE
  5
422
100
AcDbEntity
  8
LAY-3
  6
CONTINUOUS
 62
     3
100
AcDbLine
 10
722.864876
 20
1690.0
 30
0.0
 11
1026.864876
 21
1690.0
 31
0.0
  0
LINE
  5
423
100
AcDbEntity
  8
LAY-3
  6
CONTINUOUS
 62
     3
100
AcDbLine
 10
752.864876
 20
1695.0
 30
0.0
 11
722.864876
 21
1690.0
 31
0.0
  0
LINE
  5
424
100
AcDbEntity
  8
LAY-3
  6
CONTINUOUS
 62
     3
100
AcDbLine
 10
722.864876
 20
1690.0
 30
0.0
 11
752.864876
 21
1685.0
 31
0.0
  0
LINE
  5
425
100
AcDbEntity
  8
LAY-3
  6
CONTINUOUS
 62
     3
100
AcDbLine
 10
996.864876
 20
1685.0
 30
0.0
 11
1026.864876
 21
1690.0
 31
0.0
  0
LINE
  5
426
100
AcDbEntity
  8
LAY-3
  6
CONTINUOUS
 62
     3
100
AcDbLine
 10
1026.864876
 20
1690.0
 30
0.0
 11
996.864876
 21
1695.0
 31
0.0
  0
ENDBLK
  5
427
100
AcDbEntity
  8
0
100
AcDbBlockEnd
  0
BLOCK
  5
42A
100
AcDbEntity
  8
0
100
AcDbBlockBegin
  2
*D17
 70
    65
 10
0.0
 20
0.0
 30
0.0
  3
*D17
  1

  0
LINE
  5
42B
100
AcDbEntity
  8
LAY-3
  6
CONTINUOUS
 62
     3
100
AcDbLine
 10
815.864877
 20
2035.111027
 30
0.0
 11
688.0
 21
2035.111027
 31
0.0
  0
LINE
  5
42C
100
AcDbEntity
  8
LAY-3
  6
CONTINUOUS
 62
     3
100
AcDbLine
 10
815.864877
 20
1835.111027
 30
0.0
 11
688.0
 21
1835.111027
 31
0.0
  0
TEXT
  5
42D
100
AcDbEntity
  8
LAY-3
  6
CONTINUOUS
 62
     2
100
AcDbText
 10
694.5
 20
1893.111027
 30
0.0
 40
40.0
  1
200
 50
90.0
 41
0.84
  7
EXCADSTD
 72
     1
 11
694.5
 21
1935.111027
 31
0.0
100
AcDbText
  0
LINE
  5
42E
100
AcDbEntity
  8
LAY-3
  6
CONTINUOUS
 62
     3
100
AcDbLine
 10
698.0
 20
2035.111027
 30
0.0
 11
698.0
 21
1835.111027
 31
0.0
  0
LINE
  5
42F
100
AcDbEntity
  8
LAY-3
  6
CONTINUOUS
 62
     3
100
AcDbLine
 10
703.0
 20
2005.111027
 30
0.0
 11
698.0
 21
2035.111027
 31
0.0
  0
LINE
  5
430
100
AcDbEntity
  8
LAY-3
  6
CONTINUOUS
 62
     3
100
AcDbLine
 10
698.0
 20
2035.111027
 30
0.0
 11
693.0
 21
2005.111027
 31
0.0
  0
LINE
  5
431
100
AcDbEntity
  8
LAY-3
  6
CONTINUOUS
 62
     3
100
AcDbLine
 10
693.0
 20
1865.111027
 30
0.0
 11
698.0
 21
1835.111027
 31
0.0
  0
LINE
  5
432
100
AcDbEntity
  8
LAY-3
  6
CONTINUOUS
 62
     3
100
AcDbLine
 10
698.0
 20
1835.111027
 30
0.0
 11
703.0
 21
1865.111027
 31
0.0
  0
ENDBLK
  5
433
100
AcDbEntity
  8
0
100
AcDbBlockEnd
  0
BLOCK
  5
436
100
AcDbEntity
  8
0
100
AcDbBlockBegin
  2
*D18
 70
    65
 10
0.0
 20
0.0
 30
0.0
  3
*D18
  1

  0
LINE
  5
437
100
AcDbEntity
  8
LAY-3
  6
CONTINUOUS
 62
     3
100
AcDbLine
 10
574.698195
 20
2005.111027
 30
0.0
 11
539.0
 21
2005.111027
 31
0.0
  0
LINE
  5
438
100
AcDbEntity
  8
LAY-3
  6
CONTINUOUS
 62
     3
100
AcDbLine
 10
582.41709
 20
1865.111027
 30
0.0
 11
539.0
 21
1865.111027
 31
0.0
  0
TEXT
  5
439
100
AcDbEntity
  8
LAY-3
  6
CONTINUOUS
 62
     2
100
AcDbText
 10
545.5
 20
1893.111027
 30
0.0
 40
40.0
  1
140
 50
90.0
 41
0.84
  7
EXCADSTD
 72
     1
 11
545.5
 21
1935.111027
 31
0.0
100
AcDbText
  0
LINE
  5
43A
100
AcDbEntity
  8
LAY-3
  6
CONTINUOUS
 62
     3
100
AcDbLine
 10
549.0
 20
2005.111027
 30
0.0
 11
549.0
 21
1865.111027
 31
0.0
  0
LINE
  5
43B
100
AcDbEntity
  8
LAY-3
  6
CONTINUOUS
 62
     3
100
AcDbLine
 10
554.0
 20
1975.111027
 30
0.0
 11
549.0
 21
2005.111027
 31
0.0
  0
LINE
  5
43C
100
AcDbEntity
  8
LAY-3
  6
CONTINUOUS
 62
     3
100
AcDbLine
 10
549.0
 20
2005.111027
 30
0.0
 11
544.0
 21
1975.111027
 31
0.0
  0
LINE
  5
43D
100
AcDbEntity
  8
LAY-3
  6
CONTINUOUS
 62
     3
100
AcDbLine
 10
544.0
 20
1895.111027
 30
0.0
 11
549.0
 21
1865.111027
 31
0.0
  0
LINE
  5
43E
100
AcDbEntity
  8
LAY-3
  6
CONTINUOUS
 62
     3
100
AcDbLine
 10
549.0
 20
1865.111027
 30
0.0
 11
554.0
 21
1895.111027
 31
0.0
  0
ENDBLK
  5
43F
100
AcDbEntity
  8
0
100
AcDbBlockEnd
  0
BLOCK
  5
442
100
AcDbEntity
  8
0
100
AcDbBlockBegin
  2
*D19
 70
    65
 10
0.0
 20
0.0
 30
0.0
  3
*D19
  1

  0
LINE
  5
443
100
AcDbEntity
  8
LAY-3
  6
CONTINUOUS
 62
     3
100
AcDbLine
 10
594.364877
 20
1328.0
 30
0.0
 11
537.6
 21
1328.0
 31
0.0
  0
LINE
  5
444
100
AcDbEntity
  8
LAY-3
  6
CONTINUOUS
 62
     3
100
AcDbLine
 10
604.364877
 20
1233.0
 30
0.0
 11
537.6
 21
1233.0
 31
0.0
  0
TEXT
  5
445
100
AcDbEntity
  8
LAY-3
  6
CONTINUOUS
 62
     2
100
AcDbText
 10
544.1
 20
1251.1
 30
0.0
 40
40.0
  1
95
 50
90.0
 41
0.84
  7
EXCADSTD
 72
     1
 11
544.1
 21
1280.5
 31
0.0
100
AcDbText
  0
LINE
  5
446
100
AcDbEntity
  8
LAY-3
  6
CONTINUOUS
 62
     3
100
AcDbLine
 10
547.6
 20
1328.0
 30
0.0
 11
547.6
 21
1233.0
 31
0.0
  0
LINE
  5
447
100
AcDbEntity
  8
LAY-3
  6
CONTINUOUS
 62
     3
100
AcDbLine
 10
552.6
 20
1298.0
 30
0.0
 11
547.6
 21
1328.0
 31
0.0
  0
LINE
  5
448
100
AcDbEntity
  8
LAY-3
  6
CONTINUOUS
 62
     3
100
AcDbLine
 10
547.6
 20
1328.0
 30
0.0
 11
542.6
 21
1298.0
 31
0.0
  0
LINE
  5
449
100
AcDbEntity
  8
LAY-3
  6
CONTINUOUS
 62
     3
100
AcDbLine
 10
542.6
 20
1263.0
 30
0.0
 11
547.6
 21
1233.0
 31
0.0
  0
LINE
  5
44A
100
AcDbEntity
  8
LAY-3
  6
CONTINUOUS
 62
     3
100
AcDbLine
 10
547.6
 20
1233.0
 30
0.0
 11
552.6
 21
1263.0
 31
0.0
  0
ENDBLK
  5
44B
100
AcDbEntity
  8
0
100
AcDbBlockEnd
  0
BLOCK
  5
44E
100
AcDbEntity
  8
0
100
AcDbBlockBegin
  2
*D20
 70
    65
 10
0.0
 20
0.0
 30
0.0
  3
*D20
  1

  0
LINE
  5
44F
100
AcDbEntity
  8
LAY-3
  6
CONTINUOUS
 62
     3
100
AcDbLine
 10
645.864877
 20
1382.6
 30
0.0
 11
645.864877
 21
1215.0
 31
0.0
  0
LINE
  5
450
100
AcDbEntity
  8
LAY-3
  6
CONTINUOUS
 62
     3
100
AcDbLine
 10
1095.774057
 20
1328.245972
 30
0.0
 11
1095.774057
 21
1215.0
 31
0.0
  0
TEXT
  5
451
100
AcDbEntity
  8
LAY-3
  6
CONTINUOUS
 62
     2
100
AcDbText
 10
828.819467
 20
1228.5
 30
0.0
 40
40.0
  1
450
 41
0.84
  7
EXCADSTD
 72
     1
 11
870.819467
 21
1228.5
 31
0.0
100
AcDbText
  0
LINE
  5
452
100
AcDbEntity
  8
LAY-3
  6
CONTINUOUS
 62
     3
100
AcDbLine
 10
645.864877
 20
1225.0
 30
0.0
 11
1095.774057
 21
1225.0
 31
0.0
  0
LINE
  5
453
100
AcDbEntity
  8
LAY-3
  6
CONTINUOUS
 62
     3
100
AcDbLine
 10
675.864877
 20
1230.0
 30
0.0
 11
645.864877
 21
1225.0
 31
0.0
  0
LINE
  5
454
100
AcDbEntity
  8
LAY-3
  6
CONTINUOUS
 62
     3
100
AcDbLine
 10
645.864877
 20
1225.0
 30
0.0
 11
675.864877
 21
1220.0
 31
0.0
  0
LINE
  5
455
100
AcDbEntity
  8
LAY-3
  6
CONTINUOUS
 62
     3
100
AcDbLine
 10
1065.774057
 20
1220.0
 30
0.0
 11
1095.774057
 21
1225.0
 31
0.0
  0
LINE
  5
456
100
AcDbEntity
  8
LAY-3
  6
CONTINUOUS
 62
     3
100
AcDbLine
 10
1095.774057
 20
1225.0
 30
0.0
 11
1065.774057
 21
1230.0
 31
0.0
  0
ENDBLK
  5
457
100
AcDbEntity
  8
0
100
AcDbBlockEnd
  0
BLOCK
  5
45A
100
AcDbEntity
  8
0
100
AcDbBlockBegin
  2
*D21
 70
    65
 10
0.0
 20
0.0
 30
0.0
  3
*D21
  1

  0
LINE
  5
45B
100
AcDbEntity
  8
LAY-3
  6
CONTINUOUS
 62
     3
100
AcDbLine
 10
1585.0
 20
1405.494018
 30
0.0
 11
1336.0
 21
1405.494018
 31
0.0
  0
LINE
  5
45C
100
AcDbEntity
  8
LAY-3
  6
CONTINUOUS
 62
     3
100
AcDbLine
 10
1435.199178
 20
1328.0
 30
0.0
 11
1336.0
 21
1328.0
 31
0.0
  0
TEXT
  5
45D
100
AcDbEntity
  8
LAY-3
  6
CONTINUOUS
 62
     2
100
AcDbText
 10
1343.0
 20
1283.797009
 30
0.0
 40
40.0
  1
（77.5）
 50
90.0
 41
0.945
  7
EXCADSTD
 72
     1
 11
1343.0
 21
1366.747009
 31
0.0
100
AcDbText
  0
LINE
  5
45E
100
AcDbEntity
  8
LAY-3
  6
CONTINUOUS
 62
     3
100
AcDbLine
 10
1346.0
 20
1435.494018
 30
0.0
 11
1346.0
 21
1298.0
 31
0.0
  0
LINE
  5
45F
100
AcDbEntity
  8
LAY-3
  6
CONTINUOUS
 62
     3
100
AcDbLine
 10
1341.0
 20
1435.494018
 30
0.0
 11
1346.0
 21
1405.494018
 31
0.0
  0
LINE
  5
460
100
AcDbEntity
  8
LAY-3
  6
CONTINUOUS
 62
     3
100
AcDbLine
 10
1346.0
 20
1405.494018
 30
0.0
 11
1351.0
 21
1435.494018
 31
0.0
  0
LINE
  5
461
100
AcDbEntity
  8
LAY-3
  6
CONTINUOUS
 62
     3
100
AcDbLine
 10
1351.0
 20
1298.0
 30
0.0
 11
1346.0
 21
1328.0
 31
0.0
  0
LINE
  5
462
100
AcDbEntity
  8
LAY-3
  6
CONTINUOUS
 62
     3
100
AcDbLine
 10
1346.0
 20
1328.0
 30
0.0
 11
1341.0
 21
1298.0
 31
0.0
  0
ENDBLK
  5
463
100
AcDbEntity
  8
0
100
AcDbBlockEnd
  0
ENDSEC
  0
SECTION
  2
ENTITIES
  0
LINE
  5
84
100
AcDbEntity
  8
LAY-1
  6
CONTINUOUS
 62
     7
100
AcDbLine
 10
180.0
 20
85.0
 30
0.0
 11
2000.0
 21
85.0
 31
0.0
  0
LINE
  5
85
100
AcDbEntity
  8
LAY-1
  6
CONTINUOUS
 62
     7
100
AcDbLine
 10
2000.0
 20
85.0
 30
0.0
 11
2000.0
 21
2885.0
 31
0.0
  0
LINE
  5
86
100
AcDbEntity
  8
LAY-1
  6
CONTINUOUS
 62
     7
100
AcDbLine
 10
180.0
 20
85.0
 30
0.0
 11
180.0
 21
2885.0
 31
0.0
  0
LINE
  5
87
100
AcDbEntity
  8
LAY-1
  6
CONTINUOUS
 62
     7
100
AcDbLine
 10
180.0
 20
2885.0
 30
0.0
 11
2000.0
 21
2885.0
 31
0.0
  0
LINE
  5
88
100
AcDbEntity
  8
LAY-1
  6
CONTINUOUS
 62
     7
100
AcDbLine
 10
180.0
 20
305.0
 30
0.0
 11
2000.0
 21
305.0
 31
0.0
  0
LINE
  5
89
100
AcDbEntity
  8
LAY-1
  6
CONTINUOUS
 62
     6
100
AcDbLine
 10
2000.0
 20
185.0
 30
0.0
 11
750.0
 21
185.0
 31
0.0
  0
LINE
  5
8A
100
AcDbEntity
  8
LAY-1
  6
CONTINUOUS
 62
     6
100
AcDbLine
 10
1860.0
 20
305.0
 30
0.0
 11
1860.0
 21
185.0
 31
0.0
  0
LINE
  5
8B
100
AcDbEntity
  8
LAY-1
  6
CONTINUOUS
 62
     6
100
AcDbLine
 10
1810.0
 20
305.0
 30
0.0
 11
1810.0
 21
185.0
 31
0.0
  0
LINE
  5
8C
100
AcDbEntity
  8
LAY-1
  6
CONTINUOUS
 62
     6
100
AcDbLine
 10
1440.0
 20
305.0
 30
0.0
 11
1440.0
 21
85.0
 31
0.0
  0
LINE
  5
8D
100
AcDbEntity
  8
LAY-1
  6
CONTINUOUS
 62
     6
100
AcDbLine
 10
1390.0
 20
305.0
 30
0.0
 11
1390.0
 21
85.0
 31
0.0
  0
LINE
  5
8E
100
AcDbEntity
  8
LAY-1
  6
CONTINUOUS
 62
     6
100
AcDbLine
 10
800.0
 20
305.0
 30
0.0
 11
800.0
 21
185.0
 31
0.0
  0
LINE
  5
8F
100
AcDbEntity
  8
LAY-1
  6
CONTINUOUS
 62
     6
100
AcDbLine
 10
750.0
 20
305.0
 30
0.0
 11
750.0
 21
85.0
 31
0.0
  0
LINE
  5
90
100
AcDbEntity
  8
LAY-1
  6
CONTINUOUS
 62
     6
100
AcDbLine
 10
620.0
 20
305.0
 30
0.0
 11
620.0
 21
85.0
 31
0.0
  0
LINE
  5
91
100
AcDbEntity
  8
LAY-1
  6
CONTINUOUS
 62
     6
100
AcDbLine
 10
490.0
 20
305.0
 30
0.0
 11
490.0
 21
85.0
 31
0.0
  0
LINE
  5
92
100
AcDbEntity
  8
LAY-1
  6
CONTINUOUS
 62
     6
100
AcDbLine
 10
335.0
 20
305.0
 30
0.0
 11
335.0
 21
85.0
 31
0.0
  0
LINE
  5
93
100
AcDbEntity
  8
LAY-1
  6
CONTINUOUS
 62
     6
100
AcDbLine
 10
180.0
 20
255.0
 30
0.0
 11
750.0
 21
255.0
 31
0.0
  0
LINE
  5
94
100
AcDbEntity
  8
LAY-1
  6
CONTINUOUS
 62
     6
100
AcDbLine
 10
1892.653809
 20
208.00293
 30
0.0
 11
1969.993897
 21
286.699829
 31
0.0
  0
LINE
  5
95
100
AcDbEntity
  8
LAY-1
  6
EXLTYPE2
 62
     6
100
AcDbLine
 10
180.0
 20
135.0
 30
0.0
 11
490.0
 21
135.0
 31
0.0
  0
CIRCLE
  5
96
100
AcDbEntity
  8
LAY-1
  6
CONTINUOUS
 62
     6
100
AcDbCircle
 10
385.0
 20
110.0
 30
0.0
 40
1.0
  0
CIRCLE
  5
97
100
AcDbEntity
  8
LAY-1
  6
CONTINUOUS
 62
     6
100
AcDbCircle
 10
435.0
 20
110.0
 30
0.0
 40
1.0
  0
TEXT
  5
98
100
AcDbEntity
  8
LAY-1
  6
CONTINUOUS
 62
     2
100
AcDbText
 10
1890.537109
 20
252.722778
 30
0.0
 40
30.0
  1
１
 41
0.826
  7
EXCADSTD
 72
     5
 11
1914.13711
 21
252.722778
 31
0.0
100
AcDbText
  0
TEXT
  5
99
100
AcDbEntity
  8
LAY-1
  6
CONTINUOUS
 62
     2
100
AcDbText
 10
1931.279297
 20
208.348846
 30
0.0
 40
30.0
  1
１０
 41
0.791
  7
EXCADSTD
 72
     5
 11
1983.067198
 21
208.348846
 31
0.0
100
AcDbText
  0
TEXT
  5
9A
100
AcDbEntity
  8
LAY-1
  6
CONTINUOUS
 62
     2
100
AcDbText
 10
202.5
 20
258.75
 30
0.0
 40
42.5
  1
製図
 41
1.087059
  7
EXCADSTD
 72
     5
 11
303.326
 21
258.75
 31
0.0
100
AcDbText
  0
TEXT
  5
9B
100
AcDbEntity
  8
LAY-1
  6
CONTINUOUS
 62
     2
100
AcDbText
 10
357.5
 20
258.75
 30
0.0
 40
42.5
  1
写図
 41
1.087059
  7
EXCADSTD
 72
     5
 11
458.326
 21
258.75
 31
0.0
100
AcDbText
  0
TEXT
  5
9C
100
AcDbEntity
  8
LAY-1
  6
CONTINUOUS
 62
     2
100
AcDbText
 10
507.5
 20
258.75
 30
0.0
 40
42.5
  1
検図
 41
0.938824
  7
EXCADSTD
 72
     5
 11
594.577
 21
258.75
 31
0.0
100
AcDbText
  0
TEXT
  5
9D
100
AcDbEntity
  8
LAY-1
  6
CONTINUOUS
 62
     2
100
AcDbText
 10
637.5
 20
258.75
 30
0.0
 40
42.5
  1
承認
 41
0.938824
  7
EXCADSTD
 72
     5
 11
724.577
 21
258.75
 31
0.0
100
AcDbText
  0
TEXT
  5
9E
100
AcDbEntity
  8
LAY-1
  6
CONTINUOUS
 62
     2
100
AcDbText
 10
755.75
 20
248.75
 30
0.0
 40
42.5
  1
品
 41
0.84
  7
EXCADSTD
 72
     5
 11
789.75
 21
248.75
 31
0.0
100
AcDbText
  0
TEXT
  5
9F
100
AcDbEntity
  8
LAY-1
  6
CONTINUOUS
 62
     2
100
AcDbText
 10
755.75
 20
198.75
 30
0.0
 40
42.5
  1
名
 41
0.84
  7
EXCADSTD
 72
     5
 11
789.75
 21
198.75
 31
0.0
100
AcDbText
  0
TEXT
  5
A0
100
AcDbEntity
  8
LAY-1
  6
CONTINUOUS
 62
     2
100
AcDbText
 10
1395.75
 20
248.75
 30
0.0
 40
42.5
  1
品
 41
0.84
  7
EXCADSTD
 72
     5
 11
1429.75
 21
248.75
 31
0.0
100
AcDbText
  0
TEXT
  5
A1
100
AcDbEntity
  8
LAY-1
  6
CONTINUOUS
 62
     2
100
AcDbText
 10
1395.75
 20
198.75
 30
0.0
 40
42.5
  1
番
 41
0.84
  7
EXCADSTD
 72
     5
 11
1429.75
 21
198.75
 31
0.0
100
AcDbText
  0
TEXT
  5
A2
100
AcDbEntity
  8
LAY-1
  6
CONTINUOUS
 62
     2
100
AcDbText
 10
1816.75
 20
248.75
 30
0.0
 40
42.5
  1
尺
 41
0.84
  7
EXCADSTD
 72
     5
 11
1850.75
 21
248.75
 31
0.0
100
AcDbText
  0
TEXT
  5
A3
100
AcDbEntity
  8
LAY-1
  6
CONTINUOUS
 62
     2
100
AcDbText
 10
1816.75
 20
198.75
 30
0.0
 40
42.5
  1
度
 41
0.84
  7
EXCADSTD
 72
     5
 11
1850.75
 21
198.75
 31
0.0
100
AcDbText
  0
TEXT
  5
A4
100
AcDbEntity
  8
LAY-1
  6
CONTINUOUS
 62
     2
100
AcDbText
 10
1395.75
 20
135.75
 30
0.0
 40
42.5
  1
図
 41
0.84
  7
EXCADSTD
 72
     5
 11
1429.75
 21
135.75
 31
0.0
100
AcDbText
  0
TEXT
  5
A5
100
AcDbEntity
  8
LAY-1
  6
CONTINUOUS
 62
     2
100
AcDbText
 10
1395.75
 20
92.75
 30
0.0
 40
42.5
  1
番
 41
0.84
  7
EXCADSTD
 72
     5
 11
1429.75
 21
92.75
 31
0.0
100
AcDbText
  0
LINE
  5
A6
100
AcDbEntity
  8
LAY-1
  6
CONTINUOUS
 62
     3
100
AcDbLine
 10
827.447754
 20
150.287994
 30
0.0
 11
819.384094
 21
150.287994
 31
0.0
  0
LINE
  5
A7
100
AcDbEntity
  8
LAY-1
  6
CONTINUOUS
 62
     3
100
AcDbLine
 10
827.447754
 20
158.351959
 30
0.0
 11
827.447754
 21
150.287994
 31
0.0
  0
LINE
  5
A8
100
AcDbEntity
  8
LAY-1
  6
CONTINUOUS
 62
     3
100
AcDbLine
 10
819.384094
 20
158.351959
 30
0.0
 11
827.447754
 21
158.351959
 31
0.0
  0
LINE
  5
A9
100
AcDbEntity
  8
LAY-1
  6
CONTINUOUS
 62
     3
100
AcDbLine
 10
819.384094
 20
158.351959
 30
0.0
 11
819.384094
 21
150.287994
 31
0.0
  0
LINE
  5
AA
100
AcDbEntity
  8
LAY-1
  6
CONTINUOUS
 62
     3
100
AcDbLine
 10
816.359192
 20
150.287994
 30
0.0
 11
808.295532
 21
150.287994
 31
0.0
  0
LINE
  5
AB
100
AcDbEntity
  8
LAY-1
  6
CONTINUOUS
 62
     3
100
AcDbLine
 10
816.359192
 20
158.351959
 30
0.0
 11
816.359192
 21
150.287994
 31
0.0
  0
LINE
  5
AC
100
AcDbEntity
  8
LAY-1
  6
CONTINUOUS
 62
     3
100
AcDbLine
 10
808.295532
 20
158.351959
 30
0.0
 11
816.359192
 21
158.351959
 31
0.0
  0
LINE
  5
AD
100
AcDbEntity
  8
LAY-1
  6
CONTINUOUS
 62
     3
100
AcDbLine
 10
808.295532
 20
158.351959
 30
0.0
 11
808.295532
 21
150.287994
 31
0.0
  0
LINE
  5
AE
100
AcDbEntity
  8
LAY-1
  6
CONTINUOUS
 62
     3
100
AcDbLine
 10
799.887329
 20
114.0
 30
0.0
 11
771.0
 21
114.0
 31
0.0
  0
ARC
  5
AF
100
AcDbEntity
  8
LAY-1
  6
CONTINUOUS
 62
     3
100
AcDbCircle
 10
799.887329
 20
132.144073
 30
0.0
 40
18.143997
100
AcDbArc
 50
270.000031
 51
334.000137
  0
LINE
  5
B0
100
AcDbEntity
  8
LAY-1
  6
CONTINUOUS
 62
     3
100
AcDbLine
 10
827.447754
 20
147.264008
 30
0.0
 11
816.193024
 21
124.190125
 31
0.0
  0
LINE
  5
B1
100
AcDbEntity
  8
LAY-1
  6
CONTINUOUS
 62
     3
100
AcDbLine
 10
815.112244
 20
147.264008
 30
0.0
 11
827.447754
 21
147.264008
 31
0.0
  0
LINE
  5
B2
100
AcDbEntity
  8
LAY-1
  6
CONTINUOUS
 62
     3
100
AcDbLine
 10
806.01297
 20
128.60907
 30
0.0
 11
815.112244
 21
147.264008
 31
0.0
  0
ARC
  5
B3
100
AcDbEntity
  8
LAY-1
  6
CONTINUOUS
 62
     3
100
AcDbCircle
 10
798.765503
 20
132.144073
 30
0.0
 40
8.064
100
AcDbArc
 50
270.000031
 51
333.99855
  0
LINE
  5
B4
100
AcDbEntity
  8
LAY-1
  6
CONTINUOUS
 62
     3
100
AcDbLine
 10
771.0
 20
124.079956
 30
0.0
 11
798.765503
 21
124.079956
 31
0.0
  0
LINE
  5
B5
100
AcDbEntity
  8
LAY-1
  6
CONTINUOUS
 62
     3
100
AcDbLine
 10
771.0
 20
124.079956
 30
0.0
 11
771.0
 21
114.0
 31
0.0
  0
LINE
  5
B6
100
AcDbEntity
  8
LAY-1
  6
CONTINUOUS
 62
     3
100
AcDbLine
 10
799.224945
 20
137.183899
 30
0.0
 11
771.0
 21
137.183899
 31
0.0
  0
LINE
  5
B7
100
AcDbEntity
  8
LAY-1
  6
CONTINUOUS
 62
     3
100
AcDbLine
 10
799.224945
 20
146.256012
 30
0.0
 11
799.224945
 21
137.183899
 31
0.0
  0
LINE
  5
B8
100
AcDbEntity
  8
LAY-1
  6
CONTINUOUS
 62
     3
100
AcDbLine
 10
771.0
 20
146.256012
 30
0.0
 11
799.224945
 21
146.256012
 31
0.0
  0
LINE
  5
B9
100
AcDbEntity
  8
LAY-1
  6
CONTINUOUS
 62
     3
100
AcDbLine
 10
799.224945
 20
149.279999
 30
0.0
 11
771.0
 21
149.279999
 31
0.0
  0
LINE
  5
BA
100
AcDbEntity
  8
LAY-1
  6
CONTINUOUS
 62
     3
100
AcDbLine
 10
799.224945
 20
158.351959
 30
0.0
 11
799.224945
 21
149.279999
 31
0.0
  0
LINE
  5
BB
100
AcDbEntity
  8
LAY-1
  6
CONTINUOUS
 62
     3
100
AcDbLine
 10
771.0
 20
158.351959
 30
0.0
 11
799.224945
 21
158.351959
 31
0.0
  0
LINE
  5
BC
100
AcDbEntity
  8
LAY-1
  6
CONTINUOUS
 62
     3
100
AcDbLine
 10
830.472656
 20
147.264008
 30
0.0
 11
830.472656
 21
140.207886
 31
0.0
  0
LINE
  5
BD
100
AcDbEntity
  8
LAY-1
  6
CONTINUOUS
 62
     3
100
AcDbLine
 10
830.472656
 20
147.264008
 30
0.0
 11
839.654022
 21
147.264008
 31
0.0
  0
LINE
  5
BE
100
AcDbEntity
  8
LAY-1
  6
CONTINUOUS
 62
     3
100
AcDbLine
 10
838.536316
 20
154.319977
 30
0.0
 11
839.654022
 21
147.264008
 31
0.0
  0
LINE
  5
BF
100
AcDbEntity
  8
LAY-1
  6
CONTINUOUS
 62
     3
100
AcDbLine
 10
838.536316
 20
154.319977
 30
0.0
 11
849.76236
 21
154.319977
 31
0.0
  0
LINE
  5
C0
100
AcDbEntity
  8
LAY-1
  6
CONTINUOUS
 62
     3
100
AcDbLine
 10
849.76236
 20
154.319977
 30
0.0
 11
850.879913
 21
147.264008
 31
0.0
  0
LINE
  5
C1
100
AcDbEntity
  8
LAY-1
  6
CONTINUOUS
 62
     3
100
AcDbLine
 10
850.879913
 20
147.264008
 30
0.0
 11
878.856751
 21
147.264008
 31
0.0
  0
LINE
  5
C2
100
AcDbEntity
  8
LAY-1
  6
CONTINUOUS
 62
     3
100
AcDbLine
 10
878.856751
 20
147.264008
 30
0.0
 11
872.973114
 21
134.050507
 31
0.0
  0
ARC
  5
C3
100
AcDbEntity
  8
LAY-1
  6
CONTINUOUS
 62
     3
100
AcDbCircle
 10
859.161011
 20
140.200409
 30
0.0
 40
15.120106
100
AcDbArc
 50
263.465775
 51
335.998779
  0
LINE
  5
C4
100
AcDbEntity
  8
LAY-1
  6
CONTINUOUS
 62
     3
100
AcDbLine
 10
857.438446
 20
125.178589
 30
0.0
 11
856.337067
 21
132.144073
 31
0.0
  0
ARC
  5
C5
100
AcDbEntity
  8
LAY-1
  6
CONTINUOUS
 62
     3
100
AcDbCircle
 10
856.058136
 20
138.192047
 30
0.0
 40
6.048006
100
AcDbArc
 50
272.623749
 51
336.006531
  0
LINE
  5
C6
100
AcDbEntity
  8
LAY-1
  6
CONTINUOUS
 62
     3
100
AcDbLine
 10
861.585022
 20
135.732025
 30
0.0
 11
863.576294
 21
140.207886
 31
0.0
  0
LINE
  5
C7
100
AcDbEntity
  8
LAY-1
  6
CONTINUOUS
 62
     3
100
AcDbLine
 10
863.576294
 20
140.207886
 30
0.0
 11
851.99762
 21
140.207886
 31
0.0
  0
LINE
  5
C8
100
AcDbEntity
  8
LAY-1
  6
CONTINUOUS
 62
     3
100
AcDbLine
 10
851.99762
 20
140.207886
 30
0.0
 11
856.148468
 21
114.0
 31
0.0
  0
LINE
  5
C9
100
AcDbEntity
  8
LAY-1
  6
CONTINUOUS
 62
     3
100
AcDbLine
 10
856.148468
 20
114.0
 30
0.0
 11
844.922424
 21
114.0
 31
0.0
  0
LINE
  5
CA
100
AcDbEntity
  8
LAY-1
  6
CONTINUOUS
 62
     3
100
AcDbLine
 10
844.922424
 20
114.0
 30
0.0
 11
840.771729
 21
140.207886
 31
0.0
  0
LINE
  5
CB
100
AcDbEntity
  8
LAY-1
  6
CONTINUOUS
 62
     3
100
AcDbLine
 10
840.771729
 20
140.207886
 30
0.0
 11
830.472656
 21
140.207886
 31
0.0
  0
LINE
  5
CC
100
AcDbEntity
  8
LAY-1
  6
CONTINUOUS
 62
     3
100
AcDbLine
 10
877.847687
 20
114.0
 30
0.0
 11
877.847687
 21
124.079956
 31
0.0
  0
LINE
  5
CD
100
AcDbEntity
  8
LAY-1
  6
CONTINUOUS
 62
     3
100
AcDbLine
 10
877.847687
 20
124.079956
 30
0.0
 11
934.295441
 21
124.079956
 31
0.0
  0
LINE
  5
CE
100
AcDbEntity
  8
LAY-1
  6
CONTINUOUS
 62
     3
100
AcDbLine
 10
934.295441
 20
124.079956
 30
0.0
 11
934.295441
 21
114.0
 31
0.0
  0
LINE
  5
CF
100
AcDbEntity
  8
LAY-1
  6
CONTINUOUS
 62
     3
100
AcDbLine
 10
934.295441
 20
114.0
 30
0.0
 11
877.847687
 21
114.0
 31
0.0
  0
LINE
  5
D0
100
AcDbEntity
  8
LAY-1
  6
CONTINUOUS
 62
     3
100
AcDbLine
 10
881.879517
 20
158.351959
 30
0.0
 11
881.879517
 21
148.272003
 31
0.0
  0
LINE
  5
D1
100
AcDbEntity
  8
LAY-1
  6
CONTINUOUS
 62
     3
100
AcDbLine
 10
881.879517
 20
158.351959
 30
0.0
 11
930.263611
 21
158.351959
 31
0.0
  0
LINE
  5
D2
100
AcDbEntity
  8
LAY-1
  6
CONTINUOUS
 62
     3
100
AcDbLine
 10
930.263611
 20
158.351959
 30
0.0
 11
930.263611
 21
148.272003
 31
0.0
  0
LINE
  5
D3
100
AcDbEntity
  8
LAY-1
  6
CONTINUOUS
 62
     3
100
AcDbLine
 10
930.263611
 20
148.272003
 30
0.0
 11
881.879517
 21
148.272003
 31
0.0
  0
LINE
  5
D4
100
AcDbEntity
  8
LAY-1
  6
CONTINUOUS
 62
     3
100
AcDbLine
 10
941.352173
 20
158.351959
 30
0.0
 11
941.352173
 21
148.272003
 31
0.0
  0
LINE
  5
D5
100
AcDbEntity
  8
LAY-1
  6
CONTINUOUS
 62
     3
100
AcDbLine
 10
941.352173
 20
158.351959
 30
0.0
 11
993.768097
 21
158.351959
 31
0.0
  0
LINE
  5
D6
100
AcDbEntity
  8
LAY-1
  6
CONTINUOUS
 62
     3
100
AcDbLine
 10
993.768097
 20
158.351959
 30
0.0
 11
978.050934
 21
136.718964
 31
0.0
  0
LINE
  5
D7
100
AcDbEntity
  8
LAY-1
  6
CONTINUOUS
 62
     3
100
AcDbLine
 10
978.050934
 20
136.718964
 30
0.0
 11
997.799927
 21
114.0
 31
0.0
  0
LINE
  5
D8
100
AcDbEntity
  8
LAY-1
  6
CONTINUOUS
 62
     3
100
AcDbLine
 10
997.799927
 20
114.0
 30
0.0
 11
983.108154
 21
114.0
 31
0.0
  0
LINE
  5
D9
100
AcDbEntity
  8
LAY-1
  6
CONTINUOUS
 62
     3
100
AcDbLine
 10
983.108154
 20
114.0
 30
0.0
 11
971.361328
 21
127.512726
 31
0.0
  0
LINE
  5
DA
100
AcDbEntity
  8
LAY-1
  6
CONTINUOUS
 62
     3
100
AcDbLine
 10
971.361328
 20
127.512726
 30
0.0
 11
966.978851
 21
121.479248
 31
0.0
  0
ARC
  5
DB
100
AcDbEntity
  8
LAY-1
  6
CONTINUOUS
 62
     3
100
AcDbCircle
 10
952.299286
 20
132.144073
 30
0.0
 40
18.143997
100
AcDbArc
 50
270.000031
 51
324.00116
  0
LINE
  5
DC
100
AcDbEntity
  8
LAY-1
  6
CONTINUOUS
 62
     3
100
AcDbLine
 10
952.299286
 20
114.0
 30
0.0
 11
937.320343
 21
114.0
 31
0.0
  0
LINE
  5
DD
100
AcDbEntity
  8
LAY-1
  6
CONTINUOUS
 62
     3
100
AcDbLine
 10
937.320343
 20
114.0
 30
0.0
 11
937.320343
 21
124.079956
 31
0.0
  0
LINE
  5
DE
100
AcDbEntity
  8
LAY-1
  6
CONTINUOUS
 62
     3
100
AcDbLine
 10
937.320343
 20
124.079956
 30
0.0
 11
950.0271
 21
124.079956
 31
0.0
  0
ARC
  5
DF
100
AcDbEntity
  8
LAY-1
  6
CONTINUOUS
 62
     3
100
AcDbCircle
 10
950.0271
 20
134.159912
 30
0.0
 40
10.079994
100
AcDbArc
 50
270.000031
 51
323.996597
  0
LINE
  5
E0
100
AcDbEntity
  8
LAY-1
  6
CONTINUOUS
 62
     3
100
AcDbLine
 10
958.180939
 20
128.235077
 30
0.0
 11
972.739502
 21
148.272003
 31
0.0
  0
LINE
  5
E1
100
AcDbEntity
  8
LAY-1
  6
CONTINUOUS
 62
     3
100
AcDbLine
 10
972.739502
 20
148.272003
 30
0.0
 11
941.352173
 21
148.272003
 31
0.0
  0
LINE
  5
E2
100
AcDbEntity
  8
LAY-1
  6
CONTINUOUS
 62
     3
100
AcDbLine
 10
1009.895569
 20
158.351959
 30
0.0
 11
1009.895569
 21
151.29599
 31
0.0
  0
LINE
  5
E3
100
AcDbEntity
  8
LAY-1
  6
CONTINUOUS
 62
     3
100
AcDbLine
 10
1009.895569
 20
158.351959
 30
0.0
 11
1062.31134
 21
158.351959
 31
0.0
  0
LINE
  5
E4
100
AcDbEntity
  8
LAY-1
  6
CONTINUOUS
 62
     3
100
AcDbLine
 10
1062.31134
 20
158.351959
 30
0.0
 11
1062.31134
 21
151.29599
 31
0.0
  0
LINE
  5
E5
100
AcDbEntity
  8
LAY-1
  6
CONTINUOUS
 62
     3
100
AcDbLine
 10
1062.31134
 20
151.29599
 30
0.0
 11
1041.647736
 21
151.29599
 31
0.0
  0
LINE
  5
E6
100
AcDbEntity
  8
LAY-1
  6
CONTINUOUS
 62
     3
100
AcDbLine
 10
1041.647736
 20
151.29599
 30
0.0
 11
1041.647736
 21
122.064117
 31
0.0
  0
LINE
  5
E7
100
AcDbEntity
  8
LAY-1
  6
CONTINUOUS
 62
     3
100
AcDbLine
 10
1041.647736
 20
122.064117
 30
0.0
 11
1064.327332
 21
122.064117
 31
0.0
  0
LINE
  5
E8
100
AcDbEntity
  8
LAY-1
  6
CONTINUOUS
 62
     3
100
AcDbLine
 10
1064.327332
 20
122.064117
 30
0.0
 11
1064.327332
 21
114.0
 31
0.0
  0
LINE
  5
E9
100
AcDbEntity
  8
LAY-1
  6
CONTINUOUS
 62
     3
100
AcDbLine
 10
1064.327332
 20
114.0
 30
0.0
 11
1007.879578
 21
114.0
 31
0.0
  0
LINE
  5
EA
100
AcDbEntity
  8
LAY-1
  6
CONTINUOUS
 62
     3
100
AcDbLine
 10
1007.879578
 20
114.0
 30
0.0
 11
1007.879578
 21
122.064117
 31
0.0
  0
LINE
  5
EB
100
AcDbEntity
  8
LAY-1
  6
CONTINUOUS
 62
     3
100
AcDbLine
 10
1007.879578
 20
122.064117
 30
0.0
 11
1030.559174
 21
122.064117
 31
0.0
  0
LINE
  5
EC
100
AcDbEntity
  8
LAY-1
  6
CONTINUOUS
 62
     3
100
AcDbLine
 10
1030.559174
 20
122.064117
 30
0.0
 11
1030.559174
 21
151.29599
 31
0.0
  0
LINE
  5
ED
100
AcDbEntity
  8
LAY-1
  6
CONTINUOUS
 62
     3
100
AcDbLine
 10
1030.559174
 20
151.29599
 30
0.0
 11
1009.895569
 21
151.29599
 31
0.0
  0
LINE
  5
EE
100
AcDbEntity
  8
LAY-1
  6
CONTINUOUS
 62
     3
100
AcDbLine
 10
1065.336243
 20
152.303986
 30
0.0
 11
1065.336243
 21
147.667145
 31
0.0
  0
LINE
  5
EF
100
AcDbEntity
  8
LAY-1
  6
CONTINUOUS
 62
     3
100
AcDbLine
 10
1065.336243
 20
152.303986
 30
0.0
 11
1074.093109
 21
152.303986
 31
0.0
  0
LINE
  5
F0
100
AcDbEntity
  8
LAY-1
  6
CONTINUOUS
 62
     3
100
AcDbLine
 10
1074.093109
 20
152.303986
 30
0.0
 11
1069.368225
 21
158.351959
 31
0.0
  0
LINE
  5
F1
100
AcDbEntity
  8
LAY-1
  6
CONTINUOUS
 62
     3
100
AcDbLine
 10
1069.368225
 20
158.351959
 30
0.0
 11
1078.32193
 21
158.351959
 31
0.0
  0
LINE
  5
F2
100
AcDbEntity
  8
LAY-1
  6
CONTINUOUS
 62
     3
100
AcDbLine
 10
1078.32193
 20
158.351959
 30
0.0
 11
1083.046814
 21
152.303986
 31
0.0
  0
LINE
  5
F3
100
AcDbEntity
  8
LAY-1
  6
CONTINUOUS
 62
     3
100
AcDbLine
 10
1083.046814
 20
152.303986
 30
0.0
 11
1084.993073
 21
152.303986
 31
0.0
  0
LINE
  5
F4
100
AcDbEntity
  8
LAY-1
  6
CONTINUOUS
 62
     3
100
AcDbLine
 10
1084.993073
 20
152.303986
 30
0.0
 11
1084.993073
 21
158.351959
 31
0.0
  0
LINE
  5
F5
100
AcDbEntity
  8
LAY-1
  6
CONTINUOUS
 62
     3
100
AcDbLine
 10
1084.993073
 20
158.351959
 30
0.0
 11
1092.047668
 21
158.351959
 31
0.0
  0
LINE
  5
F6
100
AcDbEntity
  8
LAY-1
  6
CONTINUOUS
 62
     3
100
AcDbLine
 10
1092.047668
 20
158.351959
 30
0.0
 11
1092.047668
 21
152.303986
 31
0.0
  0
LINE
  5
F7
100
AcDbEntity
  8
LAY-1
  6
CONTINUOUS
 62
     3
100
AcDbLine
 10
1092.047668
 20
152.303986
 30
0.0
 11
1095.072571
 21
152.303986
 31
0.0
  0
LINE
  5
F8
100
AcDbEntity
  8
LAY-1
  6
CONTINUOUS
 62
     3
100
AcDbLine
 10
1095.072571
 20
152.303986
 30
0.0
 11
1095.072571
 21
158.351959
 31
0.0
  0
LINE
  5
F9
100
AcDbEntity
  8
LAY-1
  6
CONTINUOUS
 62
     3
100
AcDbLine
 10
1095.072571
 20
158.351959
 30
0.0
 11
1102.127319
 21
158.351959
 31
0.0
  0
LINE
  5
FA
100
AcDbEntity
  8
LAY-1
  6
CONTINUOUS
 62
     3
100
AcDbLine
 10
1102.127319
 20
158.351959
 30
0.0
 11
1102.127319
 21
152.303986
 31
0.0
  0
LINE
  5
FB
100
AcDbEntity
  8
LAY-1
  6
CONTINUOUS
 62
     3
100
AcDbLine
 10
1102.127319
 20
152.303986
 30
0.0
 11
1104.073578
 21
152.303986
 31
0.0
  0
LINE
  5
FC
100
AcDbEntity
  8
LAY-1
  6
CONTINUOUS
 62
     3
100
AcDbLine
 10
1104.073578
 20
152.303986
 30
0.0
 11
1108.798462
 21
158.351959
 31
0.0
  0
LINE
  5
FD
100
AcDbEntity
  8
LAY-1
  6
CONTINUOUS
 62
     3
100
AcDbLine
 10
1108.798462
 20
158.351959
 30
0.0
 11
1117.752167
 21
158.351959
 31
0.0
  0
LINE
  5
FE
100
AcDbEntity
  8
LAY-1
  6
CONTINUOUS
 62
     3
100
AcDbLine
 10
1117.752167
 20
158.351959
 30
0.0
 11
1113.027283
 21
152.303986
 31
0.0
  0
LINE
  5
FF
100
AcDbEntity
  8
LAY-1
  6
CONTINUOUS
 62
     3
100
AcDbLine
 10
1113.027283
 20
152.303986
 30
0.0
 11
1121.783997
 21
152.303986
 31
0.0
  0
LINE
  5
100
100
AcDbEntity
  8
LAY-1
  6
CONTINUOUS
 62
     3
100
AcDbLine
 10
1121.783997
 20
152.303986
 30
0.0
 11
1121.783997
 21
147.667145
 31
0.0
  0
LINE
  5
101
100
AcDbEntity
  8
LAY-1
  6
CONTINUOUS
 62
     3
100
AcDbLine
 10
1121.783997
 20
147.667145
 30
0.0
 11
1111.16098
 21
147.667145
 31
0.0
  0
LINE
  5
102
100
AcDbEntity
  8
LAY-1
  6
CONTINUOUS
 62
     3
100
AcDbLine
 10
1111.16098
 20
147.667145
 30
0.0
 11
1109.327637
 21
142.627319
 31
0.0
  0
LINE
  5
103
100
AcDbEntity
  8
LAY-1
  6
CONTINUOUS
 62
     3
100
AcDbLine
 10
1109.327637
 20
142.627319
 30
0.0
 11
1121.783997
 21
142.627319
 31
0.0
  0
LINE
  5
104
100
AcDbEntity
  8
LAY-1
  6
CONTINUOUS
 62
     3
100
AcDbLine
 10
1121.783997
 20
142.627319
 30
0.0
 11
1121.783997
 21
137.990478
 31
0.0
  0
LINE
  5
105
100
AcDbEntity
  8
LAY-1
  6
CONTINUOUS
 62
     3
100
AcDbLine
 10
1121.783997
 20
137.990478
 30
0.0
 11
1098.599945
 21
137.990478
 31
0.0
  0
LINE
  5
106
100
AcDbEntity
  8
LAY-1
  6
CONTINUOUS
 62
     3
100
AcDbLine
 10
1098.599945
 20
137.990478
 30
0.0
 11
1098.599945
 21
135.672058
 31
0.0
  0
LINE
  5
107
100
AcDbEntity
  8
LAY-1
  6
CONTINUOUS
 62
     3
100
AcDbLine
 10
1098.599945
 20
135.672058
 30
0.0
 11
1121.783997
 21
135.672058
 31
0.0
  0
LINE
  5
108
100
AcDbEntity
  8
LAY-1
  6
CONTINUOUS
 62
     3
100
AcDbLine
 10
1121.783997
 20
135.672058
 30
0.0
 11
1121.783997
 21
131.035217
 31
0.0
  0
LINE
  5
109
100
AcDbEntity
  8
LAY-1
  6
CONTINUOUS
 62
     3
100
AcDbLine
 10
1121.783997
 20
131.035217
 30
0.0
 11
1098.599945
 21
131.035217
 31
0.0
  0
LINE
  5
10A
100
AcDbEntity
  8
LAY-1
  6
CONTINUOUS
 62
     3
100
AcDbLine
 10
1098.599945
 20
131.035217
 30
0.0
 11
1098.599945
 21
128.716797
 31
0.0
  0
LINE
  5
10B
100
AcDbEntity
  8
LAY-1
  6
CONTINUOUS
 62
     3
100
AcDbLine
 10
1098.599945
 20
128.716797
 30
0.0
 11
1121.783997
 21
128.716797
 31
0.0
  0
LINE
  5
10C
100
AcDbEntity
  8
LAY-1
  6
CONTINUOUS
 62
     3
100
AcDbLine
 10
1121.783997
 20
128.716797
 30
0.0
 11
1121.783997
 21
124.079956
 31
0.0
  0
LINE
  5
10D
100
AcDbEntity
  8
LAY-1
  6
CONTINUOUS
 62
     3
100
AcDbLine
 10
1121.783997
 20
124.079956
 30
0.0
 11
1110.627838
 21
124.079956
 31
0.0
  0
LINE
  5
10E
100
AcDbEntity
  8
LAY-1
  6
CONTINUOUS
 62
     3
100
AcDbLine
 10
1110.627838
 20
124.079956
 30
0.0
 11
1121.783997
 21
114.0
 31
0.0
  0
LINE
  5
10F
100
AcDbEntity
  8
LAY-1
  6
CONTINUOUS
 62
     3
100
AcDbLine
 10
1121.783997
 20
114.0
 30
0.0
 11
1109.756256
 21
114.0
 31
0.0
  0
LINE
  5
110
100
AcDbEntity
  8
LAY-1
  6
CONTINUOUS
 62
     3
100
AcDbLine
 10
1109.756256
 20
114.0
 30
0.0
 11
1098.599945
 21
124.079956
 31
0.0
  0
LINE
  5
111
100
AcDbEntity
  8
LAY-1
  6
CONTINUOUS
 62
     3
100
AcDbLine
 10
1098.599945
 20
124.079956
 30
0.0
 11
1098.599945
 21
114.0
 31
0.0
  0
LINE
  5
112
100
AcDbEntity
  8
LAY-1
  6
CONTINUOUS
 62
     3
100
AcDbLine
 10
1098.599945
 20
114.0
 30
0.0
 11
1088.520447
 21
114.0
 31
0.0
  0
LINE
  5
113
100
AcDbEntity
  8
LAY-1
  6
CONTINUOUS
 62
     3
100
AcDbLine
 10
1088.520447
 20
114.0
 30
0.0
 11
1088.520447
 21
124.079956
 31
0.0
  0
LINE
  5
114
100
AcDbEntity
  8
LAY-1
  6
CONTINUOUS
 62
     3
100
AcDbLine
 10
1088.520447
 20
124.079956
 30
0.0
 11
1077.364136
 21
114.0
 31
0.0
  0
LINE
  5
115
100
AcDbEntity
  8
LAY-1
  6
CONTINUOUS
 62
     3
100
AcDbLine
 10
1077.364136
 20
114.0
 30
0.0
 11
1065.336243
 21
114.0
 31
0.0
  0
LINE
  5
116
100
AcDbEntity
  8
LAY-1
  6
CONTINUOUS
 62
     3
100
AcDbLine
 10
1065.336243
 20
114.0
 30
0.0
 11
1076.492554
 21
124.079956
 31
0.0
  0
LINE
  5
117
100
AcDbEntity
  8
LAY-1
  6
CONTINUOUS
 62
     3
100
AcDbLine
 10
1076.492554
 20
124.079956
 30
0.0
 11
1065.336243
 21
124.079956
 31
0.0
  0
LINE
  5
118
100
AcDbEntity
  8
LAY-1
  6
CONTINUOUS
 62
     3
100
AcDbLine
 10
1065.336243
 20
124.079956
 30
0.0
 11
1065.336243
 21
128.716797
 31
0.0
  0
LINE
  5
119
100
AcDbEntity
  8
LAY-1
  6
CONTINUOUS
 62
     3
100
AcDbLine
 10
1065.336243
 20
128.716797
 30
0.0
 11
1088.520447
 21
128.716797
 31
0.0
  0
LINE
  5
11A
100
AcDbEntity
  8
LAY-1
  6
CONTINUOUS
 62
     3
100
AcDbLine
 10
1088.520447
 20
128.716797
 30
0.0
 11
1088.520447
 21
131.035217
 31
0.0
  0
LINE
  5
11B
100
AcDbEntity
  8
LAY-1
  6
CONTINUOUS
 62
     3
100
AcDbLine
 10
1088.520447
 20
131.035217
 30
0.0
 11
1065.336243
 21
131.035217
 31
0.0
  0
LINE
  5
11C
100
AcDbEntity
  8
LAY-1
  6
CONTINUOUS
 62
     3
100
AcDbLine
 10
1065.336243
 20
131.035217
 30
0.0
 11
1065.336243
 21
135.672058
 31
0.0
  0
LINE
  5
11D
100
AcDbEntity
  8
LAY-1
  6
CONTINUOUS
 62
     3
100
AcDbLine
 10
1065.336243
 20
135.672058
 30
0.0
 11
1088.520447
 21
135.672058
 31
0.0
  0
LINE
  5
11E
100
AcDbEntity
  8
LAY-1
  6
CONTINUOUS
 62
     3
100
AcDbLine
 10
1088.520447
 20
135.672058
 30
0.0
 11
1088.520447
 21
137.990478
 31
0.0
  0
LINE
  5
11F
100
AcDbEntity
  8
LAY-1
  6
CONTINUOUS
 62
     3
100
AcDbLine
 10
1088.520447
 20
137.990478
 30
0.0
 11
1065.336243
 21
137.990478
 31
0.0
  0
LINE
  5
120
100
AcDbEntity
  8
LAY-1
  6
CONTINUOUS
 62
     3
100
AcDbLine
 10
1065.336243
 20
137.990478
 30
0.0
 11
1065.336243
 21
142.627319
 31
0.0
  0
LINE
  5
121
100
AcDbEntity
  8
LAY-1
  6
CONTINUOUS
 62
     3
100
AcDbLine
 10
1065.336243
 20
142.627319
 30
0.0
 11
1077.792755
 21
142.627319
 31
0.0
  0
LINE
  5
122
100
AcDbEntity
  8
LAY-1
  6
CONTINUOUS
 62
     3
100
AcDbLine
 10
1077.792755
 20
142.627319
 30
0.0
 11
1075.959412
 21
147.667145
 31
0.0
  0
LINE
  5
123
100
AcDbEntity
  8
LAY-1
  6
CONTINUOUS
 62
     3
100
AcDbLine
 10
1075.959412
 20
147.667145
 30
0.0
 11
1065.336243
 21
147.667145
 31
0.0
  0
LINE
  5
124
100
AcDbEntity
  8
LAY-1
  6
CONTINUOUS
 62
     3
100
AcDbLine
 10
1086.684967
 20
147.667145
 30
0.0
 11
1100.435425
 21
147.667145
 31
0.0
  0
LINE
  5
125
100
AcDbEntity
  8
LAY-1
  6
CONTINUOUS
 62
     3
100
AcDbLine
 10
1100.435425
 20
147.667145
 30
0.0
 11
1098.599945
 21
142.627319
 31
0.0
  0
LINE
  5
126
100
AcDbEntity
  8
LAY-1
  6
CONTINUOUS
 62
     3
100
AcDbLine
 10
1098.599945
 20
142.627319
 30
0.0
 11
1088.520447
 21
142.627319
 31
0.0
  0
LINE
  5
127
100
AcDbEntity
  8
LAY-1
  6
CONTINUOUS
 62
     3
100
AcDbLine
 10
1088.520447
 20
142.627319
 30
0.0
 11
1086.684967
 21
147.667145
 31
0.0
  0
LINE
  5
128
100
AcDbEntity
  8
LAY-1
  6
CONTINUOUS
 62
     3
100
AcDbLine
 10
1149.256378
 20
158.351959
 30
0.0
 11
1145.989472
 21
145.248016
 31
0.0
  0
LINE
  5
129
100
AcDbEntity
  8
LAY-1
  6
CONTINUOUS
 62
     3
100
AcDbLine
 10
1149.256378
 20
158.351959
 30
0.0
 11
1157.568146
 21
158.351959
 31
0.0
  0
LINE
  5
12A
100
AcDbEntity
  8
LAY-1
  6
CONTINUOUS
 62
     3
100
AcDbLine
 10
1157.568146
 20
158.351959
 30
0.0
 11
1156.310974
 21
153.311981
 31
0.0
  0
LINE
  5
12B
100
AcDbEntity
  8
LAY-1
  6
CONTINUOUS
 62
     3
100
AcDbLine
 10
1156.310974
 20
153.311981
 30
0.0
 11
1159.584137
 21
153.311981
 31
0.0
  0
LINE
  5
12C
100
AcDbEntity
  8
LAY-1
  6
CONTINUOUS
 62
     3
100
AcDbLine
 10
1159.584137
 20
153.311981
 30
0.0
 11
1159.584137
 21
158.351959
 31
0.0
  0
LINE
  5
12D
100
AcDbEntity
  8
LAY-1
  6
CONTINUOUS
 62
     3
100
AcDbLine
 10
1159.584137
 20
158.351959
 30
0.0
 11
1168.656708
 21
158.351959
 31
0.0
  0
LINE
  5
12E
100
AcDbEntity
  8
LAY-1
  6
CONTINUOUS
 62
     3
100
AcDbLine
 10
1168.656708
 20
158.351959
 30
0.0
 11
1168.656708
 21
153.311981
 31
0.0
  0
LINE
  5
12F
100
AcDbEntity
  8
LAY-1
  6
CONTINUOUS
 62
     3
100
AcDbLine
 10
1168.656708
 20
153.311981
 30
0.0
 11
1180.247742
 21
153.311981
 31
0.0
  0
LINE
  5
130
100
AcDbEntity
  8
LAY-1
  6
CONTINUOUS
 62
     3
100
AcDbLine
 10
1180.247742
 20
153.311981
 30
0.0
 11
1180.247742
 21
148.272003
 31
0.0
  0
LINE
  5
131
100
AcDbEntity
  8
LAY-1
  6
CONTINUOUS
 62
     3
100
AcDbLine
 10
1168.656708
 20
148.272003
 30
0.0
 11
1180.247742
 21
148.272003
 31
0.0
  0
LINE
  5
132
100
AcDbEntity
  8
LAY-1
  6
CONTINUOUS
 62
     3
100
AcDbLine
 10
1168.656708
 20
148.272003
 30
0.0
 11
1168.656708
 21
143.232025
 31
0.0
  0
LINE
  5
133
100
AcDbEntity
  8
LAY-1
  6
CONTINUOUS
 62
     3
100
AcDbLine
 10
1168.656708
 20
143.232025
 30
0.0
 11
1181.256653
 21
143.232025
 31
0.0
  0
LINE
  5
134
100
AcDbEntity
  8
LAY-1
  6
CONTINUOUS
 62
     3
100
AcDbLine
 10
1181.256653
 20
143.232025
 30
0.0
 11
1181.256653
 21
138.192047
 31
0.0
  0
LINE
  5
135
100
AcDbEntity
  8
LAY-1
  6
CONTINUOUS
 62
     3
100
AcDbLine
 10
1181.256653
 20
138.192047
 30
0.0
 11
1176.851593
 21
138.192047
 31
0.0
  0
LINE
  5
136
100
AcDbEntity
  8
LAY-1
  6
CONTINUOUS
 62
     3
100
AcDbLine
 10
1176.851593
 20
138.192047
 30
0.0
 11
1181.256653
 21
114.0
 31
0.0
  0
LINE
  5
137
100
AcDbEntity
  8
LAY-1
  6
CONTINUOUS
 62
     3
100
AcDbLine
 10
1181.256653
 20
114.0
 30
0.0
 11
1173.059784
 21
114.0
 31
0.0
  0
LINE
  5
138
100
AcDbEntity
  8
LAY-1
  6
CONTINUOUS
 62
     3
100
AcDbLine
 10
1173.059784
 20
114.0
 30
0.0
 11
1168.656708
 21
138.191742
 31
0.0
  0
LINE
  5
139
100
AcDbEntity
  8
LAY-1
  6
CONTINUOUS
 62
     3
100
AcDbLine
 10
1168.656708
 20
138.191742
 30
0.0
 11
1168.656708
 21
114.0
 31
0.0
  0
LINE
  5
13A
100
AcDbEntity
  8
LAY-1
  6
CONTINUOUS
 62
     3
100
AcDbLine
 10
1168.656708
 20
114.0
 30
0.0
 11
1159.584137
 21
114.0
 31
0.0
  0
LINE
  5
13B
100
AcDbEntity
  8
LAY-1
  6
CONTINUOUS
 62
     3
100
AcDbLine
 10
1159.584137
 20
114.0
 30
0.0
 11
1159.584137
 21
138.192047
 31
0.0
  0
LINE
  5
13C
100
AcDbEntity
  8
LAY-1
  6
CONTINUOUS
 62
     3
100
AcDbLine
 10
1159.584137
 20
138.192047
 30
0.0
 11
1155.181061
 21
114.0
 31
0.0
  0
LINE
  5
13D
100
AcDbEntity
  8
LAY-1
  6
CONTINUOUS
 62
     3
100
AcDbLine
 10
1155.181061
 20
114.0
 30
0.0
 11
1146.984039
 21
114.0
 31
0.0
  0
LINE
  5
13E
100
AcDbEntity
  8
LAY-1
  6
CONTINUOUS
 62
     3
100
AcDbLine
 10
1146.984039
 20
114.0
 30
0.0
 11
1151.387115
 21
138.192047
 31
0.0
  0
LINE
  5
13F
100
AcDbEntity
  8
LAY-1
  6
CONTINUOUS
 62
     3
100
AcDbLine
 10
1151.387115
 20
138.192047
 30
0.0
 11
1146.984039
 21
138.192047
 31
0.0
  0
LINE
  5
140
100
AcDbEntity
  8
LAY-1
  6
CONTINUOUS
 62
     3
100
AcDbLine
 10
1146.984039
 20
138.192047
 30
0.0
 11
1146.984039
 21
143.232025
 31
0.0
  0
LINE
  5
141
100
AcDbEntity
  8
LAY-1
  6
CONTINUOUS
 62
     3
100
AcDbLine
 10
1146.984039
 20
143.232025
 30
0.0
 11
1159.584137
 21
143.232025
 31
0.0
  0
LINE
  5
142
100
AcDbEntity
  8
LAY-1
  6
CONTINUOUS
 62
     3
100
AcDbLine
 10
1159.584137
 20
143.232025
 30
0.0
 11
1159.584137
 21
148.272003
 31
0.0
  0
LINE
  5
143
100
AcDbEntity
  8
LAY-1
  6
CONTINUOUS
 62
     3
100
AcDbLine
 10
1159.584137
 20
148.272003
 30
0.0
 11
1155.053955
 21
148.272003
 31
0.0
  0
LINE
  5
144
100
AcDbEntity
  8
LAY-1
  6
CONTINUOUS
 62
     3
100
AcDbLine
 10
1155.053955
 20
148.272003
 30
0.0
 11
1154.301239
 21
145.248016
 31
0.0
  0
LINE
  5
145
100
AcDbEntity
  8
LAY-1
  6
CONTINUOUS
 62
     3
100
AcDbLine
 10
1154.301239
 20
145.248016
 30
0.0
 11
1145.989472
 21
145.248016
 31
0.0
  0
LINE
  5
146
100
AcDbEntity
  8
LAY-1
  6
CONTINUOUS
 62
     3
100
AcDbLine
 10
1123.799988
 20
153.311981
 30
0.0
 11
1123.799988
 21
148.272003
 31
0.0
  0
LINE
  5
147
100
AcDbEntity
  8
LAY-1
  6
CONTINUOUS
 62
     3
100
AcDbLine
 10
1123.799988
 20
153.311981
 30
0.0
 11
1133.879639
 21
153.311981
 31
0.0
  0
LINE
  5
148
100
AcDbEntity
  8
LAY-1
  6
CONTINUOUS
 62
     3
100
AcDbLine
 10
1133.879639
 20
153.311981
 30
0.0
 11
1133.879639
 21
158.351959
 31
0.0
  0
LINE
  5
149
100
AcDbEntity
  8
LAY-1
  6
CONTINUOUS
 62
     3
100
AcDbLine
 10
1133.879639
 20
158.351959
 30
0.0
 11
1142.95221
 21
158.351959
 31
0.0
  0
LINE
  5
14A
100
AcDbEntity
  8
LAY-1
  6
CONTINUOUS
 62
     3
100
AcDbLine
 10
1142.95221
 20
158.351959
 30
0.0
 11
1142.95221
 21
153.311981
 31
0.0
  0
LINE
  5
14B
100
AcDbEntity
  8
LAY-1
  6
CONTINUOUS
 62
     3
100
AcDbLine
 10
1142.95221
 20
153.311981
 30
0.0
 11
1145.975128
 21
153.311981
 31
0.0
  0
LINE
  5
14C
100
AcDbEntity
  8
LAY-1
  6
CONTINUOUS
 62
     3
100
AcDbLine
 10
1145.975128
 20
153.311981
 30
0.0
 11
1145.975128
 21
148.272003
 31
0.0
  0
LINE
  5
14D
100
AcDbEntity
  8
LAY-1
  6
CONTINUOUS
 62
     3
100
AcDbLine
 10
1145.975128
 20
148.272003
 30
0.0
 11
1142.95221
 21
148.272003
 31
0.0
  0
LINE
  5
14E
100
AcDbEntity
  8
LAY-1
  6
CONTINUOUS
 62
     3
100
AcDbLine
 10
1142.95221
 20
148.272003
 30
0.0
 11
1145.975128
 21
144.110016
 31
0.0
  0
LINE
  5
14F
100
AcDbEntity
  8
LAY-1
  6
CONTINUOUS
 62
     3
100
AcDbLine
 10
1145.975128
 20
144.110016
 30
0.0
 11
1145.975128
 21
133.820709
 31
0.0
  0
LINE
  5
150
100
AcDbEntity
  8
LAY-1
  6
CONTINUOUS
 62
     3
100
AcDbLine
 10
1145.975128
 20
133.820709
 30
0.0
 11
1142.95221
 21
137.982849
 31
0.0
  0
LINE
  5
151
100
AcDbEntity
  8
LAY-1
  6
CONTINUOUS
 62
     3
100
AcDbLine
 10
1142.95221
 20
137.982849
 30
0.0
 11
1142.95221
 21
114.0
 31
0.0
  0
LINE
  5
152
100
AcDbEntity
  8
LAY-1
  6
CONTINUOUS
 62
     3
100
AcDbLine
 10
1142.95221
 20
114.0
 30
0.0
 11
1133.879639
 21
114.0
 31
0.0
  0
LINE
  5
153
100
AcDbEntity
  8
LAY-1
  6
CONTINUOUS
 62
     3
100
AcDbLine
 10
1133.879639
 20
114.0
 30
0.0
 11
1133.879639
 21
148.272003
 31
0.0
  0
LINE
  5
154
100
AcDbEntity
  8
LAY-1
  6
CONTINUOUS
 62
     3
100
AcDbLine
 10
1133.483826
 20
148.272003
 30
0.0
 11
1129.880615
 21
114.0
 31
0.0
  0
LINE
  5
155
100
AcDbEntity
  8
LAY-1
  6
CONTINUOUS
 62
     3
100
AcDbLine
 10
1129.880615
 20
114.0
 30
0.0
 11
1123.799988
 21
114.0
 31
0.0
  0
LINE
  5
156
100
AcDbEntity
  8
LAY-1
  6
CONTINUOUS
 62
     3
100
AcDbLine
 10
1123.799988
 20
114.0
 30
0.0
 11
1127.403198
 21
148.272003
 31
0.0
  0
LINE
  5
157
100
AcDbEntity
  8
LAY-1
  6
CONTINUOUS
 62
     3
100
AcDbLine
 10
1127.403198
 20
148.272003
 30
0.0
 11
1123.799988
 21
148.272003
 31
0.0
  0
LINE
  5
158
100
AcDbEntity
  8
LAY-1
  6
CONTINUOUS
 62
     3
100
AcDbLine
 10
1186.295563
 20
142.22403
 30
0.0
 11
1186.295563
 21
136.176056
 31
0.0
  0
LINE
  5
159
100
AcDbEntity
  8
LAY-1
  6
CONTINUOUS
 62
     3
100
AcDbLine
 10
1186.295563
 20
142.22403
 30
0.0
 11
1216.536347
 21
142.22403
 31
0.0
  0
LINE
  5
15A
100
AcDbEntity
  8
LAY-1
  6
CONTINUOUS
 62
     3
100
AcDbLine
 10
1216.536347
 20
142.22403
 30
0.0
 11
1216.536347
 21
136.176056
 31
0.0
  0
LINE
  5
15B
100
AcDbEntity
  8
LAY-1
  6
CONTINUOUS
 62
     3
100
AcDbLine
 10
1216.536347
 20
136.176056
 30
0.0
 11
1206.959167
 21
136.176056
 31
0.0
  0
LINE
  5
15C
100
AcDbEntity
  8
LAY-1
  6
CONTINUOUS
 62
     3
100
AcDbLine
 10
1206.959167
 20
136.176056
 30
0.0
 11
1206.959167
 21
127.774109
 31
0.0
  0
LINE
  5
15D
100
AcDbEntity
  8
LAY-1
  6
CONTINUOUS
 62
     3
100
AcDbLine
 10
1206.959167
 20
127.774109
 30
0.0
 11
1217.040802
 21
129.916596
 31
0.0
  0
LINE
  5
15E
100
AcDbEntity
  8
LAY-1
  6
CONTINUOUS
 62
     3
100
AcDbLine
 10
1217.040802
 20
129.916596
 30
0.0
 11
1217.040802
 21
120.641998
 31
0.0
  0
LINE
  5
15F
100
AcDbEntity
  8
LAY-1
  6
CONTINUOUS
 62
     3
100
AcDbLine
 10
1217.040802
 20
120.641998
 30
0.0
 11
1185.790955
 21
114.0
 31
0.0
  0
LINE
  5
160
100
AcDbEntity
  8
LAY-1
  6
CONTINUOUS
 62
     3
100
AcDbLine
 10
1185.790955
 20
114.0
 30
0.0
 11
1185.790955
 21
123.274597
 31
0.0
  0
LINE
  5
161
100
AcDbEntity
  8
LAY-1
  6
CONTINUOUS
 62
     3
100
AcDbLine
 10
1185.790955
 20
123.274597
 30
0.0
 11
1195.872589
 21
125.417236
 31
0.0
  0
LINE
  5
162
100
AcDbEntity
  8
LAY-1
  6
CONTINUOUS
 62
     3
100
AcDbLine
 10
1195.872589
 20
125.417236
 30
0.0
 11
1195.872589
 21
136.176056
 31
0.0
  0
LINE
  5
163
100
AcDbEntity
  8
LAY-1
  6
CONTINUOUS
 62
     3
100
AcDbLine
 10
1195.872589
 20
136.176056
 30
0.0
 11
1186.295563
 21
136.176056
 31
0.0
  0
LINE
  5
164
100
AcDbEntity
  8
LAY-1
  6
CONTINUOUS
 62
     3
100
AcDbLine
 10
1183.272644
 20
154.319977
 30
0.0
 11
1183.272644
 21
148.272003
 31
0.0
  0
LINE
  5
165
100
AcDbEntity
  8
LAY-1
  6
CONTINUOUS
 62
     3
100
AcDbLine
 10
1183.272644
 20
154.319977
 30
0.0
 11
1213.244873
 21
154.319977
 31
0.0
  0
LINE
  5
166
100
AcDbEntity
  8
LAY-1
  6
CONTINUOUS
 62
     3
100
AcDbLine
 10
1213.244873
 20
154.319977
 30
0.0
 11
1211.778503
 21
158.351959
 31
0.0
  0
LINE
  5
167
100
AcDbEntity
  8
LAY-1
  6
CONTINUOUS
 62
     3
100
AcDbLine
 10
1211.778503
 20
158.351959
 30
0.0
 11
1223.576599
 21
158.351959
 31
0.0
  0
LINE
  5
168
100
AcDbEntity
  8
LAY-1
  6
CONTINUOUS
 62
     3
100
AcDbLine
 10
1223.576599
 20
158.351959
 30
0.0
 11
1225.044952
 21
154.319977
 31
0.0
  0
LINE
  5
169
100
AcDbEntity
  8
LAY-1
  6
CONTINUOUS
 62
     3
100
AcDbLine
 10
1225.044952
 20
154.319977
 30
0.0
 11
1227.624908
 21
154.319977
 31
0.0
  0
LINE
  5
16A
100
AcDbEntity
  8
LAY-1
  6
CONTINUOUS
 62
     3
100
AcDbLine
 10
1227.624908
 20
154.319977
 30
0.0
 11
1227.624908
 21
158.351959
 31
0.0
  0
LINE
  5
16B
100
AcDbEntity
  8
LAY-1
  6
CONTINUOUS
 62
     3
100
AcDbLine
 10
1227.624908
 20
158.351959
 30
0.0
 11
1236.695496
 21
158.351959
 31
0.0
  0
LINE
  5
16C
100
AcDbEntity
  8
LAY-1
  6
CONTINUOUS
 62
     3
100
AcDbLine
 10
1236.695496
 20
158.351959
 30
0.0
 11
1236.695496
 21
154.319977
 31
0.0
  0
LINE
  5
16D
100
AcDbEntity
  8
LAY-1
  6
CONTINUOUS
 62
     3
100
AcDbLine
 10
1236.695496
 20
154.319977
 30
0.0
 11
1239.720398
 21
154.319977
 31
0.0
  0
LINE
  5
16E
100
AcDbEntity
  8
LAY-1
  6
CONTINUOUS
 62
     3
100
AcDbLine
 10
1239.720398
 20
154.319977
 30
0.0
 11
1239.720398
 21
148.272003
 31
0.0
  0
LINE
  5
16F
100
AcDbEntity
  8
LAY-1
  6
CONTINUOUS
 62
     3
100
AcDbLine
 10
1239.720398
 20
148.272003
 30
0.0
 11
1227.245422
 21
148.272003
 31
0.0
  0
LINE
  5
170
100
AcDbEntity
  8
LAY-1
  6
CONTINUOUS
 62
     3
100
AcDbLine
 10
1227.245422
 20
148.272003
 30
0.0
 11
1239.720398
 21
114.0
 31
0.0
  0
LINE
  5
171
100
AcDbEntity
  8
LAY-1
  6
CONTINUOUS
 62
     3
100
AcDbLine
 10
1239.720398
 20
114.0
 30
0.0
 11
1227.920166
 21
114.0
 31
0.0
  0
LINE
  5
172
100
AcDbEntity
  8
LAY-1
  6
CONTINUOUS
 62
     3
100
AcDbLine
 10
1227.920166
 20
114.0
 30
0.0
 11
1215.447327
 21
148.272003
 31
0.0
  0
LINE
  5
173
100
AcDbEntity
  8
LAY-1
  6
CONTINUOUS
 62
     3
100
AcDbLine
 10
1215.447327
 20
148.272003
 30
0.0
 11
1183.272644
 21
148.272003
 31
0.0
  0
LINE
  5
174
100
AcDbEntity
  8
LAY-1
  6
CONTINUOUS
 62
     3
100
AcDbLine
 10
1241.736389
 20
149.747833
 30
0.0
 11
1241.736389
 21
143.369965
 31
0.0
  0
LINE
  5
175
100
AcDbEntity
  8
LAY-1
  6
CONTINUOUS
 62
     3
100
AcDbLine
 10
1241.736389
 20
149.747833
 30
0.0
 11
1270.463654
 21
159.359955
 31
0.0
  0
LINE
  5
176
100
AcDbEntity
  8
LAY-1
  6
CONTINUOUS
 62
     3
100
AcDbLine
 10
1270.463654
 20
159.359955
 30
0.0
 11
1299.191071
 21
149.747528
 31
0.0
  0
LINE
  5
177
100
AcDbEntity
  8
LAY-1
  6
CONTINUOUS
 62
     3
100
AcDbLine
 10
1299.191071
 20
149.747528
 30
0.0
 11
1299.191071
 21
143.369965
 31
0.0
  0
LINE
  5
178
100
AcDbEntity
  8
LAY-1
  6
CONTINUOUS
 62
     3
100
AcDbLine
 10
1299.191071
 20
143.369965
 30
0.0
 11
1290.624939
 21
146.236786
 31
0.0
  0
LINE
  5
179
100
AcDbEntity
  8
LAY-1
  6
CONTINUOUS
 62
     3
100
AcDbLine
 10
1290.624939
 20
146.236786
 30
0.0
 11
1290.624939
 21
141.216034
 31
0.0
  0
LINE
  5
17A
100
AcDbEntity
  8
LAY-1
  6
CONTINUOUS
 62
     3
100
AcDbLine
 10
1290.624939
 20
141.216034
 30
0.0
 11
1250.304504
 21
141.216034
 31
0.0
  0
LINE
  5
17B
100
AcDbEntity
  8
LAY-1
  6
CONTINUOUS
 62
     3
100
AcDbLine
 10
1250.304504
 20
141.216034
 30
0.0
 11
1250.304504
 21
146.236786
 31
0.0
  0
LINE
  5
17C
100
AcDbEntity
  8
LAY-1
  6
CONTINUOUS
 62
     3
100
AcDbLine
 10
1250.304504
 20
146.236786
 30
0.0
 11
1241.736389
 21
143.369965
 31
0.0
  0
LINE
  5
17D
100
AcDbEntity
  8
LAY-1
  6
CONTINUOUS
 62
     3
100
AcDbLine
 10
1253.374573
 20
147.264008
 30
0.0
 11
1270.463654
 21
152.982239
 31
0.0
  0
LINE
  5
17E
100
AcDbEntity
  8
LAY-1
  6
CONTINUOUS
 62
     3
100
AcDbLine
 10
1270.463654
 20
152.982239
 30
0.0
 11
1287.554871
 21
147.264008
 31
0.0
  0
LINE
  5
17F
100
AcDbEntity
  8
LAY-1
  6
CONTINUOUS
 62
     3
100
AcDbLine
 10
1287.554871
 20
147.264008
 30
0.0
 11
1253.374573
 21
147.264008
 31
0.0
  0
LINE
  5
180
100
AcDbEntity
  8
LAY-1
  6
CONTINUOUS
 62
     3
100
AcDbLine
 10
1241.736389
 20
137.183899
 30
0.0
 11
1241.736389
 21
131.135925
 31
0.0
  0
LINE
  5
181
100
AcDbEntity
  8
LAY-1
  6
CONTINUOUS
 62
     3
100
AcDbLine
 10
1241.736389
 20
137.183899
 30
0.0
 11
1299.191071
 21
137.183899
 31
0.0
  0
LINE
  5
182
100
AcDbEntity
  8
LAY-1
  6
CONTINUOUS
 62
     3
100
AcDbLine
 10
1299.191071
 20
137.183899
 30
0.0
 11
1299.191071
 21
131.135925
 31
0.0
  0
LINE
  5
183
100
AcDbEntity
  8
LAY-1
  6
CONTINUOUS
 62
     3
100
AcDbLine
 10
1299.191071
 20
131.135925
 30
0.0
 11
1291.201111
 21
131.135925
 31
0.0
  0
LINE
  5
184
100
AcDbEntity
  8
LAY-1
  6
CONTINUOUS
 62
     3
100
AcDbLine
 10
1291.201111
 20
131.135925
 30
0.0
 11
1299.191071
 21
114.0
 31
0.0
  0
LINE
  5
185
100
AcDbEntity
  8
LAY-1
  6
CONTINUOUS
 62
     3
100
AcDbLine
 10
1299.191071
 20
114.0
 30
0.0
 11
1241.736389
 21
114.0
 31
0.0
  0
LINE
  5
186
100
AcDbEntity
  8
LAY-1
  6
CONTINUOUS
 62
     3
100
AcDbLine
 10
1241.736389
 20
114.0
 30
0.0
 11
1249.726196
 21
131.135925
 31
0.0
  0
LINE
  5
187
100
AcDbEntity
  8
LAY-1
  6
CONTINUOUS
 62
     3
100
AcDbLine
 10
1249.726196
 20
131.135925
 30
0.0
 11
1241.736389
 21
131.135925
 31
0.0
  0
LINE
  5
188
100
AcDbEntity
  8
LAY-1
  6
CONTINUOUS
 62
     3
100
AcDbLine
 10
1260.847565
 20
131.135925
 30
0.0
 11
1280.079742
 21
131.135925
 31
0.0
  0
LINE
  5
189
100
AcDbEntity
  8
LAY-1
  6
CONTINUOUS
 62
     3
100
AcDbLine
 10
1280.079742
 20
131.135925
 30
0.0
 11
1285.249725
 21
120.047974
 31
0.0
  0
LINE
  5
18A
100
AcDbEntity
  8
LAY-1
  6
CONTINUOUS
 62
     3
100
AcDbLine
 10
1285.249725
 20
120.047974
 30
0.0
 11
1255.677582
 21
120.047974
 31
0.0
  0
LINE
  5
18B
100
AcDbEntity
  8
LAY-1
  6
CONTINUOUS
 62
     3
100
AcDbLine
 10
1260.847565
 20
131.135925
 30
0.0
 11
1255.677582
 21
120.047974
 31
0.0
  0
LINE
  5
18C
100
AcDbEntity
  8
LAY-1
  6
CONTINUOUS
 62
     3
100
AcDbLine
 10
1328.424927
 20
147.264008
 30
0.0
 11
1328.424927
 21
141.216034
 31
0.0
  0
LINE
  5
18D
100
AcDbEntity
  8
LAY-1
  6
CONTINUOUS
 62
     3
100
AcDbLine
 10
1328.424927
 20
147.264008
 30
0.0
 11
1337.495514
 21
147.264008
 31
0.0
  0
LINE
  5
18E
100
AcDbEntity
  8
LAY-1
  6
CONTINUOUS
 62
     3
100
AcDbLine
 10
1337.495514
 20
147.264008
 30
0.0
 11
1337.495514
 21
158.351959
 31
0.0
  0
LINE
  5
18F
100
AcDbEntity
  8
LAY-1
  6
CONTINUOUS
 62
     3
100
AcDbLine
 10
1337.495514
 20
158.351959
 30
0.0
 11
1347.575012
 21
158.351959
 31
0.0
  0
LINE
  5
190
100
AcDbEntity
  8
LAY-1
  6
CONTINUOUS
 62
     3
100
AcDbLine
 10
1347.575012
 20
158.351959
 30
0.0
 11
1347.575012
 21
147.264008
 31
0.0
  0
LINE
  5
191
100
AcDbEntity
  8
LAY-1
  6
CONTINUOUS
 62
     3
100
AcDbLine
 10
1347.575012
 20
147.264008
 30
0.0
 11
1356.647736
 21
147.264008
 31
0.0
  0
LINE
  5
192
100
AcDbEntity
  8
LAY-1
  6
CONTINUOUS
 62
     3
100
AcDbLine
 10
1356.647736
 20
147.264008
 30
0.0
 11
1356.647736
 21
141.216034
 31
0.0
  0
LINE
  5
193
100
AcDbEntity
  8
LAY-1
  6
CONTINUOUS
 62
     3
100
AcDbLine
 10
1356.647736
 20
141.216034
 30
0.0
 11
1347.575012
 21
141.216034
 31
0.0
  0
LINE
  5
194
100
AcDbEntity
  8
LAY-1
  6
CONTINUOUS
 62
     3
100
AcDbLine
 10
1347.575012
 20
141.216034
 30
0.0
 11
1347.575012
 21
120.047974
 31
0.0
  0
LINE
  5
195
100
AcDbEntity
  8
LAY-1
  6
CONTINUOUS
 62
     3
100
AcDbLine
 10
1347.575012
 20
120.047974
 30
0.0
 11
1357.656647
 21
120.047974
 31
0.0
  0
LINE
  5
196
100
AcDbEntity
  8
LAY-1
  6
CONTINUOUS
 62
     3
100
AcDbLine
 10
1357.656647
 20
120.047974
 30
0.0
 11
1357.656647
 21
114.0
 31
0.0
  0
LINE
  5
197
100
AcDbEntity
  8
LAY-1
  6
CONTINUOUS
 62
     3
100
AcDbLine
 10
1357.656647
 20
114.0
 30
0.0
 11
1324.390961
 21
114.0
 31
0.0
  0
LINE
  5
198
100
AcDbEntity
  8
LAY-1
  6
CONTINUOUS
 62
     3
100
AcDbLine
 10
1324.390961
 20
114.0
 30
0.0
 11
1324.390961
 21
120.047974
 31
0.0
  0
LINE
  5
199
100
AcDbEntity
  8
LAY-1
  6
CONTINUOUS
 62
     3
100
AcDbLine
 10
1324.390961
 20
120.047974
 30
0.0
 11
1337.495514
 21
120.047974
 31
0.0
  0
LINE
  5
19A
100
AcDbEntity
  8
LAY-1
  6
CONTINUOUS
 62
     3
100
AcDbLine
 10
1337.495514
 20
120.047974
 30
0.0
 11
1337.495514
 21
141.216034
 31
0.0
  0
LINE
  5
19B
100
AcDbEntity
  8
LAY-1
  6
CONTINUOUS
 62
     3
100
AcDbLine
 10
1337.495514
 20
141.216034
 30
0.0
 11
1328.424927
 21
141.216034
 31
0.0
  0
LINE
  5
19C
100
AcDbEntity
  8
LAY-1
  6
CONTINUOUS
 62
     3
100
AcDbLine
 10
1301.206909
 20
154.319977
 30
0.0
 11
1301.206909
 21
148.272003
 31
0.0
  0
LINE
  5
19D
100
AcDbEntity
  8
LAY-1
  6
CONTINUOUS
 62
     3
100
AcDbLine
 10
1301.206909
 20
154.319977
 30
0.0
 11
1310.279633
 21
154.319977
 31
0.0
  0
LINE
  5
19E
100
AcDbEntity
  8
LAY-1
  6
CONTINUOUS
 62
     3
100
AcDbLine
 10
1310.279633
 20
154.319977
 30
0.0
 11
1310.279633
 21
158.351959
 31
0.0
  0
LINE
  5
19F
100
AcDbEntity
  8
LAY-1
  6
CONTINUOUS
 62
     3
100
AcDbLine
 10
1310.279633
 20
158.351959
 30
0.0
 11
1320.359131
 21
158.351959
 31
0.0
  0
LINE
  5
1A0
100
AcDbEntity
  8
LAY-1
  6
CONTINUOUS
 62
     3
100
AcDbLine
 10
1320.359131
 20
158.351959
 30
0.0
 11
1320.359131
 21
154.319977
 31
0.0
  0
LINE
  5
1A1
100
AcDbEntity
  8
LAY-1
  6
CONTINUOUS
 62
     3
100
AcDbLine
 10
1320.359131
 20
154.319977
 30
0.0
 11
1329.431854
 21
154.319977
 31
0.0
  0
LINE
  5
1A2
100
AcDbEntity
  8
LAY-1
  6
CONTINUOUS
 62
     3
100
AcDbLine
 10
1329.431854
 20
154.319977
 30
0.0
 11
1319.026123
 21
139.45578
 31
0.0
  0
LINE
  5
1A3
100
AcDbEntity
  8
LAY-1
  6
CONTINUOUS
 62
     3
100
AcDbLine
 10
1319.026123
 20
139.45578
 30
0.0
 11
1328.424927
 21
132.875885
 31
0.0
  0
LINE
  5
1A4
100
AcDbEntity
  8
LAY-1
  6
CONTINUOUS
 62
     3
100
AcDbLine
 10
1328.424927
 20
132.875885
 30
0.0
 11
1328.424927
 21
121.801209
 31
0.0
  0
LINE
  5
1A5
100
AcDbEntity
  8
LAY-1
  6
CONTINUOUS
 62
     3
100
AcDbLine
 10
1328.424927
 20
121.801209
 30
0.0
 11
1320.359131
 21
127.447723
 31
0.0
  0
LINE
  5
1A6
100
AcDbEntity
  8
LAY-1
  6
CONTINUOUS
 62
     3
100
AcDbLine
 10
1320.359131
 20
127.447723
 30
0.0
 11
1320.359131
 21
114.0
 31
0.0
  0
LINE
  5
1A7
100
AcDbEntity
  8
LAY-1
  6
CONTINUOUS
 62
     3
100
AcDbLine
 10
1320.359131
 20
114.0
 30
0.0
 11
1310.279633
 21
114.0
 31
0.0
  0
LINE
  5
1A8
100
AcDbEntity
  8
LAY-1
  6
CONTINUOUS
 62
     3
100
AcDbLine
 10
1310.279633
 20
114.0
 30
0.0
 11
1310.279633
 21
126.9599
 31
0.0
  0
LINE
  5
1A9
100
AcDbEntity
  8
LAY-1
  6
CONTINUOUS
 62
     3
100
AcDbLine
 10
1310.279633
 20
126.9599
 30
0.0
 11
1301.206909
 21
114.0
 31
0.0
  0
LINE
  5
1AA
100
AcDbEntity
  8
LAY-1
  6
CONTINUOUS
 62
     3
100
AcDbLine
 10
1301.206909
 20
114.0
 30
0.0
 11
1301.206909
 21
129.819397
 31
0.0
  0
LINE
  5
1AB
100
AcDbEntity
  8
LAY-1
  6
CONTINUOUS
 62
     3
100
AcDbLine
 10
1301.206909
 20
129.819397
 30
0.0
 11
1314.124848
 21
148.272003
 31
0.0
  0
LINE
  5
1AC
100
AcDbEntity
  8
LAY-1
  6
CONTINUOUS
 62
     3
100
AcDbLine
 10
1314.124848
 20
148.272003
 30
0.0
 11
1301.206909
 21
148.272003
 31
0.0
  0
ARC
  5
1AD
100
AcDbEntity
  8
LAY-1
  6
CONTINUOUS
 62
     2
100
AcDbCircle
 10
859.161011
 20
140.200409
 30
0.0
 40
6.300122
100
AcDbArc
 50
310.768311
 51
335.998779
  0
LINE
  5
1AE
100
AcDbEntity
  8
LAY-1
  6
CONTINUOUS
 62
     2
100
AcDbLine
 10
866.400238
 20
140.964111
 30
0.0
 11
864.919678
 21
137.639069
 31
0.0
  0
LINE
  5
1AF
100
AcDbEntity
  8
LAY-1
  6
CONTINUOUS
 62
     2
100
AcDbLine
 10
848.985077
 20
144.744019
 30
0.0
 11
872.218414
 21
144.744019
 31
0.0
  0
ARC
  5
1B0
100
AcDbEntity
  8
LAY-1
  6
CONTINUOUS
 62
     2
100
AcDbCircle
 10
952.299286
 20
132.144073
 30
0.0
 40
15.624008
100
AcDbArc
 50
270.000031
 51
324.00116
  0
ARC
  5
1B1
100
AcDbEntity
  8
LAY-1
  6
CONTINUOUS
 62
     2
100
AcDbCircle
 10
952.299286
 20
132.144073
 30
0.0
 40
13.10401
100
AcDbArc
 50
270.000031
 51
324.00116
  0
ARC
  5
1B2
100
AcDbEntity
  8
LAY-1
  6
CONTINUOUS
 62
     2
100
AcDbCircle
 10
799.565674
 20
132.144073
 30
0.0
 40
15.62398
100
AcDbArc
 50
270.000031
 51
333.99855
  0
ARC
  5
1B3
100
AcDbEntity
  8
LAY-1
  6
CONTINUOUS
 62
     2
100
AcDbCircle
 10
798.765503
 20
132.144073
 30
0.0
 40
10.583992
100
AcDbArc
 50
270.000031
 51
333.99855
  0
ARC
  5
1B4
100
AcDbEntity
  8
LAY-1
  6
CONTINUOUS
 62
     2
100
AcDbCircle
 10
799.165588
 20
132.144073
 30
0.0
 40
13.103991
100
AcDbArc
 50
270.000031
 51
333.99855
  0
LINE
  5
1B5
100
AcDbEntity
  8
LAY-1
  6
CONTINUOUS
 62
     2
100
AcDbLine
 10
772.84082
 20
156.032127
 30
0.0
 11
797.383972
 21
156.032127
 31
0.0
  0
LINE
  5
1B6
100
AcDbEntity
  8
LAY-1
  6
CONTINUOUS
 62
     2
100
AcDbLine
 10
772.84082
 20
153.712143
 30
0.0
 11
797.383972
 21
153.712143
 31
0.0
  0
LINE
  5
1B7
100
AcDbEntity
  8
LAY-1
  6
CONTINUOUS
 62
     2
100
AcDbLine
 10
772.84082
 20
151.392311
 30
0.0
 11
797.383972
 21
151.392311
 31
0.0
  0
LINE
  5
1B8
100
AcDbEntity
  8
LAY-1
  6
CONTINUOUS
 62
     2
100
AcDbLine
 10
772.84082
 20
144.136032
 30
0.0
 11
797.383972
 21
144.136032
 31
0.0
  0
LINE
  5
1B9
100
AcDbEntity
  8
LAY-1
  6
CONTINUOUS
 62
     2
100
AcDbLine
 10
772.84082
 20
141.615891
 30
0.0
 11
797.383972
 21
141.615891
 31
0.0
  0
LINE
  5
1BA
100
AcDbEntity
  8
LAY-1
  6
CONTINUOUS
 62
     2
100
AcDbLine
 10
772.84082
 20
139.296059
 30
0.0
 11
797.383972
 21
139.296059
 31
0.0
  0
LINE
  5
1BB
100
AcDbEntity
  8
LAY-1
  6
CONTINUOUS
 62
     2
100
AcDbLine
 10
772.84082
 20
121.559967
 30
0.0
 11
798.765503
 21
121.559967
 31
0.0
  0
LINE
  5
1BC
100
AcDbEntity
  8
LAY-1
  6
CONTINUOUS
 62
     2
100
AcDbLine
 10
772.84082
 20
119.039978
 30
0.0
 11
798.765503
 21
119.039978
 31
0.0
  0
LINE
  5
1BD
100
AcDbEntity
  8
LAY-1
  6
CONTINUOUS
 62
     2
100
AcDbLine
 10
772.84082
 20
116.519989
 30
0.0
 11
798.765503
 21
116.519989
 31
0.0
  0
LINE
  5
1BE
100
AcDbEntity
  8
LAY-1
  6
CONTINUOUS
 62
     2
100
AcDbLine
 10
808.277069
 20
127.504028
 30
0.0
 11
817.108246
 21
145.610365
 31
0.0
  0
LINE
  5
1BF
100
AcDbEntity
  8
LAY-1
  6
CONTINUOUS
 62
     2
100
AcDbLine
 10
810.941254
 20
126.399597
 30
0.0
 11
820.311676
 21
145.610375
 31
0.0
  0
LINE
  5
1C0
100
AcDbEntity
  8
LAY-1
  6
CONTINUOUS
 62
     2
100
AcDbLine
 10
813.605286
 20
125.294251
 30
0.0
 11
823.513123
 21
145.610346
 31
0.0
  0
LINE
  5
1C1
100
AcDbEntity
  8
LAY-1
  6
CONTINUOUS
 62
     2
100
AcDbLine
 10
810.136353
 20
155.695976
 30
0.0
 11
814.518372
 21
155.695976
 31
0.0
  0
LINE
  5
1C2
100
AcDbEntity
  8
LAY-1
  6
CONTINUOUS
 62
     2
100
AcDbLine
 10
810.136353
 20
152.839989
 30
0.0
 11
814.518372
 21
152.839989
 31
0.0
  0
LINE
  5
1C3
100
AcDbEntity
  8
LAY-1
  6
CONTINUOUS
 62
     2
100
AcDbLine
 10
821.224915
 20
155.695976
 30
0.0
 11
825.606934
 21
155.695976
 31
0.0
  0
LINE
  5
1C4
100
AcDbEntity
  8
LAY-1
  6
CONTINUOUS
 62
     2
100
AcDbLine
 10
821.224915
 20
152.839989
 30
0.0
 11
825.606934
 21
152.839989
 31
0.0
  0
LINE
  5
1C5
100
AcDbEntity
  8
LAY-1
  6
CONTINUOUS
 62
     2
100
AcDbLine
 10
832.313477
 20
142.224182
 30
0.0
 11
844.28064
 21
142.224182
 31
0.0
  0
LINE
  5
1C6
100
AcDbEntity
  8
LAY-1
  6
CONTINUOUS
 62
     2
100
AcDbLine
 10
841.375366
 20
152.502684
 30
0.0
 11
842.605072
 21
144.744019
 31
0.0
  0
LINE
  5
1C7
100
AcDbEntity
  8
LAY-1
  6
CONTINUOUS
 62
     2
100
AcDbLine
 10
847.188049
 20
115.817303
 30
0.0
 11
843.449036
 21
139.419044
 31
0.0
  0
ARC
  5
1C8
100
AcDbEntity
  8
LAY-1
  6
CONTINUOUS
 62
     2
100
AcDbCircle
 10
858.960968
 20
140.200409
 30
0.0
 40
8.820121
100
AcDbArc
 50
272.671387
 51
335.998779
  0
ARC
  5
1C9
100
AcDbEntity
  8
LAY-1
  6
CONTINUOUS
 62
     2
100
AcDbCircle
 10
858.760925
 20
140.200409
 30
0.0
 40
11.340113
100
AcDbArc
 50
267.367432
 51
335.998779
  0
LINE
  5
1CA
100
AcDbEntity
  8
LAY-1
  6
CONTINUOUS
 62
     2
100
AcDbLine
 10
873.351685
 20
145.090527
 30
0.0
 11
869.12149
 21
135.588593
 31
0.0
  0
LINE
  5
1CB
100
AcDbEntity
  8
LAY-1
  6
CONTINUOUS
 62
     2
100
AcDbLine
 10
853.090607
 20
115.817303
 30
0.0
 11
849.220368
 21
140.248818
 31
0.0
  0
LINE
  5
1CC
100
AcDbEntity
  8
LAY-1
  6
CONTINUOUS
 62
     2
100
AcDbLine
 10
850.339295
 20
115.817303
 30
0.0
 11
844.528442
 21
152.502674
 31
0.0
  0
LINE
  5
1CD
100
AcDbEntity
  8
LAY-1
  6
CONTINUOUS
 62
     2
100
AcDbLine
 10
847.279755
 20
152.502674
 30
0.0
 11
848.39563
 21
145.459465
 31
0.0
  0
LINE
  5
1CE
100
AcDbEntity
  8
LAY-1
  6
CONTINUOUS
 62
     2
100
AcDbLine
 10
832.313477
 20
144.744019
 30
0.0
 11
840.605103
 21
144.744019
 31
0.0
  0
LINE
  5
1CF
100
AcDbEntity
  8
LAY-1
  6
CONTINUOUS
 62
     2
100
AcDbLine
 10
869.669891
 20
142.570395
 30
0.0
 11
867.020508
 21
136.613525
 31
0.0
  0
LINE
  5
1D0
100
AcDbEntity
  8
LAY-1
  6
CONTINUOUS
 62
     2
100
AcDbLine
 10
848.107391
 20
142.224182
 30
0.0
 11
867.338196
 21
142.224182
 31
0.0
  0
ARC
  5
1D1
100
AcDbEntity
  8
LAY-1
  6
CONTINUOUS
 62
     2
100
AcDbCircle
 10
858.560883
 20
140.200409
 30
0.0
 40
13.860111
100
AcDbArc
 50
269.611328
 51
335.998779
  0
LINE
  5
1D2
100
AcDbEntity
  8
LAY-1
  6
CONTINUOUS
 62
     2
100
AcDbLine
 10
875.909821
 20
145.090555
 30
0.0
 11
871.222473
 21
134.563355
 31
0.0
  0
LINE
  5
1D3
100
AcDbEntity
  8
LAY-1
  6
CONTINUOUS
 62
     2
100
AcDbLine
 10
983.312622
 20
153.312134
 30
0.0
 11
962.880646
 21
125.182709
 31
0.0
  0
LINE
  5
1D4
100
AcDbEntity
  8
LAY-1
  6
CONTINUOUS
 62
     2
100
AcDbLine
 10
977.868134
 20
150.792297
 30
0.0
 11
960.342041
 21
126.664032
 31
0.0
  0
ARC
  5
1D5
100
AcDbEntity
  8
LAY-1
  6
CONTINUOUS
 62
     2
100
AcDbCircle
 10
952.999359
 20
131.744064
 30
0.0
 40
9.324021
100
AcDbArc
 50
270.000031
 51
324.00116
  0
LINE
  5
1D6
100
AcDbEntity
  8
LAY-1
  6
CONTINUOUS
 62
     2
100
AcDbLine
 10
883.879486
 20
156.015591
 30
0.0
 11
928.263641
 21
156.015591
 31
0.0
  0
LINE
  5
1D7
100
AcDbEntity
  8
LAY-1
  6
CONTINUOUS
 62
     2
100
AcDbLine
 10
883.879486
 20
153.395752
 30
0.0
 11
928.263641
 21
153.395752
 31
0.0
  0
LINE
  5
1D8
100
AcDbEntity
  8
LAY-1
  6
CONTINUOUS
 62
     2
100
AcDbLine
 10
883.879486
 20
150.675911
 30
0.0
 11
928.263641
 21
150.675911
 31
0.0
  0
LINE
  5
1D9
100
AcDbEntity
  8
LAY-1
  6
CONTINUOUS
 62
     2
100
AcDbLine
 10
879.847656
 20
121.644043
 30
0.0
 11
932.295471
 21
121.644043
 31
0.0
  0
LINE
  5
1DA
100
AcDbEntity
  8
LAY-1
  6
CONTINUOUS
 62
     2
100
AcDbLine
 10
879.847656
 20
119.124054
 30
0.0
 11
932.295471
 21
119.124054
 31
0.0
  0
LINE
  5
1DB
100
AcDbEntity
  8
LAY-1
  6
CONTINUOUS
 62
     2
100
AcDbLine
 10
879.847656
 20
116.403908
 30
0.0
 11
932.295471
 21
116.403908
 31
0.0
  0
LINE
  5
1DC
100
AcDbEntity
  8
LAY-1
  6
CONTINUOUS
 62
     2
100
AcDbLine
 10
943.352142
 20
155.932125
 30
0.0
 11
986.256805
 21
155.932125
 31
0.0
  0
LINE
  5
1DD
100
AcDbEntity
  8
LAY-1
  6
CONTINUOUS
 62
     2
100
AcDbLine
 10
988.856903
 20
155.832123
 30
0.0
 11
965.519043
 21
123.700623
 31
0.0
  0
LINE
  5
1DE
100
AcDbEntity
  8
LAY-1
  6
CONTINUOUS
 62
     2
100
AcDbLine
 10
943.352142
 20
153.312134
 30
0.0
 11
981.3125
 21
153.312134
 31
0.0
  0
LINE
  5
1DF
100
AcDbEntity
  8
LAY-1
  6
CONTINUOUS
 62
     2
100
AcDbLine
 10
952.299286
 20
121.659969
 30
0.0
 11
939.320313
 21
121.659969
 31
0.0
  0
LINE
  5
1E0
100
AcDbEntity
  8
LAY-1
  6
CONTINUOUS
 62
     2
100
AcDbLine
 10
952.299286
 20
119.039978
 30
0.0
 11
939.320313
 21
119.039978
 31
0.0
  0
LINE
  5
1E1
100
AcDbEntity
  8
LAY-1
  6
CONTINUOUS
 62
     2
100
AcDbLine
 10
952.299286
 20
116.419987
 30
0.0
 11
939.320313
 21
116.419987
 31
0.0
  0
LINE
  5
1E2
100
AcDbEntity
  8
LAY-1
  6
CONTINUOUS
 62
     2
100
AcDbLine
 10
972.431885
 20
129.737152
 30
0.0
 11
984.371582
 21
115.999998
 31
0.0
  0
LINE
  5
1E3
100
AcDbEntity
  8
LAY-1
  6
CONTINUOUS
 62
     2
100
AcDbLine
 10
973.953491
 20
131.530508
 30
0.0
 11
987.451721
 21
115.999998
 31
0.0
  0
LINE
  5
1E4
100
AcDbEntity
  8
LAY-1
  6
CONTINUOUS
 62
     2
100
AcDbLine
 10
975.473114
 20
133.322949
 30
0.0
 11
990.529419
 21
115.999998
 31
0.0
  0
LINE
  5
1E5
100
AcDbEntity
  8
LAY-1
  6
CONTINUOUS
 62
     2
100
AcDbLine
 10
976.992737
 20
135.115847
 30
0.0
 11
993.609253
 21
115.999998
 31
0.0
  0
LINE
  5
1E6
100
AcDbEntity
  8
LAY-1
  6
CONTINUOUS
 62
     2
100
AcDbLine
 10
943.352142
 20
150.592293
 30
0.0
 11
975.367981
 21
150.592293
 31
0.0
  0
LINE
  5
1E7
100
AcDbEntity
  8
LAY-1
  6
CONTINUOUS
 62
     2
100
AcDbLine
 10
1011.895538
 20
156.032127
 30
0.0
 11
1060.311371
 21
156.032127
 31
0.0
  0
LINE
  5
1E8
100
AcDbEntity
  8
LAY-1
  6
CONTINUOUS
 62
     2
100
AcDbLine
 10
1011.895538
 20
153.512138
 30
0.0
 11
1060.311371
 21
153.512138
 31
0.0
  0
LINE
  5
1E9
100
AcDbEntity
  8
LAY-1
  6
CONTINUOUS
 62
     2
100
AcDbLine
 10
1032.677399
 20
121.479916
 30
0.0
 11
1032.677399
 21
151.212219
 31
0.0
  0
LINE
  5
1EA
100
AcDbEntity
  8
LAY-1
  6
CONTINUOUS
 62
     2
100
AcDbLine
 10
1035.195862
 20
121.479916
 30
0.0
 11
1035.195862
 21
151.212219
 31
0.0
  0
LINE
  5
1EB
100
AcDbEntity
  8
LAY-1
  6
CONTINUOUS
 62
     2
100
AcDbLine
 10
1037.714172
 20
121.479916
 30
0.0
 11
1037.714172
 21
151.212219
 31
0.0
  0
LINE
  5
1EC
100
AcDbEntity
  8
LAY-1
  6
CONTINUOUS
 62
     2
100
AcDbLine
 10
1040.03244
 20
121.479916
 30
0.0
 11
1040.03244
 21
151.212219
 31
0.0
  0
LINE
  5
1ED
100
AcDbEntity
  8
LAY-1
  6
CONTINUOUS
 62
     2
100
AcDbLine
 10
1009.879547
 20
119.479918
 30
0.0
 11
1062.327362
 21
119.479918
 31
0.0
  0
LINE
  5
1EE
100
AcDbEntity
  8
LAY-1
  6
CONTINUOUS
 62
     2
100
AcDbLine
 10
1009.879547
 20
116.459927
 30
0.0
 11
1062.327362
 21
116.459927
 31
0.0
  0
LINE
  5
1EF
100
AcDbEntity
  8
LAY-1
  6
CONTINUOUS
 62
     2
100
AcDbLine
 10
1074.127594
 20
156.351961
 30
0.0
 11
1077.87088
 21
151.561502
 31
0.0
  0
LINE
  5
1F0
100
AcDbEntity
  8
LAY-1
  6
CONTINUOUS
 62
     2
100
AcDbLine
 10
1077.324768
 20
156.351961
 30
0.0
 11
1081.068054
 21
151.561502
 31
0.0
  0
LINE
  5
1F1
100
AcDbEntity
  8
LAY-1
  6
CONTINUOUS
 62
     2
100
AcDbLine
 10
1087.31134
 20
156.351961
 30
0.0
 11
1087.31134
 21
151.985563
 31
0.0
  0
LINE
  5
1F2
100
AcDbEntity
  8
LAY-1
  6
CONTINUOUS
 62
     2
100
AcDbLine
 10
1090.029846
 20
156.351961
 30
0.0
 11
1090.029846
 21
151.985563
 31
0.0
  0
LINE
  5
1F3
100
AcDbEntity
  8
LAY-1
  6
CONTINUOUS
 62
     2
100
AcDbLine
 10
1097.390991
 20
156.351961
 30
0.0
 11
1097.390991
 21
151.985563
 31
0.0
  0
LINE
  5
1F4
100
AcDbEntity
  8
LAY-1
  6
CONTINUOUS
 62
     2
100
AcDbLine
 10
1100.309387
 20
156.351961
 30
0.0
 11
1100.309387
 21
151.985563
 31
0.0
  0
LINE
  5
1F5
100
AcDbEntity
  8
LAY-1
  6
CONTINUOUS
 62
     2
100
AcDbLine
 10
1109.995667
 20
156.351961
 30
0.0
 11
1106.25238
 21
151.561502
 31
0.0
  0
LINE
  5
1F6
100
AcDbEntity
  8
LAY-1
  6
CONTINUOUS
 62
     2
100
AcDbLine
 10
1113.392883
 20
156.351961
 30
0.0
 11
1109.649597
 21
151.561502
 31
0.0
  0
LINE
  5
1F7
100
AcDbEntity
  8
LAY-1
  6
CONTINUOUS
 62
     2
100
AcDbLine
 10
1067.336212
 20
149.985565
 30
0.0
 11
1119.784027
 21
149.985565
 31
0.0
  0
LINE
  5
1F8
100
AcDbEntity
  8
LAY-1
  6
CONTINUOUS
 62
     2
100
AcDbLine
 10
1080.431763
 20
142.188286
 30
0.0
 11
1078.277832
 21
148.106178
 31
0.0
  0
LINE
  5
1F9
100
AcDbEntity
  8
LAY-1
  6
CONTINUOUS
 62
     2
100
AcDbLine
 10
1083.512207
 20
142.188286
 30
0.0
 11
1081.358276
 21
148.106178
 31
0.0
  0
LINE
  5
1FA
100
AcDbEntity
  8
LAY-1
  6
CONTINUOUS
 62
     2
100
AcDbLine
 10
1086.392609
 20
142.188515
 30
0.0
 11
1084.241119
 21
148.105949
 31
0.0
  0
LINE
  5
1FB
100
AcDbEntity
  8
LAY-1
  6
CONTINUOUS
 62
     2
100
AcDbLine
 10
1100.919434
 20
142.188066
 30
0.0
 11
1103.075653
 21
148.106398
 31
0.0
  0
LINE
  5
1FC
100
AcDbEntity
  8
LAY-1
  6
CONTINUOUS
 62
     2
100
AcDbLine
 10
1104.002014
 20
142.188066
 30
0.0
 11
1106.158234
 21
148.106398
 31
0.0
  0
LINE
  5
1FD
100
AcDbEntity
  8
LAY-1
  6
CONTINUOUS
 62
     2
100
AcDbLine
 10
1106.882416
 20
142.188066
 30
0.0
 11
1109.038635
 21
148.106398
 31
0.0
  0
LINE
  5
1FE
100
AcDbEntity
  8
LAY-1
  6
CONTINUOUS
 62
     2
100
AcDbLine
 10
1067.336212
 20
140.308899
 30
0.0
 11
1119.784027
 21
140.308899
 31
0.0
  0
LINE
  5
1FF
100
AcDbEntity
  8
LAY-1
  6
CONTINUOUS
 62
     2
100
AcDbLine
 10
1067.336212
 20
133.353638
 30
0.0
 11
1088.838745
 21
133.353638
 31
0.0
  0
LINE
  5
200
100
AcDbEntity
  8
LAY-1
  6
CONTINUOUS
 62
     2
100
AcDbLine
 10
1067.336212
 20
126.398377
 30
0.0
 11
1088.838745
 21
126.398377
 31
0.0
  0
LINE
  5
201
100
AcDbEntity
  8
LAY-1
  6
CONTINUOUS
 62
     2
100
AcDbLine
 10
1098.475586
 20
126.398377
 30
0.0
 11
1119.784027
 21
126.398377
 31
0.0
  0
LINE
  5
202
100
AcDbEntity
  8
LAY-1
  6
CONTINUOUS
 62
     2
100
AcDbLine
 10
1070.50882
 20
115.999998
 30
0.0
 11
1080.533234
 21
125.057539
 31
0.0
  0
LINE
  5
203
100
AcDbEntity
  8
LAY-1
  6
CONTINUOUS
 62
     2
100
AcDbLine
 10
1073.867737
 20
115.999998
 30
0.0
 11
1083.892456
 21
125.057558
 31
0.0
  0
LINE
  5
204
100
AcDbEntity
  8
LAY-1
  6
CONTINUOUS
 62
     2
100
AcDbLine
 10
1077.028748
 20
115.999998
 30
0.0
 11
1087.053467
 21
125.057558
 31
0.0
  0
LINE
  5
205
100
AcDbEntity
  8
LAY-1
  6
CONTINUOUS
 62
     2
100
AcDbLine
 10
1090.838715
 20
115.999998
 30
0.0
 11
1090.838715
 21
138.308901
 31
0.0
  0
LINE
  5
206
100
AcDbEntity
  8
LAY-1
  6
CONTINUOUS
 62
     2
100
AcDbLine
 10
1093.757111
 20
115.999998
 30
0.0
 11
1093.757111
 21
138.308901
 31
0.0
  0
LINE
  5
207
100
AcDbEntity
  8
LAY-1
  6
CONTINUOUS
 62
     2
100
AcDbLine
 10
1096.475616
 20
115.999998
 30
0.0
 11
1096.475616
 21
138.308901
 31
0.0
  0
LINE
  5
208
100
AcDbEntity
  8
LAY-1
  6
CONTINUOUS
 62
     2
100
AcDbLine
 10
1110.171753
 20
115.999998
 30
0.0
 11
1100.147339
 21
125.057539
 31
0.0
  0
LINE
  5
209
100
AcDbEntity
  8
LAY-1
  6
CONTINUOUS
 62
     2
100
AcDbLine
 10
1113.530823
 20
115.999998
 30
0.0
 11
1103.506104
 21
125.057558
 31
0.0
  0
LINE
  5
20A
100
AcDbEntity
  8
LAY-1
  6
CONTINUOUS
 62
     2
100
AcDbLine
 10
1116.891876
 20
115.999998
 30
0.0
 11
1106.867157
 21
125.057558
 31
0.0
  0
LINE
  5
20B
100
AcDbEntity
  8
LAY-1
  6
CONTINUOUS
 62
     2
100
AcDbLine
 10
1135.997864
 20
156.351961
 30
0.0
 11
1135.997864
 21
152.79199
 31
0.0
  0
LINE
  5
20C
100
AcDbEntity
  8
LAY-1
  6
CONTINUOUS
 62
     2
100
AcDbLine
 10
1138.516174
 20
156.351961
 30
0.0
 11
1138.516174
 21
152.79199
 31
0.0
  0
LINE
  5
20D
100
AcDbEntity
  8
LAY-1
  6
CONTINUOUS
 62
     2
100
AcDbLine
 10
1141.034637
 20
156.351961
 30
0.0
 11
1141.034637
 21
152.79199
 31
0.0
  0
LINE
  5
20E
100
AcDbEntity
  8
LAY-1
  6
CONTINUOUS
 62
     2
100
AcDbLine
 10
1125.799957
 20
150.791992
 30
0.0
 11
1143.975159
 21
150.791992
 31
0.0
  0
LINE
  5
20F
100
AcDbEntity
  8
LAY-1
  6
CONTINUOUS
 62
     2
100
AcDbLine
 10
1125.944153
 20
115.98905
 30
0.0
 11
1129.392029
 21
148.802942
 31
0.0
  0
LINE
  5
210
100
AcDbEntity
  8
LAY-1
  6
CONTINUOUS
 62
     2
100
AcDbLine
 10
1128.276764
 20
115.98905
 30
0.0
 11
1131.724792
 21
148.802942
 31
0.0
  0
LINE
  5
211
100
AcDbEntity
  8
LAY-1
  6
CONTINUOUS
 62
     2
100
AcDbLine
 10
1135.997864
 20
115.999998
 30
0.0
 11
1135.997864
 21
148.791994
 31
0.0
  0
LINE
  5
212
100
AcDbEntity
  8
LAY-1
  6
CONTINUOUS
 62
     2
100
AcDbLine
 10
1138.516174
 20
115.999998
 30
0.0
 11
1138.516174
 21
148.791994
 31
0.0
  0
LINE
  5
213
100
AcDbEntity
  8
LAY-1
  6
CONTINUOUS
 62
     2
100
AcDbLine
 10
1141.034637
 20
115.999998
 30
0.0
 11
1141.034637
 21
148.791994
 31
0.0
  0
LINE
  5
214
100
AcDbEntity
  8
LAY-1
  6
CONTINUOUS
 62
     2
100
AcDbLine
 10
1142.209259
 20
146.154245
 30
0.0
 11
1144.800354
 21
142.583841
 31
0.0
  0
LINE
  5
215
100
AcDbEntity
  8
LAY-1
  6
CONTINUOUS
 62
     2
100
AcDbLine
 10
1142.209259
 20
142.264246
 30
0.0
 11
1144.800354
 21
138.693842
 31
0.0
  0
LINE
  5
216
100
AcDbEntity
  8
LAY-1
  6
CONTINUOUS
 62
     2
100
AcDbLine
 10
1148.469177
 20
147.188601
 30
0.0
 11
1150.768829
 21
156.411375
 31
0.0
  0
LINE
  5
217
100
AcDbEntity
  8
LAY-1
  6
CONTINUOUS
 62
     2
100
AcDbLine
 10
1150.867401
 20
147.188686
 30
0.0
 11
1153.165222
 21
156.411289
 31
0.0
  0
LINE
  5
218
100
AcDbEntity
  8
LAY-1
  6
CONTINUOUS
 62
     2
100
AcDbLine
 10
1152.963806
 20
147.188601
 30
0.0
 11
1155.263458
 21
156.411375
 31
0.0
  0
LINE
  5
219
100
AcDbEntity
  8
LAY-1
  6
CONTINUOUS
 62
     2
100
AcDbLine
 10
1161.702362
 20
152.79199
 30
0.0
 11
1161.702362
 21
156.351961
 31
0.0
  0
LINE
  5
21A
100
AcDbEntity
  8
LAY-1
  6
CONTINUOUS
 62
     2
100
AcDbLine
 10
1164.420715
 20
152.79199
 30
0.0
 11
1164.420715
 21
156.351961
 31
0.0
  0
LINE
  5
21B
100
AcDbEntity
  8
LAY-1
  6
CONTINUOUS
 62
     2
100
AcDbLine
 10
1166.939179
 20
152.79199
 30
0.0
 11
1166.939179
 21
156.351961
 31
0.0
  0
LINE
  5
21C
100
AcDbEntity
  8
LAY-1
  6
CONTINUOUS
 62
     2
100
AcDbLine
 10
1155.862213
 20
150.791992
 30
0.0
 11
1178.247772
 21
150.791992
 31
0.0
  0
LINE
  5
21D
100
AcDbEntity
  8
LAY-1
  6
CONTINUOUS
 62
     2
100
AcDbLine
 10
1161.702362
 20
148.791994
 30
0.0
 11
1161.702362
 21
142.712034
 31
0.0
  0
LINE
  5
21E
100
AcDbEntity
  8
LAY-1
  6
CONTINUOUS
 62
     2
100
AcDbLine
 10
1164.420715
 20
148.791994
 30
0.0
 11
1164.420715
 21
142.712034
 31
0.0
  0
LINE
  5
21F
100
AcDbEntity
  8
LAY-1
  6
CONTINUOUS
 62
     2
100
AcDbLine
 10
1166.939179
 20
148.791994
 30
0.0
 11
1166.939179
 21
142.712034
 31
0.0
  0
LINE
  5
220
100
AcDbEntity
  8
LAY-1
  6
CONTINUOUS
 62
     2
100
AcDbLine
 10
1148.984009
 20
140.712036
 30
0.0
 11
1179.256683
 21
140.712036
 31
0.0
  0
LINE
  5
221
100
AcDbEntity
  8
LAY-1
  6
CONTINUOUS
 62
     2
100
AcDbLine
 10
1153.447968
 20
138.744387
 30
0.0
 11
1149.300781
 21
115.96765
 31
0.0
  0
LINE
  5
222
100
AcDbEntity
  8
LAY-1
  6
CONTINUOUS
 62
     2
100
AcDbLine
 10
1155.807282
 20
138.744387
 30
0.0
 11
1151.660248
 21
115.96765
 31
0.0
  0
LINE
  5
223
100
AcDbEntity
  8
LAY-1
  6
CONTINUOUS
 62
     2
100
AcDbLine
 10
1157.889191
 20
138.744415
 30
0.0
 11
1153.740021
 21
115.967621
 31
0.0
  0
LINE
  5
224
100
AcDbEntity
  8
LAY-1
  6
CONTINUOUS
 62
     2
100
AcDbLine
 10
1161.702362
 20
138.712038
 30
0.0
 11
1161.702362
 21
115.999998
 31
0.0
  0
LINE
  5
225
100
AcDbEntity
  8
LAY-1
  6
CONTINUOUS
 62
     2
100
AcDbLine
 10
1164.220673
 20
138.712038
 30
0.0
 11
1164.220673
 21
115.999998
 31
0.0
  0
LINE
  5
226
100
AcDbEntity
  8
LAY-1
  6
CONTINUOUS
 62
     2
100
AcDbLine
 10
1166.939179
 20
138.712038
 30
0.0
 11
1166.939179
 21
115.999998
 31
0.0
  0
LINE
  5
227
100
AcDbEntity
  8
LAY-1
  6
CONTINUOUS
 62
     2
100
AcDbLine
 10
1170.349518
 20
138.744415
 30
0.0
 11
1174.498688
 21
115.967621
 31
0.0
  0
LINE
  5
228
100
AcDbEntity
  8
LAY-1
  6
CONTINUOUS
 62
     2
100
AcDbLine
 10
1172.510925
 20
138.744415
 30
0.0
 11
1176.660095
 21
115.967621
 31
0.0
  0
LINE
  5
229
100
AcDbEntity
  8
LAY-1
  6
CONTINUOUS
 62
     2
100
AcDbLine
 10
1175.070282
 20
138.744415
 30
0.0
 11
1179.219452
 21
115.967621
 31
0.0
  0
LINE
  5
22A
100
AcDbEntity
  8
LAY-1
  6
CONTINUOUS
 62
     2
100
AcDbLine
 10
1185.272614
 20
152.400154
 30
0.0
 11
1213.824097
 21
152.400154
 31
0.0
  0
LINE
  5
22B
100
AcDbEntity
  8
LAY-1
  6
CONTINUOUS
 62
     2
100
AcDbLine
 10
1185.272614
 20
149.880165
 30
0.0
 11
1214.741303
 21
149.880165
 31
0.0
  0
LINE
  5
22C
100
AcDbEntity
  8
LAY-1
  6
CONTINUOUS
 62
     2
100
AcDbLine
 10
1229.116608
 20
115.879387
 30
0.0
 11
1214.34198
 21
156.472572
 31
0.0
  0
LINE
  5
22D
100
AcDbEntity
  8
LAY-1
  6
CONTINUOUS
 62
     2
100
AcDbLine
 10
1231.796967
 20
115.879396
 30
0.0
 11
1217.022949
 21
156.472563
 31
0.0
  0
LINE
  5
22E
100
AcDbEntity
  8
LAY-1
  6
CONTINUOUS
 62
     2
100
AcDbLine
 10
1234.477326
 20
115.879396
 30
0.0
 11
1219.703308
 21
156.472563
 31
0.0
  0
LINE
  5
22F
100
AcDbEntity
  8
LAY-1
  6
CONTINUOUS
 62
     2
100
AcDbLine
 10
1237.157684
 20
115.879358
 30
0.0
 11
1222.381378
 21
156.472591
 31
0.0
  0
LINE
  5
230
100
AcDbEntity
  8
LAY-1
  6
CONTINUOUS
 62
     2
100
AcDbLine
 10
1229.543091
 20
154.400152
 30
0.0
 11
1229.543091
 21
156.351961
 31
0.0
  0
LINE
  5
231
100
AcDbEntity
  8
LAY-1
  6
CONTINUOUS
 62
     2
100
AcDbLine
 10
1232.261597
 20
154.400152
 30
0.0
 11
1232.261597
 21
156.351961
 31
0.0
  0
LINE
  5
232
100
AcDbEntity
  8
LAY-1
  6
CONTINUOUS
 62
     2
100
AcDbLine
 10
1234.97995
 20
154.400152
 30
0.0
 11
1234.97995
 21
156.351961
 31
0.0
  0
LINE
  5
233
100
AcDbEntity
  8
LAY-1
  6
CONTINUOUS
 62
     2
100
AcDbLine
 10
1225.863739
 20
152.400154
 30
0.0
 11
1237.720429
 21
152.400154
 31
0.0
  0
LINE
  5
234
100
AcDbEntity
  8
LAY-1
  6
CONTINUOUS
 62
     2
100
AcDbLine
 10
1226.781098
 20
149.880165
 30
0.0
 11
1237.720429
 21
149.880165
 31
0.0
  0
LINE
  5
235
100
AcDbEntity
  8
LAY-1
  6
CONTINUOUS
 62
     2
100
AcDbLine
 10
1188.295532
 20
140.364098
 30
0.0
 11
1214.536377
 21
140.364098
 31
0.0
  0
LINE
  5
236
100
AcDbEntity
  8
LAY-1
  6
CONTINUOUS
 62
     2
100
AcDbLine
 10
1188.295532
 20
137.843956
 30
0.0
 11
1214.536377
 21
137.843956
 31
0.0
  0
LINE
  5
237
100
AcDbEntity
  8
LAY-1
  6
CONTINUOUS
 62
     2
100
AcDbLine
 10
1197.790924
 20
135.843958
 30
0.0
 11
1197.790924
 21
125.791153
 31
0.0
  0
LINE
  5
238
100
AcDbEntity
  8
LAY-1
  6
CONTINUOUS
 62
     2
100
AcDbLine
 10
1200.309235
 20
135.843958
 30
0.0
 11
1200.309235
 21
126.326431
 31
0.0
  0
LINE
  5
239
100
AcDbEntity
  8
LAY-1
  6
CONTINUOUS
 62
     2
100
AcDbLine
 10
1202.827545
 20
135.843958
 30
0.0
 11
1202.827545
 21
126.861719
 31
0.0
  0
LINE
  5
23A
100
AcDbEntity
  8
LAY-1
  6
CONTINUOUS
 62
     2
100
AcDbLine
 10
1205.346008
 20
135.843958
 30
0.0
 11
1205.346008
 21
127.397026
 31
0.0
  0
LINE
  5
23B
100
AcDbEntity
  8
LAY-1
  6
CONTINUOUS
 62
     2
100
AcDbLine
 10
1187.747284
 20
121.656317
 30
0.0
 11
1215.084473
 21
127.466997
 31
0.0
  0
LINE
  5
23C
100
AcDbEntity
  8
LAY-1
  6
CONTINUOUS
 62
     2
100
AcDbLine
 10
1187.747284
 20
118.880028
 30
0.0
 11
1215.084473
 21
124.690851
 31
0.0
  0
LINE
  5
23D
100
AcDbEntity
  8
LAY-1
  6
CONTINUOUS
 62
     2
100
AcDbLine
 10
1187.747284
 20
116.503729
 30
0.0
 11
1215.084473
 21
122.314409
 31
0.0
  0
LINE
  5
23E
100
AcDbEntity
  8
LAY-1
  6
CONTINUOUS
 62
     2
100
AcDbLine
 10
1243.633057
 20
148.325943
 30
0.0
 11
1269.51532
 21
156.985401
 31
0.0
  0
LINE
  5
23F
100
AcDbEntity
  8
LAY-1
  6
CONTINUOUS
 62
     2
100
AcDbLine
 10
1243.633057
 20
145.668625
 30
0.0
 11
1269.51532
 21
154.328236
 31
0.0
  0
LINE
  5
240
100
AcDbEntity
  8
LAY-1
  6
CONTINUOUS
 62
     2
100
AcDbLine
 10
1271.411987
 20
156.985392
 30
0.0
 11
1297.294403
 21
148.325304
 31
0.0
  0
LINE
  5
241
100
AcDbEntity
  8
LAY-1
  6
CONTINUOUS
 62
     2
100
AcDbLine
 10
1271.411987
 20
154.528231
 30
0.0
 11
1297.294403
 21
145.868143
 31
0.0
  0
LINE
  5
242
100
AcDbEntity
  8
LAY-1
  6
CONTINUOUS
 62
     2
100
AcDbLine
 10
1288.62497
 20
145.596107
 30
0.0
 11
1252.304474
 21
145.596107
 31
0.0
  0
LINE
  5
243
100
AcDbEntity
  8
LAY-1
  6
CONTINUOUS
 62
     2
100
AcDbLine
 10
1288.62497
 20
142.875961
 30
0.0
 11
1252.304474
 21
142.875961
 31
0.0
  0
LINE
  5
244
100
AcDbEntity
  8
LAY-1
  6
CONTINUOUS
 62
     2
100
AcDbLine
 10
1243.736359
 20
135.063919
 30
0.0
 11
1297.191101
 21
135.063919
 31
0.0
  0
LINE
  5
245
100
AcDbEntity
  8
LAY-1
  6
CONTINUOUS
 62
     2
100
AcDbLine
 10
1243.736359
 20
132.744087
 30
0.0
 11
1297.191101
 21
132.744087
 31
0.0
  0
LINE
  5
246
100
AcDbEntity
  8
LAY-1
  6
CONTINUOUS
 62
     2
100
AcDbLine
 10
1252.013336
 20
130.931534
 30
0.0
 11
1246.911255
 21
119.99246
 31
0.0
  0
LINE
  5
247
100
AcDbEntity
  8
LAY-1
  6
CONTINUOUS
 62
     2
100
AcDbLine
 10
1255.194336
 20
130.931543
 30
0.0
 11
1250.092102
 21
119.99246
 31
0.0
  0
LINE
  5
248
100
AcDbEntity
  8
LAY-1
  6
CONTINUOUS
 62
     2
100
AcDbLine
 10
1258.375336
 20
130.931543
 30
0.0
 11
1253.273102
 21
119.99246
 31
0.0
  0
LINE
  5
249
100
AcDbEntity
  8
LAY-1
  6
CONTINUOUS
 62
     2
100
AcDbLine
 10
1282.554108
 20
130.931667
 30
0.0
 11
1287.658325
 21
119.992336
 31
0.0
  0
LINE
  5
24A
100
AcDbEntity
  8
LAY-1
  6
CONTINUOUS
 62
     2
100
AcDbLine
 10
1285.737091
 20
130.931419
 30
0.0
 11
1290.837036
 21
119.992584
 31
0.0
  0
LINE
  5
24B
100
AcDbEntity
  8
LAY-1
  6
CONTINUOUS
 62
     2
100
AcDbLine
 10
1288.919922
 20
130.931314
 30
0.0
 11
1294.018189
 21
119.992689
 31
0.0
  0
LINE
  5
24C
100
AcDbEntity
  8
LAY-1
  6
CONTINUOUS
 62
     2
100
AcDbLine
 10
1245.685364
 20
118.179916
 30
0.0
 11
1295.242096
 21
118.179916
 31
0.0
  0
LINE
  5
24D
100
AcDbEntity
  8
LAY-1
  6
CONTINUOUS
 62
     2
100
AcDbLine
 10
1244.510284
 20
115.659927
 30
0.0
 11
1296.417175
 21
115.659927
 31
0.0
  0
LINE
  5
24E
100
AcDbEntity
  8
LAY-1
  6
CONTINUOUS
 62
     2
100
AcDbLine
 10
1312.397858
 20
154.400152
 30
0.0
 11
1312.397858
 21
156.351961
 31
0.0
  0
LINE
  5
24F
100
AcDbEntity
  8
LAY-1
  6
CONTINUOUS
 62
     2
100
AcDbLine
 10
1315.316254
 20
154.400152
 30
0.0
 11
1315.316254
 21
156.351961
 31
0.0
  0
LINE
  5
250
100
AcDbEntity
  8
LAY-1
  6
CONTINUOUS
 62
     2
100
AcDbLine
 10
1318.234802
 20
154.400152
 30
0.0
 11
1318.234802
 21
156.351961
 31
0.0
  0
LINE
  5
251
100
AcDbEntity
  8
LAY-1
  6
CONTINUOUS
 62
     2
100
AcDbLine
 10
1303.206879
 20
152.400154
 30
0.0
 11
1326.087891
 21
152.400154
 31
0.0
  0
LINE
  5
252
100
AcDbEntity
  8
LAY-1
  6
CONTINUOUS
 62
     2
100
AcDbLine
 10
1303.206879
 20
149.880165
 30
0.0
 11
1324.323822
 21
149.880165
 31
0.0
  0
LINE
  5
253
100
AcDbEntity
  8
LAY-1
  6
CONTINUOUS
 62
     2
100
AcDbLine
 10
1316.379181
 20
148.241676
 30
0.0
 11
1302.35376
 21
128.204722
 31
0.0
  0
LINE
  5
254
100
AcDbEntity
  8
LAY-1
  6
CONTINUOUS
 62
     2
100
AcDbLine
 10
1319.656616
 20
148.2418
 30
0.0
 11
1302.353912
 21
123.528513
 31
0.0
  0
LINE
  5
255
100
AcDbEntity
  8
LAY-1
  6
CONTINUOUS
 62
     2
100
AcDbLine
 10
1322.737976
 20
148.241772
 30
0.0
 11
1302.353912
 21
119.125732
 31
0.0
  0
LINE
  5
256
100
AcDbEntity
  8
LAY-1
  6
CONTINUOUS
 62
     2
100
AcDbLine
 10
1317.929932
 20
137.88691
 30
0.0
 11
1326.786743
 21
131.684641
 31
0.0
  0
LINE
  5
257
100
AcDbEntity
  8
LAY-1
  6
CONTINUOUS
 62
     2
100
AcDbLine
 10
1316.484467
 20
135.821995
 30
0.0
 11
1326.786591
 21
128.607992
 31
0.0
  0
LINE
  5
258
100
AcDbEntity
  8
LAY-1
  6
CONTINUOUS
 62
     2
100
AcDbLine
 10
1314.945007
 20
133.623127
 30
0.0
 11
1326.786591
 21
125.331501
 31
0.0
  0
LINE
  5
259
100
AcDbEntity
  8
LAY-1
  6
CONTINUOUS
 62
     2
100
AcDbLine
 10
1312.397858
 20
131.472229
 30
0.0
 11
1312.397858
 21
115.999998
 31
0.0
  0
LINE
  5
25A
100
AcDbEntity
  8
LAY-1
  6
CONTINUOUS
 62
     2
100
AcDbLine
 10
1315.316254
 20
131.363157
 30
0.0
 11
1315.316254
 21
115.999998
 31
0.0
  0
LINE
  5
25B
100
AcDbEntity
  8
LAY-1
  6
CONTINUOUS
 62
     2
100
AcDbLine
 10
1318.234802
 20
129.319567
 30
0.0
 11
1318.234802
 21
115.999998
 31
0.0
  0
LINE
  5
25C
100
AcDbEntity
  8
LAY-1
  6
CONTINUOUS
 62
     2
100
AcDbLine
 10
1339.613739
 20
120.179915
 30
0.0
 11
1339.613739
 21
156.351961
 31
0.0
  0
LINE
  5
25D
100
AcDbEntity
  8
LAY-1
  6
CONTINUOUS
 62
     2
100
AcDbLine
 10
1342.532135
 20
120.179915
 30
0.0
 11
1342.532135
 21
156.351961
 31
0.0
  0
LINE
  5
25E
100
AcDbEntity
  8
LAY-1
  6
CONTINUOUS
 62
     2
100
AcDbLine
 10
1345.450684
 20
120.179915
 30
0.0
 11
1345.450684
 21
156.351961
 31
0.0
  0
LINE
  5
25F
100
AcDbEntity
  8
LAY-1
  6
CONTINUOUS
 62
     2
100
AcDbLine
 10
1330.424896
 20
145.344032
 30
0.0
 11
1337.61377
 21
145.344032
 31
0.0
  0
LINE
  5
260
100
AcDbEntity
  8
LAY-1
  6
CONTINUOUS
 62
     2
100
AcDbLine
 10
1330.424896
 20
142.824196
 30
0.0
 11
1337.61377
 21
142.824196
 31
0.0
  0
LINE
  5
261
100
AcDbEntity
  8
LAY-1
  6
CONTINUOUS
 62
     2
100
AcDbLine
 10
1347.450653
 20
145.344032
 30
0.0
 11
1354.647766
 21
145.344032
 31
0.0
  0
LINE
  5
262
100
AcDbEntity
  8
LAY-1
  6
CONTINUOUS
 62
     2
100
AcDbLine
 10
1347.450653
 20
142.624191
 30
0.0
 11
1354.647766
 21
142.624191
 31
0.0
  0
LINE
  5
263
100
AcDbEntity
  8
LAY-1
  6
CONTINUOUS
 62
     2
100
AcDbLine
 10
1326.39093
 20
118.179916
 30
0.0
 11
1355.656677
 21
118.179916
 31
0.0
  0
LINE
  5
264
100
AcDbEntity
  8
LAY-1
  6
CONTINUOUS
 62
     2
100
AcDbLine
 10
1326.39093
 20
115.659927
 30
0.0
 11
1355.656677
 21
115.659927
 31
0.0
  0
LINE
  5
265
100
AcDbEntity
  8
LAY-1
  6
CONTINUOUS
 62
     2
100
AcDbLine
 10
1098.475586
 20
133.353638
 30
0.0
 11
1119.784027
 21
133.353638
 31
0.0
  0
LINE
  5
266
100
AcDbEntity
  8
LAY-1
  6
EXLTYPE2
 62
     6
100
AcDbLine
 10
0.0
 20
1485.0
 30
0.0
 11
180.0
 21
1485.0
 31
0.0
  0
TEXT
  5
267
100
AcDbEntity
  8
LAY-1
  6
CONTINUOUS
 62
     2
100
AcDbText
 10
885.0
 20
211.75
 30
0.0
 40
65.0
  1
蓋付前丸便座
 41
0.904615
  7
EXCADSTD
 72
     5
 11
1305.0
 21
211.75
 31
0.0
100
AcDbText
  0
CIRCLE
  5
268
100
AcDbEntity
  8
LAY-1
  6
CONTINUOUS
 62
     6
100
AcDbCircle
 10
230.0
 20
110.0
 30
0.0
 40
1.0
  0
CIRCLE
  5
269
100
AcDbEntity
  8
LAY-1
  6
CONTINUOUS
 62
     6
100
AcDbCircle
 10
280.0
 20
110.0
 30
0.0
 40
1.0
  0
TEXT
  5
26A
100
AcDbEntity
  8
LAY-1
  6
CONTINUOUS
 62
     2
100
AcDbText
 10
1499.999995
 20
219.0
 30
0.0
 40
50.0
  1
ＮＣ８２２Ｗ
 41
0.7224
  7
EXCADSTD
 72
     5
 11
1758.000005
 21
219.0
 31
0.0
100
AcDbText
  0
LINE
  5
26B
100
AcDbEntity
  8
LAY-1
  6
CONTINUOUS
 62
     3
100
AcDbLine
 10
759.0
 20
146.256012
 30
0.0
 11
759.0
 21
137.183899
 31
0.0
  0
LINE
  5
26C
100
AcDbEntity
  8
LAY-1
  6
CONTINUOUS
 62
     3
100
AcDbLine
 10
759.0
 20
158.351959
 30
0.0
 11
759.0
 21
149.279999
 31
0.0
  0
TEXT
  5
26D
100
AcDbEntity
  8
LAY-1
  6
CONTINUOUS
 62
     6
100
AcDbText
 10
634.5
 20
170.0
 30
0.0
 40
50.0
  1
又場
 41
0.8568
  7
EXCADSTD
 72
     5
 11
727.9932
 21
170.0
 31
0.0
100
AcDbText
  0
TEXT
  5
26E
100
AcDbEntity
  8
LAY-1
  6
CONTINUOUS
 62
     7
100
AcDbText
 10
1500.0
 20
101.5
 30
0.0
 40
70.0
  1
２４０５１０
 41
0.88
  7
EXCADSTD
 72
     5
 11
1940.0
 21
101.5
 31
0.0
100
AcDbText
  0
TEXT
  5
26F
100
AcDbEntity
  8
LAY-1
  6
CONTINUOUS
 62
     6
100
AcDbText
 10
206.5
 20
170.0
 30
0.0
 40
50.0
  1
風穴
 41
0.8568
  7
EXCADSTD
 72
     5
 11
299.9932
 21
170.0
 31
0.0
100
AcDbText
  0
TEXT
  5
270
100
AcDbEntity
  8
LAY-1
  6
CONTINUOUS
 62
     6
100
AcDbText
 10
504.5
 20
170.0
 30
0.0
 40
50.0
  1
間瀬
 41
0.8568
  7
EXCADSTD
 72
     5
 11
597.9932
 21
170.0
 31
0.0
100
AcDbText
  0
TEXT
  5
271
100
AcDbEntity
  8
LAY-1
  6
CONTINUOUS
 62
     6
100
AcDbText
 10
184.844116
 20
96.950073
 30
0.0
 40
25.0
  1
１８
 41
0.75768
  7
EXCADSTD
 72
     5
 11
226.182775
 21
96.950073
 31
0.0
100
AcDbText
  0
TEXT
  5
272
100
AcDbEntity
  8
LAY-1
  6
CONTINUOUS
 62
     6
100
AcDbText
 10
244.119116
 20
96.950073
 30
0.0
 40
25.0
  1
２
 41
0.89208
  7
EXCADSTD
 72
     5
 11
265.359116
 21
96.950073
 31
0.0
100
AcDbText
  0
TEXT
  5
273
100
AcDbEntity
  8
LAY-1
  6
CONTINUOUS
 62
     6
100
AcDbText
 10
292.044116
 20
96.950073
 30
0.0
 40
25.0
  1
７
 41
0.89208
  7
EXCADSTD
 72
     5
 11
313.284116
 21
96.950073
 31
0.0
100
AcDbText
  0
LINE
  5
274
100
AcDbEntity
  8
LAY-2
  6
CONTINUOUS
 62
     6
100
AcDbLine
 10
611.364877
 20
1233.0
 30
0.0
 11
620.364877
 21
1233.0
 31
0.0
  0
LINE
  5
275
100
AcDbEntity
  8
LAY-2
  6
CONTINUOUS
 62
     6
100
AcDbLine
 10
609.864877
 20
1236.5
 30
0.0
 11
611.364877
 21
1235.0
 31
0.0
  0
LINE
  5
276
100
AcDbEntity
  8
LAY-2
  6
CONTINUOUS
 62
     6
100
AcDbLine
 10
611.364877
 20
1233.0
 30
0.0
 11
611.364877
 21
1235.0
 31
0.0
  0
LINE
  5
277
100
AcDbEntity
  8
LAY-2
  6
CONTINUOUS
 62
     6
100
AcDbLine
 10
620.364877
 20
1233.0
 30
0.0
 11
620.364877
 21
1235.0
 31
0.0
  0
LINE
  5
278
100
AcDbEntity
  8
LAY-2
  6
CONTINUOUS
 62
     6
100
AcDbLine
 10
621.864877
 20
1236.5
 30
0.0
 11
620.364877
 21
1235.0
 31
0.0
  0
LINE
  5
279
100
AcDbEntity
  8
LAY-2
  6
CONTINUOUS
 62
     6
100
AcDbLine
 10
621.864877
 20
1316.267949
 30
0.0
 11
609.864877
 21
1316.267949
 31
0.0
  0
LINE
  5
27A
100
AcDbEntity
  8
LAY-2
  6
CONTINUOUS
 62
     6
100
AcDbLine
 10
609.114877
 20
1318.75
 30
0.0
 11
609.114877
 21
1328.0
 31
0.0
  0
ARC
  5
27B
100
AcDbEntity
  8
LAY-2
  6
CONTINUOUS
 62
     6
100
AcDbCircle
 10
609.864877
 20
1318.75
 30
0.0
 40
0.75
100
AcDbArc
 50
180.0
 51
270.0
  0
LINE
  5
27C
100
AcDbEntity
  8
LAY-2
  6
CONTINUOUS
 62
     6
100
AcDbLine
 10
610.864877
 20
1316.267949
 30
0.0
 11
609.864877
 21
1318.0
 31
0.0
  0
LINE
  5
27D
100
AcDbEntity
  8
LAY-2
  6
CONTINUOUS
 62
     6
100
AcDbLine
 10
621.864877
 20
1318.0
 30
0.0
 11
609.864877
 21
1318.0
 31
0.0
  0
ARC
  5
27E
100
AcDbEntity
  8
LAY-2
  6
CONTINUOUS
 62
     6
100
AcDbCircle
 10
621.864877
 20
1318.75
 30
0.0
 40
0.75
100
AcDbArc
 50
270.0
 51
0.0
  0
LINE
  5
27F
100
AcDbEntity
  8
LAY-2
  6
CONTINUOUS
 62
     6
100
AcDbLine
 10
620.864877
 20
1316.267949
 30
0.0
 11
621.864877
 21
1318.0
 31
0.0
  0
LINE
  5
280
100
AcDbEntity
  8
LAY-2
  6
CONTINUOUS
 62
     6
100
AcDbLine
 10
622.614877
 20
1318.75
 30
0.0
 11
622.614877
 21
1328.0
 31
0.0
  0
LINE
  5
281
100
AcDbEntity
  8
LAY-2
  6
CONTINUOUS
 62
     6
100
AcDbLine
 10
608.47282
 20
1256.8
 30
0.0
 11
608.47282
 21
1273.3
 31
0.0
  0
LINE
  5
282
100
AcDbEntity
  8
LAY-2
  6
CONTINUOUS
 62
     6
100
AcDbLine
 10
612.114877
 20
1272.3
 30
0.0
 11
612.114877
 21
1256.8
 31
0.0
  0
LINE
  5
283
100
AcDbEntity
  8
LAY-2
  6
CONTINUOUS
 62
     6
100
AcDbLine
 10
604.364877
 20
1273.3
 30
0.0
 11
604.364877
 21
1256.8
 31
0.0
  0
LINE
  5
284
100
AcDbEntity
  8
LAY-2
  6
CONTINUOUS
 62
     6
100
AcDbLine
 10
613.364877
 20
1255.8
 30
0.0
 11
613.364877
 21
1261.8
 31
0.0
  0
LINE
  5
285
100
AcDbEntity
  8
LAY-2
  6
CONTINUOUS
 62
     6
100
AcDbLine
 10
618.364877
 20
1255.8
 30
0.0
 11
618.364877
 21
1261.8
 31
0.0
  0
LINE
  5
286
100
AcDbEntity
  8
LAY-2
  6
CONTINUOUS
 62
     6
100
AcDbLine
 10
627.364877
 20
1273.3
 30
0.0
 11
627.364877
 21
1256.8
 31
0.0
  0
LINE
  5
287
100
AcDbEntity
  8
LAY-2
  6
CONTINUOUS
 62
     6
100
AcDbLine
 10
619.614877
 20
1272.3
 30
0.0
 11
619.614877
 21
1256.8
 31
0.0
  0
LINE
  5
288
100
AcDbEntity
  8
LAY-2
  6
CONTINUOUS
 62
     6
100
AcDbLine
 10
605.364877
 20
1255.8
 30
0.0
 11
626.364877
 21
1255.8
 31
0.0
  0
ARC
  5
289
100
AcDbEntity
  8
LAY-2
  6
CONTINUOUS
 62
     6
100
AcDbCircle
 10
605.364877
 20
1256.8
 30
0.0
 40
1.0
100
AcDbArc
 50
180.0
 51
270.0
  0
ARC
  5
28A
100
AcDbEntity
  8
LAY-2
  6
CONTINUOUS
 62
     6
100
AcDbCircle
 10
613.114877
 20
1256.8
 30
0.0
 40
1.0
100
AcDbArc
 50
180.0
 51
270.0
  0
LINE
  5
28B
100
AcDbEntity
  8
LAY-2
  6
CONTINUOUS
 62
     6
100
AcDbLine
 10
612.114877
 20
1260.3
 30
0.0
 11
604.364877
 21
1260.3
 31
0.0
  0
ARC
  5
28C
100
AcDbEntity
  8
LAY-2
  6
CONTINUOUS
 62
     6
100
AcDbCircle
 10
618.614877
 20
1256.8
 30
0.0
 40
1.0
100
AcDbArc
 50
270.0
 51
0.0
  0
ARC
  5
28D
100
AcDbEntity
  8
LAY-2
  6
CONTINUOUS
 62
     6
100
AcDbCircle
 10
626.364877
 20
1256.8
 30
0.0
 40
1.0
100
AcDbArc
 50
270.0
 51
0.0
  0
ARC
  5
28E
100
AcDbEntity
  8
LAY-2
  6
CONTINUOUS
 62
     6
100
AcDbCircle
 10
615.864877
 20
1277.3
 30
0.0
 40
12.5
100
AcDbArc
 50
118.685402
 51
180.0
  0
LINE
  5
28F
100
AcDbEntity
  8
LAY-2
  6
CONTINUOUS
 62
     6
100
AcDbLine
 10
603.164877
 20
1276.3
 30
0.0
 11
628.564877
 21
1276.3
 31
0.0
  0
LINE
  5
290
100
AcDbEntity
  8
LAY-2
  6
CONTINUOUS
 62
     6
100
AcDbLine
 10
603.164877
 20
1277.3
 30
0.0
 11
628.564877
 21
1277.3
 31
0.0
  0
LINE
  5
291
100
AcDbEntity
  8
LAY-2
  6
CONTINUOUS
 62
     6
100
AcDbLine
 10
603.364877
 20
1277.3
 30
0.0
 11
628.364877
 21
1277.3
 31
0.0
  0
ARC
  5
292
100
AcDbEntity
  8
LAY-2
  6
CONTINUOUS
 62
     6
100
AcDbCircle
 10
615.864877
 20
1277.3
 30
0.0
 40
12.5
100
AcDbArc
 50
0.0
 51
61.314598
  0
LINE
  5
293
100
AcDbEntity
  8
LAY-2
  6
CONTINUOUS
 62
     6
100
AcDbLine
 10
603.864877
 20
1276.3
 30
0.0
 11
627.864877
 21
1276.3
 31
0.0
  0
LINE
  5
294
100
AcDbEntity
  8
LAY-2
  6
CONTINUOUS
 62
     6
100
AcDbLine
 10
627.864877
 20
1273.3
 30
0.0
 11
620.614877
 21
1273.3
 31
0.0
  0
LINE
  5
295
100
AcDbEntity
  8
LAY-2
  6
CONTINUOUS
 62
     6
100
AcDbLine
 10
613.864877
 20
1262.3
 30
0.0
 11
617.864877
 21
1262.3
 31
0.0
  0
ARC
  5
296
100
AcDbEntity
  8
LAY-2
  6
CONTINUOUS
 62
     6
100
AcDbCircle
 10
603.864877
 20
1274.3
 30
0.0
 40
1.0
100
AcDbArc
 50
180.0
 51
270.0
  0
ARC
  5
297
100
AcDbEntity
  8
LAY-2
  6
CONTINUOUS
 62
     6
100
AcDbCircle
 10
603.864877
 20
1275.3
 30
0.0
 40
1.0
100
AcDbArc
 50
90.0
 51
180.0
  0
ARC
  5
298
100
AcDbEntity
  8
LAY-2
  6
CONTINUOUS
 62
     6
100
AcDbCircle
 10
611.114877
 20
1272.3
 30
0.0
 40
1.0
100
AcDbArc
 50
0.0
 51
90.0
  0
LINE
  5
299
100
AcDbEntity
  8
LAY-2
  6
CONTINUOUS
 62
     6
100
AcDbLine
 10
612.114877
 20
1270.3
 30
0.0
 11
604.364877
 21
1270.3
 31
0.0
  0
LINE
  5
29A
100
AcDbEntity
  8
LAY-2
  6
CONTINUOUS
 62
     6
100
AcDbLine
 10
612.114877
 20
1265.3
 30
0.0
 11
604.364877
 21
1265.3
 31
0.0
  0
LINE
  5
29B
100
AcDbEntity
  8
LAY-2
  6
CONTINUOUS
 62
     6
100
AcDbLine
 10
603.864877
 20
1273.3
 30
0.0
 11
611.114877
 21
1273.3
 31
0.0
  0
LINE
  5
29C
100
AcDbEntity
  8
LAY-2
  6
CONTINUOUS
 62
     6
100
AcDbLine
 10
602.864877
 20
1275.3
 30
0.0
 11
602.864877
 21
1274.3
 31
0.0
  0
ARC
  5
29D
100
AcDbEntity
  8
LAY-2
  6
CONTINUOUS
 62
     6
100
AcDbCircle
 10
613.864877
 20
1261.8
 30
0.0
 40
0.5
100
AcDbArc
 50
90.0
 51
180.0
  0
ARC
  5
29E
100
AcDbEntity
  8
LAY-2
  6
CONTINUOUS
 62
     6
100
AcDbCircle
 10
603.164877
 20
1277.0
 30
0.0
 40
0.3
100
AcDbArc
 50
90.0
 51
180.0
  0
ARC
  5
29F
100
AcDbEntity
  8
LAY-2
  6
CONTINUOUS
 62
     6
100
AcDbCircle
 10
603.164877
 20
1276.6
 30
0.0
 40
0.3
100
AcDbArc
 50
180.0
 51
270.0
  0
LINE
  5
2A0
100
AcDbEntity
  8
LAY-2
  6
CONTINUOUS
 62
     6
100
AcDbLine
 10
602.864877
 20
1276.6
 30
0.0
 11
602.864877
 21
1277.0
 31
0.0
  0
ARC
  5
2A1
100
AcDbEntity
  8
LAY-2
  6
CONTINUOUS
 62
     6
100
AcDbCircle
 10
617.864877
 20
1261.8
 30
0.0
 40
0.5
100
AcDbArc
 50
0.0
 51
90.0
  0
ARC
  5
2A2
100
AcDbEntity
  8
LAY-2
  6
CONTINUOUS
 62
     6
100
AcDbCircle
 10
620.614877
 20
1272.3
 30
0.0
 40
1.0
100
AcDbArc
 50
90.0
 51
180.0
  0
LINE
  5
2A3
100
AcDbEntity
  8
LAY-2
  6
CONTINUOUS
 62
     6
100
AcDbLine
 10
628.864877
 20
1276.6
 30
0.0
 11
628.864877
 21
1277.0
 31
0.0
  0
ARC
  5
2A4
100
AcDbEntity
  8
LAY-2
  6
CONTINUOUS
 62
     6
100
AcDbCircle
 10
628.564877
 20
1276.6
 30
0.0
 40
0.3
100
AcDbArc
 50
270.0
 51
0.0
  0
ARC
  5
2A5
100
AcDbEntity
  8
LAY-2
  6
CONTINUOUS
 62
     6
100
AcDbCircle
 10
628.564877
 20
1277.0
 30
0.0
 40
0.3
100
AcDbArc
 50
0.0
 51
90.0
  0
LINE
  5
2A6
100
AcDbEntity
  8
LAY-2
  6
CONTINUOUS
 62
     6
100
AcDbLine
 10
628.864877
 20
1275.3
 30
0.0
 11
628.864877
 21
1274.3
 31
0.0
  0
ARC
  5
2A7
100
AcDbEntity
  8
LAY-2
  6
CONTINUOUS
 62
     6
100
AcDbCircle
 10
627.864877
 20
1275.3
 30
0.0
 40
1.0
100
AcDbArc
 50
0.0
 51
90.0
  0
ARC
  5
2A8
100
AcDbEntity
  8
LAY-2
  6
CONTINUOUS
 62
     6
100
AcDbCircle
 10
627.864877
 20
1274.3
 30
0.0
 40
1.0
100
AcDbArc
 50
270.0
 51
0.0
  0
LINE
  5
2A9
100
AcDbEntity
  8
LAY-2
  6
CONTINUOUS
 62
     6
100
AcDbLine
 10
609.864877
 20
1288.265856
 30
0.0
 11
621.864877
 21
1288.265856
 31
0.0
  0
LINE
  5
2AA
100
AcDbEntity
  8
LAY-2
  6
CONTINUOUS
 62
     6
100
AcDbLine
 10
623.256934
 20
1256.8
 30
0.0
 11
623.256934
 21
1273.3
 31
0.0
  0
LINE
  5
2AB
100
AcDbEntity
  8
LAY-2
  6
CONTINUOUS
 62
     6
100
AcDbLine
 10
619.614877
 20
1270.3
 30
0.0
 11
627.364877
 21
1270.3
 31
0.0
  0
LINE
  5
2AC
100
AcDbEntity
  8
LAY-2
  6
CONTINUOUS
 62
     6
100
AcDbLine
 10
619.614877
 20
1265.3
 30
0.0
 11
627.364877
 21
1265.3
 31
0.0
  0
LINE
  5
2AD
100
AcDbEntity
  8
LAY-2
  6
CONTINUOUS
 62
     6
100
AcDbLine
 10
619.614877
 20
1260.3
 30
0.0
 11
627.364877
 21
1260.3
 31
0.0
  0
LINE
  5
2AE
100
AcDbEntity
  8
LAY-2
  6
CONTINUOUS
 62
     6
100
AcDbLine
 10
611.364877
 20
1235.0
 30
0.0
 11
620.364877
 21
1235.0
 31
0.0
  0
LINE
  5
2AF
100
AcDbEntity
  8
LAY-2
  6
CONTINUOUS
 62
     6
100
AcDbLine
 10
609.864877
 20
1236.5
 30
0.0
 11
621.864877
 21
1236.5
 31
0.0
  0
LINE
  5
2B0
100
AcDbEntity
  8
LAY-2
  6
CONTINUOUS
 62
     6
100
AcDbLine
 10
621.864877
 20
1318.0
 30
0.0
 11
621.864877
 21
1288.265856
 31
0.0
  0
LINE
  5
2B1
100
AcDbEntity
  8
LAY-2
  6
CONTINUOUS
 62
     6
100
AcDbLine
 10
621.864877
 20
1255.8
 30
0.0
 11
621.864877
 21
1236.5
 31
0.0
  0
LINE
  5
2B2
100
AcDbEntity
  8
LAY-2
  6
CONTINUOUS
 62
     6
100
AcDbLine
 10
620.864877
 20
1316.267949
 30
0.0
 11
620.864877
 21
1288.265856
 31
0.0
  0
LINE
  5
2B3
100
AcDbEntity
  8
LAY-2
  6
CONTINUOUS
 62
     6
100
AcDbLine
 10
620.864877
 20
1255.8
 30
0.0
 11
620.864877
 21
1235.5
 31
0.0
  0
LINE
  5
2B4
100
AcDbEntity
  8
LAY-2
  6
CONTINUOUS
 62
     6
100
AcDbLine
 10
610.864877
 20
1316.267949
 30
0.0
 11
610.864877
 21
1288.265856
 31
0.0
  0
LINE
  5
2B5
100
AcDbEntity
  8
LAY-2
  6
CONTINUOUS
 62
     6
100
AcDbLine
 10
610.864877
 20
1255.8
 30
0.0
 11
610.864877
 21
1235.5
 31
0.0
  0
LINE
  5
2B6
100
AcDbEntity
  8
LAY-2
  6
CONTINUOUS
 62
     6
100
AcDbLine
 10
609.864877
 20
1318.0
 30
0.0
 11
609.864877
 21
1288.265856
 31
0.0
  0
LINE
  5
2B7
100
AcDbEntity
  8
LAY-2
  6
CONTINUOUS
 62
     6
100
AcDbLine
 10
609.864877
 20
1255.8
 30
0.0
 11
609.864877
 21
1236.5
 31
0.0
  0
LINE
  5
2B8
100
AcDbEntity
  8
LAY-2
  6
CONTINUOUS
 62
     6
100
AcDbLine
 10
1664.499984
 20
1233.0
 30
0.0
 11
1655.499984
 21
1233.0
 31
0.0
  0
LINE
  5
2B9
100
AcDbEntity
  8
LAY-2
  6
CONTINUOUS
 62
     6
100
AcDbLine
 10
1665.999984
 20
1236.5
 30
0.0
 11
1664.499984
 21
1235.0
 31
0.0
  0
LINE
  5
2BA
100
AcDbEntity
  8
LAY-2
  6
CONTINUOUS
 62
     6
100
AcDbLine
 10
1664.499984
 20
1233.0
 30
0.0
 11
1664.499984
 21
1235.0
 31
0.0
  0
LINE
  5
2BB
100
AcDbEntity
  8
LAY-2
  6
CONTINUOUS
 62
     6
100
AcDbLine
 10
1655.499984
 20
1233.0
 30
0.0
 11
1655.499984
 21
1235.0
 31
0.0
  0
LINE
  5
2BC
100
AcDbEntity
  8
LAY-2
  6
CONTINUOUS
 62
     6
100
AcDbLine
 10
1653.999984
 20
1236.5
 30
0.0
 11
1655.499984
 21
1235.0
 31
0.0
  0
LINE
  5
2BD
100
AcDbEntity
  8
LAY-2
  6
CONTINUOUS
 62
     6
100
AcDbLine
 10
1653.999984
 20
1316.267949
 30
0.0
 11
1665.999984
 21
1316.267949
 31
0.0
  0
ARC
  5
2BE
100
AcDbEntity
  8
LAY-2
  6
CONTINUOUS
 62
     6
100
AcDbCircle
 10
1665.999984
 20
1318.75
 30
0.0
 40
0.75
100
AcDbArc
 50
270.0
 51
0.0
  0
LINE
  5
2BF
100
AcDbEntity
  8
LAY-2
  6
CONTINUOUS
 62
     6
100
AcDbLine
 10
1664.999984
 20
1316.267949
 30
0.0
 11
1665.999984
 21
1318.0
 31
0.0
  0
LINE
  5
2C0
100
AcDbEntity
  8
LAY-2
  6
CONTINUOUS
 62
     6
100
AcDbLine
 10
1653.999984
 20
1318.0
 30
0.0
 11
1665.999984
 21
1318.0
 31
0.0
  0
ARC
  5
2C1
100
AcDbEntity
  8
LAY-2
  6
CONTINUOUS
 62
     6
100
AcDbCircle
 10
1653.999984
 20
1318.75
 30
0.0
 40
0.75
100
AcDbArc
 50
180.0
 51
270.0
  0
LINE
  5
2C2
100
AcDbEntity
  8
LAY-2
  6
CONTINUOUS
 62
     6
100
AcDbLine
 10
1654.999984
 20
1316.267949
 30
0.0
 11
1653.999984
 21
1318.0
 31
0.0
  0
ARC
  5
2C3
100
AcDbEntity
  8
LAY-2
  6
CONTINUOUS
 62
     6
100
AcDbCircle
 10
1659.999984
 20
1277.3
 30
0.0
 40
12.5
100
AcDbArc
 50
0.0
 51
61.314598
  0
LINE
  5
2C4
100
AcDbEntity
  8
LAY-2
  6
CONTINUOUS
 62
     6
100
AcDbLine
 10
1672.699984
 20
1276.3
 30
0.0
 11
1647.299984
 21
1276.3
 31
0.0
  0
LINE
  5
2C5
100
AcDbEntity
  8
LAY-2
  6
CONTINUOUS
 62
     6
100
AcDbLine
 10
1672.699984
 20
1277.3
 30
0.0
 11
1647.299984
 21
1277.3
 31
0.0
  0
LINE
  5
2C6
100
AcDbEntity
  8
LAY-2
  6
CONTINUOUS
 62
     6
100
AcDbLine
 10
1672.499984
 20
1277.3
 30
0.0
 11
1647.499984
 21
1277.3
 31
0.0
  0
ARC
  5
2C7
100
AcDbEntity
  8
LAY-2
  6
CONTINUOUS
 62
     6
100
AcDbCircle
 10
1659.999984
 20
1277.3
 30
0.0
 40
12.5
100
AcDbArc
 50
118.685402
 51
180.0
  0
LINE
  5
2C8
100
AcDbEntity
  8
LAY-2
  6
CONTINUOUS
 62
     6
100
AcDbLine
 10
1671.999984
 20
1276.3
 30
0.0
 11
1647.999984
 21
1276.3
 31
0.0
  0
ARC
  5
2C9
100
AcDbEntity
  8
LAY-2
  6
CONTINUOUS
 62
     6
100
AcDbCircle
 10
1671.999984
 20
1275.3
 30
0.0
 40
1.0
100
AcDbArc
 50
0.0
 51
90.0
  0
ARC
  5
2CA
100
AcDbEntity
  8
LAY-2
  6
CONTINUOUS
 62
     6
100
AcDbCircle
 10
1672.699984
 20
1277.0
 30
0.0
 40
0.3
100
AcDbArc
 50
0.0
 51
90.0
  0
ARC
  5
2CB
100
AcDbEntity
  8
LAY-2
  6
CONTINUOUS
 62
     6
100
AcDbCircle
 10
1672.699984
 20
1276.6
 30
0.0
 40
0.3
100
AcDbArc
 50
270.0
 51
0.0
  0
LINE
  5
2CC
100
AcDbEntity
  8
LAY-2
  6
CONTINUOUS
 62
     6
100
AcDbLine
 10
1672.999984
 20
1276.6
 30
0.0
 11
1672.999984
 21
1277.0
 31
0.0
  0
LINE
  5
2CD
100
AcDbEntity
  8
LAY-2
  6
CONTINUOUS
 62
     6
100
AcDbLine
 10
1646.999984
 20
1276.6
 30
0.0
 11
1646.999984
 21
1277.0
 31
0.0
  0
ARC
  5
2CE
100
AcDbEntity
  8
LAY-2
  6
CONTINUOUS
 62
     6
100
AcDbCircle
 10
1647.299984
 20
1276.6
 30
0.0
 40
0.3
100
AcDbArc
 50
180.0
 51
270.0
  0
ARC
  5
2CF
100
AcDbEntity
  8
LAY-2
  6
CONTINUOUS
 62
     6
100
AcDbCircle
 10
1647.299984
 20
1277.0
 30
0.0
 40
0.3
100
AcDbArc
 50
90.0
 51
180.0
  0
LINE
  5
2D0
100
AcDbEntity
  8
LAY-2
  6
CONTINUOUS
 62
     6
100
AcDbLine
 10
1646.999984
 20
1275.3
 30
0.0
 11
1646.999984
 21
1274.3
 31
0.0
  0
ARC
  5
2D1
100
AcDbEntity
  8
LAY-2
  6
CONTINUOUS
 62
     6
100
AcDbCircle
 10
1647.999984
 20
1275.3
 30
0.0
 40
1.0
100
AcDbArc
 50
90.0
 51
180.0
  0
LINE
  5
2D2
100
AcDbEntity
  8
LAY-2
  6
CONTINUOUS
 62
     6
100
AcDbLine
 10
1665.999984
 20
1288.265856
 30
0.0
 11
1653.999984
 21
1288.265856
 31
0.0
  0
LINE
  5
2D3
100
AcDbEntity
  8
LAY-2
  6
CONTINUOUS
 62
     6
100
AcDbLine
 10
1672.999984
 20
1275.3
 30
0.0
 11
1672.999984
 21
1256.8
 31
0.0
  0
ARC
  5
2D4
100
AcDbEntity
  8
LAY-2
  6
CONTINUOUS
 62
     6
100
AcDbCircle
 10
1671.999984
 20
1256.8
 30
0.0
 40
1.0
100
AcDbArc
 50
270.0
 51
0.0
  0
LINE
  5
2D5
100
AcDbEntity
  8
LAY-2
  6
CONTINUOUS
 62
     6
100
AcDbLine
 10
1671.499984
 20
1273.3
 30
0.0
 11
1671.499984
 21
1256.8
 31
0.0
  0
ARC
  5
2D6
100
AcDbEntity
  8
LAY-2
  6
CONTINUOUS
 62
     6
100
AcDbCircle
 10
1670.499984
 20
1256.8
 30
0.0
 40
1.0
100
AcDbArc
 50
270.0
 51
0.0
  0
LINE
  5
2D7
100
AcDbEntity
  8
LAY-2
  6
CONTINUOUS
 62
     6
100
AcDbLine
 10
1648.499984
 20
1257.8
 30
0.0
 11
1671.499984
 21
1257.8
 31
0.0
  0
LINE
  5
2D8
100
AcDbEntity
  8
LAY-2
  6
CONTINUOUS
 62
     6
100
AcDbLine
 10
1646.999984
 20
1275.3
 30
0.0
 11
1646.999984
 21
1256.8
 31
0.0
  0
ARC
  5
2D9
100
AcDbEntity
  8
LAY-2
  6
CONTINUOUS
 62
     6
100
AcDbCircle
 10
1647.999984
 20
1256.8
 30
0.0
 40
1.0
100
AcDbArc
 50
180.0
 51
270.0
  0
ARC
  5
2DA
100
AcDbEntity
  8
LAY-2
  6
CONTINUOUS
 62
     6
100
AcDbCircle
 10
1649.499984
 20
1256.8
 30
0.0
 40
1.0
100
AcDbArc
 50
180.0
 51
270.0
  0
LINE
  5
2DB
100
AcDbEntity
  8
LAY-2
  6
CONTINUOUS
 62
     6
100
AcDbLine
 10
1671.999984
 20
1255.8
 30
0.0
 11
1647.999984
 21
1255.8
 31
0.0
  0
LINE
  5
2DC
100
AcDbEntity
  8
LAY-2
  6
CONTINUOUS
 62
     6
100
AcDbLine
 10
1648.499984
 20
1273.3
 30
0.0
 11
1671.499984
 21
1273.3
 31
0.0
  0
LINE
  5
2DD
100
AcDbEntity
  8
LAY-2
  6
CONTINUOUS
 62
     6
100
AcDbLine
 10
1648.499984
 20
1256.8
 30
0.0
 11
1648.499984
 21
1273.3
 31
0.0
  0
LINE
  5
2DE
100
AcDbEntity
  8
LAY-2
  6
CONTINUOUS
 62
     6
100
AcDbLine
 10
1648.499984
 20
1266.8
 30
0.0
 11
1671.499984
 21
1266.8
 31
0.0
  0
LINE
  5
2DF
100
AcDbEntity
  8
LAY-2
  6
CONTINUOUS
 62
     6
100
AcDbLine
 10
1648.499984
 20
1261.8
 30
0.0
 11
1671.499984
 21
1261.8
 31
0.0
  0
LINE
  5
2E0
100
AcDbEntity
  8
LAY-2
  6
CONTINUOUS
 62
     6
100
AcDbLine
 10
1648.499984
 20
1270.9
 30
0.0
 11
1671.499984
 21
1270.9
 31
0.0
  0
LINE
  5
2E1
100
AcDbEntity
  8
LAY-2
  6
CONTINUOUS
 62
     6
100
AcDbLine
 10
1667.634442
 20
1256.8
 30
0.0
 11
1667.634442
 21
1273.3
 31
0.0
  0
LINE
  5
2E2
100
AcDbEntity
  8
LAY-2
  6
CONTINUOUS
 62
     6
100
AcDbLine
 10
1652.365526
 20
1256.8
 30
0.0
 11
1652.365526
 21
1273.3
 31
0.0
  0
LINE
  5
2E3
100
AcDbEntity
  8
LAY-2
  6
CONTINUOUS
 62
     6
100
AcDbLine
 10
1662.799984
 20
1256.8
 30
0.0
 11
1662.799984
 21
1273.3
 31
0.0
  0
LINE
  5
2E4
100
AcDbEntity
  8
LAY-2
  6
CONTINUOUS
 62
     6
100
AcDbLine
 10
1657.265526
 20
1256.8
 30
0.0
 11
1657.265526
 21
1273.3
 31
0.0
  0
LINE
  5
2E5
100
AcDbEntity
  8
LAY-2
  6
CONTINUOUS
 62
     6
100
AcDbLine
 10
1664.499984
 20
1235.0
 30
0.0
 11
1655.499984
 21
1235.0
 31
0.0
  0
LINE
  5
2E6
100
AcDbEntity
  8
LAY-2
  6
CONTINUOUS
 62
     6
100
AcDbLine
 10
1665.999984
 20
1236.5
 30
0.0
 11
1653.999984
 21
1236.5
 31
0.0
  0
LINE
  5
2E7
100
AcDbEntity
  8
LAY-2
  6
CONTINUOUS
 62
     6
100
AcDbLine
 10
1664.999984
 20
1316.267949
 30
0.0
 11
1664.999984
 21
1288.265856
 31
0.0
  0
LINE
  5
2E8
100
AcDbEntity
  8
LAY-2
  6
CONTINUOUS
 62
     6
100
AcDbLine
 10
1664.999984
 20
1255.8
 30
0.0
 11
1664.999984
 21
1235.5
 31
0.0
  0
LINE
  5
2E9
100
AcDbEntity
  8
LAY-2
  6
CONTINUOUS
 62
     6
100
AcDbLine
 10
1665.999984
 20
1318.0
 30
0.0
 11
1665.999984
 21
1288.265856
 31
0.0
  0
LINE
  5
2EA
100
AcDbEntity
  8
LAY-2
  6
CONTINUOUS
 62
     6
100
AcDbLine
 10
1665.999984
 20
1255.8
 30
0.0
 11
1665.999984
 21
1236.5
 31
0.0
  0
LINE
  5
2EB
100
AcDbEntity
  8
LAY-2
  6
CONTINUOUS
 62
     6
100
AcDbLine
 10
1654.999984
 20
1316.267949
 30
0.0
 11
1654.999984
 21
1288.265856
 31
0.0
  0
LINE
  5
2EC
100
AcDbEntity
  8
LAY-2
  6
CONTINUOUS
 62
     6
100
AcDbLine
 10
1654.999984
 20
1255.8
 30
0.0
 11
1654.999984
 21
1235.5
 31
0.0
  0
LINE
  5
2ED
100
AcDbEntity
  8
LAY-2
  6
CONTINUOUS
 62
     6
100
AcDbLine
 10
1653.999984
 20
1318.0
 30
0.0
 11
1653.999984
 21
1288.265856
 31
0.0
  0
LINE
  5
2EE
100
AcDbEntity
  8
LAY-2
  6
CONTINUOUS
 62
     6
100
AcDbLine
 10
1653.999984
 20
1255.8
 30
0.0
 11
1653.999984
 21
1236.5
 31
0.0
  0
LINE
  5
2EF
100
AcDbEntity
  8
LAY-2
  6
CONTINUOUS
 62
     6
100
AcDbLine
 10
1666.749984
 20
1318.75
 30
0.0
 11
1666.749984
 21
1328.0
 31
0.0
  0
LINE
  5
2F0
100
AcDbEntity
  8
LAY-2
  6
CONTINUOUS
 62
     6
100
AcDbLine
 10
1653.249984
 20
1318.75
 30
0.0
 11
1653.249984
 21
1328.0
 31
0.0
  0
LINE
  5
2F1
100
AcDbEntity
  8
LAY-2
  6
CONTINUOUS
 62
     6
100
AcDbLine
 10
1515.500016
 20
1233.0
 30
0.0
 11
1524.500016
 21
1233.0
 31
0.0
  0
LINE
  5
2F2
100
AcDbEntity
  8
LAY-2
  6
CONTINUOUS
 62
     6
100
AcDbLine
 10
1514.000016
 20
1236.5
 30
0.0
 11
1515.500016
 21
1235.0
 31
0.0
  0
LINE
  5
2F3
100
AcDbEntity
  8
LAY-2
  6
CONTINUOUS
 62
     6
100
AcDbLine
 10
1515.500016
 20
1233.0
 30
0.0
 11
1515.500016
 21
1235.0
 31
0.0
  0
LINE
  5
2F4
100
AcDbEntity
  8
LAY-2
  6
CONTINUOUS
 62
     6
100
AcDbLine
 10
1524.500016
 20
1233.0
 30
0.0
 11
1524.500016
 21
1235.0
 31
0.0
  0
LINE
  5
2F5
100
AcDbEntity
  8
LAY-2
  6
CONTINUOUS
 62
     6
100
AcDbLine
 10
1526.000016
 20
1236.5
 30
0.0
 11
1524.500016
 21
1235.0
 31
0.0
  0
LINE
  5
2F6
100
AcDbEntity
  8
LAY-2
  6
CONTINUOUS
 62
     6
100
AcDbLine
 10
1526.000016
 20
1316.267949
 30
0.0
 11
1514.000016
 21
1316.267949
 31
0.0
  0
ARC
  5
2F7
100
AcDbEntity
  8
LAY-2
  6
CONTINUOUS
 62
     6
100
AcDbCircle
 10
1514.000016
 20
1318.75
 30
0.0
 40
0.75
100
AcDbArc
 50
180.0
 51
270.0
  0
LINE
  5
2F8
100
AcDbEntity
  8
LAY-2
  6
CONTINUOUS
 62
     6
100
AcDbLine
 10
1515.000016
 20
1316.267949
 30
0.0
 11
1514.000016
 21
1318.0
 31
0.0
  0
LINE
  5
2F9
100
AcDbEntity
  8
LAY-2
  6
CONTINUOUS
 62
     6
100
AcDbLine
 10
1526.000016
 20
1318.0
 30
0.0
 11
1514.000016
 21
1318.0
 31
0.0
  0
ARC
  5
2FA
100
AcDbEntity
  8
LAY-2
  6
CONTINUOUS
 62
     6
100
AcDbCircle
 10
1526.000016
 20
1318.75
 30
0.0
 40
0.75
100
AcDbArc
 50
270.0
 51
0.0
  0
LINE
  5
2FB
100
AcDbEntity
  8
LAY-2
  6
CONTINUOUS
 62
     6
100
AcDbLine
 10
1525.000016
 20
1316.267949
 30
0.0
 11
1526.000016
 21
1318.0
 31
0.0
  0
ARC
  5
2FC
100
AcDbEntity
  8
LAY-2
  6
CONTINUOUS
 62
     6
100
AcDbCircle
 10
1520.000016
 20
1277.3
 30
0.0
 40
12.5
100
AcDbArc
 50
118.685402
 51
180.0
  0
LINE
  5
2FD
100
AcDbEntity
  8
LAY-2
  6
CONTINUOUS
 62
     6
100
AcDbLine
 10
1507.300016
 20
1276.3
 30
0.0
 11
1532.700016
 21
1276.3
 31
0.0
  0
LINE
  5
2FE
100
AcDbEntity
  8
LAY-2
  6
CONTINUOUS
 62
     6
100
AcDbLine
 10
1507.300016
 20
1277.3
 30
0.0
 11
1532.700016
 21
1277.3
 31
0.0
  0
LINE
  5
2FF
100
AcDbEntity
  8
LAY-2
  6
CONTINUOUS
 62
     6
100
AcDbLine
 10
1507.500016
 20
1277.3
 30
0.0
 11
1532.500016
 21
1277.3
 31
0.0
  0
ARC
  5
300
100
AcDbEntity
  8
LAY-2
  6
CONTINUOUS
 62
     6
100
AcDbCircle
 10
1520.000016
 20
1277.3
 30
0.0
 40
12.5
100
AcDbArc
 50
0.0
 51
61.314598
  0
LINE
  5
301
100
AcDbEntity
  8
LAY-2
  6
CONTINUOUS
 62
     6
100
AcDbLine
 10
1508.000016
 20
1276.3
 30
0.0
 11
1532.000016
 21
1276.3
 31
0.0
  0
ARC
  5
302
100
AcDbEntity
  8
LAY-2
  6
CONTINUOUS
 62
     6
100
AcDbCircle
 10
1508.000016
 20
1275.3
 30
0.0
 40
1.0
100
AcDbArc
 50
90.0
 51
180.0
  0
ARC
  5
303
100
AcDbEntity
  8
LAY-2
  6
CONTINUOUS
 62
     6
100
AcDbCircle
 10
1507.300016
 20
1277.0
 30
0.0
 40
0.3
100
AcDbArc
 50
90.0
 51
180.0
  0
ARC
  5
304
100
AcDbEntity
  8
LAY-2
  6
CONTINUOUS
 62
     6
100
AcDbCircle
 10
1507.300016
 20
1276.6
 30
0.0
 40
0.3
100
AcDbArc
 50
180.0
 51
270.0
  0
LINE
  5
305
100
AcDbEntity
  8
LAY-2
  6
CONTINUOUS
 62
     6
100
AcDbLine
 10
1507.000016
 20
1276.6
 30
0.0
 11
1507.000016
 21
1277.0
 31
0.0
  0
LINE
  5
306
100
AcDbEntity
  8
LAY-2
  6
CONTINUOUS
 62
     6
100
AcDbLine
 10
1533.000016
 20
1276.6
 30
0.0
 11
1533.000016
 21
1277.0
 31
0.0
  0
ARC
  5
307
100
AcDbEntity
  8
LAY-2
  6
CONTINUOUS
 62
     6
100
AcDbCircle
 10
1532.700016
 20
1276.6
 30
0.0
 40
0.3
100
AcDbArc
 50
270.0
 51
0.0
  0
ARC
  5
308
100
AcDbEntity
  8
LAY-2
  6
CONTINUOUS
 62
     6
100
AcDbCircle
 10
1532.700016
 20
1277.0
 30
0.0
 40
0.3
100
AcDbArc
 50
0.0
 51
90.0
  0
LINE
  5
309
100
AcDbEntity
  8
LAY-2
  6
CONTINUOUS
 62
     6
100
AcDbLine
 10
1533.000016
 20
1275.3
 30
0.0
 11
1533.000016
 21
1274.3
 31
0.0
  0
ARC
  5
30A
100
AcDbEntity
  8
LAY-2
  6
CONTINUOUS
 62
     6
100
AcDbCircle
 10
1532.000016
 20
1275.3
 30
0.0
 40
1.0
100
AcDbArc
 50
0.0
 51
90.0
  0
LINE
  5
30B
100
AcDbEntity
  8
LAY-2
  6
CONTINUOUS
 62
     6
100
AcDbLine
 10
1514.000016
 20
1288.265856
 30
0.0
 11
1526.000016
 21
1288.265856
 31
0.0
  0
LINE
  5
30C
100
AcDbEntity
  8
LAY-2
  6
CONTINUOUS
 62
     6
100
AcDbLine
 10
1507.000016
 20
1275.3
 30
0.0
 11
1507.000016
 21
1256.8
 31
0.0
  0
ARC
  5
30D
100
AcDbEntity
  8
LAY-2
  6
CONTINUOUS
 62
     6
100
AcDbCircle
 10
1508.000016
 20
1256.8
 30
0.0
 40
1.0
100
AcDbArc
 50
180.0
 51
270.0
  0
LINE
  5
30E
100
AcDbEntity
  8
LAY-2
  6
CONTINUOUS
 62
     6
100
AcDbLine
 10
1508.500016
 20
1273.3
 30
0.0
 11
1508.500016
 21
1256.8
 31
0.0
  0
ARC
  5
30F
100
AcDbEntity
  8
LAY-2
  6
CONTINUOUS
 62
     6
100
AcDbCircle
 10
1509.500016
 20
1256.8
 30
0.0
 40
1.0
100
AcDbArc
 50
180.0
 51
270.0
  0
LINE
  5
310
100
AcDbEntity
  8
LAY-2
  6
CONTINUOUS
 62
     6
100
AcDbLine
 10
1531.500016
 20
1257.8
 30
0.0
 11
1508.500016
 21
1257.8
 31
0.0
  0
LINE
  5
311
100
AcDbEntity
  8
LAY-2
  6
CONTINUOUS
 62
     6
100
AcDbLine
 10
1533.000016
 20
1275.3
 30
0.0
 11
1533.000016
 21
1256.8
 31
0.0
  0
ARC
  5
312
100
AcDbEntity
  8
LAY-2
  6
CONTINUOUS
 62
     6
100
AcDbCircle
 10
1532.000016
 20
1256.8
 30
0.0
 40
1.0
100
AcDbArc
 50
270.0
 51
0.0
  0
ARC
  5
313
100
AcDbEntity
  8
LAY-2
  6
CONTINUOUS
 62
     6
100
AcDbCircle
 10
1530.500016
 20
1256.8
 30
0.0
 40
1.0
100
AcDbArc
 50
270.0
 51
0.0
  0
LINE
  5
314
100
AcDbEntity
  8
LAY-2
  6
CONTINUOUS
 62
     6
100
AcDbLine
 10
1508.000016
 20
1255.8
 30
0.0
 11
1532.000016
 21
1255.8
 31
0.0
  0
LINE
  5
315
100
AcDbEntity
  8
LAY-2
  6
CONTINUOUS
 62
     6
100
AcDbLine
 10
1531.500016
 20
1273.3
 30
0.0
 11
1508.500016
 21
1273.3
 31
0.0
  0
LINE
  5
316
100
AcDbEntity
  8
LAY-2
  6
CONTINUOUS
 62
     6
100
AcDbLine
 10
1531.500016
 20
1256.8
 30
0.0
 11
1531.500016
 21
1273.3
 31
0.0
  0
LINE
  5
317
100
AcDbEntity
  8
LAY-2
  6
CONTINUOUS
 62
     6
100
AcDbLine
 10
1531.500016
 20
1266.8
 30
0.0
 11
1508.500016
 21
1266.8
 31
0.0
  0
LINE
  5
318
100
AcDbEntity
  8
LAY-2
  6
CONTINUOUS
 62
     6
100
AcDbLine
 10
1531.500016
 20
1261.8
 30
0.0
 11
1508.500016
 21
1261.8
 31
0.0
  0
LINE
  5
319
100
AcDbEntity
  8
LAY-2
  6
CONTINUOUS
 62
     6
100
AcDbLine
 10
1531.500016
 20
1270.9
 30
0.0
 11
1508.500016
 21
1270.9
 31
0.0
  0
LINE
  5
31A
100
AcDbEntity
  8
LAY-2
  6
CONTINUOUS
 62
     6
100
AcDbLine
 10
1512.365558
 20
1256.8
 30
0.0
 11
1512.365558
 21
1273.3
 31
0.0
  0
LINE
  5
31B
100
AcDbEntity
  8
LAY-2
  6
CONTINUOUS
 62
     6
100
AcDbLine
 10
1527.634474
 20
1256.8
 30
0.0
 11
1527.634474
 21
1273.3
 31
0.0
  0
LINE
  5
31C
100
AcDbEntity
  8
LAY-2
  6
CONTINUOUS
 62
     6
100
AcDbLine
 10
1517.200016
 20
1256.8
 30
0.0
 11
1517.200016
 21
1273.3
 31
0.0
  0
LINE
  5
31D
100
AcDbEntity
  8
LAY-2
  6
CONTINUOUS
 62
     6
100
AcDbLine
 10
1522.734474
 20
1256.8
 30
0.0
 11
1522.734474
 21
1273.3
 31
0.0
  0
LINE
  5
31E
100
AcDbEntity
  8
LAY-2
  6
CONTINUOUS
 62
     6
100
AcDbLine
 10
1515.500016
 20
1235.0
 30
0.0
 11
1524.500016
 21
1235.0
 31
0.0
  0
LINE
  5
31F
100
AcDbEntity
  8
LAY-2
  6
CONTINUOUS
 62
     6
100
AcDbLine
 10
1514.000016
 20
1236.5
 30
0.0
 11
1526.000016
 21
1236.5
 31
0.0
  0
LINE
  5
320
100
AcDbEntity
  8
LAY-2
  6
CONTINUOUS
 62
     6
100
AcDbLine
 10
1515.000016
 20
1316.267949
 30
0.0
 11
1515.000016
 21
1288.265856
 31
0.0
  0
LINE
  5
321
100
AcDbEntity
  8
LAY-2
  6
CONTINUOUS
 62
     6
100
AcDbLine
 10
1515.000016
 20
1255.8
 30
0.0
 11
1515.000016
 21
1235.5
 31
0.0
  0
LINE
  5
322
100
AcDbEntity
  8
LAY-2
  6
CONTINUOUS
 62
     6
100
AcDbLine
 10
1514.000016
 20
1318.0
 30
0.0
 11
1514.000016
 21
1288.265856
 31
0.0
  0
LINE
  5
323
100
AcDbEntity
  8
LAY-2
  6
CONTINUOUS
 62
     6
100
AcDbLine
 10
1514.000016
 20
1255.8
 30
0.0
 11
1514.000016
 21
1236.5
 31
0.0
  0
LINE
  5
324
100
AcDbEntity
  8
LAY-2
  6
CONTINUOUS
 62
     6
100
AcDbLine
 10
1525.000016
 20
1316.267949
 30
0.0
 11
1525.000016
 21
1288.265856
 31
0.0
  0
LINE
  5
325
100
AcDbEntity
  8
LAY-2
  6
CONTINUOUS
 62
     6
100
AcDbLine
 10
1525.000016
 20
1255.8
 30
0.0
 11
1525.000016
 21
1235.5
 31
0.0
  0
LINE
  5
326
100
AcDbEntity
  8
LAY-2
  6
CONTINUOUS
 62
     6
100
AcDbLine
 10
1526.000016
 20
1318.0
 30
0.0
 11
1526.000016
 21
1288.265856
 31
0.0
  0
LINE
  5
327
100
AcDbEntity
  8
LAY-2
  6
CONTINUOUS
 62
     6
100
AcDbLine
 10
1526.000016
 20
1255.8
 30
0.0
 11
1526.000016
 21
1236.5
 31
0.0
  0
LINE
  5
328
100
AcDbEntity
  8
LAY-2
  6
CONTINUOUS
 62
     6
100
AcDbLine
 10
1513.250016
 20
1318.75
 30
0.0
 11
1513.250016
 21
1328.0
 31
0.0
  0
LINE
  5
329
100
AcDbEntity
  8
LAY-2
  6
CONTINUOUS
 62
     6
100
AcDbLine
 10
1526.750016
 20
1318.75
 30
0.0
 11
1526.750016
 21
1328.0
 31
0.0
  0
LINE
  5
32A
100
AcDbEntity
  8
LAY-2
  6
CONTINUOUS
 62
     1
100
AcDbLine
 10
1590.0
 20
1382.267934
 30
0.0
 11
1590.0
 21
1425.494018
 31
0.0
  0
LINE
  5
32B
100
AcDbEntity
  8
LAY-2
  6
CONTINUOUS
 62
     1
100
AcDbLine
 10
1590.0
 20
1310.85643
 30
0.0
 11
1590.0
 21
1350.267934
 31
0.0
  0
LINE
  5
32C
100
AcDbEntity
  8
LAY-2
  6
CONTINUOUS
 62
     1
100
AcDbLine
 10
1590.0
 20
1370.267934
 30
0.0
 11
1590.0
 21
1362.267934
 31
0.0
  0
LINE
  5
32D
100
AcDbEntity
  8
LAY-2
  6
EXLTYPE3
 62
     1
100
AcDbLine
 10
581.698195
 20
1865.111027
 30
0.0
 11
641.263638
 21
1865.111027
 31
0.0
  0
LINE
  5
32E
100
AcDbEntity
  8
LAY-2
  6
EXLTYPE3
 62
     1
100
AcDbLine
 10
615.864877
 20
1970.943292
 30
0.0
 11
615.864877
 21
2039.276625
 31
0.0
  0
LINE
  5
32F
100
AcDbEntity
  8
LAY-2
  6
EXLTYPE3
 62
     1
100
AcDbLine
 10
581.698195
 20
2005.111027
 30
0.0
 11
641.263638
 21
2005.111027
 31
0.0
  0
LINE
  5
330
100
AcDbEntity
  8
LAY-2
  6
EXLTYPE3
 62
     1
100
AcDbLine
 10
624.0
 20
1935.111027
 30
0.0
 11
1107.130714
 21
1935.111027
 31
0.0
  0
LINE
  5
331
100
AcDbEntity
  8
LAY-2
  6
CONTINUOUS
 62
     6
100
AcDbLine
 10
615.864851
 20
2022.611011
 30
0.0
 11
636.339875
 21
2022.611023
 31
0.0
  0
LINE
  5
332
100
AcDbEntity
  8
LAY-2
  6
CONTINUOUS
 62
     6
100
AcDbLine
 10
635.232186
 20
1987.611009
 30
0.0
 11
615.86486
 21
1987.611011
 31
0.0
  0
LINE
  5
333
100
AcDbEntity
  8
LAY-2
  6
CONTINUOUS
 62
     6
100
AcDbLine
 10
635.23214
 20
1882.611044
 30
0.0
 11
615.86486
 21
1882.611043
 31
0.0
  0
LINE
  5
334
100
AcDbEntity
  8
LAY-2
  6
CONTINUOUS
 62
     6
100
AcDbLine
 10
615.864851
 20
1847.611043
 30
0.0
 11
636.339875
 21
1847.61103
 31
0.0
  0
LINE
  5
335
100
AcDbEntity
  8
LAY-2
  6
CONTINUOUS
 62
     6
100
AcDbLine
 10
595.41709
 20
1859.111027
 30
0.0
 11
608.41709
 21
1859.111027
 31
0.0
  0
LINE
  5
336
100
AcDbEntity
  8
LAY-2
  6
CONTINUOUS
 62
     6
100
AcDbLine
 10
595.41709
 20
1871.111027
 30
0.0
 11
608.41709
 21
1871.111027
 31
0.0
  0
ARC
  5
337
100
AcDbEntity
  8
LAY-2
  6
CONTINUOUS
 62
     6
100
AcDbCircle
 10
615.864862
 20
1865.111043
 30
0.0
 40
17.5
100
AcDbArc
 50
200.051098
 51
269.999965
  0
ARC
  5
338
100
AcDbEntity
  8
LAY-2
  6
CONTINUOUS
 62
     6
100
AcDbCircle
 10
615.864877
 20
1865.111027
 30
0.0
 40
16.0
100
AcDbArc
 50
202.024313
 51
157.975687
  0
ARC
  5
339
100
AcDbEntity
  8
LAY-2
  6
CONTINUOUS
 62
     6
100
AcDbCircle
 10
615.864862
 20
1865.111043
 30
0.0
 40
17.5
100
AcDbArc
 50
90.000006
 51
159.949013
  0
LINE
  5
33A
100
AcDbEntity
  8
LAY-2
  6
CONTINUOUS
 62
     6
100
AcDbLine
 10
595.41709
 20
2011.111027
 30
0.0
 11
608.41709
 21
2011.111027
 31
0.0
  0
LINE
  5
33B
100
AcDbEntity
  8
LAY-2
  6
CONTINUOUS
 62
     6
100
AcDbLine
 10
595.41709
 20
1999.111027
 30
0.0
 11
608.41709
 21
1999.111027
 31
0.0
  0
ARC
  5
33C
100
AcDbEntity
  8
LAY-2
  6
CONTINUOUS
 62
     6
100
AcDbCircle
 10
615.864862
 20
2005.111011
 30
0.0
 40
17.5
100
AcDbArc
 50
90.000035
 51
159.948902
  0
ARC
  5
33D
100
AcDbEntity
  8
LAY-2
  6
CONTINUOUS
 62
     6
100
AcDbCircle
 10
615.864877
 20
2005.111027
 30
0.0
 40
16.0
100
AcDbArc
 50
202.024313
 51
157.975687
  0
ARC
  5
33E
100
AcDbEntity
  8
LAY-2
  6
CONTINUOUS
 62
     6
100
AcDbCircle
 10
615.864862
 20
2005.111011
 30
0.0
 40
17.5
100
AcDbArc
 50
200.050987
 51
269.999994
  0
LINE
  5
33F
100
AcDbEntity
  8
LAY-2
  6
EXLTYPE3
 62
     1
100
AcDbLine
 10
615.864877
 20
1899.278761
 30
0.0
 11
615.864877
 21
1830.945428
 31
0.0
  0
ARC
  5
340
100
AcDbEntity
  8
LAY-2
  6
CONTINUOUS
 62
     6
100
AcDbCircle
 10
595.41709
 20
1865.111027
 30
0.0
 40
6.0
100
AcDbArc
 50
90.0
 51
270.0
  0
ARC
  5
341
100
AcDbEntity
  8
LAY-2
  6
CONTINUOUS
 62
     6
100
AcDbCircle
 10
595.41709
 20
2005.111027
 30
0.0
 40
6.0
100
AcDbArc
 50
90.0
 51
270.0
  0
ARC
  5
342
100
AcDbEntity
  8
LAY-2
  6
CONTINUOUS
 62
     6
100
AcDbCircle
 10
950.864877
 20
1935.110234
 30
0.0
 40
145.0
100
AcDbArc
 50
310.746826
 51
0.000313
  0
ARC
  5
343
100
AcDbEntity
  8
LAY-2
  6
CONTINUOUS
 62
     6
100
AcDbCircle
 10
950.864877
 20
1935.11182
 30
0.0
 40
145.0
100
AcDbArc
 50
359.999687
 51
49.253174
  0
ARC
  5
344
100
AcDbEntity
  8
LAY-2
  6
EXLTYPE2
 62
     6
100
AcDbCircle
 10
822.864876
 20
1935.111027
 30
0.0
 40
100.0
100
AcDbArc
 50
90.0
 51
270.0
  0
ARC
  5
345
100
AcDbEntity
  8
LAY-2
  6
EXLTYPE2
 62
     6
100
AcDbCircle
 10
882.88334
 20
2031.997129
 30
0.0
 40
190.0
100
AcDbArc
 50
283.090203
 51
309.186914
  0
ARC
  5
346
100
AcDbEntity
  8
LAY-2
  6
EXLTYPE2
 62
     6
100
AcDbCircle
 10
882.88334
 20
1838.224924
 30
0.0
 40
190.0
100
AcDbArc
 50
50.813086
 51
76.909797
  0
ARC
  5
347
100
AcDbEntity
  8
LAY-2
  6
EXLTYPE2
 62
     6
100
AcDbCircle
 10
822.864876
 20
1580.111027
 30
0.0
 40
455.0
100
AcDbArc
 50
76.909797
 51
90.0
  0
ARC
  5
348
100
AcDbEntity
  8
LAY-2
  6
EXLTYPE2
 62
     6
100
AcDbCircle
 10
822.864876
 20
2290.111027
 30
0.0
 40
455.0
100
AcDbArc
 50
270.0
 51
283.090203
  0
ARC
  5
349
100
AcDbEntity
  8
LAY-2
  6
EXLTYPE2
 62
     6
100
AcDbCircle
 10
961.864876
 20
1935.111027
 30
0.0
 40
65.0
100
AcDbArc
 50
309.186914
 51
50.813086
  0
ARC
  5
34A
100
AcDbEntity
  8
LAY-2
  6
CONTINUOUS
 62
     6
100
AcDbCircle
 10
2534.754478
 20
1925.212548
 30
0.0
 40
1900.0
100
AcDbArc
 50
180.700195
 51
183.535244
  0
ARC
  5
34B
100
AcDbEntity
  8
LAY-2
  6
EXLTYPE2
 62
     6
100
AcDbCircle
 10
822.864876
 20
2290.111027
 30
0.0
 40
455.0
100
AcDbArc
 50
270.0
 51
283.090203
  0
ARC
  5
34C
100
AcDbEntity
  8
LAY-2
  6
CONTINUOUS
 62
     6
100
AcDbCircle
 10
2534.754478
 20
1945.009506
 30
0.0
 40
1900.0
100
AcDbArc
 50
176.464756
 51
179.299805
  0
ARC
  5
34D
100
AcDbEntity
  8
LAY-2
  6
CONTINUOUS
 62
     6
100
AcDbCircle
 10
875.419673
 20
1848.31884
 30
0.0
 40
260.0
100
AcDbArc
 50
49.001046
 51
74.521925
  0
ARC
  5
34E
100
AcDbEntity
  8
LAY-2
  6
CONTINUOUS
 62
     6
100
AcDbCircle
 10
678.310321
 20
2059.965691
 30
0.0
 40
40.0
100
AcDbArc
 50
106.511925
 51
176.456611
  0
ARC
  5
34F
100
AcDbEntity
  8
LAY-2
  6
CONTINUOUS
 62
     6
100
AcDbCircle
 10
803.364877
 20
2232.111027
 30
0.0
 40
480.0
100
AcDbArc
 50
253.488075
 51
270.0
  0
ARC
  5
350
100
AcDbEntity
  8
LAY-2
  6
CONTINUOUS
 62
     6
100
AcDbCircle
 10
678.310321
 20
1810.256362
 30
0.0
 40
40.0
100
AcDbArc
 50
183.543389
 51
253.488075
  0
ARC
  5
351
100
AcDbEntity
  8
LAY-2
  6
CONTINUOUS
 62
     6
100
AcDbCircle
 10
803.364877
 20
2282.111027
 30
0.0
 40
530.0
100
AcDbArc
 50
270.0
 51
285.478075
  0
ARC
  5
352
100
AcDbEntity
  8
LAY-2
  6
CONTINUOUS
 62
     6
100
AcDbCircle
 10
875.419673
 20
2021.903213
 30
0.0
 40
260.0
100
AcDbArc
 50
285.478075
 51
310.998954
  0
ARC
  5
353
100
AcDbEntity
  8
LAY-2
  6
CONTINUOUS
 62
     6
100
AcDbCircle
 10
1634.342829
 20
1935.111027
 30
0.0
 40
1000.0
100
AcDbArc
 50
178.088381
 51
181.911438
  0
ARC
  5
354
100
AcDbEntity
  8
LAY-2
  6
CONTINUOUS
 62
     6
100
AcDbCircle
 10
803.364877
 20
1638.111027
 30
0.0
 40
480.0
100
AcDbArc
 50
90.0
 51
106.511925
  0
ARC
  5
355
100
AcDbEntity
  8
LAY-2
  6
CONTINUOUS
 62
     6
100
AcDbCircle
 10
803.364877
 20
1588.111027
 30
0.0
 40
530.0
100
AcDbArc
 50
74.521925
 51
90.0
  0
ARC
  5
356
100
AcDbEntity
  8
LAY-2
  6
CONTINUOUS
 62
     6
100
AcDbCircle
 10
1427.297552
 20
1393.508664
 30
0.0
 40
30.0
100
AcDbArc
 50
233.946045
 51
261.287033
  0
ARC
  5
357
100
AcDbEntity
  8
LAY-2
  6
CONTINUOUS
 62
     6
100
AcDbCircle
 10
1590.001047
 20
4789.402832
 30
0.0
 40
3430.064941
100
AcDbArc
 50
267.345932
 51
269.999985
  0
ARC
  5
358
100
AcDbEntity
  8
LAY-2
  6
CONTINUOUS
 62
     6
100
AcDbCircle
 10
1434.871753
 20
1442.931636
 30
0.0
 40
80.0
100
AcDbArc
 50
261.287033
 51
267.345932
  0
ARC
  5
359
100
AcDbEntity
  8
LAY-2
  6
CONTINUOUS
 62
     6
100
AcDbCircle
 10
1770.932003
 20
1343.651976
 30
0.0
 40
2.0
100
AcDbArc
 50
307.317505
 51
0.0
  0
ARC
  5
35A
100
AcDbEntity
  8
LAY-2
  6
CONTINUOUS
 62
     6
100
AcDbCircle
 10
1764.869383
 20
1351.605224
 30
0.0
 40
12.0
100
AcDbArc
 50
276.214051
 51
307.317505
  0
ARC
  5
35B
100
AcDbEntity
  8
LAY-2
  6
CONTINUOUS
 62
     6
100
AcDbCircle
 10
1690.397943
 20
2035.56284
 30
0.0
 40
700.0
100
AcDbArc
 50
273.987213
 51
276.214112
  0
ARC
  5
35C
100
AcDbEntity
  8
LAY-2
  6
CONTINUOUS
 62
     6
100
AcDbCircle
 10
1693.78985
 20
1336.265018
 30
0.0
 40
2.5
100
AcDbArc
 50
312.39917
 51
321.627472
  0
ARC
  5
35D
100
AcDbEntity
  8
LAY-2
  6
CONTINUOUS
 62
     6
100
AcDbCircle
 10
1692.441218
 20
1337.741947
 30
0.0
 40
4.5
100
AcDbArc
 50
276.756409
 51
312.399658
  0
ARC
  5
35E
100
AcDbEntity
  8
LAY-2
  6
CONTINUOUS
 62
     6
100
AcDbCircle
 10
1672.382424
 20
1507.0579
 30
0.0
 40
175.0
100
AcDbArc
 50
271.671082
 51
276.756348
  0
ARC
  5
35F
100
AcDbEntity
  8
LAY-2
  6
CONTINUOUS
 62
     6
100
AcDbCircle
 10
1590.0009
 20
4330.856445
 30
0.0
 40
3000.0
100
AcDbArc
 50
268.326229
 51
271.671082
  0
LINE
  5
360
100
AcDbEntity
  8
LAY-2
  6
CONTINUOUS
 62
     6
100
AcDbLine
 10
1773.031978
 20
1343.651975
 30
0.0
 11
1772.352171
 21
1351.839597
 31
0.0
  0
LINE
  5
361
100
AcDbEntity
  8
LAY-2
  6
CONTINUOUS
 62
     6
100
AcDbLine
 10
1772.932003
 20
1343.651975
 30
0.0
 11
1773.031978
 21
1343.651975
 31
0.0
  0
LINE
  5
362
100
AcDbEntity
  8
LAY-2
  6
EXLTYPE1
 62
     6
100
AcDbLine
 10
1772.940853
 20
1344.516477
 30
0.0
 11
1773.031978
 21
1343.651975
 31
0.0
  0
ARC
  5
363
100
AcDbEntity
  8
LAY-2
  6
CONTINUOUS
 62
     6
100
AcDbCircle
 10
1479.250183
 20
1333.0
 30
0.0
 40
5.0
100
AcDbArc
 50
270.0
 51
0.0
  0
ARC
  5
364
100
AcDbEntity
  8
LAY-2
  6
CONTINUOUS
 62
     6
100
AcDbCircle
 10
1440.199178
 20
1333.0
 30
0.0
 40
5.0
100
AcDbArc
 50
180.0
 51
270.0
  0
ARC
  5
365
100
AcDbEntity
  8
LAY-2
  6
CONTINUOUS
 62
     6
100
AcDbCircle
 10
1503.508911
 20
2235.078721
 30
0.0
 40
900.0
100
AcDbArc
 50
266.012817
 51
267.639526
  0
ARC
  5
366
100
AcDbEntity
  8
LAY-2
  6
CONTINUOUS
 62
     6
100
AcDbCircle
 10
1486.210191
 20
1336.264973
 30
0.0
 40
2.5
100
AcDbArc
 50
218.372742
 51
227.601257
  0
ARC
  5
367
100
AcDbEntity
  8
LAY-2
  6
CONTINUOUS
 62
     6
100
AcDbCircle
 10
1487.558797
 20
1337.741957
 30
0.0
 40
4.5
100
AcDbArc
 50
227.60022
 51
263.243591
  0
ARC
  5
368
100
AcDbEntity
  8
LAY-2
  6
CONTINUOUS
 62
     6
100
AcDbCircle
 10
1434.871776
 20
1442.93164
 30
0.0
 40
80.0
100
AcDbArc
 50
261.286987
 51
267.345947
  0
ARC
  5
369
100
AcDbEntity
  8
LAY-2
  6
CONTINUOUS
 62
     6
100
AcDbCircle
 10
1700.749817
 20
1333.0
 30
0.0
 40
5.0
100
AcDbArc
 50
180.0
 51
270.0
  0
ARC
  5
36A
100
AcDbEntity
  8
LAY-2
  6
CONTINUOUS
 62
     6
100
AcDbCircle
 10
1739.800856
 20
1333.0
 30
0.0
 40
5.0
100
AcDbArc
 50
270.0
 51
0.0
  0
ARC
  5
36B
100
AcDbEntity
  8
LAY-2
  6
CONTINUOUS
 62
     6
100
AcDbCircle
 10
1763.487006
 20
1334.499972
 30
0.0
 40
5.0
100
AcDbArc
 50
270.0
 51
0.0
  0
ARC
  5
36C
100
AcDbEntity
  8
LAY-2
  6
CONTINUOUS
 62
     6
100
AcDbCircle
 10
1440.199178
 20
1333.0
 30
0.0
 40
5.0
100
AcDbArc
 50
180.0
 51
270.0
  0
ARC
  5
36D
100
AcDbEntity
  8
LAY-2
  6
CONTINUOUS
 62
     6
100
AcDbCircle
 10
1479.250183
 20
1333.0
 30
0.0
 40
5.0
100
AcDbArc
 50
270.0
 51
0.0
  0
ARC
  5
36E
100
AcDbEntity
  8
LAY-2
  6
CONTINUOUS
 62
     6
100
AcDbCircle
 10
1416.51301
 20
1334.499972
 30
0.0
 40
5.0
100
AcDbArc
 50
180.0
 51
270.0
  0
ARC
  5
36F
100
AcDbEntity
  8
LAY-2
  6
CONTINUOUS
 62
     6
100
AcDbCircle
 10
1489.602084
 20
2035.562807
 30
0.0
 40
700.0
100
AcDbArc
 50
263.785889
 51
266.012817
  0
ARC
  5
370
100
AcDbEntity
  8
LAY-2
  6
CONTINUOUS
 62
     6
100
AcDbCircle
 10
1409.068043
 20
1343.651991
 30
0.0
 40
2.0
100
AcDbArc
 50
180.0
 51
232.682495
  0
ARC
  5
371
100
AcDbEntity
  8
LAY-2
  6
CONTINUOUS
 62
     6
100
AcDbCircle
 10
1415.130632
 20
1351.605211
 30
0.0
 40
11.999999
100
AcDbArc
 50
232.682495
 51
263.78595
  0
ARC
  5
372
100
AcDbEntity
  8
LAY-2
  6
CONTINUOUS
 62
     6
100
AcDbCircle
 10
1503.508911
 20
2235.078721
 30
0.0
 40
900.0
100
AcDbArc
 50
266.012817
 51
267.639526
  0
ARC
  5
373
100
AcDbEntity
  8
LAY-2
  6
CONTINUOUS
 62
     6
100
AcDbCircle
 10
1507.617628
 20
1507.057888
 30
0.0
 40
175.0
100
AcDbArc
 50
263.243652
 51
268.328918
  0
ARC
  5
374
100
AcDbEntity
  8
LAY-2
  6
CONTINUOUS
 62
     6
100
AcDbCircle
 10
1487.558797
 20
1337.741957
 30
0.0
 40
4.5
100
AcDbArc
 50
222.67218
 51
263.243591
  0
ARC
  5
375
100
AcDbEntity
  8
LAY-2
  6
CONTINUOUS
 62
     6
100
AcDbCircle
 10
1590.0
 20
4333.296767
 30
0.0
 40
3000.0
100
AcDbArc
 50
267.639526
 51
270.0
  0
ARC
  5
376
100
AcDbEntity
  8
LAY-2
  6
CONTINUOUS
 62
     6
100
AcDbCircle
 10
1676.491122
 20
2235.078721
 30
0.0
 40
900.0
100
AcDbArc
 50
272.360474
 51
273.987213
  0
ARC
  5
377
100
AcDbEntity
  8
LAY-2
  6
CONTINUOUS
 62
     6
100
AcDbCircle
 10
1590.0
 20
4333.296767
 30
0.0
 40
3000.0
100
AcDbArc
 50
270.0
 51
272.360474
  0
ARC
  5
378
100
AcDbEntity
  8
LAY-2
  6
CONTINUOUS
 62
     6
100
AcDbCircle
 10
1752.702433
 20
1393.508626
 30
0.0
 40
30.0
100
AcDbArc
 50
278.713013
 51
306.053986
  0
ARC
  5
379
100
AcDbEntity
  8
LAY-2
  6
CONTINUOUS
 62
     6
100
AcDbCircle
 10
1589.998949
 20
4789.402859
 30
0.0
 40
3430.064833
100
AcDbArc
 50
270.000031
 51
272.654053
  0
ARC
  5
37A
100
AcDbEntity
  8
LAY-2
  6
CONTINUOUS
 62
     6
100
AcDbCircle
 10
1745.128241
 20
1442.93164
 30
0.0
 40
80.0
100
AcDbArc
 50
272.654083
 51
278.712982
  0
ARC
  5
37B
100
AcDbEntity
  8
LAY-2
  6
CONTINUOUS
 62
     6
100
AcDbCircle
 10
1769.18179
 20
1370.871703
 30
0.0
 40
2.0
100
AcDbArc
 50
306.05365
 51
0.0
  0
ARC
  5
37C
100
AcDbEntity
  8
LAY-2
  6
CONTINUOUS
 62
     6
100
AcDbCircle
 10
1719.493272
 20
1294.95543
 30
0.0
 40
100.0
100
AcDbArc
 50
65.644104
 51
75.639404
  0
ARC
  5
37D
100
AcDbEntity
  8
LAY-2
  6
CONTINUOUS
 62
     6
100
AcDbCircle
 10
1682.2897
 20
1149.64232
 30
0.0
 40
250.0
100
AcDbArc
 50
75.639404
 51
82.744019
  0
ARC
  5
37E
100
AcDbEntity
  8
LAY-2
  6
CONTINUOUS
 62
     6
100
AcDbCircle
 10
1753.310343
 20
1369.657579
 30
0.0
 40
17.999999
100
AcDbArc
 50
6.117493
 51
65.644104
  0
ARC
  5
37F
100
AcDbEntity
  8
LAY-2
  6
CONTINUOUS
 62
     6
100
AcDbCircle
 10
1671.777276
 20
1360.918904
 30
0.0
 40
100.0
100
AcDbArc
 50
5.999878
 51
6.117554
  0
LINE
  5
380
100
AcDbEntity
  8
LAY-2
  6
CONTINUOUS
 62
     6
100
AcDbLine
 10
1484.250183
 20
1335.16139
 30
0.0
 11
1484.250183
 21
1333.0
 31
0.0
  0
LINE
  5
381
100
AcDbEntity
  8
LAY-2
  6
CONTINUOUS
 62
     6
100
AcDbLine
 10
1479.250183
 20
1328.0
 30
0.0
 11
1440.199178
 21
1328.0
 31
0.0
  0
LINE
  5
382
100
AcDbEntity
  8
LAY-2
  6
CONTINUOUS
 62
     6
100
AcDbLine
 10
1435.199178
 20
1333.0
 30
0.0
 11
1484.250183
 21
1333.0
 31
0.0
  0
LINE
  5
383
100
AcDbEntity
  8
LAY-2
  6
CONTINUOUS
 62
     6
100
AcDbLine
 10
1435.199178
 20
1337.68004
 30
0.0
 11
1435.199178
 21
1333.0
 31
0.0
  0
LINE
  5
384
100
AcDbEntity
  8
LAY-2
  6
CONTINUOUS
 62
     6
100
AcDbLine
 10
1695.749817
 20
1335.16139
 30
0.0
 11
1695.749817
 21
1333.0
 31
0.0
  0
LINE
  5
385
100
AcDbEntity
  8
LAY-2
  6
CONTINUOUS
 62
     6
100
AcDbLine
 10
1700.749817
 20
1328.0
 30
0.0
 11
1739.800856
 21
1328.0
 31
0.0
  0
LINE
  5
386
100
AcDbEntity
  8
LAY-2
  6
CONTINUOUS
 62
     6
100
AcDbLine
 10
1744.800822
 20
1333.0
 30
0.0
 11
1695.749817
 21
1333.0
 31
0.0
  0
LINE
  5
387
100
AcDbEntity
  8
LAY-2
  6
CONTINUOUS
 62
     6
100
AcDbLine
 10
1744.800822
 20
1337.68004
 30
0.0
 11
1744.800822
 21
1333.0
 31
0.0
  0
LINE
  5
388
100
AcDbEntity
  8
LAY-2
  6
CONTINUOUS
 62
     6
100
AcDbLine
 10
1743.371582
 20
1329.499972
 30
0.0
 11
1763.487006
 21
1329.499972
 31
0.0
  0
LINE
  5
389
100
AcDbEntity
  8
LAY-2
  6
CONTINUOUS
 62
     6
100
AcDbLine
 10
1744.800822
 20
1334.499972
 30
0.0
 11
1768.487006
 21
1334.499972
 31
0.0
  0
LINE
  5
38A
100
AcDbEntity
  8
LAY-2
  6
CONTINUOUS
 62
     6
100
AcDbLine
 10
1768.487006
 20
1339.932101
 30
0.0
 11
1768.487006
 21
1334.499972
 31
0.0
  0
LINE
  5
38B
100
AcDbEntity
  8
LAY-2
  6
CONTINUOUS
 62
     6
100
AcDbLine
 10
1435.199178
 20
1333.0
 30
0.0
 11
1484.250217
 21
1333.0
 31
0.0
  0
LINE
  5
38C
100
AcDbEntity
  8
LAY-2
  6
CONTINUOUS
 62
     6
100
AcDbLine
 10
1479.250183
 20
1328.0
 30
0.0
 11
1440.199178
 21
1328.0
 31
0.0
  0
LINE
  5
38D
100
AcDbEntity
  8
LAY-2
  6
CONTINUOUS
 62
     6
100
AcDbLine
 10
1435.199178
 20
1337.68004
 30
0.0
 11
1435.199178
 21
1333.0
 31
0.0
  0
LINE
  5
38E
100
AcDbEntity
  8
LAY-2
  6
CONTINUOUS
 62
     6
100
AcDbLine
 10
1484.250183
 20
1335.16139
 30
0.0
 11
1484.250183
 21
1333.0
 31
0.0
  0
LINE
  5
38F
100
AcDbEntity
  8
LAY-2
  6
CONTINUOUS
 62
     6
100
AcDbLine
 10
1435.199178
 20
1334.499972
 30
0.0
 11
1411.51301
 21
1334.499972
 31
0.0
  0
LINE
  5
390
100
AcDbEntity
  8
LAY-2
  6
CONTINUOUS
 62
     6
100
AcDbLine
 10
1436.628469
 20
1329.499972
 30
0.0
 11
1416.51301
 21
1329.499972
 31
0.0
  0
LINE
  5
391
100
AcDbEntity
  8
LAY-2
  6
CONTINUOUS
 62
     6
100
AcDbLine
 10
1411.51301
 20
1339.932101
 30
0.0
 11
1411.51301
 21
1334.499972
 31
0.0
  0
LINE
  5
392
100
AcDbEntity
  8
LAY-2
  6
CONTINUOUS
 62
     6
100
AcDbLine
 10
1406.968028
 20
1343.651991
 30
0.0
 11
1407.647874
 21
1351.839586
 31
0.0
  0
LINE
  5
393
100
AcDbEntity
  8
LAY-2
  6
CONTINUOUS
 62
     6
100
AcDbLine
 10
1407.06804
 20
1343.651991
 30
0.0
 11
1406.968028
 21
1343.651991
 31
0.0
  0
LINE
  5
394
100
AcDbEntity
  8
LAY-2
  6
EXLTYPE1
 62
     6
100
AcDbLine
 10
1407.05919
 20
1344.516452
 30
0.0
 11
1406.968028
 21
1343.651991
 31
0.0
  0
LINE
  5
395
100
AcDbEntity
  8
LAY-2
  6
CONTINUOUS
 62
     6
100
AcDbLine
 10
1771.282077
 20
1370.871703
 30
0.0
 11
1771.182048
 21
1370.871703
 31
0.0
  0
LINE
  5
396
100
AcDbEntity
  8
LAY-2
  6
CONTINUOUS
 62
     6
100
AcDbLine
 10
1771.282077
 20
1370.871703
 30
0.0
 11
1771.229519
 21
1371.371718
 31
0.0
  0
ARC
  5
397
100
AcDbEntity
  8
LAY-2
  6
CONTINUOUS
 62
     6
100
AcDbCircle
 10
1760.393309
 20
1350.846558
 30
0.0
 40
12.0
100
AcDbArc
 50
4.000061
 51
43.447065
  0
ARC
  5
398
100
AcDbEntity
  8
LAY-2
  6
CONTINUOUS
 62
     6
100
AcDbCircle
 10
1750.955196
 20
1341.906681
 30
0.0
 40
25.0
100
AcDbArc
 50
43.447065
 51
65.896475
  0
LINE
  5
399
100
AcDbEntity
  8
LAY-2
  6
CONTINUOUS
 62
     6
100
AcDbLine
 10
1677.499984
 20
1332.132743
 30
0.0
 11
1677.499984
 21
1330.5
 31
0.0
  0
LINE
  5
39A
100
AcDbEntity
  8
LAY-2
  6
CONTINUOUS
 62
     6
100
AcDbLine
 10
1642.499984
 20
1331.315839
 30
0.0
 11
1642.499984
 21
1330.5
 31
0.0
  0
LINE
  5
39B
100
AcDbEntity
  8
LAY-2
  6
CONTINUOUS
 62
     6
100
AcDbLine
 10
1675.499984
 20
1328.0
 30
0.0
 11
1644.499984
 21
1328.0
 31
0.0
  0
LINE
  5
39C
100
AcDbEntity
  8
LAY-2
  6
CONTINUOUS
 62
     6
100
AcDbLine
 10
1642.499984
 20
1330.5
 30
0.0
 11
1677.499984
 21
1330.5
 31
0.0
  0
LINE
  5
39D
100
AcDbEntity
  8
LAY-2
  6
CONTINUOUS
 62
     6
100
AcDbLine
 10
1675.499984
 20
1328.0
 30
0.0
 11
1675.499984
 21
1330.5
 31
0.0
  0
LINE
  5
39E
100
AcDbEntity
  8
LAY-2
  6
CONTINUOUS
 62
     6
100
AcDbLine
 10
1644.499984
 20
1328.0
 30
0.0
 11
1644.499984
 21
1330.5
 31
0.0
  0
LINE
  5
39F
100
AcDbEntity
  8
LAY-2
  6
CONTINUOUS
 62
     6
100
AcDbLine
 10
1502.500016
 20
1332.132743
 30
0.0
 11
1502.500016
 21
1330.5
 31
0.0
  0
LINE
  5
3A0
100
AcDbEntity
  8
LAY-2
  6
CONTINUOUS
 62
     6
100
AcDbLine
 10
1537.500016
 20
1331.315839
 30
0.0
 11
1537.500016
 21
1330.5
 31
0.0
  0
LINE
  5
3A1
100
AcDbEntity
  8
LAY-2
  6
CONTINUOUS
 62
     6
100
AcDbLine
 10
1504.500016
 20
1328.0
 30
0.0
 11
1535.500016
 21
1328.0
 31
0.0
  0
LINE
  5
3A2
100
AcDbEntity
  8
LAY-2
  6
CONTINUOUS
 62
     6
100
AcDbLine
 10
1537.500016
 20
1330.5
 30
0.0
 11
1502.500016
 21
1330.5
 31
0.0
  0
LINE
  5
3A3
100
AcDbEntity
  8
LAY-2
  6
CONTINUOUS
 62
     6
100
AcDbLine
 10
1504.500016
 20
1328.0
 30
0.0
 11
1504.500016
 21
1330.5
 31
0.0
  0
LINE
  5
3A4
100
AcDbEntity
  8
LAY-2
  6
CONTINUOUS
 62
     6
100
AcDbLine
 10
1535.500016
 20
1328.0
 30
0.0
 11
1535.500016
 21
1330.5
 31
0.0
  0
ARC
  5
3A5
100
AcDbEntity
  8
LAY-2
  6
CONTINUOUS
 62
     6
100
AcDbCircle
 10
1589.99966
 20
424.790039
 30
0.0
 40
980.703979
100
AcDbArc
 50
82.744002
 51
97.255982
  0
ARC
  5
3A6
100
AcDbEntity
  8
LAY-2
  6
CONTINUOUS
 62
     6
100
AcDbCircle
 10
1497.710299
 20
1149.642327
 30
0.0
 40
250.0
100
AcDbArc
 50
97.255982
 51
104.360601
  0
ARC
  5
3A7
100
AcDbEntity
  8
LAY-2
  6
CONTINUOUS
 62
     6
100
AcDbCircle
 10
1410.818237
 20
1370.871705
 30
0.0
 40
2.0
100
AcDbArc
 50
180.0
 51
233.946045
  0
ARC
  5
3A8
100
AcDbEntity
  8
LAY-2
  6
CONTINUOUS
 62
     6
100
AcDbCircle
 10
1426.689697
 20
1369.65759
 30
0.0
 40
18.0
100
AcDbArc
 50
114.355896
 51
173.882447
  0
ARC
  5
3A9
100
AcDbEntity
  8
LAY-2
  6
CONTINUOUS
 62
     6
100
AcDbCircle
 10
1508.222744
 20
1360.918951
 30
0.0
 40
100.0
100
AcDbArc
 50
173.882447
 51
174.000122
  0
LINE
  5
3AA
100
AcDbEntity
  8
LAY-2
  6
CONTINUOUS
 62
     6
100
AcDbLine
 10
1408.717987
 20
1370.871705
 30
0.0
 11
1408.817993
 21
1370.871705
 31
0.0
  0
LINE
  5
3AB
100
AcDbEntity
  8
LAY-2
  6
CONTINUOUS
 62
     6
100
AcDbLine
 10
1408.717987
 20
1370.871705
 30
0.0
 11
1408.770538
 21
1371.371705
 31
0.0
  0
ARC
  5
3AC
100
AcDbEntity
  8
LAY-2
  6
CONTINUOUS
 62
     6
100
AcDbCircle
 10
1460.506724
 20
1294.95544
 30
0.0
 40
100.0
100
AcDbArc
 50
104.360601
 51
114.355896
  0
ARC
  5
3AD
100
AcDbEntity
  8
LAY-2
  6
CONTINUOUS
 62
     6
100
AcDbCircle
 10
1733.0
 20
1367.070028
 30
0.0
 40
8.75
100
AcDbArc
 50
215.175899
 51
329.609488
  0
ARC
  5
3AE
100
AcDbEntity
  8
LAY-2
  6
CONTINUOUS
 62
     6
100
AcDbCircle
 10
1447.0
 20
1367.070028
 30
0.0
 40
8.75
100
AcDbArc
 50
210.391563
 51
324.82305
  0
ARC
  5
3AF
100
AcDbEntity
  8
LAY-2
  6
CONTINUOUS
 62
     6
100
AcDbCircle
 10
1419.60673
 20
1350.846543
 30
0.0
 40
11.999999
100
AcDbArc
 50
133.725278
 51
175.999878
  0
ARC
  5
3B0
100
AcDbEntity
  8
LAY-2
  6
CONTINUOUS
 62
     6
100
AcDbCircle
 10
1429.044817
 20
1341.906657
 30
0.0
 40
25.0
100
AcDbArc
 50
114.103088
 51
136.552825
  0
LINE
  5
3B1
100
AcDbEntity
  8
LAY-2
  6
CONTINUOUS
 62
     6
100
AcDbLine
 10
630.364877
 20
1329.0
 30
0.0
 11
630.364877
 21
1328.0
 31
0.0
  0
LINE
  5
3B2
100
AcDbEntity
  8
LAY-2
  6
CONTINUOUS
 62
     6
100
AcDbLine
 10
601.364877
 20
1329.0
 30
0.0
 11
601.364877
 21
1328.0
 31
0.0
  0
LINE
  5
3B3
100
AcDbEntity
  8
LAY-2
  6
CONTINUOUS
 62
     6
100
AcDbLine
 10
630.364877
 20
1328.0
 30
0.0
 11
601.364877
 21
1328.0
 31
0.0
  0
LINE
  5
3B4
100
AcDbEntity
  8
LAY-2
  6
CONTINUOUS
 62
     6
100
AcDbLine
 10
632.319515
 20
1339.0
 30
0.0
 11
599.864877
 21
1339.0
 31
0.0
  0
ARC
  5
3B5
100
AcDbEntity
  8
LAY-2
  6
CONTINUOUS
 62
     6
100
AcDbCircle
 10
599.864877
 20
1337.5
 30
0.0
 40
1.5
100
AcDbArc
 50
90.0
 51
180.0
  0
LINE
  5
3B6
100
AcDbEntity
  8
LAY-2
  6
CONTINUOUS
 62
     6
100
AcDbLine
 10
598.364877
 20
1329.0
 30
0.0
 11
598.364877
 21
1337.5
 31
0.0
  0
LINE
  5
3B7
100
AcDbEntity
  8
LAY-2
  6
CONTINUOUS
 62
     6
100
AcDbLine
 10
655.294309
 20
1329.0
 30
0.0
 11
589.41709
 21
1329.0
 31
0.0
  0
LINE
  5
3B8
100
AcDbEntity
  8
LAY-2
  6
CONTINUOUS
 62
     6
100
AcDbLine
 10
589.41709
 20
1344.0
 30
0.0
 11
589.41709
 21
1329.0
 31
0.0
  0
LINE
  5
3B9
100
AcDbEntity
  8
LAY-2
  6
CONTINUOUS
 62
     6
100
AcDbLine
 10
598.364877
 20
1344.0
 30
0.0
 11
608.41709
 21
1339.0
 31
0.0
  0
LINE
  5
3BA
100
AcDbEntity
  8
LAY-2
  6
CONTINUOUS
 62
     6
100
AcDbLine
 10
598.364877
 20
1344.0
 30
0.0
 11
589.41709
 21
1344.0
 31
0.0
  0
ARC
  5
3BB
100
AcDbEntity
  8
LAY-2
  6
CONTINUOUS
 62
     6
100
AcDbCircle
 10
1306.849679
 20
14353.956055
 30
0.0
 40
13000.0
100
AcDbArc
 50
267.439697
 51
268.225281
  0
ARC
  5
3BC
100
AcDbEntity
  8
LAY-2
  6
CONTINUOUS
 62
     6
100
AcDbCircle
 10
101.290292
 20
1231.219482
 30
0.0
 40
1000.0
100
AcDbArc
 50
5.999908
 51
6.375183
  0
ARC
  5
3BD
100
AcDbEntity
  8
LAY-2
  6
CONTINUOUS
 62
     6
100
AcDbCircle
 10
1093.774057
 20
1335.245972
 30
0.0
 40
2.0
100
AcDbArc
 50
282.906372
 51
0.007874
  0
LINE
  5
3BE
100
AcDbEntity
  8
LAY-2
  6
CONTINUOUS
 62
     6
100
AcDbLine
 10
775.360605
 20
1334.487961
 30
0.0
 11
940.440164
 21
1332.12764
 31
0.0
  0
LINE
  5
3BF
100
AcDbEntity
  8
LAY-2
  6
CONTINUOUS
 62
     6
100
AcDbLine
 10
970.189187
 20
1331.702286
 30
0.0
 11
1029.344217
 21
1330.856476
 31
0.0
  0
LINE
  5
3C0
100
AcDbEntity
  8
LAY-2
  6
CONTINUOUS
 62
     6
100
AcDbLine
 10
1094.220773
 20
1333.296509
 30
0.0
 11
745.475778
 21
1343.951599
 31
0.0
  0
LINE
  5
3C1
100
AcDbEntity
  8
LAY-2
  6
CONTINUOUS
 62
     6
100
AcDbLine
 10
1095.812387
 20
1335.746277
 30
0.0
 11
1095.864877
 21
1335.246216
 31
0.0
  0
LINE
  5
3C2
100
AcDbEntity
  8
LAY-2
  6
CONTINUOUS
 62
     6
100
AcDbLine
 10
970.360544
 20
1337.08075
 30
0.0
 11
970.360544
 21
1333.0
 31
0.0
  0
LINE
  5
3C3
100
AcDbEntity
  8
LAY-2
  6
CONTINUOUS
 62
     6
100
AcDbLine
 10
940.363473
 20
1337.997253
 30
0.0
 11
940.363473
 21
1333.0
 31
0.0
  0
LINE
  5
3C4
100
AcDbEntity
  8
LAY-2
  6
CONTINUOUS
 62
     6
100
AcDbLine
 10
940.363473
 20
1333.0
 30
0.0
 11
970.360544
 21
1333.0
 31
0.0
  0
LINE
  5
3C5
100
AcDbEntity
  8
LAY-2
  6
CONTINUOUS
 62
     6
100
AcDbLine
 10
1081.626596
 20
1354.696411
 30
0.0
 11
904.244973
 21
1360.192505
 31
0.0
  0
LINE
  5
3C6
100
AcDbEntity
  8
LAY-2
  6
CONTINUOUS
 62
     6
100
AcDbLine
 10
1095.864877
 20
1335.246216
 30
0.0
 11
1095.774057
 21
1335.246216
 31
0.0
  0
ARC
  5
3C7
100
AcDbEntity
  8
LAY-2
  6
CONTINUOUS
 62
     6
100
AcDbCircle
 10
993.864328
 20
1351.393463
 30
0.0
 40
100.0
100
AcDbArc
 50
5.995056
 51
6.167908
  0
ARC
  5
3C8
100
AcDbEntity
  8
LAY-2
  6
CONTINUOUS
 62
     6
100
AcDbCircle
 10
1091.269906
 20
1361.337997
 30
0.0
 40
2.0
100
AcDbArc
 50
270.0
 51
0.0
  0
ARC
  5
3C9
100
AcDbEntity
  8
LAY-2
  6
CONTINUOUS
 62
     6
100
AcDbCircle
 10
1077.373422
 20
1360.466736
 30
0.0
 40
16.0
100
AcDbArc
 50
5.994843
 51
65.145721
  0
ARC
  5
3CA
100
AcDbEntity
  8
LAY-2
  6
CONTINUOUS
 62
     6
100
AcDbCircle
 10
1060.98121
 20
1325.078934
 30
0.0
 40
55.0
100
AcDbArc
 50
65.145721
 51
77.491241
  0
ARC
  5
3CB
100
AcDbEntity
  8
LAY-2
  6
CONTINUOUS
 62
     6
100
AcDbCircle
 10
997.087686
 20
1037.081848
 30
0.0
 40
350.0
100
AcDbArc
 50
77.491272
 51
81.432617
  0
ARC
  5
3CC
100
AcDbEntity
  8
LAY-2
  6
CONTINUOUS
 62
     6
100
AcDbCircle
 10
2608.133188
 20
51336.3125
 30
0.0
 40
50000.0
100
AcDbArc
 50
267.869141
 51
268.261108
  0
ARC
  5
3CD
100
AcDbEntity
  8
LAY-2
  6
CONTINUOUS
 62
     6
100
AcDbCircle
 10
751.283349
 20
-594.506348
 30
0.0
 40
2000.0
100
AcDbArc
 50
81.432617
 51
90.042389
  0
LINE
  5
3CE
100
AcDbEntity
  8
LAY-2
  6
CONTINUOUS
 62
     6
100
AcDbLine
 10
1093.317392
 20
1361.837646
 30
0.0
 11
1093.369882
 21
1361.337997
 31
0.0
  0
LINE
  5
3CF
100
AcDbEntity
  8
LAY-2
  6
CONTINUOUS
 62
     6
100
AcDbLine
 10
1090.913095
 20
1359.337997
 30
0.0
 11
1091.269906
 21
1359.337997
 31
0.0
  0
LINE
  5
3D0
100
AcDbEntity
  8
LAY-2
  6
CONTINUOUS
 62
     6
100
AcDbLine
 10
1093.269906
 20
1361.337997
 30
0.0
 11
1093.369882
 21
1361.337997
 31
0.0
  0
ARC
  5
3D1
100
AcDbEntity
  8
LAY-2
  6
CONTINUOUS
 62
     6
100
AcDbCircle
 10
770.36059
 20
1334.49999
 30
0.0
 40
5.0
100
AcDbArc
 50
270.0
 51
0.0
  0
ARC
  5
3D2
100
AcDbEntity
  8
LAY-2
  6
CONTINUOUS
 62
     6
100
AcDbCircle
 10
761.360618
 20
1334.49999
 30
0.0
 40
5.0
100
AcDbArc
 50
180.0
 51
270.0
  0
ARC
  5
3D3
100
AcDbEntity
  8
LAY-2
  6
CONTINUOUS
 62
     6
100
AcDbCircle
 10
945.363472
 20
1333.0
 30
0.0
 40
5.0
100
AcDbArc
 50
180.0
 51
270.0
  0
ARC
  5
3D4
100
AcDbEntity
  8
LAY-2
  6
CONTINUOUS
 62
     6
100
AcDbCircle
 10
965.360557
 20
1333.0
 30
0.0
 40
5.0
100
AcDbArc
 50
270.0
 51
0.0
  0
LINE
  5
3D5
100
AcDbEntity
  8
LAY-2
  6
CONTINUOUS
 62
     6
100
AcDbLine
 10
770.36059
 20
1329.49999
 30
0.0
 11
761.360618
 21
1329.49999
 31
0.0
  0
LINE
  5
3D6
100
AcDbEntity
  8
LAY-2
  6
CONTINUOUS
 62
     6
100
AcDbLine
 10
965.360557
 20
1328.0
 30
0.0
 11
945.363472
 21
1328.0
 31
0.0
  0
ARC
  5
3D7
100
AcDbEntity
  8
LAY-2
  6
CONTINUOUS
 62
     6
100
AcDbCircle
 10
1081.193002
 20
1340.703125
 30
0.0
 40
14.0
100
AcDbArc
 50
6.375153
 51
92.909413
  0
ARC
  5
3D8
100
AcDbEntity
  8
LAY-2
  6
EXLTYPE2
 62
     6
100
AcDbCircle
 10
1028.380049
 20
1333.370517
 30
0.0
 40
2.5
100
AcDbArc
 50
178.810746
 51
269.18083
  0
ARC
  5
3D9
100
AcDbEntity
  8
LAY-2
  6
EXLTYPE2
 62
     6
100
AcDbCircle
 10
1039.877572
 20
1333.131836
 30
0.0
 40
14.0
100
AcDbArc
 50
171.310969
 51
178.810746
  0
ARC
  5
3DA
100
AcDbEntity
  8
LAY-2
  6
CONTINUOUS
 62
     6
100
AcDbCircle
 10
1029.379983
 20
1333.356262
 30
0.0
 40
2.5
100
AcDbArc
 50
269.180298
 51
352.607427
  0
ARC
  5
3DB
100
AcDbEntity
  8
LAY-2
  6
CONTINUOUS
 62
     6
100
AcDbCircle
 10
1039.803464
 20
1332.003862
 30
0.0
 40
8.0
100
AcDbArc
 50
156.581694
 51
172.607427
  0
ARC
  5
3DC
100
AcDbEntity
  8
LAY-2
  6
CONTINUOUS
 62
     6
100
AcDbCircle
 10
955.86491
 20
1367.847522
 30
0.0
 40
9.25
100
AcDbArc
 50
205.281893
 51
330.930377
  0
ARC
  5
3DD
100
AcDbEntity
  8
LAY-2
  6
CONTINUOUS
 62
     6
100
AcDbCircle
 10
630.91456
 20
1294.034943
 30
0.0
 40
75.0
100
AcDbArc
 50
63.787048
 51
80.909973
  0
ARC
  5
3DE
100
AcDbEntity
  8
LAY-2
  6
CONTINUOUS
 62
     6
100
AcDbCircle
 10
637.234018
 20
1333.532593
 30
0.0
 40
35.0
100
AcDbArc
 50
80.909973
 51
90.0
  0
ARC
  5
3DF
100
AcDbEntity
  8
LAY-2
  6
CONTINUOUS
 62
     6
100
AcDbCircle
 10
734.716089
 20
1504.867203
 30
0.0
 40
160.0
100
AcDbArc
 50
243.787048
 51
264.506714
  0
ARC
  5
3E0
100
AcDbEntity
  8
LAY-2
  6
CONTINUOUS
 62
     6
100
AcDbCircle
 10
746.228372
 20
1816.483856
 30
0.0
 40
450.0
100
AcDbArc
 50
257.444275
 51
267.439697
  0
ARC
  5
3E1
100
AcDbEntity
  8
LAY-2
  6
CONTINUOUS
 62
     6
100
AcDbCircle
 10
636.985803
 20
1370.532593
 30
0.0
 40
2.0
100
AcDbArc
 50
180.0
 51
270.0
  0
ARC
  5
3E2
100
AcDbEntity
  8
LAY-2
  6
CONTINUOUS
 62
     6
100
AcDbCircle
 10
645.794626
 20
1365.532593
 30
0.0
 40
12.0
100
AcDbArc
 50
77.444244
 51
155.376892
  0
LINE
  5
3E3
100
AcDbEntity
  8
LAY-2
  6
CONTINUOUS
 62
     6
100
AcDbLine
 10
635.007486
 20
1370.238892
 30
0.0
 11
635.471292
 21
1357.034912
 31
0.0
  0
LINE
  5
3E4
100
AcDbEntity
  8
LAY-2
  6
CONTINUOUS
 62
     6
100
AcDbLine
 10
635.288995
 20
1369.473892
 30
0.0
 11
635.465966
 21
1357.249451
 31
0.0
  0
LINE
  5
3E5
100
AcDbEntity
  8
LAY-2
  6
CONTINUOUS
 62
     6
100
AcDbLine
 10
636.985803
 20
1368.532593
 30
0.0
 11
637.234018
 21
1368.532593
 31
0.0
  0
LINE
  5
3E6
100
AcDbEntity
  8
LAY-2
  6
CONTINUOUS
 62
     6
100
AcDbLine
 10
634.885812
 20
1370.532349
 30
0.0
 11
634.985803
 21
1370.532349
 31
0.0
  0
ARC
  5
3E7
100
AcDbEntity
  8
LAY-2
  6
CONTINUOUS
 62
     6
100
AcDbCircle
 10
658.483377
 20
1429.359917
 30
0.0
 40
50.0
100
AcDbArc
 50
242.001892
 51
261.610718
  0
ARC
  5
3E8
100
AcDbEntity
  8
LAY-2
  6
CONTINUOUS
 62
     6
100
AcDbCircle
 10
750.439966
 20
545.493408
 30
0.0
 40
860.0
100
AcDbArc
 50
90.042389
 51
96.243958
  0
ARC
  5
3E9
100
AcDbEntity
  8
LAY-2
  6
CONTINUOUS
 62
     6
100
AcDbCircle
 10
782.497293
 20
2270.264526
 30
0.0
 40
900.0
100
AcDbArc
 50
261.610657
 51
267.881714
  0
LINE
  5
3EA
100
AcDbEntity
  8
LAY-2
  6
CONTINUOUS
 62
     6
100
AcDbLine
 10
656.534036
 20
1379.123016
 30
0.0
 11
656.471177
 21
1375.526192
 31
0.0
  0
LINE
  5
3EB
100
AcDbEntity
  8
LAY-2
  6
CONTINUOUS
 62
     6
100
AcDbLine
 10
658.464473
 20
1375.12516
 30
0.0
 11
658.267759
 21
1363.86905
 31
0.0
  0
LINE
  5
3EC
100
AcDbEntity
  8
LAY-2
  6
CONTINUOUS
 62
     6
100
AcDbLine
 10
634.993492
 20
1383.76972
 30
0.0
 11
635.270089
 21
1371.297493
 31
0.0
  0
ARC
  5
3ED
100
AcDbEntity
  8
LAY-2
  6
CONTINUOUS
 62
     6
100
AcDbCircle
 10
649.989804
 20
1384.102293
 30
0.0
 40
15.0
100
AcDbArc
 50
102.081549
 51
181.270441
  0
ARC
  5
3EE
100
AcDbEntity
  8
LAY-2
  6
CONTINUOUS
 62
     6
100
AcDbCircle
 10
667.780618
 20
1300.984985
 30
0.0
 40
100.0
100
AcDbArc
 50
96.243958
 51
102.081549
  0
LINE
  5
3EF
100
AcDbEntity
  8
LAY-2
  6
CONTINUOUS
 62
     6
100
AcDbLine
 10
660.824014
 20
1353.965149
 30
0.0
 11
661.12832
 21
1362.679871
 31
0.0
  0
LINE
  5
3F0
100
AcDbEntity
  8
LAY-2
  6
CONTINUOUS
 62
     6
100
AcDbLine
 10
656.861528
 20
1357.808044
 30
0.0
 11
656.9759
 21
1364.361374
 31
0.0
  0
ARC
  5
3F1
100
AcDbEntity
  8
LAY-2
  6
CONTINUOUS
 62
     6
100
AcDbCircle
 10
646.764877
 20
1358.0
 30
0.0
 40
7.0
100
AcDbArc
 50
3.0
 51
90.0
  0
LINE
  5
3F2
100
AcDbEntity
  8
LAY-2
  6
CONTINUOUS
 62
     6
100
AcDbLine
 10
646.764877
 20
1365.0
 30
0.0
 11
644.964877
 21
1365.0
 31
0.0
  0
ARC
  5
3F3
100
AcDbEntity
  8
LAY-2
  6
CONTINUOUS
 62
     6
100
AcDbCircle
 10
645.864877
 20
1358.0
 30
0.0
 40
11.0
100
AcDbArc
 50
318.89534
 51
0.0
  0
ARC
  5
3F4
100
AcDbEntity
  8
LAY-2
  6
CONTINUOUS
 62
     6
100
AcDbCircle
 10
644.964877
 20
1358.0
 30
0.0
 40
7.0
100
AcDbArc
 50
90.0
 51
177.410775
  0
LINE
  5
3F5
100
AcDbEntity
  8
LAY-2
  6
CONTINUOUS
 62
     6
100
AcDbLine
 10
637.972023
 20
1358.316226
 30
0.0
 11
637.31441
 21
1343.774124
 31
0.0
  0
ARC
  5
3F6
100
AcDbEntity
  8
LAY-2
  6
CONTINUOUS
 62
     6
100
AcDbCircle
 10
645.864877
 20
1357.399994
 30
0.0
 40
10.4
100
AcDbArc
 50
182.011902
 51
217.758146
  0
ARC
  5
3F7
100
AcDbEntity
  8
LAY-2
  6
CONTINUOUS
 62
     6
100
AcDbCircle
 10
659.824594
 20
1354.0
 30
0.0
 40
1.0
100
AcDbArc
 50
270.0
 51
358.001953
  0
LINE
  5
3F8
100
AcDbEntity
  8
LAY-2
  6
CONTINUOUS
 62
     6
100
AcDbLine
 10
655.662835
 20
1353.0
 30
0.0
 11
659.824594
 21
1353.0
 31
0.0
  0
ARC
  5
3F9
100
AcDbEntity
  8
LAY-2
  6
CONTINUOUS
 62
     6
100
AcDbCircle
 10
632.319515
 20
1344.0
 30
0.0
 40
5.0
100
AcDbArc
 50
270.0
 51
357.410775
  0
ARC
  5
3FA
100
AcDbEntity
  8
LAY-2
  6
CONTINUOUS
 62
     6
100
AcDbCircle
 10
757.691171
 20
1743.765015
 30
0.0
 40
400.0
100
AcDbArc
 50
264.506714
 51
268.25
  0
LINE
  5
3FB
100
AcDbEntity
  8
LAY-2
  6
CONTINUOUS
 62
     6
100
AcDbLine
 10
756.360605
 20
1334.5
 30
0.0
 11
775.360605
 21
1334.5
 31
0.0
  0
LINE
  5
3FC
100
AcDbEntity
  8
LAY-2
  6
CONTINUOUS
 62
     6
100
AcDbLine
 10
775.360605
 20
1343.038513
 30
0.0
 11
775.360605
 21
1334.5
 31
0.0
  0
LINE
  5
3FD
100
AcDbEntity
  8
LAY-2
  6
CONTINUOUS
 62
     6
100
AcDbLine
 10
756.360605
 20
1343.619019
 30
0.0
 11
756.360605
 21
1334.5
 31
0.0
  0
LINE
  5
3FE
100
AcDbEntity
  8
LAY-2
  6
CONTINUOUS
 62
     6
100
AcDbLine
 10
716.927621
 20
1335.323425
 30
0.0
 11
756.360605
 21
1334.759613
 31
0.0
  0
ARC
  5
3FF
100
AcDbEntity
  8
LAY-2
  6
CONTINUOUS
 62
     6
100
AcDbCircle
 10
716.963357
 20
1337.823181
 30
0.0
 40
2.5
100
AcDbArc
 50
202.670105
 51
269.180908
  0
ARC
  5
400
100
AcDbEntity
  8
LAY-2
  6
CONTINUOUS
 62
     6
100
AcDbCircle
 10
523.458322
 20
1042.690369
 30
0.0
 40
353.0
100
AcDbArc
 50
58.114288
 51
60.155516
  0
ARC
  5
401
100
AcDbEntity
  8
LAY-2
  6
CONTINUOUS
 62
     6
100
AcDbCircle
 10
703.583627
 20
1332.234558
 30
0.0
 40
12.0
100
AcDbArc
 50
28.196236
 51
51.672324
  0
LINE
  5
402
100
AcDbEntity
  8
LAY-2
  6
CONTINUOUS
 62
     6
100
AcDbLine
 10
655.294309
 20
1329.0
 30
0.0
 11
653.755283
 21
1358.366352
 31
0.0
  0
LINE
  5
403
100
AcDbEntity
  8
LAY-2
  6
EXLTYPE3
 62
     3
100
AcDbLine
 10
623.642654
 20
1358.0
 30
0.0
 11
668.087099
 21
1358.0
 31
0.0
  0
DIMENSION
  5
410
100
AcDbEntity
  8
LAY-3
  6
CONTINUOUS
 62
     3
100
AcDbDimension
  2
*D14
 10
1171.0
 20
1752.111027
 30
0.0
 11
1147.5
 21
1935.111027
 31
0.0
 70
   160
  3
STANDARD
100
AcDbAlignedDimension
 13
803.364877
 23
2118.111027
 33
0.0
 14
803.364877
 24
1752.111027
 34
0.0
 50
90.0
100
AcDbRotatedDimension
1001
ACAD
1000
DSTYLE
1002
{
1070
     6
1000
_EX_NORM
1070
     7
1000
_EX_NORM
1070
    41
1040
30.0
1070
    42
1040
7.0
1070
    44
1040
10.0
1070
    73
1070
     0
1070
    74
1070
     0
1070
    75
1070
     0
1070
    76
1070
     0
1070
    77
1070
     1
1070
    78
1070
     8
1070
   140
1040
40.0
1070
   147
1040
3.5
1070
   173
1070
     1
1070
   176
1070
     3
1070
   177
1070
     3
1070
   178
1070
     2
1070
   271
1070
     2
1070
   279
1070
     2
1070
   280
1070
     0
1070
   287
1070
     5
1070
   340
1005
40F
1002
}
  0
DIMENSION
  5
41C
100
AcDbEntity
  8
LAY-3
  6
CONTINUOUS
 62
     3
100
AcDbDimension
  2
*D15
 10
1095.864876
 20
2174.0
 30
0.0
 11
855.864877
 21
2197.5
 31
0.0
 70
   160
  3
STANDARD
100
AcDbAlignedDimension
 13
615.864877
 23
2039.276625
 33
0.0
 14
1095.864876
 24
1935.111027
 34
0.0
100
AcDbRotatedDimension
1001
ACAD
1000
DSTYLE
1002
{
1070
     6
1000
_EX_NORM
1070
     7
1000
_EX_NORM
1070
    41
1040
30.0
1070
    42
1040
7.0
1070
    44
1040
10.0
1070
    73
1070
     0
1070
    74
1070
     0
1070
    75
1070
     0
1070
    76
1070
     0
1070
    77
1070
     1
1070
    78
1070
     8
1070
   140
1040
40.0
1070
   147
1040
3.5
1070
   173
1070
     1
1070
   176
1070
     3
1070
   177
1070
     3
1070
   178
1070
     2
1070
   271
1070
     2
1070
   279
1070
     2
1070
   280
1070
     0
1070
   287
1070
     5
1070
   340
1005
40F
1002
}
  0
DIMENSION
  5
428
100
AcDbEntity
  8
LAY-3
  6
CONTINUOUS
 62
     3
100
AcDbDimension
  2
*D16
 10
1026.864876
 20
1690.0
 30
0.0
 11
874.864876
 21
1713.5
 31
0.0
 70
   160
  3
STANDARD
100
AcDbAlignedDimension
 13
722.864876
 23
1935.111027
 33
0.0
 14
1026.864876
 24
1935.111027
 34
0.0
100
AcDbRotatedDimension
1001
ACAD
1000
DSTYLE
1002
{
1070
     6
1000
_EX_NORM
1070
     7
1000
_EX_NORM
1070
    41
1040
30.0
1070
    42
1040
7.0
1070
    44
1040
10.0
1070
    73
1070
     0
1070
    74
1070
     0
1070
    75
1070
     0
1070
    76
1070
     0
1070
    77
1070
     1
1070
    78
1070
     8
1070
   140
1040
40.0
1070
   147
1040
3.5
1070
   173
1070
     1
1070
   176
1070
     3
1070
   177
1070
     3
1070
   178
1070
     2
1070
   271
1070
     2
1070
   279
1070
     2
1070
   280
1070
     0
1070
   287
1070
     5
1070
   340
1005
40F
1002
}
  0
DIMENSION
  5
434
100
AcDbEntity
  8
LAY-3
  6
CONTINUOUS
 62
     3
100
AcDbDimension
  2
*D17
 10
698.0
 20
1835.111027
 30
0.0
 11
674.5
 21
1935.111027
 31
0.0
 70
   160
  3
STANDARD
100
AcDbAlignedDimension
 13
822.864876
 23
2035.111027
 33
0.0
 14
822.864876
 24
1835.111027
 34
0.0
 50
90.0
100
AcDbRotatedDimension
1001
ACAD
1000
DSTYLE
1002
{
1070
     6
1000
_EX_NORM
1070
     7
1000
_EX_NORM
1070
    41
1040
30.0
1070
    42
1040
7.0
1070
    44
1040
10.0
1070
    73
1070
     0
1070
    74
1070
     0
1070
    75
1070
     0
1070
    76
1070
     0
1070
    77
1070
     1
1070
    78
1070
     8
1070
   140
1040
40.0
1070
   147
1040
3.5
1070
   173
1070
     1
1070
   176
1070
     3
1070
   177
1070
     3
1070
   178
1070
     2
1070
   271
1070
     2
1070
   279
1070
     2
1070
   280
1070
     0
1070
   287
1070
     5
1070
   340
1005
40F
1002
}
  0
DIMENSION
  5
440
100
AcDbEntity
  8
LAY-3
  6
CONTINUOUS
 62
     3
100
AcDbDimension
  2
*D18
 10
549.0
 20
1865.111027
 30
0.0
 11
525.5
 21
1935.111027
 31
0.0
 70
   160
  3
STANDARD
100
AcDbAlignedDimension
 13
581.698195
 23
2005.111027
 33
0.0
 14
589.41709
 24
1865.111027
 34
0.0
 50
90.0
100
AcDbRotatedDimension
1001
ACAD
1000
DSTYLE
1002
{
1070
     6
1000
_EX_NORM
1070
     7
1000
_EX_NORM
1070
    41
1040
30.0
1070
    42
1040
7.0
1070
    44
1040
10.0
1070
    73
1070
     0
1070
    74
1070
     0
1070
    75
1070
     0
1070
    76
1070
     0
1070
    77
1070
     1
1070
    78
1070
     8
1070
   140
1040
40.0
1070
   147
1040
3.5
1070
   173
1070
     1
1070
   176
1070
     3
1070
   177
1070
     3
1070
   178
1070
     2
1070
   271
1070
     2
1070
   279
1070
     2
1070
   280
1070
     0
1070
   287
1070
     5
1070
   340
1005
40F
1002
}
  0
DIMENSION
  5
44C
100
AcDbEntity
  8
LAY-3
  6
CONTINUOUS
 62
     3
100
AcDbDimension
  2
*D19
 10
547.6
 20
1233.0
 30
0.0
 11
524.1
 21
1280.5
 31
0.0
 70
   160
  3
STANDARD
100
AcDbAlignedDimension
 13
601.364877
 23
1328.0
 33
0.0
 14
611.364877
 24
1233.0
 34
0.0
 50
90.0
100
AcDbRotatedDimension
1001
ACAD
1000
DSTYLE
1002
{
1070
     6
1000
_EX_NORM
1070
     7
1000
_EX_NORM
1070
    41
1040
30.0
1070
    42
1040
7.0
1070
    44
1040
10.0
1070
    73
1070
     0
1070
    74
1070
     0
1070
    75
1070
     0
1070
    76
1070
     0
1070
    77
1070
     1
1070
    78
1070
     8
1070
   140
1040
40.0
1070
   147
1040
3.5
1070
   173
1070
     1
1070
   176
1070
     3
1070
   177
1070
     3
1070
   178
1070
     2
1070
   271
1070
     2
1070
   279
1070
     2
1070
   280
1070
     0
1070
   287
1070
     5
1070
   340
1005
40F
1002
}
  0
DIMENSION
  5
458
100
AcDbEntity
  8
LAY-3
  6
CONTINUOUS
 62
     3
100
AcDbDimension
  2
*D20
 10
1095.774057
 20
1225.0
 30
0.0
 11
870.819467
 21
1248.5
 31
0.0
 70
   160
  1
450
  3
STANDARD
100
AcDbAlignedDimension
 13
645.864877
 23
1358.0
 33
0.0
 14
1095.774057
 24
1335.245972
 34
0.0
100
AcDbRotatedDimension
1001
ACAD
1000
DSTYLE
1002
{
1070
     6
1000
_EX_NORM
1070
     7
1000
_EX_NORM
1070
    41
1040
30.0
1070
    42
1040
7.0
1070
    44
1040
10.0
1070
    73
1070
     0
1070
    74
1070
     0
1070
    75
1070
     0
1070
    76
1070
     0
1070
    77
1070
     1
1070
    78
1070
     8
1070
   140
1040
40.0
1070
   147
1040
3.5
1070
   173
1070
     1
1070
   176
1070
     3
1070
   177
1070
     3
1070
   178
1070
     2
1070
   271
1070
     2
1070
   279
1070
     2
1070
   280
1070
     0
1070
   287
1070
     5
1070
   340
1005
40F
1002
}
  0
DIMENSION
  5
465
100
AcDbEntity
  8
LAY-3
  6
CONTINUOUS
 62
     3
100
AcDbDimension
  2
*D21
 10
1346.0
 20
1328.0
 30
0.0
 11
1323.0
 21
1366.747009
 31
0.0
 70
   160
  1
（77.5）
  3
STANDARD
100
AcDbAlignedDimension
 13
1590.0
 23
1405.494018
 33
0.0
 14
1440.199178
 24
1328.0
 34
0.0
 50
90.0
100
AcDbRotatedDimension
1001
ACAD
1000
DSTYLE
1002
{
1070
     6
1000
_EX_NORM
1070
     7
1000
_EX_NORM
1070
    41
1040
30.0
1070
    42
1040
5.0
1070
    44
1040
10.0
1070
    73
1070
     0
1070
    74
1070
     0
1070
    75
1070
     0
1070
    76
1070
     0
1070
    77
1070
     1
1070
    78
1070
     8
1070
   140
1040
40.0
1070
   147
1040
3.0
1070
   173
1070
     1
1070
   176
1070
     3
1070
   177
1070
     3
1070
   178
1070
     2
1070
   271
1070
     2
1070
   279
1070
     2
1070
   280
1070
     0
1070
   287
1070
     5
1070
   340
1005
464
1002
}
  0
ENDSEC
  0
SECTION
  2
OBJECTS
  0
DICTIONARY
  5
19
100
AcDbDictionary
  3
ACAD_GROUP
350
1A
  3
ACAD_MLINESTYLE
350
1B
  0
DICTIONARY
  5
1A
102
{ACAD_REACTORS
330
19
102
}
100
AcDbDictionary
  0
DICTIONARY
  5
1B
102
{ACAD_REACTORS
330
19
102
}
100
AcDbDictionary
  3
STANDARD
350
1C
  0
MLINESTYLE
  5
1C
102
{ACAD_REACTORS
330
1B
102
}
100
AcDbMlineStyle
  2
Standard
 70
     0
  3

 62
     0
 51
90.0
 52
90.0
 71
     2
 49
0.5
 62
   256
  6
ByLayer
 49
-0.5
 62
   256
  6
ByLayer
  0
ENDSEC
  0
EOF
