  0
SECTION
  2
HEADER
  9
$ACADVER
  1
AC1014
  9
$ACADMAINTVER
 70
     9
  9
$DWGCODEPAGE
  3
ANSI_932
  9
$INSBASE
 10
0.0
 20
0.0
 30
0.0
  9
$EXTMIN
 10
0.0000000000000091
 20
8.4999999999999
 30
0.0
  9
$EXTMAX
 10
298.5
 20
288.5
 30
0.0
  9
$LIMMIN
 10
0.0
 20
0.0
  9
$LIMMAX
 10
210.0
 20
297.0
  9
$ORTHOMODE
 70
     0
  9
$REGENMODE
 70
     1
  9
$FILLMODE
 70
     1
  9
$QTEXTMODE
 70
     0
  9
$MIRRTEXT
 70
     1
  9
$DRAGMODE
 70
     2
  9
$LTSCALE
 40
1.0
  9
$OSMODE
 70
    37
  9
$ATTMODE
 70
     1
  9
$TEXTSIZE
 40
2.5
  9
$TRACEWID
 40
1.0
  9
$TEXTSTYLE
  7
STANDARD
  9
$CLAYER
  8
LAY-2
  9
$CELTYPE
  6
BYLAYER
  9
$CECOLOR
 62
   256
  9
$CELTSCALE
 40
1.0
  9
$DELOBJ
 70
     1
  9
$DISPSILH
 70
     0
  9
$DIMSCALE
 40
1.0
  9
$DIMASZ
 40
2.5
  9
$DIMEXO
 40
0.625
  9
$DIMDLI
 40
3.75
  9
$DIMRND
 40
0.0
  9
$DIMDLE
 40
0.0
  9
$DIMEXE
 40
1.25
  9
$DIMTP
 40
0.0
  9
$DIMTM
 40
0.0
  9
$DIMTXT
 40
2.5
  9
$DIMCEN
 40
2.5
  9
$DIMTSZ
 40
0.0
  9
$DIMTOL
 70
     0
  9
$DIMLIM
 70
     0
  9
$DIMTIH
 70
     0
  9
$DIMTOH
 70
     0
  9
$DIMSE1
 70
     0
  9
$DIMSE2
 70
     0
  9
$DIMTAD
 70
     1
  9
$DIMZIN
 70
     8
  9
$DIMBLK
  1

  9
$DIMASO
 70
     1
  9
$DIMSHO
 70
     1
  9
$DIMPOST
  1

  9
$DIMAPOST
  1

  9
$DIMALT
 70
     0
  9
$DIMALTD
 70
     3
  9
$DIMALTF
 40
0.03937007874016
  9
$DIMLFAC
 40
1.0
  9
$DIMTOFL
 70
     1
  9
$DIMTVP
 40
0.0
  9
$DIMTIX
 70
     0
  9
$DIMSOXD
 70
     0
  9
$DIMSAH
 70
     0
  9
$DIMBLK1
  1

  9
$DIMBLK2
  1

  9
$DIMSTYLE
  2
ISO-25
  9
$DIMCLRD
 70
     0
  9
$DIMCLRE
 70
     0
  9
$DIMCLRT
 70
     0
  9
$DIMTFAC
 40
1.0
  9
$DIMGAP
 40
0.625
  9
$DIMJUST
 70
     0
  9
$DIMSD1
 70
     0
  9
$DIMSD2
 70
     0
  9
$DIMTOLJ
 70
     0
  9
$DIMTZIN
 70
     8
  9
$DIMALTZ
 70
     0
  9
$DIMALTTZ
 70
     0
  9
$DIMFIT
 70
     3
  9
$DIMUPT
 70
     0
  9
$DIMUNIT
 70
     2
  9
$DIMDEC
 70
     2
  9
$DIMTDEC
 70
     2
  9
$DIMALTU
 70
     2
  9
$DIMALTTD
 70
     3
  9
$DIMTXSTY
  7
STANDARD
  9
$DIMAUNIT
 70
     0
  9
$LUNITS
 70
     2
  9
$LUPREC
 70
     4
  9
$SKETCHINC
 40
1.0
  9
$FILLETRAD
 40
10.0
  9
$AUNITS
 70
     0
  9
$AUPREC
 70
     0
  9
$MENU
  1
.
  9
$ELEVATION
 40
0.0
  9
$PELEVATION
 40
0.0
  9
$THICKNESS
 40
0.0
  9
$LIMCHECK
 70
     0
  9
$CHAMFERA
 40
10.0
  9
$CHAMFERB
 40
10.0
  9
$CHAMFERC
 40
20.0
  9
$CHAMFERD
 40
0.0
  9
$SKPOLY
 70
     0
  9
$TDCREATE
 40
2460572.42713419
  9
$TDUPDATE
 40
2460572.427134549
  9
$TDINDWG
 40
0.0000000116
  9
$TDUSRTIMER
 40
0.0000000116
  9
$USRTIMER
 70
     1
  9
$ANGBASE
 50
0.0
  9
$ANGDIR
 70
     0
  9
$PDMODE
 70
     0
  9
$PDSIZE
 40
0.0
  9
$PLINEWID
 40
0.0
  9
$COORDS
 70
     1
  9
$SPLFRAME
 70
     0
  9
$SPLINETYPE
 70
     6
  9
$SPLINESEGS
 70
     8
  9
$ATTDIA
 70
     0
  9
$ATTREQ
 70
     1
  9
$HANDLING
 70
     1
  9
$HANDSEED
  5
433
  9
$SURFTAB1
 70
     6
  9
$SURFTAB2
 70
     6
  9
$SURFTYPE
 70
     6
  9
$SURFU
 70
     6
  9
$SURFV
 70
     6
  9
$UCSNAME
  2

  9
$UCSORG
 10
0.0
 20
0.0
 30
0.0
  9
$UCSXDIR
 10
1.0
 20
0.0
 30
0.0
  9
$UCSYDIR
 10
0.0
 20
1.0
 30
0.0
  9
$PUCSNAME
  2

  9
$PUCSORG
 10
0.0
 20
0.0
 30
0.0
  9
$PUCSXDIR
 10
1.0
 20
0.0
 30
0.0
  9
$PUCSYDIR
 10
0.0
 20
1.0
 30
0.0
  9
$USERI1
 70
     0
  9
$USERI2
 70
     0
  9
$USERI3
 70
     0
  9
$USERI4
 70
     0
  9
$USERI5
 70
     0
  9
$USERR1
 40
0.0
  9
$USERR2
 40
0.0
  9
$USERR3
 40
0.0
  9
$USERR4
 40
0.0
  9
$USERR5
 40
0.0
  9
$WORLDVIEW
 70
     1
  9
$SHADEDGE
 70
     3
  9
$SHADEDIF
 70
    70
  9
$TILEMODE
 70
     1
  9
$MAXACTVP
 70
    64
  9
$PINSBASE
 10
0.0
 20
0.0
 30
0.0
  9
$PLIMCHECK
 70
     0
  9
$PEXTMIN
 10
1.000000000000000E+20
 20
1.000000000000000E+20
 30
1.000000000000000E+20
  9
$PEXTMAX
 10
-1.000000000000000E+20
 20
-1.000000000000000E+20
 30
-1.000000000000000E+20
  9
$PLIMMIN
 10
0.0
 20
0.0
  9
$PLIMMAX
 10
420.0
 20
297.0
  9
$UNITMODE
 70
     0
  9
$VISRETAIN
 70
     1
  9
$PLINEGEN
 70
     0
  9
$PSLTSCALE
 70
     1
  9
$TREEDEPTH
 70
  3020
  9
$PICKSTYLE
 70
     1
  9
$CMLSTYLE
  2
STANDARD
  9
$CMLJUST
 70
     0
  9
$CMLSCALE
 40
20.0
  9
$PROXYGRAPHICS
 70
     1
  9
$MEASUREMENT
 70
     1
  0
ENDSEC
  0
SECTION
  2
CLASSES
  0
CLASS
  1
ACDBDICTIONARYWDFLT
  2
AcDbDictionaryWithDefault
  3
ObjectDBX Classes
 90
        0
280
     0
281
     0
  0
CLASS
  1
VISUALSTYLE
  2
AcDbVisualStyle
  3
ObjectDBX Classes
 90
     4095
280
     0
281
     0
  0
CLASS
  1
MATERIAL
  2
AcDbMaterial
  3
ObjectDBX Classes
 90
     1153
280
     0
281
     0
  0
CLASS
  1
SUN
  2
AcDbSun
  3
SCENEOE
 90
     1024
280
     0
281
     0
  0
CLASS
  1
DICTIONARYVAR
  2
AcDbDictionaryVar
  3
ObjectDBX Classes
 90
        0
280
     0
281
     0
  0
CLASS
  1
XRECORD
  2
AcDbXrecord
  3
AutoCAD 2000
 90
        0
280
     0
281
     0
  0
CLASS
  1
LWPOLYLINE
  2
AcDbPolyline
  3
AutoCAD 2000
 90
        0
280
     0
281
     1
  0
CLASS
  1
HATCH
  2
AcDbHatch
  3
AutoCAD 2000
 90
        0
280
     0
281
     1
  0
CLASS
  1
ACDBPLACEHOLDER
  2
AcDbPlaceHolder
  3
ObjectDBX Classes
 90
        0
280
     0
281
     0
  0
CLASS
  1
LAYOUT
  2
AcDbLayout
  3
ObjectDBX Classes
 90
        0
280
     0
281
     0
  0
ENDSEC
  0
SECTION
  2
TABLES
  0
TABLE
  2
VPORT
  5
8
330
0
100
AcDbSymbolTable
 70
     1
  0
VPORT
  5
29
330
8
100
AcDbSymbolTableRecord
100
AcDbViewportTableRecord
  2
*ACTIVE
 70
     0
 10
0.0
 20
0.0
 11
1.0
 21
1.0
 12
1492.5
 22
1484.999999999999
 13
0.0
 23
0.0
 14
10.0
 24
10.0
 15
10.0
 25
10.0
 16
0.0
 26
0.0
 36
1.0
 17
0.0
 27
0.0
 37
0.0
 40
2800.000000000001
 41
1.066071428571428
 42
50.0
 43
0.0
 44
0.0
 50
0.0
 51
0.0
 71
     0
 72
  1000
 73
     1
 74
     3
 75
     0
 76
     0
 77
     0
 78
     0
  0
ENDTAB
  0
TABLE
  2
LTYPE
  5
5
330
0
100
AcDbSymbolTable
 70
     7
  0
LTYPE
  5
14
330
5
100
AcDbSymbolTableRecord
100
AcDbLinetypeTableRecord
  2
BYBLOCK
 70
     0
  3

 72
    65
 73
     0
 40
0.0
  0
LTYPE
  5
15
330
5
100
AcDbSymbolTableRecord
100
AcDbLinetypeTableRecord
  2
BYLAYER
 70
     0
  3

 72
    65
 73
     0
 40
0.0
  0
LTYPE
  5
16
330
5
100
AcDbSymbolTableRecord
100
AcDbLinetypeTableRecord
  2
CONTINUOUS
 70
     0
  3
Solid line
 72
    65
 73
     0
 40
0.0
  0
LTYPE
  5
40
330
5
100
AcDbSymbolTableRecord
100
AcDbLinetypeTableRecord
  2
EXLTYPE1
 70
     0
  3
破線
 72
    65
 73
     2
 40
3.0
 49
2.0
 74
     0
 49
-1.0
 74
     0
  0
LTYPE
  5
41
330
5
100
AcDbSymbolTableRecord
100
AcDbLinetypeTableRecord
  2
EXLTYPE2
 70
     0
  3
点線
 72
    65
 73
     2
 40
2.0
 49
1.0
 74
     0
 49
-1.0
 74
     0
  0
LTYPE
  5
42
330
5
100
AcDbSymbolTableRecord
100
AcDbLinetypeTableRecord
  2
EXLTYPE3
 70
     0
  3
一点鎖線
 72
    65
 73
     4
 40
10.0
 49
7.0
 74
     0
 49
-1.0
 74
     0
 49
1.0
 74
     0
 49
-1.0
 74
     0
  0
LTYPE
  5
43
330
5
100
AcDbSymbolTableRecord
100
AcDbLinetypeTableRecord
  2
EXLTYPE4
 70
     0
  3
二点鎖線
 72
    65
 73
     6
 40
12.0
 49
7.0
 74
     0
 49
-1.0
 74
     0
 49
1.0
 74
     0
 49
-1.0
 74
     0
 49
1.0
 74
     0
 49
-1.0
 74
     0
  0
LTYPE
  5
44
330
5
100
AcDbSymbolTableRecord
100
AcDbLinetypeTableRecord
  2
EXLTYPE5
 70
     0
  3
三点鎖線
 72
    65
 73
     8
 40
37.0
 49
30.0
 74
     0
 49
-1.0
 74
     0
 49
1.0
 74
     0
 49
-1.0
 74
     0
 49
1.0
 74
     0
 49
-1.0
 74
     0
 49
1.0
 74
     0
 49
-1.0
 74
     0
  0
LTYPE
  5
45
330
5
100
AcDbSymbolTableRecord
100
AcDbLinetypeTableRecord
  2
EXLTYPE6
 70
     0
  3
四点鎖線
 72
    65
 73
    10
 40
39.0
 49
30.0
 74
     0
 49
-1.0
 74
     0
 49
1.0
 74
     0
 49
-1.0
 74
     0
 49
1.0
 74
     0
 49
-1.0
 74
     0
 49
1.0
 74
     0
 49
-1.0
 74
     0
 49
1.0
 74
     0
 49
-1.0
 74
     0
  0
ENDTAB
  0
TABLE
  2
LAYER
  5
2
330
0
100
AcDbSymbolTable
 70
     5
  0
LAYER
  5
10
330
2
100
AcDbSymbolTableRecord
100
AcDbLayerTableRecord
  2
0
 70
     0
 62
     7
  6
CONTINUOUS
  0
LAYER
  5
48
330
2
100
AcDbSymbolTableRecord
100
AcDbLayerTableRecord
  2
LAY-1
 70
     0
 62
     7
  6
CONTINUOUS
  0
LAYER
  5
49
330
2
100
AcDbSymbolTableRecord
100
AcDbLayerTableRecord
  2
LAY-2
 70
     0
 62
     7
  6
CONTINUOUS
  0
LAYER
  5
4A
330
2
100
AcDbSymbolTableRecord
100
AcDbLayerTableRecord
  2
LAY-3
 70
     0
 62
     7
  6
CONTINUOUS
  0
LAYER
  5
156
330
2
100
AcDbSymbolTableRecord
100
AcDbLayerTableRecord
  2
DEFPOINTS
 70
     0
 62
     7
  6
CONTINUOUS
  0
ENDTAB
  0
TABLE
  2
STYLE
  5
3
330
0
100
AcDbSymbolTable
 70
     5
  0
STYLE
  5
11
330
3
100
AcDbSymbolTableRecord
100
AcDbTextStyleTableRecord
  2
STANDARD
 70
     0
 40
0.0
 41
1.0
 50
0.0
 71
     0
 42
2.5
  3
monotxt
  4
extfont
  0
STYLE
  5
46
330
3
100
AcDbSymbolTableRecord
100
AcDbTextStyleTableRecord
  2
EXCADSTD
 70
     0
 40
0.0
 41
1.0
 50
0.0
 71
     0
 42
0.2
  3
monotxt
  4
extfont
  0
STYLE
  5
47
330
3
100
AcDbSymbolTableRecord
100
AcDbTextStyleTableRecord
  2
EXCADVERT
 70
     4
 40
0.0
 41
1.0
 50
0.0
 71
     0
 42
0.286885
  3
monotxt
  4
extfont
  0
STYLE
  5
A7
330
3
100
AcDbSymbolTableRecord
100
AcDbTextStyleTableRecord
  2
EXCADTTF1
 70
     0
 40
0.0
 41
1.0
 50
0.0
 71
     0
 42
0.2
  3
MSGOTHIC.TTC
  4

1001
ACAD
1000
MS Gothic
1071
    32817
  0
STYLE
  5
154
330
3
100
AcDbSymbolTableRecord
100
AcDbTextStyleTableRecord
  2
EXCADDIM1
 70
     0
 40
0.0
 41
0.84
 50
0.0
 71
     0
 42
0.2
  3
monotxt
  4
extfont
  0
ENDTAB
  0
TABLE
  2
VIEW
  5
6
330
0
100
AcDbSymbolTable
 70
     0
  0
ENDTAB
  0
TABLE
  2
UCS
  5
7
330
0
100
AcDbSymbolTable
 70
     0
  0
ENDTAB
  0
TABLE
  2
APPID
  5
9
330
0
100
AcDbSymbolTable
 70
     1
  0
APPID
  5
12
330
9
100
AcDbSymbolTableRecord
100
AcDbRegAppTableRecord
  2
ACAD
 70
     0
  0
ENDTAB
  0
TABLE
  2
DIMSTYLE
  5
A
330
0
100
AcDbSymbolTable
 70
     1
  0
DIMSTYLE
105
27
102
{ACAD_REACTORS
330
155
330
163
330
3DB
330
3F8
102
}
330
A
100
AcDbSymbolTableRecord
100
AcDbDimStyleTableRecord
  2
ISO-25
 70
     0
  3

  4

  5

  6

  7

 40
1.0
 41
2.5
 42
0.625
 43
3.75
 44
1.25
 45
0.0
 46
0.0
 47
0.0
 48
0.0
140
2.5
141
2.5
142
0.0
143
0.03937007874016
144
1.0
145
0.0
146
1.0
147
0.625
 71
     0
 72
     0
 73
     0
 74
     0
 75
     0
 76
     0
 77
     1
 78
     8
170
     0
171
     3
172
     1
173
     0
174
     0
175
     0
176
     0
177
     0
178
     0
270
     2
271
     2
272
     2
273
     2
274
     3
340
11
275
     0
280
     0
281
     0
282
     0
283
     0
284
     8
285
     0
286
     0
287
     5
288
     0
  0
ENDTAB
  0
TABLE
  2
BLOCK_RECORD
  5
1
330
0
100
AcDbSymbolTable
 70
    19
  0
BLOCK_RECORD
  5
1F
330
1
100
AcDbSymbolTableRecord
100
AcDbBlockTableRecord
  2
*MODEL_SPACE
  0
BLOCK_RECORD
  5
1B
330
1
100
AcDbSymbolTableRecord
100
AcDbBlockTableRecord
  2
*PAPER_SPACE
  0
BLOCK_RECORD
  5
4B
330
1
100
AcDbSymbolTableRecord
100
AcDbBlockTableRecord
  2
EX_NORM
  0
BLOCK_RECORD
  5
4E
330
1
100
AcDbSymbolTableRecord
100
AcDbBlockTableRecord
  2
EX_BNORM
  0
BLOCK_RECORD
  5
51
330
1
100
AcDbSymbolTableRecord
100
AcDbBlockTableRecord
  2
EX_BCIR
  0
BLOCK_RECORD
  5
54
330
1
100
AcDbSymbolTableRecord
100
AcDbBlockTableRecord
  2
EX_RCIVIL
  0
BLOCK_RECORD
  5
57
330
1
100
AcDbSymbolTableRecord
100
AcDbBlockTableRecord
  2
EX_SLANT
  0
BLOCK_RECORD
  5
5A
330
1
100
AcDbSymbolTableRecord
100
AcDbBlockTableRecord
  2
EX_NONE
  0
BLOCK_RECORD
  5
5D
330
1
100
AcDbSymbolTableRecord
100
AcDbBlockTableRecord
  2
EX_CIVIL
  0
BLOCK_RECORD
  5
60
330
1
100
AcDbSymbolTableRecord
100
AcDbBlockTableRecord
  2
EX_WCIR
  0
BLOCK_RECORD
  5
63
330
1
100
AcDbSymbolTableRecord
100
AcDbBlockTableRecord
  2
EX_WCIR2
  0
BLOCK_RECORD
  5
66
330
1
100
AcDbSymbolTableRecord
100
AcDbBlockTableRecord
  2
EX_WNORM
  0
BLOCK_RECORD
  5
69
330
1
100
AcDbSymbolTableRecord
100
AcDbBlockTableRecord
  2
EX_NNORM
  0
BLOCK_RECORD
  5
6C
330
1
100
AcDbSymbolTableRecord
100
AcDbBlockTableRecord
  2
EX_BBOX
  0
BLOCK_RECORD
  5
6F
330
1
100
AcDbSymbolTableRecord
100
AcDbBlockTableRecord
  2
EX_WBOX
  0
BLOCK_RECORD
  5
72
330
1
100
AcDbSymbolTableRecord
100
AcDbBlockTableRecord
  2
EX_INTEGRAL
  0
BLOCK_RECORD
  5
157
330
1
100
AcDbSymbolTableRecord
100
AcDbBlockTableRecord
  2
*D15
  0
BLOCK_RECORD
  5
164
330
1
100
AcDbSymbolTableRecord
100
AcDbBlockTableRecord
  2
*D16
  0
BLOCK_RECORD
  5
3DC
330
1
100
AcDbSymbolTableRecord
100
AcDbBlockTableRecord
  2
*D17
  0
BLOCK_RECORD
  5
3F9
330
1
100
AcDbSymbolTableRecord
100
AcDbBlockTableRecord
  2
*D18
  0
ENDTAB
  0
ENDSEC
  0
SECTION
  2
BLOCKS
  0
BLOCK
  5
20
330
1F
100
AcDbEntity
  8
0
100
AcDbBlockBegin
  2
*MODEL_SPACE
 70
     0
 10
0.0
 20
0.0
 30
0.0
  3
*MODEL_SPACE
  1

  0
ENDBLK
  5
21
330
1F
100
AcDbEntity
  8
0
100
AcDbBlockEnd
  0
BLOCK
  5
1C
330
1B
100
AcDbEntity
 67
     1
  8
0
100
AcDbBlockBegin
  2
*PAPER_SPACE
 70
     0
 10
0.0
 20
0.0
 30
0.0
  3
*PAPER_SPACE
  1

  0
ENDBLK
  5
1D
330
1B
100
AcDbEntity
 67
     1
  8
0
100
AcDbBlockEnd
  0
BLOCK
  5
4C
330
4B
100
AcDbEntity
  8
0
100
AcDbBlockBegin
  2
EX_NORM
 70
     0
 10
0.0
 20
0.0
 30
0.0
  3
EX_NORM
  1

  0
LINE
  5
75
330
4B
100
AcDbEntity
  8
0
  6
CONTINUOUS
 62
     0
100
AcDbLine
 10
0.0
 20
0.0
 30
0.0
 11
-1.0
 21
0.0
 31
0.0
  0
LINE
  5
76
330
4B
100
AcDbEntity
  8
0
  6
CONTINUOUS
 62
     0
100
AcDbLine
 10
0.0
 20
0.0
 30
0.0
 11
-1.0
 21
0.166666667
 31
0.0
  0
LINE
  5
77
330
4B
100
AcDbEntity
  8
0
  6
CONTINUOUS
 62
     0
100
AcDbLine
 10
0.0
 20
0.0
 30
0.0
 11
-1.0
 21
-0.166666667
 31
0.0
  0
ENDBLK
  5
4D
330
4B
100
AcDbEntity
  8
0
100
AcDbBlockEnd
  0
BLOCK
  5
4F
330
4E
100
AcDbEntity
  8
0
100
AcDbBlockBegin
  2
EX_BNORM
 70
     0
 10
0.0
 20
0.0
 30
0.0
  3
EX_BNORM
  1

  0
LINE
  5
78
330
4E
100
AcDbEntity
  8
0
  6
CONTINUOUS
 62
     0
100
AcDbLine
 10
0.0
 20
0.0
 30
0.0
 11
-1.0
 21
0.0
 31
0.0
  0
LINE
  5
79
330
4E
100
AcDbEntity
  8
0
  6
CONTINUOUS
 62
     0
100
AcDbLine
 10
0.0
 20
0.0
 30
0.0
 11
-1.0
 21
0.166666667
 31
0.0
  0
LINE
  5
7A
330
4E
100
AcDbEntity
  8
0
  6
CONTINUOUS
 62
     0
100
AcDbLine
 10
0.0
 20
0.0
 30
0.0
 11
-1.0
 21
-0.166666667
 31
0.0
  0
LINE
  5
7B
330
4E
100
AcDbEntity
  8
0
  6
CONTINUOUS
 62
     0
100
AcDbLine
 10
0.0
 20
0.0
 30
0.0
 11
-1.0
 21
0.083333333
 31
0.0
  0
LINE
  5
7C
330
4E
100
AcDbEntity
  8
0
  6
CONTINUOUS
 62
     0
100
AcDbLine
 10
0.0
 20
0.0
 30
0.0
 11
-1.0
 21
-0.083333333
 31
0.0
  0
LINE
  5
7D
330
4E
100
AcDbEntity
  8
0
  6
CONTINUOUS
 62
     0
100
AcDbLine
 10
-1.0
 20
0.166666667
 30
0.0
 11
-1.0
 21
-0.166666667
 31
0.0
  0
ENDBLK
  5
50
330
4E
100
AcDbEntity
  8
0
100
AcDbBlockEnd
  0
BLOCK
  5
52
330
51
100
AcDbEntity
  8
0
100
AcDbBlockBegin
  2
EX_BCIR
 70
     0
 10
0.0
 20
0.0
 30
0.0
  3
EX_BCIR
  1

  0
LINE
  5
7E
330
51
100
AcDbEntity
  8
0
  6
CONTINUOUS
 62
     0
100
AcDbLine
 10
0.0
 20
0.0
 30
0.0
 11
-1.0
 21
0.0
 31
0.0
  0
CIRCLE
  5
7F
330
51
100
AcDbEntity
  8
0
  6
CONTINUOUS
 62
     0
100
AcDbCircle
 10
0.0
 20
0.0
 30
0.0
 40
0.5
  0
CIRCLE
  5
80
330
51
100
AcDbEntity
  8
0
  6
CONTINUOUS
 62
     0
100
AcDbCircle
 10
0.0
 20
0.0
 30
0.0
 40
0.25
  0
ENDBLK
  5
53
330
51
100
AcDbEntity
  8
0
100
AcDbBlockEnd
  0
BLOCK
  5
55
330
54
100
AcDbEntity
  8
0
100
AcDbBlockBegin
  2
EX_RCIVIL
 70
     0
 10
0.0
 20
0.0
 30
0.0
  3
EX_RCIVIL
  1

  0
LINE
  5
81
330
54
100
AcDbEntity
  8
0
  6
CONTINUOUS
 62
     0
100
AcDbLine
 10
0.0
 20
0.0
 30
0.0
 11
-1.0
 21
0.0
 31
0.0
  0
LINE
  5
82
330
54
100
AcDbEntity
  8
0
  6
CONTINUOUS
 62
     0
100
AcDbLine
 10
-1.0
 20
-0.25
 30
0.0
 11
0.0
 21
-0.25
 31
0.0
  0
LINE
  5
83
330
54
100
AcDbEntity
  8
0
  6
CONTINUOUS
 62
     0
100
AcDbLine
 10
-1.0
 20
-0.125
 30
0.0
 11
0.0
 21
-0.125
 31
0.0
  0
ENDBLK
  5
56
330
54
100
AcDbEntity
  8
0
100
AcDbBlockEnd
  0
BLOCK
  5
58
330
57
100
AcDbEntity
  8
0
100
AcDbBlockBegin
  2
EX_SLANT
 70
     0
 10
0.0
 20
0.0
 30
0.0
  3
EX_SLANT
  1

  0
LINE
  5
84
330
57
100
AcDbEntity
  8
0
  6
CONTINUOUS
 62
     0
100
AcDbLine
 10
0.0
 20
0.0
 30
0.0
 11
-1.0
 21
0.0
 31
0.0
  0
LINE
  5
85
330
57
100
AcDbEntity
  8
0
  6
CONTINUOUS
 62
     0
100
AcDbLine
 10
0.707106781
 20
0.707106781
 30
0.0
 11
-0.707106781
 21
-0.707106781
 31
0.0
  0
ENDBLK
  5
59
330
57
100
AcDbEntity
  8
0
100
AcDbBlockEnd
  0
BLOCK
  5
5B
330
5A
100
AcDbEntity
  8
0
100
AcDbBlockBegin
  2
EX_NONE
 70
     0
 10
0.0
 20
0.0
 30
0.0
  3
EX_NONE
  1

  0
LINE
  5
86
330
5A
100
AcDbEntity
  8
0
  6
CONTINUOUS
 62
     0
100
AcDbLine
 10
0.0
 20
0.0
 30
0.0
 11
-1.0
 21
0.0
 31
0.0
  0
ENDBLK
  5
5C
330
5A
100
AcDbEntity
  8
0
100
AcDbBlockEnd
  0
BLOCK
  5
5E
330
5D
100
AcDbEntity
  8
0
100
AcDbBlockBegin
  2
EX_CIVIL
 70
     0
 10
0.0
 20
0.0
 30
0.0
  3
EX_CIVIL
  1

  0
LINE
  5
87
330
5D
100
AcDbEntity
  8
0
  6
CONTINUOUS
 62
     0
100
AcDbLine
 10
0.0
 20
0.0
 30
0.0
 11
-1.0
 21
0.0
 31
0.0
  0
LINE
  5
88
330
5D
100
AcDbEntity
  8
0
  6
CONTINUOUS
 62
     0
100
AcDbLine
 10
-1.0
 20
0.25
 30
0.0
 11
0.0
 21
0.25
 31
0.0
  0
LINE
  5
89
330
5D
100
AcDbEntity
  8
0
  6
CONTINUOUS
 62
     0
100
AcDbLine
 10
-1.0
 20
0.125
 30
0.0
 11
0.0
 21
0.125
 31
0.0
  0
ENDBLK
  5
5F
330
5D
100
AcDbEntity
  8
0
100
AcDbBlockEnd
  0
BLOCK
  5
61
330
60
100
AcDbEntity
  8
0
100
AcDbBlockBegin
  2
EX_WCIR
 70
     0
 10
0.0
 20
0.0
 30
0.0
  3
EX_WCIR
  1

  0
LINE
  5
8A
330
60
100
AcDbEntity
  8
0
  6
CONTINUOUS
 62
     0
100
AcDbLine
 10
0.0
 20
0.0
 30
0.0
 11
-1.0
 21
0.0
 31
0.0
  0
CIRCLE
  5
8B
330
60
100
AcDbEntity
  8
0
  6
CONTINUOUS
 62
     0
100
AcDbCircle
 10
0.0
 20
0.0
 30
0.0
 40
0.5
  0
ENDBLK
  5
62
330
60
100
AcDbEntity
  8
0
100
AcDbBlockEnd
  0
BLOCK
  5
64
330
63
100
AcDbEntity
  8
0
100
AcDbBlockBegin
  2
EX_WCIR2
 70
     0
 10
0.0
 20
0.0
 30
0.0
  3
EX_WCIR2
  1

  0
LINE
  5
8C
330
63
100
AcDbEntity
  8
0
  6
CONTINUOUS
 62
     0
100
AcDbLine
 10
-0.5
 20
0.0
 30
0.0
 11
-1.0
 21
0.0
 31
0.0
  0
CIRCLE
  5
8D
330
63
100
AcDbEntity
  8
0
  6
CONTINUOUS
 62
     0
100
AcDbCircle
 10
0.0
 20
0.0
 30
0.0
 40
0.5
  0
ENDBLK
  5
65
330
63
100
AcDbEntity
  8
0
100
AcDbBlockEnd
  0
BLOCK
  5
67
330
66
100
AcDbEntity
  8
0
100
AcDbBlockBegin
  2
EX_WNORM
 70
     0
 10
0.0
 20
0.0
 30
0.0
  3
EX_WNORM
  1

  0
LINE
  5
8E
330
66
100
AcDbEntity
  8
0
  6
CONTINUOUS
 62
     0
100
AcDbLine
 10
-1.0
 20
0.0
 30
0.0
 11
-1.0
 21
0.0
 31
0.0
  0
LINE
  5
8F
330
66
100
AcDbEntity
  8
0
  6
CONTINUOUS
 62
     0
100
AcDbLine
 10
0.0
 20
0.0
 30
0.0
 11
-1.0
 21
0.166666667
 31
0.0
  0
LINE
  5
90
330
66
100
AcDbEntity
  8
0
  6
CONTINUOUS
 62
     0
100
AcDbLine
 10
0.0
 20
0.0
 30
0.0
 11
-1.0
 21
-0.166666667
 31
0.0
  0
LINE
  5
91
330
66
100
AcDbEntity
  8
0
  6
CONTINUOUS
 62
     0
100
AcDbLine
 10
-1.0
 20
0.166666667
 30
0.0
 11
-1.0
 21
-0.166666667
 31
0.0
  0
ENDBLK
  5
68
330
66
100
AcDbEntity
  8
0
100
AcDbBlockEnd
  0
BLOCK
  5
6A
330
69
100
AcDbEntity
  8
0
100
AcDbBlockBegin
  2
EX_NNORM
 70
     0
 10
0.0
 20
0.0
 30
0.0
  3
EX_NNORM
  1

  0
LINE
  5
92
330
69
100
AcDbEntity
  8
0
  6
CONTINUOUS
 62
     0
100
AcDbLine
 10
0.0
 20
0.0
 30
0.0
 11
-1.0
 21
0.0
 31
0.0
  0
LINE
  5
93
330
69
100
AcDbEntity
  8
0
  6
CONTINUOUS
 62
     0
100
AcDbLine
 10
0.0
 20
0.0
 30
0.0
 11
-1.0
 21
0.166666667
 31
0.0
  0
LINE
  5
94
330
69
100
AcDbEntity
  8
0
  6
CONTINUOUS
 62
     0
100
AcDbLine
 10
0.0
 20
0.0
 30
0.0
 11
-1.0
 21
-0.166666667
 31
0.0
  0
LINE
  5
95
330
69
100
AcDbEntity
  8
0
  6
CONTINUOUS
 62
     0
100
AcDbLine
 10
-1.0
 20
0.166666667
 30
0.0
 11
-1.0
 21
-0.166666667
 31
0.0
  0
ENDBLK
  5
6B
330
69
100
AcDbEntity
  8
0
100
AcDbBlockEnd
  0
BLOCK
  5
6D
330
6C
100
AcDbEntity
  8
0
100
AcDbBlockBegin
  2
EX_BBOX
 70
     0
 10
0.0
 20
0.0
 30
0.0
  3
EX_BBOX
  1

  0
LINE
  5
96
330
6C
100
AcDbEntity
  8
0
  6
CONTINUOUS
 62
     0
100
AcDbLine
 10
0.0
 20
0.0
 30
0.0
 11
-1.0
 21
0.0
 31
0.0
  0
LINE
  5
97
330
6C
100
AcDbEntity
  8
0
  6
CONTINUOUS
 62
     0
100
AcDbLine
 10
-0.5
 20
0.5
 30
0.0
 11
0.5
 21
0.5
 31
0.0
  0
LINE
  5
98
330
6C
100
AcDbEntity
  8
0
  6
CONTINUOUS
 62
     0
100
AcDbLine
 10
0.5
 20
0.5
 30
0.0
 11
0.5
 21
-0.5
 31
0.0
  0
LINE
  5
99
330
6C
100
AcDbEntity
  8
0
  6
CONTINUOUS
 62
     0
100
AcDbLine
 10
0.5
 20
-0.5
 30
0.0
 11
-0.5
 21
-0.5
 31
0.0
  0
LINE
  5
9A
330
6C
100
AcDbEntity
  8
0
  6
CONTINUOUS
 62
     0
100
AcDbLine
 10
-0.5
 20
-0.5
 30
0.0
 11
-0.5
 21
0.5
 31
0.0
  0
LINE
  5
9B
330
6C
100
AcDbEntity
  8
0
  6
CONTINUOUS
 62
     0
100
AcDbLine
 10
-0.25
 20
0.25
 30
0.0
 11
0.25
 21
0.25
 31
0.0
  0
LINE
  5
9C
330
6C
100
AcDbEntity
  8
0
  6
CONTINUOUS
 62
     0
100
AcDbLine
 10
0.25
 20
0.25
 30
0.0
 11
0.25
 21
-0.25
 31
0.0
  0
LINE
  5
9D
330
6C
100
AcDbEntity
  8
0
  6
CONTINUOUS
 62
     0
100
AcDbLine
 10
0.25
 20
-0.25
 30
0.0
 11
-0.25
 21
-0.25
 31
0.0
  0
LINE
  5
9E
330
6C
100
AcDbEntity
  8
0
  6
CONTINUOUS
 62
     0
100
AcDbLine
 10
-0.25
 20
-0.25
 30
0.0
 11
-0.25
 21
0.25
 31
0.0
  0
ENDBLK
  5
6E
330
6C
100
AcDbEntity
  8
0
100
AcDbBlockEnd
  0
BLOCK
  5
70
330
6F
100
AcDbEntity
  8
0
100
AcDbBlockBegin
  2
EX_WBOX
 70
     0
 10
0.0
 20
0.0
 30
0.0
  3
EX_WBOX
  1

  0
LINE
  5
9F
330
6F
100
AcDbEntity
  8
0
  6
CONTINUOUS
 62
     0
100
AcDbLine
 10
-0.5
 20
0.0
 30
0.0
 11
-1.0
 21
0.0
 31
0.0
  0
LINE
  5
A0
330
6F
100
AcDbEntity
  8
0
  6
CONTINUOUS
 62
     0
100
AcDbLine
 10
-0.5
 20
0.5
 30
0.0
 11
0.5
 21
0.5
 31
0.0
  0
LINE
  5
A1
330
6F
100
AcDbEntity
  8
0
  6
CONTINUOUS
 62
     0
100
AcDbLine
 10
0.5
 20
0.5
 30
0.0
 11
0.5
 21
-0.5
 31
0.0
  0
LINE
  5
A2
330
6F
100
AcDbEntity
  8
0
  6
CONTINUOUS
 62
     0
100
AcDbLine
 10
0.5
 20
-0.5
 30
0.0
 11
-0.5
 21
-0.5
 31
0.0
  0
LINE
  5
A3
330
6F
100
AcDbEntity
  8
0
  6
CONTINUOUS
 62
     0
100
AcDbLine
 10
-0.5
 20
-0.5
 30
0.0
 11
-0.5
 21
0.5
 31
0.0
  0
ENDBLK
  5
71
330
6F
100
AcDbEntity
  8
0
100
AcDbBlockEnd
  0
BLOCK
  5
73
330
72
100
AcDbEntity
  8
0
100
AcDbBlockBegin
  2
EX_INTEGRAL
 70
     0
 10
0.0
 20
0.0
 30
0.0
  3
EX_INTEGRAL
  1

  0
LINE
  5
A4
330
72
100
AcDbEntity
  8
0
  6
CONTINUOUS
 62
     0
100
AcDbLine
 10
0.0
 20
0.0
 30
0.0
 11
-1.0
 21
0.0
 31
0.0
  0
ARC
  5
A5
330
72
100
AcDbEntity
  8
0
  6
CONTINUOUS
 62
     0
100
AcDbCircle
 10
0.542115
 20
0.164992
 30
0.0
 40
0.56667
100
AcDbArc
 50
73.07249033629006
 51
196.9275130221199
  0
ARC
  5
A6
330
72
100
AcDbEntity
  8
0
  6
CONTINUOUS
 62
     0
100
AcDbCircle
 10
-0.542115
 20
-0.164992
 30
0.0
 40
0.56667
100
AcDbArc
 50
253.0724869220464
 51
16.9275130559125
  0
ENDBLK
  5
74
330
72
100
AcDbEntity
  8
0
100
AcDbBlockEnd
  0
BLOCK
  5
158
330
157
100
AcDbEntity
  8
0
100
AcDbBlockBegin
  2
*D15
 70
     1
 10
0.0
 20
0.0
 30
0.0
  3
*D15
  1

  0
LINE
  5
15A
330
157
100
AcDbEntity
  8
LAY-2
  6
CONTINUOUS
 62
     3
100
AcDbLine
 10
1851.407644880791
 20
1462.0
 30
0.0
 11
1930.0
 21
1462.0
 31
0.0
  0
LINE
  5
15B
330
157
100
AcDbEntity
  8
LAY-2
  6
CONTINUOUS
 62
     3
100
AcDbLine
 10
1728.518216880791
 20
1367.0
 30
0.0
 11
1930.0
 21
1367.0
 31
0.0
  0
LINE
  5
15C
330
157
100
AcDbEntity
  8
LAY-2
  6
CONTINUOUS
 62
     3
100
AcDbLine
 10
1920.0
 20
1432.0
 30
0.0
 11
1920.0
 21
1397.0
 31
0.0
  0
INSERT
  5
15D
330
157
100
AcDbEntity
  8
LAY-2
 62
     3
100
AcDbBlockReference
  2
EX_NORM
 10
1920.0
 20
1462.0
 30
0.0
 41
30.0
 42
30.0
 43
30.0
 50
90.0
  0
INSERT
  5
15E
330
157
100
AcDbEntity
  8
LAY-2
 62
     3
100
AcDbBlockReference
  2
EX_NORM
 10
1920.0
 20
1367.0
 30
0.0
 41
30.0
 42
30.0
 43
30.0
 50
270.0
  0
MTEXT
  5
15F
330
157
100
AcDbEntity
  8
LAY-2
 62
     2
100
AcDbMText
 10
1896.500000059605
 20
1414.5
 30
0.0
 40
40.0
 41
0.0
 71
     5
 72
     1
  1
（95）
  7
EXCADDIM1
 11
0.0
 21
1.0
 31
0.0
  0
POINT
  5
160
330
157
100
AcDbEntity
  8
DEFPOINTS
 62
     0
100
AcDbPoint
 10
1844.407645
 20
1462.0
 30
0.0
  0
POINT
  5
161
330
157
100
AcDbEntity
  8
DEFPOINTS
 62
     0
100
AcDbPoint
 10
1721.518217
 20
1367.0
 30
0.0
  0
POINT
  5
162
330
157
100
AcDbEntity
  8
DEFPOINTS
 62
     0
100
AcDbPoint
 10
1920.0
 20
1367.0
 30
0.0
  0
ENDBLK
  5
159
330
157
100
AcDbEntity
  8
0
100
AcDbBlockEnd
  0
BLOCK
  5
165
330
164
100
AcDbEntity
  8
0
100
AcDbBlockBegin
  2
*D16
 70
     1
 10
0.0
 20
0.0
 30
0.0
  3
*D16
  1

  0
LINE
  5
167
330
164
100
AcDbEntity
  8
LAY-2
  6
CONTINUOUS
 62
     3
100
AcDbLine
 10
1653.991629880791
 20
1593.500061
 30
0.0
 11
1928.0
 21
1593.500061
 31
0.0
  0
LINE
  5
168
330
164
100
AcDbEntity
  8
LAY-2
  6
CONTINUOUS
 62
     3
100
AcDbLine
 10
1918.0
 20
1492.0
 30
0.0
 11
1918.0
 21
1563.500061
 31
0.0
  0
INSERT
  5
169
330
164
100
AcDbEntity
  8
LAY-2
 62
     3
100
AcDbBlockReference
  2
EX_NORM
 10
1918.0
 20
1462.0
 30
0.0
 41
30.0
 42
30.0
 43
30.0
 50
270.0
  0
INSERT
  5
16A
330
164
100
AcDbEntity
  8
LAY-2
 62
     3
100
AcDbBlockReference
  2
EX_NORM
 10
1918.0
 20
1593.500061
 30
0.0
 41
30.0
 42
30.0
 43
30.0
 50
90.0
  0
MTEXT
  5
16B
330
164
100
AcDbEntity
  8
LAY-2
 62
     2
100
AcDbMText
 10
1894.500000059605
 20
1527.7500305
 30
0.0
 40
40.0
 41
0.0
 71
     5
 72
     1
  1
131
  7
EXCADDIM1
 11
0.0
 21
1.0
 31
0.0
  0
POINT
  5
16C
330
164
100
AcDbEntity
  8
DEFPOINTS
 62
     0
100
AcDbPoint
 10
1844.407645
 20
1462.0
 30
0.0
  0
POINT
  5
16D
330
164
100
AcDbEntity
  8
DEFPOINTS
 62
     0
100
AcDbPoint
 10
1646.99163
 20
1593.500061
 30
0.0
  0
POINT
  5
16E
330
164
100
AcDbEntity
  8
DEFPOINTS
 62
     0
100
AcDbPoint
 10
1918.0
 20
1593.500061
 30
0.0
  0
ENDBLK
  5
166
330
164
100
AcDbEntity
  8
0
100
AcDbBlockEnd
  0
BLOCK
  5
3DD
330
3DC
100
AcDbEntity
  8
0
100
AcDbBlockBegin
  2
*D17
 70
     1
 10
0.0
 20
0.0
 30
0.0
  3
*D17
  1

  0
LINE
  5
3DF
330
3DC
100
AcDbEntity
  8
LAY-3
  6
CONTINUOUS
 62
     3
100
AcDbLine
 10
1576.99163
 20
1357.800000190735
 30
0.0
 11
1576.99163
 21
1266.2
 31
0.0
  0
LINE
  5
3E0
330
3DC
100
AcDbEntity
  8
LAY-3
  6
CONTINUOUS
 62
     3
100
AcDbLine
 10
1716.99163
 20
1357.800000190735
 30
0.0
 11
1716.99163
 21
1266.2
 31
0.0
  0
LINE
  5
3E1
330
3DC
100
AcDbEntity
  8
LAY-3
  6
CONTINUOUS
 62
     3
100
AcDbLine
 10
1611.99163
 20
1286.2
 30
0.0
 11
1681.99163
 21
1286.2
 31
0.0
  0
INSERT
  5
3E2
330
3DC
100
AcDbEntity
  8
LAY-3
 62
     3
100
AcDbBlockReference
  2
EX_NORM
 10
1576.99163
 20
1286.2
 30
0.0
 41
35.0
 42
35.0
 43
35.0
 50
180.0
  0
INSERT
  5
3E3
330
3DC
100
AcDbEntity
  8
LAY-3
 62
     3
100
AcDbBlockReference
  2
EX_NORM
 10
1716.99163
 20
1286.2
 30
0.0
 41
35.0
 42
35.0
 43
35.0
  0
MTEXT
  5
3E4
330
3DC
100
AcDbEntity
  8
LAY-3
 62
     2
100
AcDbMText
 10
1646.99163
 20
1309.699999940395
 30
0.0
 40
40.0
 41
0.0
 71
     5
 72
     1
  1
140
  7
EXCADDIM1
  0
POINT
  5
3E5
330
3DC
100
AcDbEntity
  8
DEFPOINTS
 62
     0
100
AcDbPoint
 10
1576.99163
 20
1380.5
 30
0.0
  0
POINT
  5
3E6
330
3DC
100
AcDbEntity
  8
DEFPOINTS
 62
     0
100
AcDbPoint
 10
1716.99163
 20
1380.5
 30
0.0
  0
POINT
  5
3E7
330
3DC
100
AcDbEntity
  8
DEFPOINTS
 62
     0
100
AcDbPoint
 10
1716.99163
 20
1286.2
 30
0.0
  0
ENDBLK
  5
3DE
330
3DC
100
AcDbEntity
  8
0
100
AcDbBlockEnd
  0
BLOCK
  5
3FA
330
3F9
100
AcDbEntity
  8
0
100
AcDbBlockBegin
  2
*D18
 70
     1
 10
0.0
 20
0.0
 30
0.0
  3
*D18
  1

  0
LINE
  5
3FC
330
3F9
100
AcDbEntity
  8
LAY-3
  6
CONTINUOUS
 62
     3
100
AcDbLine
 10
1027.923463
 20
2016.383228
 30
0.0
 11
1173.0
 21
2016.383228
 31
0.0
  0
LINE
  5
3FD
330
3F9
100
AcDbEntity
  8
LAY-3
  6
CONTINUOUS
 62
     3
100
AcDbLine
 10
1023.0
 20
2418.383228
 30
0.0
 11
1173.0
 21
2418.383228
 31
0.0
  0
LINE
  5
3FE
330
3F9
100
AcDbEntity
  8
LAY-3
  6
CONTINUOUS
 62
     3
100
AcDbLine
 10
1173.0
 20
2046.383228
 30
0.0
 11
1173.0
 21
2388.383228
 31
0.0
  0
INSERT
  5
3FF
330
3F9
100
AcDbEntity
  8
LAY-3
 62
     3
100
AcDbBlockReference
  2
EX_NORM
 10
1173.0
 20
2016.383228
 30
0.0
 41
30.0
 42
30.0
 43
30.0
 50
270.0
  0
INSERT
  5
400
330
3F9
100
AcDbEntity
  8
LAY-3
 62
     3
100
AcDbBlockReference
  2
EX_NORM
 10
1173.0
 20
2418.383228
 30
0.0
 41
30.0
 42
30.0
 43
30.0
 50
90.0
  0
MTEXT
  5
401
330
3F9
100
AcDbEntity
  8
LAY-3
 62
     2
100
AcDbMText
 10
1148.0
 20
2217.383228
 30
0.0
 40
40.0
 41
0.0
 71
     5
 72
     1
  1
402
  7
EXCADDIM1
 11
0.0
 21
1.0
 31
0.0
  0
POINT
  5
402
330
3F9
100
AcDbEntity
  8
DEFPOINTS
 62
     0
100
AcDbPoint
 10
1027.923463
 20
2016.383228
 30
0.0
  0
POINT
  5
403
330
3F9
100
AcDbEntity
  8
DEFPOINTS
 62
     0
100
AcDbPoint
 10
1023.0
 20
2418.383228
 30
0.0
  0
POINT
  5
404
330
3F9
100
AcDbEntity
  8
DEFPOINTS
 62
     0
100
AcDbPoint
 10
1173.0
 20
2418.383228
 30
0.0
  0
ENDBLK
  5
3FB
330
3F9
100
AcDbEntity
  8
0
100
AcDbBlockEnd
  0
ENDSEC
  0
SECTION
  2
ENTITIES
  0
TEXT
  5
A8
330
1F
100
AcDbEntity
  8
0
  6
CONTINUOUS
 62
     2
100
AcDbText
 10
922.0000000000034
 20
110.5000000000005
 30
0.0
 40
33.75
  1
ジャニス工業株式会社
 41
1.025641025641026
  7
EXCADTTF1
 72
     5
 11
1372.000000000003
 21
110.5000000000005
 31
0.0
100
AcDbText
  0
HATCH
  5
A9
330
1F
100
AcDbEntity
  8
0
  6
CONTINUOUS
 62
     3
100
AcDbHatch
 10
0.0
 20
0.0
 30
0.0
210
0.0
220
0.0
230
1.0
  2
SOLID
 70
     1
 71
     1
 91
        2
 92
        3
 72
     1
 73
     1
 93
       27
 10
799.1727657332507
 20
145.3644932975411
 42
-0.1769427732109284
 10
799.1727657332508
 20
145.3644932975412
 42
0.0
 10
799.1727657332508
 20
141.719493297541
 42
0.0
 10
800.0502657332513
 20
141.7194932975406
 42
-0.207533601427307
 10
805.7474227895706
 20
145.993235912905
 42
-0.1226604740888933
 10
810.7827657332513
 20
146.100243297541
 42
-0.3213715781137954
 10
815.9883280222095
 20
139.7106514378478
 42
-0.064704004662446
 10
816.0140157332497
 20
136.3329932975408
 42
-0.257798906330806
 10
814.9542657332508
 20
135.0504932975408
 42
-0.056602577721096
 10
812.6862657332506
 20
134.2607432975411
 42
-0.0166741689362636
 10
804.3702657332509
 20
132.6812432975409
 42
0.1186092302783404
 10
798.882515733251
 20
130.0487432975409
 42
0.1699204224386695
 10
796.4930157332506
 20
126.0527432975408
 42
0.1006533494296199
 10
796.272086679582
 20
122.5853555095729
 42
0.1675695228968024
 10
798.437015733251
 20
117.9392432975409
 42
0.1376980079804242
 10
802.3722657332505
 20
115.6644932975411
 42
0.0719813663796923
 10
804.1610157332498
 20
115.367493297541
 42
0.0
 10
806.9015157332508
 20
115.3674932975411
 42
0.1944607457809085
 10
815.9937657332509
 20
120.0452432975409
 42
0.1288538183665954
 10
816.9117657332499
 20
117.7502432975406
 42
0.2098387395261546
 10
819.9087657332502
 20
116.0964932975411
 42
0.0
 10
822.0822657332508
 20
116.0829932975411
 42
0.0945009641609563
 10
825.2210157332509
 20
116.751243297541
 42
0.0
 10
825.2210157332506
 20
118.3239932975409
 42
-0.2395739894657535
 10
822.4805157332514
 20
118.2969932975407
 42
-0.2502312110031057
 10
821.1305157332499
 20
120.8349932975416
 42
-0.0104343570771765
 10
821.3127657332504
 20
139.7619932975408
 42
0.4051015674140716
 97
        0
 92
        3
 72
     1
 73
     1
 93
        8
 10
816.1355157332503
 20
133.0254932975408
 42
-0.0339435190873666
 10
816.1355157332546
 20
133.0254932975295
 42
-0.0001110072973599
 10
815.8520157332515
 20
122.6844932975407
 42
-0.2253076310552528
 10
808.7645157332504
 20
117.9527432975412
 42
0.0
 10
807.0297657332497
 20
117.9527432975412
 42
-0.3657967558150132
 10
801.8727657332506
 20
123.433743297541
 42
0.0
 10
801.8727657332514
 20
125.3912432975411
 42
-0.2530797830369341
 10
805.3557657332507
 20
130.2107432975408
 42
-0.0724473624720066
 97
        0
 75
     0
 76
     1
 98
        1
 10
0.0
 20
0.0
  0
HATCH
  5
AA
330
1F
100
AcDbEntity
  8
0
  6
CONTINUOUS
 62
     3
100
AcDbHatch
 10
0.0
 20
0.0
 30
0.0
210
0.0
220
0.0
230
1.0
  2
SOLID
 70
     1
 71
     1
 91
        1
 92
        3
 72
     1
 73
     1
 93
       30
 10
906.7340157332504
 20
147.3354932975412
 42
-0.0009362235736497
 10
906.7340157332505
 20
147.3354932975409
 42
0.0681165430304653
 10
905.0970934867321
 20
142.428243297541
 42
0.0
 10
898.9310157332512
 20
146.6469932975411
 42
-0.302112590907374
 10
898.9310157332507
 20
146.646993297541
 42
0.0
 10
892.7142657332507
 20
141.881493297541
 42
-0.3704245237568778
 10
892.7142657332497
 20
141.8814932975407
 42
0.0
 10
893.03826573325
 20
138.6954932975409
 42
-0.0262822419456939
 10
896.8722657332511
 20
135.6309932975407
 42
-0.180060563604375
 10
902.9877657332511
 20
133.7679932975411
 42
-0.0298130817160724
 10
902.9877657332507
 20
133.7679932975408
 42
-0.3153987453686078
 10
908.6240157332504
 20
127.321743297541
 42
0.0
 10
908.5902657332509
 20
124.4394932975407
 42
-0.3510306079065168
 10
897.7227657332498
 20
115.326993297541
 42
0.0
 10
894.5502657332503
 20
115.3269932975407
 42
-0.1053356344842436
 10
887.5302657332503
 20
117.351993297541
 42
0.1188608286962634
 10
888.8127657332502
 20
122.4819932975412
 42
0.0
 10
896.5077657332511
 20
117.756993297541
 42
-0.2447573632916039
 10
896.5077657332502
 20
117.7569932975409
 42
0.0
 10
903.9327657332511
 20
122.9544932975411
 42
-0.3734162676407277
 10
903.9327657332508
 20
122.9544932975408
 42
0.0
 10
901.2395157332506
 20
128.1452432975411
 42
-0.261219770190848
 10
894.9552657332504
 20
130.4267432975411
 42
-0.0572747914118363
 10
894.9552657332514
 20
130.426743297541
 42
-0.1189658875692221
 10
889.9602657332501
 20
133.3562432975411
 42
-0.2005226878639636
 10
887.8677657332498
 20
138.074493297563
 42
0.0
 10
887.834015733251
 20
139.8632432975407
 42
-0.2622894489606957
 10
893.2002657332508
 20
148.0644932975412
 42
-0.0988461274137808
 10
898.2222657332507
 20
149.2727432975407
 42
0.0
 10
900.08526573325
 20
149.2727432975411
 42
-0.0920156312561188
 97
        0
 75
     0
 76
     1
 98
        1
 10
0.0
 20
0.0
  0
ARC
  5
AB
330
1F
100
AcDbEntity
  8
0
  6
CONTINUOUS
 62
     3
100
AcDbCircle
 10
923.8424810688714
 20
138.9019437507498
 30
0.0
 40
19.07418003737831
100
AcDbArc
 50
153.7591918158497
 51
169.3462759801917
  0
LINE
  5
AC
330
1F
100
AcDbEntity
  8
0
  6
CONTINUOUS
 62
     3
100
AcDbLine
 10
904.2432657332502
 20
142.428243297541
 30
0.0
 11
905.0970934867321
 21
142.428243297541
 31
0.0
  0
LINE
  5
AD
330
1F
100
AcDbEntity
  8
0
  6
CONTINUOUS
 62
     3
100
AcDbLine
 10
897.83751573325
 20
146.619993297541
 30
0.0
 11
898.9310157332507
 21
146.646993297541
 31
0.0
  0
LINE
  5
AE
330
1F
100
AcDbEntity
  8
0
  6
CONTINUOUS
 62
     3
100
AcDbLine
 10
887.8340157332509
 20
139.8632432975408
 30
0.0
 11
887.8677657332498
 21
138.074493297563
 31
0.0
  0
LINE
  5
AF
330
1F
100
AcDbEntity
  8
0
  6
CONTINUOUS
 62
     3
100
AcDbLine
 10
892.7142657332497
 20
141.8814932975407
 30
0.0
 11
892.6197657332507
 21
140.1129932975407
 31
0.0
  0
LINE
  5
B0
330
1F
100
AcDbEntity
  8
0
  6
CONTINUOUS
 62
     3
100
AcDbLine
 10
908.6240157332504
 20
127.321743297541
 30
0.0
 11
908.5902657332504
 21
124.4394932975409
 31
0.0
  0
LINE
  5
B1
330
1F
100
AcDbEntity
  8
0
  6
CONTINUOUS
 62
     3
100
AcDbLine
 10
903.8652657332507
 20
124.506993297541
 30
0.0
 11
903.9327657332508
 21
122.9544932975408
 31
0.0
  0
ARC
  5
B2
330
1F
100
AcDbEntity
  8
0
  6
CONTINUOUS
 62
     3
100
AcDbCircle
 10
877.5344131320942
 20
122.5779759565005
 30
0.0
 40
11.27953740078838
100
AcDbArc
 50
332.3987521421788
 51
359.5124385477116
  0
LINE
  5
B3
330
1F
100
AcDbEntity
  8
0
  6
CONTINUOUS
 62
     3
100
AcDbLine
 10
799.1727657332508
 20
141.719493297541
 30
0.0
 11
800.0502657332511
 21
141.719493297541
 31
0.0
  0
HATCH
  5
B4
330
1F
100
AcDbEntity
  8
0
  6
CONTINUOUS
 62
     3
100
AcDbHatch
 10
0.0
 20
0.0
 30
0.0
210
0.0
220
0.0
230
1.0
  2
SOLID
 70
     1
 71
     1
 91
        2
 92
        1
 93
        1
 72
     2
 10
875.2855140383356
 20
160.5835466873712
 40
3.572334466769884
 50
0.0
 51
360.0
 73
     1
 97
        0
 92
        3
 72
     1
 73
     1
 93
        3
 10
872.0930157332506
 20
148.6989932975409
 42
0.1200283885712921
 10
878.3030157332507
 20
116.0627432975405
 42
-0.0401820615762149
 10
872.0997657332506
 20
116.0424932975409
 42
-0.0237521668114666
 97
        0
 75
     0
 76
     1
 98
        1
 10
0.0
 20
0.0
  0
HATCH
  5
B5
330
1F
100
AcDbEntity
  8
0
  6
CONTINUOUS
 62
     3
100
AcDbHatch
 10
0.0
 20
0.0
 30
0.0
210
0.0
220
0.0
230
1.0
  2
SOLID
 70
     1
 71
     1
 91
        1
 92
        3
 72
     1
 73
     1
 93
       16
 10
832.8687657332504
 20
116.1032432975408
 42
-0.0386228372648426
 10
832.8080157332502
 20
148.6449932975409
 42
-0.0398707891902887
 10
838.7142657332499
 20
148.6719932975411
 42
-0.1256886216044368
 10
838.4442657332505
 20
143.1504932975409
 42
-0.0367815758121429
 10
838.4442657332505
 20
143.1504932975407
 42
-0.268021535028829
 10
850.3580157332502
 20
149.3334932975409
 42
-0.2571134422124888
 10
858.5052657332503
 20
145.3037432975412
 42
-0.1522526366014298
 10
860.577515733251
 20
138.6009932975408
 42
-0.0158825412051521
 10
860.42901573325
 20
116.0694932975408
 42
-0.0285251271418421
 10
854.7252657332508
 20
116.0694932975408
 42
-0.0452212723224612
 10
855.0155157332508
 20
136.8864932975411
 42
-0.0315567291532142
 10
853.2470157332501
 20
143.0357432975411
 42
-0.1476272403790709
 10
841.7315157332503
 20
143.9199932975407
 42
-0.3908144705745794
 10
838.4847657332507
 20
135.8402432975407
 42
-0.2046259928850854
 10
838.4847657332507
 20
135.8402432975412
 42
0.0
 10
838.9910157332506
 20
116.049243297541
 42
-0.0304995761723369
 97
        0
 75
     0
 76
     1
 98
        1
 10
0.0
 20
0.0
  0
HATCH
  5
B6
330
1F
100
AcDbEntity
  8
0
  6
CONTINUOUS
 62
     3
100
AcDbHatch
 10
0.0
 20
0.0
 30
0.0
210
0.0
220
0.0
230
1.0
  2
SOLID
 70
     1
 71
     1
 91
        1
 92
        3
 72
     1
 73
     1
 93
       10
 10
773.7252657332509
 20
117.2169932975408
 42
-0.017362223501556
 10
773.8130157332498
 20
170.1842432975412
 42
-0.0267627618865285
 10
773.8130157332508
 20
170.1842432975409
 42
0.0737939047395297
 10
786.7325157332509
 20
170.2382432975402
 42
0.0183878899657109
 10
786.2127657332508
 20
122.4819932975407
 42
-0.1144749489451909
 10
784.1202657332499
 20
112.4244932975407
 42
-0.1929163439413163
 10
774.164015733251
 20
104.6079932975407
 42
-0.0603888289562337
 10
768.8855157332507
 20
103.2917432975408
 42
0.0
 10
767.6502657332505
 20
107.0514932975408
 42
0.0860918333465722
 10
771.3425157332505
 20
109.0157432975408
 42
0.1331843103855141
 97
        0
 75
     0
 76
     1
 98
        1
 10
0.0
 20
0.0
  0
LINE
  5
B7
330
1F
100
AcDbEntity
  8
0
  6
CONTINUOUS
 62
     3
100
AcDbLine
 10
894.5502657332504
 20
115.326993297541
 30
0.0
 11
897.7227657332498
 21
115.326993297541
 31
0.0
  0
LINE
  5
B8
330
1F
100
AcDbEntity
  8
0
  6
CONTINUOUS
 62
     3
100
AcDbLine
 10
889.6902657332505
 20
122.4819932975412
 30
0.0
 11
888.8127657332502
 21
122.4819932975412
 31
0.0
  0
LINE
  5
B9
330
1F
100
AcDbEntity
  8
0
  6
CONTINUOUS
 62
     3
100
AcDbLine
 10
896.5077657332502
 20
117.7569932975409
 30
0.0
 11
898.1277657332505
 21
117.7569932975409
 31
0.0
  0
LINE
  5
BA
330
1F
100
AcDbEntity
  8
0
  6
CONTINUOUS
 62
     3
100
AcDbLine
 10
900.0852657332503
 20
149.2727432975407
 30
0.0
 11
898.2222657332507
 21
149.2727432975407
 31
0.0
  0
ARC
  5
BB
330
1F
100
AcDbEntity
  8
0
  6
CONTINUOUS
 62
     3
100
AcDbCircle
 10
898.414733912751
 20
140.5429236291671
 30
0.0
 40
6.12586430102253
100
AcDbArc
 50
17.92452211681263
 51
85.16543319077402
  0
ARC
  5
BC
330
1F
100
AcDbEntity
  8
0
  6
CONTINUOUS
 62
     3
100
AcDbCircle
 10
898.0350964860538
 20
141.2674994707923
 30
0.0
 40
5.35613931103931
100
AcDbArc
 50
92.11404364449162
 51
173.4175047026091
  0
ARC
  5
BD
330
1F
100
AcDbEntity
  8
0
  6
CONTINUOUS
 62
     3
100
AcDbCircle
 10
906.3031407332626
 20
143.3823182975446
 30
0.0
 40
14.068519372934
100
AcDbArc
 50
193.4375782160214
 51
199.459638038058
  0
ARC
  5
BE
330
1F
100
AcDbEntity
  8
0
  6
CONTINUOUS
 62
     3
100
AcDbCircle
 10
899.0721352387454
 20
142.3138641766614
 30
0.0
 40
7.03563707337184
100
AcDbArc
 50
210.9501336849607
 51
251.7794729821079
  0
ARC
  5
BF
330
1F
100
AcDbEntity
  8
0
  6
CONTINUOUS
 62
     3
100
AcDbCircle
 10
915.5384669692064
 20
185.9359310503514
 30
0.0
 40
53.65644258516679
100
AcDbArc
 50
249.6420733479936
 51
256.4727051201885
  0
ARC
  5
C0
330
1F
100
AcDbEntity
  8
0
  6
CONTINUOUS
 62
     3
100
AcDbCircle
 10
901.2045721291959
 20
126.5217258531577
 30
0.0
 40
7.462450757296059
100
AcDbArc
 50
6.154262763177246
 51
76.17509904255616
  0
ARC
  5
C1
330
1F
100
AcDbEntity
  8
0
  6
CONTINUOUS
 62
     3
100
AcDbCircle
 10
897.4663886467563
 20
126.6692467118047
 30
0.0
 40
11.34515058180645
100
AcDbArc
 50
271.2948770866743
 51
348.6654156292868
  0
ARC
  5
C2
330
1F
100
AcDbEntity
  8
0
  6
CONTINUOUS
 62
     3
100
AcDbCircle
 10
895.7930054592778
 20
132.8156576811027
 30
0.0
 40
17.5327631578002
100
AcDbArc
 50
241.8829576087176
 51
265.9354096935781
  0
ARC
  5
C3
330
1F
100
AcDbEntity
  8
0
  6
CONTINUOUS
 62
     3
100
AcDbCircle
 10
897.636104323487
 20
126.6658639777386
 30
0.0
 40
8.98004035462527
100
AcDbArc
 50
207.7689879465537
 51
262.7817283832026
  0
ARC
  5
C4
330
1F
100
AcDbEntity
  8
0
  6
CONTINUOUS
 62
     3
100
AcDbCircle
 10
898.0357777446518
 20
123.7002363757169
 30
0.0
 40
5.943954918766759
100
AcDbArc
 50
270.8867385422408
 51
352.7925382056677
  0
ARC
  5
C5
330
1F
100
AcDbEntity
  8
0
  6
CONTINUOUS
 62
     3
100
AcDbCircle
 10
899.3080045853669
 20
123.984622543317
 30
0.0
 40
4.58710152219014
100
AcDbArc
 50
6.53892419415897
 51
65.09756080693691
  0
ARC
  5
C6
330
1F
100
AcDbEntity
  8
0
  6
CONTINUOUS
 62
     3
100
AcDbCircle
 10
888.1714891830434
 20
101.9457141755213
 30
0.0
 40
29.27778413972754
100
AcDbArc
 50
63.49050203733571
 51
76.60259219849584
  0
ARC
  5
C7
330
1F
100
AcDbEntity
  8
0
  6
CONTINUOUS
 62
     3
100
AcDbCircle
 10
898.5268145799507
 20
142.2396411006689
 30
0.0
 40
12.34100950779567
100
AcDbArc
 50
226.0402388947521
 51
253.1776672992999
  0
ARC
  5
C8
330
1F
100
AcDbEntity
  8
0
  6
CONTINUOUS
 62
     3
100
AcDbCircle
 10
894.5599257926001
 20
138.2192769075532
 30
0.0
 40
6.693726059056109
100
AcDbArc
 50
181.2393899443581
 51
226.5942921332421
  0
ARC
  5
C9
330
1F
100
AcDbEntity
  8
0
  6
CONTINUOUS
 62
     3
100
AcDbCircle
 10
897.7963496799618
 20
139.2009291101867
 30
0.0
 40
9.9843256030919
100
AcDbArc
 50
117.4083995939977
 51
176.1964688215695
  0
ARC
  5
CA
330
1F
100
AcDbEntity
  8
0
  6
CONTINUOUS
 62
     3
100
AcDbCircle
 10
898.7711044283908
 20
136.0979097937614
 30
0.0
 40
13.19974865367525
100
AcDbArc
 50
92.38301574576484
 51
114.9635286746436
  0
ARC
  5
CB
330
1F
100
AcDbEntity
  8
0
  6
CONTINUOUS
 62
     3
100
AcDbCircle
 10
899.854282846057
 20
139.1663038363957
 30
0.0
 40
10.10907867592157
100
AcDbArc
 50
67.66151957087348
 51
88.69073168448988
  0
ARC
  5
CC
330
1F
100
AcDbEntity
  8
0
  6
CONTINUOUS
 62
     3
100
AcDbCircle
 10
1220.644453232815
 20
959.0297432964203
 30
0.0
 40
870.2800228963156
100
AcDbArc
 50
248.6422112053103
 51
248.8567777804232
  0
ARC
  5
CD
330
1F
100
AcDbEntity
  8
0
  6
CONTINUOUS
 62
     3
100
AcDbCircle
 10
650.6900575363869
 20
132.3249792766238
 30
0.0
 40
222.0076085035812
100
AcDbArc
 50
355.7940354718673
 51
4.229650257234378
  0
ARC
  5
CE
330
1F
100
AcDbEntity
  8
0
  6
CONTINUOUS
 62
     3
100
AcDbCircle
 10
1081.254047179558
 20
132.188100573939
 30
0.0
 40
203.5906390589
100
AcDbArc
 50
175.3387608397566
 51
184.5428594926176
  0
ARC
  5
CF
330
1F
100
AcDbEntity
  8
0
  6
CONTINUOUS
 62
     3
100
AcDbCircle
 10
875.4144089371341
 20
50.79804184123347
 30
0.0
 40
65.32859485251088
100
AcDbArc
 50
87.46575055044718
 51
92.90832285102188
  0
ARC
  5
D0
330
1F
100
AcDbEntity
  8
0
  6
CONTINUOUS
 62
     3
100
AcDbCircle
 10
875.1456076027735
 20
161.533247435808
 30
0.0
 40
13.19228548840207
100
AcDbArc
 50
256.6209501743446
 51
283.9984576255729
  0
CIRCLE
  5
D1
330
1F
100
AcDbEntity
  8
0
  6
CONTINUOUS
 62
     3
100
AcDbCircle
 10
875.2855140383356
 20
160.5835466873712
 30
0.0
 40
3.57233446676989
  0
LINE
  5
D2
330
1F
100
AcDbEntity
  8
0
  6
CONTINUOUS
 62
     3
100
AcDbLine
 10
838.4847657332507
 20
135.8402432975412
 30
0.0
 11
838.4847657332507
 21
125.0469932975408
 31
0.0
  0
ARC
  5
D3
330
1F
100
AcDbEntity
  8
0
  6
CONTINUOUS
 62
     3
100
AcDbCircle
 10
629.1176988671594
 20
131.9938058671748
 30
0.0
 40
204.3697806131072
100
AcDbArc
 50
355.5405243117485
 51
4.673398698656258
  0
ARC
  5
D4
330
1F
100
AcDbEntity
  8
0
  6
CONTINUOUS
 62
     3
100
AcDbCircle
 10
835.7082849861235
 20
160.220687981449
 30
0.0
 40
11.93349358546016
100
AcDbArc
 50
255.9341994177206
 51
284.5896440601899
  0
ARC
  5
D5
330
1F
100
AcDbEntity
  8
0
  6
CONTINUOUS
 62
     3
100
AcDbCircle
 10
876.0574727396165
 20
144.0785681383055
 30
0.0
 40
37.6246550045818
100
AcDbArc
 50
172.9875214416311
 51
181.4134392789641
  0
ARC
  5
D6
330
1F
100
AcDbEntity
  8
0
  6
CONTINUOUS
 62
     3
100
AcDbCircle
 10
849.7541069002552
 20
135.9275988818602
 30
0.0
 40
13.4194899665726
100
AcDbArc
 50
87.42068310381028
 51
147.4361518966862
  0
ARC
  5
D7
330
1F
100
AcDbEntity
  8
0
  6
CONTINUOUS
 62
     3
100
AcDbCircle
 10
850.7724057413766
 20
139.9204664797996
 30
0.0
 40
9.4221437555554
100
AcDbArc
 50
34.84393737091607
 51
92.5207065423111
  0
ARC
  5
D8
330
1F
100
AcDbEntity
  8
0
  6
CONTINUOUS
 62
     3
100
AcDbCircle
 10
848.790551534483
 20
138.6285942451529
 30
0.0
 40
11.7869965146059
100
AcDbArc
 50
359.8658335690532
 51
34.49363429411157
  0
ARC
  5
D9
330
1F
100
AcDbEntity
  8
0
  6
CONTINUOUS
 62
     3
100
AcDbCircle
 10
799.1913601210065
 20
136.3315774812143
 30
0.0
 40
61.42809087866958
100
AcDbArc
 50
358.4775281223095
 51
2.117232414210064
  0
ARC
  5
DA
330
1F
100
AcDbEntity
  8
0
  6
CONTINUOUS
 62
     3
100
AcDbCircle
 10
1023.657633661698
 20
123.9067374739135
 30
0.0
 40
163.4166579853822
100
AcDbArc
 50
176.2131780319488
 51
182.7488833337936
  0
ARC
  5
DB
330
1F
100
AcDbEntity
  8
0
  6
CONTINUOUS
 62
     3
100
AcDbCircle
 10
857.5771407332509
 20
84.60152619227799
 30
0.0
 40
31.59693252126744
100
AcDbArc
 50
84.82155189294139
 51
95.17844810705873
  0
ARC
  5
DC
330
1F
100
AcDbEntity
  8
0
  6
CONTINUOUS
 62
     3
100
AcDbCircle
 10
690.1173378649747
 20
128.7751337882467
 30
0.0
 40
165.0975566668588
100
AcDbArc
 50
355.5862454873798
 51
2.816115806820253
  0
ARC
  5
DD
330
1F
100
AcDbEntity
  8
0
  6
CONTINUOUS
 62
     3
100
AcDbCircle
 10
843.944740456853
 20
137.0315138821557
 30
0.0
 40
11.07172507744154
100
AcDbArc
 50
359.2495022237244
 51
32.84055016678327
  0
ARC
  5
DE
330
1F
100
AcDbEntity
  8
0
  6
CONTINUOUS
 62
     3
100
AcDbCircle
 10
847.0100145205533
 20
137.2366273138691
 30
0.0
 40
8.51645057047003
100
AcDbArc
 50
42.91644474042847
 51
128.3015542351336
  0
ARC
  5
DF
330
1F
100
AcDbEntity
  8
0
  6
CONTINUOUS
 62
     3
100
AcDbCircle
 10
849.5661722366408
 20
136.0795225138058
 30
0.0
 40
11.08398956318131
100
AcDbArc
 50
134.9787476233347
 51
181.2369872983282
  0
ARC
  5
E0
330
1F
100
AcDbEntity
  8
0
  6
CONTINUOUS
 62
     3
100
AcDbCircle
 10
912.4088578951041
 20
124.9150147009816
 30
0.0
 40
73.95120993114925
100
AcDbArc
 50
179.8977458165987
 51
186.8855675734268
  0
ARC
  5
E1
330
1F
100
AcDbEntity
  8
0
  6
CONTINUOUS
 62
     3
100
AcDbCircle
 10
835.5808780069317
 20
76.5069254511711
 30
0.0
 40
39.68909094418497
100
AcDbArc
 50
85.07099551674689
 51
93.91830029343228
  0
ARC
  5
E2
330
1F
100
AcDbEntity
  8
0
  6
CONTINUOUS
 62
     3
100
AcDbCircle
 10
-22473.01542217735
 20
766.3265245587831
 30
0.0
 40
23297.76001260591
100
AcDbArc
 50
358.4169008257799
 51
358.4423418242109
  0
ARC
  5
E3
330
1F
100
AcDbEntity
  8
0
  6
CONTINUOUS
 62
     3
100
AcDbCircle
 10
807.3244690765928
 20
127.7836489530209
 30
0.0
 40
9.935816039979159
100
AcDbArc
 50
278.3335103000368
 51
329.1221464187299
  0
LINE
  5
E4
330
1F
100
AcDbEntity
  8
0
  6
CONTINUOUS
 62
     3
100
AcDbLine
 10
807.0297657332499
 20
117.9527432975412
 30
0.0
 11
808.7645157332504
 21
117.9527432975412
 31
0.0
  0
ARC
  5
E5
330
1F
100
AcDbEntity
  8
0
  6
CONTINUOUS
 62
     3
100
AcDbCircle
 10
807.6959653488741
 20
123.7461380097788
 30
0.0
 40
5.83157304846997
100
AcDbArc
 50
183.0707787095794
 51
263.4402016072427
  0
LINE
  5
E6
330
1F
100
AcDbEntity
  8
0
  6
CONTINUOUS
 62
     3
100
AcDbLine
 10
801.8727657332506
 20
125.3912432975407
 30
0.0
 11
801.8727657332506
 21
123.433743297541
 31
0.0
  0
ARC
  5
E7
330
1F
100
AcDbEntity
  8
0
  6
CONTINUOUS
 62
     3
100
AcDbCircle
 10
808.0701866837849
 20
124.5807479047185
 30
0.0
 40
6.25019433457053
100
AcDbArc
 50
115.7403688633493
 51
172.5491744442191
  0
ARC
  5
E8
330
1F
100
AcDbEntity
  8
0
  6
CONTINUOUS
 62
     3
100
AcDbCircle
 10
813.5660651757707
 20
112.831886266798
 30
0.0
 40
19.22065786155208
100
AcDbArc
 50
98.71271710191789
 51
115.2874718053599
  0
ARC
  5
E9
330
1F
100
AcDbEntity
  8
0
  6
CONTINUOUS
 62
     3
100
AcDbCircle
 10
804.605609935373
 20
172.7501381160509
 30
0.0
 40
41.36406814694017
100
AcDbArc
 50
278.4088456599976
 51
286.1851416003176
  0
ARC
  5
EA
330
1F
100
AcDbEntity
  8
0
  6
CONTINUOUS
 62
     3
100
AcDbCircle
 10
780.090820012228
 20
213.7417570522227
 30
0.0
 40
44.00758833490465
100
AcDbArc
 50
261.7986203004403
 51
278.6803384946418
  0
ARC
  5
EB
330
1F
100
AcDbEntity
  8
0
  6
CONTINUOUS
 62
     3
100
AcDbCircle
 10
1435.542531413435
 20
139.2960360950848
 30
0.0
 40
649.5474244683604
100
AcDbArc
 50
177.2695926307304
 51
181.4833117237826
  0
ARC
  5
EC
330
1F
100
AcDbEntity
  8
0
  6
CONTINUOUS
 62
     3
100
AcDbCircle
 10
763.4899361790617
 20
121.9631356880096
 30
0.0
 40
22.72875263114311
100
AcDbArc
 50
335.1860595856123
 51
1.308075913059364
  0
ARC
  5
ED
330
1F
100
AcDbEntity
  8
0
  6
CONTINUOUS
 62
     3
100
AcDbCircle
 10
769.3897327885481
 20
120.9383518626832
 30
0.0
 40
17.01394688196115
100
AcDbArc
 50
286.2966123578915
 51
329.973223283839
  0
ARC
  5
EE
330
1F
100
AcDbEntity
  8
0
  6
CONTINUOUS
 62
     3
100
AcDbCircle
 10
766.0955749866657
 20
125.7223152915388
 30
0.0
 40
22.60341410821362
100
AcDbArc
 50
277.0901027239701
 51
290.9134154817058
  0
ARC
  5
EF
330
1F
100
AcDbEntity
  8
0
  6
CONTINUOUS
 62
     3
100
AcDbCircle
 10
763.8347289685448
 20
118.6759859445992
 30
0.0
 40
12.23467000390025
100
AcDbArc
 50
288.1715191042997
 51
307.8537826235693
  0
ARC
  5
F0
330
1F
100
AcDbEntity
  8
0
  6
CONTINUOUS
 62
     3
100
AcDbCircle
 10
766.0927386496026
 20
114.3407518472917
 30
0.0
 40
7.47769185530633
100
AcDbArc
 50
314.592391474832
 51
344.9374073189123
  0
ARC
  5
F1
330
1F
100
AcDbEntity
  8
0
  6
CONTINUOUS
 62
     3
100
AcDbCircle
 10
279.3385521229311
 20
144.5197335838843
 30
0.0
 40
495.1400430399008
100
AcDbArc
 50
356.8390243485978
 51
2.971133813187157
  0
ARC
  5
F2
330
1F
100
AcDbEntity
  8
0
  6
CONTINUOUS
 62
     3
100
AcDbCircle
 10
704.143956522708
 20
120.734276192279
 30
0.0
 40
69.67015049800598
100
AcDbArc
 50
353.1274757312911
 51
357.106204490141
  0
LINE
  5
F3
330
1F
100
AcDbEntity
  8
0
  6
CONTINUOUS
 62
     3
100
AcDbLine
 10
799.1727657332508
 20
145.3644932975412
 30
0.0
 11
799.1727657332508
 21
141.719493297541
 31
0.0
  0
ARC
  5
F4
330
1F
100
AcDbEntity
  8
0
  6
CONTINUOUS
 62
     3
100
AcDbCircle
 10
807.8253617702997
 20
137.2890191857884
 30
0.0
 40
8.94881105176719
100
AcDbArc
 50
103.4267945469744
 51
150.3242613737993
  0
ARC
  5
F5
330
1F
100
AcDbEntity
  8
0
  6
CONTINUOUS
 62
     3
100
AcDbCircle
 10
808.479909579831
 20
135.9383830513023
 30
0.0
 40
10.4195273466423
100
AcDbArc
 50
77.23143261361693
 51
105.203415964315
  0
ARC
  5
F6
330
1F
100
AcDbEntity
  8
0
  6
CONTINUOUS
 62
     3
100
AcDbCircle
 10
808.9283412817697
 20
139.2741886153424
 30
0.0
 40
7.07346538626002
100
AcDbArc
 50
3.537639967999379
 51
74.8013566619203
  0
ARC
  5
F7
330
1F
100
AcDbEntity
  8
0
  6
CONTINUOUS
 62
     3
100
AcDbCircle
 10
803.0053873566574
 20
137.9229870375126
 30
0.0
 40
13.10543751018921
100
AcDbArc
 50
353.0315250986587
 51
7.839947970678348
  0
ARC
  5
F8
330
1F
100
AcDbEntity
  8
0
  6
CONTINUOUS
 62
     3
100
AcDbCircle
 10
814.3230955673341
 20
136.651133250429
 30
0.0
 40
1.72058828228131
100
AcDbArc
 50
291.5204897073511
 51
349.3445900274031
  0
ARC
  5
F9
330
1F
100
AcDbEntity
  8
0
  6
CONTINUOUS
 62
     3
100
AcDbCircle
 10
810.3433050110898
 20
144.640736268875
 30
0.0
 40
10.64113335272784
100
AcDbArc
 50
282.7195832898965
 51
295.6781112778079
  0
ARC
  5
FA
330
1F
100
AcDbEntity
  8
0
  6
CONTINUOUS
 62
     3
100
AcDbCircle
 10
784.853009998579
 20
258.1202029775214
 30
0.0
 40
126.9482409370382
100
AcDbArc
 50
278.8438342053764
 51
282.6649181367123
  0
ARC
  5
FB
330
1F
100
AcDbEntity
  8
0
  6
CONTINUOUS
 62
     3
100
AcDbCircle
 10
807.0970138675791
 20
119.9608481482873
 30
0.0
 40
13.0093661698492
100
AcDbArc
 50
102.0988446293839
 51
129.1556705448828
  0
ARC
  5
FC
330
1F
100
AcDbEntity
  8
0
  6
CONTINUOUS
 62
     3
100
AcDbCircle
 10
803.3972379030156
 20
124.6366332500803
 30
0.0
 40
7.04795370557922
100
AcDbArc
 50
129.8344892359069
 51
168.4089447024628
  0
ARC
  5
FD
330
1F
100
AcDbEntity
  8
0
  6
CONTINUOUS
 62
     3
100
AcDbCircle
 10
804.9075018569995
 20
123.7758712547746
 30
0.0
 40
8.71709372588669
100
AcDbArc
 50
164.8589457925044
 51
187.8495628504518
  0
ARC
  5
FE
330
1F
100
AcDbEntity
  8
0
  6
CONTINUOUS
 62
     3
100
AcDbCircle
 10
804.0915332915501
 20
123.4015021572866
 30
0.0
 40
7.8619234712629
100
AcDbArc
 50
185.9586126338419
 51
224.0091989319859
  0
ARC
  5
FF
330
1F
100
AcDbEntity
  8
0
  6
CONTINUOUS
 62
     3
100
AcDbCircle
 10
804.4562953036889
 20
123.8111104772598
 30
0.0
 40
8.408956577563659
100
AcDbArc
 50
224.289750990011
 51
255.6505938786759
  0
ARC
  5
100
330
1F
100
AcDbEntity
  8
0
  6
CONTINUOUS
 62
     3
100
AcDbCircle
 10
804.2928130736761
 20
121.6963494387413
 30
0.0
 40
6.330228320917859
100
AcDbArc
 50
252.3384873625213
 51
268.8069976857606
  0
LINE
  5
101
330
1F
100
AcDbEntity
  8
0
  6
CONTINUOUS
 62
     3
100
AcDbLine
 10
804.1610157332498
 20
115.367493297541
 30
0.0
 11
806.9015157332508
 21
115.367493297541
 31
0.0
  0
ARC
  5
102
330
1F
100
AcDbEntity
  8
0
  6
CONTINUOUS
 62
     3
100
AcDbCircle
 10
805.6613045867011
 20
128.953402625683
 30
0.0
 40
13.64239920103932
100
AcDbArc
 50
275.2158792069686
 51
319.2336424873511
  0
ARC
  5
103
330
1F
100
AcDbEntity
  8
0
  6
CONTINUOUS
 62
     3
100
AcDbCircle
 10
820.8315560558317
 20
120.6492594265733
 30
0.0
 40
4.87535134009722
100
AcDbArc
 50
187.1167640402297
 51
216.4860549324747
  0
ARC
  5
104
330
1F
100
AcDbEntity
  8
0
  6
CONTINUOUS
 62
     3
100
AcDbCircle
 10
820.2937735081464
 20
120.3367456528632
 30
0.0
 40
4.25769550620398
100
AcDbArc
 50
217.4081478714985
 51
264.8118660441384
  0
ARC
  5
105
330
1F
100
AcDbEntity
  8
0
  6
CONTINUOUS
 62
     3
100
AcDbCircle
 10
821.8995891945594
 20
124.6464512823034
 30
0.0
 40
8.56540620020894
100
AcDbArc
 50
271.2220539293239
 51
292.8159509797653
  0
LINE
  5
106
330
1F
100
AcDbEntity
  8
0
  6
CONTINUOUS
 62
     3
100
AcDbLine
 10
819.9087657332502
 20
116.0964932975411
 30
0.0
 11
822.0822657332503
 21
116.0964932975411
 31
0.0
  0
LINE
  5
107
330
1F
100
AcDbEntity
  8
0
  6
CONTINUOUS
 62
     3
100
AcDbLine
 10
825.2210157332509
 20
116.751243297541
 30
0.0
 11
825.2210157332509
 21
118.3239932975407
 31
0.0
  0
ARC
  5
108
330
1F
100
AcDbEntity
  8
0
  6
CONTINUOUS
 62
     3
100
AcDbCircle
 10
823.8242078457968
 20
121.0061188741092
 30
0.0
 40
3.0240485913648
100
AcDbArc
 50
243.6191685566582
 51
297.5097757939563
  0
ARC
  5
109
330
1F
100
AcDbEntity
  8
0
  6
CONTINUOUS
 62
     3
100
AcDbCircle
 10
824.1823989446045
 20
120.8302928780476
 30
0.0
 40
3.05188683107389
100
AcDbArc
 50
179.9117548191414
 51
236.1065985968857
  0
ARC
  5
10A
330
1F
100
AcDbEntity
  8
0
  6
CONTINUOUS
 62
     3
100
AcDbCircle
 10
1274.65013583871
 20
125.9323843931735
 30
0.0
 40
453.5482655865662
100
AcDbArc
 50
178.2526643324597
 51
180.6439560401927
  0
ARC
  5
10B
330
1F
100
AcDbEntity
  8
0
  6
CONTINUOUS
 62
     3
100
AcDbCircle
 10
811.070627260279
 20
139.0191625973317
 30
0.0
 40
10.2690407511459
100
AcDbArc
 50
4.148222840814693
 51
92.36000944257292
  0
ARC
  5
10C
330
1F
100
AcDbEntity
  8
0
  6
CONTINUOUS
 62
     3
100
AcDbCircle
 10
810.2685324125532
 20
131.616728892689
 30
0.0
 40
17.66683515327064
100
AcDbArc
 50
88.77000393305703
 51
128.9068631829044
  0
TEXT
  5
10D
330
1F
100
AcDbEntity
  8
0
  6
CONTINUOUS
 62
     2
100
AcDbText
 10
507.5000000000006
 20
258.7500000000001
 30
0.0
 40
42.5
  1
検図
 41
1.303826737967914
  7
EXCADSTD
 72
     5
 11
594.5770000000006
 21
258.7500000000001
 31
0.0
100
AcDbText
  0
TEXT
  5
10E
330
1F
100
AcDbEntity
  8
0
  6
CONTINUOUS
 62
     2
100
AcDbText
 10
637.5000000000006
 20
258.7500000000001
 30
0.0
 40
42.5
  1
承認
 41
1.303826737967914
  7
EXCADSTD
 72
     5
 11
724.5770000000006
 21
258.7500000000001
 31
0.0
100
AcDbText
  0
TEXT
  5
10F
330
1F
100
AcDbEntity
  8
0
  6
CONTINUOUS
 62
     2
100
AcDbText
 10
1395.75
 20
248.7500000000001
 30
0.0
 40
42.5
  1
品
 41
1.12
  7
EXCADSTD
 72
     5
 11
1429.75
 21
248.7500000000001
 31
0.0
100
AcDbText
  0
TEXT
  5
110
330
1F
100
AcDbEntity
  8
0
  6
CONTINUOUS
 62
     2
100
AcDbText
 10
1816.750000000001
 20
248.7500000000001
 30
0.0
 40
42.5
  1
尺
 41
1.12
  7
EXCADSTD
 72
     5
 11
1850.750000000001
 21
248.7500000000001
 31
0.0
100
AcDbText
  0
TEXT
  5
111
330
1F
100
AcDbEntity
  8
0
  6
CONTINUOUS
 62
     2
100
AcDbText
 10
1816.750000000001
 20
198.7500000000001
 30
0.0
 40
42.5
  1
度
 41
1.12
  7
EXCADSTD
 72
     5
 11
1850.750000000001
 21
198.7500000000001
 31
0.0
100
AcDbText
  0
TEXT
  5
112
330
1F
100
AcDbEntity
  8
0
  6
CONTINUOUS
 62
     2
100
AcDbText
 10
1395.75
 20
135.7500000000003
 30
0.0
 40
42.5
  1
図
 41
1.12
  7
EXCADSTD
 72
     5
 11
1429.75
 21
135.7500000000003
 31
0.0
100
AcDbText
  0
TEXT
  5
113
330
1F
100
AcDbEntity
  8
0
  6
CONTINUOUS
 62
     2
100
AcDbText
 10
1395.75
 20
92.7500000000002
 30
0.0
 40
42.5
  1
番
 41
1.12
  7
EXCADSTD
 72
     5
 11
1429.75
 21
92.7500000000002
 31
0.0
100
AcDbText
  0
TEXT
  5
114
330
1F
100
AcDbEntity
  8
0
  6
CONTINUOUS
 62
     2
100
AcDbText
 10
755.75
 20
248.7500000000004
 30
0.0
 40
42.5
  1
品
 41
1.12
  7
EXCADSTD
 72
     5
 11
789.75
 21
248.7500000000004
 31
0.0
100
AcDbText
  0
TEXT
  5
115
330
1F
100
AcDbEntity
  8
0
  6
CONTINUOUS
 62
     2
100
AcDbText
 10
755.75
 20
198.7500000000004
 30
0.0
 40
42.5
  1
名
 41
1.12
  7
EXCADSTD
 72
     5
 11
789.75
 21
198.7500000000004
 31
0.0
100
AcDbText
  0
TEXT
  5
116
330
1F
100
AcDbEntity
  8
0
  6
CONTINUOUS
 62
     2
100
AcDbText
 10
1395.75
 20
198.7500000000004
 30
0.0
 40
42.5
  1
番
 41
1.12
  7
EXCADSTD
 72
     5
 11
1429.75
 21
198.7500000000004
 31
0.0
100
AcDbText
  0
LINE
  5
117
330
1F
100
AcDbEntity
  8
0
  6
CONTINUOUS
 62
     6
100
AcDbLine
 10
768.8855157332507
 20
103.2917432975408
 30
0.0
 11
767.650265733251
 21
107.0514932975406
 31
0.0
  0
LINE
  5
118
330
1F
100
AcDbEntity
  8
0
  6
CONTINUOUS
 62
     6
100
AcDbLine
 10
750.0000000000007
 20
305.0000000000001
 30
0.0
 11
750.0000000000007
 21
85.00000000000014
 31
0.0
  0
LINE
  5
119
330
1F
100
AcDbEntity
  8
0
  6
CONTINUOUS
 62
     6
100
AcDbLine
 10
620.0000000000006
 20
305.0000000000001
 30
0.0
 11
620.0000000000006
 21
85.00000000000014
 31
0.0
  0
LINE
  5
11A
330
1F
100
AcDbEntity
  8
0
  6
CONTINUOUS
 62
     6
100
AcDbLine
 10
2000.0
 20
185.0000000000001
 30
0.0
 11
750.0000000000007
 21
185.0000000000001
 31
0.0
  0
LINE
  5
11B
330
1F
100
AcDbEntity
  8
0
  6
CONTINUOUS
 62
     6
100
AcDbLine
 10
1860.0
 20
305.0000000000001
 30
0.0
 11
1860.0
 21
185.0000000000001
 31
0.0
  0
LINE
  5
11C
330
1F
100
AcDbEntity
  8
0
  6
CONTINUOUS
 62
     6
100
AcDbLine
 10
1440.0
 20
305.0000000000001
 30
0.0
 11
1440.0
 21
85.00000000000014
 31
0.0
  0
LINE
  5
11D
330
1F
100
AcDbEntity
  8
0
  6
CONTINUOUS
 62
     6
100
AcDbLine
 10
1390.0
 20
305.0000000000001
 30
0.0
 11
1390.0
 21
85.00000000000014
 31
0.0
  0
LINE
  5
11E
330
1F
100
AcDbEntity
  8
0
  6
CONTINUOUS
 62
     6
100
AcDbLine
 10
1892.653808600001
 20
208.0029297000003
 30
0.0
 11
1969.9938965
 21
286.6998291000002
 31
0.0
  0
LINE
  5
11F
330
1F
100
AcDbEntity
  8
0
  6
CONTINUOUS
 62
     6
100
AcDbLine
 10
1810.0
 20
305.0000000000001
 30
0.0
 11
1810.0
 21
185.0000000000001
 31
0.0
  0
LINE
  5
120
330
1F
100
AcDbEntity
  8
0
  6
CONTINUOUS
 62
     6
100
AcDbLine
 10
800.0000000000001
 20
305.0000000000004
 30
0.0
 11
800.0000000000001
 21
185.0000000000004
 31
0.0
  0
LINE
  5
121
330
1F
100
AcDbEntity
  8
0
  6
CONTINUOUS
 62
     6
100
AcDbLine
 10
180.0000000000006
 20
255.0000000000001
 30
0.0
 11
750.0000000000007
 21
255.0000000000001
 31
0.0
  0
TEXT
  5
122
330
1F
100
AcDbEntity
  8
0
  6
CONTINUOUS
 62
     2
100
AcDbText
 10
1889.9371094
 20
255.5227782999999
 30
0.0
 40
40.0
  1
１
 41
1.12
  7
EXCADSTD
 72
     5
 11
1921.9371094
 21
255.5227782999999
 31
0.0
100
AcDbText
  0
LINE
  5
123
330
1F
100
AcDbEntity
  8
0
  6
EXLTYPE2
 62
     6
100
AcDbLine
 10
179.9999999999977
 20
134.999999999999
 30
0.0
 11
489.9999999999977
 21
134.999999999999
 31
0.0
  0
CIRCLE
  5
124
330
1F
100
AcDbEntity
  8
0
  6
CONTINUOUS
 62
     6
100
AcDbCircle
 10
434.9999999999977
 20
109.999999999999
 30
0.0
 40
1.0000002
  0
CIRCLE
  5
125
330
1F
100
AcDbEntity
  8
0
  6
CONTINUOUS
 62
     6
100
AcDbCircle
 10
384.9999999999977
 20
109.999999999999
 30
0.0
 40
1.0000002
  0
CIRCLE
  5
126
330
1F
100
AcDbEntity
  8
0
  6
CONTINUOUS
 62
     6
100
AcDbCircle
 10
279.9999999999977
 20
109.999999999999
 30
0.0
 40
1.0000002
  0
CIRCLE
  5
127
330
1F
100
AcDbEntity
  8
0
  6
CONTINUOUS
 62
     6
100
AcDbCircle
 10
229.9999999999977
 20
109.999999999999
 30
0.0
 40
1.0000002
  0
TEXT
  5
128
330
1F
100
AcDbEntity
  8
0
  6
CONTINUOUS
 62
     2
100
AcDbText
 10
357.4999999999977
 20
258.7499999999991
 30
0.0
 40
42.5
  1
写図
 41
1.509694117647059
  7
EXCADSTD
 72
     5
 11
458.3259999999977
 21
258.7499999999991
 31
0.0
100
AcDbText
  0
TEXT
  5
129
330
1F
100
AcDbEntity
  8
0
  6
CONTINUOUS
 62
     2
100
AcDbText
 10
202.4999999999977
 20
258.7499999999991
 30
0.0
 40
42.5
  1
製図
 41
1.509694117647059
  7
EXCADSTD
 72
     5
 11
303.3259999999977
 21
258.7499999999991
 31
0.0
100
AcDbText
  0
LINE
  5
12A
330
1F
100
AcDbEntity
  8
0
  6
CONTINUOUS
 62
     6
100
AcDbLine
 10
334.9999999999977
 20
304.9999999999991
 30
0.0
 11
334.9999999999977
 21
84.999999999999
 31
0.0
  0
LINE
  5
12B
330
1F
100
AcDbEntity
  8
0
  6
CONTINUOUS
 62
     6
100
AcDbLine
 10
489.9999999999977
 20
304.9999999999991
 30
0.0
 11
489.9999999999977
 21
84.999999999999
 31
0.0
  0
TEXT
  5
12C
330
1F
100
AcDbEntity
  8
0
  6
CONTINUOUS
 62
     6
100
AcDbText
 10
359.5000000000033
 20
176.0000000000007
 30
0.0
 40
50.0
  1
川野
 41
1.28324
  7
EXCADSTD
 72
     5
 11
460.3260000000033
 21
176.0000000000007
 31
0.0
100
AcDbText
  0
TEXT
  5
12D
330
1F
100
AcDbEntity
  8
0
  6
CONTINUOUS
 62
     6
100
AcDbText
 10
341.3441156754794
 20
94.45007319999931
 30
0.0
 40
30.0
  1
'24
 41
0.4592080208333329
  7
EXCADSTD
 72
     5
 11
372.8326656754794
 21
94.45007319999931
 31
0.0
100
AcDbText
  0
TEXT
  5
12E
330
1F
100
AcDbEntity
  8
0
  6
CONTINUOUS
 62
     6
100
AcDbText
 10
204.5000000000033
 20
176.0000000000007
 30
0.0
 40
50.0
  1
間瀬
 41
1.28324
  7
EXCADSTD
 72
     5
 11
305.3260000000033
 21
176.0000000000007
 31
0.0
100
AcDbText
  0
TEXT
  5
12F
330
1F
100
AcDbEntity
  8
0
  6
CONTINUOUS
 62
     6
100
AcDbText
 10
186.3441156754794
 20
94.45007319999931
 30
0.0
 40
30.0
  1
'12
 41
0.4689784042553192
  7
EXCADSTD
 72
     5
 11
217.8326656754794
 21
94.45007319999931
 31
0.0
100
AcDbText
  0
TEXT
  5
130
330
1F
100
AcDbEntity
  8
0
  6
CONTINUOUS
 62
     6
100
AcDbText
 10
249.0691160569492
 20
94.45007319999931
 30
0.0
 40
30.0
  1
2
 41
0.4683823529411765
  7
EXCADSTD
 72
     5
 11
260.4441160569492
 21
94.45007319999931
 31
0.0
100
AcDbText
  0
TEXT
  5
131
330
1F
100
AcDbEntity
  8
0
  6
CONTINUOUS
 62
     6
100
AcDbText
 10
295.8941159138982
 20
94.45007319999931
 30
0.0
 40
30.0
  1
24
 41
0.3978947368421056
  7
EXCADSTD
 72
     5
 11
317.4941159138982
 21
94.45007319999931
 31
0.0
100
AcDbText
  0
TEXT
  5
132
330
1F
100
AcDbEntity
  8
0
  6
CONTINUOUS
 62
     6
100
AcDbText
 10
404.0691160569492
 20
94.45007319999931
 30
0.0
 40
30.0
  1
8
 41
0.4683823529411765
  7
EXCADSTD
 72
     5
 11
415.4441160569492
 21
94.45007319999931
 31
0.0
100
AcDbText
  0
TEXT
  5
133
330
1F
100
AcDbEntity
  8
0
  6
CONTINUOUS
 62
     6
100
AcDbText
 10
450.8941159138982
 20
94.45007319999931
 30
0.0
 40
30.0
  1
20
 41
0.408648648648649
  7
EXCADSTD
 72
     5
 11
472.4941159138982
 21
94.45007319999931
 31
0.0
100
AcDbText
  0
TEXT
  5
134
330
1F
100
AcDbEntity
  8
0
  6
CONTINUOUS
 62
     2
100
AcDbText
 10
871.6108397999997
 20
214.2713318000001
 30
0.0
 40
60.0
  1
蓋付前丸暖房便座
 41
1.104609929078014
  7
EXCADSTD
 72
     5
 11
1316.6108398
 21
214.2713318000001
 31
0.0
100
AcDbText
  0
TEXT
  5
135
330
1F
100
AcDbEntity
  8
0
  6
CONTINUOUS
 62
     2
100
AcDbText
 10
1460.000000000005
 20
218.9999999999979
 30
0.0
 40
50.0
  1
ＮＣ８２３ＷＨＬ
 41
0.9829787234042555
  7
EXCADSTD
 72
     5
 11
1790.000000000005
 21
218.9999999999979
 31
0.0
100
AcDbText
  0
LINE
  5
136
330
1F
100
AcDbEntity
  8
0
  6
CONTINUOUS
 62
     7
100
AcDbLine
 10
180.0000000000006
 20
305.0000000000001
 30
0.0
 11
2000.0
 21
305.0000000000001
 31
0.0
  0
LINE
  5
137
330
1F
100
AcDbEntity
  8
0
  6
CONTINUOUS
 62
     7
100
AcDbLine
 10
180.0000000000006
 20
85.00000000000014
 30
0.0
 11
2000.0
 21
85.00000000000014
 31
0.0
  0
TEXT
  5
138
330
1F
100
AcDbEntity
  8
0
  6
CONTINUOUS
 62
     7
100
AcDbText
 10
1565.0
 20
106.4999999999979
 30
0.0
 40
60.0
  1
２５５６１０
 41
1.033333333333333
  7
EXCADSTD
 72
     5
 11
1875.0
 21
106.4999999999979
 31
0.0
100
AcDbText
  0
TEXT
  5
139
330
1F
100
AcDbEntity
  8
0
  6
CONTINUOUS
 62
     2
100
AcDbText
 10
1933.5371094
 20
199.7227783000001
 30
0.0
 40
40.0
  1
１０
 41
1.020759090909092
  7
EXCADSTD
 72
     5
 11
1997.6991094
 21
199.7227783000001
 31
0.0
100
AcDbText
  0
LINE
  5
13A
330
1F
100
AcDbEntity
  8
LAY-1
  6
EXLTYPE2
 62
     6
100
AcDbLine
 10
0.0
 20
1485.0
 30
0.0
 11
180.0
 21
1485.0
 31
0.0
  0
CIRCLE
  5
13B
330
1F
100
AcDbEntity
  8
LAY-1
  6
CONTINUOUS
 62
     2
100
AcDbCircle
 10
414.2395020000001
 20
892.0
 30
0.0
 40
10.0
  0
TEXT
  5
13C
330
1F
100
AcDbEntity
  8
LAY-1
  6
CONTINUOUS
 62
     2
100
AcDbText
 10
457.8709412000001
 20
818.25
 30
0.0
 40
47.5
  1
す。これに適した配線を行なってください。
 41
1.126934984520124
  7
EXCADSTD
 72
     5
 11
1367.8709412
 21
818.25
 31
0.0
100
AcDbText
  0
CIRCLE
  5
13D
330
1F
100
AcDbEntity
  8
LAY-1
  6
CONTINUOUS
 62
     2
100
AcDbCircle
 10
414.2395020000001
 20
792.0
 30
0.0
 40
10.0
  0
TEXT
  5
13E
330
1F
100
AcDbEntity
  8
LAY-1
  6
CONTINUOUS
 62
     2
100
AcDbText
 10
457.8709412000001
 20
718.25
 30
0.0
 40
47.5
  1
に設けてください。
 41
1.153922542204568
  7
EXCADSTD
 72
     5
 11
872.8709412000001
 21
718.25
 31
0.0
100
AcDbText
  0
CIRCLE
  5
13F
330
1F
100
AcDbEntity
  8
LAY-1
  6
CONTINUOUS
 62
     2
100
AcDbCircle
 10
414.2395020000001
 20
692.0
 30
0.0
 40
10.0
  0
TEXT
  5
140
330
1F
100
AcDbEntity
  8
LAY-1
  6
CONTINUOUS
 62
     2
100
AcDbText
 10
457.8709412000001
 20
668.25
 30
0.0
 40
47.5
  1
水がかかったり、表面に結露が生じるような湿気の多い場所での使
 41
1.11967068509262
  7
EXCADSTD
 72
     5
 11
1817.8709412
 21
668.25
 31
0.0
100
AcDbText
  0
TEXT
  5
141
330
1F
100
AcDbEntity
  8
LAY-1
  6
CONTINUOUS
 62
     2
100
AcDbText
 10
457.8709412000001
 20
618.25
 30
0.0
 40
47.5
  1
用は避けてください。特に、浴室内には設置しないでください。
 41
1.120170368116824
  7
EXCADSTD
 72
     5
 11
1772.8709412
 21
618.25
 31
0.0
100
AcDbText
  0
TEXT
  5
142
330
1F
100
AcDbEntity
  8
LAY-1
  6
CONTINUOUS
 62
     2
100
AcDbText
 10
457.8709412000001
 20
868.25
 30
0.0
 40
47.5
  1
電源は交流１００Ｖ－５０／６０Ｈｚ、最高消費電力は ４８Ｗで
 41
1.09093567251462
  7
EXCADSTD
 72
     5
 11
1790.3709412
 21
868.25
 31
0.0
100
AcDbText
  0
LINE
  5
143
330
1F
100
AcDbEntity
  8
LAY-1
  6
CONTINUOUS
 62
     7
100
AcDbLine
 10
180.0
 20
85.0
 30
0.0
 11
180.0
 21
2885.0
 31
0.0
  0
LINE
  5
144
330
1F
100
AcDbEntity
  8
LAY-1
  6
CONTINUOUS
 62
     7
100
AcDbLine
 10
2000.0
 20
85.0
 30
0.0
 11
2000.0
 21
2885.0
 31
0.0
  0
LINE
  5
145
330
1F
100
AcDbEntity
  8
LAY-1
  6
CONTINUOUS
 62
     7
100
AcDbLine
 10
180.0
 20
2885.0
 30
0.0
 11
2000.0
 21
2885.0
 31
0.0
  0
TEXT
  5
146
330
1F
100
AcDbEntity
  8
LAY-1
  6
CONTINUOUS
 62
     2
100
AcDbText
 10
457.8709412000001
 20
768.25
 30
0.0
 40
47.5
  1
電源コードの長さは１.２ｍです。コンセントは便器の近くの壁面
 41
1.113620535270123
  7
EXCADSTD
 72
     5
 11
1790.3709412
 21
768.25
 31
0.0
100
AcDbText
  0
LEADER
  5
147
330
1F
100
AcDbEntity
  8
LAY-2
  6
CONTINUOUS
 62
     3
100
AcDbLeader
  3
ISO-25
 76
     2
 10
1441.293070342
 20
1531.896999866
 30
0.0
 10
1397.972131694
 20
1687.491110789
 30
0.0
1001
ACAD
1000
DSTYLE
1002
{
1070
     5
1000
EX_NORM
1070
    41
1040
35.0
1070
   341
1005
4B
1002
}
  0
LEADER
  5
148
330
1F
100
AcDbEntity
  8
LAY-2
  6
CONTINUOUS
 62
     3
100
AcDbLeader
  3
ISO-25
 76
     2
 10
607.976587
 20
1338.872809021
 30
0.0
 10
732.313721
 20
1259.8
 30
0.0
1001
ACAD
1000
DSTYLE
1002
{
1070
     5
1000
EX_NORM
1070
    41
1040
35.0
1070
   341
1005
4B
1002
}
  0
LINE
  5
149
330
1F
100
AcDbEntity
  8
LAY-2
  6
CONTINUOUS
 62
     3
100
AcDbLine
 10
613.0000000000001
 20
2261.383228
 30
0.0
 11
613.0000000000001
 21
2491.383228
 31
0.0
  0
LINE
  5
14A
330
1F
100
AcDbEntity
  8
LAY-2
  6
CONTINUOUS
 62
     2
100
AcDbLine
 10
421.5987519999999
 20
1893.883228
 30
0.0
 11
406.098752
 21
1893.883228
 31
0.0
  0
LINE
  5
14B
330
1F
100
AcDbEntity
  8
LAY-2
  6
CONTINUOUS
 62
     2
100
AcDbLine
 10
421.5987519999999
 20
1880.883228
 30
0.0
 11
406.098752
 21
1880.883228
 31
0.0
  0
LINE
  5
14C
330
1F
100
AcDbEntity
  8
LAY-2
  6
CONTINUOUS
 62
     2
100
AcDbLine
 10
1350.362728
 20
1335.736977001
 30
0.0
 11
1343.62054
 21
1335.736977001
 31
0.0
  0
LINE
  5
14D
330
1F
100
AcDbEntity
  8
LAY-2
  6
CONTINUOUS
 62
     2
100
AcDbLine
 10
1350.597103
 20
1338.736977001
 30
0.0
 11
1343.386165
 21
1338.736977001
 31
0.0
  0
LINE
  5
14E
330
1F
100
AcDbEntity
  8
LAY-2
  6
CONTINUOUS
 62
     2
100
AcDbLine
 10
1350.831478
 20
1341.736977001
 30
0.0
 11
1343.15179
 21
1341.736977001
 31
0.0
  0
LINE
  5
14F
330
1F
100
AcDbEntity
  8
LAY-2
  6
CONTINUOUS
 62
     2
100
AcDbLine
 10
1351.065853
 20
1344.736977001
 30
0.0
 11
1342.917415
 21
1344.736977001
 31
0.0
  0
LINE
  5
150
330
1F
100
AcDbEntity
  8
LAY-2
  6
CONTINUOUS
 62
     2
100
AcDbLine
 10
427.9769014999999
 20
1426.994088461
 30
0.0
 11
436.2737765
 21
1426.994088461
 31
0.0
  0
LINE
  5
151
330
1F
100
AcDbEntity
  8
LAY-2
  6
CONTINUOUS
 62
     2
100
AcDbLine
 10
427.8831515000002
 20
1429.994088461
 30
0.0
 11
436.3675265000001
 21
1429.994088461
 31
0.0
  0
LINE
  5
152
330
1F
100
AcDbEntity
  8
LAY-2
  6
CONTINUOUS
 62
     2
100
AcDbLine
 10
427.7894014999998
 20
1432.994088461
 30
0.0
 11
436.4612764999998
 21
1432.994088461
 31
0.0
  0
LINE
  5
153
330
1F
100
AcDbEntity
  8
LAY-2
  6
CONTINUOUS
 62
     2
100
AcDbLine
 10
427.6956515000001
 20
1435.994088461
 30
0.0
 11
436.5550265000002
 21
1435.994088461
 31
0.0
  0
DIMENSION
  5
155
330
1F
100
AcDbEntity
  8
LAY-2
  6
CONTINUOUS
 62
     3
100
AcDbDimension
  2
*D15
 10
1920.0
 20
1367.0
 30
0.0
 11
1896.500000059605
 21
1414.5
 31
0.0
 70
   160
  1
（95）
  3
ISO-25
100
AcDbAlignedDimension
 13
1844.407645
 23
1462.0
 33
0.0
 14
1721.518217
 24
1367.0
 34
0.0
 50
90.0
100
AcDbRotatedDimension
1001
ACAD
1000
DSTYLE
1002
{
1070
   270
1070
     2
1070
     6
1000
EX_NORM
1070
     7
1000
EX_NORM
1070
    41
1040
30.0
1070
    42
1040
6.99999988079071
1070
    44
1040
10.0
1070
    73
1070
     0
1070
    74
1070
     0
1070
    75
1070
     0
1070
    76
1070
     0
1070
    77
1070
     1
1070
    78
1070
     0
1070
   140
1040
40.0
1070
   147
1040
0.0
1070
   173
1070
     1
1070
   176
1070
     3
1070
   177
1070
     3
1070
   178
1070
     2
1070
   271
1070
     0
1070
   277
1070
     2
1070
   279
1070
     2
1070
   280
1070
     0
1070
   287
1070
     5
1070
   340
1005
154
1002
}
  0
DIMENSION
  5
163
330
1F
100
AcDbEntity
  8
LAY-2
  6
CONTINUOUS
 62
     3
100
AcDbDimension
  2
*D16
 10
1918.0
 20
1593.500061
 30
0.0
 11
1894.500000059605
 21
1527.7500305
 31
0.0
 70
   160
  1
131
  3
ISO-25
100
AcDbAlignedDimension
 13
1844.407645
 23
1462.0
 33
0.0
 14
1646.99163
 24
1593.500061
 34
0.0
 50
90.0
100
AcDbRotatedDimension
1001
ACAD
1000
DSTYLE
1002
{
1070
   270
1070
     2
1070
     6
1000
EX_NORM
1070
     7
1000
EX_NORM
1070
    41
1040
30.0
1070
    42
1040
6.99999988079071
1070
    44
1040
10.0
1070
    73
1070
     0
1070
    74
1070
     0
1070
    75
1070
     1
1070
    76
1070
     0
1070
    77
1070
     1
1070
    78
1070
     0
1070
   140
1040
40.0
1070
   147
1040
0.0
1070
   173
1070
     1
1070
   176
1070
     3
1070
   177
1070
     3
1070
   178
1070
     2
1070
   271
1070
     0
1070
   277
1070
     2
1070
   279
1070
     2
1070
   280
1070
     0
1070
   287
1070
     5
1070
   340
1005
154
1002
}
  0
LINE
  5
16F
330
1F
100
AcDbEntity
  8
LAY-2
  6
EXLTYPE3
 62
     1
100
AcDbLine
 10
1716.965042999999
 20
1462.0
 30
0.0
 11
1716.965042999999
 21
1359.5
 31
0.0
  0
LINE
  5
170
330
1F
100
AcDbEntity
  8
LAY-2
  6
EXLTYPE3
 62
     1
100
AcDbLine
 10
1577.018217000001
 20
1462.0
 30
0.0
 11
1577.018217000001
 21
1359.5
 31
0.0
  0
LINE
  5
171
330
1F
100
AcDbEntity
  8
LAY-2
  6
CONTINUOUS
 62
     3
100
AcDbLine
 10
732.313721
 20
1259.8
 30
0.0
 11
921.8987520000002
 21
1259.8
 31
0.0
  0
LINE
  5
172
330
1F
100
AcDbEntity
  8
LAY-2
  6
CONTINUOUS
 62
     3
100
AcDbLine
 10
1099.889661982
 20
1687.491110789
 30
0.0
 11
1397.972131694
 21
1687.491110789
 31
0.0
  0
LINE
  5
173
330
1F
100
AcDbEntity
  8
LAY-2
  6
CONTINUOUS
 62
     6
100
AcDbLine
 10
607.976587
 20
1461.0
 30
0.0
 11
621.5281739999001
 21
1461.0
 31
0.0
  0
ARC
  5
174
330
1F
100
AcDbEntity
  8
LAY-2
  6
CONTINUOUS
 62
     6
100
AcDbCircle
 10
630.2265629999999
 20
2408.383228
 30
0.0
 40
10.0
100
AcDbArc
 50
90.00000000000001
 51
180.0
  0
LINE
  5
175
330
1F
100
AcDbEntity
  8
LAY-2
  6
CONTINUOUS
 62
     6
100
AcDbLine
 10
686.761875748
 20
2418.383228
 30
0.0
 11
630.226563
 21
2418.383228
 31
0.0
  0
ARC
  5
176
330
1F
100
AcDbEntity
  8
LAY-2
  6
CONTINUOUS
 62
     6
100
AcDbCircle
 10
587.0108939999999
 20
2016.883228
 30
0.0
 40
0.5
100
AcDbArc
 50
180.0
 51
270.0000000000002
  0
ARC
  5
177
330
1F
100
AcDbEntity
  8
LAY-2
  6
CONTINUOUS
 62
     6
100
AcDbCircle
 10
630.2265629999999
 20
2026.383228
 30
0.0
 40
10.0
100
AcDbArc
 50
180.0
 51
270.0000000000002
  0
LINE
  5
178
330
1F
100
AcDbEntity
  8
LAY-2
  6
CONTINUOUS
 62
     6
100
AcDbLine
 10
686.761875748
 20
2016.383228
 30
0.0
 11
587.0108939999999
 21
2016.383228
 31
0.0
  0
ARC
  5
179
330
1F
100
AcDbEntity
  8
LAY-2
  6
CONTINUOUS
 62
     6
100
AcDbCircle
 10
830.4037193901493
 20
2109.155134985844
 30
0.0
 40
300.0
100
AcDbArc
 50
38.20275967730003
 51
83.12512228537572
  0
ARC
  5
17A
330
1F
100
AcDbEntity
  8
LAY-2
  6
CONTINUOUS
 62
     6
100
AcDbCircle
 10
830.4037193901493
 20
2325.611321014156
 30
0.0
 40
300.0
100
AcDbArc
 50
276.8748777146242
 51
321.7972403227
  0
LINE
  5
17B
330
1F
100
AcDbEntity
  8
LAY-2
  6
CONTINUOUS
 62
     6
100
AcDbLine
 10
1731.74163
 20
1461.000000000005
 30
0.0
 11
1731.74163
 21
1460.000000000013
 31
0.0
  0
LINE
  5
17C
330
1F
100
AcDbEntity
  8
LAY-2
  6
CONTINUOUS
 62
     6
100
AcDbLine
 10
1731.74163
 20
1461.000000000005
 30
0.0
 11
1702.24163
 21
1461.000000000005
 31
0.0
  0
LINE
  5
17D
330
1F
100
AcDbEntity
  8
LAY-2
  6
CONTINUOUS
 62
     6
100
AcDbLine
 10
1702.24163
 20
1460.000000000013
 30
0.0
 11
1731.74163
 21
1460.000000000013
 31
0.0
  0
LINE
  5
17E
330
1F
100
AcDbEntity
  8
LAY-2
  6
CONTINUOUS
 62
     6
100
AcDbLine
 10
1702.24163
 20
1461.0
 30
0.0
 11
1702.24163
 21
1460.000000000013
 31
0.0
  0
LINE
  5
17F
330
1F
100
AcDbEntity
  8
LAY-2
  6
CONTINUOUS
 62
     6
100
AcDbLine
 10
1709.044804
 20
1455.2
 30
0.0
 11
1725.044804
 21
1455.2
 31
0.0
  0
LINE
  5
180
330
1F
100
AcDbEntity
  8
LAY-2
  6
CONTINUOUS
 62
     6
100
AcDbLine
 10
1709.044804
 20
1414.7
 30
0.0
 11
1709.044804
 21
1455.2
 31
0.0
  0
LINE
  5
181
330
1F
100
AcDbEntity
  8
LAY-2
  6
CONTINUOUS
 62
     6
100
AcDbLine
 10
1725.044804
 20
1414.7
 30
0.0
 11
1725.044804
 21
1455.2
 31
0.0
  0
LINE
  5
182
330
1F
100
AcDbEntity
  8
LAY-2
  6
CONTINUOUS
 62
     6
100
AcDbLine
 10
1709.044804
 20
1414.699999999994
 30
0.0
 11
1725.044804
 21
1414.699999999994
 31
0.0
  0
LINE
  5
183
330
1F
100
AcDbEntity
  8
LAY-2
  6
CONTINUOUS
 62
     6
100
AcDbLine
 10
1704.344804
 20
1403.7
 30
0.0
 11
1729.744803999999
 21
1403.7
 31
0.0
  0
LINE
  5
184
330
1F
100
AcDbEntity
  8
LAY-2
  6
CONTINUOUS
 62
     6
100
AcDbLine
 10
1704.344804
 20
1404.7
 30
0.0
 11
1729.744803999999
 21
1404.7
 31
0.0
  0
ARC
  5
185
330
1F
100
AcDbEntity
  8
LAY-2
  6
CONTINUOUS
 62
     6
100
AcDbCircle
 10
1704.344804
 20
1404.4
 30
0.0
 40
0.3
100
AcDbArc
 50
90.00000000000001
 51
180.0
  0
ARC
  5
186
330
1F
100
AcDbEntity
  8
LAY-2
  6
CONTINUOUS
 62
     6
100
AcDbCircle
 10
1704.344804
 20
1404.0
 30
0.0
 40
0.3
100
AcDbArc
 50
180.0
 51
270.0000000000002
  0
LINE
  5
187
330
1F
100
AcDbEntity
  8
LAY-2
  6
CONTINUOUS
 62
     6
100
AcDbLine
 10
1704.044804
 20
1404.0
 30
0.0
 11
1704.044804
 21
1404.4
 31
0.0
  0
LINE
  5
188
330
1F
100
AcDbEntity
  8
LAY-2
  6
CONTINUOUS
 62
     6
100
AcDbLine
 10
1730.044804
 20
1404.0
 30
0.0
 11
1730.044804
 21
1404.4
 31
0.0
  0
ARC
  5
189
330
1F
100
AcDbEntity
  8
LAY-2
  6
CONTINUOUS
 62
     6
100
AcDbCircle
 10
1729.744803999999
 20
1404.0
 30
0.0
 40
0.3
100
AcDbArc
 50
270.0000000000002
 51
0.0
  0
ARC
  5
18A
330
1F
100
AcDbEntity
  8
LAY-2
  6
CONTINUOUS
 62
     6
100
AcDbCircle
 10
1729.744803999999
 20
1404.4
 30
0.0
 40
0.3
100
AcDbArc
 50
0.0
 51
90.00000000000001
  0
ARC
  5
18B
330
1F
100
AcDbEntity
  8
LAY-2
  6
CONTINUOUS
 62
     6
100
AcDbCircle
 10
1717.044804
 20
1404.7
 30
0.0
 40
12.50000000000001
100
AcDbArc
 50
0.0
 51
53.13010235415533
  0
ARC
  5
18C
330
1F
100
AcDbEntity
  8
LAY-2
  6
CONTINUOUS
 62
     6
100
AcDbCircle
 10
1717.044804
 20
1404.7
 30
0.0
 40
12.50000000000001
100
AcDbArc
 50
126.8698976458417
 51
180.0
  0
LINE
  5
18D
330
1F
100
AcDbEntity
  8
LAY-2
  6
CONTINUOUS
 62
     6
100
AcDbLine
 10
1729.55163
 20
1401.699999999999
 30
0.0
 11
1704.43163
 21
1401.699999999999
 31
0.0
  0
LINE
  5
18E
330
1F
100
AcDbEntity
  8
LAY-2
  6
CONTINUOUS
 62
     6
100
AcDbLine
 10
1716.99163
 20
1401.7
 30
0.0
 11
1716.99163
 21
1386.200000000016
 31
0.0
  0
LINE
  5
18F
330
1F
100
AcDbEntity
  8
LAY-2
  6
CONTINUOUS
 62
     6
100
AcDbLine
 10
1704.431629999999
 20
1380.199999999989
 30
0.0
 11
1704.431629999999
 21
1403.7
 31
0.0
  0
LINE
  5
190
330
1F
100
AcDbEntity
  8
LAY-2
  6
CONTINUOUS
 62
     6
100
AcDbLine
 10
1729.55163
 20
1380.199999999989
 30
0.0
 11
1704.43163
 21
1380.199999999989
 31
0.0
  0
LINE
  5
191
330
1F
100
AcDbEntity
  8
LAY-2
  6
EXLTYPE2
 62
     6
100
AcDbLine
 10
1708.446629999995
 20
1386.200000000016
 30
0.0
 11
1708.446629999995
 21
1401.699999999999
 31
0.0
  0
LINE
  5
192
330
1F
100
AcDbEntity
  8
LAY-2
  6
EXLTYPE2
 62
     6
100
AcDbLine
 10
1725.536629999999
 20
1386.200000000016
 30
0.0
 11
1708.44663
 21
1386.200000000016
 31
0.0
  0
LINE
  5
193
330
1F
100
AcDbEntity
  8
LAY-2
  6
EXLTYPE2
 62
     6
100
AcDbLine
 10
1725.536629999999
 20
1386.2
 30
0.0
 11
1725.536629999999
 21
1401.699999999999
 31
0.0
  0
LINE
  5
194
330
1F
100
AcDbEntity
  8
LAY-2
  6
CONTINUOUS
 62
     6
100
AcDbLine
 10
1729.551630000001
 20
1403.7
 30
0.0
 11
1729.551630000001
 21
1380.2
 31
0.0
  0
LINE
  5
195
330
1F
100
AcDbEntity
  8
LAY-2
  6
CONTINUOUS
 62
     6
100
AcDbLine
 10
1562.24163
 20
1461.000000000005
 30
0.0
 11
1562.24163
 21
1460.000000000013
 31
0.0
  0
LINE
  5
196
330
1F
100
AcDbEntity
  8
LAY-2
  6
CONTINUOUS
 62
     6
100
AcDbLine
 10
1562.24163
 20
1461.000000000005
 30
0.0
 11
1591.74163
 21
1461.000000000005
 31
0.0
  0
LINE
  5
197
330
1F
100
AcDbEntity
  8
LAY-2
  6
CONTINUOUS
 62
     6
100
AcDbLine
 10
1591.74163
 20
1460.000000000013
 30
0.0
 11
1562.24163
 21
1460.000000000013
 31
0.0
  0
LINE
  5
198
330
1F
100
AcDbEntity
  8
LAY-2
  6
CONTINUOUS
 62
     6
100
AcDbLine
 10
1591.74163
 20
1461.0
 30
0.0
 11
1591.74163
 21
1460.000000000013
 31
0.0
  0
LINE
  5
199
330
1F
100
AcDbEntity
  8
LAY-2
  6
CONTINUOUS
 62
     6
100
AcDbLine
 10
1584.938456
 20
1455.2
 30
0.0
 11
1568.938456
 21
1455.2
 31
0.0
  0
LINE
  5
19A
330
1F
100
AcDbEntity
  8
LAY-2
  6
CONTINUOUS
 62
     6
100
AcDbLine
 10
1584.938456
 20
1414.7
 30
0.0
 11
1584.938456
 21
1455.2
 31
0.0
  0
LINE
  5
19B
330
1F
100
AcDbEntity
  8
LAY-2
  6
CONTINUOUS
 62
     6
100
AcDbLine
 10
1568.938456
 20
1414.7
 30
0.0
 11
1568.938456
 21
1455.2
 31
0.0
  0
LINE
  5
19C
330
1F
100
AcDbEntity
  8
LAY-2
  6
CONTINUOUS
 62
     6
100
AcDbLine
 10
1584.938456
 20
1414.699999999994
 30
0.0
 11
1568.938456
 21
1414.699999999994
 31
0.0
  0
LINE
  5
19D
330
1F
100
AcDbEntity
  8
LAY-2
  6
CONTINUOUS
 62
     6
100
AcDbLine
 10
1589.638456
 20
1403.7
 30
0.0
 11
1564.238456
 21
1403.7
 31
0.0
  0
LINE
  5
19E
330
1F
100
AcDbEntity
  8
LAY-2
  6
CONTINUOUS
 62
     6
100
AcDbLine
 10
1589.638456
 20
1404.7
 30
0.0
 11
1564.238456
 21
1404.7
 31
0.0
  0
ARC
  5
19F
330
1F
100
AcDbEntity
  8
LAY-2
  6
CONTINUOUS
 62
     6
100
AcDbCircle
 10
1589.638456
 20
1404.4
 30
0.0
 40
0.3
100
AcDbArc
 50
0.0
 51
90.00000000000001
  0
ARC
  5
1A0
330
1F
100
AcDbEntity
  8
LAY-2
  6
CONTINUOUS
 62
     6
100
AcDbCircle
 10
1589.638456
 20
1404.0
 30
0.0
 40
0.3
100
AcDbArc
 50
270.0
 51
0.0
  0
LINE
  5
1A1
330
1F
100
AcDbEntity
  8
LAY-2
  6
CONTINUOUS
 62
     6
100
AcDbLine
 10
1589.938456
 20
1404.0
 30
0.0
 11
1589.938456
 21
1404.4
 31
0.0
  0
LINE
  5
1A2
330
1F
100
AcDbEntity
  8
LAY-2
  6
CONTINUOUS
 62
     6
100
AcDbLine
 10
1563.938456
 20
1404.0
 30
0.0
 11
1563.938456
 21
1404.4
 31
0.0
  0
ARC
  5
1A3
330
1F
100
AcDbEntity
  8
LAY-2
  6
CONTINUOUS
 62
     6
100
AcDbCircle
 10
1564.238456
 20
1404.0
 30
0.0
 40
0.3
100
AcDbArc
 50
180.0
 51
270.0
  0
ARC
  5
1A4
330
1F
100
AcDbEntity
  8
LAY-2
  6
CONTINUOUS
 62
     6
100
AcDbCircle
 10
1564.238456
 20
1404.4
 30
0.0
 40
0.3
100
AcDbArc
 50
90.00000000000001
 51
180.0
  0
ARC
  5
1A5
330
1F
100
AcDbEntity
  8
LAY-2
  6
CONTINUOUS
 62
     6
100
AcDbCircle
 10
1576.938456
 20
1404.7
 30
0.0
 40
12.50000000000001
100
AcDbArc
 50
126.8698976458449
 51
180.0
  0
ARC
  5
1A6
330
1F
100
AcDbEntity
  8
LAY-2
  6
CONTINUOUS
 62
     6
100
AcDbCircle
 10
1576.938456
 20
1404.7
 30
0.0
 40
12.50000000000001
100
AcDbArc
 50
0.0
 51
53.13010235415826
  0
LINE
  5
1A7
330
1F
100
AcDbEntity
  8
LAY-2
  6
CONTINUOUS
 62
     6
100
AcDbLine
 10
1564.43163
 20
1401.699999999999
 30
0.0
 11
1589.55163
 21
1401.699999999999
 31
0.0
  0
LINE
  5
1A8
330
1F
100
AcDbEntity
  8
LAY-2
  6
CONTINUOUS
 62
     6
100
AcDbLine
 10
1576.99163
 20
1401.7
 30
0.0
 11
1576.99163
 21
1386.200000000016
 31
0.0
  0
LINE
  5
1A9
330
1F
100
AcDbEntity
  8
LAY-2
  6
CONTINUOUS
 62
     6
100
AcDbLine
 10
1589.551630000001
 20
1380.199999999989
 30
0.0
 11
1589.551630000001
 21
1403.7
 31
0.0
  0
LINE
  5
1AA
330
1F
100
AcDbEntity
  8
LAY-2
  6
CONTINUOUS
 62
     6
100
AcDbLine
 10
1564.43163
 20
1380.199999999989
 30
0.0
 11
1589.55163
 21
1380.199999999989
 31
0.0
  0
LINE
  5
1AB
330
1F
100
AcDbEntity
  8
LAY-2
  6
EXLTYPE2
 62
     6
100
AcDbLine
 10
1585.536630000005
 20
1386.200000000016
 30
0.0
 11
1585.536630000005
 21
1401.699999999999
 31
0.0
  0
LINE
  5
1AC
330
1F
100
AcDbEntity
  8
LAY-2
  6
EXLTYPE2
 62
     6
100
AcDbLine
 10
1568.446630000001
 20
1386.200000000016
 30
0.0
 11
1585.53663
 21
1386.200000000016
 31
0.0
  0
LINE
  5
1AD
330
1F
100
AcDbEntity
  8
LAY-2
  6
EXLTYPE2
 62
     6
100
AcDbLine
 10
1568.446630000001
 20
1386.2
 30
0.0
 11
1568.446630000001
 21
1401.699999999999
 31
0.0
  0
LINE
  5
1AE
330
1F
100
AcDbEntity
  8
LAY-2
  6
CONTINUOUS
 62
     6
100
AcDbLine
 10
1564.431629999999
 20
1403.7
 30
0.0
 11
1564.431629999999
 21
1380.2
 31
0.0
  0
ARC
  5
1AF
330
1F
100
AcDbEntity
  8
LAY-2
  6
CONTINUOUS
 62
     6
100
AcDbCircle
 10
568.8299860000001
 20
2405.216724
 30
0.0
 40
9.1667
100
AcDbArc
 50
90.46862800000025
 51
180.0
  0
LINE
  5
1B0
330
1F
100
AcDbEntity
  8
LAY-2
  6
CONTINUOUS
 62
     6
100
AcDbLine
 10
559.663286
 20
2405.216724
 30
0.0
 11
559.663286
 21
2399.954721
 31
0.0
  0
ARC
  5
1B1
330
1F
100
AcDbEntity
  8
LAY-2
  6
CONTINUOUS
 62
     6
100
AcDbCircle
 10
609.6300959999999
 20
-2584.616649999999
 30
0.0
 40
4999.166700000002
100
AcDbArc
 50
90.40784199999997
 51
90.468477
  0
ARC
  5
1B2
330
1F
100
AcDbEntity
  8
LAY-2
  6
CONTINUOUS
 62
     6
100
AcDbCircle
 10
574.0809999999999
 20
2409.423527
 30
0.0
 40
5.0
100
AcDbArc
 50
90.40784199999884
 51
180.0
  0
LINE
  5
1B3
330
1F
100
AcDbEntity
  8
LAY-2
  6
CONTINUOUS
 62
     6
100
AcDbLine
 10
569.0809999999999
 20
2409.423527
 30
0.0
 11
569.0809999999999
 21
2406.554721
 31
0.0
  0
ARC
  5
1B4
330
1F
100
AcDbEntity
  8
LAY-2
  6
CONTINUOUS
 62
     6
100
AcDbCircle
 10
567.481
 20
2406.554721
 30
0.0
 40
1.6
100
AcDbArc
 50
270.0000000000002
 51
0.0
  0
LINE
  5
1B5
330
1F
100
AcDbEntity
  8
LAY-2
  6
CONTINUOUS
 62
     6
100
AcDbLine
 10
567.481
 20
2404.954721
 30
0.0
 11
564.663286
 21
2404.954721
 31
0.0
  0
ARC
  5
1B6
330
1F
100
AcDbEntity
  8
LAY-2
  6
CONTINUOUS
 62
     6
100
AcDbCircle
 10
564.663286
 20
2399.954721
 30
0.0
 40
5.0
100
AcDbArc
 50
90.00000000000001
 51
180.0
  0
ARC
  5
1B7
330
1F
100
AcDbEntity
  8
LAY-2
  6
CONTINUOUS
 62
     6
100
AcDbCircle
 10
564.663286
 20
2399.954721
 30
0.0
 40
2.338
100
AcDbArc
 50
90.00000000000001
 51
180.0
  0
LINE
  5
1B8
330
1F
100
AcDbEntity
  8
LAY-2
  6
CONTINUOUS
 62
     6
100
AcDbLine
 10
567.481
 20
2402.292721
 30
0.0
 11
564.663286
 21
2402.292721
 31
0.0
  0
ARC
  5
1B9
330
1F
100
AcDbEntity
  8
LAY-2
  6
CONTINUOUS
 62
     6
100
AcDbCircle
 10
567.481
 20
2406.554721
 30
0.0
 40
4.262000000000002
100
AcDbArc
 50
270.0000000000002
 51
0.0
  0
LINE
  5
1BA
330
1F
100
AcDbEntity
  8
LAY-2
  6
CONTINUOUS
 62
     6
100
AcDbLine
 10
571.7430000000002
 20
2409.423527
 30
0.0
 11
571.7430000000002
 21
2406.554721
 31
0.0
  0
ARC
  5
1BB
330
1F
100
AcDbEntity
  8
LAY-2
  6
CONTINUOUS
 62
     6
100
AcDbCircle
 10
574.0809999999999
 20
2409.423527
 30
0.0
 40
2.338
100
AcDbArc
 50
90.40784200000165
 51
180.0
  0
ARC
  5
1BC
330
1F
100
AcDbEntity
  8
LAY-2
  6
CONTINUOUS
 62
     6
100
AcDbCircle
 10
574.0809999999999
 20
2025.342929
 30
0.0
 40
5.0
100
AcDbArc
 50
180.0
 51
269.5921580000012
  0
ARC
  5
1BD
330
1F
100
AcDbEntity
  8
LAY-2
  6
CONTINUOUS
 62
     6
100
AcDbCircle
 10
567.481
 20
2028.211735
 30
0.0
 40
1.6
100
AcDbArc
 50
0.0
 51
90.00000000000001
  0
LINE
  5
1BE
330
1F
100
AcDbEntity
  8
LAY-2
  6
CONTINUOUS
 62
     6
100
AcDbLine
 10
569.0809999999999
 20
2025.342929
 30
0.0
 11
569.0809999999999
 21
2028.211735
 31
0.0
  0
LINE
  5
1BF
330
1F
100
AcDbEntity
  8
LAY-2
  6
CONTINUOUS
 62
     6
100
AcDbLine
 10
567.481
 20
2029.811735
 30
0.0
 11
564.663286
 21
2029.811735
 31
0.0
  0
ARC
  5
1C0
330
1F
100
AcDbEntity
  8
LAY-2
  6
CONTINUOUS
 62
     6
100
AcDbCircle
 10
564.663286
 20
2034.811735
 30
0.0
 40
5.0
100
AcDbArc
 50
180.0
 51
270.0000000000002
  0
ARC
  5
1C1
330
1F
100
AcDbEntity
  8
LAY-2
  6
CONTINUOUS
 62
     6
100
AcDbCircle
 10
564.663286
 20
2034.811735
 30
0.0
 40
2.338
100
AcDbArc
 50
180.0
 51
270.0000000000002
  0
LINE
  5
1C2
330
1F
100
AcDbEntity
  8
LAY-2
  6
CONTINUOUS
 62
     6
100
AcDbLine
 10
567.481
 20
2032.473735
 30
0.0
 11
564.663286
 21
2032.473735
 31
0.0
  0
ARC
  5
1C3
330
1F
100
AcDbEntity
  8
LAY-2
  6
CONTINUOUS
 62
     6
100
AcDbCircle
 10
567.481
 20
2028.211735
 30
0.0
 40
4.262000000000002
100
AcDbArc
 50
0.0
 51
90.00000000000001
  0
LINE
  5
1C4
330
1F
100
AcDbEntity
  8
LAY-2
  6
CONTINUOUS
 62
     6
100
AcDbLine
 10
571.7430000000002
 20
2025.342929
 30
0.0
 11
571.7430000000002
 21
2028.211735
 31
0.0
  0
ARC
  5
1C5
330
1F
100
AcDbEntity
  8
LAY-2
  6
CONTINUOUS
 62
     6
100
AcDbCircle
 10
574.0809999999999
 20
2025.342929
 30
0.0
 40
2.338
100
AcDbArc
 50
180.0
 51
269.5921579999984
  0
ARC
  5
1C6
330
1F
100
AcDbEntity
  8
LAY-2
  6
CONTINUOUS
 62
     6
100
AcDbCircle
 10
609.6300959999999
 20
7019.383106
 30
0.0
 40
4999.166700000002
100
AcDbArc
 50
269.5315230000001
 51
269.5921580000003
  0
ARC
  5
1C7
330
1F
100
AcDbEntity
  8
LAY-2
  6
CONTINUOUS
 62
     6
100
AcDbCircle
 10
568.8299860000001
 20
2029.549732
 30
0.0
 40
9.1667
100
AcDbArc
 50
180.0
 51
269.5313719999998
  0
LINE
  5
1C8
330
1F
100
AcDbEntity
  8
LAY-2
  6
CONTINUOUS
 62
     6
100
AcDbLine
 10
559.663286
 20
2029.549732
 30
0.0
 11
559.663286
 21
2034.811735
 31
0.0
  0
CIRCLE
  5
1C9
330
1F
100
AcDbEntity
  8
LAY-2
  6
EXLTYPE2
 62
     6
100
AcDbCircle
 10
613.0000000000001
 20
2147.383228
 30
0.0
 40
6.000000000000005
  0
CIRCLE
  5
1CA
330
1F
100
AcDbEntity
  8
LAY-2
  6
EXLTYPE2
 62
     6
100
AcDbCircle
 10
613.0000000000001
 20
2287.383228
 30
0.0
 40
6.000000000000005
  0
LINE
  5
1CB
330
1F
100
AcDbEntity
  8
LAY-2
  6
CONTINUOUS
 62
     6
100
AcDbLine
 10
586.9999999999999
 20
2287.383228
 30
0.0
 11
639.0
 21
2287.383228
 31
0.0
  0
LINE
  5
1CC
330
1F
100
AcDbEntity
  8
LAY-2
  6
CONTINUOUS
 62
     6
100
AcDbLine
 10
586.9999999999999
 20
2147.383228
 30
0.0
 11
639.0
 21
2147.383228
 31
0.0
  0
LINE
  5
1CD
330
1F
100
AcDbEntity
  8
LAY-2
  6
CONTINUOUS
 62
     6
100
AcDbLine
 10
613.0000000000001
 20
2173.383228
 30
0.0
 11
613.0000000000001
 21
2121.383228
 31
0.0
  0
ARC
  5
1CE
330
1F
100
AcDbEntity
  8
LAY-2
  6
CONTINUOUS
 62
     6
100
AcDbCircle
 10
183.029937
 20
2217.383228
 30
0.0
 40
403.0000000000003
100
AcDbArc
 50
340.5702065891001
 51
19.4297934109399
  0
ARC
  5
1CF
330
1F
100
AcDbEntity
  8
LAY-2
  6
CONTINUOUS
 62
     6
100
AcDbCircle
 10
183.029937
 20
2217.383228
 30
0.0
 40
400.0000000000001
100
AcDbArc
 50
340.3367920000002
 51
19.66320799999993
  0
ARC
  5
1D0
330
1F
100
AcDbEntity
  8
LAY-2
  6
EXLTYPE2
 62
     6
100
AcDbCircle
 10
836.2794200000002
 20
1957.633228
 30
0.0
 40
360.0
100
AcDbArc
 50
68.24902299999995
 51
90.00000000000001
  0
ARC
  5
1D1
330
1F
100
AcDbEntity
  8
LAY-2
  6
EXLTYPE2
 62
     6
100
AcDbCircle
 10
836.2794200000002
 20
2477.133228
 30
0.0
 40
360.0
100
AcDbArc
 50
270.0000000000002
 51
291.7509770000003
  0
ARC
  5
1D2
330
1F
100
AcDbEntity
  8
LAY-2
  6
CONTINUOUS
 62
     6
100
AcDbCircle
 10
604.6313169999999
 20
2073.804188
 30
0.0
 40
70.00000000000004
100
AcDbArc
 50
259.0560933161003
 51
280.8659794917001
  0
LINE
  5
1D3
330
1F
100
AcDbEntity
  8
LAY-2
  6
CONTINUOUS
 62
     6
100
AcDbLine
 10
655.2300109999999
 20
2079.209766
 30
0.0
 11
610.053619
 21
2079.209766
 31
0.0
  0
LINE
  5
1D4
330
1F
100
AcDbEntity
  8
LAY-2
  6
CONTINUOUS
 62
     6
100
AcDbLine
 10
605.4540710000001
 20
2028.595814
 30
0.0
 11
605.279266
 21
2029.157887
 31
0.0
  0
ARC
  5
1D5
330
1F
100
AcDbEntity
  8
LAY-2
  6
CONTINUOUS
 62
     6
100
AcDbCircle
 10
610.053619
 20
2030.642994
 30
0.0
 40
5.0
100
AcDbArc
 50
180.0
 51
197.2801510000003
  0
ARC
  5
1D6
330
1F
100
AcDbEntity
  8
LAY-2
  6
CONTINUOUS
 62
     6
100
AcDbCircle
 10
610.228424
 20
2030.080982
 30
0.0
 40
5.0
100
AcDbArc
 50
197.2796630000003
 51
263.1836550000016
  0
ARC
  5
1D7
330
1F
100
AcDbEntity
  8
LAY-2
  6
CONTINUOUS
 62
     6
100
AcDbCircle
 10
610.053619
 20
2074.209766
 30
0.0
 40
5.0
100
AcDbArc
 50
90.00000000000001
 51
180.0
  0
LINE
  5
1D8
330
1F
100
AcDbEntity
  8
LAY-2
  6
CONTINUOUS
 62
     6
100
AcDbLine
 10
605.053619
 20
2030.642994
 30
0.0
 11
605.053619
 21
2074.209766
 31
0.0
  0
ARC
  5
1D9
330
1F
100
AcDbEntity
  8
LAY-2
  6
CONTINUOUS
 62
     6
100
AcDbCircle
 10
609.6300959999999
 20
7029.379688
 30
0.0
 40
5000.000000000005
100
AcDbArc
 50
269.7632702545001
 51
269.9335330000001
  0
ARC
  5
1DA
330
1F
100
AcDbEntity
  8
LAY-2
  6
CONTINUOUS
 62
     6
100
AcDbCircle
 10
589.0790100000002
 20
2055.422291
 30
0.0
 40
26.00000000000001
100
AcDbArc
 50
180.0
 51
269.7632750000005
  0
LINE
  5
1DB
330
1F
100
AcDbEntity
  8
LAY-2
  6
CONTINUOUS
 62
     6
100
AcDbLine
 10
563.0790100000002
 20
2083.324650834
 30
0.0
 11
563.0790100000002
 21
2055.922291
 31
0.0
  0
ARC
  5
1DC
330
1F
100
AcDbEntity
  8
LAY-2
  6
CONTINUOUS
 62
     6
100
AcDbCircle
 10
573.8299860000001
 20
2077.739674
 30
0.0
 40
15.00000000000001
100
AcDbArc
 50
160.3367310000005
 51
180.0
  0
ARC
  5
1DD
330
1F
100
AcDbEntity
  8
LAY-2
  6
CONTINUOUS
 62
     6
100
AcDbCircle
 10
609.6300959999999
 20
7019.383228000002
 30
0.0
 40
5000.000000000005
100
AcDbArc
 50
269.5314940000002
 51
269.7293700000002
  0
ARC
  5
1DE
330
1F
100
AcDbEntity
  8
LAY-2
  6
CONTINUOUS
 62
     6
100
AcDbCircle
 10
586.010894
 20
2018.940113
 30
0.0
 40
0.5
100
AcDbArc
 50
0.0
 51
89.73428299994043
  0
ARC
  5
1DF
330
1F
100
AcDbEntity
  8
LAY-2
  6
CONTINUOUS
 62
     6
100
AcDbCircle
 10
591.8124770517
 20
2007.023372324
 30
0.0
 40
2.0
100
AcDbArc
 50
181.0000000000002
 51
259.1340205083051
  0
ARC
  5
1E0
330
1F
100
AcDbEntity
  8
LAY-2
  6
CONTINUOUS
 62
     6
100
AcDbCircle
 10
610.228424
 20
2030.080982
 30
0.0
 40
5.0
100
AcDbArc
 50
197.2788090000001
 51
263.1834720000015
  0
ARC
  5
1E1
330
1F
100
AcDbEntity
  8
LAY-2
  6
CONTINUOUS
 62
     6
100
AcDbCircle
 10
568.8299860000001
 20
2029.549732
 30
0.0
 40
10.0
100
AcDbArc
 50
180.0
 51
269.5313719999989
  0
LINE
  5
1E2
330
1F
100
AcDbEntity
  8
LAY-2
  6
CONTINUOUS
 62
     6
100
AcDbLine
 10
558.8299860000001
 20
2029.549732
 30
0.0
 11
558.8299860000001
 21
2077.739673
 31
0.0
  0
LINE
  5
1E3
330
1F
100
AcDbEntity
  8
LAY-2
  6
CONTINUOUS
 62
     6
100
AcDbLine
 10
648.7269770163999
 20
2075.382851228
 30
0.0
 11
648.7269776927002
 21
2076.632851228
 31
0.0
  0
LINE
  5
1E4
330
1F
100
AcDbEntity
  8
LAY-2
  6
CONTINUOUS
 62
     6
100
AcDbLine
 10
624.2269770164
 20
2075.382864484
 30
0.0
 11
662.5944090164
 21
2075.382843725
 31
0.0
  0
LINE
  5
1E5
330
1F
100
AcDbEntity
  8
LAY-2
  6
CONTINUOUS
 62
     6
100
AcDbLine
 10
670.2265629999999
 20
2074.883259
 30
0.0
 11
623.226563
 21
2074.883259
 31
0.0
  0
ARC
  5
1E6
330
1F
100
AcDbEntity
  8
LAY-2
  6
CONTINUOUS
 62
     6
100
AcDbCircle
 10
655.2300109999999
 20
2082.209766
 30
0.0
 40
3.000000000000003
100
AcDbArc
 50
270.0000000000002
 51
0.0
  0
LINE
  5
1E7
330
1F
100
AcDbEntity
  8
LAY-2
  6
CONTINUOUS
 62
     6
100
AcDbLine
 10
632.7601010000001
 20
2078.783253000001
 30
0.0
 11
637.5613699999999
 21
2078.783253000001
 31
0.0
  0
ARC
  5
1E8
330
1F
100
AcDbEntity
  8
LAY-2
  6
CONTINUOUS
 62
     6
100
AcDbCircle
 10
637.1216730000001
 20
2074.515393335
 30
0.0
 40
4.0
100
AcDbArc
 50
90.00000000000001
 51
128.7974015051991
  0
ARC
  5
1E9
330
1F
100
AcDbEntity
  8
LAY-2
  6
CONTINUOUS
 62
     6
100
AcDbCircle
 10
647.7269776927
 20
2076.632851769
 30
0.0
 40
1.0
100
AcDbArc
 50
0.0
 51
90.00000000000001
  0
ARC
  5
1EA
330
1F
100
AcDbEntity
  8
LAY-2
  6
CONTINUOUS
 62
     6
100
AcDbCircle
 10
662.5944100984998
 20
2077.382843725
 30
0.0
 40
2.0
100
AcDbArc
 50
270.0000000000002
 51
0.0
  0
ARC
  5
1EB
330
1F
100
AcDbEntity
  8
LAY-2
  6
CONTINUOUS
 62
     6
100
AcDbCircle
 10
670.2265629999999
 20
2079.883259
 30
0.0
 40
4.999998000000002
100
AcDbArc
 50
270.0000310000006
 51
0.0
  0
LINE
  5
1EC
330
1F
100
AcDbEntity
  8
LAY-2
  6
CONTINUOUS
 62
     6
100
AcDbLine
 10
647.7269782336998
 20
2077.632851769
 30
0.0
 11
622.7269782337
 21
2077.632865295
 31
0.0
  0
LINE
  5
1ED
330
1F
100
AcDbEntity
  8
LAY-2
  6
CONTINUOUS
 62
     6
100
AcDbLine
 10
626.341673
 20
2077.63286334
 30
0.0
 11
626.341673
 21
2078.783487178
 31
0.0
  0
LINE
  5
1EE
330
1F
100
AcDbEntity
  8
LAY-2
  6
CONTINUOUS
 62
     6
100
AcDbLine
 10
621.7269765287
 20
2074.481540609
 30
0.0
 11
621.7269776927001
 21
2076.632865836
 31
0.0
  0
LINE
  5
1EF
330
1F
100
AcDbEntity
  8
LAY-2
  6
CONTINUOUS
 62
     6
100
AcDbLine
 10
621.554873
 20
2074.374300168
 30
0.0
 11
621.554873
 21
2078.905526892
 31
0.0
  0
ARC
  5
1F0
330
1F
100
AcDbEntity
  8
LAY-2
  6
CONTINUOUS
 62
     6
100
AcDbCircle
 10
622.7269776927
 20
2076.632865295
 30
0.0
 40
1.0
100
AcDbArc
 50
90.00000000000001
 51
180.0
  0
LINE
  5
1F1
330
1F
100
AcDbEntity
  8
LAY-2
  6
CONTINUOUS
 62
     6
100
AcDbLine
 10
620.2265629999999
 20
2071.883259
 30
0.0
 11
620.2265629999999
 21
2026.383228
 31
0.0
  0
ARC
  5
1F2
330
1F
100
AcDbEntity
  8
LAY-2
  6
CONTINUOUS
 62
     6
100
AcDbCircle
 10
624.2269753931998
 20
2072.382864484
 30
0.0
 40
3.000000000000003
100
AcDbArc
 50
90.00000000000001
 51
127.2802616422972
  0
ARC
  5
1F3
330
1F
100
AcDbEntity
  8
LAY-2
  6
CONTINUOUS
 62
     6
100
AcDbCircle
 10
623.226563
 20
2071.883259
 30
0.0
 40
2.999998000000001
100
AcDbArc
 50
90.00000000000001
 51
180.0
  0
ARC
  5
1F4
330
1F
100
AcDbEntity
  8
LAY-2
  6
CONTINUOUS
 62
     6
100
AcDbCircle
 10
617.4501569482999
 20
2007.023372324
 30
0.0
 40
2.0
100
AcDbArc
 50
280.8659794917029
 51
358.9999999999999
  0
ARC
  5
1F5
330
1F
100
AcDbEntity
  8
LAY-2
  6
EXLTYPE2
 62
     6
100
AcDbCircle
 10
834.168367
 20
2517.133228
 30
0.0
 40
400.0000000000001
100
AcDbArc
 50
267.660736
 51
270.0000000000002
  0
LINE
  5
1F6
330
1F
100
AcDbEntity
  8
LAY-2
  6
EXLTYPE1
 62
     6
100
AcDbLine
 10
834.168367
 20
2117.133228
 30
0.0
 11
836.2794200000002
 21
2117.133228
 31
0.0
  0
ARC
  5
1F7
330
1F
100
AcDbEntity
  8
LAY-2
  6
EXLTYPE2
 62
     6
100
AcDbCircle
 10
834.168367
 20
1917.633228
 30
0.0
 40
400.0000000000001
100
AcDbArc
 50
90.00000000000001
 51
92.339233
  0
LINE
  5
1F8
330
1F
100
AcDbEntity
  8
LAY-2
  6
EXLTYPE1
 62
     6
100
AcDbLine
 10
834.168367
 20
2317.633228
 30
0.0
 11
836.2794200000002
 21
2317.633228
 31
0.0
  0
ARC
  5
1F9
330
1F
100
AcDbEntity
  8
LAY-2
  6
EXLTYPE2
 62
     6
100
AcDbCircle
 10
957.9234630000002
 20
2217.383228
 30
0.0
 40
70.00000000000004
100
AcDbArc
 50
316.4703370000001
 51
43.52966300000003
  0
ARC
  5
1FA
330
1F
100
AcDbEntity
  8
LAY-2
  6
EXLTYPE2
 62
     6
100
AcDbCircle
 10
928.9227310000001
 20
2244.932423
 30
0.0
 40
110.0
100
AcDbArc
 50
291.7509770000003
 51
316.4703370000001
  0
ARC
  5
1FB
330
1F
100
AcDbEntity
  8
LAY-2
  6
EXLTYPE2
 62
     6
100
AcDbCircle
 10
928.9227310000001
 20
2189.834034
 30
0.0
 40
110.0
100
AcDbArc
 50
43.52966300000003
 51
68.24902299999984
  0
LINE
  5
1FC
330
1F
100
AcDbEntity
  8
LAY-2
  6
CONTINUOUS
 62
     6
100
AcDbLine
 10
655.2300109999999
 20
2355.55669
 30
0.0
 11
610.053619
 21
2355.55669
 31
0.0
  0
ARC
  5
1FD
330
1F
100
AcDbEntity
  8
LAY-2
  6
CONTINUOUS
 62
     6
100
AcDbCircle
 10
609.6300959999999
 20
-2594.613232000001
 30
0.0
 40
5000.000000000005
100
AcDbArc
 50
90.06646699999996
 51
90.23672974544999
  0
ARC
  5
1FE
330
1F
100
AcDbEntity
  8
LAY-2
  6
CONTINUOUS
 62
     6
100
AcDbCircle
 10
610.053619
 20
2404.123462
 30
0.0
 40
5.0
100
AcDbArc
 50
162.7198489999999
 51
180.0
  0
LINE
  5
1FF
330
1F
100
AcDbEntity
  8
LAY-2
  6
CONTINUOUS
 62
     6
100
AcDbLine
 10
605.4540710000001
 20
2406.170642
 30
0.0
 11
605.279266
 21
2405.608569
 31
0.0
  0
ARC
  5
200
330
1F
100
AcDbEntity
  8
LAY-2
  6
CONTINUOUS
 62
     6
100
AcDbCircle
 10
610.228424
 20
2404.685474
 30
0.0
 40
5.0
100
AcDbArc
 50
96.81634499999826
 51
162.7203369999997
  0
ARC
  5
201
330
1F
100
AcDbEntity
  8
LAY-2
  6
CONTINUOUS
 62
     6
100
AcDbCircle
 10
568.8299860000001
 20
2405.216724
 30
0.0
 40
10.0
100
AcDbArc
 50
90.4686280000011
 51
180.0
  0
ARC
  5
202
330
1F
100
AcDbEntity
  8
LAY-2
  6
CONTINUOUS
 62
     6
100
AcDbCircle
 10
610.053619
 20
2360.55669
 30
0.0
 40
5.0
100
AcDbArc
 50
180.0
 51
270.0000000000002
  0
ARC
  5
203
330
1F
100
AcDbEntity
  8
LAY-2
  6
CONTINUOUS
 62
     6
100
AcDbCircle
 10
573.8299860000001
 20
2357.026782
 30
0.0
 40
15.00000000000001
100
AcDbArc
 50
180.0
 51
199.6632689999994
  0
LINE
  5
204
330
1F
100
AcDbEntity
  8
LAY-2
  6
CONTINUOUS
 62
     6
100
AcDbLine
 10
563.0790100000002
 20
2351.441805166
 30
0.0
 11
563.0790100000002
 21
2378.844165
 31
0.0
  0
ARC
  5
205
330
1F
100
AcDbEntity
  8
LAY-2
  6
CONTINUOUS
 62
     6
100
AcDbCircle
 10
589.0790100000002
 20
2379.344165
 30
0.0
 40
26.00000000000001
100
AcDbArc
 50
90.23672499999977
 51
180.0
  0
LINE
  5
206
330
1F
100
AcDbEntity
  8
LAY-2
  6
CONTINUOUS
 62
     6
100
AcDbLine
 10
558.8299860000001
 20
2357.026782
 30
0.0
 11
558.8299860000001
 21
2405.216724
 31
0.0
  0
LINE
  5
207
330
1F
100
AcDbEntity
  8
LAY-2
  6
CONTINUOUS
 62
     6
100
AcDbLine
 10
605.053619
 20
2404.123462
 30
0.0
 11
605.053619
 21
2360.55669
 31
0.0
  0
ARC
  5
208
330
1F
100
AcDbEntity
  8
LAY-2
  6
CONTINUOUS
 62
     6
100
AcDbCircle
 10
655.2300109999999
 20
2352.55669
 30
0.0
 40
3.000000000000003
100
AcDbArc
 50
0.0
 51
90.00000000000001
  0
ARC
  5
209
330
1F
100
AcDbEntity
  8
LAY-2
  6
CONTINUOUS
 62
     6
100
AcDbCircle
 10
670.2265629999999
 20
2354.883197
 30
0.0
 40
4.999998000000002
100
AcDbArc
 50
0.0
 51
89.99996899999945
  0
ARC
  5
20A
330
1F
100
AcDbEntity
  8
LAY-2
  6
CONTINUOUS
 62
     6
100
AcDbCircle
 10
662.5944100984998
 20
2357.383612275
 30
0.0
 40
2.0
100
AcDbArc
 50
0.0
 51
90.00000000000001
  0
ARC
  5
20B
330
1F
100
AcDbEntity
  8
LAY-2
  6
CONTINUOUS
 62
     6
100
AcDbCircle
 10
623.226563
 20
2362.883197
 30
0.0
 40
2.999998000000001
100
AcDbArc
 50
180.0
 51
270.0000000000002
  0
ARC
  5
20C
330
1F
100
AcDbEntity
  8
LAY-2
  6
CONTINUOUS
 62
     6
100
AcDbCircle
 10
624.2269753931998
 20
2362.383591516
 30
0.0
 40
3.000000000000003
100
AcDbArc
 50
232.7197383577028
 51
270.0000000000002
  0
ARC
  5
20D
330
1F
100
AcDbEntity
  8
LAY-2
  6
CONTINUOUS
 62
     6
100
AcDbCircle
 10
647.7269776927
 20
2358.133604231
 30
0.0
 40
1.0
100
AcDbArc
 50
270.0000000000002
 51
0.0
  0
ARC
  5
20E
330
1F
100
AcDbEntity
  8
LAY-2
  6
CONTINUOUS
 62
     6
100
AcDbCircle
 10
637.1216730000001
 20
2360.251062665
 30
0.0
 40
4.0
100
AcDbArc
 50
231.202598494801
 51
270.0000000000002
  0
LINE
  5
20F
330
1F
100
AcDbEntity
  8
LAY-2
  6
CONTINUOUS
 62
     6
100
AcDbLine
 10
632.7601010000001
 20
2355.983203
 30
0.0
 11
637.5613699999999
 21
2355.983203
 31
0.0
  0
LINE
  5
210
330
1F
100
AcDbEntity
  8
LAY-2
  6
CONTINUOUS
 62
     6
100
AcDbLine
 10
626.341673
 20
2357.13359266
 30
0.0
 11
626.341673
 21
2355.982968822
 31
0.0
  0
ARC
  5
211
330
1F
100
AcDbEntity
  8
LAY-2
  6
CONTINUOUS
 62
     6
100
AcDbCircle
 10
622.7269776927
 20
2358.133590705
 30
0.0
 40
1.0
100
AcDbArc
 50
180.0
 51
270.0000000000002
  0
LINE
  5
212
330
1F
100
AcDbEntity
  8
LAY-2
  6
CONTINUOUS
 62
     6
100
AcDbLine
 10
647.7269782336998
 20
2357.133604231
 30
0.0
 11
622.7269782337
 21
2357.133590705
 31
0.0
  0
LINE
  5
213
330
1F
100
AcDbEntity
  8
LAY-2
  6
CONTINUOUS
 62
     6
100
AcDbLine
 10
621.554873
 20
2360.392155832
 30
0.0
 11
621.554873
 21
2355.860929108
 31
0.0
  0
LINE
  5
214
330
1F
100
AcDbEntity
  8
LAY-2
  6
CONTINUOUS
 62
     6
100
AcDbLine
 10
621.7269765287
 20
2360.284915391
 30
0.0
 11
621.7269776927001
 21
2358.133590164
 31
0.0
  0
LINE
  5
215
330
1F
100
AcDbEntity
  8
LAY-2
  6
CONTINUOUS
 62
     6
100
AcDbLine
 10
648.7269770163999
 20
2359.383604772
 30
0.0
 11
648.7269776927002
 21
2358.133604772
 31
0.0
  0
LINE
  5
216
330
1F
100
AcDbEntity
  8
LAY-2
  6
CONTINUOUS
 62
     6
100
AcDbLine
 10
670.2265629999999
 20
2359.883197
 30
0.0
 11
623.226563
 21
2359.883197
 31
0.0
  0
LINE
  5
217
330
1F
100
AcDbEntity
  8
LAY-2
  6
CONTINUOUS
 62
     6
100
AcDbLine
 10
624.2269770164
 20
2359.383591516
 30
0.0
 11
662.5944090164
 21
2359.383612275
 31
0.0
  0
ARC
  5
218
330
1F
100
AcDbEntity
  8
LAY-2
  6
EXLTYPE2
 62
     6
100
AcDbCircle
 10
820.9112579723001
 20
2217.383228
 30
0.0
 40
100.0
100
AcDbArc
 50
89.07714629486999
 51
267.6579736021
  0
LINE
  5
219
330
1F
100
AcDbEntity
  8
LAY-2
  6
CONTINUOUS
 62
     6
100
AcDbLine
 10
658.230011
 20
2081.817066
 30
0.0
 11
658.230011
 21
2352.55669
 31
0.0
  0
LINE
  5
21A
330
1F
100
AcDbEntity
  8
LAY-2
  6
CONTINUOUS
 62
     6
100
AcDbLine
 10
664.5944830000002
 20
2357.383612275
 30
0.0
 11
664.5944830000002
 21
2077.382862
 31
0.0
  0
LINE
  5
21B
330
1F
100
AcDbEntity
  8
LAY-2
  6
CONTINUOUS
 62
     6
100
AcDbLine
 10
675.2265629999999
 20
2354.883197
 30
0.0
 11
675.2265629999999
 21
2079.883259
 31
0.0
  0
LINE
  5
21C
330
1F
100
AcDbEntity
  8
LAY-2
  6
CONTINUOUS
 62
     6
100
AcDbLine
 10
439.9222072333001
 20
1896.725552811
 30
0.0
 11
590.6127768634999
 21
2005.423147146
 31
0.0
  0
LINE
  5
21D
330
1F
100
AcDbEntity
  8
LAY-2
  6
CONTINUOUS
 62
     6
100
AcDbLine
 10
598.9452096828
 20
2004.035511765
 30
0.0
 11
440.3832370000001
 21
1889.660040055
 31
0.0
  0
LINE
  5
21E
330
1F
100
AcDbEntity
  8
LAY-2
  6
CONTINUOUS
 62
     6
100
AcDbLine
 10
439.4321260000001
 20
1877.54349087
 30
0.0
 11
439.4321260000001
 21
1897.22295713
 31
0.0
  0
LINE
  5
21F
330
1F
100
AcDbEntity
  8
LAY-2
  6
CONTINUOUS
 62
     6
100
AcDbLine
 10
440.3832370000001
 20
1878.88322
 30
0.0
 11
440.3832370000001
 21
1895.883228
 31
0.0
  0
LINE
  5
220
330
1F
100
AcDbEntity
  8
LAY-2
  6
CONTINUOUS
 62
     6
100
AcDbLine
 10
437.5238658409
 20
1899.220851973
 30
0.0
 11
423.0987519999999
 21
1899.883228
 31
0.0
  0
LINE
  5
221
330
1F
100
AcDbEntity
  8
LAY-2
  6
CONTINUOUS
 62
     6
100
AcDbLine
 10
423.0987519999999
 20
1874.88322
 30
0.0
 11
437.5238658409
 21
1875.545596027
 31
0.0
  0
ARC
  5
222
330
1F
100
AcDbEntity
  8
LAY-2
  6
CONTINUOUS
 62
     6
100
AcDbCircle
 10
437.4321259999999
 20
1877.54349087
 30
0.0
 40
2.0
100
AcDbArc
 50
272.6290753490033
 51
0.0
  0
ARC
  5
223
330
1F
100
AcDbEntity
  8
LAY-2
  6
CONTINUOUS
 62
     6
100
AcDbCircle
 10
437.4321259999999
 20
1897.22295713
 30
0.0
 40
2.0
100
AcDbArc
 50
0.0
 51
87.37092465103795
  0
LINE
  5
224
330
1F
100
AcDbEntity
  8
LAY-2
  6
CONTINUOUS
 62
     6
100
AcDbLine
 10
423.0987519999999
 20
1874.88322
 30
0.0
 11
423.0987519999999
 21
1899.883228
 31
0.0
  0
ARC
  5
225
330
1F
100
AcDbEntity
  8
LAY-2
  6
CONTINUOUS
 62
     6
100
AcDbCircle
 10
439.3832370000001
 20
1878.88322
 30
0.0
 40
1.0
100
AcDbArc
 50
270.0000000000002
 51
0.0
  0
ARC
  5
226
330
1F
100
AcDbEntity
  8
LAY-2
  6
CONTINUOUS
 62
     6
100
AcDbCircle
 10
439.3832370000001
 20
1895.883228
 30
0.0
 40
1.0
100
AcDbArc
 50
0.0
 51
90.00000000000001
  0
ARC
  5
227
330
1F
100
AcDbEntity
  8
LAY-2
  6
CONTINUOUS
 62
     6
100
AcDbCircle
 10
432.098752
 20
1899.633228
 30
0.0
 40
0.9999999999999
100
AcDbArc
 50
0.0
 51
180.0
  0
ARC
  5
228
330
1F
100
AcDbEntity
  8
LAY-2
  6
CONTINUOUS
 62
     6
100
AcDbCircle
 10
432.098752
 20
1875.13322
 30
0.0
 40
0.9999999999999
100
AcDbArc
 50
180.0
 51
0.0
  0
LINE
  5
229
330
1F
100
AcDbEntity
  8
LAY-2
  6
CONTINUOUS
 62
     6
100
AcDbLine
 10
433.0987519999999
 20
1899.883228
 30
0.0
 11
433.0987519999999
 21
1899.42404547
 31
0.0
  0
LINE
  5
22A
330
1F
100
AcDbEntity
  8
LAY-2
  6
CONTINUOUS
 62
     6
100
AcDbLine
 10
433.0987519999999
 20
1875.34240253
 30
0.0
 11
433.0987519999999
 21
1874.88322
 31
0.0
  0
ARC
  5
22B
330
1F
100
AcDbEntity
  8
LAY-2
  6
CONTINUOUS
 62
     6
100
AcDbCircle
 10
432.098752
 20
1893.383228
 30
0.0
 40
0.9999999999999
100
AcDbArc
 50
0.0
 51
180.0
  0
ARC
  5
22C
330
1F
100
AcDbEntity
  8
LAY-2
  6
CONTINUOUS
 62
     6
100
AcDbCircle
 10
432.098752
 20
1881.38322
 30
0.0
 40
0.9999999999999
100
AcDbArc
 50
180.0
 51
0.0
  0
LINE
  5
22D
330
1F
100
AcDbEntity
  8
LAY-2
  6
CONTINUOUS
 62
     6
100
AcDbLine
 10
433.0987519999999
 20
1893.383228
 30
0.0
 11
433.0987519999999
 21
1881.38322
 31
0.0
  0
LINE
  5
22E
330
1F
100
AcDbEntity
  8
LAY-2
  6
CONTINUOUS
 62
     6
100
AcDbLine
 10
431.098752
 20
1881.38322
 30
0.0
 11
431.098752
 21
1893.383228
 31
0.0
  0
LINE
  5
22F
330
1F
100
AcDbEntity
  8
LAY-2
  6
CONTINUOUS
 62
     6
100
AcDbLine
 10
969.2338526379001
 20
1462.190748962
 30
0.0
 11
978.232470704
 21
1462.03976049
 31
0.0
  0
ARC
  5
230
330
1F
100
AcDbEntity
  8
LAY-2
  6
CONTINUOUS
 62
     6
100
AcDbCircle
 10
1067.259536524
 20
4001.028107931
 30
0.0
 40
2500.000000000002
100
AcDbArc
 50
261.9046570400002
 51
266.1728460400001
  0
ARC
  5
231
330
1F
100
AcDbEntity
  8
LAY-2
  6
CONTINUOUS
 62
     6
100
AcDbCircle
 10
311.897577334
 20
-2393.91743169
 30
0.0
 40
3999.999512000004
100
AcDbArc
 50
79.83794603999996
 51
84.73595604
  0
ARC
  5
232
330
1F
100
AcDbEntity
  8
LAY-2
  6
CONTINUOUS
 62
     6
100
AcDbCircle
 10
1047.419955922
 20
4007.922988319
 30
0.0
 40
2500.000000000002
100
AcDbArc
 50
260.6485540400001
 51
266.6165720400003
  0
LINE
  5
233
330
1F
100
AcDbEntity
  8
LAY-2
  6
CONTINUOUS
 62
     6
100
AcDbLine
 10
716.586597902
 20
1477.831760381
 30
0.0
 11
900.1237056404
 21
1474.751359448
 31
0.0
  0
ARC
  5
234
330
1F
100
AcDbEntity
  8
LAY-2
  6
CONTINUOUS
 62
     6
100
AcDbCircle
 10
722.2480485351
 20
1575.441923465
 30
0.0
 40
49.99999600000004
100
AcDbArc
 50
238.735082582
 51
261.9046570400002
  0
LINE
  5
235
330
1F
100
AcDbEntity
  8
LAY-2
  6
CONTINUOUS
 62
     6
100
AcDbLine
 10
710.2884390511999
 20
1480.20065737
 30
0.0
 11
637.2031667515
 21
1542.148362832
 31
0.0
  0
ARC
  5
236
330
1F
100
AcDbEntity
  8
LAY-2
  6
CONTINUOUS
 62
     6
100
AcDbCircle
 10
604.626587
 20
1516.994149461
 30
0.0
 40
15.5
100
AcDbArc
 50
0.0
 51
180.0
  0
CIRCLE
  5
237
330
1F
100
AcDbEntity
  8
LAY-2
  6
CONTINUOUS
 62
     6
100
AcDbCircle
 10
604.626587
 20
1516.994149461
 30
0.0
 40
15.00000000000001
  0
LINE
  5
238
330
1F
100
AcDbEntity
  8
LAY-2
  6
CONTINUOUS
 62
     6
100
AcDbLine
 10
569.1678380333999
 20
1499.826692333
 30
0.0
 11
571.5787614531001
 21
1568.866506025
 31
0.0
  0
LINE
  5
239
330
1F
100
AcDbEntity
  8
LAY-2
  6
CONTINUOUS
 62
     6
100
AcDbLine
 10
561.4830929999999
 20
1563.447823461
 30
0.0
 11
558.8401520255002
 21
1462.507175535
 31
0.0
  0
LINE
  5
23A
330
1F
100
AcDbEntity
  8
LAY-2
  6
CONTINUOUS
 62
     6
100
AcDbLine
 10
615.933655
 20
1542.220406461
 30
0.0
 11
686.8067020000001
 21
1481.456368461
 31
0.0
  0
LINE
  5
23B
330
1F
100
AcDbEntity
  8
LAY-2
  6
CONTINUOUS
 62
     6
100
AcDbLine
 10
688.3177974334001
 20
1461.994088461
 30
0.0
 11
607.976587
 21
1461.994088461
 31
0.0
  0
ARC
  5
23C
330
1F
100
AcDbEntity
  8
LAY-2
  6
CONTINUOUS
 62
     6
100
AcDbCircle
 10
610.6265869999999
 20
1475.994088461
 30
0.0
 40
3.000000000000003
100
AcDbArc
 50
0.0
 51
90.00000000000001
  0
ARC
  5
23D
330
1F
100
AcDbEntity
  8
LAY-2
  6
CONTINUOUS
 62
     6
100
AcDbCircle
 10
610.6265869999999
 20
1464.994088461
 30
0.0
 40
3.000000000000003
100
AcDbArc
 50
270.0000000000002
 51
0.0
  0
LINE
  5
23E
330
1F
100
AcDbEntity
  8
LAY-2
  6
CONTINUOUS
 62
     6
100
AcDbLine
 10
609.626587
 20
1461.994088461
 30
0.0
 11
609.626587
 21
1475.004853235
 31
0.0
  0
LINE
  5
23F
330
1F
100
AcDbEntity
  8
LAY-2
  6
CONTINUOUS
 62
     6
100
AcDbLine
 10
613.626587
 20
1464.994088461
 30
0.0
 11
613.626587
 21
1475.994088461
 31
0.0
  0
ARC
  5
240
330
1F
100
AcDbEntity
  8
LAY-2
  6
CONTINUOUS
 62
     6
100
AcDbCircle
 10
598.626587
 20
1475.994088461
 30
0.0
 40
3.000000000000003
100
AcDbArc
 50
90.00000000000001
 51
180.0
  0
ARC
  5
241
330
1F
100
AcDbEntity
  8
LAY-2
  6
CONTINUOUS
 62
     6
100
AcDbCircle
 10
598.626587
 20
1464.994088461
 30
0.0
 40
3.000000000000003
100
AcDbArc
 50
180.0
 51
270.0000000000002
  0
LINE
  5
242
330
1F
100
AcDbEntity
  8
LAY-2
  6
CONTINUOUS
 62
     6
100
AcDbLine
 10
599.626587
 20
1461.994088461
 30
0.0
 11
599.626587
 21
1475.004853235
 31
0.0
  0
LINE
  5
243
330
1F
100
AcDbEntity
  8
LAY-2
  6
CONTINUOUS
 62
     6
100
AcDbLine
 10
595.6265869999999
 20
1464.994088461
 30
0.0
 11
595.6265869999999
 21
1475.994088461
 31
0.0
  0
LINE
  5
244
330
1F
100
AcDbEntity
  8
LAY-2
  6
CONTINUOUS
 62
     6
100
AcDbLine
 10
610.6265869999999
 20
1478.994088461
 30
0.0
 11
598.626587
 21
1478.994088461
 31
0.0
  0
LINE
  5
245
330
1F
100
AcDbEntity
  8
LAY-2
  6
CONTINUOUS
 62
     6
100
AcDbLine
 10
609.626587
 20
1468.499470848
 30
0.0
 11
599.626587
 21
1468.499470848
 31
0.0
  0
LINE
  5
246
330
1F
100
AcDbEntity
  8
LAY-2
  6
CONTINUOUS
 62
     6
100
AcDbLine
 10
609.626587
 20
1475.004853235
 30
0.0
 11
599.626587
 21
1475.004853235
 31
0.0
  0
LINE
  5
247
330
1F
100
AcDbEntity
  8
LAY-2
  6
CONTINUOUS
 62
     6
100
AcDbLine
 10
589.1265870000001
 20
1516.994149461
 30
0.0
 11
586.2441231196999
 21
1461.994088461
 31
0.0
  0
ARC
  5
248
330
1F
100
AcDbEntity
  8
LAY-2
  6
CONTINUOUS
 62
     6
100
AcDbCircle
 10
564.4608852267999
 20
1486.149055521
 30
0.0
 40
5.0
100
AcDbArc
 50
135.0000000000001
 51
178.5001570503001
  0
LINE
  5
249
330
1F
100
AcDbEntity
  8
LAY-2
  6
CONTINUOUS
 62
     6
100
AcDbLine
 10
560.9253513209001
 20
1489.684589427
 30
0.0
 11
567.7064178041999
 21
1496.46565591
 31
0.0
  0
ARC
  5
24A
330
1F
100
AcDbEntity
  8
LAY-2
  6
CONTINUOUS
 62
     6
100
AcDbCircle
 10
559.3399807245999
 20
1462.494088461
 30
0.0
 40
0.5
100
AcDbArc
 50
178.5001604779127
 51
270.0000000000002
  0
LINE
  5
24B
330
1F
100
AcDbEntity
  8
LAY-2
  6
CONTINUOUS
 62
     6
100
AcDbLine
 10
601.2765869999998
 20
1461.994088461
 30
0.0
 11
559.3399807245999
 21
1461.994088461
 31
0.0
  0
ARC
  5
24C
330
1F
100
AcDbEntity
  8
LAY-2
  6
CONTINUOUS
 62
     6
100
AcDbCircle
 10
564.1708838982998
 20
1500.001189816
 30
0.0
 40
5.0
100
AcDbArc
 50
315.0000000000002
 51
357.9999999999998
  0
LINE
  5
24D
330
1F
100
AcDbEntity
  8
LAY-2
  6
CONTINUOUS
 62
     6
100
AcDbLine
 10
659.3931771617999
 20
1522.988559127
 30
0.0
 11
659.634216
 21
1509.178414461
 31
0.0
  0
ARC
  5
24E
330
1F
100
AcDbEntity
  8
LAY-2
  6
CONTINUOUS
 62
     6
100
AcDbCircle
 10
669.540283
 20
1514.636361461
 30
0.0
 40
10.0
100
AcDbArc
 50
181.0026860000001
 51
233.8398439999995
  0
LINE
  5
24F
330
1F
100
AcDbEntity
  8
LAY-2
  6
CONTINUOUS
 62
     6
100
AcDbLine
 10
688.4083859999998
 20
1485.943917461
 30
0.0
 11
688.4069829999999
 21
1486.024971461
 31
0.0
  0
ARC
  5
250
330
1F
100
AcDbEntity
  8
LAY-2
  6
CONTINUOUS
 62
     6
100
AcDbCircle
 10
683.4079589999999
 20
1485.922921461
 30
0.0
 40
5.0
100
AcDbArc
 50
0.9998779999982317
 51
53.84191899998694
  0
ARC
  5
251
330
1F
100
AcDbEntity
  8
LAY-2
  6
CONTINUOUS
 62
     6
100
AcDbCircle
 10
683.5523069999999
 20
1477.660469461
 30
0.0
 40
5.0
100
AcDbArc
 50
1.000214000001171
 51
49.39202899998726
  0
ARC
  5
252
330
1F
100
AcDbEntity
  8
LAY-2
  6
CONTINUOUS
 62
     6
100
AcDbCircle
 10
688.8265380000001
 20
1461.996346461
 30
0.0
 40
3.598692000000001
100
AcDbArc
 50
90.00000000000001
 51
91.00051099999298
  0
ARC
  5
253
330
1F
100
AcDbEntity
  8
LAY-2
  6
CONTINUOUS
 62
     6
100
AcDbCircle
 10
688.3177974334001
 20
1462.494088461
 30
0.0
 40
0.5
100
AcDbArc
 50
270.0000000000002
 51
1.000259449913564
  0
LINE
  5
254
330
1F
100
AcDbEntity
  8
LAY-2
  6
CONTINUOUS
 62
     6
100
AcDbLine
 10
688.8177212415002
 20
1462.502816928
 30
0.0
 11
688.4084469999999
 21
1485.944039461
 31
0.0
  0
ARC
  5
255
330
1F
100
AcDbEntity
  8
LAY-2
  6
CONTINUOUS
 62
     6
100
AcDbCircle
 10
669.6325680000001
 20
1509.352913461
 30
0.0
 40
10.0
100
AcDbArc
 50
181.0014649999995
 51
229.3897709999993
  0
LINE
  5
256
330
1F
100
AcDbEntity
  8
LAY-2
  6
CONTINUOUS
 62
     6
100
AcDbLine
 10
663.6398930000001
 20
1506.562630461
 30
0.0
 11
686.3581540000001
 21
1489.959786461
 31
0.0
  0
LINE
  5
257
330
1F
100
AcDbEntity
  8
LAY-2
  6
CONTINUOUS
 62
     6
100
AcDbLine
 10
620.126587
 20
1516.994149461
 30
0.0
 11
623.0090508802999
 21
1461.994088461
 31
0.0
  0
ARC
  5
258
330
1F
100
AcDbEntity
  8
LAY-2
  6
CONTINUOUS
 62
     6
100
AcDbCircle
 10
604.2265629999999
 20
1193.494088461
 30
0.0
 40
400.0000000000001
100
AcDbArc
 50
85.50512699999992
 51
92.06937031600984
  0
ARC
  5
259
330
1F
100
AcDbEntity
  8
LAY-2
  6
CONTINUOUS
 62
     6
100
AcDbCircle
 10
604.2251590000001
 20
1188.243172461
 30
0.0
 40
400.0000000000001
100
AcDbArc
 50
87.45968835595997
 51
89.44030118020996
  0
LINE
  5
25A
330
1F
100
AcDbEntity
  8
LAY-2
  6
CONTINUOUS
 62
     6
100
AcDbLine
 10
616.9145245364001
 20
1542.994094214
 30
0.0
 11
617.426563
 21
1542.994094214
 31
0.0
  0
LINE
  5
25B
330
1F
100
AcDbEntity
  8
LAY-2
  6
CONTINUOUS
 62
     6
100
AcDbLine
 10
605.1036832865
 20
1585.171877941
 30
0.0
 11
605.4649660000001
 21
1564.472237461
 31
0.0
  0
ARC
  5
25C
330
1F
100
AcDbEntity
  8
LAY-2
  6
CONTINUOUS
 62
     6
100
AcDbCircle
 10
608.1032264499999
 20
1585.224230691
 30
0.0
 40
3.000000000000003
100
AcDbArc
 50
89.44030118019892
 51
180.9999146203996
  0
ARC
  5
25D
330
1F
100
AcDbEntity
  8
LAY-2
  6
CONTINUOUS
 62
     6
100
AcDbCircle
 10
589.96759
 20
1588.236641461
 30
0.0
 40
5.0
100
AcDbArc
 50
92.06930499998798
 51
131.332550000001
  0
ARC
  5
25E
330
1F
100
AcDbEntity
  8
LAY-2
  6
CONTINUOUS
 62
     6
100
AcDbCircle
 10
576.4779659999999
 20
1563.055184461
 30
0.0
 40
15.00000000000001
100
AcDbArc
 50
131.330933
 51
178.5004879999997
  0
LINE
  5
25F
330
1F
100
AcDbEntity
  8
LAY-2
  6
CONTINUOUS
 62
     6
100
AcDbLine
 10
566.5717159999999
 20
1574.318673461
 30
0.0
 11
586.665466
 21
1591.991097461
 31
0.0
  0
ARC
  5
260
330
1F
100
AcDbEntity
  8
LAY-2
  6
CONTINUOUS
 62
     6
100
AcDbCircle
 10
616.9145245364001
 20
1547.494094214
 30
0.0
 40
4.5
100
AcDbArc
 50
223.3406192387978
 51
270.0000000000002
  0
LINE
  5
261
330
1F
100
AcDbEntity
  8
LAY-2
  6
CONTINUOUS
 62
     6
100
AcDbLine
 10
604.1265870000001
 20
1532.494149461
 30
0.0
 11
605.126587
 21
1532.494149461
 31
0.0
  0
ARC
  5
262
330
1F
100
AcDbEntity
  8
LAY-2
  6
CONTINUOUS
 62
     6
100
AcDbCircle
 10
604.626587
 20
1516.994149461
 30
0.0
 40
16.0
100
AcDbArc
 50
88.15148900000007
 51
91.84851099999987
  0
ARC
  5
263
330
1F
100
AcDbEntity
  8
LAY-2
  6
CONTINUOUS
 62
     6
100
AcDbCircle
 10
604.1265870000001
 20
1532.486092461
 30
0.0
 40
0.5
100
AcDbArc
 50
91.84683199999664
 51
180.0
  0
ARC
  5
264
330
1F
100
AcDbEntity
  8
LAY-2
  6
CONTINUOUS
 62
     6
100
AcDbCircle
 10
605.126587
 20
1532.486092461
 30
0.0
 40
0.5
100
AcDbArc
 50
0.0
 51
88.15319799992992
  0
ARC
  5
265
330
1F
100
AcDbEntity
  8
LAY-2
  6
CONTINUOUS
 62
     6
100
AcDbCircle
 10
635.4603270000001
 20
1564.995614461
 30
0.0
 40
30.00000000000002
100
AcDbArc
 50
181.0000000000002
 51
229.3913570000002
  0
ARC
  5
266
330
1F
100
AcDbEntity
  8
LAY-2
  6
CONTINUOUS
 62
     6
100
AcDbCircle
 10
678.6056544561001
 20
1586.224136591
 30
0.0
 40
2.999986000000001
100
AcDbArc
 50
84.73571203999113
 51
179.0384470400004
  0
LINE
  5
267
330
1F
100
AcDbEntity
  8
LAY-2
  6
CONTINUOUS
 62
     6
100
AcDbLine
 10
675.6059732844
 20
1586.274322901
 30
0.0
 11
675.5761415037
 21
1584.489018523
 31
0.0
  0
LINE
  5
268
330
1F
100
AcDbEntity
  8
LAY-2
  6
CONTINUOUS
 62
     6
100
AcDbLine
 10
620.2700123939002
 20
1566.286956082
 30
0.0
 11
620.6539113366
 21
1585.205717471
 31
0.0
  0
ARC
  5
269
330
1F
100
AcDbEntity
  8
LAY-2
  6
CONTINUOUS
 62
     6
100
AcDbCircle
 10
623.6532769124
 20
1585.144840481
 30
0.0
 40
2.999987000000002
100
AcDbArc
 50
88.1893753299885
 51
178.8372023299977
  0
ARC
  5
26A
330
1F
100
AcDbEntity
  8
LAY-2
  6
CONTINUOUS
 62
     6
100
AcDbCircle
 10
611.1120153317
 20
1188.343028476
 30
0.0
 40
399.9999390000002
100
AcDbArc
 50
85.05406032999994
 51
88.18971132999992
  0
ARC
  5
26B
330
1F
100
AcDbEntity
  8
LAY-2
  6
CONTINUOUS
 62
     6
100
AcDbCircle
 10
633.6152340000001
 20
1567.340767461
 30
0.0
 40
25.00000000000001
100
AcDbArc
 50
50.81945535541002
 51
85.5051880000005
  0
LINE
  5
26C
330
1F
100
AcDbEntity
  8
LAY-2
  6
CONTINUOUS
 62
     6
100
AcDbLine
 10
621.0683269876
 20
1556.362501374
 30
0.0
 11
621.1273215303002
 21
1559.269722852
 31
0.0
  0
LINE
  5
26D
330
1F
100
AcDbEntity
  8
LAY-2
  6
CONTINUOUS
 62
     6
100
AcDbLine
 10
624.1643487058
 20
1537.081478959
 30
0.0
 11
622.9162492410001
 21
1547.669692913
 31
0.0
  0
ARC
  5
26E
330
1F
100
AcDbEntity
  8
LAY-2
  6
CONTINUOUS
 62
     6
100
AcDbCircle
 10
617.426563
 20
1545.494094214
 30
0.0
 40
2.5
100
AcDbArc
 50
270.0000000000002
 51
0.0
  0
ARC
  5
26F
330
1F
100
AcDbEntity
  8
LAY-2
  6
CONTINUOUS
 62
     6
100
AcDbCircle
 10
621.426563
 20
1547.494094214
 30
0.0
 40
1.5
100
AcDbArc
 50
6.722791597995758
 51
180.0
  0
LINE
  5
270
330
1F
100
AcDbEntity
  8
LAY-2
  6
CONTINUOUS
 62
     6
100
AcDbLine
 10
619.926563
 20
1545.494094214
 30
0.0
 11
619.926563
 21
1547.494094214
 31
0.0
  0
LINE
  5
271
330
1F
100
AcDbEntity
  8
LAY-2
  6
CONTINUOUS
 62
     6
100
AcDbLine
 10
622.7387610853
 20
1554.936495592
 30
0.0
 11
621.0682658586001
 21
1556.362532119
 31
0.0
  0
ARC
  5
272
330
1F
100
AcDbEntity
  8
LAY-2
  6
CONTINUOUS
 62
     6
100
AcDbCircle
 10
645.2648431653
 20
1565.779734321
 30
0.0
 40
25.00000400000001
100
AcDbArc
 50
194.0171343300003
 51
260.4473103300004
  0
ARC
  5
273
330
1F
100
AcDbEntity
  8
LAY-2
  6
CONTINUOUS
 62
     6
100
AcDbCircle
 10
629.6265315896
 20
1537.725340857
 30
0.0
 40
5.5
100
AcDbArc
 50
186.7227915979997
 51
229.3913838126017
  0
ARC
  5
274
330
1F
100
AcDbEntity
  8
LAY-2
  6
CONTINUOUS
 62
     6
100
AcDbCircle
 10
645.2648431653
 20
1565.779734321
 30
0.0
 40
25.00000400000001
100
AcDbArc
 50
178.8374463299999
 51
194.0171343300003
  0
ARC
  5
275
330
1F
100
AcDbEntity
  8
LAY-2
  6
CONTINUOUS
 62
     6
100
AcDbCircle
 10
311.8136991944999
 20
-2398.93559837
 30
0.0
 40
3999.999756
100
AcDbArc
 50
84.78228203999996
 51
85.21444104
  0
LINE
  5
276
330
1F
100
AcDbEntity
  8
LAY-2
  6
CONTINUOUS
 62
     6
100
AcDbLine
 10
752.2811745744002
 20
1466.831544617
 30
0.0
 11
752.3716947488001
 21
1472.230800624
 31
0.0
  0
LINE
  5
277
330
1F
100
AcDbEntity
  8
LAY-2
  6
CONTINUOUS
 62
     6
100
AcDbLine
 10
737.2831939728999
 20
1467.083273714
 30
0.0
 11
737.3738355144999
 21
1472.482468443
 31
0.0
  0
LINE
  5
278
330
1F
100
AcDbEntity
  8
LAY-2
  6
CONTINUOUS
 62
     6
100
AcDbLine
 10
752.262629801
 20
1465.73181109
 30
0.0
 11
752.2810525766001
 21
1466.831543891
 31
0.0
  0
LINE
  5
279
330
1F
100
AcDbEntity
  8
LAY-2
  6
CONTINUOUS
 62
     6
100
AcDbLine
 10
737.2647679908
 20
1465.983298891
 30
0.0
 11
737.2831943363
 21
1467.083212715
 31
0.0
  0
LINE
  5
27A
330
1F
100
AcDbEntity
  8
LAY-2
  6
CONTINUOUS
 62
     6
100
AcDbLine
 10
740.2140175564
 20
1462.933470542
 30
0.0
 11
749.2127211073
 21
1462.782482388
 31
0.0
  0
ARC
  5
27B
330
1F
100
AcDbEntity
  8
LAY-2
  6
CONTINUOUS
 62
     6
100
AcDbCircle
 10
740.2643471082001
 20
1465.933048335
 30
0.0
 40
3.000000000000003
100
AcDbArc
 50
179.0402401902995
 51
269.0387312703008
  0
ARC
  5
27C
330
1F
100
AcDbEntity
  8
LAY-2
  6
CONTINUOUS
 62
     6
100
AcDbCircle
 10
749.2630506591001
 20
1465.782060181
 30
0.0
 40
3.000000000000003
100
AcDbArc
 50
269.0387312703008
 51
359.0402681808984
  0
ARC
  5
27D
330
1F
100
AcDbEntity
  8
LAY-2
  6
CONTINUOUS
 62
     6
100
AcDbCircle
 10
757.3710620356999
 20
1472.1469325
 30
0.0
 40
5.0
100
AcDbArc
 50
89.03866003999003
 51
179.0386300399998
  0
ARC
  5
27E
330
1F
100
AcDbEntity
  8
LAY-2
  6
CONTINUOUS
 62
     6
100
AcDbCircle
 10
732.3745902195001
 20
1472.566338294
 30
0.0
 40
5.0
100
AcDbArc
 50
359.03863004
 51
89.03863003999982
  0
ARC
  5
27F
330
1F
100
AcDbEntity
  8
LAY-2
  6
CONTINUOUS
 62
     6
100
AcDbCircle
 10
716.7543428710003
 20
1487.829030981
 30
0.0
 40
9.999996000000001
100
AcDbArc
 50
229.7150820399999
 51
269.0385690399998
  0
LINE
  5
280
330
1F
100
AcDbEntity
  8
LAY-2
  6
CONTINUOUS
 62
     6
100
AcDbLine
 10
1090.332103692
 20
1506.851947417
 30
0.0
 11
1003.332911654
 21
1508.311700217
 31
0.0
  0
ARC
  5
281
330
1F
100
AcDbEntity
  8
LAY-2
  6
CONTINUOUS
 62
     6
100
AcDbCircle
 10
1067.259536524
 20
4001.028107931
 30
0.0
 40
2500.000000000002
100
AcDbArc
 50
266.1728460400001
 51
268.9917550400002
  0
LINE
  5
282
330
1F
100
AcDbEntity
  8
LAY-2
  6
CONTINUOUS
 62
     6
100
AcDbLine
 10
900.1237056404
 20
1474.751359448
 30
0.0
 11
1091.108041191
 21
1471.545945141
 31
0.0
  0
ARC
  5
283
330
1F
100
AcDbEntity
  8
LAY-2
  6
CONTINUOUS
 62
     6
100
AcDbCircle
 10
1047.419955922
 20
4007.922988319
 30
0.0
 40
2500.000000000002
100
AcDbArc
 50
266.6165720400003
 51
269.0386910400002
  0
ARC
  5
284
330
1F
100
AcDbEntity
  8
LAY-2
  6
CONTINUOUS
 62
     6
100
AcDbCircle
 10
986.338808087
 20
1468.304669483
 30
0.0
 40
5.000004000000002
100
AcDbArc
 50
89.03863003998954
 51
179.038630040001
  0
LINE
  5
285
330
1F
100
AcDbEntity
  8
LAY-2
  6
CONTINUOUS
 62
     6
100
AcDbLine
 10
981.2824200738
 20
1464.98902863
 30
0.0
 11
981.3159188853001
 21
1466.988714655
 31
0.0
  0
LINE
  5
286
330
1F
100
AcDbEntity
  8
LAY-2
  6
CONTINUOUS
 62
     6
100
AcDbLine
 10
981.3395627979
 20
1468.388538334
 30
0.0
 11
981.3159188853001
 21
1466.988714655
 31
0.0
  0
ARC
  5
287
330
1F
100
AcDbEntity
  8
LAY-2
  6
CONTINUOUS
 62
     6
100
AcDbCircle
 10
984.3770935747
 20
1510.418487075
 30
0.0
 40
6.000000000000005
100
AcDbArc
 50
194.9473820399988
 51
342.1606390399999
  0
ARC
  5
288
330
1F
100
AcDbEntity
  8
LAY-2
  6
CONTINUOUS
 62
     6
100
AcDbCircle
 10
969.2841811024
 20
1465.190326773
 30
0.0
 40
3.000000000000003
100
AcDbArc
 50
179.0386910399985
 51
269.0387520399994
  0
ARC
  5
289
330
1F
100
AcDbEntity
  8
LAY-2
  6
CONTINUOUS
 62
     6
100
AcDbCircle
 10
961.3423359074
 20
1468.724136276
 30
0.0
 40
5.000004000000002
100
AcDbArc
 50
359.038630040001
 51
89.03853804000019
  0
LINE
  5
28A
330
1F
100
AcDbEntity
  8
LAY-2
  6
CONTINUOUS
 62
     6
100
AcDbLine
 10
966.2845608336002
 20
1465.240697449
 30
0.0
 11
966.3180592817
 21
1467.240444473
 31
0.0
  0
LINE
  5
28B
330
1F
100
AcDbEntity
  8
LAY-2
  6
CONTINUOUS
 62
     6
100
AcDbLine
 10
966.3417031943
 20
1468.640268152
 30
0.0
 11
966.3180592817
 21
1467.240444473
 31
0.0
  0
LINE
  5
28C
330
1F
100
AcDbEntity
  8
LAY-2
  6
CONTINUOUS
 62
     6
100
AcDbLine
 10
966.3180580999001
 20
1467.240374013
 30
0.0
 11
981.3159207928
 21
1466.988828387
 31
0.0
  0
ARC
  5
28D
330
1F
100
AcDbEntity
  8
LAY-2
  6
CONTINUOUS
 62
     6
100
AcDbCircle
 10
978.2827991684002
 20
1465.039338301
 30
0.0
 40
3.000000000000003
100
AcDbArc
 50
269.0387520399994
 51
359.0386910399985
  0
ARC
  5
28E
330
1F
100
AcDbEntity
  8
LAY-2
  6
CONTINUOUS
 62
     6
100
AcDbCircle
 10
1064.135518004
 20
1506.66995567
 30
0.0
 40
25.00000200000001
100
AcDbArc
 50
44.42724104000019
 51
73.52324904000011
  0
ARC
  5
28F
330
1F
100
AcDbEntity
  8
LAY-2
  6
CONTINUOUS
 62
     6
100
AcDbCircle
 10
929.4125268580001
 20
1051.1760637827
 30
0.0
 40
500.0000000000003
100
AcDbArc
 50
73.52318803999992
 51
79.83794603999996
  0
ARC
  5
290
330
1F
100
AcDbEntity
  8
LAY-2
  6
CONTINUOUS
 62
     6
100
AcDbCircle
 10
1088.357132719
 20
1508.361632642
 30
0.0
 40
2.999998000000001
100
AcDbArc
 50
359.0389350399994
 51
19.23894704000142
  0
ARC
  5
291
330
1F
100
AcDbEntity
  8
LAY-2
  6
CONTINUOUS
 62
     6
100
AcDbCircle
 10
1053.423460815
 20
1496.169924511
 30
0.0
 40
39.999996
100
AcDbArc
 50
19.23876404
 51
44.4272410399999
  0
ARC
  5
292
330
1F
100
AcDbEntity
  8
LAY-2
  6
CONTINUOUS
 62
     6
100
AcDbCircle
 10
1090.348913915
 20
1507.851821292
 30
0.0
 40
1.0
100
AcDbArc
 50
269.0386910399986
 51
359.0386910399985
  0
LINE
  5
293
330
1F
100
AcDbEntity
  8
LAY-2
  6
CONTINUOUS
 62
     6
100
AcDbLine
 10
1091.356692619
 20
1508.311323608
 30
0.0
 11
1091.348726428
 21
1507.835071705
 31
0.0
  0
ARC
  5
294
330
1F
100
AcDbEntity
  8
LAY-2
  6
CONTINUOUS
 62
     6
100
AcDbCircle
 10
1081.406933681
 20
1492.224303202
 30
0.0
 40
8.0
100
AcDbArc
 50
8.778772040000096
 51
86.01687103999998
  0
ARC
  5
295
330
1F
100
AcDbEntity
  8
LAY-2
  6
CONTINUOUS
 62
     6
100
AcDbCircle
 10
1071.543186697
 20
1350.567330287
 30
0.0
 40
150.0000000000001
100
AcDbArc
 50
86.01687103999994
 51
90.03484503999978
  0
ARC
  5
296
330
1F
100
AcDbEntity
  8
LAY-2
  6
CONTINUOUS
 62
     6
100
AcDbCircle
 10
1091.112969185
 20
1471.845784816
 30
0.0
 40
0.3
100
AcDbArc
 50
269.0386300400128
 51
359.0364930399801
  0
LINE
  5
297
330
1F
100
AcDbEntity
  8
LAY-2
  6
CONTINUOUS
 62
     6
100
AcDbLine
 10
1091.424753905
 20
1472.540586391
 30
0.0
 11
1091.412931222
 21
1471.840796549
 31
0.0
  0
ARC
  5
298
330
1F
100
AcDbEntity
  8
LAY-2
  6
CONTINUOUS
 62
     6
100
AcDbCircle
 10
891.6561837119002
 20
1462.921352
 30
0.0
 40
199.9999390000002
100
AcDbArc
 50
2.756769039999871
 51
8.778772039999923
  0
LINE
  5
299
330
1F
100
AcDbEntity
  8
LAY-2
  6
CONTINUOUS
 62
     6
100
AcDbLine
 10
1023.269305267
 20
1501.415259499
 30
0.0
 11
1071.4520292
 21
1500.567312585
 31
0.0
  0
LINE
  5
29A
330
1F
100
AcDbEntity
  8
LAY-2
  6
CONTINUOUS
 62
     6
100
AcDbLine
 10
1336.991626
 20
1378.986977001
 30
0.0
 11
1356.991634
 21
1378.986977001
 31
0.0
  0
LINE
  5
29B
330
1F
100
AcDbEntity
  8
LAY-2
  6
CONTINUOUS
 62
     6
100
AcDbLine
 10
1353.991634
 20
1348.986977001
 30
0.0
 11
1359.345974
 21
1365.536782001
 31
0.0
  0
LINE
  5
29C
330
1F
100
AcDbEntity
  8
LAY-2
  6
CONTINUOUS
 62
     6
100
AcDbLine
 10
1351.491634
 20
1348.986977001
 30
0.0
 11
1356.369732
 21
1365.572549001
 31
0.0
  0
ARC
  5
29D
330
1F
100
AcDbEntity
  8
LAY-2
  6
CONTINUOUS
 62
     6
100
AcDbCircle
 10
1354.491634
 20
1373.486977001
 30
0.0
 40
2.0
100
AcDbArc
 50
0.0
 51
90.00000000000001
  0
LINE
  5
29E
330
1F
100
AcDbEntity
  8
LAY-2
  6
CONTINUOUS
 62
     6
100
AcDbLine
 10
1339.991642
 20
1348.986977001
 30
0.0
 11
1334.637287
 21
1365.536782001
 31
0.0
  0
LINE
  5
29F
330
1F
100
AcDbEntity
  8
LAY-2
  6
CONTINUOUS
 62
     6
100
AcDbLine
 10
1342.491642
 20
1348.986977001
 30
0.0
 11
1337.613529
 21
1365.572549001
 31
0.0
  0
ARC
  5
2A0
330
1F
100
AcDbEntity
  8
LAY-2
  6
CONTINUOUS
 62
     6
100
AcDbCircle
 10
1336.991626
 20
1376.486977001
 30
0.0
 40
2.5
100
AcDbArc
 50
90.00000000000001
 51
180.0
  0
LINE
  5
2A1
330
1F
100
AcDbEntity
  8
LAY-2
  6
CONTINUOUS
 62
     6
100
AcDbLine
 10
1353.991634
 20
1378.986977001
 30
0.0
 11
1353.991634
 21
1379.486977001
 31
0.0
  0
LINE
  5
2A2
330
1F
100
AcDbEntity
  8
LAY-2
  6
CONTINUOUS
 62
     6
100
AcDbLine
 10
1339.991626
 20
1378.986977001
 30
0.0
 11
1339.991626
 21
1379.486977001
 31
0.0
  0
LINE
  5
2A3
330
1F
100
AcDbEntity
  8
LAY-2
  6
CONTINUOUS
 62
     6
100
AcDbLine
 10
1340.491626
 20
1379.986977001
 30
0.0
 11
1353.491634
 21
1379.986977001
 31
0.0
  0
ARC
  5
2A4
330
1F
100
AcDbEntity
  8
LAY-2
  6
CONTINUOUS
 62
     6
100
AcDbCircle
 10
1340.491626
 20
1379.486977001
 30
0.0
 40
0.5
100
AcDbArc
 50
90.00000000000001
 51
180.0
  0
ARC
  5
2A5
330
1F
100
AcDbEntity
  8
LAY-2
  6
CONTINUOUS
 62
     6
100
AcDbCircle
 10
1353.491634
 20
1379.486977001
 30
0.0
 40
0.5
100
AcDbArc
 50
0.0
 51
90.00000000000001
  0
LINE
  5
2A6
330
1F
100
AcDbEntity
  8
LAY-2
  6
CONTINUOUS
 62
     6
100
AcDbLine
 10
1334.491626
 20
1376.486977001
 30
0.0
 11
1334.491626
 21
1366.460244001
 31
0.0
  0
LINE
  5
2A7
330
1F
100
AcDbEntity
  8
LAY-2
  6
CONTINUOUS
 62
     6
100
AcDbLine
 10
1333.741626
 20
1373.986977001
 30
0.0
 11
1334.491626
 21
1373.986977001
 31
0.0
  0
LINE
  5
2A8
330
1F
100
AcDbEntity
  8
LAY-2
  6
CONTINUOUS
 62
     6
100
AcDbLine
 10
1333.741626
 20
1373.986977001
 30
0.0
 11
1333.741626
 21
1366.657388001
 31
0.0
  0
LINE
  5
2A9
330
1F
100
AcDbEntity
  8
LAY-2
  6
CONTINUOUS
 62
     6
100
AcDbLine
 10
1335.644519
 20
1359.986977001
 30
0.0
 11
1336.432804
 21
1359.986977001
 31
0.0
  0
LINE
  5
2AA
330
1F
100
AcDbEntity
  8
LAY-2
  6
CONTINUOUS
 62
     6
100
AcDbLine
 10
1335.644519
 20
1359.986977001
 30
0.0
 11
1333.984394
 21
1365.118264001
 31
0.0
  0
LINE
  5
2AB
330
1F
100
AcDbEntity
  8
LAY-2
  6
CONTINUOUS
 62
     6
100
AcDbLine
 10
1337.491626
 20
1373.486977001
 30
0.0
 11
1337.491626
 21
1366.419045001
 31
0.0
  0
LINE
  5
2AC
330
1F
100
AcDbEntity
  8
LAY-2
  6
CONTINUOUS
 62
     6
100
AcDbLine
 10
1339.491626
 20
1375.486977001
 30
0.0
 11
1354.491634
 21
1375.486977001
 31
0.0
  0
ARC
  5
2AD
330
1F
100
AcDbEntity
  8
LAY-2
  6
CONTINUOUS
 62
     6
100
AcDbCircle
 10
1337.491626
 20
1366.460244001
 30
0.0
 40
3.000000000000003
100
AcDbArc
 50
180.0
 51
197.9279789999973
  0
ARC
  5
2AE
330
1F
100
AcDbEntity
  8
LAY-2
  6
CONTINUOUS
 62
     6
100
AcDbCircle
 10
1338.741626
 20
1366.657388001
 30
0.0
 40
5.0
100
AcDbArc
 50
180.0
 51
197.9279789999976
  0
ARC
  5
2AF
330
1F
100
AcDbEntity
  8
LAY-2
  6
CONTINUOUS
 62
     6
100
AcDbCircle
 10
1339.491626
 20
1373.486977001
 30
0.0
 40
2.0
100
AcDbArc
 50
90.00000000000001
 51
180.0
  0
ARC
  5
2B0
330
1F
100
AcDbEntity
  8
LAY-2
  6
CONTINUOUS
 62
     6
100
AcDbCircle
 10
1340.491626
 20
1366.419045001
 30
0.0
 40
3.000000000000003
100
AcDbArc
 50
180.0
 51
196.3895260000049
  0
LINE
  5
2B1
330
1F
100
AcDbEntity
  8
LAY-2
  6
CONTINUOUS
 62
     6
100
AcDbLine
 10
1339.991642
 20
1348.986977001
 30
0.0
 11
1340.741642
 21
1346.986977001
 31
0.0
  0
LINE
  5
2B2
330
1F
100
AcDbEntity
  8
LAY-2
  6
CONTINUOUS
 62
     6
100
AcDbLine
 10
1353.991634
 20
1348.986977001
 30
0.0
 11
1353.241634
 21
1346.986977001
 31
0.0
  0
LINE
  5
2B3
330
1F
100
AcDbEntity
  8
LAY-2
  6
CONTINUOUS
 62
     6
100
AcDbLine
 10
1341.241642
 20
1346.986977001
 30
0.0
 11
1341.352741
 21
1345.486977001
 31
0.0
  0
LINE
  5
2B4
330
1F
100
AcDbEntity
  8
LAY-2
  6
CONTINUOUS
 62
     6
100
AcDbLine
 10
1352.741634
 20
1346.986977001
 30
0.0
 11
1352.630519
 21
1345.486977001
 31
0.0
  0
LINE
  5
2B5
330
1F
100
AcDbEntity
  8
LAY-2
  6
CONTINUOUS
 62
     6
100
AcDbLine
 10
1341.908298
 20
1337.986977001
 30
0.0
 11
1342.019413
 21
1336.486977001
 31
0.0
  0
LINE
  5
2B6
330
1F
100
AcDbEntity
  8
LAY-2
  6
CONTINUOUS
 62
     6
100
AcDbLine
 10
1341.686084
 20
1340.986977001
 30
0.0
 11
1341.797184
 21
1339.486977001
 31
0.0
  0
LINE
  5
2B7
330
1F
100
AcDbEntity
  8
LAY-2
  6
CONTINUOUS
 62
     6
100
AcDbLine
 10
1341.463871
 20
1343.986977001
 30
0.0
 11
1341.57497
 21
1342.486977001
 31
0.0
  0
LINE
  5
2B8
330
1F
100
AcDbEntity
  8
LAY-2
  6
CONTINUOUS
 62
     6
100
AcDbLine
 10
1352.297191
 20
1340.986977001
 30
0.0
 11
1352.186077
 21
1339.486977001
 31
0.0
  0
LINE
  5
2B9
330
1F
100
AcDbEntity
  8
LAY-2
  6
CONTINUOUS
 62
     6
100
AcDbLine
 10
1352.519405
 20
1343.986977001
 30
0.0
 11
1352.40829
 21
1342.486977001
 31
0.0
  0
LINE
  5
2BA
330
1F
100
AcDbEntity
  8
LAY-2
  6
CONTINUOUS
 62
     6
100
AcDbLine
 10
1352.297176
 20
1340.986977001
 30
0.0
 11
1352.186077
 21
1339.486977001
 31
0.0
  0
LINE
  5
2BB
330
1F
100
AcDbEntity
  8
LAY-2
  6
CONTINUOUS
 62
     6
100
AcDbLine
 10
1352.074962
 20
1337.986977001
 30
0.0
 11
1351.963863
 21
1336.486977001
 31
0.0
  0
LINE
  5
2BC
330
1F
100
AcDbEntity
  8
LAY-2
  6
CONTINUOUS
 62
     6
100
AcDbLine
 10
1351.491634
 20
1348.986977001
 30
0.0
 11
1351.491634
 21
1350.486977001
 31
0.0
  0
LINE
  5
2BD
330
1F
100
AcDbEntity
  8
LAY-2
  6
CONTINUOUS
 62
     6
100
AcDbLine
 10
1342.491642
 20
1348.986977001
 30
0.0
 11
1342.491642
 21
1350.486977001
 31
0.0
  0
LINE
  5
2BE
330
1F
100
AcDbEntity
  8
LAY-2
  6
CONTINUOUS
 62
     6
100
AcDbLine
 10
1342.491642
 20
1350.486977001
 30
0.0
 11
1351.491634
 21
1350.486977001
 31
0.0
  0
LINE
  5
2BF
330
1F
100
AcDbEntity
  8
LAY-2
  6
CONTINUOUS
 62
     6
100
AcDbLine
 10
1339.991642
 20
1348.986977001
 30
0.0
 11
1353.991619
 21
1348.986977001
 31
0.0
  0
LINE
  5
2C0
330
1F
100
AcDbEntity
  8
LAY-2
  6
CONTINUOUS
 62
     6
100
AcDbLine
 10
1340.741642
 20
1346.986977001
 30
0.0
 11
1353.241619
 21
1346.986977001
 31
0.0
  0
LINE
  5
2C1
330
1F
100
AcDbEntity
  8
LAY-2
  6
CONTINUOUS
 62
     6
100
AcDbLine
 10
1341.796329
 20
1333.486977001
 30
0.0
 11
1341.991642
 21
1330.986977001
 31
0.0
  0
LINE
  5
2C2
330
1F
100
AcDbEntity
  8
LAY-2
  6
CONTINUOUS
 62
     6
100
AcDbLine
 10
1352.186947
 20
1333.486977001
 30
0.0
 11
1351.991634
 21
1330.986977001
 31
0.0
  0
LINE
  5
2C3
330
1F
100
AcDbEntity
  8
LAY-2
  6
CONTINUOUS
 62
     6
100
AcDbLine
 10
1342.130527
 20
1334.986977001
 30
0.0
 11
1342.241642
 21
1333.486977001
 31
0.0
  0
LINE
  5
2C4
330
1F
100
AcDbEntity
  8
LAY-2
  6
CONTINUOUS
 62
     6
100
AcDbLine
 10
1351.852733
 20
1334.986977001
 30
0.0
 11
1351.741634
 21
1333.486977001
 31
0.0
  0
LINE
  5
2C5
330
1F
100
AcDbEntity
  8
LAY-2
  6
CONTINUOUS
 62
     6
100
AcDbLine
 10
1341.796329
 20
1333.486977001
 30
0.0
 11
1352.186947
 21
1333.486977001
 31
0.0
  0
LINE
  5
2C6
330
1F
100
AcDbEntity
  8
LAY-2
  6
CONTINUOUS
 62
     6
100
AcDbLine
 10
1341.991642
 20
1330.986977001
 30
0.0
 11
1351.991634
 21
1330.986977001
 31
0.0
  0
ARC
  5
2C7
330
1F
100
AcDbEntity
  8
LAY-2
  6
CONTINUOUS
 62
     6
100
AcDbCircle
 10
1356.991634
 20
1376.486977001
 30
0.0
 40
2.5
100
AcDbArc
 50
0.0
 51
90.00000000000001
  0
LINE
  5
2C8
330
1F
100
AcDbEntity
  8
LAY-2
  6
CONTINUOUS
 62
     6
100
AcDbLine
 10
1359.491634
 20
1376.486977001
 30
0.0
 11
1359.491634
 21
1366.460244001
 31
0.0
  0
LINE
  5
2C9
330
1F
100
AcDbEntity
  8
LAY-2
  6
CONTINUOUS
 62
     6
100
AcDbLine
 10
1360.241634
 20
1373.986977001
 30
0.0
 11
1360.241634
 21
1366.657388001
 31
0.0
  0
LINE
  5
2CA
330
1F
100
AcDbEntity
  8
LAY-2
  6
CONTINUOUS
 62
     6
100
AcDbLine
 10
1358.338741
 20
1359.986977001
 30
0.0
 11
1359.998851
 21
1365.118325001
 31
0.0
  0
LINE
  5
2CB
330
1F
100
AcDbEntity
  8
LAY-2
  6
CONTINUOUS
 62
     6
100
AcDbLine
 10
1357.550457
 20
1359.986977001
 30
0.0
 11
1358.338741
 21
1359.986977001
 31
0.0
  0
LINE
  5
2CC
330
1F
100
AcDbEntity
  8
LAY-2
  6
CONTINUOUS
 62
     6
100
AcDbLine
 10
1359.491634
 20
1373.986977001
 30
0.0
 11
1360.241634
 21
1373.986977001
 31
0.0
  0
LINE
  5
2CD
330
1F
100
AcDbEntity
  8
LAY-2
  6
CONTINUOUS
 62
     6
100
AcDbLine
 10
1356.491634
 20
1373.486977001
 30
0.0
 11
1356.491634
 21
1366.419045001
 31
0.0
  0
ARC
  5
2CE
330
1F
100
AcDbEntity
  8
LAY-2
  6
CONTINUOUS
 62
     6
100
AcDbCircle
 10
1356.491634
 20
1366.460244001
 30
0.0
 40
3.000000000000003
100
AcDbArc
 50
342.0720210000027
 51
0.0
  0
ARC
  5
2CF
330
1F
100
AcDbEntity
  8
LAY-2
  6
CONTINUOUS
 62
     6
100
AcDbCircle
 10
1355.241634
 20
1366.657388001
 30
0.0
 40
5.0
100
AcDbArc
 50
342.0720210000027
 51
0.0
  0
ARC
  5
2D0
330
1F
100
AcDbEntity
  8
LAY-2
  6
CONTINUOUS
 62
     6
100
AcDbCircle
 10
1353.491634
 20
1366.419045001
 30
0.0
 40
3.000000000000003
100
AcDbArc
 50
343.6105349999966
 51
0.0
  0
ARC
  5
2D1
330
1F
100
AcDbEntity
  8
LAY-2
  6
CONTINUOUS
 62
     6
100
AcDbCircle
 10
1646.99163
 20
-406.4999390000003
 30
0.0
 40
1998.481000000001
100
AcDbArc
 50
86.614349
 51
90.00000000000001
  0
ARC
  5
2D2
330
1F
100
AcDbEntity
  8
LAY-2
  6
CONTINUOUS
 62
     6
100
AcDbCircle
 10
1646.992921556
 20
2058.788762368
 30
0.0
 40
531.3458860000001
100
AcDbArc
 50
269.9998607297001
 51
285.3999520072002
  0
ARC
  5
2D3
330
1F
100
AcDbEntity
  8
LAY-2
  6
CONTINUOUS
 62
     6
100
AcDbCircle
 10
1646.98929932
 20
3299.447219117001
 30
0.0
 40
1799.236328000001
100
AcDbArc
 50
264.234742
 51
275.7652590000002
  0
ARC
  5
2D4
330
1F
100
AcDbEntity
  8
LAY-2
  6
CONTINUOUS
 62
     6
100
AcDbCircle
 10
1646.989886284
 20
6021.344186955001
 30
0.0
 40
4514.486328000002
100
AcDbArc
 50
267.7312390454001
 51
272.2688053911
  0
ARC
  5
2D5
330
1F
100
AcDbEntity
  8
LAY-2
  6
CONTINUOUS
 62
     6
100
AcDbCircle
 10
1646.991090785
 20
7489.702129584
 30
0.0
 40
6018.150391000002
100
AcDbArc
 50
268.1907960000001
 51
271.8092050000004
  0
ARC
  5
2D6
330
1F
100
AcDbEntity
  8
LAY-2
  6
CONTINUOUS
 62
     6
100
AcDbCircle
 10
1646.99163
 20
-406.4999390000003
 30
0.0
 40
2000.000000000001
100
AcDbArc
 50
86.614349
 51
90.00000000000001
  0
ARC
  5
2D7
330
1F
100
AcDbEntity
  8
LAY-2
  6
CONTINUOUS
 62
     6
100
AcDbCircle
 10
1558.40728
 20
1090.882019
 30
0.0
 40
498.4810000000002
100
AcDbArc
 50
93.38565099999994
 51
100.3580507821
  0
ARC
  5
2D8
330
1F
100
AcDbEntity
  8
LAY-2
  6
CONTINUOUS
 62
     6
100
AcDbCircle
 10
1646.990338444
 20
2058.788762368
 30
0.0
 40
531.3458860000001
100
AcDbArc
 50
254.6000479928001
 51
270.0001392703002
  0
ARC
  5
2D9
330
1F
100
AcDbEntity
  8
LAY-2
  6
CONTINUOUS
 62
     6
100
AcDbCircle
 10
1558.40728
 20
1090.882019
 30
0.0
 40
500.0000000000003
100
AcDbArc
 50
93.385651
 51
100.4062595368
  0
LINE
  5
2DA
330
1F
100
AcDbEntity
  8
LAY-2
  6
CONTINUOUS
 62
     6
100
AcDbLine
 10
1504.48931438
 20
1467.000001761
 30
0.0
 11
1549.48931438
 21
1466.99988534
 31
0.0
  0
ARC
  5
2DB
330
1F
100
AcDbEntity
  8
LAY-2
  6
CONTINUOUS
 62
     6
100
AcDbCircle
 10
1602.834283655
 20
1530.837608891
 30
0.0
 40
150.0000000000001
100
AcDbArc
 50
177.3218602671
 51
181.9044731803001
  0
ARC
  5
2DC
330
1F
100
AcDbEntity
  8
LAY-2
  6
CONTINUOUS
 62
     6
100
AcDbCircle
 10
1436.979579575
 20
1529.821402948
 30
0.0
 40
2.0
100
AcDbArc
 50
90.99999999999194
 51
169.134020508297
  0
LINE
  5
2DD
330
1F
100
AcDbEntity
  8
LAY-2
  6
CONTINUOUS
 62
     6
100
AcDbLine
 10
1447.340778251
 20
1532.002563
 30
0.0
 11
1447.340778251
 21
1502.002563
 31
0.0
  0
LINE
  5
2DE
330
1F
100
AcDbEntity
  8
LAY-2
  6
CONTINUOUS
 62
     6
100
AcDbLine
 10
1451.70806
 20
1539.779968
 30
0.0
 11
1449.009701763
 21
1462.517451633
 31
0.0
  0
LINE
  5
2DF
330
1F
100
AcDbEntity
  8
LAY-2
  6
CONTINUOUS
 62
     6
100
AcDbLine
 10
1447.60266075
 20
1532.006926907
 30
0.0
 11
1446.99163
 21
1462.0
 31
0.0
  0
ARC
  5
2E0
330
1F
100
AcDbEntity
  8
LAY-2
  6
CONTINUOUS
 62
     6
100
AcDbCircle
 10
1503.760395251
 20
1517.002563
 30
0.0
 40
70.00000000000004
100
AcDbArc
 50
169.0560933161001
 51
190.8659794916999
  0
ARC
  5
2E1
330
1F
100
AcDbEntity
  8
LAY-2
  6
CONTINUOUS
 62
     6
100
AcDbCircle
 10
1540.098875546
 20
1434.397529554
 30
0.0
 40
80.00009200000005
100
AcDbArc
 50
111.3503603389999
 51
113.470459
  0
ARC
  5
2E2
330
1F
100
AcDbEntity
  8
LAY-2
  6
CONTINUOUS
 62
     6
100
AcDbCircle
 10
1505.448853369
 20
1514.199756806
 30
0.0
 40
7.000001
100
AcDbArc
 50
270.0000000000002
 51
293.4702150000008
  0
LINE
  5
2E3
330
1F
100
AcDbEntity
  8
LAY-2
  6
CONTINUOUS
 62
     6
100
AcDbLine
 10
1506.93768707
 20
1507.359913612
 30
0.0
 11
1506.912663846
 21
1505.925587598
 31
0.0
  0
ARC
  5
2E4
330
1F
100
AcDbEntity
  8
LAY-2
  6
CONTINUOUS
 62
     6
100
AcDbCircle
 10
1497.609743216
 20
1512.634688565
 30
0.0
 40
5.999994000000004
100
AcDbArc
 50
211.4710071084008
 51
270.0000000000002
  0
LINE
  5
2E5
330
1F
100
AcDbEntity
  8
LAY-2
  6
CONTINUOUS
 62
     6
100
AcDbLine
 10
1497.609682216
 20
1506.634694565
 30
0.0
 11
1498.609743216
 21
1506.634695106
 31
0.0
  0
ARC
  5
2E6
330
1F
100
AcDbEntity
  8
LAY-2
  6
CONTINUOUS
 62
     6
100
AcDbCircle
 10
1465.445732183
 20
1501.352394892
 30
0.0
 40
8.000001000000006
100
AcDbArc
 50
84.2347719999992
 51
132.0057989999996
  0
ARC
  5
2E7
330
1F
100
AcDbEntity
  8
LAY-2
  6
CONTINUOUS
 62
     6
100
AcDbCircle
 10
1498.609743216
 20
1512.634689106
 30
0.0
 40
5.999994000000004
100
AcDbArc
 50
270.0000000000002
 51
324.3680197359993
  0
ARC
  5
2E8
330
1F
100
AcDbEntity
  8
LAY-2
  6
CONTINUOUS
 62
     6
100
AcDbCircle
 10
1499.489312887
 20
1469.759788777
 30
0.0
 40
5.000018000000004
100
AcDbArc
 50
359.9992989999993
 51
44.64169400000106
  0
ARC
  5
2E9
330
1F
100
AcDbEntity
  8
LAY-2
  6
CONTINUOUS
 62
     6
100
AcDbCircle
 10
1507.489315049
 20
1464.999994
 30
0.0
 40
2.999994
100
AcDbArc
 50
180.0
 51
270.0000000000002
  0
LINE
  5
2EA
330
1F
100
AcDbEntity
  8
LAY-2
  6
CONTINUOUS
 62
     6
100
AcDbLine
 10
1504.489312887
 20
1469.759669482
 30
0.0
 11
1504.489315462
 21
1464.999994
 31
0.0
  0
ARC
  5
2EB
330
1F
100
AcDbEntity
  8
LAY-2
  6
CONTINUOUS
 62
     6
100
AcDbCircle
 10
1486.489193045
 20
1465.770523743
 30
0.0
 40
2.999994
100
AcDbArc
 50
180.0
 51
270.0000000000002
  0
LINE
  5
2EC
330
1F
100
AcDbEntity
  8
LAY-2
  6
CONTINUOUS
 62
     6
100
AcDbLine
 10
1483.489188715
 20
1473.77284112
 30
0.0
 11
1483.489193045
 21
1465.77064412
 31
0.0
  0
LINE
  5
2ED
330
1F
100
AcDbEntity
  8
LAY-2
  6
CONTINUOUS
 62
     6
100
AcDbLine
 10
1505.481825032
 20
1462.770656019
 30
0.0
 11
1486.489194668
 21
1462.770645743
 31
0.0
  0
LINE
  5
2EE
330
1F
100
AcDbEntity
  8
LAY-2
  6
CONTINUOUS
 62
     6
100
AcDbLine
 10
1447.432423795
 20
1512.502563
 30
0.0
 11
1447.340778251
 21
1512.502563
 31
0.0
  0
LINE
  5
2EF
330
1F
100
AcDbEntity
  8
LAY-2
  6
CONTINUOUS
 62
     6
100
AcDbLine
 10
1447.510977118
 20
1521.502563
 30
0.0
 11
1447.340778251
 21
1521.502563
 31
0.0
  0
ARC
  5
2F0
330
1F
100
AcDbEntity
  8
LAY-2
  6
CONTINUOUS
 62
     6
100
AcDbCircle
 10
1444.99163
 20
1477.0
 30
0.0
 40
2.0
100
AcDbArc
 50
90.00000000000001
 51
180.0
  0
LINE
  5
2F1
330
1F
100
AcDbEntity
  8
LAY-2
  6
CONTINUOUS
 62
     6
100
AcDbLine
 10
1446.99163
 20
1479.0
 30
0.0
 11
1444.99163
 21
1479.0
 31
0.0
  0
LINE
  5
2F2
330
1F
100
AcDbEntity
  8
LAY-2
  6
CONTINUOUS
 62
     6
100
AcDbLine
 10
1455.032706
 20
1479.999939
 30
0.0
 11
1457.132597182
 21
1479.999939
 31
0.0
  0
ARC
  5
2F3
330
1F
100
AcDbEntity
  8
LAY-2
  6
CONTINUOUS
 62
     6
100
AcDbCircle
 10
1436.979579575
 20
1504.183723052
 30
0.0
 40
2.0
100
AcDbArc
 50
190.8659794917029
 51
269.0000000000001
  0
LINE
  5
2F4
330
1F
100
AcDbEntity
  8
LAY-2
  6
CONTINUOUS
 62
     6
100
AcDbLine
 10
1447.340778251
 20
1502.002563
 30
0.0
 11
1436.944674762
 21
1502.184027661
 31
0.0
  0
LINE
  5
2F5
330
1F
100
AcDbEntity
  8
LAY-2
  6
CONTINUOUS
 62
     6
100
AcDbLine
 10
1446.99163
 20
1462.0
 30
0.0
 11
1442.99163
 21
1462.0
 31
0.0
  0
ARC
  5
2F6
330
1F
100
AcDbEntity
  8
LAY-2
  6
CONTINUOUS
 62
     6
100
AcDbCircle
 10
1447.496013118
 20
1462.5
 30
0.0
 40
0.5
100
AcDbArc
 50
179.4999267112058
 51
270.0000000000002
  0
ARC
  5
2F7
330
1F
100
AcDbEntity
  8
LAY-2
  6
CONTINUOUS
 62
     6
100
AcDbCircle
 10
1449.509397111
 20
1462.5
 30
0.0
 40
0.5
100
AcDbArc
 50
177.9997839373012
 51
270.0000000000002
  0
LINE
  5
2F8
330
1F
100
AcDbEntity
  8
LAY-2
  6
CONTINUOUS
 62
     6
100
AcDbLine
 10
1449.575675
 20
1462.0
 30
0.0
 11
1450.035697
 21
1475.174438
 31
0.0
  0
LINE
  5
2F9
330
1F
100
AcDbEntity
  8
LAY-2
  6
CONTINUOUS
 62
     6
100
AcDbLine
 10
1436.486247613
 20
1468.505382387
 30
0.0
 11
1442.99163
 21
1475.010764774
 31
0.0
  0
LINE
  5
2FA
330
1F
100
AcDbEntity
  8
LAY-2
  6
CONTINUOUS
 62
     6
100
AcDbLine
 10
1442.99163
 20
1462.0
 30
0.0
 11
1436.486247613
 21
1468.505382387
 31
0.0
  0
LINE
  5
2FB
330
1F
100
AcDbEntity
  8
LAY-2
  6
CONTINUOUS
 62
     6
100
AcDbLine
 10
1442.99163
 20
1462.0
 30
0.0
 11
1442.99163
 21
1477.0
 31
0.0
  0
LINE
  5
2FC
330
1F
100
AcDbEntity
  8
LAY-2
  6
CONTINUOUS
 62
     6
100
AcDbLine
 10
1446.99163
 20
1462.0
 30
0.0
 11
1446.99163
 21
1479.0
 31
0.0
  0
ARC
  5
2FD
330
1F
100
AcDbEntity
  8
LAY-2
  6
CONTINUOUS
 62
     6
100
AcDbCircle
 10
1455.032706
 20
1474.999939
 30
0.0
 40
5.0
100
AcDbArc
 50
90.00000000000001
 51
177.9999999999997
  0
LINE
  5
2FE
330
1F
100
AcDbEntity
  8
LAY-2
  6
CONTINUOUS
 62
     6
100
AcDbLine
 10
1457.677062975
 20
1513.955445155
 30
0.0
 11
1456.989249294
 21
1474.551269782
 31
0.0
  0
ARC
  5
2FF
330
1F
100
AcDbEntity
  8
LAY-2
  6
CONTINUOUS
 62
     6
100
AcDbCircle
 10
1468.908300678
 20
1526.384099027
 30
0.0
 40
16.0
100
AcDbArc
 50
181.9045118259003
 51
267.7312390454002
  0
ARC
  5
300
330
1F
100
AcDbEntity
  8
LAY-2
  6
CONTINUOUS
 62
     6
100
AcDbCircle
 10
1471.204778027
 20
1567.978155695
 30
0.0
 40
13.48100000000001
100
AcDbArc
 50
100.3580507821002
 51
164.9232658311996
  0
ARC
  5
301
330
1F
100
AcDbEntity
  8
LAY-2
  6
CONTINUOUS
 62
     6
100
AcDbCircle
 10
1470.803379538
 20
1567.904614507
 30
0.0
 40
15.00000000000001
100
AcDbArc
 50
100.4062595368003
 51
165.6933461441996
  0
ARC
  5
302
330
1F
100
AcDbEntity
  8
LAY-2
  6
CONTINUOUS
 62
     6
100
AcDbCircle
 10
1602.99163
 20
1532.393243207
 30
0.0
 40
150.0000000000001
100
AcDbArc
 50
164.9563195574
 51
177.9254441289
  0
LINE
  5
303
330
1F
100
AcDbEntity
  8
LAY-2
  6
CONTINUOUS
 62
     6
100
AcDbLine
 10
1450.988391375
 20
1533.0
 30
0.0
 11
1448.632556375
 21
1533.0
 31
0.0
  0
LINE
  5
304
330
1F
100
AcDbEntity
  8
LAY-2
  6
CONTINUOUS
 62
     6
100
AcDbLine
 10
1450.971057375
 20
1532.502563
 30
0.0
 11
1448.102641706
 21
1532.502563
 31
0.0
  0
ARC
  5
305
330
1F
100
AcDbEntity
  8
LAY-2
  6
CONTINUOUS
 62
     6
100
AcDbCircle
 10
1448.102641706
 20
1532.002563
 30
0.0
 40
0.5
100
AcDbArc
 50
90.00000000000001
 51
179.4999267112058
  0
ARC
  5
306
330
1F
100
AcDbEntity
  8
LAY-2
  6
CONTINUOUS
 62
     6
100
AcDbCircle
 10
1450.971057375
 20
1533.002563
 30
0.0
 40
0.5
100
AcDbArc
 50
270.0000000000002
 51
357.9997839373013
  0
LINE
  5
307
330
1F
100
AcDbEntity
  8
LAY-2
  6
CONTINUOUS
 62
     6
100
AcDbLine
 10
1451.453899941
 20
1532.502563
 30
0.0
 11
1450.971057375
 21
1532.502563
 31
0.0
  0
ARC
  5
308
330
1F
100
AcDbEntity
  8
LAY-2
  6
CONTINUOUS
 62
     6
100
AcDbCircle
 10
1448.683093375
 20
1532.502563
 30
0.0
 40
0.5
100
AcDbArc
 50
95.80453500001474
 51
180.0
  0
ARC
  5
309
330
1F
100
AcDbEntity
  8
LAY-2
  6
CONTINUOUS
 62
     6
100
AcDbCircle
 10
1450.988391375
 20
1533.5
 30
0.0
 40
0.5
100
AcDbArc
 50
270.0000000000002
 51
357.9992680000033
  0
LINE
  5
30A
330
1F
100
AcDbEntity
  8
LAY-2
  6
CONTINUOUS
 62
     6
100
AcDbLine
 10
1451.471272702
 20
1533.0
 30
0.0
 11
1450.988391375
 21
1533.0
 31
0.0
  0
LINE
  5
30B
330
1F
100
AcDbEntity
  8
LAY-2
  6
CONTINUOUS
 62
     6
100
AcDbLine
 10
1447.340778251
 20
1532.002563
 30
0.0
 11
1436.944674762
 21
1531.821098339
 31
0.0
  0
ARC
  5
30C
330
1F
100
AcDbEntity
  8
LAY-2
  6
CONTINUOUS
 62
     6
100
AcDbCircle
 10
1601.61663
 20
1534.544556
 30
0.0
 40
150.0000000000001
100
AcDbArc
 50
165.6933461442001
 51
177.9998169999999
  0
ARC
  5
30D
330
1F
100
AcDbEntity
  8
LAY-2
  6
CONTINUOUS
 62
     6
100
AcDbCircle
 10
1546.489315049
 20
1464.999893101
 30
0.0
 40
2.999994
100
AcDbArc
 50
270.0000000000002
 51
0.0
  0
LINE
  5
30E
330
1F
100
AcDbEntity
  8
LAY-2
  6
CONTINUOUS
 62
     6
100
AcDbLine
 10
1549.489312887
 20
1469.75957183
 30
0.0
 11
1549.489315462
 21
1464.999893101
 31
0.0
  0
ARC
  5
30F
330
1F
100
AcDbEntity
  8
LAY-2
  6
CONTINUOUS
 62
     6
100
AcDbCircle
 10
1554.489312887
 20
1469.759574535
 30
0.0
 40
5.000006
100
AcDbArc
 50
149.0684509999985
 51
180.0007329999993
  0
ARC
  5
310
330
1F
100
AcDbEntity
  8
LAY-2
  6
CONTINUOUS
 62
     6
100
AcDbCircle
 10
1646.99163
 20
-406.4999390000003
 30
0.0
 40
1998.481000000001
100
AcDbArc
 50
90.00000000000001
 51
93.385651
  0
ARC
  5
311
330
1F
100
AcDbEntity
  8
LAY-2
  6
CONTINUOUS
 62
     6
100
AcDbCircle
 10
1646.99163
 20
-406.4999390000003
 30
0.0
 40
2000.000000000001
100
AcDbArc
 50
90.00000000000001
 51
93.385651
  0
ARC
  5
312
330
1F
100
AcDbEntity
  8
LAY-2
  6
CONTINUOUS
 62
     6
100
AcDbCircle
 10
1822.778481973
 20
1567.978155695
 30
0.0
 40
13.48100000000001
100
AcDbArc
 50
15.0767341688395
 51
79.64194921789984
  0
ARC
  5
313
330
1F
100
AcDbEntity
  8
LAY-2
  6
CONTINUOUS
 62
     6
100
AcDbCircle
 10
1822.778481973
 20
1567.978155695
 30
0.0
 40
15.00000000000001
100
AcDbArc
 50
15.07673416883962
 51
79.6419492179003
  0
ARC
  5
314
330
1F
100
AcDbEntity
  8
LAY-2
  6
CONTINUOUS
 62
     6
100
AcDbCircle
 10
1828.532783183
 20
1501.352346341
 30
0.0
 40
8.000002
100
AcDbArc
 50
43.3706670000002
 51
95.7654419999998
  0
ARC
  5
315
330
1F
100
AcDbEntity
  8
LAY-2
  6
CONTINUOUS
 62
     6
100
AcDbCircle
 10
1825.074958017
 20
1526.384237141
 30
0.0
 40
16.0
100
AcDbArc
 50
272.2688053911
 51
358.0955268197002
  0
LINE
  5
316
330
1F
100
AcDbEntity
  8
LAY-2
  6
CONTINUOUS
 62
     6
100
AcDbLine
 10
1789.489192384
 20
1466.993068554
 30
0.0
 11
1744.489192384
 21
1466.993184976
 31
0.0
  0
ARC
  5
317
330
1F
100
AcDbEntity
  8
LAY-2
  6
CONTINUOUS
 62
     6
100
AcDbCircle
 10
1739.489190887
 20
1469.75979663
 30
0.0
 40
5.000009
100
AcDbArc
 50
359.9992990000015
 51
30.93136599999952
  0
LINE
  5
318
330
1F
100
AcDbEntity
  8
LAY-2
  6
CONTINUOUS
 62
     6
100
AcDbLine
 10
1744.489190887
 20
1469.759677335
 30
0.0
 11
1744.489193466
 21
1464.993177215
 31
0.0
  0
ARC
  5
319
330
1F
100
AcDbEntity
  8
LAY-2
  6
CONTINUOUS
 62
     6
100
AcDbCircle
 10
1747.489193049
 20
1464.993177215
 30
0.0
 40
2.999994
100
AcDbArc
 50
180.0
 51
270.0000000000002
  0
ARC
  5
31A
330
1F
100
AcDbEntity
  8
LAY-2
  6
CONTINUOUS
 62
     6
100
AcDbCircle
 10
1796.373598216
 20
1512.634606212
 30
0.0
 40
5.999994000000004
100
AcDbArc
 50
270.0000000000002
 51
328.5313322163998
  0
ARC
  5
31B
330
1F
100
AcDbEntity
  8
LAY-2
  6
CONTINUOUS
 62
     6
100
AcDbCircle
 10
1795.373475216
 20
1512.634605671
 30
0.0
 40
5.999994000000004
100
AcDbArc
 50
215.6297629659005
 51
270.0000000000002
  0
LINE
  5
31C
330
1F
100
AcDbEntity
  8
LAY-2
  6
CONTINUOUS
 62
     6
100
AcDbLine
 10
1796.373598216
 20
1506.634612212
 30
0.0
 11
1795.373475216
 21
1506.634611671
 31
0.0
  0
LINE
  5
31D
330
1F
100
AcDbEntity
  8
LAY-2
  6
CONTINUOUS
 62
     6
100
AcDbLine
 10
1787.04559807
 20
1507.359943165
 30
0.0
 11
1787.070622846
 21
1505.925495178
 31
0.0
  0
ARC
  5
31E
330
1F
100
AcDbEntity
  8
LAY-2
  6
CONTINUOUS
 62
     6
100
AcDbCircle
 10
1807.489315045
 20
1465.770453421
 30
0.0
 40
2.999994
100
AcDbArc
 50
270.0000000000002
 51
0.0
  0
LINE
  5
31F
330
1F
100
AcDbEntity
  8
LAY-2
  6
CONTINUOUS
 62
     6
100
AcDbLine
 10
1810.489310716
 20
1473.772774044
 30
0.0
 11
1810.489315045
 21
1465.770577044
 31
0.0
  0
ARC
  5
320
330
1F
100
AcDbEntity
  8
LAY-2
  6
CONTINUOUS
 62
     6
100
AcDbCircle
 10
1794.489312887
 20
1469.759704388
 30
0.0
 40
5.000026000000006
100
AcDbArc
 50
135.3578189999984
 51
180.0010380000002
  0
LINE
  5
321
330
1F
100
AcDbEntity
  8
LAY-2
  6
CONTINUOUS
 62
     6
100
AcDbLine
 10
1789.489190887
 20
1469.759579682
 30
0.0
 11
1789.489193466
 21
1464.993076316
 31
0.0
  0
LINE
  5
322
330
1F
100
AcDbEntity
  8
LAY-2
  6
CONTINUOUS
 62
     6
100
AcDbLine
 10
1788.504238487
 20
1462.770565149
 30
0.0
 11
1807.489316668
 21
1462.770575421
 31
0.0
  0
ARC
  5
323
330
1F
100
AcDbEntity
  8
LAY-2
  6
CONTINUOUS
 62
     6
100
AcDbCircle
 10
1753.884321546
 20
1434.397645223
 30
0.0
 40
80.00009200000005
100
AcDbArc
 50
66.52954100000001
 51
68.64961693447007
  0
ARC
  5
324
330
1F
100
AcDbEntity
  8
LAY-2
  6
CONTINUOUS
 62
     6
100
AcDbCircle
 10
1788.534363369
 20
1514.19978797
 30
0.0
 40
7.000001
100
AcDbArc
 50
246.5295410000001
 51
270.0000000000002
  0
ARC
  5
325
330
1F
100
AcDbEntity
  8
LAY-2
  6
CONTINUOUS
 62
     6
100
AcDbCircle
 10
1786.489193049
 20
1464.993076316
 30
0.0
 40
2.999994
100
AcDbArc
 50
270.0000000000002
 51
0.0
  0
ARC
  5
326
330
1F
100
AcDbEntity
  8
LAY-2
  6
CONTINUOUS
 62
     6
100
AcDbCircle
 10
1735.57598
 20
1090.882019
 30
0.0
 40
498.4810000000002
100
AcDbArc
 50
79.64194921789995
 51
86.61434899999993
  0
ARC
  5
327
330
1F
100
AcDbEntity
  8
LAY-2
  6
CONTINUOUS
 62
     6
100
AcDbCircle
 10
1735.57598
 20
1090.882019
 30
0.0
 40
500.0000000000003
100
AcDbArc
 50
79.64194921790002
 51
86.614349
  0
ARC
  5
328
330
1F
100
AcDbEntity
  8
LAY-2
  6
CONTINUOUS
 62
     6
100
AcDbCircle
 10
1691.148976345
 20
1530.837608891
 30
0.0
 40
150.0000000000001
100
AcDbArc
 50
358.0955268197002
 51
2.678139732869891
  0
LINE
  5
329
330
1F
100
AcDbEntity
  8
LAY-2
  6
CONTINUOUS
 62
     6
100
AcDbLine
 10
1842.2752
 20
1539.779968
 30
0.0
 11
1844.973558237
 21
1462.517451633
 31
0.0
  0
LINE
  5
32A
330
1F
100
AcDbEntity
  8
LAY-2
  6
CONTINUOUS
 62
     6
100
AcDbLine
 10
1838.950614
 20
1479.999939
 30
0.0
 11
1836.845952635
 21
1479.999939
 31
0.0
  0
ARC
  5
32B
330
1F
100
AcDbEntity
  8
LAY-2
  6
CONTINUOUS
 62
     6
100
AcDbCircle
 10
1844.473863666
 20
1462.5
 30
0.0
 40
0.5
100
AcDbArc
 50
270.0000000000002
 51
2.000130172642372
  0
LINE
  5
32C
330
1F
100
AcDbEntity
  8
LAY-2
  6
CONTINUOUS
 62
     6
100
AcDbLine
 10
1844.407645
 20
1462.0
 30
0.0
 11
1843.947562
 21
1475.174438
 31
0.0
  0
ARC
  5
32D
330
1F
100
AcDbEntity
  8
LAY-2
  6
CONTINUOUS
 62
     6
100
AcDbCircle
 10
1838.950614
 20
1474.999939
 30
0.0
 40
5.0
100
AcDbArc
 50
2.000030999999443
 51
90.00000000000001
  0
LINE
  5
32E
330
1F
100
AcDbEntity
  8
LAY-2
  6
CONTINUOUS
 62
     6
100
AcDbLine
 10
1836.301452975
 20
1513.95540501
 30
0.0
 11
1836.989310294
 21
1474.551231382
 31
0.0
  0
ARC
  5
32F
330
1F
100
AcDbEntity
  8
LAY-2
  6
CONTINUOUS
 62
     6
100
AcDbCircle
 10
1690.99163
 20
1532.393243207
 30
0.0
 40
150.0000000000001
100
AcDbArc
 50
2.074555871079942
 51
15.04368044260992
  0
ARC
  5
330
330
1F
100
AcDbEntity
  8
LAY-2
  6
CONTINUOUS
 62
     6
100
AcDbCircle
 10
1692.425407
 20
1532.862976
 30
0.0
 40
150.0000000000001
100
AcDbArc
 50
2.549790878769995
 51
15.0767341688399
  0
ARC
  5
331
330
1F
100
AcDbEntity
  8
LAY-2
  6
CONTINUOUS
 62
     6
100
AcDbCircle
 10
1448.918352008
 20
1454.986667912
 30
0.0
 40
15.15000000000001
100
AcDbArc
 50
135.0000000000001
 51
180.0
  0
ARC
  5
332
330
1F
100
AcDbEntity
  8
LAY-2
  6
CONTINUOUS
 62
     6
100
AcDbCircle
 10
1448.918352008
 20
1454.986667912
 30
0.0
 40
9.15
100
AcDbArc
 50
135.0000000000013
 51
180.0
  0
ARC
  5
333
330
1F
100
AcDbEntity
  8
LAY-2
  6
CONTINUOUS
 62
     6
100
AcDbCircle
 10
1391.879993004
 20
1190.881871704
 30
0.0
 40
47.88835900390004
100
AcDbArc
 50
180.0
 51
0.0
  0
ARC
  5
334
330
1F
100
AcDbEntity
  8
LAY-2
  6
CONTINUOUS
 62
     6
100
AcDbCircle
 10
1391.879993004
 20
1190.881871704
 30
0.0
 40
41.8883590039
100
AcDbArc
 50
180.0
 51
0.0
  0
LINE
  5
335
330
1F
100
AcDbEntity
  8
LAY-2
  6
CONTINUOUS
 62
     6
100
AcDbLine
 10
1343.991634
 20
1190.881871704
 30
0.0
 11
1343.991634
 21
1330.986977001
 31
0.0
  0
LINE
  5
336
330
1F
100
AcDbEntity
  8
LAY-2
  6
CONTINUOUS
 62
     6
100
AcDbLine
 10
1349.991634
 20
1190.881871704
 30
0.0
 11
1349.991634
 21
1330.986977001
 31
0.0
  0
LINE
  5
337
330
1F
100
AcDbEntity
  8
LAY-2
  6
CONTINUOUS
 62
     6
100
AcDbLine
 10
1433.768352008
 20
1190.881871704
 30
0.0
 11
1433.768352008
 21
1454.986667912
 31
0.0
  0
LINE
  5
338
330
1F
100
AcDbEntity
  8
LAY-2
  6
CONTINUOUS
 62
     6
100
AcDbLine
 10
1439.768352008
 20
1190.881871704
 30
0.0
 11
1439.768352008
 21
1454.986667912
 31
0.0
  0
LINE
  5
339
330
1F
100
AcDbEntity
  8
LAY-2
  6
CONTINUOUS
 62
     6
100
AcDbLine
 10
1446.99163
 20
1462.0
 30
0.0
 11
1546.489315049
 21
1462.0
 31
0.0
  0
LINE
  5
33A
330
1F
100
AcDbEntity
  8
LAY-2
  6
CONTINUOUS
 62
     6
100
AcDbLine
 10
1844.407645
 20
1462.0
 30
0.0
 11
1747.489193049
 21
1462.0
 31
0.0
  0
LINE
  5
33B
330
1F
100
AcDbEntity
  8
LAY-2
  6
CONTINUOUS
 62
     6
100
AcDbLine
 10
430.1253389999999
 20
1200.933005961
 30
0.0
 11
430.1253389999999
 21
1422.244088461
 31
0.0
  0
LINE
  5
33C
330
1F
100
AcDbEntity
  8
LAY-2
  6
CONTINUOUS
 62
     6
100
AcDbLine
 10
434.125339
 20
1201.583005961
 30
0.0
 11
434.125339
 21
1422.244088461
 31
0.0
  0
LINE
  5
33D
330
1F
100
AcDbEntity
  8
LAY-2
  6
CONTINUOUS
 62
     6
100
AcDbLine
 10
439.125339
 20
1442.244088461
 30
0.0
 11
440.4098239999999
 21
1466.244088461
 31
0.0
  0
LINE
  5
33E
330
1F
100
AcDbEntity
  8
LAY-2
  6
CONTINUOUS
 62
     6
100
AcDbLine
 10
431.1253390000002
 20
1464.244088461
 30
0.0
 11
431.1253390000002
 21
1452.244088461
 31
0.0
  0
LINE
  5
33F
330
1F
100
AcDbEntity
  8
LAY-2
  6
CONTINUOUS
 62
     6
100
AcDbLine
 10
433.1253390000001
 20
1464.244088461
 30
0.0
 11
433.1253390000001
 21
1452.244088461
 31
0.0
  0
LINE
  5
340
330
1F
100
AcDbEntity
  8
LAY-2
  6
CONTINUOUS
 62
     6
100
AcDbLine
 10
437.1253389999998
 20
1440.244088461
 30
0.0
 11
439.4510830000002
 21
1466.758004461
 31
0.0
  0
LINE
  5
341
330
1F
100
AcDbEntity
  8
LAY-2
  6
CONTINUOUS
 62
     6
100
AcDbLine
 10
423.1253390000001
 20
1470.244088461
 30
0.0
 11
423.1253390000001
 21
1454.244088461
 31
0.0
  0
LINE
  5
342
330
1F
100
AcDbEntity
  8
LAY-2
  6
CONTINUOUS
 62
     6
100
AcDbLine
 10
423.1253390000001
 20
1470.244088461
 30
0.0
 11
437.6398040000001
 21
1468.924569461
 31
0.0
  0
ARC
  5
343
330
1F
100
AcDbEntity
  8
LAY-2
  6
CONTINUOUS
 62
     6
100
AcDbCircle
 10
411.1253390000002
 20
1461.994088461
 30
0.0
 40
5.0
100
AcDbArc
 50
139.4584960000004
 51
220.5416259999983
  0
CIRCLE
  5
344
330
1F
100
AcDbEntity
  8
LAY-2
  6
CONTINUOUS
 62
     6
100
AcDbCircle
 10
411.1253390000002
 20
1461.994088461
 30
0.0
 40
2.0
  0
LINE
  5
345
330
1F
100
AcDbEntity
  8
LAY-2
  6
CONTINUOUS
 62
     6
100
AcDbLine
 10
423.1253390000001
 20
1458.744088461
 30
0.0
 11
407.3256559999999
 21
1458.744088461
 31
0.0
  0
LINE
  5
346
330
1F
100
AcDbEntity
  8
LAY-2
  6
CONTINUOUS
 62
     6
100
AcDbLine
 10
423.1253390000001
 20
1465.244088461
 30
0.0
 11
407.3256559999999
 21
1465.244088461
 31
0.0
  0
ARC
  5
347
330
1F
100
AcDbEntity
  8
LAY-2
  6
CONTINUOUS
 62
     6
100
AcDbCircle
 10
439.5414149999999
 20
1465.748299461
 30
0.0
 40
1.0
100
AcDbArc
 50
29.72323599999563
 51
95.2529299999879
  0
ARC
  5
348
330
1F
100
AcDbEntity
  8
LAY-2
  6
CONTINUOUS
 62
     6
100
AcDbCircle
 10
432.1253389999998
 20
1470.244088461
 30
0.0
 40
1.0
100
AcDbArc
 50
0.0
 51
180.0
  0
ARC
  5
349
330
1F
100
AcDbEntity
  8
LAY-2
  6
CONTINUOUS
 62
     6
100
AcDbCircle
 10
432.1253389999998
 20
1464.244088461
 30
0.0
 40
1.0
100
AcDbArc
 50
0.0
 51
180.0
  0
ARC
  5
34A
330
1F
100
AcDbEntity
  8
LAY-2
  6
CONTINUOUS
 62
     6
100
AcDbCircle
 10
437.458713
 20
1466.932809461
 30
0.0
 40
2.0
100
AcDbArc
 50
354.9869379999986
 51
84.80541999999951
  0
LINE
  5
34B
330
1F
100
AcDbEntity
  8
LAY-2
  6
CONTINUOUS
 62
     6
100
AcDbLine
 10
433.1253390000001
 20
1470.244088461
 30
0.0
 11
433.1253390000001
 21
1469.334969461
 31
0.0
  0
LINE
  5
34C
330
1F
100
AcDbEntity
  8
LAY-2
  6
CONTINUOUS
 62
     6
100
AcDbLine
 10
431.1253390000002
 20
1469.516854461
 30
0.0
 11
431.1253390000002
 21
1470.244088461
 31
0.0
  0
ARC
  5
34D
330
1F
100
AcDbEntity
  8
LAY-2
  6
CONTINUOUS
 62
     6
100
AcDbCircle
 10
423.1253390000001
 20
1450.244088461
 30
0.0
 40
4.0
100
AcDbArc
 50
0.0
 51
90.00000000000001
  0
LINE
  5
34E
330
1F
100
AcDbEntity
  8
LAY-2
  6
CONTINUOUS
 62
     6
100
AcDbLine
 10
436.625339
 20
1438.244088461
 30
0.0
 11
436.5697360000001
 21
1436.744088461
 31
0.0
  0
LINE
  5
34F
330
1F
100
AcDbEntity
  8
LAY-2
  6
CONTINUOUS
 62
     6
100
AcDbLine
 10
427.6253389999999
 20
1438.244088461
 30
0.0
 11
427.680881
 21
1436.744088461
 31
0.0
  0
ARC
  5
350
330
1F
100
AcDbEntity
  8
LAY-2
  6
CONTINUOUS
 62
     6
100
AcDbCircle
 10
432.1253389999998
 20
1452.244088461
 30
0.0
 40
1.0
100
AcDbArc
 50
180.0
 51
0.0
  0
LINE
  5
351
330
1F
100
AcDbEntity
  8
LAY-2
  6
CONTINUOUS
 62
     6
100
AcDbLine
 10
437.1253389999998
 20
1440.244088461
 30
0.0
 11
439.125339
 21
1442.244088461
 31
0.0
  0
LINE
  5
352
330
1F
100
AcDbEntity
  8
LAY-2
  6
CONTINUOUS
 62
     6
100
AcDbLine
 10
437.1253389999998
 20
1438.244088461
 30
0.0
 11
437.1253389999998
 21
1440.244088461
 31
0.0
  0
LINE
  5
353
330
1F
100
AcDbEntity
  8
LAY-2
  6
CONTINUOUS
 62
     6
100
AcDbLine
 10
427.1253389999998
 20
1438.244088461
 30
0.0
 11
427.1253389999998
 21
1450.244088461
 31
0.0
  0
LINE
  5
354
330
1F
100
AcDbEntity
  8
LAY-2
  6
CONTINUOUS
 62
     6
100
AcDbLine
 10
427.1253389999998
 20
1438.244088461
 30
0.0
 11
437.1253389999998
 21
1438.244088461
 31
0.0
  0
LINE
  5
355
330
1F
100
AcDbEntity
  8
LAY-2
  6
CONTINUOUS
 62
     6
100
AcDbLine
 10
428.0923799999999
 20
1440.244088461
 30
0.0
 11
435.9841030000001
 21
1440.244088461
 31
0.0
  0
LINE
  5
356
330
1F
100
AcDbEntity
  8
LAY-2
  6
CONTINUOUS
 62
     6
100
AcDbLine
 10
436.5141940000001
 20
1435.244088461
 30
0.0
 11
436.458652
 21
1433.744088461
 31
0.0
  0
LINE
  5
357
330
1F
100
AcDbEntity
  8
LAY-2
  6
CONTINUOUS
 62
     6
100
AcDbLine
 10
436.4030489999999
 20
1432.244088461
 30
0.0
 11
436.3475069999998
 21
1430.744088461
 31
0.0
  0
LINE
  5
358
330
1F
100
AcDbEntity
  8
LAY-2
  6
CONTINUOUS
 62
     6
100
AcDbLine
 10
436.2919650000001
 20
1429.244088461
 30
0.0
 11
436.236423
 21
1427.744088461
 31
0.0
  0
LINE
  5
359
330
1F
100
AcDbEntity
  8
LAY-2
  6
CONTINUOUS
 62
     6
100
AcDbLine
 10
436.1808809999999
 20
1426.244088461
 30
0.0
 11
436.1253390000002
 21
1424.744088461
 31
0.0
  0
LINE
  5
35A
330
1F
100
AcDbEntity
  8
LAY-2
  6
CONTINUOUS
 62
     6
100
AcDbLine
 10
427.7364230000001
 20
1435.244088461
 30
0.0
 11
427.7919650000001
 21
1433.744088461
 31
0.0
  0
LINE
  5
35B
330
1F
100
AcDbEntity
  8
LAY-2
  6
CONTINUOUS
 62
     6
100
AcDbLine
 10
427.8475069999999
 20
1432.244088461
 30
0.0
 11
427.903049
 21
1430.744088461
 31
0.0
  0
LINE
  5
35C
330
1F
100
AcDbEntity
  8
LAY-2
  6
CONTINUOUS
 62
     6
100
AcDbLine
 10
427.9586520000001
 20
1429.244088461
 30
0.0
 11
428.0141939999999
 21
1427.744088461
 31
0.0
  0
LINE
  5
35D
330
1F
100
AcDbEntity
  8
LAY-2
  6
CONTINUOUS
 62
     6
100
AcDbLine
 10
428.0697359999999
 20
1426.244088461
 30
0.0
 11
428.1253390000001
 21
1424.744088461
 31
0.0
  0
LINE
  5
35E
330
1F
100
AcDbEntity
  8
LAY-2
  6
CONTINUOUS
 62
     6
100
AcDbLine
 10
436.703464
 20
1424.744088461
 30
0.0
 11
436.625339
 21
1422.244088461
 31
0.0
  0
LINE
  5
35F
330
1F
100
AcDbEntity
  8
LAY-2
  6
CONTINUOUS
 62
     6
100
AcDbLine
 10
427.5472139999999
 20
1424.744088461
 30
0.0
 11
427.6253389999999
 21
1422.244088461
 31
0.0
  0
LINE
  5
360
330
1F
100
AcDbEntity
  8
LAY-2
  6
CONTINUOUS
 62
     6
100
AcDbLine
 10
427.6253389999999
 20
1422.244088461
 30
0.0
 11
436.625339
 21
1422.244088461
 31
0.0
  0
LINE
  5
361
330
1F
100
AcDbEntity
  8
LAY-2
  6
CONTINUOUS
 62
     6
100
AcDbLine
 10
427.5472139999999
 20
1424.744088461
 30
0.0
 11
436.703464
 21
1424.744088461
 31
0.0
  0
ARC
  5
362
330
1F
100
AcDbEntity
  8
LAY-2
  6
CONTINUOUS
 62
     6
100
AcDbCircle
 10
606.4563069999999
 20
1464.115408461
 30
0.0
 40
1.52028
100
AcDbArc
 50
0.0
 51
90.00000000000001
  0
LINE
  5
363
330
1F
100
AcDbEntity
  8
LAY-2
  6
CONTINUOUS
 62
     6
100
AcDbLine
 10
606.4563069999999
 20
1465.635688461
 30
0.0
 11
602.7968670000001
 21
1465.635688461
 31
0.0
  0
ARC
  5
364
330
1F
100
AcDbEntity
  8
LAY-2
  6
CONTINUOUS
 62
     6
100
AcDbCircle
 10
602.7968670000001
 20
1464.115408461
 30
0.0
 40
1.52028
100
AcDbArc
 50
90.00000000000001
 51
180.0
  0
LINE
  5
365
330
1F
100
AcDbEntity
  8
LAY-2
  6
CONTINUOUS
 62
     6
100
AcDbLine
 10
601.2765869999998
 20
1199.474914353
 30
0.0
 11
601.2765869999998
 21
1464.115408461
 31
0.0
  0
ARC
  5
366
330
1F
100
AcDbEntity
  8
LAY-2
  6
CONTINUOUS
 62
     6
100
AcDbCircle
 10
517.7142564999999
 20
1201.583005961
 30
0.0
 40
83.58891750000012
100
AcDbArc
 50
180.0
 51
1.445138460789858
  0
ARC
  5
367
330
1F
100
AcDbEntity
  8
LAY-2
  6
CONTINUOUS
 62
     6
100
AcDbCircle
 10
519.0642565000002
 20
1200.933005961
 30
0.0
 40
88.93891749999999
100
AcDbArc
 50
180.0
 51
358.5990030241
  0
LINE
  5
368
330
1F
100
AcDbEntity
  8
LAY-2
  6
CONTINUOUS
 62
     6
100
AcDbLine
 10
737.3070041468
 20
1468.501561212
 30
0.0
 11
752.3016210097
 21
1468.291574828
 31
0.0
  0
LINE
  5
369
330
1F
100
AcDbEntity
  8
LAY-2
  6
CONTINUOUS
 62
     6
100
AcDbLine
 10
607.976587
 20
1198.758487364
 30
0.0
 11
607.976587
 21
1464.115408461
 31
0.0
  0
ARC
  5
36A
330
1F
100
AcDbEntity
  8
LAY-2
  6
CONTINUOUS
 62
     6
100
AcDbCircle
 10
624.5281739999003
 20
1457.0
 30
0.0
 40
5.0
100
AcDbArc
 50
90.00000000000001
 51
126.8698976458492
  0
ARC
  5
36B
330
1F
100
AcDbEntity
  8
LAY-2
  6
EXLTYPE2
 62
     6
100
AcDbCircle
 10
624.5281739999001
 20
1457.0
 30
0.0
 40
5.0
100
AcDbArc
 50
126.869897645844
 51
180.0
  0
LINE
  5
36C
330
1F
100
AcDbEntity
  8
LAY-2
  6
CONTINUOUS
 62
     6
100
AcDbLine
 10
620.2265629999999
 20
2362.883197
 30
0.0
 11
620.2265629999999
 21
2410.8208148864
 31
0.0
  0
ARC
  5
36D
330
1F
100
AcDbEntity
  8
LAY-2
  6
CONTINUOUS
 62
     6
100
AcDbCircle
 10
609.6300959999999
 20
-2584.616649999999
 30
0.0
 40
5000.000000000005
100
AcDbArc
 50
89.846017371486
 51
90.468475
  0
ARC
  5
36E
330
1F
100
AcDbEntity
  8
LAY-2
  6
CONTINUOUS
 62
     6
100
AcDbCircle
 10
680.8494559999999
 20
1813.891284
 30
0.0
 40
600.0000000000006
100
AcDbArc
 50
95.79895518171968
 51
96.81655899999996
  0
ARC
  5
36F
330
1F
100
AcDbEntity
  8
LAY-2
  6
CONTINUOUS
 62
     6
100
AcDbCircle
 10
967.9234630000002
 20
2217.383228
 30
0.0
 40
125.0000000000001
100
AcDbArc
 50
320.8455900961002
 51
38.20275967730003
  0
LINE
  5
370
330
1F
100
AcDbEntity
  8
LAY-2
  6
CONTINUOUS
 62
     6
100
AcDbLine
 10
586.5108939999999
 20
2018.940113
 30
0.0
 11
586.5108939999999
 21
2016.883228
 31
0.0
  0
LINE
  5
371
330
1F
100
AcDbEntity
  8
LAY-2
  6
CONTINUOUS
 62
     6
100
AcDbLine
 10
589.6487955070802
 20
2016.383228
 30
0.0
 11
589.8127816613999
 21
2006.988467511
 31
0.0
  0
LINE
  5
372
330
1F
100
AcDbEntity
  8
LAY-2
  6
CONTINUOUS
 62
     6
100
AcDbLine
 10
619.6138384929195
 20
2016.383228
 30
0.0
 11
619.4498523386
 21
2006.988467511
 31
0.0
  0
ARC
  5
373
330
1F
100
AcDbEntity
  8
LAY-2
  6
CONTINUOUS
 62
     6
100
AcDbCircle
 10
680.8494559999999
 20
2620.875172
 30
0.0
 40
600.0000000000006
100
AcDbArc
 50
263.1834410000002
 51
264.2307584802781
  0
ARC
  5
374
330
1F
100
AcDbEntity
  8
LAY-2
  6
CONTINUOUS
 62
     6
100
AcDbCircle
 10
686.761875748
 20
917.7832279999998
 30
0.0
 40
1500.000000000001
100
AcDbArc
 50
83.12512228537572
 51
90.00000000000001
  0
ARC
  5
375
330
1F
100
AcDbEntity
  8
LAY-2
  6
CONTINUOUS
 62
     6
100
AcDbCircle
 10
686.7618757480002
 20
3516.983228
 30
0.0
 40
1500.000000000001
100
AcDbArc
 50
270.0000000000002
 51
276.8748777146242
  0
LINE
  5
376
330
1F
100
AcDbEntity
  8
LAY-2
  6
CONTINUOUS
 62
     6
100
AcDbLine
 10
1712.518217
 20
1367.0
 30
0.0
 11
1721.518217
 21
1367.0
 31
0.0
  0
LINE
  5
377
330
1F
100
AcDbEntity
  8
LAY-2
  6
CONTINUOUS
 62
     6
100
AcDbLine
 10
1712.518217
 20
1367.0
 30
0.0
 11
1712.518217
 21
1369.0
 31
0.0
  0
LINE
  5
378
330
1F
100
AcDbEntity
  8
LAY-2
  6
CONTINUOUS
 62
     6
100
AcDbLine
 10
1721.518217
 20
1367.0
 30
0.0
 11
1721.518217
 21
1369.0
 31
0.0
  0
LINE
  5
379
330
1F
100
AcDbEntity
  8
LAY-2
  6
CONTINUOUS
 62
     6
100
AcDbLine
 10
1711.018217
 20
1370.5
 30
0.0
 11
1712.518217
 21
1369.0
 31
0.0
  0
LINE
  5
37A
330
1F
100
AcDbEntity
  8
LAY-2
  6
CONTINUOUS
 62
     6
100
AcDbLine
 10
1723.018217
 20
1370.5
 30
0.0
 11
1721.518217
 21
1369.0
 31
0.0
  0
LINE
  5
37B
330
1F
100
AcDbEntity
  8
LAY-2
  6
CONTINUOUS
 62
     6
100
AcDbLine
 10
1712.518217
 20
1369.0
 30
0.0
 11
1721.518217
 21
1369.0
 31
0.0
  0
LINE
  5
37C
330
1F
100
AcDbEntity
  8
LAY-2
  6
CONTINUOUS
 62
     6
100
AcDbLine
 10
1711.018217
 20
1370.5
 30
0.0
 11
1723.018217
 21
1370.5
 31
0.0
  0
ARC
  5
37D
330
1F
100
AcDbEntity
  8
LAY-2
  6
CONTINUOUS
 62
     6
100
AcDbCircle
 10
1706.018217
 20
1457.0
 30
0.0
 40
5.0
100
AcDbArc
 50
53.13010235415024
 51
90.00000000000001
  0
ARC
  5
37E
330
1F
100
AcDbEntity
  8
LAY-2
  6
CONTINUOUS
 62
     6
100
AcDbCircle
 10
1728.018217
 20
1457.0
 30
0.0
 40
5.0
100
AcDbArc
 50
90.00000000000001
 51
126.869897645844
  0
ARC
  5
37F
330
1F
100
AcDbEntity
  8
LAY-2
  6
EXLTYPE2
 62
     6
100
AcDbCircle
 10
1728.018217
 20
1457.0
 30
0.0
 40
5.0
100
AcDbArc
 50
126.869897645844
 51
180.0
  0
ARC
  5
380
330
1F
100
AcDbEntity
  8
LAY-2
  6
EXLTYPE2
 62
     6
100
AcDbCircle
 10
1706.018217
 20
1457.0
 30
0.0
 40
5.0
100
AcDbArc
 50
0.0
 51
53.13010235415597
  0
LINE
  5
381
330
1F
100
AcDbEntity
  8
LAY-2
  6
EXLTYPE2
 62
     6
100
AcDbLine
 10
1711.018217
 20
1457.0
 30
0.0
 11
1711.018217
 21
1407.5
 31
0.0
  0
LINE
  5
382
330
1F
100
AcDbEntity
  8
LAY-2
  6
EXLTYPE2
 62
     6
100
AcDbLine
 10
1723.018217
 20
1457.0
 30
0.0
 11
1723.018217
 21
1407.5
 31
0.0
  0
LINE
  5
383
330
1F
100
AcDbEntity
  8
LAY-2
  6
CONTINUOUS
 62
     6
100
AcDbLine
 10
1711.018217
 20
1380.199999999989
 30
0.0
 11
1711.018217
 21
1370.5
 31
0.0
  0
LINE
  5
384
330
1F
100
AcDbEntity
  8
LAY-2
  6
CONTINUOUS
 62
     6
100
AcDbLine
 10
1712.018217
 20
1380.199999999989
 30
0.0
 11
1712.018217
 21
1369.5
 31
0.0
  0
LINE
  5
385
330
1F
100
AcDbEntity
  8
LAY-2
  6
CONTINUOUS
 62
     6
100
AcDbLine
 10
1722.018217
 20
1380.199999999989
 30
0.0
 11
1722.018217
 21
1369.5
 31
0.0
  0
LINE
  5
386
330
1F
100
AcDbEntity
  8
LAY-2
  6
CONTINUOUS
 62
     6
100
AcDbLine
 10
1723.018217
 20
1380.199999999989
 30
0.0
 11
1723.018217
 21
1370.5
 31
0.0
  0
LINE
  5
387
330
1F
100
AcDbEntity
  8
LAY-2
  6
CONTINUOUS
 62
     6
100
AcDbLine
 10
1581.465043
 20
1367.0
 30
0.0
 11
1572.465043
 21
1367.0
 31
0.0
  0
LINE
  5
388
330
1F
100
AcDbEntity
  8
LAY-2
  6
CONTINUOUS
 62
     6
100
AcDbLine
 10
1581.465043
 20
1367.0
 30
0.0
 11
1581.465043
 21
1369.0
 31
0.0
  0
LINE
  5
389
330
1F
100
AcDbEntity
  8
LAY-2
  6
CONTINUOUS
 62
     6
100
AcDbLine
 10
1572.465043
 20
1367.0
 30
0.0
 11
1572.465043
 21
1369.0
 31
0.0
  0
LINE
  5
38A
330
1F
100
AcDbEntity
  8
LAY-2
  6
CONTINUOUS
 62
     6
100
AcDbLine
 10
1582.965043
 20
1370.5
 30
0.0
 11
1581.465043
 21
1369.0
 31
0.0
  0
LINE
  5
38B
330
1F
100
AcDbEntity
  8
LAY-2
  6
CONTINUOUS
 62
     6
100
AcDbLine
 10
1570.965043
 20
1370.5
 30
0.0
 11
1572.465043
 21
1369.0
 31
0.0
  0
LINE
  5
38C
330
1F
100
AcDbEntity
  8
LAY-2
  6
CONTINUOUS
 62
     6
100
AcDbLine
 10
1581.465043
 20
1369.0
 30
0.0
 11
1572.465043
 21
1369.0
 31
0.0
  0
LINE
  5
38D
330
1F
100
AcDbEntity
  8
LAY-2
  6
CONTINUOUS
 62
     6
100
AcDbLine
 10
1582.965043
 20
1370.5
 30
0.0
 11
1570.965043
 21
1370.5
 31
0.0
  0
ARC
  5
38E
330
1F
100
AcDbEntity
  8
LAY-2
  6
CONTINUOUS
 62
     6
100
AcDbCircle
 10
1587.965043
 20
1457.0
 30
0.0
 40
5.0
100
AcDbArc
 50
90.00000000000001
 51
126.8698976458498
  0
ARC
  5
38F
330
1F
100
AcDbEntity
  8
LAY-2
  6
CONTINUOUS
 62
     6
100
AcDbCircle
 10
1565.965043
 20
1457.0
 30
0.0
 40
5.0
100
AcDbArc
 50
53.13010235415597
 51
90.00000000000001
  0
ARC
  5
390
330
1F
100
AcDbEntity
  8
LAY-2
  6
EXLTYPE2
 62
     6
100
AcDbCircle
 10
1565.965043
 20
1457.0
 30
0.0
 40
5.0
100
AcDbArc
 50
0.0
 51
53.13010235415597
  0
ARC
  5
391
330
1F
100
AcDbEntity
  8
LAY-2
  6
EXLTYPE2
 62
     6
100
AcDbCircle
 10
1587.965043
 20
1457.0
 30
0.0
 40
5.0
100
AcDbArc
 50
126.869897645844
 51
180.0
  0
LINE
  5
392
330
1F
100
AcDbEntity
  8
LAY-2
  6
EXLTYPE2
 62
     6
100
AcDbLine
 10
1582.965043
 20
1457.0
 30
0.0
 11
1582.965043
 21
1407.5
 31
0.0
  0
LINE
  5
393
330
1F
100
AcDbEntity
  8
LAY-2
  6
EXLTYPE2
 62
     6
100
AcDbLine
 10
1570.965043
 20
1457.0
 30
0.0
 11
1570.965043
 21
1407.5
 31
0.0
  0
LINE
  5
394
330
1F
100
AcDbEntity
  8
LAY-2
  6
CONTINUOUS
 62
     6
100
AcDbLine
 10
1582.965043
 20
1380.199999999989
 30
0.0
 11
1582.965043
 21
1370.5
 31
0.0
  0
LINE
  5
395
330
1F
100
AcDbEntity
  8
LAY-2
  6
CONTINUOUS
 62
     6
100
AcDbLine
 10
1581.965043
 20
1380.199999999989
 30
0.0
 11
1581.965043
 21
1369.5
 31
0.0
  0
LINE
  5
396
330
1F
100
AcDbEntity
  8
LAY-2
  6
CONTINUOUS
 62
     6
100
AcDbLine
 10
1571.965043
 20
1380.199999999989
 30
0.0
 11
1571.965043
 21
1369.5
 31
0.0
  0
LINE
  5
397
330
1F
100
AcDbEntity
  8
LAY-2
  6
CONTINUOUS
 62
     6
100
AcDbLine
 10
1570.965043
 20
1380.199999999989
 30
0.0
 11
1570.965043
 21
1370.5
 31
0.0
  0
LINE
  5
398
330
1F
100
AcDbEntity
  8
LAY-2
  6
EXLTYPE3
 62
     6
100
AcDbLine
 10
1646.99163
 20
1451.7
 30
0.0
 11
1646.99163
 21
1613.500061
 31
0.0
  0
TEXT
  5
399
330
1F
100
AcDbEntity
  8
LAY-2
  6
CONTINUOUS
 62
     2
100
AcDbText
 10
1101.854601407
 20
1691.691183989
 30
0.0
 40
40.0
  1
温度調節スイッチ
 41
1.061170212765957
  7
EXCADSTD
 72
     5
 11
1386.854601407
 21
1691.691183989
 31
0.0
100
AcDbText
  0
TEXT
  5
39A
330
1F
100
AcDbEntity
  8
LAY-2
  6
CONTINUOUS
 62
     2
100
AcDbText
 10
736.9137209999999
 20
1264.0000732
 30
0.0
 40
40.0
  1
電源コード
 41
1.086206896551724
  7
EXCADSTD
 72
     5
 11
916.9137209999999
 21
1264.0000732
 31
0.0
100
AcDbText
  0
LINE
  5
39B
330
1F
100
AcDbEntity
  8
LAY-2
  6
EXLTYPE3
 62
     6
100
AcDbLine
 10
1108.0
 20
2217.383228
 30
0.0
 11
924.0000000000001
 21
2217.383228
 31
0.0
  0
LINE
  5
39C
330
1F
100
AcDbEntity
  8
LAY-2
  6
EXLTYPE3
 62
     6
100
AcDbLine
 10
859.0000000000001
 20
2217.383228
 30
0.0
 11
586.0299370000001
 21
2217.383228
 31
0.0
  0
LINE
  5
39D
330
1F
100
AcDbEntity
  8
LAY-2
  6
CONTINUOUS
 62
     6
100
AcDbLine
 10
621.4484129999004
 20
1414.7
 30
0.0
 11
621.4484129999004
 21
1455.2
 31
0.0
  0
ARC
  5
39E
330
1F
100
AcDbEntity
  8
LAY-2
  6
CONTINUOUS
 62
     6
100
AcDbCircle
 10
626.1484129999002
 20
1404.4
 30
0.0
 40
0.3
100
AcDbArc
 50
0.0
 51
90.00000000000001
  0
ARC
  5
39F
330
1F
100
AcDbEntity
  8
LAY-2
  6
CONTINUOUS
 62
     6
100
AcDbCircle
 10
626.1484129999002
 20
1404.0
 30
0.0
 40
0.3
100
AcDbArc
 50
270.0
 51
0.0
  0
LINE
  5
3A0
330
1F
100
AcDbEntity
  8
LAY-2
  6
CONTINUOUS
 62
     6
100
AcDbLine
 10
626.4484129999004
 20
1404.0
 30
0.0
 11
626.4484129999004
 21
1404.4
 31
0.0
  0
ARC
  5
3A1
330
1F
100
AcDbEntity
  8
LAY-2
  6
CONTINUOUS
 62
     6
100
AcDbCircle
 10
613.4484129999004
 20
1404.7
 30
0.0
 40
12.50000000000001
100
AcDbArc
 50
0.0
 51
53.13010235415826
  0
LINE
  5
3A2
330
1F
100
AcDbEntity
  8
LAY-2
  6
CONTINUOUS
 62
     6
100
AcDbLine
 10
613.5015869999
 20
1401.7
 30
0.0
 11
613.5015869999
 21
1386.200000000016
 31
0.0
  0
LINE
  5
3A3
330
1F
100
AcDbEntity
  8
LAY-2
  6
CONTINUOUS
 62
     6
100
AcDbLine
 10
626.0615869999009
 20
1380.19999999999
 30
0.0
 11
626.0615869999009
 21
1403.7
 31
0.0
  0
LINE
  5
3A4
330
1F
100
AcDbEntity
  8
LAY-2
  6
EXLTYPE2
 62
     6
100
AcDbLine
 10
622.0465869999047
 20
1386.200000000016
 30
0.0
 11
622.0465869999047
 21
1401.699999999999
 31
0.0
  0
LINE
  5
3A5
330
1F
100
AcDbEntity
  8
LAY-2
  6
CONTINUOUS
 62
     6
100
AcDbLine
 10
617.9749999999002
 20
1367.0
 30
0.0
 11
608.9749999999002
 21
1367.0
 31
0.0
  0
LINE
  5
3A6
330
1F
100
AcDbEntity
  8
LAY-2
  6
CONTINUOUS
 62
     6
100
AcDbLine
 10
617.9749999999002
 20
1367.0
 30
0.0
 11
617.9749999999002
 21
1369.0
 31
0.0
  0
LINE
  5
3A7
330
1F
100
AcDbEntity
  8
LAY-2
  6
CONTINUOUS
 62
     6
100
AcDbLine
 10
608.9749999999002
 20
1367.0
 30
0.0
 11
608.9749999999002
 21
1369.0
 31
0.0
  0
LINE
  5
3A8
330
1F
100
AcDbEntity
  8
LAY-2
  6
CONTINUOUS
 62
     6
100
AcDbLine
 10
619.4749999999002
 20
1370.5
 30
0.0
 11
617.9749999999002
 21
1369.0
 31
0.0
  0
LINE
  5
3A9
330
1F
100
AcDbEntity
  8
LAY-2
  6
CONTINUOUS
 62
     6
100
AcDbLine
 10
617.9749999999002
 20
1369.0
 30
0.0
 11
608.9749999999002
 21
1369.0
 31
0.0
  0
LINE
  5
3AA
330
1F
100
AcDbEntity
  8
LAY-2
  6
EXLTYPE2
 62
     6
100
AcDbLine
 10
619.4749999999004
 20
1457.0
 30
0.0
 11
619.4749999999004
 21
1407.5
 31
0.0
  0
LINE
  5
3AB
330
1F
100
AcDbEntity
  8
LAY-2
  6
CONTINUOUS
 62
     6
100
AcDbLine
 10
619.4749999999004
 20
1380.199999999989
 30
0.0
 11
619.4749999999004
 21
1370.5
 31
0.0
  0
LINE
  5
3AC
330
1F
100
AcDbEntity
  8
LAY-2
  6
CONTINUOUS
 62
     6
100
AcDbLine
 10
618.4749999999002
 20
1380.199999999989
 30
0.0
 11
618.4749999999002
 21
1369.5
 31
0.0
  0
LINE
  5
3AD
330
1F
100
AcDbEntity
  8
LAY-2
  6
CONTINUOUS
 62
     6
100
AcDbLine
 10
608.4749999999002
 20
1380.199999999989
 30
0.0
 11
608.4749999999002
 21
1369.5
 31
0.0
  0
LINE
  5
3AE
330
1F
100
AcDbEntity
  8
LAY-2
  6
CONTINUOUS
 62
     6
100
AcDbLine
 10
621.4484129998999
 20
1455.2
 30
0.0
 11
607.976587
 21
1455.2
 31
0.0
  0
LINE
  5
3AF
330
1F
100
AcDbEntity
  8
LAY-2
  6
CONTINUOUS
 62
     6
100
AcDbLine
 10
621.4484129998999
 20
1414.699999999994
 30
0.0
 11
607.976587
 21
1414.699999999994
 31
0.0
  0
LINE
  5
3B0
330
1F
100
AcDbEntity
  8
LAY-2
  6
CONTINUOUS
 62
     6
100
AcDbLine
 10
626.1484129999002
 20
1404.7
 30
0.0
 11
607.976587
 21
1404.7
 31
0.0
  0
LINE
  5
3B1
330
1F
100
AcDbEntity
  8
LAY-2
  6
CONTINUOUS
 62
     6
100
AcDbLine
 10
626.1484129999002
 20
1403.7
 30
0.0
 11
607.976587
 21
1403.7
 31
0.0
  0
LINE
  5
3B2
330
1F
100
AcDbEntity
  8
LAY-2
  6
CONTINUOUS
 62
     6
100
AcDbLine
 10
607.976587
 20
1401.699999999999
 30
0.0
 11
626.0615869999
 21
1401.699999999999
 31
0.0
  0
LINE
  5
3B3
330
1F
100
AcDbEntity
  8
LAY-2
  6
CONTINUOUS
 62
     6
100
AcDbLine
 10
607.976587
 20
1380.19999999999
 30
0.0
 11
626.0615869999
 21
1380.19999999999
 31
0.0
  0
LINE
  5
3B4
330
1F
100
AcDbEntity
  8
LAY-2
  6
EXLTYPE2
 62
     6
100
AcDbLine
 10
607.976587
 20
1386.200000000016
 30
0.0
 11
622.0465869999001
 21
1386.200000000016
 31
0.0
  0
LINE
  5
3B5
330
1F
100
AcDbEntity
  8
LAY-2
  6
CONTINUOUS
 62
     6
100
AcDbLine
 10
607.976587
 20
1369.9984129999
 30
0.0
 11
608.9749999999002
 21
1369.0
 31
0.0
  0
LINE
  5
3B6
330
1F
100
AcDbEntity
  8
LAY-2
  6
CONTINUOUS
 62
     6
100
AcDbLine
 10
619.4749999999002
 20
1370.5
 30
0.0
 11
607.976587
 21
1370.5
 31
0.0
  0
TEXT
  5
3B7
330
1F
100
AcDbEntity
  8
LAY-3
  6
CONTINUOUS
 62
     2
100
AcDbText
 10
495.8315730596048
 20
2266.383228000001
 30
0.0
 40
40.0
  1
１９８
 50
90.00000000000004
 41
1.029411764705882
  7
EXCADSTD
 72
     5
 11
495.8315730596048
 21
2366.383228000001
 31
0.0
100
AcDbText
  0
LINE
  5
3B8
330
1F
100
AcDbEntity
  8
LAY-3
  6
CONTINUOUS
 62
     3
100
AcDbLine
 10
499.3315730000002
 20
2415.383228
 30
0.0
 11
499.3315730000002
 21
2217.383228000001
 31
0.0
  0
LINE
  5
3B9
330
1F
100
AcDbEntity
  8
LAY-3
  6
CONTINUOUS
 62
     3
100
AcDbLine
 10
505.1649063333334
 20
2380.383228
 30
0.0
 11
499.331573
 21
2415.383228
 31
0.0
  0
LINE
  5
3BA
330
1F
100
AcDbEntity
  8
LAY-3
  6
CONTINUOUS
 62
     3
100
AcDbLine
 10
499.331573
 20
2415.383228
 30
0.0
 11
493.4982396666667
 21
2380.383228
 31
0.0
  0
LINE
  5
3BB
330
1F
100
AcDbEntity
  8
LAY-3
  6
CONTINUOUS
 62
     3
100
AcDbLine
 10
493.4982396666667
 20
2252.383228000001
 30
0.0
 11
499.331573
 21
2217.383228000001
 31
0.0
  0
LINE
  5
3BC
330
1F
100
AcDbEntity
  8
LAY-3
  6
CONTINUOUS
 62
     3
100
AcDbLine
 10
499.331573
 20
2217.383228000001
 30
0.0
 11
505.1649063333334
 21
2252.383228000001
 31
0.0
  0
TEXT
  5
3BD
330
1F
100
AcDbEntity
  8
LAY-3
  6
CONTINUOUS
 62
     2
100
AcDbText
 10
495.8315730596048
 20
2060.383228
 30
0.0
 40
40.0
  1
２１４
 50
90.00000000000004
 41
1.029411764705882
  7
EXCADSTD
 72
     5
 11
495.8315730596048
 21
2160.383228
 31
0.0
100
AcDbText
  0
LINE
  5
3BE
330
1F
100
AcDbEntity
  8
LAY-3
  6
CONTINUOUS
 62
     3
100
AcDbLine
 10
499.3315730000002
 20
2217.383228000001
 30
0.0
 11
499.3315730000002
 21
2003.383228
 31
0.0
  0
LINE
  5
3BF
330
1F
100
AcDbEntity
  8
LAY-3
  6
CONTINUOUS
 62
     3
100
AcDbLine
 10
505.1649063333334
 20
2182.383228000001
 30
0.0
 11
499.331573
 21
2217.383228000001
 31
0.0
  0
LINE
  5
3C0
330
1F
100
AcDbEntity
  8
LAY-3
  6
CONTINUOUS
 62
     3
100
AcDbLine
 10
499.331573
 20
2217.383228000001
 30
0.0
 11
493.4982396666667
 21
2182.383228000001
 31
0.0
  0
LINE
  5
3C1
330
1F
100
AcDbEntity
  8
LAY-3
  6
CONTINUOUS
 62
     3
100
AcDbLine
 10
493.4982396666667
 20
2038.383228
 30
0.0
 11
499.331573
 21
2003.383228
 31
0.0
  0
LINE
  5
3C2
330
1F
100
AcDbEntity
  8
LAY-3
  6
CONTINUOUS
 62
     3
100
AcDbLine
 10
499.331573
 20
2003.383228
 30
0.0
 11
505.1649063333334
 21
2038.383228
 31
0.0
  0
TEXT
  5
3C3
330
1F
100
AcDbEntity
  8
LAY-3
  6
CONTINUOUS
 62
     2
100
AcDbText
 10
435.8315730596048
 20
2159.383228
 30
0.0
 40
40.0
  1
４１２
 50
90.00000000000004
 41
1.029411764705882
  7
EXCADSTD
 72
     5
 11
435.8315730596048
 21
2259.383228
 31
0.0
100
AcDbText
  0
LINE
  5
3C4
330
1F
100
AcDbEntity
  8
LAY-3
  6
CONTINUOUS
 62
     3
100
AcDbLine
 10
439.3315730000002
 20
2415.383228
 30
0.0
 11
439.3315730000002
 21
2003.383228
 31
0.0
  0
LINE
  5
3C5
330
1F
100
AcDbEntity
  8
LAY-3
  6
CONTINUOUS
 62
     3
100
AcDbLine
 10
445.1649063333334
 20
2380.383228
 30
0.0
 11
439.331573
 21
2415.383228
 31
0.0
  0
LINE
  5
3C6
330
1F
100
AcDbEntity
  8
LAY-3
  6
CONTINUOUS
 62
     3
100
AcDbLine
 10
439.331573
 20
2415.383228
 30
0.0
 11
433.4982396666667
 21
2380.383228
 31
0.0
  0
LINE
  5
3C7
330
1F
100
AcDbEntity
  8
LAY-3
  6
CONTINUOUS
 62
     3
100
AcDbLine
 10
433.4982396666667
 20
2038.383228
 30
0.0
 11
439.331573
 21
2003.383228
 31
0.0
  0
LINE
  5
3C8
330
1F
100
AcDbEntity
  8
LAY-3
  6
CONTINUOUS
 62
     3
100
AcDbLine
 10
439.331573
 20
2003.383228
 30
0.0
 11
445.1649063333334
 21
2038.383228
 31
0.0
  0
TEXT
  5
3C9
330
1F
100
AcDbEntity
  8
LAY-3
  6
CONTINUOUS
 62
     2
100
AcDbText
 10
776.1275180000002
 20
2534.883227940396
 30
0.0
 40
40.0
  1
５３４
 41
1.029411764705882
  7
EXCADSTD
 72
     5
 11
876.1275180000002
 21
2534.883227940396
 31
0.0
100
AcDbText
  0
LINE
  5
3CA
330
1F
100
AcDbEntity
  8
LAY-3
  6
CONTINUOUS
 62
     3
100
AcDbLine
 10
559.3315730000002
 20
2531.383228000001
 30
0.0
 11
1092.923463
 21
2531.383228000001
 31
0.0
  0
LINE
  5
3CB
330
1F
100
AcDbEntity
  8
LAY-3
  6
CONTINUOUS
 62
     3
100
AcDbLine
 10
594.331573
 20
2537.216561333334
 30
0.0
 11
559.331573
 21
2531.383228000001
 31
0.0
  0
LINE
  5
3CC
330
1F
100
AcDbEntity
  8
LAY-3
  6
CONTINUOUS
 62
     3
100
AcDbLine
 10
559.331573
 20
2531.383228000001
 30
0.0
 11
594.331573
 21
2525.549894666667
 31
0.0
  0
LINE
  5
3CD
330
1F
100
AcDbEntity
  8
LAY-3
  6
CONTINUOUS
 62
     3
100
AcDbLine
 10
1057.923463
 20
2525.549894666667
 30
0.0
 11
1092.923463
 21
2531.383228000001
 31
0.0
  0
LINE
  5
3CE
330
1F
100
AcDbEntity
  8
LAY-3
  6
CONTINUOUS
 62
     3
100
AcDbLine
 10
1092.923463
 20
2531.383228000001
 30
0.0
 11
1057.923463
 21
2537.216561333334
 31
0.0
  0
TEXT
  5
3CF
330
1F
100
AcDbEntity
  8
LAY-3
  6
CONTINUOUS
 62
     2
100
AcDbText
 10
802.9617315000003
 20
2474.883227940396
 30
0.0
 40
40.0
  1
４８０
 41
1.029411764705882
  7
EXCADSTD
 72
     5
 11
902.9617315000003
 21
2474.883227940396
 31
0.0
100
AcDbText
  0
LINE
  5
3D0
330
1F
100
AcDbEntity
  8
LAY-3
  6
CONTINUOUS
 62
     3
100
AcDbLine
 10
613.0000000000002
 20
2471.383228000001
 30
0.0
 11
1092.923463
 21
2471.383228000001
 31
0.0
  0
LINE
  5
3D1
330
1F
100
AcDbEntity
  8
LAY-3
  6
CONTINUOUS
 62
     3
100
AcDbLine
 10
648.0000000000001
 20
2477.216561333334
 30
0.0
 11
613.0000000000001
 21
2471.383228000001
 31
0.0
  0
LINE
  5
3D2
330
1F
100
AcDbEntity
  8
LAY-3
  6
CONTINUOUS
 62
     3
100
AcDbLine
 10
613.0000000000001
 20
2471.383228000001
 30
0.0
 11
648.0000000000001
 21
2465.549894666667
 31
0.0
  0
LINE
  5
3D3
330
1F
100
AcDbEntity
  8
LAY-3
  6
CONTINUOUS
 62
     3
100
AcDbLine
 10
1057.923463
 20
2465.549894666667
 30
0.0
 11
1092.923463
 21
2471.383228000001
 31
0.0
  0
LINE
  5
3D4
330
1F
100
AcDbEntity
  8
LAY-3
  6
CONTINUOUS
 62
     3
100
AcDbLine
 10
1092.923463
 20
2471.383228000001
 30
0.0
 11
1057.923463
 21
2477.216561333334
 31
0.0
  0
TEXT
  5
3D5
330
1F
100
AcDbEntity
  8
LAY-3
  6
CONTINUOUS
 62
     2
100
AcDbText
 10
824.6681540000003
 20
1947.317934626396
 30
0.0
 40
40.0
  1
３０６
 41
1.029411764705882
  7
EXCADSTD
 72
     5
 11
924.6681540000003
 21
1947.317934626396
 31
0.0
100
AcDbText
  0
LINE
  5
3D6
330
1F
100
AcDbEntity
  8
LAY-3
  6
CONTINUOUS
 62
     3
100
AcDbLine
 10
721.4128450000002
 20
1943.817934686001
 30
0.0
 11
1027.923463
 21
1943.817934686001
 31
0.0
  0
LINE
  5
3D7
330
1F
100
AcDbEntity
  8
LAY-3
  6
CONTINUOUS
 62
     3
100
AcDbLine
 10
756.4128450000001
 20
1949.651268019334
 30
0.0
 11
721.4128450000001
 21
1943.817934686001
 31
0.0
  0
LINE
  5
3D8
330
1F
100
AcDbEntity
  8
LAY-3
  6
CONTINUOUS
 62
     3
100
AcDbLine
 10
721.4128450000001
 20
1943.817934686001
 30
0.0
 11
756.4128450000001
 21
1937.984601352667
 31
0.0
  0
LINE
  5
3D9
330
1F
100
AcDbEntity
  8
LAY-3
  6
CONTINUOUS
 62
     3
100
AcDbLine
 10
992.9234630000001
 20
1937.984601352667
 30
0.0
 11
1027.923463
 21
1943.817934686001
 31
0.0
  0
LINE
  5
3DA
330
1F
100
AcDbEntity
  8
LAY-3
  6
CONTINUOUS
 62
     3
100
AcDbLine
 10
1027.923463
 20
1943.817934686001
 30
0.0
 11
992.9234630000001
 21
1949.651268019334
 31
0.0
  0
DIMENSION
  5
3DB
330
1F
100
AcDbEntity
  8
LAY-3
  6
CONTINUOUS
 62
     3
100
AcDbDimension
  2
*D17
 10
1716.99163
 20
1286.2
 30
0.0
 11
1646.99163
 21
1309.699999940395
 31
0.0
 70
   160
  1
140
  3
ISO-25
100
AcDbAlignedDimension
 13
1576.99163
 23
1380.5
 33
0.0
 14
1716.99163
 24
1380.5
 34
0.0
100
AcDbRotatedDimension
1001
ACAD
1000
DSTYLE
1002
{
1070
   270
1070
     2
1070
     6
1000
EX_NORM
1070
     7
1000
EX_NORM
1070
    41
1040
35.0
1070
    42
1040
22.69999980926514
1070
    44
1040
20.0
1070
    73
1070
     0
1070
    74
1070
     0
1070
    75
1070
     0
1070
    76
1070
     0
1070
    77
1070
     1
1070
    78
1070
     0
1070
   140
1040
40.0
1070
   147
1040
0.0
1070
   173
1070
     1
1070
   176
1070
     3
1070
   177
1070
     3
1070
   178
1070
     2
1070
   271
1070
     0
1070
   277
1070
     2
1070
   279
1070
     2
1070
   280
1070
     0
1070
   287
1070
     5
1070
   340
1005
154
1002
}
  0
LINE
  5
3E8
330
1F
100
AcDbEntity
  8
LAY-3
  6
CONTINUOUS
 62
     3
100
AcDbLine
 10
583.531524
 20
2217.383228000001
 30
0.0
 11
479.331573
 21
2217.383228000001
 31
0.0
  0
LINE
  5
3E9
330
1F
100
AcDbEntity
  8
LAY-3
  6
CONTINUOUS
 62
     3
100
AcDbLine
 10
597.7003389999999
 20
2003.383228
 30
0.0
 11
419.331573
 21
2003.383228
 31
0.0
  0
LINE
  5
3EA
330
1F
100
AcDbEntity
  8
LAY-3
  6
CONTINUOUS
 62
     3
100
AcDbLine
 10
564.6003389999998
 20
2415.383228
 30
0.0
 11
419.331573
 21
2415.383228
 31
0.0
  0
LINE
  5
3EB
330
1F
100
AcDbEntity
  8
LAY-3
  6
CONTINUOUS
 62
     3
100
AcDbLine
 10
1092.923463
 20
2224.383228000001
 30
0.0
 11
1092.923463
 21
2551.383228000001
 31
0.0
  0
LINE
  5
3EC
330
1F
100
AcDbEntity
  8
LAY-3
  6
CONTINUOUS
 62
     3
100
AcDbLine
 10
720.9112579723001
 20
2210.383228
 30
0.0
 11
720.9112579723001
 21
1923.817934686001
 31
0.0
  0
LINE
  5
3ED
330
1F
100
AcDbEntity
  8
LAY-3
  6
CONTINUOUS
 62
     3
100
AcDbLine
 10
558.8299860000001
 20
2412.216724
 30
0.0
 11
558.8299860000001
 21
2551.383228000001
 31
0.0
  0
LINE
  5
3EE
330
1F
100
AcDbEntity
  8
LAY-3
  6
CONTINUOUS
 62
     3
100
AcDbLine
 10
1027.923463
 20
2210.383228
 30
0.0
 11
1027.923463
 21
1923.817934686001
 31
0.0
  0
TEXT
  5
3EF
330
1F
100
AcDbEntity
  8
LAY-3
  6
CONTINUOUS
 62
     2
100
AcDbText
 10
908.5987520319046
 20
2167.383228
 30
0.0
 40
40.0
  1
^J２００
 50
90.0
 41
1.029411764705882
  7
EXCADSTD
 72
     5
 11
908.5987520319046
 21
2267.383228
 31
0.0
100
AcDbText
  0
TEXT
  5
3F0
330
1F
100
AcDbEntity
  8
LAY-3
  6
CONTINUOUS
 62
     2
100
AcDbText
 10
908.5987520319046
 20
2262.383228
 30
0.0
 40
40.0
  1
^J
  7
EXCADSTD
 72
     5
 11
908.5987520319046
 21
2262.383228
 31
0.0
100
AcDbText
  0
LINE
  5
3F1
330
1F
100
AcDbEntity
  8
LAY-3
  6
CONTINUOUS
 62
     3
100
AcDbLine
 10
912.0987519723
 20
2117.319404562
 30
0.0
 11
912.0987519723
 21
2317.447051438
 31
0.0
  0
LINE
  5
3F2
330
1F
100
AcDbEntity
  8
LAY-3
  6
CONTINUOUS
 62
     3
100
AcDbLine
 10
906.2654186389666
 20
2152.319404562
 30
0.0
 11
912.0987519722999
 21
2117.319404562
 31
0.0
  0
LINE
  5
3F3
330
1F
100
AcDbEntity
  8
LAY-3
  6
CONTINUOUS
 62
     3
100
AcDbLine
 10
912.0987519722999
 20
2117.319404562
 30
0.0
 11
917.9320853056332
 21
2152.319404562
 31
0.0
  0
LINE
  5
3F4
330
1F
100
AcDbEntity
  8
LAY-3
  6
CONTINUOUS
 62
     3
100
AcDbLine
 10
917.9320853056332
 20
2282.447051438
 30
0.0
 11
912.0987519722999
 21
2317.447051438
 31
0.0
  0
LINE
  5
3F5
330
1F
100
AcDbEntity
  8
LAY-3
  6
CONTINUOUS
 62
     3
100
AcDbLine
 10
912.0987519722999
 20
2317.447051438
 30
0.0
 11
906.2654186389665
 21
2282.447051438
 31
0.0
  0
LINE
  5
3F6
330
1F
100
AcDbEntity
  8
LAY-3
  6
CONTINUOUS
 62
     3
100
AcDbLine
 10
820.9112579723001
 20
2117.319404562
 30
0.0
 11
932.0987519722999
 21
2117.319404562
 31
0.0
  0
LINE
  5
3F7
330
1F
100
AcDbEntity
  8
LAY-3
  6
CONTINUOUS
 62
     3
100
AcDbLine
 10
820.9112579723001
 20
2317.447051438
 30
0.0
 11
932.0987519722999
 21
2317.447051438
 31
0.0
  0
DIMENSION
  5
3F8
330
1F
100
AcDbEntity
  8
LAY-3
  6
CONTINUOUS
 62
     3
100
AcDbDimension
  2
*D18
 10
1173.0
 20
2418.383228
 30
0.0
 11
1148.0
 21
2217.383228
 31
0.0
 70
   160
  3
ISO-25
100
AcDbAlignedDimension
 13
1027.923463
 23
2016.383228
 33
0.0
 14
1023.0
 24
2418.383228
 34
0.0
 50
90.0
100
AcDbRotatedDimension
1001
ACAD
1000
DSTYLE
1002
{
1070
   270
1070
     2
1070
     6
1000
EX_NORM
1070
     7
1000
EX_NORM
1070
    41
1040
30.0
1070
    42
1040
0.0
1070
    44
1040
0.0
1070
    73
1070
     0
1070
    74
1070
     0
1070
    75
1070
     0
1070
    76
1070
     0
1070
    77
1070
     1
1070
    78
1070
     8
1070
   140
1040
40.0
1070
   147
1040
0.0
1070
   173
1070
     1
1070
   176
1070
     3
1070
   177
1070
     3
1070
   178
1070
     2
1070
   271
1070
     1
1070
   277
1070
     2
1070
   279
1070
     2
1070
   280
1070
     0
1070
   287
1070
     5
1070
   340
1005
154
1002
}
  0
LINE
  5
405
330
1F
100
AcDbEntity
  8
LAY-3
  6
CONTINUOUS
 62
     6
100
AcDbLine
 10
1747.489193049
 20
1462.0
 30
0.0
 11
1546.489315049
 21
1462.0
 31
0.0
  0
ENDSEC
  0
SECTION
  2
OBJECTS
  0
DICTIONARY
  5
C
330
0
100
AcDbDictionary
  3
ACAD_GROUP
350
D
  3
ACAD_LAYOUT
350
1A
  3
ACAD_MATERIAL
350
3B
  3
ACAD_MLEADERSTYLE
350
428
  3
ACAD_MLINESTYLE
350
17
  3
ACAD_PLOTSETTINGS
350
19
  3
ACAD_VISUALSTYLE
350
2A
  3
ACDBHEADERROUNDTRIPXREC
350
406
  3
ACDBVARIABLEDICTIONARY
350
426
  0
DICTIONARY
  5
D
102
{ACAD_REACTORS
330
C
102
}
330
C
100
AcDbDictionary
  0
DICTIONARY
  5
1A
102
{ACAD_REACTORS
330
C
102
}
330
C
100
AcDbDictionary
  0
DICTIONARY
  5
3B
102
{ACAD_REACTORS
330
C
102
}
330
C
100
AcDbDictionary
  3
BYBLOCK
350
3D
  3
BYLAYER
350
3C
  3
GLOBAL
350
3E
  0
DICTIONARY
  5
428
102
{ACAD_REACTORS
330
C
102
}
330
C
100
AcDbDictionary
  0
DICTIONARY
  5
17
102
{ACAD_REACTORS
330
C
102
}
330
C
100
AcDbDictionary
  3
STANDARD
350
18
  0
DICTIONARY
  5
19
102
{ACAD_REACTORS
330
C
102
}
330
C
100
AcDbDictionary
  0
DICTIONARY
  5
2A
102
{ACAD_REACTORS
330
C
102
}
330
C
100
AcDbDictionary
  3
2DWIREFRAME
350
2F
  3
3D_HIDDEN
350
31
  3
3DWIREFRAME
350
30
  3
BASIC
350
32
  3
BRIGHTEN
350
36
  3
COLORCHANGE
350
3A
  3
CONCEPTUAL
350
34
  3
DIM
350
35
  3
FACEPATTERN
350
39
  3
FLAT
350
2B
  3
FLATWITHEDGES
350
2C
  3
GOURAUD
350
2D
  3
GOURAUDWITHEDGES
350
2E
  3
LINEPATTERN
350
38
  3
REALISTIC
350
33
  3
THICKEN
350
37
  0
DICTIONARY
  5
406
102
{ACAD_REACTORS
330
C
102
}
330
C
100
AcDbDictionary
  3
CEPSNTYPE
350
40F
  3
DIMSTYLEDATA
350
425
  3
FINGERPRINTGUID
350
410
  3
HYPERLINKBASE
350
409
  3
INSUNITS
350
40E
  3
LAYOUTDICT
350
40B
  3
LWETCUNION
350
40D
  3
PLOTSETDICT
350
40C
  3
PSVPSCALE
350
412
  3
PUCSBASE
350
415
  3
PUCSORGBACK
350
41B
  3
PUCSORGBOTTOM
350
417
  3
PUCSORGFRONT
350
41A
  3
PUCSORGLEFT
350
418
  3
PUCSORGRIGHT
350
419
  3
PUCSORGTOP
350
416
  3
PUCSORTHOREF
350
413
  3
PUCSORTHOVIEW
350
414
  3
STYLESHEET
350
40A
  3
TSTACKALIGN
350
407
  3
TSTACKSIZE
350
408
  3
UCSBASE
350
41E
  3
UCSORGBACK
350
424
  3
UCSORGBOTTOM
350
420
  3
UCSORGFRONT
350
423
  3
UCSORGLEFT
350
421
  3
UCSORGRIGHT
350
422
  3
UCSORGTOP
350
41F
  3
UCSORTHOREF
350
41C
  3
UCSORTHOVIEW
350
41D
  3
VERSIONGUID
350
411
  0
DICTIONARY
  5
426
102
{ACAD_REACTORS
330
C
102
}
330
C
100
AcDbDictionary
  3
DIMASSOC
350
42B
  3
HIDETEXT
350
42C
  3
PSOLHEIGHT
350
42A
  3
PSOLWIDTH
350
429
  0
MATERIAL
  5
3D
102
{ACAD_REACTORS
330
3B
102
}
102
{ACAD_XDICTIONARY
360
42F
102
}
330
3B
100
AcDbMaterial
  1
ByBlock
  0
MATERIAL
  5
3C
102
{ACAD_REACTORS
330
3B
102
}
102
{ACAD_XDICTIONARY
360
42D
102
}
330
3B
100
AcDbMaterial
  1
ByLayer
  0
MATERIAL
  5
3E
102
{ACAD_REACTORS
330
3B
102
}
102
{ACAD_XDICTIONARY
360
431
102
}
330
3B
100
AcDbMaterial
  1
Global
  0
MLINESTYLE
  5
18
102
{ACAD_REACTORS
330
17
102
}
330
17
100
AcDbMlineStyle
  2
Standard
 70
     0
  3

 62
   256
 51
90.0
 52
90.0
 71
     2
 49
0.5
 62
   256
  6
BYLAYER
 49
-0.5
 62
   256
  6
BYLAYER
  0
ACAD_PROXY_OBJECT
  5
2F
102
{ACAD_REACTORS
330
2A
102
}
330
2A
100
AcDbProxyObject
 90
      499
 91
      501
 93
      436
310
42CC9915DA5C99599C985B595049028333333333333E3BF0000000000000FB0107901411070040501600405405064090741402480A0340
1001
ACAD
1000
AcDbSavedByObjectVersion
1070
     0
  0
ACAD_PROXY_OBJECT
  5
31
102
{ACAD_REACTORS
330
2A
102
}
330
2A
100
AcDbProxyObject
 90
      499
 91
      501
 93
      500
310
424CD108121A5919195B90640502408333333333333E3BF0000000000000FB01079024090700405020000000000001110200405405064090740C02480A0340
1001
ACAD
1000
AcDbSavedByObjectVersion
1070
     0
  0
ACAD_PROXY_OBJECT
  5
30
102
{ACAD_REACTORS
330
2A
102
}
330
2A
100
AcDbProxyObject
 90
      499
 91
      501
 93
      436
310
42CCD915DA5C99599C985B595059028333333333333E3BF0000000000000FB0107901411070040501600405405064090741402480A0340
1001
ACAD
1000
AcDbSavedByObjectVersion
1070
     0
  0
ACAD_PROXY_OBJECT
  5
32
102
{ACAD_REACTORS
330
2A
102
}
330
2A
100
AcDbProxyObject
 90
      499
 91
      501
 93
      388
310
4150985CDA58D07406404333333333333E3BF0000000000000FB0107A41107004050150841D405064090741402480A0350
1001
ACAD
1000
AcDbSavedByObjectVersion
1070
     0
  0
ACAD_PROXY_OBJECT
  5
36
102
{ACAD_REACTORS
330
2A
102
}
330
2A
100
AcDbProxyObject
 90
      499
 91
      501
 93
      428
310
42109C9A59DA1D195B90C409028333333333333E3BF0000000000000FB010790141107004050150841D405064090741402480A029950
1001
ACAD
1000
AcDbSavedByObjectVersion
1070
     0
  0
ACAD_PROXY_OBJECT
  5
3A
102
{ACAD_REACTORS
330
2A
102
}
330
2A
100
AcDbProxyObject
 90
      499
 91
      501
 93
      452
310
42D0DBDB1BDC90DA185B99D95104090240C333333333333E3BF0000000000000FB0108901411070040501508421405064090741402480A0350
1001
ACAD
1000
AcDbSavedByObjectVersion
1070
     0
  0
ACAD_PROXY_OBJECT
  5
34
102
{ACAD_REACTORS
330
2A
102
}
330
2A
100
AcDbProxyObject
 90
      499
 91
      501
 93
      500
310
4290DBDB98D95C1D1D585B10940D028333333333333E3BF0000000000000FB0107902409070040501000000000000111010841D405064090740C02480A0340
1001
ACAD
1000
AcDbSavedByObjectVersion
1070
     0
  0
ACAD_PROXY_OBJECT
  5
35
102
{ACAD_REACTORS
330
2A
102
}
330
2A
100
AcDbProxyObject
 90
      499
 91
      501
 93
      412
310
40D11A5B50B409028333333333333E3BF0000000000000FB010790141107004050150841D405064090741402480A02677FFFFFD0
1001
ACAD
1000
AcDbSavedByObjectVersion
1070
     0
  0
ACAD_PROXY_OBJECT
  5
39
102
{ACAD_REACTORS
330
2A
102
}
330
2A
100
AcDbProxyObject
 90
      499
 91
      501
 93
      444
310
42D19858D95C185D1D195C9B90F409028333333333333E3BF0000000000000FB010790141107004050150841D405064090741402480A0350
1001
ACAD
1000
AcDbSavedByObjectVersion
1070
     0
  0
ACAD_PROXY_OBJECT
  5
2B
102
{ACAD_REACTORS
330
2A
102
}
330
2A
100
AcDbProxyObject
 90
      499
 91
      501
 93
      388
310
41119B185D240901404333333333333E3BF0000000000000F9010740A41107004050150841D405064090741402480A1B50
1001
ACAD
1000
AcDbSavedByObjectVersion
1070
     0
  0
ACAD_PROXY_OBJECT
  5
2C
102
{ACAD_REACTORS
330
2A
102
}
330
2A
100
AcDbProxyObject
 90
      499
 91
      501
 93
      476
310
43519B185D15DA5D1A115919D95CD0140901404333333333333E3BF0000000000000F9010740901411070040501600405405064090741402480A1B50
1001
ACAD
1000
AcDbSavedByObjectVersion
1070
     0
  0
ACAD_PROXY_OBJECT
  5
2D
102
{ACAD_REACTORS
330
2A
102
}
330
2A
100
AcDbProxyObject
 90
      499
 91
      501
 93
      412
310
41D1DBDD5C985D5910240902404333333333333E3BF0000000000000F9010740A411070040501641D405064090741402480A1B50
1001
ACAD
1000
AcDbSavedByObjectVersion
1070
     0
  0
ACAD_PROXY_OBJECT
  5
2E
102
{ACAD_REACTORS
330
2A
102
}
330
2A
100
AcDbProxyObject
 90
      499
 91
      501
 93
      500
310
4411DBDD5C985D5915DA5D1A115919D95CD0340902404333333333333E3BF0000000000000F9010740901411070040501600405405064090741402480A1B50
1001
ACAD
1000
AcDbSavedByObjectVersion
1070
     0
  0
ACAD_PROXY_OBJECT
  5
38
102
{ACAD_REACTORS
330
2A
102
}
330
2A
100
AcDbProxyObject
 90
      499
 91
      501
 93
      444
310
42D31A5B995C185D1D195C9B90E409028333333333333E3BF0000000000000FB010790141107004050750841D405064090741402483A0350
1001
ACAD
1000
AcDbSavedByObjectVersion
1070
     0
  0
ACAD_PROXY_OBJECT
  5
33
102
{ACAD_REACTORS
330
2A
102
}
330
2A
100
AcDbProxyObject
 90
      499
 91
      501
 93
      420
310
425499585B1A5CDD1A58D08409028333333333333E3BF0000000000000FB01079019070040501508421405064090741402480A1B40
1001
ACAD
1000
AcDbSavedByObjectVersion
1070
     0
  0
ACAD_PROXY_OBJECT
  5
37
102
{ACAD_REACTORS
330
2A
102
}
330
2A
100
AcDbProxyObject
 90
      499
 91
      501
 93
      412
310
41D51A1A58DAD95B90D409028333333333333E3BF0000000000000FB010790141107004050150C41D405064090741402480A0350
1001
ACAD
1000
AcDbSavedByObjectVersion
1070
     0
  0
XRECORD
  5
40F
102
{ACAD_REACTORS
330
406
102
}
330
406
100
AcDbXrecord
 90
        0
  0
XRECORD
  5
425
102
{ACAD_REACTORS
330
406
102
}
330
406
100
AcDbXrecord
1000
DSTYLE
1002
{
1070
   340
340
11
1002
}
  0
XRECORD
  5
410
102
{ACAD_REACTORS
330
406
102
}
330
406
100
AcDbXrecord
  1
{85165ED5-91D3-4231-A3E2-DEF55BA87592}
  0
XRECORD
  5
409
102
{ACAD_REACTORS
330
406
102
}
330
406
100
AcDbXrecord
  1

  0
XRECORD
  5
40E
102
{ACAD_REACTORS
330
406
102
}
330
406
100
AcDbXrecord
 90
        4
  0
XRECORD
  5
40B
102
{ACAD_REACTORS
330
406
102
}
330
406
100
AcDbXrecord
340
1A
  0
XRECORD
  5
40D
102
{ACAD_REACTORS
330
406
102
}
330
406
100
AcDbXrecord
 90
    10781
  0
XRECORD
  5
40C
102
{ACAD_REACTORS
330
406
102
}
330
406
100
AcDbXrecord
340
19
  0
XRECORD
  5
412
102
{ACAD_REACTORS
330
406
102
}
330
406
100
AcDbXrecord
 40
0.0
  0
XRECORD
  5
415
102
{ACAD_REACTORS
330
406
102
}
330
406
100
AcDbXrecord
340
0
  0
XRECORD
  5
41B
102
{ACAD_REACTORS
330
406
102
}
330
406
100
AcDbXrecord
 10
0.0
 20
0.0
 30
0.0
  0
XRECORD
  5
417
102
{ACAD_REACTORS
330
406
102
}
330
406
100
AcDbXrecord
 10
0.0
 20
0.0
 30
0.0
  0
XRECORD
  5
41A
102
{ACAD_REACTORS
330
406
102
}
330
406
100
AcDbXrecord
 10
0.0
 20
0.0
 30
0.0
  0
XRECORD
  5
418
102
{ACAD_REACTORS
330
406
102
}
330
406
100
AcDbXrecord
 10
0.0
 20
0.0
 30
0.0
  0
XRECORD
  5
419
102
{ACAD_REACTORS
330
406
102
}
330
406
100
AcDbXrecord
 10
0.0
 20
0.0
 30
0.0
  0
XRECORD
  5
416
102
{ACAD_REACTORS
330
406
102
}
330
406
100
AcDbXrecord
 10
0.0
 20
0.0
 30
0.0
  0
XRECORD
  5
413
102
{ACAD_REACTORS
330
406
102
}
330
406
100
AcDbXrecord
340
0
  0
XRECORD
  5
414
102
{ACAD_REACTORS
330
406
102
}
330
406
100
AcDbXrecord
 70
     0
  0
XRECORD
  5
40A
102
{ACAD_REACTORS
330
406
102
}
330
406
100
AcDbXrecord
  1

  0
XRECORD
  5
407
102
{ACAD_REACTORS
330
406
102
}
330
406
100
AcDbXrecord
 90
        1
  0
XRECORD
  5
408
102
{ACAD_REACTORS
330
406
102
}
330
406
100
AcDbXrecord
 90
       70
  0
XRECORD
  5
41E
102
{ACAD_REACTORS
330
406
102
}
330
406
100
AcDbXrecord
340
0
  0
XRECORD
  5
424
102
{ACAD_REACTORS
330
406
102
}
330
406
100
AcDbXrecord
 10
0.0
 20
0.0
 30
0.0
  0
XRECORD
  5
420
102
{ACAD_REACTORS
330
406
102
}
330
406
100
AcDbXrecord
 10
0.0
 20
0.0
 30
0.0
  0
XRECORD
  5
423
102
{ACAD_REACTORS
330
406
102
}
330
406
100
AcDbXrecord
 10
0.0
 20
0.0
 30
0.0
  0
XRECORD
  5
421
102
{ACAD_REACTORS
330
406
102
}
330
406
100
AcDbXrecord
 10
0.0
 20
0.0
 30
0.0
  0
XRECORD
  5
422
102
{ACAD_REACTORS
330
406
102
}
330
406
100
AcDbXrecord
 10
0.0
 20
0.0
 30
0.0
  0
XRECORD
  5
41F
102
{ACAD_REACTORS
330
406
102
}
330
406
100
AcDbXrecord
 10
0.0
 20
0.0
 30
0.0
  0
XRECORD
  5
41C
102
{ACAD_REACTORS
330
406
102
}
330
406
100
AcDbXrecord
340
0
  0
XRECORD
  5
41D
102
{ACAD_REACTORS
330
406
102
}
330
406
100
AcDbXrecord
 70
     0
  0
XRECORD
  5
411
102
{ACAD_REACTORS
330
406
102
}
330
406
100
AcDbXrecord
  1
{FAEB1C32-E019-11D5-929B-00C0DF256EC4}
  0
DICTIONARYVAR
  5
42B
102
{ACAD_REACTORS
330
426
102
}
330
426
100
DictionaryVariables
280
     0
  1
2
  0
DICTIONARYVAR
  5
42C
102
{ACAD_REACTORS
330
426
102
}
330
426
100
DictionaryVariables
280
     0
  1
1
  0
DICTIONARYVAR
  5
42A
102
{ACAD_REACTORS
330
426
102
}
330
426
100
DictionaryVariables
280
     0
  1
80.000000
  0
DICTIONARYVAR
  5
429
102
{ACAD_REACTORS
330
426
102
}
330
426
100
DictionaryVariables
280
     0
  1
5.000000
  0
DICTIONARY
  5
42F
330
3D
100
AcDbDictionary
280
     1
  3
ACAD_XREC_ROUNDTRIP
360
430
  0
DICTIONARY
  5
42D
330
3C
100
AcDbDictionary
280
     1
  3
ACAD_XREC_ROUNDTRIP
360
42E
  0
DICTIONARY
  5
431
330
3E
100
AcDbDictionary
280
     1
  3
ACAD_XREC_ROUNDTRIP
360
432
  0
XRECORD
  5
430
102
{ACAD_REACTORS
330
42F
102
}
330
42F
100
AcDbXrecord
102
MATERIAL
148
0.0
149
0.0
149
0.0
 93
        0
 94
      127
282
     0
 72
     1
 77
     1
171
     1
175
     1
179
     1
273
     0
  0
XRECORD
  5
42E
102
{ACAD_REACTORS
330
42D
102
}
330
42D
100
AcDbXrecord
102
MATERIAL
148
0.0
149
0.0
149
0.0
 93
        0
 94
      127
282
     0
 72
     1
 77
     1
171
     1
175
     1
179
     1
273
     0
  0
XRECORD
  5
432
102
{ACAD_REACTORS
330
431
102
}
330
431
100
AcDbXrecord
102
MATERIAL
148
0.0
149
0.0
149
0.0
 93
        0
 94
      127
282
     0
 72
     1
 77
     1
171
     1
175
     1
179
     1
273
     0
  0
ENDSEC
  0
EOF
