  0
SECTION
  2
HEADER
  9
$ACADVER
  1
AC1014
  9
$ACADMAINTVER
 70
     9
  9
$DWGCODEPAGE
  3
ANSI_932
  9
$INSBASE
 10
0.0
 20
0.0
 30
0.0
  9
$EXTMIN
 10
0.0000000000000092
 20
11.4999999999999
 30
0.0
  9
$EXTMAX
 10
200.35371094
 20
289.5
 30
0.0
  9
$LIMMIN
 10
0.0
 20
0.0
  9
$LIMMAX
 10
210.0
 20
297.0
  9
$ORTHOMODE
 70
     0
  9
$REGENMODE
 70
     1
  9
$FILLMODE
 70
     1
  9
$QTEXTMODE
 70
     0
  9
$MIRRTEXT
 70
     1
  9
$DRAGMODE
 70
     2
  9
$LTSCALE
 40
1.0
  9
$OSMODE
 70
    37
  9
$ATTMODE
 70
     1
  9
$TEXTSIZE
 40
2.5
  9
$TRACEWID
 40
1.0
  9
$TEXTSTYLE
  7
STANDARD
  9
$CLAYER
  8
LAY-3
  9
$CELTYPE
  6
BYLAYER
  9
$CECOLOR
 62
   256
  9
$CELTSCALE
 40
1.0
  9
$DELOBJ
 70
     1
  9
$DISPSILH
 70
     0
  9
$DIMSCALE
 40
1.0
  9
$DIMASZ
 40
2.5
  9
$DIMEXO
 40
0.625
  9
$DIMDLI
 40
3.75
  9
$DIMRND
 40
0.0
  9
$DIMDLE
 40
0.0
  9
$DIMEXE
 40
1.25
  9
$DIMTP
 40
0.0
  9
$DIMTM
 40
0.0
  9
$DIMTXT
 40
2.5
  9
$DIMCEN
 40
2.5
  9
$DIMTSZ
 40
0.0
  9
$DIMTOL
 70
     0
  9
$DIMLIM
 70
     0
  9
$DIMTIH
 70
     0
  9
$DIMTOH
 70
     0
  9
$DIMSE1
 70
     0
  9
$DIMSE2
 70
     0
  9
$DIMTAD
 70
     1
  9
$DIMZIN
 70
     8
  9
$DIMBLK
  1

  9
$DIMASO
 70
     1
  9
$DIMSHO
 70
     1
  9
$DIMPOST
  1

  9
$DIMAPOST
  1

  9
$DIMALT
 70
     0
  9
$DIMALTD
 70
     3
  9
$DIMALTF
 40
0.03937007874016
  9
$DIMLFAC
 40
1.0
  9
$DIMTOFL
 70
     1
  9
$DIMTVP
 40
0.0
  9
$DIMTIX
 70
     0
  9
$DIMSOXD
 70
     0
  9
$DIMSAH
 70
     0
  9
$DIMBLK1
  1

  9
$DIMBLK2
  1

  9
$DIMSTYLE
  2
ISO-25
  9
$DIMCLRD
 70
     0
  9
$DIMCLRE
 70
     0
  9
$DIMCLRT
 70
     0
  9
$DIMTFAC
 40
1.0
  9
$DIMGAP
 40
0.625
  9
$DIMJUST
 70
     0
  9
$DIMSD1
 70
     0
  9
$DIMSD2
 70
     0
  9
$DIMTOLJ
 70
     0
  9
$DIMTZIN
 70
     8
  9
$DIMALTZ
 70
     0
  9
$DIMALTTZ
 70
     0
  9
$DIMFIT
 70
     3
  9
$DIMUPT
 70
     0
  9
$DIMUNIT
 70
     2
  9
$DIMDEC
 70
     2
  9
$DIMTDEC
 70
     2
  9
$DIMALTU
 70
     2
  9
$DIMALTTD
 70
     3
  9
$DIMTXSTY
  7
STANDARD
  9
$DIMAUNIT
 70
     0
  9
$LUNITS
 70
     2
  9
$LUPREC
 70
     4
  9
$SKETCHINC
 40
1.0
  9
$FILLETRAD
 40
10.0
  9
$AUNITS
 70
     0
  9
$AUPREC
 70
     0
  9
$MENU
  1
.
  9
$ELEVATION
 40
0.0
  9
$PELEVATION
 40
0.0
  9
$THICKNESS
 40
0.0
  9
$LIMCHECK
 70
     0
  9
$CHAMFERA
 40
10.0
  9
$CHAMFERB
 40
10.0
  9
$CHAMFERC
 40
20.0
  9
$CHAMFERD
 40
0.0
  9
$SKPOLY
 70
     0
  9
$TDCREATE
 40
2460572.426660463
  9
$TDUPDATE
 40
2460572.426660833
  9
$TDINDWG
 40
0.0000000116
  9
$TDUSRTIMER
 40
0.0000000116
  9
$USRTIMER
 70
     1
  9
$ANGBASE
 50
0.0
  9
$ANGDIR
 70
     0
  9
$PDMODE
 70
     0
  9
$PDSIZE
 40
0.0
  9
$PLINEWID
 40
0.0
  9
$COORDS
 70
     1
  9
$SPLFRAME
 70
     0
  9
$SPLINETYPE
 70
     6
  9
$SPLINESEGS
 70
     8
  9
$ATTDIA
 70
     0
  9
$ATTREQ
 70
     1
  9
$HANDLING
 70
     1
  9
$HANDSEED
  5
442
  9
$SURFTAB1
 70
     6
  9
$SURFTAB2
 70
     6
  9
$SURFTYPE
 70
     6
  9
$SURFU
 70
     6
  9
$SURFV
 70
     6
  9
$UCSNAME
  2

  9
$UCSORG
 10
0.0
 20
0.0
 30
0.0
  9
$UCSXDIR
 10
1.0
 20
0.0
 30
0.0
  9
$UCSYDIR
 10
0.0
 20
1.0
 30
0.0
  9
$PUCSNAME
  2

  9
$PUCSORG
 10
0.0
 20
0.0
 30
0.0
  9
$PUCSXDIR
 10
1.0
 20
0.0
 30
0.0
  9
$PUCSYDIR
 10
0.0
 20
1.0
 30
0.0
  9
$USERI1
 70
     0
  9
$USERI2
 70
     0
  9
$USERI3
 70
     0
  9
$USERI4
 70
     0
  9
$USERI5
 70
     0
  9
$USERR1
 40
0.0
  9
$USERR2
 40
0.0
  9
$USERR3
 40
0.0
  9
$USERR4
 40
0.0
  9
$USERR5
 40
0.0
  9
$WORLDVIEW
 70
     1
  9
$SHADEDGE
 70
     3
  9
$SHADEDIF
 70
    70
  9
$TILEMODE
 70
     1
  9
$MAXACTVP
 70
    64
  9
$PINSBASE
 10
0.0
 20
0.0
 30
0.0
  9
$PLIMCHECK
 70
     0
  9
$PEXTMIN
 10
1.000000000000000E+20
 20
1.000000000000000E+20
 30
1.000000000000000E+20
  9
$PEXTMAX
 10
-1.000000000000000E+20
 20
-1.000000000000000E+20
 30
-1.000000000000000E+20
  9
$PLIMMIN
 10
0.0
 20
0.0
  9
$PLIMMAX
 10
420.0
 20
297.0
  9
$UNITMODE
 70
     0
  9
$VISRETAIN
 70
     1
  9
$PLINEGEN
 70
     0
  9
$PSLTSCALE
 70
     1
  9
$TREEDEPTH
 70
  3020
  9
$PICKSTYLE
 70
     1
  9
$CMLSTYLE
  2
STANDARD
  9
$CMLJUST
 70
     0
  9
$CMLSCALE
 40
20.0
  9
$PROXYGRAPHICS
 70
     1
  9
$MEASUREMENT
 70
     1
  0
ENDSEC
  0
SECTION
  2
CLASSES
  0
CLASS
  1
ACDBDICTIONARYWDFLT
  2
AcDbDictionaryWithDefault
  3
ObjectDBX Classes
 90
        0
280
     0
281
     0
  0
CLASS
  1
VISUALSTYLE
  2
AcDbVisualStyle
  3
ObjectDBX Classes
 90
     4095
280
     0
281
     0
  0
CLASS
  1
MATERIAL
  2
AcDbMaterial
  3
ObjectDBX Classes
 90
     1153
280
     0
281
     0
  0
CLASS
  1
SUN
  2
AcDbSun
  3
SCENEOE
 90
     1024
280
     0
281
     0
  0
CLASS
  1
DICTIONARYVAR
  2
AcDbDictionaryVar
  3
ObjectDBX Classes
 90
        0
280
     0
281
     0
  0
CLASS
  1
XRECORD
  2
AcDbXrecord
  3
AutoCAD 2000
 90
        0
280
     0
281
     0
  0
CLASS
  1
LWPOLYLINE
  2
AcDbPolyline
  3
AutoCAD 2000
 90
        0
280
     0
281
     1
  0
CLASS
  1
HATCH
  2
AcDbHatch
  3
AutoCAD 2000
 90
        0
280
     0
281
     1
  0
CLASS
  1
ACDBPLACEHOLDER
  2
AcDbPlaceHolder
  3
ObjectDBX Classes
 90
        0
280
     0
281
     0
  0
CLASS
  1
LAYOUT
  2
AcDbLayout
  3
ObjectDBX Classes
 90
        0
280
     0
281
     0
  0
ENDSEC
  0
SECTION
  2
TABLES
  0
TABLE
  2
VPORT
  5
8
330
0
100
AcDbSymbolTable
 70
     1
  0
VPORT
  5
29
330
8
100
AcDbSymbolTableRecord
100
AcDbViewportTableRecord
  2
*ACTIVE
 70
     0
 10
0.0
 20
0.0
 11
1.0
 21
1.0
 12
1001.7685547
 22
1504.999999999999
 13
0.0
 23
0.0
 14
10.0
 24
10.0
 15
10.0
 25
10.0
 16
0.0
 26
0.0
 36
1.0
 17
0.0
 27
0.0
 37
0.0
 40
2780.000000000001
 41
0.7206968019424457
 42
50.0
 43
0.0
 44
0.0
 50
0.0
 51
0.0
 71
     0
 72
  1000
 73
     1
 74
     3
 75
     0
 76
     0
 77
     0
 78
     0
  0
ENDTAB
  0
TABLE
  2
LTYPE
  5
5
330
0
100
AcDbSymbolTable
 70
     7
  0
LTYPE
  5
14
330
5
100
AcDbSymbolTableRecord
100
AcDbLinetypeTableRecord
  2
BYBLOCK
 70
     0
  3

 72
    65
 73
     0
 40
0.0
  0
LTYPE
  5
15
330
5
100
AcDbSymbolTableRecord
100
AcDbLinetypeTableRecord
  2
BYLAYER
 70
     0
  3

 72
    65
 73
     0
 40
0.0
  0
LTYPE
  5
16
330
5
100
AcDbSymbolTableRecord
100
AcDbLinetypeTableRecord
  2
CONTINUOUS
 70
     0
  3
Solid line
 72
    65
 73
     0
 40
0.0
  0
LTYPE
  5
40
330
5
100
AcDbSymbolTableRecord
100
AcDbLinetypeTableRecord
  2
EXLTYPE1
 70
     0
  3
破線
 72
    65
 73
     2
 40
3.0
 49
2.0
 74
     0
 49
-1.0
 74
     0
  0
LTYPE
  5
41
330
5
100
AcDbSymbolTableRecord
100
AcDbLinetypeTableRecord
  2
EXLTYPE2
 70
     0
  3
点線
 72
    65
 73
     2
 40
2.0
 49
1.0
 74
     0
 49
-1.0
 74
     0
  0
LTYPE
  5
42
330
5
100
AcDbSymbolTableRecord
100
AcDbLinetypeTableRecord
  2
EXLTYPE3
 70
     0
  3
一点鎖線
 72
    65
 73
     4
 40
10.0
 49
7.0
 74
     0
 49
-1.0
 74
     0
 49
1.0
 74
     0
 49
-1.0
 74
     0
  0
LTYPE
  5
43
330
5
100
AcDbSymbolTableRecord
100
AcDbLinetypeTableRecord
  2
EXLTYPE4
 70
     0
  3
二点鎖線
 72
    65
 73
     6
 40
12.0
 49
7.0
 74
     0
 49
-1.0
 74
     0
 49
1.0
 74
     0
 49
-1.0
 74
     0
 49
1.0
 74
     0
 49
-1.0
 74
     0
  0
LTYPE
  5
44
330
5
100
AcDbSymbolTableRecord
100
AcDbLinetypeTableRecord
  2
EXLTYPE5
 70
     0
  3
三点鎖線
 72
    65
 73
     8
 40
37.0
 49
30.0
 74
     0
 49
-1.0
 74
     0
 49
1.0
 74
     0
 49
-1.0
 74
     0
 49
1.0
 74
     0
 49
-1.0
 74
     0
 49
1.0
 74
     0
 49
-1.0
 74
     0
  0
LTYPE
  5
45
330
5
100
AcDbSymbolTableRecord
100
AcDbLinetypeTableRecord
  2
EXLTYPE6
 70
     0
  3
四点鎖線
 72
    65
 73
    10
 40
39.0
 49
30.0
 74
     0
 49
-1.0
 74
     0
 49
1.0
 74
     0
 49
-1.0
 74
     0
 49
1.0
 74
     0
 49
-1.0
 74
     0
 49
1.0
 74
     0
 49
-1.0
 74
     0
 49
1.0
 74
     0
 49
-1.0
 74
     0
  0
ENDTAB
  0
TABLE
  2
LAYER
  5
2
330
0
100
AcDbSymbolTable
 70
     5
  0
LAYER
  5
10
330
2
100
AcDbSymbolTableRecord
100
AcDbLayerTableRecord
  2
0
 70
     0
 62
     7
  6
CONTINUOUS
  0
LAYER
  5
48
330
2
100
AcDbSymbolTableRecord
100
AcDbLayerTableRecord
  2
LAY-1
 70
     0
 62
     7
  6
CONTINUOUS
  0
LAYER
  5
49
330
2
100
AcDbSymbolTableRecord
100
AcDbLayerTableRecord
  2
LAY-2
 70
     0
 62
     7
  6
CONTINUOUS
  0
LAYER
  5
4A
330
2
100
AcDbSymbolTableRecord
100
AcDbLayerTableRecord
  2
LAY-3
 70
     0
 62
     7
  6
CONTINUOUS
  0
LAYER
  5
3E2
330
2
100
AcDbSymbolTableRecord
100
AcDbLayerTableRecord
  2
DEFPOINTS
 70
     0
 62
     7
  6
CONTINUOUS
  0
ENDTAB
  0
TABLE
  2
STYLE
  5
3
330
0
100
AcDbSymbolTable
 70
     5
  0
STYLE
  5
11
330
3
100
AcDbSymbolTableRecord
100
AcDbTextStyleTableRecord
  2
STANDARD
 70
     0
 40
0.0
 41
1.0
 50
0.0
 71
     0
 42
2.5
  3
monotxt
  4
extfont
  0
STYLE
  5
46
330
3
100
AcDbSymbolTableRecord
100
AcDbTextStyleTableRecord
  2
EXCADSTD
 70
     0
 40
0.0
 41
1.0
 50
0.0
 71
     0
 42
0.2
  3
monotxt
  4
extfont
  0
STYLE
  5
47
330
3
100
AcDbSymbolTableRecord
100
AcDbTextStyleTableRecord
  2
EXCADVERT
 70
     4
 40
0.0
 41
1.0
 50
0.0
 71
     0
 42
0.286885
  3
monotxt
  4
extfont
  0
STYLE
  5
A7
330
3
100
AcDbSymbolTableRecord
100
AcDbTextStyleTableRecord
  2
EXCADTTF1
 70
     0
 40
0.0
 41
1.0
 50
0.0
 71
     0
 42
0.2
  3
MSGOTHIC.TTC
  4

1001
ACAD
1000
MS Gothic
1071
    32817
  0
STYLE
  5
3E0
330
3
100
AcDbSymbolTableRecord
100
AcDbTextStyleTableRecord
  2
EXCADDIM1
 70
     0
 40
0.0
 41
0.84
 50
0.0
 71
     0
 42
0.2
  3
monotxt
  4
extfont
  0
ENDTAB
  0
TABLE
  2
VIEW
  5
6
330
0
100
AcDbSymbolTable
 70
     0
  0
ENDTAB
  0
TABLE
  2
UCS
  5
7
330
0
100
AcDbSymbolTable
 70
     0
  0
ENDTAB
  0
TABLE
  2
APPID
  5
9
330
0
100
AcDbSymbolTable
 70
     1
  0
APPID
  5
12
330
9
100
AcDbSymbolTableRecord
100
AcDbRegAppTableRecord
  2
ACAD
 70
     0
  0
ENDTAB
  0
TABLE
  2
DIMSTYLE
  5
A
330
0
100
AcDbSymbolTable
 70
     1
  0
DIMSTYLE
105
27
102
{ACAD_REACTORS
330
3E1
330
3EF
330
3FC
330
409
102
}
330
A
100
AcDbSymbolTableRecord
100
AcDbDimStyleTableRecord
  2
ISO-25
 70
     0
  3

  4

  5

  6

  7

 40
1.0
 41
2.5
 42
0.625
 43
3.75
 44
1.25
 45
0.0
 46
0.0
 47
0.0
 48
0.0
140
2.5
141
2.5
142
0.0
143
0.03937007874016
144
1.0
145
0.0
146
1.0
147
0.625
 71
     0
 72
     0
 73
     0
 74
     0
 75
     0
 76
     0
 77
     1
 78
     8
170
     0
171
     3
172
     1
173
     0
174
     0
175
     0
176
     0
177
     0
178
     0
270
     2
271
     2
272
     2
273
     2
274
     3
340
11
275
     0
280
     0
281
     0
282
     0
283
     0
284
     8
285
     0
286
     0
287
     5
288
     0
  0
ENDTAB
  0
TABLE
  2
BLOCK_RECORD
  5
1
330
0
100
AcDbSymbolTable
 70
    19
  0
BLOCK_RECORD
  5
1F
330
1
100
AcDbSymbolTableRecord
100
AcDbBlockTableRecord
  2
*MODEL_SPACE
  0
BLOCK_RECORD
  5
1B
330
1
100
AcDbSymbolTableRecord
100
AcDbBlockTableRecord
  2
*PAPER_SPACE
  0
BLOCK_RECORD
  5
4B
330
1
100
AcDbSymbolTableRecord
100
AcDbBlockTableRecord
  2
EX_NORM
  0
BLOCK_RECORD
  5
4E
330
1
100
AcDbSymbolTableRecord
100
AcDbBlockTableRecord
  2
EX_BNORM
  0
BLOCK_RECORD
  5
51
330
1
100
AcDbSymbolTableRecord
100
AcDbBlockTableRecord
  2
EX_BCIR
  0
BLOCK_RECORD
  5
54
330
1
100
AcDbSymbolTableRecord
100
AcDbBlockTableRecord
  2
EX_RCIVIL
  0
BLOCK_RECORD
  5
57
330
1
100
AcDbSymbolTableRecord
100
AcDbBlockTableRecord
  2
EX_SLANT
  0
BLOCK_RECORD
  5
5A
330
1
100
AcDbSymbolTableRecord
100
AcDbBlockTableRecord
  2
EX_NONE
  0
BLOCK_RECORD
  5
5D
330
1
100
AcDbSymbolTableRecord
100
AcDbBlockTableRecord
  2
EX_CIVIL
  0
BLOCK_RECORD
  5
60
330
1
100
AcDbSymbolTableRecord
100
AcDbBlockTableRecord
  2
EX_WCIR
  0
BLOCK_RECORD
  5
63
330
1
100
AcDbSymbolTableRecord
100
AcDbBlockTableRecord
  2
EX_WCIR2
  0
BLOCK_RECORD
  5
66
330
1
100
AcDbSymbolTableRecord
100
AcDbBlockTableRecord
  2
EX_WNORM
  0
BLOCK_RECORD
  5
69
330
1
100
AcDbSymbolTableRecord
100
AcDbBlockTableRecord
  2
EX_NNORM
  0
BLOCK_RECORD
  5
6C
330
1
100
AcDbSymbolTableRecord
100
AcDbBlockTableRecord
  2
EX_BBOX
  0
BLOCK_RECORD
  5
6F
330
1
100
AcDbSymbolTableRecord
100
AcDbBlockTableRecord
  2
EX_WBOX
  0
BLOCK_RECORD
  5
72
330
1
100
AcDbSymbolTableRecord
100
AcDbBlockTableRecord
  2
EX_INTEGRAL
  0
BLOCK_RECORD
  5
3E3
330
1
100
AcDbSymbolTableRecord
100
AcDbBlockTableRecord
  2
*D15
  0
BLOCK_RECORD
  5
3F0
330
1
100
AcDbSymbolTableRecord
100
AcDbBlockTableRecord
  2
*D16
  0
BLOCK_RECORD
  5
3FD
330
1
100
AcDbSymbolTableRecord
100
AcDbBlockTableRecord
  2
*D17
  0
BLOCK_RECORD
  5
40A
330
1
100
AcDbSymbolTableRecord
100
AcDbBlockTableRecord
  2
*D18
  0
ENDTAB
  0
ENDSEC
  0
SECTION
  2
BLOCKS
  0
BLOCK
  5
20
330
1F
100
AcDbEntity
  8
0
100
AcDbBlockBegin
  2
*MODEL_SPACE
 70
     0
 10
0.0
 20
0.0
 30
0.0
  3
*MODEL_SPACE
  1

  0
ENDBLK
  5
21
330
1F
100
AcDbEntity
  8
0
100
AcDbBlockEnd
  0
BLOCK
  5
1C
330
1B
100
AcDbEntity
 67
     1
  8
0
100
AcDbBlockBegin
  2
*PAPER_SPACE
 70
     0
 10
0.0
 20
0.0
 30
0.0
  3
*PAPER_SPACE
  1

  0
ENDBLK
  5
1D
330
1B
100
AcDbEntity
 67
     1
  8
0
100
AcDbBlockEnd
  0
BLOCK
  5
4C
330
4B
100
AcDbEntity
  8
0
100
AcDbBlockBegin
  2
EX_NORM
 70
     0
 10
0.0
 20
0.0
 30
0.0
  3
EX_NORM
  1

  0
LINE
  5
75
330
4B
100
AcDbEntity
  8
0
  6
CONTINUOUS
 62
     0
100
AcDbLine
 10
0.0
 20
0.0
 30
0.0
 11
-1.0
 21
0.0
 31
0.0
  0
LINE
  5
76
330
4B
100
AcDbEntity
  8
0
  6
CONTINUOUS
 62
     0
100
AcDbLine
 10
0.0
 20
0.0
 30
0.0
 11
-1.0
 21
0.166666667
 31
0.0
  0
LINE
  5
77
330
4B
100
AcDbEntity
  8
0
  6
CONTINUOUS
 62
     0
100
AcDbLine
 10
0.0
 20
0.0
 30
0.0
 11
-1.0
 21
-0.166666667
 31
0.0
  0
ENDBLK
  5
4D
330
4B
100
AcDbEntity
  8
0
100
AcDbBlockEnd
  0
BLOCK
  5
4F
330
4E
100
AcDbEntity
  8
0
100
AcDbBlockBegin
  2
EX_BNORM
 70
     0
 10
0.0
 20
0.0
 30
0.0
  3
EX_BNORM
  1

  0
LINE
  5
78
330
4E
100
AcDbEntity
  8
0
  6
CONTINUOUS
 62
     0
100
AcDbLine
 10
0.0
 20
0.0
 30
0.0
 11
-1.0
 21
0.0
 31
0.0
  0
LINE
  5
79
330
4E
100
AcDbEntity
  8
0
  6
CONTINUOUS
 62
     0
100
AcDbLine
 10
0.0
 20
0.0
 30
0.0
 11
-1.0
 21
0.166666667
 31
0.0
  0
LINE
  5
7A
330
4E
100
AcDbEntity
  8
0
  6
CONTINUOUS
 62
     0
100
AcDbLine
 10
0.0
 20
0.0
 30
0.0
 11
-1.0
 21
-0.166666667
 31
0.0
  0
LINE
  5
7B
330
4E
100
AcDbEntity
  8
0
  6
CONTINUOUS
 62
     0
100
AcDbLine
 10
0.0
 20
0.0
 30
0.0
 11
-1.0
 21
0.083333333
 31
0.0
  0
LINE
  5
7C
330
4E
100
AcDbEntity
  8
0
  6
CONTINUOUS
 62
     0
100
AcDbLine
 10
0.0
 20
0.0
 30
0.0
 11
-1.0
 21
-0.083333333
 31
0.0
  0
LINE
  5
7D
330
4E
100
AcDbEntity
  8
0
  6
CONTINUOUS
 62
     0
100
AcDbLine
 10
-1.0
 20
0.166666667
 30
0.0
 11
-1.0
 21
-0.166666667
 31
0.0
  0
ENDBLK
  5
50
330
4E
100
AcDbEntity
  8
0
100
AcDbBlockEnd
  0
BLOCK
  5
52
330
51
100
AcDbEntity
  8
0
100
AcDbBlockBegin
  2
EX_BCIR
 70
     0
 10
0.0
 20
0.0
 30
0.0
  3
EX_BCIR
  1

  0
LINE
  5
7E
330
51
100
AcDbEntity
  8
0
  6
CONTINUOUS
 62
     0
100
AcDbLine
 10
0.0
 20
0.0
 30
0.0
 11
-1.0
 21
0.0
 31
0.0
  0
CIRCLE
  5
7F
330
51
100
AcDbEntity
  8
0
  6
CONTINUOUS
 62
     0
100
AcDbCircle
 10
0.0
 20
0.0
 30
0.0
 40
0.5
  0
CIRCLE
  5
80
330
51
100
AcDbEntity
  8
0
  6
CONTINUOUS
 62
     0
100
AcDbCircle
 10
0.0
 20
0.0
 30
0.0
 40
0.25
  0
ENDBLK
  5
53
330
51
100
AcDbEntity
  8
0
100
AcDbBlockEnd
  0
BLOCK
  5
55
330
54
100
AcDbEntity
  8
0
100
AcDbBlockBegin
  2
EX_RCIVIL
 70
     0
 10
0.0
 20
0.0
 30
0.0
  3
EX_RCIVIL
  1

  0
LINE
  5
81
330
54
100
AcDbEntity
  8
0
  6
CONTINUOUS
 62
     0
100
AcDbLine
 10
0.0
 20
0.0
 30
0.0
 11
-1.0
 21
0.0
 31
0.0
  0
LINE
  5
82
330
54
100
AcDbEntity
  8
0
  6
CONTINUOUS
 62
     0
100
AcDbLine
 10
-1.0
 20
-0.25
 30
0.0
 11
0.0
 21
-0.25
 31
0.0
  0
LINE
  5
83
330
54
100
AcDbEntity
  8
0
  6
CONTINUOUS
 62
     0
100
AcDbLine
 10
-1.0
 20
-0.125
 30
0.0
 11
0.0
 21
-0.125
 31
0.0
  0
ENDBLK
  5
56
330
54
100
AcDbEntity
  8
0
100
AcDbBlockEnd
  0
BLOCK
  5
58
330
57
100
AcDbEntity
  8
0
100
AcDbBlockBegin
  2
EX_SLANT
 70
     0
 10
0.0
 20
0.0
 30
0.0
  3
EX_SLANT
  1

  0
LINE
  5
84
330
57
100
AcDbEntity
  8
0
  6
CONTINUOUS
 62
     0
100
AcDbLine
 10
0.0
 20
0.0
 30
0.0
 11
-1.0
 21
0.0
 31
0.0
  0
LINE
  5
85
330
57
100
AcDbEntity
  8
0
  6
CONTINUOUS
 62
     0
100
AcDbLine
 10
0.707106781
 20
0.707106781
 30
0.0
 11
-0.707106781
 21
-0.707106781
 31
0.0
  0
ENDBLK
  5
59
330
57
100
AcDbEntity
  8
0
100
AcDbBlockEnd
  0
BLOCK
  5
5B
330
5A
100
AcDbEntity
  8
0
100
AcDbBlockBegin
  2
EX_NONE
 70
     0
 10
0.0
 20
0.0
 30
0.0
  3
EX_NONE
  1

  0
LINE
  5
86
330
5A
100
AcDbEntity
  8
0
  6
CONTINUOUS
 62
     0
100
AcDbLine
 10
0.0
 20
0.0
 30
0.0
 11
-1.0
 21
0.0
 31
0.0
  0
ENDBLK
  5
5C
330
5A
100
AcDbEntity
  8
0
100
AcDbBlockEnd
  0
BLOCK
  5
5E
330
5D
100
AcDbEntity
  8
0
100
AcDbBlockBegin
  2
EX_CIVIL
 70
     0
 10
0.0
 20
0.0
 30
0.0
  3
EX_CIVIL
  1

  0
LINE
  5
87
330
5D
100
AcDbEntity
  8
0
  6
CONTINUOUS
 62
     0
100
AcDbLine
 10
0.0
 20
0.0
 30
0.0
 11
-1.0
 21
0.0
 31
0.0
  0
LINE
  5
88
330
5D
100
AcDbEntity
  8
0
  6
CONTINUOUS
 62
     0
100
AcDbLine
 10
-1.0
 20
0.25
 30
0.0
 11
0.0
 21
0.25
 31
0.0
  0
LINE
  5
89
330
5D
100
AcDbEntity
  8
0
  6
CONTINUOUS
 62
     0
100
AcDbLine
 10
-1.0
 20
0.125
 30
0.0
 11
0.0
 21
0.125
 31
0.0
  0
ENDBLK
  5
5F
330
5D
100
AcDbEntity
  8
0
100
AcDbBlockEnd
  0
BLOCK
  5
61
330
60
100
AcDbEntity
  8
0
100
AcDbBlockBegin
  2
EX_WCIR
 70
     0
 10
0.0
 20
0.0
 30
0.0
  3
EX_WCIR
  1

  0
LINE
  5
8A
330
60
100
AcDbEntity
  8
0
  6
CONTINUOUS
 62
     0
100
AcDbLine
 10
0.0
 20
0.0
 30
0.0
 11
-1.0
 21
0.0
 31
0.0
  0
CIRCLE
  5
8B
330
60
100
AcDbEntity
  8
0
  6
CONTINUOUS
 62
     0
100
AcDbCircle
 10
0.0
 20
0.0
 30
0.0
 40
0.5
  0
ENDBLK
  5
62
330
60
100
AcDbEntity
  8
0
100
AcDbBlockEnd
  0
BLOCK
  5
64
330
63
100
AcDbEntity
  8
0
100
AcDbBlockBegin
  2
EX_WCIR2
 70
     0
 10
0.0
 20
0.0
 30
0.0
  3
EX_WCIR2
  1

  0
LINE
  5
8C
330
63
100
AcDbEntity
  8
0
  6
CONTINUOUS
 62
     0
100
AcDbLine
 10
-0.5
 20
0.0
 30
0.0
 11
-1.0
 21
0.0
 31
0.0
  0
CIRCLE
  5
8D
330
63
100
AcDbEntity
  8
0
  6
CONTINUOUS
 62
     0
100
AcDbCircle
 10
0.0
 20
0.0
 30
0.0
 40
0.5
  0
ENDBLK
  5
65
330
63
100
AcDbEntity
  8
0
100
AcDbBlockEnd
  0
BLOCK
  5
67
330
66
100
AcDbEntity
  8
0
100
AcDbBlockBegin
  2
EX_WNORM
 70
     0
 10
0.0
 20
0.0
 30
0.0
  3
EX_WNORM
  1

  0
LINE
  5
8E
330
66
100
AcDbEntity
  8
0
  6
CONTINUOUS
 62
     0
100
AcDbLine
 10
-1.0
 20
0.0
 30
0.0
 11
-1.0
 21
0.0
 31
0.0
  0
LINE
  5
8F
330
66
100
AcDbEntity
  8
0
  6
CONTINUOUS
 62
     0
100
AcDbLine
 10
0.0
 20
0.0
 30
0.0
 11
-1.0
 21
0.166666667
 31
0.0
  0
LINE
  5
90
330
66
100
AcDbEntity
  8
0
  6
CONTINUOUS
 62
     0
100
AcDbLine
 10
0.0
 20
0.0
 30
0.0
 11
-1.0
 21
-0.166666667
 31
0.0
  0
LINE
  5
91
330
66
100
AcDbEntity
  8
0
  6
CONTINUOUS
 62
     0
100
AcDbLine
 10
-1.0
 20
0.166666667
 30
0.0
 11
-1.0
 21
-0.166666667
 31
0.0
  0
ENDBLK
  5
68
330
66
100
AcDbEntity
  8
0
100
AcDbBlockEnd
  0
BLOCK
  5
6A
330
69
100
AcDbEntity
  8
0
100
AcDbBlockBegin
  2
EX_NNORM
 70
     0
 10
0.0
 20
0.0
 30
0.0
  3
EX_NNORM
  1

  0
LINE
  5
92
330
69
100
AcDbEntity
  8
0
  6
CONTINUOUS
 62
     0
100
AcDbLine
 10
0.0
 20
0.0
 30
0.0
 11
-1.0
 21
0.0
 31
0.0
  0
LINE
  5
93
330
69
100
AcDbEntity
  8
0
  6
CONTINUOUS
 62
     0
100
AcDbLine
 10
0.0
 20
0.0
 30
0.0
 11
-1.0
 21
0.166666667
 31
0.0
  0
LINE
  5
94
330
69
100
AcDbEntity
  8
0
  6
CONTINUOUS
 62
     0
100
AcDbLine
 10
0.0
 20
0.0
 30
0.0
 11
-1.0
 21
-0.166666667
 31
0.0
  0
LINE
  5
95
330
69
100
AcDbEntity
  8
0
  6
CONTINUOUS
 62
     0
100
AcDbLine
 10
-1.0
 20
0.166666667
 30
0.0
 11
-1.0
 21
-0.166666667
 31
0.0
  0
ENDBLK
  5
6B
330
69
100
AcDbEntity
  8
0
100
AcDbBlockEnd
  0
BLOCK
  5
6D
330
6C
100
AcDbEntity
  8
0
100
AcDbBlockBegin
  2
EX_BBOX
 70
     0
 10
0.0
 20
0.0
 30
0.0
  3
EX_BBOX
  1

  0
LINE
  5
96
330
6C
100
AcDbEntity
  8
0
  6
CONTINUOUS
 62
     0
100
AcDbLine
 10
0.0
 20
0.0
 30
0.0
 11
-1.0
 21
0.0
 31
0.0
  0
LINE
  5
97
330
6C
100
AcDbEntity
  8
0
  6
CONTINUOUS
 62
     0
100
AcDbLine
 10
-0.5
 20
0.5
 30
0.0
 11
0.5
 21
0.5
 31
0.0
  0
LINE
  5
98
330
6C
100
AcDbEntity
  8
0
  6
CONTINUOUS
 62
     0
100
AcDbLine
 10
0.5
 20
0.5
 30
0.0
 11
0.5
 21
-0.5
 31
0.0
  0
LINE
  5
99
330
6C
100
AcDbEntity
  8
0
  6
CONTINUOUS
 62
     0
100
AcDbLine
 10
0.5
 20
-0.5
 30
0.0
 11
-0.5
 21
-0.5
 31
0.0
  0
LINE
  5
9A
330
6C
100
AcDbEntity
  8
0
  6
CONTINUOUS
 62
     0
100
AcDbLine
 10
-0.5
 20
-0.5
 30
0.0
 11
-0.5
 21
0.5
 31
0.0
  0
LINE
  5
9B
330
6C
100
AcDbEntity
  8
0
  6
CONTINUOUS
 62
     0
100
AcDbLine
 10
-0.25
 20
0.25
 30
0.0
 11
0.25
 21
0.25
 31
0.0
  0
LINE
  5
9C
330
6C
100
AcDbEntity
  8
0
  6
CONTINUOUS
 62
     0
100
AcDbLine
 10
0.25
 20
0.25
 30
0.0
 11
0.25
 21
-0.25
 31
0.0
  0
LINE
  5
9D
330
6C
100
AcDbEntity
  8
0
  6
CONTINUOUS
 62
     0
100
AcDbLine
 10
0.25
 20
-0.25
 30
0.0
 11
-0.25
 21
-0.25
 31
0.0
  0
LINE
  5
9E
330
6C
100
AcDbEntity
  8
0
  6
CONTINUOUS
 62
     0
100
AcDbLine
 10
-0.25
 20
-0.25
 30
0.0
 11
-0.25
 21
0.25
 31
0.0
  0
ENDBLK
  5
6E
330
6C
100
AcDbEntity
  8
0
100
AcDbBlockEnd
  0
BLOCK
  5
70
330
6F
100
AcDbEntity
  8
0
100
AcDbBlockBegin
  2
EX_WBOX
 70
     0
 10
0.0
 20
0.0
 30
0.0
  3
EX_WBOX
  1

  0
LINE
  5
9F
330
6F
100
AcDbEntity
  8
0
  6
CONTINUOUS
 62
     0
100
AcDbLine
 10
-0.5
 20
0.0
 30
0.0
 11
-1.0
 21
0.0
 31
0.0
  0
LINE
  5
A0
330
6F
100
AcDbEntity
  8
0
  6
CONTINUOUS
 62
     0
100
AcDbLine
 10
-0.5
 20
0.5
 30
0.0
 11
0.5
 21
0.5
 31
0.0
  0
LINE
  5
A1
330
6F
100
AcDbEntity
  8
0
  6
CONTINUOUS
 62
     0
100
AcDbLine
 10
0.5
 20
0.5
 30
0.0
 11
0.5
 21
-0.5
 31
0.0
  0
LINE
  5
A2
330
6F
100
AcDbEntity
  8
0
  6
CONTINUOUS
 62
     0
100
AcDbLine
 10
0.5
 20
-0.5
 30
0.0
 11
-0.5
 21
-0.5
 31
0.0
  0
LINE
  5
A3
330
6F
100
AcDbEntity
  8
0
  6
CONTINUOUS
 62
     0
100
AcDbLine
 10
-0.5
 20
-0.5
 30
0.0
 11
-0.5
 21
0.5
 31
0.0
  0
ENDBLK
  5
71
330
6F
100
AcDbEntity
  8
0
100
AcDbBlockEnd
  0
BLOCK
  5
73
330
72
100
AcDbEntity
  8
0
100
AcDbBlockBegin
  2
EX_INTEGRAL
 70
     0
 10
0.0
 20
0.0
 30
0.0
  3
EX_INTEGRAL
  1

  0
LINE
  5
A4
330
72
100
AcDbEntity
  8
0
  6
CONTINUOUS
 62
     0
100
AcDbLine
 10
0.0
 20
0.0
 30
0.0
 11
-1.0
 21
0.0
 31
0.0
  0
ARC
  5
A5
330
72
100
AcDbEntity
  8
0
  6
CONTINUOUS
 62
     0
100
AcDbCircle
 10
0.542115
 20
0.164992
 30
0.0
 40
0.56667
100
AcDbArc
 50
73.07249033629006
 51
196.9275130221199
  0
ARC
  5
A6
330
72
100
AcDbEntity
  8
0
  6
CONTINUOUS
 62
     0
100
AcDbCircle
 10
-0.542115
 20
-0.164992
 30
0.0
 40
0.56667
100
AcDbArc
 50
253.0724869220464
 51
16.9275130559125
  0
ENDBLK
  5
74
330
72
100
AcDbEntity
  8
0
100
AcDbBlockEnd
  0
BLOCK
  5
3E4
330
3E3
100
AcDbEntity
  8
0
100
AcDbBlockBegin
  2
*D15
 70
     1
 10
0.0
 20
0.0
 30
0.0
  3
*D15
  1

  0
LINE
  5
3E6
330
3E3
100
AcDbEntity
  8
LAY-3
  6
CONTINUOUS
 62
     3
100
AcDbLine
 10
1028.812506
 20
2028.550536
 30
0.0
 11
1173.889043
 21
2028.550536
 31
0.0
  0
LINE
  5
3E7
330
3E3
100
AcDbEntity
  8
LAY-3
  6
CONTINUOUS
 62
     3
100
AcDbLine
 10
1023.889043
 20
2430.550536
 30
0.0
 11
1173.889043
 21
2430.550536
 31
0.0
  0
LINE
  5
3E8
330
3E3
100
AcDbEntity
  8
LAY-3
  6
CONTINUOUS
 62
     3
100
AcDbLine
 10
1173.889043
 20
2058.550536
 30
0.0
 11
1173.889043
 21
2400.550536
 31
0.0
  0
INSERT
  5
3E9
330
3E3
100
AcDbEntity
  8
LAY-3
 62
     3
100
AcDbBlockReference
  2
EX_NORM
 10
1173.889043
 20
2028.550536
 30
0.0
 41
30.0
 42
30.0
 43
30.0
 50
270.0
  0
INSERT
  5
3EA
330
3E3
100
AcDbEntity
  8
LAY-3
 62
     3
100
AcDbBlockReference
  2
EX_NORM
 10
1173.889043
 20
2430.550536
 30
0.0
 41
30.0
 42
30.0
 43
30.0
 50
90.0
  0
MTEXT
  5
3EB
330
3E3
100
AcDbEntity
  8
LAY-3
 62
     2
100
AcDbMText
 10
1148.889043
 20
2229.550536
 30
0.0
 40
40.0
 41
0.0
 71
     5
 72
     1
  1
402
  7
EXCADDIM1
 11
0.0
 21
1.0
 31
0.0
  0
POINT
  5
3EC
330
3E3
100
AcDbEntity
  8
DEFPOINTS
 62
     0
100
AcDbPoint
 10
1028.812506
 20
2028.550536
 30
0.0
  0
POINT
  5
3ED
330
3E3
100
AcDbEntity
  8
DEFPOINTS
 62
     0
100
AcDbPoint
 10
1023.889043
 20
2430.550536
 30
0.0
  0
POINT
  5
3EE
330
3E3
100
AcDbEntity
  8
DEFPOINTS
 62
     0
100
AcDbPoint
 10
1173.889043
 20
2430.550536
 30
0.0
  0
ENDBLK
  5
3E5
330
3E3
100
AcDbEntity
  8
0
100
AcDbBlockEnd
  0
BLOCK
  5
3F1
330
3F0
100
AcDbEntity
  8
0
100
AcDbBlockBegin
  2
*D16
 70
     1
 10
0.0
 20
0.0
 30
0.0
  3
*D16
  1

  0
LINE
  5
3F3
330
3F0
100
AcDbEntity
  8
LAY-3
  6
CONTINUOUS
 62
     3
100
AcDbLine
 10
1538.65878
 20
1355.510329190735
 30
0.0
 11
1538.65878
 21
1263.910329
 31
0.0
  0
LINE
  5
3F4
330
3F0
100
AcDbEntity
  8
LAY-3
  6
CONTINUOUS
 62
     3
100
AcDbLine
 10
1678.65878
 20
1355.510329190735
 30
0.0
 11
1678.65878
 21
1263.910329
 31
0.0
  0
LINE
  5
3F5
330
3F0
100
AcDbEntity
  8
LAY-3
  6
CONTINUOUS
 62
     3
100
AcDbLine
 10
1573.65878
 20
1283.910329
 30
0.0
 11
1643.65878
 21
1283.910329
 31
0.0
  0
INSERT
  5
3F6
330
3F0
100
AcDbEntity
  8
LAY-3
 62
     3
100
AcDbBlockReference
  2
EX_NORM
 10
1538.65878
 20
1283.910329
 30
0.0
 41
35.0
 42
35.0
 43
35.0
 50
180.0
  0
INSERT
  5
3F7
330
3F0
100
AcDbEntity
  8
LAY-3
 62
     3
100
AcDbBlockReference
  2
EX_NORM
 10
1678.65878
 20
1283.910329
 30
0.0
 41
35.0
 42
35.0
 43
35.0
  0
MTEXT
  5
3F8
330
3F0
100
AcDbEntity
  8
LAY-3
 62
     2
100
AcDbMText
 10
1608.65878
 20
1307.410328940395
 30
0.0
 40
40.0
 41
0.0
 71
     5
 72
     1
  1
140
  7
EXCADDIM1
  0
POINT
  5
3F9
330
3F0
100
AcDbEntity
  8
DEFPOINTS
 62
     0
100
AcDbPoint
 10
1538.65878
 20
1378.210329
 30
0.0
  0
POINT
  5
3FA
330
3F0
100
AcDbEntity
  8
DEFPOINTS
 62
     0
100
AcDbPoint
 10
1678.65878
 20
1378.210329
 30
0.0
  0
POINT
  5
3FB
330
3F0
100
AcDbEntity
  8
DEFPOINTS
 62
     0
100
AcDbPoint
 10
1678.65878
 20
1283.910329
 30
0.0
  0
ENDBLK
  5
3F2
330
3F0
100
AcDbEntity
  8
0
100
AcDbBlockEnd
  0
BLOCK
  5
3FE
330
3FD
100
AcDbEntity
  8
0
100
AcDbBlockBegin
  2
*D17
 70
     1
 10
0.0
 20
0.0
 30
0.0
  3
*D17
  1

  0
LINE
  5
400
330
3FD
100
AcDbEntity
  8
LAY-3
  6
CONTINUOUS
 62
     3
100
AcDbLine
 10
1813.074794880791
 20
1459.710329
 30
0.0
 11
1891.66715
 21
1459.710329
 31
0.0
  0
LINE
  5
401
330
3FD
100
AcDbEntity
  8
LAY-3
  6
CONTINUOUS
 62
     3
100
AcDbLine
 10
1690.185366880791
 20
1364.710329
 30
0.0
 11
1891.66715
 21
1364.710329
 31
0.0
  0
LINE
  5
402
330
3FD
100
AcDbEntity
  8
LAY-3
  6
CONTINUOUS
 62
     3
100
AcDbLine
 10
1881.66715
 20
1429.710329
 30
0.0
 11
1881.66715
 21
1394.710329
 31
0.0
  0
INSERT
  5
403
330
3FD
100
AcDbEntity
  8
LAY-3
 62
     3
100
AcDbBlockReference
  2
EX_NORM
 10
1881.66715
 20
1459.710329
 30
0.0
 41
30.0
 42
30.0
 43
30.0
 50
90.0
  0
INSERT
  5
404
330
3FD
100
AcDbEntity
  8
LAY-3
 62
     3
100
AcDbBlockReference
  2
EX_NORM
 10
1881.66715
 20
1364.710329
 30
0.0
 41
30.0
 42
30.0
 43
30.0
 50
270.0
  0
MTEXT
  5
405
330
3FD
100
AcDbEntity
  8
LAY-3
 62
     2
100
AcDbMText
 10
1858.167150059605
 20
1412.210329
 30
0.0
 40
40.0
 41
0.0
 71
     5
 72
     1
  1
（95）
  7
EXCADDIM1
 11
0.0
 21
1.0
 31
0.0
  0
POINT
  5
406
330
3FD
100
AcDbEntity
  8
DEFPOINTS
 62
     0
100
AcDbPoint
 10
1806.074795
 20
1459.710329
 30
0.0
  0
POINT
  5
407
330
3FD
100
AcDbEntity
  8
DEFPOINTS
 62
     0
100
AcDbPoint
 10
1683.185367
 20
1364.710329
 30
0.0
  0
POINT
  5
408
330
3FD
100
AcDbEntity
  8
DEFPOINTS
 62
     0
100
AcDbPoint
 10
1881.66715
 20
1364.710329
 30
0.0
  0
ENDBLK
  5
3FF
330
3FD
100
AcDbEntity
  8
0
100
AcDbBlockEnd
  0
BLOCK
  5
40B
330
40A
100
AcDbEntity
  8
0
100
AcDbBlockBegin
  2
*D18
 70
     1
 10
0.0
 20
0.0
 30
0.0
  3
*D18
  1

  0
LINE
  5
40D
330
40A
100
AcDbEntity
  8
LAY-3
  6
CONTINUOUS
 62
     3
100
AcDbLine
 10
1615.658779880791
 20
1591.21039
 30
0.0
 11
1889.66715
 21
1591.21039
 31
0.0
  0
LINE
  5
40E
330
40A
100
AcDbEntity
  8
LAY-3
  6
CONTINUOUS
 62
     3
100
AcDbLine
 10
1879.66715
 20
1489.710329
 30
0.0
 11
1879.66715
 21
1561.21039
 31
0.0
  0
INSERT
  5
40F
330
40A
100
AcDbEntity
  8
LAY-3
 62
     3
100
AcDbBlockReference
  2
EX_NORM
 10
1879.66715
 20
1459.710329
 30
0.0
 41
30.0
 42
30.0
 43
30.0
 50
270.0
  0
INSERT
  5
410
330
40A
100
AcDbEntity
  8
LAY-3
 62
     3
100
AcDbBlockReference
  2
EX_NORM
 10
1879.66715
 20
1591.21039
 30
0.0
 41
30.0
 42
30.0
 43
30.0
 50
90.0
  0
MTEXT
  5
411
330
40A
100
AcDbEntity
  8
LAY-3
 62
     2
100
AcDbMText
 10
1856.167150059605
 20
1525.4603595
 30
0.0
 40
40.0
 41
0.0
 71
     5
 72
     1
  1
131
  7
EXCADDIM1
 11
0.0
 21
1.0
 31
0.0
  0
POINT
  5
412
330
40A
100
AcDbEntity
  8
DEFPOINTS
 62
     0
100
AcDbPoint
 10
1806.074795
 20
1459.710329
 30
0.0
  0
POINT
  5
413
330
40A
100
AcDbEntity
  8
DEFPOINTS
 62
     0
100
AcDbPoint
 10
1608.65878
 20
1591.21039
 30
0.0
  0
POINT
  5
414
330
40A
100
AcDbEntity
  8
DEFPOINTS
 62
     0
100
AcDbPoint
 10
1879.66715
 20
1591.21039
 30
0.0
  0
ENDBLK
  5
40C
330
40A
100
AcDbEntity
  8
0
100
AcDbBlockEnd
  0
ENDSEC
  0
SECTION
  2
ENTITIES
  0
TEXT
  5
A8
330
1F
100
AcDbEntity
  8
0
  6
CONTINUOUS
 62
     2
100
AcDbText
 10
922.0000000000034
 20
140.5000000000005
 30
0.0
 40
33.75
  1
ジャニス工業株式会社
 41
1.025641025641026
  7
EXCADTTF1
 72
     5
 11
1372.000000000003
 21
140.5000000000005
 31
0.0
100
AcDbText
  0
HATCH
  5
A9
330
1F
100
AcDbEntity
  8
0
  6
CONTINUOUS
 62
     3
100
AcDbHatch
 10
0.0
 20
0.0
 30
0.0
210
0.0
220
0.0
230
1.0
  2
SOLID
 70
     1
 71
     1
 91
        2
 92
        3
 72
     1
 73
     1
 93
       27
 10
799.1727657332507
 20
175.3644932975411
 42
-0.1769427732109284
 10
799.1727657332508
 20
175.3644932975412
 42
0.0
 10
799.1727657332508
 20
171.719493297541
 42
0.0
 10
800.0502657332513
 20
171.7194932975406
 42
-0.207533601427307
 10
805.7474227895706
 20
175.993235912905
 42
-0.1226604740888933
 10
810.7827657332513
 20
176.100243297541
 42
-0.3213715781137954
 10
815.9883280222095
 20
169.7106514378478
 42
-0.064704004662446
 10
816.0140157332497
 20
166.3329932975408
 42
-0.257798906330806
 10
814.9542657332508
 20
165.0504932975408
 42
-0.056602577721096
 10
812.6862657332506
 20
164.2607432975411
 42
-0.0166741689362636
 10
804.3702657332509
 20
162.6812432975409
 42
0.1186092302783404
 10
798.882515733251
 20
160.0487432975409
 42
0.1699204224386695
 10
796.4930157332506
 20
156.0527432975408
 42
0.1006533494296199
 10
796.272086679582
 20
152.5853555095729
 42
0.1675695228968024
 10
798.437015733251
 20
147.9392432975409
 42
0.1376980079804242
 10
802.3722657332505
 20
145.6644932975411
 42
0.0719813663796923
 10
804.1610157332498
 20
145.367493297541
 42
0.0
 10
806.9015157332508
 20
145.3674932975411
 42
0.1944607457809085
 10
815.9937657332509
 20
150.0452432975409
 42
0.1288538183665954
 10
816.9117657332499
 20
147.7502432975406
 42
0.2098387395261546
 10
819.9087657332502
 20
146.0964932975411
 42
0.0
 10
822.0822657332508
 20
146.0829932975411
 42
0.0945009641609563
 10
825.2210157332509
 20
146.751243297541
 42
0.0
 10
825.2210157332506
 20
148.3239932975409
 42
-0.2395739894657535
 10
822.4805157332514
 20
148.2969932975407
 42
-0.2502312110031057
 10
821.1305157332499
 20
150.8349932975416
 42
-0.0104343570771765
 10
821.3127657332504
 20
169.7619932975408
 42
0.4051015674140716
 97
        0
 92
        3
 72
     1
 73
     1
 93
        8
 10
816.1355157332503
 20
163.0254932975408
 42
-0.0339435190873666
 10
816.1355157332546
 20
163.0254932975295
 42
-0.0001110072973599
 10
815.8520157332515
 20
152.6844932975407
 42
-0.2253076310552528
 10
808.7645157332504
 20
147.9527432975412
 42
0.0
 10
807.0297657332497
 20
147.9527432975412
 42
-0.3657967558150132
 10
801.8727657332506
 20
153.433743297541
 42
0.0
 10
801.8727657332514
 20
155.3912432975411
 42
-0.2530797830369341
 10
805.3557657332507
 20
160.2107432975408
 42
-0.0724473624720066
 97
        0
 75
     0
 76
     1
 98
        1
 10
0.0
 20
0.0
  0
HATCH
  5
AA
330
1F
100
AcDbEntity
  8
0
  6
CONTINUOUS
 62
     3
100
AcDbHatch
 10
0.0
 20
0.0
 30
0.0
210
0.0
220
0.0
230
1.0
  2
SOLID
 70
     1
 71
     1
 91
        1
 92
        3
 72
     1
 73
     1
 93
       30
 10
906.7340157332504
 20
177.3354932975412
 42
-0.0009362235736497
 10
906.7340157332505
 20
177.3354932975409
 42
0.0681165430304653
 10
905.0970934867321
 20
172.428243297541
 42
0.0
 10
898.9310157332512
 20
176.6469932975411
 42
-0.302112590907374
 10
898.9310157332507
 20
176.646993297541
 42
0.0
 10
892.7142657332507
 20
171.881493297541
 42
-0.3704245237568778
 10
892.7142657332497
 20
171.8814932975407
 42
0.0
 10
893.03826573325
 20
168.6954932975409
 42
-0.0262822419456939
 10
896.8722657332511
 20
165.6309932975407
 42
-0.180060563604375
 10
902.9877657332511
 20
163.7679932975411
 42
-0.0298130817160724
 10
902.9877657332507
 20
163.7679932975408
 42
-0.3153987453686078
 10
908.6240157332504
 20
157.321743297541
 42
0.0
 10
908.5902657332509
 20
154.4394932975407
 42
-0.3510306079065168
 10
897.7227657332498
 20
145.326993297541
 42
0.0
 10
894.5502657332503
 20
145.3269932975407
 42
-0.1053356344842436
 10
887.5302657332503
 20
147.351993297541
 42
0.1188608286962634
 10
888.8127657332502
 20
152.4819932975412
 42
0.0
 10
896.5077657332511
 20
147.756993297541
 42
-0.2447573632916039
 10
896.5077657332502
 20
147.7569932975409
 42
0.0
 10
903.9327657332511
 20
152.9544932975411
 42
-0.3734162676407277
 10
903.9327657332508
 20
152.9544932975408
 42
0.0
 10
901.2395157332506
 20
158.1452432975411
 42
-0.261219770190848
 10
894.9552657332504
 20
160.4267432975411
 42
-0.0572747914118363
 10
894.9552657332514
 20
160.426743297541
 42
-0.1189658875692221
 10
889.9602657332501
 20
163.3562432975411
 42
-0.2005226878639636
 10
887.8677657332498
 20
168.074493297563
 42
0.0
 10
887.834015733251
 20
169.8632432975407
 42
-0.2622894489606957
 10
893.2002657332508
 20
178.0644932975412
 42
-0.0988461274137808
 10
898.2222657332507
 20
179.2727432975407
 42
0.0
 10
900.08526573325
 20
179.2727432975411
 42
-0.0920156312561188
 97
        0
 75
     0
 76
     1
 98
        1
 10
0.0
 20
0.0
  0
ARC
  5
AB
330
1F
100
AcDbEntity
  8
0
  6
CONTINUOUS
 62
     3
100
AcDbCircle
 10
923.8424810688714
 20
168.9019437507498
 30
0.0
 40
19.07418003737831
100
AcDbArc
 50
153.7591918158497
 51
169.3462759801917
  0
LINE
  5
AC
330
1F
100
AcDbEntity
  8
0
  6
CONTINUOUS
 62
     3
100
AcDbLine
 10
904.2432657332502
 20
172.428243297541
 30
0.0
 11
905.0970934867321
 21
172.428243297541
 31
0.0
  0
LINE
  5
AD
330
1F
100
AcDbEntity
  8
0
  6
CONTINUOUS
 62
     3
100
AcDbLine
 10
897.83751573325
 20
176.619993297541
 30
0.0
 11
898.9310157332507
 21
176.646993297541
 31
0.0
  0
LINE
  5
AE
330
1F
100
AcDbEntity
  8
0
  6
CONTINUOUS
 62
     3
100
AcDbLine
 10
887.8340157332509
 20
169.8632432975408
 30
0.0
 11
887.8677657332498
 21
168.074493297563
 31
0.0
  0
LINE
  5
AF
330
1F
100
AcDbEntity
  8
0
  6
CONTINUOUS
 62
     3
100
AcDbLine
 10
892.7142657332497
 20
171.8814932975407
 30
0.0
 11
892.6197657332507
 21
170.1129932975407
 31
0.0
  0
LINE
  5
B0
330
1F
100
AcDbEntity
  8
0
  6
CONTINUOUS
 62
     3
100
AcDbLine
 10
908.6240157332504
 20
157.321743297541
 30
0.0
 11
908.5902657332504
 21
154.4394932975409
 31
0.0
  0
LINE
  5
B1
330
1F
100
AcDbEntity
  8
0
  6
CONTINUOUS
 62
     3
100
AcDbLine
 10
903.8652657332507
 20
154.506993297541
 30
0.0
 11
903.9327657332508
 21
152.9544932975408
 31
0.0
  0
ARC
  5
B2
330
1F
100
AcDbEntity
  8
0
  6
CONTINUOUS
 62
     3
100
AcDbCircle
 10
877.5344131320942
 20
152.5779759565005
 30
0.0
 40
11.27953740078838
100
AcDbArc
 50
332.3987521421788
 51
359.5124385477116
  0
LINE
  5
B3
330
1F
100
AcDbEntity
  8
0
  6
CONTINUOUS
 62
     3
100
AcDbLine
 10
799.1727657332508
 20
171.719493297541
 30
0.0
 11
800.0502657332511
 21
171.719493297541
 31
0.0
  0
HATCH
  5
B4
330
1F
100
AcDbEntity
  8
0
  6
CONTINUOUS
 62
     3
100
AcDbHatch
 10
0.0
 20
0.0
 30
0.0
210
0.0
220
0.0
230
1.0
  2
SOLID
 70
     1
 71
     1
 91
        2
 92
        1
 93
        1
 72
     2
 10
875.2855140383356
 20
190.5835466873712
 40
3.572334466769884
 50
0.0
 51
360.0
 73
     1
 97
        0
 92
        3
 72
     1
 73
     1
 93
        3
 10
872.0930157332506
 20
178.6989932975409
 42
0.1200283885712921
 10
878.3030157332507
 20
146.0627432975405
 42
-0.0401820615762149
 10
872.0997657332506
 20
146.0424932975409
 42
-0.0237521668114666
 97
        0
 75
     0
 76
     1
 98
        1
 10
0.0
 20
0.0
  0
HATCH
  5
B5
330
1F
100
AcDbEntity
  8
0
  6
CONTINUOUS
 62
     3
100
AcDbHatch
 10
0.0
 20
0.0
 30
0.0
210
0.0
220
0.0
230
1.0
  2
SOLID
 70
     1
 71
     1
 91
        1
 92
        3
 72
     1
 73
     1
 93
       16
 10
832.8687657332504
 20
146.1032432975408
 42
-0.0386228372648426
 10
832.8080157332502
 20
178.6449932975409
 42
-0.0398707891902887
 10
838.7142657332499
 20
178.6719932975411
 42
-0.1256886216044368
 10
838.4442657332505
 20
173.1504932975409
 42
-0.0367815758121429
 10
838.4442657332505
 20
173.1504932975407
 42
-0.268021535028829
 10
850.3580157332502
 20
179.3334932975409
 42
-0.2571134422124888
 10
858.5052657332503
 20
175.3037432975412
 42
-0.1522526366014298
 10
860.577515733251
 20
168.6009932975408
 42
-0.0158825412051521
 10
860.42901573325
 20
146.0694932975408
 42
-0.0285251271418421
 10
854.7252657332508
 20
146.0694932975408
 42
-0.0452212723224612
 10
855.0155157332508
 20
166.8864932975411
 42
-0.0315567291532142
 10
853.2470157332501
 20
173.0357432975411
 42
-0.1476272403790709
 10
841.7315157332503
 20
173.9199932975407
 42
-0.3908144705745794
 10
838.4847657332507
 20
165.8402432975407
 42
-0.2046259928850854
 10
838.4847657332507
 20
165.8402432975412
 42
0.0
 10
838.9910157332506
 20
146.049243297541
 42
-0.0304995761723369
 97
        0
 75
     0
 76
     1
 98
        1
 10
0.0
 20
0.0
  0
HATCH
  5
B6
330
1F
100
AcDbEntity
  8
0
  6
CONTINUOUS
 62
     3
100
AcDbHatch
 10
0.0
 20
0.0
 30
0.0
210
0.0
220
0.0
230
1.0
  2
SOLID
 70
     1
 71
     1
 91
        1
 92
        3
 72
     1
 73
     1
 93
       10
 10
773.7252657332509
 20
147.2169932975407
 42
-0.017362223501556
 10
773.8130157332498
 20
200.1842432975412
 42
-0.0267627618865285
 10
773.8130157332508
 20
200.1842432975409
 42
0.0737939047395297
 10
786.7325157332509
 20
200.2382432975402
 42
0.0183878899657109
 10
786.2127657332508
 20
152.4819932975407
 42
-0.1144749489451909
 10
784.1202657332499
 20
142.4244932975407
 42
-0.1929163439413163
 10
774.164015733251
 20
134.6079932975407
 42
-0.0603888289562337
 10
768.8855157332507
 20
133.2917432975408
 42
0.0
 10
767.6502657332505
 20
137.0514932975408
 42
0.0860918333465722
 10
771.3425157332505
 20
139.0157432975408
 42
0.1331843103855141
 97
        0
 75
     0
 76
     1
 98
        1
 10
0.0
 20
0.0
  0
LINE
  5
B7
330
1F
100
AcDbEntity
  8
0
  6
CONTINUOUS
 62
     3
100
AcDbLine
 10
894.5502657332504
 20
145.326993297541
 30
0.0
 11
897.7227657332498
 21
145.326993297541
 31
0.0
  0
LINE
  5
B8
330
1F
100
AcDbEntity
  8
0
  6
CONTINUOUS
 62
     3
100
AcDbLine
 10
889.6902657332505
 20
152.4819932975412
 30
0.0
 11
888.8127657332502
 21
152.4819932975412
 31
0.0
  0
LINE
  5
B9
330
1F
100
AcDbEntity
  8
0
  6
CONTINUOUS
 62
     3
100
AcDbLine
 10
896.5077657332502
 20
147.7569932975409
 30
0.0
 11
898.1277657332505
 21
147.7569932975409
 31
0.0
  0
LINE
  5
BA
330
1F
100
AcDbEntity
  8
0
  6
CONTINUOUS
 62
     3
100
AcDbLine
 10
900.0852657332503
 20
179.2727432975407
 30
0.0
 11
898.2222657332507
 21
179.2727432975407
 31
0.0
  0
ARC
  5
BB
330
1F
100
AcDbEntity
  8
0
  6
CONTINUOUS
 62
     3
100
AcDbCircle
 10
898.414733912751
 20
170.5429236291671
 30
0.0
 40
6.12586430102253
100
AcDbArc
 50
17.92452211681263
 51
85.16543319077402
  0
ARC
  5
BC
330
1F
100
AcDbEntity
  8
0
  6
CONTINUOUS
 62
     3
100
AcDbCircle
 10
898.0350964860538
 20
171.2674994707923
 30
0.0
 40
5.35613931103931
100
AcDbArc
 50
92.11404364449162
 51
173.4175047026091
  0
ARC
  5
BD
330
1F
100
AcDbEntity
  8
0
  6
CONTINUOUS
 62
     3
100
AcDbCircle
 10
906.3031407332626
 20
173.3823182975446
 30
0.0
 40
14.068519372934
100
AcDbArc
 50
193.4375782160214
 51
199.459638038058
  0
ARC
  5
BE
330
1F
100
AcDbEntity
  8
0
  6
CONTINUOUS
 62
     3
100
AcDbCircle
 10
899.0721352387454
 20
172.3138641766614
 30
0.0
 40
7.03563707337184
100
AcDbArc
 50
210.9501336849607
 51
251.7794729821079
  0
ARC
  5
BF
330
1F
100
AcDbEntity
  8
0
  6
CONTINUOUS
 62
     3
100
AcDbCircle
 10
915.5384669692064
 20
215.9359310503514
 30
0.0
 40
53.65644258516679
100
AcDbArc
 50
249.6420733479936
 51
256.4727051201885
  0
ARC
  5
C0
330
1F
100
AcDbEntity
  8
0
  6
CONTINUOUS
 62
     3
100
AcDbCircle
 10
901.2045721291959
 20
156.5217258531577
 30
0.0
 40
7.462450757296059
100
AcDbArc
 50
6.154262763177246
 51
76.17509904255616
  0
ARC
  5
C1
330
1F
100
AcDbEntity
  8
0
  6
CONTINUOUS
 62
     3
100
AcDbCircle
 10
897.4663886467563
 20
156.6692467118047
 30
0.0
 40
11.34515058180645
100
AcDbArc
 50
271.2948770866743
 51
348.6654156292868
  0
ARC
  5
C2
330
1F
100
AcDbEntity
  8
0
  6
CONTINUOUS
 62
     3
100
AcDbCircle
 10
895.7930054592778
 20
162.8156576811027
 30
0.0
 40
17.5327631578002
100
AcDbArc
 50
241.8829576087176
 51
265.9354096935781
  0
ARC
  5
C3
330
1F
100
AcDbEntity
  8
0
  6
CONTINUOUS
 62
     3
100
AcDbCircle
 10
897.636104323487
 20
156.6658639777386
 30
0.0
 40
8.98004035462527
100
AcDbArc
 50
207.7689879465537
 51
262.7817283832026
  0
ARC
  5
C4
330
1F
100
AcDbEntity
  8
0
  6
CONTINUOUS
 62
     3
100
AcDbCircle
 10
898.0357777446518
 20
153.7002363757169
 30
0.0
 40
5.943954918766759
100
AcDbArc
 50
270.8867385422408
 51
352.7925382056677
  0
ARC
  5
C5
330
1F
100
AcDbEntity
  8
0
  6
CONTINUOUS
 62
     3
100
AcDbCircle
 10
899.3080045853669
 20
153.984622543317
 30
0.0
 40
4.58710152219014
100
AcDbArc
 50
6.53892419415897
 51
65.09756080693691
  0
ARC
  5
C6
330
1F
100
AcDbEntity
  8
0
  6
CONTINUOUS
 62
     3
100
AcDbCircle
 10
888.1714891830434
 20
131.9457141755213
 30
0.0
 40
29.27778413972754
100
AcDbArc
 50
63.49050203733571
 51
76.60259219849584
  0
ARC
  5
C7
330
1F
100
AcDbEntity
  8
0
  6
CONTINUOUS
 62
     3
100
AcDbCircle
 10
898.5268145799507
 20
172.2396411006689
 30
0.0
 40
12.34100950779567
100
AcDbArc
 50
226.0402388947521
 51
253.1776672992999
  0
ARC
  5
C8
330
1F
100
AcDbEntity
  8
0
  6
CONTINUOUS
 62
     3
100
AcDbCircle
 10
894.5599257926001
 20
168.2192769075532
 30
0.0
 40
6.693726059056109
100
AcDbArc
 50
181.2393899443581
 51
226.5942921332421
  0
ARC
  5
C9
330
1F
100
AcDbEntity
  8
0
  6
CONTINUOUS
 62
     3
100
AcDbCircle
 10
897.7963496799618
 20
169.2009291101867
 30
0.0
 40
9.9843256030919
100
AcDbArc
 50
117.4083995939977
 51
176.1964688215695
  0
ARC
  5
CA
330
1F
100
AcDbEntity
  8
0
  6
CONTINUOUS
 62
     3
100
AcDbCircle
 10
898.7711044283908
 20
166.0979097937614
 30
0.0
 40
13.19974865367525
100
AcDbArc
 50
92.38301574576484
 51
114.9635286746436
  0
ARC
  5
CB
330
1F
100
AcDbEntity
  8
0
  6
CONTINUOUS
 62
     3
100
AcDbCircle
 10
899.854282846057
 20
169.1663038363957
 30
0.0
 40
10.10907867592157
100
AcDbArc
 50
67.66151957087348
 51
88.69073168448988
  0
ARC
  5
CC
330
1F
100
AcDbEntity
  8
0
  6
CONTINUOUS
 62
     3
100
AcDbCircle
 10
1220.644453232815
 20
989.0297432964203
 30
0.0
 40
870.2800228963156
100
AcDbArc
 50
248.6422112053103
 51
248.8567777804232
  0
ARC
  5
CD
330
1F
100
AcDbEntity
  8
0
  6
CONTINUOUS
 62
     3
100
AcDbCircle
 10
650.6900575363869
 20
162.3249792766238
 30
0.0
 40
222.0076085035812
100
AcDbArc
 50
355.7940354718673
 51
4.229650257234378
  0
ARC
  5
CE
330
1F
100
AcDbEntity
  8
0
  6
CONTINUOUS
 62
     3
100
AcDbCircle
 10
1081.254047179558
 20
162.188100573939
 30
0.0
 40
203.5906390589
100
AcDbArc
 50
175.3387608397566
 51
184.5428594926176
  0
ARC
  5
CF
330
1F
100
AcDbEntity
  8
0
  6
CONTINUOUS
 62
     3
100
AcDbCircle
 10
875.4144089371341
 20
80.79804184123347
 30
0.0
 40
65.32859485251088
100
AcDbArc
 50
87.46575055044718
 51
92.90832285102188
  0
ARC
  5
D0
330
1F
100
AcDbEntity
  8
0
  6
CONTINUOUS
 62
     3
100
AcDbCircle
 10
875.1456076027735
 20
191.533247435808
 30
0.0
 40
13.19228548840207
100
AcDbArc
 50
256.6209501743446
 51
283.9984576255729
  0
CIRCLE
  5
D1
330
1F
100
AcDbEntity
  8
0
  6
CONTINUOUS
 62
     3
100
AcDbCircle
 10
875.2855140383356
 20
190.5835466873712
 30
0.0
 40
3.57233446676989
  0
LINE
  5
D2
330
1F
100
AcDbEntity
  8
0
  6
CONTINUOUS
 62
     3
100
AcDbLine
 10
838.4847657332507
 20
165.8402432975412
 30
0.0
 11
838.4847657332507
 21
155.0469932975408
 31
0.0
  0
ARC
  5
D3
330
1F
100
AcDbEntity
  8
0
  6
CONTINUOUS
 62
     3
100
AcDbCircle
 10
629.1176988671594
 20
161.9938058671748
 30
0.0
 40
204.3697806131072
100
AcDbArc
 50
355.5405243117485
 51
4.673398698656258
  0
ARC
  5
D4
330
1F
100
AcDbEntity
  8
0
  6
CONTINUOUS
 62
     3
100
AcDbCircle
 10
835.7082849861235
 20
190.220687981449
 30
0.0
 40
11.93349358546016
100
AcDbArc
 50
255.9341994177206
 51
284.5896440601899
  0
ARC
  5
D5
330
1F
100
AcDbEntity
  8
0
  6
CONTINUOUS
 62
     3
100
AcDbCircle
 10
876.0574727396165
 20
174.0785681383055
 30
0.0
 40
37.6246550045818
100
AcDbArc
 50
172.9875214416311
 51
181.4134392789641
  0
ARC
  5
D6
330
1F
100
AcDbEntity
  8
0
  6
CONTINUOUS
 62
     3
100
AcDbCircle
 10
849.7541069002552
 20
165.9275988818602
 30
0.0
 40
13.4194899665726
100
AcDbArc
 50
87.42068310381028
 51
147.4361518966862
  0
ARC
  5
D7
330
1F
100
AcDbEntity
  8
0
  6
CONTINUOUS
 62
     3
100
AcDbCircle
 10
850.7724057413766
 20
169.9204664797996
 30
0.0
 40
9.4221437555554
100
AcDbArc
 50
34.84393737091607
 51
92.5207065423111
  0
ARC
  5
D8
330
1F
100
AcDbEntity
  8
0
  6
CONTINUOUS
 62
     3
100
AcDbCircle
 10
848.790551534483
 20
168.6285942451529
 30
0.0
 40
11.7869965146059
100
AcDbArc
 50
359.8658335690532
 51
34.49363429411157
  0
ARC
  5
D9
330
1F
100
AcDbEntity
  8
0
  6
CONTINUOUS
 62
     3
100
AcDbCircle
 10
799.1913601210065
 20
166.3315774812143
 30
0.0
 40
61.42809087866958
100
AcDbArc
 50
358.4775281223095
 51
2.117232414210064
  0
ARC
  5
DA
330
1F
100
AcDbEntity
  8
0
  6
CONTINUOUS
 62
     3
100
AcDbCircle
 10
1023.657633661698
 20
153.9067374739135
 30
0.0
 40
163.4166579853822
100
AcDbArc
 50
176.2131780319488
 51
182.7488833337936
  0
ARC
  5
DB
330
1F
100
AcDbEntity
  8
0
  6
CONTINUOUS
 62
     3
100
AcDbCircle
 10
857.5771407332509
 20
114.601526192278
 30
0.0
 40
31.59693252126744
100
AcDbArc
 50
84.82155189294139
 51
95.17844810705873
  0
ARC
  5
DC
330
1F
100
AcDbEntity
  8
0
  6
CONTINUOUS
 62
     3
100
AcDbCircle
 10
690.1173378649747
 20
158.7751337882467
 30
0.0
 40
165.0975566668588
100
AcDbArc
 50
355.5862454873798
 51
2.816115806820253
  0
ARC
  5
DD
330
1F
100
AcDbEntity
  8
0
  6
CONTINUOUS
 62
     3
100
AcDbCircle
 10
843.944740456853
 20
167.0315138821557
 30
0.0
 40
11.07172507744154
100
AcDbArc
 50
359.2495022237244
 51
32.84055016678327
  0
ARC
  5
DE
330
1F
100
AcDbEntity
  8
0
  6
CONTINUOUS
 62
     3
100
AcDbCircle
 10
847.0100145205533
 20
167.2366273138691
 30
0.0
 40
8.51645057047003
100
AcDbArc
 50
42.91644474042847
 51
128.3015542351336
  0
ARC
  5
DF
330
1F
100
AcDbEntity
  8
0
  6
CONTINUOUS
 62
     3
100
AcDbCircle
 10
849.5661722366408
 20
166.0795225138058
 30
0.0
 40
11.08398956318131
100
AcDbArc
 50
134.9787476233347
 51
181.2369872983282
  0
ARC
  5
E0
330
1F
100
AcDbEntity
  8
0
  6
CONTINUOUS
 62
     3
100
AcDbCircle
 10
912.4088578951041
 20
154.9150147009816
 30
0.0
 40
73.95120993114925
100
AcDbArc
 50
179.8977458165987
 51
186.8855675734268
  0
ARC
  5
E1
330
1F
100
AcDbEntity
  8
0
  6
CONTINUOUS
 62
     3
100
AcDbCircle
 10
835.5808780069317
 20
106.5069254511711
 30
0.0
 40
39.68909094418497
100
AcDbArc
 50
85.07099551674689
 51
93.91830029343228
  0
ARC
  5
E2
330
1F
100
AcDbEntity
  8
0
  6
CONTINUOUS
 62
     3
100
AcDbCircle
 10
-22473.01542217735
 20
796.3265245587831
 30
0.0
 40
23297.76001260591
100
AcDbArc
 50
358.4169008257799
 51
358.4423418242109
  0
ARC
  5
E3
330
1F
100
AcDbEntity
  8
0
  6
CONTINUOUS
 62
     3
100
AcDbCircle
 10
807.3244690765928
 20
157.7836489530209
 30
0.0
 40
9.935816039979159
100
AcDbArc
 50
278.3335103000368
 51
329.1221464187299
  0
LINE
  5
E4
330
1F
100
AcDbEntity
  8
0
  6
CONTINUOUS
 62
     3
100
AcDbLine
 10
807.0297657332499
 20
147.9527432975412
 30
0.0
 11
808.7645157332504
 21
147.9527432975412
 31
0.0
  0
ARC
  5
E5
330
1F
100
AcDbEntity
  8
0
  6
CONTINUOUS
 62
     3
100
AcDbCircle
 10
807.6959653488741
 20
153.7461380097788
 30
0.0
 40
5.83157304846997
100
AcDbArc
 50
183.0707787095794
 51
263.4402016072427
  0
LINE
  5
E6
330
1F
100
AcDbEntity
  8
0
  6
CONTINUOUS
 62
     3
100
AcDbLine
 10
801.8727657332506
 20
155.3912432975407
 30
0.0
 11
801.8727657332506
 21
153.433743297541
 31
0.0
  0
ARC
  5
E7
330
1F
100
AcDbEntity
  8
0
  6
CONTINUOUS
 62
     3
100
AcDbCircle
 10
808.0701866837849
 20
154.5807479047185
 30
0.0
 40
6.25019433457053
100
AcDbArc
 50
115.7403688633493
 51
172.5491744442191
  0
ARC
  5
E8
330
1F
100
AcDbEntity
  8
0
  6
CONTINUOUS
 62
     3
100
AcDbCircle
 10
813.5660651757707
 20
142.831886266798
 30
0.0
 40
19.22065786155208
100
AcDbArc
 50
98.71271710191789
 51
115.2874718053599
  0
ARC
  5
E9
330
1F
100
AcDbEntity
  8
0
  6
CONTINUOUS
 62
     3
100
AcDbCircle
 10
804.605609935373
 20
202.7501381160509
 30
0.0
 40
41.36406814694017
100
AcDbArc
 50
278.4088456599976
 51
286.1851416003176
  0
ARC
  5
EA
330
1F
100
AcDbEntity
  8
0
  6
CONTINUOUS
 62
     3
100
AcDbCircle
 10
780.090820012228
 20
243.7417570522227
 30
0.0
 40
44.00758833490465
100
AcDbArc
 50
261.7986203004403
 51
278.6803384946418
  0
ARC
  5
EB
330
1F
100
AcDbEntity
  8
0
  6
CONTINUOUS
 62
     3
100
AcDbCircle
 10
1435.542531413435
 20
169.2960360950848
 30
0.0
 40
649.5474244683604
100
AcDbArc
 50
177.2695926307304
 51
181.4833117237826
  0
ARC
  5
EC
330
1F
100
AcDbEntity
  8
0
  6
CONTINUOUS
 62
     3
100
AcDbCircle
 10
763.4899361790617
 20
151.9631356880096
 30
0.0
 40
22.72875263114311
100
AcDbArc
 50
335.1860595856123
 51
1.308075913059364
  0
ARC
  5
ED
330
1F
100
AcDbEntity
  8
0
  6
CONTINUOUS
 62
     3
100
AcDbCircle
 10
769.3897327885481
 20
150.9383518626832
 30
0.0
 40
17.01394688196115
100
AcDbArc
 50
286.2966123578915
 51
329.973223283839
  0
ARC
  5
EE
330
1F
100
AcDbEntity
  8
0
  6
CONTINUOUS
 62
     3
100
AcDbCircle
 10
766.0955749866657
 20
155.7223152915388
 30
0.0
 40
22.60341410821362
100
AcDbArc
 50
277.0901027239701
 51
290.9134154817058
  0
ARC
  5
EF
330
1F
100
AcDbEntity
  8
0
  6
CONTINUOUS
 62
     3
100
AcDbCircle
 10
763.8347289685448
 20
148.6759859445992
 30
0.0
 40
12.23467000390025
100
AcDbArc
 50
288.1715191042997
 51
307.8537826235693
  0
ARC
  5
F0
330
1F
100
AcDbEntity
  8
0
  6
CONTINUOUS
 62
     3
100
AcDbCircle
 10
766.0927386496026
 20
144.3407518472917
 30
0.0
 40
7.47769185530633
100
AcDbArc
 50
314.592391474832
 51
344.9374073189123
  0
ARC
  5
F1
330
1F
100
AcDbEntity
  8
0
  6
CONTINUOUS
 62
     3
100
AcDbCircle
 10
279.3385521229311
 20
174.5197335838843
 30
0.0
 40
495.1400430399008
100
AcDbArc
 50
356.8390243485978
 51
2.971133813187157
  0
ARC
  5
F2
330
1F
100
AcDbEntity
  8
0
  6
CONTINUOUS
 62
     3
100
AcDbCircle
 10
704.143956522708
 20
150.734276192279
 30
0.0
 40
69.67015049800598
100
AcDbArc
 50
353.1274757312911
 51
357.106204490141
  0
LINE
  5
F3
330
1F
100
AcDbEntity
  8
0
  6
CONTINUOUS
 62
     3
100
AcDbLine
 10
799.1727657332508
 20
175.3644932975412
 30
0.0
 11
799.1727657332508
 21
171.719493297541
 31
0.0
  0
ARC
  5
F4
330
1F
100
AcDbEntity
  8
0
  6
CONTINUOUS
 62
     3
100
AcDbCircle
 10
807.8253617702997
 20
167.2890191857884
 30
0.0
 40
8.94881105176719
100
AcDbArc
 50
103.4267945469744
 51
150.3242613737993
  0
ARC
  5
F5
330
1F
100
AcDbEntity
  8
0
  6
CONTINUOUS
 62
     3
100
AcDbCircle
 10
808.479909579831
 20
165.9383830513023
 30
0.0
 40
10.4195273466423
100
AcDbArc
 50
77.23143261361693
 51
105.203415964315
  0
ARC
  5
F6
330
1F
100
AcDbEntity
  8
0
  6
CONTINUOUS
 62
     3
100
AcDbCircle
 10
808.9283412817697
 20
169.2741886153424
 30
0.0
 40
7.07346538626002
100
AcDbArc
 50
3.537639967999379
 51
74.8013566619203
  0
ARC
  5
F7
330
1F
100
AcDbEntity
  8
0
  6
CONTINUOUS
 62
     3
100
AcDbCircle
 10
803.0053873566574
 20
167.9229870375126
 30
0.0
 40
13.10543751018921
100
AcDbArc
 50
353.0315250986587
 51
7.839947970678348
  0
ARC
  5
F8
330
1F
100
AcDbEntity
  8
0
  6
CONTINUOUS
 62
     3
100
AcDbCircle
 10
814.3230955673341
 20
166.651133250429
 30
0.0
 40
1.72058828228131
100
AcDbArc
 50
291.5204897073511
 51
349.3445900274031
  0
ARC
  5
F9
330
1F
100
AcDbEntity
  8
0
  6
CONTINUOUS
 62
     3
100
AcDbCircle
 10
810.3433050110898
 20
174.640736268875
 30
0.0
 40
10.64113335272784
100
AcDbArc
 50
282.7195832898965
 51
295.6781112778079
  0
ARC
  5
FA
330
1F
100
AcDbEntity
  8
0
  6
CONTINUOUS
 62
     3
100
AcDbCircle
 10
784.853009998579
 20
288.1202029775214
 30
0.0
 40
126.9482409370382
100
AcDbArc
 50
278.8438342053764
 51
282.6649181367123
  0
ARC
  5
FB
330
1F
100
AcDbEntity
  8
0
  6
CONTINUOUS
 62
     3
100
AcDbCircle
 10
807.0970138675791
 20
149.9608481482873
 30
0.0
 40
13.0093661698492
100
AcDbArc
 50
102.0988446293839
 51
129.1556705448828
  0
ARC
  5
FC
330
1F
100
AcDbEntity
  8
0
  6
CONTINUOUS
 62
     3
100
AcDbCircle
 10
803.3972379030156
 20
154.6366332500803
 30
0.0
 40
7.04795370557922
100
AcDbArc
 50
129.8344892359069
 51
168.4089447024628
  0
ARC
  5
FD
330
1F
100
AcDbEntity
  8
0
  6
CONTINUOUS
 62
     3
100
AcDbCircle
 10
804.9075018569995
 20
153.7758712547746
 30
0.0
 40
8.71709372588669
100
AcDbArc
 50
164.8589457925044
 51
187.8495628504518
  0
ARC
  5
FE
330
1F
100
AcDbEntity
  8
0
  6
CONTINUOUS
 62
     3
100
AcDbCircle
 10
804.0915332915501
 20
153.4015021572866
 30
0.0
 40
7.8619234712629
100
AcDbArc
 50
185.9586126338419
 51
224.0091989319859
  0
ARC
  5
FF
330
1F
100
AcDbEntity
  8
0
  6
CONTINUOUS
 62
     3
100
AcDbCircle
 10
804.4562953036889
 20
153.8111104772598
 30
0.0
 40
8.408956577563659
100
AcDbArc
 50
224.289750990011
 51
255.6505938786759
  0
ARC
  5
100
330
1F
100
AcDbEntity
  8
0
  6
CONTINUOUS
 62
     3
100
AcDbCircle
 10
804.2928130736761
 20
151.6963494387413
 30
0.0
 40
6.330228320917859
100
AcDbArc
 50
252.3384873625213
 51
268.8069976857606
  0
LINE
  5
101
330
1F
100
AcDbEntity
  8
0
  6
CONTINUOUS
 62
     3
100
AcDbLine
 10
804.1610157332498
 20
145.367493297541
 30
0.0
 11
806.9015157332508
 21
145.367493297541
 31
0.0
  0
ARC
  5
102
330
1F
100
AcDbEntity
  8
0
  6
CONTINUOUS
 62
     3
100
AcDbCircle
 10
805.6613045867011
 20
158.953402625683
 30
0.0
 40
13.64239920103932
100
AcDbArc
 50
275.2158792069686
 51
319.2336424873511
  0
ARC
  5
103
330
1F
100
AcDbEntity
  8
0
  6
CONTINUOUS
 62
     3
100
AcDbCircle
 10
820.8315560558317
 20
150.6492594265733
 30
0.0
 40
4.87535134009722
100
AcDbArc
 50
187.1167640402297
 51
216.4860549324747
  0
ARC
  5
104
330
1F
100
AcDbEntity
  8
0
  6
CONTINUOUS
 62
     3
100
AcDbCircle
 10
820.2937735081464
 20
150.3367456528632
 30
0.0
 40
4.25769550620398
100
AcDbArc
 50
217.4081478714985
 51
264.8118660441384
  0
ARC
  5
105
330
1F
100
AcDbEntity
  8
0
  6
CONTINUOUS
 62
     3
100
AcDbCircle
 10
821.8995891945594
 20
154.6464512823034
 30
0.0
 40
8.56540620020894
100
AcDbArc
 50
271.2220539293239
 51
292.8159509797653
  0
LINE
  5
106
330
1F
100
AcDbEntity
  8
0
  6
CONTINUOUS
 62
     3
100
AcDbLine
 10
819.9087657332502
 20
146.0964932975411
 30
0.0
 11
822.0822657332503
 21
146.0964932975411
 31
0.0
  0
LINE
  5
107
330
1F
100
AcDbEntity
  8
0
  6
CONTINUOUS
 62
     3
100
AcDbLine
 10
825.2210157332509
 20
146.751243297541
 30
0.0
 11
825.2210157332509
 21
148.3239932975407
 31
0.0
  0
ARC
  5
108
330
1F
100
AcDbEntity
  8
0
  6
CONTINUOUS
 62
     3
100
AcDbCircle
 10
823.8242078457968
 20
151.0061188741092
 30
0.0
 40
3.0240485913648
100
AcDbArc
 50
243.6191685566582
 51
297.5097757939563
  0
ARC
  5
109
330
1F
100
AcDbEntity
  8
0
  6
CONTINUOUS
 62
     3
100
AcDbCircle
 10
824.1823989446045
 20
150.8302928780476
 30
0.0
 40
3.05188683107389
100
AcDbArc
 50
179.9117548191414
 51
236.1065985968857
  0
ARC
  5
10A
330
1F
100
AcDbEntity
  8
0
  6
CONTINUOUS
 62
     3
100
AcDbCircle
 10
1274.65013583871
 20
155.9323843931735
 30
0.0
 40
453.5482655865662
100
AcDbArc
 50
178.2526643324597
 51
180.6439560401927
  0
ARC
  5
10B
330
1F
100
AcDbEntity
  8
0
  6
CONTINUOUS
 62
     3
100
AcDbCircle
 10
811.070627260279
 20
169.0191625973317
 30
0.0
 40
10.2690407511459
100
AcDbArc
 50
4.148222840814693
 51
92.36000944257292
  0
ARC
  5
10C
330
1F
100
AcDbEntity
  8
0
  6
CONTINUOUS
 62
     3
100
AcDbCircle
 10
810.2685324125532
 20
161.616728892689
 30
0.0
 40
17.66683515327064
100
AcDbArc
 50
88.77000393305703
 51
128.9068631829044
  0
TEXT
  5
10D
330
1F
100
AcDbEntity
  8
0
  6
CONTINUOUS
 62
     2
100
AcDbText
 10
507.5000000000006
 20
288.7500000000001
 30
0.0
 40
42.5
  1
検図
 41
1.303826737967914
  7
EXCADSTD
 72
     5
 11
594.5770000000006
 21
288.7500000000001
 31
0.0
100
AcDbText
  0
TEXT
  5
10E
330
1F
100
AcDbEntity
  8
0
  6
CONTINUOUS
 62
     2
100
AcDbText
 10
637.5000000000006
 20
288.7500000000001
 30
0.0
 40
42.5
  1
承認
 41
1.303826737967914
  7
EXCADSTD
 72
     5
 11
724.5770000000006
 21
288.7500000000001
 31
0.0
100
AcDbText
  0
TEXT
  5
10F
330
1F
100
AcDbEntity
  8
0
  6
CONTINUOUS
 62
     2
100
AcDbText
 10
1395.75
 20
278.7500000000001
 30
0.0
 40
42.5
  1
品
 41
1.12
  7
EXCADSTD
 72
     5
 11
1429.75
 21
278.7500000000001
 31
0.0
100
AcDbText
  0
TEXT
  5
110
330
1F
100
AcDbEntity
  8
0
  6
CONTINUOUS
 62
     2
100
AcDbText
 10
1816.750000000001
 20
278.7500000000001
 30
0.0
 40
42.5
  1
尺
 41
1.12
  7
EXCADSTD
 72
     5
 11
1850.750000000001
 21
278.7500000000001
 31
0.0
100
AcDbText
  0
TEXT
  5
111
330
1F
100
AcDbEntity
  8
0
  6
CONTINUOUS
 62
     2
100
AcDbText
 10
1816.750000000001
 20
228.7500000000001
 30
0.0
 40
42.5
  1
度
 41
1.12
  7
EXCADSTD
 72
     5
 11
1850.750000000001
 21
228.7500000000001
 31
0.0
100
AcDbText
  0
TEXT
  5
112
330
1F
100
AcDbEntity
  8
0
  6
CONTINUOUS
 62
     2
100
AcDbText
 10
1395.75
 20
165.7500000000003
 30
0.0
 40
42.5
  1
図
 41
1.12
  7
EXCADSTD
 72
     5
 11
1429.75
 21
165.7500000000003
 31
0.0
100
AcDbText
  0
TEXT
  5
113
330
1F
100
AcDbEntity
  8
0
  6
CONTINUOUS
 62
     2
100
AcDbText
 10
1395.75
 20
122.7500000000002
 30
0.0
 40
42.5
  1
番
 41
1.12
  7
EXCADSTD
 72
     5
 11
1429.75
 21
122.7500000000002
 31
0.0
100
AcDbText
  0
TEXT
  5
114
330
1F
100
AcDbEntity
  8
0
  6
CONTINUOUS
 62
     2
100
AcDbText
 10
755.75
 20
278.7500000000004
 30
0.0
 40
42.5
  1
品
 41
1.12
  7
EXCADSTD
 72
     5
 11
789.75
 21
278.7500000000004
 31
0.0
100
AcDbText
  0
TEXT
  5
115
330
1F
100
AcDbEntity
  8
0
  6
CONTINUOUS
 62
     2
100
AcDbText
 10
755.75
 20
228.7500000000004
 30
0.0
 40
42.5
  1
名
 41
1.12
  7
EXCADSTD
 72
     5
 11
789.75
 21
228.7500000000004
 31
0.0
100
AcDbText
  0
TEXT
  5
116
330
1F
100
AcDbEntity
  8
0
  6
CONTINUOUS
 62
     2
100
AcDbText
 10
1395.75
 20
228.7500000000004
 30
0.0
 40
42.5
  1
番
 41
1.12
  7
EXCADSTD
 72
     5
 11
1429.75
 21
228.7500000000004
 31
0.0
100
AcDbText
  0
LINE
  5
117
330
1F
100
AcDbEntity
  8
0
  6
CONTINUOUS
 62
     6
100
AcDbLine
 10
768.8855157332507
 20
133.2917432975408
 30
0.0
 11
767.650265733251
 21
137.0514932975406
 31
0.0
  0
LINE
  5
118
330
1F
100
AcDbEntity
  8
0
  6
CONTINUOUS
 62
     6
100
AcDbLine
 10
750.0000000000007
 20
335.0000000000001
 30
0.0
 11
750.0000000000007
 21
115.0000000000001
 31
0.0
  0
LINE
  5
119
330
1F
100
AcDbEntity
  8
0
  6
CONTINUOUS
 62
     6
100
AcDbLine
 10
620.0000000000006
 20
335.0000000000001
 30
0.0
 11
620.0000000000006
 21
115.0000000000001
 31
0.0
  0
LINE
  5
11A
330
1F
100
AcDbEntity
  8
0
  6
CONTINUOUS
 62
     6
100
AcDbLine
 10
2000.0
 20
215.0000000000001
 30
0.0
 11
750.0000000000007
 21
215.0000000000001
 31
0.0
  0
LINE
  5
11B
330
1F
100
AcDbEntity
  8
0
  6
CONTINUOUS
 62
     6
100
AcDbLine
 10
1860.0
 20
335.0000000000001
 30
0.0
 11
1860.0
 21
215.0000000000001
 31
0.0
  0
LINE
  5
11C
330
1F
100
AcDbEntity
  8
0
  6
CONTINUOUS
 62
     6
100
AcDbLine
 10
1440.0
 20
335.0000000000001
 30
0.0
 11
1440.0
 21
115.0000000000001
 31
0.0
  0
LINE
  5
11D
330
1F
100
AcDbEntity
  8
0
  6
CONTINUOUS
 62
     6
100
AcDbLine
 10
1390.0
 20
335.0000000000001
 30
0.0
 11
1390.0
 21
115.0000000000001
 31
0.0
  0
LINE
  5
11E
330
1F
100
AcDbEntity
  8
0
  6
CONTINUOUS
 62
     6
100
AcDbLine
 10
1892.653808600001
 20
238.0029297000003
 30
0.0
 11
1969.9938965
 21
316.6998291000002
 31
0.0
  0
LINE
  5
11F
330
1F
100
AcDbEntity
  8
0
  6
CONTINUOUS
 62
     6
100
AcDbLine
 10
1810.0
 20
335.0000000000001
 30
0.0
 11
1810.0
 21
215.0000000000001
 31
0.0
  0
LINE
  5
120
330
1F
100
AcDbEntity
  8
0
  6
CONTINUOUS
 62
     6
100
AcDbLine
 10
800.0000000000001
 20
335.0000000000004
 30
0.0
 11
800.0000000000001
 21
215.0000000000004
 31
0.0
  0
LINE
  5
121
330
1F
100
AcDbEntity
  8
0
  6
CONTINUOUS
 62
     6
100
AcDbLine
 10
180.0000000000006
 20
285.0000000000001
 30
0.0
 11
750.0000000000007
 21
285.0000000000001
 31
0.0
  0
TEXT
  5
122
330
1F
100
AcDbEntity
  8
0
  6
CONTINUOUS
 62
     2
100
AcDbText
 10
1889.9371094
 20
285.5227782999999
 30
0.0
 40
40.0
  1
１
 41
1.12
  7
EXCADSTD
 72
     5
 11
1921.9371094
 21
285.5227782999999
 31
0.0
100
AcDbText
  0
LINE
  5
123
330
1F
100
AcDbEntity
  8
0
  6
EXLTYPE2
 62
     6
100
AcDbLine
 10
179.9999999999977
 20
164.999999999999
 30
0.0
 11
489.9999999999977
 21
164.999999999999
 31
0.0
  0
CIRCLE
  5
124
330
1F
100
AcDbEntity
  8
0
  6
CONTINUOUS
 62
     6
100
AcDbCircle
 10
434.9999999999977
 20
139.999999999999
 30
0.0
 40
1.0000002
  0
CIRCLE
  5
125
330
1F
100
AcDbEntity
  8
0
  6
CONTINUOUS
 62
     6
100
AcDbCircle
 10
384.9999999999977
 20
139.999999999999
 30
0.0
 40
1.0000002
  0
CIRCLE
  5
126
330
1F
100
AcDbEntity
  8
0
  6
CONTINUOUS
 62
     6
100
AcDbCircle
 10
279.9999999999977
 20
139.999999999999
 30
0.0
 40
1.0000002
  0
CIRCLE
  5
127
330
1F
100
AcDbEntity
  8
0
  6
CONTINUOUS
 62
     6
100
AcDbCircle
 10
229.9999999999977
 20
139.999999999999
 30
0.0
 40
1.0000002
  0
TEXT
  5
128
330
1F
100
AcDbEntity
  8
0
  6
CONTINUOUS
 62
     2
100
AcDbText
 10
357.4999999999977
 20
288.7499999999991
 30
0.0
 40
42.5
  1
写図
 41
1.509694117647059
  7
EXCADSTD
 72
     5
 11
458.3259999999977
 21
288.7499999999991
 31
0.0
100
AcDbText
  0
TEXT
  5
129
330
1F
100
AcDbEntity
  8
0
  6
CONTINUOUS
 62
     2
100
AcDbText
 10
202.4999999999977
 20
288.7499999999991
 30
0.0
 40
42.5
  1
製図
 41
1.509694117647059
  7
EXCADSTD
 72
     5
 11
303.3259999999977
 21
288.7499999999991
 31
0.0
100
AcDbText
  0
LINE
  5
12A
330
1F
100
AcDbEntity
  8
0
  6
CONTINUOUS
 62
     6
100
AcDbLine
 10
334.9999999999977
 20
334.9999999999991
 30
0.0
 11
334.9999999999977
 21
114.999999999999
 31
0.0
  0
LINE
  5
12B
330
1F
100
AcDbEntity
  8
0
  6
CONTINUOUS
 62
     6
100
AcDbLine
 10
489.9999999999977
 20
334.9999999999991
 30
0.0
 11
489.9999999999977
 21
114.999999999999
 31
0.0
  0
TEXT
  5
12C
330
1F
100
AcDbEntity
  8
0
  6
CONTINUOUS
 62
     6
100
AcDbText
 10
359.5000000000033
 20
206.0000000000007
 30
0.0
 40
50.0
  1
川野
 41
1.28324
  7
EXCADSTD
 72
     5
 11
460.3260000000033
 21
206.0000000000007
 31
0.0
100
AcDbText
  0
TEXT
  5
12D
330
1F
100
AcDbEntity
  8
0
  6
CONTINUOUS
 62
     6
100
AcDbText
 10
341.3441156754794
 20
124.4500731999993
 30
0.0
 40
30.0
  1
'24
 41
0.4592080208333329
  7
EXCADSTD
 72
     5
 11
372.8326656754794
 21
124.4500731999993
 31
0.0
100
AcDbText
  0
TEXT
  5
12E
330
1F
100
AcDbEntity
  8
0
  6
CONTINUOUS
 62
     6
100
AcDbText
 10
204.5000000000033
 20
206.0000000000007
 30
0.0
 40
50.0
  1
間瀬
 41
1.28324
  7
EXCADSTD
 72
     5
 11
305.3260000000033
 21
206.0000000000007
 31
0.0
100
AcDbText
  0
TEXT
  5
12F
330
1F
100
AcDbEntity
  8
0
  6
CONTINUOUS
 62
     6
100
AcDbText
 10
186.3441156754794
 20
124.4500731999993
 30
0.0
 40
30.0
  1
'12
 41
0.4689784042553192
  7
EXCADSTD
 72
     5
 11
217.8326656754794
 21
124.4500731999993
 31
0.0
100
AcDbText
  0
TEXT
  5
130
330
1F
100
AcDbEntity
  8
0
  6
CONTINUOUS
 62
     6
100
AcDbText
 10
249.0691160569492
 20
124.4500731999993
 30
0.0
 40
30.0
  1
2
 41
0.4683823529411765
  7
EXCADSTD
 72
     5
 11
260.4441160569492
 21
124.4500731999993
 31
0.0
100
AcDbText
  0
TEXT
  5
131
330
1F
100
AcDbEntity
  8
0
  6
CONTINUOUS
 62
     6
100
AcDbText
 10
295.8941159138982
 20
124.4500731999993
 30
0.0
 40
30.0
  1
24
 41
0.3978947368421056
  7
EXCADSTD
 72
     5
 11
317.4941159138982
 21
124.4500731999993
 31
0.0
100
AcDbText
  0
TEXT
  5
132
330
1F
100
AcDbEntity
  8
0
  6
CONTINUOUS
 62
     6
100
AcDbText
 10
404.0691160569492
 20
124.4500731999993
 30
0.0
 40
30.0
  1
8
 41
0.4683823529411765
  7
EXCADSTD
 72
     5
 11
415.4441160569492
 21
124.4500731999993
 31
0.0
100
AcDbText
  0
TEXT
  5
133
330
1F
100
AcDbEntity
  8
0
  6
CONTINUOUS
 62
     6
100
AcDbText
 10
450.8941159138982
 20
124.4500731999993
 30
0.0
 40
30.0
  1
20
 41
0.408648648648649
  7
EXCADSTD
 72
     5
 11
472.4941159138982
 21
124.4500731999993
 31
0.0
100
AcDbText
  0
TEXT
  5
134
330
1F
100
AcDbEntity
  8
0
  6
CONTINUOUS
 62
     2
100
AcDbText
 10
871.6108397999997
 20
244.2713318000001
 30
0.0
 40
60.0
  1
蓋付前丸暖房便座
 41
1.104609929078014
  7
EXCADSTD
 72
     5
 11
1316.6108398
 21
244.2713318000001
 31
0.0
100
AcDbText
  0
LINE
  5
135
330
1F
100
AcDbEntity
  8
0
  6
CONTINUOUS
 62
     7
100
AcDbLine
 10
180.0000000000006
 20
335.0000000000001
 30
0.0
 11
2000.0
 21
335.0000000000001
 31
0.0
  0
LINE
  5
136
330
1F
100
AcDbEntity
  8
0
  6
CONTINUOUS
 62
     7
100
AcDbLine
 10
180.0000000000006
 20
115.0000000000001
 30
0.0
 11
2000.0
 21
115.0000000000001
 31
0.0
  0
TEXT
  5
137
330
1F
100
AcDbEntity
  8
0
  6
CONTINUOUS
 62
     2
100
AcDbText
 10
1460.000000000005
 20
248.9999999999979
 30
0.0
 40
50.0
  1
ＮＣ８２３ＷＨＳ
 41
0.9829787234042555
  7
EXCADSTD
 72
     5
 11
1790.000000000005
 21
248.9999999999979
 31
0.0
100
AcDbText
  0
TEXT
  5
138
330
1F
100
AcDbEntity
  8
0
  6
CONTINUOUS
 62
     7
100
AcDbText
 10
1565.0
 20
136.4999999999979
 30
0.0
 40
60.0
  1
２５５５１０
 41
1.033333333333333
  7
EXCADSTD
 72
     5
 11
1875.0
 21
136.4999999999979
 31
0.0
100
AcDbText
  0
TEXT
  5
139
330
1F
100
AcDbEntity
  8
0
  6
CONTINUOUS
 62
     2
100
AcDbText
 10
1933.5371094
 20
229.7227783000001
 30
0.0
 40
40.0
  1
１０
 41
1.020759090909092
  7
EXCADSTD
 72
     5
 11
1997.6991094
 21
229.7227783000001
 31
0.0
100
AcDbText
  0
CIRCLE
  5
13A
330
1F
100
AcDbEntity
  8
LAY-1
  6
CONTINUOUS
 62
     2
100
AcDbCircle
 10
448.2395020000013
 20
876.9999999999999
 30
0.0
 40
10.0
  0
TEXT
  5
13B
330
1F
100
AcDbEntity
  8
LAY-1
  6
CONTINUOUS
 62
     2
100
AcDbText
 10
491.8709411999998
 20
803.2499999999999
 30
0.0
 40
47.5
  1
す。これに適した配線を行なってください。
 41
1.003095975232198
  7
EXCADSTD
 72
     5
 11
1301.8709412
 21
803.2499999999999
 31
0.0
100
AcDbText
  0
CIRCLE
  5
13C
330
1F
100
AcDbEntity
  8
LAY-1
  6
CONTINUOUS
 62
     2
100
AcDbCircle
 10
448.2395020000013
 20
776.9999999999999
 30
0.0
 40
10.0
  0
TEXT
  5
13D
330
1F
100
AcDbEntity
  8
LAY-1
  6
CONTINUOUS
 62
     2
100
AcDbText
 10
491.8709411999998
 20
703.2499999999999
 30
0.0
 40
47.5
  1
に設けてください。
 41
1.028798411122145
  7
EXCADSTD
 72
     5
 11
861.8709411999998
 21
703.2499999999999
 31
0.0
100
AcDbText
  0
CIRCLE
  5
13E
330
1F
100
AcDbEntity
  8
LAY-1
  6
CONTINUOUS
 62
     2
100
AcDbCircle
 10
448.2395020000013
 20
676.9999999999999
 30
0.0
 40
10.0
  0
TEXT
  5
13F
330
1F
100
AcDbEntity
  8
LAY-1
  6
CONTINUOUS
 62
     2
100
AcDbText
 10
491.8709411999998
 20
653.2499999999999
 30
0.0
 40
47.5
  1
水がかかったり、表面に結露が生じるような湿気の多い場所での使
 41
0.9961775948250519
  7
EXCADSTD
 72
     5
 11
1701.8709412
 21
653.2499999999999
 31
0.0
100
AcDbText
  0
TEXT
  5
140
330
1F
100
AcDbEntity
  8
LAY-1
  6
CONTINUOUS
 62
     2
100
AcDbText
 10
491.8709411999998
 20
603.2499999999999
 30
0.0
 40
47.5
  1
用は避けてください。特に、浴室内には設置しないでください。
 41
0.996653483419532
  7
EXCADSTD
 72
     5
 11
1661.8709412
 21
603.2499999999999
 31
0.0
100
AcDbText
  0
LINE
  5
141
330
1F
100
AcDbEntity
  8
LAY-1
  6
EXLTYPE2
 62
     6
100
AcDbLine
 10
0.0
 20
1505.0
 30
0.0
 11
180.0
 21
1505.0
 31
0.0
  0
LINE
  5
142
330
1F
100
AcDbEntity
  8
LAY-1
  6
CONTINUOUS
 62
     7
100
AcDbLine
 10
180.0
 20
115.0
 30
0.0
 11
180.0
 21
2895.0
 31
0.0
  0
LINE
  5
143
330
1F
100
AcDbEntity
  8
LAY-1
  6
CONTINUOUS
 62
     7
100
AcDbLine
 10
2000.0
 20
115.0
 30
0.0
 11
2000.0
 21
2895.0
 31
0.0
  0
LINE
  5
144
330
1F
100
AcDbEntity
  8
LAY-1
  6
CONTINUOUS
 62
     7
100
AcDbLine
 10
180.0
 20
2895.0
 30
0.0
 11
2000.0
 21
2895.0
 31
0.0
  0
TEXT
  5
145
330
1F
100
AcDbEntity
  8
LAY-1
  6
CONTINUOUS
 62
     2
100
AcDbText
 10
491.8709411999998
 20
853.2499999999999
 30
0.0
 40
47.5
  1
電源は交流１００Ｖ―５０／６０Ｈｚ、最高消費電力は ４５Ｗで
 41
0.9701754385964917
  7
EXCADSTD
 72
     5
 11
1676.8709412
 21
853.2499999999999
 31
0.0
100
AcDbText
  0
TEXT
  5
146
330
1F
100
AcDbEntity
  8
LAY-1
  6
CONTINUOUS
 62
     2
100
AcDbText
 10
491.8709411999998
 20
753.2499999999999
 30
0.0
 40
47.5
  1
電源コードの長さは１.２ｍです。コンセントは便器の近くの壁面
 41
0.9903492189831862
  7
EXCADSTD
 72
     5
 11
1676.8709412
 21
753.2499999999999
 31
0.0
100
AcDbText
  0
LEADER
  5
147
330
1F
100
AcDbEntity
  8
LAY-2
  6
CONTINUOUS
 62
     3
100
AcDbLeader
  3
ISO-25
 76
     2
 10
1401.042348651
 20
1529.573852029
 30
0.0
 10
1356.0
 20
1666.5
 30
0.0
1001
ACAD
1000
DSTYLE
1002
{
1070
     5
1000
EX_NORM
1070
    41
1040
35.0
1070
   341
1005
4B
1002
}
  0
LEADER
  5
148
330
1F
100
AcDbEntity
  8
LAY-2
  6
CONTINUOUS
 62
     3
100
AcDbLeader
  3
ISO-25
 76
     2
 10
639.877835
 20
1322.0
 30
0.0
 10
716.0
 20
1269.0
 30
0.0
1001
ACAD
1000
DSTYLE
1002
{
1070
     5
1000
EX_NORM
1070
    41
1040
35.0
1070
   341
1005
4B
1002
}
  0
LINE
  5
149
330
1F
100
AcDbEntity
  8
LAY-2
  6
CONTINUOUS
 62
     2
100
AcDbLine
 10
459.8515624999999
 20
1424.710329
 30
0.0
 11
468.1484374999999
 21
1424.710329
 31
0.0
  0
LINE
  5
14A
330
1F
100
AcDbEntity
  8
LAY-2
  6
CONTINUOUS
 62
     2
100
AcDbLine
 10
459.7578125000001
 20
1427.710329
 30
0.0
 11
468.2421875
 21
1427.710329
 31
0.0
  0
LINE
  5
14B
330
1F
100
AcDbEntity
  8
LAY-2
  6
CONTINUOUS
 62
     2
100
AcDbLine
 10
459.6640625000001
 20
1430.710329
 30
0.0
 11
468.3359375000001
 21
1430.710329
 31
0.0
  0
LINE
  5
14C
330
1F
100
AcDbEntity
  8
LAY-2
  6
CONTINUOUS
 62
     2
100
AcDbLine
 10
459.5703125
 20
1433.710329
 30
0.0
 11
468.4296875000001
 21
1433.710329
 31
0.0
  0
LINE
  5
14D
330
1F
100
AcDbEntity
  8
LAY-2
  6
CONTINUOUS
 62
     2
100
AcDbLine
 10
455.0
 20
1906.050536
 30
0.0
 11
438.0000000000001
 21
1906.050536
 31
0.0
  0
LINE
  5
14E
330
1F
100
AcDbEntity
  8
LAY-2
  6
CONTINUOUS
 62
     2
100
AcDbLine
 10
455.0
 20
1893.050536
 30
0.0
 11
438.0000000000001
 21
1893.050536
 31
0.0
  0
LINE
  5
14F
330
1F
100
AcDbEntity
  8
LAY-2
  6
CONTINUOUS
 62
     2
100
AcDbLine
 10
1283.574219
 20
1433.710329
 30
0.0
 11
1272.425781
 21
1433.710329
 31
0.0
  0
LINE
  5
150
330
1F
100
AcDbEntity
  8
LAY-2
  6
CONTINUOUS
 62
     2
100
AcDbLine
 10
1283.339844
 20
1430.710329
 30
0.0
 11
1272.660156
 21
1430.710329
 31
0.0
  0
LINE
  5
151
330
1F
100
AcDbEntity
  8
LAY-2
  6
CONTINUOUS
 62
     2
100
AcDbLine
 10
1283.105469
 20
1427.710329
 30
0.0
 11
1272.894531
 21
1427.710329
 31
0.0
  0
LINE
  5
152
330
1F
100
AcDbEntity
  8
LAY-2
  6
CONTINUOUS
 62
     2
100
AcDbLine
 10
1282.871094
 20
1424.710329
 30
0.0
 11
1273.128906
 21
1424.710329
 31
0.0
  0
LINE
  5
153
330
1F
100
AcDbEntity
  8
LAY-2
  6
CONTINUOUS
 62
     6
100
AcDbLine
 10
639.8778350000001
 20
1458.716240539
 30
0.0
 11
653.4294219999001
 21
1458.716240539
 31
0.0
  0
ARC
  5
154
330
1F
100
AcDbEntity
  8
LAY-2
  6
EXLTYPE2
 62
     6
100
AcDbCircle
 10
656.4294219999002
 20
1454.716240539
 30
0.0
 40
5.0
100
AcDbArc
 50
126.8698976458477
 51
180.0
  0
ARC
  5
155
330
1F
100
AcDbEntity
  8
LAY-2
  6
CONTINUOUS
 62
     6
100
AcDbCircle
 10
656.4294219999002
 20
1454.716240539
 30
0.0
 40
5.0
100
AcDbArc
 50
87.2135855987974
 51
126.8698976458477
  0
ARC
  5
156
330
1F
100
AcDbEntity
  8
LAY-2
  6
CONTINUOUS
 62
     6
100
AcDbCircle
 10
631.1156059999996
 20
2038.550536
 30
0.0
 40
10.0
100
AcDbArc
 50
180.0
 51
270.0000000000002
  0
ARC
  5
157
330
1F
100
AcDbEntity
  8
LAY-2
  6
CONTINUOUS
 62
     6
100
AcDbCircle
 10
831.2927623901489
 20
2337.778629014156
 30
0.0
 40
300.0
100
AcDbArc
 50
276.8748777146242
 51
321.7972403227
  0
ARC
  5
158
330
1F
100
AcDbEntity
  8
LAY-2
  6
CONTINUOUS
 62
     6
100
AcDbCircle
 10
831.2927623901489
 20
2121.322442985844
 30
0.0
 40
300.0
100
AcDbArc
 50
38.20275967730003
 51
83.12512228537572
  0
LINE
  5
159
330
1F
100
AcDbEntity
  8
LAY-2
  6
CONTINUOUS
 62
     6
100
AcDbLine
 10
687.6509187479996
 20
2430.550536
 30
0.0
 11
631.1156059999997
 21
2430.550536
 31
0.0
  0
ARC
  5
15A
330
1F
100
AcDbEntity
  8
LAY-2
  6
CONTINUOUS
 62
     6
100
AcDbCircle
 10
631.1156059999996
 20
2420.550536
 30
0.0
 40
10.0
100
AcDbArc
 50
90.00000000000001
 51
180.0
  0
ARC
  5
15B
330
1F
100
AcDbEntity
  8
LAY-2
  6
CONTINUOUS
 62
     6
100
AcDbCircle
 10
641.954867
 20
2416.29077
 30
0.0
 40
5.0
100
AcDbArc
 50
162.7198489999999
 51
180.0
  0
LINE
  5
15C
330
1F
100
AcDbEntity
  8
LAY-2
  6
CONTINUOUS
 62
     6
100
AcDbLine
 10
637.3553190000001
 20
2418.33795
 30
0.0
 11
637.180514
 21
2417.775877
 31
0.0
  0
ARC
  5
15D
330
1F
100
AcDbEntity
  8
LAY-2
  6
CONTINUOUS
 62
     6
100
AcDbCircle
 10
642.129672
 20
2416.852782
 30
0.0
 40
5.0
100
AcDbArc
 50
96.81634499999826
 51
162.7203369999997
  0
ARC
  5
15E
330
1F
100
AcDbEntity
  8
LAY-2
  6
CONTINUOUS
 62
     6
100
AcDbCircle
 10
712.7507039999998
 20
1826.058592
 30
0.0
 40
600.0000000000006
100
AcDbArc
 50
95.79895518171968
 51
96.81655899999996
  0
ARC
  5
15F
330
1F
100
AcDbEntity
  8
LAY-2
  6
CONTINUOUS
 62
     6
100
AcDbCircle
 10
662.127811
 20
2420.550536
 30
0.0
 40
10.0
100
AcDbArc
 50
90.00000000000001
 51
180.0
  0
ARC
  5
160
330
1F
100
AcDbEntity
  8
LAY-2
  6
CONTINUOUS
 62
     6
100
AcDbCircle
 10
618.9121419999999
 20
2029.050536
 30
0.0
 40
0.5
100
AcDbArc
 50
180.0
 51
270.0000000000002
  0
ARC
  5
161
330
1F
100
AcDbEntity
  8
LAY-2
  6
CONTINUOUS
 62
     6
100
AcDbCircle
 10
617.912142
 20
2031.107421
 30
0.0
 40
0.5
100
AcDbArc
 50
0.0
 51
89.73428299994043
  0
LINE
  5
162
330
1F
100
AcDbEntity
  8
LAY-2
  6
CONTINUOUS
 62
     6
100
AcDbLine
 10
618.4121419999999
 20
2031.107421
 30
0.0
 11
618.4121419999999
 21
2029.050536
 31
0.0
  0
LINE
  5
163
330
1F
100
AcDbEntity
  8
LAY-2
  6
CONTINUOUS
 62
     6
100
AcDbLine
 10
687.6509187479996
 20
2028.550536
 30
0.0
 11
619.5
 21
2028.550536
 31
0.0
  0
ARC
  5
164
330
1F
100
AcDbEntity
  8
LAY-2
  6
CONTINUOUS
 62
     6
100
AcDbCircle
 10
662.127811
 20
2038.550536
 30
0.0
 40
10.0
100
AcDbArc
 50
180.0
 51
270.0000000000002
  0
LINE
  5
165
330
1F
100
AcDbEntity
  8
LAY-2
  6
CONTINUOUS
 62
     6
100
AcDbLine
 10
637.3553190000001
 20
2040.763122
 30
0.0
 11
637.180514
 21
2041.325195
 31
0.0
  0
ARC
  5
166
330
1F
100
AcDbEntity
  8
LAY-2
  6
CONTINUOUS
 62
     6
100
AcDbCircle
 10
641.954867
 20
2042.810302
 30
0.0
 40
5.0
100
AcDbArc
 50
180.0
 51
197.2801510000003
  0
ARC
  5
167
330
1F
100
AcDbEntity
  8
LAY-2
  6
CONTINUOUS
 62
     6
100
AcDbCircle
 10
642.129672
 20
2042.24829
 30
0.0
 40
5.0
100
AcDbArc
 50
197.2796630000003
 51
263.1836550000016
  0
ARC
  5
168
330
1F
100
AcDbEntity
  8
LAY-2
  6
CONTINUOUS
 62
     6
100
AcDbCircle
 10
642.129672
 20
2042.24829
 30
0.0
 40
5.0
100
AcDbArc
 50
197.2788090000001
 51
263.1834720000015
  0
ARC
  5
169
330
1F
100
AcDbEntity
  8
LAY-2
  6
CONTINUOUS
 62
     6
100
AcDbCircle
 10
712.7507039999998
 20
2633.04248
 30
0.0
 40
600.0000000000006
100
AcDbArc
 50
263.1834410000002
 51
264.2307584802781
  0
ARC
  5
16A
330
1F
100
AcDbEntity
  8
LAY-2
  6
CONTINUOUS
 62
     6
100
AcDbCircle
 10
687.6509187479999
 20
3529.150536
 30
0.0
 40
1500.000000000001
100
AcDbArc
 50
270.0000000000002
 51
276.8748777146242
  0
ARC
  5
16B
330
1F
100
AcDbEntity
  8
LAY-2
  6
CONTINUOUS
 62
     6
100
AcDbCircle
 10
968.8125059999999
 20
2229.550536
 30
0.0
 40
125.0000000000001
100
AcDbArc
 50
320.8455900961002
 51
38.20275967730003
  0
ARC
  5
16C
330
1F
100
AcDbEntity
  8
LAY-2
  6
CONTINUOUS
 62
     6
100
AcDbCircle
 10
687.6509187479996
 20
929.9505359999998
 30
0.0
 40
1500.000000000001
100
AcDbArc
 50
83.12512228537572
 51
90.00000000000001
  0
LINE
  5
16D
330
1F
100
AcDbEntity
  8
LAY-2
  6
CONTINUOUS
 62
     6
100
AcDbLine
 10
598.472964
 20
1572.034914
 30
0.0
 11
618.566714
 21
1589.707338
 31
0.0
  0
LINE
  5
16E
330
1F
100
AcDbEntity
  8
LAY-2
  6
CONTINUOUS
 62
     6
100
AcDbLine
 10
633.177835
 20
1459.710329
 30
0.0
 11
591.241229
 21
1459.710329
 31
0.0
  0
LINE
  5
16F
330
1F
100
AcDbEntity
  8
LAY-2
  6
CONTINUOUS
 62
     6
100
AcDbLine
 10
593.384341
 20
1561.164064
 30
0.0
 11
590.7414
 21
1460.223416
 31
0.0
  0
LINE
  5
170
330
1F
100
AcDbEntity
  8
LAY-2
  6
CONTINUOUS
 62
     6
100
AcDbLine
 10
601.069086
 20
1497.542933
 30
0.0
 11
603.4800100000001
 21
1566.582747
 31
0.0
  0
ARC
  5
171
330
1F
100
AcDbEntity
  8
LAY-2
  6
CONTINUOUS
 62
     6
100
AcDbCircle
 10
596.3621330000001
 20
1483.865296
 30
0.0
 40
5.0
100
AcDbArc
 50
135.0000000000001
 51
178.5001569999999
  0
ARC
  5
172
330
1F
100
AcDbEntity
  8
LAY-2
  6
CONTINUOUS
 62
     6
100
AcDbCircle
 10
591.241229
 20
1460.210329
 30
0.0
 40
0.5
100
AcDbArc
 50
178.5001599999961
 51
270.0000000000002
  0
ARC
  5
173
330
1F
100
AcDbEntity
  8
LAY-2
  6
CONTINUOUS
 62
     6
100
AcDbCircle
 10
596.0721319999999
 20
1497.71743
 30
0.0
 40
5.0
100
AcDbArc
 50
315.0000000000002
 51
357.9999999999998
  0
LINE
  5
174
330
1F
100
AcDbEntity
  8
LAY-2
  6
CONTINUOUS
 62
     6
100
AcDbLine
 10
592.826599
 20
1487.40083
 30
0.0
 11
599.607666
 21
1494.181896
 31
0.0
  0
ARC
  5
175
330
1F
100
AcDbEntity
  8
LAY-2
  6
CONTINUOUS
 62
     6
100
AcDbCircle
 10
608.379214
 20
1560.771425
 30
0.0
 40
15.0
100
AcDbArc
 50
131.330933
 51
178.5004879999997
  0
ARC
  5
176
330
1F
100
AcDbEntity
  8
LAY-2
  6
CONTINUOUS
 62
     6
100
AcDbCircle
 10
1095.102989
 20
3999.022215
 30
0.0
 40
2500.000000000002
100
AcDbArc
 50
266.2628620000002
 51
267.4001910000002
  0
ARC
  5
177
330
1F
100
AcDbEntity
  8
LAY-2
  6
CONTINUOUS
 62
     6
100
AcDbCircle
 10
332.741901
 20
-2395.271317
 30
0.0
 40
4000.000244
100
AcDbArc
 50
80.85563499999998
 51
84.60649697965995
  0
ARC
  5
178
330
1F
100
AcDbEntity
  8
LAY-2
  6
CONTINUOUS
 62
     6
100
AcDbCircle
 10
1087.902983
 20
4004.176255
 30
0.0
 40
2500.000000000002
100
AcDbArc
 50
266.4184400000001
 51
268.8374460000001
  0
LINE
  5
179
330
1F
100
AcDbEntity
  8
LAY-2
  6
CONTINUOUS
 62
     6
100
AcDbLine
 10
931.8726370000002
 20
1472.038133
 30
0.0
 11
1092.997997
 21
1468.768365
 31
0.0
  0
LINE
  5
17A
330
1F
100
AcDbEntity
  8
LAY-2
  6
CONTINUOUS
 62
     6
100
AcDbLine
 10
633.177835
 20
1199.2992465
 30
0.0
 11
633.177835
 21
1461.831649
 31
0.0
  0
LINE
  5
17B
330
1F
100
AcDbEntity
  8
LAY-2
  6
CONTINUOUS
 62
     6
100
AcDbLine
 10
639.877835
 20
1198.6492465
 30
0.0
 11
639.877835
 21
1461.831649
 31
0.0
  0
ARC
  5
17C
330
1F
100
AcDbEntity
  8
LAY-2
  6
CONTINUOUS
 62
     6
100
AcDbCircle
 10
1095.102989
 20
3999.022215
 30
0.0
 40
2500.000000000002
100
AcDbArc
 50
262.0013870000002
 51
266.2628620000002
  0
ARC
  5
17D
330
1F
100
AcDbEntity
  8
LAY-2
  6
CONTINUOUS
 62
     6
100
AcDbCircle
 10
763.964011
 20
1470.444492
 30
0.0
 40
5.000011000000002
100
AcDbArc
 50
355.3474666922002
 51
88.83729400000003
  0
ARC
  5
17E
330
1F
100
AcDbEntity
  8
LAY-2
  6
CONTINUOUS
 62
     6
100
AcDbCircle
 10
1087.902983
 20
4004.176255
 30
0.0
 40
2500.000000000002
100
AcDbArc
 50
260.4473100000003
 51
266.4184400000001
  0
LINE
  5
17F
330
1F
100
AcDbEntity
  8
LAY-2
  6
CONTINUOUS
 62
     6
100
AcDbLine
 10
931.8726370000002
 20
1472.038149
 30
0.0
 11
748.193469
 21
1475.76557
 31
0.0
  0
LINE
  5
180
330
1F
100
AcDbEntity
  8
LAY-2
  6
CONTINUOUS
 62
     6
100
AcDbLine
 10
637.0049310000002
 20
1582.888118
 30
0.0
 11
637.3662139999999
 21
1562.188478
 31
0.0
  0
LINE
  5
181
330
1F
100
AcDbEntity
  8
LAY-2
  6
CONTINUOUS
 62
     6
100
AcDbLine
 10
652.1712600000001
 20
1564.003197
 30
0.0
 11
652.555159
 21
1582.921958
 31
0.0
  0
LINE
  5
182
330
1F
100
AcDbEntity
  8
LAY-2
  6
CONTINUOUS
 62
     6
100
AcDbLine
 10
647.8349029999998
 20
1539.936647
 30
0.0
 11
718.7079499999999
 21
1479.172609
 31
0.0
  0
LINE
  5
183
330
1F
100
AcDbEntity
  8
LAY-2
  6
CONTINUOUS
 62
     6
100
AcDbLine
 10
720.219045
 20
1459.710329
 30
0.0
 11
639.877835
 21
1459.710329
 31
0.0
  0
LINE
  5
184
330
1F
100
AcDbEntity
  8
LAY-2
  6
CONTINUOUS
 62
     6
100
AcDbLine
 10
741.9050970000001
 20
1478.157969
 30
0.0
 11
670.275173
 21
1539.305607
 31
0.0
  0
CIRCLE
  5
185
330
1F
100
AcDbEntity
  8
LAY-2
  6
CONTINUOUS
 62
     6
100
AcDbCircle
 10
636.527835
 20
1514.71039
 30
0.0
 40
15.0
  0
ARC
  5
186
330
1F
100
AcDbEntity
  8
LAY-2
  6
CONTINUOUS
 62
     6
100
AcDbCircle
 10
636.527835
 20
1514.71039
 30
0.0
 40
15.5
100
AcDbArc
 50
0.0
 51
180.0
  0
LINE
  5
187
330
1F
100
AcDbEntity
  8
LAY-2
  6
CONTINUOUS
 62
     6
100
AcDbLine
 10
621.0278349999999
 20
1514.71039
 30
0.0
 11
618.145371
 21
1459.710329
 31
0.0
  0
ARC
  5
188
330
1F
100
AcDbEntity
  8
LAY-2
  6
CONTINUOUS
 62
     6
100
AcDbCircle
 10
638.357555
 20
1461.831649
 30
0.0
 40
1.52028
100
AcDbArc
 50
0.0
 51
90.00000000000001
  0
ARC
  5
189
330
1F
100
AcDbEntity
  8
LAY-2
  6
CONTINUOUS
 62
     6
100
AcDbCircle
 10
634.6981149999999
 20
1461.831649
 30
0.0
 40
1.52028
100
AcDbArc
 50
90.00000000000001
 51
180.0
  0
LINE
  5
18A
330
1F
100
AcDbEntity
  8
LAY-2
  6
CONTINUOUS
 62
     6
100
AcDbLine
 10
638.357555
 20
1463.351929
 30
0.0
 11
634.6981149999999
 21
1463.351929
 31
0.0
  0
LINE
  5
18B
330
1F
100
AcDbEntity
  8
LAY-2
  6
CONTINUOUS
 62
     6
100
AcDbLine
 10
641.527835
 20
1472.721094
 30
0.0
 11
631.527835
 21
1472.721094
 31
0.0
  0
LINE
  5
18C
330
1F
100
AcDbEntity
  8
LAY-2
  6
CONTINUOUS
 62
     6
100
AcDbLine
 10
631.527835
 20
1459.710329
 30
0.0
 11
631.527835
 21
1472.721094
 31
0.0
  0
LINE
  5
18D
330
1F
100
AcDbEntity
  8
LAY-2
  6
CONTINUOUS
 62
     6
100
AcDbLine
 10
641.527835
 20
1459.710329
 30
0.0
 11
641.527835
 21
1472.721094
 31
0.0
  0
LINE
  5
18E
330
1F
100
AcDbEntity
  8
LAY-2
  6
CONTINUOUS
 62
     6
100
AcDbLine
 10
641.527835
 20
1466.215711
 30
0.0
 11
631.527835
 21
1466.215711
 31
0.0
  0
ARC
  5
18F
330
1F
100
AcDbEntity
  8
LAY-2
  6
CONTINUOUS
 62
     6
100
AcDbCircle
 10
630.5278350000001
 20
1462.710329
 30
0.0
 40
3.000000000000003
100
AcDbArc
 50
180.0
 51
270.0000000000002
  0
ARC
  5
190
330
1F
100
AcDbEntity
  8
LAY-2
  6
CONTINUOUS
 62
     6
100
AcDbCircle
 10
642.5278350000002
 20
1462.710329
 30
0.0
 40
3.000000000000003
100
AcDbArc
 50
270.0000000000002
 51
0.0
  0
ARC
  5
191
330
1F
100
AcDbEntity
  8
LAY-2
  6
CONTINUOUS
 62
     6
100
AcDbCircle
 10
630.5278350000001
 20
1473.710329
 30
0.0
 40
3.000000000000003
100
AcDbArc
 50
90.00000000000001
 51
180.0
  0
ARC
  5
192
330
1F
100
AcDbEntity
  8
LAY-2
  6
CONTINUOUS
 62
     6
100
AcDbCircle
 10
642.5278350000002
 20
1473.710329
 30
0.0
 40
3.000000000000003
100
AcDbArc
 50
0.0
 51
90.00000000000001
  0
LINE
  5
193
330
1F
100
AcDbEntity
  8
LAY-2
  6
CONTINUOUS
 62
     6
100
AcDbLine
 10
627.5278349999999
 20
1462.710329
 30
0.0
 11
627.5278349999999
 21
1473.710329
 31
0.0
  0
LINE
  5
194
330
1F
100
AcDbEntity
  8
LAY-2
  6
CONTINUOUS
 62
     6
100
AcDbLine
 10
645.5278350000001
 20
1462.710329
 30
0.0
 11
645.5278350000001
 21
1473.710329
 31
0.0
  0
LINE
  5
195
330
1F
100
AcDbEntity
  8
LAY-2
  6
CONTINUOUS
 62
     6
100
AcDbLine
 10
642.5278350000002
 20
1476.710329
 30
0.0
 11
630.5278350000001
 21
1476.710329
 31
0.0
  0
LINE
  5
196
330
1F
100
AcDbEntity
  8
LAY-2
  6
CONTINUOUS
 62
     6
100
AcDbLine
 10
652.0278350000001
 20
1514.71039
 30
0.0
 11
654.910299
 21
1459.710329
 31
0.0
  0
ARC
  5
197
330
1F
100
AcDbEntity
  8
LAY-2
  6
CONTINUOUS
 62
     6
100
AcDbCircle
 10
648.815773
 20
1545.210335
 30
0.0
 40
4.5
100
AcDbArc
 50
223.3406190000002
 51
270.0000000000002
  0
ARC
  5
198
330
1F
100
AcDbEntity
  8
LAY-2
  6
CONTINUOUS
 62
     6
100
AcDbCircle
 10
667.3615749999999
 20
1562.711855
 30
0.0
 40
30.00000000000002
100
AcDbArc
 50
181.0000000000002
 51
229.3913570000002
  0
ARC
  5
199
330
1F
100
AcDbEntity
  8
LAY-2
  6
CONTINUOUS
 62
     6
100
AcDbCircle
 10
637.0278350000001
 20
1530.202333
 30
0.0
 40
0.5
100
AcDbArc
 50
0.0
 51
88.15319800000314
  0
ARC
  5
19A
330
1F
100
AcDbEntity
  8
LAY-2
  6
CONTINUOUS
 62
     6
100
AcDbCircle
 10
636.0278349999999
 20
1530.202333
 30
0.0
 40
0.5
100
AcDbArc
 50
91.84683199999664
 51
180.0
  0
ARC
  5
19B
330
1F
100
AcDbEntity
  8
LAY-2
  6
CONTINUOUS
 62
     6
100
AcDbCircle
 10
636.527835
 20
1514.71039
 30
0.0
 40
16.0
100
AcDbArc
 50
88.15148899999986
 51
91.84851099999987
  0
LINE
  5
19C
330
1F
100
AcDbEntity
  8
LAY-2
  6
CONTINUOUS
 62
     6
100
AcDbLine
 10
636.0278349999999
 20
1530.21039
 30
0.0
 11
637.0278350000001
 21
1530.21039
 31
0.0
  0
LINE
  5
19D
330
1F
100
AcDbEntity
  8
LAY-2
  6
CONTINUOUS
 62
     6
100
AcDbLine
 10
651.827811
 20
1543.210335
 30
0.0
 11
651.827811
 21
1545.210335
 31
0.0
  0
LINE
  5
19E
330
1F
100
AcDbEntity
  8
LAY-2
  6
CONTINUOUS
 62
     6
100
AcDbLine
 10
656.0655969999999
 20
1534.79772
 30
0.0
 11
654.817497
 21
1545.385933
 31
0.0
  0
ARC
  5
19F
330
1F
100
AcDbEntity
  8
LAY-2
  6
CONTINUOUS
 62
     6
100
AcDbCircle
 10
677.166091
 20
1563.495975
 30
0.0
 40
25.00000400000001
100
AcDbArc
 50
194.0171339999998
 51
260.4473100000001
  0
LINE
  5
1A0
330
1F
100
AcDbEntity
  8
LAY-2
  6
CONTINUOUS
 62
     6
100
AcDbLine
 10
648.815773
 20
1540.710335
 30
0.0
 11
649.327811
 21
1540.710335
 31
0.0
  0
ARC
  5
1A1
330
1F
100
AcDbEntity
  8
LAY-2
  6
CONTINUOUS
 62
     6
100
AcDbCircle
 10
649.327811
 20
1543.210335
 30
0.0
 40
2.5
100
AcDbArc
 50
270.0000000000002
 51
0.0
  0
ARC
  5
1A2
330
1F
100
AcDbEntity
  8
LAY-2
  6
CONTINUOUS
 62
     6
100
AcDbCircle
 10
661.5277800000001
 20
1535.441581
 30
0.0
 40
5.5
100
AcDbArc
 50
186.7227919999991
 51
229.391384
  0
LINE
  5
1A3
330
1F
100
AcDbEntity
  8
LAY-2
  6
CONTINUOUS
 62
     6
100
AcDbLine
 10
654.640009
 20
1552.652736
 30
0.0
 11
652.9695140000001
 21
1554.078773
 31
0.0
  0
ARC
  5
1A4
330
1F
100
AcDbEntity
  8
LAY-2
  6
CONTINUOUS
 62
     6
100
AcDbCircle
 10
653.3278110000001
 20
1545.210335
 30
0.0
 40
1.5
100
AcDbArc
 50
6.722792000000194
 51
180.0
  0
ARC
  5
1A5
330
1F
100
AcDbEntity
  8
LAY-2
  6
CONTINUOUS
 62
     6
100
AcDbCircle
 10
677.166091
 20
1563.495975
 30
0.0
 40
25.00000400000001
100
AcDbArc
 50
178.8374460000001
 51
194.0171339999998
  0
LINE
  5
1A6
330
1F
100
AcDbEntity
  8
LAY-2
  6
CONTINUOUS
 62
     6
100
AcDbLine
 10
652.9695750000002
 20
1554.078742
 30
0.0
 11
653.0285700000002
 21
1556.985963
 31
0.0
  0
LINE
  5
1A7
330
1F
100
AcDbEntity
  8
LAY-2
  6
CONTINUOUS
 62
     6
100
AcDbLine
 10
691.2944249999998
 20
1520.7048
 30
0.0
 11
691.5354639999998
 21
1506.894655
 31
0.0
  0
ARC
  5
1A8
330
1F
100
AcDbEntity
  8
LAY-2
  6
CONTINUOUS
 62
     6
100
AcDbCircle
 10
715.309207
 20
1483.639162
 30
0.0
 40
5.0
100
AcDbArc
 50
0.9998780000014975
 51
53.84191899999995
  0
ARC
  5
1A9
330
1F
100
AcDbEntity
  8
LAY-2
  6
CONTINUOUS
 62
     6
100
AcDbCircle
 10
720.219045
 20
1460.210329
 30
0.0
 40
0.5
100
AcDbArc
 50
270.0000000000002
 51
1.000259000003727
  0
ARC
  5
1AA
330
1F
100
AcDbEntity
  8
LAY-2
  6
CONTINUOUS
 62
     6
100
AcDbCircle
 10
720.727786
 20
1459.712587
 30
0.0
 40
3.598692000000001
100
AcDbArc
 50
90.00000000000001
 51
91.00051099999979
  0
ARC
  5
1AB
330
1F
100
AcDbEntity
  8
LAY-2
  6
CONTINUOUS
 62
     6
100
AcDbCircle
 10
715.453555
 20
1475.37671
 30
0.0
 40
5.0
100
AcDbArc
 50
1.000214000001228
 51
49.3920289999989
  0
LINE
  5
1AC
330
1F
100
AcDbEntity
  8
LAY-2
  6
CONTINUOUS
 62
     6
100
AcDbLine
 10
720.7189689999999
 20
1460.219057
 30
0.0
 11
720.3096949999999
 21
1483.66028
 31
0.0
  0
LINE
  5
1AD
330
1F
100
AcDbEntity
  8
LAY-2
  6
CONTINUOUS
 62
     6
100
AcDbLine
 10
720.309634
 20
1483.660158
 30
0.0
 11
720.308231
 21
1483.741212
 31
0.0
  0
LINE
  5
1AE
330
1F
100
AcDbEntity
  8
LAY-2
  6
CONTINUOUS
 62
     6
100
AcDbLine
 10
695.5411409999999
 20
1504.278871
 30
0.0
 11
718.2594019999999
 21
1487.676027
 31
0.0
  0
ARC
  5
1AF
330
1F
100
AcDbEntity
  8
LAY-2
  6
CONTINUOUS
 62
     6
100
AcDbCircle
 10
701.4415309999998
 20
1512.352602
 30
0.0
 40
10.0
100
AcDbArc
 50
181.0026860000001
 51
233.839844
  0
ARC
  5
1B0
330
1F
100
AcDbEntity
  8
LAY-2
  6
CONTINUOUS
 62
     6
100
AcDbCircle
 10
701.5338159999999
 20
1507.069154
 30
0.0
 40
10.0
100
AcDbArc
 50
181.0014649999995
 51
229.3897709999998
  0
ARC
  5
1B1
330
1F
100
AcDbEntity
  8
LAY-2
  6
CONTINUOUS
 62
     6
100
AcDbCircle
 10
748.3977249999999
 20
1485.763596
 30
0.0
 40
9.999998000000003
100
AcDbArc
 50
229.5139599999995
 51
268.8374459999996
  0
ARC
  5
1B2
330
1F
100
AcDbEntity
  8
LAY-2
  6
CONTINUOUS
 62
     6
100
AcDbCircle
 10
754.188987
 20
1572.856764
 30
0.0
 40
49.99998900000001
100
AcDbArc
 50
238.5467360000002
 51
262.001448
  0
ARC
  5
1B3
330
1F
100
AcDbEntity
  8
LAY-2
  6
CONTINUOUS
 62
     6
100
AcDbCircle
 10
332.636704
 20
-2400.53645
 30
0.0
 40
4000.000244
100
AcDbArc
 50
84.62193099999996
 51
85.05405999999999
  0
ARC
  5
1B4
330
1F
100
AcDbEntity
  8
LAY-2
  6
CONTINUOUS
 62
     6
100
AcDbCircle
 10
636.1264069999999
 20
1185.959413
 30
0.0
 40
400.0000000000001
100
AcDbArc
 50
87.45968799999999
 51
89.44030100000002
  0
ARC
  5
1B5
330
1F
100
AcDbEntity
  8
LAY-2
  6
CONTINUOUS
 62
     6
100
AcDbCircle
 10
636.1278110000001
 20
1191.210329
 30
0.0
 40
400.0000000000001
100
AcDbArc
 50
85.50512699999996
 51
92.06936999999996
  0
ARC
  5
1B6
330
1F
100
AcDbEntity
  8
LAY-2
  6
CONTINUOUS
 62
     6
100
AcDbCircle
 10
621.8688380000001
 20
1585.952882
 30
0.0
 40
5.0
100
AcDbArc
 50
92.06930500000018
 51
131.332550000001
  0
ARC
  5
1B7
330
1F
100
AcDbEntity
  8
LAY-2
  6
CONTINUOUS
 62
     6
100
AcDbCircle
 10
640.0044750000001
 20
1582.940471
 30
0.0
 40
3.000000000000003
100
AcDbArc
 50
89.44030100000029
 51
180.999914999999
  0
ARC
  5
1B8
330
1F
100
AcDbEntity
  8
LAY-2
  6
CONTINUOUS
 62
     6
100
AcDbCircle
 10
643.013263
 20
1186.059269
 30
0.0
 40
399.999939
100
AcDbArc
 50
85.05405999999999
 51
88.189711
  0
ARC
  5
1B9
330
1F
100
AcDbEntity
  8
LAY-2
  6
CONTINUOUS
 62
     6
100
AcDbCircle
 10
655.554525
 20
1582.861081
 30
0.0
 40
2.999987000000001
100
AcDbArc
 50
88.18937499999993
 51
178.8372020000002
  0
ARC
  5
1BA
330
1F
100
AcDbEntity
  8
LAY-2
  6
CONTINUOUS
 62
     6
100
AcDbCircle
 10
665.5164819999999
 20
1565.057008
 30
0.0
 40
25.0
100
AcDbArc
 50
50.81945500000001
 51
85.50518799999982
  0
ARC
  5
1BB
330
1F
100
AcDbEntity
  8
LAY-2
  6
CONTINUOUS
 62
     6
100
AcDbCircle
 10
708.629602
 20
1586.023706
 30
0.0
 40
0.999999
100
AcDbArc
 50
84.60893100000027
 51
178.8374460000035
  0
LINE
  5
1BC
330
1F
100
AcDbEntity
  8
LAY-2
  6
CONTINUOUS
 62
     6
100
AcDbLine
 10
707.5448369999998
 20
1581.855563
 30
0.0
 11
707.629813
 21
1586.043988
 31
0.0
  0
ARC
  5
1BD
330
1F
100
AcDbEntity
  8
LAY-2
  6
CONTINUOUS
 62
     6
100
AcDbCircle
 10
780.8348329796002
 20
1463.905244158
 30
0.0
 40
3.000000000000003
100
AcDbArc
 50
268.8375879999992
 51
358.8376120000008
  0
ARC
  5
1BE
330
1F
100
AcDbEntity
  8
LAY-2
  6
CONTINUOUS
 62
     6
100
AcDbCircle
 10
788.9589030000002
 20
1469.937271
 30
0.0
 40
5.000011000000002
100
AcDbArc
 50
88.83767499999956
 51
178.8374460000013
  0
LINE
  5
1BF
330
1F
100
AcDbEntity
  8
LAY-2
  6
CONTINUOUS
 62
     6
100
AcDbLine
 10
783.9599
 20
1470.038727
 30
0.0
 11
783.8342156269
 21
1463.844385839
 31
0.0
  0
ARC
  5
1C0
330
1F
100
AcDbEntity
  8
LAY-2
  6
CONTINUOUS
 62
     6
100
AcDbCircle
 10
857.185998
 20
862.789338
 30
0.0
 40
699.999939
100
AcDbArc
 50
71.88740399999996
 51
80.85563499999998
  0
LINE
  5
1C1
330
1F
100
AcDbEntity
  8
LAY-2
  6
CONTINUOUS
 62
     6
100
AcDbLine
 10
981.702959
 20
1501.595298
 30
0.0
 11
1083.390165
 21
1496.978006
 31
0.0
  0
ARC
  5
1C2
330
1F
100
AcDbEntity
  8
LAY-2
  6
CONTINUOUS
 62
     6
100
AcDbCircle
 10
963.922777
 20
1466.386674
 30
0.0
 40
5.000011000000002
100
AcDbArc
 50
355.3451070487008
 51
88.83720999999922
  0
ARC
  5
1C3
330
1F
100
AcDbEntity
  8
LAY-2
  6
CONTINUOUS
 62
     6
100
AcDbCircle
 10
980.856392
 20
1462.942404
 30
0.0
 40
3.000000000000003
100
AcDbArc
 50
268.8375440000008
 51
358.8369330000004
  0
ARC
  5
1C4
330
1F
100
AcDbEntity
  8
LAY-2
  6
CONTINUOUS
 62
     6
100
AcDbCircle
 10
988.917668
 20
1465.879452
 30
0.0
 40
5.000007000000004
100
AcDbArc
 50
88.83755300000058
 51
178.8373700000008
  0
LINE
  5
1C5
330
1F
100
AcDbEntity
  8
LAY-2
  6
CONTINUOUS
 62
     6
100
AcDbLine
 10
983.9186660000001
 20
1465.980894
 30
0.0
 11
983.878102
 21
1463.981317
 31
0.0
  0
LINE
  5
1C6
330
1F
100
AcDbEntity
  8
LAY-2
  6
CONTINUOUS
 62
     6
100
AcDbLine
 10
983.855774
 20
1462.88151
 30
0.0
 11
983.878102
 21
1463.981317
 31
0.0
  0
ARC
  5
1C7
330
1F
100
AcDbEntity
  8
LAY-2
  6
CONTINUOUS
 62
     6
100
AcDbCircle
 10
986.1027690000001
 20
1507.951248
 30
0.0
 40
6.000000000000005
100
AcDbArc
 50
194.0586230000007
 51
341.2707349999997
  0
ARC
  5
1C8
330
1F
100
AcDbEntity
  8
LAY-2
  6
CONTINUOUS
 62
     6
100
AcDbCircle
 10
1057.02634
 20
1493.167504
 30
0.0
 40
40.00000800000003
100
AcDbArc
 50
18.73582300000008
 51
48.15214399999997
  0
LINE
  5
1C9
330
1F
100
AcDbEntity
  8
LAY-2
  6
CONTINUOUS
 62
     6
100
AcDbLine
 10
1093.935349
 20
1503.539142
 30
0.0
 11
1037.262202
 21
1504.689202
 31
0.0
  0
ARC
  5
1CA
330
1F
100
AcDbEntity
  8
LAY-2
  6
CONTINUOUS
 62
     6
100
AcDbCircle
 10
893.175286
 20
1460.351012
 30
0.0
 40
199.9999390000002
100
AcDbArc
 50
2.412091999999996
 51
8.5781079999999
  0
ARC
  5
1CB
330
1F
100
AcDbEntity
  8
LAY-2
  6
CONTINUOUS
 62
     6
100
AcDbCircle
 10
1083.027426
 20
1488.989253
 30
0.0
 40
7.999994000000002
100
AcDbArc
 50
8.578046999999138
 51
85.82859600000012
  0
ARC
  5
1CC
330
1F
100
AcDbEntity
  8
LAY-2
  6
CONTINUOUS
 62
     6
100
AcDbCircle
 10
1093.955647
 20
1504.538945
 30
0.0
 40
1.0
100
AcDbArc
 50
268.8374459999966
 51
358.8374459999967
  0
LINE
  5
1CD
330
1F
100
AcDbEntity
  8
LAY-2
  6
CONTINUOUS
 62
     6
100
AcDbLine
 10
1094.90682
 20
1506.015696
 30
0.0
 11
1094.955435
 21
1504.518648
 31
0.0
  0
ARC
  5
1CE
330
1F
100
AcDbEntity
  8
LAY-2
  6
CONTINUOUS
 62
     6
100
AcDbCircle
 10
1067.033691
 20
1504.341285
 30
0.0
 40
25.00000400000001
100
AcDbArc
 50
48.15208300000008
 51
71.88740399999996
  0
LINE
  5
1CF
330
1F
100
AcDbEntity
  8
LAY-2
  6
CONTINUOUS
 62
     6
100
AcDbLine
 10
461.9999999999999
 20
1198.6492465
 30
0.0
 11
461.9999999999999
 21
1419.960329
 31
0.0
  0
LINE
  5
1D0
330
1F
100
AcDbEntity
  8
LAY-2
  6
CONTINUOUS
 62
     6
100
AcDbLine
 10
465.9999999999999
 20
1199.2992465
 30
0.0
 11
465.9999999999999
 21
1419.960329
 31
0.0
  0
LINE
  5
1D1
330
1F
100
AcDbEntity
  8
LAY-2
  6
CONTINUOUS
 62
     6
100
AcDbLine
 10
470.9999999999999
 20
1439.960329
 30
0.0
 11
472.2844850000001
 21
1463.960329
 31
0.0
  0
LINE
  5
1D2
330
1F
100
AcDbEntity
  8
LAY-2
  6
CONTINUOUS
 62
     6
100
AcDbLine
 10
463.0000000000001
 20
1461.960329
 30
0.0
 11
463.0000000000001
 21
1449.960329
 31
0.0
  0
LINE
  5
1D3
330
1F
100
AcDbEntity
  8
LAY-2
  6
CONTINUOUS
 62
     6
100
AcDbLine
 10
465.0
 20
1461.960329
 30
0.0
 11
465.0
 21
1449.960329
 31
0.0
  0
LINE
  5
1D4
330
1F
100
AcDbEntity
  8
LAY-2
  6
CONTINUOUS
 62
     6
100
AcDbLine
 10
469.0000000000001
 20
1437.960329
 30
0.0
 11
471.3257440000001
 21
1464.474245
 31
0.0
  0
LINE
  5
1D5
330
1F
100
AcDbEntity
  8
LAY-2
  6
CONTINUOUS
 62
     6
100
AcDbLine
 10
455.0
 20
1467.960329
 30
0.0
 11
455.0
 21
1451.960329
 31
0.0
  0
LINE
  5
1D6
330
1F
100
AcDbEntity
  8
LAY-2
  6
CONTINUOUS
 62
     6
100
AcDbLine
 10
455.0
 20
1467.960329
 30
0.0
 11
469.514465
 21
1466.64081
 31
0.0
  0
ARC
  5
1D7
330
1F
100
AcDbEntity
  8
LAY-2
  6
CONTINUOUS
 62
     6
100
AcDbCircle
 10
443.0000000000001
 20
1459.710329
 30
0.0
 40
5.0
100
AcDbArc
 50
139.4584959999993
 51
220.5416259999999
  0
CIRCLE
  5
1D8
330
1F
100
AcDbEntity
  8
LAY-2
  6
CONTINUOUS
 62
     6
100
AcDbCircle
 10
443.0000000000001
 20
1459.710329
 30
0.0
 40
2.0
  0
LINE
  5
1D9
330
1F
100
AcDbEntity
  8
LAY-2
  6
CONTINUOUS
 62
     6
100
AcDbLine
 10
455.0
 20
1456.460329
 30
0.0
 11
439.2003170000001
 21
1456.460329
 31
0.0
  0
LINE
  5
1DA
330
1F
100
AcDbEntity
  8
LAY-2
  6
CONTINUOUS
 62
     6
100
AcDbLine
 10
455.0
 20
1462.960329
 30
0.0
 11
439.2003170000001
 21
1462.960329
 31
0.0
  0
ARC
  5
1DB
330
1F
100
AcDbEntity
  8
LAY-2
  6
CONTINUOUS
 62
     6
100
AcDbCircle
 10
471.4160759999999
 20
1463.46454
 30
0.0
 40
1.0
100
AcDbArc
 50
29.72323599999964
 51
95.2529300000001
  0
ARC
  5
1DC
330
1F
100
AcDbEntity
  8
LAY-2
  6
CONTINUOUS
 62
     6
100
AcDbCircle
 10
464.0000000000001
 20
1467.960329
 30
0.0
 40
1.0
100
AcDbArc
 50
0.0
 51
180.0
  0
ARC
  5
1DD
330
1F
100
AcDbEntity
  8
LAY-2
  6
CONTINUOUS
 62
     6
100
AcDbCircle
 10
464.0000000000001
 20
1461.960329
 30
0.0
 40
1.0
100
AcDbArc
 50
0.0
 51
180.0
  0
ARC
  5
1DE
330
1F
100
AcDbEntity
  8
LAY-2
  6
CONTINUOUS
 62
     6
100
AcDbCircle
 10
469.333374
 20
1464.64905
 30
0.0
 40
2.0
100
AcDbArc
 50
354.9869379999987
 51
84.80541999999951
  0
LINE
  5
1DF
330
1F
100
AcDbEntity
  8
LAY-2
  6
CONTINUOUS
 62
     6
100
AcDbLine
 10
465.0
 20
1467.960329
 30
0.0
 11
465.0
 21
1467.05121
 31
0.0
  0
LINE
  5
1E0
330
1F
100
AcDbEntity
  8
LAY-2
  6
CONTINUOUS
 62
     6
100
AcDbLine
 10
463.0000000000001
 20
1467.233095
 30
0.0
 11
463.0000000000001
 21
1467.960329
 31
0.0
  0
ARC
  5
1E1
330
1F
100
AcDbEntity
  8
LAY-2
  6
CONTINUOUS
 62
     6
100
AcDbCircle
 10
455.0
 20
1447.960329
 30
0.0
 40
4.0
100
AcDbArc
 50
0.0
 51
90.00000000000001
  0
LINE
  5
1E2
330
1F
100
AcDbEntity
  8
LAY-2
  6
CONTINUOUS
 62
     6
100
AcDbLine
 10
468.4999999999999
 20
1435.960329
 30
0.0
 11
468.4443970000001
 21
1434.460329
 31
0.0
  0
LINE
  5
1E3
330
1F
100
AcDbEntity
  8
LAY-2
  6
CONTINUOUS
 62
     6
100
AcDbLine
 10
459.4999999999999
 20
1435.960329
 30
0.0
 11
459.5555419999999
 21
1434.460329
 31
0.0
  0
ARC
  5
1E4
330
1F
100
AcDbEntity
  8
LAY-2
  6
CONTINUOUS
 62
     6
100
AcDbCircle
 10
464.0000000000001
 20
1449.960329
 30
0.0
 40
1.0
100
AcDbArc
 50
180.0
 51
0.0
  0
LINE
  5
1E5
330
1F
100
AcDbEntity
  8
LAY-2
  6
CONTINUOUS
 62
     6
100
AcDbLine
 10
469.0000000000001
 20
1437.960329
 30
0.0
 11
470.9999999999999
 21
1439.960329
 31
0.0
  0
LINE
  5
1E6
330
1F
100
AcDbEntity
  8
LAY-2
  6
CONTINUOUS
 62
     6
100
AcDbLine
 10
469.0000000000001
 20
1435.960329
 30
0.0
 11
469.0000000000001
 21
1437.960329
 31
0.0
  0
LINE
  5
1E7
330
1F
100
AcDbEntity
  8
LAY-2
  6
CONTINUOUS
 62
     6
100
AcDbLine
 10
459.0000000000001
 20
1435.960329
 30
0.0
 11
459.0000000000001
 21
1447.960329
 31
0.0
  0
LINE
  5
1E8
330
1F
100
AcDbEntity
  8
LAY-2
  6
CONTINUOUS
 62
     6
100
AcDbLine
 10
459.0000000000001
 20
1435.960329
 30
0.0
 11
469.0000000000001
 21
1435.960329
 31
0.0
  0
LINE
  5
1E9
330
1F
100
AcDbEntity
  8
LAY-2
  6
CONTINUOUS
 62
     6
100
AcDbLine
 10
459.9670409999999
 20
1437.960329
 30
0.0
 11
467.8587640000001
 21
1437.960329
 31
0.0
  0
LINE
  5
1EA
330
1F
100
AcDbEntity
  8
LAY-2
  6
CONTINUOUS
 62
     6
100
AcDbLine
 10
468.388855
 20
1432.960329
 30
0.0
 11
468.333313
 21
1431.460329
 31
0.0
  0
LINE
  5
1EB
330
1F
100
AcDbEntity
  8
LAY-2
  6
CONTINUOUS
 62
     6
100
AcDbLine
 10
468.2777099999998
 20
1429.960329
 30
0.0
 11
468.2221680000001
 21
1428.460329
 31
0.0
  0
LINE
  5
1EC
330
1F
100
AcDbEntity
  8
LAY-2
  6
CONTINUOUS
 62
     6
100
AcDbLine
 10
468.166626
 20
1426.960329
 30
0.0
 11
468.1110839999999
 21
1425.460329
 31
0.0
  0
LINE
  5
1ED
330
1F
100
AcDbEntity
  8
LAY-2
  6
CONTINUOUS
 62
     6
100
AcDbLine
 10
468.0555420000002
 20
1423.960329
 30
0.0
 11
468.0000000000001
 21
1422.460329
 31
0.0
  0
LINE
  5
1EE
330
1F
100
AcDbEntity
  8
LAY-2
  6
CONTINUOUS
 62
     6
100
AcDbLine
 10
459.611084
 20
1432.960329
 30
0.0
 11
459.6666260000001
 21
1431.460329
 31
0.0
  0
LINE
  5
1EF
330
1F
100
AcDbEntity
  8
LAY-2
  6
CONTINUOUS
 62
     6
100
AcDbLine
 10
459.7221680000001
 20
1429.960329
 30
0.0
 11
459.7777099999999
 21
1428.460329
 31
0.0
  0
LINE
  5
1F0
330
1F
100
AcDbEntity
  8
LAY-2
  6
CONTINUOUS
 62
     6
100
AcDbLine
 10
459.833313
 20
1426.960329
 30
0.0
 11
459.8888550000001
 21
1425.460329
 31
0.0
  0
LINE
  5
1F1
330
1F
100
AcDbEntity
  8
LAY-2
  6
CONTINUOUS
 62
     6
100
AcDbLine
 10
459.9443969999999
 20
1423.960329
 30
0.0
 11
460.0
 21
1422.460329
 31
0.0
  0
LINE
  5
1F2
330
1F
100
AcDbEntity
  8
LAY-2
  6
CONTINUOUS
 62
     6
100
AcDbLine
 10
468.5781249999999
 20
1422.460329
 30
0.0
 11
468.4999999999999
 21
1419.960329
 31
0.0
  0
LINE
  5
1F3
330
1F
100
AcDbEntity
  8
LAY-2
  6
CONTINUOUS
 62
     6
100
AcDbLine
 10
459.4218749999999
 20
1422.460329
 30
0.0
 11
459.4999999999999
 21
1419.960329
 31
0.0
  0
LINE
  5
1F4
330
1F
100
AcDbEntity
  8
LAY-2
  6
CONTINUOUS
 62
     6
100
AcDbLine
 10
459.4999999999999
 20
1419.960329
 30
0.0
 11
468.4999999999999
 21
1419.960329
 31
0.0
  0
LINE
  5
1F5
330
1F
100
AcDbEntity
  8
LAY-2
  6
CONTINUOUS
 62
     6
100
AcDbLine
 10
459.4218749999999
 20
1422.460329
 30
0.0
 11
468.5781249999999
 21
1422.460329
 31
0.0
  0
ARC
  5
1F6
330
1F
100
AcDbEntity
  8
LAY-2
  6
CONTINUOUS
 62
     6
100
AcDbCircle
 10
549.5889175
 20
1199.2992465
 30
0.0
 40
83.58891750000012
100
AcDbArc
 50
180.0
 51
0.0
  0
ARC
  5
1F7
330
1F
100
AcDbEntity
  8
LAY-2
  6
CONTINUOUS
 62
     6
100
AcDbCircle
 10
550.9389175000001
 20
1198.6492465
 30
0.0
 40
88.93891749999999
100
AcDbArc
 50
180.0
 51
0.0
  0
LINE
  5
1F8
330
1F
100
AcDbEntity
  8
LAY-2
  6
CONTINUOUS
 62
     6
100
AcDbLine
 10
769.0732350292001
 20
1463.844385839
 30
0.0
 11
783.8342156269
 21
1463.844385839
 31
0.0
  0
LINE
  5
1F9
330
1F
100
AcDbEntity
  8
LAY-2
  6
CONTINUOUS
 62
     6
100
AcDbLine
 10
768.9475465976
 20
1470.038927026
 30
0.0
 11
769.0732350292001
 21
1463.844385839
 31
0.0
  0
ARC
  5
1FA
330
1F
100
AcDbEntity
  8
LAY-2
  6
CONTINUOUS
 62
     6
100
AcDbCircle
 10
772.0726176766
 20
1463.905244158
 30
0.0
 40
3.000000000000003
100
AcDbArc
 50
181.1623879999993
 51
271.1624120000008
  0
LINE
  5
1FB
330
1F
100
AcDbEntity
  8
LAY-2
  6
CONTINUOUS
 62
     6
100
AcDbLine
 10
772.1334772514001
 20
1460.905861536
 30
0.0
 11
780.7739734047
 21
1460.905861536
 31
0.0
  0
LINE
  5
1FC
330
1F
100
AcDbEntity
  8
LAY-2
  6
CONTINUOUS
 62
     6
100
AcDbLine
 10
968.9063202417999
 20
1465.980894
 30
0.0
 11
968.9468842418
 21
1463.981317
 31
0.0
  0
ARC
  5
1FD
330
1F
100
AcDbEntity
  8
LAY-2
  6
CONTINUOUS
 62
     6
100
AcDbCircle
 10
971.9685942418
 20
1462.942404
 30
0.0
 40
3.000000000000003
100
AcDbArc
 50
181.1630669999996
 51
271.1624559999995
  0
LINE
  5
1FE
330
1F
100
AcDbEntity
  8
LAY-2
  6
CONTINUOUS
 62
     6
100
AcDbLine
 10
968.9692122418
 20
1462.88151
 30
0.0
 11
968.9468842418
 21
1463.981317
 31
0.0
  0
LINE
  5
1FF
330
1F
100
AcDbEntity
  8
LAY-2
  6
CONTINUOUS
 62
     6
100
AcDbLine
 10
972.0294561199
 20
1459.943021425
 30
0.0
 11
980.7955301218
 21
1459.943021425
 31
0.0
  0
LINE
  5
200
330
1F
100
AcDbEntity
  8
LAY-2
  6
CONTINUOUS
 62
     6
100
AcDbLine
 10
983.8557739258999
 20
1462.881510137
 30
0.0
 11
968.9692123159
 21
1462.881510137
 31
0.0
  0
ARC
  5
201
330
1F
100
AcDbEntity
  8
LAY-2
  6
CONTINUOUS
 62
     6
100
AcDbCircle
 10
605.982248
 20
2421.590835
 30
0.0
 40
2.338
100
AcDbArc
 50
90.40784199999993
 51
180.0
  0
ARC
  5
202
330
1F
100
AcDbEntity
  8
LAY-2
  6
CONTINUOUS
 62
     6
100
AcDbCircle
 10
605.982248
 20
2421.590835
 30
0.0
 40
5.0
100
AcDbArc
 50
90.40784199999963
 51
180.0
  0
ARC
  5
203
330
1F
100
AcDbEntity
  8
LAY-2
  6
CONTINUOUS
 62
     6
100
AcDbCircle
 10
641.531344
 20
-2572.449342
 30
0.0
 40
4999.166700000001
100
AcDbArc
 50
90.40784199999997
 51
90.468477
  0
ARC
  5
204
330
1F
100
AcDbEntity
  8
LAY-2
  6
CONTINUOUS
 62
     6
100
AcDbCircle
 10
620.9802580000002
 20
2391.511473
 30
0.0
 40
26.0
100
AcDbArc
 50
90.23672499999994
 51
180.0
  0
ARC
  5
205
330
1F
100
AcDbEntity
  8
LAY-2
  6
CONTINUOUS
 62
     6
100
AcDbCircle
 10
605.982248
 20
2037.510237
 30
0.0
 40
2.338
100
AcDbArc
 50
180.0
 51
269.592158
  0
ARC
  5
206
330
1F
100
AcDbEntity
  8
LAY-2
  6
CONTINUOUS
 62
     6
100
AcDbCircle
 10
641.531344
 20
7031.550414000001
 30
0.0
 40
4999.166700000001
100
AcDbArc
 50
269.5315230000001
 51
269.5921580000003
  0
ARC
  5
207
330
1F
100
AcDbEntity
  8
LAY-2
  6
CONTINUOUS
 62
     6
100
AcDbCircle
 10
605.982248
 20
2037.510237
 30
0.0
 40
5.0
100
AcDbArc
 50
180.0
 51
269.5921580000004
  0
ARC
  5
208
330
1F
100
AcDbEntity
  8
LAY-2
  6
CONTINUOUS
 62
     6
100
AcDbCircle
 10
214.9311850000001
 20
2229.550536
 30
0.0
 40
400.0000000000001
100
AcDbArc
 50
340.3367920000002
 51
19.66320799999999
  0
ARC
  5
209
330
1F
100
AcDbEntity
  8
LAY-2
  6
CONTINUOUS
 62
     6
100
AcDbCircle
 10
641.531344
 20
7031.550536
 30
0.0
 40
5000.000000000005
100
AcDbArc
 50
269.5314940000002
 51
269.7293700000002
  0
ARC
  5
20A
330
1F
100
AcDbEntity
  8
LAY-2
  6
CONTINUOUS
 62
     6
100
AcDbCircle
 10
214.9311850000001
 20
2229.550536
 30
0.0
 40
403.0000000000002
100
AcDbArc
 50
340.8405552720999
 51
19.15944472788997
  0
LINE
  5
20B
330
1F
100
AcDbEntity
  8
LAY-2
  6
CONTINUOUS
 62
     6
100
AcDbLine
 10
590.7312339999999
 20
2369.19409
 30
0.0
 11
590.7312339999999
 21
2417.384032
 31
0.0
  0
LINE
  5
20C
330
1F
100
AcDbEntity
  8
LAY-2
  6
CONTINUOUS
 62
     6
100
AcDbLine
 10
590.7312339999999
 20
2041.71704
 30
0.0
 11
590.7312339999999
 21
2089.906981
 31
0.0
  0
ARC
  5
20D
330
1F
100
AcDbEntity
  8
LAY-2
  6
CONTINUOUS
 62
     6
100
AcDbCircle
 10
600.7312339999999
 20
2041.71704
 30
0.0
 40
10.0
100
AcDbArc
 50
180.0
 51
269.5313720000003
  0
LINE
  5
20E
330
1F
100
AcDbEntity
  8
LAY-2
  6
CONTINUOUS
 62
     6
100
AcDbLine
 10
603.644248
 20
2037.510237
 30
0.0
 11
603.644248
 21
2040.379043
 31
0.0
  0
ARC
  5
20F
330
1F
100
AcDbEntity
  8
LAY-2
  6
CONTINUOUS
 62
     6
100
AcDbCircle
 10
600.7312339999999
 20
2041.71704
 30
0.0
 40
9.1667
100
AcDbArc
 50
180.0
 51
269.5313719999998
  0
LINE
  5
210
330
1F
100
AcDbEntity
  8
LAY-2
  6
CONTINUOUS
 62
     6
100
AcDbLine
 10
591.5645340000001
 20
2041.71704
 30
0.0
 11
591.5645340000001
 21
2046.979043
 31
0.0
  0
LINE
  5
211
330
1F
100
AcDbEntity
  8
LAY-2
  6
CONTINUOUS
 62
     6
100
AcDbLine
 10
600.982248
 20
2037.510237
 30
0.0
 11
600.982248
 21
2040.379043
 31
0.0
  0
ARC
  5
212
330
1F
100
AcDbEntity
  8
LAY-2
  6
CONTINUOUS
 62
     6
100
AcDbCircle
 10
599.382248
 20
2040.379043
 30
0.0
 40
1.6
100
AcDbArc
 50
0.0
 51
90.00000000000001
  0
ARC
  5
213
330
1F
100
AcDbEntity
  8
LAY-2
  6
CONTINUOUS
 62
     6
100
AcDbCircle
 10
599.382248
 20
2040.379043
 30
0.0
 40
4.262000000000002
100
AcDbArc
 50
0.0
 51
90.00000000000001
  0
LINE
  5
214
330
1F
100
AcDbEntity
  8
LAY-2
  6
CONTINUOUS
 62
     6
100
AcDbLine
 10
599.382248
 20
2041.979043
 30
0.0
 11
596.5645340000001
 21
2041.979043
 31
0.0
  0
ARC
  5
215
330
1F
100
AcDbEntity
  8
LAY-2
  6
CONTINUOUS
 62
     6
100
AcDbCircle
 10
596.5645340000001
 20
2046.979043
 30
0.0
 40
5.0
100
AcDbArc
 50
180.0
 51
270.0000000000002
  0
LINE
  5
216
330
1F
100
AcDbEntity
  8
LAY-2
  6
CONTINUOUS
 62
     6
100
AcDbLine
 10
599.382248
 20
2044.641043
 30
0.0
 11
596.5645340000001
 21
2044.641043
 31
0.0
  0
ARC
  5
217
330
1F
100
AcDbEntity
  8
LAY-2
  6
CONTINUOUS
 62
     6
100
AcDbCircle
 10
596.5645340000001
 20
2046.979043
 30
0.0
 40
2.338
100
AcDbArc
 50
180.0
 51
270.0000000000002
  0
ARC
  5
218
330
1F
100
AcDbEntity
  8
LAY-2
  6
CONTINUOUS
 62
     6
100
AcDbCircle
 10
605.7312339999999
 20
2089.906981
 30
0.0
 40
15.0
100
AcDbArc
 50
160.3367310000005
 51
180.0
  0
LINE
  5
219
330
1F
100
AcDbEntity
  8
LAY-2
  6
CONTINUOUS
 62
     6
100
AcDbLine
 10
594.9802579999999
 20
2366.807721
 30
0.0
 11
594.9802579999999
 21
2391.011473
 31
0.0
  0
ARC
  5
21A
330
1F
100
AcDbEntity
  8
LAY-2
  6
CONTINUOUS
 62
     6
100
AcDbCircle
 10
609.9802579999999
 20
2366.807721
 30
0.0
 40
15.0
100
AcDbArc
 50
180.0
 51
199.3137109999996
  0
ARC
  5
21B
330
1F
100
AcDbEntity
  8
LAY-2
  6
CONTINUOUS
 62
     6
100
AcDbCircle
 10
605.7312339999999
 20
2369.19409
 30
0.0
 40
15.0
100
AcDbArc
 50
180.0
 51
199.6632689999997
  0
ARC
  5
21C
330
1F
100
AcDbEntity
  8
LAY-2
  6
CONTINUOUS
 62
     6
100
AcDbCircle
 10
596.5645340000001
 20
2412.122029
 30
0.0
 40
2.338
100
AcDbArc
 50
90.00000000000001
 51
180.0
  0
LINE
  5
21D
330
1F
100
AcDbEntity
  8
LAY-2
  6
CONTINUOUS
 62
     6
100
AcDbLine
 10
591.5645340000001
 20
2417.384032
 30
0.0
 11
591.5645340000001
 21
2412.122029
 31
0.0
  0
ARC
  5
21E
330
1F
100
AcDbEntity
  8
LAY-2
  6
CONTINUOUS
 62
     6
100
AcDbCircle
 10
596.5645340000001
 20
2412.122029
 30
0.0
 40
5.0
100
AcDbArc
 50
90.00000000000001
 51
180.0
  0
LINE
  5
21F
330
1F
100
AcDbEntity
  8
LAY-2
  6
CONTINUOUS
 62
     6
100
AcDbLine
 10
599.382248
 20
2417.122029
 30
0.0
 11
596.5645340000001
 21
2417.122029
 31
0.0
  0
ARC
  5
220
330
1F
100
AcDbEntity
  8
LAY-2
  6
CONTINUOUS
 62
     6
100
AcDbCircle
 10
599.382248
 20
2418.722029
 30
0.0
 40
1.6
100
AcDbArc
 50
270.0000000000002
 51
0.0
  0
LINE
  5
221
330
1F
100
AcDbEntity
  8
LAY-2
  6
CONTINUOUS
 62
     6
100
AcDbLine
 10
599.382248
 20
2414.460029
 30
0.0
 11
596.5645340000001
 21
2414.460029
 31
0.0
  0
ARC
  5
222
330
1F
100
AcDbEntity
  8
LAY-2
  6
CONTINUOUS
 62
     6
100
AcDbCircle
 10
599.382248
 20
2418.722029
 30
0.0
 40
4.262000000000002
100
AcDbArc
 50
270.0000000000002
 51
0.0
  0
LINE
  5
223
330
1F
100
AcDbEntity
  8
LAY-2
  6
CONTINUOUS
 62
     6
100
AcDbLine
 10
603.644248
 20
2421.590835
 30
0.0
 11
603.644248
 21
2418.722029
 31
0.0
  0
LINE
  5
224
330
1F
100
AcDbEntity
  8
LAY-2
  6
CONTINUOUS
 62
     6
100
AcDbLine
 10
600.982248
 20
2421.590835
 30
0.0
 11
600.982248
 21
2418.722029
 31
0.0
  0
ARC
  5
225
330
1F
100
AcDbEntity
  8
LAY-2
  6
CONTINUOUS
 62
     6
100
AcDbCircle
 10
600.7312339999999
 20
2417.384032
 30
0.0
 40
9.1667
100
AcDbArc
 50
90.4686279999998
 51
180.0
  0
ARC
  5
226
330
1F
100
AcDbEntity
  8
LAY-2
  6
CONTINUOUS
 62
     6
100
AcDbCircle
 10
600.7312339999999
 20
2417.384032
 30
0.0
 40
10.0
100
AcDbArc
 50
90.46862799999991
 51
180.0
  0
LINE
  5
227
330
1F
100
AcDbEntity
  8
LAY-2
  6
CONTINUOUS
 62
     6
100
AcDbLine
 10
636.954867
 20
2416.29077
 30
0.0
 11
636.954867
 21
2372.723998
 31
0.0
  0
LINE
  5
228
330
1F
100
AcDbEntity
  8
LAY-2
  6
CONTINUOUS
 62
     6
100
AcDbLine
 10
652.1278110000001
 20
2375.050505
 30
0.0
 11
652.1278110000001
 21
2420.550536
 31
0.0
  0
ARC
  5
229
330
1F
100
AcDbEntity
  8
LAY-2
  6
EXLTYPE2
 62
     6
100
AcDbCircle
 10
867.1993329999999
 20
2489.346248
 30
0.0
 40
360.0
100
AcDbArc
 50
272.8896690000003
 51
285.2673930000002
  0
ARC
  5
22A
330
1F
100
AcDbEntity
  8
LAY-2
  6
EXLTYPE2
 62
     6
100
AcDbCircle
 10
867.1993329999999
 20
1969.754824
 30
0.0
 40
360.0
100
AcDbArc
 50
74.732607
 51
87.11033099999997
  0
LINE
  5
22B
330
1F
100
AcDbEntity
  8
LAY-2
  6
CONTINUOUS
 62
     6
100
AcDbLine
 10
696.495731
 20
2089.550152
 30
0.0
 11
696.495731
 21
2369.550902
 31
0.0
  0
LINE
  5
22C
330
1F
100
AcDbEntity
  8
LAY-2
  6
CONTINUOUS
 62
     6
100
AcDbLine
 10
690.131259
 20
2365.116698
 30
0.0
 11
690.131259
 21
2094.377074
 31
0.0
  0
LINE
  5
22D
330
1F
100
AcDbEntity
  8
LAY-2
  6
CONTINUOUS
 62
     6
100
AcDbLine
 10
707.1278110000001
 20
2092.050567
 30
0.0
 11
707.1278110000001
 21
2367.050505
 31
0.0
  0
ARC
  5
22E
330
1F
100
AcDbEntity
  8
LAY-2
  6
CONTINUOUS
 62
     6
100
AcDbCircle
 10
636.532565
 20
2085.971496
 30
0.0
 40
70.00000000000004
100
AcDbArc
 50
259.0560929999999
 51
280.8659790000001
  0
ARC
  5
22F
330
1F
100
AcDbEntity
  8
LAY-2
  6
CONTINUOUS
 62
     6
100
AcDbCircle
 10
623.7137250000001
 20
2019.19068
 30
0.0
 40
2.0
100
AcDbArc
 50
181.0000000000002
 51
259.1340209999994
  0
ARC
  5
230
330
1F
100
AcDbEntity
  8
LAY-2
  6
CONTINUOUS
 62
     6
100
AcDbCircle
 10
649.3514049999999
 20
2019.19068
 30
0.0
 40
2.0
100
AcDbArc
 50
280.8659790000009
 51
358.9999999999998
  0
ARC
  5
231
330
1F
100
AcDbEntity
  8
LAY-2
  6
EXLTYPE2
 62
     6
100
AcDbCircle
 10
865.1828190000001
 20
2529.295386
 30
0.0
 40
400.0000000000001
100
AcDbArc
 50
267.6367740000001
 51
272.8896690000003
  0
ARC
  5
232
330
1F
100
AcDbEntity
  8
LAY-2
  6
EXLTYPE2
 62
     6
100
AcDbCircle
 10
852.8125060000002
 20
2229.550536
 30
0.0
 40
100.0
100
AcDbArc
 50
92.34202599999999
 51
267.6367732957002
  0
LINE
  5
233
330
1F
100
AcDbEntity
  8
LAY-2
  6
CONTINUOUS
 62
     6
100
AcDbLine
 10
656.1282249999999
 20
2371.5509
 30
0.0
 11
694.4956569999999
 21
2371.55092
 31
0.0
  0
ARC
  5
234
330
1F
100
AcDbEntity
  8
LAY-2
  6
CONTINUOUS
 62
     6
100
AcDbCircle
 10
687.131259
 20
2364.723998
 30
0.0
 40
3.000000000000003
100
AcDbArc
 50
0.0
 51
90.00000000000001
  0
LINE
  5
235
330
1F
100
AcDbEntity
  8
LAY-2
  6
CONTINUOUS
 62
     6
100
AcDbLine
 10
702.1278110000001
 20
2372.050505
 30
0.0
 11
655.1278109999998
 21
2372.050505
 31
0.0
  0
LINE
  5
236
330
1F
100
AcDbEntity
  8
LAY-2
  6
CONTINUOUS
 62
     6
100
AcDbLine
 10
687.131259
 20
2367.723998
 30
0.0
 11
641.954867
 21
2367.723998
 31
0.0
  0
ARC
  5
237
330
1F
100
AcDbEntity
  8
LAY-2
  6
CONTINUOUS
 62
     6
100
AcDbCircle
 10
641.954867
 20
2372.723998
 30
0.0
 40
5.0
100
AcDbArc
 50
180.0
 51
270.0000000000002
  0
LINE
  5
238
330
1F
100
AcDbEntity
  8
LAY-2
  6
CONTINUOUS
 62
     6
100
AcDbLine
 10
664.6613489999999
 20
2368.150511
 30
0.0
 11
669.462618
 21
2368.150511
 31
0.0
  0
ARC
  5
239
330
1F
100
AcDbEntity
  8
LAY-2
  6
CONTINUOUS
 62
     6
100
AcDbCircle
 10
669.0229210000001
 20
2372.418371
 30
0.0
 40
4.0
100
AcDbArc
 50
231.2025980000008
 51
270.0000000000002
  0
LINE
  5
23A
330
1F
100
AcDbEntity
  8
LAY-2
  6
CONTINUOUS
 62
     6
100
AcDbLine
 10
679.6282259999998
 20
2369.300912
 30
0.0
 11
654.6282259999998
 21
2369.300899
 31
0.0
  0
ARC
  5
23B
330
1F
100
AcDbEntity
  8
LAY-2
  6
CONTINUOUS
 62
     6
100
AcDbCircle
 10
654.6282259999998
 20
2370.300899
 30
0.0
 40
1.0
100
AcDbArc
 50
180.0
 51
270.0000000000002
  0
LINE
  5
23C
330
1F
100
AcDbEntity
  8
LAY-2
  6
CONTINUOUS
 62
     6
100
AcDbLine
 10
653.6282249999999
 20
2372.452223
 30
0.0
 11
653.6282260000002
 21
2370.300898
 31
0.0
  0
ARC
  5
23D
330
1F
100
AcDbEntity
  8
LAY-2
  6
CONTINUOUS
 62
     6
100
AcDbCircle
 10
656.128223
 20
2374.5509
 30
0.0
 40
3.000000000000003
100
AcDbArc
 50
232.7197380000015
 51
270.0000000000002
  0
LINE
  5
23E
330
1F
100
AcDbEntity
  8
LAY-2
  6
CONTINUOUS
 62
     6
100
AcDbLine
 10
653.4561209999998
 20
2372.559464
 30
0.0
 11
653.4561209999998
 21
2368.028237
 31
0.0
  0
LINE
  5
23F
330
1F
100
AcDbEntity
  8
LAY-2
  6
CONTINUOUS
 62
     6
100
AcDbLine
 10
658.2429209999998
 20
2369.300901
 30
0.0
 11
658.2429209999998
 21
2368.150277
 31
0.0
  0
ARC
  5
240
330
1F
100
AcDbEntity
  8
LAY-2
  6
CONTINUOUS
 62
     6
100
AcDbCircle
 10
655.1278109999998
 20
2375.050505
 30
0.0
 40
2.999998000000001
100
AcDbArc
 50
180.0
 51
270.0000000000002
  0
LINE
  5
241
330
1F
100
AcDbEntity
  8
LAY-2
  6
CONTINUOUS
 62
     6
100
AcDbLine
 10
680.6282249999998
 20
2371.550913
 30
0.0
 11
680.628226
 21
2370.300913
 31
0.0
  0
ARC
  5
242
330
1F
100
AcDbEntity
  8
LAY-2
  6
CONTINUOUS
 62
     6
100
AcDbCircle
 10
679.6282259999998
 20
2370.300912
 30
0.0
 40
1.0
100
AcDbArc
 50
270.0000000000002
 51
0.0
  0
ARC
  5
243
330
1F
100
AcDbEntity
  8
LAY-2
  6
CONTINUOUS
 62
     6
100
AcDbCircle
 10
694.4956580000002
 20
2369.55092
 30
0.0
 40
2.0
100
AcDbArc
 50
0.0
 51
90.00000000000001
  0
ARC
  5
244
330
1F
100
AcDbEntity
  8
LAY-2
  6
CONTINUOUS
 62
     6
100
AcDbCircle
 10
702.1278110000001
 20
2367.050505
 30
0.0
 40
4.999998000000002
100
AcDbArc
 50
0.0
 51
89.99996899999945
  0
ARC
  5
245
330
1F
100
AcDbEntity
  8
LAY-2
  6
EXLTYPE2
 62
     6
100
AcDbCircle
 10
865.1828190000001
 20
1929.805686
 30
0.0
 40
400.0000000000001
100
AcDbArc
 50
87.11033099999992
 51
92.36322600000001
  0
ARC
  5
246
330
1F
100
AcDbEntity
  8
LAY-2
  6
EXLTYPE2
 62
     6
100
AcDbCircle
 10
938.1125059999999
 20
2229.550536
 30
0.0
 40
90.7
100
AcDbArc
 50
285.2636368534
 51
74.74298799999997
  0
ARC
  5
247
330
1F
100
AcDbEntity
  8
LAY-2
  6
CONTINUOUS
 62
     6
100
AcDbCircle
 10
641.531344
 20
-2582.445924
 30
0.0
 40
5000.000000000005
100
AcDbArc
 50
90.06646699999996
 51
90.23672999999995
  0
LINE
  5
248
330
1F
100
AcDbEntity
  8
LAY-2
  6
CONTINUOUS
 62
     6
100
AcDbLine
 10
656.1282249999999
 20
2087.550172
 30
0.0
 11
694.4956569999999
 21
2087.550152
 31
0.0
  0
ARC
  5
249
330
1F
100
AcDbEntity
  8
LAY-2
  6
CONTINUOUS
 62
     6
100
AcDbCircle
 10
687.131259
 20
2094.377074
 30
0.0
 40
3.000000000000003
100
AcDbArc
 50
270.0000000000002
 51
0.0
  0
LINE
  5
24A
330
1F
100
AcDbEntity
  8
LAY-2
  6
CONTINUOUS
 62
     6
100
AcDbLine
 10
702.1278110000001
 20
2087.050567
 30
0.0
 11
655.1278109999998
 21
2087.050567
 31
0.0
  0
LINE
  5
24B
330
1F
100
AcDbEntity
  8
LAY-2
  6
CONTINUOUS
 62
     6
100
AcDbLine
 10
687.131259
 20
2091.377074
 30
0.0
 11
641.954867
 21
2091.377074
 31
0.0
  0
ARC
  5
24C
330
1F
100
AcDbEntity
  8
LAY-2
  6
CONTINUOUS
 62
     6
100
AcDbCircle
 10
641.954867
 20
2086.377074
 30
0.0
 40
5.0
100
AcDbArc
 50
90.00000000000001
 51
180.0
  0
LINE
  5
24D
330
1F
100
AcDbEntity
  8
LAY-2
  6
CONTINUOUS
 62
     6
100
AcDbLine
 10
664.6613489999999
 20
2090.950561
 30
0.0
 11
669.462618
 21
2090.950561
 31
0.0
  0
ARC
  5
24E
330
1F
100
AcDbEntity
  8
LAY-2
  6
CONTINUOUS
 62
     6
100
AcDbCircle
 10
669.0229210000001
 20
2086.682701
 30
0.0
 40
4.0
100
AcDbArc
 50
90.00000000000001
 51
128.7974019999993
  0
LINE
  5
24F
330
1F
100
AcDbEntity
  8
LAY-2
  6
CONTINUOUS
 62
     6
100
AcDbLine
 10
679.6282259999998
 20
2089.80016
 30
0.0
 11
654.6282259999998
 21
2089.800173
 31
0.0
  0
ARC
  5
250
330
1F
100
AcDbEntity
  8
LAY-2
  6
CONTINUOUS
 62
     6
100
AcDbCircle
 10
654.6282259999998
 20
2088.800173
 30
0.0
 40
1.0
100
AcDbArc
 50
90.00000000000001
 51
180.0
  0
LINE
  5
251
330
1F
100
AcDbEntity
  8
LAY-2
  6
CONTINUOUS
 62
     6
100
AcDbLine
 10
653.6282249999999
 20
2086.648849
 30
0.0
 11
653.6282260000002
 21
2088.800174
 31
0.0
  0
ARC
  5
252
330
1F
100
AcDbEntity
  8
LAY-2
  6
CONTINUOUS
 62
     6
100
AcDbCircle
 10
656.128223
 20
2084.550172
 30
0.0
 40
3.000000000000003
100
AcDbArc
 50
90.00000000000001
 51
127.2802619999985
  0
LINE
  5
253
330
1F
100
AcDbEntity
  8
LAY-2
  6
CONTINUOUS
 62
     6
100
AcDbLine
 10
653.4561209999998
 20
2086.541608
 30
0.0
 11
653.4561209999998
 21
2091.072835
 31
0.0
  0
LINE
  5
254
330
1F
100
AcDbEntity
  8
LAY-2
  6
CONTINUOUS
 62
     6
100
AcDbLine
 10
658.2429209999998
 20
2089.800171
 30
0.0
 11
658.2429209999998
 21
2090.950795
 31
0.0
  0
ARC
  5
255
330
1F
100
AcDbEntity
  8
LAY-2
  6
CONTINUOUS
 62
     6
100
AcDbCircle
 10
655.1278109999998
 20
2084.050567
 30
0.0
 40
2.999998000000001
100
AcDbArc
 50
90.00000000000001
 51
180.0
  0
LINE
  5
256
330
1F
100
AcDbEntity
  8
LAY-2
  6
CONTINUOUS
 62
     6
100
AcDbLine
 10
680.6282249999998
 20
2087.550159
 30
0.0
 11
680.628226
 21
2088.800159
 31
0.0
  0
ARC
  5
257
330
1F
100
AcDbEntity
  8
LAY-2
  6
CONTINUOUS
 62
     6
100
AcDbCircle
 10
679.6282259999998
 20
2088.80016
 30
0.0
 40
1.0
100
AcDbArc
 50
0.0
 51
90.00000000000001
  0
ARC
  5
258
330
1F
100
AcDbEntity
  8
LAY-2
  6
CONTINUOUS
 62
     6
100
AcDbCircle
 10
694.4956580000002
 20
2089.550152
 30
0.0
 40
2.0
100
AcDbArc
 50
270.0000000000002
 51
0.0
  0
ARC
  5
259
330
1F
100
AcDbEntity
  8
LAY-2
  6
CONTINUOUS
 62
     6
100
AcDbCircle
 10
702.1278110000001
 20
2092.050567
 30
0.0
 40
4.999998000000002
100
AcDbArc
 50
270.0000310000006
 51
0.0
  0
LINE
  5
25A
330
1F
100
AcDbEntity
  8
LAY-2
  6
CONTINUOUS
 62
     6
100
AcDbLine
 10
652.1278110000001
 20
2084.050567
 30
0.0
 11
652.1278110000001
 21
2038.550536
 31
0.0
  0
LINE
  5
25B
330
1F
100
AcDbEntity
  8
LAY-2
  6
CONTINUOUS
 62
     6
100
AcDbLine
 10
636.954867
 20
2042.810302
 30
0.0
 11
636.954867
 21
2086.377074
 31
0.0
  0
ARC
  5
25C
330
1F
100
AcDbEntity
  8
LAY-2
  6
CONTINUOUS
 62
     6
100
AcDbCircle
 10
620.9802580000002
 20
2067.589599
 30
0.0
 40
26.0
100
AcDbArc
 50
180.0
 51
269.7632750000001
  0
ARC
  5
25D
330
1F
100
AcDbEntity
  8
LAY-2
  6
CONTINUOUS
 62
     6
100
AcDbCircle
 10
641.531344
 20
7041.546995999999
 30
0.0
 40
5000.000000000005
100
AcDbArc
 50
269.7632700000001
 51
269.9335330000001
  0
LINE
  5
25E
330
1F
100
AcDbEntity
  8
LAY-2
  6
CONTINUOUS
 62
     6
100
AcDbLine
 10
594.9802579999999
 20
2092.293351
 30
0.0
 11
594.9802579999999
 21
2068.089599
 31
0.0
  0
ARC
  5
25F
330
1F
100
AcDbEntity
  8
LAY-2
  6
CONTINUOUS
 62
     6
100
AcDbCircle
 10
609.9802579999999
 20
2092.293351
 30
0.0
 40
15.0
100
AcDbArc
 50
160.6862890000004
 51
180.0
  0
LINE
  5
260
330
1F
100
AcDbEntity
  8
LAY-2
  6
CONTINUOUS
 62
     6
100
AcDbLine
 10
471.3333740000002
 20
1889.71079887
 30
0.0
 11
471.3333740000002
 21
1909.39026513
 31
0.0
  0
LINE
  5
261
330
1F
100
AcDbEntity
  8
LAY-2
  6
CONTINUOUS
 62
     6
100
AcDbLine
 10
472.2844850000001
 20
1891.050528
 30
0.0
 11
472.2844850000001
 21
1908.050536
 31
0.0
  0
LINE
  5
262
330
1F
100
AcDbEntity
  8
LAY-2
  6
CONTINUOUS
 62
     6
100
AcDbLine
 10
469.4251138408998
 20
1911.388159973
 30
0.0
 11
455.0
 21
1912.050536
 31
0.0
  0
LINE
  5
263
330
1F
100
AcDbEntity
  8
LAY-2
  6
CONTINUOUS
 62
     6
100
AcDbLine
 10
455.0
 20
1887.050528
 30
0.0
 11
469.4251138408998
 21
1887.712904027
 31
0.0
  0
ARC
  5
264
330
1F
100
AcDbEntity
  8
LAY-2
  6
CONTINUOUS
 62
     6
100
AcDbCircle
 10
469.333374
 20
1889.71079887
 30
0.0
 40
2.0
100
AcDbArc
 50
272.629075349001
 51
0.0
  0
ARC
  5
265
330
1F
100
AcDbEntity
  8
LAY-2
  6
CONTINUOUS
 62
     6
100
AcDbCircle
 10
469.333374
 20
1909.39026513
 30
0.0
 40
2.0
100
AcDbArc
 50
0.0
 51
87.37092465104001
  0
LINE
  5
266
330
1F
100
AcDbEntity
  8
LAY-2
  6
CONTINUOUS
 62
     6
100
AcDbLine
 10
455.0
 20
1887.050528
 30
0.0
 11
455.0
 21
1912.050536
 31
0.0
  0
ARC
  5
267
330
1F
100
AcDbEntity
  8
LAY-2
  6
CONTINUOUS
 62
     6
100
AcDbCircle
 10
471.2844849999999
 20
1891.050528
 30
0.0
 40
1.0
100
AcDbArc
 50
270.0000000000002
 51
0.0
  0
ARC
  5
268
330
1F
100
AcDbEntity
  8
LAY-2
  6
CONTINUOUS
 62
     6
100
AcDbCircle
 10
471.2844849999999
 20
1908.050536
 30
0.0
 40
1.0
100
AcDbArc
 50
0.0
 51
90.00000000000001
  0
ARC
  5
269
330
1F
100
AcDbEntity
  8
LAY-2
  6
CONTINUOUS
 62
     6
100
AcDbCircle
 10
464.0000000000001
 20
1911.800536
 30
0.0
 40
0.9999999999999
100
AcDbArc
 50
0.0
 51
180.0
  0
ARC
  5
26A
330
1F
100
AcDbEntity
  8
LAY-2
  6
CONTINUOUS
 62
     6
100
AcDbCircle
 10
464.0000000000001
 20
1887.300528
 30
0.0
 40
0.9999999999999
100
AcDbArc
 50
180.0
 51
0.0
  0
LINE
  5
26B
330
1F
100
AcDbEntity
  8
LAY-2
  6
CONTINUOUS
 62
     6
100
AcDbLine
 10
465.0
 20
1912.050536
 30
0.0
 11
465.0
 21
1911.59135347
 31
0.0
  0
LINE
  5
26C
330
1F
100
AcDbEntity
  8
LAY-2
  6
CONTINUOUS
 62
     6
100
AcDbLine
 10
465.0
 20
1887.50971053
 30
0.0
 11
465.0
 21
1887.050528
 31
0.0
  0
ARC
  5
26D
330
1F
100
AcDbEntity
  8
LAY-2
  6
CONTINUOUS
 62
     6
100
AcDbCircle
 10
464.0000000000001
 20
1905.550536
 30
0.0
 40
0.9999999999999
100
AcDbArc
 50
0.0
 51
180.0
  0
ARC
  5
26E
330
1F
100
AcDbEntity
  8
LAY-2
  6
CONTINUOUS
 62
     6
100
AcDbCircle
 10
464.0000000000001
 20
1893.550528
 30
0.0
 40
0.9999999999999
100
AcDbArc
 50
180.0
 51
0.0
  0
LINE
  5
26F
330
1F
100
AcDbEntity
  8
LAY-2
  6
CONTINUOUS
 62
     6
100
AcDbLine
 10
465.0
 20
1905.550536
 30
0.0
 11
465.0
 21
1893.550528
 31
0.0
  0
LINE
  5
270
330
1F
100
AcDbEntity
  8
LAY-2
  6
CONTINUOUS
 62
     6
100
AcDbLine
 10
463.0000000000001
 20
1893.550528
 30
0.0
 11
463.0000000000001
 21
1905.550536
 31
0.0
  0
CIRCLE
  5
271
330
1F
100
AcDbEntity
  8
LAY-2
  6
EXLTYPE2
 62
     6
100
AcDbCircle
 10
644.9012479999999
 20
2299.550536
 30
0.0
 40
6.000000000000005
  0
CIRCLE
  5
272
330
1F
100
AcDbEntity
  8
LAY-2
  6
EXLTYPE2
 62
     6
100
AcDbCircle
 10
644.9012479999999
 20
2159.550536
 30
0.0
 40
6.000000000000005
  0
LINE
  5
273
330
1F
100
AcDbEntity
  8
LAY-2
  6
CONTINUOUS
 62
     6
100
AcDbLine
 10
471.8234552333001
 20
1908.892860811
 30
0.0
 11
622.5140248635
 21
2017.590455146
 31
0.0
  0
LINE
  5
274
330
1F
100
AcDbEntity
  8
LAY-2
  6
CONTINUOUS
 62
     6
100
AcDbLine
 10
630.8464576827998
 20
2016.202819765
 30
0.0
 11
472.2844850000001
 21
1901.827348055
 31
0.0
  0
LINE
  5
275
330
1F
100
AcDbEntity
  8
LAY-2
  6
CONTINUOUS
 62
     6
100
AcDbLine
 10
619.9012479999999
 20
2299.550536
 30
0.0
 11
669.9012479999999
 21
2299.550536
 31
0.0
  0
LINE
  5
276
330
1F
100
AcDbEntity
  8
LAY-2
  6
CONTINUOUS
 62
     6
100
AcDbLine
 10
619.9012479999999
 20
2159.550536
 30
0.0
 11
669.9012479999999
 21
2159.550536
 31
0.0
  0
LINE
  5
277
330
1F
100
AcDbEntity
  8
LAY-2
  6
CONTINUOUS
 62
     6
100
AcDbLine
 10
644.9012479999999
 20
2134.550536
 30
0.0
 11
644.9012479999999
 21
2184.550536
 31
0.0
  0
ARC
  5
278
330
1F
100
AcDbEntity
  8
LAY-2
  6
CONTINUOUS
 62
     6
100
AcDbCircle
 10
1608.658241
 20
7487.412458999999
 30
0.0
 40
6018.150391000002
100
AcDbArc
 50
268.1907960000001
 51
271.8092050000004
  0
ARC
  5
279
330
1F
100
AcDbEntity
  8
LAY-2
  6
CONTINUOUS
 62
     6
100
AcDbCircle
 10
1608.657036
 20
6019.054516000001
 30
0.0
 40
4514.486328000002
100
AcDbArc
 50
267.7312390000001
 51
272.2688050000002
  0
ARC
  5
27A
330
1F
100
AcDbEntity
  8
LAY-2
  6
CONTINUOUS
 62
     6
100
AcDbCircle
 10
1608.656449
 20
3297.157548
 30
0.0
 40
1799.236328
100
AcDbArc
 50
264.234742
 51
275.7652590000002
  0
ARC
  5
27B
330
1F
100
AcDbEntity
  8
LAY-2
  6
CONTINUOUS
 62
     6
100
AcDbCircle
 10
1608.657488
 20
2056.498969
 30
0.0
 40
531.3458860000001
100
AcDbArc
 50
250.3176530023002
 51
289.6826429241003
  0
ARC
  5
27C
330
1F
100
AcDbEntity
  8
LAY-2
  6
CONTINUOUS
 62
     6
100
AcDbCircle
 10
1685.444306
 20
1088.939428
 30
0.0
 40
500.0000000000003
100
AcDbArc
 50
78.20845399999999
 51
82.18512199999994
  0
ARC
  5
27D
330
1F
100
AcDbEntity
  8
LAY-2
  6
CONTINUOUS
 62
     6
100
AcDbCircle
 10
1697.24313
 20
1088.592348
 30
0.0
 40
500.0000000000003
100
AcDbArc
 50
79.64193208847995
 51
86.614349
  0
ARC
  5
27E
330
1F
100
AcDbEntity
  8
LAY-2
  6
CONTINUOUS
 62
     6
100
AcDbCircle
 10
1784.963548
 20
1565.662535
 30
0.0
 40
13.0
100
AcDbArc
 50
15.04368000000048
 51
78.20845400000027
  0
ARC
  5
27F
330
1F
100
AcDbEntity
  8
LAY-2
  6
CONTINUOUS
 62
     6
100
AcDbCircle
 10
1784.445767
 20
1565.688417
 30
0.0
 40
15.0
100
AcDbArc
 50
15.0766599999997
 51
79.64190254622953
  0
ARC
  5
280
330
1F
100
AcDbEntity
  8
LAY-2
  6
CONTINUOUS
 62
     6
100
AcDbCircle
 10
1786.742108
 20
1524.094566
 30
0.0
 40
16.0
100
AcDbArc
 50
272.2688050000005
 51
358.0955270000002
  0
LINE
  5
281
330
1F
100
AcDbEntity
  8
LAY-2
  6
CONTINUOUS
 62
     6
100
AcDbLine
 10
1806.640709
 20
1460.22778
 30
0.0
 11
1804.001197729
 21
1535.808571017
 31
0.0
  0
ARC
  5
282
330
1F
100
AcDbEntity
  8
LAY-2
  6
CONTINUOUS
 62
     6
100
AcDbCircle
 10
1790.199933
 20
1499.062675
 30
0.0
 40
8.000002
100
AcDbArc
 50
43.3706670000002
 51
95.7654419999998
  0
LINE
  5
283
330
1F
100
AcDbEntity
  8
LAY-2
  6
CONTINUOUS
 62
     6
100
AcDbLine
 10
1797.968603
 20
1511.665734
 30
0.0
 11
1798.65646
 21
1472.26156
 31
0.0
  0
LINE
  5
284
330
1F
100
AcDbEntity
  8
LAY-2
  6
CONTINUOUS
 62
     6
100
AcDbLine
 10
1806.074795
 20
1459.710329
 30
0.0
 11
1805.614712
 21
1472.884767
 31
0.0
  0
LINE
  5
285
330
1F
100
AcDbEntity
  8
LAY-2
  6
CONTINUOUS
 62
     6
100
AcDbLine
 10
1800.617764
 20
1477.710268
 30
0.0
 11
1798.513103
 21
1477.710268
 31
0.0
  0
ARC
  5
286
330
1F
100
AcDbEntity
  8
LAY-2
  6
CONTINUOUS
 62
     6
100
AcDbCircle
 10
1800.617764
 20
1472.710268
 30
0.0
 40
5.0
100
AcDbArc
 50
2.000030999999443
 51
90.00000000000001
  0
ARC
  5
287
330
1F
100
AcDbEntity
  8
LAY-2
  6
CONTINUOUS
 62
     6
100
AcDbCircle
 10
1806.141014
 20
1460.210329
 30
0.0
 40
0.5
100
AcDbArc
 50
270.0000000000002
 51
2.00012999998727
  0
ARC
  5
288
330
1F
100
AcDbEntity
  8
LAY-2
  6
CONTINUOUS
 62
     6
100
AcDbCircle
 10
1652.65878
 20
1530.10345
 30
0.0
 40
150.0000000000001
100
AcDbArc
 50
2.074555999999972
 51
15.04367999999997
  0
ARC
  5
289
330
1F
100
AcDbEntity
  8
LAY-2
  6
CONTINUOUS
 62
     6
100
AcDbCircle
 10
1654.092557
 20
1530.573305
 30
0.0
 40
150.0000000000001
100
AcDbArc
 50
2.000152999999992
 51
15.07672099999988
  0
ARC
  5
28A
330
1F
100
AcDbEntity
  8
LAY-2
  6
CONTINUOUS
 62
     6
100
AcDbCircle
 10
1652.816126
 20
1528.547816
 30
0.0
 40
150.0000000000001
100
AcDbArc
 50
358.0955270000002
 51
2.678139999999889
  0
LINE
  5
28B
330
1F
100
AcDbEntity
  8
LAY-2
  6
CONTINUOUS
 62
     6
100
AcDbLine
 10
1404.65878
 20
1459.710329
 30
0.0
 11
1806.658779964
 21
1459.710329
 31
0.0
  0
LINE
  5
28C
330
1F
100
AcDbEntity
  8
LAY-2
  6
CONTINUOUS
 62
     6
100
AcDbLine
 10
1267.999992
 20
1467.960329
 30
0.0
 11
1288.0
 21
1467.960329
 31
0.0
  0
LINE
  5
28D
330
1F
100
AcDbEntity
  8
LAY-2
  6
CONTINUOUS
 62
     6
100
AcDbLine
 10
1285.0
 20
1437.960329
 30
0.0
 11
1290.35434
 21
1454.510134
 31
0.0
  0
LINE
  5
28E
330
1F
100
AcDbEntity
  8
LAY-2
  6
CONTINUOUS
 62
     6
100
AcDbLine
 10
1282.5
 20
1437.960329
 30
0.0
 11
1287.378098
 21
1454.545901
 31
0.0
  0
ARC
  5
28F
330
1F
100
AcDbEntity
  8
LAY-2
  6
CONTINUOUS
 62
     6
100
AcDbCircle
 10
1285.5
 20
1462.460329
 30
0.0
 40
2.0
100
AcDbArc
 50
0.0
 51
90.00000000000001
  0
LINE
  5
290
330
1F
100
AcDbEntity
  8
LAY-2
  6
CONTINUOUS
 62
     6
100
AcDbLine
 10
1271.000008
 20
1437.960329
 30
0.0
 11
1265.645653
 21
1454.510134
 31
0.0
  0
LINE
  5
291
330
1F
100
AcDbEntity
  8
LAY-2
  6
CONTINUOUS
 62
     6
100
AcDbLine
 10
1273.500008
 20
1437.960329
 30
0.0
 11
1268.621895
 21
1454.545901
 31
0.0
  0
ARC
  5
292
330
1F
100
AcDbEntity
  8
LAY-2
  6
CONTINUOUS
 62
     6
100
AcDbCircle
 10
1267.999992
 20
1465.460329
 30
0.0
 40
2.5
100
AcDbArc
 50
90.00000000000001
 51
180.0
  0
LINE
  5
293
330
1F
100
AcDbEntity
  8
LAY-2
  6
CONTINUOUS
 62
     6
100
AcDbLine
 10
1285.0
 20
1467.960329
 30
0.0
 11
1285.0
 21
1468.460329
 31
0.0
  0
LINE
  5
294
330
1F
100
AcDbEntity
  8
LAY-2
  6
CONTINUOUS
 62
     6
100
AcDbLine
 10
1270.999992
 20
1467.960329
 30
0.0
 11
1270.999992
 21
1468.460329
 31
0.0
  0
LINE
  5
295
330
1F
100
AcDbEntity
  8
LAY-2
  6
CONTINUOUS
 62
     6
100
AcDbLine
 10
1271.499992
 20
1468.960329
 30
0.0
 11
1284.5
 21
1468.960329
 31
0.0
  0
ARC
  5
296
330
1F
100
AcDbEntity
  8
LAY-2
  6
CONTINUOUS
 62
     6
100
AcDbCircle
 10
1271.499992
 20
1468.460329
 30
0.0
 40
0.5
100
AcDbArc
 50
90.00000000000001
 51
180.0
  0
ARC
  5
297
330
1F
100
AcDbEntity
  8
LAY-2
  6
CONTINUOUS
 62
     6
100
AcDbCircle
 10
1284.5
 20
1468.460329
 30
0.0
 40
0.5
100
AcDbArc
 50
0.0
 51
90.00000000000001
  0
LINE
  5
298
330
1F
100
AcDbEntity
  8
LAY-2
  6
CONTINUOUS
 62
     6
100
AcDbLine
 10
1265.499992
 20
1465.460329
 30
0.0
 11
1265.499992
 21
1455.433596
 31
0.0
  0
LINE
  5
299
330
1F
100
AcDbEntity
  8
LAY-2
  6
CONTINUOUS
 62
     6
100
AcDbLine
 10
1264.749992
 20
1462.960329
 30
0.0
 11
1265.499992
 21
1462.960329
 31
0.0
  0
LINE
  5
29A
330
1F
100
AcDbEntity
  8
LAY-2
  6
CONTINUOUS
 62
     6
100
AcDbLine
 10
1264.749992
 20
1462.960329
 30
0.0
 11
1264.749992
 21
1455.63074
 31
0.0
  0
LINE
  5
29B
330
1F
100
AcDbEntity
  8
LAY-2
  6
CONTINUOUS
 62
     6
100
AcDbLine
 10
1266.652885
 20
1448.960329
 30
0.0
 11
1267.44117
 21
1448.960329
 31
0.0
  0
LINE
  5
29C
330
1F
100
AcDbEntity
  8
LAY-2
  6
CONTINUOUS
 62
     6
100
AcDbLine
 10
1266.652885
 20
1448.960329
 30
0.0
 11
1264.99276
 21
1454.091616
 31
0.0
  0
LINE
  5
29D
330
1F
100
AcDbEntity
  8
LAY-2
  6
CONTINUOUS
 62
     6
100
AcDbLine
 10
1268.499992
 20
1462.460329
 30
0.0
 11
1268.499992
 21
1455.392397
 31
0.0
  0
LINE
  5
29E
330
1F
100
AcDbEntity
  8
LAY-2
  6
CONTINUOUS
 62
     6
100
AcDbLine
 10
1270.499992
 20
1464.460329
 30
0.0
 11
1285.5
 21
1464.460329
 31
0.0
  0
ARC
  5
29F
330
1F
100
AcDbEntity
  8
LAY-2
  6
CONTINUOUS
 62
     6
100
AcDbCircle
 10
1268.499992
 20
1455.433596
 30
0.0
 40
3.000000000000003
100
AcDbArc
 50
180.0
 51
197.9277339999975
  0
ARC
  5
2A0
330
1F
100
AcDbEntity
  8
LAY-2
  6
CONTINUOUS
 62
     6
100
AcDbCircle
 10
1268.499992
 20
1455.433596
 30
0.0
 40
3.000000000000003
100
AcDbArc
 50
180.0
 51
197.9277339999975
  0
ARC
  5
2A1
330
1F
100
AcDbEntity
  8
LAY-2
  6
CONTINUOUS
 62
     6
100
AcDbCircle
 10
1268.499992
 20
1455.433596
 30
0.0
 40
3.000000000000003
100
AcDbArc
 50
180.0
 51
197.9279789999981
  0
ARC
  5
2A2
330
1F
100
AcDbEntity
  8
LAY-2
  6
CONTINUOUS
 62
     6
100
AcDbCircle
 10
1269.749992
 20
1455.63074
 30
0.0
 40
5.0
100
AcDbArc
 50
180.0
 51
197.9279790000012
  0
ARC
  5
2A3
330
1F
100
AcDbEntity
  8
LAY-2
  6
CONTINUOUS
 62
     6
100
AcDbCircle
 10
1270.499992
 20
1462.460329
 30
0.0
 40
2.0
100
AcDbArc
 50
90.00000000000001
 51
180.0
  0
ARC
  5
2A4
330
1F
100
AcDbEntity
  8
LAY-2
  6
CONTINUOUS
 62
     6
100
AcDbCircle
 10
1271.499992
 20
1455.392397
 30
0.0
 40
3.000000000000003
100
AcDbArc
 50
180.0
 51
196.389525999999
  0
LINE
  5
2A5
330
1F
100
AcDbEntity
  8
LAY-2
  6
CONTINUOUS
 62
     6
100
AcDbLine
 10
1271.000008
 20
1437.960329
 30
0.0
 11
1271.750008
 21
1435.960329
 31
0.0
  0
LINE
  5
2A6
330
1F
100
AcDbEntity
  8
LAY-2
  6
CONTINUOUS
 62
     6
100
AcDbLine
 10
1285.0
 20
1437.960329
 30
0.0
 11
1284.25
 21
1435.960329
 31
0.0
  0
LINE
  5
2A7
330
1F
100
AcDbEntity
  8
LAY-2
  6
CONTINUOUS
 62
     6
100
AcDbLine
 10
1272.250008
 20
1435.960329
 30
0.0
 11
1272.361107
 21
1434.460329
 31
0.0
  0
LINE
  5
2A8
330
1F
100
AcDbEntity
  8
LAY-2
  6
CONTINUOUS
 62
     6
100
AcDbLine
 10
1283.75
 20
1435.960329
 30
0.0
 11
1283.638885
 21
1434.460329
 31
0.0
  0
LINE
  5
2A9
330
1F
100
AcDbEntity
  8
LAY-2
  6
CONTINUOUS
 62
     6
100
AcDbLine
 10
1272.916664
 20
1426.960329
 30
0.0
 11
1273.027779
 21
1425.460329
 31
0.0
  0
LINE
  5
2AA
330
1F
100
AcDbEntity
  8
LAY-2
  6
CONTINUOUS
 62
     6
100
AcDbLine
 10
1272.69445
 20
1429.960329
 30
0.0
 11
1272.80555
 21
1428.460329
 31
0.0
  0
LINE
  5
2AB
330
1F
100
AcDbEntity
  8
LAY-2
  6
CONTINUOUS
 62
     6
100
AcDbLine
 10
1272.472237
 20
1432.960329
 30
0.0
 11
1272.583336
 21
1431.460329
 31
0.0
  0
LINE
  5
2AC
330
1F
100
AcDbEntity
  8
LAY-2
  6
CONTINUOUS
 62
     6
100
AcDbLine
 10
1283.194443
 20
1428.460329
 30
0.0
 11
1283.305557
 21
1429.960329
 31
0.0
  0
LINE
  5
2AD
330
1F
100
AcDbEntity
  8
LAY-2
  6
CONTINUOUS
 62
     6
100
AcDbLine
 10
1283.305557
 20
1429.960329
 30
0.0
 11
1283.194443
 21
1428.460329
 31
0.0
  0
LINE
  5
2AE
330
1F
100
AcDbEntity
  8
LAY-2
  6
CONTINUOUS
 62
     6
100
AcDbLine
 10
1283.527771
 20
1432.960329
 30
0.0
 11
1283.416656
 21
1431.460329
 31
0.0
  0
LINE
  5
2AF
330
1F
100
AcDbEntity
  8
LAY-2
  6
CONTINUOUS
 62
     6
100
AcDbLine
 10
1283.305542
 20
1429.960329
 30
0.0
 11
1283.194443
 21
1428.460329
 31
0.0
  0
LINE
  5
2B0
330
1F
100
AcDbEntity
  8
LAY-2
  6
CONTINUOUS
 62
     6
100
AcDbLine
 10
1283.083328
 20
1426.960329
 30
0.0
 11
1282.972229
 21
1425.460329
 31
0.0
  0
LINE
  5
2B1
330
1F
100
AcDbEntity
  8
LAY-2
  6
CONTINUOUS
 62
     6
100
AcDbLine
 10
1282.5
 20
1437.960329
 30
0.0
 11
1282.5
 21
1439.460329
 31
0.0
  0
LINE
  5
2B2
330
1F
100
AcDbEntity
  8
LAY-2
  6
CONTINUOUS
 62
     6
100
AcDbLine
 10
1273.500008
 20
1437.960329
 30
0.0
 11
1273.500008
 21
1439.460329
 31
0.0
  0
LINE
  5
2B3
330
1F
100
AcDbEntity
  8
LAY-2
  6
CONTINUOUS
 62
     6
100
AcDbLine
 10
1273.500008
 20
1439.460329
 30
0.0
 11
1282.5
 21
1439.460329
 31
0.0
  0
LINE
  5
2B4
330
1F
100
AcDbEntity
  8
LAY-2
  6
CONTINUOUS
 62
     6
100
AcDbLine
 10
1271.000008
 20
1437.960329
 30
0.0
 11
1284.999985
 21
1437.960329
 31
0.0
  0
LINE
  5
2B5
330
1F
100
AcDbEntity
  8
LAY-2
  6
CONTINUOUS
 62
     6
100
AcDbLine
 10
1271.750008
 20
1435.960329
 30
0.0
 11
1284.249985
 21
1435.960329
 31
0.0
  0
LINE
  5
2B6
330
1F
100
AcDbEntity
  8
LAY-2
  6
CONTINUOUS
 62
     6
100
AcDbLine
 10
1272.804695
 20
1422.460329
 30
0.0
 11
1273.000008
 21
1419.960329
 31
0.0
  0
LINE
  5
2B7
330
1F
100
AcDbEntity
  8
LAY-2
  6
CONTINUOUS
 62
     6
100
AcDbLine
 10
1283.195313
 20
1422.460329
 30
0.0
 11
1283.0
 21
1419.960329
 31
0.0
  0
LINE
  5
2B8
330
1F
100
AcDbEntity
  8
LAY-2
  6
CONTINUOUS
 62
     6
100
AcDbLine
 10
1273.138893
 20
1423.960329
 30
0.0
 11
1273.250008
 21
1422.460329
 31
0.0
  0
LINE
  5
2B9
330
1F
100
AcDbEntity
  8
LAY-2
  6
CONTINUOUS
 62
     6
100
AcDbLine
 10
1282.861099
 20
1423.960329
 30
0.0
 11
1282.75
 21
1422.460329
 31
0.0
  0
LINE
  5
2BA
330
1F
100
AcDbEntity
  8
LAY-2
  6
CONTINUOUS
 62
     6
100
AcDbLine
 10
1281.0
 20
1173.35308
 30
0.0
 11
1281.0
 21
1419.960329
 31
0.0
  0
LINE
  5
2BB
330
1F
100
AcDbEntity
  8
LAY-2
  6
CONTINUOUS
 62
     6
100
AcDbLine
 10
1275.0
 20
1172.50308
 30
0.0
 11
1275.0
 21
1419.960329
 31
0.0
  0
LINE
  5
2BC
330
1F
100
AcDbEntity
  8
LAY-2
  6
CONTINUOUS
 62
     6
100
AcDbLine
 10
1272.804695
 20
1422.460329
 30
0.0
 11
1283.195313
 21
1422.460329
 31
0.0
  0
LINE
  5
2BD
330
1F
100
AcDbEntity
  8
LAY-2
  6
CONTINUOUS
 62
     6
100
AcDbLine
 10
1273.000008
 20
1419.960329
 30
0.0
 11
1283.0
 21
1419.960329
 31
0.0
  0
ARC
  5
2BE
330
1F
100
AcDbEntity
  8
LAY-2
  6
CONTINUOUS
 62
     6
100
AcDbCircle
 10
1288.0
 20
1465.460329
 30
0.0
 40
2.5
100
AcDbArc
 50
0.0
 51
90.00000000000001
  0
LINE
  5
2BF
330
1F
100
AcDbEntity
  8
LAY-2
  6
CONTINUOUS
 62
     6
100
AcDbLine
 10
1290.5
 20
1465.460329
 30
0.0
 11
1290.5
 21
1455.433596
 31
0.0
  0
LINE
  5
2C0
330
1F
100
AcDbEntity
  8
LAY-2
  6
CONTINUOUS
 62
     6
100
AcDbLine
 10
1291.25
 20
1462.960329
 30
0.0
 11
1291.25
 21
1455.63074
 31
0.0
  0
LINE
  5
2C1
330
1F
100
AcDbEntity
  8
LAY-2
  6
CONTINUOUS
 62
     6
100
AcDbLine
 10
1289.347107
 20
1448.960329
 30
0.0
 11
1291.007217
 21
1454.091677
 31
0.0
  0
LINE
  5
2C2
330
1F
100
AcDbEntity
  8
LAY-2
  6
CONTINUOUS
 62
     6
100
AcDbLine
 10
1288.558823
 20
1448.960329
 30
0.0
 11
1289.347107
 21
1448.960329
 31
0.0
  0
LINE
  5
2C3
330
1F
100
AcDbEntity
  8
LAY-2
  6
CONTINUOUS
 62
     6
100
AcDbLine
 10
1290.5
 20
1462.960329
 30
0.0
 11
1291.25
 21
1462.960329
 31
0.0
  0
LINE
  5
2C4
330
1F
100
AcDbEntity
  8
LAY-2
  6
CONTINUOUS
 62
     6
100
AcDbLine
 10
1287.5
 20
1462.460329
 30
0.0
 11
1287.5
 21
1455.392397
 31
0.0
  0
ARC
  5
2C5
330
1F
100
AcDbEntity
  8
LAY-2
  6
CONTINUOUS
 62
     6
100
AcDbCircle
 10
1287.5
 20
1455.433596
 30
0.0
 40
3.000000000000003
100
AcDbArc
 50
342.0720210000027
 51
0.0
  0
ARC
  5
2C6
330
1F
100
AcDbEntity
  8
LAY-2
  6
CONTINUOUS
 62
     6
100
AcDbCircle
 10
1287.5
 20
1455.433596
 30
0.0
 40
3.000000000000003
100
AcDbArc
 50
342.0720210000027
 51
0.0
  0
ARC
  5
2C7
330
1F
100
AcDbEntity
  8
LAY-2
  6
CONTINUOUS
 62
     6
100
AcDbCircle
 10
1286.25
 20
1455.63074
 30
0.0
 40
5.0
100
AcDbArc
 50
342.0720209999995
 51
0.0
  0
ARC
  5
2C8
330
1F
100
AcDbEntity
  8
LAY-2
  6
CONTINUOUS
 62
     6
100
AcDbCircle
 10
1284.5
 20
1455.392397
 30
0.0
 40
3.000000000000003
100
AcDbArc
 50
343.6105350000016
 51
0.0
  0
ARC
  5
2C9
330
1F
100
AcDbEntity
  8
LAY-2
  6
CONTINUOUS
 62
     6
100
AcDbCircle
 10
1608.65878
 20
-408.78961
 30
0.0
 40
2000.000000000001
100
AcDbArc
 50
86.614349
 51
93.41274999999999
  0
ARC
  5
2CA
330
1F
100
AcDbEntity
  8
LAY-2
  6
CONTINUOUS
 62
     6
100
AcDbCircle
 10
1410.585502
 20
1452.696997
 30
0.0
 40
10.0
100
AcDbArc
 50
135.0000000000001
 51
180.0
  0
ARC
  5
2CB
330
1F
100
AcDbEntity
  8
LAY-2
  6
CONTINUOUS
 62
     6
100
AcDbCircle
 10
1410.585502
 20
1452.696997
 30
0.0
 40
14.3
100
AcDbArc
 50
135.0000000000001
 51
180.0
  0
LINE
  5
2CC
330
1F
100
AcDbEntity
  8
LAY-2
  6
CONTINUOUS
 62
     6
100
AcDbLine
 10
1400.585502
 20
1172.50308
 30
0.0
 11
1400.585502
 21
1452.696997
 31
0.0
  0
LINE
  5
2CD
330
1F
100
AcDbEntity
  8
LAY-2
  6
CONTINUOUS
 62
     6
100
AcDbLine
 10
1396.285502
 20
1173.35308
 30
0.0
 11
1396.285502
 21
1452.696997
 31
0.0
  0
ARC
  5
2CE
330
1F
100
AcDbEntity
  8
LAY-2
  6
CONTINUOUS
 62
     6
100
AcDbCircle
 10
1432.354012
 20
1565.662535
 30
0.0
 40
13.0
100
AcDbArc
 50
101.7915459999997
 51
164.9563199999995
  0
ARC
  5
2CF
330
1F
100
AcDbEntity
  8
LAY-2
  6
CONTINUOUS
 62
     6
100
AcDbCircle
 10
1430.575451
 20
1524.094428
 30
0.0
 40
16.0
100
AcDbArc
 50
181.9045119999998
 51
267.7312390000003
  0
ARC
  5
2D0
330
1F
100
AcDbEntity
  8
LAY-2
  6
CONTINUOUS
 62
     6
100
AcDbCircle
 10
1432.493985
 20
1565.706728
 30
0.0
 40
15.0
100
AcDbArc
 50
100.3182979999997
 51
165.6530760000005
  0
ARC
  5
2D1
330
1F
100
AcDbEntity
  8
LAY-2
  6
CONTINUOUS
 62
     6
100
AcDbCircle
 10
1427.112882
 20
1499.062724
 30
0.0
 40
8.000001000000005
100
AcDbArc
 50
84.2347719999992
 51
132.0057989999996
  0
LINE
  5
2D2
330
1F
100
AcDbEntity
  8
LAY-2
  6
CONTINUOUS
 62
     6
100
AcDbLine
 10
1409.269811
 20
1529.717256
 30
0.0
 11
1408.65878
 21
1459.710329
 31
0.0
  0
LINE
  5
2D3
330
1F
100
AcDbEntity
  8
LAY-2
  6
CONTINUOUS
 62
     6
100
AcDbLine
 10
1413.37521
 20
1537.490297
 30
0.0
 11
1410.676852
 21
1460.227781
 31
0.0
  0
LINE
  5
2D4
330
1F
100
AcDbEntity
  8
LAY-2
  6
CONTINUOUS
 62
     6
100
AcDbLine
 10
1409.007928
 20
1529.712892
 30
0.0
 11
1409.007928
 21
1499.712892
 31
0.0
  0
ARC
  5
2D5
330
1F
100
AcDbEntity
  8
LAY-2
  6
CONTINUOUS
 62
     6
100
AcDbCircle
 10
1465.427545
 20
1514.712892
 30
0.0
 40
70.00000000000004
100
AcDbArc
 50
169.0560929999998
 51
190.8659790000001
  0
LINE
  5
2D6
330
1F
100
AcDbEntity
  8
LAY-2
  6
CONTINUOUS
 62
     6
100
AcDbLine
 10
1419.344213
 20
1511.665774
 30
0.0
 11
1418.656399
 21
1472.261599
 31
0.0
  0
ARC
  5
2D7
330
1F
100
AcDbEntity
  8
LAY-2
  6
CONTINUOUS
 62
     6
100
AcDbCircle
 10
1406.65878
 20
1474.710329
 30
0.0
 40
2.0
100
AcDbArc
 50
90.00000000000001
 51
180.0
  0
LINE
  5
2D8
330
1F
100
AcDbEntity
  8
LAY-2
  6
CONTINUOUS
 62
     6
100
AcDbLine
 10
1408.65878
 20
1459.710329
 30
0.0
 11
1404.65878
 21
1459.710329
 31
0.0
  0
LINE
  5
2D9
330
1F
100
AcDbEntity
  8
LAY-2
  6
CONTINUOUS
 62
     6
100
AcDbLine
 10
1404.65878
 20
1459.710329
 30
0.0
 11
1404.65878
 21
1474.710329
 31
0.0
  0
LINE
  5
2DA
330
1F
100
AcDbEntity
  8
LAY-2
  6
CONTINUOUS
 62
     6
100
AcDbLine
 10
1404.65878
 20
1459.710329
 30
0.0
 11
1398.153398
 21
1466.215711
 31
0.0
  0
LINE
  5
2DB
330
1F
100
AcDbEntity
  8
LAY-2
  6
CONTINUOUS
 62
     6
100
AcDbLine
 10
1398.153398
 20
1466.215711
 30
0.0
 11
1404.65878
 21
1472.721094
 31
0.0
  0
LINE
  5
2DC
330
1F
100
AcDbEntity
  8
LAY-2
  6
CONTINUOUS
 62
     6
100
AcDbLine
 10
1403.514434
 20
1459.768065
 30
0.0
 11
1404.057739
 21
1460.31137
 31
0.0
  0
LINE
  5
2DD
330
1F
100
AcDbEntity
  8
LAY-2
  6
CONTINUOUS
 62
     6
100
AcDbLine
 10
1400.473875
 20
1462.808624
 30
0.0
 11
1401.01718
 21
1463.351929
 31
0.0
  0
LINE
  5
2DE
330
1F
100
AcDbEntity
  8
LAY-2
  6
CONTINUOUS
 62
     6
100
AcDbLine
 10
1411.242825
 20
1459.710329
 30
0.0
 11
1411.702847
 21
1472.884767
 31
0.0
  0
LINE
  5
2DF
330
1F
100
AcDbEntity
  8
LAY-2
  6
CONTINUOUS
 62
     6
100
AcDbLine
 10
1416.699856
 20
1477.710268
 30
0.0
 11
1418.799747
 21
1477.710268
 31
0.0
  0
ARC
  5
2E0
330
1F
100
AcDbEntity
  8
LAY-2
  6
CONTINUOUS
 62
     6
100
AcDbCircle
 10
1416.699856
 20
1472.710268
 30
0.0
 40
5.0
100
AcDbArc
 50
90.00000000000001
 51
177.9999999999997
  0
ARC
  5
2E1
330
1F
100
AcDbEntity
  8
LAY-2
  6
CONTINUOUS
 62
     6
100
AcDbCircle
 10
1411.176547
 20
1460.210329
 30
0.0
 40
0.5
100
AcDbArc
 50
177.9997840000017
 51
270.0000000000002
  0
ARC
  5
2E2
330
1F
100
AcDbEntity
  8
LAY-2
  6
CONTINUOUS
 62
     6
100
AcDbCircle
 10
1409.163163
 20
1460.210329
 30
0.0
 40
0.5
100
AcDbArc
 50
179.4999270000052
 51
270.0000000000002
  0
LINE
  5
2E3
330
1F
100
AcDbEntity
  8
LAY-2
  6
CONTINUOUS
 62
     6
100
AcDbLine
 10
1408.65878
 20
1459.710329
 30
0.0
 11
1408.65878
 21
1476.710329
 31
0.0
  0
LINE
  5
2E4
330
1F
100
AcDbEntity
  8
LAY-2
  6
CONTINUOUS
 62
     6
100
AcDbLine
 10
1408.65878
 20
1476.710329
 30
0.0
 11
1406.65878
 21
1476.710329
 31
0.0
  0
LINE
  5
2E5
330
1F
100
AcDbEntity
  8
LAY-2
  6
CONTINUOUS
 62
     6
100
AcDbLine
 10
1409.007928
 20
1499.712892
 30
0.0
 11
1398.611825
 21
1499.894357
 31
0.0
  0
ARC
  5
2E6
330
1F
100
AcDbEntity
  8
LAY-2
  6
CONTINUOUS
 62
     6
100
AcDbCircle
 10
1398.64673
 20
1501.894052
 30
0.0
 40
2.0
100
AcDbArc
 50
190.8659789999968
 51
269.0000000000001
  0
LINE
  5
2E7
330
1F
100
AcDbEntity
  8
LAY-2
  6
CONTINUOUS
 62
     6
100
AcDbLine
 10
1409.099574
 20
1510.212892
 30
0.0
 11
1409.007928
 21
1510.212892
 31
0.0
  0
ARC
  5
2E8
330
1F
100
AcDbEntity
  8
LAY-2
  6
CONTINUOUS
 62
     6
100
AcDbCircle
 10
1564.65878
 20
1530.10345
 30
0.0
 40
150.0000000000001
100
AcDbArc
 50
164.9563200000001
 51
174.5230345050001
  0
ARC
  5
2E9
330
1F
100
AcDbEntity
  8
LAY-2
  6
CONTINUOUS
 62
     6
100
AcDbCircle
 10
1563.28378
 20
1532.254885
 30
0.0
 40
150.0000000000001
100
AcDbArc
 50
165.653137
 51
177.9998169999999
  0
LINE
  5
2EA
330
1F
100
AcDbEntity
  8
LAY-2
  6
CONTINUOUS
 62
     6
100
AcDbLine
 10
1409.007928
 20
1529.712892
 30
0.0
 11
1398.611825
 21
1529.531427
 31
0.0
  0
ARC
  5
2EB
330
1F
100
AcDbEntity
  8
LAY-2
  6
CONTINUOUS
 62
     6
100
AcDbCircle
 10
1398.64673
 20
1527.531732
 30
0.0
 40
2.0
100
AcDbArc
 50
91.00000000000006
 51
169.1340210000032
  0
ARC
  5
2EC
330
1F
100
AcDbEntity
  8
LAY-2
  6
CONTINUOUS
 62
     6
100
AcDbCircle
 10
1412.655541
 20
1531.210329
 30
0.0
 40
0.5
100
AcDbArc
 50
270.0000000000002
 51
357.9992680000033
  0
ARC
  5
2ED
330
1F
100
AcDbEntity
  8
LAY-2
  6
CONTINUOUS
 62
     6
100
AcDbCircle
 10
1410.350243
 20
1530.212892
 30
0.0
 40
0.5
100
AcDbArc
 50
95.80453500001474
 51
180.0
  0
ARC
  5
2EE
330
1F
100
AcDbEntity
  8
LAY-2
  6
CONTINUOUS
 62
     6
100
AcDbCircle
 10
1412.638207
 20
1530.712892
 30
0.0
 40
0.5
100
AcDbArc
 50
270.0000000000002
 51
357.9997840000017
  0
ARC
  5
2EF
330
1F
100
AcDbEntity
  8
LAY-2
  6
CONTINUOUS
 62
     6
100
AcDbCircle
 10
1409.769792
 20
1529.712892
 30
0.0
 40
0.5
100
AcDbArc
 50
90.00000000000001
 51
179.4999270000052
  0
LINE
  5
2F0
330
1F
100
AcDbEntity
  8
LAY-2
  6
CONTINUOUS
 62
     6
100
AcDbLine
 10
1412.638207
 20
1530.212892
 30
0.0
 11
1409.769792
 21
1530.212892
 31
0.0
  0
LINE
  5
2F1
330
1F
100
AcDbEntity
  8
LAY-2
  6
CONTINUOUS
 62
     6
100
AcDbLine
 10
1412.655541
 20
1530.710329
 30
0.0
 11
1410.299706
 21
1530.710329
 31
0.0
  0
ARC
  5
2F2
330
1F
100
AcDbEntity
  8
LAY-2
  6
CONTINUOUS
 62
     6
100
AcDbCircle
 10
1564.501429
 20
1528.547768
 30
0.0
 40
150.0000000000001
100
AcDbArc
 50
173.9257731612001
 51
181.904512
  0
LINE
  5
2F3
330
1F
100
AcDbEntity
  8
LAY-2
  6
CONTINUOUS
 62
     6
100
AcDbLine
 10
1409.178127
 20
1519.212892
 30
0.0
 11
1409.007928
 21
1519.212892
 31
0.0
  0
ARC
  5
2F4
330
1F
100
AcDbEntity
  8
LAY-2
  6
CONTINUOUS
 62
     6
100
AcDbCircle
 10
1508.156465
 20
1462.710222
 30
0.0
 40
2.999994
100
AcDbArc
 50
270.0000000000002
 51
0.0
  0
ARC
  5
2F5
330
1F
100
AcDbEntity
  8
LAY-2
  6
CONTINUOUS
 62
     6
100
AcDbCircle
 10
1469.156465
 20
1462.710323
 30
0.0
 40
2.999994
100
AcDbArc
 50
180.0
 51
270.0000000000002
  0
ARC
  5
2F6
330
1F
100
AcDbEntity
  8
LAY-2
  6
CONTINUOUS
 62
     6
100
AcDbCircle
 10
1467.116003
 20
1511.910086
 30
0.0
 40
7.000001
100
AcDbArc
 50
270.0000000000002
 51
293.4702150000008
  0
ARC
  5
2F7
330
1F
100
AcDbEntity
  8
LAY-2
  6
CONTINUOUS
 62
     6
100
AcDbCircle
 10
1448.156343
 20
1463.480853
 30
0.0
 40
2.999994
100
AcDbArc
 50
180.0
 51
270.0000000000002
  0
LINE
  5
2F8
330
1F
100
AcDbEntity
  8
LAY-2
  6
CONTINUOUS
 62
     6
100
AcDbLine
 10
1445.156339
 20
1471.48317
 30
0.0
 11
1445.156343
 21
1463.480973
 31
0.0
  0
LINE
  5
2F9
330
1F
100
AcDbEntity
  8
LAY-2
  6
CONTINUOUS
 62
     6
100
AcDbLine
 10
1466.156463
 20
1467.469998
 30
0.0
 11
1466.156465
 21
1462.710323
 31
0.0
  0
ARC
  5
2FA
330
1F
100
AcDbEntity
  8
LAY-2
  6
CONTINUOUS
 62
     6
100
AcDbCircle
 10
1461.156463
 20
1467.470118
 30
0.0
 40
5.000018000000004
100
AcDbArc
 50
359.9992989999993
 51
44.64169400000106
  0
LINE
  5
2FB
330
1F
100
AcDbEntity
  8
LAY-2
  6
CONTINUOUS
 62
     6
100
AcDbLine
 10
1459.276832
 20
1504.345024
 30
0.0
 11
1460.276893
 21
1504.345024
 31
0.0
  0
ARC
  5
2FC
330
1F
100
AcDbEntity
  8
LAY-2
  6
CONTINUOUS
 62
     6
100
AcDbCircle
 10
1459.276893
 20
1510.345018
 30
0.0
 40
5.999994000000004
100
AcDbArc
 50
211.471007000001
 51
270.0000000000002
  0
ARC
  5
2FD
330
1F
100
AcDbEntity
  8
LAY-2
  6
CONTINUOUS
 62
     6
100
AcDbCircle
 10
1460.276893
 20
1510.345018
 30
0.0
 40
5.999994000000004
100
AcDbArc
 50
270.0000000000002
 51
324.3680200000015
  0
LINE
  5
2FE
330
1F
100
AcDbEntity
  8
LAY-2
  6
CONTINUOUS
 62
     6
100
AcDbLine
 10
1468.604837
 20
1505.070243
 30
0.0
 11
1468.579814
 21
1503.635917
 31
0.0
  0
ARC
  5
2FF
330
1F
100
AcDbEntity
  8
LAY-2
  6
CONTINUOUS
 62
     6
100
AcDbCircle
 10
1501.766026
 20
1432.107859
 30
0.0
 40
80.00009200000005
100
AcDbArc
 50
111.3503599999999
 51
113.470459
  0
ARC
  5
300
330
1F
100
AcDbEntity
  8
LAY-2
  6
CONTINUOUS
 62
     6
100
AcDbCircle
 10
1516.156463
 20
1467.469904
 30
0.0
 40
5.000006
100
AcDbArc
 50
149.0684509999985
 51
180.0007329999993
  0
LINE
  5
301
330
1F
100
AcDbEntity
  8
LAY-2
  6
CONTINUOUS
 62
     6
100
AcDbLine
 10
1511.156463
 20
1467.469901
 30
0.0
 11
1511.156465
 21
1462.710222
 31
0.0
  0
ARC
  5
302
330
1F
100
AcDbEntity
  8
LAY-2
  6
CONTINUOUS
 62
     6
100
AcDbCircle
 10
1519.365689
 20
1088.550234
 30
0.0
 40
500.0000000000003
100
AcDbArc
 50
93.41278099999992
 51
96.07112999999995
  0
ARC
  5
303
330
1F
100
AcDbEntity
  8
LAY-2
  6
CONTINUOUS
 62
     6
100
AcDbCircle
 10
1465.658778
 20
1583.92418
 30
0.0
 40
1.999998
100
AcDbArc
 50
0.0
 51
97.58544999999792
  0
ARC
  5
304
330
1F
100
AcDbEntity
  8
LAY-2
  6
CONTINUOUS
 62
     6
100
AcDbCircle
 10
1531.873254
 20
1088.939428
 30
0.0
 40
500.0000000000003
100
AcDbArc
 50
97.814878
 51
101.7915459999999
  0
ARC
  5
305
330
1F
100
AcDbEntity
  8
LAY-2
  6
CONTINUOUS
 62
     6
100
AcDbCircle
 10
1519.365689
 20
1088.550234
 30
0.0
 40
500.0000000000003
100
AcDbArc
 50
97.49429399999998
 51
100.318329
  0
ARC
  5
306
330
1F
100
AcDbEntity
  8
LAY-2
  6
CONTINUOUS
 62
     6
100
AcDbCircle
 10
1464.15878
 20
1582.314285
 30
0.0
 40
2.0
100
AcDbArc
 50
0.0
 51
97.81487800000023
  0
ARC
  5
307
330
1F
100
AcDbEntity
  8
LAY-2
  6
CONTINUOUS
 62
     6
100
AcDbCircle
 10
1531.398043
 20
1090.282186
 30
0.0
 40
499.9999690000004
100
AcDbArc
 50
97.58557199999994
 51
98.887345
  0
ARC
  5
308
330
1F
100
AcDbEntity
  8
LAY-2
  6
CONTINUOUS
 62
     6
100
AcDbCircle
 10
1473.437842
 20
1583.399399
 30
0.0
 40
3.000000000000003
100
AcDbArc
 50
95.38435300000019
 51
179.0000009999978
  0
LINE
  5
309
330
1F
100
AcDbEntity
  8
LAY-2
  6
CONTINUOUS
 62
     6
100
AcDbLine
 10
1470.417691066
 20
1582.269345268
 30
0.0
 11
1470.438346
 21
1583.451877
 31
0.0
  0
ARC
  5
30A
330
1F
100
AcDbEntity
  8
LAY-2
  6
CONTINUOUS
 62
     6
100
AcDbCircle
 10
1473.437955
 20
1583.399477
 30
0.0
 40
3.000000000000003
100
AcDbArc
 50
95.38409399999924
 51
178.9992070000007
  0
LINE
  5
30B
330
1F
100
AcDbEntity
  8
LAY-2
  6
CONTINUOUS
 62
     6
100
AcDbLine
 10
1467.658779165
 20
1582.078380045
 30
0.0
 11
1467.658778
 21
1583.924181
 31
0.0
  0
ARC
  5
30C
330
1F
100
AcDbEntity
  8
LAY-2
  6
CONTINUOUS
 62
     6
100
AcDbCircle
 10
1757.040625
 20
1510.344935
 30
0.0
 40
5.999994000000004
100
AcDbArc
 50
215.6297629999999
 51
270.0000000000002
  0
ARC
  5
30D
330
1F
100
AcDbEntity
  8
LAY-2
  6
CONTINUOUS
 62
     6
100
AcDbCircle
 10
1709.156343
 20
1462.703506
 30
0.0
 40
2.999994
100
AcDbArc
 50
180.0
 51
270.0000000000002
  0
LINE
  5
30E
330
1F
100
AcDbEntity
  8
LAY-2
  6
CONTINUOUS
 62
     6
100
AcDbLine
 10
1706.156341
 20
1467.470006
 30
0.0
 11
1706.156343
 21
1462.703506
 31
0.0
  0
ARC
  5
30F
330
1F
100
AcDbEntity
  8
LAY-2
  6
CONTINUOUS
 62
     6
100
AcDbCircle
 10
1701.156341
 20
1467.470126
 30
0.0
 40
5.000009
100
AcDbArc
 50
359.9992990000015
 51
30.93136599999952
  0
LINE
  5
310
330
1F
100
AcDbEntity
  8
LAY-2
  6
CONTINUOUS
 62
     6
100
AcDbLine
 10
1751.156341
 20
1467.469909
 30
0.0
 11
1751.156343
 21
1462.703405
 31
0.0
  0
ARC
  5
311
330
1F
100
AcDbEntity
  8
LAY-2
  6
CONTINUOUS
 62
     6
100
AcDbCircle
 10
1756.156463
 20
1467.470033
 30
0.0
 40
5.000026000000004
100
AcDbArc
 50
135.3578189999984
 51
180.0010380000002
  0
ARC
  5
312
330
1F
100
AcDbEntity
  8
LAY-2
  6
CONTINUOUS
 62
     6
100
AcDbCircle
 10
1748.156343
 20
1462.703405
 30
0.0
 40
2.999994
100
AcDbArc
 50
270.0000000000002
 51
0.0
  0
LINE
  5
313
330
1F
100
AcDbEntity
  8
LAY-2
  6
CONTINUOUS
 62
     6
100
AcDbLine
 10
1748.712748
 20
1505.070272
 30
0.0
 11
1748.737773
 21
1503.635824
 31
0.0
  0
ARC
  5
314
330
1F
100
AcDbEntity
  8
LAY-2
  6
CONTINUOUS
 62
     6
100
AcDbCircle
 10
1715.551472
 20
1432.107974
 30
0.0
 40
80.00009200000005
100
AcDbArc
 50
66.5295409999999
 51
68.64961699999988
  0
ARC
  5
315
330
1F
100
AcDbEntity
  8
LAY-2
  6
CONTINUOUS
 62
     6
100
AcDbCircle
 10
1750.201513
 20
1511.910117
 30
0.0
 40
7.000001
100
AcDbArc
 50
246.5295410000001
 51
270.0000000000002
  0
ARC
  5
316
330
1F
100
AcDbEntity
  8
LAY-2
  6
CONTINUOUS
 62
     6
100
AcDbCircle
 10
1606.93577
 20
-410.0587719999999
 30
0.0
 40
1996.999878
100
AcDbArc
 50
85.85850343770996
 51
94.04237525153998
  0
ARC
  5
317
330
1F
100
AcDbEntity
  8
LAY-2
  6
CONTINUOUS
 62
     6
100
AcDbCircle
 10
1753.15878
 20
1582.314285
 30
0.0
 40
2.0
100
AcDbArc
 50
82.18512199999971
 51
180.0
  0
LINE
  5
318
330
1F
100
AcDbEntity
  8
LAY-2
  6
CONTINUOUS
 62
     6
100
AcDbLine
 10
1746.904051031
 20
1582.029929097
 30
0.0
 11
1746.878896
 21
1583.470073
 31
0.0
  0
ARC
  5
319
330
1F
100
AcDbEntity
  8
LAY-2
  6
CONTINUOUS
 62
     6
100
AcDbCircle
 10
1743.879727
 20
1583.399477
 30
0.0
 40
3.000000000000003
100
AcDbArc
 50
1.00079299999922
 51
84.61590600000069
  0
ARC
  5
31A
330
1F
100
AcDbEntity
  8
LAY-2
  6
CONTINUOUS
 62
     6
100
AcDbCircle
 10
1743.879717
 20
1583.39941
 30
0.0
 40
3.000000000000003
100
AcDbArc
 50
0.9999990000022475
 51
84.61566099999963
  0
LINE
  5
31B
330
1F
100
AcDbEntity
  8
LAY-2
  6
CONTINUOUS
 62
     6
100
AcDbLine
 10
1772.156461
 20
1471.483103
 30
0.0
 11
1772.156465
 21
1463.480906
 31
0.0
  0
ARC
  5
31C
330
1F
100
AcDbEntity
  8
LAY-2
  6
CONTINUOUS
 62
     6
100
AcDbCircle
 10
1769.156465
 20
1463.480782
 30
0.0
 40
2.999994
100
AcDbArc
 50
270.0000000000002
 51
0.0
  0
LINE
  5
31D
330
1F
100
AcDbEntity
  8
LAY-2
  6
CONTINUOUS
 62
     6
100
AcDbLine
 10
1758.040748
 20
1504.344941
 30
0.0
 11
1757.040625
 21
1504.344941
 31
0.0
  0
ARC
  5
31E
330
1F
100
AcDbEntity
  8
LAY-2
  6
CONTINUOUS
 62
     6
100
AcDbCircle
 10
1758.040748
 20
1510.344935
 30
0.0
 40
5.999994000000004
100
AcDbArc
 50
270.0000000000002
 51
328.5313319999995
  0
ARC
  5
31F
330
1F
100
AcDbEntity
  8
LAY-2
  6
CONTINUOUS
 62
     6
100
AcDbCircle
 10
1338.642751
 20
1173.35308
 30
0.0
 40
57.64275100000006
100
AcDbArc
 50
180.0
 51
0.0
  0
ARC
  5
320
330
1F
100
AcDbEntity
  8
LAY-2
  6
CONTINUOUS
 62
     6
100
AcDbCircle
 10
1337.792751
 20
1172.50308
 30
0.0
 40
62.79275100000003
100
AcDbArc
 50
180.0
 51
0.0
  0
LINE
  5
321
330
1F
100
AcDbEntity
  8
LAY-2
  6
CONTINUOUS
 62
     6
100
AcDbLine
 10
1772.156465
 20
1463.480906
 30
0.0
 11
1751.156342674
 21
1463.480906
 31
0.0
  0
LINE
  5
322
330
1F
100
AcDbEntity
  8
LAY-2
  6
CONTINUOUS
 62
     6
100
AcDbLine
 10
1445.156349
 20
1463.480853
 30
0.0
 11
1466.156464676
 21
1463.480853
 31
0.0
  0
LINE
  5
323
330
1F
100
AcDbEntity
  8
LAY-2
  6
CONTINUOUS
 62
     6
100
AcDbLine
 10
1448.156343
 20
1460.480859
 30
0.0
 11
1467.149114938
 21
1460.480859
 31
0.0
  0
LINE
  5
324
330
1F
100
AcDbEntity
  8
LAY-2
  6
CONTINUOUS
 62
     6
100
AcDbLine
 10
1511.156459
 20
1462.710222
 30
0.0
 11
1466.156465
 21
1462.710222
 31
0.0
  0
LINE
  5
325
330
1F
100
AcDbEntity
  8
LAY-2
  6
CONTINUOUS
 62
     6
100
AcDbLine
 10
1769.156465
 20
1460.480788
 30
0.0
 11
1750.171271701
 21
1460.480788
 31
0.0
  0
LINE
  5
326
330
1F
100
AcDbEntity
  8
LAY-2
  6
CONTINUOUS
 62
     6
100
AcDbLine
 10
1706.156349
 20
1462.703506
 30
0.0
 11
1751.156336998
 21
1462.703506
 31
0.0
  0
LINE
  5
327
330
1F
100
AcDbEntity
  8
LAY-2
  6
CONTINUOUS
 62
     6
100
AcDbLine
 10
590.7279657819998
 20
1459.710329
 30
0.0
 11
633.177835
 21
1459.710329
 31
0.0
  0
LINE
  5
328
330
1F
100
AcDbEntity
  8
LAY-2
  6
CONTINUOUS
 62
     6
100
AcDbLine
 10
639.877835
 20
1459.710329
 30
0.0
 11
720.7278511792001
 21
1459.710329
 31
0.0
  0
ARC
  5
329
330
1F
100
AcDbEntity
  8
LAY-2
  6
CONTINUOUS
 62
     6
100
AcDbCircle
 10
641.531344
 20
-2572.449342
 30
0.0
 40
5000.000000000005
100
AcDbArc
 50
90.20153529142677
 51
90.468475
  0
LINE
  5
32A
330
1F
100
AcDbEntity
  8
LAY-2
  6
CONTINUOUS
 62
     6
100
AcDbLine
 10
621.5500435405161
 20
2028.550536
 30
0.0
 11
621.71403
 21
2019.155776
 31
0.0
  0
LINE
  5
32B
330
1F
100
AcDbEntity
  8
LAY-2
  6
CONTINUOUS
 62
     6
100
AcDbLine
 10
651.5150864594839
 20
2028.550536
 30
0.0
 11
651.3511
 21
2019.155776
 31
0.0
  0
LINE
  5
32C
330
1F
100
AcDbEntity
  8
LAY-2
  6
CONTINUOUS
 62
     6
100
AcDbLine
 10
1693.40878
 20
1458.710329000006
 30
0.0
 11
1693.40878
 21
1457.710329000013
 31
0.0
  0
LINE
  5
32D
330
1F
100
AcDbEntity
  8
LAY-2
  6
CONTINUOUS
 62
     6
100
AcDbLine
 10
1693.40878
 20
1458.710329000006
 30
0.0
 11
1663.90878
 21
1458.710329000006
 31
0.0
  0
LINE
  5
32E
330
1F
100
AcDbEntity
  8
LAY-2
  6
CONTINUOUS
 62
     6
100
AcDbLine
 10
1663.90878
 20
1457.710329000013
 30
0.0
 11
1693.40878
 21
1457.710329000013
 31
0.0
  0
LINE
  5
32F
330
1F
100
AcDbEntity
  8
LAY-2
  6
CONTINUOUS
 62
     6
100
AcDbLine
 10
1663.90878
 20
1458.710329
 30
0.0
 11
1663.90878
 21
1457.710329000013
 31
0.0
  0
LINE
  5
330
330
1F
100
AcDbEntity
  8
LAY-2
  6
CONTINUOUS
 62
     6
100
AcDbLine
 10
1670.711954
 20
1452.910329
 30
0.0
 11
1686.711954
 21
1452.910329
 31
0.0
  0
LINE
  5
331
330
1F
100
AcDbEntity
  8
LAY-2
  6
CONTINUOUS
 62
     6
100
AcDbLine
 10
1670.711954
 20
1412.410329
 30
0.0
 11
1670.711954
 21
1452.910329
 31
0.0
  0
LINE
  5
332
330
1F
100
AcDbEntity
  8
LAY-2
  6
CONTINUOUS
 62
     6
100
AcDbLine
 10
1686.711954
 20
1412.410329
 30
0.0
 11
1686.711954
 21
1452.910329
 31
0.0
  0
LINE
  5
333
330
1F
100
AcDbEntity
  8
LAY-2
  6
CONTINUOUS
 62
     6
100
AcDbLine
 10
1670.711954
 20
1412.410328999994
 30
0.0
 11
1686.711954
 21
1412.410328999994
 31
0.0
  0
LINE
  5
334
330
1F
100
AcDbEntity
  8
LAY-2
  6
CONTINUOUS
 62
     6
100
AcDbLine
 10
1666.011954
 20
1401.410329
 30
0.0
 11
1691.411953999999
 21
1401.410329
 31
0.0
  0
LINE
  5
335
330
1F
100
AcDbEntity
  8
LAY-2
  6
CONTINUOUS
 62
     6
100
AcDbLine
 10
1666.011954
 20
1402.410329
 30
0.0
 11
1691.411953999999
 21
1402.410329
 31
0.0
  0
ARC
  5
336
330
1F
100
AcDbEntity
  8
LAY-2
  6
CONTINUOUS
 62
     6
100
AcDbCircle
 10
1666.011954
 20
1402.110329
 30
0.0
 40
0.3
100
AcDbArc
 50
90.00000000000001
 51
180.0
  0
ARC
  5
337
330
1F
100
AcDbEntity
  8
LAY-2
  6
CONTINUOUS
 62
     6
100
AcDbCircle
 10
1666.011954
 20
1401.710329
 30
0.0
 40
0.3
100
AcDbArc
 50
180.0
 51
270.0000000000002
  0
LINE
  5
338
330
1F
100
AcDbEntity
  8
LAY-2
  6
CONTINUOUS
 62
     6
100
AcDbLine
 10
1665.711954
 20
1401.710329
 30
0.0
 11
1665.711954
 21
1402.110329
 31
0.0
  0
LINE
  5
339
330
1F
100
AcDbEntity
  8
LAY-2
  6
CONTINUOUS
 62
     6
100
AcDbLine
 10
1691.711954
 20
1401.710329
 30
0.0
 11
1691.711954
 21
1402.110329
 31
0.0
  0
ARC
  5
33A
330
1F
100
AcDbEntity
  8
LAY-2
  6
CONTINUOUS
 62
     6
100
AcDbCircle
 10
1691.411953999999
 20
1401.710329
 30
0.0
 40
0.3
100
AcDbArc
 50
270.0000000000002
 51
0.0
  0
ARC
  5
33B
330
1F
100
AcDbEntity
  8
LAY-2
  6
CONTINUOUS
 62
     6
100
AcDbCircle
 10
1691.411953999999
 20
1402.110329
 30
0.0
 40
0.3
100
AcDbArc
 50
0.0
 51
90.00000000000001
  0
ARC
  5
33C
330
1F
100
AcDbEntity
  8
LAY-2
  6
CONTINUOUS
 62
     6
100
AcDbCircle
 10
1678.711954
 20
1402.410329
 30
0.0
 40
12.50000000000001
100
AcDbArc
 50
0.0
 51
53.13010235415533
  0
ARC
  5
33D
330
1F
100
AcDbEntity
  8
LAY-2
  6
CONTINUOUS
 62
     6
100
AcDbCircle
 10
1678.711954
 20
1402.410329
 30
0.0
 40
12.50000000000001
100
AcDbArc
 50
126.8698976458417
 51
180.0
  0
LINE
  5
33E
330
1F
100
AcDbEntity
  8
LAY-2
  6
CONTINUOUS
 62
     6
100
AcDbLine
 10
1691.21878
 20
1399.410328999999
 30
0.0
 11
1666.09878
 21
1399.410328999999
 31
0.0
  0
LINE
  5
33F
330
1F
100
AcDbEntity
  8
LAY-2
  6
CONTINUOUS
 62
     6
100
AcDbLine
 10
1678.65878
 20
1399.410329
 30
0.0
 11
1678.65878
 21
1383.910329000016
 31
0.0
  0
LINE
  5
340
330
1F
100
AcDbEntity
  8
LAY-2
  6
CONTINUOUS
 62
     6
100
AcDbLine
 10
1666.098779999999
 20
1377.910328999989
 30
0.0
 11
1666.098779999999
 21
1401.410329
 31
0.0
  0
LINE
  5
341
330
1F
100
AcDbEntity
  8
LAY-2
  6
CONTINUOUS
 62
     6
100
AcDbLine
 10
1691.21878
 20
1377.910328999989
 30
0.0
 11
1666.09878
 21
1377.910328999989
 31
0.0
  0
LINE
  5
342
330
1F
100
AcDbEntity
  8
LAY-2
  6
EXLTYPE2
 62
     6
100
AcDbLine
 10
1670.113779999995
 20
1383.910329000016
 30
0.0
 11
1670.113779999995
 21
1399.410328999999
 31
0.0
  0
LINE
  5
343
330
1F
100
AcDbEntity
  8
LAY-2
  6
EXLTYPE2
 62
     6
100
AcDbLine
 10
1687.203779999999
 20
1383.910329000016
 30
0.0
 11
1670.11378
 21
1383.910329000016
 31
0.0
  0
LINE
  5
344
330
1F
100
AcDbEntity
  8
LAY-2
  6
EXLTYPE2
 62
     6
100
AcDbLine
 10
1687.203779999999
 20
1383.910329
 30
0.0
 11
1687.203779999999
 21
1399.410328999999
 31
0.0
  0
LINE
  5
345
330
1F
100
AcDbEntity
  8
LAY-2
  6
CONTINUOUS
 62
     6
100
AcDbLine
 10
1691.218780000001
 20
1401.410329
 30
0.0
 11
1691.218780000001
 21
1377.910329
 31
0.0
  0
LINE
  5
346
330
1F
100
AcDbEntity
  8
LAY-2
  6
CONTINUOUS
 62
     6
100
AcDbLine
 10
1523.90878
 20
1458.710329000006
 30
0.0
 11
1523.90878
 21
1457.710329000013
 31
0.0
  0
LINE
  5
347
330
1F
100
AcDbEntity
  8
LAY-2
  6
CONTINUOUS
 62
     6
100
AcDbLine
 10
1523.90878
 20
1458.710329000006
 30
0.0
 11
1553.40878
 21
1458.710329000006
 31
0.0
  0
LINE
  5
348
330
1F
100
AcDbEntity
  8
LAY-2
  6
CONTINUOUS
 62
     6
100
AcDbLine
 10
1553.40878
 20
1457.710329000013
 30
0.0
 11
1523.90878
 21
1457.710329000013
 31
0.0
  0
LINE
  5
349
330
1F
100
AcDbEntity
  8
LAY-2
  6
CONTINUOUS
 62
     6
100
AcDbLine
 10
1553.40878
 20
1458.710329
 30
0.0
 11
1553.40878
 21
1457.710329000013
 31
0.0
  0
LINE
  5
34A
330
1F
100
AcDbEntity
  8
LAY-2
  6
CONTINUOUS
 62
     6
100
AcDbLine
 10
1546.605606
 20
1452.910329
 30
0.0
 11
1530.605606
 21
1452.910329
 31
0.0
  0
LINE
  5
34B
330
1F
100
AcDbEntity
  8
LAY-2
  6
CONTINUOUS
 62
     6
100
AcDbLine
 10
1546.605606000001
 20
1412.410329
 30
0.0
 11
1546.605606000001
 21
1452.910329
 31
0.0
  0
LINE
  5
34C
330
1F
100
AcDbEntity
  8
LAY-2
  6
CONTINUOUS
 62
     6
100
AcDbLine
 10
1530.605606
 20
1412.410329
 30
0.0
 11
1530.605606
 21
1452.910329
 31
0.0
  0
LINE
  5
34D
330
1F
100
AcDbEntity
  8
LAY-2
  6
CONTINUOUS
 62
     6
100
AcDbLine
 10
1546.605606
 20
1412.410328999994
 30
0.0
 11
1530.605606
 21
1412.410328999994
 31
0.0
  0
LINE
  5
34E
330
1F
100
AcDbEntity
  8
LAY-2
  6
CONTINUOUS
 62
     6
100
AcDbLine
 10
1551.305606
 20
1401.410329
 30
0.0
 11
1525.905606
 21
1401.410329
 31
0.0
  0
LINE
  5
34F
330
1F
100
AcDbEntity
  8
LAY-2
  6
CONTINUOUS
 62
     6
100
AcDbLine
 10
1551.305606
 20
1402.410329
 30
0.0
 11
1525.905606
 21
1402.410329
 31
0.0
  0
ARC
  5
350
330
1F
100
AcDbEntity
  8
LAY-2
  6
CONTINUOUS
 62
     6
100
AcDbCircle
 10
1551.305606
 20
1402.110329
 30
0.0
 40
0.3
100
AcDbArc
 50
0.0
 51
90.00000000000001
  0
ARC
  5
351
330
1F
100
AcDbEntity
  8
LAY-2
  6
CONTINUOUS
 62
     6
100
AcDbCircle
 10
1551.305606
 20
1401.710329
 30
0.0
 40
0.3
100
AcDbArc
 50
270.0
 51
0.0
  0
LINE
  5
352
330
1F
100
AcDbEntity
  8
LAY-2
  6
CONTINUOUS
 62
     6
100
AcDbLine
 10
1551.605606000001
 20
1401.710329
 30
0.0
 11
1551.605606000001
 21
1402.110329
 31
0.0
  0
LINE
  5
353
330
1F
100
AcDbEntity
  8
LAY-2
  6
CONTINUOUS
 62
     6
100
AcDbLine
 10
1525.605606
 20
1401.710329
 30
0.0
 11
1525.605606
 21
1402.110329
 31
0.0
  0
ARC
  5
354
330
1F
100
AcDbEntity
  8
LAY-2
  6
CONTINUOUS
 62
     6
100
AcDbCircle
 10
1525.905606
 20
1401.710329
 30
0.0
 40
0.3
100
AcDbArc
 50
180.0
 51
270.0
  0
ARC
  5
355
330
1F
100
AcDbEntity
  8
LAY-2
  6
CONTINUOUS
 62
     6
100
AcDbCircle
 10
1525.905606
 20
1402.110329
 30
0.0
 40
0.3
100
AcDbArc
 50
90.00000000000001
 51
180.0
  0
ARC
  5
356
330
1F
100
AcDbEntity
  8
LAY-2
  6
CONTINUOUS
 62
     6
100
AcDbCircle
 10
1538.605606
 20
1402.410329
 30
0.0
 40
12.50000000000001
100
AcDbArc
 50
126.8698976458449
 51
180.0
  0
ARC
  5
357
330
1F
100
AcDbEntity
  8
LAY-2
  6
CONTINUOUS
 62
     6
100
AcDbCircle
 10
1538.605606
 20
1402.410329
 30
0.0
 40
12.50000000000001
100
AcDbArc
 50
0.0
 51
53.13010235415826
  0
LINE
  5
358
330
1F
100
AcDbEntity
  8
LAY-2
  6
CONTINUOUS
 62
     6
100
AcDbLine
 10
1526.09878
 20
1399.410328999999
 30
0.0
 11
1551.21878
 21
1399.410328999999
 31
0.0
  0
LINE
  5
359
330
1F
100
AcDbEntity
  8
LAY-2
  6
CONTINUOUS
 62
     6
100
AcDbLine
 10
1538.65878
 20
1399.410329
 30
0.0
 11
1538.65878
 21
1383.910329000016
 31
0.0
  0
LINE
  5
35A
330
1F
100
AcDbEntity
  8
LAY-2
  6
CONTINUOUS
 62
     6
100
AcDbLine
 10
1551.218780000001
 20
1377.910328999989
 30
0.0
 11
1551.218780000001
 21
1401.410329
 31
0.0
  0
LINE
  5
35B
330
1F
100
AcDbEntity
  8
LAY-2
  6
CONTINUOUS
 62
     6
100
AcDbLine
 10
1526.09878
 20
1377.910328999989
 30
0.0
 11
1551.21878
 21
1377.910328999989
 31
0.0
  0
LINE
  5
35C
330
1F
100
AcDbEntity
  8
LAY-2
  6
EXLTYPE2
 62
     6
100
AcDbLine
 10
1547.203780000005
 20
1383.910329000016
 30
0.0
 11
1547.203780000005
 21
1399.410328999999
 31
0.0
  0
LINE
  5
35D
330
1F
100
AcDbEntity
  8
LAY-2
  6
EXLTYPE2
 62
     6
100
AcDbLine
 10
1530.113780000001
 20
1383.910329000016
 30
0.0
 11
1547.20378
 21
1383.910329000016
 31
0.0
  0
LINE
  5
35E
330
1F
100
AcDbEntity
  8
LAY-2
  6
EXLTYPE2
 62
     6
100
AcDbLine
 10
1530.113780000001
 20
1383.910329
 30
0.0
 11
1530.113780000001
 21
1399.410328999999
 31
0.0
  0
LINE
  5
35F
330
1F
100
AcDbEntity
  8
LAY-2
  6
CONTINUOUS
 62
     6
100
AcDbLine
 10
1526.098779999999
 20
1401.410329
 30
0.0
 11
1526.098779999999
 21
1377.910329
 31
0.0
  0
LINE
  5
360
330
1F
100
AcDbEntity
  8
LAY-2
  6
CONTINUOUS
 62
     6
100
AcDbLine
 10
1674.185367
 20
1364.710329
 30
0.0
 11
1683.185367
 21
1364.710329
 31
0.0
  0
LINE
  5
361
330
1F
100
AcDbEntity
  8
LAY-2
  6
CONTINUOUS
 62
     6
100
AcDbLine
 10
1674.185367
 20
1364.710329
 30
0.0
 11
1674.185367
 21
1366.710329
 31
0.0
  0
LINE
  5
362
330
1F
100
AcDbEntity
  8
LAY-2
  6
CONTINUOUS
 62
     6
100
AcDbLine
 10
1683.185367
 20
1364.710329
 30
0.0
 11
1683.185367
 21
1366.710329
 31
0.0
  0
LINE
  5
363
330
1F
100
AcDbEntity
  8
LAY-2
  6
CONTINUOUS
 62
     6
100
AcDbLine
 10
1672.685367
 20
1368.210329
 30
0.0
 11
1674.185367
 21
1366.710329
 31
0.0
  0
LINE
  5
364
330
1F
100
AcDbEntity
  8
LAY-2
  6
CONTINUOUS
 62
     6
100
AcDbLine
 10
1684.685367
 20
1368.210329
 30
0.0
 11
1683.185367
 21
1366.710329
 31
0.0
  0
LINE
  5
365
330
1F
100
AcDbEntity
  8
LAY-2
  6
CONTINUOUS
 62
     6
100
AcDbLine
 10
1674.185367
 20
1366.710329
 30
0.0
 11
1683.185367
 21
1366.710329
 31
0.0
  0
LINE
  5
366
330
1F
100
AcDbEntity
  8
LAY-2
  6
CONTINUOUS
 62
     6
100
AcDbLine
 10
1672.685367
 20
1368.210329
 30
0.0
 11
1684.685367
 21
1368.210329
 31
0.0
  0
ARC
  5
367
330
1F
100
AcDbEntity
  8
LAY-2
  6
CONTINUOUS
 62
     6
100
AcDbCircle
 10
1667.685367
 20
1454.710329
 30
0.0
 40
5.0
100
AcDbArc
 50
53.13010235415024
 51
90.00000000000001
  0
ARC
  5
368
330
1F
100
AcDbEntity
  8
LAY-2
  6
CONTINUOUS
 62
     6
100
AcDbCircle
 10
1689.685367
 20
1454.710329
 30
0.0
 40
5.0
100
AcDbArc
 50
90.00000000000001
 51
126.869897645844
  0
ARC
  5
369
330
1F
100
AcDbEntity
  8
LAY-2
  6
EXLTYPE2
 62
     6
100
AcDbCircle
 10
1689.685367
 20
1454.710329
 30
0.0
 40
5.0
100
AcDbArc
 50
126.869897645844
 51
180.0
  0
ARC
  5
36A
330
1F
100
AcDbEntity
  8
LAY-2
  6
EXLTYPE2
 62
     6
100
AcDbCircle
 10
1667.685367
 20
1454.710329
 30
0.0
 40
5.0
100
AcDbArc
 50
0.0
 51
53.13010235415597
  0
LINE
  5
36B
330
1F
100
AcDbEntity
  8
LAY-2
  6
EXLTYPE2
 62
     6
100
AcDbLine
 10
1672.685367
 20
1454.710329
 30
0.0
 11
1672.685367
 21
1405.210329
 31
0.0
  0
LINE
  5
36C
330
1F
100
AcDbEntity
  8
LAY-2
  6
EXLTYPE2
 62
     6
100
AcDbLine
 10
1684.685367
 20
1454.710329
 30
0.0
 11
1684.685367
 21
1405.210329
 31
0.0
  0
LINE
  5
36D
330
1F
100
AcDbEntity
  8
LAY-2
  6
CONTINUOUS
 62
     6
100
AcDbLine
 10
1672.685367
 20
1377.910328999989
 30
0.0
 11
1672.685367
 21
1368.210329
 31
0.0
  0
LINE
  5
36E
330
1F
100
AcDbEntity
  8
LAY-2
  6
CONTINUOUS
 62
     6
100
AcDbLine
 10
1673.685367
 20
1377.910328999989
 30
0.0
 11
1673.685367
 21
1367.210329
 31
0.0
  0
LINE
  5
36F
330
1F
100
AcDbEntity
  8
LAY-2
  6
CONTINUOUS
 62
     6
100
AcDbLine
 10
1683.685367
 20
1377.910328999989
 30
0.0
 11
1683.685367
 21
1367.210329
 31
0.0
  0
LINE
  5
370
330
1F
100
AcDbEntity
  8
LAY-2
  6
CONTINUOUS
 62
     6
100
AcDbLine
 10
1684.685367
 20
1377.910328999989
 30
0.0
 11
1684.685367
 21
1368.210329
 31
0.0
  0
LINE
  5
371
330
1F
100
AcDbEntity
  8
LAY-2
  6
CONTINUOUS
 62
     6
100
AcDbLine
 10
1543.132193
 20
1364.710329
 30
0.0
 11
1534.132193
 21
1364.710329
 31
0.0
  0
LINE
  5
372
330
1F
100
AcDbEntity
  8
LAY-2
  6
CONTINUOUS
 62
     6
100
AcDbLine
 10
1543.132193
 20
1364.710329
 30
0.0
 11
1543.132193
 21
1366.710329
 31
0.0
  0
LINE
  5
373
330
1F
100
AcDbEntity
  8
LAY-2
  6
CONTINUOUS
 62
     6
100
AcDbLine
 10
1534.132193
 20
1364.710329
 30
0.0
 11
1534.132193
 21
1366.710329
 31
0.0
  0
LINE
  5
374
330
1F
100
AcDbEntity
  8
LAY-2
  6
CONTINUOUS
 62
     6
100
AcDbLine
 10
1544.632193
 20
1368.210329
 30
0.0
 11
1543.132193
 21
1366.710329
 31
0.0
  0
LINE
  5
375
330
1F
100
AcDbEntity
  8
LAY-2
  6
CONTINUOUS
 62
     6
100
AcDbLine
 10
1532.632193
 20
1368.210329
 30
0.0
 11
1534.132193
 21
1366.710329
 31
0.0
  0
LINE
  5
376
330
1F
100
AcDbEntity
  8
LAY-2
  6
CONTINUOUS
 62
     6
100
AcDbLine
 10
1543.132193
 20
1366.710329
 30
0.0
 11
1534.132193
 21
1366.710329
 31
0.0
  0
LINE
  5
377
330
1F
100
AcDbEntity
  8
LAY-2
  6
CONTINUOUS
 62
     6
100
AcDbLine
 10
1544.632193
 20
1368.210329
 30
0.0
 11
1532.632193
 21
1368.210329
 31
0.0
  0
ARC
  5
378
330
1F
100
AcDbEntity
  8
LAY-2
  6
CONTINUOUS
 62
     6
100
AcDbCircle
 10
1549.632193
 20
1454.710329
 30
0.0
 40
5.0
100
AcDbArc
 50
90.00000000000001
 51
126.8698976458498
  0
ARC
  5
379
330
1F
100
AcDbEntity
  8
LAY-2
  6
CONTINUOUS
 62
     6
100
AcDbCircle
 10
1527.632193
 20
1454.710329
 30
0.0
 40
5.0
100
AcDbArc
 50
53.13010235415597
 51
90.00000000000001
  0
ARC
  5
37A
330
1F
100
AcDbEntity
  8
LAY-2
  6
EXLTYPE2
 62
     6
100
AcDbCircle
 10
1527.632193
 20
1454.710329
 30
0.0
 40
5.0
100
AcDbArc
 50
0.0
 51
53.13010235415597
  0
ARC
  5
37B
330
1F
100
AcDbEntity
  8
LAY-2
  6
EXLTYPE2
 62
     6
100
AcDbCircle
 10
1549.632193
 20
1454.710329
 30
0.0
 40
5.0
100
AcDbArc
 50
126.869897645844
 51
180.0
  0
LINE
  5
37C
330
1F
100
AcDbEntity
  8
LAY-2
  6
EXLTYPE2
 62
     6
100
AcDbLine
 10
1544.632193
 20
1454.710329
 30
0.0
 11
1544.632193
 21
1405.210329
 31
0.0
  0
LINE
  5
37D
330
1F
100
AcDbEntity
  8
LAY-2
  6
EXLTYPE2
 62
     6
100
AcDbLine
 10
1532.632193
 20
1454.710329
 30
0.0
 11
1532.632193
 21
1405.210329
 31
0.0
  0
LINE
  5
37E
330
1F
100
AcDbEntity
  8
LAY-2
  6
CONTINUOUS
 62
     6
100
AcDbLine
 10
1544.632193
 20
1377.910328999989
 30
0.0
 11
1544.632193
 21
1368.210329
 31
0.0
  0
LINE
  5
37F
330
1F
100
AcDbEntity
  8
LAY-2
  6
CONTINUOUS
 62
     6
100
AcDbLine
 10
1543.632193
 20
1377.910328999989
 30
0.0
 11
1543.632193
 21
1367.210329
 31
0.0
  0
LINE
  5
380
330
1F
100
AcDbEntity
  8
LAY-2
  6
CONTINUOUS
 62
     6
100
AcDbLine
 10
1533.632193
 20
1377.910328999989
 30
0.0
 11
1533.632193
 21
1367.210329
 31
0.0
  0
LINE
  5
381
330
1F
100
AcDbEntity
  8
LAY-2
  6
CONTINUOUS
 62
     6
100
AcDbLine
 10
1532.632193
 20
1377.910328999989
 30
0.0
 11
1532.632193
 21
1368.210329
 31
0.0
  0
LINE
  5
382
330
1F
100
AcDbEntity
  8
LAY-2
  6
CONTINUOUS
 62
     6
100
AcDbLine
 10
653.3496609999005
 20
1412.416240539
 30
0.0
 11
653.3496609999005
 21
1452.916240539
 31
0.0
  0
ARC
  5
383
330
1F
100
AcDbEntity
  8
LAY-2
  6
CONTINUOUS
 62
     6
100
AcDbCircle
 10
658.0496609999003
 20
1402.116240539
 30
0.0
 40
0.3
100
AcDbArc
 50
0.0
 51
90.00000000000001
  0
ARC
  5
384
330
1F
100
AcDbEntity
  8
LAY-2
  6
CONTINUOUS
 62
     6
100
AcDbCircle
 10
658.0496609999003
 20
1401.716240539001
 30
0.0
 40
0.3
100
AcDbArc
 50
270.0
 51
0.0
  0
LINE
  5
385
330
1F
100
AcDbEntity
  8
LAY-2
  6
CONTINUOUS
 62
     6
100
AcDbLine
 10
658.3496609999005
 20
1401.716240539001
 30
0.0
 11
658.3496609999005
 21
1402.116240539
 31
0.0
  0
ARC
  5
386
330
1F
100
AcDbEntity
  8
LAY-2
  6
CONTINUOUS
 62
     6
100
AcDbCircle
 10
645.3496609999005
 20
1402.416240539
 30
0.0
 40
12.50000000000001
100
AcDbArc
 50
0.0
 51
53.13010235415826
  0
LINE
  5
387
330
1F
100
AcDbEntity
  8
LAY-2
  6
CONTINUOUS
 62
     6
100
AcDbLine
 10
645.4028349999002
 20
1399.416240539
 30
0.0
 11
645.4028349999002
 21
1383.916240539016
 31
0.0
  0
LINE
  5
388
330
1F
100
AcDbEntity
  8
LAY-2
  6
CONTINUOUS
 62
     6
100
AcDbLine
 10
657.962834999901
 20
1377.91624053899
 30
0.0
 11
657.962834999901
 21
1401.416240539
 31
0.0
  0
LINE
  5
389
330
1F
100
AcDbEntity
  8
LAY-2
  6
EXLTYPE2
 62
     6
100
AcDbLine
 10
653.9478349999048
 20
1383.916240539016
 30
0.0
 11
653.9478349999048
 21
1399.416240538999
 31
0.0
  0
LINE
  5
38A
330
1F
100
AcDbEntity
  8
LAY-2
  6
CONTINUOUS
 62
     6
100
AcDbLine
 10
649.8762479999002
 20
1364.716240539
 30
0.0
 11
640.8762479999003
 21
1364.716240539
 31
0.0
  0
LINE
  5
38B
330
1F
100
AcDbEntity
  8
LAY-2
  6
CONTINUOUS
 62
     6
100
AcDbLine
 10
649.8762479999002
 20
1364.716240539
 30
0.0
 11
649.8762479999002
 21
1366.716240539
 31
0.0
  0
LINE
  5
38C
330
1F
100
AcDbEntity
  8
LAY-2
  6
CONTINUOUS
 62
     6
100
AcDbLine
 10
640.8762479999003
 20
1364.716240539
 30
0.0
 11
640.8762479999003
 21
1366.716240539
 31
0.0
  0
LINE
  5
38D
330
1F
100
AcDbEntity
  8
LAY-2
  6
CONTINUOUS
 62
     6
100
AcDbLine
 10
651.3762479999003
 20
1368.216240539
 30
0.0
 11
649.8762479999002
 21
1366.716240539
 31
0.0
  0
LINE
  5
38E
330
1F
100
AcDbEntity
  8
LAY-2
  6
CONTINUOUS
 62
     6
100
AcDbLine
 10
649.8762479999002
 20
1366.716240539
 30
0.0
 11
640.8762479999003
 21
1366.716240539
 31
0.0
  0
LINE
  5
38F
330
1F
100
AcDbEntity
  8
LAY-2
  6
EXLTYPE2
 62
     6
100
AcDbLine
 10
651.3762479999006
 20
1454.716240539
 30
0.0
 11
651.3762479999006
 21
1405.216240539
 31
0.0
  0
LINE
  5
390
330
1F
100
AcDbEntity
  8
LAY-2
  6
CONTINUOUS
 62
     6
100
AcDbLine
 10
651.3762479999006
 20
1377.91624053899
 30
0.0
 11
651.3762479999006
 21
1368.216240539
 31
0.0
  0
LINE
  5
391
330
1F
100
AcDbEntity
  8
LAY-2
  6
CONTINUOUS
 62
     6
100
AcDbLine
 10
650.3762479999003
 20
1377.91624053899
 30
0.0
 11
650.3762479999003
 21
1367.216240539
 31
0.0
  0
LINE
  5
392
330
1F
100
AcDbEntity
  8
LAY-2
  6
CONTINUOUS
 62
     6
100
AcDbLine
 10
640.3762479999003
 20
1377.91624053899
 30
0.0
 11
640.3762479999003
 21
1367.216240539
 31
0.0
  0
LINE
  5
393
330
1F
100
AcDbEntity
  8
LAY-2
  6
CONTINUOUS
 62
     6
100
AcDbLine
 10
653.3496609999
 20
1452.916240539
 30
0.0
 11
639.8778350000001
 21
1452.916240539
 31
0.0
  0
LINE
  5
394
330
1F
100
AcDbEntity
  8
LAY-2
  6
CONTINUOUS
 62
     6
100
AcDbLine
 10
653.3496609999
 20
1412.416240538994
 30
0.0
 11
639.8778350000001
 21
1412.416240538994
 31
0.0
  0
LINE
  5
395
330
1F
100
AcDbEntity
  8
LAY-2
  6
CONTINUOUS
 62
     6
100
AcDbLine
 10
658.0496609999003
 20
1402.416240539
 30
0.0
 11
639.8778350000001
 21
1402.416240539
 31
0.0
  0
LINE
  5
396
330
1F
100
AcDbEntity
  8
LAY-2
  6
CONTINUOUS
 62
     6
100
AcDbLine
 10
658.0496609999003
 20
1401.416240539
 30
0.0
 11
639.8778350000001
 21
1401.416240539
 31
0.0
  0
LINE
  5
397
330
1F
100
AcDbEntity
  8
LAY-2
  6
CONTINUOUS
 62
     6
100
AcDbLine
 10
639.8778350000001
 20
1399.416240538999
 30
0.0
 11
657.9628349999001
 21
1399.416240538999
 31
0.0
  0
LINE
  5
398
330
1F
100
AcDbEntity
  8
LAY-2
  6
CONTINUOUS
 62
     6
100
AcDbLine
 10
639.8778350000001
 20
1377.91624053899
 30
0.0
 11
657.9628349999001
 21
1377.91624053899
 31
0.0
  0
LINE
  5
399
330
1F
100
AcDbEntity
  8
LAY-2
  6
EXLTYPE2
 62
     6
100
AcDbLine
 10
639.8778350000001
 20
1383.916240539016
 30
0.0
 11
653.9478349999002
 21
1383.916240539016
 31
0.0
  0
LINE
  5
39A
330
1F
100
AcDbEntity
  8
LAY-2
  6
CONTINUOUS
 62
     6
100
AcDbLine
 10
639.8778350000001
 20
1367.7146535389
 30
0.0
 11
640.8762479999003
 21
1366.716240539
 31
0.0
  0
LINE
  5
39B
330
1F
100
AcDbEntity
  8
LAY-2
  6
CONTINUOUS
 62
     6
100
AcDbLine
 10
651.3762479999003
 20
1368.216240539
 30
0.0
 11
639.8778350000001
 21
1368.216240539
 31
0.0
  0
LINE
  5
39C
330
1F
100
AcDbEntity
  8
LAY-2
  6
EXLTYPE3
 62
     6
100
AcDbLine
 10
1608.65878
 20
1611.21039
 30
0.0
 11
1608.65878
 21
1439.710329
 31
0.0
  0
LINE
  5
39D
330
1F
100
AcDbEntity
  8
LAY-2
  6
EXLTYPE3
 62
     6
100
AcDbLine
 10
1678.632193
 20
1459.710329
 30
0.0
 11
1678.632193
 21
1357.210329
 31
0.0
  0
LINE
  5
39E
330
1F
100
AcDbEntity
  8
LAY-2
  6
EXLTYPE3
 62
     6
100
AcDbLine
 10
1538.685367
 20
1459.710329
 30
0.0
 11
1538.685367
 21
1357.210329
 31
0.0
  0
LINE
  5
39F
330
1F
100
AcDbEntity
  8
LAY-2
  6
EXLTYPE3
 62
     6
100
AcDbLine
 10
614.9311850000001
 20
2229.550536
 30
0.0
 11
893.2000000000002
 21
2229.550536
 31
0.0
  0
LINE
  5
3A0
330
1F
100
AcDbEntity
  8
LAY-2
  6
EXLTYPE3
 62
     6
100
AcDbLine
 10
952.0000000000001
 20
2229.550536
 30
0.0
 11
1113.812506
 21
2229.550536
 31
0.0
  0
TEXT
  5
3A1
330
1F
100
AcDbEntity
  8
LAY-2
  6
CONTINUOUS
 62
     2
100
AcDbText
 10
716.0
 20
1272.5
 30
0.0
 40
40.0
  1
電源コード
 41
1.086206896551724
  7
EXCADSTD
 72
     5
 11
896.0
 21
1272.5
 31
0.0
100
AcDbText
  0
TEXT
  5
3A2
330
1F
100
AcDbEntity
  8
LAY-2
  6
CONTINUOUS
 62
     2
100
AcDbText
 10
1071.0
 20
1670.0
 30
0.0
 40
40.0
  1
温度調節スイッチ
 41
1.061170212765957
  7
EXCADSTD
 72
     5
 11
1356.0
 21
1670.0
 31
0.0
100
AcDbText
  0
LINE
  5
3A3
330
1F
100
AcDbEntity
  8
LAY-2
  6
CONTINUOUS
 62
     3
100
AcDbLine
 10
716.0
 20
1269.0
 30
0.0
 11
905.0
 21
1269.0
 31
0.0
  0
LINE
  5
3A4
330
1F
100
AcDbEntity
  8
LAY-2
  6
CONTINUOUS
 62
     3
100
AcDbLine
 10
1356.0
 20
1666.5
 30
0.0
 11
1062.0
 21
1666.5
 31
0.0
  0
TEXT
  5
3A5
330
1F
100
AcDbEntity
  8
LAY-3
  6
CONTINUOUS
 62
     2
100
AcDbText
 10
533.5000000596046
 20
2278.4670299315
 30
0.0
 40
40.0
  1
^J１９８
 50
90.0
 41
1.029411764705882
  7
EXCADSTD
 72
     5
 11
533.5000000596046
 21
2378.4670299315
 31
0.0
100
AcDbText
  0
TEXT
  5
3A6
330
1F
100
AcDbEntity
  8
LAY-3
  6
CONTINUOUS
 62
     2
100
AcDbText
 10
533.5000000596046
 20
2373.4670299315
 30
0.0
 40
40.0
  1
^J
  7
EXCADSTD
 72
     5
 11
533.5000000596046
 21
2373.4670299315
 31
0.0
100
AcDbText
  0
LINE
  5
3A7
330
1F
100
AcDbEntity
  8
LAY-3
  6
CONTINUOUS
 62
     3
100
AcDbLine
 10
537.0
 20
2229.550536
 30
0.0
 11
537.0
 21
2427.383523863
 31
0.0
  0
LINE
  5
3A8
330
1F
100
AcDbEntity
  8
LAY-3
  6
CONTINUOUS
 62
     3
100
AcDbLine
 10
531.1666666666666
 20
2264.550536
 30
0.0
 11
536.9999999999999
 21
2229.550536
 31
0.0
  0
LINE
  5
3A9
330
1F
100
AcDbEntity
  8
LAY-3
  6
CONTINUOUS
 62
     3
100
AcDbLine
 10
536.9999999999999
 20
2229.550536
 30
0.0
 11
542.8333333333333
 21
2264.550536
 31
0.0
  0
LINE
  5
3AA
330
1F
100
AcDbEntity
  8
LAY-3
  6
CONTINUOUS
 62
     3
100
AcDbLine
 10
542.8333333333333
 20
2392.383523863
 30
0.0
 11
536.9999999999999
 21
2427.383523863
 31
0.0
  0
LINE
  5
3AB
330
1F
100
AcDbEntity
  8
LAY-3
  6
CONTINUOUS
 62
     3
100
AcDbLine
 10
536.9999999999999
 20
2427.383523863
 30
0.0
 11
531.1666666666665
 21
2392.383523863
 31
0.0
  0
TEXT
  5
3AC
330
1F
100
AcDbEntity
  8
LAY-3
  6
CONTINUOUS
 62
     2
100
AcDbText
 10
533.5000000596046
 20
2072.761016
 30
0.0
 40
40.0
  1
^J２１４
 50
90.0
 41
1.029411764705882
  7
EXCADSTD
 72
     5
 11
533.5000000596046
 21
2172.761016
 31
0.0
100
AcDbText
  0
TEXT
  5
3AD
330
1F
100
AcDbEntity
  8
LAY-3
  6
CONTINUOUS
 62
     2
100
AcDbText
 10
533.5000000596046
 20
2167.761016
 30
0.0
 40
40.0
  1
^J
  7
EXCADSTD
 72
     5
 11
533.5000000596046
 21
2167.761016
 31
0.0
100
AcDbText
  0
LINE
  5
3AE
330
1F
100
AcDbEntity
  8
LAY-3
  6
CONTINUOUS
 62
     3
100
AcDbLine
 10
537.0
 20
2015.971496
 30
0.0
 11
537.0
 21
2229.550536
 31
0.0
  0
LINE
  5
3AF
330
1F
100
AcDbEntity
  8
LAY-3
  6
CONTINUOUS
 62
     3
100
AcDbLine
 10
531.1666666666666
 20
2050.971496
 30
0.0
 11
536.9999999999999
 21
2015.971496
 31
0.0
  0
LINE
  5
3B0
330
1F
100
AcDbEntity
  8
LAY-3
  6
CONTINUOUS
 62
     3
100
AcDbLine
 10
536.9999999999999
 20
2015.971496
 30
0.0
 11
542.8333333333333
 21
2050.971496
 31
0.0
  0
LINE
  5
3B1
330
1F
100
AcDbEntity
  8
LAY-3
  6
CONTINUOUS
 62
     3
100
AcDbLine
 10
542.8333333333333
 20
2194.550536
 30
0.0
 11
536.9999999999999
 21
2229.550536
 31
0.0
  0
LINE
  5
3B2
330
1F
100
AcDbEntity
  8
LAY-3
  6
CONTINUOUS
 62
     3
100
AcDbLine
 10
536.9999999999999
 20
2229.550536
 30
0.0
 11
531.1666666666665
 21
2194.550536
 31
0.0
  0
TEXT
  5
3B3
330
1F
100
AcDbEntity
  8
LAY-3
  6
CONTINUOUS
 62
     2
100
AcDbText
 10
468.5000000596046
 20
2171.6775099315
 30
0.0
 40
40.0
  1
^J４１２
 50
90.00000000000004
 41
1.029411764705882
  7
EXCADSTD
 72
     5
 11
468.5000000596046
 21
2271.6775099315
 31
0.0
100
AcDbText
  0
TEXT
  5
3B4
330
1F
100
AcDbEntity
  8
LAY-3
  6
CONTINUOUS
 62
     2
100
AcDbText
 10
468.5000000596046
 20
2266.6775099315
 30
0.0
 40
40.0
  1
^J
  7
EXCADSTD
 72
     5
 11
468.5000000596046
 21
2266.6775099315
 31
0.0
100
AcDbText
  0
LINE
  5
3B5
330
1F
100
AcDbEntity
  8
LAY-3
  6
CONTINUOUS
 62
     3
100
AcDbLine
 10
472.0
 20
2015.971496
 30
0.0
 11
472.0
 21
2427.383523863
 31
0.0
  0
LINE
  5
3B6
330
1F
100
AcDbEntity
  8
LAY-3
  6
CONTINUOUS
 62
     3
100
AcDbLine
 10
466.1666666666666
 20
2050.971496
 30
0.0
 11
471.9999999999999
 21
2015.971496
 31
0.0
  0
LINE
  5
3B7
330
1F
100
AcDbEntity
  8
LAY-3
  6
CONTINUOUS
 62
     3
100
AcDbLine
 10
471.9999999999999
 20
2015.971496
 30
0.0
 11
477.8333333333333
 21
2050.971496
 31
0.0
  0
LINE
  5
3B8
330
1F
100
AcDbEntity
  8
LAY-3
  6
CONTINUOUS
 62
     3
100
AcDbLine
 10
477.8333333333332
 20
2392.383523863
 30
0.0
 11
471.9999999999999
 21
2427.383523863
 31
0.0
  0
LINE
  5
3B9
330
1F
100
AcDbEntity
  8
LAY-3
  6
CONTINUOUS
 62
     3
100
AcDbLine
 10
471.9999999999999
 20
2427.383523863
 30
0.0
 11
466.1666666666666
 21
2392.383523863
 31
0.0
  0
TEXT
  5
3BA
330
1F
100
AcDbEntity
  8
LAY-3
  6
CONTINUOUS
 62
     2
100
AcDbText
 10
819.3568769999999
 20
2490.499999940395
 30
0.0
 40
40.0
  1
^J４５０
 41
1.029411764705882
  7
EXCADSTD
 72
     5
 11
919.3568769999999
 21
2490.499999940395
 31
0.0
100
AcDbText
  0
TEXT
  5
3BB
330
1F
100
AcDbEntity
  8
LAY-3
  6
CONTINUOUS
 62
     2
100
AcDbText
 10
914.3568769999999
 20
2490.499999940395
 30
0.0
 40
40.0
  1
^J
  7
EXCADSTD
 72
     5
 11
914.3568769999999
 21
2490.499999940395
 31
0.0
100
AcDbText
  0
LINE
  5
3BC
330
1F
100
AcDbEntity
  8
LAY-3
  6
CONTINUOUS
 62
     3
100
AcDbLine
 10
644.901248
 20
2487.0
 30
0.0
 11
1093.812506
 21
2487.0
 31
0.0
  0
LINE
  5
3BD
330
1F
100
AcDbEntity
  8
LAY-3
  6
CONTINUOUS
 62
     3
100
AcDbLine
 10
679.9012479999999
 20
2492.833333333333
 30
0.0
 11
644.9012479999999
 21
2487.0
 31
0.0
  0
LINE
  5
3BE
330
1F
100
AcDbEntity
  8
LAY-3
  6
CONTINUOUS
 62
     3
100
AcDbLine
 10
644.9012479999999
 20
2487.0
 30
0.0
 11
679.9012479999999
 21
2481.166666666667
 31
0.0
  0
LINE
  5
3BF
330
1F
100
AcDbEntity
  8
LAY-3
  6
CONTINUOUS
 62
     3
100
AcDbLine
 10
1058.812506
 20
2481.166666666667
 30
0.0
 11
1093.812506
 21
2487.0
 31
0.0
  0
LINE
  5
3C0
330
1F
100
AcDbEntity
  8
LAY-3
  6
CONTINUOUS
 62
     3
100
AcDbLine
 10
1093.812506
 20
2487.0
 30
0.0
 11
1058.812506
 21
2492.833333333333
 31
0.0
  0
TEXT
  5
3C1
330
1F
100
AcDbEntity
  8
LAY-3
  6
CONTINUOUS
 62
     2
100
AcDbText
 10
792.2718699999999
 20
2555.499999940395
 30
0.0
 40
40.0
  1
^J５０４
 41
1.029411764705882
  7
EXCADSTD
 72
     5
 11
892.2718699999999
 21
2555.499999940395
 31
0.0
100
AcDbText
  0
TEXT
  5
3C2
330
1F
100
AcDbEntity
  8
LAY-3
  6
CONTINUOUS
 62
     2
100
AcDbText
 10
887.2718699999999
 20
2555.499999940395
 30
0.0
 40
40.0
  1
^J
  7
EXCADSTD
 72
     5
 11
887.2718699999999
 21
2555.499999940395
 31
0.0
100
AcDbText
  0
LINE
  5
3C3
330
1F
100
AcDbEntity
  8
LAY-3
  6
CONTINUOUS
 62
     3
100
AcDbLine
 10
590.731234
 20
2552.0
 30
0.0
 11
1093.812506
 21
2552.0
 31
0.0
  0
LINE
  5
3C4
330
1F
100
AcDbEntity
  8
LAY-3
  6
CONTINUOUS
 62
     3
100
AcDbLine
 10
625.7312339999999
 20
2557.833333333333
 30
0.0
 11
590.7312339999999
 21
2552.0
 31
0.0
  0
LINE
  5
3C5
330
1F
100
AcDbEntity
  8
LAY-3
  6
CONTINUOUS
 62
     3
100
AcDbLine
 10
590.7312339999999
 20
2552.0
 30
0.0
 11
625.7312339999999
 21
2546.166666666667
 31
0.0
  0
LINE
  5
3C6
330
1F
100
AcDbEntity
  8
LAY-3
  6
CONTINUOUS
 62
     3
100
AcDbLine
 10
1058.812506
 20
2546.166666666667
 30
0.0
 11
1093.812506
 21
2552.0
 31
0.0
  0
LINE
  5
3C7
330
1F
100
AcDbEntity
  8
LAY-3
  6
CONTINUOUS
 62
     3
100
AcDbLine
 10
1093.812506
 20
2552.0
 30
0.0
 11
1058.812506
 21
2557.833333333333
 31
0.0
  0
TEXT
  5
3C8
330
1F
100
AcDbEntity
  8
LAY-3
  6
CONTINUOUS
 62
     2
100
AcDbText
 10
940.5000000596048
 20
2179.550536
 30
0.0
 40
40.0
  1
^J２００
 50
90.0
 41
1.029411764705882
  7
EXCADSTD
 72
     5
 11
940.5000000596048
 21
2279.550536
 31
0.0
100
AcDbText
  0
TEXT
  5
3C9
330
1F
100
AcDbEntity
  8
LAY-3
  6
CONTINUOUS
 62
     2
100
AcDbText
 10
940.5000000596048
 20
2274.550536
 30
0.0
 40
40.0
  1
^J
  7
EXCADSTD
 72
     5
 11
940.5000000596048
 21
2274.550536
 31
0.0
100
AcDbText
  0
LINE
  5
3CA
330
1F
100
AcDbEntity
  8
LAY-3
  6
CONTINUOUS
 62
     3
100
AcDbLine
 10
944.0000000000001
 20
2129.486712562
 30
0.0
 11
944.0000000000001
 21
2329.614359438
 31
0.0
  0
LINE
  5
3CB
330
1F
100
AcDbEntity
  8
LAY-3
  6
CONTINUOUS
 62
     3
100
AcDbLine
 10
938.1666666666667
 20
2164.486712562
 30
0.0
 11
944.0
 21
2129.486712562
 31
0.0
  0
LINE
  5
3CC
330
1F
100
AcDbEntity
  8
LAY-3
  6
CONTINUOUS
 62
     3
100
AcDbLine
 10
944.0
 20
2129.486712562
 30
0.0
 11
949.8333333333334
 21
2164.486712562
 31
0.0
  0
LINE
  5
3CD
330
1F
100
AcDbEntity
  8
LAY-3
  6
CONTINUOUS
 62
     3
100
AcDbLine
 10
949.8333333333334
 20
2294.614359438
 30
0.0
 11
944.0
 21
2329.614359438
 31
0.0
  0
LINE
  5
3CE
330
1F
100
AcDbEntity
  8
LAY-3
  6
CONTINUOUS
 62
     3
100
AcDbLine
 10
944.0
 20
2329.614359438
 30
0.0
 11
938.1666666666666
 21
2294.614359438
 31
0.0
  0
TEXT
  5
3CF
330
1F
100
AcDbEntity
  8
LAY-3
  6
CONTINUOUS
 62
     2
100
AcDbText
 10
840.8125060000001
 20
1950.499999940396
 30
0.0
 40
40.0
  1
^J２７６
 41
1.029411764705882
  7
EXCADSTD
 72
     5
 11
940.8125060000001
 21
1950.499999940396
 31
0.0
100
AcDbText
  0
TEXT
  5
3D0
330
1F
100
AcDbEntity
  8
LAY-3
  6
CONTINUOUS
 62
     2
100
AcDbText
 10
935.8125060000001
 20
1950.499999940396
 30
0.0
 40
40.0
  1
^J
  7
EXCADSTD
 72
     5
 11
935.8125060000001
 21
1950.499999940396
 31
0.0
100
AcDbText
  0
LINE
  5
3D1
330
1F
100
AcDbEntity
  8
LAY-3
  6
CONTINUOUS
 62
     3
100
AcDbLine
 10
752.8125060000002
 20
1947.0
 30
0.0
 11
1028.812506
 21
1947.0
 31
0.0
  0
LINE
  5
3D2
330
1F
100
AcDbEntity
  8
LAY-3
  6
CONTINUOUS
 62
     3
100
AcDbLine
 10
787.812506
 20
1952.833333333334
 30
0.0
 11
752.812506
 21
1947.0
 31
0.0
  0
LINE
  5
3D3
330
1F
100
AcDbEntity
  8
LAY-3
  6
CONTINUOUS
 62
     3
100
AcDbLine
 10
752.812506
 20
1947.0
 30
0.0
 11
787.812506
 21
1941.166666666667
 31
0.0
  0
LINE
  5
3D4
330
1F
100
AcDbEntity
  8
LAY-3
  6
CONTINUOUS
 62
     3
100
AcDbLine
 10
993.812506
 20
1941.166666666667
 30
0.0
 11
1028.812506
 21
1947.0
 31
0.0
  0
LINE
  5
3D5
330
1F
100
AcDbEntity
  8
LAY-3
  6
CONTINUOUS
 62
     3
100
AcDbLine
 10
1028.812506
 20
1947.0
 30
0.0
 11
993.812506
 21
1952.833333333334
 31
0.0
  0
LINE
  5
3D6
330
1F
100
AcDbEntity
  8
LAY-3
  6
CONTINUOUS
 62
     3
100
AcDbLine
 10
600.6496434549001
 20
2427.383523863
 30
0.0
 11
451.9999999999999
 21
2427.383523863
 31
0.0
  0
LINE
  5
3D7
330
1F
100
AcDbEntity
  8
LAY-3
  6
CONTINUOUS
 62
     3
100
AcDbLine
 10
614.9311850000001
 20
2229.550536
 30
0.0
 11
516.9999999999999
 21
2229.550536
 31
0.0
  0
LINE
  5
3D8
330
1F
100
AcDbEntity
  8
LAY-3
  6
CONTINUOUS
 62
     3
100
AcDbLine
 10
1028.812506
 20
2229.550536
 30
0.0
 11
1028.812506
 21
1927.0
 31
0.0
  0
LINE
  5
3D9
330
1F
100
AcDbEntity
  8
LAY-3
  6
CONTINUOUS
 62
     3
100
AcDbLine
 10
752.812506
 20
2229.550536
 30
0.0
 11
752.812506
 21
1927.0
 31
0.0
  0
LINE
  5
3DA
330
1F
100
AcDbEntity
  8
LAY-3
  6
CONTINUOUS
 62
     3
100
AcDbLine
 10
852.8125060000002
 20
2329.614359438
 30
0.0
 11
964.0
 21
2329.614359438
 31
0.0
  0
LINE
  5
3DB
330
1F
100
AcDbEntity
  8
LAY-3
  6
CONTINUOUS
 62
     3
100
AcDbLine
 10
852.8125060000002
 20
2129.486712562
 30
0.0
 11
964.0
 21
2129.486712562
 31
0.0
  0
LINE
  5
3DC
330
1F
100
AcDbEntity
  8
LAY-3
  6
CONTINUOUS
 62
     3
100
AcDbLine
 10
1093.812506
 20
2229.550536
 30
0.0
 11
1093.812506
 21
2572.0
 31
0.0
  0
LINE
  5
3DD
330
1F
100
AcDbEntity
  8
LAY-3
  6
CONTINUOUS
 62
     3
100
AcDbLine
 10
590.7312339999999
 20
2417.384032
 30
0.0
 11
590.7312339999999
 21
2572.0
 31
0.0
  0
LINE
  5
3DE
330
1F
100
AcDbEntity
  8
LAY-3
  6
CONTINUOUS
 62
     3
100
AcDbLine
 10
644.9012479999999
 20
2274.550536
 30
0.0
 11
644.9012479999999
 21
2507.0
 31
0.0
  0
LINE
  5
3DF
330
1F
100
AcDbEntity
  8
LAY-3
  6
CONTINUOUS
 62
     3
100
AcDbLine
 10
621.7696119204999
 20
2015.971496
 30
0.0
 11
451.9999999999999
 21
2015.971496
 31
0.0
  0
DIMENSION
  5
3E1
330
1F
100
AcDbEntity
  8
LAY-3
  6
CONTINUOUS
 62
     3
100
AcDbDimension
  2
*D15
 10
1173.889043
 20
2430.550536
 30
0.0
 11
1148.889043
 21
2229.550536
 31
0.0
 70
   160
  3
ISO-25
100
AcDbAlignedDimension
 13
1028.812506
 23
2028.550536
 33
0.0
 14
1023.889043
 24
2430.550536
 34
0.0
 50
90.0
100
AcDbRotatedDimension
1001
ACAD
1000
DSTYLE
1002
{
1070
   270
1070
     2
1070
     6
1000
EX_NORM
1070
     7
1000
EX_NORM
1070
    41
1040
30.0
1070
    42
1040
0.0
1070
    44
1040
0.0
1070
    73
1070
     0
1070
    74
1070
     0
1070
    75
1070
     0
1070
    76
1070
     0
1070
    77
1070
     1
1070
    78
1070
     8
1070
   140
1040
40.0
1070
   147
1040
0.0
1070
   173
1070
     1
1070
   176
1070
     3
1070
   177
1070
     3
1070
   178
1070
     2
1070
   271
1070
     1
1070
   277
1070
     2
1070
   279
1070
     2
1070
   280
1070
     0
1070
   287
1070
     5
1070
   340
1005
3E0
1002
}
  0
DIMENSION
  5
3EF
330
1F
100
AcDbEntity
  8
LAY-3
  6
CONTINUOUS
 62
     3
100
AcDbDimension
  2
*D16
 10
1678.65878
 20
1283.910329
 30
0.0
 11
1608.65878
 21
1307.410328940395
 31
0.0
 70
   160
  1
140
  3
ISO-25
100
AcDbAlignedDimension
 13
1538.65878
 23
1378.210329
 33
0.0
 14
1678.65878
 24
1378.210329
 34
0.0
100
AcDbRotatedDimension
1001
ACAD
1000
DSTYLE
1002
{
1070
   270
1070
     2
1070
     6
1000
EX_NORM
1070
     7
1000
EX_NORM
1070
    41
1040
35.0
1070
    42
1040
22.69999980926514
1070
    44
1040
20.0
1070
    73
1070
     0
1070
    74
1070
     0
1070
    75
1070
     0
1070
    76
1070
     0
1070
    77
1070
     1
1070
    78
1070
     0
1070
   140
1040
40.0
1070
   147
1040
0.0
1070
   173
1070
     1
1070
   176
1070
     3
1070
   177
1070
     3
1070
   178
1070
     2
1070
   271
1070
     0
1070
   277
1070
     2
1070
   279
1070
     2
1070
   280
1070
     0
1070
   287
1070
     5
1070
   340
1005
3E0
1002
}
  0
DIMENSION
  5
3FC
330
1F
100
AcDbEntity
  8
LAY-3
  6
CONTINUOUS
 62
     3
100
AcDbDimension
  2
*D17
 10
1881.66715
 20
1364.710329
 30
0.0
 11
1858.167150059605
 21
1412.210329
 31
0.0
 70
   160
  1
（95）
  3
ISO-25
100
AcDbAlignedDimension
 13
1806.074795
 23
1459.710329
 33
0.0
 14
1683.185367
 24
1364.710329
 34
0.0
 50
90.0
100
AcDbRotatedDimension
1001
ACAD
1000
DSTYLE
1002
{
1070
   270
1070
     2
1070
     6
1000
EX_NORM
1070
     7
1000
EX_NORM
1070
    41
1040
30.0
1070
    42
1040
6.99999988079071
1070
    44
1040
10.0
1070
    73
1070
     0
1070
    74
1070
     0
1070
    75
1070
     0
1070
    76
1070
     0
1070
    77
1070
     1
1070
    78
1070
     0
1070
   140
1040
40.0
1070
   147
1040
0.0
1070
   173
1070
     1
1070
   176
1070
     3
1070
   177
1070
     3
1070
   178
1070
     2
1070
   271
1070
     0
1070
   277
1070
     2
1070
   279
1070
     2
1070
   280
1070
     0
1070
   287
1070
     5
1070
   340
1005
3E0
1002
}
  0
DIMENSION
  5
409
330
1F
100
AcDbEntity
  8
LAY-3
  6
CONTINUOUS
 62
     3
100
AcDbDimension
  2
*D18
 10
1879.66715
 20
1591.21039
 30
0.0
 11
1856.167150059605
 21
1525.4603595
 31
0.0
 70
   160
  1
131
  3
ISO-25
100
AcDbAlignedDimension
 13
1806.074795
 23
1459.710329
 33
0.0
 14
1608.65878
 24
1591.21039
 34
0.0
 50
90.0
100
AcDbRotatedDimension
1001
ACAD
1000
DSTYLE
1002
{
1070
   270
1070
     2
1070
     6
1000
EX_NORM
1070
     7
1000
EX_NORM
1070
    41
1040
30.0
1070
    42
1040
6.99999988079071
1070
    44
1040
10.0
1070
    73
1070
     0
1070
    74
1070
     0
1070
    75
1070
     1
1070
    76
1070
     0
1070
    77
1070
     1
1070
    78
1070
     0
1070
   140
1040
40.0
1070
   147
1040
0.0
1070
   173
1070
     1
1070
   176
1070
     3
1070
   177
1070
     3
1070
   178
1070
     2
1070
   271
1070
     0
1070
   277
1070
     2
1070
   279
1070
     2
1070
   280
1070
     0
1070
   287
1070
     5
1070
   340
1005
3E0
1002
}
  0
ENDSEC
  0
SECTION
  2
OBJECTS
  0
DICTIONARY
  5
C
330
0
100
AcDbDictionary
  3
ACAD_GROUP
350
D
  3
ACAD_LAYOUT
350
1A
  3
ACAD_MATERIAL
350
3B
  3
ACAD_MLEADERSTYLE
350
437
  3
ACAD_MLINESTYLE
350
17
  3
ACAD_PLOTSETTINGS
350
19
  3
ACAD_VISUALSTYLE
350
2A
  3
ACDBHEADERROUNDTRIPXREC
350
415
  3
ACDBVARIABLEDICTIONARY
350
435
  0
DICTIONARY
  5
D
102
{ACAD_REACTORS
330
C
102
}
330
C
100
AcDbDictionary
  0
DICTIONARY
  5
1A
102
{ACAD_REACTORS
330
C
102
}
330
C
100
AcDbDictionary
  0
DICTIONARY
  5
3B
102
{ACAD_REACTORS
330
C
102
}
330
C
100
AcDbDictionary
  3
BYBLOCK
350
3D
  3
BYLAYER
350
3C
  3
GLOBAL
350
3E
  0
DICTIONARY
  5
437
102
{ACAD_REACTORS
330
C
102
}
330
C
100
AcDbDictionary
  0
DICTIONARY
  5
17
102
{ACAD_REACTORS
330
C
102
}
330
C
100
AcDbDictionary
  3
STANDARD
350
18
  0
DICTIONARY
  5
19
102
{ACAD_REACTORS
330
C
102
}
330
C
100
AcDbDictionary
  0
DICTIONARY
  5
2A
102
{ACAD_REACTORS
330
C
102
}
330
C
100
AcDbDictionary
  3
2DWIREFRAME
350
2F
  3
3D_HIDDEN
350
31
  3
3DWIREFRAME
350
30
  3
BASIC
350
32
  3
BRIGHTEN
350
36
  3
COLORCHANGE
350
3A
  3
CONCEPTUAL
350
34
  3
DIM
350
35
  3
FACEPATTERN
350
39
  3
FLAT
350
2B
  3
FLATWITHEDGES
350
2C
  3
GOURAUD
350
2D
  3
GOURAUDWITHEDGES
350
2E
  3
LINEPATTERN
350
38
  3
REALISTIC
350
33
  3
THICKEN
350
37
  0
DICTIONARY
  5
415
102
{ACAD_REACTORS
330
C
102
}
330
C
100
AcDbDictionary
  3
CEPSNTYPE
350
41E
  3
DIMSTYLEDATA
350
434
  3
FINGERPRINTGUID
350
41F
  3
HYPERLINKBASE
350
418
  3
INSUNITS
350
41D
  3
LAYOUTDICT
350
41A
  3
LWETCUNION
350
41C
  3
PLOTSETDICT
350
41B
  3
PSVPSCALE
350
421
  3
PUCSBASE
350
424
  3
PUCSORGBACK
350
42A
  3
PUCSORGBOTTOM
350
426
  3
PUCSORGFRONT
350
429
  3
PUCSORGLEFT
350
427
  3
PUCSORGRIGHT
350
428
  3
PUCSORGTOP
350
425
  3
PUCSORTHOREF
350
422
  3
PUCSORTHOVIEW
350
423
  3
STYLESHEET
350
419
  3
TSTACKALIGN
350
416
  3
TSTACKSIZE
350
417
  3
UCSBASE
350
42D
  3
UCSORGBACK
350
433
  3
UCSORGBOTTOM
350
42F
  3
UCSORGFRONT
350
432
  3
UCSORGLEFT
350
430
  3
UCSORGRIGHT
350
431
  3
UCSORGTOP
350
42E
  3
UCSORTHOREF
350
42B
  3
UCSORTHOVIEW
350
42C
  3
VERSIONGUID
350
420
  0
DICTIONARY
  5
435
102
{ACAD_REACTORS
330
C
102
}
330
C
100
AcDbDictionary
  3
DIMASSOC
350
43A
  3
HIDETEXT
350
43B
  3
PSOLHEIGHT
350
439
  3
PSOLWIDTH
350
438
  0
MATERIAL
  5
3D
102
{ACAD_REACTORS
330
3B
102
}
102
{ACAD_XDICTIONARY
360
43E
102
}
330
3B
100
AcDbMaterial
  1
ByBlock
  0
MATERIAL
  5
3C
102
{ACAD_REACTORS
330
3B
102
}
102
{ACAD_XDICTIONARY
360
43C
102
}
330
3B
100
AcDbMaterial
  1
ByLayer
  0
MATERIAL
  5
3E
102
{ACAD_REACTORS
330
3B
102
}
102
{ACAD_XDICTIONARY
360
440
102
}
330
3B
100
AcDbMaterial
  1
Global
  0
MLINESTYLE
  5
18
102
{ACAD_REACTORS
330
17
102
}
330
17
100
AcDbMlineStyle
  2
Standard
 70
     0
  3

 62
   256
 51
90.0
 52
90.0
 71
     2
 49
0.5
 62
   256
  6
BYLAYER
 49
-0.5
 62
   256
  6
BYLAYER
  0
ACAD_PROXY_OBJECT
  5
2F
102
{ACAD_REACTORS
330
2A
102
}
330
2A
100
AcDbProxyObject
 90
      499
 91
      501
 93
      436
310
42CC9915DA5C99599C985B595049028333333333333E3BF0000000000000FB0107901411070040501600405405064090741402480A0340
1001
ACAD
1000
AcDbSavedByObjectVersion
1070
     0
  0
ACAD_PROXY_OBJECT
  5
31
102
{ACAD_REACTORS
330
2A
102
}
330
2A
100
AcDbProxyObject
 90
      499
 91
      501
 93
      500
310
424CD108121A5919195B90640502408333333333333E3BF0000000000000FB01079024090700405020000000000001110200405405064090740C02480A0340
1001
ACAD
1000
AcDbSavedByObjectVersion
1070
     0
  0
ACAD_PROXY_OBJECT
  5
30
102
{ACAD_REACTORS
330
2A
102
}
330
2A
100
AcDbProxyObject
 90
      499
 91
      501
 93
      436
310
42CCD915DA5C99599C985B595059028333333333333E3BF0000000000000FB0107901411070040501600405405064090741402480A0340
1001
ACAD
1000
AcDbSavedByObjectVersion
1070
     0
  0
ACAD_PROXY_OBJECT
  5
32
102
{ACAD_REACTORS
330
2A
102
}
330
2A
100
AcDbProxyObject
 90
      499
 91
      501
 93
      388
310
4150985CDA58D07406404333333333333E3BF0000000000000FB0107A41107004050150841D405064090741402480A0350
1001
ACAD
1000
AcDbSavedByObjectVersion
1070
     0
  0
ACAD_PROXY_OBJECT
  5
36
102
{ACAD_REACTORS
330
2A
102
}
330
2A
100
AcDbProxyObject
 90
      499
 91
      501
 93
      428
310
42109C9A59DA1D195B90C409028333333333333E3BF0000000000000FB010790141107004050150841D405064090741402480A029950
1001
ACAD
1000
AcDbSavedByObjectVersion
1070
     0
  0
ACAD_PROXY_OBJECT
  5
3A
102
{ACAD_REACTORS
330
2A
102
}
330
2A
100
AcDbProxyObject
 90
      499
 91
      501
 93
      452
310
42D0DBDB1BDC90DA185B99D95104090240C333333333333E3BF0000000000000FB0108901411070040501508421405064090741402480A0350
1001
ACAD
1000
AcDbSavedByObjectVersion
1070
     0
  0
ACAD_PROXY_OBJECT
  5
34
102
{ACAD_REACTORS
330
2A
102
}
330
2A
100
AcDbProxyObject
 90
      499
 91
      501
 93
      500
310
4290DBDB98D95C1D1D585B10940D028333333333333E3BF0000000000000FB0107902409070040501000000000000111010841D405064090740C02480A0340
1001
ACAD
1000
AcDbSavedByObjectVersion
1070
     0
  0
ACAD_PROXY_OBJECT
  5
35
102
{ACAD_REACTORS
330
2A
102
}
330
2A
100
AcDbProxyObject
 90
      499
 91
      501
 93
      412
310
40D11A5B50B409028333333333333E3BF0000000000000FB010790141107004050150841D405064090741402480A02677FFFFFD0
1001
ACAD
1000
AcDbSavedByObjectVersion
1070
     0
  0
ACAD_PROXY_OBJECT
  5
39
102
{ACAD_REACTORS
330
2A
102
}
330
2A
100
AcDbProxyObject
 90
      499
 91
      501
 93
      444
310
42D19858D95C185D1D195C9B90F409028333333333333E3BF0000000000000FB010790141107004050150841D405064090741402480A0350
1001
ACAD
1000
AcDbSavedByObjectVersion
1070
     0
  0
ACAD_PROXY_OBJECT
  5
2B
102
{ACAD_REACTORS
330
2A
102
}
330
2A
100
AcDbProxyObject
 90
      499
 91
      501
 93
      388
310
41119B185D240901404333333333333E3BF0000000000000F9010740A41107004050150841D405064090741402480A1B50
1001
ACAD
1000
AcDbSavedByObjectVersion
1070
     0
  0
ACAD_PROXY_OBJECT
  5
2C
102
{ACAD_REACTORS
330
2A
102
}
330
2A
100
AcDbProxyObject
 90
      499
 91
      501
 93
      476
310
43519B185D15DA5D1A115919D95CD0140901404333333333333E3BF0000000000000F9010740901411070040501600405405064090741402480A1B50
1001
ACAD
1000
AcDbSavedByObjectVersion
1070
     0
  0
ACAD_PROXY_OBJECT
  5
2D
102
{ACAD_REACTORS
330
2A
102
}
330
2A
100
AcDbProxyObject
 90
      499
 91
      501
 93
      412
310
41D1DBDD5C985D5910240902404333333333333E3BF0000000000000F9010740A411070040501641D405064090741402480A1B50
1001
ACAD
1000
AcDbSavedByObjectVersion
1070
     0
  0
ACAD_PROXY_OBJECT
  5
2E
102
{ACAD_REACTORS
330
2A
102
}
330
2A
100
AcDbProxyObject
 90
      499
 91
      501
 93
      500
310
4411DBDD5C985D5915DA5D1A115919D95CD0340902404333333333333E3BF0000000000000F9010740901411070040501600405405064090741402480A1B50
1001
ACAD
1000
AcDbSavedByObjectVersion
1070
     0
  0
ACAD_PROXY_OBJECT
  5
38
102
{ACAD_REACTORS
330
2A
102
}
330
2A
100
AcDbProxyObject
 90
      499
 91
      501
 93
      444
310
42D31A5B995C185D1D195C9B90E409028333333333333E3BF0000000000000FB010790141107004050750841D405064090741402483A0350
1001
ACAD
1000
AcDbSavedByObjectVersion
1070
     0
  0
ACAD_PROXY_OBJECT
  5
33
102
{ACAD_REACTORS
330
2A
102
}
330
2A
100
AcDbProxyObject
 90
      499
 91
      501
 93
      420
310
425499585B1A5CDD1A58D08409028333333333333E3BF0000000000000FB01079019070040501508421405064090741402480A1B40
1001
ACAD
1000
AcDbSavedByObjectVersion
1070
     0
  0
ACAD_PROXY_OBJECT
  5
37
102
{ACAD_REACTORS
330
2A
102
}
330
2A
100
AcDbProxyObject
 90
      499
 91
      501
 93
      412
310
41D51A1A58DAD95B90D409028333333333333E3BF0000000000000FB010790141107004050150C41D405064090741402480A0350
1001
ACAD
1000
AcDbSavedByObjectVersion
1070
     0
  0
XRECORD
  5
41E
102
{ACAD_REACTORS
330
415
102
}
330
415
100
AcDbXrecord
 90
        0
  0
XRECORD
  5
434
102
{ACAD_REACTORS
330
415
102
}
330
415
100
AcDbXrecord
1000
DSTYLE
1002
{
1070
   340
340
11
1002
}
  0
XRECORD
  5
41F
102
{ACAD_REACTORS
330
415
102
}
330
415
100
AcDbXrecord
  1
{22D41923-14D9-4DA4-9AE0-E93D15A7049F}
  0
XRECORD
  5
418
102
{ACAD_REACTORS
330
415
102
}
330
415
100
AcDbXrecord
  1

  0
XRECORD
  5
41D
102
{ACAD_REACTORS
330
415
102
}
330
415
100
AcDbXrecord
 90
        4
  0
XRECORD
  5
41A
102
{ACAD_REACTORS
330
415
102
}
330
415
100
AcDbXrecord
340
1A
  0
XRECORD
  5
41C
102
{ACAD_REACTORS
330
415
102
}
330
415
100
AcDbXrecord
 90
    10781
  0
XRECORD
  5
41B
102
{ACAD_REACTORS
330
415
102
}
330
415
100
AcDbXrecord
340
19
  0
XRECORD
  5
421
102
{ACAD_REACTORS
330
415
102
}
330
415
100
AcDbXrecord
 40
0.0
  0
XRECORD
  5
424
102
{ACAD_REACTORS
330
415
102
}
330
415
100
AcDbXrecord
340
0
  0
XRECORD
  5
42A
102
{ACAD_REACTORS
330
415
102
}
330
415
100
AcDbXrecord
 10
0.0
 20
0.0
 30
0.0
  0
XRECORD
  5
426
102
{ACAD_REACTORS
330
415
102
}
330
415
100
AcDbXrecord
 10
0.0
 20
0.0
 30
0.0
  0
XRECORD
  5
429
102
{ACAD_REACTORS
330
415
102
}
330
415
100
AcDbXrecord
 10
0.0
 20
0.0
 30
0.0
  0
XRECORD
  5
427
102
{ACAD_REACTORS
330
415
102
}
330
415
100
AcDbXrecord
 10
0.0
 20
0.0
 30
0.0
  0
XRECORD
  5
428
102
{ACAD_REACTORS
330
415
102
}
330
415
100
AcDbXrecord
 10
0.0
 20
0.0
 30
0.0
  0
XRECORD
  5
425
102
{ACAD_REACTORS
330
415
102
}
330
415
100
AcDbXrecord
 10
0.0
 20
0.0
 30
0.0
  0
XRECORD
  5
422
102
{ACAD_REACTORS
330
415
102
}
330
415
100
AcDbXrecord
340
0
  0
XRECORD
  5
423
102
{ACAD_REACTORS
330
415
102
}
330
415
100
AcDbXrecord
 70
     0
  0
XRECORD
  5
419
102
{ACAD_REACTORS
330
415
102
}
330
415
100
AcDbXrecord
  1

  0
XRECORD
  5
416
102
{ACAD_REACTORS
330
415
102
}
330
415
100
AcDbXrecord
 90
        1
  0
XRECORD
  5
417
102
{ACAD_REACTORS
330
415
102
}
330
415
100
AcDbXrecord
 90
       70
  0
XRECORD
  5
42D
102
{ACAD_REACTORS
330
415
102
}
330
415
100
AcDbXrecord
340
0
  0
XRECORD
  5
433
102
{ACAD_REACTORS
330
415
102
}
330
415
100
AcDbXrecord
 10
0.0
 20
0.0
 30
0.0
  0
XRECORD
  5
42F
102
{ACAD_REACTORS
330
415
102
}
330
415
100
AcDbXrecord
 10
0.0
 20
0.0
 30
0.0
  0
XRECORD
  5
432
102
{ACAD_REACTORS
330
415
102
}
330
415
100
AcDbXrecord
 10
0.0
 20
0.0
 30
0.0
  0
XRECORD
  5
430
102
{ACAD_REACTORS
330
415
102
}
330
415
100
AcDbXrecord
 10
0.0
 20
0.0
 30
0.0
  0
XRECORD
  5
431
102
{ACAD_REACTORS
330
415
102
}
330
415
100
AcDbXrecord
 10
0.0
 20
0.0
 30
0.0
  0
XRECORD
  5
42E
102
{ACAD_REACTORS
330
415
102
}
330
415
100
AcDbXrecord
 10
0.0
 20
0.0
 30
0.0
  0
XRECORD
  5
42B
102
{ACAD_REACTORS
330
415
102
}
330
415
100
AcDbXrecord
340
0
  0
XRECORD
  5
42C
102
{ACAD_REACTORS
330
415
102
}
330
415
100
AcDbXrecord
 70
     0
  0
XRECORD
  5
420
102
{ACAD_REACTORS
330
415
102
}
330
415
100
AcDbXrecord
  1
{FAEB1C32-E019-11D5-929B-00C0DF256EC4}
  0
DICTIONARYVAR
  5
43A
102
{ACAD_REACTORS
330
435
102
}
330
435
100
DictionaryVariables
280
     0
  1
2
  0
DICTIONARYVAR
  5
43B
102
{ACAD_REACTORS
330
435
102
}
330
435
100
DictionaryVariables
280
     0
  1
1
  0
DICTIONARYVAR
  5
439
102
{ACAD_REACTORS
330
435
102
}
330
435
100
DictionaryVariables
280
     0
  1
80.000000
  0
DICTIONARYVAR
  5
438
102
{ACAD_REACTORS
330
435
102
}
330
435
100
DictionaryVariables
280
     0
  1
5.000000
  0
DICTIONARY
  5
43E
330
3D
100
AcDbDictionary
280
     1
  3
ACAD_XREC_ROUNDTRIP
360
43F
  0
DICTIONARY
  5
43C
330
3C
100
AcDbDictionary
280
     1
  3
ACAD_XREC_ROUNDTRIP
360
43D
  0
DICTIONARY
  5
440
330
3E
100
AcDbDictionary
280
     1
  3
ACAD_XREC_ROUNDTRIP
360
441
  0
XRECORD
  5
43F
102
{ACAD_REACTORS
330
43E
102
}
330
43E
100
AcDbXrecord
102
MATERIAL
148
0.0
149
0.0
149
0.0
 93
        0
 94
      127
282
     0
 72
     1
 77
     1
171
     1
175
     1
179
     1
273
     0
  0
XRECORD
  5
43D
102
{ACAD_REACTORS
330
43C
102
}
330
43C
100
AcDbXrecord
102
MATERIAL
148
0.0
149
0.0
149
0.0
 93
        0
 94
      127
282
     0
 72
     1
 77
     1
171
     1
175
     1
179
     1
273
     0
  0
XRECORD
  5
441
102
{ACAD_REACTORS
330
440
102
}
330
440
100
AcDbXrecord
102
MATERIAL
148
0.0
149
0.0
149
0.0
 93
        0
 94
      127
282
     0
 72
     1
 77
     1
171
     1
175
     1
179
     1
273
     0
  0
ENDSEC
  0
EOF
