  0
SECTION
  2
HEADER
  9
$ACADVER
  1
AC1014
  9
$ACADMAINTVER
 70
     9
  9
$DWGCODEPAGE
  3
ANSI_932
  9
$INSBASE
 10
0.0
 20
0.0
 30
0.0
  9
$EXTMIN
 10
-102.551467
 20
10.0
 30
0.0
  9
$EXTMAX
 10
198.0
 20
286.0
 30
0.0
  9
$LIMMIN
 10
0.0
 20
0.0
  9
$LIMMAX
 10
210.0
 20
297.0
  9
$ORTHOMODE
 70
     0
  9
$REGENMODE
 70
     1
  9
$FILLMODE
 70
     1
  9
$QTEXTMODE
 70
     0
  9
$MIRRTEXT
 70
     1
  9
$DRAGMODE
 70
     2
  9
$LTSCALE
 40
1.0
  9
$OSMODE
 70
    37
  9
$ATTMODE
 70
     1
  9
$TEXTSIZE
 40
2.5
  9
$TRACEWID
 40
1.0
  9
$TEXTSTYLE
  7
STANDARD
  9
$CLAYER
  8
LAY-2
  9
$CELTYPE
  6
BYLAYER
  9
$CECOLOR
 62
   256
  9
$CELTSCALE
 40
1.0
  9
$DELOBJ
 70
     1
  9
$DISPSILH
 70
     0
  9
$DIMSCALE
 40
1.0
  9
$DIMASZ
 40
2.5
  9
$DIMEXO
 40
0.625
  9
$DIMDLI
 40
3.75
  9
$DIMRND
 40
0.0
  9
$DIMDLE
 40
0.0
  9
$DIMEXE
 40
1.25
  9
$DIMTP
 40
0.0
  9
$DIMTM
 40
0.0
  9
$DIMTXT
 40
2.5
  9
$DIMCEN
 40
2.5
  9
$DIMTSZ
 40
0.0
  9
$DIMTOL
 70
     0
  9
$DIMLIM
 70
     0
  9
$DIMTIH
 70
     0
  9
$DIMTOH
 70
     0
  9
$DIMSE1
 70
     0
  9
$DIMSE2
 70
     0
  9
$DIMTAD
 70
     1
  9
$DIMZIN
 70
     8
  9
$DIMBLK
  1

  9
$DIMASO
 70
     1
  9
$DIMSHO
 70
     1
  9
$DIMPOST
  1

  9
$DIMAPOST
  1

  9
$DIMALT
 70
     0
  9
$DIMALTD
 70
     3
  9
$DIMALTF
 40
0.03937007874016
  9
$DIMLFAC
 40
1.0
  9
$DIMTOFL
 70
     1
  9
$DIMTVP
 40
0.0
  9
$DIMTIX
 70
     0
  9
$DIMSOXD
 70
     0
  9
$DIMSAH
 70
     0
  9
$DIMBLK1
  1

  9
$DIMBLK2
  1

  9
$DIMSTYLE
  2
ISO-25
  9
$DIMCLRD
 70
     0
  9
$DIMCLRE
 70
     0
  9
$DIMCLRT
 70
     0
  9
$DIMTFAC
 40
1.0
  9
$DIMGAP
 40
0.625
  9
$DIMJUST
 70
     0
  9
$DIMSD1
 70
     0
  9
$DIMSD2
 70
     0
  9
$DIMTOLJ
 70
     0
  9
$DIMTZIN
 70
     8
  9
$DIMALTZ
 70
     0
  9
$DIMALTTZ
 70
     0
  9
$DIMFIT
 70
     3
  9
$DIMUPT
 70
     0
  9
$DIMUNIT
 70
     2
  9
$DIMDEC
 70
     2
  9
$DIMTDEC
 70
     2
  9
$DIMALTU
 70
     2
  9
$DIMALTTD
 70
     3
  9
$DIMTXSTY
  7
STANDARD
  9
$DIMAUNIT
 70
     0
  9
$LUNITS
 70
     2
  9
$LUPREC
 70
     4
  9
$SKETCHINC
 40
1.0
  9
$FILLETRAD
 40
10.0
  9
$AUNITS
 70
     0
  9
$AUPREC
 70
     0
  9
$MENU
  1
.
  9
$ELEVATION
 40
0.0
  9
$PELEVATION
 40
0.0
  9
$THICKNESS
 40
0.0
  9
$LIMCHECK
 70
     0
  9
$CHAMFERA
 40
10.0
  9
$CHAMFERB
 40
10.0
  9
$CHAMFERC
 40
20.0
  9
$CHAMFERD
 40
0.0
  9
$SKPOLY
 70
     0
  9
$TDCREATE
 40
2460368.452481921
  9
$TDUPDATE
 40
2460368.452482014
  9
$TDINDWG
 40
0.0000000116
  9
$TDUSRTIMER
 40
0.0000000116
  9
$USRTIMER
 70
     1
  9
$ANGBASE
 50
0.0
  9
$ANGDIR
 70
     0
  9
$PDMODE
 70
     0
  9
$PDSIZE
 40
0.0
  9
$PLINEWID
 40
0.0
  9
$COORDS
 70
     1
  9
$SPLFRAME
 70
     0
  9
$SPLINETYPE
 70
     6
  9
$SPLINESEGS
 70
     8
  9
$ATTDIA
 70
     0
  9
$ATTREQ
 70
     1
  9
$HANDLING
 70
     1
  9
$HANDSEED
  5
206
  9
$SURFTAB1
 70
     6
  9
$SURFTAB2
 70
     6
  9
$SURFTYPE
 70
     6
  9
$SURFU
 70
     6
  9
$SURFV
 70
     6
  9
$UCSNAME
  2

  9
$UCSORG
 10
0.0
 20
0.0
 30
0.0
  9
$UCSXDIR
 10
1.0
 20
0.0
 30
0.0
  9
$UCSYDIR
 10
0.0
 20
1.0
 30
0.0
  9
$PUCSNAME
  2

  9
$PUCSORG
 10
0.0
 20
0.0
 30
0.0
  9
$PUCSXDIR
 10
1.0
 20
0.0
 30
0.0
  9
$PUCSYDIR
 10
0.0
 20
1.0
 30
0.0
  9
$USERI1
 70
     0
  9
$USERI2
 70
     0
  9
$USERI3
 70
     0
  9
$USERI4
 70
     0
  9
$USERI5
 70
     0
  9
$USERR1
 40
0.0
  9
$USERR2
 40
0.0
  9
$USERR3
 40
0.0
  9
$USERR4
 40
0.0
  9
$USERR5
 40
0.0
  9
$WORLDVIEW
 70
     1
  9
$SHADEDGE
 70
     3
  9
$SHADEDIF
 70
    70
  9
$TILEMODE
 70
     1
  9
$MAXACTVP
 70
    64
  9
$PINSBASE
 10
0.0
 20
0.0
 30
0.0
  9
$PLIMCHECK
 70
     0
  9
$PEXTMIN
 10
1.000000000000000E+20
 20
1.000000000000000E+20
 30
1.000000000000000E+20
  9
$PEXTMAX
 10
-1.000000000000000E+20
 20
-1.000000000000000E+20
 30
-1.000000000000000E+20
  9
$PLIMMIN
 10
0.0
 20
0.0
  9
$PLIMMAX
 10
420.0
 20
297.0
  9
$UNITMODE
 70
     0
  9
$VISRETAIN
 70
     1
  9
$PLINEGEN
 70
     0
  9
$PSLTSCALE
 70
     1
  9
$TREEDEPTH
 70
  3020
  9
$PICKSTYLE
 70
     1
  9
$CMLSTYLE
  2
STANDARD
  9
$CMLJUST
 70
     0
  9
$CMLSCALE
 40
20.0
  9
$PROXYGRAPHICS
 70
     1
  9
$MEASUREMENT
 70
     1
  0
ENDSEC
  0
SECTION
  2
CLASSES
  0
CLASS
  1
ACDBDICTIONARYWDFLT
  2
AcDbDictionaryWithDefault
  3
ObjectDBX Classes
 90
        0
280
     0
281
     0
  0
CLASS
  1
VISUALSTYLE
  2
AcDbVisualStyle
  3
ObjectDBX Classes
 90
     4095
280
     0
281
     0
  0
CLASS
  1
MATERIAL
  2
AcDbMaterial
  3
ObjectDBX Classes
 90
     1153
280
     0
281
     0
  0
CLASS
  1
SUN
  2
AcDbSun
  3
SCENEOE
 90
     1024
280
     0
281
     0
  0
CLASS
  1
DICTIONARYVAR
  2
AcDbDictionaryVar
  3
ObjectDBX Classes
 90
        0
280
     0
281
     0
  0
CLASS
  1
XRECORD
  2
AcDbXrecord
  3
AutoCAD 2000
 90
        0
280
     0
281
     0
  0
CLASS
  1
LWPOLYLINE
  2
AcDbPolyline
  3
AutoCAD 2000
 90
        0
280
     0
281
     1
  0
CLASS
  1
HATCH
  2
AcDbHatch
  3
AutoCAD 2000
 90
        0
280
     0
281
     1
  0
CLASS
  1
ACDBPLACEHOLDER
  2
AcDbPlaceHolder
  3
ObjectDBX Classes
 90
        0
280
     0
281
     0
  0
CLASS
  1
LAYOUT
  2
AcDbLayout
  3
ObjectDBX Classes
 90
        0
280
     0
281
     0
  0
ENDSEC
  0
SECTION
  2
TABLES
  0
TABLE
  2
VPORT
  5
8
330
0
100
AcDbSymbolTable
 70
     1
  0
VPORT
  5
29
330
8
100
AcDbSymbolTableRecord
100
AcDbViewportTableRecord
  2
*ACTIVE
 70
     0
 10
0.0
 20
0.0
 11
1.0
 21
1.0
 12
95.44853300000005
 22
296.0
 13
0.0
 23
0.0
 14
10.0
 24
10.0
 15
10.0
 25
10.0
 16
0.0
 26
0.0
 36
1.0
 17
0.0
 27
0.0
 37
0.0
 40
552.0
 41
1.08895459057971
 42
50.0
 43
0.0
 44
0.0
 50
0.0
 51
0.0
 71
     0
 72
  1000
 73
     1
 74
     3
 75
     0
 76
     0
 77
     0
 78
     0
  0
ENDTAB
  0
TABLE
  2
LTYPE
  5
5
330
0
100
AcDbSymbolTable
 70
     7
  0
LTYPE
  5
14
330
5
100
AcDbSymbolTableRecord
100
AcDbLinetypeTableRecord
  2
BYBLOCK
 70
     0
  3

 72
    65
 73
     0
 40
0.0
  0
LTYPE
  5
15
330
5
100
AcDbSymbolTableRecord
100
AcDbLinetypeTableRecord
  2
BYLAYER
 70
     0
  3

 72
    65
 73
     0
 40
0.0
  0
LTYPE
  5
16
330
5
100
AcDbSymbolTableRecord
100
AcDbLinetypeTableRecord
  2
CONTINUOUS
 70
     0
  3
Solid line
 72
    65
 73
     0
 40
0.0
  0
LTYPE
  5
40
330
5
100
AcDbSymbolTableRecord
100
AcDbLinetypeTableRecord
  2
EXLTYPE1
 70
     0
  3
破線
 72
    65
 73
     2
 40
3.0
 49
2.0
 74
     0
 49
-1.0
 74
     0
  0
LTYPE
  5
41
330
5
100
AcDbSymbolTableRecord
100
AcDbLinetypeTableRecord
  2
EXLTYPE2
 70
     0
  3
点線
 72
    65
 73
     2
 40
2.0
 49
1.0
 74
     0
 49
-1.0
 74
     0
  0
LTYPE
  5
42
330
5
100
AcDbSymbolTableRecord
100
AcDbLinetypeTableRecord
  2
EXLTYPE3
 70
     0
  3
一点鎖線
 72
    65
 73
     4
 40
10.0
 49
7.0
 74
     0
 49
-1.0
 74
     0
 49
1.0
 74
     0
 49
-1.0
 74
     0
  0
LTYPE
  5
43
330
5
100
AcDbSymbolTableRecord
100
AcDbLinetypeTableRecord
  2
EXLTYPE4
 70
     0
  3
二点鎖線
 72
    65
 73
     6
 40
12.0
 49
7.0
 74
     0
 49
-1.0
 74
     0
 49
1.0
 74
     0
 49
-1.0
 74
     0
 49
1.0
 74
     0
 49
-1.0
 74
     0
  0
LTYPE
  5
44
330
5
100
AcDbSymbolTableRecord
100
AcDbLinetypeTableRecord
  2
EXLTYPE5
 70
     0
  3
三点鎖線
 72
    65
 73
     8
 40
37.0
 49
30.0
 74
     0
 49
-1.0
 74
     0
 49
1.0
 74
     0
 49
-1.0
 74
     0
 49
1.0
 74
     0
 49
-1.0
 74
     0
 49
1.0
 74
     0
 49
-1.0
 74
     0
  0
LTYPE
  5
45
330
5
100
AcDbSymbolTableRecord
100
AcDbLinetypeTableRecord
  2
EXLTYPE6
 70
     0
  3
四点鎖線
 72
    65
 73
    10
 40
39.0
 49
30.0
 74
     0
 49
-1.0
 74
     0
 49
1.0
 74
     0
 49
-1.0
 74
     0
 49
1.0
 74
     0
 49
-1.0
 74
     0
 49
1.0
 74
     0
 49
-1.0
 74
     0
 49
1.0
 74
     0
 49
-1.0
 74
     0
  0
ENDTAB
  0
TABLE
  2
LAYER
  5
2
330
0
100
AcDbSymbolTable
 70
     4
  0
LAYER
  5
10
330
2
100
AcDbSymbolTableRecord
100
AcDbLayerTableRecord
  2
0
 70
     0
 62
     7
  6
CONTINUOUS
  0
LAYER
  5
48
330
2
100
AcDbSymbolTableRecord
100
AcDbLayerTableRecord
  2
LAY-1
 70
     0
 62
     7
  6
CONTINUOUS
  0
LAYER
  5
49
330
2
100
AcDbSymbolTableRecord
100
AcDbLayerTableRecord
  2
LAY-2
 70
     0
 62
     7
  6
CONTINUOUS
  0
LAYER
  5
112
330
2
100
AcDbSymbolTableRecord
100
AcDbLayerTableRecord
  2
DEFPOINTS
 70
     0
 62
     7
  6
CONTINUOUS
  0
ENDTAB
  0
TABLE
  2
STYLE
  5
3
330
0
100
AcDbSymbolTable
 70
     6
  0
STYLE
  5
11
330
3
100
AcDbSymbolTableRecord
100
AcDbTextStyleTableRecord
  2
STANDARD
 70
     0
 40
0.0
 41
1.0
 50
0.0
 71
     0
 42
2.5
  3
monotxt
  4
extfont
  0
STYLE
  5
46
330
3
100
AcDbSymbolTableRecord
100
AcDbTextStyleTableRecord
  2
EXCADSTD
 70
     0
 40
0.0
 41
1.0
 50
0.0
 71
     0
 42
0.2
  3
monotxt
  4
extfont
  0
STYLE
  5
47
330
3
100
AcDbSymbolTableRecord
100
AcDbTextStyleTableRecord
  2
EXCADVERT
 70
     4
 40
0.0
 41
1.0
 50
0.0
 71
     0
 42
0.286885
  3
monotxt
  4
extfont
  0
STYLE
  5
FC
330
3
100
AcDbSymbolTableRecord
100
AcDbTextStyleTableRecord
  2
EXCADTTF1
 70
     0
 40
0.0
 41
1.0
 50
0.0
 71
     0
 42
0.2
  3
MSGOTHIC.TTC
  4

1001
ACAD
1000
MS Gothic
1071
    32817
  0
STYLE
  5
110
330
3
100
AcDbSymbolTableRecord
100
AcDbTextStyleTableRecord
  2
EXCADDIM1
 70
     0
 40
0.0
 41
0.84
 50
0.0
 71
     0
 42
0.2
  3
monotxt
  4
extfont
  0
STYLE
  5
134
330
3
100
AcDbSymbolTableRecord
100
AcDbTextStyleTableRecord
  2
EXCADDIM2
 70
     0
 40
0.0
 41
0.95
 50
0.0
 71
     0
 42
0.2
  3
monotxt
  4
extfont
  0
ENDTAB
  0
TABLE
  2
VIEW
  5
6
330
0
100
AcDbSymbolTable
 70
     0
  0
ENDTAB
  0
TABLE
  2
UCS
  5
7
330
0
100
AcDbSymbolTable
 70
     0
  0
ENDTAB
  0
TABLE
  2
APPID
  5
9
330
0
100
AcDbSymbolTable
 70
     1
  0
APPID
  5
12
330
9
100
AcDbSymbolTableRecord
100
AcDbRegAppTableRecord
  2
ACAD
 70
     0
  0
ENDTAB
  0
TABLE
  2
DIMSTYLE
  5
A
330
0
100
AcDbSymbolTable
 70
     1
  0
DIMSTYLE
105
27
102
{ACAD_REACTORS
330
111
330
135
330
142
102
}
330
A
100
AcDbSymbolTableRecord
100
AcDbDimStyleTableRecord
  2
ISO-25
 70
     0
  3

  4

  5

  6

  7

 40
1.0
 41
2.5
 42
0.625
 43
3.75
 44
1.25
 45
0.0
 46
0.0
 47
0.0
 48
0.0
140
2.5
141
2.5
142
0.0
143
0.03937007874016
144
1.0
145
0.0
146
1.0
147
0.625
 71
     0
 72
     0
 73
     0
 74
     0
 75
     0
 76
     0
 77
     1
 78
     8
170
     0
171
     3
172
     1
173
     0
174
     0
175
     0
176
     0
177
     0
178
     0
270
     2
271
     2
272
     2
273
     2
274
     3
340
11
275
     0
280
     0
281
     0
282
     0
283
     0
284
     8
285
     0
286
     0
287
     5
288
     0
  0
ENDTAB
  0
TABLE
  2
BLOCK_RECORD
  5
1
330
0
100
AcDbSymbolTable
 70
    18
  0
BLOCK_RECORD
  5
1F
330
1
100
AcDbSymbolTableRecord
100
AcDbBlockTableRecord
  2
*MODEL_SPACE
  0
BLOCK_RECORD
  5
1B
330
1
100
AcDbSymbolTableRecord
100
AcDbBlockTableRecord
  2
*PAPER_SPACE
  0
BLOCK_RECORD
  5
4A
330
1
100
AcDbSymbolTableRecord
100
AcDbBlockTableRecord
  2
EX_NORM
  0
BLOCK_RECORD
  5
4D
330
1
100
AcDbSymbolTableRecord
100
AcDbBlockTableRecord
  2
EX_BNORM
  0
BLOCK_RECORD
  5
50
330
1
100
AcDbSymbolTableRecord
100
AcDbBlockTableRecord
  2
EX_BCIR
  0
BLOCK_RECORD
  5
53
330
1
100
AcDbSymbolTableRecord
100
AcDbBlockTableRecord
  2
EX_RCIVIL
  0
BLOCK_RECORD
  5
56
330
1
100
AcDbSymbolTableRecord
100
AcDbBlockTableRecord
  2
EX_SLANT
  0
BLOCK_RECORD
  5
59
330
1
100
AcDbSymbolTableRecord
100
AcDbBlockTableRecord
  2
EX_NONE
  0
BLOCK_RECORD
  5
5C
330
1
100
AcDbSymbolTableRecord
100
AcDbBlockTableRecord
  2
EX_CIVIL
  0
BLOCK_RECORD
  5
5F
330
1
100
AcDbSymbolTableRecord
100
AcDbBlockTableRecord
  2
EX_WCIR
  0
BLOCK_RECORD
  5
62
330
1
100
AcDbSymbolTableRecord
100
AcDbBlockTableRecord
  2
EX_WCIR2
  0
BLOCK_RECORD
  5
65
330
1
100
AcDbSymbolTableRecord
100
AcDbBlockTableRecord
  2
EX_WNORM
  0
BLOCK_RECORD
  5
68
330
1
100
AcDbSymbolTableRecord
100
AcDbBlockTableRecord
  2
EX_NNORM
  0
BLOCK_RECORD
  5
6B
330
1
100
AcDbSymbolTableRecord
100
AcDbBlockTableRecord
  2
EX_BBOX
  0
BLOCK_RECORD
  5
6E
330
1
100
AcDbSymbolTableRecord
100
AcDbBlockTableRecord
  2
EX_WBOX
  0
BLOCK_RECORD
  5
71
330
1
100
AcDbSymbolTableRecord
100
AcDbBlockTableRecord
  2
EX_INTEGRAL
  0
BLOCK_RECORD
  5
113
330
1
100
AcDbSymbolTableRecord
100
AcDbBlockTableRecord
  2
*D15
  0
BLOCK_RECORD
  5
136
330
1
100
AcDbSymbolTableRecord
100
AcDbBlockTableRecord
  2
*D16
  0
BLOCK_RECORD
  5
143
330
1
100
AcDbSymbolTableRecord
100
AcDbBlockTableRecord
  2
*D17
  0
ENDTAB
  0
ENDSEC
  0
SECTION
  2
BLOCKS
  0
BLOCK
  5
20
330
1F
100
AcDbEntity
  8
0
100
AcDbBlockBegin
  2
*MODEL_SPACE
 70
     0
 10
0.0
 20
0.0
 30
0.0
  3
*MODEL_SPACE
  1

  0
ENDBLK
  5
21
330
1F
100
AcDbEntity
  8
0
100
AcDbBlockEnd
  0
BLOCK
  5
1C
330
1B
100
AcDbEntity
 67
     1
  8
0
100
AcDbBlockBegin
  2
*PAPER_SPACE
 70
     0
 10
0.0
 20
0.0
 30
0.0
  3
*PAPER_SPACE
  1

  0
ENDBLK
  5
1D
330
1B
100
AcDbEntity
 67
     1
  8
0
100
AcDbBlockEnd
  0
BLOCK
  5
4B
330
4A
100
AcDbEntity
  8
0
100
AcDbBlockBegin
  2
EX_NORM
 70
     0
 10
0.0
 20
0.0
 30
0.0
  3
EX_NORM
  1

  0
LINE
  5
74
330
4A
100
AcDbEntity
  8
0
  6
CONTINUOUS
 62
     0
100
AcDbLine
 10
0.0
 20
0.0
 30
0.0
 11
-1.0
 21
0.0
 31
0.0
  0
LINE
  5
75
330
4A
100
AcDbEntity
  8
0
  6
CONTINUOUS
 62
     0
100
AcDbLine
 10
0.0
 20
0.0
 30
0.0
 11
-1.0
 21
0.166666667
 31
0.0
  0
LINE
  5
76
330
4A
100
AcDbEntity
  8
0
  6
CONTINUOUS
 62
     0
100
AcDbLine
 10
0.0
 20
0.0
 30
0.0
 11
-1.0
 21
-0.166666667
 31
0.0
  0
ENDBLK
  5
4C
330
4A
100
AcDbEntity
  8
0
100
AcDbBlockEnd
  0
BLOCK
  5
4E
330
4D
100
AcDbEntity
  8
0
100
AcDbBlockBegin
  2
EX_BNORM
 70
     0
 10
0.0
 20
0.0
 30
0.0
  3
EX_BNORM
  1

  0
LINE
  5
77
330
4D
100
AcDbEntity
  8
0
  6
CONTINUOUS
 62
     0
100
AcDbLine
 10
0.0
 20
0.0
 30
0.0
 11
-1.0
 21
0.0
 31
0.0
  0
LINE
  5
78
330
4D
100
AcDbEntity
  8
0
  6
CONTINUOUS
 62
     0
100
AcDbLine
 10
0.0
 20
0.0
 30
0.0
 11
-1.0
 21
0.166666667
 31
0.0
  0
LINE
  5
79
330
4D
100
AcDbEntity
  8
0
  6
CONTINUOUS
 62
     0
100
AcDbLine
 10
0.0
 20
0.0
 30
0.0
 11
-1.0
 21
-0.166666667
 31
0.0
  0
LINE
  5
7A
330
4D
100
AcDbEntity
  8
0
  6
CONTINUOUS
 62
     0
100
AcDbLine
 10
0.0
 20
0.0
 30
0.0
 11
-1.0
 21
0.083333333
 31
0.0
  0
LINE
  5
7B
330
4D
100
AcDbEntity
  8
0
  6
CONTINUOUS
 62
     0
100
AcDbLine
 10
0.0
 20
0.0
 30
0.0
 11
-1.0
 21
-0.083333333
 31
0.0
  0
LINE
  5
7C
330
4D
100
AcDbEntity
  8
0
  6
CONTINUOUS
 62
     0
100
AcDbLine
 10
-1.0
 20
0.166666667
 30
0.0
 11
-1.0
 21
-0.166666667
 31
0.0
  0
ENDBLK
  5
4F
330
4D
100
AcDbEntity
  8
0
100
AcDbBlockEnd
  0
BLOCK
  5
51
330
50
100
AcDbEntity
  8
0
100
AcDbBlockBegin
  2
EX_BCIR
 70
     0
 10
0.0
 20
0.0
 30
0.0
  3
EX_BCIR
  1

  0
LINE
  5
7D
330
50
100
AcDbEntity
  8
0
  6
CONTINUOUS
 62
     0
100
AcDbLine
 10
0.0
 20
0.0
 30
0.0
 11
-1.0
 21
0.0
 31
0.0
  0
CIRCLE
  5
7E
330
50
100
AcDbEntity
  8
0
  6
CONTINUOUS
 62
     0
100
AcDbCircle
 10
0.0
 20
0.0
 30
0.0
 40
0.5
  0
CIRCLE
  5
7F
330
50
100
AcDbEntity
  8
0
  6
CONTINUOUS
 62
     0
100
AcDbCircle
 10
0.0
 20
0.0
 30
0.0
 40
0.25
  0
ENDBLK
  5
52
330
50
100
AcDbEntity
  8
0
100
AcDbBlockEnd
  0
BLOCK
  5
54
330
53
100
AcDbEntity
  8
0
100
AcDbBlockBegin
  2
EX_RCIVIL
 70
     0
 10
0.0
 20
0.0
 30
0.0
  3
EX_RCIVIL
  1

  0
LINE
  5
80
330
53
100
AcDbEntity
  8
0
  6
CONTINUOUS
 62
     0
100
AcDbLine
 10
0.0
 20
0.0
 30
0.0
 11
-1.0
 21
0.0
 31
0.0
  0
LINE
  5
81
330
53
100
AcDbEntity
  8
0
  6
CONTINUOUS
 62
     0
100
AcDbLine
 10
-1.0
 20
-0.25
 30
0.0
 11
0.0
 21
-0.25
 31
0.0
  0
LINE
  5
82
330
53
100
AcDbEntity
  8
0
  6
CONTINUOUS
 62
     0
100
AcDbLine
 10
-1.0
 20
-0.125
 30
0.0
 11
0.0
 21
-0.125
 31
0.0
  0
ENDBLK
  5
55
330
53
100
AcDbEntity
  8
0
100
AcDbBlockEnd
  0
BLOCK
  5
57
330
56
100
AcDbEntity
  8
0
100
AcDbBlockBegin
  2
EX_SLANT
 70
     0
 10
0.0
 20
0.0
 30
0.0
  3
EX_SLANT
  1

  0
LINE
  5
83
330
56
100
AcDbEntity
  8
0
  6
CONTINUOUS
 62
     0
100
AcDbLine
 10
0.0
 20
0.0
 30
0.0
 11
-1.0
 21
0.0
 31
0.0
  0
LINE
  5
84
330
56
100
AcDbEntity
  8
0
  6
CONTINUOUS
 62
     0
100
AcDbLine
 10
0.707106781
 20
0.707106781
 30
0.0
 11
-0.707106781
 21
-0.707106781
 31
0.0
  0
ENDBLK
  5
58
330
56
100
AcDbEntity
  8
0
100
AcDbBlockEnd
  0
BLOCK
  5
5A
330
59
100
AcDbEntity
  8
0
100
AcDbBlockBegin
  2
EX_NONE
 70
     0
 10
0.0
 20
0.0
 30
0.0
  3
EX_NONE
  1

  0
LINE
  5
85
330
59
100
AcDbEntity
  8
0
  6
CONTINUOUS
 62
     0
100
AcDbLine
 10
0.0
 20
0.0
 30
0.0
 11
-1.0
 21
0.0
 31
0.0
  0
ENDBLK
  5
5B
330
59
100
AcDbEntity
  8
0
100
AcDbBlockEnd
  0
BLOCK
  5
5D
330
5C
100
AcDbEntity
  8
0
100
AcDbBlockBegin
  2
EX_CIVIL
 70
     0
 10
0.0
 20
0.0
 30
0.0
  3
EX_CIVIL
  1

  0
LINE
  5
86
330
5C
100
AcDbEntity
  8
0
  6
CONTINUOUS
 62
     0
100
AcDbLine
 10
0.0
 20
0.0
 30
0.0
 11
-1.0
 21
0.0
 31
0.0
  0
LINE
  5
87
330
5C
100
AcDbEntity
  8
0
  6
CONTINUOUS
 62
     0
100
AcDbLine
 10
-1.0
 20
0.25
 30
0.0
 11
0.0
 21
0.25
 31
0.0
  0
LINE
  5
88
330
5C
100
AcDbEntity
  8
0
  6
CONTINUOUS
 62
     0
100
AcDbLine
 10
-1.0
 20
0.125
 30
0.0
 11
0.0
 21
0.125
 31
0.0
  0
ENDBLK
  5
5E
330
5C
100
AcDbEntity
  8
0
100
AcDbBlockEnd
  0
BLOCK
  5
60
330
5F
100
AcDbEntity
  8
0
100
AcDbBlockBegin
  2
EX_WCIR
 70
     0
 10
0.0
 20
0.0
 30
0.0
  3
EX_WCIR
  1

  0
LINE
  5
89
330
5F
100
AcDbEntity
  8
0
  6
CONTINUOUS
 62
     0
100
AcDbLine
 10
0.0
 20
0.0
 30
0.0
 11
-1.0
 21
0.0
 31
0.0
  0
CIRCLE
  5
8A
330
5F
100
AcDbEntity
  8
0
  6
CONTINUOUS
 62
     0
100
AcDbCircle
 10
0.0
 20
0.0
 30
0.0
 40
0.5
  0
ENDBLK
  5
61
330
5F
100
AcDbEntity
  8
0
100
AcDbBlockEnd
  0
BLOCK
  5
63
330
62
100
AcDbEntity
  8
0
100
AcDbBlockBegin
  2
EX_WCIR2
 70
     0
 10
0.0
 20
0.0
 30
0.0
  3
EX_WCIR2
  1

  0
LINE
  5
8B
330
62
100
AcDbEntity
  8
0
  6
CONTINUOUS
 62
     0
100
AcDbLine
 10
-0.5
 20
0.0
 30
0.0
 11
-1.0
 21
0.0
 31
0.0
  0
CIRCLE
  5
8C
330
62
100
AcDbEntity
  8
0
  6
CONTINUOUS
 62
     0
100
AcDbCircle
 10
0.0
 20
0.0
 30
0.0
 40
0.5
  0
ENDBLK
  5
64
330
62
100
AcDbEntity
  8
0
100
AcDbBlockEnd
  0
BLOCK
  5
66
330
65
100
AcDbEntity
  8
0
100
AcDbBlockBegin
  2
EX_WNORM
 70
     0
 10
0.0
 20
0.0
 30
0.0
  3
EX_WNORM
  1

  0
LINE
  5
8D
330
65
100
AcDbEntity
  8
0
  6
CONTINUOUS
 62
     0
100
AcDbLine
 10
-1.0
 20
0.0
 30
0.0
 11
-1.0
 21
0.0
 31
0.0
  0
LINE
  5
8E
330
65
100
AcDbEntity
  8
0
  6
CONTINUOUS
 62
     0
100
AcDbLine
 10
0.0
 20
0.0
 30
0.0
 11
-1.0
 21
0.166666667
 31
0.0
  0
LINE
  5
8F
330
65
100
AcDbEntity
  8
0
  6
CONTINUOUS
 62
     0
100
AcDbLine
 10
0.0
 20
0.0
 30
0.0
 11
-1.0
 21
-0.166666667
 31
0.0
  0
LINE
  5
90
330
65
100
AcDbEntity
  8
0
  6
CONTINUOUS
 62
     0
100
AcDbLine
 10
-1.0
 20
0.166666667
 30
0.0
 11
-1.0
 21
-0.166666667
 31
0.0
  0
ENDBLK
  5
67
330
65
100
AcDbEntity
  8
0
100
AcDbBlockEnd
  0
BLOCK
  5
69
330
68
100
AcDbEntity
  8
0
100
AcDbBlockBegin
  2
EX_NNORM
 70
     0
 10
0.0
 20
0.0
 30
0.0
  3
EX_NNORM
  1

  0
LINE
  5
91
330
68
100
AcDbEntity
  8
0
  6
CONTINUOUS
 62
     0
100
AcDbLine
 10
0.0
 20
0.0
 30
0.0
 11
-1.0
 21
0.0
 31
0.0
  0
LINE
  5
92
330
68
100
AcDbEntity
  8
0
  6
CONTINUOUS
 62
     0
100
AcDbLine
 10
0.0
 20
0.0
 30
0.0
 11
-1.0
 21
0.166666667
 31
0.0
  0
LINE
  5
93
330
68
100
AcDbEntity
  8
0
  6
CONTINUOUS
 62
     0
100
AcDbLine
 10
0.0
 20
0.0
 30
0.0
 11
-1.0
 21
-0.166666667
 31
0.0
  0
LINE
  5
94
330
68
100
AcDbEntity
  8
0
  6
CONTINUOUS
 62
     0
100
AcDbLine
 10
-1.0
 20
0.166666667
 30
0.0
 11
-1.0
 21
-0.166666667
 31
0.0
  0
ENDBLK
  5
6A
330
68
100
AcDbEntity
  8
0
100
AcDbBlockEnd
  0
BLOCK
  5
6C
330
6B
100
AcDbEntity
  8
0
100
AcDbBlockBegin
  2
EX_BBOX
 70
     0
 10
0.0
 20
0.0
 30
0.0
  3
EX_BBOX
  1

  0
LINE
  5
95
330
6B
100
AcDbEntity
  8
0
  6
CONTINUOUS
 62
     0
100
AcDbLine
 10
0.0
 20
0.0
 30
0.0
 11
-1.0
 21
0.0
 31
0.0
  0
LINE
  5
96
330
6B
100
AcDbEntity
  8
0
  6
CONTINUOUS
 62
     0
100
AcDbLine
 10
-0.5
 20
0.5
 30
0.0
 11
0.5
 21
0.5
 31
0.0
  0
LINE
  5
97
330
6B
100
AcDbEntity
  8
0
  6
CONTINUOUS
 62
     0
100
AcDbLine
 10
0.5
 20
0.5
 30
0.0
 11
0.5
 21
-0.5
 31
0.0
  0
LINE
  5
98
330
6B
100
AcDbEntity
  8
0
  6
CONTINUOUS
 62
     0
100
AcDbLine
 10
0.5
 20
-0.5
 30
0.0
 11
-0.5
 21
-0.5
 31
0.0
  0
LINE
  5
99
330
6B
100
AcDbEntity
  8
0
  6
CONTINUOUS
 62
     0
100
AcDbLine
 10
-0.5
 20
-0.5
 30
0.0
 11
-0.5
 21
0.5
 31
0.0
  0
LINE
  5
9A
330
6B
100
AcDbEntity
  8
0
  6
CONTINUOUS
 62
     0
100
AcDbLine
 10
-0.25
 20
0.25
 30
0.0
 11
0.25
 21
0.25
 31
0.0
  0
LINE
  5
9B
330
6B
100
AcDbEntity
  8
0
  6
CONTINUOUS
 62
     0
100
AcDbLine
 10
0.25
 20
0.25
 30
0.0
 11
0.25
 21
-0.25
 31
0.0
  0
LINE
  5
9C
330
6B
100
AcDbEntity
  8
0
  6
CONTINUOUS
 62
     0
100
AcDbLine
 10
0.25
 20
-0.25
 30
0.0
 11
-0.25
 21
-0.25
 31
0.0
  0
LINE
  5
9D
330
6B
100
AcDbEntity
  8
0
  6
CONTINUOUS
 62
     0
100
AcDbLine
 10
-0.25
 20
-0.25
 30
0.0
 11
-0.25
 21
0.25
 31
0.0
  0
ENDBLK
  5
6D
330
6B
100
AcDbEntity
  8
0
100
AcDbBlockEnd
  0
BLOCK
  5
6F
330
6E
100
AcDbEntity
  8
0
100
AcDbBlockBegin
  2
EX_WBOX
 70
     0
 10
0.0
 20
0.0
 30
0.0
  3
EX_WBOX
  1

  0
LINE
  5
9E
330
6E
100
AcDbEntity
  8
0
  6
CONTINUOUS
 62
     0
100
AcDbLine
 10
-0.5
 20
0.0
 30
0.0
 11
-1.0
 21
0.0
 31
0.0
  0
LINE
  5
9F
330
6E
100
AcDbEntity
  8
0
  6
CONTINUOUS
 62
     0
100
AcDbLine
 10
-0.5
 20
0.5
 30
0.0
 11
0.5
 21
0.5
 31
0.0
  0
LINE
  5
A0
330
6E
100
AcDbEntity
  8
0
  6
CONTINUOUS
 62
     0
100
AcDbLine
 10
0.5
 20
0.5
 30
0.0
 11
0.5
 21
-0.5
 31
0.0
  0
LINE
  5
A1
330
6E
100
AcDbEntity
  8
0
  6
CONTINUOUS
 62
     0
100
AcDbLine
 10
0.5
 20
-0.5
 30
0.0
 11
-0.5
 21
-0.5
 31
0.0
  0
LINE
  5
A2
330
6E
100
AcDbEntity
  8
0
  6
CONTINUOUS
 62
     0
100
AcDbLine
 10
-0.5
 20
-0.5
 30
0.0
 11
-0.5
 21
0.5
 31
0.0
  0
ENDBLK
  5
70
330
6E
100
AcDbEntity
  8
0
100
AcDbBlockEnd
  0
BLOCK
  5
72
330
71
100
AcDbEntity
  8
0
100
AcDbBlockBegin
  2
EX_INTEGRAL
 70
     0
 10
0.0
 20
0.0
 30
0.0
  3
EX_INTEGRAL
  1

  0
LINE
  5
A3
330
71
100
AcDbEntity
  8
0
  6
CONTINUOUS
 62
     0
100
AcDbLine
 10
0.0
 20
0.0
 30
0.0
 11
-1.0
 21
0.0
 31
0.0
  0
ARC
  5
A4
330
71
100
AcDbEntity
  8
0
  6
CONTINUOUS
 62
     0
100
AcDbCircle
 10
0.542115
 20
0.164992
 30
0.0
 40
0.56667
100
AcDbArc
 50
73.07249033629006
 51
196.9275130221199
  0
ARC
  5
A5
330
71
100
AcDbEntity
  8
0
  6
CONTINUOUS
 62
     0
100
AcDbCircle
 10
-0.542115
 20
-0.164992
 30
0.0
 40
0.56667
100
AcDbArc
 50
253.0724869220464
 51
16.9275130559125
  0
ENDBLK
  5
73
330
71
100
AcDbEntity
  8
0
100
AcDbBlockEnd
  0
BLOCK
  5
114
330
113
100
AcDbEntity
  8
0
100
AcDbBlockBegin
  2
*D15
 70
     1
 10
0.0
 20
0.0
 30
0.0
  3
*D15
  1

  0
LINE
  5
116
330
113
100
AcDbEntity
  8
LAY-2
  6
CONTINUOUS
 62
     3
100
AcDbLine
 10
170.06
 20
160.0
 30
0.0
 11
170.06
 21
145.1
 31
0.0
  0
LINE
  5
117
330
113
100
AcDbEntity
  8
LAY-2
  6
CONTINUOUS
 62
     3
100
AcDbLine
 10
185.94
 20
160.0
 30
0.0
 11
185.94
 21
145.1
 31
0.0
  0
LINE
  5
118
330
113
100
AcDbEntity
  8
LAY-2
  6
CONTINUOUS
 62
     3
100
AcDbLine
 10
176.06
 20
147.1
 30
0.0
 11
179.94
 21
147.1
 31
0.0
  0
INSERT
  5
119
330
113
100
AcDbEntity
  8
LAY-2
 62
     3
100
AcDbBlockReference
  2
EX_NORM
 10
170.06
 20
147.1
 30
0.0
 41
6.0
 42
6.0
 43
6.0
 50
180.0
  0
INSERT
  5
11A
330
113
100
AcDbEntity
  8
LAY-2
 62
     3
100
AcDbBlockReference
  2
EX_NORM
 10
185.94
 20
147.1
 30
0.0
 41
6.0
 42
6.0
 43
6.0
  0
MTEXT
  5
11B
330
113
100
AcDbEntity
  8
LAY-2
 62
     2
100
AcDbMText
 10
208.94
 20
151.7000000238419
 30
0.0
 40
8.0
 41
0.0
 71
     5
 72
     1
  1
%%c15.88
  7
EXCADDIM1
  0
POINT
  5
11C
330
113
100
AcDbEntity
  8
DEFPOINTS
 62
     0
100
AcDbPoint
 10
170.06
 20
161.0
 30
0.0
  0
POINT
  5
11D
330
113
100
AcDbEntity
  8
DEFPOINTS
 62
     0
100
AcDbPoint
 10
185.94
 20
161.0
 30
0.0
  0
POINT
  5
11E
330
113
100
AcDbEntity
  8
DEFPOINTS
 62
     0
100
AcDbPoint
 10
185.94
 20
147.1
 30
0.0
  0
ENDBLK
  5
115
330
113
100
AcDbEntity
  8
0
100
AcDbBlockEnd
  0
BLOCK
  5
137
330
136
100
AcDbEntity
  8
0
100
AcDbBlockBegin
  2
*D16
 70
     1
 10
0.0
 20
0.0
 30
0.0
  3
*D16
  1

  0
LINE
  5
139
330
136
100
AcDbEntity
  8
LAY-2
  6
CONTINUOUS
 62
     3
100
AcDbLine
 10
268.0
 20
340.0
 30
0.0
 11
287.0
 21
340.0
 31
0.0
  0
LINE
  5
13A
330
136
100
AcDbEntity
  8
LAY-2
  6
CONTINUOUS
 62
     3
100
AcDbLine
 10
186.94
 20
161.0
 30
0.0
 11
287.0
 21
161.0
 31
0.0
  0
LINE
  5
13B
330
136
100
AcDbEntity
  8
LAY-2
  6
CONTINUOUS
 62
     3
100
AcDbLine
 10
285.0
 20
333.0
 30
0.0
 11
285.0
 21
168.0
 31
0.0
  0
INSERT
  5
13C
330
136
100
AcDbEntity
  8
LAY-2
 62
     3
100
AcDbBlockReference
  2
EX_NORM
 10
285.0
 20
340.0
 30
0.0
 41
7.0
 42
7.0
 43
7.0
 50
90.0
  0
INSERT
  5
13D
330
136
100
AcDbEntity
  8
LAY-2
 62
     3
100
AcDbBlockReference
  2
EX_NORM
 10
285.0
 20
161.0
 30
0.0
 41
7.0
 42
7.0
 43
7.0
 50
270.0
  0
MTEXT
  5
13E
330
136
100
AcDbEntity
  8
LAY-2
 62
     2
100
AcDbMText
 10
280.3999999761581
 20
250.5
 30
0.0
 40
8.0
 41
0.0
 71
     5
 72
     1
  1
179
  7
EXCADDIM2
 11
0.0
 21
1.0
 31
0.0
  0
POINT
  5
13F
330
136
100
AcDbEntity
  8
DEFPOINTS
 62
     0
100
AcDbPoint
 10
267.0
 20
340.0
 30
0.0
  0
POINT
  5
140
330
136
100
AcDbEntity
  8
DEFPOINTS
 62
     0
100
AcDbPoint
 10
185.94
 20
161.0
 30
0.0
  0
POINT
  5
141
330
136
100
AcDbEntity
  8
DEFPOINTS
 62
     0
100
AcDbPoint
 10
285.0
 20
161.0
 30
0.0
  0
ENDBLK
  5
138
330
136
100
AcDbEntity
  8
0
100
AcDbBlockEnd
  0
BLOCK
  5
144
330
143
100
AcDbEntity
  8
0
100
AcDbBlockBegin
  2
*D17
 70
     1
 10
0.0
 20
0.0
 30
0.0
  3
*D17
  1

  0
LINE
  5
146
330
143
100
AcDbEntity
  8
LAY-2
  6
CONTINUOUS
 62
     3
100
AcDbLine
 10
218.0
 20
300.8
 30
0.0
 11
218.0
 21
228.6
 31
0.0
  0
LINE
  5
147
330
143
100
AcDbEntity
  8
LAY-2
  6
CONTINUOUS
 62
     3
100
AcDbLine
 10
211.0
 20
230.6
 30
0.0
 11
185.0
 21
230.6
 31
0.0
  0
INSERT
  5
148
330
143
100
AcDbEntity
  8
LAY-2
 62
     3
100
AcDbBlockReference
  2
EX_NORM
 10
218.0
 20
230.6
 30
0.0
 41
7.0
 42
7.0
 43
7.0
  0
INSERT
  5
149
330
143
100
AcDbEntity
  8
LAY-2
 62
     3
100
AcDbBlockReference
  2
EX_NORM
 10
178.0
 20
230.6
 30
0.0
 41
7.0
 42
7.0
 43
7.0
 50
180.0
  0
MTEXT
  5
14A
330
143
100
AcDbEntity
  8
LAY-2
 62
     2
100
AcDbMText
 10
198.0
 20
235.2000000238419
 30
0.0
 40
8.0
 41
0.0
 71
     5
 72
     1
  1
40
  7
EXCADDIM2
  0
POINT
  5
14B
330
143
100
AcDbEntity
  8
DEFPOINTS
 62
     0
100
AcDbPoint
 10
218.0
 20
301.8
 30
0.0
  0
POINT
  5
14C
330
143
100
AcDbEntity
  8
DEFPOINTS
 62
     0
100
AcDbPoint
 10
178.0
 20
230.6
 30
0.0
  0
POINT
  5
14D
330
143
100
AcDbEntity
  8
DEFPOINTS
 62
     0
100
AcDbPoint
 10
178.0
 20
230.6
 30
0.0
  0
ENDBLK
  5
145
330
143
100
AcDbEntity
  8
0
100
AcDbBlockEnd
  0
ENDSEC
  0
SECTION
  2
ENTITIES
  0
LINE
  5
A6
330
1F
100
AcDbEntity
  8
LAY-1
  6
CONTINUOUS
 62
     7
100
AcDbLine
 10
40.0
 20
20.0
 30
0.0
 11
396.0
 21
20.0
 31
0.0
  0
LINE
  5
A7
330
1F
100
AcDbEntity
  8
LAY-1
  6
CONTINUOUS
 62
     7
100
AcDbLine
 10
396.0
 20
572.0
 30
0.0
 11
396.0
 21
20.0
 31
0.0
  0
LINE
  5
A8
330
1F
100
AcDbEntity
  8
LAY-1
  6
CONTINUOUS
 62
     7
100
AcDbLine
 10
396.0
 20
572.0
 30
0.0
 11
40.0
 21
572.0
 31
0.0
  0
LINE
  5
A9
330
1F
100
AcDbEntity
  8
LAY-1
  6
CONTINUOUS
 62
     7
100
AcDbLine
 10
40.0
 20
572.0
 30
0.0
 11
40.0
 21
20.0
 31
0.0
  0
LINE
  5
AA
330
1F
100
AcDbEntity
  8
LAY-1
  6
CONTINUOUS
 62
     7
100
AcDbLine
 10
396.0
 20
64.0
 30
0.0
 11
40.0
 21
64.0
 31
0.0
  0
TEXT
  5
AB
330
1F
100
AcDbEntity
  8
LAY-1
  6
CONTINUOUS
 62
     2
100
AcDbText
 10
45.0
 20
55.20000004768372
 30
0.0
 40
7.599999904632568
  1
設計
 41
1.534976095816436
  7
EXCADSTD
 72
     5
 11
63.332
 21
55.20000004768372
 31
0.0
100
AcDbText
  0
TEXT
  5
AC
330
1F
100
AcDbEntity
  8
LAY-1
  6
CONTINUOUS
 62
     2
100
AcDbText
 10
75.0
 20
55.20000004768372
 30
0.0
 40
7.599999904632568
  1
製図
 41
1.534976095816435
  7
EXCADSTD
 72
     5
 11
93.332
 21
55.20000004768372
 31
0.0
100
AcDbText
  0
TEXT
  5
AD
330
1F
100
AcDbEntity
  8
LAY-1
  6
CONTINUOUS
 62
     2
100
AcDbText
 10
103.0
 20
55.20000004768372
 30
0.0
 40
7.599999904632568
  1
検図
 41
1.534976095816435
  7
EXCADSTD
 72
     5
 11
121.332
 21
55.20000004768372
 31
0.0
100
AcDbText
  0
CIRCLE
  5
AE
330
1F
100
AcDbEntity
  8
LAY-1
  6
CONTINUOUS
 62
     7
100
AcDbCircle
 10
50.0
 20
24.8
 30
0.0
 40
0.3
  0
CIRCLE
  5
AF
330
1F
100
AcDbEntity
  8
LAY-1
  6
CONTINUOUS
 62
     7
100
AcDbCircle
 10
60.0
 20
24.8
 30
0.0
 40
0.3
  0
CIRCLE
  5
B0
330
1F
100
AcDbEntity
  8
LAY-1
  6
CONTINUOUS
 62
     7
100
AcDbCircle
 10
80.0
 20
24.8
 30
0.0
 40
0.3
  0
CIRCLE
  5
B1
330
1F
100
AcDbEntity
  8
LAY-1
  6
CONTINUOUS
 62
     7
100
AcDbCircle
 10
90.0
 20
24.8
 30
0.0
 40
0.3
  0
TEXT
  5
B2
330
1F
100
AcDbEntity
  8
LAY-1
  6
CONTINUOUS
 62
     2
100
AcDbText
 10
129.0
 20
55.20000004768372
 30
0.0
 40
7.599999904632568
  1
承認
 41
1.534976095816435
  7
EXCADSTD
 72
     5
 11
147.332
 21
55.20000004768372
 31
0.0
100
AcDbText
  0
TEXT
  5
B3
330
1F
100
AcDbEntity
  8
LAY-1
  6
CONTINUOUS
 62
     2
100
AcDbText
 10
157.0
 20
61.59999990463257
 30
0.0
 40
7.330909018083053
  1
品名
  7
EXCADVERT
 72
     3
 11
157.0
 21
42.40000009536743
 31
0.0
100
AcDbText
  0
TEXT
  5
B4
330
1F
100
AcDbEntity
  8
LAY-1
  6
CONTINUOUS
 62
     2
100
AcDbText
 10
285.0
 20
38.59999990463257
 30
0.0
 40
6.567272654446689
  1
図番
  7
EXCADVERT
 72
     3
 11
285.0
 21
21.40000009536743
 31
0.0
100
AcDbText
  0
TEXT
  5
B5
330
1F
100
AcDbEntity
  8
LAY-1
  6
CONTINUOUS
 62
     2
100
AcDbText
 10
369.0
 20
61.59999990463257
 30
0.0
 40
7.330909018083053
  1
尺度
  7
EXCADVERT
 72
     3
 11
369.0
 21
42.40000009536743
 31
0.0
100
AcDbText
  0
TEXT
  5
B6
330
1F
100
AcDbEntity
  8
LAY-1
  6
CONTINUOUS
 62
     2
100
AcDbText
 10
285.0
 20
61.59999990463257
 30
0.0
 40
7.330909018083053
  1
品番
  7
EXCADVERT
 72
     3
 11
285.0
 21
42.40000009536743
 31
0.0
100
AcDbText
  0
TEXT
  5
B7
330
1F
100
AcDbEntity
  8
LAY-1
  6
CONTINUOUS
 62
     2
100
AcDbText
 10
375.5385185186
 20
53.98
 30
0.0
 40
8.0
  1
１
 41
1.119999999999996
  7
EXCADSTD
 72
     5
 11
381.9385185185999
 21
53.98
 31
0.0
100
AcDbText
  0
TEXT
  5
B8
330
1F
100
AcDbEntity
  8
LAY-1
  6
CONTINUOUS
 62
     2
100
AcDbText
 10
174.0
 20
563.2000000476837
 30
0.0
 40
7.599999904632568
  1
番号
 41
1.381478486234791
  7
EXCADSTD
 72
     5
 11
190.4988
 21
563.2000000476837
 31
0.0
100
AcDbText
  0
TEXT
  5
B9
330
1F
100
AcDbEntity
  8
LAY-1
  6
CONTINUOUS
 62
     2
100
AcDbText
 10
206.0
 20
563.2000000476837
 30
0.0
 40
7.599999904632568
  1
品名
 41
2.762956972469585
  7
EXCADSTD
 72
     5
 11
238.9976
 21
563.2000000476837
 31
0.0
100
AcDbText
  0
TEXT
  5
BA
330
1F
100
AcDbEntity
  8
LAY-1
  6
CONTINUOUS
 62
     2
100
AcDbText
 10
266.0
 20
563.2000000476837
 30
0.0
 40
7.599999904632568
  1
材質
 41
2.762956972469582
  7
EXCADSTD
 72
     5
 11
298.9976
 21
563.2000000476837
 31
0.0
100
AcDbText
  0
TEXT
  5
BB
330
1F
100
AcDbEntity
  8
LAY-1
  6
CONTINUOUS
 62
     2
100
AcDbText
 10
316.0
 20
563.2000000476837
 30
0.0
 40
7.599999904632568
  1
個数
 41
1.381478486234794
  7
EXCADSTD
 72
     5
 11
332.4988
 21
563.2000000476837
 31
0.0
100
AcDbText
  0
TEXT
  5
BC
330
1F
100
AcDbEntity
  8
LAY-1
  6
CONTINUOUS
 62
     2
100
AcDbText
 10
348.0
 20
563.2000000476837
 30
0.0
 40
7.599999904632568
  1
備考
 41
2.762956972469582
  7
EXCADSTD
 72
     5
 11
380.9976
 21
563.2000000476837
 31
0.0
100
AcDbText
  0
TEXT
  5
BD
330
1F
100
AcDbEntity
  8
LAY-1
  6
CONTINUOUS
 62
     2
100
AcDbText
 10
179.0
 20
553.2000000476837
 30
0.0
 40
7.599999904632568
  1
１
 41
1.178947383214894
  7
EXCADSTD
 72
     5
 11
185.4
 21
553.2000000476837
 31
0.0
100
AcDbText
  0
TEXT
  5
BE
330
1F
100
AcDbEntity
  8
LAY-1
  6
CONTINUOUS
 62
     2
100
AcDbText
 10
196.8
 20
553.2000000476837
 30
0.0
 40
7.599999904632568
  1
胴
 41
1.178947383214894
  7
EXCADSTD
 72
     5
 11
203.2
 21
553.2000000476837
 31
0.0
100
AcDbText
  0
TEXT
  5
BF
330
1F
100
AcDbEntity
  8
LAY-1
  6
CONTINUOUS
 62
     2
100
AcDbText
 10
321.0
 20
553.2000000476837
 30
0.0
 40
7.599999904632568
  1
１
 41
1.178947383214888
  7
EXCADSTD
 72
     5
 11
327.4
 21
553.2000000476837
 31
0.0
100
AcDbText
  0
TEXT
  5
C0
330
1F
100
AcDbEntity
  8
LAY-1
  6
CONTINUOUS
 62
     2
100
AcDbText
 10
179.0
 20
543.2000000476837
 30
0.0
 40
7.599999904632568
  1
２
 41
1.178947383214894
  7
EXCADSTD
 72
     5
 11
185.4
 21
543.2000000476837
 31
0.0
100
AcDbText
  0
TEXT
  5
C1
330
1F
100
AcDbEntity
  8
LAY-1
  6
CONTINUOUS
 62
     2
100
AcDbText
 10
179.0
 20
533.2000000476837
 30
0.0
 40
7.599999904632568
  1
３
 41
1.178947383214894
  7
EXCADSTD
 72
     5
 11
185.4
 21
533.2000000476837
 31
0.0
100
AcDbText
  0
LINE
  5
C2
330
1F
100
AcDbEntity
  8
LAY-1
  6
CONTINUOUS
 62
     6
100
AcDbLine
 10
172.0
 20
562.0
 30
0.0
 11
396.0
 21
562.0
 31
0.0
  0
LINE
  5
C3
330
1F
100
AcDbEntity
  8
LAY-1
  6
CONTINUOUS
 62
     6
100
AcDbLine
 10
172.0
 20
552.0
 30
0.0
 11
396.0
 21
552.0
 31
0.0
  0
LINE
  5
C4
330
1F
100
AcDbEntity
  8
LAY-1
  6
CONTINUOUS
 62
     6
100
AcDbLine
 10
172.0
 20
542.0
 30
0.0
 11
396.0
 21
542.0
 31
0.0
  0
LINE
  5
C5
330
1F
100
AcDbEntity
  8
LAY-1
  6
CONTINUOUS
 62
     6
100
AcDbLine
 10
152.0
 20
54.0
 30
0.0
 11
40.0
 21
54.0
 31
0.0
  0
LINE
  5
C6
330
1F
100
AcDbEntity
  8
LAY-1
  6
CONTINUOUS
 62
     6
100
AcDbLine
 10
70.0
 20
20.0
 30
0.0
 11
70.0
 21
64.0
 31
0.0
  0
LINE
  5
C7
330
1F
100
AcDbEntity
  8
LAY-1
  6
CONTINUOUS
 62
     6
100
AcDbLine
 10
100.0
 20
20.0
 30
0.0
 11
100.0
 21
64.0
 31
0.0
  0
LINE
  5
C8
330
1F
100
AcDbEntity
  8
LAY-1
  6
CONTINUOUS
 62
     6
100
AcDbLine
 10
126.0
 20
20.0
 30
0.0
 11
126.0
 21
64.0
 31
0.0
  0
LINE
  5
C9
330
1F
100
AcDbEntity
  8
LAY-1
  6
CONTINUOUS
 62
     6
100
AcDbLine
 10
152.0
 20
20.0
 30
0.0
 11
152.0
 21
64.0
 31
0.0
  0
LINE
  5
CA
330
1F
100
AcDbEntity
  8
LAY-1
  6
CONTINUOUS
 62
     6
100
AcDbLine
 10
152.0
 20
40.0
 30
0.0
 11
396.0
 21
40.0
 31
0.0
  0
LINE
  5
CB
330
1F
100
AcDbEntity
  8
LAY-1
  6
CONTINUOUS
 62
     6
100
AcDbLine
 10
364.0
 20
40.0
 30
0.0
 11
364.0
 21
64.0
 31
0.0
  0
LINE
  5
CC
330
1F
100
AcDbEntity
  8
LAY-1
  6
CONTINUOUS
 62
     6
100
AcDbLine
 10
162.0
 20
40.0
 30
0.0
 11
162.0
 21
64.0
 31
0.0
  0
LINE
  5
CD
330
1F
100
AcDbEntity
  8
LAY-1
  6
EXLTYPE2
 62
     6
100
AcDbLine
 10
40.0
 20
30.0
 30
0.0
 11
152.0
 21
30.0
 31
0.0
  0
LINE
  5
CE
330
1F
100
AcDbEntity
  8
LAY-1
  6
CONTINUOUS
 62
     6
100
AcDbLine
 10
393.8
 20
59.625
 30
0.0
 11
376.2
 21
44.775
 31
0.0
  0
LINE
  5
CF
330
1F
100
AcDbEntity
  8
LAY-1
  6
CONTINUOUS
 62
     6
100
AcDbLine
 10
280.0
 20
64.0
 30
0.0
 11
280.0
 21
20.0
 31
0.0
  0
LINE
  5
D0
330
1F
100
AcDbEntity
  8
LAY-1
  6
CONTINUOUS
 62
     6
100
AcDbLine
 10
290.0
 20
20.0
 30
0.0
 11
290.0
 21
64.0
 31
0.0
  0
LINE
  5
D1
330
1F
100
AcDbEntity
  8
LAY-1
  6
CONTINUOUS
 62
     6
100
AcDbLine
 10
374.0
 20
64.0
 30
0.0
 11
374.0
 21
40.0
 31
0.0
  0
TEXT
  5
D2
330
1F
100
AcDbEntity
  8
LAY-1
  6
CONTINUOUS
 62
     2
100
AcDbText
 10
338.8
 20
553.2000000476837
 30
0.0
 40
7.599999904632568
  1
クロムメッキ
 41
1.263157910587385
  7
EXCADSTD
 72
     5
 11
386.8
 21
553.2000000476837
 31
0.0
100
AcDbText
  0
TEXT
  5
D3
330
1F
100
AcDbEntity
  8
LAY-1
  6
CONTINUOUS
 62
     2
100
AcDbText
 10
256.8
 20
553.2000000476837
 30
0.0
 40
7.599999904632568
  1
青銅鋳物
 41
1.28146454697271
  7
EXCADSTD
 72
     5
 11
288.8
 21
553.2000000476837
 31
0.0
100
AcDbText
  0
TEXT
  5
D4
330
1F
100
AcDbEntity
  8
LAY-1
  6
CONTINUOUS
 62
     2
100
AcDbText
 10
179.0
 20
523.2000000476837
 30
0.0
 40
7.599999904632568
  1
４
 41
1.178947383214894
  7
EXCADSTD
 72
     5
 11
185.4
 21
523.2000000476837
 31
0.0
100
AcDbText
  0
TEXT
  5
D5
330
1F
100
AcDbEntity
  8
LAY-1
  6
CONTINUOUS
 62
     2
100
AcDbText
 10
321.0
 20
503.2000000476837
 30
0.0
 40
7.599999904632568
  1
１
 41
1.178947383214888
  7
EXCADSTD
 72
     5
 11
327.4
 21
503.2000000476837
 31
0.0
100
AcDbText
  0
TEXT
  5
D6
330
1F
100
AcDbEntity
  8
LAY-1
  6
CONTINUOUS
 62
     2
100
AcDbText
 10
338.8
 20
503.2000000476837
 30
0.0
 40
7.599999904632568
  1
クロムメッキ
 41
1.263157910587385
  7
EXCADSTD
 72
     5
 11
386.8
 21
503.2000000476837
 31
0.0
100
AcDbText
  0
TEXT
  5
D7
330
1F
100
AcDbEntity
  8
LAY-1
  6
CONTINUOUS
 62
     2
100
AcDbText
 10
256.8
 20
503.2000000476837
 30
0.0
 40
7.599999904632568
  1
黄銅棒
 41
1.300309613839955
  7
EXCADSTD
 72
     5
 11
280.8
 21
503.2000000476837
 31
0.0
100
AcDbText
  0
TEXT
  5
D8
330
1F
100
AcDbEntity
  8
LAY-1
  6
CONTINUOUS
 62
     2
100
AcDbText
 10
196.8
 20
503.2000000476837
 30
0.0
 40
7.599999904632568
  1
スリーブナット
 41
1.258023122332965
  7
EXCADSTD
 72
     5
 11
252.8
 21
503.2000000476837
 31
0.0
100
AcDbText
  0
TEXT
  5
D9
330
1F
100
AcDbEntity
  8
LAY-1
  6
CONTINUOUS
 62
     2
100
AcDbText
 10
321.0
 20
493.2000000476837
 30
0.0
 40
7.599999904632568
  1
１
 41
1.178947383214888
  7
EXCADSTD
 72
     5
 11
327.4
 21
493.2000000476837
 31
0.0
100
AcDbText
  0
TEXT
  5
DA
330
1F
100
AcDbEntity
  8
LAY-1
  6
CONTINUOUS
 62
     2
100
AcDbText
 10
179.0
 20
513.2000000476837
 30
0.0
 40
7.599999904632568
  1
５
 41
1.178947383214894
  7
EXCADSTD
 72
     5
 11
185.4
 21
513.2000000476837
 31
0.0
100
AcDbText
  0
TEXT
  5
DB
330
1F
100
AcDbEntity
  8
LAY-1
  6
CONTINUOUS
 62
     2
100
AcDbText
 10
179.0
 20
503.2000000476837
 30
0.0
 40
7.599999904632568
  1
６
 41
1.178947383214894
  7
EXCADSTD
 72
     5
 11
185.4
 21
503.2000000476837
 31
0.0
100
AcDbText
  0
TEXT
  5
DC
330
1F
100
AcDbEntity
  8
LAY-1
  6
CONTINUOUS
 62
     2
100
AcDbText
 10
179.0
 20
493.2000000476837
 30
0.0
 40
7.599999904632568
  1
７
 41
1.178947383214894
  7
EXCADSTD
 72
     5
 11
185.4
 21
493.2000000476837
 31
0.0
100
AcDbText
  0
LINE
  5
DD
330
1F
100
AcDbEntity
  8
LAY-1
  6
CONTINUOUS
 62
     6
100
AcDbLine
 10
172.0
 20
512.0
 30
0.0
 11
396.0
 21
512.0
 31
0.0
  0
LINE
  5
DE
330
1F
100
AcDbEntity
  8
LAY-1
  6
CONTINUOUS
 62
     6
100
AcDbLine
 10
172.0
 20
502.0
 30
0.0
 11
396.0
 21
502.0
 31
0.0
  0
TEXT
  5
DF
330
1F
100
AcDbEntity
  8
LAY-1
  6
CONTINUOUS
 62
     2
100
AcDbText
 10
196.8
 20
523.2000000476837
 30
0.0
 40
7.599999904632568
  1
ハンドル
 41
1.28146454697271
  7
EXCADSTD
 72
     5
 11
228.8
 21
523.2000000476837
 31
0.0
100
AcDbText
  0
TEXT
  5
E0
330
1F
100
AcDbEntity
  8
LAY-1
  6
CONTINUOUS
 62
     2
100
AcDbText
 10
321.0
 20
523.2000000476837
 30
0.0
 40
7.599999904632568
  1
１
 41
1.178947383214888
  7
EXCADSTD
 72
     5
 11
327.4
 21
523.2000000476837
 31
0.0
100
AcDbText
  0
TEXT
  5
E1
330
1F
100
AcDbEntity
  8
LAY-1
  6
CONTINUOUS
 62
     2
100
AcDbText
 10
338.8
 20
523.2000000476837
 30
0.0
 40
7.599999904632568
  1
クロムメッキ
 41
1.263157910587385
  7
EXCADSTD
 72
     5
 11
386.8
 21
523.2000000476837
 31
0.0
100
AcDbText
  0
TEXT
  5
E2
330
1F
100
AcDbEntity
  8
LAY-1
  6
CONTINUOUS
 62
     2
100
AcDbText
 10
256.8
 20
523.2000000476837
 30
0.0
 40
7.599999904632568
  1
黄銅棒
 41
1.300309613839955
  7
EXCADSTD
 72
     5
 11
280.8
 21
523.2000000476837
 31
0.0
100
AcDbText
  0
LINE
  5
E3
330
1F
100
AcDbEntity
  8
LAY-1
  6
CONTINUOUS
 62
     6
100
AcDbLine
 10
172.0
 20
532.0
 30
0.0
 11
396.0
 21
532.0
 31
0.0
  0
LINE
  5
E4
330
1F
100
AcDbEntity
  8
LAY-1
  6
CONTINUOUS
 62
     6
100
AcDbLine
 10
172.0
 20
522.0
 30
0.0
 11
396.0
 21
522.0
 31
0.0
  0
TEXT
  5
E5
330
1F
100
AcDbEntity
  8
LAY-1
  6
CONTINUOUS
 62
     2
100
AcDbText
 10
196.8
 20
543.2000000476837
 30
0.0
 40
7.599999904632568
  1
パッキン押エ
 41
1.263157910587385
  7
EXCADSTD
 72
     5
 11
244.8
 21
543.2000000476837
 31
0.0
100
AcDbText
  0
TEXT
  5
E6
330
1F
100
AcDbEntity
  8
LAY-1
  6
CONTINUOUS
 62
     2
100
AcDbText
 10
256.8
 20
543.2000000476837
 30
0.0
 40
7.599999904632568
  1
黄銅棒
 41
1.300309613839955
  7
EXCADSTD
 72
     5
 11
280.8
 21
543.2000000476837
 31
0.0
100
AcDbText
  0
TEXT
  5
E7
330
1F
100
AcDbEntity
  8
LAY-1
  6
CONTINUOUS
 62
     2
100
AcDbText
 10
321.0
 20
543.2000000476837
 30
0.0
 40
7.599999904632568
  1
１
 41
1.178947383214888
  7
EXCADSTD
 72
     5
 11
327.4
 21
543.2000000476837
 31
0.0
100
AcDbText
  0
TEXT
  5
E8
330
1F
100
AcDbEntity
  8
LAY-1
  6
CONTINUOUS
 62
     2
100
AcDbText
 10
338.8
 20
543.2000000476837
 30
0.0
 40
7.599999904632568
  1
クロムメッキ
 41
1.263157910587385
  7
EXCADSTD
 72
     5
 11
386.8
 21
543.2000000476837
 31
0.0
100
AcDbText
  0
TEXT
  5
E9
330
1F
100
AcDbEntity
  8
LAY-1
  6
CONTINUOUS
 62
     2
100
AcDbText
 10
338.8
 20
533.2000000476837
 30
0.0
 40
7.599999904632568
  1
クロムメッキ
 41
1.263157910587385
  7
EXCADSTD
 72
     5
 11
386.8
 21
533.2000000476837
 31
0.0
100
AcDbText
  0
TEXT
  5
EA
330
1F
100
AcDbEntity
  8
LAY-1
  6
CONTINUOUS
 62
     2
100
AcDbText
 10
321.0
 20
533.2000000476837
 30
0.0
 40
7.599999904632568
  1
１
 41
1.178947383214888
  7
EXCADSTD
 72
     5
 11
327.4
 21
533.2000000476837
 31
0.0
100
AcDbText
  0
TEXT
  5
EB
330
1F
100
AcDbEntity
  8
LAY-1
  6
CONTINUOUS
 62
     2
100
AcDbText
 10
256.8
 20
533.2000000476837
 30
0.0
 40
7.599999904632568
  1
黄銅棒
 41
1.300309613839955
  7
EXCADSTD
 72
     5
 11
280.8
 21
533.2000000476837
 31
0.0
100
AcDbText
  0
TEXT
  5
EC
330
1F
100
AcDbEntity
  8
LAY-1
  6
CONTINUOUS
 62
     2
100
AcDbText
 10
196.8
 20
533.2000000476837
 30
0.0
 40
7.599999904632568
  1
栓棒
 41
1.227980876653149
  7
EXCADSTD
 72
     5
 11
211.4656
 21
533.2000000476837
 31
0.0
100
AcDbText
  0
TEXT
  5
ED
330
1F
100
AcDbEntity
  8
LAY-1
  6
CONTINUOUS
 62
     2
100
AcDbText
 10
196.8
 20
513.2000000476837
 30
0.0
 40
7.599999904632568
  1
ハンドル止メネジ
 41
1.089585673424732
  7
EXCADSTD
 72
     5
 11
252.399999666214
 21
513.2000000476837
 31
0.0
100
AcDbText
  0
TEXT
  5
EE
330
1F
100
AcDbEntity
  8
LAY-1
  6
CONTINUOUS
 62
     2
100
AcDbText
 10
256.8
 20
513.2000000476837
 30
0.0
 40
7.599999904632568
  1
黄銅棒
 41
1.300309613839955
  7
EXCADSTD
 72
     5
 11
280.8
 21
513.2000000476837
 31
0.0
100
AcDbText
  0
TEXT
  5
EF
330
1F
100
AcDbEntity
  8
LAY-1
  6
CONTINUOUS
 62
     2
100
AcDbText
 10
321.0
 20
513.2000000476837
 30
0.0
 40
7.599999904632568
  1
１
 41
1.178947383214888
  7
EXCADSTD
 72
     5
 11
327.4
 21
513.2000000476837
 31
0.0
100
AcDbText
  0
TEXT
  5
F0
330
1F
100
AcDbEntity
  8
LAY-1
  6
CONTINUOUS
 62
     2
100
AcDbText
 10
338.8
 20
513.2000000476837
 30
0.0
 40
7.599999904632568
  1
クロムメッキ
 41
1.263157910587385
  7
EXCADSTD
 72
     5
 11
386.8
 21
513.2000000476837
 31
0.0
100
AcDbText
  0
TEXT
  5
F1
330
1F
100
AcDbEntity
  8
LAY-1
  6
CONTINUOUS
 62
     2
100
AcDbText
 10
196.8
 20
493.2000000476837
 30
0.0
 40
7.599999904632568
  1
パイプ
 41
1.300309613839955
  7
EXCADSTD
 72
     5
 11
220.8
 21
493.2000000476837
 31
0.0
100
AcDbText
  0
TEXT
  5
F2
330
1F
100
AcDbEntity
  8
LAY-1
  6
CONTINUOUS
 62
     2
100
AcDbText
 10
256.8
 20
493.2000000476837
 30
0.0
 40
7.599999904632568
  1
黄銅管
 41
1.300309613839955
  7
EXCADSTD
 72
     5
 11
280.8
 21
493.2000000476837
 31
0.0
100
AcDbText
  0
TEXT
  5
F3
330
1F
100
AcDbEntity
  8
LAY-1
  6
CONTINUOUS
 62
     2
100
AcDbText
 10
338.8
 20
493.2000000476837
 30
0.0
 40
7.599999904632568
  1
クロムメッキ
 41
1.263157910587385
  7
EXCADSTD
 72
     5
 11
386.8
 21
493.2000000476837
 31
0.0
100
AcDbText
  0
TEXT
  5
F4
330
1F
100
AcDbEntity
  8
LAY-1
  6
CONTINUOUS
 62
     7
100
AcDbText
 10
164.6000003218651
 20
45.99999999999999
 30
0.0
 40
12.0
  1
小便器洗浄水栓　１３
 41
1.115254230923572
  7
EXCADSTD
 72
     5
 11
277.3999996781349
 21
45.99999999999999
 31
0.0
100
AcDbText
  0
TEXT
  5
F5
330
1F
100
AcDbEntity
  8
LAY-1
  6
CONTINUOUS
 62
     2
100
AcDbText
 10
383.7585185186
 20
41.74
 30
0.0
 40
8.0
  1
２
 41
1.119999999999996
  7
EXCADSTD
 72
     5
 11
390.1585185186
 21
41.74
 31
0.0
100
AcDbText
  0
TEXT
  5
F6
330
1F
100
AcDbEntity
  8
LAY-1
  6
CONTINUOUS
 62
     7
100
AcDbText
 10
305.4000002145767
 20
46.0
 30
0.0
 40
12.0
  1
ＮＵ１Ａ
 41
1.095652163028717
  7
EXCADSTD
 72
     5
 11
348.5999997854233
 21
46.0
 31
0.0
100
AcDbText
  0
TEXT
  5
F7
330
1F
100
AcDbEntity
  8
LAY-1
  6
CONTINUOUS
 62
     2
100
AcDbText
 10
74.79999995231628
 20
37.0
 30
0.0
 40
10.0
  1
間瀬
 41
1.18991346010815
  7
EXCADSTD
 72
     5
 11
93.49864003973008
 21
37.0
 31
0.0
100
AcDbText
  0
TEXT
  5
F8
330
1F
100
AcDbEntity
  8
LAY-1
  6
CONTINUOUS
 62
     2
100
AcDbText
 10
128.7999999523163
 20
37.0
 30
0.0
 40
10.0
  1
古林
 41
1.18991346010815
  7
EXCADSTD
 72
     5
 11
147.4986400397301
 21
37.0
 31
0.0
100
AcDbText
  0
TEXT
  5
F9
330
1F
100
AcDbEntity
  8
LAY-1
  6
CONTINUOUS
 62
     2
100
AcDbText
 10
68.5
 20
21.8
 30
0.0
 40
6.0
  1
２０
 41
1.26379696969697
  7
EXCADSTD
 72
     5
 11
80.4158
 21
21.8
 31
0.0
100
AcDbText
  0
TEXT
  5
FA
330
1F
100
AcDbEntity
  8
LAY-1
  6
CONTINUOUS
 62
     2
100
AcDbText
 10
81.0
 20
21.8
 30
0.0
 40
6.0
  1
４
 41
1.493333333333335
  7
EXCADSTD
 72
     5
 11
87.4
 21
21.8
 31
0.0
100
AcDbText
  0
TEXT
  5
FB
330
1F
100
AcDbEntity
  8
LAY-1
  6
CONTINUOUS
 62
     2
100
AcDbText
 10
88.5
 20
21.8
 30
0.0
 40
6.0
  1
２４
 41
1.26379696969697
  7
EXCADSTD
 72
     5
 11
100.4158
 21
21.8
 31
0.0
100
AcDbText
  0
TEXT
  5
FD
330
1F
100
AcDbEntity
  8
LAY-1
  6
CONTINUOUS
 62
     2
100
AcDbText
 10
156.0
 20
24.0
 30
0.0
 40
9.0
  1
ジャニス工業株式会社
 41
1.025641025641026
  7
EXCADTTF1
 72
     5
 11
276.0
 21
24.0
 31
0.0
100
AcDbText
  0
TEXT
  5
FE
330
1F
100
AcDbEntity
  8
LAY-1
  6
CONTINUOUS
 62
     7
100
AcDbText
 10
300.0
 20
23.5
 30
0.0
 40
13.0
  1
３４１３００
 41
1.323076923076923
  7
EXCADSTD
 72
     5
 11
386.0
 21
23.5
 31
0.0
100
AcDbText
  0
TEXT
  5
FF
330
1F
100
AcDbEntity
  8
LAY-1
  6
CONTINUOUS
 62
     2
100
AcDbText
 10
321.0000000000001
 20
483.2000000476837
 30
0.0
 40
7.599999904632568
  1
１
 41
1.178947383214888
  7
EXCADSTD
 72
     5
 11
327.4
 21
483.2000000476837
 31
0.0
100
AcDbText
  0
TEXT
  5
100
330
1F
100
AcDbEntity
  8
LAY-1
  6
CONTINUOUS
 62
     2
100
AcDbText
 10
256.8000000000001
 20
483.2000000476837
 30
0.0
 40
7.599999904632568
  1
ステンレス
 41
1.270417438809152
  7
EXCADSTD
 72
     5
 11
296.8000000000001
 21
483.2000000476837
 31
0.0
100
AcDbText
  0
TEXT
  5
101
330
1F
100
AcDbEntity
  8
LAY-1
  6
CONTINUOUS
 62
     2
100
AcDbText
 10
196.8000000000001
 20
483.2000000476837
 30
0.0
 40
7.599999904632568
  1
送リ座
 41
1.300309613839955
  7
EXCADSTD
 72
     5
 11
220.8000000000001
 21
483.2000000476837
 31
0.0
100
AcDbText
  0
LINE
  5
102
330
1F
100
AcDbEntity
  8
LAY-1
  6
CONTINUOUS
 62
     6
100
AcDbLine
 10
172.0
 20
482.0
 30
0.0
 11
396.0
 21
482.0
 31
0.0
  0
LINE
  5
103
330
1F
100
AcDbEntity
  8
LAY-1
  6
CONTINUOUS
 62
     6
100
AcDbLine
 10
172.0
 20
492.0
 30
0.0
 11
396.0
 21
492.0000000000001
 31
0.0
  0
LINE
  5
104
330
1F
100
AcDbEntity
  8
LAY-1
  6
CONTINUOUS
 62
     6
100
AcDbLine
 10
172.0
 20
572.0
 30
0.0
 11
172.0
 21
482.0
 31
0.0
  0
LINE
  5
105
330
1F
100
AcDbEntity
  8
LAY-1
  6
CONTINUOUS
 62
     6
100
AcDbLine
 10
194.0
 20
572.0
 30
0.0
 11
194.0
 21
482.0
 31
0.0
  0
LINE
  5
106
330
1F
100
AcDbEntity
  8
LAY-1
  6
CONTINUOUS
 62
     6
100
AcDbLine
 10
254.0
 20
572.0
 30
0.0
 11
254.0
 21
482.0
 31
0.0
  0
LINE
  5
107
330
1F
100
AcDbEntity
  8
LAY-1
  6
CONTINUOUS
 62
     6
100
AcDbLine
 10
314.0
 20
572.0
 30
0.0
 11
314.0
 21
482.0
 31
0.0
  0
LINE
  5
108
330
1F
100
AcDbEntity
  8
LAY-1
  6
CONTINUOUS
 62
     6
100
AcDbLine
 10
336.0
 20
572.0
 30
0.0
 11
336.0
 21
482.0
 31
0.0
  0
TEXT
  5
109
330
1F
100
AcDbEntity
  8
LAY-1
  6
CONTINUOUS
 62
     2
100
AcDbText
 10
179.0
 20
483.2000000476837
 30
0.0
 40
7.599999904632568
  1
８
 41
1.178947383214894
  7
EXCADSTD
 72
     5
 11
185.4
 21
483.2000000476837
 31
0.0
100
AcDbText
  0
TEXT
  5
10A
330
1F
100
AcDbEntity
  8
LAY-2
  6
CONTINUOUS
 62
     2
100
AcDbText
 10
277.3
 20
364.3999999880791
 30
0.0
 40
8.0
  1
ＰＪ１/２
 41
0.9836538434028627
  7
EXCADSTD
 72
     5
 11
311.3999999046326
 21
364.3999999880791
 31
0.0
100
AcDbText
  0
LEADER
  5
10B
330
1F
100
AcDbEntity
  8
LAY-2
  6
CONTINUOUS
 62
     6
100
AcDbLeader
  3
ISO-25
 76
     3
 10
259.4000015
 20
350.477493
 30
0.0
 10
276.3
 20
363.7
 30
0.0
 10
311.6
 20
363.7
 30
0.0
1001
ACAD
1000
DSTYLE
1002
{
1070
     5
1000
EX_NORM
1070
    41
1040
7.0
1070
   341
1005
4A
1002
}
  0
CIRCLE
  5
10C
330
1F
100
AcDbEntity
  8
LAY-2
  6
CONTINUOUS
 62
     6
100
AcDbCircle
 10
183.0504166235901
 20
306.6000000000001
 30
0.0
 40
8.0
  0
TEXT
  5
10D
330
1F
100
AcDbEntity
  8
LAY-2
  6
CONTINUOUS
 62
     2
100
AcDbText
 10
177.3935624709106
 20
300.9431458473206
 30
0.0
 40
11.31370830535889
  1
３
 41
1.120000000000001
  7
EXCADSTD
 72
     5
 11
186.4445291151978
 21
300.9431458473206
 31
0.0
100
AcDbText
  0
CIRCLE
  5
10E
330
1F
100
AcDbEntity
  8
LAY-2
  6
CONTINUOUS
 62
     6
100
AcDbCircle
 10
207.0504166235901
 20
392.56839632462
 30
0.0
 40
8.0
  0
TEXT
  5
10F
330
1F
100
AcDbEntity
  8
LAY-2
  6
CONTINUOUS
 62
     2
100
AcDbText
 10
201.3935624709106
 20
386.9115421719406
 30
0.0
 40
11.31370830535889
  1
１
 41
1.120000000000001
  7
EXCADSTD
 72
     5
 11
210.4445291151978
 21
386.9115421719406
 31
0.0
100
AcDbText
  0
DIMENSION
  5
111
330
1F
100
AcDbEntity
  8
LAY-2
  6
CONTINUOUS
 62
     3
100
AcDbDimension
  2
*D15
 10
185.94
 20
147.1
 30
0.0
 11
208.94
 21
151.7000000238419
 31
0.0
 70
   160
  1
%%c15.88
  3
ISO-25
100
AcDbAlignedDimension
 13
170.06
 23
161.0
 33
0.0
 14
185.94
 24
161.0
 34
0.0
100
AcDbRotatedDimension
1001
ACAD
1000
DSTYLE
1002
{
1070
   270
1070
     2
1070
     6
1000
EX_NORM
1070
     7
1000
EX_NORM
1070
    41
1040
6.0
1070
    42
1040
1.0
1070
    44
1040
2.0
1070
    73
1070
     0
1070
    74
1070
     0
1070
    75
1070
     0
1070
    76
1070
     0
1070
    77
1070
     1
1070
    78
1070
     8
1070
   140
1040
8.0
1070
   147
1040
0.0
1070
   173
1070
     1
1070
   176
1070
     3
1070
   177
1070
     3
1070
   178
1070
     2
1070
   271
1070
     2
1070
   277
1070
     2
1070
   279
1070
     2
1070
   280
1070
     2
1070
   287
1070
     5
1070
   340
1005
110
1002
}
  0
LINE
  5
11F
330
1F
100
AcDbEntity
  8
LAY-2
  6
CONTINUOUS
 62
     3
100
AcDbLine
 10
218.0
 20
354.632287
 30
0.0
 11
218.0
 21
382.5
 31
0.0
  0
LINE
  5
120
330
1F
100
AcDbEntity
  8
LAY-2
  6
CONTINUOUS
 62
     3
100
AcDbLine
 10
253.0
 20
364.75
 30
0.0
 11
253.0
 21
382.5
 31
0.0
  0
TEXT
  5
121
330
1F
100
AcDbEntity
  8
LAY-2
  6
CONTINUOUS
 62
     2
100
AcDbText
 10
226.0
 20
381.1000000238419
 30
0.0
 40
8.0
  1
３５
 41
1.020759090909092
  7
EXCADSTD
 72
     5
 11
238.8324
 21
381.1000000238419
 31
0.0
100
AcDbText
  0
TEXT
  5
122
330
1F
100
AcDbEntity
  8
LAY-2
  6
CONTINUOUS
 62
     2
100
AcDbText
 10
239.0
 20
381.1000000238419
 30
0.0
 40
3.599999904632568
  1
±５
 41
0.6781349524401916
  7
EXCADSTD
 72
     5
 11
243.7663198251724
 21
381.1000000238419
 31
0.0
100
AcDbText
  0
LINE
  5
123
330
1F
100
AcDbEntity
  8
LAY-2
  6
CONTINUOUS
 62
     3
100
AcDbLine
 10
218.0
 20
380.5
 30
0.0
 11
253.0
 21
380.5
 31
0.0
  0
LINE
  5
124
330
1F
100
AcDbEntity
  8
LAY-2
  6
CONTINUOUS
 62
     3
100
AcDbLine
 10
224.0
 20
381.5
 30
0.0
 11
218.0
 21
380.5
 31
0.0
  0
LINE
  5
125
330
1F
100
AcDbEntity
  8
LAY-2
  6
CONTINUOUS
 62
     3
100
AcDbLine
 10
218.0
 20
380.5
 30
0.0
 11
224.0
 21
379.5
 31
0.0
  0
LINE
  5
126
330
1F
100
AcDbEntity
  8
LAY-2
  6
CONTINUOUS
 62
     3
100
AcDbLine
 10
247.0
 20
379.5
 30
0.0
 11
253.0
 21
380.5
 31
0.0
  0
LINE
  5
127
330
1F
100
AcDbEntity
  8
LAY-2
  6
CONTINUOUS
 62
     3
100
AcDbLine
 10
253.0
 20
380.5
 30
0.0
 11
247.0
 21
381.5
 31
0.0
  0
CIRCLE
  5
128
330
1F
100
AcDbEntity
  8
LAY-2
  6
CONTINUOUS
 62
     6
100
AcDbCircle
 10
271.1000000000001
 20
309.7000000000001
 30
0.0
 40
8.0
  0
TEXT
  5
129
330
1F
100
AcDbEntity
  8
LAY-2
  6
CONTINUOUS
 62
     2
100
AcDbText
 10
265.4431458473207
 20
304.0431458473206
 30
0.0
 40
11.31370830535889
  1
８
 41
1.119999999999997
  7
EXCADSTD
 72
     5
 11
274.4941124916078
 21
304.0431458473206
 31
0.0
100
AcDbText
  0
CIRCLE
  5
12A
330
1F
100
AcDbEntity
  8
LAY-2
  6
CONTINUOUS
 62
     6
100
AcDbCircle
 10
240.0000000000001
 20
289.5000000000001
 30
0.0
 40
8.0
  0
TEXT
  5
12B
330
1F
100
AcDbEntity
  8
LAY-2
  6
CONTINUOUS
 62
     2
100
AcDbText
 10
234.3431458473206
 20
283.8431458473206
 30
0.0
 40
11.31370830535889
  1
６
 41
1.120000000000001
  7
EXCADSTD
 72
     5
 11
243.3941124916078
 21
283.8431458473206
 31
0.0
100
AcDbText
  0
CIRCLE
  5
12C
330
1F
100
AcDbEntity
  8
LAY-2
  6
CONTINUOUS
 62
     6
100
AcDbCircle
 10
214.8000000000001
 20
200.0
 30
0.0
 40
8.0
  0
TEXT
  5
12D
330
1F
100
AcDbEntity
  8
LAY-2
  6
CONTINUOUS
 62
     2
100
AcDbText
 10
209.1431458473207
 20
194.3431458473206
 30
0.0
 40
11.31370830535889
  1
７
 41
1.120000000000001
  7
EXCADSTD
 72
     5
 11
218.1941124916078
 21
194.3431458473206
 31
0.0
100
AcDbText
  0
CIRCLE
  5
12E
330
1F
100
AcDbEntity
  8
LAY-2
  6
CONTINUOUS
 62
     6
100
AcDbCircle
 10
159.0504166235901
 20
368.5683963246201
 30
0.0
 40
8.0
  0
TEXT
  5
12F
330
1F
100
AcDbEntity
  8
LAY-2
  6
CONTINUOUS
 62
     2
100
AcDbText
 10
153.3935624709106
 20
362.9115421719407
 30
0.0
 40
11.31370830535889
  1
５
 41
1.120000000000001
  7
EXCADSTD
 72
     5
 11
162.4445291151978
 21
362.9115421719407
 31
0.0
100
AcDbText
  0
CIRCLE
  5
130
330
1F
100
AcDbEntity
  8
LAY-2
  6
CONTINUOUS
 62
     6
100
AcDbCircle
 10
159.0504166235901
 20
392.5683963246201
 30
0.0
 40
8.0
  0
TEXT
  5
131
330
1F
100
AcDbEntity
  8
LAY-2
  6
CONTINUOUS
 62
     2
100
AcDbText
 10
153.3935624709106
 20
386.9115421719406
 30
0.0
 40
11.31370830535889
  1
４
 41
1.120000000000001
  7
EXCADSTD
 72
     5
 11
162.4445291151978
 21
386.9115421719406
 31
0.0
100
AcDbText
  0
CIRCLE
  5
132
330
1F
100
AcDbEntity
  8
LAY-2
  6
CONTINUOUS
 62
     6
100
AcDbCircle
 10
183.0504166235901
 20
392.56839632462
 30
0.0
 40
8.0
  0
TEXT
  5
133
330
1F
100
AcDbEntity
  8
LAY-2
  6
CONTINUOUS
 62
     2
100
AcDbText
 10
177.3935624709106
 20
386.9115421719406
 30
0.0
 40
11.31370830535889
  1
２
 41
1.120000000000001
  7
EXCADSTD
 72
     5
 11
186.4445291151978
 21
386.9115421719406
 31
0.0
100
AcDbText
  0
DIMENSION
  5
135
330
1F
100
AcDbEntity
  8
LAY-2
  6
CONTINUOUS
 62
     3
100
AcDbDimension
  2
*D16
 10
285.0
 20
161.0
 30
0.0
 11
280.3999999761581
 21
250.5
 31
0.0
 70
   160
  3
ISO-25
100
AcDbAlignedDimension
 13
267.0
 23
340.0
 33
0.0
 14
185.94
 24
161.0
 34
0.0
 50
90.0
100
AcDbRotatedDimension
1001
ACAD
1000
DSTYLE
1002
{
1070
   270
1070
     2
1070
     6
1000
EX_NORM
1070
     7
1000
EX_NORM
1070
    41
1040
7.0
1070
    42
1040
1.0
1070
    44
1040
2.0
1070
    73
1070
     0
1070
    74
1070
     0
1070
    75
1070
     0
1070
    76
1070
     0
1070
    77
1070
     1
1070
    78
1070
     8
1070
   140
1040
8.0
1070
   147
1040
0.0
1070
   173
1070
     1
1070
   176
1070
     3
1070
   177
1070
     3
1070
   178
1070
     2
1070
   271
1070
     2
1070
   277
1070
     2
1070
   279
1070
     2
1070
   280
1070
     0
1070
   287
1070
     5
1070
   340
1005
134
1002
}
  0
DIMENSION
  5
142
330
1F
100
AcDbEntity
  8
LAY-2
  6
CONTINUOUS
 62
     3
100
AcDbDimension
  2
*D17
 10
178.0
 20
230.6
 30
0.0
 11
198.0
 21
235.2000000238419
 31
0.0
 70
   160
  3
ISO-25
100
AcDbAlignedDimension
 13
218.0
 23
301.8
 33
0.0
 14
178.0
 24
230.6
 34
0.0
100
AcDbRotatedDimension
1001
ACAD
1000
DSTYLE
1002
{
1070
   270
1070
     2
1070
     6
1000
EX_NORM
1070
     7
1000
EX_NORM
1070
    41
1040
7.0
1070
    42
1040
1.0
1070
    44
1040
2.0
1070
    73
1070
     0
1070
    74
1070
     0
1070
    75
1070
     0
1070
    76
1070
     1
1070
    77
1070
     1
1070
    78
1070
     8
1070
   140
1040
8.0
1070
   147
1040
0.0
1070
   173
1070
     1
1070
   176
1070
     3
1070
   177
1070
     3
1070
   178
1070
     2
1070
   271
1070
     2
1070
   277
1070
     2
1070
   279
1070
     2
1070
   280
1070
     0
1070
   287
1070
     5
1070
   340
1005
134
1002
}
  0
ARC
  5
14E
330
1F
100
AcDbEntity
  8
LAY-2
  6
CONTINUOUS
 62
     2
100
AcDbCircle
 10
218.0
 20
292.0
 30
0.0
 40
60.00000000000004
100
AcDbArc
 50
80.86337299999997
 51
90.00000000000004
  0
LINE
  5
14F
330
1F
100
AcDbEntity
  8
LAY-2
  6
CONTINUOUS
 62
     2
100
AcDbLine
 10
186.419533
 20
344.75
 30
0.0
 11
180.976262
 21
344.75
 31
0.0
  0
LINE
  5
150
330
1F
100
AcDbEntity
  8
LAY-2
  6
CONTINUOUS
 62
     2
100
AcDbLine
 10
186.419533
 20
335.25
 30
0.0
 11
180.976262
 21
335.25
 31
0.0
  0
ARC
  5
151
330
1F
100
AcDbEntity
  8
LAY-2
  6
CONTINUOUS
 62
     2
100
AcDbCircle
 10
202.5
 20
324.5
 30
0.0
 40
3.500000000000002
100
AcDbArc
 50
0.0
 51
90.00000000000004
  0
LINE
  5
152
330
1F
100
AcDbEntity
  8
LAY-2
  6
CONTINUOUS
 62
     2
100
AcDbLine
 10
218.0
 20
321.0
 30
0.0
 11
205.1
 21
321.0
 31
0.0
  0
LINE
  5
153
330
1F
100
AcDbEntity
  8
LAY-2
  6
CONTINUOUS
 62
     2
100
AcDbLine
 10
218.0
 20
309.0
 30
0.0
 11
205.1
 21
309.0
 31
0.0
  0
ARC
  5
154
330
1F
100
AcDbEntity
  8
LAY-2
  6
CONTINUOUS
 62
     2
100
AcDbCircle
 10
217.758333
 20
315.0
 30
0.0
 40
14.008333
100
AcDbArc
 50
154.6392330000003
 51
205.3607670000002
  0
LINE
  5
155
330
1F
100
AcDbEntity
  8
LAY-2
  6
CONTINUOUS
 62
     2
100
AcDbLine
 10
206.0
 20
324.5
 30
0.0
 11
206.0
 21
321.0
 31
0.0
  0
LINE
  5
156
330
1F
100
AcDbEntity
  8
LAY-2
  6
CONTINUOUS
 62
     2
100
AcDbLine
 10
201.0
 20
340.0
 30
0.0
 11
201.0
 21
328.0
 31
0.0
  0
LINE
  5
157
330
1F
100
AcDbEntity
  8
LAY-2
  6
CONTINUOUS
 62
     2
100
AcDbLine
 10
202.5
 20
328.0
 30
0.0
 11
200.419525
 21
328.0
 31
0.0
  0
LINE
  5
158
330
1F
100
AcDbEntity
  8
LAY-2
  6
CONTINUOUS
 62
     2
100
AcDbLine
 10
218.0
 20
352.0
 30
0.0
 11
200.419525
 21
352.0
 31
0.0
  0
ARC
  5
159
330
1F
100
AcDbEntity
  8
LAY-2
  6
CONTINUOUS
 62
     2
100
AcDbCircle
 10
235.0
 20
324.522507
 30
0.0
 40
5.0
100
AcDbArc
 50
90.00000000000004
 51
180.0
  0
ARC
  5
15A
330
1F
100
AcDbEntity
  8
LAY-2
  6
CONTINUOUS
 62
     2
100
AcDbCircle
 10
218.241667
 20
315.0
 30
0.0
 40
14.008333
100
AcDbArc
 50
334.6392330000002
 51
25.3607669999999
  0
LINE
  5
15B
330
1F
100
AcDbEntity
  8
LAY-2
  6
CONTINUOUS
 62
     2
100
AcDbLine
 10
230.9
 20
309.0
 30
0.0
 11
218.0
 21
309.0
 31
0.0
  0
LINE
  5
15C
330
1F
100
AcDbEntity
  8
LAY-2
  6
CONTINUOUS
 62
     2
100
AcDbLine
 10
230.0
 20
321.0
 30
0.0
 11
230.0
 21
324.522507
 31
0.0
  0
LINE
  5
15D
330
1F
100
AcDbEntity
  8
LAY-2
  6
CONTINUOUS
 62
     2
100
AcDbLine
 10
230.9
 20
321.0
 30
0.0
 11
230.0
 21
321.0
 31
0.0
  0
LINE
  5
15E
330
1F
100
AcDbEntity
  8
LAY-2
  6
CONTINUOUS
 62
     2
100
AcDbLine
 10
243.5
 20
329.522507
 30
0.0
 11
235.0
 21
329.522507
 31
0.0
  0
ARC
  5
15F
330
1F
100
AcDbEntity
  8
LAY-2
  6
CONTINUOUS
 62
     2
100
AcDbCircle
 10
237.054703
 20
410.477493
 30
0.0
 40
60.00000000000004
100
AcDbArc
 50
260.8634030000001
 51
270.0000000000002
  0
LINE
  5
160
330
1F
100
AcDbEntity
  8
LAY-2
  6
CONTINUOUS
 62
     2
100
AcDbLine
 10
243.5
 20
350.477493
 30
0.0
 11
237.054703
 21
350.477493
 31
0.0
  0
LINE
  5
161
330
1F
100
AcDbEntity
  8
LAY-2
  6
CONTINUOUS
 62
     2
100
AcDbLine
 10
201.0
 20
340.0
 30
0.0
 11
201.0
 21
352.0
 31
0.0
  0
LINE
  5
162
330
1F
100
AcDbEntity
  8
LAY-2
  6
CONTINUOUS
 62
     2
100
AcDbLine
 10
218.0
 20
321.0
 30
0.0
 11
230.9
 21
321.0
 31
0.0
  0
LINE
  5
163
330
1F
100
AcDbEntity
  8
LAY-2
  6
CONTINUOUS
 62
     2
100
AcDbLine
 10
267.0
 20
330.722473
 30
0.0
 11
267.0
 21
349.277527
 31
0.0
  0
LINE
  5
164
330
1F
100
AcDbEntity
  8
LAY-2
  6
CONTINUOUS
 62
     2
100
AcDbLine
 10
265.800034
 20
329.522507
 30
0.0
 11
253.0
 21
329.522507
 31
0.0
  0
LINE
  5
165
330
1F
100
AcDbEntity
  8
LAY-2
  6
CONTINUOUS
 62
     2
100
AcDbLine
 10
265.8000029999999
 20
340.0
 30
0.0
 11
265.8000029999999
 21
329.522476
 31
0.0
  0
LINE
  5
166
330
1F
100
AcDbEntity
  8
LAY-2
  6
CONTINUOUS
 62
     2
100
AcDbLine
 10
265.800034
 20
329.522507
 30
0.0
 11
267.0
 21
330.722473
 31
0.0
  0
LINE
  5
167
330
1F
100
AcDbEntity
  8
LAY-2
  6
CONTINUOUS
 62
     2
100
AcDbLine
 10
265.8000029999999
 20
350.477493
 30
0.0
 11
253.0
 21
350.477493
 31
0.0
  0
LINE
  5
168
330
1F
100
AcDbEntity
  8
LAY-2
  6
CONTINUOUS
 62
     2
100
AcDbLine
 10
265.800034
 20
350.477493
 30
0.0
 11
267.0
 21
349.277527
 31
0.0
  0
LINE
  5
169
330
1F
100
AcDbEntity
  8
LAY-2
  6
CONTINUOUS
 62
     2
100
AcDbLine
 10
248.500007
 20
362.783212
 30
0.0
 11
248.500007
 21
340.0
 31
0.0
  0
LINE
  5
16A
330
1F
100
AcDbEntity
  8
LAY-2
  6
CONTINUOUS
 62
     2
100
AcDbLine
 10
253.0
 20
363.75
 30
0.0
 11
253.0
 21
340.0
 31
0.0
  0
ARC
  5
16B
330
1F
100
AcDbEntity
  8
LAY-2
  6
CONTINUOUS
 62
     2
100
AcDbCircle
 10
332.714027
 20
309.824135
 30
0.0
 40
100.0000000000001
100
AcDbArc
 50
148.0036120000001
 51
152.86557
  0
LINE
  5
16C
330
1F
100
AcDbEntity
  8
LAY-2
  6
CONTINUOUS
 62
     2
100
AcDbLine
 10
253.0
 20
363.75
 30
0.0
 11
249.6014249999999
 21
363.75
 31
0.0
  0
ARC
  5
16D
330
1F
100
AcDbEntity
  8
LAY-2
  6
CONTINUOUS
 62
     2
100
AcDbCircle
 10
249.6014249999999
 20
361.75
 30
0.0
 40
2.0
100
AcDbArc
 50
90.00000000000004
 51
148.0042719999993
  0
LINE
  5
16E
330
1F
100
AcDbEntity
  8
LAY-2
  6
CONTINUOUS
 62
     2
100
AcDbLine
 10
265.8000029999999
 20
340.0
 30
0.0
 11
265.8000029999999
 21
350.477524
 31
0.0
  0
ARC
  5
16F
330
1F
100
AcDbEntity
  8
LAY-2
  6
CONTINUOUS
 62
     2
100
AcDbCircle
 10
245.5
 20
325.480072
 30
0.0
 40
2.0
100
AcDbArc
 50
180.0
 51
207.1344299999995
  0
LINE
  5
170
330
1F
100
AcDbEntity
  8
LAY-2
  6
CONTINUOUS
 62
     2
100
AcDbLine
 10
253.0
 20
316.25
 30
0.0
 11
253.0
 21
340.0
 31
0.0
  0
LINE
  5
171
330
1F
100
AcDbEntity
  8
LAY-2
  6
CONTINUOUS
 62
     2
100
AcDbLine
 10
248.500007
 20
317.216787
 30
0.0
 11
248.500007
 21
340.0
 31
0.0
  0
ARC
  5
172
330
1F
100
AcDbEntity
  8
LAY-2
  6
CONTINUOUS
 62
     2
100
AcDbCircle
 10
249.6014249999999
 20
318.25
 30
0.0
 40
2.0
100
AcDbArc
 50
211.9957279999989
 51
270.0000000000002
  0
ARC
  5
173
330
1F
100
AcDbEntity
  8
LAY-2
  6
CONTINUOUS
 62
     2
100
AcDbCircle
 10
332.714027
 20
370.175865
 30
0.0
 40
100.0000000000001
100
AcDbArc
 50
207.13443
 51
211.996388
  0
LINE
  5
174
330
1F
100
AcDbEntity
  8
LAY-2
  6
CONTINUOUS
 62
     2
100
AcDbLine
 10
253.0
 20
316.25
 30
0.0
 11
249.6014249999999
 21
316.25
 31
0.0
  0
LINE
  5
175
330
1F
100
AcDbEntity
  8
LAY-2
  6
CONTINUOUS
 62
     2
100
AcDbLine
 10
243.5
 20
325.480072
 30
0.0
 11
243.5
 21
340.0
 31
0.0
  0
LINE
  5
176
330
1F
100
AcDbEntity
  8
LAY-2
  6
CONTINUOUS
 62
     2
100
AcDbLine
 10
242.0
 20
350.477493
 30
0.0
 11
242.0
 21
340.0
 31
0.0
  0
LINE
  5
177
330
1F
100
AcDbEntity
  8
LAY-2
  6
CONTINUOUS
 62
     2
100
AcDbLine
 10
242.0
 20
329.522507
 30
0.0
 11
242.0
 21
340.0
 31
0.0
  0
LINE
  5
178
330
1F
100
AcDbEntity
  8
LAY-2
  6
CONTINUOUS
 62
     2
100
AcDbLine
 10
243.5
 20
354.519928
 30
0.0
 11
243.5
 21
340.0
 31
0.0
  0
ARC
  5
179
330
1F
100
AcDbEntity
  8
LAY-2
  6
CONTINUOUS
 62
     2
100
AcDbCircle
 10
245.5
 20
354.519928
 30
0.0
 40
2.0
100
AcDbArc
 50
152.8655700000005
 51
180.0
  0
LINE
  5
17A
330
1F
100
AcDbEntity
  8
LAY-2
  6
CONTINUOUS
 62
     6
100
AcDbLine
 10
239.987411
 20
329.522507
 30
0.0
 11
242.0
 21
330.684479
 31
0.0
  0
LINE
  5
17B
330
1F
100
AcDbEntity
  8
LAY-2
  6
CONTINUOUS
 62
     6
100
AcDbLine
 10
243.5
 20
330.68448
 30
0.0
 11
242.0
 21
330.684479
 31
0.0
  0
LINE
  5
17C
330
1F
100
AcDbEntity
  8
LAY-2
  6
CONTINUOUS
 62
     6
100
AcDbLine
 10
239.987396
 20
350.477493
 30
0.0
 11
242.0
 21
349.315521
 31
0.0
  0
LINE
  5
17D
330
1F
100
AcDbEntity
  8
LAY-2
  6
CONTINUOUS
 62
     6
100
AcDbLine
 10
243.5
 20
349.315506
 30
0.0
 11
242.000046
 21
349.315506
 31
0.0
  0
LINE
  5
17E
330
1F
100
AcDbEntity
  8
LAY-2
  6
CONTINUOUS
 62
     6
100
AcDbLine
 10
266.962036
 20
349.315506
 30
0.0
 11
253.0
 21
349.315506
 31
0.0
  0
LINE
  5
17F
330
1F
100
AcDbEntity
  8
LAY-2
  6
CONTINUOUS
 62
     6
100
AcDbLine
 10
266.962021
 20
330.684494
 30
0.0
 11
253.0
 21
330.684485
 31
0.0
  0
LINE
  5
180
330
1F
100
AcDbEntity
  8
LAY-2
  6
CONTINUOUS
 62
     6
100
AcDbLine
 10
207.01593
 20
321.0
 30
0.0
 11
206.0
 21
322.759644
 31
0.0
  0
LINE
  5
181
330
1F
100
AcDbEntity
  8
LAY-2
  6
CONTINUOUS
 62
     6
100
AcDbLine
 10
228.98407
 20
321.0
 30
0.0
 11
230.0
 21
322.759644
 31
0.0
  0
ELLIPSE
  5
182
330
1F
100
AcDbEntity
  8
LAY-2
  6
CONTINUOUS
 62
     6
100
AcDbEllipse
 10
206.74167
 20
315.0
 30
0.0
 11
3.541873188308310E-16
 21
5.784317879692822
 31
0.0
210
0.0
220
0.0
230
1.0
 40
0.5044940000000002
 41
0.0
 42
6.283185307179586
  0
ELLIPSE
  5
183
330
1F
100
AcDbEntity
  8
LAY-2
  6
CONTINUOUS
 62
     6
100
AcDbEllipse
 10
218.0
 20
315.0
 30
0.0
 11
-5.83630876496439
 21
7.147416847849283E-16
 31
0.0
210
0.0
220
0.0
230
1.0
 40
0.9910919999999994
 41
0.0
 42
6.283185307179586
  0
ELLIPSE
  5
184
330
1F
100
AcDbEntity
  8
LAY-2
  6
CONTINUOUS
 62
     6
100
AcDbEllipse
 10
229.25833
 20
315.0
 30
0.0
 11
3.541873188308310E-16
 21
5.784317879692822
 31
0.0
210
0.0
220
0.0
230
1.0
 40
0.5044940000000002
 41
0.0
 42
6.283185307179586
  0
LINE
  5
185
330
1F
100
AcDbEntity
  8
LAY-2
  6
CONTINUOUS
 62
     6
100
AcDbLine
 10
201.000061
 20
351.199997
 30
0.0
 11
202.385696
 21
352.0
 31
0.0
  0
LINE
  5
186
330
1F
100
AcDbEntity
  8
LAY-2
  6
CONTINUOUS
 62
     6
100
AcDbLine
 10
200.419525
 20
351.199997
 30
0.0
 11
201.0
 21
351.199997
 31
0.0
  0
LINE
  5
187
330
1F
100
AcDbEntity
  8
LAY-2
  6
CONTINUOUS
 62
     6
100
AcDbLine
 10
200.419525
 20
328.800003
 30
0.0
 11
201.0
 21
328.800003
 31
0.0
  0
LINE
  5
188
330
1F
100
AcDbEntity
  8
LAY-2
  6
CONTINUOUS
 62
     6
100
AcDbLine
 10
201.000061
 20
328.800003
 30
0.0
 11
202.385696
 21
328.0
 31
0.0
  0
LINE
  5
189
330
1F
100
AcDbEntity
  8
LAY-2
  6
CONTINUOUS
 62
     2
100
AcDbLine
 10
186.419533
 20
340.0
 30
0.0
 11
186.419533
 21
334.5
 31
0.0
  0
LINE
  5
18A
330
1F
100
AcDbEntity
  8
LAY-2
  6
CONTINUOUS
 62
     2
100
AcDbLine
 10
186.419533
 20
334.5
 30
0.0
 11
191.919533
 21
327.3
 31
0.0
  0
LINE
  5
18B
330
1F
100
AcDbEntity
  8
LAY-2
  6
CONTINUOUS
 62
     2
100
AcDbLine
 10
186.419533
 20
340.0
 30
0.0
 11
186.419533
 21
345.5
 31
0.0
  0
LINE
  5
18C
330
1F
100
AcDbEntity
  8
LAY-2
  6
CONTINUOUS
 62
     2
100
AcDbLine
 10
186.419533
 20
345.5
 30
0.0
 11
191.919533
 21
352.7
 31
0.0
  0
LINE
  5
18D
330
1F
100
AcDbEntity
  8
LAY-2
  6
EXLTYPE3
 62
     1
100
AcDbLine
 10
164.869008
 20
340.0
 30
0.0
 11
268.156009
 21
340.0
 31
0.0
  0
LINE
  5
18E
330
1F
100
AcDbEntity
  8
LAY-2
  6
CONTINUOUS
 62
     2
100
AcDbLine
 10
200.419525
 20
327.1
 30
0.0
 11
200.419525
 21
340.0
 31
0.0
  0
LINE
  5
18F
330
1F
100
AcDbEntity
  8
LAY-2
  6
CONTINUOUS
 62
     2
100
AcDbLine
 10
191.919533
 20
340.0
 30
0.0
 11
191.919533
 21
327.3
 31
0.0
  0
ARC
  5
190
330
1F
100
AcDbEntity
  8
LAY-2
  6
CONTINUOUS
 62
     2
100
AcDbCircle
 10
196.300346
 20
332.759714
 30
0.0
 40
7.000000000000004
100
AcDbArc
 50
231.2568340000007
 51
306.0473890000005
  0
LINE
  5
191
330
1F
100
AcDbEntity
  8
LAY-2
  6
CONTINUOUS
 62
     2
100
AcDbLine
 10
191.919533
 20
340.0
 30
0.0
 11
191.919533
 21
352.7
 31
0.0
  0
ARC
  5
192
330
1F
100
AcDbEntity
  8
LAY-2
  6
CONTINUOUS
 62
     2
100
AcDbCircle
 10
196.300346
 20
347.240286
 30
0.0
 40
7.000000000000004
100
AcDbArc
 50
53.9526109999997
 51
128.7431659999997
  0
LINE
  5
193
330
1F
100
AcDbEntity
  8
LAY-2
  6
CONTINUOUS
 62
     2
100
AcDbLine
 10
200.419525
 20
352.9
 30
0.0
 11
200.419525
 21
340.0
 31
0.0
  0
ELLIPSE
  5
194
330
1F
100
AcDbEntity
  8
LAY-2
  6
CONTINUOUS
 62
     6
100
AcDbEllipse
 10
196.300346
 20
351.290234
 30
0.0
 11
3.978155252641092
 21
0.0
 31
0.0
210
0.0
220
0.0
230
1.0
 40
0.741563
 41
0.0
 42
6.283185307179586
  0
ELLIPSE
  5
195
330
1F
100
AcDbEntity
  8
LAY-2
  6
CONTINUOUS
 62
     6
100
AcDbEllipse
 10
196.300346
 20
340.0
 30
0.0
 11
3.573711555173488E-16
 21
5.836313878681828
 31
0.0
210
0.0
220
0.0
230
1.0
 40
0.6816210000000001
 41
0.0
 42
6.283185307179586
  0
ELLIPSE
  5
196
330
1F
100
AcDbEntity
  8
LAY-2
  6
CONTINUOUS
 62
     6
100
AcDbEllipse
 10
196.300346
 20
328.709766
 30
0.0
 11
3.978155252641092
 21
0.0
 31
0.0
210
0.0
220
0.0
230
1.0
 40
0.741563
 41
0.0
 42
6.283185307179586
  0
ARC
  5
197
330
1F
100
AcDbEntity
  8
LAY-2
  6
CONTINUOUS
 62
     2
100
AcDbCircle
 10
349.424731
 20
334.4199819999999
 30
0.0
 40
180.0
100
AcDbArc
 50
170.0153740000002
 51
175.513608
  0
ARC
  5
198
330
1F
100
AcDbEntity
  8
LAY-2
  6
CONTINUOUS
 62
     2
100
AcDbCircle
 10
178.060081
 20
364.588785
 30
0.0
 40
6.000000000000004
100
AcDbArc
 50
97.1250159999999
 51
170.0153740000006
  0
LINE
  5
199
330
1F
100
AcDbEntity
  8
LAY-2
  6
CONTINUOUS
 62
     2
100
AcDbLine
 10
180.639052
 20
370.957849
 30
0.0
 11
177.315873
 21
370.542452
 31
0.0
  0
ARC
  5
19A
330
1F
100
AcDbEntity
  8
LAY-2
  6
CONTINUOUS
 62
     2
100
AcDbCircle
 10
180.676262
 20
370.660166
 30
0.0
 40
0.3
100
AcDbArc
 50
0.0
 51
97.12501599998987
  0
ARC
  5
19B
330
1F
100
AcDbEntity
  8
LAY-2
  6
CONTINUOUS
 62
     2
100
AcDbCircle
 10
175.976262
 20
331.379288
 30
0.0
 40
6.000000000000004
100
AcDbArc
 50
180.0
 51
264.8055709999998
  0
ARC
  5
19C
330
1F
100
AcDbEntity
  8
LAY-2
  6
CONTINUOUS
 62
     2
100
AcDbCircle
 10
191.476262
 20
340.0000000000001
 30
0.0
 40
25.00000000000002
100
AcDbArc
 50
163.7397949999999
 51
196.260205
  0
LINE
  5
19D
330
1F
100
AcDbEntity
  8
LAY-2
  6
CONTINUOUS
 62
     2
100
AcDbLine
 10
167.476262
 20
347.0
 30
0.0
 11
167.476262
 21
340.0
 31
0.0
  0
LINE
  5
19E
330
1F
100
AcDbEntity
  8
LAY-2
  6
CONTINUOUS
 62
     2
100
AcDbLine
 10
169.976262
 20
347.0
 30
0.0
 11
167.476262
 21
347.0
 31
0.0
  0
LINE
  5
19F
330
1F
100
AcDbEntity
  8
LAY-2
  6
CONTINUOUS
 62
     2
100
AcDbLine
 10
169.976262
 20
333.0
 30
0.0
 11
167.476262
 21
333.0
 31
0.0
  0
LINE
  5
1A0
330
1F
100
AcDbEntity
  8
LAY-2
  6
CONTINUOUS
 62
     2
100
AcDbLine
 10
175.433048
 20
325.4039290000001
 30
0.0
 11
180.649102
 21
324.929742
 31
0.0
  0
ARC
  5
1A1
330
1F
100
AcDbEntity
  8
LAY-2
  6
CONTINUOUS
 62
     2
100
AcDbCircle
 10
180.676262
 20
325.22851
 30
0.0
 40
0.3
100
AcDbArc
 50
264.8055710000099
 51
0.0
  0
LINE
  5
1A2
330
1F
100
AcDbEntity
  8
LAY-2
  6
CONTINUOUS
 62
     2
100
AcDbLine
 10
167.476262
 20
333.0
 30
0.0
 11
167.476262
 21
340.0
 31
0.0
  0
LINE
  5
1A3
330
1F
100
AcDbEntity
  8
LAY-2
  6
CONTINUOUS
 62
     2
100
AcDbLine
 10
169.976262
 20
348.5000023677426
 30
0.0
 11
169.976262
 21
331.379288
 31
0.0
  0
LINE
  5
1A4
330
1F
100
AcDbEntity
  8
LAY-2
  6
CONTINUOUS
 62
     2
100
AcDbLine
 10
180.976262
 20
370.660166
 30
0.0
 11
180.976262
 21
325.22851
 31
0.0
  0
LINE
  5
1A5
330
1F
100
AcDbEntity
  8
LAY-2
  6
CONTINUOUS
 62
     6
100
AcDbLine
 10
169.976262
 20
343.709435
 30
0.0
 11
167.476262
 21
343.709435
 31
0.0
  0
LINE
  5
1A6
330
1F
100
AcDbEntity
  8
LAY-2
  6
CONTINUOUS
 62
     6
100
AcDbLine
 10
169.976262
 20
344.499512
 30
0.0
 11
167.476262
 21
344.499512
 31
0.0
  0
LINE
  5
1A7
330
1F
100
AcDbEntity
  8
LAY-2
  6
CONTINUOUS
 62
     6
100
AcDbLine
 10
169.976262
 20
342.847157
 30
0.0
 11
167.476262
 21
342.847157
 31
0.0
  0
LINE
  5
1A8
330
1F
100
AcDbEntity
  8
LAY-2
  6
CONTINUOUS
 62
     6
100
AcDbLine
 10
169.976262
 20
346.893654
 30
0.0
 11
167.476262
 21
346.893654
 31
0.0
  0
LINE
  5
1A9
330
1F
100
AcDbEntity
  8
LAY-2
  6
CONTINUOUS
 62
     6
100
AcDbLine
 10
169.976262
 20
346.657398
 30
0.0
 11
167.476262
 21
346.657398
 31
0.0
  0
LINE
  5
1AA
330
1F
100
AcDbEntity
  8
LAY-2
  6
CONTINUOUS
 62
     6
100
AcDbLine
 10
169.976262
 20
345.202015
 30
0.0
 11
167.476262
 21
345.202015
 31
0.0
  0
LINE
  5
1AB
330
1F
100
AcDbEntity
  8
LAY-2
  6
CONTINUOUS
 62
     6
100
AcDbLine
 10
169.976262
 20
345.803265
 30
0.0
 11
167.476262
 21
345.803265
 31
0.0
  0
LINE
  5
1AC
330
1F
100
AcDbEntity
  8
LAY-2
  6
CONTINUOUS
 62
     6
100
AcDbLine
 10
169.976262
 20
346.291558
 30
0.0
 11
167.476262
 21
346.291558
 31
0.0
  0
LINE
  5
1AD
330
1F
100
AcDbEntity
  8
LAY-2
  6
CONTINUOUS
 62
     6
100
AcDbLine
 10
169.976262
 20
341.929463
 30
0.0
 11
167.476262
 21
341.929463
 31
0.0
  0
LINE
  5
1AE
330
1F
100
AcDbEntity
  8
LAY-2
  6
CONTINUOUS
 62
     6
100
AcDbLine
 10
169.976262
 20
340.974213
 30
0.0
 11
167.476262
 21
340.974213
 31
0.0
  0
LINE
  5
1AF
330
1F
100
AcDbEntity
  8
LAY-2
  6
CONTINUOUS
 62
     6
100
AcDbLine
 10
169.976262
 20
337.152844
 30
0.0
 11
167.476262
 21
337.152844
 31
0.0
  0
LINE
  5
1B0
330
1F
100
AcDbEntity
  8
LAY-2
  6
CONTINUOUS
 62
     6
100
AcDbLine
 10
169.976262
 20
336.290566
 30
0.0
 11
167.476262
 21
336.290566
 31
0.0
  0
LINE
  5
1B1
330
1F
100
AcDbEntity
  8
LAY-2
  6
CONTINUOUS
 62
     6
100
AcDbLine
 10
169.976262
 20
339.025788
 30
0.0
 11
167.476262
 21
339.025788
 31
0.0
  0
LINE
  5
1B2
330
1F
100
AcDbEntity
  8
LAY-2
  6
CONTINUOUS
 62
     6
100
AcDbLine
 10
169.976262
 20
338.070538
 30
0.0
 11
167.476262
 21
338.070538
 31
0.0
  0
LINE
  5
1B3
330
1F
100
AcDbEntity
  8
LAY-2
  6
CONTINUOUS
 62
     6
100
AcDbLine
 10
169.976262
 20
333.342602
 30
0.0
 11
167.476262
 21
333.342602
 31
0.0
  0
LINE
  5
1B4
330
1F
100
AcDbEntity
  8
LAY-2
  6
CONTINUOUS
 62
     6
100
AcDbLine
 10
169.976262
 20
333.106346
 30
0.0
 11
167.476262
 21
333.106346
 31
0.0
  0
LINE
  5
1B5
330
1F
100
AcDbEntity
  8
LAY-2
  6
CONTINUOUS
 62
     6
100
AcDbLine
 10
169.976262
 20
334.196736
 30
0.0
 11
167.476262
 21
334.196736
 31
0.0
  0
LINE
  5
1B6
330
1F
100
AcDbEntity
  8
LAY-2
  6
CONTINUOUS
 62
     6
100
AcDbLine
 10
169.976262
 20
334.797985
 30
0.0
 11
167.476262
 21
334.797985
 31
0.0
  0
LINE
  5
1B7
330
1F
100
AcDbEntity
  8
LAY-2
  6
CONTINUOUS
 62
     6
100
AcDbLine
 10
169.976262
 20
335.500489
 30
0.0
 11
167.476262
 21
335.500489
 31
0.0
  0
LINE
  5
1B8
330
1F
100
AcDbEntity
  8
LAY-2
  6
CONTINUOUS
 62
     6
100
AcDbLine
 10
169.976262
 20
333.708443
 30
0.0
 11
167.476262
 21
333.708443
 31
0.0
  0
LINE
  5
1B9
330
1F
100
AcDbEntity
  8
LAY-2
  6
CONTINUOUS
 62
     6
100
AcDbLine
 10
169.976262
 20
340.056519
 30
0.0
 11
167.476262
 21
340.056519
 31
0.0
  0
LINE
  5
1BA
330
1F
100
AcDbEntity
  8
LAY-2
  6
CONTINUOUS
 62
     2
100
AcDbLine
 10
167.088765
 20
345.4999990977265
 30
0.0
 11
167.088765
 21
334.496728
 31
0.0
  0
LEADER
  5
1BB
330
1F
100
AcDbEntity
  8
LAY-2
  6
CONTINUOUS
 62
     6
100
AcDbLeader
  3
ISO-25
 76
     2
 10
207.05041662359
 20
352.0
 30
0.0
 10
207.05041662359
 20
384.56839632462
 30
0.0
1001
ACAD
1000
DSTYLE
1002
{
1070
     5
1000
EX_NORM
1070
    41
1040
7.0
1070
   341
1005
4A
1002
}
  0
LEADER
  5
1BC
330
1F
100
AcDbEntity
  8
LAY-2
  6
CONTINUOUS
 62
     6
100
AcDbLeader
  3
ISO-25
 76
     2
 10
183.05041662359
 20
335.25
 30
0.0
 10
183.05041662359
 20
314.6
 30
0.0
1001
ACAD
1000
DSTYLE
1002
{
1070
     5
1000
EX_NORM
1070
    41
1040
7.0
1070
   341
1005
4A
1002
}
  0
LINE
  5
1BD
330
1F
100
AcDbEntity
  8
LAY-2
  6
CONTINUOUS
 62
     2
100
AcDbLine
 10
210.06
 20
309.0
 30
0.0
 11
210.06
 21
301.8
 31
0.0
  0
ARC
  5
1BE
330
1F
100
AcDbEntity
  8
LAY-2
  6
CONTINUOUS
 62
     2
100
AcDbCircle
 10
193.0
 20
301.8
 30
0.0
 40
17.06
100
AcDbArc
 50
326.1961927300002
 51
0.0
  0
LINE
  5
1BF
330
1F
100
AcDbEntity
  8
LAY-2
  6
CONTINUOUS
 62
     2
100
AcDbLine
 10
225.94
 20
309.0
 30
0.0
 11
225.94
 21
301.8
 31
0.0
  0
ARC
  5
1C0
330
1F
100
AcDbEntity
  8
LAY-2
  6
CONTINUOUS
 62
     2
100
AcDbCircle
 10
193.0
 20
301.8
 30
0.0
 40
32.94
100
AcDbArc
 50
326.1961927300002
 51
0.0
  0
LINE
  5
1C1
330
1F
100
AcDbEntity
  8
LAY-2
  6
CONTINUOUS
 62
     2
100
AcDbLine
 10
220.37141071362
 20
283.47380357122
 30
0.0
 11
188.82403561705
 21
251.29134520567
 31
0.0
  0
LINE
  5
1C2
330
1F
100
AcDbEntity
  8
LAY-2
  6
CONTINUOUS
 62
     2
100
AcDbLine
 10
207.17596438295
 20
292.30865479433
 30
0.0
 11
175.62858928638
 21
260.12619642878
 31
0.0
  0
ARC
  5
1C3
330
1F
100
AcDbEntity
  8
LAY-2
  6
CONTINUOUS
 62
     2
100
AcDbCircle
 10
203.0
 20
241.8
 30
0.0
 40
32.94
100
AcDbArc
 50
146.19619273
 51
180.0
  0
ARC
  5
1C4
330
1F
100
AcDbEntity
  8
LAY-2
  6
CONTINUOUS
 62
     2
100
AcDbCircle
 10
203.0
 20
241.8
 30
0.0
 40
17.06
100
AcDbArc
 50
146.19619273
 51
180.0
  0
ARC
  5
1C5
330
1F
100
AcDbEntity
  8
LAY-2
  6
EXLTYPE3
 62
     1
100
AcDbCircle
 10
203.0
 20
241.8
 30
0.0
 40
25.00000000000002
100
AcDbArc
 50
146.19619273
 51
180.0
  0
LINE
  5
1C6
330
1F
100
AcDbEntity
  8
LAY-2
  6
EXLTYPE3
 62
     1
100
AcDbLine
 10
182.22631245171
 20
255.70877081723
 30
0.0
 11
213.77368754829
 21
287.89122918277
 31
0.0
  0
ARC
  5
1C7
330
1F
100
AcDbEntity
  8
LAY-2
  6
EXLTYPE3
 62
     1
100
AcDbCircle
 10
193.0
 20
301.8
 30
0.0
 40
25.00000000000002
100
AcDbArc
 50
326.1961927300002
 51
0.0
  0
LEADER
  5
1C8
330
1F
100
AcDbEntity
  8
LAY-2
  6
CONTINUOUS
 62
     6
100
AcDbLeader
  3
ISO-25
 76
     2
 10
185.94
 20
200.0
 30
0.0
 10
206.8
 20
200.0
 30
0.0
1001
ACAD
1000
DSTYLE
1002
{
1070
     5
1000
EX_NORM
1070
    41
1040
7.0
1070
   341
1005
4A
1002
}
  0
LEADER
  5
1C9
330
1F
100
AcDbEntity
  8
LAY-2
  6
CONTINUOUS
 62
     6
100
AcDbLeader
  3
ISO-25
 76
     2
 10
168.8
 20
347.0
 30
0.0
 10
162.3456416308557
 20
361.2785751915989
 30
0.0
1001
ACAD
1000
DSTYLE
1002
{
1070
     5
1000
EX_NORM
1070
    41
1040
7.0
1070
   341
1005
4A
1002
}
  0
LEADER
  5
1CA
330
1F
100
AcDbEntity
  8
LAY-2
  6
CONTINUOUS
 62
     6
100
AcDbLeader
  3
ISO-25
 76
     2
 10
174.84570233098
 20
369.65512191854
 30
0.0
 10
163.5909218922959
 20
385.9817574317613
 30
0.0
1001
ACAD
1000
DSTYLE
1002
{
1070
     5
1000
EX_NORM
1070
    41
1040
7.0
1070
   341
1005
4A
1002
}
  0
LEADER
  5
1CB
330
1F
100
AcDbEntity
  8
LAY-2
  6
CONTINUOUS
 62
     6
100
AcDbLeader
  3
ISO-25
 76
     2
 10
196.294502321266
 20
354.24028356082
 30
0.0
 10
185.663189314892
 20
385.0070856668393
 30
0.0
1001
ACAD
1000
DSTYLE
1002
{
1070
     5
1000
EX_NORM
1070
    41
1040
7.0
1070
   341
1005
4A
1002
}
  0
LEADER
  5
1CC
330
1F
100
AcDbEntity
  8
LAY-2
  6
CONTINUOUS
 62
     6
100
AcDbLeader
  3
ISO-25
 76
     2
 10
227.7
 20
309.0
 30
0.0
 10
235.7319733514097
 20
296.2663837111798
 30
0.0
1001
ACAD
1000
DSTYLE
1002
{
1070
     5
1000
EX_NORM
1070
    41
1040
7.0
1070
   341
1005
4A
1002
}
  0
POLYLINE
  5
1CD
330
1F
100
AcDbEntity
  8
LAY-2
  6
CONTINUOUS
 62
     6
100
AcDb2dPolyline
 66
     1
 10
0.0
 20
0.0
 30
0.0
 70
   128
  0
VERTEX
  5
1CE
330
1CD
100
AcDbEntity
  8
LAY-2
  6
CONTINUOUS
 62
     6
100
AcDbVertex
100
AcDb2dVertex
 10
251.7
 20
316.25
 30
0.0
  0
VERTEX
  5
1CF
330
1CD
100
AcDbEntity
  8
LAY-2
  6
CONTINUOUS
 62
     6
100
AcDbVertex
100
AcDb2dVertex
 10
263.5203577645813
 20
312.2591060124738
 30
0.0
  0
SEQEND
  5
1D0
330
1CD
100
AcDbEntity
  8
LAY-2
  6
CONTINUOUS
 62
     6
  0
LINE
  5
1D1
330
1F
100
AcDbEntity
  8
LAY-2
  6
CONTINUOUS
 62
     6
100
AcDbLine
 10
258.7053899161426
 20
315.1161467317508
 30
0.0
 11
251.7
 21
316.25
 31
0.0
  0
LINE
  5
1D2
330
1F
100
AcDbEntity
  8
LAY-2
  6
CONTINUOUS
 62
     6
100
AcDbLine
 10
251.7
 20
316.25
 30
0.0
 11
257.9589839958378
 21
312.9054177464208
 31
0.0
  0
LINE
  5
1D3
330
1F
100
AcDbEntity
  8
LAY-2
  6
EXLTYPE3
 62
     1
100
AcDbLine
 10
218.0
 20
354.632287
 30
0.0
 11
218.0
 21
301.8
 31
0.0
  0
LINE
  5
1D4
330
1F
100
AcDbEntity
  8
LAY-2
  6
EXLTYPE3
 62
     1
100
AcDbLine
 10
178.0
 20
147.1
 30
0.0
 11
178.0
 21
241.8
 31
0.0
  0
LINE
  5
1D5
330
1F
100
AcDbEntity
  8
LAY-2
  6
CONTINUOUS
 62
     2
100
AcDbLine
 10
185.94
 20
161.0
 30
0.0
 11
170.06
 21
161.0
 31
0.0
  0
LINE
  5
1D6
330
1F
100
AcDbEntity
  8
LAY-2
  6
CONTINUOUS
 62
     2
100
AcDbLine
 10
170.06
 20
161.0
 30
0.0
 11
170.06
 21
241.8
 31
0.0
  0
LINE
  5
1D7
330
1F
100
AcDbEntity
  8
LAY-2
  6
CONTINUOUS
 62
     2
100
AcDbLine
 10
185.94
 20
161.0
 30
0.0
 11
185.94
 21
241.8
 31
0.0
  0
LINE
  5
1D8
330
1F
100
AcDbEntity
  8
LAY-2
  6
EXLTYPE2
 62
     6
100
AcDbLine
 10
40.0
 20
296.0
 30
0.0
 11
-0.7999999999999972
 21
296.0
 31
0.0
  0
ENDSEC
  0
SECTION
  2
OBJECTS
  0
DICTIONARY
  5
C
330
0
100
AcDbDictionary
  3
ACAD_GROUP
350
D
  3
ACAD_LAYOUT
350
1A
  3
ACAD_MATERIAL
350
3B
  3
ACAD_MLEADERSTYLE
350
1FB
  3
ACAD_MLINESTYLE
350
17
  3
ACAD_PLOTSETTINGS
350
19
  3
ACAD_VISUALSTYLE
350
2A
  3
ACDBHEADERROUNDTRIPXREC
350
1D9
  3
ACDBVARIABLEDICTIONARY
350
1F9
  0
DICTIONARY
  5
D
102
{ACAD_REACTORS
330
C
102
}
330
C
100
AcDbDictionary
  0
DICTIONARY
  5
1A
102
{ACAD_REACTORS
330
C
102
}
330
C
100
AcDbDictionary
  0
DICTIONARY
  5
3B
102
{ACAD_REACTORS
330
C
102
}
330
C
100
AcDbDictionary
  3
BYBLOCK
350
3D
  3
BYLAYER
350
3C
  3
GLOBAL
350
3E
  0
DICTIONARY
  5
1FB
102
{ACAD_REACTORS
330
C
102
}
330
C
100
AcDbDictionary
  0
DICTIONARY
  5
17
102
{ACAD_REACTORS
330
C
102
}
330
C
100
AcDbDictionary
  3
STANDARD
350
18
  0
DICTIONARY
  5
19
102
{ACAD_REACTORS
330
C
102
}
330
C
100
AcDbDictionary
  0
DICTIONARY
  5
2A
102
{ACAD_REACTORS
330
C
102
}
330
C
100
AcDbDictionary
  3
2DWIREFRAME
350
2F
  3
3D_HIDDEN
350
31
  3
3DWIREFRAME
350
30
  3
BASIC
350
32
  3
BRIGHTEN
350
36
  3
COLORCHANGE
350
3A
  3
CONCEPTUAL
350
34
  3
DIM
350
35
  3
FACEPATTERN
350
39
  3
FLAT
350
2B
  3
FLATWITHEDGES
350
2C
  3
GOURAUD
350
2D
  3
GOURAUDWITHEDGES
350
2E
  3
LINEPATTERN
350
38
  3
REALISTIC
350
33
  3
THICKEN
350
37
  0
DICTIONARY
  5
1D9
102
{ACAD_REACTORS
330
C
102
}
330
C
100
AcDbDictionary
  3
CEPSNTYPE
350
1E2
  3
DIMSTYLEDATA
350
1F8
  3
FINGERPRINTGUID
350
1E3
  3
HYPERLINKBASE
350
1DC
  3
INSUNITS
350
1E1
  3
LAYOUTDICT
350
1DE
  3
LWETCUNION
350
1E0
  3
PLOTSETDICT
350
1DF
  3
PSVPSCALE
350
1E5
  3
PUCSBASE
350
1E8
  3
PUCSORGBACK
350
1EE
  3
PUCSORGBOTTOM
350
1EA
  3
PUCSORGFRONT
350
1ED
  3
PUCSORGLEFT
350
1EB
  3
PUCSORGRIGHT
350
1EC
  3
PUCSORGTOP
350
1E9
  3
PUCSORTHOREF
350
1E6
  3
PUCSORTHOVIEW
350
1E7
  3
STYLESHEET
350
1DD
  3
TSTACKALIGN
350
1DA
  3
TSTACKSIZE
350
1DB
  3
UCSBASE
350
1F1
  3
UCSORGBACK
350
1F7
  3
UCSORGBOTTOM
350
1F3
  3
UCSORGFRONT
350
1F6
  3
UCSORGLEFT
350
1F4
  3
UCSORGRIGHT
350
1F5
  3
UCSORGTOP
350
1F2
  3
UCSORTHOREF
350
1EF
  3
UCSORTHOVIEW
350
1F0
  3
VERSIONGUID
350
1E4
  0
DICTIONARY
  5
1F9
102
{ACAD_REACTORS
330
C
102
}
330
C
100
AcDbDictionary
  3
DIMASSOC
350
1FE
  3
HIDETEXT
350
1FF
  3
PSOLHEIGHT
350
1FD
  3
PSOLWIDTH
350
1FC
  0
MATERIAL
  5
3D
102
{ACAD_REACTORS
330
3B
102
}
102
{ACAD_XDICTIONARY
360
202
102
}
330
3B
100
AcDbMaterial
  1
ByBlock
  0
MATERIAL
  5
3C
102
{ACAD_REACTORS
330
3B
102
}
102
{ACAD_XDICTIONARY
360
200
102
}
330
3B
100
AcDbMaterial
  1
ByLayer
  0
MATERIAL
  5
3E
102
{ACAD_REACTORS
330
3B
102
}
102
{ACAD_XDICTIONARY
360
204
102
}
330
3B
100
AcDbMaterial
  1
Global
  0
MLINESTYLE
  5
18
102
{ACAD_REACTORS
330
17
102
}
330
17
100
AcDbMlineStyle
  2
Standard
 70
     0
  3

 62
   256
 51
90.0
 52
90.0
 71
     2
 49
0.5
 62
   256
  6
BYLAYER
 49
-0.5
 62
   256
  6
BYLAYER
  0
ACAD_PROXY_OBJECT
  5
2F
102
{ACAD_REACTORS
330
2A
102
}
330
2A
100
AcDbProxyObject
 90
      499
 91
      501
 93
      436
310
42CC9915DA5C99599C985B595049028333333333333E3BF0000000000000FB0107901411070040501600405405064090741402480A0340
1001
ACAD
1000
AcDbSavedByObjectVersion
1070
     0
  0
ACAD_PROXY_OBJECT
  5
31
102
{ACAD_REACTORS
330
2A
102
}
330
2A
100
AcDbProxyObject
 90
      499
 91
      501
 93
      500
310
424CD108121A5919195B90640502408333333333333E3BF0000000000000FB01079024090700405020000000000001110200405405064090740C02480A0340
1001
ACAD
1000
AcDbSavedByObjectVersion
1070
     0
  0
ACAD_PROXY_OBJECT
  5
30
102
{ACAD_REACTORS
330
2A
102
}
330
2A
100
AcDbProxyObject
 90
      499
 91
      501
 93
      436
310
42CCD915DA5C99599C985B595059028333333333333E3BF0000000000000FB0107901411070040501600405405064090741402480A0340
1001
ACAD
1000
AcDbSavedByObjectVersion
1070
     0
  0
ACAD_PROXY_OBJECT
  5
32
102
{ACAD_REACTORS
330
2A
102
}
330
2A
100
AcDbProxyObject
 90
      499
 91
      501
 93
      388
310
4150985CDA58D07406404333333333333E3BF0000000000000FB0107A41107004050150841D405064090741402480A0350
1001
ACAD
1000
AcDbSavedByObjectVersion
1070
     0
  0
ACAD_PROXY_OBJECT
  5
36
102
{ACAD_REACTORS
330
2A
102
}
330
2A
100
AcDbProxyObject
 90
      499
 91
      501
 93
      428
310
42109C9A59DA1D195B90C409028333333333333E3BF0000000000000FB010790141107004050150841D405064090741402480A029950
1001
ACAD
1000
AcDbSavedByObjectVersion
1070
     0
  0
ACAD_PROXY_OBJECT
  5
3A
102
{ACAD_REACTORS
330
2A
102
}
330
2A
100
AcDbProxyObject
 90
      499
 91
      501
 93
      452
310
42D0DBDB1BDC90DA185B99D95104090240C333333333333E3BF0000000000000FB0108901411070040501508421405064090741402480A0350
1001
ACAD
1000
AcDbSavedByObjectVersion
1070
     0
  0
ACAD_PROXY_OBJECT
  5
34
102
{ACAD_REACTORS
330
2A
102
}
330
2A
100
AcDbProxyObject
 90
      499
 91
      501
 93
      500
310
4290DBDB98D95C1D1D585B10940D028333333333333E3BF0000000000000FB0107902409070040501000000000000111010841D405064090740C02480A0340
1001
ACAD
1000
AcDbSavedByObjectVersion
1070
     0
  0
ACAD_PROXY_OBJECT
  5
35
102
{ACAD_REACTORS
330
2A
102
}
330
2A
100
AcDbProxyObject
 90
      499
 91
      501
 93
      412
310
40D11A5B50B409028333333333333E3BF0000000000000FB010790141107004050150841D405064090741402480A02677FFFFFD0
1001
ACAD
1000
AcDbSavedByObjectVersion
1070
     0
  0
ACAD_PROXY_OBJECT
  5
39
102
{ACAD_REACTORS
330
2A
102
}
330
2A
100
AcDbProxyObject
 90
      499
 91
      501
 93
      444
310
42D19858D95C185D1D195C9B90F409028333333333333E3BF0000000000000FB010790141107004050150841D405064090741402480A0350
1001
ACAD
1000
AcDbSavedByObjectVersion
1070
     0
  0
ACAD_PROXY_OBJECT
  5
2B
102
{ACAD_REACTORS
330
2A
102
}
330
2A
100
AcDbProxyObject
 90
      499
 91
      501
 93
      388
310
41119B185D240901404333333333333E3BF0000000000000F9010740A41107004050150841D405064090741402480A1B50
1001
ACAD
1000
AcDbSavedByObjectVersion
1070
     0
  0
ACAD_PROXY_OBJECT
  5
2C
102
{ACAD_REACTORS
330
2A
102
}
330
2A
100
AcDbProxyObject
 90
      499
 91
      501
 93
      476
310
43519B185D15DA5D1A115919D95CD0140901404333333333333E3BF0000000000000F9010740901411070040501600405405064090741402480A1B50
1001
ACAD
1000
AcDbSavedByObjectVersion
1070
     0
  0
ACAD_PROXY_OBJECT
  5
2D
102
{ACAD_REACTORS
330
2A
102
}
330
2A
100
AcDbProxyObject
 90
      499
 91
      501
 93
      412
310
41D1DBDD5C985D5910240902404333333333333E3BF0000000000000F9010740A411070040501641D405064090741402480A1B50
1001
ACAD
1000
AcDbSavedByObjectVersion
1070
     0
  0
ACAD_PROXY_OBJECT
  5
2E
102
{ACAD_REACTORS
330
2A
102
}
330
2A
100
AcDbProxyObject
 90
      499
 91
      501
 93
      500
310
4411DBDD5C985D5915DA5D1A115919D95CD0340902404333333333333E3BF0000000000000F9010740901411070040501600405405064090741402480A1B50
1001
ACAD
1000
AcDbSavedByObjectVersion
1070
     0
  0
ACAD_PROXY_OBJECT
  5
38
102
{ACAD_REACTORS
330
2A
102
}
330
2A
100
AcDbProxyObject
 90
      499
 91
      501
 93
      444
310
42D31A5B995C185D1D195C9B90E409028333333333333E3BF0000000000000FB010790141107004050750841D405064090741402483A0350
1001
ACAD
1000
AcDbSavedByObjectVersion
1070
     0
  0
ACAD_PROXY_OBJECT
  5
33
102
{ACAD_REACTORS
330
2A
102
}
330
2A
100
AcDbProxyObject
 90
      499
 91
      501
 93
      420
310
425499585B1A5CDD1A58D08409028333333333333E3BF0000000000000FB01079019070040501508421405064090741402480A1B40
1001
ACAD
1000
AcDbSavedByObjectVersion
1070
     0
  0
ACAD_PROXY_OBJECT
  5
37
102
{ACAD_REACTORS
330
2A
102
}
330
2A
100
AcDbProxyObject
 90
      499
 91
      501
 93
      412
310
41D51A1A58DAD95B90D409028333333333333E3BF0000000000000FB010790141107004050150C41D405064090741402480A0350
1001
ACAD
1000
AcDbSavedByObjectVersion
1070
     0
  0
XRECORD
  5
1E2
102
{ACAD_REACTORS
330
1D9
102
}
330
1D9
100
AcDbXrecord
 90
        0
  0
XRECORD
  5
1F8
102
{ACAD_REACTORS
330
1D9
102
}
330
1D9
100
AcDbXrecord
1000
DSTYLE
1002
{
1070
   340
340
11
1002
}
  0
XRECORD
  5
1E3
102
{ACAD_REACTORS
330
1D9
102
}
330
1D9
100
AcDbXrecord
  1
{4D1F3FE2-AFC0-40DA-B4B4-45B8ECB1B913}
  0
XRECORD
  5
1DC
102
{ACAD_REACTORS
330
1D9
102
}
330
1D9
100
AcDbXrecord
  1

  0
XRECORD
  5
1E1
102
{ACAD_REACTORS
330
1D9
102
}
330
1D9
100
AcDbXrecord
 90
        4
  0
XRECORD
  5
1DE
102
{ACAD_REACTORS
330
1D9
102
}
330
1D9
100
AcDbXrecord
340
1A
  0
XRECORD
  5
1E0
102
{ACAD_REACTORS
330
1D9
102
}
330
1D9
100
AcDbXrecord
 90
    10781
  0
XRECORD
  5
1DF
102
{ACAD_REACTORS
330
1D9
102
}
330
1D9
100
AcDbXrecord
340
19
  0
XRECORD
  5
1E5
102
{ACAD_REACTORS
330
1D9
102
}
330
1D9
100
AcDbXrecord
 40
0.0
  0
XRECORD
  5
1E8
102
{ACAD_REACTORS
330
1D9
102
}
330
1D9
100
AcDbXrecord
340
0
  0
XRECORD
  5
1EE
102
{ACAD_REACTORS
330
1D9
102
}
330
1D9
100
AcDbXrecord
 10
0.0
 20
0.0
 30
0.0
  0
XRECORD
  5
1EA
102
{ACAD_REACTORS
330
1D9
102
}
330
1D9
100
AcDbXrecord
 10
0.0
 20
0.0
 30
0.0
  0
XRECORD
  5
1ED
102
{ACAD_REACTORS
330
1D9
102
}
330
1D9
100
AcDbXrecord
 10
0.0
 20
0.0
 30
0.0
  0
XRECORD
  5
1EB
102
{ACAD_REACTORS
330
1D9
102
}
330
1D9
100
AcDbXrecord
 10
0.0
 20
0.0
 30
0.0
  0
XRECORD
  5
1EC
102
{ACAD_REACTORS
330
1D9
102
}
330
1D9
100
AcDbXrecord
 10
0.0
 20
0.0
 30
0.0
  0
XRECORD
  5
1E9
102
{ACAD_REACTORS
330
1D9
102
}
330
1D9
100
AcDbXrecord
 10
0.0
 20
0.0
 30
0.0
  0
XRECORD
  5
1E6
102
{ACAD_REACTORS
330
1D9
102
}
330
1D9
100
AcDbXrecord
340
0
  0
XRECORD
  5
1E7
102
{ACAD_REACTORS
330
1D9
102
}
330
1D9
100
AcDbXrecord
 70
     0
  0
XRECORD
  5
1DD
102
{ACAD_REACTORS
330
1D9
102
}
330
1D9
100
AcDbXrecord
  1

  0
XRECORD
  5
1DA
102
{ACAD_REACTORS
330
1D9
102
}
330
1D9
100
AcDbXrecord
 90
        1
  0
XRECORD
  5
1DB
102
{ACAD_REACTORS
330
1D9
102
}
330
1D9
100
AcDbXrecord
 90
       70
  0
XRECORD
  5
1F1
102
{ACAD_REACTORS
330
1D9
102
}
330
1D9
100
AcDbXrecord
340
0
  0
XRECORD
  5
1F7
102
{ACAD_REACTORS
330
1D9
102
}
330
1D9
100
AcDbXrecord
 10
0.0
 20
0.0
 30
0.0
  0
XRECORD
  5
1F3
102
{ACAD_REACTORS
330
1D9
102
}
330
1D9
100
AcDbXrecord
 10
0.0
 20
0.0
 30
0.0
  0
XRECORD
  5
1F6
102
{ACAD_REACTORS
330
1D9
102
}
330
1D9
100
AcDbXrecord
 10
0.0
 20
0.0
 30
0.0
  0
XRECORD
  5
1F4
102
{ACAD_REACTORS
330
1D9
102
}
330
1D9
100
AcDbXrecord
 10
0.0
 20
0.0
 30
0.0
  0
XRECORD
  5
1F5
102
{ACAD_REACTORS
330
1D9
102
}
330
1D9
100
AcDbXrecord
 10
0.0
 20
0.0
 30
0.0
  0
XRECORD
  5
1F2
102
{ACAD_REACTORS
330
1D9
102
}
330
1D9
100
AcDbXrecord
 10
0.0
 20
0.0
 30
0.0
  0
XRECORD
  5
1EF
102
{ACAD_REACTORS
330
1D9
102
}
330
1D9
100
AcDbXrecord
340
0
  0
XRECORD
  5
1F0
102
{ACAD_REACTORS
330
1D9
102
}
330
1D9
100
AcDbXrecord
 70
     0
  0
XRECORD
  5
1E4
102
{ACAD_REACTORS
330
1D9
102
}
330
1D9
100
AcDbXrecord
  1
{FAEB1C32-E019-11D5-929B-00C0DF256EC4}
  0
DICTIONARYVAR
  5
1FE
102
{ACAD_REACTORS
330
1F9
102
}
330
1F9
100
DictionaryVariables
280
     0
  1
2
  0
DICTIONARYVAR
  5
1FF
102
{ACAD_REACTORS
330
1F9
102
}
330
1F9
100
DictionaryVariables
280
     0
  1
1
  0
DICTIONARYVAR
  5
1FD
102
{ACAD_REACTORS
330
1F9
102
}
330
1F9
100
DictionaryVariables
280
     0
  1
80.000000
  0
DICTIONARYVAR
  5
1FC
102
{ACAD_REACTORS
330
1F9
102
}
330
1F9
100
DictionaryVariables
280
     0
  1
5.000000
  0
DICTIONARY
  5
202
330
3D
100
AcDbDictionary
280
     1
  3
ACAD_XREC_ROUNDTRIP
360
203
  0
DICTIONARY
  5
200
330
3C
100
AcDbDictionary
280
     1
  3
ACAD_XREC_ROUNDTRIP
360
201
  0
DICTIONARY
  5
204
330
3E
100
AcDbDictionary
280
     1
  3
ACAD_XREC_ROUNDTRIP
360
205
  0
XRECORD
  5
203
102
{ACAD_REACTORS
330
202
102
}
330
202
100
AcDbXrecord
102
MATERIAL
148
0.0
149
0.0
149
0.0
 93
        0
 94
      127
282
     0
 72
     1
 77
     1
171
     1
175
     1
179
     1
273
     0
  0
XRECORD
  5
201
102
{ACAD_REACTORS
330
200
102
}
330
200
100
AcDbXrecord
102
MATERIAL
148
0.0
149
0.0
149
0.0
 93
        0
 94
      127
282
     0
 72
     1
 77
     1
171
     1
175
     1
179
     1
273
     0
  0
XRECORD
  5
205
102
{ACAD_REACTORS
330
204
102
}
330
204
100
AcDbXrecord
102
MATERIAL
148
0.0
149
0.0
149
0.0
 93
        0
 94
      127
282
     0
 72
     1
 77
     1
171
     1
175
     1
179
     1
273
     0
  0
ENDSEC
  0
EOF
