  0
SECTION
  2
HEADER
  9
$ACADVER
  1
AC1014
  9
$ACADMAINTVER
 70
     9
  9
$DWGCODEPAGE
  3
ANSI_932
  9
$INSBASE
 10
0.0
 20
0.0
 30
0.0
  9
$EXTMIN
 10
-0.3999999999999895
 20
10.0
 30
0.0
  9
$EXTMAX
 10
198.0
 20
286.0
 30
0.0
  9
$LIMMIN
 10
0.0
 20
0.0
  9
$LIMMAX
 10
210.0
 20
297.0
  9
$ORTHOMODE
 70
     0
  9
$REGENMODE
 70
     1
  9
$FILLMODE
 70
     1
  9
$QTEXTMODE
 70
     0
  9
$MIRRTEXT
 70
     1
  9
$DRAGMODE
 70
     2
  9
$LTSCALE
 40
1.0
  9
$OSMODE
 70
    37
  9
$ATTMODE
 70
     1
  9
$TEXTSIZE
 40
2.5
  9
$TRACEWID
 40
1.0
  9
$TEXTSTYLE
  7
STANDARD
  9
$CLAYER
  8
LAY-2
  9
$CELTYPE
  6
BYLAYER
  9
$CECOLOR
 62
   256
  9
$CELTSCALE
 40
1.0
  9
$DELOBJ
 70
     1
  9
$DISPSILH
 70
     0
  9
$DIMSCALE
 40
1.0
  9
$DIMASZ
 40
2.5
  9
$DIMEXO
 40
0.625
  9
$DIMDLI
 40
3.75
  9
$DIMRND
 40
0.0
  9
$DIMDLE
 40
0.0
  9
$DIMEXE
 40
1.25
  9
$DIMTP
 40
0.0
  9
$DIMTM
 40
0.0
  9
$DIMTXT
 40
2.5
  9
$DIMCEN
 40
2.5
  9
$DIMTSZ
 40
0.0
  9
$DIMTOL
 70
     0
  9
$DIMLIM
 70
     0
  9
$DIMTIH
 70
     0
  9
$DIMTOH
 70
     0
  9
$DIMSE1
 70
     0
  9
$DIMSE2
 70
     0
  9
$DIMTAD
 70
     1
  9
$DIMZIN
 70
     8
  9
$DIMBLK
  1

  9
$DIMASO
 70
     1
  9
$DIMSHO
 70
     1
  9
$DIMPOST
  1

  9
$DIMAPOST
  1

  9
$DIMALT
 70
     0
  9
$DIMALTD
 70
     3
  9
$DIMALTF
 40
0.03937007874016
  9
$DIMLFAC
 40
1.0
  9
$DIMTOFL
 70
     1
  9
$DIMTVP
 40
0.0
  9
$DIMTIX
 70
     0
  9
$DIMSOXD
 70
     0
  9
$DIMSAH
 70
     0
  9
$DIMBLK1
  1

  9
$DIMBLK2
  1

  9
$DIMSTYLE
  2
ISO-25
  9
$DIMCLRD
 70
     0
  9
$DIMCLRE
 70
     0
  9
$DIMCLRT
 70
     0
  9
$DIMTFAC
 40
1.0
  9
$DIMGAP
 40
0.625
  9
$DIMJUST
 70
     0
  9
$DIMSD1
 70
     0
  9
$DIMSD2
 70
     0
  9
$DIMTOLJ
 70
     0
  9
$DIMTZIN
 70
     8
  9
$DIMALTZ
 70
     0
  9
$DIMALTTZ
 70
     0
  9
$DIMFIT
 70
     3
  9
$DIMUPT
 70
     0
  9
$DIMUNIT
 70
     2
  9
$DIMDEC
 70
     2
  9
$DIMTDEC
 70
     2
  9
$DIMALTU
 70
     2
  9
$DIMALTTD
 70
     3
  9
$DIMTXSTY
  7
STANDARD
  9
$DIMAUNIT
 70
     0
  9
$LUNITS
 70
     2
  9
$LUPREC
 70
     4
  9
$SKETCHINC
 40
1.0
  9
$FILLETRAD
 40
10.0
  9
$AUNITS
 70
     0
  9
$AUPREC
 70
     0
  9
$MENU
  1
.
  9
$ELEVATION
 40
0.0
  9
$PELEVATION
 40
0.0
  9
$THICKNESS
 40
0.0
  9
$LIMCHECK
 70
     0
  9
$CHAMFERA
 40
10.0
  9
$CHAMFERB
 40
10.0
  9
$CHAMFERC
 40
20.0
  9
$CHAMFERD
 40
0.0
  9
$SKPOLY
 70
     0
  9
$TDCREATE
 40
2460361.613572916
  9
$TDUPDATE
 40
2460361.613573067
  9
$TDINDWG
 40
0.0000000116
  9
$TDUSRTIMER
 40
0.0000000116
  9
$USRTIMER
 70
     1
  9
$ANGBASE
 50
0.0
  9
$ANGDIR
 70
     0
  9
$PDMODE
 70
     0
  9
$PDSIZE
 40
0.0
  9
$PLINEWID
 40
0.0
  9
$COORDS
 70
     1
  9
$SPLFRAME
 70
     0
  9
$SPLINETYPE
 70
     6
  9
$SPLINESEGS
 70
     8
  9
$ATTDIA
 70
     0
  9
$ATTREQ
 70
     1
  9
$HANDLING
 70
     1
  9
$HANDSEED
  5
2AD
  9
$SURFTAB1
 70
     6
  9
$SURFTAB2
 70
     6
  9
$SURFTYPE
 70
     6
  9
$SURFU
 70
     6
  9
$SURFV
 70
     6
  9
$UCSNAME
  2

  9
$UCSORG
 10
0.0
 20
0.0
 30
0.0
  9
$UCSXDIR
 10
1.0
 20
0.0
 30
0.0
  9
$UCSYDIR
 10
0.0
 20
1.0
 30
0.0
  9
$PUCSNAME
  2

  9
$PUCSORG
 10
0.0
 20
0.0
 30
0.0
  9
$PUCSXDIR
 10
1.0
 20
0.0
 30
0.0
  9
$PUCSYDIR
 10
0.0
 20
1.0
 30
0.0
  9
$USERI1
 70
     0
  9
$USERI2
 70
     0
  9
$USERI3
 70
     0
  9
$USERI4
 70
     0
  9
$USERI5
 70
     0
  9
$USERR1
 40
0.0
  9
$USERR2
 40
0.0
  9
$USERR3
 40
0.0
  9
$USERR4
 40
0.0
  9
$USERR5
 40
0.0
  9
$WORLDVIEW
 70
     1
  9
$SHADEDGE
 70
     3
  9
$SHADEDIF
 70
    70
  9
$TILEMODE
 70
     1
  9
$MAXACTVP
 70
    64
  9
$PINSBASE
 10
0.0
 20
0.0
 30
0.0
  9
$PLIMCHECK
 70
     0
  9
$PEXTMIN
 10
1.000000000000000E+20
 20
1.000000000000000E+20
 30
1.000000000000000E+20
  9
$PEXTMAX
 10
-1.000000000000000E+20
 20
-1.000000000000000E+20
 30
-1.000000000000000E+20
  9
$PLIMMIN
 10
0.0
 20
0.0
  9
$PLIMMAX
 10
420.0
 20
297.0
  9
$UNITMODE
 70
     0
  9
$VISRETAIN
 70
     1
  9
$PLINEGEN
 70
     0
  9
$PSLTSCALE
 70
     1
  9
$TREEDEPTH
 70
  3020
  9
$PICKSTYLE
 70
     1
  9
$CMLSTYLE
  2
STANDARD
  9
$CMLJUST
 70
     0
  9
$CMLSCALE
 40
20.0
  9
$PROXYGRAPHICS
 70
     1
  9
$MEASUREMENT
 70
     1
  0
ENDSEC
  0
SECTION
  2
CLASSES
  0
CLASS
  1
ACDBDICTIONARYWDFLT
  2
AcDbDictionaryWithDefault
  3
ObjectDBX Classes
 90
        0
280
     0
281
     0
  0
CLASS
  1
VISUALSTYLE
  2
AcDbVisualStyle
  3
ObjectDBX Classes
 90
     4095
280
     0
281
     0
  0
CLASS
  1
MATERIAL
  2
AcDbMaterial
  3
ObjectDBX Classes
 90
     1153
280
     0
281
     0
  0
CLASS
  1
SUN
  2
AcDbSun
  3
SCENEOE
 90
     1024
280
     0
281
     0
  0
CLASS
  1
DICTIONARYVAR
  2
AcDbDictionaryVar
  3
ObjectDBX Classes
 90
        0
280
     0
281
     0
  0
CLASS
  1
XRECORD
  2
AcDbXrecord
  3
AutoCAD 2000
 90
        0
280
     0
281
     0
  0
CLASS
  1
LWPOLYLINE
  2
AcDbPolyline
  3
AutoCAD 2000
 90
        0
280
     0
281
     1
  0
CLASS
  1
HATCH
  2
AcDbHatch
  3
AutoCAD 2000
 90
        0
280
     0
281
     1
  0
CLASS
  1
ACDBPLACEHOLDER
  2
AcDbPlaceHolder
  3
ObjectDBX Classes
 90
        0
280
     0
281
     0
  0
CLASS
  1
LAYOUT
  2
AcDbLayout
  3
ObjectDBX Classes
 90
        0
280
     0
281
     0
  0
ENDSEC
  0
SECTION
  2
TABLES
  0
TABLE
  2
VPORT
  5
8
330
0
100
AcDbSymbolTable
 70
     1
  0
VPORT
  5
29
330
8
100
AcDbSymbolTableRecord
100
AcDbViewportTableRecord
  2
*ACTIVE
 70
     0
 10
0.0
 20
0.0
 11
1.0
 21
1.0
 12
197.6000000000001
 22
296.0
 13
0.0
 23
0.0
 14
10.0
 24
10.0
 15
10.0
 25
10.0
 16
0.0
 26
0.0
 36
1.0
 17
0.0
 27
0.0
 37
0.0
 40
552.0
 41
0.7188405797101449
 42
50.0
 43
0.0
 44
0.0
 50
0.0
 51
0.0
 71
     0
 72
  1000
 73
     1
 74
     3
 75
     0
 76
     0
 77
     0
 78
     0
  0
ENDTAB
  0
TABLE
  2
LTYPE
  5
5
330
0
100
AcDbSymbolTable
 70
     7
  0
LTYPE
  5
14
330
5
100
AcDbSymbolTableRecord
100
AcDbLinetypeTableRecord
  2
BYBLOCK
 70
     0
  3

 72
    65
 73
     0
 40
0.0
  0
LTYPE
  5
15
330
5
100
AcDbSymbolTableRecord
100
AcDbLinetypeTableRecord
  2
BYLAYER
 70
     0
  3

 72
    65
 73
     0
 40
0.0
  0
LTYPE
  5
16
330
5
100
AcDbSymbolTableRecord
100
AcDbLinetypeTableRecord
  2
CONTINUOUS
 70
     0
  3
Solid line
 72
    65
 73
     0
 40
0.0
  0
LTYPE
  5
40
330
5
100
AcDbSymbolTableRecord
100
AcDbLinetypeTableRecord
  2
EXLTYPE1
 70
     0
  3
破線
 72
    65
 73
     2
 40
3.0
 49
2.0
 74
     0
 49
-1.0
 74
     0
  0
LTYPE
  5
41
330
5
100
AcDbSymbolTableRecord
100
AcDbLinetypeTableRecord
  2
EXLTYPE2
 70
     0
  3
点線
 72
    65
 73
     2
 40
2.0
 49
1.0
 74
     0
 49
-1.0
 74
     0
  0
LTYPE
  5
42
330
5
100
AcDbSymbolTableRecord
100
AcDbLinetypeTableRecord
  2
EXLTYPE3
 70
     0
  3
一点鎖線
 72
    65
 73
     4
 40
10.0
 49
7.0
 74
     0
 49
-1.0
 74
     0
 49
1.0
 74
     0
 49
-1.0
 74
     0
  0
LTYPE
  5
43
330
5
100
AcDbSymbolTableRecord
100
AcDbLinetypeTableRecord
  2
EXLTYPE4
 70
     0
  3
二点鎖線
 72
    65
 73
     6
 40
12.0
 49
7.0
 74
     0
 49
-1.0
 74
     0
 49
1.0
 74
     0
 49
-1.0
 74
     0
 49
1.0
 74
     0
 49
-1.0
 74
     0
  0
LTYPE
  5
44
330
5
100
AcDbSymbolTableRecord
100
AcDbLinetypeTableRecord
  2
EXLTYPE5
 70
     0
  3
三点鎖線
 72
    65
 73
     8
 40
37.0
 49
30.0
 74
     0
 49
-1.0
 74
     0
 49
1.0
 74
     0
 49
-1.0
 74
     0
 49
1.0
 74
     0
 49
-1.0
 74
     0
 49
1.0
 74
     0
 49
-1.0
 74
     0
  0
LTYPE
  5
45
330
5
100
AcDbSymbolTableRecord
100
AcDbLinetypeTableRecord
  2
EXLTYPE6
 70
     0
  3
四点鎖線
 72
    65
 73
    10
 40
39.0
 49
30.0
 74
     0
 49
-1.0
 74
     0
 49
1.0
 74
     0
 49
-1.0
 74
     0
 49
1.0
 74
     0
 49
-1.0
 74
     0
 49
1.0
 74
     0
 49
-1.0
 74
     0
 49
1.0
 74
     0
 49
-1.0
 74
     0
  0
ENDTAB
  0
TABLE
  2
LAYER
  5
2
330
0
100
AcDbSymbolTable
 70
     4
  0
LAYER
  5
10
330
2
100
AcDbSymbolTableRecord
100
AcDbLayerTableRecord
  2
0
 70
     0
 62
     7
  6
CONTINUOUS
  0
LAYER
  5
48
330
2
100
AcDbSymbolTableRecord
100
AcDbLayerTableRecord
  2
LAY-1
 70
     0
 62
     7
  6
CONTINUOUS
  0
LAYER
  5
49
330
2
100
AcDbSymbolTableRecord
100
AcDbLayerTableRecord
  2
LAY-2
 70
     0
 62
     7
  6
CONTINUOUS
  0
LAYER
  5
266
330
2
100
AcDbSymbolTableRecord
100
AcDbLayerTableRecord
  2
DEFPOINTS
 70
     0
 62
     7
  6
CONTINUOUS
  0
ENDTAB
  0
TABLE
  2
STYLE
  5
3
330
0
100
AcDbSymbolTable
 70
     5
  0
STYLE
  5
11
330
3
100
AcDbSymbolTableRecord
100
AcDbTextStyleTableRecord
  2
STANDARD
 70
     0
 40
0.0
 41
1.0
 50
0.0
 71
     0
 42
2.5
  3
monotxt
  4
extfont
  0
STYLE
  5
46
330
3
100
AcDbSymbolTableRecord
100
AcDbTextStyleTableRecord
  2
EXCADSTD
 70
     0
 40
0.0
 41
1.0
 50
0.0
 71
     0
 42
0.2
  3
monotxt
  4
extfont
  0
STYLE
  5
47
330
3
100
AcDbSymbolTableRecord
100
AcDbTextStyleTableRecord
  2
EXCADVERT
 70
     4
 40
0.0
 41
1.0
 50
0.0
 71
     0
 42
0.286885
  3
monotxt
  4
extfont
  0
STYLE
  5
A6
330
3
100
AcDbSymbolTableRecord
100
AcDbTextStyleTableRecord
  2
EXCADTTF1
 70
     0
 40
0.0
 41
1.0
 50
0.0
 71
     0
 42
0.2
  3
MSGOTHIC.TTC
  4

1001
ACAD
1000
MS Gothic
1071
    32817
  0
STYLE
  5
264
330
3
100
AcDbSymbolTableRecord
100
AcDbTextStyleTableRecord
  2
EXCADDIM1
 70
     0
 40
0.0
 41
0.84
 50
0.0
 71
     0
 42
0.2
  3
monotxt
  4
extfont
  0
ENDTAB
  0
TABLE
  2
VIEW
  5
6
330
0
100
AcDbSymbolTable
 70
     0
  0
ENDTAB
  0
TABLE
  2
UCS
  5
7
330
0
100
AcDbSymbolTable
 70
     0
  0
ENDTAB
  0
TABLE
  2
APPID
  5
9
330
0
100
AcDbSymbolTable
 70
     1
  0
APPID
  5
12
330
9
100
AcDbSymbolTableRecord
100
AcDbRegAppTableRecord
  2
ACAD
 70
     0
  0
ENDTAB
  0
TABLE
  2
DIMSTYLE
  5
A
330
0
100
AcDbSymbolTable
 70
     1
  0
DIMSTYLE
105
27
102
{ACAD_REACTORS
330
265
330
273
102
}
330
A
100
AcDbSymbolTableRecord
100
AcDbDimStyleTableRecord
  2
ISO-25
 70
     0
  3

  4

  5

  6

  7

 40
1.0
 41
2.5
 42
0.625
 43
3.75
 44
1.25
 45
0.0
 46
0.0
 47
0.0
 48
0.0
140
2.5
141
2.5
142
0.0
143
0.03937007874016
144
1.0
145
0.0
146
1.0
147
0.625
 71
     0
 72
     0
 73
     0
 74
     0
 75
     0
 76
     0
 77
     1
 78
     8
170
     0
171
     3
172
     1
173
     0
174
     0
175
     0
176
     0
177
     0
178
     0
270
     2
271
     2
272
     2
273
     2
274
     3
340
11
275
     0
280
     0
281
     0
282
     0
283
     0
284
     8
285
     0
286
     0
287
     5
288
     0
  0
ENDTAB
  0
TABLE
  2
BLOCK_RECORD
  5
1
330
0
100
AcDbSymbolTable
 70
    17
  0
BLOCK_RECORD
  5
1F
330
1
100
AcDbSymbolTableRecord
100
AcDbBlockTableRecord
  2
*MODEL_SPACE
  0
BLOCK_RECORD
  5
1B
330
1
100
AcDbSymbolTableRecord
100
AcDbBlockTableRecord
  2
*PAPER_SPACE
  0
BLOCK_RECORD
  5
4A
330
1
100
AcDbSymbolTableRecord
100
AcDbBlockTableRecord
  2
EX_NORM
  0
BLOCK_RECORD
  5
4D
330
1
100
AcDbSymbolTableRecord
100
AcDbBlockTableRecord
  2
EX_BNORM
  0
BLOCK_RECORD
  5
50
330
1
100
AcDbSymbolTableRecord
100
AcDbBlockTableRecord
  2
EX_BCIR
  0
BLOCK_RECORD
  5
53
330
1
100
AcDbSymbolTableRecord
100
AcDbBlockTableRecord
  2
EX_RCIVIL
  0
BLOCK_RECORD
  5
56
330
1
100
AcDbSymbolTableRecord
100
AcDbBlockTableRecord
  2
EX_SLANT
  0
BLOCK_RECORD
  5
59
330
1
100
AcDbSymbolTableRecord
100
AcDbBlockTableRecord
  2
EX_NONE
  0
BLOCK_RECORD
  5
5C
330
1
100
AcDbSymbolTableRecord
100
AcDbBlockTableRecord
  2
EX_CIVIL
  0
BLOCK_RECORD
  5
5F
330
1
100
AcDbSymbolTableRecord
100
AcDbBlockTableRecord
  2
EX_WCIR
  0
BLOCK_RECORD
  5
62
330
1
100
AcDbSymbolTableRecord
100
AcDbBlockTableRecord
  2
EX_WCIR2
  0
BLOCK_RECORD
  5
65
330
1
100
AcDbSymbolTableRecord
100
AcDbBlockTableRecord
  2
EX_WNORM
  0
BLOCK_RECORD
  5
68
330
1
100
AcDbSymbolTableRecord
100
AcDbBlockTableRecord
  2
EX_NNORM
  0
BLOCK_RECORD
  5
6B
330
1
100
AcDbSymbolTableRecord
100
AcDbBlockTableRecord
  2
EX_BBOX
  0
BLOCK_RECORD
  5
6E
330
1
100
AcDbSymbolTableRecord
100
AcDbBlockTableRecord
  2
EX_WBOX
  0
BLOCK_RECORD
  5
71
330
1
100
AcDbSymbolTableRecord
100
AcDbBlockTableRecord
  2
EX_INTEGRAL
  0
BLOCK_RECORD
  5
267
330
1
100
AcDbSymbolTableRecord
100
AcDbBlockTableRecord
  2
*D15
  0
BLOCK_RECORD
  5
274
330
1
100
AcDbSymbolTableRecord
100
AcDbBlockTableRecord
  2
*D16
  0
ENDTAB
  0
ENDSEC
  0
SECTION
  2
BLOCKS
  0
BLOCK
  5
20
330
1F
100
AcDbEntity
  8
0
100
AcDbBlockBegin
  2
*MODEL_SPACE
 70
     0
 10
0.0
 20
0.0
 30
0.0
  3
*MODEL_SPACE
  1

  0
ENDBLK
  5
21
330
1F
100
AcDbEntity
  8
0
100
AcDbBlockEnd
  0
BLOCK
  5
1C
330
1B
100
AcDbEntity
 67
     1
  8
0
100
AcDbBlockBegin
  2
*PAPER_SPACE
 70
     0
 10
0.0
 20
0.0
 30
0.0
  3
*PAPER_SPACE
  1

  0
ENDBLK
  5
1D
330
1B
100
AcDbEntity
 67
     1
  8
0
100
AcDbBlockEnd
  0
BLOCK
  5
4B
330
4A
100
AcDbEntity
  8
0
100
AcDbBlockBegin
  2
EX_NORM
 70
     0
 10
0.0
 20
0.0
 30
0.0
  3
EX_NORM
  1

  0
LINE
  5
74
330
4A
100
AcDbEntity
  8
0
  6
CONTINUOUS
 62
     0
100
AcDbLine
 10
0.0
 20
0.0
 30
0.0
 11
-1.0
 21
0.0
 31
0.0
  0
LINE
  5
75
330
4A
100
AcDbEntity
  8
0
  6
CONTINUOUS
 62
     0
100
AcDbLine
 10
0.0
 20
0.0
 30
0.0
 11
-1.0
 21
0.166666667
 31
0.0
  0
LINE
  5
76
330
4A
100
AcDbEntity
  8
0
  6
CONTINUOUS
 62
     0
100
AcDbLine
 10
0.0
 20
0.0
 30
0.0
 11
-1.0
 21
-0.166666667
 31
0.0
  0
ENDBLK
  5
4C
330
4A
100
AcDbEntity
  8
0
100
AcDbBlockEnd
  0
BLOCK
  5
4E
330
4D
100
AcDbEntity
  8
0
100
AcDbBlockBegin
  2
EX_BNORM
 70
     0
 10
0.0
 20
0.0
 30
0.0
  3
EX_BNORM
  1

  0
LINE
  5
77
330
4D
100
AcDbEntity
  8
0
  6
CONTINUOUS
 62
     0
100
AcDbLine
 10
0.0
 20
0.0
 30
0.0
 11
-1.0
 21
0.0
 31
0.0
  0
LINE
  5
78
330
4D
100
AcDbEntity
  8
0
  6
CONTINUOUS
 62
     0
100
AcDbLine
 10
0.0
 20
0.0
 30
0.0
 11
-1.0
 21
0.166666667
 31
0.0
  0
LINE
  5
79
330
4D
100
AcDbEntity
  8
0
  6
CONTINUOUS
 62
     0
100
AcDbLine
 10
0.0
 20
0.0
 30
0.0
 11
-1.0
 21
-0.166666667
 31
0.0
  0
LINE
  5
7A
330
4D
100
AcDbEntity
  8
0
  6
CONTINUOUS
 62
     0
100
AcDbLine
 10
0.0
 20
0.0
 30
0.0
 11
-1.0
 21
0.083333333
 31
0.0
  0
LINE
  5
7B
330
4D
100
AcDbEntity
  8
0
  6
CONTINUOUS
 62
     0
100
AcDbLine
 10
0.0
 20
0.0
 30
0.0
 11
-1.0
 21
-0.083333333
 31
0.0
  0
LINE
  5
7C
330
4D
100
AcDbEntity
  8
0
  6
CONTINUOUS
 62
     0
100
AcDbLine
 10
-1.0
 20
0.166666667
 30
0.0
 11
-1.0
 21
-0.166666667
 31
0.0
  0
ENDBLK
  5
4F
330
4D
100
AcDbEntity
  8
0
100
AcDbBlockEnd
  0
BLOCK
  5
51
330
50
100
AcDbEntity
  8
0
100
AcDbBlockBegin
  2
EX_BCIR
 70
     0
 10
0.0
 20
0.0
 30
0.0
  3
EX_BCIR
  1

  0
LINE
  5
7D
330
50
100
AcDbEntity
  8
0
  6
CONTINUOUS
 62
     0
100
AcDbLine
 10
0.0
 20
0.0
 30
0.0
 11
-1.0
 21
0.0
 31
0.0
  0
CIRCLE
  5
7E
330
50
100
AcDbEntity
  8
0
  6
CONTINUOUS
 62
     0
100
AcDbCircle
 10
0.0
 20
0.0
 30
0.0
 40
0.5
  0
CIRCLE
  5
7F
330
50
100
AcDbEntity
  8
0
  6
CONTINUOUS
 62
     0
100
AcDbCircle
 10
0.0
 20
0.0
 30
0.0
 40
0.25
  0
ENDBLK
  5
52
330
50
100
AcDbEntity
  8
0
100
AcDbBlockEnd
  0
BLOCK
  5
54
330
53
100
AcDbEntity
  8
0
100
AcDbBlockBegin
  2
EX_RCIVIL
 70
     0
 10
0.0
 20
0.0
 30
0.0
  3
EX_RCIVIL
  1

  0
LINE
  5
80
330
53
100
AcDbEntity
  8
0
  6
CONTINUOUS
 62
     0
100
AcDbLine
 10
0.0
 20
0.0
 30
0.0
 11
-1.0
 21
0.0
 31
0.0
  0
LINE
  5
81
330
53
100
AcDbEntity
  8
0
  6
CONTINUOUS
 62
     0
100
AcDbLine
 10
-1.0
 20
-0.25
 30
0.0
 11
0.0
 21
-0.25
 31
0.0
  0
LINE
  5
82
330
53
100
AcDbEntity
  8
0
  6
CONTINUOUS
 62
     0
100
AcDbLine
 10
-1.0
 20
-0.125
 30
0.0
 11
0.0
 21
-0.125
 31
0.0
  0
ENDBLK
  5
55
330
53
100
AcDbEntity
  8
0
100
AcDbBlockEnd
  0
BLOCK
  5
57
330
56
100
AcDbEntity
  8
0
100
AcDbBlockBegin
  2
EX_SLANT
 70
     0
 10
0.0
 20
0.0
 30
0.0
  3
EX_SLANT
  1

  0
LINE
  5
83
330
56
100
AcDbEntity
  8
0
  6
CONTINUOUS
 62
     0
100
AcDbLine
 10
0.0
 20
0.0
 30
0.0
 11
-1.0
 21
0.0
 31
0.0
  0
LINE
  5
84
330
56
100
AcDbEntity
  8
0
  6
CONTINUOUS
 62
     0
100
AcDbLine
 10
0.707106781
 20
0.707106781
 30
0.0
 11
-0.707106781
 21
-0.707106781
 31
0.0
  0
ENDBLK
  5
58
330
56
100
AcDbEntity
  8
0
100
AcDbBlockEnd
  0
BLOCK
  5
5A
330
59
100
AcDbEntity
  8
0
100
AcDbBlockBegin
  2
EX_NONE
 70
     0
 10
0.0
 20
0.0
 30
0.0
  3
EX_NONE
  1

  0
LINE
  5
85
330
59
100
AcDbEntity
  8
0
  6
CONTINUOUS
 62
     0
100
AcDbLine
 10
0.0
 20
0.0
 30
0.0
 11
-1.0
 21
0.0
 31
0.0
  0
ENDBLK
  5
5B
330
59
100
AcDbEntity
  8
0
100
AcDbBlockEnd
  0
BLOCK
  5
5D
330
5C
100
AcDbEntity
  8
0
100
AcDbBlockBegin
  2
EX_CIVIL
 70
     0
 10
0.0
 20
0.0
 30
0.0
  3
EX_CIVIL
  1

  0
LINE
  5
86
330
5C
100
AcDbEntity
  8
0
  6
CONTINUOUS
 62
     0
100
AcDbLine
 10
0.0
 20
0.0
 30
0.0
 11
-1.0
 21
0.0
 31
0.0
  0
LINE
  5
87
330
5C
100
AcDbEntity
  8
0
  6
CONTINUOUS
 62
     0
100
AcDbLine
 10
-1.0
 20
0.25
 30
0.0
 11
0.0
 21
0.25
 31
0.0
  0
LINE
  5
88
330
5C
100
AcDbEntity
  8
0
  6
CONTINUOUS
 62
     0
100
AcDbLine
 10
-1.0
 20
0.125
 30
0.0
 11
0.0
 21
0.125
 31
0.0
  0
ENDBLK
  5
5E
330
5C
100
AcDbEntity
  8
0
100
AcDbBlockEnd
  0
BLOCK
  5
60
330
5F
100
AcDbEntity
  8
0
100
AcDbBlockBegin
  2
EX_WCIR
 70
     0
 10
0.0
 20
0.0
 30
0.0
  3
EX_WCIR
  1

  0
LINE
  5
89
330
5F
100
AcDbEntity
  8
0
  6
CONTINUOUS
 62
     0
100
AcDbLine
 10
0.0
 20
0.0
 30
0.0
 11
-1.0
 21
0.0
 31
0.0
  0
CIRCLE
  5
8A
330
5F
100
AcDbEntity
  8
0
  6
CONTINUOUS
 62
     0
100
AcDbCircle
 10
0.0
 20
0.0
 30
0.0
 40
0.5
  0
ENDBLK
  5
61
330
5F
100
AcDbEntity
  8
0
100
AcDbBlockEnd
  0
BLOCK
  5
63
330
62
100
AcDbEntity
  8
0
100
AcDbBlockBegin
  2
EX_WCIR2
 70
     0
 10
0.0
 20
0.0
 30
0.0
  3
EX_WCIR2
  1

  0
LINE
  5
8B
330
62
100
AcDbEntity
  8
0
  6
CONTINUOUS
 62
     0
100
AcDbLine
 10
-0.5
 20
0.0
 30
0.0
 11
-1.0
 21
0.0
 31
0.0
  0
CIRCLE
  5
8C
330
62
100
AcDbEntity
  8
0
  6
CONTINUOUS
 62
     0
100
AcDbCircle
 10
0.0
 20
0.0
 30
0.0
 40
0.5
  0
ENDBLK
  5
64
330
62
100
AcDbEntity
  8
0
100
AcDbBlockEnd
  0
BLOCK
  5
66
330
65
100
AcDbEntity
  8
0
100
AcDbBlockBegin
  2
EX_WNORM
 70
     0
 10
0.0
 20
0.0
 30
0.0
  3
EX_WNORM
  1

  0
LINE
  5
8D
330
65
100
AcDbEntity
  8
0
  6
CONTINUOUS
 62
     0
100
AcDbLine
 10
-1.0
 20
0.0
 30
0.0
 11
-1.0
 21
0.0
 31
0.0
  0
LINE
  5
8E
330
65
100
AcDbEntity
  8
0
  6
CONTINUOUS
 62
     0
100
AcDbLine
 10
0.0
 20
0.0
 30
0.0
 11
-1.0
 21
0.166666667
 31
0.0
  0
LINE
  5
8F
330
65
100
AcDbEntity
  8
0
  6
CONTINUOUS
 62
     0
100
AcDbLine
 10
0.0
 20
0.0
 30
0.0
 11
-1.0
 21
-0.166666667
 31
0.0
  0
LINE
  5
90
330
65
100
AcDbEntity
  8
0
  6
CONTINUOUS
 62
     0
100
AcDbLine
 10
-1.0
 20
0.166666667
 30
0.0
 11
-1.0
 21
-0.166666667
 31
0.0
  0
ENDBLK
  5
67
330
65
100
AcDbEntity
  8
0
100
AcDbBlockEnd
  0
BLOCK
  5
69
330
68
100
AcDbEntity
  8
0
100
AcDbBlockBegin
  2
EX_NNORM
 70
     0
 10
0.0
 20
0.0
 30
0.0
  3
EX_NNORM
  1

  0
LINE
  5
91
330
68
100
AcDbEntity
  8
0
  6
CONTINUOUS
 62
     0
100
AcDbLine
 10
0.0
 20
0.0
 30
0.0
 11
-1.0
 21
0.0
 31
0.0
  0
LINE
  5
92
330
68
100
AcDbEntity
  8
0
  6
CONTINUOUS
 62
     0
100
AcDbLine
 10
0.0
 20
0.0
 30
0.0
 11
-1.0
 21
0.166666667
 31
0.0
  0
LINE
  5
93
330
68
100
AcDbEntity
  8
0
  6
CONTINUOUS
 62
     0
100
AcDbLine
 10
0.0
 20
0.0
 30
0.0
 11
-1.0
 21
-0.166666667
 31
0.0
  0
LINE
  5
94
330
68
100
AcDbEntity
  8
0
  6
CONTINUOUS
 62
     0
100
AcDbLine
 10
-1.0
 20
0.166666667
 30
0.0
 11
-1.0
 21
-0.166666667
 31
0.0
  0
ENDBLK
  5
6A
330
68
100
AcDbEntity
  8
0
100
AcDbBlockEnd
  0
BLOCK
  5
6C
330
6B
100
AcDbEntity
  8
0
100
AcDbBlockBegin
  2
EX_BBOX
 70
     0
 10
0.0
 20
0.0
 30
0.0
  3
EX_BBOX
  1

  0
LINE
  5
95
330
6B
100
AcDbEntity
  8
0
  6
CONTINUOUS
 62
     0
100
AcDbLine
 10
0.0
 20
0.0
 30
0.0
 11
-1.0
 21
0.0
 31
0.0
  0
LINE
  5
96
330
6B
100
AcDbEntity
  8
0
  6
CONTINUOUS
 62
     0
100
AcDbLine
 10
-0.5
 20
0.5
 30
0.0
 11
0.5
 21
0.5
 31
0.0
  0
LINE
  5
97
330
6B
100
AcDbEntity
  8
0
  6
CONTINUOUS
 62
     0
100
AcDbLine
 10
0.5
 20
0.5
 30
0.0
 11
0.5
 21
-0.5
 31
0.0
  0
LINE
  5
98
330
6B
100
AcDbEntity
  8
0
  6
CONTINUOUS
 62
     0
100
AcDbLine
 10
0.5
 20
-0.5
 30
0.0
 11
-0.5
 21
-0.5
 31
0.0
  0
LINE
  5
99
330
6B
100
AcDbEntity
  8
0
  6
CONTINUOUS
 62
     0
100
AcDbLine
 10
-0.5
 20
-0.5
 30
0.0
 11
-0.5
 21
0.5
 31
0.0
  0
LINE
  5
9A
330
6B
100
AcDbEntity
  8
0
  6
CONTINUOUS
 62
     0
100
AcDbLine
 10
-0.25
 20
0.25
 30
0.0
 11
0.25
 21
0.25
 31
0.0
  0
LINE
  5
9B
330
6B
100
AcDbEntity
  8
0
  6
CONTINUOUS
 62
     0
100
AcDbLine
 10
0.25
 20
0.25
 30
0.0
 11
0.25
 21
-0.25
 31
0.0
  0
LINE
  5
9C
330
6B
100
AcDbEntity
  8
0
  6
CONTINUOUS
 62
     0
100
AcDbLine
 10
0.25
 20
-0.25
 30
0.0
 11
-0.25
 21
-0.25
 31
0.0
  0
LINE
  5
9D
330
6B
100
AcDbEntity
  8
0
  6
CONTINUOUS
 62
     0
100
AcDbLine
 10
-0.25
 20
-0.25
 30
0.0
 11
-0.25
 21
0.25
 31
0.0
  0
ENDBLK
  5
6D
330
6B
100
AcDbEntity
  8
0
100
AcDbBlockEnd
  0
BLOCK
  5
6F
330
6E
100
AcDbEntity
  8
0
100
AcDbBlockBegin
  2
EX_WBOX
 70
     0
 10
0.0
 20
0.0
 30
0.0
  3
EX_WBOX
  1

  0
LINE
  5
9E
330
6E
100
AcDbEntity
  8
0
  6
CONTINUOUS
 62
     0
100
AcDbLine
 10
-0.5
 20
0.0
 30
0.0
 11
-1.0
 21
0.0
 31
0.0
  0
LINE
  5
9F
330
6E
100
AcDbEntity
  8
0
  6
CONTINUOUS
 62
     0
100
AcDbLine
 10
-0.5
 20
0.5
 30
0.0
 11
0.5
 21
0.5
 31
0.0
  0
LINE
  5
A0
330
6E
100
AcDbEntity
  8
0
  6
CONTINUOUS
 62
     0
100
AcDbLine
 10
0.5
 20
0.5
 30
0.0
 11
0.5
 21
-0.5
 31
0.0
  0
LINE
  5
A1
330
6E
100
AcDbEntity
  8
0
  6
CONTINUOUS
 62
     0
100
AcDbLine
 10
0.5
 20
-0.5
 30
0.0
 11
-0.5
 21
-0.5
 31
0.0
  0
LINE
  5
A2
330
6E
100
AcDbEntity
  8
0
  6
CONTINUOUS
 62
     0
100
AcDbLine
 10
-0.5
 20
-0.5
 30
0.0
 11
-0.5
 21
0.5
 31
0.0
  0
ENDBLK
  5
70
330
6E
100
AcDbEntity
  8
0
100
AcDbBlockEnd
  0
BLOCK
  5
72
330
71
100
AcDbEntity
  8
0
100
AcDbBlockBegin
  2
EX_INTEGRAL
 70
     0
 10
0.0
 20
0.0
 30
0.0
  3
EX_INTEGRAL
  1

  0
LINE
  5
A3
330
71
100
AcDbEntity
  8
0
  6
CONTINUOUS
 62
     0
100
AcDbLine
 10
0.0
 20
0.0
 30
0.0
 11
-1.0
 21
0.0
 31
0.0
  0
ARC
  5
A4
330
71
100
AcDbEntity
  8
0
  6
CONTINUOUS
 62
     0
100
AcDbCircle
 10
0.542115
 20
0.164992
 30
0.0
 40
0.56667
100
AcDbArc
 50
73.07249033629006
 51
196.9275130221199
  0
ARC
  5
A5
330
71
100
AcDbEntity
  8
0
  6
CONTINUOUS
 62
     0
100
AcDbCircle
 10
-0.542115
 20
-0.164992
 30
0.0
 40
0.56667
100
AcDbArc
 50
253.0724869220464
 51
16.9275130559125
  0
ENDBLK
  5
73
330
71
100
AcDbEntity
  8
0
100
AcDbBlockEnd
  0
BLOCK
  5
268
330
267
100
AcDbEntity
  8
0
100
AcDbBlockBegin
  2
*D15
 70
     1
 10
0.0
 20
0.0
 30
0.0
  3
*D15
  1

  0
LINE
  5
26A
330
267
100
AcDbEntity
  8
LAY-2
  6
CONTINUOUS
 62
     3
100
AcDbLine
 10
219.3999999761581
 20
311.8
 30
0.0
 11
256.0
 21
311.8
 31
0.0
  0
LINE
  5
26B
330
267
100
AcDbEntity
  8
LAY-2
  6
CONTINUOUS
 62
     3
100
AcDbLine
 10
207.3399999761581
 20
156.0
 30
0.0
 11
256.0
 21
156.0
 31
0.0
  0
LINE
  5
26C
330
267
100
AcDbEntity
  8
LAY-2
  6
CONTINUOUS
 62
     3
100
AcDbLine
 10
254.0
 20
305.8
 30
0.0
 11
254.0
 21
162.0
 31
0.0
  0
INSERT
  5
26D
330
267
100
AcDbEntity
  8
LAY-2
 62
     3
100
AcDbBlockReference
  2
EX_NORM
 10
254.0
 20
311.8
 30
0.0
 41
6.0
 42
6.0
 43
6.0
 50
90.0
  0
INSERT
  5
26E
330
267
100
AcDbEntity
  8
LAY-2
 62
     3
100
AcDbBlockReference
  2
EX_NORM
 10
254.0
 20
156.0
 30
0.0
 41
6.0
 42
6.0
 43
6.0
 50
270.0
  0
MTEXT
  5
26F
330
267
100
AcDbEntity
  8
LAY-2
 62
     2
100
AcDbMText
 10
249.300000011921
 20
233.9
 30
0.0
 40
8.0
 41
0.0
 71
     5
 72
     1
  1
200
  7
EXCADDIM1
 11
0.0
 21
1.0
 31
0.0
  0
POINT
  5
270
330
267
100
AcDbEntity
  8
DEFPOINTS
 62
     0
100
AcDbPoint
 10
218.0
 20
311.8
 30
0.0
  0
POINT
  5
271
330
267
100
AcDbEntity
  8
DEFPOINTS
 62
     0
100
AcDbPoint
 10
205.94
 20
156.0
 30
0.0
  0
POINT
  5
272
330
267
100
AcDbEntity
  8
DEFPOINTS
 62
     0
100
AcDbPoint
 10
254.0
 20
156.0
 30
0.0
  0
ENDBLK
  5
269
330
267
100
AcDbEntity
  8
0
100
AcDbBlockEnd
  0
BLOCK
  5
275
330
274
100
AcDbEntity
  8
0
100
AcDbBlockBegin
  2
*D16
 70
     1
 10
0.0
 20
0.0
 30
0.0
  3
*D16
  1

  0
LINE
  5
277
330
274
100
AcDbEntity
  8
LAY-2
  6
CONTINUOUS
 62
     3
100
AcDbLine
 10
218.0
 20
275.4000000238419
 30
0.0
 11
218.0
 21
126.8
 31
0.0
  0
LINE
  5
278
330
274
100
AcDbEntity
  8
LAY-2
  6
CONTINUOUS
 62
     3
100
AcDbLine
 10
198.0
 20
154.6000000238419
 30
0.0
 11
198.0
 21
126.8
 31
0.0
  0
LINE
  5
279
330
274
100
AcDbEntity
  8
LAY-2
  6
CONTINUOUS
 62
     3
100
AcDbLine
 10
212.0
 20
128.8
 30
0.0
 11
204.0
 21
128.8
 31
0.0
  0
INSERT
  5
27A
330
274
100
AcDbEntity
  8
LAY-2
 62
     3
100
AcDbBlockReference
  2
EX_NORM
 10
218.0
 20
128.8
 30
0.0
 41
6.0
 42
6.0
 43
6.0
  0
INSERT
  5
27B
330
274
100
AcDbEntity
  8
LAY-2
 62
     3
100
AcDbBlockReference
  2
EX_NORM
 10
198.0
 20
128.8
 30
0.0
 41
6.0
 42
6.0
 43
6.0
 50
180.0
  0
MTEXT
  5
27C
330
274
100
AcDbEntity
  8
LAY-2
 62
     2
100
AcDbMText
 10
231.0000000000001
 20
133.499999988079
 30
0.0
 40
8.0
 41
0.0
 71
     5
 72
     1
  1
20
  7
EXCADDIM1
  0
POINT
  5
27D
330
274
100
AcDbEntity
  8
DEFPOINTS
 62
     0
100
AcDbPoint
 10
218.0
 20
276.8
 30
0.0
  0
POINT
  5
27E
330
274
100
AcDbEntity
  8
DEFPOINTS
 62
     0
100
AcDbPoint
 10
198.0
 20
156.0
 30
0.0
  0
POINT
  5
27F
330
274
100
AcDbEntity
  8
DEFPOINTS
 62
     0
100
AcDbPoint
 10
198.0
 20
128.8
 30
0.0
  0
ENDBLK
  5
276
330
274
100
AcDbEntity
  8
0
100
AcDbBlockEnd
  0
ENDSEC
  0
SECTION
  2
ENTITIES
  0
TEXT
  5
A7
330
1F
100
AcDbEntity
  8
0
  6
CONTINUOUS
 62
     2
100
AcDbText
 10
186.0549468533504
 20
25.45660134049207
 30
0.0
 40
6.75
  1
ジャニス工業株式会社
 41
1.025641025641026
  7
EXCADTTF1
 72
     5
 11
276.0549468533504
 21
25.45660134049207
 31
0.0
100
AcDbText
  0
HATCH
  5
A8
330
1F
100
AcDbEntity
  8
0
  6
CONTINUOUS
 62
     3
100
AcDbHatch
 10
0.0
 20
0.0
 30
0.0
210
0.0
220
0.0
230
1.0
  2
SOLID
 70
     1
 71
     1
 91
        2
 92
        3
 72
     1
 73
     1
 93
       27
 10
161.4894999999999
 20
32.42950000000014
 42
-0.1769427732109284
 10
161.4894999999999
 20
32.42950000000015
 42
0.0
 10
161.4894999999999
 20
31.70050000000011
 42
0.0
 10
161.6649999999997
 20
31.7005000000001
 42
-0.207533601427307
 10
162.8044314112638
 20
32.55524852307291
 42
-0.1226604740888933
 10
163.8114999999997
 20
32.57665000000016
 42
-0.3213715781137954
 10
164.8526124577916
 20
31.29873162806147
 42
-0.064704004662446
 10
164.8577499999996
 20
30.62320000000007
 42
-0.257798906330806
 10
164.6457999999999
 20
30.36670000000007
 42
-0.056602577721096
 10
164.1921999999998
 20
30.20875000000014
 42
-0.0166741689362636
 10
162.5289999999999
 20
29.8928500000001
 42
0.1186092302783404
 10
161.4314499999999
 20
29.36635000000008
 42
0.1699204224386695
 10
160.9535499999998
 20
28.56715000000018
 42
0.1006533494296199
 10
160.9093641892661
 20
27.87367244240655
 42
0.1675695228968024
 10
161.3423499999999
 20
26.94445000000014
 42
0.1376980079804242
 10
162.1293999999998
 20
26.48950000000019
 42
0.0719813663796923
 10
162.4871499999996
 20
26.43010000000011
 42
0.0
 10
163.0352499999998
 20
26.43010000000013
 42
0.1944607457809085
 10
164.8536999999999
 20
27.36565000000014
 42
0.1288538183665954
 10
165.0372999999997
 20
26.90665000000009
 42
0.2098387395261546
 10
165.6366999999997
 20
26.57590000000018
 42
0.0
 10
166.0713999999996
 20
26.57320000000019
 42
0.0945009641609563
 10
166.6991499999999
 20
26.70685000000016
 42
0.0
 10
166.6991499999998
 20
27.02140000000014
 42
-0.2395739894657535
 10
166.1510499999997
 20
27.0160000000001
 42
-0.2502312110031057
 10
165.8810499999997
 20
27.5236000000003
 42
-0.0104343570771765
 10
165.9174999999998
 20
31.30900000000008
 42
0.4051015674140716
 97
        0
 92
        3
 72
     1
 73
     1
 93
        8
 10
164.8820499999997
 20
29.96170000000007
 42
-0.0339435190873666
 10
164.8820500000011
 20
29.96169999999792
 42
-0.0001110072973599
 10
164.82535
 20
27.8935000000001
 42
-0.2253076310552528
 10
163.4078499999998
 20
26.94715000000021
 42
0.0
 10
163.0608999999994
 20
26.94715000000014
 42
-0.3657967558150132
 10
162.0294999999998
 20
28.04335000000022
 42
0.0
 10
162.0295
 20
28.43485000000018
 42
-0.2530797830369341
 10
162.7260999999998
 20
29.39875000000012
 42
-0.0724473624720066
 97
        0
 75
     0
 76
     1
 98
        1
 10
0.0
 20
0.0
  0
HATCH
  5
A9
330
1F
100
AcDbEntity
  8
0
  6
CONTINUOUS
 62
     3
100
AcDbHatch
 10
0.0
 20
0.0
 30
0.0
210
0.0
220
0.0
230
1.0
  2
SOLID
 70
     1
 71
     1
 91
        1
 92
        3
 72
     1
 73
     1
 93
       30
 10
183.0017499999995
 20
32.82370000000034
 42
-0.0009362235736497
 10
183.0017499999998
 20
32.8237000000001
 42
0.0681165430304653
 10
182.6743655506959
 20
31.84225000000017
 42
0.0
 10
181.4411499999999
 20
32.68600000000013
 42
-0.302112590907374
 10
181.4411499999998
 20
32.68600000000017
 42
0.0
 10
180.1977999999996
 20
31.73290000000016
 42
-0.3704245237568778
 10
180.1977999999996
 20
31.73290000000005
 42
0.0
 10
180.2625999999997
 20
31.0957000000001
 42
-0.0262822419456939
 10
181.0293999999999
 20
30.48280000000005
 42
-0.180060563604375
 10
182.2524999999999
 20
30.11020000000019
 42
-0.0298130817160724
 10
182.2524999999996
 20
30.11020000000006
 42
-0.3153987453686078
 10
183.3797499999998
 20
28.82095000000017
 42
0.0
 10
183.3729999999999
 20
28.24450000000005
 42
-0.3510306079065168
 10
181.1994999999997
 20
26.4220000000001
 42
0.0
 10
180.5649999999995
 20
26.42200000000005
 42
-0.1053356344842436
 10
179.1609999999997
 20
26.8270000000001
 42
0.1188608286962634
 10
179.4174999999997
 20
27.85300000000014
 42
0.0
 10
180.9564999999999
 20
26.90800000000018
 42
-0.2447573632916039
 10
180.9564999999997
 20
26.90800000000015
 42
0.0
 10
182.4414999999997
 20
27.94750000000018
 42
-0.3734162676407277
 10
182.4414999999998
 20
27.94750000000012
 42
0.0
 10
181.9028499999998
 20
28.98565000000024
 42
-0.261219770190848
 10
180.6459999999998
 20
29.44195000000013
 42
-0.0572747914118363
 10
180.6459999999997
 20
29.44195000000011
 42
-0.1189658875692221
 10
179.6469999999997
 20
30.02785000000013
 42
-0.2005226878639636
 10
179.2284999999997
 20
30.9715000000045
 42
0.0
 10
179.2217499999999
 20
31.3292500000001
 42
-0.2622894489606957
 10
180.2949999999998
 20
32.96950000000015
 42
-0.0988461274137808
 10
181.2993999999998
 20
33.21115000000011
 42
0.0
 10
181.6719999999995
 20
33.21115000000013
 42
-0.0920156312561188
 97
        0
 75
     0
 76
     1
 98
        1
 10
0.0
 20
0.0
  0
ARC
  5
AA
330
1F
100
AcDbEntity
  8
0
  6
CONTINUOUS
 62
     3
100
AcDbCircle
 10
186.423443067124
 20
31.13699009064188
 30
0.0
 40
3.81483600747566
100
AcDbArc
 50
153.7591918158497
 51
169.3462759801917
  0
LINE
  5
AB
330
1F
100
AcDbEntity
  8
0
  6
CONTINUOUS
 62
     3
100
AcDbLine
 10
182.5035999999997
 20
31.84225000000017
 30
0.0
 11
182.6743655506959
 21
31.84225000000017
 31
0.0
  0
LINE
  5
AC
330
1F
100
AcDbEntity
  8
0
  6
CONTINUOUS
 62
     3
100
AcDbLine
 10
181.2224499999997
 20
32.68060000000016
 30
0.0
 11
181.4411499999998
 21
32.68600000000017
 31
0.0
  0
LINE
  5
AD
330
1F
100
AcDbEntity
  8
0
  6
CONTINUOUS
 62
     3
100
AcDbLine
 10
179.2217499999999
 20
31.32925000000008
 30
0.0
 11
179.2284999999997
 21
30.9715000000045
 31
0.0
  0
LINE
  5
AE
330
1F
100
AcDbEntity
  8
0
  6
CONTINUOUS
 62
     3
100
AcDbLine
 10
180.1977999999996
 20
31.73290000000005
 30
0.0
 11
180.1788999999996
 21
31.37920000000005
 31
0.0
  0
LINE
  5
AF
330
1F
100
AcDbEntity
  8
0
  6
CONTINUOUS
 62
     3
100
AcDbLine
 10
183.3797499999998
 20
28.82095000000017
 30
0.0
 11
183.3729999999998
 21
28.24450000000015
 31
0.0
  0
LINE
  5
B0
330
1F
100
AcDbEntity
  8
0
  6
CONTINUOUS
 62
     3
100
AcDbLine
 10
182.4279999999998
 20
28.25800000000017
 30
0.0
 11
182.4414999999998
 21
27.94750000000012
 31
0.0
  0
ARC
  5
B1
330
1F
100
AcDbEntity
  8
0
  6
CONTINUOUS
 62
     3
100
AcDbCircle
 10
177.1618294797685
 20
27.872196531792
 30
0.0
 40
2.25590748015768
100
AcDbArc
 50
332.3987521421788
 51
359.5124385477116
  0
LINE
  5
B2
330
1F
100
AcDbEntity
  8
0
  6
CONTINUOUS
 62
     3
100
AcDbLine
 10
161.4894999999999
 20
31.70050000000011
 30
0.0
 11
161.6649999999999
 21
31.70050000000011
 31
0.0
  0
HATCH
  5
B3
330
1F
100
AcDbEntity
  8
0
  6
CONTINUOUS
 62
     3
100
AcDbHatch
 10
0.0
 20
0.0
 30
0.0
210
0.0
220
0.0
230
1.0
  2
SOLID
 70
     1
 71
     1
 91
        2
 92
        1
 93
        1
 72
     2
 10
176.7120496610168
 20
35.47331067796616
 40
0.7144668933539768
 50
0.0
 51
360.0
 73
     1
 97
        0
 92
        3
 72
     1
 73
     1
 93
        3
 10
176.0735499999998
 20
33.09640000000014
 42
0.1200283885712921
 10
177.3155499999996
 20
26.56915000000001
 42
-0.0401820615762149
 10
176.0748999999996
 20
26.5651000000001
 42
-0.0237521668114666
 97
        0
 75
     0
 76
     1
 98
        1
 10
0.0
 20
0.0
  0
HATCH
  5
B4
330
1F
100
AcDbEntity
  8
0
  6
CONTINUOUS
 62
     3
100
AcDbHatch
 10
0.0
 20
0.0
 30
0.0
210
0.0
220
0.0
230
1.0
  2
SOLID
 70
     1
 71
     1
 91
        1
 92
        3
 72
     1
 73
     1
 93
       16
 10
168.2286999999997
 20
26.57725000000012
 42
-0.0386228372648426
 10
168.2165499999997
 20
33.08560000000013
 42
-0.0398707891902887
 10
169.3977999999997
 20
33.09100000000012
 42
-0.1256886216044368
 10
169.3437999999998
 20
31.98670000000016
 42
-0.0367815758121429
 10
169.3437999999998
 20
31.98670000000011
 42
-0.268021535028829
 10
171.7265499999997
 20
33.22330000000009
 42
-0.2571134422124888
 10
173.3559999999998
 20
32.41735000000021
 42
-0.1522526366014298
 10
173.7704499999999
 20
31.07680000000014
 42
-0.0158825412051521
 10
173.7407499999997
 20
26.57050000000014
 42
-0.0285251271418421
 10
172.5999999999999
 20
26.57050000000013
 42
-0.0452212723224612
 10
172.6580499999997
 20
30.73390000000014
 42
-0.0315567291532142
 10
172.3043499999995
 20
31.96375000000013
 42
-0.1476272403790709
 10
170.0012499999997
 20
32.14060000000012
 42
-0.3908144705745794
 10
169.3518999999998
 20
30.5246500000001
 42
-0.2046259928850854
 10
169.3518999999998
 20
30.52465000000014
 42
0.0
 10
169.4531499999998
 20
26.56645000000022
 42
-0.0304995761723369
 97
        0
 75
     0
 76
     1
 98
        1
 10
0.0
 20
0.0
  0
HATCH
  5
B5
330
1F
100
AcDbEntity
  8
0
  6
CONTINUOUS
 62
     3
100
AcDbHatch
 10
0.0
 20
0.0
 30
0.0
210
0.0
220
0.0
230
1.0
  2
SOLID
 70
     1
 71
     1
 91
        1
 92
        3
 72
     1
 73
     1
 93
       10
 10
156.3999999999999
 20
26.80000000000017
 42
-0.017362223501556
 10
156.4175499999998
 20
37.39345000000016
 42
-0.0267627618865285
 10
156.4175499999998
 20
37.39345000000016
 42
0.0737939047395297
 10
159.0014500000002
 20
37.40425000000001
 42
0.0183878899657109
 10
158.8974999999998
 20
27.85300000000011
 42
-0.1144749489451909
 10
158.4789999999997
 20
25.8415000000001
 42
-0.1929163439413163
 10
156.4877499999999
 20
24.27820000000004
 42
-0.0603888289562337
 10
155.4320499999998
 20
24.01495000000007
 42
0.0
 10
155.1849999999998
 20
24.76690000000012
 42
0.0860918333465722
 10
155.9234499999995
 20
25.15975000000007
 42
0.1331843103855141
 97
        0
 75
     0
 76
     1
 98
        1
 10
0.0
 20
0.0
  0
LINE
  5
B6
330
1F
100
AcDbEntity
  8
0
  6
CONTINUOUS
 62
     3
100
AcDbLine
 10
180.5649999999998
 20
26.4220000000001
 30
0.0
 11
181.1994999999997
 21
26.4220000000001
 31
0.0
  0
LINE
  5
B7
330
1F
100
AcDbEntity
  8
0
  6
CONTINUOUS
 62
     3
100
AcDbLine
 10
179.5929999999998
 20
27.85300000000014
 30
0.0
 11
179.4174999999997
 21
27.85300000000014
 31
0.0
  0
LINE
  5
B8
330
1F
100
AcDbEntity
  8
0
  6
CONTINUOUS
 62
     3
100
AcDbLine
 10
180.9564999999997
 20
26.90800000000015
 30
0.0
 11
181.2804999999998
 21
26.90800000000015
 31
0.0
  0
LINE
  5
B9
330
1F
100
AcDbEntity
  8
0
  6
CONTINUOUS
 62
     3
100
AcDbLine
 10
181.6719999999997
 20
33.21115000000011
 30
0.0
 11
181.2993999999998
 21
33.21115000000011
 31
0.0
  0
ARC
  5
BA
330
1F
100
AcDbEntity
  8
0
  6
CONTINUOUS
 62
     3
100
AcDbCircle
 10
181.3378936358999
 20
31.46518606632534
 30
0.0
 40
1.22517286020451
100
AcDbArc
 50
17.92452211681263
 51
85.16543319077402
  0
ARC
  5
BB
330
1F
100
AcDbEntity
  8
0
  6
CONTINUOUS
 62
     3
100
AcDbCircle
 10
181.2619661505602
 20
31.61010123465044
 30
0.0
 40
1.07122786220786
100
AcDbArc
 50
92.11404364449162
 51
173.4175047026091
  0
ARC
  5
BC
330
1F
100
AcDbEntity
  8
0
  6
CONTINUOUS
 62
     3
100
AcDbCircle
 10
182.9155750000022
 20
32.03306500000084
 30
0.0
 40
2.8137038745868
100
AcDbArc
 50
193.4375782160214
 51
199.459638038058
  0
ARC
  5
BD
330
1F
100
AcDbEntity
  8
0
  6
CONTINUOUS
 62
     3
100
AcDbCircle
 10
181.4693739010988
 20
31.8193741758242
 30
0.0
 40
1.40712741467437
100
AcDbArc
 50
210.9501336849607
 51
251.7794729821079
  0
ARC
  5
BE
330
1F
100
AcDbEntity
  8
0
  6
CONTINUOUS
 62
     3
100
AcDbCircle
 10
184.762640247191
 20
40.54378755056225
 30
0.0
 40
10.73128851703336
100
AcDbArc
 50
249.6420733479936
 51
256.4727051201885
  0
ARC
  5
BF
330
1F
100
AcDbEntity
  8
0
  6
CONTINUOUS
 62
     3
100
AcDbCircle
 10
181.8958612791886
 20
28.66094651112344
 30
0.0
 40
1.49249015145921
100
AcDbArc
 50
6.154262763177246
 51
76.17509904255616
  0
ARC
  5
C0
330
1F
100
AcDbEntity
  8
0
  6
CONTINUOUS
 62
     3
100
AcDbCircle
 10
181.1482245827009
 20
28.69045068285284
 30
0.0
 40
2.26903011636129
100
AcDbArc
 50
271.2948770866743
 51
348.6654156292868
  0
ARC
  5
C1
330
1F
100
AcDbEntity
  8
0
  6
CONTINUOUS
 62
     3
100
AcDbCircle
 10
180.813547945205
 20
29.91973287671245
 30
0.0
 40
3.50655263156004
100
AcDbArc
 50
241.8829576087176
 51
265.9354096935781
  0
ARC
  5
C2
330
1F
100
AcDbEntity
  8
0
  6
CONTINUOUS
 62
     3
100
AcDbCircle
 10
181.1821677180471
 20
28.68977413603968
 30
0.0
 40
1.79600807092506
100
AcDbArc
 50
207.7689879465537
 51
262.7817283832026
  0
ARC
  5
C3
330
1F
100
AcDbEntity
  8
0
  6
CONTINUOUS
 62
     3
100
AcDbCircle
 10
181.2621024022798
 20
28.09664861563535
 30
0.0
 40
1.18879098375335
100
AcDbArc
 50
270.8867385422408
 51
352.7925382056677
  0
ARC
  5
C4
330
1F
100
AcDbEntity
  8
0
  6
CONTINUOUS
 62
     3
100
AcDbCircle
 10
181.5165477704231
 20
28.15352584915543
 30
0.0
 40
0.91742030443803
100
AcDbArc
 50
6.53892419415897
 51
65.09756080693691
  0
ARC
  5
C5
330
1F
100
AcDbEntity
  8
0
  6
CONTINUOUS
 62
     3
100
AcDbCircle
 10
179.2892446899584
 20
23.74574417559616
 30
0.0
 40
5.85555682794551
100
AcDbArc
 50
63.49050203733571
 51
76.60259219849584
  0
ARC
  5
C6
330
1F
100
AcDbEntity
  8
0
  6
CONTINUOUS
 62
     3
100
AcDbCircle
 10
181.3603097693396
 20
31.80452956062569
 30
0.0
 40
2.46820190155914
100
AcDbArc
 50
226.0402388947521
 51
253.1776672992999
  0
ARC
  5
C7
330
1F
100
AcDbEntity
  8
0
  6
CONTINUOUS
 62
     3
100
AcDbCircle
 10
180.5669320118697
 20
31.00045672200255
 30
0.0
 40
1.33874521181122
100
AcDbArc
 50
181.2393899443581
 51
226.5942921332421
  0
ARC
  5
C8
330
1F
100
AcDbEntity
  8
0
  6
CONTINUOUS
 62
     3
100
AcDbCircle
 10
181.2142167893421
 20
31.19678716252931
 30
0.0
 40
1.99686512061838
100
AcDbArc
 50
117.4083995939977
 51
176.1964688215695
  0
ARC
  5
C9
330
1F
100
AcDbEntity
  8
0
  6
CONTINUOUS
 62
     3
100
AcDbCircle
 10
181.4091677390279
 20
30.5761832992442
 30
0.0
 40
2.63994973073505
100
AcDbArc
 50
92.38301574576484
 51
114.9635286746436
  0
ARC
  5
CA
330
1F
100
AcDbEntity
  8
0
  6
CONTINUOUS
 62
     3
100
AcDbCircle
 10
181.6258034225609
 20
31.18986210777106
 30
0.0
 40
2.02181573518432
100
AcDbArc
 50
67.66151957087348
 51
88.69073168448988
  0
ARC
  5
CB
330
1F
100
AcDbEntity
  8
0
  6
CONTINUOUS
 62
     3
100
AcDbCircle
 10
245.7838374999125
 20
195.1625499997762
 30
0.0
 40
174.0560045792631
100
AcDbArc
 50
248.6422112053103
 51
248.8567777804232
  0
ARC
  5
CC
330
1F
100
AcDbEntity
  8
0
  6
CONTINUOUS
 62
     3
100
AcDbCircle
 10
131.7929583606271
 20
29.82159719581667
 30
0.0
 40
44.40152170071624
100
AcDbArc
 50
355.7940354718673
 51
4.229650257234378
  0
ARC
  5
CD
330
1F
100
AcDbEntity
  8
0
  6
CONTINUOUS
 62
     3
100
AcDbCircle
 10
217.905756289261
 20
29.7942214552797
 30
0.0
 40
40.71812781178001
100
AcDbArc
 50
175.3387608397566
 51
184.5428594926176
  0
ARC
  5
CE
330
1F
100
AcDbEntity
  8
0
  6
CONTINUOUS
 62
     3
100
AcDbCircle
 10
176.7378286407763
 20
13.5162097087386
 30
0.0
 40
13.06571897050218
100
AcDbArc
 50
87.46575055044718
 51
92.90832285102188
  0
ARC
  5
CF
330
1F
100
AcDbEntity
  8
0
  6
CONTINUOUS
 62
     3
100
AcDbCircle
 10
176.6840683739044
 20
35.66325082765356
 30
0.0
 40
2.63845709768042
100
AcDbArc
 50
256.6209501743446
 51
283.9984576255729
  0
CIRCLE
  5
D0
330
1F
100
AcDbEntity
  8
0
  6
CONTINUOUS
 62
     3
100
AcDbCircle
 10
176.7120496610168
 20
35.47331067796616
 30
0.0
 40
0.71446689335398
  0
LINE
  5
D1
330
1F
100
AcDbEntity
  8
0
  6
CONTINUOUS
 62
     3
100
AcDbLine
 10
169.3518999999998
 20
30.52465000000014
 30
0.0
 11
169.3518999999998
 21
28.36600000000006
 31
0.0
  0
ARC
  5
D2
330
1F
100
AcDbEntity
  8
0
  6
CONTINUOUS
 62
     3
100
AcDbCircle
 10
127.4784866267816
 20
29.75536251392693
 30
0.0
 40
40.87395612262145
100
AcDbArc
 50
355.5405243117485
 51
4.673398698656258
  0
ARC
  5
D3
330
1F
100
AcDbEntity
  8
0
  6
CONTINUOUS
 62
     3
100
AcDbCircle
 10
168.7966038505744
 20
35.40073893678171
 30
0.0
 40
2.38669871709203
100
AcDbArc
 50
255.9341994177206
 51
284.5896440601899
  0
ARC
  5
D4
330
1F
100
AcDbEntity
  8
0
  6
CONTINUOUS
 62
     3
100
AcDbCircle
 10
176.866441401273
 20
32.17231496815307
 30
0.0
 40
7.52493100091637
100
AcDbArc
 50
172.9875214416311
 51
181.4134392789641
  0
ARC
  5
D5
330
1F
100
AcDbEntity
  8
0
  6
CONTINUOUS
 62
     3
100
AcDbCircle
 10
171.6057682334007
 20
30.54212111686402
 30
0.0
 40
2.68389799331452
100
AcDbArc
 50
87.42068310381028
 51
147.4361518966862
  0
ARC
  5
D6
330
1F
100
AcDbEntity
  8
0
  6
CONTINUOUS
 62
     3
100
AcDbCircle
 10
171.809428001625
 20
31.34069463645184
 30
0.0
 40
1.88442875111108
100
AcDbArc
 50
34.84393737091607
 51
92.5207065423111
  0
ARC
  5
D7
330
1F
100
AcDbEntity
  8
0
  6
CONTINUOUS
 62
     3
100
AcDbCircle
 10
171.4130571602463
 20
31.08232018952256
 30
0.0
 40
2.35739930292118
100
AcDbArc
 50
359.8658335690532
 51
34.49363429411157
  0
ARC
  5
D8
330
1F
100
AcDbEntity
  8
0
  6
CONTINUOUS
 62
     3
100
AcDbCircle
 10
161.493218877551
 20
30.62291683673484
 30
0.0
 40
12.28561817573392
100
AcDbArc
 50
358.4775281223095
 51
2.117232414210064
  0
ARC
  5
D9
330
1F
100
AcDbEntity
  8
0
  6
CONTINUOUS
 62
     3
100
AcDbCircle
 10
206.3864735856893
 20
28.13794883527466
 30
0.0
 40
32.68333159707644
100
AcDbArc
 50
176.2131780319488
 51
182.7488833337936
  0
ARC
  5
DA
330
1F
100
AcDbEntity
  8
0
  6
CONTINUOUS
 62
     3
100
AcDbCircle
 10
173.1703749999999
 20
20.27690657894756
 30
0.0
 40
6.31938650425349
100
AcDbArc
 50
84.82155189294139
 51
95.17844810705873
  0
ARC
  5
DB
330
1F
100
AcDbEntity
  8
0
  6
CONTINUOUS
 62
     3
100
AcDbCircle
 10
139.6784144263444
 20
29.11162809814126
 30
0.0
 40
33.01951133337177
100
AcDbArc
 50
355.5862454873798
 51
2.816115806820253
  0
ARC
  5
DC
330
1F
100
AcDbEntity
  8
0
  6
CONTINUOUS
 62
     3
100
AcDbCircle
 10
170.4438949447201
 20
30.76290411692306
 30
0.0
 40
2.21434501548831
100
AcDbArc
 50
359.2495022237244
 51
32.84055016678327
  0
ARC
  5
DD
330
1F
100
AcDbEntity
  8
0
  6
CONTINUOUS
 62
     3
100
AcDbCircle
 10
171.0569497574604
 20
30.80392680326579
 30
0.0
 40
1.70329011409401
100
AcDbArc
 50
42.91644474042847
 51
128.3015542351336
  0
ARC
  5
DE
330
1F
100
AcDbEntity
  8
0
  6
CONTINUOUS
 62
     3
100
AcDbCircle
 10
171.5681813006778
 20
30.57250584325313
 30
0.0
 40
2.21679791263626
100
AcDbArc
 50
134.9787476233347
 51
181.2369872983282
  0
ARC
  5
DF
330
1F
100
AcDbEntity
  8
0
  6
CONTINUOUS
 62
     3
100
AcDbCircle
 10
184.1367184323705
 20
28.33960428068834
 30
0.0
 40
14.79024198622985
100
AcDbArc
 50
179.8977458165987
 51
186.8855675734268
  0
ARC
  5
E0
330
1F
100
AcDbEntity
  8
0
  6
CONTINUOUS
 62
     3
100
AcDbCircle
 10
168.771122454736
 20
18.65798643072619
 30
0.0
 40
7.937818188837
100
AcDbArc
 50
85.07099551674689
 51
93.91830029343228
  0
ARC
  5
E1
330
1F
100
AcDbEntity
  8
0
  6
CONTINUOUS
 62
     3
100
AcDbCircle
 10
-4492.94813758212
 20
156.6219062522487
 30
0.0
 40
4659.552002521183
100
AcDbArc
 50
358.4169008257799
 51
358.4423418242109
  0
ARC
  5
E2
330
1F
100
AcDbEntity
  8
0
  6
CONTINUOUS
 62
     3
100
AcDbCircle
 10
163.1198406686682
 20
28.91333113109615
 30
0.0
 40
1.98716320799583
100
AcDbArc
 50
278.3335103000368
 51
329.1221464187299
  0
LINE
  5
E3
330
1F
100
AcDbEntity
  8
0
  6
CONTINUOUS
 62
     3
100
AcDbLine
 10
163.0608999999997
 20
26.94715000000021
 30
0.0
 11
163.4078499999998
 21
26.94715000000021
 31
0.0
  0
ARC
  5
E4
330
1F
100
AcDbEntity
  8
0
  6
CONTINUOUS
 62
     3
100
AcDbCircle
 10
163.1941399231243
 20
28.10582894244768
 30
0.0
 40
1.166314609694
100
AcDbArc
 50
183.0707787095794
 51
263.4402016072427
  0
LINE
  5
E5
330
1F
100
AcDbEntity
  8
0
  6
CONTINUOUS
 62
     3
100
AcDbLine
 10
162.0294999999998
 20
28.43485000000011
 30
0.0
 11
162.0294999999998
 21
28.04335000000022
 31
0.0
  0
ARC
  5
E6
330
1F
100
AcDbEntity
  8
0
  6
CONTINUOUS
 62
     3
100
AcDbCircle
 10
163.2689841901067
 20
28.27275092143568
 30
0.0
 40
1.25003886691411
100
AcDbArc
 50
115.7403688633493
 51
172.5491744442191
  0
ARC
  5
E7
330
1F
100
AcDbEntity
  8
0
  6
CONTINUOUS
 62
     3
100
AcDbCircle
 10
164.3681598885038
 20
25.92297859385157
 30
0.0
 40
3.84413157231042
100
AcDbArc
 50
98.71271710191789
 51
115.2874718053599
  0
ARC
  5
E8
330
1F
100
AcDbEntity
  8
0
  6
CONTINUOUS
 62
     3
100
AcDbCircle
 10
162.5760688404243
 20
37.9066289637021
 30
0.0
 40
8.27281362938804
100
AcDbArc
 50
278.4088456599976
 51
286.1851416003176
  0
ARC
  5
E9
330
1F
100
AcDbEntity
  8
0
  6
CONTINUOUS
 62
     3
100
AcDbCircle
 10
157.6731108557953
 20
46.10495275093651
 30
0.0
 40
8.80151766698093
100
AcDbArc
 50
261.7986203004403
 51
278.6803384946418
  0
ARC
  5
EA
330
1F
100
AcDbEntity
  8
0
  6
CONTINUOUS
 62
     3
100
AcDbCircle
 10
288.763453136037
 20
31.21580855950892
 30
0.0
 40
129.9094848936721
100
AcDbArc
 50
177.2695926307304
 51
181.4833117237826
  0
ARC
  5
EB
330
1F
100
AcDbEntity
  8
0
  6
CONTINUOUS
 62
     3
100
AcDbCircle
 10
154.352934089162
 20
27.74922847809389
 30
0.0
 40
4.54575052622862
100
AcDbArc
 50
335.1860595856123
 51
1.308075913059364
  0
ARC
  5
EC
330
1F
100
AcDbEntity
  8
0
  6
CONTINUOUS
 62
     3
100
AcDbCircle
 10
155.5328934110593
 20
27.54427171302861
 30
0.0
 40
3.40278937639223
100
AcDbArc
 50
286.2966123578915
 51
329.973223283839
  0
ARC
  5
ED
330
1F
100
AcDbEntity
  8
0
  6
CONTINUOUS
 62
     3
100
AcDbCircle
 10
154.8740618506828
 20
28.50106439879967
 30
0.0
 40
4.520682821642732
100
AcDbArc
 50
277.0901027239701
 51
290.9134154817058
  0
LINE
  5
EE
330
1F
100
AcDbEntity
  8
0
  6
CONTINUOUS
 62
     3
100
AcDbLine
 10
155.4320499999998
 20
24.01495000000007
 30
0.0
 11
155.1849999999997
 21
24.7669000000001
 31
0.0
  0
ARC
  5
EF
330
1F
100
AcDbEntity
  8
0
  6
CONTINUOUS
 62
     3
100
AcDbCircle
 10
154.4218926470587
 20
27.09179852941181
 30
0.0
 40
2.44693400078005
100
AcDbArc
 50
288.1715191042997
 51
307.8537826235693
  0
ARC
  5
F0
330
1F
100
AcDbEntity
  8
0
  6
CONTINUOUS
 62
     3
100
AcDbCircle
 10
154.87349458327
 20
26.22475170995024
 30
0.0
 40
1.49553837106127
100
AcDbArc
 50
314.592391474832
 51
344.9374073189123
  0
ARC
  5
F1
330
1F
100
AcDbEntity
  8
0
  6
CONTINUOUS
 62
     3
100
AcDbCircle
 10
57.52265727793605
 20
32.26054805726877
 30
0.0
 40
99.02800860798015
100
AcDbArc
 50
356.8390243485978
 51
2.971133813187157
  0
ARC
  5
F2
330
1F
100
AcDbEntity
  8
0
  6
CONTINUOUS
 62
     3
100
AcDbCircle
 10
142.4837381578913
 20
27.50345657894782
 30
0.0
 40
13.9340300996012
100
AcDbArc
 50
353.1274757312911
 51
357.106204490141
  0
LINE
  5
F3
330
1F
100
AcDbEntity
  8
0
  6
CONTINUOUS
 62
     3
100
AcDbLine
 10
161.4894999999999
 20
32.42950000000015
 30
0.0
 11
161.4894999999999
 21
31.70050000000011
 31
0.0
  0
ARC
  5
F4
330
1F
100
AcDbEntity
  8
0
  6
CONTINUOUS
 62
     3
100
AcDbCircle
 10
163.2200192074094
 20
30.81440517764965
 30
0.0
 40
1.78976221035344
100
AcDbArc
 50
103.4267945469744
 51
150.3242613737993
  0
ARC
  5
F5
330
1F
100
AcDbEntity
  8
0
  6
CONTINUOUS
 62
     3
100
AcDbCircle
 10
163.3509287693159
 20
30.54427795075238
 30
0.0
 40
2.08390546932846
100
AcDbArc
 50
77.23143261361693
 51
105.203415964315
  0
ARC
  5
F6
330
1F
100
AcDbEntity
  8
0
  6
CONTINUOUS
 62
     3
100
AcDbCircle
 10
163.4406151097034
 20
31.21143906356044
 30
0.0
 40
1.414693077252
100
AcDbArc
 50
3.537639967999379
 51
74.8013566619203
  0
ARC
  5
F7
330
1F
100
AcDbEntity
  8
0
  6
CONTINUOUS
 62
     3
100
AcDbCircle
 10
162.2560243246812
 20
30.94119874799443
 30
0.0
 40
2.62108750203784
100
AcDbArc
 50
353.0315250986587
 51
7.839947970678348
  0
ARC
  5
F8
330
1F
100
AcDbEntity
  8
0
  6
CONTINUOUS
 62
     3
100
AcDbCircle
 10
164.5195659668165
 20
30.6868279905777
 30
0.0
 40
0.34411765645626
100
AcDbArc
 50
291.5204897073511
 51
349.3445900274031
  0
ARC
  5
F9
330
1F
100
AcDbEntity
  8
0
  6
CONTINUOUS
 62
     3
100
AcDbCircle
 10
163.7236078555676
 20
32.28474859426691
 30
0.0
 40
2.12822667054557
100
AcDbArc
 50
282.7195832898965
 51
295.6781112778079
  0
ARC
  5
FA
330
1F
100
AcDbEntity
  8
0
  6
CONTINUOUS
 62
     3
100
AcDbCircle
 10
158.6255488530655
 20
54.9806419359962
 30
0.0
 40
25.38964818740764
100
AcDbArc
 50
278.8438342053764
 51
282.6649181367123
  0
ARC
  5
FB
330
1F
100
AcDbEntity
  8
0
  6
CONTINUOUS
 62
     3
100
AcDbCircle
 10
163.0743496268655
 20
27.34877097014938
 30
0.0
 40
2.60187323396984
100
AcDbArc
 50
102.0988446293839
 51
129.1556705448828
  0
ARC
  5
FC
330
1F
100
AcDbEntity
  8
0
  6
CONTINUOUS
 62
     3
100
AcDbCircle
 10
162.3343944339528
 20
28.28392799050797
 30
0.0
 40
1.40959074111584
100
AcDbArc
 50
129.8344892359069
 51
168.4089447024628
  0
ARC
  5
FD
330
1F
100
AcDbEntity
  8
0
  6
CONTINUOUS
 62
     3
100
AcDbCircle
 10
162.6364472247496
 20
28.11177559144695
 30
0.0
 40
1.74341874517734
100
AcDbArc
 50
164.8589457925044
 51
187.8495628504518
  0
ARC
  5
FE
330
1F
100
AcDbEntity
  8
0
  6
CONTINUOUS
 62
     3
100
AcDbCircle
 10
162.4732535116597
 20
28.03690177194928
 30
0.0
 40
1.57238469425258
100
AcDbArc
 50
185.9586126338419
 51
224.0091989319859
  0
ARC
  5
FF
330
1F
100
AcDbEntity
  8
0
  6
CONTINUOUS
 62
     3
100
AcDbCircle
 10
162.5462059140875
 20
28.11882343594393
 30
0.0
 40
1.68179131551273
100
AcDbArc
 50
224.289750990011
 51
255.6505938786759
  0
ARC
  5
100
330
1F
100
AcDbEntity
  8
0
  6
CONTINUOUS
 62
     3
100
AcDbCircle
 10
162.5135094680849
 20
27.69587122824023
 30
0.0
 40
1.26604566418357
100
AcDbArc
 50
252.3384873625213
 51
268.8069976857606
  0
LINE
  5
101
330
1F
100
AcDbEntity
  8
0
  6
CONTINUOUS
 62
     3
100
AcDbLine
 10
162.4871499999996
 20
26.43010000000011
 30
0.0
 11
163.0352499999998
 21
26.43010000000011
 31
0.0
  0
ARC
  5
102
330
1F
100
AcDbEntity
  8
0
  6
CONTINUOUS
 62
     3
100
AcDbCircle
 10
162.7872077706899
 20
29.1472818656285
 30
0.0
 40
2.72847984020786
100
AcDbArc
 50
275.2158792069686
 51
319.2336424873511
  0
ARC
  5
103
330
1F
100
AcDbEntity
  8
0
  6
CONTINUOUS
 62
     3
100
AcDbCircle
 10
165.821258064516
 20
27.48645322580662
 30
0.0
 40
0.97507026801944
100
AcDbArc
 50
187.1167640402297
 51
216.4860549324747
  0
ARC
  5
104
330
1F
100
AcDbEntity
  8
0
  6
CONTINUOUS
 62
     3
100
AcDbCircle
 10
165.713701554979
 20
27.4239504710646
 30
0.0
 40
0.8515391012408
100
AcDbArc
 50
217.4081478714985
 51
264.8118660441384
  0
ARC
  5
105
330
1F
100
AcDbEntity
  8
0
  6
CONTINUOUS
 62
     3
100
AcDbCircle
 10
166.0348646922614
 20
28.28589159695266
 30
0.0
 40
1.71308124004179
100
AcDbArc
 50
271.2220539293239
 51
292.8159509797653
  0
LINE
  5
106
330
1F
100
AcDbEntity
  8
0
  6
CONTINUOUS
 62
     3
100
AcDbLine
 10
165.6366999999997
 20
26.57590000000018
 30
0.0
 11
166.0713999999995
 21
26.57590000000018
 31
0.0
  0
LINE
  5
107
330
1F
100
AcDbEntity
  8
0
  6
CONTINUOUS
 62
     3
100
AcDbLine
 10
166.6991499999999
 20
26.70685000000016
 30
0.0
 11
166.6991499999999
 21
27.0214000000001
 31
0.0
  0
ARC
  5
108
330
1F
100
AcDbEntity
  8
0
  6
CONTINUOUS
 62
     3
100
AcDbCircle
 10
166.419788422509
 20
27.55782511531381
 30
0.0
 40
0.60480971827296
100
AcDbArc
 50
243.6191685566582
 51
297.5097757939563
  0
ARC
  5
109
330
1F
100
AcDbEntity
  8
0
  6
CONTINUOUS
 62
     3
100
AcDbCircle
 10
166.4914266422704
 20
27.52265991610149
 30
0.0
 40
0.61037736621478
100
AcDbArc
 50
179.9117548191414
 51
236.1065985968857
  0
ARC
  5
10A
330
1F
100
AcDbEntity
  8
0
  6
CONTINUOUS
 62
     3
100
AcDbCircle
 10
256.5849740210917
 20
28.54307821912666
 30
0.0
 40
90.70965311731325
100
AcDbArc
 50
178.2526643324597
 51
180.6439560401927
  0
ARC
  5
10B
330
1F
100
AcDbEntity
  8
0
  6
CONTINUOUS
 62
     3
100
AcDbCircle
 10
163.8690723054055
 20
31.16043385995825
 30
0.0
 40
2.05380815022918
100
AcDbArc
 50
4.148222840814693
 51
92.36000944257292
  0
ARC
  5
10C
330
1F
100
AcDbEntity
  8
0
  6
CONTINUOUS
 62
     3
100
AcDbCircle
 10
163.7086533358603
 20
29.67994711902971
 30
0.0
 40
3.53336703065413
100
AcDbArc
 50
88.77000393305703
 51
128.9068631829044
  0
LINE
  5
10D
330
1F
100
AcDbEntity
  8
LAY-1
  6
CONTINUOUS
 62
     7
100
AcDbLine
 10
40.0
 20
20.0
 30
0.0
 11
396.0
 21
20.0
 31
0.0
  0
LINE
  5
10E
330
1F
100
AcDbEntity
  8
LAY-1
  6
CONTINUOUS
 62
     7
100
AcDbLine
 10
396.0
 20
572.0
 30
0.0
 11
396.0
 21
20.0
 31
0.0
  0
LINE
  5
10F
330
1F
100
AcDbEntity
  8
LAY-1
  6
CONTINUOUS
 62
     7
100
AcDbLine
 10
396.0
 20
572.0
 30
0.0
 11
40.0
 21
572.0
 31
0.0
  0
LINE
  5
110
330
1F
100
AcDbEntity
  8
LAY-1
  6
CONTINUOUS
 62
     7
100
AcDbLine
 10
40.0
 20
572.0
 30
0.0
 11
40.0
 21
20.0
 31
0.0
  0
LINE
  5
111
330
1F
100
AcDbEntity
  8
LAY-1
  6
CONTINUOUS
 62
     7
100
AcDbLine
 10
396.0
 20
64.0
 30
0.0
 11
40.0
 21
64.0
 31
0.0
  0
TEXT
  5
112
330
1F
100
AcDbEntity
  8
LAY-1
  6
CONTINUOUS
 62
     2
100
AcDbText
 10
45.0
 20
55.20000004768372
 30
0.0
 40
7.599999904632568
  1
設計
 41
1.534976095816436
  7
EXCADSTD
 72
     5
 11
63.332
 21
55.20000004768372
 31
0.0
100
AcDbText
  0
TEXT
  5
113
330
1F
100
AcDbEntity
  8
LAY-1
  6
CONTINUOUS
 62
     2
100
AcDbText
 10
75.0
 20
55.20000004768372
 30
0.0
 40
7.599999904632568
  1
製図
 41
1.534976095816435
  7
EXCADSTD
 72
     5
 11
93.332
 21
55.20000004768372
 31
0.0
100
AcDbText
  0
TEXT
  5
114
330
1F
100
AcDbEntity
  8
LAY-1
  6
CONTINUOUS
 62
     2
100
AcDbText
 10
103.0
 20
55.20000004768372
 30
0.0
 40
7.599999904632568
  1
検図
 41
1.534976095816435
  7
EXCADSTD
 72
     5
 11
121.332
 21
55.20000004768372
 31
0.0
100
AcDbText
  0
CIRCLE
  5
115
330
1F
100
AcDbEntity
  8
LAY-1
  6
CONTINUOUS
 62
     7
100
AcDbCircle
 10
50.0
 20
24.8
 30
0.0
 40
0.3
  0
CIRCLE
  5
116
330
1F
100
AcDbEntity
  8
LAY-1
  6
CONTINUOUS
 62
     7
100
AcDbCircle
 10
60.0
 20
24.8
 30
0.0
 40
0.3
  0
CIRCLE
  5
117
330
1F
100
AcDbEntity
  8
LAY-1
  6
CONTINUOUS
 62
     7
100
AcDbCircle
 10
80.0
 20
24.8
 30
0.0
 40
0.3
  0
CIRCLE
  5
118
330
1F
100
AcDbEntity
  8
LAY-1
  6
CONTINUOUS
 62
     7
100
AcDbCircle
 10
90.0
 20
24.8
 30
0.0
 40
0.3
  0
TEXT
  5
119
330
1F
100
AcDbEntity
  8
LAY-1
  6
CONTINUOUS
 62
     2
100
AcDbText
 10
129.0
 20
55.20000004768372
 30
0.0
 40
7.599999904632568
  1
承認
 41
1.534976095816435
  7
EXCADSTD
 72
     5
 11
147.332
 21
55.20000004768372
 31
0.0
100
AcDbText
  0
TEXT
  5
11A
330
1F
100
AcDbEntity
  8
LAY-1
  6
CONTINUOUS
 62
     2
100
AcDbText
 10
157.0
 20
61.59999990463257
 30
0.0
 40
7.330909018083053
  1
品名
  7
EXCADVERT
 72
     3
 11
157.0
 21
42.40000009536743
 31
0.0
100
AcDbText
  0
TEXT
  5
11B
330
1F
100
AcDbEntity
  8
LAY-1
  6
CONTINUOUS
 62
     2
100
AcDbText
 10
285.0
 20
38.59999990463257
 30
0.0
 40
6.567272654446689
  1
図番
  7
EXCADVERT
 72
     3
 11
285.0
 21
21.40000009536743
 31
0.0
100
AcDbText
  0
TEXT
  5
11C
330
1F
100
AcDbEntity
  8
LAY-1
  6
CONTINUOUS
 62
     2
100
AcDbText
 10
369.0
 20
61.59999990463257
 30
0.0
 40
7.330909018083053
  1
尺度
  7
EXCADVERT
 72
     3
 11
369.0
 21
42.40000009536743
 31
0.0
100
AcDbText
  0
TEXT
  5
11D
330
1F
100
AcDbEntity
  8
LAY-1
  6
CONTINUOUS
 62
     2
100
AcDbText
 10
285.0
 20
61.59999990463257
 30
0.0
 40
7.330909018083053
  1
品番
  7
EXCADVERT
 72
     3
 11
285.0
 21
42.40000009536743
 31
0.0
100
AcDbText
  0
TEXT
  5
11E
330
1F
100
AcDbEntity
  8
LAY-1
  6
CONTINUOUS
 62
     2
100
AcDbText
 10
375.5385185186
 20
53.98
 30
0.0
 40
8.0
  1
１
 41
1.119999999999996
  7
EXCADSTD
 72
     5
 11
381.9385185185999
 21
53.98
 31
0.0
100
AcDbText
  0
TEXT
  5
11F
330
1F
100
AcDbEntity
  8
LAY-1
  6
CONTINUOUS
 62
     2
100
AcDbText
 10
174.0
 20
563.2000000476837
 30
0.0
 40
7.599999904632568
  1
番号
 41
1.381478486234791
  7
EXCADSTD
 72
     5
 11
190.4988
 21
563.2000000476837
 31
0.0
100
AcDbText
  0
TEXT
  5
120
330
1F
100
AcDbEntity
  8
LAY-1
  6
CONTINUOUS
 62
     2
100
AcDbText
 10
206.0
 20
563.2000000476837
 30
0.0
 40
7.599999904632568
  1
品名
 41
2.762956972469585
  7
EXCADSTD
 72
     5
 11
238.9976
 21
563.2000000476837
 31
0.0
100
AcDbText
  0
TEXT
  5
121
330
1F
100
AcDbEntity
  8
LAY-1
  6
CONTINUOUS
 62
     2
100
AcDbText
 10
266.0
 20
563.2000000476837
 30
0.0
 40
7.599999904632568
  1
材質
 41
2.762956972469582
  7
EXCADSTD
 72
     5
 11
298.9976
 21
563.2000000476837
 31
0.0
100
AcDbText
  0
TEXT
  5
122
330
1F
100
AcDbEntity
  8
LAY-1
  6
CONTINUOUS
 62
     2
100
AcDbText
 10
316.0
 20
563.2000000476837
 30
0.0
 40
7.599999904632568
  1
個数
 41
1.381478486234794
  7
EXCADSTD
 72
     5
 11
332.4988
 21
563.2000000476837
 31
0.0
100
AcDbText
  0
TEXT
  5
123
330
1F
100
AcDbEntity
  8
LAY-1
  6
CONTINUOUS
 62
     2
100
AcDbText
 10
348.0
 20
563.2000000476837
 30
0.0
 40
7.599999904632568
  1
備考
 41
2.762956972469582
  7
EXCADSTD
 72
     5
 11
380.9976
 21
563.2000000476837
 31
0.0
100
AcDbText
  0
TEXT
  5
124
330
1F
100
AcDbEntity
  8
LAY-1
  6
CONTINUOUS
 62
     2
100
AcDbText
 10
179.0
 20
553.2000000476837
 30
0.0
 40
7.599999904632568
  1
１
 41
1.178947383214894
  7
EXCADSTD
 72
     5
 11
185.4
 21
553.2000000476837
 31
0.0
100
AcDbText
  0
TEXT
  5
125
330
1F
100
AcDbEntity
  8
LAY-1
  6
CONTINUOUS
 62
     2
100
AcDbText
 10
196.8
 20
553.2000000476837
 30
0.0
 40
7.599999904632568
  1
胴
 41
1.178947383214894
  7
EXCADSTD
 72
     5
 11
203.2
 21
553.2000000476837
 31
0.0
100
AcDbText
  0
TEXT
  5
126
330
1F
100
AcDbEntity
  8
LAY-1
  6
CONTINUOUS
 62
     2
100
AcDbText
 10
321.0
 20
553.2000000476837
 30
0.0
 40
7.599999904632568
  1
１
 41
1.178947383214888
  7
EXCADSTD
 72
     5
 11
327.4
 21
553.2000000476837
 31
0.0
100
AcDbText
  0
TEXT
  5
127
330
1F
100
AcDbEntity
  8
LAY-1
  6
CONTINUOUS
 62
     2
100
AcDbText
 10
179.0
 20
543.2000000476837
 30
0.0
 40
7.599999904632568
  1
２
 41
1.178947383214894
  7
EXCADSTD
 72
     5
 11
185.4
 21
543.2000000476837
 31
0.0
100
AcDbText
  0
TEXT
  5
128
330
1F
100
AcDbEntity
  8
LAY-1
  6
CONTINUOUS
 62
     2
100
AcDbText
 10
179.0
 20
533.2000000476837
 30
0.0
 40
7.599999904632568
  1
３
 41
1.178947383214894
  7
EXCADSTD
 72
     5
 11
185.4
 21
533.2000000476837
 31
0.0
100
AcDbText
  0
LINE
  5
129
330
1F
100
AcDbEntity
  8
LAY-1
  6
CONTINUOUS
 62
     6
100
AcDbLine
 10
172.0
 20
562.0
 30
0.0
 11
396.0
 21
562.0
 31
0.0
  0
LINE
  5
12A
330
1F
100
AcDbEntity
  8
LAY-1
  6
CONTINUOUS
 62
     6
100
AcDbLine
 10
172.0
 20
552.0
 30
0.0
 11
396.0
 21
552.0
 31
0.0
  0
LINE
  5
12B
330
1F
100
AcDbEntity
  8
LAY-1
  6
CONTINUOUS
 62
     6
100
AcDbLine
 10
172.0
 20
542.0
 30
0.0
 11
396.0
 21
542.0
 31
0.0
  0
LINE
  5
12C
330
1F
100
AcDbEntity
  8
LAY-1
  6
CONTINUOUS
 62
     6
100
AcDbLine
 10
152.0
 20
54.0
 30
0.0
 11
40.0
 21
54.0
 31
0.0
  0
LINE
  5
12D
330
1F
100
AcDbEntity
  8
LAY-1
  6
CONTINUOUS
 62
     6
100
AcDbLine
 10
70.0
 20
20.0
 30
0.0
 11
70.0
 21
64.0
 31
0.0
  0
LINE
  5
12E
330
1F
100
AcDbEntity
  8
LAY-1
  6
CONTINUOUS
 62
     6
100
AcDbLine
 10
100.0
 20
20.0
 30
0.0
 11
100.0
 21
64.0
 31
0.0
  0
LINE
  5
12F
330
1F
100
AcDbEntity
  8
LAY-1
  6
CONTINUOUS
 62
     6
100
AcDbLine
 10
126.0
 20
20.0
 30
0.0
 11
126.0
 21
64.0
 31
0.0
  0
LINE
  5
130
330
1F
100
AcDbEntity
  8
LAY-1
  6
CONTINUOUS
 62
     6
100
AcDbLine
 10
152.0
 20
20.0
 30
0.0
 11
152.0
 21
64.0
 31
0.0
  0
LINE
  5
131
330
1F
100
AcDbEntity
  8
LAY-1
  6
CONTINUOUS
 62
     6
100
AcDbLine
 10
152.0
 20
40.0
 30
0.0
 11
396.0
 21
40.0
 31
0.0
  0
LINE
  5
132
330
1F
100
AcDbEntity
  8
LAY-1
  6
CONTINUOUS
 62
     6
100
AcDbLine
 10
364.0
 20
40.0
 30
0.0
 11
364.0
 21
64.0
 31
0.0
  0
LINE
  5
133
330
1F
100
AcDbEntity
  8
LAY-1
  6
CONTINUOUS
 62
     6
100
AcDbLine
 10
162.0
 20
40.0
 30
0.0
 11
162.0
 21
64.0
 31
0.0
  0
LINE
  5
134
330
1F
100
AcDbEntity
  8
LAY-1
  6
CONTINUOUS
 62
     6
100
AcDbLine
 10
393.8
 20
59.625
 30
0.0
 11
376.2
 21
44.775
 31
0.0
  0
LINE
  5
135
330
1F
100
AcDbEntity
  8
LAY-1
  6
CONTINUOUS
 62
     6
100
AcDbLine
 10
280.0
 20
64.0
 30
0.0
 11
280.0
 21
20.0
 31
0.0
  0
LINE
  5
136
330
1F
100
AcDbEntity
  8
LAY-1
  6
CONTINUOUS
 62
     6
100
AcDbLine
 10
290.0
 20
20.0
 30
0.0
 11
290.0
 21
64.0
 31
0.0
  0
LINE
  5
137
330
1F
100
AcDbEntity
  8
LAY-1
  6
CONTINUOUS
 62
     6
100
AcDbLine
 10
374.0
 20
64.0
 30
0.0
 11
374.0
 21
40.0
 31
0.0
  0
TEXT
  5
138
330
1F
100
AcDbEntity
  8
LAY-1
  6
CONTINUOUS
 62
     2
100
AcDbText
 10
338.8
 20
553.2000000476837
 30
0.0
 40
7.599999904632568
  1
クロムメッキ
 41
1.263157910587385
  7
EXCADSTD
 72
     5
 11
386.8
 21
553.2000000476837
 31
0.0
100
AcDbText
  0
TEXT
  5
139
330
1F
100
AcDbEntity
  8
LAY-1
  6
CONTINUOUS
 62
     2
100
AcDbText
 10
256.8
 20
553.2000000476837
 30
0.0
 40
7.599999904632568
  1
青銅鋳物
 41
1.28146454697271
  7
EXCADSTD
 72
     5
 11
288.8
 21
553.2000000476837
 31
0.0
100
AcDbText
  0
TEXT
  5
13A
330
1F
100
AcDbEntity
  8
LAY-1
  6
CONTINUOUS
 62
     2
100
AcDbText
 10
179.0
 20
523.2000000476837
 30
0.0
 40
7.599999904632568
  1
４
 41
1.178947383214894
  7
EXCADSTD
 72
     5
 11
185.4
 21
523.2000000476837
 31
0.0
100
AcDbText
  0
TEXT
  5
13B
330
1F
100
AcDbEntity
  8
LAY-1
  6
CONTINUOUS
 62
     2
100
AcDbText
 10
321.0
 20
503.2000000476837
 30
0.0
 40
7.599999904632568
  1
１
 41
1.178947383214888
  7
EXCADSTD
 72
     5
 11
327.4
 21
503.2000000476837
 31
0.0
100
AcDbText
  0
TEXT
  5
13C
330
1F
100
AcDbEntity
  8
LAY-1
  6
CONTINUOUS
 62
     2
100
AcDbText
 10
338.8
 20
503.2000000476837
 30
0.0
 40
7.599999904632568
  1
クロムメッキ
 41
1.263157910587385
  7
EXCADSTD
 72
     5
 11
386.8
 21
503.2000000476837
 31
0.0
100
AcDbText
  0
TEXT
  5
13D
330
1F
100
AcDbEntity
  8
LAY-1
  6
CONTINUOUS
 62
     2
100
AcDbText
 10
256.8
 20
503.2000000476837
 30
0.0
 40
7.599999904632568
  1
黄銅棒
 41
1.300309613839955
  7
EXCADSTD
 72
     5
 11
280.8
 21
503.2000000476837
 31
0.0
100
AcDbText
  0
TEXT
  5
13E
330
1F
100
AcDbEntity
  8
LAY-1
  6
CONTINUOUS
 62
     2
100
AcDbText
 10
196.8
 20
503.2000000476837
 30
0.0
 40
7.599999904632568
  1
スリーブナット
 41
1.258023122332965
  7
EXCADSTD
 72
     5
 11
252.8
 21
503.2000000476837
 31
0.0
100
AcDbText
  0
TEXT
  5
13F
330
1F
100
AcDbEntity
  8
LAY-1
  6
CONTINUOUS
 62
     2
100
AcDbText
 10
321.0
 20
493.2000000476837
 30
0.0
 40
7.599999904632568
  1
１
 41
1.178947383214888
  7
EXCADSTD
 72
     5
 11
327.4
 21
493.2000000476837
 31
0.0
100
AcDbText
  0
TEXT
  5
140
330
1F
100
AcDbEntity
  8
LAY-1
  6
CONTINUOUS
 62
     2
100
AcDbText
 10
179.0
 20
513.2000000476837
 30
0.0
 40
7.599999904632568
  1
５
 41
1.178947383214894
  7
EXCADSTD
 72
     5
 11
185.4
 21
513.2000000476837
 31
0.0
100
AcDbText
  0
TEXT
  5
141
330
1F
100
AcDbEntity
  8
LAY-1
  6
CONTINUOUS
 62
     2
100
AcDbText
 10
179.0
 20
503.2000000476837
 30
0.0
 40
7.599999904632568
  1
６
 41
1.178947383214894
  7
EXCADSTD
 72
     5
 11
185.4
 21
503.2000000476837
 31
0.0
100
AcDbText
  0
TEXT
  5
142
330
1F
100
AcDbEntity
  8
LAY-1
  6
CONTINUOUS
 62
     2
100
AcDbText
 10
179.0
 20
493.2000000476837
 30
0.0
 40
7.599999904632568
  1
７
 41
1.178947383214894
  7
EXCADSTD
 72
     5
 11
185.4
 21
493.2000000476837
 31
0.0
100
AcDbText
  0
LINE
  5
143
330
1F
100
AcDbEntity
  8
LAY-1
  6
CONTINUOUS
 62
     6
100
AcDbLine
 10
172.0
 20
512.0
 30
0.0
 11
396.0
 21
512.0
 31
0.0
  0
LINE
  5
144
330
1F
100
AcDbEntity
  8
LAY-1
  6
CONTINUOUS
 62
     6
100
AcDbLine
 10
172.0
 20
502.0
 30
0.0
 11
396.0
 21
502.0
 31
0.0
  0
TEXT
  5
145
330
1F
100
AcDbEntity
  8
LAY-1
  6
CONTINUOUS
 62
     2
100
AcDbText
 10
196.8
 20
523.2000000476837
 30
0.0
 40
7.599999904632568
  1
ハンドル
 41
1.28146454697271
  7
EXCADSTD
 72
     5
 11
228.8
 21
523.2000000476837
 31
0.0
100
AcDbText
  0
TEXT
  5
146
330
1F
100
AcDbEntity
  8
LAY-1
  6
CONTINUOUS
 62
     2
100
AcDbText
 10
321.0
 20
523.2000000476837
 30
0.0
 40
7.599999904632568
  1
１
 41
1.178947383214888
  7
EXCADSTD
 72
     5
 11
327.4
 21
523.2000000476837
 31
0.0
100
AcDbText
  0
TEXT
  5
147
330
1F
100
AcDbEntity
  8
LAY-1
  6
CONTINUOUS
 62
     2
100
AcDbText
 10
338.8
 20
523.2000000476837
 30
0.0
 40
7.599999904632568
  1
クロムメッキ
 41
1.263157910587385
  7
EXCADSTD
 72
     5
 11
386.8
 21
523.2000000476837
 31
0.0
100
AcDbText
  0
TEXT
  5
148
330
1F
100
AcDbEntity
  8
LAY-1
  6
CONTINUOUS
 62
     2
100
AcDbText
 10
256.8
 20
523.2000000476837
 30
0.0
 40
7.599999904632568
  1
黄銅棒
 41
1.300309613839955
  7
EXCADSTD
 72
     5
 11
280.8
 21
523.2000000476837
 31
0.0
100
AcDbText
  0
LINE
  5
149
330
1F
100
AcDbEntity
  8
LAY-1
  6
CONTINUOUS
 62
     6
100
AcDbLine
 10
172.0
 20
532.0
 30
0.0
 11
396.0
 21
532.0
 31
0.0
  0
LINE
  5
14A
330
1F
100
AcDbEntity
  8
LAY-1
  6
CONTINUOUS
 62
     6
100
AcDbLine
 10
172.0
 20
522.0
 30
0.0
 11
396.0
 21
522.0
 31
0.0
  0
TEXT
  5
14B
330
1F
100
AcDbEntity
  8
LAY-1
  6
CONTINUOUS
 62
     2
100
AcDbText
 10
196.8
 20
543.2000000476837
 30
0.0
 40
7.599999904632568
  1
パッキン押エ
 41
1.263157910587385
  7
EXCADSTD
 72
     5
 11
244.8
 21
543.2000000476837
 31
0.0
100
AcDbText
  0
TEXT
  5
14C
330
1F
100
AcDbEntity
  8
LAY-1
  6
CONTINUOUS
 62
     2
100
AcDbText
 10
256.8
 20
543.2000000476837
 30
0.0
 40
7.599999904632568
  1
黄銅棒
 41
1.300309613839955
  7
EXCADSTD
 72
     5
 11
280.8
 21
543.2000000476837
 31
0.0
100
AcDbText
  0
TEXT
  5
14D
330
1F
100
AcDbEntity
  8
LAY-1
  6
CONTINUOUS
 62
     2
100
AcDbText
 10
321.0
 20
543.2000000476837
 30
0.0
 40
7.599999904632568
  1
１
 41
1.178947383214888
  7
EXCADSTD
 72
     5
 11
327.4
 21
543.2000000476837
 31
0.0
100
AcDbText
  0
TEXT
  5
14E
330
1F
100
AcDbEntity
  8
LAY-1
  6
CONTINUOUS
 62
     2
100
AcDbText
 10
338.8
 20
543.2000000476837
 30
0.0
 40
7.599999904632568
  1
クロムメッキ
 41
1.263157910587385
  7
EXCADSTD
 72
     5
 11
386.8
 21
543.2000000476837
 31
0.0
100
AcDbText
  0
TEXT
  5
14F
330
1F
100
AcDbEntity
  8
LAY-1
  6
CONTINUOUS
 62
     2
100
AcDbText
 10
338.8
 20
533.2000000476837
 30
0.0
 40
7.599999904632568
  1
クロムメッキ
 41
1.263157910587385
  7
EXCADSTD
 72
     5
 11
386.8
 21
533.2000000476837
 31
0.0
100
AcDbText
  0
TEXT
  5
150
330
1F
100
AcDbEntity
  8
LAY-1
  6
CONTINUOUS
 62
     2
100
AcDbText
 10
321.0
 20
533.2000000476837
 30
0.0
 40
7.599999904632568
  1
１
 41
1.178947383214888
  7
EXCADSTD
 72
     5
 11
327.4
 21
533.2000000476837
 31
0.0
100
AcDbText
  0
TEXT
  5
151
330
1F
100
AcDbEntity
  8
LAY-1
  6
CONTINUOUS
 62
     2
100
AcDbText
 10
256.8
 20
533.2000000476837
 30
0.0
 40
7.599999904632568
  1
黄銅棒
 41
1.300309613839955
  7
EXCADSTD
 72
     5
 11
280.8
 21
533.2000000476837
 31
0.0
100
AcDbText
  0
TEXT
  5
152
330
1F
100
AcDbEntity
  8
LAY-1
  6
CONTINUOUS
 62
     2
100
AcDbText
 10
196.8
 20
533.2000000476837
 30
0.0
 40
7.599999904632568
  1
栓棒
 41
1.227980876653149
  7
EXCADSTD
 72
     5
 11
211.4656
 21
533.2000000476837
 31
0.0
100
AcDbText
  0
TEXT
  5
153
330
1F
100
AcDbEntity
  8
LAY-1
  6
CONTINUOUS
 62
     2
100
AcDbText
 10
196.8
 20
513.2000000476837
 30
0.0
 40
7.599999904632568
  1
ハンドル止メネジ
 41
1.089585673424732
  7
EXCADSTD
 72
     5
 11
252.399999666214
 21
513.2000000476837
 31
0.0
100
AcDbText
  0
TEXT
  5
154
330
1F
100
AcDbEntity
  8
LAY-1
  6
CONTINUOUS
 62
     2
100
AcDbText
 10
256.8
 20
513.2000000476837
 30
0.0
 40
7.599999904632568
  1
黄銅棒
 41
1.300309613839955
  7
EXCADSTD
 72
     5
 11
280.8
 21
513.2000000476837
 31
0.0
100
AcDbText
  0
TEXT
  5
155
330
1F
100
AcDbEntity
  8
LAY-1
  6
CONTINUOUS
 62
     2
100
AcDbText
 10
321.0
 20
513.2000000476837
 30
0.0
 40
7.599999904632568
  1
１
 41
1.178947383214888
  7
EXCADSTD
 72
     5
 11
327.4
 21
513.2000000476837
 31
0.0
100
AcDbText
  0
TEXT
  5
156
330
1F
100
AcDbEntity
  8
LAY-1
  6
CONTINUOUS
 62
     2
100
AcDbText
 10
338.8
 20
513.2000000476837
 30
0.0
 40
7.599999904632568
  1
クロムメッキ
 41
1.263157910587385
  7
EXCADSTD
 72
     5
 11
386.8
 21
513.2000000476837
 31
0.0
100
AcDbText
  0
TEXT
  5
157
330
1F
100
AcDbEntity
  8
LAY-1
  6
CONTINUOUS
 62
     2
100
AcDbText
 10
196.8
 20
493.2000000476837
 30
0.0
 40
7.599999904632568
  1
パイプ
 41
1.300309613839955
  7
EXCADSTD
 72
     5
 11
220.8
 21
493.2000000476837
 31
0.0
100
AcDbText
  0
TEXT
  5
158
330
1F
100
AcDbEntity
  8
LAY-1
  6
CONTINUOUS
 62
     2
100
AcDbText
 10
256.8
 20
493.2000000476837
 30
0.0
 40
7.599999904632568
  1
黄銅管
 41
1.300309613839955
  7
EXCADSTD
 72
     5
 11
280.8
 21
493.2000000476837
 31
0.0
100
AcDbText
  0
TEXT
  5
159
330
1F
100
AcDbEntity
  8
LAY-1
  6
CONTINUOUS
 62
     2
100
AcDbText
 10
338.8
 20
493.2000000476837
 30
0.0
 40
7.599999904632568
  1
クロムメッキ
 41
1.263157910587385
  7
EXCADSTD
 72
     5
 11
386.8
 21
493.2000000476837
 31
0.0
100
AcDbText
  0
TEXT
  5
15A
330
1F
100
AcDbEntity
  8
LAY-1
  6
CONTINUOUS
 62
     7
100
AcDbText
 10
164.6000003218651
 20
45.99999999999999
 30
0.0
 40
12.0
  1
小便器洗浄水栓　１３
 41
1.115254230923572
  7
EXCADSTD
 72
     5
 11
277.3999996781349
 21
45.99999999999999
 31
0.0
100
AcDbText
  0
TEXT
  5
15B
330
1F
100
AcDbEntity
  8
LAY-1
  6
CONTINUOUS
 62
     2
100
AcDbText
 10
383.7585185186
 20
41.74
 30
0.0
 40
8.0
  1
２
 41
1.119999999999996
  7
EXCADSTD
 72
     5
 11
390.1585185186
 21
41.74
 31
0.0
100
AcDbText
  0
TEXT
  5
15C
330
1F
100
AcDbEntity
  8
LAY-1
  6
CONTINUOUS
 62
     2
100
AcDbText
 10
321.0000000000001
 20
483.2000000476837
 30
0.0
 40
7.599999904632568
  1
１
 41
1.178947383214888
  7
EXCADSTD
 72
     5
 11
327.4
 21
483.2000000476837
 31
0.0
100
AcDbText
  0
TEXT
  5
15D
330
1F
100
AcDbEntity
  8
LAY-1
  6
CONTINUOUS
 62
     2
100
AcDbText
 10
256.8000000000001
 20
483.2000000476837
 30
0.0
 40
7.599999904632568
  1
ステンレス
 41
1.270417438809152
  7
EXCADSTD
 72
     5
 11
296.8000000000001
 21
483.2000000476837
 31
0.0
100
AcDbText
  0
TEXT
  5
15E
330
1F
100
AcDbEntity
  8
LAY-1
  6
CONTINUOUS
 62
     2
100
AcDbText
 10
196.8000000000001
 20
483.2000000476837
 30
0.0
 40
7.599999904632568
  1
送リ座
 41
1.300309613839955
  7
EXCADSTD
 72
     5
 11
220.8000000000001
 21
483.2000000476837
 31
0.0
100
AcDbText
  0
LINE
  5
15F
330
1F
100
AcDbEntity
  8
LAY-1
  6
CONTINUOUS
 62
     6
100
AcDbLine
 10
172.0
 20
482.0
 30
0.0
 11
396.0
 21
482.0
 31
0.0
  0
LINE
  5
160
330
1F
100
AcDbEntity
  8
LAY-1
  6
CONTINUOUS
 62
     6
100
AcDbLine
 10
172.0
 20
492.0
 30
0.0
 11
396.0
 21
492.0000000000001
 31
0.0
  0
LINE
  5
161
330
1F
100
AcDbEntity
  8
LAY-1
  6
CONTINUOUS
 62
     6
100
AcDbLine
 10
172.0
 20
572.0
 30
0.0
 11
172.0
 21
482.0
 31
0.0
  0
LINE
  5
162
330
1F
100
AcDbEntity
  8
LAY-1
  6
CONTINUOUS
 62
     6
100
AcDbLine
 10
194.0
 20
572.0
 30
0.0
 11
194.0
 21
482.0
 31
0.0
  0
LINE
  5
163
330
1F
100
AcDbEntity
  8
LAY-1
  6
CONTINUOUS
 62
     6
100
AcDbLine
 10
254.0
 20
572.0
 30
0.0
 11
254.0
 21
482.0
 31
0.0
  0
LINE
  5
164
330
1F
100
AcDbEntity
  8
LAY-1
  6
CONTINUOUS
 62
     6
100
AcDbLine
 10
314.0
 20
572.0
 30
0.0
 11
314.0
 21
482.0
 31
0.0
  0
LINE
  5
165
330
1F
100
AcDbEntity
  8
LAY-1
  6
CONTINUOUS
 62
     6
100
AcDbLine
 10
336.0
 20
572.0
 30
0.0
 11
336.0
 21
482.0
 31
0.0
  0
TEXT
  5
166
330
1F
100
AcDbEntity
  8
LAY-1
  6
CONTINUOUS
 62
     2
100
AcDbText
 10
179.0
 20
483.2000000476837
 30
0.0
 40
7.599999904632568
  1
８
 41
1.178947383214894
  7
EXCADSTD
 72
     5
 11
185.4
 21
483.2000000476837
 31
0.0
100
AcDbText
  0
TEXT
  5
167
330
1F
100
AcDbEntity
  8
LAY-1
  6
CONTINUOUS
 62
     7
100
AcDbText
 10
300.2000002861023
 20
46.0
 30
0.0
 40
12.0
  1
ＮＵ１Ｔ２
 41
1.078160908030368
  7
EXCADSTD
 72
     5
 11
353.7999997138977
 21
46.0
 31
0.0
100
AcDbText
  0
TEXT
  5
168
330
1F
100
AcDbEntity
  8
LAY-1
  6
CONTINUOUS
 62
     2
100
AcDbText
 10
74.79999995231628
 20
37.0
 30
0.0
 40
10.0
  1
中村
 41
1.18991346010815
  7
EXCADSTD
 72
     5
 11
93.49864003973008
 21
37.0
 31
0.0
100
AcDbText
  0
TEXT
  5
169
330
1F
100
AcDbEntity
  8
LAY-1
  6
CONTINUOUS
 62
     2
100
AcDbText
 10
71.35000002384186
 20
21.8
 30
0.0
 40
6.0
  1
'18
 41
0.4689784011919453
  7
EXCADSTD
 72
     5
 11
77.64770998270512
 21
21.8
 31
0.0
100
AcDbText
  0
TEXT
  5
16A
330
1F
100
AcDbEntity
  8
LAY-1
  6
CONTINUOUS
 62
     2
100
AcDbText
 10
83.25
 20
21.8
 30
0.0
 40
6.0
  1
7
 41
0.4683823529411777
  7
EXCADSTD
 72
     5
 11
85.525
 21
21.8
 31
0.0
100
AcDbText
  0
TEXT
  5
16B
330
1F
100
AcDbEntity
  8
LAY-1
  6
CONTINUOUS
 62
     2
100
AcDbText
 10
92.30000001192093
 20
21.8
 30
0.0
 40
6.0
  1
24
 41
0.3978947350853366
  7
EXCADSTD
 72
     5
 11
96.61999999284744
 21
21.8
 31
0.0
100
AcDbText
  0
TEXT
  5
16C
330
1F
100
AcDbEntity
  8
LAY-1
  6
CONTINUOUS
 62
     2
100
AcDbText
 10
102.7999999523163
 20
37.0
 30
0.0
 40
10.0
  1
間瀬
 41
1.18991346010815
  7
EXCADSTD
 72
     5
 11
121.4986400397301
 21
37.0
 31
0.0
100
AcDbText
  0
TEXT
  5
16D
330
1F
100
AcDbEntity
  8
LAY-1
  6
CONTINUOUS
 62
     2
100
AcDbText
 10
128.7999999523163
 20
37.0
 30
0.0
 40
10.0
  1
間瀬
 41
1.18991346010815
  7
EXCADSTD
 72
     5
 11
147.4986400397301
 21
37.0
 31
0.0
100
AcDbText
  0
LINE
  5
16E
330
1F
100
AcDbEntity
  8
LAY-1
  6
EXLTYPE2
 62
     6
100
AcDbLine
 10
40.0
 20
30.0
 30
0.0
 11
100.0
 21
30.0
 31
0.0
  0
TEXT
  5
16F
330
1F
100
AcDbEntity
  8
LAY-1
  6
CONTINUOUS
 62
     7
100
AcDbText
 10
300.0
 20
23.5
 30
0.0
 40
13.0
  1
３４２８００
 41
1.323076923076923
  7
EXCADSTD
 72
     5
 11
386.0
 21
23.5
 31
0.0
100
AcDbText
  0
TEXT
  5
170
330
1F
100
AcDbEntity
  8
LAY-2
  6
CONTINUOUS
 62
     2
100
AcDbText
 10
277.3
 20
364.3999999880791
 30
0.0
 40
8.0
  1
ＰＪ１/２
 41
0.9836538434028627
  7
EXCADSTD
 72
     5
 11
311.3999999046326
 21
364.3999999880791
 31
0.0
100
AcDbText
  0
LEADER
  5
171
330
1F
100
AcDbEntity
  8
LAY-2
  6
CONTINUOUS
 62
     6
100
AcDbLeader
  3
ISO-25
 76
     3
 10
259.4000015
 20
350.477493
 30
0.0
 10
276.3
 20
363.7
 30
0.0
 10
311.6
 20
363.7
 30
0.0
1001
ACAD
1000
DSTYLE
1002
{
1070
     5
1000
EX_NORM
1070
    41
1040
7.0
1070
   341
1005
4A
1002
}
  0
CIRCLE
  5
172
330
1F
100
AcDbEntity
  8
LAY-2
  6
CONTINUOUS
 62
     6
100
AcDbCircle
 10
183.0504166235901
 20
306.6000000000001
 30
0.0
 40
8.0
  0
TEXT
  5
173
330
1F
100
AcDbEntity
  8
LAY-2
  6
CONTINUOUS
 62
     2
100
AcDbText
 10
177.3935624709106
 20
300.9431458473206
 30
0.0
 40
11.31370830535889
  1
３
 41
1.120000000000001
  7
EXCADSTD
 72
     5
 11
186.4445291151978
 21
300.9431458473206
 31
0.0
100
AcDbText
  0
CIRCLE
  5
174
330
1F
100
AcDbEntity
  8
LAY-2
  6
CONTINUOUS
 62
     6
100
AcDbCircle
 10
207.0504166235901
 20
392.56839632462
 30
0.0
 40
8.0
  0
TEXT
  5
175
330
1F
100
AcDbEntity
  8
LAY-2
  6
CONTINUOUS
 62
     2
100
AcDbText
 10
201.3935624709106
 20
386.9115421719406
 30
0.0
 40
11.31370830535889
  1
１
 41
1.120000000000001
  7
EXCADSTD
 72
     5
 11
210.4445291151978
 21
386.9115421719406
 31
0.0
100
AcDbText
  0
LINE
  5
176
330
1F
100
AcDbEntity
  8
LAY-2
  6
CONTINUOUS
 62
     3
100
AcDbLine
 10
218.0
 20
354.632287
 30
0.0
 11
218.0
 21
382.5
 31
0.0
  0
LINE
  5
177
330
1F
100
AcDbEntity
  8
LAY-2
  6
CONTINUOUS
 62
     3
100
AcDbLine
 10
253.0
 20
364.75
 30
0.0
 11
253.0
 21
382.5
 31
0.0
  0
TEXT
  5
178
330
1F
100
AcDbEntity
  8
LAY-2
  6
CONTINUOUS
 62
     2
100
AcDbText
 10
226.0
 20
381.1000000238419
 30
0.0
 40
8.0
  1
３５
 41
1.020759090909092
  7
EXCADSTD
 72
     5
 11
238.8324
 21
381.1000000238419
 31
0.0
100
AcDbText
  0
TEXT
  5
179
330
1F
100
AcDbEntity
  8
LAY-2
  6
CONTINUOUS
 62
     2
100
AcDbText
 10
239.0
 20
381.1000000238419
 30
0.0
 40
3.599999904632568
  1
±５
 41
0.6781349524401916
  7
EXCADSTD
 72
     5
 11
243.7663198251724
 21
381.1000000238419
 31
0.0
100
AcDbText
  0
LINE
  5
17A
330
1F
100
AcDbEntity
  8
LAY-2
  6
CONTINUOUS
 62
     3
100
AcDbLine
 10
218.0
 20
380.5
 30
0.0
 11
253.0
 21
380.5
 31
0.0
  0
LINE
  5
17B
330
1F
100
AcDbEntity
  8
LAY-2
  6
CONTINUOUS
 62
     3
100
AcDbLine
 10
224.0
 20
381.5
 30
0.0
 11
218.0
 21
380.5
 31
0.0
  0
LINE
  5
17C
330
1F
100
AcDbEntity
  8
LAY-2
  6
CONTINUOUS
 62
     3
100
AcDbLine
 10
218.0
 20
380.5
 30
0.0
 11
224.0
 21
379.5
 31
0.0
  0
LINE
  5
17D
330
1F
100
AcDbEntity
  8
LAY-2
  6
CONTINUOUS
 62
     3
100
AcDbLine
 10
247.0
 20
379.5
 30
0.0
 11
253.0
 21
380.5
 31
0.0
  0
LINE
  5
17E
330
1F
100
AcDbEntity
  8
LAY-2
  6
CONTINUOUS
 62
     3
100
AcDbLine
 10
253.0
 20
380.5
 30
0.0
 11
247.0
 21
381.5
 31
0.0
  0
CIRCLE
  5
17F
330
1F
100
AcDbEntity
  8
LAY-2
  6
CONTINUOUS
 62
     6
100
AcDbCircle
 10
271.1000000000001
 20
309.7000000000001
 30
0.0
 40
8.0
  0
TEXT
  5
180
330
1F
100
AcDbEntity
  8
LAY-2
  6
CONTINUOUS
 62
     2
100
AcDbText
 10
265.4431458473207
 20
304.0431458473206
 30
0.0
 40
11.31370830535889
  1
８
 41
1.119999999999997
  7
EXCADSTD
 72
     5
 11
274.4941124916078
 21
304.0431458473206
 31
0.0
100
AcDbText
  0
CIRCLE
  5
181
330
1F
100
AcDbEntity
  8
LAY-2
  6
CONTINUOUS
 62
     6
100
AcDbCircle
 10
240.0000000000001
 20
289.5000000000001
 30
0.0
 40
8.0
  0
TEXT
  5
182
330
1F
100
AcDbEntity
  8
LAY-2
  6
CONTINUOUS
 62
     2
100
AcDbText
 10
234.3431458473206
 20
283.8431458473206
 30
0.0
 40
11.31370830535889
  1
６
 41
1.120000000000001
  7
EXCADSTD
 72
     5
 11
243.3941124916078
 21
283.8431458473206
 31
0.0
100
AcDbText
  0
CIRCLE
  5
183
330
1F
100
AcDbEntity
  8
LAY-2
  6
CONTINUOUS
 62
     6
100
AcDbCircle
 10
234.8000000000001
 20
196.5
 30
0.0
 40
8.0
  0
TEXT
  5
184
330
1F
100
AcDbEntity
  8
LAY-2
  6
CONTINUOUS
 62
     2
100
AcDbText
 10
229.1431458473206
 20
190.8431458473206
 30
0.0
 40
11.31370830535889
  1
７
 41
1.120000000000001
  7
EXCADSTD
 72
     5
 11
238.1941124916077
 21
190.8431458473206
 31
0.0
100
AcDbText
  0
CIRCLE
  5
185
330
1F
100
AcDbEntity
  8
LAY-2
  6
CONTINUOUS
 62
     6
100
AcDbCircle
 10
159.0504166235901
 20
368.5683963246201
 30
0.0
 40
8.0
  0
TEXT
  5
186
330
1F
100
AcDbEntity
  8
LAY-2
  6
CONTINUOUS
 62
     2
100
AcDbText
 10
153.3935624709106
 20
362.9115421719407
 30
0.0
 40
11.31370830535889
  1
５
 41
1.120000000000001
  7
EXCADSTD
 72
     5
 11
162.4445291151978
 21
362.9115421719407
 31
0.0
100
AcDbText
  0
CIRCLE
  5
187
330
1F
100
AcDbEntity
  8
LAY-2
  6
CONTINUOUS
 62
     6
100
AcDbCircle
 10
159.0504166235901
 20
392.5683963246201
 30
0.0
 40
8.0
  0
TEXT
  5
188
330
1F
100
AcDbEntity
  8
LAY-2
  6
CONTINUOUS
 62
     2
100
AcDbText
 10
153.3935624709106
 20
386.9115421719406
 30
0.0
 40
11.31370830535889
  1
４
 41
1.120000000000001
  7
EXCADSTD
 72
     5
 11
162.4445291151978
 21
386.9115421719406
 31
0.0
100
AcDbText
  0
CIRCLE
  5
189
330
1F
100
AcDbEntity
  8
LAY-2
  6
CONTINUOUS
 62
     6
100
AcDbCircle
 10
183.0504166235901
 20
392.56839632462
 30
0.0
 40
8.0
  0
TEXT
  5
18A
330
1F
100
AcDbEntity
  8
LAY-2
  6
CONTINUOUS
 62
     2
100
AcDbText
 10
177.3935624709106
 20
386.9115421719406
 30
0.0
 40
11.31370830535889
  1
２
 41
1.120000000000001
  7
EXCADSTD
 72
     5
 11
186.4445291151978
 21
386.9115421719406
 31
0.0
100
AcDbText
  0
LINE
  5
18B
330
1F
100
AcDbEntity
  8
LAY-2
  6
CONTINUOUS
 62
     3
100
AcDbLine
 10
268.0
 20
340.0
 30
0.0
 11
287.0
 21
340.0
 31
0.0
  0
ARC
  5
18C
330
1F
100
AcDbEntity
  8
LAY-2
  6
CONTINUOUS
 62
     2
100
AcDbCircle
 10
218.0
 20
292.0
 30
0.0
 40
60.00000000000004
100
AcDbArc
 50
80.86337299999997
 51
90.00000000000004
  0
LINE
  5
18D
330
1F
100
AcDbEntity
  8
LAY-2
  6
CONTINUOUS
 62
     2
100
AcDbLine
 10
186.419533
 20
344.75
 30
0.0
 11
180.976262
 21
344.75
 31
0.0
  0
LINE
  5
18E
330
1F
100
AcDbEntity
  8
LAY-2
  6
CONTINUOUS
 62
     2
100
AcDbLine
 10
186.419533
 20
335.25
 30
0.0
 11
180.976262
 21
335.25
 31
0.0
  0
ARC
  5
18F
330
1F
100
AcDbEntity
  8
LAY-2
  6
CONTINUOUS
 62
     2
100
AcDbCircle
 10
202.5
 20
324.5
 30
0.0
 40
3.500000000000002
100
AcDbArc
 50
0.0
 51
90.00000000000004
  0
LINE
  5
190
330
1F
100
AcDbEntity
  8
LAY-2
  6
CONTINUOUS
 62
     2
100
AcDbLine
 10
218.0
 20
321.0
 30
0.0
 11
205.1
 21
321.0
 31
0.0
  0
LINE
  5
191
330
1F
100
AcDbEntity
  8
LAY-2
  6
CONTINUOUS
 62
     2
100
AcDbLine
 10
218.0
 20
309.0
 30
0.0
 11
205.1
 21
309.0
 31
0.0
  0
ARC
  5
192
330
1F
100
AcDbEntity
  8
LAY-2
  6
CONTINUOUS
 62
     2
100
AcDbCircle
 10
217.758333
 20
315.0
 30
0.0
 40
14.008333
100
AcDbArc
 50
154.6392330000003
 51
205.3607670000002
  0
LINE
  5
193
330
1F
100
AcDbEntity
  8
LAY-2
  6
CONTINUOUS
 62
     2
100
AcDbLine
 10
206.0
 20
324.5
 30
0.0
 11
206.0
 21
321.0
 31
0.0
  0
LINE
  5
194
330
1F
100
AcDbEntity
  8
LAY-2
  6
CONTINUOUS
 62
     2
100
AcDbLine
 10
201.0
 20
340.0
 30
0.0
 11
201.0
 21
328.0
 31
0.0
  0
LINE
  5
195
330
1F
100
AcDbEntity
  8
LAY-2
  6
CONTINUOUS
 62
     2
100
AcDbLine
 10
202.5
 20
328.0
 30
0.0
 11
200.419525
 21
328.0
 31
0.0
  0
LINE
  5
196
330
1F
100
AcDbEntity
  8
LAY-2
  6
CONTINUOUS
 62
     2
100
AcDbLine
 10
218.0
 20
352.0
 30
0.0
 11
200.419525
 21
352.0
 31
0.0
  0
ARC
  5
197
330
1F
100
AcDbEntity
  8
LAY-2
  6
CONTINUOUS
 62
     2
100
AcDbCircle
 10
235.0
 20
324.522507
 30
0.0
 40
5.0
100
AcDbArc
 50
90.00000000000004
 51
180.0
  0
ARC
  5
198
330
1F
100
AcDbEntity
  8
LAY-2
  6
CONTINUOUS
 62
     2
100
AcDbCircle
 10
218.241667
 20
315.0
 30
0.0
 40
14.008333
100
AcDbArc
 50
334.6392330000002
 51
25.3607669999999
  0
LINE
  5
199
330
1F
100
AcDbEntity
  8
LAY-2
  6
CONTINUOUS
 62
     2
100
AcDbLine
 10
230.9
 20
309.0
 30
0.0
 11
218.0
 21
309.0
 31
0.0
  0
LINE
  5
19A
330
1F
100
AcDbEntity
  8
LAY-2
  6
CONTINUOUS
 62
     2
100
AcDbLine
 10
230.0
 20
321.0
 30
0.0
 11
230.0
 21
324.522507
 31
0.0
  0
LINE
  5
19B
330
1F
100
AcDbEntity
  8
LAY-2
  6
CONTINUOUS
 62
     2
100
AcDbLine
 10
230.9
 20
321.0
 30
0.0
 11
230.0
 21
321.0
 31
0.0
  0
LINE
  5
19C
330
1F
100
AcDbEntity
  8
LAY-2
  6
CONTINUOUS
 62
     2
100
AcDbLine
 10
243.5
 20
329.522507
 30
0.0
 11
235.0
 21
329.522507
 31
0.0
  0
ARC
  5
19D
330
1F
100
AcDbEntity
  8
LAY-2
  6
CONTINUOUS
 62
     2
100
AcDbCircle
 10
237.054703
 20
410.477493
 30
0.0
 40
60.00000000000004
100
AcDbArc
 50
260.8634030000001
 51
270.0000000000002
  0
LINE
  5
19E
330
1F
100
AcDbEntity
  8
LAY-2
  6
CONTINUOUS
 62
     2
100
AcDbLine
 10
243.5
 20
350.477493
 30
0.0
 11
237.054703
 21
350.477493
 31
0.0
  0
LINE
  5
19F
330
1F
100
AcDbEntity
  8
LAY-2
  6
CONTINUOUS
 62
     2
100
AcDbLine
 10
201.0
 20
340.0
 30
0.0
 11
201.0
 21
352.0
 31
0.0
  0
LINE
  5
1A0
330
1F
100
AcDbEntity
  8
LAY-2
  6
CONTINUOUS
 62
     2
100
AcDbLine
 10
218.0
 20
321.0
 30
0.0
 11
230.9
 21
321.0
 31
0.0
  0
LINE
  5
1A1
330
1F
100
AcDbEntity
  8
LAY-2
  6
CONTINUOUS
 62
     2
100
AcDbLine
 10
267.0
 20
330.722473
 30
0.0
 11
267.0
 21
349.277527
 31
0.0
  0
LINE
  5
1A2
330
1F
100
AcDbEntity
  8
LAY-2
  6
CONTINUOUS
 62
     2
100
AcDbLine
 10
265.800034
 20
329.522507
 30
0.0
 11
253.0
 21
329.522507
 31
0.0
  0
LINE
  5
1A3
330
1F
100
AcDbEntity
  8
LAY-2
  6
CONTINUOUS
 62
     2
100
AcDbLine
 10
265.8000029999999
 20
340.0
 30
0.0
 11
265.8000029999999
 21
329.522476
 31
0.0
  0
LINE
  5
1A4
330
1F
100
AcDbEntity
  8
LAY-2
  6
CONTINUOUS
 62
     2
100
AcDbLine
 10
265.800034
 20
329.522507
 30
0.0
 11
267.0
 21
330.722473
 31
0.0
  0
LINE
  5
1A5
330
1F
100
AcDbEntity
  8
LAY-2
  6
CONTINUOUS
 62
     2
100
AcDbLine
 10
265.8000029999999
 20
350.477493
 30
0.0
 11
253.0
 21
350.477493
 31
0.0
  0
LINE
  5
1A6
330
1F
100
AcDbEntity
  8
LAY-2
  6
CONTINUOUS
 62
     2
100
AcDbLine
 10
265.800034
 20
350.477493
 30
0.0
 11
267.0
 21
349.277527
 31
0.0
  0
LINE
  5
1A7
330
1F
100
AcDbEntity
  8
LAY-2
  6
CONTINUOUS
 62
     2
100
AcDbLine
 10
248.500007
 20
362.783212
 30
0.0
 11
248.500007
 21
340.0
 31
0.0
  0
LINE
  5
1A8
330
1F
100
AcDbEntity
  8
LAY-2
  6
CONTINUOUS
 62
     2
100
AcDbLine
 10
253.0
 20
363.75
 30
0.0
 11
253.0
 21
340.0
 31
0.0
  0
ARC
  5
1A9
330
1F
100
AcDbEntity
  8
LAY-2
  6
CONTINUOUS
 62
     2
100
AcDbCircle
 10
332.714027
 20
309.824135
 30
0.0
 40
100.0000000000001
100
AcDbArc
 50
148.0036120000001
 51
152.86557
  0
LINE
  5
1AA
330
1F
100
AcDbEntity
  8
LAY-2
  6
CONTINUOUS
 62
     2
100
AcDbLine
 10
253.0
 20
363.75
 30
0.0
 11
249.6014249999999
 21
363.75
 31
0.0
  0
ARC
  5
1AB
330
1F
100
AcDbEntity
  8
LAY-2
  6
CONTINUOUS
 62
     2
100
AcDbCircle
 10
249.6014249999999
 20
361.75
 30
0.0
 40
2.0
100
AcDbArc
 50
90.00000000000004
 51
148.0042719999993
  0
LINE
  5
1AC
330
1F
100
AcDbEntity
  8
LAY-2
  6
CONTINUOUS
 62
     2
100
AcDbLine
 10
265.8000029999999
 20
340.0
 30
0.0
 11
265.8000029999999
 21
350.477524
 31
0.0
  0
ARC
  5
1AD
330
1F
100
AcDbEntity
  8
LAY-2
  6
CONTINUOUS
 62
     2
100
AcDbCircle
 10
245.5
 20
325.480072
 30
0.0
 40
2.0
100
AcDbArc
 50
180.0
 51
207.1344299999995
  0
LINE
  5
1AE
330
1F
100
AcDbEntity
  8
LAY-2
  6
CONTINUOUS
 62
     2
100
AcDbLine
 10
253.0
 20
316.25
 30
0.0
 11
253.0
 21
340.0
 31
0.0
  0
LINE
  5
1AF
330
1F
100
AcDbEntity
  8
LAY-2
  6
CONTINUOUS
 62
     2
100
AcDbLine
 10
248.500007
 20
317.216787
 30
0.0
 11
248.500007
 21
340.0
 31
0.0
  0
ARC
  5
1B0
330
1F
100
AcDbEntity
  8
LAY-2
  6
CONTINUOUS
 62
     2
100
AcDbCircle
 10
249.6014249999999
 20
318.25
 30
0.0
 40
2.0
100
AcDbArc
 50
211.9957279999989
 51
270.0000000000002
  0
ARC
  5
1B1
330
1F
100
AcDbEntity
  8
LAY-2
  6
CONTINUOUS
 62
     2
100
AcDbCircle
 10
332.714027
 20
370.175865
 30
0.0
 40
100.0000000000001
100
AcDbArc
 50
207.13443
 51
211.996388
  0
LINE
  5
1B2
330
1F
100
AcDbEntity
  8
LAY-2
  6
CONTINUOUS
 62
     2
100
AcDbLine
 10
253.0
 20
316.25
 30
0.0
 11
249.6014249999999
 21
316.25
 31
0.0
  0
LINE
  5
1B3
330
1F
100
AcDbEntity
  8
LAY-2
  6
CONTINUOUS
 62
     2
100
AcDbLine
 10
243.5
 20
325.480072
 30
0.0
 11
243.5
 21
340.0
 31
0.0
  0
LINE
  5
1B4
330
1F
100
AcDbEntity
  8
LAY-2
  6
CONTINUOUS
 62
     2
100
AcDbLine
 10
242.0
 20
350.477493
 30
0.0
 11
242.0
 21
340.0
 31
0.0
  0
LINE
  5
1B5
330
1F
100
AcDbEntity
  8
LAY-2
  6
CONTINUOUS
 62
     2
100
AcDbLine
 10
242.0
 20
329.522507
 30
0.0
 11
242.0
 21
340.0
 31
0.0
  0
LINE
  5
1B6
330
1F
100
AcDbEntity
  8
LAY-2
  6
CONTINUOUS
 62
     2
100
AcDbLine
 10
243.5
 20
354.519928
 30
0.0
 11
243.5
 21
340.0
 31
0.0
  0
ARC
  5
1B7
330
1F
100
AcDbEntity
  8
LAY-2
  6
CONTINUOUS
 62
     2
100
AcDbCircle
 10
245.5
 20
354.519928
 30
0.0
 40
2.0
100
AcDbArc
 50
152.8655700000005
 51
180.0
  0
LINE
  5
1B8
330
1F
100
AcDbEntity
  8
LAY-2
  6
CONTINUOUS
 62
     6
100
AcDbLine
 10
239.987411
 20
329.522507
 30
0.0
 11
242.0
 21
330.684479
 31
0.0
  0
LINE
  5
1B9
330
1F
100
AcDbEntity
  8
LAY-2
  6
CONTINUOUS
 62
     6
100
AcDbLine
 10
243.5
 20
330.68448
 30
0.0
 11
242.0
 21
330.684479
 31
0.0
  0
LINE
  5
1BA
330
1F
100
AcDbEntity
  8
LAY-2
  6
CONTINUOUS
 62
     6
100
AcDbLine
 10
239.987396
 20
350.477493
 30
0.0
 11
242.0
 21
349.315521
 31
0.0
  0
LINE
  5
1BB
330
1F
100
AcDbEntity
  8
LAY-2
  6
CONTINUOUS
 62
     6
100
AcDbLine
 10
243.5
 20
349.315506
 30
0.0
 11
242.000046
 21
349.315506
 31
0.0
  0
LINE
  5
1BC
330
1F
100
AcDbEntity
  8
LAY-2
  6
CONTINUOUS
 62
     6
100
AcDbLine
 10
266.962036
 20
349.315506
 30
0.0
 11
253.0
 21
349.315506
 31
0.0
  0
LINE
  5
1BD
330
1F
100
AcDbEntity
  8
LAY-2
  6
CONTINUOUS
 62
     6
100
AcDbLine
 10
266.962021
 20
330.684494
 30
0.0
 11
253.0
 21
330.684485
 31
0.0
  0
LINE
  5
1BE
330
1F
100
AcDbEntity
  8
LAY-2
  6
CONTINUOUS
 62
     6
100
AcDbLine
 10
207.01593
 20
321.0
 30
0.0
 11
206.0
 21
322.759644
 31
0.0
  0
LINE
  5
1BF
330
1F
100
AcDbEntity
  8
LAY-2
  6
CONTINUOUS
 62
     6
100
AcDbLine
 10
228.98407
 20
321.0
 30
0.0
 11
230.0
 21
322.759644
 31
0.0
  0
ELLIPSE
  5
1C0
330
1F
100
AcDbEntity
  8
LAY-2
  6
CONTINUOUS
 62
     6
100
AcDbEllipse
 10
206.74167
 20
315.0
 30
0.0
 11
3.541873188308310E-16
 21
5.784317879692822
 31
0.0
210
0.0
220
0.0
230
1.0
 40
0.5044940000000002
 41
0.0
 42
6.283185307179586
  0
ELLIPSE
  5
1C1
330
1F
100
AcDbEntity
  8
LAY-2
  6
CONTINUOUS
 62
     6
100
AcDbEllipse
 10
218.0
 20
315.0
 30
0.0
 11
-5.83630876496439
 21
7.147416847849283E-16
 31
0.0
210
0.0
220
0.0
230
1.0
 40
0.9910919999999994
 41
0.0
 42
6.283185307179586
  0
ELLIPSE
  5
1C2
330
1F
100
AcDbEntity
  8
LAY-2
  6
CONTINUOUS
 62
     6
100
AcDbEllipse
 10
229.25833
 20
315.0
 30
0.0
 11
3.541873188308310E-16
 21
5.784317879692822
 31
0.0
210
0.0
220
0.0
230
1.0
 40
0.5044940000000002
 41
0.0
 42
6.283185307179586
  0
LINE
  5
1C3
330
1F
100
AcDbEntity
  8
LAY-2
  6
CONTINUOUS
 62
     6
100
AcDbLine
 10
201.000061
 20
351.199997
 30
0.0
 11
202.385696
 21
352.0
 31
0.0
  0
LINE
  5
1C4
330
1F
100
AcDbEntity
  8
LAY-2
  6
CONTINUOUS
 62
     6
100
AcDbLine
 10
200.419525
 20
351.199997
 30
0.0
 11
201.0
 21
351.199997
 31
0.0
  0
LINE
  5
1C5
330
1F
100
AcDbEntity
  8
LAY-2
  6
CONTINUOUS
 62
     6
100
AcDbLine
 10
200.419525
 20
328.800003
 30
0.0
 11
201.0
 21
328.800003
 31
0.0
  0
LINE
  5
1C6
330
1F
100
AcDbEntity
  8
LAY-2
  6
CONTINUOUS
 62
     6
100
AcDbLine
 10
201.000061
 20
328.800003
 30
0.0
 11
202.385696
 21
328.0
 31
0.0
  0
LINE
  5
1C7
330
1F
100
AcDbEntity
  8
LAY-2
  6
CONTINUOUS
 62
     2
100
AcDbLine
 10
186.419533
 20
340.0
 30
0.0
 11
186.419533
 21
334.5
 31
0.0
  0
LINE
  5
1C8
330
1F
100
AcDbEntity
  8
LAY-2
  6
CONTINUOUS
 62
     2
100
AcDbLine
 10
186.419533
 20
334.5
 30
0.0
 11
191.919533
 21
327.3
 31
0.0
  0
LINE
  5
1C9
330
1F
100
AcDbEntity
  8
LAY-2
  6
CONTINUOUS
 62
     2
100
AcDbLine
 10
186.419533
 20
340.0
 30
0.0
 11
186.419533
 21
345.5
 31
0.0
  0
LINE
  5
1CA
330
1F
100
AcDbEntity
  8
LAY-2
  6
CONTINUOUS
 62
     2
100
AcDbLine
 10
186.419533
 20
345.5
 30
0.0
 11
191.919533
 21
352.7
 31
0.0
  0
LINE
  5
1CB
330
1F
100
AcDbEntity
  8
LAY-2
  6
EXLTYPE3
 62
     1
100
AcDbLine
 10
164.869008
 20
340.0
 30
0.0
 11
268.156009
 21
340.0
 31
0.0
  0
LINE
  5
1CC
330
1F
100
AcDbEntity
  8
LAY-2
  6
CONTINUOUS
 62
     2
100
AcDbLine
 10
200.419525
 20
327.1
 30
0.0
 11
200.419525
 21
340.0
 31
0.0
  0
LINE
  5
1CD
330
1F
100
AcDbEntity
  8
LAY-2
  6
CONTINUOUS
 62
     2
100
AcDbLine
 10
191.919533
 20
340.0
 30
0.0
 11
191.919533
 21
327.3
 31
0.0
  0
ARC
  5
1CE
330
1F
100
AcDbEntity
  8
LAY-2
  6
CONTINUOUS
 62
     2
100
AcDbCircle
 10
196.300346
 20
332.759714
 30
0.0
 40
7.000000000000004
100
AcDbArc
 50
231.2568340000007
 51
306.0473890000005
  0
LINE
  5
1CF
330
1F
100
AcDbEntity
  8
LAY-2
  6
CONTINUOUS
 62
     2
100
AcDbLine
 10
191.919533
 20
340.0
 30
0.0
 11
191.919533
 21
352.7
 31
0.0
  0
ARC
  5
1D0
330
1F
100
AcDbEntity
  8
LAY-2
  6
CONTINUOUS
 62
     2
100
AcDbCircle
 10
196.300346
 20
347.240286
 30
0.0
 40
7.000000000000004
100
AcDbArc
 50
53.9526109999997
 51
128.7431659999997
  0
LINE
  5
1D1
330
1F
100
AcDbEntity
  8
LAY-2
  6
CONTINUOUS
 62
     2
100
AcDbLine
 10
200.419525
 20
352.9
 30
0.0
 11
200.419525
 21
340.0
 31
0.0
  0
ELLIPSE
  5
1D2
330
1F
100
AcDbEntity
  8
LAY-2
  6
CONTINUOUS
 62
     6
100
AcDbEllipse
 10
196.300346
 20
351.290234
 30
0.0
 11
3.978155252641092
 21
0.0
 31
0.0
210
0.0
220
0.0
230
1.0
 40
0.741563
 41
0.0
 42
6.283185307179586
  0
ELLIPSE
  5
1D3
330
1F
100
AcDbEntity
  8
LAY-2
  6
CONTINUOUS
 62
     6
100
AcDbEllipse
 10
196.300346
 20
340.0
 30
0.0
 11
3.573711555173488E-16
 21
5.836313878681828
 31
0.0
210
0.0
220
0.0
230
1.0
 40
0.6816210000000001
 41
0.0
 42
6.283185307179586
  0
ELLIPSE
  5
1D4
330
1F
100
AcDbEntity
  8
LAY-2
  6
CONTINUOUS
 62
     6
100
AcDbEllipse
 10
196.300346
 20
328.709766
 30
0.0
 11
3.978155252641092
 21
0.0
 31
0.0
210
0.0
220
0.0
230
1.0
 40
0.741563
 41
0.0
 42
6.283185307179586
  0
ARC
  5
1D5
330
1F
100
AcDbEntity
  8
LAY-2
  6
CONTINUOUS
 62
     2
100
AcDbCircle
 10
349.424731
 20
334.4199819999999
 30
0.0
 40
180.0
100
AcDbArc
 50
170.0153740000002
 51
175.513608
  0
ARC
  5
1D6
330
1F
100
AcDbEntity
  8
LAY-2
  6
CONTINUOUS
 62
     2
100
AcDbCircle
 10
178.060081
 20
364.588785
 30
0.0
 40
6.000000000000004
100
AcDbArc
 50
97.1250159999999
 51
170.0153740000006
  0
LINE
  5
1D7
330
1F
100
AcDbEntity
  8
LAY-2
  6
CONTINUOUS
 62
     2
100
AcDbLine
 10
180.639052
 20
370.957849
 30
0.0
 11
177.315873
 21
370.542452
 31
0.0
  0
ARC
  5
1D8
330
1F
100
AcDbEntity
  8
LAY-2
  6
CONTINUOUS
 62
     2
100
AcDbCircle
 10
180.676262
 20
370.660166
 30
0.0
 40
0.3
100
AcDbArc
 50
0.0
 51
97.12501599998987
  0
ARC
  5
1D9
330
1F
100
AcDbEntity
  8
LAY-2
  6
CONTINUOUS
 62
     2
100
AcDbCircle
 10
175.976262
 20
331.379288
 30
0.0
 40
6.000000000000004
100
AcDbArc
 50
180.0
 51
264.8055709999998
  0
ARC
  5
1DA
330
1F
100
AcDbEntity
  8
LAY-2
  6
CONTINUOUS
 62
     2
100
AcDbCircle
 10
191.476262
 20
340.0000000000001
 30
0.0
 40
25.00000000000002
100
AcDbArc
 50
163.7397949999999
 51
196.260205
  0
LINE
  5
1DB
330
1F
100
AcDbEntity
  8
LAY-2
  6
CONTINUOUS
 62
     2
100
AcDbLine
 10
167.476262
 20
347.0
 30
0.0
 11
167.476262
 21
340.0
 31
0.0
  0
LINE
  5
1DC
330
1F
100
AcDbEntity
  8
LAY-2
  6
CONTINUOUS
 62
     2
100
AcDbLine
 10
169.976262
 20
347.0
 30
0.0
 11
167.476262
 21
347.0
 31
0.0
  0
LINE
  5
1DD
330
1F
100
AcDbEntity
  8
LAY-2
  6
CONTINUOUS
 62
     2
100
AcDbLine
 10
169.976262
 20
333.0
 30
0.0
 11
167.476262
 21
333.0
 31
0.0
  0
LINE
  5
1DE
330
1F
100
AcDbEntity
  8
LAY-2
  6
CONTINUOUS
 62
     2
100
AcDbLine
 10
175.433048
 20
325.4039290000001
 30
0.0
 11
180.649102
 21
324.929742
 31
0.0
  0
ARC
  5
1DF
330
1F
100
AcDbEntity
  8
LAY-2
  6
CONTINUOUS
 62
     2
100
AcDbCircle
 10
180.676262
 20
325.22851
 30
0.0
 40
0.3
100
AcDbArc
 50
264.8055710000099
 51
0.0
  0
LINE
  5
1E0
330
1F
100
AcDbEntity
  8
LAY-2
  6
CONTINUOUS
 62
     2
100
AcDbLine
 10
167.476262
 20
333.0
 30
0.0
 11
167.476262
 21
340.0
 31
0.0
  0
LINE
  5
1E1
330
1F
100
AcDbEntity
  8
LAY-2
  6
CONTINUOUS
 62
     2
100
AcDbLine
 10
169.976262
 20
348.5000023677426
 30
0.0
 11
169.976262
 21
331.379288
 31
0.0
  0
LINE
  5
1E2
330
1F
100
AcDbEntity
  8
LAY-2
  6
CONTINUOUS
 62
     2
100
AcDbLine
 10
180.976262
 20
370.660166
 30
0.0
 11
180.976262
 21
325.22851
 31
0.0
  0
LINE
  5
1E3
330
1F
100
AcDbEntity
  8
LAY-2
  6
CONTINUOUS
 62
     6
100
AcDbLine
 10
169.976262
 20
343.709435
 30
0.0
 11
167.476262
 21
343.709435
 31
0.0
  0
LINE
  5
1E4
330
1F
100
AcDbEntity
  8
LAY-2
  6
CONTINUOUS
 62
     6
100
AcDbLine
 10
169.976262
 20
344.499512
 30
0.0
 11
167.476262
 21
344.499512
 31
0.0
  0
LINE
  5
1E5
330
1F
100
AcDbEntity
  8
LAY-2
  6
CONTINUOUS
 62
     6
100
AcDbLine
 10
169.976262
 20
342.847157
 30
0.0
 11
167.476262
 21
342.847157
 31
0.0
  0
LINE
  5
1E6
330
1F
100
AcDbEntity
  8
LAY-2
  6
CONTINUOUS
 62
     6
100
AcDbLine
 10
169.976262
 20
346.893654
 30
0.0
 11
167.476262
 21
346.893654
 31
0.0
  0
LINE
  5
1E7
330
1F
100
AcDbEntity
  8
LAY-2
  6
CONTINUOUS
 62
     6
100
AcDbLine
 10
169.976262
 20
346.657398
 30
0.0
 11
167.476262
 21
346.657398
 31
0.0
  0
LINE
  5
1E8
330
1F
100
AcDbEntity
  8
LAY-2
  6
CONTINUOUS
 62
     6
100
AcDbLine
 10
169.976262
 20
345.202015
 30
0.0
 11
167.476262
 21
345.202015
 31
0.0
  0
LINE
  5
1E9
330
1F
100
AcDbEntity
  8
LAY-2
  6
CONTINUOUS
 62
     6
100
AcDbLine
 10
169.976262
 20
345.803265
 30
0.0
 11
167.476262
 21
345.803265
 31
0.0
  0
LINE
  5
1EA
330
1F
100
AcDbEntity
  8
LAY-2
  6
CONTINUOUS
 62
     6
100
AcDbLine
 10
169.976262
 20
346.291558
 30
0.0
 11
167.476262
 21
346.291558
 31
0.0
  0
LINE
  5
1EB
330
1F
100
AcDbEntity
  8
LAY-2
  6
CONTINUOUS
 62
     6
100
AcDbLine
 10
169.976262
 20
341.929463
 30
0.0
 11
167.476262
 21
341.929463
 31
0.0
  0
LINE
  5
1EC
330
1F
100
AcDbEntity
  8
LAY-2
  6
CONTINUOUS
 62
     6
100
AcDbLine
 10
169.976262
 20
340.974213
 30
0.0
 11
167.476262
 21
340.974213
 31
0.0
  0
LINE
  5
1ED
330
1F
100
AcDbEntity
  8
LAY-2
  6
CONTINUOUS
 62
     6
100
AcDbLine
 10
169.976262
 20
337.152844
 30
0.0
 11
167.476262
 21
337.152844
 31
0.0
  0
LINE
  5
1EE
330
1F
100
AcDbEntity
  8
LAY-2
  6
CONTINUOUS
 62
     6
100
AcDbLine
 10
169.976262
 20
336.290566
 30
0.0
 11
167.476262
 21
336.290566
 31
0.0
  0
LINE
  5
1EF
330
1F
100
AcDbEntity
  8
LAY-2
  6
CONTINUOUS
 62
     6
100
AcDbLine
 10
169.976262
 20
339.025788
 30
0.0
 11
167.476262
 21
339.025788
 31
0.0
  0
LINE
  5
1F0
330
1F
100
AcDbEntity
  8
LAY-2
  6
CONTINUOUS
 62
     6
100
AcDbLine
 10
169.976262
 20
338.070538
 30
0.0
 11
167.476262
 21
338.070538
 31
0.0
  0
LINE
  5
1F1
330
1F
100
AcDbEntity
  8
LAY-2
  6
CONTINUOUS
 62
     6
100
AcDbLine
 10
169.976262
 20
333.342602
 30
0.0
 11
167.476262
 21
333.342602
 31
0.0
  0
LINE
  5
1F2
330
1F
100
AcDbEntity
  8
LAY-2
  6
CONTINUOUS
 62
     6
100
AcDbLine
 10
169.976262
 20
333.106346
 30
0.0
 11
167.476262
 21
333.106346
 31
0.0
  0
LINE
  5
1F3
330
1F
100
AcDbEntity
  8
LAY-2
  6
CONTINUOUS
 62
     6
100
AcDbLine
 10
169.976262
 20
334.196736
 30
0.0
 11
167.476262
 21
334.196736
 31
0.0
  0
LINE
  5
1F4
330
1F
100
AcDbEntity
  8
LAY-2
  6
CONTINUOUS
 62
     6
100
AcDbLine
 10
169.976262
 20
334.797985
 30
0.0
 11
167.476262
 21
334.797985
 31
0.0
  0
LINE
  5
1F5
330
1F
100
AcDbEntity
  8
LAY-2
  6
CONTINUOUS
 62
     6
100
AcDbLine
 10
169.976262
 20
335.500489
 30
0.0
 11
167.476262
 21
335.500489
 31
0.0
  0
LINE
  5
1F6
330
1F
100
AcDbEntity
  8
LAY-2
  6
CONTINUOUS
 62
     6
100
AcDbLine
 10
169.976262
 20
333.708443
 30
0.0
 11
167.476262
 21
333.708443
 31
0.0
  0
LINE
  5
1F7
330
1F
100
AcDbEntity
  8
LAY-2
  6
CONTINUOUS
 62
     6
100
AcDbLine
 10
169.976262
 20
340.056519
 30
0.0
 11
167.476262
 21
340.056519
 31
0.0
  0
LINE
  5
1F8
330
1F
100
AcDbEntity
  8
LAY-2
  6
CONTINUOUS
 62
     2
100
AcDbLine
 10
167.088765
 20
345.4999990977265
 30
0.0
 11
167.088765
 21
334.496728
 31
0.0
  0
LEADER
  5
1F9
330
1F
100
AcDbEntity
  8
LAY-2
  6
CONTINUOUS
 62
     6
100
AcDbLeader
  3
ISO-25
 76
     2
 10
207.05041662359
 20
352.0
 30
0.0
 10
207.05041662359
 20
384.56839632462
 30
0.0
1001
ACAD
1000
DSTYLE
1002
{
1070
     5
1000
EX_NORM
1070
    41
1040
7.0
1070
   341
1005
4A
1002
}
  0
LEADER
  5
1FA
330
1F
100
AcDbEntity
  8
LAY-2
  6
CONTINUOUS
 62
     6
100
AcDbLeader
  3
ISO-25
 76
     2
 10
183.05041662359
 20
335.25
 30
0.0
 10
183.05041662359
 20
314.6
 30
0.0
1001
ACAD
1000
DSTYLE
1002
{
1070
     5
1000
EX_NORM
1070
    41
1040
7.0
1070
   341
1005
4A
1002
}
  0
LEADER
  5
1FB
330
1F
100
AcDbEntity
  8
LAY-2
  6
CONTINUOUS
 62
     6
100
AcDbLeader
  3
ISO-25
 76
     2
 10
168.8
 20
347.0
 30
0.0
 10
162.3456416308557
 20
361.2785751915989
 30
0.0
1001
ACAD
1000
DSTYLE
1002
{
1070
     5
1000
EX_NORM
1070
    41
1040
7.0
1070
   341
1005
4A
1002
}
  0
LEADER
  5
1FC
330
1F
100
AcDbEntity
  8
LAY-2
  6
CONTINUOUS
 62
     6
100
AcDbLeader
  3
ISO-25
 76
     2
 10
174.84570233098
 20
369.65512191854
 30
0.0
 10
163.5909218922959
 20
385.9817574317613
 30
0.0
1001
ACAD
1000
DSTYLE
1002
{
1070
     5
1000
EX_NORM
1070
    41
1040
7.0
1070
   341
1005
4A
1002
}
  0
LEADER
  5
1FD
330
1F
100
AcDbEntity
  8
LAY-2
  6
CONTINUOUS
 62
     6
100
AcDbLeader
  3
ISO-25
 76
     2
 10
196.294502321266
 20
354.24028356082
 30
0.0
 10
185.663189314892
 20
385.0070856668393
 30
0.0
1001
ACAD
1000
DSTYLE
1002
{
1070
     5
1000
EX_NORM
1070
    41
1040
7.0
1070
   341
1005
4A
1002
}
  0
LEADER
  5
1FE
330
1F
100
AcDbEntity
  8
LAY-2
  6
CONTINUOUS
 62
     6
100
AcDbLeader
  3
ISO-25
 76
     2
 10
227.7
 20
309.0
 30
0.0
 10
235.7319733514097
 20
296.2663837111798
 30
0.0
1001
ACAD
1000
DSTYLE
1002
{
1070
     5
1000
EX_NORM
1070
    41
1040
7.0
1070
   341
1005
4A
1002
}
  0
POLYLINE
  5
1FF
330
1F
100
AcDbEntity
  8
LAY-2
  6
CONTINUOUS
 62
     6
100
AcDb2dPolyline
 66
     1
 10
0.0
 20
0.0
 30
0.0
 70
   128
  0
VERTEX
  5
200
330
1FF
100
AcDbEntity
  8
LAY-2
  6
CONTINUOUS
 62
     6
100
AcDbVertex
100
AcDb2dVertex
 10
251.7
 20
316.25
 30
0.0
  0
VERTEX
  5
201
330
1FF
100
AcDbEntity
  8
LAY-2
  6
CONTINUOUS
 62
     6
100
AcDbVertex
100
AcDb2dVertex
 10
263.5203577645813
 20
312.2591060124738
 30
0.0
  0
SEQEND
  5
202
330
1FF
100
AcDbEntity
  8
LAY-2
  6
CONTINUOUS
 62
     6
  0
LINE
  5
203
330
1F
100
AcDbEntity
  8
LAY-2
  6
CONTINUOUS
 62
     6
100
AcDbLine
 10
258.7053899161426
 20
315.1161467317508
 30
0.0
 11
251.7
 21
316.25
 31
0.0
  0
LINE
  5
204
330
1F
100
AcDbEntity
  8
LAY-2
  6
CONTINUOUS
 62
     6
100
AcDbLine
 10
251.7
 20
316.25
 30
0.0
 11
257.9589839958378
 21
312.9054177464208
 31
0.0
  0
LINE
  5
205
330
1F
100
AcDbEntity
  8
LAY-2
  6
EXLTYPE3
 62
     1
100
AcDbLine
 10
218.0
 20
354.632287
 30
0.0
 11
218.0
 21
301.8
 31
0.0
  0
LINE
  5
206
330
1F
100
AcDbEntity
  8
LAY-2
  6
EXLTYPE2
 62
     6
100
AcDbLine
 10
40.0
 20
296.0
 30
0.0
 11
-0.7999999999999972
 21
296.0
 31
0.0
  0
LINE
  5
207
330
1F
100
AcDbEntity
  8
LAY-2
  6
CONTINUOUS
 62
     2
100
AcDbLine
 10
210.06
 20
308.9999975773
 30
0.0
 11
210.06
 21
276.8
 31
0.0
  0
LINE
  5
208
330
1F
100
AcDbEntity
  8
LAY-2
  6
CONTINUOUS
 62
     2
100
AcDbLine
 10
225.94
 20
308.9999975773
 30
0.0
 11
225.94
 21
276.8
 31
0.0
  0
ARC
  5
209
330
1F
100
AcDbEntity
  8
LAY-2
  6
CONTINUOUS
 62
     2
100
AcDbCircle
 10
193.0
 20
276.8
 30
0.0
 40
17.06
100
AcDbArc
 50
326.0969387309173
 51
0.0000000000001146
  0
ARC
  5
20A
330
1F
100
AcDbEntity
  8
LAY-2
  6
CONTINUOUS
 62
     2
100
AcDbCircle
 10
193.0
 20
276.8
 30
0.0
 40
32.94
100
AcDbArc
 50
326.0969387309173
 51
0.0000000000000573
  0
LINE
  5
20B
330
1F
100
AcDbEntity
  8
LAY-2
  6
CONTINUOUS
 62
     2
100
AcDbLine
 10
220.3396230236804
 20
258.4264153491203
 30
0.0
 11
208.8404988225869
 21
241.3158881039468
 31
0.0
  0
LINE
  5
20C
330
1F
100
AcDbEntity
  8
LAY-2
  6
CONTINUOUS
 62
     2
100
AcDbLine
 10
207.1595011774131
 20
267.2841118960532
 30
0.0
 11
195.6603769763196
 21
250.1735846508797
 31
0.0
  0
ARC
  5
20D
330
1F
100
AcDbEntity
  8
LAY-2
  6
CONTINUOUS
 62
     2
100
AcDbCircle
 10
223.0
 20
231.8
 30
0.0
 40
32.94
100
AcDbArc
 50
146.0969387309173
 51
179.9999999999997
  0
ARC
  5
20E
330
1F
100
AcDbEntity
  8
LAY-2
  6
CONTINUOUS
 62
     2
100
AcDbCircle
 10
223.0
 20
231.8
 30
0.0
 40
17.06
100
AcDbArc
 50
146.0969387309173
 51
179.9999999999997
  0
LINE
  5
20F
330
1F
100
AcDbEntity
  8
LAY-2
  6
CONTINUOUS
 62
     2
100
AcDbLine
 10
190.06
 20
231.8
 30
0.0
 11
190.06
 21
196.5
 31
0.0
  0
POLYLINE
  5
210
330
1F
100
AcDbEntity
  8
LAY-2
  6
CONTINUOUS
 62
     6
100
AcDb2dPolyline
 66
     1
 10
0.0
 20
0.0
 30
0.0
 70
   128
  0
VERTEX
  5
211
330
210
100
AcDbEntity
  8
LAY-2
  6
CONTINUOUS
 62
     6
100
AcDbVertex
100
AcDb2dVertex
 10
190.06
 20
224.2
 30
0.0
  0
VERTEX
  5
212
330
210
100
AcDbEntity
  8
LAY-2
  6
CONTINUOUS
 62
     6
100
AcDbVertex
100
AcDb2dVertex
 10
190.1337920111629
 20
224.2391967531864
 30
0.0
  0
VERTEX
  5
213
330
210
100
AcDbEntity
  8
LAY-2
  6
CONTINUOUS
 62
     6
100
AcDbVertex
100
AcDb2dVertex
 10
190.3426429757237
 20
224.3467281461819
 30
0.0
  0
VERTEX
  5
214
330
210
100
AcDbEntity
  8
LAY-2
  6
CONTINUOUS
 62
     6
100
AcDbVertex
100
AcDb2dVertex
 10
190.6677652902904
 20
224.5075058791408
 30
0.0
  0
VERTEX
  5
215
330
210
100
AcDbEntity
  8
LAY-2
  6
CONTINUOUS
 62
     6
100
AcDbVertex
100
AcDb2dVertex
 10
191.090371351471
 20
224.7064416522171
 30
0.0
  0
VERTEX
  5
216
330
210
100
AcDbEntity
  8
LAY-2
  6
CONTINUOUS
 62
     6
100
AcDbVertex
100
AcDb2dVertex
 10
191.5916735558736
 20
224.9284471655653
 30
0.0
  0
VERTEX
  5
217
330
210
100
AcDbEntity
  8
LAY-2
  6
CONTINUOUS
 62
     6
100
AcDbVertex
100
AcDb2dVertex
 10
192.1528843001062
 20
225.1584341193395
 30
0.0
  0
VERTEX
  5
218
330
210
100
AcDbEntity
  8
LAY-2
  6
CONTINUOUS
 62
     6
100
AcDbVertex
100
AcDb2dVertex
 10
192.7552159807768
 20
225.3813142136941
 30
0.0
  0
VERTEX
  5
219
330
210
100
AcDbEntity
  8
LAY-2
  6
CONTINUOUS
 62
     6
100
AcDbVertex
100
AcDb2dVertex
 10
193.3798809944934
 20
225.5819991487831
 30
0.0
  0
VERTEX
  5
21A
330
210
100
AcDbEntity
  8
LAY-2
  6
CONTINUOUS
 62
     6
100
AcDbVertex
100
AcDb2dVertex
 10
194.0080917378642
 20
225.7454006247609
 30
0.0
  0
VERTEX
  5
21B
330
210
100
AcDbEntity
  8
LAY-2
  6
CONTINUOUS
 62
     6
100
AcDbVertex
100
AcDb2dVertex
 10
194.621060607497
 20
225.8564303417818
 30
0.0
  0
VERTEX
  5
21C
330
210
100
AcDbEntity
  8
LAY-2
  6
CONTINUOUS
 62
     6
100
AcDbVertex
100
AcDb2dVertex
 10
195.2
 20
225.9
 30
0.0
  0
VERTEX
  5
21D
330
210
100
AcDbEntity
  8
LAY-2
  6
CONTINUOUS
 62
     6
100
AcDbVertex
100
AcDb2dVertex
 10
195.8145690196175
 20
225.8526200274414
 30
0.0
  0
VERTEX
  5
21E
330
210
100
AcDbEntity
  8
LAY-2
  6
CONTINUOUS
 62
     6
100
AcDbVertex
100
AcDb2dVertex
 10
196.3708606837945
 20
225.711984952321
 30
0.0
  0
VERTEX
  5
21F
330
210
100
AcDbEntity
  8
LAY-2
  6
CONTINUOUS
 62
     6
100
AcDbVertex
100
AcDb2dVertex
 10
196.8824810248549
 20
225.4971869585118
 30
0.0
  0
VERTEX
  5
220
330
210
100
AcDbEntity
  8
LAY-2
  6
CONTINUOUS
 62
     6
100
AcDbVertex
100
AcDb2dVertex
 10
197.3630360751225
 20
225.2273182298869
 30
0.0
  0
VERTEX
  5
221
330
210
100
AcDbEntity
  8
LAY-2
  6
CONTINUOUS
 62
     6
100
AcDbVertex
100
AcDb2dVertex
 10
197.8261318669212
 20
224.9214709503191
 30
0.0
  0
VERTEX
  5
222
330
210
100
AcDbEntity
  8
LAY-2
  6
CONTINUOUS
 62
     6
100
AcDbVertex
100
AcDb2dVertex
 10
198.2853744325748
 20
224.5987373036815
 30
0.0
  0
VERTEX
  5
223
330
210
100
AcDbEntity
  8
LAY-2
  6
CONTINUOUS
 62
     6
100
AcDbVertex
100
AcDb2dVertex
 10
198.7543698044071
 20
224.278209473847
 30
0.0
  0
VERTEX
  5
224
330
210
100
AcDbEntity
  8
LAY-2
  6
CONTINUOUS
 62
     6
100
AcDbVertex
100
AcDb2dVertex
 10
199.2467240147419
 20
223.9789796446886
 30
0.0
  0
VERTEX
  5
225
330
210
100
AcDbEntity
  8
LAY-2
  6
CONTINUOUS
 62
     6
100
AcDbVertex
100
AcDb2dVertex
 10
199.7760430959031
 20
223.7201400000793
 30
0.0
  0
VERTEX
  5
226
330
210
100
AcDbEntity
  8
LAY-2
  6
CONTINUOUS
 62
     6
100
AcDbVertex
100
AcDb2dVertex
 10
200.3559330802146
 20
223.5207827238921
 30
0.0
  0
VERTEX
  5
227
330
210
100
AcDbEntity
  8
LAY-2
  6
CONTINUOUS
 62
     6
100
AcDbVertex
100
AcDb2dVertex
 10
201.0
 20
223.4
 30
0.0
  0
VERTEX
  5
228
330
210
100
AcDbEntity
  8
LAY-2
  6
CONTINUOUS
 62
     6
100
AcDbVertex
100
AcDb2dVertex
 10
201.5607955473469
 20
223.369434046774
 30
0.0
  0
VERTEX
  5
229
330
210
100
AcDbEntity
  8
LAY-2
  6
CONTINUOUS
 62
     6
100
AcDbVertex
100
AcDb2dVertex
 10
202.1526309354624
 20
223.3900203458565
 30
0.0
  0
VERTEX
  5
22A
330
210
100
AcDbEntity
  8
LAY-2
  6
CONTINUOUS
 62
     6
100
AcDbVertex
100
AcDb2dVertex
 10
202.757712574873
 20
223.4515943615416
 30
0.0
  0
VERTEX
  5
22B
330
210
100
AcDbEntity
  8
LAY-2
  6
CONTINUOUS
 62
     6
100
AcDbVertex
100
AcDb2dVertex
 10
203.3582468761057
 20
223.5439915581233
 30
0.0
  0
VERTEX
  5
22C
330
210
100
AcDbEntity
  8
LAY-2
  6
CONTINUOUS
 62
     6
100
AcDbVertex
100
AcDb2dVertex
 10
203.9364402496873
 20
223.6570473998956
 30
0.0
  0
VERTEX
  5
22D
330
210
100
AcDbEntity
  8
LAY-2
  6
CONTINUOUS
 62
     6
100
AcDbVertex
100
AcDb2dVertex
 10
204.4744991061443
 20
223.7805973511527
 30
0.0
  0
VERTEX
  5
22E
330
210
100
AcDbEntity
  8
LAY-2
  6
CONTINUOUS
 62
     6
100
AcDbVertex
100
AcDb2dVertex
 10
204.9546298560037
 20
223.9044768761885
 30
0.0
  0
VERTEX
  5
22F
330
210
100
AcDbEntity
  8
LAY-2
  6
CONTINUOUS
 62
     6
100
AcDbVertex
100
AcDb2dVertex
 10
205.3590389097923
 20
224.0185214392971
 30
0.0
  0
VERTEX
  5
230
330
210
100
AcDbEntity
  8
LAY-2
  6
CONTINUOUS
 62
     6
100
AcDbVertex
100
AcDb2dVertex
 10
205.6699326780366
 20
224.1125665047725
 30
0.0
  0
VERTEX
  5
231
330
210
100
AcDbEntity
  8
LAY-2
  6
CONTINUOUS
 62
     6
100
AcDbVertex
100
AcDb2dVertex
 10
205.8695175712636
 20
224.1764475369088
 30
0.0
  0
VERTEX
  5
232
330
210
100
AcDbEntity
  8
LAY-2
  6
CONTINUOUS
 62
     6
100
AcDbVertex
100
AcDb2dVertex
 10
205.94
 20
224.2
 30
0.0
  0
SEQEND
  5
233
330
210
100
AcDbEntity
  8
LAY-2
  6
CONTINUOUS
 62
     6
  0
POLYLINE
  5
234
330
1F
100
AcDbEntity
  8
LAY-2
  6
CONTINUOUS
 62
     6
100
AcDb2dPolyline
 66
     1
 10
0.0
 20
0.0
 30
0.0
 70
   128
  0
VERTEX
  5
235
330
234
100
AcDbEntity
  8
LAY-2
  6
CONTINUOUS
 62
     6
100
AcDbVertex
100
AcDb2dVertex
 10
190.06
 20
223.2
 30
0.0
  0
VERTEX
  5
236
330
234
100
AcDbEntity
  8
LAY-2
  6
CONTINUOUS
 62
     6
100
AcDbVertex
100
AcDb2dVertex
 10
190.1337920111629
 20
223.2391967531864
 30
0.0
  0
VERTEX
  5
237
330
234
100
AcDbEntity
  8
LAY-2
  6
CONTINUOUS
 62
     6
100
AcDbVertex
100
AcDb2dVertex
 10
190.3426429757237
 20
223.3467281461819
 30
0.0
  0
VERTEX
  5
238
330
234
100
AcDbEntity
  8
LAY-2
  6
CONTINUOUS
 62
     6
100
AcDbVertex
100
AcDb2dVertex
 10
190.6677652902904
 20
223.5075058791408
 30
0.0
  0
VERTEX
  5
239
330
234
100
AcDbEntity
  8
LAY-2
  6
CONTINUOUS
 62
     6
100
AcDbVertex
100
AcDb2dVertex
 10
191.090371351471
 20
223.7064416522171
 30
0.0
  0
VERTEX
  5
23A
330
234
100
AcDbEntity
  8
LAY-2
  6
CONTINUOUS
 62
     6
100
AcDbVertex
100
AcDb2dVertex
 10
191.5916735558736
 20
223.9284471655653
 30
0.0
  0
VERTEX
  5
23B
330
234
100
AcDbEntity
  8
LAY-2
  6
CONTINUOUS
 62
     6
100
AcDbVertex
100
AcDb2dVertex
 10
192.1528843001062
 20
224.1584341193395
 30
0.0
  0
VERTEX
  5
23C
330
234
100
AcDbEntity
  8
LAY-2
  6
CONTINUOUS
 62
     6
100
AcDbVertex
100
AcDb2dVertex
 10
192.7552159807768
 20
224.3813142136941
 30
0.0
  0
VERTEX
  5
23D
330
234
100
AcDbEntity
  8
LAY-2
  6
CONTINUOUS
 62
     6
100
AcDbVertex
100
AcDb2dVertex
 10
193.3798809944934
 20
224.5819991487831
 30
0.0
  0
VERTEX
  5
23E
330
234
100
AcDbEntity
  8
LAY-2
  6
CONTINUOUS
 62
     6
100
AcDbVertex
100
AcDb2dVertex
 10
194.0080917378642
 20
224.7454006247609
 30
0.0
  0
VERTEX
  5
23F
330
234
100
AcDbEntity
  8
LAY-2
  6
CONTINUOUS
 62
     6
100
AcDbVertex
100
AcDb2dVertex
 10
194.621060607497
 20
224.8564303417818
 30
0.0
  0
VERTEX
  5
240
330
234
100
AcDbEntity
  8
LAY-2
  6
CONTINUOUS
 62
     6
100
AcDbVertex
100
AcDb2dVertex
 10
195.2
 20
224.9
 30
0.0
  0
VERTEX
  5
241
330
234
100
AcDbEntity
  8
LAY-2
  6
CONTINUOUS
 62
     6
100
AcDbVertex
100
AcDb2dVertex
 10
195.8145690196175
 20
224.8526200274413
 30
0.0
  0
VERTEX
  5
242
330
234
100
AcDbEntity
  8
LAY-2
  6
CONTINUOUS
 62
     6
100
AcDbVertex
100
AcDb2dVertex
 10
196.3708606837945
 20
224.711984952321
 30
0.0
  0
VERTEX
  5
243
330
234
100
AcDbEntity
  8
LAY-2
  6
CONTINUOUS
 62
     6
100
AcDbVertex
100
AcDb2dVertex
 10
196.8824810248549
 20
224.4971869585118
 30
0.0
  0
VERTEX
  5
244
330
234
100
AcDbEntity
  8
LAY-2
  6
CONTINUOUS
 62
     6
100
AcDbVertex
100
AcDb2dVertex
 10
197.3630360751225
 20
224.2273182298868
 30
0.0
  0
VERTEX
  5
245
330
234
100
AcDbEntity
  8
LAY-2
  6
CONTINUOUS
 62
     6
100
AcDbVertex
100
AcDb2dVertex
 10
197.8261318669212
 20
223.9214709503191
 30
0.0
  0
VERTEX
  5
246
330
234
100
AcDbEntity
  8
LAY-2
  6
CONTINUOUS
 62
     6
100
AcDbVertex
100
AcDb2dVertex
 10
198.2853744325748
 20
223.5987373036815
 30
0.0
  0
VERTEX
  5
247
330
234
100
AcDbEntity
  8
LAY-2
  6
CONTINUOUS
 62
     6
100
AcDbVertex
100
AcDb2dVertex
 10
198.7543698044071
 20
223.278209473847
 30
0.0
  0
VERTEX
  5
248
330
234
100
AcDbEntity
  8
LAY-2
  6
CONTINUOUS
 62
     6
100
AcDbVertex
100
AcDb2dVertex
 10
199.2467240147419
 20
222.9789796446886
 30
0.0
  0
VERTEX
  5
249
330
234
100
AcDbEntity
  8
LAY-2
  6
CONTINUOUS
 62
     6
100
AcDbVertex
100
AcDb2dVertex
 10
199.7760430959031
 20
222.7201400000793
 30
0.0
  0
VERTEX
  5
24A
330
234
100
AcDbEntity
  8
LAY-2
  6
CONTINUOUS
 62
     6
100
AcDbVertex
100
AcDb2dVertex
 10
200.3559330802146
 20
222.5207827238921
 30
0.0
  0
VERTEX
  5
24B
330
234
100
AcDbEntity
  8
LAY-2
  6
CONTINUOUS
 62
     6
100
AcDbVertex
100
AcDb2dVertex
 10
201.0
 20
222.4
 30
0.0
  0
VERTEX
  5
24C
330
234
100
AcDbEntity
  8
LAY-2
  6
CONTINUOUS
 62
     6
100
AcDbVertex
100
AcDb2dVertex
 10
201.5607955473469
 20
222.369434046774
 30
0.0
  0
VERTEX
  5
24D
330
234
100
AcDbEntity
  8
LAY-2
  6
CONTINUOUS
 62
     6
100
AcDbVertex
100
AcDb2dVertex
 10
202.1526309354624
 20
222.3900203458565
 30
0.0
  0
VERTEX
  5
24E
330
234
100
AcDbEntity
  8
LAY-2
  6
CONTINUOUS
 62
     6
100
AcDbVertex
100
AcDb2dVertex
 10
202.757712574873
 20
222.4515943615416
 30
0.0
  0
VERTEX
  5
24F
330
234
100
AcDbEntity
  8
LAY-2
  6
CONTINUOUS
 62
     6
100
AcDbVertex
100
AcDb2dVertex
 10
203.3582468761057
 20
222.5439915581233
 30
0.0
  0
VERTEX
  5
250
330
234
100
AcDbEntity
  8
LAY-2
  6
CONTINUOUS
 62
     6
100
AcDbVertex
100
AcDb2dVertex
 10
203.9364402496873
 20
222.6570473998956
 30
0.0
  0
VERTEX
  5
251
330
234
100
AcDbEntity
  8
LAY-2
  6
CONTINUOUS
 62
     6
100
AcDbVertex
100
AcDb2dVertex
 10
204.4744991061443
 20
222.7805973511527
 30
0.0
  0
VERTEX
  5
252
330
234
100
AcDbEntity
  8
LAY-2
  6
CONTINUOUS
 62
     6
100
AcDbVertex
100
AcDb2dVertex
 10
204.9546298560037
 20
222.9044768761885
 30
0.0
  0
VERTEX
  5
253
330
234
100
AcDbEntity
  8
LAY-2
  6
CONTINUOUS
 62
     6
100
AcDbVertex
100
AcDb2dVertex
 10
205.3590389097923
 20
223.0185214392971
 30
0.0
  0
VERTEX
  5
254
330
234
100
AcDbEntity
  8
LAY-2
  6
CONTINUOUS
 62
     6
100
AcDbVertex
100
AcDb2dVertex
 10
205.6699326780366
 20
223.1125665047725
 30
0.0
  0
VERTEX
  5
255
330
234
100
AcDbEntity
  8
LAY-2
  6
CONTINUOUS
 62
     6
100
AcDbVertex
100
AcDb2dVertex
 10
205.8695175712636
 20
223.1764475369088
 30
0.0
  0
VERTEX
  5
256
330
234
100
AcDbEntity
  8
LAY-2
  6
CONTINUOUS
 62
     6
100
AcDbVertex
100
AcDb2dVertex
 10
205.94
 20
223.2
 30
0.0
  0
SEQEND
  5
257
330
234
100
AcDbEntity
  8
LAY-2
  6
CONTINUOUS
 62
     6
  0
LINE
  5
258
330
1F
100
AcDbEntity
  8
LAY-2
  6
CONTINUOUS
 62
     2
100
AcDbLine
 10
205.94
 20
231.8
 30
0.0
 11
205.94
 21
196.5
 31
0.0
  0
LINE
  5
259
330
1F
100
AcDbEntity
  8
LAY-2
  6
CONTINUOUS
 62
     2
100
AcDbLine
 10
190.06
 20
196.5
 30
0.0
 11
190.0599999999999
 21
156.0
 31
0.0
  0
LINE
  5
25A
330
1F
100
AcDbEntity
  8
LAY-2
  6
CONTINUOUS
 62
     2
100
AcDbLine
 10
205.94
 20
196.5
 30
0.0
 11
205.9399999999999
 21
156.0
 31
0.0
  0
LINE
  5
25B
330
1F
100
AcDbEntity
  8
LAY-2
  6
CONTINUOUS
 62
     2
100
AcDbLine
 10
190.06
 20
156.0
 30
0.0
 11
205.94
 21
156.0
 31
0.0
  0
LEADER
  5
25C
330
1F
100
AcDbEntity
  8
LAY-2
  6
CONTINUOUS
 62
     6
100
AcDbLeader
  3
ISO-25
 76
     2
 10
205.94
 20
196.5
 30
0.0
 10
226.8
 20
196.5
 30
0.0
1001
ACAD
1000
DSTYLE
1002
{
1070
     5
1000
EX_NORM
1070
    41
1040
7.0
1070
   341
1005
4A
1002
}
  0
LINE
  5
25D
330
1F
100
AcDbEntity
  8
LAY-2
  6
EXLTYPE3
 62
     6
100
AcDbLine
 10
225.94
 20
311.8000000000001
 30
0.0
 11
210.06
 21
311.8000000000001
 31
0.0
  0
LINE
  5
25E
330
1F
100
AcDbEntity
  8
LAY-2
  6
EXLTYPE3
 62
     1
100
AcDbLine
 10
218.0
 20
312.74
 30
0.0
 11
218.0
 21
276.8
 31
0.0
  0
ARC
  5
25F
330
1F
100
AcDbEntity
  8
LAY-2
  6
EXLTYPE3
 62
     1
100
AcDbCircle
 10
193.0
 20
276.8
 30
0.0
 40
25.0
100
AcDbArc
 50
326.0969387309173
 51
0.0000000000000573
  0
LINE
  5
260
330
1F
100
AcDbEntity
  8
LAY-2
  6
EXLTYPE3
 62
     1
100
AcDbLine
 10
213.7495621005467
 20
262.8552636225867
 30
0.0
 11
202.2504378994532
 21
245.7447363774132
 31
0.0
  0
ARC
  5
261
330
1F
100
AcDbEntity
  8
LAY-2
  6
EXLTYPE3
 62
     1
100
AcDbCircle
 10
223.0
 20
231.8
 30
0.0
 40
25.0
100
AcDbArc
 50
146.0969387309173
 51
179.9999999999997
  0
LINE
  5
262
330
1F
100
AcDbEntity
  8
LAY-2
  6
EXLTYPE3
 62
     1
100
AcDbLine
 10
198.0
 20
196.5
 30
0.0
 11
198.0
 21
231.8
 31
0.0
  0
LINE
  5
263
330
1F
100
AcDbEntity
  8
LAY-2
  6
EXLTYPE3
 62
     1
100
AcDbLine
 10
198.0
 20
147.5
 30
0.0
 11
198.0
 21
196.5
 31
0.0
  0
DIMENSION
  5
265
330
1F
100
AcDbEntity
  8
LAY-2
  6
CONTINUOUS
 62
     3
100
AcDbDimension
  2
*D15
 10
254.0
 20
156.0
 30
0.0
 11
249.300000011921
 21
233.9
 31
0.0
 70
   160
  1
200
  3
ISO-25
100
AcDbAlignedDimension
 13
218.0
 23
311.8
 33
0.0
 14
205.94
 24
156.0
 34
0.0
 50
90.0
100
AcDbRotatedDimension
1001
ACAD
1000
DSTYLE
1002
{
1070
   270
1070
     2
1070
     6
1000
EX_NORM
1070
     7
1000
EX_NORM
1070
    41
1040
6.0
1070
    42
1040
1.399999976158142
1070
    44
1040
2.0
1070
    73
1070
     0
1070
    74
1070
     0
1070
    75
1070
     0
1070
    76
1070
     0
1070
    77
1070
     1
1070
    78
1070
     8
1070
   140
1040
8.0
1070
   147
1040
0.0
1070
   173
1070
     1
1070
   176
1070
     3
1070
   177
1070
     3
1070
   178
1070
     2
1070
   271
1070
     1
1070
   277
1070
     2
1070
   279
1070
     2
1070
   280
1070
     0
1070
   287
1070
     5
1070
   340
1005
264
1002
}
  0
DIMENSION
  5
273
330
1F
100
AcDbEntity
  8
LAY-2
  6
CONTINUOUS
 62
     3
100
AcDbDimension
  2
*D16
 10
198.0
 20
128.8
 30
0.0
 11
231.0000000000001
 21
133.499999988079
 31
0.0
 70
   160
  3
ISO-25
100
AcDbAlignedDimension
 13
218.0
 23
276.8
 33
0.0
 14
198.0
 24
156.0
 34
0.0
100
AcDbRotatedDimension
1001
ACAD
1000
DSTYLE
1002
{
1070
   270
1070
     2
1070
     6
1000
EX_NORM
1070
     7
1000
EX_NORM
1070
    41
1040
6.0
1070
    42
1040
1.399999976158142
1070
    44
1040
2.0
1070
    73
1070
     0
1070
    74
1070
     0
1070
    75
1070
     0
1070
    76
1070
     0
1070
    77
1070
     1
1070
    78
1070
     8
1070
   140
1040
8.0
1070
   147
1040
0.0
1070
   173
1070
     1
1070
   176
1070
     3
1070
   177
1070
     3
1070
   178
1070
     2
1070
   271
1070
     1
1070
   277
1070
     2
1070
   279
1070
     2
1070
   280
1070
     1
1070
   287
1070
     5
1070
   340
1005
264
1002
}
  0
ENDSEC
  0
SECTION
  2
OBJECTS
  0
DICTIONARY
  5
C
330
0
100
AcDbDictionary
  3
ACAD_GROUP
350
D
  3
ACAD_LAYOUT
350
1A
  3
ACAD_MATERIAL
350
3B
  3
ACAD_MLEADERSTYLE
350
2A2
  3
ACAD_MLINESTYLE
350
17
  3
ACAD_PLOTSETTINGS
350
19
  3
ACAD_VISUALSTYLE
350
2A
  3
ACDBHEADERROUNDTRIPXREC
350
280
  3
ACDBVARIABLEDICTIONARY
350
2A0
  0
DICTIONARY
  5
D
102
{ACAD_REACTORS
330
C
102
}
330
C
100
AcDbDictionary
  0
DICTIONARY
  5
1A
102
{ACAD_REACTORS
330
C
102
}
330
C
100
AcDbDictionary
  0
DICTIONARY
  5
3B
102
{ACAD_REACTORS
330
C
102
}
330
C
100
AcDbDictionary
  3
BYBLOCK
350
3D
  3
BYLAYER
350
3C
  3
GLOBAL
350
3E
  0
DICTIONARY
  5
2A2
102
{ACAD_REACTORS
330
C
102
}
330
C
100
AcDbDictionary
  0
DICTIONARY
  5
17
102
{ACAD_REACTORS
330
C
102
}
330
C
100
AcDbDictionary
  3
STANDARD
350
18
  0
DICTIONARY
  5
19
102
{ACAD_REACTORS
330
C
102
}
330
C
100
AcDbDictionary
  0
DICTIONARY
  5
2A
102
{ACAD_REACTORS
330
C
102
}
330
C
100
AcDbDictionary
  3
2DWIREFRAME
350
2F
  3
3D_HIDDEN
350
31
  3
3DWIREFRAME
350
30
  3
BASIC
350
32
  3
BRIGHTEN
350
36
  3
COLORCHANGE
350
3A
  3
CONCEPTUAL
350
34
  3
DIM
350
35
  3
FACEPATTERN
350
39
  3
FLAT
350
2B
  3
FLATWITHEDGES
350
2C
  3
GOURAUD
350
2D
  3
GOURAUDWITHEDGES
350
2E
  3
LINEPATTERN
350
38
  3
REALISTIC
350
33
  3
THICKEN
350
37
  0
DICTIONARY
  5
280
102
{ACAD_REACTORS
330
C
102
}
330
C
100
AcDbDictionary
  3
CEPSNTYPE
350
289
  3
DIMSTYLEDATA
350
29F
  3
FINGERPRINTGUID
350
28A
  3
HYPERLINKBASE
350
283
  3
INSUNITS
350
288
  3
LAYOUTDICT
350
285
  3
LWETCUNION
350
287
  3
PLOTSETDICT
350
286
  3
PSVPSCALE
350
28C
  3
PUCSBASE
350
28F
  3
PUCSORGBACK
350
295
  3
PUCSORGBOTTOM
350
291
  3
PUCSORGFRONT
350
294
  3
PUCSORGLEFT
350
292
  3
PUCSORGRIGHT
350
293
  3
PUCSORGTOP
350
290
  3
PUCSORTHOREF
350
28D
  3
PUCSORTHOVIEW
350
28E
  3
STYLESHEET
350
284
  3
TSTACKALIGN
350
281
  3
TSTACKSIZE
350
282
  3
UCSBASE
350
298
  3
UCSORGBACK
350
29E
  3
UCSORGBOTTOM
350
29A
  3
UCSORGFRONT
350
29D
  3
UCSORGLEFT
350
29B
  3
UCSORGRIGHT
350
29C
  3
UCSORGTOP
350
299
  3
UCSORTHOREF
350
296
  3
UCSORTHOVIEW
350
297
  3
VERSIONGUID
350
28B
  0
DICTIONARY
  5
2A0
102
{ACAD_REACTORS
330
C
102
}
330
C
100
AcDbDictionary
  3
DIMASSOC
350
2A5
  3
HIDETEXT
350
2A6
  3
PSOLHEIGHT
350
2A4
  3
PSOLWIDTH
350
2A3
  0
MATERIAL
  5
3D
102
{ACAD_REACTORS
330
3B
102
}
102
{ACAD_XDICTIONARY
360
2A9
102
}
330
3B
100
AcDbMaterial
  1
ByBlock
  0
MATERIAL
  5
3C
102
{ACAD_REACTORS
330
3B
102
}
102
{ACAD_XDICTIONARY
360
2A7
102
}
330
3B
100
AcDbMaterial
  1
ByLayer
  0
MATERIAL
  5
3E
102
{ACAD_REACTORS
330
3B
102
}
102
{ACAD_XDICTIONARY
360
2AB
102
}
330
3B
100
AcDbMaterial
  1
Global
  0
MLINESTYLE
  5
18
102
{ACAD_REACTORS
330
17
102
}
330
17
100
AcDbMlineStyle
  2
Standard
 70
     0
  3

 62
   256
 51
90.0
 52
90.0
 71
     2
 49
0.5
 62
   256
  6
BYLAYER
 49
-0.5
 62
   256
  6
BYLAYER
  0
ACAD_PROXY_OBJECT
  5
2F
102
{ACAD_REACTORS
330
2A
102
}
330
2A
100
AcDbProxyObject
 90
      499
 91
      501
 93
      436
310
42CC9915DA5C99599C985B595049028333333333333E3BF0000000000000FB0107901411070040501600405405064090741402480A0340
1001
ACAD
1000
AcDbSavedByObjectVersion
1070
     0
  0
ACAD_PROXY_OBJECT
  5
31
102
{ACAD_REACTORS
330
2A
102
}
330
2A
100
AcDbProxyObject
 90
      499
 91
      501
 93
      500
310
424CD108121A5919195B90640502408333333333333E3BF0000000000000FB01079024090700405020000000000001110200405405064090740C02480A0340
1001
ACAD
1000
AcDbSavedByObjectVersion
1070
     0
  0
ACAD_PROXY_OBJECT
  5
30
102
{ACAD_REACTORS
330
2A
102
}
330
2A
100
AcDbProxyObject
 90
      499
 91
      501
 93
      436
310
42CCD915DA5C99599C985B595059028333333333333E3BF0000000000000FB0107901411070040501600405405064090741402480A0340
1001
ACAD
1000
AcDbSavedByObjectVersion
1070
     0
  0
ACAD_PROXY_OBJECT
  5
32
102
{ACAD_REACTORS
330
2A
102
}
330
2A
100
AcDbProxyObject
 90
      499
 91
      501
 93
      388
310
4150985CDA58D07406404333333333333E3BF0000000000000FB0107A41107004050150841D405064090741402480A0350
1001
ACAD
1000
AcDbSavedByObjectVersion
1070
     0
  0
ACAD_PROXY_OBJECT
  5
36
102
{ACAD_REACTORS
330
2A
102
}
330
2A
100
AcDbProxyObject
 90
      499
 91
      501
 93
      428
310
42109C9A59DA1D195B90C409028333333333333E3BF0000000000000FB010790141107004050150841D405064090741402480A029950
1001
ACAD
1000
AcDbSavedByObjectVersion
1070
     0
  0
ACAD_PROXY_OBJECT
  5
3A
102
{ACAD_REACTORS
330
2A
102
}
330
2A
100
AcDbProxyObject
 90
      499
 91
      501
 93
      452
310
42D0DBDB1BDC90DA185B99D95104090240C333333333333E3BF0000000000000FB0108901411070040501508421405064090741402480A0350
1001
ACAD
1000
AcDbSavedByObjectVersion
1070
     0
  0
ACAD_PROXY_OBJECT
  5
34
102
{ACAD_REACTORS
330
2A
102
}
330
2A
100
AcDbProxyObject
 90
      499
 91
      501
 93
      500
310
4290DBDB98D95C1D1D585B10940D028333333333333E3BF0000000000000FB0107902409070040501000000000000111010841D405064090740C02480A0340
1001
ACAD
1000
AcDbSavedByObjectVersion
1070
     0
  0
ACAD_PROXY_OBJECT
  5
35
102
{ACAD_REACTORS
330
2A
102
}
330
2A
100
AcDbProxyObject
 90
      499
 91
      501
 93
      412
310
40D11A5B50B409028333333333333E3BF0000000000000FB010790141107004050150841D405064090741402480A02677FFFFFD0
1001
ACAD
1000
AcDbSavedByObjectVersion
1070
     0
  0
ACAD_PROXY_OBJECT
  5
39
102
{ACAD_REACTORS
330
2A
102
}
330
2A
100
AcDbProxyObject
 90
      499
 91
      501
 93
      444
310
42D19858D95C185D1D195C9B90F409028333333333333E3BF0000000000000FB010790141107004050150841D405064090741402480A0350
1001
ACAD
1000
AcDbSavedByObjectVersion
1070
     0
  0
ACAD_PROXY_OBJECT
  5
2B
102
{ACAD_REACTORS
330
2A
102
}
330
2A
100
AcDbProxyObject
 90
      499
 91
      501
 93
      388
310
41119B185D240901404333333333333E3BF0000000000000F9010740A41107004050150841D405064090741402480A1B50
1001
ACAD
1000
AcDbSavedByObjectVersion
1070
     0
  0
ACAD_PROXY_OBJECT
  5
2C
102
{ACAD_REACTORS
330
2A
102
}
330
2A
100
AcDbProxyObject
 90
      499
 91
      501
 93
      476
310
43519B185D15DA5D1A115919D95CD0140901404333333333333E3BF0000000000000F9010740901411070040501600405405064090741402480A1B50
1001
ACAD
1000
AcDbSavedByObjectVersion
1070
     0
  0
ACAD_PROXY_OBJECT
  5
2D
102
{ACAD_REACTORS
330
2A
102
}
330
2A
100
AcDbProxyObject
 90
      499
 91
      501
 93
      412
310
41D1DBDD5C985D5910240902404333333333333E3BF0000000000000F9010740A411070040501641D405064090741402480A1B50
1001
ACAD
1000
AcDbSavedByObjectVersion
1070
     0
  0
ACAD_PROXY_OBJECT
  5
2E
102
{ACAD_REACTORS
330
2A
102
}
330
2A
100
AcDbProxyObject
 90
      499
 91
      501
 93
      500
310
4411DBDD5C985D5915DA5D1A115919D95CD0340902404333333333333E3BF0000000000000F9010740901411070040501600405405064090741402480A1B50
1001
ACAD
1000
AcDbSavedByObjectVersion
1070
     0
  0
ACAD_PROXY_OBJECT
  5
38
102
{ACAD_REACTORS
330
2A
102
}
330
2A
100
AcDbProxyObject
 90
      499
 91
      501
 93
      444
310
42D31A5B995C185D1D195C9B90E409028333333333333E3BF0000000000000FB010790141107004050750841D405064090741402483A0350
1001
ACAD
1000
AcDbSavedByObjectVersion
1070
     0
  0
ACAD_PROXY_OBJECT
  5
33
102
{ACAD_REACTORS
330
2A
102
}
330
2A
100
AcDbProxyObject
 90
      499
 91
      501
 93
      420
310
425499585B1A5CDD1A58D08409028333333333333E3BF0000000000000FB01079019070040501508421405064090741402480A1B40
1001
ACAD
1000
AcDbSavedByObjectVersion
1070
     0
  0
ACAD_PROXY_OBJECT
  5
37
102
{ACAD_REACTORS
330
2A
102
}
330
2A
100
AcDbProxyObject
 90
      499
 91
      501
 93
      412
310
41D51A1A58DAD95B90D409028333333333333E3BF0000000000000FB010790141107004050150C41D405064090741402480A0350
1001
ACAD
1000
AcDbSavedByObjectVersion
1070
     0
  0
XRECORD
  5
289
102
{ACAD_REACTORS
330
280
102
}
330
280
100
AcDbXrecord
 90
        0
  0
XRECORD
  5
29F
102
{ACAD_REACTORS
330
280
102
}
330
280
100
AcDbXrecord
1000
DSTYLE
1002
{
1070
   340
340
11
1002
}
  0
XRECORD
  5
28A
102
{ACAD_REACTORS
330
280
102
}
330
280
100
AcDbXrecord
  1
{3CD67836-60E0-473A-A7E3-36CCA35ADAB7}
  0
XRECORD
  5
283
102
{ACAD_REACTORS
330
280
102
}
330
280
100
AcDbXrecord
  1

  0
XRECORD
  5
288
102
{ACAD_REACTORS
330
280
102
}
330
280
100
AcDbXrecord
 90
        4
  0
XRECORD
  5
285
102
{ACAD_REACTORS
330
280
102
}
330
280
100
AcDbXrecord
340
1A
  0
XRECORD
  5
287
102
{ACAD_REACTORS
330
280
102
}
330
280
100
AcDbXrecord
 90
    10781
  0
XRECORD
  5
286
102
{ACAD_REACTORS
330
280
102
}
330
280
100
AcDbXrecord
340
19
  0
XRECORD
  5
28C
102
{ACAD_REACTORS
330
280
102
}
330
280
100
AcDbXrecord
 40
0.0
  0
XRECORD
  5
28F
102
{ACAD_REACTORS
330
280
102
}
330
280
100
AcDbXrecord
340
0
  0
XRECORD
  5
295
102
{ACAD_REACTORS
330
280
102
}
330
280
100
AcDbXrecord
 10
0.0
 20
0.0
 30
0.0
  0
XRECORD
  5
291
102
{ACAD_REACTORS
330
280
102
}
330
280
100
AcDbXrecord
 10
0.0
 20
0.0
 30
0.0
  0
XRECORD
  5
294
102
{ACAD_REACTORS
330
280
102
}
330
280
100
AcDbXrecord
 10
0.0
 20
0.0
 30
0.0
  0
XRECORD
  5
292
102
{ACAD_REACTORS
330
280
102
}
330
280
100
AcDbXrecord
 10
0.0
 20
0.0
 30
0.0
  0
XRECORD
  5
293
102
{ACAD_REACTORS
330
280
102
}
330
280
100
AcDbXrecord
 10
0.0
 20
0.0
 30
0.0
  0
XRECORD
  5
290
102
{ACAD_REACTORS
330
280
102
}
330
280
100
AcDbXrecord
 10
0.0
 20
0.0
 30
0.0
  0
XRECORD
  5
28D
102
{ACAD_REACTORS
330
280
102
}
330
280
100
AcDbXrecord
340
0
  0
XRECORD
  5
28E
102
{ACAD_REACTORS
330
280
102
}
330
280
100
AcDbXrecord
 70
     0
  0
XRECORD
  5
284
102
{ACAD_REACTORS
330
280
102
}
330
280
100
AcDbXrecord
  1

  0
XRECORD
  5
281
102
{ACAD_REACTORS
330
280
102
}
330
280
100
AcDbXrecord
 90
        1
  0
XRECORD
  5
282
102
{ACAD_REACTORS
330
280
102
}
330
280
100
AcDbXrecord
 90
       70
  0
XRECORD
  5
298
102
{ACAD_REACTORS
330
280
102
}
330
280
100
AcDbXrecord
340
0
  0
XRECORD
  5
29E
102
{ACAD_REACTORS
330
280
102
}
330
280
100
AcDbXrecord
 10
0.0
 20
0.0
 30
0.0
  0
XRECORD
  5
29A
102
{ACAD_REACTORS
330
280
102
}
330
280
100
AcDbXrecord
 10
0.0
 20
0.0
 30
0.0
  0
XRECORD
  5
29D
102
{ACAD_REACTORS
330
280
102
}
330
280
100
AcDbXrecord
 10
0.0
 20
0.0
 30
0.0
  0
XRECORD
  5
29B
102
{ACAD_REACTORS
330
280
102
}
330
280
100
AcDbXrecord
 10
0.0
 20
0.0
 30
0.0
  0
XRECORD
  5
29C
102
{ACAD_REACTORS
330
280
102
}
330
280
100
AcDbXrecord
 10
0.0
 20
0.0
 30
0.0
  0
XRECORD
  5
299
102
{ACAD_REACTORS
330
280
102
}
330
280
100
AcDbXrecord
 10
0.0
 20
0.0
 30
0.0
  0
XRECORD
  5
296
102
{ACAD_REACTORS
330
280
102
}
330
280
100
AcDbXrecord
340
0
  0
XRECORD
  5
297
102
{ACAD_REACTORS
330
280
102
}
330
280
100
AcDbXrecord
 70
     0
  0
XRECORD
  5
28B
102
{ACAD_REACTORS
330
280
102
}
330
280
100
AcDbXrecord
  1
{FAEB1C32-E019-11D5-929B-00C0DF256EC4}
  0
DICTIONARYVAR
  5
2A5
102
{ACAD_REACTORS
330
2A0
102
}
330
2A0
100
DictionaryVariables
280
     0
  1
2
  0
DICTIONARYVAR
  5
2A6
102
{ACAD_REACTORS
330
2A0
102
}
330
2A0
100
DictionaryVariables
280
     0
  1
1
  0
DICTIONARYVAR
  5
2A4
102
{ACAD_REACTORS
330
2A0
102
}
330
2A0
100
DictionaryVariables
280
     0
  1
80.000000
  0
DICTIONARYVAR
  5
2A3
102
{ACAD_REACTORS
330
2A0
102
}
330
2A0
100
DictionaryVariables
280
     0
  1
5.000000
  0
DICTIONARY
  5
2A9
330
3D
100
AcDbDictionary
280
     1
  3
ACAD_XREC_ROUNDTRIP
360
2AA
  0
DICTIONARY
  5
2A7
330
3C
100
AcDbDictionary
280
     1
  3
ACAD_XREC_ROUNDTRIP
360
2A8
  0
DICTIONARY
  5
2AB
330
3E
100
AcDbDictionary
280
     1
  3
ACAD_XREC_ROUNDTRIP
360
2AC
  0
XRECORD
  5
2AA
102
{ACAD_REACTORS
330
2A9
102
}
330
2A9
100
AcDbXrecord
102
MATERIAL
148
0.0
149
0.0
149
0.0
 93
        0
 94
      127
282
     0
 72
     1
 77
     1
171
     1
175
     1
179
     1
273
     0
  0
XRECORD
  5
2A8
102
{ACAD_REACTORS
330
2A7
102
}
330
2A7
100
AcDbXrecord
102
MATERIAL
148
0.0
149
0.0
149
0.0
 93
        0
 94
      127
282
     0
 72
     1
 77
     1
171
     1
175
     1
179
     1
273
     0
  0
XRECORD
  5
2AC
102
{ACAD_REACTORS
330
2AB
102
}
330
2AB
100
AcDbXrecord
102
MATERIAL
148
0.0
149
0.0
149
0.0
 93
        0
 94
      127
282
     0
 72
     1
 77
     1
171
     1
175
     1
179
     1
273
     0
  0
ENDSEC
  0
EOF
