  0
SECTION
  2
HEADER
  9
$ACADVER
  1
AC1014
  9
$ACADMAINTVER
 70
     9
  9
$DWGCODEPAGE
  3
ANSI_932
  9
$INSBASE
 10
0.0
 20
0.0
 30
0.0
  9
$EXTMIN
 10
-0.6000000000000136
 20
14.30000000000001
 30
0.0
  9
$EXTMAX
 10
199.4
 20
289.3
 30
0.0
  9
$LIMMIN
 10
0.0
 20
0.0
  9
$LIMMAX
 10
210.0
 20
297.0
  9
$ORTHOMODE
 70
     0
  9
$REGENMODE
 70
     1
  9
$FILLMODE
 70
     1
  9
$QTEXTMODE
 70
     0
  9
$MIRRTEXT
 70
     1
  9
$DRAGMODE
 70
     2
  9
$LTSCALE
 40
1.0
  9
$OSMODE
 70
    37
  9
$ATTMODE
 70
     1
  9
$TEXTSIZE
 40
2.5
  9
$TRACEWID
 40
1.0
  9
$TEXTSTYLE
  7
STANDARD
  9
$CLAYER
  8
図
  9
$CELTYPE
  6
BYLAYER
  9
$CECOLOR
 62
   256
  9
$CELTSCALE
 40
1.0
  9
$DELOBJ
 70
     1
  9
$DISPSILH
 70
     0
  9
$DIMSCALE
 40
1.0
  9
$DIMASZ
 40
2.5
  9
$DIMEXO
 40
0.625
  9
$DIMDLI
 40
3.75
  9
$DIMRND
 40
0.0
  9
$DIMDLE
 40
0.0
  9
$DIMEXE
 40
1.25
  9
$DIMTP
 40
0.0
  9
$DIMTM
 40
0.0
  9
$DIMTXT
 40
2.5
  9
$DIMCEN
 40
2.5
  9
$DIMTSZ
 40
0.0
  9
$DIMTOL
 70
     0
  9
$DIMLIM
 70
     0
  9
$DIMTIH
 70
     0
  9
$DIMTOH
 70
     0
  9
$DIMSE1
 70
     0
  9
$DIMSE2
 70
     0
  9
$DIMTAD
 70
     1
  9
$DIMZIN
 70
     8
  9
$DIMBLK
  1

  9
$DIMASO
 70
     1
  9
$DIMSHO
 70
     1
  9
$DIMPOST
  1

  9
$DIMAPOST
  1

  9
$DIMALT
 70
     0
  9
$DIMALTD
 70
     3
  9
$DIMALTF
 40
0.03937007874016
  9
$DIMLFAC
 40
1.0
  9
$DIMTOFL
 70
     1
  9
$DIMTVP
 40
0.0
  9
$DIMTIX
 70
     0
  9
$DIMSOXD
 70
     0
  9
$DIMSAH
 70
     0
  9
$DIMBLK1
  1

  9
$DIMBLK2
  1

  9
$DIMSTYLE
  2
ISO-25
  9
$DIMCLRD
 70
     0
  9
$DIMCLRE
 70
     0
  9
$DIMCLRT
 70
     0
  9
$DIMTFAC
 40
1.0
  9
$DIMGAP
 40
0.625
  9
$DIMJUST
 70
     0
  9
$DIMSD1
 70
     0
  9
$DIMSD2
 70
     0
  9
$DIMTOLJ
 70
     0
  9
$DIMTZIN
 70
     8
  9
$DIMALTZ
 70
     0
  9
$DIMALTTZ
 70
     0
  9
$DIMFIT
 70
     3
  9
$DIMUPT
 70
     0
  9
$DIMUNIT
 70
     2
  9
$DIMDEC
 70
     2
  9
$DIMTDEC
 70
     2
  9
$DIMALTU
 70
     2
  9
$DIMALTTD
 70
     3
  9
$DIMTXSTY
  7
STANDARD
  9
$DIMAUNIT
 70
     0
  9
$LUNITS
 70
     2
  9
$LUPREC
 70
     4
  9
$SKETCHINC
 40
1.0
  9
$FILLETRAD
 40
10.0
  9
$AUNITS
 70
     0
  9
$AUPREC
 70
     0
  9
$MENU
  1
.
  9
$ELEVATION
 40
0.0
  9
$PELEVATION
 40
0.0
  9
$THICKNESS
 40
0.0
  9
$LIMCHECK
 70
     0
  9
$CHAMFERA
 40
10.0
  9
$CHAMFERB
 40
10.0
  9
$CHAMFERC
 40
20.0
  9
$CHAMFERD
 40
0.0
  9
$SKPOLY
 70
     0
  9
$TDCREATE
 40
2460368.6294175
  9
$TDUPDATE
 40
2460368.629417731
  9
$TDINDWG
 40
0.0000000116
  9
$TDUSRTIMER
 40
0.0000000116
  9
$USRTIMER
 70
     1
  9
$ANGBASE
 50
0.0
  9
$ANGDIR
 70
     0
  9
$PDMODE
 70
     0
  9
$PDSIZE
 40
0.0
  9
$PLINEWID
 40
0.0
  9
$COORDS
 70
     1
  9
$SPLFRAME
 70
     0
  9
$SPLINETYPE
 70
     6
  9
$SPLINESEGS
 70
     8
  9
$ATTDIA
 70
     0
  9
$ATTREQ
 70
     1
  9
$HANDLING
 70
     1
  9
$HANDSEED
  5
4AD
  9
$SURFTAB1
 70
     6
  9
$SURFTAB2
 70
     6
  9
$SURFTYPE
 70
     6
  9
$SURFU
 70
     6
  9
$SURFV
 70
     6
  9
$UCSNAME
  2

  9
$UCSORG
 10
0.0
 20
0.0
 30
0.0
  9
$UCSXDIR
 10
1.0
 20
0.0
 30
0.0
  9
$UCSYDIR
 10
0.0
 20
1.0
 30
0.0
  9
$PUCSNAME
  2

  9
$PUCSORG
 10
0.0
 20
0.0
 30
0.0
  9
$PUCSXDIR
 10
1.0
 20
0.0
 30
0.0
  9
$PUCSYDIR
 10
0.0
 20
1.0
 30
0.0
  9
$USERI1
 70
     0
  9
$USERI2
 70
     0
  9
$USERI3
 70
     0
  9
$USERI4
 70
     0
  9
$USERI5
 70
     0
  9
$USERR1
 40
0.0
  9
$USERR2
 40
0.0
  9
$USERR3
 40
0.0
  9
$USERR4
 40
0.0
  9
$USERR5
 40
0.0
  9
$WORLDVIEW
 70
     1
  9
$SHADEDGE
 70
     3
  9
$SHADEDIF
 70
    70
  9
$TILEMODE
 70
     1
  9
$MAXACTVP
 70
    64
  9
$PINSBASE
 10
0.0
 20
0.0
 30
0.0
  9
$PLIMCHECK
 70
     0
  9
$PEXTMIN
 10
1.000000000000000E+20
 20
1.000000000000000E+20
 30
1.000000000000000E+20
  9
$PEXTMAX
 10
-1.000000000000000E+20
 20
-1.000000000000000E+20
 30
-1.000000000000000E+20
  9
$PLIMMIN
 10
0.0
 20
0.0
  9
$PLIMMAX
 10
420.0
 20
297.0
  9
$UNITMODE
 70
     0
  9
$VISRETAIN
 70
     1
  9
$PLINEGEN
 70
     0
  9
$PSLTSCALE
 70
     1
  9
$TREEDEPTH
 70
  3020
  9
$PICKSTYLE
 70
     1
  9
$CMLSTYLE
  2
STANDARD
  9
$CMLJUST
 70
     0
  9
$CMLSCALE
 40
20.0
  9
$PROXYGRAPHICS
 70
     1
  9
$MEASUREMENT
 70
     1
  0
ENDSEC
  0
SECTION
  2
CLASSES
  0
CLASS
  1
ACDBDICTIONARYWDFLT
  2
AcDbDictionaryWithDefault
  3
ObjectDBX Classes
 90
        0
280
     0
281
     0
  0
CLASS
  1
VISUALSTYLE
  2
AcDbVisualStyle
  3
ObjectDBX Classes
 90
     4095
280
     0
281
     0
  0
CLASS
  1
MATERIAL
  2
AcDbMaterial
  3
ObjectDBX Classes
 90
     1153
280
     0
281
     0
  0
CLASS
  1
SUN
  2
AcDbSun
  3
SCENEOE
 90
     1024
280
     0
281
     0
  0
CLASS
  1
DICTIONARYVAR
  2
AcDbDictionaryVar
  3
ObjectDBX Classes
 90
        0
280
     0
281
     0
  0
CLASS
  1
XRECORD
  2
AcDbXrecord
  3
AutoCAD 2000
 90
        0
280
     0
281
     0
  0
CLASS
  1
LWPOLYLINE
  2
AcDbPolyline
  3
AutoCAD 2000
 90
        0
280
     0
281
     1
  0
CLASS
  1
HATCH
  2
AcDbHatch
  3
AutoCAD 2000
 90
        0
280
     0
281
     1
  0
CLASS
  1
ACDBPLACEHOLDER
  2
AcDbPlaceHolder
  3
ObjectDBX Classes
 90
        0
280
     0
281
     0
  0
CLASS
  1
LAYOUT
  2
AcDbLayout
  3
ObjectDBX Classes
 90
        0
280
     0
281
     0
  0
ENDSEC
  0
SECTION
  2
TABLES
  0
TABLE
  2
VPORT
  5
8
330
0
100
AcDbSymbolTable
 70
     1
  0
VPORT
  5
29
330
8
100
AcDbSymbolTableRecord
100
AcDbViewportTableRecord
  2
*ACTIVE
 70
     0
 10
0.0
 20
0.0
 11
1.0
 21
1.0
 12
993.9999999999999
 22
1518.0
 13
0.0
 23
0.0
 14
10.0
 24
10.0
 15
10.0
 25
10.0
 16
0.0
 26
0.0
 36
1.0
 17
0.0
 27
0.0
 37
0.0
 40
2750.0
 41
0.7272727272727274
 42
50.0
 43
0.0
 44
0.0
 50
0.0
 51
0.0
 71
     0
 72
  1000
 73
     1
 74
     3
 75
     0
 76
     0
 77
     0
 78
     0
  0
ENDTAB
  0
TABLE
  2
LTYPE
  5
5
330
0
100
AcDbSymbolTable
 70
    10
  0
LTYPE
  5
14
330
5
100
AcDbSymbolTableRecord
100
AcDbLinetypeTableRecord
  2
BYBLOCK
 70
     0
  3

 72
    65
 73
     0
 40
0.0
  0
LTYPE
  5
15
330
5
100
AcDbSymbolTableRecord
100
AcDbLinetypeTableRecord
  2
BYLAYER
 70
     0
  3

 72
    65
 73
     0
 40
0.0
  0
LTYPE
  5
16
330
5
100
AcDbSymbolTableRecord
100
AcDbLinetypeTableRecord
  2
CONTINUOUS
 70
     0
  3
Solid line
 72
    65
 73
     0
 40
0.0
  0
LTYPE
  5
40
330
5
100
AcDbSymbolTableRecord
100
AcDbLinetypeTableRecord
  2
EXLTYPE1
 70
     0
  3
破線
 72
    65
 73
     2
 40
3.0
 49
2.0
 74
     0
 49
-1.0
 74
     0
  0
LTYPE
  5
41
330
5
100
AcDbSymbolTableRecord
100
AcDbLinetypeTableRecord
  2
EXLTYPE2
 70
     0
  3
点線
 72
    65
 73
     2
 40
2.0
 49
1.0
 74
     0
 49
-1.0
 74
     0
  0
LTYPE
  5
42
330
5
100
AcDbSymbolTableRecord
100
AcDbLinetypeTableRecord
  2
EXLTYPE3
 70
     0
  3
一点鎖線
 72
    65
 73
     4
 40
10.0
 49
7.0
 74
     0
 49
-1.0
 74
     0
 49
1.0
 74
     0
 49
-1.0
 74
     0
  0
LTYPE
  5
43
330
5
100
AcDbSymbolTableRecord
100
AcDbLinetypeTableRecord
  2
EXLTYPE4
 70
     0
  3
二点鎖線
 72
    65
 73
     6
 40
12.0
 49
7.0
 74
     0
 49
-1.0
 74
     0
 49
1.0
 74
     0
 49
-1.0
 74
     0
 49
1.0
 74
     0
 49
-1.0
 74
     0
  0
LTYPE
  5
44
330
5
100
AcDbSymbolTableRecord
100
AcDbLinetypeTableRecord
  2
EXLTYPE5
 70
     0
  3
三点鎖線
 72
    65
 73
     8
 40
37.0
 49
30.0
 74
     0
 49
-1.0
 74
     0
 49
1.0
 74
     0
 49
-1.0
 74
     0
 49
1.0
 74
     0
 49
-1.0
 74
     0
 49
1.0
 74
     0
 49
-1.0
 74
     0
  0
LTYPE
  5
45
330
5
100
AcDbSymbolTableRecord
100
AcDbLinetypeTableRecord
  2
EXLTYPE6
 70
     0
  3
四点鎖線
 72
    65
 73
    10
 40
39.0
 49
30.0
 74
     0
 49
-1.0
 74
     0
 49
1.0
 74
     0
 49
-1.0
 74
     0
 49
1.0
 74
     0
 49
-1.0
 74
     0
 49
1.0
 74
     0
 49
-1.0
 74
     0
 49
1.0
 74
     0
 49
-1.0
 74
     0
  0
LTYPE
  5
46
330
5
100
AcDbSymbolTableRecord
100
AcDbLinetypeTableRecord
  2
EXLTYPE7
 70
     0
  3
一点鎖線2
 72
    65
 73
     4
 40
13.0
 49
10.0
 74
     0
 49
-1.0
 74
     0
 49
1.0
 74
     0
 49
-1.0
 74
     0
  0
LTYPE
  5
47
330
5
100
AcDbSymbolTableRecord
100
AcDbLinetypeTableRecord
  2
EXLTYPE8
 70
     0
  3
一点鎖線3
 72
    65
 73
     4
 40
10.0
 49
7.0
 74
     0
 49
-1.0
 74
     0
 49
1.0
 74
     0
 49
-1.0
 74
     0
  0
LTYPE
  5
48
330
5
100
AcDbSymbolTableRecord
100
AcDbLinetypeTableRecord
  2
EXLTYPE9
 70
     0
  3
破線4
 72
    65
 73
     2
 40
2.5
 49
1.5
 74
     0
 49
-1.0
 74
     0
  0
ENDTAB
  0
TABLE
  2
LAYER
  5
2
330
0
100
AcDbSymbolTable
 70
     5
  0
LAYER
  5
10
330
2
100
AcDbSymbolTableRecord
100
AcDbLayerTableRecord
  2
0
 70
     0
 62
     7
  6
CONTINUOUS
  0
LAYER
  5
4B
330
2
100
AcDbSymbolTableRecord
100
AcDbLayerTableRecord
  2
図枠
 70
     0
 62
     7
  6
CONTINUOUS
  0
LAYER
  5
4C
330
2
100
AcDbSymbolTableRecord
100
AcDbLayerTableRecord
  2
図
 70
     0
 62
     7
  6
CONTINUOUS
  0
LAYER
  5
4D
330
2
100
AcDbSymbolTableRecord
100
AcDbLayerTableRecord
  2
寸法
 70
     0
 62
     7
  6
CONTINUOUS
  0
LAYER
  5
3D4
330
2
100
AcDbSymbolTableRecord
100
AcDbLayerTableRecord
  2
DEFPOINTS
 70
     0
 62
     7
  6
CONTINUOUS
  0
ENDTAB
  0
TABLE
  2
STYLE
  5
3
330
0
100
AcDbSymbolTable
 70
     5
  0
STYLE
  5
11
330
3
100
AcDbSymbolTableRecord
100
AcDbTextStyleTableRecord
  2
STANDARD
 70
     0
 40
0.0
 41
1.0
 50
0.0
 71
     0
 42
2.5
  3
monotxt
  4
extfont
  0
STYLE
  5
49
330
3
100
AcDbSymbolTableRecord
100
AcDbTextStyleTableRecord
  2
EXCADSTD
 70
     0
 40
0.0
 41
1.0
 50
0.0
 71
     0
 42
0.2
  3
monotxt
  4
extfont
  0
STYLE
  5
4A
330
3
100
AcDbSymbolTableRecord
100
AcDbTextStyleTableRecord
  2
EXCADVERT
 70
     4
 40
0.0
 41
1.0
 50
0.0
 71
     0
 42
0.286885
  3
monotxt
  4
extfont
  0
STYLE
  5
AF
330
3
100
AcDbSymbolTableRecord
100
AcDbTextStyleTableRecord
  2
EXCADTTF1
 70
     0
 40
0.0
 41
1.0
 50
0.0
 71
     0
 42
0.2
  3
MSGOTHIC.TTC
  4

1001
ACAD
1000
MS Gothic
1071
    32817
  0
STYLE
  5
3D2
330
3
100
AcDbSymbolTableRecord
100
AcDbTextStyleTableRecord
  2
EXCADDIM1
 70
     0
 40
0.0
 41
0.84
 50
0.0
 71
     0
 42
0.2
  3
monotxt
  4
extfont
  0
ENDTAB
  0
TABLE
  2
VIEW
  5
6
330
0
100
AcDbSymbolTable
 70
     0
  0
ENDTAB
  0
TABLE
  2
UCS
  5
7
330
0
100
AcDbSymbolTable
 70
     0
  0
ENDTAB
  0
TABLE
  2
APPID
  5
9
330
0
100
AcDbSymbolTable
 70
     1
  0
APPID
  5
12
330
9
100
AcDbSymbolTableRecord
100
AcDbRegAppTableRecord
  2
ACAD
 70
     0
  0
ENDTAB
  0
TABLE
  2
DIMSTYLE
  5
A
330
0
100
AcDbSymbolTable
 70
     1
  0
DIMSTYLE
105
27
102
{ACAD_REACTORS
330
3D3
330
3E1
330
3ED
330
3FA
330
407
330
414
330
429
330
436
330
443
330
452
330
45E
330
46F
102
}
330
A
100
AcDbSymbolTableRecord
100
AcDbDimStyleTableRecord
  2
ISO-25
 70
     0
  3

  4

  5

  6

  7

 40
1.0
 41
2.5
 42
0.625
 43
3.75
 44
1.25
 45
0.0
 46
0.0
 47
0.0
 48
0.0
140
2.5
141
2.5
142
0.0
143
0.03937007874016
144
1.0
145
0.0
146
1.0
147
0.625
 71
     0
 72
     0
 73
     0
 74
     0
 75
     0
 76
     0
 77
     1
 78
     8
170
     0
171
     3
172
     1
173
     0
174
     0
175
     0
176
     0
177
     0
178
     0
270
     2
271
     2
272
     2
273
     2
274
     3
340
11
275
     0
280
     0
281
     0
282
     0
283
     0
284
     8
285
     0
286
     0
287
     5
288
     0
  0
ENDTAB
  0
TABLE
  2
BLOCK_RECORD
  5
1
330
0
100
AcDbSymbolTable
 70
    27
  0
BLOCK_RECORD
  5
1F
330
1
100
AcDbSymbolTableRecord
100
AcDbBlockTableRecord
  2
*MODEL_SPACE
  0
BLOCK_RECORD
  5
1B
330
1
100
AcDbSymbolTableRecord
100
AcDbBlockTableRecord
  2
*PAPER_SPACE
  0
BLOCK_RECORD
  5
4E
330
1
100
AcDbSymbolTableRecord
100
AcDbBlockTableRecord
  2
EX_NORM
  0
BLOCK_RECORD
  5
51
330
1
100
AcDbSymbolTableRecord
100
AcDbBlockTableRecord
  2
EX_BNORM
  0
BLOCK_RECORD
  5
54
330
1
100
AcDbSymbolTableRecord
100
AcDbBlockTableRecord
  2
EX_BCIR
  0
BLOCK_RECORD
  5
57
330
1
100
AcDbSymbolTableRecord
100
AcDbBlockTableRecord
  2
EX_RCIVIL
  0
BLOCK_RECORD
  5
5A
330
1
100
AcDbSymbolTableRecord
100
AcDbBlockTableRecord
  2
EX_SLANT
  0
BLOCK_RECORD
  5
5D
330
1
100
AcDbSymbolTableRecord
100
AcDbBlockTableRecord
  2
EX_NONE
  0
BLOCK_RECORD
  5
60
330
1
100
AcDbSymbolTableRecord
100
AcDbBlockTableRecord
  2
EX_CIVIL
  0
BLOCK_RECORD
  5
63
330
1
100
AcDbSymbolTableRecord
100
AcDbBlockTableRecord
  2
EX_WCIR
  0
BLOCK_RECORD
  5
66
330
1
100
AcDbSymbolTableRecord
100
AcDbBlockTableRecord
  2
EX_WCIR2
  0
BLOCK_RECORD
  5
69
330
1
100
AcDbSymbolTableRecord
100
AcDbBlockTableRecord
  2
EX_WNORM
  0
BLOCK_RECORD
  5
6C
330
1
100
AcDbSymbolTableRecord
100
AcDbBlockTableRecord
  2
EX_NNORM
  0
BLOCK_RECORD
  5
6F
330
1
100
AcDbSymbolTableRecord
100
AcDbBlockTableRecord
  2
EX_BBOX
  0
BLOCK_RECORD
  5
72
330
1
100
AcDbSymbolTableRecord
100
AcDbBlockTableRecord
  2
EX_WBOX
  0
BLOCK_RECORD
  5
75
330
1
100
AcDbSymbolTableRecord
100
AcDbBlockTableRecord
  2
EX_INTEGRAL
  0
BLOCK_RECORD
  5
3D5
330
1
100
AcDbSymbolTableRecord
100
AcDbBlockTableRecord
  2
*D15
  0
BLOCK_RECORD
  5
3E2
330
1
100
AcDbSymbolTableRecord
100
AcDbBlockTableRecord
  2
*D16
  0
BLOCK_RECORD
  5
3EE
330
1
100
AcDbSymbolTableRecord
100
AcDbBlockTableRecord
  2
*D17
  0
BLOCK_RECORD
  5
3FB
330
1
100
AcDbSymbolTableRecord
100
AcDbBlockTableRecord
  2
*D18
  0
BLOCK_RECORD
  5
408
330
1
100
AcDbSymbolTableRecord
100
AcDbBlockTableRecord
  2
*D19
  0
BLOCK_RECORD
  5
415
330
1
100
AcDbSymbolTableRecord
100
AcDbBlockTableRecord
  2
*D20
  0
BLOCK_RECORD
  5
42A
330
1
100
AcDbSymbolTableRecord
100
AcDbBlockTableRecord
  2
*D21
  0
BLOCK_RECORD
  5
437
330
1
100
AcDbSymbolTableRecord
100
AcDbBlockTableRecord
  2
*D22
  0
BLOCK_RECORD
  5
444
330
1
100
AcDbSymbolTableRecord
100
AcDbBlockTableRecord
  2
*D23
  0
BLOCK_RECORD
  5
453
330
1
100
AcDbSymbolTableRecord
100
AcDbBlockTableRecord
  2
*D24
  0
BLOCK_RECORD
  5
45F
330
1
100
AcDbSymbolTableRecord
100
AcDbBlockTableRecord
  2
*D25
  0
BLOCK_RECORD
  5
470
330
1
100
AcDbSymbolTableRecord
100
AcDbBlockTableRecord
  2
*D26
  0
ENDTAB
  0
ENDSEC
  0
SECTION
  2
BLOCKS
  0
BLOCK
  5
20
330
1F
100
AcDbEntity
  8
0
100
AcDbBlockBegin
  2
*MODEL_SPACE
 70
     0
 10
0.0
 20
0.0
 30
0.0
  3
*MODEL_SPACE
  1

  0
ENDBLK
  5
21
330
1F
100
AcDbEntity
  8
0
100
AcDbBlockEnd
  0
BLOCK
  5
1C
330
1B
100
AcDbEntity
 67
     1
  8
0
100
AcDbBlockBegin
  2
*PAPER_SPACE
 70
     0
 10
0.0
 20
0.0
 30
0.0
  3
*PAPER_SPACE
  1

  0
ENDBLK
  5
1D
330
1B
100
AcDbEntity
 67
     1
  8
0
100
AcDbBlockEnd
  0
BLOCK
  5
4F
330
4E
100
AcDbEntity
  8
0
100
AcDbBlockBegin
  2
EX_NORM
 70
     0
 10
0.0
 20
0.0
 30
0.0
  3
EX_NORM
  1

  0
LINE
  5
78
330
4E
100
AcDbEntity
  8
0
  6
CONTINUOUS
 62
     0
100
AcDbLine
 10
0.0
 20
0.0
 30
0.0
 11
-1.0
 21
0.0
 31
0.0
  0
LINE
  5
79
330
4E
100
AcDbEntity
  8
0
  6
CONTINUOUS
 62
     0
100
AcDbLine
 10
0.0
 20
0.0
 30
0.0
 11
-1.0
 21
0.166666667
 31
0.0
  0
LINE
  5
7A
330
4E
100
AcDbEntity
  8
0
  6
CONTINUOUS
 62
     0
100
AcDbLine
 10
0.0
 20
0.0
 30
0.0
 11
-1.0
 21
-0.166666667
 31
0.0
  0
ENDBLK
  5
50
330
4E
100
AcDbEntity
  8
0
100
AcDbBlockEnd
  0
BLOCK
  5
52
330
51
100
AcDbEntity
  8
0
100
AcDbBlockBegin
  2
EX_BNORM
 70
     0
 10
0.0
 20
0.0
 30
0.0
  3
EX_BNORM
  1

  0
LINE
  5
7B
330
51
100
AcDbEntity
  8
0
  6
CONTINUOUS
 62
     0
100
AcDbLine
 10
0.0
 20
0.0
 30
0.0
 11
-1.0
 21
0.0
 31
0.0
  0
LINE
  5
7C
330
51
100
AcDbEntity
  8
0
  6
CONTINUOUS
 62
     0
100
AcDbLine
 10
0.0
 20
0.0
 30
0.0
 11
-1.0
 21
0.166666667
 31
0.0
  0
LINE
  5
7D
330
51
100
AcDbEntity
  8
0
  6
CONTINUOUS
 62
     0
100
AcDbLine
 10
0.0
 20
0.0
 30
0.0
 11
-1.0
 21
-0.166666667
 31
0.0
  0
LINE
  5
7E
330
51
100
AcDbEntity
  8
0
  6
CONTINUOUS
 62
     0
100
AcDbLine
 10
0.0
 20
0.0
 30
0.0
 11
-1.0
 21
0.083333333
 31
0.0
  0
LINE
  5
7F
330
51
100
AcDbEntity
  8
0
  6
CONTINUOUS
 62
     0
100
AcDbLine
 10
0.0
 20
0.0
 30
0.0
 11
-1.0
 21
-0.083333333
 31
0.0
  0
LINE
  5
80
330
51
100
AcDbEntity
  8
0
  6
CONTINUOUS
 62
     0
100
AcDbLine
 10
-1.0
 20
0.166666667
 30
0.0
 11
-1.0
 21
-0.166666667
 31
0.0
  0
ENDBLK
  5
53
330
51
100
AcDbEntity
  8
0
100
AcDbBlockEnd
  0
BLOCK
  5
55
330
54
100
AcDbEntity
  8
0
100
AcDbBlockBegin
  2
EX_BCIR
 70
     0
 10
0.0
 20
0.0
 30
0.0
  3
EX_BCIR
  1

  0
LINE
  5
81
330
54
100
AcDbEntity
  8
0
  6
CONTINUOUS
 62
     0
100
AcDbLine
 10
0.0
 20
0.0
 30
0.0
 11
-1.0
 21
0.0
 31
0.0
  0
CIRCLE
  5
82
330
54
100
AcDbEntity
  8
0
  6
CONTINUOUS
 62
     0
100
AcDbCircle
 10
0.0
 20
0.0
 30
0.0
 40
0.5
  0
CIRCLE
  5
83
330
54
100
AcDbEntity
  8
0
  6
CONTINUOUS
 62
     0
100
AcDbCircle
 10
0.0
 20
0.0
 30
0.0
 40
0.25
  0
ENDBLK
  5
56
330
54
100
AcDbEntity
  8
0
100
AcDbBlockEnd
  0
BLOCK
  5
58
330
57
100
AcDbEntity
  8
0
100
AcDbBlockBegin
  2
EX_RCIVIL
 70
     0
 10
0.0
 20
0.0
 30
0.0
  3
EX_RCIVIL
  1

  0
LINE
  5
84
330
57
100
AcDbEntity
  8
0
  6
CONTINUOUS
 62
     0
100
AcDbLine
 10
0.0
 20
0.0
 30
0.0
 11
-1.0
 21
0.0
 31
0.0
  0
LINE
  5
85
330
57
100
AcDbEntity
  8
0
  6
CONTINUOUS
 62
     0
100
AcDbLine
 10
-1.0
 20
-0.25
 30
0.0
 11
0.0
 21
-0.25
 31
0.0
  0
LINE
  5
86
330
57
100
AcDbEntity
  8
0
  6
CONTINUOUS
 62
     0
100
AcDbLine
 10
-1.0
 20
-0.125
 30
0.0
 11
0.0
 21
-0.125
 31
0.0
  0
ENDBLK
  5
59
330
57
100
AcDbEntity
  8
0
100
AcDbBlockEnd
  0
BLOCK
  5
5B
330
5A
100
AcDbEntity
  8
0
100
AcDbBlockBegin
  2
EX_SLANT
 70
     0
 10
0.0
 20
0.0
 30
0.0
  3
EX_SLANT
  1

  0
LINE
  5
87
330
5A
100
AcDbEntity
  8
0
  6
CONTINUOUS
 62
     0
100
AcDbLine
 10
0.0
 20
0.0
 30
0.0
 11
-1.0
 21
0.0
 31
0.0
  0
LINE
  5
88
330
5A
100
AcDbEntity
  8
0
  6
CONTINUOUS
 62
     0
100
AcDbLine
 10
0.707106781
 20
0.707106781
 30
0.0
 11
-0.707106781
 21
-0.707106781
 31
0.0
  0
ENDBLK
  5
5C
330
5A
100
AcDbEntity
  8
0
100
AcDbBlockEnd
  0
BLOCK
  5
5E
330
5D
100
AcDbEntity
  8
0
100
AcDbBlockBegin
  2
EX_NONE
 70
     0
 10
0.0
 20
0.0
 30
0.0
  3
EX_NONE
  1

  0
LINE
  5
89
330
5D
100
AcDbEntity
  8
0
  6
CONTINUOUS
 62
     0
100
AcDbLine
 10
0.0
 20
0.0
 30
0.0
 11
-1.0
 21
0.0
 31
0.0
  0
ENDBLK
  5
5F
330
5D
100
AcDbEntity
  8
0
100
AcDbBlockEnd
  0
BLOCK
  5
61
330
60
100
AcDbEntity
  8
0
100
AcDbBlockBegin
  2
EX_CIVIL
 70
     0
 10
0.0
 20
0.0
 30
0.0
  3
EX_CIVIL
  1

  0
LINE
  5
8A
330
60
100
AcDbEntity
  8
0
  6
CONTINUOUS
 62
     0
100
AcDbLine
 10
0.0
 20
0.0
 30
0.0
 11
-1.0
 21
0.0
 31
0.0
  0
LINE
  5
8B
330
60
100
AcDbEntity
  8
0
  6
CONTINUOUS
 62
     0
100
AcDbLine
 10
-1.0
 20
0.25
 30
0.0
 11
0.0
 21
0.25
 31
0.0
  0
LINE
  5
8C
330
60
100
AcDbEntity
  8
0
  6
CONTINUOUS
 62
     0
100
AcDbLine
 10
-1.0
 20
0.125
 30
0.0
 11
0.0
 21
0.125
 31
0.0
  0
ENDBLK
  5
62
330
60
100
AcDbEntity
  8
0
100
AcDbBlockEnd
  0
BLOCK
  5
64
330
63
100
AcDbEntity
  8
0
100
AcDbBlockBegin
  2
EX_WCIR
 70
     0
 10
0.0
 20
0.0
 30
0.0
  3
EX_WCIR
  1

  0
LINE
  5
8D
330
63
100
AcDbEntity
  8
0
  6
CONTINUOUS
 62
     0
100
AcDbLine
 10
0.0
 20
0.0
 30
0.0
 11
-1.0
 21
0.0
 31
0.0
  0
CIRCLE
  5
8E
330
63
100
AcDbEntity
  8
0
  6
CONTINUOUS
 62
     0
100
AcDbCircle
 10
0.0
 20
0.0
 30
0.0
 40
0.5
  0
ENDBLK
  5
65
330
63
100
AcDbEntity
  8
0
100
AcDbBlockEnd
  0
BLOCK
  5
67
330
66
100
AcDbEntity
  8
0
100
AcDbBlockBegin
  2
EX_WCIR2
 70
     0
 10
0.0
 20
0.0
 30
0.0
  3
EX_WCIR2
  1

  0
LINE
  5
8F
330
66
100
AcDbEntity
  8
0
  6
CONTINUOUS
 62
     0
100
AcDbLine
 10
-0.5
 20
0.0
 30
0.0
 11
-1.0
 21
0.0
 31
0.0
  0
CIRCLE
  5
90
330
66
100
AcDbEntity
  8
0
  6
CONTINUOUS
 62
     0
100
AcDbCircle
 10
0.0
 20
0.0
 30
0.0
 40
0.5
  0
ENDBLK
  5
68
330
66
100
AcDbEntity
  8
0
100
AcDbBlockEnd
  0
BLOCK
  5
6A
330
69
100
AcDbEntity
  8
0
100
AcDbBlockBegin
  2
EX_WNORM
 70
     0
 10
0.0
 20
0.0
 30
0.0
  3
EX_WNORM
  1

  0
LINE
  5
91
330
69
100
AcDbEntity
  8
0
  6
CONTINUOUS
 62
     0
100
AcDbLine
 10
-1.0
 20
0.0
 30
0.0
 11
-1.0
 21
0.0
 31
0.0
  0
LINE
  5
92
330
69
100
AcDbEntity
  8
0
  6
CONTINUOUS
 62
     0
100
AcDbLine
 10
0.0
 20
0.0
 30
0.0
 11
-1.0
 21
0.166666667
 31
0.0
  0
LINE
  5
93
330
69
100
AcDbEntity
  8
0
  6
CONTINUOUS
 62
     0
100
AcDbLine
 10
0.0
 20
0.0
 30
0.0
 11
-1.0
 21
-0.166666667
 31
0.0
  0
LINE
  5
94
330
69
100
AcDbEntity
  8
0
  6
CONTINUOUS
 62
     0
100
AcDbLine
 10
-1.0
 20
0.166666667
 30
0.0
 11
-1.0
 21
-0.166666667
 31
0.0
  0
ENDBLK
  5
6B
330
69
100
AcDbEntity
  8
0
100
AcDbBlockEnd
  0
BLOCK
  5
6D
330
6C
100
AcDbEntity
  8
0
100
AcDbBlockBegin
  2
EX_NNORM
 70
     0
 10
0.0
 20
0.0
 30
0.0
  3
EX_NNORM
  1

  0
LINE
  5
95
330
6C
100
AcDbEntity
  8
0
  6
CONTINUOUS
 62
     0
100
AcDbLine
 10
0.0
 20
0.0
 30
0.0
 11
-1.0
 21
0.0
 31
0.0
  0
LINE
  5
96
330
6C
100
AcDbEntity
  8
0
  6
CONTINUOUS
 62
     0
100
AcDbLine
 10
0.0
 20
0.0
 30
0.0
 11
-1.0
 21
0.166666667
 31
0.0
  0
LINE
  5
97
330
6C
100
AcDbEntity
  8
0
  6
CONTINUOUS
 62
     0
100
AcDbLine
 10
0.0
 20
0.0
 30
0.0
 11
-1.0
 21
-0.166666667
 31
0.0
  0
LINE
  5
98
330
6C
100
AcDbEntity
  8
0
  6
CONTINUOUS
 62
     0
100
AcDbLine
 10
-1.0
 20
0.166666667
 30
0.0
 11
-1.0
 21
-0.166666667
 31
0.0
  0
ENDBLK
  5
6E
330
6C
100
AcDbEntity
  8
0
100
AcDbBlockEnd
  0
BLOCK
  5
70
330
6F
100
AcDbEntity
  8
0
100
AcDbBlockBegin
  2
EX_BBOX
 70
     0
 10
0.0
 20
0.0
 30
0.0
  3
EX_BBOX
  1

  0
LINE
  5
99
330
6F
100
AcDbEntity
  8
0
  6
CONTINUOUS
 62
     0
100
AcDbLine
 10
0.0
 20
0.0
 30
0.0
 11
-1.0
 21
0.0
 31
0.0
  0
LINE
  5
9A
330
6F
100
AcDbEntity
  8
0
  6
CONTINUOUS
 62
     0
100
AcDbLine
 10
-0.5
 20
0.5
 30
0.0
 11
0.5
 21
0.5
 31
0.0
  0
LINE
  5
9B
330
6F
100
AcDbEntity
  8
0
  6
CONTINUOUS
 62
     0
100
AcDbLine
 10
0.5
 20
0.5
 30
0.0
 11
0.5
 21
-0.5
 31
0.0
  0
LINE
  5
9C
330
6F
100
AcDbEntity
  8
0
  6
CONTINUOUS
 62
     0
100
AcDbLine
 10
0.5
 20
-0.5
 30
0.0
 11
-0.5
 21
-0.5
 31
0.0
  0
LINE
  5
9D
330
6F
100
AcDbEntity
  8
0
  6
CONTINUOUS
 62
     0
100
AcDbLine
 10
-0.5
 20
-0.5
 30
0.0
 11
-0.5
 21
0.5
 31
0.0
  0
LINE
  5
9E
330
6F
100
AcDbEntity
  8
0
  6
CONTINUOUS
 62
     0
100
AcDbLine
 10
-0.25
 20
0.25
 30
0.0
 11
0.25
 21
0.25
 31
0.0
  0
LINE
  5
9F
330
6F
100
AcDbEntity
  8
0
  6
CONTINUOUS
 62
     0
100
AcDbLine
 10
0.25
 20
0.25
 30
0.0
 11
0.25
 21
-0.25
 31
0.0
  0
LINE
  5
A0
330
6F
100
AcDbEntity
  8
0
  6
CONTINUOUS
 62
     0
100
AcDbLine
 10
0.25
 20
-0.25
 30
0.0
 11
-0.25
 21
-0.25
 31
0.0
  0
LINE
  5
A1
330
6F
100
AcDbEntity
  8
0
  6
CONTINUOUS
 62
     0
100
AcDbLine
 10
-0.25
 20
-0.25
 30
0.0
 11
-0.25
 21
0.25
 31
0.0
  0
ENDBLK
  5
71
330
6F
100
AcDbEntity
  8
0
100
AcDbBlockEnd
  0
BLOCK
  5
73
330
72
100
AcDbEntity
  8
0
100
AcDbBlockBegin
  2
EX_WBOX
 70
     0
 10
0.0
 20
0.0
 30
0.0
  3
EX_WBOX
  1

  0
LINE
  5
A2
330
72
100
AcDbEntity
  8
0
  6
CONTINUOUS
 62
     0
100
AcDbLine
 10
-0.5
 20
0.0
 30
0.0
 11
-1.0
 21
0.0
 31
0.0
  0
LINE
  5
A3
330
72
100
AcDbEntity
  8
0
  6
CONTINUOUS
 62
     0
100
AcDbLine
 10
-0.5
 20
0.5
 30
0.0
 11
0.5
 21
0.5
 31
0.0
  0
LINE
  5
A4
330
72
100
AcDbEntity
  8
0
  6
CONTINUOUS
 62
     0
100
AcDbLine
 10
0.5
 20
0.5
 30
0.0
 11
0.5
 21
-0.5
 31
0.0
  0
LINE
  5
A5
330
72
100
AcDbEntity
  8
0
  6
CONTINUOUS
 62
     0
100
AcDbLine
 10
0.5
 20
-0.5
 30
0.0
 11
-0.5
 21
-0.5
 31
0.0
  0
LINE
  5
A6
330
72
100
AcDbEntity
  8
0
  6
CONTINUOUS
 62
     0
100
AcDbLine
 10
-0.5
 20
-0.5
 30
0.0
 11
-0.5
 21
0.5
 31
0.0
  0
ENDBLK
  5
74
330
72
100
AcDbEntity
  8
0
100
AcDbBlockEnd
  0
BLOCK
  5
76
330
75
100
AcDbEntity
  8
0
100
AcDbBlockBegin
  2
EX_INTEGRAL
 70
     0
 10
0.0
 20
0.0
 30
0.0
  3
EX_INTEGRAL
  1

  0
LINE
  5
A7
330
75
100
AcDbEntity
  8
0
  6
CONTINUOUS
 62
     0
100
AcDbLine
 10
0.0
 20
0.0
 30
0.0
 11
-1.0
 21
0.0
 31
0.0
  0
ARC
  5
A8
330
75
100
AcDbEntity
  8
0
  6
CONTINUOUS
 62
     0
100
AcDbCircle
 10
0.542115
 20
0.164992
 30
0.0
 40
0.56667
100
AcDbArc
 50
73.07249033629006
 51
196.9275130221199
  0
ARC
  5
A9
330
75
100
AcDbEntity
  8
0
  6
CONTINUOUS
 62
     0
100
AcDbCircle
 10
-0.542115
 20
-0.164992
 30
0.0
 40
0.56667
100
AcDbArc
 50
253.0724869220464
 51
16.9275130559125
  0
ENDBLK
  5
77
330
75
100
AcDbEntity
  8
0
100
AcDbBlockEnd
  0
BLOCK
  5
3D6
330
3D5
100
AcDbEntity
  8
0
100
AcDbBlockBegin
  2
*D15
 70
     1
 10
0.0
 20
0.0
 30
0.0
  3
*D15
  1

  0
LINE
  5
3D8
330
3D5
100
AcDbEntity
  8
寸法
  6
CONTINUOUS
 62
     3
100
AcDbLine
 10
555.00000000002
 20
1824.000000123204
 30
0.0
 11
555.00000000002
 21
1546.00000912878
 31
0.0
  0
LINE
  5
3D9
330
3D5
100
AcDbEntity
  8
寸法
  6
CONTINUOUS
 62
     3
100
AcDbLine
 10
1255.00000000006
 20
1824.000000123204
 30
0.0
 11
1255.00000000006
 21
1546.00000912878
 31
0.0
  0
LINE
  5
3DA
330
3D5
100
AcDbEntity
  8
寸法
  6
CONTINUOUS
 62
     3
100
AcDbLine
 10
585.00000000002
 20
1570.534008094997
 30
0.0
 11
1225.00000000006
 21
1570.534008094997
 31
0.0
  0
INSERT
  5
3DB
330
3D5
100
AcDbEntity
  8
寸法
 62
     3
100
AcDbBlockReference
  2
EX_NORM
 10
555.00000000002
 20
1570.534008094997
 30
0.0
 41
30.0
 42
30.0
 43
30.0
 50
180.0
  0
INSERT
  5
3DC
330
3D5
100
AcDbEntity
  8
寸法
 62
     3
100
AcDbBlockReference
  2
EX_NORM
 10
1255.00000000006
 20
1570.534008094997
 30
0.0
 41
30.0
 42
30.0
 43
30.0
  0
MTEXT
  5
3DD
330
3D5
100
AcDbEntity
  8
寸法
 62
     2
100
AcDbMText
 10
905.0000000000401
 20
1594.034008035392
 30
0.0
 40
40.0
 41
0.0
 71
     5
 72
     1
  1
700
  7
EXCADDIM1
  0
POINT
  5
3DE
330
3D5
100
AcDbEntity
  8
DEFPOINTS
 62
     0
100
AcDbPoint
 10
555.00000000002
 20
1831.000000003994
 30
0.0
  0
POINT
  5
3DF
330
3D5
100
AcDbEntity
  8
DEFPOINTS
 62
     0
100
AcDbPoint
 10
1255.00000000006
 20
1831.000000003994
 30
0.0
  0
POINT
  5
3E0
330
3D5
100
AcDbEntity
  8
DEFPOINTS
 62
     0
100
AcDbPoint
 10
1255.00000000006
 20
1570.534008094997
 30
0.0
  0
ENDBLK
  5
3D7
330
3D5
100
AcDbEntity
  8
0
100
AcDbBlockEnd
  0
BLOCK
  5
3E3
330
3E2
100
AcDbEntity
  8
0
100
AcDbBlockBegin
  2
*D16
 70
     1
 10
0.0
 20
0.0
 30
0.0
  3
*D16
  1

  0
LINE
  5
3E5
330
3E2
100
AcDbEntity
  8
寸法
  6
CONTINUOUS
 62
     3
100
AcDbLine
 10
725.00000000002
 20
1824.000000123204
 30
0.0
 11
725.00000000002
 21
1657.534008094997
 31
0.0
  0
LINE
  5
3E6
330
3E2
100
AcDbEntity
  8
寸法
  6
CONTINUOUS
 62
     3
100
AcDbLine
 10
1225.00000000006
 20
1667.534008094997
 30
0.0
 11
755.00000000002
 21
1667.534008094997
 31
0.0
  0
INSERT
  5
3E7
330
3E2
100
AcDbEntity
  8
寸法
 62
     3
100
AcDbBlockReference
  2
EX_NORM
 10
1255.00000000006
 20
1667.534008094997
 30
0.0
 41
30.0
 42
30.0
 43
30.0
  0
INSERT
  5
3E8
330
3E2
100
AcDbEntity
  8
寸法
 62
     3
100
AcDbBlockReference
  2
EX_NORM
 10
725.00000000002
 20
1667.534008094997
 30
0.0
 41
30.0
 42
30.0
 43
30.0
 50
180.0
  0
MTEXT
  5
3E9
330
3E2
100
AcDbEntity
  8
寸法
 62
     2
100
AcDbMText
 10
990.0000000000402
 20
1691.034008035392
 30
0.0
 40
40.0
 41
0.0
 71
     5
 72
     1
  1
530
  7
EXCADDIM1
  0
POINT
  5
3EA
330
3E2
100
AcDbEntity
  8
DEFPOINTS
 62
     0
100
AcDbPoint
 10
1255.00000000006
 20
1831.000000002001
 30
0.0
  0
POINT
  5
3EB
330
3E2
100
AcDbEntity
  8
DEFPOINTS
 62
     0
100
AcDbPoint
 10
725.00000000002
 20
1831.000000003994
 30
0.0
  0
POINT
  5
3EC
330
3E2
100
AcDbEntity
  8
DEFPOINTS
 62
     0
100
AcDbPoint
 10
725.00000000002
 20
1667.534008094997
 30
0.0
  0
ENDBLK
  5
3E4
330
3E2
100
AcDbEntity
  8
0
100
AcDbBlockEnd
  0
BLOCK
  5
3EF
330
3EE
100
AcDbEntity
  8
0
100
AcDbBlockBegin
  2
*D17
 70
     1
 10
0.0
 20
0.0
 30
0.0
  3
*D17
  1

  0
LINE
  5
3F1
330
3EE
100
AcDbEntity
  8
寸法
  6
CONTINUOUS
 62
     3
100
AcDbLine
 10
542.3528222449393
 20
1831.0000000035
 30
0.0
 11
485.0
 21
1831.0000000035
 31
0.0
  0
LINE
  5
3F2
330
3EE
100
AcDbEntity
  8
寸法
  6
CONTINUOUS
 62
     3
100
AcDbLine
 10
538.0000001191893
 20
1761.0000000035
 30
0.0
 11
485.0
 21
1761.0000000035
 31
0.0
  0
LINE
  5
3F3
330
3EE
100
AcDbEntity
  8
寸法
  6
CONTINUOUS
 62
     3
100
AcDbLine
 10
495.0
 20
1801.0000000035
 30
0.0
 11
495.0
 21
1791.0000000035
 31
0.0
  0
INSERT
  5
3F4
330
3EE
100
AcDbEntity
  8
寸法
 62
     3
100
AcDbBlockReference
  2
EX_NORM
 10
495.0
 20
1831.0000000035
 30
0.0
 41
30.0
 42
30.0
 43
30.0
 50
90.0
  0
INSERT
  5
3F5
330
3EE
100
AcDbEntity
  8
寸法
 62
     3
100
AcDbBlockReference
  2
EX_NORM
 10
495.0
 20
1761.0000000035
 30
0.0
 41
30.0
 42
30.0
 43
30.0
 50
270.0
  0
MTEXT
  5
3F6
330
3EE
100
AcDbEntity
  8
寸法
 62
     2
100
AcDbMText
 10
471.5000000596051
 20
1666.0000000035
 30
0.0
 40
40.0
 41
0.0
 71
     5
 72
     1
  1
（70）
  7
EXCADDIM1
 11
0.0
 21
1.0
 31
0.0
  0
POINT
  5
3F7
330
3EE
100
AcDbEntity
  8
DEFPOINTS
 62
     0
100
AcDbPoint
 10
549.35282212573
 20
1831.0000000035
 30
0.0
  0
POINT
  5
3F8
330
3EE
100
AcDbEntity
  8
DEFPOINTS
 62
     0
100
AcDbPoint
 10
544.99999999998
 20
1761.0000000035
 30
0.0
  0
POINT
  5
3F9
330
3EE
100
AcDbEntity
  8
DEFPOINTS
 62
     0
100
AcDbPoint
 10
495.0
 20
1761.0000000035
 30
0.0
  0
ENDBLK
  5
3F0
330
3EE
100
AcDbEntity
  8
0
100
AcDbBlockEnd
  0
BLOCK
  5
3FC
330
3FB
100
AcDbEntity
  8
0
100
AcDbBlockBegin
  2
*D18
 70
     1
 10
0.0
 20
0.0
 30
0.0
  3
*D18
  1

  0
LINE
  5
3FE
330
3FB
100
AcDbEntity
  8
寸法
  6
CONTINUOUS
 62
     3
100
AcDbLine
 10
489.0000102216391
 20
1791.000000003994
 30
0.0
 11
418.8813148848604
 21
1791.000000003994
 31
0.0
  0
LINE
  5
3FF
330
3FB
100
AcDbEntity
  8
寸法
  6
CONTINUOUS
 62
     3
100
AcDbLine
 10
489.1934029617296
 20
1871.000000003994
 30
0.0
 11
418.8813148848604
 21
1871.000000003994
 31
0.0
  0
LINE
  5
400
330
3FB
100
AcDbEntity
  8
寸法
  6
CONTINUOUS
 62
     3
100
AcDbLine
 10
428.8813148848604
 20
1821.000000003994
 30
0.0
 11
428.8813148848604
 21
1841.000000003994
 31
0.0
  0
INSERT
  5
401
330
3FB
100
AcDbEntity
  8
寸法
 62
     3
100
AcDbBlockReference
  2
EX_NORM
 10
428.8813148848604
 20
1791.000000003994
 30
0.0
 41
30.0
 42
30.0
 43
30.0
 50
270.0
  0
INSERT
  5
402
330
3FB
100
AcDbEntity
  8
寸法
 62
     3
100
AcDbBlockReference
  2
EX_NORM
 10
428.8813148848604
 20
1871.000000003994
 30
0.0
 41
30.0
 42
30.0
 43
30.0
 50
90.0
  0
MTEXT
  5
403
330
3FB
100
AcDbEntity
  8
寸法
 62
     2
100
AcDbMText
 10
405.3813149444651
 20
1831.000000003994
 30
0.0
 40
40.0
 41
0.0
 71
     5
 72
     1
  1
80
  7
EXCADDIM1
 11
0.0
 21
1.0
 31
0.0
  0
POINT
  5
404
330
3FB
100
AcDbEntity
  8
DEFPOINTS
 62
     0
100
AcDbPoint
 10
539.6030089551596
 20
1791.000000003994
 30
0.0
  0
POINT
  5
405
330
3FB
100
AcDbEntity
  8
DEFPOINTS
 62
     0
100
AcDbPoint
 10
539.7964016952501
 20
1871.000000003994
 30
0.0
  0
POINT
  5
406
330
3FB
100
AcDbEntity
  8
DEFPOINTS
 62
     0
100
AcDbPoint
 10
428.8813148848604
 20
1871.000000003994
 30
0.0
  0
ENDBLK
  5
3FD
330
3FB
100
AcDbEntity
  8
0
100
AcDbBlockEnd
  0
BLOCK
  5
409
330
408
100
AcDbEntity
  8
0
100
AcDbBlockBegin
  2
*D19
 70
     1
 10
0.0
 20
0.0
 30
0.0
  3
*D19
  1

  0
LINE
  5
40B
330
408
100
AcDbEntity
  8
寸法
  6
CONTINUOUS
 62
     3
100
AcDbLine
 10
548.0000001192293
 20
1886.0000000289
 30
0.0
 11
350.0
 21
1886.0000000289
 31
0.0
  0
LINE
  5
40C
330
408
100
AcDbEntity
  8
寸法
  6
CONTINUOUS
 62
     3
100
AcDbLine
 10
554.300000119269
 20
1776.0000000289
 30
0.0
 11
350.0
 21
1776.0000000289
 31
0.0
  0
LINE
  5
40D
330
408
100
AcDbEntity
  8
寸法
  6
CONTINUOUS
 62
     3
100
AcDbLine
 10
360.0
 20
1856.0000000289
 30
0.0
 11
360.0
 21
1806.0000000289
 31
0.0
  0
INSERT
  5
40E
330
408
100
AcDbEntity
  8
寸法
 62
     3
100
AcDbBlockReference
  2
EX_NORM
 10
360.0
 20
1886.0000000289
 30
0.0
 41
30.0
 42
30.0
 43
30.0
 50
90.0
  0
INSERT
  5
40F
330
408
100
AcDbEntity
  8
寸法
 62
     3
100
AcDbBlockReference
  2
EX_NORM
 10
360.0
 20
1776.0000000289
 30
0.0
 41
30.0
 42
30.0
 43
30.0
 50
270.0
  0
MTEXT
  5
410
330
408
100
AcDbEntity
  8
寸法
 62
     2
100
AcDbMText
 10
336.5000000596048
 20
1831.0000000289
 30
0.0
 40
40.0
 41
0.0
 71
     5
 72
     1
  1
110
  7
EXCADDIM1
 11
0.0
 21
1.0
 31
0.0
  0
POINT
  5
411
330
408
100
AcDbEntity
  8
DEFPOINTS
 62
     0
100
AcDbPoint
 10
555.00000000002
 20
1886.0000000289
 30
0.0
  0
POINT
  5
412
330
408
100
AcDbEntity
  8
DEFPOINTS
 62
     0
100
AcDbPoint
 10
561.3000000000598
 20
1776.0000000289
 30
0.0
  0
POINT
  5
413
330
408
100
AcDbEntity
  8
DEFPOINTS
 62
     0
100
AcDbPoint
 10
360.0
 20
1776.0000000289
 30
0.0
  0
ENDBLK
  5
40A
330
408
100
AcDbEntity
  8
0
100
AcDbBlockEnd
  0
BLOCK
  5
416
330
415
100
AcDbEntity
  8
0
100
AcDbBlockBegin
  2
*D20
 70
     1
 10
0.0
 20
0.0
 30
0.0
  3
*D20
  1

  0
LINE
  5
418
330
415
100
AcDbEntity
  8
寸法
  6
CONTINUOUS
 62
     3
100
AcDbLine
 10
1251.999999880811
 20
1802.000000002001
 30
0.0
 11
1363.48131488486
 21
1802.000000002001
 31
0.0
  0
LINE
  5
419
330
415
100
AcDbEntity
  8
寸法
  6
CONTINUOUS
 62
     3
100
AcDbLine
 10
1251.999999880811
 20
1860.000000002001
 30
0.0
 11
1363.48131488486
 21
1860.000000002001
 31
0.0
  0
LINE
  5
41A
330
415
100
AcDbEntity
  8
寸法
  6
CONTINUOUS
 62
     3
100
AcDbLine
 10
1353.48131488486
 20
1802.000000002001
 30
0.0
 11
1353.48131488486
 21
1860.000000002001
 31
0.0
  0
LINE
  5
41B
330
415
100
AcDbEntity
  8
寸法
  6
CONTINUOUS
 62
     3
100
AcDbLine
 10
1353.48131488486
 20
1772.000000002001
 30
0.0
 11
1353.48131488486
 21
1742.000000002001
 31
0.0
  0
LINE
  5
41C
330
415
100
AcDbEntity
  8
寸法
  6
CONTINUOUS
 62
     3
100
AcDbLine
 10
1353.48131488486
 20
1890.000000002001
 30
0.0
 11
1353.48131488486
 21
1920.000000002001
 31
0.0
  0
INSERT
  5
41D
330
415
100
AcDbEntity
  8
寸法
 62
     3
100
AcDbBlockReference
  2
EX_NORM
 10
1353.48131488486
 20
1802.000000002001
 30
0.0
 41
30.0
 42
30.0
 43
30.0
 50
90.0
  0
INSERT
  5
41E
330
415
100
AcDbEntity
  8
寸法
 62
     3
100
AcDbBlockReference
  2
EX_NORM
 10
1353.48131488486
 20
1860.000000002001
 30
0.0
 41
30.0
 42
30.0
 43
30.0
 50
270.0
  0
MTEXT
  5
41F
330
415
100
AcDbEntity
  8
寸法
 62
     2
100
AcDbMText
 10
1329.981314944465
 20
1831.000000002001
 30
0.0
 40
40.0
 41
0.0
 71
     5
 72
     1
  1
58
  7
EXCADDIM1
 11
0.0
 21
1.0
 31
0.0
  0
POINT
  5
420
330
415
100
AcDbEntity
  8
DEFPOINTS
 62
     0
100
AcDbPoint
 10
1245.00000000002
 20
1802.000000002001
 30
0.0
  0
POINT
  5
421
330
415
100
AcDbEntity
  8
DEFPOINTS
 62
     0
100
AcDbPoint
 10
1245.00000000002
 20
1860.000000002001
 30
0.0
  0
POINT
  5
422
330
415
100
AcDbEntity
  8
DEFPOINTS
 62
     0
100
AcDbPoint
 10
1353.48131488486
 20
1860.000000002001
 30
0.0
  0
ENDBLK
  5
417
330
415
100
AcDbEntity
  8
0
100
AcDbBlockEnd
  0
BLOCK
  5
42B
330
42A
100
AcDbEntity
  8
0
100
AcDbBlockBegin
  2
*D21
 70
     1
 10
0.0
 20
0.0
 30
0.0
  3
*D21
  1

  0
LINE
  5
42D
330
42A
100
AcDbEntity
  8
寸法
  6
CONTINUOUS
 62
     3
100
AcDbLine
 10
548.0000001192279
 20
808.19999999987
 30
0.0
 11
477.2097595590171
 21
808.19999999987
 31
0.0
  0
LINE
  5
42E
330
42A
100
AcDbEntity
  8
寸法
  6
CONTINUOUS
 62
     3
100
AcDbLine
 10
548.0000001192279
 20
683.19999999987
 30
0.0
 11
477.2097595590171
 21
683.19999999987
 31
0.0
  0
LINE
  5
42F
330
42A
100
AcDbEntity
  8
寸法
  6
CONTINUOUS
 62
     3
100
AcDbLine
 10
487.2097595590171
 20
778.19999999987
 30
0.0
 11
487.2097595590171
 21
713.19999999987
 31
0.0
  0
INSERT
  5
430
330
42A
100
AcDbEntity
  8
寸法
 62
     3
100
AcDbBlockReference
  2
EX_NORM
 10
487.2097595590171
 20
808.19999999987
 30
0.0
 41
30.0
 42
30.0
 43
30.0
 50
90.0
  0
INSERT
  5
431
330
42A
100
AcDbEntity
  8
寸法
 62
     3
100
AcDbBlockReference
  2
EX_NORM
 10
487.2097595590171
 20
683.19999999987
 30
0.0
 41
30.0
 42
30.0
 43
30.0
 50
270.0
  0
MTEXT
  5
432
330
42A
100
AcDbEntity
  8
寸法
 62
     2
100
AcDbMText
 10
463.7097596186218
 20
745.69999999987
 30
0.0
 40
40.0
 41
0.0
 71
     5
 72
     1
  1
125
  7
EXCADDIM1
 11
0.0
 21
1.0
 31
0.0
  0
POINT
  5
433
330
42A
100
AcDbEntity
  8
DEFPOINTS
 62
     0
100
AcDbPoint
 10
555.0000000000186
 20
808.19999999987
 30
0.0
  0
POINT
  5
434
330
42A
100
AcDbEntity
  8
DEFPOINTS
 62
     0
100
AcDbPoint
 10
555.0000000000186
 20
683.19999999987
 30
0.0
  0
POINT
  5
435
330
42A
100
AcDbEntity
  8
DEFPOINTS
 62
     0
100
AcDbPoint
 10
487.2097595590171
 20
683.19999999987
 30
0.0
  0
ENDBLK
  5
42C
330
42A
100
AcDbEntity
  8
0
100
AcDbBlockEnd
  0
BLOCK
  5
438
330
437
100
AcDbEntity
  8
0
100
AcDbBlockBegin
  2
*D22
 70
     1
 10
0.0
 20
0.0
 30
0.0
  3
*D22
  1

  0
LINE
  5
43A
330
437
100
AcDbEntity
  8
寸法
  6
CONTINUOUS
 62
     3
100
AcDbLine
 10
548.0000001192279
 20
822.9999999999698
 30
0.0
 11
415.2097595590206
 21
822.9999999999698
 31
0.0
  0
LINE
  5
43B
330
437
100
AcDbEntity
  8
寸法
  6
CONTINUOUS
 62
     3
100
AcDbLine
 10
548.0000001192279
 20
642.9999999999698
 30
0.0
 11
415.2097595590206
 21
642.9999999999698
 31
0.0
  0
LINE
  5
43C
330
437
100
AcDbEntity
  8
寸法
  6
CONTINUOUS
 62
     3
100
AcDbLine
 10
425.2097595590206
 20
792.9999999999698
 30
0.0
 11
425.2097595590206
 21
672.9999999999698
 31
0.0
  0
INSERT
  5
43D
330
437
100
AcDbEntity
  8
寸法
 62
     3
100
AcDbBlockReference
  2
EX_NORM
 10
425.2097595590206
 20
822.9999999999698
 30
0.0
 41
30.0
 42
30.0
 43
30.0
 50
90.0
  0
INSERT
  5
43E
330
437
100
AcDbEntity
  8
寸法
 62
     3
100
AcDbBlockReference
  2
EX_NORM
 10
425.2097595590206
 20
642.9999999999698
 30
0.0
 41
30.0
 42
30.0
 43
30.0
 50
270.0
  0
MTEXT
  5
43F
330
437
100
AcDbEntity
  8
寸法
 62
     2
100
AcDbMText
 10
401.7097596186253
 20
732.9999999999698
 30
0.0
 40
40.0
 41
0.0
 71
     5
 72
     1
  1
180
  7
EXCADDIM1
 11
0.0
 21
1.0
 31
0.0
  0
POINT
  5
440
330
437
100
AcDbEntity
  8
DEFPOINTS
 62
     0
100
AcDbPoint
 10
555.0000000000186
 20
822.9999999999698
 30
0.0
  0
POINT
  5
441
330
437
100
AcDbEntity
  8
DEFPOINTS
 62
     0
100
AcDbPoint
 10
555.0000000000186
 20
642.9999999999698
 30
0.0
  0
POINT
  5
442
330
437
100
AcDbEntity
  8
DEFPOINTS
 62
     0
100
AcDbPoint
 10
425.2097595590206
 20
642.9999999999698
 30
0.0
  0
ENDBLK
  5
439
330
437
100
AcDbEntity
  8
0
100
AcDbBlockEnd
  0
BLOCK
  5
445
330
444
100
AcDbEntity
  8
0
100
AcDbBlockBegin
  2
*D23
 70
     1
 10
0.0
 20
0.0
 30
0.0
  3
*D23
  1

  0
LINE
  5
447
330
444
100
AcDbEntity
  8
寸法
  6
CONTINUOUS
 62
     3
100
AcDbLine
 10
548.0000001191993
 20
921.3499999999999
 30
0.0
 11
477.0
 21
921.3499999999999
 31
0.0
  0
LINE
  5
448
330
444
100
AcDbEntity
  8
寸法
  6
CONTINUOUS
 62
     3
100
AcDbLine
 10
540.0000001192293
 20
896.3499999999999
 30
0.0
 11
477.0
 21
896.3499999999999
 31
0.0
  0
LINE
  5
449
330
444
100
AcDbEntity
  8
寸法
  6
CONTINUOUS
 62
     3
100
AcDbLine
 10
487.0
 20
921.3499999999999
 30
0.0
 11
487.0
 21
896.3499999999999
 31
0.0
  0
LINE
  5
44A
330
444
100
AcDbEntity
  8
寸法
  6
CONTINUOUS
 62
     3
100
AcDbLine
 10
487.0
 20
951.3499999999999
 30
0.0
 11
487.0
 21
981.3499999999999
 31
0.0
  0
LINE
  5
44B
330
444
100
AcDbEntity
  8
寸法
  6
CONTINUOUS
 62
     3
100
AcDbLine
 10
487.0
 20
866.3499999999999
 30
0.0
 11
487.0
 21
836.3499999999999
 31
0.0
  0
INSERT
  5
44C
330
444
100
AcDbEntity
  8
寸法
 62
     3
100
AcDbBlockReference
  2
EX_NORM
 10
487.0
 20
921.3499999999999
 30
0.0
 41
30.0
 42
30.0
 43
30.0
 50
270.0
  0
INSERT
  5
44D
330
444
100
AcDbEntity
  8
寸法
 62
     3
100
AcDbBlockReference
  2
EX_NORM
 10
487.0
 20
896.3499999999999
 30
0.0
 41
30.0
 42
30.0
 43
30.0
 50
90.0
  0
MTEXT
  5
44E
330
444
100
AcDbEntity
  8
寸法
 62
     2
100
AcDbMText
 10
463.500000059605
 20
986.3499999999997
 30
0.0
 40
40.0
 41
0.0
 71
     5
 72
     1
  1
25
  7
EXCADDIM1
 11
0.0
 21
1.0
 31
0.0
  0
POINT
  5
44F
330
444
100
AcDbEntity
  8
DEFPOINTS
 62
     0
100
AcDbPoint
 10
554.99999999999
 20
921.3499999999999
 30
0.0
  0
POINT
  5
450
330
444
100
AcDbEntity
  8
DEFPOINTS
 62
     0
100
AcDbPoint
 10
547.00000000002
 20
896.3499999999999
 30
0.0
  0
POINT
  5
451
330
444
100
AcDbEntity
  8
DEFPOINTS
 62
     0
100
AcDbPoint
 10
487.0
 20
896.3499999999999
 30
0.0
  0
ENDBLK
  5
446
330
444
100
AcDbEntity
  8
0
100
AcDbBlockEnd
  0
BLOCK
  5
454
330
453
100
AcDbEntity
  8
0
100
AcDbBlockBegin
  2
*D24
 70
     1
 10
0.0
 20
0.0
 30
0.0
  3
*D24
  1

  0
ARC
  5
456
330
453
100
AcDbEntity
  8
寸法
  6
CONTINUOUS
 62
     3
100
AcDbCircle
 10
591.2000000012818
 20
786.1499999999035
 30
0.0
 40
141.9126857505825
100
AcDbArc
 50
12.13485732364508
 51
77.86514267635346
  0
INSERT
  5
457
330
453
100
AcDbEntity
  8
寸法
 62
     3
100
AcDbBlockReference
  2
EX_NORM
 10
733.1126857518643
 20
786.1499999999035
 30
0.0
 41
30.0
 42
30.0
 43
30.0
 50
276.0674286618225
  0
INSERT
  5
458
330
453
100
AcDbEntity
  8
寸法
 62
     3
100
AcDbBlockReference
  2
EX_NORM
 10
591.2000000012854
 20
928.062685750486
 30
0.0
 41
30.0
 42
30.0
 43
30.0
 50
173.932571338176
  0
MTEXT
  5
459
330
453
100
AcDbEntity
  8
寸法
 62
     2
100
AcDbMText
 10
708.164431747651
 20
903.1144317462695
 30
0.0
 40
40.0
 41
0.0
 71
     5
 72
     1
  1
90%%d
  7
EXCADDIM1
 11
0.7071067811865378
 21
-0.7071067811865571
 31
0.0
  0
POINT
  5
45A
330
453
100
AcDbEntity
  8
DEFPOINTS
 62
     0
100
AcDbPoint
 10
591.2000000012818
 20
786.1499999999035
 30
0.0
  0
POINT
  5
45B
330
453
100
AcDbEntity
  8
DEFPOINTS
 62
     0
100
AcDbPoint
 10
733.1126857518616
 20
786.1499999999035
 30
0.0
  0
POINT
  5
45C
330
453
100
AcDbEntity
  8
DEFPOINTS
 62
     0
100
AcDbPoint
 10
591.2000000012854
 20
928.0626857504863
 30
0.0
  0
POINT
  5
45D
330
453
100
AcDbEntity
  8
DEFPOINTS
 62
     0
100
AcDbPoint
 10
714.0999909805648
 20
857.1063428751938
 30
0.0
  0
ENDBLK
  5
455
330
453
100
AcDbEntity
  8
0
100
AcDbBlockEnd
  0
BLOCK
  5
460
330
45F
100
AcDbEntity
  8
0
100
AcDbBlockBegin
  2
*D25
 70
     1
 10
0.0
 20
0.0
 30
0.0
  3
*D25
  1

  0
LINE
  5
462
330
45F
100
AcDbEntity
  8
寸法
  6
CONTINUOUS
 62
     3
100
AcDbLine
 10
1265.999991291567
 20
786.1499999998699
 30
0.0
 11
1386.0
 21
786.1499999998699
 31
0.0
  0
LINE
  5
463
330
45F
100
AcDbEntity
  8
寸法
  6
CONTINUOUS
 62
     3
100
AcDbLine
 10
566.0601997375675
 20
642.9999999999698
 30
0.0
 11
1386.0
 21
642.9999999999696
 31
0.0
  0
LINE
  5
464
330
45F
100
AcDbEntity
  8
寸法
  6
CONTINUOUS
 62
     3
100
AcDbLine
 10
1376.0
 20
756.1499999998699
 30
0.0
 11
1376.0
 21
672.9999999999696
 31
0.0
  0
INSERT
  5
465
330
45F
100
AcDbEntity
  8
寸法
 62
     3
100
AcDbBlockReference
  2
EX_NORM
 10
1376.0
 20
786.1499999998699
 30
0.0
 41
30.0
 42
30.0
 43
30.0
 50
90.0
  0
INSERT
  5
466
330
45F
100
AcDbEntity
  8
寸法
 62
     3
100
AcDbBlockReference
  2
EX_NORM
 10
1376.0
 20
642.9999999999696
 30
0.0
 41
30.0
 42
30.0
 43
30.0
 50
270.0
  0
MTEXT
  5
467
330
45F
100
AcDbEntity
  8
寸法
 62
     2
100
AcDbMText
 10
1352.500000059605
 20
526.5749999999196
 30
0.0
 40
40.0
 41
0.0
 71
     5
 72
     1
  1
143.15
  7
EXCADDIM1
 11
6.722570487708307E-15
 21
1.0
 31
0.0
  0
POINT
  5
468
330
45F
100
AcDbEntity
  8
DEFPOINTS
 62
     0
100
AcDbPoint
 10
1254.939791554018
 20
786.1499999998699
 30
0.0
  0
POINT
  5
469
330
45F
100
AcDbEntity
  8
DEFPOINTS
 62
     0
100
AcDbPoint
 10
555.0000000000186
 20
642.9999999999698
 30
0.0
  0
POINT
  5
46A
330
45F
100
AcDbEntity
  8
DEFPOINTS
 62
     0
100
AcDbPoint
 10
1376.0
 20
642.9999999999696
 30
0.0
  0
ENDBLK
  5
461
330
45F
100
AcDbEntity
  8
0
100
AcDbBlockEnd
  0
BLOCK
  5
471
330
470
100
AcDbEntity
  8
0
100
AcDbBlockBegin
  2
*D26
 70
     1
 10
0.0
 20
0.0
 30
0.0
  3
*D26
  1

  0
LINE
  5
473
330
470
100
AcDbEntity
  8
寸法
  6
CONTINUOUS
 62
     3
100
AcDbLine
 10
1596.099999881284
 20
804.1499999998899
 30
0.0
 11
1760.100000000493
 21
804.1499999998899
 31
0.0
  0
LINE
  5
474
330
470
100
AcDbEntity
  8
寸法
  6
CONTINUOUS
 62
     3
100
AcDbLine
 10
1596.099999881284
 20
759.1499999974898
 30
0.0
 11
1760.100000000493
 21
759.1499999974898
 31
0.0
  0
LINE
  5
475
330
470
100
AcDbEntity
  8
寸法
  6
CONTINUOUS
 62
     3
100
AcDbLine
 10
1750.100000000493
 20
804.1499999998899
 30
0.0
 11
1750.100000000493
 21
759.1499999974898
 31
0.0
  0
LINE
  5
476
330
470
100
AcDbEntity
  8
寸法
  6
CONTINUOUS
 62
     3
100
AcDbLine
 10
1750.100000000493
 20
834.1499999998899
 30
0.0
 11
1750.100000000493
 21
864.1499999998899
 31
0.0
  0
LINE
  5
477
330
470
100
AcDbEntity
  8
寸法
  6
CONTINUOUS
 62
     3
100
AcDbLine
 10
1750.100000000493
 20
729.1499999974898
 30
0.0
 11
1750.100000000493
 21
699.1499999974898
 31
0.0
  0
INSERT
  5
478
330
470
100
AcDbEntity
  8
寸法
 62
     3
100
AcDbBlockReference
  2
EX_NORM
 10
1750.100000000493
 20
804.1499999998899
 30
0.0
 41
30.0
 42
30.0
 43
30.0
 50
270.0
  0
INSERT
  5
479
330
470
100
AcDbEntity
  8
寸法
 62
     3
100
AcDbBlockReference
  2
EX_NORM
 10
1750.100000000493
 20
759.1499999974898
 30
0.0
 41
30.0
 42
30.0
 43
30.0
 50
90.0
  0
MTEXT
  5
47A
330
470
100
AcDbEntity
  8
寸法
 62
     2
100
AcDbMText
 10
1726.600000060098
 20
691.64999999869
 30
0.0
 40
40.0
 41
0.0
 71
     5
 72
     1
  1
45
  7
EXCADDIM1
 11
-3.828568698926949E-16
 21
1.0
 31
0.0
  0
POINT
  5
47B
330
470
100
AcDbEntity
  8
DEFPOINTS
 62
     0
100
AcDbPoint
 10
1589.100000000493
 20
804.1499999998899
 30
0.0
  0
POINT
  5
47C
330
470
100
AcDbEntity
  8
DEFPOINTS
 62
     0
100
AcDbPoint
 10
1589.100000000493
 20
759.1499999974898
 30
0.0
  0
POINT
  5
47D
330
470
100
AcDbEntity
  8
DEFPOINTS
 62
     0
100
AcDbPoint
 10
1750.100000000493
 20
759.1499999974898
 30
0.0
  0
ENDBLK
  5
472
330
470
100
AcDbEntity
  8
0
100
AcDbBlockEnd
  0
ENDSEC
  0
SECTION
  2
ENTITIES
  0
HATCH
  5
AA
330
1F
100
AcDbEntity
  8
0
  6
CONTINUOUS
 62
     3
100
AcDbHatch
 10
0.0
 20
0.0
 30
0.0
210
0.0
220
0.0
230
1.0
  2
SOLID
 70
     1
 71
     1
 91
        1
 92
        3
 72
     1
 73
     1
 93
       10
 10
774.72526573325
 20
173.2169932975405
 42
-0.017362223501556
 10
774.81301573325
 20
226.184243297541
 42
-0.0267627618865285
 10
774.8130157332498
 20
226.1842432975408
 42
0.0737939047395297
 10
787.73251573325
 20
226.23824329754
 42
0.0183878899657109
 10
787.2127657332503
 20
178.4819932975405
 42
-0.1144749489451909
 10
785.1202657332494
 20
168.4244932975405
 42
-0.1929163439413163
 10
775.1640157332505
 20
160.6079932975405
 42
-0.0603888289562337
 10
769.8855157332497
 20
159.2917432975406
 42
0.0
 10
768.6502657332495
 20
163.0514932975406
 42
0.0860918333465722
 10
772.34251573325
 20
165.0157432975406
 42
0.1331843103855141
 97
        0
 75
     0
 76
     1
 98
        1
 10
0.0
 20
0.0
  0
HATCH
  5
AB
330
1F
100
AcDbEntity
  8
0
  6
CONTINUOUS
 62
     3
100
AcDbHatch
 10
0.0
 20
0.0
 30
0.0
210
0.0
220
0.0
230
1.0
  2
SOLID
 70
     1
 71
     1
 91
        1
 92
        3
 72
     1
 73
     1
 93
       16
 10
833.8687657332499
 20
172.1032432975406
 42
-0.0386228372648426
 10
833.8080157332497
 20
204.6449932975407
 42
-0.0398707891902887
 10
839.71426573325
 20
204.6719932975409
 42
-0.1256886216044368
 10
839.4442657332501
 20
199.1504932975407
 42
-0.0367815758121429
 10
839.4442657332501
 20
199.1504932975405
 42
-0.268021535028829
 10
851.3580157332503
 20
205.3334932975407
 42
-0.2571134422124888
 10
859.5052657332493
 20
201.303743297541
 42
-0.1522526366014298
 10
861.5775157332499
 20
194.6009932975406
 42
-0.0158825412051521
 10
861.4290157332496
 20
172.0694932975406
 42
-0.0285251271418421
 10
855.7252657332504
 20
172.0694932975406
 42
-0.0452212723224612
 10
856.0155157332499
 20
192.8864932975409
 42
-0.0315567291532142
 10
854.2470157332497
 20
199.0357432975409
 42
-0.1476272403790709
 10
842.7315157332498
 20
199.9199932975405
 42
-0.3908144705745794
 10
839.4847657332497
 20
191.8402432975405
 42
-0.2046259928850854
 10
839.4847657332497
 20
191.840243297541
 42
0.0
 10
839.9910157332507
 20
172.0492432975408
 42
-0.0304995761723369
 97
        0
 75
     0
 76
     1
 98
        1
 10
0.0
 20
0.0
  0
HATCH
  5
AC
330
1F
100
AcDbEntity
  8
0
  6
CONTINUOUS
 62
     3
100
AcDbHatch
 10
0.0
 20
0.0
 30
0.0
210
0.0
220
0.0
230
1.0
  2
SOLID
 70
     1
 71
     1
 91
        2
 92
        1
 93
        1
 72
     2
 10
876.2855140383351
 20
216.583546687371
 40
3.572334466769884
 50
0.0
 51
360.0
 73
     1
 97
        0
 92
        3
 72
     1
 73
     1
 93
        3
 10
873.0930157332496
 20
204.6989932975407
 42
0.1200283885712921
 10
879.3030157332496
 20
172.0627432975403
 42
-0.0401820615762149
 10
873.0997657332496
 20
172.0424932975407
 42
-0.0237521668114666
 97
        0
 75
     0
 76
     1
 98
        1
 10
0.0
 20
0.0
  0
HATCH
  5
AD
330
1F
100
AcDbEntity
  8
0
  6
CONTINUOUS
 62
     3
100
AcDbHatch
 10
0.0
 20
0.0
 30
0.0
210
0.0
220
0.0
230
1.0
  2
SOLID
 70
     1
 71
     1
 91
        1
 92
        3
 72
     1
 73
     1
 93
       30
 10
907.7340157332493
 20
203.3354932975412
 42
-0.0009362235736497
 10
907.7340157332495
 20
203.3354932975407
 42
0.0681165430304653
 10
906.0970934867311
 20
198.4282432975408
 42
0.0
 10
899.9310157332502
 20
202.6469932975409
 42
-0.302112590907374
 10
899.9310157332502
 20
202.6469932975408
 42
0.0
 10
893.7142657332497
 20
197.8814932975408
 42
-0.3704245237568778
 10
893.7142657332492
 20
197.8814932975405
 42
0.0
 10
894.0382657332501
 20
194.6954932975407
 42
-0.0262822419456939
 10
897.8722657332501
 20
191.6309932975405
 42
-0.180060563604375
 10
903.9877657332501
 20
189.7679932975409
 42
-0.0298130817160724
 10
903.9877657332497
 20
189.7679932975406
 42
-0.3153987453686078
 10
909.6240157332505
 20
183.3217432975408
 42
0.0
 10
909.5902657332505
 20
180.4394932975405
 42
-0.3510306079065168
 10
898.72276573325
 20
171.3269932975408
 42
0.0
 10
895.5502657332493
 20
171.3269932975405
 42
-0.1053356344842436
 10
888.5302657332498
 20
173.3519932975408
 42
0.1188608286962634
 10
889.8127657332498
 20
178.481993297541
 42
0.0
 10
897.50776573325
 20
173.7569932975408
 42
-0.2447573632916039
 10
897.5077657332497
 20
173.7569932975407
 42
0.0
 10
904.9327657332501
 20
178.9544932975409
 42
-0.3734162676407277
 10
904.9327657332503
 20
178.9544932975406
 42
0.0
 10
902.2395157332502
 20
184.1452432975409
 42
-0.261219770190848
 10
895.9552657332493
 20
186.4267432975409
 42
-0.0572747914118363
 10
895.9552657332504
 20
186.4267432975408
 42
-0.1189658875692221
 10
890.9602657332497
 20
189.3562432975409
 42
-0.2005226878639636
 10
888.8677657332494
 20
194.0744932975628
 42
0.0
 10
888.83401573325
 20
195.8632432975405
 42
-0.2622894489606957
 10
894.2002657332504
 20
204.0644932975409
 42
-0.0988461274137808
 10
899.2222657332502
 20
205.2727432975405
 42
0.0
 10
901.0852657332496
 20
205.2727432975409
 42
-0.0920156312561188
 97
        0
 75
     0
 76
     1
 98
        1
 10
0.0
 20
0.0
  0
HATCH
  5
AE
330
1F
100
AcDbEntity
  8
0
  6
CONTINUOUS
 62
     3
100
AcDbHatch
 10
0.0
 20
0.0
 30
0.0
210
0.0
220
0.0
230
1.0
  2
SOLID
 70
     1
 71
     1
 91
        2
 92
        3
 72
     1
 73
     1
 93
       27
 10
800.1727657332497
 20
201.3644932975409
 42
-0.1769427732109284
 10
800.1727657332503
 20
201.364493297541
 42
0.0
 10
800.1727657332503
 20
197.7194932975408
 42
0.0
 10
801.0502657332503
 20
197.7194932975404
 42
-0.207533601427307
 10
806.7474227895701
 20
201.9932359129048
 42
-0.1226604740888933
 10
811.7827657332502
 20
202.1002432975408
 42
-0.3213715781137954
 10
816.9883280222085
 20
195.7106514378476
 42
-0.064704004662446
 10
817.0140157332498
 20
192.3329932975406
 42
-0.257798906330806
 10
815.9542657332504
 20
191.0504932975406
 42
-0.056602577721096
 10
813.6862657332501
 20
190.260743297541
 42
-0.0166741689362636
 10
805.3702657332499
 20
188.6812432975407
 42
0.1186092302783404
 10
799.88251573325
 20
186.0487432975407
 42
0.1699204224386695
 10
797.4930157332501
 20
182.0527432975406
 42
0.1006533494296199
 10
797.2720866795815
 20
178.5853555095727
 42
0.1675695228968024
 10
799.4370157332505
 20
173.9392432975407
 42
0.1376980079804242
 10
803.3722657332495
 20
171.6644932975409
 42
0.0719813663796923
 10
805.1610157332493
 20
171.3674932975408
 42
0.0
 10
807.9015157332503
 20
171.3674932975409
 42
0.1944607457809085
 10
816.9937657332505
 20
176.0452432975407
 42
0.1288538183665954
 10
817.9117657332495
 20
173.7502432975404
 42
0.2098387395261546
 10
820.9087657332503
 20
172.0964932975409
 42
0.0
 10
823.0822657332503
 20
172.0829932975409
 42
0.0945009641609563
 10
826.2210157332498
 20
172.7512432975408
 42
0.0
 10
826.2210157332496
 20
174.3239932975407
 42
-0.2395739894657535
 10
823.4805157332504
 20
174.2969932975405
 42
-0.2502312110031057
 10
822.1305157332497
 20
176.8349932975414
 42
-0.0104343570771765
 10
822.3127657332506
 20
195.7619932975406
 42
0.4051015674140716
 97
        0
 92
        3
 72
     1
 73
     1
 93
        8
 10
817.1355157332498
 20
189.0254932975406
 42
-0.0339435190873666
 10
817.1355157332546
 20
189.0254932975294
 42
-0.0001110072973599
 10
816.8520157332505
 20
178.6844932975405
 42
-0.2253076310552528
 10
809.7645157332499
 20
173.952743297541
 42
0.0
 10
808.0297657332493
 20
173.952743297541
 42
-0.3657967558150132
 10
802.8727657332496
 20
179.4337432975408
 42
0.0
 10
802.8727657332504
 20
181.3912432975409
 42
-0.2530797830369341
 10
806.3557657332502
 20
186.2107432975406
 42
-0.0724473624720066
 97
        0
 75
     0
 76
     1
 98
        1
 10
0.0
 20
0.0
  0
TEXT
  5
B0
330
1F
100
AcDbEntity
  8
0
  6
CONTINUOUS
 62
     2
100
AcDbText
 10
923.0000000000023
 20
166.5000000000003
 30
0.0
 40
33.75
  1
ジャニス工業株式会社
 41
1.025641025641026
  7
EXCADTTF1
 72
     5
 11
1373.000000000002
 21
166.5000000000003
 31
0.0
100
AcDbText
  0
ARC
  5
B1
330
1F
100
AcDbEntity
  8
0
  6
CONTINUOUS
 62
     3
100
AcDbCircle
 10
811.2685324125522
 20
187.6167288926888
 30
0.0
 40
17.66683515327064
100
AcDbArc
 50
88.77000393305703
 51
128.9068631829044
  0
ARC
  5
B2
330
1F
100
AcDbEntity
  8
0
  6
CONTINUOUS
 62
     3
100
AcDbCircle
 10
812.0706272602791
 20
195.0191625973315
 30
0.0
 40
10.2690407511459
100
AcDbArc
 50
4.148222840814693
 51
92.36000944257292
  0
ARC
  5
B3
330
1F
100
AcDbEntity
  8
0
  6
CONTINUOUS
 62
     3
100
AcDbCircle
 10
1275.65013583871
 20
181.9323843931733
 30
0.0
 40
453.5482655865662
100
AcDbArc
 50
178.2526643324597
 51
180.6439560401927
  0
ARC
  5
B4
330
1F
100
AcDbEntity
  8
0
  6
CONTINUOUS
 62
     3
100
AcDbCircle
 10
825.1823989446035
 20
176.8302928780474
 30
0.0
 40
3.05188683107389
100
AcDbArc
 50
179.9117548191414
 51
236.1065985968857
  0
ARC
  5
B5
330
1F
100
AcDbEntity
  8
0
  6
CONTINUOUS
 62
     3
100
AcDbCircle
 10
824.8242078457957
 20
177.006118874109
 30
0.0
 40
3.0240485913648
100
AcDbArc
 50
243.6191685566582
 51
297.5097757939563
  0
LINE
  5
B6
330
1F
100
AcDbEntity
  8
0
  6
CONTINUOUS
 62
     3
100
AcDbLine
 10
826.2210157332498
 20
172.7512432975408
 30
0.0
 11
826.2210157332498
 21
174.3239932975405
 31
0.0
  0
LINE
  5
B7
330
1F
100
AcDbEntity
  8
0
  6
CONTINUOUS
 62
     3
100
AcDbLine
 10
820.9087657332503
 20
172.0964932975409
 30
0.0
 11
823.0822657332499
 21
172.0964932975409
 31
0.0
  0
ARC
  5
B8
330
1F
100
AcDbEntity
  8
0
  6
CONTINUOUS
 62
     3
100
AcDbCircle
 10
822.899589194559
 20
180.6464512823032
 30
0.0
 40
8.56540620020894
100
AcDbArc
 50
271.2220539293239
 51
292.8159509797653
  0
ARC
  5
B9
330
1F
100
AcDbEntity
  8
0
  6
CONTINUOUS
 62
     3
100
AcDbCircle
 10
821.2937735081459
 20
176.336745652863
 30
0.0
 40
4.25769550620398
100
AcDbArc
 50
217.4081478714985
 51
264.8118660441384
  0
ARC
  5
BA
330
1F
100
AcDbEntity
  8
0
  6
CONTINUOUS
 62
     3
100
AcDbCircle
 10
821.8315560558312
 20
176.6492594265731
 30
0.0
 40
4.87535134009722
100
AcDbArc
 50
187.1167640402297
 51
216.4860549324747
  0
ARC
  5
BB
330
1F
100
AcDbEntity
  8
0
  6
CONTINUOUS
 62
     3
100
AcDbCircle
 10
806.6613045867007
 20
184.9534026256828
 30
0.0
 40
13.64239920103932
100
AcDbArc
 50
275.2158792069686
 51
319.2336424873511
  0
LINE
  5
BC
330
1F
100
AcDbEntity
  8
0
  6
CONTINUOUS
 62
     3
100
AcDbLine
 10
805.1610157332493
 20
171.3674932975408
 30
0.0
 11
807.9015157332503
 21
171.3674932975408
 31
0.0
  0
ARC
  5
BD
330
1F
100
AcDbEntity
  8
0
  6
CONTINUOUS
 62
     3
100
AcDbCircle
 10
805.2928130736751
 20
177.6963494387411
 30
0.0
 40
6.330228320917859
100
AcDbArc
 50
252.3384873625213
 51
268.8069976857606
  0
ARC
  5
BE
330
1F
100
AcDbEntity
  8
0
  6
CONTINUOUS
 62
     3
100
AcDbCircle
 10
805.4562953036884
 20
179.8111104772596
 30
0.0
 40
8.408956577563659
100
AcDbArc
 50
224.289750990011
 51
255.6505938786759
  0
ARC
  5
BF
330
1F
100
AcDbEntity
  8
0
  6
CONTINUOUS
 62
     3
100
AcDbCircle
 10
805.0915332915497
 20
179.4015021572864
 30
0.0
 40
7.8619234712629
100
AcDbArc
 50
185.9586126338419
 51
224.0091989319859
  0
ARC
  5
C0
330
1F
100
AcDbEntity
  8
0
  6
CONTINUOUS
 62
     3
100
AcDbCircle
 10
805.907501856999
 20
179.7758712547744
 30
0.0
 40
8.71709372588669
100
AcDbArc
 50
164.8589457925044
 51
187.8495628504518
  0
ARC
  5
C1
330
1F
100
AcDbEntity
  8
0
  6
CONTINUOUS
 62
     3
100
AcDbCircle
 10
804.3972379030146
 20
180.6366332500801
 30
0.0
 40
7.04795370557922
100
AcDbArc
 50
129.8344892359069
 51
168.4089447024628
  0
ARC
  5
C2
330
1F
100
AcDbEntity
  8
0
  6
CONTINUOUS
 62
     3
100
AcDbCircle
 10
808.0970138675781
 20
175.9608481482871
 30
0.0
 40
13.0093661698492
100
AcDbArc
 50
102.0988446293839
 51
129.1556705448828
  0
ARC
  5
C3
330
1F
100
AcDbEntity
  8
0
  6
CONTINUOUS
 62
     3
100
AcDbCircle
 10
785.8530099985785
 20
314.1202029775212
 30
0.0
 40
126.9482409370382
100
AcDbArc
 50
278.8438342053764
 51
282.6649181367123
  0
ARC
  5
C4
330
1F
100
AcDbEntity
  8
0
  6
CONTINUOUS
 62
     3
100
AcDbCircle
 10
811.3433050110893
 20
200.6407362688748
 30
0.0
 40
10.64113335272784
100
AcDbArc
 50
282.7195832898965
 51
295.6781112778079
  0
ARC
  5
C5
330
1F
100
AcDbEntity
  8
0
  6
CONTINUOUS
 62
     3
100
AcDbCircle
 10
815.3230955673342
 20
192.6511332504288
 30
0.0
 40
1.72058828228131
100
AcDbArc
 50
291.5204897073511
 51
349.3445900274031
  0
ARC
  5
C6
330
1F
100
AcDbEntity
  8
0
  6
CONTINUOUS
 62
     3
100
AcDbCircle
 10
804.0053873566563
 20
193.9229870375124
 30
0.0
 40
13.10543751018921
100
AcDbArc
 50
353.0315250986587
 51
7.839947970678348
  0
ARC
  5
C7
330
1F
100
AcDbEntity
  8
0
  6
CONTINUOUS
 62
     3
100
AcDbCircle
 10
809.9283412817687
 20
195.2741886153422
 30
0.0
 40
7.07346538626002
100
AcDbArc
 50
3.537639967999379
 51
74.8013566619203
  0
ARC
  5
C8
330
1F
100
AcDbEntity
  8
0
  6
CONTINUOUS
 62
     3
100
AcDbCircle
 10
809.4799095798305
 20
191.9383830513021
 30
0.0
 40
10.4195273466423
100
AcDbArc
 50
77.23143261361693
 51
105.203415964315
  0
ARC
  5
C9
330
1F
100
AcDbEntity
  8
0
  6
CONTINUOUS
 62
     3
100
AcDbCircle
 10
808.8253617702986
 20
193.2890191857882
 30
0.0
 40
8.94881105176719
100
AcDbArc
 50
103.4267945469744
 51
150.3242613737993
  0
LINE
  5
CA
330
1F
100
AcDbEntity
  8
0
  6
CONTINUOUS
 62
     3
100
AcDbLine
 10
800.1727657332503
 20
201.364493297541
 30
0.0
 11
800.1727657332503
 21
197.7194932975408
 31
0.0
  0
ARC
  5
CB
330
1F
100
AcDbEntity
  8
0
  6
CONTINUOUS
 62
     3
100
AcDbCircle
 10
705.1439565227071
 20
176.7342761922788
 30
0.0
 40
69.67015049800598
100
AcDbArc
 50
353.1274757312911
 51
357.106204490141
  0
ARC
  5
CC
330
1F
100
AcDbEntity
  8
0
  6
CONTINUOUS
 62
     3
100
AcDbCircle
 10
280.3385521229313
 20
200.5197335838841
 30
0.0
 40
495.1400430399008
100
AcDbArc
 50
356.8390243485978
 51
2.971133813187157
  0
ARC
  5
CD
330
1F
100
AcDbEntity
  8
0
  6
CONTINUOUS
 62
     3
100
AcDbCircle
 10
767.0927386496021
 20
170.3407518472915
 30
0.0
 40
7.47769185530633
100
AcDbArc
 50
314.592391474832
 51
344.9374073189123
  0
ARC
  5
CE
330
1F
100
AcDbEntity
  8
0
  6
CONTINUOUS
 62
     3
100
AcDbCircle
 10
764.8347289685438
 20
174.675985944599
 30
0.0
 40
12.23467000390025
100
AcDbArc
 50
288.1715191042997
 51
307.8537826235693
  0
LINE
  5
CF
330
1F
100
AcDbEntity
  8
0
  6
CONTINUOUS
 62
     3
100
AcDbLine
 10
769.8855157332497
 20
159.2917432975406
 30
0.0
 11
768.65026573325
 21
163.0514932975404
 31
0.0
  0
ARC
  5
D0
330
1F
100
AcDbEntity
  8
0
  6
CONTINUOUS
 62
     3
100
AcDbCircle
 10
767.0955749866653
 20
181.7223152915386
 30
0.0
 40
22.60341410821362
100
AcDbArc
 50
277.0901027239701
 51
290.9134154817058
  0
ARC
  5
D1
330
1F
100
AcDbEntity
  8
0
  6
CONTINUOUS
 62
     3
100
AcDbCircle
 10
770.3897327885477
 20
176.938351862683
 30
0.0
 40
17.01394688196115
100
AcDbArc
 50
286.2966123578915
 51
329.973223283839
  0
ARC
  5
D2
330
1F
100
AcDbEntity
  8
0
  6
CONTINUOUS
 62
     3
100
AcDbCircle
 10
764.4899361790613
 20
177.9631356880094
 30
0.0
 40
22.72875263114311
100
AcDbArc
 50
335.1860595856123
 51
1.308075913059364
  0
ARC
  5
D3
330
1F
100
AcDbEntity
  8
0
  6
CONTINUOUS
 62
     3
100
AcDbCircle
 10
1436.542531413434
 20
195.2960360950846
 30
0.0
 40
649.5474244683604
100
AcDbArc
 50
177.2695926307304
 51
181.4833117237826
  0
ARC
  5
D4
330
1F
100
AcDbEntity
  8
0
  6
CONTINUOUS
 62
     3
100
AcDbCircle
 10
781.090820012227
 20
269.7417570522225
 30
0.0
 40
44.00758833490465
100
AcDbArc
 50
261.7986203004403
 51
278.6803384946418
  0
ARC
  5
D5
330
1F
100
AcDbEntity
  8
0
  6
CONTINUOUS
 62
     3
100
AcDbCircle
 10
805.6056099353725
 20
228.7501381160507
 30
0.0
 40
41.36406814694017
100
AcDbArc
 50
278.4088456599976
 51
286.1851416003176
  0
ARC
  5
D6
330
1F
100
AcDbEntity
  8
0
  6
CONTINUOUS
 62
     3
100
AcDbCircle
 10
814.5660651757703
 20
168.8318862667978
 30
0.0
 40
19.22065786155208
100
AcDbArc
 50
98.71271710191789
 51
115.2874718053599
  0
ARC
  5
D7
330
1F
100
AcDbEntity
  8
0
  6
CONTINUOUS
 62
     3
100
AcDbCircle
 10
809.0701866837838
 20
180.5807479047184
 30
0.0
 40
6.25019433457053
100
AcDbArc
 50
115.7403688633493
 51
172.5491744442191
  0
LINE
  5
D8
330
1F
100
AcDbEntity
  8
0
  6
CONTINUOUS
 62
     3
100
AcDbLine
 10
802.8727657332496
 20
181.3912432975405
 30
0.0
 11
802.8727657332496
 21
179.4337432975408
 31
0.0
  0
ARC
  5
D9
330
1F
100
AcDbEntity
  8
0
  6
CONTINUOUS
 62
     3
100
AcDbCircle
 10
808.6959653488736
 20
179.7461380097786
 30
0.0
 40
5.83157304846997
100
AcDbArc
 50
183.0707787095794
 51
263.4402016072427
  0
LINE
  5
DA
330
1F
100
AcDbEntity
  8
0
  6
CONTINUOUS
 62
     3
100
AcDbLine
 10
808.0297657332494
 20
173.952743297541
 30
0.0
 11
809.7645157332499
 21
173.952743297541
 31
0.0
  0
ARC
  5
DB
330
1F
100
AcDbEntity
  8
0
  6
CONTINUOUS
 62
     3
100
AcDbCircle
 10
808.3244690765918
 20
183.7836489530207
 30
0.0
 40
9.935816039979159
100
AcDbArc
 50
278.3335103000368
 51
329.1221464187299
  0
ARC
  5
DC
330
1F
100
AcDbEntity
  8
0
  6
CONTINUOUS
 62
     3
100
AcDbCircle
 10
-22472.01542217735
 20
822.326524558783
 30
0.0
 40
23297.76001260591
100
AcDbArc
 50
358.4169008257799
 51
358.4423418242109
  0
ARC
  5
DD
330
1F
100
AcDbEntity
  8
0
  6
CONTINUOUS
 62
     3
100
AcDbCircle
 10
836.5808780069312
 20
132.5069254511709
 30
0.0
 40
39.68909094418497
100
AcDbArc
 50
85.07099551674689
 51
93.91830029343228
  0
ARC
  5
DE
330
1F
100
AcDbEntity
  8
0
  6
CONTINUOUS
 62
     3
100
AcDbCircle
 10
913.4088578951042
 20
180.9150147009814
 30
0.0
 40
73.95120993114925
100
AcDbArc
 50
179.8977458165987
 51
186.8855675734268
  0
ARC
  5
DF
330
1F
100
AcDbEntity
  8
0
  6
CONTINUOUS
 62
     3
100
AcDbCircle
 10
850.5661722366398
 20
192.0795225138056
 30
0.0
 40
11.08398956318131
100
AcDbArc
 50
134.9787476233347
 51
181.2369872983282
  0
ARC
  5
E0
330
1F
100
AcDbEntity
  8
0
  6
CONTINUOUS
 62
     3
100
AcDbCircle
 10
848.0100145205529
 20
193.2366273138689
 30
0.0
 40
8.51645057047003
100
AcDbArc
 50
42.91644474042847
 51
128.3015542351336
  0
ARC
  5
E1
330
1F
100
AcDbEntity
  8
0
  6
CONTINUOUS
 62
     3
100
AcDbCircle
 10
844.9447404568525
 20
193.0315138821555
 30
0.0
 40
11.07172507744154
100
AcDbArc
 50
359.2495022237244
 51
32.84055016678327
  0
ARC
  5
E2
330
1F
100
AcDbEntity
  8
0
  6
CONTINUOUS
 62
     3
100
AcDbCircle
 10
691.1173378649738
 20
184.7751337882465
 30
0.0
 40
165.0975566668588
100
AcDbArc
 50
355.5862454873798
 51
2.816115806820253
  0
ARC
  5
E3
330
1F
100
AcDbEntity
  8
0
  6
CONTINUOUS
 62
     3
100
AcDbCircle
 10
858.5771407332504
 20
140.6015261922778
 30
0.0
 40
31.59693252126744
100
AcDbArc
 50
84.82155189294139
 51
95.17844810705873
  0
ARC
  5
E4
330
1F
100
AcDbEntity
  8
0
  6
CONTINUOUS
 62
     3
100
AcDbCircle
 10
1024.657633661698
 20
179.9067374739133
 30
0.0
 40
163.4166579853822
100
AcDbArc
 50
176.2131780319488
 51
182.7488833337936
  0
ARC
  5
E5
330
1F
100
AcDbEntity
  8
0
  6
CONTINUOUS
 62
     3
100
AcDbCircle
 10
800.1913601210055
 20
192.3315774812141
 30
0.0
 40
61.42809087866958
100
AcDbArc
 50
358.4775281223095
 51
2.117232414210064
  0
ARC
  5
E6
330
1F
100
AcDbEntity
  8
0
  6
CONTINUOUS
 62
     3
100
AcDbCircle
 10
849.790551534482
 20
194.6285942451527
 30
0.0
 40
11.7869965146059
100
AcDbArc
 50
359.8658335690532
 51
34.49363429411157
  0
ARC
  5
E7
330
1F
100
AcDbEntity
  8
0
  6
CONTINUOUS
 62
     3
100
AcDbCircle
 10
851.7724057413767
 20
195.9204664797994
 30
0.0
 40
9.4221437555554
100
AcDbArc
 50
34.84393737091607
 51
92.5207065423111
  0
ARC
  5
E8
330
1F
100
AcDbEntity
  8
0
  6
CONTINUOUS
 62
     3
100
AcDbCircle
 10
850.7541069002548
 20
191.92759888186
 30
0.0
 40
13.4194899665726
100
AcDbArc
 50
87.42068310381028
 51
147.4361518966862
  0
ARC
  5
E9
330
1F
100
AcDbEntity
  8
0
  6
CONTINUOUS
 62
     3
100
AcDbCircle
 10
877.0574727396161
 20
200.0785681383053
 30
0.0
 40
37.6246550045818
100
AcDbArc
 50
172.9875214416311
 51
181.4134392789641
  0
ARC
  5
EA
330
1F
100
AcDbEntity
  8
0
  6
CONTINUOUS
 62
     3
100
AcDbCircle
 10
836.7082849861237
 20
216.2206879814488
 30
0.0
 40
11.93349358546016
100
AcDbArc
 50
255.9341994177206
 51
284.5896440601899
  0
ARC
  5
EB
330
1F
100
AcDbEntity
  8
0
  6
CONTINUOUS
 62
     3
100
AcDbCircle
 10
630.1176988671591
 20
187.9938058671746
 30
0.0
 40
204.3697806131072
100
AcDbArc
 50
355.5405243117485
 51
4.673398698656258
  0
LINE
  5
EC
330
1F
100
AcDbEntity
  8
0
  6
CONTINUOUS
 62
     3
100
AcDbLine
 10
839.4847657332497
 20
191.840243297541
 30
0.0
 11
839.4847657332497
 21
181.0469932975406
 31
0.0
  0
CIRCLE
  5
ED
330
1F
100
AcDbEntity
  8
0
  6
CONTINUOUS
 62
     3
100
AcDbCircle
 10
876.2855140383351
 20
216.583546687371
 30
0.0
 40
3.57233446676989
  0
ARC
  5
EE
330
1F
100
AcDbEntity
  8
0
  6
CONTINUOUS
 62
     3
100
AcDbCircle
 10
876.1456076027724
 20
217.5332474358078
 30
0.0
 40
13.19228548840207
100
AcDbArc
 50
256.6209501743446
 51
283.9984576255729
  0
ARC
  5
EF
330
1F
100
AcDbEntity
  8
0
  6
CONTINUOUS
 62
     3
100
AcDbCircle
 10
876.4144089371331
 20
106.7980418412333
 30
0.0
 40
65.32859485251088
100
AcDbArc
 50
87.46575055044718
 51
92.90832285102188
  0
ARC
  5
F0
330
1F
100
AcDbEntity
  8
0
  6
CONTINUOUS
 62
     3
100
AcDbCircle
 10
1082.254047179556
 20
188.1881005739388
 30
0.0
 40
203.5906390589
100
AcDbArc
 50
175.3387608397566
 51
184.5428594926176
  0
ARC
  5
F1
330
1F
100
AcDbEntity
  8
0
  6
CONTINUOUS
 62
     3
100
AcDbCircle
 10
651.6900575363866
 20
188.3249792766236
 30
0.0
 40
222.0076085035812
100
AcDbArc
 50
355.7940354718673
 51
4.229650257234378
  0
ARC
  5
F2
330
1F
100
AcDbEntity
  8
0
  6
CONTINUOUS
 62
     3
100
AcDbCircle
 10
1221.644453232814
 20
1015.02974329642
 30
0.0
 40
870.2800228963156
100
AcDbArc
 50
248.6422112053103
 51
248.8567777804232
  0
ARC
  5
F3
330
1F
100
AcDbEntity
  8
0
  6
CONTINUOUS
 62
     3
100
AcDbCircle
 10
900.8542828460565
 20
195.1663038363955
 30
0.0
 40
10.10907867592157
100
AcDbArc
 50
67.66151957087348
 51
88.69073168448988
  0
ARC
  5
F4
330
1F
100
AcDbEntity
  8
0
  6
CONTINUOUS
 62
     3
100
AcDbCircle
 10
899.7711044283903
 20
192.0979097937612
 30
0.0
 40
13.19974865367525
100
AcDbArc
 50
92.38301574576484
 51
114.9635286746436
  0
ARC
  5
F5
330
1F
100
AcDbEntity
  8
0
  6
CONTINUOUS
 62
     3
100
AcDbCircle
 10
898.7963496799608
 20
195.2009291101865
 30
0.0
 40
9.9843256030919
100
AcDbArc
 50
117.4083995939977
 51
176.1964688215695
  0
ARC
  5
F6
330
1F
100
AcDbEntity
  8
0
  6
CONTINUOUS
 62
     3
100
AcDbCircle
 10
895.5599257925996
 20
194.219276907553
 30
0.0
 40
6.693726059056109
100
AcDbArc
 50
181.2393899443581
 51
226.5942921332421
  0
ARC
  5
F7
330
1F
100
AcDbEntity
  8
0
  6
CONTINUOUS
 62
     3
100
AcDbCircle
 10
899.5268145799497
 20
198.2396411006687
 30
0.0
 40
12.34100950779567
100
AcDbArc
 50
226.0402388947521
 51
253.1776672992999
  0
ARC
  5
F8
330
1F
100
AcDbEntity
  8
0
  6
CONTINUOUS
 62
     3
100
AcDbCircle
 10
889.1714891830424
 20
157.9457141755211
 30
0.0
 40
29.27778413972754
100
AcDbArc
 50
63.49050203733571
 51
76.60259219849584
  0
ARC
  5
F9
330
1F
100
AcDbEntity
  8
0
  6
CONTINUOUS
 62
     3
100
AcDbCircle
 10
900.3080045853665
 20
179.9846225433168
 30
0.0
 40
4.58710152219014
100
AcDbArc
 50
6.53892419415897
 51
65.09756080693691
  0
ARC
  5
FA
330
1F
100
AcDbEntity
  8
0
  6
CONTINUOUS
 62
     3
100
AcDbCircle
 10
899.0357777446508
 20
179.7002363757167
 30
0.0
 40
5.943954918766759
100
AcDbArc
 50
270.8867385422408
 51
352.7925382056677
  0
ARC
  5
FB
330
1F
100
AcDbEntity
  8
0
  6
CONTINUOUS
 62
     3
100
AcDbCircle
 10
898.6361043234859
 20
182.6658639777384
 30
0.0
 40
8.98004035462527
100
AcDbArc
 50
207.7689879465537
 51
262.7817283832026
  0
ARC
  5
FC
330
1F
100
AcDbEntity
  8
0
  6
CONTINUOUS
 62
     3
100
AcDbCircle
 10
896.7930054592767
 20
188.8156576811025
 30
0.0
 40
17.5327631578002
100
AcDbArc
 50
241.8829576087176
 51
265.9354096935781
  0
ARC
  5
FD
330
1F
100
AcDbEntity
  8
0
  6
CONTINUOUS
 62
     3
100
AcDbCircle
 10
898.4663886467558
 20
182.6692467118045
 30
0.0
 40
11.34515058180645
100
AcDbArc
 50
271.2948770866743
 51
348.6654156292868
  0
ARC
  5
FE
330
1F
100
AcDbEntity
  8
0
  6
CONTINUOUS
 62
     3
100
AcDbCircle
 10
902.2045721291948
 20
182.5217258531575
 30
0.0
 40
7.462450757296059
100
AcDbArc
 50
6.154262763177246
 51
76.17509904255616
  0
ARC
  5
FF
330
1F
100
AcDbEntity
  8
0
  6
CONTINUOUS
 62
     3
100
AcDbCircle
 10
916.5384669692054
 20
241.9359310503512
 30
0.0
 40
53.65644258516679
100
AcDbArc
 50
249.6420733479936
 51
256.4727051201885
  0
ARC
  5
100
330
1F
100
AcDbEntity
  8
0
  6
CONTINUOUS
 62
     3
100
AcDbCircle
 10
900.0721352387444
 20
198.3138641766612
 30
0.0
 40
7.03563707337184
100
AcDbArc
 50
210.9501336849607
 51
251.7794729821079
  0
ARC
  5
101
330
1F
100
AcDbEntity
  8
0
  6
CONTINUOUS
 62
     3
100
AcDbCircle
 10
907.3031407332627
 20
199.3823182975444
 30
0.0
 40
14.068519372934
100
AcDbArc
 50
193.4375782160214
 51
199.459638038058
  0
ARC
  5
102
330
1F
100
AcDbEntity
  8
0
  6
CONTINUOUS
 62
     3
100
AcDbCircle
 10
899.0350964860528
 20
197.2674994707921
 30
0.0
 40
5.35613931103931
100
AcDbArc
 50
92.11404364449162
 51
173.4175047026091
  0
ARC
  5
103
330
1F
100
AcDbEntity
  8
0
  6
CONTINUOUS
 62
     3
100
AcDbCircle
 10
899.41473391275
 20
196.5429236291669
 30
0.0
 40
6.12586430102253
100
AcDbArc
 50
17.92452211681263
 51
85.16543319077402
  0
LINE
  5
104
330
1F
100
AcDbEntity
  8
0
  6
CONTINUOUS
 62
     3
100
AcDbLine
 10
901.0852657332504
 20
205.2727432975405
 30
0.0
 11
899.2222657332502
 21
205.2727432975405
 31
0.0
  0
LINE
  5
105
330
1F
100
AcDbEntity
  8
0
  6
CONTINUOUS
 62
     3
100
AcDbLine
 10
897.5077657332497
 20
173.7569932975407
 30
0.0
 11
899.1277657332506
 21
173.7569932975407
 31
0.0
  0
LINE
  5
106
330
1F
100
AcDbEntity
  8
0
  6
CONTINUOUS
 62
     3
100
AcDbLine
 10
890.6902657332506
 20
178.481993297541
 30
0.0
 11
889.8127657332498
 21
178.481993297541
 31
0.0
  0
LINE
  5
107
330
1F
100
AcDbEntity
  8
0
  6
CONTINUOUS
 62
     3
100
AcDbLine
 10
895.55026573325
 20
171.3269932975408
 30
0.0
 11
898.72276573325
 21
171.3269932975408
 31
0.0
  0
LINE
  5
108
330
1F
100
AcDbEntity
  8
0
  6
CONTINUOUS
 62
     3
100
AcDbLine
 10
800.1727657332503
 20
197.7194932975408
 30
0.0
 11
801.0502657332501
 21
197.7194932975408
 31
0.0
  0
ARC
  5
109
330
1F
100
AcDbEntity
  8
0
  6
CONTINUOUS
 62
     3
100
AcDbCircle
 10
878.5344131320937
 20
178.5779759565003
 30
0.0
 40
11.27953740078838
100
AcDbArc
 50
332.3987521421788
 51
359.5124385477116
  0
LINE
  5
10A
330
1F
100
AcDbEntity
  8
0
  6
CONTINUOUS
 62
     3
100
AcDbLine
 10
904.8652657332497
 20
180.5069932975408
 30
0.0
 11
904.9327657332503
 21
178.9544932975406
 31
0.0
  0
LINE
  5
10B
330
1F
100
AcDbEntity
  8
0
  6
CONTINUOUS
 62
     3
100
AcDbLine
 10
909.6240157332505
 20
183.3217432975408
 30
0.0
 11
909.5902657332493
 21
180.4394932975407
 31
0.0
  0
LINE
  5
10C
330
1F
100
AcDbEntity
  8
0
  6
CONTINUOUS
 62
     3
100
AcDbLine
 10
893.7142657332492
 20
197.8814932975405
 30
0.0
 11
893.6197657332497
 21
196.1129932975405
 31
0.0
  0
LINE
  5
10D
330
1F
100
AcDbEntity
  8
0
  6
CONTINUOUS
 62
     3
100
AcDbLine
 10
888.8340157332499
 20
195.8632432975406
 30
0.0
 11
888.8677657332494
 21
194.0744932975628
 31
0.0
  0
LINE
  5
10E
330
1F
100
AcDbEntity
  8
0
  6
CONTINUOUS
 62
     3
100
AcDbLine
 10
898.8375157332496
 20
202.6199932975408
 30
0.0
 11
899.9310157332502
 21
202.6469932975408
 31
0.0
  0
LINE
  5
10F
330
1F
100
AcDbEntity
  8
0
  6
CONTINUOUS
 62
     3
100
AcDbLine
 10
905.2432657332503
 20
198.4282432975408
 30
0.0
 11
906.0970934867311
 21
198.4282432975408
 31
0.0
  0
ARC
  5
110
330
1F
100
AcDbEntity
  8
0
  6
CONTINUOUS
 62
     3
100
AcDbCircle
 10
924.8424810688704
 20
194.9019437507496
 30
0.0
 40
19.07418003737831
100
AcDbArc
 50
153.7591918158497
 51
169.3462759801917
  0
TEXT
  5
111
330
1F
100
AcDbEntity
  8
図枠
  6
CONTINUOUS
 62
     2
100
AcDbText
 10
1884.5371094
 20
310.7227783000003
 30
0.0
 40
30.0
  1
１
 41
1.101333333333329
  7
EXCADSTD
 72
     5
 11
1908.1371094
 21
310.7227783000003
 31
0.0
100
AcDbText
  0
TEXT
  5
112
330
1F
100
AcDbEntity
  8
図枠
  6
CONTINUOUS
 62
     2
100
AcDbText
 10
196.4999999999998
 20
316.7500000000002
 30
0.0
 40
42.5
  1
製図
 41
1.509694117647059
  7
EXCADSTD
 72
     5
 11
297.3259999999998
 21
316.7500000000002
 31
0.0
100
AcDbText
  0
TEXT
  5
113
330
1F
100
AcDbEntity
  8
図枠
  6
CONTINUOUS
 62
     2
100
AcDbText
 10
351.4999999999998
 20
316.7500000000002
 30
0.0
 40
42.5
  1
写図
 41
1.509694117647059
  7
EXCADSTD
 72
     5
 11
452.3259999999998
 21
316.7500000000002
 31
0.0
100
AcDbText
  0
TEXT
  5
114
330
1F
100
AcDbEntity
  8
図枠
  6
CONTINUOUS
 62
     2
100
AcDbText
 10
501.4999999999998
 20
316.7500000000002
 30
0.0
 40
42.5
  1
検図
 41
1.303826737967914
  7
EXCADSTD
 72
     5
 11
588.5769999999998
 21
316.7500000000002
 31
0.0
100
AcDbText
  0
TEXT
  5
115
330
1F
100
AcDbEntity
  8
図枠
  6
CONTINUOUS
 62
     2
100
AcDbText
 10
631.4999999999998
 20
316.7500000000002
 30
0.0
 40
42.5
  1
承認
 41
1.303826737967914
  7
EXCADSTD
 72
     5
 11
718.5769999999998
 21
316.7500000000002
 31
0.0
100
AcDbText
  0
TEXT
  5
116
330
1F
100
AcDbEntity
  8
図枠
  6
CONTINUOUS
 62
     2
100
AcDbText
 10
749.7499999999997
 20
306.7500000000002
 30
0.0
 40
42.5
  1
品
 41
1.12
  7
EXCADSTD
 72
     5
 11
783.7499999999997
 21
306.7500000000002
 31
0.0
100
AcDbText
  0
TEXT
  5
117
330
1F
100
AcDbEntity
  8
図枠
  6
CONTINUOUS
 62
     2
100
AcDbText
 10
749.7499999999997
 20
256.7500000000002
 30
0.0
 40
42.5
  1
名
 41
1.12
  7
EXCADSTD
 72
     5
 11
783.7499999999997
 21
256.7500000000002
 31
0.0
100
AcDbText
  0
TEXT
  5
118
330
1F
100
AcDbEntity
  8
図枠
  6
CONTINUOUS
 62
     2
100
AcDbText
 10
1389.75
 20
306.7500000000002
 30
0.0
 40
42.5
  1
品
 41
1.12
  7
EXCADSTD
 72
     5
 11
1423.75
 21
306.7500000000002
 31
0.0
100
AcDbText
  0
TEXT
  5
119
330
1F
100
AcDbEntity
  8
図枠
  6
CONTINUOUS
 62
     2
100
AcDbText
 10
1389.75
 20
256.7500000000002
 30
0.0
 40
42.5
  1
番
 41
1.12
  7
EXCADSTD
 72
     5
 11
1423.75
 21
256.7500000000002
 31
0.0
100
AcDbText
  0
TEXT
  5
11A
330
1F
100
AcDbEntity
  8
図枠
  6
CONTINUOUS
 62
     2
100
AcDbText
 10
1810.75
 20
306.7500000000002
 30
0.0
 40
42.5
  1
尺
 41
1.12
  7
EXCADSTD
 72
     5
 11
1844.75
 21
306.7500000000002
 31
0.0
100
AcDbText
  0
TEXT
  5
11B
330
1F
100
AcDbEntity
  8
図枠
  6
CONTINUOUS
 62
     2
100
AcDbText
 10
1810.75
 20
256.7500000000002
 30
0.0
 40
42.5
  1
度
 41
1.12
  7
EXCADSTD
 72
     5
 11
1844.75
 21
256.7500000000002
 31
0.0
100
AcDbText
  0
TEXT
  5
11C
330
1F
100
AcDbEntity
  8
図枠
  6
CONTINUOUS
 62
     2
100
AcDbText
 10
1389.75
 20
193.7500000000001
 30
0.0
 40
42.5
  1
図
 41
1.12
  7
EXCADSTD
 72
     5
 11
1423.75
 21
193.7500000000001
 31
0.0
100
AcDbText
  0
TEXT
  5
11D
330
1F
100
AcDbEntity
  8
図枠
  6
CONTINUOUS
 62
     2
100
AcDbText
 10
1389.75
 20
150.7499999999999
 30
0.0
 40
42.5
  1
番
 41
1.12
  7
EXCADSTD
 72
     5
 11
1423.75
 21
150.7499999999999
 31
0.0
100
AcDbText
  0
LINE
  5
11E
330
1F
100
AcDbEntity
  8
図枠
  6
CONTINUOUS
 62
     7
100
AcDbLine
 10
173.9999999999998
 20
143.0000000000001
 30
0.0
 11
1994.0
 21
143.0000000000001
 31
0.0
  0
LINE
  5
11F
330
1F
100
AcDbEntity
  8
図枠
  6
CONTINUOUS
 62
     7
100
AcDbLine
 10
173.9999999999998
 20
363.0000000000002
 30
0.0
 11
1994.0
 21
363.0000000000002
 31
0.0
  0
LINE
  5
120
330
1F
100
AcDbEntity
  8
図枠
  6
CONTINUOUS
 62
     7
100
AcDbLine
 10
173.9999999999998
 20
143.0000000000001
 30
0.0
 11
173.9999999999998
 21
2893.0
 31
0.0
  0
LINE
  5
121
330
1F
100
AcDbEntity
  8
図枠
  6
CONTINUOUS
 62
     7
100
AcDbLine
 10
1994.0
 20
143.0000000000001
 30
0.0
 11
1994.0
 21
2893.0
 31
0.0
  0
LINE
  5
122
330
1F
100
AcDbEntity
  8
図枠
  6
CONTINUOUS
 62
     7
100
AcDbLine
 10
173.9999999999998
 20
2893.0
 30
0.0
 11
1994.0
 21
2893.0
 31
0.0
  0
LINE
  5
123
330
1F
100
AcDbEntity
  8
図枠
  6
CONTINUOUS
 62
     6
100
AcDbLine
 10
1994.0
 20
243.0000000000003
 30
0.0
 11
743.9999999999998
 21
243.0000000000003
 31
0.0
  0
LINE
  5
124
330
1F
100
AcDbEntity
  8
図枠
  6
CONTINUOUS
 62
     6
100
AcDbLine
 10
1854.0
 20
363.0000000000002
 30
0.0
 11
1854.0
 21
243.0000000000003
 31
0.0
  0
LINE
  5
125
330
1F
100
AcDbEntity
  8
図枠
  6
CONTINUOUS
 62
     6
100
AcDbLine
 10
1804.0
 20
363.0000000000002
 30
0.0
 11
1804.0
 21
243.0000000000003
 31
0.0
  0
LINE
  5
126
330
1F
100
AcDbEntity
  8
図枠
  6
CONTINUOUS
 62
     6
100
AcDbLine
 10
1434.0
 20
363.0000000000002
 30
0.0
 11
1434.0
 21
143.0000000000001
 31
0.0
  0
LINE
  5
127
330
1F
100
AcDbEntity
  8
図枠
  6
CONTINUOUS
 62
     6
100
AcDbLine
 10
1384.0
 20
363.0000000000002
 30
0.0
 11
1384.0
 21
143.0000000000001
 31
0.0
  0
LINE
  5
128
330
1F
100
AcDbEntity
  8
図枠
  6
CONTINUOUS
 62
     6
100
AcDbLine
 10
793.9999999999998
 20
363.0000000000002
 30
0.0
 11
793.9999999999998
 21
243.0000000000003
 31
0.0
  0
LINE
  5
129
330
1F
100
AcDbEntity
  8
図枠
  6
CONTINUOUS
 62
     6
100
AcDbLine
 10
743.9999999999998
 20
363.0000000000002
 30
0.0
 11
743.9999999999998
 21
143.0000000000001
 31
0.0
  0
LINE
  5
12A
330
1F
100
AcDbEntity
  8
図枠
  6
CONTINUOUS
 62
     6
100
AcDbLine
 10
613.9999999999998
 20
363.0000000000002
 30
0.0
 11
613.9999999999998
 21
143.0000000000001
 31
0.0
  0
LINE
  5
12B
330
1F
100
AcDbEntity
  8
図枠
  6
CONTINUOUS
 62
     6
100
AcDbLine
 10
483.9999999999998
 20
363.0000000000002
 30
0.0
 11
483.9999999999998
 21
143.0000000000001
 31
0.0
  0
LINE
  5
12C
330
1F
100
AcDbEntity
  8
図枠
  6
CONTINUOUS
 62
     6
100
AcDbLine
 10
328.9999999999998
 20
363.0000000000002
 30
0.0
 11
328.9999999999998
 21
143.0000000000001
 31
0.0
  0
LINE
  5
12D
330
1F
100
AcDbEntity
  8
図枠
  6
CONTINUOUS
 62
     6
100
AcDbLine
 10
173.9999999999998
 20
313.0000000000002
 30
0.0
 11
743.9999999999998
 21
313.0000000000002
 31
0.0
  0
LINE
  5
12E
330
1F
100
AcDbEntity
  8
図枠
  6
CONTINUOUS
 62
     6
100
AcDbLine
 10
1886.6538086
 20
266.0029297000001
 30
0.0
 11
1963.9938965
 21
344.6998291000001
 31
0.0
  0
CIRCLE
  5
12F
330
1F
100
AcDbEntity
  8
図枠
  6
CONTINUOUS
 62
     6
100
AcDbCircle
 10
223.9999999999998
 20
168.0000000000001
 30
0.0
 40
1.0000002
  0
CIRCLE
  5
130
330
1F
100
AcDbEntity
  8
図枠
  6
CONTINUOUS
 62
     6
100
AcDbCircle
 10
273.9999999999998
 20
168.0000000000001
 30
0.0
 40
1.0000002
  0
CIRCLE
  5
131
330
1F
100
AcDbEntity
  8
図枠
  6
CONTINUOUS
 62
     6
100
AcDbCircle
 10
378.9999999999998
 20
168.0000000000001
 30
0.0
 40
1.0000002
  0
CIRCLE
  5
132
330
1F
100
AcDbEntity
  8
図枠
  6
CONTINUOUS
 62
     6
100
AcDbCircle
 10
428.9999999999998
 20
168.0000000000001
 30
0.0
 40
1.0000002
  0
LINE
  5
133
330
1F
100
AcDbEntity
  8
図枠
  6
EXLTYPE2
 62
     6
100
AcDbLine
 10
173.9999999999998
 20
193.0000000000001
 30
0.0
 11
483.9999999999998
 21
193.0000000000001
 31
0.0
  0
CIRCLE
  5
134
330
1F
100
AcDbEntity
  8
図枠
  6
CONTINUOUS
 62
     6
100
AcDbCircle
 10
224.0000000000004
 20
168.0000000000001
 30
0.0
 40
1.0000002
  0
CIRCLE
  5
135
330
1F
100
AcDbEntity
  8
図枠
  6
CONTINUOUS
 62
     6
100
AcDbCircle
 10
274.0000000000003
 20
168.0000000000001
 30
0.0
 40
1.0000002
  0
CIRCLE
  5
136
330
1F
100
AcDbEntity
  8
図枠
  6
CONTINUOUS
 62
     6
100
AcDbCircle
 10
378.9999999999998
 20
168.0000000000001
 30
0.0
 40
1.0000002
  0
CIRCLE
  5
137
330
1F
100
AcDbEntity
  8
図枠
  6
CONTINUOUS
 62
     6
100
AcDbCircle
 10
428.9999999999998
 20
168.0000000000001
 30
0.0
 40
1.0000002
  0
CIRCLE
  5
138
330
1F
100
AcDbEntity
  8
図枠
  6
CONTINUOUS
 62
     6
100
AcDbCircle
 10
379.0000000000003
 20
168.0000000000001
 30
0.0
 40
1.0000002
  0
CIRCLE
  5
139
330
1F
100
AcDbEntity
  8
図枠
  6
CONTINUOUS
 62
     6
100
AcDbCircle
 10
429.0000000000003
 20
168.0000000000001
 30
0.0
 40
1.0000002
  0
LINE
  5
13A
330
1F
100
AcDbEntity
  8
図枠
  6
EXLTYPE2
 62
     6
100
AcDbLine
 10
-6.000000000000227
 20
1491.0
 30
0.0
 11
174.0000000000003
 21
1491.0
 31
0.0
  0
TEXT
  5
13B
330
1F
100
AcDbEntity
  8
図枠
  6
CONTINUOUS
 62
     2
100
AcDbText
 10
1055.999999999986
 20
2198.749999999996
 30
0.0
 40
40.0
  1
アームストッパー
 41
0.7819148936170214
  7
EXCADSTD
 72
     5
 11
1265.999999999986
 21
2198.749999999996
 31
0.0
100
AcDbText
  0
TEXT
  5
13C
330
1F
100
AcDbEntity
  8
図枠
  6
CONTINUOUS
 62
     2
100
AcDbText
 10
846.9999999999789
 20
2198.749999999996
 30
0.0
 40
40.0
  1
ＳＬＣ－２Ｓ
 41
0.79
  7
EXCADSTD
 72
     5
 11
1004.999999999979
 21
2198.749999999996
 31
0.0
100
AcDbText
  0
TEXT
  5
13D
330
1F
100
AcDbEntity
  8
図枠
  6
CONTINUOUS
 62
     2
100
AcDbText
 10
1421.19999999999
 20
2198.349999999996
 30
0.0
 40
40.0
  1
１
 41
1.26
  7
EXCADSTD
 72
     5
 11
1457.19999999999
 21
2198.349999999996
 31
0.0
100
AcDbText
  0
TEXT
  5
13E
330
1F
100
AcDbEntity
  8
図枠
  6
CONTINUOUS
 62
     2
100
AcDbText
 10
1861.200000000001
 20
2517.349999999996
 30
0.0
 40
40.0
  1
１
 41
1.26
  7
EXCADSTD
 72
     5
 11
1897.200000000001
 21
2517.349999999996
 31
0.0
100
AcDbText
  0
TEXT
  5
13F
330
1F
100
AcDbEntity
  8
図枠
  6
CONTINUOUS
 62
     2
100
AcDbText
 10
1861.200000000001
 20
2467.349999999996
 30
0.0
 40
40.0
  1
１
 41
1.26
  7
EXCADSTD
 72
     5
 11
1897.200000000001
 21
2467.349999999996
 31
0.0
100
AcDbText
  0
TEXT
  5
140
330
1F
100
AcDbEntity
  8
図枠
  6
CONTINUOUS
 62
     2
100
AcDbText
 10
1861.200000000001
 20
2417.349999999996
 30
0.0
 40
40.0
  1
１
 41
1.26
  7
EXCADSTD
 72
     5
 11
1897.200000000001
 21
2417.349999999996
 31
0.0
100
AcDbText
  0
TEXT
  5
141
330
1F
100
AcDbEntity
  8
図枠
  6
CONTINUOUS
 62
     2
100
AcDbText
 10
1861.200000000001
 20
2367.349999999996
 30
0.0
 40
40.0
  1
１
 41
1.26
  7
EXCADSTD
 72
     5
 11
1897.200000000001
 21
2367.349999999996
 31
0.0
100
AcDbText
  0
TEXT
  5
142
330
1F
100
AcDbEntity
  8
図枠
  6
CONTINUOUS
 62
     2
100
AcDbText
 10
845.9999999999886
 20
2517.749999999996
 30
0.0
 40
40.0
  1
ＳＬＣ－２Ａ
 41
0.915
  7
EXCADSTD
 72
     5
 11
1028.999999999989
 21
2517.749999999996
 31
0.0
100
AcDbText
  0
TEXT
  5
143
330
1F
100
AcDbEntity
  8
図枠
  6
CONTINUOUS
 62
     2
100
AcDbText
 10
845.9999999999886
 20
2467.749999999996
 30
0.0
 40
40.0
  1
ＳＬＣ－２Ｂ
 41
0.915
  7
EXCADSTD
 72
     5
 11
1028.999999999989
 21
2467.749999999996
 31
0.0
100
AcDbText
  0
TEXT
  5
144
330
1F
100
AcDbEntity
  8
図枠
  6
CONTINUOUS
 62
     2
100
AcDbText
 10
845.9999999999886
 20
2417.749999999996
 30
0.0
 40
40.0
  1
ＳＬＣ－２Ｃ
 41
0.915
  7
EXCADSTD
 72
     5
 11
1028.999999999989
 21
2417.749999999996
 31
0.0
100
AcDbText
  0
TEXT
  5
145
330
1F
100
AcDbEntity
  8
図枠
  6
CONTINUOUS
 62
     2
100
AcDbText
 10
845.9999999999886
 20
2367.749999999996
 30
0.0
 40
40.0
  1
ＳＬＣ－２Ｄ
 41
0.915
  7
EXCADSTD
 72
     5
 11
1028.999999999989
 21
2367.749999999996
 31
0.0
100
AcDbText
  0
TEXT
  5
146
330
1F
100
AcDbEntity
  8
図枠
  6
CONTINUOUS
 62
     2
100
AcDbText
 10
1054.999999999996
 20
2367.749999999996
 30
0.0
 40
40.0
  1
ＲＣ+モルタル+タイル貼付
 41
0.8927125506072876
  7
EXCADSTD
 72
     5
 11
1474.999999999996
 21
2367.749999999996
 31
0.0
100
AcDbText
  0
TEXT
  5
147
330
1F
100
AcDbEntity
  8
図枠
  6
CONTINUOUS
 62
     2
100
AcDbText
 10
1054.999999999996
 20
2467.749999999996
 30
0.0
 40
40.0
  1
合板（２１mm以上）+フレキシブルボード+タイル貼付用
 41
0.7709369024856594
  7
EXCADSTD
 72
     5
 11
1822.999999999996
 21
2467.749999999996
 31
0.0
100
AcDbText
  0
TEXT
  5
148
330
1F
100
AcDbEntity
  8
図枠
  6
CONTINUOUS
 62
     2
100
AcDbText
 10
1054.999999999996
 20
2417.749999999996
 30
0.0
 40
40.0
  1
ＣＢ（中空部モルタル充填）+モルタル+タイル貼付
 41
0.8954494382022469
  7
EXCADSTD
 72
     5
 11
1813.999999999996
 21
2417.749999999996
 31
0.0
100
AcDbText
  0
TEXT
  5
149
330
1F
100
AcDbEntity
  8
図枠
  6
CONTINUOUS
 62
     6
100
AcDbText
 10
358.4999997615811
 20
227.0000000000002
 30
0.0
 40
50.0
  1
川野
 41
1.18991346010815
  7
EXCADSTD
 72
     5
 11
451.9932001986501
 21
227.0000000000002
 31
0.0
100
AcDbText
  0
TEXT
  5
14A
330
1F
100
AcDbEntity
  8
図枠
  6
CONTINUOUS
 62
     6
100
AcDbText
 10
203.4999997615811
 20
227.0000000000002
 30
0.0
 40
50.0
  1
亀井
 41
1.18991346010815
  7
EXCADSTD
 72
     5
 11
296.99320019865
 21
227.0000000000002
 31
0.0
100
AcDbText
  0
TEXT
  5
14B
330
1F
100
AcDbEntity
  8
図枠
  6
CONTINUOUS
 62
     6
100
AcDbText
 10
180.3441156754791
 20
152.4500732000001
 30
0.0
 40
30.0
  1
'16
 41
0.4689784042553192
  7
EXCADSTD
 72
     5
 11
211.8326656754791
 21
152.4500732000001
 31
0.0
100
AcDbText
  0
TEXT
  5
14C
330
1F
100
AcDbEntity
  8
図枠
  6
CONTINUOUS
 62
     6
100
AcDbText
 10
243.0691160569488
 20
152.4500732000001
 30
0.0
 40
30.0
  1
3
 41
0.4683823529411765
  7
EXCADSTD
 72
     5
 11
254.4441160569488
 21
152.4500732000001
 31
0.0
100
AcDbText
  0
TEXT
  5
14D
330
1F
100
AcDbEntity
  8
図枠
  6
CONTINUOUS
 62
     6
100
AcDbText
 10
289.8941159138978
 20
152.4500732000001
 30
0.0
 40
30.0
  1
18
 41
0.408648648648649
  7
EXCADSTD
 72
     5
 11
311.4941159138979
 21
152.4500732000001
 31
0.0
100
AcDbText
  0
TEXT
  5
14E
330
1F
100
AcDbEntity
  8
図枠
  6
CONTINUOUS
 62
     2
100
AcDbText
 10
918.9108397999996
 20
271.2713318
 30
0.0
 40
60.0
  1
レストハンド
 41
1.116666666666667
  7
EXCADSTD
 72
     5
 11
1253.9108398
 21
271.2713318
 31
0.0
100
AcDbText
  0
TEXT
  5
14F
330
1F
100
AcDbEntity
  8
図枠
  6
CONTINUOUS
 62
     2
100
AcDbText
 10
1437.990332
 20
274.8630982
 30
0.0
 40
50.0
  1
ＳＬＣ－２－７００
 41
0.977358490566038
  7
EXCADSTD
 72
     5
 11
1807.990332
 21
274.8630982
 31
0.0
100
AcDbText
  0
TEXT
  5
150
330
1F
100
AcDbEntity
  8
図枠
  6
CONTINUOUS
 62
     7
100
AcDbText
 10
1559.0
 20
164.4999999999999
 30
0.0
 40
60.0
  1
９９５８００
 41
1.033333333333333
  7
EXCADSTD
 72
     5
 11
1869.0
 21
164.4999999999999
 31
0.0
100
AcDbText
  0
TEXT
  5
151
330
1F
100
AcDbEntity
  8
図枠
  6
CONTINUOUS
 62
     2
100
AcDbText
 10
1934.2792969
 20
266.3488464000001
 30
0.0
 40
30.0
  1
１０
 41
1.098531212121213
  7
EXCADSTD
 72
     5
 11
1986.0671969
 21
266.3488464000001
 31
0.0
100
AcDbText
  0
LINE
  5
152
330
1F
100
AcDbEntity
  8
図枠
  6
CONTINUOUS
 62
     6
100
AcDbLine
 10
1994.0
 20
2843.0
 30
0.0
 11
1216.0
 21
2843.0
 31
0.0
  0
LINE
  5
153
330
1F
100
AcDbEntity
  8
図枠
  6
CONTINUOUS
 62
     6
100
AcDbLine
 10
1994.0
 20
2793.0
 30
0.0
 11
1216.0
 21
2793.0
 31
0.0
  0
LINE
  5
154
330
1F
100
AcDbEntity
  8
図枠
  6
CONTINUOUS
 62
     6
100
AcDbLine
 10
1994.0
 20
2743.0
 30
0.0
 11
1216.0
 21
2743.0
 31
0.0
  0
LINE
  5
155
330
1F
100
AcDbEntity
  8
図枠
  6
CONTINUOUS
 62
     6
100
AcDbLine
 10
1994.0
 20
2693.0
 30
0.0
 11
1216.0
 21
2693.0
 31
0.0
  0
LINE
  5
156
330
1F
100
AcDbEntity
  8
図枠
  6
CONTINUOUS
 62
     6
100
AcDbLine
 10
1216.0
 20
2893.0
 30
0.0
 11
1216.0
 21
2693.0
 31
0.0
  0
LINE
  5
157
330
1F
100
AcDbEntity
  8
図枠
  6
CONTINUOUS
 62
     6
100
AcDbLine
 10
831.9999999999899
 20
2295.0
 30
0.0
 11
1481.99999999999
 21
2295.0
 31
0.0
  0
LINE
  5
158
330
1F
100
AcDbEntity
  8
図枠
  6
CONTINUOUS
 62
     6
100
AcDbLine
 10
831.9999999999899
 20
2195.0
 30
0.0
 11
1481.99999999999
 21
2195.0
 31
0.0
  0
LINE
  5
159
330
1F
100
AcDbEntity
  8
図枠
  6
CONTINUOUS
 62
     6
100
AcDbLine
 10
831.9999999999785
 20
2245.0
 30
0.0
 11
1481.99999999999
 21
2245.0
 31
0.0
  0
LINE
  5
15A
330
1F
100
AcDbEntity
  8
図枠
  6
CONTINUOUS
 62
     6
100
AcDbLine
 10
830.9999999999903
 20
2614.0
 30
0.0
 11
1922.000000000001
 21
2614.0
 31
0.0
  0
LINE
  5
15B
330
1F
100
AcDbEntity
  8
図枠
  6
CONTINUOUS
 62
     6
100
AcDbLine
 10
830.9999999999886
 20
2564.0
 30
0.0
 11
1922.000000000001
 21
2564.0
 31
0.0
  0
LINE
  5
15C
330
1F
100
AcDbEntity
  8
図枠
  6
CONTINUOUS
 62
     6
100
AcDbLine
 10
830.9999999999886
 20
2514.0
 30
0.0
 11
1922.000000000001
 21
2514.0
 31
0.0
  0
LINE
  5
15D
330
1F
100
AcDbEntity
  8
図枠
  6
CONTINUOUS
 62
     6
100
AcDbLine
 10
830.9999999999886
 20
2464.0
 30
0.0
 11
1922.0
 21
2464.0
 31
0.0
  0
LINE
  5
15E
330
1F
100
AcDbEntity
  8
図枠
  6
CONTINUOUS
 62
     6
100
AcDbLine
 10
830.9999999999886
 20
2414.0
 30
0.0
 11
1922.0
 21
2414.0
 31
0.0
  0
LINE
  5
15F
330
1F
100
AcDbEntity
  8
図枠
  6
CONTINUOUS
 62
     6
100
AcDbLine
 10
830.9999999999903
 20
2364.0
 30
0.0
 11
1922.0
 21
2364.0
 31
0.0
  0
LINE
  5
160
330
1F
100
AcDbEntity
  8
図枠
  6
CONTINUOUS
 62
     6
100
AcDbLine
 10
1481.99999999999
 20
2195.0
 30
0.0
 11
1481.99999999999
 21
2294.999999999996
 31
0.0
  0
LINE
  5
161
330
1F
100
AcDbEntity
  8
図枠
  6
CONTINUOUS
 62
     6
100
AcDbLine
 10
1040.999999999983
 20
2195.0
 30
0.0
 11
1040.999999999983
 21
2294.999999999996
 31
0.0
  0
LINE
  5
162
330
1F
100
AcDbEntity
  8
図枠
  6
CONTINUOUS
 62
     6
100
AcDbLine
 10
831.9999999999784
 20
2195.0
 30
0.0
 11
831.9999999999784
 21
2294.999999999996
 31
0.0
  0
LINE
  5
163
330
1F
100
AcDbEntity
  8
図枠
  6
CONTINUOUS
 62
     6
100
AcDbLine
 10
1388.99999999999
 20
2195.0
 30
0.0
 11
1388.99999999999
 21
2294.999999999996
 31
0.0
  0
LINE
  5
164
330
1F
100
AcDbEntity
  8
図枠
  6
CONTINUOUS
 62
     6
100
AcDbLine
 10
917.999999999978
 20
2294.999999999996
 30
0.0
 11
1457.99999999999
 21
2294.999999999996
 31
0.0
  0
LINE
  5
165
330
1F
100
AcDbEntity
  8
図枠
  6
CONTINUOUS
 62
     6
100
AcDbLine
 10
1357.999999999988
 20
2613.999999999995
 30
0.0
 11
1898.000000000001
 21
2613.999999999995
 31
0.0
  0
LINE
  5
166
330
1F
100
AcDbEntity
  8
図枠
  6
CONTINUOUS
 62
     6
100
AcDbLine
 10
1922.0
 20
2364.0
 30
0.0
 11
1922.0
 21
2613.999999999995
 31
0.0
  0
LINE
  5
167
330
1F
100
AcDbEntity
  8
図枠
  6
CONTINUOUS
 62
     6
100
AcDbLine
 10
830.9999999999883
 20
2364.0
 30
0.0
 11
830.9999999999883
 21
2613.999999999995
 31
0.0
  0
LINE
  5
168
330
1F
100
AcDbEntity
  8
図枠
  6
CONTINUOUS
 62
     6
100
AcDbLine
 10
1039.999999999993
 20
2364.0
 30
0.0
 11
1039.999999999993
 21
2613.999999999995
 31
0.0
  0
LINE
  5
169
330
1F
100
AcDbEntity
  8
図枠
  6
CONTINUOUS
 62
     6
100
AcDbLine
 10
1825.0
 20
2364.0
 30
0.0
 11
1825.0
 21
2613.999999999995
 31
0.0
  0
LINE
  5
16A
330
1F
100
AcDbEntity
  8
図枠
  6
CONTINUOUS
 62
     6
100
AcDbLine
 10
720.9999999999897
 20
2893.0
 30
0.0
 11
720.9999999999897
 21
2693.0
 31
0.0
  0
LINE
  5
16B
330
1F
100
AcDbEntity
  8
図枠
  6
CONTINUOUS
 62
     6
100
AcDbLine
 10
830.9999999999897
 20
2893.0
 30
0.0
 11
830.9999999999897
 21
2693.0
 31
0.0
  0
TEXT
  5
16C
330
1F
100
AcDbEntity
  8
図枠
  6
CONTINUOUS
 62
     2
100
AcDbText
 10
738.4999999999897
 20
2848.0
 30
0.0
 40
40.0
  1
番号
 41
1.093670454545455
  7
EXCADSTD
 72
     5
 11
807.2449999999897
 21
2848.0
 31
0.0
100
AcDbText
  0
TEXT
  5
16D
330
1F
100
AcDbEntity
  8
図枠
  6
CONTINUOUS
 62
     2
100
AcDbText
 10
755.9999999999897
 20
2698.0
 30
0.0
 40
40.0
  1
３
 41
1.12
  7
EXCADSTD
 72
     5
 11
787.9999999999897
 21
2698.0
 31
0.0
100
AcDbText
  0
TEXT
  5
16E
330
1F
100
AcDbEntity
  8
図枠
  6
CONTINUOUS
 62
     2
100
AcDbText
 10
755.9999999999897
 20
2748.0
 30
0.0
 40
40.0
  1
２
 41
1.12
  7
EXCADSTD
 72
     5
 11
787.9999999999897
 21
2748.0
 31
0.0
100
AcDbText
  0
TEXT
  5
16F
330
1F
100
AcDbEntity
  8
図枠
  6
CONTINUOUS
 62
     2
100
AcDbText
 10
755.9999999999897
 20
2798.0
 30
0.0
 40
40.0
  1
１
 41
1.12
  7
EXCADSTD
 72
     5
 11
787.9999999999897
 21
2798.0
 31
0.0
100
AcDbText
  0
LINE
  5
170
330
1F
100
AcDbEntity
  8
図枠
  6
CONTINUOUS
 62
     6
100
AcDbLine
 10
1216.0
 20
2843.0
 30
0.0
 11
720.9999999999897
 21
2843.0
 31
0.0
  0
LINE
  5
171
330
1F
100
AcDbEntity
  8
図枠
  6
CONTINUOUS
 62
     6
100
AcDbLine
 10
1216.0
 20
2793.0
 30
0.0
 11
720.9999999999897
 21
2793.0
 31
0.0
  0
LINE
  5
172
330
1F
100
AcDbEntity
  8
図枠
  6
CONTINUOUS
 62
     6
100
AcDbLine
 10
1216.0
 20
2743.0
 30
0.0
 11
720.9999999999897
 21
2743.0
 31
0.0
  0
LINE
  5
173
330
1F
100
AcDbEntity
  8
図枠
  6
CONTINUOUS
 62
     6
100
AcDbLine
 10
1216.0
 20
2693.0
 30
0.0
 11
722.0
 21
2693.0
 31
0.0
  0
TEXT
  5
174
330
1F
100
AcDbEntity
  8
図枠
  6
CONTINUOUS
 62
     2
100
AcDbText
 10
834.1999999999899
 20
2798.0
 30
0.0
 40
40.0
  1
アーム（心材部分）
 41
0.9773584905660374
  7
EXCADSTD
 72
     5
 11
1130.19999999999
 21
2798.0
 31
0.0
100
AcDbText
  0
TEXT
  5
175
330
1F
100
AcDbEntity
  8
図枠
  6
CONTINUOUS
 62
     2
100
AcDbText
 10
835.4999999999901
 20
2698.0
 30
0.0
 40
40.0
  1
ブラケット
 41
1.013793103448276
  7
EXCADSTD
 72
     5
 11
1003.49999999999
 21
2698.0
 31
0.0
100
AcDbText
  0
TEXT
  5
176
330
1F
100
AcDbEntity
  8
図枠
  6
CONTINUOUS
 62
     2
100
AcDbText
 10
834.3999999999897
 20
2748.0
 30
0.0
 40
40.0
  1
アーム（クッション部分）
 41
0.9661971830985914
  7
EXCADSTD
 72
     5
 11
1226.39999999999
 21
2748.0
 31
0.0
100
AcDbText
  0
TEXT
  5
177
330
1F
100
AcDbEntity
  8
図枠
  6
CONTINUOUS
 62
     2
100
AcDbText
 10
1541.0
 20
2798.0
 30
0.0
 40
40.0
  1
1
 41
0.6204545454545455
  7
EXCADSTD
 72
     5
 11
1554.0
 21
2798.0
 31
0.0
100
AcDbText
  0
TEXT
  5
178
330
1F
100
AcDbEntity
  8
図枠
  6
CONTINUOUS
 62
     2
100
AcDbText
 10
1541.0
 20
2748.0
 30
0.0
 40
40.0
  1
1
 41
0.6204545454545455
  7
EXCADSTD
 72
     5
 11
1554.0
 21
2748.0
 31
0.0
100
AcDbText
  0
TEXT
  5
179
330
1F
100
AcDbEntity
  8
図枠
  6
CONTINUOUS
 62
     2
100
AcDbText
 10
1541.0
 20
2698.0
 30
0.0
 40
40.0
  1
1
 41
0.6204545454545455
  7
EXCADSTD
 72
     5
 11
1554.0
 21
2698.0
 31
0.0
100
AcDbText
  0
LINE
  5
17A
330
1F
100
AcDbEntity
  8
図枠
  6
CONTINUOUS
 62
     6
100
AcDbLine
 10
1496.0
 20
2893.0
 30
0.0
 11
1496.0
 21
2693.0
 31
0.0
  0
LINE
  5
17B
330
1F
100
AcDbEntity
  8
図枠
  6
CONTINUOUS
 62
     6
100
AcDbLine
 10
1606.0
 20
2893.0
 30
0.0
 11
1606.0
 21
2693.0
 31
0.0
  0
TEXT
  5
17C
330
1F
100
AcDbEntity
  8
図枠
  6
CONTINUOUS
 62
     2
100
AcDbText
 10
1223.0
 20
2698.0
 30
0.0
 40
40.0
  1
スチール・硬質樹脂
 41
0.8287735849056604
  7
EXCADSTD
 72
     5
 11
1474.0
 21
2698.0
 31
0.0
100
AcDbText
  0
TEXT
  5
17D
330
1F
100
AcDbEntity
  8
図枠
  6
CONTINUOUS
 62
     2
100
AcDbText
 10
1223.0
 20
2748.0
 30
0.0
 40
40.0
  1
硬質樹脂
 41
1.034782608695652
  7
EXCADSTD
 72
     5
 11
1359.0
 21
2748.0
 31
0.0
100
AcDbText
  0
TEXT
  5
17E
330
1F
100
AcDbEntity
  8
図枠
  6
CONTINUOUS
 62
     2
100
AcDbText
 10
1223.0
 20
2798.0
 30
0.0
 40
40.0
  1
スチール鋼管
  7
EXCADSTD
 72
     5
 11
1423.0
 21
2798.0
 31
0.0
100
AcDbText
  0
TEXT
  5
17F
330
1F
100
AcDbEntity
  8
図枠
  6
CONTINUOUS
 62
     2
100
AcDbText
 10
1613.0
 20
2798.0
 30
0.0
 40
40.0
  1
アクリル系樹脂塗装
 41
0.9773584905660379
  7
EXCADSTD
 72
     5
 11
1909.0
 21
2798.0
 31
0.0
100
AcDbText
  0
TEXT
  5
180
330
1F
100
AcDbEntity
  8
図枠
  6
CONTINUOUS
 62
     2
100
AcDbText
 10
833.9999999999807
 20
2304.249999999996
 30
0.0
 40
40.0
  1
オプション
 41
1.013793103448276
  7
EXCADSTD
 72
     5
 11
1001.999999999981
 21
2304.249999999996
 31
0.0
100
AcDbText
  0
TEXT
  5
181
330
1F
100
AcDbEntity
  8
図枠
  6
CONTINUOUS
 62
     2
100
AcDbText
 10
832.9999999999905
 20
2623.249999999995
 30
0.0
 40
40.0
  1
※固定部品セット（別売）
 41
0.9661971830985917
  7
EXCADSTD
 72
     5
 11
1224.99999999999
 21
2623.249999999995
 31
0.0
100
AcDbText
  0
TEXT
  5
182
330
1F
100
AcDbEntity
  8
図枠
  6
CONTINUOUS
 62
     2
100
AcDbText
 10
873.9999999999789
 20
2248.749999999996
 30
0.0
 40
40.0
  1
品　番
 41
1.070588235294118
  7
EXCADSTD
 72
     5
 11
977.9999999999789
 21
2248.749999999996
 31
0.0
100
AcDbText
  0
TEXT
  5
183
330
1F
100
AcDbEntity
  8
図枠
  6
CONTINUOUS
 62
     2
100
AcDbText
 10
1287.999999999989
 20
2567.749999999995
 30
0.0
 40
40.0
  1
設置壁下地
 41
1.931034482758621
  7
EXCADSTD
 72
     5
 11
1607.999999999989
 21
2567.749999999995
 31
0.0
100
AcDbText
  0
TEXT
  5
184
330
1F
100
AcDbEntity
  8
図枠
  6
CONTINUOUS
 62
     2
100
AcDbText
 10
872.9999999999887
 20
2567.749999999995
 30
0.0
 40
40.0
  1
品　番
 41
1.070588235294118
  7
EXCADSTD
 72
     5
 11
976.9999999999887
 21
2567.749999999995
 31
0.0
100
AcDbText
  0
TEXT
  5
185
330
1F
100
AcDbEntity
  8
図枠
  6
CONTINUOUS
 62
     2
100
AcDbText
 10
1150.999999999979
 20
2248.749999999996
 30
0.0
 40
40.0
  1
品　名
 41
1.070588235294118
  7
EXCADSTD
 72
     5
 11
1254.999999999979
 21
2248.749999999996
 31
0.0
100
AcDbText
  0
TEXT
  5
186
330
1F
100
AcDbEntity
  8
図枠
  6
CONTINUOUS
 62
     2
100
AcDbText
 10
1513.5
 20
2848.0
 30
0.0
 40
40.0
  1
個数
 41
1.093670454545453
  7
EXCADSTD
 72
     5
 11
1582.244999999999
 21
2848.0
 31
0.0
100
AcDbText
  0
TEXT
  5
187
330
1F
100
AcDbEntity
  8
図枠
  6
CONTINUOUS
 62
     2
100
AcDbText
 10
1841.100000000001
 20
2569.0
 30
0.0
 40
40.0
  1
個数
 41
1.093670454545457
  7
EXCADSTD
 72
     5
 11
1909.845000000001
 21
2569.0
 31
0.0
100
AcDbText
  0
TEXT
  5
188
330
1F
100
AcDbEntity
  8
図枠
  6
CONTINUOUS
 62
     2
100
AcDbText
 10
1401.09999999999
 20
2250.0
 30
0.0
 40
40.0
  1
個数
 41
1.093670454545453
  7
EXCADSTD
 72
     5
 11
1469.84499999999
 21
2250.0
 31
0.0
100
AcDbText
  0
TEXT
  5
189
330
1F
100
AcDbEntity
  8
図枠
  6
CONTINUOUS
 62
     2
100
AcDbText
 10
963.9999999999895
 20
2848.0
 30
0.0
 40
40.0
  1
品名
 41
1.895695454545453
  7
EXCADSTD
 72
     5
 11
1083.157999999989
 21
2848.0
 31
0.0
100
AcDbText
  0
TEXT
  5
18A
330
1F
100
AcDbEntity
  8
図枠
  6
CONTINUOUS
 62
     2
100
AcDbText
 10
1296.0
 20
2848.0
 30
0.0
 40
40.0
  1
材質
 41
1.895695454545453
  7
EXCADSTD
 72
     5
 11
1415.157999999999
 21
2848.0
 31
0.0
100
AcDbText
  0
TEXT
  5
18B
330
1F
100
AcDbEntity
  8
図枠
  6
CONTINUOUS
 62
     2
100
AcDbText
 10
1709.0
 20
2848.0
 30
0.0
 40
40.0
  1
備考
 41
2.624809090909092
  7
EXCADSTD
 72
     5
 11
1873.988
 21
2848.0
 31
0.0
100
AcDbText
  0
TEXT
  5
18C
330
1F
100
AcDbEntity
  8
図枠
  6
CONTINUOUS
 62
     6
100
AcDbText
 10
335.3441156754792
 20
152.4500732000001
 30
0.0
 40
30.0
  1
'21
 41
0.537609390243902
  7
EXCADSTD
 72
     5
 11
366.8326656754792
 21
152.4500732000001
 31
0.0
100
AcDbText
  0
TEXT
  5
18D
330
1F
100
AcDbEntity
  8
図枠
  6
CONTINUOUS
 62
     6
100
AcDbText
 10
393.3191161165536
 20
152.4500732000001
 30
0.0
 40
30.0
  1
10
 41
0.408648648648649
  7
EXCADSTD
 72
     5
 11
414.9191161165536
 21
152.4500732000001
 31
0.0
100
AcDbText
  0
TEXT
  5
18E
330
1F
100
AcDbEntity
  8
図枠
  6
CONTINUOUS
 62
     6
100
AcDbText
 10
444.894115913898
 20
152.4500732000001
 30
0.0
 40
30.0
  1
15
 41
0.408648648648649
  7
EXCADSTD
 72
     5
 11
466.494115913898
 21
152.4500732000001
 31
0.0
100
AcDbText
  0
TEXT
  5
18F
330
1F
100
AcDbEntity
  8
図枠
  6
CONTINUOUS
 62
     2
100
AcDbText
 10
1613.0
 20
2748.0
 30
0.0
 40
40.0
  1
抗菌仕様
 41
1.034782608695652
  7
EXCADSTD
 72
     5
 11
1749.0
 21
2748.0
 31
0.0
100
AcDbText
  0
TEXT
  5
190
330
1F
100
AcDbEntity
  8
図枠
  6
CONTINUOUS
 62
     2
100
AcDbText
 10
1054.999999999996
 20
2517.749999999996
 30
0.0
 40
40.0
  1
合板（１２mm以上通し）+硬質ＰＢ（１２.５mm）１枚貼付用
 41
0.6658974358974357
  7
EXCADSTD
 72
     5
 11
1796.999999999996
 21
2517.749999999996
 31
0.0
100
AcDbText
  0
LINE
  5
191
330
1F
100
AcDbEntity
  8
図
  6
CONTINUOUS
 62
     6
100
AcDbLine
 10
1589.100000000028
 20
834.1722762077288
 30
0.0
 11
1589.100000000028
 21
979.7310376730659
 31
0.0
  0
LINE
  5
192
330
1F
100
AcDbEntity
  8
図
  6
CONTINUOUS
 62
     6
100
AcDbLine
 10
574.2000000000162
 20
1808.15000002896
 30
0.0
 11
612.1999999999716
 21
1808.15000002896
 31
0.0
  0
LINE
  5
193
330
1F
100
AcDbEntity
  8
図
  6
CONTINUOUS
 62
     6
100
AcDbLine
 10
573.6000000000167
 20
1858.100000028949
 30
0.0
 11
573.6000000000104
 21
1803.900000028945
 31
0.0
  0
ARC
  5
194
330
1F
100
AcDbEntity
  8
図
  6
CONTINUOUS
 62
     6
100
AcDbCircle
 10
574.6000000000167
 20
1803.900000028945
 30
0.0
 40
1.0
100
AcDbArc
 50
180.0
 51
270.0
  0
ARC
  5
195
330
1F
100
AcDbEntity
  8
図
  6
CONTINUOUS
 62
     6
100
AcDbCircle
 10
574.600000000024
 20
1858.100000028935
 30
0.0
 40
1.0
100
AcDbArc
 50
90.00000000000001
 51
180.0
  0
LINE
  5
196
330
1F
100
AcDbEntity
  8
図
  6
CONTINUOUS
 62
     6
100
AcDbLine
 10
574.2000000000162
 20
1853.850000028949
 30
0.0
 11
612.1999999999716
 21
1853.850000028949
 31
0.0
  0
ARC
  5
197
330
1F
100
AcDbEntity
  8
図
  6
CONTINUOUS
 62
     6
100
AcDbCircle
 10
608.3753591742316
 20
1852.592888105369
 30
0.0
 40
0.5
100
AcDbArc
 50
91.9999999997951
 51
180.0
  0
ARC
  5
198
330
1F
100
AcDbEntity
  8
図
  6
CONTINUOUS
 62
     6
100
AcDbCircle
 10
608.3753591742316
 20
1809.422090232074
 30
0.0
 40
0.5
100
AcDbArc
 50
180.0
 51
268.000000000205
  0
LINE
  5
199
330
1F
100
AcDbEntity
  8
図
  6
CONTINUOUS
 62
     6
100
AcDbLine
 10
607.8753591742316
 20
1809.422090232074
 30
0.0
 11
607.8753591742316
 21
1852.592888105369
 31
0.0
  0
LINE
  5
19A
330
1F
100
AcDbEntity
  8
図
  6
CONTINUOUS
 62
     6
100
AcDbLine
 10
565.5791653706729
 20
1795.011114801906
 30
0.0
 11
566.8999418870562
 21
1795.011114801906
 31
0.0
  0
LINE
  5
19B
330
1F
100
AcDbEntity
  8
図
  6
CONTINUOUS
 62
     6
100
AcDbLine
 10
565.5300015380817
 20
1795.176499930188
 30
0.0
 11
566.8999418870562
 21
1796.069932355334
 31
0.0
  0
LINE
  5
19C
330
1F
100
AcDbEntity
  8
図
  6
CONTINUOUS
 62
     6
100
AcDbLine
 10
566.3921356976316
 20
1797.798207039697
 30
0.0
 11
566.8999418870562
 21
1797.597435256277
 31
0.0
  0
LINE
  5
19D
330
1F
100
AcDbEntity
  8
図
  6
CONTINUOUS
 62
     6
100
AcDbLine
 10
566.3938348899364
 20
1799.264827214429
 30
0.0
 11
566.8999418870562
 21
1799.453184826918
 31
0.0
  0
LINE
  5
19E
330
1F
100
AcDbEntity
  8
図
  6
CONTINUOUS
 62
     6
100
AcDbLine
 10
563.3000000000648
 20
1799.160528133871
 30
0.0
 11
566.8999418870562
 21
1800.500002574045
 31
0.0
  0
LINE
  5
19F
330
1F
100
AcDbEntity
  8
図
  6
CONTINUOUS
 62
     6
100
AcDbLine
 10
564.845522046624
 20
1788.199917666839
 30
0.0
 11
566.8999418870562
 21
1788.199917666839
 31
0.0
  0
LINE
  5
1A0
330
1F
100
AcDbEntity
  8
図
  6
CONTINUOUS
 62
     6
100
AcDbLine
 10
566.8999418870562
 20
1789.541155858067
 30
0.0
 11
564.8016158252112
 21
1788.368481295329
 31
0.0
  0
LINE
  5
1A1
330
1F
100
AcDbEntity
  8
図
  6
CONTINUOUS
 62
     6
100
AcDbLine
 10
566.392192659001
 20
1791.634719783556
 30
0.0
 11
566.8999418870562
 21
1791.434038687534
 31
0.0
  0
LINE
  5
1A2
330
1F
100
AcDbEntity
  8
図
  6
CONTINUOUS
 62
     6
100
AcDbLine
 10
566.3938839587181
 20
1793.10142988096
 30
0.0
 11
566.8999418870562
 21
1793.28975676262
 31
0.0
  0
LINE
  5
1A3
330
1F
100
AcDbEntity
  8
図
  6
CONTINUOUS
 62
     6
100
AcDbLine
 10
563.3000000000648
 20
1787.000000028943
 30
0.0
 11
566.8999418870562
 21
1787.000000028943
 31
0.0
  0
LINE
  5
1A4
330
1F
100
AcDbEntity
  8
図
  6
CONTINUOUS
 62
     6
100
AcDbLine
 10
566.3352738370049
 20
1791.718419458957
 30
0.0
 11
566.3352738370049
 21
1793.017081344856
 31
0.0
  0
LINE
  5
1A5
330
1F
100
AcDbEntity
  8
図
  6
CONTINUOUS
 62
     6
100
AcDbLine
 10
563.3000000000648
 20
1791.870472587165
 30
0.0
 11
563.3000000000648
 21
1792.929290140601
 31
0.0
  0
LINE
  5
1A6
330
1F
100
AcDbEntity
  8
図
  6
CONTINUOUS
 62
     6
100
AcDbLine
 10
565.9117373669687
 20
1791.957008816978
 30
0.0
 11
565.9117373669687
 21
1792.792495876849
 31
0.0
  0
LINE
  5
1A7
330
1F
100
AcDbEntity
  8
図
  6
CONTINUOUS
 62
     6
100
AcDbLine
 10
564.7017375179976
 20
1792.471762950474
 30
0.0
 11
565.7903501563023
 21
1792.876845405641
 31
0.0
  0
LINE
  5
1A8
330
1F
100
AcDbEntity
  8
図
  6
CONTINUOUS
 62
     6
100
AcDbLine
 10
563.3000000000648
 20
1791.870472587165
 30
0.0
 11
565.8959195279722
 21
1790.84418853002
 31
0.0
  0
LINE
  5
1A9
330
1F
100
AcDbEntity
  8
図
  6
CONTINUOUS
 62
     6
100
AcDbLine
 10
563.3000000000648
 20
1790.670491958168
 30
0.0
 11
565.8628304986678
 21
1790.670491958168
 31
0.0
  0
LINE
  5
1AA
330
1F
100
AcDbEntity
  8
図
  6
CONTINUOUS
 62
     6
100
AcDbLine
 10
563.3000000000648
 20
1789.541155858067
 30
0.0
 11
563.3000000000648
 21
1790.670491958168
 31
0.0
  0
LINE
  5
1AB
330
1F
100
AcDbEntity
  8
図
  6
CONTINUOUS
 62
     6
100
AcDbLine
 10
563.3000000000648
 20
1789.541155858067
 30
0.0
 11
565.3544611463922
 21
1789.541155858067
 31
0.0
  0
LINE
  5
1AC
330
1F
100
AcDbEntity
  8
図
  6
CONTINUOUS
 62
     6
100
AcDbLine
 10
563.3000000000648
 20
1788.199917666839
 30
0.0
 11
565.3983667092152
 21
1789.372591861523
 31
0.0
  0
LINE
  5
1AD
330
1F
100
AcDbEntity
  8
図
  6
CONTINUOUS
 62
     6
100
AcDbLine
 10
563.3000000000648
 20
1787.000000028943
 30
0.0
 11
563.3000000000648
 21
1788.199917666839
 31
0.0
  0
LINE
  5
1AE
330
1F
100
AcDbEntity
  8
図
  6
CONTINUOUS
 62
     6
100
AcDbLine
 10
564.700033908387
 20
1792.30371755793
 30
0.0
 11
565.7886465466918
 21
1791.873312953205
 31
0.0
  0
LINE
  5
1AF
330
1F
100
AcDbEntity
  8
図
  6
CONTINUOUS
 62
     6
100
AcDbLine
 10
566.3352265936737
 20
1797.88190287353
 30
0.0
 11
566.3352265936737
 21
1799.180479357688
 31
0.0
  0
LINE
  5
1B0
330
1F
100
AcDbEntity
  8
図
  6
CONTINUOUS
 62
     6
100
AcDbLine
 10
563.3000000000648
 20
1798.031034555999
 30
0.0
 11
563.3000000000648
 21
1799.160528133871
 31
0.0
  0
LINE
  5
1B1
330
1F
100
AcDbEntity
  8
図
  6
CONTINUOUS
 62
     6
100
AcDbLine
 10
563.3000000000648
 20
1798.031034555999
 30
0.0
 11
566.1734167906443
 21
1796.895019394564
 31
0.0
  0
LINE
  5
1B2
330
1F
100
AcDbEntity
  8
図
  6
CONTINUOUS
 62
     6
100
AcDbLine
 10
565.027181405957
 20
1795.977922222664
 30
0.0
 11
566.1894907001742
 21
1796.7359377428
 31
0.0
  0
LINE
  5
1B3
330
1F
100
AcDbEntity
  8
図
  6
CONTINUOUS
 62
     6
100
AcDbLine
 10
563.3000000000648
 20
1797.199362942105
 30
0.0
 11
564.9240166727441
 21
1795.981308434668
 31
0.0
  0
LINE
  5
1B4
330
1F
100
AcDbEntity
  8
図
  6
CONTINUOUS
 62
     6
100
AcDbLine
 10
563.3000000000648
 20
1796.069932355334
 30
0.0
 11
563.3000000000648
 21
1797.199362942105
 31
0.0
  0
LINE
  5
1B5
330
1F
100
AcDbEntity
  8
図
  6
CONTINUOUS
 62
     6
100
AcDbLine
 10
563.3000000000648
 20
1796.069932355334
 30
0.0
 11
564.4957437851226
 21
1795.173114512778
 31
0.0
  0
LINE
  5
1B6
330
1F
100
AcDbEntity
  8
図
  6
CONTINUOUS
 62
     6
100
AcDbLine
 10
563.3000000000648
 20
1795.011114801906
 30
0.0
 11
564.4417433996168
 21
1795.011114801906
 31
0.0
  0
LINE
  5
1B7
330
1F
100
AcDbEntity
  8
図
  6
CONTINUOUS
 62
     6
100
AcDbLine
 10
563.3000000000648
 20
1794.058720727364
 30
0.0
 11
563.3000000000648
 21
1795.011114801906
 31
0.0
  0
LINE
  5
1B8
330
1F
100
AcDbEntity
  8
図
  6
CONTINUOUS
 62
     6
100
AcDbLine
 10
563.3000000000648
 20
1794.058720727364
 30
0.0
 11
565.8353332071019
 21
1794.058720727364
 31
0.0
  0
LINE
  5
1B9
330
1F
100
AcDbEntity
  8
図
  6
CONTINUOUS
 62
     6
100
AcDbLine
 10
564.700033908387
 20
1798.467208613329
 30
0.0
 11
565.7886465466918
 21
1798.03680400861
 31
0.0
  0
LINE
  5
1BA
330
1F
100
AcDbEntity
  8
図
  6
CONTINUOUS
 62
     6
100
AcDbLine
 10
564.7017375179976
 20
1798.635254005887
 30
0.0
 11
565.7903501563023
 21
1799.040336461039
 31
0.0
  0
LINE
  5
1BB
330
1F
100
AcDbEntity
  8
図
  6
CONTINUOUS
 62
     6
100
AcDbLine
 10
565.9117373669687
 20
1798.120499872384
 30
0.0
 11
565.9117373669687
 21
1798.955986932255
 31
0.0
  0
LINE
  5
1BC
330
1F
100
AcDbEntity
  8
図
  6
CONTINUOUS
 62
     6
100
AcDbLine
 10
563.3000000000648
 20
1792.929290140601
 30
0.0
 11
565.8667198848461
 21
1793.884371000269
 31
0.0
  0
LINE
  5
1BD
330
1F
100
AcDbEntity
  8
図
  6
CONTINUOUS
 62
     6
100
AcDbLine
 10
566.8999418870562
 20
1787.000000028943
 30
0.0
 11
566.8999418870562
 21
1788.199917666839
 31
0.0
  0
LINE
  5
1BE
330
1F
100
AcDbEntity
  8
図
  6
CONTINUOUS
 62
     6
100
AcDbLine
 10
566.8999418870562
 20
1789.541155858067
 30
0.0
 11
566.8999418870562
 21
1791.434038687534
 31
0.0
  0
LINE
  5
1BF
330
1F
100
AcDbEntity
  8
図
  6
CONTINUOUS
 62
     6
100
AcDbLine
 10
566.8999418870562
 20
1796.069932355334
 30
0.0
 11
566.8999418870562
 21
1797.597435256277
 31
0.0
  0
LINE
  5
1C0
330
1F
100
AcDbEntity
  8
図
  6
CONTINUOUS
 62
     6
100
AcDbLine
 10
566.8999418870562
 20
1799.453184826918
 30
0.0
 11
566.8999418870562
 21
1800.500002574045
 31
0.0
  0
LINE
  5
1C1
330
1F
100
AcDbEntity
  8
図
  6
CONTINUOUS
 62
     6
100
AcDbLine
 10
566.8999418870562
 20
1793.28975676262
 30
0.0
 11
566.8999418870562
 21
1795.011114801906
 31
0.0
  0
ARC
  5
1C2
330
1F
100
AcDbEntity
  8
図
  6
CONTINUOUS
 62
     6
100
AcDbCircle
 10
565.3544611463922
 20
1789.451155858078
 30
0.0
 40
0.09
100
AcDbArc
 50
299.19868253466
 51
90.00000000000001
  0
ARC
  5
1C3
330
1F
100
AcDbEntity
  8
図
  6
CONTINUOUS
 62
     6
100
AcDbCircle
 10
564.845522046624
 20
1788.289917666836
 30
0.0
 40
0.09
100
AcDbArc
 50
119.199162840574
 51
270.0
  0
ARC
  5
1C4
330
1F
100
AcDbEntity
  8
図
  6
CONTINUOUS
 62
     6
100
AcDbCircle
 10
565.8628304986678
 20
1790.760491958179
 30
0.0
 40
0.09
100
AcDbArc
 50
270.0
 51
68.42887814757134
  0
ARC
  5
1C5
330
1F
100
AcDbEntity
  8
図
  6
CONTINUOUS
 62
     6
100
AcDbCircle
 10
564.7331247286611
 20
1792.387413421696
 30
0.0
 40
0.09
100
AcDbArc
 50
110.4106820452397
 51
248.4276521042164
  0
ARC
  5
1C6
330
1F
100
AcDbEntity
  8
図
  6
CONTINUOUS
 62
     6
100
AcDbCircle
 10
565.821737366965
 20
1791.957008816978
 30
0.0
 40
0.09
100
AcDbArc
 50
248.4276521042164
 51
0.0
  0
ARC
  5
1C7
330
1F
100
AcDbEntity
  8
図
  6
CONTINUOUS
 62
     6
100
AcDbCircle
 10
565.821737366965
 20
1792.792495876849
 30
0.0
 40
0.09
100
AcDbArc
 50
0.0
 51
110.4106820452397
  0
ARC
  5
1C8
330
1F
100
AcDbEntity
  8
図
  6
CONTINUOUS
 62
     6
100
AcDbCircle
 10
566.4252738370024
 20
1791.718419458957
 30
0.0
 40
0.09
100
AcDbArc
 50
180.0
 51
248.4342527755859
  0
ARC
  5
1C9
330
1F
100
AcDbEntity
  8
図
  6
CONTINUOUS
 62
     6
100
AcDbCircle
 10
566.4252738370024
 20
1793.017081344856
 30
0.0
 40
0.09
100
AcDbArc
 50
110.4124940788513
 51
180.0
  0
ARC
  5
1CA
330
1F
100
AcDbEntity
  8
図
  6
CONTINUOUS
 62
     6
100
AcDbCircle
 10
565.8353332071019
 20
1793.96872072736
 30
0.0
 40
0.09
100
AcDbArc
 50
290.4103200453458
 51
90.00000000000001
  0
ARC
  5
1CB
330
1F
100
AcDbEntity
  8
図
  6
CONTINUOUS
 62
     6
100
AcDbCircle
 10
564.4417433996168
 20
1795.10111480191
 30
0.0
 40
0.09
100
AcDbArc
 50
270.0
 51
53.12979557452938
  0
ARC
  5
1CC
330
1F
100
AcDbEntity
  8
図
  6
CONTINUOUS
 62
     6
100
AcDbCircle
 10
565.5791653706729
 20
1795.10111480191
 30
0.0
 40
0.09
100
AcDbArc
 50
123.1111385284564
 51
270.0
  0
ARC
  5
1CD
330
1F
100
AcDbEntity
  8
図
  6
CONTINUOUS
 62
     6
100
AcDbCircle
 10
564.9780178645196
 20
1796.053307540816
 30
0.0
 40
0.09
100
AcDbArc
 50
233.1291539654676
 51
303.1109172418745
  0
ARC
  5
1CE
330
1F
100
AcDbEntity
  8
図
  6
CONTINUOUS
 62
     6
100
AcDbCircle
 10
566.1403271587296
 20
1796.811323060959
 30
0.0
 40
0.09
100
AcDbArc
 50
303.1109172418745
 51
68.42846562084799
  0
ARC
  5
1CF
330
1F
100
AcDbEntity
  8
図
  6
CONTINUOUS
 62
     6
100
AcDbCircle
 10
566.4252265936702
 20
1797.88190287353
 30
0.0
 40
0.09
100
AcDbArc
 50
180.0
 51
248.4276002402764
  0
ARC
  5
1D0
330
1F
100
AcDbEntity
  8
図
  6
CONTINUOUS
 62
     6
100
AcDbCircle
 10
566.4252265936702
 20
1799.180479357688
 30
0.0
 40
0.09
100
AcDbArc
 50
110.413734067204
 51
180.0
  0
ARC
  5
1D1
330
1F
100
AcDbEntity
  8
図
  6
CONTINUOUS
 62
     6
100
AcDbCircle
 10
565.821737366965
 20
1798.120499872384
 30
0.0
 40
0.09
100
AcDbArc
 50
248.4276521042164
 51
0.0
  0
ARC
  5
1D2
330
1F
100
AcDbEntity
  8
図
  6
CONTINUOUS
 62
     6
100
AcDbCircle
 10
565.821737366965
 20
1798.955986932255
 30
0.0
 40
0.09
100
AcDbArc
 50
0.0
 51
110.4106820452397
  0
ARC
  5
1D3
330
1F
100
AcDbEntity
  8
図
  6
CONTINUOUS
 62
     6
100
AcDbCircle
 10
564.7331247286611
 20
1798.550904477109
 30
0.0
 40
0.09
100
AcDbArc
 50
110.4106820452397
 51
248.4276521042164
  0
LINE
  5
1D4
330
1F
100
AcDbEntity
  8
図
  6
CONTINUOUS
 62
     6
100
AcDbLine
 10
612.6999999999653
 20
1807.65000002896
 30
0.0
 11
612.6999999999716
 21
1803.400000028945
 31
0.0
  0
ARC
  5
1D5
330
1F
100
AcDbEntity
  8
図
  6
CONTINUOUS
 62
     6
100
AcDbCircle
 10
612.1999999999716
 20
1807.65000002896
 30
0.0
 40
0.5
100
AcDbArc
 50
0.0
 51
90.00000000000001
  0
LINE
  5
1D6
330
1F
100
AcDbEntity
  8
図
  6
CONTINUOUS
 62
     6
100
AcDbLine
 10
612.3363000000136
 20
1853.35000002895
 30
0.0
 11
612.3363000000136
 21
1853.231511979066
 31
0.0
  0
ARC
  5
1D7
330
1F
100
AcDbEntity
  8
図
  6
CONTINUOUS
 62
     6
100
AcDbCircle
 10
611.8363000000136
 20
1808.65000002896
 30
0.0
 40
0.5
100
AcDbArc
 50
270.0
 51
0.0
  0
ARC
  5
1D8
330
1F
100
AcDbEntity
  8
図
  6
CONTINUOUS
 62
     6
100
AcDbCircle
 10
612.1999999999716
 20
1803.400000028945
 30
0.0
 40
0.5
100
AcDbArc
 50
270.0
 51
0.0
  0
LINE
  5
1D9
330
1F
100
AcDbEntity
  8
図
  6
CONTINUOUS
 62
     6
100
AcDbLine
 10
612.6999999999716
 20
1854.350000028949
 30
0.0
 11
612.6999999999798
 21
1858.600000028928
 31
0.0
  0
ARC
  5
1DA
330
1F
100
AcDbEntity
  8
図
  6
CONTINUOUS
 62
     6
100
AcDbCircle
 10
612.1999999999789
 20
1858.600000028928
 30
0.0
 40
0.5
100
AcDbArc
 50
0.0
 51
90.00000000000001
  0
ARC
  5
1DB
330
1F
100
AcDbEntity
  8
図
  6
CONTINUOUS
 62
     6
100
AcDbCircle
 10
612.1999999999716
 20
1854.350000028949
 30
0.0
 40
0.5
100
AcDbArc
 50
270.0
 51
0.0
  0
ARC
  5
1DC
330
1F
100
AcDbEntity
  8
図
  6
CONTINUOUS
 62
     6
100
AcDbCircle
 10
611.8363000000136
 20
1853.35000002895
 30
0.0
 40
0.5
100
AcDbArc
 50
0.0
 51
90.00000000000001
  0
ARC
  5
1DD
330
1F
100
AcDbEntity
  8
図
  6
CONTINUOUS
 62
     6
100
AcDbCircle
 10
545.2801893824981
 20
1831.007489168718
 30
0.0
 40
85.0
100
AcDbArc
 50
342.7088690305453
 51
17.28103459079822
  0
LINE
  5
1DE
330
1F
100
AcDbEntity
  8
図
  6
CONTINUOUS
 62
     6
100
AcDbLine
 10
623.137716129404
 20
1858.257489168718
 30
0.0
 11
613.0801893824937
 21
1858.257489168718
 31
0.0
  0
ARC
  5
1DF
330
1F
100
AcDbEntity
  8
図
  6
CONTINUOUS
 62
     6
100
AcDbCircle
 10
545.2801893824981
 20
1831.007489168718
 30
0.0
 40
82.48852629999999
100
AcDbArc
 50
340.7836159010503
 51
19.28995813237455
  0
LINE
  5
1E0
330
1F
100
AcDbEntity
  8
図
  6
CONTINUOUS
 62
     6
100
AcDbLine
 10
613.0801893824937
 20
1805.857489168716
 30
0.0
 11
612.6999999999798
 21
1805.857489168716
 31
0.0
  0
ARC
  5
1E1
330
1F
100
AcDbEntity
  8
図
  6
CONTINUOUS
 62
     6
100
AcDbCircle
 10
612.780189382499
 20
1853.547195801155
 30
0.0
 40
0.3
100
AcDbArc
 50
271.9999999997951
 51
0.0
  0
LINE
  5
1E2
330
1F
100
AcDbEntity
  8
図
  6
CONTINUOUS
 62
     6
100
AcDbLine
 10
613.0801893824937
 20
1853.547195801155
 30
0.0
 11
613.0801893824937
 21
1858.257489168718
 31
0.0
  0
LINE
  5
1E3
330
1F
100
AcDbEntity
  8
図
  6
CONTINUOUS
 62
     6
100
AcDbLine
 10
612.7906592315094
 20
1853.247378553067
 30
0.0
 11
608.3579094258794
 21
1853.09258351889
 31
0.0
  0
ARC
  5
1E4
330
1F
100
AcDbEntity
  8
図
  6
CONTINUOUS
 62
     6
100
AcDbCircle
 10
612.780189382499
 20
1808.467782536274
 30
0.0
 40
0.3
100
AcDbArc
 50
0.0
 51
87.99999999978766
  0
LINE
  5
1E5
330
1F
100
AcDbEntity
  8
図
  6
CONTINUOUS
 62
     6
100
AcDbLine
 10
612.7906592315094
 20
1808.767599784391
 30
0.0
 11
608.3579094258794
 21
1808.922394818561
 31
0.0
  0
LINE
  5
1E6
330
1F
100
AcDbEntity
  8
図
  6
CONTINUOUS
 62
     6
100
AcDbLine
 10
613.0801893824937
 20
1808.467782536274
 30
0.0
 11
613.0801893824937
 21
1803.757489168718
 31
0.0
  0
LINE
  5
1E7
330
1F
100
AcDbEntity
  8
図
  6
CONTINUOUS
 62
     6
100
AcDbLine
 10
623.137716129404
 20
1858.257489168725
 30
0.0
 11
626.4432197596298
 21
1856.257489168718
 31
0.0
  0
LINE
  5
1E8
330
1F
100
AcDbEntity
  8
図
  6
CONTINUOUS
 62
     6
100
AcDbLine
 10
623.137716129404
 20
1803.757489168718
 30
0.0
 11
612.6913672157498
 21
1803.757489168718
 31
0.0
  0
LINE
  5
1E9
330
1F
100
AcDbEntity
  8
図
  6
CONTINUOUS
 62
     6
100
AcDbLine
 10
623.137716129404
 20
1803.757489168718
 30
0.0
 11
626.4432197596298
 21
1805.757489168718
 31
0.0
  0
LINE
  5
1EA
330
1F
100
AcDbEntity
  8
図
  6
EXLTYPE3
 62
     6
100
AcDbLine
 10
539.6030089551596
 20
1791.000000003529
 30
0.0
 11
568.4516416061824
 21
1791.000000003529
 31
0.0
  0
LINE
  5
1EB
330
1F
100
AcDbEntity
  8
図
  6
EXLTYPE3
 62
     6
100
AcDbLine
 10
539.796401695251
 20
1871.000000003529
 30
0.0
 11
570.5137014818038
 21
1871.000000003529
 31
0.0
  0
LINE
  5
1EC
330
1F
100
AcDbEntity
  8
図
  6
EXLTYPE3
 62
     6
100
AcDbLine
 10
620.8000000000138
 20
1810.146008633106
 30
0.0
 11
620.8000000000138
 21
1852.555419291318
 31
0.0
  0
LINE
  5
1ED
330
1F
100
AcDbEntity
  8
図
  6
EXLTYPE3
 62
     6
100
AcDbLine
 10
624.8500000000167
 20
1843.500000027838
 30
0.0
 11
616.7500000000191
 21
1843.500000027838
 31
0.0
  0
LINE
  5
1EE
330
1F
100
AcDbEntity
  8
図
  6
EXLTYPE3
 62
     6
100
AcDbLine
 10
549.3528221257257
 20
1831.000000003529
 30
0.0
 11
1285.088007588194
 21
1831.000000003529
 31
0.0
  0
CIRCLE
  5
1EF
330
1F
100
AcDbEntity
  8
図
  6
EXLTYPE1
 62
     6
100
AcDbCircle
 10
620.8000000000138
 20
1818.500000027838
 30
0.0
 40
4.7
  0
ARC
  5
1F0
330
1F
100
AcDbEntity
  8
図
  6
EXLTYPE1
 62
     6
100
AcDbCircle
 10
619.1250000000191
 20
1816.825000027835
 30
0.0
 40
1.175
100
AcDbArc
 50
0.0
 51
90.00000000000001
  0
ARC
  5
1F1
330
1F
100
AcDbEntity
  8
図
  6
EXLTYPE1
 62
     6
100
AcDbCircle
 10
622.4750000000167
 20
1820.17500002784
 30
0.0
 40
1.175
100
AcDbArc
 50
180.0
 51
270.0
  0
ARC
  5
1F2
330
1F
100
AcDbEntity
  8
図
  6
EXLTYPE1
 62
     6
100
AcDbCircle
 10
622.4750000000167
 20
1816.825000027835
 30
0.0
 40
1.175
100
AcDbArc
 50
90.00000000000001
 51
180.0
  0
ARC
  5
1F3
330
1F
100
AcDbEntity
  8
図
  6
EXLTYPE1
 62
     6
100
AcDbCircle
 10
619.1250000000191
 20
1820.17500002784
 30
0.0
 40
1.175
100
AcDbArc
 50
270.0
 51
0.0
  0
LINE
  5
1F4
330
1F
100
AcDbEntity
  8
図
  6
EXLTYPE1
 62
     6
100
AcDbLine
 10
621.3000000000138
 20
1816.350000027836
 30
0.0
 11
620.3000000000138
 21
1816.350000027836
 31
0.0
  0
LINE
  5
1F5
330
1F
100
AcDbEntity
  8
図
  6
EXLTYPE1
 62
     6
100
AcDbLine
 10
619.1250000000191
 20
1818.000000027838
 30
0.0
 11
618.6500000000196
 21
1818.000000027838
 31
0.0
  0
LINE
  5
1F6
330
1F
100
AcDbEntity
  8
図
  6
EXLTYPE1
 62
     6
100
AcDbLine
 10
618.6500000000196
 20
1818.000000027838
 30
0.0
 11
618.6500000000196
 21
1819.000000027838
 31
0.0
  0
LINE
  5
1F7
330
1F
100
AcDbEntity
  8
図
  6
EXLTYPE1
 62
     6
100
AcDbLine
 10
620.3000000000138
 20
1820.650000027839
 30
0.0
 11
621.3000000000138
 21
1820.650000027839
 31
0.0
  0
LINE
  5
1F8
330
1F
100
AcDbEntity
  8
図
  6
EXLTYPE1
 62
     6
100
AcDbLine
 10
621.3000000000138
 20
1820.650000027839
 30
0.0
 11
621.3000000000138
 21
1820.17500002784
 31
0.0
  0
LINE
  5
1F9
330
1F
100
AcDbEntity
  8
図
  6
EXLTYPE1
 62
     6
100
AcDbLine
 10
622.9500000000162
 20
1819.000000027838
 30
0.0
 11
622.9500000000162
 21
1818.000000027838
 31
0.0
  0
LINE
  5
1FA
330
1F
100
AcDbEntity
  8
図
  6
EXLTYPE1
 62
     6
100
AcDbLine
 10
622.9500000000162
 20
1818.000000027838
 30
0.0
 11
622.4750000000167
 21
1818.000000027838
 31
0.0
  0
LINE
  5
1FB
330
1F
100
AcDbEntity
  8
図
  6
EXLTYPE1
 62
     6
100
AcDbLine
 10
621.3000000000138
 20
1816.825000027835
 30
0.0
 11
621.3000000000138
 21
1816.350000027836
 31
0.0
  0
LINE
  5
1FC
330
1F
100
AcDbEntity
  8
図
  6
EXLTYPE1
 62
     6
100
AcDbLine
 10
620.3000000000138
 20
1816.350000027836
 30
0.0
 11
620.3000000000138
 21
1816.825000027835
 31
0.0
  0
LINE
  5
1FD
330
1F
100
AcDbEntity
  8
図
  6
EXLTYPE1
 62
     6
100
AcDbLine
 10
622.4750000000167
 20
1819.000000027838
 30
0.0
 11
622.9500000000162
 21
1819.000000027838
 31
0.0
  0
LINE
  5
1FE
330
1F
100
AcDbEntity
  8
図
  6
EXLTYPE1
 62
     6
100
AcDbLine
 10
618.6500000000196
 20
1819.000000027838
 30
0.0
 11
619.1250000000191
 21
1819.000000027838
 31
0.0
  0
LINE
  5
1FF
330
1F
100
AcDbEntity
  8
図
  6
EXLTYPE1
 62
     6
100
AcDbLine
 10
620.3000000000138
 20
1820.17500002784
 30
0.0
 11
620.3000000000138
 21
1820.650000027839
 31
0.0
  0
CIRCLE
  5
200
330
1F
100
AcDbEntity
  8
図
  6
EXLTYPE1
 62
     6
100
AcDbCircle
 10
620.8000000000138
 20
1843.500000027838
 30
0.0
 40
4.7
  0
ARC
  5
201
330
1F
100
AcDbEntity
  8
図
  6
EXLTYPE1
 62
     6
100
AcDbCircle
 10
619.1250000000191
 20
1841.825000027835
 30
0.0
 40
1.175
100
AcDbArc
 50
0.0
 51
90.00000000000001
  0
ARC
  5
202
330
1F
100
AcDbEntity
  8
図
  6
EXLTYPE1
 62
     6
100
AcDbCircle
 10
622.4750000000167
 20
1845.17500002784
 30
0.0
 40
1.175
100
AcDbArc
 50
180.0
 51
270.0
  0
ARC
  5
203
330
1F
100
AcDbEntity
  8
図
  6
EXLTYPE1
 62
     6
100
AcDbCircle
 10
622.4750000000167
 20
1841.825000027835
 30
0.0
 40
1.175
100
AcDbArc
 50
90.00000000000001
 51
180.0
  0
ARC
  5
204
330
1F
100
AcDbEntity
  8
図
  6
EXLTYPE1
 62
     6
100
AcDbCircle
 10
619.1250000000191
 20
1845.17500002784
 30
0.0
 40
1.175
100
AcDbArc
 50
270.0
 51
0.0
  0
LINE
  5
205
330
1F
100
AcDbEntity
  8
図
  6
EXLTYPE1
 62
     6
100
AcDbLine
 10
621.3000000000138
 20
1841.350000027836
 30
0.0
 11
620.3000000000138
 21
1841.350000027836
 31
0.0
  0
LINE
  5
206
330
1F
100
AcDbEntity
  8
図
  6
EXLTYPE1
 62
     6
100
AcDbLine
 10
619.1250000000191
 20
1843.000000027838
 30
0.0
 11
618.6500000000196
 21
1843.000000027838
 31
0.0
  0
LINE
  5
207
330
1F
100
AcDbEntity
  8
図
  6
EXLTYPE1
 62
     6
100
AcDbLine
 10
618.6500000000196
 20
1843.000000027838
 30
0.0
 11
618.6500000000196
 21
1844.000000027838
 31
0.0
  0
LINE
  5
208
330
1F
100
AcDbEntity
  8
図
  6
EXLTYPE1
 62
     6
100
AcDbLine
 10
620.3000000000138
 20
1845.650000027839
 30
0.0
 11
621.3000000000138
 21
1845.650000027839
 31
0.0
  0
LINE
  5
209
330
1F
100
AcDbEntity
  8
図
  6
EXLTYPE1
 62
     6
100
AcDbLine
 10
621.3000000000138
 20
1845.650000027839
 30
0.0
 11
621.3000000000138
 21
1845.17500002784
 31
0.0
  0
LINE
  5
20A
330
1F
100
AcDbEntity
  8
図
  6
EXLTYPE1
 62
     6
100
AcDbLine
 10
622.9500000000162
 20
1844.000000027838
 30
0.0
 11
622.9500000000162
 21
1843.000000027838
 31
0.0
  0
LINE
  5
20B
330
1F
100
AcDbEntity
  8
図
  6
EXLTYPE1
 62
     6
100
AcDbLine
 10
622.9500000000162
 20
1843.000000027838
 30
0.0
 11
622.4750000000167
 21
1843.000000027838
 31
0.0
  0
LINE
  5
20C
330
1F
100
AcDbEntity
  8
図
  6
EXLTYPE1
 62
     6
100
AcDbLine
 10
621.3000000000138
 20
1841.825000027835
 30
0.0
 11
621.3000000000138
 21
1841.350000027836
 31
0.0
  0
LINE
  5
20D
330
1F
100
AcDbEntity
  8
図
  6
EXLTYPE1
 62
     6
100
AcDbLine
 10
620.3000000000138
 20
1841.350000027836
 30
0.0
 11
620.3000000000138
 21
1841.825000027835
 31
0.0
  0
LINE
  5
20E
330
1F
100
AcDbEntity
  8
図
  6
EXLTYPE1
 62
     6
100
AcDbLine
 10
622.4750000000167
 20
1844.000000027838
 30
0.0
 11
622.9500000000162
 21
1844.000000027838
 31
0.0
  0
LINE
  5
20F
330
1F
100
AcDbEntity
  8
図
  6
EXLTYPE1
 62
     6
100
AcDbLine
 10
618.6500000000196
 20
1844.000000027838
 30
0.0
 11
619.1250000000191
 21
1844.000000027838
 31
0.0
  0
LINE
  5
210
330
1F
100
AcDbEntity
  8
図
  6
EXLTYPE1
 62
     6
100
AcDbLine
 10
620.3000000000138
 20
1845.17500002784
 30
0.0
 11
620.3000000000138
 21
1845.650000027839
 31
0.0
  0
LINE
  5
211
330
1F
100
AcDbEntity
  8
図
  6
EXLTYPE7
 62
     6
100
AcDbLine
 10
591.2000000011358
 20
1886.500000003514
 30
0.0
 11
591.2000000011358
 21
1775.500000003528
 31
0.0
  0
LINE
  5
212
330
1F
100
AcDbEntity
  8
図
  6
CONTINUOUS
 62
     6
100
AcDbLine
 10
616.0000000000191
 20
1788.500000028944
 30
0.0
 11
616.0000000000191
 21
1801.90000002896
 31
0.0
  0
LINE
  5
213
330
1F
100
AcDbEntity
  8
図
  6
CONTINUOUS
 62
     6
100
AcDbLine
 10
565.8000000000293
 20
1886.000000028944
 30
0.0
 11
555.0000000000191
 21
1886.000000028944
 31
0.0
  0
LINE
  5
214
330
1F
100
AcDbEntity
  8
図
  6
CONTINUOUS
 62
     6
100
AcDbLine
 10
555.0000000000191
 20
1886.000000028944
 30
0.0
 11
555.0000000000191
 21
1776.000000028943
 31
0.0
  0
LINE
  5
215
330
1F
100
AcDbEntity
  8
図
  6
CONTINUOUS
 62
     6
100
AcDbLine
 10
555.0000000000191
 20
1776.000000028943
 30
0.0
 11
565.8000000000138
 21
1776.000000028943
 31
0.0
  0
LINE
  5
216
330
1F
100
AcDbEntity
  8
図
  6
CONTINUOUS
 62
     6
100
AcDbLine
 10
572.6038475772548
 20
1876.500000028944
 30
0.0
 11
613.0000000000182
 21
1876.500000028944
 31
0.0
  0
LINE
  5
217
330
1F
100
AcDbEntity
  8
図
  6
CONTINUOUS
 62
     6
100
AcDbLine
 10
572.6038475772548
 20
1785.500000028943
 30
0.0
 11
613.0000000000182
 21
1785.500000028943
 31
0.0
  0
ARC
  5
218
330
1F
100
AcDbEntity
  8
図
  6
CONTINUOUS
 62
     6
100
AcDbCircle
 10
613.0000000000182
 20
1788.500000028944
 30
0.0
 40
3.0
100
AcDbArc
 50
270.0
 51
0.0
  0
LINE
  5
219
330
1F
100
AcDbEntity
  8
図
  6
CONTINUOUS
 62
     6
100
AcDbLine
 10
561.3000000000648
 20
1886.000000028944
 30
0.0
 11
561.3000000000648
 21
1776.000000028943
 31
0.0
  0
LINE
  5
21A
330
1F
100
AcDbEntity
  8
図
  6
CONTINUOUS
 62
     6
100
AcDbLine
 10
561.3000000000648
 20
1859.100000028949
 30
0.0
 11
615.0000000000191
 21
1859.100000028949
 31
0.0
  0
LINE
  5
21B
330
1F
100
AcDbEntity
  8
図
  6
CONTINUOUS
 62
     6
100
AcDbLine
 10
561.3000000000648
 20
1802.90000002896
 30
0.0
 11
615.0000000000191
 21
1802.90000002896
 31
0.0
  0
ARC
  5
21C
330
1F
100
AcDbEntity
  8
図
  6
CONTINUOUS
 62
     6
100
AcDbCircle
 10
565.8000000000293
 20
1877.000000028944
 30
0.0
 40
9.0
100
AcDbArc
 50
12.0246991807163
 51
90.00000000000001
  0
ARC
  5
21D
330
1F
100
AcDbEntity
  8
図
  6
CONTINUOUS
 62
     6
100
AcDbCircle
 10
577.5366945943351
 20
1879.500000028958
 30
0.0
 40
3.0
100
AcDbArc
 50
192.0246991807162
 51
270.0
  0
ARC
  5
21E
330
1F
100
AcDbEntity
  8
図
  6
CONTINUOUS
 62
     6
100
AcDbCircle
 10
565.8000000000138
 20
1785.000000028944
 30
0.0
 40
9.0
100
AcDbArc
 50
270.0
 51
347.9753008192838
  0
ARC
  5
21F
330
1F
100
AcDbEntity
  8
図
  6
CONTINUOUS
 62
     6
100
AcDbCircle
 10
577.5366945943206
 20
1782.500000028958
 30
0.0
 40
3.0
100
AcDbArc
 50
90.00000000000001
 51
167.9753008192838
  0
ARC
  5
220
330
1F
100
AcDbEntity
  8
図
  6
CONTINUOUS
 62
     6
100
AcDbCircle
 10
613.0000000000182
 20
1873.500000028958
 30
0.0
 40
3.0
100
AcDbArc
 50
0.0
 51
90.00000000000001
  0
LINE
  5
221
330
1F
100
AcDbEntity
  8
図
  6
CONTINUOUS
 62
     6
100
AcDbLine
 10
616.0000000000109
 20
1860.100000028935
 30
0.0
 11
616.0000000000191
 21
1873.500000028958
 31
0.0
  0
LINE
  5
222
330
1F
100
AcDbEntity
  8
図
  6
CONTINUOUS
 62
     6
100
AcDbLine
 10
613.900598000012
 20
1859.100000028949
 30
0.0
 11
613.900598000012
 21
1858.257489168718
 31
0.0
  0
ARC
  5
223
330
1F
100
AcDbEntity
  8
図
  6
CONTINUOUS
 62
     6
100
AcDbCircle
 10
615.0000000000191
 20
1801.90000002896
 30
0.0
 40
1.0
100
AcDbArc
 50
0.0
 51
90.00000000000001
  0
ARC
  5
224
330
1F
100
AcDbEntity
  8
図
  6
CONTINUOUS
 62
     6
100
AcDbCircle
 10
615.0000000000191
 20
1860.100000028935
 30
0.0
 40
1.0
100
AcDbArc
 50
270.0
 51
0.0
  0
LINE
  5
225
330
1F
100
AcDbEntity
  8
図
  6
CONTINUOUS
 62
     6
100
AcDbLine
 10
1245.000000000019
 20
1802.000000002415
 30
0.0
 11
728.0000000000191
 21
1802.000000002415
 31
0.0
  0
LINE
  5
226
330
1F
100
AcDbEntity
  8
図
  6
CONTINUOUS
 62
     6
100
AcDbLine
 10
1248.988872021019
 20
1802.83000000241
 30
0.0
 11
725.9285029568173
 21
1802.83000000241
 31
0.0
  0
ARC
  5
227
330
1F
100
AcDbEntity
  8
図
  6
CONTINUOUS
 62
     6
100
AcDbCircle
 10
1245.000000000019
 20
1812.000000002415
 30
0.0
 40
10.0
100
AcDbArc
 50
270.0
 51
0.0
  0
LINE
  5
228
330
1F
100
AcDbEntity
  8
図
  6
CONTINUOUS
 62
     6
100
AcDbLine
 10
1255.000000000019
 20
1812.000000002415
 30
0.0
 11
1255.000000000019
 21
1831.000000002415
 31
0.0
  0
LINE
  5
229
330
1F
100
AcDbEntity
  8
図
  6
CONTINUOUS
 62
     6
100
AcDbLine
 10
725.0000000000191
 20
1805.000000002415
 30
0.0
 11
725.0000000000191
 21
1831.000000002415
 31
0.0
  0
ARC
  5
22A
330
1F
100
AcDbEntity
  8
図
  6
CONTINUOUS
 62
     6
100
AcDbCircle
 10
728.0000000000191
 20
1805.000000002415
 30
0.0
 40
3.0
100
AcDbArc
 50
180.0
 51
270.0
  0
LINE
  5
22B
330
1F
100
AcDbEntity
  8
図
  6
CONTINUOUS
 62
     6
100
AcDbLine
 10
1245.000000000019
 20
1860.000000002415
 30
0.0
 11
728.0000000000191
 21
1860.000000002415
 31
0.0
  0
LINE
  5
22C
330
1F
100
AcDbEntity
  8
図
  6
CONTINUOUS
 62
     6
100
AcDbLine
 10
1248.988872021034
 20
1859.170000002414
 30
0.0
 11
725.9285029568173
 21
1859.170000002414
 31
0.0
  0
ARC
  5
22D
330
1F
100
AcDbEntity
  8
図
  6
CONTINUOUS
 62
     6
100
AcDbCircle
 10
1245.000000000019
 20
1850.000000002415
 30
0.0
 40
10.0
100
AcDbArc
 50
0.0
 51
90.00000000000001
  0
LINE
  5
22E
330
1F
100
AcDbEntity
  8
図
  6
CONTINUOUS
 62
     6
100
AcDbLine
 10
1255.000000000019
 20
1850.000000002415
 30
0.0
 11
1255.000000000019
 21
1831.000000002415
 31
0.0
  0
LINE
  5
22F
330
1F
100
AcDbEntity
  8
図
  6
CONTINUOUS
 62
     6
100
AcDbLine
 10
725.0000000000191
 20
1857.000000002415
 30
0.0
 11
725.0000000000191
 21
1831.000000002415
 31
0.0
  0
ARC
  5
230
330
1F
100
AcDbEntity
  8
図
  6
CONTINUOUS
 62
     6
100
AcDbCircle
 10
728.0000000000191
 20
1857.000000002415
 30
0.0
 40
3.0
100
AcDbArc
 50
90.00000000000001
 51
180.0
  0
LINE
  5
231
330
1F
100
AcDbEntity
  8
図
  6
CONTINUOUS
 62
     6
100
AcDbLine
 10
725.0000000000191
 20
1806.000000002408
 30
0.0
 11
626.5182684193387
 21
1806.000000002415
 31
0.0
  0
LINE
  5
232
330
1F
100
AcDbEntity
  8
図
  6
CONTINUOUS
 62
     6
100
AcDbLine
 10
725.0000000000191
 20
1856.000000002408
 30
0.0
 11
626.5228776826007
 21
1856.000000002408
 31
0.0
  0
LINE
  5
233
330
1F
100
AcDbEntity
  8
図
  6
EXLTYPE1
 62
     6
100
AcDbLine
 10
558.2000000000198
 20
1791.000000003529
 30
0.0
 11
570.5137014818301
 21
1791.000000003529
 31
0.0
  0
LINE
  5
234
330
1F
100
AcDbEntity
  8
図
  6
EXLTYPE1
 62
     6
100
AcDbLine
 10
558.1999999999803
 20
1791.000000003528
 30
0.0
 11
622.9999999999791
 21
1791.000000003528
 31
0.0
  0
LINE
  5
235
330
1F
100
AcDbEntity
  8
図
  6
EXLTYPE1
 62
     6
100
AcDbLine
 10
558.1999999999803
 20
1787.800000003538
 30
0.0
 11
622.9999999999791
 21
1787.800000003538
 31
0.0
  0
LINE
  5
236
330
1F
100
AcDbEntity
  8
図
  6
EXLTYPE1
 62
     6
100
AcDbLine
 10
622.9999999999791
 20
1731.000000003528
 30
0.0
 11
558.1999999999803
 21
1731.000000003528
 31
0.0
  0
LINE
  5
237
330
1F
100
AcDbEntity
  8
図
  6
EXLTYPE1
 62
     6
100
AcDbLine
 10
622.9999999999791
 20
1734.200000003525
 30
0.0
 11
558.1999999999803
 21
1734.200000003525
 31
0.0
  0
LINE
  5
238
330
1F
100
AcDbEntity
  8
図
  6
EXLTYPE1
 62
     6
100
AcDbLine
 10
622.9999999999791
 20
1791.000000003528
 30
0.0
 11
622.9999999999791
 21
1787.800000003538
 31
0.0
  0
LINE
  5
239
330
1F
100
AcDbEntity
  8
図
  6
EXLTYPE1
 62
     6
100
AcDbLine
 10
622.9999999999791
 20
1734.200000003525
 30
0.0
 11
622.9999999999791
 21
1731.000000003528
 31
0.0
  0
LINE
  5
23A
330
1F
100
AcDbEntity
  8
図
  6
EXLTYPE1
 62
     6
100
AcDbLine
 10
558.1999999999803
 20
1734.200000003525
 30
0.0
 11
558.1999999999803
 21
1787.800000003538
 31
0.0
  0
LINE
  5
23B
330
1F
100
AcDbEntity
  8
図
  6
EXLTYPE1
 62
     6
100
AcDbLine
 10
571.4699999999802
 20
1787.800000003538
 30
0.0
 11
571.4699999999802
 21
1791.000000003528
 31
0.0
  0
ARC
  5
23C
330
1F
100
AcDbEntity
  8
図
  6
EXLTYPE1
 62
     6
100
AcDbCircle
 10
558.1999999999803
 20
1787.800000003538
 30
0.0
 40
3.200000000000001
100
AcDbArc
 50
90.00000000000001
 51
180.0
  0
ARC
  5
23D
330
1F
100
AcDbEntity
  8
図
  6
EXLTYPE1
 62
     6
100
AcDbCircle
 10
558.1999999999803
 20
1734.200000003525
 30
0.0
 40
3.200000000000001
100
AcDbArc
 50
180.0
 51
270.0
  0
LINE
  5
23E
330
1F
100
AcDbEntity
  8
図
  6
EXLTYPE1
 62
     6
100
AcDbLine
 10
571.4699999999793
 20
1731.000000003528
 30
0.0
 11
571.4699999999802
 21
1734.200000003525
 31
0.0
  0
LINE
  5
23F
330
1F
100
AcDbEntity
  8
図
  6
EXLTYPE1
 62
     6
100
AcDbLine
 10
619.9999999999773
 20
1731.000000003528
 30
0.0
 11
605.9999999999773
 21
1731.000000003528
 31
0.0
  0
LINE
  5
240
330
1F
100
AcDbEntity
  8
図
  6
EXLTYPE1
 62
     6
100
AcDbLine
 10
605.9999999999773
 20
1721.000000003528
 30
0.0
 11
619.9999999999773
 21
1721.000000003535
 31
0.0
  0
LINE
  5
241
330
1F
100
AcDbEntity
  8
図
  6
EXLTYPE1
 62
     6
100
AcDbLine
 10
605.9999999999773
 20
1721.000000003528
 30
0.0
 11
605.9999999999773
 21
1731.000000003528
 31
0.0
  0
LINE
  5
242
330
1F
100
AcDbEntity
  8
図
  6
EXLTYPE1
 62
     6
100
AcDbLine
 10
619.9999999999773
 20
1721.000000003535
 30
0.0
 11
619.9999999999773
 21
1731.000000003528
 31
0.0
  0
LINE
  5
243
330
1F
100
AcDbEntity
  8
図
  6
EXLTYPE1
 62
     6
100
AcDbLine
 10
607.7999999999774
 20
1791.000000003535
 30
0.0
 11
607.7999999999784
 21
1787.800000003538
 31
0.0
  0
LINE
  5
244
330
1F
100
AcDbEntity
  8
図
  6
EXLTYPE1
 62
     6
100
AcDbLine
 10
618.1999999999771
 20
1791.000000003535
 30
0.0
 11
618.1999999999771
 21
1787.800000003538
 31
0.0
  0
LINE
  5
245
330
1F
100
AcDbEntity
  8
図
  6
EXLTYPE1
 62
     6
100
AcDbLine
 10
607.7999999999802
 20
1731.000000003528
 30
0.0
 11
607.7999999999802
 21
1734.200000003525
 31
0.0
  0
LINE
  5
246
330
1F
100
AcDbEntity
  8
図
  6
EXLTYPE1
 62
     6
100
AcDbLine
 10
618.1999999999794
 20
1731.000000003528
 30
0.0
 11
618.1999999999794
 21
1734.200000003525
 31
0.0
  0
LINE
  5
247
330
1F
100
AcDbEntity
  8
図
  6
EXLTYPE1
 62
     6
100
AcDbLine
 10
558.1999999999803
 20
1784.000000003528
 30
0.0
 11
557.6999999999794
 21
1784.000000003528
 31
0.0
  0
LINE
  5
248
330
1F
100
AcDbEntity
  8
図
  6
EXLTYPE1
 62
     6
100
AcDbLine
 10
554.9999999999804
 20
1746.300000003524
 30
0.0
 11
557.6999999999794
 21
1749.000000003528
 31
0.0
  0
LINE
  5
249
330
1F
100
AcDbEntity
  8
図
  6
EXLTYPE1
 62
     6
100
AcDbLine
 10
558.1999999999803
 20
1749.000000003528
 30
0.0
 11
557.6999999999794
 21
1749.000000003528
 31
0.0
  0
LINE
  5
24A
330
1F
100
AcDbEntity
  8
図
  6
EXLTYPE1
 62
     6
100
AcDbLine
 10
554.9999999999804
 20
1740.70000000354
 30
0.0
 11
557.6999999999794
 21
1738.000000003528
 31
0.0
  0
LINE
  5
24B
330
1F
100
AcDbEntity
  8
図
  6
EXLTYPE1
 62
     6
100
AcDbLine
 10
558.1999999999803
 20
1738.000000003528
 30
0.0
 11
557.6999999999794
 21
1738.000000003528
 31
0.0
  0
LINE
  5
24C
330
1F
100
AcDbEntity
  8
図
  6
EXLTYPE8
 62
     6
100
AcDbLine
 10
551.3859378298312
 20
1743.500000003528
 30
0.0
 11
564.2380621701323
 21
1743.500000003535
 31
0.0
  0
LINE
  5
24D
330
1F
100
AcDbEntity
  8
図
  6
EXLTYPE1
 62
     6
100
AcDbLine
 10
617.9999999999773
 20
1787.800000003538
 30
0.0
 11
617.9999999999773
 21
1734.200000003525
 31
0.0
  0
LINE
  5
24E
330
1F
100
AcDbEntity
  8
図
  6
EXLTYPE1
 62
     6
100
AcDbLine
 10
607.9999999999773
 20
1734.200000003525
 30
0.0
 11
607.9999999999773
 21
1787.800000003538
 31
0.0
  0
LINE
  5
24F
330
1F
100
AcDbEntity
  8
図
  6
CONTINUOUS
 62
     6
100
AcDbLine
 10
554.9999999999791
 20
1776.000000028943
 30
0.0
 11
565.7999999999743
 21
1776.000000028943
 31
0.0
  0
LINE
  5
250
330
1F
100
AcDbEntity
  8
図
  6
EXLTYPE1
 62
     6
100
AcDbLine
 10
554.9999999999804
 20
1781.300000003538
 30
0.0
 11
557.6999999999794
 21
1784.000000003528
 31
0.0
  0
LINE
  5
251
330
1F
100
AcDbEntity
  8
図
  6
EXLTYPE1
 62
     6
100
AcDbLine
 10
554.9999999999804
 20
1775.70000000354
 30
0.0
 11
557.6999999999794
 21
1773.000000003528
 31
0.0
  0
LINE
  5
252
330
1F
100
AcDbEntity
  8
図
  6
EXLTYPE1
 62
     6
100
AcDbLine
 10
558.1999999999803
 20
1773.000000003528
 30
0.0
 11
557.6999999999794
 21
1773.000000003528
 31
0.0
  0
LINE
  5
253
330
1F
100
AcDbEntity
  8
図
  6
EXLTYPE1
 62
     6
100
AcDbLine
 10
554.9999999999804
 20
1734.200000003525
 30
0.0
 11
554.9999999999804
 21
1787.800000003538
 31
0.0
  0
LINE
  5
254
330
1F
100
AcDbEntity
  8
図
  6
EXLTYPE1
 62
     6
100
AcDbLine
 10
605.9999999999773
 20
1816.000000003535
 30
0.0
 11
619.9999999999773
 21
1816.000000003528
 31
0.0
  0
LINE
  5
255
330
1F
100
AcDbEntity
  8
図
  6
EXLTYPE1
 62
     6
100
AcDbLine
 10
619.9999999999773
 20
1806.000000003535
 30
0.0
 11
619.9999999999773
 21
1816.000000003528
 31
0.0
  0
LINE
  5
256
330
1F
100
AcDbEntity
  8
図
  6
EXLTYPE1
 62
     6
100
AcDbLine
 10
619.9999999999773
 20
1806.000000003535
 30
0.0
 11
605.9999999999773
 21
1806.000000003535
 31
0.0
  0
LINE
  5
257
330
1F
100
AcDbEntity
  8
図
  6
EXLTYPE1
 62
     6
100
AcDbLine
 10
617.9999999999773
 20
1806.000000003535
 30
0.0
 11
617.9999999999773
 21
1791.000000003528
 31
0.0
  0
LINE
  5
258
330
1F
100
AcDbEntity
  8
図
  6
EXLTYPE1
 62
     6
100
AcDbLine
 10
607.9999999999773
 20
1791.000000003528
 30
0.0
 11
607.9999999999773
 21
1806.000000003535
 31
0.0
  0
LINE
  5
259
330
1F
100
AcDbEntity
  8
図
  6
EXLTYPE1
 62
     6
100
AcDbLine
 10
605.9999999999773
 20
1806.000000003535
 30
0.0
 11
605.9999999999773
 21
1816.000000003535
 31
0.0
  0
LINE
  5
25A
330
1F
100
AcDbEntity
  8
図
  6
EXLTYPE3
 62
     6
100
AcDbLine
 10
612.9999999999773
 20
1716.000000003528
 30
0.0
 11
612.9999999999773
 21
1821.000000003528
 31
0.0
  0
LINE
  5
25B
330
1F
100
AcDbEntity
  8
図
  6
EXLTYPE3
 62
     6
100
AcDbLine
 10
544.9999999999804
 20
1761.000000003528
 30
0.0
 11
633.4068335252873
 21
1761.000000003528
 31
0.0
  0
LINE
  5
25C
330
1F
100
AcDbEntity
  8
図
  6
CONTINUOUS
 62
     6
100
AcDbLine
 10
613.3815967851883
 20
769.1499999999075
 30
0.0
 11
628.3883306230969
 21
769.1499999999036
 31
0.0
  0
LINE
  5
25D
330
1F
100
AcDbEntity
  8
図
  6
CONTINUOUS
 62
     6
100
AcDbLine
 10
609.5035217560876
 20
803.1499999998889
 30
0.0
 11
628.3883306230969
 21
803.1499999998999
 31
0.0
  0
LINE
  5
25E
330
1F
100
AcDbEntity
  8
図
  6
CONTINUOUS
 62
     6
100
AcDbLine
 10
627.0583839940778
 20
773.499999999903
 30
0.0
 11
630.3801890517975
 21
773.499999999903
 31
0.0
  0
LINE
  5
25F
330
1F
100
AcDbEntity
  8
図
  6
CONTINUOUS
 62
     6
100
AcDbLine
 10
627.0583839940778
 20
798.7999999999058
 30
0.0
 11
630.3801890517975
 21
798.7999999999058
 31
0.0
  0
LINE
  5
260
330
1F
100
AcDbEntity
  8
図
  6
CONTINUOUS
 62
     6
100
AcDbLine
 10
627.0583839940778
 20
773.499999999903
 30
0.0
 11
627.0583839940778
 21
798.7999999999058
 31
0.0
  0
LINE
  5
261
330
1F
100
AcDbEntity
  8
図
  6
CONTINUOUS
 62
     6
100
AcDbLine
 10
630.6399966729373
 20
799.249999999902
 30
0.0
 11
628.3883306230969
 21
803.1499999998999
 31
0.0
  0
LINE
  5
262
330
1F
100
AcDbEntity
  8
図
  6
CONTINUOUS
 62
     6
100
AcDbLine
 10
624.5469103230976
 20
771.1499999999075
 30
0.0
 11
624.5469103230976
 21
801.1499999998966
 31
0.0
  0
ARC
  5
263
330
1F
100
AcDbEntity
  8
図
  6
CONTINUOUS
 62
     6
100
AcDbCircle
 10
630.3801890517975
 20
799.0999999999048
 30
0.0
 40
0.3
100
AcDbArc
 50
270.0
 51
30.00000000003273
  0
ARC
  5
264
330
1F
100
AcDbEntity
  8
図
  6
CONTINUOUS
 62
     6
100
AcDbCircle
 10
630.3801890517975
 20
773.1999999999027
 30
0.0
 40
0.3
100
AcDbArc
 50
329.9999999999674
 51
90.00000000000001
  0
LINE
  5
265
330
1F
100
AcDbEntity
  8
図
  6
CONTINUOUS
 62
     6
100
AcDbLine
 10
630.6399966729373
 20
773.0499999999017
 30
0.0
 11
628.3883306230969
 21
769.1499999999036
 31
0.0
  0
ELLIPSE
  5
266
330
1F
100
AcDbEntity
  8
図
  6
CONTINUOUS
 62
     6
100
AcDbEllipse
 10
626.5469103230976
 20
801.1499999998966
 30
0.0
 11
-2.0
 21
2.449293598294706E-16
 31
0.0
210
0.0
220
0.0
230
1.0
 40
0.9999999999995455
 41
4.712388980385656
 42
6.283185307179586
  0
ELLIPSE
  5
267
330
1F
100
AcDbEntity
  8
図
  6
CONTINUOUS
 62
     6
100
AcDbEllipse
 10
626.5469103230976
 20
771.1499999999075
 30
0.0
 11
-2.0
 21
2.449293598294706E-16
 31
0.0
210
0.0
220
0.0
230
1.0
 40
0.9999999999995455
 41
0.0
 42
1.57079632679393
  0
LINE
  5
268
330
1F
100
AcDbEntity
  8
図
  6
EXLTYPE3
 62
     6
100
AcDbLine
 10
552.1999999981167
 20
683.1999999999031
 30
0.0
 11
561.3999999992379
 21
683.1999999999031
 31
0.0
  0
LINE
  5
269
330
1F
100
AcDbEntity
  8
図
  6
EXLTYPE3
 62
     6
100
AcDbLine
 10
591.1999999992481
 20
801.1500000019407
 30
0.0
 11
591.1999999992481
 21
771.1500000019407
 31
0.0
  0
LINE
  5
26A
330
1F
100
AcDbEntity
  8
図
  6
EXLTYPE3
 62
     6
100
AcDbLine
 10
576.1999999992481
 20
786.1499999999035
 30
0.0
 11
606.1999999992481
 21
786.1499999999035
 31
0.0
  0
LINE
  5
26B
330
1F
100
AcDbEntity
  8
図
  6
EXLTYPE3
 62
     6
100
AcDbLine
 10
755.3999999949087
 20
784.534554156435
 30
0.0
 11
755.3999999949087
 21
768.8399999999026
 31
0.0
  0
LINE
  5
26C
330
1F
100
AcDbEntity
  8
図
  6
EXLTYPE3
 62
     6
100
AcDbLine
 10
1135.399999994916
 20
784.534554156435
 30
0.0
 11
1135.399999994916
 21
768.8399999999026
 31
0.0
  0
LINE
  5
26D
330
1F
100
AcDbEntity
  8
図
  6
EXLTYPE3
 62
     6
100
AcDbLine
 10
945.3999999949161
 20
784.534554156435
 30
0.0
 11
945.3999999949161
 21
768.8399999999026
 31
0.0
  0
LINE
  5
26E
330
1F
100
AcDbEntity
  8
図
  6
EXLTYPE3
 62
     6
100
AcDbLine
 10
1258.943112299254
 20
786.1499999999035
 30
0.0
 11
576.1999999992481
 21
786.1499999999035
 31
0.0
  0
LINE
  5
26F
330
1F
100
AcDbEntity
  8
図
  6
EXLTYPE3
 62
     6
100
AcDbLine
 10
552.1999999981167
 20
808.1999999999027
 30
0.0
 11
561.3999999992379
 21
808.1999999999027
 31
0.0
  0
LINE
  5
270
330
1F
100
AcDbEntity
  8
図
  6
EXLTYPE3
 62
     6
100
AcDbLine
 10
591.2000000012781
 20
1453.893112299917
 30
0.0
 11
591.2000000012781
 21
771.1499999999035
 31
0.0
  0
LINE
  5
271
330
1F
100
AcDbEntity
  8
図
  6
CONTINUOUS
 62
     6
100
AcDbLine
 10
759.6499999949086
 20
773.6499999999035
 30
0.0
 11
759.6499999949086
 21
773.1499999999035
 31
0.0
  0
LINE
  5
272
330
1F
100
AcDbEntity
  8
図
  6
CONTINUOUS
 62
     6
100
AcDbLine
 10
759.6499999949086
 20
773.6499999999035
 30
0.0
 11
755.3999999949087
 21
773.6499999999035
 31
0.0
  0
LINE
  5
273
330
1F
100
AcDbEntity
  8
図
  6
CONTINUOUS
 62
     6
100
AcDbLine
 10
756.9101757085449
 20
770.2499999999029
 30
0.0
 11
755.3999999949087
 21
770.2499999999029
 31
0.0
  0
ARC
  5
274
330
1F
100
AcDbEntity
  8
図
  6
CONTINUOUS
 62
     6
100
AcDbCircle
 10
756.9101757085449
 20
771.249999999902
 30
0.0
 40
1.0
100
AcDbArc
 50
270.0
 51
322.1934700552782
  0
LINE
  5
275
330
1F
100
AcDbEntity
  8
図
  6
CONTINUOUS
 62
     6
100
AcDbLine
 10
759.6499999949086
 20
773.1499999999035
 30
0.0
 11
755.3999999949087
 21
773.1499999999035
 31
0.0
  0
LINE
  5
276
330
1F
100
AcDbEntity
  8
図
  6
CONTINUOUS
 62
     6
100
AcDbLine
 10
751.1499999949087
 20
773.1499999999035
 30
0.0
 11
755.3999999949087
 21
773.1499999999035
 31
0.0
  0
LINE
  5
277
330
1F
100
AcDbEntity
  8
図
  6
CONTINUOUS
 62
     6
100
AcDbLine
 10
759.6499999949086
 20
773.1499999999035
 30
0.0
 11
757.7002608633707
 21
770.6370028970281
 31
0.0
  0
LINE
  5
278
330
1F
100
AcDbEntity
  8
図
  6
CONTINUOUS
 62
     6
100
AcDbLine
 10
751.1499999949087
 20
773.6499999999035
 30
0.0
 11
751.1499999949087
 21
773.1499999999035
 31
0.0
  0
LINE
  5
279
330
1F
100
AcDbEntity
  8
図
  6
CONTINUOUS
 62
     6
100
AcDbLine
 10
751.1499999949087
 20
773.6499999999035
 30
0.0
 11
755.3999999949087
 21
773.6499999999035
 31
0.0
  0
LINE
  5
27A
330
1F
100
AcDbEntity
  8
図
  6
CONTINUOUS
 62
     6
100
AcDbLine
 10
753.8898242812797
 20
770.2499999999029
 30
0.0
 11
755.3999999949087
 21
770.2499999999029
 31
0.0
  0
ARC
  5
27B
330
1F
100
AcDbEntity
  8
図
  6
CONTINUOUS
 62
     6
100
AcDbCircle
 10
753.8898242812797
 20
771.249999999902
 30
0.0
 40
1.0
100
AcDbArc
 50
217.8065299447219
 51
270.0
  0
LINE
  5
27C
330
1F
100
AcDbEntity
  8
図
  6
CONTINUOUS
 62
     6
100
AcDbLine
 10
751.1499999949087
 20
773.1499999999035
 30
0.0
 11
753.0997391264541
 21
770.6370028970281
 31
0.0
  0
LINE
  5
27D
330
1F
100
AcDbEntity
  8
図
  6
CONTINUOUS
 62
     6
100
AcDbLine
 10
949.649999994916
 20
773.6499999999035
 30
0.0
 11
949.649999994916
 21
773.1499999999035
 31
0.0
  0
LINE
  5
27E
330
1F
100
AcDbEntity
  8
図
  6
CONTINUOUS
 62
     6
100
AcDbLine
 10
949.649999994916
 20
773.6499999999035
 30
0.0
 11
945.3999999949161
 21
773.6499999999035
 31
0.0
  0
LINE
  5
27F
330
1F
100
AcDbEntity
  8
図
  6
CONTINUOUS
 62
     6
100
AcDbLine
 10
946.9101757085596
 20
770.2499999999029
 30
0.0
 11
945.3999999949161
 21
770.2499999999029
 31
0.0
  0
ARC
  5
280
330
1F
100
AcDbEntity
  8
図
  6
CONTINUOUS
 62
     6
100
AcDbCircle
 10
946.9101757085596
 20
771.249999999902
 30
0.0
 40
1.0
100
AcDbArc
 50
270.0
 51
322.1934700552782
  0
LINE
  5
281
330
1F
100
AcDbEntity
  8
図
  6
CONTINUOUS
 62
     6
100
AcDbLine
 10
949.649999994916
 20
773.1499999999035
 30
0.0
 11
945.3999999949161
 21
773.1499999999035
 31
0.0
  0
LINE
  5
282
330
1F
100
AcDbEntity
  8
図
  6
CONTINUOUS
 62
     6
100
AcDbLine
 10
941.149999994916
 20
773.1499999999035
 30
0.0
 11
945.3999999949161
 21
773.1499999999035
 31
0.0
  0
LINE
  5
283
330
1F
100
AcDbEntity
  8
図
  6
CONTINUOUS
 62
     6
100
AcDbLine
 10
949.649999994916
 20
773.1499999999035
 30
0.0
 11
947.7002608633779
 21
770.6370028970281
 31
0.0
  0
LINE
  5
284
330
1F
100
AcDbEntity
  8
図
  6
CONTINUOUS
 62
     6
100
AcDbLine
 10
941.149999994916
 20
773.6499999999035
 30
0.0
 11
941.149999994916
 21
773.1499999999035
 31
0.0
  0
LINE
  5
285
330
1F
100
AcDbEntity
  8
図
  6
CONTINUOUS
 62
     6
100
AcDbLine
 10
941.149999994916
 20
773.6499999999035
 30
0.0
 11
945.3999999949161
 21
773.6499999999035
 31
0.0
  0
LINE
  5
286
330
1F
100
AcDbEntity
  8
図
  6
CONTINUOUS
 62
     6
100
AcDbLine
 10
943.8898242812797
 20
770.2499999999029
 30
0.0
 11
945.3999999949161
 21
770.2499999999029
 31
0.0
  0
ARC
  5
287
330
1F
100
AcDbEntity
  8
図
  6
CONTINUOUS
 62
     6
100
AcDbCircle
 10
943.8898242812797
 20
771.249999999902
 30
0.0
 40
1.0
100
AcDbArc
 50
217.8065299447219
 51
270.0
  0
LINE
  5
288
330
1F
100
AcDbEntity
  8
図
  6
CONTINUOUS
 62
     6
100
AcDbLine
 10
941.149999994916
 20
773.1499999999035
 30
0.0
 11
943.0997391264686
 21
770.6370028970281
 31
0.0
  0
LINE
  5
289
330
1F
100
AcDbEntity
  8
図
  6
CONTINUOUS
 62
     6
100
AcDbLine
 10
1139.649999994916
 20
773.6499999999035
 30
0.0
 11
1139.649999994916
 21
773.1499999999035
 31
0.0
  0
LINE
  5
28A
330
1F
100
AcDbEntity
  8
図
  6
CONTINUOUS
 62
     6
100
AcDbLine
 10
1139.649999994916
 20
773.6499999999035
 30
0.0
 11
1135.399999994916
 21
773.6499999999035
 31
0.0
  0
LINE
  5
28B
330
1F
100
AcDbEntity
  8
図
  6
CONTINUOUS
 62
     6
100
AcDbLine
 10
1136.91017570856
 20
770.2499999999029
 30
0.0
 11
1135.399999994916
 21
770.2499999999029
 31
0.0
  0
ARC
  5
28C
330
1F
100
AcDbEntity
  8
図
  6
CONTINUOUS
 62
     6
100
AcDbCircle
 10
1136.91017570856
 20
771.249999999902
 30
0.0
 40
1.0
100
AcDbArc
 50
270.0
 51
322.1934700552782
  0
LINE
  5
28D
330
1F
100
AcDbEntity
  8
図
  6
CONTINUOUS
 62
     6
100
AcDbLine
 10
1139.649999994916
 20
773.1499999999035
 30
0.0
 11
1135.399999994916
 21
773.1499999999035
 31
0.0
  0
LINE
  5
28E
330
1F
100
AcDbEntity
  8
図
  6
CONTINUOUS
 62
     6
100
AcDbLine
 10
1131.149999994916
 20
773.1499999999035
 30
0.0
 11
1135.399999994916
 21
773.1499999999035
 31
0.0
  0
LINE
  5
28F
330
1F
100
AcDbEntity
  8
図
  6
CONTINUOUS
 62
     6
100
AcDbLine
 10
1139.649999994916
 20
773.1499999999035
 30
0.0
 11
1137.700260863378
 21
770.6370028970281
 31
0.0
  0
LINE
  5
290
330
1F
100
AcDbEntity
  8
図
  6
CONTINUOUS
 62
     6
100
AcDbLine
 10
1131.149999994916
 20
773.6499999999035
 30
0.0
 11
1131.149999994916
 21
773.1499999999035
 31
0.0
  0
LINE
  5
291
330
1F
100
AcDbEntity
  8
図
  6
CONTINUOUS
 62
     6
100
AcDbLine
 10
1131.149999994916
 20
773.6499999999035
 30
0.0
 11
1135.399999994916
 21
773.6499999999035
 31
0.0
  0
LINE
  5
292
330
1F
100
AcDbEntity
  8
図
  6
CONTINUOUS
 62
     6
100
AcDbLine
 10
1133.88982428128
 20
770.2499999999029
 30
0.0
 11
1135.399999994916
 21
770.2499999999029
 31
0.0
  0
ARC
  5
293
330
1F
100
AcDbEntity
  8
図
  6
CONTINUOUS
 62
     6
100
AcDbCircle
 10
1133.88982428128
 20
771.249999999902
 30
0.0
 40
1.0
100
AcDbArc
 50
217.8065299447219
 51
270.0
  0
LINE
  5
294
330
1F
100
AcDbEntity
  8
図
  6
CONTINUOUS
 62
     6
100
AcDbLine
 10
1131.149999994916
 20
773.1499999999035
 30
0.0
 11
1133.099739126469
 21
770.6370028970281
 31
0.0
  0
LINE
  5
295
330
1F
100
AcDbEntity
  8
図
  6
EXLTYPE9
 62
     6
100
AcDbLine
 10
574.2000000012963
 20
804.4535217567507
 30
0.0
 11
574.2000000012854
 21
823.3383306237636
 31
0.0
  0
LINE
  5
296
330
1F
100
AcDbEntity
  8
図
  6
EXLTYPE9
 62
     6
100
AcDbLine
 10
578.7000000012781
 20
920.3499999955716
 30
0.0
 11
578.7000000012781
 21
822.0083839947367
 31
0.0
  0
LINE
  5
297
330
1F
100
AcDbEntity
  8
図
  6
EXLTYPE9
 62
     6
100
AcDbLine
 10
603.7000000012854
 20
1350.349999995579
 30
0.0
 11
603.7000000012781
 21
822.0083839947367
 31
0.0
  0
LINE
  5
298
330
1F
100
AcDbEntity
  8
図
  6
EXLTYPE9
 62
     6
100
AcDbLine
 10
592.8154458447466
 20
950.3499999955716
 30
0.0
 11
608.5100000012867
 21
950.3499999955716
 31
0.0
  0
LINE
  5
299
330
1F
100
AcDbEntity
  8
図
  6
EXLTYPE9
 62
     6
100
AcDbLine
 10
603.7000000012781
 20
954.5999999955717
 30
0.0
 11
604.2000000012781
 21
954.5999999955717
 31
0.0
  0
LINE
  5
29A
330
1F
100
AcDbEntity
  8
図
  6
EXLTYPE9
 62
     6
100
AcDbLine
 10
603.7000000012781
 20
954.5999999955717
 30
0.0
 11
603.7000000012781
 21
950.3499999955716
 31
0.0
  0
LINE
  5
29B
330
1F
100
AcDbEntity
  8
図
  6
EXLTYPE9
 62
     6
100
AcDbLine
 10
607.1000000012759
 20
951.8601757092156
 30
0.0
 11
607.1000000012759
 21
950.3499999955716
 31
0.0
  0
ARC
  5
29C
330
1F
100
AcDbEntity
  8
図
  6
EXLTYPE9
 62
     6
100
AcDbCircle
 10
606.1000000012759
 20
951.8601757092156
 30
0.0
 40
1.0
100
AcDbArc
 50
0.0
 51
52.19347005521309
  0
LINE
  5
29D
330
1F
100
AcDbEntity
  8
図
  6
EXLTYPE9
 62
     6
100
AcDbLine
 10
604.2000000012781
 20
954.5999999955717
 30
0.0
 11
604.2000000012781
 21
950.3499999955716
 31
0.0
  0
LINE
  5
29E
330
1F
100
AcDbEntity
  8
図
  6
EXLTYPE9
 62
     6
100
AcDbLine
 10
604.2000000012781
 20
946.0999999955716
 30
0.0
 11
604.2000000012781
 21
950.3499999955716
 31
0.0
  0
LINE
  5
29F
330
1F
100
AcDbEntity
  8
図
  6
EXLTYPE9
 62
     6
100
AcDbLine
 10
604.2000000012781
 20
954.5999999955717
 30
0.0
 11
606.7129971041581
 21
952.650260864034
 31
0.0
  0
LINE
  5
2A0
330
1F
100
AcDbEntity
  8
図
  6
EXLTYPE9
 62
     6
100
AcDbLine
 10
603.7000000012781
 20
946.0999999955716
 30
0.0
 11
604.2000000012781
 21
946.0999999955716
 31
0.0
  0
LINE
  5
2A1
330
1F
100
AcDbEntity
  8
図
  6
EXLTYPE9
 62
     6
100
AcDbLine
 10
603.7000000012781
 20
946.0999999955716
 30
0.0
 11
603.7000000012781
 21
950.3499999955716
 31
0.0
  0
LINE
  5
2A2
330
1F
100
AcDbEntity
  8
図
  6
EXLTYPE9
 62
     6
100
AcDbLine
 10
607.1000000012759
 20
948.8398242819358
 30
0.0
 11
607.1000000012759
 21
950.3499999955716
 31
0.0
  0
ARC
  5
2A3
330
1F
100
AcDbEntity
  8
図
  6
EXLTYPE9
 62
     6
100
AcDbCircle
 10
606.1000000012759
 20
948.8398242819358
 30
0.0
 40
1.0
100
AcDbArc
 50
307.806529944787
 51
0.0
  0
LINE
  5
2A4
330
1F
100
AcDbEntity
  8
図
  6
EXLTYPE9
 62
     6
100
AcDbLine
 10
604.2000000012781
 20
946.0999999955716
 30
0.0
 11
606.7129971041581
 21
948.0497391271169
 31
0.0
  0
LINE
  5
2A5
330
1F
100
AcDbEntity
  8
図
  6
EXLTYPE9
 62
     6
100
AcDbLine
 10
603.7000000012781
 20
1144.599999995579
 30
0.0
 11
604.2000000012781
 21
1144.599999995579
 31
0.0
  0
LINE
  5
2A6
330
1F
100
AcDbEntity
  8
図
  6
EXLTYPE9
 62
     6
100
AcDbLine
 10
603.7000000012781
 20
1144.599999995579
 30
0.0
 11
603.7000000012781
 21
1140.349999995579
 31
0.0
  0
LINE
  5
2A7
330
1F
100
AcDbEntity
  8
図
  6
EXLTYPE9
 62
     6
100
AcDbLine
 10
607.1000000012759
 20
1141.860175709223
 30
0.0
 11
607.1000000012759
 21
1140.349999995579
 31
0.0
  0
ARC
  5
2A8
330
1F
100
AcDbEntity
  8
図
  6
EXLTYPE9
 62
     6
100
AcDbCircle
 10
606.1000000012759
 20
1141.860175709223
 30
0.0
 40
1.0
100
AcDbArc
 50
0.0
 51
52.19347005521309
  0
LINE
  5
2A9
330
1F
100
AcDbEntity
  8
図
  6
EXLTYPE9
 62
     6
100
AcDbLine
 10
604.2000000012781
 20
1144.599999995579
 30
0.0
 11
604.2000000012781
 21
1140.349999995579
 31
0.0
  0
LINE
  5
2AA
330
1F
100
AcDbEntity
  8
図
  6
EXLTYPE9
 62
     6
100
AcDbLine
 10
604.2000000012781
 20
1136.099999995579
 30
0.0
 11
604.2000000012781
 21
1140.349999995579
 31
0.0
  0
LINE
  5
2AB
330
1F
100
AcDbEntity
  8
図
  6
EXLTYPE9
 62
     6
100
AcDbLine
 10
604.2000000012781
 20
1144.599999995579
 30
0.0
 11
606.7129971041581
 21
1142.650260864041
 31
0.0
  0
LINE
  5
2AC
330
1F
100
AcDbEntity
  8
図
  6
EXLTYPE9
 62
     6
100
AcDbLine
 10
603.7000000012781
 20
1136.099999995579
 30
0.0
 11
604.2000000012781
 21
1136.099999995579
 31
0.0
  0
LINE
  5
2AD
330
1F
100
AcDbEntity
  8
図
  6
EXLTYPE9
 62
     6
100
AcDbLine
 10
603.7000000012781
 20
1136.099999995579
 30
0.0
 11
603.7000000012781
 21
1140.349999995579
 31
0.0
  0
LINE
  5
2AE
330
1F
100
AcDbEntity
  8
図
  6
EXLTYPE9
 62
     6
100
AcDbLine
 10
607.1000000012759
 20
1138.839824281943
 30
0.0
 11
607.1000000012759
 21
1140.349999995579
 31
0.0
  0
ARC
  5
2AF
330
1F
100
AcDbEntity
  8
図
  6
EXLTYPE9
 62
     6
100
AcDbCircle
 10
606.1000000012759
 20
1138.839824281943
 30
0.0
 40
1.0
100
AcDbArc
 50
307.806529944787
 51
0.0
  0
LINE
  5
2B0
330
1F
100
AcDbEntity
  8
図
  6
EXLTYPE9
 62
     6
100
AcDbLine
 10
604.2000000012781
 20
1136.099999995579
 30
0.0
 11
606.7129971041581
 21
1138.049739127125
 31
0.0
  0
LINE
  5
2B1
330
1F
100
AcDbEntity
  8
図
  6
EXLTYPE9
 62
     6
100
AcDbLine
 10
592.8154458447466
 20
1330.349999995579
 30
0.0
 11
608.5100000012867
 21
1330.349999995579
 31
0.0
  0
LINE
  5
2B2
330
1F
100
AcDbEntity
  8
図
  6
EXLTYPE9
 62
     6
100
AcDbLine
 10
603.7000000012781
 20
1334.599999995579
 30
0.0
 11
604.2000000012781
 21
1334.599999995579
 31
0.0
  0
LINE
  5
2B3
330
1F
100
AcDbEntity
  8
図
  6
EXLTYPE9
 62
     6
100
AcDbLine
 10
603.7000000012781
 20
1334.599999995579
 30
0.0
 11
603.7000000012781
 21
1330.349999995579
 31
0.0
  0
LINE
  5
2B4
330
1F
100
AcDbEntity
  8
図
  6
EXLTYPE9
 62
     6
100
AcDbLine
 10
607.1000000012759
 20
1331.860175709223
 30
0.0
 11
607.1000000012759
 21
1330.349999995579
 31
0.0
  0
ARC
  5
2B5
330
1F
100
AcDbEntity
  8
図
  6
EXLTYPE9
 62
     6
100
AcDbCircle
 10
606.1000000012759
 20
1331.860175709223
 30
0.0
 40
1.0
100
AcDbArc
 50
0.0
 51
52.19347005521309
  0
LINE
  5
2B6
330
1F
100
AcDbEntity
  8
図
  6
EXLTYPE9
 62
     6
100
AcDbLine
 10
604.2000000012781
 20
1334.599999995579
 30
0.0
 11
604.2000000012781
 21
1330.349999995579
 31
0.0
  0
LINE
  5
2B7
330
1F
100
AcDbEntity
  8
図
  6
EXLTYPE9
 62
     6
100
AcDbLine
 10
604.2000000012781
 20
1326.099999995579
 30
0.0
 11
604.2000000012781
 21
1330.349999995579
 31
0.0
  0
LINE
  5
2B8
330
1F
100
AcDbEntity
  8
図
  6
EXLTYPE9
 62
     6
100
AcDbLine
 10
604.2000000012781
 20
1334.599999995579
 30
0.0
 11
606.7129971041581
 21
1332.650260864041
 31
0.0
  0
LINE
  5
2B9
330
1F
100
AcDbEntity
  8
図
  6
EXLTYPE9
 62
     6
100
AcDbLine
 10
603.7000000012781
 20
1326.099999995579
 30
0.0
 11
604.2000000012781
 21
1326.099999995579
 31
0.0
  0
LINE
  5
2BA
330
1F
100
AcDbEntity
  8
図
  6
EXLTYPE9
 62
     6
100
AcDbLine
 10
603.7000000012781
 20
1326.099999995579
 30
0.0
 11
603.7000000012781
 21
1330.349999995579
 31
0.0
  0
LINE
  5
2BB
330
1F
100
AcDbEntity
  8
図
  6
EXLTYPE9
 62
     6
100
AcDbLine
 10
607.1000000012759
 20
1328.839824281943
 30
0.0
 11
607.1000000012759
 21
1330.349999995579
 31
0.0
  0
ARC
  5
2BC
330
1F
100
AcDbEntity
  8
図
  6
EXLTYPE9
 62
     6
100
AcDbCircle
 10
606.1000000012759
 20
1328.839824281943
 30
0.0
 40
1.0
100
AcDbArc
 50
307.806529944787
 51
0.0
  0
LINE
  5
2BD
330
1F
100
AcDbEntity
  8
図
  6
EXLTYPE9
 62
     6
100
AcDbLine
 10
604.2000000012781
 20
1326.099999995579
 30
0.0
 11
606.7129971041581
 21
1328.049739127125
 31
0.0
  0
LINE
  5
2BE
330
1F
100
AcDbEntity
  8
図
  6
EXLTYPE9
 62
     6
100
AcDbLine
 10
606.6999999930381
 20
1352.349999995608
 30
0.0
 11
606.699999992918
 21
1361.055980119764
 31
0.0
  0
LINE
  5
2BF
330
1F
100
AcDbEntity
  8
図
  6
EXLTYPE9
 62
     6
100
AcDbLine
 10
599.7000000012781
 20
1350.349999995579
 30
0.0
 11
599.7000000012781
 21
1450.099999995579
 31
0.0
  0
LINE
  5
2C0
330
1F
100
AcDbEntity
  8
図
  6
EXLTYPE9
 62
     6
100
AcDbLine
 10
606.7000000012781
 20
1352.349999995579
 30
0.0
 11
606.7000000012781
 21
1361.05598016406
 31
0.0
  0
ARC
  5
2C1
330
1F
100
AcDbEntity
  8
図
  6
EXLTYPE9
 62
     6
100
AcDbCircle
 10
706.7000000012781
 20
1361.05598016406
 30
0.0
 40
100.0
100
AcDbArc
 50
169.3803447179588
 51
180.0
  0
LINE
  5
2C2
330
1F
100
AcDbEntity
  8
図
  6
EXLTYPE9
 62
     6
100
AcDbLine
 10
608.4127813096279
 20
1379.484833678592
 30
0.0
 11
617.8782052933461
 21
1429.967094898112
 31
0.0
  0
ARC
  5
2C3
330
1F
100
AcDbEntity
  8
図
  6
EXLTYPE9
 62
     6
100
AcDbCircle
 10
601.1693781157669
 20
1433.099999995579
 30
0.0
 40
17.0
100
AcDbArc
 50
349.3803447179588
 51
90.00000000000001
  0
LINE
  5
2C4
330
1F
100
AcDbEntity
  8
図
  6
EXLTYPE9
 62
     6
100
AcDbLine
 10
604.7000000012781
 20
1350.349999995579
 30
0.0
 11
599.7000000012781
 21
1350.349999995579
 31
0.0
  0
ARC
  5
2C5
330
1F
100
AcDbEntity
  8
図
  6
EXLTYPE9
 62
     6
100
AcDbCircle
 10
604.7000000012781
 20
1352.349999995579
 30
0.0
 40
2.0
100
AcDbArc
 50
270.0
 51
0.0
  0
LINE
  5
2C6
330
1F
100
AcDbEntity
  8
図
  6
EXLTYPE9
 62
     6
100
AcDbLine
 10
599.7000000012781
 20
1450.099999995579
 30
0.0
 11
601.1693781157669
 21
1450.099999995579
 31
0.0
  0
LINE
  5
2C7
330
1F
100
AcDbEntity
  8
図
  6
EXLTYPE9
 62
     6
100
AcDbLine
 10
599.2000000012854
 20
1450.349999995579
 30
0.0
 11
599.2000000012781
 21
921.3499999955716
 31
0.0
  0
LINE
  5
2C8
330
1F
100
AcDbEntity
  8
図
  6
EXLTYPE9
 62
     6
100
AcDbLine
 10
599.2000000012781
 20
1448.849999995579
 30
0.0
 11
599.7000000012781
 21
1448.849999995579
 31
0.0
  0
LINE
  5
2C9
330
1F
100
AcDbEntity
  8
図
  6
EXLTYPE9
 62
     6
100
AcDbLine
 10
594.7000000012781
 20
1450.349999995579
 30
0.0
 11
599.2000000012781
 21
1450.349999995579
 31
0.0
  0
LINE
  5
2CA
330
1F
100
AcDbEntity
  8
図
  6
EXLTYPE9
 62
     6
100
AcDbLine
 10
592.8154458447466
 20
1140.349999995579
 30
0.0
 11
608.5100000012867
 21
1140.349999995579
 31
0.0
  0
LINE
  5
2CB
330
1F
100
AcDbEntity
  8
図
  6
EXLTYPE9
 62
     6
100
AcDbLine
 10
599.2000000012781
 20
1355.349999995579
 30
0.0
 11
599.7000000012781
 21
1355.349999995579
 31
0.0
  0
LINE
  5
2CC
330
1F
100
AcDbEntity
  8
図
  6
EXLTYPE9
 62
     6
100
AcDbLine
 10
599.2000000012781
 20
1381.099999995579
 30
0.0
 11
599.7000000012781
 21
1381.099999995579
 31
0.0
  0
LINE
  5
2CD
330
1F
100
AcDbEntity
  8
図
  6
EXLTYPE9
 62
     6
100
AcDbLine
 10
599.2000000012781
 20
1382.599999995579
 30
0.0
 11
599.7000000012781
 21
1382.599999995579
 31
0.0
  0
LINE
  5
2CE
330
1F
100
AcDbEntity
  8
図
  6
EXLTYPE9
 62
     6
100
AcDbLine
 10
573.2000000012781
 20
1415.849999995579
 30
0.0
 11
573.2000000012781
 21
925.3499999955716
 31
0.0
  0
ELLIPSE
  5
2CF
330
1F
100
AcDbEntity
  8
図
  6
EXLTYPE9
 62
     6
100
AcDbEllipse
 10
594.7000000012781
 20
1415.849999995579
 30
0.0
 11
-1.320856201129806E-14
 21
34.50000000000023
 31
0.0
210
0.0
220
0.0
230
1.0
 40
0.6231884057970981
 41
0.0
 42
1.570796326794897
  0
LINE
  5
2D0
330
1F
100
AcDbEntity
  8
図
  6
EXLTYPE9
 62
     6
100
AcDbLine
 10
608.2000000012781
 20
808.3315967858546
 30
0.0
 11
608.2000000012781
 21
823.3383306237558
 31
0.0
  0
LINE
  5
2D1
330
1F
100
AcDbEntity
  8
図
  6
EXLTYPE9
 62
     6
100
AcDbLine
 10
603.8500000012868
 20
822.0083839947367
 30
0.0
 11
603.8500000012868
 21
825.3301890524638
 31
0.0
  0
LINE
  5
2D2
330
1F
100
AcDbEntity
  8
図
  6
EXLTYPE9
 62
     6
100
AcDbLine
 10
578.5500000012767
 20
822.0083839947367
 30
0.0
 11
578.5500000012767
 21
825.3301890524638
 31
0.0
  0
LINE
  5
2D3
330
1F
100
AcDbEntity
  8
図
  6
EXLTYPE9
 62
     6
100
AcDbLine
 10
603.8500000012868
 20
822.0083839947367
 30
0.0
 11
578.5500000012767
 21
822.0083839947367
 31
0.0
  0
LINE
  5
2D4
330
1F
100
AcDbEntity
  8
図
  6
EXLTYPE9
 62
     6
100
AcDbLine
 10
578.1000000012759
 20
825.5899966735999
 30
0.0
 11
574.2000000012854
 21
823.3383306237636
 31
0.0
  0
LINE
  5
2D5
330
1F
100
AcDbEntity
  8
図
  6
EXLTYPE9
 62
     6
100
AcDbLine
 10
606.2000000012781
 20
819.4969103237639
 30
0.0
 11
576.2000000012854
 21
819.4969103237639
 31
0.0
  0
ARC
  5
2D6
330
1F
100
AcDbEntity
  8
図
  6
EXLTYPE9
 62
     6
100
AcDbCircle
 10
578.2500000012883
 20
825.3301890524638
 30
0.0
 40
0.3
100
AcDbArc
 50
0.0
 51
120.0000000000558
  0
ARC
  5
2D7
330
1F
100
AcDbEntity
  8
図
  6
EXLTYPE9
 62
     6
100
AcDbCircle
 10
604.1500000012861
 20
825.3301890524638
 30
0.0
 40
0.3
100
AcDbArc
 50
59.99999999994421
 51
180.0
  0
LINE
  5
2D8
330
1F
100
AcDbEntity
  8
図
  6
EXLTYPE9
 62
     6
100
AcDbLine
 10
604.3000000012876
 20
825.5899966735999
 30
0.0
 11
608.2000000012781
 21
823.3383306237558
 31
0.0
  0
ELLIPSE
  5
2D9
330
1F
100
AcDbEntity
  8
図
  6
EXLTYPE9
 62
     6
100
AcDbEllipse
 10
576.2000000012854
 20
821.4969103237647
 30
0.0
 11
-3.673940397442059E-16
 21
-2.0
 31
0.0
210
0.0
220
0.0
230
1.0
 40
0.9999999999995455
 41
4.712388980385656
 42
6.283185307179586
  0
ELLIPSE
  5
2DA
330
1F
100
AcDbEntity
  8
図
  6
EXLTYPE9
 62
     6
100
AcDbEllipse
 10
606.2000000012781
 20
821.4969103237647
 30
0.0
 11
-3.673940397442059E-16
 21
-2.0
 31
0.0
210
0.0
220
0.0
230
1.0
 40
0.9999999999995455
 41
0.0
 42
1.57079632679393
  0
ARC
  5
2DB
330
1F
100
AcDbEntity
  8
図
  6
EXLTYPE9
 62
     6
100
AcDbCircle
 10
598.2000000012781
 20
921.3499999955716
 30
0.0
 40
1.0
100
AcDbArc
 50
270.0
 51
0.0
  0
ARC
  5
2DC
330
1F
100
AcDbEntity
  8
図
  6
EXLTYPE9
 62
     6
100
AcDbCircle
 10
578.2000000012781
 20
925.3499999955716
 30
0.0
 40
5.0
100
AcDbArc
 50
180.0
 51
270.0
  0
LINE
  5
2DD
330
1F
100
AcDbEntity
  8
図
  6
CONTINUOUS
 62
     6
100
AcDbLine
 10
554.9999999999859
 20
642.999999999997
 30
0.0
 11
564.8000000007273
 21
642.999999999997
 31
0.0
  0
LINE
  5
2DE
330
1F
100
AcDbEntity
  8
図
  6
CONTINUOUS
 62
     6
100
AcDbLine
 10
554.9999999999859
 20
822.9999999999967
 30
0.0
 11
554.9999999999859
 21
642.999999999997
 31
0.0
  0
LINE
  5
2DF
330
1F
100
AcDbEntity
  8
図
  6
CONTINUOUS
 62
     6
100
AcDbLine
 10
574.8000000007273
 20
653.521488161289
 30
0.0
 11
574.8000000007273
 21
652.999999999997
 31
0.0
  0
ARC
  5
2E0
330
1F
100
AcDbEntity
  8
図
  6
CONTINUOUS
 62
     6
100
AcDbCircle
 10
564.8000000007273
 20
652.999999999997
 30
0.0
 40
10.0
100
AcDbArc
 50
270.0
 51
0.0
  0
ARC
  5
2E1
330
1F
100
AcDbEntity
  8
図
  6
CONTINUOUS
 62
     6
100
AcDbCircle
 10
591.1999999992481
 20
786.1499999999035
 30
0.0
 40
24.8
100
AcDbArc
 50
0.0
 51
70.56297832735989
  0
LINE
  5
2E2
330
1F
100
AcDbEntity
  8
図
  6
CONTINUOUS
 62
     6
100
AcDbLine
 10
574.8000000007273
 20
673.0000000004626
 30
0.0
 11
575.5448884647162
 21
674.8561091497511
 31
0.0
  0
ARC
  5
2E3
330
1F
100
AcDbEntity
  8
図
  6
CONTINUOUS
 62
     6
100
AcDbCircle
 10
674.8000000007382
 20
653.682899878823
 30
0.0
 40
100.0
100
AcDbArc
 50
158.1335613704877
 51
180.0
  0
LINE
  5
2E4
330
1F
100
AcDbEntity
  8
図
  6
CONTINUOUS
 62
     6
100
AcDbLine
 10
575.5448884650364
 20
674.8561091502021
 30
0.0
 11
612.4016686715081
 21
766.6956397069118
 31
0.0
  0
LINE
  5
2E5
330
1F
100
AcDbEntity
  8
図
  6
CONTINUOUS
 62
     6
100
AcDbLine
 10
574.8000000007273
 20
653.6828998799872
 30
0.0
 11
574.8000000007273
 21
652.999999999997
 31
0.0
  0
LINE
  5
2E6
330
1F
100
AcDbEntity
  8
図
  6
CONTINUOUS
 62
     6
100
AcDbLine
 10
574.8000000007273
 20
811.1224538774667
 30
0.0
 11
574.8000000007273
 21
653.3414499398757
 31
0.0
  0
ELLIPSE
  5
2E7
330
1F
100
AcDbEntity
  8
図
  6
CONTINUOUS
 62
     6
100
AcDbEllipse
 10
591.1999999992481
 20
786.1499999999035
 30
0.0
 11
-6.888638245203862E-15
 21
-37.5
 31
0.0
210
0.0
220
0.0
230
1.0
 40
0.6613333333332169
 41
1.025369609209248
 42
1.570796326794897
  0
ARC
  5
2E8
330
1F
100
AcDbEntity
  8
図
  6
CONTINUOUS
 62
     6
100
AcDbCircle
 10
564.8000000007273
 20
811.1224538774667
 30
0.0
 40
10.0
100
AcDbArc
 50
0.0
 51
70.28017285226939
  0
LINE
  5
2E9
330
1F
100
AcDbEntity
  8
図
  6
CONTINUOUS
 62
     6
100
AcDbLine
 10
561.3000000007273
 20
822.9999999999967
 30
0.0
 11
554.9999999999859
 21
822.9999999999967
 31
0.0
  0
LINE
  5
2EA
330
1F
100
AcDbEntity
  8
図
  6
CONTINUOUS
 62
     6
100
AcDbLine
 10
561.3000000007273
 20
822.9999999999967
 30
0.0
 11
599.4527090415181
 21
809.5365943107729
 31
0.0
  0
LINE
  5
2EB
330
1F
100
AcDbEntity
  8
図
  6
CONTINUOUS
 62
     6
100
AcDbLine
 10
1157.399999994945
 20
770.6500000081508
 30
0.0
 11
1166.105980119094
 21
770.6500000082635
 31
0.0
  0
LINE
  5
2EC
330
1F
100
AcDbEntity
  8
図
  6
CONTINUOUS
 62
     6
100
AcDbLine
 10
1155.399999994916
 20
777.6499999999035
 30
0.0
 11
1255.149999994916
 21
777.6499999999035
 31
0.0
  0
LINE
  5
2ED
330
1F
100
AcDbEntity
  8
図
  6
CONTINUOUS
 62
     6
100
AcDbLine
 10
1157.399999994916
 20
770.6499999999035
 30
0.0
 11
1166.105980163397
 21
770.6499999999035
 31
0.0
  0
ARC
  5
2EE
330
1F
100
AcDbEntity
  8
図
  6
CONTINUOUS
 62
     6
100
AcDbCircle
 10
1166.105980163397
 20
670.6499999999039
 30
0.0
 40
100.0
100
AcDbArc
 50
79.38034471798414
 51
90.00000000000001
  0
LINE
  5
2EF
330
1F
100
AcDbEntity
  8
図
  6
CONTINUOUS
 62
     6
100
AcDbLine
 10
1184.534833677928
 20
768.9372186915537
 30
0.0
 11
1235.017094897449
 21
759.4717947078354
 31
0.0
  0
ARC
  5
2F0
330
1F
100
AcDbEntity
  8
図
  6
CONTINUOUS
 62
     6
100
AcDbCircle
 10
1238.149999994916
 20
776.1806218854188
 30
0.0
 40
17.0
100
AcDbArc
 50
259.3803447179837
 51
0.0
  0
LINE
  5
2F1
330
1F
100
AcDbEntity
  8
図
  6
CONTINUOUS
 62
     6
100
AcDbLine
 10
1155.399999994916
 20
772.6499999999035
 30
0.0
 11
1155.399999994916
 21
777.6499999999035
 31
0.0
  0
ARC
  5
2F2
330
1F
100
AcDbEntity
  8
図
  6
CONTINUOUS
 62
     6
100
AcDbCircle
 10
1157.399999994916
 20
772.6499999999035
 30
0.0
 40
2.0
100
AcDbArc
 50
180.0
 51
270.0
  0
LINE
  5
2F3
330
1F
100
AcDbEntity
  8
図
  6
CONTINUOUS
 62
     6
100
AcDbLine
 10
1255.399999994916
 20
778.1499999998999
 30
0.0
 11
726.3999999949087
 21
778.1499999999035
 31
0.0
  0
ARC
  5
2F4
330
1F
100
AcDbEntity
  8
図
  6
CONTINUOUS
 62
     6
100
AcDbCircle
 10
726.3999999949087
 20
779.1499999999036
 30
0.0
 40
1.0
100
AcDbArc
 50
180.0
 51
270.0
  0
LINE
  5
2F5
330
1F
100
AcDbEntity
  8
図
  6
CONTINUOUS
 62
     6
100
AcDbLine
 10
725.3999999949087
 20
799.1499999999036
 30
0.0
 11
725.3999999949087
 21
779.1499999999036
 31
0.0
  0
ARC
  5
2F6
330
1F
100
AcDbEntity
  8
図
  6
CONTINUOUS
 62
     6
100
AcDbCircle
 10
730.3999999949087
 20
799.1499999999036
 30
0.0
 40
5.0
100
AcDbArc
 50
90.00000000000001
 51
180.0
  0
LINE
  5
2F7
330
1F
100
AcDbEntity
  8
図
  6
CONTINUOUS
 62
     6
100
AcDbLine
 10
1160.399999994916
 20
778.1499999999035
 30
0.0
 11
1160.399999994916
 21
777.6499999999035
 31
0.0
  0
LINE
  5
2F8
330
1F
100
AcDbEntity
  8
図
  6
CONTINUOUS
 62
     6
100
AcDbLine
 10
1186.149999994916
 20
778.1499999999035
 30
0.0
 11
1186.149999994916
 21
777.6499999999035
 31
0.0
  0
LINE
  5
2F9
330
1F
100
AcDbEntity
  8
図
  6
CONTINUOUS
 62
     6
100
AcDbLine
 10
1187.649999994916
 20
778.1499999999035
 30
0.0
 11
1187.649999994916
 21
777.6499999999035
 31
0.0
  0
LINE
  5
2FA
330
1F
100
AcDbEntity
  8
図
  6
CONTINUOUS
 62
     6
100
AcDbLine
 10
1220.899999994916
 20
804.1499999999036
 30
0.0
 11
730.3999999949087
 21
804.1499999999036
 31
0.0
  0
ELLIPSE
  5
2FB
330
1F
100
AcDbEntity
  8
図
  6
CONTINUOUS
 62
     6
100
AcDbEllipse
 10
1220.899999994916
 20
782.6499999999035
 30
0.0
 11
34.50000000000023
 21
0.0
 31
0.0
210
0.0
220
0.0
230
1.0
 40
0.6231884057970981
 41
0.0
 42
1.570796326794897
  0
LINE
  5
2FC
330
1F
100
AcDbEntity
  8
図
  6
CONTINUOUS
 62
     6
100
AcDbLine
 10
725.3999999949087
 20
798.6499999999035
 30
0.0
 11
627.0583839940778
 21
798.6499999999025
 31
0.0
  0
LINE
  5
2FD
330
1F
100
AcDbEntity
  8
図
  6
CONTINUOUS
 62
     6
100
AcDbLine
 10
1155.399999994916
 20
773.6499999998998
 30
0.0
 11
627.0583839940778
 21
773.6499999999035
 31
0.0
  0
CIRCLE
  5
2FE
330
1F
100
AcDbEntity
  8
図
  6
CONTINUOUS
 62
     6
100
AcDbCircle
 10
613.0000000000152
 20
896.3499999999971
 30
0.0
 40
5.2
  0
LINE
  5
2FF
330
1F
100
AcDbEntity
  8
図
  6
EXLTYPE3
 62
     6
100
AcDbLine
 10
547.0000000000152
 20
896.3499999999971
 30
0.0
 11
633.0000000000152
 21
896.3499999999971
 31
0.0
  0
LINE
  5
300
330
1F
100
AcDbEntity
  8
図
  6
EXLTYPE3
 62
     6
100
AcDbLine
 10
613.0000000000152
 20
916.3499999999971
 30
0.0
 11
613.0000000000152
 21
876.3499999999971
 31
0.0
  0
LINE
  5
301
330
1F
100
AcDbEntity
  8
図
  6
CONTINUOUS
 62
     6
100
AcDbLine
 10
555.0000000000152
 20
871.3499999999971
 30
0.0
 11
555.0000000000152
 21
921.3499999999971
 31
0.0
  0
ARC
  5
302
330
1F
100
AcDbEntity
  8
図
  6
CONTINUOUS
 62
     6
100
AcDbCircle
 10
613.0000000000152
 20
896.3499999999971
 30
0.0
 40
10.0
100
AcDbArc
 50
270.0
 51
90.00000000000001
  0
ARC
  5
303
330
1F
100
AcDbEntity
  8
図
  6
CONTINUOUS
 62
     6
100
AcDbCircle
 10
613.0000000000152
 20
821.3499999999971
 30
0.0
 40
65.0
100
AcDbArc
 50
90.00000000000001
 51
126.8698976457437
  0
ARC
  5
304
330
1F
100
AcDbEntity
  8
図
  6
CONTINUOUS
 62
     6
100
AcDbCircle
 10
568.0000000000152
 20
881.3499999999971
 30
0.0
 40
10.0
100
AcDbArc
 50
270.0
 51
306.8698976457437
  0
LINE
  5
305
330
1F
100
AcDbEntity
  8
図
  6
CONTINUOUS
 62
     6
100
AcDbLine
 10
555.0000000000152
 20
871.3499999999971
 30
0.0
 11
568.0000000000152
 21
871.3499999999971
 31
0.0
  0
ARC
  5
306
330
1F
100
AcDbEntity
  8
図
  6
CONTINUOUS
 62
     6
100
AcDbCircle
 10
613.0000000000152
 20
971.3499999999971
 30
0.0
 40
65.0
100
AcDbArc
 50
233.1301023542562
 51
270.0
  0
LINE
  5
307
330
1F
100
AcDbEntity
  8
図
  6
CONTINUOUS
 62
     6
100
AcDbLine
 10
555.0000000000152
 20
921.3499999999971
 30
0.0
 11
568.0000000000152
 21
921.3499999999971
 31
0.0
  0
ARC
  5
308
330
1F
100
AcDbEntity
  8
図
  6
CONTINUOUS
 62
     6
100
AcDbCircle
 10
568.0000000000152
 20
911.3499999999971
 30
0.0
 40
10.0
100
AcDbArc
 50
53.13010235425629
 51
90.00000000000001
  0
CIRCLE
  5
309
330
1F
100
AcDbEntity
  8
図
  6
CONTINUOUS
 62
     6
100
AcDbCircle
 10
613.0000000000152
 20
896.3499999999971
 30
0.0
 40
7.0
  0
ARC
  5
30A
330
1F
100
AcDbEntity
  8
図
  6
EXLTYPE9
 62
     6
100
AcDbCircle
 10
598.2000000013074
 20
921.3499999955718
 30
0.0
 40
1.0
100
AcDbArc
 50
270.0
 51
0.0
  0
LINE
  5
30B
330
1F
100
AcDbEntity
  8
図
  6
EXLTYPE9
 62
     6
100
AcDbLine
 10
578.2000000013074
 20
920.3499999955718
 30
0.0
 11
598.2000000013074
 21
920.3499999955718
 31
0.0
  0
LINE
  5
30C
330
1F
100
AcDbEntity
  8
図
  6
EXLTYPE1
 62
     6
100
AcDbLine
 10
558.200000000016
 20
871.3499999999971
 30
0.0
 11
558.200000000016
 21
921.3499999999971
 31
0.0
  0
LINE
  5
30D
330
1F
100
AcDbEntity
  8
図
  6
EXLTYPE1
 62
     6
100
AcDbLine
 10
555.0000000000152
 20
881.649999999998
 30
0.0
 11
557.700000000016
 21
884.3499999999979
 31
0.0
  0
LINE
  5
30E
330
1F
100
AcDbEntity
  8
図
  6
EXLTYPE1
 62
     6
100
AcDbLine
 10
555.0000000000152
 20
876.0499999999981
 30
0.0
 11
557.700000000016
 21
873.3499999999979
 31
0.0
  0
LINE
  5
30F
330
1F
100
AcDbEntity
  8
図
  6
EXLTYPE1
 62
     6
100
AcDbLine
 10
558.200000000016
 20
873.3499999999979
 30
0.0
 11
557.700000000016
 21
873.3499999999979
 31
0.0
  0
LINE
  5
310
330
1F
100
AcDbEntity
  8
図
  6
EXLTYPE1
 62
     6
100
AcDbLine
 10
558.200000000016
 20
884.3499999999979
 30
0.0
 11
557.700000000016
 21
884.3499999999979
 31
0.0
  0
LINE
  5
311
330
1F
100
AcDbEntity
  8
図
  6
EXLTYPE1
 62
     6
100
AcDbLine
 10
555.0000000000152
 20
911.0499999999981
 30
0.0
 11
557.700000000016
 21
908.3499999999979
 31
0.0
  0
LINE
  5
312
330
1F
100
AcDbEntity
  8
図
  6
EXLTYPE1
 62
     6
100
AcDbLine
 10
558.200000000016
 20
908.3499999999979
 30
0.0
 11
557.700000000016
 21
908.3499999999979
 31
0.0
  0
LINE
  5
313
330
1F
100
AcDbEntity
  8
図
  6
EXLTYPE1
 62
     6
100
AcDbLine
 10
558.200000000016
 20
919.3499999999979
 30
0.0
 11
557.700000000016
 21
919.3499999999979
 31
0.0
  0
LINE
  5
314
330
1F
100
AcDbEntity
  8
図
  6
EXLTYPE1
 62
     6
100
AcDbLine
 10
555.0000000000152
 20
916.649999999998
 30
0.0
 11
557.700000000016
 21
919.3499999999979
 31
0.0
  0
LINE
  5
315
330
1F
100
AcDbEntity
  8
図
  6
CONTINUOUS
 62
     6
100
AcDbLine
 10
1603.233294024496
 20
803.6499999999678
 30
0.0
 11
1611.801331789808
 21
803.6499999999678
 31
0.0
  0
LINE
  5
316
330
1F
100
AcDbEntity
  8
図
  6
CONTINUOUS
 62
     6
100
AcDbLine
 10
1561.049547730807
 20
823.0000000000168
 30
0.0
 11
1561.049547730807
 21
794.641266373156
 31
0.0
  0
LINE
  5
317
330
1F
100
AcDbEntity
  8
図
  6
CONTINUOUS
 62
     6
100
AcDbLine
 10
1565.799547730807
 20
807.1499999999239
 30
0.0
 11
1565.799547730807
 21
801.8449294777821
 31
0.0
  0
ARC
  5
318
330
1F
100
AcDbEntity
  8
図
  6
CONTINUOUS
 62
     6
100
AcDbCircle
 10
1565.299547730807
 20
807.1499999999239
 30
0.0
 40
0.5
100
AcDbArc
 50
0.0
 51
90.00000000000001
  0
LINE
  5
319
330
1F
100
AcDbEntity
  8
図
  6
CONTINUOUS
 62
     6
100
AcDbLine
 10
1561.049547730807
 20
807.6499999999239
 30
0.0
 11
1565.299547730807
 21
807.6499999999239
 31
0.0
  0
LINE
  5
31A
330
1F
100
AcDbEntity
  8
図
  6
CONTINUOUS
 62
     6
100
AcDbLine
 10
1565.799547730807
 20
803.6499999999689
 30
0.0
 11
1575.016253706344
 21
803.6499999999689
 31
0.0
  0
LINE
  5
31B
330
1F
100
AcDbEntity
  8
図
  6
CONTINUOUS
 62
     6
100
AcDbLine
 10
1561.0495477308
 20
813.0000000000168
 30
0.0
 11
1617.150415471398
 21
813.0000000000168
 31
0.0
  0
LINE
  5
31C
330
1F
100
AcDbEntity
  8
図
  6
CONTINUOUS
 62
     6
100
AcDbLine
 10
1617.150415471398
 20
823.0000000000168
 30
0.0
 11
1617.150415471398
 21
795.23031025769
 31
0.0
  0
LINE
  5
31D
330
1F
100
AcDbEntity
  8
図
  6
CONTINUOUS
 62
     6
100
AcDbLine
 10
1612.400415471399
 20
807.1499999999239
 30
0.0
 11
1612.400415471399
 21
801.9038145777438
 31
0.0
  0
ARC
  5
31E
330
1F
100
AcDbEntity
  8
図
  6
CONTINUOUS
 62
     6
100
AcDbCircle
 10
1612.900415471398
 20
807.1499999999239
 30
0.0
 40
0.5
100
AcDbArc
 50
90.00000000000001
 51
180.0
  0
LINE
  5
31F
330
1F
100
AcDbEntity
  8
図
  6
CONTINUOUS
 62
     6
100
AcDbLine
 10
1617.150415471398
 20
807.6499999999239
 30
0.0
 11
1612.900415471398
 21
807.6499999999239
 31
0.0
  0
LINE
  5
320
330
1F
100
AcDbEntity
  8
図
  6
EXLTYPE3
 62
     6
100
AcDbLine
 10
1530.672424965065
 20
786.1499999999239
 30
0.0
 11
1647.527575034976
 21
786.1499999999239
 31
0.0
  0
LINE
  5
321
330
1F
100
AcDbEntity
  8
図
  6
EXLTYPE3
 62
     6
100
AcDbLine
 10
1589.100000000028
 20
827.7704620263048
 30
0.0
 11
1589.100000000028
 21
636.8677595802101
 31
0.0
  0
LINE
  5
322
330
1F
100
AcDbEntity
  8
図
  6
EXLTYPE3
 62
     6
100
AcDbLine
 10
1589.100000000028
 20
744.302822124514
 30
0.0
 11
1589.100000000013
 21
1480.038007586981
 31
0.0
  0
LINE
  5
323
330
1F
100
AcDbEntity
  8
図
  6
EXLTYPE3
 62
     6
100
AcDbLine
 10
1629.149547730805
 20
691.8066749918821
 30
0.0
 11
1629.149547730805
 21
674.4933250079657
 31
0.0
  0
LINE
  5
324
330
1F
100
AcDbEntity
  8
図
  6
EXLTYPE3
 62
     6
100
AcDbLine
 10
1637.806222722764
 20
683.1499999999241
 30
0.0
 11
1620.492872738847
 21
683.1499999999241
 31
0.0
  0
LINE
  5
325
330
1F
100
AcDbEntity
  8
図
  6
EXLTYPE3
 62
     6
100
AcDbLine
 10
1549.149547730806
 20
691.8066749918821
 30
0.0
 11
1549.149547730806
 21
674.4933250079657
 31
0.0
  0
LINE
  5
326
330
1F
100
AcDbEntity
  8
図
  6
EXLTYPE3
 62
     6
100
AcDbLine
 10
1540.492872738847
 20
683.1499999999241
 30
0.0
 11
1557.806222722764
 21
683.1499999999241
 31
0.0
  0
LINE
  5
327
330
1F
100
AcDbEntity
  8
図
  6
EXLTYPE3
 62
     6
100
AcDbLine
 10
1549.149547730806
 20
816.8066749918819
 30
0.0
 11
1549.149547730806
 21
799.4933250079648
 31
0.0
  0
LINE
  5
328
330
1F
100
AcDbEntity
  8
図
  6
EXLTYPE3
 62
     6
100
AcDbLine
 10
1540.492872738847
 20
808.1499999999239
 30
0.0
 11
1557.806222722764
 21
808.1499999999239
 31
0.0
  0
LINE
  5
329
330
1F
100
AcDbEntity
  8
図
  6
EXLTYPE3
 62
     6
100
AcDbLine
 10
1629.149547730805
 20
816.8066749918819
 30
0.0
 11
1629.149547730805
 21
799.4933250079648
 31
0.0
  0
LINE
  5
32A
330
1F
100
AcDbEntity
  8
図
  6
EXLTYPE3
 62
     6
100
AcDbLine
 10
1637.806222722764
 20
808.1499999999239
 30
0.0
 11
1620.492872738847
 21
808.1499999999239
 31
0.0
  0
CIRCLE
  5
32B
330
1F
100
AcDbEntity
  8
図
  6
EXLTYPE1
 62
     6
100
AcDbCircle
 10
1549.149547730806
 20
683.1499999999241
 30
0.0
 40
4.25
  0
CIRCLE
  5
32C
330
1F
100
AcDbEntity
  8
図
  6
EXLTYPE1
 62
     6
100
AcDbCircle
 10
1629.149547730805
 20
683.1499999999241
 30
0.0
 40
4.25
  0
CIRCLE
  5
32D
330
1F
100
AcDbEntity
  8
図
  6
EXLTYPE1
 62
     6
100
AcDbCircle
 10
1549.149547730806
 20
808.1499999999239
 30
0.0
 40
4.25
  0
CIRCLE
  5
32E
330
1F
100
AcDbEntity
  8
図
  6
EXLTYPE1
 62
     6
100
AcDbCircle
 10
1629.149547730805
 20
808.1499999999239
 30
0.0
 40
4.25
  0
LINE
  5
32F
330
1F
100
AcDbEntity
  8
図
  6
EXLTYPE9
 62
     6
100
AcDbLine
 10
1564.099999998907
 20
919.9499999988059
 30
0.0
 11
1564.099999998907
 21
821.468268418127
 31
0.0
  0
LINE
  5
330
330
1F
100
AcDbEntity
  8
図
  6
EXLTYPE9
 62
     6
100
AcDbLine
 10
1614.099999998907
 20
919.9499999988059
 30
0.0
 11
1614.099999998907
 21
821.4728776813888
 31
0.0
  0
LINE
  5
331
330
1F
100
AcDbEntity
  8
図
  6
EXLTYPE9
 62
     6
100
AcDbLine
 10
1560.099999998907
 20
1439.949999998807
 30
0.0
 11
1560.099999998907
 21
922.9499999988059
 31
0.0
  0
LINE
  5
332
330
1F
100
AcDbEntity
  8
図
  6
EXLTYPE9
 62
     6
100
AcDbLine
 10
1560.929999998895
 20
1443.938872019806
 30
0.0
 11
1560.929999998909
 21
920.8785029556038
 31
0.0
  0
ARC
  5
333
330
1F
100
AcDbEntity
  8
図
  6
EXLTYPE9
 62
     6
100
AcDbCircle
 10
1570.099999998907
 20
1439.949999998807
 30
0.0
 40
10.0
100
AcDbArc
 50
90.00000000000001
 51
180.0
  0
LINE
  5
334
330
1F
100
AcDbEntity
  8
図
  6
EXLTYPE9
 62
     6
100
AcDbLine
 10
1570.099999998907
 20
1449.949999998806
 30
0.0
 11
1589.099999998907
 21
1449.949999998806
 31
0.0
  0
LINE
  5
335
330
1F
100
AcDbEntity
  8
図
  6
EXLTYPE9
 62
     6
100
AcDbLine
 10
1563.099999998907
 20
919.9499999988059
 30
0.0
 11
1589.099999998907
 21
919.9499999988059
 31
0.0
  0
ARC
  5
336
330
1F
100
AcDbEntity
  8
図
  6
EXLTYPE9
 62
     6
100
AcDbCircle
 10
1563.099999998907
 20
922.9499999988059
 30
0.0
 40
3.0
100
AcDbArc
 50
180.0
 51
270.0
  0
LINE
  5
337
330
1F
100
AcDbEntity
  8
図
  6
EXLTYPE9
 62
     6
100
AcDbLine
 10
1618.099999998907
 20
1439.949999998807
 30
0.0
 11
1618.099999998907
 21
922.9499999988059
 31
0.0
  0
ARC
  5
338
330
1F
100
AcDbEntity
  8
図
  6
EXLTYPE9
 62
     6
100
AcDbCircle
 10
1608.099999998907
 20
1439.949999998807
 30
0.0
 40
10.0
100
AcDbArc
 50
0.0
 51
90.00000000000001
  0
LINE
  5
339
330
1F
100
AcDbEntity
  8
図
  6
EXLTYPE9
 62
     6
100
AcDbLine
 10
1608.099999998907
 20
1449.949999998806
 30
0.0
 11
1589.099999998907
 21
1449.949999998806
 31
0.0
  0
LINE
  5
33A
330
1F
100
AcDbEntity
  8
図
  6
EXLTYPE9
 62
     6
100
AcDbLine
 10
1615.099999998907
 20
919.9499999988059
 30
0.0
 11
1589.099999998907
 21
919.9499999988059
 31
0.0
  0
ARC
  5
33B
330
1F
100
AcDbEntity
  8
図
  6
EXLTYPE9
 62
     6
100
AcDbCircle
 10
1615.099999998907
 20
922.9499999988059
 30
0.0
 40
3.0
100
AcDbArc
 50
270.0
 51
0.0
  0
ARC
  5
33C
330
1F
100
AcDbEntity
  8
図
  6
EXLTYPE9
 62
     6
100
AcDbCircle
 10
1589.107489165217
 20
740.230189381286
 30
0.0
 40
85.0
100
AcDbArc
 50
72.71896540919086
 51
107.2911309694415
  0
LINE
  5
33D
330
1F
100
AcDbEntity
  8
図
  6
EXLTYPE9
 62
     6
100
AcDbLine
 10
1616.35748916521
 20
818.0877161281919
 30
0.0
 11
1616.35748916521
 21
808.0301893812818
 31
0.0
  0
ARC
  5
33E
330
1F
100
AcDbEntity
  8
図
  6
EXLTYPE9
 62
     6
100
AcDbCircle
 10
1589.107489165217
 20
740.230189381286
 30
0.0
 40
82.48852629999999
100
AcDbArc
 50
70.7100418676139
 51
109.21638409896
  0
ARC
  5
33F
330
1F
100
AcDbEntity
  8
図
  6
EXLTYPE9
 62
     6
100
AcDbCircle
 10
1611.647195797654
 20
807.730189381286
 30
0.0
 40
0.3
100
AcDbArc
 50
90.00000000000001
 51
178.0000000002052
  0
ARC
  5
340
330
1F
100
AcDbEntity
  8
図
  6
EXLTYPE9
 62
     6
100
AcDbCircle
 10
1610.692888101868
 20
803.3253591730199
 30
0.0
 40
0.5
100
AcDbArc
 50
270.0
 51
358.0000000002054
  0
LINE
  5
341
330
1F
100
AcDbEntity
  8
図
  6
EXLTYPE9
 62
     6
100
AcDbLine
 10
1611.647195797654
 20
808.0301893812818
 30
0.0
 11
1616.35748916521
 21
808.0301893812818
 31
0.0
  0
LINE
  5
342
330
1F
100
AcDbEntity
  8
図
  6
EXLTYPE9
 62
     6
100
AcDbLine
 10
1611.347378549559
 20
807.7406592302959
 30
0.0
 11
1611.192583515374
 21
803.3079094246659
 31
0.0
  0
ARC
  5
343
330
1F
100
AcDbEntity
  8
図
  6
EXLTYPE9
 62
     6
100
AcDbCircle
 10
1566.567782532773
 20
807.730189381286
 30
0.0
 40
0.3
100
AcDbArc
 50
2.000000000212247
 51
90.00000000000001
  0
LINE
  5
344
330
1F
100
AcDbEntity
  8
図
  6
EXLTYPE9
 62
     6
100
AcDbLine
 10
1566.867599780875
 20
807.7406592302959
 30
0.0
 11
1567.02239481506
 21
803.3079094246659
 31
0.0
  0
LINE
  5
345
330
1F
100
AcDbEntity
  8
図
  6
EXLTYPE9
 62
     6
100
AcDbLine
 10
1566.567782532773
 20
808.0301893812818
 30
0.0
 11
1561.857489165217
 21
808.0301893812818
 31
0.0
  0
ARC
  5
346
330
1F
100
AcDbEntity
  8
図
  6
EXLTYPE9
 62
     6
100
AcDbCircle
 10
1567.522090228566
 20
803.3253591730199
 30
0.0
 40
0.5
100
AcDbArc
 50
181.9999999997947
 51
270.0
  0
LINE
  5
347
330
1F
100
AcDbEntity
  8
図
  6
EXLTYPE9
 62
     6
100
AcDbLine
 10
1616.357489165217
 20
818.0877161281919
 30
0.0
 11
1614.35748916521
 21
821.3932197584171
 31
0.0
  0
LINE
  5
348
330
1F
100
AcDbEntity
  8
図
  6
EXLTYPE9
 62
     6
100
AcDbLine
 10
1561.857489165217
 20
818.0877161281919
 30
0.0
 11
1561.857489165217
 21
808.0301893812818
 31
0.0
  0
LINE
  5
349
330
1F
100
AcDbEntity
  8
図
  6
EXLTYPE9
 62
     6
100
AcDbLine
 10
1561.857489165217
 20
818.0877161281919
 30
0.0
 11
1563.857489165217
 21
821.3932197584171
 31
0.0
  0
LINE
  5
34A
330
1F
100
AcDbEntity
  8
図
  6
EXLTYPE9
 62
     6
100
AcDbLine
 10
1567.522090228566
 20
802.8253591730199
 30
0.0
 11
1610.692888101868
 21
802.8253591730199
 31
0.0
  0
LINE
  5
34B
330
1F
100
AcDbEntity
  8
図
  6
EXLTYPE9
 62
     6
100
AcDbLine
 10
1617.269999998905
 20
1443.938872019821
 30
0.0
 11
1617.269999998905
 21
920.8785029556038
 31
0.0
  0
LINE
  5
34C
330
1F
100
AcDbEntity
  8
図
  6
EXLTYPE7
 62
     6
100
AcDbLine
 10
1644.600000000013
 20
786.1499999999239
 30
0.0
 11
1533.600000000013
 21
786.1499999999239
 31
0.0
  0
LINE
  5
34D
330
1F
100
AcDbEntity
  8
図
  6
CONTINUOUS
 62
     6
100
AcDbLine
 10
1544.149547730806
 20
643.0000000000173
 30
0.0
 11
1634.149547730805
 21
643.0000000000173
 31
0.0
  0
LINE
  5
34E
330
1F
100
AcDbEntity
  8
図
  6
CONTINUOUS
 62
     6
100
AcDbLine
 10
1644.149547730805
 20
653.0000000000173
 30
0.0
 11
1644.149547730805
 21
813.0000000000168
 31
0.0
  0
LINE
  5
34F
330
1F
100
AcDbEntity
  8
図
  6
CONTINUOUS
 62
     6
100
AcDbLine
 10
1634.149547730805
 20
823.0000000000168
 30
0.0
 11
1544.149547730806
 21
823.0000000000168
 31
0.0
  0
LINE
  5
350
330
1F
100
AcDbEntity
  8
図
  6
CONTINUOUS
 62
     6
100
AcDbLine
 10
1534.149547730805
 20
813.0000000000168
 30
0.0
 11
1534.149547730805
 21
653.0000000000173
 31
0.0
  0
ARC
  5
351
330
1F
100
AcDbEntity
  8
図
  6
CONTINUOUS
 62
     6
100
AcDbCircle
 10
1544.149547730806
 20
813.0000000000168
 30
0.0
 40
10.0
100
AcDbArc
 50
90.00000000000001
 51
180.0
  0
ARC
  5
352
330
1F
100
AcDbEntity
  8
図
  6
CONTINUOUS
 62
     6
100
AcDbCircle
 10
1634.149547730805
 20
813.0000000000168
 30
0.0
 40
10.0
100
AcDbArc
 50
0.0
 51
90.00000000000001
  0
ARC
  5
353
330
1F
100
AcDbEntity
  8
図
  6
CONTINUOUS
 62
     6
100
AcDbCircle
 10
1634.149547730805
 20
653.0000000000173
 30
0.0
 40
10.0
100
AcDbArc
 50
270.0
 51
0.0
  0
ARC
  5
354
330
1F
100
AcDbEntity
  8
図
  6
CONTINUOUS
 62
     6
100
AcDbCircle
 10
1544.149547730806
 20
653.0000000000173
 30
0.0
 40
10.0
100
AcDbArc
 50
180.0
 51
270.0
  0
LINE
  5
355
330
1F
100
AcDbEntity
  8
図
  6
CONTINUOUS
 62
     6
100
AcDbLine
 10
1543.649547730806
 20
813.0000000000168
 30
0.0
 11
1543.649547730806
 21
653.0000000000173
 31
0.0
  0
LINE
  5
356
330
1F
100
AcDbEntity
  8
図
  6
CONTINUOUS
 62
     6
100
AcDbLine
 10
1634.649547730805
 20
653.0000000000173
 30
0.0
 11
1634.649547730805
 21
813.0000000000168
 31
0.0
  0
LINE
  5
357
330
1F
100
AcDbEntity
  8
図
  6
CONTINUOUS
 62
     6
100
AcDbLine
 10
1560.100000000028
 20
778.1499999999239
 30
0.0
 11
1589.100000000013
 21
778.149999999909
 31
0.0
  0
LINE
  5
358
330
1F
100
AcDbEntity
  8
図
  6
CONTINUOUS
 62
     6
100
AcDbLine
 10
1561.550000000017
 20
778.1499999999239
 30
0.0
 11
1561.550000000017
 21
777.6499999974899
 31
0.0
  0
LINE
  5
359
330
1F
100
AcDbEntity
  8
図
  6
CONTINUOUS
 62
     6
100
AcDbLine
 10
1618.100000000013
 20
778.1499999999239
 30
0.0
 11
1589.100000000013
 21
778.149999999909
 31
0.0
  0
LINE
  5
35A
330
1F
100
AcDbEntity
  8
図
  6
CONTINUOUS
 62
     6
100
AcDbLine
 10
1616.650000000016
 20
778.1499999999239
 30
0.0
 11
1616.650000000016
 21
777.6499999974899
 31
0.0
  0
LINE
  5
35B
330
1F
100
AcDbEntity
  8
図
  6
CONTINUOUS
 62
     6
100
AcDbLine
 10
1560.349999999999
 20
769.1499999974858
 30
0.0
 11
1560.349999999999
 21
777.6499999974899
 31
0.0
  0
LINE
  5
35C
330
1F
100
AcDbEntity
  8
図
  6
CONTINUOUS
 62
     6
100
AcDbLine
 10
1570.299999999996
 20
759.1499999974858
 30
0.0
 11
1589.099999999999
 21
759.1499999974858
 31
0.0
  0
ARC
  5
35D
330
1F
100
AcDbEntity
  8
図
  6
CONTINUOUS
 62
     6
100
AcDbCircle
 10
1570.349999999999
 20
769.1499999974858
 30
0.0
 40
10.0
100
AcDbArc
 50
180.0
 51
270.0
  0
LINE
  5
35E
330
1F
100
AcDbEntity
  8
図
  6
CONTINUOUS
 62
     6
100
AcDbLine
 10
1617.85000000005
 20
769.1499999974858
 30
0.0
 11
1617.85000000005
 21
777.6499999974899
 31
0.0
  0
LINE
  5
35F
330
1F
100
AcDbEntity
  8
図
  6
CONTINUOUS
 62
     6
100
AcDbLine
 10
1607.900000000038
 20
759.1499999974858
 30
0.0
 11
1589.10000000005
 21
759.1499999974858
 31
0.0
  0
ARC
  5
360
330
1F
100
AcDbEntity
  8
図
  6
CONTINUOUS
 62
     6
100
AcDbCircle
 10
1607.85000000005
 20
769.1499999974858
 30
0.0
 40
10.0
100
AcDbArc
 50
270.0
 51
0.0
  0
LINE
  5
361
330
1F
100
AcDbEntity
  8
図
  6
CONTINUOUS
 62
     6
100
AcDbLine
 10
1560.349999999999
 20
777.6499999974899
 30
0.0
 11
1589.100000000013
 21
777.6499999974899
 31
0.0
  0
LINE
  5
362
330
1F
100
AcDbEntity
  8
図
  6
CONTINUOUS
 62
     6
100
AcDbLine
 10
1617.850000000086
 20
777.6499999974899
 30
0.0
 11
1589.100000000028
 21
777.6499999974899
 31
0.0
  0
LINE
  5
363
330
1F
100
AcDbEntity
  8
図
  6
CONTINUOUS
 62
     6
100
AcDbLine
 10
1560.100000000028
 20
778.1499999999239
 30
0.0
 11
1560.920197008185
 21
793.8002912235988
 31
0.0
  0
ARC
  5
364
330
1F
100
AcDbEntity
  8
図
  6
CONTINUOUS
 62
     6
100
AcDbCircle
 10
1589.100000000028
 20
604.1499999999241
 30
0.0
 40
200.0
100
AcDbArc
 50
90.00000000000001
 51
95.49479370033993
  0
ARC
  5
365
330
1F
100
AcDbEntity
  8
図
  6
CONTINUOUS
 62
     6
100
AcDbCircle
 10
1570.906492355738
 20
793.2769316611689
 30
0.0
 40
10.0
100
AcDbArc
 50
95.49479370033993
 51
176.9999999999944
  0
LINE
  5
366
330
1F
100
AcDbEntity
  8
図
  6
CONTINUOUS
 62
     6
100
AcDbLine
 10
1618.100000000013
 20
778.1499999999239
 30
0.0
 11
1617.279802991856
 21
793.8002912235988
 31
0.0
  0
ARC
  5
367
330
1F
100
AcDbEntity
  8
図
  6
CONTINUOUS
 62
     6
100
AcDbCircle
 10
1589.100000000028
 20
604.1499999999241
 30
0.0
 40
200.0
100
AcDbArc
 50
84.50520629966007
 51
90.00000000000001
  0
ARC
  5
368
330
1F
100
AcDbEntity
  8
図
  6
CONTINUOUS
 62
     6
100
AcDbCircle
 10
1607.293507644303
 20
793.2769316611689
 30
0.0
 40
10.0
100
AcDbArc
 50
3.000000000005622
 51
84.50520629966007
  0
LINE
  5
369
330
1F
100
AcDbEntity
  8
図
  6
EXLTYPE3
 62
     6
100
AcDbLine
 10
1519.097797035589
 20
931.350000000017
 30
0.0
 11
1519.097797035589
 21
861.350000000017
 31
0.0
  0
LINE
  5
36A
330
1F
100
AcDbEntity
  8
図
  6
EXLTYPE3
 62
     6
100
AcDbLine
 10
1474.097797035575
 20
896.3500000000179
 30
0.0
 11
1579.097797035589
 21
896.3500000000179
 31
0.0
  0
LINE
  5
36B
330
1F
100
AcDbEntity
  8
図
  6
CONTINUOUS
 62
     6
100
AcDbLine
 10
1549.097797035589
 20
921.350000000017
 30
0.0
 11
1549.097797035589
 21
871.350000000017
 31
0.0
  0
LINE
  5
36C
330
1F
100
AcDbEntity
  8
図
  6
CONTINUOUS
 62
     6
100
AcDbLine
 10
1545.897797035585
 20
921.350000000017
 30
0.0
 11
1545.897797035585
 21
871.350000000017
 31
0.0
  0
LINE
  5
36D
330
1F
100
AcDbEntity
  8
図
  6
CONTINUOUS
 62
     6
100
AcDbLine
 10
1489.097797035589
 20
871.350000000017
 30
0.0
 11
1489.097797035589
 21
921.350000000017
 31
0.0
  0
LINE
  5
36E
330
1F
100
AcDbEntity
  8
図
  6
CONTINUOUS
 62
     6
100
AcDbLine
 10
1492.297797035586
 20
871.350000000017
 30
0.0
 11
1492.297797035586
 21
921.350000000017
 31
0.0
  0
LINE
  5
36F
330
1F
100
AcDbEntity
  8
図
  6
CONTINUOUS
 62
     6
100
AcDbLine
 10
1549.097797035589
 20
871.350000000017
 30
0.0
 11
1489.097797035589
 21
871.350000000017
 31
0.0
  0
LINE
  5
370
330
1F
100
AcDbEntity
  8
図
  6
CONTINUOUS
 62
     6
100
AcDbLine
 10
1489.097797035589
 20
921.350000000017
 30
0.0
 11
1549.097797035589
 21
921.350000000017
 31
0.0
  0
LINE
  5
371
330
1F
100
AcDbEntity
  8
図
  6
CONTINUOUS
 62
     6
100
AcDbLine
 10
1479.097797035589
 20
903.350000000016
 30
0.0
 11
1479.097797035589
 21
889.350000000016
 31
0.0
  0
LINE
  5
372
330
1F
100
AcDbEntity
  8
図
  6
CONTINUOUS
 62
     6
100
AcDbLine
 10
1489.097797035589
 20
889.350000000016
 30
0.0
 11
1489.097797035589
 21
903.350000000016
 31
0.0
  0
LINE
  5
373
330
1F
100
AcDbEntity
  8
図
  6
CONTINUOUS
 62
     6
100
AcDbLine
 10
1574.097797035589
 20
903.350000000018
 30
0.0
 11
1574.097797035589
 21
889.3500000000179
 31
0.0
  0
LINE
  5
374
330
1F
100
AcDbEntity
  8
図
  6
CONTINUOUS
 62
     6
100
AcDbLine
 10
1564.097797035589
 20
889.3500000000179
 30
0.0
 11
1564.097797035589
 21
903.350000000018
 31
0.0
  0
LINE
  5
375
330
1F
100
AcDbEntity
  8
図
  6
CONTINUOUS
 62
     6
100
AcDbLine
 10
1564.097797035589
 20
903.350000000018
 30
0.0
 11
1574.097797035589
 21
903.350000000018
 31
0.0
  0
LINE
  5
376
330
1F
100
AcDbEntity
  8
図
  6
CONTINUOUS
 62
     6
100
AcDbLine
 10
1564.097797035589
 20
889.3500000000179
 30
0.0
 11
1574.097797035589
 21
889.3500000000179
 31
0.0
  0
LINE
  5
377
330
1F
100
AcDbEntity
  8
図
  6
CONTINUOUS
 62
     6
100
AcDbLine
 10
1479.097797035589
 20
889.350000000016
 30
0.0
 11
1489.097797035589
 21
889.350000000016
 31
0.0
  0
LINE
  5
378
330
1F
100
AcDbEntity
  8
図
  6
CONTINUOUS
 62
     6
100
AcDbLine
 10
1479.097797035589
 20
903.350000000016
 30
0.0
 11
1489.097797035589
 21
903.350000000016
 31
0.0
  0
ARC
  5
379
330
1F
100
AcDbEntity
  8
図
  6
EXLTYPE9
 62
     6
100
AcDbCircle
 10
1563.099999998908
 20
922.9499999988059
 30
0.0
 40
3.0
100
AcDbArc
 50
180.0
 51
270.0
  0
LINE
  5
37A
330
1F
100
AcDbEntity
  8
図
  6
EXLTYPE1
 62
     6
100
AcDbLine
 10
1545.897797035585
 20
891.1500000000171
 30
0.0
 11
1549.097797035589
 21
891.1500000000171
 31
0.0
  0
LINE
  5
37B
330
1F
100
AcDbEntity
  8
図
  6
EXLTYPE1
 62
     6
100
AcDbLine
 10
1489.097797035589
 20
891.1500000000171
 30
0.0
 11
1492.297797035586
 21
891.1500000000171
 31
0.0
  0
LINE
  5
37C
330
1F
100
AcDbEntity
  8
図
  6
EXLTYPE1
 62
     6
100
AcDbLine
 10
1545.897797035585
 20
901.5500000000181
 30
0.0
 11
1549.097797035589
 21
901.5500000000181
 31
0.0
  0
LINE
  5
37D
330
1F
100
AcDbEntity
  8
図
  6
EXLTYPE1
 62
     6
100
AcDbLine
 10
1489.097797035589
 20
901.5500000000181
 30
0.0
 11
1492.297797035586
 21
901.5500000000181
 31
0.0
  0
LINE
  5
37E
330
1F
100
AcDbEntity
  8
図
  6
CONTINUOUS
 62
     6
100
AcDbLine
 10
1564.097797035589
 20
891.350000000017
 30
0.0
 11
1549.097797035589
 21
891.350000000017
 31
0.0
  0
LINE
  5
37F
330
1F
100
AcDbEntity
  8
図
  6
CONTINUOUS
 62
     6
100
AcDbLine
 10
1545.897797035585
 20
891.350000000017
 30
0.0
 11
1492.297797035586
 21
891.350000000017
 31
0.0
  0
LINE
  5
380
330
1F
100
AcDbEntity
  8
図
  6
CONTINUOUS
 62
     6
100
AcDbLine
 10
1545.897797035585
 20
891.350000000017
 30
0.0
 11
1492.297797035586
 21
891.350000000017
 31
0.0
  0
LINE
  5
381
330
1F
100
AcDbEntity
  8
図
  6
CONTINUOUS
 62
     6
100
AcDbLine
 10
1492.297797035586
 20
901.350000000017
 30
0.0
 11
1545.897797035585
 21
901.350000000017
 31
0.0
  0
LINE
  5
382
330
1F
100
AcDbEntity
  8
図
  6
CONTINUOUS
 62
     6
100
AcDbLine
 10
1549.097797035589
 20
901.350000000017
 30
0.0
 11
1564.097797035589
 21
901.350000000017
 31
0.0
  0
LINE
  5
383
330
1F
100
AcDbEntity
  8
図
  6
CONTINUOUS
 62
     6
100
AcDbLine
 10
1492.297797035586
 20
901.350000000017
 30
0.0
 11
1545.897797035585
 21
901.350000000017
 31
0.0
  0
CIRCLE
  5
384
330
1F
100
AcDbEntity
  8
図
  6
CONTINUOUS
 62
     6
100
AcDbCircle
 10
1536.597797035589
 20
878.850000000017
 30
0.0
 40
5.1
  0
ARC
  5
385
330
1F
100
AcDbEntity
  8
図
  6
CONTINUOUS
 62
     6
100
AcDbCircle
 10
1534.710797035587
 20
880.737000000018
 30
0.0
 40
1.274999999999999
100
AcDbArc
 50
270.0
 51
0.0
  0
LINE
  5
386
330
1F
100
AcDbEntity
  8
図
  6
EXLTYPE7
 62
     6
100
AcDbLine
 10
1542.717797035585
 20
878.850000000017
 30
0.0
 11
1530.477797035579
 21
878.850000000017
 31
0.0
  0
ARC
  5
387
330
1F
100
AcDbEntity
  8
図
  6
CONTINUOUS
 62
     6
100
AcDbCircle
 10
1534.710797035587
 20
876.9630000000168
 30
0.0
 40
1.274999999999999
100
AcDbArc
 50
0.0
 51
90.00000000000001
  0
LINE
  5
388
330
1F
100
AcDbEntity
  8
図
  6
CONTINUOUS
 62
     6
100
AcDbLine
 10
1537.209797035583
 20
881.451000000018
 30
0.0
 11
1535.985797035574
 21
881.451000000018
 31
0.0
  0
LINE
  5
389
330
1F
100
AcDbEntity
  8
図
  6
CONTINUOUS
 62
     6
100
AcDbLine
 10
1535.985797035574
 20
876.2490000000168
 30
0.0
 11
1537.209797035583
 21
876.2490000000168
 31
0.0
  0
LINE
  5
38A
330
1F
100
AcDbEntity
  8
図
  6
EXLTYPE7
 62
     6
100
AcDbLine
 10
1536.597797035589
 20
872.730000000018
 30
0.0
 11
1536.597797035589
 21
884.9700000000183
 31
0.0
  0
LINE
  5
38B
330
1F
100
AcDbEntity
  8
図
  6
CONTINUOUS
 62
     6
100
AcDbLine
 10
1539.198797035584
 20
879.462000000018
 30
0.0
 11
1538.484797035585
 21
879.462000000018
 31
0.0
  0
LINE
  5
38C
330
1F
100
AcDbEntity
  8
図
  6
CONTINUOUS
 62
     6
100
AcDbLine
 10
1538.484797035585
 20
878.2380000000169
 30
0.0
 11
1539.198797035584
 21
878.2380000000169
 31
0.0
  0
LINE
  5
38D
330
1F
100
AcDbEntity
  8
図
  6
CONTINUOUS
 62
     6
100
AcDbLine
 10
1539.198797035584
 20
879.462000000018
 30
0.0
 11
1539.198797035584
 21
878.2380000000169
 31
0.0
  0
LINE
  5
38E
330
1F
100
AcDbEntity
  8
図
  6
CONTINUOUS
 62
     6
100
AcDbLine
 10
1537.209797035583
 20
880.737000000018
 30
0.0
 11
1537.209797035583
 21
881.451000000018
 31
0.0
  0
ARC
  5
38F
330
1F
100
AcDbEntity
  8
図
  6
CONTINUOUS
 62
     6
100
AcDbCircle
 10
1538.484797035585
 20
880.737000000018
 30
0.0
 40
1.274999999999999
100
AcDbArc
 50
180.0
 51
270.0
  0
LINE
  5
390
330
1F
100
AcDbEntity
  8
図
  6
CONTINUOUS
 62
     6
100
AcDbLine
 10
1537.209797035583
 20
876.2490000000168
 30
0.0
 11
1537.209797035583
 21
876.9630000000168
 31
0.0
  0
ARC
  5
391
330
1F
100
AcDbEntity
  8
図
  6
CONTINUOUS
 62
     6
100
AcDbCircle
 10
1538.484797035585
 20
876.9630000000168
 30
0.0
 40
1.274999999999999
100
AcDbArc
 50
90.00000000000001
 51
180.0
  0
LINE
  5
392
330
1F
100
AcDbEntity
  8
図
  6
CONTINUOUS
 62
     6
100
AcDbLine
 10
1535.985797035574
 20
881.451000000018
 30
0.0
 11
1535.985797035574
 21
880.737000000018
 31
0.0
  0
LINE
  5
393
330
1F
100
AcDbEntity
  8
図
  6
CONTINUOUS
 62
     6
100
AcDbLine
 10
1535.985797035574
 20
876.9630000000168
 30
0.0
 11
1535.985797035574
 21
876.2490000000168
 31
0.0
  0
LINE
  5
394
330
1F
100
AcDbEntity
  8
図
  6
CONTINUOUS
 62
     6
100
AcDbLine
 10
1533.99679703558
 20
878.2380000000169
 30
0.0
 11
1534.710797035587
 21
878.2380000000169
 31
0.0
  0
LINE
  5
395
330
1F
100
AcDbEntity
  8
図
  6
CONTINUOUS
 62
     6
100
AcDbLine
 10
1533.99679703558
 20
879.462000000018
 30
0.0
 11
1533.99679703558
 21
878.2380000000169
 31
0.0
  0
LINE
  5
396
330
1F
100
AcDbEntity
  8
図
  6
CONTINUOUS
 62
     6
100
AcDbLine
 10
1534.710797035587
 20
879.462000000018
 30
0.0
 11
1533.99679703558
 21
879.462000000018
 31
0.0
  0
LINE
  5
397
330
1F
100
AcDbEntity
  8
図
  6
EXLTYPE7
 62
     6
100
AcDbLine
 10
1501.597797035589
 20
872.730000000018
 30
0.0
 11
1501.597797035589
 21
884.9700000000183
 31
0.0
  0
ARC
  5
398
330
1F
100
AcDbEntity
  8
図
  6
CONTINUOUS
 62
     6
100
AcDbCircle
 10
1499.710797035587
 20
876.9630000000168
 30
0.0
 40
1.274999999999999
100
AcDbArc
 50
0.0
 51
90.00000000000001
  0
LINE
  5
399
330
1F
100
AcDbEntity
  8
図
  6
EXLTYPE7
 62
     6
100
AcDbLine
 10
1507.717797035585
 20
878.850000000017
 30
0.0
 11
1495.477797035579
 21
878.850000000017
 31
0.0
  0
ARC
  5
39A
330
1F
100
AcDbEntity
  8
図
  6
CONTINUOUS
 62
     6
100
AcDbCircle
 10
1499.710797035587
 20
880.737000000018
 30
0.0
 40
1.274999999999999
100
AcDbArc
 50
270.0
 51
0.0
  0
CIRCLE
  5
39B
330
1F
100
AcDbEntity
  8
図
  6
CONTINUOUS
 62
     6
100
AcDbCircle
 10
1501.597797035589
 20
878.850000000017
 30
0.0
 40
5.1
  0
ARC
  5
39C
330
1F
100
AcDbEntity
  8
図
  6
CONTINUOUS
 62
     6
100
AcDbCircle
 10
1503.484797035585
 20
876.9630000000168
 30
0.0
 40
1.274999999999999
100
AcDbArc
 50
90.00000000000001
 51
180.0
  0
LINE
  5
39D
330
1F
100
AcDbEntity
  8
図
  6
CONTINUOUS
 62
     6
100
AcDbLine
 10
1502.209797035583
 20
876.2490000000168
 30
0.0
 11
1502.209797035583
 21
876.9630000000168
 31
0.0
  0
ARC
  5
39E
330
1F
100
AcDbEntity
  8
図
  6
CONTINUOUS
 62
     6
100
AcDbCircle
 10
1503.484797035585
 20
880.737000000018
 30
0.0
 40
1.274999999999999
100
AcDbArc
 50
180.0
 51
270.0
  0
LINE
  5
39F
330
1F
100
AcDbEntity
  8
図
  6
CONTINUOUS
 62
     6
100
AcDbLine
 10
1504.198797035584
 20
879.462000000018
 30
0.0
 11
1503.484797035585
 21
879.462000000018
 31
0.0
  0
LINE
  5
3A0
330
1F
100
AcDbEntity
  8
図
  6
CONTINUOUS
 62
     6
100
AcDbLine
 10
1503.484797035585
 20
878.2380000000169
 30
0.0
 11
1504.198797035584
 21
878.2380000000169
 31
0.0
  0
LINE
  5
3A1
330
1F
100
AcDbEntity
  8
図
  6
CONTINUOUS
 62
     6
100
AcDbLine
 10
1502.209797035583
 20
880.737000000018
 30
0.0
 11
1502.209797035583
 21
881.451000000018
 31
0.0
  0
LINE
  5
3A2
330
1F
100
AcDbEntity
  8
図
  6
CONTINUOUS
 62
     6
100
AcDbLine
 10
1500.985797035588
 20
876.2490000000168
 30
0.0
 11
1502.209797035583
 21
876.2490000000168
 31
0.0
  0
LINE
  5
3A3
330
1F
100
AcDbEntity
  8
図
  6
CONTINUOUS
 62
     6
100
AcDbLine
 10
1500.985797035588
 20
876.9630000000168
 30
0.0
 11
1500.985797035588
 21
876.2490000000168
 31
0.0
  0
LINE
  5
3A4
330
1F
100
AcDbEntity
  8
図
  6
CONTINUOUS
 62
     6
100
AcDbLine
 10
1502.209797035583
 20
881.451000000018
 30
0.0
 11
1500.985797035588
 21
881.451000000018
 31
0.0
  0
LINE
  5
3A5
330
1F
100
AcDbEntity
  8
図
  6
CONTINUOUS
 62
     6
100
AcDbLine
 10
1500.985797035588
 20
881.451000000018
 30
0.0
 11
1500.985797035588
 21
880.737000000018
 31
0.0
  0
LINE
  5
3A6
330
1F
100
AcDbEntity
  8
図
  6
CONTINUOUS
 62
     6
100
AcDbLine
 10
1504.198797035584
 20
879.462000000018
 30
0.0
 11
1504.198797035584
 21
878.2380000000169
 31
0.0
  0
LINE
  5
3A7
330
1F
100
AcDbEntity
  8
図
  6
CONTINUOUS
 62
     6
100
AcDbLine
 10
1499.710797035587
 20
879.462000000018
 30
0.0
 11
1498.996797035587
 21
879.462000000018
 31
0.0
  0
LINE
  5
3A8
330
1F
100
AcDbEntity
  8
図
  6
CONTINUOUS
 62
     6
100
AcDbLine
 10
1498.996797035587
 20
879.462000000018
 30
0.0
 11
1498.996797035587
 21
878.2380000000169
 31
0.0
  0
LINE
  5
3A9
330
1F
100
AcDbEntity
  8
図
  6
CONTINUOUS
 62
     6
100
AcDbLine
 10
1498.996797035587
 20
878.2380000000169
 30
0.0
 11
1499.710797035587
 21
878.2380000000169
 31
0.0
  0
LINE
  5
3AA
330
1F
100
AcDbEntity
  8
図
  6
CONTINUOUS
 62
     6
100
AcDbLine
 10
1535.985797035574
 20
911.2490000000168
 30
0.0
 11
1537.209797035583
 21
911.2490000000168
 31
0.0
  0
LINE
  5
3AB
330
1F
100
AcDbEntity
  8
図
  6
CONTINUOUS
 62
     6
100
AcDbLine
 10
1537.209797035583
 20
916.451000000018
 30
0.0
 11
1535.985797035574
 21
916.451000000018
 31
0.0
  0
ARC
  5
3AC
330
1F
100
AcDbEntity
  8
図
  6
CONTINUOUS
 62
     6
100
AcDbCircle
 10
1534.710797035587
 20
911.9630000000168
 30
0.0
 40
1.274999999999999
100
AcDbArc
 50
0.0
 51
90.00000000000001
  0
LINE
  5
3AD
330
1F
100
AcDbEntity
  8
図
  6
EXLTYPE7
 62
     6
100
AcDbLine
 10
1542.717797035585
 20
913.850000000017
 30
0.0
 11
1530.477797035579
 21
913.850000000017
 31
0.0
  0
ARC
  5
3AE
330
1F
100
AcDbEntity
  8
図
  6
CONTINUOUS
 62
     6
100
AcDbCircle
 10
1534.710797035587
 20
915.737000000018
 30
0.0
 40
1.274999999999999
100
AcDbArc
 50
270.0
 51
0.0
  0
CIRCLE
  5
3AF
330
1F
100
AcDbEntity
  8
図
  6
CONTINUOUS
 62
     6
100
AcDbCircle
 10
1536.597797035589
 20
913.850000000017
 30
0.0
 40
5.1
  0
LINE
  5
3B0
330
1F
100
AcDbEntity
  8
図
  6
EXLTYPE7
 62
     6
100
AcDbLine
 10
1536.597797035589
 20
907.730000000018
 30
0.0
 11
1536.597797035589
 21
919.9700000000183
 31
0.0
  0
ARC
  5
3B1
330
1F
100
AcDbEntity
  8
図
  6
CONTINUOUS
 62
     6
100
AcDbCircle
 10
1538.484797035585
 20
911.9630000000168
 30
0.0
 40
1.274999999999999
100
AcDbArc
 50
90.00000000000001
 51
180.0
  0
LINE
  5
3B2
330
1F
100
AcDbEntity
  8
図
  6
CONTINUOUS
 62
     6
100
AcDbLine
 10
1537.209797035583
 20
911.2490000000168
 30
0.0
 11
1537.209797035583
 21
911.9630000000168
 31
0.0
  0
ARC
  5
3B3
330
1F
100
AcDbEntity
  8
図
  6
CONTINUOUS
 62
     6
100
AcDbCircle
 10
1538.484797035585
 20
915.737000000018
 30
0.0
 40
1.274999999999999
100
AcDbArc
 50
180.0
 51
270.0
  0
LINE
  5
3B4
330
1F
100
AcDbEntity
  8
図
  6
CONTINUOUS
 62
     6
100
AcDbLine
 10
1539.198797035584
 20
914.462000000018
 30
0.0
 11
1538.484797035585
 21
914.462000000018
 31
0.0
  0
LINE
  5
3B5
330
1F
100
AcDbEntity
  8
図
  6
CONTINUOUS
 62
     6
100
AcDbLine
 10
1538.484797035585
 20
913.2380000000169
 30
0.0
 11
1539.198797035584
 21
913.2380000000169
 31
0.0
  0
LINE
  5
3B6
330
1F
100
AcDbEntity
  8
図
  6
CONTINUOUS
 62
     6
100
AcDbLine
 10
1537.209797035583
 20
915.737000000018
 30
0.0
 11
1537.209797035583
 21
916.451000000018
 31
0.0
  0
LINE
  5
3B7
330
1F
100
AcDbEntity
  8
図
  6
CONTINUOUS
 62
     6
100
AcDbLine
 10
1539.198797035584
 20
914.462000000018
 30
0.0
 11
1539.198797035584
 21
913.2380000000169
 31
0.0
  0
LINE
  5
3B8
330
1F
100
AcDbEntity
  8
図
  6
CONTINUOUS
 62
     6
100
AcDbLine
 10
1534.710797035587
 20
914.462000000018
 30
0.0
 11
1533.99679703558
 21
914.462000000018
 31
0.0
  0
LINE
  5
3B9
330
1F
100
AcDbEntity
  8
図
  6
CONTINUOUS
 62
     6
100
AcDbLine
 10
1533.99679703558
 20
914.462000000018
 30
0.0
 11
1533.99679703558
 21
913.2380000000169
 31
0.0
  0
LINE
  5
3BA
330
1F
100
AcDbEntity
  8
図
  6
CONTINUOUS
 62
     6
100
AcDbLine
 10
1533.99679703558
 20
913.2380000000169
 30
0.0
 11
1534.710797035587
 21
913.2380000000169
 31
0.0
  0
LINE
  5
3BB
330
1F
100
AcDbEntity
  8
図
  6
CONTINUOUS
 62
     6
100
AcDbLine
 10
1535.985797035574
 20
911.9630000000168
 30
0.0
 11
1535.985797035574
 21
911.2490000000168
 31
0.0
  0
LINE
  5
3BC
330
1F
100
AcDbEntity
  8
図
  6
CONTINUOUS
 62
     6
100
AcDbLine
 10
1535.985797035574
 20
916.451000000018
 30
0.0
 11
1535.985797035574
 21
915.737000000018
 31
0.0
  0
LINE
  5
3BD
330
1F
100
AcDbEntity
  8
図
  6
EXLTYPE7
 62
     6
100
AcDbLine
 10
1501.597797035589
 20
907.730000000018
 30
0.0
 11
1501.597797035589
 21
919.9700000000183
 31
0.0
  0
CIRCLE
  5
3BE
330
1F
100
AcDbEntity
  8
図
  6
CONTINUOUS
 62
     6
100
AcDbCircle
 10
1501.597797035589
 20
913.850000000017
 30
0.0
 40
5.1
  0
ARC
  5
3BF
330
1F
100
AcDbEntity
  8
図
  6
CONTINUOUS
 62
     6
100
AcDbCircle
 10
1499.710797035587
 20
915.737000000018
 30
0.0
 40
1.274999999999999
100
AcDbArc
 50
270.0
 51
0.0
  0
ARC
  5
3C0
330
1F
100
AcDbEntity
  8
図
  6
CONTINUOUS
 62
     6
100
AcDbCircle
 10
1499.710797035587
 20
911.9630000000168
 30
0.0
 40
1.274999999999999
100
AcDbArc
 50
0.0
 51
90.00000000000001
  0
LINE
  5
3C1
330
1F
100
AcDbEntity
  8
図
  6
EXLTYPE7
 62
     6
100
AcDbLine
 10
1507.717797035585
 20
913.850000000017
 30
0.0
 11
1495.477797035579
 21
913.850000000017
 31
0.0
  0
LINE
  5
3C2
330
1F
100
AcDbEntity
  8
図
  6
CONTINUOUS
 62
     6
100
AcDbLine
 10
1504.198797035584
 20
914.462000000018
 30
0.0
 11
1504.198797035584
 21
913.2380000000169
 31
0.0
  0
ARC
  5
3C3
330
1F
100
AcDbEntity
  8
図
  6
CONTINUOUS
 62
     6
100
AcDbCircle
 10
1503.484797035585
 20
911.9630000000168
 30
0.0
 40
1.274999999999999
100
AcDbArc
 50
90.00000000000001
 51
180.0
  0
ARC
  5
3C4
330
1F
100
AcDbEntity
  8
図
  6
CONTINUOUS
 62
     6
100
AcDbCircle
 10
1503.484797035585
 20
915.737000000018
 30
0.0
 40
1.274999999999999
100
AcDbArc
 50
180.0
 51
270.0
  0
LINE
  5
3C5
330
1F
100
AcDbEntity
  8
図
  6
CONTINUOUS
 62
     6
100
AcDbLine
 10
1504.198797035584
 20
914.462000000018
 30
0.0
 11
1503.484797035585
 21
914.462000000018
 31
0.0
  0
LINE
  5
3C6
330
1F
100
AcDbEntity
  8
図
  6
CONTINUOUS
 62
     6
100
AcDbLine
 10
1503.484797035585
 20
913.2380000000169
 30
0.0
 11
1504.198797035584
 21
913.2380000000169
 31
0.0
  0
LINE
  5
3C7
330
1F
100
AcDbEntity
  8
図
  6
CONTINUOUS
 62
     6
100
AcDbLine
 10
1502.209797035583
 20
916.451000000018
 30
0.0
 11
1500.985797035588
 21
916.451000000018
 31
0.0
  0
LINE
  5
3C8
330
1F
100
AcDbEntity
  8
図
  6
CONTINUOUS
 62
     6
100
AcDbLine
 10
1500.985797035588
 20
911.2490000000168
 30
0.0
 11
1502.209797035583
 21
911.2490000000168
 31
0.0
  0
LINE
  5
3C9
330
1F
100
AcDbEntity
  8
図
  6
CONTINUOUS
 62
     6
100
AcDbLine
 10
1502.209797035583
 20
911.2490000000168
 30
0.0
 11
1502.209797035583
 21
911.9630000000168
 31
0.0
  0
LINE
  5
3CA
330
1F
100
AcDbEntity
  8
図
  6
CONTINUOUS
 62
     6
100
AcDbLine
 10
1502.209797035583
 20
915.737000000018
 30
0.0
 11
1502.209797035583
 21
916.451000000018
 31
0.0
  0
LINE
  5
3CB
330
1F
100
AcDbEntity
  8
図
  6
CONTINUOUS
 62
     6
100
AcDbLine
 10
1500.985797035588
 20
916.451000000018
 30
0.0
 11
1500.985797035588
 21
915.737000000018
 31
0.0
  0
LINE
  5
3CC
330
1F
100
AcDbEntity
  8
図
  6
CONTINUOUS
 62
     6
100
AcDbLine
 10
1500.985797035588
 20
911.9630000000168
 30
0.0
 11
1500.985797035588
 21
911.2490000000168
 31
0.0
  0
LINE
  5
3CD
330
1F
100
AcDbEntity
  8
図
  6
CONTINUOUS
 62
     6
100
AcDbLine
 10
1499.710797035587
 20
914.462000000018
 30
0.0
 11
1498.996797035587
 21
914.462000000018
 31
0.0
  0
LINE
  5
3CE
330
1F
100
AcDbEntity
  8
図
  6
CONTINUOUS
 62
     6
100
AcDbLine
 10
1498.996797035587
 20
914.462000000018
 30
0.0
 11
1498.996797035587
 21
913.2380000000169
 31
0.0
  0
LINE
  5
3CF
330
1F
100
AcDbEntity
  8
図
  6
CONTINUOUS
 62
     6
100
AcDbLine
 10
1498.996797035587
 20
913.2380000000169
 30
0.0
 11
1499.710797035587
 21
913.2380000000169
 31
0.0
  0
LINE
  5
3D0
330
1F
100
AcDbEntity
  8
図
  6
CONTINUOUS
 62
     7
100
AcDbLine
 10
554.99999999999
 20
616.0
 30
0.0
 11
554.99999999999
 21
1488.0
 31
0.0
  0
LINE
  5
3D1
330
1F
100
AcDbEntity
  8
図
  6
CONTINUOUS
 62
     7
100
AcDbLine
 10
555.00000000002
 20
1569.534008094997
 30
0.0
 11
555.00000000002
 21
2264.0
 31
0.0
  0
DIMENSION
  5
3D3
330
1F
100
AcDbEntity
  8
寸法
  6
CONTINUOUS
 62
     3
100
AcDbDimension
  2
*D15
 10
1255.00000000006
 20
1570.534008094997
 30
0.0
 11
905.0000000000401
 21
1594.034008035392
 31
0.0
 70
   160
  3
ISO-25
100
AcDbAlignedDimension
 13
555.00000000002
 23
1831.000000003994
 33
0.0
 14
1255.00000000006
 24
1831.000000003994
 34
0.0
100
AcDbRotatedDimension
1001
ACAD
1000
DSTYLE
1002
{
1070
   270
1070
     2
1070
     6
1000
EX_NORM
1070
     7
1000
EX_NORM
1070
    41
1040
30.0
1070
    42
1040
6.99999988079071
1070
    44
1040
24.53399896621704
1070
    73
1070
     0
1070
    74
1070
     0
1070
    75
1070
     0
1070
    76
1070
     0
1070
    77
1070
     1
1070
    78
1070
     8
1070
   140
1040
40.0
1070
   147
1040
0.0
1070
   173
1070
     1
1070
   176
1070
     3
1070
   177
1070
     3
1070
   178
1070
     2
1070
   271
1070
     1
1070
   277
1070
     2
1070
   279
1070
     2
1070
   280
1070
     0
1070
   287
1070
     5
1070
   340
1005
3D2
1002
}
  0
DIMENSION
  5
3E1
330
1F
100
AcDbEntity
  8
寸法
  6
CONTINUOUS
 62
     3
100
AcDbDimension
  2
*D16
 10
725.00000000002
 20
1667.534008094997
 30
0.0
 11
990.0000000000402
 21
1691.034008035392
 31
0.0
 70
   160
  3
ISO-25
100
AcDbAlignedDimension
 13
1255.00000000006
 23
1831.000000002001
 33
0.0
 14
725.00000000002
 24
1831.000000003994
 34
0.0
100
AcDbRotatedDimension
1001
ACAD
1000
DSTYLE
1002
{
1070
   270
1070
     2
1070
     6
1000
EX_NORM
1070
     7
1000
EX_NORM
1070
    41
1040
30.0
1070
    42
1040
6.99999988079071
1070
    44
1040
10.0
1070
    73
1070
     0
1070
    74
1070
     0
1070
    75
1070
     1
1070
    76
1070
     0
1070
    77
1070
     1
1070
    78
1070
     8
1070
   140
1040
40.0
1070
   147
1040
0.0
1070
   173
1070
     1
1070
   176
1070
     3
1070
   177
1070
     3
1070
   178
1070
     2
1070
   271
1070
     1
1070
   277
1070
     2
1070
   279
1070
     2
1070
   280
1070
     0
1070
   287
1070
     5
1070
   340
1005
3D2
1002
}
  0
DIMENSION
  5
3ED
330
1F
100
AcDbEntity
  8
寸法
  6
CONTINUOUS
 62
     3
100
AcDbDimension
  2
*D17
 10
495.0
 20
1761.0000000035
 30
0.0
 11
471.5000000596051
 21
1666.0000000035
 31
0.0
 70
   160
  1
（70）
  3
ISO-25
100
AcDbAlignedDimension
 13
549.35282212573
 23
1831.0000000035
 33
0.0
 14
544.99999999998
 24
1761.0000000035
 34
0.0
 50
90.0
100
AcDbRotatedDimension
1001
ACAD
1000
DSTYLE
1002
{
1070
   270
1070
     2
1070
     6
1000
EX_NORM
1070
     7
1000
EX_NORM
1070
    41
1040
30.0
1070
    42
1040
6.99999988079071
1070
    44
1040
10.0
1070
    73
1070
     0
1070
    74
1070
     0
1070
    75
1070
     0
1070
    76
1070
     0
1070
    77
1070
     1
1070
    78
1070
     8
1070
   140
1040
40.0
1070
   147
1040
0.0
1070
   173
1070
     1
1070
   176
1070
     3
1070
   177
1070
     3
1070
   178
1070
     2
1070
   271
1070
     1
1070
   277
1070
     2
1070
   279
1070
     2
1070
   280
1070
     2
1070
   287
1070
     5
1070
   340
1005
3D2
1002
}
  0
DIMENSION
  5
3FA
330
1F
100
AcDbEntity
  8
寸法
  6
CONTINUOUS
 62
     3
100
AcDbDimension
  2
*D18
 10
428.8813148848604
 20
1871.000000003994
 30
0.0
 11
405.3813149444651
 21
1831.000000003994
 31
0.0
 70
   160
  3
ISO-25
100
AcDbAlignedDimension
 13
539.6030089551596
 23
1791.000000003994
 33
0.0
 14
539.7964016952501
 24
1871.000000003994
 34
0.0
 50
90.0
100
AcDbRotatedDimension
1001
ACAD
1000
DSTYLE
1002
{
1070
   270
1070
     2
1070
     6
1000
EX_NORM
1070
     7
1000
EX_NORM
1070
    41
1040
30.0
1070
    42
1040
50.60299873352051
1070
    44
1040
10.0
1070
    73
1070
     0
1070
    74
1070
     0
1070
    75
1070
     0
1070
    76
1070
     0
1070
    77
1070
     1
1070
    78
1070
     8
1070
   140
1040
40.0
1070
   147
1040
0.0
1070
   173
1070
     1
1070
   176
1070
     3
1070
   177
1070
     3
1070
   178
1070
     2
1070
   271
1070
     1
1070
   277
1070
     2
1070
   279
1070
     2
1070
   280
1070
     0
1070
   287
1070
     5
1070
   340
1005
3D2
1002
}
  0
DIMENSION
  5
407
330
1F
100
AcDbEntity
  8
寸法
  6
CONTINUOUS
 62
     3
100
AcDbDimension
  2
*D19
 10
360.0
 20
1776.0000000289
 30
0.0
 11
336.5000000596048
 21
1831.0000000289
 31
0.0
 70
   160
  1
110
  3
ISO-25
100
AcDbAlignedDimension
 13
555.00000000002
 23
1886.0000000289
 33
0.0
 14
561.3000000000598
 24
1776.0000000289
 34
0.0
 50
90.0
100
AcDbRotatedDimension
1001
ACAD
1000
DSTYLE
1002
{
1070
   270
1070
     2
1070
     6
1000
EX_NORM
1070
     7
1000
EX_NORM
1070
    41
1040
30.0
1070
    42
1040
6.99999988079071
1070
    44
1040
10.0
1070
    73
1070
     0
1070
    74
1070
     0
1070
    75
1070
     0
1070
    76
1070
     0
1070
    77
1070
     1
1070
    78
1070
     8
1070
   140
1040
40.0
1070
   147
1040
0.0
1070
   173
1070
     1
1070
   176
1070
     3
1070
   177
1070
     3
1070
   178
1070
     2
1070
   271
1070
     1
1070
   277
1070
     2
1070
   279
1070
     2
1070
   280
1070
     0
1070
   287
1070
     5
1070
   340
1005
3D2
1002
}
  0
DIMENSION
  5
414
330
1F
100
AcDbEntity
  8
寸法
  6
CONTINUOUS
 62
     3
100
AcDbDimension
  2
*D20
 10
1353.48131488486
 20
1860.000000002001
 30
0.0
 11
1329.981314944465
 21
1831.000000002001
 31
0.0
 70
   160
  3
ISO-25
100
AcDbAlignedDimension
 13
1245.00000000002
 23
1802.000000002001
 33
0.0
 14
1245.00000000002
 24
1860.000000002001
 34
0.0
 50
90.0
100
AcDbRotatedDimension
1001
ACAD
1000
DSTYLE
1002
{
1070
   270
1070
     2
1070
     6
1000
EX_NORM
1070
     7
1000
EX_NORM
1070
    41
1040
30.0
1070
    42
1040
6.99999988079071
1070
    44
1040
10.0
1070
    73
1070
     0
1070
    74
1070
     0
1070
    75
1070
     0
1070
    76
1070
     0
1070
    77
1070
     1
1070
    78
1070
     8
1070
   140
1040
40.0
1070
   147
1040
0.0
1070
   173
1070
     1
1070
   176
1070
     3
1070
   177
1070
     3
1070
   178
1070
     2
1070
   271
1070
     1
1070
   277
1070
     2
1070
   279
1070
     2
1070
   280
1070
     0
1070
   287
1070
     5
1070
   340
1005
3D2
1002
}
  0
LEADER
  5
423
330
1F
100
AcDbEntity
  8
寸法
  6
CONTINUOUS
 62
     3
100
AcDbLeader
  3
ISO-25
 76
     2
 10
1034.941176470591
 20
1849.1700000024
 30
0.0
 10
1076.14899585015
 20
2049.322265560263
 30
0.0
1001
ACAD
1000
DSTYLE
1002
{
1070
     5
1000
EX_NORM
1070
    41
1040
30.0
1070
   341
1005
4E
1002
}
  0
CIRCLE
  5
424
330
1F
100
AcDbEntity
  8
寸法
  6
CONTINUOUS
 62
     3
100
AcDbCircle
 10
1080.94376851011
 20
2083.992283661501
 30
0.0
 40
35.0
  0
TEXT
  5
425
330
1F
100
AcDbEntity
  8
寸法
  6
CONTINUOUS
 62
     2
100
AcDbText
 10
1056.895030698068
 20
2059.243546326295
 30
0.0
 40
49.49747467041016
  1
２
 41
1.120000000000001
  7
EXCADSTD
 72
     5
 11
1096.493010434396
 21
2059.243546326295
 31
0.0
100
AcDbText
  0
LEADER
  5
426
330
1F
100
AcDbEntity
  8
寸法
  6
CONTINUOUS
 62
     3
100
AcDbLeader
  3
ISO-25
 76
     2
 10
683.0000000000005
 20
1844.1700000024
 30
0.0
 10
656.0760660549435
 20
2047.084526563925
 30
0.0
1001
ACAD
1000
DSTYLE
1002
{
1070
     5
1000
EX_NORM
1070
    41
1040
30.0
1070
   341
1005
4E
1002
}
  0
CIRCLE
  5
427
330
1F
100
AcDbEntity
  8
寸法
  6
CONTINUOUS
 62
     3
100
AcDbCircle
 10
647.6295582841201
 20
2081.0500459398
 30
0.0
 40
35.0
  0
TEXT
  5
428
330
1F
100
AcDbEntity
  8
寸法
  6
CONTINUOUS
 62
     2
100
AcDbText
 10
623.5808204720779
 20
2056.301308604595
 30
0.0
 40
49.49747467041016
  1
１
 41
1.120000000000001
  7
EXCADSTD
 72
     5
 11
663.1788002084061
 21
2056.301308604595
 31
0.0
100
AcDbText
  0
DIMENSION
  5
429
330
1F
100
AcDbEntity
  8
寸法
  6
CONTINUOUS
 62
     3
100
AcDbDimension
  2
*D21
 10
487.2097595590171
 20
683.19999999987
 30
0.0
 11
463.7097596186218
 21
745.69999999987
 31
0.0
 70
   160
  3
ISO-25
100
AcDbAlignedDimension
 13
555.0000000000186
 23
808.19999999987
 33
0.0
 14
555.0000000000186
 24
683.19999999987
 34
0.0
 50
90.0
100
AcDbRotatedDimension
1001
ACAD
1000
DSTYLE
1002
{
1070
   270
1070
     2
1070
     6
1000
EX_NORM
1070
     7
1000
EX_NORM
1070
    41
1040
30.0
1070
    42
1040
6.99999988079071
1070
    44
1040
10.0
1070
    73
1070
     0
1070
    74
1070
     0
1070
    75
1070
     0
1070
    76
1070
     0
1070
    77
1070
     1
1070
    78
1070
     8
1070
   140
1040
40.0
1070
   147
1040
0.0
1070
   173
1070
     1
1070
   176
1070
     3
1070
   177
1070
     3
1070
   178
1070
     2
1070
   271
1070
     1
1070
   277
1070
     2
1070
   279
1070
     2
1070
   280
1070
     0
1070
   287
1070
     5
1070
   340
1005
3D2
1002
}
  0
DIMENSION
  5
436
330
1F
100
AcDbEntity
  8
寸法
  6
CONTINUOUS
 62
     3
100
AcDbDimension
  2
*D22
 10
425.2097595590206
 20
642.9999999999698
 30
0.0
 11
401.7097596186253
 21
732.9999999999698
 31
0.0
 70
   160
  3
ISO-25
100
AcDbAlignedDimension
 13
555.0000000000186
 23
822.9999999999698
 33
0.0
 14
555.0000000000186
 24
642.9999999999698
 34
0.0
 50
90.0
100
AcDbRotatedDimension
1001
ACAD
1000
DSTYLE
1002
{
1070
   270
1070
     2
1070
     6
1000
EX_NORM
1070
     7
1000
EX_NORM
1070
    41
1040
30.0
1070
    42
1040
6.99999988079071
1070
    44
1040
10.0
1070
    73
1070
     0
1070
    74
1070
     0
1070
    75
1070
     0
1070
    76
1070
     0
1070
    77
1070
     1
1070
    78
1070
     8
1070
   140
1040
40.0
1070
   147
1040
0.0
1070
   173
1070
     1
1070
   176
1070
     3
1070
   177
1070
     3
1070
   178
1070
     2
1070
   271
1070
     1
1070
   277
1070
     2
1070
   279
1070
     2
1070
   280
1070
     0
1070
   287
1070
     5
1070
   340
1005
3D2
1002
}
  0
DIMENSION
  5
443
330
1F
100
AcDbEntity
  8
寸法
  6
CONTINUOUS
 62
     3
100
AcDbDimension
  2
*D23
 10
487.0
 20
896.3499999999999
 30
0.0
 11
463.500000059605
 21
986.3499999999997
 31
0.0
 70
   160
  3
ISO-25
100
AcDbAlignedDimension
 13
554.99999999999
 23
921.3499999999999
 33
0.0
 14
547.00000000002
 24
896.3499999999999
 34
0.0
 50
90.0
100
AcDbRotatedDimension
1001
ACAD
1000
DSTYLE
1002
{
1070
   270
1070
     2
1070
     6
1000
EX_NORM
1070
     7
1000
EX_NORM
1070
    41
1040
30.0
1070
    42
1040
6.99999988079071
1070
    44
1040
10.0
1070
    73
1070
     0
1070
    74
1070
     0
1070
    75
1070
     0
1070
    76
1070
     0
1070
    77
1070
     1
1070
    78
1070
     8
1070
   140
1040
40.0
1070
   147
1040
0.0
1070
   173
1070
     1
1070
   176
1070
     3
1070
   177
1070
     3
1070
   178
1070
     2
1070
   271
1070
     1
1070
   277
1070
     2
1070
   279
1070
     2
1070
   280
1070
     1
1070
   287
1070
     5
1070
   340
1005
3D2
1002
}
  0
DIMENSION
  5
452
330
1F
100
AcDbEntity
  8
寸法
  6
CONTINUOUS
 62
     3
100
AcDbDimension
  2
*D24
 10
714.0999909805648
 20
857.1063428751938
 30
0.0
 11
708.164431747651
 21
903.1144317462695
 31
0.0
 70
   165
  3
ISO-25
100
AcDb3PointAngularDimension
 13
733.1126857518616
 23
786.1499999999035
 33
0.0
 14
591.2000000012854
 24
928.0626857504863
 34
0.0
 15
591.2000000012818
 25
786.1499999999035
 35
0.0
1001
ACAD
1000
DSTYLE
1002
{
1070
   270
1070
     2
1070
     6
1000
EX_NORM
1070
     7
1000
EX_NORM
1070
    41
1040
30.0
1070
    42
1040
0.0
1070
    44
1040
0.0
1070
    73
1070
     0
1070
    74
1070
     0
1070
    75
1070
     1
1070
    76
1070
     1
1070
    77
1070
     1
1070
    78
1070
     8
1070
   140
1040
40.0
1070
   147
1040
0.0
1070
   173
1070
     1
1070
   176
1070
     3
1070
   177
1070
     3
1070
   178
1070
     2
1070
   271
1070
     1
1070
   277
1070
     2
1070
   279
1070
     2
1070
   280
1070
     0
1070
   287
1070
     5
1070
   340
1005
3D2
1002
}
  0
DIMENSION
  5
45E
330
1F
100
AcDbEntity
  8
寸法
  6
CONTINUOUS
 62
     3
100
AcDbDimension
  2
*D25
 10
1376.0
 20
642.9999999999696
 30
0.0
 11
1352.500000059605
 21
526.5749999999196
 31
0.0
 70
   160
  1
143.15
 53
89.99999999999962
  3
ISO-25
100
AcDbAlignedDimension
 13
1254.939791554018
 23
786.1499999998699
 33
0.0
 14
555.0000000000186
 24
642.9999999999698
 34
0.0
 50
90.0
100
AcDbRotatedDimension
1001
ACAD
1000
DSTYLE
1002
{
1070
   270
1070
     2
1070
     6
1000
EX_NORM
1070
     7
1000
EX_NORM
1070
    41
1040
30.0
1070
    42
1040
11.06019973754883
1070
    44
1040
10.0
1070
    73
1070
     0
1070
    74
1070
     0
1070
    75
1070
     0
1070
    76
1070
     0
1070
    77
1070
     1
1070
    78
1070
     8
1070
   140
1040
40.0
1070
   147
1040
0.0
1070
   173
1070
     1
1070
   176
1070
     3
1070
   177
1070
     3
1070
   178
1070
     2
1070
   271
1070
     1
1070
   277
1070
     2
1070
   279
1070
     2
1070
   280
1070
     0
1070
   287
1070
     5
1070
   340
1005
3D2
1002
}
  0
CIRCLE
  5
46B
330
1F
100
AcDbEntity
  8
寸法
  6
CONTINUOUS
 62
     3
100
AcDbCircle
 10
1341.0
 20
922.1700000024
 30
0.0
 40
35.0
  0
TEXT
  5
46C
330
1F
100
AcDbEntity
  8
寸法
  6
CONTINUOUS
 62
     2
100
AcDbText
 10
1316.951262187958
 20
897.4212626671949
 30
0.0
 40
49.49747467041016
  1
３
 41
1.120000000000001
  7
EXCADSTD
 72
     5
 11
1356.549241924286
 21
897.4212626671949
 31
0.0
100
AcDbText
  0
LEADER
  5
46D
330
1F
100
AcDbEntity
  8
寸法
  6
CONTINUOUS
 62
     3
100
AcDbLeader
  3
ISO-25
 76
     2
 10
1566.0
 20
738.1700000024
 30
0.0
 10
1368.09386980117
 20
900.0132353649983
 30
0.0
1001
ACAD
1000
DSTYLE
1002
{
1070
     5
1000
EX_NORM
1070
    41
1040
30.0
1070
   341
1005
4E
1002
}
  0
LEADER
  5
46E
330
1F
100
AcDbEntity
  8
寸法
  6
CONTINUOUS
 62
     3
100
AcDbLeader
  3
ISO-25
 76
     3
 10
1519.097797035495
 20
921.3499999999698
 30
0.0
 10
1411.997797035496
 20
1058.34999999997
 30
0.0
 10
1019.997797035496
 20
1058.34999999997
 30
0.0
1001
ACAD
1000
DSTYLE
1002
{
1070
     5
1000
EX_NORM
1070
    41
1040
30.0
1070
   341
1005
4E
1002
}
  0
DIMENSION
  5
46F
330
1F
100
AcDbEntity
  8
寸法
  6
CONTINUOUS
 62
     3
100
AcDbDimension
  2
*D26
 10
1750.100000000493
 20
759.1499999974898
 30
0.0
 11
1726.600000060098
 21
691.64999999869
 31
0.0
 70
   160
 53
90.00000000000001
  3
ISO-25
100
AcDbAlignedDimension
 13
1589.100000000493
 23
804.1499999998899
 33
0.0
 14
1589.100000000493
 24
759.1499999974898
 34
0.0
 50
90.0
100
AcDbRotatedDimension
1001
ACAD
1000
DSTYLE
1002
{
1070
   270
1070
     2
1070
     6
1000
EX_NORM
1070
     7
1000
EX_NORM
1070
    41
1040
30.0
1070
    42
1040
6.99999988079071
1070
    44
1040
10.0
1070
    73
1070
     0
1070
    74
1070
     0
1070
    75
1070
     0
1070
    76
1070
     0
1070
    77
1070
     1
1070
    78
1070
     8
1070
   140
1040
40.0
1070
   147
1040
0.0
1070
   173
1070
     1
1070
   176
1070
     3
1070
   177
1070
     3
1070
   178
1070
     2
1070
   271
1070
     1
1070
   277
1070
     2
1070
   279
1070
     2
1070
   280
1070
     0
1070
   287
1070
     5
1070
   340
1005
3D2
1002
}
  0
TEXT
  5
47E
330
1F
100
AcDbEntity
  8
寸法
  6
CONTINUOUS
 62
     2
100
AcDbText
 10
559.4503409660001
 20
2262.529763545901
 30
0.0
 40
40.0
  1
Ｗ.Ｌ
 50
270.0
 41
1.098837209302326
  7
EXCADSTD
 72
     5
 11
559.4503409660001
 21
2172.529763545901
 31
0.0
100
AcDbText
  0
TEXT
  5
47F
330
1F
100
AcDbEntity
  8
寸法
  6
CONTINUOUS
 62
     2
100
AcDbText
 10
1027.497797035496
 20
1058.94999999997
 30
0.0
 40
40.0
  1
ストッパー（オプション）
 41
0.9661971830985917
  7
EXCADSTD
 72
     5
 11
1419.497797035496
 21
1058.94999999997
 31
0.0
100
AcDbText
  0
ENDSEC
  0
SECTION
  2
OBJECTS
  0
DICTIONARY
  5
C
330
0
100
AcDbDictionary
  3
ACAD_GROUP
350
D
  3
ACAD_LAYOUT
350
1A
  3
ACAD_MATERIAL
350
3B
  3
ACAD_MLEADERSTYLE
350
4A2
  3
ACAD_MLINESTYLE
350
17
  3
ACAD_PLOTSETTINGS
350
19
  3
ACAD_VISUALSTYLE
350
2A
  3
ACDBHEADERROUNDTRIPXREC
350
480
  3
ACDBVARIABLEDICTIONARY
350
4A0
  0
DICTIONARY
  5
D
102
{ACAD_REACTORS
330
C
102
}
330
C
100
AcDbDictionary
  0
DICTIONARY
  5
1A
102
{ACAD_REACTORS
330
C
102
}
330
C
100
AcDbDictionary
  0
DICTIONARY
  5
3B
102
{ACAD_REACTORS
330
C
102
}
330
C
100
AcDbDictionary
  3
BYBLOCK
350
3D
  3
BYLAYER
350
3C
  3
GLOBAL
350
3E
  0
DICTIONARY
  5
4A2
102
{ACAD_REACTORS
330
C
102
}
330
C
100
AcDbDictionary
  0
DICTIONARY
  5
17
102
{ACAD_REACTORS
330
C
102
}
330
C
100
AcDbDictionary
  3
STANDARD
350
18
  0
DICTIONARY
  5
19
102
{ACAD_REACTORS
330
C
102
}
330
C
100
AcDbDictionary
  0
DICTIONARY
  5
2A
102
{ACAD_REACTORS
330
C
102
}
330
C
100
AcDbDictionary
  3
2DWIREFRAME
350
2F
  3
3D_HIDDEN
350
31
  3
3DWIREFRAME
350
30
  3
BASIC
350
32
  3
BRIGHTEN
350
36
  3
COLORCHANGE
350
3A
  3
CONCEPTUAL
350
34
  3
DIM
350
35
  3
FACEPATTERN
350
39
  3
FLAT
350
2B
  3
FLATWITHEDGES
350
2C
  3
GOURAUD
350
2D
  3
GOURAUDWITHEDGES
350
2E
  3
LINEPATTERN
350
38
  3
REALISTIC
350
33
  3
THICKEN
350
37
  0
DICTIONARY
  5
480
102
{ACAD_REACTORS
330
C
102
}
330
C
100
AcDbDictionary
  3
CEPSNTYPE
350
489
  3
DIMSTYLEDATA
350
49F
  3
FINGERPRINTGUID
350
48A
  3
HYPERLINKBASE
350
483
  3
INSUNITS
350
488
  3
LAYOUTDICT
350
485
  3
LWETCUNION
350
487
  3
PLOTSETDICT
350
486
  3
PSVPSCALE
350
48C
  3
PUCSBASE
350
48F
  3
PUCSORGBACK
350
495
  3
PUCSORGBOTTOM
350
491
  3
PUCSORGFRONT
350
494
  3
PUCSORGLEFT
350
492
  3
PUCSORGRIGHT
350
493
  3
PUCSORGTOP
350
490
  3
PUCSORTHOREF
350
48D
  3
PUCSORTHOVIEW
350
48E
  3
STYLESHEET
350
484
  3
TSTACKALIGN
350
481
  3
TSTACKSIZE
350
482
  3
UCSBASE
350
498
  3
UCSORGBACK
350
49E
  3
UCSORGBOTTOM
350
49A
  3
UCSORGFRONT
350
49D
  3
UCSORGLEFT
350
49B
  3
UCSORGRIGHT
350
49C
  3
UCSORGTOP
350
499
  3
UCSORTHOREF
350
496
  3
UCSORTHOVIEW
350
497
  3
VERSIONGUID
350
48B
  0
DICTIONARY
  5
4A0
102
{ACAD_REACTORS
330
C
102
}
330
C
100
AcDbDictionary
  3
DIMASSOC
350
4A5
  3
HIDETEXT
350
4A6
  3
PSOLHEIGHT
350
4A4
  3
PSOLWIDTH
350
4A3
  0
MATERIAL
  5
3D
102
{ACAD_REACTORS
330
3B
102
}
102
{ACAD_XDICTIONARY
360
4A9
102
}
330
3B
100
AcDbMaterial
  1
ByBlock
  0
MATERIAL
  5
3C
102
{ACAD_REACTORS
330
3B
102
}
102
{ACAD_XDICTIONARY
360
4A7
102
}
330
3B
100
AcDbMaterial
  1
ByLayer
  0
MATERIAL
  5
3E
102
{ACAD_REACTORS
330
3B
102
}
102
{ACAD_XDICTIONARY
360
4AB
102
}
330
3B
100
AcDbMaterial
  1
Global
  0
MLINESTYLE
  5
18
102
{ACAD_REACTORS
330
17
102
}
330
17
100
AcDbMlineStyle
  2
Standard
 70
     0
  3

 62
   256
 51
90.0
 52
90.0
 71
     2
 49
0.5
 62
   256
  6
BYLAYER
 49
-0.5
 62
   256
  6
BYLAYER
  0
ACAD_PROXY_OBJECT
  5
2F
102
{ACAD_REACTORS
330
2A
102
}
330
2A
100
AcDbProxyObject
 90
      499
 91
      501
 93
      436
310
42CC9915DA5C99599C985B595049028333333333333E3BF0000000000000FB0107901411070040501600405405064090741402480A0340
1001
ACAD
1000
AcDbSavedByObjectVersion
1070
     0
  0
ACAD_PROXY_OBJECT
  5
31
102
{ACAD_REACTORS
330
2A
102
}
330
2A
100
AcDbProxyObject
 90
      499
 91
      501
 93
      500
310
424CD108121A5919195B90640502408333333333333E3BF0000000000000FB01079024090700405020000000000001110200405405064090740C02480A0340
1001
ACAD
1000
AcDbSavedByObjectVersion
1070
     0
  0
ACAD_PROXY_OBJECT
  5
30
102
{ACAD_REACTORS
330
2A
102
}
330
2A
100
AcDbProxyObject
 90
      499
 91
      501
 93
      436
310
42CCD915DA5C99599C985B595059028333333333333E3BF0000000000000FB0107901411070040501600405405064090741402480A0340
1001
ACAD
1000
AcDbSavedByObjectVersion
1070
     0
  0
ACAD_PROXY_OBJECT
  5
32
102
{ACAD_REACTORS
330
2A
102
}
330
2A
100
AcDbProxyObject
 90
      499
 91
      501
 93
      388
310
4150985CDA58D07406404333333333333E3BF0000000000000FB0107A41107004050150841D405064090741402480A0350
1001
ACAD
1000
AcDbSavedByObjectVersion
1070
     0
  0
ACAD_PROXY_OBJECT
  5
36
102
{ACAD_REACTORS
330
2A
102
}
330
2A
100
AcDbProxyObject
 90
      499
 91
      501
 93
      428
310
42109C9A59DA1D195B90C409028333333333333E3BF0000000000000FB010790141107004050150841D405064090741402480A029950
1001
ACAD
1000
AcDbSavedByObjectVersion
1070
     0
  0
ACAD_PROXY_OBJECT
  5
3A
102
{ACAD_REACTORS
330
2A
102
}
330
2A
100
AcDbProxyObject
 90
      499
 91
      501
 93
      452
310
42D0DBDB1BDC90DA185B99D95104090240C333333333333E3BF0000000000000FB0108901411070040501508421405064090741402480A0350
1001
ACAD
1000
AcDbSavedByObjectVersion
1070
     0
  0
ACAD_PROXY_OBJECT
  5
34
102
{ACAD_REACTORS
330
2A
102
}
330
2A
100
AcDbProxyObject
 90
      499
 91
      501
 93
      500
310
4290DBDB98D95C1D1D585B10940D028333333333333E3BF0000000000000FB0107902409070040501000000000000111010841D405064090740C02480A0340
1001
ACAD
1000
AcDbSavedByObjectVersion
1070
     0
  0
ACAD_PROXY_OBJECT
  5
35
102
{ACAD_REACTORS
330
2A
102
}
330
2A
100
AcDbProxyObject
 90
      499
 91
      501
 93
      412
310
40D11A5B50B409028333333333333E3BF0000000000000FB010790141107004050150841D405064090741402480A02677FFFFFD0
1001
ACAD
1000
AcDbSavedByObjectVersion
1070
     0
  0
ACAD_PROXY_OBJECT
  5
39
102
{ACAD_REACTORS
330
2A
102
}
330
2A
100
AcDbProxyObject
 90
      499
 91
      501
 93
      444
310
42D19858D95C185D1D195C9B90F409028333333333333E3BF0000000000000FB010790141107004050150841D405064090741402480A0350
1001
ACAD
1000
AcDbSavedByObjectVersion
1070
     0
  0
ACAD_PROXY_OBJECT
  5
2B
102
{ACAD_REACTORS
330
2A
102
}
330
2A
100
AcDbProxyObject
 90
      499
 91
      501
 93
      388
310
41119B185D240901404333333333333E3BF0000000000000F9010740A41107004050150841D405064090741402480A1B50
1001
ACAD
1000
AcDbSavedByObjectVersion
1070
     0
  0
ACAD_PROXY_OBJECT
  5
2C
102
{ACAD_REACTORS
330
2A
102
}
330
2A
100
AcDbProxyObject
 90
      499
 91
      501
 93
      476
310
43519B185D15DA5D1A115919D95CD0140901404333333333333E3BF0000000000000F9010740901411070040501600405405064090741402480A1B50
1001
ACAD
1000
AcDbSavedByObjectVersion
1070
     0
  0
ACAD_PROXY_OBJECT
  5
2D
102
{ACAD_REACTORS
330
2A
102
}
330
2A
100
AcDbProxyObject
 90
      499
 91
      501
 93
      412
310
41D1DBDD5C985D5910240902404333333333333E3BF0000000000000F9010740A411070040501641D405064090741402480A1B50
1001
ACAD
1000
AcDbSavedByObjectVersion
1070
     0
  0
ACAD_PROXY_OBJECT
  5
2E
102
{ACAD_REACTORS
330
2A
102
}
330
2A
100
AcDbProxyObject
 90
      499
 91
      501
 93
      500
310
4411DBDD5C985D5915DA5D1A115919D95CD0340902404333333333333E3BF0000000000000F9010740901411070040501600405405064090741402480A1B50
1001
ACAD
1000
AcDbSavedByObjectVersion
1070
     0
  0
ACAD_PROXY_OBJECT
  5
38
102
{ACAD_REACTORS
330
2A
102
}
330
2A
100
AcDbProxyObject
 90
      499
 91
      501
 93
      444
310
42D31A5B995C185D1D195C9B90E409028333333333333E3BF0000000000000FB010790141107004050750841D405064090741402483A0350
1001
ACAD
1000
AcDbSavedByObjectVersion
1070
     0
  0
ACAD_PROXY_OBJECT
  5
33
102
{ACAD_REACTORS
330
2A
102
}
330
2A
100
AcDbProxyObject
 90
      499
 91
      501
 93
      420
310
425499585B1A5CDD1A58D08409028333333333333E3BF0000000000000FB01079019070040501508421405064090741402480A1B40
1001
ACAD
1000
AcDbSavedByObjectVersion
1070
     0
  0
ACAD_PROXY_OBJECT
  5
37
102
{ACAD_REACTORS
330
2A
102
}
330
2A
100
AcDbProxyObject
 90
      499
 91
      501
 93
      412
310
41D51A1A58DAD95B90D409028333333333333E3BF0000000000000FB010790141107004050150C41D405064090741402480A0350
1001
ACAD
1000
AcDbSavedByObjectVersion
1070
     0
  0
XRECORD
  5
489
102
{ACAD_REACTORS
330
480
102
}
330
480
100
AcDbXrecord
 90
        0
  0
XRECORD
  5
49F
102
{ACAD_REACTORS
330
480
102
}
330
480
100
AcDbXrecord
1000
DSTYLE
1002
{
1070
   340
340
11
1002
}
  0
XRECORD
  5
48A
102
{ACAD_REACTORS
330
480
102
}
330
480
100
AcDbXrecord
  1
{A62CAA1F-07A8-40B3-B983-D7DBD240563E}
  0
XRECORD
  5
483
102
{ACAD_REACTORS
330
480
102
}
330
480
100
AcDbXrecord
  1

  0
XRECORD
  5
488
102
{ACAD_REACTORS
330
480
102
}
330
480
100
AcDbXrecord
 90
        4
  0
XRECORD
  5
485
102
{ACAD_REACTORS
330
480
102
}
330
480
100
AcDbXrecord
340
1A
  0
XRECORD
  5
487
102
{ACAD_REACTORS
330
480
102
}
330
480
100
AcDbXrecord
 90
    10781
  0
XRECORD
  5
486
102
{ACAD_REACTORS
330
480
102
}
330
480
100
AcDbXrecord
340
19
  0
XRECORD
  5
48C
102
{ACAD_REACTORS
330
480
102
}
330
480
100
AcDbXrecord
 40
0.0
  0
XRECORD
  5
48F
102
{ACAD_REACTORS
330
480
102
}
330
480
100
AcDbXrecord
340
0
  0
XRECORD
  5
495
102
{ACAD_REACTORS
330
480
102
}
330
480
100
AcDbXrecord
 10
0.0
 20
0.0
 30
0.0
  0
XRECORD
  5
491
102
{ACAD_REACTORS
330
480
102
}
330
480
100
AcDbXrecord
 10
0.0
 20
0.0
 30
0.0
  0
XRECORD
  5
494
102
{ACAD_REACTORS
330
480
102
}
330
480
100
AcDbXrecord
 10
0.0
 20
0.0
 30
0.0
  0
XRECORD
  5
492
102
{ACAD_REACTORS
330
480
102
}
330
480
100
AcDbXrecord
 10
0.0
 20
0.0
 30
0.0
  0
XRECORD
  5
493
102
{ACAD_REACTORS
330
480
102
}
330
480
100
AcDbXrecord
 10
0.0
 20
0.0
 30
0.0
  0
XRECORD
  5
490
102
{ACAD_REACTORS
330
480
102
}
330
480
100
AcDbXrecord
 10
0.0
 20
0.0
 30
0.0
  0
XRECORD
  5
48D
102
{ACAD_REACTORS
330
480
102
}
330
480
100
AcDbXrecord
340
0
  0
XRECORD
  5
48E
102
{ACAD_REACTORS
330
480
102
}
330
480
100
AcDbXrecord
 70
     0
  0
XRECORD
  5
484
102
{ACAD_REACTORS
330
480
102
}
330
480
100
AcDbXrecord
  1

  0
XRECORD
  5
481
102
{ACAD_REACTORS
330
480
102
}
330
480
100
AcDbXrecord
 90
        1
  0
XRECORD
  5
482
102
{ACAD_REACTORS
330
480
102
}
330
480
100
AcDbXrecord
 90
       70
  0
XRECORD
  5
498
102
{ACAD_REACTORS
330
480
102
}
330
480
100
AcDbXrecord
340
0
  0
XRECORD
  5
49E
102
{ACAD_REACTORS
330
480
102
}
330
480
100
AcDbXrecord
 10
0.0
 20
0.0
 30
0.0
  0
XRECORD
  5
49A
102
{ACAD_REACTORS
330
480
102
}
330
480
100
AcDbXrecord
 10
0.0
 20
0.0
 30
0.0
  0
XRECORD
  5
49D
102
{ACAD_REACTORS
330
480
102
}
330
480
100
AcDbXrecord
 10
0.0
 20
0.0
 30
0.0
  0
XRECORD
  5
49B
102
{ACAD_REACTORS
330
480
102
}
330
480
100
AcDbXrecord
 10
0.0
 20
0.0
 30
0.0
  0
XRECORD
  5
49C
102
{ACAD_REACTORS
330
480
102
}
330
480
100
AcDbXrecord
 10
0.0
 20
0.0
 30
0.0
  0
XRECORD
  5
499
102
{ACAD_REACTORS
330
480
102
}
330
480
100
AcDbXrecord
 10
0.0
 20
0.0
 30
0.0
  0
XRECORD
  5
496
102
{ACAD_REACTORS
330
480
102
}
330
480
100
AcDbXrecord
340
0
  0
XRECORD
  5
497
102
{ACAD_REACTORS
330
480
102
}
330
480
100
AcDbXrecord
 70
     0
  0
XRECORD
  5
48B
102
{ACAD_REACTORS
330
480
102
}
330
480
100
AcDbXrecord
  1
{FAEB1C32-E019-11D5-929B-00C0DF256EC4}
  0
DICTIONARYVAR
  5
4A5
102
{ACAD_REACTORS
330
4A0
102
}
330
4A0
100
DictionaryVariables
280
     0
  1
2
  0
DICTIONARYVAR
  5
4A6
102
{ACAD_REACTORS
330
4A0
102
}
330
4A0
100
DictionaryVariables
280
     0
  1
1
  0
DICTIONARYVAR
  5
4A4
102
{ACAD_REACTORS
330
4A0
102
}
330
4A0
100
DictionaryVariables
280
     0
  1
80.000000
  0
DICTIONARYVAR
  5
4A3
102
{ACAD_REACTORS
330
4A0
102
}
330
4A0
100
DictionaryVariables
280
     0
  1
5.000000
  0
DICTIONARY
  5
4A9
330
3D
100
AcDbDictionary
280
     1
  3
ACAD_XREC_ROUNDTRIP
360
4AA
  0
DICTIONARY
  5
4A7
330
3C
100
AcDbDictionary
280
     1
  3
ACAD_XREC_ROUNDTRIP
360
4A8
  0
DICTIONARY
  5
4AB
330
3E
100
AcDbDictionary
280
     1
  3
ACAD_XREC_ROUNDTRIP
360
4AC
  0
XRECORD
  5
4AA
102
{ACAD_REACTORS
330
4A9
102
}
330
4A9
100
AcDbXrecord
102
MATERIAL
148
0.0
149
0.0
149
0.0
 93
        0
 94
      127
282
     0
 72
     1
 77
     1
171
     1
175
     1
179
     1
273
     0
  0
XRECORD
  5
4A8
102
{ACAD_REACTORS
330
4A7
102
}
330
4A7
100
AcDbXrecord
102
MATERIAL
148
0.0
149
0.0
149
0.0
 93
        0
 94
      127
282
     0
 72
     1
 77
     1
171
     1
175
     1
179
     1
273
     0
  0
XRECORD
  5
4AC
102
{ACAD_REACTORS
330
4AB
102
}
330
4AB
100
AcDbXrecord
102
MATERIAL
148
0.0
149
0.0
149
0.0
 93
        0
 94
      127
282
     0
 72
     1
 77
     1
171
     1
175
     1
179
     1
273
     0
  0
ENDSEC
  0
EOF
