  0
SECTION
  2
HEADER
  9
$ACADVER
  1
AC1014
  9
$ACADMAINTVER
 70
     9
  9
$DWGCODEPAGE
  3
ANSI_932
  9
$INSBASE
 10
0.0
 20
0.0
 30
0.0
  9
$EXTMIN
 10
19.99999999999995
 20
10.0
 30
0.0
  9
$EXTMAX
 10
198.3792592593
 20
286.0
 30
0.0
  9
$LIMMIN
 10
0.0
 20
0.0
  9
$LIMMAX
 10
210.0
 20
297.0
  9
$ORTHOMODE
 70
     0
  9
$REGENMODE
 70
     1
  9
$FILLMODE
 70
     1
  9
$QTEXTMODE
 70
     0
  9
$MIRRTEXT
 70
     1
  9
$DRAGMODE
 70
     2
  9
$LTSCALE
 40
1.0
  9
$OSMODE
 70
    37
  9
$ATTMODE
 70
     1
  9
$TEXTSIZE
 40
2.5
  9
$TRACEWID
 40
1.0
  9
$TEXTSTYLE
  7
STANDARD
  9
$CLAYER
  8
LAY-2
  9
$CELTYPE
  6
BYLAYER
  9
$CECOLOR
 62
   256
  9
$CELTSCALE
 40
1.0
  9
$DELOBJ
 70
     1
  9
$DISPSILH
 70
     0
  9
$DIMSCALE
 40
1.0
  9
$DIMASZ
 40
2.5
  9
$DIMEXO
 40
0.625
  9
$DIMDLI
 40
3.75
  9
$DIMRND
 40
0.0
  9
$DIMDLE
 40
0.0
  9
$DIMEXE
 40
1.25
  9
$DIMTP
 40
0.0
  9
$DIMTM
 40
0.0
  9
$DIMTXT
 40
2.5
  9
$DIMCEN
 40
2.5
  9
$DIMTSZ
 40
0.0
  9
$DIMTOL
 70
     0
  9
$DIMLIM
 70
     0
  9
$DIMTIH
 70
     0
  9
$DIMTOH
 70
     0
  9
$DIMSE1
 70
     0
  9
$DIMSE2
 70
     0
  9
$DIMTAD
 70
     1
  9
$DIMZIN
 70
     8
  9
$DIMBLK
  1

  9
$DIMASO
 70
     1
  9
$DIMSHO
 70
     1
  9
$DIMPOST
  1

  9
$DIMAPOST
  1

  9
$DIMALT
 70
     0
  9
$DIMALTD
 70
     3
  9
$DIMALTF
 40
0.03937007874016
  9
$DIMLFAC
 40
1.0
  9
$DIMTOFL
 70
     1
  9
$DIMTVP
 40
0.0
  9
$DIMTIX
 70
     0
  9
$DIMSOXD
 70
     0
  9
$DIMSAH
 70
     0
  9
$DIMBLK1
  1

  9
$DIMBLK2
  1

  9
$DIMSTYLE
  2
ISO-25
  9
$DIMCLRD
 70
     0
  9
$DIMCLRE
 70
     0
  9
$DIMCLRT
 70
     0
  9
$DIMTFAC
 40
1.0
  9
$DIMGAP
 40
0.625
  9
$DIMJUST
 70
     0
  9
$DIMSD1
 70
     0
  9
$DIMSD2
 70
     0
  9
$DIMTOLJ
 70
     0
  9
$DIMTZIN
 70
     8
  9
$DIMALTZ
 70
     0
  9
$DIMALTTZ
 70
     0
  9
$DIMFIT
 70
     3
  9
$DIMUPT
 70
     0
  9
$DIMUNIT
 70
     2
  9
$DIMDEC
 70
     2
  9
$DIMTDEC
 70
     2
  9
$DIMALTU
 70
     2
  9
$DIMALTTD
 70
     3
  9
$DIMTXSTY
  7
STANDARD
  9
$DIMAUNIT
 70
     0
  9
$LUNITS
 70
     2
  9
$LUPREC
 70
     4
  9
$SKETCHINC
 40
1.0
  9
$FILLETRAD
 40
10.0
  9
$AUNITS
 70
     0
  9
$AUPREC
 70
     0
  9
$MENU
  1
.
  9
$ELEVATION
 40
0.0
  9
$PELEVATION
 40
0.0
  9
$THICKNESS
 40
0.0
  9
$LIMCHECK
 70
     0
  9
$CHAMFERA
 40
10.0
  9
$CHAMFERB
 40
10.0
  9
$CHAMFERC
 40
20.0
  9
$CHAMFERD
 40
0.0
  9
$SKPOLY
 70
     0
  9
$TDCREATE
 40
2457530.379031667
  9
$TDUPDATE
 40
2457530.379032026
  9
$TDINDWG
 40
0.0000000116
  9
$TDUSRTIMER
 40
0.0000000116
  9
$USRTIMER
 70
     1
  9
$ANGBASE
 50
0.0
  9
$ANGDIR
 70
     0
  9
$PDMODE
 70
     0
  9
$PDSIZE
 40
0.0
  9
$PLINEWID
 40
0.0
  9
$COORDS
 70
     1
  9
$SPLFRAME
 70
     0
  9
$SPLINETYPE
 70
     6
  9
$SPLINESEGS
 70
     8
  9
$ATTDIA
 70
     0
  9
$ATTREQ
 70
     1
  9
$HANDLING
 70
     1
  9
$HANDSEED
  5
708
  9
$SURFTAB1
 70
     6
  9
$SURFTAB2
 70
     6
  9
$SURFTYPE
 70
     6
  9
$SURFU
 70
     6
  9
$SURFV
 70
     6
  9
$UCSNAME
  2

  9
$UCSORG
 10
0.0
 20
0.0
 30
0.0
  9
$UCSXDIR
 10
1.0
 20
0.0
 30
0.0
  9
$UCSYDIR
 10
0.0
 20
1.0
 30
0.0
  9
$PUCSNAME
  2

  9
$PUCSORG
 10
0.0
 20
0.0
 30
0.0
  9
$PUCSXDIR
 10
1.0
 20
0.0
 30
0.0
  9
$PUCSYDIR
 10
0.0
 20
1.0
 30
0.0
  9
$USERI1
 70
     0
  9
$USERI2
 70
     0
  9
$USERI3
 70
     0
  9
$USERI4
 70
     0
  9
$USERI5
 70
     0
  9
$USERR1
 40
0.0
  9
$USERR2
 40
0.0
  9
$USERR3
 40
0.0
  9
$USERR4
 40
0.0
  9
$USERR5
 40
0.0
  9
$WORLDVIEW
 70
     1
  9
$SHADEDGE
 70
     3
  9
$SHADEDIF
 70
    70
  9
$TILEMODE
 70
     1
  9
$MAXACTVP
 70
    64
  9
$PINSBASE
 10
0.0
 20
0.0
 30
0.0
  9
$PLIMCHECK
 70
     0
  9
$PEXTMIN
 10
1.000000000000000E+20
 20
1.000000000000000E+20
 30
1.000000000000000E+20
  9
$PEXTMAX
 10
-1.000000000000000E+20
 20
-1.000000000000000E+20
 30
-1.000000000000000E+20
  9
$PLIMMIN
 10
0.0
 20
0.0
  9
$PLIMMAX
 10
420.0
 20
297.0
  9
$UNITMODE
 70
     0
  9
$VISRETAIN
 70
     1
  9
$PLINEGEN
 70
     0
  9
$PSLTSCALE
 70
     1
  9
$TREEDEPTH
 70
  3020
  9
$PICKSTYLE
 70
     1
  9
$CMLSTYLE
  2
STANDARD
  9
$CMLJUST
 70
     0
  9
$CMLSCALE
 40
20.0
  9
$PROXYGRAPHICS
 70
     1
  9
$MEASUREMENT
 70
     1
  0
ENDSEC
  0
SECTION
  2
CLASSES
  0
CLASS
  1
ACDBDICTIONARYWDFLT
  2
AcDbDictionaryWithDefault
  3
ObjectDBX Classes
 90
        0
280
     0
281
     0
  0
CLASS
  1
VISUALSTYLE
  2
AcDbVisualStyle
  3
ObjectDBX Classes
 90
     4095
280
     0
281
     0
  0
CLASS
  1
MATERIAL
  2
AcDbMaterial
  3
ObjectDBX Classes
 90
     1153
280
     0
281
     0
  0
CLASS
  1
SUN
  2
AcDbSun
  3
SCENEOE
 90
     1024
280
     0
281
     0
  0
CLASS
  1
DICTIONARYVAR
  2
AcDbDictionaryVar
  3
ObjectDBX Classes
 90
        0
280
     0
281
     0
  0
CLASS
  1
XRECORD
  2
AcDbXrecord
  3
AutoCAD 2000
 90
        0
280
     0
281
     0
  0
CLASS
  1
LWPOLYLINE
  2
AcDbPolyline
  3
AutoCAD 2000
 90
        0
280
     0
281
     1
  0
CLASS
  1
HATCH
  2
AcDbHatch
  3
AutoCAD 2000
 90
        0
280
     0
281
     1
  0
CLASS
  1
ACDBPLACEHOLDER
  2
AcDbPlaceHolder
  3
ObjectDBX Classes
 90
        0
280
     0
281
     0
  0
CLASS
  1
LAYOUT
  2
AcDbLayout
  3
ObjectDBX Classes
 90
        0
280
     0
281
     0
  0
ENDSEC
  0
SECTION
  2
TABLES
  0
TABLE
  2
VPORT
  5
8
330
0
100
AcDbSymbolTable
 70
     1
  0
VPORT
  5
29
330
8
100
AcDbSymbolTableRecord
100
AcDbViewportTableRecord
  2
*ACTIVE
 70
     0
 10
0.0
 20
0.0
 11
1.0
 21
1.0
 12
1091.8962962965
 22
1480.0
 13
0.0
 23
0.0
 14
10.0
 24
10.0
 15
10.0
 25
10.0
 16
0.0
 26
0.0
 36
1.0
 17
0.0
 27
0.0
 37
0.0
 40
2760.0
 41
0.6463016639829712
 42
50.0
 43
0.0
 44
0.0
 50
0.0
 51
0.0
 71
     0
 72
  1000
 73
     1
 74
     3
 75
     0
 76
     0
 77
     0
 78
     0
  0
ENDTAB
  0
TABLE
  2
LTYPE
  5
5
330
0
100
AcDbSymbolTable
 70
    11
  0
LTYPE
  5
14
330
5
100
AcDbSymbolTableRecord
100
AcDbLinetypeTableRecord
  2
BYBLOCK
 70
     0
  3

 72
    65
 73
     0
 40
0.0
  0
LTYPE
  5
15
330
5
100
AcDbSymbolTableRecord
100
AcDbLinetypeTableRecord
  2
BYLAYER
 70
     0
  3

 72
    65
 73
     0
 40
0.0
  0
LTYPE
  5
16
330
5
100
AcDbSymbolTableRecord
100
AcDbLinetypeTableRecord
  2
CONTINUOUS
 70
     0
  3
Solid line
 72
    65
 73
     0
 40
0.0
  0
LTYPE
  5
40
330
5
100
AcDbSymbolTableRecord
100
AcDbLinetypeTableRecord
  2
EXLTYPE1
 70
     0
  3
破線
 72
    65
 73
     2
 40
3.0
 49
2.0
 74
     0
 49
-1.0
 74
     0
  0
LTYPE
  5
41
330
5
100
AcDbSymbolTableRecord
100
AcDbLinetypeTableRecord
  2
EXLTYPE2
 70
     0
  3
点線
 72
    65
 73
     2
 40
2.0
 49
1.0
 74
     0
 49
-1.0
 74
     0
  0
LTYPE
  5
42
330
5
100
AcDbSymbolTableRecord
100
AcDbLinetypeTableRecord
  2
EXLTYPE3
 70
     0
  3
一点鎖線
 72
    65
 73
     4
 40
10.0
 49
7.0
 74
     0
 49
-1.0
 74
     0
 49
1.0
 74
     0
 49
-1.0
 74
     0
  0
LTYPE
  5
43
330
5
100
AcDbSymbolTableRecord
100
AcDbLinetypeTableRecord
  2
EXLTYPE4
 70
     0
  3
二点鎖線
 72
    65
 73
     6
 40
12.0
 49
7.0
 74
     0
 49
-1.0
 74
     0
 49
1.0
 74
     0
 49
-1.0
 74
     0
 49
1.0
 74
     0
 49
-1.0
 74
     0
  0
LTYPE
  5
44
330
5
100
AcDbSymbolTableRecord
100
AcDbLinetypeTableRecord
  2
EXLTYPE5
 70
     0
  3
三点鎖線
 72
    65
 73
     8
 40
37.0
 49
30.0
 74
     0
 49
-1.0
 74
     0
 49
1.0
 74
     0
 49
-1.0
 74
     0
 49
1.0
 74
     0
 49
-1.0
 74
     0
 49
1.0
 74
     0
 49
-1.0
 74
     0
  0
LTYPE
  5
45
330
5
100
AcDbSymbolTableRecord
100
AcDbLinetypeTableRecord
  2
EXLTYPE6
 70
     0
  3
四点鎖線
 72
    65
 73
    10
 40
39.0
 49
30.0
 74
     0
 49
-1.0
 74
     0
 49
1.0
 74
     0
 49
-1.0
 74
     0
 49
1.0
 74
     0
 49
-1.0
 74
     0
 49
1.0
 74
     0
 49
-1.0
 74
     0
 49
1.0
 74
     0
 49
-1.0
 74
     0
  0
LTYPE
  5
46
330
5
100
AcDbSymbolTableRecord
100
AcDbLinetypeTableRecord
  2
EXLTYPE7
 70
     0
  3
二点鎖線3
 72
    65
 73
     6
 40
31.74999999999999
 49
15.875
 74
     0
 49
-3.174999999999999
 74
     0
 49
3.174999999999999
 74
     0
 49
-3.174999999999999
 74
     0
 49
3.174999999999999
 74
     0
 49
-3.174999999999999
 74
     0
  0
LTYPE
  5
47
330
5
100
AcDbSymbolTableRecord
100
AcDbLinetypeTableRecord
  2
EXLTYPE8
 70
     0
  3
破線4
 72
    65
 73
     2
 40
2.5
 49
1.5
 74
     0
 49
-1.0
 74
     0
  0
LTYPE
  5
48
330
5
100
AcDbSymbolTableRecord
100
AcDbLinetypeTableRecord
  2
EXLTYPE9
 70
     0
  3
一点鎖線2
 72
    65
 73
     4
 40
13.0
 49
10.0
 74
     0
 49
-1.0
 74
     0
 49
1.0
 74
     0
 49
-1.0
 74
     0
  0
LTYPE
  5
49
330
5
100
AcDbSymbolTableRecord
100
AcDbLinetypeTableRecord
  2
EXLTYPE10
 70
     0
  3
一点鎖線3
 72
    65
 73
     4
 40
10.0
 49
7.0
 74
     0
 49
-1.0
 74
     0
 49
1.0
 74
     0
 49
-1.0
 74
     0
  0
ENDTAB
  0
TABLE
  2
LAYER
  5
2
330
0
100
AcDbSymbolTable
 70
     4
  0
LAYER
  5
10
330
2
100
AcDbSymbolTableRecord
100
AcDbLayerTableRecord
  2
0
 70
     0
 62
     7
  6
CONTINUOUS
  0
LAYER
  5
4C
330
2
100
AcDbSymbolTableRecord
100
AcDbLayerTableRecord
  2
LAY-1
 70
     0
 62
     7
  6
CONTINUOUS
  0
LAYER
  5
4D
330
2
100
AcDbSymbolTableRecord
100
AcDbLayerTableRecord
  2
LAY-2
 70
     0
 62
     7
  6
CONTINUOUS
  0
LAYER
  5
3CE
330
2
100
AcDbSymbolTableRecord
100
AcDbLayerTableRecord
  2
DEFPOINTS
 70
     0
 62
     7
  6
CONTINUOUS
  0
ENDTAB
  0
TABLE
  2
STYLE
  5
3
330
0
100
AcDbSymbolTable
 70
     4
  0
STYLE
  5
11
330
3
100
AcDbSymbolTableRecord
100
AcDbTextStyleTableRecord
  2
STANDARD
 70
     0
 40
0.0
 41
1.0
 50
0.0
 71
     0
 42
2.5
  3
monotxt
  4
extfont
  0
STYLE
  5
4A
330
3
100
AcDbSymbolTableRecord
100
AcDbTextStyleTableRecord
  2
EXCADSTD
 70
     0
 40
0.0
 41
1.0
 50
0.0
 71
     0
 42
0.2
  3
monotxt
  4
extfont
  0
STYLE
  5
4B
330
3
100
AcDbSymbolTableRecord
100
AcDbTextStyleTableRecord
  2
EXCADVERT
 70
     4
 40
0.0
 41
1.0
 50
0.0
 71
     0
 42
0.286885
  3
monotxt
  4
extfont
  0
STYLE
  5
3CC
330
3
100
AcDbSymbolTableRecord
100
AcDbTextStyleTableRecord
  2
EXCADDIM1
 70
     0
 40
0.0
 41
0.84
 50
0.0
 71
     0
 42
0.2
  3
monotxt
  4
extfont
  0
ENDTAB
  0
TABLE
  2
VIEW
  5
6
330
0
100
AcDbSymbolTable
 70
     0
  0
ENDTAB
  0
TABLE
  2
UCS
  5
7
330
0
100
AcDbSymbolTable
 70
     0
  0
ENDTAB
  0
TABLE
  2
APPID
  5
9
330
0
100
AcDbSymbolTable
 70
     1
  0
APPID
  5
12
330
9
100
AcDbSymbolTableRecord
100
AcDbRegAppTableRecord
  2
ACAD
 70
     0
  0
ENDTAB
  0
TABLE
  2
DIMSTYLE
  5
A
330
0
100
AcDbSymbolTable
 70
     1
  0
DIMSTYLE
105
27
102
{ACAD_REACTORS
330
3CD
330
3DB
330
3E8
330
3F5
330
404
330
411
330
41E
330
42A
330
437
330
445
330
45A
330
467
102
}
330
A
100
AcDbSymbolTableRecord
100
AcDbDimStyleTableRecord
  2
ISO-25
 70
     0
  3

  4

  5

  6

  7

 40
1.0
 41
2.5
 42
0.625
 43
3.75
 44
1.25
 45
0.0
 46
0.0
 47
0.0
 48
0.0
140
2.5
141
2.5
142
0.0
143
0.03937007874016
144
1.0
145
0.0
146
1.0
147
0.625
 71
     0
 72
     0
 73
     0
 74
     0
 75
     0
 76
     0
 77
     1
 78
     8
170
     0
171
     3
172
     1
173
     0
174
     0
175
     0
176
     0
177
     0
178
     0
270
     2
271
     2
272
     2
273
     2
274
     3
340
11
275
     0
280
     0
281
     0
282
     0
283
     0
284
     8
285
     0
286
     0
287
     5
288
     0
  0
ENDTAB
  0
TABLE
  2
BLOCK_RECORD
  5
1
330
0
100
AcDbSymbolTable
 70
    27
  0
BLOCK_RECORD
  5
1F
330
1
100
AcDbSymbolTableRecord
100
AcDbBlockTableRecord
  2
*MODEL_SPACE
  0
BLOCK_RECORD
  5
1B
330
1
100
AcDbSymbolTableRecord
100
AcDbBlockTableRecord
  2
*PAPER_SPACE
  0
BLOCK_RECORD
  5
4E
330
1
100
AcDbSymbolTableRecord
100
AcDbBlockTableRecord
  2
EX_NORM
  0
BLOCK_RECORD
  5
51
330
1
100
AcDbSymbolTableRecord
100
AcDbBlockTableRecord
  2
EX_BNORM
  0
BLOCK_RECORD
  5
54
330
1
100
AcDbSymbolTableRecord
100
AcDbBlockTableRecord
  2
EX_BCIR
  0
BLOCK_RECORD
  5
57
330
1
100
AcDbSymbolTableRecord
100
AcDbBlockTableRecord
  2
EX_RCIVIL
  0
BLOCK_RECORD
  5
5A
330
1
100
AcDbSymbolTableRecord
100
AcDbBlockTableRecord
  2
EX_SLANT
  0
BLOCK_RECORD
  5
5D
330
1
100
AcDbSymbolTableRecord
100
AcDbBlockTableRecord
  2
EX_NONE
  0
BLOCK_RECORD
  5
60
330
1
100
AcDbSymbolTableRecord
100
AcDbBlockTableRecord
  2
EX_CIVIL
  0
BLOCK_RECORD
  5
63
330
1
100
AcDbSymbolTableRecord
100
AcDbBlockTableRecord
  2
EX_WCIR
  0
BLOCK_RECORD
  5
66
330
1
100
AcDbSymbolTableRecord
100
AcDbBlockTableRecord
  2
EX_WCIR2
  0
BLOCK_RECORD
  5
69
330
1
100
AcDbSymbolTableRecord
100
AcDbBlockTableRecord
  2
EX_WNORM
  0
BLOCK_RECORD
  5
6C
330
1
100
AcDbSymbolTableRecord
100
AcDbBlockTableRecord
  2
EX_NNORM
  0
BLOCK_RECORD
  5
6F
330
1
100
AcDbSymbolTableRecord
100
AcDbBlockTableRecord
  2
EX_BBOX
  0
BLOCK_RECORD
  5
72
330
1
100
AcDbSymbolTableRecord
100
AcDbBlockTableRecord
  2
EX_WBOX
  0
BLOCK_RECORD
  5
75
330
1
100
AcDbSymbolTableRecord
100
AcDbBlockTableRecord
  2
EX_INTEGRAL
  0
BLOCK_RECORD
  5
3CF
330
1
100
AcDbSymbolTableRecord
100
AcDbBlockTableRecord
  2
*D15
  0
BLOCK_RECORD
  5
3DC
330
1
100
AcDbSymbolTableRecord
100
AcDbBlockTableRecord
  2
*D16
  0
BLOCK_RECORD
  5
3E9
330
1
100
AcDbSymbolTableRecord
100
AcDbBlockTableRecord
  2
*D17
  0
BLOCK_RECORD
  5
3F6
330
1
100
AcDbSymbolTableRecord
100
AcDbBlockTableRecord
  2
*D18
  0
BLOCK_RECORD
  5
405
330
1
100
AcDbSymbolTableRecord
100
AcDbBlockTableRecord
  2
*D19
  0
BLOCK_RECORD
  5
412
330
1
100
AcDbSymbolTableRecord
100
AcDbBlockTableRecord
  2
*D20
  0
BLOCK_RECORD
  5
41F
330
1
100
AcDbSymbolTableRecord
100
AcDbBlockTableRecord
  2
*D21
  0
BLOCK_RECORD
  5
42B
330
1
100
AcDbSymbolTableRecord
100
AcDbBlockTableRecord
  2
*D22
  0
BLOCK_RECORD
  5
438
330
1
100
AcDbSymbolTableRecord
100
AcDbBlockTableRecord
  2
*D23
  0
BLOCK_RECORD
  5
446
330
1
100
AcDbSymbolTableRecord
100
AcDbBlockTableRecord
  2
*D24
  0
BLOCK_RECORD
  5
45B
330
1
100
AcDbSymbolTableRecord
100
AcDbBlockTableRecord
  2
*D25
  0
BLOCK_RECORD
  5
468
330
1
100
AcDbSymbolTableRecord
100
AcDbBlockTableRecord
  2
*D26
  0
ENDTAB
  0
ENDSEC
  0
SECTION
  2
BLOCKS
  0
BLOCK
  5
20
330
1F
100
AcDbEntity
  8
0
100
AcDbBlockBegin
  2
*MODEL_SPACE
 70
     0
 10
0.0
 20
0.0
 30
0.0
  3
*MODEL_SPACE
  1

  0
ENDBLK
  5
21
330
1F
100
AcDbEntity
  8
0
100
AcDbBlockEnd
  0
BLOCK
  5
1C
330
1B
100
AcDbEntity
 67
     1
  8
0
100
AcDbBlockBegin
  2
*PAPER_SPACE
 70
     0
 10
0.0
 20
0.0
 30
0.0
  3
*PAPER_SPACE
  1

  0
ENDBLK
  5
1D
330
1B
100
AcDbEntity
 67
     1
  8
0
100
AcDbBlockEnd
  0
BLOCK
  5
4F
330
4E
100
AcDbEntity
  8
0
100
AcDbBlockBegin
  2
EX_NORM
 70
     0
 10
0.0
 20
0.0
 30
0.0
  3
EX_NORM
  1

  0
LINE
  5
78
330
4E
100
AcDbEntity
  8
0
  6
CONTINUOUS
 62
     0
100
AcDbLine
 10
0.0
 20
0.0
 30
0.0
 11
-1.0
 21
0.0
 31
0.0
  0
LINE
  5
79
330
4E
100
AcDbEntity
  8
0
  6
CONTINUOUS
 62
     0
100
AcDbLine
 10
0.0
 20
0.0
 30
0.0
 11
-1.0
 21
0.166666667
 31
0.0
  0
LINE
  5
7A
330
4E
100
AcDbEntity
  8
0
  6
CONTINUOUS
 62
     0
100
AcDbLine
 10
0.0
 20
0.0
 30
0.0
 11
-1.0
 21
-0.166666667
 31
0.0
  0
ENDBLK
  5
50
330
4E
100
AcDbEntity
  8
0
100
AcDbBlockEnd
  0
BLOCK
  5
52
330
51
100
AcDbEntity
  8
0
100
AcDbBlockBegin
  2
EX_BNORM
 70
     0
 10
0.0
 20
0.0
 30
0.0
  3
EX_BNORM
  1

  0
LINE
  5
7B
330
51
100
AcDbEntity
  8
0
  6
CONTINUOUS
 62
     0
100
AcDbLine
 10
0.0
 20
0.0
 30
0.0
 11
-1.0
 21
0.0
 31
0.0
  0
LINE
  5
7C
330
51
100
AcDbEntity
  8
0
  6
CONTINUOUS
 62
     0
100
AcDbLine
 10
0.0
 20
0.0
 30
0.0
 11
-1.0
 21
0.166666667
 31
0.0
  0
LINE
  5
7D
330
51
100
AcDbEntity
  8
0
  6
CONTINUOUS
 62
     0
100
AcDbLine
 10
0.0
 20
0.0
 30
0.0
 11
-1.0
 21
-0.166666667
 31
0.0
  0
LINE
  5
7E
330
51
100
AcDbEntity
  8
0
  6
CONTINUOUS
 62
     0
100
AcDbLine
 10
0.0
 20
0.0
 30
0.0
 11
-1.0
 21
0.083333333
 31
0.0
  0
LINE
  5
7F
330
51
100
AcDbEntity
  8
0
  6
CONTINUOUS
 62
     0
100
AcDbLine
 10
0.0
 20
0.0
 30
0.0
 11
-1.0
 21
-0.083333333
 31
0.0
  0
LINE
  5
80
330
51
100
AcDbEntity
  8
0
  6
CONTINUOUS
 62
     0
100
AcDbLine
 10
-1.0
 20
0.166666667
 30
0.0
 11
-1.0
 21
-0.166666667
 31
0.0
  0
ENDBLK
  5
53
330
51
100
AcDbEntity
  8
0
100
AcDbBlockEnd
  0
BLOCK
  5
55
330
54
100
AcDbEntity
  8
0
100
AcDbBlockBegin
  2
EX_BCIR
 70
     0
 10
0.0
 20
0.0
 30
0.0
  3
EX_BCIR
  1

  0
LINE
  5
81
330
54
100
AcDbEntity
  8
0
  6
CONTINUOUS
 62
     0
100
AcDbLine
 10
0.0
 20
0.0
 30
0.0
 11
-1.0
 21
0.0
 31
0.0
  0
CIRCLE
  5
82
330
54
100
AcDbEntity
  8
0
  6
CONTINUOUS
 62
     0
100
AcDbCircle
 10
0.0
 20
0.0
 30
0.0
 40
0.5
  0
CIRCLE
  5
83
330
54
100
AcDbEntity
  8
0
  6
CONTINUOUS
 62
     0
100
AcDbCircle
 10
0.0
 20
0.0
 30
0.0
 40
0.25
  0
ENDBLK
  5
56
330
54
100
AcDbEntity
  8
0
100
AcDbBlockEnd
  0
BLOCK
  5
58
330
57
100
AcDbEntity
  8
0
100
AcDbBlockBegin
  2
EX_RCIVIL
 70
     0
 10
0.0
 20
0.0
 30
0.0
  3
EX_RCIVIL
  1

  0
LINE
  5
84
330
57
100
AcDbEntity
  8
0
  6
CONTINUOUS
 62
     0
100
AcDbLine
 10
0.0
 20
0.0
 30
0.0
 11
-1.0
 21
0.0
 31
0.0
  0
LINE
  5
85
330
57
100
AcDbEntity
  8
0
  6
CONTINUOUS
 62
     0
100
AcDbLine
 10
-1.0
 20
-0.25
 30
0.0
 11
0.0
 21
-0.25
 31
0.0
  0
LINE
  5
86
330
57
100
AcDbEntity
  8
0
  6
CONTINUOUS
 62
     0
100
AcDbLine
 10
-1.0
 20
-0.125
 30
0.0
 11
0.0
 21
-0.125
 31
0.0
  0
ENDBLK
  5
59
330
57
100
AcDbEntity
  8
0
100
AcDbBlockEnd
  0
BLOCK
  5
5B
330
5A
100
AcDbEntity
  8
0
100
AcDbBlockBegin
  2
EX_SLANT
 70
     0
 10
0.0
 20
0.0
 30
0.0
  3
EX_SLANT
  1

  0
LINE
  5
87
330
5A
100
AcDbEntity
  8
0
  6
CONTINUOUS
 62
     0
100
AcDbLine
 10
0.0
 20
0.0
 30
0.0
 11
-1.0
 21
0.0
 31
0.0
  0
LINE
  5
88
330
5A
100
AcDbEntity
  8
0
  6
CONTINUOUS
 62
     0
100
AcDbLine
 10
0.707106781
 20
0.707106781
 30
0.0
 11
-0.707106781
 21
-0.707106781
 31
0.0
  0
ENDBLK
  5
5C
330
5A
100
AcDbEntity
  8
0
100
AcDbBlockEnd
  0
BLOCK
  5
5E
330
5D
100
AcDbEntity
  8
0
100
AcDbBlockBegin
  2
EX_NONE
 70
     0
 10
0.0
 20
0.0
 30
0.0
  3
EX_NONE
  1

  0
LINE
  5
89
330
5D
100
AcDbEntity
  8
0
  6
CONTINUOUS
 62
     0
100
AcDbLine
 10
0.0
 20
0.0
 30
0.0
 11
-1.0
 21
0.0
 31
0.0
  0
ENDBLK
  5
5F
330
5D
100
AcDbEntity
  8
0
100
AcDbBlockEnd
  0
BLOCK
  5
61
330
60
100
AcDbEntity
  8
0
100
AcDbBlockBegin
  2
EX_CIVIL
 70
     0
 10
0.0
 20
0.0
 30
0.0
  3
EX_CIVIL
  1

  0
LINE
  5
8A
330
60
100
AcDbEntity
  8
0
  6
CONTINUOUS
 62
     0
100
AcDbLine
 10
0.0
 20
0.0
 30
0.0
 11
-1.0
 21
0.0
 31
0.0
  0
LINE
  5
8B
330
60
100
AcDbEntity
  8
0
  6
CONTINUOUS
 62
     0
100
AcDbLine
 10
-1.0
 20
0.25
 30
0.0
 11
0.0
 21
0.25
 31
0.0
  0
LINE
  5
8C
330
60
100
AcDbEntity
  8
0
  6
CONTINUOUS
 62
     0
100
AcDbLine
 10
-1.0
 20
0.125
 30
0.0
 11
0.0
 21
0.125
 31
0.0
  0
ENDBLK
  5
62
330
60
100
AcDbEntity
  8
0
100
AcDbBlockEnd
  0
BLOCK
  5
64
330
63
100
AcDbEntity
  8
0
100
AcDbBlockBegin
  2
EX_WCIR
 70
     0
 10
0.0
 20
0.0
 30
0.0
  3
EX_WCIR
  1

  0
LINE
  5
8D
330
63
100
AcDbEntity
  8
0
  6
CONTINUOUS
 62
     0
100
AcDbLine
 10
0.0
 20
0.0
 30
0.0
 11
-1.0
 21
0.0
 31
0.0
  0
CIRCLE
  5
8E
330
63
100
AcDbEntity
  8
0
  6
CONTINUOUS
 62
     0
100
AcDbCircle
 10
0.0
 20
0.0
 30
0.0
 40
0.5
  0
ENDBLK
  5
65
330
63
100
AcDbEntity
  8
0
100
AcDbBlockEnd
  0
BLOCK
  5
67
330
66
100
AcDbEntity
  8
0
100
AcDbBlockBegin
  2
EX_WCIR2
 70
     0
 10
0.0
 20
0.0
 30
0.0
  3
EX_WCIR2
  1

  0
LINE
  5
8F
330
66
100
AcDbEntity
  8
0
  6
CONTINUOUS
 62
     0
100
AcDbLine
 10
-0.5
 20
0.0
 30
0.0
 11
-1.0
 21
0.0
 31
0.0
  0
CIRCLE
  5
90
330
66
100
AcDbEntity
  8
0
  6
CONTINUOUS
 62
     0
100
AcDbCircle
 10
0.0
 20
0.0
 30
0.0
 40
0.5
  0
ENDBLK
  5
68
330
66
100
AcDbEntity
  8
0
100
AcDbBlockEnd
  0
BLOCK
  5
6A
330
69
100
AcDbEntity
  8
0
100
AcDbBlockBegin
  2
EX_WNORM
 70
     0
 10
0.0
 20
0.0
 30
0.0
  3
EX_WNORM
  1

  0
LINE
  5
91
330
69
100
AcDbEntity
  8
0
  6
CONTINUOUS
 62
     0
100
AcDbLine
 10
-1.0
 20
0.0
 30
0.0
 11
-1.0
 21
0.0
 31
0.0
  0
LINE
  5
92
330
69
100
AcDbEntity
  8
0
  6
CONTINUOUS
 62
     0
100
AcDbLine
 10
0.0
 20
0.0
 30
0.0
 11
-1.0
 21
0.166666667
 31
0.0
  0
LINE
  5
93
330
69
100
AcDbEntity
  8
0
  6
CONTINUOUS
 62
     0
100
AcDbLine
 10
0.0
 20
0.0
 30
0.0
 11
-1.0
 21
-0.166666667
 31
0.0
  0
LINE
  5
94
330
69
100
AcDbEntity
  8
0
  6
CONTINUOUS
 62
     0
100
AcDbLine
 10
-1.0
 20
0.166666667
 30
0.0
 11
-1.0
 21
-0.166666667
 31
0.0
  0
ENDBLK
  5
6B
330
69
100
AcDbEntity
  8
0
100
AcDbBlockEnd
  0
BLOCK
  5
6D
330
6C
100
AcDbEntity
  8
0
100
AcDbBlockBegin
  2
EX_NNORM
 70
     0
 10
0.0
 20
0.0
 30
0.0
  3
EX_NNORM
  1

  0
LINE
  5
95
330
6C
100
AcDbEntity
  8
0
  6
CONTINUOUS
 62
     0
100
AcDbLine
 10
0.0
 20
0.0
 30
0.0
 11
-1.0
 21
0.0
 31
0.0
  0
LINE
  5
96
330
6C
100
AcDbEntity
  8
0
  6
CONTINUOUS
 62
     0
100
AcDbLine
 10
0.0
 20
0.0
 30
0.0
 11
-1.0
 21
0.166666667
 31
0.0
  0
LINE
  5
97
330
6C
100
AcDbEntity
  8
0
  6
CONTINUOUS
 62
     0
100
AcDbLine
 10
0.0
 20
0.0
 30
0.0
 11
-1.0
 21
-0.166666667
 31
0.0
  0
LINE
  5
98
330
6C
100
AcDbEntity
  8
0
  6
CONTINUOUS
 62
     0
100
AcDbLine
 10
-1.0
 20
0.166666667
 30
0.0
 11
-1.0
 21
-0.166666667
 31
0.0
  0
ENDBLK
  5
6E
330
6C
100
AcDbEntity
  8
0
100
AcDbBlockEnd
  0
BLOCK
  5
70
330
6F
100
AcDbEntity
  8
0
100
AcDbBlockBegin
  2
EX_BBOX
 70
     0
 10
0.0
 20
0.0
 30
0.0
  3
EX_BBOX
  1

  0
LINE
  5
99
330
6F
100
AcDbEntity
  8
0
  6
CONTINUOUS
 62
     0
100
AcDbLine
 10
0.0
 20
0.0
 30
0.0
 11
-1.0
 21
0.0
 31
0.0
  0
LINE
  5
9A
330
6F
100
AcDbEntity
  8
0
  6
CONTINUOUS
 62
     0
100
AcDbLine
 10
-0.5
 20
0.5
 30
0.0
 11
0.5
 21
0.5
 31
0.0
  0
LINE
  5
9B
330
6F
100
AcDbEntity
  8
0
  6
CONTINUOUS
 62
     0
100
AcDbLine
 10
0.5
 20
0.5
 30
0.0
 11
0.5
 21
-0.5
 31
0.0
  0
LINE
  5
9C
330
6F
100
AcDbEntity
  8
0
  6
CONTINUOUS
 62
     0
100
AcDbLine
 10
0.5
 20
-0.5
 30
0.0
 11
-0.5
 21
-0.5
 31
0.0
  0
LINE
  5
9D
330
6F
100
AcDbEntity
  8
0
  6
CONTINUOUS
 62
     0
100
AcDbLine
 10
-0.5
 20
-0.5
 30
0.0
 11
-0.5
 21
0.5
 31
0.0
  0
LINE
  5
9E
330
6F
100
AcDbEntity
  8
0
  6
CONTINUOUS
 62
     0
100
AcDbLine
 10
-0.25
 20
0.25
 30
0.0
 11
0.25
 21
0.25
 31
0.0
  0
LINE
  5
9F
330
6F
100
AcDbEntity
  8
0
  6
CONTINUOUS
 62
     0
100
AcDbLine
 10
0.25
 20
0.25
 30
0.0
 11
0.25
 21
-0.25
 31
0.0
  0
LINE
  5
A0
330
6F
100
AcDbEntity
  8
0
  6
CONTINUOUS
 62
     0
100
AcDbLine
 10
0.25
 20
-0.25
 30
0.0
 11
-0.25
 21
-0.25
 31
0.0
  0
LINE
  5
A1
330
6F
100
AcDbEntity
  8
0
  6
CONTINUOUS
 62
     0
100
AcDbLine
 10
-0.25
 20
-0.25
 30
0.0
 11
-0.25
 21
0.25
 31
0.0
  0
ENDBLK
  5
71
330
6F
100
AcDbEntity
  8
0
100
AcDbBlockEnd
  0
BLOCK
  5
73
330
72
100
AcDbEntity
  8
0
100
AcDbBlockBegin
  2
EX_WBOX
 70
     0
 10
0.0
 20
0.0
 30
0.0
  3
EX_WBOX
  1

  0
LINE
  5
A2
330
72
100
AcDbEntity
  8
0
  6
CONTINUOUS
 62
     0
100
AcDbLine
 10
-0.5
 20
0.0
 30
0.0
 11
-1.0
 21
0.0
 31
0.0
  0
LINE
  5
A3
330
72
100
AcDbEntity
  8
0
  6
CONTINUOUS
 62
     0
100
AcDbLine
 10
-0.5
 20
0.5
 30
0.0
 11
0.5
 21
0.5
 31
0.0
  0
LINE
  5
A4
330
72
100
AcDbEntity
  8
0
  6
CONTINUOUS
 62
     0
100
AcDbLine
 10
0.5
 20
0.5
 30
0.0
 11
0.5
 21
-0.5
 31
0.0
  0
LINE
  5
A5
330
72
100
AcDbEntity
  8
0
  6
CONTINUOUS
 62
     0
100
AcDbLine
 10
0.5
 20
-0.5
 30
0.0
 11
-0.5
 21
-0.5
 31
0.0
  0
LINE
  5
A6
330
72
100
AcDbEntity
  8
0
  6
CONTINUOUS
 62
     0
100
AcDbLine
 10
-0.5
 20
-0.5
 30
0.0
 11
-0.5
 21
0.5
 31
0.0
  0
ENDBLK
  5
74
330
72
100
AcDbEntity
  8
0
100
AcDbBlockEnd
  0
BLOCK
  5
76
330
75
100
AcDbEntity
  8
0
100
AcDbBlockBegin
  2
EX_INTEGRAL
 70
     0
 10
0.0
 20
0.0
 30
0.0
  3
EX_INTEGRAL
  1

  0
LINE
  5
A7
330
75
100
AcDbEntity
  8
0
  6
CONTINUOUS
 62
     0
100
AcDbLine
 10
0.0
 20
0.0
 30
0.0
 11
-1.0
 21
0.0
 31
0.0
  0
ARC
  5
A8
330
75
100
AcDbEntity
  8
0
  6
CONTINUOUS
 62
     0
100
AcDbCircle
 10
0.542115
 20
0.164992
 30
0.0
 40
0.56667
100
AcDbArc
 50
73.07249033629006
 51
196.9275130221199
  0
ARC
  5
A9
330
75
100
AcDbEntity
  8
0
  6
CONTINUOUS
 62
     0
100
AcDbCircle
 10
-0.542115
 20
-0.164992
 30
0.0
 40
0.56667
100
AcDbArc
 50
253.0724869220464
 51
16.9275130559125
  0
ENDBLK
  5
77
330
75
100
AcDbEntity
  8
0
100
AcDbBlockEnd
  0
BLOCK
  5
3D0
330
3CF
100
AcDbEntity
  8
0
100
AcDbBlockBegin
  2
*D15
 70
     1
 10
0.0
 20
0.0
 30
0.0
  3
*D15
  1

  0
LINE
  5
3D2
330
3CF
100
AcDbEntity
  8
LAY-2
  6
CONTINUOUS
 62
     3
100
AcDbLine
 10
475.0000006848959
 20
1748.000000003994
 30
0.0
 11
404.8813148848603
 21
1748.000000003994
 31
0.0
  0
LINE
  5
3D3
330
3CF
100
AcDbEntity
  8
LAY-2
  6
CONTINUOUS
 62
     3
100
AcDbLine
 10
475.1933934249864
 20
1828.000000003994
 30
0.0
 11
404.8813148848603
 21
1828.000000003994
 31
0.0
  0
LINE
  5
3D4
330
3CF
100
AcDbEntity
  8
LAY-2
  6
CONTINUOUS
 62
     3
100
AcDbLine
 10
414.8813148848603
 20
1778.000000003994
 30
0.0
 11
414.8813148848603
 21
1798.000000003994
 31
0.0
  0
INSERT
  5
3D5
330
3CF
100
AcDbEntity
  8
LAY-2
 62
     3
100
AcDbBlockReference
  2
EX_NORM
 10
414.8813148848603
 20
1748.000000003994
 30
0.0
 41
30.0
 42
30.0
 43
30.0
 50
270.0
  0
INSERT
  5
3D6
330
3CF
100
AcDbEntity
  8
LAY-2
 62
     3
100
AcDbBlockReference
  2
EX_NORM
 10
414.8813148848603
 20
1828.000000003994
 30
0.0
 41
30.0
 42
30.0
 43
30.0
 50
90.0
  0
MTEXT
  5
3D7
330
3CF
100
AcDbEntity
  8
LAY-2
 62
     2
100
AcDbMText
 10
391.3813149444651
 20
1788.000000003995
 30
0.0
 40
40.0
 41
0.0
 71
     5
 72
     1
  1
80
  7
EXCADDIM1
 11
0.0
 21
1.0
 31
0.0
  0
POINT
  5
3D8
330
3CF
100
AcDbEntity
  8
DEFPOINTS
 62
     0
100
AcDbPoint
 10
525.6030089551596
 20
1748.000000003994
 30
0.0
  0
POINT
  5
3D9
330
3CF
100
AcDbEntity
  8
DEFPOINTS
 62
     0
100
AcDbPoint
 10
525.7964016952501
 20
1828.000000003994
 30
0.0
  0
POINT
  5
3DA
330
3CF
100
AcDbEntity
  8
DEFPOINTS
 62
     0
100
AcDbPoint
 10
414.8813148848603
 20
1828.000000003994
 30
0.0
  0
ENDBLK
  5
3D1
330
3CF
100
AcDbEntity
  8
0
100
AcDbBlockEnd
  0
BLOCK
  5
3DD
330
3DC
100
AcDbEntity
  8
0
100
AcDbBlockBegin
  2
*D16
 70
     1
 10
0.0
 20
0.0
 30
0.0
  3
*D16
  1

  0
LINE
  5
3DF
330
3DC
100
AcDbEntity
  8
LAY-2
  6
CONTINUOUS
 62
     3
100
AcDbLine
 10
541.00000000002
 20
1781.000000123204
 30
0.0
 11
541.00000000002
 21
1502.999999592036
 31
0.0
  0
LINE
  5
3E0
330
3DC
100
AcDbEntity
  8
LAY-2
  6
CONTINUOUS
 62
     3
100
AcDbLine
 10
1241.00000000006
 20
1781.000000123204
 30
0.0
 11
1241.00000000006
 21
1502.999999592036
 31
0.0
  0
LINE
  5
3E1
330
3DC
100
AcDbEntity
  8
LAY-2
  6
CONTINUOUS
 62
     3
100
AcDbLine
 10
571.00000000002
 20
1527.534008094997
 30
0.0
 11
1211.00000000006
 21
1527.534008094997
 31
0.0
  0
INSERT
  5
3E2
330
3DC
100
AcDbEntity
  8
LAY-2
 62
     3
100
AcDbBlockReference
  2
EX_NORM
 10
541.00000000002
 20
1527.534008094997
 30
0.0
 41
30.0
 42
30.0
 43
30.0
 50
180.0
  0
INSERT
  5
3E3
330
3DC
100
AcDbEntity
  8
LAY-2
 62
     3
100
AcDbBlockReference
  2
EX_NORM
 10
1241.00000000006
 20
1527.534008094997
 30
0.0
 41
30.0
 42
30.0
 43
30.0
  0
MTEXT
  5
3E4
330
3DC
100
AcDbEntity
  8
LAY-2
 62
     2
100
AcDbMText
 10
891.0000000000401
 20
1551.034008035392
 30
0.0
 40
40.0
 41
0.0
 71
     5
 72
     1
  1
700
  7
EXCADDIM1
  0
POINT
  5
3E5
330
3DC
100
AcDbEntity
  8
DEFPOINTS
 62
     0
100
AcDbPoint
 10
541.00000000002
 20
1788.000000003994
 30
0.0
  0
POINT
  5
3E6
330
3DC
100
AcDbEntity
  8
DEFPOINTS
 62
     0
100
AcDbPoint
 10
1241.00000000006
 20
1788.000000003994
 30
0.0
  0
POINT
  5
3E7
330
3DC
100
AcDbEntity
  8
DEFPOINTS
 62
     0
100
AcDbPoint
 10
1241.00000000006
 20
1527.534008094997
 30
0.0
  0
ENDBLK
  5
3DE
330
3DC
100
AcDbEntity
  8
0
100
AcDbBlockEnd
  0
BLOCK
  5
3EA
330
3E9
100
AcDbEntity
  8
0
100
AcDbBlockBegin
  2
*D17
 70
     1
 10
0.0
 20
0.0
 30
0.0
  3
*D17
  1

  0
LINE
  5
3EC
330
3E9
100
AcDbEntity
  8
LAY-2
  6
CONTINUOUS
 62
     3
100
AcDbLine
 10
1241.00000000006
 20
1781.00000012121
 30
0.0
 11
1241.00000000006
 21
1614.534008094997
 31
0.0
  0
LINE
  5
3ED
330
3E9
100
AcDbEntity
  8
LAY-2
  6
CONTINUOUS
 62
     3
100
AcDbLine
 10
711.00000000002
 20
1781.000000123204
 30
0.0
 11
711.00000000002
 21
1614.534008094997
 31
0.0
  0
LINE
  5
3EE
330
3E9
100
AcDbEntity
  8
LAY-2
  6
CONTINUOUS
 62
     3
100
AcDbLine
 10
1211.00000000006
 20
1624.534008094997
 30
0.0
 11
741.00000000002
 21
1624.534008094997
 31
0.0
  0
INSERT
  5
3EF
330
3E9
100
AcDbEntity
  8
LAY-2
 62
     3
100
AcDbBlockReference
  2
EX_NORM
 10
1241.00000000006
 20
1624.534008094997
 30
0.0
 41
30.0
 42
30.0
 43
30.0
  0
INSERT
  5
3F0
330
3E9
100
AcDbEntity
  8
LAY-2
 62
     3
100
AcDbBlockReference
  2
EX_NORM
 10
711.00000000002
 20
1624.534008094997
 30
0.0
 41
30.0
 42
30.0
 43
30.0
 50
180.0
  0
MTEXT
  5
3F1
330
3E9
100
AcDbEntity
  8
LAY-2
 62
     2
100
AcDbMText
 10
976.00000000004
 20
1648.034008035392
 30
0.0
 40
40.0
 41
0.0
 71
     5
 72
     1
  1
530
  7
EXCADDIM1
  0
POINT
  5
3F2
330
3E9
100
AcDbEntity
  8
DEFPOINTS
 62
     0
100
AcDbPoint
 10
1241.00000000006
 20
1788.000000002001
 30
0.0
  0
POINT
  5
3F3
330
3E9
100
AcDbEntity
  8
DEFPOINTS
 62
     0
100
AcDbPoint
 10
711.00000000002
 20
1788.000000003994
 30
0.0
  0
POINT
  5
3F4
330
3E9
100
AcDbEntity
  8
DEFPOINTS
 62
     0
100
AcDbPoint
 10
711.00000000002
 20
1624.534008094997
 30
0.0
  0
ENDBLK
  5
3EB
330
3E9
100
AcDbEntity
  8
0
100
AcDbBlockEnd
  0
BLOCK
  5
3F7
330
3F6
100
AcDbEntity
  8
0
100
AcDbBlockBegin
  2
*D18
 70
     1
 10
0.0
 20
0.0
 30
0.0
  3
*D18
  1

  0
LINE
  5
3F9
330
3F6
100
AcDbEntity
  8
LAY-2
  6
CONTINUOUS
 62
     3
100
AcDbLine
 10
1237.999999880811
 20
1759.000000002001
 30
0.0
 11
1349.48131488486
 21
1759.000000002001
 31
0.0
  0
LINE
  5
3FA
330
3F6
100
AcDbEntity
  8
LAY-2
  6
CONTINUOUS
 62
     3
100
AcDbLine
 10
1237.999999880811
 20
1817.000000002001
 30
0.0
 11
1349.48131488486
 21
1817.000000002001
 31
0.0
  0
LINE
  5
3FB
330
3F6
100
AcDbEntity
  8
LAY-2
  6
CONTINUOUS
 62
     3
100
AcDbLine
 10
1339.48131488486
 20
1759.000000002001
 30
0.0
 11
1339.48131488486
 21
1817.000000002001
 31
0.0
  0
LINE
  5
3FC
330
3F6
100
AcDbEntity
  8
LAY-2
  6
CONTINUOUS
 62
     3
100
AcDbLine
 10
1339.48131488486
 20
1729.000000002001
 30
0.0
 11
1339.48131488486
 21
1699.000000002001
 31
0.0
  0
LINE
  5
3FD
330
3F6
100
AcDbEntity
  8
LAY-2
  6
CONTINUOUS
 62
     3
100
AcDbLine
 10
1339.48131488486
 20
1847.000000002001
 30
0.0
 11
1339.48131488486
 21
1877.000000002001
 31
0.0
  0
INSERT
  5
3FE
330
3F6
100
AcDbEntity
  8
LAY-2
 62
     3
100
AcDbBlockReference
  2
EX_NORM
 10
1339.48131488486
 20
1759.000000002001
 30
0.0
 41
30.0
 42
30.0
 43
30.0
 50
90.0
  0
INSERT
  5
3FF
330
3F6
100
AcDbEntity
  8
LAY-2
 62
     3
100
AcDbBlockReference
  2
EX_NORM
 10
1339.48131488486
 20
1817.000000002001
 30
0.0
 41
30.0
 42
30.0
 43
30.0
 50
270.0
  0
MTEXT
  5
400
330
3F6
100
AcDbEntity
  8
LAY-2
 62
     2
100
AcDbMText
 10
1315.981314944465
 20
1788.000000002001
 30
0.0
 40
40.0
 41
0.0
 71
     5
 72
     1
  1
58
  7
EXCADDIM1
 11
0.0
 21
1.0
 31
0.0
  0
POINT
  5
401
330
3F6
100
AcDbEntity
  8
DEFPOINTS
 62
     0
100
AcDbPoint
 10
1231.00000000002
 20
1759.000000002001
 30
0.0
  0
POINT
  5
402
330
3F6
100
AcDbEntity
  8
DEFPOINTS
 62
     0
100
AcDbPoint
 10
1231.00000000002
 20
1817.000000002001
 30
0.0
  0
POINT
  5
403
330
3F6
100
AcDbEntity
  8
DEFPOINTS
 62
     0
100
AcDbPoint
 10
1339.48131488486
 20
1817.000000002001
 30
0.0
  0
ENDBLK
  5
3F8
330
3F6
100
AcDbEntity
  8
0
100
AcDbBlockEnd
  0
BLOCK
  5
406
330
405
100
AcDbEntity
  8
0
100
AcDbBlockBegin
  2
*D19
 70
     1
 10
0.0
 20
0.0
 30
0.0
  3
*D19
  1

  0
LINE
  5
408
330
405
100
AcDbEntity
  8
LAY-2
  6
CONTINUOUS
 62
     3
100
AcDbLine
 10
534.0000001192279
 20
765.19999999987
 30
0.0
 11
463.2097595590171
 21
765.19999999987
 31
0.0
  0
LINE
  5
409
330
405
100
AcDbEntity
  8
LAY-2
  6
CONTINUOUS
 62
     3
100
AcDbLine
 10
534.0000001192279
 20
640.19999999987
 30
0.0
 11
463.2097595590171
 21
640.19999999987
 31
0.0
  0
LINE
  5
40A
330
405
100
AcDbEntity
  8
LAY-2
  6
CONTINUOUS
 62
     3
100
AcDbLine
 10
473.2097595590171
 20
735.19999999987
 30
0.0
 11
473.2097595590171
 21
670.19999999987
 31
0.0
  0
INSERT
  5
40B
330
405
100
AcDbEntity
  8
LAY-2
 62
     3
100
AcDbBlockReference
  2
EX_NORM
 10
473.2097595590171
 20
765.19999999987
 30
0.0
 41
30.0
 42
30.0
 43
30.0
 50
90.0
  0
INSERT
  5
40C
330
405
100
AcDbEntity
  8
LAY-2
 62
     3
100
AcDbBlockReference
  2
EX_NORM
 10
473.2097595590171
 20
640.19999999987
 30
0.0
 41
30.0
 42
30.0
 43
30.0
 50
270.0
  0
MTEXT
  5
40D
330
405
100
AcDbEntity
  8
LAY-2
 62
     2
100
AcDbMText
 10
449.7097596186218
 20
702.69999999987
 30
0.0
 40
40.0
 41
0.0
 71
     5
 72
     1
  1
125
  7
EXCADDIM1
 11
0.0
 21
1.0
 31
0.0
  0
POINT
  5
40E
330
405
100
AcDbEntity
  8
DEFPOINTS
 62
     0
100
AcDbPoint
 10
541.0000000000186
 20
765.19999999987
 30
0.0
  0
POINT
  5
40F
330
405
100
AcDbEntity
  8
DEFPOINTS
 62
     0
100
AcDbPoint
 10
541.0000000000186
 20
640.19999999987
 30
0.0
  0
POINT
  5
410
330
405
100
AcDbEntity
  8
DEFPOINTS
 62
     0
100
AcDbPoint
 10
473.2097595590171
 20
640.19999999987
 30
0.0
  0
ENDBLK
  5
407
330
405
100
AcDbEntity
  8
0
100
AcDbBlockEnd
  0
BLOCK
  5
413
330
412
100
AcDbEntity
  8
0
100
AcDbBlockBegin
  2
*D20
 70
     1
 10
0.0
 20
0.0
 30
0.0
  3
*D20
  1

  0
LINE
  5
415
330
412
100
AcDbEntity
  8
LAY-2
  6
CONTINUOUS
 62
     3
100
AcDbLine
 10
534.0000001192279
 20
779.9999999999698
 30
0.0
 11
401.2097595590205
 21
779.9999999999698
 31
0.0
  0
LINE
  5
416
330
412
100
AcDbEntity
  8
LAY-2
  6
CONTINUOUS
 62
     3
100
AcDbLine
 10
534.0000001192279
 20
599.9999999999698
 30
0.0
 11
401.2097595590205
 21
599.9999999999698
 31
0.0
  0
LINE
  5
417
330
412
100
AcDbEntity
  8
LAY-2
  6
CONTINUOUS
 62
     3
100
AcDbLine
 10
411.2097595590205
 20
749.9999999999698
 30
0.0
 11
411.2097595590205
 21
629.9999999999698
 31
0.0
  0
INSERT
  5
418
330
412
100
AcDbEntity
  8
LAY-2
 62
     3
100
AcDbBlockReference
  2
EX_NORM
 10
411.2097595590205
 20
779.9999999999698
 30
0.0
 41
30.0
 42
30.0
 43
30.0
 50
90.0
  0
INSERT
  5
419
330
412
100
AcDbEntity
  8
LAY-2
 62
     3
100
AcDbBlockReference
  2
EX_NORM
 10
411.2097595590205
 20
599.9999999999698
 30
0.0
 41
30.0
 42
30.0
 43
30.0
 50
270.0
  0
MTEXT
  5
41A
330
412
100
AcDbEntity
  8
LAY-2
 62
     2
100
AcDbMText
 10
387.7097596186252
 20
689.9999999999699
 30
0.0
 40
40.0
 41
0.0
 71
     5
 72
     1
  1
180
  7
EXCADDIM1
 11
0.0
 21
1.0
 31
0.0
  0
POINT
  5
41B
330
412
100
AcDbEntity
  8
DEFPOINTS
 62
     0
100
AcDbPoint
 10
541.0000000000186
 20
779.9999999999698
 30
0.0
  0
POINT
  5
41C
330
412
100
AcDbEntity
  8
DEFPOINTS
 62
     0
100
AcDbPoint
 10
541.0000000000186
 20
599.9999999999698
 30
0.0
  0
POINT
  5
41D
330
412
100
AcDbEntity
  8
DEFPOINTS
 62
     0
100
AcDbPoint
 10
411.2097595590205
 20
599.9999999999698
 30
0.0
  0
ENDBLK
  5
414
330
412
100
AcDbEntity
  8
0
100
AcDbBlockEnd
  0
BLOCK
  5
420
330
41F
100
AcDbEntity
  8
0
100
AcDbBlockBegin
  2
*D21
 70
     1
 10
0.0
 20
0.0
 30
0.0
  3
*D21
  1

  0
ARC
  5
422
330
41F
100
AcDbEntity
  8
LAY-2
  6
CONTINUOUS
 62
     3
100
AcDbCircle
 10
577.2000000012818
 20
743.1499999999035
 30
0.0
 40
141.9126857505825
100
AcDbArc
 50
12.13485732364508
 51
77.86514267635346
  0
INSERT
  5
423
330
41F
100
AcDbEntity
  8
LAY-2
 62
     3
100
AcDbBlockReference
  2
EX_NORM
 10
719.1126857518643
 20
743.1499999999035
 30
0.0
 41
30.0
 42
30.0
 43
30.0
 50
276.0674286618225
  0
INSERT
  5
424
330
41F
100
AcDbEntity
  8
LAY-2
 62
     3
100
AcDbBlockReference
  2
EX_NORM
 10
577.2000000012854
 20
885.062685750486
 30
0.0
 41
30.0
 42
30.0
 43
30.0
 50
173.932571338176
  0
MTEXT
  5
425
330
41F
100
AcDbEntity
  8
LAY-2
 62
     2
100
AcDbMText
 10
694.1644317476507
 20
860.1144317462695
 30
0.0
 40
40.0
 41
0.0
 71
     5
 72
     1
  1
90%%d
  7
EXCADDIM1
 11
0.7071067811865386
 21
-0.7071067811865565
 31
0.0
  0
POINT
  5
426
330
41F
100
AcDbEntity
  8
DEFPOINTS
 62
     0
100
AcDbPoint
 10
577.2000000012818
 20
743.1499999999035
 30
0.0
  0
POINT
  5
427
330
41F
100
AcDbEntity
  8
DEFPOINTS
 62
     0
100
AcDbPoint
 10
719.1126857518616
 20
743.1499999999035
 30
0.0
  0
POINT
  5
428
330
41F
100
AcDbEntity
  8
DEFPOINTS
 62
     0
100
AcDbPoint
 10
577.2000000012854
 20
885.0626857504863
 30
0.0
  0
POINT
  5
429
330
41F
100
AcDbEntity
  8
DEFPOINTS
 62
     0
100
AcDbPoint
 10
700.0999909805648
 20
814.1063428751938
 30
0.0
  0
ENDBLK
  5
421
330
41F
100
AcDbEntity
  8
0
100
AcDbBlockEnd
  0
BLOCK
  5
42C
330
42B
100
AcDbEntity
  8
0
100
AcDbBlockBegin
  2
*D22
 70
     1
 10
0.0
 20
0.0
 30
0.0
  3
*D22
  1

  0
LINE
  5
42E
330
42B
100
AcDbEntity
  8
LAY-2
  6
CONTINUOUS
 62
     3
100
AcDbLine
 10
1251.999999636217
 20
743.1499999998698
 30
0.0
 11
1372.0
 21
743.1499999998698
 31
0.0
  0
LINE
  5
42F
330
42B
100
AcDbEntity
  8
LAY-2
  6
CONTINUOUS
 62
     3
100
AcDbLine
 10
552.0602080822177
 20
599.9999999999698
 30
0.0
 11
1372.0
 21
599.9999999999696
 31
0.0
  0
LINE
  5
430
330
42B
100
AcDbEntity
  8
LAY-2
  6
CONTINUOUS
 62
     3
100
AcDbLine
 10
1362.0
 20
713.1499999998698
 30
0.0
 11
1362.0
 21
629.9999999999696
 31
0.0
  0
INSERT
  5
431
330
42B
100
AcDbEntity
  8
LAY-2
 62
     3
100
AcDbBlockReference
  2
EX_NORM
 10
1362.0
 20
743.1499999998698
 30
0.0
 41
30.0
 42
30.0
 43
30.0
 50
90.0
  0
INSERT
  5
432
330
42B
100
AcDbEntity
  8
LAY-2
 62
     3
100
AcDbBlockReference
  2
EX_NORM
 10
1362.0
 20
599.9999999999696
 30
0.0
 41
30.0
 42
30.0
 43
30.0
 50
270.0
  0
MTEXT
  5
433
330
42B
100
AcDbEntity
  8
LAY-2
 62
     2
100
AcDbMText
 10
1338.500000059605
 20
671.5749999999193
 30
0.0
 40
40.0
 41
0.0
 71
     5
 72
     1
  1
143.15
  7
EXCADDIM1
 11
0.0
 21
1.0
 31
0.0
  0
POINT
  5
434
330
42B
100
AcDbEntity
  8
DEFPOINTS
 62
     0
100
AcDbPoint
 10
1240.939791554018
 20
743.1499999998698
 30
0.0
  0
POINT
  5
435
330
42B
100
AcDbEntity
  8
DEFPOINTS
 62
     0
100
AcDbPoint
 10
541.0000000000186
 20
599.9999999999698
 30
0.0
  0
POINT
  5
436
330
42B
100
AcDbEntity
  8
DEFPOINTS
 62
     0
100
AcDbPoint
 10
1362.0
 20
599.9999999999696
 30
0.0
  0
ENDBLK
  5
42D
330
42B
100
AcDbEntity
  8
0
100
AcDbBlockEnd
  0
BLOCK
  5
439
330
438
100
AcDbEntity
  8
0
100
AcDbBlockBegin
  2
*D23
 70
     1
 10
0.0
 20
0.0
 30
0.0
  3
*D23
  1

  0
LINE
  5
43B
330
438
100
AcDbEntity
  8
LAY-2
  6
CONTINUOUS
 62
     3
100
AcDbLine
 10
534.0000001192293
 20
1843.0000000289
 30
0.0
 11
336.0
 21
1843.0000000289
 31
0.0
  0
LINE
  5
43C
330
438
100
AcDbEntity
  8
LAY-2
  6
CONTINUOUS
 62
     3
100
AcDbLine
 10
540.300000119269
 20
1733.0000000289
 30
0.0
 11
336.0
 21
1733.0000000289
 31
0.0
  0
LINE
  5
43D
330
438
100
AcDbEntity
  8
LAY-2
  6
CONTINUOUS
 62
     3
100
AcDbLine
 10
346.0
 20
1813.0000000289
 30
0.0
 11
346.0
 21
1763.0000000289
 31
0.0
  0
INSERT
  5
43E
330
438
100
AcDbEntity
  8
LAY-2
 62
     3
100
AcDbBlockReference
  2
EX_NORM
 10
346.0
 20
1843.0000000289
 30
0.0
 41
30.0
 42
30.0
 43
30.0
 50
90.0
  0
INSERT
  5
43F
330
438
100
AcDbEntity
  8
LAY-2
 62
     3
100
AcDbBlockReference
  2
EX_NORM
 10
346.0
 20
1733.0000000289
 30
0.0
 41
30.0
 42
30.0
 43
30.0
 50
270.0
  0
MTEXT
  5
440
330
438
100
AcDbEntity
  8
LAY-2
 62
     2
100
AcDbMText
 10
322.5000000596048
 20
1788.0000000289
 30
0.0
 40
40.0
 41
0.0
 71
     5
 72
     1
  1
110
  7
EXCADDIM1
 11
0.0
 21
1.0
 31
0.0
  0
POINT
  5
441
330
438
100
AcDbEntity
  8
DEFPOINTS
 62
     0
100
AcDbPoint
 10
541.00000000002
 20
1843.0000000289
 30
0.0
  0
POINT
  5
442
330
438
100
AcDbEntity
  8
DEFPOINTS
 62
     0
100
AcDbPoint
 10
547.3000000000598
 20
1733.0000000289
 30
0.0
  0
POINT
  5
443
330
438
100
AcDbEntity
  8
DEFPOINTS
 62
     0
100
AcDbPoint
 10
346.0
 20
1733.0000000289
 30
0.0
  0
ENDBLK
  5
43A
330
438
100
AcDbEntity
  8
0
100
AcDbBlockEnd
  0
BLOCK
  5
447
330
446
100
AcDbEntity
  8
0
100
AcDbBlockBegin
  2
*D24
 70
     1
 10
0.0
 20
0.0
 30
0.0
  3
*D24
  1

  0
LINE
  5
449
330
446
100
AcDbEntity
  8
LAY-2
  6
CONTINUOUS
 62
     3
100
AcDbLine
 10
1582.099999881284
 20
761.1499999998898
 30
0.0
 11
1746.100000000494
 21
761.1499999998898
 31
0.0
  0
LINE
  5
44A
330
446
100
AcDbEntity
  8
LAY-2
  6
CONTINUOUS
 62
     3
100
AcDbLine
 10
1582.099999881284
 20
716.1499999974899
 30
0.0
 11
1746.100000000494
 21
716.1499999974899
 31
0.0
  0
LINE
  5
44B
330
446
100
AcDbEntity
  8
LAY-2
  6
CONTINUOUS
 62
     3
100
AcDbLine
 10
1736.100000000493
 20
761.1499999998898
 30
0.0
 11
1736.100000000493
 21
716.1499999974899
 31
0.0
  0
LINE
  5
44C
330
446
100
AcDbEntity
  8
LAY-2
  6
CONTINUOUS
 62
     3
100
AcDbLine
 10
1736.100000000493
 20
791.1499999998898
 30
0.0
 11
1736.100000000493
 21
821.1499999998898
 31
0.0
  0
LINE
  5
44D
330
446
100
AcDbEntity
  8
LAY-2
  6
CONTINUOUS
 62
     3
100
AcDbLine
 10
1736.100000000493
 20
686.1499999974899
 30
0.0
 11
1736.100000000493
 21
656.1499999974899
 31
0.0
  0
INSERT
  5
44E
330
446
100
AcDbEntity
  8
LAY-2
 62
     3
100
AcDbBlockReference
  2
EX_NORM
 10
1736.100000000493
 20
761.1499999998898
 30
0.0
 41
30.0
 42
30.0
 43
30.0
 50
270.0
  0
INSERT
  5
44F
330
446
100
AcDbEntity
  8
LAY-2
 62
     3
100
AcDbBlockReference
  2
EX_NORM
 10
1736.100000000493
 20
716.1499999974899
 30
0.0
 41
30.0
 42
30.0
 43
30.0
 50
90.0
  0
MTEXT
  5
450
330
446
100
AcDbEntity
  8
LAY-2
 62
     2
100
AcDbMText
 10
1712.600000060098
 20
738.6499999986899
 30
0.0
 40
40.0
 41
0.0
 71
     5
 72
     1
  1
45
  7
EXCADDIM1
 11
0.0
 21
1.0
 31
0.0
  0
POINT
  5
451
330
446
100
AcDbEntity
  8
DEFPOINTS
 62
     0
100
AcDbPoint
 10
1575.100000000493
 20
761.1499999998898
 30
0.0
  0
POINT
  5
452
330
446
100
AcDbEntity
  8
DEFPOINTS
 62
     0
100
AcDbPoint
 10
1575.100000000493
 20
716.1499999974899
 30
0.0
  0
POINT
  5
453
330
446
100
AcDbEntity
  8
DEFPOINTS
 62
     0
100
AcDbPoint
 10
1736.100000000493
 20
716.1499999974899
 30
0.0
  0
ENDBLK
  5
448
330
446
100
AcDbEntity
  8
0
100
AcDbBlockEnd
  0
BLOCK
  5
45C
330
45B
100
AcDbEntity
  8
0
100
AcDbBlockBegin
  2
*D25
 70
     1
 10
0.0
 20
0.0
 30
0.0
  3
*D25
  1

  0
LINE
  5
45E
330
45B
100
AcDbEntity
  8
LAY-2
  6
CONTINUOUS
 62
     3
100
AcDbLine
 10
528.3528222449393
 20
1788.0000000035
 30
0.0
 11
471.0
 21
1788.0000000035
 31
0.0
  0
LINE
  5
45F
330
45B
100
AcDbEntity
  8
LAY-2
  6
CONTINUOUS
 62
     3
100
AcDbLine
 10
524.0000001191893
 20
1718.0000000035
 30
0.0
 11
471.0
 21
1718.0000000035
 31
0.0
  0
LINE
  5
460
330
45B
100
AcDbEntity
  8
LAY-2
  6
CONTINUOUS
 62
     3
100
AcDbLine
 10
481.0
 20
1758.0000000035
 30
0.0
 11
481.0
 21
1748.0000000035
 31
0.0
  0
INSERT
  5
461
330
45B
100
AcDbEntity
  8
LAY-2
 62
     3
100
AcDbBlockReference
  2
EX_NORM
 10
481.0
 20
1788.0000000035
 30
0.0
 41
30.0
 42
30.0
 43
30.0
 50
90.0
  0
INSERT
  5
462
330
45B
100
AcDbEntity
  8
LAY-2
 62
     3
100
AcDbBlockReference
  2
EX_NORM
 10
481.0
 20
1718.0000000035
 30
0.0
 41
30.0
 42
30.0
 43
30.0
 50
270.0
  0
MTEXT
  5
463
330
45B
100
AcDbEntity
  8
LAY-2
 62
     2
100
AcDbMText
 10
457.5000000596052
 20
1623.0000000035
 30
0.0
 40
40.0
 41
0.0
 71
     5
 72
     1
  1
（70）
  7
EXCADDIM1
 11
0.0
 21
1.0
 31
0.0
  0
POINT
  5
464
330
45B
100
AcDbEntity
  8
DEFPOINTS
 62
     0
100
AcDbPoint
 10
535.35282212573
 20
1788.0000000035
 30
0.0
  0
POINT
  5
465
330
45B
100
AcDbEntity
  8
DEFPOINTS
 62
     0
100
AcDbPoint
 10
530.99999999998
 20
1718.0000000035
 30
0.0
  0
POINT
  5
466
330
45B
100
AcDbEntity
  8
DEFPOINTS
 62
     0
100
AcDbPoint
 10
481.0
 20
1718.0000000035
 30
0.0
  0
ENDBLK
  5
45D
330
45B
100
AcDbEntity
  8
0
100
AcDbBlockEnd
  0
BLOCK
  5
469
330
468
100
AcDbEntity
  8
0
100
AcDbBlockBegin
  2
*D26
 70
     1
 10
0.0
 20
0.0
 30
0.0
  3
*D26
  1

  0
LINE
  5
46B
330
468
100
AcDbEntity
  8
LAY-2
  6
CONTINUOUS
 62
     3
100
AcDbLine
 10
534.0000001191993
 20
878.3499999999999
 30
0.0
 11
463.0
 21
878.3499999999999
 31
0.0
  0
LINE
  5
46C
330
468
100
AcDbEntity
  8
LAY-2
  6
CONTINUOUS
 62
     3
100
AcDbLine
 10
526.0000001192293
 20
853.3499999999999
 30
0.0
 11
463.0
 21
853.3499999999999
 31
0.0
  0
LINE
  5
46D
330
468
100
AcDbEntity
  8
LAY-2
  6
CONTINUOUS
 62
     3
100
AcDbLine
 10
473.0
 20
878.3499999999999
 30
0.0
 11
473.0
 21
853.3499999999999
 31
0.0
  0
LINE
  5
46E
330
468
100
AcDbEntity
  8
LAY-2
  6
CONTINUOUS
 62
     3
100
AcDbLine
 10
473.0
 20
908.3499999999999
 30
0.0
 11
473.0
 21
938.3499999999999
 31
0.0
  0
LINE
  5
46F
330
468
100
AcDbEntity
  8
LAY-2
  6
CONTINUOUS
 62
     3
100
AcDbLine
 10
473.0
 20
823.3499999999999
 30
0.0
 11
473.0
 21
793.3499999999999
 31
0.0
  0
INSERT
  5
470
330
468
100
AcDbEntity
  8
LAY-2
 62
     3
100
AcDbBlockReference
  2
EX_NORM
 10
473.0
 20
878.3499999999999
 30
0.0
 41
30.0
 42
30.0
 43
30.0
 50
270.0
  0
INSERT
  5
471
330
468
100
AcDbEntity
  8
LAY-2
 62
     3
100
AcDbBlockReference
  2
EX_NORM
 10
473.0
 20
853.3499999999999
 30
0.0
 41
30.0
 42
30.0
 43
30.0
 50
90.0
  0
MTEXT
  5
472
330
468
100
AcDbEntity
  8
LAY-2
 62
     2
100
AcDbMText
 10
449.5000000596049
 20
943.3499999999998
 30
0.0
 40
40.0
 41
0.0
 71
     5
 72
     1
  1
25
  7
EXCADDIM1
 11
0.0
 21
1.0
 31
0.0
  0
POINT
  5
473
330
468
100
AcDbEntity
  8
DEFPOINTS
 62
     0
100
AcDbPoint
 10
540.99999999999
 20
878.3499999999999
 30
0.0
  0
POINT
  5
474
330
468
100
AcDbEntity
  8
DEFPOINTS
 62
     0
100
AcDbPoint
 10
533.00000000002
 20
853.3499999999999
 30
0.0
  0
POINT
  5
475
330
468
100
AcDbEntity
  8
DEFPOINTS
 62
     0
100
AcDbPoint
 10
473.0
 20
853.3499999999999
 30
0.0
  0
ENDBLK
  5
46A
330
468
100
AcDbEntity
  8
0
100
AcDbBlockEnd
  0
ENDSEC
  0
SECTION
  2
ENTITIES
  0
LINE
  5
AA
330
1F
100
AcDbEntity
  8
LAY-1
  6
CONTINUOUS
 62
     7
100
AcDbLine
 10
20.0
 20
10.0
 30
0.0
 11
198.0
 21
10.0
 31
0.0
  0
LINE
  5
AB
330
1F
100
AcDbEntity
  8
LAY-1
  6
CONTINUOUS
 62
     7
100
AcDbLine
 10
198.0
 20
286.0
 30
0.0
 11
198.0
 21
10.0
 31
0.0
  0
LINE
  5
AC
330
1F
100
AcDbEntity
  8
LAY-1
  6
CONTINUOUS
 62
     7
100
AcDbLine
 10
198.0
 20
286.0
 30
0.0
 11
20.0
 21
286.0
 31
0.0
  0
LINE
  5
AD
330
1F
100
AcDbEntity
  8
LAY-1
  6
CONTINUOUS
 62
     7
100
AcDbLine
 10
20.0
 20
286.0
 30
0.0
 11
20.0
 21
10.0
 31
0.0
  0
LINE
  5
AE
330
1F
100
AcDbEntity
  8
LAY-1
  6
CONTINUOUS
 62
     7
100
AcDbLine
 10
198.0
 20
32.0
 30
0.0
 11
20.0
 21
32.0
 31
0.0
  0
TEXT
  5
AF
330
1F
100
AcDbEntity
  8
LAY-1
  6
CONTINUOUS
 62
     2
100
AcDbText
 10
22.5
 20
27.60000002384186
 30
0.0
 40
3.799999952316284
  1
設計
 41
1.534976095816436
  7
EXCADSTD
 72
     5
 11
31.666
 21
27.60000002384186
 31
0.0
100
AcDbText
  0
TEXT
  5
B0
330
1F
100
AcDbEntity
  8
LAY-1
  6
CONTINUOUS
 62
     2
100
AcDbText
 10
37.5
 20
27.60000002384186
 30
0.0
 40
3.799999952316284
  1
製図
 41
1.534976095816435
  7
EXCADSTD
 72
     5
 11
46.666
 21
27.60000002384186
 31
0.0
100
AcDbText
  0
TEXT
  5
B1
330
1F
100
AcDbEntity
  8
LAY-1
  6
CONTINUOUS
 62
     2
100
AcDbText
 10
51.5
 20
27.60000002384186
 30
0.0
 40
3.799999952316284
  1
検図
 41
1.534976095816435
  7
EXCADSTD
 72
     5
 11
60.666
 21
27.60000002384186
 31
0.0
100
AcDbText
  0
CIRCLE
  5
B2
330
1F
100
AcDbEntity
  8
LAY-1
  6
CONTINUOUS
 62
     7
100
AcDbCircle
 10
25.0
 20
12.4
 30
0.0
 40
0.15
  0
CIRCLE
  5
B3
330
1F
100
AcDbEntity
  8
LAY-1
  6
CONTINUOUS
 62
     7
100
AcDbCircle
 10
30.0
 20
12.4
 30
0.0
 40
0.15
  0
CIRCLE
  5
B4
330
1F
100
AcDbEntity
  8
LAY-1
  6
CONTINUOUS
 62
     7
100
AcDbCircle
 10
40.0
 20
12.4
 30
0.0
 40
0.15
  0
CIRCLE
  5
B5
330
1F
100
AcDbEntity
  8
LAY-1
  6
CONTINUOUS
 62
     7
100
AcDbCircle
 10
45.0
 20
12.4
 30
0.0
 40
0.15
  0
TEXT
  5
B6
330
1F
100
AcDbEntity
  8
LAY-1
  6
CONTINUOUS
 62
     2
100
AcDbText
 10
64.5
 20
27.60000002384186
 30
0.0
 40
3.799999952316284
  1
承認
 41
1.534976095816435
  7
EXCADSTD
 72
     5
 11
73.666
 21
27.60000002384186
 31
0.0
100
AcDbText
  0
TEXT
  5
B7
330
1F
100
AcDbEntity
  8
LAY-1
  6
CONTINUOUS
 62
     2
100
AcDbText
 10
78.5
 20
30.79999995231628
 30
0.0
 40
3.665454509041526
  1
品名
  7
EXCADVERT
 72
     3
 11
78.5
 21
21.20000004768372
 31
0.0
100
AcDbText
  0
LINE
  5
B8
330
1F
100
AcDbEntity
  8
LAY-1
  6
CONTINUOUS
 62
     3
100
AcDbLine
 10
78.118
 20
16.578
 30
0.0
 11
78.118
 21
17.12
 31
0.0
  0
LINE
  5
B9
330
1F
100
AcDbEntity
  8
LAY-1
  6
CONTINUOUS
 62
     3
100
AcDbLine
 10
78.118
 20
17.12
 30
0.0
 11
80.708
 21
17.12
 31
0.0
  0
LINE
  5
BA
330
1F
100
AcDbEntity
  8
LAY-1
  6
CONTINUOUS
 62
     3
100
AcDbLine
 10
80.708
 20
17.12
 30
0.0
 11
80.708
 21
16.578
 31
0.0
  0
LINE
  5
BB
330
1F
100
AcDbEntity
  8
LAY-1
  6
CONTINUOUS
 62
     3
100
AcDbLine
 10
80.708
 20
16.578
 30
0.0
 11
78.118
 21
16.578
 31
0.0
  0
LINE
  5
BC
330
1F
100
AcDbEntity
  8
LAY-1
  6
CONTINUOUS
 62
     3
100
AcDbLine
 10
78.268
 20
16.728
 30
0.0
 11
78.268
 21
16.97
 31
0.0
  0
LINE
  5
BD
330
1F
100
AcDbEntity
  8
LAY-1
  6
CONTINUOUS
 62
     3
100
AcDbLine
 10
78.268
 20
16.97
 30
0.0
 11
80.558
 21
16.97
 31
0.0
  0
LINE
  5
BE
330
1F
100
AcDbEntity
  8
LAY-1
  6
CONTINUOUS
 62
     3
100
AcDbLine
 10
80.558
 20
16.97
 30
0.0
 11
80.558
 21
16.728
 31
0.0
  0
LINE
  5
BF
330
1F
100
AcDbEntity
  8
LAY-1
  6
CONTINUOUS
 62
     3
100
AcDbLine
 10
80.558
 20
16.728
 30
0.0
 11
78.268
 21
16.728
 31
0.0
  0
LINE
  5
C0
330
1F
100
AcDbEntity
  8
LAY-1
  6
CONTINUOUS
 62
     3
100
AcDbLine
 10
78.118
 20
15.252
 30
0.0
 11
78.118
 21
15.794
 31
0.0
  0
LINE
  5
C1
330
1F
100
AcDbEntity
  8
LAY-1
  6
CONTINUOUS
 62
     3
100
AcDbLine
 10
78.118
 20
15.794
 30
0.0
 11
80.708
 21
15.794
 31
0.0
  0
LINE
  5
C2
330
1F
100
AcDbEntity
  8
LAY-1
  6
CONTINUOUS
 62
     3
100
AcDbLine
 10
80.708
 20
15.794
 30
0.0
 11
80.708
 21
15.252
 31
0.0
  0
LINE
  5
C3
330
1F
100
AcDbEntity
  8
LAY-1
  6
CONTINUOUS
 62
     3
100
AcDbLine
 10
80.708
 20
15.252
 30
0.0
 11
78.118
 21
15.252
 31
0.0
  0
LINE
  5
C4
330
1F
100
AcDbEntity
  8
LAY-1
  6
CONTINUOUS
 62
     3
100
AcDbLine
 10
78.268
 20
15.402
 30
0.0
 11
78.268
 21
15.644
 31
0.0
  0
LINE
  5
C5
330
1F
100
AcDbEntity
  8
LAY-1
  6
CONTINUOUS
 62
     3
100
AcDbLine
 10
78.268
 20
15.644
 30
0.0
 11
80.558
 21
15.644
 31
0.0
  0
LINE
  5
C6
330
1F
100
AcDbEntity
  8
LAY-1
  6
CONTINUOUS
 62
     3
100
AcDbLine
 10
80.558
 20
15.644
 30
0.0
 11
80.558
 21
15.402
 31
0.0
  0
LINE
  5
C7
330
1F
100
AcDbEntity
  8
LAY-1
  6
CONTINUOUS
 62
     3
100
AcDbLine
 10
80.558
 20
15.402
 30
0.0
 11
78.268
 21
15.402
 31
0.0
  0
LINE
  5
C8
330
1F
100
AcDbEntity
  8
LAY-1
  6
CONTINUOUS
 62
     3
100
AcDbLine
 10
81.938
 20
16.578
 30
0.0
 11
81.938
 21
17.12
 31
0.0
  0
LINE
  5
C9
330
1F
100
AcDbEntity
  8
LAY-1
  6
CONTINUOUS
 62
     3
100
AcDbLine
 10
81.938
 20
17.12
 30
0.0
 11
82.464
 21
17.12
 31
0.0
  0
LINE
  5
CA
330
1F
100
AcDbEntity
  8
LAY-1
  6
CONTINUOUS
 62
     3
100
AcDbLine
 10
82.464
 20
17.12
 30
0.0
 11
82.464
 21
16.578
 31
0.0
  0
LINE
  5
CB
330
1F
100
AcDbEntity
  8
LAY-1
  6
CONTINUOUS
 62
     3
100
AcDbLine
 10
82.464
 20
16.578
 30
0.0
 11
81.938
 21
16.578
 31
0.0
  0
LINE
  5
CC
330
1F
100
AcDbEntity
  8
LAY-1
  6
CONTINUOUS
 62
     3
100
AcDbLine
 10
82.088
 20
16.728
 30
0.0
 11
82.088
 21
16.97
 31
0.0
  0
LINE
  5
CD
330
1F
100
AcDbEntity
  8
LAY-1
  6
CONTINUOUS
 62
     3
100
AcDbLine
 10
82.088
 20
16.97
 30
0.0
 11
82.314
 21
16.97
 31
0.0
  0
LINE
  5
CE
330
1F
100
AcDbEntity
  8
LAY-1
  6
CONTINUOUS
 62
     3
100
AcDbLine
 10
82.314
 20
16.97
 30
0.0
 11
82.314
 21
16.728
 31
0.0
  0
LINE
  5
CF
330
1F
100
AcDbEntity
  8
LAY-1
  6
CONTINUOUS
 62
     3
100
AcDbLine
 10
82.314
 20
16.728
 30
0.0
 11
82.088
 21
16.728
 31
0.0
  0
LINE
  5
D0
330
1F
100
AcDbEntity
  8
LAY-1
  6
CONTINUOUS
 62
     3
100
AcDbLine
 10
83.072
 20
16.578
 30
0.0
 11
83.072
 21
17.12
 31
0.0
  0
LINE
  5
D1
330
1F
100
AcDbEntity
  8
LAY-1
  6
CONTINUOUS
 62
     3
100
AcDbLine
 10
83.072
 20
17.12
 30
0.0
 11
83.598
 21
17.12
 31
0.0
  0
LINE
  5
D2
330
1F
100
AcDbEntity
  8
LAY-1
  6
CONTINUOUS
 62
     3
100
AcDbLine
 10
83.598
 20
17.12
 30
0.0
 11
83.598
 21
16.578
 31
0.0
  0
LINE
  5
D3
330
1F
100
AcDbEntity
  8
LAY-1
  6
CONTINUOUS
 62
     3
100
AcDbLine
 10
83.598
 20
16.578
 30
0.0
 11
83.072
 21
16.578
 31
0.0
  0
LINE
  5
D4
330
1F
100
AcDbEntity
  8
LAY-1
  6
CONTINUOUS
 62
     3
100
AcDbLine
 10
83.222
 20
16.728
 30
0.0
 11
83.222
 21
16.97
 31
0.0
  0
LINE
  5
D5
330
1F
100
AcDbEntity
  8
LAY-1
  6
CONTINUOUS
 62
     3
100
AcDbLine
 10
83.222
 20
16.97
 30
0.0
 11
83.448
 21
16.97
 31
0.0
  0
LINE
  5
D6
330
1F
100
AcDbEntity
  8
LAY-1
  6
CONTINUOUS
 62
     3
100
AcDbLine
 10
83.448
 20
16.97
 30
0.0
 11
83.448
 21
16.728
 31
0.0
  0
LINE
  5
D7
330
1F
100
AcDbEntity
  8
LAY-1
  6
CONTINUOUS
 62
     3
100
AcDbLine
 10
83.448
 20
16.728
 30
0.0
 11
83.222
 21
16.728
 31
0.0
  0
LINE
  5
D8
330
1F
100
AcDbEntity
  8
LAY-1
  6
CONTINUOUS
 62
     3
100
AcDbLine
 10
78.118
 20
13.612
 30
0.0
 11
80.80998075007
 21
13.612
 31
0.0
  0
ARC
  5
D9
330
1F
100
AcDbEntity
  8
LAY-1
  6
CONTINUOUS
 62
     3
100
AcDbCircle
 10
80.80998075007
 20
14.588
 30
0.0
 40
0.976
100
AcDbArc
 50
270.0
 51
334.0000000000001
  0
LINE
  5
DA
330
1F
100
AcDbEntity
  8
LAY-1
  6
CONTINUOUS
 62
     3
100
AcDbLine
 10
81.68720373926
 20
14.16014976073
 30
0.0
 11
82.57773040279
 21
15.986
 31
0.0
  0
LINE
  5
DB
330
1F
100
AcDbEntity
  8
LAY-1
  6
CONTINUOUS
 62
     3
100
AcDbLine
 10
82.57773040279
 20
15.986
 30
0.0
 11
83.50794982064
 21
15.986
 31
0.0
  0
LINE
  5
DC
330
1F
100
AcDbEntity
  8
LAY-1
  6
CONTINUOUS
 62
     3
100
AcDbLine
 10
83.50794982064
 20
15.986
 30
0.0
 11
82.46091577858
 21
13.83926208128
 31
0.0
  0
ARC
  5
DD
330
1F
100
AcDbEntity
  8
LAY-1
  6
CONTINUOUS
 62
     3
100
AcDbCircle
 10
80.9257755475
 20
14.588
 30
0.0
 40
1.708
100
AcDbArc
 50
270.0
 51
334.0000000000001
  0
LINE
  5
DE
330
1F
100
AcDbEntity
  8
LAY-1
  6
CONTINUOUS
 62
     3
100
AcDbLine
 10
80.9257755475
 20
12.88
 30
0.0
 11
78.118
 21
12.88
 31
0.0
  0
LINE
  5
DF
330
1F
100
AcDbEntity
  8
LAY-1
  6
CONTINUOUS
 62
     3
100
AcDbLine
 10
78.118
 20
12.88
 30
0.0
 11
78.118
 21
13.612
 31
0.0
  0
LINE
  5
E0
330
1F
100
AcDbEntity
  8
LAY-1
  6
CONTINUOUS
 62
     3
100
AcDbLine
 10
78.268
 20
13.03
 30
0.0
 11
78.268
 21
13.462
 31
0.0
  0
LINE
  5
E1
330
1F
100
AcDbEntity
  8
LAY-1
  6
CONTINUOUS
 62
     3
100
AcDbLine
 10
78.268
 20
13.462
 30
0.0
 11
80.80998075007
 21
13.462
 31
0.0
  0
ARC
  5
E2
330
1F
100
AcDbEntity
  8
LAY-1
  6
CONTINUOUS
 62
     3
100
AcDbCircle
 10
80.80998075007
 20
14.588
 30
0.0
 40
1.126
100
AcDbArc
 50
270.0
 51
334.0000000000001
  0
LINE
  5
E3
330
1F
100
AcDbEntity
  8
LAY-1
  6
CONTINUOUS
 62
     3
100
AcDbLine
 10
81.8220228462
 20
14.09439408872
 30
0.0
 11
82.67146080557
 21
15.836
 31
0.0
  0
LINE
  5
E4
330
1F
100
AcDbEntity
  8
LAY-1
  6
CONTINUOUS
 62
     3
100
AcDbLine
 10
82.67146080557
 20
15.836
 30
0.0
 11
83.26789964129
 21
15.836
 31
0.0
  0
LINE
  5
E5
330
1F
100
AcDbEntity
  8
LAY-1
  6
CONTINUOUS
 62
     3
100
AcDbLine
 10
83.26789964129
 20
15.836
 30
0.0
 11
82.32609667163
 21
13.9050177533
 31
0.0
  0
ARC
  5
E6
330
1F
100
AcDbEntity
  8
LAY-1
  6
CONTINUOUS
 62
     3
100
AcDbCircle
 10
80.9257755475
 20
14.588
 30
0.0
 40
1.558
100
AcDbArc
 50
270.0
 51
334.0000000000001
  0
LINE
  5
E7
330
1F
100
AcDbEntity
  8
LAY-1
  6
CONTINUOUS
 62
     3
100
AcDbLine
 10
80.9257755475
 20
13.03
 30
0.0
 11
78.268
 21
13.03
 31
0.0
  0
LINE
  5
E8
330
1F
100
AcDbEntity
  8
LAY-1
  6
CONTINUOUS
 62
     3
100
AcDbLine
 10
78.418
 20
13.312
 30
0.0
 11
80.80998075007
 21
13.312
 31
0.0
  0
ARC
  5
E9
330
1F
100
AcDbEntity
  8
LAY-1
  6
CONTINUOUS
 62
     3
100
AcDbCircle
 10
80.80998075007
 20
14.588
 30
0.0
 40
1.276
100
AcDbArc
 50
270.0
 51
334.0000000000001
  0
LINE
  5
EA
330
1F
100
AcDbEntity
  8
LAY-1
  6
CONTINUOUS
 62
     3
100
AcDbLine
 10
81.95684195315
 20
14.0286384167
 30
0.0
 11
82.76519120836
 21
15.686
 31
0.0
  0
LINE
  5
EB
330
1F
100
AcDbEntity
  8
LAY-1
  6
CONTINUOUS
 62
     3
100
AcDbLine
 10
82.76519120836
 20
15.686
 30
0.0
 11
83.02784946193
 21
15.686
 31
0.0
  0
LINE
  5
EC
330
1F
100
AcDbEntity
  8
LAY-1
  6
CONTINUOUS
 62
     3
100
AcDbLine
 10
83.02784946193
 20
15.686
 30
0.0
 11
82.19127756469
 21
13.97077342532
 31
0.0
  0
ARC
  5
ED
330
1F
100
AcDbEntity
  8
LAY-1
  6
CONTINUOUS
 62
     3
100
AcDbCircle
 10
80.9257755475
 20
14.588
 30
0.0
 40
1.408
100
AcDbArc
 50
270.0
 51
334.0000000000001
  0
LINE
  5
EE
330
1F
100
AcDbEntity
  8
LAY-1
  6
CONTINUOUS
 62
     3
100
AcDbLine
 10
80.9257755475
 20
13.18
 30
0.0
 11
78.418
 21
13.18
 31
0.0
  0
LINE
  5
EF
330
1F
100
AcDbEntity
  8
LAY-1
  6
CONTINUOUS
 62
     3
100
AcDbLine
 10
78.418
 20
13.18
 30
0.0
 11
78.418
 21
13.312
 31
0.0
  0
LINE
  5
F0
330
1F
100
AcDbEntity
  8
LAY-1
  6
CONTINUOUS
 62
     3
100
AcDbLine
 10
85.17198100083
 20
15.986
 30
0.0
 11
85.05762743492
 21
16.708
 31
0.0
  0
LINE
  5
F1
330
1F
100
AcDbEntity
  8
LAY-1
  6
CONTINUOUS
 62
     3
100
AcDbLine
 10
85.05762743492
 20
16.708
 30
0.0
 11
85.90388789718
 21
16.708
 31
0.0
  0
LINE
  5
F2
330
1F
100
AcDbEntity
  8
LAY-1
  6
CONTINUOUS
 62
     3
100
AcDbLine
 10
85.90388789718
 20
16.708
 30
0.0
 11
86.01824146309
 21
15.986
 31
0.0
  0
LINE
  5
F3
330
1F
100
AcDbEntity
  8
LAY-1
  6
CONTINUOUS
 62
     3
100
AcDbLine
 10
86.01824146309
 20
15.986
 30
0.0
 11
88.77902025543
 21
15.986
 31
0.0
  0
LINE
  5
F4
330
1F
100
AcDbEntity
  8
LAY-1
  6
CONTINUOUS
 62
     3
100
AcDbLine
 10
88.77902025543
 20
15.986
 30
0.0
 11
88.27385585198
 21
14.85138217298
 31
0.0
  0
ARC
  5
F5
330
1F
100
AcDbEntity
  8
LAY-1
  6
CONTINUOUS
 62
     3
100
AcDbCircle
 10
86.99671930219
 20
15.42
 30
0.0
 40
1.398
100
AcDbArc
 50
270.0
 51
335.9999999999999
  0
LINE
  5
F6
330
1F
100
AcDbEntity
  8
LAY-1
  6
CONTINUOUS
 62
     3
100
AcDbLine
 10
86.99671930219
 20
14.022
 30
0.0
 11
86.94691223062
 21
14.022
 31
0.0
  0
LINE
  5
F7
330
1F
100
AcDbEntity
  8
LAY-1
  6
CONTINUOUS
 62
     3
100
AcDbLine
 10
86.94691223062
 20
14.022
 30
0.0
 11
86.87329054726
 21
14.48682901482
 31
0.0
  0
ARC
  5
F8
330
1F
100
AcDbEntity
  8
LAY-1
  6
CONTINUOUS
 62
     3
100
AcDbCircle
 10
86.68718434397
 20
15.234
 30
0.0
 40
0.77
100
AcDbArc
 50
283.9866830184
 51
335.9999999999999
  0
LINE
  5
F9
330
1F
100
AcDbEntity
  8
LAY-1
  6
CONTINUOUS
 62
     3
100
AcDbLine
 10
87.39061434636
 20
14.92081278483
 30
0.0
 11
87.67697974457
 21
15.564
 31
0.0
  0
LINE
  5
FA
330
1F
100
AcDbEntity
  8
LAY-1
  6
CONTINUOUS
 62
     3
100
AcDbLine
 10
87.67697974457
 20
15.564
 30
0.0
 11
86.08507969691
 21
15.564
 31
0.0
  0
LINE
  5
FB
330
1F
100
AcDbEntity
  8
LAY-1
  6
CONTINUOUS
 62
     3
100
AcDbLine
 10
86.08507969691
 20
15.564
 30
0.0
 11
86.51018353474
 21
12.88
 31
0.0
  0
LINE
  5
FC
330
1F
100
AcDbEntity
  8
LAY-1
  6
CONTINUOUS
 62
     3
100
AcDbLine
 10
86.51018353474
 20
12.88
 30
0.0
 11
85.66392307248
 21
12.88
 31
0.0
  0
LINE
  5
FD
330
1F
100
AcDbEntity
  8
LAY-1
  6
CONTINUOUS
 62
     3
100
AcDbLine
 10
85.66392307248
 20
12.88
 30
0.0
 11
85.23881923465
 21
15.564
 31
0.0
  0
LINE
  5
FE
330
1F
100
AcDbEntity
  8
LAY-1
  6
CONTINUOUS
 62
     3
100
AcDbLine
 10
85.23881923465
 20
15.564
 30
0.0
 11
84.206
 21
15.564
 31
0.0
  0
LINE
  5
FF
330
1F
100
AcDbEntity
  8
LAY-1
  6
CONTINUOUS
 62
     3
100
AcDbLine
 10
84.206
 20
15.564
 30
0.0
 11
84.206
 21
15.986
 31
0.0
  0
LINE
  5
100
330
1F
100
AcDbEntity
  8
LAY-1
  6
CONTINUOUS
 62
     3
100
AcDbLine
 10
84.206
 20
15.986
 30
0.0
 11
85.17198100083
 21
15.986
 31
0.0
  0
LINE
  5
101
330
1F
100
AcDbEntity
  8
LAY-1
  6
CONTINUOUS
 62
     3
100
AcDbLine
 10
85.34760843575
 20
15.836
 30
0.0
 11
85.23325486983
 21
16.558
 31
0.0
  0
LINE
  5
102
330
1F
100
AcDbEntity
  8
LAY-1
  6
CONTINUOUS
 62
     3
100
AcDbLine
 10
85.23325486983
 20
16.558
 30
0.0
 11
85.77577579436
 21
16.558
 31
0.0
  0
LINE
  5
103
330
1F
100
AcDbEntity
  8
LAY-1
  6
CONTINUOUS
 62
     3
100
AcDbLine
 10
85.77577579436
 20
16.558
 30
0.0
 11
85.89012936028
 21
15.836
 31
0.0
  0
LINE
  5
104
330
1F
100
AcDbEntity
  8
LAY-1
  6
CONTINUOUS
 62
     3
100
AcDbLine
 10
85.89012936028
 20
15.836
 30
0.0
 11
88.54804051086
 21
15.836
 31
0.0
  0
LINE
  5
105
330
1F
100
AcDbEntity
  8
LAY-1
  6
CONTINUOUS
 62
     3
100
AcDbLine
 10
88.54804051086
 20
15.836
 30
0.0
 11
88.13682403333
 21
14.91239266944
 31
0.0
  0
ARC
  5
106
330
1F
100
AcDbEntity
  8
LAY-1
  6
CONTINUOUS
 62
     3
100
AcDbCircle
 10
86.99671930219
 20
15.42
 30
0.0
 40
1.248
100
AcDbArc
 50
270.0
 51
335.9999999999999
  0
LINE
  5
107
330
1F
100
AcDbEntity
  8
LAY-1
  6
CONTINUOUS
 62
     3
100
AcDbLine
 10
86.99671930219
 20
14.172
 30
0.0
 11
87.07502433344
 21
14.172
 31
0.0
  0
LINE
  5
108
330
1F
100
AcDbEntity
  8
LAY-1
  6
CONTINUOUS
 62
     3
100
AcDbLine
 10
87.07502433344
 20
14.172
 30
0.0
 11
87.04130675816
 21
14.38488439199
 31
0.0
  0
ARC
  5
109
330
1F
100
AcDbEntity
  8
LAY-1
  6
CONTINUOUS
 62
     3
100
AcDbCircle
 10
86.68718434397
 20
15.234
 30
0.0
 40
0.92
100
AcDbArc
 50
292.6385049051001
 51
335.9999999999999
  0
LINE
  5
10A
330
1F
100
AcDbEntity
  8
LAY-1
  6
CONTINUOUS
 62
     3
100
AcDbLine
 10
87.527646165
 20
14.85980228837
 30
0.0
 11
87.90795948914
 21
15.714
 31
0.0
  0
LINE
  5
10B
330
1F
100
AcDbEntity
  8
LAY-1
  6
CONTINUOUS
 62
     3
100
AcDbLine
 10
87.90795948914
 20
15.714
 30
0.0
 11
85.90945226199
 21
15.714
 31
0.0
  0
LINE
  5
10C
330
1F
100
AcDbEntity
  8
LAY-1
  6
CONTINUOUS
 62
     3
100
AcDbLine
 10
85.90945226199
 20
15.714
 30
0.0
 11
86.33455609983
 21
13.03
 31
0.0
  0
LINE
  5
10D
330
1F
100
AcDbEntity
  8
LAY-1
  6
CONTINUOUS
 62
     3
100
AcDbLine
 10
86.33455609983
 20
13.03
 30
0.0
 11
85.7920351753
 21
13.03
 31
0.0
  0
LINE
  5
10E
330
1F
100
AcDbEntity
  8
LAY-1
  6
CONTINUOUS
 62
     3
100
AcDbLine
 10
85.7920351753
 20
13.03
 30
0.0
 11
85.36693133747
 21
15.714
 31
0.0
  0
LINE
  5
10F
330
1F
100
AcDbEntity
  8
LAY-1
  6
CONTINUOUS
 62
     3
100
AcDbLine
 10
85.36693133747
 20
15.714
 30
0.0
 11
84.356
 21
15.714
 31
0.0
  0
LINE
  5
110
330
1F
100
AcDbEntity
  8
LAY-1
  6
CONTINUOUS
 62
     3
100
AcDbLine
 10
84.356
 20
15.714
 30
0.0
 11
84.356
 21
15.836
 31
0.0
  0
LINE
  5
111
330
1F
100
AcDbEntity
  8
LAY-1
  6
CONTINUOUS
 62
     3
100
AcDbLine
 10
84.356
 20
15.836
 30
0.0
 11
85.34760843575
 21
15.836
 31
0.0
  0
LINE
  5
112
330
1F
100
AcDbEntity
  8
LAY-1
  6
CONTINUOUS
 62
     3
100
AcDbLine
 10
85.63
 20
16.37
 30
0.0
 11
86.13
 21
13.18
 31
0.0
  0
LINE
  5
113
330
1F
100
AcDbEntity
  8
LAY-1
  6
CONTINUOUS
 62
     3
100
AcDbLine
 10
85.44
 20
16.41
 30
0.0
 11
85.95
 21
13.17
 31
0.0
  0
LINE
  5
114
330
1F
100
AcDbEntity
  8
LAY-1
  6
CONTINUOUS
 62
     3
100
AcDbLine
 10
88.05
 20
15.68
 30
0.0
 11
87.56
 21
14.55
 31
0.0
  0
LINE
  5
115
330
1F
100
AcDbEntity
  8
LAY-1
  6
CONTINUOUS
 62
     3
100
AcDbLine
 10
88.3
 20
15.7
 30
0.0
 11
87.78
 21
14.59
 31
0.0
  0
LINE
  5
116
330
1F
100
AcDbEntity
  8
LAY-1
  6
CONTINUOUS
 62
     3
100
AcDbLine
 10
87.64
 20
14.51
 30
0.0
 11
87.19
 21
14.32
 31
0.0
  0
LINE
  5
117
330
1F
100
AcDbEntity
  8
LAY-1
  6
CONTINUOUS
 62
     3
100
AcDbLine
 10
89.421
 20
17.12
 30
0.0
 11
94.075
 21
17.12
 31
0.0
  0
LINE
  5
118
330
1F
100
AcDbEntity
  8
LAY-1
  6
CONTINUOUS
 62
     3
100
AcDbLine
 10
94.075
 20
17.12
 30
0.0
 11
94.075
 21
16.388
 31
0.0
  0
LINE
  5
119
330
1F
100
AcDbEntity
  8
LAY-1
  6
CONTINUOUS
 62
     3
100
AcDbLine
 10
94.075
 20
16.388
 30
0.0
 11
89.421
 21
16.388
 31
0.0
  0
LINE
  5
11A
330
1F
100
AcDbEntity
  8
LAY-1
  6
CONTINUOUS
 62
     3
100
AcDbLine
 10
89.421
 20
16.388
 30
0.0
 11
89.421
 21
17.12
 31
0.0
  0
LINE
  5
11B
330
1F
100
AcDbEntity
  8
LAY-1
  6
CONTINUOUS
 62
     3
100
AcDbLine
 10
89.571
 20
16.97
 30
0.0
 11
93.925
 21
16.97
 31
0.0
  0
LINE
  5
11C
330
1F
100
AcDbEntity
  8
LAY-1
  6
CONTINUOUS
 62
     3
100
AcDbLine
 10
93.925
 20
16.97
 30
0.0
 11
93.925
 21
16.538
 31
0.0
  0
LINE
  5
11D
330
1F
100
AcDbEntity
  8
LAY-1
  6
CONTINUOUS
 62
     3
100
AcDbLine
 10
93.925
 20
16.538
 30
0.0
 11
89.571
 21
16.538
 31
0.0
  0
LINE
  5
11E
330
1F
100
AcDbEntity
  8
LAY-1
  6
CONTINUOUS
 62
     3
100
AcDbLine
 10
89.571
 20
16.538
 30
0.0
 11
89.571
 21
16.97
 31
0.0
  0
LINE
  5
11F
330
1F
100
AcDbEntity
  8
LAY-1
  6
CONTINUOUS
 62
     3
100
AcDbLine
 10
89.73
 20
16.74
 30
0.0
 11
93.82
 21
16.74
 31
0.0
  0
LINE
  5
120
330
1F
100
AcDbEntity
  8
LAY-1
  6
CONTINUOUS
 62
     3
100
AcDbLine
 10
89.058
 20
13.612
 30
0.0
 11
94.438
 21
13.612
 31
0.0
  0
LINE
  5
121
330
1F
100
AcDbEntity
  8
LAY-1
  6
CONTINUOUS
 62
     3
100
AcDbLine
 10
94.438
 20
13.612
 30
0.0
 11
94.438
 21
12.88
 31
0.0
  0
LINE
  5
122
330
1F
100
AcDbEntity
  8
LAY-1
  6
CONTINUOUS
 62
     3
100
AcDbLine
 10
94.438
 20
12.88
 30
0.0
 11
89.058
 21
12.88
 31
0.0
  0
LINE
  5
123
330
1F
100
AcDbEntity
  8
LAY-1
  6
CONTINUOUS
 62
     3
100
AcDbLine
 10
89.058
 20
12.88
 30
0.0
 11
89.058
 21
13.612
 31
0.0
  0
LINE
  5
124
330
1F
100
AcDbEntity
  8
LAY-1
  6
CONTINUOUS
 62
     3
100
AcDbLine
 10
89.208
 20
13.462
 30
0.0
 11
94.288
 21
13.462
 31
0.0
  0
LINE
  5
125
330
1F
100
AcDbEntity
  8
LAY-1
  6
CONTINUOUS
 62
     3
100
AcDbLine
 10
94.288
 20
13.462
 30
0.0
 11
94.288
 21
13.03
 31
0.0
  0
LINE
  5
126
330
1F
100
AcDbEntity
  8
LAY-1
  6
CONTINUOUS
 62
     3
100
AcDbLine
 10
94.288
 20
13.03
 30
0.0
 11
89.208
 21
13.03
 31
0.0
  0
LINE
  5
127
330
1F
100
AcDbEntity
  8
LAY-1
  6
CONTINUOUS
 62
     3
100
AcDbLine
 10
89.208
 20
13.03
 30
0.0
 11
89.208
 21
13.462
 31
0.0
  0
LINE
  5
128
330
1F
100
AcDbEntity
  8
LAY-1
  6
CONTINUOUS
 62
     3
100
AcDbLine
 10
89.37
 20
13.24
 30
0.0
 11
94.17
 21
13.24
 31
0.0
  0
LINE
  5
129
330
1F
100
AcDbEntity
  8
LAY-1
  6
CONTINUOUS
 62
     3
100
AcDbLine
 10
95.56
 20
17.12
 30
0.0
 11
100.4816084242
 21
17.12
 31
0.0
  0
LINE
  5
12A
330
1F
100
AcDbEntity
  8
LAY-1
  6
CONTINUOUS
 62
     3
100
AcDbLine
 10
100.4816084242
 20
17.12
 30
0.0
 11
98.71167005603
 21
14.68388882974
 31
0.0
  0
LINE
  5
12B
330
1F
100
AcDbEntity
  8
LAY-1
  6
CONTINUOUS
 62
     3
100
AcDbLine
 10
98.71167005603
 20
14.68388882974
 30
0.0
 11
100.7868067759
 21
12.88
 31
0.0
  0
LINE
  5
12C
330
1F
100
AcDbEntity
  8
LAY-1
  6
CONTINUOUS
 62
     3
100
AcDbLine
 10
100.7868067759
 20
12.88
 30
0.0
 11
99.74008270192
 21
12.88
 31
0.0
  0
LINE
  5
12D
330
1F
100
AcDbEntity
  8
LAY-1
  6
CONTINUOUS
 62
     3
100
AcDbLine
 10
99.74008270192
 20
12.88
 30
0.0
 11
98.30648857376
 21
14.12620436303
 31
0.0
  0
LINE
  5
12E
330
1F
100
AcDbEntity
  8
LAY-1
  6
CONTINUOUS
 62
     3
100
AcDbLine
 10
98.30648857376
 20
14.12620436303
 30
0.0
 11
97.91259966409
 21
13.58406278908
 31
0.0
  0
ARC
  5
12F
330
1F
100
AcDbEntity
  8
LAY-1
  6
CONTINUOUS
 62
     3
100
AcDbCircle
 10
96.53079863769
 20
14.588
 30
0.0
 40
1.708
100
AcDbArc
 50
270.0
 51
324.0
  0
LINE
  5
130
330
1F
100
AcDbEntity
  8
LAY-1
  6
CONTINUOUS
 62
     3
100
AcDbLine
 10
96.53079863769
 20
12.88
 30
0.0
 11
95.246
 21
12.88
 31
0.0
  0
LINE
  5
131
330
1F
100
AcDbEntity
  8
LAY-1
  6
CONTINUOUS
 62
     3
100
AcDbLine
 10
95.246
 20
12.88
 30
0.0
 11
95.246
 21
13.612
 31
0.0
  0
LINE
  5
132
330
1F
100
AcDbEntity
  8
LAY-1
  6
CONTINUOUS
 62
     3
100
AcDbLine
 10
95.246
 20
13.612
 30
0.0
 11
96.29925043678
 21
13.612
 31
0.0
  0
ARC
  5
133
330
1F
100
AcDbEntity
  8
LAY-1
  6
CONTINUOUS
 62
     3
100
AcDbCircle
 10
96.29925043678
 20
14.794
 30
0.0
 40
1.182
100
AcDbArc
 50
270.0
 51
324.0
  0
LINE
  5
134
330
1F
100
AcDbEntity
  8
LAY-1
  6
CONTINUOUS
 62
     3
100
AcDbLine
 10
97.25550852413
 20
14.09923783179
 30
0.0
 11
98.91839157583
 21
16.388
 31
0.0
  0
LINE
  5
135
330
1F
100
AcDbEntity
  8
LAY-1
  6
CONTINUOUS
 62
     3
100
AcDbLine
 10
98.91839157583
 20
16.388
 30
0.0
 11
95.56
 21
16.388
 31
0.0
  0
LINE
  5
136
330
1F
100
AcDbEntity
  8
LAY-1
  6
CONTINUOUS
 62
     3
100
AcDbLine
 10
95.56
 20
16.388
 30
0.0
 11
95.56
 21
17.12
 31
0.0
  0
LINE
  5
137
330
1F
100
AcDbEntity
  8
LAY-1
  6
CONTINUOUS
 62
     3
100
AcDbLine
 10
95.396
 20
13.462
 30
0.0
 11
96.29925043678
 21
13.462
 31
0.0
  0
ARC
  5
138
330
1F
100
AcDbEntity
  8
LAY-1
  6
CONTINUOUS
 62
     3
100
AcDbCircle
 10
96.29925043678
 20
14.794
 30
0.0
 40
1.332
100
AcDbArc
 50
270.0
 51
324.0
  0
LINE
  5
139
330
1F
100
AcDbEntity
  8
LAY-1
  6
CONTINUOUS
 62
     3
100
AcDbLine
 10
97.37686107329
 20
14.01107004395
 30
0.0
 11
99.21278315165
 21
16.538
 31
0.0
  0
LINE
  5
13A
330
1F
100
AcDbEntity
  8
LAY-1
  6
CONTINUOUS
 62
     3
100
AcDbLine
 10
99.21278315165
 20
16.538
 30
0.0
 11
95.71
 21
16.538
 31
0.0
  0
LINE
  5
13B
330
1F
100
AcDbEntity
  8
LAY-1
  6
CONTINUOUS
 62
     3
100
AcDbLine
 10
95.71
 20
16.538
 30
0.0
 11
95.71
 21
16.97
 31
0.0
  0
LINE
  5
13C
330
1F
100
AcDbEntity
  8
LAY-1
  6
CONTINUOUS
 62
     3
100
AcDbLine
 10
95.71
 20
16.97
 30
0.0
 11
100.1872168483
 21
16.97
 31
0.0
  0
LINE
  5
13D
330
1F
100
AcDbEntity
  8
LAY-1
  6
CONTINUOUS
 62
     3
100
AcDbLine
 10
100.1872168483
 20
16.97
 30
0.0
 11
98.50952661433
 21
14.66085749375
 31
0.0
  0
LINE
  5
13E
330
1F
100
AcDbEntity
  8
LAY-1
  6
CONTINUOUS
 62
     3
100
AcDbLine
 10
98.50952661433
 20
14.66085749375
 30
0.0
 11
100.3856135518
 21
13.03
 31
0.0
  0
LINE
  5
13F
330
1F
100
AcDbEntity
  8
LAY-1
  6
CONTINUOUS
 62
     3
100
AcDbLine
 10
100.3856135518
 20
13.03
 30
0.0
 11
99.79616540385
 21
13.03
 31
0.0
  0
LINE
  5
140
330
1F
100
AcDbEntity
  8
LAY-1
  6
CONTINUOUS
 62
     3
100
AcDbLine
 10
99.79616540385
 20
13.03
 30
0.0
 11
98.28135428099
 21
14.34680521939
 31
0.0
  0
LINE
  5
141
330
1F
100
AcDbEntity
  8
LAY-1
  6
CONTINUOUS
 62
     3
100
AcDbLine
 10
98.28135428099
 20
14.34680521939
 30
0.0
 11
97.79124711493
 21
13.67223057693
 31
0.0
  0
ARC
  5
142
330
1F
100
AcDbEntity
  8
LAY-1
  6
CONTINUOUS
 62
     3
100
AcDbCircle
 10
96.53079863769
 20
14.588
 30
0.0
 40
1.558
100
AcDbArc
 50
270.0
 51
324.0
  0
LINE
  5
143
330
1F
100
AcDbEntity
  8
LAY-1
  6
CONTINUOUS
 62
     3
100
AcDbLine
 10
96.53079863769
 20
13.03
 30
0.0
 11
95.396
 21
13.03
 31
0.0
  0
LINE
  5
144
330
1F
100
AcDbEntity
  8
LAY-1
  6
CONTINUOUS
 62
     3
100
AcDbLine
 10
95.396
 20
13.03
 30
0.0
 11
95.396
 21
13.462
 31
0.0
  0
LINE
  5
145
330
1F
100
AcDbEntity
  8
LAY-1
  6
CONTINUOUS
 62
     3
100
AcDbLine
 10
95.86
 20
16.82
 30
0.0
 11
99.89282527252
 21
16.82
 31
0.0
  0
LINE
  5
146
330
1F
100
AcDbEntity
  8
LAY-1
  6
CONTINUOUS
 62
     3
100
AcDbLine
 10
99.89282527252
 20
16.82
 30
0.0
 11
98.30738317263
 21
14.63782615776
 31
0.0
  0
LINE
  5
147
330
1F
100
AcDbEntity
  8
LAY-1
  6
CONTINUOUS
 62
     3
100
AcDbLine
 10
98.30738317263
 20
14.63782615776
 30
0.0
 11
99.98442032773
 21
13.18
 31
0.0
  0
LINE
  5
148
330
1F
100
AcDbEntity
  8
LAY-1
  6
CONTINUOUS
 62
     3
100
AcDbLine
 10
99.98442032773
 20
13.18
 30
0.0
 11
99.85224810577
 21
13.18
 31
0.0
  0
LINE
  5
149
330
1F
100
AcDbEntity
  8
LAY-1
  6
CONTINUOUS
 62
     3
100
AcDbLine
 10
99.85224810577
 20
13.18
 30
0.0
 11
98.25621998823
 21
14.56740607576
 31
0.0
  0
LINE
  5
14A
330
1F
100
AcDbEntity
  8
LAY-1
  6
CONTINUOUS
 62
     3
100
AcDbLine
 10
98.25621998823
 20
14.56740607576
 30
0.0
 11
97.66989456577
 21
13.76039836477
 31
0.0
  0
ARC
  5
14B
330
1F
100
AcDbEntity
  8
LAY-1
  6
CONTINUOUS
 62
     3
100
AcDbCircle
 10
96.53079863769
 20
14.588
 30
0.0
 40
1.408
100
AcDbArc
 50
270.0
 51
324.0
  0
LINE
  5
14C
330
1F
100
AcDbEntity
  8
LAY-1
  6
CONTINUOUS
 62
     3
100
AcDbLine
 10
96.53079863769
 20
13.18
 30
0.0
 11
95.546
 21
13.18
 31
0.0
  0
LINE
  5
14D
330
1F
100
AcDbEntity
  8
LAY-1
  6
CONTINUOUS
 62
     3
100
AcDbLine
 10
95.546
 20
13.18
 30
0.0
 11
95.546
 21
13.312
 31
0.0
  0
LINE
  5
14E
330
1F
100
AcDbEntity
  8
LAY-1
  6
CONTINUOUS
 62
     3
100
AcDbLine
 10
95.546
 20
13.312
 30
0.0
 11
96.29925043678
 21
13.312
 31
0.0
  0
ARC
  5
14F
330
1F
100
AcDbEntity
  8
LAY-1
  6
CONTINUOUS
 62
     3
100
AcDbCircle
 10
96.29925043678
 20
14.794
 30
0.0
 40
1.482
100
AcDbArc
 50
270.0
 51
324.0
  0
LINE
  5
150
330
1F
100
AcDbEntity
  8
LAY-1
  6
CONTINUOUS
 62
     3
100
AcDbLine
 10
97.49821362244
 20
13.9229022561
 30
0.0
 11
99.50717472748
 21
16.688
 31
0.0
  0
LINE
  5
151
330
1F
100
AcDbEntity
  8
LAY-1
  6
CONTINUOUS
 62
     3
100
AcDbLine
 10
99.50717472748
 20
16.688
 30
0.0
 11
95.86
 21
16.688
 31
0.0
  0
LINE
  5
152
330
1F
100
AcDbEntity
  8
LAY-1
  6
CONTINUOUS
 62
     3
100
AcDbLine
 10
95.86
 20
16.688
 30
0.0
 11
95.86
 21
16.82
 31
0.0
  0
LINE
  5
153
330
1F
100
AcDbEntity
  8
LAY-1
  6
CONTINUOUS
 62
     3
100
AcDbLine
 10
102.577
 20
17.12
 30
0.0
 11
107.643
 21
17.12
 31
0.0
  0
LINE
  5
154
330
1F
100
AcDbEntity
  8
LAY-1
  6
CONTINUOUS
 62
     3
100
AcDbLine
 10
107.643
 20
17.12
 30
0.0
 11
107.643
 21
16.698
 31
0.0
  0
LINE
  5
155
330
1F
100
AcDbEntity
  8
LAY-1
  6
CONTINUOUS
 62
     3
100
AcDbLine
 10
107.643
 20
16.698
 30
0.0
 11
105.528
 21
16.698
 31
0.0
  0
LINE
  5
156
330
1F
100
AcDbEntity
  8
LAY-1
  6
CONTINUOUS
 62
     3
100
AcDbLine
 10
105.528
 20
16.698
 30
0.0
 11
105.528
 21
13.406
 31
0.0
  0
LINE
  5
157
330
1F
100
AcDbEntity
  8
LAY-1
  6
CONTINUOUS
 62
     3
100
AcDbLine
 10
105.528
 20
13.406
 30
0.0
 11
107.85
 21
13.406
 31
0.0
  0
LINE
  5
158
330
1F
100
AcDbEntity
  8
LAY-1
  6
CONTINUOUS
 62
     3
100
AcDbLine
 10
107.85
 20
13.406
 30
0.0
 11
107.85
 21
12.88
 31
0.0
  0
LINE
  5
159
330
1F
100
AcDbEntity
  8
LAY-1
  6
CONTINUOUS
 62
     3
100
AcDbLine
 10
107.85
 20
12.88
 30
0.0
 11
102.37
 21
12.88
 31
0.0
  0
LINE
  5
15A
330
1F
100
AcDbEntity
  8
LAY-1
  6
CONTINUOUS
 62
     3
100
AcDbLine
 10
102.37
 20
12.88
 30
0.0
 11
102.37
 21
13.406
 31
0.0
  0
LINE
  5
15B
330
1F
100
AcDbEntity
  8
LAY-1
  6
CONTINUOUS
 62
     3
100
AcDbLine
 10
102.37
 20
13.406
 30
0.0
 11
104.692
 21
13.406
 31
0.0
  0
LINE
  5
15C
330
1F
100
AcDbEntity
  8
LAY-1
  6
CONTINUOUS
 62
     3
100
AcDbLine
 10
104.692
 20
13.406
 30
0.0
 11
104.692
 21
16.698
 31
0.0
  0
LINE
  5
15D
330
1F
100
AcDbEntity
  8
LAY-1
  6
CONTINUOUS
 62
     3
100
AcDbLine
 10
104.692
 20
16.698
 30
0.0
 11
102.577
 21
16.698
 31
0.0
  0
LINE
  5
15E
330
1F
100
AcDbEntity
  8
LAY-1
  6
CONTINUOUS
 62
     3
100
AcDbLine
 10
102.577
 20
16.698
 30
0.0
 11
102.577
 21
17.12
 31
0.0
  0
LINE
  5
15F
330
1F
100
AcDbEntity
  8
LAY-1
  6
CONTINUOUS
 62
     3
100
AcDbLine
 10
102.727
 20
16.97
 30
0.0
 11
107.493
 21
16.97
 31
0.0
  0
LINE
  5
160
330
1F
100
AcDbEntity
  8
LAY-1
  6
CONTINUOUS
 62
     3
100
AcDbLine
 10
107.493
 20
16.97
 30
0.0
 11
107.493
 21
16.848
 31
0.0
  0
LINE
  5
161
330
1F
100
AcDbEntity
  8
LAY-1
  6
CONTINUOUS
 62
     3
100
AcDbLine
 10
107.493
 20
16.848
 30
0.0
 11
105.378
 21
16.848
 31
0.0
  0
LINE
  5
162
330
1F
100
AcDbEntity
  8
LAY-1
  6
CONTINUOUS
 62
     3
100
AcDbLine
 10
105.378
 20
16.848
 30
0.0
 11
105.378
 21
13.256
 31
0.0
  0
LINE
  5
163
330
1F
100
AcDbEntity
  8
LAY-1
  6
CONTINUOUS
 62
     3
100
AcDbLine
 10
105.378
 20
13.256
 30
0.0
 11
107.7
 21
13.256
 31
0.0
  0
LINE
  5
164
330
1F
100
AcDbEntity
  8
LAY-1
  6
CONTINUOUS
 62
     3
100
AcDbLine
 10
107.7
 20
13.256
 30
0.0
 11
107.7
 21
13.03
 31
0.0
  0
LINE
  5
165
330
1F
100
AcDbEntity
  8
LAY-1
  6
CONTINUOUS
 62
     3
100
AcDbLine
 10
107.7
 20
13.03
 30
0.0
 11
102.52
 21
13.03
 31
0.0
  0
LINE
  5
166
330
1F
100
AcDbEntity
  8
LAY-1
  6
CONTINUOUS
 62
     3
100
AcDbLine
 10
102.52
 20
13.03
 30
0.0
 11
102.52
 21
13.256
 31
0.0
  0
LINE
  5
167
330
1F
100
AcDbEntity
  8
LAY-1
  6
CONTINUOUS
 62
     3
100
AcDbLine
 10
102.52
 20
13.256
 30
0.0
 11
104.842
 21
13.256
 31
0.0
  0
LINE
  5
168
330
1F
100
AcDbEntity
  8
LAY-1
  6
CONTINUOUS
 62
     3
100
AcDbLine
 10
104.842
 20
13.256
 30
0.0
 11
104.842
 21
16.848
 31
0.0
  0
LINE
  5
169
330
1F
100
AcDbEntity
  8
LAY-1
  6
CONTINUOUS
 62
     3
100
AcDbLine
 10
104.842
 20
16.848
 30
0.0
 11
102.727
 21
16.848
 31
0.0
  0
LINE
  5
16A
330
1F
100
AcDbEntity
  8
LAY-1
  6
CONTINUOUS
 62
     3
100
AcDbLine
 10
102.727
 20
16.848
 30
0.0
 11
102.727
 21
16.97
 31
0.0
  0
LINE
  5
16B
330
1F
100
AcDbEntity
  8
LAY-1
  6
CONTINUOUS
 62
     3
100
AcDbLine
 10
105.04
 20
16.78
 30
0.0
 11
105.04
 21
13.2
 31
0.0
  0
LINE
  5
16C
330
1F
100
AcDbEntity
  8
LAY-1
  6
CONTINUOUS
 62
     3
100
AcDbLine
 10
105.19
 20
16.77
 30
0.0
 11
105.19
 21
13.15
 31
0.0
  0
LINE
  5
16D
330
1F
100
AcDbEntity
  8
LAY-1
  6
CONTINUOUS
 62
     3
100
AcDbLine
 10
110.11
 20
17.12
 30
0.0
 11
110.688
 21
17.12
 31
0.0
  0
LINE
  5
16E
330
1F
100
AcDbEntity
  8
LAY-1
  6
CONTINUOUS
 62
     3
100
AcDbLine
 10
110.688
 20
17.12
 30
0.0
 11
110.688
 21
16.5
 31
0.0
  0
LINE
  5
16F
330
1F
100
AcDbEntity
  8
LAY-1
  6
CONTINUOUS
 62
     3
100
AcDbLine
 10
110.688
 20
16.5
 30
0.0
 11
111.296
 21
16.5
 31
0.0
  0
LINE
  5
170
330
1F
100
AcDbEntity
  8
LAY-1
  6
CONTINUOUS
 62
     3
100
AcDbLine
 10
111.296
 20
16.5
 30
0.0
 11
111.296
 21
17.12
 31
0.0
  0
LINE
  5
171
330
1F
100
AcDbEntity
  8
LAY-1
  6
CONTINUOUS
 62
     3
100
AcDbLine
 10
111.296
 20
17.12
 30
0.0
 11
111.874
 21
17.12
 31
0.0
  0
LINE
  5
172
330
1F
100
AcDbEntity
  8
LAY-1
  6
CONTINUOUS
 62
     3
100
AcDbLine
 10
111.874
 20
17.12
 30
0.0
 11
111.874
 21
16.5
 31
0.0
  0
LINE
  5
173
330
1F
100
AcDbEntity
  8
LAY-1
  6
CONTINUOUS
 62
     3
100
AcDbLine
 10
111.874
 20
16.5
 30
0.0
 11
112.2947627999
 21
16.5
 31
0.0
  0
LINE
  5
174
330
1F
100
AcDbEntity
  8
LAY-1
  6
CONTINUOUS
 62
     3
100
AcDbLine
 10
112.2947627999
 20
16.5
 30
0.0
 11
112.7791598883
 21
17.12
 31
0.0
  0
LINE
  5
175
330
1F
100
AcDbEntity
  8
LAY-1
  6
CONTINUOUS
 62
     3
100
AcDbLine
 10
112.7791598883
 20
17.12
 30
0.0
 11
113.3144544238
 21
17.12
 31
0.0
  0
LINE
  5
176
330
1F
100
AcDbEntity
  8
LAY-1
  6
CONTINUOUS
 62
     3
100
AcDbLine
 10
113.3144544238
 20
17.12
 30
0.0
 11
112.8300573353
 21
16.5
 31
0.0
  0
LINE
  5
177
330
1F
100
AcDbEntity
  8
LAY-1
  6
CONTINUOUS
 62
     3
100
AcDbLine
 10
112.8300573353
 20
16.5
 30
0.0
 11
113.732
 21
16.5
 31
0.0
  0
LINE
  5
178
330
1F
100
AcDbEntity
  8
LAY-1
  6
CONTINUOUS
 62
     3
100
AcDbLine
 10
113.732
 20
16.5
 30
0.0
 11
113.732
 21
16.326
 31
0.0
  0
LINE
  5
179
330
1F
100
AcDbEntity
  8
LAY-1
  6
CONTINUOUS
 62
     3
100
AcDbLine
 10
113.732
 20
16.326
 30
0.0
 11
112.6887775101
 21
16.326
 31
0.0
  0
LINE
  5
17A
330
1F
100
AcDbEntity
  8
LAY-1
  6
CONTINUOUS
 62
     3
100
AcDbLine
 10
112.6887775101
 20
16.326
 30
0.0
 11
112.391777799
 21
15.51
 31
0.0
  0
LINE
  5
17B
330
1F
100
AcDbEntity
  8
LAY-1
  6
CONTINUOUS
 62
     3
100
AcDbLine
 10
112.391777799
 20
15.51
 30
0.0
 11
113.732
 21
15.51
 31
0.0
  0
LINE
  5
17C
330
1F
100
AcDbEntity
  8
LAY-1
  6
CONTINUOUS
 62
     3
100
AcDbLine
 10
113.732
 20
15.51
 30
0.0
 11
113.732
 21
15.422
 31
0.0
  0
LINE
  5
17D
330
1F
100
AcDbEntity
  8
LAY-1
  6
CONTINUOUS
 62
     3
100
AcDbLine
 10
113.732
 20
15.422
 30
0.0
 11
111.358
 21
15.422
 31
0.0
  0
LINE
  5
17E
330
1F
100
AcDbEntity
  8
LAY-1
  6
CONTINUOUS
 62
     3
100
AcDbLine
 10
111.358
 20
15.422
 30
0.0
 11
111.358
 21
14.798
 31
0.0
  0
LINE
  5
17F
330
1F
100
AcDbEntity
  8
LAY-1
  6
CONTINUOUS
 62
     3
100
AcDbLine
 10
111.358
 20
14.798
 30
0.0
 11
113.732
 21
14.798
 31
0.0
  0
LINE
  5
180
330
1F
100
AcDbEntity
  8
LAY-1
  6
CONTINUOUS
 62
     3
100
AcDbLine
 10
113.732
 20
14.798
 30
0.0
 11
113.732
 21
14.624
 31
0.0
  0
LINE
  5
181
330
1F
100
AcDbEntity
  8
LAY-1
  6
CONTINUOUS
 62
     3
100
AcDbLine
 10
113.732
 20
14.624
 30
0.0
 11
111.358
 21
14.624
 31
0.0
  0
LINE
  5
182
330
1F
100
AcDbEntity
  8
LAY-1
  6
CONTINUOUS
 62
     3
100
AcDbLine
 10
111.358
 20
14.624
 30
0.0
 11
111.358
 21
14.0
 31
0.0
  0
LINE
  5
183
330
1F
100
AcDbEntity
  8
LAY-1
  6
CONTINUOUS
 62
     3
100
AcDbLine
 10
111.4683551382
 20
14.0
 30
0.0
 11
113.732
 21
14.0
 31
0.0
  0
LINE
  5
184
330
1F
100
AcDbEntity
  8
LAY-1
  6
CONTINUOUS
 62
     3
100
AcDbLine
 10
113.732
 20
14.0
 30
0.0
 11
113.732
 21
13.912
 31
0.0
  0
LINE
  5
185
330
1F
100
AcDbEntity
  8
LAY-1
  6
CONTINUOUS
 62
     3
100
AcDbLine
 10
113.732
 20
13.912
 30
0.0
 11
112.3502882727
 21
13.912
 31
0.0
  0
LINE
  5
186
330
1F
100
AcDbEntity
  8
LAY-1
  6
CONTINUOUS
 62
     3
100
AcDbLine
 10
112.3502882727
 20
13.912
 30
0.0
 11
113.4922882727
 21
12.88
 31
0.0
  0
LINE
  5
187
330
1F
100
AcDbEntity
  8
LAY-1
  6
CONTINUOUS
 62
     3
100
AcDbLine
 10
113.4922882727
 20
12.88
 30
0.0
 11
112.7077349831
 21
12.88
 31
0.0
  0
LINE
  5
188
330
1F
100
AcDbEntity
  8
LAY-1
  6
CONTINUOUS
 62
     3
100
AcDbLine
 10
112.7077349831
 20
12.88
 30
0.0
 11
111.4683551382
 21
14.0
 31
0.0
  0
LINE
  5
189
330
1F
100
AcDbEntity
  8
LAY-1
  6
CONTINUOUS
 62
     3
100
AcDbLine
 10
111.358
 20
14.09972548387
 30
0.0
 11
111.358
 21
12.88
 31
0.0
  0
LINE
  5
18A
330
1F
100
AcDbEntity
  8
LAY-1
  6
CONTINUOUS
 62
     3
100
AcDbLine
 10
111.358
 20
12.88
 30
0.0
 11
110.626
 21
12.88
 31
0.0
  0
LINE
  5
18B
330
1F
100
AcDbEntity
  8
LAY-1
  6
CONTINUOUS
 62
     3
100
AcDbLine
 10
110.626
 20
12.88
 30
0.0
 11
110.626
 21
14.09972548387
 31
0.0
  0
LINE
  5
18C
330
1F
100
AcDbEntity
  8
LAY-1
  6
CONTINUOUS
 62
     3
100
AcDbLine
 10
110.5156448618
 20
14.0
 30
0.0
 11
109.2762650169
 21
12.88
 31
0.0
  0
LINE
  5
18D
330
1F
100
AcDbEntity
  8
LAY-1
  6
CONTINUOUS
 62
     3
100
AcDbLine
 10
109.2762650169
 20
12.88
 30
0.0
 11
108.4917117273
 21
12.88
 31
0.0
  0
LINE
  5
18E
330
1F
100
AcDbEntity
  8
LAY-1
  6
CONTINUOUS
 62
     3
100
AcDbLine
 10
108.4917117273
 20
12.88
 30
0.0
 11
109.6337117273
 21
13.912
 31
0.0
  0
LINE
  5
18F
330
1F
100
AcDbEntity
  8
LAY-1
  6
CONTINUOUS
 62
     3
100
AcDbLine
 10
109.6337117273
 20
13.912
 30
0.0
 11
108.252
 21
13.912
 31
0.0
  0
LINE
  5
190
330
1F
100
AcDbEntity
  8
LAY-1
  6
CONTINUOUS
 62
     3
100
AcDbLine
 10
108.252
 20
13.912
 30
0.0
 11
108.252
 21
14.0
 31
0.0
  0
LINE
  5
191
330
1F
100
AcDbEntity
  8
LAY-1
  6
CONTINUOUS
 62
     3
100
AcDbLine
 10
108.252
 20
14.0
 30
0.0
 11
110.5156448618
 21
14.0
 31
0.0
  0
LINE
  5
192
330
1F
100
AcDbEntity
  8
LAY-1
  6
CONTINUOUS
 62
     3
100
AcDbLine
 10
110.626
 20
14.0
 30
0.0
 11
110.626
 21
14.624
 31
0.0
  0
LINE
  5
193
330
1F
100
AcDbEntity
  8
LAY-1
  6
CONTINUOUS
 62
     3
100
AcDbLine
 10
110.626
 20
14.624
 30
0.0
 11
108.252
 21
14.624
 31
0.0
  0
LINE
  5
194
330
1F
100
AcDbEntity
  8
LAY-1
  6
CONTINUOUS
 62
     3
100
AcDbLine
 10
108.252
 20
14.624
 30
0.0
 11
108.252
 21
14.798
 31
0.0
  0
LINE
  5
195
330
1F
100
AcDbEntity
  8
LAY-1
  6
CONTINUOUS
 62
     3
100
AcDbLine
 10
108.252
 20
14.798
 30
0.0
 11
110.626
 21
14.798
 31
0.0
  0
LINE
  5
196
330
1F
100
AcDbEntity
  8
LAY-1
  6
CONTINUOUS
 62
     3
100
AcDbLine
 10
110.626
 20
14.798
 30
0.0
 11
110.626
 21
15.422
 31
0.0
  0
LINE
  5
197
330
1F
100
AcDbEntity
  8
LAY-1
  6
CONTINUOUS
 62
     3
100
AcDbLine
 10
110.626
 20
15.422
 30
0.0
 11
108.252
 21
15.422
 31
0.0
  0
LINE
  5
198
330
1F
100
AcDbEntity
  8
LAY-1
  6
CONTINUOUS
 62
     3
100
AcDbLine
 10
108.252
 20
15.422
 30
0.0
 11
108.252
 21
15.51
 31
0.0
  0
LINE
  5
199
330
1F
100
AcDbEntity
  8
LAY-1
  6
CONTINUOUS
 62
     3
100
AcDbLine
 10
108.252
 20
15.51
 30
0.0
 11
109.592222201
 21
15.51
 31
0.0
  0
LINE
  5
19A
330
1F
100
AcDbEntity
  8
LAY-1
  6
CONTINUOUS
 62
     3
100
AcDbLine
 10
109.592222201
 20
15.51
 30
0.0
 11
109.2952224899
 21
16.326
 31
0.0
  0
LINE
  5
19B
330
1F
100
AcDbEntity
  8
LAY-1
  6
CONTINUOUS
 62
     3
100
AcDbLine
 10
109.2952224899
 20
16.326
 30
0.0
 11
108.252
 21
16.326
 31
0.0
  0
LINE
  5
19C
330
1F
100
AcDbEntity
  8
LAY-1
  6
CONTINUOUS
 62
     3
100
AcDbLine
 10
108.252
 20
16.326
 30
0.0
 11
108.252
 21
16.5
 31
0.0
  0
LINE
  5
19D
330
1F
100
AcDbEntity
  8
LAY-1
  6
CONTINUOUS
 62
     3
100
AcDbLine
 10
108.252
 20
16.5
 30
0.0
 11
109.1539426647
 21
16.5
 31
0.0
  0
LINE
  5
19E
330
1F
100
AcDbEntity
  8
LAY-1
  6
CONTINUOUS
 62
     3
100
AcDbLine
 10
109.1539426647
 20
16.5
 30
0.0
 11
108.6695455762
 21
17.12
 31
0.0
  0
LINE
  5
19F
330
1F
100
AcDbEntity
  8
LAY-1
  6
CONTINUOUS
 62
     3
100
AcDbLine
 10
108.6695455762
 20
17.12
 30
0.0
 11
109.2048401117
 21
17.12
 31
0.0
  0
LINE
  5
1A0
330
1F
100
AcDbEntity
  8
LAY-1
  6
CONTINUOUS
 62
     3
100
AcDbLine
 10
109.2048401117
 20
17.12
 30
0.0
 11
109.6892372001
 21
16.5
 31
0.0
  0
LINE
  5
1A1
330
1F
100
AcDbEntity
  8
LAY-1
  6
CONTINUOUS
 62
     3
100
AcDbLine
 10
109.6892372001
 20
16.5
 30
0.0
 11
110.11
 21
16.5
 31
0.0
  0
LINE
  5
1A2
330
1F
100
AcDbEntity
  8
LAY-1
  6
CONTINUOUS
 62
     3
100
AcDbLine
 10
110.11
 20
16.5
 30
0.0
 11
110.11
 21
17.12
 31
0.0
  0
LINE
  5
1A3
330
1F
100
AcDbEntity
  8
LAY-1
  6
CONTINUOUS
 62
     3
100
AcDbLine
 10
109.63
 20
16.3
 30
0.0
 11
112.47
 21
16.3
 31
0.0
  0
LINE
  5
1A4
330
1F
100
AcDbEntity
  8
LAY-1
  6
CONTINUOUS
 62
     3
100
AcDbLine
 10
110.3
 20
16.96
 30
0.0
 11
110.3
 21
16.43
 31
0.0
  0
LINE
  5
1A5
330
1F
100
AcDbEntity
  8
LAY-1
  6
CONTINUOUS
 62
     3
100
AcDbLine
 10
110.56
 20
16.98
 30
0.0
 11
110.56
 21
16.46
 31
0.0
  0
LINE
  5
1A6
330
1F
100
AcDbEntity
  8
LAY-1
  6
CONTINUOUS
 62
     3
100
AcDbLine
 10
111.47
 20
16.94
 30
0.0
 11
111.47
 21
16.44
 31
0.0
  0
LINE
  5
1A7
330
1F
100
AcDbEntity
  8
LAY-1
  6
CONTINUOUS
 62
     3
100
AcDbLine
 10
111.72
 20
16.98
 30
0.0
 11
111.72
 21
16.5
 31
0.0
  0
LINE
  5
1A8
330
1F
100
AcDbEntity
  8
LAY-1
  6
CONTINUOUS
 62
     3
100
AcDbLine
 10
110.84
 20
15.39
 30
0.0
 11
110.84
 21
13.06
 31
0.0
  0
LINE
  5
1A9
330
1F
100
AcDbEntity
  8
LAY-1
  6
CONTINUOUS
 62
     3
100
AcDbLine
 10
111.13
 20
15.36
 30
0.0
 11
111.13
 21
13.1
 31
0.0
  0
LINE
  5
1AA
330
1F
100
AcDbEntity
  8
LAY-1
  6
CONTINUOUS
 62
     3
100
AcDbLine
 10
108.92
 20
16.99
 30
0.0
 11
109.33
 21
16.46
 31
0.0
  0
LINE
  5
1AB
330
1F
100
AcDbEntity
  8
LAY-1
  6
CONTINUOUS
 62
     3
100
AcDbLine
 10
109.14
 20
16.99
 30
0.0
 11
109.56
 21
16.43
 31
0.0
  0
LINE
  5
1AC
330
1F
100
AcDbEntity
  8
LAY-1
  6
CONTINUOUS
 62
     3
100
AcDbLine
 10
112.86
 20
16.99
 30
0.0
 11
112.44
 21
16.46
 31
0.0
  0
LINE
  5
1AD
330
1F
100
AcDbEntity
  8
LAY-1
  6
CONTINUOUS
 62
     3
100
AcDbLine
 10
113.07
 20
17.02
 30
0.0
 11
112.64
 21
16.44
 31
0.0
  0
LINE
  5
1AE
330
1F
100
AcDbEntity
  8
LAY-1
  6
CONTINUOUS
 62
     3
100
AcDbLine
 10
111.88
 20
16.12
 30
0.0
 11
111.68
 21
15.54
 31
0.0
  0
LINE
  5
1AF
330
1F
100
AcDbEntity
  8
LAY-1
  6
CONTINUOUS
 62
     3
100
AcDbLine
 10
112.17
 20
16.18
 30
0.0
 11
111.92
 21
15.54
 31
0.0
  0
LINE
  5
1B0
330
1F
100
AcDbEntity
  8
LAY-1
  6
CONTINUOUS
 62
     3
100
AcDbLine
 10
112.47
 20
16.16
 30
0.0
 11
112.19
 21
15.54
 31
0.0
  0
LINE
  5
1B1
330
1F
100
AcDbEntity
  8
LAY-1
  6
CONTINUOUS
 62
     3
100
AcDbLine
 10
110.08
 20
16.16
 30
0.0
 11
110.34
 21
15.56
 31
0.0
  0
LINE
  5
1B2
330
1F
100
AcDbEntity
  8
LAY-1
  6
CONTINUOUS
 62
     3
100
AcDbLine
 10
109.82
 20
16.2
 30
0.0
 11
110.08
 21
15.56
 31
0.0
  0
LINE
  5
1B3
330
1F
100
AcDbEntity
  8
LAY-1
  6
CONTINUOUS
 62
     3
100
AcDbLine
 10
109.57
 20
16.16
 30
0.0
 11
109.88
 21
15.47
 31
0.0
  0
LINE
  5
1B4
330
1F
100
AcDbEntity
  8
LAY-1
  6
CONTINUOUS
 62
     3
100
AcDbLine
 10
109.8
 20
13.83
 30
0.0
 11
108.92
 21
13.03
 31
0.0
  0
LINE
  5
1B5
330
1F
100
AcDbEntity
  8
LAY-1
  6
CONTINUOUS
 62
     3
100
AcDbLine
 10
110.06
 20
13.84
 30
0.0
 11
109.19
 21
13.03
 31
0.0
  0
LINE
  5
1B6
330
1F
100
AcDbEntity
  8
LAY-1
  6
CONTINUOUS
 62
     3
100
AcDbLine
 10
111.86
 20
13.82
 30
0.0
 11
112.72
 21
13.03
 31
0.0
  0
LINE
  5
1B7
330
1F
100
AcDbEntity
  8
LAY-1
  6
CONTINUOUS
 62
     3
100
AcDbLine
 10
112.17
 20
13.77
 30
0.0
 11
112.99
 21
13.04
 31
0.0
  0
LINE
  5
1B8
330
1F
100
AcDbEntity
  8
LAY-1
  6
CONTINUOUS
 62
     3
100
AcDbLine
 10
115.94
 20
17.1
 30
0.0
 11
115.94
 21
12.9
 31
0.0
  0
LINE
  5
1B9
330
1F
100
AcDbEntity
  8
LAY-1
  6
CONTINUOUS
 62
     3
100
AcDbLine
 10
115.72
 20
17.08
 30
0.0
 11
115.72
 21
12.94
 31
0.0
  0
LINE
  5
1BA
330
1F
100
AcDbEntity
  8
LAY-1
  6
CONTINUOUS
 62
     3
100
AcDbLine
 10
115.51
 20
17.08
 30
0.0
 11
115.51
 21
12.92
 31
0.0
  0
LINE
  5
1BB
330
1F
100
AcDbEntity
  8
LAY-1
  6
CONTINUOUS
 62
     3
100
AcDbLine
 10
115.34
 20
17.08
 30
0.0
 11
115.34
 21
12.97
 31
0.0
  0
LINE
  5
1BC
330
1F
100
AcDbEntity
  8
LAY-1
  6
CONTINUOUS
 62
     3
100
AcDbLine
 10
114.27
 20
16.61
 30
0.0
 11
115.17
 21
16.61
 31
0.0
  0
LINE
  5
1BD
330
1F
100
AcDbEntity
  8
LAY-1
  6
CONTINUOUS
 62
     3
100
AcDbLine
 10
116.04
 20
16.04
 30
0.0
 11
116.24
 21
15.77
 31
0.0
  0
LINE
  5
1BE
330
1F
100
AcDbEntity
  8
LAY-1
  6
CONTINUOUS
 62
     3
100
AcDbLine
 10
116.04
 20
15.78
 30
0.0
 11
116.25
 21
15.49
 31
0.0
  0
LINE
  5
1BF
330
1F
100
AcDbEntity
  8
LAY-1
  6
CONTINUOUS
 62
     3
100
AcDbLine
 10
116.07
 20
15.36
 30
0.0
 11
116.21
 21
15.16
 31
0.0
  0
LINE
  5
1C0
330
1F
100
AcDbEntity
  8
LAY-1
  6
CONTINUOUS
 62
     3
100
AcDbLine
 10
114.62
 20
16.16
 30
0.0
 11
114.23
 21
12.83
 31
0.0
  0
LINE
  5
1C1
330
1F
100
AcDbEntity
  8
LAY-1
  6
CONTINUOUS
 62
     3
100
AcDbLine
 10
114.81
 20
16.18
 30
0.0
 11
114.43
 21
12.8
 31
0.0
  0
LINE
  5
1C2
330
1F
100
AcDbEntity
  8
LAY-1
  6
CONTINUOUS
 62
     3
100
AcDbLine
 10
114.96
 20
16.18
 30
0.0
 11
114.61
 21
12.9
 31
0.0
  0
LINE
  5
1C3
330
1F
100
AcDbEntity
  8
LAY-1
  6
CONTINUOUS
 62
     3
100
AcDbLine
 10
116.06
 20
16.6
 30
0.0
 11
116.23
 21
16.6
 31
0.0
  0
LINE
  5
1C4
330
1F
100
AcDbEntity
  8
LAY-1
  6
CONTINUOUS
 62
     3
100
AcDbLine
 10
116.9
 20
17.12
 30
0.0
 11
116.59
 21
15.99
 31
0.0
  0
LINE
  5
1C5
330
1F
100
AcDbEntity
  8
LAY-1
  6
CONTINUOUS
 62
     3
100
AcDbLine
 10
117.15
 20
17.13
 30
0.0
 11
116.8
 21
16.05
 31
0.0
  0
LINE
  5
1C6
330
1F
100
AcDbEntity
  8
LAY-1
  6
CONTINUOUS
 62
     3
100
AcDbLine
 10
117.39
 20
17.12
 30
0.0
 11
117.07
 21
16.02
 31
0.0
  0
LINE
  5
1C7
330
1F
100
AcDbEntity
  8
LAY-1
  6
CONTINUOUS
 62
     3
100
AcDbLine
 10
117.9
 20
17.12
 30
0.0
 11
117.9
 21
12.83
 31
0.0
  0
LINE
  5
1C8
330
1F
100
AcDbEntity
  8
LAY-1
  6
CONTINUOUS
 62
     3
100
AcDbLine
 10
118.07
 20
17.12
 30
0.0
 11
118.07
 21
12.83
 31
0.0
  0
LINE
  5
1C9
330
1F
100
AcDbEntity
  8
LAY-1
  6
CONTINUOUS
 62
     3
100
AcDbLine
 10
118.26
 20
17.13
 30
0.0
 11
118.26
 21
12.87
 31
0.0
  0
LINE
  5
1CA
330
1F
100
AcDbEntity
  8
LAY-1
  6
CONTINUOUS
 62
     3
100
AcDbLine
 10
118.46
 20
17.13
 30
0.0
 11
118.46
 21
12.83
 31
0.0
  0
LINE
  5
1CB
330
1F
100
AcDbEntity
  8
LAY-1
  6
CONTINUOUS
 62
     3
100
AcDbLine
 10
118.6
 20
17.09
 30
0.0
 11
118.6
 21
12.83
 31
0.0
  0
LINE
  5
1CC
330
1F
100
AcDbEntity
  8
LAY-1
  6
CONTINUOUS
 62
     3
100
AcDbLine
 10
117.38
 20
16.63
 30
0.0
 11
117.8
 21
16.63
 31
0.0
  0
LINE
  5
1CD
330
1F
100
AcDbEntity
  8
LAY-1
  6
CONTINUOUS
 62
     3
100
AcDbLine
 10
118.76
 20
16.64
 30
0.0
 11
119.82
 21
16.64
 31
0.0
  0
LINE
  5
1CE
330
1F
100
AcDbEntity
  8
LAY-1
  6
CONTINUOUS
 62
     3
100
AcDbLine
 10
116.61
 20
15.61
 30
0.0
 11
117.74
 21
15.61
 31
0.0
  0
LINE
  5
1CF
330
1F
100
AcDbEntity
  8
LAY-1
  6
CONTINUOUS
 62
     3
100
AcDbLine
 10
118.76
 20
15.6
 30
0.0
 11
119.78
 21
15.6
 31
0.0
  0
LINE
  5
1D0
330
1F
100
AcDbEntity
  8
LAY-1
  6
CONTINUOUS
 62
     3
100
AcDbLine
 10
117.08
 20
15.21
 30
0.0
 11
116.65
 21
12.87
 31
0.0
  0
LINE
  5
1D1
330
1F
100
AcDbEntity
  8
LAY-1
  6
CONTINUOUS
 62
     3
100
AcDbLine
 10
117.38
 20
15.19
 30
0.0
 11
116.97
 21
12.87
 31
0.0
  0
LINE
  5
1D2
330
1F
100
AcDbEntity
  8
LAY-1
  6
CONTINUOUS
 62
     3
100
AcDbLine
 10
117.63
 20
15.18
 30
0.0
 11
117.17
 21
12.85
 31
0.0
  0
LINE
  5
1D3
330
1F
100
AcDbEntity
  8
LAY-1
  6
CONTINUOUS
 62
     3
100
AcDbLine
 10
118.81
 20
15.14
 30
0.0
 11
119.25
 21
12.86
 31
0.0
  0
LINE
  5
1D4
330
1F
100
AcDbEntity
  8
LAY-1
  6
CONTINUOUS
 62
     3
100
AcDbLine
 10
119.0343993116
 20
15.14891518198
 30
0.0
 11
119.47
 21
12.9
 31
0.0
  0
LINE
  5
1D5
330
1F
100
AcDbEntity
  8
LAY-1
  6
CONTINUOUS
 62
     3
100
AcDbLine
 10
119.2778566644
 20
15.1459209645
 30
0.0
 11
119.71
 21
12.8
 31
0.0
  0
LINE
  5
1D6
330
1F
100
AcDbEntity
  8
LAY-1
  6
CONTINUOUS
 62
     3
100
AcDbLine
 10
123.484
 20
15.47
 30
0.0
 11
123.484
 21
15.15
 31
0.0
  0
LINE
  5
1D7
330
1F
100
AcDbEntity
  8
LAY-1
  6
CONTINUOUS
 62
     3
100
AcDbLine
 10
123.484
 20
15.15
 30
0.0
 11
122.452
 21
15.15
 31
0.0
  0
LINE
  5
1D8
330
1F
100
AcDbEntity
  8
LAY-1
  6
CONTINUOUS
 62
     3
100
AcDbLine
 10
122.452
 20
15.15
 30
0.0
 11
122.452
 21
13.95558805222
 31
0.0
  0
LINE
  5
1D9
330
1F
100
AcDbEntity
  8
LAY-1
  6
CONTINUOUS
 62
     3
100
AcDbLine
 10
122.452
 20
13.95558805222
 30
0.0
 11
123.484
 21
14.17494642386
 31
0.0
  0
LINE
  5
1DA
330
1F
100
AcDbEntity
  8
LAY-1
  6
CONTINUOUS
 62
     3
100
AcDbLine
 10
123.484
 20
14.17494642386
 30
0.0
 11
123.484
 21
13.53164860232
 31
0.0
  0
LINE
  5
1DB
330
1F
100
AcDbEntity
  8
LAY-1
  6
CONTINUOUS
 62
     3
100
AcDbLine
 10
123.484
 20
13.53164860232
 30
0.0
 11
120.584
 21
12.91523457348
 31
0.0
  0
LINE
  5
1DC
330
1F
100
AcDbEntity
  8
LAY-1
  6
CONTINUOUS
 62
     3
100
AcDbLine
 10
120.584
 20
12.91523457348
 30
0.0
 11
120.584
 21
13.55853239502
 31
0.0
  0
LINE
  5
1DD
330
1F
100
AcDbEntity
  8
LAY-1
  6
CONTINUOUS
 62
     3
100
AcDbLine
 10
120.584
 20
13.55853239502
 30
0.0
 11
121.616
 21
13.77789076666
 31
0.0
  0
LINE
  5
1DE
330
1F
100
AcDbEntity
  8
LAY-1
  6
CONTINUOUS
 62
     3
100
AcDbLine
 10
121.616
 20
13.77789076666
 30
0.0
 11
121.616
 21
15.15
 31
0.0
  0
LINE
  5
1DF
330
1F
100
AcDbEntity
  8
LAY-1
  6
CONTINUOUS
 62
     3
100
AcDbLine
 10
121.616
 20
15.15
 30
0.0
 11
120.584
 21
15.15
 31
0.0
  0
LINE
  5
1E0
330
1F
100
AcDbEntity
  8
LAY-1
  6
CONTINUOUS
 62
     3
100
AcDbLine
 10
120.584
 20
15.15
 30
0.0
 11
120.584
 21
15.47
 31
0.0
  0
LINE
  5
1E1
330
1F
100
AcDbEntity
  8
LAY-1
  6
CONTINUOUS
 62
     3
100
AcDbLine
 10
120.584
 20
15.47
 30
0.0
 11
123.484
 21
15.47
 31
0.0
  0
LINE
  5
1E2
330
1F
100
AcDbEntity
  8
LAY-1
  6
CONTINUOUS
 62
     3
100
AcDbLine
 10
120.734
 20
15.32
 30
0.0
 11
123.334
 21
15.32
 31
0.0
  0
LINE
  5
1E3
330
1F
100
AcDbEntity
  8
LAY-1
  6
CONTINUOUS
 62
     3
100
AcDbLine
 10
122.302
 20
15.3
 30
0.0
 11
122.302
 21
13.77035347874
 31
0.0
  0
LINE
  5
1E4
330
1F
100
AcDbEntity
  8
LAY-1
  6
CONTINUOUS
 62
     3
100
AcDbLine
 10
122.302
 20
13.77035347874
 30
0.0
 11
123.334
 21
13.98971185038
 31
0.0
  0
LINE
  5
1E5
330
1F
100
AcDbEntity
  8
LAY-1
  6
CONTINUOUS
 62
     3
100
AcDbLine
 10
123.334
 20
13.98971185038
 30
0.0
 11
123.334
 21
13.6531162073
 31
0.0
  0
LINE
  5
1E6
330
1F
100
AcDbEntity
  8
LAY-1
  6
CONTINUOUS
 62
     3
100
AcDbLine
 10
123.334
 20
13.6531162073
 30
0.0
 11
120.734
 21
13.10046914696
 31
0.0
  0
LINE
  5
1E7
330
1F
100
AcDbEntity
  8
LAY-1
  6
CONTINUOUS
 62
     3
100
AcDbLine
 10
120.734
 20
13.10046914696
 30
0.0
 11
120.734
 21
13.43706479004
 31
0.0
  0
LINE
  5
1E8
330
1F
100
AcDbEntity
  8
LAY-1
  6
CONTINUOUS
 62
     3
100
AcDbLine
 10
120.734
 20
13.43706479004
 30
0.0
 11
121.766
 21
13.65642316168
 31
0.0
  0
LINE
  5
1E9
330
1F
100
AcDbEntity
  8
LAY-1
  6
CONTINUOUS
 62
     3
100
AcDbLine
 10
121.766
 20
13.65642316168
 30
0.0
 11
121.766
 21
15.3
 31
0.0
  0
LINE
  5
1EA
330
1F
100
AcDbEntity
  8
LAY-1
  6
CONTINUOUS
 62
     3
100
AcDbLine
 10
121.95
 20
15.19
 30
0.0
 11
121.95
 21
13.7
 31
0.0
  0
LINE
  5
1EB
330
1F
100
AcDbEntity
  8
LAY-1
  6
CONTINUOUS
 62
     3
100
AcDbLine
 10
122.15
 20
15.16
 30
0.0
 11
122.15
 21
13.79
 31
0.0
  0
LINE
  5
1EC
330
1F
100
AcDbEntity
  8
LAY-1
  6
CONTINUOUS
 62
     3
100
AcDbLine
 10
120.9
 20
13.29
 30
0.0
 11
123.18
 21
13.79
 31
0.0
  0
LINE
  5
1ED
330
1F
100
AcDbEntity
  8
LAY-1
  6
CONTINUOUS
 62
     3
100
AcDbLine
 10
124.1985440057
 20
17.12
 30
0.0
 11
124.3484997422
 21
16.708
 31
0.0
  0
LINE
  5
1EE
330
1F
100
AcDbEntity
  8
LAY-1
  6
CONTINUOUS
 62
     3
100
AcDbLine
 10
124.3484997422
 20
16.708
 30
0.0
 11
124.868
 21
16.708
 31
0.0
  0
LINE
  5
1EF
330
1F
100
AcDbEntity
  8
LAY-1
  6
CONTINUOUS
 62
     3
100
AcDbLine
 10
124.868
 20
16.708
 30
0.0
 11
124.868
 21
17.12
 31
0.0
  0
LINE
  5
1F0
330
1F
100
AcDbEntity
  8
LAY-1
  6
CONTINUOUS
 62
     3
100
AcDbLine
 10
124.868
 20
17.12
 30
0.0
 11
125.496
 21
17.12
 31
0.0
  0
LINE
  5
1F1
330
1F
100
AcDbEntity
  8
LAY-1
  6
CONTINUOUS
 62
     3
100
AcDbLine
 10
125.496
 20
17.12
 30
0.0
 11
125.496
 21
16.708
 31
0.0
  0
LINE
  5
1F2
330
1F
100
AcDbEntity
  8
LAY-1
  6
CONTINUOUS
 62
     3
100
AcDbLine
 10
125.496
 20
16.708
 30
0.0
 11
125.806
 21
16.708
 31
0.0
  0
LINE
  5
1F3
330
1F
100
AcDbEntity
  8
LAY-1
  6
CONTINUOUS
 62
     3
100
AcDbLine
 10
125.806
 20
16.708
 30
0.0
 11
125.806
 21
16.388
 31
0.0
  0
LINE
  5
1F4
330
1F
100
AcDbEntity
  8
LAY-1
  6
CONTINUOUS
 62
     3
100
AcDbLine
 10
125.806
 20
16.388
 30
0.0
 11
124.4649702172
 21
16.388
 31
0.0
  0
LINE
  5
1F5
330
1F
100
AcDbEntity
  8
LAY-1
  6
CONTINUOUS
 62
     3
100
AcDbLine
 10
124.4649702172
 20
16.388
 30
0.0
 11
125.741777799
 21
12.88
 31
0.0
  0
LINE
  5
1F6
330
1F
100
AcDbEntity
  8
LAY-1
  6
CONTINUOUS
 62
     3
100
AcDbLine
 10
125.741777799
 20
12.88
 30
0.0
 11
124.8530311307
 21
12.88
 31
0.0
  0
LINE
  5
1F7
330
1F
100
AcDbEntity
  8
LAY-1
  6
CONTINUOUS
 62
     3
100
AcDbLine
 10
124.8530311307
 20
12.88
 30
0.0
 11
123.5762235489
 21
16.388
 31
0.0
  0
LINE
  5
1F8
330
1F
100
AcDbEntity
  8
LAY-1
  6
CONTINUOUS
 62
     3
100
AcDbLine
 10
123.5762235489
 20
16.388
 30
0.0
 11
120.326
 21
16.388
 31
0.0
  0
LINE
  5
1F9
330
1F
100
AcDbEntity
  8
LAY-1
  6
CONTINUOUS
 62
     3
100
AcDbLine
 10
120.326
 20
16.388
 30
0.0
 11
120.326
 21
16.708
 31
0.0
  0
LINE
  5
1FA
330
1F
100
AcDbEntity
  8
LAY-1
  6
CONTINUOUS
 62
     3
100
AcDbLine
 10
120.326
 20
16.708
 30
0.0
 11
123.459753074
 21
16.708
 31
0.0
  0
LINE
  5
1FB
330
1F
100
AcDbEntity
  8
LAY-1
  6
CONTINUOUS
 62
     3
100
AcDbLine
 10
123.459753074
 20
16.708
 30
0.0
 11
123.3097973374
 21
17.12
 31
0.0
  0
LINE
  5
1FC
330
1F
100
AcDbEntity
  8
LAY-1
  6
CONTINUOUS
 62
     3
100
AcDbLine
 10
123.3097973374
 20
17.12
 30
0.0
 11
124.1985440057
 21
17.12
 31
0.0
  0
LINE
  5
1FD
330
1F
100
AcDbEntity
  8
LAY-1
  6
CONTINUOUS
 62
     3
100
AcDbLine
 10
123.673975275
 20
16.558
 30
0.0
 11
123.5240195385
 21
16.97
 31
0.0
  0
LINE
  5
1FE
330
1F
100
AcDbEntity
  8
LAY-1
  6
CONTINUOUS
 62
     3
100
AcDbLine
 10
123.5240195385
 20
16.97
 30
0.0
 11
124.093512875
 21
16.97
 31
0.0
  0
LINE
  5
1FF
330
1F
100
AcDbEntity
  8
LAY-1
  6
CONTINUOUS
 62
     3
100
AcDbLine
 10
124.093512875
 20
16.97
 30
0.0
 11
124.2434686115
 21
16.558
 31
0.0
  0
LINE
  5
200
330
1F
100
AcDbEntity
  8
LAY-1
  6
CONTINUOUS
 62
     3
100
AcDbLine
 10
124.2434686115
 20
16.558
 30
0.0
 11
125.018
 21
16.558
 31
0.0
  0
LINE
  5
201
330
1F
100
AcDbEntity
  8
LAY-1
  6
CONTINUOUS
 62
     3
100
AcDbLine
 10
125.018
 20
16.558
 30
0.0
 11
125.018
 21
16.97
 31
0.0
  0
LINE
  5
202
330
1F
100
AcDbEntity
  8
LAY-1
  6
CONTINUOUS
 62
     3
100
AcDbLine
 10
125.018
 20
16.97
 30
0.0
 11
125.346
 21
16.97
 31
0.0
  0
LINE
  5
203
330
1F
100
AcDbEntity
  8
LAY-1
  6
CONTINUOUS
 62
     3
100
AcDbLine
 10
125.346
 20
16.97
 30
0.0
 11
125.346
 21
16.558
 31
0.0
  0
LINE
  5
204
330
1F
100
AcDbEntity
  8
LAY-1
  6
CONTINUOUS
 62
     3
100
AcDbLine
 10
125.346
 20
16.558
 30
0.0
 11
125.656
 21
16.558
 31
0.0
  0
LINE
  5
205
330
1F
100
AcDbEntity
  8
LAY-1
  6
CONTINUOUS
 62
     3
100
AcDbLine
 10
124.2507480162
 20
16.538
 30
0.0
 11
125.527555598
 21
13.03
 31
0.0
  0
LINE
  5
206
330
1F
100
AcDbEntity
  8
LAY-1
  6
CONTINUOUS
 62
     3
100
AcDbLine
 10
125.527555598
 20
13.03
 30
0.0
 11
124.9580622615
 21
13.03
 31
0.0
  0
LINE
  5
207
330
1F
100
AcDbEntity
  8
LAY-1
  6
CONTINUOUS
 62
     3
100
AcDbLine
 10
124.9580622615
 20
13.03
 30
0.0
 11
123.6812546797
 21
16.538
 31
0.0
  0
LINE
  5
208
330
1F
100
AcDbEntity
  8
LAY-1
  6
CONTINUOUS
 62
     3
100
AcDbLine
 10
120.476
 20
16.558
 30
0.0
 11
123.673975275
 21
16.558
 31
0.0
  0
LINE
  5
209
330
1F
100
AcDbEntity
  8
LAY-1
  6
CONTINUOUS
 62
     3
100
AcDbLine
 10
123.94
 20
16.77
 30
0.0
 11
125.27
 21
13.2
 31
0.0
  0
LINE
  5
20A
330
1F
100
AcDbEntity
  8
LAY-1
  6
CONTINUOUS
 62
     3
100
AcDbLine
 10
123.78
 20
16.78
 30
0.0
 11
125.07
 21
13.14
 31
0.0
  0
LINE
  5
20B
330
1F
100
AcDbEntity
  8
LAY-1
  6
CONTINUOUS
 62
     3
100
AcDbLine
 10
129.103
 20
17.21582615379
 30
0.0
 11
131.894
 21
16.28197061706
 31
0.0
  0
LINE
  5
20C
330
1F
100
AcDbEntity
  8
LAY-1
  6
CONTINUOUS
 62
     3
100
AcDbLine
 10
131.894
 20
16.28197061706
 30
0.0
 11
131.894
 21
15.94631830948
 31
0.0
  0
LINE
  5
20D
330
1F
100
AcDbEntity
  8
LAY-1
  6
CONTINUOUS
 62
     3
100
AcDbLine
 10
131.894
 20
15.94631830948
 30
0.0
 11
131.013
 21
16.24109678597
 31
0.0
  0
LINE
  5
20E
330
1F
100
AcDbEntity
  8
LAY-1
  6
CONTINUOUS
 62
     3
100
AcDbLine
 10
131.013
 20
16.24109678597
 30
0.0
 11
131.013
 21
15.666
 31
0.0
  0
LINE
  5
20F
330
1F
100
AcDbEntity
  8
LAY-1
  6
CONTINUOUS
 62
     3
100
AcDbLine
 10
131.013
 20
15.666
 30
0.0
 11
127.193
 21
15.666
 31
0.0
  0
LINE
  5
210
330
1F
100
AcDbEntity
  8
LAY-1
  6
CONTINUOUS
 62
     3
100
AcDbLine
 10
127.193
 20
15.666
 30
0.0
 11
127.193
 21
16.24109678597
 31
0.0
  0
LINE
  5
211
330
1F
100
AcDbEntity
  8
LAY-1
  6
CONTINUOUS
 62
     3
100
AcDbLine
 10
127.193
 20
16.24109678597
 30
0.0
 11
126.312
 21
15.94631830948
 31
0.0
  0
LINE
  5
212
330
1F
100
AcDbEntity
  8
LAY-1
  6
CONTINUOUS
 62
     3
100
AcDbLine
 10
126.312
 20
15.94631830948
 30
0.0
 11
126.312
 21
16.28197061706
 31
0.0
  0
LINE
  5
213
330
1F
100
AcDbEntity
  8
LAY-1
  6
CONTINUOUS
 62
     3
100
AcDbLine
 10
126.312
 20
16.28197061706
 30
0.0
 11
129.103
 21
17.21582615379
 31
0.0
  0
LINE
  5
214
330
1F
100
AcDbEntity
  8
LAY-1
  6
CONTINUOUS
 62
     3
100
AcDbLine
 10
127.3338969042
 20
16.28824023064
 30
0.0
 11
129.103
 21
16.88017384621
 31
0.0
  0
LINE
  5
215
330
1F
100
AcDbEntity
  8
LAY-1
  6
CONTINUOUS
 62
     3
100
AcDbLine
 10
129.103
 20
16.88017384621
 30
0.0
 11
130.9386526097
 21
16.26597307479
 31
0.0
  0
LINE
  5
216
330
1F
100
AcDbEntity
  8
LAY-1
  6
CONTINUOUS
 62
     3
100
AcDbLine
 10
130.8
 20
15.986
 30
0.0
 11
127.3
 21
15.986
 31
0.0
  0
LINE
  5
217
330
1F
100
AcDbEntity
  8
LAY-1
  6
CONTINUOUS
 62
     3
100
AcDbLine
 10
126.49
 20
16.16
 30
0.0
 11
129.13
 21
17.06
 31
0.0
  0
LINE
  5
218
330
1F
100
AcDbEntity
  8
LAY-1
  6
CONTINUOUS
 62
     3
100
AcDbLine
 10
129.12
 20
17.03
 30
0.0
 11
131.74
 21
16.16
 31
0.0
  0
LINE
  5
219
330
1F
100
AcDbEntity
  8
LAY-1
  6
CONTINUOUS
 62
     3
100
AcDbLine
 10
127.33
 20
15.8
 30
0.0
 11
130.86
 21
15.81
 31
0.0
  0
LINE
  5
21A
330
1F
100
AcDbEntity
  8
LAY-1
  6
CONTINUOUS
 62
     3
100
AcDbLine
 10
131.894
 20
14.954
 30
0.0
 11
131.894
 21
14.634
 31
0.0
  0
LINE
  5
21B
330
1F
100
AcDbEntity
  8
LAY-1
  6
CONTINUOUS
 62
     3
100
AcDbLine
 10
131.894
 20
14.634
 30
0.0
 11
130.990643531
 21
14.634
 31
0.0
  0
LINE
  5
21C
330
1F
100
AcDbEntity
  8
LAY-1
  6
CONTINUOUS
 62
     3
100
AcDbLine
 10
130.990643531
 20
14.634
 30
0.0
 11
131.8085471634
 21
12.88
 31
0.0
  0
LINE
  5
21D
330
1F
100
AcDbEntity
  8
LAY-1
  6
CONTINUOUS
 62
     3
100
AcDbLine
 10
131.8085471634
 20
12.88
 30
0.0
 11
126.3974528366
 21
12.88
 31
0.0
  0
LINE
  5
21E
330
1F
100
AcDbEntity
  8
LAY-1
  6
CONTINUOUS
 62
     3
100
AcDbLine
 10
126.3974528366
 20
12.88
 30
0.0
 11
127.215356469
 21
14.634
 31
0.0
  0
LINE
  5
21F
330
1F
100
AcDbEntity
  8
LAY-1
  6
CONTINUOUS
 62
     3
100
AcDbLine
 10
127.215356469
 20
14.634
 30
0.0
 11
126.312
 21
14.634
 31
0.0
  0
LINE
  5
220
330
1F
100
AcDbEntity
  8
LAY-1
  6
CONTINUOUS
 62
     3
100
AcDbLine
 10
126.312
 20
14.634
 30
0.0
 11
126.312
 21
14.954
 31
0.0
  0
LINE
  5
221
330
1F
100
AcDbEntity
  8
LAY-1
  6
CONTINUOUS
 62
     3
100
AcDbLine
 10
126.312
 20
14.954
 30
0.0
 11
131.894
 21
14.954
 31
0.0
  0
LINE
  5
222
330
1F
100
AcDbEntity
  8
LAY-1
  6
CONTINUOUS
 62
     3
100
AcDbLine
 10
126.462
 20
14.804
 30
0.0
 11
131.744
 21
14.804
 31
0.0
  0
LINE
  5
223
330
1F
100
AcDbEntity
  8
LAY-1
  6
CONTINUOUS
 62
     3
100
AcDbLine
 10
130.7551906945
 20
14.784
 30
0.0
 11
131.5730943269
 21
13.03
 31
0.0
  0
LINE
  5
224
330
1F
100
AcDbEntity
  8
LAY-1
  6
CONTINUOUS
 62
     3
100
AcDbLine
 10
131.5730943269
 20
13.03
 30
0.0
 11
126.6329056731
 21
13.03
 31
0.0
  0
LINE
  5
225
330
1F
100
AcDbEntity
  8
LAY-1
  6
CONTINUOUS
 62
     3
100
AcDbLine
 10
126.6329056731
 20
13.03
 30
0.0
 11
127.4508093055
 21
14.784
 31
0.0
  0
LINE
  5
226
330
1F
100
AcDbEntity
  8
LAY-1
  6
CONTINUOUS
 62
     3
100
AcDbLine
 10
128.0232323452
 20
14.634
 30
0.0
 11
130.1827676548
 21
14.634
 31
0.0
  0
LINE
  5
227
330
1F
100
AcDbEntity
  8
LAY-1
  6
CONTINUOUS
 62
     3
100
AcDbLine
 10
130.1827676548
 20
14.634
 30
0.0
 11
130.8514528366
 21
13.2
 31
0.0
  0
LINE
  5
228
330
1F
100
AcDbEntity
  8
LAY-1
  6
CONTINUOUS
 62
     3
100
AcDbLine
 10
130.8514528366
 20
13.2
 30
0.0
 11
127.3545471634
 21
13.2
 31
0.0
  0
LINE
  5
229
330
1F
100
AcDbEntity
  8
LAY-1
  6
CONTINUOUS
 62
     3
100
AcDbLine
 10
127.3545471634
 20
13.2
 30
0.0
 11
128.0232323452
 21
14.634
 31
0.0
  0
LINE
  5
22A
330
1F
100
AcDbEntity
  8
LAY-1
  6
CONTINUOUS
 62
     3
100
AcDbLine
 10
127.61
 20
14.64
 30
0.0
 11
126.94
 21
13.22
 31
0.0
  0
LINE
  5
22B
330
1F
100
AcDbEntity
  8
LAY-1
  6
CONTINUOUS
 62
     3
100
AcDbLine
 10
127.85
 20
14.66
 30
0.0
 11
127.19
 21
13.22
 31
0.0
  0
LINE
  5
22C
330
1F
100
AcDbEntity
  8
LAY-1
  6
CONTINUOUS
 62
     3
100
AcDbLine
 10
130.37
 20
14.63
 30
0.0
 11
131.07
 21
13.17
 31
0.0
  0
LINE
  5
22D
330
1F
100
AcDbEntity
  8
LAY-1
  6
CONTINUOUS
 62
     3
100
AcDbLine
 10
130.63
 20
14.63
 30
0.0
 11
131.32
 21
13.14
 31
0.0
  0
LINE
  5
22E
330
1F
100
AcDbEntity
  8
LAY-1
  6
CONTINUOUS
 62
     3
100
AcDbLine
 10
134.062
 20
17.12
 30
0.0
 11
134.062
 21
16.708
 31
0.0
  0
LINE
  5
22F
330
1F
100
AcDbEntity
  8
LAY-1
  6
CONTINUOUS
 62
     3
100
AcDbLine
 10
134.062
 20
16.708
 30
0.0
 11
134.8543093987
 21
16.708
 31
0.0
  0
LINE
  5
230
330
1F
100
AcDbEntity
  8
LAY-1
  6
CONTINUOUS
 62
     3
100
AcDbLine
 10
134.8543093987
 20
16.708
 30
0.0
 11
133.833746415
 21
15.25048500907
 31
0.0
  0
LINE
  5
231
330
1F
100
AcDbEntity
  8
LAY-1
  6
CONTINUOUS
 62
     3
100
AcDbLine
 10
133.833746415
 20
15.25048500907
 30
0.0
 11
134.888
 21
14.51228870165
 31
0.0
  0
LINE
  5
232
330
1F
100
AcDbEntity
  8
LAY-1
  6
CONTINUOUS
 62
     3
100
AcDbLine
 10
134.888
 20
14.51228870165
 30
0.0
 11
134.888
 21
13.76509724274
 31
0.0
  0
LINE
  5
233
330
1F
100
AcDbEntity
  8
LAY-1
  6
CONTINUOUS
 62
     3
100
AcDbLine
 10
134.888
 20
13.76509724274
 30
0.0
 11
134.062
 21
14.3434686693
 31
0.0
  0
LINE
  5
234
330
1F
100
AcDbEntity
  8
LAY-1
  6
CONTINUOUS
 62
     3
100
AcDbLine
 10
134.062
 20
14.3434686693
 30
0.0
 11
134.062
 21
12.88
 31
0.0
  0
LINE
  5
235
330
1F
100
AcDbEntity
  8
LAY-1
  6
CONTINUOUS
 62
     3
100
AcDbLine
 10
134.062
 20
12.88
 30
0.0
 11
133.33
 21
12.88
 31
0.0
  0
LINE
  5
236
330
1F
100
AcDbEntity
  8
LAY-1
  6
CONTINUOUS
 62
     3
100
AcDbLine
 10
133.33
 20
12.88
 30
0.0
 11
133.33
 21
14.53106057061
 31
0.0
  0
LINE
  5
237
330
1F
100
AcDbEntity
  8
LAY-1
  6
CONTINUOUS
 62
     3
100
AcDbLine
 10
133.33
 20
14.53106057061
 30
0.0
 11
132.402
 21
13.20573922035
 31
0.0
  0
LINE
  5
238
330
1F
100
AcDbEntity
  8
LAY-1
  6
CONTINUOUS
 62
     3
100
AcDbLine
 10
132.402
 20
13.20573922035
 30
0.0
 11
132.402
 21
14.30270518167
 31
0.0
  0
LINE
  5
239
330
1F
100
AcDbEntity
  8
LAY-1
  6
CONTINUOUS
 62
     3
100
AcDbLine
 10
132.402
 20
14.30270518167
 30
0.0
 11
133.8621391512
 21
16.388
 31
0.0
  0
LINE
  5
23A
330
1F
100
AcDbEntity
  8
LAY-1
  6
CONTINUOUS
 62
     3
100
AcDbLine
 10
133.8621391512
 20
16.388
 30
0.0
 11
132.402
 21
16.388
 31
0.0
  0
LINE
  5
23B
330
1F
100
AcDbEntity
  8
LAY-1
  6
CONTINUOUS
 62
     3
100
AcDbLine
 10
132.402
 20
16.388
 30
0.0
 11
132.402
 21
16.708
 31
0.0
  0
LINE
  5
23C
330
1F
100
AcDbEntity
  8
LAY-1
  6
CONTINUOUS
 62
     3
100
AcDbLine
 10
132.402
 20
16.708
 30
0.0
 11
133.33
 21
16.708
 31
0.0
  0
LINE
  5
23D
330
1F
100
AcDbEntity
  8
LAY-1
  6
CONTINUOUS
 62
     3
100
AcDbLine
 10
133.33
 20
16.708
 30
0.0
 11
133.33
 21
17.12
 31
0.0
  0
LINE
  5
23E
330
1F
100
AcDbEntity
  8
LAY-1
  6
CONTINUOUS
 62
     3
100
AcDbLine
 10
133.33
 20
17.12
 30
0.0
 11
134.062
 21
17.12
 31
0.0
  0
LINE
  5
23F
330
1F
100
AcDbEntity
  8
LAY-1
  6
CONTINUOUS
 62
     3
100
AcDbLine
 10
133.912
 20
16.97
 30
0.0
 11
133.912
 21
16.558
 31
0.0
  0
LINE
  5
240
330
1F
100
AcDbEntity
  8
LAY-1
  6
CONTINUOUS
 62
     3
100
AcDbLine
 10
133.912
 20
16.558
 30
0.0
 11
134.5661620796
 21
16.558
 31
0.0
  0
LINE
  5
241
330
1F
100
AcDbEntity
  8
LAY-1
  6
CONTINUOUS
 62
     3
100
AcDbLine
 10
134.5661620796
 20
16.558
 30
0.0
 11
133.6248371429
 21
15.21364866788
 31
0.0
  0
LINE
  5
242
330
1F
100
AcDbEntity
  8
LAY-1
  6
CONTINUOUS
 62
     3
100
AcDbLine
 10
133.6248371429
 20
15.21364866788
 30
0.0
 11
134.738
 21
14.43420364407
 31
0.0
  0
LINE
  5
243
330
1F
100
AcDbEntity
  8
LAY-1
  6
CONTINUOUS
 62
     3
100
AcDbLine
 10
134.738
 20
14.43420364407
 30
0.0
 11
134.738
 21
14.05324456179
 31
0.0
  0
LINE
  5
244
330
1F
100
AcDbEntity
  8
LAY-1
  6
CONTINUOUS
 62
     3
100
AcDbLine
 10
134.738
 20
14.05324456179
 30
0.0
 11
133.912
 21
14.63161598835
 31
0.0
  0
LINE
  5
245
330
1F
100
AcDbEntity
  8
LAY-1
  6
CONTINUOUS
 62
     3
100
AcDbLine
 10
133.912
 20
14.63161598835
 30
0.0
 11
133.912
 21
13.03
 31
0.0
  0
LINE
  5
246
330
1F
100
AcDbEntity
  8
LAY-1
  6
CONTINUOUS
 62
     3
100
AcDbLine
 10
133.912
 20
13.03
 30
0.0
 11
133.48
 21
13.03
 31
0.0
  0
LINE
  5
247
330
1F
100
AcDbEntity
  8
LAY-1
  6
CONTINUOUS
 62
     3
100
AcDbLine
 10
133.48
 20
13.03
 30
0.0
 11
133.48
 21
15.00679979097
 31
0.0
  0
LINE
  5
248
330
1F
100
AcDbEntity
  8
LAY-1
  6
CONTINUOUS
 62
     3
100
AcDbLine
 10
133.48
 20
15.00679979097
 30
0.0
 11
132.552
 21
13.68147844071
 31
0.0
  0
LINE
  5
249
330
1F
100
AcDbEntity
  8
LAY-1
  6
CONTINUOUS
 62
     3
100
AcDbLine
 10
132.552
 20
13.68147844071
 30
0.0
 11
132.552
 21
14.25541036334
 31
0.0
  0
LINE
  5
24A
330
1F
100
AcDbEntity
  8
LAY-1
  6
CONTINUOUS
 62
     3
100
AcDbLine
 10
132.552
 20
14.25541036334
 30
0.0
 11
134.1502864702
 21
16.538
 31
0.0
  0
LINE
  5
24B
330
1F
100
AcDbEntity
  8
LAY-1
  6
CONTINUOUS
 62
     3
100
AcDbLine
 10
132.552
 20
16.558
 30
0.0
 11
133.48
 21
16.558
 31
0.0
  0
LINE
  5
24C
330
1F
100
AcDbEntity
  8
LAY-1
  6
CONTINUOUS
 62
     3
100
AcDbLine
 10
133.48
 20
16.558
 30
0.0
 11
133.48
 21
16.97
 31
0.0
  0
LINE
  5
24D
330
1F
100
AcDbEntity
  8
LAY-1
  6
CONTINUOUS
 62
     3
100
AcDbLine
 10
133.48
 20
16.97
 30
0.0
 11
133.912
 21
16.97
 31
0.0
  0
LINE
  5
24E
330
1F
100
AcDbEntity
  8
LAY-1
  6
CONTINUOUS
 62
     3
100
AcDbLine
 10
133.66
 20
16.82
 30
0.0
 11
133.66
 21
16.54
 31
0.0
  0
LINE
  5
24F
330
1F
100
AcDbEntity
  8
LAY-1
  6
CONTINUOUS
 62
     3
100
AcDbLine
 10
133.69
 20
14.81
 30
0.0
 11
133.69
 21
13.2
 31
0.0
  0
LINE
  5
250
330
1F
100
AcDbEntity
  8
LAY-1
  6
CONTINUOUS
 62
     3
100
AcDbLine
 10
134.2
 20
16.36
 30
0.0
 11
132.69
 21
14.18
 31
0.0
  0
LINE
  5
251
330
1F
100
AcDbEntity
  8
LAY-1
  6
CONTINUOUS
 62
     3
100
AcDbLine
 10
133.52
 20
15.11
 30
0.0
 11
134.6
 21
14.35
 31
0.0
  0
LINE
  5
252
330
1F
100
AcDbEntity
  8
LAY-1
  6
CONTINUOUS
 62
     3
100
AcDbLine
 10
136.118
 20
17.12
 30
0.0
 11
136.85
 21
17.12
 31
0.0
  0
LINE
  5
253
330
1F
100
AcDbEntity
  8
LAY-1
  6
CONTINUOUS
 62
     3
100
AcDbLine
 10
136.85
 20
17.12
 30
0.0
 11
136.85
 21
15.986
 31
0.0
  0
LINE
  5
254
330
1F
100
AcDbEntity
  8
LAY-1
  6
CONTINUOUS
 62
     3
100
AcDbLine
 10
136.85
 20
15.986
 30
0.0
 11
137.78
 21
15.986
 31
0.0
  0
LINE
  5
255
330
1F
100
AcDbEntity
  8
LAY-1
  6
CONTINUOUS
 62
     3
100
AcDbLine
 10
137.78
 20
15.986
 30
0.0
 11
137.78
 21
15.666
 31
0.0
  0
LINE
  5
256
330
1F
100
AcDbEntity
  8
LAY-1
  6
CONTINUOUS
 62
     3
100
AcDbLine
 10
137.78
 20
15.666
 30
0.0
 11
136.85
 21
15.666
 31
0.0
  0
LINE
  5
257
330
1F
100
AcDbEntity
  8
LAY-1
  6
CONTINUOUS
 62
     3
100
AcDbLine
 10
136.85
 20
15.666
 30
0.0
 11
136.85
 21
13.2
 31
0.0
  0
LINE
  5
258
330
1F
100
AcDbEntity
  8
LAY-1
  6
CONTINUOUS
 62
     3
100
AcDbLine
 10
136.85
 20
13.2
 30
0.0
 11
137.882
 21
13.2
 31
0.0
  0
LINE
  5
259
330
1F
100
AcDbEntity
  8
LAY-1
  6
CONTINUOUS
 62
     3
100
AcDbLine
 10
137.882
 20
13.2
 30
0.0
 11
137.882
 21
12.88
 31
0.0
  0
LINE
  5
25A
330
1F
100
AcDbEntity
  8
LAY-1
  6
CONTINUOUS
 62
     3
100
AcDbLine
 10
137.882
 20
12.88
 30
0.0
 11
134.776
 21
12.88
 31
0.0
  0
LINE
  5
25B
330
1F
100
AcDbEntity
  8
LAY-1
  6
CONTINUOUS
 62
     3
100
AcDbLine
 10
134.776
 20
12.88
 30
0.0
 11
134.776
 21
13.2
 31
0.0
  0
LINE
  5
25C
330
1F
100
AcDbEntity
  8
LAY-1
  6
CONTINUOUS
 62
     3
100
AcDbLine
 10
134.776
 20
13.2
 30
0.0
 11
136.118
 21
13.2
 31
0.0
  0
LINE
  5
25D
330
1F
100
AcDbEntity
  8
LAY-1
  6
CONTINUOUS
 62
     3
100
AcDbLine
 10
136.118
 20
13.2
 30
0.0
 11
136.118
 21
15.666
 31
0.0
  0
LINE
  5
25E
330
1F
100
AcDbEntity
  8
LAY-1
  6
CONTINUOUS
 62
     3
100
AcDbLine
 10
136.118
 20
15.666
 30
0.0
 11
135.188
 21
15.666
 31
0.0
  0
LINE
  5
25F
330
1F
100
AcDbEntity
  8
LAY-1
  6
CONTINUOUS
 62
     3
100
AcDbLine
 10
135.188
 20
15.666
 30
0.0
 11
135.188
 21
15.986
 31
0.0
  0
LINE
  5
260
330
1F
100
AcDbEntity
  8
LAY-1
  6
CONTINUOUS
 62
     3
100
AcDbLine
 10
135.188
 20
15.986
 30
0.0
 11
136.118
 21
15.986
 31
0.0
  0
LINE
  5
261
330
1F
100
AcDbEntity
  8
LAY-1
  6
CONTINUOUS
 62
     3
100
AcDbLine
 10
136.118
 20
15.986
 30
0.0
 11
136.118
 21
17.12
 31
0.0
  0
LINE
  5
262
330
1F
100
AcDbEntity
  8
LAY-1
  6
CONTINUOUS
 62
     3
100
AcDbLine
 10
136.7
 20
16.97
 30
0.0
 11
136.7
 21
15.836
 31
0.0
  0
LINE
  5
263
330
1F
100
AcDbEntity
  8
LAY-1
  6
CONTINUOUS
 62
     3
100
AcDbLine
 10
136.7
 20
15.836
 30
0.0
 11
137.63
 21
15.836
 31
0.0
  0
LINE
  5
264
330
1F
100
AcDbEntity
  8
LAY-1
  6
CONTINUOUS
 62
     3
100
AcDbLine
 10
136.7
 20
15.816
 30
0.0
 11
136.7
 21
13.05
 31
0.0
  0
LINE
  5
265
330
1F
100
AcDbEntity
  8
LAY-1
  6
CONTINUOUS
 62
     3
100
AcDbLine
 10
137.732
 20
13.03
 30
0.0
 11
134.926
 21
13.03
 31
0.0
  0
LINE
  5
266
330
1F
100
AcDbEntity
  8
LAY-1
  6
CONTINUOUS
 62
     3
100
AcDbLine
 10
136.268
 20
13.05
 30
0.0
 11
136.268
 21
15.816
 31
0.0
  0
LINE
  5
267
330
1F
100
AcDbEntity
  8
LAY-1
  6
CONTINUOUS
 62
     3
100
AcDbLine
 10
135.338
 20
15.836
 30
0.0
 11
136.268
 21
15.836
 31
0.0
  0
LINE
  5
268
330
1F
100
AcDbEntity
  8
LAY-1
  6
CONTINUOUS
 62
     3
100
AcDbLine
 10
136.268
 20
15.836
 30
0.0
 11
136.268
 21
16.97
 31
0.0
  0
LINE
  5
269
330
1F
100
AcDbEntity
  8
LAY-1
  6
CONTINUOUS
 62
     3
100
AcDbLine
 10
136.268
 20
16.97
 30
0.0
 11
136.7
 21
16.97
 31
0.0
  0
LINE
  5
26A
330
1F
100
AcDbEntity
  8
LAY-1
  6
CONTINUOUS
 62
     3
100
AcDbLine
 10
136.47
 20
16.81
 30
0.0
 11
136.47
 21
13.18
 31
0.0
  0
LINE
  5
26B
330
1F
100
AcDbEntity
  8
LAY-1
  6
CONTINUOUS
 62
     3
100
AcDbLine
 10
110.56
 20
15.52
 30
0.0
 11
111.48
 21
15.52
 31
0.0
  0
LINE
  5
26C
330
1F
100
AcDbEntity
  8
LAY-1
  6
CONTINUOUS
 62
     3
100
AcDbLine
 10
116.18
 20
16.388
 30
0.0
 11
116.03
 21
16.388
 31
0.0
  0
LINE
  5
26D
330
1F
100
AcDbEntity
  8
LAY-1
  6
CONTINUOUS
 62
     3
100
AcDbLine
 10
115.23
 20
16.388
 30
0.0
 11
114.26
 21
16.388
 31
0.0
  0
LINE
  5
26E
330
1F
100
AcDbEntity
  8
LAY-1
  6
CONTINUOUS
 62
     3
100
AcDbLine
 10
119.77
 20
16.388
 30
0.0
 11
118.8
 21
16.388
 31
0.0
  0
LINE
  5
26F
330
1F
100
AcDbEntity
  8
LAY-1
  6
CONTINUOUS
 62
     3
100
AcDbLine
 10
117.81
 20
16.388
 30
0.0
 11
117.32
 21
16.388
 31
0.0
  0
LINE
  5
270
330
1F
100
AcDbEntity
  8
LAY-1
  6
CONTINUOUS
 62
     3
100
AcDbLine
 10
116.58
 20
15.356
 30
0.0
 11
117.76
 21
15.356
 31
0.0
  0
LINE
  5
271
330
1F
100
AcDbEntity
  8
LAY-1
  6
CONTINUOUS
 62
     3
100
AcDbLine
 10
118.74
 20
15.356
 30
0.0
 11
119.78
 21
15.356
 31
0.0
  0
TEXT
  5
272
330
1F
100
AcDbEntity
  8
LAY-1
  6
CONTINUOUS
 62
     2
100
AcDbText
 10
142.5
 20
19.29999995231628
 30
0.0
 40
3.283636327223344
  1
図番
  7
EXCADVERT
 72
     3
 11
142.5
 21
10.70000004768372
 31
0.0
100
AcDbText
  0
TEXT
  5
273
330
1F
100
AcDbEntity
  8
LAY-1
  6
CONTINUOUS
 62
     2
100
AcDbText
 10
184.5
 20
30.79999995231628
 30
0.0
 40
3.665454509041526
  1
尺度
  7
EXCADVERT
 72
     3
 11
184.5
 21
21.20000004768372
 31
0.0
100
AcDbText
  0
TEXT
  5
274
330
1F
100
AcDbEntity
  8
LAY-1
  6
CONTINUOUS
 62
     2
100
AcDbText
 10
142.5
 20
30.79999995231628
 30
0.0
 40
3.665454509041526
  1
品番
  7
EXCADVERT
 72
     3
 11
142.5
 21
21.20000004768372
 31
0.0
100
AcDbText
  0
TEXT
  5
275
330
1F
100
AcDbEntity
  8
LAY-1
  6
CONTINUOUS
 62
     2
100
AcDbText
 10
187.2692592593
 20
26.99
 30
0.0
 40
4.0
  1
１
 41
1.4
  7
EXCADSTD
 72
     5
 11
191.2692592593
 21
26.99
 31
0.0
100
AcDbText
  0
TEXT
  5
276
330
1F
100
AcDbEntity
  8
LAY-1
  6
CONTINUOUS
 62
     2
100
AcDbText
 10
72.00000000000003
 20
281.5
 30
0.0
 40
4.0
  1
番号
 41
1.312404545454545
  7
EXCADSTD
 72
     5
 11
80.24940000000002
 21
281.5
 31
0.0
100
AcDbText
  0
TEXT
  5
277
330
1F
100
AcDbEntity
  8
LAY-1
  6
CONTINUOUS
 62
     2
100
AcDbText
 10
88.50000000000003
 20
281.5
 30
0.0
 40
4.0
  1
品名
 41
2.478986363636364
  7
EXCADSTD
 72
     5
 11
104.0822
 21
281.5
 31
0.0
100
AcDbText
  0
TEXT
  5
278
330
1F
100
AcDbEntity
  8
LAY-1
  6
CONTINUOUS
 62
     2
100
AcDbText
 10
163.0
 20
281.5
 30
0.0
 40
4.0
  1
個数
 41
1.312404545454547
  7
EXCADSTD
 72
     5
 11
171.2494
 21
281.5
 31
0.0
100
AcDbText
  0
TEXT
  5
279
330
1F
100
AcDbEntity
  8
LAY-1
  6
CONTINUOUS
 62
     2
100
AcDbText
 10
177.5
 20
281.5
 30
0.0
 40
4.0
  1
備考
 41
2.333163636363639
  7
EXCADSTD
 72
     5
 11
192.1656
 21
281.5
 31
0.0
100
AcDbText
  0
TEXT
  5
27A
330
1F
100
AcDbEntity
  8
LAY-1
  6
CONTINUOUS
 62
     2
100
AcDbText
 10
74.00000000000003
 20
276.5
 30
0.0
 40
4.0
  1
１
 41
1.4
  7
EXCADSTD
 72
     5
 11
78.00000000000003
 21
276.5
 31
0.0
100
AcDbText
  0
TEXT
  5
27B
330
1F
100
AcDbEntity
  8
LAY-1
  6
CONTINUOUS
 62
     2
100
AcDbText
 10
74.00000000000003
 20
271.5
 30
0.0
 40
4.0
  1
２
 41
1.4
  7
EXCADSTD
 72
     5
 11
78.00000000000003
 21
271.5
 31
0.0
100
AcDbText
  0
TEXT
  5
27C
330
1F
100
AcDbEntity
  8
LAY-1
  6
CONTINUOUS
 62
     2
100
AcDbText
 10
74.00000000000003
 20
266.5
 30
0.0
 40
4.0
  1
３
 41
1.4
  7
EXCADSTD
 72
     5
 11
78.00000000000003
 21
266.5
 31
0.0
100
AcDbText
  0
TEXT
  5
27D
330
1F
100
AcDbEntity
  8
LAY-1
  6
CONTINUOUS
 62
     2
100
AcDbText
 10
165.0
 20
276.5
 30
0.0
 40
4.0
  1
１
 41
1.4
  7
EXCADSTD
 72
     5
 11
169.0
 21
276.5
 31
0.0
100
AcDbText
  0
TEXT
  5
27E
330
1F
100
AcDbEntity
  8
LAY-1
  6
CONTINUOUS
 62
     2
100
AcDbText
 10
165.0
 20
271.5
 30
0.0
 40
4.0
  1
１
 41
1.4
  7
EXCADSTD
 72
     5
 11
169.0
 21
271.5
 31
0.0
100
AcDbText
  0
TEXT
  5
27F
330
1F
100
AcDbEntity
  8
LAY-1
  6
CONTINUOUS
 62
     2
100
AcDbText
 10
165.0
 20
266.5
 30
0.0
 40
4.0
  1
１
 41
1.4
  7
EXCADSTD
 72
     5
 11
169.0
 21
266.5
 31
0.0
100
AcDbText
  0
LINE
  5
280
330
1F
100
AcDbEntity
  8
LAY-1
  6
CONTINUOUS
 62
     6
100
AcDbLine
 10
76.0
 20
27.0
 30
0.0
 11
20.0
 21
27.0
 31
0.0
  0
LINE
  5
281
330
1F
100
AcDbEntity
  8
LAY-1
  6
CONTINUOUS
 62
     6
100
AcDbLine
 10
35.0
 20
10.0
 30
0.0
 11
35.0
 21
32.0
 31
0.0
  0
LINE
  5
282
330
1F
100
AcDbEntity
  8
LAY-1
  6
CONTINUOUS
 62
     6
100
AcDbLine
 10
50.0
 20
10.0
 30
0.0
 11
50.0
 21
32.0
 31
0.0
  0
LINE
  5
283
330
1F
100
AcDbEntity
  8
LAY-1
  6
CONTINUOUS
 62
     6
100
AcDbLine
 10
63.0
 20
10.0
 30
0.0
 11
63.0
 21
32.0
 31
0.0
  0
LINE
  5
284
330
1F
100
AcDbEntity
  8
LAY-1
  6
CONTINUOUS
 62
     6
100
AcDbLine
 10
76.0
 20
10.0
 30
0.0
 11
76.0
 21
32.0
 31
0.0
  0
LINE
  5
285
330
1F
100
AcDbEntity
  8
LAY-1
  6
CONTINUOUS
 62
     6
100
AcDbLine
 10
76.0
 20
20.0
 30
0.0
 11
198.0
 21
20.0
 31
0.0
  0
LINE
  5
286
330
1F
100
AcDbEntity
  8
LAY-1
  6
CONTINUOUS
 62
     6
100
AcDbLine
 10
182.0
 20
20.0
 30
0.0
 11
182.0
 21
32.0
 31
0.0
  0
LINE
  5
287
330
1F
100
AcDbEntity
  8
LAY-1
  6
CONTINUOUS
 62
     6
100
AcDbLine
 10
81.0
 20
20.0
 30
0.0
 11
81.0
 21
32.0
 31
0.0
  0
LINE
  5
288
330
1F
100
AcDbEntity
  8
LAY-1
  6
EXLTYPE2
 62
     6
100
AcDbLine
 10
20.0
 20
15.0
 30
0.0
 11
76.0
 21
15.0
 31
0.0
  0
LINE
  5
289
330
1F
100
AcDbEntity
  8
LAY-1
  6
CONTINUOUS
 62
     6
100
AcDbLine
 10
196.9
 20
29.8125
 30
0.0
 11
188.1
 21
22.3875
 31
0.0
  0
LINE
  5
28A
330
1F
100
AcDbEntity
  8
LAY-1
  6
CONTINUOUS
 62
     6
100
AcDbLine
 10
84.056
 20
16.136
 30
0.0
 11
84.056
 21
15.414
 31
0.0
  0
LINE
  5
28B
330
1F
100
AcDbEntity
  8
LAY-1
  6
CONTINUOUS
 62
     6
100
AcDbLine
 10
88.908
 20
13.762
 30
0.0
 11
88.908
 21
12.73
 31
0.0
  0
LINE
  5
28C
330
1F
100
AcDbEntity
  8
LAY-1
  6
CONTINUOUS
 62
     6
100
AcDbLine
 10
95.096
 20
13.762
 30
0.0
 11
95.096
 21
12.73
 31
0.0
  0
LINE
  5
28D
330
1F
100
AcDbEntity
  8
LAY-1
  6
CONTINUOUS
 62
     6
100
AcDbLine
 10
102.22
 20
13.556
 30
0.0
 11
102.22
 21
12.73
 31
0.0
  0
LINE
  5
28E
330
1F
100
AcDbEntity
  8
LAY-1
  6
CONTINUOUS
 62
     6
100
AcDbLine
 10
120.176
 20
16.858
 30
0.0
 11
120.176
 21
16.238
 31
0.0
  0
LINE
  5
28F
330
1F
100
AcDbEntity
  8
LAY-1
  6
CONTINUOUS
 62
     6
100
AcDbLine
 10
83.748
 20
17.27
 30
0.0
 11
83.748
 21
16.428
 31
0.0
  0
LINE
  5
290
330
1F
100
AcDbEntity
  8
LAY-1
  6
CONTINUOUS
 62
     6
100
AcDbLine
 10
77.968
 20
15.102
 30
0.0
 11
80.858
 21
15.102
 31
0.0
  0
LINE
  5
291
330
1F
100
AcDbEntity
  8
LAY-1
  6
CONTINUOUS
 62
     6
100
AcDbLine
 10
77.968
 20
15.944
 30
0.0
 11
80.858
 21
15.944
 31
0.0
  0
LINE
  5
292
330
1F
100
AcDbEntity
  8
LAY-1
  6
CONTINUOUS
 62
     6
100
AcDbLine
 10
77.968
 20
13.762
 30
0.0
 11
80.80998075007
 21
13.762
 31
0.0
  0
LINE
  5
293
330
1F
100
AcDbEntity
  8
LAY-1
  6
CONTINUOUS
 62
     6
100
AcDbLine
 10
82.922
 20
17.27
 30
0.0
 11
82.922
 21
16.428
 31
0.0
  0
LINE
  5
294
330
1F
100
AcDbEntity
  8
LAY-1
  6
CONTINUOUS
 62
     6
100
AcDbLine
 10
81.788
 20
17.27
 30
0.0
 11
81.788
 21
16.428
 31
0.0
  0
LINE
  5
295
330
1F
100
AcDbEntity
  8
LAY-1
  6
CONTINUOUS
 62
     6
100
AcDbLine
 10
82.614
 20
17.27
 30
0.0
 11
82.614
 21
16.428
 31
0.0
  0
LINE
  5
296
330
1F
100
AcDbEntity
  8
LAY-1
  6
CONTINUOUS
 62
     6
100
AcDbLine
 10
83.748
 20
16.136
 30
0.0
 11
82.484
 21
16.136
 31
0.0
  0
LINE
  5
297
330
1F
100
AcDbEntity
  8
LAY-1
  6
CONTINUOUS
 62
     6
100
AcDbLine
 10
83.748
 20
16.136
 30
0.0
 11
82.59573488552
 21
13.77350640927
 31
0.0
  0
LINE
  5
298
330
1F
100
AcDbEntity
  8
LAY-1
  6
CONTINUOUS
 62
     6
100
AcDbLine
 10
82.484
 20
16.136
 30
0.0
 11
81.55238463231
 21
14.22590543275
 31
0.0
  0
ARC
  5
299
330
1F
100
AcDbEntity
  8
LAY-1
  6
CONTINUOUS
 62
     6
100
AcDbCircle
 10
80.9257755475
 20
14.588
 30
0.0
 40
1.858
100
AcDbArc
 50
270.0000000000001
 51
334.0000000000001
  0
ARC
  5
29A
330
1F
100
AcDbEntity
  8
LAY-1
  6
CONTINUOUS
 62
     6
100
AcDbCircle
 10
80.80998075007
 20
14.588
 30
0.0
 40
0.8260000000000001
100
AcDbArc
 50
270.0000000000001
 51
334.0000000000001
  0
LINE
  5
29B
330
1F
100
AcDbEntity
  8
LAY-1
  6
CONTINUOUS
 62
     6
100
AcDbLine
 10
77.968
 20
17.27
 30
0.0
 11
77.968
 21
16.428
 31
0.0
  0
LINE
  5
29C
330
1F
100
AcDbEntity
  8
LAY-1
  6
CONTINUOUS
 62
     6
100
AcDbLine
 10
77.968
 20
15.944
 30
0.0
 11
77.968
 21
15.102
 31
0.0
  0
LINE
  5
29D
330
1F
100
AcDbEntity
  8
LAY-1
  6
CONTINUOUS
 62
     6
100
AcDbLine
 10
77.968
 20
13.762
 30
0.0
 11
77.968
 21
12.73
 31
0.0
  0
LINE
  5
29E
330
1F
100
AcDbEntity
  8
LAY-1
  6
CONTINUOUS
 62
     6
100
AcDbLine
 10
82.922
 20
17.27
 30
0.0
 11
83.748
 21
17.27
 31
0.0
  0
LINE
  5
29F
330
1F
100
AcDbEntity
  8
LAY-1
  6
CONTINUOUS
 62
     6
100
AcDbLine
 10
77.968
 20
17.27
 30
0.0
 11
80.858
 21
17.27
 31
0.0
  0
LINE
  5
2A0
330
1F
100
AcDbEntity
  8
LAY-1
  6
CONTINUOUS
 62
     6
100
AcDbLine
 10
81.788
 20
17.27
 30
0.0
 11
82.614
 21
17.27
 31
0.0
  0
LINE
  5
2A1
330
1F
100
AcDbEntity
  8
LAY-1
  6
CONTINUOUS
 62
     6
100
AcDbLine
 10
77.968
 20
16.428
 30
0.0
 11
80.858
 21
16.428
 31
0.0
  0
LINE
  5
2A2
330
1F
100
AcDbEntity
  8
LAY-1
  6
CONTINUOUS
 62
     6
100
AcDbLine
 10
81.788
 20
16.428
 30
0.0
 11
82.614
 21
16.428
 31
0.0
  0
LINE
  5
2A3
330
1F
100
AcDbEntity
  8
LAY-1
  6
CONTINUOUS
 62
     6
100
AcDbLine
 10
82.922
 20
16.428
 30
0.0
 11
83.748
 21
16.428
 31
0.0
  0
LINE
  5
2A4
330
1F
100
AcDbEntity
  8
LAY-1
  6
CONTINUOUS
 62
     6
100
AcDbLine
 10
80.858
 20
17.27
 30
0.0
 11
80.858
 21
16.428
 31
0.0
  0
LINE
  5
2A5
330
1F
100
AcDbEntity
  8
LAY-1
  6
CONTINUOUS
 62
     6
100
AcDbLine
 10
80.858
 20
15.944
 30
0.0
 11
80.858
 21
15.102
 31
0.0
  0
LINE
  5
2A6
330
1F
100
AcDbEntity
  8
LAY-1
  6
CONTINUOUS
 62
     6
100
AcDbLine
 10
77.968
 20
12.73
 30
0.0
 11
80.9257755475
 21
12.73
 31
0.0
  0
LINE
  5
2A7
330
1F
100
AcDbEntity
  8
LAY-1
  6
CONTINUOUS
 62
     6
100
AcDbLine
 10
84.882
 20
16.858
 30
0.0
 11
86.032
 21
16.858
 31
0.0
  0
LINE
  5
2A8
330
1F
100
AcDbEntity
  8
LAY-1
  6
CONTINUOUS
 62
     6
100
AcDbLine
 10
89.01
 20
16.136
 30
0.0
 11
88.41088767062
 21
14.79037167652
 31
0.0
  0
LINE
  5
2A9
330
1F
100
AcDbEntity
  8
LAY-1
  6
CONTINUOUS
 62
     6
100
AcDbLine
 10
86.8188001278
 20
13.872
 30
0.0
 11
86.99671930219
 21
13.872
 31
0.0
  0
LINE
  5
2AA
330
1F
100
AcDbEntity
  8
LAY-1
  6
CONTINUOUS
 62
     6
100
AcDbLine
 10
87.446
 20
15.414
 30
0.0
 11
87.25358252771
 21
14.98182328129
 31
0.0
  0
LINE
  5
2AB
330
1F
100
AcDbEntity
  8
LAY-1
  6
CONTINUOUS
 62
     6
100
AcDbLine
 10
86.70125358661
 20
14.61415965248
 30
0.0
 11
86.8188001278
 21
13.872
 31
0.0
  0
ARC
  5
2AC
330
1F
100
AcDbEntity
  8
LAY-1
  6
CONTINUOUS
 62
     6
100
AcDbCircle
 10
86.99671930219
 20
15.42
 30
0.0
 40
1.548
100
AcDbArc
 50
270.0000000000001
 51
336.0000000000001
  0
ARC
  5
2AD
330
1F
100
AcDbEntity
  8
LAY-1
  6
CONTINUOUS
 62
     6
100
AcDbCircle
 10
86.68718434397
 20
15.234
 30
0.0
 40
0.62
100
AcDbArc
 50
271.3002861670001
 51
336.0000000000001
  0
LINE
  5
2AE
330
1F
100
AcDbEntity
  8
LAY-1
  6
CONTINUOUS
 62
     6
100
AcDbLine
 10
85.53581096966
 20
12.73
 30
0.0
 11
86.68581096966
 21
12.73
 31
0.0
  0
LINE
  5
2AF
330
1F
100
AcDbEntity
  8
LAY-1
  6
CONTINUOUS
 62
     6
100
AcDbLine
 10
84.056
 20
16.136
 30
0.0
 11
84.99635356591
 21
16.136
 31
0.0
  0
LINE
  5
2B0
330
1F
100
AcDbEntity
  8
LAY-1
  6
CONTINUOUS
 62
     6
100
AcDbLine
 10
86.14635356591
 20
16.136
 30
0.0
 11
89.01
 21
16.136
 31
0.0
  0
LINE
  5
2B1
330
1F
100
AcDbEntity
  8
LAY-1
  6
CONTINUOUS
 62
     6
100
AcDbLine
 10
84.056
 20
15.414
 30
0.0
 11
85.11070713183
 21
15.414
 31
0.0
  0
LINE
  5
2B2
330
1F
100
AcDbEntity
  8
LAY-1
  6
CONTINUOUS
 62
     6
100
AcDbLine
 10
86.26070713183
 20
15.414
 30
0.0
 11
87.446
 21
15.414
 31
0.0
  0
LINE
  5
2B3
330
1F
100
AcDbEntity
  8
LAY-1
  6
CONTINUOUS
 62
     6
100
AcDbLine
 10
84.882
 20
16.858
 30
0.0
 11
84.99635356591
 21
16.136
 31
0.0
  0
LINE
  5
2B4
330
1F
100
AcDbEntity
  8
LAY-1
  6
CONTINUOUS
 62
     6
100
AcDbLine
 10
85.11070713183
 20
15.414
 30
0.0
 11
85.53581096966
 21
12.73
 31
0.0
  0
LINE
  5
2B5
330
1F
100
AcDbEntity
  8
LAY-1
  6
CONTINUOUS
 62
     6
100
AcDbLine
 10
86.032
 20
16.858
 30
0.0
 11
86.14635356591
 21
16.136
 31
0.0
  0
LINE
  5
2B6
330
1F
100
AcDbEntity
  8
LAY-1
  6
CONTINUOUS
 62
     6
100
AcDbLine
 10
86.26070713183
 20
15.414
 30
0.0
 11
86.68581096966
 21
12.73
 31
0.0
  0
LINE
  5
2B7
330
1F
100
AcDbEntity
  8
LAY-1
  6
CONTINUOUS
 62
     6
100
AcDbLine
 10
89.271
 20
16.238
 30
0.0
 11
94.225
 21
16.238
 31
0.0
  0
LINE
  5
2B8
330
1F
100
AcDbEntity
  8
LAY-1
  6
CONTINUOUS
 62
     6
100
AcDbLine
 10
88.908
 20
13.762
 30
0.0
 11
94.588
 21
13.762
 31
0.0
  0
LINE
  5
2B9
330
1F
100
AcDbEntity
  8
LAY-1
  6
CONTINUOUS
 62
     6
100
AcDbLine
 10
89.271
 20
17.27
 30
0.0
 11
89.271
 21
16.238
 31
0.0
  0
LINE
  5
2BA
330
1F
100
AcDbEntity
  8
LAY-1
  6
CONTINUOUS
 62
     6
100
AcDbLine
 10
94.225
 20
17.27
 30
0.0
 11
94.225
 21
16.238
 31
0.0
  0
LINE
  5
2BB
330
1F
100
AcDbEntity
  8
LAY-1
  6
CONTINUOUS
 62
     6
100
AcDbLine
 10
94.588
 20
13.762
 30
0.0
 11
94.588
 21
12.73
 31
0.0
  0
LINE
  5
2BC
330
1F
100
AcDbEntity
  8
LAY-1
  6
CONTINUOUS
 62
     6
100
AcDbLine
 10
89.271
 20
17.27
 30
0.0
 11
94.225
 21
17.27
 31
0.0
  0
LINE
  5
2BD
330
1F
100
AcDbEntity
  8
LAY-1
  6
CONTINUOUS
 62
     6
100
AcDbLine
 10
88.908
 20
12.73
 30
0.0
 11
94.588
 21
12.73
 31
0.0
  0
LINE
  5
2BE
330
1F
100
AcDbEntity
  8
LAY-1
  6
CONTINUOUS
 62
     6
100
AcDbLine
 10
95.41
 20
17.27
 30
0.0
 11
95.41
 21
16.238
 31
0.0
  0
LINE
  5
2BF
330
1F
100
AcDbEntity
  8
LAY-1
  6
CONTINUOUS
 62
     6
100
AcDbLine
 10
95.41
 20
16.238
 30
0.0
 11
98.624
 21
16.238
 31
0.0
  0
LINE
  5
2C0
330
1F
100
AcDbEntity
  8
LAY-1
  6
CONTINUOUS
 62
     6
100
AcDbLine
 10
95.096
 20
13.762
 30
0.0
 11
96.29925043678
 21
13.762
 31
0.0
  0
LINE
  5
2C1
330
1F
100
AcDbEntity
  8
LAY-1
  6
CONTINUOUS
 62
     6
100
AcDbLine
 10
98.624
 20
16.238
 30
0.0
 11
97.13415597498
 21
14.18740561963
 31
0.0
  0
LINE
  5
2C2
330
1F
100
AcDbEntity
  8
LAY-1
  6
CONTINUOUS
 62
     6
100
AcDbLine
 10
101.188
 20
12.73
 30
0.0
 11
98.91381349774
 21
14.70692016574
 31
0.0
  0
LINE
  5
2C3
330
1F
100
AcDbEntity
  8
LAY-1
  6
CONTINUOUS
 62
     6
100
AcDbLine
 10
99.684
 20
12.73
 30
0.0
 11
98.33162286652
 21
13.90560350666
 31
0.0
  0
ARC
  5
2C4
330
1F
100
AcDbEntity
  8
LAY-1
  6
CONTINUOUS
 62
     6
100
AcDbCircle
 10
96.53079863769
 20
14.588
 30
0.0
 40
1.858
100
AcDbArc
 50
270.0000000000001
 51
324.0000000000001
  0
ARC
  5
2C5
330
1F
100
AcDbEntity
  8
LAY-1
  6
CONTINUOUS
 62
     6
100
AcDbCircle
 10
96.29925043678
 20
14.794
 30
0.0
 40
1.032
100
AcDbArc
 50
270.0000000000001
 51
324.0000000000001
  0
LINE
  5
2C6
330
1F
100
AcDbEntity
  8
LAY-1
  6
CONTINUOUS
 62
     6
100
AcDbLine
 10
95.096
 20
12.73
 30
0.0
 11
96.53079863769
 21
12.73
 31
0.0
  0
LINE
  5
2C7
330
1F
100
AcDbEntity
  8
LAY-1
  6
CONTINUOUS
 62
     6
100
AcDbLine
 10
99.684
 20
12.73
 30
0.0
 11
101.188
 21
12.73
 31
0.0
  0
LINE
  5
2C8
330
1F
100
AcDbEntity
  8
LAY-1
  6
CONTINUOUS
 62
     6
100
AcDbLine
 10
100.776
 20
17.27
 30
0.0
 11
98.91381349774
 21
14.70692016574
 31
0.0
  0
LINE
  5
2C9
330
1F
100
AcDbEntity
  8
LAY-1
  6
CONTINUOUS
 62
     6
100
AcDbLine
 10
98.33162286652
 20
13.90560350666
 30
0.0
 11
98.03395221324
 21
13.49589500124
 31
0.0
  0
LINE
  5
2CA
330
1F
100
AcDbEntity
  8
LAY-1
  6
CONTINUOUS
 62
     6
100
AcDbLine
 10
95.41
 20
17.27
 30
0.0
 11
100.776
 21
17.27
 31
0.0
  0
LINE
  5
2CB
330
1F
100
AcDbEntity
  8
LAY-1
  6
CONTINUOUS
 62
     6
100
AcDbLine
 10
108.0
 20
13.556
 30
0.0
 11
108.0
 21
12.73
 31
0.0
  0
LINE
  5
2CC
330
1F
100
AcDbEntity
  8
LAY-1
  6
CONTINUOUS
 62
     6
100
AcDbLine
 10
102.22
 20
12.73
 30
0.0
 11
108.0
 21
12.73
 31
0.0
  0
LINE
  5
2CD
330
1F
100
AcDbEntity
  8
LAY-1
  6
CONTINUOUS
 62
     6
100
AcDbLine
 10
104.542
 20
16.548
 30
0.0
 11
104.542
 21
13.556
 31
0.0
  0
LINE
  5
2CE
330
1F
100
AcDbEntity
  8
LAY-1
  6
CONTINUOUS
 62
     6
100
AcDbLine
 10
105.678
 20
16.548
 30
0.0
 11
105.678
 21
13.556
 31
0.0
  0
LINE
  5
2CF
330
1F
100
AcDbEntity
  8
LAY-1
  6
CONTINUOUS
 62
     6
100
AcDbLine
 10
102.427
 20
17.27
 30
0.0
 11
102.427
 21
16.548
 31
0.0
  0
LINE
  5
2D0
330
1F
100
AcDbEntity
  8
LAY-1
  6
CONTINUOUS
 62
     6
100
AcDbLine
 10
107.793
 20
17.27
 30
0.0
 11
107.793
 21
16.548
 31
0.0
  0
LINE
  5
2D1
330
1F
100
AcDbEntity
  8
LAY-1
  6
CONTINUOUS
 62
     6
100
AcDbLine
 10
102.427
 20
16.548
 30
0.0
 11
104.542
 21
16.548
 31
0.0
  0
LINE
  5
2D2
330
1F
100
AcDbEntity
  8
LAY-1
  6
CONTINUOUS
 62
     6
100
AcDbLine
 10
105.678
 20
16.548
 30
0.0
 11
107.793
 21
16.548
 31
0.0
  0
LINE
  5
2D3
330
1F
100
AcDbEntity
  8
LAY-1
  6
CONTINUOUS
 62
     6
100
AcDbLine
 10
102.22
 20
13.556
 30
0.0
 11
104.542
 21
13.556
 31
0.0
  0
LINE
  5
2D4
330
1F
100
AcDbEntity
  8
LAY-1
  6
CONTINUOUS
 62
     6
100
AcDbLine
 10
105.678
 20
13.556
 30
0.0
 11
108.0
 21
13.556
 31
0.0
  0
LINE
  5
2D5
330
1F
100
AcDbEntity
  8
LAY-1
  6
CONTINUOUS
 62
     6
100
AcDbLine
 10
102.427
 20
17.27
 30
0.0
 11
107.793
 21
17.27
 31
0.0
  0
LINE
  5
2D6
330
1F
100
AcDbEntity
  8
LAY-1
  6
CONTINUOUS
 62
     6
100
AcDbLine
 10
111.508
 20
13.762
 30
0.0
 11
112.65
 21
12.73
 31
0.0
  0
LINE
  5
2D7
330
1F
100
AcDbEntity
  8
LAY-1
  6
CONTINUOUS
 62
     6
100
AcDbLine
 10
110.476
 20
13.762
 30
0.0
 11
109.334
 21
12.73
 31
0.0
  0
LINE
  5
2D8
330
1F
100
AcDbEntity
  8
LAY-1
  6
CONTINUOUS
 62
     6
100
AcDbLine
 10
112.74
 20
13.762
 30
0.0
 11
113.882
 21
12.73
 31
0.0
  0
LINE
  5
2D9
330
1F
100
AcDbEntity
  8
LAY-1
  6
CONTINUOUS
 62
     6
100
AcDbLine
 10
109.244
 20
13.762
 30
0.0
 11
108.102
 21
12.73
 31
0.0
  0
LINE
  5
2DA
330
1F
100
AcDbEntity
  8
LAY-1
  6
CONTINUOUS
 62
     6
100
AcDbLine
 10
111.146
 20
17.27
 30
0.0
 11
111.146
 21
16.65
 31
0.0
  0
LINE
  5
2DB
330
1F
100
AcDbEntity
  8
LAY-1
  6
CONTINUOUS
 62
     6
100
AcDbLine
 10
110.838
 20
17.27
 30
0.0
 11
110.838
 21
16.65
 31
0.0
  0
LINE
  5
2DC
330
1F
100
AcDbEntity
  8
LAY-1
  6
CONTINUOUS
 62
     6
100
AcDbLine
 10
112.024
 20
17.27
 30
0.0
 11
112.024
 21
16.65
 31
0.0
  0
LINE
  5
2DD
330
1F
100
AcDbEntity
  8
LAY-1
  6
CONTINUOUS
 62
     6
100
AcDbLine
 10
113.622
 20
17.27
 30
0.0
 11
113.1376029116
 21
16.65
 31
0.0
  0
LINE
  5
2DE
330
1F
100
AcDbEntity
  8
LAY-1
  6
CONTINUOUS
 62
     6
100
AcDbLine
 10
112.706
 20
17.27
 30
0.0
 11
112.2216029116
 21
16.65
 31
0.0
  0
LINE
  5
2DF
330
1F
100
AcDbEntity
  8
LAY-1
  6
CONTINUOUS
 62
     6
100
AcDbLine
 10
109.96
 20
17.27
 30
0.0
 11
109.96
 21
16.65
 31
0.0
  0
LINE
  5
2E0
330
1F
100
AcDbEntity
  8
LAY-1
  6
CONTINUOUS
 62
     6
100
AcDbLine
 10
109.278
 20
17.27
 30
0.0
 11
109.7623970884
 21
16.65
 31
0.0
  0
LINE
  5
2E1
330
1F
100
AcDbEntity
  8
LAY-1
  6
CONTINUOUS
 62
     6
100
AcDbLine
 10
108.362
 20
17.27
 30
0.0
 11
108.8463970884
 21
16.65
 31
0.0
  0
LINE
  5
2E2
330
1F
100
AcDbEntity
  8
LAY-1
  6
CONTINUOUS
 62
     6
100
AcDbLine
 10
112.606
 20
15.66
 30
0.0
 11
112.7938086409
 21
16.176
 31
0.0
  0
LINE
  5
2E3
330
1F
100
AcDbEntity
  8
LAY-1
  6
CONTINUOUS
 62
     6
100
AcDbLine
 10
111.508
 20
15.66
 30
0.0
 11
111.6958086409
 21
16.176
 31
0.0
  0
LINE
  5
2E4
330
1F
100
AcDbEntity
  8
LAY-1
  6
CONTINUOUS
 62
     6
100
AcDbLine
 10
110.476
 20
15.66
 30
0.0
 11
110.2881913591
 21
16.176
 31
0.0
  0
LINE
  5
2E5
330
1F
100
AcDbEntity
  8
LAY-1
  6
CONTINUOUS
 62
     6
100
AcDbLine
 10
109.378
 20
15.66
 30
0.0
 11
109.1901913591
 21
16.176
 31
0.0
  0
LINE
  5
2E6
330
1F
100
AcDbEntity
  8
LAY-1
  6
CONTINUOUS
 62
     6
100
AcDbLine
 10
108.362
 20
17.27
 30
0.0
 11
109.278
 21
17.27
 31
0.0
  0
LINE
  5
2E7
330
1F
100
AcDbEntity
  8
LAY-1
  6
CONTINUOUS
 62
     6
100
AcDbLine
 10
109.96
 20
17.27
 30
0.0
 11
110.838
 21
17.27
 31
0.0
  0
LINE
  5
2E8
330
1F
100
AcDbEntity
  8
LAY-1
  6
CONTINUOUS
 62
     6
100
AcDbLine
 10
111.146
 20
17.27
 30
0.0
 11
112.024
 21
17.27
 31
0.0
  0
LINE
  5
2E9
330
1F
100
AcDbEntity
  8
LAY-1
  6
CONTINUOUS
 62
     6
100
AcDbLine
 10
112.706
 20
17.27
 30
0.0
 11
113.622
 21
17.27
 31
0.0
  0
LINE
  5
2EA
330
1F
100
AcDbEntity
  8
LAY-1
  6
CONTINUOUS
 62
     6
100
AcDbLine
 10
108.102
 20
16.65
 30
0.0
 11
108.102
 21
16.176
 31
0.0
  0
LINE
  5
2EB
330
1F
100
AcDbEntity
  8
LAY-1
  6
CONTINUOUS
 62
     6
100
AcDbLine
 10
108.102
 20
15.66
 30
0.0
 11
108.102
 21
15.272
 31
0.0
  0
LINE
  5
2EC
330
1F
100
AcDbEntity
  8
LAY-1
  6
CONTINUOUS
 62
     6
100
AcDbLine
 10
108.102
 20
14.948
 30
0.0
 11
108.102
 21
14.474
 31
0.0
  0
LINE
  5
2ED
330
1F
100
AcDbEntity
  8
LAY-1
  6
CONTINUOUS
 62
     6
100
AcDbLine
 10
108.102
 20
14.15
 30
0.0
 11
108.102
 21
13.762
 31
0.0
  0
LINE
  5
2EE
330
1F
100
AcDbEntity
  8
LAY-1
  6
CONTINUOUS
 62
     6
100
AcDbLine
 10
108.102
 20
12.73
 30
0.0
 11
109.334
 21
12.73
 31
0.0
  0
LINE
  5
2EF
330
1F
100
AcDbEntity
  8
LAY-1
  6
CONTINUOUS
 62
     6
100
AcDbLine
 10
110.476
 20
12.73
 30
0.0
 11
111.508
 21
12.73
 31
0.0
  0
LINE
  5
2F0
330
1F
100
AcDbEntity
  8
LAY-1
  6
CONTINUOUS
 62
     6
100
AcDbLine
 10
112.65
 20
12.73
 30
0.0
 11
113.882
 21
12.73
 31
0.0
  0
LINE
  5
2F1
330
1F
100
AcDbEntity
  8
LAY-1
  6
CONTINUOUS
 62
     6
100
AcDbLine
 10
113.882
 20
13.762
 30
0.0
 11
113.882
 21
14.15
 31
0.0
  0
LINE
  5
2F2
330
1F
100
AcDbEntity
  8
LAY-1
  6
CONTINUOUS
 62
     6
100
AcDbLine
 10
113.882
 20
14.474
 30
0.0
 11
113.882
 21
14.948
 31
0.0
  0
LINE
  5
2F3
330
1F
100
AcDbEntity
  8
LAY-1
  6
CONTINUOUS
 62
     6
100
AcDbLine
 10
113.882
 20
15.272
 30
0.0
 11
113.882
 21
15.66
 31
0.0
  0
LINE
  5
2F4
330
1F
100
AcDbEntity
  8
LAY-1
  6
CONTINUOUS
 62
     6
100
AcDbLine
 10
113.882
 20
16.176
 30
0.0
 11
113.882
 21
16.65
 31
0.0
  0
LINE
  5
2F5
330
1F
100
AcDbEntity
  8
LAY-1
  6
CONTINUOUS
 62
     6
100
AcDbLine
 10
110.476
 20
13.762
 30
0.0
 11
110.476
 21
12.73
 31
0.0
  0
LINE
  5
2F6
330
1F
100
AcDbEntity
  8
LAY-1
  6
CONTINUOUS
 62
     6
100
AcDbLine
 10
111.508
 20
13.762
 30
0.0
 11
111.508
 21
12.73
 31
0.0
  0
LINE
  5
2F7
330
1F
100
AcDbEntity
  8
LAY-1
  6
CONTINUOUS
 62
     6
100
AcDbLine
 10
110.476
 20
15.272
 30
0.0
 11
110.476
 21
14.948
 31
0.0
  0
LINE
  5
2F8
330
1F
100
AcDbEntity
  8
LAY-1
  6
CONTINUOUS
 62
     6
100
AcDbLine
 10
110.476
 20
14.474
 30
0.0
 11
110.476
 21
14.15
 31
0.0
  0
LINE
  5
2F9
330
1F
100
AcDbEntity
  8
LAY-1
  6
CONTINUOUS
 62
     6
100
AcDbLine
 10
111.508
 20
15.272
 30
0.0
 11
111.508
 21
14.948
 31
0.0
  0
LINE
  5
2FA
330
1F
100
AcDbEntity
  8
LAY-1
  6
CONTINUOUS
 62
     6
100
AcDbLine
 10
111.508
 20
14.474
 30
0.0
 11
111.508
 21
14.15
 31
0.0
  0
LINE
  5
2FB
330
1F
100
AcDbEntity
  8
LAY-1
  6
CONTINUOUS
 62
     6
100
AcDbLine
 10
108.102
 20
16.65
 30
0.0
 11
108.8463970884
 21
16.65
 31
0.0
  0
LINE
  5
2FC
330
1F
100
AcDbEntity
  8
LAY-1
  6
CONTINUOUS
 62
     6
100
AcDbLine
 10
109.7623970884
 20
16.65
 30
0.0
 11
109.96
 21
16.65
 31
0.0
  0
LINE
  5
2FD
330
1F
100
AcDbEntity
  8
LAY-1
  6
CONTINUOUS
 62
     6
100
AcDbLine
 10
110.838
 20
16.65
 30
0.0
 11
111.146
 21
16.65
 31
0.0
  0
LINE
  5
2FE
330
1F
100
AcDbEntity
  8
LAY-1
  6
CONTINUOUS
 62
     6
100
AcDbLine
 10
112.024
 20
16.65
 30
0.0
 11
112.2216029116
 21
16.65
 31
0.0
  0
LINE
  5
2FF
330
1F
100
AcDbEntity
  8
LAY-1
  6
CONTINUOUS
 62
     6
100
AcDbLine
 10
113.1376029116
 20
16.65
 30
0.0
 11
113.882
 21
16.65
 31
0.0
  0
LINE
  5
300
330
1F
100
AcDbEntity
  8
LAY-1
  6
CONTINUOUS
 62
     6
100
AcDbLine
 10
112.7938086409
 20
16.176
 30
0.0
 11
113.882
 21
16.176
 31
0.0
  0
LINE
  5
301
330
1F
100
AcDbEntity
  8
LAY-1
  6
CONTINUOUS
 62
     6
100
AcDbLine
 10
108.102
 20
16.176
 30
0.0
 11
109.1901913591
 21
16.176
 31
0.0
  0
LINE
  5
302
330
1F
100
AcDbEntity
  8
LAY-1
  6
CONTINUOUS
 62
     6
100
AcDbLine
 10
110.2881913591
 20
16.176
 30
0.0
 11
111.6958086409
 21
16.176
 31
0.0
  0
LINE
  5
303
330
1F
100
AcDbEntity
  8
LAY-1
  6
CONTINUOUS
 62
     6
100
AcDbLine
 10
108.102
 20
15.66
 30
0.0
 11
109.378
 21
15.66
 31
0.0
  0
LINE
  5
304
330
1F
100
AcDbEntity
  8
LAY-1
  6
CONTINUOUS
 62
     6
100
AcDbLine
 10
110.476
 20
15.66
 30
0.0
 11
111.508
 21
15.66
 31
0.0
  0
LINE
  5
305
330
1F
100
AcDbEntity
  8
LAY-1
  6
CONTINUOUS
 62
     6
100
AcDbLine
 10
112.606
 20
15.66
 30
0.0
 11
113.882
 21
15.66
 31
0.0
  0
LINE
  5
306
330
1F
100
AcDbEntity
  8
LAY-1
  6
CONTINUOUS
 62
     6
100
AcDbLine
 10
108.102
 20
15.272
 30
0.0
 11
110.476
 21
15.272
 31
0.0
  0
LINE
  5
307
330
1F
100
AcDbEntity
  8
LAY-1
  6
CONTINUOUS
 62
     6
100
AcDbLine
 10
111.508
 20
15.272
 30
0.0
 11
113.882
 21
15.272
 31
0.0
  0
LINE
  5
308
330
1F
100
AcDbEntity
  8
LAY-1
  6
CONTINUOUS
 62
     6
100
AcDbLine
 10
108.102
 20
14.948
 30
0.0
 11
110.476
 21
14.948
 31
0.0
  0
LINE
  5
309
330
1F
100
AcDbEntity
  8
LAY-1
  6
CONTINUOUS
 62
     6
100
AcDbLine
 10
111.508
 20
14.948
 30
0.0
 11
113.882
 21
14.948
 31
0.0
  0
LINE
  5
30A
330
1F
100
AcDbEntity
  8
LAY-1
  6
CONTINUOUS
 62
     6
100
AcDbLine
 10
108.102
 20
14.474
 30
0.0
 11
110.476
 21
14.474
 31
0.0
  0
LINE
  5
30B
330
1F
100
AcDbEntity
  8
LAY-1
  6
CONTINUOUS
 62
     6
100
AcDbLine
 10
111.508
 20
14.474
 30
0.0
 11
113.882
 21
14.474
 31
0.0
  0
LINE
  5
30C
330
1F
100
AcDbEntity
  8
LAY-1
  6
CONTINUOUS
 62
     6
100
AcDbLine
 10
108.102
 20
14.15
 30
0.0
 11
110.476
 21
14.15
 31
0.0
  0
LINE
  5
30D
330
1F
100
AcDbEntity
  8
LAY-1
  6
CONTINUOUS
 62
     6
100
AcDbLine
 10
111.508
 20
14.15
 30
0.0
 11
113.882
 21
14.15
 31
0.0
  0
LINE
  5
30E
330
1F
100
AcDbEntity
  8
LAY-1
  6
CONTINUOUS
 62
     6
100
AcDbLine
 10
108.102
 20
13.762
 30
0.0
 11
109.244
 21
13.762
 31
0.0
  0
LINE
  5
30F
330
1F
100
AcDbEntity
  8
LAY-1
  6
CONTINUOUS
 62
     6
100
AcDbLine
 10
112.74
 20
13.762
 30
0.0
 11
113.882
 21
13.762
 31
0.0
  0
LINE
  5
310
330
1F
100
AcDbEntity
  8
LAY-1
  6
CONTINUOUS
 62
     6
100
AcDbLine
 10
114.139
 20
16.754
 30
0.0
 11
114.139
 21
16.238
 31
0.0
  0
LINE
  5
311
330
1F
100
AcDbEntity
  8
LAY-1
  6
CONTINUOUS
 62
     6
100
AcDbLine
 10
114.088
 20
12.73
 30
0.0
 11
114.4567056573
 21
16.238
 31
0.0
  0
LINE
  5
312
330
1F
100
AcDbEntity
  8
LAY-1
  6
CONTINUOUS
 62
     6
100
AcDbLine
 10
114.71
 20
12.73
 30
0.0
 11
115.0787056573
 21
16.238
 31
0.0
  0
LINE
  5
313
330
1F
100
AcDbEntity
  8
LAY-1
  6
CONTINUOUS
 62
     6
100
AcDbLine
 10
116.099
 20
16.238
 30
0.0
 11
116.358
 21
15.8815170826
 31
0.0
  0
LINE
  5
314
330
1F
100
AcDbEntity
  8
LAY-1
  6
CONTINUOUS
 62
     6
100
AcDbLine
 10
116.099
 20
15.0864829174
 30
0.0
 11
116.358
 21
14.73
 31
0.0
  0
LINE
  5
315
330
1F
100
AcDbEntity
  8
LAY-1
  6
CONTINUOUS
 62
     6
100
AcDbLine
 10
119.97
 20
12.73
 30
0.0
 11
119.5191416513
 21
15.206
 31
0.0
  0
LINE
  5
316
330
1F
100
AcDbEntity
  8
LAY-1
  6
CONTINUOUS
 62
     6
100
AcDbLine
 10
119.13
 20
12.73
 30
0.0
 11
118.68
 21
15.20128616606
 31
0.0
  0
LINE
  5
317
330
1F
100
AcDbEntity
  8
LAY-1
  6
CONTINUOUS
 62
     6
100
AcDbLine
 10
117.302
 20
12.73
 30
0.0
 11
117.752
 21
15.20128616606
 31
0.0
  0
LINE
  5
318
330
1F
100
AcDbEntity
  8
LAY-1
  6
CONTINUOUS
 62
     6
100
AcDbLine
 10
116.9128583487
 20
15.206
 30
0.0
 11
116.462
 21
12.73
 31
0.0
  0
LINE
  5
319
330
1F
100
AcDbEntity
  8
LAY-1
  6
CONTINUOUS
 62
     6
100
AcDbLine
 10
117.2629004762
 20
15.93
 30
0.0
 11
116.4129004762
 21
15.93
 31
0.0
  0
LINE
  5
31A
330
1F
100
AcDbEntity
  8
LAY-1
  6
CONTINUOUS
 62
     6
100
AcDbLine
 10
116.747
 20
17.27
 30
0.0
 11
116.6183467505
 21
16.754
 31
0.0
  0
LINE
  5
31B
330
1F
100
AcDbEntity
  8
LAY-1
  6
CONTINUOUS
 62
     6
100
AcDbLine
 10
116.6173494385
 20
16.75
 30
0.0
 11
116.4129004762
 21
15.93
 31
0.0
  0
LINE
  5
31C
330
1F
100
AcDbEntity
  8
LAY-1
  6
CONTINUOUS
 62
     6
100
AcDbLine
 10
114.088
 20
12.73
 30
0.0
 11
114.71
 21
12.73
 31
0.0
  0
LINE
  5
31D
330
1F
100
AcDbEntity
  8
LAY-1
  6
CONTINUOUS
 62
     6
100
AcDbLine
 10
115.171
 20
12.73
 30
0.0
 11
116.099
 21
12.73
 31
0.0
  0
LINE
  5
31E
330
1F
100
AcDbEntity
  8
LAY-1
  6
CONTINUOUS
 62
     6
100
AcDbLine
 10
116.462
 20
12.73
 30
0.0
 11
117.302
 21
12.73
 31
0.0
  0
LINE
  5
31F
330
1F
100
AcDbEntity
  8
LAY-1
  6
CONTINUOUS
 62
     6
100
AcDbLine
 10
117.752
 20
12.73
 30
0.0
 11
118.68
 21
12.73
 31
0.0
  0
LINE
  5
320
330
1F
100
AcDbEntity
  8
LAY-1
  6
CONTINUOUS
 62
     6
100
AcDbLine
 10
119.13
 20
12.73
 30
0.0
 11
119.97
 21
12.73
 31
0.0
  0
LINE
  5
321
330
1F
100
AcDbEntity
  8
LAY-1
  6
CONTINUOUS
 62
     6
100
AcDbLine
 10
118.68
 20
17.27
 30
0.0
 11
118.68
 21
16.754
 31
0.0
  0
LINE
  5
322
330
1F
100
AcDbEntity
  8
LAY-1
  6
CONTINUOUS
 62
     6
100
AcDbLine
 10
118.68
 20
16.238
 30
0.0
 11
118.68
 21
15.722
 31
0.0
  0
LINE
  5
323
330
1F
100
AcDbEntity
  8
LAY-1
  6
CONTINUOUS
 62
     6
100
AcDbLine
 10
118.68
 20
15.206
 30
0.0
 11
118.68
 21
12.73
 31
0.0
  0
LINE
  5
324
330
1F
100
AcDbEntity
  8
LAY-1
  6
CONTINUOUS
 62
     6
100
AcDbLine
 10
117.752
 20
17.27
 30
0.0
 11
117.752
 21
16.754
 31
0.0
  0
LINE
  5
325
330
1F
100
AcDbEntity
  8
LAY-1
  6
CONTINUOUS
 62
     6
100
AcDbLine
 10
117.752
 20
16.238
 30
0.0
 11
117.752
 21
15.722
 31
0.0
  0
LINE
  5
326
330
1F
100
AcDbEntity
  8
LAY-1
  6
CONTINUOUS
 62
     6
100
AcDbLine
 10
117.752
 20
15.206
 30
0.0
 11
117.752
 21
12.73
 31
0.0
  0
LINE
  5
327
330
1F
100
AcDbEntity
  8
LAY-1
  6
CONTINUOUS
 62
     6
100
AcDbLine
 10
115.171
 20
17.27
 30
0.0
 11
115.171
 21
16.754
 31
0.0
  0
LINE
  5
328
330
1F
100
AcDbEntity
  8
LAY-1
  6
CONTINUOUS
 62
     6
100
AcDbLine
 10
115.171
 20
16.238
 30
0.0
 11
115.171
 21
12.73
 31
0.0
  0
LINE
  5
329
330
1F
100
AcDbEntity
  8
LAY-1
  6
CONTINUOUS
 62
     6
100
AcDbLine
 10
114.139
 20
16.238
 30
0.0
 11
114.4567056573
 21
16.238
 31
0.0
  0
LINE
  5
32A
330
1F
100
AcDbEntity
  8
LAY-1
  6
CONTINUOUS
 62
     6
100
AcDbLine
 10
115.0787056573
 20
16.238
 30
0.0
 11
115.171
 21
16.238
 31
0.0
  0
LINE
  5
32B
330
1F
100
AcDbEntity
  8
LAY-1
  6
CONTINUOUS
 62
     6
100
AcDbLine
 10
118.68
 20
16.238
 30
0.0
 11
119.919
 21
16.238
 31
0.0
  0
LINE
  5
32C
330
1F
100
AcDbEntity
  8
LAY-1
  6
CONTINUOUS
 62
     6
100
AcDbLine
 10
118.68
 20
16.754
 30
0.0
 11
119.919
 21
16.754
 31
0.0
  0
LINE
  5
32D
330
1F
100
AcDbEntity
  8
LAY-1
  6
CONTINUOUS
 62
     6
100
AcDbLine
 10
114.139
 20
16.754
 30
0.0
 11
115.171
 21
16.754
 31
0.0
  0
LINE
  5
32E
330
1F
100
AcDbEntity
  8
LAY-1
  6
CONTINUOUS
 62
     6
100
AcDbLine
 10
116.099
 20
16.754
 30
0.0
 11
116.358
 21
16.754
 31
0.0
  0
LINE
  5
32F
330
1F
100
AcDbEntity
  8
LAY-1
  6
CONTINUOUS
 62
     6
100
AcDbLine
 10
116.099
 20
15.0864829174
 30
0.0
 11
116.099
 21
12.73
 31
0.0
  0
LINE
  5
330
330
1F
100
AcDbEntity
  8
LAY-1
  6
CONTINUOUS
 62
     6
100
AcDbLine
 10
116.9128583487
 20
15.206
 30
0.0
 11
116.462
 21
15.206
 31
0.0
  0
LINE
  5
331
330
1F
100
AcDbEntity
  8
LAY-1
  6
CONTINUOUS
 62
     6
100
AcDbLine
 10
119.919
 20
15.206
 30
0.0
 11
119.5191416513
 21
15.206
 31
0.0
  0
LINE
  5
332
330
1F
100
AcDbEntity
  8
LAY-1
  6
CONTINUOUS
 62
     6
100
AcDbLine
 10
119.919
 20
15.722
 30
0.0
 11
118.68
 21
15.722
 31
0.0
  0
LINE
  5
333
330
1F
100
AcDbEntity
  8
LAY-1
  6
CONTINUOUS
 62
     6
100
AcDbLine
 10
117.597
 20
17.27
 30
0.0
 11
117.4683467505
 21
16.754
 31
0.0
  0
LINE
  5
334
330
1F
100
AcDbEntity
  8
LAY-1
  6
CONTINUOUS
 62
     6
100
AcDbLine
 10
117.4683467505
 20
16.754
 30
0.0
 11
117.752
 21
16.754
 31
0.0
  0
LINE
  5
335
330
1F
100
AcDbEntity
  8
LAY-1
  6
CONTINUOUS
 62
     6
100
AcDbLine
 10
119.919
 20
16.754
 30
0.0
 11
119.919
 21
16.238
 31
0.0
  0
LINE
  5
336
330
1F
100
AcDbEntity
  8
LAY-1
  6
CONTINUOUS
 62
     6
100
AcDbLine
 10
119.919
 20
15.722
 30
0.0
 11
119.919
 21
15.206
 31
0.0
  0
LINE
  5
337
330
1F
100
AcDbEntity
  8
LAY-1
  6
CONTINUOUS
 62
     6
100
AcDbLine
 10
116.099
 20
16.238
 30
0.0
 11
116.358
 21
16.238
 31
0.0
  0
LINE
  5
338
330
1F
100
AcDbEntity
  8
LAY-1
  6
CONTINUOUS
 62
     6
100
AcDbLine
 10
117.337698877
 20
16.23
 30
0.0
 11
117.2629004762
 21
15.93
 31
0.0
  0
LINE
  5
339
330
1F
100
AcDbEntity
  8
LAY-1
  6
CONTINUOUS
 62
     6
100
AcDbLine
 10
117.3396935011
 20
16.238
 30
0.0
 11
117.752
 21
16.238
 31
0.0
  0
LINE
  5
33A
330
1F
100
AcDbEntity
  8
LAY-1
  6
CONTINUOUS
 62
     6
100
AcDbLine
 10
116.358
 20
16.75
 30
0.0
 11
116.358
 21
16.238
 31
0.0
  0
LINE
  5
33B
330
1F
100
AcDbEntity
  8
LAY-1
  6
CONTINUOUS
 62
     6
100
AcDbLine
 10
116.358
 20
15.8815170826
 30
0.0
 11
116.358
 21
14.73
 31
0.0
  0
LINE
  5
33C
330
1F
100
AcDbEntity
  8
LAY-1
  6
CONTINUOUS
 62
     6
100
AcDbLine
 10
116.099
 20
17.27
 30
0.0
 11
116.099
 21
16.754
 31
0.0
  0
LINE
  5
33D
330
1F
100
AcDbEntity
  8
LAY-1
  6
CONTINUOUS
 62
     6
100
AcDbLine
 10
117.752
 20
15.722
 30
0.0
 11
116.462
 21
15.722
 31
0.0
  0
LINE
  5
33E
330
1F
100
AcDbEntity
  8
LAY-1
  6
CONTINUOUS
 62
     6
100
AcDbLine
 10
116.462
 20
15.722
 30
0.0
 11
116.462
 21
15.206
 31
0.0
  0
LINE
  5
33F
330
1F
100
AcDbEntity
  8
LAY-1
  6
CONTINUOUS
 62
     6
100
AcDbLine
 10
115.171
 20
17.27
 30
0.0
 11
116.099
 21
17.27
 31
0.0
  0
LINE
  5
340
330
1F
100
AcDbEntity
  8
LAY-1
  6
CONTINUOUS
 62
     6
100
AcDbLine
 10
116.747
 20
17.27
 30
0.0
 11
117.597
 21
17.27
 31
0.0
  0
LINE
  5
341
330
1F
100
AcDbEntity
  8
LAY-1
  6
CONTINUOUS
 62
     6
100
AcDbLine
 10
117.752
 20
17.27
 30
0.0
 11
118.68
 21
17.27
 31
0.0
  0
LINE
  5
342
330
1F
100
AcDbEntity
  8
LAY-1
  6
CONTINUOUS
 62
     6
100
AcDbLine
 10
125.956
 20
16.858
 30
0.0
 11
125.956
 21
16.238
 31
0.0
  0
LINE
  5
343
330
1F
100
AcDbEntity
  8
LAY-1
  6
CONTINUOUS
 62
     6
100
AcDbLine
 10
125.646
 20
17.27
 30
0.0
 11
125.646
 21
16.858
 31
0.0
  0
LINE
  5
344
330
1F
100
AcDbEntity
  8
LAY-1
  6
CONTINUOUS
 62
     6
100
AcDbLine
 10
124.718
 20
17.27
 30
0.0
 11
124.718
 21
16.858
 31
0.0
  0
LINE
  5
345
330
1F
100
AcDbEntity
  8
LAY-1
  6
CONTINUOUS
 62
     6
100
AcDbLine
 10
120.434
 20
15.62
 30
0.0
 11
123.634
 21
15.62
 31
0.0
  0
LINE
  5
346
330
1F
100
AcDbEntity
  8
LAY-1
  6
CONTINUOUS
 62
     6
100
AcDbLine
 10
121.466
 20
15.0
 30
0.0
 11
121.466
 21
13.89935837164
 31
0.0
  0
LINE
  5
347
330
1F
100
AcDbEntity
  8
LAY-1
  6
CONTINUOUS
 62
     6
100
AcDbLine
 10
122.602
 20
15.0
 30
0.0
 11
122.602
 21
14.1408226257
 31
0.0
  0
LINE
  5
348
330
1F
100
AcDbEntity
  8
LAY-1
  6
CONTINUOUS
 62
     6
100
AcDbLine
 10
120.434
 20
12.73
 30
0.0
 11
123.634
 21
13.41018099734
 31
0.0
  0
LINE
  5
349
330
1F
100
AcDbEntity
  8
LAY-1
  6
CONTINUOUS
 62
     6
100
AcDbLine
 10
120.434
 20
15.62
 30
0.0
 11
120.434
 21
15.0
 31
0.0
  0
LINE
  5
34A
330
1F
100
AcDbEntity
  8
LAY-1
  6
CONTINUOUS
 62
     6
100
AcDbLine
 10
120.434
 20
13.68
 30
0.0
 11
120.434
 21
12.73
 31
0.0
  0
LINE
  5
34B
330
1F
100
AcDbEntity
  8
LAY-1
  6
CONTINUOUS
 62
     6
100
AcDbLine
 10
123.634
 20
15.62
 30
0.0
 11
123.634
 21
15.0
 31
0.0
  0
LINE
  5
34C
330
1F
100
AcDbEntity
  8
LAY-1
  6
CONTINUOUS
 62
     6
100
AcDbLine
 10
123.634
 20
14.36018099734
 30
0.0
 11
123.634
 21
13.41018099734
 31
0.0
  0
LINE
  5
34D
330
1F
100
AcDbEntity
  8
LAY-1
  6
CONTINUOUS
 62
     6
100
AcDbLine
 10
120.434
 20
15.0
 30
0.0
 11
121.466
 21
15.0
 31
0.0
  0
LINE
  5
34E
330
1F
100
AcDbEntity
  8
LAY-1
  6
CONTINUOUS
 62
     6
100
AcDbLine
 10
122.602
 20
15.0
 30
0.0
 11
123.634
 21
15.0
 31
0.0
  0
LINE
  5
34F
330
1F
100
AcDbEntity
  8
LAY-1
  6
CONTINUOUS
 62
     6
100
AcDbLine
 10
120.434
 20
13.68
 30
0.0
 11
121.466
 21
13.89935837164
 31
0.0
  0
LINE
  5
350
330
1F
100
AcDbEntity
  8
LAY-1
  6
CONTINUOUS
 62
     6
100
AcDbLine
 10
122.602
 20
14.1408226257
 30
0.0
 11
123.634
 21
14.36018099734
 31
0.0
  0
LINE
  5
351
330
1F
100
AcDbEntity
  8
LAY-1
  6
CONTINUOUS
 62
     6
100
AcDbLine
 10
120.176
 20
16.858
 30
0.0
 11
123.2455308729
 21
16.858
 31
0.0
  0
LINE
  5
352
330
1F
100
AcDbEntity
  8
LAY-1
  6
CONTINUOUS
 62
     6
100
AcDbLine
 10
124.4535308729
 20
16.858
 30
0.0
 11
124.718
 21
16.858
 31
0.0
  0
LINE
  5
353
330
1F
100
AcDbEntity
  8
LAY-1
  6
CONTINUOUS
 62
     6
100
AcDbLine
 10
125.646
 20
16.858
 30
0.0
 11
125.956
 21
16.858
 31
0.0
  0
LINE
  5
354
330
1F
100
AcDbEntity
  8
LAY-1
  6
CONTINUOUS
 62
     6
100
AcDbLine
 10
125.956
 20
12.73
 30
0.0
 11
124.6791924182
 21
16.238
 31
0.0
  0
LINE
  5
355
330
1F
100
AcDbEntity
  8
LAY-1
  6
CONTINUOUS
 62
     6
100
AcDbLine
 10
124.4535308729
 20
16.858
 30
0.0
 11
124.3035751364
 21
17.27
 31
0.0
  0
LINE
  5
356
330
1F
100
AcDbEntity
  8
LAY-1
  6
CONTINUOUS
 62
     6
100
AcDbLine
 10
120.176
 20
16.238
 30
0.0
 11
123.4711924182
 21
16.238
 31
0.0
  0
LINE
  5
357
330
1F
100
AcDbEntity
  8
LAY-1
  6
CONTINUOUS
 62
     6
100
AcDbLine
 10
124.6791924182
 20
16.238
 30
0.0
 11
125.956
 21
16.238
 31
0.0
  0
LINE
  5
358
330
1F
100
AcDbEntity
  8
LAY-1
  6
CONTINUOUS
 62
     6
100
AcDbLine
 10
124.748
 20
12.73
 30
0.0
 11
123.4711924182
 21
16.238
 31
0.0
  0
LINE
  5
359
330
1F
100
AcDbEntity
  8
LAY-1
  6
CONTINUOUS
 62
     6
100
AcDbLine
 10
123.2455308729
 20
16.858
 30
0.0
 11
123.0955751364
 21
17.27
 31
0.0
  0
LINE
  5
35A
330
1F
100
AcDbEntity
  8
LAY-1
  6
CONTINUOUS
 62
     6
100
AcDbLine
 10
123.0955751364
 20
17.27
 30
0.0
 11
124.3035751364
 21
17.27
 31
0.0
  0
LINE
  5
35B
330
1F
100
AcDbEntity
  8
LAY-1
  6
CONTINUOUS
 62
     6
100
AcDbLine
 10
124.718
 20
17.27
 30
0.0
 11
125.646
 21
17.27
 31
0.0
  0
LINE
  5
35C
330
1F
100
AcDbEntity
  8
LAY-1
  6
CONTINUOUS
 62
     6
100
AcDbLine
 10
126.162
 20
15.104
 30
0.0
 11
132.044
 21
15.104
 31
0.0
  0
LINE
  5
35D
330
1F
100
AcDbEntity
  8
LAY-1
  6
CONTINUOUS
 62
     6
100
AcDbLine
 10
127.043
 20
15.516
 30
0.0
 11
131.163
 21
15.516
 31
0.0
  0
LINE
  5
35E
330
1F
100
AcDbEntity
  8
LAY-1
  6
CONTINUOUS
 62
     6
100
AcDbLine
 10
127.3516306118
 20
16.136
 30
0.0
 11
130.8543693882
 21
16.136
 31
0.0
  0
LINE
  5
35F
330
1F
100
AcDbEntity
  8
LAY-1
  6
CONTINUOUS
 62
     6
100
AcDbLine
 10
124.748
 20
12.73
 30
0.0
 11
125.956
 21
12.73
 31
0.0
  0
LINE
  5
360
330
1F
100
AcDbEntity
  8
LAY-1
  6
CONTINUOUS
 62
     6
100
AcDbLine
 10
126.162
 20
12.73
 30
0.0
 11
132.044
 21
12.73
 31
0.0
  0
LINE
  5
361
330
1F
100
AcDbEntity
  8
LAY-1
  6
CONTINUOUS
 62
     6
100
AcDbLine
 10
129.103
 20
17.374
 30
0.0
 11
126.162
 21
16.38995516534
 31
0.0
  0
LINE
  5
362
330
1F
100
AcDbEntity
  8
LAY-1
  6
CONTINUOUS
 62
     6
100
AcDbLine
 10
129.103
 20
17.374
 30
0.0
 11
132.044
 21
16.38995516534
 31
0.0
  0
LINE
  5
363
330
1F
100
AcDbEntity
  8
LAY-1
  6
CONTINUOUS
 62
     6
100
AcDbLine
 10
127.043
 20
15.516
 30
0.0
 11
127.043
 21
16.03273364183
 31
0.0
  0
LINE
  5
364
330
1F
100
AcDbEntity
  8
LAY-1
  6
CONTINUOUS
 62
     6
100
AcDbLine
 10
131.163
 20
15.516
 30
0.0
 11
131.163
 21
16.03273364183
 31
0.0
  0
LINE
  5
365
330
1F
100
AcDbEntity
  8
LAY-1
  6
CONTINUOUS
 62
     6
100
AcDbLine
 10
126.162
 20
12.73
 30
0.0
 11
126.9799036324
 21
14.484
 31
0.0
  0
LINE
  5
366
330
1F
100
AcDbEntity
  8
LAY-1
  6
CONTINUOUS
 62
     6
100
AcDbLine
 10
127.59
 20
13.35
 30
0.0
 11
128.1187928843
 21
14.484
 31
0.0
  0
LINE
  5
367
330
1F
100
AcDbEntity
  8
LAY-1
  6
CONTINUOUS
 62
     6
100
AcDbLine
 10
130.616
 20
13.35
 30
0.0
 11
130.0872071157
 21
14.484
 31
0.0
  0
LINE
  5
368
330
1F
100
AcDbEntity
  8
LAY-1
  6
CONTINUOUS
 62
     6
100
AcDbLine
 10
132.044
 20
12.73
 30
0.0
 11
131.2260963676
 21
14.484
 31
0.0
  0
LINE
  5
369
330
1F
100
AcDbEntity
  8
LAY-1
  6
CONTINUOUS
 62
     6
100
AcDbLine
 10
126.162
 20
16.38995516534
 30
0.0
 11
126.162
 21
15.73795516534
 31
0.0
  0
LINE
  5
36A
330
1F
100
AcDbEntity
  8
LAY-1
  6
CONTINUOUS
 62
     6
100
AcDbLine
 10
126.162
 20
15.104
 30
0.0
 11
126.162
 21
14.484
 31
0.0
  0
LINE
  5
36B
330
1F
100
AcDbEntity
  8
LAY-1
  6
CONTINUOUS
 62
     6
100
AcDbLine
 10
132.044
 20
16.38995516534
 30
0.0
 11
132.044
 21
15.73795516534
 31
0.0
  0
LINE
  5
36C
330
1F
100
AcDbEntity
  8
LAY-1
  6
CONTINUOUS
 62
     6
100
AcDbLine
 10
132.044
 20
15.104
 30
0.0
 11
132.044
 21
14.484
 31
0.0
  0
LINE
  5
36D
330
1F
100
AcDbEntity
  8
LAY-1
  6
CONTINUOUS
 62
     6
100
AcDbLine
 10
131.2260963676
 20
14.484
 30
0.0
 11
132.044
 21
14.484
 31
0.0
  0
LINE
  5
36E
330
1F
100
AcDbEntity
  8
LAY-1
  6
CONTINUOUS
 62
     6
100
AcDbLine
 10
126.162
 20
14.484
 30
0.0
 11
126.9799036324
 21
14.484
 31
0.0
  0
LINE
  5
36F
330
1F
100
AcDbEntity
  8
LAY-1
  6
CONTINUOUS
 62
     6
100
AcDbLine
 10
128.1187928843
 20
14.484
 30
0.0
 11
130.0872071157
 21
14.484
 31
0.0
  0
LINE
  5
370
330
1F
100
AcDbEntity
  8
LAY-1
  6
CONTINUOUS
 62
     6
100
AcDbLine
 10
129.103
 20
16.722
 30
0.0
 11
130.8543693882
 21
16.136
 31
0.0
  0
LINE
  5
371
330
1F
100
AcDbEntity
  8
LAY-1
  6
CONTINUOUS
 62
     6
100
AcDbLine
 10
131.163
 20
16.03273364183
 30
0.0
 11
132.044
 21
15.73795516534
 31
0.0
  0
LINE
  5
372
330
1F
100
AcDbEntity
  8
LAY-1
  6
CONTINUOUS
 62
     6
100
AcDbLine
 10
129.103
 20
16.722
 30
0.0
 11
127.3516306118
 21
16.136
 31
0.0
  0
LINE
  5
373
330
1F
100
AcDbEntity
  8
LAY-1
  6
CONTINUOUS
 62
     6
100
AcDbLine
 10
127.043
 20
16.03273364183
 30
0.0
 11
126.162
 21
15.73795516534
 31
0.0
  0
LINE
  5
374
330
1F
100
AcDbEntity
  8
LAY-1
  6
CONTINUOUS
 62
     6
100
AcDbLine
 10
127.59
 20
13.35
 30
0.0
 11
130.616
 21
13.35
 31
0.0
  0
LINE
  5
375
330
1F
100
AcDbEntity
  8
LAY-1
  6
CONTINUOUS
 62
     6
100
AcDbLine
 10
138.032
 20
13.35
 30
0.0
 11
138.032
 21
12.73
 31
0.0
  0
LINE
  5
376
330
1F
100
AcDbEntity
  8
LAY-1
  6
CONTINUOUS
 62
     6
100
AcDbLine
 10
134.626
 20
13.35
 30
0.0
 11
134.626
 21
12.73
 31
0.0
  0
LINE
  5
377
330
1F
100
AcDbEntity
  8
LAY-1
  6
CONTINUOUS
 62
     6
100
AcDbLine
 10
132.252
 20
16.238
 30
0.0
 11
133.5739918321
 21
16.238
 31
0.0
  0
LINE
  5
378
330
1F
100
AcDbEntity
  8
LAY-1
  6
CONTINUOUS
 62
     6
100
AcDbLine
 10
132.252
 20
14.35
 30
0.0
 11
133.5739918321
 21
16.238
 31
0.0
  0
LINE
  5
379
330
1F
100
AcDbEntity
  8
LAY-1
  6
CONTINUOUS
 62
     6
100
AcDbLine
 10
137.93
 20
16.136
 30
0.0
 11
137.93
 21
15.516
 31
0.0
  0
LINE
  5
37A
330
1F
100
AcDbEntity
  8
LAY-1
  6
CONTINUOUS
 62
     6
100
AcDbLine
 10
133.18
 20
17.27
 30
0.0
 11
134.212
 21
17.27
 31
0.0
  0
LINE
  5
37B
330
1F
100
AcDbEntity
  8
LAY-1
  6
CONTINUOUS
 62
     6
100
AcDbLine
 10
135.968
 20
17.27
 30
0.0
 11
137.0
 21
17.27
 31
0.0
  0
LINE
  5
37C
330
1F
100
AcDbEntity
  8
LAY-1
  6
CONTINUOUS
 62
     6
100
AcDbLine
 10
134.212
 20
14.05532135026
 30
0.0
 11
135.038
 21
13.4769499237
 31
0.0
  0
LINE
  5
37D
330
1F
100
AcDbEntity
  8
LAY-1
  6
CONTINUOUS
 62
     6
100
AcDbLine
 10
134.0426556871
 20
15.28732135026
 30
0.0
 11
135.038
 21
14.59037375923
 31
0.0
  0
LINE
  5
37E
330
1F
100
AcDbEntity
  8
LAY-1
  6
CONTINUOUS
 62
     6
100
AcDbLine
 10
132.252
 20
14.35
 30
0.0
 11
132.252
 21
12.73
 31
0.0
  0
LINE
  5
37F
330
1F
100
AcDbEntity
  8
LAY-1
  6
CONTINUOUS
 62
     6
100
AcDbLine
 10
132.252
 20
16.858
 30
0.0
 11
132.252
 21
16.238
 31
0.0
  0
LINE
  5
380
330
1F
100
AcDbEntity
  8
LAY-1
  6
CONTINUOUS
 62
     6
100
AcDbLine
 10
133.18
 20
17.27
 30
0.0
 11
133.18
 21
16.858
 31
0.0
  0
LINE
  5
381
330
1F
100
AcDbEntity
  8
LAY-1
  6
CONTINUOUS
 62
     6
100
AcDbLine
 10
133.18
 20
14.05532135026
 30
0.0
 11
133.18
 21
12.73
 31
0.0
  0
LINE
  5
382
330
1F
100
AcDbEntity
  8
LAY-1
  6
CONTINUOUS
 62
     6
100
AcDbLine
 10
134.212
 20
17.27
 30
0.0
 11
134.212
 21
16.858
 31
0.0
  0
LINE
  5
383
330
1F
100
AcDbEntity
  8
LAY-1
  6
CONTINUOUS
 62
     6
100
AcDbLine
 10
134.212
 20
14.05532135026
 30
0.0
 11
134.212
 21
12.73
 31
0.0
  0
LINE
  5
384
330
1F
100
AcDbEntity
  8
LAY-1
  6
CONTINUOUS
 62
     6
100
AcDbLine
 10
135.038
 20
16.136
 30
0.0
 11
135.038
 21
15.516
 31
0.0
  0
LINE
  5
385
330
1F
100
AcDbEntity
  8
LAY-1
  6
CONTINUOUS
 62
     6
100
AcDbLine
 10
135.038
 20
14.59037375923
 30
0.0
 11
135.038
 21
13.4769499237
 31
0.0
  0
LINE
  5
386
330
1F
100
AcDbEntity
  8
LAY-1
  6
CONTINUOUS
 62
     6
100
AcDbLine
 10
132.252
 20
16.858
 30
0.0
 11
133.18
 21
16.858
 31
0.0
  0
LINE
  5
387
330
1F
100
AcDbEntity
  8
LAY-1
  6
CONTINUOUS
 62
     6
100
AcDbLine
 10
134.212
 20
16.858
 30
0.0
 11
135.1424567177
 21
16.858
 31
0.0
  0
LINE
  5
388
330
1F
100
AcDbEntity
  8
LAY-1
  6
CONTINUOUS
 62
     6
100
AcDbLine
 10
132.252
 20
12.73
 30
0.0
 11
133.18
 21
14.05532135026
 31
0.0
  0
LINE
  5
389
330
1F
100
AcDbEntity
  8
LAY-1
  6
CONTINUOUS
 62
     6
100
AcDbLine
 10
134.0426556871
 20
15.28732135026
 30
0.0
 11
135.1424567177
 21
16.858
 31
0.0
  0
LINE
  5
38A
330
1F
100
AcDbEntity
  8
LAY-1
  6
CONTINUOUS
 62
     6
100
AcDbLine
 10
135.968
 20
17.27
 30
0.0
 11
135.968
 21
16.136
 31
0.0
  0
LINE
  5
38B
330
1F
100
AcDbEntity
  8
LAY-1
  6
CONTINUOUS
 62
     6
100
AcDbLine
 10
135.038
 20
15.516
 30
0.0
 11
135.968
 21
15.516
 31
0.0
  0
LINE
  5
38C
330
1F
100
AcDbEntity
  8
LAY-1
  6
CONTINUOUS
 62
     6
100
AcDbLine
 10
137.0
 20
15.516
 30
0.0
 11
137.93
 21
15.516
 31
0.0
  0
LINE
  5
38D
330
1F
100
AcDbEntity
  8
LAY-1
  6
CONTINUOUS
 62
     6
100
AcDbLine
 10
137.0
 20
17.27
 30
0.0
 11
137.0
 21
16.136
 31
0.0
  0
LINE
  5
38E
330
1F
100
AcDbEntity
  8
LAY-1
  6
CONTINUOUS
 62
     6
100
AcDbLine
 10
135.038
 20
16.136
 30
0.0
 11
135.968
 21
16.136
 31
0.0
  0
LINE
  5
38F
330
1F
100
AcDbEntity
  8
LAY-1
  6
CONTINUOUS
 62
     6
100
AcDbLine
 10
137.0
 20
16.136
 30
0.0
 11
137.93
 21
16.136
 31
0.0
  0
LINE
  5
390
330
1F
100
AcDbEntity
  8
LAY-1
  6
CONTINUOUS
 62
     6
100
AcDbLine
 10
135.968
 20
15.516
 30
0.0
 11
135.968
 21
13.35
 31
0.0
  0
LINE
  5
391
330
1F
100
AcDbEntity
  8
LAY-1
  6
CONTINUOUS
 62
     6
100
AcDbLine
 10
134.626
 20
13.35
 30
0.0
 11
135.968
 21
13.35
 31
0.0
  0
LINE
  5
392
330
1F
100
AcDbEntity
  8
LAY-1
  6
CONTINUOUS
 62
     6
100
AcDbLine
 10
137.0
 20
13.35
 30
0.0
 11
138.032
 21
13.35
 31
0.0
  0
LINE
  5
393
330
1F
100
AcDbEntity
  8
LAY-1
  6
CONTINUOUS
 62
     6
100
AcDbLine
 10
137.0
 20
15.516
 30
0.0
 11
137.0
 21
13.35
 31
0.0
  0
LINE
  5
394
330
1F
100
AcDbEntity
  8
LAY-1
  6
CONTINUOUS
 62
     6
100
AcDbLine
 10
134.626
 20
12.73
 30
0.0
 11
138.032
 21
12.73
 31
0.0
  0
LINE
  5
395
330
1F
100
AcDbEntity
  8
LAY-1
  6
CONTINUOUS
 62
     6
100
AcDbLine
 10
133.18
 20
12.73
 30
0.0
 11
134.212
 21
12.73
 31
0.0
  0
LINE
  5
396
330
1F
100
AcDbEntity
  8
LAY-1
  6
CONTINUOUS
 62
     6
100
AcDbLine
 10
140.0
 20
32.0
 30
0.0
 11
140.0
 21
10.0
 31
0.0
  0
LINE
  5
397
330
1F
100
AcDbEntity
  8
LAY-1
  6
CONTINUOUS
 62
     6
100
AcDbLine
 10
145.0
 20
10.0
 30
0.0
 11
145.0
 21
32.0
 31
0.0
  0
LINE
  5
398
330
1F
100
AcDbEntity
  8
LAY-1
  6
CONTINUOUS
 62
     6
100
AcDbLine
 10
187.0
 20
32.0
 30
0.0
 11
187.0
 21
20.0
 31
0.0
  0
LINE
  5
399
330
1F
100
AcDbEntity
  8
LAY-1
  6
CONTINUOUS
 62
     6
100
AcDbLine
 10
71.00000000000003
 20
281.0
 30
0.0
 11
198.0
 21
281.0
 31
0.0
  0
LINE
  5
39A
330
1F
100
AcDbEntity
  8
LAY-1
  6
CONTINUOUS
 62
     6
100
AcDbLine
 10
71.00000000000003
 20
276.0
 30
0.0
 11
198.0
 21
276.0
 31
0.0
  0
LINE
  5
39B
330
1F
100
AcDbEntity
  8
LAY-1
  6
CONTINUOUS
 62
     6
100
AcDbLine
 10
71.00000000000003
 20
271.0
 30
0.0
 11
198.0
 21
271.0
 31
0.0
  0
LINE
  5
39C
330
1F
100
AcDbEntity
  8
LAY-1
  6
CONTINUOUS
 62
     6
100
AcDbLine
 10
71.00000000000003
 20
266.0
 30
0.0
 11
198.0
 21
266.0
 31
0.0
  0
TEXT
  5
39D
330
1F
100
AcDbEntity
  8
LAY-1
  6
CONTINUOUS
 62
     2
100
AcDbText
 10
53.0
 20
18.8
 30
0.0
 40
4.0
  1
間瀬
 41
1.049923634625294
  7
EXCADSTD
 72
     5
 11
59.59951998907328
 21
18.8
 31
0.0
100
AcDbText
  0
LINE
  5
39E
330
1F
100
AcDbEntity
  8
LAY-1
  6
CONTINUOUS
 62
     6
100
AcDbLine
 10
19.99999999999994
 20
37.00000000000004
 30
0.0
 11
109.9999999999999
 21
37.00000000000004
 31
0.0
  0
LINE
  5
39F
330
1F
100
AcDbEntity
  8
LAY-1
  6
CONTINUOUS
 62
     6
100
AcDbLine
 10
19.99999999999994
 20
42.00000000000004
 30
0.0
 11
109.9999999999999
 21
42.00000000000004
 31
0.0
  0
TEXT
  5
3A0
330
1F
100
AcDbEntity
  8
LAY-1
  6
CONTINUOUS
 62
     2
100
AcDbText
 10
100.5215997945399
 20
32.62896712031242
 30
0.0
 40
4.0
  1
担当
 41
1.166581818181819
  7
EXCADSTD
 72
     5
 11
107.8543997945399
 21
32.62896712031242
 31
0.0
100
AcDbText
  0
TEXT
  5
3A1
330
1F
100
AcDbEntity
  8
LAY-1
  6
CONTINUOUS
 62
     2
100
AcDbText
 10
38.8205286034821
 20
32.45148280621221
 30
0.0
 40
4.0
  1
変更事項
 41
1.217391304347826
  7
EXCADSTD
 72
     5
 11
54.8205286034821
 21
32.45148280621221
 31
0.0
100
AcDbText
  0
TEXT
  5
3A2
330
1F
100
AcDbEntity
  8
LAY-1
  6
CONTINUOUS
 62
     2
100
AcDbText
 10
20.60906538597331
 20
32.32137037583156
 30
0.0
 40
4.0
  1
符号
 41
1.166581818181818
  7
EXCADSTD
 72
     5
 11
27.94186538597331
 21
32.32137037583156
 31
0.0
100
AcDbText
  0
TEXT
  5
3A3
330
1F
100
AcDbEntity
  8
LAY-1
  6
CONTINUOUS
 62
     2
100
AcDbText
 10
66.71573339393893
 20
32.23867304387822
 30
0.0
 40
4.0
  1
制改No
 41
0.8513513513513514
  7
EXCADSTD
 72
     5
 11
78.71573339393893
 21
32.23867304387822
 31
0.0
100
AcDbText
  0
TEXT
  5
3A4
330
1F
100
AcDbEntity
  8
LAY-1
  6
CONTINUOUS
 62
     2
100
AcDbText
 10
88.07259769542097
 20
32.45146939174042
 30
0.0
 40
4.0
  1
日付
 41
1.166581818181819
  7
EXCADSTD
 72
     5
 11
95.40539769542097
 21
32.45146939174042
 31
0.0
100
AcDbText
  0
TEXT
  5
3A5
330
1F
100
AcDbEntity
  8
LAY-1
  6
CONTINUOUS
 62
     6
100
AcDbText
 10
23.01089100173564
 20
37.13416928174041
 30
0.0
 40
4.0
  1
△
 41
1.12
  7
EXCADSTD
 72
     5
 11
26.21089100173564
 21
37.13416928174041
 31
0.0
100
AcDbText
  0
LINE
  5
3A6
330
1F
100
AcDbEntity
  8
LAY-1
  6
CONTINUOUS
 62
     6
100
AcDbLine
 10
71.00000000000003
 20
286.0
 30
0.0
 11
71.00000000000003
 21
266.0
 31
0.0
  0
LINE
  5
3A7
330
1F
100
AcDbEntity
  8
LAY-1
  6
CONTINUOUS
 62
     6
100
AcDbLine
 10
82.00000000000003
 20
286.0
 30
0.0
 11
82.00000000000003
 21
266.0
 31
0.0
  0
LINE
  5
3A8
330
1F
100
AcDbEntity
  8
LAY-1
  6
CONTINUOUS
 62
     6
100
AcDbLine
 10
112.0
 20
286.0
 30
0.0
 11
112.0
 21
266.0
 31
0.0
  0
LINE
  5
3A9
330
1F
100
AcDbEntity
  8
LAY-1
  6
CONTINUOUS
 62
     6
100
AcDbLine
 10
162.0
 20
286.0
 30
0.0
 11
162.0
 21
266.0
 31
0.0
  0
LINE
  5
3AA
330
1F
100
AcDbEntity
  8
LAY-1
  6
CONTINUOUS
 62
     6
100
AcDbLine
 10
173.0
 20
286.0
 30
0.0
 11
173.0
 21
266.0
 31
0.0
  0
TEXT
  5
3AB
330
1F
100
AcDbEntity
  8
LAY-1
  6
CONTINUOUS
 62
     7
100
AcDbText
 10
92.30000000000001
 20
22.7
 30
0.0
 40
6.0
  1
レストハンド
 41
1.2
  7
EXCADSTD
 72
     5
 11
128.3
 21
22.7
 31
0.0
100
AcDbText
  0
TEXT
  5
3AC
330
1F
100
AcDbEntity
  8
LAY-1
  6
CONTINUOUS
 62
     2
100
AcDbText
 10
189.3792592593
 20
20.87
 30
0.0
 40
4.0
  1
１０
 41
1.312404545454547
  7
EXCADSTD
 72
     5
 11
197.6286592593
 21
20.87
 31
0.0
100
AcDbText
  0
TEXT
  5
3AD
330
1F
100
AcDbEntity
  8
LAY-1
  6
CONTINUOUS
 62
     2
100
AcDbText
 10
37.3
 20
18.8
 30
0.0
 40
4.0
  1
亀井
 41
1.049923634625294
  7
EXCADSTD
 72
     5
 11
43.89951998907328
 21
18.8
 31
0.0
100
AcDbText
  0
TEXT
  5
3AE
330
1F
100
AcDbEntity
  8
LAY-1
  6
CONTINUOUS
 62
     2
100
AcDbText
 10
34.25
 20
10.9
 30
0.0
 40
3.0
  1
２８
 41
1.26379696969697
  7
EXCADSTD
 72
     5
 11
40.2079
 21
10.9
 31
0.0
100
AcDbText
  0
TEXT
  5
3AF
330
1F
100
AcDbEntity
  8
LAY-1
  6
CONTINUOUS
 62
     2
100
AcDbText
 10
40.5
 20
10.9
 30
0.0
 40
3.0
  1
３
 41
1.493333333333335
  7
EXCADSTD
 72
     5
 11
43.7
 21
10.9
 31
0.0
100
AcDbText
  0
TEXT
  5
3B0
330
1F
100
AcDbEntity
  8
LAY-1
  6
CONTINUOUS
 62
     2
100
AcDbText
 10
44.25
 20
10.9
 30
0.0
 40
3.0
  1
１８
 41
1.26379696969697
  7
EXCADSTD
 72
     5
 11
50.2079
 21
10.9
 31
0.0
100
AcDbText
  0
TEXT
  5
3B1
330
1F
100
AcDbEntity
  8
LAY-1
  6
CONTINUOUS
 62
     2
100
AcDbText
 10
65.8
 20
18.8
 30
0.0
 40
4.0
  1
間瀬
 41
1.049923634625293
  7
EXCADSTD
 72
     5
 11
72.39951998907327
 21
18.8
 31
0.0
100
AcDbText
  0
TEXT
  5
3B2
330
1F
100
AcDbEntity
  8
LAY-1
  6
CONTINUOUS
 62
     2
100
AcDbText
 10
145.8
 20
23.0
 30
0.0
 40
6.0
  1
ＳＬＣ－２－７００
 41
0.7748428050826931
  7
EXCADSTD
 72
     5
 11
181.0000017166137
 21
23.0
 31
0.0
100
AcDbText
  0
TEXT
  5
3B3
330
1F
100
AcDbEntity
  8
LAY-1
  6
CONTINUOUS
 62
     2
100
AcDbText
 10
82.50000000000003
 20
276.5
 30
0.0
 40
4.0
  1
アーム（心材部分）
 41
0.8650943254524808
  7
EXCADSTD
 72
     5
 11
108.6999995708466
 21
276.5
 31
0.0
100
AcDbText
  0
TEXT
  5
3B4
330
1F
100
AcDbEntity
  8
LAY-1
  6
CONTINUOUS
 62
     2
100
AcDbText
 10
82.50000000000003
 20
271.5
 30
0.0
 40
4.0
  1
アーム（クッション部分）
 41
0.7640845070422537
  7
EXCADSTD
 72
     5
 11
113.5
 21
271.5
 31
0.0
100
AcDbText
  0
TEXT
  5
3B5
330
1F
100
AcDbEntity
  8
LAY-1
  6
CONTINUOUS
 62
     2
100
AcDbText
 10
82.50000000000003
 20
266.5
 30
0.0
 40
4.0
  1
ブラケット
 41
1.267241379310345
  7
EXCADSTD
 72
     5
 11
103.5
 21
266.5
 31
0.0
100
AcDbText
  0
TEXT
  5
3B6
330
1F
100
AcDbEntity
  8
LAY-1
  6
CONTINUOUS
 62
     2
100
AcDbText
 10
128.6
 20
281.5
 30
0.0
 40
4.0
  1
材質
 41
2.333163636363639
  7
EXCADSTD
 72
     5
 11
143.2656
 21
281.5
 31
0.0
100
AcDbText
  0
TEXT
  5
3B7
330
1F
100
AcDbEntity
  8
LAY-1
  6
CONTINUOUS
 62
     2
100
AcDbText
 10
113.1
 20
276.5
 30
0.0
 40
4.0
  1
スチール鋼管・アクリル系樹脂塗装
 41
0.9026315789473687
  7
EXCADSTD
 72
     5
 11
162.1
 21
276.5
 31
0.0
100
AcDbText
  0
TEXT
  5
3B8
330
1F
100
AcDbEntity
  8
LAY-1
  6
CONTINUOUS
 62
     2
100
AcDbText
 10
113.1
 20
271.5
 30
0.0
 40
4.0
  1
硬質樹脂（抗菌仕様）
 41
0.9194915254237294
  7
EXCADSTD
 72
     5
 11
144.1
 21
271.5
 31
0.0
100
AcDbText
  0
TEXT
  5
3B9
330
1F
100
AcDbEntity
  8
LAY-1
  6
CONTINUOUS
 62
     2
100
AcDbText
 10
113.1
 20
266.5
 30
0.0
 40
4.0
  1
スチール・硬質樹脂
 41
0.924528301886793
  7
EXCADSTD
 72
     5
 11
141.1
 21
266.5
 31
0.0
100
AcDbText
  0
LINE
  5
3BA
330
1F
100
AcDbEntity
  8
LAY-1
  6
CONTINUOUS
 62
     6
100
AcDbLine
 10
29.99999999999994
 20
32.00000000000004
 30
0.0
 11
29.99999999999994
 21
42.00000000000004
 31
0.0
  0
LINE
  5
3BB
330
1F
100
AcDbEntity
  8
LAY-1
  6
CONTINUOUS
 62
     6
100
AcDbLine
 10
64.99999999999994
 20
32.00000000000004
 30
0.0
 11
64.99999999999994
 21
42.00000000000005
 31
0.0
  0
LINE
  5
3BC
330
1F
100
AcDbEntity
  8
LAY-1
  6
CONTINUOUS
 62
     6
100
AcDbLine
 10
84.99999999999994
 20
32.00000000000004
 30
0.0
 11
84.99999999999994
 21
42.00000000000006
 31
0.0
  0
LINE
  5
3BD
330
1F
100
AcDbEntity
  8
LAY-1
  6
CONTINUOUS
 62
     6
100
AcDbLine
 10
99.99999999999991
 20
32.00000000000004
 30
0.0
 11
99.99999999999991
 21
42.00000000000006
 31
0.0
  0
LINE
  5
3BE
330
1F
100
AcDbEntity
  8
LAY-1
  6
CONTINUOUS
 62
     6
100
AcDbLine
 10
109.9999999999999
 20
32.00000000000004
 30
0.0
 11
109.9999999999999
 21
42.00000000000006
 31
0.0
  0
LINE
  5
3BF
330
1F
100
AcDbEntity
  8
LAY-1
  6
CONTINUOUS
 62
     6
100
AcDbLine
 10
81.79999999999896
 20
226.2
 30
0.0
 11
146.799999999999
 21
226.2
 31
0.0
  0
TEXT
  5
3C0
330
1F
100
AcDbEntity
  8
LAY-1
  6
CONTINUOUS
 62
     2
100
AcDbText
 10
137.959999999999
 20
221.7
 30
0.0
 40
4.0
  1
個数
 41
1.312404545454547
  7
EXCADSTD
 72
     5
 11
146.209399999999
 21
221.7
 31
0.0
100
AcDbText
  0
LINE
  5
3C1
330
1F
100
AcDbEntity
  8
LAY-1
  6
CONTINUOUS
 62
     6
100
AcDbLine
 10
81.79999999999896
 20
216.2
 30
0.0
 11
146.799999999999
 21
216.2
 31
0.0
  0
LINE
  5
3C2
330
1F
100
AcDbEntity
  8
LAY-1
  6
CONTINUOUS
 62
     6
100
AcDbLine
 10
81.79999999999782
 20
221.2
 30
0.0
 11
146.799999999999
 21
221.2
 31
0.0
  0
TEXT
  5
3C3
330
1F
100
AcDbEntity
  8
LAY-1
  6
CONTINUOUS
 62
     2
100
AcDbText
 10
181.96
 20
253.6
 30
0.0
 40
4.0
  1
個数
 41
1.312404545454547
  7
EXCADSTD
 72
     5
 11
190.2094
 21
253.6
 31
0.0
100
AcDbText
  0
LINE
  5
3C4
330
1F
100
AcDbEntity
  8
LAY-1
  6
CONTINUOUS
 62
     6
100
AcDbLine
 10
81.69999999999901
 20
258.1
 30
0.0
 11
190.8000000000001
 21
258.1
 31
0.0
  0
LINE
  5
3C5
330
1F
100
AcDbEntity
  8
LAY-1
  6
CONTINUOUS
 62
     6
100
AcDbLine
 10
81.69999999999884
 20
253.1
 30
0.0
 11
190.8000000000001
 21
253.1
 31
0.0
  0
LINE
  5
3C6
330
1F
100
AcDbEntity
  8
LAY-1
  6
CONTINUOUS
 62
     6
100
AcDbLine
 10
81.69999999999884
 20
248.1
 30
0.0
 11
190.8000000000001
 21
248.1
 31
0.0
  0
LINE
  5
3C7
330
1F
100
AcDbEntity
  8
LAY-1
  6
CONTINUOUS
 62
     6
100
AcDbLine
 10
81.69999999999884
 20
243.1
 30
0.0
 11
190.8
 21
243.1
 31
0.0
  0
LINE
  5
3C8
330
1F
100
AcDbEntity
  8
LAY-1
  6
CONTINUOUS
 62
     6
100
AcDbLine
 10
81.69999999999884
 20
238.1
 30
0.0
 11
190.8
 21
238.1
 31
0.0
  0
LINE
  5
3C9
330
1F
100
AcDbEntity
  8
LAY-1
  6
CONTINUOUS
 62
     6
100
AcDbLine
 10
81.69999999999901
 20
233.1
 30
0.0
 11
190.8
 21
233.1
 31
0.0
  0
LINE
  5
3CA
330
1F
100
AcDbEntity
  8
LAY-2
  6
CONTINUOUS
 62
    11
100
AcDbLine
 10
1241.000000000019
 20
1751.15556184369
 30
0.0
 11
1241.000000000019
 21
1577.002193649379
 31
0.0
  0
LINE
  5
3CB
330
1F
100
AcDbEntity
  8
LAY-2
  6
CONTINUOUS
 62
    11
100
AcDbLine
 10
1241.000000000019
 20
1751.15556184369
 30
0.0
 11
1241.000000000019
 21
1635.325655207278
 31
0.0
  0
DIMENSION
  5
3CD
330
1F
100
AcDbEntity
  8
LAY-2
  6
CONTINUOUS
 62
     3
100
AcDbDimension
  2
*D15
 10
414.8813148848603
 20
1828.000000003994
 30
0.0
 11
391.3813149444651
 21
1788.000000003995
 31
0.0
 70
   160
  3
ISO-25
100
AcDbAlignedDimension
 13
525.6030089551596
 23
1748.000000003994
 33
0.0
 14
525.7964016952501
 24
1828.000000003994
 34
0.0
 50
90.0
100
AcDbRotatedDimension
1001
ACAD
1000
DSTYLE
1002
{
1070
   270
1070
     2
1070
     6
1000
EX_NORM
1070
     7
1000
EX_NORM
1070
    41
1040
30.0
1070
    42
1040
50.60300827026367
1070
    44
1040
10.0
1070
    73
1070
     0
1070
    74
1070
     0
1070
    75
1070
     0
1070
    76
1070
     0
1070
    77
1070
     1
1070
    78
1070
     8
1070
   140
1040
40.0
1070
   147
1040
0.0
1070
   173
1070
     1
1070
   176
1070
     3
1070
   177
1070
     3
1070
   178
1070
     2
1070
   271
1070
     1
1070
   277
1070
     2
1070
   279
1070
     2
1070
   280
1070
     0
1070
   287
1070
     5
1070
   340
1005
3CC
1002
}
  0
DIMENSION
  5
3DB
330
1F
100
AcDbEntity
  8
LAY-2
  6
CONTINUOUS
 62
     3
100
AcDbDimension
  2
*D16
 10
1241.00000000006
 20
1527.534008094997
 30
0.0
 11
891.0000000000401
 21
1551.034008035392
 31
0.0
 70
   160
  3
ISO-25
100
AcDbAlignedDimension
 13
541.00000000002
 23
1788.000000003994
 33
0.0
 14
1241.00000000006
 24
1788.000000003994
 34
0.0
100
AcDbRotatedDimension
1001
ACAD
1000
DSTYLE
1002
{
1070
   270
1070
     2
1070
     6
1000
EX_NORM
1070
     7
1000
EX_NORM
1070
    41
1040
30.0
1070
    42
1040
6.999999880790483
1070
    44
1040
24.53400850296021
1070
    73
1070
     0
1070
    74
1070
     0
1070
    75
1070
     0
1070
    76
1070
     0
1070
    77
1070
     1
1070
    78
1070
     8
1070
   140
1040
40.0
1070
   147
1040
0.0
1070
   173
1070
     1
1070
   176
1070
     3
1070
   177
1070
     3
1070
   178
1070
     2
1070
   271
1070
     1
1070
   277
1070
     2
1070
   279
1070
     2
1070
   280
1070
     0
1070
   287
1070
     5
1070
   340
1005
3CC
1002
}
  0
DIMENSION
  5
3E8
330
1F
100
AcDbEntity
  8
LAY-2
  6
CONTINUOUS
 62
     3
100
AcDbDimension
  2
*D17
 10
711.00000000002
 20
1624.534008094997
 30
0.0
 11
976.00000000004
 21
1648.034008035392
 31
0.0
 70
   160
  3
ISO-25
100
AcDbAlignedDimension
 13
1241.00000000006
 23
1788.000000002001
 33
0.0
 14
711.00000000002
 24
1788.000000003994
 34
0.0
100
AcDbRotatedDimension
1001
ACAD
1000
DSTYLE
1002
{
1070
   270
1070
     2
1070
     6
1000
EX_NORM
1070
     7
1000
EX_NORM
1070
    41
1040
30.0
1070
    42
1040
6.99999988079071
1070
    44
1040
10.0
1070
    73
1070
     0
1070
    74
1070
     0
1070
    75
1070
     0
1070
    76
1070
     0
1070
    77
1070
     1
1070
    78
1070
     8
1070
   140
1040
40.0
1070
   147
1040
0.0
1070
   173
1070
     1
1070
   176
1070
     3
1070
   177
1070
     3
1070
   178
1070
     2
1070
   271
1070
     1
1070
   277
1070
     2
1070
   279
1070
     2
1070
   280
1070
     0
1070
   287
1070
     5
1070
   340
1005
3CC
1002
}
  0
DIMENSION
  5
3F5
330
1F
100
AcDbEntity
  8
LAY-2
  6
CONTINUOUS
 62
     3
100
AcDbDimension
  2
*D18
 10
1339.48131488486
 20
1817.000000002001
 30
0.0
 11
1315.981314944465
 21
1788.000000002001
 31
0.0
 70
   160
  3
ISO-25
100
AcDbAlignedDimension
 13
1231.00000000002
 23
1759.000000002001
 33
0.0
 14
1231.00000000002
 24
1817.000000002001
 34
0.0
 50
90.0
100
AcDbRotatedDimension
1001
ACAD
1000
DSTYLE
1002
{
1070
   270
1070
     2
1070
     6
1000
EX_NORM
1070
     7
1000
EX_NORM
1070
    41
1040
30.0
1070
    42
1040
6.99999988079071
1070
    44
1040
10.0
1070
    73
1070
     0
1070
    74
1070
     0
1070
    75
1070
     0
1070
    76
1070
     0
1070
    77
1070
     1
1070
    78
1070
     8
1070
   140
1040
40.0
1070
   147
1040
0.0
1070
   173
1070
     1
1070
   176
1070
     3
1070
   177
1070
     3
1070
   178
1070
     2
1070
   271
1070
     1
1070
   277
1070
     2
1070
   279
1070
     2
1070
   280
1070
     0
1070
   287
1070
     5
1070
   340
1005
3CC
1002
}
  0
DIMENSION
  5
404
330
1F
100
AcDbEntity
  8
LAY-2
  6
CONTINUOUS
 62
     3
100
AcDbDimension
  2
*D19
 10
473.2097595590171
 20
640.19999999987
 30
0.0
 11
449.7097596186218
 21
702.69999999987
 31
0.0
 70
   160
  3
ISO-25
100
AcDbAlignedDimension
 13
541.0000000000186
 23
765.19999999987
 33
0.0
 14
541.0000000000186
 24
640.19999999987
 34
0.0
 50
90.0
100
AcDbRotatedDimension
1001
ACAD
1000
DSTYLE
1002
{
1070
   270
1070
     2
1070
     6
1000
EX_NORM
1070
     7
1000
EX_NORM
1070
    41
1040
30.0
1070
    42
1040
6.99999988079071
1070
    44
1040
10.0
1070
    73
1070
     0
1070
    74
1070
     0
1070
    75
1070
     0
1070
    76
1070
     0
1070
    77
1070
     1
1070
    78
1070
     8
1070
   140
1040
40.0
1070
   147
1040
0.0
1070
   173
1070
     1
1070
   176
1070
     3
1070
   177
1070
     3
1070
   178
1070
     2
1070
   271
1070
     1
1070
   277
1070
     2
1070
   279
1070
     2
1070
   280
1070
     0
1070
   287
1070
     5
1070
   340
1005
3CC
1002
}
  0
DIMENSION
  5
411
330
1F
100
AcDbEntity
  8
LAY-2
  6
CONTINUOUS
 62
     3
100
AcDbDimension
  2
*D20
 10
411.2097595590205
 20
599.9999999999698
 30
0.0
 11
387.7097596186252
 21
689.9999999999699
 31
0.0
 70
   160
  3
ISO-25
100
AcDbAlignedDimension
 13
541.0000000000186
 23
779.9999999999698
 33
0.0
 14
541.0000000000186
 24
599.9999999999698
 34
0.0
 50
90.0
100
AcDbRotatedDimension
1001
ACAD
1000
DSTYLE
1002
{
1070
   270
1070
     2
1070
     6
1000
EX_NORM
1070
     7
1000
EX_NORM
1070
    41
1040
30.0
1070
    42
1040
6.99999988079071
1070
    44
1040
10.0
1070
    73
1070
     0
1070
    74
1070
     0
1070
    75
1070
     0
1070
    76
1070
     0
1070
    77
1070
     1
1070
    78
1070
     8
1070
   140
1040
40.0
1070
   147
1040
0.0
1070
   173
1070
     1
1070
   176
1070
     3
1070
   177
1070
     3
1070
   178
1070
     2
1070
   271
1070
     1
1070
   277
1070
     2
1070
   279
1070
     2
1070
   280
1070
     0
1070
   287
1070
     5
1070
   340
1005
3CC
1002
}
  0
DIMENSION
  5
41E
330
1F
100
AcDbEntity
  8
LAY-2
  6
CONTINUOUS
 62
     3
100
AcDbDimension
  2
*D21
 10
700.0999909805648
 20
814.1063428751938
 30
0.0
 11
694.1644317476507
 21
860.1144317462695
 31
0.0
 70
   165
  3
ISO-25
100
AcDb3PointAngularDimension
 13
719.1126857518616
 23
743.1499999999035
 33
0.0
 14
577.2000000012854
 24
885.0626857504863
 34
0.0
 15
577.2000000012818
 25
743.1499999999035
 35
0.0
1001
ACAD
1000
DSTYLE
1002
{
1070
   270
1070
     2
1070
     6
1000
EX_NORM
1070
     7
1000
EX_NORM
1070
    41
1040
30.0
1070
    42
1040
0.0
1070
    44
1040
0.0
1070
    73
1070
     0
1070
    74
1070
     0
1070
    75
1070
     1
1070
    76
1070
     1
1070
    77
1070
     1
1070
    78
1070
     8
1070
   140
1040
40.0
1070
   147
1040
0.0
1070
   173
1070
     1
1070
   176
1070
     3
1070
   177
1070
     3
1070
   178
1070
     2
1070
   271
1070
     1
1070
   277
1070
     2
1070
   279
1070
     2
1070
   280
1070
     0
1070
   287
1070
     5
1070
   340
1005
3CC
1002
}
  0
DIMENSION
  5
42A
330
1F
100
AcDbEntity
  8
LAY-2
  6
CONTINUOUS
 62
     3
100
AcDbDimension
  2
*D22
 10
1362.0
 20
599.9999999999696
 30
0.0
 11
1338.500000059605
 21
671.5749999999193
 31
0.0
 70
   160
  1
143.15
  3
ISO-25
100
AcDbAlignedDimension
 13
1240.939791554018
 23
743.1499999998698
 33
0.0
 14
541.0000000000186
 24
599.9999999999698
 34
0.0
 50
90.0
100
AcDbRotatedDimension
1001
ACAD
1000
DSTYLE
1002
{
1070
   270
1070
     2
1070
     6
1000
EX_NORM
1070
     7
1000
EX_NORM
1070
    41
1040
30.0
1070
    42
1040
11.0602080821991
1070
    44
1040
10.0
1070
    73
1070
     0
1070
    74
1070
     0
1070
    75
1070
     0
1070
    76
1070
     0
1070
    77
1070
     1
1070
    78
1070
     8
1070
   140
1040
40.0
1070
   147
1040
0.0
1070
   173
1070
     1
1070
   176
1070
     3
1070
   177
1070
     3
1070
   178
1070
     2
1070
   271
1070
     1
1070
   277
1070
     2
1070
   279
1070
     2
1070
   280
1070
     0
1070
   287
1070
     5
1070
   340
1005
3CC
1002
}
  0
DIMENSION
  5
437
330
1F
100
AcDbEntity
  8
LAY-2
  6
CONTINUOUS
 62
     3
100
AcDbDimension
  2
*D23
 10
346.0
 20
1733.0000000289
 30
0.0
 11
322.5000000596048
 21
1788.0000000289
 31
0.0
 70
   160
  3
ISO-25
100
AcDbAlignedDimension
 13
541.00000000002
 23
1843.0000000289
 33
0.0
 14
547.3000000000598
 24
1733.0000000289
 34
0.0
 50
90.0
100
AcDbRotatedDimension
1001
ACAD
1000
DSTYLE
1002
{
1070
   270
1070
     2
1070
     6
1000
EX_NORM
1070
     7
1000
EX_NORM
1070
    41
1040
30.0
1070
    42
1040
6.99999988079071
1070
    44
1040
10.0
1070
    73
1070
     0
1070
    74
1070
     0
1070
    75
1070
     0
1070
    76
1070
     0
1070
    77
1070
     1
1070
    78
1070
     8
1070
   140
1040
40.0
1070
   147
1040
0.0
1070
   173
1070
     1
1070
   176
1070
     3
1070
   177
1070
     3
1070
   178
1070
     2
1070
   271
1070
     1
1070
   277
1070
     2
1070
   279
1070
     2
1070
   280
1070
     0
1070
   287
1070
     5
1070
   340
1005
3CC
1002
}
  0
LINE
  5
444
330
1F
100
AcDbEntity
  8
LAY-2
  6
CONTINUOUS
 62
     6
100
AcDbLine
 10
1575.100000000028
 20
791.1722762077288
 30
0.0
 11
1575.100000000028
 21
936.7310376730659
 31
0.0
  0
DIMENSION
  5
445
330
1F
100
AcDbEntity
  8
LAY-2
  6
CONTINUOUS
 62
     3
100
AcDbDimension
  2
*D24
 10
1736.100000000493
 20
716.1499999974899
 30
0.0
 11
1712.600000060098
 21
738.6499999986899
 31
0.0
 70
   160
  3
ISO-25
100
AcDbAlignedDimension
 13
1575.100000000493
 23
761.1499999998898
 33
0.0
 14
1575.100000000493
 24
716.1499999974899
 34
0.0
 50
90.0
100
AcDbRotatedDimension
1001
ACAD
1000
DSTYLE
1002
{
1070
   270
1070
     2
1070
     6
1000
EX_NORM
1070
     7
1000
EX_NORM
1070
    41
1040
30.0
1070
    42
1040
6.99999988079071
1070
    44
1040
10.00000000000023
1070
    73
1070
     0
1070
    74
1070
     0
1070
    75
1070
     0
1070
    76
1070
     0
1070
    77
1070
     1
1070
    78
1070
     8
1070
   140
1040
40.0
1070
   147
1040
0.0
1070
   173
1070
     1
1070
   176
1070
     3
1070
   177
1070
     3
1070
   178
1070
     2
1070
   271
1070
     1
1070
   277
1070
     2
1070
   279
1070
     2
1070
   280
1070
     0
1070
   287
1070
     5
1070
   340
1005
3CC
1002
}
  0
LEADER
  5
454
330
1F
100
AcDbEntity
  8
LAY-2
  6
CONTINUOUS
 62
     3
100
AcDbLeader
  3
ISO-25
 76
     2
 10
669.0000000000003
 20
1801.1700000024
 30
0.0
 10
642.0760660549436
 20
2004.084526563925
 30
0.0
1001
ACAD
1000
DSTYLE
1002
{
1070
     5
1000
EX_NORM
1070
    41
1040
30.0
1070
   341
1005
4E
1002
}
  0
CIRCLE
  5
455
330
1F
100
AcDbEntity
  8
LAY-2
  6
CONTINUOUS
 62
     3
100
AcDbCircle
 10
633.6295582841201
 20
2038.0500459398
 30
0.0
 40
35.0
  0
TEXT
  5
456
330
1F
100
AcDbEntity
  8
LAY-2
  6
CONTINUOUS
 62
     2
100
AcDbText
 10
609.5808204720779
 20
2013.301308604595
 30
0.0
 40
49.49747467041016
  1
１
 41
1.120000000000001
  7
EXCADSTD
 72
     5
 11
649.1788002084061
 21
2013.301308604595
 31
0.0
100
AcDbText
  0
LEADER
  5
457
330
1F
100
AcDbEntity
  8
LAY-2
  6
CONTINUOUS
 62
     3
100
AcDbLeader
  3
ISO-25
 76
     2
 10
1020.94117647059
 20
1806.1700000024
 30
0.0
 10
1062.14899585015
 20
2006.322265560263
 30
0.0
1001
ACAD
1000
DSTYLE
1002
{
1070
     5
1000
EX_NORM
1070
    41
1040
30.0
1070
   341
1005
4E
1002
}
  0
CIRCLE
  5
458
330
1F
100
AcDbEntity
  8
LAY-2
  6
CONTINUOUS
 62
     3
100
AcDbCircle
 10
1066.94376851011
 20
2040.9922836615
 30
0.0
 40
35.0
  0
TEXT
  5
459
330
1F
100
AcDbEntity
  8
LAY-2
  6
CONTINUOUS
 62
     2
100
AcDbText
 10
1042.895030698068
 20
2016.243546326295
 30
0.0
 40
49.49747467041016
  1
２
 41
1.120000000000001
  7
EXCADSTD
 72
     5
 11
1082.493010434396
 21
2016.243546326295
 31
0.0
100
AcDbText
  0
DIMENSION
  5
45A
330
1F
100
AcDbEntity
  8
LAY-2
  6
CONTINUOUS
 62
     3
100
AcDbDimension
  2
*D25
 10
481.0
 20
1718.0000000035
 30
0.0
 11
457.5000000596052
 21
1623.0000000035
 31
0.0
 70
   160
  1
（70）
  3
ISO-25
100
AcDbAlignedDimension
 13
535.35282212573
 23
1788.0000000035
 33
0.0
 14
530.99999999998
 24
1718.0000000035
 34
0.0
 50
90.0
100
AcDbRotatedDimension
1001
ACAD
1000
DSTYLE
1002
{
1070
   270
1070
     2
1070
     6
1000
EX_NORM
1070
     7
1000
EX_NORM
1070
    41
1040
30.0
1070
    42
1040
6.99999988079071
1070
    44
1040
10.0
1070
    73
1070
     0
1070
    74
1070
     0
1070
    75
1070
     0
1070
    76
1070
     0
1070
    77
1070
     1
1070
    78
1070
     8
1070
   140
1040
40.0
1070
   147
1040
0.0
1070
   173
1070
     1
1070
   176
1070
     3
1070
   177
1070
     3
1070
   178
1070
     2
1070
   271
1070
     1
1070
   277
1070
     2
1070
   279
1070
     2
1070
   280
1070
     2
1070
   287
1070
     5
1070
   340
1005
3CC
1002
}
  0
DIMENSION
  5
467
330
1F
100
AcDbEntity
  8
LAY-2
  6
CONTINUOUS
 62
     3
100
AcDbDimension
  2
*D26
 10
473.0
 20
853.3499999999999
 30
0.0
 11
449.5000000596049
 21
943.3499999999998
 31
0.0
 70
   160
  3
ISO-25
100
AcDbAlignedDimension
 13
540.99999999999
 23
878.3499999999999
 33
0.0
 14
533.00000000002
 24
853.3499999999999
 34
0.0
 50
90.0
100
AcDbRotatedDimension
1001
ACAD
1000
DSTYLE
1002
{
1070
   270
1070
     2
1070
     6
1000
EX_NORM
1070
     7
1000
EX_NORM
1070
    41
1040
30.0
1070
    42
1040
6.99999988079071
1070
    44
1040
10.0
1070
    73
1070
     0
1070
    74
1070
     0
1070
    75
1070
     0
1070
    76
1070
     0
1070
    77
1070
     1
1070
    78
1070
     8
1070
   140
1040
40.0
1070
   147
1040
0.0
1070
   173
1070
     1
1070
   176
1070
     3
1070
   177
1070
     3
1070
   178
1070
     2
1070
   271
1070
     1
1070
   277
1070
     2
1070
   279
1070
     2
1070
   280
1070
     1
1070
   287
1070
     5
1070
   340
1005
3CC
1002
}
  0
CIRCLE
  5
476
330
1F
100
AcDbEntity
  8
LAY-2
  6
CONTINUOUS
 62
     3
100
AcDbCircle
 10
1327.0
 20
879.1700000024
 30
0.0
 40
35.0
  0
TEXT
  5
477
330
1F
100
AcDbEntity
  8
LAY-2
  6
CONTINUOUS
 62
     2
100
AcDbText
 10
1302.951262187958
 20
854.4212626671949
 30
0.0
 40
49.49747467041016
  1
３
 41
1.120000000000001
  7
EXCADSTD
 72
     5
 11
1342.549241924286
 21
854.4212626671949
 31
0.0
100
AcDbText
  0
LEADER
  5
478
330
1F
100
AcDbEntity
  8
LAY-2
  6
CONTINUOUS
 62
     3
100
AcDbLeader
  3
ISO-25
 76
     2
 10
1552.0
 20
695.1700000024
 30
0.0
 10
1354.093869801171
 20
857.0132353649982
 30
0.0
1001
ACAD
1000
DSTYLE
1002
{
1070
     5
1000
EX_NORM
1070
    41
1040
30.0
1070
   341
1005
4E
1002
}
  0
LINE
  5
479
330
1F
100
AcDbEntity
  8
LAY-2
  6
CONTINUOUS
 62
     6
100
AcDbLine
 10
560.2000000000162
 20
1765.15000002896
 30
0.0
 11
598.1999999999716
 21
1765.15000002896
 31
0.0
  0
LINE
  5
47A
330
1F
100
AcDbEntity
  8
LAY-2
  6
CONTINUOUS
 62
     6
100
AcDbLine
 10
559.6000000000167
 20
1815.100000028949
 30
0.0
 11
559.6000000000104
 21
1760.900000028945
 31
0.0
  0
ARC
  5
47B
330
1F
100
AcDbEntity
  8
LAY-2
  6
CONTINUOUS
 62
     6
100
AcDbCircle
 10
560.6000000000167
 20
1760.900000028945
 30
0.0
 40
1.0
100
AcDbArc
 50
180.0
 51
270.0
  0
ARC
  5
47C
330
1F
100
AcDbEntity
  8
LAY-2
  6
CONTINUOUS
 62
     6
100
AcDbCircle
 10
560.600000000024
 20
1815.100000028935
 30
0.0
 40
1.0
100
AcDbArc
 50
90.00000000000001
 51
180.0
  0
LINE
  5
47D
330
1F
100
AcDbEntity
  8
LAY-2
  6
CONTINUOUS
 62
     6
100
AcDbLine
 10
560.2000000000162
 20
1810.850000028949
 30
0.0
 11
598.1999999999716
 21
1810.850000028949
 31
0.0
  0
ARC
  5
47E
330
1F
100
AcDbEntity
  8
LAY-2
  6
CONTINUOUS
 62
     6
100
AcDbCircle
 10
594.3753591742316
 20
1809.592888105369
 30
0.0
 40
0.5
100
AcDbArc
 50
91.9999999997951
 51
180.0
  0
ARC
  5
47F
330
1F
100
AcDbEntity
  8
LAY-2
  6
CONTINUOUS
 62
     6
100
AcDbCircle
 10
594.3753591742316
 20
1766.422090232074
 30
0.0
 40
0.5
100
AcDbArc
 50
180.0
 51
268.000000000205
  0
LINE
  5
480
330
1F
100
AcDbEntity
  8
LAY-2
  6
CONTINUOUS
 62
     6
100
AcDbLine
 10
593.8753591742316
 20
1766.422090232074
 30
0.0
 11
593.8753591742316
 21
1809.592888105369
 31
0.0
  0
LINE
  5
481
330
1F
100
AcDbEntity
  8
LAY-2
  6
CONTINUOUS
 62
     6
100
AcDbLine
 10
551.5791653706729
 20
1752.011114801906
 30
0.0
 11
552.8999418870562
 21
1752.011114801906
 31
0.0
  0
LINE
  5
482
330
1F
100
AcDbEntity
  8
LAY-2
  6
CONTINUOUS
 62
     6
100
AcDbLine
 10
551.5300015380817
 20
1752.176499930188
 30
0.0
 11
552.8999418870562
 21
1753.069932355334
 31
0.0
  0
LINE
  5
483
330
1F
100
AcDbEntity
  8
LAY-2
  6
CONTINUOUS
 62
     6
100
AcDbLine
 10
552.3921356976316
 20
1754.798207039697
 30
0.0
 11
552.8999418870562
 21
1754.597435256277
 31
0.0
  0
LINE
  5
484
330
1F
100
AcDbEntity
  8
LAY-2
  6
CONTINUOUS
 62
     6
100
AcDbLine
 10
552.3938348899364
 20
1756.264827214429
 30
0.0
 11
552.8999418870562
 21
1756.453184826918
 31
0.0
  0
LINE
  5
485
330
1F
100
AcDbEntity
  8
LAY-2
  6
CONTINUOUS
 62
     6
100
AcDbLine
 10
549.3000000000648
 20
1756.16052813387
 30
0.0
 11
552.8999418870562
 21
1757.500002574044
 31
0.0
  0
LINE
  5
486
330
1F
100
AcDbEntity
  8
LAY-2
  6
CONTINUOUS
 62
     6
100
AcDbLine
 10
550.845522046624
 20
1745.199917666839
 30
0.0
 11
552.8999418870562
 21
1745.199917666839
 31
0.0
  0
LINE
  5
487
330
1F
100
AcDbEntity
  8
LAY-2
  6
CONTINUOUS
 62
     6
100
AcDbLine
 10
552.8999418870562
 20
1746.541155858067
 30
0.0
 11
550.8016158252112
 21
1745.368481295329
 31
0.0
  0
LINE
  5
488
330
1F
100
AcDbEntity
  8
LAY-2
  6
CONTINUOUS
 62
     6
100
AcDbLine
 10
552.392192659001
 20
1748.634719783556
 30
0.0
 11
552.8999418870562
 21
1748.434038687534
 31
0.0
  0
LINE
  5
489
330
1F
100
AcDbEntity
  8
LAY-2
  6
CONTINUOUS
 62
     6
100
AcDbLine
 10
552.3938839587181
 20
1750.10142988096
 30
0.0
 11
552.8999418870562
 21
1750.28975676262
 31
0.0
  0
LINE
  5
48A
330
1F
100
AcDbEntity
  8
LAY-2
  6
CONTINUOUS
 62
     6
100
AcDbLine
 10
549.3000000000648
 20
1744.000000028943
 30
0.0
 11
552.8999418870562
 21
1744.000000028943
 31
0.0
  0
LINE
  5
48B
330
1F
100
AcDbEntity
  8
LAY-2
  6
CONTINUOUS
 62
     6
100
AcDbLine
 10
552.3352738370049
 20
1748.718419458957
 30
0.0
 11
552.3352738370049
 21
1750.017081344856
 31
0.0
  0
LINE
  5
48C
330
1F
100
AcDbEntity
  8
LAY-2
  6
CONTINUOUS
 62
     6
100
AcDbLine
 10
549.3000000000648
 20
1748.870472587165
 30
0.0
 11
549.3000000000648
 21
1749.9292901406
 31
0.0
  0
LINE
  5
48D
330
1F
100
AcDbEntity
  8
LAY-2
  6
CONTINUOUS
 62
     6
100
AcDbLine
 10
551.9117373669687
 20
1748.957008816978
 30
0.0
 11
551.9117373669687
 21
1749.792495876849
 31
0.0
  0
LINE
  5
48E
330
1F
100
AcDbEntity
  8
LAY-2
  6
CONTINUOUS
 62
     6
100
AcDbLine
 10
550.7017375179976
 20
1749.471762950474
 30
0.0
 11
551.7903501563023
 21
1749.876845405641
 31
0.0
  0
LINE
  5
48F
330
1F
100
AcDbEntity
  8
LAY-2
  6
CONTINUOUS
 62
     6
100
AcDbLine
 10
549.3000000000648
 20
1748.870472587165
 30
0.0
 11
551.8959195279722
 21
1747.84418853002
 31
0.0
  0
LINE
  5
490
330
1F
100
AcDbEntity
  8
LAY-2
  6
CONTINUOUS
 62
     6
100
AcDbLine
 10
549.3000000000648
 20
1747.670491958168
 30
0.0
 11
551.8628304986678
 21
1747.670491958168
 31
0.0
  0
LINE
  5
491
330
1F
100
AcDbEntity
  8
LAY-2
  6
CONTINUOUS
 62
     6
100
AcDbLine
 10
549.3000000000648
 20
1746.541155858067
 30
0.0
 11
549.3000000000648
 21
1747.670491958168
 31
0.0
  0
LINE
  5
492
330
1F
100
AcDbEntity
  8
LAY-2
  6
CONTINUOUS
 62
     6
100
AcDbLine
 10
549.3000000000648
 20
1746.541155858067
 30
0.0
 11
551.3544611463922
 21
1746.541155858067
 31
0.0
  0
LINE
  5
493
330
1F
100
AcDbEntity
  8
LAY-2
  6
CONTINUOUS
 62
     6
100
AcDbLine
 10
549.3000000000648
 20
1745.199917666839
 30
0.0
 11
551.3983667092152
 21
1746.372591861523
 31
0.0
  0
LINE
  5
494
330
1F
100
AcDbEntity
  8
LAY-2
  6
CONTINUOUS
 62
     6
100
AcDbLine
 10
549.3000000000648
 20
1744.000000028943
 30
0.0
 11
549.3000000000648
 21
1745.199917666839
 31
0.0
  0
LINE
  5
495
330
1F
100
AcDbEntity
  8
LAY-2
  6
CONTINUOUS
 62
     6
100
AcDbLine
 10
550.700033908387
 20
1749.30371755793
 30
0.0
 11
551.7886465466918
 21
1748.873312953205
 31
0.0
  0
LINE
  5
496
330
1F
100
AcDbEntity
  8
LAY-2
  6
CONTINUOUS
 62
     6
100
AcDbLine
 10
552.3352265936737
 20
1754.88190287353
 30
0.0
 11
552.3352265936737
 21
1756.180479357688
 31
0.0
  0
LINE
  5
497
330
1F
100
AcDbEntity
  8
LAY-2
  6
CONTINUOUS
 62
     6
100
AcDbLine
 10
549.3000000000648
 20
1755.031034555999
 30
0.0
 11
549.3000000000648
 21
1756.16052813387
 31
0.0
  0
LINE
  5
498
330
1F
100
AcDbEntity
  8
LAY-2
  6
CONTINUOUS
 62
     6
100
AcDbLine
 10
549.3000000000648
 20
1755.031034555999
 30
0.0
 11
552.1734167906443
 21
1753.895019394564
 31
0.0
  0
LINE
  5
499
330
1F
100
AcDbEntity
  8
LAY-2
  6
CONTINUOUS
 62
     6
100
AcDbLine
 10
551.027181405957
 20
1752.977922222664
 30
0.0
 11
552.1894907001742
 21
1753.7359377428
 31
0.0
  0
LINE
  5
49A
330
1F
100
AcDbEntity
  8
LAY-2
  6
CONTINUOUS
 62
     6
100
AcDbLine
 10
549.3000000000648
 20
1754.199362942105
 30
0.0
 11
550.9240166727441
 21
1752.981308434668
 31
0.0
  0
LINE
  5
49B
330
1F
100
AcDbEntity
  8
LAY-2
  6
CONTINUOUS
 62
     6
100
AcDbLine
 10
549.3000000000648
 20
1753.069932355334
 30
0.0
 11
549.3000000000648
 21
1754.199362942105
 31
0.0
  0
LINE
  5
49C
330
1F
100
AcDbEntity
  8
LAY-2
  6
CONTINUOUS
 62
     6
100
AcDbLine
 10
549.3000000000648
 20
1753.069932355334
 30
0.0
 11
550.4957437851226
 21
1752.173114512778
 31
0.0
  0
LINE
  5
49D
330
1F
100
AcDbEntity
  8
LAY-2
  6
CONTINUOUS
 62
     6
100
AcDbLine
 10
549.3000000000648
 20
1752.011114801906
 30
0.0
 11
550.4417433996168
 21
1752.011114801906
 31
0.0
  0
LINE
  5
49E
330
1F
100
AcDbEntity
  8
LAY-2
  6
CONTINUOUS
 62
     6
100
AcDbLine
 10
549.3000000000648
 20
1751.058720727364
 30
0.0
 11
549.3000000000648
 21
1752.011114801906
 31
0.0
  0
LINE
  5
49F
330
1F
100
AcDbEntity
  8
LAY-2
  6
CONTINUOUS
 62
     6
100
AcDbLine
 10
549.3000000000648
 20
1751.058720727364
 30
0.0
 11
551.8353332071019
 21
1751.058720727364
 31
0.0
  0
LINE
  5
4A0
330
1F
100
AcDbEntity
  8
LAY-2
  6
CONTINUOUS
 62
     6
100
AcDbLine
 10
550.700033908387
 20
1755.467208613328
 30
0.0
 11
551.7886465466918
 21
1755.03680400861
 31
0.0
  0
LINE
  5
4A1
330
1F
100
AcDbEntity
  8
LAY-2
  6
CONTINUOUS
 62
     6
100
AcDbLine
 10
550.7017375179976
 20
1755.635254005887
 30
0.0
 11
551.7903501563023
 21
1756.040336461039
 31
0.0
  0
LINE
  5
4A2
330
1F
100
AcDbEntity
  8
LAY-2
  6
CONTINUOUS
 62
     6
100
AcDbLine
 10
551.9117373669687
 20
1755.120499872384
 30
0.0
 11
551.9117373669687
 21
1755.955986932255
 31
0.0
  0
LINE
  5
4A3
330
1F
100
AcDbEntity
  8
LAY-2
  6
CONTINUOUS
 62
     6
100
AcDbLine
 10
549.3000000000648
 20
1749.9292901406
 30
0.0
 11
551.8667198848461
 21
1750.884371000269
 31
0.0
  0
LINE
  5
4A4
330
1F
100
AcDbEntity
  8
LAY-2
  6
CONTINUOUS
 62
     6
100
AcDbLine
 10
552.8999418870562
 20
1744.000000028943
 30
0.0
 11
552.8999418870562
 21
1745.199917666839
 31
0.0
  0
LINE
  5
4A5
330
1F
100
AcDbEntity
  8
LAY-2
  6
CONTINUOUS
 62
     6
100
AcDbLine
 10
552.8999418870562
 20
1746.541155858067
 30
0.0
 11
552.8999418870562
 21
1748.434038687534
 31
0.0
  0
LINE
  5
4A6
330
1F
100
AcDbEntity
  8
LAY-2
  6
CONTINUOUS
 62
     6
100
AcDbLine
 10
552.8999418870562
 20
1753.069932355334
 30
0.0
 11
552.8999418870562
 21
1754.597435256277
 31
0.0
  0
LINE
  5
4A7
330
1F
100
AcDbEntity
  8
LAY-2
  6
CONTINUOUS
 62
     6
100
AcDbLine
 10
552.8999418870562
 20
1756.453184826918
 30
0.0
 11
552.8999418870562
 21
1757.500002574044
 31
0.0
  0
LINE
  5
4A8
330
1F
100
AcDbEntity
  8
LAY-2
  6
CONTINUOUS
 62
     6
100
AcDbLine
 10
552.8999418870562
 20
1750.28975676262
 30
0.0
 11
552.8999418870562
 21
1752.011114801906
 31
0.0
  0
ARC
  5
4A9
330
1F
100
AcDbEntity
  8
LAY-2
  6
CONTINUOUS
 62
     6
100
AcDbCircle
 10
551.3544611463922
 20
1746.451155858078
 30
0.0
 40
0.09
100
AcDbArc
 50
299.19868253466
 51
90.00000000000001
  0
ARC
  5
4AA
330
1F
100
AcDbEntity
  8
LAY-2
  6
CONTINUOUS
 62
     6
100
AcDbCircle
 10
550.845522046624
 20
1745.289917666836
 30
0.0
 40
0.09
100
AcDbArc
 50
119.199162840574
 51
270.0
  0
ARC
  5
4AB
330
1F
100
AcDbEntity
  8
LAY-2
  6
CONTINUOUS
 62
     6
100
AcDbCircle
 10
551.8628304986678
 20
1747.760491958179
 30
0.0
 40
0.09
100
AcDbArc
 50
270.0
 51
68.42887814757134
  0
ARC
  5
4AC
330
1F
100
AcDbEntity
  8
LAY-2
  6
CONTINUOUS
 62
     6
100
AcDbCircle
 10
550.7331247286611
 20
1749.387413421696
 30
0.0
 40
0.09
100
AcDbArc
 50
110.4106820452397
 51
248.4276521042164
  0
ARC
  5
4AD
330
1F
100
AcDbEntity
  8
LAY-2
  6
CONTINUOUS
 62
     6
100
AcDbCircle
 10
551.821737366965
 20
1748.957008816978
 30
0.0
 40
0.09
100
AcDbArc
 50
248.4276521042164
 51
0.0
  0
ARC
  5
4AE
330
1F
100
AcDbEntity
  8
LAY-2
  6
CONTINUOUS
 62
     6
100
AcDbCircle
 10
551.821737366965
 20
1749.792495876849
 30
0.0
 40
0.09
100
AcDbArc
 50
0.0
 51
110.4106820452397
  0
ARC
  5
4AF
330
1F
100
AcDbEntity
  8
LAY-2
  6
CONTINUOUS
 62
     6
100
AcDbCircle
 10
552.4252738370024
 20
1748.718419458957
 30
0.0
 40
0.09
100
AcDbArc
 50
180.0
 51
248.4342527755859
  0
ARC
  5
4B0
330
1F
100
AcDbEntity
  8
LAY-2
  6
CONTINUOUS
 62
     6
100
AcDbCircle
 10
552.4252738370024
 20
1750.017081344856
 30
0.0
 40
0.09
100
AcDbArc
 50
110.4124940788513
 51
180.0
  0
ARC
  5
4B1
330
1F
100
AcDbEntity
  8
LAY-2
  6
CONTINUOUS
 62
     6
100
AcDbCircle
 10
551.8353332071019
 20
1750.96872072736
 30
0.0
 40
0.09
100
AcDbArc
 50
290.4103200453458
 51
90.00000000000001
  0
ARC
  5
4B2
330
1F
100
AcDbEntity
  8
LAY-2
  6
CONTINUOUS
 62
     6
100
AcDbCircle
 10
550.4417433996168
 20
1752.101114801909
 30
0.0
 40
0.09
100
AcDbArc
 50
270.0
 51
53.12979557452938
  0
ARC
  5
4B3
330
1F
100
AcDbEntity
  8
LAY-2
  6
CONTINUOUS
 62
     6
100
AcDbCircle
 10
551.5791653706729
 20
1752.101114801909
 30
0.0
 40
0.09
100
AcDbArc
 50
123.1111385284564
 51
270.0
  0
ARC
  5
4B4
330
1F
100
AcDbEntity
  8
LAY-2
  6
CONTINUOUS
 62
     6
100
AcDbCircle
 10
550.9780178645196
 20
1753.053307540816
 30
0.0
 40
0.09
100
AcDbArc
 50
233.1291539654676
 51
303.1109172418745
  0
ARC
  5
4B5
330
1F
100
AcDbEntity
  8
LAY-2
  6
CONTINUOUS
 62
     6
100
AcDbCircle
 10
552.1403271587296
 20
1753.811323060959
 30
0.0
 40
0.09
100
AcDbArc
 50
303.1109172418745
 51
68.42846562084799
  0
ARC
  5
4B6
330
1F
100
AcDbEntity
  8
LAY-2
  6
CONTINUOUS
 62
     6
100
AcDbCircle
 10
552.4252265936702
 20
1754.88190287353
 30
0.0
 40
0.09
100
AcDbArc
 50
180.0
 51
248.4276002402764
  0
ARC
  5
4B7
330
1F
100
AcDbEntity
  8
LAY-2
  6
CONTINUOUS
 62
     6
100
AcDbCircle
 10
552.4252265936702
 20
1756.180479357688
 30
0.0
 40
0.09
100
AcDbArc
 50
110.413734067204
 51
180.0
  0
ARC
  5
4B8
330
1F
100
AcDbEntity
  8
LAY-2
  6
CONTINUOUS
 62
     6
100
AcDbCircle
 10
551.821737366965
 20
1755.120499872384
 30
0.0
 40
0.09
100
AcDbArc
 50
248.4276521042164
 51
0.0
  0
ARC
  5
4B9
330
1F
100
AcDbEntity
  8
LAY-2
  6
CONTINUOUS
 62
     6
100
AcDbCircle
 10
551.821737366965
 20
1755.955986932255
 30
0.0
 40
0.09
100
AcDbArc
 50
0.0
 51
110.4106820452397
  0
ARC
  5
4BA
330
1F
100
AcDbEntity
  8
LAY-2
  6
CONTINUOUS
 62
     6
100
AcDbCircle
 10
550.7331247286611
 20
1755.550904477109
 30
0.0
 40
0.09
100
AcDbArc
 50
110.4106820452397
 51
248.4276521042164
  0
LINE
  5
4BB
330
1F
100
AcDbEntity
  8
LAY-2
  6
CONTINUOUS
 62
     6
100
AcDbLine
 10
598.6999999999653
 20
1764.65000002896
 30
0.0
 11
598.6999999999716
 21
1760.400000028945
 31
0.0
  0
ARC
  5
4BC
330
1F
100
AcDbEntity
  8
LAY-2
  6
CONTINUOUS
 62
     6
100
AcDbCircle
 10
598.1999999999716
 20
1764.65000002896
 30
0.0
 40
0.5
100
AcDbArc
 50
0.0
 51
90.00000000000001
  0
LINE
  5
4BD
330
1F
100
AcDbEntity
  8
LAY-2
  6
CONTINUOUS
 62
     6
100
AcDbLine
 10
598.3363000000136
 20
1810.350000028949
 30
0.0
 11
598.3363000000136
 21
1810.231511979065
 31
0.0
  0
ARC
  5
4BE
330
1F
100
AcDbEntity
  8
LAY-2
  6
CONTINUOUS
 62
     6
100
AcDbCircle
 10
597.8363000000136
 20
1765.65000002896
 30
0.0
 40
0.5
100
AcDbArc
 50
270.0
 51
0.0
  0
ARC
  5
4BF
330
1F
100
AcDbEntity
  8
LAY-2
  6
CONTINUOUS
 62
     6
100
AcDbCircle
 10
598.1999999999716
 20
1760.400000028945
 30
0.0
 40
0.5
100
AcDbArc
 50
270.0
 51
0.0
  0
LINE
  5
4C0
330
1F
100
AcDbEntity
  8
LAY-2
  6
CONTINUOUS
 62
     6
100
AcDbLine
 10
598.6999999999716
 20
1811.350000028949
 30
0.0
 11
598.6999999999798
 21
1815.600000028928
 31
0.0
  0
ARC
  5
4C1
330
1F
100
AcDbEntity
  8
LAY-2
  6
CONTINUOUS
 62
     6
100
AcDbCircle
 10
598.1999999999789
 20
1815.600000028928
 30
0.0
 40
0.5
100
AcDbArc
 50
0.0
 51
90.00000000000001
  0
ARC
  5
4C2
330
1F
100
AcDbEntity
  8
LAY-2
  6
CONTINUOUS
 62
     6
100
AcDbCircle
 10
598.1999999999716
 20
1811.350000028949
 30
0.0
 40
0.5
100
AcDbArc
 50
270.0
 51
0.0
  0
ARC
  5
4C3
330
1F
100
AcDbEntity
  8
LAY-2
  6
CONTINUOUS
 62
     6
100
AcDbCircle
 10
597.8363000000136
 20
1810.350000028949
 30
0.0
 40
0.5
100
AcDbArc
 50
0.0
 51
90.00000000000001
  0
ARC
  5
4C4
330
1F
100
AcDbEntity
  8
LAY-2
  6
CONTINUOUS
 62
     6
100
AcDbCircle
 10
531.2801893824981
 20
1788.007489168718
 30
0.0
 40
85.0
100
AcDbArc
 50
342.7088690305453
 51
17.28103459079822
  0
LINE
  5
4C5
330
1F
100
AcDbEntity
  8
LAY-2
  6
CONTINUOUS
 62
     6
100
AcDbLine
 10
609.137716129404
 20
1815.257489168718
 30
0.0
 11
599.0801893824937
 21
1815.257489168718
 31
0.0
  0
ARC
  5
4C6
330
1F
100
AcDbEntity
  8
LAY-2
  6
CONTINUOUS
 62
     6
100
AcDbCircle
 10
531.2801893824981
 20
1788.007489168718
 30
0.0
 40
82.4885263
100
AcDbArc
 50
340.7836159010503
 51
19.28995813237455
  0
LINE
  5
4C7
330
1F
100
AcDbEntity
  8
LAY-2
  6
CONTINUOUS
 62
     6
100
AcDbLine
 10
599.0801893824937
 20
1762.857489168716
 30
0.0
 11
598.6999999999798
 21
1762.857489168716
 31
0.0
  0
ARC
  5
4C8
330
1F
100
AcDbEntity
  8
LAY-2
  6
CONTINUOUS
 62
     6
100
AcDbCircle
 10
598.780189382499
 20
1810.547195801155
 30
0.0
 40
0.3
100
AcDbArc
 50
271.9999999997951
 51
0.0
  0
LINE
  5
4C9
330
1F
100
AcDbEntity
  8
LAY-2
  6
CONTINUOUS
 62
     6
100
AcDbLine
 10
599.0801893824937
 20
1810.547195801155
 30
0.0
 11
599.0801893824937
 21
1815.257489168718
 31
0.0
  0
LINE
  5
4CA
330
1F
100
AcDbEntity
  8
LAY-2
  6
CONTINUOUS
 62
     6
100
AcDbLine
 10
598.7906592315094
 20
1810.247378553067
 30
0.0
 11
594.3579094258794
 21
1810.09258351889
 31
0.0
  0
ARC
  5
4CB
330
1F
100
AcDbEntity
  8
LAY-2
  6
CONTINUOUS
 62
     6
100
AcDbCircle
 10
598.780189382499
 20
1765.467782536274
 30
0.0
 40
0.3
100
AcDbArc
 50
0.0
 51
87.99999999978766
  0
LINE
  5
4CC
330
1F
100
AcDbEntity
  8
LAY-2
  6
CONTINUOUS
 62
     6
100
AcDbLine
 10
598.7906592315094
 20
1765.767599784391
 30
0.0
 11
594.3579094258794
 21
1765.922394818561
 31
0.0
  0
LINE
  5
4CD
330
1F
100
AcDbEntity
  8
LAY-2
  6
CONTINUOUS
 62
     6
100
AcDbLine
 10
599.0801893824937
 20
1765.467782536274
 30
0.0
 11
599.0801893824937
 21
1760.757489168718
 31
0.0
  0
LINE
  5
4CE
330
1F
100
AcDbEntity
  8
LAY-2
  6
CONTINUOUS
 62
     6
100
AcDbLine
 10
609.137716129404
 20
1815.257489168725
 30
0.0
 11
612.4432197596298
 21
1813.257489168718
 31
0.0
  0
LINE
  5
4CF
330
1F
100
AcDbEntity
  8
LAY-2
  6
CONTINUOUS
 62
     6
100
AcDbLine
 10
609.137716129404
 20
1760.757489168718
 30
0.0
 11
598.6913672157498
 21
1760.757489168718
 31
0.0
  0
LINE
  5
4D0
330
1F
100
AcDbEntity
  8
LAY-2
  6
CONTINUOUS
 62
     6
100
AcDbLine
 10
609.137716129404
 20
1760.757489168718
 30
0.0
 11
612.4432197596298
 21
1762.757489168718
 31
0.0
  0
LINE
  5
4D1
330
1F
100
AcDbEntity
  8
LAY-2
  6
EXLTYPE3
 62
     6
100
AcDbLine
 10
525.6030089551596
 20
1748.000000003529
 30
0.0
 11
554.4516416061824
 21
1748.000000003529
 31
0.0
  0
LINE
  5
4D2
330
1F
100
AcDbEntity
  8
LAY-2
  6
EXLTYPE3
 62
     6
100
AcDbLine
 10
525.796401695251
 20
1828.000000003529
 30
0.0
 11
556.5137014818038
 21
1828.000000003529
 31
0.0
  0
LINE
  5
4D3
330
1F
100
AcDbEntity
  8
LAY-2
  6
EXLTYPE3
 62
     6
100
AcDbLine
 10
606.8000000000138
 20
1767.146008633106
 30
0.0
 11
606.8000000000138
 21
1809.555419291318
 31
0.0
  0
LINE
  5
4D4
330
1F
100
AcDbEntity
  8
LAY-2
  6
EXLTYPE3
 62
     6
100
AcDbLine
 10
610.8500000000167
 20
1800.500000027838
 30
0.0
 11
602.7500000000191
 21
1800.500000027838
 31
0.0
  0
LINE
  5
4D5
330
1F
100
AcDbEntity
  8
LAY-2
  6
EXLTYPE3
 62
     6
100
AcDbLine
 10
535.3528221257257
 20
1788.000000003529
 30
0.0
 11
1271.088007588194
 21
1788.000000003529
 31
0.0
  0
CIRCLE
  5
4D6
330
1F
100
AcDbEntity
  8
LAY-2
  6
EXLTYPE1
 62
     6
100
AcDbCircle
 10
606.8000000000138
 20
1775.500000027838
 30
0.0
 40
4.7
  0
ARC
  5
4D7
330
1F
100
AcDbEntity
  8
LAY-2
  6
EXLTYPE1
 62
     6
100
AcDbCircle
 10
605.1250000000191
 20
1773.825000027835
 30
0.0
 40
1.175
100
AcDbArc
 50
0.0
 51
90.00000000000001
  0
ARC
  5
4D8
330
1F
100
AcDbEntity
  8
LAY-2
  6
EXLTYPE1
 62
     6
100
AcDbCircle
 10
608.4750000000167
 20
1777.17500002784
 30
0.0
 40
1.175
100
AcDbArc
 50
180.0
 51
270.0
  0
ARC
  5
4D9
330
1F
100
AcDbEntity
  8
LAY-2
  6
EXLTYPE1
 62
     6
100
AcDbCircle
 10
608.4750000000167
 20
1773.825000027835
 30
0.0
 40
1.175
100
AcDbArc
 50
90.00000000000001
 51
180.0
  0
ARC
  5
4DA
330
1F
100
AcDbEntity
  8
LAY-2
  6
EXLTYPE1
 62
     6
100
AcDbCircle
 10
605.1250000000191
 20
1777.17500002784
 30
0.0
 40
1.175
100
AcDbArc
 50
270.0
 51
0.0
  0
LINE
  5
4DB
330
1F
100
AcDbEntity
  8
LAY-2
  6
EXLTYPE1
 62
     6
100
AcDbLine
 10
607.3000000000138
 20
1773.350000027836
 30
0.0
 11
606.3000000000138
 21
1773.350000027836
 31
0.0
  0
LINE
  5
4DC
330
1F
100
AcDbEntity
  8
LAY-2
  6
EXLTYPE1
 62
     6
100
AcDbLine
 10
605.1250000000191
 20
1775.000000027838
 30
0.0
 11
604.6500000000196
 21
1775.000000027838
 31
0.0
  0
LINE
  5
4DD
330
1F
100
AcDbEntity
  8
LAY-2
  6
EXLTYPE1
 62
     6
100
AcDbLine
 10
604.6500000000196
 20
1775.000000027838
 30
0.0
 11
604.6500000000196
 21
1776.000000027838
 31
0.0
  0
LINE
  5
4DE
330
1F
100
AcDbEntity
  8
LAY-2
  6
EXLTYPE1
 62
     6
100
AcDbLine
 10
606.3000000000138
 20
1777.650000027839
 30
0.0
 11
607.3000000000138
 21
1777.650000027839
 31
0.0
  0
LINE
  5
4DF
330
1F
100
AcDbEntity
  8
LAY-2
  6
EXLTYPE1
 62
     6
100
AcDbLine
 10
607.3000000000138
 20
1777.650000027839
 30
0.0
 11
607.3000000000138
 21
1777.17500002784
 31
0.0
  0
LINE
  5
4E0
330
1F
100
AcDbEntity
  8
LAY-2
  6
EXLTYPE1
 62
     6
100
AcDbLine
 10
608.9500000000162
 20
1776.000000027838
 30
0.0
 11
608.9500000000162
 21
1775.000000027838
 31
0.0
  0
LINE
  5
4E1
330
1F
100
AcDbEntity
  8
LAY-2
  6
EXLTYPE1
 62
     6
100
AcDbLine
 10
608.9500000000162
 20
1775.000000027838
 30
0.0
 11
608.4750000000167
 21
1775.000000027838
 31
0.0
  0
LINE
  5
4E2
330
1F
100
AcDbEntity
  8
LAY-2
  6
EXLTYPE1
 62
     6
100
AcDbLine
 10
607.3000000000138
 20
1773.825000027835
 30
0.0
 11
607.3000000000138
 21
1773.350000027836
 31
0.0
  0
LINE
  5
4E3
330
1F
100
AcDbEntity
  8
LAY-2
  6
EXLTYPE1
 62
     6
100
AcDbLine
 10
606.3000000000138
 20
1773.350000027836
 30
0.0
 11
606.3000000000138
 21
1773.825000027835
 31
0.0
  0
LINE
  5
4E4
330
1F
100
AcDbEntity
  8
LAY-2
  6
EXLTYPE1
 62
     6
100
AcDbLine
 10
608.4750000000167
 20
1776.000000027838
 30
0.0
 11
608.9500000000162
 21
1776.000000027838
 31
0.0
  0
LINE
  5
4E5
330
1F
100
AcDbEntity
  8
LAY-2
  6
EXLTYPE1
 62
     6
100
AcDbLine
 10
604.6500000000196
 20
1776.000000027838
 30
0.0
 11
605.1250000000191
 21
1776.000000027838
 31
0.0
  0
LINE
  5
4E6
330
1F
100
AcDbEntity
  8
LAY-2
  6
EXLTYPE1
 62
     6
100
AcDbLine
 10
606.3000000000138
 20
1777.17500002784
 30
0.0
 11
606.3000000000138
 21
1777.650000027839
 31
0.0
  0
CIRCLE
  5
4E7
330
1F
100
AcDbEntity
  8
LAY-2
  6
EXLTYPE1
 62
     6
100
AcDbCircle
 10
606.8000000000138
 20
1800.500000027838
 30
0.0
 40
4.7
  0
ARC
  5
4E8
330
1F
100
AcDbEntity
  8
LAY-2
  6
EXLTYPE1
 62
     6
100
AcDbCircle
 10
605.1250000000191
 20
1798.825000027835
 30
0.0
 40
1.175
100
AcDbArc
 50
0.0
 51
90.00000000000001
  0
ARC
  5
4E9
330
1F
100
AcDbEntity
  8
LAY-2
  6
EXLTYPE1
 62
     6
100
AcDbCircle
 10
608.4750000000167
 20
1802.17500002784
 30
0.0
 40
1.175
100
AcDbArc
 50
180.0
 51
270.0
  0
ARC
  5
4EA
330
1F
100
AcDbEntity
  8
LAY-2
  6
EXLTYPE1
 62
     6
100
AcDbCircle
 10
608.4750000000167
 20
1798.825000027835
 30
0.0
 40
1.175
100
AcDbArc
 50
90.00000000000001
 51
180.0
  0
ARC
  5
4EB
330
1F
100
AcDbEntity
  8
LAY-2
  6
EXLTYPE1
 62
     6
100
AcDbCircle
 10
605.1250000000191
 20
1802.17500002784
 30
0.0
 40
1.175
100
AcDbArc
 50
270.0
 51
0.0
  0
LINE
  5
4EC
330
1F
100
AcDbEntity
  8
LAY-2
  6
EXLTYPE1
 62
     6
100
AcDbLine
 10
607.3000000000138
 20
1798.350000027836
 30
0.0
 11
606.3000000000138
 21
1798.350000027836
 31
0.0
  0
LINE
  5
4ED
330
1F
100
AcDbEntity
  8
LAY-2
  6
EXLTYPE1
 62
     6
100
AcDbLine
 10
605.1250000000191
 20
1800.000000027838
 30
0.0
 11
604.6500000000196
 21
1800.000000027838
 31
0.0
  0
LINE
  5
4EE
330
1F
100
AcDbEntity
  8
LAY-2
  6
EXLTYPE1
 62
     6
100
AcDbLine
 10
604.6500000000196
 20
1800.000000027838
 30
0.0
 11
604.6500000000196
 21
1801.000000027838
 31
0.0
  0
LINE
  5
4EF
330
1F
100
AcDbEntity
  8
LAY-2
  6
EXLTYPE1
 62
     6
100
AcDbLine
 10
606.3000000000138
 20
1802.650000027839
 30
0.0
 11
607.3000000000138
 21
1802.650000027839
 31
0.0
  0
LINE
  5
4F0
330
1F
100
AcDbEntity
  8
LAY-2
  6
EXLTYPE1
 62
     6
100
AcDbLine
 10
607.3000000000138
 20
1802.650000027839
 30
0.0
 11
607.3000000000138
 21
1802.17500002784
 31
0.0
  0
LINE
  5
4F1
330
1F
100
AcDbEntity
  8
LAY-2
  6
EXLTYPE1
 62
     6
100
AcDbLine
 10
608.9500000000162
 20
1801.000000027838
 30
0.0
 11
608.9500000000162
 21
1800.000000027838
 31
0.0
  0
LINE
  5
4F2
330
1F
100
AcDbEntity
  8
LAY-2
  6
EXLTYPE1
 62
     6
100
AcDbLine
 10
608.9500000000162
 20
1800.000000027838
 30
0.0
 11
608.4750000000167
 21
1800.000000027838
 31
0.0
  0
LINE
  5
4F3
330
1F
100
AcDbEntity
  8
LAY-2
  6
EXLTYPE1
 62
     6
100
AcDbLine
 10
607.3000000000138
 20
1798.825000027835
 30
0.0
 11
607.3000000000138
 21
1798.350000027836
 31
0.0
  0
LINE
  5
4F4
330
1F
100
AcDbEntity
  8
LAY-2
  6
EXLTYPE1
 62
     6
100
AcDbLine
 10
606.3000000000138
 20
1798.350000027836
 30
0.0
 11
606.3000000000138
 21
1798.825000027835
 31
0.0
  0
LINE
  5
4F5
330
1F
100
AcDbEntity
  8
LAY-2
  6
EXLTYPE1
 62
     6
100
AcDbLine
 10
608.4750000000167
 20
1801.000000027838
 30
0.0
 11
608.9500000000162
 21
1801.000000027838
 31
0.0
  0
LINE
  5
4F6
330
1F
100
AcDbEntity
  8
LAY-2
  6
EXLTYPE1
 62
     6
100
AcDbLine
 10
604.6500000000196
 20
1801.000000027838
 30
0.0
 11
605.1250000000191
 21
1801.000000027838
 31
0.0
  0
LINE
  5
4F7
330
1F
100
AcDbEntity
  8
LAY-2
  6
EXLTYPE1
 62
     6
100
AcDbLine
 10
606.3000000000138
 20
1802.17500002784
 30
0.0
 11
606.3000000000138
 21
1802.650000027839
 31
0.0
  0
LINE
  5
4F8
330
1F
100
AcDbEntity
  8
LAY-2
  6
EXLTYPE9
 62
     6
100
AcDbLine
 10
577.2000000011358
 20
1843.500000003514
 30
0.0
 11
577.2000000011358
 21
1732.500000003528
 31
0.0
  0
LINE
  5
4F9
330
1F
100
AcDbEntity
  8
LAY-2
  6
CONTINUOUS
 62
     6
100
AcDbLine
 10
602.0000000000191
 20
1745.500000028944
 30
0.0
 11
602.0000000000191
 21
1758.90000002896
 31
0.0
  0
LINE
  5
4FA
330
1F
100
AcDbEntity
  8
LAY-2
  6
CONTINUOUS
 62
     6
100
AcDbLine
 10
551.8000000000293
 20
1843.000000028944
 30
0.0
 11
541.0000000000191
 21
1843.000000028944
 31
0.0
  0
LINE
  5
4FB
330
1F
100
AcDbEntity
  8
LAY-2
  6
CONTINUOUS
 62
     6
100
AcDbLine
 10
541.0000000000191
 20
1843.000000028944
 30
0.0
 11
541.0000000000191
 21
1733.000000028943
 31
0.0
  0
LINE
  5
4FC
330
1F
100
AcDbEntity
  8
LAY-2
  6
CONTINUOUS
 62
     6
100
AcDbLine
 10
541.0000000000191
 20
1733.000000028943
 30
0.0
 11
551.8000000000138
 21
1733.000000028943
 31
0.0
  0
LINE
  5
4FD
330
1F
100
AcDbEntity
  8
LAY-2
  6
CONTINUOUS
 62
     6
100
AcDbLine
 10
558.6038475772548
 20
1833.500000028944
 30
0.0
 11
599.0000000000182
 21
1833.500000028944
 31
0.0
  0
LINE
  5
4FE
330
1F
100
AcDbEntity
  8
LAY-2
  6
CONTINUOUS
 62
     6
100
AcDbLine
 10
558.6038475772548
 20
1742.500000028943
 30
0.0
 11
599.0000000000182
 21
1742.500000028943
 31
0.0
  0
ARC
  5
4FF
330
1F
100
AcDbEntity
  8
LAY-2
  6
CONTINUOUS
 62
     6
100
AcDbCircle
 10
599.0000000000182
 20
1745.500000028944
 30
0.0
 40
3.0
100
AcDbArc
 50
270.0
 51
0.0
  0
LINE
  5
500
330
1F
100
AcDbEntity
  8
LAY-2
  6
CONTINUOUS
 62
     6
100
AcDbLine
 10
547.3000000000648
 20
1843.000000028944
 30
0.0
 11
547.3000000000648
 21
1733.000000028943
 31
0.0
  0
LINE
  5
501
330
1F
100
AcDbEntity
  8
LAY-2
  6
CONTINUOUS
 62
     6
100
AcDbLine
 10
547.3000000000648
 20
1816.100000028949
 30
0.0
 11
601.0000000000191
 21
1816.100000028949
 31
0.0
  0
LINE
  5
502
330
1F
100
AcDbEntity
  8
LAY-2
  6
CONTINUOUS
 62
     6
100
AcDbLine
 10
547.3000000000648
 20
1759.90000002896
 30
0.0
 11
601.0000000000191
 21
1759.90000002896
 31
0.0
  0
ARC
  5
503
330
1F
100
AcDbEntity
  8
LAY-2
  6
CONTINUOUS
 62
     6
100
AcDbCircle
 10
551.8000000000293
 20
1834.000000028944
 30
0.0
 40
9.0
100
AcDbArc
 50
12.0246991807163
 51
90.00000000000001
  0
ARC
  5
504
330
1F
100
AcDbEntity
  8
LAY-2
  6
CONTINUOUS
 62
     6
100
AcDbCircle
 10
563.5366945943351
 20
1836.500000028958
 30
0.0
 40
3.0
100
AcDbArc
 50
192.0246991807162
 51
270.0
  0
ARC
  5
505
330
1F
100
AcDbEntity
  8
LAY-2
  6
CONTINUOUS
 62
     6
100
AcDbCircle
 10
551.8000000000138
 20
1742.000000028943
 30
0.0
 40
9.0
100
AcDbArc
 50
270.0
 51
347.9753008192838
  0
ARC
  5
506
330
1F
100
AcDbEntity
  8
LAY-2
  6
CONTINUOUS
 62
     6
100
AcDbCircle
 10
563.5366945943206
 20
1739.500000028958
 30
0.0
 40
3.0
100
AcDbArc
 50
90.00000000000001
 51
167.9753008192838
  0
ARC
  5
507
330
1F
100
AcDbEntity
  8
LAY-2
  6
CONTINUOUS
 62
     6
100
AcDbCircle
 10
599.0000000000182
 20
1830.500000028958
 30
0.0
 40
3.0
100
AcDbArc
 50
0.0
 51
90.00000000000001
  0
LINE
  5
508
330
1F
100
AcDbEntity
  8
LAY-2
  6
CONTINUOUS
 62
     6
100
AcDbLine
 10
602.0000000000109
 20
1817.100000028935
 30
0.0
 11
602.0000000000191
 21
1830.500000028958
 31
0.0
  0
LINE
  5
509
330
1F
100
AcDbEntity
  8
LAY-2
  6
CONTINUOUS
 62
     6
100
AcDbLine
 10
599.900598000012
 20
1816.100000028949
 30
0.0
 11
599.900598000012
 21
1815.257489168718
 31
0.0
  0
ARC
  5
50A
330
1F
100
AcDbEntity
  8
LAY-2
  6
CONTINUOUS
 62
     6
100
AcDbCircle
 10
601.0000000000191
 20
1758.90000002896
 30
0.0
 40
1.0
100
AcDbArc
 50
0.0
 51
90.00000000000001
  0
ARC
  5
50B
330
1F
100
AcDbEntity
  8
LAY-2
  6
CONTINUOUS
 62
     6
100
AcDbCircle
 10
601.0000000000191
 20
1817.100000028935
 30
0.0
 40
1.0
100
AcDbArc
 50
270.0
 51
0.0
  0
LINE
  5
50C
330
1F
100
AcDbEntity
  8
LAY-2
  6
CONTINUOUS
 62
     6
100
AcDbLine
 10
1231.000000000019
 20
1759.000000002415
 30
0.0
 11
714.0000000000191
 21
1759.000000002415
 31
0.0
  0
LINE
  5
50D
330
1F
100
AcDbEntity
  8
LAY-2
  6
CONTINUOUS
 62
     6
100
AcDbLine
 10
1234.988872021019
 20
1759.83000000241
 30
0.0
 11
711.9285029568173
 21
1759.83000000241
 31
0.0
  0
ARC
  5
50E
330
1F
100
AcDbEntity
  8
LAY-2
  6
CONTINUOUS
 62
     6
100
AcDbCircle
 10
1231.000000000019
 20
1769.000000002415
 30
0.0
 40
10.0
100
AcDbArc
 50
270.0
 51
0.0
  0
LINE
  5
50F
330
1F
100
AcDbEntity
  8
LAY-2
  6
CONTINUOUS
 62
     6
100
AcDbLine
 10
1241.000000000019
 20
1769.000000002415
 30
0.0
 11
1241.000000000019
 21
1788.000000002415
 31
0.0
  0
LINE
  5
510
330
1F
100
AcDbEntity
  8
LAY-2
  6
CONTINUOUS
 62
     6
100
AcDbLine
 10
711.0000000000191
 20
1762.000000002415
 30
0.0
 11
711.0000000000191
 21
1788.000000002415
 31
0.0
  0
ARC
  5
511
330
1F
100
AcDbEntity
  8
LAY-2
  6
CONTINUOUS
 62
     6
100
AcDbCircle
 10
714.0000000000191
 20
1762.000000002415
 30
0.0
 40
3.0
100
AcDbArc
 50
180.0
 51
270.0
  0
LINE
  5
512
330
1F
100
AcDbEntity
  8
LAY-2
  6
CONTINUOUS
 62
     6
100
AcDbLine
 10
1231.000000000019
 20
1817.000000002415
 30
0.0
 11
714.0000000000191
 21
1817.000000002415
 31
0.0
  0
LINE
  5
513
330
1F
100
AcDbEntity
  8
LAY-2
  6
CONTINUOUS
 62
     6
100
AcDbLine
 10
1234.988872021034
 20
1816.170000002414
 30
0.0
 11
711.9285029568173
 21
1816.170000002414
 31
0.0
  0
ARC
  5
514
330
1F
100
AcDbEntity
  8
LAY-2
  6
CONTINUOUS
 62
     6
100
AcDbCircle
 10
1231.000000000019
 20
1807.000000002415
 30
0.0
 40
10.0
100
AcDbArc
 50
0.0
 51
90.00000000000001
  0
LINE
  5
515
330
1F
100
AcDbEntity
  8
LAY-2
  6
CONTINUOUS
 62
     6
100
AcDbLine
 10
1241.000000000019
 20
1807.000000002415
 30
0.0
 11
1241.000000000019
 21
1788.000000002415
 31
0.0
  0
LINE
  5
516
330
1F
100
AcDbEntity
  8
LAY-2
  6
CONTINUOUS
 62
     6
100
AcDbLine
 10
711.0000000000191
 20
1814.000000002415
 30
0.0
 11
711.0000000000191
 21
1788.000000002415
 31
0.0
  0
ARC
  5
517
330
1F
100
AcDbEntity
  8
LAY-2
  6
CONTINUOUS
 62
     6
100
AcDbCircle
 10
714.0000000000191
 20
1814.000000002415
 30
0.0
 40
3.0
100
AcDbArc
 50
90.00000000000001
 51
180.0
  0
LINE
  5
518
330
1F
100
AcDbEntity
  8
LAY-2
  6
CONTINUOUS
 62
     6
100
AcDbLine
 10
711.0000000000191
 20
1763.000000002408
 30
0.0
 11
612.5182684193387
 21
1763.000000002415
 31
0.0
  0
LINE
  5
519
330
1F
100
AcDbEntity
  8
LAY-2
  6
CONTINUOUS
 62
     6
100
AcDbLine
 10
711.0000000000191
 20
1813.000000002408
 30
0.0
 11
612.5228776826007
 21
1813.000000002408
 31
0.0
  0
LINE
  5
51A
330
1F
100
AcDbEntity
  8
LAY-2
  6
EXLTYPE1
 62
     6
100
AcDbLine
 10
544.2000000000198
 20
1748.000000003529
 30
0.0
 11
556.5137014818301
 21
1748.000000003529
 31
0.0
  0
LINE
  5
51B
330
1F
100
AcDbEntity
  8
LAY-2
  6
EXLTYPE1
 62
     6
100
AcDbLine
 10
544.1999999999804
 20
1748.000000003528
 30
0.0
 11
608.9999999999792
 21
1748.000000003528
 31
0.0
  0
LINE
  5
51C
330
1F
100
AcDbEntity
  8
LAY-2
  6
EXLTYPE1
 62
     6
100
AcDbLine
 10
544.1999999999804
 20
1744.800000003538
 30
0.0
 11
608.9999999999792
 21
1744.800000003538
 31
0.0
  0
LINE
  5
51D
330
1F
100
AcDbEntity
  8
LAY-2
  6
EXLTYPE1
 62
     6
100
AcDbLine
 10
608.9999999999792
 20
1688.000000003528
 30
0.0
 11
544.1999999999804
 21
1688.000000003528
 31
0.0
  0
LINE
  5
51E
330
1F
100
AcDbEntity
  8
LAY-2
  6
EXLTYPE1
 62
     6
100
AcDbLine
 10
608.9999999999792
 20
1691.200000003525
 30
0.0
 11
544.1999999999804
 21
1691.200000003525
 31
0.0
  0
LINE
  5
51F
330
1F
100
AcDbEntity
  8
LAY-2
  6
EXLTYPE1
 62
     6
100
AcDbLine
 10
608.9999999999792
 20
1748.000000003528
 30
0.0
 11
608.9999999999792
 21
1744.800000003538
 31
0.0
  0
LINE
  5
520
330
1F
100
AcDbEntity
  8
LAY-2
  6
EXLTYPE1
 62
     6
100
AcDbLine
 10
608.9999999999792
 20
1691.200000003525
 30
0.0
 11
608.9999999999792
 21
1688.000000003528
 31
0.0
  0
LINE
  5
521
330
1F
100
AcDbEntity
  8
LAY-2
  6
EXLTYPE1
 62
     6
100
AcDbLine
 10
544.1999999999804
 20
1691.200000003525
 30
0.0
 11
544.1999999999804
 21
1744.800000003538
 31
0.0
  0
LINE
  5
522
330
1F
100
AcDbEntity
  8
LAY-2
  6
EXLTYPE1
 62
     6
100
AcDbLine
 10
557.4699999999804
 20
1744.800000003538
 30
0.0
 11
557.4699999999804
 21
1748.000000003528
 31
0.0
  0
ARC
  5
523
330
1F
100
AcDbEntity
  8
LAY-2
  6
EXLTYPE1
 62
     6
100
AcDbCircle
 10
544.1999999999804
 20
1744.800000003538
 30
0.0
 40
3.2
100
AcDbArc
 50
90.00000000000001
 51
180.0
  0
ARC
  5
524
330
1F
100
AcDbEntity
  8
LAY-2
  6
EXLTYPE1
 62
     6
100
AcDbCircle
 10
544.1999999999804
 20
1691.200000003525
 30
0.0
 40
3.2
100
AcDbArc
 50
180.0
 51
270.0
  0
LINE
  5
525
330
1F
100
AcDbEntity
  8
LAY-2
  6
EXLTYPE1
 62
     6
100
AcDbLine
 10
557.4699999999794
 20
1688.000000003528
 30
0.0
 11
557.4699999999804
 21
1691.200000003525
 31
0.0
  0
LINE
  5
526
330
1F
100
AcDbEntity
  8
LAY-2
  6
EXLTYPE1
 62
     6
100
AcDbLine
 10
605.9999999999774
 20
1688.000000003528
 30
0.0
 11
591.9999999999774
 21
1688.000000003528
 31
0.0
  0
LINE
  5
527
330
1F
100
AcDbEntity
  8
LAY-2
  6
EXLTYPE1
 62
     6
100
AcDbLine
 10
591.9999999999774
 20
1678.000000003528
 30
0.0
 11
605.9999999999774
 21
1678.000000003535
 31
0.0
  0
LINE
  5
528
330
1F
100
AcDbEntity
  8
LAY-2
  6
EXLTYPE1
 62
     6
100
AcDbLine
 10
591.9999999999774
 20
1678.000000003528
 30
0.0
 11
591.9999999999774
 21
1688.000000003528
 31
0.0
  0
LINE
  5
529
330
1F
100
AcDbEntity
  8
LAY-2
  6
EXLTYPE1
 62
     6
100
AcDbLine
 10
605.9999999999774
 20
1678.000000003535
 30
0.0
 11
605.9999999999774
 21
1688.000000003528
 31
0.0
  0
LINE
  5
52A
330
1F
100
AcDbEntity
  8
LAY-2
  6
EXLTYPE1
 62
     6
100
AcDbLine
 10
593.7999999999776
 20
1748.000000003535
 30
0.0
 11
593.7999999999785
 21
1744.800000003538
 31
0.0
  0
LINE
  5
52B
330
1F
100
AcDbEntity
  8
LAY-2
  6
EXLTYPE1
 62
     6
100
AcDbLine
 10
604.1999999999772
 20
1748.000000003535
 30
0.0
 11
604.1999999999772
 21
1744.800000003538
 31
0.0
  0
LINE
  5
52C
330
1F
100
AcDbEntity
  8
LAY-2
  6
EXLTYPE1
 62
     6
100
AcDbLine
 10
593.7999999999803
 20
1688.000000003528
 30
0.0
 11
593.7999999999803
 21
1691.200000003525
 31
0.0
  0
LINE
  5
52D
330
1F
100
AcDbEntity
  8
LAY-2
  6
EXLTYPE1
 62
     6
100
AcDbLine
 10
604.1999999999795
 20
1688.000000003528
 30
0.0
 11
604.1999999999795
 21
1691.200000003525
 31
0.0
  0
LINE
  5
52E
330
1F
100
AcDbEntity
  8
LAY-2
  6
EXLTYPE1
 62
     6
100
AcDbLine
 10
544.1999999999804
 20
1741.000000003528
 30
0.0
 11
543.6999999999795
 21
1741.000000003528
 31
0.0
  0
LINE
  5
52F
330
1F
100
AcDbEntity
  8
LAY-2
  6
EXLTYPE1
 62
     6
100
AcDbLine
 10
540.9999999999806
 20
1703.300000003524
 30
0.0
 11
543.6999999999795
 21
1706.000000003528
 31
0.0
  0
LINE
  5
530
330
1F
100
AcDbEntity
  8
LAY-2
  6
EXLTYPE1
 62
     6
100
AcDbLine
 10
544.1999999999804
 20
1706.000000003528
 30
0.0
 11
543.6999999999795
 21
1706.000000003528
 31
0.0
  0
LINE
  5
531
330
1F
100
AcDbEntity
  8
LAY-2
  6
EXLTYPE1
 62
     6
100
AcDbLine
 10
540.9999999999806
 20
1697.70000000354
 30
0.0
 11
543.6999999999795
 21
1695.000000003528
 31
0.0
  0
LINE
  5
532
330
1F
100
AcDbEntity
  8
LAY-2
  6
EXLTYPE1
 62
     6
100
AcDbLine
 10
544.1999999999804
 20
1695.000000003528
 30
0.0
 11
543.6999999999795
 21
1695.000000003528
 31
0.0
  0
LINE
  5
533
330
1F
100
AcDbEntity
  8
LAY-2
  6
EXLTYPE10
 62
     6
100
AcDbLine
 10
537.3859378298313
 20
1700.500000003528
 30
0.0
 11
550.2380621701324
 21
1700.500000003535
 31
0.0
  0
LINE
  5
534
330
1F
100
AcDbEntity
  8
LAY-2
  6
EXLTYPE1
 62
     6
100
AcDbLine
 10
603.9999999999774
 20
1744.800000003538
 30
0.0
 11
603.9999999999774
 21
1691.200000003525
 31
0.0
  0
LINE
  5
535
330
1F
100
AcDbEntity
  8
LAY-2
  6
EXLTYPE1
 62
     6
100
AcDbLine
 10
593.9999999999774
 20
1691.200000003525
 30
0.0
 11
593.9999999999774
 21
1744.800000003538
 31
0.0
  0
LINE
  5
536
330
1F
100
AcDbEntity
  8
LAY-2
  6
CONTINUOUS
 62
     6
100
AcDbLine
 10
540.9999999999792
 20
1733.000000028943
 30
0.0
 11
551.7999999999744
 21
1733.000000028943
 31
0.0
  0
LINE
  5
537
330
1F
100
AcDbEntity
  8
LAY-2
  6
EXLTYPE1
 62
     6
100
AcDbLine
 10
540.9999999999806
 20
1738.300000003538
 30
0.0
 11
543.6999999999795
 21
1741.000000003528
 31
0.0
  0
LINE
  5
538
330
1F
100
AcDbEntity
  8
LAY-2
  6
EXLTYPE1
 62
     6
100
AcDbLine
 10
540.9999999999806
 20
1732.70000000354
 30
0.0
 11
543.6999999999795
 21
1730.000000003528
 31
0.0
  0
LINE
  5
539
330
1F
100
AcDbEntity
  8
LAY-2
  6
EXLTYPE1
 62
     6
100
AcDbLine
 10
544.1999999999804
 20
1730.000000003528
 30
0.0
 11
543.6999999999795
 21
1730.000000003528
 31
0.0
  0
LINE
  5
53A
330
1F
100
AcDbEntity
  8
LAY-2
  6
EXLTYPE1
 62
     6
100
AcDbLine
 10
540.9999999999806
 20
1691.200000003525
 30
0.0
 11
540.9999999999806
 21
1744.800000003538
 31
0.0
  0
LINE
  5
53B
330
1F
100
AcDbEntity
  8
LAY-2
  6
EXLTYPE1
 62
     6
100
AcDbLine
 10
591.9999999999774
 20
1773.000000003535
 30
0.0
 11
605.9999999999774
 21
1773.000000003528
 31
0.0
  0
LINE
  5
53C
330
1F
100
AcDbEntity
  8
LAY-2
  6
EXLTYPE1
 62
     6
100
AcDbLine
 10
605.9999999999774
 20
1763.000000003535
 30
0.0
 11
605.9999999999774
 21
1773.000000003528
 31
0.0
  0
LINE
  5
53D
330
1F
100
AcDbEntity
  8
LAY-2
  6
EXLTYPE1
 62
     6
100
AcDbLine
 10
605.9999999999774
 20
1763.000000003535
 30
0.0
 11
591.9999999999774
 21
1763.000000003535
 31
0.0
  0
LINE
  5
53E
330
1F
100
AcDbEntity
  8
LAY-2
  6
EXLTYPE1
 62
     6
100
AcDbLine
 10
603.9999999999774
 20
1763.000000003535
 30
0.0
 11
603.9999999999774
 21
1748.000000003528
 31
0.0
  0
LINE
  5
53F
330
1F
100
AcDbEntity
  8
LAY-2
  6
EXLTYPE1
 62
     6
100
AcDbLine
 10
593.9999999999774
 20
1748.000000003528
 30
0.0
 11
593.9999999999774
 21
1763.000000003535
 31
0.0
  0
LINE
  5
540
330
1F
100
AcDbEntity
  8
LAY-2
  6
EXLTYPE1
 62
     6
100
AcDbLine
 10
591.9999999999774
 20
1763.000000003535
 30
0.0
 11
591.9999999999774
 21
1773.000000003535
 31
0.0
  0
LINE
  5
541
330
1F
100
AcDbEntity
  8
LAY-2
  6
EXLTYPE3
 62
     6
100
AcDbLine
 10
598.9999999999774
 20
1673.000000003528
 30
0.0
 11
598.9999999999774
 21
1778.000000003528
 31
0.0
  0
LINE
  5
542
330
1F
100
AcDbEntity
  8
LAY-2
  6
EXLTYPE3
 62
     6
100
AcDbLine
 10
530.9999999999806
 20
1718.000000003528
 30
0.0
 11
619.4068335252874
 21
1718.000000003528
 31
0.0
  0
LINE
  5
543
330
1F
100
AcDbEntity
  8
LAY-2
  6
CONTINUOUS
 62
     6
100
AcDbLine
 10
599.3815967851883
 20
726.1499999999075
 30
0.0
 11
614.3883306230969
 21
726.1499999999035
 31
0.0
  0
LINE
  5
544
330
1F
100
AcDbEntity
  8
LAY-2
  6
CONTINUOUS
 62
     6
100
AcDbLine
 10
595.5035217560876
 20
760.1499999998889
 30
0.0
 11
614.3883306230969
 21
760.1499999998998
 31
0.0
  0
LINE
  5
545
330
1F
100
AcDbEntity
  8
LAY-2
  6
CONTINUOUS
 62
     6
100
AcDbLine
 10
613.0583839940778
 20
730.4999999999029
 30
0.0
 11
616.3801890517975
 21
730.4999999999029
 31
0.0
  0
LINE
  5
546
330
1F
100
AcDbEntity
  8
LAY-2
  6
CONTINUOUS
 62
     6
100
AcDbLine
 10
613.0583839940778
 20
755.7999999999058
 30
0.0
 11
616.3801890517975
 21
755.7999999999058
 31
0.0
  0
LINE
  5
547
330
1F
100
AcDbEntity
  8
LAY-2
  6
CONTINUOUS
 62
     6
100
AcDbLine
 10
613.0583839940778
 20
730.4999999999029
 30
0.0
 11
613.0583839940778
 21
755.7999999999058
 31
0.0
  0
LINE
  5
548
330
1F
100
AcDbEntity
  8
LAY-2
  6
CONTINUOUS
 62
     6
100
AcDbLine
 10
616.6399966729373
 20
756.249999999902
 30
0.0
 11
614.3883306230969
 21
760.1499999998998
 31
0.0
  0
LINE
  5
549
330
1F
100
AcDbEntity
  8
LAY-2
  6
CONTINUOUS
 62
     6
100
AcDbLine
 10
610.5469103230976
 20
728.1499999999075
 30
0.0
 11
610.5469103230976
 21
758.1499999998966
 31
0.0
  0
ARC
  5
54A
330
1F
100
AcDbEntity
  8
LAY-2
  6
CONTINUOUS
 62
     6
100
AcDbCircle
 10
616.3801890517975
 20
756.0999999999046
 30
0.0
 40
0.3
100
AcDbArc
 50
270.0
 51
30.00000000003273
  0
ARC
  5
54B
330
1F
100
AcDbEntity
  8
LAY-2
  6
CONTINUOUS
 62
     6
100
AcDbCircle
 10
616.3801890517975
 20
730.1999999999027
 30
0.0
 40
0.3
100
AcDbArc
 50
329.9999999999674
 51
90.00000000000001
  0
LINE
  5
54C
330
1F
100
AcDbEntity
  8
LAY-2
  6
CONTINUOUS
 62
     6
100
AcDbLine
 10
616.6399966729373
 20
730.0499999999017
 30
0.0
 11
614.3883306230969
 21
726.1499999999035
 31
0.0
  0
ELLIPSE
  5
54D
330
1F
100
AcDbEntity
  8
LAY-2
  6
CONTINUOUS
 62
     6
100
AcDbEllipse
 10
612.5469103230976
 20
758.1499999998966
 30
0.0
 11
-2.0
 21
2.449293598294706E-16
 31
0.0
210
0.0
220
0.0
230
1.0
 40
0.9999999999995455
 41
4.712388980385656
 42
6.283185307179586
  0
ELLIPSE
  5
54E
330
1F
100
AcDbEntity
  8
LAY-2
  6
CONTINUOUS
 62
     6
100
AcDbEllipse
 10
612.5469103230976
 20
728.1499999999075
 30
0.0
 11
-2.0
 21
2.449293598294706E-16
 31
0.0
210
0.0
220
0.0
230
1.0
 40
0.9999999999995455
 41
0.0
 42
1.57079632679393
  0
LINE
  5
54F
330
1F
100
AcDbEntity
  8
LAY-2
  6
EXLTYPE3
 62
     6
100
AcDbLine
 10
538.1999999981167
 20
640.1999999999032
 30
0.0
 11
547.3999999992379
 21
640.1999999999032
 31
0.0
  0
LINE
  5
550
330
1F
100
AcDbEntity
  8
LAY-2
  6
EXLTYPE3
 62
     6
100
AcDbLine
 10
577.1999999992481
 20
758.1500000019407
 30
0.0
 11
577.1999999992481
 21
728.1500000019407
 31
0.0
  0
LINE
  5
551
330
1F
100
AcDbEntity
  8
LAY-2
  6
EXLTYPE3
 62
     6
100
AcDbLine
 10
562.1999999992481
 20
743.1499999999035
 30
0.0
 11
592.1999999992481
 21
743.1499999999035
 31
0.0
  0
LINE
  5
552
330
1F
100
AcDbEntity
  8
LAY-2
  6
EXLTYPE3
 62
     6
100
AcDbLine
 10
741.3999999949087
 20
741.534554156435
 30
0.0
 11
741.3999999949087
 21
725.8399999999026
 31
0.0
  0
LINE
  5
553
330
1F
100
AcDbEntity
  8
LAY-2
  6
EXLTYPE3
 62
     6
100
AcDbLine
 10
1121.399999994916
 20
741.534554156435
 30
0.0
 11
1121.399999994916
 21
725.8399999999026
 31
0.0
  0
LINE
  5
554
330
1F
100
AcDbEntity
  8
LAY-2
  6
EXLTYPE3
 62
     6
100
AcDbLine
 10
931.399999994916
 20
741.534554156435
 30
0.0
 11
931.399999994916
 21
725.8399999999026
 31
0.0
  0
LINE
  5
555
330
1F
100
AcDbEntity
  8
LAY-2
  6
EXLTYPE3
 62
     6
100
AcDbLine
 10
1244.943112299254
 20
743.1499999999035
 30
0.0
 11
562.1999999992481
 21
743.1499999999035
 31
0.0
  0
LINE
  5
556
330
1F
100
AcDbEntity
  8
LAY-2
  6
EXLTYPE3
 62
     6
100
AcDbLine
 10
538.1999999981167
 20
765.1999999999027
 30
0.0
 11
547.3999999992379
 21
765.1999999999027
 31
0.0
  0
LINE
  5
557
330
1F
100
AcDbEntity
  8
LAY-2
  6
EXLTYPE3
 62
     6
100
AcDbLine
 10
577.2000000012781
 20
1410.893112299917
 30
0.0
 11
577.2000000012781
 21
728.1499999999035
 31
0.0
  0
LINE
  5
558
330
1F
100
AcDbEntity
  8
LAY-2
  6
CONTINUOUS
 62
     6
100
AcDbLine
 10
745.6499999949087
 20
730.6499999999035
 30
0.0
 11
745.6499999949087
 21
730.1499999999035
 31
0.0
  0
LINE
  5
559
330
1F
100
AcDbEntity
  8
LAY-2
  6
CONTINUOUS
 62
     6
100
AcDbLine
 10
745.6499999949087
 20
730.6499999999035
 30
0.0
 11
741.3999999949087
 21
730.6499999999035
 31
0.0
  0
LINE
  5
55A
330
1F
100
AcDbEntity
  8
LAY-2
  6
CONTINUOUS
 62
     6
100
AcDbLine
 10
742.910175708545
 20
727.2499999999029
 30
0.0
 11
741.3999999949087
 21
727.2499999999029
 31
0.0
  0
ARC
  5
55B
330
1F
100
AcDbEntity
  8
LAY-2
  6
CONTINUOUS
 62
     6
100
AcDbCircle
 10
742.910175708545
 20
728.249999999902
 30
0.0
 40
1.0
100
AcDbArc
 50
270.0
 51
322.1934700552782
  0
LINE
  5
55C
330
1F
100
AcDbEntity
  8
LAY-2
  6
CONTINUOUS
 62
     6
100
AcDbLine
 10
745.6499999949087
 20
730.1499999999035
 30
0.0
 11
741.3999999949087
 21
730.1499999999035
 31
0.0
  0
LINE
  5
55D
330
1F
100
AcDbEntity
  8
LAY-2
  6
CONTINUOUS
 62
     6
100
AcDbLine
 10
737.1499999949087
 20
730.1499999999035
 30
0.0
 11
741.3999999949087
 21
730.1499999999035
 31
0.0
  0
LINE
  5
55E
330
1F
100
AcDbEntity
  8
LAY-2
  6
CONTINUOUS
 62
     6
100
AcDbLine
 10
745.6499999949087
 20
730.1499999999035
 30
0.0
 11
743.7002608633707
 21
727.637002897028
 31
0.0
  0
LINE
  5
55F
330
1F
100
AcDbEntity
  8
LAY-2
  6
CONTINUOUS
 62
     6
100
AcDbLine
 10
737.1499999949087
 20
730.6499999999035
 30
0.0
 11
737.1499999949087
 21
730.1499999999035
 31
0.0
  0
LINE
  5
560
330
1F
100
AcDbEntity
  8
LAY-2
  6
CONTINUOUS
 62
     6
100
AcDbLine
 10
737.1499999949087
 20
730.6499999999035
 30
0.0
 11
741.3999999949087
 21
730.6499999999035
 31
0.0
  0
LINE
  5
561
330
1F
100
AcDbEntity
  8
LAY-2
  6
CONTINUOUS
 62
     6
100
AcDbLine
 10
739.8898242812797
 20
727.2499999999029
 30
0.0
 11
741.3999999949087
 21
727.2499999999029
 31
0.0
  0
ARC
  5
562
330
1F
100
AcDbEntity
  8
LAY-2
  6
CONTINUOUS
 62
     6
100
AcDbCircle
 10
739.8898242812797
 20
728.249999999902
 30
0.0
 40
1.0
100
AcDbArc
 50
217.8065299447219
 51
270.0
  0
LINE
  5
563
330
1F
100
AcDbEntity
  8
LAY-2
  6
CONTINUOUS
 62
     6
100
AcDbLine
 10
737.1499999949087
 20
730.1499999999035
 30
0.0
 11
739.0997391264541
 21
727.637002897028
 31
0.0
  0
LINE
  5
564
330
1F
100
AcDbEntity
  8
LAY-2
  6
CONTINUOUS
 62
     6
100
AcDbLine
 10
935.649999994916
 20
730.6499999999035
 30
0.0
 11
935.649999994916
 21
730.1499999999035
 31
0.0
  0
LINE
  5
565
330
1F
100
AcDbEntity
  8
LAY-2
  6
CONTINUOUS
 62
     6
100
AcDbLine
 10
935.649999994916
 20
730.6499999999035
 30
0.0
 11
931.399999994916
 21
730.6499999999035
 31
0.0
  0
LINE
  5
566
330
1F
100
AcDbEntity
  8
LAY-2
  6
CONTINUOUS
 62
     6
100
AcDbLine
 10
932.9101757085596
 20
727.2499999999029
 30
0.0
 11
931.399999994916
 21
727.2499999999029
 31
0.0
  0
ARC
  5
567
330
1F
100
AcDbEntity
  8
LAY-2
  6
CONTINUOUS
 62
     6
100
AcDbCircle
 10
932.9101757085596
 20
728.249999999902
 30
0.0
 40
1.0
100
AcDbArc
 50
270.0
 51
322.1934700552782
  0
LINE
  5
568
330
1F
100
AcDbEntity
  8
LAY-2
  6
CONTINUOUS
 62
     6
100
AcDbLine
 10
935.649999994916
 20
730.1499999999035
 30
0.0
 11
931.399999994916
 21
730.1499999999035
 31
0.0
  0
LINE
  5
569
330
1F
100
AcDbEntity
  8
LAY-2
  6
CONTINUOUS
 62
     6
100
AcDbLine
 10
927.149999994916
 20
730.1499999999035
 30
0.0
 11
931.399999994916
 21
730.1499999999035
 31
0.0
  0
LINE
  5
56A
330
1F
100
AcDbEntity
  8
LAY-2
  6
CONTINUOUS
 62
     6
100
AcDbLine
 10
935.649999994916
 20
730.1499999999035
 30
0.0
 11
933.7002608633779
 21
727.637002897028
 31
0.0
  0
LINE
  5
56B
330
1F
100
AcDbEntity
  8
LAY-2
  6
CONTINUOUS
 62
     6
100
AcDbLine
 10
927.149999994916
 20
730.6499999999035
 30
0.0
 11
927.149999994916
 21
730.1499999999035
 31
0.0
  0
LINE
  5
56C
330
1F
100
AcDbEntity
  8
LAY-2
  6
CONTINUOUS
 62
     6
100
AcDbLine
 10
927.149999994916
 20
730.6499999999035
 30
0.0
 11
931.399999994916
 21
730.6499999999035
 31
0.0
  0
LINE
  5
56D
330
1F
100
AcDbEntity
  8
LAY-2
  6
CONTINUOUS
 62
     6
100
AcDbLine
 10
929.8898242812797
 20
727.2499999999029
 30
0.0
 11
931.399999994916
 21
727.2499999999029
 31
0.0
  0
ARC
  5
56E
330
1F
100
AcDbEntity
  8
LAY-2
  6
CONTINUOUS
 62
     6
100
AcDbCircle
 10
929.8898242812797
 20
728.249999999902
 30
0.0
 40
1.0
100
AcDbArc
 50
217.8065299447219
 51
270.0
  0
LINE
  5
56F
330
1F
100
AcDbEntity
  8
LAY-2
  6
CONTINUOUS
 62
     6
100
AcDbLine
 10
927.149999994916
 20
730.1499999999035
 30
0.0
 11
929.0997391264686
 21
727.637002897028
 31
0.0
  0
LINE
  5
570
330
1F
100
AcDbEntity
  8
LAY-2
  6
CONTINUOUS
 62
     6
100
AcDbLine
 10
1125.649999994916
 20
730.6499999999035
 30
0.0
 11
1125.649999994916
 21
730.1499999999035
 31
0.0
  0
LINE
  5
571
330
1F
100
AcDbEntity
  8
LAY-2
  6
CONTINUOUS
 62
     6
100
AcDbLine
 10
1125.649999994916
 20
730.6499999999035
 30
0.0
 11
1121.399999994916
 21
730.6499999999035
 31
0.0
  0
LINE
  5
572
330
1F
100
AcDbEntity
  8
LAY-2
  6
CONTINUOUS
 62
     6
100
AcDbLine
 10
1122.91017570856
 20
727.2499999999029
 30
0.0
 11
1121.399999994916
 21
727.2499999999029
 31
0.0
  0
ARC
  5
573
330
1F
100
AcDbEntity
  8
LAY-2
  6
CONTINUOUS
 62
     6
100
AcDbCircle
 10
1122.91017570856
 20
728.249999999902
 30
0.0
 40
1.0
100
AcDbArc
 50
270.0
 51
322.1934700552782
  0
LINE
  5
574
330
1F
100
AcDbEntity
  8
LAY-2
  6
CONTINUOUS
 62
     6
100
AcDbLine
 10
1125.649999994916
 20
730.1499999999035
 30
0.0
 11
1121.399999994916
 21
730.1499999999035
 31
0.0
  0
LINE
  5
575
330
1F
100
AcDbEntity
  8
LAY-2
  6
CONTINUOUS
 62
     6
100
AcDbLine
 10
1117.149999994916
 20
730.1499999999035
 30
0.0
 11
1121.399999994916
 21
730.1499999999035
 31
0.0
  0
LINE
  5
576
330
1F
100
AcDbEntity
  8
LAY-2
  6
CONTINUOUS
 62
     6
100
AcDbLine
 10
1125.649999994916
 20
730.1499999999035
 30
0.0
 11
1123.700260863378
 21
727.637002897028
 31
0.0
  0
LINE
  5
577
330
1F
100
AcDbEntity
  8
LAY-2
  6
CONTINUOUS
 62
     6
100
AcDbLine
 10
1117.149999994916
 20
730.6499999999035
 30
0.0
 11
1117.149999994916
 21
730.1499999999035
 31
0.0
  0
LINE
  5
578
330
1F
100
AcDbEntity
  8
LAY-2
  6
CONTINUOUS
 62
     6
100
AcDbLine
 10
1117.149999994916
 20
730.6499999999035
 30
0.0
 11
1121.399999994916
 21
730.6499999999035
 31
0.0
  0
LINE
  5
579
330
1F
100
AcDbEntity
  8
LAY-2
  6
CONTINUOUS
 62
     6
100
AcDbLine
 10
1119.88982428128
 20
727.2499999999029
 30
0.0
 11
1121.399999994916
 21
727.2499999999029
 31
0.0
  0
ARC
  5
57A
330
1F
100
AcDbEntity
  8
LAY-2
  6
CONTINUOUS
 62
     6
100
AcDbCircle
 10
1119.88982428128
 20
728.249999999902
 30
0.0
 40
1.0
100
AcDbArc
 50
217.8065299447219
 51
270.0
  0
LINE
  5
57B
330
1F
100
AcDbEntity
  8
LAY-2
  6
CONTINUOUS
 62
     6
100
AcDbLine
 10
1117.149999994916
 20
730.1499999999035
 30
0.0
 11
1119.099739126469
 21
727.637002897028
 31
0.0
  0
LINE
  5
57C
330
1F
100
AcDbEntity
  8
LAY-2
  6
EXLTYPE8
 62
     6
100
AcDbLine
 10
560.2000000012963
 20
761.4535217567507
 30
0.0
 11
560.2000000012854
 21
780.3383306237636
 31
0.0
  0
LINE
  5
57D
330
1F
100
AcDbEntity
  8
LAY-2
  6
EXLTYPE8
 62
     6
100
AcDbLine
 10
564.7000000012781
 20
877.3499999955716
 30
0.0
 11
564.7000000012781
 21
779.0083839947367
 31
0.0
  0
LINE
  5
57E
330
1F
100
AcDbEntity
  8
LAY-2
  6
EXLTYPE8
 62
     6
100
AcDbLine
 10
589.7000000012854
 20
1307.349999995579
 30
0.0
 11
589.7000000012781
 21
779.0083839947367
 31
0.0
  0
LINE
  5
57F
330
1F
100
AcDbEntity
  8
LAY-2
  6
EXLTYPE8
 62
     6
100
AcDbLine
 10
578.8154458447466
 20
907.3499999955716
 30
0.0
 11
594.5100000012867
 21
907.3499999955716
 31
0.0
  0
LINE
  5
580
330
1F
100
AcDbEntity
  8
LAY-2
  6
EXLTYPE8
 62
     6
100
AcDbLine
 10
589.7000000012781
 20
911.5999999955716
 30
0.0
 11
590.2000000012781
 21
911.5999999955716
 31
0.0
  0
LINE
  5
581
330
1F
100
AcDbEntity
  8
LAY-2
  6
EXLTYPE8
 62
     6
100
AcDbLine
 10
589.7000000012781
 20
911.5999999955716
 30
0.0
 11
589.7000000012781
 21
907.3499999955716
 31
0.0
  0
LINE
  5
582
330
1F
100
AcDbEntity
  8
LAY-2
  6
EXLTYPE8
 62
     6
100
AcDbLine
 10
593.1000000012759
 20
908.8601757092156
 30
0.0
 11
593.1000000012759
 21
907.3499999955716
 31
0.0
  0
ARC
  5
583
330
1F
100
AcDbEntity
  8
LAY-2
  6
EXLTYPE8
 62
     6
100
AcDbCircle
 10
592.1000000012759
 20
908.8601757092156
 30
0.0
 40
1.0
100
AcDbArc
 50
0.0
 51
52.19347005521309
  0
LINE
  5
584
330
1F
100
AcDbEntity
  8
LAY-2
  6
EXLTYPE8
 62
     6
100
AcDbLine
 10
590.2000000012781
 20
911.5999999955716
 30
0.0
 11
590.2000000012781
 21
907.3499999955716
 31
0.0
  0
LINE
  5
585
330
1F
100
AcDbEntity
  8
LAY-2
  6
EXLTYPE8
 62
     6
100
AcDbLine
 10
590.2000000012781
 20
903.0999999955716
 30
0.0
 11
590.2000000012781
 21
907.3499999955716
 31
0.0
  0
LINE
  5
586
330
1F
100
AcDbEntity
  8
LAY-2
  6
EXLTYPE8
 62
     6
100
AcDbLine
 10
590.2000000012781
 20
911.5999999955716
 30
0.0
 11
592.7129971041581
 21
909.650260864034
 31
0.0
  0
LINE
  5
587
330
1F
100
AcDbEntity
  8
LAY-2
  6
EXLTYPE8
 62
     6
100
AcDbLine
 10
589.7000000012781
 20
903.0999999955716
 30
0.0
 11
590.2000000012781
 21
903.0999999955716
 31
0.0
  0
LINE
  5
588
330
1F
100
AcDbEntity
  8
LAY-2
  6
EXLTYPE8
 62
     6
100
AcDbLine
 10
589.7000000012781
 20
903.0999999955716
 30
0.0
 11
589.7000000012781
 21
907.3499999955716
 31
0.0
  0
LINE
  5
589
330
1F
100
AcDbEntity
  8
LAY-2
  6
EXLTYPE8
 62
     6
100
AcDbLine
 10
593.1000000012759
 20
905.8398242819358
 30
0.0
 11
593.1000000012759
 21
907.3499999955716
 31
0.0
  0
ARC
  5
58A
330
1F
100
AcDbEntity
  8
LAY-2
  6
EXLTYPE8
 62
     6
100
AcDbCircle
 10
592.1000000012759
 20
905.8398242819358
 30
0.0
 40
1.0
100
AcDbArc
 50
307.806529944787
 51
0.0
  0
LINE
  5
58B
330
1F
100
AcDbEntity
  8
LAY-2
  6
EXLTYPE8
 62
     6
100
AcDbLine
 10
590.2000000012781
 20
903.0999999955716
 30
0.0
 11
592.7129971041581
 21
905.0497391271169
 31
0.0
  0
LINE
  5
58C
330
1F
100
AcDbEntity
  8
LAY-2
  6
EXLTYPE8
 62
     6
100
AcDbLine
 10
589.7000000012781
 20
1101.599999995579
 30
0.0
 11
590.2000000012781
 21
1101.599999995579
 31
0.0
  0
LINE
  5
58D
330
1F
100
AcDbEntity
  8
LAY-2
  6
EXLTYPE8
 62
     6
100
AcDbLine
 10
589.7000000012781
 20
1101.599999995579
 30
0.0
 11
589.7000000012781
 21
1097.349999995579
 31
0.0
  0
LINE
  5
58E
330
1F
100
AcDbEntity
  8
LAY-2
  6
EXLTYPE8
 62
     6
100
AcDbLine
 10
593.1000000012759
 20
1098.860175709223
 30
0.0
 11
593.1000000012759
 21
1097.349999995579
 31
0.0
  0
ARC
  5
58F
330
1F
100
AcDbEntity
  8
LAY-2
  6
EXLTYPE8
 62
     6
100
AcDbCircle
 10
592.1000000012759
 20
1098.860175709223
 30
0.0
 40
1.0
100
AcDbArc
 50
0.0
 51
52.19347005521309
  0
LINE
  5
590
330
1F
100
AcDbEntity
  8
LAY-2
  6
EXLTYPE8
 62
     6
100
AcDbLine
 10
590.2000000012781
 20
1101.599999995579
 30
0.0
 11
590.2000000012781
 21
1097.349999995579
 31
0.0
  0
LINE
  5
591
330
1F
100
AcDbEntity
  8
LAY-2
  6
EXLTYPE8
 62
     6
100
AcDbLine
 10
590.2000000012781
 20
1093.099999995579
 30
0.0
 11
590.2000000012781
 21
1097.349999995579
 31
0.0
  0
LINE
  5
592
330
1F
100
AcDbEntity
  8
LAY-2
  6
EXLTYPE8
 62
     6
100
AcDbLine
 10
590.2000000012781
 20
1101.599999995579
 30
0.0
 11
592.7129971041581
 21
1099.650260864041
 31
0.0
  0
LINE
  5
593
330
1F
100
AcDbEntity
  8
LAY-2
  6
EXLTYPE8
 62
     6
100
AcDbLine
 10
589.7000000012781
 20
1093.099999995579
 30
0.0
 11
590.2000000012781
 21
1093.099999995579
 31
0.0
  0
LINE
  5
594
330
1F
100
AcDbEntity
  8
LAY-2
  6
EXLTYPE8
 62
     6
100
AcDbLine
 10
589.7000000012781
 20
1093.099999995579
 30
0.0
 11
589.7000000012781
 21
1097.349999995579
 31
0.0
  0
LINE
  5
595
330
1F
100
AcDbEntity
  8
LAY-2
  6
EXLTYPE8
 62
     6
100
AcDbLine
 10
593.1000000012759
 20
1095.839824281943
 30
0.0
 11
593.1000000012759
 21
1097.349999995579
 31
0.0
  0
ARC
  5
596
330
1F
100
AcDbEntity
  8
LAY-2
  6
EXLTYPE8
 62
     6
100
AcDbCircle
 10
592.1000000012759
 20
1095.839824281943
 30
0.0
 40
1.0
100
AcDbArc
 50
307.806529944787
 51
0.0
  0
LINE
  5
597
330
1F
100
AcDbEntity
  8
LAY-2
  6
EXLTYPE8
 62
     6
100
AcDbLine
 10
590.2000000012781
 20
1093.099999995579
 30
0.0
 11
592.7129971041581
 21
1095.049739127125
 31
0.0
  0
LINE
  5
598
330
1F
100
AcDbEntity
  8
LAY-2
  6
EXLTYPE8
 62
     6
100
AcDbLine
 10
578.8154458447466
 20
1287.349999995579
 30
0.0
 11
594.5100000012867
 21
1287.349999995579
 31
0.0
  0
LINE
  5
599
330
1F
100
AcDbEntity
  8
LAY-2
  6
EXLTYPE8
 62
     6
100
AcDbLine
 10
589.7000000012781
 20
1291.599999995579
 30
0.0
 11
590.2000000012781
 21
1291.599999995579
 31
0.0
  0
LINE
  5
59A
330
1F
100
AcDbEntity
  8
LAY-2
  6
EXLTYPE8
 62
     6
100
AcDbLine
 10
589.7000000012781
 20
1291.599999995579
 30
0.0
 11
589.7000000012781
 21
1287.349999995579
 31
0.0
  0
LINE
  5
59B
330
1F
100
AcDbEntity
  8
LAY-2
  6
EXLTYPE8
 62
     6
100
AcDbLine
 10
593.1000000012759
 20
1288.860175709223
 30
0.0
 11
593.1000000012759
 21
1287.349999995579
 31
0.0
  0
ARC
  5
59C
330
1F
100
AcDbEntity
  8
LAY-2
  6
EXLTYPE8
 62
     6
100
AcDbCircle
 10
592.1000000012759
 20
1288.860175709223
 30
0.0
 40
1.0
100
AcDbArc
 50
0.0
 51
52.19347005521309
  0
LINE
  5
59D
330
1F
100
AcDbEntity
  8
LAY-2
  6
EXLTYPE8
 62
     6
100
AcDbLine
 10
590.2000000012781
 20
1291.599999995579
 30
0.0
 11
590.2000000012781
 21
1287.349999995579
 31
0.0
  0
LINE
  5
59E
330
1F
100
AcDbEntity
  8
LAY-2
  6
EXLTYPE8
 62
     6
100
AcDbLine
 10
590.2000000012781
 20
1283.099999995579
 30
0.0
 11
590.2000000012781
 21
1287.349999995579
 31
0.0
  0
LINE
  5
59F
330
1F
100
AcDbEntity
  8
LAY-2
  6
EXLTYPE8
 62
     6
100
AcDbLine
 10
590.2000000012781
 20
1291.599999995579
 30
0.0
 11
592.7129971041581
 21
1289.650260864041
 31
0.0
  0
LINE
  5
5A0
330
1F
100
AcDbEntity
  8
LAY-2
  6
EXLTYPE8
 62
     6
100
AcDbLine
 10
589.7000000012781
 20
1283.099999995579
 30
0.0
 11
590.2000000012781
 21
1283.099999995579
 31
0.0
  0
LINE
  5
5A1
330
1F
100
AcDbEntity
  8
LAY-2
  6
EXLTYPE8
 62
     6
100
AcDbLine
 10
589.7000000012781
 20
1283.099999995579
 30
0.0
 11
589.7000000012781
 21
1287.349999995579
 31
0.0
  0
LINE
  5
5A2
330
1F
100
AcDbEntity
  8
LAY-2
  6
EXLTYPE8
 62
     6
100
AcDbLine
 10
593.1000000012759
 20
1285.839824281943
 30
0.0
 11
593.1000000012759
 21
1287.349999995579
 31
0.0
  0
ARC
  5
5A3
330
1F
100
AcDbEntity
  8
LAY-2
  6
EXLTYPE8
 62
     6
100
AcDbCircle
 10
592.1000000012759
 20
1285.839824281943
 30
0.0
 40
1.0
100
AcDbArc
 50
307.806529944787
 51
0.0
  0
LINE
  5
5A4
330
1F
100
AcDbEntity
  8
LAY-2
  6
EXLTYPE8
 62
     6
100
AcDbLine
 10
590.2000000012781
 20
1283.099999995579
 30
0.0
 11
592.7129971041581
 21
1285.049739127125
 31
0.0
  0
LINE
  5
5A5
330
1F
100
AcDbEntity
  8
LAY-2
  6
EXLTYPE8
 62
     6
100
AcDbLine
 10
592.6999999930381
 20
1309.349999995608
 30
0.0
 11
592.699999992918
 21
1318.055980119764
 31
0.0
  0
LINE
  5
5A6
330
1F
100
AcDbEntity
  8
LAY-2
  6
EXLTYPE8
 62
     6
100
AcDbLine
 10
585.7000000012781
 20
1307.349999995579
 30
0.0
 11
585.7000000012781
 21
1407.099999995579
 31
0.0
  0
LINE
  5
5A7
330
1F
100
AcDbEntity
  8
LAY-2
  6
EXLTYPE8
 62
     6
100
AcDbLine
 10
592.7000000012781
 20
1309.349999995579
 30
0.0
 11
592.7000000012781
 21
1318.05598016406
 31
0.0
  0
ARC
  5
5A8
330
1F
100
AcDbEntity
  8
LAY-2
  6
EXLTYPE8
 62
     6
100
AcDbCircle
 10
692.7000000012781
 20
1318.05598016406
 30
0.0
 40
100.0
100
AcDbArc
 50
169.3803447179588
 51
180.0
  0
LINE
  5
5A9
330
1F
100
AcDbEntity
  8
LAY-2
  6
EXLTYPE8
 62
     6
100
AcDbLine
 10
594.4127813096279
 20
1336.484833678592
 30
0.0
 11
603.8782052933461
 21
1386.967094898112
 31
0.0
  0
ARC
  5
5AA
330
1F
100
AcDbEntity
  8
LAY-2
  6
EXLTYPE8
 62
     6
100
AcDbCircle
 10
587.1693781157669
 20
1390.099999995579
 30
0.0
 40
17.0
100
AcDbArc
 50
349.3803447179588
 51
90.00000000000001
  0
LINE
  5
5AB
330
1F
100
AcDbEntity
  8
LAY-2
  6
EXLTYPE8
 62
     6
100
AcDbLine
 10
590.7000000012781
 20
1307.349999995579
 30
0.0
 11
585.7000000012781
 21
1307.349999995579
 31
0.0
  0
ARC
  5
5AC
330
1F
100
AcDbEntity
  8
LAY-2
  6
EXLTYPE8
 62
     6
100
AcDbCircle
 10
590.7000000012781
 20
1309.349999995579
 30
0.0
 40
2.0
100
AcDbArc
 50
270.0
 51
0.0
  0
LINE
  5
5AD
330
1F
100
AcDbEntity
  8
LAY-2
  6
EXLTYPE8
 62
     6
100
AcDbLine
 10
585.7000000012781
 20
1407.099999995579
 30
0.0
 11
587.1693781157669
 21
1407.099999995579
 31
0.0
  0
LINE
  5
5AE
330
1F
100
AcDbEntity
  8
LAY-2
  6
EXLTYPE8
 62
     6
100
AcDbLine
 10
585.2000000012854
 20
1407.349999995579
 30
0.0
 11
585.2000000012781
 21
878.3499999955716
 31
0.0
  0
LINE
  5
5AF
330
1F
100
AcDbEntity
  8
LAY-2
  6
EXLTYPE8
 62
     6
100
AcDbLine
 10
585.2000000012781
 20
1405.849999995579
 30
0.0
 11
585.7000000012781
 21
1405.849999995579
 31
0.0
  0
LINE
  5
5B0
330
1F
100
AcDbEntity
  8
LAY-2
  6
EXLTYPE8
 62
     6
100
AcDbLine
 10
580.7000000012781
 20
1407.349999995579
 30
0.0
 11
585.2000000012781
 21
1407.349999995579
 31
0.0
  0
LINE
  5
5B1
330
1F
100
AcDbEntity
  8
LAY-2
  6
EXLTYPE8
 62
     6
100
AcDbLine
 10
578.8154458447466
 20
1097.349999995579
 30
0.0
 11
594.5100000012867
 21
1097.349999995579
 31
0.0
  0
LINE
  5
5B2
330
1F
100
AcDbEntity
  8
LAY-2
  6
EXLTYPE8
 62
     6
100
AcDbLine
 10
585.2000000012781
 20
1312.349999995579
 30
0.0
 11
585.7000000012781
 21
1312.349999995579
 31
0.0
  0
LINE
  5
5B3
330
1F
100
AcDbEntity
  8
LAY-2
  6
EXLTYPE8
 62
     6
100
AcDbLine
 10
585.2000000012781
 20
1338.099999995579
 30
0.0
 11
585.7000000012781
 21
1338.099999995579
 31
0.0
  0
LINE
  5
5B4
330
1F
100
AcDbEntity
  8
LAY-2
  6
EXLTYPE8
 62
     6
100
AcDbLine
 10
585.2000000012781
 20
1339.599999995579
 30
0.0
 11
585.7000000012781
 21
1339.599999995579
 31
0.0
  0
LINE
  5
5B5
330
1F
100
AcDbEntity
  8
LAY-2
  6
EXLTYPE8
 62
     6
100
AcDbLine
 10
559.2000000012781
 20
1372.849999995579
 30
0.0
 11
559.2000000012781
 21
882.3499999955716
 31
0.0
  0
ELLIPSE
  5
5B6
330
1F
100
AcDbEntity
  8
LAY-2
  6
EXLTYPE8
 62
     6
100
AcDbEllipse
 10
580.7000000012781
 20
1372.849999995579
 30
0.0
 11
-1.320856201129806E-14
 21
34.50000000000023
 31
0.0
210
0.0
220
0.0
230
1.0
 40
0.6231884057970981
 41
0.0
 42
1.570796326794897
  0
LINE
  5
5B7
330
1F
100
AcDbEntity
  8
LAY-2
  6
EXLTYPE8
 62
     6
100
AcDbLine
 10
594.2000000012781
 20
765.3315967858546
 30
0.0
 11
594.2000000012781
 21
780.3383306237558
 31
0.0
  0
LINE
  5
5B8
330
1F
100
AcDbEntity
  8
LAY-2
  6
EXLTYPE8
 62
     6
100
AcDbLine
 10
589.8500000012868
 20
779.0083839947367
 30
0.0
 11
589.8500000012868
 21
782.3301890524638
 31
0.0
  0
LINE
  5
5B9
330
1F
100
AcDbEntity
  8
LAY-2
  6
EXLTYPE8
 62
     6
100
AcDbLine
 10
564.5500000012767
 20
779.0083839947367
 30
0.0
 11
564.5500000012767
 21
782.3301890524638
 31
0.0
  0
LINE
  5
5BA
330
1F
100
AcDbEntity
  8
LAY-2
  6
EXLTYPE8
 62
     6
100
AcDbLine
 10
589.8500000012868
 20
779.0083839947367
 30
0.0
 11
564.5500000012767
 21
779.0083839947367
 31
0.0
  0
LINE
  5
5BB
330
1F
100
AcDbEntity
  8
LAY-2
  6
EXLTYPE8
 62
     6
100
AcDbLine
 10
564.1000000012759
 20
782.5899966735999
 30
0.0
 11
560.2000000012854
 21
780.3383306237636
 31
0.0
  0
LINE
  5
5BC
330
1F
100
AcDbEntity
  8
LAY-2
  6
EXLTYPE8
 62
     6
100
AcDbLine
 10
592.2000000012781
 20
776.4969103237638
 30
0.0
 11
562.2000000012854
 21
776.4969103237638
 31
0.0
  0
ARC
  5
5BD
330
1F
100
AcDbEntity
  8
LAY-2
  6
EXLTYPE8
 62
     6
100
AcDbCircle
 10
564.2500000012883
 20
782.3301890524638
 30
0.0
 40
0.3
100
AcDbArc
 50
0.0
 51
120.0000000000558
  0
ARC
  5
5BE
330
1F
100
AcDbEntity
  8
LAY-2
  6
EXLTYPE8
 62
     6
100
AcDbCircle
 10
590.1500000012861
 20
782.3301890524638
 30
0.0
 40
0.3
100
AcDbArc
 50
59.99999999994421
 51
180.0
  0
LINE
  5
5BF
330
1F
100
AcDbEntity
  8
LAY-2
  6
EXLTYPE8
 62
     6
100
AcDbLine
 10
590.3000000012876
 20
782.5899966735999
 30
0.0
 11
594.2000000012781
 21
780.3383306237558
 31
0.0
  0
ELLIPSE
  5
5C0
330
1F
100
AcDbEntity
  8
LAY-2
  6
EXLTYPE8
 62
     6
100
AcDbEllipse
 10
562.2000000012854
 20
778.4969103237647
 30
0.0
 11
-3.673940397442059E-16
 21
-2.0
 31
0.0
210
0.0
220
0.0
230
1.0
 40
0.9999999999995455
 41
4.712388980385656
 42
6.283185307179586
  0
ELLIPSE
  5
5C1
330
1F
100
AcDbEntity
  8
LAY-2
  6
EXLTYPE8
 62
     6
100
AcDbEllipse
 10
592.2000000012781
 20
778.4969103237647
 30
0.0
 11
-3.673940397442059E-16
 21
-2.0
 31
0.0
210
0.0
220
0.0
230
1.0
 40
0.9999999999995455
 41
0.0
 42
1.57079632679393
  0
ARC
  5
5C2
330
1F
100
AcDbEntity
  8
LAY-2
  6
EXLTYPE8
 62
     6
100
AcDbCircle
 10
584.2000000012781
 20
878.3499999955716
 30
0.0
 40
1.0
100
AcDbArc
 50
270.0
 51
0.0
  0
ARC
  5
5C3
330
1F
100
AcDbEntity
  8
LAY-2
  6
EXLTYPE8
 62
     6
100
AcDbCircle
 10
564.2000000012781
 20
882.3499999955716
 30
0.0
 40
5.0
100
AcDbArc
 50
180.0
 51
270.0
  0
LINE
  5
5C4
330
1F
100
AcDbEntity
  8
LAY-2
  6
CONTINUOUS
 62
     6
100
AcDbLine
 10
540.9999999999859
 20
599.999999999997
 30
0.0
 11
550.8000000007273
 21
599.999999999997
 31
0.0
  0
LINE
  5
5C5
330
1F
100
AcDbEntity
  8
LAY-2
  6
CONTINUOUS
 62
     6
100
AcDbLine
 10
540.9999999999859
 20
779.9999999999966
 30
0.0
 11
540.9999999999859
 21
599.999999999997
 31
0.0
  0
LINE
  5
5C6
330
1F
100
AcDbEntity
  8
LAY-2
  6
CONTINUOUS
 62
     6
100
AcDbLine
 10
560.8000000007273
 20
610.521488161289
 30
0.0
 11
560.8000000007273
 21
609.999999999997
 31
0.0
  0
ARC
  5
5C7
330
1F
100
AcDbEntity
  8
LAY-2
  6
CONTINUOUS
 62
     6
100
AcDbCircle
 10
550.8000000007273
 20
609.999999999997
 30
0.0
 40
10.0
100
AcDbArc
 50
270.0
 51
0.0
  0
ARC
  5
5C8
330
1F
100
AcDbEntity
  8
LAY-2
  6
CONTINUOUS
 62
     6
100
AcDbCircle
 10
577.1999999992481
 20
743.1499999999035
 30
0.0
 40
24.8
100
AcDbArc
 50
0.0
 51
70.56297832735989
  0
LINE
  5
5C9
330
1F
100
AcDbEntity
  8
LAY-2
  6
CONTINUOUS
 62
     6
100
AcDbLine
 10
560.8000000007273
 20
630.0000000004627
 30
0.0
 11
561.5448884647162
 21
631.8561091497511
 31
0.0
  0
ARC
  5
5CA
330
1F
100
AcDbEntity
  8
LAY-2
  6
CONTINUOUS
 62
     6
100
AcDbCircle
 10
660.8000000007382
 20
610.682899878823
 30
0.0
 40
100.0
100
AcDbArc
 50
158.1335613704877
 51
180.0
  0
LINE
  5
5CB
330
1F
100
AcDbEntity
  8
LAY-2
  6
CONTINUOUS
 62
     6
100
AcDbLine
 10
561.5448884650364
 20
631.8561091502022
 30
0.0
 11
598.4016686715081
 21
723.6956397069118
 31
0.0
  0
LINE
  5
5CC
330
1F
100
AcDbEntity
  8
LAY-2
  6
CONTINUOUS
 62
     6
100
AcDbLine
 10
560.8000000007273
 20
610.6828998799872
 30
0.0
 11
560.8000000007273
 21
609.999999999997
 31
0.0
  0
LINE
  5
5CD
330
1F
100
AcDbEntity
  8
LAY-2
  6
CONTINUOUS
 62
     6
100
AcDbLine
 10
560.8000000007273
 20
768.1224538774666
 30
0.0
 11
560.8000000007273
 21
610.3414499398757
 31
0.0
  0
ELLIPSE
  5
5CE
330
1F
100
AcDbEntity
  8
LAY-2
  6
CONTINUOUS
 62
     6
100
AcDbEllipse
 10
577.1999999992481
 20
743.1499999999035
 30
0.0
 11
-6.888638245203862E-15
 21
-37.5
 31
0.0
210
0.0
220
0.0
230
1.0
 40
0.6613333333332169
 41
1.025369609209248
 42
1.570796326794897
  0
ARC
  5
5CF
330
1F
100
AcDbEntity
  8
LAY-2
  6
CONTINUOUS
 62
     6
100
AcDbCircle
 10
550.8000000007273
 20
768.1224538774666
 30
0.0
 40
10.0
100
AcDbArc
 50
0.0
 51
70.28017285226939
  0
LINE
  5
5D0
330
1F
100
AcDbEntity
  8
LAY-2
  6
CONTINUOUS
 62
     6
100
AcDbLine
 10
547.3000000007273
 20
779.9999999999966
 30
0.0
 11
540.9999999999859
 21
779.9999999999966
 31
0.0
  0
LINE
  5
5D1
330
1F
100
AcDbEntity
  8
LAY-2
  6
CONTINUOUS
 62
     6
100
AcDbLine
 10
547.3000000007273
 20
779.9999999999966
 30
0.0
 11
585.4527090415181
 21
766.5365943107729
 31
0.0
  0
LINE
  5
5D2
330
1F
100
AcDbEntity
  8
LAY-2
  6
CONTINUOUS
 62
     6
100
AcDbLine
 10
1143.399999994945
 20
727.6500000081508
 30
0.0
 11
1152.105980119094
 21
727.6500000082635
 31
0.0
  0
LINE
  5
5D3
330
1F
100
AcDbEntity
  8
LAY-2
  6
CONTINUOUS
 62
     6
100
AcDbLine
 10
1141.399999994916
 20
734.6499999999035
 30
0.0
 11
1241.149999994916
 21
734.6499999999035
 31
0.0
  0
LINE
  5
5D4
330
1F
100
AcDbEntity
  8
LAY-2
  6
CONTINUOUS
 62
     6
100
AcDbLine
 10
1143.399999994916
 20
727.6499999999035
 30
0.0
 11
1152.105980163397
 21
727.6499999999035
 31
0.0
  0
ARC
  5
5D5
330
1F
100
AcDbEntity
  8
LAY-2
  6
CONTINUOUS
 62
     6
100
AcDbCircle
 10
1152.105980163397
 20
627.6499999999039
 30
0.0
 40
100.0
100
AcDbArc
 50
79.38034471798414
 51
90.00000000000001
  0
LINE
  5
5D6
330
1F
100
AcDbEntity
  8
LAY-2
  6
CONTINUOUS
 62
     6
100
AcDbLine
 10
1170.534833677928
 20
725.9372186915537
 30
0.0
 11
1221.017094897449
 21
716.4717947078354
 31
0.0
  0
ARC
  5
5D7
330
1F
100
AcDbEntity
  8
LAY-2
  6
CONTINUOUS
 62
     6
100
AcDbCircle
 10
1224.149999994916
 20
733.1806218854188
 30
0.0
 40
17.0
100
AcDbArc
 50
259.3803447179837
 51
0.0
  0
LINE
  5
5D8
330
1F
100
AcDbEntity
  8
LAY-2
  6
CONTINUOUS
 62
     6
100
AcDbLine
 10
1141.399999994916
 20
729.6499999999035
 30
0.0
 11
1141.399999994916
 21
734.6499999999035
 31
0.0
  0
ARC
  5
5D9
330
1F
100
AcDbEntity
  8
LAY-2
  6
CONTINUOUS
 62
     6
100
AcDbCircle
 10
1143.399999994916
 20
729.6499999999035
 30
0.0
 40
2.0
100
AcDbArc
 50
180.0
 51
270.0
  0
LINE
  5
5DA
330
1F
100
AcDbEntity
  8
LAY-2
  6
CONTINUOUS
 62
     6
100
AcDbLine
 10
1241.399999994916
 20
735.1499999998998
 30
0.0
 11
712.3999999949087
 21
735.1499999999035
 31
0.0
  0
ARC
  5
5DB
330
1F
100
AcDbEntity
  8
LAY-2
  6
CONTINUOUS
 62
     6
100
AcDbCircle
 10
712.3999999949087
 20
736.1499999999035
 30
0.0
 40
1.0
100
AcDbArc
 50
180.0
 51
270.0
  0
LINE
  5
5DC
330
1F
100
AcDbEntity
  8
LAY-2
  6
CONTINUOUS
 62
     6
100
AcDbLine
 10
711.3999999949087
 20
756.1499999999035
 30
0.0
 11
711.3999999949087
 21
736.1499999999035
 31
0.0
  0
ARC
  5
5DD
330
1F
100
AcDbEntity
  8
LAY-2
  6
CONTINUOUS
 62
     6
100
AcDbCircle
 10
716.3999999949087
 20
756.1499999999035
 30
0.0
 40
5.0
100
AcDbArc
 50
90.00000000000001
 51
180.0
  0
LINE
  5
5DE
330
1F
100
AcDbEntity
  8
LAY-2
  6
CONTINUOUS
 62
     6
100
AcDbLine
 10
1146.399999994916
 20
735.1499999999035
 30
0.0
 11
1146.399999994916
 21
734.6499999999035
 31
0.0
  0
LINE
  5
5DF
330
1F
100
AcDbEntity
  8
LAY-2
  6
CONTINUOUS
 62
     6
100
AcDbLine
 10
1172.149999994916
 20
735.1499999999035
 30
0.0
 11
1172.149999994916
 21
734.6499999999035
 31
0.0
  0
LINE
  5
5E0
330
1F
100
AcDbEntity
  8
LAY-2
  6
CONTINUOUS
 62
     6
100
AcDbLine
 10
1173.649999994916
 20
735.1499999999035
 30
0.0
 11
1173.649999994916
 21
734.6499999999035
 31
0.0
  0
LINE
  5
5E1
330
1F
100
AcDbEntity
  8
LAY-2
  6
CONTINUOUS
 62
     6
100
AcDbLine
 10
1206.899999994916
 20
761.1499999999035
 30
0.0
 11
716.3999999949087
 21
761.1499999999035
 31
0.0
  0
ELLIPSE
  5
5E2
330
1F
100
AcDbEntity
  8
LAY-2
  6
CONTINUOUS
 62
     6
100
AcDbEllipse
 10
1206.899999994916
 20
739.6499999999035
 30
0.0
 11
34.50000000000023
 21
0.0
 31
0.0
210
0.0
220
0.0
230
1.0
 40
0.6231884057970981
 41
0.0
 42
1.570796326794897
  0
LINE
  5
5E3
330
1F
100
AcDbEntity
  8
LAY-2
  6
CONTINUOUS
 62
     6
100
AcDbLine
 10
711.3999999949087
 20
755.6499999999035
 30
0.0
 11
613.0583839940778
 21
755.6499999999025
 31
0.0
  0
LINE
  5
5E4
330
1F
100
AcDbEntity
  8
LAY-2
  6
CONTINUOUS
 62
     6
100
AcDbLine
 10
1141.399999994916
 20
730.6499999998998
 30
0.0
 11
613.0583839940778
 21
730.6499999999035
 31
0.0
  0
CIRCLE
  5
5E5
330
1F
100
AcDbEntity
  8
LAY-2
  6
CONTINUOUS
 62
     6
100
AcDbCircle
 10
599.0000000000152
 20
853.349999999997
 30
0.0
 40
5.2
  0
LINE
  5
5E6
330
1F
100
AcDbEntity
  8
LAY-2
  6
EXLTYPE3
 62
     6
100
AcDbLine
 10
533.0000000000152
 20
853.349999999997
 30
0.0
 11
619.0000000000152
 21
853.349999999997
 31
0.0
  0
LINE
  5
5E7
330
1F
100
AcDbEntity
  8
LAY-2
  6
EXLTYPE3
 62
     6
100
AcDbLine
 10
599.0000000000152
 20
873.349999999997
 30
0.0
 11
599.0000000000152
 21
833.349999999997
 31
0.0
  0
LINE
  5
5E8
330
1F
100
AcDbEntity
  8
LAY-2
  6
CONTINUOUS
 62
     6
100
AcDbLine
 10
541.0000000000152
 20
828.349999999997
 30
0.0
 11
541.0000000000152
 21
878.349999999997
 31
0.0
  0
ARC
  5
5E9
330
1F
100
AcDbEntity
  8
LAY-2
  6
CONTINUOUS
 62
     6
100
AcDbCircle
 10
599.0000000000152
 20
853.349999999997
 30
0.0
 40
10.0
100
AcDbArc
 50
270.0
 51
90.00000000000001
  0
ARC
  5
5EA
330
1F
100
AcDbEntity
  8
LAY-2
  6
CONTINUOUS
 62
     6
100
AcDbCircle
 10
599.0000000000152
 20
778.3499999999971
 30
0.0
 40
65.0
100
AcDbArc
 50
90.00000000000001
 51
126.8698976457437
  0
ARC
  5
5EB
330
1F
100
AcDbEntity
  8
LAY-2
  6
CONTINUOUS
 62
     6
100
AcDbCircle
 10
554.0000000000152
 20
838.349999999997
 30
0.0
 40
10.0
100
AcDbArc
 50
270.0
 51
306.8698976457437
  0
LINE
  5
5EC
330
1F
100
AcDbEntity
  8
LAY-2
  6
CONTINUOUS
 62
     6
100
AcDbLine
 10
541.0000000000152
 20
828.349999999997
 30
0.0
 11
554.0000000000152
 21
828.349999999997
 31
0.0
  0
ARC
  5
5ED
330
1F
100
AcDbEntity
  8
LAY-2
  6
CONTINUOUS
 62
     6
100
AcDbCircle
 10
599.0000000000152
 20
928.349999999997
 30
0.0
 40
65.0
100
AcDbArc
 50
233.1301023542562
 51
270.0
  0
LINE
  5
5EE
330
1F
100
AcDbEntity
  8
LAY-2
  6
CONTINUOUS
 62
     6
100
AcDbLine
 10
541.0000000000152
 20
878.349999999997
 30
0.0
 11
554.0000000000152
 21
878.349999999997
 31
0.0
  0
ARC
  5
5EF
330
1F
100
AcDbEntity
  8
LAY-2
  6
CONTINUOUS
 62
     6
100
AcDbCircle
 10
554.0000000000152
 20
868.349999999997
 30
0.0
 40
10.0
100
AcDbArc
 50
53.13010235425629
 51
90.00000000000001
  0
CIRCLE
  5
5F0
330
1F
100
AcDbEntity
  8
LAY-2
  6
CONTINUOUS
 62
     6
100
AcDbCircle
 10
599.0000000000152
 20
853.349999999997
 30
0.0
 40
7.0
  0
ARC
  5
5F1
330
1F
100
AcDbEntity
  8
LAY-2
  6
EXLTYPE8
 62
     6
100
AcDbCircle
 10
584.2000000013074
 20
878.3499999955718
 30
0.0
 40
1.0
100
AcDbArc
 50
270.0
 51
0.0
  0
LINE
  5
5F2
330
1F
100
AcDbEntity
  8
LAY-2
  6
EXLTYPE8
 62
     6
100
AcDbLine
 10
564.2000000013074
 20
877.3499999955718
 30
0.0
 11
584.2000000013074
 21
877.3499999955718
 31
0.0
  0
LINE
  5
5F3
330
1F
100
AcDbEntity
  8
LAY-2
  6
EXLTYPE1
 62
     6
100
AcDbLine
 10
544.200000000016
 20
828.349999999997
 30
0.0
 11
544.200000000016
 21
878.349999999997
 31
0.0
  0
LINE
  5
5F4
330
1F
100
AcDbEntity
  8
LAY-2
  6
EXLTYPE1
 62
     6
100
AcDbLine
 10
541.0000000000152
 20
838.649999999998
 30
0.0
 11
543.700000000016
 21
841.3499999999979
 31
0.0
  0
LINE
  5
5F5
330
1F
100
AcDbEntity
  8
LAY-2
  6
EXLTYPE1
 62
     6
100
AcDbLine
 10
541.0000000000152
 20
833.0499999999981
 30
0.0
 11
543.700000000016
 21
830.3499999999979
 31
0.0
  0
LINE
  5
5F6
330
1F
100
AcDbEntity
  8
LAY-2
  6
EXLTYPE1
 62
     6
100
AcDbLine
 10
544.200000000016
 20
830.3499999999979
 30
0.0
 11
543.700000000016
 21
830.3499999999979
 31
0.0
  0
LINE
  5
5F7
330
1F
100
AcDbEntity
  8
LAY-2
  6
EXLTYPE1
 62
     6
100
AcDbLine
 10
544.200000000016
 20
841.3499999999979
 30
0.0
 11
543.700000000016
 21
841.3499999999979
 31
0.0
  0
LINE
  5
5F8
330
1F
100
AcDbEntity
  8
LAY-2
  6
EXLTYPE1
 62
     6
100
AcDbLine
 10
541.0000000000152
 20
868.0499999999981
 30
0.0
 11
543.700000000016
 21
865.3499999999979
 31
0.0
  0
LINE
  5
5F9
330
1F
100
AcDbEntity
  8
LAY-2
  6
EXLTYPE1
 62
     6
100
AcDbLine
 10
544.200000000016
 20
865.3499999999979
 30
0.0
 11
543.700000000016
 21
865.3499999999979
 31
0.0
  0
LINE
  5
5FA
330
1F
100
AcDbEntity
  8
LAY-2
  6
EXLTYPE1
 62
     6
100
AcDbLine
 10
544.200000000016
 20
876.3499999999979
 30
0.0
 11
543.700000000016
 21
876.3499999999979
 31
0.0
  0
LINE
  5
5FB
330
1F
100
AcDbEntity
  8
LAY-2
  6
EXLTYPE1
 62
     6
100
AcDbLine
 10
541.0000000000152
 20
873.649999999998
 30
0.0
 11
543.700000000016
 21
876.3499999999979
 31
0.0
  0
TEXT
  5
5FC
330
1F
100
AcDbEntity
  8
LAY-2
  6
CONTINUOUS
 62
     2
100
AcDbText
 10
1002.497797035496
 20
1015.94999999997
 30
0.0
 40
40.0
  1
ストッパー（オプション）
 41
0.9661971830985917
  7
EXCADSTD
 72
     5
 11
1394.497797035496
 21
1015.94999999997
 31
0.0
100
AcDbText
  0
LINE
  5
5FD
330
1F
100
AcDbEntity
  8
LAY-2
  6
CONTINUOUS
 62
     6
100
AcDbLine
 10
1589.233294024496
 20
760.6499999999678
 30
0.0
 11
1597.801331789808
 21
760.6499999999678
 31
0.0
  0
LINE
  5
5FE
330
1F
100
AcDbEntity
  8
LAY-2
  6
CONTINUOUS
 62
     6
100
AcDbLine
 10
1547.049547730807
 20
780.0000000000168
 30
0.0
 11
1547.049547730807
 21
751.641266373156
 31
0.0
  0
LINE
  5
5FF
330
1F
100
AcDbEntity
  8
LAY-2
  6
CONTINUOUS
 62
     6
100
AcDbLine
 10
1551.799547730807
 20
764.1499999999239
 30
0.0
 11
1551.799547730807
 21
758.844929477782
 31
0.0
  0
ARC
  5
600
330
1F
100
AcDbEntity
  8
LAY-2
  6
CONTINUOUS
 62
     6
100
AcDbCircle
 10
1551.299547730807
 20
764.1499999999239
 30
0.0
 40
0.5
100
AcDbArc
 50
0.0
 51
90.00000000000001
  0
LINE
  5
601
330
1F
100
AcDbEntity
  8
LAY-2
  6
CONTINUOUS
 62
     6
100
AcDbLine
 10
1547.049547730807
 20
764.6499999999239
 30
0.0
 11
1551.299547730807
 21
764.6499999999239
 31
0.0
  0
LINE
  5
602
330
1F
100
AcDbEntity
  8
LAY-2
  6
CONTINUOUS
 62
     6
100
AcDbLine
 10
1551.799547730807
 20
760.6499999999689
 30
0.0
 11
1561.016253706344
 21
760.6499999999689
 31
0.0
  0
LINE
  5
603
330
1F
100
AcDbEntity
  8
LAY-2
  6
CONTINUOUS
 62
     6
100
AcDbLine
 10
1547.0495477308
 20
770.0000000000168
 30
0.0
 11
1603.150415471398
 21
770.0000000000168
 31
0.0
  0
LINE
  5
604
330
1F
100
AcDbEntity
  8
LAY-2
  6
CONTINUOUS
 62
     6
100
AcDbLine
 10
1603.150415471398
 20
780.0000000000168
 30
0.0
 11
1603.150415471398
 21
752.23031025769
 31
0.0
  0
LINE
  5
605
330
1F
100
AcDbEntity
  8
LAY-2
  6
CONTINUOUS
 62
     6
100
AcDbLine
 10
1598.400415471398
 20
764.1499999999239
 30
0.0
 11
1598.400415471398
 21
758.9038145777438
 31
0.0
  0
ARC
  5
606
330
1F
100
AcDbEntity
  8
LAY-2
  6
CONTINUOUS
 62
     6
100
AcDbCircle
 10
1598.900415471398
 20
764.1499999999239
 30
0.0
 40
0.5
100
AcDbArc
 50
90.00000000000001
 51
180.0
  0
LINE
  5
607
330
1F
100
AcDbEntity
  8
LAY-2
  6
CONTINUOUS
 62
     6
100
AcDbLine
 10
1603.150415471398
 20
764.6499999999239
 30
0.0
 11
1598.900415471398
 21
764.6499999999239
 31
0.0
  0
LINE
  5
608
330
1F
100
AcDbEntity
  8
LAY-2
  6
EXLTYPE3
 62
     6
100
AcDbLine
 10
1516.672424965065
 20
743.1499999999239
 30
0.0
 11
1633.527575034976
 21
743.1499999999239
 31
0.0
  0
LINE
  5
609
330
1F
100
AcDbEntity
  8
LAY-2
  6
EXLTYPE3
 62
     6
100
AcDbLine
 10
1575.100000000028
 20
784.7704620263048
 30
0.0
 11
1575.100000000028
 21
593.8677595802101
 31
0.0
  0
LINE
  5
60A
330
1F
100
AcDbEntity
  8
LAY-2
  6
EXLTYPE3
 62
     6
100
AcDbLine
 10
1575.100000000028
 20
701.302822124514
 30
0.0
 11
1575.100000000013
 21
1437.038007586981
 31
0.0
  0
LINE
  5
60B
330
1F
100
AcDbEntity
  8
LAY-2
  6
EXLTYPE3
 62
     6
100
AcDbLine
 10
1615.149547730805
 20
648.8066749918821
 30
0.0
 11
1615.149547730805
 21
631.4933250079657
 31
0.0
  0
LINE
  5
60C
330
1F
100
AcDbEntity
  8
LAY-2
  6
EXLTYPE3
 62
     6
100
AcDbLine
 10
1623.806222722764
 20
640.1499999999241
 30
0.0
 11
1606.492872738847
 21
640.1499999999241
 31
0.0
  0
LINE
  5
60D
330
1F
100
AcDbEntity
  8
LAY-2
  6
EXLTYPE3
 62
     6
100
AcDbLine
 10
1535.149547730806
 20
648.8066749918821
 30
0.0
 11
1535.149547730806
 21
631.4933250079657
 31
0.0
  0
LINE
  5
60E
330
1F
100
AcDbEntity
  8
LAY-2
  6
EXLTYPE3
 62
     6
100
AcDbLine
 10
1526.492872738847
 20
640.1499999999241
 30
0.0
 11
1543.806222722764
 21
640.1499999999241
 31
0.0
  0
LINE
  5
60F
330
1F
100
AcDbEntity
  8
LAY-2
  6
EXLTYPE3
 62
     6
100
AcDbLine
 10
1535.149547730806
 20
773.8066749918819
 30
0.0
 11
1535.149547730806
 21
756.4933250079648
 31
0.0
  0
LINE
  5
610
330
1F
100
AcDbEntity
  8
LAY-2
  6
EXLTYPE3
 62
     6
100
AcDbLine
 10
1526.492872738847
 20
765.1499999999239
 30
0.0
 11
1543.806222722764
 21
765.1499999999239
 31
0.0
  0
LINE
  5
611
330
1F
100
AcDbEntity
  8
LAY-2
  6
EXLTYPE3
 62
     6
100
AcDbLine
 10
1615.149547730805
 20
773.8066749918819
 30
0.0
 11
1615.149547730805
 21
756.4933250079648
 31
0.0
  0
LINE
  5
612
330
1F
100
AcDbEntity
  8
LAY-2
  6
EXLTYPE3
 62
     6
100
AcDbLine
 10
1623.806222722764
 20
765.1499999999239
 30
0.0
 11
1606.492872738847
 21
765.1499999999239
 31
0.0
  0
CIRCLE
  5
613
330
1F
100
AcDbEntity
  8
LAY-2
  6
EXLTYPE1
 62
     6
100
AcDbCircle
 10
1535.149547730806
 20
640.1499999999241
 30
0.0
 40
4.25
  0
CIRCLE
  5
614
330
1F
100
AcDbEntity
  8
LAY-2
  6
EXLTYPE1
 62
     6
100
AcDbCircle
 10
1615.149547730805
 20
640.1499999999241
 30
0.0
 40
4.25
  0
CIRCLE
  5
615
330
1F
100
AcDbEntity
  8
LAY-2
  6
EXLTYPE1
 62
     6
100
AcDbCircle
 10
1535.149547730806
 20
765.1499999999239
 30
0.0
 40
4.25
  0
CIRCLE
  5
616
330
1F
100
AcDbEntity
  8
LAY-2
  6
EXLTYPE1
 62
     6
100
AcDbCircle
 10
1615.149547730805
 20
765.1499999999239
 30
0.0
 40
4.25
  0
LINE
  5
617
330
1F
100
AcDbEntity
  8
LAY-2
  6
EXLTYPE8
 62
     6
100
AcDbLine
 10
1550.099999998907
 20
876.9499999988059
 30
0.0
 11
1550.099999998907
 21
778.4682684181269
 31
0.0
  0
LINE
  5
618
330
1F
100
AcDbEntity
  8
LAY-2
  6
EXLTYPE8
 62
     6
100
AcDbLine
 10
1600.099999998907
 20
876.9499999988059
 30
0.0
 11
1600.099999998907
 21
778.4728776813888
 31
0.0
  0
LINE
  5
619
330
1F
100
AcDbEntity
  8
LAY-2
  6
EXLTYPE8
 62
     6
100
AcDbLine
 10
1546.099999998907
 20
1396.949999998807
 30
0.0
 11
1546.099999998907
 21
879.9499999988059
 31
0.0
  0
LINE
  5
61A
330
1F
100
AcDbEntity
  8
LAY-2
  6
EXLTYPE8
 62
     6
100
AcDbLine
 10
1546.929999998894
 20
1400.938872019806
 30
0.0
 11
1546.929999998909
 21
877.8785029556038
 31
0.0
  0
ARC
  5
61B
330
1F
100
AcDbEntity
  8
LAY-2
  6
EXLTYPE8
 62
     6
100
AcDbCircle
 10
1556.099999998907
 20
1396.949999998807
 30
0.0
 40
10.0
100
AcDbArc
 50
90.00000000000001
 51
180.0
  0
LINE
  5
61C
330
1F
100
AcDbEntity
  8
LAY-2
  6
EXLTYPE8
 62
     6
100
AcDbLine
 10
1556.099999998907
 20
1406.949999998806
 30
0.0
 11
1575.099999998907
 21
1406.949999998806
 31
0.0
  0
LINE
  5
61D
330
1F
100
AcDbEntity
  8
LAY-2
  6
EXLTYPE8
 62
     6
100
AcDbLine
 10
1549.099999998907
 20
876.9499999988059
 30
0.0
 11
1575.099999998907
 21
876.9499999988059
 31
0.0
  0
ARC
  5
61E
330
1F
100
AcDbEntity
  8
LAY-2
  6
EXLTYPE8
 62
     6
100
AcDbCircle
 10
1549.099999998907
 20
879.9499999988059
 30
0.0
 40
3.0
100
AcDbArc
 50
180.0
 51
270.0
  0
LINE
  5
61F
330
1F
100
AcDbEntity
  8
LAY-2
  6
EXLTYPE8
 62
     6
100
AcDbLine
 10
1604.099999998907
 20
1396.949999998807
 30
0.0
 11
1604.099999998907
 21
879.9499999988059
 31
0.0
  0
ARC
  5
620
330
1F
100
AcDbEntity
  8
LAY-2
  6
EXLTYPE8
 62
     6
100
AcDbCircle
 10
1594.099999998907
 20
1396.949999998807
 30
0.0
 40
10.0
100
AcDbArc
 50
0.0
 51
90.00000000000001
  0
LINE
  5
621
330
1F
100
AcDbEntity
  8
LAY-2
  6
EXLTYPE8
 62
     6
100
AcDbLine
 10
1594.099999998907
 20
1406.949999998806
 30
0.0
 11
1575.099999998907
 21
1406.949999998806
 31
0.0
  0
LINE
  5
622
330
1F
100
AcDbEntity
  8
LAY-2
  6
EXLTYPE8
 62
     6
100
AcDbLine
 10
1601.099999998907
 20
876.9499999988059
 30
0.0
 11
1575.099999998907
 21
876.9499999988059
 31
0.0
  0
ARC
  5
623
330
1F
100
AcDbEntity
  8
LAY-2
  6
EXLTYPE8
 62
     6
100
AcDbCircle
 10
1601.099999998907
 20
879.9499999988059
 30
0.0
 40
3.0
100
AcDbArc
 50
270.0
 51
0.0
  0
ARC
  5
624
330
1F
100
AcDbEntity
  8
LAY-2
  6
EXLTYPE8
 62
     6
100
AcDbCircle
 10
1575.107489165217
 20
697.230189381286
 30
0.0
 40
85.0
100
AcDbArc
 50
72.71896540919086
 51
107.2911309694415
  0
LINE
  5
625
330
1F
100
AcDbEntity
  8
LAY-2
  6
EXLTYPE8
 62
     6
100
AcDbLine
 10
1602.35748916521
 20
775.0877161281919
 30
0.0
 11
1602.35748916521
 21
765.0301893812818
 31
0.0
  0
ARC
  5
626
330
1F
100
AcDbEntity
  8
LAY-2
  6
EXLTYPE8
 62
     6
100
AcDbCircle
 10
1575.107489165217
 20
697.230189381286
 30
0.0
 40
82.4885263
100
AcDbArc
 50
70.7100418676139
 51
109.21638409896
  0
ARC
  5
627
330
1F
100
AcDbEntity
  8
LAY-2
  6
EXLTYPE8
 62
     6
100
AcDbCircle
 10
1597.647195797654
 20
764.730189381286
 30
0.0
 40
0.3
100
AcDbArc
 50
90.00000000000001
 51
178.0000000002052
  0
ARC
  5
628
330
1F
100
AcDbEntity
  8
LAY-2
  6
EXLTYPE8
 62
     6
100
AcDbCircle
 10
1596.692888101868
 20
760.3253591730199
 30
0.0
 40
0.5
100
AcDbArc
 50
270.0
 51
358.0000000002054
  0
LINE
  5
629
330
1F
100
AcDbEntity
  8
LAY-2
  6
EXLTYPE8
 62
     6
100
AcDbLine
 10
1597.647195797654
 20
765.0301893812818
 30
0.0
 11
1602.35748916521
 21
765.0301893812818
 31
0.0
  0
LINE
  5
62A
330
1F
100
AcDbEntity
  8
LAY-2
  6
EXLTYPE8
 62
     6
100
AcDbLine
 10
1597.347378549559
 20
764.7406592302959
 30
0.0
 11
1597.192583515374
 21
760.3079094246659
 31
0.0
  0
ARC
  5
62B
330
1F
100
AcDbEntity
  8
LAY-2
  6
EXLTYPE8
 62
     6
100
AcDbCircle
 10
1552.567782532773
 20
764.730189381286
 30
0.0
 40
0.3
100
AcDbArc
 50
2.000000000212247
 51
90.00000000000001
  0
LINE
  5
62C
330
1F
100
AcDbEntity
  8
LAY-2
  6
EXLTYPE8
 62
     6
100
AcDbLine
 10
1552.867599780875
 20
764.7406592302959
 30
0.0
 11
1553.02239481506
 21
760.3079094246659
 31
0.0
  0
LINE
  5
62D
330
1F
100
AcDbEntity
  8
LAY-2
  6
EXLTYPE8
 62
     6
100
AcDbLine
 10
1552.567782532773
 20
765.0301893812818
 30
0.0
 11
1547.857489165217
 21
765.0301893812818
 31
0.0
  0
ARC
  5
62E
330
1F
100
AcDbEntity
  8
LAY-2
  6
EXLTYPE8
 62
     6
100
AcDbCircle
 10
1553.522090228566
 20
760.3253591730199
 30
0.0
 40
0.5
100
AcDbArc
 50
181.9999999997947
 51
270.0
  0
LINE
  5
62F
330
1F
100
AcDbEntity
  8
LAY-2
  6
EXLTYPE8
 62
     6
100
AcDbLine
 10
1602.357489165217
 20
775.0877161281919
 30
0.0
 11
1600.35748916521
 21
778.393219758417
 31
0.0
  0
LINE
  5
630
330
1F
100
AcDbEntity
  8
LAY-2
  6
EXLTYPE8
 62
     6
100
AcDbLine
 10
1547.857489165217
 20
775.0877161281919
 30
0.0
 11
1547.857489165217
 21
765.0301893812818
 31
0.0
  0
LINE
  5
631
330
1F
100
AcDbEntity
  8
LAY-2
  6
EXLTYPE8
 62
     6
100
AcDbLine
 10
1547.857489165217
 20
775.0877161281919
 30
0.0
 11
1549.857489165217
 21
778.393219758417
 31
0.0
  0
LINE
  5
632
330
1F
100
AcDbEntity
  8
LAY-2
  6
EXLTYPE8
 62
     6
100
AcDbLine
 10
1553.522090228566
 20
759.8253591730199
 30
0.0
 11
1596.692888101868
 21
759.8253591730199
 31
0.0
  0
LINE
  5
633
330
1F
100
AcDbEntity
  8
LAY-2
  6
EXLTYPE8
 62
     6
100
AcDbLine
 10
1603.269999998905
 20
1400.938872019821
 30
0.0
 11
1603.269999998905
 21
877.8785029556038
 31
0.0
  0
LINE
  5
634
330
1F
100
AcDbEntity
  8
LAY-2
  6
EXLTYPE9
 62
     6
100
AcDbLine
 10
1630.600000000013
 20
743.1499999999239
 30
0.0
 11
1519.600000000013
 21
743.1499999999239
 31
0.0
  0
LINE
  5
635
330
1F
100
AcDbEntity
  8
LAY-2
  6
CONTINUOUS
 62
     6
100
AcDbLine
 10
1530.149547730806
 20
600.0000000000173
 30
0.0
 11
1620.149547730805
 21
600.0000000000173
 31
0.0
  0
LINE
  5
636
330
1F
100
AcDbEntity
  8
LAY-2
  6
CONTINUOUS
 62
     6
100
AcDbLine
 10
1630.149547730805
 20
610.0000000000173
 30
0.0
 11
1630.149547730805
 21
770.0000000000168
 31
0.0
  0
LINE
  5
637
330
1F
100
AcDbEntity
  8
LAY-2
  6
CONTINUOUS
 62
     6
100
AcDbLine
 10
1620.149547730805
 20
780.0000000000168
 30
0.0
 11
1530.149547730806
 21
780.0000000000168
 31
0.0
  0
LINE
  5
638
330
1F
100
AcDbEntity
  8
LAY-2
  6
CONTINUOUS
 62
     6
100
AcDbLine
 10
1520.149547730806
 20
770.0000000000168
 30
0.0
 11
1520.149547730806
 21
610.0000000000173
 31
0.0
  0
ARC
  5
639
330
1F
100
AcDbEntity
  8
LAY-2
  6
CONTINUOUS
 62
     6
100
AcDbCircle
 10
1530.149547730806
 20
770.0000000000168
 30
0.0
 40
10.0
100
AcDbArc
 50
90.00000000000001
 51
180.0
  0
ARC
  5
63A
330
1F
100
AcDbEntity
  8
LAY-2
  6
CONTINUOUS
 62
     6
100
AcDbCircle
 10
1620.149547730805
 20
770.0000000000168
 30
0.0
 40
10.0
100
AcDbArc
 50
0.0
 51
90.00000000000001
  0
ARC
  5
63B
330
1F
100
AcDbEntity
  8
LAY-2
  6
CONTINUOUS
 62
     6
100
AcDbCircle
 10
1620.149547730805
 20
610.0000000000173
 30
0.0
 40
10.0
100
AcDbArc
 50
270.0
 51
0.0
  0
ARC
  5
63C
330
1F
100
AcDbEntity
  8
LAY-2
  6
CONTINUOUS
 62
     6
100
AcDbCircle
 10
1530.149547730806
 20
610.0000000000173
 30
0.0
 40
10.0
100
AcDbArc
 50
180.0
 51
270.0
  0
LINE
  5
63D
330
1F
100
AcDbEntity
  8
LAY-2
  6
CONTINUOUS
 62
     6
100
AcDbLine
 10
1529.649547730806
 20
770.0000000000168
 30
0.0
 11
1529.649547730806
 21
610.0000000000173
 31
0.0
  0
LINE
  5
63E
330
1F
100
AcDbEntity
  8
LAY-2
  6
CONTINUOUS
 62
     6
100
AcDbLine
 10
1620.649547730805
 20
610.0000000000173
 30
0.0
 11
1620.649547730805
 21
770.0000000000168
 31
0.0
  0
LINE
  5
63F
330
1F
100
AcDbEntity
  8
LAY-2
  6
CONTINUOUS
 62
     6
100
AcDbLine
 10
1546.100000000028
 20
735.1499999999239
 30
0.0
 11
1575.100000000013
 21
735.1499999999089
 31
0.0
  0
LINE
  5
640
330
1F
100
AcDbEntity
  8
LAY-2
  6
CONTINUOUS
 62
     6
100
AcDbLine
 10
1547.550000000017
 20
735.1499999999239
 30
0.0
 11
1547.550000000017
 21
734.6499999974899
 31
0.0
  0
LINE
  5
641
330
1F
100
AcDbEntity
  8
LAY-2
  6
CONTINUOUS
 62
     6
100
AcDbLine
 10
1604.100000000013
 20
735.1499999999239
 30
0.0
 11
1575.100000000013
 21
735.1499999999089
 31
0.0
  0
LINE
  5
642
330
1F
100
AcDbEntity
  8
LAY-2
  6
CONTINUOUS
 62
     6
100
AcDbLine
 10
1602.650000000016
 20
735.1499999999239
 30
0.0
 11
1602.650000000016
 21
734.6499999974899
 31
0.0
  0
LINE
  5
643
330
1F
100
AcDbEntity
  8
LAY-2
  6
CONTINUOUS
 62
     6
100
AcDbLine
 10
1546.349999999999
 20
726.1499999974858
 30
0.0
 11
1546.349999999999
 21
734.6499999974899
 31
0.0
  0
LINE
  5
644
330
1F
100
AcDbEntity
  8
LAY-2
  6
CONTINUOUS
 62
     6
100
AcDbLine
 10
1556.299999999996
 20
716.1499999974858
 30
0.0
 11
1575.099999999999
 21
716.1499999974858
 31
0.0
  0
ARC
  5
645
330
1F
100
AcDbEntity
  8
LAY-2
  6
CONTINUOUS
 62
     6
100
AcDbCircle
 10
1556.349999999999
 20
726.1499999974858
 30
0.0
 40
10.0
100
AcDbArc
 50
180.0
 51
270.0
  0
LINE
  5
646
330
1F
100
AcDbEntity
  8
LAY-2
  6
CONTINUOUS
 62
     6
100
AcDbLine
 10
1603.850000000049
 20
726.1499999974858
 30
0.0
 11
1603.850000000049
 21
734.6499999974899
 31
0.0
  0
LINE
  5
647
330
1F
100
AcDbEntity
  8
LAY-2
  6
CONTINUOUS
 62
     6
100
AcDbLine
 10
1593.900000000038
 20
716.1499999974858
 30
0.0
 11
1575.100000000049
 21
716.1499999974858
 31
0.0
  0
ARC
  5
648
330
1F
100
AcDbEntity
  8
LAY-2
  6
CONTINUOUS
 62
     6
100
AcDbCircle
 10
1593.850000000049
 20
726.1499999974858
 30
0.0
 40
10.0
100
AcDbArc
 50
270.0
 51
0.0
  0
LINE
  5
649
330
1F
100
AcDbEntity
  8
LAY-2
  6
CONTINUOUS
 62
     6
100
AcDbLine
 10
1546.349999999999
 20
734.6499999974899
 30
0.0
 11
1575.100000000013
 21
734.6499999974899
 31
0.0
  0
LINE
  5
64A
330
1F
100
AcDbEntity
  8
LAY-2
  6
CONTINUOUS
 62
     6
100
AcDbLine
 10
1603.850000000086
 20
734.6499999974899
 30
0.0
 11
1575.100000000028
 21
734.6499999974899
 31
0.0
  0
LINE
  5
64B
330
1F
100
AcDbEntity
  8
LAY-2
  6
CONTINUOUS
 62
     6
100
AcDbLine
 10
1546.100000000028
 20
735.1499999999239
 30
0.0
 11
1546.920197008185
 21
750.8002912235988
 31
0.0
  0
ARC
  5
64C
330
1F
100
AcDbEntity
  8
LAY-2
  6
CONTINUOUS
 62
     6
100
AcDbCircle
 10
1575.100000000028
 20
561.1499999999241
 30
0.0
 40
200.0
100
AcDbArc
 50
90.00000000000001
 51
95.49479370033993
  0
ARC
  5
64D
330
1F
100
AcDbEntity
  8
LAY-2
  6
CONTINUOUS
 62
     6
100
AcDbCircle
 10
1556.906492355738
 20
750.2769316611689
 30
0.0
 40
10.0
100
AcDbArc
 50
95.49479370033993
 51
176.9999999999944
  0
LINE
  5
64E
330
1F
100
AcDbEntity
  8
LAY-2
  6
CONTINUOUS
 62
     6
100
AcDbLine
 10
1604.100000000013
 20
735.1499999999239
 30
0.0
 11
1603.279802991856
 21
750.8002912235988
 31
0.0
  0
ARC
  5
64F
330
1F
100
AcDbEntity
  8
LAY-2
  6
CONTINUOUS
 62
     6
100
AcDbCircle
 10
1575.100000000028
 20
561.1499999999241
 30
0.0
 40
200.0
100
AcDbArc
 50
84.50520629966007
 51
90.00000000000001
  0
ARC
  5
650
330
1F
100
AcDbEntity
  8
LAY-2
  6
CONTINUOUS
 62
     6
100
AcDbCircle
 10
1593.293507644303
 20
750.2769316611689
 30
0.0
 40
10.0
100
AcDbArc
 50
3.000000000005622
 51
84.50520629966007
  0
LINE
  5
651
330
1F
100
AcDbEntity
  8
LAY-2
  6
EXLTYPE3
 62
     6
100
AcDbLine
 10
1505.097797035589
 20
888.350000000017
 30
0.0
 11
1505.097797035589
 21
818.350000000017
 31
0.0
  0
LINE
  5
652
330
1F
100
AcDbEntity
  8
LAY-2
  6
EXLTYPE3
 62
     6
100
AcDbLine
 10
1460.097797035575
 20
853.3500000000179
 30
0.0
 11
1565.097797035589
 21
853.3500000000179
 31
0.0
  0
LINE
  5
653
330
1F
100
AcDbEntity
  8
LAY-2
  6
CONTINUOUS
 62
     6
100
AcDbLine
 10
1535.097797035589
 20
878.350000000017
 30
0.0
 11
1535.097797035589
 21
828.350000000017
 31
0.0
  0
LINE
  5
654
330
1F
100
AcDbEntity
  8
LAY-2
  6
CONTINUOUS
 62
     6
100
AcDbLine
 10
1531.897797035585
 20
878.350000000017
 30
0.0
 11
1531.897797035585
 21
828.350000000017
 31
0.0
  0
LINE
  5
655
330
1F
100
AcDbEntity
  8
LAY-2
  6
CONTINUOUS
 62
     6
100
AcDbLine
 10
1475.097797035589
 20
828.350000000017
 30
0.0
 11
1475.097797035589
 21
878.350000000017
 31
0.0
  0
LINE
  5
656
330
1F
100
AcDbEntity
  8
LAY-2
  6
CONTINUOUS
 62
     6
100
AcDbLine
 10
1478.297797035586
 20
828.350000000017
 30
0.0
 11
1478.297797035586
 21
878.350000000017
 31
0.0
  0
LINE
  5
657
330
1F
100
AcDbEntity
  8
LAY-2
  6
CONTINUOUS
 62
     6
100
AcDbLine
 10
1535.097797035589
 20
828.350000000017
 30
0.0
 11
1475.097797035589
 21
828.350000000017
 31
0.0
  0
LINE
  5
658
330
1F
100
AcDbEntity
  8
LAY-2
  6
CONTINUOUS
 62
     6
100
AcDbLine
 10
1475.097797035589
 20
878.350000000017
 30
0.0
 11
1535.097797035589
 21
878.350000000017
 31
0.0
  0
LINE
  5
659
330
1F
100
AcDbEntity
  8
LAY-2
  6
CONTINUOUS
 62
     6
100
AcDbLine
 10
1465.097797035589
 20
860.350000000016
 30
0.0
 11
1465.097797035589
 21
846.350000000016
 31
0.0
  0
LINE
  5
65A
330
1F
100
AcDbEntity
  8
LAY-2
  6
CONTINUOUS
 62
     6
100
AcDbLine
 10
1475.097797035589
 20
846.350000000016
 30
0.0
 11
1475.097797035589
 21
860.350000000016
 31
0.0
  0
LINE
  5
65B
330
1F
100
AcDbEntity
  8
LAY-2
  6
CONTINUOUS
 62
     6
100
AcDbLine
 10
1560.097797035589
 20
860.3500000000179
 30
0.0
 11
1560.097797035589
 21
846.3500000000179
 31
0.0
  0
LINE
  5
65C
330
1F
100
AcDbEntity
  8
LAY-2
  6
CONTINUOUS
 62
     6
100
AcDbLine
 10
1550.097797035589
 20
846.3500000000179
 30
0.0
 11
1550.097797035589
 21
860.3500000000179
 31
0.0
  0
LINE
  5
65D
330
1F
100
AcDbEntity
  8
LAY-2
  6
CONTINUOUS
 62
     6
100
AcDbLine
 10
1550.097797035589
 20
860.3500000000179
 30
0.0
 11
1560.097797035589
 21
860.3500000000179
 31
0.0
  0
LINE
  5
65E
330
1F
100
AcDbEntity
  8
LAY-2
  6
CONTINUOUS
 62
     6
100
AcDbLine
 10
1550.097797035589
 20
846.3500000000179
 30
0.0
 11
1560.097797035589
 21
846.3500000000179
 31
0.0
  0
LINE
  5
65F
330
1F
100
AcDbEntity
  8
LAY-2
  6
CONTINUOUS
 62
     6
100
AcDbLine
 10
1465.097797035589
 20
846.350000000016
 30
0.0
 11
1475.097797035589
 21
846.350000000016
 31
0.0
  0
LINE
  5
660
330
1F
100
AcDbEntity
  8
LAY-2
  6
CONTINUOUS
 62
     6
100
AcDbLine
 10
1465.097797035589
 20
860.350000000016
 30
0.0
 11
1475.097797035589
 21
860.350000000016
 31
0.0
  0
ARC
  5
661
330
1F
100
AcDbEntity
  8
LAY-2
  6
EXLTYPE8
 62
     6
100
AcDbCircle
 10
1549.099999998908
 20
879.9499999988059
 30
0.0
 40
3.0
100
AcDbArc
 50
180.0
 51
270.0
  0
LINE
  5
662
330
1F
100
AcDbEntity
  8
LAY-2
  6
EXLTYPE1
 62
     6
100
AcDbLine
 10
1531.897797035585
 20
848.1500000000171
 30
0.0
 11
1535.097797035589
 21
848.1500000000171
 31
0.0
  0
LINE
  5
663
330
1F
100
AcDbEntity
  8
LAY-2
  6
EXLTYPE1
 62
     6
100
AcDbLine
 10
1475.097797035589
 20
848.1500000000171
 30
0.0
 11
1478.297797035586
 21
848.1500000000171
 31
0.0
  0
LINE
  5
664
330
1F
100
AcDbEntity
  8
LAY-2
  6
EXLTYPE1
 62
     6
100
AcDbLine
 10
1531.897797035585
 20
858.5500000000181
 30
0.0
 11
1535.097797035589
 21
858.5500000000181
 31
0.0
  0
LINE
  5
665
330
1F
100
AcDbEntity
  8
LAY-2
  6
EXLTYPE1
 62
     6
100
AcDbLine
 10
1475.097797035589
 20
858.5500000000181
 30
0.0
 11
1478.297797035586
 21
858.5500000000181
 31
0.0
  0
LINE
  5
666
330
1F
100
AcDbEntity
  8
LAY-2
  6
CONTINUOUS
 62
     6
100
AcDbLine
 10
1550.097797035589
 20
848.350000000017
 30
0.0
 11
1535.097797035589
 21
848.350000000017
 31
0.0
  0
LINE
  5
667
330
1F
100
AcDbEntity
  8
LAY-2
  6
CONTINUOUS
 62
     6
100
AcDbLine
 10
1531.897797035585
 20
848.350000000017
 30
0.0
 11
1478.297797035586
 21
848.350000000017
 31
0.0
  0
LINE
  5
668
330
1F
100
AcDbEntity
  8
LAY-2
  6
CONTINUOUS
 62
     6
100
AcDbLine
 10
1531.897797035585
 20
848.350000000017
 30
0.0
 11
1478.297797035586
 21
848.350000000017
 31
0.0
  0
LINE
  5
669
330
1F
100
AcDbEntity
  8
LAY-2
  6
CONTINUOUS
 62
     6
100
AcDbLine
 10
1478.297797035586
 20
858.350000000017
 30
0.0
 11
1531.897797035585
 21
858.350000000017
 31
0.0
  0
LINE
  5
66A
330
1F
100
AcDbEntity
  8
LAY-2
  6
CONTINUOUS
 62
     6
100
AcDbLine
 10
1535.097797035589
 20
858.350000000017
 30
0.0
 11
1550.097797035589
 21
858.350000000017
 31
0.0
  0
LINE
  5
66B
330
1F
100
AcDbEntity
  8
LAY-2
  6
CONTINUOUS
 62
     6
100
AcDbLine
 10
1478.297797035586
 20
858.350000000017
 30
0.0
 11
1531.897797035585
 21
858.350000000017
 31
0.0
  0
CIRCLE
  5
66C
330
1F
100
AcDbEntity
  8
LAY-2
  6
CONTINUOUS
 62
     6
100
AcDbCircle
 10
1522.597797035589
 20
835.850000000017
 30
0.0
 40
5.1
  0
ARC
  5
66D
330
1F
100
AcDbEntity
  8
LAY-2
  6
CONTINUOUS
 62
     6
100
AcDbCircle
 10
1520.710797035587
 20
837.737000000018
 30
0.0
 40
1.274999999999999
100
AcDbArc
 50
270.0
 51
0.0
  0
LINE
  5
66E
330
1F
100
AcDbEntity
  8
LAY-2
  6
EXLTYPE9
 62
     6
100
AcDbLine
 10
1528.717797035585
 20
835.850000000017
 30
0.0
 11
1516.477797035579
 21
835.850000000017
 31
0.0
  0
ARC
  5
66F
330
1F
100
AcDbEntity
  8
LAY-2
  6
CONTINUOUS
 62
     6
100
AcDbCircle
 10
1520.710797035587
 20
833.9630000000168
 30
0.0
 40
1.274999999999999
100
AcDbArc
 50
0.0
 51
90.00000000000001
  0
LINE
  5
670
330
1F
100
AcDbEntity
  8
LAY-2
  6
CONTINUOUS
 62
     6
100
AcDbLine
 10
1523.209797035583
 20
838.451000000018
 30
0.0
 11
1521.985797035574
 21
838.451000000018
 31
0.0
  0
LINE
  5
671
330
1F
100
AcDbEntity
  8
LAY-2
  6
CONTINUOUS
 62
     6
100
AcDbLine
 10
1521.985797035574
 20
833.2490000000168
 30
0.0
 11
1523.209797035583
 21
833.2490000000168
 31
0.0
  0
LINE
  5
672
330
1F
100
AcDbEntity
  8
LAY-2
  6
EXLTYPE9
 62
     6
100
AcDbLine
 10
1522.597797035589
 20
829.730000000018
 30
0.0
 11
1522.597797035589
 21
841.9700000000182
 31
0.0
  0
LINE
  5
673
330
1F
100
AcDbEntity
  8
LAY-2
  6
CONTINUOUS
 62
     6
100
AcDbLine
 10
1525.198797035584
 20
836.462000000018
 30
0.0
 11
1524.484797035585
 21
836.462000000018
 31
0.0
  0
LINE
  5
674
330
1F
100
AcDbEntity
  8
LAY-2
  6
CONTINUOUS
 62
     6
100
AcDbLine
 10
1524.484797035585
 20
835.2380000000169
 30
0.0
 11
1525.198797035584
 21
835.2380000000169
 31
0.0
  0
LINE
  5
675
330
1F
100
AcDbEntity
  8
LAY-2
  6
CONTINUOUS
 62
     6
100
AcDbLine
 10
1525.198797035584
 20
836.462000000018
 30
0.0
 11
1525.198797035584
 21
835.2380000000169
 31
0.0
  0
LINE
  5
676
330
1F
100
AcDbEntity
  8
LAY-2
  6
CONTINUOUS
 62
     6
100
AcDbLine
 10
1523.209797035583
 20
837.737000000018
 30
0.0
 11
1523.209797035583
 21
838.451000000018
 31
0.0
  0
ARC
  5
677
330
1F
100
AcDbEntity
  8
LAY-2
  6
CONTINUOUS
 62
     6
100
AcDbCircle
 10
1524.484797035585
 20
837.737000000018
 30
0.0
 40
1.274999999999999
100
AcDbArc
 50
180.0
 51
270.0
  0
LINE
  5
678
330
1F
100
AcDbEntity
  8
LAY-2
  6
CONTINUOUS
 62
     6
100
AcDbLine
 10
1523.209797035583
 20
833.2490000000168
 30
0.0
 11
1523.209797035583
 21
833.9630000000168
 31
0.0
  0
ARC
  5
679
330
1F
100
AcDbEntity
  8
LAY-2
  6
CONTINUOUS
 62
     6
100
AcDbCircle
 10
1524.484797035585
 20
833.9630000000168
 30
0.0
 40
1.274999999999999
100
AcDbArc
 50
90.00000000000001
 51
180.0
  0
LINE
  5
67A
330
1F
100
AcDbEntity
  8
LAY-2
  6
CONTINUOUS
 62
     6
100
AcDbLine
 10
1521.985797035574
 20
838.451000000018
 30
0.0
 11
1521.985797035574
 21
837.737000000018
 31
0.0
  0
LINE
  5
67B
330
1F
100
AcDbEntity
  8
LAY-2
  6
CONTINUOUS
 62
     6
100
AcDbLine
 10
1521.985797035574
 20
833.9630000000168
 30
0.0
 11
1521.985797035574
 21
833.2490000000168
 31
0.0
  0
LINE
  5
67C
330
1F
100
AcDbEntity
  8
LAY-2
  6
CONTINUOUS
 62
     6
100
AcDbLine
 10
1519.99679703558
 20
835.2380000000169
 30
0.0
 11
1520.710797035587
 21
835.2380000000169
 31
0.0
  0
LINE
  5
67D
330
1F
100
AcDbEntity
  8
LAY-2
  6
CONTINUOUS
 62
     6
100
AcDbLine
 10
1519.99679703558
 20
836.462000000018
 30
0.0
 11
1519.99679703558
 21
835.2380000000169
 31
0.0
  0
LINE
  5
67E
330
1F
100
AcDbEntity
  8
LAY-2
  6
CONTINUOUS
 62
     6
100
AcDbLine
 10
1520.710797035587
 20
836.462000000018
 30
0.0
 11
1519.99679703558
 21
836.462000000018
 31
0.0
  0
LINE
  5
67F
330
1F
100
AcDbEntity
  8
LAY-2
  6
EXLTYPE9
 62
     6
100
AcDbLine
 10
1487.597797035589
 20
829.730000000018
 30
0.0
 11
1487.597797035589
 21
841.9700000000182
 31
0.0
  0
ARC
  5
680
330
1F
100
AcDbEntity
  8
LAY-2
  6
CONTINUOUS
 62
     6
100
AcDbCircle
 10
1485.710797035587
 20
833.9630000000168
 30
0.0
 40
1.274999999999999
100
AcDbArc
 50
0.0
 51
90.00000000000001
  0
LINE
  5
681
330
1F
100
AcDbEntity
  8
LAY-2
  6
EXLTYPE9
 62
     6
100
AcDbLine
 10
1493.717797035585
 20
835.850000000017
 30
0.0
 11
1481.477797035579
 21
835.850000000017
 31
0.0
  0
ARC
  5
682
330
1F
100
AcDbEntity
  8
LAY-2
  6
CONTINUOUS
 62
     6
100
AcDbCircle
 10
1485.710797035587
 20
837.737000000018
 30
0.0
 40
1.274999999999999
100
AcDbArc
 50
270.0
 51
0.0
  0
CIRCLE
  5
683
330
1F
100
AcDbEntity
  8
LAY-2
  6
CONTINUOUS
 62
     6
100
AcDbCircle
 10
1487.597797035589
 20
835.850000000017
 30
0.0
 40
5.1
  0
ARC
  5
684
330
1F
100
AcDbEntity
  8
LAY-2
  6
CONTINUOUS
 62
     6
100
AcDbCircle
 10
1489.484797035585
 20
833.9630000000168
 30
0.0
 40
1.274999999999999
100
AcDbArc
 50
90.00000000000001
 51
180.0
  0
LINE
  5
685
330
1F
100
AcDbEntity
  8
LAY-2
  6
CONTINUOUS
 62
     6
100
AcDbLine
 10
1488.209797035583
 20
833.2490000000168
 30
0.0
 11
1488.209797035583
 21
833.9630000000168
 31
0.0
  0
ARC
  5
686
330
1F
100
AcDbEntity
  8
LAY-2
  6
CONTINUOUS
 62
     6
100
AcDbCircle
 10
1489.484797035585
 20
837.737000000018
 30
0.0
 40
1.274999999999999
100
AcDbArc
 50
180.0
 51
270.0
  0
LINE
  5
687
330
1F
100
AcDbEntity
  8
LAY-2
  6
CONTINUOUS
 62
     6
100
AcDbLine
 10
1490.198797035584
 20
836.462000000018
 30
0.0
 11
1489.484797035585
 21
836.462000000018
 31
0.0
  0
LINE
  5
688
330
1F
100
AcDbEntity
  8
LAY-2
  6
CONTINUOUS
 62
     6
100
AcDbLine
 10
1489.484797035585
 20
835.2380000000169
 30
0.0
 11
1490.198797035584
 21
835.2380000000169
 31
0.0
  0
LINE
  5
689
330
1F
100
AcDbEntity
  8
LAY-2
  6
CONTINUOUS
 62
     6
100
AcDbLine
 10
1488.209797035583
 20
837.737000000018
 30
0.0
 11
1488.209797035583
 21
838.451000000018
 31
0.0
  0
LINE
  5
68A
330
1F
100
AcDbEntity
  8
LAY-2
  6
CONTINUOUS
 62
     6
100
AcDbLine
 10
1486.985797035588
 20
833.2490000000168
 30
0.0
 11
1488.209797035583
 21
833.2490000000168
 31
0.0
  0
LINE
  5
68B
330
1F
100
AcDbEntity
  8
LAY-2
  6
CONTINUOUS
 62
     6
100
AcDbLine
 10
1486.985797035588
 20
833.9630000000168
 30
0.0
 11
1486.985797035588
 21
833.2490000000168
 31
0.0
  0
LINE
  5
68C
330
1F
100
AcDbEntity
  8
LAY-2
  6
CONTINUOUS
 62
     6
100
AcDbLine
 10
1488.209797035583
 20
838.451000000018
 30
0.0
 11
1486.985797035588
 21
838.451000000018
 31
0.0
  0
LINE
  5
68D
330
1F
100
AcDbEntity
  8
LAY-2
  6
CONTINUOUS
 62
     6
100
AcDbLine
 10
1486.985797035588
 20
838.451000000018
 30
0.0
 11
1486.985797035588
 21
837.737000000018
 31
0.0
  0
LINE
  5
68E
330
1F
100
AcDbEntity
  8
LAY-2
  6
CONTINUOUS
 62
     6
100
AcDbLine
 10
1490.198797035584
 20
836.462000000018
 30
0.0
 11
1490.198797035584
 21
835.2380000000169
 31
0.0
  0
LINE
  5
68F
330
1F
100
AcDbEntity
  8
LAY-2
  6
CONTINUOUS
 62
     6
100
AcDbLine
 10
1485.710797035587
 20
836.462000000018
 30
0.0
 11
1484.996797035587
 21
836.462000000018
 31
0.0
  0
LINE
  5
690
330
1F
100
AcDbEntity
  8
LAY-2
  6
CONTINUOUS
 62
     6
100
AcDbLine
 10
1484.996797035587
 20
836.462000000018
 30
0.0
 11
1484.996797035587
 21
835.2380000000169
 31
0.0
  0
LINE
  5
691
330
1F
100
AcDbEntity
  8
LAY-2
  6
CONTINUOUS
 62
     6
100
AcDbLine
 10
1484.996797035587
 20
835.2380000000169
 30
0.0
 11
1485.710797035587
 21
835.2380000000169
 31
0.0
  0
LINE
  5
692
330
1F
100
AcDbEntity
  8
LAY-2
  6
CONTINUOUS
 62
     6
100
AcDbLine
 10
1521.985797035574
 20
868.2490000000168
 30
0.0
 11
1523.209797035583
 21
868.2490000000168
 31
0.0
  0
LINE
  5
693
330
1F
100
AcDbEntity
  8
LAY-2
  6
CONTINUOUS
 62
     6
100
AcDbLine
 10
1523.209797035583
 20
873.451000000018
 30
0.0
 11
1521.985797035574
 21
873.451000000018
 31
0.0
  0
ARC
  5
694
330
1F
100
AcDbEntity
  8
LAY-2
  6
CONTINUOUS
 62
     6
100
AcDbCircle
 10
1520.710797035587
 20
868.9630000000168
 30
0.0
 40
1.274999999999999
100
AcDbArc
 50
0.0
 51
90.00000000000001
  0
LINE
  5
695
330
1F
100
AcDbEntity
  8
LAY-2
  6
EXLTYPE9
 62
     6
100
AcDbLine
 10
1528.717797035585
 20
870.850000000017
 30
0.0
 11
1516.477797035579
 21
870.850000000017
 31
0.0
  0
ARC
  5
696
330
1F
100
AcDbEntity
  8
LAY-2
  6
CONTINUOUS
 62
     6
100
AcDbCircle
 10
1520.710797035587
 20
872.737000000018
 30
0.0
 40
1.274999999999999
100
AcDbArc
 50
270.0
 51
0.0
  0
CIRCLE
  5
697
330
1F
100
AcDbEntity
  8
LAY-2
  6
CONTINUOUS
 62
     6
100
AcDbCircle
 10
1522.597797035589
 20
870.850000000017
 30
0.0
 40
5.1
  0
LINE
  5
698
330
1F
100
AcDbEntity
  8
LAY-2
  6
EXLTYPE9
 62
     6
100
AcDbLine
 10
1522.597797035589
 20
864.730000000018
 30
0.0
 11
1522.597797035589
 21
876.9700000000182
 31
0.0
  0
ARC
  5
699
330
1F
100
AcDbEntity
  8
LAY-2
  6
CONTINUOUS
 62
     6
100
AcDbCircle
 10
1524.484797035585
 20
868.9630000000168
 30
0.0
 40
1.274999999999999
100
AcDbArc
 50
90.00000000000001
 51
180.0
  0
LINE
  5
69A
330
1F
100
AcDbEntity
  8
LAY-2
  6
CONTINUOUS
 62
     6
100
AcDbLine
 10
1523.209797035583
 20
868.2490000000168
 30
0.0
 11
1523.209797035583
 21
868.9630000000168
 31
0.0
  0
ARC
  5
69B
330
1F
100
AcDbEntity
  8
LAY-2
  6
CONTINUOUS
 62
     6
100
AcDbCircle
 10
1524.484797035585
 20
872.737000000018
 30
0.0
 40
1.274999999999999
100
AcDbArc
 50
180.0
 51
270.0
  0
LINE
  5
69C
330
1F
100
AcDbEntity
  8
LAY-2
  6
CONTINUOUS
 62
     6
100
AcDbLine
 10
1525.198797035584
 20
871.462000000018
 30
0.0
 11
1524.484797035585
 21
871.462000000018
 31
0.0
  0
LINE
  5
69D
330
1F
100
AcDbEntity
  8
LAY-2
  6
CONTINUOUS
 62
     6
100
AcDbLine
 10
1524.484797035585
 20
870.2380000000169
 30
0.0
 11
1525.198797035584
 21
870.2380000000169
 31
0.0
  0
LINE
  5
69E
330
1F
100
AcDbEntity
  8
LAY-2
  6
CONTINUOUS
 62
     6
100
AcDbLine
 10
1523.209797035583
 20
872.737000000018
 30
0.0
 11
1523.209797035583
 21
873.451000000018
 31
0.0
  0
LINE
  5
69F
330
1F
100
AcDbEntity
  8
LAY-2
  6
CONTINUOUS
 62
     6
100
AcDbLine
 10
1525.198797035584
 20
871.462000000018
 30
0.0
 11
1525.198797035584
 21
870.2380000000169
 31
0.0
  0
LINE
  5
6A0
330
1F
100
AcDbEntity
  8
LAY-2
  6
CONTINUOUS
 62
     6
100
AcDbLine
 10
1520.710797035587
 20
871.462000000018
 30
0.0
 11
1519.99679703558
 21
871.462000000018
 31
0.0
  0
LINE
  5
6A1
330
1F
100
AcDbEntity
  8
LAY-2
  6
CONTINUOUS
 62
     6
100
AcDbLine
 10
1519.99679703558
 20
871.462000000018
 30
0.0
 11
1519.99679703558
 21
870.2380000000169
 31
0.0
  0
LINE
  5
6A2
330
1F
100
AcDbEntity
  8
LAY-2
  6
CONTINUOUS
 62
     6
100
AcDbLine
 10
1519.99679703558
 20
870.2380000000169
 30
0.0
 11
1520.710797035587
 21
870.2380000000169
 31
0.0
  0
LINE
  5
6A3
330
1F
100
AcDbEntity
  8
LAY-2
  6
CONTINUOUS
 62
     6
100
AcDbLine
 10
1521.985797035574
 20
868.9630000000168
 30
0.0
 11
1521.985797035574
 21
868.2490000000168
 31
0.0
  0
LINE
  5
6A4
330
1F
100
AcDbEntity
  8
LAY-2
  6
CONTINUOUS
 62
     6
100
AcDbLine
 10
1521.985797035574
 20
873.451000000018
 30
0.0
 11
1521.985797035574
 21
872.737000000018
 31
0.0
  0
LINE
  5
6A5
330
1F
100
AcDbEntity
  8
LAY-2
  6
EXLTYPE9
 62
     6
100
AcDbLine
 10
1487.597797035589
 20
864.730000000018
 30
0.0
 11
1487.597797035589
 21
876.9700000000182
 31
0.0
  0
CIRCLE
  5
6A6
330
1F
100
AcDbEntity
  8
LAY-2
  6
CONTINUOUS
 62
     6
100
AcDbCircle
 10
1487.597797035589
 20
870.850000000017
 30
0.0
 40
5.1
  0
ARC
  5
6A7
330
1F
100
AcDbEntity
  8
LAY-2
  6
CONTINUOUS
 62
     6
100
AcDbCircle
 10
1485.710797035587
 20
872.737000000018
 30
0.0
 40
1.274999999999999
100
AcDbArc
 50
270.0
 51
0.0
  0
ARC
  5
6A8
330
1F
100
AcDbEntity
  8
LAY-2
  6
CONTINUOUS
 62
     6
100
AcDbCircle
 10
1485.710797035587
 20
868.9630000000168
 30
0.0
 40
1.274999999999999
100
AcDbArc
 50
0.0
 51
90.00000000000001
  0
LINE
  5
6A9
330
1F
100
AcDbEntity
  8
LAY-2
  6
EXLTYPE9
 62
     6
100
AcDbLine
 10
1493.717797035585
 20
870.850000000017
 30
0.0
 11
1481.477797035579
 21
870.850000000017
 31
0.0
  0
LINE
  5
6AA
330
1F
100
AcDbEntity
  8
LAY-2
  6
CONTINUOUS
 62
     6
100
AcDbLine
 10
1490.198797035584
 20
871.462000000018
 30
0.0
 11
1490.198797035584
 21
870.2380000000169
 31
0.0
  0
ARC
  5
6AB
330
1F
100
AcDbEntity
  8
LAY-2
  6
CONTINUOUS
 62
     6
100
AcDbCircle
 10
1489.484797035585
 20
868.9630000000168
 30
0.0
 40
1.274999999999999
100
AcDbArc
 50
90.00000000000001
 51
180.0
  0
ARC
  5
6AC
330
1F
100
AcDbEntity
  8
LAY-2
  6
CONTINUOUS
 62
     6
100
AcDbCircle
 10
1489.484797035585
 20
872.737000000018
 30
0.0
 40
1.274999999999999
100
AcDbArc
 50
180.0
 51
270.0
  0
LINE
  5
6AD
330
1F
100
AcDbEntity
  8
LAY-2
  6
CONTINUOUS
 62
     6
100
AcDbLine
 10
1490.198797035584
 20
871.462000000018
 30
0.0
 11
1489.484797035585
 21
871.462000000018
 31
0.0
  0
LINE
  5
6AE
330
1F
100
AcDbEntity
  8
LAY-2
  6
CONTINUOUS
 62
     6
100
AcDbLine
 10
1489.484797035585
 20
870.2380000000169
 30
0.0
 11
1490.198797035584
 21
870.2380000000169
 31
0.0
  0
LINE
  5
6AF
330
1F
100
AcDbEntity
  8
LAY-2
  6
CONTINUOUS
 62
     6
100
AcDbLine
 10
1488.209797035583
 20
873.451000000018
 30
0.0
 11
1486.985797035588
 21
873.451000000018
 31
0.0
  0
LINE
  5
6B0
330
1F
100
AcDbEntity
  8
LAY-2
  6
CONTINUOUS
 62
     6
100
AcDbLine
 10
1486.985797035588
 20
868.2490000000168
 30
0.0
 11
1488.209797035583
 21
868.2490000000168
 31
0.0
  0
LINE
  5
6B1
330
1F
100
AcDbEntity
  8
LAY-2
  6
CONTINUOUS
 62
     6
100
AcDbLine
 10
1488.209797035583
 20
868.2490000000168
 30
0.0
 11
1488.209797035583
 21
868.9630000000168
 31
0.0
  0
LINE
  5
6B2
330
1F
100
AcDbEntity
  8
LAY-2
  6
CONTINUOUS
 62
     6
100
AcDbLine
 10
1488.209797035583
 20
872.737000000018
 30
0.0
 11
1488.209797035583
 21
873.451000000018
 31
0.0
  0
LINE
  5
6B3
330
1F
100
AcDbEntity
  8
LAY-2
  6
CONTINUOUS
 62
     6
100
AcDbLine
 10
1486.985797035588
 20
873.451000000018
 30
0.0
 11
1486.985797035588
 21
872.737000000018
 31
0.0
  0
LINE
  5
6B4
330
1F
100
AcDbEntity
  8
LAY-2
  6
CONTINUOUS
 62
     6
100
AcDbLine
 10
1486.985797035588
 20
868.9630000000168
 30
0.0
 11
1486.985797035588
 21
868.2490000000168
 31
0.0
  0
LINE
  5
6B5
330
1F
100
AcDbEntity
  8
LAY-2
  6
CONTINUOUS
 62
     6
100
AcDbLine
 10
1485.710797035587
 20
871.462000000018
 30
0.0
 11
1484.996797035587
 21
871.462000000018
 31
0.0
  0
LINE
  5
6B6
330
1F
100
AcDbEntity
  8
LAY-2
  6
CONTINUOUS
 62
     6
100
AcDbLine
 10
1484.996797035587
 20
871.462000000018
 30
0.0
 11
1484.996797035587
 21
870.2380000000169
 31
0.0
  0
LINE
  5
6B7
330
1F
100
AcDbEntity
  8
LAY-2
  6
CONTINUOUS
 62
     6
100
AcDbLine
 10
1484.996797035587
 20
870.2380000000169
 30
0.0
 11
1485.710797035587
 21
870.2380000000169
 31
0.0
  0
LEADER
  5
6B8
330
1F
100
AcDbEntity
  8
LAY-2
  6
CONTINUOUS
 62
     3
100
AcDbLeader
  3
ISO-25
 76
     3
 10
1505.097797035495
 20
878.3499999999697
 30
0.0
 10
1397.997797035496
 20
1015.34999999997
 30
0.0
 10
1005.997797035496
 20
1015.34999999997
 30
0.0
1001
ACAD
1000
DSTYLE
1002
{
1070
     5
1000
EX_NORM
1070
    41
1040
30.0
1070
   341
1005
4E
1002
}
  0
LINE
  5
6B9
330
1F
100
AcDbEntity
  8
LAY-2
  6
CONTINUOUS
 62
     7
100
AcDbLine
 10
540.99999999999
 20
573.0
 30
0.0
 11
540.99999999999
 21
1445.0
 31
0.0
  0
TEXT
  5
6BA
330
1F
100
AcDbEntity
  8
LAY-2
  6
CONTINUOUS
 62
     2
100
AcDbText
 10
819.9999999999804
 20
2271.249999999996
 30
0.0
 40
40.0
  1
オプション
 41
1.013793103448276
  7
EXCADSTD
 72
     5
 11
987.9999999999804
 21
2271.249999999996
 31
0.0
100
AcDbText
  0
TEXT
  5
6BB
330
1F
100
AcDbEntity
  8
LAY-2
  6
CONTINUOUS
 62
     2
100
AcDbText
 10
1041.999999999986
 20
2165.749999999996
 30
0.0
 40
40.0
  1
アームストッパー
 41
0.7819148936170214
  7
EXCADSTD
 72
     5
 11
1251.999999999986
 21
2165.749999999996
 31
0.0
100
AcDbText
  0
TEXT
  5
6BC
330
1F
100
AcDbEntity
  8
LAY-2
  6
CONTINUOUS
 62
     2
100
AcDbText
 10
832.9999999999786
 20
2165.749999999996
 30
0.0
 40
40.0
  1
ＳＬＣ－２Ｓ
 41
0.79
  7
EXCADSTD
 72
     5
 11
990.9999999999786
 21
2165.749999999996
 31
0.0
100
AcDbText
  0
TEXT
  5
6BD
330
1F
100
AcDbEntity
  8
LAY-2
  6
CONTINUOUS
 62
     2
100
AcDbText
 10
1407.19999999999
 20
2165.349999999996
 30
0.0
 40
40.0
  1
１
 41
1.26
  7
EXCADSTD
 72
     5
 11
1443.19999999999
 21
2165.349999999996
 31
0.0
100
AcDbText
  0
LINE
  5
6BE
330
1F
100
AcDbEntity
  8
LAY-2
  6
CONTINUOUS
 62
     6
100
AcDbLine
 10
1467.99999999999
 20
2162.0
 30
0.0
 11
1467.99999999999
 21
2261.999999999996
 31
0.0
  0
TEXT
  5
6BF
330
1F
100
AcDbEntity
  8
LAY-2
  6
CONTINUOUS
 62
     2
100
AcDbText
 10
1136.999999999978
 20
2215.749999999996
 30
0.0
 40
40.0
  1
品　名
 41
1.379411764705882
  7
EXCADSTD
 72
     5
 11
1270.999999999978
 21
2215.749999999996
 31
0.0
100
AcDbText
  0
TEXT
  5
6C0
330
1F
100
AcDbEntity
  8
LAY-2
  6
CONTINUOUS
 62
     2
100
AcDbText
 10
859.9999999999786
 20
2215.749999999996
 30
0.0
 40
40.0
  1
品　番
 41
1.379411764705882
  7
EXCADSTD
 72
     5
 11
993.9999999999786
 21
2215.749999999996
 31
0.0
100
AcDbText
  0
LINE
  5
6C1
330
1F
100
AcDbEntity
  8
LAY-2
  6
CONTINUOUS
 62
     6
100
AcDbLine
 10
1026.999999999982
 20
2162.0
 30
0.0
 11
1026.999999999982
 21
2261.999999999996
 31
0.0
  0
LINE
  5
6C2
330
1F
100
AcDbEntity
  8
LAY-2
  6
CONTINUOUS
 62
     6
100
AcDbLine
 10
817.9999999999782
 20
2162.0
 30
0.0
 11
817.9999999999782
 21
2261.999999999996
 31
0.0
  0
LINE
  5
6C3
330
1F
100
AcDbEntity
  8
LAY-2
  6
CONTINUOUS
 62
     6
100
AcDbLine
 10
1374.99999999999
 20
2162.0
 30
0.0
 11
1374.99999999999
 21
2261.999999999996
 31
0.0
  0
LINE
  5
6C4
330
1F
100
AcDbEntity
  8
LAY-2
  6
CONTINUOUS
 62
     6
100
AcDbLine
 10
903.9999999999778
 20
2261.999999999996
 30
0.0
 11
1443.99999999999
 21
2261.999999999996
 31
0.0
  0
LINE
  5
6C5
330
1F
100
AcDbEntity
  8
LAY-2
  6
CONTINUOUS
 62
     6
100
AcDbLine
 10
1343.999999999988
 20
2580.999999999996
 30
0.0
 11
1884.000000000001
 21
2580.999999999996
 31
0.0
  0
TEXT
  5
6C6
330
1F
100
AcDbEntity
  8
LAY-2
  6
CONTINUOUS
 62
     2
100
AcDbText
 10
1847.200000000001
 20
2484.349999999996
 30
0.0
 40
40.0
  1
１
 41
1.26
  7
EXCADSTD
 72
     5
 11
1883.200000000001
 21
2484.349999999996
 31
0.0
100
AcDbText
  0
TEXT
  5
6C7
330
1F
100
AcDbEntity
  8
LAY-2
  6
CONTINUOUS
 62
     2
100
AcDbText
 10
1847.200000000001
 20
2434.349999999996
 30
0.0
 40
40.0
  1
１
 41
1.26
  7
EXCADSTD
 72
     5
 11
1883.200000000001
 21
2434.349999999996
 31
0.0
100
AcDbText
  0
TEXT
  5
6C8
330
1F
100
AcDbEntity
  8
LAY-2
  6
CONTINUOUS
 62
     2
100
AcDbText
 10
1847.200000000001
 20
2384.349999999996
 30
0.0
 40
40.0
  1
１
 41
1.26
  7
EXCADSTD
 72
     5
 11
1883.200000000001
 21
2384.349999999996
 31
0.0
100
AcDbText
  0
TEXT
  5
6C9
330
1F
100
AcDbEntity
  8
LAY-2
  6
CONTINUOUS
 62
     2
100
AcDbText
 10
1847.200000000001
 20
2334.349999999996
 30
0.0
 40
40.0
  1
１
 41
1.26
  7
EXCADSTD
 72
     5
 11
1883.200000000001
 21
2334.349999999996
 31
0.0
100
AcDbText
  0
LINE
  5
6CA
330
1F
100
AcDbEntity
  8
LAY-2
  6
CONTINUOUS
 62
     6
100
AcDbLine
 10
1908.0
 20
2331.0
 30
0.0
 11
1908.0
 21
2580.999999999995
 31
0.0
  0
TEXT
  5
6CB
330
1F
100
AcDbEntity
  8
LAY-2
  6
CONTINUOUS
 62
     2
100
AcDbText
 10
858.9999999999884
 20
2534.749999999996
 30
0.0
 40
40.0
  1
品　番
 41
1.379411764705882
  7
EXCADSTD
 72
     5
 11
992.9999999999884
 21
2534.749999999996
 31
0.0
100
AcDbText
  0
TEXT
  5
6CC
330
1F
100
AcDbEntity
  8
LAY-2
  6
CONTINUOUS
 62
     2
100
AcDbText
 10
831.9999999999884
 20
2484.749999999996
 30
0.0
 40
40.0
  1
ＳＬＣ－２Ａ
 41
0.915
  7
EXCADSTD
 72
     5
 11
1014.999999999988
 21
2484.749999999996
 31
0.0
100
AcDbText
  0
LINE
  5
6CD
330
1F
100
AcDbEntity
  8
LAY-2
  6
CONTINUOUS
 62
     6
100
AcDbLine
 10
816.999999999988
 20
2331.0
 30
0.0
 11
816.999999999988
 21
2580.999999999995
 31
0.0
  0
LINE
  5
6CE
330
1F
100
AcDbEntity
  8
LAY-2
  6
CONTINUOUS
 62
     6
100
AcDbLine
 10
1025.999999999992
 20
2331.0
 30
0.0
 11
1025.999999999992
 21
2580.999999999995
 31
0.0
  0
TEXT
  5
6CF
330
1F
100
AcDbEntity
  8
LAY-2
  6
CONTINUOUS
 62
     2
100
AcDbText
 10
831.9999999999884
 20
2434.749999999996
 30
0.0
 40
40.0
  1
ＳＬＣ－２Ｂ
 41
0.915
  7
EXCADSTD
 72
     5
 11
1014.999999999988
 21
2434.749999999996
 31
0.0
100
AcDbText
  0
TEXT
  5
6D0
330
1F
100
AcDbEntity
  8
LAY-2
  6
CONTINUOUS
 62
     2
100
AcDbText
 10
831.9999999999884
 20
2384.749999999996
 30
0.0
 40
40.0
  1
ＳＬＣ－２Ｃ
 41
0.915
  7
EXCADSTD
 72
     5
 11
1014.999999999988
 21
2384.749999999996
 31
0.0
100
AcDbText
  0
TEXT
  5
6D1
330
1F
100
AcDbEntity
  8
LAY-2
  6
CONTINUOUS
 62
     2
100
AcDbText
 10
831.9999999999884
 20
2334.749999999996
 30
0.0
 40
40.0
  1
ＳＬＣ－２Ｄ
 41
0.915
  7
EXCADSTD
 72
     5
 11
1014.999999999988
 21
2334.749999999996
 31
0.0
100
AcDbText
  0
LINE
  5
6D2
330
1F
100
AcDbEntity
  8
LAY-2
  6
CONTINUOUS
 62
     6
100
AcDbLine
 10
1810.999999999999
 20
2331.0
 30
0.0
 11
1810.999999999999
 21
2580.999999999995
 31
0.0
  0
TEXT
  5
6D3
330
1F
100
AcDbEntity
  8
LAY-2
  6
CONTINUOUS
 62
     2
100
AcDbText
 10
1040.999999999996
 20
2334.749999999996
 30
0.0
 40
40.0
  1
ＲＣ+モルタル+タイル貼付
 41
0.8927125506072876
  7
EXCADSTD
 72
     5
 11
1460.999999999996
 21
2334.749999999996
 31
0.0
100
AcDbText
  0
TEXT
  5
6D4
330
1F
100
AcDbEntity
  8
LAY-2
  6
CONTINUOUS
 62
     2
100
AcDbText
 10
1040.999999999996
 20
2484.749999999996
 30
0.0
 40
40.0
  1
合板（１２mm以上通し）+硬質ＰＢ（１２.５mm）１枚貼付用
 41
0.6658974358974357
  7
EXCADSTD
 72
     5
 11
1782.999999999996
 21
2484.749999999996
 31
0.0
100
AcDbText
  0
TEXT
  5
6D5
330
1F
100
AcDbEntity
  8
LAY-2
  6
CONTINUOUS
 62
     2
100
AcDbText
 10
1040.999999999996
 20
2434.749999999996
 30
0.0
 40
40.0
  1
合板（２１mm以上）+フレキシブルボード+タイル貼付用
 41
0.7709369024856594
  7
EXCADSTD
 72
     5
 11
1808.999999999996
 21
2434.749999999996
 31
0.0
100
AcDbText
  0
TEXT
  5
6D6
330
1F
100
AcDbEntity
  8
LAY-2
  6
CONTINUOUS
 62
     2
100
AcDbText
 10
1040.999999999996
 20
2384.749999999996
 30
0.0
 40
40.0
  1
ＣＢ（中空部モルタル充填）+モルタル+タイル貼付
 41
0.8954494382022469
  7
EXCADSTD
 72
     5
 11
1799.999999999996
 21
2384.749999999996
 31
0.0
100
AcDbText
  0
TEXT
  5
6D7
330
1F
100
AcDbEntity
  8
LAY-2
  6
CONTINUOUS
 62
     2
100
AcDbText
 10
1273.999999999988
 20
2534.749999999996
 30
0.0
 40
40.0
  1
設置壁下地
 41
1.931034482758621
  7
EXCADSTD
 72
     5
 11
1593.999999999988
 21
2534.749999999996
 31
0.0
100
AcDbText
  0
TEXT
  5
6D8
330
1F
100
AcDbEntity
  8
LAY-2
  6
CONTINUOUS
 62
     2
100
AcDbText
 10
818.9999999999902
 20
2590.249999999995
 30
0.0
 40
40.0
  1
※固定部品セット（別売）
 41
0.9661971830985917
  7
EXCADSTD
 72
     5
 11
1210.99999999999
 21
2590.249999999995
 31
0.0
100
AcDbText
  0
LINE
  5
6D9
330
1F
100
AcDbEntity
  8
LAY-2
  6
CONTINUOUS
 62
     7
100
AcDbLine
 10
541.00000000002
 20
1526.534008094997
 30
0.0
 11
541.0000000000199
 21
2221.0
 31
0.0
  0
TEXT
  5
6DA
330
1F
100
AcDbEntity
  8
LAY-2
  6
CONTINUOUS
 62
     2
100
AcDbText
 10
545.4503409660002
 20
2219.529763545901
 30
0.0
 40
40.0
  1
Ｗ．Ｌ
 50
270.0
 41
1.235294117647059
  7
EXCADSTD
 72
     5
 11
545.4503409660002
 21
2099.529763545901
 31
0.0
100
AcDbText
  0
ENDSEC
  0
SECTION
  2
OBJECTS
  0
DICTIONARY
  5
C
330
0
100
AcDbDictionary
  3
ACAD_GROUP
350
D
  3
ACAD_LAYOUT
350
1A
  3
ACAD_MATERIAL
350
3B
  3
ACAD_MLEADERSTYLE
350
6FD
  3
ACAD_MLINESTYLE
350
17
  3
ACAD_PLOTSETTINGS
350
19
  3
ACAD_VISUALSTYLE
350
2A
  3
ACDBHEADERROUNDTRIPXREC
350
6DB
  3
ACDBVARIABLEDICTIONARY
350
6FB
  0
DICTIONARY
  5
D
102
{ACAD_REACTORS
330
C
102
}
330
C
100
AcDbDictionary
  0
DICTIONARY
  5
1A
102
{ACAD_REACTORS
330
C
102
}
330
C
100
AcDbDictionary
  0
DICTIONARY
  5
3B
102
{ACAD_REACTORS
330
C
102
}
330
C
100
AcDbDictionary
  3
BYBLOCK
350
3D
  3
BYLAYER
350
3C
  3
GLOBAL
350
3E
  0
DICTIONARY
  5
6FD
102
{ACAD_REACTORS
330
C
102
}
330
C
100
AcDbDictionary
  0
DICTIONARY
  5
17
102
{ACAD_REACTORS
330
C
102
}
330
C
100
AcDbDictionary
  3
STANDARD
350
18
  0
DICTIONARY
  5
19
102
{ACAD_REACTORS
330
C
102
}
330
C
100
AcDbDictionary
  0
DICTIONARY
  5
2A
102
{ACAD_REACTORS
330
C
102
}
330
C
100
AcDbDictionary
  3
2DWIREFRAME
350
2F
  3
3D_HIDDEN
350
31
  3
3DWIREFRAME
350
30
  3
BASIC
350
32
  3
BRIGHTEN
350
36
  3
COLORCHANGE
350
3A
  3
CONCEPTUAL
350
34
  3
DIM
350
35
  3
FACEPATTERN
350
39
  3
FLAT
350
2B
  3
FLATWITHEDGES
350
2C
  3
GOURAUD
350
2D
  3
GOURAUDWITHEDGES
350
2E
  3
LINEPATTERN
350
38
  3
REALISTIC
350
33
  3
THICKEN
350
37
  0
DICTIONARY
  5
6DB
102
{ACAD_REACTORS
330
C
102
}
330
C
100
AcDbDictionary
  3
CEPSNTYPE
350
6E4
  3
DIMSTYLEDATA
350
6FA
  3
FINGERPRINTGUID
350
6E5
  3
HYPERLINKBASE
350
6DE
  3
INSUNITS
350
6E3
  3
LAYOUTDICT
350
6E0
  3
LWETCUNION
350
6E2
  3
PLOTSETDICT
350
6E1
  3
PSVPSCALE
350
6E7
  3
PUCSBASE
350
6EA
  3
PUCSORGBACK
350
6F0
  3
PUCSORGBOTTOM
350
6EC
  3
PUCSORGFRONT
350
6EF
  3
PUCSORGLEFT
350
6ED
  3
PUCSORGRIGHT
350
6EE
  3
PUCSORGTOP
350
6EB
  3
PUCSORTHOREF
350
6E8
  3
PUCSORTHOVIEW
350
6E9
  3
STYLESHEET
350
6DF
  3
TSTACKALIGN
350
6DC
  3
TSTACKSIZE
350
6DD
  3
UCSBASE
350
6F3
  3
UCSORGBACK
350
6F9
  3
UCSORGBOTTOM
350
6F5
  3
UCSORGFRONT
350
6F8
  3
UCSORGLEFT
350
6F6
  3
UCSORGRIGHT
350
6F7
  3
UCSORGTOP
350
6F4
  3
UCSORTHOREF
350
6F1
  3
UCSORTHOVIEW
350
6F2
  3
VERSIONGUID
350
6E6
  0
DICTIONARY
  5
6FB
102
{ACAD_REACTORS
330
C
102
}
330
C
100
AcDbDictionary
  3
DIMASSOC
350
700
  3
HIDETEXT
350
701
  3
PSOLHEIGHT
350
6FF
  3
PSOLWIDTH
350
6FE
  0
MATERIAL
  5
3D
102
{ACAD_REACTORS
330
3B
102
}
102
{ACAD_XDICTIONARY
360
704
102
}
330
3B
100
AcDbMaterial
  1
ByBlock
  0
MATERIAL
  5
3C
102
{ACAD_REACTORS
330
3B
102
}
102
{ACAD_XDICTIONARY
360
702
102
}
330
3B
100
AcDbMaterial
  1
ByLayer
  0
MATERIAL
  5
3E
102
{ACAD_REACTORS
330
3B
102
}
102
{ACAD_XDICTIONARY
360
706
102
}
330
3B
100
AcDbMaterial
  1
Global
  0
MLINESTYLE
  5
18
102
{ACAD_REACTORS
330
17
102
}
330
17
100
AcDbMlineStyle
  2
Standard
 70
     0
  3

 62
   256
 51
90.0
 52
90.0
 71
     2
 49
0.5
 62
   256
  6
BYLAYER
 49
-0.5
 62
   256
  6
BYLAYER
  0
ACAD_PROXY_OBJECT
  5
2F
102
{ACAD_REACTORS
330
2A
102
}
330
2A
100
AcDbProxyObject
 90
      499
 91
      501
 93
      436
310
42CC9915DA5C99599C985B595049028333333333333E3BF0000000000000FB0107901411070040501600405405064090741402480A0340
1001
ACAD
1000
AcDbSavedByObjectVersion
1070
     0
  0
ACAD_PROXY_OBJECT
  5
31
102
{ACAD_REACTORS
330
2A
102
}
330
2A
100
AcDbProxyObject
 90
      499
 91
      501
 93
      500
310
424CD108121A5919195B90640502408333333333333E3BF0000000000000FB01079024090700405020000000000001110200405405064090740C02480A0340
1001
ACAD
1000
AcDbSavedByObjectVersion
1070
     0
  0
ACAD_PROXY_OBJECT
  5
30
102
{ACAD_REACTORS
330
2A
102
}
330
2A
100
AcDbProxyObject
 90
      499
 91
      501
 93
      436
310
42CCD915DA5C99599C985B595059028333333333333E3BF0000000000000FB0107901411070040501600405405064090741402480A0340
1001
ACAD
1000
AcDbSavedByObjectVersion
1070
     0
  0
ACAD_PROXY_OBJECT
  5
32
102
{ACAD_REACTORS
330
2A
102
}
330
2A
100
AcDbProxyObject
 90
      499
 91
      501
 93
      388
310
4150985CDA58D07406404333333333333E3BF0000000000000FB0107A41107004050150841D405064090741402480A0350
1001
ACAD
1000
AcDbSavedByObjectVersion
1070
     0
  0
ACAD_PROXY_OBJECT
  5
36
102
{ACAD_REACTORS
330
2A
102
}
330
2A
100
AcDbProxyObject
 90
      499
 91
      501
 93
      428
310
42109C9A59DA1D195B90C409028333333333333E3BF0000000000000FB010790141107004050150841D405064090741402480A029950
1001
ACAD
1000
AcDbSavedByObjectVersion
1070
     0
  0
ACAD_PROXY_OBJECT
  5
3A
102
{ACAD_REACTORS
330
2A
102
}
330
2A
100
AcDbProxyObject
 90
      499
 91
      501
 93
      452
310
42D0DBDB1BDC90DA185B99D95104090240C333333333333E3BF0000000000000FB0108901411070040501508421405064090741402480A0350
1001
ACAD
1000
AcDbSavedByObjectVersion
1070
     0
  0
ACAD_PROXY_OBJECT
  5
34
102
{ACAD_REACTORS
330
2A
102
}
330
2A
100
AcDbProxyObject
 90
      499
 91
      501
 93
      500
310
4290DBDB98D95C1D1D585B10940D028333333333333E3BF0000000000000FB0107902409070040501000000000000111010841D405064090740C02480A0340
1001
ACAD
1000
AcDbSavedByObjectVersion
1070
     0
  0
ACAD_PROXY_OBJECT
  5
35
102
{ACAD_REACTORS
330
2A
102
}
330
2A
100
AcDbProxyObject
 90
      499
 91
      501
 93
      412
310
40D11A5B50B409028333333333333E3BF0000000000000FB010790141107004050150841D405064090741402480A02677FFFFFD0
1001
ACAD
1000
AcDbSavedByObjectVersion
1070
     0
  0
ACAD_PROXY_OBJECT
  5
39
102
{ACAD_REACTORS
330
2A
102
}
330
2A
100
AcDbProxyObject
 90
      499
 91
      501
 93
      444
310
42D19858D95C185D1D195C9B90F409028333333333333E3BF0000000000000FB010790141107004050150841D405064090741402480A0350
1001
ACAD
1000
AcDbSavedByObjectVersion
1070
     0
  0
ACAD_PROXY_OBJECT
  5
2B
102
{ACAD_REACTORS
330
2A
102
}
330
2A
100
AcDbProxyObject
 90
      499
 91
      501
 93
      388
310
41119B185D240901404333333333333E3BF0000000000000F9010740A41107004050150841D405064090741402480A1B50
1001
ACAD
1000
AcDbSavedByObjectVersion
1070
     0
  0
ACAD_PROXY_OBJECT
  5
2C
102
{ACAD_REACTORS
330
2A
102
}
330
2A
100
AcDbProxyObject
 90
      499
 91
      501
 93
      476
310
43519B185D15DA5D1A115919D95CD0140901404333333333333E3BF0000000000000F9010740901411070040501600405405064090741402480A1B50
1001
ACAD
1000
AcDbSavedByObjectVersion
1070
     0
  0
ACAD_PROXY_OBJECT
  5
2D
102
{ACAD_REACTORS
330
2A
102
}
330
2A
100
AcDbProxyObject
 90
      499
 91
      501
 93
      412
310
41D1DBDD5C985D5910240902404333333333333E3BF0000000000000F9010740A411070040501641D405064090741402480A1B50
1001
ACAD
1000
AcDbSavedByObjectVersion
1070
     0
  0
ACAD_PROXY_OBJECT
  5
2E
102
{ACAD_REACTORS
330
2A
102
}
330
2A
100
AcDbProxyObject
 90
      499
 91
      501
 93
      500
310
4411DBDD5C985D5915DA5D1A115919D95CD0340902404333333333333E3BF0000000000000F9010740901411070040501600405405064090741402480A1B50
1001
ACAD
1000
AcDbSavedByObjectVersion
1070
     0
  0
ACAD_PROXY_OBJECT
  5
38
102
{ACAD_REACTORS
330
2A
102
}
330
2A
100
AcDbProxyObject
 90
      499
 91
      501
 93
      444
310
42D31A5B995C185D1D195C9B90E409028333333333333E3BF0000000000000FB010790141107004050750841D405064090741402483A0350
1001
ACAD
1000
AcDbSavedByObjectVersion
1070
     0
  0
ACAD_PROXY_OBJECT
  5
33
102
{ACAD_REACTORS
330
2A
102
}
330
2A
100
AcDbProxyObject
 90
      499
 91
      501
 93
      420
310
425499585B1A5CDD1A58D08409028333333333333E3BF0000000000000FB01079019070040501508421405064090741402480A1B40
1001
ACAD
1000
AcDbSavedByObjectVersion
1070
     0
  0
ACAD_PROXY_OBJECT
  5
37
102
{ACAD_REACTORS
330
2A
102
}
330
2A
100
AcDbProxyObject
 90
      499
 91
      501
 93
      412
310
41D51A1A58DAD95B90D409028333333333333E3BF0000000000000FB010790141107004050150C41D405064090741402480A0350
1001
ACAD
1000
AcDbSavedByObjectVersion
1070
     0
  0
XRECORD
  5
6E4
102
{ACAD_REACTORS
330
6DB
102
}
330
6DB
100
AcDbXrecord
 90
        0
  0
XRECORD
  5
6FA
102
{ACAD_REACTORS
330
6DB
102
}
330
6DB
100
AcDbXrecord
1000
DSTYLE
1002
{
1070
   340
340
11
1002
}
  0
XRECORD
  5
6E5
102
{ACAD_REACTORS
330
6DB
102
}
330
6DB
100
AcDbXrecord
  1
{17B8BF32-659B-4499-9985-1A466725416D}
  0
XRECORD
  5
6DE
102
{ACAD_REACTORS
330
6DB
102
}
330
6DB
100
AcDbXrecord
  1

  0
XRECORD
  5
6E3
102
{ACAD_REACTORS
330
6DB
102
}
330
6DB
100
AcDbXrecord
 90
        4
  0
XRECORD
  5
6E0
102
{ACAD_REACTORS
330
6DB
102
}
330
6DB
100
AcDbXrecord
340
1A
  0
XRECORD
  5
6E2
102
{ACAD_REACTORS
330
6DB
102
}
330
6DB
100
AcDbXrecord
 90
    10781
  0
XRECORD
  5
6E1
102
{ACAD_REACTORS
330
6DB
102
}
330
6DB
100
AcDbXrecord
340
19
  0
XRECORD
  5
6E7
102
{ACAD_REACTORS
330
6DB
102
}
330
6DB
100
AcDbXrecord
 40
0.0
  0
XRECORD
  5
6EA
102
{ACAD_REACTORS
330
6DB
102
}
330
6DB
100
AcDbXrecord
340
0
  0
XRECORD
  5
6F0
102
{ACAD_REACTORS
330
6DB
102
}
330
6DB
100
AcDbXrecord
 10
0.0
 20
0.0
 30
0.0
  0
XRECORD
  5
6EC
102
{ACAD_REACTORS
330
6DB
102
}
330
6DB
100
AcDbXrecord
 10
0.0
 20
0.0
 30
0.0
  0
XRECORD
  5
6EF
102
{ACAD_REACTORS
330
6DB
102
}
330
6DB
100
AcDbXrecord
 10
0.0
 20
0.0
 30
0.0
  0
XRECORD
  5
6ED
102
{ACAD_REACTORS
330
6DB
102
}
330
6DB
100
AcDbXrecord
 10
0.0
 20
0.0
 30
0.0
  0
XRECORD
  5
6EE
102
{ACAD_REACTORS
330
6DB
102
}
330
6DB
100
AcDbXrecord
 10
0.0
 20
0.0
 30
0.0
  0
XRECORD
  5
6EB
102
{ACAD_REACTORS
330
6DB
102
}
330
6DB
100
AcDbXrecord
 10
0.0
 20
0.0
 30
0.0
  0
XRECORD
  5
6E8
102
{ACAD_REACTORS
330
6DB
102
}
330
6DB
100
AcDbXrecord
340
0
  0
XRECORD
  5
6E9
102
{ACAD_REACTORS
330
6DB
102
}
330
6DB
100
AcDbXrecord
 70
     0
  0
XRECORD
  5
6DF
102
{ACAD_REACTORS
330
6DB
102
}
330
6DB
100
AcDbXrecord
  1

  0
XRECORD
  5
6DC
102
{ACAD_REACTORS
330
6DB
102
}
330
6DB
100
AcDbXrecord
 90
        1
  0
XRECORD
  5
6DD
102
{ACAD_REACTORS
330
6DB
102
}
330
6DB
100
AcDbXrecord
 90
       70
  0
XRECORD
  5
6F3
102
{ACAD_REACTORS
330
6DB
102
}
330
6DB
100
AcDbXrecord
340
0
  0
XRECORD
  5
6F9
102
{ACAD_REACTORS
330
6DB
102
}
330
6DB
100
AcDbXrecord
 10
0.0
 20
0.0
 30
0.0
  0
XRECORD
  5
6F5
102
{ACAD_REACTORS
330
6DB
102
}
330
6DB
100
AcDbXrecord
 10
0.0
 20
0.0
 30
0.0
  0
XRECORD
  5
6F8
102
{ACAD_REACTORS
330
6DB
102
}
330
6DB
100
AcDbXrecord
 10
0.0
 20
0.0
 30
0.0
  0
XRECORD
  5
6F6
102
{ACAD_REACTORS
330
6DB
102
}
330
6DB
100
AcDbXrecord
 10
0.0
 20
0.0
 30
0.0
  0
XRECORD
  5
6F7
102
{ACAD_REACTORS
330
6DB
102
}
330
6DB
100
AcDbXrecord
 10
0.0
 20
0.0
 30
0.0
  0
XRECORD
  5
6F4
102
{ACAD_REACTORS
330
6DB
102
}
330
6DB
100
AcDbXrecord
 10
0.0
 20
0.0
 30
0.0
  0
XRECORD
  5
6F1
102
{ACAD_REACTORS
330
6DB
102
}
330
6DB
100
AcDbXrecord
340
0
  0
XRECORD
  5
6F2
102
{ACAD_REACTORS
330
6DB
102
}
330
6DB
100
AcDbXrecord
 70
     0
  0
XRECORD
  5
6E6
102
{ACAD_REACTORS
330
6DB
102
}
330
6DB
100
AcDbXrecord
  1
{FAEB1C32-E019-11D5-929B-00C0DF256EC4}
  0
DICTIONARYVAR
  5
700
102
{ACAD_REACTORS
330
6FB
102
}
330
6FB
100
DictionaryVariables
280
     0
  1
2
  0
DICTIONARYVAR
  5
701
102
{ACAD_REACTORS
330
6FB
102
}
330
6FB
100
DictionaryVariables
280
     0
  1
1
  0
DICTIONARYVAR
  5
6FF
102
{ACAD_REACTORS
330
6FB
102
}
330
6FB
100
DictionaryVariables
280
     0
  1
80.000000
  0
DICTIONARYVAR
  5
6FE
102
{ACAD_REACTORS
330
6FB
102
}
330
6FB
100
DictionaryVariables
280
     0
  1
5.000000
  0
DICTIONARY
  5
704
330
3D
100
AcDbDictionary
280
     1
  3
ACAD_XREC_ROUNDTRIP
360
705
  0
DICTIONARY
  5
702
330
3C
100
AcDbDictionary
280
     1
  3
ACAD_XREC_ROUNDTRIP
360
703
  0
DICTIONARY
  5
706
330
3E
100
AcDbDictionary
280
     1
  3
ACAD_XREC_ROUNDTRIP
360
707
  0
XRECORD
  5
705
102
{ACAD_REACTORS
330
704
102
}
330
704
100
AcDbXrecord
102
MATERIAL
148
0.0
149
0.0
149
0.0
 93
        0
 94
      127
282
     0
 72
     1
 77
     1
171
     1
175
     1
179
     1
273
     0
  0
XRECORD
  5
703
102
{ACAD_REACTORS
330
702
102
}
330
702
100
AcDbXrecord
102
MATERIAL
148
0.0
149
0.0
149
0.0
 93
        0
 94
      127
282
     0
 72
     1
 77
     1
171
     1
175
     1
179
     1
273
     0
  0
XRECORD
  5
707
102
{ACAD_REACTORS
330
706
102
}
330
706
100
AcDbXrecord
102
MATERIAL
148
0.0
149
0.0
149
0.0
 93
        0
 94
      127
282
     0
 72
     1
 77
     1
171
     1
175
     1
179
     1
273
     0
  0
ENDSEC
  0
EOF
