  0
SECTION
  2
HEADER
  9
$ACADVER
  1
AC1014
  9
$ACADMAINTVER
 70
     9
  9
$DWGCODEPAGE
  3
ANSI_932
  9
$INSBASE
 10
0.0
 20
0.0
 30
0.0
  9
$EXTMIN
 10
-2.099999999999992
 20
11.5
 30
0.0
  9
$EXTMAX
 10
417.0
 20
293.0
 30
0.0
  9
$LIMMIN
 10
0.0
 20
0.0
  9
$LIMMAX
 10
210.0
 20
297.0
  9
$ORTHOMODE
 70
     0
  9
$REGENMODE
 70
     1
  9
$FILLMODE
 70
     1
  9
$QTEXTMODE
 70
     0
  9
$MIRRTEXT
 70
     1
  9
$DRAGMODE
 70
     2
  9
$LTSCALE
 40
1.0
  9
$OSMODE
 70
    37
  9
$ATTMODE
 70
     1
  9
$TEXTSIZE
 40
2.5
  9
$TRACEWID
 40
1.0
  9
$TEXTSTYLE
  7
STANDARD
  9
$CLAYER
  8
寸法
  9
$CELTYPE
  6
BYLAYER
  9
$CECOLOR
 62
   256
  9
$CELTSCALE
 40
1.0
  9
$DELOBJ
 70
     1
  9
$DISPSILH
 70
     0
  9
$DIMSCALE
 40
1.0
  9
$DIMASZ
 40
2.5
  9
$DIMEXO
 40
0.625
  9
$DIMDLI
 40
3.75
  9
$DIMRND
 40
0.0
  9
$DIMDLE
 40
0.0
  9
$DIMEXE
 40
1.25
  9
$DIMTP
 40
0.0
  9
$DIMTM
 40
0.0
  9
$DIMTXT
 40
2.5
  9
$DIMCEN
 40
2.5
  9
$DIMTSZ
 40
0.0
  9
$DIMTOL
 70
     0
  9
$DIMLIM
 70
     0
  9
$DIMTIH
 70
     0
  9
$DIMTOH
 70
     0
  9
$DIMSE1
 70
     0
  9
$DIMSE2
 70
     0
  9
$DIMTAD
 70
     1
  9
$DIMZIN
 70
     8
  9
$DIMBLK
  1

  9
$DIMASO
 70
     1
  9
$DIMSHO
 70
     1
  9
$DIMPOST
  1

  9
$DIMAPOST
  1

  9
$DIMALT
 70
     0
  9
$DIMALTD
 70
     3
  9
$DIMALTF
 40
0.03937007874016
  9
$DIMLFAC
 40
1.0
  9
$DIMTOFL
 70
     1
  9
$DIMTVP
 40
0.0
  9
$DIMTIX
 70
     0
  9
$DIMSOXD
 70
     0
  9
$DIMSAH
 70
     0
  9
$DIMBLK1
  1

  9
$DIMBLK2
  1

  9
$DIMSTYLE
  2
ISO-25
  9
$DIMCLRD
 70
     0
  9
$DIMCLRE
 70
     0
  9
$DIMCLRT
 70
     0
  9
$DIMTFAC
 40
1.0
  9
$DIMGAP
 40
0.625
  9
$DIMJUST
 70
     0
  9
$DIMSD1
 70
     0
  9
$DIMSD2
 70
     0
  9
$DIMTOLJ
 70
     0
  9
$DIMTZIN
 70
     8
  9
$DIMALTZ
 70
     0
  9
$DIMALTTZ
 70
     0
  9
$DIMFIT
 70
     3
  9
$DIMUPT
 70
     0
  9
$DIMUNIT
 70
     2
  9
$DIMDEC
 70
     2
  9
$DIMTDEC
 70
     2
  9
$DIMALTU
 70
     2
  9
$DIMALTTD
 70
     3
  9
$DIMTXSTY
  7
STANDARD
  9
$DIMAUNIT
 70
     0
  9
$LUNITS
 70
     2
  9
$LUPREC
 70
     4
  9
$SKETCHINC
 40
1.0
  9
$FILLETRAD
 40
10.0
  9
$AUNITS
 70
     0
  9
$AUPREC
 70
     0
  9
$MENU
  1
.
  9
$ELEVATION
 40
0.0
  9
$PELEVATION
 40
0.0
  9
$THICKNESS
 40
0.0
  9
$LIMCHECK
 70
     0
  9
$CHAMFERA
 40
10.0
  9
$CHAMFERB
 40
10.0
  9
$CHAMFERC
 40
20.0
  9
$CHAMFERD
 40
0.0
  9
$SKPOLY
 70
     0
  9
$TDCREATE
 40
2460361.588414988
  9
$TDUPDATE
 40
2460361.588415139
  9
$TDINDWG
 40
0.0000000116
  9
$TDUSRTIMER
 40
0.0000000116
  9
$USRTIMER
 70
     1
  9
$ANGBASE
 50
0.0
  9
$ANGDIR
 70
     0
  9
$PDMODE
 70
     0
  9
$PDSIZE
 40
0.0
  9
$PLINEWID
 40
0.0
  9
$COORDS
 70
     1
  9
$SPLFRAME
 70
     0
  9
$SPLINETYPE
 70
     6
  9
$SPLINESEGS
 70
     8
  9
$ATTDIA
 70
     0
  9
$ATTREQ
 70
     1
  9
$HANDLING
 70
     1
  9
$HANDSEED
  5
410
  9
$SURFTAB1
 70
     6
  9
$SURFTAB2
 70
     6
  9
$SURFTYPE
 70
     6
  9
$SURFU
 70
     6
  9
$SURFV
 70
     6
  9
$UCSNAME
  2

  9
$UCSORG
 10
0.0
 20
0.0
 30
0.0
  9
$UCSXDIR
 10
1.0
 20
0.0
 30
0.0
  9
$UCSYDIR
 10
0.0
 20
1.0
 30
0.0
  9
$PUCSNAME
  2

  9
$PUCSORG
 10
0.0
 20
0.0
 30
0.0
  9
$PUCSXDIR
 10
1.0
 20
0.0
 30
0.0
  9
$PUCSYDIR
 10
0.0
 20
1.0
 30
0.0
  9
$USERI1
 70
     0
  9
$USERI2
 70
     0
  9
$USERI3
 70
     0
  9
$USERI4
 70
     0
  9
$USERI5
 70
     0
  9
$USERR1
 40
0.0
  9
$USERR2
 40
0.0
  9
$USERR3
 40
0.0
  9
$USERR4
 40
0.0
  9
$USERR5
 40
0.0
  9
$WORLDVIEW
 70
     1
  9
$SHADEDGE
 70
     3
  9
$SHADEDIF
 70
    70
  9
$TILEMODE
 70
     1
  9
$MAXACTVP
 70
    64
  9
$PINSBASE
 10
0.0
 20
0.0
 30
0.0
  9
$PLIMCHECK
 70
     0
  9
$PEXTMIN
 10
1.000000000000000E+20
 20
1.000000000000000E+20
 30
1.000000000000000E+20
  9
$PEXTMAX
 10
-1.000000000000000E+20
 20
-1.000000000000000E+20
 30
-1.000000000000000E+20
  9
$PLIMMIN
 10
0.0
 20
0.0
  9
$PLIMMAX
 10
420.0
 20
297.0
  9
$UNITMODE
 70
     0
  9
$VISRETAIN
 70
     1
  9
$PLINEGEN
 70
     0
  9
$PSLTSCALE
 70
     1
  9
$TREEDEPTH
 70
  3020
  9
$PICKSTYLE
 70
     1
  9
$CMLSTYLE
  2
STANDARD
  9
$CMLJUST
 70
     0
  9
$CMLSCALE
 40
20.0
  9
$PROXYGRAPHICS
 70
     1
  9
$MEASUREMENT
 70
     1
  0
ENDSEC
  0
SECTION
  2
CLASSES
  0
CLASS
  1
ACDBDICTIONARYWDFLT
  2
AcDbDictionaryWithDefault
  3
ObjectDBX Classes
 90
        0
280
     0
281
     0
  0
CLASS
  1
VISUALSTYLE
  2
AcDbVisualStyle
  3
ObjectDBX Classes
 90
     4095
280
     0
281
     0
  0
CLASS
  1
MATERIAL
  2
AcDbMaterial
  3
ObjectDBX Classes
 90
     1153
280
     0
281
     0
  0
CLASS
  1
SUN
  2
AcDbSun
  3
SCENEOE
 90
     1024
280
     0
281
     0
  0
CLASS
  1
DICTIONARYVAR
  2
AcDbDictionaryVar
  3
ObjectDBX Classes
 90
        0
280
     0
281
     0
  0
CLASS
  1
XRECORD
  2
AcDbXrecord
  3
AutoCAD 2000
 90
        0
280
     0
281
     0
  0
CLASS
  1
LWPOLYLINE
  2
AcDbPolyline
  3
AutoCAD 2000
 90
        0
280
     0
281
     1
  0
CLASS
  1
HATCH
  2
AcDbHatch
  3
AutoCAD 2000
 90
        0
280
     0
281
     1
  0
CLASS
  1
ACDBPLACEHOLDER
  2
AcDbPlaceHolder
  3
ObjectDBX Classes
 90
        0
280
     0
281
     0
  0
CLASS
  1
LAYOUT
  2
AcDbLayout
  3
ObjectDBX Classes
 90
        0
280
     0
281
     0
  0
ENDSEC
  0
SECTION
  2
TABLES
  0
TABLE
  2
VPORT
  5
8
330
0
100
AcDbSymbolTable
 70
     1
  0
VPORT
  5
29
330
8
100
AcDbSymbolTableRecord
100
AcDbViewportTableRecord
  2
*ACTIVE
 70
     0
 10
0.0
 20
0.0
 11
1.0
 21
1.0
 12
2074.5
 22
1522.5
 13
0.0
 23
0.0
 14
10.0
 24
10.0
 15
10.0
 25
10.0
 16
0.0
 26
0.0
 36
1.0
 17
0.0
 27
0.0
 37
0.0
 40
2815.0
 41
1.488809946714032
 42
50.0
 43
0.0
 44
0.0
 50
0.0
 51
0.0
 71
     0
 72
  1000
 73
     1
 74
     3
 75
     0
 76
     0
 77
     0
 78
     0
  0
ENDTAB
  0
TABLE
  2
LTYPE
  5
5
330
0
100
AcDbSymbolTable
 70
     7
  0
LTYPE
  5
14
330
5
100
AcDbSymbolTableRecord
100
AcDbLinetypeTableRecord
  2
BYBLOCK
 70
     0
  3

 72
    65
 73
     0
 40
0.0
  0
LTYPE
  5
15
330
5
100
AcDbSymbolTableRecord
100
AcDbLinetypeTableRecord
  2
BYLAYER
 70
     0
  3

 72
    65
 73
     0
 40
0.0
  0
LTYPE
  5
16
330
5
100
AcDbSymbolTableRecord
100
AcDbLinetypeTableRecord
  2
CONTINUOUS
 70
     0
  3
Solid line
 72
    65
 73
     0
 40
0.0
  0
LTYPE
  5
40
330
5
100
AcDbSymbolTableRecord
100
AcDbLinetypeTableRecord
  2
EXLTYPE1
 70
     0
  3
破線
 72
    65
 73
     2
 40
3.0
 49
2.0
 74
     0
 49
-1.0
 74
     0
  0
LTYPE
  5
41
330
5
100
AcDbSymbolTableRecord
100
AcDbLinetypeTableRecord
  2
EXLTYPE2
 70
     0
  3
点線
 72
    65
 73
     2
 40
2.0
 49
1.0
 74
     0
 49
-1.0
 74
     0
  0
LTYPE
  5
42
330
5
100
AcDbSymbolTableRecord
100
AcDbLinetypeTableRecord
  2
EXLTYPE3
 70
     0
  3
一点鎖線
 72
    65
 73
     4
 40
10.0
 49
7.0
 74
     0
 49
-1.0
 74
     0
 49
1.0
 74
     0
 49
-1.0
 74
     0
  0
LTYPE
  5
43
330
5
100
AcDbSymbolTableRecord
100
AcDbLinetypeTableRecord
  2
EXLTYPE4
 70
     0
  3
二点鎖線
 72
    65
 73
     6
 40
12.0
 49
7.0
 74
     0
 49
-1.0
 74
     0
 49
1.0
 74
     0
 49
-1.0
 74
     0
 49
1.0
 74
     0
 49
-1.0
 74
     0
  0
LTYPE
  5
44
330
5
100
AcDbSymbolTableRecord
100
AcDbLinetypeTableRecord
  2
EXLTYPE5
 70
     0
  3
三点鎖線
 72
    65
 73
     8
 40
37.0
 49
30.0
 74
     0
 49
-1.0
 74
     0
 49
1.0
 74
     0
 49
-1.0
 74
     0
 49
1.0
 74
     0
 49
-1.0
 74
     0
 49
1.0
 74
     0
 49
-1.0
 74
     0
  0
LTYPE
  5
45
330
5
100
AcDbSymbolTableRecord
100
AcDbLinetypeTableRecord
  2
EXLTYPE6
 70
     0
  3
四点鎖線
 72
    65
 73
    10
 40
39.0
 49
30.0
 74
     0
 49
-1.0
 74
     0
 49
1.0
 74
     0
 49
-1.0
 74
     0
 49
1.0
 74
     0
 49
-1.0
 74
     0
 49
1.0
 74
     0
 49
-1.0
 74
     0
 49
1.0
 74
     0
 49
-1.0
 74
     0
  0
ENDTAB
  0
TABLE
  2
LAYER
  5
2
330
0
100
AcDbSymbolTable
 70
     6
  0
LAYER
  5
10
330
2
100
AcDbSymbolTableRecord
100
AcDbLayerTableRecord
  2
0
 70
     0
 62
     7
  6
CONTINUOUS
  0
LAYER
  5
48
330
2
100
AcDbSymbolTableRecord
100
AcDbLayerTableRecord
  2
枠
 70
     0
 62
     7
  6
CONTINUOUS
  0
LAYER
  5
49
330
2
100
AcDbSymbolTableRecord
100
AcDbLayerTableRecord
  2
スト_ル
 70
     0
 62
     7
  6
CONTINUOUS
  0
LAYER
  5
4A
330
2
100
AcDbSymbolTableRecord
100
AcDbLayerTableRecord
  2
寸法
 70
     0
 62
     7
  6
CONTINUOUS
  0
LAYER
  5
4B
330
2
100
AcDbSymbolTableRecord
100
AcDbLayerTableRecord
  2
器具明細表
 70
     0
 62
     7
  6
CONTINUOUS
  0
LAYER
  5
30E
330
2
100
AcDbSymbolTableRecord
100
AcDbLayerTableRecord
  2
DEFPOINTS
 70
     0
 62
     7
  6
CONTINUOUS
  0
ENDTAB
  0
TABLE
  2
STYLE
  5
3
330
0
100
AcDbSymbolTable
 70
     5
  0
STYLE
  5
11
330
3
100
AcDbSymbolTableRecord
100
AcDbTextStyleTableRecord
  2
STANDARD
 70
     0
 40
0.0
 41
1.0
 50
0.0
 71
     0
 42
2.5
  3
monotxt
  4
extfont
  0
STYLE
  5
46
330
3
100
AcDbSymbolTableRecord
100
AcDbTextStyleTableRecord
  2
EXCADSTD
 70
     0
 40
0.0
 41
1.0
 50
0.0
 71
     0
 42
0.2
  3
monotxt
  4
extfont
  0
STYLE
  5
47
330
3
100
AcDbSymbolTableRecord
100
AcDbTextStyleTableRecord
  2
EXCADVERT
 70
     4
 40
0.0
 41
1.0
 50
0.0
 71
     0
 42
0.286885
  3
monotxt
  4
extfont
  0
STYLE
  5
11B
330
3
100
AcDbSymbolTableRecord
100
AcDbTextStyleTableRecord
  2
EXCADTTF1
 70
     0
 40
0.0
 41
1.0
 50
0.0
 71
     0
 42
0.2
  3
MSGOTHIC.TTC
  4

1001
ACAD
1000
MS Gothic
1071
    32817
  0
STYLE
  5
30C
330
3
100
AcDbSymbolTableRecord
100
AcDbTextStyleTableRecord
  2
EXCADDIM1
 70
     0
 40
0.0
 41
0.84
 50
0.0
 71
     0
 42
0.2
  3
monotxt
  4
extfont
  0
ENDTAB
  0
TABLE
  2
VIEW
  5
6
330
0
100
AcDbSymbolTable
 70
     0
  0
ENDTAB
  0
TABLE
  2
UCS
  5
7
330
0
100
AcDbSymbolTable
 70
     0
  0
ENDTAB
  0
TABLE
  2
APPID
  5
9
330
0
100
AcDbSymbolTable
 70
     1
  0
APPID
  5
12
330
9
100
AcDbSymbolTableRecord
100
AcDbRegAppTableRecord
  2
ACAD
 70
     0
  0
ENDTAB
  0
TABLE
  2
DIMSTYLE
  5
A
330
0
100
AcDbSymbolTable
 70
     1
  0
DIMSTYLE
105
27
102
{ACAD_REACTORS
330
30D
330
31E
330
32B
330
338
330
346
330
353
330
365
330
373
330
380
330
38F
330
39C
330
3A9
330
3B5
330
3C1
102
}
330
A
100
AcDbSymbolTableRecord
100
AcDbDimStyleTableRecord
  2
ISO-25
 70
     0
  3

  4

  5

  6

  7

 40
1.0
 41
2.5
 42
0.625
 43
3.75
 44
1.25
 45
0.0
 46
0.0
 47
0.0
 48
0.0
140
2.5
141
2.5
142
0.0
143
0.03937007874016
144
1.0
145
0.0
146
1.0
147
0.625
 71
     0
 72
     0
 73
     0
 74
     0
 75
     0
 76
     0
 77
     1
 78
     8
170
     0
171
     3
172
     1
173
     0
174
     0
175
     0
176
     0
177
     0
178
     0
270
     2
271
     2
272
     2
273
     2
274
     3
340
11
275
     0
280
     0
281
     0
282
     0
283
     0
284
     8
285
     0
286
     0
287
     5
288
     0
  0
ENDTAB
  0
TABLE
  2
BLOCK_RECORD
  5
1
330
0
100
AcDbSymbolTable
 70
    29
  0
BLOCK_RECORD
  5
1F
330
1
100
AcDbSymbolTableRecord
100
AcDbBlockTableRecord
  2
*MODEL_SPACE
  0
BLOCK_RECORD
  5
1B
330
1
100
AcDbSymbolTableRecord
100
AcDbBlockTableRecord
  2
*PAPER_SPACE
  0
BLOCK_RECORD
  5
4C
330
1
100
AcDbSymbolTableRecord
100
AcDbBlockTableRecord
  2
EX_NORM
  0
BLOCK_RECORD
  5
4F
330
1
100
AcDbSymbolTableRecord
100
AcDbBlockTableRecord
  2
EX_BNORM
  0
BLOCK_RECORD
  5
52
330
1
100
AcDbSymbolTableRecord
100
AcDbBlockTableRecord
  2
EX_BCIR
  0
BLOCK_RECORD
  5
55
330
1
100
AcDbSymbolTableRecord
100
AcDbBlockTableRecord
  2
EX_RCIVIL
  0
BLOCK_RECORD
  5
58
330
1
100
AcDbSymbolTableRecord
100
AcDbBlockTableRecord
  2
EX_SLANT
  0
BLOCK_RECORD
  5
5B
330
1
100
AcDbSymbolTableRecord
100
AcDbBlockTableRecord
  2
EX_NONE
  0
BLOCK_RECORD
  5
5E
330
1
100
AcDbSymbolTableRecord
100
AcDbBlockTableRecord
  2
EX_CIVIL
  0
BLOCK_RECORD
  5
61
330
1
100
AcDbSymbolTableRecord
100
AcDbBlockTableRecord
  2
EX_WCIR
  0
BLOCK_RECORD
  5
64
330
1
100
AcDbSymbolTableRecord
100
AcDbBlockTableRecord
  2
EX_WCIR2
  0
BLOCK_RECORD
  5
67
330
1
100
AcDbSymbolTableRecord
100
AcDbBlockTableRecord
  2
EX_WNORM
  0
BLOCK_RECORD
  5
6A
330
1
100
AcDbSymbolTableRecord
100
AcDbBlockTableRecord
  2
EX_NNORM
  0
BLOCK_RECORD
  5
6D
330
1
100
AcDbSymbolTableRecord
100
AcDbBlockTableRecord
  2
EX_BBOX
  0
BLOCK_RECORD
  5
70
330
1
100
AcDbSymbolTableRecord
100
AcDbBlockTableRecord
  2
EX_WBOX
  0
BLOCK_RECORD
  5
73
330
1
100
AcDbSymbolTableRecord
100
AcDbBlockTableRecord
  2
EX_INTEGRAL
  0
BLOCK_RECORD
  5
30F
330
1
100
AcDbSymbolTableRecord
100
AcDbBlockTableRecord
  2
*D15
  0
BLOCK_RECORD
  5
31F
330
1
100
AcDbSymbolTableRecord
100
AcDbBlockTableRecord
  2
*D16
  0
BLOCK_RECORD
  5
32C
330
1
100
AcDbSymbolTableRecord
100
AcDbBlockTableRecord
  2
*D17
  0
BLOCK_RECORD
  5
339
330
1
100
AcDbSymbolTableRecord
100
AcDbBlockTableRecord
  2
*D18
  0
BLOCK_RECORD
  5
347
330
1
100
AcDbSymbolTableRecord
100
AcDbBlockTableRecord
  2
*D19
  0
BLOCK_RECORD
  5
354
330
1
100
AcDbSymbolTableRecord
100
AcDbBlockTableRecord
  2
*D20
  0
BLOCK_RECORD
  5
366
330
1
100
AcDbSymbolTableRecord
100
AcDbBlockTableRecord
  2
*D21
  0
BLOCK_RECORD
  5
374
330
1
100
AcDbSymbolTableRecord
100
AcDbBlockTableRecord
  2
*D22
  0
BLOCK_RECORD
  5
381
330
1
100
AcDbSymbolTableRecord
100
AcDbBlockTableRecord
  2
*D23
  0
BLOCK_RECORD
  5
390
330
1
100
AcDbSymbolTableRecord
100
AcDbBlockTableRecord
  2
*D24
  0
BLOCK_RECORD
  5
39D
330
1
100
AcDbSymbolTableRecord
100
AcDbBlockTableRecord
  2
*D25
  0
BLOCK_RECORD
  5
3AA
330
1
100
AcDbSymbolTableRecord
100
AcDbBlockTableRecord
  2
*D26
  0
BLOCK_RECORD
  5
3B6
330
1
100
AcDbSymbolTableRecord
100
AcDbBlockTableRecord
  2
*D27
  0
BLOCK_RECORD
  5
3C2
330
1
100
AcDbSymbolTableRecord
100
AcDbBlockTableRecord
  2
*D28
  0
ENDTAB
  0
ENDSEC
  0
SECTION
  2
BLOCKS
  0
BLOCK
  5
20
330
1F
100
AcDbEntity
  8
0
100
AcDbBlockBegin
  2
*MODEL_SPACE
 70
     0
 10
0.0
 20
0.0
 30
0.0
  3
*MODEL_SPACE
  1

  0
ENDBLK
  5
21
330
1F
100
AcDbEntity
  8
0
100
AcDbBlockEnd
  0
BLOCK
  5
1C
330
1B
100
AcDbEntity
 67
     1
  8
0
100
AcDbBlockBegin
  2
*PAPER_SPACE
 70
     0
 10
0.0
 20
0.0
 30
0.0
  3
*PAPER_SPACE
  1

  0
ENDBLK
  5
1D
330
1B
100
AcDbEntity
 67
     1
  8
0
100
AcDbBlockEnd
  0
BLOCK
  5
4D
330
4C
100
AcDbEntity
  8
0
100
AcDbBlockBegin
  2
EX_NORM
 70
     0
 10
0.0
 20
0.0
 30
0.0
  3
EX_NORM
  1

  0
LINE
  5
76
330
4C
100
AcDbEntity
  8
0
  6
CONTINUOUS
 62
     0
100
AcDbLine
 10
0.0
 20
0.0
 30
0.0
 11
-1.0
 21
0.0
 31
0.0
  0
LINE
  5
77
330
4C
100
AcDbEntity
  8
0
  6
CONTINUOUS
 62
     0
100
AcDbLine
 10
0.0
 20
0.0
 30
0.0
 11
-1.0
 21
0.166666667
 31
0.0
  0
LINE
  5
78
330
4C
100
AcDbEntity
  8
0
  6
CONTINUOUS
 62
     0
100
AcDbLine
 10
0.0
 20
0.0
 30
0.0
 11
-1.0
 21
-0.166666667
 31
0.0
  0
ENDBLK
  5
4E
330
4C
100
AcDbEntity
  8
0
100
AcDbBlockEnd
  0
BLOCK
  5
50
330
4F
100
AcDbEntity
  8
0
100
AcDbBlockBegin
  2
EX_BNORM
 70
     0
 10
0.0
 20
0.0
 30
0.0
  3
EX_BNORM
  1

  0
LINE
  5
79
330
4F
100
AcDbEntity
  8
0
  6
CONTINUOUS
 62
     0
100
AcDbLine
 10
0.0
 20
0.0
 30
0.0
 11
-1.0
 21
0.0
 31
0.0
  0
LINE
  5
7A
330
4F
100
AcDbEntity
  8
0
  6
CONTINUOUS
 62
     0
100
AcDbLine
 10
0.0
 20
0.0
 30
0.0
 11
-1.0
 21
0.166666667
 31
0.0
  0
LINE
  5
7B
330
4F
100
AcDbEntity
  8
0
  6
CONTINUOUS
 62
     0
100
AcDbLine
 10
0.0
 20
0.0
 30
0.0
 11
-1.0
 21
-0.166666667
 31
0.0
  0
LINE
  5
7C
330
4F
100
AcDbEntity
  8
0
  6
CONTINUOUS
 62
     0
100
AcDbLine
 10
0.0
 20
0.0
 30
0.0
 11
-1.0
 21
0.083333333
 31
0.0
  0
LINE
  5
7D
330
4F
100
AcDbEntity
  8
0
  6
CONTINUOUS
 62
     0
100
AcDbLine
 10
0.0
 20
0.0
 30
0.0
 11
-1.0
 21
-0.083333333
 31
0.0
  0
LINE
  5
7E
330
4F
100
AcDbEntity
  8
0
  6
CONTINUOUS
 62
     0
100
AcDbLine
 10
-1.0
 20
0.166666667
 30
0.0
 11
-1.0
 21
-0.166666667
 31
0.0
  0
ENDBLK
  5
51
330
4F
100
AcDbEntity
  8
0
100
AcDbBlockEnd
  0
BLOCK
  5
53
330
52
100
AcDbEntity
  8
0
100
AcDbBlockBegin
  2
EX_BCIR
 70
     0
 10
0.0
 20
0.0
 30
0.0
  3
EX_BCIR
  1

  0
LINE
  5
7F
330
52
100
AcDbEntity
  8
0
  6
CONTINUOUS
 62
     0
100
AcDbLine
 10
0.0
 20
0.0
 30
0.0
 11
-1.0
 21
0.0
 31
0.0
  0
CIRCLE
  5
80
330
52
100
AcDbEntity
  8
0
  6
CONTINUOUS
 62
     0
100
AcDbCircle
 10
0.0
 20
0.0
 30
0.0
 40
0.5
  0
CIRCLE
  5
81
330
52
100
AcDbEntity
  8
0
  6
CONTINUOUS
 62
     0
100
AcDbCircle
 10
0.0
 20
0.0
 30
0.0
 40
0.25
  0
ENDBLK
  5
54
330
52
100
AcDbEntity
  8
0
100
AcDbBlockEnd
  0
BLOCK
  5
56
330
55
100
AcDbEntity
  8
0
100
AcDbBlockBegin
  2
EX_RCIVIL
 70
     0
 10
0.0
 20
0.0
 30
0.0
  3
EX_RCIVIL
  1

  0
LINE
  5
82
330
55
100
AcDbEntity
  8
0
  6
CONTINUOUS
 62
     0
100
AcDbLine
 10
0.0
 20
0.0
 30
0.0
 11
-1.0
 21
0.0
 31
0.0
  0
LINE
  5
83
330
55
100
AcDbEntity
  8
0
  6
CONTINUOUS
 62
     0
100
AcDbLine
 10
-1.0
 20
-0.25
 30
0.0
 11
0.0
 21
-0.25
 31
0.0
  0
LINE
  5
84
330
55
100
AcDbEntity
  8
0
  6
CONTINUOUS
 62
     0
100
AcDbLine
 10
-1.0
 20
-0.125
 30
0.0
 11
0.0
 21
-0.125
 31
0.0
  0
ENDBLK
  5
57
330
55
100
AcDbEntity
  8
0
100
AcDbBlockEnd
  0
BLOCK
  5
59
330
58
100
AcDbEntity
  8
0
100
AcDbBlockBegin
  2
EX_SLANT
 70
     0
 10
0.0
 20
0.0
 30
0.0
  3
EX_SLANT
  1

  0
LINE
  5
85
330
58
100
AcDbEntity
  8
0
  6
CONTINUOUS
 62
     0
100
AcDbLine
 10
0.0
 20
0.0
 30
0.0
 11
-1.0
 21
0.0
 31
0.0
  0
LINE
  5
86
330
58
100
AcDbEntity
  8
0
  6
CONTINUOUS
 62
     0
100
AcDbLine
 10
0.707106781
 20
0.707106781
 30
0.0
 11
-0.707106781
 21
-0.707106781
 31
0.0
  0
ENDBLK
  5
5A
330
58
100
AcDbEntity
  8
0
100
AcDbBlockEnd
  0
BLOCK
  5
5C
330
5B
100
AcDbEntity
  8
0
100
AcDbBlockBegin
  2
EX_NONE
 70
     0
 10
0.0
 20
0.0
 30
0.0
  3
EX_NONE
  1

  0
LINE
  5
87
330
5B
100
AcDbEntity
  8
0
  6
CONTINUOUS
 62
     0
100
AcDbLine
 10
0.0
 20
0.0
 30
0.0
 11
-1.0
 21
0.0
 31
0.0
  0
ENDBLK
  5
5D
330
5B
100
AcDbEntity
  8
0
100
AcDbBlockEnd
  0
BLOCK
  5
5F
330
5E
100
AcDbEntity
  8
0
100
AcDbBlockBegin
  2
EX_CIVIL
 70
     0
 10
0.0
 20
0.0
 30
0.0
  3
EX_CIVIL
  1

  0
LINE
  5
88
330
5E
100
AcDbEntity
  8
0
  6
CONTINUOUS
 62
     0
100
AcDbLine
 10
0.0
 20
0.0
 30
0.0
 11
-1.0
 21
0.0
 31
0.0
  0
LINE
  5
89
330
5E
100
AcDbEntity
  8
0
  6
CONTINUOUS
 62
     0
100
AcDbLine
 10
-1.0
 20
0.25
 30
0.0
 11
0.0
 21
0.25
 31
0.0
  0
LINE
  5
8A
330
5E
100
AcDbEntity
  8
0
  6
CONTINUOUS
 62
     0
100
AcDbLine
 10
-1.0
 20
0.125
 30
0.0
 11
0.0
 21
0.125
 31
0.0
  0
ENDBLK
  5
60
330
5E
100
AcDbEntity
  8
0
100
AcDbBlockEnd
  0
BLOCK
  5
62
330
61
100
AcDbEntity
  8
0
100
AcDbBlockBegin
  2
EX_WCIR
 70
     0
 10
0.0
 20
0.0
 30
0.0
  3
EX_WCIR
  1

  0
LINE
  5
8B
330
61
100
AcDbEntity
  8
0
  6
CONTINUOUS
 62
     0
100
AcDbLine
 10
0.0
 20
0.0
 30
0.0
 11
-1.0
 21
0.0
 31
0.0
  0
CIRCLE
  5
8C
330
61
100
AcDbEntity
  8
0
  6
CONTINUOUS
 62
     0
100
AcDbCircle
 10
0.0
 20
0.0
 30
0.0
 40
0.5
  0
ENDBLK
  5
63
330
61
100
AcDbEntity
  8
0
100
AcDbBlockEnd
  0
BLOCK
  5
65
330
64
100
AcDbEntity
  8
0
100
AcDbBlockBegin
  2
EX_WCIR2
 70
     0
 10
0.0
 20
0.0
 30
0.0
  3
EX_WCIR2
  1

  0
LINE
  5
8D
330
64
100
AcDbEntity
  8
0
  6
CONTINUOUS
 62
     0
100
AcDbLine
 10
-0.5
 20
0.0
 30
0.0
 11
-1.0
 21
0.0
 31
0.0
  0
CIRCLE
  5
8E
330
64
100
AcDbEntity
  8
0
  6
CONTINUOUS
 62
     0
100
AcDbCircle
 10
0.0
 20
0.0
 30
0.0
 40
0.5
  0
ENDBLK
  5
66
330
64
100
AcDbEntity
  8
0
100
AcDbBlockEnd
  0
BLOCK
  5
68
330
67
100
AcDbEntity
  8
0
100
AcDbBlockBegin
  2
EX_WNORM
 70
     0
 10
0.0
 20
0.0
 30
0.0
  3
EX_WNORM
  1

  0
LINE
  5
8F
330
67
100
AcDbEntity
  8
0
  6
CONTINUOUS
 62
     0
100
AcDbLine
 10
-1.0
 20
0.0
 30
0.0
 11
-1.0
 21
0.0
 31
0.0
  0
LINE
  5
90
330
67
100
AcDbEntity
  8
0
  6
CONTINUOUS
 62
     0
100
AcDbLine
 10
0.0
 20
0.0
 30
0.0
 11
-1.0
 21
0.166666667
 31
0.0
  0
LINE
  5
91
330
67
100
AcDbEntity
  8
0
  6
CONTINUOUS
 62
     0
100
AcDbLine
 10
0.0
 20
0.0
 30
0.0
 11
-1.0
 21
-0.166666667
 31
0.0
  0
LINE
  5
92
330
67
100
AcDbEntity
  8
0
  6
CONTINUOUS
 62
     0
100
AcDbLine
 10
-1.0
 20
0.166666667
 30
0.0
 11
-1.0
 21
-0.166666667
 31
0.0
  0
ENDBLK
  5
69
330
67
100
AcDbEntity
  8
0
100
AcDbBlockEnd
  0
BLOCK
  5
6B
330
6A
100
AcDbEntity
  8
0
100
AcDbBlockBegin
  2
EX_NNORM
 70
     0
 10
0.0
 20
0.0
 30
0.0
  3
EX_NNORM
  1

  0
LINE
  5
93
330
6A
100
AcDbEntity
  8
0
  6
CONTINUOUS
 62
     0
100
AcDbLine
 10
0.0
 20
0.0
 30
0.0
 11
-1.0
 21
0.0
 31
0.0
  0
LINE
  5
94
330
6A
100
AcDbEntity
  8
0
  6
CONTINUOUS
 62
     0
100
AcDbLine
 10
0.0
 20
0.0
 30
0.0
 11
-1.0
 21
0.166666667
 31
0.0
  0
LINE
  5
95
330
6A
100
AcDbEntity
  8
0
  6
CONTINUOUS
 62
     0
100
AcDbLine
 10
0.0
 20
0.0
 30
0.0
 11
-1.0
 21
-0.166666667
 31
0.0
  0
LINE
  5
96
330
6A
100
AcDbEntity
  8
0
  6
CONTINUOUS
 62
     0
100
AcDbLine
 10
-1.0
 20
0.166666667
 30
0.0
 11
-1.0
 21
-0.166666667
 31
0.0
  0
ENDBLK
  5
6C
330
6A
100
AcDbEntity
  8
0
100
AcDbBlockEnd
  0
BLOCK
  5
6E
330
6D
100
AcDbEntity
  8
0
100
AcDbBlockBegin
  2
EX_BBOX
 70
     0
 10
0.0
 20
0.0
 30
0.0
  3
EX_BBOX
  1

  0
LINE
  5
97
330
6D
100
AcDbEntity
  8
0
  6
CONTINUOUS
 62
     0
100
AcDbLine
 10
0.0
 20
0.0
 30
0.0
 11
-1.0
 21
0.0
 31
0.0
  0
LINE
  5
98
330
6D
100
AcDbEntity
  8
0
  6
CONTINUOUS
 62
     0
100
AcDbLine
 10
-0.5
 20
0.5
 30
0.0
 11
0.5
 21
0.5
 31
0.0
  0
LINE
  5
99
330
6D
100
AcDbEntity
  8
0
  6
CONTINUOUS
 62
     0
100
AcDbLine
 10
0.5
 20
0.5
 30
0.0
 11
0.5
 21
-0.5
 31
0.0
  0
LINE
  5
9A
330
6D
100
AcDbEntity
  8
0
  6
CONTINUOUS
 62
     0
100
AcDbLine
 10
0.5
 20
-0.5
 30
0.0
 11
-0.5
 21
-0.5
 31
0.0
  0
LINE
  5
9B
330
6D
100
AcDbEntity
  8
0
  6
CONTINUOUS
 62
     0
100
AcDbLine
 10
-0.5
 20
-0.5
 30
0.0
 11
-0.5
 21
0.5
 31
0.0
  0
LINE
  5
9C
330
6D
100
AcDbEntity
  8
0
  6
CONTINUOUS
 62
     0
100
AcDbLine
 10
-0.25
 20
0.25
 30
0.0
 11
0.25
 21
0.25
 31
0.0
  0
LINE
  5
9D
330
6D
100
AcDbEntity
  8
0
  6
CONTINUOUS
 62
     0
100
AcDbLine
 10
0.25
 20
0.25
 30
0.0
 11
0.25
 21
-0.25
 31
0.0
  0
LINE
  5
9E
330
6D
100
AcDbEntity
  8
0
  6
CONTINUOUS
 62
     0
100
AcDbLine
 10
0.25
 20
-0.25
 30
0.0
 11
-0.25
 21
-0.25
 31
0.0
  0
LINE
  5
9F
330
6D
100
AcDbEntity
  8
0
  6
CONTINUOUS
 62
     0
100
AcDbLine
 10
-0.25
 20
-0.25
 30
0.0
 11
-0.25
 21
0.25
 31
0.0
  0
ENDBLK
  5
6F
330
6D
100
AcDbEntity
  8
0
100
AcDbBlockEnd
  0
BLOCK
  5
71
330
70
100
AcDbEntity
  8
0
100
AcDbBlockBegin
  2
EX_WBOX
 70
     0
 10
0.0
 20
0.0
 30
0.0
  3
EX_WBOX
  1

  0
LINE
  5
A0
330
70
100
AcDbEntity
  8
0
  6
CONTINUOUS
 62
     0
100
AcDbLine
 10
-0.5
 20
0.0
 30
0.0
 11
-1.0
 21
0.0
 31
0.0
  0
LINE
  5
A1
330
70
100
AcDbEntity
  8
0
  6
CONTINUOUS
 62
     0
100
AcDbLine
 10
-0.5
 20
0.5
 30
0.0
 11
0.5
 21
0.5
 31
0.0
  0
LINE
  5
A2
330
70
100
AcDbEntity
  8
0
  6
CONTINUOUS
 62
     0
100
AcDbLine
 10
0.5
 20
0.5
 30
0.0
 11
0.5
 21
-0.5
 31
0.0
  0
LINE
  5
A3
330
70
100
AcDbEntity
  8
0
  6
CONTINUOUS
 62
     0
100
AcDbLine
 10
0.5
 20
-0.5
 30
0.0
 11
-0.5
 21
-0.5
 31
0.0
  0
LINE
  5
A4
330
70
100
AcDbEntity
  8
0
  6
CONTINUOUS
 62
     0
100
AcDbLine
 10
-0.5
 20
-0.5
 30
0.0
 11
-0.5
 21
0.5
 31
0.0
  0
ENDBLK
  5
72
330
70
100
AcDbEntity
  8
0
100
AcDbBlockEnd
  0
BLOCK
  5
74
330
73
100
AcDbEntity
  8
0
100
AcDbBlockBegin
  2
EX_INTEGRAL
 70
     0
 10
0.0
 20
0.0
 30
0.0
  3
EX_INTEGRAL
  1

  0
LINE
  5
A5
330
73
100
AcDbEntity
  8
0
  6
CONTINUOUS
 62
     0
100
AcDbLine
 10
0.0
 20
0.0
 30
0.0
 11
-1.0
 21
0.0
 31
0.0
  0
ARC
  5
A6
330
73
100
AcDbEntity
  8
0
  6
CONTINUOUS
 62
     0
100
AcDbCircle
 10
0.542115
 20
0.164992
 30
0.0
 40
0.56667
100
AcDbArc
 50
73.07249033629006
 51
196.9275130221199
  0
ARC
  5
A7
330
73
100
AcDbEntity
  8
0
  6
CONTINUOUS
 62
     0
100
AcDbCircle
 10
-0.542115
 20
-0.164992
 30
0.0
 40
0.56667
100
AcDbArc
 50
253.0724869220464
 51
16.9275130559125
  0
ENDBLK
  5
75
330
73
100
AcDbEntity
  8
0
100
AcDbBlockEnd
  0
BLOCK
  5
310
330
30F
100
AcDbEntity
  8
0
100
AcDbBlockBegin
  2
*D15
 70
     1
 10
0.0
 20
0.0
 30
0.0
  3
*D15
  1

  0
LINE
  5
312
330
30F
100
AcDbEntity
  8
寸法
  6
CONTINUOUS
 62
     3
100
AcDbLine
 10
629.3397807924779
 20
671.8318241192992
 30
0.0
 11
629.3397807924779
 21
598.60000000009
 31
0.0
  0
LINE
  5
313
330
30F
100
AcDbEntity
  8
寸法
  6
CONTINUOUS
 62
     3
100
AcDbLine
 10
668.339780792478
 20
671.8318241192992
 30
0.0
 11
668.339780792478
 21
598.60000000009
 31
0.0
  0
LINE
  5
314
330
30F
100
AcDbEntity
  8
寸法
  6
CONTINUOUS
 62
     3
100
AcDbLine
 10
629.3397807924779
 20
618.60000000009
 30
0.0
 11
668.339780792478
 21
618.60000000009
 31
0.0
  0
LINE
  5
315
330
30F
100
AcDbEntity
  8
寸法
  6
CONTINUOUS
 62
     3
100
AcDbLine
 10
594.3397807924779
 20
618.60000000009
 30
0.0
 11
559.3397807924779
 21
618.60000000009
 31
0.0
  0
LINE
  5
316
330
30F
100
AcDbEntity
  8
寸法
  6
CONTINUOUS
 62
     3
100
AcDbLine
 10
703.339780792478
 20
618.60000000009
 30
0.0
 11
738.339780792478
 21
618.60000000009
 31
0.0
  0
INSERT
  5
317
330
30F
100
AcDbEntity
  8
寸法
 62
     3
100
AcDbBlockReference
  2
EX_NORM
 10
629.3397807924779
 20
618.60000000009
 30
0.0
 41
35.0
 42
35.0
 43
35.0
  0
INSERT
  5
318
330
30F
100
AcDbEntity
  8
寸法
 62
     3
100
AcDbBlockReference
  2
EX_NORM
 10
668.339780792478
 20
618.60000000009
 30
0.0
 41
35.0
 42
35.0
 43
35.0
 50
180.0
  0
MTEXT
  5
319
330
30F
100
AcDbEntity
  8
寸法
 62
     2
100
AcDbMText
 10
738.339780792478
 20
642.0999999404853
 30
0.0
 40
40.0
 41
0.0
 71
     5
 72
     1
  1
39
  7
EXCADDIM1
  0
POINT
  5
31A
330
30F
100
AcDbEntity
  8
DEFPOINTS
 62
     0
100
AcDbPoint
 10
629.3397807924779
 20
678.8318240000899
 30
0.0
  0
POINT
  5
31B
330
30F
100
AcDbEntity
  8
DEFPOINTS
 62
     0
100
AcDbPoint
 10
668.339780792478
 20
678.8318240000899
 30
0.0
  0
POINT
  5
31C
330
30F
100
AcDbEntity
  8
DEFPOINTS
 62
     0
100
AcDbPoint
 10
668.339780792478
 20
618.60000000009
 30
0.0
  0
ENDBLK
  5
311
330
30F
100
AcDbEntity
  8
0
100
AcDbBlockEnd
  0
BLOCK
  5
320
330
31F
100
AcDbEntity
  8
0
100
AcDbBlockBegin
  2
*D16
 70
     1
 10
0.0
 20
0.0
 30
0.0
  3
*D16
  1

  0
LINE
  5
322
330
31F
100
AcDbEntity
  8
寸法
  6
CONTINUOUS
 62
     3
100
AcDbLine
 10
586.3397807924781
 20
1670.6384843836
 30
0.0
 11
586.3397807924781
 21
1661.331824
 31
0.0
  0
LINE
  5
323
330
31F
100
AcDbEntity
  8
寸法
  6
CONTINUOUS
 62
     3
100
AcDbLine
 10
711.3397807924779
 20
1670.6384843836
 30
0.0
 11
711.3397807924779
 21
1661.331824
 31
0.0
  0
LINE
  5
324
330
31F
100
AcDbEntity
  8
寸法
  6
CONTINUOUS
 62
     3
100
AcDbLine
 10
621.3397807924781
 20
1661.331824
 30
0.0
 11
676.3397807924779
 21
1661.331824
 31
0.0
  0
INSERT
  5
325
330
31F
100
AcDbEntity
  8
寸法
 62
     3
100
AcDbBlockReference
  2
EX_NORM
 10
586.3397807924781
 20
1661.331824
 30
0.0
 41
35.0
 42
35.0
 43
35.0
 50
180.0
  0
INSERT
  5
326
330
31F
100
AcDbEntity
  8
寸法
 62
     3
100
AcDbBlockReference
  2
EX_NORM
 10
711.3397807924779
 20
1661.331824
 30
0.0
 41
35.0
 42
35.0
 43
35.0
  0
MTEXT
  5
327
330
31F
100
AcDbEntity
  8
寸法
 62
     2
100
AcDbMText
 10
648.8397807924782
 20
1684.831823940395
 30
0.0
 40
40.0
 41
0.0
 71
     5
 72
     1
  1
125
  7
EXCADDIM1
  0
POINT
  5
328
330
31F
100
AcDbEntity
  8
DEFPOINTS
 62
     0
100
AcDbPoint
 10
586.3397807924781
 20
1670.6384843836
 30
0.0
  0
POINT
  5
329
330
31F
100
AcDbEntity
  8
DEFPOINTS
 62
     0
100
AcDbPoint
 10
711.3397807924779
 20
1670.6384843836
 30
0.0
  0
POINT
  5
32A
330
31F
100
AcDbEntity
  8
DEFPOINTS
 62
     0
100
AcDbPoint
 10
711.3397807924779
 20
1661.331824
 30
0.0
  0
ENDBLK
  5
321
330
31F
100
AcDbEntity
  8
0
100
AcDbBlockEnd
  0
BLOCK
  5
32D
330
32C
100
AcDbEntity
  8
0
100
AcDbBlockBegin
  2
*D17
 70
     1
 10
0.0
 20
0.0
 30
0.0
  3
*D17
  1

  0
LINE
  5
32F
330
32C
100
AcDbEntity
  8
寸法
  6
CONTINUOUS
 62
     3
100
AcDbLine
 10
737.0102891044622
 20
921.3318240000001
 30
0.0
 11
1068.839780792478
 21
921.3318240000001
 31
0.0
  0
LINE
  5
330
330
32C
100
AcDbEntity
  8
寸法
  6
CONTINUOUS
 62
     3
100
AcDbLine
 10
661.1042506544624
 20
1601.331824
 30
0.0
 11
1068.839780792478
 21
1601.331824
 31
0.0
  0
LINE
  5
331
330
32C
100
AcDbEntity
  8
寸法
  6
CONTINUOUS
 62
     3
100
AcDbLine
 10
1048.839780792478
 20
956.3318240000001
 30
0.0
 11
1048.839780792478
 21
1566.331824
 31
0.0
  0
INSERT
  5
332
330
32C
100
AcDbEntity
  8
寸法
 62
     3
100
AcDbBlockReference
  2
EX_NORM
 10
1048.839780792478
 20
921.3318240000001
 30
0.0
 41
35.0
 42
35.0
 43
35.0
 50
270.0
  0
INSERT
  5
333
330
32C
100
AcDbEntity
  8
寸法
 62
     3
100
AcDbBlockReference
  2
EX_NORM
 10
1048.839780792478
 20
1601.331824
 30
0.0
 41
35.0
 42
35.0
 43
35.0
 50
90.0
  0
MTEXT
  5
334
330
32C
100
AcDbEntity
  8
寸法
 62
     2
100
AcDbMText
 10
1025.339780852083
 20
1261.331824
 30
0.0
 40
40.0
 41
0.0
 71
     5
 72
     1
  1
680
  7
EXCADDIM1
 11
0.0
 21
1.0
 31
0.0
  0
POINT
  5
335
330
32C
100
AcDbEntity
  8
DEFPOINTS
 62
     0
100
AcDbPoint
 10
724.745819242478
 20
921.3318240000001
 30
0.0
  0
POINT
  5
336
330
32C
100
AcDbEntity
  8
DEFPOINTS
 62
     0
100
AcDbPoint
 10
648.8397807924781
 20
1601.331824
 30
0.0
  0
POINT
  5
337
330
32C
100
AcDbEntity
  8
DEFPOINTS
 62
     0
100
AcDbPoint
 10
1048.839780792478
 20
1601.331824
 30
0.0
  0
ENDBLK
  5
32E
330
32C
100
AcDbEntity
  8
0
100
AcDbBlockEnd
  0
BLOCK
  5
33A
330
339
100
AcDbEntity
  8
0
100
AcDbBlockBegin
  2
*D18
 70
     1
 10
0.0
 20
0.0
 30
0.0
  3
*D18
  1

  0
LINE
  5
33C
330
339
100
AcDbEntity
  8
寸法
  6
CONTINUOUS
 62
     3
100
AcDbLine
 10
735.310293092478
 20
1586.331824
 30
0.0
 11
968.8397807924779
 21
1586.331824
 31
0.0
  0
LINE
  5
33D
330
339
100
AcDbEntity
  8
寸法
  6
CONTINUOUS
 62
     3
100
AcDbLine
 10
968.8397807924779
 20
1586.331824
 30
0.0
 11
968.8397807924779
 21
1601.331824
 31
0.0
  0
LINE
  5
33E
330
339
100
AcDbEntity
  8
寸法
  6
CONTINUOUS
 62
     3
100
AcDbLine
 10
968.8397807924779
 20
1551.331824
 30
0.0
 11
968.8397807924779
 21
1516.331824
 31
0.0
  0
LINE
  5
33F
330
339
100
AcDbEntity
  8
寸法
  6
CONTINUOUS
 62
     3
100
AcDbLine
 10
968.8397807924779
 20
1636.331824
 30
0.0
 11
968.8397807924779
 21
1671.331824
 31
0.0
  0
INSERT
  5
340
330
339
100
AcDbEntity
  8
寸法
 62
     3
100
AcDbBlockReference
  2
EX_NONE
 10
968.8397807924779
 20
1586.331824
 30
0.0
 41
35.0
 42
35.0
 43
35.0
 50
90.0
  0
INSERT
  5
341
330
339
100
AcDbEntity
  8
寸法
 62
     3
100
AcDbBlockReference
  2
EX_NORM
 10
968.8397807924779
 20
1601.331824
 30
0.0
 41
35.0
 42
35.0
 43
35.0
 50
270.0
  0
MTEXT
  5
342
330
339
100
AcDbEntity
  8
寸法
 62
     2
100
AcDbMText
 10
945.3397808520831
 20
1671.331824
 30
0.0
 40
40.0
 41
0.0
 71
     5
 72
     1
  1
15
  7
EXCADDIM1
 11
0.0
 21
1.0
 31
0.0
  0
POINT
  5
343
330
339
100
AcDbEntity
  8
DEFPOINTS
 62
     0
100
AcDbPoint
 10
735.310293092478
 20
1586.331824
 30
0.0
  0
POINT
  5
344
330
339
100
AcDbEntity
  8
DEFPOINTS
 62
     0
100
AcDbPoint
 10
648.8397807924781
 20
1601.331824
 30
0.0
  0
POINT
  5
345
330
339
100
AcDbEntity
  8
DEFPOINTS
 62
     0
100
AcDbPoint
 10
968.8397807924779
 20
1601.331824
 30
0.0
  0
ENDBLK
  5
33B
330
339
100
AcDbEntity
  8
0
100
AcDbBlockEnd
  0
BLOCK
  5
348
330
347
100
AcDbEntity
  8
0
100
AcDbBlockBegin
  2
*D19
 70
     1
 10
0.0
 20
0.0
 30
0.0
  3
*D19
  1

  0
LINE
  5
34A
330
347
100
AcDbEntity
  8
寸法
  6
CONTINUOUS
 62
     3
100
AcDbLine
 10
968.8397807924781
 20
921.331824
 30
0.0
 11
968.8397807924781
 21
936.331824
 31
0.0
  0
LINE
  5
34B
330
347
100
AcDbEntity
  8
寸法
  6
CONTINUOUS
 62
     3
100
AcDbLine
 10
968.8397807924781
 20
886.331824
 30
0.0
 11
968.8397807924781
 21
851.331824
 31
0.0
  0
LINE
  5
34C
330
347
100
AcDbEntity
  8
寸法
  6
CONTINUOUS
 62
     3
100
AcDbLine
 10
968.8397807924781
 20
971.331824
 30
0.0
 11
968.8397807924781
 21
1006.331824
 31
0.0
  0
INSERT
  5
34D
330
347
100
AcDbEntity
  8
寸法
 62
     3
100
AcDbBlockReference
  2
EX_NORM
 10
968.8397807924781
 20
921.331824
 30
0.0
 41
35.0
 42
35.0
 43
35.0
 50
90.0
  0
INSERT
  5
34E
330
347
100
AcDbEntity
  8
寸法
 62
     3
100
AcDbBlockReference
  2
EX_NONE
 10
968.8397807924781
 20
936.331824
 30
0.0
 41
35.0
 42
35.0
 43
35.0
 50
270.0
  0
MTEXT
  5
34F
330
347
100
AcDbEntity
  8
寸法
 62
     2
100
AcDbMText
 10
945.3397808520829
 20
851.3318239999999
 30
0.0
 40
40.0
 41
0.0
 71
     5
 72
     1
  1
15
  7
EXCADDIM1
 11
0.0
 21
1.0
 31
0.0
  0
POINT
  5
350
330
347
100
AcDbEntity
  8
DEFPOINTS
 62
     0
100
AcDbPoint
 10
724.745819242478
 20
921.3318240000001
 30
0.0
  0
POINT
  5
351
330
347
100
AcDbEntity
  8
DEFPOINTS
 62
     0
100
AcDbPoint
 10
733.9372695513579
 20
936.3318240000001
 30
0.0
  0
POINT
  5
352
330
347
100
AcDbEntity
  8
DEFPOINTS
 62
     0
100
AcDbPoint
 10
968.8397807924781
 20
936.331824
 30
0.0
  0
ENDBLK
  5
349
330
347
100
AcDbEntity
  8
0
100
AcDbBlockEnd
  0
BLOCK
  5
355
330
354
100
AcDbEntity
  8
0
100
AcDbBlockBegin
  2
*D20
 70
     1
 10
0.0
 20
0.0
 30
0.0
  3
*D20
  1

  0
LINE
  5
357
330
354
100
AcDbEntity
  8
寸法
  6
CONTINUOUS
 62
     3
100
AcDbLine
 10
733.9372695513579
 20
936.3318240000001
 30
0.0
 11
988.8397807924781
 21
936.3318240000001
 31
0.0
  0
LINE
  5
358
330
354
100
AcDbEntity
  8
寸法
  6
CONTINUOUS
 62
     3
100
AcDbLine
 10
968.8397807924781
 20
971.3318240000001
 30
0.0
 11
968.8397807924781
 21
1551.331824
 31
0.0
  0
INSERT
  5
359
330
354
100
AcDbEntity
  8
寸法
 62
     3
100
AcDbBlockReference
  2
EX_NORM
 10
968.8397807924781
 20
936.3318240000001
 30
0.0
 41
35.0
 42
35.0
 43
35.0
 50
270.0
  0
INSERT
  5
35A
330
354
100
AcDbEntity
  8
寸法
 62
     3
100
AcDbBlockReference
  2
EX_NORM
 10
968.8397807924781
 20
1586.331824
 30
0.0
 41
35.0
 42
35.0
 43
35.0
 50
90.0
  0
MTEXT
  5
35B
330
354
100
AcDbEntity
  8
寸法
 62
     2
100
AcDbMText
 10
945.3397808520829
 20
1261.331824
 30
0.0
 40
40.0
 41
0.0
 71
     5
 72
     1
  1
650
  7
EXCADDIM1
 11
0.0
 21
1.0
 31
0.0
  0
POINT
  5
35C
330
354
100
AcDbEntity
  8
DEFPOINTS
 62
     0
100
AcDbPoint
 10
733.9372695513579
 20
936.3318240000001
 30
0.0
  0
POINT
  5
35D
330
354
100
AcDbEntity
  8
DEFPOINTS
 62
     0
100
AcDbPoint
 10
735.310293092478
 20
1586.331824
 30
0.0
  0
POINT
  5
35E
330
354
100
AcDbEntity
  8
DEFPOINTS
 62
     0
100
AcDbPoint
 10
968.8397807924781
 20
1586.331824
 30
0.0
  0
ENDBLK
  5
356
330
354
100
AcDbEntity
  8
0
100
AcDbBlockEnd
  0
BLOCK
  5
367
330
366
100
AcDbEntity
  8
0
100
AcDbBlockBegin
  2
*D21
 70
     1
 10
0.0
 20
0.0
 30
0.0
  3
*D21
  1

  0
LINE
  5
369
330
366
100
AcDbEntity
  8
寸法
  6
CONTINUOUS
 62
     3
100
AcDbLine
 10
670.6102900354892
 20
891.3318240000001
 30
0.0
 11
908.8397807924778
 21
891.3318240000001
 31
0.0
  0
LINE
  5
36A
330
366
100
AcDbEntity
  8
寸法
  6
CONTINUOUS
 62
     3
100
AcDbLine
 10
888.8397807924778
 20
921.3318240000001
 30
0.0
 11
888.8397807924778
 21
891.3318240000001
 31
0.0
  0
LINE
  5
36B
330
366
100
AcDbEntity
  8
寸法
  6
CONTINUOUS
 62
     3
100
AcDbLine
 10
888.8397807924778
 20
956.3318240000001
 30
0.0
 11
888.8397807924778
 21
991.3318240000001
 31
0.0
  0
LINE
  5
36C
330
366
100
AcDbEntity
  8
寸法
  6
CONTINUOUS
 62
     3
100
AcDbLine
 10
888.8397807924778
 20
856.3318240000001
 30
0.0
 11
888.8397807924778
 21
821.3318240000001
 31
0.0
  0
INSERT
  5
36D
330
366
100
AcDbEntity
  8
寸法
 62
     3
100
AcDbBlockReference
  2
EX_NORM
 10
888.8397807924778
 20
921.3318240000001
 30
0.0
 41
35.0
 42
35.0
 43
35.0
 50
270.0
  0
INSERT
  5
36E
330
366
100
AcDbEntity
  8
寸法
 62
     3
100
AcDbBlockReference
  2
EX_NORM
 10
888.8397807924778
 20
891.3318240000001
 30
0.0
 41
35.0
 42
35.0
 43
35.0
 50
90.0
  0
MTEXT
  5
36F
330
366
100
AcDbEntity
  8
寸法
 62
     2
100
AcDbMText
 10
865.3397808520825
 20
821.3318239999999
 30
0.0
 40
40.0
 41
0.0
 71
     5
 72
     1
  1
30
  7
EXCADDIM1
 11
0.0
 21
1.0
 31
0.0
  0
POINT
  5
370
330
366
100
AcDbEntity
  8
DEFPOINTS
 62
     0
100
AcDbPoint
 10
572.9337423924778
 20
921.3318240000001
 30
0.0
  0
POINT
  5
371
330
366
100
AcDbEntity
  8
DEFPOINTS
 62
     0
100
AcDbPoint
 10
632.3397807924778
 20
891.3318240000001
 30
0.0
  0
POINT
  5
372
330
366
100
AcDbEntity
  8
DEFPOINTS
 62
     0
100
AcDbPoint
 10
888.8397807924778
 20
891.3318240000001
 30
0.0
  0
ENDBLK
  5
368
330
366
100
AcDbEntity
  8
0
100
AcDbBlockEnd
  0
BLOCK
  5
375
330
374
100
AcDbEntity
  8
0
100
AcDbBlockBegin
  2
*D22
 70
     1
 10
0.0
 20
0.0
 30
0.0
  3
*D22
  1

  0
LINE
  5
377
330
374
100
AcDbEntity
  8
寸法
  6
CONTINUOUS
 62
     3
100
AcDbLine
 10
583.8397807924781
 20
917.4000000953674
 30
0.0
 11
583.8397807924781
 21
800.0
 31
0.0
  0
LINE
  5
378
330
374
100
AcDbEntity
  8
寸法
  6
CONTINUOUS
 62
     3
100
AcDbLine
 10
713.8397807924779
 20
917.4000000953674
 30
0.0
 11
713.8397807924779
 21
800.0
 31
0.0
  0
LINE
  5
379
330
374
100
AcDbEntity
  8
寸法
  6
CONTINUOUS
 62
     3
100
AcDbLine
 10
618.8397807924781
 20
820.0
 30
0.0
 11
678.8397807924779
 21
820.0
 31
0.0
  0
INSERT
  5
37A
330
374
100
AcDbEntity
  8
寸法
 62
     3
100
AcDbBlockReference
  2
EX_NORM
 10
583.8397807924781
 20
820.0
 30
0.0
 41
35.0
 42
35.0
 43
35.0
 50
180.0
  0
INSERT
  5
37B
330
374
100
AcDbEntity
  8
寸法
 62
     3
100
AcDbBlockReference
  2
EX_NORM
 10
713.8397807924779
 20
820.0
 30
0.0
 41
35.0
 42
35.0
 43
35.0
  0
MTEXT
  5
37C
330
374
100
AcDbEntity
  8
寸法
 62
     2
100
AcDbMText
 10
792.0102930924778
 20
843.4999999999999
 30
0.0
 40
40.0
 41
0.0
 71
     5
 72
     1
  1
130
  7
EXCADDIM1
  0
POINT
  5
37D
330
374
100
AcDbEntity
  8
DEFPOINTS
 62
     0
100
AcDbPoint
 10
583.8397807924781
 20
920.0
 30
0.0
  0
POINT
  5
37E
330
374
100
AcDbEntity
  8
DEFPOINTS
 62
     0
100
AcDbPoint
 10
713.8397807924779
 20
920.0
 30
0.0
  0
POINT
  5
37F
330
374
100
AcDbEntity
  8
DEFPOINTS
 62
     0
100
AcDbPoint
 10
713.8397807924779
 20
820.0
 30
0.0
  0
ENDBLK
  5
376
330
374
100
AcDbEntity
  8
0
100
AcDbBlockEnd
  0
BLOCK
  5
382
330
381
100
AcDbEntity
  8
0
100
AcDbBlockBegin
  2
*D23
 70
     1
 10
0.0
 20
0.0
 30
0.0
  3
*D23
  1

  0
LINE
  5
384
330
381
100
AcDbEntity
  8
寸法
  6
CONTINUOUS
 62
     3
100
AcDbLine
 10
1710.8809547
 20
671.6000001192092
 30
0.0
 11
1710.8809547
 21
598.6
 31
0.0
  0
LINE
  5
385
330
381
100
AcDbEntity
  8
寸法
  6
CONTINUOUS
 62
     3
100
AcDbLine
 10
1770.8809547
 20
704.3318241192092
 30
0.0
 11
1770.8809547
 21
598.6
 31
0.0
  0
LINE
  5
386
330
381
100
AcDbEntity
  8
寸法
  6
CONTINUOUS
 62
     3
100
AcDbLine
 10
1710.8809547
 20
618.6
 30
0.0
 11
1770.8809547
 21
618.6
 31
0.0
  0
LINE
  5
387
330
381
100
AcDbEntity
  8
寸法
  6
CONTINUOUS
 62
     3
100
AcDbLine
 10
1675.8809547
 20
618.6
 30
0.0
 11
1640.8809547
 21
618.6
 31
0.0
  0
LINE
  5
388
330
381
100
AcDbEntity
  8
寸法
  6
CONTINUOUS
 62
     3
100
AcDbLine
 10
1805.8809547
 20
618.6
 30
0.0
 11
1840.8809547
 21
618.6
 31
0.0
  0
INSERT
  5
389
330
381
100
AcDbEntity
  8
寸法
 62
     3
100
AcDbBlockReference
  2
EX_NORM
 10
1710.8809547
 20
618.6
 30
0.0
 41
35.0
 42
35.0
 43
35.0
  0
INSERT
  5
38A
330
381
100
AcDbEntity
  8
寸法
 62
     3
100
AcDbBlockReference
  2
EX_NORM
 10
1770.8809547
 20
618.6
 30
0.0
 41
35.0
 42
35.0
 43
35.0
 50
180.0
  0
MTEXT
  5
38B
330
381
100
AcDbEntity
  8
寸法
 62
     2
100
AcDbMText
 10
1840.8809547
 20
642.0999999403955
 30
0.0
 40
40.0
 41
0.0
 71
     5
 72
     1
  1
60
  7
EXCADDIM1
  0
POINT
  5
38C
330
381
100
AcDbEntity
  8
DEFPOINTS
 62
     0
100
AcDbPoint
 10
1710.8809547
 20
678.5999999999999
 30
0.0
  0
POINT
  5
38D
330
381
100
AcDbEntity
  8
DEFPOINTS
 62
     0
100
AcDbPoint
 10
1770.8809547
 20
711.3318239999999
 30
0.0
  0
POINT
  5
38E
330
381
100
AcDbEntity
  8
DEFPOINTS
 62
     0
100
AcDbPoint
 10
1770.8809547
 20
618.6
 30
0.0
  0
ENDBLK
  5
383
330
381
100
AcDbEntity
  8
0
100
AcDbBlockEnd
  0
BLOCK
  5
391
330
390
100
AcDbEntity
  8
0
100
AcDbBlockBegin
  2
*D24
 70
     1
 10
0.0
 20
0.0
 30
0.0
  3
*D24
  1

  0
LINE
  5
393
330
390
100
AcDbEntity
  8
寸法
  6
CONTINUOUS
 62
     3
100
AcDbLine
 10
488.82948769964
 20
2426.658046219209
 30
0.0
 11
488.82948769964
 21
2048.6580461
 31
0.0
  0
LINE
  5
394
330
390
100
AcDbEntity
  8
寸法
  6
CONTINUOUS
 62
     3
100
AcDbLine
 10
808.82948770036
 20
2426.658046219209
 30
0.0
 11
808.82948770036
 21
2048.6580461
 31
0.0
  0
LINE
  5
395
330
390
100
AcDbEntity
  8
寸法
  6
CONTINUOUS
 62
     3
100
AcDbLine
 10
523.82948769964
 20
2068.6580461
 30
0.0
 11
773.82948770036
 21
2068.6580461
 31
0.0
  0
INSERT
  5
396
330
390
100
AcDbEntity
  8
寸法
 62
     3
100
AcDbBlockReference
  2
EX_NORM
 10
488.82948769964
 20
2068.6580461
 30
0.0
 41
35.0
 42
35.0
 43
35.0
 50
180.0
  0
INSERT
  5
397
330
390
100
AcDbEntity
  8
寸法
 62
     3
100
AcDbBlockReference
  2
EX_NORM
 10
808.82948770036
 20
2068.6580461
 30
0.0
 41
35.0
 42
35.0
 43
35.0
  0
MTEXT
  5
398
330
390
100
AcDbEntity
  8
寸法
 62
     2
100
AcDbMText
 10
648.8294877000002
 20
2092.158046040395
 30
0.0
 40
40.0
 41
0.0
 71
     5
 72
     1
  1
320
  7
EXCADDIM1
  0
POINT
  5
399
330
390
100
AcDbEntity
  8
DEFPOINTS
 62
     0
100
AcDbPoint
 10
488.82948769964
 20
2433.6580461
 30
0.0
  0
POINT
  5
39A
330
390
100
AcDbEntity
  8
DEFPOINTS
 62
     0
100
AcDbPoint
 10
808.82948770036
 20
2433.6580461
 30
0.0
  0
POINT
  5
39B
330
390
100
AcDbEntity
  8
DEFPOINTS
 62
     0
100
AcDbPoint
 10
808.82948770036
 20
2068.6580461
 30
0.0
  0
ENDBLK
  5
392
330
390
100
AcDbEntity
  8
0
100
AcDbBlockEnd
  0
BLOCK
  5
39E
330
39D
100
AcDbEntity
  8
0
100
AcDbBlockBegin
  2
*D25
 70
     1
 10
0.0
 20
0.0
 30
0.0
  3
*D25
  1

  0
LINE
  5
3A0
330
39D
100
AcDbEntity
  8
寸法
  6
CONTINUOUS
 62
     3
100
AcDbLine
 10
812.5873758579908
 20
2433.6580461
 30
0.0
 11
908.82948770036
 21
2433.6580461
 31
0.0
  0
LINE
  5
3A1
330
39D
100
AcDbEntity
  8
寸法
  6
CONTINUOUS
 62
     3
100
AcDbLine
 10
655.8294875807907
 20
2128.6580461
 30
0.0
 11
908.82948770036
 21
2128.6580461
 31
0.0
  0
LINE
  5
3A2
330
39D
100
AcDbEntity
  8
寸法
  6
CONTINUOUS
 62
     3
100
AcDbLine
 10
888.82948770036
 20
2398.6580461
 30
0.0
 11
888.82948770036
 21
2163.6580461
 31
0.0
  0
INSERT
  5
3A3
330
39D
100
AcDbEntity
  8
寸法
 62
     3
100
AcDbBlockReference
  2
EX_NORM
 10
888.82948770036
 20
2433.6580461
 30
0.0
 41
35.0
 42
35.0
 43
35.0
 50
90.0
  0
INSERT
  5
3A4
330
39D
100
AcDbEntity
  8
寸法
 62
     3
100
AcDbBlockReference
  2
EX_NORM
 10
888.82948770036
 20
2128.6580461
 30
0.0
 41
35.0
 42
35.0
 43
35.0
 50
270.0
  0
MTEXT
  5
3A5
330
39D
100
AcDbEntity
  8
寸法
 62
     2
100
AcDbMText
 10
865.3294877599649
 20
2281.1580461
 30
0.0
 40
40.0
 41
0.0
 71
     5
 72
     1
  1
305
  7
EXCADDIM1
 11
0.0
 21
1.0
 31
0.0
  0
POINT
  5
3A6
330
39D
100
AcDbEntity
  8
DEFPOINTS
 62
     0
100
AcDbPoint
 10
805.5873759772
 20
2433.6580461
 30
0.0
  0
POINT
  5
3A7
330
39D
100
AcDbEntity
  8
DEFPOINTS
 62
     0
100
AcDbPoint
 10
648.8294877
 20
2128.6580461
 30
0.0
  0
POINT
  5
3A8
330
39D
100
AcDbEntity
  8
DEFPOINTS
 62
     0
100
AcDbPoint
 10
888.82948770036
 20
2128.6580461
 30
0.0
  0
ENDBLK
  5
39F
330
39D
100
AcDbEntity
  8
0
100
AcDbBlockEnd
  0
BLOCK
  5
3AB
330
3AA
100
AcDbEntity
  8
0
100
AcDbBlockBegin
  2
*D26
 70
     1
 10
0.0
 20
0.0
 30
0.0
  3
*D26
  1

  0
LINE
  5
3AD
330
3AA
100
AcDbEntity
  8
寸法
  6
CONTINUOUS
 62
     3
100
AcDbLine
 10
1463.145618976009
 20
1041.2877496302
 30
0.0
 11
1320.0
 21
1041.2877496302
 31
0.0
  0
LINE
  5
3AE
330
3AA
100
AcDbEntity
  8
寸法
  6
CONTINUOUS
 62
     3
100
AcDbLine
 10
1340.0
 20
746.331824
 30
0.0
 11
1340.0
 21
1006.2877496302
 31
0.0
  0
INSERT
  5
3AF
330
3AA
100
AcDbEntity
  8
寸法
 62
     3
100
AcDbBlockReference
  2
EX_NORM
 10
1340.0
 20
711.331824
 30
0.0
 41
35.0
 42
35.0
 43
35.0
 50
270.0
  0
INSERT
  5
3B0
330
3AA
100
AcDbEntity
  8
寸法
 62
     3
100
AcDbBlockReference
  2
EX_NORM
 10
1340.0
 20
1041.2877496302
 30
0.0
 41
35.0
 42
35.0
 43
35.0
 50
90.0
  0
MTEXT
  5
3B1
330
3AA
100
AcDbEntity
  8
寸法
 62
     2
100
AcDbMText
 10
1316.500000059605
 20
876.3097868151001
 30
0.0
 40
40.0
 41
0.0
 71
     5
 72
     1
  1
330
  7
EXCADDIM1
 11
0.0
 21
1.0
 31
0.0
  0
POINT
  5
3B2
330
3AA
100
AcDbEntity
  8
DEFPOINTS
 62
     0
100
AcDbPoint
 10
1294.0
 20
711.3318239999999
 30
0.0
  0
POINT
  5
3B3
330
3AA
100
AcDbEntity
  8
DEFPOINTS
 62
     0
100
AcDbPoint
 10
1470.1456188568
 20
1041.2877496302
 30
0.0
  0
POINT
  5
3B4
330
3AA
100
AcDbEntity
  8
DEFPOINTS
 62
     0
100
AcDbPoint
 10
1340.0
 20
1041.2877496302
 30
0.0
  0
ENDBLK
  5
3AC
330
3AA
100
AcDbEntity
  8
0
100
AcDbBlockEnd
  0
BLOCK
  5
3B7
330
3B6
100
AcDbEntity
  8
0
100
AcDbBlockBegin
  2
*D27
 70
     1
 10
0.0
 20
0.0
 30
0.0
  3
*D27
  1

  0
LINE
  5
3B9
330
3B6
100
AcDbEntity
  8
寸法
  6
CONTINUOUS
 62
     3
100
AcDbLine
 10
1691.000004249103
 20
891.34211709257
 30
0.0
 11
1394.0
 21
891.34211709257
 31
0.0
  0
LINE
  5
3BA
330
3B6
100
AcDbEntity
  8
寸法
  6
CONTINUOUS
 62
     3
100
AcDbLine
 10
1414.0
 20
1006.2877496302
 30
0.0
 11
1414.0
 21
926.34211709257
 31
0.0
  0
INSERT
  5
3BB
330
3B6
100
AcDbEntity
  8
寸法
 62
     3
100
AcDbBlockReference
  2
EX_NORM
 10
1414.0
 20
1041.2877496302
 30
0.0
 41
35.0
 42
35.0
 43
35.0
 50
90.0
  0
INSERT
  5
3BC
330
3B6
100
AcDbEntity
  8
寸法
 62
     3
100
AcDbBlockReference
  2
EX_NORM
 10
1414.0
 20
891.34211709257
 30
0.0
 41
35.0
 42
35.0
 43
35.0
 50
270.0
  0
MTEXT
  5
3BD
330
3B6
100
AcDbEntity
  8
寸法
 62
     2
100
AcDbMText
 10
1390.500000059605
 20
966.314933361385
 30
0.0
 40
40.0
 41
0.0
 71
     5
 72
     1
  1
150
  7
EXCADDIM1
 11
0.0
 21
1.0
 31
0.0
  0
POINT
  5
3BE
330
3B6
100
AcDbEntity
  8
DEFPOINTS
 62
     0
100
AcDbPoint
 10
1470.1456188568
 20
1041.2877496302
 30
0.0
  0
POINT
  5
3BF
330
3B6
100
AcDbEntity
  8
DEFPOINTS
 62
     0
100
AcDbPoint
 10
1710.8809547
 20
891.34211709257
 30
0.0
  0
POINT
  5
3C0
330
3B6
100
AcDbEntity
  8
DEFPOINTS
 62
     0
100
AcDbPoint
 10
1414.0
 20
891.34211709257
 30
0.0
  0
ENDBLK
  5
3B8
330
3B6
100
AcDbEntity
  8
0
100
AcDbBlockEnd
  0
BLOCK
  5
3C3
330
3C2
100
AcDbEntity
  8
0
100
AcDbBlockBegin
  2
*D28
 70
     1
 10
0.0
 20
0.0
 30
0.0
  3
*D28
  1

  0
LINE
  5
3C5
330
3C2
100
AcDbEntity
  8
寸法
  6
CONTINUOUS
 62
     3
100
AcDbLine
 10
1755.300004439838
 20
1601.3421170926
 30
0.0
 11
1320.0
 21
1601.3421170926
 31
0.0
  0
LINE
  5
3C6
330
3C2
100
AcDbEntity
  8
寸法
  6
CONTINUOUS
 62
     3
100
AcDbLine
 10
1340.0
 20
1566.3421170926
 30
0.0
 11
1340.0
 21
1076.2877496302
 31
0.0
  0
INSERT
  5
3C7
330
3C2
100
AcDbEntity
  8
寸法
 62
     3
100
AcDbBlockReference
  2
EX_NORM
 10
1340.0
 20
1601.3421170926
 30
0.0
 41
35.0
 42
35.0
 43
35.0
 50
90.0
  0
INSERT
  5
3C8
330
3C2
100
AcDbEntity
  8
寸法
 62
     3
100
AcDbBlockReference
  2
EX_NORM
 10
1340.0
 20
1041.2877496302
 30
0.0
 41
35.0
 42
35.0
 43
35.0
 50
270.0
  0
MTEXT
  5
3C9
330
3C2
100
AcDbEntity
  8
寸法
 62
     2
100
AcDbMText
 10
1316.500000059605
 20
1321.3149333614
 30
0.0
 40
40.0
 41
0.0
 71
     5
 72
     1
  1
560
  7
EXCADDIM1
 11
0.0
 21
1.0
 31
0.0
  0
POINT
  5
3CA
330
3C2
100
AcDbEntity
  8
DEFPOINTS
 62
     0
100
AcDbPoint
 10
1767.8809547
 20
1601.3421170926
 30
0.0
  0
POINT
  5
3CB
330
3C2
100
AcDbEntity
  8
DEFPOINTS
 62
     0
100
AcDbPoint
 10
1340.0
 20
1041.2877496302
 30
0.0
  0
POINT
  5
3CC
330
3C2
100
AcDbEntity
  8
DEFPOINTS
 62
     0
100
AcDbPoint
 10
1340.0
 20
1041.2877496302
 30
0.0
  0
ENDBLK
  5
3C4
330
3C2
100
AcDbEntity
  8
0
100
AcDbBlockEnd
  0
ENDSEC
  0
SECTION
  2
ENTITIES
  0
TEXT
  5
A8
330
1F
100
AcDbEntity
  8
0
  6
CONTINUOUS
 62
     2
100
AcDbText
 10
1889.5371094
 20
282.7227783
 30
0.0
 40
30.0
  1
１
 41
1.101333333333329
  7
EXCADSTD
 72
     5
 11
1913.1371094
 21
282.7227783
 31
0.0
100
AcDbText
  0
TEXT
  5
A9
330
1F
100
AcDbEntity
  8
0
  6
CONTINUOUS
 62
     2
100
AcDbText
 10
1930.2792969
 20
238.3488464
 30
0.0
 40
30.0
  1
１０
 41
1.098531212121213
  7
EXCADSTD
 72
     5
 11
1982.0671969
 21
238.3488464
 31
0.0
100
AcDbText
  0
TEXT
  5
AA
330
1F
100
AcDbEntity
  8
0
  6
CONTINUOUS
 62
     2
100
AcDbText
 10
201.5000000000003
 20
288.75
 30
0.0
 40
42.5
  1
製図
 41
1.509694117647059
  7
EXCADSTD
 72
     5
 11
302.3260000000004
 21
288.75
 31
0.0
100
AcDbText
  0
TEXT
  5
AB
330
1F
100
AcDbEntity
  8
0
  6
CONTINUOUS
 62
     2
100
AcDbText
 10
356.5000000000003
 20
288.75
 30
0.0
 40
42.5
  1
写図
 41
1.509694117647059
  7
EXCADSTD
 72
     5
 11
457.3260000000004
 21
288.75
 31
0.0
100
AcDbText
  0
TEXT
  5
AC
330
1F
100
AcDbEntity
  8
0
  6
CONTINUOUS
 62
     2
100
AcDbText
 10
506.5000000000003
 20
288.75
 30
0.0
 40
42.5
  1
検図
 41
1.303826737967914
  7
EXCADSTD
 72
     5
 11
593.5770000000003
 21
288.75
 31
0.0
100
AcDbText
  0
TEXT
  5
AD
330
1F
100
AcDbEntity
  8
0
  6
CONTINUOUS
 62
     2
100
AcDbText
 10
636.5000000000003
 20
288.75
 30
0.0
 40
42.5
  1
承認
 41
1.303826737967914
  7
EXCADSTD
 72
     5
 11
723.5770000000003
 21
288.75
 31
0.0
100
AcDbText
  0
TEXT
  5
AE
330
1F
100
AcDbEntity
  8
0
  6
CONTINUOUS
 62
     2
100
AcDbText
 10
752.7500000000003
 20
278.75
 30
0.0
 40
42.5
  1
品
 41
1.12
  7
EXCADSTD
 72
     5
 11
786.7500000000003
 21
278.75
 31
0.0
100
AcDbText
  0
TEXT
  5
AF
330
1F
100
AcDbEntity
  8
0
  6
CONTINUOUS
 62
     2
100
AcDbText
 10
752.7500000000003
 20
228.75
 30
0.0
 40
42.5
  1
名
 41
1.12
  7
EXCADSTD
 72
     5
 11
786.7500000000003
 21
228.75
 31
0.0
100
AcDbText
  0
TEXT
  5
B0
330
1F
100
AcDbEntity
  8
0
  6
CONTINUOUS
 62
     2
100
AcDbText
 10
1392.75
 20
278.75
 30
0.0
 40
42.5
  1
品
 41
1.12
  7
EXCADSTD
 72
     5
 11
1426.75
 21
278.75
 31
0.0
100
AcDbText
  0
TEXT
  5
B1
330
1F
100
AcDbEntity
  8
0
  6
CONTINUOUS
 62
     2
100
AcDbText
 10
1392.75
 20
228.75
 30
0.0
 40
42.5
  1
番
 41
1.12
  7
EXCADSTD
 72
     5
 11
1426.75
 21
228.75
 31
0.0
100
AcDbText
  0
TEXT
  5
B2
330
1F
100
AcDbEntity
  8
0
  6
CONTINUOUS
 62
     2
100
AcDbText
 10
1812.75
 20
278.75
 30
0.0
 40
42.5
  1
尺
 41
1.12
  7
EXCADSTD
 72
     5
 11
1846.75
 21
278.75
 31
0.0
100
AcDbText
  0
TEXT
  5
B3
330
1F
100
AcDbEntity
  8
0
  6
CONTINUOUS
 62
     2
100
AcDbText
 10
1812.75
 20
228.75
 30
0.0
 40
42.5
  1
度
 41
1.12
  7
EXCADSTD
 72
     5
 11
1846.75
 21
228.75
 31
0.0
100
AcDbText
  0
TEXT
  5
B4
330
1F
100
AcDbEntity
  8
0
  6
CONTINUOUS
 62
     2
100
AcDbText
 10
1392.75
 20
165.75
 30
0.0
 40
42.5
  1
図
 41
1.12
  7
EXCADSTD
 72
     5
 11
1426.75
 21
165.75
 31
0.0
100
AcDbText
  0
TEXT
  5
B5
330
1F
100
AcDbEntity
  8
0
  6
CONTINUOUS
 62
     2
100
AcDbText
 10
1392.75
 20
122.75
 30
0.0
 40
42.5
  1
番
 41
1.12
  7
EXCADSTD
 72
     5
 11
1426.75
 21
122.75
 31
0.0
100
AcDbText
  0
TEXT
  5
B6
330
1F
100
AcDbEntity
  8
0
  6
CONTINUOUS
 62
     2
100
AcDbText
 10
807.6108398000003
 20
218.2713318
 30
0.0
 40
57.5
  1
センタ－スト－ル用筒
 41
0.9347089167280767
  7
EXCADSTD
 72
     5
 11
1260.6108398
 21
218.2713318
 31
0.0
100
AcDbText
  0
TEXT
  5
B7
330
1F
100
AcDbEntity
  8
0
  6
CONTINUOUS
 62
     2
100
AcDbText
 10
805.6107178000004
 20
272.9315185999999
 30
0.0
 40
57.5
  1
非水洗センタ－スト－ル
 41
0.9317725752508361
  7
EXCADSTD
 72
     5
 11
1303.1107178
 21
272.9315185999999
 31
0.0
100
AcDbText
  0
TEXT
  5
B8
330
1F
100
AcDbEntity
  8
0
  6
CONTINUOUS
 62
     6
100
AcDbText
 10
189.688574104633
 20
124.9500732
 30
0.0
 40
30.0
  1
'17
 41
0.4689784042553192
  7
EXCADSTD
 72
     5
 11
221.177124104633
 21
124.9500732
 31
0.0
100
AcDbText
  0
TEXT
  5
B9
330
1F
100
AcDbEntity
  8
0
  6
CONTINUOUS
 62
     6
100
AcDbText
 10
228.9999999999992
 20
200.0
 30
0.0
 40
50.0
  1
堀
 41
1.232
  7
EXCADSTD
 72
     5
 11
272.9999999999992
 21
200.0
 31
0.0
100
AcDbText
  0
TEXT
  5
BA
330
1F
100
AcDbEntity
  8
0
  6
CONTINUOUS
 62
     6
100
AcDbText
 10
633.4999997615804
 20
200.0
 30
0.0
 40
50.0
  1
間瀬
 41
1.18991346010815
  7
EXCADSTD
 72
     5
 11
726.9932001986493
 21
200.0
 31
0.0
100
AcDbText
  0
ARC
  5
BB
330
1F
100
AcDbEntity
  8
0
  6
CONTINUOUS
 62
     3
100
AcDbCircle
 10
929.8424810688706
 20
166.9019437507496
 30
0.0
 40
19.07418003737831
100
AcDbArc
 50
153.7591918158497
 51
169.3462759801917
  0
LINE
  5
BC
330
1F
100
AcDbEntity
  8
0
  6
CONTINUOUS
 62
     3
100
AcDbLine
 10
910.2432657332505
 20
170.4282432975408
 30
0.0
 11
911.0970934867313
 21
170.4282432975408
 31
0.0
  0
LINE
  5
BD
330
1F
100
AcDbEntity
  8
0
  6
CONTINUOUS
 62
     3
100
AcDbLine
 10
903.8375157332498
 20
174.6199932975407
 30
0.0
 11
904.9310157332504
 21
174.6469932975408
 31
0.0
  0
LINE
  5
BE
330
1F
100
AcDbEntity
  8
0
  6
CONTINUOUS
 62
     3
100
AcDbLine
 10
893.8340157332501
 20
167.8632432975406
 30
0.0
 11
893.8677657332496
 21
166.0744932975627
 31
0.0
  0
LINE
  5
BF
330
1F
100
AcDbEntity
  8
0
  6
CONTINUOUS
 62
     3
100
AcDbLine
 10
898.7142657332495
 20
169.8814932975405
 30
0.0
 11
898.6197657332499
 21
168.1129932975404
 31
0.0
  0
LINE
  5
C0
330
1F
100
AcDbEntity
  8
0
  6
CONTINUOUS
 62
     3
100
AcDbLine
 10
914.6240157332508
 20
155.3217432975408
 30
0.0
 11
914.5902657332496
 21
152.4394932975407
 31
0.0
  0
LINE
  5
C1
330
1F
100
AcDbEntity
  8
0
  6
CONTINUOUS
 62
     3
100
AcDbLine
 10
909.8652657332499
 20
152.5069932975408
 30
0.0
 11
909.9327657332506
 21
150.9544932975406
 31
0.0
  0
ARC
  5
C2
330
1F
100
AcDbEntity
  8
0
  6
CONTINUOUS
 62
     3
100
AcDbCircle
 10
883.534413132094
 20
150.5779759565002
 30
0.0
 40
11.27953740078838
100
AcDbArc
 50
332.3987521421788
 51
359.5124385477116
  0
LINE
  5
C3
330
1F
100
AcDbEntity
  8
0
  6
CONTINUOUS
 62
     3
100
AcDbLine
 10
805.1727657332506
 20
169.7194932975408
 30
0.0
 11
806.0502657332503
 21
169.7194932975408
 31
0.0
  0
LINE
  5
C4
330
1F
100
AcDbEntity
  8
0
  6
CONTINUOUS
 62
     3
100
AcDbLine
 10
900.5502657332502
 20
143.3269932975407
 30
0.0
 11
903.7227657332502
 21
143.3269932975407
 31
0.0
  0
LINE
  5
C5
330
1F
100
AcDbEntity
  8
0
  6
CONTINUOUS
 62
     3
100
AcDbLine
 10
895.6902657332508
 20
150.4819932975409
 30
0.0
 11
894.81276573325
 21
150.4819932975409
 31
0.0
  0
LINE
  5
C6
330
1F
100
AcDbEntity
  8
0
  6
CONTINUOUS
 62
     3
100
AcDbLine
 10
902.5077657332499
 20
145.7569932975407
 30
0.0
 11
904.1277657332508
 21
145.7569932975407
 31
0.0
  0
LINE
  5
C7
330
1F
100
AcDbEntity
  8
0
  6
CONTINUOUS
 62
     3
100
AcDbLine
 10
906.0852657332506
 20
177.2727432975405
 30
0.0
 11
904.2222657332504
 21
177.2727432975405
 31
0.0
  0
ARC
  5
C8
330
1F
100
AcDbEntity
  8
0
  6
CONTINUOUS
 62
     3
100
AcDbCircle
 10
904.4147339127502
 20
168.5429236291669
 30
0.0
 40
6.12586430102253
100
AcDbArc
 50
17.92452211681263
 51
85.16543319077402
  0
ARC
  5
C9
330
1F
100
AcDbEntity
  8
0
  6
CONTINUOUS
 62
     3
100
AcDbCircle
 10
904.035096486053
 20
169.2674994707921
 30
0.0
 40
5.35613931103931
100
AcDbArc
 50
92.11404364449162
 51
173.4175047026091
  0
ARC
  5
CA
330
1F
100
AcDbEntity
  8
0
  6
CONTINUOUS
 62
     3
100
AcDbCircle
 10
912.3031407332629
 20
171.3823182975444
 30
0.0
 40
14.068519372934
100
AcDbArc
 50
193.4375782160214
 51
199.459638038058
  0
ARC
  5
CB
330
1F
100
AcDbEntity
  8
0
  6
CONTINUOUS
 62
     3
100
AcDbCircle
 10
905.0721352387446
 20
170.3138641766612
 30
0.0
 40
7.03563707337184
100
AcDbArc
 50
210.9501336849607
 51
251.7794729821079
  0
ARC
  5
CC
330
1F
100
AcDbEntity
  8
0
  6
CONTINUOUS
 62
     3
100
AcDbCircle
 10
921.5384669692056
 20
213.9359310503512
 30
0.0
 40
53.65644258516679
100
AcDbArc
 50
249.6420733479936
 51
256.4727051201885
  0
ARC
  5
CD
330
1F
100
AcDbEntity
  8
0
  6
CONTINUOUS
 62
     3
100
AcDbCircle
 10
907.2045721291951
 20
154.5217258531574
 30
0.0
 40
7.462450757296059
100
AcDbArc
 50
6.154262763177246
 51
76.17509904255616
  0
ARC
  5
CE
330
1F
100
AcDbEntity
  8
0
  6
CONTINUOUS
 62
     3
100
AcDbCircle
 10
903.4663886467561
 20
154.6692467118044
 30
0.0
 40
11.34515058180645
100
AcDbArc
 50
271.2948770866743
 51
348.6654156292868
  0
ARC
  5
CF
330
1F
100
AcDbEntity
  8
0
  6
CONTINUOUS
 62
     3
100
AcDbCircle
 10
901.793005459277
 20
160.8156576811025
 30
0.0
 40
17.5327631578002
100
AcDbArc
 50
241.8829576087176
 51
265.9354096935781
  0
ARC
  5
D0
330
1F
100
AcDbEntity
  8
0
  6
CONTINUOUS
 62
     3
100
AcDbCircle
 10
903.6361043234862
 20
154.6658639777383
 30
0.0
 40
8.98004035462527
100
AcDbArc
 50
207.7689879465537
 51
262.7817283832026
  0
ARC
  5
D1
330
1F
100
AcDbEntity
  8
0
  6
CONTINUOUS
 62
     3
100
AcDbCircle
 10
904.035777744651
 20
151.7002363757167
 30
0.0
 40
5.943954918766759
100
AcDbArc
 50
270.8867385422408
 51
352.7925382056677
  0
ARC
  5
D2
330
1F
100
AcDbEntity
  8
0
  6
CONTINUOUS
 62
     3
100
AcDbCircle
 10
905.3080045853667
 20
151.9846225433168
 30
0.0
 40
4.58710152219014
100
AcDbArc
 50
6.53892419415897
 51
65.09756080693691
  0
ARC
  5
D3
330
1F
100
AcDbEntity
  8
0
  6
CONTINUOUS
 62
     3
100
AcDbCircle
 10
894.1714891830426
 20
129.945714175521
 30
0.0
 40
29.27778413972754
100
AcDbArc
 50
63.49050203733571
 51
76.60259219849584
  0
ARC
  5
D4
330
1F
100
AcDbEntity
  8
0
  6
CONTINUOUS
 62
     3
100
AcDbCircle
 10
904.5268145799499
 20
170.2396411006686
 30
0.0
 40
12.34100950779567
100
AcDbArc
 50
226.0402388947521
 51
253.1776672992999
  0
ARC
  5
D5
330
1F
100
AcDbEntity
  8
0
  6
CONTINUOUS
 62
     3
100
AcDbCircle
 10
900.5599257925999
 20
166.2192769075529
 30
0.0
 40
6.693726059056109
100
AcDbArc
 50
181.2393899443581
 51
226.5942921332421
  0
ARC
  5
D6
330
1F
100
AcDbEntity
  8
0
  6
CONTINUOUS
 62
     3
100
AcDbCircle
 10
903.796349679961
 20
167.2009291101865
 30
0.0
 40
9.9843256030919
100
AcDbArc
 50
117.4083995939977
 51
176.1964688215695
  0
ARC
  5
D7
330
1F
100
AcDbEntity
  8
0
  6
CONTINUOUS
 62
     3
100
AcDbCircle
 10
904.7711044283906
 20
164.0979097937612
 30
0.0
 40
13.19974865367525
100
AcDbArc
 50
92.38301574576484
 51
114.9635286746436
  0
ARC
  5
D8
330
1F
100
AcDbEntity
  8
0
  6
CONTINUOUS
 62
     3
100
AcDbCircle
 10
905.8542828460568
 20
167.1663038363955
 30
0.0
 40
10.10907867592157
100
AcDbArc
 50
67.66151957087348
 51
88.69073168448988
  0
ARC
  5
D9
330
1F
100
AcDbEntity
  8
0
  6
CONTINUOUS
 62
     3
100
AcDbCircle
 10
1226.644453232814
 20
987.0297432964203
 30
0.0
 40
870.2800228963156
100
AcDbArc
 50
248.6422112053103
 51
248.8567777804232
  0
ARC
  5
DA
330
1F
100
AcDbEntity
  8
0
  6
CONTINUOUS
 62
     3
100
AcDbCircle
 10
656.6900575363868
 20
160.3249792766236
 30
0.0
 40
222.0076085035812
100
AcDbArc
 50
355.7940354718673
 51
4.229650257234378
  0
ARC
  5
DB
330
1F
100
AcDbEntity
  8
0
  6
CONTINUOUS
 62
     3
100
AcDbCircle
 10
1087.254047179557
 20
160.1881005739387
 30
0.0
 40
203.5906390589
100
AcDbArc
 50
175.3387608397566
 51
184.5428594926176
  0
ARC
  5
DC
330
1F
100
AcDbEntity
  8
0
  6
CONTINUOUS
 62
     3
100
AcDbCircle
 10
881.4144089371333
 20
78.79804184123326
 30
0.0
 40
65.32859485251088
100
AcDbArc
 50
87.46575055044718
 51
92.90832285102188
  0
ARC
  5
DD
330
1F
100
AcDbEntity
  8
0
  6
CONTINUOUS
 62
     3
100
AcDbCircle
 10
881.1456076027727
 20
189.5332474358077
 30
0.0
 40
13.19228548840207
100
AcDbArc
 50
256.6209501743446
 51
283.9984576255729
  0
CIRCLE
  5
DE
330
1F
100
AcDbEntity
  8
0
  6
CONTINUOUS
 62
     3
100
AcDbCircle
 10
881.2855140383354
 20
188.583546687371
 30
0.0
 40
3.57233446676989
  0
LINE
  5
DF
330
1F
100
AcDbEntity
  8
0
  6
CONTINUOUS
 62
     3
100
AcDbLine
 10
844.4847657332499
 20
163.8402432975409
 30
0.0
 11
844.4847657332499
 21
153.0469932975405
 31
0.0
  0
ARC
  5
E0
330
1F
100
AcDbEntity
  8
0
  6
CONTINUOUS
 62
     3
100
AcDbCircle
 10
635.1176988671593
 20
159.9938058671746
 30
0.0
 40
204.3697806131072
100
AcDbArc
 50
355.5405243117485
 51
4.673398698656258
  0
ARC
  5
E1
330
1F
100
AcDbEntity
  8
0
  6
CONTINUOUS
 62
     3
100
AcDbCircle
 10
841.7082849861239
 20
188.2206879814488
 30
0.0
 40
11.93349358546016
100
AcDbArc
 50
255.9341994177206
 51
284.5896440601899
  0
ARC
  5
E2
330
1F
100
AcDbEntity
  8
0
  6
CONTINUOUS
 62
     3
100
AcDbCircle
 10
882.0574727396163
 20
172.0785681383053
 30
0.0
 40
37.6246550045818
100
AcDbArc
 50
172.9875214416311
 51
181.4134392789641
  0
ARC
  5
E3
330
1F
100
AcDbEntity
  8
0
  6
CONTINUOUS
 62
     3
100
AcDbCircle
 10
855.754106900255
 20
163.92759888186
 30
0.0
 40
13.4194899665726
100
AcDbArc
 50
87.42068310381028
 51
147.4361518966862
  0
ARC
  5
E4
330
1F
100
AcDbEntity
  8
0
  6
CONTINUOUS
 62
     3
100
AcDbCircle
 10
856.7724057413769
 20
167.9204664797994
 30
0.0
 40
9.4221437555554
100
AcDbArc
 50
34.84393737091607
 51
92.5207065423111
  0
ARC
  5
E5
330
1F
100
AcDbEntity
  8
0
  6
CONTINUOUS
 62
     3
100
AcDbCircle
 10
854.7905515344822
 20
166.6285942451527
 30
0.0
 40
11.7869965146059
100
AcDbArc
 50
359.8658335690532
 51
34.49363429411157
  0
ARC
  5
E6
330
1F
100
AcDbEntity
  8
0
  6
CONTINUOUS
 62
     3
100
AcDbCircle
 10
805.1913601210057
 20
164.3315774812141
 30
0.0
 40
61.42809087866958
100
AcDbArc
 50
358.4775281223095
 51
2.117232414210064
  0
ARC
  5
E7
330
1F
100
AcDbEntity
  8
0
  6
CONTINUOUS
 62
     3
100
AcDbCircle
 10
1029.657633661698
 20
151.9067374739132
 30
0.0
 40
163.4166579853822
100
AcDbArc
 50
176.2131780319488
 51
182.7488833337936
  0
ARC
  5
E8
330
1F
100
AcDbEntity
  8
0
  6
CONTINUOUS
 62
     3
100
AcDbCircle
 10
863.5771407332506
 20
112.6015261922778
 30
0.0
 40
31.59693252126744
100
AcDbArc
 50
84.82155189294139
 51
95.17844810705873
  0
ARC
  5
E9
330
1F
100
AcDbEntity
  8
0
  6
CONTINUOUS
 62
     3
100
AcDbCircle
 10
696.117337864974
 20
156.7751337882465
 30
0.0
 40
165.0975566668588
100
AcDbArc
 50
355.5862454873798
 51
2.816115806820253
  0
ARC
  5
EA
330
1F
100
AcDbEntity
  8
0
  6
CONTINUOUS
 62
     3
100
AcDbCircle
 10
849.9447404568527
 20
165.0315138821555
 30
0.0
 40
11.07172507744154
100
AcDbArc
 50
359.2495022237244
 51
32.84055016678327
  0
ARC
  5
EB
330
1F
100
AcDbEntity
  8
0
  6
CONTINUOUS
 62
     3
100
AcDbCircle
 10
853.0100145205531
 20
165.2366273138689
 30
0.0
 40
8.51645057047003
100
AcDbArc
 50
42.91644474042847
 51
128.3015542351336
  0
ARC
  5
EC
330
1F
100
AcDbEntity
  8
0
  6
CONTINUOUS
 62
     3
100
AcDbCircle
 10
855.56617223664
 20
164.0795225138056
 30
0.0
 40
11.08398956318131
100
AcDbArc
 50
134.9787476233347
 51
181.2369872983282
  0
ARC
  5
ED
330
1F
100
AcDbEntity
  8
0
  6
CONTINUOUS
 62
     3
100
AcDbCircle
 10
918.4088578951045
 20
152.9150147009813
 30
0.0
 40
73.95120993114925
100
AcDbArc
 50
179.8977458165987
 51
186.8855675734268
  0
ARC
  5
EE
330
1F
100
AcDbEntity
  8
0
  6
CONTINUOUS
 62
     3
100
AcDbCircle
 10
841.5808780069315
 20
104.5069254511709
 30
0.0
 40
39.68909094418497
100
AcDbArc
 50
85.07099551674689
 51
93.91830029343228
  0
ARC
  5
EF
330
1F
100
AcDbEntity
  8
0
  6
CONTINUOUS
 62
     3
100
AcDbCircle
 10
-22467.01542217735
 20
794.326524558783
 30
0.0
 40
23297.76001260591
100
AcDbArc
 50
358.4169008257799
 51
358.4423418242109
  0
ARC
  5
F0
330
1F
100
AcDbEntity
  8
0
  6
CONTINUOUS
 62
     3
100
AcDbCircle
 10
813.324469076592
 20
155.7836489530207
 30
0.0
 40
9.935816039979159
100
AcDbArc
 50
278.3335103000368
 51
329.1221464187299
  0
LINE
  5
F1
330
1F
100
AcDbEntity
  8
0
  6
CONTINUOUS
 62
     3
100
AcDbLine
 10
813.0297657332496
 20
145.952743297541
 30
0.0
 11
814.7645157332502
 21
145.952743297541
 31
0.0
  0
ARC
  5
F2
330
1F
100
AcDbEntity
  8
0
  6
CONTINUOUS
 62
     3
100
AcDbCircle
 10
813.6959653488739
 20
151.7461380097786
 30
0.0
 40
5.83157304846997
100
AcDbArc
 50
183.0707787095794
 51
263.4402016072427
  0
LINE
  5
F3
330
1F
100
AcDbEntity
  8
0
  6
CONTINUOUS
 62
     3
100
AcDbLine
 10
807.8727657332498
 20
153.3912432975405
 30
0.0
 11
807.8727657332498
 21
151.4337432975408
 31
0.0
  0
ARC
  5
F4
330
1F
100
AcDbEntity
  8
0
  6
CONTINUOUS
 62
     3
100
AcDbCircle
 10
814.0701866837841
 20
152.5807479047183
 30
0.0
 40
6.25019433457053
100
AcDbArc
 50
115.7403688633493
 51
172.5491744442191
  0
ARC
  5
F5
330
1F
100
AcDbEntity
  8
0
  6
CONTINUOUS
 62
     3
100
AcDbCircle
 10
819.5660651757705
 20
140.8318862667978
 30
0.0
 40
19.22065786155208
100
AcDbArc
 50
98.71271710191789
 51
115.2874718053599
  0
ARC
  5
F6
330
1F
100
AcDbEntity
  8
0
  6
CONTINUOUS
 62
     3
100
AcDbCircle
 10
810.6056099353727
 20
200.7501381160507
 30
0.0
 40
41.36406814694017
100
AcDbArc
 50
278.4088456599976
 51
286.1851416003176
  0
ARC
  5
F7
330
1F
100
AcDbEntity
  8
0
  6
CONTINUOUS
 62
     3
100
AcDbCircle
 10
786.0908200122273
 20
241.7417570522225
 30
0.0
 40
44.00758833490465
100
AcDbArc
 50
261.7986203004403
 51
278.6803384946418
  0
ARC
  5
F8
330
1F
100
AcDbEntity
  8
0
  6
CONTINUOUS
 62
     3
100
AcDbCircle
 10
1441.542531413434
 20
167.2960360950845
 30
0.0
 40
649.5474244683604
100
AcDbArc
 50
177.2695926307304
 51
181.4833117237826
  0
ARC
  5
F9
330
1F
100
AcDbEntity
  8
0
  6
CONTINUOUS
 62
     3
100
AcDbCircle
 10
769.4899361790615
 20
149.9631356880094
 30
0.0
 40
22.72875263114311
100
AcDbArc
 50
335.1860595856123
 51
1.308075913059364
  0
ARC
  5
FA
330
1F
100
AcDbEntity
  8
0
  6
CONTINUOUS
 62
     3
100
AcDbCircle
 10
775.3897327885479
 20
148.938351862683
 30
0.0
 40
17.01394688196115
100
AcDbArc
 50
286.2966123578915
 51
329.973223283839
  0
ARC
  5
FB
330
1F
100
AcDbEntity
  8
0
  6
CONTINUOUS
 62
     3
100
AcDbCircle
 10
772.0955749866655
 20
153.7223152915386
 30
0.0
 40
22.60341410821362
100
AcDbArc
 50
277.0901027239701
 51
290.9134154817058
  0
LINE
  5
FC
330
1F
100
AcDbEntity
  8
0
  6
CONTINUOUS
 62
     3
100
AcDbLine
 10
774.8855157332499
 20
131.2917432975406
 30
0.0
 11
773.6502657332502
 21
135.0514932975404
 31
0.0
  0
ARC
  5
FD
330
1F
100
AcDbEntity
  8
0
  6
CONTINUOUS
 62
     3
100
AcDbCircle
 10
769.834728968544
 20
146.675985944599
 30
0.0
 40
12.23467000390025
100
AcDbArc
 50
288.1715191042997
 51
307.8537826235693
  0
ARC
  5
FE
330
1F
100
AcDbEntity
  8
0
  6
CONTINUOUS
 62
     3
100
AcDbCircle
 10
772.0927386496023
 20
142.3407518472914
 30
0.0
 40
7.47769185530633
100
AcDbArc
 50
314.592391474832
 51
344.9374073189123
  0
ARC
  5
FF
330
1F
100
AcDbEntity
  8
0
  6
CONTINUOUS
 62
     3
100
AcDbCircle
 10
285.3385521229316
 20
172.5197335838841
 30
0.0
 40
495.1400430399008
100
AcDbArc
 50
356.8390243485978
 51
2.971133813187157
  0
ARC
  5
100
330
1F
100
AcDbEntity
  8
0
  6
CONTINUOUS
 62
     3
100
AcDbCircle
 10
710.1439565227073
 20
148.7342761922788
 30
0.0
 40
69.67015049800598
100
AcDbArc
 50
353.1274757312911
 51
357.106204490141
  0
LINE
  5
101
330
1F
100
AcDbEntity
  8
0
  6
CONTINUOUS
 62
     3
100
AcDbLine
 10
805.1727657332506
 20
173.364493297541
 30
0.0
 11
805.1727657332506
 21
169.7194932975408
 31
0.0
  0
ARC
  5
102
330
1F
100
AcDbEntity
  8
0
  6
CONTINUOUS
 62
     3
100
AcDbCircle
 10
813.8253617702989
 20
165.2890191857882
 30
0.0
 40
8.94881105176719
100
AcDbArc
 50
103.4267945469744
 51
150.3242613737993
  0
ARC
  5
103
330
1F
100
AcDbEntity
  8
0
  6
CONTINUOUS
 62
     3
100
AcDbCircle
 10
814.4799095798307
 20
163.9383830513021
 30
0.0
 40
10.4195273466423
100
AcDbArc
 50
77.23143261361693
 51
105.203415964315
  0
ARC
  5
104
330
1F
100
AcDbEntity
  8
0
  6
CONTINUOUS
 62
     3
100
AcDbCircle
 10
814.9283412817689
 20
167.2741886153421
 30
0.0
 40
7.07346538626002
100
AcDbArc
 50
3.537639967999379
 51
74.8013566619203
  0
ARC
  5
105
330
1F
100
AcDbEntity
  8
0
  6
CONTINUOUS
 62
     3
100
AcDbCircle
 10
809.0053873566566
 20
165.9229870375123
 30
0.0
 40
13.10543751018921
100
AcDbArc
 50
353.0315250986587
 51
7.839947970678348
  0
ARC
  5
106
330
1F
100
AcDbEntity
  8
0
  6
CONTINUOUS
 62
     3
100
AcDbCircle
 10
820.3230955673345
 20
164.6511332504287
 30
0.0
 40
1.72058828228131
100
AcDbArc
 50
291.5204897073511
 51
349.3445900274031
  0
ARC
  5
107
330
1F
100
AcDbEntity
  8
0
  6
CONTINUOUS
 62
     3
100
AcDbCircle
 10
816.3433050110896
 20
172.6407362688747
 30
0.0
 40
10.64113335272784
100
AcDbArc
 50
282.7195832898965
 51
295.6781112778079
  0
ARC
  5
108
330
1F
100
AcDbEntity
  8
0
  6
CONTINUOUS
 62
     3
100
AcDbCircle
 10
790.8530099985787
 20
286.1202029775212
 30
0.0
 40
126.9482409370382
100
AcDbArc
 50
278.8438342053764
 51
282.6649181367123
  0
ARC
  5
109
330
1F
100
AcDbEntity
  8
0
  6
CONTINUOUS
 62
     3
100
AcDbCircle
 10
813.0970138675783
 20
147.9608481482871
 30
0.0
 40
13.0093661698492
100
AcDbArc
 50
102.0988446293839
 51
129.1556705448828
  0
ARC
  5
10A
330
1F
100
AcDbEntity
  8
0
  6
CONTINUOUS
 62
     3
100
AcDbCircle
 10
809.3972379030148
 20
152.6366332500801
 30
0.0
 40
7.04795370557922
100
AcDbArc
 50
129.8344892359069
 51
168.4089447024628
  0
ARC
  5
10B
330
1F
100
AcDbEntity
  8
0
  6
CONTINUOUS
 62
     3
100
AcDbCircle
 10
810.9075018569993
 20
151.7758712547744
 30
0.0
 40
8.71709372588669
100
AcDbArc
 50
164.8589457925044
 51
187.8495628504518
  0
ARC
  5
10C
330
1F
100
AcDbEntity
  8
0
  6
CONTINUOUS
 62
     3
100
AcDbCircle
 10
810.0915332915499
 20
151.4015021572863
 30
0.0
 40
7.8619234712629
100
AcDbArc
 50
185.9586126338419
 51
224.0091989319859
  0
ARC
  5
10D
330
1F
100
AcDbEntity
  8
0
  6
CONTINUOUS
 62
     3
100
AcDbCircle
 10
810.4562953036886
 20
151.8111104772596
 30
0.0
 40
8.408956577563659
100
AcDbArc
 50
224.289750990011
 51
255.6505938786759
  0
ARC
  5
10E
330
1F
100
AcDbEntity
  8
0
  6
CONTINUOUS
 62
     3
100
AcDbCircle
 10
810.2928130736753
 20
149.6963494387411
 30
0.0
 40
6.330228320917859
100
AcDbArc
 50
252.3384873625213
 51
268.8069976857606
  0
LINE
  5
10F
330
1F
100
AcDbEntity
  8
0
  6
CONTINUOUS
 62
     3
100
AcDbLine
 10
810.1610157332495
 20
143.3674932975408
 30
0.0
 11
812.9015157332506
 21
143.3674932975408
 31
0.0
  0
ARC
  5
110
330
1F
100
AcDbEntity
  8
0
  6
CONTINUOUS
 62
     3
100
AcDbCircle
 10
811.6613045867009
 20
156.9534026256827
 30
0.0
 40
13.64239920103932
100
AcDbArc
 50
275.2158792069686
 51
319.2336424873511
  0
ARC
  5
111
330
1F
100
AcDbEntity
  8
0
  6
CONTINUOUS
 62
     3
100
AcDbCircle
 10
826.8315560558315
 20
148.649259426573
 30
0.0
 40
4.87535134009722
100
AcDbArc
 50
187.1167640402297
 51
216.4860549324747
  0
ARC
  5
112
330
1F
100
AcDbEntity
  8
0
  6
CONTINUOUS
 62
     3
100
AcDbCircle
 10
826.2937735081462
 20
148.336745652863
 30
0.0
 40
4.25769550620398
100
AcDbArc
 50
217.4081478714985
 51
264.8118660441384
  0
ARC
  5
113
330
1F
100
AcDbEntity
  8
0
  6
CONTINUOUS
 62
     3
100
AcDbCircle
 10
827.8995891945592
 20
152.6464512823032
 30
0.0
 40
8.56540620020894
100
AcDbArc
 50
271.2220539293239
 51
292.8159509797653
  0
LINE
  5
114
330
1F
100
AcDbEntity
  8
0
  6
CONTINUOUS
 62
     3
100
AcDbLine
 10
825.9087657332506
 20
144.0964932975408
 30
0.0
 11
828.0822657332501
 21
144.0964932975408
 31
0.0
  0
LINE
  5
115
330
1F
100
AcDbEntity
  8
0
  6
CONTINUOUS
 62
     3
100
AcDbLine
 10
831.22101573325
 20
144.7512432975408
 30
0.0
 11
831.22101573325
 21
146.3239932975405
 31
0.0
  0
ARC
  5
116
330
1F
100
AcDbEntity
  8
0
  6
CONTINUOUS
 62
     3
100
AcDbCircle
 10
829.824207845796
 20
149.006118874109
 30
0.0
 40
3.0240485913648
100
AcDbArc
 50
243.6191685566582
 51
297.5097757939563
  0
ARC
  5
117
330
1F
100
AcDbEntity
  8
0
  6
CONTINUOUS
 62
     3
100
AcDbCircle
 10
830.1823989446037
 20
148.8302928780474
 30
0.0
 40
3.05188683107389
100
AcDbArc
 50
179.9117548191414
 51
236.1065985968857
  0
ARC
  5
118
330
1F
100
AcDbEntity
  8
0
  6
CONTINUOUS
 62
     3
100
AcDbCircle
 10
1280.65013583871
 20
153.9323843931732
 30
0.0
 40
453.5482655865662
100
AcDbArc
 50
178.2526643324597
 51
180.6439560401927
  0
ARC
  5
119
330
1F
100
AcDbEntity
  8
0
  6
CONTINUOUS
 62
     3
100
AcDbCircle
 10
817.0706272602794
 20
167.0191625973315
 30
0.0
 40
10.2690407511459
100
AcDbArc
 50
4.148222840814693
 51
92.36000944257292
  0
ARC
  5
11A
330
1F
100
AcDbEntity
  8
0
  6
CONTINUOUS
 62
     3
100
AcDbCircle
 10
816.2685324125524
 20
159.6167288926888
 30
0.0
 40
17.66683515327064
100
AcDbArc
 50
88.77000393305703
 51
128.9068631829044
  0
TEXT
  5
11C
330
1F
100
AcDbEntity
  8
0
  6
CONTINUOUS
 62
     2
100
AcDbText
 10
928.0000000000025
 20
138.5000000000003
 30
0.0
 40
33.75
  1
ジャニス工業株式会社
 41
1.025641025641026
  7
EXCADTTF1
 72
     5
 11
1378.000000000003
 21
138.5000000000003
 31
0.0
100
AcDbText
  0
HATCH
  5
11D
330
1F
100
AcDbEntity
  8
0
  6
CONTINUOUS
 62
     3
100
AcDbHatch
 10
0.0
 20
0.0
 30
0.0
210
0.0
220
0.0
230
1.0
  2
SOLID
 70
     1
 71
     1
 91
        2
 92
        3
 72
     1
 73
     1
 93
       27
 10
805.1727657332499
 20
173.3644932975409
 42
-0.1769427732109284
 10
805.1727657332506
 20
173.364493297541
 42
0.0
 10
805.1727657332506
 20
169.7194932975408
 42
0.0
 10
806.0502657332505
 20
169.7194932975404
 42
-0.207533601427307
 10
811.7474227895704
 20
173.9932359129048
 42
-0.1226604740888933
 10
816.7827657332505
 20
174.1002432975407
 42
-0.3213715781137954
 10
821.9883280222087
 20
167.7106514378475
 42
-0.064704004662446
 10
822.0140157332501
 20
164.3329932975406
 42
-0.257798906330806
 10
820.9542657332506
 20
163.0504932975406
 42
-0.056602577721096
 10
818.6862657332504
 20
162.260743297541
 42
-0.0166741689362636
 10
810.3702657332501
 20
160.6812432975407
 42
0.1186092302783404
 10
804.8825157332502
 20
158.0487432975406
 42
0.1699204224386695
 10
802.4930157332503
 20
154.0527432975405
 42
0.1006533494296199
 10
802.2720866795818
 20
150.5853555095727
 42
0.1675695228968024
 10
804.4370157332507
 20
145.9392432975407
 42
0.1376980079804242
 10
808.3722657332497
 20
143.6644932975409
 42
0.0719813663796923
 10
810.1610157332495
 20
143.3674932975408
 42
0.0
 10
812.9015157332506
 20
143.3674932975409
 42
0.1944607457809085
 10
821.9937657332507
 20
148.0452432975407
 42
0.1288538183665954
 10
822.9117657332497
 20
145.7502432975404
 42
0.2098387395261546
 10
825.9087657332506
 20
144.0964932975408
 42
0.0
 10
828.0822657332506
 20
144.0829932975409
 42
0.0945009641609563
 10
831.22101573325
 20
144.7512432975408
 42
0.0
 10
831.2210157332498
 20
146.3239932975407
 42
-0.2395739894657535
 10
828.4805157332506
 20
146.2969932975404
 42
-0.2502312110031057
 10
827.1305157332499
 20
148.8349932975414
 42
-0.0104343570771765
 10
827.3127657332508
 20
167.7619932975406
 42
0.4051015674140716
 97
        0
 92
        3
 72
     1
 73
     1
 93
        8
 10
822.13551573325
 20
161.0254932975405
 42
-0.0339435190873666
 10
822.1355157332546
 20
161.0254932975294
 42
-0.0001110072973599
 10
821.8520157332507
 20
150.6844932975405
 42
-0.2253076310552528
 10
814.7645157332502
 20
145.952743297541
 42
0.0
 10
813.0297657332495
 20
145.9527432975409
 42
-0.3657967558150132
 10
807.8727657332498
 20
151.4337432975408
 42
0.0
 10
807.8727657332506
 20
153.3912432975408
 42
-0.2530797830369341
 10
811.3557657332505
 20
158.2107432975406
 42
-0.0724473624720066
 97
        0
 75
     0
 76
     1
 98
        1
 10
0.0
 20
0.0
  0
HATCH
  5
11E
330
1F
100
AcDbEntity
  8
0
  6
CONTINUOUS
 62
     3
100
AcDbHatch
 10
0.0
 20
0.0
 30
0.0
210
0.0
220
0.0
230
1.0
  2
SOLID
 70
     1
 71
     1
 91
        1
 92
        3
 72
     1
 73
     1
 93
       30
 10
912.7340157332495
 20
175.3354932975412
 42
-0.0009362235736497
 10
912.7340157332497
 20
175.3354932975407
 42
0.0681165430304653
 10
911.0970934867313
 20
170.4282432975408
 42
0.0
 10
904.9310157332504
 20
174.6469932975409
 42
-0.302112590907374
 10
904.9310157332504
 20
174.6469932975408
 42
0.0
 10
898.7142657332499
 20
169.8814932975407
 42
-0.3704245237568778
 10
898.7142657332495
 20
169.8814932975405
 42
0.0
 10
899.0382657332503
 20
166.6954932975407
 42
-0.0262822419456939
 10
902.8722657332503
 20
163.6309932975405
 42
-0.180060563604375
 10
908.9877657332503
 20
161.7679932975409
 42
-0.0298130817160724
 10
908.98776573325
 20
161.7679932975405
 42
-0.3153987453686078
 10
914.6240157332508
 20
155.3217432975408
 42
0.0
 10
914.5902657332507
 20
152.4394932975405
 42
-0.3510306079065168
 10
903.7227657332502
 20
143.3269932975407
 42
0.0
 10
900.5502657332495
 20
143.3269932975405
 42
-0.1053356344842436
 10
893.5302657332501
 20
145.3519932975408
 42
0.1188608286962634
 10
894.81276573325
 20
150.4819932975409
 42
0.0
 10
902.5077657332503
 20
145.7569932975408
 42
-0.2447573632916039
 10
902.5077657332499
 20
145.7569932975407
 42
0.0
 10
909.9327657332503
 20
150.9544932975408
 42
-0.3734162676407277
 10
909.9327657332506
 20
150.9544932975406
 42
0.0
 10
907.2395157332504
 20
156.1452432975409
 42
-0.261219770190848
 10
900.9552657332496
 20
158.4267432975409
 42
-0.0572747914118363
 10
900.9552657332506
 20
158.4267432975408
 42
-0.1189658875692221
 10
895.9602657332499
 20
161.3562432975408
 42
-0.2005226878639636
 10
893.8677657332496
 20
166.0744932975627
 42
0.0
 10
893.8340157332502
 20
167.8632432975404
 42
-0.2622894489606957
 10
899.2002657332506
 20
176.0644932975409
 42
-0.0988461274137808
 10
904.2222657332504
 20
177.2727432975405
 42
0.0
 10
906.0852657332498
 20
177.2727432975408
 42
-0.0920156312561188
 97
        0
 75
     0
 76
     1
 98
        1
 10
0.0
 20
0.0
  0
HATCH
  5
11F
330
1F
100
AcDbEntity
  8
0
  6
CONTINUOUS
 62
     3
100
AcDbHatch
 10
0.0
 20
0.0
 30
0.0
210
0.0
220
0.0
230
1.0
  2
SOLID
 70
     1
 71
     1
 91
        2
 92
        1
 93
        1
 72
     2
 10
881.2855140383354
 20
188.583546687371
 40
3.572334466769884
 50
0.0
 51
360.0
 73
     1
 97
        0
 92
        3
 72
     1
 73
     1
 93
        3
 10
878.0930157332498
 20
176.6989932975406
 42
0.1200283885712921
 10
884.3030157332498
 20
144.0627432975403
 42
-0.0401820615762149
 10
878.0997657332498
 20
144.0424932975407
 42
-0.0237521668114666
 97
        0
 75
     0
 76
     1
 98
        1
 10
0.0
 20
0.0
  0
HATCH
  5
120
330
1F
100
AcDbEntity
  8
0
  6
CONTINUOUS
 62
     3
100
AcDbHatch
 10
0.0
 20
0.0
 30
0.0
210
0.0
220
0.0
230
1.0
  2
SOLID
 70
     1
 71
     1
 91
        1
 92
        3
 72
     1
 73
     1
 93
       16
 10
838.8687657332501
 20
144.1032432975406
 42
-0.0386228372648426
 10
838.8080157332499
 20
176.6449932975406
 42
-0.0398707891902887
 10
844.7142657332503
 20
176.6719932975408
 42
-0.1256886216044368
 10
844.4442657332503
 20
171.1504932975407
 42
-0.0367815758121429
 10
844.4442657332503
 20
171.1504932975405
 42
-0.268021535028829
 10
856.3580157332506
 20
177.3334932975407
 42
-0.2571134422124888
 10
864.5052657332495
 20
173.303743297541
 42
-0.1522526366014298
 10
866.5775157332502
 20
166.6009932975406
 42
-0.0158825412051521
 10
866.4290157332498
 20
144.0694932975406
 42
-0.0285251271418421
 10
860.7252657332506
 20
144.0694932975406
 42
-0.0452212723224612
 10
861.0155157332501
 20
164.8864932975409
 42
-0.0315567291532142
 10
859.2470157332499
 20
171.0357432975408
 42
-0.1476272403790709
 10
847.73151573325
 20
171.9199932975405
 42
-0.3908144705745794
 10
844.4847657332499
 20
163.8402432975404
 42
-0.2046259928850854
 10
844.4847657332499
 20
163.8402432975409
 42
0.0
 10
844.991015733251
 20
144.0492432975408
 42
-0.0304995761723369
 97
        0
 75
     0
 76
     1
 98
        1
 10
0.0
 20
0.0
  0
HATCH
  5
121
330
1F
100
AcDbEntity
  8
0
  6
CONTINUOUS
 62
     3
100
AcDbHatch
 10
0.0
 20
0.0
 30
0.0
210
0.0
220
0.0
230
1.0
  2
SOLID
 70
     1
 71
     1
 91
        1
 92
        3
 72
     1
 73
     1
 93
       10
 10
779.7252657332502
 20
145.2169932975405
 42
-0.017362223501556
 10
779.8130157332504
 20
198.184243297541
 42
-0.0267627618865285
 10
779.81301573325
 20
198.1842432975407
 42
0.0737939047395297
 10
792.7325157332502
 20
198.23824329754
 42
0.0183878899657109
 10
792.2127657332505
 20
150.4819932975405
 42
-0.1144749489451909
 10
790.1202657332497
 20
140.4244932975404
 42
-0.1929163439413163
 10
780.1640157332507
 20
132.6079932975404
 42
-0.0603888289562337
 10
774.8855157332499
 20
131.2917432975406
 42
0.0
 10
773.6502657332497
 20
135.0514932975405
 42
0.0860918333465722
 10
777.3425157332503
 20
137.0157432975406
 42
0.1331843103855141
 97
        0
 75
     0
 76
     1
 98
        1
 10
0.0
 20
0.0
  0
LINE
  5
122
330
1F
100
AcDbEntity
  8
0
  6
CONTINUOUS
 62
     7
100
AcDbLine
 10
179.0000000000003
 20
115.0
 30
0.0
 11
1999.0
 21
115.0
 31
0.0
  0
LINE
  5
123
330
1F
100
AcDbEntity
  8
0
  6
EXLTYPE2
 62
     6
100
AcDbLine
 10
179.0000000000003
 20
165.0
 30
0.0
 11
489.0000000000003
 21
165.0
 31
0.0
  0
LINE
  5
124
330
1F
100
AcDbEntity
  8
0
  6
CONTINUOUS
 62
     7
100
AcDbLine
 10
179.0000000000003
 20
335.0
 30
0.0
 11
1999.0
 21
335.0
 31
0.0
  0
LINE
  5
125
330
1F
100
AcDbEntity
  8
0
  6
CONTINUOUS
 62
     6
100
AcDbLine
 10
334.0000000000003
 20
335.0
 30
0.0
 11
334.0000000000003
 21
115.0
 31
0.0
  0
LINE
  5
126
330
1F
100
AcDbEntity
  8
0
  6
CONTINUOUS
 62
     6
100
AcDbLine
 10
179.0000000000003
 20
285.0
 30
0.0
 11
749.0000000000003
 21
285.0
 31
0.0
  0
CIRCLE
  5
127
330
1F
100
AcDbEntity
  8
0
  6
CONTINUOUS
 62
     6
100
AcDbCircle
 10
229.0000000000003
 20
140.0
 30
0.0
 40
1.0000002
  0
CIRCLE
  5
128
330
1F
100
AcDbEntity
  8
0
  6
CONTINUOUS
 62
     6
100
AcDbCircle
 10
279.0000000000003
 20
140.0
 30
0.0
 40
1.0000002
  0
CIRCLE
  5
129
330
1F
100
AcDbEntity
  8
0
  6
CONTINUOUS
 62
     6
100
AcDbCircle
 10
384.0000000000003
 20
140.0
 30
0.0
 40
1.0000002
  0
CIRCLE
  5
12A
330
1F
100
AcDbEntity
  8
0
  6
CONTINUOUS
 62
     6
100
AcDbCircle
 10
434.0000000000003
 20
140.0
 30
0.0
 40
1.0000002
  0
LINE
  5
12B
330
1F
100
AcDbEntity
  8
0
  6
CONTINUOUS
 62
     6
100
AcDbLine
 10
489.0000000000003
 20
335.0
 30
0.0
 11
489.0000000000003
 21
115.0
 31
0.0
  0
LINE
  5
12C
330
1F
100
AcDbEntity
  8
0
  6
CONTINUOUS
 62
     6
100
AcDbLine
 10
619.0000000000003
 20
335.0
 30
0.0
 11
619.0000000000003
 21
115.0
 31
0.0
  0
LINE
  5
12D
330
1F
100
AcDbEntity
  8
0
  6
CONTINUOUS
 62
     6
100
AcDbLine
 10
749.0000000000003
 20
335.0
 30
0.0
 11
749.0000000000003
 21
115.0
 31
0.0
  0
LINE
  5
12E
330
1F
100
AcDbEntity
  8
0
  6
CONTINUOUS
 62
     6
100
AcDbLine
 10
1999.0
 20
215.0
 30
0.0
 11
749.0000000000003
 21
215.0
 31
0.0
  0
LINE
  5
12F
330
1F
100
AcDbEntity
  8
0
  6
CONTINUOUS
 62
     6
100
AcDbLine
 10
799.0000000000003
 20
335.0
 30
0.0
 11
799.0000000000003
 21
215.0
 31
0.0
  0
LINE
  5
130
330
1F
100
AcDbEntity
  8
0
  6
CONTINUOUS
 62
     6
100
AcDbLine
 10
1389.0
 20
335.0
 30
0.0
 11
1389.0
 21
115.0
 31
0.0
  0
LINE
  5
131
330
1F
100
AcDbEntity
  8
0
  6
CONTINUOUS
 62
     6
100
AcDbLine
 10
1439.0
 20
335.0
 30
0.0
 11
1439.0
 21
115.0
 31
0.0
  0
LINE
  5
132
330
1F
100
AcDbEntity
  8
0
  6
CONTINUOUS
 62
     6
100
AcDbLine
 10
1809.0
 20
335.0
 30
0.0
 11
1809.0
 21
215.0
 31
0.0
  0
LINE
  5
133
330
1F
100
AcDbEntity
  8
0
  6
CONTINUOUS
 62
     6
100
AcDbLine
 10
1859.0
 20
335.0
 30
0.0
 11
1859.0
 21
215.0
 31
0.0
  0
LINE
  5
134
330
1F
100
AcDbEntity
  8
0
  6
CONTINUOUS
 62
     6
100
AcDbLine
 10
1891.6538086
 20
238.0029297
 30
0.0
 11
1968.9938965
 21
316.6998291
 31
0.0
  0
TEXT
  5
135
330
1F
100
AcDbEntity
  8
0
  6
CONTINUOUS
 62
     2
100
AcDbText
 10
1443.0856934
 20
215.9169922
 30
0.0
 40
57.5
  1
ＴＶ１０１
 41
1.143928035982009
  7
EXCADSTD
 72
     5
 11
1715.5856934
 21
215.9169922
 31
0.0
100
AcDbText
  0
TEXT
  5
136
330
1F
100
AcDbEntity
  8
0
  6
CONTINUOUS
 62
     2
100
AcDbText
 10
1442.795166
 20
271.9315491
 30
0.0
 40
57.5
  1
Ｕ１０１Ａ
 41
1.143928035982009
  7
EXCADSTD
 72
     5
 11
1715.295166
 21
271.9315491
 31
0.0
100
AcDbText
  0
TEXT
  5
137
330
1F
100
AcDbEntity
  8
0
  6
CONTINUOUS
 62
     7
100
AcDbText
 10
1453.25
 20
130.75
 30
0.0
 40
70.0
  1
Ｕ０１０１３９１
 41
1.127659574468085
  7
EXCADSTD
 72
     5
 11
1983.25
 21
130.75
 31
0.0
100
AcDbText
  0
TEXT
  5
138
330
1F
100
AcDbEntity
  8
0
  6
CONTINUOUS
 62
     6
100
AcDbText
 10
248.3510740569491
 20
124.9500732
 30
0.0
 40
30.0
  1
8
 41
0.4683823529411765
  7
EXCADSTD
 72
     5
 11
259.7260740569491
 21
124.9500732
 31
0.0
100
AcDbText
  0
TEXT
  5
139
330
1F
100
AcDbEntity
  8
0
  6
CONTINUOUS
 62
     6
100
AcDbText
 10
292.6010741165538
 20
124.9500732
 30
0.0
 40
30.0
  1
24
 41
0.3978947368421056
  7
EXCADSTD
 72
     5
 11
314.2010741165539
 21
124.9500732
 31
0.0
100
AcDbText
  0
LINE
  5
13A
330
1F
100
AcDbEntity
  8
枠
  6
CONTINUOUS
 62
     7
100
AcDbLine
 10
1294.0
 20
711.3318239999999
 30
0.0
 11
1770.8809547
 21
711.3318239999999
 31
0.0
  0
LINE
  5
13B
330
1F
100
AcDbEntity
  8
枠
  6
CONTINUOUS
 62
     7
100
AcDbLine
 10
1770.8809547
 20
711.3318239999999
 30
0.0
 11
1770.8809547
 21
1895.0
 31
0.0
  0
LINE
  5
13C
330
1F
100
AcDbEntity
  8
枠
  6
CONTINUOUS
 62
     7
100
AcDbLine
 10
370.010293092478
 20
711.3318240000001
 30
0.0
 11
1112.010293092478
 21
711.3318240000001
 31
0.0
  0
LINE
  5
13D
330
1F
100
AcDbEntity
  8
枠
  6
CONTINUOUS
 62
     7
100
AcDbLine
 10
179.0
 20
115.0
 30
0.0
 11
179.0
 21
2915.0
 31
0.0
  0
LINE
  5
13E
330
1F
100
AcDbEntity
  8
枠
  6
CONTINUOUS
 62
     7
100
AcDbLine
 10
1999.0
 20
115.0
 30
0.0
 11
1999.0
 21
2915.0
 31
0.0
  0
LINE
  5
13F
330
1F
100
AcDbEntity
  8
枠
  6
CONTINUOUS
 62
     7
100
AcDbLine
 10
179.0
 20
2915.0
 30
0.0
 11
1999.0
 21
2915.0
 31
0.0
  0
LINE
  5
140
330
1F
100
AcDbEntity
  8
枠
  6
EXLTYPE2
 62
     6
100
AcDbLine
 10
169.0
 20
1515.0
 30
0.0
 11
-21.00000000000001
 21
1515.0
 31
0.0
  0
TEXT
  5
141
330
1F
100
AcDbEntity
  8
枠
  6
CONTINUOUS
 62
     2
100
AcDbText
 10
1468.0
 20
714.8318240000003
 30
0.0
 40
40.0
  1
Ｆ.Ｌ.
 41
1.120673076923077
  7
EXCADSTD
 72
     5
 11
1579.0
 21
714.8318240000003
 31
0.0
100
AcDbText
  0
TEXT
  5
142
330
1F
100
AcDbEntity
  8
枠
  6
CONTINUOUS
 62
     2
100
AcDbText
 10
1767.3809547
 20
1773.0
 30
0.0
 40
40.0
  1
Ｗ.Ｌ.
 50
90.0
 41
1.120673076923077
  7
EXCADSTD
 72
     5
 11
1767.3809547
 21
1884.0
 31
0.0
100
AcDbText
  0
TEXT
  5
143
330
1F
100
AcDbEntity
  8
スト_ル
  6
CONTINUOUS
 62
     2
100
AcDbText
 10
1423.000000715256
 20
1676.5102930926
 30
0.0
 40
40.0
  1
ＮＴ７Ａカラー
 41
0.9902439024390244
  7
EXCADSTD
 72
     5
 11
1655.000000715256
 21
1676.5102930926
 31
0.0
100
AcDbText
  0
LEADER
  5
144
330
1F
100
AcDbEntity
  8
スト_ル
  6
CONTINUOUS
 62
     6
100
AcDbLeader
  3
ISO-25
 76
     3
 10
1748.169238540067
 20
1588.741940880273
 30
0.0
 10
1660.0
 20
1673.0102930926
 30
0.0
 10
1424.0
 20
1673.0102930926
 30
0.0
1001
ACAD
1000
DSTYLE
1002
{
1070
     5
1000
EX_NORM
1070
    41
1040
35.0
1070
   341
1005
4C
1002
}
  0
LINE
  5
145
330
1F
100
AcDbEntity
  8
スト_ル
  6
CONTINUOUS
 62
     7
100
AcDbLine
 10
1690.497063486611
 20
711.3318240000001
 30
0.0
 11
1691.380954700001
 21
678.8318240000001
 31
0.0
  0
LINE
  5
146
330
1F
100
AcDbEntity
  8
スト_ル
  6
CONTINUOUS
 62
     7
100
AcDbLine
 10
1691.3809547
 20
678.6000000000001
 30
0.0
 11
1730.3809547
 21
678.6000000000001
 31
0.0
  0
LINE
  5
147
330
1F
100
AcDbEntity
  8
スト_ル
  6
CONTINUOUS
 62
     7
100
AcDbLine
 10
1730.3809547
 20
678.8318240000001
 30
0.0
 11
1731.264845913389
 21
711.3318240000001
 31
0.0
  0
ARC
  5
148
330
1F
100
AcDbEntity
  8
スト_ル
  6
CONTINUOUS
 62
     7
100
AcDbCircle
 10
1720.754175102
 20
707.4861091619999
 30
0.0
 40
20.0
100
AcDbArc
 50
11.08620762656997
 51
57.38228128393988
  0
ARC
  5
149
330
1F
100
AcDbEntity
  8
スト_ル
  6
CONTINUOUS
 62
     7
100
AcDbCircle
 10
1701.007734298
 20
707.4861091619999
 30
0.0
 40
20.0
100
AcDbArc
 50
122.6177187160601
 51
168.91379237343
  0
LINE
  5
14A
330
1F
100
AcDbEntity
  8
スト_ル
  6
CONTINUOUS
 62
     7
100
AcDbLine
 10
1690.227108546367
 20
724.3318239999999
 30
0.0
 11
1731.5348008538
 21
724.3318239999999
 31
0.0
  0
LINE
  5
14B
330
1F
100
AcDbEntity
  8
スト_ル
  6
EXLTYPE3
 62
     6
100
AcDbLine
 10
1710.8809547
 20
678.5999999999999
 30
0.0
 11
1710.8809547
 21
984.3842009595696
 31
0.0
  0
LINE
  5
14C
330
1F
100
AcDbEntity
  8
スト_ル
  6
EXLTYPE3
 62
     6
100
AcDbLine
 10
1710.8809547
 20
678.5999999999999
 30
0.0
 11
1710.8809547
 21
984.3842009595696
 31
0.0
  0
LINE
  5
14D
330
1F
100
AcDbEntity
  8
スト_ル
  6
EXLTYPE3
 62
     6
100
AcDbLine
 10
1710.8809547
 20
678.5999999999999
 30
0.0
 11
1710.8809547
 21
984.3842009595696
 31
0.0
  0
ARC
  5
14E
330
1F
100
AcDbEntity
  8
スト_ル
  6
CONTINUOUS
 62
     7
100
AcDbCircle
 10
1788.08796101405
 20
2939.02682993797
 30
0.0
 40
2000.000000000001
100
AcDbArc
 50
261.4510160167003
 51
266.1753436028002
  0
ARC
  5
14F
330
1F
100
AcDbEntity
  8
スト_ル
  6
CONTINUOUS
 62
     7
100
AcDbCircle
 10
1494.49453724595
 20
985.9707883665704
 30
0.0
 40
25.00000000000002
100
AcDbArc
 50
182.3925489416008
 51
261.4510160166994
  0
LINE
  5
150
330
1F
100
AcDbEntity
  8
スト_ル
  6
CONTINUOUS
 62
     7
100
AcDbLine
 10
1669.94997352705
 20
1549.172905025071
 30
0.0
 11
1650.69828324905
 21
1189.927761169571
 31
0.0
  0
ARC
  5
151
330
1F
100
AcDbEntity
  8
スト_ル
  6
CONTINUOUS
 62
     7
100
AcDbCircle
 10
1450.98484732155
 20
1200.630261338571
 30
0.0
 40
200.0000000000002
100
AcDbArc
 50
326.3720407754701
 51
356.9324943489704
  0
LINE
  5
152
330
1F
100
AcDbEntity
  8
スト_ル
  6
EXLTYPE3
 62
     1
100
AcDbLine
 10
1710.88095470005
 20
873.3421170925704
 30
0.0
 11
1710.88095470005
 21
960.5421170925706
 31
0.0
  0
LINE
  5
153
330
1F
100
AcDbEntity
  8
スト_ル
  6
CONTINUOUS
 62
     7
100
AcDbLine
 10
1699.825308760049
 20
913.1268105825706
 30
0.0
 11
1700.88095470005
 21
891.3421170925704
 31
0.0
  0
LINE
  5
154
330
1F
100
AcDbEntity
  8
スト_ル
  6
CONTINUOUS
 62
     7
100
AcDbLine
 10
1721.936600640049
 20
913.1268105825706
 30
0.0
 11
1720.88095470005
 21
891.3421170925704
 31
0.0
  0
LINE
  5
155
330
1F
100
AcDbEntity
  8
スト_ル
  6
CONTINUOUS
 62
     7
100
AcDbLine
 10
1680.88095470005
 20
921.3421170925706
 30
0.0
 11
1669.88095470005
 21
921.3421170925706
 31
0.0
  0
LINE
  5
156
330
1F
100
AcDbEntity
  8
スト_ル
  6
CONTINUOUS
 62
     7
100
AcDbLine
 10
1767.880954700049
 20
921.3421170925706
 30
0.0
 11
1740.88095470005
 21
921.3421170925706
 31
0.0
  0
LINE
  5
157
330
1F
100
AcDbEntity
  8
スト_ル
  6
CONTINUOUS
 62
     7
100
AcDbLine
 10
1744.11233248105
 20
931.3421170925704
 30
0.0
 11
1737.968947828049
 21
931.3421170925704
 31
0.0
  0
ARC
  5
158
330
1F
100
AcDbEntity
  8
スト_ル
  6
CONTINUOUS
 62
     7
100
AcDbCircle
 10
1669.88095470005
 20
925.3421170925702
 30
0.0
 40
4.0
100
AcDbArc
 50
180.0
 51
270.0000000000002
  0
ARC
  5
159
330
1F
100
AcDbEntity
  8
スト_ル
  6
CONTINUOUS
 62
     7
100
AcDbCircle
 10
1677.880954700049
 20
933.3421170925703
 30
0.0
 40
2.0
100
AcDbArc
 50
180.0
 51
270.0000000000002
  0
ARC
  5
15A
330
1F
100
AcDbEntity
  8
スト_ル
  6
CONTINUOUS
 62
     7
100
AcDbCircle
 10
1767.880954700049
 20
924.3421170925701
 30
0.0
 40
3.000000000000001
100
AcDbArc
 50
270.0000000000002
 51
0.0
  0
LINE
  5
15B
330
1F
100
AcDbEntity
  8
スト_ル
  6
CONTINUOUS
 62
     7
100
AcDbLine
 10
1665.88095470005
 20
931.5078438615706
 30
0.0
 11
1665.88095470005
 21
925.3421170925702
 31
0.0
  0
ARC
  5
15C
330
1F
100
AcDbEntity
  8
スト_ル
  6
CONTINUOUS
 62
     7
100
AcDbCircle
 10
1653.880954700049
 20
931.5078438615706
 30
0.0
 40
12.00000000000001
100
AcDbArc
 50
0.0
 51
86.17534360280004
  0
LINE
  5
15D
330
1F
100
AcDbEntity
  8
スト_ル
  6
CONTINUOUS
 62
     7
100
AcDbLine
 10
1675.88095470005
 20
939.9427715885703
 30
0.0
 11
1675.88095470005
 21
933.3421170925703
 31
0.0
  0
LINE
  5
15E
330
1F
100
AcDbEntity
  8
スト_ル
  6
CONTINUOUS
 62
     7
100
AcDbLine
 10
1680.88095470005
 20
921.3421170925704
 30
0.0
 11
1691.38095470005
 21
911.3421170925704
 31
0.0
  0
LINE
  5
15F
330
1F
100
AcDbEntity
  8
スト_ル
  6
CONTINUOUS
 62
     7
100
AcDbLine
 10
1740.88095470005
 20
921.3421170925704
 30
0.0
 11
1730.380954700049
 21
911.3421170925704
 31
0.0
  0
LINE
  5
160
330
1F
100
AcDbEntity
  8
スト_ル
  6
CONTINUOUS
 62
     7
100
AcDbLine
 10
1691.380954700049
 20
911.3421170925704
 30
0.0
 11
1691.380954700049
 21
894.3421170925706
 31
0.0
  0
ARC
  5
161
330
1F
100
AcDbEntity
  8
スト_ル
  6
CONTINUOUS
 62
     7
100
AcDbCircle
 10
1694.380954700049
 20
894.3421170925706
 30
0.0
 40
3.000000000000001
100
AcDbArc
 50
180.0
 51
270.0000000000002
  0
LINE
  5
162
330
1F
100
AcDbEntity
  8
スト_ル
  6
CONTINUOUS
 62
     7
100
AcDbLine
 10
1730.380954700049
 20
911.3421170925704
 30
0.0
 11
1730.380954700049
 21
894.3421170925706
 31
0.0
  0
ARC
  5
163
330
1F
100
AcDbEntity
  8
スト_ル
  6
CONTINUOUS
 62
     7
100
AcDbCircle
 10
1727.38095470005
 20
894.3421170925706
 30
0.0
 40
3.000000000000001
100
AcDbArc
 50
270.0000000000002
 51
0.0
  0
LINE
  5
164
330
1F
100
AcDbEntity
  8
スト_ル
  6
CONTINUOUS
 62
     7
100
AcDbLine
 10
1727.38095470005
 20
891.3421170925704
 30
0.0
 11
1694.380954700049
 21
891.3421170925704
 31
0.0
  0
LINE
  5
165
330
1F
100
AcDbEntity
  8
スト_ル
  6
CONTINUOUS
 62
     7
100
AcDbLine
 10
1696.463248350549
 20
920.1323376184366
 30
0.0
 11
1683.79296157205
 21
931.3421170925704
 31
0.0
  0
ARC
  5
166
330
1F
100
AcDbEntity
  8
スト_ル
  6
CONTINUOUS
 62
     7
100
AcDbCircle
 10
1689.837029084049
 20
912.6427970295704
 30
0.0
 40
10.0
100
AcDbArc
 50
2.7742773112987
 51
48.49985629795193
  0
LINE
  5
167
330
1F
100
AcDbEntity
  8
スト_ル
  6
CONTINUOUS
 62
     7
100
AcDbLine
 10
1725.298661049551
 20
920.1323376184366
 30
0.0
 11
1737.96894782805
 21
931.3421170925704
 31
0.0
  0
ARC
  5
168
330
1F
100
AcDbEntity
  8
スト_ル
  6
CONTINUOUS
 62
     7
100
AcDbCircle
 10
1731.92488031605
 20
912.6427970295704
 30
0.0
 40
10.0
100
AcDbArc
 50
131.500143702048
 51
177.2257226887013
  0
ARC
  5
169
330
1F
100
AcDbEntity
  8
スト_ル
  6
CONTINUOUS
 62
     7
100
AcDbCircle
 10
1470.880954700049
 20
1036.34211709257
 30
0.0
 40
5.0
100
AcDbArc
 50
90.00000000000004
 51
184.0467325105499
  0
LINE
  5
16A
330
1F
100
AcDbEntity
  8
スト_ル
  6
CONTINUOUS
 62
     7
100
AcDbLine
 10
1465.893420587342
 20
1035.989266593676
 30
0.0
 11
1469.556866682407
 21
984.2065358720998
 31
0.0
  0
LINE
  5
16B
330
1F
100
AcDbEntity
  8
スト_ル
  6
CONTINUOUS
 62
     7
100
AcDbLine
 10
1562.668352484649
 20
1055.044388814
 30
0.0
 11
1470.145618856756
 21
1041.287749630231
 31
0.0
  0
ARC
  5
16C
330
1F
100
AcDbEntity
  8
スト_ル
  6
CONTINUOUS
 62
     7
100
AcDbCircle
 10
1550.90297899195
 20
1134.174509416571
 30
0.0
 40
80.0
100
AcDbArc
 50
278.4570027318701
 51
326.3720407754701
  0
LINE
  5
16D
330
1F
100
AcDbEntity
  8
スト_ル
  6
CONTINUOUS
 62
     7
100
AcDbLine
 10
1767.880954700049
 20
1601.34211709257
 30
0.0
 11
1759.88095470005
 21
1601.34211709257
 31
0.0
  0
ARC
  5
16E
330
1F
100
AcDbEntity
  8
スト_ル
  6
CONTINUOUS
 62
     7
100
AcDbCircle
 10
1759.88095470005
 20
1597.34211709257
 30
0.0
 40
4.0
100
AcDbArc
 50
90.00000000000004
 51
180.0
  0
ARC
  5
16F
330
1F
100
AcDbEntity
  8
スト_ル
  6
CONTINUOUS
 62
     7
100
AcDbCircle
 10
1767.880954700049
 20
1598.34211709257
 30
0.0
 40
3.000000000000001
100
AcDbArc
 50
0.0
 51
90.00000000000004
  0
LINE
  5
170
330
1F
100
AcDbEntity
  8
スト_ル
  6
CONTINUOUS
 62
     7
100
AcDbLine
 10
1770.88095470005
 20
1598.34211709257
 30
0.0
 11
1770.88095470005
 21
924.3421170925701
 31
0.0
  0
LINE
  5
171
330
1F
100
AcDbEntity
  8
スト_ル
  6
CONTINUOUS
 62
     7
100
AcDbLine
 10
1693.86480716915
 20
1570.46186180327
 30
0.0
 11
1748.109630942149
 21
1574.33649207277
 31
0.0
  0
ARC
  5
172
330
1F
100
AcDbEntity
  8
スト_ル
  6
CONTINUOUS
 62
     7
100
AcDbCircle
 10
1746.88095470005
 20
1583.271659457518
 30
0.0
 40
9.0
100
AcDbArc
 50
274.0856167799719
 51
0.0
  0
LINE
  5
173
330
1F
100
AcDbEntity
  8
スト_ル
  6
CONTINUOUS
 62
     7
100
AcDbLine
 10
1755.88095470005
 20
1597.34211709257
 30
0.0
 11
1755.88095470005
 21
1583.271659457518
 31
0.0
  0
LINE
  5
174
330
1F
100
AcDbEntity
  8
スト_ル
  6
CONTINUOUS
 62
     7
100
AcDbLine
 10
1689.501902506971
 20
1568.977409445747
 30
0.0
 11
1673.724955864195
 21
1556.475339359074
 31
0.0
  0
ARC
  5
175
330
1F
100
AcDbEntity
  8
スト_ル
  6
CONTINUOUS
 62
     7
100
AcDbCircle
 10
1679.93564532305
 20
1548.637780016671
 30
0.0
 40
10.0
100
AcDbArc
 50
128.394236652212
 51
176.9324943490027
  0
LINE
  5
176
330
1F
100
AcDbEntity
  8
スト_ル
  6
EXLTYPE3
 62
     1
100
AcDbLine
 10
1710.8809547
 20
678.5999999999999
 30
0.0
 11
1710.8809547
 21
984.3842009595696
 31
0.0
  0
ARC
  5
177
330
1F
100
AcDbEntity
  8
スト_ル
  6
CONTINUOUS
 62
     7
100
AcDbCircle
 10
1693.677793909352
 20
1563.707656885999
 30
0.0
 40
6.723716312088331
100
AcDbArc
 50
94.08561677997592
 51
128.3942366522111
  0
ARC
  5
178
330
1F
100
AcDbEntity
  8
スト_ル
  6
CONTINUOUS
 62
     7
100
AcDbCircle
 10
1660.88095470005
 20
939.9427715885703
 30
0.0
 40
15.00000000000001
100
AcDbArc
 50
0.0
 51
34.22963070865892
  0
ARC
  5
179
330
1F
100
AcDbEntity
  8
スト_ル
  6
CONTINUOUS
 62
     7
100
AcDbCircle
 10
1743.88095470005
 20
933.3421170925703
 30
0.0
 40
2.0
100
AcDbArc
 50
270.0000000000002
 51
0.0
  0
LINE
  5
17A
330
1F
100
AcDbEntity
  8
スト_ル
  6
CONTINUOUS
 62
     7
100
AcDbLine
 10
1745.88095470005
 20
939.9427715885703
 30
0.0
 11
1745.88095470005
 21
933.3421170925703
 31
0.0
  0
ARC
  5
17B
330
1F
100
AcDbEntity
  8
スト_ル
  6
CONTINUOUS
 62
     7
100
AcDbCircle
 10
1760.88095470005
 20
939.9427715885703
 30
0.0
 40
15.00000000000001
100
AcDbArc
 50
151.1464781019976
 51
180.0
  0
LINE
  5
17C
330
1F
100
AcDbEntity
  8
スト_ル
  6
CONTINUOUS
 62
     7
100
AcDbLine
 10
1683.79296157205
 20
931.3421170925704
 30
0.0
 11
1677.880954700049
 21
931.3421170925704
 31
0.0
  0
LINE
  5
17D
330
1F
100
AcDbEntity
  8
スト_ル
  6
CONTINUOUS
 62
     7
100
AcDbLine
 10
1684.889309167756
 20
917.5246366471357
 30
0.0
 11
1690.143507001256
 21
724.3318239999999
 31
0.0
  0
LINE
  5
17E
330
1F
100
AcDbEntity
  8
スト_ル
  6
CONTINUOUS
 62
     7
100
AcDbLine
 10
1731.618402398745
 20
724.3318239999999
 30
0.0
 11
1736.872600232242
 21
917.5246366470392
 31
0.0
  0
LINE
  5
17F
330
1F
100
AcDbEntity
  8
スト_ル
  6
CONTINUOUS
 62
     2
100
AcDbLine
 10
1694.3
 20
912.8
 30
0.0
 11
1694.3
 21
893.6000000000001
 31
0.0
  0
LINE
  5
180
330
1F
100
AcDbEntity
  8
スト_ル
  6
CONTINUOUS
 62
     2
100
AcDbLine
 10
1697.8
 20
912.0999999999999
 30
0.0
 11
1697.8
 21
893.6000000000001
 31
0.0
  0
LINE
  5
181
330
1F
100
AcDbEntity
  8
スト_ル
  6
CONTINUOUS
 62
     2
100
AcDbLine
 10
1694.739700781549
 20
913.5279798287168
 30
0.0
 11
1683.876695548086
 21
923.1388035789831
 31
0.0
  0
LINE
  5
182
330
1F
100
AcDbEntity
  8
スト_ル
  6
CONTINUOUS
 62
     2
100
AcDbLine
 10
1697.142694988943
 20
915.5003731320721
 30
0.0
 11
1683.19296157205
 21
927.8421170925703
 31
0.0
  0
LINE
  5
183
330
1F
100
AcDbEntity
  8
スト_ル
  6
CONTINUOUS
 62
     2
100
AcDbLine
 10
1723.9619094
 20
912.0999999999999
 30
0.0
 11
1723.9619094
 21
893.6000000000001
 31
0.0
  0
LINE
  5
184
330
1F
100
AcDbEntity
  8
スト_ル
  6
CONTINUOUS
 62
     2
100
AcDbLine
 10
1727.4619094
 20
912.8
 30
0.0
 11
1727.4619094
 21
893.6000000000001
 31
0.0
  0
LINE
  5
185
330
1F
100
AcDbEntity
  8
スト_ル
  6
CONTINUOUS
 62
     2
100
AcDbLine
 10
1724.619214411058
 20
915.5003731320721
 30
0.0
 11
1738.568947827951
 21
927.8421170925703
 31
0.0
  0
LINE
  5
186
330
1F
100
AcDbEntity
  8
スト_ル
  6
CONTINUOUS
 62
     2
100
AcDbLine
 10
1727.022208618451
 20
913.5279798287168
 30
0.0
 11
1737.885213851915
 21
923.1388035789831
 31
0.0
  0
LINE
  5
187
330
1F
100
AcDbEntity
  8
スト_ル
  6
CONTINUOUS
 62
     2
100
AcDbLine
 10
1747.9619094
 20
928.8000000000001
 30
0.0
 11
1740.2619094
 21
928.8000000000001
 31
0.0
  0
LINE
  5
188
330
1F
100
AcDbEntity
  8
スト_ル
  6
CONTINUOUS
 62
     2
100
AcDbLine
 10
1751.1619094
 20
924.8000000000002
 30
0.0
 11
1739.3619094
 21
924.8000000000002
 31
0.0
  0
LINE
  5
189
330
1F
100
AcDbEntity
  8
スト_ル
  6
CONTINUOUS
 62
     2
100
AcDbLine
 10
1751.841421380171
 20
944.0565663293751
 30
0.0
 11
1750.010382178408
 21
940.5110806172149
 31
0.0
  0
LINE
  5
18A
330
1F
100
AcDbEntity
  8
スト_ル
  6
CONTINUOUS
 62
     2
100
AcDbLine
 10
1754.742892205899
 20
940.7392172278005
 30
0.0
 11
1753.035316043315
 21
935.6977039182273
 31
0.0
  0
LINE
  5
18B
330
1F
100
AcDbEntity
  8
スト_ル
  6
CONTINUOUS
 62
     2
100
AcDbLine
 10
1756.3619094
 20
934.0999999999998
 30
0.0
 11
1756.3619094
 21
923.1
 31
0.0
  0
LINE
  5
18C
330
1F
100
AcDbEntity
  8
スト_ル
  6
CONTINUOUS
 62
     2
100
AcDbLine
 10
1748.7619094
 20
938.0936324306299
 30
0.0
 11
1748.7619094
 21
930.0
 31
0.0
  0
LINE
  5
18D
330
1F
100
AcDbEntity
  8
スト_ル
  6
CONTINUOUS
 62
     2
100
AcDbLine
 10
1752.5619094
 20
934.3000000000001
 30
0.0
 11
1752.5619094
 21
926.2
 31
0.0
  0
LINE
  5
18E
330
1F
100
AcDbEntity
  8
スト_ル
  6
CONTINUOUS
 62
     2
100
AcDbLine
 10
1666.0036485544
 20
943.73703051622
 30
0.0
 11
1668.655035182223
 21
935.908975015156
 31
0.0
  0
LINE
  5
18F
330
1F
100
AcDbEntity
  8
スト_ル
  6
CONTINUOUS
 62
     2
100
AcDbLine
 10
1669.0728117888
 20
945.6979424193901
 30
0.0
 11
1672.249186895474
 21
939.5474500944113
 31
0.0
  0
LINE
  5
190
330
1F
100
AcDbEntity
  8
スト_ル
  6
CONTINUOUS
 62
     2
100
AcDbLine
 10
1673.0
 20
938.0936324306299
 30
0.0
 11
1673.0
 21
930.1999999999999
 31
0.0
  0
LINE
  5
191
330
1F
100
AcDbEntity
  8
スト_ル
  6
CONTINUOUS
 62
     2
100
AcDbLine
 10
1669.2
 20
934.3000000000001
 30
0.0
 11
1669.2
 21
924.8000000000002
 31
0.0
  0
LINE
  5
192
330
1F
100
AcDbEntity
  8
スト_ル
  6
CONTINUOUS
 62
     2
100
AcDbLine
 10
1670.6
 20
924.8000000000002
 30
0.0
 11
1682.4
 21
924.8000000000002
 31
0.0
  0
LINE
  5
193
330
1F
100
AcDbEntity
  8
スト_ル
  6
CONTINUOUS
 62
     2
100
AcDbLine
 10
1673.8
 20
928.8000000000001
 30
0.0
 11
1681.5
 21
928.8000000000001
 31
0.0
  0
LINE
  5
194
330
1F
100
AcDbEntity
  8
スト_ル
  6
CONTINUOUS
 62
     7
100
AcDbLine
 10
573.2951172999997
 20
921.3421170925708
 30
0.0
 11
724.3638580999991
 21
921.3421170925704
 31
0.0
  0
LINE
  5
195
330
1F
100
AcDbEntity
  8
スト_ル
  6
CONTINUOUS
 62
     7
100
AcDbLine
 10
603.8294876999997
 20
944.3421170925703
 30
0.0
 11
693.8294876999996
 21
944.3421170925703
 31
0.0
  0
LINE
  5
196
330
1F
100
AcDbEntity
  8
スト_ル
  6
CONTINUOUS
 62
     7
100
AcDbLine
 10
603.8294876999997
 20
925.3421170925702
 30
0.0
 11
603.8294876999997
 21
939.7048380085704
 31
0.0
  0
ARC
  5
197
330
1F
100
AcDbEntity
  8
スト_ル
  6
CONTINUOUS
 62
     7
100
AcDbCircle
 10
648.8294876999996
 20
1159.036667558571
 30
0.0
 40
230.0000000000002
100
AcDbArc
 50
248.9778898264001
 51
248.9798868501002
  0
LINE
  5
198
330
1F
100
AcDbEntity
  8
スト_ル
  6
CONTINUOUS
 62
     7
100
AcDbLine
 10
693.8294876999996
 20
925.3421170925702
 30
0.0
 11
693.8294876999996
 21
939.7048380085704
 31
0.0
  0
ARC
  5
199
330
1F
100
AcDbEntity
  8
スト_ル
  6
CONTINUOUS
 62
     7
100
AcDbCircle
 10
610.5595235122997
 20
1064.15324603257
 30
0.0
 40
120.0000000000001
100
AcDbArc
 50
181.7110608422001
 51
266.7849576771009
  0
ARC
  5
19A
330
1F
100
AcDbEntity
  8
スト_ル
  6
CONTINUOUS
 62
     7
100
AcDbCircle
 10
687.0994518876993
 20
1064.15324603257
 30
0.0
 40
120.0000000000001
100
AcDbArc
 50
273.2150423228902
 51
358.2889391578204
  0
LINE
  5
19B
330
1F
100
AcDbEntity
  8
スト_ル
  6
EXLTYPE3
 62
     1
100
AcDbLine
 10
583.8294876999997
 20
922.3421170925707
 30
0.0
 11
583.8294876999997
 21
951.3421170925704
 31
0.0
  0
LINE
  5
19C
330
1F
100
AcDbEntity
  8
スト_ル
  6
EXLTYPE3
 62
     1
100
AcDbLine
 10
713.8294876999996
 20
921.3421170925704
 30
0.0
 11
713.8294876999996
 21
951.3421170925704
 31
0.0
  0
LINE
  5
19D
330
1F
100
AcDbEntity
  8
スト_ル
  6
EXLTYPE3
 62
     1
100
AcDbLine
 10
727.8294876999994
 20
936.3421170925704
 30
0.0
 11
698.8294876999996
 21
936.3421170925704
 31
0.0
  0
LINE
  5
19E
330
1F
100
AcDbEntity
  8
スト_ル
  6
EXLTYPE3
 62
     1
100
AcDbLine
 10
599.8294876999996
 20
936.3421170925704
 30
0.0
 11
568.8294876999997
 21
936.3421170925704
 31
0.0
  0
LINE
  5
19F
330
1F
100
AcDbEntity
  8
スト_ル
  6
CONTINUOUS
 62
     7
100
AcDbLine
 10
563.9150610104998
 20
927.8759168665704
 30
0.0
 11
553.5856884745998
 21
955.8287440265703
 31
0.0
  0
LINE
  5
1A0
330
1F
100
AcDbEntity
  8
スト_ル
  6
CONTINUOUS
 62
     7
100
AcDbLine
 10
733.7439143894992
 20
927.8759168665704
 30
0.0
 11
744.0732869253995
 21
955.8287440265703
 31
0.0
  0
ARC
  5
1A1
330
1F
100
AcDbEntity
  8
スト_ル
  6
CONTINUOUS
 62
     7
100
AcDbCircle
 10
753.4533432148996
 20
952.3625437995704
 30
0.0
 40
10.0
100
AcDbArc
 50
120.6914465658028
 51
159.7192806220992
  0
ARC
  5
1A2
330
1F
100
AcDbEntity
  8
スト_ル
  6
CONTINUOUS
 62
     7
100
AcDbCircle
 10
724.3638580999991
 20
931.3421170925704
 30
0.0
 40
10.0
100
AcDbArc
 50
270.0000000000002
 51
339.719280622129
  0
ARC
  5
1A3
330
1F
100
AcDbEntity
  8
スト_ル
  6
CONTINUOUS
 62
     7
100
AcDbCircle
 10
698.8294876999996
 20
939.7048380085704
 30
0.0
 40
5.0
100
AcDbArc
 50
95.38457493260279
 51
180.0
  0
ARC
  5
1A4
330
1F
100
AcDbEntity
  8
スト_ル
  6
CONTINUOUS
 62
     7
100
AcDbCircle
 10
689.8294876999993
 20
925.3421170925702
 30
0.0
 40
4.0
100
AcDbArc
 50
270.0000000000002
 51
0.0
  0
ARC
  5
1A5
330
1F
100
AcDbEntity
  8
スト_ル
  6
CONTINUOUS
 62
     7
100
AcDbCircle
 10
607.8294876999997
 20
925.3421170925702
 30
0.0
 40
4.0
100
AcDbArc
 50
180.0
 51
270.0000000000002
  0
ARC
  5
1A6
330
1F
100
AcDbEntity
  8
スト_ル
  6
CONTINUOUS
 62
     7
100
AcDbCircle
 10
598.8294876999997
 20
939.7048380085704
 30
0.0
 40
5.0
100
AcDbArc
 50
0.0
 51
84.61542506740042
  0
ARC
  5
1A7
330
1F
100
AcDbEntity
  8
スト_ル
  6
CONTINUOUS
 62
     7
100
AcDbCircle
 10
544.2056321850997
 20
952.3625437995704
 30
0.0
 40
10.0
100
AcDbArc
 50
20.28071937790085
 51
59.3085534342004
  0
ARC
  5
1A8
330
1F
100
AcDbEntity
  8
スト_ル
  6
CONTINUOUS
 62
     7
100
AcDbCircle
 10
573.2951172999997
 20
931.3421170925704
 30
0.0
 40
10.0
100
AcDbArc
 50
200.2807193779009
 51
270.0000000000002
  0
ARC
  5
1A9
330
1F
100
AcDbEntity
  8
スト_ル
  6
CONTINUOUS
 62
     7
100
AcDbCircle
 10
540.3587145368998
 20
1535.806164387671
 30
0.0
 40
15.00000000000001
100
AcDbArc
 50
97.94250552639971
 51
174.7684673167015
  0
ARC
  5
1AA
330
1F
100
AcDbEntity
  8
スト_ル
  6
CONTINUOUS
 62
     7
100
AcDbCircle
 10
531.9315272651768
 20
1574.555455600243
 30
0.0
 40
18.0
100
AcDbArc
 50
98.59713390555211
 51
173.6978034631327
  0
ARC
  5
1AB
330
1F
100
AcDbEntity
  8
スト_ル
  6
CONTINUOUS
 62
     7
100
AcDbCircle
 10
4489.867297253145
 20
1137.44169392059
 30
0.0
 40
4000.000000000003
100
AcDbArc
 50
173.6978034631324
 51
181.0823114661918
  0
ARC
  5
1AC
330
1F
100
AcDbEntity
  8
スト_ル
  6
CONTINUOUS
 62
     7
100
AcDbCircle
 10
-3192.208321853146
 20
1137.44169392059
 30
0.0
 40
4000.000000000003
100
AcDbArc
 50
358.9176885338085
 51
6.302196536867324
  0
ARC
  5
1AD
330
1F
100
AcDbEntity
  8
スト_ル
  6
CONTINUOUS
 62
     7
100
AcDbCircle
 10
757.3002608630995
 20
1535.806164387671
 30
0.0
 40
15.00000000000001
100
AcDbArc
 50
5.231532683298524
 51
82.05749447360023
  0
ARC
  5
1AE
330
1F
100
AcDbEntity
  8
スト_ル
  6
CONTINUOUS
 62
     7
100
AcDbCircle
 10
765.7274481348228
 20
1574.555455600242
 30
0.0
 40
18.0
100
AcDbArc
 50
6.302196536869157
 51
81.40286609444875
  0
ARC
  5
1AF
330
1F
100
AcDbEntity
  8
スト_ル
  6
CONTINUOUS
 62
     7
100
AcDbCircle
 10
648.8294876999996
 20
801.342117092571
 30
0.0
 40
800.0000000000007
100
AcDbArc
 50
81.40286609444796
 51
98.59713390555196
  0
ARC
  5
1B0
330
1F
100
AcDbEntity
  8
スト_ル
  6
CONTINUOUS
 62
     7
100
AcDbCircle
 10
648.8294876999996
 20
758.3364920727706
 30
0.0
 40
800.0000000000007
100
AcDbArc
 50
82.05749447365214
 51
97.94250552640001
  0
ARC
  5
1B1
330
1F
100
AcDbEntity
  8
スト_ル
  6
CONTINUOUS
 62
     7
100
AcDbCircle
 10
648.8294876999996
 20
1221.34211709257
 30
0.0
 40
180.0
100
AcDbArc
 50
270.0000000000002
 51
282.1492550679499
  0
LINE
  5
1B2
330
1F
100
AcDbEntity
  8
スト_ル
  6
CONTINUOUS
 62
     7
100
AcDbLine
 10
762.2998134939994
 20
1061.646212800571
 30
0.0
 11
686.7121166138
 21
1045.373635748571
 31
0.0
  0
LINE
  5
1B3
330
1F
100
AcDbEntity
  8
スト_ル
  6
CONTINUOUS
 62
     7
100
AcDbLine
 10
542.0695373547999
 20
1060.201598054571
 30
0.0
 11
610.9468587862001
 21
1045.373635748571
 31
0.0
  0
ARC
  5
1B4
330
1F
100
AcDbEntity
  8
スト_ル
  6
CONTINUOUS
 62
     7
100
AcDbCircle
 10
648.8294876999996
 20
1221.34211709257
 30
0.0
 40
180.0
100
AcDbArc
 50
257.8507449320005
 51
270.0000000000002
  0
ARC
  5
1B5
330
1F
100
AcDbEntity
  8
スト_ル
  6
CONTINUOUS
 62
     7
100
AcDbCircle
 10
752.8291562654997
 20
1105.63833313657
 30
0.0
 40
45.0
100
AcDbArc
 50
282.1492550679494
 51
0.0
  0
ARC
  5
1B6
330
1F
100
AcDbEntity
  8
スト_ル
  6
CONTINUOUS
 62
     7
100
AcDbCircle
 10
544.8298191344999
 20
1105.63833313657
 30
0.0
 40
45.0
100
AcDbArc
 50
180.0
 51
257.850744932
  0
ARC
  5
1B7
330
1F
100
AcDbEntity
  8
スト_ル
  6
CONTINUOUS
 62
     7
100
AcDbCircle
 10
-3191.644220515066
 20
1147.397252295123
 30
0.0
 40
3983.000000000005
100
AcDbArc
 50
359.3713992351036
 51
5.617410209901504
  0
ARC
  5
1B8
330
1F
100
AcDbEntity
  8
スト_ル
  6
CONTINUOUS
 62
     7
100
AcDbCircle
 10
746.1187808167992
 20
1104.193718390571
 30
0.0
 40
45.0
100
AcDbArc
 50
282.1492550679508
 51
359.3713992351035
  0
ARC
  5
1B9
330
1F
100
AcDbEntity
  8
スト_ル
  6
CONTINUOUS
 62
     7
100
AcDbCircle
 10
551.5401945831998
 20
1104.193718390571
 30
0.0
 40
45.0
100
AcDbArc
 50
180.628600764897
 51
257.850744932
  0
ARC
  5
1BA
330
1F
100
AcDbEntity
  8
スト_ル
  6
CONTINUOUS
 62
     7
100
AcDbCircle
 10
4489.303195915067
 20
1147.397252295123
 30
0.0
 40
3983.000000000005
100
AcDbArc
 50
174.3825897900984
 51
180.6286007648964
  0
ARC
  5
1BB
330
1F
100
AcDbEntity
  8
スト_ル
  6
CONTINUOUS
 62
     7
100
AcDbCircle
 10
648.8294876999996
 20
774.3364920727709
 30
0.0
 40
800.0000000000007
100
AcDbArc
 50
81.01636998634669
 51
98.97302174770009
  0
ARC
  5
1BC
330
1F
100
AcDbEntity
  8
スト_ル
  6
CONTINUOUS
 62
     7
100
AcDbCircle
 10
771.4090165611026
 20
1549.706893303171
 30
0.0
 40
15.00000000000001
100
AcDbArc
 50
5.938116780803759
 51
81.016369986348
  0
ARC
  5
1BD
330
1F
100
AcDbEntity
  8
スト_ル
  6
CONTINUOUS
 62
     7
100
AcDbCircle
 10
526.2499588388972
 20
1549.706893303171
 30
0.0
 40
15.00000000000001
100
AcDbArc
 50
98.9836300136532
 51
174.0618832191974
  0
ARC
  5
1BE
330
1F
100
AcDbEntity
  8
スト_ル
  6
CONTINUOUS
 62
     7
100
AcDbCircle
 10
648.8294876999996
 20
1222.342117092571
 30
0.0
 40
250.0000000000002
100
AcDbArc
 50
243.5378136666002
 51
270.0000000000002
  0
ARC
  5
1BF
330
1F
100
AcDbEntity
  8
スト_ル
  6
CONTINUOUS
 62
     7
100
AcDbCircle
 10
648.8294876999996
 20
1222.342117092571
 30
0.0
 40
250.0000000000002
100
AcDbArc
 50
270.0000000000002
 51
296.4621863333502
  0
LINE
  5
1C0
330
1F
100
AcDbEntity
  8
スト_ル
  6
EXLTYPE3
 62
     1
100
AcDbLine
 10
573.1294876999999
 20
1586.336492072771
 30
0.0
 11
599.9294877
 21
1586.336492072771
 31
0.0
  0
LINE
  5
1C1
330
1F
100
AcDbEntity
  8
スト_ル
  6
EXLTYPE3
 62
     1
100
AcDbLine
 10
586.3294876999996
 20
1574.536492072771
 30
0.0
 11
586.3294876999996
 21
1597.93649207277
 31
0.0
  0
LINE
  5
1C2
330
1F
100
AcDbEntity
  8
スト_ル
  6
EXLTYPE3
 62
     1
100
AcDbLine
 10
724.5294877000001
 20
1586.336492072771
 30
0.0
 11
697.7294876999999
 21
1586.336492072771
 31
0.0
  0
LINE
  5
1C3
330
1F
100
AcDbEntity
  8
スト_ル
  6
EXLTYPE3
 62
     1
100
AcDbLine
 10
711.3294877000004
 20
1574.536492072771
 30
0.0
 11
711.3294877000004
 21
1597.93649207277
 31
0.0
  0
LINE
  5
1C4
330
1F
100
AcDbEntity
  8
スト_ル
  6
CONTINUOUS
 62
     7
100
AcDbLine
 10
622.8397807924779
 20
917.8318240000899
 30
0.0
 11
628.1023330937333
 21
724.33182400009
 31
0.0
  0
LINE
  5
1C5
330
1F
100
AcDbEntity
  8
スト_ル
  6
CONTINUOUS
 62
     7
100
AcDbLine
 10
669.5772284912226
 20
724.33182400009
 30
0.0
 11
674.8397807924778
 21
917.8318240000899
 31
0.0
  0
LINE
  5
1C6
330
1F
100
AcDbEntity
  8
スト_ル
  6
CONTINUOUS
 62
     7
100
AcDbLine
 10
629.339780792478
 20
678.60000000009
 30
0.0
 11
668.339780792478
 21
678.60000000009
 31
0.0
  0
LINE
  5
1C7
330
1F
100
AcDbEntity
  8
スト_ル
  6
CONTINUOUS
 62
     7
100
AcDbLine
 10
628.4558895790889
 20
711.3318240000899
 30
0.0
 11
629.3397807924782
 21
678.8318240000899
 31
0.0
  0
LINE
  5
1C8
330
1F
100
AcDbEntity
  8
スト_ル
  6
CONTINUOUS
 62
     7
100
AcDbLine
 10
668.339780792478
 20
678.8318240000899
 30
0.0
 11
669.2236720058668
 21
711.3318240000899
 31
0.0
  0
ARC
  5
1C9
330
1F
100
AcDbEntity
  8
スト_ル
  6
CONTINUOUS
 62
     7
100
AcDbCircle
 10
658.713001194478
 20
707.4861091620897
 30
0.0
 40
20.0
100
AcDbArc
 50
11.08620762657089
 51
57.3822812839401
  0
ARC
  5
1CA
330
1F
100
AcDbEntity
  8
スト_ル
  6
CONTINUOUS
 62
     7
100
AcDbCircle
 10
638.966560390478
 20
707.4861091620897
 30
0.0
 40
20.0
100
AcDbArc
 50
122.6177187160598
 51
168.9137923734291
  0
LINE
  5
1CB
330
1F
100
AcDbEntity
  8
スト_ル
  6
CONTINUOUS
 62
     7
100
AcDbLine
 10
628.1859346388444
 20
724.33182400009
 30
0.0
 11
669.4936269462778
 21
724.33182400009
 31
0.0
  0
LINE
  5
1CC
330
1F
100
AcDbEntity
  8
スト_ル
  6
EXLTYPE3
 62
     1
100
AcDbLine
 10
648.8294877
 20
668.0102930925898
 30
0.0
 11
648.8294877
 21
1618.34211709257
 31
0.0
  0
LINE
  5
1CD
330
1F
100
AcDbEntity
  8
スト_ル
  6
CONTINUOUS
 62
     7
100
AcDbLine
 10
619.3294876999984
 20
921.3421170925697
 30
0.0
 11
622.8397807924782
 21
917.8318240000903
 31
0.0
  0
LINE
  5
1CE
330
1F
100
AcDbEntity
  8
スト_ル
  6
CONTINUOUS
 62
     7
100
AcDbLine
 10
678.3294877000012
 20
921.3421170925697
 30
0.0
 11
674.8191946075218
 21
917.8318240000899
 31
0.0
  0
LINE
  5
1CF
330
1F
100
AcDbEntity
  8
スト_ル
  6
EXLTYPE2
 62
     2
100
AcDbLine
 10
665.3294876999997
 20
891.3421170925704
 30
0.0
 11
632.3294876999996
 21
891.3421170925704
 31
0.0
  0
LINE
  5
1D0
330
1F
100
AcDbEntity
  8
スト_ル
  6
EXLTYPE2
 62
     2
100
AcDbLine
 10
629.3294876999995
 20
894.3421170925706
 30
0.0
 11
629.3294876999995
 21
911.3421170925704
 31
0.0
  0
LINE
  5
1D1
330
1F
100
AcDbEntity
  8
スト_ル
  6
EXLTYPE2
 62
     2
100
AcDbLine
 10
629.3294876999995
 20
911.3421170925704
 30
0.0
 11
668.3294876999995
 21
911.3421170925704
 31
0.0
  0
LINE
  5
1D2
330
1F
100
AcDbEntity
  8
スト_ル
  6
EXLTYPE2
 62
     2
100
AcDbLine
 10
668.3294876999995
 20
894.3421170925706
 30
0.0
 11
668.3294876999995
 21
911.3421170925704
 31
0.0
  0
ARC
  5
1D3
330
1F
100
AcDbEntity
  8
スト_ル
  6
EXLTYPE2
 62
     2
100
AcDbCircle
 10
665.3294876999997
 20
894.3421170925706
 30
0.0
 40
3.000000000000001
100
AcDbArc
 50
270.0000000000002
 51
0.0
  0
ARC
  5
1D4
330
1F
100
AcDbEntity
  8
スト_ル
  6
EXLTYPE2
 62
     2
100
AcDbCircle
 10
632.3294876999996
 20
894.3421170925706
 30
0.0
 40
3.000000000000001
100
AcDbArc
 50
180.0
 51
270.0000000000002
  0
LINE
  5
1D5
330
1F
100
AcDbEntity
  8
スト_ル
  6
EXLTYPE2
 62
     2
100
AcDbLine
 10
622.8397807924782
 20
917.8318240000903
 30
0.0
 11
629.3294876999976
 21
911.3421170925704
 31
0.0
  0
LINE
  5
1D6
330
1F
100
AcDbEntity
  8
スト_ル
  6
EXLTYPE2
 62
     2
100
AcDbLine
 10
674.8191946075218
 20
917.8318240000899
 30
0.0
 11
668.3294877000023
 21
911.3421170925704
 31
0.0
  0
LINE
  5
1D7
330
1F
100
AcDbEntity
  8
スト_ル
  6
CONTINUOUS
 62
     7
100
AcDbLine
 10
622.8334759556581
 20
917.8318240000899
 30
0.0
 11
674.8334759556578
 21
917.8318240000899
 31
0.0
  0
LINE
  5
1D8
330
1F
100
AcDbEntity
  8
スト_ル
  6
CONTINUOUS
 62
     7
100
AcDbLine
 10
805.5873759771998
 20
2433.658046099981
 30
0.0
 11
492.0715994228001
 21
2433.658046099981
 31
0.0
  0
ARC
  5
1D9
330
1F
100
AcDbEntity
  8
スト_ル
  6
CONTINUOUS
 62
     7
100
AcDbCircle
 10
648.8294877
 20
2198.658046099981
 30
0.0
 40
60.00000000000004
100
AcDbArc
 50
270.0000000000002
 51
315.6370767135008
  0
ARC
  5
1DA
330
1F
100
AcDbEntity
  8
スト_ル
  6
CONTINUOUS
 62
     7
100
AcDbCircle
 10
298.5160957665005
 20
2541.266463147881
 30
0.0
 40
550.0000000000003
100
AcDbArc
 50
315.6370767135001
 51
327.13288665774
  0
ARC
  5
1DB
330
1F
100
AcDbEntity
  8
スト_ル
  6
CONTINUOUS
 62
     7
100
AcDbCircle
 10
298.5160957665005
 20
2541.266463147881
 30
0.0
 40
560.0000000000003
100
AcDbArc
 50
315.6370767135001
 51
327.13288665774
  0
ARC
  5
1DC
330
1F
100
AcDbEntity
  8
スト_ル
  6
CONTINUOUS
 62
     7
100
AcDbCircle
 10
648.8294877
 20
2198.658046099981
 30
0.0
 40
70.00000000000004
100
AcDbArc
 50
270.0000000000002
 51
315.6370767135005
  0
ARC
  5
1DD
330
1F
100
AcDbEntity
  8
スト_ル
  6
CONTINUOUS
 62
     7
100
AcDbCircle
 10
609.2907499260999
 20
2340.47026215798
 30
0.0
 40
190.0000000000002
100
AcDbArc
 50
327.13288665774
 51
353.7095675544807
  0
ARC
  5
1DE
330
1F
100
AcDbEntity
  8
スト_ル
  6
CONTINUOUS
 62
     7
100
AcDbCircle
 10
-2680.780619266
 20
2703.141443284791
 30
0.0
 40
3500.000000000003
100
AcDbArc
 50
353.7095675544801
 51
355.5310294832201
  0
ARC
  5
1DF
330
1F
100
AcDbEntity
  8
スト_ル
  6
CONTINUOUS
 62
     7
100
AcDbCircle
 10
609.2907499260999
 20
2340.47026215798
 30
0.0
 40
180.0
100
AcDbArc
 50
327.1328866577401
 51
351.4992343281006
  0
ARC
  5
1E0
330
1F
100
AcDbEntity
  8
スト_ル
  6
CONTINUOUS
 62
     7
100
AcDbCircle
 10
999.1428796334998
 20
2541.266463147881
 30
0.0
 40
550.0000000000003
100
AcDbArc
 50
212.8671133423001
 51
224.3629232865003
  0
ARC
  5
1E1
330
1F
100
AcDbEntity
  8
スト_ル
  6
CONTINUOUS
 62
     7
100
AcDbCircle
 10
648.8294877
 20
2198.658046099981
 30
0.0
 40
60.00000000000004
100
AcDbArc
 50
224.3629232865001
 51
270.0000000000002
  0
ARC
  5
1E2
330
1F
100
AcDbEntity
  8
スト_ル
  6
CONTINUOUS
 62
     7
100
AcDbCircle
 10
648.8294877
 20
2198.658046099981
 30
0.0
 40
70.00000000000004
100
AcDbArc
 50
224.3629232865008
 51
270.0000000000002
  0
ARC
  5
1E3
330
1F
100
AcDbEntity
  8
スト_ル
  6
CONTINUOUS
 62
     7
100
AcDbCircle
 10
999.1428796334998
 20
2541.266463147881
 30
0.0
 40
560.0000000000003
100
AcDbArc
 50
212.8671133423001
 51
224.3629232865003
  0
ARC
  5
1E4
330
1F
100
AcDbEntity
  8
スト_ル
  6
CONTINUOUS
 62
     7
100
AcDbCircle
 10
688.3682254738998
 20
2340.47026215798
 30
0.0
 40
190.0000000000002
100
AcDbArc
 50
186.2904324455004
 51
212.8671133423004
  0
ARC
  5
1E5
330
1F
100
AcDbEntity
  8
スト_ル
  6
CONTINUOUS
 62
     7
100
AcDbCircle
 10
688.3682254738998
 20
2340.47026215798
 30
0.0
 40
180.0
100
AcDbArc
 50
188.5007656719001
 51
212.8671133423004
  0
ARC
  5
1E6
330
1F
100
AcDbEntity
  8
スト_ル
  6
CONTINUOUS
 62
     7
100
AcDbCircle
 10
3978.439594666001
 20
2703.14144328479
 30
0.0
 40
3500.000000000003
100
AcDbArc
 50
184.4689705168001
 51
186.2904324455004
  0
ARC
  5
1E7
330
1F
100
AcDbEntity
  8
スト_ル
  6
CONTINUOUS
 62
     7
100
AcDbCircle
 10
774.9827952303997
 20
2336.938046099981
 30
0.0
 40
4.0
100
AcDbArc
 50
270.0000000000002
 51
353.9826928155641
  0
ARC
  5
1E8
330
1F
100
AcDbEntity
  8
スト_ル
  6
CONTINUOUS
 62
     7
100
AcDbCircle
 10
648.8294877
 20
1764.672056257581
 30
0.0
 40
582.0059898424
100
AcDbArc
 50
77.56825164329994
 51
102.4317483567
  0
ARC
  5
1E9
330
1F
100
AcDbEntity
  8
スト_ル
  6
CONTINUOUS
 62
     7
100
AcDbCircle
 10
770.4514095751
 20
2316.382438417681
 30
0.0
 40
17.04914400031
100
AcDbArc
 50
351.4992343280996
 51
77.5682516432993
  0
ARC
  5
1EA
330
1F
100
AcDbEntity
  8
スト_ル
  6
CONTINUOUS
 62
     7
100
AcDbCircle
 10
527.2075658248999
 20
2316.382438417681
 30
0.0
 40
17.04914400031
100
AcDbArc
 50
102.4317483567002
 51
188.5007656719008
  0
ARC
  5
1EB
330
1F
100
AcDbEntity
  8
スト_ル
  6
CONTINUOUS
 62
     7
100
AcDbCircle
 10
-2198.660046126
 20
2702.265641623791
 30
0.0
 40
3000.000000000003
100
AcDbArc
 50
352.9960107444801
 51
354.8003502887101
  0
ARC
  5
1EC
330
1F
100
AcDbEntity
  8
スト_ル
  6
CONTINUOUS
 62
     7
100
AcDbCircle
 10
3496.319021525999
 20
2702.26564162379
 30
0.0
 40
3000.000000000003
100
AcDbArc
 50
185.1996497113001
 51
187.0039892555002
  0
ARC
  5
1ED
330
1F
100
AcDbEntity
  8
スト_ル
  6
CONTINUOUS
 62
     7
100
AcDbCircle
 10
522.6761801695999
 20
2336.938046099981
 30
0.0
 40
4.0
100
AcDbArc
 50
186.0173071843953
 51
270.0000000000002
  0
ARC
  5
1EE
330
1F
100
AcDbEntity
  8
スト_ル
  6
CONTINUOUS
 62
     7
100
AcDbCircle
 10
805.5873759771998
 20
2430.65804609998
 30
0.0
 40
3.000000000000001
100
AcDbArc
 50
355.5310294832205
 51
90.00000000000004
  0
ARC
  5
1EF
330
1F
100
AcDbEntity
  8
スト_ル
  6
CONTINUOUS
 62
     7
100
AcDbCircle
 10
786.0071571071
 20
2430.65804609998
 30
0.0
 40
3.000000000000001
100
AcDbArc
 50
354.8003502887187
 51
90.00000000000004
  0
ARC
  5
1F0
330
1F
100
AcDbEntity
  8
スト_ル
  6
CONTINUOUS
 62
     7
100
AcDbCircle
 10
511.6518182929002
 20
2430.65804609998
 30
0.0
 40
3.000000000000001
100
AcDbArc
 50
90.00000000000004
 51
185.1996497112924
  0
ARC
  5
1F1
330
1F
100
AcDbEntity
  8
スト_ル
  6
CONTINUOUS
 62
     7
100
AcDbCircle
 10
492.0715994228001
 20
2430.658046099981
 30
0.0
 40
3.000000000000001
100
AcDbArc
 50
90.00000000000004
 51
184.4689705168014
  0
LINE
  5
1F2
330
1F
100
AcDbEntity
  8
スト_ル
  6
CONTINUOUS
 62
     7
100
AcDbLine
 10
784.2639543350998
 20
2418.658046099981
 30
0.0
 11
513.3950210649001
 21
2418.658046099981
 31
0.0
  0
ARC
  5
1F3
330
1F
100
AcDbEntity
  8
スト_ル
  6
CONTINUOUS
 62
     7
100
AcDbCircle
 10
784.2639543350998
 20
2422.658046099981
 30
0.0
 40
4.0
100
AcDbArc
 50
270.0000000000002
 51
354.6449657041229
  0
ARC
  5
1F4
330
1F
100
AcDbEntity
  8
スト_ル
  6
CONTINUOUS
 62
     7
100
AcDbCircle
 10
513.3950210649001
 20
2422.658046099981
 30
0.0
 40
4.0
100
AcDbArc
 50
185.3550342959018
 51
270.0000000000002
  0
LINE
  5
1F5
330
1F
100
AcDbEntity
  8
スト_ル
  6
EXLTYPE3
 62
     1
100
AcDbLine
 10
648.8294877
 20
2437.99999999998
 30
0.0
 11
648.8294877
 21
2119.99999999998
 31
0.0
  0
ARC
  5
1F6
330
1F
100
AcDbEntity
  8
スト_ル
  6
EXLTYPE1
 62
     6
100
AcDbCircle
 10
672.5480365188171
 20
2383.021829626387
 30
0.0
 40
1.5
100
AcDbArc
 50
21.54348066470828
 51
119.9999999999957
  0
LINE
  5
1F7
330
1F
100
AcDbEntity
  8
スト_ル
  6
EXLTYPE1
 62
     6
100
AcDbLine
 10
668.2886259399073
 20
2382.294708589633
 30
0.0
 11
671.798036518817
 21
2384.320867732063
 31
0.0
  0
ARC
  5
1F8
330
1F
100
AcDbEntity
  8
スト_ル
  6
EXLTYPE1
 62
     6
100
AcDbCircle
 10
669.0386259399074
 20
2380.995670483956
 30
0.0
 40
1.5
100
AcDbArc
 50
119.9999999999762
 51
199.9551737240608
  0
ARC
  5
1F9
330
1F
100
AcDbEntity
  8
スト_ル
  6
EXLTYPE1
 62
     6
100
AcDbCircle
 10
662.3858029084864
 20
2377.154661315894
 30
0.0
 40
1.5
100
AcDbArc
 50
14.4632059318288
 51
120.0000000000004
  0
LINE
  5
1FA
330
1F
100
AcDbEntity
  8
スト_ル
  6
EXLTYPE1
 62
     6
100
AcDbLine
 10
657.9827580616754
 20
2376.344612995903
 30
0.0
 11
661.6358029084862
 21
2378.453699421571
 31
0.0
  0
ARC
  5
1FB
330
1F
100
AcDbEntity
  8
スト_ル
  6
EXLTYPE1
 62
     6
100
AcDbCircle
 10
658.7327580616753
 20
2375.045574890226
 30
0.0
 40
1.5
100
AcDbArc
 50
119.9999999999762
 51
187.9756871629773
  0
ARC
  5
1FC
330
1F
100
AcDbEntity
  8
スト_ル
  6
EXLTYPE1
 62
     6
100
AcDbCircle
 10
654.982758061674
 20
2381.540765418608
 30
0.0
 40
1.5
100
AcDbArc
 50
232.0243128370526
 51
300.0000000000052
  0
LINE
  5
1FD
330
1F
100
AcDbEntity
  8
スト_ル
  6
EXLTYPE1
 62
     6
100
AcDbLine
 10
655.7327580616741
 20
2380.241727312931
 30
0.0
 11
659.385802908488
 21
2382.350813738601
 31
0.0
  0
ARC
  5
1FE
330
1F
100
AcDbEntity
  8
スト_ル
  6
EXLTYPE1
 62
     6
100
AcDbCircle
 10
658.6358029084878
 20
2383.649851844278
 30
0.0
 40
1.5
100
AcDbArc
 50
300.0000000000052
 51
45.53679406812338
  0
ARC
  5
1FF
330
1F
100
AcDbEntity
  8
スト_ル
  6
EXLTYPE1
 62
     6
100
AcDbCircle
 10
665.2886259399086
 20
2387.490861012339
 30
0.0
 40
1.5
100
AcDbArc
 50
220.0448262759401
 51
300.0000000000007
  0
LINE
  5
200
330
1F
100
AcDbEntity
  8
スト_ル
  6
EXLTYPE1
 62
     6
100
AcDbLine
 10
666.0386259399085
 20
2386.191822906663
 30
0.0
 11
669.5480365188181
 21
2388.217982049093
 31
0.0
  0
ARC
  5
201
330
1F
100
AcDbEntity
  8
スト_ル
  6
EXLTYPE1
 62
     6
100
AcDbCircle
 10
668.798036518818
 20
2389.517020154769
 30
0.0
 40
1.5
100
AcDbArc
 50
300.0000000000007
 51
38.4565193352765
  0
ARC
  5
202
330
1F
100
AcDbEntity
  8
スト_ル
  6
EXLTYPE1
 62
     6
100
AcDbCircle
 10
672.5480365188171
 20
2364.294262573574
 30
0.0
 40
1.5
100
AcDbArc
 50
239.9999999999997
 51
338.4565193352678
  0
LINE
  5
203
330
1F
100
AcDbEntity
  8
スト_ル
  6
EXLTYPE1
 62
     6
100
AcDbLine
 10
668.2886259399073
 20
2365.021383610328
 30
0.0
 11
671.798036518817
 21
2362.995224467898
 31
0.0
  0
ARC
  5
204
330
1F
100
AcDbEntity
  8
スト_ル
  6
EXLTYPE1
 62
     6
100
AcDbCircle
 10
669.0386259399074
 20
2366.320421716005
 30
0.0
 40
1.5
100
AcDbArc
 50
160.0448262759633
 51
240.0000000000043
  0
ARC
  5
205
330
1F
100
AcDbEntity
  8
スト_ル
  6
EXLTYPE1
 62
     6
100
AcDbCircle
 10
665.2886259399086
 20
2359.825231187621
 30
0.0
 40
1.5
100
AcDbArc
 50
59.99999999999957
 51
139.9551737240601
  0
LINE
  5
206
330
1F
100
AcDbEntity
  8
スト_ル
  6
EXLTYPE1
 62
     6
100
AcDbLine
 10
666.0386259399085
 20
2361.124269293298
 30
0.0
 11
669.5480365188181
 21
2359.098110150867
 31
0.0
  0
ARC
  5
207
330
1F
100
AcDbEntity
  8
スト_ル
  6
EXLTYPE1
 62
     6
100
AcDbCircle
 10
668.798036518818
 20
2357.799072045191
 30
0.0
 40
1.5
100
AcDbArc
 50
321.5434806647237
 51
59.99999999999957
  0
ARC
  5
208
330
1F
100
AcDbEntity
  8
スト_ル
  6
EXLTYPE1
 62
     6
100
AcDbCircle
 10
648.8294877
 20
2373.65804609998
 30
0.0
 40
20.0
100
AcDbArc
 50
340.0448262759554
 51
19.95517372404503
  0
CIRCLE
  5
209
330
1F
100
AcDbEntity
  8
スト_ル
  6
EXLTYPE1
 62
     6
100
AcDbCircle
 10
648.8294877
 20
2373.65804609998
 30
0.0
 40
4.0
  0
ARC
  5
20A
330
1F
100
AcDbEntity
  8
スト_ル
  6
EXLTYPE1
 62
     6
100
AcDbCircle
 10
625.1109388811831
 20
2383.021829626387
 30
0.0
 40
1.5
100
AcDbArc
 50
59.99999999999957
 51
158.4565193352897
  0
LINE
  5
20B
330
1F
100
AcDbEntity
  8
スト_ル
  6
EXLTYPE1
 62
     6
100
AcDbLine
 10
629.3703494600926
 20
2382.294708589633
 30
0.0
 11
625.860938881183
 21
2384.320867732063
 31
0.0
  0
ARC
  5
20C
330
1F
100
AcDbEntity
  8
スト_ル
  6
EXLTYPE1
 62
     6
100
AcDbCircle
 10
628.6203494600927
 20
2380.995670483956
 30
0.0
 40
1.5
100
AcDbArc
 50
340.0448262759394
 51
60.0000000000191
  0
ARC
  5
20D
330
1F
100
AcDbEntity
  8
スト_ル
  6
EXLTYPE1
 62
     6
100
AcDbCircle
 10
635.2731724915138
 20
2377.154661315894
 30
0.0
 40
1.5
100
AcDbArc
 50
59.99999999999957
 51
165.5367940681713
  0
LINE
  5
20E
330
1F
100
AcDbEntity
  8
スト_ル
  6
EXLTYPE1
 62
     6
100
AcDbLine
 10
639.6762173383247
 20
2376.344612995903
 30
0.0
 11
636.0231724915137
 21
2378.453699421571
 31
0.0
  0
ARC
  5
20F
330
1F
100
AcDbEntity
  8
スト_ル
  6
EXLTYPE1
 62
     6
100
AcDbCircle
 10
638.9262173383246
 20
2375.045574890226
 30
0.0
 40
1.5
100
AcDbArc
 50
352.0243128370228
 51
59.99999999999957
  0
ARC
  5
210
330
1F
100
AcDbEntity
  8
スト_ル
  6
EXLTYPE1
 62
     6
100
AcDbCircle
 10
642.676217338326
 20
2381.540765418608
 30
0.0
 40
1.5
100
AcDbArc
 50
239.9999999999997
 51
307.9756871629519
  0
LINE
  5
211
330
1F
100
AcDbEntity
  8
スト_ル
  6
EXLTYPE1
 62
     6
100
AcDbLine
 10
641.9262173383261
 20
2380.241727312931
 30
0.0
 11
638.2731724915122
 21
2382.350813738601
 31
0.0
  0
ARC
  5
212
330
1F
100
AcDbEntity
  8
スト_ル
  6
EXLTYPE1
 62
     6
100
AcDbCircle
 10
639.0231724915121
 20
2383.649851844278
 30
0.0
 40
1.5
100
AcDbArc
 50
134.4632059318574
 51
240.0000000000043
  0
ARC
  5
213
330
1F
100
AcDbEntity
  8
スト_ル
  6
EXLTYPE1
 62
     6
100
AcDbCircle
 10
632.3703494600916
 20
2387.490861012339
 30
0.0
 40
1.5
100
AcDbArc
 50
240.0000000000043
 51
319.9551737240637
  0
LINE
  5
214
330
1F
100
AcDbEntity
  8
スト_ル
  6
EXLTYPE1
 62
     6
100
AcDbLine
 10
631.6203494600915
 20
2386.191822906663
 30
0.0
 11
628.110938881182
 21
2388.217982049093
 31
0.0
  0
ARC
  5
215
330
1F
100
AcDbEntity
  8
スト_ル
  6
EXLTYPE1
 62
     6
100
AcDbCircle
 10
628.8609388811819
 20
2389.517020154769
 30
0.0
 40
1.5
100
AcDbArc
 50
141.5434806647235
 51
239.9999999999801
  0
ARC
  5
216
330
1F
100
AcDbEntity
  8
スト_ル
  6
EXLTYPE1
 62
     6
100
AcDbCircle
 10
625.1109388811831
 20
2364.294262573574
 30
0.0
 40
1.5
100
AcDbArc
 50
201.5434806647326
 51
300.0000000000052
  0
LINE
  5
217
330
1F
100
AcDbEntity
  8
スト_ル
  6
EXLTYPE1
 62
     6
100
AcDbLine
 10
629.3703494600926
 20
2365.021383610328
 30
0.0
 11
625.860938881183
 21
2362.995224467898
 31
0.0
  0
ARC
  5
218
330
1F
100
AcDbEntity
  8
スト_ル
  6
EXLTYPE1
 62
     6
100
AcDbCircle
 10
628.6203494600927
 20
2366.320421716005
 30
0.0
 40
1.5
100
AcDbArc
 50
300.0000000000152
 51
19.95517372403666
  0
ARC
  5
219
330
1F
100
AcDbEntity
  8
スト_ル
  6
EXLTYPE1
 62
     6
100
AcDbCircle
 10
632.3703494600916
 20
2359.825231187621
 30
0.0
 40
1.5
100
AcDbArc
 50
40.04482627593638
 51
119.9999999999762
  0
LINE
  5
21A
330
1F
100
AcDbEntity
  8
スト_ル
  6
EXLTYPE1
 62
     6
100
AcDbLine
 10
631.6203494600915
 20
2361.124269293298
 30
0.0
 11
628.110938881182
 21
2359.098110150867
 31
0.0
  0
ARC
  5
21B
330
1F
100
AcDbEntity
  8
スト_ル
  6
EXLTYPE1
 62
     6
100
AcDbCircle
 10
628.8609388811819
 20
2357.799072045191
 30
0.0
 40
1.5
100
AcDbArc
 50
120.0000000000004
 51
218.4565193352767
  0
ARC
  5
21C
330
1F
100
AcDbEntity
  8
スト_ル
  6
EXLTYPE1
 62
     6
100
AcDbCircle
 10
648.8294877
 20
2373.65804609998
 30
0.0
 40
27.00000000000005
100
AcDbArc
 50
338.4565193352778
 51
21.54348066472352
  0
ARC
  5
21D
330
1F
100
AcDbEntity
  8
スト_ル
  6
EXLTYPE1
 62
     6
100
AcDbCircle
 10
648.8294877
 20
2373.65804609998
 30
0.0
 40
20.0
100
AcDbArc
 50
40.89901830231476
 51
139.9551737240606
  0
ARC
  5
21E
330
1F
100
AcDbEntity
  8
スト_ル
  6
EXLTYPE1
 62
     6
100
AcDbCircle
 10
648.8294877
 20
2373.65804609998
 30
0.0
 40
20.0
100
AcDbArc
 50
160.0448262759549
 51
199.9551737240451
  0
ARC
  5
21F
330
1F
100
AcDbEntity
  8
スト_ル
  6
EXLTYPE1
 62
     6
100
AcDbCircle
 10
648.8294877
 20
2373.65804609998
 30
0.0
 40
27.00000000000005
100
AcDbArc
 50
38.45651933526384
 51
141.543480664736
  0
ARC
  5
220
330
1F
100
AcDbEntity
  8
スト_ル
  6
EXLTYPE1
 62
     6
100
AcDbCircle
 10
648.8294877
 20
2373.65804609998
 30
0.0
 40
27.00000000000005
100
AcDbArc
 50
158.4565193352765
 51
201.5434806647237
  0
ARC
  5
221
330
1F
100
AcDbEntity
  8
スト_ル
  6
EXLTYPE1
 62
     6
100
AcDbCircle
 10
648.8294877
 20
2373.65804609998
 30
0.0
 40
15.50000000000001
100
AcDbArc
 50
45.53679406813788
 51
134.4632059318591
  0
ARC
  5
222
330
1F
100
AcDbEntity
  8
スト_ル
  6
EXLTYPE1
 62
     6
100
AcDbCircle
 10
648.82948769999
 20
2373.65804609998
 30
0.0
 40
8.5
100
AcDbArc
 50
52.02431283696684
 51
127.9756871629457
  0
ARC
  5
223
330
1F
100
AcDbEntity
  8
スト_ル
  6
EXLTYPE1
 62
     6
100
AcDbCircle
 10
648.8294877
 20
2373.65804609998
 30
0.0
 40
27.00000000000005
100
AcDbArc
 50
218.4565193352623
 51
261.5434806647297
  0
ARC
  5
224
330
1F
100
AcDbEntity
  8
スト_ル
  6
EXLTYPE1
 62
     6
100
AcDbCircle
 10
645.0794877
 20
2348.43528851878
 30
0.0
 40
1.5
100
AcDbArc
 50
261.5434806647259
 51
0.0
  0
LINE
  5
225
330
1F
100
AcDbEntity
  8
スト_ル
  6
EXLTYPE1
 62
     6
100
AcDbLine
 10
646.5794877
 20
2352.487606803641
 30
0.0
 11
646.5794877
 21
2348.43528851878
 31
0.0
  0
ARC
  5
226
330
1F
100
AcDbEntity
  8
スト_ル
  6
EXLTYPE1
 62
     6
100
AcDbCircle
 10
648.8294877
 20
2373.65804609998
 30
0.0
 40
20.0
100
AcDbArc
 50
220.0448262759396
 51
259.9551737240544
  0
ARC
  5
227
330
1F
100
AcDbEntity
  8
スト_ル
  6
EXLTYPE1
 62
     6
100
AcDbCircle
 10
645.0794877
 20
2352.487606803641
 30
0.0
 40
1.5
100
AcDbArc
 50
0.0
 51
79.95517372405416
  0
ARC
  5
228
330
1F
100
AcDbEntity
  8
スト_ル
  6
EXLTYPE1
 62
     6
100
AcDbCircle
 10
648.8294877
 20
2373.65804609998
 30
0.0
 40
15.50000000000001
100
AcDbArc
 50
165.5367940681614
 51
254.4632059318506
  0
ARC
  5
229
330
1F
100
AcDbEntity
  8
スト_ル
  6
EXLTYPE1
 62
     6
100
AcDbCircle
 10
645.0794877
 20
2360.169625139764
 30
0.0
 40
1.5
100
AcDbArc
 50
254.463205931867
 51
0.0
  0
LINE
  5
22A
330
1F
100
AcDbEntity
  8
スト_ル
  6
EXLTYPE1
 62
     6
100
AcDbLine
 10
646.5794877
 20
2364.387797991107
 30
0.0
 11
646.5794877
 21
2360.169625139764
 31
0.0
  0
ARC
  5
22B
330
1F
100
AcDbEntity
  8
スト_ル
  6
EXLTYPE1
 62
     6
100
AcDbCircle
 10
648.82948769999
 20
2373.65804609998
 30
0.0
 40
8.5
100
AcDbArc
 50
172.0243128370227
 51
247.9756871630204
  0
ARC
  5
22C
330
1F
100
AcDbEntity
  8
スト_ル
  6
EXLTYPE1
 62
     6
100
AcDbCircle
 10
645.0794877
 20
2364.387797991107
 30
0.0
 40
1.5
100
AcDbArc
 50
0.0
 51
67.9756871630198
  0
ARC
  5
22D
330
1F
100
AcDbEntity
  8
スト_ル
  6
EXLTYPE1
 62
     6
100
AcDbCircle
 10
648.82948769999
 20
2373.65804609998
 30
0.0
 40
8.5
100
AcDbArc
 50
292.0243128371037
 51
7.975687162957908
  0
ARC
  5
22E
330
1F
100
AcDbEntity
  8
スト_ル
  6
EXLTYPE1
 62
     6
100
AcDbCircle
 10
652.5794877
 20
2364.387797991114
 30
0.0
 40
1.5
100
AcDbArc
 50
112.024312837092
 51
180.0
  0
LINE
  5
22F
330
1F
100
AcDbEntity
  8
スト_ル
  6
EXLTYPE1
 62
     6
100
AcDbLine
 10
651.0794876999998
 20
2364.387797991114
 30
0.0
 11
651.0794876999998
 21
2360.169625139764
 31
0.0
  0
ARC
  5
230
330
1F
100
AcDbEntity
  8
スト_ル
  6
EXLTYPE1
 62
     6
100
AcDbCircle
 10
648.8294877
 20
2373.65804609998
 30
0.0
 40
15.50000000000001
100
AcDbArc
 50
285.5367940681526
 51
14.4632059318559
  0
ARC
  5
231
330
1F
100
AcDbEntity
  8
スト_ル
  6
EXLTYPE1
 62
     6
100
AcDbCircle
 10
652.5794877
 20
2360.169625139764
 30
0.0
 40
1.5
100
AcDbArc
 50
180.0
 51
285.5367940681625
  0
ARC
  5
232
330
1F
100
AcDbEntity
  8
スト_ル
  6
EXLTYPE1
 62
     6
100
AcDbCircle
 10
648.8294877
 20
2373.65804609998
 30
0.0
 40
20.0
100
AcDbArc
 50
280.0448262759493
 51
319.9551737240672
  0
ARC
  5
233
330
1F
100
AcDbEntity
  8
スト_ル
  6
EXLTYPE1
 62
     6
100
AcDbCircle
 10
652.5794877
 20
2352.487606803641
 30
0.0
 40
1.5
100
AcDbArc
 50
100.0448262759352
 51
180.0
  0
LINE
  5
234
330
1F
100
AcDbEntity
  8
スト_ル
  6
EXLTYPE1
 62
     6
100
AcDbLine
 10
651.0794876999998
 20
2352.487606803641
 30
0.0
 11
651.0794876999998
 21
2348.43528851878
 31
0.0
  0
ARC
  5
235
330
1F
100
AcDbEntity
  8
スト_ル
  6
EXLTYPE1
 62
     6
100
AcDbCircle
 10
648.8294877
 20
2373.65804609998
 30
0.0
 40
27.00000000000005
100
AcDbArc
 50
278.4565193352731
 51
321.5434806647378
  0
ARC
  5
236
330
1F
100
AcDbEntity
  8
スト_ル
  6
EXLTYPE1
 62
     6
100
AcDbCircle
 10
652.5794877
 20
2348.43528851878
 30
0.0
 40
1.5
100
AcDbArc
 50
180.0
 51
278.4565193352742
  0
ARC
  5
237
330
1F
100
AcDbEntity
  8
スト_ル
  6
CONTINUOUS
 62
     6
100
AcDbCircle
 10
648.8294877
 20
2373.658046099981
 30
0.0
 40
34.20000000000002
100
AcDbArc
 50
306.1581854398119
 51
306.9182643870501
  0
ARC
  5
238
330
1F
100
AcDbEntity
  8
スト_ル
  6
CONTINUOUS
 62
     6
100
AcDbCircle
 10
648.8294877
 20
2373.65804609998
 30
0.0
 40
31.50000000000002
100
AcDbArc
 50
239.7002326236936
 51
300.2997673763087
  0
ARC
  5
239
330
1F
100
AcDbEntity
  8
スト_ル
  6
CONTINUOUS
 62
     6
100
AcDbCircle
 10
648.8294877
 20
2373.65804609998
 30
0.0
 40
35.00000000000002
100
AcDbArc
 50
231.4916783843954
 51
308.5083216156049
  0
ARC
  5
23A
330
1F
100
AcDbEntity
  8
スト_ル
  6
EXLTYPE1
 62
     6
100
AcDbCircle
 10
648.8294877
 20
2373.65804609998
 30
0.0
 40
31.50000000000002
100
AcDbArc
 50
300.2997673763222
 51
239.7002326236795
  0
ARC
  5
23B
330
1F
100
AcDbEntity
  8
スト_ル
  6
EXLTYPE1
 62
     6
100
AcDbCircle
 10
648.8294877
 20
2373.65804609998
 30
0.0
 40
35.00000000000002
100
AcDbArc
 50
308.5083216156468
 51
231.4916783843954
  0
ARC
  5
23C
330
1F
100
AcDbEntity
  8
スト_ル
  6
CONTINUOUS
 62
     7
100
AcDbCircle
 10
1748.0341254391
 20
951.7673508045101
 30
0.0
 40
7.850277389868372
100
AcDbArc
 50
1.698254512202395
 51
39.67589432378974
  0
LINE
  5
23D
330
1F
100
AcDbEntity
  8
スト_ル
  6
CONTINUOUS
 62
     7
100
AcDbLine
 10
1755.8809547
 20
952.0
 30
0.0
 11
1755.8809547
 21
938.8948993833611
 31
0.0
  0
ARC
  5
23E
330
1F
100
AcDbEntity
  8
スト_ル
  6
CONTINUOUS
 62
     6
100
AcDbCircle
 10
586.3294877500002
 20
2418.5746565602
 30
0.0
 40
8.000001900000004
100
AcDbArc
 50
179.4027557400027
 51
0.5972442596757592
  0
ARC
  5
23F
330
1F
100
AcDbEntity
  8
スト_ル
  6
CONTINUOUS
 62
     6
100
AcDbCircle
 10
579.3295182500001
 20
2461.4332380602
 30
0.0
 40
10.0
100
AcDbArc
 50
0.0
 51
45.57337951999885
  0
ARC
  5
240
330
1F
100
AcDbEntity
  8
スト_ル
  6
CONTINUOUS
 62
     6
100
AcDbCircle
 10
593.3294571500003
 20
2461.4332380602
 30
0.0
 40
10.0
100
AcDbArc
 50
134.4266204800012
 51
180.0
  0
LINE
  5
241
330
1F
100
AcDbEntity
  8
スト_ル
  6
CONTINUOUS
 62
     6
100
AcDbLine
 10
589.3295182500001
 20
2433.6580461
 30
0.0
 11
589.3295182500001
 21
2461.4332380602
 31
0.0
  0
LINE
  5
242
330
1F
100
AcDbEntity
  8
スト_ル
  6
CONTINUOUS
 62
     6
100
AcDbLine
 10
583.3294571500003
 20
2433.6580461
 30
0.0
 11
583.3294571500003
 21
2461.4332380602
 31
0.0
  0
LINE
  5
243
330
1F
100
AcDbEntity
  8
スト_ル
  6
CONTINUOUS
 62
     6
100
AcDbLine
 10
580.8294571500003
 20
2438.5746565602
 30
0.0
 11
589.3295182500001
 21
2438.5746565602
 31
0.0
  0
LINE
  5
244
330
1F
100
AcDbEntity
  8
スト_ル
  6
CONTINUOUS
 62
     6
100
AcDbLine
 10
580.8294571500003
 20
2433.6580461
 30
0.0
 11
580.8294571500003
 21
2461.4332380602
 31
0.0
  0
ARC
  5
245
330
1F
100
AcDbEntity
  8
スト_ル
  6
CONTINUOUS
 62
     6
100
AcDbCircle
 10
590.8294571500003
 20
2461.4332380602
 30
0.0
 40
10.0
100
AcDbArc
 50
134.4266204800012
 51
180.0
  0
ARC
  5
246
330
1F
100
AcDbEntity
  8
スト_ル
  6
CONTINUOUS
 62
     6
100
AcDbCircle
 10
576.8295182500001
 20
2461.4332380602
 30
0.0
 40
10.0
100
AcDbArc
 50
34.41181839862822
 51
45.57337951999885
  0
ARC
  5
247
330
1F
100
AcDbEntity
  8
スト_ル
  6
CONTINUOUS
 62
     6
100
AcDbCircle
 10
711.3294876499998
 20
2418.5746565602
 30
0.0
 40
8.000001900000004
100
AcDbArc
 50
179.4027557403242
 51
0.5972442599973605
  0
ARC
  5
248
330
1F
100
AcDbEntity
  8
スト_ル
  6
CONTINUOUS
 62
     6
100
AcDbCircle
 10
718.3294571499999
 20
2461.4332380602
 30
0.0
 40
10.0
100
AcDbArc
 50
134.4266204800012
 51
180.0
  0
ARC
  5
249
330
1F
100
AcDbEntity
  8
スト_ル
  6
CONTINUOUS
 62
     6
100
AcDbCircle
 10
704.3295182499998
 20
2461.4332380602
 30
0.0
 40
10.0
100
AcDbArc
 50
0.0
 51
45.57337951999885
  0
LINE
  5
24A
330
1F
100
AcDbEntity
  8
スト_ル
  6
CONTINUOUS
 62
     6
100
AcDbLine
 10
708.3294571499999
 20
2433.6580461
 30
0.0
 11
708.3294571499999
 21
2461.4332380602
 31
0.0
  0
LINE
  5
24B
330
1F
100
AcDbEntity
  8
スト_ル
  6
CONTINUOUS
 62
     6
100
AcDbLine
 10
714.3295182499998
 20
2433.6580461
 30
0.0
 11
714.3295182499998
 21
2461.4332380602
 31
0.0
  0
LINE
  5
24C
330
1F
100
AcDbEntity
  8
スト_ル
  6
CONTINUOUS
 62
     6
100
AcDbLine
 10
716.8295182499998
 20
2438.5746565602
 30
0.0
 11
708.3294571499999
 21
2438.5746565602
 31
0.0
  0
LINE
  5
24D
330
1F
100
AcDbEntity
  8
スト_ル
  6
CONTINUOUS
 62
     6
100
AcDbLine
 10
716.8295182499998
 20
2433.6580461
 30
0.0
 11
716.8295182499998
 21
2461.4332380602
 31
0.0
  0
ARC
  5
24E
330
1F
100
AcDbEntity
  8
スト_ル
  6
CONTINUOUS
 62
     6
100
AcDbCircle
 10
706.8295182499998
 20
2461.4332380602
 30
0.0
 40
10.0
100
AcDbArc
 50
0.0
 51
45.57337951999885
  0
ARC
  5
24F
330
1F
100
AcDbEntity
  8
スト_ル
  6
CONTINUOUS
 62
     6
100
AcDbCircle
 10
720.8294571499999
 20
2461.4332380602
 30
0.0
 40
10.0
100
AcDbArc
 50
134.4266204800012
 51
145.5881816013715
  0
CIRCLE
  5
250
330
1F
100
AcDbEntity
  8
スト_ル
  6
CONTINUOUS
 62
     6
100
AcDbCircle
 10
586.3294877000001
 20
1586.33649207279
 30
0.0
 40
8.000001900000004
  0
CIRCLE
  5
251
330
1F
100
AcDbEntity
  8
スト_ル
  6
CONTINUOUS
 62
     6
100
AcDbCircle
 10
711.3294876999998
 20
1586.33649207279
 30
0.0
 40
8.000001900000004
  0
CIRCLE
  5
252
330
1F
100
AcDbEntity
  8
スト_ル
  6
CONTINUOUS
 62
     6
100
AcDbCircle
 10
583.8294877000001
 20
936.3421170925701
 30
0.0
 40
8.000001900000004
  0
CIRCLE
  5
253
330
1F
100
AcDbEntity
  8
スト_ル
  6
CONTINUOUS
 62
     6
100
AcDbCircle
 10
713.8294876999998
 20
936.3421170925701
 30
0.0
 40
8.000001900000004
  0
LINE
  5
254
330
1F
100
AcDbEntity
  8
スト_ル
  6
CONTINUOUS
 62
     6
100
AcDbLine
 10
1683.8809547
 20
938.3421170925703
 30
0.0
 11
1683.8809547
 21
931.3421170925704
 31
0.0
  0
LINE
  5
255
330
1F
100
AcDbEntity
  8
スト_ル
  6
CONTINUOUS
 62
     6
100
AcDbLine
 10
1690.8809547
 20
938.3421170925703
 30
0.0
 11
1690.8809547
 21
931.3421170925704
 31
0.0
  0
LINE
  5
256
330
1F
100
AcDbEntity
  8
スト_ル
  6
CONTINUOUS
 62
     6
100
AcDbLine
 10
1695.380954699999
 20
938.3421170925703
 30
0.0
 11
1695.380954699999
 21
931.3421170925704
 31
0.0
  0
LINE
  5
257
330
1F
100
AcDbEntity
  8
スト_ル
  6
CONTINUOUS
 62
     6
100
AcDbLine
 10
1702.38095469999
 20
938.3421170925703
 30
0.0
 11
1702.38095469999
 21
931.3421170925704
 31
0.0
  0
LINE
  5
258
330
1F
100
AcDbEntity
  8
スト_ル
  6
CONTINUOUS
 62
     6
100
AcDbLine
 10
1706.8809547
 20
938.3421170925703
 30
0.0
 11
1706.8809547
 21
931.3421170925704
 31
0.0
  0
LINE
  5
259
330
1F
100
AcDbEntity
  8
スト_ル
  6
CONTINUOUS
 62
     6
100
AcDbLine
 10
1737.880954699999
 20
938.3421170925703
 30
0.0
 11
1737.880954699999
 21
931.3421170925704
 31
0.0
  0
LINE
  5
25A
330
1F
100
AcDbEntity
  8
スト_ル
  6
CONTINUOUS
 62
     6
100
AcDbLine
 10
1730.8809547
 20
938.3421170925703
 30
0.0
 11
1730.8809547
 21
931.3421170925704
 31
0.0
  0
LINE
  5
25B
330
1F
100
AcDbEntity
  8
スト_ル
  6
CONTINUOUS
 62
     6
100
AcDbLine
 10
1726.3809547
 20
938.3421170925703
 30
0.0
 11
1726.3809547
 21
931.3421170925704
 31
0.0
  0
LINE
  5
25C
330
1F
100
AcDbEntity
  8
スト_ル
  6
CONTINUOUS
 62
     6
100
AcDbLine
 10
1719.380954700009
 20
938.3421170925703
 30
0.0
 11
1719.380954700009
 21
931.3421170925704
 31
0.0
  0
LINE
  5
25D
330
1F
100
AcDbEntity
  8
スト_ル
  6
CONTINUOUS
 62
     6
100
AcDbLine
 10
1714.8809547
 20
938.3421170925703
 30
0.0
 11
1714.8809547
 21
931.3421170925704
 31
0.0
  0
LINE
  5
25E
330
1F
100
AcDbEntity
  8
スト_ル
  6
CONTINUOUS
 62
     6
100
AcDbLine
 10
1742.3809547
 20
937.3421170925702
 30
0.0
 11
1742.3809547
 21
932.3421170925702
 31
0.0
  0
ARC
  5
25F
330
1F
100
AcDbEntity
  8
スト_ル
  6
CONTINUOUS
 62
     6
100
AcDbCircle
 10
1741.3809547
 20
937.3421170925702
 30
0.0
 40
1.0
100
AcDbArc
 50
0.0
 51
90.00000000000001
  0
LINE
  5
260
330
1F
100
AcDbEntity
  8
スト_ル
  6
CONTINUOUS
 62
     6
100
AcDbLine
 10
1680.380954699999
 20
938.3421170925703
 30
0.0
 11
1741.3809547
 21
938.3421170925703
 31
0.0
  0
ARC
  5
261
330
1F
100
AcDbEntity
  8
スト_ル
  6
CONTINUOUS
 62
     6
100
AcDbCircle
 10
1680.380954699999
 20
937.3421170925702
 30
0.0
 40
1.0
100
AcDbArc
 50
90.00000000000001
 51
180.0
  0
LINE
  5
262
330
1F
100
AcDbEntity
  8
スト_ル
  6
CONTINUOUS
 62
     6
100
AcDbLine
 10
1679.3809547
 20
937.3421170925702
 30
0.0
 11
1679.3809547
 21
932.3421170925702
 31
0.0
  0
ARC
  5
263
330
1F
100
AcDbEntity
  8
スト_ル
  6
CONTINUOUS
 62
     6
100
AcDbCircle
 10
1680.380954699999
 20
932.3421170925702
 30
0.0
 40
1.0
100
AcDbArc
 50
180.0
 51
270.0000000000002
  0
LINE
  5
264
330
1F
100
AcDbEntity
  8
スト_ル
  6
CONTINUOUS
 62
     6
100
AcDbLine
 10
1680.380954699999
 20
931.3421170925704
 30
0.0
 11
1741.3809547
 21
931.3421170925704
 31
0.0
  0
ARC
  5
265
330
1F
100
AcDbEntity
  8
スト_ル
  6
CONTINUOUS
 62
     6
100
AcDbCircle
 10
1741.3809547
 20
932.3421170925702
 30
0.0
 40
1.0
100
AcDbArc
 50
270.0000000000002
 51
0.0
  0
POLYLINE
  5
266
330
1F
100
AcDbEntity
  8
スト_ル
  6
CONTINUOUS
 62
     6
100
AcDb2dPolyline
 66
     1
 10
0.0
 20
0.0
 30
0.0
 70
   128
  0
VERTEX
  5
267
330
266
100
AcDbEntity
  8
スト_ル
  6
CONTINUOUS
 62
     6
100
AcDbVertex
100
AcDb2dVertex
 10
1661.4294069234
 20
940.8363415450999
 30
0.0
  0
VERTEX
  5
268
330
266
100
AcDbEntity
  8
スト_ル
  6
CONTINUOUS
 62
     6
100
AcDbVertex
100
AcDb2dVertex
 10
1661.534581794184
 20
940.9028139698578
 30
0.0
  0
VERTEX
  5
269
330
266
100
AcDbEntity
  8
スト_ル
  6
CONTINUOUS
 62
     6
100
AcDbVertex
100
AcDb2dVertex
 10
1661.832439466645
 20
941.0911582311554
 30
0.0
  0
VERTEX
  5
26A
330
266
100
AcDbEntity
  8
スト_ル
  6
CONTINUOUS
 62
     6
100
AcDbVertex
100
AcDb2dVertex
 10
1662.296479530951
 20
941.3847648095284
 30
0.0
  0
VERTEX
  5
26B
330
266
100
AcDbEntity
  8
スト_ル
  6
CONTINUOUS
 62
     6
100
AcDbVertex
100
AcDb2dVertex
 10
1662.900201577263
 20
941.7670241855117
 30
0.0
  0
VERTEX
  5
26C
330
266
100
AcDbEntity
  8
スト_ル
  6
CONTINUOUS
 62
     6
100
AcDbVertex
100
AcDb2dVertex
 10
1663.617105195747
 20
942.2213268396412
 30
0.0
  0
VERTEX
  5
26D
330
266
100
AcDbEntity
  8
スト_ル
  6
CONTINUOUS
 62
     6
100
AcDbVertex
100
AcDb2dVertex
 10
1664.420689976568
 20
942.7310632524529
 30
0.0
  0
VERTEX
  5
26E
330
266
100
AcDbEntity
  8
スト_ル
  6
CONTINUOUS
 62
     6
100
AcDbVertex
100
AcDb2dVertex
 10
1665.284455509892
 20
943.2796239044815
 30
0.0
  0
VERTEX
  5
26F
330
266
100
AcDbEntity
  8
スト_ル
  6
CONTINUOUS
 62
     6
100
AcDbVertex
100
AcDb2dVertex
 10
1666.181901385882
 20
943.8503992762631
 30
0.0
  0
VERTEX
  5
270
330
266
100
AcDbEntity
  8
スト_ル
  6
CONTINUOUS
 62
     6
100
AcDbVertex
100
AcDb2dVertex
 10
1667.086527194703
 20
944.4267798483329
 30
0.0
  0
VERTEX
  5
271
330
266
100
AcDbEntity
  8
スト_ル
  6
CONTINUOUS
 62
     6
100
AcDbVertex
100
AcDb2dVertex
 10
1667.971832526521
 20
944.9921561012267
 30
0.0
  0
VERTEX
  5
272
330
266
100
AcDbEntity
  8
スト_ル
  6
CONTINUOUS
 62
     6
100
AcDbVertex
100
AcDb2dVertex
 10
1668.811316971501
 20
945.52991851548
 30
0.0
  0
VERTEX
  5
273
330
266
100
AcDbEntity
  8
スト_ル
  6
CONTINUOUS
 62
     6
100
AcDbVertex
100
AcDb2dVertex
 10
1669.288196475437
 20
945.836338186768
 30
0.0
  0
VERTEX
  5
274
330
266
100
AcDbEntity
  8
スト_ル
  6
CONTINUOUS
 62
     6
100
AcDbVertex
100
AcDb2dVertex
 10
1669.741625007679
 20
946.1282057115377
 30
0.0
  0
VERTEX
  5
275
330
266
100
AcDbEntity
  8
スト_ル
  6
CONTINUOUS
 62
     6
100
AcDbVertex
100
AcDb2dVertex
 10
1670.17472749752
 20
946.4072196970667
 30
0.0
  0
VERTEX
  5
276
330
266
100
AcDbEntity
  8
スト_ル
  6
CONTINUOUS
 62
     6
100
AcDbVertex
100
AcDb2dVertex
 10
1670.590628874256
 20
946.675078750632
 30
0.0
  0
VERTEX
  5
277
330
266
100
AcDbEntity
  8
スト_ル
  6
CONTINUOUS
 62
     6
100
AcDbVertex
100
AcDb2dVertex
 10
1670.992454067181
 20
946.933481479511
 30
0.0
  0
VERTEX
  5
278
330
266
100
AcDbEntity
  8
スト_ル
  6
CONTINUOUS
 62
     6
100
AcDbVertex
100
AcDb2dVertex
 10
1671.38332800559
 20
947.1841264909808
 30
0.0
  0
VERTEX
  5
279
330
266
100
AcDbEntity
  8
スト_ル
  6
CONTINUOUS
 62
     6
100
AcDbVertex
100
AcDb2dVertex
 10
1671.766375618777
 20
947.4287123923191
 30
0.0
  0
VERTEX
  5
27A
330
266
100
AcDbEntity
  8
スト_ル
  6
CONTINUOUS
 62
     6
100
AcDbVertex
100
AcDb2dVertex
 10
1672.144721836036
 20
947.6689377908026
 30
0.0
  0
VERTEX
  5
27B
330
266
100
AcDbEntity
  8
スト_ル
  6
CONTINUOUS
 62
     6
100
AcDbVertex
100
AcDb2dVertex
 10
1672.521491586664
 20
947.9065012937093
 30
0.0
  0
VERTEX
  5
27C
330
266
100
AcDbEntity
  8
スト_ル
  6
CONTINUOUS
 62
     6
100
AcDbVertex
100
AcDb2dVertex
 10
1672.899809799954
 20
948.1431015083158
 30
0.0
  0
VERTEX
  5
27D
330
266
100
AcDbEntity
  8
スト_ル
  6
CONTINUOUS
 62
     6
100
AcDbVertex
100
AcDb2dVertex
 10
1673.2828014052
 20
948.3804370418999
 30
0.0
  0
VERTEX
  5
27E
330
266
100
AcDbEntity
  8
スト_ル
  6
CONTINUOUS
 62
     6
100
AcDbVertex
100
AcDb2dVertex
 10
1673.744368519592
 20
948.6632429771275
 30
0.0
  0
VERTEX
  5
27F
330
266
100
AcDbEntity
  8
スト_ル
  6
CONTINUOUS
 62
     6
100
AcDbVertex
100
AcDb2dVertex
 10
1674.216091149903
 20
948.9479162638378
 30
0.0
  0
VERTEX
  5
280
330
266
100
AcDbEntity
  8
スト_ル
  6
CONTINUOUS
 62
     6
100
AcDbVertex
100
AcDb2dVertex
 10
1674.697250550443
 20
949.232930298586
 30
0.0
  0
VERTEX
  5
281
330
266
100
AcDbEntity
  8
スト_ル
  6
CONTINUOUS
 62
     6
100
AcDbVertex
100
AcDb2dVertex
 10
1675.187127975519
 20
949.5167584779274
 30
0.0
  0
VERTEX
  5
282
330
266
100
AcDbEntity
  8
スト_ル
  6
CONTINUOUS
 62
     6
100
AcDbVertex
100
AcDb2dVertex
 10
1675.685004679441
 20
949.797874198417
 30
0.0
  0
VERTEX
  5
283
330
266
100
AcDbEntity
  8
スト_ル
  6
CONTINUOUS
 62
     6
100
AcDbVertex
100
AcDb2dVertex
 10
1676.190161916517
 20
950.0747508566106
 30
0.0
  0
VERTEX
  5
284
330
266
100
AcDbEntity
  8
スト_ル
  6
CONTINUOUS
 62
     6
100
AcDbVertex
100
AcDb2dVertex
 10
1676.701880941055
 20
950.3458618490632
 30
0.0
  0
VERTEX
  5
285
330
266
100
AcDbEntity
  8
スト_ル
  6
CONTINUOUS
 62
     6
100
AcDbVertex
100
AcDb2dVertex
 10
1677.219443007363
 20
950.60968057233
 30
0.0
  0
VERTEX
  5
286
330
266
100
AcDbEntity
  8
スト_ル
  6
CONTINUOUS
 62
     6
100
AcDbVertex
100
AcDb2dVertex
 10
1677.742129369752
 20
950.8646804229668
 30
0.0
  0
VERTEX
  5
287
330
266
100
AcDbEntity
  8
スト_ル
  6
CONTINUOUS
 62
     6
100
AcDbVertex
100
AcDb2dVertex
 10
1678.269221282527
 20
951.1093347975284
 30
0.0
  0
VERTEX
  5
288
330
266
100
AcDbEntity
  8
スト_ル
  6
CONTINUOUS
 62
     6
100
AcDbVertex
100
AcDb2dVertex
 10
1678.8
 20
951.34211709257
 30
0.0
  0
VERTEX
  5
289
330
266
100
AcDbEntity
  8
スト_ル
  6
CONTINUOUS
 62
     6
100
AcDbVertex
100
AcDb2dVertex
 10
1680.294174775079
 20
951.9227330022067
 30
0.0
  0
VERTEX
  5
28A
330
266
100
AcDbEntity
  8
スト_ル
  6
CONTINUOUS
 62
     6
100
AcDbVertex
100
AcDb2dVertex
 10
1681.808678674013
 20
952.4118321886526
 30
0.0
  0
VERTEX
  5
28B
330
266
100
AcDbEntity
  8
スト_ル
  6
CONTINUOUS
 62
     6
100
AcDbVertex
100
AcDb2dVertex
 10
1683.340806743867
 20
952.8218804613207
 30
0.0
  0
VERTEX
  5
28C
330
266
100
AcDbEntity
  8
スト_ル
  6
CONTINUOUS
 62
     6
100
AcDbVertex
100
AcDb2dVertex
 10
1684.887854031711
 20
953.1653436296235
 30
0.0
  0
VERTEX
  5
28D
330
266
100
AcDbEntity
  8
スト_ル
  6
CONTINUOUS
 62
     6
100
AcDbVertex
100
AcDb2dVertex
 10
1686.447115584611
 20
953.4546875029737
 30
0.0
  0
VERTEX
  5
28E
330
266
100
AcDbEntity
  8
スト_ル
  6
CONTINUOUS
 62
     6
100
AcDbVertex
100
AcDb2dVertex
 10
1688.015886449636
 20
953.7023778907844
 30
0.0
  0
VERTEX
  5
28F
330
266
100
AcDbEntity
  8
スト_ル
  6
CONTINUOUS
 62
     6
100
AcDbVertex
100
AcDb2dVertex
 10
1689.591461673853
 20
953.9208806024683
 30
0.0
  0
VERTEX
  5
290
330
266
100
AcDbEntity
  8
スト_ル
  6
CONTINUOUS
 62
     6
100
AcDbVertex
100
AcDb2dVertex
 10
1691.171136304331
 20
954.1226614474381
 30
0.0
  0
VERTEX
  5
291
330
266
100
AcDbEntity
  8
スト_ル
  6
CONTINUOUS
 62
     6
100
AcDbVertex
100
AcDb2dVertex
 10
1692.752205388136
 20
954.3201862351063
 30
0.0
  0
VERTEX
  5
292
330
266
100
AcDbEntity
  8
スト_ル
  6
CONTINUOUS
 62
     6
100
AcDbVertex
100
AcDb2dVertex
 10
1694.331963972336
 20
954.5259207748861
 30
0.0
  0
VERTEX
  5
293
330
266
100
AcDbEntity
  8
スト_ル
  6
CONTINUOUS
 62
     6
100
AcDbVertex
100
AcDb2dVertex
 10
1695.907707104
 20
954.7523308761902
 30
0.0
  0
VERTEX
  5
294
330
266
100
AcDbEntity
  8
スト_ル
  6
CONTINUOUS
 62
     6
100
AcDbVertex
100
AcDb2dVertex
 10
1697.273994247892
 20
954.9735117259113
 30
0.0
  0
VERTEX
  5
295
330
266
100
AcDbEntity
  8
スト_ル
  6
CONTINUOUS
 62
     6
100
AcDbVertex
100
AcDb2dVertex
 10
1698.636210591087
 20
955.2137995519874
 30
0.0
  0
VERTEX
  5
296
330
266
100
AcDbEntity
  8
スト_ル
  6
CONTINUOUS
 62
     6
100
AcDbVertex
100
AcDb2dVertex
 10
1699.995374212685
 20
955.4672057537532
 30
0.0
  0
VERTEX
  5
297
330
266
100
AcDbEntity
  8
スト_ル
  6
CONTINUOUS
 62
     6
100
AcDbVertex
100
AcDb2dVertex
 10
1701.352503191784
 20
955.7277417305423
 30
0.0
  0
VERTEX
  5
298
330
266
100
AcDbEntity
  8
スト_ル
  6
CONTINUOUS
 62
     6
100
AcDbVertex
100
AcDb2dVertex
 10
1702.708615607487
 20
955.9894188816893
 30
0.0
  0
VERTEX
  5
299
330
266
100
AcDbEntity
  8
スト_ル
  6
CONTINUOUS
 62
     6
100
AcDbVertex
100
AcDb2dVertex
 10
1704.064729538894
 20
956.2462486065283
 30
0.0
  0
VERTEX
  5
29A
330
266
100
AcDbEntity
  8
スト_ル
  6
CONTINUOUS
 62
     6
100
AcDbVertex
100
AcDb2dVertex
 10
1705.421863065105
 20
956.4922423043936
 30
0.0
  0
VERTEX
  5
29B
330
266
100
AcDbEntity
  8
スト_ル
  6
CONTINUOUS
 62
     6
100
AcDbVertex
100
AcDb2dVertex
 10
1706.78103426522
 20
956.721411374619
 30
0.0
  0
VERTEX
  5
29C
330
266
100
AcDbEntity
  8
スト_ル
  6
CONTINUOUS
 62
     6
100
AcDbVertex
100
AcDb2dVertex
 10
1708.143261218341
 20
956.9277672165391
 30
0.0
  0
VERTEX
  5
29D
330
266
100
AcDbEntity
  8
スト_ル
  6
CONTINUOUS
 62
     6
100
AcDbVertex
100
AcDb2dVertex
 10
1709.509562003568
 20
957.105321229488
 30
0.0
  0
VERTEX
  5
29E
330
266
100
AcDbEntity
  8
スト_ル
  6
CONTINUOUS
 62
     6
100
AcDbVertex
100
AcDb2dVertex
 10
1710.8809547
 20
957.2480848128
 30
0.0
  0
VERTEX
  5
29F
330
266
100
AcDbEntity
  8
スト_ル
  6
CONTINUOUS
 62
     6
100
AcDbVertex
100
AcDb2dVertex
 10
1712.433937557972
 20
957.361399473929
 30
0.0
  0
VERTEX
  5
2A0
330
266
100
AcDbEntity
  8
スト_ル
  6
CONTINUOUS
 62
     6
100
AcDbVertex
100
AcDb2dVertex
 10
1713.992620037686
 20
957.4236926303588
 30
0.0
  0
VERTEX
  5
2A1
330
266
100
AcDbEntity
  8
スト_ル
  6
CONTINUOUS
 62
     6
100
AcDbVertex
100
AcDb2dVertex
 10
1715.554934943672
 20
957.4357797294367
 30
0.0
  0
VERTEX
  5
2A2
330
266
100
AcDbEntity
  8
スト_ル
  6
CONTINUOUS
 62
     6
100
AcDbVertex
100
AcDb2dVertex
 10
1717.118815080459
 20
957.3984762185108
 30
0.0
  0
VERTEX
  5
2A3
330
266
100
AcDbEntity
  8
スト_ル
  6
CONTINUOUS
 62
     6
100
AcDbVertex
100
AcDb2dVertex
 10
1718.682193252575
 20
957.3125975449291
 30
0.0
  0
VERTEX
  5
2A4
330
266
100
AcDbEntity
  8
スト_ル
  6
CONTINUOUS
 62
     6
100
AcDbVertex
100
AcDb2dVertex
 10
1720.243002264549
 20
957.1789591560396
 30
0.0
  0
VERTEX
  5
2A5
330
266
100
AcDbEntity
  8
スト_ル
  6
CONTINUOUS
 62
     6
100
AcDbVertex
100
AcDb2dVertex
 10
1721.79917492091
 20
956.99837649919
 30
0.0
  0
VERTEX
  5
2A6
330
266
100
AcDbEntity
  8
スト_ル
  6
CONTINUOUS
 62
     6
100
AcDbVertex
100
AcDb2dVertex
 10
1723.348644026187
 20
956.7716650217285
 30
0.0
  0
VERTEX
  5
2A7
330
266
100
AcDbEntity
  8
スト_ル
  6
CONTINUOUS
 62
     6
100
AcDbVertex
100
AcDb2dVertex
 10
1724.889342384908
 20
956.4996401710024
 30
0.0
  0
VERTEX
  5
2A8
330
266
100
AcDbEntity
  8
スト_ル
  6
CONTINUOUS
 62
     6
100
AcDbVertex
100
AcDb2dVertex
 10
1726.419202801603
 20
956.1831173943605
 30
0.0
  0
VERTEX
  5
2A9
330
266
100
AcDbEntity
  8
スト_ル
  6
CONTINUOUS
 62
     6
100
AcDbVertex
100
AcDb2dVertex
 10
1727.936158080799
 20
955.8229121391498
 30
0.0
  0
VERTEX
  5
2AA
330
266
100
AcDbEntity
  8
スト_ル
  6
CONTINUOUS
 62
     6
100
AcDbVertex
100
AcDb2dVertex
 10
1729.07606537728
 20
955.5214409567147
 30
0.0
  0
VERTEX
  5
2AB
330
266
100
AcDbEntity
  8
スト_ル
  6
CONTINUOUS
 62
     6
100
AcDbVertex
100
AcDb2dVertex
 10
1730.207850453872
 20
955.196213757149
 30
0.0
  0
VERTEX
  5
2AC
330
266
100
AcDbEntity
  8
スト_ル
  6
CONTINUOUS
 62
     6
100
AcDbVertex
100
AcDb2dVertex
 10
1731.331988967577
 20
954.848090958043
 30
0.0
  0
VERTEX
  5
2AD
330
266
100
AcDbEntity
  8
スト_ル
  6
CONTINUOUS
 62
     6
100
AcDbVertex
100
AcDb2dVertex
 10
1732.4489565754
 20
954.4779329769872
 30
0.0
  0
VERTEX
  5
2AE
330
266
100
AcDbEntity
  8
スト_ル
  6
CONTINUOUS
 62
     6
100
AcDbVertex
100
AcDb2dVertex
 10
1733.559228934344
 20
954.0866002315713
 30
0.0
  0
VERTEX
  5
2AF
330
266
100
AcDbEntity
  8
スト_ル
  6
CONTINUOUS
 62
     6
100
AcDbVertex
100
AcDb2dVertex
 10
1734.663281701411
 20
953.6749531393859
 30
0.0
  0
VERTEX
  5
2B0
330
266
100
AcDbEntity
  8
スト_ル
  6
CONTINUOUS
 62
     6
100
AcDbVertex
100
AcDb2dVertex
 10
1735.761590533604
 20
953.243852118021
 30
0.0
  0
VERTEX
  5
2B1
330
266
100
AcDbEntity
  8
スト_ル
  6
CONTINUOUS
 62
     6
100
AcDbVertex
100
AcDb2dVertex
 10
1736.854631087926
 20
952.7941575850666
 30
0.0
  0
VERTEX
  5
2B2
330
266
100
AcDbEntity
  8
スト_ル
  6
CONTINUOUS
 62
     6
100
AcDbVertex
100
AcDb2dVertex
 10
1737.942879021381
 20
952.3267299581133
 30
0.0
  0
VERTEX
  5
2B3
330
266
100
AcDbEntity
  8
スト_ル
  6
CONTINUOUS
 62
     6
100
AcDbVertex
100
AcDb2dVertex
 10
1739.026809990972
 20
951.8424296547511
 30
0.0
  0
VERTEX
  5
2B4
330
266
100
AcDbEntity
  8
スト_ル
  6
CONTINUOUS
 62
     6
100
AcDbVertex
100
AcDb2dVertex
 10
1740.1068996537
 20
951.3421170925701
 30
0.0
  0
VERTEX
  5
2B5
330
266
100
AcDbEntity
  8
スト_ル
  6
CONTINUOUS
 62
     6
100
AcDbVertex
100
AcDb2dVertex
 10
1740.829011053911
 20
950.998065566525
 30
0.0
  0
VERTEX
  5
2B6
330
266
100
AcDbEntity
  8
スト_ル
  6
CONTINUOUS
 62
     6
100
AcDbVertex
100
AcDb2dVertex
 10
1741.548592052359
 20
950.6471949199702
 30
0.0
  0
VERTEX
  5
2B7
330
266
100
AcDbEntity
  8
スト_ル
  6
CONTINUOUS
 62
     6
100
AcDbVertex
100
AcDb2dVertex
 10
1742.264625422421
 20
950.2894982054922
 30
0.0
  0
VERTEX
  5
2B8
330
266
100
AcDbEntity
  8
スト_ル
  6
CONTINUOUS
 62
     6
100
AcDbVertex
100
AcDb2dVertex
 10
1742.976093937473
 20
949.9249684756767
 30
0.0
  0
VERTEX
  5
2B9
330
266
100
AcDbEntity
  8
スト_ル
  6
CONTINUOUS
 62
     6
100
AcDbVertex
100
AcDb2dVertex
 10
1743.681980370887
 20
949.5535987831106
 30
0.0
  0
VERTEX
  5
2BA
330
266
100
AcDbEntity
  8
スト_ル
  6
CONTINUOUS
 62
     6
100
AcDbVertex
100
AcDb2dVertex
 10
1744.38126749604
 20
949.1753821803795
 30
0.0
  0
VERTEX
  5
2BB
330
266
100
AcDbEntity
  8
スト_ル
  6
CONTINUOUS
 62
     6
100
AcDbVertex
100
AcDb2dVertex
 10
1745.072938086305
 20
948.7903117200699
 30
0.0
  0
VERTEX
  5
2BC
330
266
100
AcDbEntity
  8
スト_ル
  6
CONTINUOUS
 62
     6
100
AcDbVertex
100
AcDb2dVertex
 10
1745.75597491506
 20
948.3983804547681
 30
0.0
  0
VERTEX
  5
2BD
330
266
100
AcDbEntity
  8
スト_ル
  6
CONTINUOUS
 62
     6
100
AcDbVertex
100
AcDb2dVertex
 10
1746.429360755676
 20
947.99958143706
 30
0.0
  0
VERTEX
  5
2BE
330
266
100
AcDbEntity
  8
スト_ル
  6
CONTINUOUS
 62
     6
100
AcDbVertex
100
AcDb2dVertex
 10
1747.092078381532
 20
947.5939077195319
 30
0.0
  0
VERTEX
  5
2BF
330
266
100
AcDbEntity
  8
スト_ル
  6
CONTINUOUS
 62
     6
100
AcDbVertex
100
AcDb2dVertex
 10
1747.743110566
 20
947.1813523547698
 30
0.0
  0
VERTEX
  5
2C0
330
266
100
AcDbEntity
  8
スト_ル
  6
CONTINUOUS
 62
     6
100
AcDbVertex
100
AcDb2dVertex
 10
1749.007344777394
 20
946.3328528890704
 30
0.0
  0
VERTEX
  5
2C1
330
266
100
AcDbEntity
  8
スト_ル
  6
CONTINUOUS
 62
     6
100
AcDbVertex
100
AcDb2dVertex
 10
1750.217304719486
 20
945.4425440237881
 30
0.0
  0
VERTEX
  5
2C2
330
266
100
AcDbEntity
  8
スト_ル
  6
CONTINUOUS
 62
     6
100
AcDbVertex
100
AcDb2dVertex
 10
1751.369568561492
 20
944.4961933876809
 30
0.0
  0
VERTEX
  5
2C3
330
266
100
AcDbEntity
  8
スト_ル
  6
CONTINUOUS
 62
     6
100
AcDbVertex
100
AcDb2dVertex
 10
1752.460714472624
 20
943.4795686095058
 30
0.0
  0
VERTEX
  5
2C4
330
266
100
AcDbEntity
  8
スト_ル
  6
CONTINUOUS
 62
     6
100
AcDbVertex
100
AcDb2dVertex
 10
1753.487320622095
 20
942.3784373180201
 30
0.0
  0
VERTEX
  5
2C5
330
266
100
AcDbEntity
  8
スト_ル
  6
CONTINUOUS
 62
     6
100
AcDbVertex
100
AcDb2dVertex
 10
1754.445965179119
 20
941.1785671419818
 30
0.0
  0
VERTEX
  5
2C6
330
266
100
AcDbEntity
  8
スト_ル
  6
CONTINUOUS
 62
     6
100
AcDbVertex
100
AcDb2dVertex
 10
1755.33322631291
 20
939.8657257101474
 30
0.0
  0
VERTEX
  5
2C7
330
266
100
AcDbEntity
  8
スト_ル
  6
CONTINUOUS
 62
     6
100
AcDbVertex
100
AcDb2dVertex
 10
1756.14568219268
 20
938.4256806512749
 30
0.0
  0
VERTEX
  5
2C8
330
266
100
AcDbEntity
  8
スト_ル
  6
CONTINUOUS
 62
     6
100
AcDbVertex
100
AcDb2dVertex
 10
1756.879910987643
 20
936.8441995941209
 30
0.0
  0
VERTEX
  5
2C9
330
266
100
AcDbEntity
  8
スト_ル
  6
CONTINUOUS
 62
     6
100
AcDbVertex
100
AcDb2dVertex
 10
1757.532490867012
 20
935.1070501674437
 30
0.0
  0
VERTEX
  5
2CA
330
266
100
AcDbEntity
  8
スト_ル
  6
CONTINUOUS
 62
     6
100
AcDbVertex
100
AcDb2dVertex
 10
1758.1
 20
933.1999999999998
 30
0.0
  0
VERTEX
  5
2CB
330
266
100
AcDbEntity
  8
スト_ル
  6
CONTINUOUS
 62
     6
100
AcDbVertex
100
AcDb2dVertex
 10
1758.440340869881
 20
931.7863145130316
 30
0.0
  0
VERTEX
  5
2CC
330
266
100
AcDbEntity
  8
スト_ル
  6
CONTINUOUS
 62
     6
100
AcDbVertex
100
AcDb2dVertex
 10
1758.740310886893
 20
930.3237952980002
 30
0.0
  0
VERTEX
  5
2CD
330
266
100
AcDbEntity
  8
スト_ル
  6
CONTINUOUS
 62
     6
100
AcDbVertex
100
AcDb2dVertex
 10
1759.001586701576
 20
928.8511000063763
 30
0.0
  0
VERTEX
  5
2CE
330
266
100
AcDbEntity
  8
スト_ル
  6
CONTINUOUS
 62
     6
100
AcDbVertex
100
AcDb2dVertex
 10
1759.225844964471
 20
927.4068862896314
 30
0.0
  0
VERTEX
  5
2CF
330
266
100
AcDbEntity
  8
スト_ル
  6
CONTINUOUS
 62
     6
100
AcDbVertex
100
AcDb2dVertex
 10
1759.414762326116
 20
926.0298117992361
 30
0.0
  0
VERTEX
  5
2D0
330
266
100
AcDbEntity
  8
スト_ル
  6
CONTINUOUS
 62
     6
100
AcDbVertex
100
AcDb2dVertex
 10
1759.570015437053
 20
924.7585341866611
 30
0.0
  0
VERTEX
  5
2D1
330
266
100
AcDbEntity
  8
スト_ル
  6
CONTINUOUS
 62
     6
100
AcDbVertex
100
AcDb2dVertex
 10
1759.69328094782
 20
923.631711103377
 30
0.0
  0
VERTEX
  5
2D2
330
266
100
AcDbEntity
  8
スト_ル
  6
CONTINUOUS
 62
     6
100
AcDbVertex
100
AcDb2dVertex
 10
1759.786235508959
 20
922.6880002008553
 30
0.0
  0
VERTEX
  5
2D3
330
266
100
AcDbEntity
  8
スト_ル
  6
CONTINUOUS
 62
     6
100
AcDbVertex
100
AcDb2dVertex
 10
1759.850555771008
 20
921.9660591305661
 30
0.0
  0
VERTEX
  5
2D4
330
266
100
AcDbEntity
  8
スト_ル
  6
CONTINUOUS
 62
     6
100
AcDbVertex
100
AcDb2dVertex
 10
1759.887918384509
 20
921.5045455439808
 30
0.0
  0
VERTEX
  5
2D5
330
266
100
AcDbEntity
  8
スト_ル
  6
CONTINUOUS
 62
     6
100
AcDbVertex
100
AcDb2dVertex
 10
1759.9
 20
921.34211709257
 30
0.0
  0
SEQEND
  5
2D6
330
266
100
AcDbEntity
  8
スト_ル
  6
CONTINUOUS
 62
     6
  0
ARC
  5
2D7
330
1F
100
AcDbEntity
  8
スト_ル
  6
CONTINUOUS
 62
     6
100
AcDbCircle
 10
1793.6561467092
 20
943.3317934999998
 30
0.0
 40
10.0
100
AcDbArc
 50
270.0000000000002
 51
315.5734863299994
  0
ARC
  5
2D8
330
1F
100
AcDbEntity
  8
スト_ル
  6
CONTINUOUS
 62
     6
100
AcDbCircle
 10
1793.6561467092
 20
929.3318544999995
 30
0.0
 40
10.0
100
AcDbArc
 50
44.42662048000054
 51
90.00000000000001
  0
LINE
  5
2D9
330
1F
100
AcDbEntity
  8
スト_ル
  6
CONTINUOUS
 62
     6
100
AcDbLine
 10
1770.8809547
 20
933.3317934999998
 30
0.0
 11
1793.6561467092
 21
933.3317934999998
 31
0.0
  0
LINE
  5
2DA
330
1F
100
AcDbEntity
  8
スト_ル
  6
CONTINUOUS
 62
     6
100
AcDbLine
 10
1770.8809547
 20
939.3318544999995
 30
0.0
 11
1793.6561467092
 21
939.3318544999995
 31
0.0
  0
ARC
  5
2DB
330
1F
100
AcDbEntity
  8
スト_ル
  6
CONTINUOUS
 62
     6
100
AcDbCircle
 10
1764.50387891391
 20
925.8008928183206
 30
0.0
 40
5.0
100
AcDbArc
 50
180.0
 51
270.0000000000002
  0
POLYLINE
  5
2DC
330
1F
100
AcDbEntity
  8
スト_ル
  6
CONTINUOUS
 62
     6
100
AcDb2dPolyline
 66
     1
 10
0.0
 20
0.0
 30
0.0
 70
   128
  0
VERTEX
  5
2DD
330
2DC
100
AcDbEntity
  8
スト_ル
  6
CONTINUOUS
 62
     6
100
AcDbVertex
100
AcDb2dVertex
 10
1685.9235085829
 20
879.49791968949
 30
0.0
  0
VERTEX
  5
2DE
330
2DC
100
AcDbEntity
  8
スト_ル
  6
CONTINUOUS
 62
     6
100
AcDbVertex
100
AcDb2dVertex
 10
1686.157037568055
 20
879.3339002273458
 30
0.0
  0
VERTEX
  5
2DF
330
2DC
100
AcDbEntity
  8
スト_ル
  6
CONTINUOUS
 62
     6
100
AcDbVertex
100
AcDb2dVertex
 10
1686.820002983731
 20
878.8750598086157
 30
0.0
  0
VERTEX
  5
2E0
330
2DC
100
AcDbEntity
  8
スト_ル
  6
CONTINUOUS
 62
     6
100
AcDbVertex
100
AcDb2dVertex
 10
1687.85597252024
 20
878.171225384853
 30
0.0
  0
VERTEX
  5
2E1
330
2DC
100
AcDbEntity
  8
スト_ル
  6
CONTINUOUS
 62
     6
100
AcDbVertex
100
AcDb2dVertex
 10
1689.208513867897
 20
877.2722239076113
 30
0.0
  0
VERTEX
  5
2E2
330
2DC
100
AcDbEntity
  8
スト_ル
  6
CONTINUOUS
 62
     6
100
AcDbVertex
100
AcDb2dVertex
 10
1690.821194717015
 20
876.2278823284437
 30
0.0
  0
VERTEX
  5
2E3
330
2DC
100
AcDbEntity
  8
スト_ル
  6
CONTINUOUS
 62
     6
100
AcDbVertex
100
AcDb2dVertex
 10
1692.637582757909
 20
875.0880275989045
 30
0.0
  0
VERTEX
  5
2E4
330
2DC
100
AcDbEntity
  8
スト_ル
  6
CONTINUOUS
 62
     6
100
AcDbVertex
100
AcDb2dVertex
 10
1694.601245680893
 20
873.9024866705468
 30
0.0
  0
VERTEX
  5
2E5
330
2DC
100
AcDbEntity
  8
スト_ル
  6
CONTINUOUS
 62
     6
100
AcDbVertex
100
AcDb2dVertex
 10
1696.65575117628
 20
872.7210864949237
 30
0.0
  0
VERTEX
  5
2E6
330
2DC
100
AcDbEntity
  8
スト_ル
  6
CONTINUOUS
 62
     6
100
AcDbVertex
100
AcDb2dVertex
 10
1698.744666934384
 20
871.5936540235894
 30
0.0
  0
VERTEX
  5
2E7
330
2DC
100
AcDbEntity
  8
スト_ル
  6
CONTINUOUS
 62
     6
100
AcDbVertex
100
AcDb2dVertex
 10
1700.811560645519
 20
870.570016208097
 30
0.0
  0
VERTEX
  5
2E8
330
2DC
100
AcDbEntity
  8
スト_ル
  6
CONTINUOUS
 62
     6
100
AcDbVertex
100
AcDb2dVertex
 10
1702.8
 20
869.7
 30
0.0
  0
VERTEX
  5
2E9
330
2DC
100
AcDbEntity
  8
スト_ル
  6
CONTINUOUS
 62
     6
100
AcDbVertex
100
AcDb2dVertex
 10
1704.861659796236
 20
868.9574819916317
 30
0.0
  0
VERTEX
  5
2EA
330
2DC
100
AcDbEntity
  8
スト_ル
  6
CONTINUOUS
 62
     6
100
AcDbVertex
100
AcDb2dVertex
 10
1706.792893515494
 20
868.4225432234854
 30
0.0
  0
VERTEX
  5
2EB
330
2DC
100
AcDbEntity
  8
スト_ル
  6
CONTINUOUS
 62
     6
100
AcDbVertex
100
AcDb2dVertex
 10
1708.628823439441
 20
868.0530675736211
 30
0.0
  0
VERTEX
  5
2EC
330
2DC
100
AcDbEntity
  8
スト_ル
  6
CONTINUOUS
 62
     6
100
AcDbVertex
100
AcDb2dVertex
 10
1710.404571849746
 20
867.8069389200984
 30
0.0
  0
VERTEX
  5
2ED
330
2DC
100
AcDbEntity
  8
スト_ル
  6
CONTINUOUS
 62
     6
100
AcDbVertex
100
AcDb2dVertex
 10
1712.155261028077
 20
867.6420411409765
 30
0.0
  0
VERTEX
  5
2EE
330
2DC
100
AcDbEntity
  8
スト_ル
  6
CONTINUOUS
 62
     6
100
AcDbVertex
100
AcDb2dVertex
 10
1713.916013256101
 20
867.5162581143151
 30
0.0
  0
VERTEX
  5
2EF
330
2DC
100
AcDbEntity
  8
スト_ル
  6
CONTINUOUS
 62
     6
100
AcDbVertex
100
AcDb2dVertex
 10
1715.721950815486
 20
867.3874737181739
 30
0.0
  0
VERTEX
  5
2F0
330
2DC
100
AcDbEntity
  8
スト_ル
  6
CONTINUOUS
 62
     6
100
AcDbVertex
100
AcDb2dVertex
 10
1717.608195987901
 20
867.2135718306123
 30
0.0
  0
VERTEX
  5
2F1
330
2DC
100
AcDbEntity
  8
スト_ル
  6
CONTINUOUS
 62
     6
100
AcDbVertex
100
AcDb2dVertex
 10
1719.609871055013
 20
866.9524363296895
 30
0.0
  0
VERTEX
  5
2F2
330
2DC
100
AcDbEntity
  8
スト_ル
  6
CONTINUOUS
 62
     6
100
AcDbVertex
100
AcDb2dVertex
 10
1721.76209829849
 20
866.5619510934657
 30
0.0
  0
VERTEX
  5
2F3
330
2DC
100
AcDbEntity
  8
スト_ル
  6
CONTINUOUS
 62
     6
100
AcDbVertex
100
AcDb2dVertex
 10
1724.1
 20
866.0
 30
0.0
  0
VERTEX
  5
2F4
330
2DC
100
AcDbEntity
  8
スト_ル
  6
CONTINUOUS
 62
     6
100
AcDbVertex
100
AcDb2dVertex
 10
1725.47821136823
 20
865.6045346285924
 30
0.0
  0
VERTEX
  5
2F5
330
2DC
100
AcDbEntity
  8
スト_ル
  6
CONTINUOUS
 62
     6
100
AcDbVertex
100
AcDb2dVertex
 10
1726.889314079237
 20
865.161710492914
 30
0.0
  0
VERTEX
  5
2F6
330
2DC
100
AcDbEntity
  8
スト_ル
  6
CONTINUOUS
 62
     6
100
AcDbVertex
100
AcDb2dVertex
 10
1728.298721434679
 20
864.6894419554314
 30
0.0
  0
VERTEX
  5
2F7
330
2DC
100
AcDbEntity
  8
スト_ル
  6
CONTINUOUS
 62
     6
100
AcDbVertex
100
AcDb2dVertex
 10
1729.671846736214
 20
864.2056433786115
 30
0.0
  0
VERTEX
  5
2F8
330
2DC
100
AcDbEntity
  8
スト_ル
  6
CONTINUOUS
 62
     6
100
AcDbVertex
100
AcDb2dVertex
 10
1730.974103285499
 20
863.7282291249205
 30
0.0
  0
VERTEX
  5
2F9
330
2DC
100
AcDbEntity
  8
スト_ル
  6
CONTINUOUS
 62
     6
100
AcDbVertex
100
AcDb2dVertex
 10
1732.170904384192
 20
863.2751135568253
 30
0.0
  0
VERTEX
  5
2FA
330
2DC
100
AcDbEntity
  8
スト_ル
  6
CONTINUOUS
 62
     6
100
AcDbVertex
100
AcDb2dVertex
 10
1733.227663333952
 20
862.8642110367919
 30
0.0
  0
VERTEX
  5
2FB
330
2DC
100
AcDbEntity
  8
スト_ル
  6
CONTINUOUS
 62
     6
100
AcDbVertex
100
AcDb2dVertex
 10
1734.109793436434
 20
862.5134359272872
 30
0.0
  0
VERTEX
  5
2FC
330
2DC
100
AcDbEntity
  8
スト_ル
  6
CONTINUOUS
 62
     6
100
AcDbVertex
100
AcDb2dVertex
 10
1734.782707993298
 20
862.2407025907776
 30
0.0
  0
VERTEX
  5
2FD
330
2DC
100
AcDbEntity
  8
スト_ル
  6
CONTINUOUS
 62
     6
100
AcDbVertex
100
AcDb2dVertex
 10
1735.2118203062
 20
862.0639253897297
 30
0.0
  0
VERTEX
  5
2FE
330
2DC
100
AcDbEntity
  8
スト_ル
  6
CONTINUOUS
 62
     6
100
AcDbVertex
100
AcDb2dVertex
 10
1735.3625436768
 20
862.00101868661
 30
0.0
  0
SEQEND
  5
2FF
330
2DC
100
AcDbEntity
  8
スト_ル
  6
CONTINUOUS
 62
     6
  0
ARC
  5
300
330
1F
100
AcDbEntity
  8
スト_ル
  6
CONTINUOUS
 62
     6
100
AcDbCircle
 10
1793.6561467092
 20
1593.3317935
 30
0.0
 40
10.0
100
AcDbArc
 50
270.0000000000002
 51
315.5734863299994
  0
ARC
  5
301
330
1F
100
AcDbEntity
  8
スト_ル
  6
CONTINUOUS
 62
     6
100
AcDbCircle
 10
1793.6561467092
 20
1579.331854499999
 30
0.0
 40
10.0
100
AcDbArc
 50
44.42662048000054
 51
90.00000000000001
  0
LINE
  5
302
330
1F
100
AcDbEntity
  8
スト_ル
  6
CONTINUOUS
 62
     6
100
AcDbLine
 10
1770.8809547
 20
1583.3317935
 30
0.0
 11
1793.6561467092
 21
1583.3317935
 31
0.0
  0
LINE
  5
303
330
1F
100
AcDbEntity
  8
スト_ル
  6
CONTINUOUS
 62
     6
100
AcDbLine
 10
1770.8809547
 20
1589.331854499999
 30
0.0
 11
1793.6561467092
 21
1589.331854499999
 31
0.0
  0
ARC
  5
304
330
1F
100
AcDbEntity
  8
スト_ル
  6
CONTINUOUS
 62
     6
100
AcDbCircle
 10
1755.797565160201
 20
1586.331824000001
 30
0.0
 40
8.000001900000004
100
AcDbArc
 50
89.4027557403242
 51
260.4858381962742
  0
LINE
  5
305
330
1F
100
AcDbEntity
  8
寸法
  6
CONTINUOUS
 62
     3
100
AcDbLine
 10
615.8397809116872
 20
917.8318240000899
 30
0.0
 11
496.0102930924779
 21
917.8318240000899
 31
0.0
  0
LINE
  5
306
330
1F
100
AcDbEntity
  8
寸法
  6
CONTINUOUS
 62
     3
100
AcDbLine
 10
622.3397809116872
 20
678.8318240000899
 30
0.0
 11
496.0102930924779
 21
678.8318240000899
 31
0.0
  0
LINE
  5
307
330
1F
100
AcDbEntity
  8
寸法
  6
CONTINUOUS
 62
     3
100
AcDbLine
 10
516.0102930924779
 20
917.8318240000899
 30
0.0
 11
516.0102930924779
 21
678.8318240000899
 31
0.0
  0
LINE
  5
308
330
1F
100
AcDbEntity
  8
寸法
  6
CONTINUOUS
 62
     3
100
AcDbLine
 10
521.8436264258113
 20
882.8318240000899
 30
0.0
 11
516.0102930924779
 21
917.8318240000899
 31
0.0
  0
LINE
  5
309
330
1F
100
AcDbEntity
  8
寸法
  6
CONTINUOUS
 62
     3
100
AcDbLine
 10
516.0102930924779
 20
917.8318240000899
 30
0.0
 11
510.1769597591446
 21
882.8318240000899
 31
0.0
  0
LINE
  5
30A
330
1F
100
AcDbEntity
  8
寸法
  6
CONTINUOUS
 62
     3
100
AcDbLine
 10
510.1769597591446
 20
713.8318240000899
 30
0.0
 11
516.0102930924779
 21
678.8318240000899
 31
0.0
  0
LINE
  5
30B
330
1F
100
AcDbEntity
  8
寸法
  6
CONTINUOUS
 62
     3
100
AcDbLine
 10
516.0102930924779
 20
678.8318240000899
 30
0.0
 11
521.8436264258113
 21
713.8318240000899
 31
0.0
  0
DIMENSION
  5
30D
330
1F
100
AcDbEntity
  8
寸法
  6
CONTINUOUS
 62
     3
100
AcDbDimension
  2
*D15
 10
668.339780792478
 20
618.60000000009
 30
0.0
 11
738.339780792478
 21
642.0999999404853
 31
0.0
 70
   160
  3
ISO-25
100
AcDbAlignedDimension
 13
629.3397807924779
 23
678.8318240000899
 33
0.0
 14
668.339780792478
 24
678.8318240000899
 34
0.0
100
AcDbRotatedDimension
1001
ACAD
1000
DSTYLE
1002
{
1070
   270
1070
     2
1070
     6
1000
EX_NORM
1070
     7
1000
EX_NORM
1070
    41
1040
35.0
1070
    42
1040
6.99999988079071
1070
    44
1040
20.0
1070
    73
1070
     0
1070
    74
1070
     0
1070
    75
1070
     0
1070
    76
1070
     0
1070
    77
1070
     1
1070
    78
1070
     0
1070
   140
1040
40.0
1070
   147
1040
0.0
1070
   173
1070
     1
1070
   176
1070
     3
1070
   177
1070
     3
1070
   178
1070
     2
1070
   271
1070
     0
1070
   277
1070
     2
1070
   279
1070
     2
1070
   280
1070
     2
1070
   287
1070
     5
1070
   340
1005
30C
1002
}
  0
TEXT
  5
31D
330
1F
100
AcDbEntity
  8
寸法
  6
CONTINUOUS
 62
     2
100
AcDbText
 10
512.51029309248
 20
748.3318240000898
 30
0.0
 40
40.0
  1
２３９
 50
90.0
 41
1.029411764705882
  7
EXCADSTD
 72
     5
 11
512.51029309248
 21
848.3318240000898
 31
0.0
100
AcDbText
  0
DIMENSION
  5
31E
330
1F
100
AcDbEntity
  8
寸法
  6
CONTINUOUS
 62
     3
100
AcDbDimension
  2
*D16
 10
711.3397807924779
 20
1661.331824
 30
0.0
 11
648.8397807924782
 21
1684.831823940395
 31
0.0
 70
   160
  3
ISO-25
100
AcDbAlignedDimension
 13
586.3397807924781
 23
1670.6384843836
 33
0.0
 14
711.3397807924779
 24
1670.6384843836
 34
0.0
100
AcDbRotatedDimension
1001
ACAD
1000
DSTYLE
1002
{
1070
   270
1070
     2
1070
     6
1000
EX_NORM
1070
     7
1000
EX_NORM
1070
    41
1040
35.0
1070
    42
1040
0.0
1070
    44
1040
0.0
1070
    73
1070
     0
1070
    74
1070
     0
1070
    75
1070
     0
1070
    76
1070
     0
1070
    77
1070
     1
1070
    78
1070
     0
1070
   140
1040
40.0
1070
   147
1040
0.0
1070
   173
1070
     1
1070
   176
1070
     3
1070
   177
1070
     3
1070
   178
1070
     2
1070
   271
1070
     0
1070
   277
1070
     2
1070
   279
1070
     2
1070
   280
1070
     0
1070
   287
1070
     5
1070
   340
1005
30C
1002
}
  0
DIMENSION
  5
32B
330
1F
100
AcDbEntity
  8
寸法
  6
CONTINUOUS
 62
     3
100
AcDbDimension
  2
*D17
 10
1048.839780792478
 20
1601.331824
 30
0.0
 11
1025.339780852083
 21
1261.331824
 31
0.0
 70
   160
  3
ISO-25
100
AcDbAlignedDimension
 13
724.745819242478
 23
921.3318240000001
 33
0.0
 14
648.8397807924781
 24
1601.331824
 34
0.0
 50
90.0
100
AcDbRotatedDimension
1001
ACAD
1000
DSTYLE
1002
{
1070
   270
1070
     2
1070
     6
1000
EX_NORM
1070
     7
1000
EX_NORM
1070
    41
1040
35.0
1070
    42
1040
12.26446986198425
1070
    44
1040
20.0
1070
    73
1070
     0
1070
    74
1070
     0
1070
    75
1070
     0
1070
    76
1070
     0
1070
    77
1070
     1
1070
    78
1070
     0
1070
   140
1040
40.0
1070
   147
1040
0.0
1070
   173
1070
     1
1070
   176
1070
     3
1070
   177
1070
     3
1070
   178
1070
     2
1070
   271
1070
     0
1070
   277
1070
     2
1070
   279
1070
     2
1070
   280
1070
     0
1070
   287
1070
     5
1070
   340
1005
30C
1002
}
  0
DIMENSION
  5
338
330
1F
100
AcDbEntity
  8
寸法
  6
CONTINUOUS
 62
     3
100
AcDbDimension
  2
*D18
 10
968.8397807924779
 20
1601.331824
 30
0.0
 11
945.3397808520831
 21
1671.331824
 31
0.0
 70
   160
  3
ISO-25
100
AcDbAlignedDimension
 13
735.310293092478
 23
1586.331824
 33
0.0
 14
648.8397807924781
 24
1601.331824
 34
0.0
 50
90.0
100
AcDbRotatedDimension
1001
ACAD
1000
DSTYLE
1002
{
1070
   270
1070
     2
1070
     6
1000
EX_NONE
1070
     7
1000
EX_NORM
1070
    41
1040
35.0
1070
    42
1040
0.0
1070
    44
1040
0.0
1070
    73
1070
     0
1070
    74
1070
     0
1070
    75
1070
     0
1070
    76
1070
     1
1070
    77
1070
     1
1070
    78
1070
     0
1070
   140
1040
40.0
1070
   147
1040
0.0
1070
   173
1070
     1
1070
   176
1070
     3
1070
   177
1070
     3
1070
   178
1070
     2
1070
   271
1070
     0
1070
   277
1070
     2
1070
   279
1070
     2
1070
   280
1070
     2
1070
   287
1070
     5
1070
   340
1005
30C
1002
}
  0
DIMENSION
  5
346
330
1F
100
AcDbEntity
  8
寸法
  6
CONTINUOUS
 62
     3
100
AcDbDimension
  2
*D19
 10
968.8397807924781
 20
936.331824
 30
0.0
 11
945.3397808520829
 21
851.3318239999999
 31
0.0
 70
   160
  3
ISO-25
100
AcDbAlignedDimension
 13
724.745819242478
 23
921.3318240000001
 33
0.0
 14
733.9372695513579
 24
936.3318240000001
 34
0.0
 50
90.0
100
AcDbRotatedDimension
1001
ACAD
1000
DSTYLE
1002
{
1070
   270
1070
     2
1070
     6
1000
EX_NORM
1070
     7
1000
EX_NONE
1070
    41
1040
35.0
1070
    42
1040
0.0
1070
    44
1040
0.0
1070
    73
1070
     0
1070
    74
1070
     0
1070
    75
1070
     1
1070
    76
1070
     1
1070
    77
1070
     1
1070
    78
1070
     0
1070
   140
1040
40.0
1070
   147
1040
0.0
1070
   173
1070
     1
1070
   176
1070
     3
1070
   177
1070
     3
1070
   178
1070
     2
1070
   271
1070
     0
1070
   277
1070
     2
1070
   279
1070
     2
1070
   280
1070
     1
1070
   287
1070
     5
1070
   340
1005
30C
1002
}
  0
DIMENSION
  5
353
330
1F
100
AcDbEntity
  8
寸法
  6
CONTINUOUS
 62
     3
100
AcDbDimension
  2
*D20
 10
968.8397807924781
 20
1586.331824
 30
0.0
 11
945.3397808520829
 21
1261.331824
 31
0.0
 70
   160
  3
ISO-25
100
AcDbAlignedDimension
 13
733.9372695513579
 23
936.3318240000001
 33
0.0
 14
735.310293092478
 24
1586.331824
 34
0.0
 50
90.0
100
AcDbRotatedDimension
1001
ACAD
1000
DSTYLE
1002
{
1070
   270
1070
     2
1070
     6
1000
EX_NORM
1070
     7
1000
EX_NORM
1070
    41
1040
35.0
1070
    42
1040
0.0
1070
    44
1040
20.0
1070
    73
1070
     0
1070
    74
1070
     0
1070
    75
1070
     0
1070
    76
1070
     1
1070
    77
1070
     1
1070
    78
1070
     0
1070
   140
1040
40.0
1070
   147
1040
0.0
1070
   173
1070
     1
1070
   176
1070
     3
1070
   177
1070
     3
1070
   178
1070
     2
1070
   271
1070
     0
1070
   277
1070
     2
1070
   279
1070
     2
1070
   280
1070
     0
1070
   287
1070
     5
1070
   340
1005
30C
1002
}
  0
TEXT
  5
35F
330
1F
100
AcDbEntity
  8
寸法
  6
CONTINUOUS
 62
     2
100
AcDbText
 10
1045.339780852083
 20
766.3318239999999
 30
0.0
 40
40.0
  1
２１０
 50
90.0
 41
1.029411764705882
  7
EXCADSTD
 72
     5
 11
1045.339780852083
 21
866.3318239999999
 31
0.0
100
AcDbText
  0
LINE
  5
360
330
1F
100
AcDbEntity
  8
寸法
  6
CONTINUOUS
 62
     3
100
AcDbLine
 10
1048.839780792478
 20
921.3318240000001
 30
0.0
 11
1048.839780792478
 21
711.3318239999998
 31
0.0
  0
LINE
  5
361
330
1F
100
AcDbEntity
  8
寸法
  6
CONTINUOUS
 62
     3
100
AcDbLine
 10
1054.673114125811
 20
886.3318240000001
 30
0.0
 11
1048.839780792478
 21
921.3318240000001
 31
0.0
  0
LINE
  5
362
330
1F
100
AcDbEntity
  8
寸法
  6
CONTINUOUS
 62
     3
100
AcDbLine
 10
1048.839780792478
 20
921.3318240000001
 30
0.0
 11
1043.006447459145
 21
886.3318240000001
 31
0.0
  0
LINE
  5
363
330
1F
100
AcDbEntity
  8
寸法
  6
CONTINUOUS
 62
     3
100
AcDbLine
 10
1043.006447459145
 20
746.3318239999998
 30
0.0
 11
1048.839780792478
 21
711.3318239999998
 31
0.0
  0
LINE
  5
364
330
1F
100
AcDbEntity
  8
寸法
  6
CONTINUOUS
 62
     3
100
AcDbLine
 10
1048.839780792478
 20
711.3318239999998
 30
0.0
 11
1054.673114125811
 21
746.3318239999998
 31
0.0
  0
DIMENSION
  5
365
330
1F
100
AcDbEntity
  8
寸法
  6
CONTINUOUS
 62
     3
100
AcDbDimension
  2
*D21
 10
888.8397807924778
 20
891.3318240000001
 30
0.0
 11
865.3397808520825
 21
821.3318239999999
 31
0.0
 70
   160
  3
ISO-25
100
AcDbAlignedDimension
 13
572.9337423924778
 23
921.3318240000001
 33
0.0
 14
632.3397807924778
 24
891.3318240000001
 34
0.0
 50
90.0
100
AcDbRotatedDimension
1001
ACAD
1000
DSTYLE
1002
{
1070
   270
1070
     2
1070
     6
1000
EX_NORM
1070
     7
1000
EX_NORM
1070
    41
1040
35.0
1070
    42
1040
38.27050924301147
1070
    44
1040
20.0
1070
    73
1070
     0
1070
    74
1070
     0
1070
    75
1070
     1
1070
    76
1070
     0
1070
    77
1070
     1
1070
    78
1070
     0
1070
   140
1040
40.0
1070
   147
1040
0.0
1070
   173
1070
     1
1070
   176
1070
     3
1070
   177
1070
     3
1070
   178
1070
     2
1070
   271
1070
     0
1070
   277
1070
     2
1070
   279
1070
     2
1070
   280
1070
     2
1070
   287
1070
     5
1070
   340
1005
30C
1002
}
  0
DIMENSION
  5
373
330
1F
100
AcDbEntity
  8
寸法
  6
CONTINUOUS
 62
     3
100
AcDbDimension
  2
*D22
 10
713.8397807924779
 20
820.0
 30
0.0
 11
792.0102930924778
 21
843.4999999999999
 31
0.0
 70
   160
  1
130
  3
ISO-25
100
AcDbAlignedDimension
 13
583.8397807924781
 23
920.0
 33
0.0
 14
713.8397807924779
 24
920.0
 34
0.0
100
AcDbRotatedDimension
1001
ACAD
1000
DSTYLE
1002
{
1070
   270
1070
     2
1070
     6
1000
EX_NORM
1070
     7
1000
EX_NORM
1070
    41
1040
35.0
1070
    42
1040
2.599999904632568
1070
    44
1040
20.0
1070
    73
1070
     0
1070
    74
1070
     0
1070
    75
1070
     0
1070
    76
1070
     0
1070
    77
1070
     1
1070
    78
1070
     0
1070
   140
1040
40.0
1070
   147
1040
0.0
1070
   173
1070
     1
1070
   176
1070
     3
1070
   177
1070
     3
1070
   178
1070
     2
1070
   271
1070
     0
1070
   277
1070
     2
1070
   279
1070
     2
1070
   280
1070
     0
1070
   287
1070
     5
1070
   340
1005
30C
1002
}
  0
DIMENSION
  5
380
330
1F
100
AcDbEntity
  8
寸法
  6
CONTINUOUS
 62
     3
100
AcDbDimension
  2
*D23
 10
1770.8809547
 20
618.6
 30
0.0
 11
1840.8809547
 21
642.0999999403955
 31
0.0
 70
   160
  3
ISO-25
100
AcDbAlignedDimension
 13
1710.8809547
 23
678.5999999999999
 33
0.0
 14
1770.8809547
 24
711.3318239999999
 34
0.0
100
AcDbRotatedDimension
1001
ACAD
1000
DSTYLE
1002
{
1070
   270
1070
     2
1070
     6
1000
EX_NORM
1070
     7
1000
EX_NORM
1070
    41
1040
35.0
1070
    42
1040
6.99999988079071
1070
    44
1040
20.0
1070
    73
1070
     0
1070
    74
1070
     0
1070
    75
1070
     0
1070
    76
1070
     0
1070
    77
1070
     1
1070
    78
1070
     0
1070
   140
1040
40.0
1070
   147
1040
0.0
1070
   173
1070
     1
1070
   176
1070
     3
1070
   177
1070
     3
1070
   178
1070
     2
1070
   271
1070
     0
1070
   277
1070
     2
1070
   279
1070
     2
1070
   280
1070
     2
1070
   287
1070
     5
1070
   340
1005
30C
1002
}
  0
DIMENSION
  5
38F
330
1F
100
AcDbEntity
  8
寸法
  6
CONTINUOUS
 62
     3
100
AcDbDimension
  2
*D24
 10
808.82948770036
 20
2068.6580461
 30
0.0
 11
648.8294877000002
 21
2092.158046040395
 31
0.0
 70
   160
  3
ISO-25
100
AcDbAlignedDimension
 13
488.82948769964
 23
2433.6580461
 33
0.0
 14
808.82948770036
 24
2433.6580461
 34
0.0
100
AcDbRotatedDimension
1001
ACAD
1000
DSTYLE
1002
{
1070
   270
1070
     2
1070
     6
1000
EX_NORM
1070
     7
1000
EX_NORM
1070
    41
1040
35.0
1070
    42
1040
6.99999988079071
1070
    44
1040
20.0
1070
    73
1070
     0
1070
    74
1070
     0
1070
    75
1070
     0
1070
    76
1070
     0
1070
    77
1070
     1
1070
    78
1070
     0
1070
   140
1040
40.0
1070
   147
1040
0.0
1070
   173
1070
     1
1070
   176
1070
     3
1070
   177
1070
     3
1070
   178
1070
     2
1070
   271
1070
     0
1070
   277
1070
     2
1070
   279
1070
     2
1070
   280
1070
     0
1070
   287
1070
     5
1070
   340
1005
30C
1002
}
  0
DIMENSION
  5
39C
330
1F
100
AcDbEntity
  8
寸法
  6
CONTINUOUS
 62
     3
100
AcDbDimension
  2
*D25
 10
888.82948770036
 20
2128.6580461
 30
0.0
 11
865.3294877599649
 21
2281.1580461
 31
0.0
 70
   160
  3
ISO-25
100
AcDbAlignedDimension
 13
805.5873759772
 23
2433.6580461
 33
0.0
 14
648.8294877
 24
2128.6580461
 34
0.0
 50
90.0
100
AcDbRotatedDimension
1001
ACAD
1000
DSTYLE
1002
{
1070
   270
1070
     2
1070
     6
1000
EX_NORM
1070
     7
1000
EX_NORM
1070
    41
1040
35.0
1070
    42
1040
6.99999988079071
1070
    44
1040
20.0
1070
    73
1070
     0
1070
    74
1070
     0
1070
    75
1070
     0
1070
    76
1070
     0
1070
    77
1070
     1
1070
    78
1070
     0
1070
   140
1040
40.0
1070
   147
1040
0.0
1070
   173
1070
     1
1070
   176
1070
     3
1070
   177
1070
     3
1070
   178
1070
     2
1070
   271
1070
     0
1070
   277
1070
     2
1070
   279
1070
     2
1070
   280
1070
     0
1070
   287
1070
     5
1070
   340
1005
30C
1002
}
  0
DIMENSION
  5
3A9
330
1F
100
AcDbEntity
  8
寸法
  6
CONTINUOUS
 62
     3
100
AcDbDimension
  2
*D26
 10
1340.0
 20
1041.2877496302
 30
0.0
 11
1316.500000059605
 21
876.3097868151001
 31
0.0
 70
   160
  3
ISO-25
100
AcDbAlignedDimension
 13
1294.0
 23
711.3318239999999
 33
0.0
 14
1470.1456188568
 24
1041.2877496302
 34
0.0
 50
90.0
100
AcDbRotatedDimension
1001
ACAD
1000
DSTYLE
1002
{
1070
   270
1070
     2
1070
     6
1000
EX_NORM
1070
     7
1000
EX_NORM
1070
    41
1040
35.0
1070
    42
1040
6.99999988079071
1070
    44
1040
20.0
1070
    73
1070
     0
1070
    74
1070
     0
1070
    75
1070
     1
1070
    76
1070
     0
1070
    77
1070
     1
1070
    78
1070
     0
1070
   140
1040
40.0
1070
   147
1040
0.0
1070
   173
1070
     1
1070
   176
1070
     3
1070
   177
1070
     3
1070
   178
1070
     2
1070
   271
1070
     0
1070
   277
1070
     2
1070
   279
1070
     2
1070
   280
1070
     0
1070
   287
1070
     5
1070
   340
1005
30C
1002
}
  0
DIMENSION
  5
3B5
330
1F
100
AcDbEntity
  8
寸法
  6
CONTINUOUS
 62
     3
100
AcDbDimension
  2
*D27
 10
1414.0
 20
891.34211709257
 30
0.0
 11
1390.500000059605
 21
966.314933361385
 31
0.0
 70
   160
  3
ISO-25
100
AcDbAlignedDimension
 13
1470.1456188568
 23
1041.2877496302
 33
0.0
 14
1710.8809547
 24
891.34211709257
 34
0.0
 50
90.0
100
AcDbRotatedDimension
1001
ACAD
1000
DSTYLE
1002
{
1070
   270
1070
     2
1070
     6
1000
EX_NORM
1070
     7
1000
EX_NORM
1070
    41
1040
35.0
1070
    42
1040
19.88095045089722
1070
    44
1040
20.0
1070
    73
1070
     0
1070
    74
1070
     0
1070
    75
1070
     1
1070
    76
1070
     0
1070
    77
1070
     1
1070
    78
1070
     0
1070
   140
1040
40.0
1070
   147
1040
0.0
1070
   173
1070
     1
1070
   176
1070
     3
1070
   177
1070
     3
1070
   178
1070
     2
1070
   271
1070
     0
1070
   277
1070
     2
1070
   279
1070
     2
1070
   280
1070
     0
1070
   287
1070
     5
1070
   340
1005
30C
1002
}
  0
DIMENSION
  5
3C1
330
1F
100
AcDbEntity
  8
寸法
  6
CONTINUOUS
 62
     3
100
AcDbDimension
  2
*D28
 10
1340.0
 20
1041.2877496302
 30
0.0
 11
1316.500000059605
 21
1321.3149333614
 31
0.0
 70
   160
  3
ISO-25
100
AcDbAlignedDimension
 13
1767.8809547
 23
1601.3421170926
 33
0.0
 14
1340.0
 24
1041.2877496302
 34
0.0
 50
90.0
100
AcDbRotatedDimension
1001
ACAD
1000
DSTYLE
1002
{
1070
   270
1070
     2
1070
     6
1000
EX_NORM
1070
     7
1000
EX_NORM
1070
    41
1040
35.0
1070
    42
1040
12.58095026016235
1070
    44
1040
20.0
1070
    73
1070
     0
1070
    74
1070
     0
1070
    75
1070
     0
1070
    76
1070
     1
1070
    77
1070
     1
1070
    78
1070
     0
1070
   140
1040
40.0
1070
   147
1040
0.0
1070
   173
1070
     1
1070
   176
1070
     3
1070
   177
1070
     3
1070
   178
1070
     2
1070
   271
1070
     0
1070
   277
1070
     2
1070
   279
1070
     2
1070
   280
1070
     0
1070
   287
1070
     5
1070
   340
1005
30C
1002
}
  0
TEXT
  5
3CD
330
1F
100
AcDbEntity
  8
器具明細表
  6
CONTINUOUS
 62
     2
100
AcDbText
 10
1266.0507812
 20
2607.0043945
 30
0.0
 40
60.0
  1
器　具　明　細
 41
1.294715447154472
  7
EXCADSTD
 72
     5
 11
1721.0507812
 21
2607.0043945
 31
0.0
100
AcDbText
  0
TEXT
  5
3CE
330
1F
100
AcDbEntity
  8
器具明細表
  6
CONTINUOUS
 62
     2
100
AcDbText
 10
1299.4003906
 20
2535.0
 30
0.0
 40
55.0
  1
品　　番
 41
1.245059288537549
  7
EXCADSTD
 72
     5
 11
1524.4003906
 21
2535.0
 31
0.0
100
AcDbText
  0
TEXT
  5
3CF
330
1F
100
AcDbEntity
  8
器具明細表
  6
CONTINUOUS
 62
     2
100
AcDbText
 10
1864.0
 20
2535.0
 30
0.0
 40
55.0
  1
個数
 41
0.9226601652892572
  7
EXCADSTD
 72
     5
 11
1943.7442
 21
2535.0
 31
0.0
100
AcDbText
  0
TEXT
  5
3D0
330
1F
100
AcDbEntity
  8
器具明細表
  6
CONTINUOUS
 62
     2
100
AcDbText
 10
1629.0170898
 20
2535.0
 30
0.0
 40
55.0
  1
品　　名
 41
0.9960474308300394
  7
EXCADSTD
 72
     5
 11
1809.0170898
 21
2535.0
 31
0.0
100
AcDbText
  0
TEXT
  5
3D1
330
1F
100
AcDbEntity
  8
器具明細表
  6
CONTINUOUS
 62
     2
100
AcDbText
 10
1884.0
 20
2473.9819336
 30
0.0
 40
47.5
  1
１
 41
1.112926243832238
  7
EXCADSTD
 72
     5
 11
1921.759997558594
 21
2473.9819336
 31
0.0
100
AcDbText
  0
TEXT
  5
3D2
330
1F
100
AcDbEntity
  8
器具明細表
  6
CONTINUOUS
 62
     2
100
AcDbText
 10
1884.0
 20
2408.3816528
 30
0.0
 40
47.5
  1
１
 41
1.112926243832238
  7
EXCADSTD
 72
     5
 11
1921.759997558594
 21
2408.3816528
 31
0.0
100
AcDbText
  0
TEXT
  5
3D3
330
1F
100
AcDbEntity
  8
器具明細表
  6
CONTINUOUS
 62
     2
100
AcDbText
 10
1582.918457
 20
2405.7791138
 30
0.0
 40
50.0
  1
筒
 41
1.008
  7
EXCADSTD
 72
     5
 11
1618.918457
 21
2405.7791138
 31
0.0
100
AcDbText
  0
TEXT
  5
3D4
330
1F
100
AcDbEntity
  8
器具明細表
  6
CONTINUOUS
 62
     2
100
AcDbText
 10
1582.918457
 20
2340.779419
 30
0.0
 40
50.0
  1
化粧頭付木ねじ
 41
0.9117073170731708
  7
EXCADSTD
 72
     5
 11
1849.918457
 21
2340.779419
 31
0.0
100
AcDbText
  0
TEXT
  5
3D5
330
1F
100
AcDbEntity
  8
器具明細表
  6
CONTINUOUS
 62
     2
100
AcDbText
 10
1582.918457
 20
2470.0
 30
0.0
 40
50.0
  1
センタ－スト－ル
 41
0.8161702127659576
  7
EXCADSTD
 72
     5
 11
1856.918457
 21
2470.0
 31
0.0
100
AcDbText
  0
TEXT
  5
3D6
330
1F
100
AcDbEntity
  8
器具明細表
  6
CONTINUOUS
 62
     2
100
AcDbText
 10
1251.9838562
 20
2407.4801636
 30
0.0
 40
50.0
  1
ＴＶ１０１
 41
0.9317241379310345
  7
EXCADSTD
 72
     5
 11
1444.9838562
 21
2407.4801636
 31
0.0
100
AcDbText
  0
TEXT
  5
3D7
330
1F
100
AcDbEntity
  8
器具明細表
  6
CONTINUOUS
 62
     2
100
AcDbText
 10
1251.9838562
 20
2472.4804687
 30
0.0
 40
50.0
  1
Ｕ１０１Ａ
 41
0.9317241379310345
  7
EXCADSTD
 72
     5
 11
1444.9838562
 21
2472.4804687
 31
0.0
100
AcDbText
  0
LINE
  5
3D8
330
1F
100
AcDbEntity
  8
器具明細表
  6
CONTINUOUS
 62
     6
100
AcDbLine
 10
1249.0
 20
2465.0
 30
0.0
 11
1949.0
 21
2465.0
 31
0.0
  0
LINE
  5
3D9
330
1F
100
AcDbEntity
  8
器具明細表
  6
CONTINUOUS
 62
     6
100
AcDbLine
 10
1249.0
 20
2530.0
 30
0.0
 11
1949.0
 21
2530.0
 31
0.0
  0
LINE
  5
3DA
330
1F
100
AcDbEntity
  8
器具明細表
  6
CONTINUOUS
 62
     6
100
AcDbLine
 10
1249.0
 20
2595.0
 30
0.0
 11
1949.0
 21
2595.0
 31
0.0
  0
LINE
  5
3DB
330
1F
100
AcDbEntity
  8
器具明細表
  6
CONTINUOUS
 62
     6
100
AcDbLine
 10
1249.0
 20
2400.0003052
 30
0.0
 11
1949.0
 21
2400.0003052
 31
0.0
  0
LINE
  5
3DC
330
1F
100
AcDbEntity
  8
器具明細表
  6
CONTINUOUS
 62
     6
100
AcDbLine
 10
1249.0
 20
2335.0006104
 30
0.0
 11
1949.0
 21
2335.0006104
 31
0.0
  0
LINE
  5
3DD
330
1F
100
AcDbEntity
  8
器具明細表
  6
CONTINUOUS
 62
     6
100
AcDbLine
 10
1579.0
 20
2595.0
 30
0.0
 11
1579.0
 21
2335.0006104
 31
0.0
  0
LINE
  5
3DE
330
1F
100
AcDbEntity
  8
器具明細表
  6
CONTINUOUS
 62
     6
100
AcDbLine
 10
1859.0
 20
2595.0
 30
0.0
 11
1859.0
 21
2335.0006104
 31
0.0
  0
LINE
  5
3DF
330
1F
100
AcDbEntity
  8
器具明細表
  6
CONTINUOUS
 62
     6
100
AcDbLine
 10
1949.0
 20
2595.0
 30
0.0
 11
1949.0
 21
2335.0006104
 31
0.0
  0
LINE
  5
3E0
330
1F
100
AcDbEntity
  8
器具明細表
  6
CONTINUOUS
 62
     6
100
AcDbLine
 10
1249.0
 20
2595.0
 30
0.0
 11
1249.0
 21
2335.0006104
 31
0.0
  0
TEXT
  5
3E1
330
1F
100
AcDbEntity
  8
器具明細表
  6
CONTINUOUS
 62
     2
100
AcDbText
 10
1251.9838562
 20
2342.4804688
 30
0.0
 40
50.0
  1
ＮＴ７Ａカラー
 41
0.9117073170731708
  7
EXCADSTD
 72
     5
 11
1518.9838562
 21
2342.4804688
 31
0.0
100
AcDbText
  0
TEXT
  5
3E2
330
1F
100
AcDbEntity
  8
器具明細表
  6
CONTINUOUS
 62
     2
100
AcDbText
 10
1884.0
 20
2343.381958
 30
0.0
 40
47.5
  1
４
 41
1.112926243832238
  7
EXCADSTD
 72
     5
 11
1921.759997558594
 21
2343.381958
 31
0.0
100
AcDbText
  0
ENDSEC
  0
SECTION
  2
OBJECTS
  0
DICTIONARY
  5
C
330
0
100
AcDbDictionary
  3
ACAD_GROUP
350
D
  3
ACAD_LAYOUT
350
1A
  3
ACAD_MATERIAL
350
3B
  3
ACAD_MLEADERSTYLE
350
405
  3
ACAD_MLINESTYLE
350
17
  3
ACAD_PLOTSETTINGS
350
19
  3
ACAD_VISUALSTYLE
350
2A
  3
ACDBHEADERROUNDTRIPXREC
350
3E3
  3
ACDBVARIABLEDICTIONARY
350
403
  0
DICTIONARY
  5
D
102
{ACAD_REACTORS
330
C
102
}
330
C
100
AcDbDictionary
  0
DICTIONARY
  5
1A
102
{ACAD_REACTORS
330
C
102
}
330
C
100
AcDbDictionary
  0
DICTIONARY
  5
3B
102
{ACAD_REACTORS
330
C
102
}
330
C
100
AcDbDictionary
  3
BYBLOCK
350
3D
  3
BYLAYER
350
3C
  3
GLOBAL
350
3E
  0
DICTIONARY
  5
405
102
{ACAD_REACTORS
330
C
102
}
330
C
100
AcDbDictionary
  0
DICTIONARY
  5
17
102
{ACAD_REACTORS
330
C
102
}
330
C
100
AcDbDictionary
  3
STANDARD
350
18
  0
DICTIONARY
  5
19
102
{ACAD_REACTORS
330
C
102
}
330
C
100
AcDbDictionary
  0
DICTIONARY
  5
2A
102
{ACAD_REACTORS
330
C
102
}
330
C
100
AcDbDictionary
  3
2DWIREFRAME
350
2F
  3
3D_HIDDEN
350
31
  3
3DWIREFRAME
350
30
  3
BASIC
350
32
  3
BRIGHTEN
350
36
  3
COLORCHANGE
350
3A
  3
CONCEPTUAL
350
34
  3
DIM
350
35
  3
FACEPATTERN
350
39
  3
FLAT
350
2B
  3
FLATWITHEDGES
350
2C
  3
GOURAUD
350
2D
  3
GOURAUDWITHEDGES
350
2E
  3
LINEPATTERN
350
38
  3
REALISTIC
350
33
  3
THICKEN
350
37
  0
DICTIONARY
  5
3E3
102
{ACAD_REACTORS
330
C
102
}
330
C
100
AcDbDictionary
  3
CEPSNTYPE
350
3EC
  3
DIMSTYLEDATA
350
402
  3
FINGERPRINTGUID
350
3ED
  3
HYPERLINKBASE
350
3E6
  3
INSUNITS
350
3EB
  3
LAYOUTDICT
350
3E8
  3
LWETCUNION
350
3EA
  3
PLOTSETDICT
350
3E9
  3
PSVPSCALE
350
3EF
  3
PUCSBASE
350
3F2
  3
PUCSORGBACK
350
3F8
  3
PUCSORGBOTTOM
350
3F4
  3
PUCSORGFRONT
350
3F7
  3
PUCSORGLEFT
350
3F5
  3
PUCSORGRIGHT
350
3F6
  3
PUCSORGTOP
350
3F3
  3
PUCSORTHOREF
350
3F0
  3
PUCSORTHOVIEW
350
3F1
  3
STYLESHEET
350
3E7
  3
TSTACKALIGN
350
3E4
  3
TSTACKSIZE
350
3E5
  3
UCSBASE
350
3FB
  3
UCSORGBACK
350
401
  3
UCSORGBOTTOM
350
3FD
  3
UCSORGFRONT
350
400
  3
UCSORGLEFT
350
3FE
  3
UCSORGRIGHT
350
3FF
  3
UCSORGTOP
350
3FC
  3
UCSORTHOREF
350
3F9
  3
UCSORTHOVIEW
350
3FA
  3
VERSIONGUID
350
3EE
  0
DICTIONARY
  5
403
102
{ACAD_REACTORS
330
C
102
}
330
C
100
AcDbDictionary
  3
DIMASSOC
350
408
  3
HIDETEXT
350
409
  3
PSOLHEIGHT
350
407
  3
PSOLWIDTH
350
406
  0
MATERIAL
  5
3D
102
{ACAD_REACTORS
330
3B
102
}
102
{ACAD_XDICTIONARY
360
40C
102
}
330
3B
100
AcDbMaterial
  1
ByBlock
  0
MATERIAL
  5
3C
102
{ACAD_REACTORS
330
3B
102
}
102
{ACAD_XDICTIONARY
360
40A
102
}
330
3B
100
AcDbMaterial
  1
ByLayer
  0
MATERIAL
  5
3E
102
{ACAD_REACTORS
330
3B
102
}
102
{ACAD_XDICTIONARY
360
40E
102
}
330
3B
100
AcDbMaterial
  1
Global
  0
MLINESTYLE
  5
18
102
{ACAD_REACTORS
330
17
102
}
330
17
100
AcDbMlineStyle
  2
Standard
 70
     0
  3

 62
   256
 51
90.0
 52
90.0
 71
     2
 49
0.5
 62
   256
  6
BYLAYER
 49
-0.5
 62
   256
  6
BYLAYER
  0
ACAD_PROXY_OBJECT
  5
2F
102
{ACAD_REACTORS
330
2A
102
}
330
2A
100
AcDbProxyObject
 90
      499
 91
      501
 93
      436
310
42CC9915DA5C99599C985B595049028333333333333E3BF0000000000000FB0107901411070040501600405405064090741402480A0340
1001
ACAD
1000
AcDbSavedByObjectVersion
1070
     0
  0
ACAD_PROXY_OBJECT
  5
31
102
{ACAD_REACTORS
330
2A
102
}
330
2A
100
AcDbProxyObject
 90
      499
 91
      501
 93
      500
310
424CD108121A5919195B90640502408333333333333E3BF0000000000000FB01079024090700405020000000000001110200405405064090740C02480A0340
1001
ACAD
1000
AcDbSavedByObjectVersion
1070
     0
  0
ACAD_PROXY_OBJECT
  5
30
102
{ACAD_REACTORS
330
2A
102
}
330
2A
100
AcDbProxyObject
 90
      499
 91
      501
 93
      436
310
42CCD915DA5C99599C985B595059028333333333333E3BF0000000000000FB0107901411070040501600405405064090741402480A0340
1001
ACAD
1000
AcDbSavedByObjectVersion
1070
     0
  0
ACAD_PROXY_OBJECT
  5
32
102
{ACAD_REACTORS
330
2A
102
}
330
2A
100
AcDbProxyObject
 90
      499
 91
      501
 93
      388
310
4150985CDA58D07406404333333333333E3BF0000000000000FB0107A41107004050150841D405064090741402480A0350
1001
ACAD
1000
AcDbSavedByObjectVersion
1070
     0
  0
ACAD_PROXY_OBJECT
  5
36
102
{ACAD_REACTORS
330
2A
102
}
330
2A
100
AcDbProxyObject
 90
      499
 91
      501
 93
      428
310
42109C9A59DA1D195B90C409028333333333333E3BF0000000000000FB010790141107004050150841D405064090741402480A029950
1001
ACAD
1000
AcDbSavedByObjectVersion
1070
     0
  0
ACAD_PROXY_OBJECT
  5
3A
102
{ACAD_REACTORS
330
2A
102
}
330
2A
100
AcDbProxyObject
 90
      499
 91
      501
 93
      452
310
42D0DBDB1BDC90DA185B99D95104090240C333333333333E3BF0000000000000FB0108901411070040501508421405064090741402480A0350
1001
ACAD
1000
AcDbSavedByObjectVersion
1070
     0
  0
ACAD_PROXY_OBJECT
  5
34
102
{ACAD_REACTORS
330
2A
102
}
330
2A
100
AcDbProxyObject
 90
      499
 91
      501
 93
      500
310
4290DBDB98D95C1D1D585B10940D028333333333333E3BF0000000000000FB0107902409070040501000000000000111010841D405064090740C02480A0340
1001
ACAD
1000
AcDbSavedByObjectVersion
1070
     0
  0
ACAD_PROXY_OBJECT
  5
35
102
{ACAD_REACTORS
330
2A
102
}
330
2A
100
AcDbProxyObject
 90
      499
 91
      501
 93
      412
310
40D11A5B50B409028333333333333E3BF0000000000000FB010790141107004050150841D405064090741402480A02677FFFFFD0
1001
ACAD
1000
AcDbSavedByObjectVersion
1070
     0
  0
ACAD_PROXY_OBJECT
  5
39
102
{ACAD_REACTORS
330
2A
102
}
330
2A
100
AcDbProxyObject
 90
      499
 91
      501
 93
      444
310
42D19858D95C185D1D195C9B90F409028333333333333E3BF0000000000000FB010790141107004050150841D405064090741402480A0350
1001
ACAD
1000
AcDbSavedByObjectVersion
1070
     0
  0
ACAD_PROXY_OBJECT
  5
2B
102
{ACAD_REACTORS
330
2A
102
}
330
2A
100
AcDbProxyObject
 90
      499
 91
      501
 93
      388
310
41119B185D240901404333333333333E3BF0000000000000F9010740A41107004050150841D405064090741402480A1B50
1001
ACAD
1000
AcDbSavedByObjectVersion
1070
     0
  0
ACAD_PROXY_OBJECT
  5
2C
102
{ACAD_REACTORS
330
2A
102
}
330
2A
100
AcDbProxyObject
 90
      499
 91
      501
 93
      476
310
43519B185D15DA5D1A115919D95CD0140901404333333333333E3BF0000000000000F9010740901411070040501600405405064090741402480A1B50
1001
ACAD
1000
AcDbSavedByObjectVersion
1070
     0
  0
ACAD_PROXY_OBJECT
  5
2D
102
{ACAD_REACTORS
330
2A
102
}
330
2A
100
AcDbProxyObject
 90
      499
 91
      501
 93
      412
310
41D1DBDD5C985D5910240902404333333333333E3BF0000000000000F9010740A411070040501641D405064090741402480A1B50
1001
ACAD
1000
AcDbSavedByObjectVersion
1070
     0
  0
ACAD_PROXY_OBJECT
  5
2E
102
{ACAD_REACTORS
330
2A
102
}
330
2A
100
AcDbProxyObject
 90
      499
 91
      501
 93
      500
310
4411DBDD5C985D5915DA5D1A115919D95CD0340902404333333333333E3BF0000000000000F9010740901411070040501600405405064090741402480A1B50
1001
ACAD
1000
AcDbSavedByObjectVersion
1070
     0
  0
ACAD_PROXY_OBJECT
  5
38
102
{ACAD_REACTORS
330
2A
102
}
330
2A
100
AcDbProxyObject
 90
      499
 91
      501
 93
      444
310
42D31A5B995C185D1D195C9B90E409028333333333333E3BF0000000000000FB010790141107004050750841D405064090741402483A0350
1001
ACAD
1000
AcDbSavedByObjectVersion
1070
     0
  0
ACAD_PROXY_OBJECT
  5
33
102
{ACAD_REACTORS
330
2A
102
}
330
2A
100
AcDbProxyObject
 90
      499
 91
      501
 93
      420
310
425499585B1A5CDD1A58D08409028333333333333E3BF0000000000000FB01079019070040501508421405064090741402480A1B40
1001
ACAD
1000
AcDbSavedByObjectVersion
1070
     0
  0
ACAD_PROXY_OBJECT
  5
37
102
{ACAD_REACTORS
330
2A
102
}
330
2A
100
AcDbProxyObject
 90
      499
 91
      501
 93
      412
310
41D51A1A58DAD95B90D409028333333333333E3BF0000000000000FB010790141107004050150C41D405064090741402480A0350
1001
ACAD
1000
AcDbSavedByObjectVersion
1070
     0
  0
XRECORD
  5
3EC
102
{ACAD_REACTORS
330
3E3
102
}
330
3E3
100
AcDbXrecord
 90
        0
  0
XRECORD
  5
402
102
{ACAD_REACTORS
330
3E3
102
}
330
3E3
100
AcDbXrecord
1000
DSTYLE
1002
{
1070
   340
340
11
1002
}
  0
XRECORD
  5
3ED
102
{ACAD_REACTORS
330
3E3
102
}
330
3E3
100
AcDbXrecord
  1
{33D5801E-D5E4-4390-9100-7B15F8922E16}
  0
XRECORD
  5
3E6
102
{ACAD_REACTORS
330
3E3
102
}
330
3E3
100
AcDbXrecord
  1

  0
XRECORD
  5
3EB
102
{ACAD_REACTORS
330
3E3
102
}
330
3E3
100
AcDbXrecord
 90
        4
  0
XRECORD
  5
3E8
102
{ACAD_REACTORS
330
3E3
102
}
330
3E3
100
AcDbXrecord
340
1A
  0
XRECORD
  5
3EA
102
{ACAD_REACTORS
330
3E3
102
}
330
3E3
100
AcDbXrecord
 90
    10781
  0
XRECORD
  5
3E9
102
{ACAD_REACTORS
330
3E3
102
}
330
3E3
100
AcDbXrecord
340
19
  0
XRECORD
  5
3EF
102
{ACAD_REACTORS
330
3E3
102
}
330
3E3
100
AcDbXrecord
 40
0.0
  0
XRECORD
  5
3F2
102
{ACAD_REACTORS
330
3E3
102
}
330
3E3
100
AcDbXrecord
340
0
  0
XRECORD
  5
3F8
102
{ACAD_REACTORS
330
3E3
102
}
330
3E3
100
AcDbXrecord
 10
0.0
 20
0.0
 30
0.0
  0
XRECORD
  5
3F4
102
{ACAD_REACTORS
330
3E3
102
}
330
3E3
100
AcDbXrecord
 10
0.0
 20
0.0
 30
0.0
  0
XRECORD
  5
3F7
102
{ACAD_REACTORS
330
3E3
102
}
330
3E3
100
AcDbXrecord
 10
0.0
 20
0.0
 30
0.0
  0
XRECORD
  5
3F5
102
{ACAD_REACTORS
330
3E3
102
}
330
3E3
100
AcDbXrecord
 10
0.0
 20
0.0
 30
0.0
  0
XRECORD
  5
3F6
102
{ACAD_REACTORS
330
3E3
102
}
330
3E3
100
AcDbXrecord
 10
0.0
 20
0.0
 30
0.0
  0
XRECORD
  5
3F3
102
{ACAD_REACTORS
330
3E3
102
}
330
3E3
100
AcDbXrecord
 10
0.0
 20
0.0
 30
0.0
  0
XRECORD
  5
3F0
102
{ACAD_REACTORS
330
3E3
102
}
330
3E3
100
AcDbXrecord
340
0
  0
XRECORD
  5
3F1
102
{ACAD_REACTORS
330
3E3
102
}
330
3E3
100
AcDbXrecord
 70
     0
  0
XRECORD
  5
3E7
102
{ACAD_REACTORS
330
3E3
102
}
330
3E3
100
AcDbXrecord
  1

  0
XRECORD
  5
3E4
102
{ACAD_REACTORS
330
3E3
102
}
330
3E3
100
AcDbXrecord
 90
        1
  0
XRECORD
  5
3E5
102
{ACAD_REACTORS
330
3E3
102
}
330
3E3
100
AcDbXrecord
 90
       70
  0
XRECORD
  5
3FB
102
{ACAD_REACTORS
330
3E3
102
}
330
3E3
100
AcDbXrecord
340
0
  0
XRECORD
  5
401
102
{ACAD_REACTORS
330
3E3
102
}
330
3E3
100
AcDbXrecord
 10
0.0
 20
0.0
 30
0.0
  0
XRECORD
  5
3FD
102
{ACAD_REACTORS
330
3E3
102
}
330
3E3
100
AcDbXrecord
 10
0.0
 20
0.0
 30
0.0
  0
XRECORD
  5
400
102
{ACAD_REACTORS
330
3E3
102
}
330
3E3
100
AcDbXrecord
 10
0.0
 20
0.0
 30
0.0
  0
XRECORD
  5
3FE
102
{ACAD_REACTORS
330
3E3
102
}
330
3E3
100
AcDbXrecord
 10
0.0
 20
0.0
 30
0.0
  0
XRECORD
  5
3FF
102
{ACAD_REACTORS
330
3E3
102
}
330
3E3
100
AcDbXrecord
 10
0.0
 20
0.0
 30
0.0
  0
XRECORD
  5
3FC
102
{ACAD_REACTORS
330
3E3
102
}
330
3E3
100
AcDbXrecord
 10
0.0
 20
0.0
 30
0.0
  0
XRECORD
  5
3F9
102
{ACAD_REACTORS
330
3E3
102
}
330
3E3
100
AcDbXrecord
340
0
  0
XRECORD
  5
3FA
102
{ACAD_REACTORS
330
3E3
102
}
330
3E3
100
AcDbXrecord
 70
     0
  0
XRECORD
  5
3EE
102
{ACAD_REACTORS
330
3E3
102
}
330
3E3
100
AcDbXrecord
  1
{FAEB1C32-E019-11D5-929B-00C0DF256EC4}
  0
DICTIONARYVAR
  5
408
102
{ACAD_REACTORS
330
403
102
}
330
403
100
DictionaryVariables
280
     0
  1
2
  0
DICTIONARYVAR
  5
409
102
{ACAD_REACTORS
330
403
102
}
330
403
100
DictionaryVariables
280
     0
  1
1
  0
DICTIONARYVAR
  5
407
102
{ACAD_REACTORS
330
403
102
}
330
403
100
DictionaryVariables
280
     0
  1
80.000000
  0
DICTIONARYVAR
  5
406
102
{ACAD_REACTORS
330
403
102
}
330
403
100
DictionaryVariables
280
     0
  1
5.000000
  0
DICTIONARY
  5
40C
330
3D
100
AcDbDictionary
280
     1
  3
ACAD_XREC_ROUNDTRIP
360
40D
  0
DICTIONARY
  5
40A
330
3C
100
AcDbDictionary
280
     1
  3
ACAD_XREC_ROUNDTRIP
360
40B
  0
DICTIONARY
  5
40E
330
3E
100
AcDbDictionary
280
     1
  3
ACAD_XREC_ROUNDTRIP
360
40F
  0
XRECORD
  5
40D
102
{ACAD_REACTORS
330
40C
102
}
330
40C
100
AcDbXrecord
102
MATERIAL
148
0.0
149
0.0
149
0.0
 93
        0
 94
      127
282
     0
 72
     1
 77
     1
171
     1
175
     1
179
     1
273
     0
  0
XRECORD
  5
40B
102
{ACAD_REACTORS
330
40A
102
}
330
40A
100
AcDbXrecord
102
MATERIAL
148
0.0
149
0.0
149
0.0
 93
        0
 94
      127
282
     0
 72
     1
 77
     1
171
     1
175
     1
179
     1
273
     0
  0
XRECORD
  5
40F
102
{ACAD_REACTORS
330
40E
102
}
330
40E
100
AcDbXrecord
102
MATERIAL
148
0.0
149
0.0
149
0.0
 93
        0
 94
      127
282
     0
 72
     1
 77
     1
171
     1
175
     1
179
     1
273
     0
  0
ENDSEC
  0
EOF
