  0
SECTION
  2
HEADER
  9
$ACADVER
  1
AC1014
  9
$ACADMAINTVER
 70
     9
  9
$DWGCODEPAGE
  3
ANSI_932
  9
$INSBASE
 10
0.0
 20
0.0
 30
0.0
  9
$EXTMIN
 10
-0.6000000000000136
 20
9.100000000000001
 30
0.0
  9
$EXTMAX
 10
199.4
 20
289.1
 30
0.0
  9
$LIMMIN
 10
0.0
 20
0.0
  9
$LIMMAX
 10
210.0
 20
297.0
  9
$ORTHOMODE
 70
     0
  9
$REGENMODE
 70
     1
  9
$FILLMODE
 70
     1
  9
$QTEXTMODE
 70
     0
  9
$MIRRTEXT
 70
     1
  9
$DRAGMODE
 70
     2
  9
$LTSCALE
 40
1.0
  9
$OSMODE
 70
    37
  9
$ATTMODE
 70
     1
  9
$TEXTSIZE
 40
2.5
  9
$TRACEWID
 40
1.0
  9
$TEXTSTYLE
  7
STANDARD
  9
$CLAYER
  8
LAY-8
  9
$CELTYPE
  6
BYLAYER
  9
$CECOLOR
 62
   256
  9
$CELTSCALE
 40
1.0
  9
$DELOBJ
 70
     1
  9
$DISPSILH
 70
     0
  9
$DIMSCALE
 40
1.0
  9
$DIMASZ
 40
2.5
  9
$DIMEXO
 40
0.625
  9
$DIMDLI
 40
3.75
  9
$DIMRND
 40
0.0
  9
$DIMDLE
 40
0.0
  9
$DIMEXE
 40
1.25
  9
$DIMTP
 40
0.0
  9
$DIMTM
 40
0.0
  9
$DIMTXT
 40
2.5
  9
$DIMCEN
 40
2.5
  9
$DIMTSZ
 40
0.0
  9
$DIMTOL
 70
     0
  9
$DIMLIM
 70
     0
  9
$DIMTIH
 70
     0
  9
$DIMTOH
 70
     0
  9
$DIMSE1
 70
     0
  9
$DIMSE2
 70
     0
  9
$DIMTAD
 70
     1
  9
$DIMZIN
 70
     8
  9
$DIMBLK
  1

  9
$DIMASO
 70
     1
  9
$DIMSHO
 70
     1
  9
$DIMPOST
  1

  9
$DIMAPOST
  1

  9
$DIMALT
 70
     0
  9
$DIMALTD
 70
     3
  9
$DIMALTF
 40
0.03937007874016
  9
$DIMLFAC
 40
1.0
  9
$DIMTOFL
 70
     1
  9
$DIMTVP
 40
0.0
  9
$DIMTIX
 70
     0
  9
$DIMSOXD
 70
     0
  9
$DIMSAH
 70
     0
  9
$DIMBLK1
  1

  9
$DIMBLK2
  1

  9
$DIMSTYLE
  2
ISO-25
  9
$DIMCLRD
 70
     0
  9
$DIMCLRE
 70
     0
  9
$DIMCLRT
 70
     0
  9
$DIMTFAC
 40
1.0
  9
$DIMGAP
 40
0.625
  9
$DIMJUST
 70
     0
  9
$DIMSD1
 70
     0
  9
$DIMSD2
 70
     0
  9
$DIMTOLJ
 70
     0
  9
$DIMTZIN
 70
     8
  9
$DIMALTZ
 70
     0
  9
$DIMALTTZ
 70
     0
  9
$DIMFIT
 70
     3
  9
$DIMUPT
 70
     0
  9
$DIMUNIT
 70
     2
  9
$DIMDEC
 70
     2
  9
$DIMTDEC
 70
     2
  9
$DIMALTU
 70
     2
  9
$DIMALTTD
 70
     3
  9
$DIMTXSTY
  7
STANDARD
  9
$DIMAUNIT
 70
     0
  9
$LUNITS
 70
     2
  9
$LUPREC
 70
     4
  9
$SKETCHINC
 40
1.0
  9
$FILLETRAD
 40
10.0
  9
$AUNITS
 70
     0
  9
$AUPREC
 70
     0
  9
$MENU
  1
.
  9
$ELEVATION
 40
0.0
  9
$PELEVATION
 40
0.0
  9
$THICKNESS
 40
0.0
  9
$LIMCHECK
 70
     0
  9
$CHAMFERA
 40
10.0
  9
$CHAMFERB
 40
10.0
  9
$CHAMFERC
 40
20.0
  9
$CHAMFERD
 40
0.0
  9
$SKPOLY
 70
     0
  9
$TDCREATE
 40
2459843.424291053
  9
$TDUPDATE
 40
2459843.424291319
  9
$TDINDWG
 40
0.0000000116
  9
$TDUSRTIMER
 40
0.0000000116
  9
$USRTIMER
 70
     1
  9
$ANGBASE
 50
0.0
  9
$ANGDIR
 70
     0
  9
$PDMODE
 70
     0
  9
$PDSIZE
 40
0.0
  9
$PLINEWID
 40
0.0
  9
$COORDS
 70
     1
  9
$SPLFRAME
 70
     0
  9
$SPLINETYPE
 70
     6
  9
$SPLINESEGS
 70
     8
  9
$ATTDIA
 70
     0
  9
$ATTREQ
 70
     1
  9
$HANDLING
 70
     1
  9
$HANDSEED
  5
745
  9
$SURFTAB1
 70
     6
  9
$SURFTAB2
 70
     6
  9
$SURFTYPE
 70
     6
  9
$SURFU
 70
     6
  9
$SURFV
 70
     6
  9
$UCSNAME
  2

  9
$UCSORG
 10
0.0
 20
0.0
 30
0.0
  9
$UCSXDIR
 10
1.0
 20
0.0
 30
0.0
  9
$UCSYDIR
 10
0.0
 20
1.0
 30
0.0
  9
$PUCSNAME
  2

  9
$PUCSORG
 10
0.0
 20
0.0
 30
0.0
  9
$PUCSXDIR
 10
1.0
 20
0.0
 30
0.0
  9
$PUCSYDIR
 10
0.0
 20
1.0
 30
0.0
  9
$USERI1
 70
     0
  9
$USERI2
 70
     0
  9
$USERI3
 70
     0
  9
$USERI4
 70
     0
  9
$USERI5
 70
     0
  9
$USERR1
 40
0.0
  9
$USERR2
 40
0.0
  9
$USERR3
 40
0.0
  9
$USERR4
 40
0.0
  9
$USERR5
 40
0.0
  9
$WORLDVIEW
 70
     1
  9
$SHADEDGE
 70
     3
  9
$SHADEDIF
 70
    70
  9
$TILEMODE
 70
     1
  9
$MAXACTVP
 70
    64
  9
$PINSBASE
 10
0.0
 20
0.0
 30
0.0
  9
$PLIMCHECK
 70
     0
  9
$PEXTMIN
 10
1.000000000000000E+20
 20
1.000000000000000E+20
 30
1.000000000000000E+20
  9
$PEXTMAX
 10
-1.000000000000000E+20
 20
-1.000000000000000E+20
 30
-1.000000000000000E+20
  9
$PLIMMIN
 10
0.0
 20
0.0
  9
$PLIMMAX
 10
420.0
 20
297.0
  9
$UNITMODE
 70
     0
  9
$VISRETAIN
 70
     1
  9
$PLINEGEN
 70
     0
  9
$PSLTSCALE
 70
     1
  9
$TREEDEPTH
 70
  3020
  9
$PICKSTYLE
 70
     1
  9
$CMLSTYLE
  2
STANDARD
  9
$CMLJUST
 70
     0
  9
$CMLSCALE
 40
20.0
  9
$PROXYGRAPHICS
 70
     1
  9
$MEASUREMENT
 70
     1
  0
ENDSEC
  0
SECTION
  2
CLASSES
  0
CLASS
  1
ACDBDICTIONARYWDFLT
  2
AcDbDictionaryWithDefault
  3
ObjectDBX Classes
 90
        0
280
     0
281
     0
  0
CLASS
  1
VISUALSTYLE
  2
AcDbVisualStyle
  3
ObjectDBX Classes
 90
     4095
280
     0
281
     0
  0
CLASS
  1
MATERIAL
  2
AcDbMaterial
  3
ObjectDBX Classes
 90
     1153
280
     0
281
     0
  0
CLASS
  1
SUN
  2
AcDbSun
  3
SCENEOE
 90
     1024
280
     0
281
     0
  0
CLASS
  1
DICTIONARYVAR
  2
AcDbDictionaryVar
  3
ObjectDBX Classes
 90
        0
280
     0
281
     0
  0
CLASS
  1
XRECORD
  2
AcDbXrecord
  3
AutoCAD 2000
 90
        0
280
     0
281
     0
  0
CLASS
  1
LWPOLYLINE
  2
AcDbPolyline
  3
AutoCAD 2000
 90
        0
280
     0
281
     1
  0
CLASS
  1
HATCH
  2
AcDbHatch
  3
AutoCAD 2000
 90
        0
280
     0
281
     1
  0
CLASS
  1
ACDBPLACEHOLDER
  2
AcDbPlaceHolder
  3
ObjectDBX Classes
 90
        0
280
     0
281
     0
  0
CLASS
  1
LAYOUT
  2
AcDbLayout
  3
ObjectDBX Classes
 90
        0
280
     0
281
     0
  0
ENDSEC
  0
SECTION
  2
TABLES
  0
TABLE
  2
VPORT
  5
8
330
0
100
AcDbSymbolTable
 70
     1
  0
VPORT
  5
29
330
8
100
AcDbSymbolTableRecord
100
AcDbViewportTableRecord
  2
*ACTIVE
 70
     0
 10
0.0
 20
0.0
 11
1.0
 21
1.0
 12
994.0
 22
1491.0
 13
0.0
 23
0.0
 14
10.0
 24
10.0
 15
10.0
 25
10.0
 16
0.0
 26
0.0
 36
1.0
 17
0.0
 27
0.0
 37
0.0
 40
2800.0
 41
0.7142857142857144
 42
50.0
 43
0.0
 44
0.0
 50
0.0
 51
0.0
 71
     0
 72
  1000
 73
     1
 74
     3
 75
     0
 76
     0
 77
     0
 78
     0
  0
ENDTAB
  0
TABLE
  2
LTYPE
  5
5
330
0
100
AcDbSymbolTable
 70
     7
  0
LTYPE
  5
14
330
5
100
AcDbSymbolTableRecord
100
AcDbLinetypeTableRecord
  2
BYBLOCK
 70
     0
  3

 72
    65
 73
     0
 40
0.0
  0
LTYPE
  5
15
330
5
100
AcDbSymbolTableRecord
100
AcDbLinetypeTableRecord
  2
BYLAYER
 70
     0
  3

 72
    65
 73
     0
 40
0.0
  0
LTYPE
  5
16
330
5
100
AcDbSymbolTableRecord
100
AcDbLinetypeTableRecord
  2
CONTINUOUS
 70
     0
  3
Solid line
 72
    65
 73
     0
 40
0.0
  0
LTYPE
  5
40
330
5
100
AcDbSymbolTableRecord
100
AcDbLinetypeTableRecord
  2
EXLTYPE1
 70
     0
  3
破線
 72
    65
 73
     2
 40
3.0
 49
2.0
 74
     0
 49
-1.0
 74
     0
  0
LTYPE
  5
41
330
5
100
AcDbSymbolTableRecord
100
AcDbLinetypeTableRecord
  2
EXLTYPE2
 70
     0
  3
点線
 72
    65
 73
     2
 40
2.0
 49
1.0
 74
     0
 49
-1.0
 74
     0
  0
LTYPE
  5
42
330
5
100
AcDbSymbolTableRecord
100
AcDbLinetypeTableRecord
  2
EXLTYPE3
 70
     0
  3
一点鎖線
 72
    65
 73
     4
 40
10.0
 49
7.0
 74
     0
 49
-1.0
 74
     0
 49
1.0
 74
     0
 49
-1.0
 74
     0
  0
LTYPE
  5
43
330
5
100
AcDbSymbolTableRecord
100
AcDbLinetypeTableRecord
  2
EXLTYPE4
 70
     0
  3
二点鎖線
 72
    65
 73
     6
 40
12.0
 49
7.0
 74
     0
 49
-1.0
 74
     0
 49
1.0
 74
     0
 49
-1.0
 74
     0
 49
1.0
 74
     0
 49
-1.0
 74
     0
  0
LTYPE
  5
44
330
5
100
AcDbSymbolTableRecord
100
AcDbLinetypeTableRecord
  2
EXLTYPE5
 70
     0
  3
三点鎖線
 72
    65
 73
     8
 40
37.0
 49
30.0
 74
     0
 49
-1.0
 74
     0
 49
1.0
 74
     0
 49
-1.0
 74
     0
 49
1.0
 74
     0
 49
-1.0
 74
     0
 49
1.0
 74
     0
 49
-1.0
 74
     0
  0
LTYPE
  5
45
330
5
100
AcDbSymbolTableRecord
100
AcDbLinetypeTableRecord
  2
EXLTYPE6
 70
     0
  3
四点鎖線
 72
    65
 73
    10
 40
39.0
 49
30.0
 74
     0
 49
-1.0
 74
     0
 49
1.0
 74
     0
 49
-1.0
 74
     0
 49
1.0
 74
     0
 49
-1.0
 74
     0
 49
1.0
 74
     0
 49
-1.0
 74
     0
 49
1.0
 74
     0
 49
-1.0
 74
     0
  0
ENDTAB
  0
TABLE
  2
LAYER
  5
2
330
0
100
AcDbSymbolTable
 70
     9
  0
LAYER
  5
10
330
2
100
AcDbSymbolTableRecord
100
AcDbLayerTableRecord
  2
0
 70
     0
 62
     7
  6
CONTINUOUS
  0
LAYER
  5
48
330
2
100
AcDbSymbolTableRecord
100
AcDbLayerTableRecord
  2
ストール
 70
     0
 62
     7
  6
CONTINUOUS
  0
LAYER
  5
49
330
2
100
AcDbSymbolTableRecord
100
AcDbLayerTableRecord
  2
水栓
 70
     0
 62
     7
  6
CONTINUOUS
  0
LAYER
  5
4A
330
2
100
AcDbSymbolTableRecord
100
AcDbLayerTableRecord
  2
トラップ
 70
     0
 62
     7
  6
CONTINUOUS
  0
LAYER
  5
4B
330
2
100
AcDbSymbolTableRecord
100
AcDbLayerTableRecord
  2
部品
 70
     0
 62
     7
  6
CONTINUOUS
  0
LAYER
  5
4C
330
2
100
AcDbSymbolTableRecord
100
AcDbLayerTableRecord
  2
寸法
 70
     0
 62
     7
  6
CONTINUOUS
  0
LAYER
  5
4D
330
2
100
AcDbSymbolTableRecord
100
AcDbLayerTableRecord
  2
器具明細
 70
     0
 62
     7
  6
CONTINUOUS
  0
LAYER
  5
4E
330
2
100
AcDbSymbolTableRecord
100
AcDbLayerTableRecord
  2
LAY-8
 70
     0
 62
     7
  6
CONTINUOUS
  0
LAYER
  5
57B
330
2
100
AcDbSymbolTableRecord
100
AcDbLayerTableRecord
  2
DEFPOINTS
 70
     0
 62
     7
  6
CONTINUOUS
  0
ENDTAB
  0
TABLE
  2
STYLE
  5
3
330
0
100
AcDbSymbolTable
 70
     5
  0
STYLE
  5
11
330
3
100
AcDbSymbolTableRecord
100
AcDbTextStyleTableRecord
  2
STANDARD
 70
     0
 40
0.0
 41
1.0
 50
0.0
 71
     0
 42
2.5
  3
monotxt
  4
extfont
  0
STYLE
  5
46
330
3
100
AcDbSymbolTableRecord
100
AcDbTextStyleTableRecord
  2
EXCADSTD
 70
     0
 40
0.0
 41
1.0
 50
0.0
 71
     0
 42
0.2
  3
monotxt
  4
extfont
  0
STYLE
  5
47
330
3
100
AcDbSymbolTableRecord
100
AcDbTextStyleTableRecord
  2
EXCADVERT
 70
     4
 40
0.0
 41
1.0
 50
0.0
 71
     0
 42
0.286885
  3
monotxt
  4
extfont
  0
STYLE
  5
579
330
3
100
AcDbSymbolTableRecord
100
AcDbTextStyleTableRecord
  2
EXCADDIM1
 70
     0
 40
0.0
 41
0.84
 50
0.0
 71
     0
 42
0.2
  3
monotxt
  4
extfont
  0
STYLE
  5
65F
330
3
100
AcDbSymbolTableRecord
100
AcDbTextStyleTableRecord
  2
EXCADTTF1
 70
     0
 40
0.0
 41
1.0
 50
0.0
 71
     0
 42
0.2
  3
MSGOTHIC.TTC
  4

1001
ACAD
1000
MS Gothic
1071
    32817
  0
ENDTAB
  0
TABLE
  2
VIEW
  5
6
330
0
100
AcDbSymbolTable
 70
     0
  0
ENDTAB
  0
TABLE
  2
UCS
  5
7
330
0
100
AcDbSymbolTable
 70
     0
  0
ENDTAB
  0
TABLE
  2
APPID
  5
9
330
0
100
AcDbSymbolTable
 70
     1
  0
APPID
  5
12
330
9
100
AcDbSymbolTableRecord
100
AcDbRegAppTableRecord
  2
ACAD
 70
     0
  0
ENDTAB
  0
TABLE
  2
DIMSTYLE
  5
A
330
0
100
AcDbSymbolTable
 70
     1
  0
DIMSTYLE
105
27
102
{ACAD_REACTORS
330
57A
330
588
330
594
330
5A1
330
5AE
330
5BD
330
5C8
330
5D5
330
5E1
330
5EE
330
5FD
330
60D
330
61D
330
62A
330
638
330
644
330
652
102
}
330
A
100
AcDbSymbolTableRecord
100
AcDbDimStyleTableRecord
  2
ISO-25
 70
     0
  3

  4

  5

  6

  7

 40
1.0
 41
2.5
 42
0.625
 43
3.75
 44
1.25
 45
0.0
 46
0.0
 47
0.0
 48
0.0
140
2.5
141
2.5
142
0.0
143
0.03937007874016
144
1.0
145
0.0
146
1.0
147
0.625
 71
     0
 72
     0
 73
     0
 74
     0
 75
     0
 76
     0
 77
     1
 78
     8
170
     0
171
     3
172
     1
173
     0
174
     0
175
     0
176
     0
177
     0
178
     0
270
     2
271
     2
272
     2
273
     2
274
     3
340
11
275
     0
280
     0
281
     0
282
     0
283
     0
284
     8
285
     0
286
     0
287
     5
288
     0
  0
ENDTAB
  0
TABLE
  2
BLOCK_RECORD
  5
1
330
0
100
AcDbSymbolTable
 70
    32
  0
BLOCK_RECORD
  5
1F
330
1
100
AcDbSymbolTableRecord
100
AcDbBlockTableRecord
  2
*MODEL_SPACE
  0
BLOCK_RECORD
  5
1B
330
1
100
AcDbSymbolTableRecord
100
AcDbBlockTableRecord
  2
*PAPER_SPACE
  0
BLOCK_RECORD
  5
4F
330
1
100
AcDbSymbolTableRecord
100
AcDbBlockTableRecord
  2
EX_NORM
  0
BLOCK_RECORD
  5
52
330
1
100
AcDbSymbolTableRecord
100
AcDbBlockTableRecord
  2
EX_BNORM
  0
BLOCK_RECORD
  5
55
330
1
100
AcDbSymbolTableRecord
100
AcDbBlockTableRecord
  2
EX_BCIR
  0
BLOCK_RECORD
  5
58
330
1
100
AcDbSymbolTableRecord
100
AcDbBlockTableRecord
  2
EX_RCIVIL
  0
BLOCK_RECORD
  5
5B
330
1
100
AcDbSymbolTableRecord
100
AcDbBlockTableRecord
  2
EX_SLANT
  0
BLOCK_RECORD
  5
5E
330
1
100
AcDbSymbolTableRecord
100
AcDbBlockTableRecord
  2
EX_NONE
  0
BLOCK_RECORD
  5
61
330
1
100
AcDbSymbolTableRecord
100
AcDbBlockTableRecord
  2
EX_CIVIL
  0
BLOCK_RECORD
  5
64
330
1
100
AcDbSymbolTableRecord
100
AcDbBlockTableRecord
  2
EX_WCIR
  0
BLOCK_RECORD
  5
67
330
1
100
AcDbSymbolTableRecord
100
AcDbBlockTableRecord
  2
EX_WCIR2
  0
BLOCK_RECORD
  5
6A
330
1
100
AcDbSymbolTableRecord
100
AcDbBlockTableRecord
  2
EX_WNORM
  0
BLOCK_RECORD
  5
6D
330
1
100
AcDbSymbolTableRecord
100
AcDbBlockTableRecord
  2
EX_NNORM
  0
BLOCK_RECORD
  5
70
330
1
100
AcDbSymbolTableRecord
100
AcDbBlockTableRecord
  2
EX_BBOX
  0
BLOCK_RECORD
  5
73
330
1
100
AcDbSymbolTableRecord
100
AcDbBlockTableRecord
  2
EX_WBOX
  0
BLOCK_RECORD
  5
76
330
1
100
AcDbSymbolTableRecord
100
AcDbBlockTableRecord
  2
EX_INTEGRAL
  0
BLOCK_RECORD
  5
57C
330
1
100
AcDbSymbolTableRecord
100
AcDbBlockTableRecord
  2
*D15
  0
BLOCK_RECORD
  5
589
330
1
100
AcDbSymbolTableRecord
100
AcDbBlockTableRecord
  2
*D16
  0
BLOCK_RECORD
  5
595
330
1
100
AcDbSymbolTableRecord
100
AcDbBlockTableRecord
  2
*D17
  0
BLOCK_RECORD
  5
5A2
330
1
100
AcDbSymbolTableRecord
100
AcDbBlockTableRecord
  2
*D18
  0
BLOCK_RECORD
  5
5AF
330
1
100
AcDbSymbolTableRecord
100
AcDbBlockTableRecord
  2
*D19
  0
BLOCK_RECORD
  5
5BE
330
1
100
AcDbSymbolTableRecord
100
AcDbBlockTableRecord
  2
*D20
  0
BLOCK_RECORD
  5
5C9
330
1
100
AcDbSymbolTableRecord
100
AcDbBlockTableRecord
  2
*D21
  0
BLOCK_RECORD
  5
5D6
330
1
100
AcDbSymbolTableRecord
100
AcDbBlockTableRecord
  2
*D22
  0
BLOCK_RECORD
  5
5E2
330
1
100
AcDbSymbolTableRecord
100
AcDbBlockTableRecord
  2
*D23
  0
BLOCK_RECORD
  5
5EF
330
1
100
AcDbSymbolTableRecord
100
AcDbBlockTableRecord
  2
*D24
  0
BLOCK_RECORD
  5
5FE
330
1
100
AcDbSymbolTableRecord
100
AcDbBlockTableRecord
  2
*D25
  0
BLOCK_RECORD
  5
60E
330
1
100
AcDbSymbolTableRecord
100
AcDbBlockTableRecord
  2
*D26
  0
BLOCK_RECORD
  5
61E
330
1
100
AcDbSymbolTableRecord
100
AcDbBlockTableRecord
  2
*D27
  0
BLOCK_RECORD
  5
62B
330
1
100
AcDbSymbolTableRecord
100
AcDbBlockTableRecord
  2
*D28
  0
BLOCK_RECORD
  5
639
330
1
100
AcDbSymbolTableRecord
100
AcDbBlockTableRecord
  2
*D29
  0
BLOCK_RECORD
  5
645
330
1
100
AcDbSymbolTableRecord
100
AcDbBlockTableRecord
  2
*D30
  0
BLOCK_RECORD
  5
653
330
1
100
AcDbSymbolTableRecord
100
AcDbBlockTableRecord
  2
*D31
  0
ENDTAB
  0
ENDSEC
  0
SECTION
  2
BLOCKS
  0
BLOCK
  5
20
330
1F
100
AcDbEntity
  8
0
100
AcDbBlockBegin
  2
*MODEL_SPACE
 70
     0
 10
0.0
 20
0.0
 30
0.0
  3
*MODEL_SPACE
  1

  0
ENDBLK
  5
21
330
1F
100
AcDbEntity
  8
0
100
AcDbBlockEnd
  0
BLOCK
  5
1C
330
1B
100
AcDbEntity
 67
     1
  8
0
100
AcDbBlockBegin
  2
*PAPER_SPACE
 70
     0
 10
0.0
 20
0.0
 30
0.0
  3
*PAPER_SPACE
  1

  0
ENDBLK
  5
1D
330
1B
100
AcDbEntity
 67
     1
  8
0
100
AcDbBlockEnd
  0
BLOCK
  5
50
330
4F
100
AcDbEntity
  8
0
100
AcDbBlockBegin
  2
EX_NORM
 70
     0
 10
0.0
 20
0.0
 30
0.0
  3
EX_NORM
  1

  0
LINE
  5
79
330
4F
100
AcDbEntity
  8
0
  6
CONTINUOUS
 62
     0
100
AcDbLine
 10
0.0
 20
0.0
 30
0.0
 11
-1.0
 21
0.0
 31
0.0
  0
LINE
  5
7A
330
4F
100
AcDbEntity
  8
0
  6
CONTINUOUS
 62
     0
100
AcDbLine
 10
0.0
 20
0.0
 30
0.0
 11
-1.0
 21
0.166666667
 31
0.0
  0
LINE
  5
7B
330
4F
100
AcDbEntity
  8
0
  6
CONTINUOUS
 62
     0
100
AcDbLine
 10
0.0
 20
0.0
 30
0.0
 11
-1.0
 21
-0.166666667
 31
0.0
  0
ENDBLK
  5
51
330
4F
100
AcDbEntity
  8
0
100
AcDbBlockEnd
  0
BLOCK
  5
53
330
52
100
AcDbEntity
  8
0
100
AcDbBlockBegin
  2
EX_BNORM
 70
     0
 10
0.0
 20
0.0
 30
0.0
  3
EX_BNORM
  1

  0
LINE
  5
7C
330
52
100
AcDbEntity
  8
0
  6
CONTINUOUS
 62
     0
100
AcDbLine
 10
0.0
 20
0.0
 30
0.0
 11
-1.0
 21
0.0
 31
0.0
  0
LINE
  5
7D
330
52
100
AcDbEntity
  8
0
  6
CONTINUOUS
 62
     0
100
AcDbLine
 10
0.0
 20
0.0
 30
0.0
 11
-1.0
 21
0.166666667
 31
0.0
  0
LINE
  5
7E
330
52
100
AcDbEntity
  8
0
  6
CONTINUOUS
 62
     0
100
AcDbLine
 10
0.0
 20
0.0
 30
0.0
 11
-1.0
 21
-0.166666667
 31
0.0
  0
LINE
  5
7F
330
52
100
AcDbEntity
  8
0
  6
CONTINUOUS
 62
     0
100
AcDbLine
 10
0.0
 20
0.0
 30
0.0
 11
-1.0
 21
0.083333333
 31
0.0
  0
LINE
  5
80
330
52
100
AcDbEntity
  8
0
  6
CONTINUOUS
 62
     0
100
AcDbLine
 10
0.0
 20
0.0
 30
0.0
 11
-1.0
 21
-0.083333333
 31
0.0
  0
LINE
  5
81
330
52
100
AcDbEntity
  8
0
  6
CONTINUOUS
 62
     0
100
AcDbLine
 10
-1.0
 20
0.166666667
 30
0.0
 11
-1.0
 21
-0.166666667
 31
0.0
  0
ENDBLK
  5
54
330
52
100
AcDbEntity
  8
0
100
AcDbBlockEnd
  0
BLOCK
  5
56
330
55
100
AcDbEntity
  8
0
100
AcDbBlockBegin
  2
EX_BCIR
 70
     0
 10
0.0
 20
0.0
 30
0.0
  3
EX_BCIR
  1

  0
LINE
  5
82
330
55
100
AcDbEntity
  8
0
  6
CONTINUOUS
 62
     0
100
AcDbLine
 10
0.0
 20
0.0
 30
0.0
 11
-1.0
 21
0.0
 31
0.0
  0
CIRCLE
  5
83
330
55
100
AcDbEntity
  8
0
  6
CONTINUOUS
 62
     0
100
AcDbCircle
 10
0.0
 20
0.0
 30
0.0
 40
0.5
  0
CIRCLE
  5
84
330
55
100
AcDbEntity
  8
0
  6
CONTINUOUS
 62
     0
100
AcDbCircle
 10
0.0
 20
0.0
 30
0.0
 40
0.25
  0
ENDBLK
  5
57
330
55
100
AcDbEntity
  8
0
100
AcDbBlockEnd
  0
BLOCK
  5
59
330
58
100
AcDbEntity
  8
0
100
AcDbBlockBegin
  2
EX_RCIVIL
 70
     0
 10
0.0
 20
0.0
 30
0.0
  3
EX_RCIVIL
  1

  0
LINE
  5
85
330
58
100
AcDbEntity
  8
0
  6
CONTINUOUS
 62
     0
100
AcDbLine
 10
0.0
 20
0.0
 30
0.0
 11
-1.0
 21
0.0
 31
0.0
  0
LINE
  5
86
330
58
100
AcDbEntity
  8
0
  6
CONTINUOUS
 62
     0
100
AcDbLine
 10
-1.0
 20
-0.25
 30
0.0
 11
0.0
 21
-0.25
 31
0.0
  0
LINE
  5
87
330
58
100
AcDbEntity
  8
0
  6
CONTINUOUS
 62
     0
100
AcDbLine
 10
-1.0
 20
-0.125
 30
0.0
 11
0.0
 21
-0.125
 31
0.0
  0
ENDBLK
  5
5A
330
58
100
AcDbEntity
  8
0
100
AcDbBlockEnd
  0
BLOCK
  5
5C
330
5B
100
AcDbEntity
  8
0
100
AcDbBlockBegin
  2
EX_SLANT
 70
     0
 10
0.0
 20
0.0
 30
0.0
  3
EX_SLANT
  1

  0
LINE
  5
88
330
5B
100
AcDbEntity
  8
0
  6
CONTINUOUS
 62
     0
100
AcDbLine
 10
0.0
 20
0.0
 30
0.0
 11
-1.0
 21
0.0
 31
0.0
  0
LINE
  5
89
330
5B
100
AcDbEntity
  8
0
  6
CONTINUOUS
 62
     0
100
AcDbLine
 10
0.707106781
 20
0.707106781
 30
0.0
 11
-0.707106781
 21
-0.707106781
 31
0.0
  0
ENDBLK
  5
5D
330
5B
100
AcDbEntity
  8
0
100
AcDbBlockEnd
  0
BLOCK
  5
5F
330
5E
100
AcDbEntity
  8
0
100
AcDbBlockBegin
  2
EX_NONE
 70
     0
 10
0.0
 20
0.0
 30
0.0
  3
EX_NONE
  1

  0
LINE
  5
8A
330
5E
100
AcDbEntity
  8
0
  6
CONTINUOUS
 62
     0
100
AcDbLine
 10
0.0
 20
0.0
 30
0.0
 11
-1.0
 21
0.0
 31
0.0
  0
ENDBLK
  5
60
330
5E
100
AcDbEntity
  8
0
100
AcDbBlockEnd
  0
BLOCK
  5
62
330
61
100
AcDbEntity
  8
0
100
AcDbBlockBegin
  2
EX_CIVIL
 70
     0
 10
0.0
 20
0.0
 30
0.0
  3
EX_CIVIL
  1

  0
LINE
  5
8B
330
61
100
AcDbEntity
  8
0
  6
CONTINUOUS
 62
     0
100
AcDbLine
 10
0.0
 20
0.0
 30
0.0
 11
-1.0
 21
0.0
 31
0.0
  0
LINE
  5
8C
330
61
100
AcDbEntity
  8
0
  6
CONTINUOUS
 62
     0
100
AcDbLine
 10
-1.0
 20
0.25
 30
0.0
 11
0.0
 21
0.25
 31
0.0
  0
LINE
  5
8D
330
61
100
AcDbEntity
  8
0
  6
CONTINUOUS
 62
     0
100
AcDbLine
 10
-1.0
 20
0.125
 30
0.0
 11
0.0
 21
0.125
 31
0.0
  0
ENDBLK
  5
63
330
61
100
AcDbEntity
  8
0
100
AcDbBlockEnd
  0
BLOCK
  5
65
330
64
100
AcDbEntity
  8
0
100
AcDbBlockBegin
  2
EX_WCIR
 70
     0
 10
0.0
 20
0.0
 30
0.0
  3
EX_WCIR
  1

  0
LINE
  5
8E
330
64
100
AcDbEntity
  8
0
  6
CONTINUOUS
 62
     0
100
AcDbLine
 10
0.0
 20
0.0
 30
0.0
 11
-1.0
 21
0.0
 31
0.0
  0
CIRCLE
  5
8F
330
64
100
AcDbEntity
  8
0
  6
CONTINUOUS
 62
     0
100
AcDbCircle
 10
0.0
 20
0.0
 30
0.0
 40
0.5
  0
ENDBLK
  5
66
330
64
100
AcDbEntity
  8
0
100
AcDbBlockEnd
  0
BLOCK
  5
68
330
67
100
AcDbEntity
  8
0
100
AcDbBlockBegin
  2
EX_WCIR2
 70
     0
 10
0.0
 20
0.0
 30
0.0
  3
EX_WCIR2
  1

  0
LINE
  5
90
330
67
100
AcDbEntity
  8
0
  6
CONTINUOUS
 62
     0
100
AcDbLine
 10
-0.5
 20
0.0
 30
0.0
 11
-1.0
 21
0.0
 31
0.0
  0
CIRCLE
  5
91
330
67
100
AcDbEntity
  8
0
  6
CONTINUOUS
 62
     0
100
AcDbCircle
 10
0.0
 20
0.0
 30
0.0
 40
0.5
  0
ENDBLK
  5
69
330
67
100
AcDbEntity
  8
0
100
AcDbBlockEnd
  0
BLOCK
  5
6B
330
6A
100
AcDbEntity
  8
0
100
AcDbBlockBegin
  2
EX_WNORM
 70
     0
 10
0.0
 20
0.0
 30
0.0
  3
EX_WNORM
  1

  0
LINE
  5
92
330
6A
100
AcDbEntity
  8
0
  6
CONTINUOUS
 62
     0
100
AcDbLine
 10
-1.0
 20
0.0
 30
0.0
 11
-1.0
 21
0.0
 31
0.0
  0
LINE
  5
93
330
6A
100
AcDbEntity
  8
0
  6
CONTINUOUS
 62
     0
100
AcDbLine
 10
0.0
 20
0.0
 30
0.0
 11
-1.0
 21
0.166666667
 31
0.0
  0
LINE
  5
94
330
6A
100
AcDbEntity
  8
0
  6
CONTINUOUS
 62
     0
100
AcDbLine
 10
0.0
 20
0.0
 30
0.0
 11
-1.0
 21
-0.166666667
 31
0.0
  0
LINE
  5
95
330
6A
100
AcDbEntity
  8
0
  6
CONTINUOUS
 62
     0
100
AcDbLine
 10
-1.0
 20
0.166666667
 30
0.0
 11
-1.0
 21
-0.166666667
 31
0.0
  0
ENDBLK
  5
6C
330
6A
100
AcDbEntity
  8
0
100
AcDbBlockEnd
  0
BLOCK
  5
6E
330
6D
100
AcDbEntity
  8
0
100
AcDbBlockBegin
  2
EX_NNORM
 70
     0
 10
0.0
 20
0.0
 30
0.0
  3
EX_NNORM
  1

  0
LINE
  5
96
330
6D
100
AcDbEntity
  8
0
  6
CONTINUOUS
 62
     0
100
AcDbLine
 10
0.0
 20
0.0
 30
0.0
 11
-1.0
 21
0.0
 31
0.0
  0
LINE
  5
97
330
6D
100
AcDbEntity
  8
0
  6
CONTINUOUS
 62
     0
100
AcDbLine
 10
0.0
 20
0.0
 30
0.0
 11
-1.0
 21
0.166666667
 31
0.0
  0
LINE
  5
98
330
6D
100
AcDbEntity
  8
0
  6
CONTINUOUS
 62
     0
100
AcDbLine
 10
0.0
 20
0.0
 30
0.0
 11
-1.0
 21
-0.166666667
 31
0.0
  0
LINE
  5
99
330
6D
100
AcDbEntity
  8
0
  6
CONTINUOUS
 62
     0
100
AcDbLine
 10
-1.0
 20
0.166666667
 30
0.0
 11
-1.0
 21
-0.166666667
 31
0.0
  0
ENDBLK
  5
6F
330
6D
100
AcDbEntity
  8
0
100
AcDbBlockEnd
  0
BLOCK
  5
71
330
70
100
AcDbEntity
  8
0
100
AcDbBlockBegin
  2
EX_BBOX
 70
     0
 10
0.0
 20
0.0
 30
0.0
  3
EX_BBOX
  1

  0
LINE
  5
9A
330
70
100
AcDbEntity
  8
0
  6
CONTINUOUS
 62
     0
100
AcDbLine
 10
0.0
 20
0.0
 30
0.0
 11
-1.0
 21
0.0
 31
0.0
  0
LINE
  5
9B
330
70
100
AcDbEntity
  8
0
  6
CONTINUOUS
 62
     0
100
AcDbLine
 10
-0.5
 20
0.5
 30
0.0
 11
0.5
 21
0.5
 31
0.0
  0
LINE
  5
9C
330
70
100
AcDbEntity
  8
0
  6
CONTINUOUS
 62
     0
100
AcDbLine
 10
0.5
 20
0.5
 30
0.0
 11
0.5
 21
-0.5
 31
0.0
  0
LINE
  5
9D
330
70
100
AcDbEntity
  8
0
  6
CONTINUOUS
 62
     0
100
AcDbLine
 10
0.5
 20
-0.5
 30
0.0
 11
-0.5
 21
-0.5
 31
0.0
  0
LINE
  5
9E
330
70
100
AcDbEntity
  8
0
  6
CONTINUOUS
 62
     0
100
AcDbLine
 10
-0.5
 20
-0.5
 30
0.0
 11
-0.5
 21
0.5
 31
0.0
  0
LINE
  5
9F
330
70
100
AcDbEntity
  8
0
  6
CONTINUOUS
 62
     0
100
AcDbLine
 10
-0.25
 20
0.25
 30
0.0
 11
0.25
 21
0.25
 31
0.0
  0
LINE
  5
A0
330
70
100
AcDbEntity
  8
0
  6
CONTINUOUS
 62
     0
100
AcDbLine
 10
0.25
 20
0.25
 30
0.0
 11
0.25
 21
-0.25
 31
0.0
  0
LINE
  5
A1
330
70
100
AcDbEntity
  8
0
  6
CONTINUOUS
 62
     0
100
AcDbLine
 10
0.25
 20
-0.25
 30
0.0
 11
-0.25
 21
-0.25
 31
0.0
  0
LINE
  5
A2
330
70
100
AcDbEntity
  8
0
  6
CONTINUOUS
 62
     0
100
AcDbLine
 10
-0.25
 20
-0.25
 30
0.0
 11
-0.25
 21
0.25
 31
0.0
  0
ENDBLK
  5
72
330
70
100
AcDbEntity
  8
0
100
AcDbBlockEnd
  0
BLOCK
  5
74
330
73
100
AcDbEntity
  8
0
100
AcDbBlockBegin
  2
EX_WBOX
 70
     0
 10
0.0
 20
0.0
 30
0.0
  3
EX_WBOX
  1

  0
LINE
  5
A3
330
73
100
AcDbEntity
  8
0
  6
CONTINUOUS
 62
     0
100
AcDbLine
 10
-0.5
 20
0.0
 30
0.0
 11
-1.0
 21
0.0
 31
0.0
  0
LINE
  5
A4
330
73
100
AcDbEntity
  8
0
  6
CONTINUOUS
 62
     0
100
AcDbLine
 10
-0.5
 20
0.5
 30
0.0
 11
0.5
 21
0.5
 31
0.0
  0
LINE
  5
A5
330
73
100
AcDbEntity
  8
0
  6
CONTINUOUS
 62
     0
100
AcDbLine
 10
0.5
 20
0.5
 30
0.0
 11
0.5
 21
-0.5
 31
0.0
  0
LINE
  5
A6
330
73
100
AcDbEntity
  8
0
  6
CONTINUOUS
 62
     0
100
AcDbLine
 10
0.5
 20
-0.5
 30
0.0
 11
-0.5
 21
-0.5
 31
0.0
  0
LINE
  5
A7
330
73
100
AcDbEntity
  8
0
  6
CONTINUOUS
 62
     0
100
AcDbLine
 10
-0.5
 20
-0.5
 30
0.0
 11
-0.5
 21
0.5
 31
0.0
  0
ENDBLK
  5
75
330
73
100
AcDbEntity
  8
0
100
AcDbBlockEnd
  0
BLOCK
  5
77
330
76
100
AcDbEntity
  8
0
100
AcDbBlockBegin
  2
EX_INTEGRAL
 70
     0
 10
0.0
 20
0.0
 30
0.0
  3
EX_INTEGRAL
  1

  0
LINE
  5
A8
330
76
100
AcDbEntity
  8
0
  6
CONTINUOUS
 62
     0
100
AcDbLine
 10
0.0
 20
0.0
 30
0.0
 11
-1.0
 21
0.0
 31
0.0
  0
ARC
  5
A9
330
76
100
AcDbEntity
  8
0
  6
CONTINUOUS
 62
     0
100
AcDbCircle
 10
0.542115
 20
0.164992
 30
0.0
 40
0.56667
100
AcDbArc
 50
73.07249033629006
 51
196.9275130221199
  0
ARC
  5
AA
330
76
100
AcDbEntity
  8
0
  6
CONTINUOUS
 62
     0
100
AcDbCircle
 10
-0.542115
 20
-0.164992
 30
0.0
 40
0.56667
100
AcDbArc
 50
253.0724869220464
 51
16.9275130559125
  0
ENDBLK
  5
78
330
76
100
AcDbEntity
  8
0
100
AcDbBlockEnd
  0
BLOCK
  5
57D
330
57C
100
AcDbEntity
  8
0
100
AcDbBlockBegin
  2
*D15
 70
     1
 10
0.0
 20
0.0
 30
0.0
  3
*D15
  1

  0
LINE
  5
57F
330
57C
100
AcDbEntity
  8
寸法
  6
CONTINUOUS
 62
     3
100
AcDbLine
 10
535.64497637921
 20
2370.148693187109
 30
0.0
 11
535.64497637921
 21
2000.0
 31
0.0
  0
LINE
  5
580
330
57C
100
AcDbEntity
  8
寸法
  6
CONTINUOUS
 62
     3
100
AcDbLine
 10
860.30234136917
 20
2368.029689827009
 30
0.0
 11
860.30234136917
 21
2000.0
 31
0.0
  0
LINE
  5
581
330
57C
100
AcDbEntity
  8
寸法
  6
CONTINUOUS
 62
     3
100
AcDbLine
 10
565.64497637921
 20
2010.0
 30
0.0
 11
830.30234136917
 21
2010.0
 31
0.0
  0
INSERT
  5
582
330
57C
100
AcDbEntity
  8
寸法
 62
     3
100
AcDbBlockReference
  2
EX_NORM
 10
535.64497637921
 20
2010.0
 30
0.0
 41
30.0
 42
30.0
 43
30.0
 50
180.0
  0
INSERT
  5
583
330
57C
100
AcDbEntity
  8
寸法
 62
     3
100
AcDbBlockReference
  2
EX_NORM
 10
860.30234136917
 20
2010.0
 30
0.0
 41
30.0
 42
30.0
 43
30.0
  0
MTEXT
  5
584
330
57C
100
AcDbEntity
  8
寸法
 62
     2
100
AcDbMText
 10
697.9736588741902
 20
2033.499999940395
 30
0.0
 40
40.0
 41
0.0
 71
     5
 72
     1
  1
325
  7
EXCADDIM1
  0
POINT
  5
585
330
57C
100
AcDbEntity
  8
DEFPOINTS
 62
     0
100
AcDbPoint
 10
535.64497637921
 20
2377.1486930679
 30
0.0
  0
POINT
  5
586
330
57C
100
AcDbEntity
  8
DEFPOINTS
 62
     0
100
AcDbPoint
 10
860.30234136917
 20
2375.0296897078
 30
0.0
  0
POINT
  5
587
330
57C
100
AcDbEntity
  8
DEFPOINTS
 62
     0
100
AcDbPoint
 10
860.30234136917
 20
2010.0
 30
0.0
  0
ENDBLK
  5
57E
330
57C
100
AcDbEntity
  8
0
100
AcDbBlockEnd
  0
BLOCK
  5
58A
330
589
100
AcDbEntity
  8
0
100
AcDbBlockBegin
  2
*D16
 70
     1
 10
0.0
 20
0.0
 30
0.0
  3
*D16
  1

  0
LINE
  5
58C
330
589
100
AcDbEntity
  8
寸法
  6
CONTINUOUS
 62
     3
100
AcDbLine
 10
704.9999235807907
 20
2121.0000000005
 30
0.0
 11
1046.0
 21
2121.0000000005
 31
0.0
  0
LINE
  5
58D
330
589
100
AcDbEntity
  8
寸法
  6
CONTINUOUS
 62
     3
100
AcDbLine
 10
1036.0
 20
2366.0
 30
0.0
 11
1036.0
 21
2151.0000000005
 31
0.0
  0
INSERT
  5
58E
330
589
100
AcDbEntity
  8
寸法
 62
     3
100
AcDbBlockReference
  2
EX_NORM
 10
1036.0
 20
2396.0
 30
0.0
 41
30.0
 42
30.0
 43
30.0
 50
90.0
  0
INSERT
  5
58F
330
589
100
AcDbEntity
  8
寸法
 62
     3
100
AcDbBlockReference
  2
EX_NORM
 10
1036.0
 20
2121.0000000005
 30
0.0
 41
30.0
 42
30.0
 43
30.0
 50
270.0
  0
MTEXT
  5
590
330
589
100
AcDbEntity
  8
寸法
 62
     2
100
AcDbMText
 10
1012.500000059605
 20
2258.50000000025
 30
0.0
 40
40.0
 41
0.0
 71
     5
 72
     1
  1
275
  7
EXCADDIM1
 11
0.0
 21
1.0
 31
0.0
  0
POINT
  5
591
330
589
100
AcDbEntity
  8
DEFPOINTS
 62
     0
100
AcDbPoint
 10
892.9999237
 20
2396.0
 30
0.0
  0
POINT
  5
592
330
589
100
AcDbEntity
  8
DEFPOINTS
 62
     0
100
AcDbPoint
 10
697.9999237
 20
2121.0000000005
 30
0.0
  0
POINT
  5
593
330
589
100
AcDbEntity
  8
DEFPOINTS
 62
     0
100
AcDbPoint
 10
1036.0
 20
2121.0000000005
 30
0.0
  0
ENDBLK
  5
58B
330
589
100
AcDbEntity
  8
0
100
AcDbBlockEnd
  0
BLOCK
  5
596
330
595
100
AcDbEntity
  8
0
100
AcDbBlockBegin
  2
*D17
 70
     1
 10
0.0
 20
0.0
 30
0.0
  3
*D17
  1

  0
LINE
  5
598
330
595
100
AcDbEntity
  8
寸法
  6
CONTINUOUS
 62
     3
100
AcDbLine
 10
520.4999237
 20
2442.4
 30
0.0
 11
520.4999237
 21
2498.0
 31
0.0
  0
LINE
  5
599
330
595
100
AcDbEntity
  8
寸法
  6
CONTINUOUS
 62
     3
100
AcDbLine
 10
875.4999237
 20
2442.4
 30
0.0
 11
875.4999237
 21
2498.0
 31
0.0
  0
LINE
  5
59A
330
595
100
AcDbEntity
  8
寸法
  6
CONTINUOUS
 62
     3
100
AcDbLine
 10
550.4999237
 20
2488.0
 30
0.0
 11
845.4999237
 21
2488.0
 31
0.0
  0
INSERT
  5
59B
330
595
100
AcDbEntity
  8
寸法
 62
     3
100
AcDbBlockReference
  2
EX_NORM
 10
520.4999237
 20
2488.0
 30
0.0
 41
30.0
 42
30.0
 43
30.0
 50
180.0
  0
INSERT
  5
59C
330
595
100
AcDbEntity
  8
寸法
 62
     3
100
AcDbBlockReference
  2
EX_NORM
 10
875.4999237
 20
2488.0
 30
0.0
 41
30.0
 42
30.0
 43
30.0
  0
MTEXT
  5
59D
330
595
100
AcDbEntity
  8
寸法
 62
     2
100
AcDbMText
 10
697.9999237000001
 20
2511.499999940395
 30
0.0
 40
40.0
 41
0.0
 71
     5
 72
     1
  1
355
  7
EXCADDIM1
  0
POINT
  5
59E
330
595
100
AcDbEntity
  8
DEFPOINTS
 62
     0
100
AcDbPoint
 10
520.4999237
 20
2404.7
 30
0.0
  0
POINT
  5
59F
330
595
100
AcDbEntity
  8
DEFPOINTS
 62
     0
100
AcDbPoint
 10
875.4999237
 20
2404.7
 30
0.0
  0
POINT
  5
5A0
330
595
100
AcDbEntity
  8
DEFPOINTS
 62
     0
100
AcDbPoint
 10
875.4999237
 20
2488.0
 30
0.0
  0
ENDBLK
  5
597
330
595
100
AcDbEntity
  8
0
100
AcDbBlockEnd
  0
BLOCK
  5
5A3
330
5A2
100
AcDbEntity
  8
0
100
AcDbBlockBegin
  2
*D18
 70
     1
 10
0.0
 20
0.0
 30
0.0
  3
*D18
  1

  0
LINE
  5
5A5
330
5A2
100
AcDbEntity
  8
寸法
  6
CONTINUOUS
 62
     3
100
AcDbLine
 10
502.9999237
 20
2402.999999880791
 30
0.0
 11
502.9999237
 21
2559.0
 31
0.0
  0
LINE
  5
5A6
330
5A2
100
AcDbEntity
  8
寸法
  6
CONTINUOUS
 62
     3
100
AcDbLine
 10
892.9999237
 20
2402.999999880791
 30
0.0
 11
892.9999237
 21
2559.0
 31
0.0
  0
LINE
  5
5A7
330
5A2
100
AcDbEntity
  8
寸法
  6
CONTINUOUS
 62
     3
100
AcDbLine
 10
532.9999237
 20
2549.0
 30
0.0
 11
862.9999237
 21
2549.0
 31
0.0
  0
INSERT
  5
5A8
330
5A2
100
AcDbEntity
  8
寸法
 62
     3
100
AcDbBlockReference
  2
EX_NORM
 10
502.9999237
 20
2549.0
 30
0.0
 41
30.0
 42
30.0
 43
30.0
 50
180.0
  0
INSERT
  5
5A9
330
5A2
100
AcDbEntity
  8
寸法
 62
     3
100
AcDbBlockReference
  2
EX_NORM
 10
892.9999237
 20
2549.0
 30
0.0
 41
30.0
 42
30.0
 43
30.0
  0
MTEXT
  5
5AA
330
5A2
100
AcDbEntity
  8
寸法
 62
     2
100
AcDbMText
 10
697.9999237000001
 20
2572.499999940395
 30
0.0
 40
40.0
 41
0.0
 71
     5
 72
     1
  1
390
  7
EXCADDIM1
  0
POINT
  5
5AB
330
5A2
100
AcDbEntity
  8
DEFPOINTS
 62
     0
100
AcDbPoint
 10
502.9999237
 20
2396.0
 30
0.0
  0
POINT
  5
5AC
330
5A2
100
AcDbEntity
  8
DEFPOINTS
 62
     0
100
AcDbPoint
 10
892.9999237
 20
2396.0
 30
0.0
  0
POINT
  5
5AD
330
5A2
100
AcDbEntity
  8
DEFPOINTS
 62
     0
100
AcDbPoint
 10
892.9999237
 20
2549.0
 30
0.0
  0
ENDBLK
  5
5A4
330
5A2
100
AcDbEntity
  8
0
100
AcDbBlockEnd
  0
BLOCK
  5
5B0
330
5AF
100
AcDbEntity
  8
0
100
AcDbBlockBegin
  2
*D19
 70
     1
 10
0.0
 20
0.0
 30
0.0
  3
*D19
  1

  0
LINE
  5
5B2
330
5AF
100
AcDbEntity
  8
寸法
  6
CONTINUOUS
 62
     3
100
AcDbLine
 10
1735.0
 20
487.0000001192093
 30
0.0
 11
1735.0
 21
466.0
 31
0.0
  0
LINE
  5
5B3
330
5AF
100
AcDbEntity
  8
寸法
  6
CONTINUOUS
 62
     3
100
AcDbLine
 10
1790.0
 20
558.0000001192093
 30
0.0
 11
1790.0
 21
466.0
 31
0.0
  0
LINE
  5
5B4
330
5AF
100
AcDbEntity
  8
寸法
  6
CONTINUOUS
 62
     3
100
AcDbLine
 10
1735.0
 20
476.0
 30
0.0
 11
1790.0
 21
476.0
 31
0.0
  0
LINE
  5
5B5
330
5AF
100
AcDbEntity
  8
寸法
  6
CONTINUOUS
 62
     3
100
AcDbLine
 10
1705.0
 20
476.0
 30
0.0
 11
1675.0
 21
476.0
 31
0.0
  0
LINE
  5
5B6
330
5AF
100
AcDbEntity
  8
寸法
  6
CONTINUOUS
 62
     3
100
AcDbLine
 10
1820.0
 20
476.0
 30
0.0
 11
1850.0
 21
476.0
 31
0.0
  0
INSERT
  5
5B7
330
5AF
100
AcDbEntity
  8
寸法
 62
     3
100
AcDbBlockReference
  2
EX_NORM
 10
1735.0
 20
476.0
 30
0.0
 41
30.0
 42
30.0
 43
30.0
  0
INSERT
  5
5B8
330
5AF
100
AcDbEntity
  8
寸法
 62
     3
100
AcDbBlockReference
  2
EX_NORM
 10
1790.0
 20
476.0
 30
0.0
 41
30.0
 42
30.0
 43
30.0
 50
180.0
  0
MTEXT
  5
5B9
330
5AF
100
AcDbEntity
  8
寸法
 62
     2
100
AcDbMText
 10
1855.0
 20
499.4999999403954
 30
0.0
 40
40.0
 41
0.0
 71
     5
 72
     1
  1
55
  7
EXCADDIM1
  0
POINT
  5
5BA
330
5AF
100
AcDbEntity
  8
DEFPOINTS
 62
     0
100
AcDbPoint
 10
1735.0
 20
494.0000000000001
 30
0.0
  0
POINT
  5
5BB
330
5AF
100
AcDbEntity
  8
DEFPOINTS
 62
     0
100
AcDbPoint
 10
1790.0
 20
565.0
 30
0.0
  0
POINT
  5
5BC
330
5AF
100
AcDbEntity
  8
DEFPOINTS
 62
     0
100
AcDbPoint
 10
1790.0
 20
476.0
 30
0.0
  0
ENDBLK
  5
5B1
330
5AF
100
AcDbEntity
  8
0
100
AcDbBlockEnd
  0
BLOCK
  5
5BF
330
5BE
100
AcDbEntity
  8
0
100
AcDbBlockBegin
  2
*D20
 70
     1
 10
0.0
 20
0.0
 30
0.0
  3
*D20
  1

  0
LINE
  5
5C1
330
5BE
100
AcDbEntity
  8
寸法
  6
CONTINUOUS
 62
     3
100
AcDbLine
 10
1373.0
 20
595.4908660526901
 30
0.0
 11
1373.0
 21
1060.0
 31
0.0
  0
INSERT
  5
5C2
330
5BE
100
AcDbEntity
  8
寸法
 62
     3
100
AcDbBlockReference
  2
EX_NORM
 10
1373.0
 20
565.4908660526901
 30
0.0
 41
30.0
 42
30.0
 43
30.0
 50
270.0
  0
INSERT
  5
5C3
330
5BE
100
AcDbEntity
  8
寸法
 62
     3
100
AcDbBlockReference
  2
EX_NORM
 10
1373.0
 20
1090.0
 30
0.0
 41
30.0
 42
30.0
 43
30.0
 50
90.0
  0
MTEXT
  5
5C4
330
5BE
100
AcDbEntity
  8
寸法
 62
     2
100
AcDbMText
 10
1349.500000059605
 20
827.7454330263449
 30
0.0
 40
40.0
 41
0.0
 71
     5
 72
     1
  1
525
  7
EXCADDIM1
 11
0.0
 21
1.0
 31
0.0
  0
POINT
  5
5C5
330
5BE
100
AcDbEntity
  8
DEFPOINTS
 62
     0
100
AcDbPoint
 10
1692.4982889861
 20
565.49086605269
 30
0.0
  0
POINT
  5
5C6
330
5BE
100
AcDbEntity
  8
DEFPOINTS
 62
     0
100
AcDbPoint
 10
1515.0
 20
1090.0
 30
0.0
  0
POINT
  5
5C7
330
5BE
100
AcDbEntity
  8
DEFPOINTS
 62
     0
100
AcDbPoint
 10
1373.0
 20
1090.0
 30
0.0
  0
ENDBLK
  5
5C0
330
5BE
100
AcDbEntity
  8
0
100
AcDbBlockEnd
  0
BLOCK
  5
5CA
330
5C9
100
AcDbEntity
  8
0
100
AcDbBlockBegin
  2
*D21
 70
     1
 10
0.0
 20
0.0
 30
0.0
  3
*D21
  1

  0
LINE
  5
5CC
330
5C9
100
AcDbEntity
  8
寸法
  6
CONTINUOUS
 62
     3
100
AcDbLine
 10
1783.000000119209
 20
1375.0
 30
0.0
 11
1362.999999999999
 21
1375.0
 31
0.0
  0
LINE
  5
5CD
330
5C9
100
AcDbEntity
  8
寸法
  6
CONTINUOUS
 62
     3
100
AcDbLine
 10
1449.000000119209
 20
1090.0
 30
0.0
 11
1362.999999999999
 21
1090.0
 31
0.0
  0
LINE
  5
5CE
330
5C9
100
AcDbEntity
  8
寸法
  6
CONTINUOUS
 62
     3
100
AcDbLine
 10
1373.0
 20
1345.0
 30
0.0
 11
1373.0
 21
1120.0
 31
0.0
  0
INSERT
  5
5CF
330
5C9
100
AcDbEntity
  8
寸法
 62
     3
100
AcDbBlockReference
  2
EX_NORM
 10
1373.0
 20
1375.0
 30
0.0
 41
30.0
 42
30.0
 43
30.0
 50
90.0
  0
INSERT
  5
5D0
330
5C9
100
AcDbEntity
  8
寸法
 62
     3
100
AcDbBlockReference
  2
EX_NORM
 10
1373.0
 20
1090.0
 30
0.0
 41
30.0
 42
30.0
 43
30.0
 50
270.0
  0
MTEXT
  5
5D1
330
5C9
100
AcDbEntity
  8
寸法
 62
     2
100
AcDbMText
 10
1349.500000059604
 20
1232.5
 30
0.0
 40
40.0
 41
0.0
 71
     5
 72
     1
  1
285
  7
EXCADDIM1
 11
0.0
 21
1.0
 31
0.0
  0
POINT
  5
5D2
330
5C9
100
AcDbEntity
  8
DEFPOINTS
 62
     0
100
AcDbPoint
 10
1790.0
 20
1375.0
 30
0.0
  0
POINT
  5
5D3
330
5C9
100
AcDbEntity
  8
DEFPOINTS
 62
     0
100
AcDbPoint
 10
1456.0
 20
1090.0
 30
0.0
  0
POINT
  5
5D4
330
5C9
100
AcDbEntity
  8
DEFPOINTS
 62
     0
100
AcDbPoint
 10
1373.0
 20
1090.0
 30
0.0
  0
ENDBLK
  5
5CB
330
5C9
100
AcDbEntity
  8
0
100
AcDbBlockEnd
  0
BLOCK
  5
5D7
330
5D6
100
AcDbEntity
  8
0
100
AcDbBlockBegin
  2
*D22
 70
     1
 10
0.0
 20
0.0
 30
0.0
  3
*D22
  1

  0
LINE
  5
5D9
330
5D6
100
AcDbEntity
  8
寸法
  6
CONTINUOUS
 62
     3
100
AcDbLine
 10
727.4164644020607
 20
935.0
 30
0.0
 11
1046.0
 21
935.0
 31
0.0
  0
LINE
  5
5DA
330
5D6
100
AcDbEntity
  8
寸法
  6
CONTINUOUS
 62
     3
100
AcDbLine
 10
1036.0
 20
965.0
 30
0.0
 11
1036.0
 21
1345.0
 31
0.0
  0
INSERT
  5
5DB
330
5D6
100
AcDbEntity
  8
寸法
 62
     3
100
AcDbBlockReference
  2
EX_NORM
 10
1036.0
 20
935.0
 30
0.0
 41
30.0
 42
30.0
 43
30.0
 50
270.0
  0
INSERT
  5
5DC
330
5D6
100
AcDbEntity
  8
寸法
 62
     3
100
AcDbBlockReference
  2
EX_NORM
 10
1036.0
 20
1375.0
 30
0.0
 41
30.0
 42
30.0
 43
30.0
 50
90.0
  0
MTEXT
  5
5DD
330
5D6
100
AcDbEntity
  8
寸法
 62
     2
100
AcDbMText
 10
1012.500000059605
 20
1155.0
 30
0.0
 40
40.0
 41
0.0
 71
     5
 72
     1
  1
440
  7
EXCADDIM1
 11
0.0
 21
1.0
 31
0.0
  0
POINT
  5
5DE
330
5D6
100
AcDbEntity
  8
DEFPOINTS
 62
     0
100
AcDbPoint
 10
720.41646452127
 20
935.0
 30
0.0
  0
POINT
  5
5DF
330
5D6
100
AcDbEntity
  8
DEFPOINTS
 62
     0
100
AcDbPoint
 10
718.0002737286
 20
1375.0
 30
0.0
  0
POINT
  5
5E0
330
5D6
100
AcDbEntity
  8
DEFPOINTS
 62
     0
100
AcDbPoint
 10
1036.0
 20
1375.0
 30
0.0
  0
ENDBLK
  5
5D8
330
5D6
100
AcDbEntity
  8
0
100
AcDbBlockEnd
  0
BLOCK
  5
5E3
330
5E2
100
AcDbEntity
  8
0
100
AcDbBlockBegin
  2
*D23
 70
     1
 10
0.0
 20
0.0
 30
0.0
  3
*D23
  1

  0
LINE
  5
5E5
330
5E2
100
AcDbEntity
  8
寸法
  6
CONTINUOUS
 62
     3
100
AcDbLine
 10
725.0002736093907
 20
1375.0
 30
0.0
 11
1046.0
 21
1375.0
 31
0.0
  0
LINE
  5
5E6
330
5E2
100
AcDbEntity
  8
寸法
  6
CONTINUOUS
 62
     3
100
AcDbLine
 10
738.4999998807907
 20
1550.0
 30
0.0
 11
1046.0
 21
1550.0
 31
0.0
  0
LINE
  5
5E7
330
5E2
100
AcDbEntity
  8
寸法
  6
CONTINUOUS
 62
     3
100
AcDbLine
 10
1036.0
 20
1405.0
 30
0.0
 11
1036.0
 21
1520.0
 31
0.0
  0
INSERT
  5
5E8
330
5E2
100
AcDbEntity
  8
寸法
 62
     3
100
AcDbBlockReference
  2
EX_NORM
 10
1036.0
 20
1375.0
 30
0.0
 41
30.0
 42
30.0
 43
30.0
 50
270.0
  0
INSERT
  5
5E9
330
5E2
100
AcDbEntity
  8
寸法
 62
     3
100
AcDbBlockReference
  2
EX_NORM
 10
1036.0
 20
1550.0
 30
0.0
 41
30.0
 42
30.0
 43
30.0
 50
90.0
  0
MTEXT
  5
5EA
330
5E2
100
AcDbEntity
  8
寸法
 62
     2
100
AcDbMText
 10
1012.500000059605
 20
1462.5
 30
0.0
 40
40.0
 41
0.0
 71
     5
 72
     1
  1
175
  7
EXCADDIM1
 11
0.0
 21
1.0
 31
0.0
  0
POINT
  5
5EB
330
5E2
100
AcDbEntity
  8
DEFPOINTS
 62
     0
100
AcDbPoint
 10
718.0002737286
 20
1375.0
 30
0.0
  0
POINT
  5
5EC
330
5E2
100
AcDbEntity
  8
DEFPOINTS
 62
     0
100
AcDbPoint
 10
731.5
 20
1550.0
 30
0.0
  0
POINT
  5
5ED
330
5E2
100
AcDbEntity
  8
DEFPOINTS
 62
     0
100
AcDbPoint
 10
1036.0
 20
1550.0
 30
0.0
  0
ENDBLK
  5
5E4
330
5E2
100
AcDbEntity
  8
0
100
AcDbBlockEnd
  0
BLOCK
  5
5F0
330
5EF
100
AcDbEntity
  8
0
100
AcDbBlockBegin
  2
*D24
 70
     1
 10
0.0
 20
0.0
 30
0.0
  3
*D24
  1

  0
LINE
  5
5F2
330
5EF
100
AcDbEntity
  8
寸法
  6
CONTINUOUS
 62
     3
100
AcDbLine
 10
744.9999998307906
 20
975.0
 30
0.0
 11
905.0
 21
975.0
 31
0.0
  0
LINE
  5
5F3
330
5EF
100
AcDbEntity
  8
寸法
  6
CONTINUOUS
 62
     3
100
AcDbLine
 10
727.4164644020607
 20
935.0
 30
0.0
 11
905.0
 21
935.0
 31
0.0
  0
LINE
  5
5F4
330
5EF
100
AcDbEntity
  8
寸法
  6
CONTINUOUS
 62
     3
100
AcDbLine
 10
895.0
 20
975.0
 30
0.0
 11
895.0
 21
935.0
 31
0.0
  0
LINE
  5
5F5
330
5EF
100
AcDbEntity
  8
寸法
  6
CONTINUOUS
 62
     3
100
AcDbLine
 10
895.0
 20
1005.0
 30
0.0
 11
895.0
 21
1035.0
 31
0.0
  0
LINE
  5
5F6
330
5EF
100
AcDbEntity
  8
寸法
  6
CONTINUOUS
 62
     3
100
AcDbLine
 10
895.0
 20
905.0
 30
0.0
 11
895.0
 21
875.0
 31
0.0
  0
INSERT
  5
5F7
330
5EF
100
AcDbEntity
  8
寸法
 62
     3
100
AcDbBlockReference
  2
EX_NORM
 10
895.0
 20
975.0
 30
0.0
 41
30.0
 42
30.0
 43
30.0
 50
270.0
  0
INSERT
  5
5F8
330
5EF
100
AcDbEntity
  8
寸法
 62
     3
100
AcDbBlockReference
  2
EX_NORM
 10
895.0
 20
935.0
 30
0.0
 41
30.0
 42
30.0
 43
30.0
 50
90.0
  0
MTEXT
  5
5F9
330
5EF
100
AcDbEntity
  8
寸法
 62
     2
100
AcDbMText
 10
871.5000000596048
 20
869.9999999999998
 30
0.0
 40
40.0
 41
0.0
 71
     5
 72
     1
  1
40
  7
EXCADDIM1
 11
0.0
 21
1.0
 31
0.0
  0
POINT
  5
5FA
330
5EF
100
AcDbEntity
  8
DEFPOINTS
 62
     0
100
AcDbPoint
 10
737.9999999499998
 20
975.0
 30
0.0
  0
POINT
  5
5FB
330
5EF
100
AcDbEntity
  8
DEFPOINTS
 62
     0
100
AcDbPoint
 10
720.41646452127
 20
935.0
 30
0.0
  0
POINT
  5
5FC
330
5EF
100
AcDbEntity
  8
DEFPOINTS
 62
     0
100
AcDbPoint
 10
895.0
 20
935.0
 30
0.0
  0
ENDBLK
  5
5F1
330
5EF
100
AcDbEntity
  8
0
100
AcDbBlockEnd
  0
BLOCK
  5
5FF
330
5FE
100
AcDbEntity
  8
0
100
AcDbBlockBegin
  2
*D25
 70
     1
 10
0.0
 20
0.0
 30
0.0
  3
*D25
  1

  0
LINE
  5
601
330
5FE
100
AcDbEntity
  8
寸法
  6
CONTINUOUS
 62
     3
100
AcDbLine
 10
676.49999995
 20
517.4741823192093
 30
0.0
 11
676.49999995
 21
466.0
 31
0.0
  0
LINE
  5
602
330
5FE
100
AcDbEntity
  8
寸法
  6
CONTINUOUS
 62
     3
100
AcDbLine
 10
719.49999995
 20
517.4741823192093
 30
0.0
 11
719.49999995
 21
466.0
 31
0.0
  0
LINE
  5
603
330
5FE
100
AcDbEntity
  8
寸法
  6
CONTINUOUS
 62
     3
100
AcDbLine
 10
676.49999995
 20
476.0
 30
0.0
 11
719.49999995
 21
476.0
 31
0.0
  0
LINE
  5
604
330
5FE
100
AcDbEntity
  8
寸法
  6
CONTINUOUS
 62
     3
100
AcDbLine
 10
646.49999995
 20
476.0
 30
0.0
 11
616.49999995
 21
476.0
 31
0.0
  0
LINE
  5
605
330
5FE
100
AcDbEntity
  8
寸法
  6
CONTINUOUS
 62
     3
100
AcDbLine
 10
749.49999995
 20
476.0
 30
0.0
 11
779.49999995
 21
476.0
 31
0.0
  0
INSERT
  5
606
330
5FE
100
AcDbEntity
  8
寸法
 62
     3
100
AcDbBlockReference
  2
EX_NORM
 10
676.49999995
 20
476.0
 30
0.0
 41
30.0
 42
30.0
 43
30.0
  0
INSERT
  5
607
330
5FE
100
AcDbEntity
  8
寸法
 62
     3
100
AcDbBlockReference
  2
EX_NORM
 10
719.49999995
 20
476.0
 30
0.0
 41
30.0
 42
30.0
 43
30.0
 50
180.0
  0
MTEXT
  5
608
330
5FE
100
AcDbEntity
  8
寸法
 62
     2
100
AcDbMText
 10
784.4999999500001
 20
499.4999999403954
 30
0.0
 40
40.0
 41
0.0
 71
     5
 72
     1
  1
43
  7
EXCADDIM1
  0
POINT
  5
609
330
5FE
100
AcDbEntity
  8
DEFPOINTS
 62
     0
100
AcDbPoint
 10
676.49999995
 20
524.4741822
 30
0.0
  0
POINT
  5
60A
330
5FE
100
AcDbEntity
  8
DEFPOINTS
 62
     0
100
AcDbPoint
 10
719.49999995
 20
524.4741822
 30
0.0
  0
POINT
  5
60B
330
5FE
100
AcDbEntity
  8
DEFPOINTS
 62
     0
100
AcDbPoint
 10
719.49999995
 20
476.0
 30
0.0
  0
ENDBLK
  5
600
330
5FE
100
AcDbEntity
  8
0
100
AcDbBlockEnd
  0
BLOCK
  5
60F
330
60E
100
AcDbEntity
  8
0
100
AcDbBlockBegin
  2
*D26
 70
     1
 10
0.0
 20
0.0
 30
0.0
  3
*D26
  1

  0
LINE
  5
611
330
60E
100
AcDbEntity
  8
寸法
  6
CONTINUOUS
 62
     3
100
AcDbLine
 10
1715.0
 20
1603.499999880791
 30
0.0
 11
1715.0
 21
1737.0
 31
0.0
  0
LINE
  5
612
330
60E
100
AcDbEntity
  8
寸法
  6
CONTINUOUS
 62
     3
100
AcDbLine
 10
1760.00015
 20
1727.0
 30
0.0
 11
1745.0
 21
1727.0
 31
0.0
  0
INSERT
  5
613
330
60E
100
AcDbEntity
  8
寸法
 62
     3
100
AcDbBlockReference
  2
EX_NORM
 10
1790.00015
 20
1727.0
 30
0.0
 41
30.0
 42
30.0
 43
30.0
  0
INSERT
  5
614
330
60E
100
AcDbEntity
  8
寸法
 62
     3
100
AcDbBlockReference
  2
EX_NORM
 10
1715.0
 20
1727.0
 30
0.0
 41
30.0
 42
30.0
 43
30.0
 50
180.0
  0
MTEXT
  5
615
330
60E
100
AcDbEntity
  8
寸法
 62
     2
100
AcDbMText
 10
1855.000150000001
 20
1750.499999940395
 30
0.0
 40
40.0
 41
0.0
 71
     5
 72
     1
  1
75
  7
EXCADDIM1
  0
POINT
  5
616
330
60E
100
AcDbEntity
  8
DEFPOINTS
 62
     0
100
AcDbPoint
 10
1790.00015
 20
1573.7499957069
 30
0.0
  0
POINT
  5
617
330
60E
100
AcDbEntity
  8
DEFPOINTS
 62
     0
100
AcDbPoint
 10
1715.0
 20
1596.5
 30
0.0
  0
POINT
  5
618
330
60E
100
AcDbEntity
  8
DEFPOINTS
 62
     0
100
AcDbPoint
 10
1715.0
 20
1727.0
 30
0.0
  0
ENDBLK
  5
610
330
60E
100
AcDbEntity
  8
0
100
AcDbBlockEnd
  0
BLOCK
  5
61F
330
61E
100
AcDbEntity
  8
0
100
AcDbBlockBegin
  2
*D27
 70
     1
 10
0.0
 20
0.0
 30
0.0
  3
*D27
  1

  0
LINE
  5
621
330
61E
100
AcDbEntity
  8
寸法
  6
CONTINUOUS
 62
     3
100
AcDbLine
 10
653.2361352596093
 20
975.0
 30
0.0
 11
542.0
 21
975.0
 31
0.0
  0
LINE
  5
622
330
61E
100
AcDbEntity
  8
寸法
  6
CONTINUOUS
 62
     3
100
AcDbLine
 10
669.5000000692092
 20
525.0000763
 30
0.0
 11
542.0
 21
525.0000763
 31
0.0
  0
LINE
  5
623
330
61E
100
AcDbEntity
  8
寸法
  6
CONTINUOUS
 62
     3
100
AcDbLine
 10
552.0
 20
945.0
 30
0.0
 11
552.0
 21
555.0000763
 31
0.0
  0
INSERT
  5
624
330
61E
100
AcDbEntity
  8
寸法
 62
     3
100
AcDbBlockReference
  2
EX_NORM
 10
552.0
 20
975.0
 30
0.0
 41
30.0
 42
30.0
 43
30.0
 50
90.0
  0
INSERT
  5
625
330
61E
100
AcDbEntity
  8
寸法
 62
     3
100
AcDbBlockReference
  2
EX_NORM
 10
552.0
 20
525.0000763
 30
0.0
 41
30.0
 42
30.0
 43
30.0
 50
270.0
  0
MTEXT
  5
626
330
61E
100
AcDbEntity
  8
寸法
 62
     2
100
AcDbMText
 10
528.5000000596048
 20
750.0000381499999
 30
0.0
 40
40.0
 41
0.0
 71
     5
 72
     1
  1
450
  7
EXCADDIM1
 11
0.0
 21
1.0
 31
0.0
  0
POINT
  5
627
330
61E
100
AcDbEntity
  8
DEFPOINTS
 62
     0
100
AcDbPoint
 10
660.2361351404
 20
975.0
 30
0.0
  0
POINT
  5
628
330
61E
100
AcDbEntity
  8
DEFPOINTS
 62
     0
100
AcDbPoint
 10
676.49999995
 20
525.0000763
 30
0.0
  0
POINT
  5
629
330
61E
100
AcDbEntity
  8
DEFPOINTS
 62
     0
100
AcDbPoint
 10
552.0
 20
525.0000763
 30
0.0
  0
ENDBLK
  5
620
330
61E
100
AcDbEntity
  8
0
100
AcDbBlockEnd
  0
BLOCK
  5
62C
330
62B
100
AcDbEntity
  8
0
100
AcDbBlockBegin
  2
*D28
 70
     1
 10
0.0
 20
0.0
 30
0.0
  3
*D28
  1

  0
LINE
  5
62E
330
62B
100
AcDbEntity
  8
寸法
  6
CONTINUOUS
 62
     3
100
AcDbLine
 10
1735.0
 20
1413.9
 30
0.0
 11
1735.0
 21
1418.1
 31
0.0
  0
LINE
  5
62F
330
62B
100
AcDbEntity
  8
寸法
  6
CONTINUOUS
 62
     3
100
AcDbLine
 10
1790.0
 20
1418.1
 30
0.0
 11
1735.0
 21
1418.1
 31
0.0
  0
LINE
  5
630
330
62B
100
AcDbEntity
  8
寸法
  6
CONTINUOUS
 62
     3
100
AcDbLine
 10
1820.0
 20
1418.1
 30
0.0
 11
1850.0
 21
1418.1
 31
0.0
  0
LINE
  5
631
330
62B
100
AcDbEntity
  8
寸法
  6
CONTINUOUS
 62
     3
100
AcDbLine
 10
1705.0
 20
1418.1
 30
0.0
 11
1675.0
 21
1418.1
 31
0.0
  0
INSERT
  5
632
330
62B
100
AcDbEntity
  8
寸法
 62
     3
100
AcDbBlockReference
  2
EX_NORM
 10
1790.0
 20
1418.1
 30
0.0
 41
30.0
 42
30.0
 43
30.0
 50
180.0
  0
INSERT
  5
633
330
62B
100
AcDbEntity
  8
寸法
 62
     3
100
AcDbBlockReference
  2
EX_NORM
 10
1735.0
 20
1418.1
 30
0.0
 41
30.0
 42
30.0
 43
30.0
  0
MTEXT
  5
634
330
62B
100
AcDbEntity
  8
寸法
 62
     2
100
AcDbMText
 10
1855.0
 20
1441.599999940395
 30
0.0
 40
40.0
 41
0.0
 71
     5
 72
     1
  1
55
  7
EXCADDIM1
  0
POINT
  5
635
330
62B
100
AcDbEntity
  8
DEFPOINTS
 62
     0
100
AcDbPoint
 10
1790.0
 20
1375.0
 30
0.0
  0
POINT
  5
636
330
62B
100
AcDbEntity
  8
DEFPOINTS
 62
     0
100
AcDbPoint
 10
1735.0
 20
1413.9
 30
0.0
  0
POINT
  5
637
330
62B
100
AcDbEntity
  8
DEFPOINTS
 62
     0
100
AcDbPoint
 10
1735.0
 20
1418.1
 30
0.0
  0
ENDBLK
  5
62D
330
62B
100
AcDbEntity
  8
0
100
AcDbBlockEnd
  0
BLOCK
  5
63A
330
639
100
AcDbEntity
  8
0
100
AcDbBlockBegin
  2
*D29
 70
     1
 10
0.0
 20
0.0
 30
0.0
  3
*D29
  1

  0
LINE
  5
63C
330
639
100
AcDbEntity
  8
寸法
  6
CONTINUOUS
 62
     3
100
AcDbLine
 10
507.0000001192093
 20
1190.0
 30
0.0
 11
425.0000000000002
 21
1190.0
 31
0.0
  0
LINE
  5
63D
330
639
100
AcDbEntity
  8
寸法
  6
CONTINUOUS
 62
     3
100
AcDbLine
 10
435.0000000000001
 20
595.0
 30
0.0
 11
435.0000000000002
 21
1160.0
 31
0.0
  0
INSERT
  5
63E
330
639
100
AcDbEntity
  8
寸法
 62
     3
100
AcDbBlockReference
  2
EX_NORM
 10
435.0000000000001
 20
565.0
 30
0.0
 41
30.0
 42
30.0
 43
30.0
 50
270.0
  0
INSERT
  5
63F
330
639
100
AcDbEntity
  8
寸法
 62
     3
100
AcDbBlockReference
  2
EX_NORM
 10
435.0000000000002
 20
1190.0
 30
0.0
 41
30.0
 42
30.0
 43
30.0
 50
90.0
  0
MTEXT
  5
640
330
639
100
AcDbEntity
  8
寸法
 62
     2
100
AcDbMText
 10
411.5000000596049
 20
877.5
 30
0.0
 40
40.0
 41
0.0
 71
     5
 72
     1
  1
625
  7
EXCADDIM1
 11
9.094947017729283E-17
 21
1.0
 31
0.0
  0
POINT
  5
641
330
639
100
AcDbEntity
  8
DEFPOINTS
 62
     0
100
AcDbPoint
 10
697.9999999999999
 20
565.0
 30
0.0
  0
POINT
  5
642
330
639
100
AcDbEntity
  8
DEFPOINTS
 62
     0
100
AcDbPoint
 10
514.0
 20
1190.0
 30
0.0
  0
POINT
  5
643
330
639
100
AcDbEntity
  8
DEFPOINTS
 62
     0
100
AcDbPoint
 10
435.0000000000002
 20
1190.0
 30
0.0
  0
ENDBLK
  5
63B
330
639
100
AcDbEntity
  8
0
100
AcDbBlockEnd
  0
BLOCK
  5
646
330
645
100
AcDbEntity
  8
0
100
AcDbBlockBegin
  2
*D30
 70
     1
 10
0.0
 20
0.0
 30
0.0
  3
*D30
  1

  0
LINE
  5
648
330
645
100
AcDbEntity
  8
寸法
  6
CONTINUOUS
 62
     3
100
AcDbLine
 10
507.0000001192093
 20
1227.0
 30
0.0
 11
425.0000000000001
 21
1227.0
 31
0.0
  0
LINE
  5
649
330
645
100
AcDbEntity
  8
寸法
  6
CONTINUOUS
 62
     3
100
AcDbLine
 10
435.0000000000001
 20
1227.0
 30
0.0
 11
435.0000000000001
 21
1190.0
 31
0.0
  0
LINE
  5
64A
330
645
100
AcDbEntity
  8
寸法
  6
CONTINUOUS
 62
     3
100
AcDbLine
 10
435.0000000000001
 20
1257.0
 30
0.0
 11
435.0000000000001
 21
1287.0
 31
0.0
  0
LINE
  5
64B
330
645
100
AcDbEntity
  8
寸法
  6
CONTINUOUS
 62
     3
100
AcDbLine
 10
435.0000000000001
 20
1160.0
 30
0.0
 11
435.0000000000001
 21
1130.0
 31
0.0
  0
INSERT
  5
64C
330
645
100
AcDbEntity
  8
寸法
 62
     3
100
AcDbBlockReference
  2
EX_NORM
 10
435.0000000000001
 20
1227.0
 30
0.0
 41
30.0
 42
30.0
 43
30.0
 50
270.0
  0
INSERT
  5
64D
330
645
100
AcDbEntity
  8
寸法
 62
     3
100
AcDbBlockReference
  2
EX_NORM
 10
435.0000000000001
 20
1190.0
 30
0.0
 41
30.0
 42
30.0
 43
30.0
 50
90.0
  0
MTEXT
  5
64E
330
645
100
AcDbEntity
  8
寸法
 62
     2
100
AcDbMText
 10
411.5000000596059
 20
1292.0
 30
0.0
 40
40.0
 41
0.0
 71
     5
 72
     1
  1
37
  7
EXCADDIM1
 11
0.0
 21
1.0
 31
0.0
  0
POINT
  5
64F
330
645
100
AcDbEntity
  8
DEFPOINTS
 62
     0
100
AcDbPoint
 10
514.0
 20
1227.0
 30
0.0
  0
POINT
  5
650
330
645
100
AcDbEntity
  8
DEFPOINTS
 62
     0
100
AcDbPoint
 10
511.1
 20
1190.0
 30
0.0
  0
POINT
  5
651
330
645
100
AcDbEntity
  8
DEFPOINTS
 62
     0
100
AcDbPoint
 10
435.0000000000001
 20
1190.0
 30
0.0
  0
ENDBLK
  5
647
330
645
100
AcDbEntity
  8
0
100
AcDbBlockEnd
  0
BLOCK
  5
654
330
653
100
AcDbEntity
  8
0
100
AcDbBlockBegin
  2
*D31
 70
     1
 10
0.0
 20
0.0
 30
0.0
  3
*D31
  1

  0
LINE
  5
656
330
653
100
AcDbEntity
  8
寸法
  6
CONTINUOUS
 62
     3
100
AcDbLine
 10
1036.0
 20
594.9999999999999
 30
0.0
 11
1036.0
 21
904.9999999999999
 31
0.0
  0
INSERT
  5
657
330
653
100
AcDbEntity
  8
寸法
 62
     3
100
AcDbBlockReference
  2
EX_NORM
 10
1036.0
 20
564.9999999999999
 30
0.0
 41
30.0
 42
30.0
 43
30.0
 50
270.0
  0
INSERT
  5
658
330
653
100
AcDbEntity
  8
寸法
 62
     3
100
AcDbBlockReference
  2
EX_NORM
 10
1036.0
 20
934.9999999999999
 30
0.0
 41
30.0
 42
30.0
 43
30.0
 50
90.0
  0
MTEXT
  5
659
330
653
100
AcDbEntity
  8
寸法
 62
     2
100
AcDbMText
 10
1012.500000059605
 20
749.9999999999998
 30
0.0
 40
40.0
 41
0.0
 71
     5
 72
     1
  1
370
  7
EXCADDIM1
 11
0.0
 21
1.0
 31
0.0
  0
POINT
  5
65A
330
653
100
AcDbEntity
  8
DEFPOINTS
 62
     0
100
AcDbPoint
 10
697.9999999999999
 20
565.0
 30
0.0
  0
POINT
  5
65B
330
653
100
AcDbEntity
  8
DEFPOINTS
 62
     0
100
AcDbPoint
 10
717.3999999999999
 20
935.0
 30
0.0
  0
POINT
  5
65C
330
653
100
AcDbEntity
  8
DEFPOINTS
 62
     0
100
AcDbPoint
 10
1036.0
 20
934.9999999999999
 30
0.0
  0
ENDBLK
  5
655
330
653
100
AcDbEntity
  8
0
100
AcDbBlockEnd
  0
ENDSEC
  0
SECTION
  2
ENTITIES
  0
TEXT
  5
AB
330
1F
100
AcDbEntity
  8
ストール
  6
CONTINUOUS
 62
     2
100
AcDbText
 10
315.99988555
 20
2356.0
 30
0.0
 40
40.0
  1
Ｗ.Ｌ.
 41
1.060096153846154
  7
EXCADSTD
 72
     5
 11
420.99988555
 21
2356.0
 31
0.0
100
AcDbText
  0
LINE
  5
AC
330
1F
100
AcDbEntity
  8
ストール
  6
CONTINUOUS
 62
     7
100
AcDbLine
 10
296.9998855499999
 20
2396.0
 30
0.0
 11
1083.99988555
 21
2396.0
 31
0.0
  0
TEXT
  5
AD
330
1F
100
AcDbEntity
  8
ストール
  6
CONTINUOUS
 62
     2
100
AcDbText
 10
793.0
 20
570.0001526000001
 30
0.0
 40
40.0
  1
Ｆ.Ｌ.
 41
1.120673076923077
  7
EXCADSTD
 72
     5
 11
904.0
 21
570.0001526000001
 31
0.0
100
AcDbText
  0
LINE
  5
AE
330
1F
100
AcDbEntity
  8
ストール
  6
CONTINUOUS
 62
     7
100
AcDbLine
 10
296.9998855499998
 20
565.0
 30
0.0
 11
1155.0
 21
565.0000000000001
 31
0.0
  0
LINE
  5
AF
330
1F
100
AcDbEntity
  8
ストール
  6
CONTINUOUS
 62
     7
100
AcDbLine
 10
1338.0
 20
565.0
 30
0.0
 11
1790.0
 21
565.0000000000003
 31
0.0
  0
LINE
  5
B0
330
1F
100
AcDbEntity
  8
ストール
  6
CONTINUOUS
 62
     7
100
AcDbLine
 10
1790.0
 20
1977.0
 30
0.0
 11
1790.0
 21
565.0000000000001
 31
0.0
  0
LINE
  5
B1
330
1F
100
AcDbEntity
  8
ストール
  6
EXLTYPE3
 62
     6
100
AcDbLine
 10
1735.0
 20
1005.0
 30
0.0
 11
1735.0
 21
906.9999999999998
 31
0.0
  0
LINE
  5
B2
330
1F
100
AcDbEntity
  8
ストール
  6
CONTINUOUS
 62
     6
100
AcDbLine
 10
1514.999999999999
 20
1085.0
 30
0.0
 11
1514.999999999999
 21
1090.0
 31
0.0
  0
LINE
  5
B3
330
1F
100
AcDbEntity
  8
ストール
  6
CONTINUOUS
 62
     6
100
AcDbLine
 10
1514.999999999999
 20
1090.0
 30
0.0
 11
1519.370849993853
 21
1090.0
 31
0.0
  0
LINE
  5
B4
330
1F
100
AcDbEntity
  8
ストール
  6
EXLTYPE3
 62
     6
100
AcDbLine
 10
875.5000000000001
 20
1236.7
 30
0.0
 11
875.5000000000001
 21
1180.1
 31
0.0
  0
LINE
  5
B5
330
1F
100
AcDbEntity
  8
ストール
  6
EXLTYPE3
 62
     6
100
AcDbLine
 10
520.4999999999997
 20
1236.7
 30
0.0
 11
520.4999999999997
 21
1180.1
 31
0.0
  0
LINE
  5
B6
330
1F
100
AcDbEntity
  8
ストール
  6
CONTINUOUS
 62
     6
100
AcDbLine
 10
866.1999999999999
 20
1190.0
 30
0.0
 11
884.9000000000002
 21
1190.0
 31
0.0
  0
LINE
  5
B7
330
1F
100
AcDbEntity
  8
ストール
  6
CONTINUOUS
 62
     6
100
AcDbLine
 10
866.1999999999999
 20
1227.0
 30
0.0
 11
885.1000000000005
 21
1227.0
 31
0.0
  0
LINE
  5
B8
330
1F
100
AcDbEntity
  8
ストール
  6
CONTINUOUS
 62
     6
100
AcDbLine
 10
529.7999999999994
 20
1190.0
 30
0.0
 11
511.0999999999996
 21
1190.0
 31
0.0
  0
LINE
  5
B9
330
1F
100
AcDbEntity
  8
ストール
  6
CONTINUOUS
 62
     6
100
AcDbLine
 10
529.7999999999994
 20
1227.0
 30
0.0
 11
510.8999999999997
 21
1227.0
 31
0.0
  0
LINE
  5
BA
330
1F
100
AcDbEntity
  8
ストール
  6
EXLTYPE3
 62
     6
100
AcDbLine
 10
1735.0
 20
1349.0
 30
0.0
 11
1735.0
 21
1413.9
 31
0.0
  0
LINE
  5
BB
330
1F
100
AcDbEntity
  8
ストール
  6
EXLTYPE1
 62
     2
100
AcDbLine
 10
720.50198365
 20
955.0
 30
0.0
 11
723.1187368538187
 21
972.4450213587911
 31
0.0
  0
LINE
  5
BC
330
1F
100
AcDbEntity
  8
ストール
  6
EXLTYPE1
 62
     2
100
AcDbLine
 10
720.498016350001
 20
955.0000000000005
 30
0.0
 11
720.498016350001
 21
950.5667114999999
 31
0.0
  0
ARC
  5
BD
330
1F
100
AcDbEntity
  8
ストール
  6
EXLTYPE1
 62
     2
100
AcDbCircle
 10
716.7994385500007
 20
935.7723999000004
 30
0.0
 40
3.6985779
100
AcDbArc
 50
347.9457940191974
 51
61.75258093030905
  0
ARC
  5
BE
330
1F
100
AcDbEntity
  8
ストール
  6
EXLTYPE1
 62
     2
100
AcDbCircle
 10
716.7994385500007
 20
943.1695557000003
 30
0.0
 40
3.6985779
100
AcDbArc
 50
298.2474190696953
 51
61.75258093030905
  0
ARC
  5
BF
330
1F
100
AcDbEntity
  8
ストール
  6
EXLTYPE1
 62
     2
100
AcDbCircle
 10
716.7994385500007
 20
950.5667114999999
 30
0.0
 40
3.6985779
100
AcDbArc
 50
298.2474190696953
 51
0.0
  0
ARC
  5
C0
330
1F
100
AcDbEntity
  8
ストール
  6
EXLTYPE1
 62
     2
100
AcDbCircle
 10
718.7865414411473
 20
946.8681336
 30
0.0
 40
0.5
100
AcDbArc
 50
118.2474190696912
 51
241.752580930312
  0
ARC
  5
C1
330
1F
100
AcDbEntity
  8
ストール
  6
EXLTYPE1
 62
     2
100
AcDbCircle
 10
718.7865414411473
 20
939.4709778000004
 30
0.0
 40
0.5
100
AcDbArc
 50
118.2474190696912
 51
241.752580930312
  0
LINE
  5
C2
330
1F
100
AcDbEntity
  8
ストール
  6
EXLTYPE1
 62
     2
100
AcDbLine
 10
675.5795682787275
 20
935.0000000000007
 30
0.0
 11
720.4164645212717
 21
935.0000000000007
 31
0.0
  0
LINE
  5
C3
330
1F
100
AcDbEntity
  8
ストール
  6
EXLTYPE1
 62
     2
100
AcDbLine
 10
675.4980163500001
 20
955.0
 30
0.0
 11
672.8812631461814
 21
972.4450213587911
 31
0.0
  0
LINE
  5
C4
330
1F
100
AcDbEntity
  8
ストール
  6
EXLTYPE1
 62
     2
100
AcDbLine
 10
675.4980163499997
 20
950.5667114999999
 30
0.0
 11
675.4980163499997
 21
955.000000000003
 31
0.0
  0
ARC
  5
C5
330
1F
100
AcDbEntity
  8
ストール
  6
EXLTYPE1
 62
     2
100
AcDbCircle
 10
679.1965942499984
 20
935.7723999000004
 30
0.0
 40
3.6985779
100
AcDbArc
 50
118.2474190696909
 51
192.0542059808026
  0
ARC
  5
C6
330
1F
100
AcDbEntity
  8
ストール
  6
EXLTYPE1
 62
     2
100
AcDbCircle
 10
679.1965942499984
 20
950.5667114999999
 30
0.0
 40
3.6985779
100
AcDbArc
 50
180.0
 51
241.752580930308
  0
ARC
  5
C7
330
1F
100
AcDbEntity
  8
ストール
  6
EXLTYPE1
 62
     2
100
AcDbCircle
 10
679.1965942499984
 20
943.1695557000003
 30
0.0
 40
3.6985779
100
AcDbArc
 50
118.2474190696909
 51
241.7525809303089
  0
ARC
  5
C8
330
1F
100
AcDbEntity
  8
ストール
  6
EXLTYPE1
 62
     2
100
AcDbCircle
 10
677.2094913588522
 20
939.4709778000004
 30
0.0
 40
0.5
100
AcDbArc
 50
298.2474190696943
 51
61.75258093030882
  0
ARC
  5
C9
330
1F
100
AcDbEntity
  8
ストール
  6
EXLTYPE1
 62
     2
100
AcDbCircle
 10
677.2094913588522
 20
946.8681336
 30
0.0
 40
0.5
100
AcDbArc
 50
298.2474190696943
 51
61.75258093030882
  0
ARC
  5
CA
330
1F
100
AcDbEntity
  8
ストール
  6
EXLTYPE1
 62
     2
100
AcDbCircle
 10
669.9144540875766
 20
972.0000000000005
 30
0.0
 40
3.0
100
AcDbArc
 50
8.530765609948576
 51
90.00000000000001
  0
ARC
  5
CB
330
1F
100
AcDbEntity
  8
ストール
  6
EXLTYPE1
 62
     2
100
AcDbCircle
 10
1706.914454087576
 20
972.0
 30
0.0
 40
3.0
100
AcDbArc
 50
8.530765609947489
 51
90.00000000000001
  0
LINE
  5
CC
330
1F
100
AcDbEntity
  8
ストール
  6
EXLTYPE1
 62
     2
100
AcDbLine
 10
1709.881263146181
 20
972.4450213587909
 30
0.0
 11
1712.49801635
 21
954.9999999999998
 31
0.0
  0
LINE
  5
CD
330
1F
100
AcDbEntity
  8
ストール
  6
EXLTYPE1
 62
     2
100
AcDbLine
 10
1760.118736853818
 20
972.4450213587909
 30
0.0
 11
1757.501983649999
 21
954.9999999999998
 31
0.0
  0
LINE
  5
CE
330
1F
100
AcDbEntity
  8
ストール
  6
EXLTYPE1
 62
     2
100
AcDbLine
 10
1712.579568278727
 20
934.9999999999998
 30
0.0
 11
1757.416464521271
 21
934.9999999999998
 31
0.0
  0
LINE
  5
CF
330
1F
100
AcDbEntity
  8
ストール
  6
EXLTYPE1
 62
     2
100
AcDbLine
 10
1712.49801635
 20
954.9999999999998
 30
0.0
 11
1712.49801635
 21
950.5667114999999
 31
0.0
  0
ARC
  5
D0
330
1F
100
AcDbEntity
  8
ストール
  6
EXLTYPE1
 62
     2
100
AcDbCircle
 10
1753.79943855
 20
935.7723999000002
 30
0.0
 40
3.6985779
100
AcDbArc
 50
347.9457940191873
 51
61.75258093030516
  0
ARC
  5
D1
330
1F
100
AcDbEntity
  8
ストール
  6
EXLTYPE1
 62
     2
100
AcDbCircle
 10
1716.196594249998
 20
935.7723999000002
 30
0.0
 40
3.6985779
100
AcDbArc
 50
118.2474190696948
 51
192.0542059808128
  0
LINE
  5
D2
330
1F
100
AcDbEntity
  8
ストール
  6
EXLTYPE1
 62
     2
100
AcDbLine
 10
1757.49801635
 20
955.0
 30
0.0
 11
1757.49801635
 21
950.5667114999994
 31
0.0
  0
ARC
  5
D3
330
1F
100
AcDbEntity
  8
ストール
  6
EXLTYPE1
 62
     2
100
AcDbCircle
 10
1753.79943855
 20
950.5667114999994
 30
0.0
 40
3.6985779
100
AcDbArc
 50
298.2474190696958
 51
0.0
  0
ARC
  5
D4
330
1F
100
AcDbEntity
  8
ストール
  6
EXLTYPE1
 62
     2
100
AcDbCircle
 10
1755.786541441146
 20
946.8681335999997
 30
0.0
 40
0.5
100
AcDbArc
 50
118.247419069662
 51
241.7525809303349
  0
ARC
  5
D5
330
1F
100
AcDbEntity
  8
ストール
  6
EXLTYPE1
 62
     2
100
AcDbCircle
 10
1753.79943855
 20
943.1695556999998
 30
0.0
 40
3.6985779
100
AcDbArc
 50
298.2474190696958
 51
61.75258093030516
  0
ARC
  5
D6
330
1F
100
AcDbEntity
  8
ストール
  6
EXLTYPE1
 62
     2
100
AcDbCircle
 10
1755.786541441146
 20
939.4709778000001
 30
0.0
 40
0.5
100
AcDbArc
 50
118.247419069662
 51
241.7525809303349
  0
ARC
  5
D7
330
1F
100
AcDbEntity
  8
ストール
  6
EXLTYPE1
 62
     2
100
AcDbCircle
 10
1714.209491358851
 20
939.4709778000001
 30
0.0
 40
0.5
100
AcDbArc
 50
298.2474190696652
 51
61.75258093033793
  0
ARC
  5
D8
330
1F
100
AcDbEntity
  8
ストール
  6
EXLTYPE1
 62
     2
100
AcDbCircle
 10
1716.196594249998
 20
943.1695556999998
 30
0.0
 40
3.6985779
100
AcDbArc
 50
118.2474190696948
 51
241.7525809303043
  0
ARC
  5
D9
330
1F
100
AcDbEntity
  8
ストール
  6
EXLTYPE1
 62
     2
100
AcDbCircle
 10
1714.209491358851
 20
946.8681335999997
 30
0.0
 40
0.5
100
AcDbArc
 50
298.2474190696652
 51
61.75258093033793
  0
ARC
  5
DA
330
1F
100
AcDbEntity
  8
ストール
  6
EXLTYPE1
 62
     2
100
AcDbCircle
 10
1716.196594249998
 20
950.5667114999994
 30
0.0
 40
3.6985779
100
AcDbArc
 50
180.0
 51
241.7525809303043
  0
ARC
  5
DB
330
1F
100
AcDbEntity
  8
ストール
  6
EXLTYPE1
 62
     2
100
AcDbCircle
 10
1763.085545912423
 20
972.0
 30
0.0
 40
3.0
100
AcDbArc
 50
90.00000000000001
 51
171.4692343900523
  0
TEXT
  5
DC
330
1F
100
AcDbEntity
  8
ストール
  6
CONTINUOUS
 62
     2
100
AcDbText
 10
1784.68817139
 20
1865.0
 30
0.0
 40
40.0
  1
Ｗ.Ｌ.
 50
90.0
 41
1.060096153846154
  7
EXCADSTD
 72
     5
 11
1784.68817139
 21
1970.0
 31
0.0
100
AcDbText
  0
LINE
  5
DD
330
1F
100
AcDbEntity
  8
ストール
  6
EXLTYPE3
 62
     6
100
AcDbLine
 10
875.4999237000001
 20
2374.5
 30
0.0
 11
875.4999237000001
 21
2439.7
 31
0.0
  0
LINE
  5
DE
330
1F
100
AcDbEntity
  8
ストール
  6
EXLTYPE3
 62
     6
100
AcDbLine
 10
520.4999236999996
 20
2374.5
 30
0.0
 11
520.4999236999996
 21
2440.8
 31
0.0
  0
LINE
  5
DF
330
1F
100
AcDbEntity
  8
ストール
  6
EXLTYPE3
 62
     6
100
AcDbLine
 10
698.0000000000001
 20
1617.0
 30
0.0
 11
698.0000000000001
 21
509.0000000000001
 31
0.0
  0
LINE
  5
E0
330
1F
100
AcDbEntity
  8
ストール
  6
EXLTYPE3
 62
     6
100
AcDbLine
 10
697.9999236999996
 20
2412.0
 30
0.0
 11
697.9999236999996
 21
2105.5
 31
0.0
  0
LINE
  5
E1
330
1F
100
AcDbEntity
  8
ストール
  6
CONTINUOUS
 62
     2
100
AcDbLine
 10
502.9999237000001
 20
2396.0
 30
0.0
 11
502.9999237000001
 21
2390.0
 31
0.0
  0
ARC
  5
E2
330
1F
100
AcDbEntity
  8
ストール
  6
CONTINUOUS
 62
     2
100
AcDbCircle
 10
697.9999999999976
 20
2236.000000000497
 30
0.0
 40
115.0000000000001
100
AcDbArc
 50
251.3667144800001
 51
288.6333007800003
  0
ARC
  5
E3
330
1F
100
AcDbEntity
  8
ストール
  6
CONTINUOUS
 62
     2
100
AcDbCircle
 10
697.9999999999976
 20
2236.000000000497
 30
0.0
 40
105.0000000000001
100
AcDbArc
 50
251.3666395128857
 51
288.6333604267901
  0
ARC
  5
E4
330
1F
100
AcDbEntity
  8
ストール
  6
CONTINUOUS
 62
     2
100
AcDbCircle
 10
779.2433892717362
 20
2333.303863995558
 30
0.0
 40
80.0
100
AcDbArc
 50
317.3631431830739
 51
358.5799404123489
  0
ARC
  5
E5
330
1F
100
AcDbEntity
  8
ストール
  6
CONTINUOUS
 62
     2
100
AcDbCircle
 10
726.7559508999979
 20
2150.717712500499
 30
0.0
 40
25.00000000000002
100
AcDbArc
 50
288.6333007799967
 51
337.4339128725395
  0
ARC
  5
E6
330
1F
100
AcDbEntity
  8
ストール
  6
CONTINUOUS
 62
     2
100
AcDbCircle
 10
726.7559508999979
 20
2150.717712500499
 30
0.0
 40
15.00000000000003
100
AcDbArc
 50
288.6333604267901
 51
337.4339128725393
  0
ARC
  5
E7
330
1F
100
AcDbEntity
  8
ストール
  6
CONTINUOUS
 62
     2
100
AcDbCircle
 10
616.756458128264
 20
2333.303863995558
 30
0.0
 40
80.0
100
AcDbArc
 50
181.4200595876511
 51
222.6368568169261
  0
LINE
  5
E8
330
1F
100
AcDbEntity
  8
ストール
  6
CONTINUOUS
 62
     2
100
AcDbLine
 10
535.6449763792119
 20
2377.148693067932
 30
0.0
 11
536.7810281551377
 21
2331.321289756434
 31
0.0
  0
ARC
  5
E9
330
1F
100
AcDbEntity
  8
ストール
  6
CONTINUOUS
 62
     2
100
AcDbCircle
 10
669.244048999998
 20
2150.717712500499
 30
0.0
 40
15.00000000000003
100
AcDbArc
 50
202.5660803536321
 51
251.3666395128857
  0
ARC
  5
EA
330
1F
100
AcDbEntity
  8
ストール
  6
CONTINUOUS
 62
     2
100
AcDbCircle
 10
669.244048999998
 20
2150.717712500499
 30
0.0
 40
25.00000000000002
100
AcDbArc
 50
202.5660803536323
 51
251.3667144800019
  0
ARC
  5
EB
330
1F
100
AcDbEntity
  8
ストール
  6
CONTINUOUS
 62
     2
100
AcDbCircle
 10
212.1423258645058
 20
1960.762048929859
 30
0.0
 40
470.0000000000002
100
AcDbArc
 50
22.56608712746061
 51
42.63681116335617
  0
ARC
  5
EC
330
1F
100
AcDbEntity
  8
ストール
  6
CONTINUOUS
 62
     2
100
AcDbCircle
 10
1183.857521535494
 20
1960.762048929859
 30
0.0
 40
470.0000000000001
100
AcDbArc
 50
137.3631888366438
 51
157.4339128725395
  0
ARC
  5
ED
330
1F
100
AcDbEntity
  8
ストール
  6
CONTINUOUS
 62
     2
100
AcDbCircle
 10
212.1423258645058
 20
1960.762048929859
 30
0.0
 40
480.0000000000003
100
AcDbArc
 50
22.56608712746056
 51
42.81387692315156
  0
ARC
  5
EE
330
1F
100
AcDbEntity
  8
ストール
  6
CONTINUOUS
 62
     2
100
AcDbCircle
 10
1183.857521535494
 20
1960.762048929859
 30
0.0
 40
480.0000000000002
100
AcDbArc
 50
137.1861230768484
 51
157.4339128725395
  0
ARC
  5
EF
330
1F
100
AcDbEntity
  8
ストール
  6
CONTINUOUS
 62
     2
100
AcDbCircle
 10
779.2433892717362
 20
2333.303863995558
 30
0.0
 40
70.0
100
AcDbArc
 50
317.3631431830739
 51
317.426206565976
  0
ARC
  5
F0
330
1F
100
AcDbEntity
  8
ストール
  6
CONTINUOUS
 62
     2
100
AcDbCircle
 10
779.2433892717362
 20
2333.303863995558
 30
0.0
 40
70.0
100
AcDbArc
 50
317.3631431830739
 51
317.3631888366438
  0
ARC
  5
F1
330
1F
100
AcDbEntity
  8
ストール
  6
CONTINUOUS
 62
     2
100
AcDbCircle
 10
616.7564581282634
 20
2333.303863995558
 30
0.0
 40
70.0
100
AcDbArc
 50
222.6368111633563
 51
222.6368568169262
  0
ARC
  5
F2
330
1F
100
AcDbEntity
  8
ストール
  6
CONTINUOUS
 62
     2
100
AcDbCircle
 10
665.7360535070254
 20
2128.740838730931
 30
0.0
 40
200.0
100
AcDbArc
 50
116.8302922751608
 51
119.7033299202809
  0
ARC
  5
F3
330
1F
100
AcDbEntity
  8
ストール
  6
CONTINUOUS
 62
     2
100
AcDbCircle
 10
571.5893148578463
 20
2293.775355125905
 30
0.0
 40
10.0
100
AcDbArc
 50
119.7033299202807
 51
222.8138769231515
  0
ARC
  5
F4
330
1F
100
AcDbEntity
  8
ストール
  6
CONTINUOUS
 62
     2
100
AcDbCircle
 10
824.4105325421546
 20
2293.775355125905
 30
0.0
 40
10.0
100
AcDbArc
 50
317.1861230768485
 51
60.29667007971927
  0
ARC
  5
F5
330
1F
100
AcDbEntity
  8
ストール
  6
CONTINUOUS
 62
     2
100
AcDbCircle
 10
730.2637938929753
 20
2128.740838730931
 30
0.0
 40
200.0
100
AcDbArc
 50
60.29667007971909
 51
63.16970772483918
  0
ARC
  5
F6
330
1F
100
AcDbEntity
  8
ストール
  6
CONTINUOUS
 62
     2
100
AcDbCircle
 10
772.9999237000006
 20
2011.0
 30
0.0
 40
300.0
100
AcDbArc
 50
74.7023232125713
 51
89.99999999999996
  0
ARC
  5
F7
330
1F
100
AcDbEntity
  8
ストール
  6
CONTINUOUS
 62
     2
100
AcDbCircle
 10
622.9999237000001
 20
2011.0
 30
0.0
 40
300.0
100
AcDbArc
 50
90.00000000000001
 51
105.2976767874287
  0
LINE
  5
F8
330
1F
100
AcDbEntity
  8
ストール
  6
CONTINUOUS
 62
     2
100
AcDbLine
 10
892.9999237000001
 20
2396.0
 30
0.0
 11
892.9999237000001
 21
2390.0
 31
0.0
  0
LINE
  5
F9
330
1F
100
AcDbEntity
  8
ストール
  6
CONTINUOUS
 62
     2
100
AcDbLine
 10
860.4286260504474
 20
2380.123910889945
 30
0.0
 11
859.218819244862
 21
2331.321289756434
 31
0.0
  0
ARC
  5
FA
330
1F
100
AcDbEntity
  8
ストール
  6
CONTINUOUS
 62
     2
100
AcDbCircle
 10
887.9999237000001
 20
2390.0
 30
0.0
 40
5.0
100
AcDbArc
 50
270.0
 51
0.0
  0
ARC
  5
FB
330
1F
100
AcDbEntity
  8
ストール
  6
CONTINUOUS
 62
     2
100
AcDbCircle
 10
530.5727569762331
 20
2380.0
 30
0.0
 40
5.0
100
AcDbArc
 50
1.420059587652034
 51
90.00000000000001
  0
ARC
  5
FC
330
1F
100
AcDbEntity
  8
ストール
  6
CONTINUOUS
 62
     2
100
AcDbCircle
 10
507.9999237000007
 20
2390.0
 30
0.0
 40
5.0
100
AcDbArc
 50
180.0
 51
270.0
  0
LINE
  5
FD
330
1F
100
AcDbEntity
  8
ストール
  6
CONTINUOUS
 62
     2
100
AcDbLine
 10
535.5712213495524
 20
2380.123910889945
 30
0.0
 11
535.6449763792128
 21
2377.1486930679
 31
0.0
  0
LINE
  5
FE
330
1F
100
AcDbEntity
  8
ストール
  6
CONTINUOUS
 62
     2
100
AcDbLine
 10
507.9999237000007
 20
2385.0
 30
0.0
 11
530.5727569762331
 21
2385.0
 31
0.0
  0
ARC
  5
FF
330
1F
100
AcDbEntity
  8
ストール
  6
CONTINUOUS
 62
     2
100
AcDbCircle
 10
865.4270904237677
 20
2380.0
 30
0.0
 40
5.0
100
AcDbArc
 50
90.00000000000001
 51
178.579940412348
  0
LINE
  5
100
330
1F
100
AcDbEntity
  8
ストール
  6
CONTINUOUS
 62
     2
100
AcDbLine
 10
887.9999237000001
 20
2385.0
 30
0.0
 11
865.4270904237677
 21
2385.0
 31
0.0
  0
LINE
  5
101
330
1F
100
AcDbEntity
  8
ストール
  6
CONTINUOUS
 62
     2
100
AcDbLine
 10
718.0002737285998
 20
1375.0
 30
0.0
 11
737.0924835153025
 21
1375.0
 31
0.0
  0
LINE
  5
102
330
1F
100
AcDbEntity
  8
ストール
  6
CONTINUOUS
 62
     2
100
AcDbLine
 10
658.9075164846978
 20
1375.0
 30
0.0
 11
678.0002737285998
 21
1375.0
 31
0.0
  0
LINE
  5
103
330
1F
100
AcDbEntity
  8
ストール
  6
CONTINUOUS
 62
     2
100
AcDbLine
 10
762.5487290808798
 20
1375.0
 30
0.0
 11
718.0002737285998
 21
1375.0
 31
0.0
  0
LINE
  5
104
330
1F
100
AcDbEntity
  8
ストール
  6
CONTINUOUS
 62
     2
100
AcDbLine
 10
678.0002737285998
 20
1375.0
 30
0.0
 11
633.4512709191205
 21
1375.0
 31
0.0
  0
LINE
  5
105
330
1F
100
AcDbEntity
  8
ストール
  6
CONTINUOUS
 62
     2
100
AcDbLine
 10
718.0000000000003
 20
1365.0
 30
0.0
 11
742.659019275379
 21
1365.0
 31
0.0
  0
LINE
  5
106
330
1F
100
AcDbEntity
  8
ストール
  6
CONTINUOUS
 62
     2
100
AcDbLine
 10
653.3409807246213
 20
1365.0
 30
0.0
 11
678.0000000000003
 21
1365.0
 31
0.0
  0
ARC
  5
107
330
1F
100
AcDbEntity
  8
ストール
  6
CONTINUOUS
 62
     2
100
AcDbCircle
 10
719.0988502469693
 20
1221.518857695654
 30
0.0
 40
120.0
100
AcDbArc
 50
351.4933139904937
 51
18.62142528946676
  0
ARC
  5
108
330
1F
100
AcDbEntity
  8
ストール
  6
CONTINUOUS
 62
     2
100
AcDbCircle
 10
717.8144911876726
 20
1225.191128945899
 30
0.0
 40
130.0
100
AcDbArc
 50
322.2141846776596
 51
22.00078379641348
  0
ARC
  5
109
330
1F
100
AcDbEntity
  8
ストール
  6
CONTINUOUS
 62
     2
100
AcDbCircle
 10
689.4288919973004
 20
1225.956602332618
 30
0.0
 40
150.0
100
AcDbArc
 50
302.5963714571017
 51
351.4933139904937
  0
ARC
  5
10A
330
1F
100
AcDbEntity
  8
ストール
  6
CONTINUOUS
 62
     2
100
AcDbCircle
 10
557.998508089326
 20
1167.235529162021
 30
0.0
 40
290.0
100
AcDbArc
 50
17.274357530388
 51
41.45951189724006
  0
ARC
  5
10B
330
1F
100
AcDbEntity
  8
ストール
  6
CONTINUOUS
 62
     2
100
AcDbCircle
 10
557.998508089326
 20
1167.235529162021
 30
0.0
 40
300.0
100
AcDbArc
 50
19.88912468136412
 51
40.99228934140626
  0
LINE
  5
10C
330
1F
100
AcDbEntity
  8
ストール
  6
CONTINUOUS
 62
     2
100
AcDbLine
 10
635.657072748649
 20
1366.0
 30
0.0
 11
760.3429272513513
 21
1366.0
 31
0.0
  0
LINE
  5
10D
330
1F
100
AcDbEntity
  8
ストール
  6
CONTINUOUS
 62
     2
100
AcDbLine
 10
633.4512709191205
 20
1374.0
 30
0.0
 11
762.5487290808798
 21
1374.0
 31
0.0
  0
ARC
  5
10E
330
1F
100
AcDbEntity
  8
ストール
  6
CONTINUOUS
 62
     2
100
AcDbCircle
 10
762.5487290808798
 20
1345.0
 30
0.0
 40
30.0
100
AcDbArc
 50
50.14091622220558
 51
90.00000000000001
  0
ARC
  5
10F
330
1F
100
AcDbEntity
  8
ストール
  6
CONTINUOUS
 62
     2
100
AcDbCircle
 10
762.5487290808798
 20
1345.0
 30
0.0
 40
29.0
100
AcDbArc
 50
40.99228934140631
 51
90.00000000000001
  0
ARC
  5
110
330
1F
100
AcDbEntity
  8
ストール
  6
CONTINUOUS
 62
     2
100
AcDbCircle
 10
760.3429272513513
 20
1346.0
 30
0.0
 40
20.0
100
AcDbArc
 50
41.45951189723989
 51
90.00000000000001
  0
ARC
  5
111
330
1F
100
AcDbEntity
  8
ストール
  6
CONTINUOUS
 62
     2
100
AcDbCircle
 10
634.3684054943113
 20
1191.475394007206
 30
0.0
 40
230.0
100
AcDbArc
 50
20.51612092032772
 51
50.14091622220563
  0
ARC
  5
112
330
1F
100
AcDbEntity
  8
ストール
  6
CONTINUOUS
 62
     2
100
AcDbCircle
 10
760.3429272513513
 20
1346.0
 30
0.0
 40
20.0
100
AcDbArc
 50
41.45951189723989
 51
90.00000000000001
  0
ARC
  5
113
330
1F
100
AcDbEntity
  8
ストール
  6
CONTINUOUS
 62
     2
100
AcDbCircle
 10
522.8053222405671
 20
1280.845476674427
 30
0.0
 40
25.0
100
AcDbArc
 50
296.5537179664587
 51
339.4838790796723
  0
ARC
  5
114
330
1F
100
AcDbEntity
  8
ストール
  6
CONTINUOUS
 62
     2
100
AcDbCircle
 10
838.0014919106742
 20
1167.235529162021
 30
0.0
 40
290.0
100
AcDbArc
 50
138.54048810276
 51
161.3785747105333
  0
ARC
  5
115
330
1F
100
AcDbEntity
  8
ストール
  6
CONTINUOUS
 62
     2
100
AcDbCircle
 10
676.901149753031
 20
1221.518857695654
 30
0.0
 40
120.0
100
AcDbArc
 50
161.3785747105333
 51
188.5066860095063
  0
ARC
  5
116
330
1F
100
AcDbEntity
  8
ストール
  6
CONTINUOUS
 62
     2
100
AcDbCircle
 10
635.657072748649
 20
1346.0
 30
0.0
 40
20.0
100
AcDbArc
 50
90.00000000000001
 51
138.54048810276
  0
ARC
  5
117
330
1F
100
AcDbEntity
  8
ストール
  6
CONTINUOUS
 62
     2
100
AcDbCircle
 10
633.4512709191205
 20
1345.0
 30
0.0
 40
29.0
100
AcDbArc
 50
90.00000000000001
 51
139.0077106585937
  0
ARC
  5
118
330
1F
100
AcDbEntity
  8
ストール
  6
CONTINUOUS
 62
     2
100
AcDbCircle
 10
838.0014919106742
 20
1167.235529162021
 30
0.0
 40
300.0
100
AcDbArc
 50
139.0077106585937
 51
160.0673515396433
  0
ARC
  5
119
330
1F
100
AcDbEntity
  8
ストール
  6
CONTINUOUS
 62
     2
100
AcDbCircle
 10
678.1855088123276
 20
1225.191128945899
 30
0.0
 40
130.0
100
AcDbArc
 50
157.9992162035866
 51
217.7858153223404
  0
ARC
  5
11A
330
1F
100
AcDbEntity
  8
ストール
  6
CONTINUOUS
 62
     2
100
AcDbCircle
 10
761.6315945056889
 20
1191.475394007206
 30
0.0
 40
230.0
100
AcDbArc
 50
129.8590837777944
 51
159.4838790796723
  0
ARC
  5
11B
330
1F
100
AcDbEntity
  8
ストール
  6
CONTINUOUS
 62
     2
100
AcDbCircle
 10
633.4512709191205
 20
1345.0
 30
0.0
 40
30.0
100
AcDbArc
 50
90.00000000000001
 51
129.8590837777944
  0
ARC
  5
11C
330
1F
100
AcDbEntity
  8
ストール
  6
CONTINUOUS
 62
     2
100
AcDbCircle
 10
653.3409807246213
 20
1315.0
 30
0.0
 40
50.0
100
AcDbArc
 50
90.00000000000001
 51
152.6603740583629
  0
ARC
  5
11D
330
1F
100
AcDbEntity
  8
ストール
  6
CONTINUOUS
 62
     2
100
AcDbCircle
 10
895.5000000000001
 20
1189.80024038477
 30
0.0
 40
322.6095567365981
100
AcDbArc
 50
152.660374058363
 51
186.2122461499644
  0
ARC
  5
11E
330
1F
100
AcDbEntity
  8
ストール
  6
CONTINUOUS
 62
     2
100
AcDbCircle
 10
895.5000000000001
 20
1189.80024038477
 30
0.0
 40
322.6095567365981
100
AcDbArc
 50
168.2885711432777
 51
186.3407999895065
  0
ARC
  5
11F
330
1F
100
AcDbEntity
  8
ストール
  6
CONTINUOUS
 62
     2
100
AcDbCircle
 10
689.8717084067986
 20
1232.426590175262
 30
0.0
 40
150.0
100
AcDbArc
 50
168.2394084099269
 51
168.2885711432777
  0
ARC
  5
120
330
1F
100
AcDbEntity
  8
ストール
  6
CONTINUOUS
 62
     2
100
AcDbCircle
 10
706.5711080026998
 20
1225.956602332618
 30
0.0
 40
150.0
100
AcDbArc
 50
188.5066860095063
 51
237.4036285428982
  0
LINE
  5
121
330
1F
100
AcDbEntity
  8
ストール
  6
CONTINUOUS
 62
     2
100
AcDbLine
 10
533.9812389257704
 20
1258.482585845077
 30
0.0
 11
511.2952642165275
 21
1247.145207095261
 31
0.0
  0
ARC
  5
122
330
1F
100
AcDbEntity
  8
ストール
  6
CONTINUOUS
 62
     2
100
AcDbCircle
 10
500.5000000000001
 20
1189.80024038477
 30
0.0
 40
322.6095567365981
100
AcDbArc
 50
353.7877538500358
 51
27.33962594163707
  0
ARC
  5
123
330
1F
100
AcDbEntity
  8
ストール
  6
CONTINUOUS
 62
     2
100
AcDbCircle
 10
742.6590192753789
 20
1315.0
 30
0.0
 40
50.0
100
AcDbArc
 50
27.33962594163713
 51
90.00000000000001
  0
ARC
  5
124
330
1F
100
AcDbEntity
  8
ストール
  6
CONTINUOUS
 62
     2
100
AcDbCircle
 10
726.0855459124235
 20
972.0000000000005
 30
0.0
 40
3.0
100
AcDbArc
 50
90.00000000000001
 51
171.4692343900512
  0
ARC
  5
125
330
1F
100
AcDbEntity
  8
ストール
  6
CONTINUOUS
 62
     2
100
AcDbCircle
 10
500.5000000000001
 20
1189.80024038477
 30
0.0
 40
292.6095567365981
100
AcDbArc
 50
343.5838647092982
 51
358.3393537296378
  0
ARC
  5
126
330
1F
100
AcDbEntity
  8
ストール
  6
CONTINUOUS
 62
     2
100
AcDbCircle
 10
895.5000000000001
 20
1189.80024038477
 30
0.0
 40
292.6095567365981
100
AcDbArc
 50
181.6606462703623
 51
196.4161352907019
  0
ARC
  5
127
330
1F
100
AcDbEntity
  8
ストール
  6
CONTINUOUS
 62
     2
100
AcDbCircle
 10
698.0000000000001
 20
1589.625309722844
 30
0.0
 40
600.0
100
AcDbArc
 50
265.8217082491545
 51
274.1782917508455
  0
ARC
  5
128
330
1F
100
AcDbEntity
  8
ストール
  6
CONTINUOUS
 62
     2
100
AcDbCircle
 10
662.4930204273605
 20
1268.08092811675
 30
0.0
 40
200.0
100
AcDbArc
 50
293.8534004607195
 51
322.0159685214332
  0
LINE
  5
129
330
1F
100
AcDbEntity
  8
ストール
  6
CONTINUOUS
 62
     2
100
AcDbLine
 10
655.1297359221729
 20
1085.000000000001
 30
0.0
 11
740.8702640778272
 21
1085.000000000001
 31
0.0
  0
ARC
  5
12A
330
1F
100
AcDbEntity
  8
ストール
  6
CONTINUOUS
 62
     2
100
AcDbCircle
 10
740.8702640778272
 20
1095.000000000001
 30
0.0
 40
10.0
100
AcDbArc
 50
270.0
 51
294.362720663783
  0
ARC
  5
12B
330
1F
100
AcDbEntity
  8
ストール
  6
CONTINUOUS
 62
     2
100
AcDbCircle
 10
655.1297359221729
 20
1095.000000000001
 30
0.0
 40
10.0
100
AcDbArc
 50
245.6372793362172
 51
270.0
  0
ARC
  5
12C
330
1F
100
AcDbEntity
  8
ストール
  6
CONTINUOUS
 62
     2
100
AcDbCircle
 10
733.5069795726398
 20
1268.08092811675
 30
0.0
 40
200.0
100
AcDbArc
 50
217.9840314785668
 51
245.6372793362172
  0
ARC
  5
12D
330
1F
100
AcDbEntity
  8
ストール
  6
CONTINUOUS
 62
     2
100
AcDbCircle
 10
689.4288919973005
 20
1225.956602332618
 30
0.0
 40
150.0
100
AcDbArc
 50
302.5963714571017
 51
338.5885678765277
  0
ARC
  5
12E
330
1F
100
AcDbEntity
  8
ストール
  6
CONTINUOUS
 62
     2
100
AcDbCircle
 10
518.0008142276498
 20
1233.727472597651
 30
0.0
 40
15.00000000000001
100
AcDbArc
 50
116.5537179664599
 51
180.0004045558825
  0
LINE
  5
12F
330
1F
100
AcDbEntity
  8
ストール
  6
CONTINUOUS
 62
     2
100
AcDbLine
 10
503.0008142280236
 20
1233.727366685169
 30
0.0
 11
503.0011478527805
 21
1186.477304737944
 31
0.0
  0
ARC
  5
130
330
1F
100
AcDbEntity
  8
ストール
  6
CONTINUOUS
 62
     2
100
AcDbCircle
 10
518.0011478524067
 20
1186.477410650427
 30
0.0
 40
15.00000000000001
100
AcDbArc
 50
180.0004045558825
 51
244.5714629603342
  0
LINE
  5
131
330
1F
100
AcDbEntity
  8
ストール
  6
CONTINUOUS
 62
     2
100
AcDbLine
 10
511.560372850213
 20
1172.930587503611
 30
0.0
 11
523.9113230808817
 21
1167.058384800667
 31
0.0
  0
ARC
  5
132
330
1F
100
AcDbEntity
  8
ストール
  6
CONTINUOUS
 62
     2
100
AcDbCircle
 10
513.1766980772251
 20
1144.48034622264
 30
0.0
 40
25.00000000000002
100
AcDbArc
 50
6.760189938279527
 51
64.57146296033417
  0
ARC
  5
133
330
1F
100
AcDbEntity
  8
ストール
  6
CONTINUOUS
 62
     2
100
AcDbCircle
 10
895.5000000000001
 20
1189.80024038477
 30
0.0
 40
360.0
100
AcDbArc
 50
186.7601899382796
 51
193.6779461269842
  0
ARC
  5
134
330
1F
100
AcDbEntity
  8
ストール
  6
CONTINUOUS
 62
     2
100
AcDbCircle
 10
698.0000000000001
 20
1141.735460347859
 30
0.0
 40
156.7354603478594
100
AcDbArc
 50
193.6779461269842
 51
252.5810250616231
  0
ARC
  5
135
330
1F
100
AcDbEntity
  8
ストール
  6
CONTINUOUS
 62
     2
100
AcDbCircle
 10
649.5833907040966
 20
987.4169874477498
 30
0.0
 40
5.0
100
AcDbArc
 50
4.763641690726164
 51
72.58102506162297
  0
LINE
  5
136
330
1F
100
AcDbEntity
  8
ストール
  6
CONTINUOUS
 62
     2
100
AcDbLine
 10
654.566119495321
 20
987.8322148470183
 30
0.0
 11
655.2534063491786
 21
979.5847726007314
 31
0.0
  0
ARC
  5
137
330
1F
100
AcDbEntity
  8
ストール
  6
CONTINUOUS
 62
     2
100
AcDbCircle
 10
660.2361351404026
 20
980.0
 30
0.0
 40
5.0
100
AcDbArc
 50
184.7636416907249
 51
270.0000000000002
  0
LINE
  5
138
330
1F
100
AcDbEntity
  8
ストール
  6
CONTINUOUS
 62
     2
100
AcDbLine
 10
735.7638648596
 20
975.0000000000002
 30
0.0
 11
660.2361351404026
 21
975.0000000000002
 31
0.0
  0
ARC
  5
139
330
1F
100
AcDbEntity
  8
ストール
  6
CONTINUOUS
 62
     2
100
AcDbCircle
 10
735.7638648595968
 20
980.0
 30
0.0
 40
5.0
100
AcDbArc
 50
270.0000000000002
 51
355.2363583092751
  0
LINE
  5
13A
330
1F
100
AcDbEntity
  8
ストール
  6
CONTINUOUS
 62
     2
100
AcDbLine
 10
741.4338805046783
 20
987.8322148470183
 30
0.0
 11
740.7465936508212
 21
979.5847726007314
 31
0.0
  0
ARC
  5
13B
330
1F
100
AcDbEntity
  8
ストール
  6
CONTINUOUS
 62
     2
100
AcDbCircle
 10
746.4166092959027
 20
987.4169874477498
 30
0.0
 40
5.0
100
AcDbArc
 50
107.4189749383768
 51
175.2363583092744
  0
ARC
  5
13C
330
1F
100
AcDbEntity
  8
ストール
  6
CONTINUOUS
 62
     2
100
AcDbCircle
 10
698.0000000000001
 20
1141.735460347859
 30
0.0
 40
156.7354603478594
100
AcDbArc
 50
287.4189749383769
 51
346.3220538730159
  0
ARC
  5
13D
330
1F
100
AcDbEntity
  8
ストール
  6
CONTINUOUS
 62
     2
100
AcDbCircle
 10
500.5000000000001
 20
1189.80024038477
 30
0.0
 40
360.0
100
AcDbArc
 50
346.3220538730162
 51
353.2398100617206
  0
ARC
  5
13E
330
1F
100
AcDbEntity
  8
ストール
  6
CONTINUOUS
 62
     2
100
AcDbCircle
 10
882.8233019227747
 20
1144.48034622264
 30
0.0
 40
25.00000000000002
100
AcDbArc
 50
115.4285370396657
 51
173.2398100617204
  0
LINE
  5
13F
330
1F
100
AcDbEntity
  8
ストール
  6
CONTINUOUS
 62
     2
100
AcDbLine
 10
884.4396271497868
 20
1172.930587503611
 30
0.0
 11
872.0886769191176
 21
1167.058384800667
 31
0.0
  0
ARC
  5
140
330
1F
100
AcDbEntity
  8
ストール
  6
CONTINUOUS
 62
     2
100
AcDbCircle
 10
877.9988521475926
 20
1186.477410650427
 30
0.0
 40
15.00000000000001
100
AcDbArc
 50
295.4285370396659
 51
359.9995954441174
  0
LINE
  5
141
330
1F
100
AcDbEntity
  8
ストール
  6
CONTINUOUS
 62
     2
100
AcDbLine
 10
892.9991857719762
 20
1233.727366685169
 30
0.0
 11
892.9988521472188
 21
1186.477304737944
 31
0.0
  0
ARC
  5
142
330
1F
100
AcDbEntity
  8
ストール
  6
CONTINUOUS
 62
     2
100
AcDbCircle
 10
877.99918577235
 20
1233.727472597651
 30
0.0
 40
15.00000000000001
100
AcDbArc
 50
359.9995954441174
 51
63.44628203354061
  0
ARC
  5
143
330
1F
100
AcDbEntity
  8
ストール
  6
CONTINUOUS
 62
     2
100
AcDbCircle
 10
706.1282915932012
 20
1232.426590175262
 30
0.0
 40
150.0
100
AcDbArc
 50
11.71142885672239
 51
11.76059159007294
  0
LINE
  5
144
330
1F
100
AcDbEntity
  8
ストール
  6
CONTINUOUS
 62
     2
100
AcDbLine
 10
1708.999723212123
 20
1374.047055567201
 30
0.0
 11
1790.0
 21
1375.0
 31
0.0
  0
LINE
  5
145
330
1F
100
AcDbEntity
  8
ストール
  6
CONTINUOUS
 62
     2
100
AcDbLine
 10
1518.761312363428
 20
1089.844135933168
 30
0.0
 11
1595.050383933906
 21
1109.35191421676
 31
0.0
  0
ARC
  5
146
330
1F
100
AcDbEntity
  8
ストール
  6
CONTINUOUS
 62
     2
100
AcDbCircle
 10
1565.837421384334
 20
1037.582312896396
 30
0.0
 40
30.0
100
AcDbArc
 50
204.0060730534725
 51
255.9330347312261
  0
ARC
  5
147
330
1F
100
AcDbEntity
  8
ストール
  6
CONTINUOUS
 62
     2
100
AcDbCircle
 10
2269.23422360814
 20
1350.844086212776
 30
0.0
 40
800.0
100
AcDbArc
 50
199.5357570956488
 51
204.0060730534726
  0
ARC
  5
148
330
1F
100
AcDbEntity
  8
ストール
  6
CONTINUOUS
 62
     2
100
AcDbCircle
 10
1573.992694112202
 20
1191.702225080611
 30
0.0
 40
85.0
100
AcDbArc
 50
284.3436709980515
 51
341.5723891737578
  0
ARC
  5
149
330
1F
100
AcDbEntity
  8
ストール
  6
CONTINUOUS
 62
     2
100
AcDbCircle
 10
323.9468327186896
 20
1599.88152932441
 30
0.0
 40
1400.0
100
AcDbArc
 50
341.9165105561303
 51
350.5766643922401
  0
LINE
  5
14A
330
1F
100
AcDbEntity
  8
ストール
  6
CONTINUOUS
 62
     2
100
AcDbLine
 10
1790.0
 20
1375.0
 30
0.0
 11
1790.0
 21
984.9999999999998
 31
0.0
  0
LINE
  5
14B
330
1F
100
AcDbEntity
  8
ストール
  6
CONTINUOUS
 62
     2
100
AcDbLine
 10
1697.236135140403
 20
975.0
 30
0.0
 11
1706.914454087576
 21
975.0
 31
0.0
  0
LINE
  5
14C
330
1F
100
AcDbEntity
  8
ストール
  6
CONTINUOUS
 62
     2
100
AcDbLine
 10
1772.763864859596
 20
975.0
 30
0.0
 11
1763.085545912423
 21
975.0
 31
0.0
  0
ARC
  5
14D
330
1F
100
AcDbEntity
  8
ストール
  6
CONTINUOUS
 62
     2
100
AcDbCircle
 10
1752.990369854363
 20
1784.491794613542
 30
0.0
 40
800.0000000000006
100
AcDbArc
 50
255.9330347312261
 51
265.2389419145153
  0
LINE
  5
14E
330
1F
100
AcDbEntity
  8
ストール
  6
CONTINUOUS
 62
     2
100
AcDbLine
 10
1790.0
 20
984.9999999999998
 30
0.0
 11
1782.79852700859
 21
984.9999999999998
 31
0.0
  0
LINE
  5
14F
330
1F
100
AcDbEntity
  8
ストール
  6
CONTINUOUS
 62
     2
100
AcDbLine
 10
1777.815798217365
 20
980.4152273992684
 30
0.0
 11
1777.74659365082
 21
979.5847726007312
 31
0.0
  0
ARC
  5
150
330
1F
100
AcDbEntity
  8
ストール
  6
CONTINUOUS
 62
     2
100
AcDbCircle
 10
1772.763864859596
 20
979.9999999999998
 30
0.0
 40
5.0
100
AcDbArc
 50
270.0000000000002
 51
355.2363583092751
  0
ARC
  5
151
330
1F
100
AcDbEntity
  8
ストール
  6
CONTINUOUS
 62
     2
100
AcDbCircle
 10
1782.79852700859
 20
979.9999999999998
 30
0.0
 40
5.0
100
AcDbArc
 50
90.00000000000001
 51
175.2363583092741
  0
ARC
  5
152
330
1F
100
AcDbEntity
  8
ストール
  6
CONTINUOUS
 62
     2
100
AcDbCircle
 10
1697.236135140403
 20
979.9999999999998
 30
0.0
 40
5.0
100
AcDbArc
 50
184.7636416907247
 51
270.0000000000002
  0
LINE
  5
153
330
1F
100
AcDbEntity
  8
ストール
  6
CONTINUOUS
 62
     2
100
AcDbLine
 10
1692.071206656041
 20
981.7711689183698
 30
0.0
 11
1692.253406349178
 21
979.58477260073
 31
0.0
  0
ARC
  5
154
330
1F
100
AcDbEntity
  8
ストール
  6
CONTINUOUS
 62
     2
100
AcDbCircle
 10
1686.091932106572
 20
981.2728960392456
 30
0.0
 40
6.000000000000004
100
AcDbArc
 50
4.763641690742838
 51
85.23894191451542
  0
ARC
  5
155
330
1F
100
AcDbEntity
  8
ストール
  6
CONTINUOUS
 62
     2
100
AcDbCircle
 10
1709.047335630561
 20
1370.0
 30
0.0
 40
4.047335630550606
100
AcDbArc
 50
90.674036897983
 51
170.5766643915991
  0
CIRCLE
  5
156
330
1F
100
AcDbEntity
  8
ストール
  6
EXLTYPE1
 62
     2
100
AcDbCircle
 10
697.9999237000001
 20
2343.0
 30
0.0
 40
14.5
  0
ARC
  5
157
330
1F
100
AcDbEntity
  8
ストール
  6
CONTINUOUS
 62
     2
100
AcDbCircle
 10
1519.999999999999
 20
1085.0
 30
0.0
 40
5.0
100
AcDbArc
 50
104.3436709980512
 51
199.5357570956476
  0
LINE
  5
158
330
1F
100
AcDbEntity
  8
ストール
  6
CONTINUOUS
 62
     4
100
AcDbLine
 10
781.781493665929
 20
2385.643344710391
 30
0.0
 11
773.9009475908438
 21
2318.658703072166
 31
0.0
  0
LINE
  5
159
330
1F
100
AcDbEntity
  8
ストール
  6
CONTINUOUS
 62
     4
100
AcDbLine
 10
614.1159646555733
 20
2386.513651877626
 30
0.0
 11
622.2695482733209
 21
2317.208191126773
 31
0.0
  0
LINE
  5
15A
330
1F
100
AcDbEntity
  8
ストール
  6
CONTINUOUS
 62
     4
100
AcDbLine
 10
1770.0
 20
996.9999999999902
 30
0.0
 11
1700.0
 21
996.9999999999902
 31
0.0
  0
LINE
  5
15B
330
1F
100
AcDbEntity
  8
ストール
  6
CONTINUOUS
 62
     4
100
AcDbLine
 10
744.55
 20
996.6500000000001
 30
0.0
 11
736.15
 21
1007.15
 31
0.0
  0
LINE
  5
15C
330
1F
100
AcDbEntity
  8
ストール
  6
CONTINUOUS
 62
     4
100
AcDbLine
 10
651.4500000000002
 20
996.6500000000001
 30
0.0
 11
659.8500000000001
 21
1007.15
 31
0.0
  0
ARC
  5
15D
330
1F
100
AcDbEntity
  8
ストール
  6
CONTINUOUS
 62
     4
100
AcDbCircle
 10
698.0000000000001
 20
1812.00230856998
 30
0.0
 40
800.0
100
AcDbArc
 50
267.7820404187896
 51
271.9920878646822
  0
ARC
  5
15E
330
1F
100
AcDbEntity
  8
ストール
  6
CONTINUOUS
 62
     4
100
AcDbCircle
 10
243.0020986183849
 20
1083.551340626418
 30
0.0
 40
500.0
100
AcDbArc
 50
353.1123663313122
 51
359.5324863066327
  0
ARC
  5
15F
330
1F
100
AcDbEntity
  8
ストール
  6
CONTINUOUS
 62
     4
100
AcDbCircle
 10
1152.997901381615
 20
1083.551340626418
 30
0.0
 40
500.0
100
AcDbArc
 50
180.4675136933673
 51
186.8876336686878
  0
ARC
  5
160
330
1F
100
AcDbEntity
  8
ストール
  6
CONTINUOUS
 62
     4
100
AcDbCircle
 10
500.5000000000001
 20
1189.80024038477
 30
0.0
 40
360.0
100
AcDbArc
 50
355.4113958827711
 51
11.71142885672228
  0
ARC
  5
161
330
1F
100
AcDbEntity
  8
ストール
  6
CONTINUOUS
 62
     4
100
AcDbCircle
 10
895.5000000000001
 20
1189.80024038477
 30
0.0
 40
360.0
100
AcDbArc
 50
168.2885711432777
 51
184.588604117229
  0
LINE
  5
162
330
1F
100
AcDbEntity
  8
ストール
  6
CONTINUOUS
 62
     2
100
AcDbLine
 10
622.9999237000001
 20
2311.0
 30
0.0
 11
676.73368284795
 21
2311.0
 31
0.0
  0
LINE
  5
163
330
1F
100
AcDbEntity
  8
ストール
  6
CONTINUOUS
 62
     2
100
AcDbLine
 10
719.26616455205
 20
2311.0
 30
0.0
 11
772.9999237000006
 21
2311.0
 31
0.0
  0
LINE
  5
164
330
1F
100
AcDbEntity
  8
ストール
  6
EXLTYPE1
 62
     2
100
AcDbLine
 10
676.73368284795
 20
2311.0
 30
0.0
 11
719.26616455205
 21
2311.0
 31
0.0
  0
LINE
  5
165
330
1F
100
AcDbEntity
  8
ストール
  6
EXLTYPE1
 62
     4
100
AcDbLine
 10
720.5019836500006
 20
955.0000000000002
 30
0.0
 11
675.4980163499996
 21
955.0000000000002
 31
0.0
  0
LINE
  5
166
330
1F
100
AcDbEntity
  8
ストール
  6
EXLTYPE1
 62
     4
100
AcDbLine
 10
679.1965942499984
 20
946.8681336000006
 30
0.0
 11
716.7994385500007
 21
946.8681336000006
 31
0.0
  0
LINE
  5
167
330
1F
100
AcDbEntity
  8
ストール
  6
EXLTYPE1
 62
     4
100
AcDbLine
 10
679.1965942499984
 20
939.470977800001
 30
0.0
 11
716.7994385500007
 21
939.470977800001
 31
0.0
  0
LINE
  5
168
330
1F
100
AcDbEntity
  8
ストール
  6
EXLTYPE1
 62
     4
100
AcDbLine
 10
1757.50198365
 20
955.0
 30
0.0
 11
1712.498016349998
 21
955.0
 31
0.0
  0
LINE
  5
169
330
1F
100
AcDbEntity
  8
ストール
  6
EXLTYPE1
 62
     4
100
AcDbLine
 10
1716.196594249998
 20
946.8681336000004
 30
0.0
 11
1753.79943855
 21
946.8681336000004
 31
0.0
  0
LINE
  5
16A
330
1F
100
AcDbEntity
  8
ストール
  6
EXLTYPE1
 62
     4
100
AcDbLine
 10
1716.196594249998
 20
939.4709778000008
 30
0.0
 11
1753.79943855
 21
939.4709778000008
 31
0.0
  0
LINE
  5
16B
330
1F
100
AcDbEntity
  8
ストール
  6
CONTINUOUS
 62
     2
100
AcDbLine
 10
862.018761074221
 20
1258.482585845082
 30
0.0
 11
884.704735783472
 21
1247.145207095261
 31
0.0
  0
ARC
  5
16C
330
1F
100
AcDbEntity
  8
ストール
  6
CONTINUOUS
 62
     7
100
AcDbCircle
 10
873.1946777594331
 20
1280.845476674427
 30
0.0
 40
25.0
100
AcDbArc
 50
200.5161209203278
 51
243.4462820335413
  0
LINE
  5
16D
330
1F
100
AcDbEntity
  8
ストール
  6
CONTINUOUS
 62
     2
100
AcDbLine
 10
1777.99880985
 20
1159.6649475
 30
0.0
 11
1771.49871825
 21
1153.7726135
 31
0.0
  0
LINE
  5
16E
330
1F
100
AcDbEntity
  8
ストール
  6
CONTINUOUS
 62
     2
100
AcDbLine
 10
1777.99942015
 20
1256.6588135
 30
0.0
 11
1777.99880985
 21
1159.6649475
 31
0.0
  0
LINE
  5
16F
330
1F
100
AcDbEntity
  8
ストール
  6
CONTINUOUS
 62
     2
100
AcDbLine
 10
1771.49932865
 20
1264.518158
 30
0.0
 11
1777.99942015
 21
1256.6588135
 31
0.0
  0
LINE
  5
170
330
1F
100
AcDbEntity
  8
ストール
  6
EXLTYPE3
 62
     6
100
AcDbLine
 10
1767.1
 20
1227.0
 30
0.0
 11
1801.0
 21
1227.0
 31
0.0
  0
ARC
  5
171
330
1F
100
AcDbEntity
  8
ストール
  6
CONTINUOUS
 62
     6
100
AcDbCircle
 10
1777.99926765
 20
1226.9998474
 30
0.0
 40
8.000001900000004
100
AcDbArc
 50
89.99945067999933
 51
269.9995117199976
  0
LINE
  5
172
330
1F
100
AcDbEntity
  8
ストール
  6
CONTINUOUS
 62
     6
100
AcDbLine
 10
1797.999267649999
 20
1223.9999695
 30
0.0
 11
1797.999267649999
 21
1230.0000305
 31
0.0
  0
LINE
  5
173
330
1F
100
AcDbEntity
  8
ストール
  6
CONTINUOUS
 62
     6
100
AcDbLine
 10
1789.99908455
 20
1223.9999695
 30
0.0
 11
1820.85784915
 21
1223.9999695
 31
0.0
  0
ARC
  5
174
330
1F
100
AcDbEntity
  8
ストール
  6
CONTINUOUS
 62
     6
100
AcDbCircle
 10
1820.85784915
 20
1233.9999695
 30
0.0
 40
10.0
100
AcDbArc
 50
270.0000000000002
 51
315.5734863299994
  0
ARC
  5
175
330
1F
100
AcDbEntity
  8
ストール
  6
CONTINUOUS
 62
     6
100
AcDbCircle
 10
1820.85784915
 20
1220.0000305
 30
0.0
 40
10.0
100
AcDbArc
 50
44.42662048000054
 51
90.00000000000001
  0
LINE
  5
176
330
1F
100
AcDbEntity
  8
ストール
  6
CONTINUOUS
 62
     6
100
AcDbLine
 10
1789.99908455
 20
1230.0000305
 30
0.0
 11
1820.85784915
 21
1230.0000305
 31
0.0
  0
LINE
  5
177
330
1F
100
AcDbEntity
  8
ストール
  6
EXLTYPE3
 62
     6
100
AcDbLine
 10
1767.1
 20
1190.0
 30
0.0
 11
1801.0
 21
1190.0
 31
0.0
  0
LINE
  5
178
330
1F
100
AcDbEntity
  8
ストール
  6
CONTINUOUS
 62
     6
100
AcDbLine
 10
1789.99893195
 20
1192.9996473142
 30
0.0
 11
1820.85754395
 21
1192.9996473142
 31
0.0
  0
ARC
  5
179
330
1F
100
AcDbEntity
  8
ストール
  6
CONTINUOUS
 62
     6
100
AcDbCircle
 10
1820.85754395
 20
1182.9996473142
 30
0.0
 40
10.0
100
AcDbArc
 50
44.42662048000054
 51
90.00000000000001
  0
ARC
  5
17A
330
1F
100
AcDbEntity
  8
ストール
  6
CONTINUOUS
 62
     6
100
AcDbCircle
 10
1820.85754395
 20
1196.9995863142
 30
0.0
 40
10.0
100
AcDbArc
 50
270.0000000000002
 51
315.5734863299994
  0
LINE
  5
17B
330
1F
100
AcDbEntity
  8
ストール
  6
CONTINUOUS
 62
     6
100
AcDbLine
 10
1789.99893195
 20
1186.9995863142
 30
0.0
 11
1820.85754395
 21
1186.9995863142
 31
0.0
  0
LINE
  5
17C
330
1F
100
AcDbEntity
  8
ストール
  6
CONTINUOUS
 62
     6
100
AcDbLine
 10
1797.99896245
 20
1186.9995863142
 30
0.0
 11
1797.99896245
 21
1192.9996473142
 31
0.0
  0
ARC
  5
17D
330
1F
100
AcDbEntity
  8
ストール
  6
CONTINUOUS
 62
     6
100
AcDbCircle
 10
1777.99896245
 20
1189.9997694142
 30
0.0
 40
8.000001900000004
100
AcDbArc
 50
89.99945067999933
 51
269.9995117199976
  0
LINE
  5
17E
330
1F
100
AcDbEntity
  8
水栓
  6
CONTINUOUS
 62
     6
100
AcDbLine
 10
680.5000000000003
 20
1363.00000000009
 30
0.0
 11
680.5000000000003
 21
1361.00000000009
 31
0.0
  0
LINE
  5
17F
330
1F
100
AcDbEntity
  8
水栓
  6
CONTINUOUS
 62
     6
100
AcDbLine
 10
715.5000000000003
 20
1361.00000000009
 30
0.0
 11
715.5000000000003
 21
1363.00000000009
 31
0.0
  0
LINE
  5
180
330
1F
100
AcDbEntity
  8
水栓
  6
CONTINUOUS
 62
     6
100
AcDbLine
 10
687.5000000000003
 20
1353.00000000009
 30
0.0
 11
687.5000000000003
 21
1346.20156326649
 31
0.0
  0
LINE
  5
181
330
1F
100
AcDbEntity
  8
水栓
  6
CONTINUOUS
 62
     6
100
AcDbLine
 10
708.5000000000003
 20
1346.19041575999
 30
0.0
 11
708.5000000000003
 21
1353.00000000009
 31
0.0
  0
LINE
  5
182
330
1F
100
AcDbEntity
  8
水栓
  6
CONTINUOUS
 62
     6
100
AcDbLine
 10
689.0000000000003
 20
1361.00000000009
 30
0.0
 11
689.0000000000003
 21
1353.00000000009
 31
0.0
  0
LINE
  5
183
330
1F
100
AcDbEntity
  8
水栓
  6
CONTINUOUS
 62
     6
100
AcDbLine
 10
707.0000000000003
 20
1353.00000000009
 30
0.0
 11
707.0000000000003
 21
1361.00000000009
 31
0.0
  0
LINE
  5
184
330
1F
100
AcDbEntity
  8
水栓
  6
CONTINUOUS
 62
     6
100
AcDbLine
 10
678.0000000000003
 20
1363.00000000009
 30
0.0
 11
718.0000000000003
 21
1363.00000000009
 31
0.0
  0
LINE
  5
185
330
1F
100
AcDbEntity
  8
水栓
  6
CONTINUOUS
 62
     6
100
AcDbLine
 10
680.5000000000003
 20
1361.00000000009
 30
0.0
 11
715.5000000000003
 21
1361.00000000009
 31
0.0
  0
CIRCLE
  5
186
330
1F
100
AcDbEntity
  8
水栓
  6
CONTINUOUS
 62
     6
100
AcDbCircle
 10
698.0000000000003
 20
1341.50000000009
 30
0.0
 40
11.50000000000001
  0
LINE
  5
187
330
1F
100
AcDbEntity
  8
水栓
  6
CONTINUOUS
 62
     6
100
AcDbLine
 10
687.5000000000003
 20
1353.00000000009
 30
0.0
 11
698.0000000000003
 21
1353.00000000009
 31
0.0
  0
LINE
  5
188
330
1F
100
AcDbEntity
  8
水栓
  6
CONTINUOUS
 62
     6
100
AcDbLine
 10
698.0000000000003
 20
1353.00000000009
 30
0.0
 11
708.5000000000003
 21
1353.00000000009
 31
0.0
  0
LINE
  5
189
330
1F
100
AcDbEntity
  8
水栓
  6
CONTINUOUS
 62
     6
100
AcDbLine
 10
711.5000000000003
 20
1341.50000000009
 30
0.0
 11
709.4883275599999
 21
1342.01800567059
 31
0.0
  0
LINE
  5
18A
330
1F
100
AcDbEntity
  8
水栓
  6
CONTINUOUS
 62
     6
100
AcDbLine
 10
684.5000000000003
 20
1341.50000000009
 30
0.0
 11
686.5116724400999
 21
1342.01800567059
 31
0.0
  0
ARC
  5
18B
330
1F
100
AcDbEntity
  8
水栓
  6
CONTINUOUS
 62
     6
100
AcDbCircle
 10
697.9999999602
 20
1341.50000000719
 30
0.0
 40
13.50000004047853
100
AcDbArc
 50
359.9999999702001
 51
38.94244121240003
  0
ARC
  5
18C
330
1F
100
AcDbEntity
  8
水栓
  6
CONTINUOUS
 62
     6
100
AcDbCircle
 10
697.9999999602
 20
1341.50000000719
 30
0.0
 40
13.50000004047854
100
AcDbArc
 50
141.0575582492
 51
180.0000000298
  0
LINE
  5
18D
330
1F
100
AcDbEntity
  8
水栓
  6
CONTINUOUS
 62
     6
100
AcDbLine
 10
673.0000000000003
 20
1346.50000000009
 30
0.0
 11
673.0000000000003
 21
1341.50000000009
 31
0.0
  0
ARC
  5
18E
330
1F
100
AcDbEntity
  8
水栓
  6
CONTINUOUS
 62
     6
100
AcDbCircle
 10
698.0000000000003
 20
1313.98529411779
 30
0.0
 40
41.01470588235298
100
AcDbArc
 50
102.6757612497
 51
127.5560664449
  0
LINE
  5
18F
330
1F
100
AcDbEntity
  8
水栓
  6
CONTINUOUS
 62
     6
100
AcDbLine
 10
684.5000000000003
 20
1341.50000000009
 30
0.0
 11
673.0000000000003
 21
1341.50000000009
 31
0.0
  0
ARC
  5
190
330
1F
100
AcDbEntity
  8
水栓
  6
CONTINUOUS
 62
     6
100
AcDbCircle
 10
698.0000000000003
 20
1313.98529411779
 30
0.0
 40
41.01470588235296
100
AcDbArc
 50
52.4439335551
 51
77.32423875030003
  0
LINE
  5
191
330
1F
100
AcDbEntity
  8
水栓
  6
CONTINUOUS
 62
     6
100
AcDbLine
 10
723.0000000000003
 20
1346.50000000009
 30
0.0
 11
723.0000000000003
 21
1341.50000000009
 31
0.0
  0
LINE
  5
192
330
1F
100
AcDbEntity
  8
水栓
  6
CONTINUOUS
 62
     6
100
AcDbLine
 10
723.0000000000003
 20
1341.50000000009
 30
0.0
 11
711.5000000000003
 21
1341.50000000009
 31
0.0
  0
LINE
  5
193
330
1F
100
AcDbEntity
  8
水栓
  6
CONTINUOUS
 62
     6
100
AcDbLine
 10
686.6752483471004
 20
1339.50000000009
 30
0.0
 11
684.7335008386002
 21
1339.00000000009
 31
0.0
  0
ARC
  5
194
330
1F
100
AcDbEntity
  8
水栓
  6
CONTINUOUS
 62
     6
100
AcDbCircle
 10
698.0000000000003
 20
1341.50000000009
 30
0.0
 40
13.50000000000001
100
AcDbArc
 50
180.0
 51
190.6719292858
  0
LINE
  5
195
330
1F
100
AcDbEntity
  8
水栓
  6
CONTINUOUS
 62
     6
100
AcDbLine
 10
709.3247516529003
 20
1339.50000000009
 30
0.0
 11
711.2664991614996
 21
1339.00000000009
 31
0.0
  0
ARC
  5
196
330
1F
100
AcDbEntity
  8
水栓
  6
CONTINUOUS
 62
     6
100
AcDbCircle
 10
698.0000000000003
 20
1341.50000000009
 30
0.0
 40
13.50000000000001
100
AcDbArc
 50
349.3280707142002
 51
0.0
  0
CIRCLE
  5
197
330
1F
100
AcDbEntity
  8
水栓
  6
CONTINUOUS
 62
     6
100
AcDbCircle
 10
698.0000000000003
 20
1340.88369173849
 30
0.0
 40
10.5
  0
LINE
  5
198
330
1F
100
AcDbEntity
  8
水栓
  6
CONTINUOUS
 62
     6
100
AcDbLine
 10
678.0000000000003
 20
1365.919612849307
 30
0.0
 11
678.0000000000003
 21
1363.00000000009
 31
0.0
  0
LINE
  5
199
330
1F
100
AcDbEntity
  8
水栓
  6
CONTINUOUS
 62
     6
100
AcDbLine
 10
718.0000000000003
 20
1363.00000000009
 30
0.0
 11
718.0000000000003
 21
1365.919612849307
 31
0.0
  0
TEXT
  5
19A
330
1F
100
AcDbEntity
  8
水栓
  6
CONTINUOUS
 62
     2
100
AcDbText
 10
1822.979005785601
 20
1642.972326876101
 30
0.0
 40
40.0
  1
ＰＪ ／
 41
0.8020833333333334
  7
EXCADSTD
 72
     5
 11
1932.979005785601
 21
1642.972326876101
 31
0.0
100
AcDbText
  0
LINE
  5
19B
330
1F
100
AcDbEntity
  8
水栓
  6
CONTINUOUS
 62
     6
100
AcDbLine
 10
678.0002737285998
 20
1380.0
 30
0.0
 11
718.0002737285998
 21
1380.0
 31
0.0
  0
LINE
  5
19C
330
1F
100
AcDbEntity
  8
水栓
  6
CONTINUOUS
 62
     6
100
AcDbLine
 10
684.5002127286001
 20
1385.0
 30
0.0
 11
685.5878591286004
 21
1385.0
 31
0.0
  0
ARC
  5
19D
330
1F
100
AcDbEntity
  8
水栓
  6
CONTINUOUS
 62
     6
100
AcDbCircle
 10
691.2502432286004
 20
1375.0619507
 30
0.0
 40
11.4379787
100
AcDbArc
 50
60.32684325999991
 51
119.6731567399999
  0
LINE
  5
19E
330
1F
100
AcDbEntity
  8
水栓
  6
CONTINUOUS
 62
     6
100
AcDbLine
 10
696.9126272286006
 20
1385.0
 30
0.0
 11
699.0883779285999
 21
1385.0
 31
0.0
  0
ARC
  5
19F
330
1F
100
AcDbEntity
  8
水栓
  6
CONTINUOUS
 62
     6
100
AcDbCircle
 10
704.7504568285998
 20
1375.0634766
 30
0.0
 40
11.4364338
100
AcDbArc
 50
60.32504271999996
 51
119.67556763
  0
LINE
  5
1A0
330
1F
100
AcDbEntity
  8
水栓
  6
CONTINUOUS
 62
     6
100
AcDbLine
 10
710.4123831286
 20
1385.0
 30
0.0
 11
711.5003347286005
 21
1385.0
 31
0.0
  0
LINE
  5
1A1
330
1F
100
AcDbEntity
  8
水栓
  6
CONTINUOUS
 62
     6
100
AcDbLine
 10
685.5878591286004
 20
1385.0
 30
0.0
 11
685.5878591286004
 21
1380.0
 31
0.0
  0
LINE
  5
1A2
330
1F
100
AcDbEntity
  8
水栓
  6
CONTINUOUS
 62
     6
100
AcDbLine
 10
696.9126272286006
 20
1385.0
 30
0.0
 11
696.9126272286006
 21
1380.0
 31
0.0
  0
LINE
  5
1A3
330
1F
100
AcDbEntity
  8
水栓
  6
CONTINUOUS
 62
     6
100
AcDbLine
 10
699.0883779285999
 20
1385.0
 30
0.0
 11
699.0883779285999
 21
1380.0
 31
0.0
  0
LINE
  5
1A4
330
1F
100
AcDbEntity
  8
水栓
  6
CONTINUOUS
 62
     6
100
AcDbLine
 10
710.4123831286
 20
1385.0
 30
0.0
 11
710.4123831286
 21
1380.0
 31
0.0
  0
LINE
  5
1A5
330
1F
100
AcDbEntity
  8
水栓
  6
CONTINUOUS
 62
     6
100
AcDbLine
 10
684.5002127286001
 20
1385.0
 30
0.0
 11
684.5002127286001
 21
1380.0
 31
0.0
  0
LINE
  5
1A6
330
1F
100
AcDbEntity
  8
水栓
  6
CONTINUOUS
 62
     6
100
AcDbLine
 10
684.5002127286001
 20
1385.0
 30
0.0
 11
685.5878591286004
 21
1386.499939
 31
0.0
  0
LINE
  5
1A7
330
1F
100
AcDbEntity
  8
水栓
  6
CONTINUOUS
 62
     6
100
AcDbLine
 10
685.5878591286004
 20
1386.499939
 30
0.0
 11
710.4123831286
 21
1386.499939
 31
0.0
  0
LINE
  5
1A8
330
1F
100
AcDbEntity
  8
水栓
  6
CONTINUOUS
 62
     6
100
AcDbLine
 10
710.4123831286
 20
1386.499939
 30
0.0
 11
711.5003347286005
 21
1385.0
 31
0.0
  0
LINE
  5
1A9
330
1F
100
AcDbEntity
  8
水栓
  6
CONTINUOUS
 62
     6
100
AcDbLine
 10
711.5003347286005
 20
1385.0
 30
0.0
 11
711.5003347286005
 21
1380.0
 31
0.0
  0
LINE
  5
1AA
330
1F
100
AcDbEntity
  8
水栓
  6
CONTINUOUS
 62
     6
100
AcDbLine
 10
685.5002737285998
 20
1386.499939
 30
0.0
 11
685.5002737285998
 21
1389.9998475
 31
0.0
  0
LINE
  5
1AB
330
1F
100
AcDbEntity
  8
水栓
  6
CONTINUOUS
 62
     6
100
AcDbLine
 10
710.5002737285998
 20
1386.499939
 30
0.0
 11
710.5002737285998
 21
1389.9998475
 31
0.0
  0
POLYLINE
  5
1AC
330
1F
100
AcDbEntity
  8
水栓
  6
CONTINUOUS
 62
     6
100
AcDb2dPolyline
 66
     1
 10
0.0
 20
0.0
 30
0.0
 70
   128
  0
VERTEX
  5
1AD
330
1AC
100
AcDbEntity
  8
水栓
  6
CONTINUOUS
 62
     6
100
AcDbVertex
100
AcDb2dVertex
 10
696.7197561286006
 20
1394.6365357
 30
0.0
  0
VERTEX
  5
1AE
330
1AC
100
AcDbEntity
  8
水栓
  6
CONTINUOUS
 62
     6
100
AcDbVertex
100
AcDb2dVertex
 10
696.8265676286004
 20
1395.0851441
 30
0.0
  0
VERTEX
  5
1AF
330
1AC
100
AcDbEntity
  8
水栓
  6
CONTINUOUS
 62
     6
100
AcDbVertex
100
AcDb2dVertex
 10
696.8911123286001
 20
1395.5407715
 30
0.0
  0
VERTEX
  5
1B0
330
1AC
100
AcDbEntity
  8
水栓
  6
CONTINUOUS
 62
     6
100
AcDbVertex
100
AcDb2dVertex
 10
696.9126272286006
 20
1395.9996033
 30
0.0
  0
SEQEND
  5
1B1
330
1AC
100
AcDbEntity
  8
水栓
  6
CONTINUOUS
 62
     6
  0
POLYLINE
  5
1B2
330
1F
100
AcDbEntity
  8
水栓
  6
CONTINUOUS
 62
     6
100
AcDb2dPolyline
 66
     1
 10
0.0
 20
0.0
 30
0.0
 70
   128
  0
VERTEX
  5
1B3
330
1B2
100
AcDbEntity
  8
水栓
  6
CONTINUOUS
 62
     6
100
AcDbVertex
100
AcDb2dVertex
 10
693.6432791286
 20
1391.2258912
 30
0.0
  0
VERTEX
  5
1B4
330
1B2
100
AcDbEntity
  8
水栓
  6
CONTINUOUS
 62
     6
100
AcDbVertex
100
AcDb2dVertex
 10
694.0815115285999
 20
1391.4379883
 30
0.0
  0
VERTEX
  5
1B5
330
1B2
100
AcDbEntity
  8
水栓
  6
CONTINUOUS
 62
     6
100
AcDbVertex
100
AcDb2dVertex
 10
694.4980764286005
 20
1391.6848755
 30
0.0
  0
VERTEX
  5
1B6
330
1B2
100
AcDbEntity
  8
水栓
  6
CONTINUOUS
 62
     6
100
AcDbVertex
100
AcDb2dVertex
 10
694.8899221286005
 20
1391.9645691
 30
0.0
  0
VERTEX
  5
1B7
330
1B2
100
AcDbEntity
  8
水栓
  6
CONTINUOUS
 62
     6
100
AcDbVertex
100
AcDb2dVertex
 10
695.2541494286
 20
1392.2750855
 30
0.0
  0
VERTEX
  5
1B8
330
1B2
100
AcDbEntity
  8
水栓
  6
CONTINUOUS
 62
     6
100
AcDbVertex
100
AcDb2dVertex
 10
695.5878591286004
 20
1392.6138306
 30
0.0
  0
VERTEX
  5
1B9
330
1B2
100
AcDbEntity
  8
水栓
  6
CONTINUOUS
 62
     6
100
AcDbVertex
100
AcDb2dVertex
 10
695.8886099286004
 20
1392.9783631
 30
0.0
  0
VERTEX
  5
1BA
330
1B2
100
AcDbEntity
  8
水栓
  6
CONTINUOUS
 62
     6
100
AcDbVertex
100
AcDb2dVertex
 10
696.1541128286002
 20
1393.3659363
 30
0.0
  0
VERTEX
  5
1BB
330
1B2
100
AcDbEntity
  8
水栓
  6
CONTINUOUS
 62
     6
100
AcDbVertex
100
AcDb2dVertex
 10
696.3820791286001
 20
1393.7734986
 30
0.0
  0
VERTEX
  5
1BC
330
1B2
100
AcDbEntity
  8
水栓
  6
CONTINUOUS
 62
     6
100
AcDbVertex
100
AcDb2dVertex
 10
696.5711355286006
 20
1394.1979981
 30
0.0
  0
VERTEX
  5
1BD
330
1B2
100
AcDbEntity
  8
水栓
  6
CONTINUOUS
 62
     6
100
AcDbVertex
100
AcDb2dVertex
 10
696.7197561286006
 20
1394.6365357
 30
0.0
  0
SEQEND
  5
1BE
330
1B2
100
AcDbEntity
  8
水栓
  6
CONTINUOUS
 62
     6
  0
POLYLINE
  5
1BF
330
1F
100
AcDbEntity
  8
水栓
  6
CONTINUOUS
 62
     6
100
AcDb2dPolyline
 66
     1
 10
0.0
 20
0.0
 30
0.0
 70
   128
  0
VERTEX
  5
1C0
330
1BF
100
AcDbEntity
  8
水栓
  6
CONTINUOUS
 62
     6
100
AcDbVertex
100
AcDb2dVertex
 10
696.9126272286006
 20
1396.0002137
 30
0.0
  0
VERTEX
  5
1C1
330
1BF
100
AcDbEntity
  8
水栓
  6
CONTINUOUS
 62
     6
100
AcDbVertex
100
AcDb2dVertex
 10
696.8909597286005
 20
1396.4593506
 30
0.0
  0
VERTEX
  5
1C2
330
1BF
100
AcDbEntity
  8
水栓
  6
CONTINUOUS
 62
     6
100
AcDbVertex
100
AcDb2dVertex
 10
696.8265676286004
 20
1396.9152832
 30
0.0
  0
VERTEX
  5
1C3
330
1BF
100
AcDbEntity
  8
水栓
  6
CONTINUOUS
 62
     6
100
AcDbVertex
100
AcDb2dVertex
 10
696.7197561286006
 20
1397.3635865
 30
0.0
  0
VERTEX
  5
1C4
330
1BF
100
AcDbEntity
  8
水栓
  6
CONTINUOUS
 62
     6
100
AcDbVertex
100
AcDb2dVertex
 10
696.5711355286006
 20
1397.8018189
 30
0.0
  0
VERTEX
  5
1C5
330
1BF
100
AcDbEntity
  8
水栓
  6
CONTINUOUS
 62
     6
100
AcDbVertex
100
AcDb2dVertex
 10
696.3822317286007
 20
1398.2266236
 30
0.0
  0
VERTEX
  5
1C6
330
1BF
100
AcDbEntity
  8
水栓
  6
CONTINUOUS
 62
     6
100
AcDbVertex
100
AcDb2dVertex
 10
696.1541128286002
 20
1398.6340332
 30
0.0
  0
VERTEX
  5
1C7
330
1BF
100
AcDbEntity
  8
水栓
  6
CONTINUOUS
 62
     6
100
AcDbVertex
100
AcDb2dVertex
 10
695.8886099286004
 20
1399.0216065
 30
0.0
  0
VERTEX
  5
1C8
330
1BF
100
AcDbEntity
  8
水栓
  6
CONTINUOUS
 62
     6
100
AcDbVertex
100
AcDb2dVertex
 10
695.5878591286004
 20
1399.3864441
 30
0.0
  0
VERTEX
  5
1C9
330
1BF
100
AcDbEntity
  8
水栓
  6
CONTINUOUS
 62
     6
100
AcDbVertex
100
AcDb2dVertex
 10
695.2541494286
 20
1399.7250367
 30
0.0
  0
VERTEX
  5
1CA
330
1BF
100
AcDbEntity
  8
水栓
  6
CONTINUOUS
 62
     6
100
AcDbVertex
100
AcDb2dVertex
 10
694.8899221286005
 20
1400.035553
 30
0.0
  0
VERTEX
  5
1CB
330
1BF
100
AcDbEntity
  8
水栓
  6
CONTINUOUS
 62
     6
100
AcDbVertex
100
AcDb2dVertex
 10
694.4980764286005
 20
1400.3152466
 30
0.0
  0
VERTEX
  5
1CC
330
1BF
100
AcDbEntity
  8
水栓
  6
CONTINUOUS
 62
     6
100
AcDbVertex
100
AcDb2dVertex
 10
694.0815115285999
 20
1400.5621338
 30
0.0
  0
VERTEX
  5
1CD
330
1BF
100
AcDbEntity
  8
水栓
  6
CONTINUOUS
 62
     6
100
AcDbVertex
100
AcDb2dVertex
 10
693.6432791286
 20
1400.7743836
 30
0.0
  0
VERTEX
  5
1CE
330
1BF
100
AcDbEntity
  8
水栓
  6
CONTINUOUS
 62
     6
100
AcDbVertex
100
AcDb2dVertex
 10
693.1868887286004
 20
1400.9503174
 30
0.0
  0
VERTEX
  5
1CF
330
1BF
100
AcDbEntity
  8
水栓
  6
CONTINUOUS
 62
     6
100
AcDbVertex
100
AcDb2dVertex
 10
692.7158499286
 20
1401.0882569
 30
0.0
  0
VERTEX
  5
1D0
330
1BF
100
AcDbEntity
  8
水栓
  6
CONTINUOUS
 62
     6
100
AcDbVertex
100
AcDb2dVertex
 10
692.2335195285999
 20
1401.1877442
 30
0.0
  0
VERTEX
  5
1D1
330
1BF
100
AcDbEntity
  8
水栓
  6
CONTINUOUS
 62
     6
100
AcDbVertex
100
AcDb2dVertex
 10
691.7438650286007
 20
1401.2477112
 30
0.0
  0
VERTEX
  5
1D2
330
1BF
100
AcDbEntity
  8
水栓
  6
CONTINUOUS
 62
     6
100
AcDbVertex
100
AcDb2dVertex
 10
691.2502432286004
 20
1401.2678528
 30
0.0
  0
VERTEX
  5
1D3
330
1BF
100
AcDbEntity
  8
水栓
  6
CONTINUOUS
 62
     6
100
AcDbVertex
100
AcDb2dVertex
 10
690.7567739286
 20
1401.2478638
 30
0.0
  0
VERTEX
  5
1D4
330
1BF
100
AcDbEntity
  8
水栓
  6
CONTINUOUS
 62
     6
100
AcDbVertex
100
AcDb2dVertex
 10
690.2669668286002
 20
1401.1878968
 30
0.0
  0
VERTEX
  5
1D5
330
1BF
100
AcDbEntity
  8
水栓
  6
CONTINUOUS
 62
     6
100
AcDbVertex
100
AcDb2dVertex
 10
689.7847891286004
 20
1401.0882569
 30
0.0
  0
VERTEX
  5
1D6
330
1BF
100
AcDbEntity
  8
水栓
  6
CONTINUOUS
 62
     6
100
AcDbVertex
100
AcDb2dVertex
 10
689.3137503286001
 20
1400.9500122
 30
0.0
  0
VERTEX
  5
1D7
330
1BF
100
AcDbEntity
  8
水栓
  6
CONTINUOUS
 62
     6
100
AcDbVertex
100
AcDb2dVertex
 10
688.8573599286004
 20
1400.7740784
 30
0.0
  0
VERTEX
  5
1D8
330
1BF
100
AcDbEntity
  8
水栓
  6
CONTINUOUS
 62
     6
100
AcDbVertex
100
AcDb2dVertex
 10
688.4189749286
 20
1400.5621338
 30
0.0
  0
VERTEX
  5
1D9
330
1BF
100
AcDbEntity
  8
水栓
  6
CONTINUOUS
 62
     6
100
AcDbVertex
100
AcDb2dVertex
 10
688.0024099286005
 20
1400.3152466
 30
0.0
  0
VERTEX
  5
1DA
330
1BF
100
AcDbEntity
  8
水栓
  6
CONTINUOUS
 62
     6
100
AcDbVertex
100
AcDb2dVertex
 10
687.6105642286005
 20
1400.035553
 30
0.0
  0
VERTEX
  5
1DB
330
1BF
100
AcDbEntity
  8
水栓
  6
CONTINUOUS
 62
     6
100
AcDbVertex
100
AcDb2dVertex
 10
687.2463369286
 20
1399.7250367
 30
0.0
  0
VERTEX
  5
1DC
330
1BF
100
AcDbEntity
  8
水栓
  6
CONTINUOUS
 62
     6
100
AcDbVertex
100
AcDb2dVertex
 10
686.9126272286006
 20
1399.3862915
 30
0.0
  0
VERTEX
  5
1DD
330
1BF
100
AcDbEntity
  8
水栓
  6
CONTINUOUS
 62
     6
100
AcDbVertex
100
AcDb2dVertex
 10
686.6118765286004
 20
1399.0217591
 30
0.0
  0
VERTEX
  5
1DE
330
1BF
100
AcDbEntity
  8
水栓
  6
CONTINUOUS
 62
     6
100
AcDbVertex
100
AcDb2dVertex
 10
686.3465261286004
 20
1398.6340332
 30
0.0
  0
VERTEX
  5
1DF
330
1BF
100
AcDbEntity
  8
水栓
  6
CONTINUOUS
 62
     6
100
AcDbVertex
100
AcDb2dVertex
 10
686.1185598286005
 20
1398.226471
 30
0.0
  0
VERTEX
  5
1E0
330
1BF
100
AcDbEntity
  8
水栓
  6
CONTINUOUS
 62
     6
100
AcDbVertex
100
AcDb2dVertex
 10
685.9295034286
 20
1397.8019715
 30
0.0
  0
VERTEX
  5
1E1
330
1BF
100
AcDbEntity
  8
水栓
  6
CONTINUOUS
 62
     6
100
AcDbVertex
100
AcDb2dVertex
 10
685.7808828286
 20
1397.3635865
 30
0.0
  0
VERTEX
  5
1E2
330
1BF
100
AcDbEntity
  8
水栓
  6
CONTINUOUS
 62
     6
100
AcDbVertex
100
AcDb2dVertex
 10
685.6740713286002
 20
1396.9149781
 30
0.0
  0
VERTEX
  5
1E3
330
1BF
100
AcDbEntity
  8
水栓
  6
CONTINUOUS
 62
     6
100
AcDbVertex
100
AcDb2dVertex
 10
685.6095266286005
 20
1396.4593506
 30
0.0
  0
VERTEX
  5
1E4
330
1BF
100
AcDbEntity
  8
水栓
  6
CONTINUOUS
 62
     6
100
AcDbVertex
100
AcDb2dVertex
 10
685.5880117286
 20
1396.0002137
 30
0.0
  0
VERTEX
  5
1E5
330
1BF
100
AcDbEntity
  8
水栓
  6
CONTINUOUS
 62
     6
100
AcDbVertex
100
AcDb2dVertex
 10
685.6096792286002
 20
1395.5412293
 30
0.0
  0
VERTEX
  5
1E6
330
1BF
100
AcDbEntity
  8
水栓
  6
CONTINUOUS
 62
     6
100
AcDbVertex
100
AcDb2dVertex
 10
685.6740713286002
 20
1395.0857544
 30
0.0
  0
VERTEX
  5
1E7
330
1BF
100
AcDbEntity
  8
水栓
  6
CONTINUOUS
 62
     6
100
AcDbVertex
100
AcDb2dVertex
 10
685.7808828286
 20
1394.6365357
 30
0.0
  0
VERTEX
  5
1E8
330
1BF
100
AcDbEntity
  8
水栓
  6
CONTINUOUS
 62
     6
100
AcDbVertex
100
AcDb2dVertex
 10
685.9295034286
 20
1394.1983033
 30
0.0
  0
VERTEX
  5
1E9
330
1BF
100
AcDbEntity
  8
水栓
  6
CONTINUOUS
 62
     6
100
AcDbVertex
100
AcDb2dVertex
 10
686.1184072286
 20
1393.7734986
 30
0.0
  0
VERTEX
  5
1EA
330
1BF
100
AcDbEntity
  8
水栓
  6
CONTINUOUS
 62
     6
100
AcDbVertex
100
AcDb2dVertex
 10
686.3465261286004
 20
1393.3659363
 30
0.0
  0
VERTEX
  5
1EB
330
1BF
100
AcDbEntity
  8
水栓
  6
CONTINUOUS
 62
     6
100
AcDbVertex
100
AcDb2dVertex
 10
686.6120291286
 20
1392.9783631
 30
0.0
  0
VERTEX
  5
1EC
330
1BF
100
AcDbEntity
  8
水栓
  6
CONTINUOUS
 62
     6
100
AcDbVertex
100
AcDb2dVertex
 10
686.9127798286003
 20
1392.6135254
 30
0.0
  0
VERTEX
  5
1ED
330
1BF
100
AcDbEntity
  8
水栓
  6
CONTINUOUS
 62
     6
100
AcDbVertex
100
AcDb2dVertex
 10
687.2463369286
 20
1392.2750855
 30
0.0
  0
VERTEX
  5
1EE
330
1BF
100
AcDbEntity
  8
水栓
  6
CONTINUOUS
 62
     6
100
AcDbVertex
100
AcDb2dVertex
 10
687.6105642286005
 20
1391.9645691
 30
0.0
  0
VERTEX
  5
1EF
330
1BF
100
AcDbEntity
  8
水栓
  6
CONTINUOUS
 62
     6
100
AcDbVertex
100
AcDb2dVertex
 10
688.0024099286005
 20
1391.6848755
 30
0.0
  0
VERTEX
  5
1F0
330
1BF
100
AcDbEntity
  8
水栓
  6
CONTINUOUS
 62
     6
100
AcDbVertex
100
AcDb2dVertex
 10
688.4189749286
 20
1391.4379883
 30
0.0
  0
VERTEX
  5
1F1
330
1BF
100
AcDbEntity
  8
水栓
  6
CONTINUOUS
 62
     6
100
AcDbVertex
100
AcDb2dVertex
 10
688.8572073285999
 20
1391.2257386
 30
0.0
  0
VERTEX
  5
1F2
330
1BF
100
AcDbEntity
  8
水栓
  6
CONTINUOUS
 62
     6
100
AcDbVertex
100
AcDb2dVertex
 10
689.3135977286005
 20
1391.0498047
 30
0.0
  0
VERTEX
  5
1F3
330
1BF
100
AcDbEntity
  8
水栓
  6
CONTINUOUS
 62
     6
100
AcDbVertex
100
AcDb2dVertex
 10
689.7847891286004
 20
1390.9117127
 30
0.0
  0
VERTEX
  5
1F4
330
1BF
100
AcDbEntity
  8
水栓
  6
CONTINUOUS
 62
     6
100
AcDbVertex
100
AcDb2dVertex
 10
690.2671194286007
 20
1390.8122254
 30
0.0
  0
VERTEX
  5
1F5
330
1BF
100
AcDbEntity
  8
水栓
  6
CONTINUOUS
 62
     6
100
AcDbVertex
100
AcDb2dVertex
 10
690.7567739286
 20
1390.7522583
 30
0.0
  0
VERTEX
  5
1F6
330
1BF
100
AcDbEntity
  8
水栓
  6
CONTINUOUS
 62
     6
100
AcDbVertex
100
AcDb2dVertex
 10
691.2502432286004
 20
1390.7319642
 30
0.0
  0
VERTEX
  5
1F7
330
1BF
100
AcDbEntity
  8
水栓
  6
CONTINUOUS
 62
     6
100
AcDbVertex
100
AcDb2dVertex
 10
691.7437124286001
 20
1390.7519532
 30
0.0
  0
VERTEX
  5
1F8
330
1BF
100
AcDbEntity
  8
水栓
  6
CONTINUOUS
 62
     6
100
AcDbVertex
100
AcDb2dVertex
 10
692.2335195285999
 20
1390.8119202
 30
0.0
  0
VERTEX
  5
1F9
330
1BF
100
AcDbEntity
  8
水栓
  6
CONTINUOUS
 62
     6
100
AcDbVertex
100
AcDb2dVertex
 10
692.7158499286
 20
1390.9117127
 30
0.0
  0
VERTEX
  5
1FA
330
1BF
100
AcDbEntity
  8
水栓
  6
CONTINUOUS
 62
     6
100
AcDbVertex
100
AcDb2dVertex
 10
693.1868887286004
 20
1391.0499573
 30
0.0
  0
VERTEX
  5
1FB
330
1BF
100
AcDbEntity
  8
水栓
  6
CONTINUOUS
 62
     6
100
AcDbVertex
100
AcDb2dVertex
 10
693.6432791286
 20
1391.2258912
 30
0.0
  0
SEQEND
  5
1FC
330
1BF
100
AcDbEntity
  8
水栓
  6
CONTINUOUS
 62
     6
  0
POLYLINE
  5
1FD
330
1F
100
AcDbEntity
  8
水栓
  6
CONTINUOUS
 62
     6
100
AcDb2dPolyline
 66
     1
 10
0.0
 20
0.0
 30
0.0
 70
   128
  0
VERTEX
  5
1FE
330
1FD
100
AcDbEntity
  8
水栓
  6
CONTINUOUS
 62
     6
100
AcDbVertex
100
AcDb2dVertex
 10
710.2193594286003
 20
1394.6365357
 30
0.0
  0
VERTEX
  5
1FF
330
1FD
100
AcDbEntity
  8
水栓
  6
CONTINUOUS
 62
     6
100
AcDbVertex
100
AcDb2dVertex
 10
710.3261709286002
 20
1395.0851441
 30
0.0
  0
VERTEX
  5
200
330
1FD
100
AcDbEntity
  8
水栓
  6
CONTINUOUS
 62
     6
100
AcDbVertex
100
AcDb2dVertex
 10
710.3907156285999
 20
1395.5407715
 30
0.0
  0
VERTEX
  5
201
330
1FD
100
AcDbEntity
  8
水栓
  6
CONTINUOUS
 62
     6
100
AcDbVertex
100
AcDb2dVertex
 10
710.4122305286004
 20
1395.9996033
 30
0.0
  0
SEQEND
  5
202
330
1FD
100
AcDbEntity
  8
水栓
  6
CONTINUOUS
 62
     6
  0
POLYLINE
  5
203
330
1F
100
AcDbEntity
  8
水栓
  6
CONTINUOUS
 62
     6
100
AcDb2dPolyline
 66
     1
 10
0.0
 20
0.0
 30
0.0
 70
   128
  0
VERTEX
  5
204
330
203
100
AcDbEntity
  8
水栓
  6
CONTINUOUS
 62
     6
100
AcDbVertex
100
AcDb2dVertex
 10
707.1433401286007
 20
1391.2258912
 30
0.0
  0
VERTEX
  5
205
330
203
100
AcDbEntity
  8
水栓
  6
CONTINUOUS
 62
     6
100
AcDbVertex
100
AcDb2dVertex
 10
707.5814199286
 20
1391.4379883
 30
0.0
  0
VERTEX
  5
206
330
203
100
AcDbEntity
  8
水栓
  6
CONTINUOUS
 62
     6
100
AcDbVertex
100
AcDb2dVertex
 10
707.9979849286004
 20
1391.6848755
 30
0.0
  0
VERTEX
  5
207
330
203
100
AcDbEntity
  8
水栓
  6
CONTINUOUS
 62
     6
100
AcDbVertex
100
AcDb2dVertex
 10
708.3898306286004
 20
1391.9645691
 30
0.0
  0
VERTEX
  5
208
330
203
100
AcDbEntity
  8
水栓
  6
CONTINUOUS
 62
     6
100
AcDbVertex
100
AcDb2dVertex
 10
708.7540579286
 20
1392.2750855
 30
0.0
  0
VERTEX
  5
209
330
203
100
AcDbEntity
  8
水栓
  6
CONTINUOUS
 62
     6
100
AcDbVertex
100
AcDb2dVertex
 10
709.0877676286003
 20
1392.6138306
 30
0.0
  0
VERTEX
  5
20A
330
203
100
AcDbEntity
  8
水栓
  6
CONTINUOUS
 62
     6
100
AcDbVertex
100
AcDb2dVertex
 10
709.3883657286
 20
1392.9783631
 30
0.0
  0
VERTEX
  5
20B
330
203
100
AcDbEntity
  8
水栓
  6
CONTINUOUS
 62
     6
100
AcDbVertex
100
AcDb2dVertex
 10
709.6538687286005
 20
1393.3659363
 30
0.0
  0
VERTEX
  5
20C
330
203
100
AcDbEntity
  8
水栓
  6
CONTINUOUS
 62
     6
100
AcDbVertex
100
AcDb2dVertex
 10
709.8818350286004
 20
1393.7734986
 30
0.0
  0
VERTEX
  5
20D
330
203
100
AcDbEntity
  8
水栓
  6
CONTINUOUS
 62
     6
100
AcDbVertex
100
AcDb2dVertex
 10
710.0708914286
 20
1394.1979981
 30
0.0
  0
VERTEX
  5
20E
330
203
100
AcDbEntity
  8
水栓
  6
CONTINUOUS
 62
     6
100
AcDbVertex
100
AcDb2dVertex
 10
710.2193594286003
 20
1394.6365357
 30
0.0
  0
SEQEND
  5
20F
330
203
100
AcDbEntity
  8
水栓
  6
CONTINUOUS
 62
     6
  0
POLYLINE
  5
210
330
1F
100
AcDbEntity
  8
水栓
  6
CONTINUOUS
 62
     6
100
AcDb2dPolyline
 66
     1
 10
0.0
 20
0.0
 30
0.0
 70
   128
  0
VERTEX
  5
211
330
210
100
AcDbEntity
  8
水栓
  6
CONTINUOUS
 62
     6
100
AcDbVertex
100
AcDb2dVertex
 10
710.4123831286
 20
1396.0002137
 30
0.0
  0
VERTEX
  5
212
330
210
100
AcDbEntity
  8
水栓
  6
CONTINUOUS
 62
     6
100
AcDbVertex
100
AcDb2dVertex
 10
710.3907156285999
 20
1396.4593506
 30
0.0
  0
VERTEX
  5
213
330
210
100
AcDbEntity
  8
水栓
  6
CONTINUOUS
 62
     6
100
AcDbVertex
100
AcDb2dVertex
 10
710.3263235286007
 20
1396.9152832
 30
0.0
  0
VERTEX
  5
214
330
210
100
AcDbEntity
  8
水栓
  6
CONTINUOUS
 62
     6
100
AcDbVertex
100
AcDb2dVertex
 10
710.2193594286003
 20
1397.3635865
 30
0.0
  0
VERTEX
  5
215
330
210
100
AcDbEntity
  8
水栓
  6
CONTINUOUS
 62
     6
100
AcDbVertex
100
AcDb2dVertex
 10
710.0707388286004
 20
1397.8018189
 30
0.0
  0
VERTEX
  5
216
330
210
100
AcDbEntity
  8
水栓
  6
CONTINUOUS
 62
     6
100
AcDbVertex
100
AcDb2dVertex
 10
709.8818350286004
 20
1398.2266236
 30
0.0
  0
VERTEX
  5
217
330
210
100
AcDbEntity
  8
水栓
  6
CONTINUOUS
 62
     6
100
AcDbVertex
100
AcDb2dVertex
 10
709.6538687286005
 20
1398.6340332
 30
0.0
  0
VERTEX
  5
218
330
210
100
AcDbEntity
  8
水栓
  6
CONTINUOUS
 62
     6
100
AcDbVertex
100
AcDb2dVertex
 10
709.3883657286
 20
1399.0216065
 30
0.0
  0
VERTEX
  5
219
330
210
100
AcDbEntity
  8
水栓
  6
CONTINUOUS
 62
     6
100
AcDbVertex
100
AcDb2dVertex
 10
709.0877676286003
 20
1399.3864441
 30
0.0
  0
VERTEX
  5
21A
330
210
100
AcDbEntity
  8
水栓
  6
CONTINUOUS
 62
     6
100
AcDbVertex
100
AcDb2dVertex
 10
708.7540579286
 20
1399.7250367
 30
0.0
  0
VERTEX
  5
21B
330
210
100
AcDbEntity
  8
水栓
  6
CONTINUOUS
 62
     6
100
AcDbVertex
100
AcDb2dVertex
 10
708.3898306286004
 20
1400.035553
 30
0.0
  0
VERTEX
  5
21C
330
210
100
AcDbEntity
  8
水栓
  6
CONTINUOUS
 62
     6
100
AcDbVertex
100
AcDb2dVertex
 10
707.9979849286004
 20
1400.3152466
 30
0.0
  0
VERTEX
  5
21D
330
210
100
AcDbEntity
  8
水栓
  6
CONTINUOUS
 62
     6
100
AcDbVertex
100
AcDb2dVertex
 10
707.5814199286
 20
1400.5621338
 30
0.0
  0
VERTEX
  5
21E
330
210
100
AcDbEntity
  8
水栓
  6
CONTINUOUS
 62
     6
100
AcDbVertex
100
AcDb2dVertex
 10
707.1433401286007
 20
1400.7743836
 30
0.0
  0
VERTEX
  5
21F
330
210
100
AcDbEntity
  8
水栓
  6
CONTINUOUS
 62
     6
100
AcDbVertex
100
AcDb2dVertex
 10
706.6869497286001
 20
1400.9503174
 30
0.0
  0
VERTEX
  5
220
330
210
100
AcDbEntity
  8
水栓
  6
CONTINUOUS
 62
     6
100
AcDbVertex
100
AcDb2dVertex
 10
706.2159109286007
 20
1401.0882569
 30
0.0
  0
VERTEX
  5
221
330
210
100
AcDbEntity
  8
水栓
  6
CONTINUOUS
 62
     6
100
AcDbVertex
100
AcDb2dVertex
 10
705.7337332286
 20
1401.1877442
 30
0.0
  0
VERTEX
  5
222
330
210
100
AcDbEntity
  8
水栓
  6
CONTINUOUS
 62
     6
100
AcDbVertex
100
AcDb2dVertex
 10
705.2439260286004
 20
1401.2477112
 30
0.0
  0
VERTEX
  5
223
330
210
100
AcDbEntity
  8
水栓
  6
CONTINUOUS
 62
     6
100
AcDbVertex
100
AcDb2dVertex
 10
704.7504568285998
 20
1401.2678528
 30
0.0
  0
VERTEX
  5
224
330
210
100
AcDbEntity
  8
水栓
  6
CONTINUOUS
 62
     6
100
AcDbVertex
100
AcDb2dVertex
 10
704.2569876286001
 20
1401.2478638
 30
0.0
  0
VERTEX
  5
225
330
210
100
AcDbEntity
  8
水栓
  6
CONTINUOUS
 62
     6
100
AcDbVertex
100
AcDb2dVertex
 10
703.7671804286005
 20
1401.1878968
 30
0.0
  0
VERTEX
  5
226
330
210
100
AcDbEntity
  8
水栓
  6
CONTINUOUS
 62
     6
100
AcDbVertex
100
AcDb2dVertex
 10
703.2850027285998
 20
1401.0882569
 30
0.0
  0
VERTEX
  5
227
330
210
100
AcDbEntity
  8
水栓
  6
CONTINUOUS
 62
     6
100
AcDbVertex
100
AcDb2dVertex
 10
702.8139639286004
 20
1400.9500122
 30
0.0
  0
VERTEX
  5
228
330
210
100
AcDbEntity
  8
水栓
  6
CONTINUOUS
 62
     6
100
AcDbVertex
100
AcDb2dVertex
 10
702.3575735286007
 20
1400.7740784
 30
0.0
  0
VERTEX
  5
229
330
210
100
AcDbEntity
  8
水栓
  6
CONTINUOUS
 62
     6
100
AcDbVertex
100
AcDb2dVertex
 10
701.9193411286
 20
1400.5621338
 30
0.0
  0
VERTEX
  5
22A
330
210
100
AcDbEntity
  8
水栓
  6
CONTINUOUS
 62
     6
100
AcDbVertex
100
AcDb2dVertex
 10
701.5027761286004
 20
1400.3152466
 30
0.0
  0
VERTEX
  5
22B
330
210
100
AcDbEntity
  8
水栓
  6
CONTINUOUS
 62
     6
100
AcDbVertex
100
AcDb2dVertex
 10
701.1109304286005
 20
1400.035553
 30
0.0
  0
VERTEX
  5
22C
330
210
100
AcDbEntity
  8
水栓
  6
CONTINUOUS
 62
     6
100
AcDbVertex
100
AcDb2dVertex
 10
700.7467031286
 20
1399.7250367
 30
0.0
  0
VERTEX
  5
22D
330
210
100
AcDbEntity
  8
水栓
  6
CONTINUOUS
 62
     6
100
AcDbVertex
100
AcDb2dVertex
 10
700.4129934286005
 20
1399.3862915
 30
0.0
  0
VERTEX
  5
22E
330
210
100
AcDbEntity
  8
水栓
  6
CONTINUOUS
 62
     6
100
AcDbVertex
100
AcDb2dVertex
 10
700.1123953286
 20
1399.0217591
 30
0.0
  0
VERTEX
  5
22F
330
210
100
AcDbEntity
  8
水栓
  6
CONTINUOUS
 62
     6
100
AcDbVertex
100
AcDb2dVertex
 10
699.8470449286
 20
1398.6340332
 30
0.0
  0
VERTEX
  5
230
330
210
100
AcDbEntity
  8
水栓
  6
CONTINUOUS
 62
     6
100
AcDbVertex
100
AcDb2dVertex
 10
699.6190786286
 20
1398.226471
 30
0.0
  0
VERTEX
  5
231
330
210
100
AcDbEntity
  8
水栓
  6
CONTINUOUS
 62
     6
100
AcDbVertex
100
AcDb2dVertex
 10
699.4300222286005
 20
1397.8019715
 30
0.0
  0
VERTEX
  5
232
330
210
100
AcDbEntity
  8
水栓
  6
CONTINUOUS
 62
     6
100
AcDbVertex
100
AcDb2dVertex
 10
699.2814016286005
 20
1397.3635865
 30
0.0
  0
VERTEX
  5
233
330
210
100
AcDbEntity
  8
水栓
  6
CONTINUOUS
 62
     6
100
AcDbVertex
100
AcDb2dVertex
 10
699.1745901285998
 20
1396.9149781
 30
0.0
  0
VERTEX
  5
234
330
210
100
AcDbEntity
  8
水栓
  6
CONTINUOUS
 62
     6
100
AcDbVertex
100
AcDb2dVertex
 10
699.1100454286001
 20
1396.4593506
 30
0.0
  0
VERTEX
  5
235
330
210
100
AcDbEntity
  8
水栓
  6
CONTINUOUS
 62
     6
100
AcDbVertex
100
AcDb2dVertex
 10
699.0885305286005
 20
1396.0002137
 30
0.0
  0
VERTEX
  5
236
330
210
100
AcDbEntity
  8
水栓
  6
CONTINUOUS
 62
     6
100
AcDbVertex
100
AcDb2dVertex
 10
699.1101980286006
 20
1395.5412293
 30
0.0
  0
VERTEX
  5
237
330
210
100
AcDbEntity
  8
水栓
  6
CONTINUOUS
 62
     6
100
AcDbVertex
100
AcDb2dVertex
 10
699.1745901285998
 20
1395.0857544
 30
0.0
  0
VERTEX
  5
238
330
210
100
AcDbEntity
  8
水栓
  6
CONTINUOUS
 62
     6
100
AcDbVertex
100
AcDb2dVertex
 10
699.2814016286005
 20
1394.6365357
 30
0.0
  0
VERTEX
  5
239
330
210
100
AcDbEntity
  8
水栓
  6
CONTINUOUS
 62
     6
100
AcDbVertex
100
AcDb2dVertex
 10
699.4300222286005
 20
1394.1983033
 30
0.0
  0
VERTEX
  5
23A
330
210
100
AcDbEntity
  8
水栓
  6
CONTINUOUS
 62
     6
100
AcDbVertex
100
AcDb2dVertex
 10
699.6189260286004
 20
1393.7734986
 30
0.0
  0
VERTEX
  5
23B
330
210
100
AcDbEntity
  8
水栓
  6
CONTINUOUS
 62
     6
100
AcDbVertex
100
AcDb2dVertex
 10
699.8470449286
 20
1393.3659363
 30
0.0
  0
VERTEX
  5
23C
330
210
100
AcDbEntity
  8
水栓
  6
CONTINUOUS
 62
     6
100
AcDbVertex
100
AcDb2dVertex
 10
700.1125479286005
 20
1392.9783631
 30
0.0
  0
VERTEX
  5
23D
330
210
100
AcDbEntity
  8
水栓
  6
CONTINUOUS
 62
     6
100
AcDbVertex
100
AcDb2dVertex
 10
700.4131460286002
 20
1392.6135254
 30
0.0
  0
VERTEX
  5
23E
330
210
100
AcDbEntity
  8
水栓
  6
CONTINUOUS
 62
     6
100
AcDbVertex
100
AcDb2dVertex
 10
700.7467031286
 20
1392.2750855
 30
0.0
  0
VERTEX
  5
23F
330
210
100
AcDbEntity
  8
水栓
  6
CONTINUOUS
 62
     6
100
AcDbVertex
100
AcDb2dVertex
 10
701.1109304286005
 20
1391.9645691
 30
0.0
  0
VERTEX
  5
240
330
210
100
AcDbEntity
  8
水栓
  6
CONTINUOUS
 62
     6
100
AcDbVertex
100
AcDb2dVertex
 10
701.5027761286004
 20
1391.6848755
 30
0.0
  0
VERTEX
  5
241
330
210
100
AcDbEntity
  8
水栓
  6
CONTINUOUS
 62
     6
100
AcDbVertex
100
AcDb2dVertex
 10
701.9193411286
 20
1391.4379883
 30
0.0
  0
VERTEX
  5
242
330
210
100
AcDbEntity
  8
水栓
  6
CONTINUOUS
 62
     6
100
AcDbVertex
100
AcDb2dVertex
 10
702.3574209286002
 20
1391.2257386
 30
0.0
  0
VERTEX
  5
243
330
210
100
AcDbEntity
  8
水栓
  6
CONTINUOUS
 62
     6
100
AcDbVertex
100
AcDb2dVertex
 10
702.8138113285999
 20
1391.0498047
 30
0.0
  0
VERTEX
  5
244
330
210
100
AcDbEntity
  8
水栓
  6
CONTINUOUS
 62
     6
100
AcDbVertex
100
AcDb2dVertex
 10
703.2850027285998
 20
1390.9117127
 30
0.0
  0
VERTEX
  5
245
330
210
100
AcDbEntity
  8
水栓
  6
CONTINUOUS
 62
     6
100
AcDbVertex
100
AcDb2dVertex
 10
703.7673330286001
 20
1390.8122254
 30
0.0
  0
VERTEX
  5
246
330
210
100
AcDbEntity
  8
水栓
  6
CONTINUOUS
 62
     6
100
AcDbVertex
100
AcDb2dVertex
 10
704.2569876286001
 20
1390.7522583
 30
0.0
  0
VERTEX
  5
247
330
210
100
AcDbEntity
  8
水栓
  6
CONTINUOUS
 62
     6
100
AcDbVertex
100
AcDb2dVertex
 10
704.7504568285998
 20
1390.7319642
 30
0.0
  0
VERTEX
  5
248
330
210
100
AcDbEntity
  8
水栓
  6
CONTINUOUS
 62
     6
100
AcDbVertex
100
AcDb2dVertex
 10
705.2439260286004
 20
1390.7519532
 30
0.0
  0
VERTEX
  5
249
330
210
100
AcDbEntity
  8
水栓
  6
CONTINUOUS
 62
     6
100
AcDbVertex
100
AcDb2dVertex
 10
705.7337332286
 20
1390.8119202
 30
0.0
  0
VERTEX
  5
24A
330
210
100
AcDbEntity
  8
水栓
  6
CONTINUOUS
 62
     6
100
AcDbVertex
100
AcDb2dVertex
 10
706.2159109286007
 20
1390.9117127
 30
0.0
  0
VERTEX
  5
24B
330
210
100
AcDbEntity
  8
水栓
  6
CONTINUOUS
 62
     6
100
AcDbVertex
100
AcDb2dVertex
 10
706.6869497286001
 20
1391.0499573
 30
0.0
  0
VERTEX
  5
24C
330
210
100
AcDbEntity
  8
水栓
  6
CONTINUOUS
 62
     6
100
AcDbVertex
100
AcDb2dVertex
 10
707.1433401286007
 20
1391.2258912
 30
0.0
  0
SEQEND
  5
24D
330
210
100
AcDbEntity
  8
水栓
  6
CONTINUOUS
 62
     6
  0
ARC
  5
24E
330
1F
100
AcDbEntity
  8
水栓
  6
CONTINUOUS
 62
     6
100
AcDbCircle
 10
702.9999685286006
 20
1395.9999085
 30
0.0
 40
10.00030520000001
100
AcDbArc
 50
323.1309814500001
 51
328.2129516600003
  0
LINE
  5
24F
330
1F
100
AcDbEntity
  8
水栓
  6
CONTINUOUS
 62
     6
100
AcDbLine
 10
685.0002432286004
 20
1389.9998475
 30
0.0
 11
711.0003042286002
 21
1389.9998475
 31
0.0
  0
ARC
  5
250
330
1F
100
AcDbEntity
  8
水栓
  6
CONTINUOUS
 62
     6
100
AcDbCircle
 10
693.0005789286
 20
1395.9999085
 30
0.0
 40
10.0002861
100
AcDbArc
 50
211.7870330800001
 51
216.86901855
  0
LINE
  5
251
330
1F
100
AcDbEntity
  8
水栓
  6
CONTINUOUS
 62
     6
100
AcDbLine
 10
684.5002127286001
 20
1390.7321167
 30
0.0
 11
684.5002127286001
 21
1401.2677002
 31
0.0
  0
ARC
  5
252
330
1F
100
AcDbEntity
  8
水栓
  6
CONTINUOUS
 62
     6
100
AcDbCircle
 10
693.0005789286
 20
1395.9999085
 30
0.0
 40
10.00030520000001
100
AcDbArc
 50
143.13098145
 51
148.21296692
  0
LINE
  5
253
330
1F
100
AcDbEntity
  8
水栓
  6
CONTINUOUS
 62
     6
100
AcDbLine
 10
685.0002432286004
 20
1401.9999695
 30
0.0
 11
711.0003042286002
 21
1401.9999695
 31
0.0
  0
ARC
  5
254
330
1F
100
AcDbEntity
  8
水栓
  6
CONTINUOUS
 62
     6
100
AcDbCircle
 10
702.9999685286006
 20
1395.9999085
 30
0.0
 40
10.0002861
100
AcDbArc
 50
31.78704833999995
 51
36.86901854999996
  0
LINE
  5
255
330
1F
100
AcDbEntity
  8
水栓
  6
CONTINUOUS
 62
     6
100
AcDbLine
 10
711.5003347286005
 20
1390.7321167
 30
0.0
 11
711.5003347286005
 21
1401.2677002
 31
0.0
  0
LINE
  5
256
330
1F
100
AcDbEntity
  8
水栓
  6
CONTINUOUS
 62
     6
100
AcDbLine
 10
697.0000000000001
 20
1592.5
 30
0.0
 11
697.0000000000001
 21
1586.73557
 31
0.0
  0
LINE
  5
257
330
1F
100
AcDbEntity
  8
水栓
  6
CONTINUOUS
 62
     6
100
AcDbLine
 10
699.0000000000001
 20
1592.5
 30
0.0
 11
699.0000000000001
 21
1586.73557
 31
0.0
  0
LINE
  5
258
330
1F
100
AcDbEntity
  8
水栓
  6
CONTINUOUS
 62
     6
100
AcDbLine
 10
689.0000000000001
 20
1592.5
 30
0.0
 11
689.0000000000001
 21
1586.73557
 31
0.0
  0
LINE
  5
259
330
1F
100
AcDbEntity
  8
水栓
  6
CONTINUOUS
 62
     6
100
AcDbLine
 10
707.0000000000001
 20
1592.5
 30
0.0
 11
707.0000000000001
 21
1586.73557
 31
0.0
  0
LINE
  5
25A
330
1F
100
AcDbEntity
  8
水栓
  6
CONTINUOUS
 62
     6
100
AcDbLine
 10
697.0000000000001
 20
1592.5
 30
0.0
 11
699.0000000000001
 21
1592.5
 31
0.0
  0
LINE
  5
25B
330
1F
100
AcDbEntity
  8
水栓
  6
CONTINUOUS
 62
     6
100
AcDbLine
 10
697.0000000000001
 20
1586.73556
 30
0.0
 11
699.0000000000001
 21
1586.73557
 31
0.0
  0
LINE
  5
25C
330
1F
100
AcDbEntity
  8
水栓
  6
CONTINUOUS
 62
     6
100
AcDbLine
 10
719.5225
 20
1568.5529
 30
0.0
 11
718.6870000000001
 21
1570.00002
 31
0.0
  0
LINE
  5
25D
330
1F
100
AcDbEntity
  8
水栓
  6
CONTINUOUS
 62
     6
100
AcDbLine
 10
676.4775000000001
 20
1568.5529
 30
0.0
 11
677.3130000000001
 21
1570.00002
 31
0.0
  0
LINE
  5
25E
330
1F
100
AcDbEntity
  8
水栓
  6
CONTINUOUS
 62
     6
100
AcDbLine
 10
709.3220000000001
 20
1508.99998
 30
0.0
 11
710.0000000000001
 21
1510.17432
 31
0.0
  0
LINE
  5
25F
330
1F
100
AcDbEntity
  8
水栓
  6
CONTINUOUS
 62
     6
100
AcDbLine
 10
709.3220000000001
 20
1507.2
 30
0.0
 11
709.3220000000001
 21
1508.99998
 31
0.0
  0
LINE
  5
260
330
1F
100
AcDbEntity
  8
水栓
  6
CONTINUOUS
 62
     6
100
AcDbLine
 10
686.6780000000001
 20
1507.2
 30
0.0
 11
686.6780000000001
 21
1508.99998
 31
0.0
  0
LINE
  5
261
330
1F
100
AcDbEntity
  8
水栓
  6
CONTINUOUS
 62
     6
100
AcDbLine
 10
686.6780000000001
 20
1508.99998
 30
0.0
 11
686.0000000000001
 21
1510.17432
 31
0.0
  0
ARC
  5
262
330
1F
100
AcDbEntity
  8
水栓
  6
CONTINUOUS
 62
     6
100
AcDbCircle
 10
693.0000000000001
 20
1587.9167
 30
0.0
 40
6.083333000000002
100
AcDbArc
 50
48.88808999999996
 51
131.1121
  0
ARC
  5
263
330
1F
100
AcDbEntity
  8
水栓
  6
CONTINUOUS
 62
     6
100
AcDbCircle
 10
693.0000000000001
 20
1594.2356
 30
0.0
 40
8.5
100
AcDbArc
 50
241.9275000000002
 51
298.0724
  0
ARC
  5
264
330
1F
100
AcDbEntity
  8
水栓
  6
CONTINUOUS
 62
     6
100
AcDbCircle
 10
703.0000000000001
 20
1587.9167
 30
0.0
 40
6.083333000000002
100
AcDbArc
 50
48.88793999999996
 51
131.1119
  0
ARC
  5
265
330
1F
100
AcDbEntity
  8
水栓
  6
CONTINUOUS
 62
     6
100
AcDbCircle
 10
703.0000000000001
 20
1594.2356
 30
0.0
 40
8.5
100
AcDbArc
 50
241.9276000000001
 51
298.0725000000002
  0
ARC
  5
266
330
1F
100
AcDbEntity
  8
水栓
  6
CONTINUOUS
 62
     6
100
AcDbCircle
 10
711.0000000000001
 20
1587.9167
 30
0.0
 40
6.083333000000002
100
AcDbArc
 50
119.5478999999999
 51
131.1121
  0
ARC
  5
267
330
1F
100
AcDbEntity
  8
水栓
  6
CONTINUOUS
 62
     6
100
AcDbCircle
 10
711.0000000000001
 20
1594.2356
 30
0.0
 40
8.5
100
AcDbArc
 50
241.9275000000002
 51
249.3327000000002
  0
ARC
  5
268
330
1F
100
AcDbEntity
  8
水栓
  6
CONTINUOUS
 62
     6
100
AcDbCircle
 10
685.0000000000001
 20
1587.9167
 30
0.0
 40
6.083333000000002
100
AcDbArc
 50
48.88793999999996
 51
60.45211999999998
  0
ARC
  5
269
330
1F
100
AcDbEntity
  8
水栓
  6
CONTINUOUS
 62
     6
100
AcDbCircle
 10
685.0000000000001
 20
1594.2356
 30
0.0
 40
8.5
100
AcDbArc
 50
290.6673000000001
 51
298.0725000000002
  0
ARC
  5
26A
330
1F
100
AcDbEntity
  8
水栓
  6
CONTINUOUS
 62
     6
100
AcDbCircle
 10
691.5000000000001
 20
1504.45711
 30
0.0
 40
2.527199000000002
100
AcDbArc
 50
75.61594000000001
 51
104.3841
  0
ARC
  5
26B
330
1F
100
AcDbEntity
  8
水栓
  6
CONTINUOUS
 62
     6
100
AcDbCircle
 10
692.3353000000001
 20
1501.2
 30
0.0
 40
5.889718000000006
100
AcDbArc
 50
104.3842
 51
255.6158000000002
  0
ARC
  5
26C
330
1F
100
AcDbEntity
  8
水栓
  6
CONTINUOUS
 62
     6
100
AcDbCircle
 10
690.6647
 20
1501.2
 30
0.0
 40
5.889718000000006
100
AcDbArc
 50
284.3842000000001
 51
75.61584
  0
ARC
  5
26D
330
1F
100
AcDbEntity
  8
水栓
  6
CONTINUOUS
 62
     6
100
AcDbCircle
 10
704.5000000000001
 20
1497.94289
 30
0.0
 40
2.527195000000001
100
AcDbArc
 50
255.6159
 51
284.3841000000002
  0
ARC
  5
26E
330
1F
100
AcDbEntity
  8
水栓
  6
CONTINUOUS
 62
     6
100
AcDbCircle
 10
704.5000000000001
 20
1504.45712
 30
0.0
 40
2.527195000000001
100
AcDbArc
 50
75.61590999999999
 51
104.3841
  0
ARC
  5
26F
330
1F
100
AcDbEntity
  8
水栓
  6
CONTINUOUS
 62
     6
100
AcDbCircle
 10
705.3353000000001
 20
1501.2
 30
0.0
 40
5.889720000000002
100
AcDbArc
 50
104.3842
 51
255.6158000000002
  0
ARC
  5
270
330
1F
100
AcDbEntity
  8
水栓
  6
CONTINUOUS
 62
     6
100
AcDbCircle
 10
703.6647
 20
1501.2
 30
0.0
 40
5.889720000000002
100
AcDbArc
 50
284.3842000000001
 51
75.61584
  0
ARC
  5
271
330
1F
100
AcDbEntity
  8
水栓
  6
CONTINUOUS
 62
     6
100
AcDbCircle
 10
691.5000000000001
 20
1497.94289
 30
0.0
 40
2.527195000000001
100
AcDbArc
 50
255.6159
 51
284.3841000000002
  0
LINE
  5
272
330
1F
100
AcDbEntity
  8
水栓
  6
EXLTYPE3
 62
     6
100
AcDbLine
 10
731.5
 20
1550.0
 30
0.0
 11
664.7
 21
1550.0
 31
0.0
  0
LINE
  5
273
330
1F
100
AcDbEntity
  8
水栓
  6
CONTINUOUS
 62
     6
100
AcDbLine
 10
678.0002737285998
 20
1380.0
 30
0.0
 11
678.0002737285998
 21
1374.0
 31
0.0
  0
LINE
  5
274
330
1F
100
AcDbEntity
  8
水栓
  6
CONTINUOUS
 62
     6
100
AcDbLine
 10
718.0002737285998
 20
1380.0
 30
0.0
 11
718.0002737285998
 21
1374.0
 31
0.0
  0
LINE
  5
275
330
1F
100
AcDbEntity
  8
水栓
  6
CONTINUOUS
 62
     6
100
AcDbLine
 10
1726.32199
 20
1507.2
 30
0.0
 11
1726.32199
 21
1508.99998
 31
0.0
  0
LINE
  5
276
330
1F
100
AcDbEntity
  8
水栓
  6
CONTINUOUS
 62
     6
100
AcDbLine
 10
1726.32199
 20
1508.99998
 30
0.0
 11
1727.0
 21
1510.17432
 31
0.0
  0
LINE
  5
277
330
1F
100
AcDbEntity
  8
水栓
  6
CONTINUOUS
 62
     6
100
AcDbLine
 10
1703.67801
 20
1507.2
 30
0.0
 11
1703.67801
 21
1508.99998
 31
0.0
  0
LINE
  5
278
330
1F
100
AcDbEntity
  8
水栓
  6
CONTINUOUS
 62
     6
100
AcDbLine
 10
1703.67801
 20
1508.99998
 30
0.0
 11
1703.0
 21
1510.17432
 31
0.0
  0
LINE
  5
279
330
1F
100
AcDbEntity
  8
水栓
  6
CONTINUOUS
 62
     6
100
AcDbLine
 10
1790.00013
 20
1559.3155
 30
0.0
 11
1803.96198
 21
1559.3155
 31
0.0
  0
LINE
  5
27A
330
1F
100
AcDbEntity
  8
水栓
  6
CONTINUOUS
 62
     6
100
AcDbLine
 10
1778.98737
 20
1560.4775
 30
0.0
 11
1780.5
 21
1559.60418
 31
0.0
  0
LINE
  5
27B
330
1F
100
AcDbEntity
  8
水栓
  6
CONTINUOUS
 62
     6
100
AcDbLine
 10
1790.00011
 20
1540.6845
 30
0.0
 11
1803.96198
 21
1540.6845
 31
0.0
  0
LINE
  5
27C
330
1F
100
AcDbEntity
  8
水栓
  6
CONTINUOUS
 62
     6
100
AcDbLine
 10
1688.29999
 20
1518.06766
 30
0.0
 11
1688.29999
 21
1514.08554
 31
0.0
  0
LINE
  5
27D
330
1F
100
AcDbEntity
  8
水栓
  6
CONTINUOUS
 62
     6
100
AcDbLine
 10
1678.70001
 20
1518.06766
 30
0.0
 11
1678.70001
 21
1514.08554
 31
0.0
  0
LINE
  5
27E
330
1F
100
AcDbEntity
  8
水栓
  6
CONTINUOUS
 62
     6
100
AcDbLine
 10
1679.70001
 20
1513.08554
 30
0.0
 11
1687.29999
 21
1513.08554
 31
0.0
  0
LINE
  5
27F
330
1F
100
AcDbEntity
  8
水栓
  6
CONTINUOUS
 62
     6
100
AcDbLine
 10
1680.70001
 20
1520.06766
 30
0.0
 11
1686.29999
 21
1520.06766
 31
0.0
  0
LINE
  5
280
330
1F
100
AcDbEntity
  8
水栓
  6
CONTINUOUS
 62
     6
100
AcDbLine
 10
1680.80347
 20
1523.01788
 30
0.0
 11
1686.19653
 21
1523.01788
 31
0.0
  0
LINE
  5
281
330
1F
100
AcDbEntity
  8
水栓
  6
CONTINUOUS
 62
     6
100
AcDbLine
 10
1720.15387
 20
1586.73557
 30
0.0
 11
1720.15387
 21
1592.5
 31
0.0
  0
LINE
  5
282
330
1F
100
AcDbEntity
  8
水栓
  6
CONTINUOUS
 62
     6
100
AcDbLine
 10
1721.08331
 20
1586.73557
 30
0.0
 11
1720.15387
 21
1586.73557
 31
0.0
  0
LINE
  5
283
330
1F
100
AcDbEntity
  8
水栓
  6
CONTINUOUS
 62
     6
100
AcDbLine
 10
1721.08331
 20
1592.5
 30
0.0
 11
1720.15387
 21
1592.5
 31
0.0
  0
LINE
  5
284
330
1F
100
AcDbEntity
  8
水栓
  6
CONTINUOUS
 62
     6
100
AcDbLine
 10
1721.08331
 20
1592.5
 30
0.0
 11
1721.08331
 21
1586.73557
 31
0.0
  0
LINE
  5
285
330
1F
100
AcDbEntity
  8
水栓
  6
CONTINUOUS
 62
     6
100
AcDbLine
 10
1691.27997
 20
1544.0
 30
0.0
 11
1691.27997
 21
1544.35037
 31
0.0
  0
LINE
  5
286
330
1F
100
AcDbEntity
  8
水栓
  6
CONTINUOUS
 62
     6
100
AcDbLine
 10
1691.27997
 20
1544.0
 30
0.0
 11
1690.0
 21
1543.261
 31
0.0
  0
LINE
  5
287
330
1F
100
AcDbEntity
  8
水栓
  6
CONTINUOUS
 62
     6
100
AcDbLine
 10
1690.0
 20
1543.261
 30
0.0
 11
1688.5
 21
1543.261
 31
0.0
  0
LINE
  5
288
330
1F
100
AcDbEntity
  8
水栓
  6
CONTINUOUS
 62
     6
100
AcDbLine
 10
1691.27997
 20
1516.0
 30
0.0
 11
1690.0
 21
1516.739
 31
0.0
  0
LINE
  5
289
330
1F
100
AcDbEntity
  8
水栓
  6
CONTINUOUS
 62
     6
100
AcDbLine
 10
1690.0
 20
1516.739
 30
0.0
 11
1688.5
 21
1516.739
 31
0.0
  0
LINE
  5
28A
330
1F
100
AcDbEntity
  8
水栓
  6
CONTINUOUS
 62
     6
100
AcDbLine
 10
1693.5
 20
1568.59187
 30
0.0
 11
1694.31299
 21
1570.00002
 31
0.0
  0
LINE
  5
28B
330
1F
100
AcDbEntity
  8
水栓
  6
CONTINUOUS
 62
     6
100
AcDbLine
 10
1736.5
 20
1568.59187
 30
0.0
 11
1735.687012
 21
1570.00002
 31
0.0
  0
LINE
  5
28C
330
1F
100
AcDbEntity
  8
水栓
  6
CONTINUOUS
 62
     6
100
AcDbLine
 10
1680.80347
 20
1536.98212
 30
0.0
 11
1686.19653
 21
1536.98212
 31
0.0
  0
LINE
  5
28D
330
1F
100
AcDbEntity
  8
水栓
  6
CONTINUOUS
 62
     6
100
AcDbLine
 10
1680.70001
 20
1539.93234
 30
0.0
 11
1686.29999
 21
1539.93234
 31
0.0
  0
LINE
  5
28E
330
1F
100
AcDbEntity
  8
水栓
  6
CONTINUOUS
 62
     6
100
AcDbLine
 10
1678.70001
 20
1541.93234
 30
0.0
 11
1678.70001
 21
1545.91446
 31
0.0
  0
LINE
  5
28F
330
1F
100
AcDbEntity
  8
水栓
  6
CONTINUOUS
 62
     6
100
AcDbLine
 10
1679.70001
 20
1546.91446
 30
0.0
 11
1687.29999
 21
1546.91446
 31
0.0
  0
LINE
  5
290
330
1F
100
AcDbEntity
  8
水栓
  6
CONTINUOUS
 62
     6
100
AcDbLine
 10
1688.29999
 20
1541.93234
 30
0.0
 11
1688.29999
 21
1545.91446
 31
0.0
  0
LINE
  5
291
330
1F
100
AcDbEntity
  8
水栓
  6
CONTINUOUS
 62
     6
100
AcDbLine
 10
1708.91669
 20
1592.5
 30
0.0
 11
1709.84613
 21
1592.5
 31
0.0
  0
LINE
  5
292
330
1F
100
AcDbEntity
  8
水栓
  6
CONTINUOUS
 62
     6
100
AcDbLine
 10
1708.91669
 20
1586.73557
 30
0.0
 11
1709.84613
 21
1586.73557
 31
0.0
  0
LINE
  5
293
330
1F
100
AcDbEntity
  8
水栓
  6
CONTINUOUS
 62
     6
100
AcDbLine
 10
1709.84613
 20
1586.73557
 30
0.0
 11
1709.84613
 21
1592.5
 31
0.0
  0
LINE
  5
294
330
1F
100
AcDbEntity
  8
水栓
  6
CONTINUOUS
 62
     6
100
AcDbLine
 10
1708.91669
 20
1592.5
 30
0.0
 11
1708.91669
 21
1586.73557
 31
0.0
  0
LINE
  5
295
330
1F
100
AcDbEntity
  8
水栓
  6
CONTINUOUS
 62
     6
100
AcDbLine
 10
1778.98737
 20
1539.5225
 30
0.0
 11
1780.5
 21
1540.39582
 31
0.0
  0
ARC
  5
296
330
1F
100
AcDbEntity
  8
水栓
  6
CONTINUOUS
 62
     6
100
AcDbCircle
 10
1726.25833
 20
1496.874759
 30
0.0
 40
1.459078
100
AcDbArc
 50
217.2828000000001
 51
322.7173000000004
  0
ARC
  5
297
330
1F
100
AcDbEntity
  8
水栓
  6
CONTINUOUS
 62
     6
100
AcDbCircle
 10
1726.25833
 20
1505.52524
 30
0.0
 40
1.459078
100
AcDbArc
 50
37.28274999999995
 51
142.7173
  0
ARC
  5
298
330
1F
100
AcDbEntity
  8
水栓
  6
CONTINUOUS
 62
     6
100
AcDbCircle
 10
1720.57709
 20
1501.2
 30
0.0
 40
8.59941600000001
100
AcDbArc
 50
322.7173000000004
 51
37.28267999999997
  0
ARC
  5
299
330
1F
100
AcDbEntity
  8
水栓
  6
CONTINUOUS
 62
     6
100
AcDbCircle
 10
1731.93958
 20
1501.2
 30
0.0
 40
8.59941600000001
100
AcDbArc
 50
142.7173
 51
217.2827
  0
ARC
  5
29A
330
1F
100
AcDbEntity
  8
水栓
  6
CONTINUOUS
 62
     6
100
AcDbCircle
 10
1717.94415
 20
1501.2
 30
0.0
 40
2.892159000000002
100
AcDbArc
 50
358.9791000000001
 51
1.020873999999966
  0
ARC
  5
29B
330
1F
100
AcDbEntity
  8
水栓
  6
CONTINUOUS
 62
     6
100
AcDbCircle
 10
1715.0
 20
1501.14754
 30
0.0
 40
5.836777000000002
100
AcDbArc
 50
1.020873999999966
 51
178.9792
  0
ARC
  5
29C
330
1F
100
AcDbEntity
  8
水栓
  6
CONTINUOUS
 62
     6
100
AcDbCircle
 10
1715.0
 20
1501.25246
 30
0.0
 40
5.836777000000002
100
AcDbArc
 50
181.0208
 51
358.9791000000001
  0
ARC
  5
29D
330
1F
100
AcDbEntity
  8
水栓
  6
CONTINUOUS
 62
     6
100
AcDbCircle
 10
1754.68457
 20
1572.5
 30
0.0
 40
1.375
100
AcDbArc
 50
135.0506
 51
224.9494
  0
ARC
  5
29E
330
1F
100
AcDbEntity
  8
水栓
  6
CONTINUOUS
 62
     6
100
AcDbCircle
 10
1758.0
 20
1569.19042
 30
0.0
 40
6.059581000000002
100
AcDbArc
 50
44.94939999999999
 51
135.0505
  0
ARC
  5
29F
330
1F
100
AcDbEntity
  8
水栓
  6
CONTINUOUS
 62
     6
100
AcDbCircle
 10
1758.0
 20
1575.80958
 30
0.0
 40
6.059581000000002
100
AcDbArc
 50
224.9495000000001
 51
315.0506
  0
ARC
  5
2A0
330
1F
100
AcDbEntity
  8
水栓
  6
CONTINUOUS
 62
     6
100
AcDbCircle
 10
1748.906738
 20
1570.9226
 30
0.0
 40
1.172602
100
AcDbArc
 50
253.2524
 51
286.7476000000002
  0
ARC
  5
2A1
330
1F
100
AcDbEntity
  8
水栓
  6
CONTINUOUS
 62
     6
100
AcDbCircle
 10
1748.906738
 20
1574.0774
 30
0.0
 40
1.172602
100
AcDbArc
 50
73.25246999999997
 51
106.7475
  0
ARC
  5
2A2
330
1F
100
AcDbEntity
  8
水栓
  6
CONTINUOUS
 62
     6
100
AcDbCircle
 10
1749.381409
 20
1572.5
 30
0.0
 40
2.819870000000001
100
AcDbArc
 50
106.7474
 51
137.2599
  0
ARC
  5
2A3
330
1F
100
AcDbEntity
  8
水栓
  6
CONTINUOUS
 62
     6
100
AcDbCircle
 10
1748.432068
 20
1572.5
 30
0.0
 40
2.819870000000001
100
AcDbArc
 50
286.7474
 51
73.25259
  0
ARC
  5
2A4
330
1F
100
AcDbEntity
  8
水栓
  6
CONTINUOUS
 62
     6
100
AcDbCircle
 10
1749.381409
 20
1572.5
 30
0.0
 40
2.819870000000001
100
AcDbArc
 50
174.5721
 51
253.2526000000003
  0
ARC
  5
2A5
330
1F
100
AcDbEntity
  8
水栓
  6
CONTINUOUS
 62
     6
100
AcDbCircle
 10
1679.70001
 20
1514.08554
 30
0.0
 40
1.0
100
AcDbArc
 50
180.0
 51
270.0000000000002
  0
ARC
  5
2A6
330
1F
100
AcDbEntity
  8
水栓
  6
CONTINUOUS
 62
     6
100
AcDbCircle
 10
1687.29999
 20
1514.08554
 30
0.0
 40
1.0
100
AcDbArc
 50
270.0000000000002
 51
0.0
  0
ARC
  5
2A7
330
1F
100
AcDbEntity
  8
水栓
  6
CONTINUOUS
 62
     6
100
AcDbCircle
 10
1686.29999
 20
1518.06766
 30
0.0
 40
2.0
100
AcDbArc
 50
0.0
 51
90.00000000000001
  0
ARC
  5
2A8
330
1F
100
AcDbEntity
  8
水栓
  6
CONTINUOUS
 62
     6
100
AcDbCircle
 10
1680.70001
 20
1518.06766
 30
0.0
 40
2.0
100
AcDbArc
 50
90.00000000000001
 51
180.0
  0
ARC
  5
2A9
330
1F
100
AcDbEntity
  8
水栓
  6
CONTINUOUS
 62
     6
100
AcDbCircle
 10
1686.19653
 20
1525.01788
 30
0.0
 40
2.0
100
AcDbArc
 50
270.0000000000002
 51
357.6201000000001
  0
ARC
  5
2AA
330
1F
100
AcDbEntity
  8
水栓
  6
CONTINUOUS
 62
     6
100
AcDbCircle
 10
1566.3232
 20
1530.0
 30
0.0
 40
121.9769000000001
100
AcDbArc
 50
357.6201000000001
 51
2.379943999999947
  0
ARC
  5
2AB
330
1F
100
AcDbEntity
  8
水栓
  6
CONTINUOUS
 62
     6
100
AcDbCircle
 10
1680.80347
 20
1525.01788
 30
0.0
 40
2.0
100
AcDbArc
 50
182.3799000000001
 51
270.0000000000002
  0
ARC
  5
2AC
330
1F
100
AcDbEntity
  8
水栓
  6
CONTINUOUS
 62
     6
100
AcDbCircle
 10
1800.67685
 20
1530.0
 30
0.0
 40
121.9769000000001
100
AcDbArc
 50
177.6201
 51
182.3799000000001
  0
ARC
  5
2AD
330
1F
100
AcDbEntity
  8
水栓
  6
CONTINUOUS
 62
     6
100
AcDbCircle
 10
1715.0
 20
1586.85925
 30
0.0
 40
7.640748000000008
100
AcDbArc
 50
47.58263999999996
 51
132.4172000000001
  0
ARC
  5
2AE
330
1F
100
AcDbEntity
  8
水栓
  6
CONTINUOUS
 62
     6
100
AcDbCircle
 10
1715.0
 20
1593.5203
 30
0.0
 40
8.520332
100
AcDbArc
 50
232.7791000000003
 51
307.2211000000003
  0
ARC
  5
2AF
330
1F
100
AcDbEntity
  8
水栓
  6
CONTINUOUS
 62
     6
100
AcDbCircle
 10
1717.29956
 20
1584.85069
 30
0.0
 40
11.68415
100
AcDbArc
 50
40.09856999999996
 51
53.14876999999996
  0
ARC
  5
2B0
330
1F
100
AcDbEntity
  8
水栓
  6
CONTINUOUS
 62
     6
100
AcDbCircle
 10
1723.40738
 20
1593.0
 30
0.0
 40
1.5
100
AcDbArc
 50
53.14867999999995
 51
83.73278999999997
  0
ARC
  5
2B1
330
1F
100
AcDbEntity
  8
水栓
  6
CONTINUOUS
 62
     6
100
AcDbCircle
 10
1723.91556
 20
1591.5109
 30
0.0
 40
3.000000000000002
100
AcDbArc
 50
96.59277
 51
160.7487
  0
ARC
  5
2B2
330
1F
100
AcDbEntity
  8
水栓
  6
CONTINUOUS
 62
     6
100
AcDbCircle
 10
1723.80548
 20
1587.9965
 30
0.0
 40
3.000000000000002
100
AcDbArc
 50
204.8529
 51
265.1772000000001
  0
ARC
  5
2B3
330
1F
100
AcDbEntity
  8
水栓
  6
CONTINUOUS
 62
     6
100
AcDbCircle
 10
1723.40738
 20
1586.5
 30
0.0
 40
1.5
100
AcDbArc
 50
270.0000000000002
 51
306.8513
  0
ARC
  5
2B4
330
1F
100
AcDbEntity
  8
水栓
  6
CONTINUOUS
 62
     6
100
AcDbCircle
 10
1717.29956
 20
1594.6493
 30
0.0
 40
11.68415
100
AcDbArc
 50
306.8512000000001
 51
319.9014000000001
  0
ARC
  5
2B5
330
1F
100
AcDbEntity
  8
水栓
  6
CONTINUOUS
 62
     6
100
AcDbCircle
 10
1698.06042
 20
1501.2
 30
0.0
 40
8.59941600000001
100
AcDbArc
 50
322.7173000000004
 51
37.28264999999995
  0
ARC
  5
2B6
330
1F
100
AcDbEntity
  8
水栓
  6
CONTINUOUS
 62
     6
100
AcDbCircle
 10
1703.74167
 20
1505.52524
 30
0.0
 40
1.459078
100
AcDbArc
 50
37.28277999999997
 51
142.7172
  0
ARC
  5
2B7
330
1F
100
AcDbEntity
  8
水栓
  6
CONTINUOUS
 62
     6
100
AcDbCircle
 10
1709.42291
 20
1501.2
 30
0.0
 40
8.59941600000001
100
AcDbArc
 50
142.7173
 51
217.2827
  0
ARC
  5
2B8
330
1F
100
AcDbEntity
  8
水栓
  6
CONTINUOUS
 62
     6
100
AcDbCircle
 10
1703.74167
 20
1496.874759
 30
0.0
 40
1.459078
100
AcDbArc
 50
217.2827
 51
322.7172000000001
  0
ARC
  5
2B9
330
1F
100
AcDbEntity
  8
水栓
  6
CONTINUOUS
 62
     6
100
AcDbCircle
 10
1712.05585
 20
1501.2
 30
0.0
 40
2.892159000000002
100
AcDbArc
 50
178.9791000000001
 51
181.0209000000001
  0
ARC
  5
2BA
330
1F
100
AcDbEntity
  8
水栓
  6
CONTINUOUS
 62
     6
100
AcDbCircle
 10
1680.80347
 20
1534.98212
 30
0.0
 40
2.0
100
AcDbArc
 50
90.00000000000001
 51
177.6200000000001
  0
ARC
  5
2BB
330
1F
100
AcDbEntity
  8
水栓
  6
CONTINUOUS
 62
     6
100
AcDbCircle
 10
1686.19653
 20
1534.98212
 30
0.0
 40
2.0
100
AcDbArc
 50
2.379882999999988
 51
90.00000000000001
  0
ARC
  5
2BC
330
1F
100
AcDbEntity
  8
水栓
  6
CONTINUOUS
 62
     6
100
AcDbCircle
 10
1680.70001
 20
1541.93234
 30
0.0
 40
2.0
100
AcDbArc
 50
180.0
 51
270.0000000000002
  0
ARC
  5
2BD
330
1F
100
AcDbEntity
  8
水栓
  6
CONTINUOUS
 62
     6
100
AcDbCircle
 10
1679.70001
 20
1545.91446
 30
0.0
 40
1.0
100
AcDbArc
 50
90.00000000000001
 51
180.0
  0
ARC
  5
2BE
330
1F
100
AcDbEntity
  8
水栓
  6
CONTINUOUS
 62
     6
100
AcDbCircle
 10
1687.29999
 20
1545.91446
 30
0.0
 40
1.0
100
AcDbArc
 50
0.0
 51
90.00000000000001
  0
ARC
  5
2BF
330
1F
100
AcDbEntity
  8
水栓
  6
CONTINUOUS
 62
     6
100
AcDbCircle
 10
1686.29999
 20
1541.93234
 30
0.0
 40
2.0
100
AcDbArc
 50
270.0000000000002
 51
0.0
  0
ARC
  5
2C0
330
1F
100
AcDbEntity
  8
水栓
  6
CONTINUOUS
 62
     6
100
AcDbCircle
 10
1706.08444
 20
1591.5109
 30
0.0
 40
3.000000000000002
100
AcDbArc
 50
19.25128
 51
83.40723000000001
  0
ARC
  5
2C1
330
1F
100
AcDbEntity
  8
水栓
  6
CONTINUOUS
 62
     6
100
AcDbCircle
 10
1706.19452
 20
1587.9965
 30
0.0
 40
3.000000000000002
100
AcDbArc
 50
274.8228000000002
 51
335.1471000000002
  0
ARC
  5
2C2
330
1F
100
AcDbEntity
  8
水栓
  6
CONTINUOUS
 62
     6
100
AcDbCircle
 10
1706.59262
 20
1586.5
 30
0.0
 40
1.5
100
AcDbArc
 50
233.1487000000001
 51
270.0000000000002
  0
ARC
  5
2C3
330
1F
100
AcDbEntity
  8
水栓
  6
CONTINUOUS
 62
     6
100
AcDbCircle
 10
1712.70044
 20
1594.6493
 30
0.0
 40
11.68415
100
AcDbArc
 50
220.0986000000001
 51
233.1488
  0
ARC
  5
2C4
330
1F
100
AcDbEntity
  8
水栓
  6
CONTINUOUS
 62
     6
100
AcDbCircle
 10
1712.70044
 20
1584.85069
 30
0.0
 40
11.68415
100
AcDbArc
 50
126.8512
 51
139.9014
  0
ARC
  5
2C5
330
1F
100
AcDbEntity
  8
水栓
  6
CONTINUOUS
 62
     6
100
AcDbCircle
 10
1706.59262
 20
1593.0
 30
0.0
 40
1.5
100
AcDbArc
 50
96.26726999999997
 51
126.8513
  0
ARC
  5
2C6
330
1F
100
AcDbEntity
  8
水栓
  6
CONTINUOUS
 62
     6
100
AcDbCircle
 10
1766.61859
 20
1572.5
 30
0.0
 40
2.819870000000001
100
AcDbArc
 50
42.74008
 51
73.25259
  0
ARC
  5
2C7
330
1F
100
AcDbEntity
  8
水栓
  6
CONTINUOUS
 62
     6
100
AcDbCircle
 10
1766.61859
 20
1572.5
 30
0.0
 40
2.819870000000001
100
AcDbArc
 50
286.7474
 51
5.427886999999974
  0
ARC
  5
2C8
330
1F
100
AcDbEntity
  8
水栓
  6
CONTINUOUS
 62
     6
100
AcDbCircle
 10
1767.09326
 20
1570.9226
 30
0.0
 40
1.172602
100
AcDbArc
 50
253.2525
 51
286.7475000000001
  0
ARC
  5
2C9
330
1F
100
AcDbEntity
  8
水栓
  6
CONTINUOUS
 62
     6
100
AcDbCircle
 10
1767.56793
 20
1572.5
 30
0.0
 40
2.819870000000001
100
AcDbArc
 50
106.7474
 51
253.2526000000003
  0
ARC
  5
2CA
330
1F
100
AcDbEntity
  8
水栓
  6
CONTINUOUS
 62
     6
100
AcDbCircle
 10
1767.09326
 20
1574.0774
 30
0.0
 40
1.172602
100
AcDbArc
 50
73.25246999999997
 51
106.7475
  0
ARC
  5
2CB
330
1F
100
AcDbEntity
  8
水栓
  6
CONTINUOUS
 62
     6
100
AcDbCircle
 10
1761.31543
 20
1572.5
 30
0.0
 40
1.375
100
AcDbArc
 50
315.0506
 51
44.94942999999996
  0
LINE
  5
2CC
330
1F
100
AcDbEntity
  8
水栓
  6
EXLTYPE3
 62
     6
100
AcDbLine
 10
1700.0
 20
1550.0
 30
0.0
 11
1806.0
 21
1550.0
 31
0.0
  0
LINE
  5
2CD
330
1F
100
AcDbEntity
  8
水栓
  6
EXLTYPE3
 62
     6
100
AcDbLine
 10
1722.94
 20
1498.0000024227
 30
0.0
 11
1707.06
 21
1498.0000024227
 31
0.0
  0
LINE
  5
2CE
330
1F
100
AcDbEntity
  8
水栓
  6
EXLTYPE3
 62
     6
100
AcDbLine
 10
1715.0
 20
1498.9400024227
 30
0.0
 11
1715.0
 21
1463.0000024227
 31
0.0
  0
ARC
  5
2CF
330
1F
100
AcDbEntity
  8
水栓
  6
EXLTYPE3
 62
     6
100
AcDbCircle
 10
1740.0
 20
1463.0000024227
 30
0.0
 40
25.0
100
AcDbArc
 50
179.9999999999999
 51
213.9030612690827
  0
LINE
  5
2D0
330
1F
100
AcDbEntity
  8
水栓
  6
EXLTYPE3
 62
     6
100
AcDbLine
 10
1719.250437899453
 20
1449.055266045287
 30
0.0
 11
1730.749562100547
 21
1431.944738800113
 31
0.0
  0
LINE
  5
2D1
330
1F
100
AcDbEntity
  8
水栓
  6
EXLTYPE3
 62
     6
100
AcDbLine
 10
1715.0
 20
1532.2
 30
0.0
 11
1715.0
 21
1598.5
 31
0.0
  0
LINE
  5
2D2
330
1F
100
AcDbEntity
  8
水栓
  6
EXLTYPE3
 62
     6
100
AcDbLine
 10
1758.0
 20
1567.5
 30
0.0
 11
1758.0
 21
1586.975469212
 31
0.0
  0
LINE
  5
2D3
330
1F
100
AcDbEntity
  8
水栓
  6
EXLTYPE3
 62
     6
100
AcDbLine
 10
1692.0
 20
1530.0
 30
0.0
 11
1662.0
 21
1530.0
 31
0.0
  0
LINE
  5
2D4
330
1F
100
AcDbEntity
  8
水栓
  6
CONTINUOUS
 62
     6
100
AcDbLine
 10
1714.9998474
 20
1379.9998235681
 30
0.0
 11
1754.9998474
 21
1379.9998235681
 31
0.0
  0
ARC
  5
2D5
330
1F
100
AcDbEntity
  8
水栓
  6
CONTINUOUS
 62
     6
100
AcDbCircle
 10
1723.2888794
 20
1382.1438360681
 30
0.0
 40
4.3559611
100
AcDbArc
 50
40.96897887999995
 51
139.03100586
  0
LINE
  5
2D6
330
1F
100
AcDbEntity
  8
水栓
  6
CONTINUOUS
 62
     6
100
AcDbLine
 10
1726.577911400001
 20
1384.9998235681
 30
0.0
 11
1728.4616089
 21
1384.9998235681
 31
0.0
  0
ARC
  5
2D7
330
1F
100
AcDbEntity
  8
水栓
  6
CONTINUOUS
 62
     6
100
AcDbCircle
 10
1734.9998474
 20
1371.4997625681
 30
0.0
 40
15.0000095
100
AcDbArc
 50
64.15853881999998
 51
115.84147644
  0
LINE
  5
2D8
330
1F
100
AcDbEntity
  8
水栓
  6
CONTINUOUS
 62
     6
100
AcDbLine
 10
1741.538085900001
 20
1384.9998235681
 30
0.0
 11
1743.4216308
 21
1384.9998235681
 31
0.0
  0
ARC
  5
2D9
330
1F
100
AcDbEntity
  8
水栓
  6
CONTINUOUS
 62
     6
100
AcDbCircle
 10
1746.690979
 20
1382.1867132681
 30
0.0
 40
4.3130302
100
AcDbArc
 50
40.71034240999998
 51
139.28967285
  0
LINE
  5
2DA
330
1F
100
AcDbEntity
  8
水栓
  6
CONTINUOUS
 62
     6
100
AcDbLine
 10
1726.577911400001
 20
1384.9998235681
 30
0.0
 11
1726.577911400001
 21
1379.9998235681
 31
0.0
  0
LINE
  5
2DB
330
1F
100
AcDbEntity
  8
水栓
  6
CONTINUOUS
 62
     6
100
AcDbLine
 10
1728.4616089
 20
1384.9998235681
 30
0.0
 11
1728.4616089
 21
1379.9998235681
 31
0.0
  0
LINE
  5
2DC
330
1F
100
AcDbEntity
  8
水栓
  6
CONTINUOUS
 62
     6
100
AcDbLine
 10
1741.538085900001
 20
1384.9998235681
 30
0.0
 11
1741.538085900001
 21
1379.9998235681
 31
0.0
  0
LINE
  5
2DD
330
1F
100
AcDbEntity
  8
水栓
  6
CONTINUOUS
 62
     6
100
AcDbLine
 10
1743.4216308
 20
1384.9998235681
 30
0.0
 11
1743.4216308
 21
1379.9998235681
 31
0.0
  0
LINE
  5
2DE
330
1F
100
AcDbEntity
  8
水栓
  6
CONTINUOUS
 62
     6
100
AcDbLine
 10
1719.9998474
 20
1379.9998235681
 30
0.0
 11
1719.9998474
 21
1384.9998235681
 31
0.0
  0
LINE
  5
2DF
330
1F
100
AcDbEntity
  8
水栓
  6
CONTINUOUS
 62
     6
100
AcDbLine
 10
1719.9998474
 20
1384.9998235681
 30
0.0
 11
1721.499786400001
 21
1386.4997625681
 31
0.0
  0
LINE
  5
2E0
330
1F
100
AcDbEntity
  8
水栓
  6
CONTINUOUS
 62
     6
100
AcDbLine
 10
1721.499786400001
 20
1386.4997625681
 30
0.0
 11
1748.4999084
 21
1386.4997625681
 31
0.0
  0
LINE
  5
2E1
330
1F
100
AcDbEntity
  8
水栓
  6
CONTINUOUS
 62
     6
100
AcDbLine
 10
1748.4999084
 20
1386.4997625681
 30
0.0
 11
1749.9998474
 21
1384.9998235681
 31
0.0
  0
LINE
  5
2E2
330
1F
100
AcDbEntity
  8
水栓
  6
CONTINUOUS
 62
     6
100
AcDbLine
 10
1749.9998474
 20
1379.9998235681
 30
0.0
 11
1749.9998474
 21
1384.9998235681
 31
0.0
  0
LINE
  5
2E3
330
1F
100
AcDbEntity
  8
水栓
  6
CONTINUOUS
 62
     6
100
AcDbLine
 10
1722.4998474
 20
1389.9996710681
 30
0.0
 11
1722.4998474
 21
1386.4997625681
 31
0.0
  0
LINE
  5
2E4
330
1F
100
AcDbEntity
  8
水栓
  6
CONTINUOUS
 62
     6
100
AcDbLine
 10
1747.4998474
 20
1389.9996710681
 30
0.0
 11
1747.4998474
 21
1386.4997625681
 31
0.0
  0
POLYLINE
  5
2E5
330
1F
100
AcDbEntity
  8
水栓
  6
CONTINUOUS
 62
     6
100
AcDb2dPolyline
 66
     1
 10
0.0
 20
0.0
 30
0.0
 70
   128
  0
VERTEX
  5
2E6
330
2E5
100
AcDbEntity
  8
水栓
  6
CONTINUOUS
 62
     6
100
AcDbVertex
100
AcDb2dVertex
 10
1726.465911800001
 20
1394.6363592681
 30
0.0
  0
VERTEX
  5
2E7
330
2E5
100
AcDbEntity
  8
水栓
  6
CONTINUOUS
 62
     6
100
AcDbVertex
100
AcDb2dVertex
 10
1726.528015100001
 20
1395.0849676681
 30
0.0
  0
VERTEX
  5
2E8
330
2E5
100
AcDbEntity
  8
水栓
  6
CONTINUOUS
 62
     6
100
AcDbVertex
100
AcDb2dVertex
 10
1726.5653991
 20
1395.5405950681
 30
0.0
  0
VERTEX
  5
2E9
330
2E5
100
AcDbEntity
  8
水栓
  6
CONTINUOUS
 62
     6
100
AcDbVertex
100
AcDb2dVertex
 10
1726.5777588
 20
1395.9994268681
 30
0.0
  0
SEQEND
  5
2EA
330
2E5
100
AcDbEntity
  8
水栓
  6
CONTINUOUS
 62
     6
  0
POLYLINE
  5
2EB
330
1F
100
AcDbEntity
  8
水栓
  6
CONTINUOUS
 62
     6
100
AcDb2dPolyline
 66
     1
 10
0.0
 20
0.0
 30
0.0
 70
   128
  0
VERTEX
  5
2EC
330
2EB
100
AcDbEntity
  8
水栓
  6
CONTINUOUS
 62
     6
100
AcDbVertex
100
AcDb2dVertex
 10
1724.6792602
 20
1391.2257147681
 30
0.0
  0
VERTEX
  5
2ED
330
2EB
100
AcDbEntity
  8
水栓
  6
CONTINUOUS
 62
     6
100
AcDbVertex
100
AcDb2dVertex
 10
1724.9337768
 20
1391.4376592681
 30
0.0
  0
VERTEX
  5
2EE
330
2EB
100
AcDbEntity
  8
水栓
  6
CONTINUOUS
 62
     6
100
AcDbVertex
100
AcDb2dVertex
 10
1725.175781200001
 20
1391.6845464681
 30
0.0
  0
VERTEX
  5
2EF
330
2EB
100
AcDbEntity
  8
水栓
  6
CONTINUOUS
 62
     6
100
AcDbVertex
100
AcDb2dVertex
 10
1725.4035949
 20
1391.9643926681
 30
0.0
  0
VERTEX
  5
2F0
330
2EB
100
AcDbEntity
  8
水栓
  6
CONTINUOUS
 62
     6
100
AcDbVertex
100
AcDb2dVertex
 10
1725.6147766
 20
1392.2749090681
 30
0.0
  0
VERTEX
  5
2F1
330
2EB
100
AcDbEntity
  8
水栓
  6
CONTINUOUS
 62
     6
100
AcDbVertex
100
AcDb2dVertex
 10
1725.8085632
 20
1392.6138067681
 30
0.0
  0
VERTEX
  5
2F2
330
2EB
100
AcDbEntity
  8
水栓
  6
CONTINUOUS
 62
     6
100
AcDbVertex
100
AcDb2dVertex
 10
1725.9834289
 20
1392.9783392681
 30
0.0
  0
VERTEX
  5
2F3
330
2EB
100
AcDbEntity
  8
水栓
  6
CONTINUOUS
 62
     6
100
AcDbVertex
100
AcDb2dVertex
 10
1726.137390100001
 20
1393.3657598681
 30
0.0
  0
VERTEX
  5
2F4
330
2EB
100
AcDbEntity
  8
水栓
  6
CONTINUOUS
 62
     6
100
AcDbVertex
100
AcDb2dVertex
 10
1726.269836400001
 20
1393.7733221681
 30
0.0
  0
VERTEX
  5
2F5
330
2EB
100
AcDbEntity
  8
水栓
  6
CONTINUOUS
 62
     6
100
AcDbVertex
100
AcDb2dVertex
 10
1726.3795471
 20
1394.1978216681
 30
0.0
  0
VERTEX
  5
2F6
330
2EB
100
AcDbEntity
  8
水栓
  6
CONTINUOUS
 62
     6
100
AcDbVertex
100
AcDb2dVertex
 10
1726.465911800001
 20
1394.6363592681
 30
0.0
  0
SEQEND
  5
2F7
330
2EB
100
AcDbEntity
  8
水栓
  6
CONTINUOUS
 62
     6
  0
POLYLINE
  5
2F8
330
1F
100
AcDbEntity
  8
水栓
  6
CONTINUOUS
 62
     6
100
AcDb2dPolyline
 66
     1
 10
0.0
 20
0.0
 30
0.0
 70
   128
  0
VERTEX
  5
2F9
330
2F8
100
AcDbEntity
  8
水栓
  6
CONTINUOUS
 62
     6
100
AcDbVertex
100
AcDb2dVertex
 10
1726.5782165
 20
1396.0000372681
 30
0.0
  0
VERTEX
  5
2FA
330
2F8
100
AcDbEntity
  8
水栓
  6
CONTINUOUS
 62
     6
100
AcDbVertex
100
AcDb2dVertex
 10
1726.5657043
 20
1396.4591741681
 30
0.0
  0
VERTEX
  5
2FB
330
2F8
100
AcDbEntity
  8
水栓
  6
CONTINUOUS
 62
     6
100
AcDbVertex
100
AcDb2dVertex
 10
1726.5283203
 20
1396.9151067681
 30
0.0
  0
VERTEX
  5
2FC
330
2F8
100
AcDbEntity
  8
水栓
  6
CONTINUOUS
 62
     6
100
AcDbVertex
100
AcDb2dVertex
 10
1726.465911800001
 20
1397.3634100681
 30
0.0
  0
VERTEX
  5
2FD
330
2F8
100
AcDbEntity
  8
水栓
  6
CONTINUOUS
 62
     6
100
AcDbVertex
100
AcDb2dVertex
 10
1726.3795471
 20
1397.8016424681
 30
0.0
  0
VERTEX
  5
2FE
330
2F8
100
AcDbEntity
  8
水栓
  6
CONTINUOUS
 62
     6
100
AcDbVertex
100
AcDb2dVertex
 10
1726.2696838
 20
1398.2264471681
 30
0.0
  0
VERTEX
  5
2FF
330
2F8
100
AcDbEntity
  8
水栓
  6
CONTINUOUS
 62
     6
100
AcDbVertex
100
AcDb2dVertex
 10
1726.137390100001
 20
1398.6338567681
 30
0.0
  0
VERTEX
  5
300
330
2F8
100
AcDbEntity
  8
水栓
  6
CONTINUOUS
 62
     6
100
AcDbVertex
100
AcDb2dVertex
 10
1725.983123800001
 20
1399.0214300681
 30
0.0
  0
VERTEX
  5
301
330
2F8
100
AcDbEntity
  8
水栓
  6
CONTINUOUS
 62
     6
100
AcDbVertex
100
AcDb2dVertex
 10
1725.808410600001
 20
1399.3862676681
 30
0.0
  0
VERTEX
  5
302
330
2F8
100
AcDbEntity
  8
水栓
  6
CONTINUOUS
 62
     6
100
AcDbVertex
100
AcDb2dVertex
 10
1725.6147766
 20
1399.7248602681
 30
0.0
  0
VERTEX
  5
303
330
2F8
100
AcDbEntity
  8
水栓
  6
CONTINUOUS
 62
     6
100
AcDbVertex
100
AcDb2dVertex
 10
1725.4032898
 20
1400.0353765681
 30
0.0
  0
VERTEX
  5
304
330
2F8
100
AcDbEntity
  8
水栓
  6
CONTINUOUS
 62
     6
100
AcDbVertex
100
AcDb2dVertex
 10
1725.1756286
 20
1400.3152227681
 30
0.0
  0
VERTEX
  5
305
330
2F8
100
AcDbEntity
  8
水栓
  6
CONTINUOUS
 62
     6
100
AcDbVertex
100
AcDb2dVertex
 10
1724.9337768
 20
1400.5621099681
 30
0.0
  0
VERTEX
  5
306
330
2F8
100
AcDbEntity
  8
水栓
  6
CONTINUOUS
 62
     6
100
AcDbVertex
100
AcDb2dVertex
 10
1724.6792602
 20
1400.7742071681
 30
0.0
  0
VERTEX
  5
307
330
2F8
100
AcDbEntity
  8
水栓
  6
CONTINUOUS
 62
     6
100
AcDbVertex
100
AcDb2dVertex
 10
1724.4143677
 20
1400.9501409681
 30
0.0
  0
VERTEX
  5
308
330
2F8
100
AcDbEntity
  8
水栓
  6
CONTINUOUS
 62
     6
100
AcDbVertex
100
AcDb2dVertex
 10
1724.140319800001
 20
1401.0880804681
 30
0.0
  0
VERTEX
  5
309
330
2F8
100
AcDbEntity
  8
水栓
  6
CONTINUOUS
 62
     6
100
AcDbVertex
100
AcDb2dVertex
 10
1723.8601684
 20
1401.1874151681
 30
0.0
  0
VERTEX
  5
30A
330
2F8
100
AcDbEntity
  8
水栓
  6
CONTINUOUS
 62
     6
100
AcDbVertex
100
AcDb2dVertex
 10
1723.5758972
 20
1401.2473821681
 30
0.0
  0
VERTEX
  5
30B
330
2F8
100
AcDbEntity
  8
水栓
  6
CONTINUOUS
 62
     6
100
AcDbVertex
100
AcDb2dVertex
 10
1723.2888794
 20
1401.2676763681
 30
0.0
  0
VERTEX
  5
30C
330
2F8
100
AcDbEntity
  8
水栓
  6
CONTINUOUS
 62
     6
100
AcDbVertex
100
AcDb2dVertex
 10
1723.0021667
 20
1401.2476873681
 30
0.0
  0
VERTEX
  5
30D
330
2F8
100
AcDbEntity
  8
水栓
  6
CONTINUOUS
 62
     6
100
AcDbVertex
100
AcDb2dVertex
 10
1722.717590300001
 20
1401.1877203681
 30
0.0
  0
VERTEX
  5
30E
330
2F8
100
AcDbEntity
  8
水栓
  6
CONTINUOUS
 62
     6
100
AcDbVertex
100
AcDb2dVertex
 10
1722.437744100001
 20
1401.0880804681
 30
0.0
  0
VERTEX
  5
30F
330
2F8
100
AcDbEntity
  8
水栓
  6
CONTINUOUS
 62
     6
100
AcDbVertex
100
AcDb2dVertex
 10
1722.164154
 20
1400.9498357681
 30
0.0
  0
VERTEX
  5
310
330
2F8
100
AcDbEntity
  8
水栓
  6
CONTINUOUS
 62
     6
100
AcDbVertex
100
AcDb2dVertex
 10
1721.8989563
 20
1400.7739019681
 30
0.0
  0
VERTEX
  5
311
330
2F8
100
AcDbEntity
  8
水栓
  6
CONTINUOUS
 62
     6
100
AcDbVertex
100
AcDb2dVertex
 10
1721.6444397
 20
1400.5621099681
 30
0.0
  0
VERTEX
  5
312
330
2F8
100
AcDbEntity
  8
水栓
  6
CONTINUOUS
 62
     6
100
AcDbVertex
100
AcDb2dVertex
 10
1721.4024353
 20
1400.3152227681
 30
0.0
  0
VERTEX
  5
313
330
2F8
100
AcDbEntity
  8
水栓
  6
CONTINUOUS
 62
     6
100
AcDbVertex
100
AcDb2dVertex
 10
1721.1747741
 20
1400.0353765681
 30
0.0
  0
VERTEX
  5
314
330
2F8
100
AcDbEntity
  8
水栓
  6
CONTINUOUS
 62
     6
100
AcDbVertex
100
AcDb2dVertex
 10
1720.963287300001
 20
1399.7248602681
 30
0.0
  0
VERTEX
  5
315
330
2F8
100
AcDbEntity
  8
水栓
  6
CONTINUOUS
 62
     6
100
AcDbVertex
100
AcDb2dVertex
 10
1720.7695007
 20
1399.3859625681
 30
0.0
  0
VERTEX
  5
316
330
2F8
100
AcDbEntity
  8
水栓
  6
CONTINUOUS
 62
     6
100
AcDbVertex
100
AcDb2dVertex
 10
1720.5947876
 20
1399.0214300681
 30
0.0
  0
VERTEX
  5
317
330
2F8
100
AcDbEntity
  8
水栓
  6
CONTINUOUS
 62
     6
100
AcDbVertex
100
AcDb2dVertex
 10
1720.440673800001
 20
1398.6338567681
 30
0.0
  0
VERTEX
  5
318
330
2F8
100
AcDbEntity
  8
水栓
  6
CONTINUOUS
 62
     6
100
AcDbVertex
100
AcDb2dVertex
 10
1720.308227500001
 20
1398.2262945681
 30
0.0
  0
VERTEX
  5
319
330
2F8
100
AcDbEntity
  8
水栓
  6
CONTINUOUS
 62
     6
100
AcDbVertex
100
AcDb2dVertex
 10
1720.198669400001
 20
1397.8017950681
 30
0.0
  0
VERTEX
  5
31A
330
2F8
100
AcDbEntity
  8
水栓
  6
CONTINUOUS
 62
     6
100
AcDbVertex
100
AcDb2dVertex
 10
1720.1121521
 20
1397.3634100681
 30
0.0
  0
VERTEX
  5
31B
330
2F8
100
AcDbEntity
  8
水栓
  6
CONTINUOUS
 62
     6
100
AcDbVertex
100
AcDb2dVertex
 10
1720.0502014
 20
1396.9148016681
 30
0.0
  0
VERTEX
  5
31C
330
2F8
100
AcDbEntity
  8
水栓
  6
CONTINUOUS
 62
     6
100
AcDbVertex
100
AcDb2dVertex
 10
1720.0128174
 20
1396.4591741681
 30
0.0
  0
VERTEX
  5
31D
330
2F8
100
AcDbEntity
  8
水栓
  6
CONTINUOUS
 62
     6
100
AcDbVertex
100
AcDb2dVertex
 10
1720.0
 20
1396.0000372681
 30
0.0
  0
VERTEX
  5
31E
330
2F8
100
AcDbEntity
  8
水栓
  6
CONTINUOUS
 62
     6
100
AcDbVertex
100
AcDb2dVertex
 10
1720.012512200001
 20
1395.5410528681
 30
0.0
  0
VERTEX
  5
31F
330
2F8
100
AcDbEntity
  8
水栓
  6
CONTINUOUS
 62
     6
100
AcDbVertex
100
AcDb2dVertex
 10
1720.050048800001
 20
1395.0855779681
 30
0.0
  0
VERTEX
  5
320
330
2F8
100
AcDbEntity
  8
水栓
  6
CONTINUOUS
 62
     6
100
AcDbVertex
100
AcDb2dVertex
 10
1720.1121521
 20
1394.6363592681
 30
0.0
  0
VERTEX
  5
321
330
2F8
100
AcDbEntity
  8
水栓
  6
CONTINUOUS
 62
     6
100
AcDbVertex
100
AcDb2dVertex
 10
1720.1985168
 20
1394.1981268681
 30
0.0
  0
VERTEX
  5
322
330
2F8
100
AcDbEntity
  8
水栓
  6
CONTINUOUS
 62
     6
100
AcDbVertex
100
AcDb2dVertex
 10
1720.308532700001
 20
1393.7733221681
 30
0.0
  0
VERTEX
  5
323
330
2F8
100
AcDbEntity
  8
水栓
  6
CONTINUOUS
 62
     6
100
AcDbVertex
100
AcDb2dVertex
 10
1720.440673800001
 20
1393.3657598681
 30
0.0
  0
VERTEX
  5
324
330
2F8
100
AcDbEntity
  8
水栓
  6
CONTINUOUS
 62
     6
100
AcDbVertex
100
AcDb2dVertex
 10
1720.594940200001
 20
1392.9781866681
 30
0.0
  0
VERTEX
  5
325
330
2F8
100
AcDbEntity
  8
水栓
  6
CONTINUOUS
 62
     6
100
AcDbVertex
100
AcDb2dVertex
 10
1720.7698059
 20
1392.6133489681
 30
0.0
  0
VERTEX
  5
326
330
2F8
100
AcDbEntity
  8
水栓
  6
CONTINUOUS
 62
     6
100
AcDbVertex
100
AcDb2dVertex
 10
1720.963287300001
 20
1392.2749090681
 30
0.0
  0
VERTEX
  5
327
330
2F8
100
AcDbEntity
  8
水栓
  6
CONTINUOUS
 62
     6
100
AcDbVertex
100
AcDb2dVertex
 10
1721.1749267
 20
1391.9643926681
 30
0.0
  0
VERTEX
  5
328
330
2F8
100
AcDbEntity
  8
水栓
  6
CONTINUOUS
 62
     6
100
AcDbVertex
100
AcDb2dVertex
 10
1721.4025879
 20
1391.6845464681
 30
0.0
  0
VERTEX
  5
329
330
2F8
100
AcDbEntity
  8
水栓
  6
CONTINUOUS
 62
     6
100
AcDbVertex
100
AcDb2dVertex
 10
1721.6444397
 20
1391.4376592681
 30
0.0
  0
VERTEX
  5
32A
330
2F8
100
AcDbEntity
  8
水栓
  6
CONTINUOUS
 62
     6
100
AcDbVertex
100
AcDb2dVertex
 10
1721.8989563
 20
1391.2255621681
 30
0.0
  0
VERTEX
  5
32B
330
2F8
100
AcDbEntity
  8
水栓
  6
CONTINUOUS
 62
     6
100
AcDbVertex
100
AcDb2dVertex
 10
1722.1640014
 20
1391.0496282681
 30
0.0
  0
VERTEX
  5
32C
330
2F8
100
AcDbEntity
  8
水栓
  6
CONTINUOUS
 62
     6
100
AcDbVertex
100
AcDb2dVertex
 10
1722.437744100001
 20
1390.9115362681
 30
0.0
  0
VERTEX
  5
32D
330
2F8
100
AcDbEntity
  8
水栓
  6
CONTINUOUS
 62
     6
100
AcDbVertex
100
AcDb2dVertex
 10
1722.7178955
 20
1390.8122015681
 30
0.0
  0
VERTEX
  5
32E
330
2F8
100
AcDbEntity
  8
水栓
  6
CONTINUOUS
 62
     6
100
AcDbVertex
100
AcDb2dVertex
 10
1723.002319300001
 20
1390.7522344681
 30
0.0
  0
VERTEX
  5
32F
330
2F8
100
AcDbEntity
  8
水栓
  6
CONTINUOUS
 62
     6
100
AcDbVertex
100
AcDb2dVertex
 10
1723.2888794
 20
1390.7317877681
 30
0.0
  0
VERTEX
  5
330
330
2F8
100
AcDbEntity
  8
水栓
  6
CONTINUOUS
 62
     6
100
AcDbVertex
100
AcDb2dVertex
 10
1723.575439400001
 20
1390.7517767681
 30
0.0
  0
VERTEX
  5
331
330
2F8
100
AcDbEntity
  8
水栓
  6
CONTINUOUS
 62
     6
100
AcDbVertex
100
AcDb2dVertex
 10
1723.8598633
 20
1390.8117437681
 30
0.0
  0
VERTEX
  5
332
330
2F8
100
AcDbEntity
  8
水栓
  6
CONTINUOUS
 62
     6
100
AcDbVertex
100
AcDb2dVertex
 10
1724.140319800001
 20
1390.9115362681
 30
0.0
  0
VERTEX
  5
333
330
2F8
100
AcDbEntity
  8
水栓
  6
CONTINUOUS
 62
     6
100
AcDbVertex
100
AcDb2dVertex
 10
1724.4140625
 20
1391.0497808681
 30
0.0
  0
VERTEX
  5
334
330
2F8
100
AcDbEntity
  8
水栓
  6
CONTINUOUS
 62
     6
100
AcDbVertex
100
AcDb2dVertex
 10
1724.6792602
 20
1391.2257147681
 30
0.0
  0
SEQEND
  5
335
330
2F8
100
AcDbEntity
  8
水栓
  6
CONTINUOUS
 62
     6
  0
POLYLINE
  5
336
330
1F
100
AcDbEntity
  8
水栓
  6
CONTINUOUS
 62
     6
100
AcDb2dPolyline
 66
     1
 10
0.0
 20
0.0
 30
0.0
 70
   128
  0
VERTEX
  5
337
330
336
100
AcDbEntity
  8
水栓
  6
CONTINUOUS
 62
     6
100
AcDbVertex
100
AcDb2dVertex
 10
1741.3156128
 20
1394.6363592681
 30
0.0
  0
VERTEX
  5
338
330
336
100
AcDbEntity
  8
水栓
  6
CONTINUOUS
 62
     6
100
AcDbVertex
100
AcDb2dVertex
 10
1741.4390564
 20
1395.0849676681
 30
0.0
  0
VERTEX
  5
339
330
336
100
AcDbEntity
  8
水栓
  6
CONTINUOUS
 62
     6
100
AcDbVertex
100
AcDb2dVertex
 10
1741.513519300001
 20
1395.5405950681
 30
0.0
  0
VERTEX
  5
33A
330
336
100
AcDbEntity
  8
水栓
  6
CONTINUOUS
 62
     6
100
AcDbVertex
100
AcDb2dVertex
 10
1741.5386963
 20
1395.9994268681
 30
0.0
  0
SEQEND
  5
33B
330
336
100
AcDbEntity
  8
水栓
  6
CONTINUOUS
 62
     6
  0
POLYLINE
  5
33C
330
1F
100
AcDbEntity
  8
水栓
  6
CONTINUOUS
 62
     6
100
AcDb2dPolyline
 66
     1
 10
0.0
 20
0.0
 30
0.0
 70
   128
  0
VERTEX
  5
33D
330
33C
100
AcDbEntity
  8
水栓
  6
CONTINUOUS
 62
     6
100
AcDbVertex
100
AcDb2dVertex
 10
1737.762756300001
 20
1391.2257147681
 30
0.0
  0
VERTEX
  5
33E
330
33C
100
AcDbEntity
  8
水栓
  6
CONTINUOUS
 62
     6
100
AcDbVertex
100
AcDb2dVertex
 10
1738.269348100001
 20
1391.4378118681
 30
0.0
  0
VERTEX
  5
33F
330
33C
100
AcDbEntity
  8
水栓
  6
CONTINUOUS
 62
     6
100
AcDbVertex
100
AcDb2dVertex
 10
1738.7504577
 20
1391.6846990681
 30
0.0
  0
VERTEX
  5
340
330
33C
100
AcDbEntity
  8
水栓
  6
CONTINUOUS
 62
     6
100
AcDbVertex
100
AcDb2dVertex
 10
1739.2030334
 20
1391.9643926681
 30
0.0
  0
VERTEX
  5
341
330
33C
100
AcDbEntity
  8
水栓
  6
CONTINUOUS
 62
     6
100
AcDbVertex
100
AcDb2dVertex
 10
1739.623107900001
 20
1392.2749090681
 30
0.0
  0
VERTEX
  5
342
330
33C
100
AcDbEntity
  8
水栓
  6
CONTINUOUS
 62
     6
100
AcDbVertex
100
AcDb2dVertex
 10
1740.0083923
 20
1392.6136541681
 30
0.0
  0
VERTEX
  5
343
330
33C
100
AcDbEntity
  8
水栓
  6
CONTINUOUS
 62
     6
100
AcDbVertex
100
AcDb2dVertex
 10
1740.3553772
 20
1392.9781866681
 30
0.0
  0
VERTEX
  5
344
330
33C
100
AcDbEntity
  8
水栓
  6
CONTINUOUS
 62
     6
100
AcDbVertex
100
AcDb2dVertex
 10
1740.662384
 20
1393.3657598681
 30
0.0
  0
VERTEX
  5
345
330
33C
100
AcDbEntity
  8
水栓
  6
CONTINUOUS
 62
     6
100
AcDbVertex
100
AcDb2dVertex
 10
1740.9257507
 20
1393.7733221681
 30
0.0
  0
VERTEX
  5
346
330
33C
100
AcDbEntity
  8
水栓
  6
CONTINUOUS
 62
     6
100
AcDbVertex
100
AcDb2dVertex
 10
1741.1439514
 20
1394.1978216681
 30
0.0
  0
VERTEX
  5
347
330
33C
100
AcDbEntity
  8
水栓
  6
CONTINUOUS
 62
     6
100
AcDbVertex
100
AcDb2dVertex
 10
1741.3156128
 20
1394.6363592681
 30
0.0
  0
SEQEND
  5
348
330
33C
100
AcDbEntity
  8
水栓
  6
CONTINUOUS
 62
     6
  0
POLYLINE
  5
349
330
1F
100
AcDbEntity
  8
水栓
  6
CONTINUOUS
 62
     6
100
AcDb2dPolyline
 66
     1
 10
0.0
 20
0.0
 30
0.0
 70
   128
  0
VERTEX
  5
34A
330
349
100
AcDbEntity
  8
水栓
  6
CONTINUOUS
 62
     6
100
AcDbVertex
100
AcDb2dVertex
 10
1741.538085900001
 20
1396.0000372681
 30
0.0
  0
VERTEX
  5
34B
330
349
100
AcDbEntity
  8
水栓
  6
CONTINUOUS
 62
     6
100
AcDbVertex
100
AcDb2dVertex
 10
1741.5132141
 20
1396.4591741681
 30
0.0
  0
VERTEX
  5
34C
330
349
100
AcDbEntity
  8
水栓
  6
CONTINUOUS
 62
     6
100
AcDbVertex
100
AcDb2dVertex
 10
1741.4387512
 20
1396.9151067681
 30
0.0
  0
VERTEX
  5
34D
330
349
100
AcDbEntity
  8
水栓
  6
CONTINUOUS
 62
     6
100
AcDbVertex
100
AcDb2dVertex
 10
1741.3156128
 20
1397.3634100681
 30
0.0
  0
VERTEX
  5
34E
330
349
100
AcDbEntity
  8
水栓
  6
CONTINUOUS
 62
     6
100
AcDbVertex
100
AcDb2dVertex
 10
1741.144104
 20
1397.8016424681
 30
0.0
  0
VERTEX
  5
34F
330
349
100
AcDbEntity
  8
水栓
  6
CONTINUOUS
 62
     6
100
AcDbVertex
100
AcDb2dVertex
 10
1740.925903300001
 20
1398.2264471681
 30
0.0
  0
VERTEX
  5
350
330
349
100
AcDbEntity
  8
水栓
  6
CONTINUOUS
 62
     6
100
AcDbVertex
100
AcDb2dVertex
 10
1740.662384
 20
1398.6338567681
 30
0.0
  0
VERTEX
  5
351
330
349
100
AcDbEntity
  8
水栓
  6
CONTINUOUS
 62
     6
100
AcDbVertex
100
AcDb2dVertex
 10
1740.3558349
 20
1399.0214300681
 30
0.0
  0
VERTEX
  5
352
330
349
100
AcDbEntity
  8
水栓
  6
CONTINUOUS
 62
     6
100
AcDbVertex
100
AcDb2dVertex
 10
1740.0086975
 20
1399.3862676681
 30
0.0
  0
VERTEX
  5
353
330
349
100
AcDbEntity
  8
水栓
  6
CONTINUOUS
 62
     6
100
AcDbVertex
100
AcDb2dVertex
 10
1739.623107900001
 20
1399.7248602681
 30
0.0
  0
VERTEX
  5
354
330
349
100
AcDbEntity
  8
水栓
  6
CONTINUOUS
 62
     6
100
AcDbVertex
100
AcDb2dVertex
 10
1739.2024231
 20
1400.0353765681
 30
0.0
  0
VERTEX
  5
355
330
349
100
AcDbEntity
  8
水栓
  6
CONTINUOUS
 62
     6
100
AcDbVertex
100
AcDb2dVertex
 10
1738.7498474
 20
1400.3150701681
 30
0.0
  0
VERTEX
  5
356
330
349
100
AcDbEntity
  8
水栓
  6
CONTINUOUS
 62
     6
100
AcDbVertex
100
AcDb2dVertex
 10
1738.269348100001
 20
1400.5619573681
 30
0.0
  0
VERTEX
  5
357
330
349
100
AcDbEntity
  8
水栓
  6
CONTINUOUS
 62
     6
100
AcDbVertex
100
AcDb2dVertex
 10
1737.763519300001
 20
1400.7742071681
 30
0.0
  0
VERTEX
  5
358
330
349
100
AcDbEntity
  8
水栓
  6
CONTINUOUS
 62
     6
100
AcDbVertex
100
AcDb2dVertex
 10
1737.2366333
 20
1400.9501409681
 30
0.0
  0
VERTEX
  5
359
330
349
100
AcDbEntity
  8
水栓
  6
CONTINUOUS
 62
     6
100
AcDbVertex
100
AcDb2dVertex
 10
1736.6920471
 20
1401.0880804681
 30
0.0
  0
VERTEX
  5
35A
330
349
100
AcDbEntity
  8
水栓
  6
CONTINUOUS
 62
     6
100
AcDbVertex
100
AcDb2dVertex
 10
1736.1351013
 20
1401.1875677681
 30
0.0
  0
VERTEX
  5
35B
330
349
100
AcDbEntity
  8
水栓
  6
CONTINUOUS
 62
     6
100
AcDbVertex
100
AcDb2dVertex
 10
1735.569458
 20
1401.2475347681
 30
0.0
  0
VERTEX
  5
35C
330
349
100
AcDbEntity
  8
水栓
  6
CONTINUOUS
 62
     6
100
AcDbVertex
100
AcDb2dVertex
 10
1735.0
 20
1401.2676763681
 30
0.0
  0
VERTEX
  5
35D
330
349
100
AcDbEntity
  8
水栓
  6
CONTINUOUS
 62
     6
100
AcDbVertex
100
AcDb2dVertex
 10
1734.4300842
 20
1401.2476873681
 30
0.0
  0
VERTEX
  5
35E
330
349
100
AcDbEntity
  8
水栓
  6
CONTINUOUS
 62
     6
100
AcDbVertex
100
AcDb2dVertex
 10
1733.8645935
 20
1401.1877203681
 30
0.0
  0
VERTEX
  5
35F
330
349
100
AcDbEntity
  8
水栓
  6
CONTINUOUS
 62
     6
100
AcDbVertex
100
AcDb2dVertex
 10
1733.307952900001
 20
1401.0880804681
 30
0.0
  0
VERTEX
  5
360
330
349
100
AcDbEntity
  8
水栓
  6
CONTINUOUS
 62
     6
100
AcDbVertex
100
AcDb2dVertex
 10
1732.763977000001
 20
1400.9498357681
 30
0.0
  0
VERTEX
  5
361
330
349
100
AcDbEntity
  8
水栓
  6
CONTINUOUS
 62
     6
100
AcDbVertex
100
AcDb2dVertex
 10
1732.237243600001
 20
1400.7739019681
 30
0.0
  0
VERTEX
  5
362
330
349
100
AcDbEntity
  8
水栓
  6
CONTINUOUS
 62
     6
100
AcDbVertex
100
AcDb2dVertex
 10
1731.7306518
 20
1400.5619573681
 30
0.0
  0
VERTEX
  5
363
330
349
100
AcDbEntity
  8
水栓
  6
CONTINUOUS
 62
     6
100
AcDbVertex
100
AcDb2dVertex
 10
1731.2495422
 20
1400.3150701681
 30
0.0
  0
VERTEX
  5
364
330
349
100
AcDbEntity
  8
水栓
  6
CONTINUOUS
 62
     6
100
AcDbVertex
100
AcDb2dVertex
 10
1730.7969665
 20
1400.0353765681
 30
0.0
  0
VERTEX
  5
365
330
349
100
AcDbEntity
  8
水栓
  6
CONTINUOUS
 62
     6
100
AcDbVertex
100
AcDb2dVertex
 10
1730.3768921
 20
1399.7248602681
 30
0.0
  0
VERTEX
  5
366
330
349
100
AcDbEntity
  8
水栓
  6
CONTINUOUS
 62
     6
100
AcDbVertex
100
AcDb2dVertex
 10
1729.9916076
 20
1399.3861150681
 30
0.0
  0
VERTEX
  5
367
330
349
100
AcDbEntity
  8
水栓
  6
CONTINUOUS
 62
     6
100
AcDbVertex
100
AcDb2dVertex
 10
1729.6446228
 20
1399.0215826681
 30
0.0
  0
VERTEX
  5
368
330
349
100
AcDbEntity
  8
水栓
  6
CONTINUOUS
 62
     6
100
AcDbVertex
100
AcDb2dVertex
 10
1729.3376159
 20
1398.6338567681
 30
0.0
  0
VERTEX
  5
369
330
349
100
AcDbEntity
  8
水栓
  6
CONTINUOUS
 62
     6
100
AcDbVertex
100
AcDb2dVertex
 10
1729.074249200001
 20
1398.2262945681
 30
0.0
  0
VERTEX
  5
36A
330
349
100
AcDbEntity
  8
水栓
  6
CONTINUOUS
 62
     6
100
AcDbVertex
100
AcDb2dVertex
 10
1728.856048600001
 20
1397.8017950681
 30
0.0
  0
VERTEX
  5
36B
330
349
100
AcDbEntity
  8
水栓
  6
CONTINUOUS
 62
     6
100
AcDbVertex
100
AcDb2dVertex
 10
1728.6845398
 20
1397.3634100681
 30
0.0
  0
VERTEX
  5
36C
330
349
100
AcDbEntity
  8
水栓
  6
CONTINUOUS
 62
     6
100
AcDbVertex
100
AcDb2dVertex
 10
1728.561096200001
 20
1396.9148016681
 30
0.0
  0
VERTEX
  5
36D
330
349
100
AcDbEntity
  8
水栓
  6
CONTINUOUS
 62
     6
100
AcDbVertex
100
AcDb2dVertex
 10
1728.4866333
 20
1396.4591741681
 30
0.0
  0
VERTEX
  5
36E
330
349
100
AcDbEntity
  8
水栓
  6
CONTINUOUS
 62
     6
100
AcDbVertex
100
AcDb2dVertex
 10
1728.461761500001
 20
1396.0000372681
 30
0.0
  0
VERTEX
  5
36F
330
349
100
AcDbEntity
  8
水栓
  6
CONTINUOUS
 62
     6
100
AcDbVertex
100
AcDb2dVertex
 10
1728.4866333
 20
1395.5410528681
 30
0.0
  0
VERTEX
  5
370
330
349
100
AcDbEntity
  8
水栓
  6
CONTINUOUS
 62
     6
100
AcDbVertex
100
AcDb2dVertex
 10
1728.561096200001
 20
1395.0855779681
 30
0.0
  0
VERTEX
  5
371
330
349
100
AcDbEntity
  8
水栓
  6
CONTINUOUS
 62
     6
100
AcDbVertex
100
AcDb2dVertex
 10
1728.6845398
 20
1394.6363592681
 30
0.0
  0
VERTEX
  5
372
330
349
100
AcDbEntity
  8
水栓
  6
CONTINUOUS
 62
     6
100
AcDbVertex
100
AcDb2dVertex
 10
1728.856048600001
 20
1394.1981268681
 30
0.0
  0
VERTEX
  5
373
330
349
100
AcDbEntity
  8
水栓
  6
CONTINUOUS
 62
     6
100
AcDbVertex
100
AcDb2dVertex
 10
1729.074249200001
 20
1393.7733221681
 30
0.0
  0
VERTEX
  5
374
330
349
100
AcDbEntity
  8
水栓
  6
CONTINUOUS
 62
     6
100
AcDbVertex
100
AcDb2dVertex
 10
1729.3376159
 20
1393.3657598681
 30
0.0
  0
VERTEX
  5
375
330
349
100
AcDbEntity
  8
水栓
  6
CONTINUOUS
 62
     6
100
AcDbVertex
100
AcDb2dVertex
 10
1729.644165000001
 20
1392.9781866681
 30
0.0
  0
VERTEX
  5
376
330
349
100
AcDbEntity
  8
水栓
  6
CONTINUOUS
 62
     6
100
AcDbVertex
100
AcDb2dVertex
 10
1729.991302500001
 20
1392.6133489681
 30
0.0
  0
VERTEX
  5
377
330
349
100
AcDbEntity
  8
水栓
  6
CONTINUOUS
 62
     6
100
AcDbVertex
100
AcDb2dVertex
 10
1730.3768921
 20
1392.2749090681
 30
0.0
  0
VERTEX
  5
378
330
349
100
AcDbEntity
  8
水栓
  6
CONTINUOUS
 62
     6
100
AcDbVertex
100
AcDb2dVertex
 10
1730.7975769
 20
1391.9643926681
 30
0.0
  0
VERTEX
  5
379
330
349
100
AcDbEntity
  8
水栓
  6
CONTINUOUS
 62
     6
100
AcDbVertex
100
AcDb2dVertex
 10
1731.250152600001
 20
1391.6846990681
 30
0.0
  0
VERTEX
  5
37A
330
349
100
AcDbEntity
  8
水栓
  6
CONTINUOUS
 62
     6
100
AcDbVertex
100
AcDb2dVertex
 10
1731.7306518
 20
1391.4378118681
 30
0.0
  0
VERTEX
  5
37B
330
349
100
AcDbEntity
  8
水栓
  6
CONTINUOUS
 62
     6
100
AcDbVertex
100
AcDb2dVertex
 10
1732.2364807
 20
1391.2255621681
 30
0.0
  0
VERTEX
  5
37C
330
349
100
AcDbEntity
  8
水栓
  6
CONTINUOUS
 62
     6
100
AcDbVertex
100
AcDb2dVertex
 10
1732.763366700001
 20
1391.0496282681
 30
0.0
  0
VERTEX
  5
37D
330
349
100
AcDbEntity
  8
水栓
  6
CONTINUOUS
 62
     6
100
AcDbVertex
100
AcDb2dVertex
 10
1733.307952900001
 20
1390.9115362681
 30
0.0
  0
VERTEX
  5
37E
330
349
100
AcDbEntity
  8
水栓
  6
CONTINUOUS
 62
     6
100
AcDbVertex
100
AcDb2dVertex
 10
1733.864898700001
 20
1390.8120489681
 30
0.0
  0
VERTEX
  5
37F
330
349
100
AcDbEntity
  8
水栓
  6
CONTINUOUS
 62
     6
100
AcDbVertex
100
AcDb2dVertex
 10
1734.430542
 20
1390.7520818681
 30
0.0
  0
VERTEX
  5
380
330
349
100
AcDbEntity
  8
水栓
  6
CONTINUOUS
 62
     6
100
AcDbVertex
100
AcDb2dVertex
 10
1735.0
 20
1390.7317877681
 30
0.0
  0
VERTEX
  5
381
330
349
100
AcDbEntity
  8
水栓
  6
CONTINUOUS
 62
     6
100
AcDbVertex
100
AcDb2dVertex
 10
1735.569915700001
 20
1390.7517767681
 30
0.0
  0
VERTEX
  5
382
330
349
100
AcDbEntity
  8
水栓
  6
CONTINUOUS
 62
     6
100
AcDbVertex
100
AcDb2dVertex
 10
1736.1354065
 20
1390.8117437681
 30
0.0
  0
VERTEX
  5
383
330
349
100
AcDbEntity
  8
水栓
  6
CONTINUOUS
 62
     6
100
AcDbVertex
100
AcDb2dVertex
 10
1736.6920471
 20
1390.9115362681
 30
0.0
  0
VERTEX
  5
384
330
349
100
AcDbEntity
  8
水栓
  6
CONTINUOUS
 62
     6
100
AcDbVertex
100
AcDb2dVertex
 10
1737.236022900001
 20
1391.0497808681
 30
0.0
  0
VERTEX
  5
385
330
349
100
AcDbEntity
  8
水栓
  6
CONTINUOUS
 62
     6
100
AcDbVertex
100
AcDb2dVertex
 10
1737.762756300001
 20
1391.2257147681
 30
0.0
  0
SEQEND
  5
386
330
349
100
AcDbEntity
  8
水栓
  6
CONTINUOUS
 62
     6
  0
POLYLINE
  5
387
330
1F
100
AcDbEntity
  8
水栓
  6
CONTINUOUS
 62
     6
100
AcDb2dPolyline
 66
     1
 10
0.0
 20
0.0
 30
0.0
 70
   128
  0
VERTEX
  5
388
330
387
100
AcDbEntity
  8
水栓
  6
CONTINUOUS
 62
     6
100
AcDbVertex
100
AcDb2dVertex
 10
1749.8492431
 20
1394.6363592681
 30
0.0
  0
VERTEX
  5
389
330
387
100
AcDbEntity
  8
水栓
  6
CONTINUOUS
 62
     6
100
AcDbVertex
100
AcDb2dVertex
 10
1749.9108886
 20
1395.0849676681
 30
0.0
  0
VERTEX
  5
38A
330
387
100
AcDbEntity
  8
水栓
  6
CONTINUOUS
 62
     6
100
AcDbVertex
100
AcDb2dVertex
 10
1749.948120100001
 20
1395.5405950681
 30
0.0
  0
VERTEX
  5
38B
330
387
100
AcDbEntity
  8
水栓
  6
CONTINUOUS
 62
     6
100
AcDbVertex
100
AcDb2dVertex
 10
1749.960632300001
 20
1395.9994268681
 30
0.0
  0
SEQEND
  5
38C
330
387
100
AcDbEntity
  8
水栓
  6
CONTINUOUS
 62
     6
  0
POLYLINE
  5
38D
330
1F
100
AcDbEntity
  8
水栓
  6
CONTINUOUS
 62
     6
100
AcDb2dPolyline
 66
     1
 10
0.0
 20
0.0
 30
0.0
 70
   128
  0
VERTEX
  5
38E
330
38D
100
AcDbEntity
  8
水栓
  6
CONTINUOUS
 62
     6
100
AcDbVertex
100
AcDb2dVertex
 10
1748.073120100001
 20
1391.2257147681
 30
0.0
  0
VERTEX
  5
38F
330
38D
100
AcDbEntity
  8
水栓
  6
CONTINUOUS
 62
     6
100
AcDbVertex
100
AcDb2dVertex
 10
1748.3259582
 20
1391.4378118681
 30
0.0
  0
VERTEX
  5
390
330
38D
100
AcDbEntity
  8
水栓
  6
CONTINUOUS
 62
     6
100
AcDbVertex
100
AcDb2dVertex
 10
1748.5665893
 20
1391.6846990681
 30
0.0
  0
VERTEX
  5
391
330
38D
100
AcDbEntity
  8
水栓
  6
CONTINUOUS
 62
     6
100
AcDbVertex
100
AcDb2dVertex
 10
1748.7928772
 20
1391.9643926681
 30
0.0
  0
VERTEX
  5
392
330
38D
100
AcDbEntity
  8
水栓
  6
CONTINUOUS
 62
     6
100
AcDbVertex
100
AcDb2dVertex
 10
1749.002990700001
 20
1392.2749090681
 30
0.0
  0
VERTEX
  5
393
330
38D
100
AcDbEntity
  8
水栓
  6
CONTINUOUS
 62
     6
100
AcDbVertex
100
AcDb2dVertex
 10
1749.1957092
 20
1392.6136541681
 30
0.0
  0
VERTEX
  5
394
330
38D
100
AcDbEntity
  8
水栓
  6
CONTINUOUS
 62
     6
100
AcDbVertex
100
AcDb2dVertex
 10
1749.369506800001
 20
1392.9781866681
 30
0.0
  0
VERTEX
  5
395
330
38D
100
AcDbEntity
  8
水栓
  6
CONTINUOUS
 62
     6
100
AcDbVertex
100
AcDb2dVertex
 10
1749.5227051
 20
1393.3657598681
 30
0.0
  0
VERTEX
  5
396
330
38D
100
AcDbEntity
  8
水栓
  6
CONTINUOUS
 62
     6
100
AcDbVertex
100
AcDb2dVertex
 10
1749.6543884
 20
1393.7733221681
 30
0.0
  0
VERTEX
  5
397
330
38D
100
AcDbEntity
  8
水栓
  6
CONTINUOUS
 62
     6
100
AcDbVertex
100
AcDb2dVertex
 10
1749.763793900001
 20
1394.1978216681
 30
0.0
  0
VERTEX
  5
398
330
38D
100
AcDbEntity
  8
水栓
  6
CONTINUOUS
 62
     6
100
AcDbVertex
100
AcDb2dVertex
 10
1749.8492431
 20
1394.6363592681
 30
0.0
  0
SEQEND
  5
399
330
38D
100
AcDbEntity
  8
水栓
  6
CONTINUOUS
 62
     6
  0
POLYLINE
  5
39A
330
1F
100
AcDbEntity
  8
水栓
  6
CONTINUOUS
 62
     6
100
AcDb2dPolyline
 66
     1
 10
0.0
 20
0.0
 30
0.0
 70
   128
  0
VERTEX
  5
39B
330
39A
100
AcDbEntity
  8
水栓
  6
CONTINUOUS
 62
     6
100
AcDbVertex
100
AcDb2dVertex
 10
1749.9604797
 20
1396.0000372681
 30
0.0
  0
VERTEX
  5
39C
330
39A
100
AcDbEntity
  8
水栓
  6
CONTINUOUS
 62
     6
100
AcDbVertex
100
AcDb2dVertex
 10
1749.9479675
 20
1396.4591741681
 30
0.0
  0
VERTEX
  5
39D
330
39A
100
AcDbEntity
  8
水栓
  6
CONTINUOUS
 62
     6
100
AcDbVertex
100
AcDb2dVertex
 10
1749.910736100001
 20
1396.9151067681
 30
0.0
  0
VERTEX
  5
39E
330
39A
100
AcDbEntity
  8
水栓
  6
CONTINUOUS
 62
     6
100
AcDbVertex
100
AcDb2dVertex
 10
1749.8492431
 20
1397.3634100681
 30
0.0
  0
VERTEX
  5
39F
330
39A
100
AcDbEntity
  8
水栓
  6
CONTINUOUS
 62
     6
100
AcDbVertex
100
AcDb2dVertex
 10
1749.7634887
 20
1397.8016424681
 30
0.0
  0
VERTEX
  5
3A0
330
39A
100
AcDbEntity
  8
水栓
  6
CONTINUOUS
 62
     6
100
AcDbVertex
100
AcDb2dVertex
 10
1749.6543884
 20
1398.2264471681
 30
0.0
  0
VERTEX
  5
3A1
330
39A
100
AcDbEntity
  8
水栓
  6
CONTINUOUS
 62
     6
100
AcDbVertex
100
AcDb2dVertex
 10
1749.5227051
 20
1398.6338567681
 30
0.0
  0
VERTEX
  5
3A2
330
39A
100
AcDbEntity
  8
水栓
  6
CONTINUOUS
 62
     6
100
AcDbVertex
100
AcDb2dVertex
 10
1749.369506800001
 20
1399.0214300681
 30
0.0
  0
VERTEX
  5
3A3
330
39A
100
AcDbEntity
  8
水栓
  6
CONTINUOUS
 62
     6
100
AcDbVertex
100
AcDb2dVertex
 10
1749.1960144
 20
1399.3862676681
 30
0.0
  0
VERTEX
  5
3A4
330
39A
100
AcDbEntity
  8
水栓
  6
CONTINUOUS
 62
     6
100
AcDbVertex
100
AcDb2dVertex
 10
1749.002990700001
 20
1399.7248602681
 30
0.0
  0
VERTEX
  5
3A5
330
39A
100
AcDbEntity
  8
水栓
  6
CONTINUOUS
 62
     6
100
AcDbVertex
100
AcDb2dVertex
 10
1748.792724600001
 20
1400.0353765681
 30
0.0
  0
VERTEX
  5
3A6
330
39A
100
AcDbEntity
  8
水栓
  6
CONTINUOUS
 62
     6
100
AcDbVertex
100
AcDb2dVertex
 10
1748.5665893
 20
1400.3150701681
 30
0.0
  0
VERTEX
  5
3A7
330
39A
100
AcDbEntity
  8
水栓
  6
CONTINUOUS
 62
     6
100
AcDbVertex
100
AcDb2dVertex
 10
1748.3259582
 20
1400.5619573681
 30
0.0
  0
VERTEX
  5
3A8
330
39A
100
AcDbEntity
  8
水栓
  6
CONTINUOUS
 62
     6
100
AcDbVertex
100
AcDb2dVertex
 10
1748.0729675
 20
1400.7742071681
 30
0.0
  0
VERTEX
  5
3A9
330
39A
100
AcDbEntity
  8
水栓
  6
CONTINUOUS
 62
     6
100
AcDbVertex
100
AcDb2dVertex
 10
1747.8096008
 20
1400.9501409681
 30
0.0
  0
VERTEX
  5
3AA
330
39A
100
AcDbEntity
  8
水栓
  6
CONTINUOUS
 62
     6
100
AcDbVertex
100
AcDb2dVertex
 10
1747.537384
 20
1401.0880804681
 30
0.0
  0
VERTEX
  5
3AB
330
39A
100
AcDbEntity
  8
水栓
  6
CONTINUOUS
 62
     6
100
AcDbVertex
100
AcDb2dVertex
 10
1747.258911100001
 20
1401.1875677681
 30
0.0
  0
VERTEX
  5
3AC
330
39A
100
AcDbEntity
  8
水栓
  6
CONTINUOUS
 62
     6
100
AcDbVertex
100
AcDb2dVertex
 10
1746.9763183
 20
1401.2475347681
 30
0.0
  0
VERTEX
  5
3AD
330
39A
100
AcDbEntity
  8
水栓
  6
CONTINUOUS
 62
     6
100
AcDbVertex
100
AcDb2dVertex
 10
1746.690979
 20
1401.2676763681
 30
0.0
  0
VERTEX
  5
3AE
330
39A
100
AcDbEntity
  8
水栓
  6
CONTINUOUS
 62
     6
100
AcDbVertex
100
AcDb2dVertex
 10
1746.405944800001
 20
1401.2476873681
 30
0.0
  0
VERTEX
  5
3AF
330
39A
100
AcDbEntity
  8
水栓
  6
CONTINUOUS
 62
     6
100
AcDbVertex
100
AcDb2dVertex
 10
1746.1230469
 20
1401.1877203681
 30
0.0
  0
VERTEX
  5
3B0
330
39A
100
AcDbEntity
  8
水栓
  6
CONTINUOUS
 62
     6
100
AcDbVertex
100
AcDb2dVertex
 10
1745.8448791
 20
1401.0880804681
 30
0.0
  0
VERTEX
  5
3B1
330
39A
100
AcDbEntity
  8
水栓
  6
CONTINUOUS
 62
     6
100
AcDbVertex
100
AcDb2dVertex
 10
1745.572814900001
 20
1400.9498357681
 30
0.0
  0
VERTEX
  5
3B2
330
39A
100
AcDbEntity
  8
水栓
  6
CONTINUOUS
 62
     6
100
AcDbVertex
100
AcDb2dVertex
 10
1745.3092956
 20
1400.7739019681
 30
0.0
  0
VERTEX
  5
3B3
330
39A
100
AcDbEntity
  8
水栓
  6
CONTINUOUS
 62
     6
100
AcDbVertex
100
AcDb2dVertex
 10
1745.0564575
 20
1400.5619573681
 30
0.0
  0
VERTEX
  5
3B4
330
39A
100
AcDbEntity
  8
水栓
  6
CONTINUOUS
 62
     6
100
AcDbVertex
100
AcDb2dVertex
 10
1744.815979
 20
1400.3150701681
 30
0.0
  0
VERTEX
  5
3B5
330
39A
100
AcDbEntity
  8
水栓
  6
CONTINUOUS
 62
     6
100
AcDbVertex
100
AcDb2dVertex
 10
1744.5895386
 20
1400.0353765681
 30
0.0
  0
VERTEX
  5
3B6
330
39A
100
AcDbEntity
  8
水栓
  6
CONTINUOUS
 62
     6
100
AcDbVertex
100
AcDb2dVertex
 10
1744.3792724
 20
1399.7248602681
 30
0.0
  0
VERTEX
  5
3B7
330
39A
100
AcDbEntity
  8
水栓
  6
CONTINUOUS
 62
     6
100
AcDbVertex
100
AcDb2dVertex
 10
1744.1865539
 20
1399.3861150681
 30
0.0
  0
VERTEX
  5
3B8
330
39A
100
AcDbEntity
  8
水栓
  6
CONTINUOUS
 62
     6
100
AcDbVertex
100
AcDb2dVertex
 10
1744.0129089
 20
1399.0215826681
 30
0.0
  0
VERTEX
  5
3B9
330
39A
100
AcDbEntity
  8
水栓
  6
CONTINUOUS
 62
     6
100
AcDbVertex
100
AcDb2dVertex
 10
1743.859710700001
 20
1398.6338567681
 30
0.0
  0
VERTEX
  5
3BA
330
39A
100
AcDbEntity
  8
水栓
  6
CONTINUOUS
 62
     6
100
AcDbVertex
100
AcDb2dVertex
 10
1743.728027300001
 20
1398.2262945681
 30
0.0
  0
VERTEX
  5
3BB
330
39A
100
AcDbEntity
  8
水栓
  6
CONTINUOUS
 62
     6
100
AcDbVertex
100
AcDb2dVertex
 10
1743.618774400001
 20
1397.8017950681
 30
0.0
  0
VERTEX
  5
3BC
330
39A
100
AcDbEntity
  8
水栓
  6
CONTINUOUS
 62
     6
100
AcDbVertex
100
AcDb2dVertex
 10
1743.533325200001
 20
1397.3634100681
 30
0.0
  0
VERTEX
  5
3BD
330
39A
100
AcDbEntity
  8
水栓
  6
CONTINUOUS
 62
     6
100
AcDbVertex
100
AcDb2dVertex
 10
1743.4716797
 20
1396.9148016681
 30
0.0
  0
VERTEX
  5
3BE
330
39A
100
AcDbEntity
  8
水栓
  6
CONTINUOUS
 62
     6
100
AcDbVertex
100
AcDb2dVertex
 10
1743.4346008
 20
1396.4591741681
 30
0.0
  0
VERTEX
  5
3BF
330
39A
100
AcDbEntity
  8
水栓
  6
CONTINUOUS
 62
     6
100
AcDbVertex
100
AcDb2dVertex
 10
1743.421936000001
 20
1396.0000372681
 30
0.0
  0
VERTEX
  5
3C0
330
39A
100
AcDbEntity
  8
水栓
  6
CONTINUOUS
 62
     6
100
AcDbVertex
100
AcDb2dVertex
 10
1743.434448200001
 20
1395.5410528681
 30
0.0
  0
VERTEX
  5
3C1
330
39A
100
AcDbEntity
  8
水栓
  6
CONTINUOUS
 62
     6
100
AcDbVertex
100
AcDb2dVertex
 10
1743.471832300001
 20
1395.0855779681
 30
0.0
  0
VERTEX
  5
3C2
330
39A
100
AcDbEntity
  8
水栓
  6
CONTINUOUS
 62
     6
100
AcDbVertex
100
AcDb2dVertex
 10
1743.533325200001
 20
1394.6363592681
 30
0.0
  0
VERTEX
  5
3C3
330
39A
100
AcDbEntity
  8
水栓
  6
CONTINUOUS
 62
     6
100
AcDbVertex
100
AcDb2dVertex
 10
1743.6190796
 20
1394.1981268681
 30
0.0
  0
VERTEX
  5
3C4
330
39A
100
AcDbEntity
  8
水栓
  6
CONTINUOUS
 62
     6
100
AcDbVertex
100
AcDb2dVertex
 10
1743.7283325
 20
1393.7733221681
 30
0.0
  0
VERTEX
  5
3C5
330
39A
100
AcDbEntity
  8
水栓
  6
CONTINUOUS
 62
     6
100
AcDbVertex
100
AcDb2dVertex
 10
1743.859710700001
 20
1393.3657598681
 30
0.0
  0
VERTEX
  5
3C6
330
39A
100
AcDbEntity
  8
水栓
  6
CONTINUOUS
 62
     6
100
AcDbVertex
100
AcDb2dVertex
 10
1744.0129089
 20
1392.9781866681
 30
0.0
  0
VERTEX
  5
3C7
330
39A
100
AcDbEntity
  8
水栓
  6
CONTINUOUS
 62
     6
100
AcDbVertex
100
AcDb2dVertex
 10
1744.1865539
 20
1392.6133489681
 30
0.0
  0
VERTEX
  5
3C8
330
39A
100
AcDbEntity
  8
水栓
  6
CONTINUOUS
 62
     6
100
AcDbVertex
100
AcDb2dVertex
 10
1744.3792724
 20
1392.2749090681
 30
0.0
  0
VERTEX
  5
3C9
330
39A
100
AcDbEntity
  8
水栓
  6
CONTINUOUS
 62
     6
100
AcDbVertex
100
AcDb2dVertex
 10
1744.5895386
 20
1391.9643926681
 30
0.0
  0
VERTEX
  5
3CA
330
39A
100
AcDbEntity
  8
水栓
  6
CONTINUOUS
 62
     6
100
AcDbVertex
100
AcDb2dVertex
 10
1744.8158264
 20
1391.6846990681
 30
0.0
  0
VERTEX
  5
3CB
330
39A
100
AcDbEntity
  8
水栓
  6
CONTINUOUS
 62
     6
100
AcDbVertex
100
AcDb2dVertex
 10
1745.0564575
 20
1391.4378118681
 30
0.0
  0
VERTEX
  5
3CC
330
39A
100
AcDbEntity
  8
水栓
  6
CONTINUOUS
 62
     6
100
AcDbVertex
100
AcDb2dVertex
 10
1745.309448200001
 20
1391.2255621681
 30
0.0
  0
VERTEX
  5
3CD
330
39A
100
AcDbEntity
  8
水栓
  6
CONTINUOUS
 62
     6
100
AcDbVertex
100
AcDb2dVertex
 10
1745.5729675
 20
1391.0496282681
 30
0.0
  0
VERTEX
  5
3CE
330
39A
100
AcDbEntity
  8
水栓
  6
CONTINUOUS
 62
     6
100
AcDbVertex
100
AcDb2dVertex
 10
1745.8448791
 20
1390.9115362681
 30
0.0
  0
VERTEX
  5
3CF
330
39A
100
AcDbEntity
  8
水栓
  6
CONTINUOUS
 62
     6
100
AcDbVertex
100
AcDb2dVertex
 10
1746.123352000001
 20
1390.8120489681
 30
0.0
  0
VERTEX
  5
3D0
330
39A
100
AcDbEntity
  8
水栓
  6
CONTINUOUS
 62
     6
100
AcDbVertex
100
AcDb2dVertex
 10
1746.4060974
 20
1390.7520818681
 30
0.0
  0
VERTEX
  5
3D1
330
39A
100
AcDbEntity
  8
水栓
  6
CONTINUOUS
 62
     6
100
AcDbVertex
100
AcDb2dVertex
 10
1746.690979
 20
1390.7317877681
 30
0.0
  0
VERTEX
  5
3D2
330
39A
100
AcDbEntity
  8
水栓
  6
CONTINUOUS
 62
     6
100
AcDbVertex
100
AcDb2dVertex
 10
1746.9758606
 20
1390.7517767681
 30
0.0
  0
VERTEX
  5
3D3
330
39A
100
AcDbEntity
  8
水栓
  6
CONTINUOUS
 62
     6
100
AcDbVertex
100
AcDb2dVertex
 10
1747.258453300001
 20
1390.8117437681
 30
0.0
  0
VERTEX
  5
3D4
330
39A
100
AcDbEntity
  8
水栓
  6
CONTINUOUS
 62
     6
100
AcDbVertex
100
AcDb2dVertex
 10
1747.537384
 20
1390.9115362681
 30
0.0
  0
VERTEX
  5
3D5
330
39A
100
AcDbEntity
  8
水栓
  6
CONTINUOUS
 62
     6
100
AcDbVertex
100
AcDb2dVertex
 10
1747.809448200001
 20
1391.0497808681
 30
0.0
  0
VERTEX
  5
3D6
330
39A
100
AcDbEntity
  8
水栓
  6
CONTINUOUS
 62
     6
100
AcDbVertex
100
AcDb2dVertex
 10
1748.073120100001
 20
1391.2257147681
 30
0.0
  0
SEQEND
  5
3D7
330
39A
100
AcDbEntity
  8
水栓
  6
CONTINUOUS
 62
     6
  0
LINE
  5
3D8
330
1F
100
AcDbEntity
  8
水栓
  6
CONTINUOUS
 62
     6
100
AcDbLine
 10
1721.9998169
 20
1389.9996710681
 30
0.0
 11
1747.999877900001
 21
1389.9996710681
 31
0.0
  0
ARC
  5
3D9
330
1F
100
AcDbEntity
  8
水栓
  6
CONTINUOUS
 62
     6
100
AcDbCircle
 10
1730.000152600001
 20
1395.9997320681
 30
0.0
 40
10.00030520000001
100
AcDbArc
 50
143.13098145
 51
216.86901855
  0
LINE
  5
3DA
330
1F
100
AcDbEntity
  8
水栓
  6
CONTINUOUS
 62
     6
100
AcDbLine
 10
1721.9998169
 20
1401.9997930681
 30
0.0
 11
1747.999877900001
 21
1401.9997930681
 31
0.0
  0
ARC
  5
3DB
330
1F
100
AcDbEntity
  8
水栓
  6
CONTINUOUS
 62
     6
100
AcDbCircle
 10
1739.9995422
 20
1395.9997320681
 30
0.0
 40
10.00030520000001
100
AcDbArc
 50
323.1309814500001
 51
36.86901854999996
  0
ARC
  5
3DC
330
1F
100
AcDbEntity
  8
水栓
  6
EXLTYPE3
 62
     6
100
AcDbCircle
 10
1710.0
 20
1418.0000024227
 30
0.0
 40
25.0
100
AcDbArc
 50
0.0000000000003438
 51
33.9030612690828
  0
LINE
  5
3DD
330
1F
100
AcDbEntity
  8
水栓
  6
CONTINUOUS
 62
     6
100
AcDbLine
 10
1754.999847400001
 20
1379.9998235681
 30
0.0
 11
1754.999847400001
 21
1374.588233498823
 31
0.0
  0
LINE
  5
3DE
330
1F
100
AcDbEntity
  8
水栓
  6
CONTINUOUS
 62
     6
100
AcDbLine
 10
1714.999847400001
 20
1379.9998235681
 30
0.0
 11
1714.999847400001
 21
1374.117645263529
 31
0.0
  0
TEXT
  5
3DF
330
1F
100
AcDbEntity
  8
水栓
  6
CONTINUOUS
 62
     2
100
AcDbText
 10
1468.9790057856
 20
1679.9723268761
 30
0.0
 40
40.0
  1
ＪＵ６Ｔ２
 41
0.9655172413793103
  7
EXCADSTD
 72
     5
 11
1628.9790057856
 21
1679.9723268761
 31
0.0
100
AcDbText
  0
LEADER
  5
3E0
330
1F
100
AcDbEntity
  8
水栓
  6
CONTINUOUS
 62
     3
100
AcDbLeader
  3
ISO-25
 76
     3
 10
1796.0
 20
1560.4775
 30
0.0
 10
1823.4
 20
1641.1
 30
0.0
 10
1943.0
 20
1641.1
 30
0.0
1001
ACAD
1000
DSTYLE
1002
{
1070
     5
1000
EX_NORM
1070
    41
1040
30.0
1070
   341
1005
4F
1002
}
  0
LINE
  5
3E1
330
1F
100
AcDbEntity
  8
水栓
  6
CONTINUOUS
 62
     6
100
AcDbLine
 10
688.6844337
 20
2396.00001
 30
0.0
 11
688.6844337
 21
2409.96186
 31
0.0
  0
LINE
  5
3E2
330
1F
100
AcDbEntity
  8
水栓
  6
CONTINUOUS
 62
     6
100
AcDbLine
 10
687.5224337
 20
2408.79987
 30
0.0
 11
688.7224336999999
 21
2409.99988
 31
0.0
  0
LINE
  5
3E3
330
1F
100
AcDbEntity
  8
水栓
  6
CONTINUOUS
 62
     6
100
AcDbLine
 10
707.2774136999999
 20
2409.99988
 30
0.0
 11
708.4774236999999
 21
2408.79987
 31
0.0
  0
LINE
  5
3E4
330
1F
100
AcDbEntity
  8
水栓
  6
CONTINUOUS
 62
     6
100
AcDbLine
 10
707.3154337
 20
2395.99999
 30
0.0
 11
707.3154337
 21
2409.96186
 31
0.0
  0
LINE
  5
3E5
330
1F
100
AcDbEntity
  8
水栓
  6
CONTINUOUS
 62
     6
100
AcDbLine
 10
687.5224337
 20
2408.79987
 30
0.0
 11
708.4774236999999
 21
2408.79987
 31
0.0
  0
LINE
  5
3E6
330
1F
100
AcDbEntity
  8
水栓
  6
CONTINUOUS
 62
     6
100
AcDbLine
 10
708.4774236999999
 20
2384.1232
 30
0.0
 11
708.4774236999999
 21
2386.49988
 31
0.0
  0
LINE
  5
3E7
330
1F
100
AcDbEntity
  8
水栓
  6
CONTINUOUS
 62
     6
100
AcDbLine
 10
674.2499336999999
 20
2392.60129
 30
0.0
 11
674.2499336999999
 21
2396.0
 31
0.0
  0
LINE
  5
3E8
330
1F
100
AcDbEntity
  8
水栓
  6
CONTINUOUS
 62
     6
100
AcDbLine
 10
675.3481137
 20
2391.49988
 30
0.0
 11
720.6517637
 21
2391.49988
 31
0.0
  0
LINE
  5
3E9
330
1F
100
AcDbEntity
  8
水栓
  6
CONTINUOUS
 62
     6
100
AcDbLine
 10
721.7499336999999
 20
2392.60129
 30
0.0
 11
721.7499336999999
 21
2396.0
 31
0.0
  0
LINE
  5
3EA
330
1F
100
AcDbEntity
  8
水栓
  6
CONTINUOUS
 62
     6
100
AcDbLine
 10
683.4799937
 20
2386.49988
 30
0.0
 11
712.5198936999999
 21
2386.49988
 31
0.0
  0
LINE
  5
3EB
330
1F
100
AcDbEntity
  8
水栓
  6
CONTINUOUS
 62
     6
100
AcDbLine
 10
687.5224337
 20
2408.79987
 30
0.0
 11
687.5224337
 21
2396.00002
 31
0.0
  0
LINE
  5
3EC
330
1F
100
AcDbEntity
  8
水栓
  6
CONTINUOUS
 62
     6
100
AcDbLine
 10
682.4999237
 20
2284.49985
 30
0.0
 11
713.4999237
 21
2284.49985
 31
0.0
  0
LINE
  5
3ED
330
1F
100
AcDbEntity
  8
水栓
  6
CONTINUOUS
 62
     6
100
AcDbLine
 10
682.4999237
 20
2294.49985
 30
0.0
 11
713.4999237
 21
2294.49985
 31
0.0
  0
LINE
  5
3EE
330
1F
100
AcDbEntity
  8
水栓
  6
CONTINUOUS
 62
     6
100
AcDbLine
 10
704.4999237
 20
2277.99985
 30
0.0
 11
691.4999237
 21
2277.99985
 31
0.0
  0
LINE
  5
3EF
330
1F
100
AcDbEntity
  8
水栓
  6
CONTINUOUS
 62
     6
100
AcDbLine
 10
688.9999237
 20
2272.99985
 30
0.0
 11
706.9999237
 21
2272.99985
 31
0.0
  0
LINE
  5
3F0
330
1F
100
AcDbEntity
  8
水栓
  6
CONTINUOUS
 62
     6
100
AcDbLine
 10
692.4999237
 20
2272.99985
 30
0.0
 11
692.4999237
 21
2277.99985
 31
0.0
  0
LINE
  5
3F1
330
1F
100
AcDbEntity
  8
水栓
  6
CONTINUOUS
 62
     6
100
AcDbLine
 10
703.4999237
 20
2272.99985
 30
0.0
 11
703.4999237
 21
2277.99985
 31
0.0
  0
LINE
  5
3F2
330
1F
100
AcDbEntity
  8
水栓
  6
CONTINUOUS
 62
     6
100
AcDbLine
 10
706.9999237
 20
2269.99985
 30
0.0
 11
688.9999237
 21
2269.99985
 31
0.0
  0
LINE
  5
3F3
330
1F
100
AcDbEntity
  8
水栓
  6
CONTINUOUS
 62
     6
100
AcDbLine
 10
706.4999237
 20
2279.99985
 30
0.0
 11
706.4999237
 21
2284.49985
 31
0.0
  0
LINE
  5
3F4
330
1F
100
AcDbEntity
  8
水栓
  6
CONTINUOUS
 62
     6
100
AcDbLine
 10
689.4999237
 20
2279.99985
 30
0.0
 11
689.4999237
 21
2284.49985
 31
0.0
  0
LINE
  5
3F5
330
1F
100
AcDbEntity
  8
水栓
  6
CONTINUOUS
 62
     6
100
AcDbLine
 10
683.9999237
 20
2297.27982
 30
0.0
 11
684.7389237
 21
2295.99985
 31
0.0
  0
LINE
  5
3F6
330
1F
100
AcDbEntity
  8
水栓
  6
CONTINUOUS
 62
     6
100
AcDbLine
 10
684.7389237
 20
2295.99985
 30
0.0
 11
684.7389237
 21
2294.49985
 31
0.0
  0
LINE
  5
3F7
330
1F
100
AcDbEntity
  8
水栓
  6
CONTINUOUS
 62
     6
100
AcDbLine
 10
711.9999237
 20
2297.27982
 30
0.0
 11
711.2609236999999
 21
2295.99985
 31
0.0
  0
LINE
  5
3F8
330
1F
100
AcDbEntity
  8
水栓
  6
CONTINUOUS
 62
     6
100
AcDbLine
 10
683.9686037
 20
2295.99985
 30
0.0
 11
711.9999237
 21
2295.99985
 31
0.0
  0
LINE
  5
3F9
330
1F
100
AcDbEntity
  8
水栓
  6
CONTINUOUS
 62
     6
100
AcDbLine
 10
711.2609236999999
 20
2295.99985
 30
0.0
 11
711.2609236999999
 21
2294.49985
 31
0.0
  0
LINE
  5
3FA
330
1F
100
AcDbEntity
  8
水栓
  6
CONTINUOUS
 62
     6
100
AcDbLine
 10
711.9999237
 20
2294.49985
 30
0.0
 11
711.9999237
 21
2302.125263912
 31
0.0
  0
LINE
  5
3FB
330
1F
100
AcDbEntity
  8
水栓
  6
CONTINUOUS
 62
     6
100
AcDbLine
 10
708.4774336999999
 20
2384.98725
 30
0.0
 11
707.6041137
 21
2386.49988
 31
0.0
  0
LINE
  5
3FC
330
1F
100
AcDbEntity
  8
水栓
  6
CONTINUOUS
 62
     6
100
AcDbLine
 10
708.4774236999999
 20
2395.99999
 30
0.0
 11
708.4774236999999
 21
2408.79987
 31
0.0
  0
ARC
  5
3FD
330
1F
100
AcDbEntity
  8
水栓
  6
CONTINUOUS
 62
     6
100
AcDbCircle
 10
670.9999336999999
 20
2363.99985
 30
0.0
 40
40.50000000000005
100
AcDbArc
 50
346.1206000000001
 51
17.0839000000001
  0
ARC
  5
3FE
330
1F
100
AcDbEntity
  8
水栓
  6
CONTINUOUS
 62
     6
100
AcDbCircle
 10
737.4999336999999
 20
2347.568179
 30
0.0
 40
28.00000000000002
100
AcDbArc
 50
166.1206399999998
 51
180.0
  0
ARC
  5
3FF
330
1F
100
AcDbEntity
  8
水栓
  6
CONTINUOUS
 62
     6
100
AcDbCircle
 10
736.4774236999999
 20
2384.12317
 30
0.0
 40
28.00000000000002
100
AcDbArc
 50
180.0
 51
197.0838999999998
  0
ARC
  5
400
330
1F
100
AcDbEntity
  8
水栓
  6
CONTINUOUS
 62
     6
100
AcDbCircle
 10
728.1758037
 20
2475.71388
 30
0.0
 40
100.0
100
AcDbArc
 50
238.0043
 51
242.8656000000002
  0
ARC
  5
401
330
1F
100
AcDbEntity
  8
水栓
  6
CONTINUOUS
 62
     6
100
AcDbCircle
 10
676.2499336999999
 20
2392.60129
 30
0.0
 40
2.0
100
AcDbArc
 50
180.0
 51
238.0042999999986
  0
ARC
  5
402
330
1F
100
AcDbEntity
  8
水栓
  6
CONTINUOUS
 62
     6
100
AcDbCircle
 10
667.8240737
 20
2475.71388
 30
0.0
 40
100.0
100
AcDbArc
 50
297.1344000000002
 51
301.9957000000004
  0
ARC
  5
403
330
1F
100
AcDbEntity
  8
水栓
  6
CONTINUOUS
 62
     6
100
AcDbCircle
 10
719.7499336999999
 20
2392.60129
 30
0.0
 40
2.0
100
AcDbArc
 50
301.9957000000016
 51
0.0
  0
ARC
  5
404
330
1F
100
AcDbEntity
  8
水栓
  6
CONTINUOUS
 62
     6
100
AcDbCircle
 10
683.4799937
 20
2388.49988
 30
0.0
 40
2.0
100
AcDbArc
 50
242.8655999999975
 51
270.0000000000002
  0
ARC
  5
405
330
1F
100
AcDbEntity
  8
水栓
  6
CONTINUOUS
 62
     6
100
AcDbCircle
 10
712.5198737
 20
2388.49988
 30
0.0
 40
2.0
100
AcDbArc
 50
270.0007000000013
 51
297.1344000000029
  0
ARC
  5
406
330
1F
100
AcDbEntity
  8
水栓
  6
CONTINUOUS
 62
     6
100
AcDbCircle
 10
694.2965819981999
 20
2292.29984
 30
0.0
 40
2.0
100
AcDbArc
 50
0.0
 51
87.62009999999877
  0
ARC
  5
407
330
1F
100
AcDbEntity
  8
水栓
  6
CONTINUOUS
 62
     6
100
AcDbCircle
 10
694.2965819981999
 20
2286.69986
 30
0.0
 40
2.0
100
AcDbArc
 50
272.3799000000013
 51
0.0
  0
ARC
  5
408
330
1F
100
AcDbEntity
  8
水栓
  6
CONTINUOUS
 62
     6
100
AcDbCircle
 10
706.9999237
 20
2271.49985
 30
0.0
 40
1.5
100
AcDbArc
 50
270.0000000000002
 51
90.00000000000001
  0
ARC
  5
409
330
1F
100
AcDbEntity
  8
水栓
  6
CONTINUOUS
 62
     6
100
AcDbCircle
 10
688.9999237
 20
2271.49985
 30
0.0
 40
1.5
100
AcDbArc
 50
90.00000000000001
 51
270.0000000000002
  0
ARC
  5
40A
330
1F
100
AcDbEntity
  8
水栓
  6
CONTINUOUS
 62
     6
100
AcDbCircle
 10
704.4999237
 20
2279.99985
 30
0.0
 40
2.0
100
AcDbArc
 50
270.0000000000002
 51
0.0
  0
ARC
  5
40B
330
1F
100
AcDbEntity
  8
水栓
  6
CONTINUOUS
 62
     6
100
AcDbCircle
 10
691.4999237
 20
2279.99985
 30
0.0
 40
2.0
100
AcDbArc
 50
180.0
 51
270.0000000000002
  0
ARC
  5
40C
330
1F
100
AcDbEntity
  8
水栓
  6
CONTINUOUS
 62
     6
100
AcDbCircle
 10
686.2032353471
 20
2286.69986
 30
0.0
 40
2.0
100
AcDbArc
 50
180.0
 51
267.6200000000024
  0
ARC
  5
40D
330
1F
100
AcDbEntity
  8
水栓
  6
CONTINUOUS
 62
     6
100
AcDbCircle
 10
686.2032353471
 20
2292.29984
 30
0.0
 40
2.0
100
AcDbArc
 50
92.37988299999968
 51
180.0
  0
LINE
  5
40E
330
1F
100
AcDbEntity
  8
水栓
  6
CONTINUOUS
 62
     6
100
AcDbLine
 10
687.5224236999999
 20
2384.1232
 30
0.0
 11
687.5224236999999
 21
2386.49988
 31
0.0
  0
LINE
  5
40F
330
1F
100
AcDbEntity
  8
水栓
  6
CONTINUOUS
 62
     6
100
AcDbLine
 10
687.5224136999999
 20
2384.98725
 30
0.0
 11
688.3957336999999
 21
2386.49988
 31
0.0
  0
ARC
  5
410
330
1F
100
AcDbEntity
  8
水栓
  6
CONTINUOUS
 62
     6
100
AcDbCircle
 10
683.4799737000001
 20
2388.49988
 30
0.0
 40
2.0
100
AcDbArc
 50
242.8655999999975
 51
269.9992999999988
  0
ARC
  5
411
330
1F
100
AcDbEntity
  8
水栓
  6
CONTINUOUS
 62
     6
100
AcDbCircle
 10
724.9999136999999
 20
2363.99985
 30
0.0
 40
40.50000000000005
100
AcDbArc
 50
162.9160999999998
 51
193.8793999999999
  0
ARC
  5
412
330
1F
100
AcDbEntity
  8
水栓
  6
CONTINUOUS
 62
     6
100
AcDbCircle
 10
658.4999137
 20
2347.568179
 30
0.0
 40
28.00000000000002
100
AcDbArc
 50
0.0
 51
13.87936000000016
  0
ARC
  5
413
330
1F
100
AcDbEntity
  8
水栓
  6
CONTINUOUS
 62
     6
100
AcDbCircle
 10
659.5224237
 20
2384.12317
 30
0.0
 40
28.00000000000002
100
AcDbArc
 50
342.9161000000003
 51
0.0
  0
CIRCLE
  5
414
330
1F
100
AcDbEntity
  8
水栓
  6
CONTINUOUS
 62
     6
100
AcDbCircle
 10
697.9999237
 20
2363.999851
 30
0.0
 40
4.358895938707003
  0
CIRCLE
  5
415
330
1F
100
AcDbEntity
  8
水栓
  6
CONTINUOUS
 62
     6
100
AcDbCircle
 10
697.9999237
 20
2363.999851
 30
0.0
 40
7.499999000000004
  0
LINE
  5
416
330
1F
100
AcDbEntity
  8
水栓
  6
CONTINUOUS
 62
     6
100
AcDbLine
 10
708.4999166902999
 20
2368.69028
 30
0.0
 11
708.4999166902999
 21
2359.309422
 31
0.0
  0
LINE
  5
417
330
1F
100
AcDbEntity
  8
水栓
  6
CONTINUOUS
 62
     6
100
AcDbLine
 10
699.1878895264999
 20
2375.438326169
 30
0.0
 11
707.3119508638
 21
2370.747897169
 31
0.0
  0
LINE
  5
418
330
1F
100
AcDbEntity
  8
水栓
  6
CONTINUOUS
 62
     6
100
AcDbLine
 10
688.6878965362
 20
2370.747897169
 30
0.0
 11
696.8119578735
 21
2375.438326169
 31
0.0
  0
LINE
  5
419
330
1F
100
AcDbEntity
  8
水栓
  6
CONTINUOUS
 62
     6
100
AcDbLine
 10
687.4999307096999
 20
2359.309422
 30
0.0
 11
687.4999307096999
 21
2368.69028
 31
0.0
  0
LINE
  5
41A
330
1F
100
AcDbEntity
  8
水栓
  6
CONTINUOUS
 62
     6
100
AcDbLine
 10
696.8119578735
 20
2352.561375831
 30
0.0
 11
688.6878965362
 21
2357.251804831
 31
0.0
  0
LINE
  5
41B
330
1F
100
AcDbEntity
  8
水栓
  6
CONTINUOUS
 62
     6
100
AcDbLine
 10
707.3119508638
 20
2357.251804831
 30
0.0
 11
699.1878895264999
 21
2352.561375831
 31
0.0
  0
ARC
  5
41C
330
1F
100
AcDbEntity
  8
水栓
  6
CONTINUOUS
 62
     6
100
AcDbCircle
 10
697.9999237
 20
2363.999851
 30
0.0
 40
11.499999
100
AcDbArc
 50
144.070689096401
 51
155.9293109035999
  0
ARC
  5
41D
330
1F
100
AcDbEntity
  8
水栓
  6
CONTINUOUS
 62
     6
100
AcDbCircle
 10
697.9999237
 20
2363.999851
 30
0.0
 40
11.499999
100
AcDbArc
 50
204.0706890964003
 51
215.9293109036008
  0
ARC
  5
41E
330
1F
100
AcDbEntity
  8
水栓
  6
CONTINUOUS
 62
     6
100
AcDbCircle
 10
697.9999237
 20
2363.999851
 30
0.0
 40
11.499999
100
AcDbArc
 50
264.0706890964004
 51
275.9293109036004
  0
ARC
  5
41F
330
1F
100
AcDbEntity
  8
水栓
  6
CONTINUOUS
 62
     6
100
AcDbCircle
 10
697.9999237
 20
2363.999851
 30
0.0
 40
11.499999
100
AcDbArc
 50
324.0706890963996
 51
335.9293109036
  0
ARC
  5
420
330
1F
100
AcDbEntity
  8
水栓
  6
CONTINUOUS
 62
     6
100
AcDbCircle
 10
697.9999237
 20
2363.999851
 30
0.0
 40
11.499999
100
AcDbArc
 50
24.0706890964097
 51
35.92931090358997
  0
ARC
  5
421
330
1F
100
AcDbEntity
  8
水栓
  6
CONTINUOUS
 62
     6
100
AcDbCircle
 10
697.9999237
 20
2363.999851
 30
0.0
 40
11.499999
100
AcDbArc
 50
84.07068909640967
 51
95.92931090359035
  0
LINE
  5
422
330
1F
100
AcDbEntity
  8
水栓
  6
CONTINUOUS
 62
     6
100
AcDbLine
 10
693.6976032557999
 20
2364.69986
 30
0.0
 11
702.3022441441999
 21
2364.69986
 31
0.0
  0
LINE
  5
423
330
1F
100
AcDbEntity
  8
水栓
  6
CONTINUOUS
 62
     6
100
AcDbLine
 10
693.6976032557999
 20
2363.299842
 30
0.0
 11
702.3022441441999
 21
2363.299842
 31
0.0
  0
CIRCLE
  5
424
330
1F
100
AcDbEntity
  8
水栓
  6
CONTINUOUS
 62
     6
100
AcDbCircle
 10
697.9999237
 20
2320.99985
 30
0.0
 40
23.5
  0
CIRCLE
  5
425
330
1F
100
AcDbEntity
  8
水栓
  6
CONTINUOUS
 62
     6
100
AcDbCircle
 10
697.9999237
 20
2320.99985
 30
0.0
 40
6.40002
  0
LINE
  5
426
330
1F
100
AcDbEntity
  8
水栓
  6
CONTINUOUS
 62
     6
100
AcDbLine
 10
707.9855324800999
 20
2326.15372
 30
0.0
 11
707.9855324800999
 21
2315.84598
 31
0.0
  0
LINE
  5
427
330
1F
100
AcDbEntity
  8
水栓
  6
CONTINUOUS
 62
     6
100
AcDbLine
 10
698.5293457422
 20
2332.224575876
 30
0.0
 11
707.4561104378
 21
2327.070705876
 31
0.0
  0
LINE
  5
428
330
1F
100
AcDbEntity
  8
水栓
  6
CONTINUOUS
 62
     6
100
AcDbLine
 10
688.5437369622
 20
2327.070705876
 30
0.0
 11
697.4705016578
 21
2332.224575876
 31
0.0
  0
LINE
  5
429
330
1F
100
AcDbEntity
  8
水栓
  6
CONTINUOUS
 62
     6
100
AcDbLine
 10
688.0143149199
 20
2315.84598
 30
0.0
 11
688.0143149199
 21
2326.15372
 31
0.0
  0
LINE
  5
42A
330
1F
100
AcDbEntity
  8
水栓
  6
CONTINUOUS
 62
     6
100
AcDbLine
 10
697.4705016578
 20
2309.775124124
 30
0.0
 11
688.5437369622
 21
2314.928994124
 31
0.0
  0
LINE
  5
42B
330
1F
100
AcDbEntity
  8
水栓
  6
CONTINUOUS
 62
     6
100
AcDbLine
 10
707.4561104378
 20
2314.928994124
 30
0.0
 11
698.5293457422
 21
2309.775124124
 31
0.0
  0
ARC
  5
42C
330
1F
100
AcDbEntity
  8
水栓
  6
CONTINUOUS
 62
     6
100
AcDbCircle
 10
697.9999237
 20
2320.99985
 30
0.0
 40
11.2372042202
100
AcDbArc
 50
87.29960575707014
 51
92.70039424292979
  0
ARC
  5
42D
330
1F
100
AcDbEntity
  8
水栓
  6
CONTINUOUS
 62
     6
100
AcDbCircle
 10
697.9999237
 20
2320.99985
 30
0.0
 40
11.2372042202
100
AcDbArc
 50
147.2996057571004
 51
152.7003942429001
  0
ARC
  5
42E
330
1F
100
AcDbEntity
  8
水栓
  6
CONTINUOUS
 62
     6
100
AcDbCircle
 10
697.9999237
 20
2320.99985
 30
0.0
 40
11.2372042202
100
AcDbArc
 50
207.2996057571001
 51
212.7003942428996
  0
ARC
  5
42F
330
1F
100
AcDbEntity
  8
水栓
  6
CONTINUOUS
 62
     6
100
AcDbCircle
 10
697.9999237
 20
2320.99985
 30
0.0
 40
11.2372042202
100
AcDbArc
 50
267.2996057571
 51
272.7003942429004
  0
ARC
  5
430
330
1F
100
AcDbEntity
  8
水栓
  6
CONTINUOUS
 62
     6
100
AcDbCircle
 10
697.9999237
 20
2320.99985
 30
0.0
 40
11.2372042202
100
AcDbArc
 50
327.299605757101
 51
332.7003942429
  0
ARC
  5
431
330
1F
100
AcDbEntity
  8
水栓
  6
CONTINUOUS
 62
     6
100
AcDbCircle
 10
697.9999237
 20
2320.99985
 30
0.0
 40
11.2372042202
100
AcDbArc
 50
27.29960575707053
 51
32.70039424293012
  0
CIRCLE
  5
432
330
1F
100
AcDbEntity
  8
水栓
  6
CONTINUOUS
 62
     6
100
AcDbCircle
 10
697.9999237
 20
2320.99985
 30
0.0
 40
8.5
  0
LINE
  5
433
330
1F
100
AcDbEntity
  8
水栓
  6
CONTINUOUS
 62
     6
100
AcDbLine
 10
683.9999237
 20
2294.49985
 30
0.0
 11
683.9999237
 21
2302.125263912
 31
0.0
  0
LINE
  5
434
330
1F
100
AcDbEntity
  8
水栓
  6
CONTINUOUS
 62
     6
100
AcDbLine
 10
682.4999080283999
 20
2284.69986
 30
0.0
 11
682.4999080283999
 21
2294.29984
 31
0.0
  0
LINE
  5
435
330
1F
100
AcDbEntity
  8
水栓
  6
CONTINUOUS
 62
     6
100
AcDbLine
 10
713.4999393715999
 20
2284.69986
 30
0.0
 11
713.4999393715999
 21
2294.29984
 31
0.0
  0
LINE
  5
436
330
1F
100
AcDbEntity
  8
水栓
  6
CONTINUOUS
 62
     6
100
AcDbLine
 10
684.2032353471
 20
2292.29984
 30
0.0
 11
684.2032353471
 21
2286.69986
 31
0.0
  0
LINE
  5
437
330
1F
100
AcDbEntity
  8
水栓
  6
CONTINUOUS
 62
     6
100
AcDbLine
 10
696.2965819982
 20
2292.29984
 30
0.0
 11
696.2965819982
 21
2286.69986
 31
0.0
  0
LINE
  5
438
330
1F
100
AcDbEntity
  8
水栓
  6
CONTINUOUS
 62
     6
100
AcDbLine
 10
686.1201856446
 20
2294.298114943
 30
0.0
 11
694.3796322935999
 21
2294.298114943
 31
0.0
  0
LINE
  5
439
330
1F
100
AcDbEntity
  8
水栓
  6
CONTINUOUS
 62
     6
100
AcDbLine
 10
686.120181564
 20
2284.701585227
 30
0.0
 11
694.3796322935999
 21
2284.701585227
 31
0.0
  0
ARC
  5
43A
330
1F
100
AcDbEntity
  8
水栓
  6
CONTINUOUS
 62
     6
100
AcDbCircle
 10
709.7966120529
 20
2292.29984
 30
0.0
 40
2.0
100
AcDbArc
 50
0.0
 51
87.62011700000026
  0
ARC
  5
43B
330
1F
100
AcDbEntity
  8
水栓
  6
CONTINUOUS
 62
     6
100
AcDbCircle
 10
701.7032654018
 20
2292.29984
 30
0.0
 40
2.0
100
AcDbArc
 50
92.37990000000123
 51
180.0
  0
ARC
  5
43C
330
1F
100
AcDbEntity
  8
水栓
  6
CONTINUOUS
 62
     6
100
AcDbCircle
 10
709.7966120529
 20
2286.69986
 30
0.0
 40
2.0
100
AcDbArc
 50
272.3800000000025
 51
0.0
  0
ARC
  5
43D
330
1F
100
AcDbEntity
  8
水栓
  6
CONTINUOUS
 62
     6
100
AcDbCircle
 10
701.7032654018
 20
2286.69986
 30
0.0
 40
2.0
100
AcDbArc
 50
180.0
 51
267.6200999999991
  0
LINE
  5
43E
330
1F
100
AcDbEntity
  8
水栓
  6
CONTINUOUS
 62
     6
100
AcDbLine
 10
711.7966120529
 20
2292.29984
 30
0.0
 11
711.7966120529
 21
2286.69986
 31
0.0
  0
LINE
  5
43F
330
1F
100
AcDbEntity
  8
水栓
  6
CONTINUOUS
 62
     6
100
AcDbLine
 10
699.7032654018
 20
2292.29984
 30
0.0
 11
699.7032654018
 21
2286.69986
 31
0.0
  0
LINE
  5
440
330
1F
100
AcDbEntity
  8
水栓
  6
CONTINUOUS
 62
     6
100
AcDbLine
 10
709.8796617554
 20
2294.298114943
 30
0.0
 11
701.6202151064
 21
2294.298114943
 31
0.0
  0
LINE
  5
441
330
1F
100
AcDbEntity
  8
水栓
  6
CONTINUOUS
 62
     6
100
AcDbLine
 10
709.879665836
 20
2284.701585227
 30
0.0
 11
701.6202151064
 21
2284.701585227
 31
0.0
  0
LINE
  5
442
330
1F
100
AcDbEntity
  8
水栓
  6
CONTINUOUS
 62
     6
100
AcDbLine
 10
686.4999137
 20
2347.568179
 30
0.0
 11
686.4999137
 21
2341.493745920491
 31
0.0
  0
LINE
  5
443
330
1F
100
AcDbEntity
  8
水栓
  6
CONTINUOUS
 62
     6
100
AcDbLine
 10
709.4999337
 20
2347.568179
 30
0.0
 11
709.4999337
 21
2341.493745920491
 31
0.0
  0
LINE
  5
444
330
1F
100
AcDbEntity
  8
水栓
  6
CONTINUOUS
 62
     6
100
AcDbLine
 10
688.7224336999999
 20
2409.99988
 30
0.0
 11
707.2774136999999
 21
2409.99988
 31
0.0
  0
ARC
  5
445
330
1F
100
AcDbEntity
  8
水栓
  6
CONTINUOUS
 62
     6
100
AcDbCircle
 10
697.9999237
 20
2343.0
 30
0.0
 40
20.0
100
AcDbArc
 50
130.8182047359998
 51
202.1475810918618
  0
ARC
  5
446
330
1F
100
AcDbEntity
  8
水栓
  6
CONTINUOUS
 62
     6
100
AcDbCircle
 10
697.9999237
 20
2343.0
 30
0.0
 40
20.0
100
AcDbArc
 50
337.8524189081381
 51
49.18179526400048
  0
ARC
  5
447
330
1F
100
AcDbEntity
  8
水栓
  6
CONTINUOUS
 62
     2
100
AcDbCircle
 10
674.3070285648797
 20
948.2988242107232
 30
0.0
 40
15.00000000000001
100
AcDbArc
 50
182.7649773259457
 51
222.2949263353541
  0
LINE
  5
448
330
1F
100
AcDbEntity
  8
水栓
  6
CONTINUOUS
 62
     2
100
AcDbLine
 10
657.99999995
 20
975.0000000000002
 30
0.0
 11
737.99999995
 21
975.0000000000002
 31
0.0
  0
ARC
  5
449
330
1F
100
AcDbEntity
  8
水栓
  6
CONTINUOUS
 62
     2
100
AcDbCircle
 10
721.6929713351204
 20
948.2988242107232
 30
0.0
 40
15.00000000000001
100
AcDbArc
 50
317.7050736646459
 51
357.2350226740544
  0
LINE
  5
44A
330
1F
100
AcDbEntity
  8
水栓
  6
EXLTYPE3
 62
     6
100
AcDbLine
 10
680.5000000000001
 20
1530.0
 30
0.0
 11
715.5000000000001
 21
1530.0
 31
0.0
  0
LINE
  5
44B
330
1F
100
AcDbEntity
  8
水栓
  6
CONTINUOUS
 62
     6
100
AcDbLine
 10
689.5000000000001
 20
1595.0
 30
0.0
 11
688.0000000000001
 21
1593.6364
 31
0.0
  0
LINE
  5
44C
330
1F
100
AcDbEntity
  8
水栓
  6
CONTINUOUS
 62
     6
100
AcDbLine
 10
689.5000000000001
 20
1595.0
 30
0.0
 11
706.5000000000001
 21
1595.0
 31
0.0
  0
LINE
  5
44D
330
1F
100
AcDbEntity
  8
水栓
  6
CONTINUOUS
 62
     6
100
AcDbLine
 10
706.5000000000001
 20
1595.0
 30
0.0
 11
708.0000000000001
 21
1593.6364
 31
0.0
  0
LINE
  5
44E
330
1F
100
AcDbEntity
  8
水栓
  6
CONTINUOUS
 62
     6
100
AcDbLine
 10
685.6237000000001
 20
1581.36443
 30
0.0
 11
675.6881000000001
 21
1579.25253
 31
0.0
  0
LINE
  5
44F
330
1F
100
AcDbEntity
  8
水栓
  6
CONTINUOUS
 62
     6
100
AcDbLine
 10
674.5000000000001
 20
1571.5
 30
0.0
 11
674.5000000000001
 21
1577.78531
 31
0.0
  0
LINE
  5
450
330
1F
100
AcDbEntity
  8
水栓
  6
CONTINUOUS
 62
     6
100
AcDbLine
 10
676.0000000000001
 20
1570.0
 30
0.0
 11
720.0000000000001
 21
1570.0
 31
0.0
  0
LINE
  5
451
330
1F
100
AcDbEntity
  8
水栓
  6
CONTINUOUS
 62
     6
100
AcDbLine
 10
721.5000000000001
 20
1571.5
 30
0.0
 11
721.5000000000001
 21
1577.78531
 31
0.0
  0
LINE
  5
452
330
1F
100
AcDbEntity
  8
水栓
  6
CONTINUOUS
 62
     6
100
AcDbLine
 10
710.3763000000001
 20
1581.36443
 30
0.0
 11
720.3119
 21
1579.25253
 31
0.0
  0
LINE
  5
453
330
1F
100
AcDbEntity
  8
水栓
  6
CONTINUOUS
 62
     6
100
AcDbLine
 10
677.5000000000001
 20
1579.25253
 30
0.0
 11
718.5000000000001
 21
1579.25253
 31
0.0
  0
LINE
  5
454
330
1F
100
AcDbEntity
  8
水栓
  6
CONTINUOUS
 62
     6
100
AcDbLine
 10
676.5000000000001
 20
1550.0
 30
0.0
 11
676.5000000000001
 21
1570.0
 31
0.0
  0
LINE
  5
455
330
1F
100
AcDbEntity
  8
水栓
  6
CONTINUOUS
 62
     6
100
AcDbLine
 10
719.5000000000001
 20
1570.0
 30
0.0
 11
719.5000000000001
 21
1550.0
 31
0.0
  0
LINE
  5
456
330
1F
100
AcDbEntity
  8
水栓
  6
CONTINUOUS
 62
     6
100
AcDbLine
 10
685.1
 20
1495.200003
 30
0.0
 11
710.9000000000001
 21
1495.200003
 31
0.0
  0
LINE
  5
457
330
1F
100
AcDbEntity
  8
水栓
  6
CONTINUOUS
 62
     6
100
AcDbLine
 10
685.1
 20
1507.2
 30
0.0
 11
710.9000000000001
 21
1507.2
 31
0.0
  0
LINE
  5
458
330
1F
100
AcDbEntity
  8
水栓
  6
CONTINUOUS
 62
     6
100
AcDbLine
 10
686.0000000000001
 20
1510.5
 30
0.0
 11
686.0000000000001
 21
1507.2
 31
0.0
  0
LINE
  5
459
330
1F
100
AcDbEntity
  8
水栓
  6
CONTINUOUS
 62
     6
100
AcDbLine
 10
683.0000000000001
 20
1515.69615
 30
0.0
 11
683.0000000000001
 21
1522.0
 31
0.0
  0
LINE
  5
45A
330
1F
100
AcDbEntity
  8
水栓
  6
CONTINUOUS
 62
     6
100
AcDbLine
 10
710.0000000000001
 20
1510.5
 30
0.0
 11
710.0000000000001
 21
1507.2
 31
0.0
  0
LINE
  5
45B
330
1F
100
AcDbEntity
  8
水栓
  6
CONTINUOUS
 62
     6
100
AcDbLine
 10
713.0000000000001
 20
1515.69615
 30
0.0
 11
713.0000000000001
 21
1522.0
 31
0.0
  0
LINE
  5
45C
330
1F
100
AcDbEntity
  8
水栓
  6
CONTINUOUS
 62
     6
100
AcDbLine
 10
691.6
 20
1596.2
 30
0.0
 11
691.6
 21
1595.0
 31
0.0
  0
LINE
  5
45D
330
1F
100
AcDbEntity
  8
水栓
  6
CONTINUOUS
 62
     6
100
AcDbLine
 10
691.9000000000001
 20
1596.5
 30
0.0
 11
691.6
 21
1596.2
 31
0.0
  0
LINE
  5
45E
330
1F
100
AcDbEntity
  8
水栓
  6
CONTINUOUS
 62
     6
100
AcDbLine
 10
691.9000000000001
 20
1596.5
 30
0.0
 11
697.2
 21
1596.5
 31
0.0
  0
LINE
  5
45F
330
1F
100
AcDbEntity
  8
水栓
  6
CONTINUOUS
 62
     6
100
AcDbLine
 10
697.2
 20
1596.5
 30
0.0
 11
697.2
 21
1595.0
 31
0.0
  0
LINE
  5
460
330
1F
100
AcDbEntity
  8
水栓
  6
CONTINUOUS
 62
     6
100
AcDbLine
 10
698.8000000000001
 20
1596.5
 30
0.0
 11
698.8000000000001
 21
1595.0
 31
0.0
  0
LINE
  5
461
330
1F
100
AcDbEntity
  8
水栓
  6
CONTINUOUS
 62
     6
100
AcDbLine
 10
704.1
 20
1596.5
 30
0.0
 11
698.8000000000001
 21
1596.5
 31
0.0
  0
LINE
  5
462
330
1F
100
AcDbEntity
  8
水栓
  6
CONTINUOUS
 62
     6
100
AcDbLine
 10
704.1
 20
1596.5
 30
0.0
 11
704.4000000000001
 21
1596.2
 31
0.0
  0
LINE
  5
463
330
1F
100
AcDbEntity
  8
水栓
  6
CONTINUOUS
 62
     6
100
AcDbLine
 10
704.4000000000001
 20
1596.2
 30
0.0
 11
704.4000000000001
 21
1595.0
 31
0.0
  0
LINE
  5
464
330
1F
100
AcDbEntity
  8
水栓
  6
CONTINUOUS
 62
     6
100
AcDbLine
 10
688.0000000000001
 20
1593.6364
 30
0.0
 11
688.0000000000001
 21
1584.29887
 31
0.0
  0
LINE
  5
465
330
1F
100
AcDbEntity
  8
水栓
  6
CONTINUOUS
 62
     6
100
AcDbLine
 10
708.0000000000001
 20
1584.29887
 30
0.0
 11
708.0000000000001
 21
1593.6364
 31
0.0
  0
LINE
  5
466
330
1F
100
AcDbEntity
  8
水栓
  6
CONTINUOUS
 62
     6
100
AcDbLine
 10
713.5000000000001
 20
1536.98212
 30
0.0
 11
713.5000000000001
 21
1523.01788
 31
0.0
  0
LINE
  5
467
330
1F
100
AcDbEntity
  8
水栓
  6
CONTINUOUS
 62
     6
100
AcDbLine
 10
682.5000000000001
 20
1523.01788
 30
0.0
 11
682.5000000000001
 21
1536.98212
 31
0.0
  0
LINE
  5
468
330
1F
100
AcDbEntity
  8
水栓
  6
CONTINUOUS
 62
     6
100
AcDbLine
 10
684.2033000000001
 20
1520.06767
 30
0.0
 11
696.2967000000001
 21
1513.08554
 31
0.0
  0
LINE
  5
469
330
1F
100
AcDbEntity
  8
水栓
  6
CONTINUOUS
 62
     6
100
AcDbLine
 10
699.7033000000001
 20
1513.08554
 30
0.0
 11
711.7967000000001
 21
1520.06768
 31
0.0
  0
LINE
  5
46A
330
1F
100
AcDbEntity
  8
水栓
  6
CONTINUOUS
 62
     6
100
AcDbLine
 10
699.7033000000001
 20
1546.91446
 30
0.0
 11
711.7967000000001
 21
1539.93233
 31
0.0
  0
LINE
  5
46B
330
1F
100
AcDbEntity
  8
水栓
  6
CONTINUOUS
 62
     6
100
AcDbLine
 10
684.2033000000001
 20
1539.93234
 30
0.0
 11
696.2967000000001
 21
1546.91446
 31
0.0
  0
LINE
  5
46C
330
1F
100
AcDbEntity
  8
水栓
  6
CONTINUOUS
 62
     6
100
AcDbLine
 10
686.0000000000001
 20
1509.0
 30
0.0
 11
710.0000000000001
 21
1509.0
 31
0.0
  0
LINE
  5
46D
330
1F
100
AcDbEntity
  8
水栓
  6
CONTINUOUS
 62
     6
100
AcDbLine
 10
710.0000000000001
 20
1510.5
 30
0.0
 11
686.0000000000001
 21
1510.5
 31
0.0
  0
LINE
  5
46E
330
1F
100
AcDbEntity
  8
水栓
  6
CONTINUOUS
 62
     6
100
AcDbLine
 10
711.0000000000001
 20
1506.98432
 30
0.0
 11
711.0000000000001
 21
1495.41569
 31
0.0
  0
LINE
  5
46F
330
1F
100
AcDbEntity
  8
水栓
  6
CONTINUOUS
 62
     6
100
AcDbLine
 10
685.0000000000001
 20
1506.98432
 30
0.0
 11
685.0000000000001
 21
1495.41569
 31
0.0
  0
ARC
  5
470
330
1F
100
AcDbEntity
  8
水栓
  6
CONTINUOUS
 62
     6
100
AcDbCircle
 10
711.0000000000001
 20
1584.29887
 30
0.0
 40
3.000000000000002
100
AcDbArc
 50
180.0
 51
258.0000000000003
  0
ARC
  5
471
330
1F
100
AcDbEntity
  8
水栓
  6
CONTINUOUS
 62
     6
100
AcDbCircle
 10
685.0000000000001
 20
1584.29887
 30
0.0
 40
3.000000000000002
100
AcDbArc
 50
282.0000000000002
 51
0.0
  0
ARC
  5
472
330
1F
100
AcDbEntity
  8
水栓
  6
CONTINUOUS
 62
     6
100
AcDbCircle
 10
676.0000000000001
 20
1577.78531
 30
0.0
 40
1.5
100
AcDbArc
 50
102.0003
 51
180.0
  0
ARC
  5
473
330
1F
100
AcDbEntity
  8
水栓
  6
CONTINUOUS
 62
     6
100
AcDbCircle
 10
720.0000000000001
 20
1571.5
 30
0.0
 40
1.5
100
AcDbArc
 50
270.0000000000002
 51
0.0
  0
ARC
  5
474
330
1F
100
AcDbEntity
  8
水栓
  6
CONTINUOUS
 62
     6
100
AcDbCircle
 10
720.0000000000001
 20
1577.78531
 30
0.0
 40
1.5
100
AcDbArc
 50
0.0
 51
77.99969
  0
ARC
  5
475
330
1F
100
AcDbEntity
  8
水栓
  6
CONTINUOUS
 62
     6
100
AcDbCircle
 10
697.7584
 20
1501.2
 30
0.0
 40
14.00836000000001
100
AcDbArc
 50
154.6393000000001
 51
155.6117000000001
  0
ARC
  5
476
330
1F
100
AcDbEntity
  8
水栓
  6
CONTINUOUS
 62
     6
100
AcDbCircle
 10
689.0000000000001
 20
1515.69615
 30
0.0
 40
6.000000000000004
100
AcDbArc
 50
180.0
 51
240.0000000000001
  0
ARC
  5
477
330
1F
100
AcDbEntity
  8
水栓
  6
CONTINUOUS
 62
     6
100
AcDbCircle
 10
698.2416000000001
 20
1501.2
 30
0.0
 40
14.00836000000001
100
AcDbArc
 50
334.6393000000002
 51
335.6117000000003
  0
ARC
  5
478
330
1F
100
AcDbEntity
  8
水栓
  6
CONTINUOUS
 62
     6
100
AcDbCircle
 10
707.0000000000001
 20
1515.69615
 30
0.0
 40
6.000000000000004
100
AcDbArc
 50
300.0000000000002
 51
0.0
  0
ARC
  5
479
330
1F
100
AcDbEntity
  8
水栓
  6
CONTINUOUS
 62
     6
100
AcDbCircle
 10
731.0000000000001
 20
1528.29171
 30
0.0
 40
18.0
100
AcDbArc
 50
163.8765
 51
166.4638
  0
ARC
  5
47A
330
1F
100
AcDbEntity
  8
水栓
  6
CONTINUOUS
 62
     6
100
AcDbCircle
 10
698.0000000000001
 20
1550.0
 30
0.0
 40
21.5
100
AcDbArc
 50
180.0
 51
213.338
  0
ARC
  5
47B
330
1F
100
AcDbEntity
  8
水栓
  6
CONTINUOUS
 62
     6
100
AcDbCircle
 10
665.0000000000001
 20
1528.29171
 30
0.0
 40
18.0
100
AcDbArc
 50
13.53618999999999
 51
33.33800999999995
  0
CIRCLE
  5
47C
330
1F
100
AcDbEntity
  8
水栓
  6
CONTINUOUS
 62
     6
100
AcDbCircle
 10
698.0000000000001
 20
1530.0
 30
0.0
 40
10.5
  0
ARC
  5
47D
330
1F
100
AcDbEntity
  8
水栓
  6
CONTINUOUS
 62
     6
100
AcDbCircle
 10
698.0000000000001
 20
1530.0
 30
0.0
 40
17.0
100
AcDbArc
 50
84.24966
 51
95.75049
  0
ARC
  5
47E
330
1F
100
AcDbEntity
  8
水栓
  6
CONTINUOUS
 62
     6
100
AcDbCircle
 10
698.0000000000001
 20
1530.0
 30
0.0
 40
17.0
100
AcDbArc
 50
144.2496
 51
155.7505
  0
ARC
  5
47F
330
1F
100
AcDbEntity
  8
水栓
  6
CONTINUOUS
 62
     6
100
AcDbCircle
 10
698.0000000000001
 20
1530.0
 30
0.0
 40
17.0
100
AcDbArc
 50
204.2496000000001
 51
215.7505
  0
ARC
  5
480
330
1F
100
AcDbEntity
  8
水栓
  6
CONTINUOUS
 62
     6
100
AcDbCircle
 10
698.0000000000001
 20
1530.0
 30
0.0
 40
17.0
100
AcDbArc
 50
264.2496000000002
 51
275.7505000000002
  0
ARC
  5
481
330
1F
100
AcDbEntity
  8
水栓
  6
CONTINUOUS
 62
     6
100
AcDbCircle
 10
698.0000000000001
 20
1530.0
 30
0.0
 40
17.0
100
AcDbArc
 50
324.2496000000003
 51
335.7505000000002
  0
ARC
  5
482
330
1F
100
AcDbEntity
  8
水栓
  6
CONTINUOUS
 62
     6
100
AcDbCircle
 10
698.0000000000001
 20
1530.0
 30
0.0
 40
17.0
100
AcDbArc
 50
24.24962999999997
 51
35.75048999999997
  0
ARC
  5
483
330
1F
100
AcDbEntity
  8
水栓
  6
CONTINUOUS
 62
     6
100
AcDbCircle
 10
676.0000000000001
 20
1571.5
 30
0.0
 40
1.5
100
AcDbArc
 50
180.0
 51
270.0000000000002
  0
ARC
  5
484
330
1F
100
AcDbEntity
  8
水栓
  6
CONTINUOUS
 62
     6
100
AcDbCircle
 10
698.2416000000001
 20
1501.2
 30
0.0
 40
14.00836000000001
100
AcDbArc
 50
24.38830999999998
 51
25.36071999999998
  0
ARC
  5
485
330
1F
100
AcDbEntity
  8
水栓
  6
CONTINUOUS
 62
     6
100
AcDbCircle
 10
697.7584
 20
1501.2
 30
0.0
 40
14.00836000000001
100
AcDbArc
 50
204.3883000000001
 51
205.3607000000001
  0
ARC
  5
486
330
1F
100
AcDbEntity
  8
水栓
  6
CONTINUOUS
 62
     6
100
AcDbCircle
 10
698.0000000000001
 20
1550.0
 30
0.0
 40
21.5
100
AcDbArc
 50
326.6620000000002
 51
0.0
  0
ARC
  5
487
330
1F
100
AcDbEntity
  8
水栓
  6
CONTINUOUS
 62
     6
100
AcDbCircle
 10
731.0000000000001
 20
1528.29171
 30
0.0
 40
18.0
100
AcDbArc
 50
146.66199
 51
166.4638100000001
  0
ARC
  5
488
330
1F
100
AcDbEntity
  8
水栓
  6
CONTINUOUS
 62
     6
100
AcDbCircle
 10
698.0000000000001
 20
1550.0
 30
0.0
 40
23.75000000000002
100
AcDbArc
 50
154.8587493536
 51
229.2596932493003
  0
ARC
  5
489
330
1F
100
AcDbEntity
  8
水栓
  6
CONTINUOUS
 62
     6
100
AcDbCircle
 10
698.0000000000001
 20
1550.0
 30
0.0
 40
23.75000000000002
100
AcDbArc
 50
310.7403067507001
 51
25.14125064635997
  0
LINE
  5
48A
330
1F
100
AcDbEntity
  8
水栓
  6
CONTINUOUS
 62
     6
100
AcDbLine
 10
705.94
 20
1401.9999695
 30
0.0
 11
705.94
 21
1495.200003
 31
0.0
  0
LINE
  5
48B
330
1F
100
AcDbEntity
  8
水栓
  6
CONTINUOUS
 62
     6
100
AcDbLine
 10
690.0600000000001
 20
1401.9999695
 30
0.0
 11
690.0600000000001
 21
1495.200003
 31
0.0
  0
LINE
  5
48C
330
1F
100
AcDbEntity
  8
水栓
  6
CONTINUOUS
 62
     6
100
AcDbLine
 10
1727.0
 20
1510.5
 30
0.0
 11
1727.0
 21
1507.2
 31
0.0
  0
LINE
  5
48D
330
1F
100
AcDbEntity
  8
水栓
  6
CONTINUOUS
 62
     6
100
AcDbLine
 10
1727.0
 20
1509.0
 30
0.0
 11
1703.0
 21
1509.0
 31
0.0
  0
LINE
  5
48E
330
1F
100
AcDbEntity
  8
水栓
  6
CONTINUOUS
 62
     6
100
AcDbLine
 10
1703.0
 20
1510.5
 30
0.0
 11
1703.0
 21
1507.2
 31
0.0
  0
LINE
  5
48F
330
1F
100
AcDbEntity
  8
水栓
  6
CONTINUOUS
 62
     6
100
AcDbLine
 10
1747.5
 20
1567.0
 30
0.0
 11
1747.5
 21
1569.5
 31
0.0
  0
LINE
  5
490
330
1F
100
AcDbEntity
  8
水栓
  6
CONTINUOUS
 62
     6
100
AcDbLine
 10
1768.5
 20
1569.5
 30
0.0
 11
1768.5
 21
1566.4775
 31
0.0
  0
LINE
  5
491
330
1F
100
AcDbEntity
  8
水栓
  6
CONTINUOUS
 62
     6
100
AcDbLine
 10
1752.0
 20
1584.0
 30
0.0
 11
1764.0
 21
1584.0
 31
0.0
  0
LINE
  5
492
330
1F
100
AcDbEntity
  8
水栓
  6
CONTINUOUS
 62
     6
100
AcDbLine
 10
1765.5
 20
1577.65685
 30
0.0
 11
1765.5
 21
1582.5
 31
0.0
  0
LINE
  5
493
330
1F
100
AcDbEntity
  8
水栓
  6
CONTINUOUS
 62
     6
100
AcDbLine
 10
1747.377502
 20
1569.5
 30
0.0
 11
1768.6225
 21
1569.5
 31
0.0
  0
LINE
  5
494
330
1F
100
AcDbEntity
  8
水栓
  6
CONTINUOUS
 62
     6
100
AcDbLine
 10
1750.5
 20
1577.65685
 30
0.0
 11
1750.5
 21
1582.5
 31
0.0
  0
LINE
  5
495
330
1F
100
AcDbEntity
  8
水栓
  6
CONTINUOUS
 62
     6
100
AcDbLine
 10
1758.70001
 20
1584.0
 30
0.0
 11
1758.70001
 21
1584.97547
 31
0.0
  0
LINE
  5
496
330
1F
100
AcDbEntity
  8
水栓
  6
CONTINUOUS
 62
     6
100
AcDbLine
 10
1757.29999
 20
1584.0
 30
0.0
 11
1757.29999
 21
1584.97547
 31
0.0
  0
LINE
  5
497
330
1F
100
AcDbEntity
  8
水栓
  6
CONTINUOUS
 62
     6
100
AcDbLine
 10
1727.89999
 20
1495.2
 30
0.0
 11
1702.1
 21
1495.2
 31
0.0
  0
LINE
  5
498
330
1F
100
AcDbEntity
  8
水栓
  6
CONTINUOUS
 62
     6
100
AcDbLine
 10
1727.89999
 20
1507.2
 30
0.0
 11
1702.1
 21
1507.2
 31
0.0
  0
LINE
  5
499
330
1F
100
AcDbEntity
  8
水栓
  6
CONTINUOUS
 62
     6
100
AcDbLine
 10
1727.0
 20
1510.5
 30
0.0
 11
1703.0
 21
1510.5
 31
0.0
  0
LINE
  5
49A
330
1F
100
AcDbEntity
  8
水栓
  6
CONTINUOUS
 62
     6
100
AcDbLine
 10
1804.0
 20
1559.2775
 30
0.0
 11
1804.0
 21
1540.72252
 31
0.0
  0
LINE
  5
49B
330
1F
100
AcDbEntity
  8
水栓
  6
CONTINUOUS
 62
     6
100
AcDbLine
 10
1802.79999
 20
1560.4775
 30
0.0
 11
1804.0
 21
1559.2775
 31
0.0
  0
LINE
  5
49C
330
1F
100
AcDbEntity
  8
水栓
  6
CONTINUOUS
 62
     6
100
AcDbLine
 10
1804.0
 20
1540.72252
 30
0.0
 11
1802.79999
 21
1539.52251
 31
0.0
  0
LINE
  5
49D
330
1F
100
AcDbEntity
  8
水栓
  6
CONTINUOUS
 62
     6
100
AcDbLine
 10
1802.79999
 20
1560.4775
 30
0.0
 11
1802.79999
 21
1539.52251
 31
0.0
  0
LINE
  5
49E
330
1F
100
AcDbEntity
  8
水栓
  6
CONTINUOUS
 62
     6
100
AcDbLine
 10
1778.12332
 20
1539.52251
 30
0.0
 11
1780.5
 21
1539.52251
 31
0.0
  0
LINE
  5
49F
330
1F
100
AcDbEntity
  8
水栓
  6
CONTINUOUS
 62
     6
100
AcDbLine
 10
1790.00009
 20
1526.25
 30
0.0
 11
1790.00015
 21
1573.75
 31
0.0
  0
LINE
  5
4A0
330
1F
100
AcDbEntity
  8
水栓
  6
CONTINUOUS
 62
     6
100
AcDbLine
 10
1786.60141
 20
1573.75
 30
0.0
 11
1790.00015
 21
1573.75
 31
0.0
  0
LINE
  5
4A1
330
1F
100
AcDbEntity
  8
水栓
  6
CONTINUOUS
 62
     6
100
AcDbLine
 10
1785.5
 20
1572.65182
 30
0.0
 11
1785.5
 21
1527.34817
 31
0.0
  0
LINE
  5
4A2
330
1F
100
AcDbEntity
  8
水栓
  6
CONTINUOUS
 62
     6
100
AcDbLine
 10
1786.60141
 20
1526.25
 30
0.0
 11
1790.00012
 21
1526.25
 31
0.0
  0
LINE
  5
4A3
330
1F
100
AcDbEntity
  8
水栓
  6
CONTINUOUS
 62
     6
100
AcDbLine
 10
1780.5
 20
1564.51994
 30
0.0
 11
1780.5
 21
1535.48004
 31
0.0
  0
LINE
  5
4A4
330
1F
100
AcDbEntity
  8
水栓
  6
CONTINUOUS
 62
     6
100
AcDbLine
 10
1802.79999
 20
1560.4775
 30
0.0
 11
1790.00014
 21
1560.4775
 31
0.0
  0
LINE
  5
4A5
330
1F
100
AcDbEntity
  8
水栓
  6
CONTINUOUS
 62
     6
100
AcDbLine
 10
1687.82288
 20
1513.0
 30
0.0
 11
1679.17712
 21
1513.0
 31
0.0
  0
LINE
  5
4A6
330
1F
100
AcDbEntity
  8
水栓
  6
CONTINUOUS
 62
     6
100
AcDbLine
 10
1678.5
 20
1545.5
 30
0.0
 11
1678.5
 21
1514.5
 31
0.0
  0
LINE
  5
4A7
330
1F
100
AcDbEntity
  8
水栓
  6
CONTINUOUS
 62
     6
100
AcDbLine
 10
1688.5
 20
1545.5
 30
0.0
 11
1688.5
 21
1514.5
 31
0.0
  0
LINE
  5
4A8
330
1F
100
AcDbEntity
  8
水栓
  6
CONTINUOUS
 62
     6
100
AcDbLine
 10
1672.0
 20
1523.5
 30
0.0
 11
1672.0
 21
1536.5
 31
0.0
  0
LINE
  5
4A9
330
1F
100
AcDbEntity
  8
水栓
  6
CONTINUOUS
 62
     6
100
AcDbLine
 10
1727.37625
 20
1581.36443
 30
0.0
 11
1737.31189
 21
1579.25253
 31
0.0
  0
LINE
  5
4AA
330
1F
100
AcDbEntity
  8
水栓
  6
CONTINUOUS
 62
     6
100
AcDbLine
 10
1721.10004
 20
1596.5
 30
0.0
 11
1708.89996
 21
1596.5
 31
0.0
  0
LINE
  5
4AB
330
1F
100
AcDbEntity
  8
水栓
  6
CONTINUOUS
 62
     6
100
AcDbLine
 10
1693.5
 20
1578.99982
 30
0.0
 11
1736.5
 21
1578.99982
 31
0.0
  0
LINE
  5
4AC
330
1F
100
AcDbEntity
  8
水栓
  6
CONTINUOUS
 62
     6
100
AcDbLine
 10
1737.0
 20
1570.0
 30
0.0
 11
1693.0
 21
1570.0
 31
0.0
  0
LINE
  5
4AD
330
1F
100
AcDbEntity
  8
水栓
  6
CONTINUOUS
 62
     6
100
AcDbLine
 10
1687.82288
 20
1547.0
 30
0.0
 11
1679.17712
 21
1547.0
 31
0.0
  0
LINE
  5
4AE
330
1F
100
AcDbEntity
  8
水栓
  6
CONTINUOUS
 62
     6
100
AcDbLine
 10
1667.0
 20
1539.0
 30
0.0
 11
1667.0
 21
1521.0
 31
0.0
  0
LINE
  5
4AF
330
1F
100
AcDbEntity
  8
水栓
  6
CONTINUOUS
 62
     6
100
AcDbLine
 10
1667.0
 20
1535.5
 30
0.0
 11
1672.0
 21
1535.5
 31
0.0
  0
LINE
  5
4B0
330
1F
100
AcDbEntity
  8
水栓
  6
CONTINUOUS
 62
     6
100
AcDbLine
 10
1667.0
 20
1524.5
 30
0.0
 11
1672.0
 21
1524.5
 31
0.0
  0
LINE
  5
4B1
330
1F
100
AcDbEntity
  8
水栓
  6
CONTINUOUS
 62
     6
100
AcDbLine
 10
1664.0
 20
1521.0
 30
0.0
 11
1664.0
 21
1539.0
 31
0.0
  0
LINE
  5
4B2
330
1F
100
AcDbEntity
  8
水栓
  6
CONTINUOUS
 62
     6
100
AcDbLine
 10
1674.0
 20
1521.5
 30
0.0
 11
1678.5
 21
1521.5
 31
0.0
  0
LINE
  5
4B3
330
1F
100
AcDbEntity
  8
水栓
  6
CONTINUOUS
 62
     6
100
AcDbLine
 10
1674.0
 20
1538.5
 30
0.0
 11
1678.5
 21
1538.5
 31
0.0
  0
LINE
  5
4B4
330
1F
100
AcDbEntity
  8
水栓
  6
CONTINUOUS
 62
     6
100
AcDbLine
 10
1723.5
 20
1595.0
 30
0.0
 11
1706.5
 21
1595.0
 31
0.0
  0
LINE
  5
4B5
330
1F
100
AcDbEntity
  8
水栓
  6
CONTINUOUS
 62
     6
100
AcDbLine
 10
1723.5
 20
1595.0
 30
0.0
 11
1726.25
 21
1592.5
 31
0.0
  0
LINE
  5
4B6
330
1F
100
AcDbEntity
  8
水栓
  6
CONTINUOUS
 62
     6
100
AcDbLine
 10
1726.25
 20
1586.73557
 30
0.0
 11
1726.25
 21
1592.5
 31
0.0
  0
LINE
  5
4B7
330
1F
100
AcDbEntity
  8
水栓
  6
CONTINUOUS
 62
     6
100
AcDbLine
 10
1738.5
 20
1571.5
 30
0.0
 11
1738.5
 21
1577.78531
 31
0.0
  0
LINE
  5
4B8
330
1F
100
AcDbEntity
  8
水栓
  6
CONTINUOUS
 62
     6
100
AcDbLine
 10
1706.5
 20
1595.0
 30
0.0
 11
1703.75
 21
1592.5
 31
0.0
  0
LINE
  5
4B9
330
1F
100
AcDbEntity
  8
水栓
  6
CONTINUOUS
 62
     6
100
AcDbLine
 10
1703.75
 20
1586.73557
 30
0.0
 11
1703.75
 21
1592.5
 31
0.0
  0
LINE
  5
4BA
330
1F
100
AcDbEntity
  8
水栓
  6
CONTINUOUS
 62
     6
100
AcDbLine
 10
1702.62372
 20
1581.36443
 30
0.0
 11
1692.68811
 21
1579.25253
 31
0.0
  0
LINE
  5
4BB
330
1F
100
AcDbEntity
  8
水栓
  6
CONTINUOUS
 62
     6
100
AcDbLine
 10
1691.5
 20
1571.5
 30
0.0
 11
1691.5
 21
1577.78531
 31
0.0
  0
LINE
  5
4BC
330
1F
100
AcDbEntity
  8
水栓
  6
CONTINUOUS
 62
     6
100
AcDbLine
 10
1741.568329
 20
1538.5
 30
0.0
 11
1736.0
 21
1538.5
 31
0.0
  0
LINE
  5
4BD
330
1F
100
AcDbEntity
  8
水栓
  6
CONTINUOUS
 62
     6
100
AcDbLine
 10
1688.5
 20
1544.0
 30
0.0
 11
1689.44125
 21
1544.0
 31
0.0
  0
LINE
  5
4BE
330
1F
100
AcDbEntity
  8
水栓
  6
CONTINUOUS
 62
     6
100
AcDbLine
 10
1690.0
 20
1544.03132
 30
0.0
 11
1690.0
 21
1516.0
 31
0.0
  0
LINE
  5
4BF
330
1F
100
AcDbEntity
  8
水栓
  6
CONTINUOUS
 62
     6
100
AcDbLine
 10
1688.5
 20
1516.0
 30
0.0
 11
1696.05283
 21
1516.0
 31
0.0
  0
LINE
  5
4C0
330
1F
100
AcDbEntity
  8
水栓
  6
CONTINUOUS
 62
     6
100
AcDbLine
 10
1730.0
 20
1515.69615
 30
0.0
 11
1730.0
 21
1532.5
 31
0.0
  0
LINE
  5
4C1
330
1F
100
AcDbEntity
  8
水栓
  6
CONTINUOUS
 62
     6
100
AcDbLine
 10
1693.5
 20
1556.0
 30
0.0
 11
1693.5
 21
1570.0
 31
0.0
  0
LINE
  5
4C2
330
1F
100
AcDbEntity
  8
水栓
  6
CONTINUOUS
 62
     6
100
AcDbLine
 10
1736.5
 20
1570.0
 30
0.0
 11
1736.5
 21
1567.0
 31
0.0
  0
LINE
  5
4C3
330
1F
100
AcDbEntity
  8
水栓
  6
CONTINUOUS
 62
     6
100
AcDbLine
 10
1780.5
 20
1560.4775
 30
0.0
 11
1774.5
 21
1560.4775
 31
0.0
  0
LINE
  5
4C4
330
1F
100
AcDbEntity
  8
水栓
  6
CONTINUOUS
 62
     6
100
AcDbLine
 10
1790.00011
 20
1539.52251
 30
0.0
 11
1802.79999
 21
1539.52251
 31
0.0
  0
ARC
  5
4C5
330
1F
100
AcDbEntity
  8
水栓
  6
CONTINUOUS
 62
     6
100
AcDbCircle
 10
1706.0
 20
1515.69615
 30
0.0
 40
6.000000000000004
100
AcDbArc
 50
205.2725000000002
 51
240.0000000000001
  0
ARC
  5
4C6
330
1F
100
AcDbEntity
  8
水栓
  6
CONTINUOUS
 62
     6
100
AcDbCircle
 10
1724.0
 20
1515.69615
 30
0.0
 40
6.000000000000004
100
AcDbArc
 50
300.0000000000002
 51
0.0
  0
ARC
  5
4C7
330
1F
100
AcDbEntity
  8
水栓
  6
CONTINUOUS
 62
     6
100
AcDbCircle
 10
1696.05283
 20
1511.0
 30
0.0
 40
5.0
100
AcDbArc
 50
25.27236999999998
 51
90.00000000000001
  0
ARC
  5
4C8
330
1F
100
AcDbEntity
  8
水栓
  6
CONTINUOUS
 62
     6
100
AcDbCircle
 10
1742.0
 20
1567.0
 30
0.0
 40
5.5
100
AcDbArc
 50
180.0
 51
0.0
  0
ARC
  5
4C9
330
1F
100
AcDbEntity
  8
水栓
  6
CONTINUOUS
 62
     6
100
AcDbCircle
 10
1758.0
 20
1577.0
 30
0.0
 40
40.5
100
AcDbArc
 50
256.1206
 51
287.0839
  0
ARC
  5
4CA
330
1F
100
AcDbEntity
  8
水栓
  6
CONTINUOUS
 62
     6
100
AcDbCircle
 10
1741.568329
 20
1510.5
 30
0.0
 40
28.00000000000002
100
AcDbArc
 50
76.12063999999997
 51
90.00000000000001
  0
ARC
  5
4CB
330
1F
100
AcDbEntity
  8
水栓
  6
CONTINUOUS
 62
     6
100
AcDbCircle
 10
1764.0
 20
1582.5
 30
0.0
 40
1.5
100
AcDbArc
 50
0.0
 51
90.00000000000001
  0
ARC
  5
4CC
330
1F
100
AcDbEntity
  8
水栓
  6
CONTINUOUS
 62
     6
100
AcDbCircle
 10
1765.5
 20
1572.0
 30
0.0
 40
4.0
100
AcDbArc
 50
321.3178000000003
 51
70.52874999999996
  0
ARC
  5
4CD
330
1F
100
AcDbEntity
  8
水栓
  6
CONTINUOUS
 62
     6
100
AcDbCircle
 10
1767.5
 20
1577.65685
 30
0.0
 40
2.0
100
AcDbArc
 50
180.0
 51
250.5288000000001
  0
ARC
  5
4CE
330
1F
100
AcDbEntity
  8
水栓
  6
CONTINUOUS
 62
     6
100
AcDbCircle
 10
1752.0
 20
1582.5
 30
0.0
 40
1.5
100
AcDbArc
 50
90.00000000000001
 51
180.0
  0
ARC
  5
4CF
330
1F
100
AcDbEntity
  8
水栓
  6
CONTINUOUS
 62
     6
100
AcDbCircle
 10
1750.5
 20
1572.0
 30
0.0
 40
4.0
100
AcDbArc
 50
109.4713
 51
218.6822
  0
ARC
  5
4D0
330
1F
100
AcDbEntity
  8
水栓
  6
CONTINUOUS
 62
     6
100
AcDbCircle
 10
1758.0
 20
1575.0
 30
0.0
 40
10.0
100
AcDbArc
 50
64.15807999999997
 51
85.98601999999997
  0
ARC
  5
4D1
330
1F
100
AcDbEntity
  8
水栓
  6
CONTINUOUS
 62
     6
100
AcDbCircle
 10
1758.0
 20
1575.0
 30
0.0
 40
10.0
100
AcDbArc
 50
94.01397999999996
 51
115.8418999999999
  0
ARC
  5
4D2
330
1F
100
AcDbEntity
  8
水栓
  6
CONTINUOUS
 62
     6
100
AcDbCircle
 10
1714.75836
 20
1501.2
 30
0.0
 40
14.00836000000001
100
AcDbArc
 50
154.6393000000001
 51
205.3607000000001
  0
ARC
  5
4D3
330
1F
100
AcDbEntity
  8
水栓
  6
CONTINUOUS
 62
     6
100
AcDbCircle
 10
1715.24164
 20
1501.2
 30
0.0
 40
14.00836000000001
100
AcDbArc
 50
334.6393000000002
 51
25.36071999999998
  0
ARC
  5
4D4
330
1F
100
AcDbEntity
  8
水栓
  6
CONTINUOUS
 62
     6
100
AcDbCircle
 10
1778.12332
 20
1511.52251
 30
0.0
 40
28.00000000000002
100
AcDbArc
 50
90.00000000000001
 51
107.0839
  0
ARC
  5
4D5
330
1F
100
AcDbEntity
  8
水栓
  6
CONTINUOUS
 62
     6
100
AcDbCircle
 10
1869.714
 20
1519.82413
 30
0.0
 40
100.0000000000001
100
AcDbArc
 50
148.0043
 51
152.8656
  0
ARC
  5
4D6
330
1F
100
AcDbEntity
  8
水栓
  6
CONTINUOUS
 62
     6
100
AcDbCircle
 10
1786.60141
 20
1571.75
 30
0.0
 40
2.0
100
AcDbArc
 50
90.00000000000001
 51
148.0043
  0
ARC
  5
4D7
330
1F
100
AcDbEntity
  8
水栓
  6
CONTINUOUS
 62
     6
100
AcDbCircle
 10
1869.714
 20
1580.17586
 30
0.0
 40
100.0000000000001
100
AcDbArc
 50
207.1344
 51
211.9957000000002
  0
ARC
  5
4D8
330
1F
100
AcDbEntity
  8
水栓
  6
CONTINUOUS
 62
     6
100
AcDbCircle
 10
1786.60141
 20
1528.25
 30
0.0
 40
2.0
100
AcDbArc
 50
211.9957000000002
 51
270.0000000000002
  0
ARC
  5
4D9
330
1F
100
AcDbEntity
  8
水栓
  6
CONTINUOUS
 62
     6
100
AcDbCircle
 10
1782.5
 20
1564.51994
 30
0.0
 40
2.0
100
AcDbArc
 50
152.8656
 51
180.0
  0
ARC
  5
4DA
330
1F
100
AcDbEntity
  8
水栓
  6
CONTINUOUS
 62
     6
100
AcDbCircle
 10
1782.5
 20
1535.48006
 30
0.0
 40
2.0
100
AcDbArc
 50
180.0007000000001
 51
207.1344
  0
ARC
  5
4DB
330
1F
100
AcDbEntity
  8
水栓
  6
CONTINUOUS
 62
     6
100
AcDbCircle
 10
1774.5
 20
1566.4775
 30
0.0
 40
6.000000000000004
100
AcDbArc
 50
180.0
 51
270.0000000000002
  0
ARC
  5
4DC
330
1F
100
AcDbEntity
  8
水栓
  6
CONTINUOUS
 62
     6
100
AcDbCircle
 10
1748.5
 20
1577.65685
 30
0.0
 40
2.0
100
AcDbArc
 50
289.4711000000004
 51
0.0
  0
ARC
  5
4DD
330
1F
100
AcDbEntity
  8
水栓
  6
CONTINUOUS
 62
     6
100
AcDbCircle
 10
1680.5
 20
1514.5
 30
0.0
 40
2.0
100
AcDbArc
 50
180.0
 51
228.5903
  0
ARC
  5
4DE
330
1F
100
AcDbEntity
  8
水栓
  6
CONTINUOUS
 62
     6
100
AcDbCircle
 10
1686.5
 20
1514.5
 30
0.0
 40
2.0
100
AcDbArc
 50
311.4097
 51
0.0
  0
ARC
  5
4DF
330
1F
100
AcDbEntity
  8
水栓
  6
CONTINUOUS
 62
     6
100
AcDbCircle
 10
1728.0
 20
1584.29887
 30
0.0
 40
3.000000000000002
100
AcDbArc
 50
125.6853
 51
258.0000000000003
  0
ARC
  5
4E0
330
1F
100
AcDbEntity
  8
水栓
  6
CONTINUOUS
 62
     6
100
AcDbCircle
 10
1686.5
 20
1545.5
 30
0.0
 40
2.0
100
AcDbArc
 50
0.0
 51
48.59035999999995
  0
ARC
  5
4E1
330
1F
100
AcDbEntity
  8
水栓
  6
CONTINUOUS
 62
     6
100
AcDbCircle
 10
1680.5
 20
1545.5
 30
0.0
 40
2.0
100
AcDbArc
 50
131.4096
 51
180.0
  0
ARC
  5
4E2
330
1F
100
AcDbEntity
  8
水栓
  6
CONTINUOUS
 62
     6
100
AcDbCircle
 10
1665.5
 20
1521.0
 30
0.0
 40
1.5
100
AcDbArc
 50
180.0
 51
0.0
  0
ARC
  5
4E3
330
1F
100
AcDbEntity
  8
水栓
  6
CONTINUOUS
 62
     6
100
AcDbCircle
 10
1665.5
 20
1539.0
 30
0.0
 40
1.5
100
AcDbArc
 50
0.0
 51
180.0
  0
ARC
  5
4E4
330
1F
100
AcDbEntity
  8
水栓
  6
CONTINUOUS
 62
     6
100
AcDbCircle
 10
1674.0
 20
1523.5
 30
0.0
 40
2.0
100
AcDbArc
 50
180.0
 51
270.0000000000002
  0
ARC
  5
4E5
330
1F
100
AcDbEntity
  8
水栓
  6
CONTINUOUS
 62
     6
100
AcDbCircle
 10
1737.0
 20
1577.78531
 30
0.0
 40
1.5
100
AcDbArc
 50
0.0
 51
77.99972999999996
  0
ARC
  5
4E6
330
1F
100
AcDbEntity
  8
水栓
  6
CONTINUOUS
 62
     6
100
AcDbCircle
 10
1737.0
 20
1571.5
 30
0.0
 40
1.5
100
AcDbArc
 50
270.0000000000002
 51
0.0
  0
ARC
  5
4E7
330
1F
100
AcDbEntity
  8
水栓
  6
CONTINUOUS
 62
     6
100
AcDbCircle
 10
1702.0
 20
1584.29887
 30
0.0
 40
3.000000000000002
100
AcDbArc
 50
282.0000000000002
 51
54.31466999999998
  0
ARC
  5
4E8
330
1F
100
AcDbEntity
  8
水栓
  6
CONTINUOUS
 62
     6
100
AcDbCircle
 10
1693.0
 20
1577.78531
 30
0.0
 40
1.5
100
AcDbArc
 50
102.0003
 51
180.0
  0
ARC
  5
4E9
330
1F
100
AcDbEntity
  8
水栓
  6
CONTINUOUS
 62
     6
100
AcDbCircle
 10
1736.0
 20
1532.5
 30
0.0
 40
6.000000000000004
100
AcDbArc
 50
90.00000000000001
 51
180.0
  0
ARC
  5
4EA
330
1F
100
AcDbEntity
  8
水栓
  6
CONTINUOUS
 62
     6
100
AcDbCircle
 10
1689.44125
 20
1549.0
 30
0.0
 40
5.0
100
AcDbArc
 50
270.0000000000002
 51
15.31653
  0
ARC
  5
4EB
330
1F
100
AcDbEntity
  8
水栓
  6
CONTINUOUS
 62
     6
100
AcDbCircle
 10
1715.0
 20
1556.0
 30
0.0
 40
21.5
100
AcDbArc
 50
180.0
 51
195.3165000000001
  0
ARC
  5
4EC
330
1F
100
AcDbEntity
  8
水栓
  6
CONTINUOUS
 62
     6
100
AcDbCircle
 10
1674.0
 20
1536.5
 30
0.0
 40
2.0
100
AcDbArc
 50
90.00000000000001
 51
180.0
  0
ARC
  5
4ED
330
1F
100
AcDbEntity
  8
水栓
  6
CONTINUOUS
 62
     6
100
AcDbCircle
 10
1693.0
 20
1571.5
 30
0.0
 40
1.5
100
AcDbArc
 50
180.0
 51
270.0000000000002
  0
LINE
  5
4EE
330
1F
100
AcDbEntity
  8
水栓
  6
CONTINUOUS
 62
     6
100
AcDbLine
 10
1708.6501766953
 20
1596.2
 30
0.0
 11
1708.6501766953
 21
1595.0
 31
0.0
  0
LINE
  5
4EF
330
1F
100
AcDbEntity
  8
水栓
  6
CONTINUOUS
 62
     6
100
AcDbLine
 10
1708.6501766953
 20
1596.2
 30
0.0
 11
1708.89996
 21
1596.5
 31
0.0
  0
LINE
  5
4F0
330
1F
100
AcDbEntity
  8
水栓
  6
CONTINUOUS
 62
     6
100
AcDbLine
 10
1721.3498233047
 20
1596.2
 30
0.0
 11
1721.3498233047
 21
1595.0
 31
0.0
  0
LINE
  5
4F1
330
1F
100
AcDbEntity
  8
水栓
  6
CONTINUOUS
 62
     6
100
AcDbLine
 10
1721.3498233047
 20
1596.2
 30
0.0
 11
1721.10004
 21
1596.5
 31
0.0
  0
LINE
  5
4F2
330
1F
100
AcDbEntity
  8
水栓
  6
CONTINUOUS
 62
     6
100
AcDbLine
 10
1707.06
 20
1488.0000024227
 30
0.0
 11
1707.06
 21
1495.2
 31
0.0
  0
LINE
  5
4F3
330
1F
100
AcDbEntity
  8
水栓
  6
CONTINUOUS
 62
     6
100
AcDbLine
 10
1722.94
 20
1488.0000024227
 30
0.0
 11
1722.94
 21
1495.2
 31
0.0
  0
LINE
  5
4F4
330
1F
100
AcDbEntity
  8
水栓
  6
CONTINUOUS
 62
     6
100
AcDbLine
 10
1707.06
 20
1495.2
 30
0.0
 11
1707.06
 21
1463.0000024227
 31
0.0
  0
LINE
  5
4F5
330
1F
100
AcDbEntity
  8
水栓
  6
CONTINUOUS
 62
     6
100
AcDbLine
 10
1722.94
 20
1495.2
 30
0.0
 11
1722.94
 21
1463.0000024227
 31
0.0
  0
LINE
  5
4F6
330
1F
100
AcDbEntity
  8
水栓
  6
CONTINUOUS
 62
     6
100
AcDbLine
 10
1725.840498822587
 20
1453.484114318753
 30
0.0
 11
1737.33962302368
 21
1436.37358707358
 31
0.0
  0
LINE
  5
4F7
330
1F
100
AcDbEntity
  8
水栓
  6
CONTINUOUS
 62
     6
100
AcDbLine
 10
1712.66037697632
 20
1444.62641777182
 30
0.0
 11
1724.159501177413
 21
1427.515890526647
 31
0.0
  0
ARC
  5
4F8
330
1F
100
AcDbEntity
  8
水栓
  6
CONTINUOUS
 62
     6
100
AcDbCircle
 10
1740.0
 20
1463.0000024227
 30
0.0
 40
32.94
100
AcDbArc
 50
179.9999999999999
 51
213.9030612690827
  0
ARC
  5
4F9
330
1F
100
AcDbEntity
  8
水栓
  6
CONTINUOUS
 62
     6
100
AcDbCircle
 10
1740.0
 20
1463.0000024227
 30
0.0
 40
17.06
100
AcDbArc
 50
179.9999999999999
 51
213.9030612690827
  0
ARC
  5
4FA
330
1F
100
AcDbEntity
  8
水栓
  6
CONTINUOUS
 62
     6
100
AcDbCircle
 10
1710.0
 20
1418.0000024227
 30
0.0
 40
17.06
100
AcDbArc
 50
0.0000000000002865
 51
33.90306126908274
  0
ARC
  5
4FB
330
1F
100
AcDbEntity
  8
水栓
  6
CONTINUOUS
 62
     6
100
AcDbCircle
 10
1710.0
 20
1418.0000024227
 30
0.0
 40
32.94
100
AcDbArc
 50
0.0000000000002865
 51
33.90306126908268
  0
LINE
  5
4FC
330
1F
100
AcDbEntity
  8
水栓
  6
CONTINUOUS
 62
     6
100
AcDbLine
 10
1727.06
 20
1418.0000024227
 30
0.0
 11
1727.06
 21
1401.9997930681
 31
0.0
  0
LINE
  5
4FD
330
1F
100
AcDbEntity
  8
水栓
  6
CONTINUOUS
 62
     6
100
AcDbLine
 10
1742.94
 20
1418.0000024227
 30
0.0
 11
1742.94
 21
1401.9997930681
 31
0.0
  0
ELLIPSE
  5
4FE
330
1F
100
AcDbEntity
  8
トラップ
  6
CONTINUOUS
 62
     6
100
AcDbEllipse
 10
697.99999995
 20
762.4997109907002
 30
0.0
 11
8.75
 21
0.0
 31
0.0
210
0.0
220
0.0
230
1.0
 40
0.6427876096865397
 41
0.0
 42
6.283185307179586
  0
LINE
  5
4FF
330
1F
100
AcDbEntity
  8
トラップ
  6
CONTINUOUS
 62
     6
100
AcDbLine
 10
690.3405664752981
 20
769.5050949871925
 30
0.0
 11
689.297327562848
 21
763.083903205125
 31
0.0
  0
LINE
  5
500
330
1F
100
AcDbEntity
  8
トラップ
  6
CONTINUOUS
 62
     6
100
AcDbLine
 10
705.2228276941373
 20
769.6941595458397
 30
0.0
 11
706.6599656514937
 21
763.3044785235467
 31
0.0
  0
ELLIPSE
  5
501
330
1F
100
AcDbEntity
  8
トラップ
  6
CONTINUOUS
 62
     6
100
AcDbEllipse
 10
697.7999999499998
 20
769.0043588033998
 30
0.0
 11
7.500000000000004
 21
0.0
 31
0.0
210
0.0
220
0.0
230
1.0
 40
0.6427876096865397
 41
0.143578053963215
 42
3.037537350369396
  0
LINE
  5
502
330
1F
100
AcDbEntity
  8
トラップ
  6
CONTINUOUS
 62
     2
100
AcDbLine
 10
728.84999995
 20
928.0233136756002
 30
0.0
 11
728.84999995
 21
785.2162827467695
 31
0.0
  0
LINE
  5
503
330
1F
100
AcDbEntity
  8
トラップ
  6
CONTINUOUS
 62
     2
100
AcDbLine
 10
667.1499999500002
 20
928.0233136756002
 30
0.0
 11
667.1499999500002
 21
785.2162827467695
 31
0.0
  0
ARC
  5
504
330
1F
100
AcDbEntity
  8
トラップ
  6
CONTINUOUS
 62
     2
100
AcDbCircle
 10
652.020569125806
 20
928.0233136755868
 30
0.0
 40
15.12943082419405
100
AcDbArc
 50
0.0
 51
42.29492633535339
  0
ARC
  5
505
330
1F
100
AcDbEntity
  8
トラップ
  6
CONTINUOUS
 62
     2
100
AcDbCircle
 10
674.3070285648797
 20
948.2988242107232
 30
0.0
 40
15.00000000000001
100
AcDbArc
 50
182.7649773259457
 51
222.2949263353541
  0
ARC
  5
506
330
1F
100
AcDbEntity
  8
トラップ
  6
CONTINUOUS
 62
     2
100
AcDbCircle
 10
743.9794307741942
 20
928.0233136755868
 30
0.0
 40
15.12943082419405
100
AcDbArc
 50
137.7050736646466
 51
180.0
  0
ARC
  5
507
330
1F
100
AcDbEntity
  8
トラップ
  6
CONTINUOUS
 62
     2
100
AcDbCircle
 10
721.6929713351204
 20
948.2988242107232
 30
0.0
 40
15.00000000000001
100
AcDbArc
 50
317.7050736646459
 51
357.2350226740544
  0
LINE
  5
508
330
1F
100
AcDbEntity
  8
トラップ
  6
CONTINUOUS
 62
     2
100
AcDbLine
 10
673.4999999999993
 20
586.9999999999994
 30
0.0
 11
722.5000000000006
 21
586.9999999999994
 31
0.0
  0
LINE
  5
509
330
1F
100
AcDbEntity
  8
トラップ
  6
CONTINUOUS
 62
     2
100
AcDbLine
 10
665.8999999999999
 20
576.9174300760995
 30
0.0
 11
728.7999999999998
 21
576.9174300760995
 31
0.0
  0
ARC
  5
50A
330
1F
100
AcDbEntity
  8
トラップ
  6
CONTINUOUS
 62
     2
100
AcDbCircle
 10
632.7459623799505
 20
597.6574311637487
 30
0.0
 40
35.17778624465333
100
AcDbArc
 50
317.8638663565213
 51
332.0678594570363
  0
ARC
  5
50B
330
1F
100
AcDbEntity
  8
トラップ
  6
CONTINUOUS
 62
     2
100
AcDbCircle
 10
668.3929719783039
 20
565.4070280216956
 30
0.0
 40
12.89297197830424
100
AcDbArc
 50
137.8638663565215
 51
179.6274249878326
  0
ARC
  5
50C
330
1F
100
AcDbEntity
  8
トラップ
  6
CONTINUOUS
 62
     2
100
AcDbCircle
 10
673.4999999999993
 20
576.0500000000002
 30
0.0
 40
10.94999999999942
100
AcDbArc
 50
90.00000000000001
 51
152.0678594570356
  0
ARC
  5
50D
330
1F
100
AcDbEntity
  8
トラップ
  6
CONTINUOUS
 62
     2
100
AcDbCircle
 10
763.2540376200494
 20
597.6574311637487
 30
0.0
 40
35.17778624465333
100
AcDbArc
 50
207.9321405429646
 51
222.1361336434789
  0
ARC
  5
50E
330
1F
100
AcDbEntity
  8
トラップ
  6
CONTINUOUS
 62
     2
100
AcDbCircle
 10
722.5000000000006
 20
576.0500000000002
 30
0.0
 40
10.94999999999942
100
AcDbArc
 50
27.93214054277043
 51
90.00000000000001
  0
ARC
  5
50F
330
1F
100
AcDbEntity
  8
トラップ
  6
CONTINUOUS
 62
     2
100
AcDbCircle
 10
727.607028021696
 20
565.4070280216956
 30
0.0
 40
12.89297197830424
100
AcDbArc
 50
0.3725750121673391
 51
42.13613364347889
  0
LINE
  5
510
330
1F
100
AcDbEntity
  8
トラップ
  6
CONTINUOUS
 62
     2
100
AcDbLine
 10
720.1350277870312
 20
586.9999999999994
 30
0.0
 11
721.5852298749846
 21
729.7891286600313
 31
0.0
  0
LINE
  5
511
330
1F
100
AcDbEntity
  8
トラップ
  6
CONTINUOUS
 62
     2
100
AcDbLine
 10
675.8649721129688
 20
586.9999999999994
 30
0.0
 11
674.4147700250153
 21
729.7891286600313
 31
0.0
  0
ARC
  5
512
330
1F
100
AcDbEntity
  8
トラップ
  6
CONTINUOUS
 62
     2
100
AcDbCircle
 10
756.8183304167828
 20
784.6904649467695
 30
0.0
 40
89.66833046678278
100
AcDbArc
 50
180.0
 51
194.4597123507135
  0
ARC
  5
513
330
1F
100
AcDbEntity
  8
トラップ
  6
CONTINUOUS
 62
     2
100
AcDbCircle
 10
538.5625325973033
 20
728.409379373656
 30
0.0
 40
135.7272193453325
100
AcDbArc
 50
0.5818902540170109
 51
14.45971235071324
  0
ARC
  5
514
330
1F
100
AcDbEntity
  8
トラップ
  6
CONTINUOUS
 62
     2
100
AcDbCircle
 10
639.1816694832173
 20
784.6904649467695
 30
0.0
 40
89.66833046678278
100
AcDbArc
 50
345.5402876492867
 51
0.0
  0
ARC
  5
515
330
1F
100
AcDbEntity
  8
トラップ
  6
CONTINUOUS
 62
     2
100
AcDbCircle
 10
857.4374673026969
 20
728.409379373656
 30
0.0
 40
135.7272193453325
100
AcDbArc
 50
165.5402876492868
 51
179.4181097459831
  0
ELLIPSE
  5
516
330
1F
100
AcDbEntity
  8
トラップ
  6
CONTINUOUS
 62
     2
100
AcDbEllipse
 10
697.99999995
 20
769.2056202616002
 30
0.0
 11
12.50000000000001
 21
0.0
 31
0.0
210
0.0
220
0.0
230
1.0
 40
0.6427876096865395
 41
5.672046747720315
 42
10.03451932673472
  0
LINE
  5
517
330
1F
100
AcDbEntity
  8
トラップ
  6
CONTINUOUS
 62
     2
100
AcDbLine
 10
728.84999995
 20
927.4974958756002
 30
0.0
 11
728.84999995
 21
784.6904649467695
 31
0.0
  0
LINE
  5
518
330
1F
100
AcDbEntity
  8
トラップ
  6
CONTINUOUS
 62
     2
100
AcDbLine
 10
667.1499999500002
 20
927.4974958756002
 30
0.0
 11
667.1499999500002
 21
784.6904649467695
 31
0.0
  0
LINE
  5
519
330
1F
100
AcDbEntity
  8
トラップ
  6
CONTINUOUS
 62
     2
100
AcDbLine
 10
676.4999999500001
 20
525.0000763000002
 30
0.0
 11
719.4999999499998
 21
525.0000763000002
 31
0.0
  0
LINE
  5
51A
330
1F
100
AcDbEntity
  8
トラップ
  6
CONTINUOUS
 62
     2
100
AcDbLine
 10
676.4289062
 20
532.0000763000002
 30
0.0
 11
719.5710936999999
 21
532.0000763000002
 31
0.0
  0
LINE
  5
51B
330
1F
100
AcDbEntity
  8
トラップ
  6
CONTINUOUS
 62
     2
100
AcDbLine
 10
676.35781245
 20
539.0000763000002
 30
0.0
 11
719.6421874499998
 21
539.0000763000002
 31
0.0
  0
LINE
  5
51C
330
1F
100
AcDbEntity
  8
トラップ
  6
CONTINUOUS
 62
     2
100
AcDbLine
 10
676.2867187
 20
546.0000763000002
 30
0.0
 11
719.7132811999998
 21
546.0000763000002
 31
0.0
  0
LINE
  5
51D
330
1F
100
AcDbEntity
  8
トラップ
  6
CONTINUOUS
 62
     2
100
AcDbLine
 10
676.4999999500001
 20
525.0000763000002
 30
0.0
 11
676.0884096129687
 21
565.5258941000001
 31
0.0
  0
LINE
  5
51E
330
1F
100
AcDbEntity
  8
トラップ
  6
CONTINUOUS
 62
     2
100
AcDbLine
 10
719.4999999499998
 20
525.0000763000002
 30
0.0
 11
719.9115902870311
 21
565.5258941000001
 31
0.0
  0
ARC
  5
51F
330
1F
100
AcDbEntity
  8
トラップ
  6
CONTINUOUS
 62
     2
100
AcDbCircle
 10
1676.35730127666
 20
930.3301676544316
 30
0.0
 40
19.91710560409219
100
AcDbArc
 50
336.3847087061625
 51
1.64726774931693
  0
ARC
  5
520
330
1F
100
AcDbEntity
  8
トラップ
  6
CONTINUOUS
 62
     2
100
AcDbCircle
 10
1762.673762713237
 20
892.591996256142
 30
0.0
 40
74.28852636883646
100
AcDbArc
 50
156.3847087061626
 51
176.842467211049
  0
ARC
  5
521
330
1F
100
AcDbEntity
  8
トラップ
  6
CONTINUOUS
 62
     2
100
AcDbCircle
 10
2682.592637854877
 20
868.7897627285238
 30
0.0
 40
994.0946214548788
100
AcDbArc
 50
180.0
 51
184.6183045788893
  0
LINE
  5
522
330
1F
100
AcDbEntity
  8
トラップ
  6
CONTINUOUS
 62
     2
100
AcDbLine
 10
1688.4980164
 20
896.6839162122875
 30
0.0
 11
1688.4980164
 21
868.7897627285238
 31
0.0
  0
ARC
  5
523
330
1F
100
AcDbEntity
  8
トラップ
  6
CONTINUOUS
 62
     2
100
AcDbCircle
 10
1707.322270086762
 20
892.591996256142
 30
0.0
 40
74.28852636883646
100
AcDbArc
 50
3.157532788951047
 51
23.61529129383744
  0
ARC
  5
524
330
1F
100
AcDbEntity
  8
トラップ
  6
CONTINUOUS
 62
     2
100
AcDbCircle
 10
1793.638731523339
 20
930.3301676544316
 30
0.0
 40
19.91710560409219
100
AcDbArc
 50
178.352732250683
 51
203.6152912938379
  0
LINE
  5
525
330
1F
100
AcDbEntity
  8
トラップ
  6
CONTINUOUS
 62
     2
100
AcDbLine
 10
1781.4980164
 20
896.6839162122875
 30
0.0
 11
1781.4980164
 21
813.4082970966
 31
0.0
  0
ARC
  5
526
330
1F
100
AcDbEntity
  8
トラップ
  6
CONTINUOUS
 62
     2
100
AcDbCircle
 10
1701.4980164
 20
813.4082970965585
 30
0.0
 40
80.0
100
AcDbArc
 50
327.3807569288073
 51
0.0
  0
ARC
  5
527
330
1F
100
AcDbEntity
  8
トラップ
  6
CONTINUOUS
 62
     2
100
AcDbCircle
 10
1798.979325948385
 20
743.1105120710729
 30
0.0
 40
40.0
100
AcDbArc
 50
147.3807569288073
 51
179.4181097459831
  0
LINE
  5
528
330
1F
100
AcDbEntity
  8
トラップ
  6
CONTINUOUS
 62
     2
100
AcDbLine
 10
1765.288469921924
 20
764.6726599280075
 30
0.0
 11
1768.87972845292
 21
770.284001382689
 31
0.0
  0
ARC
  5
529
330
1F
100
AcDbEntity
  8
トラップ
  6
CONTINUOUS
 62
     2
100
AcDbCircle
 10
1683.119319625798
 20
788.0526667084362
 30
0.0
 40
8.63435116215191
100
AcDbArc
 50
320.0000000000009
 51
4.618304578889845
  0
LINE
  5
52A
330
1F
100
AcDbEntity
  8
トラップ
  6
CONTINUOUS
 62
     2
100
AcDbLine
 10
1757.127703125078
 20
586.9999999999995
 30
0.0
 11
1758.717353512165
 21
743.5194227286283
 31
0.0
  0
LINE
  5
52B
330
1F
100
AcDbEntity
  8
トラップ
  6
CONTINUOUS
 62
     2
100
AcDbLine
 10
1712.868329674921
 20
586.9999999999995
 30
0.0
 11
1711.144220612458
 21
756.7584307655954
 31
0.0
  0
LINE
  5
52C
330
1F
100
AcDbEntity
  8
トラップ
  6
CONTINUOUS
 62
     2
100
AcDbLine
 10
1713.4980164
 20
525.0000763
 30
0.0
 11
1756.4980164
 21
525.0000763
 31
0.0
  0
LINE
  5
52D
330
1F
100
AcDbEntity
  8
トラップ
  6
CONTINUOUS
 62
     2
100
AcDbLine
 10
1713.42692265
 20
532.0000763
 30
0.0
 11
1756.56911015
 21
532.0000763
 31
0.0
  0
LINE
  5
52E
330
1F
100
AcDbEntity
  8
トラップ
  6
CONTINUOUS
 62
     2
100
AcDbLine
 10
1713.3558289
 20
539.0000763
 30
0.0
 11
1756.640203899999
 21
539.0000763
 31
0.0
  0
LINE
  5
52F
330
1F
100
AcDbEntity
  8
トラップ
  6
CONTINUOUS
 62
     2
100
AcDbLine
 10
1713.28473515
 20
546.0000763
 30
0.0
 11
1756.711297649999
 21
546.0000763
 31
0.0
  0
LINE
  5
530
330
1F
100
AcDbEntity
  8
トラップ
  6
CONTINUOUS
 62
     2
100
AcDbLine
 10
1710.498016399999
 20
586.9999999999995
 30
0.0
 11
1759.4980164
 21
586.9999999999995
 31
0.0
  0
LINE
  5
531
330
1F
100
AcDbEntity
  8
トラップ
  6
CONTINUOUS
 62
     2
100
AcDbLine
 10
1702.898016399999
 20
576.9174300760997
 30
0.0
 11
1765.798016399999
 21
576.9174300760997
 31
0.0
  0
ARC
  5
532
330
1F
100
AcDbEntity
  8
トラップ
  6
CONTINUOUS
 62
     2
100
AcDbCircle
 10
1669.74397877995
 20
597.6574311637487
 30
0.0
 40
35.17778624465333
100
AcDbArc
 50
317.8638663565217
 51
332.0678594570364
  0
ARC
  5
533
330
1F
100
AcDbEntity
  8
トラップ
  6
CONTINUOUS
 62
     2
100
AcDbCircle
 10
1705.390988378303
 20
565.4070280216957
 30
0.0
 40
12.89297197830424
100
AcDbArc
 50
137.8638663565211
 51
179.6274249878326
  0
ARC
  5
534
330
1F
100
AcDbEntity
  8
トラップ
  6
CONTINUOUS
 62
     2
100
AcDbCircle
 10
1710.498016399999
 20
576.0500000000003
 30
0.0
 40
10.94999999999942
100
AcDbArc
 50
90.00000000000001
 51
152.0678594570356
  0
ARC
  5
535
330
1F
100
AcDbEntity
  8
トラップ
  6
CONTINUOUS
 62
     2
100
AcDbCircle
 10
1800.252054020049
 20
597.6574311637487
 30
0.0
 40
35.17778624465333
100
AcDbArc
 50
207.9321405429646
 51
222.1361336434789
  0
ARC
  5
536
330
1F
100
AcDbEntity
  8
トラップ
  6
CONTINUOUS
 62
     2
100
AcDbCircle
 10
1759.4980164
 20
576.0500000000003
 30
0.0
 40
10.94999999999942
100
AcDbArc
 50
27.93214054277043
 51
90.00000000000001
  0
ARC
  5
537
330
1F
100
AcDbEntity
  8
トラップ
  6
CONTINUOUS
 62
     2
100
AcDbCircle
 10
1764.605044421695
 20
565.4070280216957
 30
0.0
 40
12.89297197830424
100
AcDbArc
 50
0.3725750121673391
 51
42.13613364347889
  0
LINE
  5
538
330
1F
100
AcDbEntity
  8
トラップ
  6
CONTINUOUS
 62
     2
100
AcDbLine
 10
1713.4980164
 20
525.0000763
 30
0.0
 11
1713.091767174921
 21
565.0
 31
0.0
  0
LINE
  5
539
330
1F
100
AcDbEntity
  8
トラップ
  6
CONTINUOUS
 62
     2
100
AcDbLine
 10
1756.4980164
 20
525.0000763
 30
0.0
 11
1756.904265625078
 21
565.0
 31
0.0
  0
ARC
  5
53A
330
1F
100
AcDbEntity
  8
トラップ
  6
CONTINUOUS
 62
     2
100
AcDbCircle
 10
1689.535145719925
 20
779.7680749231613
 30
0.0
 40
1.60568971615782
100
AcDbArc
 50
139.9999999999918
 51
217.9845308761618
  0
ARC
  5
53B
330
1F
100
AcDbEntity
  8
トラップ
  6
CONTINUOUS
 62
     2
100
AcDbCircle
 10
1706.626340678393
 20
756.7125460475152
 30
0.0
 40
4.518112936390914
100
AcDbArc
 50
0.5818902540134012
 51
126.8681014038147
  0
ARC
  5
53C
330
1F
100
AcDbEntity
  8
トラップ
  6
CONTINUOUS
 62
     2
100
AcDbCircle
 10
1703.318918038988
 20
761.1227309365847
 30
0.0
 40
0.99448856121678
100
AcDbArc
 50
217.9845308761492
 51
306.868101403815
  0
LINE
  5
53D
330
1F
100
AcDbEntity
  8
トラップ
  6
CONTINUOUS
 62
     2
100
AcDbLine
 10
1688.305116035489
 20
780.8001923777085
 30
0.0
 11
1689.73361635349
 21
782.5026127637082
 31
0.0
  0
LINE
  5
53E
330
1F
100
AcDbEntity
  8
トラップ
  6
CONTINUOUS
 62
     2
100
AcDbLine
 10
1688.269578103914
 20
778.7798552745603
 30
0.0
 11
1702.535085082407
 21
760.5106742443023
 31
0.0
  0
LINE
  5
53F
330
1F
100
AcDbEntity
  8
トラップ
  6
CONTINUOUS
 62
     2
100
AcDbLine
 10
1774.9980164
 20
975.0000763
 30
0.0
 11
1773.729856859366
 21
930.9027104552257
 31
0.0
  0
LINE
  5
540
330
1F
100
AcDbEntity
  8
トラップ
  6
CONTINUOUS
 62
     2
100
AcDbLine
 10
1694.9980164
 20
975.0000763
 30
0.0
 11
1774.9980164
 21
975.0000763
 31
0.0
  0
LINE
  5
541
330
1F
100
AcDbEntity
  8
トラップ
  6
CONTINUOUS
 62
     2
100
AcDbLine
 10
1694.9980164
 20
975.0000763
 30
0.0
 11
1696.266175940634
 21
930.9027104552257
 31
0.0
  0
LINE
  5
542
330
1F
100
AcDbEntity
  8
トラップ
  6
CONTINUOUS
 62
     6
100
AcDbLine
 10
1681.088893593882
 20
769.922153364395
 30
0.0
 11
1691.859245845921
 21
756.1290568169816
 31
0.0
  0
LINE
  5
543
330
1F
100
AcDbEntity
  8
トラップ
  6
CONTINUOUS
 62
     6
100
AcDbLine
 10
1690.615726086215
 20
775.7752510724771
 30
0.0
 11
1681.088893593882
 21
769.922153364395
 31
0.0
  0
LINE
  5
544
330
1F
100
AcDbEntity
  8
トラップ
  6
CONTINUOUS
 62
     6
100
AcDbLine
 10
1699.847456588003
 20
763.9525968889282
 30
0.0
 11
1691.859245845921
 21
756.1290568169816
 31
0.0
  0
ARC
  5
545
330
1F
100
AcDbEntity
  8
トラップ
  6
EXLTYPE1
 62
     6
100
AcDbCircle
 10
1676.35730127666
 20
930.2301676544316
 30
0.0
 40
27.91710560409219
100
AcDbArc
 50
336.3847087061629
 51
1.647267749317044
  0
ARC
  5
546
330
1F
100
AcDbEntity
  8
トラップ
  6
EXLTYPE1
 62
     6
100
AcDbCircle
 10
1762.673762713238
 20
892.491996256142
 30
0.0
 40
66.28852636883647
100
AcDbArc
 50
156.3847087061625
 51
176.842467211049
  0
LINE
  5
547
330
1F
100
AcDbEntity
  8
トラップ
  6
EXLTYPE1
 62
     6
100
AcDbLine
 10
1696.4980164
 20
896.5839162122875
 30
0.0
 11
1696.4980164
 21
868.6897627285238
 31
0.0
  0
ARC
  5
548
330
1F
100
AcDbEntity
  8
トラップ
  6
EXLTYPE1
 62
     6
100
AcDbCircle
 10
2682.592637854877
 20
868.6897627285238
 30
0.0
 40
986.0946214548791
100
AcDbArc
 50
180.0
 51
184.6183045788893
  0
ARC
  5
549
330
1F
100
AcDbEntity
  8
トラップ
  6
EXLTYPE1
 62
     6
100
AcDbCircle
 10
1683.119319625798
 20
787.9526667084361
 30
0.0
 40
16.63435116215191
100
AcDbArc
 50
341.4688915661287
 51
4.618304578889788
  0
LINE
  5
54A
330
1F
100
AcDbEntity
  8
トラップ
  6
EXLTYPE1
 62
     6
100
AcDbLine
 10
1690.6157260862
 20
775.67525107249
 30
0.0
 11
1698.89120025004
 21
782.6659455922392
 31
0.0
  0
LINE
  5
54B
330
1F
100
AcDbEntity
  8
トラップ
  6
EXLTYPE1
 62
     6
100
AcDbLine
 10
1699.8474565881
 20
763.85259688901
 30
0.0
 11
1706.081500847913
 21
769.1187965266544
 31
0.0
  0
ARC
  5
54C
330
1F
100
AcDbEntity
  8
トラップ
  6
EXLTYPE1
 62
     6
100
AcDbCircle
 10
1706.626340678393
 20
756.6125460475151
 30
0.0
 40
12.51811293639092
100
AcDbArc
 50
27.1865934873024
 51
92.49453630564211
  0
LINE
  5
54D
330
1F
100
AcDbEntity
  8
トラップ
  6
EXLTYPE1
 62
     6
100
AcDbLine
 10
1740.408313867828
 20
781.7488599577491
 30
0.0
 11
1717.761493860862
 21
762.3319441881594
 31
0.0
  0
LINE
  5
54E
330
1F
100
AcDbEntity
  8
トラップ
  6
EXLTYPE1
 62
     6
100
AcDbLine
 10
1739.378251257268
 20
777.3033659107019
 30
0.0
 11
1719.111436614557
 21
759.9270175883165
 31
0.0
  0
LINE
  5
54F
330
1F
100
AcDbEntity
  8
トラップ
  6
EXLTYPE1
 62
     6
100
AcDbLine
 10
1720.868742261938
 20
586.8999999999995
 30
0.0
 11
1719.111436614557
 21
759.9270175883165
 31
0.0
  0
LINE
  5
550
330
1F
100
AcDbEntity
  8
トラップ
  6
EXLTYPE1
 62
     6
100
AcDbLine
 10
1747.390416573
 20
846.4000000000002
 30
0.0
 11
1747.390416573
 21
796.932217624
 31
0.0
  0
LINE
  5
551
330
1F
100
AcDbEntity
  8
トラップ
  6
EXLTYPE1
 62
     6
100
AcDbLine
 10
1750.390416573
 20
846.4000000000002
 30
0.0
 11
1750.390416573
 21
796.932217624
 31
0.0
  0
ARC
  5
552
330
1F
100
AcDbEntity
  8
トラップ
  6
EXLTYPE1
 62
     6
100
AcDbCircle
 10
1748.890416573
 20
846.4000000000002
 30
0.0
 40
1.5
100
AcDbArc
 50
0.0
 51
180.0
  0
ARC
  5
553
330
1F
100
AcDbEntity
  8
トラップ
  6
EXLTYPE1
 62
     6
100
AcDbCircle
 10
1720.4896057
 20
805.2636899448999
 30
0.0
 40
1.5
100
AcDbArc
 50
180.0
 51
0.0
  0
LINE
  5
554
330
1F
100
AcDbEntity
  8
トラップ
  6
EXLTYPE1
 62
     6
100
AcDbLine
 10
1718.9896057
 20
853.8762571878704
 30
0.0
 11
1718.9896057
 21
805.2636899448999
 31
0.0
  0
LINE
  5
555
330
1F
100
AcDbEntity
  8
トラップ
  6
EXLTYPE1
 62
     6
100
AcDbLine
 10
1721.989605700001
 20
853.87625718787
 30
0.0
 11
1721.989605700001
 21
805.2636899448999
 31
0.0
  0
LINE
  5
556
330
1F
100
AcDbEntity
  8
トラップ
  6
EXLTYPE1
 62
     6
100
AcDbLine
 10
1721.989605699999
 20
853.87625718787
 30
0.0
 11
1766.148830498286
 21
925.3649721863309
 31
0.0
  0
LINE
  5
557
330
1F
100
AcDbEntity
  8
トラップ
  6
EXLTYPE1
 62
     6
100
AcDbLine
 10
1718.9896057
 20
853.87625718787
 30
0.0
 11
1765.730067191679
 21
929.5436980394327
 31
0.0
  0
ARC
  5
558
330
1F
100
AcDbEntity
  8
トラップ
  6
EXLTYPE1
 62
     6
100
AcDbCircle
 10
1793.638731523339
 20
930.2301676544316
 30
0.0
 40
27.9171056040922
100
AcDbArc
 50
190.0363492409989
 51
203.6152912938376
  0
ARC
  5
559
330
1F
100
AcDbEntity
  8
トラップ
  6
EXLTYPE1
 62
     6
100
AcDbCircle
 10
1793.638731523339
 20
930.2301676544316
 30
0.0
 40
27.9171056040922
100
AcDbArc
 50
178.352732250683
 51
181.4090205834406
  0
ARC
  5
55A
330
1F
100
AcDbEntity
  8
トラップ
  6
EXLTYPE1
 62
     6
100
AcDbCircle
 10
1707.322270086762
 20
892.491996256142
 30
0.0
 40
66.28852636883647
100
AcDbArc
 50
3.342690701911616
 51
23.61529129383761
  0
LINE
  5
55B
330
1F
100
AcDbEntity
  8
トラップ
  6
EXLTYPE1
 62
     6
100
AcDbLine
 10
1773.4980164
 20
896.3571389492322
 30
0.0
 11
1773.4980164
 21
813.3082970966
 31
0.0
  0
ARC
  5
55C
330
1F
100
AcDbEntity
  8
トラップ
  6
EXLTYPE1
 62
     6
100
AcDbCircle
 10
1701.4980164
 20
813.3082970965585
 30
0.0
 40
72.0
100
AcDbArc
 50
327.3807569288073
 51
0.0
  0
ARC
  5
55D
330
1F
100
AcDbEntity
  8
トラップ
  6
EXLTYPE1
 62
     6
100
AcDbCircle
 10
1727.390416573
 20
796.932217624
 30
0.0
 40
23.00000000000002
100
AcDbArc
 50
301.4134646273592
 51
0.0
  0
ARC
  5
55E
330
1F
100
AcDbEntity
  8
トラップ
  6
EXLTYPE1
 62
     6
100
AcDbCircle
 10
1727.390416573
 20
796.932217624
 30
0.0
 40
20.0
100
AcDbArc
 50
310.6091048639774
 51
0.0
  0
ARC
  5
55F
330
1F
100
AcDbEntity
  8
トラップ
  6
EXLTYPE1
 62
     6
100
AcDbCircle
 10
1798.979325948385
 20
743.0105120710729
 30
0.0
 40
48.00000000000001
100
AcDbArc
 50
147.3807569288073
 51
179.4181097459832
  0
LINE
  5
560
330
1F
100
AcDbEntity
  8
トラップ
  6
EXLTYPE1
 62
     6
100
AcDbLine
 10
1762.141557247628
 20
774.4964309540759
 30
0.0
 11
1758.550298716632
 21
768.8850894993944
 31
0.0
  0
LINE
  5
561
330
1F
100
AcDbEntity
  8
トラップ
  6
EXLTYPE1
 62
     6
100
AcDbLine
 10
1750.717766077905
 20
743.5006685385075
 30
0.0
 11
1749.127290538061
 21
586.8999999999995
 31
0.0
  0
LINE
  5
562
330
1F
100
AcDbEntity
  8
トラップ
  6
EXLTYPE1
 62
     6
100
AcDbLine
 10
1721.498428987017
 20
524.9000763
 30
0.0
 11
1721.092179761938
 21
564.9
 31
0.0
  0
LINE
  5
563
330
1F
100
AcDbEntity
  8
トラップ
  6
EXLTYPE1
 62
     6
100
AcDbLine
 10
1748.903853038061
 20
564.9
 30
0.0
 11
1748.497603812983
 21
524.9000763
 31
0.0
  0
LINE
  5
564
330
1F
100
AcDbEntity
  8
トラップ
  6
EXLTYPE3
 62
     6
100
AcDbLine
 10
1735.0
 20
613.9000763
 30
0.0
 11
1735.0
 21
514.8000763
 31
0.0
  0
LINE
  5
565
330
1F
100
AcDbEntity
  8
トラップ
  6
EXLTYPE1
 62
     6
100
AcDbLine
 10
1766.994708954348
 20
974.9000763
 30
0.0
 11
1765.733162938183
 21
931.0326807379265
 31
0.0
  0
LINE
  5
566
330
1F
100
AcDbEntity
  8
トラップ
  6
EXLTYPE1
 62
     6
100
AcDbLine
 10
1703.001323845652
 20
974.9000762999987
 30
0.0
 11
1704.262869861816
 21
931.0326807379263
 31
0.0
  0
LINE
  5
567
330
1F
100
AcDbEntity
  8
トラップ
  6
CONTINUOUS
 62
     2
100
AcDbLine
 10
737.9999999500002
 20
975.0000000000001
 30
0.0
 11
736.6755084956287
 21
947.5752357683122
 31
0.0
  0
LINE
  5
568
330
1F
100
AcDbEntity
  8
トラップ
  6
CONTINUOUS
 62
     2
100
AcDbLine
 10
657.99999995
 20
975.0000000000001
 30
0.0
 11
659.3244914043714
 21
947.5752357683122
 31
0.0
  0
CIRCLE
  5
569
330
1F
100
AcDbEntity
  8
部品
  6
CONTINUOUS
 62
     6
100
AcDbCircle
 10
520.4999999999999
 20
1227.0
 30
0.0
 40
8.000001900000004
  0
CIRCLE
  5
56A
330
1F
100
AcDbEntity
  8
部品
  6
CONTINUOUS
 62
     6
100
AcDbCircle
 10
520.5
 20
1190.0001221
 30
0.0
 40
8.000001900000004
  0
CIRCLE
  5
56B
330
1F
100
AcDbEntity
  8
部品
  6
CONTINUOUS
 62
     6
100
AcDbCircle
 10
875.5
 20
1227.0
 30
0.0
 40
8.000001900000004
  0
CIRCLE
  5
56C
330
1F
100
AcDbEntity
  8
部品
  6
CONTINUOUS
 62
     6
100
AcDbCircle
 10
875.5000000000001
 20
1190.0001221
 30
0.0
 40
8.000001900000004
  0
ARC
  5
56D
330
1F
100
AcDbEntity
  8
部品
  6
CONTINUOUS
 62
     6
100
AcDbCircle
 10
875.49992375
 20
2386.0944825
 30
0.0
 40
8.000001900000004
100
AcDbArc
 50
187.863312662797
 51
351.1708332787816
  0
ARC
  5
56E
330
1F
100
AcDbEntity
  8
部品
  6
CONTINUOUS
 62
     6
100
AcDbCircle
 10
868.4999542499999
 20
2428.953064
 30
0.0
 40
10.0
100
AcDbArc
 50
0.0
 51
45.57337951999885
  0
ARC
  5
56F
330
1F
100
AcDbEntity
  8
部品
  6
CONTINUOUS
 62
     6
100
AcDbCircle
 10
882.49989315
 20
2428.953064
 30
0.0
 40
10.0
100
AcDbArc
 50
134.4266204800012
 51
180.0
  0
LINE
  5
570
330
1F
100
AcDbEntity
  8
部品
  6
CONTINUOUS
 62
     6
100
AcDbLine
 10
872.49989315
 20
2406.0944825
 30
0.0
 11
878.4999542499999
 21
2406.0944825
 31
0.0
  0
LINE
  5
571
330
1F
100
AcDbEntity
  8
部品
  6
CONTINUOUS
 62
     6
100
AcDbLine
 10
872.49989315
 20
2396.0
 30
0.0
 11
872.49989315
 21
2428.953064
 31
0.0
  0
LINE
  5
572
330
1F
100
AcDbEntity
  8
部品
  6
CONTINUOUS
 62
     6
100
AcDbLine
 10
878.4999542499999
 20
2396.0
 30
0.0
 11
878.4999542499999
 21
2428.953064
 31
0.0
  0
ARC
  5
573
330
1F
100
AcDbEntity
  8
部品
  6
CONTINUOUS
 62
     6
100
AcDbCircle
 10
520.49992375
 20
2386.0944825
 30
0.0
 40
8.000001900000004
100
AcDbArc
 50
187.863312662797
 51
351.1708332787816
  0
ARC
  5
574
330
1F
100
AcDbEntity
  8
部品
  6
CONTINUOUS
 62
     6
100
AcDbCircle
 10
513.4999542499999
 20
2428.953064
 30
0.0
 40
10.0
100
AcDbArc
 50
0.0
 51
45.57337951999885
  0
ARC
  5
575
330
1F
100
AcDbEntity
  8
部品
  6
CONTINUOUS
 62
     6
100
AcDbCircle
 10
527.49989315
 20
2428.953064
 30
0.0
 40
10.0
100
AcDbArc
 50
134.4266204800012
 51
180.0
  0
LINE
  5
576
330
1F
100
AcDbEntity
  8
部品
  6
CONTINUOUS
 62
     6
100
AcDbLine
 10
517.49989315
 20
2406.0944825
 30
0.0
 11
523.4999542499999
 21
2406.0944825
 31
0.0
  0
LINE
  5
577
330
1F
100
AcDbEntity
  8
部品
  6
CONTINUOUS
 62
     6
100
AcDbLine
 10
517.49989315
 20
2396.0
 30
0.0
 11
517.49989315
 21
2428.953064
 31
0.0
  0
LINE
  5
578
330
1F
100
AcDbEntity
  8
部品
  6
CONTINUOUS
 62
     6
100
AcDbLine
 10
523.4999542499999
 20
2396.0
 30
0.0
 11
523.4999542499999
 21
2428.953064
 31
0.0
  0
DIMENSION
  5
57A
330
1F
100
AcDbEntity
  8
寸法
  6
CONTINUOUS
 62
     3
100
AcDbDimension
  2
*D15
 10
860.30234136917
 20
2010.0
 30
0.0
 11
697.9736588741902
 21
2033.499999940395
 31
0.0
 70
   160
  3
ISO-25
100
AcDbAlignedDimension
 13
535.64497637921
 23
2377.1486930679
 33
0.0
 14
860.30234136917
 24
2375.0296897078
 34
0.0
100
AcDbRotatedDimension
1001
ACAD
1000
DSTYLE
1002
{
1070
   270
1070
     2
1070
     6
1000
EX_NORM
1070
     7
1000
EX_NORM
1070
    41
1040
30.0
1070
    42
1040
6.99999988079071
1070
    44
1040
10.0
1070
    73
1070
     0
1070
    74
1070
     0
1070
    75
1070
     0
1070
    76
1070
     0
1070
    77
1070
     1
1070
    78
1070
     0
1070
   140
1040
40.0
1070
   147
1040
0.0
1070
   173
1070
     1
1070
   176
1070
     3
1070
   177
1070
     3
1070
   178
1070
     2
1070
   271
1070
     0
1070
   277
1070
     2
1070
   279
1070
     2
1070
   280
1070
     0
1070
   287
1070
     5
1070
   340
1005
579
1002
}
  0
DIMENSION
  5
588
330
1F
100
AcDbEntity
  8
寸法
  6
CONTINUOUS
 62
     3
100
AcDbDimension
  2
*D16
 10
1036.0
 20
2121.0000000005
 30
0.0
 11
1012.500000059605
 21
2258.50000000025
 31
0.0
 70
   160
  3
ISO-25
100
AcDbAlignedDimension
 13
892.9999237
 23
2396.0
 33
0.0
 14
697.9999237
 24
2121.0000000005
 34
0.0
 50
90.0
100
AcDbRotatedDimension
1001
ACAD
1000
DSTYLE
1002
{
1070
   270
1070
     2
1070
     6
1000
EX_NORM
1070
     7
1000
EX_NORM
1070
    41
1040
30.0
1070
    42
1040
6.99999988079071
1070
    44
1040
10.0
1070
    73
1070
     0
1070
    74
1070
     0
1070
    75
1070
     1
1070
    76
1070
     0
1070
    77
1070
     1
1070
    78
1070
     0
1070
   140
1040
40.0
1070
   147
1040
0.0
1070
   173
1070
     1
1070
   176
1070
     3
1070
   177
1070
     3
1070
   178
1070
     2
1070
   271
1070
     0
1070
   277
1070
     2
1070
   279
1070
     2
1070
   280
1070
     0
1070
   287
1070
     5
1070
   340
1005
579
1002
}
  0
DIMENSION
  5
594
330
1F
100
AcDbEntity
  8
寸法
  6
CONTINUOUS
 62
     3
100
AcDbDimension
  2
*D17
 10
875.4999237
 20
2488.0
 30
0.0
 11
697.9999237000001
 21
2511.499999940395
 31
0.0
 70
   160
  3
ISO-25
100
AcDbAlignedDimension
 13
520.4999237
 23
2404.7
 33
0.0
 14
875.4999237
 24
2404.7
 34
0.0
100
AcDbRotatedDimension
1001
ACAD
1000
DSTYLE
1002
{
1070
   270
1070
     2
1070
     6
1000
EX_NORM
1070
     7
1000
EX_NORM
1070
    41
1040
30.0
1070
    42
1040
37.70000000000027
1070
    44
1040
10.0
1070
    73
1070
     0
1070
    74
1070
     0
1070
    75
1070
     0
1070
    76
1070
     0
1070
    77
1070
     1
1070
    78
1070
     0
1070
   140
1040
40.0
1070
   147
1040
0.0
1070
   173
1070
     1
1070
   176
1070
     3
1070
   177
1070
     3
1070
   178
1070
     2
1070
   271
1070
     0
1070
   277
1070
     2
1070
   279
1070
     2
1070
   280
1070
     0
1070
   287
1070
     5
1070
   340
1005
579
1002
}
  0
DIMENSION
  5
5A1
330
1F
100
AcDbEntity
  8
寸法
  6
CONTINUOUS
 62
     3
100
AcDbDimension
  2
*D18
 10
892.9999237
 20
2549.0
 30
0.0
 11
697.9999237000001
 21
2572.499999940395
 31
0.0
 70
   160
  3
ISO-25
100
AcDbAlignedDimension
 13
502.9999237
 23
2396.0
 33
0.0
 14
892.9999237
 24
2396.0
 34
0.0
100
AcDbRotatedDimension
1001
ACAD
1000
DSTYLE
1002
{
1070
   270
1070
     2
1070
     6
1000
EX_NORM
1070
     7
1000
EX_NORM
1070
    41
1040
30.0
1070
    42
1040
6.99999988079071
1070
    44
1040
10.0
1070
    73
1070
     0
1070
    74
1070
     0
1070
    75
1070
     0
1070
    76
1070
     0
1070
    77
1070
     1
1070
    78
1070
     0
1070
   140
1040
40.0
1070
   147
1040
0.0
1070
   173
1070
     1
1070
   176
1070
     3
1070
   177
1070
     3
1070
   178
1070
     2
1070
   271
1070
     0
1070
   277
1070
     2
1070
   279
1070
     2
1070
   280
1070
     0
1070
   287
1070
     5
1070
   340
1005
579
1002
}
  0
DIMENSION
  5
5AE
330
1F
100
AcDbEntity
  8
寸法
  6
CONTINUOUS
 62
     3
100
AcDbDimension
  2
*D19
 10
1790.0
 20
476.0
 30
0.0
 11
1855.0
 21
499.4999999403954
 31
0.0
 70
   160
  3
ISO-25
100
AcDbAlignedDimension
 13
1735.0
 23
494.0000000000001
 33
0.0
 14
1790.0
 24
565.0
 34
0.0
100
AcDbRotatedDimension
1001
ACAD
1000
DSTYLE
1002
{
1070
   270
1070
     2
1070
     6
1000
EX_NORM
1070
     7
1000
EX_NORM
1070
    41
1040
30.0
1070
    42
1040
6.99999988079071
1070
    44
1040
10.0
1070
    73
1070
     0
1070
    74
1070
     0
1070
    75
1070
     0
1070
    76
1070
     0
1070
    77
1070
     1
1070
    78
1070
     0
1070
   140
1040
40.0
1070
   147
1040
0.0
1070
   173
1070
     1
1070
   176
1070
     3
1070
   177
1070
     3
1070
   178
1070
     2
1070
   271
1070
     0
1070
   277
1070
     2
1070
   279
1070
     2
1070
   280
1070
     2
1070
   287
1070
     5
1070
   340
1005
579
1002
}
  0
DIMENSION
  5
5BD
330
1F
100
AcDbEntity
  8
寸法
  6
CONTINUOUS
 62
     3
100
AcDbDimension
  2
*D20
 10
1373.0
 20
1090.0
 30
0.0
 11
1349.500000059605
 21
827.7454330263449
 31
0.0
 70
   160
  3
ISO-25
100
AcDbAlignedDimension
 13
1692.4982889861
 23
565.49086605269
 33
0.0
 14
1515.0
 24
1090.0
 34
0.0
 50
90.0
100
AcDbRotatedDimension
1001
ACAD
1000
DSTYLE
1002
{
1070
   270
1070
     2
1070
     6
1000
EX_NORM
1070
     7
1000
EX_NORM
1070
    41
1040
30.0
1070
    42
1040
0.0
1070
    44
1040
0.0
1070
    73
1070
     0
1070
    74
1070
     0
1070
    75
1070
     1
1070
    76
1070
     1
1070
    77
1070
     1
1070
    78
1070
     0
1070
   140
1040
40.0
1070
   147
1040
0.0
1070
   173
1070
     1
1070
   176
1070
     3
1070
   177
1070
     3
1070
   178
1070
     2
1070
   271
1070
     0
1070
   277
1070
     2
1070
   279
1070
     2
1070
   280
1070
     0
1070
   287
1070
     5
1070
   340
1005
579
1002
}
  0
DIMENSION
  5
5C8
330
1F
100
AcDbEntity
  8
寸法
  6
CONTINUOUS
 62
     3
100
AcDbDimension
  2
*D21
 10
1373.0
 20
1090.0
 30
0.0
 11
1349.500000059604
 21
1232.5
 31
0.0
 70
   160
  3
ISO-25
100
AcDbAlignedDimension
 13
1790.0
 23
1375.0
 33
0.0
 14
1456.0
 24
1090.0
 34
0.0
 50
90.0
100
AcDbRotatedDimension
1001
ACAD
1000
DSTYLE
1002
{
1070
   270
1070
     2
1070
     6
1000
EX_NORM
1070
     7
1000
EX_NORM
1070
    41
1040
30.0
1070
    42
1040
6.99999988079071
1070
    44
1040
10.00000000000091
1070
    73
1070
     0
1070
    74
1070
     0
1070
    75
1070
     0
1070
    76
1070
     0
1070
    77
1070
     1
1070
    78
1070
     0
1070
   140
1040
40.0
1070
   147
1040
0.0
1070
   173
1070
     1
1070
   176
1070
     3
1070
   177
1070
     3
1070
   178
1070
     2
1070
   271
1070
     0
1070
   277
1070
     2
1070
   279
1070
     2
1070
   280
1070
     0
1070
   287
1070
     5
1070
   340
1005
579
1002
}
  0
DIMENSION
  5
5D5
330
1F
100
AcDbEntity
  8
寸法
  6
CONTINUOUS
 62
     3
100
AcDbDimension
  2
*D22
 10
1036.0
 20
1375.0
 30
0.0
 11
1012.500000059605
 21
1155.0
 31
0.0
 70
   160
  3
ISO-25
100
AcDbAlignedDimension
 13
720.41646452127
 23
935.0
 33
0.0
 14
718.0002737286
 24
1375.0
 34
0.0
 50
90.0
100
AcDbRotatedDimension
1001
ACAD
1000
DSTYLE
1002
{
1070
   270
1070
     2
1070
     6
1000
EX_NORM
1070
     7
1000
EX_NORM
1070
    41
1040
30.0
1070
    42
1040
6.99999988079071
1070
    44
1040
9.999999999999773
1070
    73
1070
     0
1070
    74
1070
     0
1070
    75
1070
     0
1070
    76
1070
     1
1070
    77
1070
     1
1070
    78
1070
     0
1070
   140
1040
40.0
1070
   147
1040
0.0
1070
   173
1070
     1
1070
   176
1070
     3
1070
   177
1070
     3
1070
   178
1070
     2
1070
   271
1070
     0
1070
   277
1070
     2
1070
   279
1070
     2
1070
   280
1070
     0
1070
   287
1070
     5
1070
   340
1005
579
1002
}
  0
DIMENSION
  5
5E1
330
1F
100
AcDbEntity
  8
寸法
  6
CONTINUOUS
 62
     3
100
AcDbDimension
  2
*D23
 10
1036.0
 20
1550.0
 30
0.0
 11
1012.500000059605
 21
1462.5
 31
0.0
 70
   160
  3
ISO-25
100
AcDbAlignedDimension
 13
718.0002737286
 23
1375.0
 33
0.0
 14
731.5
 24
1550.0
 34
0.0
 50
90.0
100
AcDbRotatedDimension
1001
ACAD
1000
DSTYLE
1002
{
1070
   270
1070
     2
1070
     6
1000
EX_NORM
1070
     7
1000
EX_NORM
1070
    41
1040
30.0
1070
    42
1040
6.99999988079071
1070
    44
1040
10.0
1070
    73
1070
     0
1070
    74
1070
     0
1070
    75
1070
     0
1070
    76
1070
     0
1070
    77
1070
     1
1070
    78
1070
     0
1070
   140
1040
40.0
1070
   147
1040
0.0
1070
   173
1070
     1
1070
   176
1070
     3
1070
   177
1070
     3
1070
   178
1070
     2
1070
   271
1070
     0
1070
   277
1070
     2
1070
   279
1070
     2
1070
   280
1070
     0
1070
   287
1070
     5
1070
   340
1005
579
1002
}
  0
DIMENSION
  5
5EE
330
1F
100
AcDbEntity
  8
寸法
  6
CONTINUOUS
 62
     3
100
AcDbDimension
  2
*D24
 10
895.0
 20
935.0
 30
0.0
 11
871.5000000596048
 21
869.9999999999998
 31
0.0
 70
   160
  3
ISO-25
100
AcDbAlignedDimension
 13
737.9999999499998
 23
975.0
 33
0.0
 14
720.41646452127
 24
935.0
 34
0.0
 50
90.0
100
AcDbRotatedDimension
1001
ACAD
1000
DSTYLE
1002
{
1070
   270
1070
     2
1070
     6
1000
EX_NORM
1070
     7
1000
EX_NORM
1070
    41
1040
30.0
1070
    42
1040
6.99999988079071
1070
    44
1040
10.0
1070
    73
1070
     0
1070
    74
1070
     0
1070
    75
1070
     0
1070
    76
1070
     0
1070
    77
1070
     1
1070
    78
1070
     0
1070
   140
1040
40.0
1070
   147
1040
0.0
1070
   173
1070
     1
1070
   176
1070
     3
1070
   177
1070
     3
1070
   178
1070
     2
1070
   271
1070
     0
1070
   277
1070
     2
1070
   279
1070
     2
1070
   280
1070
     2
1070
   287
1070
     5
1070
   340
1005
579
1002
}
  0
DIMENSION
  5
5FD
330
1F
100
AcDbEntity
  8
寸法
  6
CONTINUOUS
 62
     3
100
AcDbDimension
  2
*D25
 10
719.49999995
 20
476.0
 30
0.0
 11
784.4999999500001
 21
499.4999999403954
 31
0.0
 70
   160
  3
ISO-25
100
AcDbAlignedDimension
 13
676.49999995
 23
524.4741822
 33
0.0
 14
719.49999995
 24
524.4741822
 34
0.0
100
AcDbRotatedDimension
1001
ACAD
1000
DSTYLE
1002
{
1070
   270
1070
     2
1070
     6
1000
EX_NORM
1070
     7
1000
EX_NORM
1070
    41
1040
30.0
1070
    42
1040
6.99999988079071
1070
    44
1040
10.0
1070
    73
1070
     0
1070
    74
1070
     0
1070
    75
1070
     0
1070
    76
1070
     0
1070
    77
1070
     1
1070
    78
1070
     0
1070
   140
1040
40.0
1070
   147
1040
0.0
1070
   173
1070
     1
1070
   176
1070
     3
1070
   177
1070
     3
1070
   178
1070
     2
1070
   271
1070
     0
1070
   277
1070
     2
1070
   279
1070
     2
1070
   280
1070
     2
1070
   287
1070
     5
1070
   340
1005
579
1002
}
  0
LEADER
  5
60C
330
1F
100
AcDbEntity
  8
寸法
  6
CONTINUOUS
 62
     3
100
AcDbLeader
  3
ISO-25
 76
     3
 10
1698.946181083
 20
1580.5827372364
 30
0.0
 10
1646.7587744596
 20
1670.9739770234
 30
0.0
 10
1466.0
 20
1670.9739770234
 30
0.0
1001
ACAD
1000
DSTYLE
1002
{
1070
     5
1000
EX_NORM
1070
    41
1040
30.0
1070
   341
1005
4F
1002
}
  0
DIMENSION
  5
60D
330
1F
100
AcDbEntity
  8
寸法
  6
CONTINUOUS
 62
     3
100
AcDbDimension
  2
*D26
 10
1715.0
 20
1727.0
 30
0.0
 11
1855.000150000001
 21
1750.499999940395
 31
0.0
 70
   160
  3
ISO-25
100
AcDbAlignedDimension
 13
1790.00015
 23
1573.7499957069
 33
0.0
 14
1715.0
 24
1596.5
 34
0.0
100
AcDbRotatedDimension
1001
ACAD
1000
DSTYLE
1002
{
1070
   270
1070
     2
1070
     6
1000
EX_NORM
1070
     7
1000
EX_NORM
1070
    41
1040
30.0
1070
    42
1040
6.99999988079071
1070
    44
1040
10.0
1070
    73
1070
     0
1070
    74
1070
     0
1070
    75
1070
     1
1070
    76
1070
     0
1070
    77
1070
     1
1070
    78
1070
     0
1070
   140
1040
40.0
1070
   147
1040
0.0
1070
   173
1070
     1
1070
   176
1070
     3
1070
   177
1070
     3
1070
   178
1070
     2
1070
   271
1070
     0
1070
   277
1070
     2
1070
   279
1070
     2
1070
   280
1070
     1
1070
   287
1070
     5
1070
   340
1005
579
1002
}
  0
TEXT
  5
619
330
1F
100
AcDbEntity
  8
寸法
  6
CONTINUOUS
 62
     2
100
AcDbText
 10
1914.7074585
 20
1644.6334717
 30
0.0
 40
25.0
  1
２
 41
1.321599999999995
  7
EXCADSTD
 72
     5
 11
1938.3074585
 21
1644.6334717
 31
0.0
100
AcDbText
  0
TEXT
  5
61A
330
1F
100
AcDbEntity
  8
寸法
  6
CONTINUOUS
 62
     2
100
AcDbText
 10
1880.5732117
 20
1659.2874085
 30
0.0
 40
25.0
  1
１
 41
1.321599999999995
  7
EXCADSTD
 72
     5
 11
1904.1732117
 21
1659.2874085
 31
0.0
100
AcDbText
  0
LEADER
  5
61B
330
1F
100
AcDbEntity
  8
寸法
  6
CONTINUOUS
 62
     3
100
AcDbLeader
  3
ISO-25
 76
     3
 10
1772.1294790464
 20
1232.4357645776
 30
0.0
 10
1669.0
 20
1300.0
 30
0.0
 10
1419.0
 20
1300.0
 30
0.0
1001
ACAD
1000
DSTYLE
1002
{
1070
     5
1000
EX_NORM
1070
    41
1040
30.0
1070
   341
1005
4F
1002
}
  0
TEXT
  5
61C
330
1F
100
AcDbEntity
  8
寸法
  6
CONTINUOUS
 62
     2
100
AcDbText
 10
1417.0
 20
1303.5
 30
0.0
 40
40.0
  1
ＮＴ７Ａカラー
 41
0.9902439024390244
  7
EXCADSTD
 72
     5
 11
1649.0
 21
1303.5
 31
0.0
100
AcDbText
  0
DIMENSION
  5
61D
330
1F
100
AcDbEntity
  8
寸法
  6
CONTINUOUS
 62
     3
100
AcDbDimension
  2
*D27
 10
552.0
 20
525.0000763
 30
0.0
 11
528.5000000596048
 21
750.0000381499999
 31
0.0
 70
   160
  3
ISO-25
100
AcDbAlignedDimension
 13
660.2361351404
 23
975.0
 33
0.0
 14
676.49999995
 24
525.0000763
 34
0.0
 50
90.0
100
AcDbRotatedDimension
1001
ACAD
1000
DSTYLE
1002
{
1070
   270
1070
     2
1070
     6
1000
EX_NORM
1070
     7
1000
EX_NORM
1070
    41
1040
30.0
1070
    42
1040
6.99999988079071
1070
    44
1040
10.0
1070
    73
1070
     0
1070
    74
1070
     0
1070
    75
1070
     0
1070
    76
1070
     0
1070
    77
1070
     1
1070
    78
1070
     0
1070
   140
1040
40.0
1070
   147
1040
0.0
1070
   173
1070
     1
1070
   176
1070
     3
1070
   177
1070
     3
1070
   178
1070
     2
1070
   271
1070
     0
1070
   277
1070
     2
1070
   279
1070
     2
1070
   280
1070
     0
1070
   287
1070
     5
1070
   340
1005
579
1002
}
  0
DIMENSION
  5
62A
330
1F
100
AcDbEntity
  8
寸法
  6
CONTINUOUS
 62
     3
100
AcDbDimension
  2
*D28
 10
1735.0
 20
1418.1
 30
0.0
 11
1855.0
 21
1441.599999940395
 31
0.0
 70
   160
  3
ISO-25
100
AcDbAlignedDimension
 13
1790.0
 23
1375.0
 33
0.0
 14
1735.0
 24
1413.9
 34
0.0
100
AcDbRotatedDimension
1001
ACAD
1000
DSTYLE
1002
{
1070
   270
1070
     2
1070
     6
1000
EX_NORM
1070
     7
1000
EX_NORM
1070
    41
1040
30.0
1070
    42
1040
0.0
1070
    44
1040
0.0
1070
    73
1070
     0
1070
    74
1070
     0
1070
    75
1070
     1
1070
    76
1070
     0
1070
    77
1070
     1
1070
    78
1070
     0
1070
   140
1040
40.0
1070
   147
1040
0.0
1070
   173
1070
     1
1070
   176
1070
     3
1070
   177
1070
     3
1070
   178
1070
     2
1070
   271
1070
     0
1070
   277
1070
     2
1070
   279
1070
     2
1070
   280
1070
     1
1070
   287
1070
     5
1070
   340
1005
579
1002
}
  0
DIMENSION
  5
638
330
1F
100
AcDbEntity
  8
寸法
  6
CONTINUOUS
 62
     3
100
AcDbDimension
  2
*D29
 10
435.0000000000002
 20
1190.0
 30
0.0
 11
411.5000000596049
 21
877.5
 31
0.0
 70
   160
  3
ISO-25
100
AcDbAlignedDimension
 13
697.9999999999999
 23
565.0
 33
0.0
 14
514.0
 24
1190.0
 34
0.0
 50
90.0
100
AcDbRotatedDimension
1001
ACAD
1000
DSTYLE
1002
{
1070
   270
1070
     2
1070
     6
1000
EX_NORM
1070
     7
1000
EX_NORM
1070
    41
1040
30.0
1070
    42
1040
6.999999880790654
1070
    44
1040
10.0
1070
    73
1070
     0
1070
    74
1070
     0
1070
    75
1070
     1
1070
    76
1070
     0
1070
    77
1070
     1
1070
    78
1070
     0
1070
   140
1040
40.0
1070
   147
1040
0.0
1070
   173
1070
     1
1070
   176
1070
     3
1070
   177
1070
     3
1070
   178
1070
     2
1070
   271
1070
     0
1070
   277
1070
     2
1070
   279
1070
     2
1070
   280
1070
     0
1070
   287
1070
     5
1070
   340
1005
579
1002
}
  0
DIMENSION
  5
644
330
1F
100
AcDbEntity
  8
寸法
  6
CONTINUOUS
 62
     3
100
AcDbDimension
  2
*D30
 10
435.0000000000001
 20
1190.0
 30
0.0
 11
411.5000000596059
 21
1292.0
 31
0.0
 70
   160
  3
ISO-25
100
AcDbAlignedDimension
 13
514.0
 23
1227.0
 33
0.0
 14
511.1
 24
1190.0
 34
0.0
 50
90.0
100
AcDbRotatedDimension
1001
ACAD
1000
DSTYLE
1002
{
1070
   270
1070
     2
1070
     6
1000
EX_NORM
1070
     7
1000
EX_NORM
1070
    41
1040
30.0
1070
    42
1040
6.999999880790654
1070
    44
1040
10.0
1070
    73
1070
     0
1070
    74
1070
     0
1070
    75
1070
     0
1070
    76
1070
     1
1070
    77
1070
     1
1070
    78
1070
     0
1070
   140
1040
40.0
1070
   147
1040
0.0
1070
   173
1070
     1
1070
   176
1070
     3
1070
   177
1070
     3
1070
   178
1070
     2
1070
   271
1070
     0
1070
   277
1070
     2
1070
   279
1070
     2
1070
   280
1070
     1
1070
   287
1070
     5
1070
   340
1005
579
1002
}
  0
DIMENSION
  5
652
330
1F
100
AcDbEntity
  8
寸法
  6
CONTINUOUS
 62
     3
100
AcDbDimension
  2
*D31
 10
1036.0
 20
934.9999999999999
 30
0.0
 11
1012.500000059605
 21
749.9999999999998
 31
0.0
 70
   160
  3
ISO-25
100
AcDbAlignedDimension
 13
697.9999999999999
 23
565.0
 33
0.0
 14
717.3999999999999
 24
935.0
 34
0.0
 50
90.0
100
AcDbRotatedDimension
1001
ACAD
1000
DSTYLE
1002
{
1070
   270
1070
     2
1070
     6
1000
EX_NORM
1070
     7
1000
EX_NORM
1070
    41
1040
30.0
1070
    42
1040
0.0
1070
    44
1040
0.0
1070
    73
1070
     0
1070
    74
1070
     0
1070
    75
1070
     1
1070
    76
1070
     1
1070
    77
1070
     1
1070
    78
1070
     0
1070
   140
1040
40.0
1070
   147
1040
0.0
1070
   173
1070
     1
1070
   176
1070
     3
1070
   177
1070
     3
1070
   178
1070
     2
1070
   271
1070
     0
1070
   277
1070
     2
1070
   279
1070
     2
1070
   280
1070
     0
1070
   287
1070
     5
1070
   340
1005
579
1002
}
  0
LEADER
  5
65D
330
1F
100
AcDbEntity
  8
寸法
  6
CONTINUOUS
 62
     3
100
AcDbLeader
  3
ISO-25
 76
     3
 10
1717.4
 20
1379.9998235681
 30
0.0
 10
1657.3
 20
1458.6
 30
0.0
 10
1568.1
 20
1458.6
 30
0.0
1001
ACAD
1000
DSTYLE
1002
{
1070
     5
1000
EX_NORM
1070
    41
1040
30.0
1070
   341
1005
4F
1002
}
  0
TEXT
  5
65E
330
1F
100
AcDbEntity
  8
寸法
  6
CONTINUOUS
 62
     2
100
AcDbText
 10
1562.8069373986
 20
1461.1791632004
 30
0.0
 40
40.0
  1
ＪＵ２
 41
1.029411764705882
  7
EXCADSTD
 72
     5
 11
1662.8069373986
 21
1461.1791632004
 31
0.0
100
AcDbText
  0
TEXT
  5
660
330
1F
100
AcDbEntity
  8
LAY-8
  6
CONTINUOUS
 62
     2
100
AcDbText
 10
916.0000000000032
 20
116.5000000000002
 30
0.0
 40
33.75
  1
ジャニス工業株式会社
 41
1.025641025641026
  7
EXCADTTF1
 72
     5
 11
1366.000000000003
 21
116.5000000000002
 31
0.0
100
AcDbText
  0
HATCH
  5
661
330
1F
100
AcDbEntity
  8
LAY-8
  6
CONTINUOUS
 62
     3
100
AcDbHatch
 10
0.0
 20
0.0
 30
0.0
210
0.0
220
0.0
230
1.0
  2
SOLID
 70
     1
 71
     1
 91
        2
 92
        3
 72
     1
 73
     1
 93
       27
 10
793.1727657332503
 20
151.3644932975407
 42
-0.1769427732109284
 10
793.1727657332505
 20
151.3644932975408
 42
0.0
 10
793.1727657332505
 20
147.7194932975406
 42
0.0
 10
794.050265733251
 20
147.7194932975402
 42
-0.207533601427307
 10
799.7474227895702
 20
151.9932359129047
 42
-0.1226604740888933
 10
804.7827657332509
 20
152.1002432975405
 42
-0.3213715781137954
 10
809.9883280222092
 20
145.7106514378474
 42
-0.064704004662446
 10
810.0140157332494
 20
142.3329932975404
 42
-0.257798906330806
 10
808.9542657332505
 20
141.0504932975405
 42
-0.056602577721096
 10
806.6862657332503
 20
140.2607432975408
 42
-0.0166741689362636
 10
798.3702657332506
 20
138.6812432975405
 42
0.1186092302783404
 10
792.8825157332507
 20
136.0487432975405
 42
0.1699204224386695
 10
790.4930157332502
 20
132.0527432975404
 42
0.1006533494296199
 10
790.2720866795817
 20
128.5853555095725
 42
0.1675695228968024
 10
792.4370157332506
 20
123.9392432975406
 42
0.1376980079804242
 10
796.3722657332502
 20
121.6644932975408
 42
0.0719813663796923
 10
798.1610157332494
 20
121.3674932975407
 42
0.0
 10
800.9015157332504
 20
121.3674932975408
 42
0.1944607457809085
 10
809.9937657332506
 20
126.0452432975405
 42
0.1288538183665954
 10
810.9117657332496
 20
123.7502432975403
 42
0.2098387395261546
 10
813.9087657332499
 20
122.0964932975407
 42
0.0
 10
816.0822657332504
 20
122.0829932975408
 42
0.0945009641609563
 10
819.2210157332505
 20
122.7512432975407
 42
0.0
 10
819.2210157332503
 20
124.3239932975404
 42
-0.2395739894657535
 10
816.4805157332511
 20
124.2969932975402
 42
-0.2502312110031057
 10
815.1305157332497
 20
126.8349932975413
 42
-0.0104343570771765
 10
815.3127657332501
 20
145.7619932975405
 42
0.4051015674140716
 97
        0
 92
        3
 72
     1
 73
     1
 93
        8
 10
810.1355157332499
 20
139.0254932975404
 42
-0.0339435190873666
 10
810.1355157332546
 20
139.0254932975292
 42
-0.0001110072973599
 10
809.8520157332512
 20
128.6844932975403
 42
-0.2253076310552528
 10
802.76451573325
 20
123.9527432975408
 42
0.0
 10
801.0297657332494
 20
123.9527432975407
 42
-0.3657967558150132
 10
795.8727657332503
 20
129.4337432975406
 42
0.0
 10
795.8727657332511
 20
131.3912432975407
 42
-0.2530797830369341
 10
799.3557657332503
 20
136.2107432975405
 42
-0.0724473624720066
 97
        0
 75
     0
 76
     1
 98
        1
 10
0.0
 20
0.0
  0
HATCH
  5
662
330
1F
100
AcDbEntity
  8
LAY-8
  6
CONTINUOUS
 62
     3
100
AcDbHatch
 10
0.0
 20
0.0
 30
0.0
210
0.0
220
0.0
230
1.0
  2
SOLID
 70
     1
 71
     1
 91
        1
 92
        3
 72
     1
 73
     1
 93
       30
 10
900.7340157332501
 20
153.3354932975409
 42
-0.0009362235736497
 10
900.7340157332502
 20
153.3354932975406
 42
0.0681165430304653
 10
899.0970934867318
 20
148.4282432975406
 42
0.0
 10
892.9310157332509
 20
152.6469932975408
 42
-0.302112590907374
 10
892.9310157332503
 20
152.6469932975406
 42
0.0
 10
886.7142657332504
 20
147.8814932975407
 42
-0.3704245237568778
 10
886.7142657332494
 20
147.8814932975404
 42
0.0
 10
887.0382657332497
 20
144.6954932975406
 42
-0.0262822419456939
 10
890.8722657332507
 20
141.6309932975404
 42
-0.180060563604375
 10
896.9877657332507
 20
139.7679932975407
 42
-0.0298130817160724
 10
896.9877657332504
 20
139.7679932975403
 42
-0.3153987453686078
 10
902.6240157332501
 20
133.3217432975407
 42
0.0
 10
902.5902657332506
 20
130.4394932975404
 42
-0.3510306079065168
 10
891.7227657332495
 20
121.3269932975406
 42
0.0
 10
888.55026573325
 20
121.3269932975403
 42
-0.1053356344842436
 10
881.53026573325
 20
123.3519932975405
 42
0.1188608286962634
 10
882.8127657332499
 20
128.4819932975408
 42
0.0
 10
890.5077657332507
 20
123.7569932975406
 42
-0.2447573632916039
 10
890.5077657332498
 20
123.7569932975405
 42
0.0
 10
897.9327657332508
 20
128.9544932975406
 42
-0.3734162676407277
 10
897.9327657332504
 20
128.9544932975405
 42
0.0
 10
895.2395157332503
 20
134.1452432975407
 42
-0.261219770190848
 10
888.95526573325
 20
136.4267432975407
 42
-0.0572747914118363
 10
888.955265733251
 20
136.4267432975406
 42
-0.1189658875692221
 10
883.9602657332498
 20
139.3562432975406
 42
-0.2005226878639636
 10
881.8677657332495
 20
144.0744932975626
 42
0.0
 10
881.8340157332507
 20
145.8632432975402
 42
-0.2622894489606957
 10
887.2002657332505
 20
154.0644932975408
 42
-0.0988461274137808
 10
892.2222657332503
 20
155.2727432975403
 42
0.0
 10
894.0852657332497
 20
155.2727432975408
 42
-0.0920156312561188
 97
        0
 75
     0
 76
     1
 98
        1
 10
0.0
 20
0.0
  0
ARC
  5
663
330
1F
100
AcDbEntity
  8
LAY-8
  6
CONTINUOUS
 62
     3
100
AcDbCircle
 10
917.842481068871
 20
144.9019437507495
 30
0.0
 40
19.07418003737831
100
AcDbArc
 50
153.7591918158497
 51
169.3462759801917
  0
LINE
  5
664
330
1F
100
AcDbEntity
  8
LAY-8
  6
CONTINUOUS
 62
     3
100
AcDbLine
 10
898.2432657332498
 20
148.4282432975406
 30
0.0
 11
899.0970934867318
 21
148.4282432975406
 31
0.0
  0
LINE
  5
665
330
1F
100
AcDbEntity
  8
LAY-8
  6
CONTINUOUS
 62
     3
100
AcDbLine
 10
891.8375157332497
 20
152.6199932975405
 30
0.0
 11
892.9310157332503
 21
152.6469932975406
 31
0.0
  0
LINE
  5
666
330
1F
100
AcDbEntity
  8
LAY-8
  6
CONTINUOUS
 62
     3
100
AcDbLine
 10
881.8340157332506
 20
145.8632432975405
 30
0.0
 11
881.8677657332495
 21
144.0744932975626
 31
0.0
  0
LINE
  5
667
330
1F
100
AcDbEntity
  8
LAY-8
  6
CONTINUOUS
 62
     3
100
AcDbLine
 10
886.7142657332494
 20
147.8814932975404
 30
0.0
 11
886.6197657332503
 21
146.1129932975402
 31
0.0
  0
LINE
  5
668
330
1F
100
AcDbEntity
  8
LAY-8
  6
CONTINUOUS
 62
     3
100
AcDbLine
 10
902.6240157332501
 20
133.3217432975407
 30
0.0
 11
902.59026573325
 21
130.4394932975406
 31
0.0
  0
LINE
  5
669
330
1F
100
AcDbEntity
  8
LAY-8
  6
CONTINUOUS
 62
     3
100
AcDbLine
 10
897.8652657332503
 20
130.5069932975407
 30
0.0
 11
897.9327657332504
 21
128.9544932975405
 31
0.0
  0
ARC
  5
66A
330
1F
100
AcDbEntity
  8
LAY-8
  6
CONTINUOUS
 62
     3
100
AcDbCircle
 10
871.5344131320938
 20
128.5779759565
 30
0.0
 40
11.27953740078838
100
AcDbArc
 50
332.3987521421788
 51
359.5124385477116
  0
LINE
  5
66B
330
1F
100
AcDbEntity
  8
LAY-8
  6
CONTINUOUS
 62
     3
100
AcDbLine
 10
793.1727657332505
 20
147.7194932975406
 30
0.0
 11
794.0502657332507
 21
147.7194932975406
 31
0.0
  0
HATCH
  5
66C
330
1F
100
AcDbEntity
  8
LAY-8
  6
CONTINUOUS
 62
     3
100
AcDbHatch
 10
0.0
 20
0.0
 30
0.0
210
0.0
220
0.0
230
1.0
  2
SOLID
 70
     1
 71
     1
 91
        2
 92
        1
 93
        1
 72
     2
 10
869.2855140383352
 20
166.5835466873709
 40
3.572334466769885
 50
0.0
 51
360.0
 73
     1
 97
        0
 92
        3
 72
     1
 73
     1
 93
        3
 10
866.0930157332502
 20
154.6989932975405
 42
0.1200283885712921
 10
872.3030157332505
 20
122.0627432975401
 42
-0.0401820615762149
 10
866.0997657332503
 20
122.0424932975405
 42
-0.0237521668114666
 97
        0
 75
     0
 76
     1
 98
        1
 10
0.0
 20
0.0
  0
HATCH
  5
66D
330
1F
100
AcDbEntity
  8
LAY-8
  6
CONTINUOUS
 62
     3
100
AcDbHatch
 10
0.0
 20
0.0
 30
0.0
210
0.0
220
0.0
230
1.0
  2
SOLID
 70
     1
 71
     1
 91
        1
 92
        3
 72
     1
 73
     1
 93
       16
 10
826.86876573325
 20
122.1032432975403
 42
-0.0386228372648426
 10
826.8080157332499
 20
154.6449932975404
 42
-0.0398707891902887
 10
832.7142657332496
 20
154.6719932975408
 42
-0.1256886216044368
 10
832.4442657332502
 20
149.1504932975406
 42
-0.0367815758121429
 10
832.4442657332502
 20
149.1504932975404
 42
-0.268021535028829
 10
844.3580157332499
 20
155.3334932975405
 42
-0.2571134422124888
 10
852.50526573325
 20
151.3037432975408
 42
-0.1522526366014298
 10
854.5775157332506
 20
144.6009932975405
 42
-0.0158825412051521
 10
854.4290157332497
 20
122.0694932975405
 42
-0.0285251271418421
 10
848.7252657332505
 20
122.0694932975404
 42
-0.0452212723224612
 10
849.0155157332506
 20
142.8864932975408
 42
-0.0315567291532142
 10
847.2470157332498
 20
149.0357432975408
 42
-0.1476272403790709
 10
835.7315157332499
 20
149.9199932975403
 42
-0.3908144705745794
 10
832.4847657332504
 20
141.8402432975402
 42
-0.2046259928850854
 10
832.4847657332504
 20
141.8402432975408
 42
0.0
 10
832.9910157332503
 20
122.0492432975406
 42
-0.0304995761723369
 97
        0
 75
     0
 76
     1
 98
        1
 10
0.0
 20
0.0
  0
HATCH
  5
66E
330
1F
100
AcDbEntity
  8
LAY-8
  6
CONTINUOUS
 62
     3
100
AcDbHatch
 10
0.0
 20
0.0
 30
0.0
210
0.0
220
0.0
230
1.0
  2
SOLID
 70
     1
 71
     1
 91
        1
 92
        3
 72
     1
 73
     1
 93
       10
 10
767.7252657332507
 20
123.2169932975404
 42
-0.017362223501556
 10
767.8130157332499
 20
176.1842432975408
 42
-0.0267627618865285
 10
767.8130157332505
 20
176.1842432975405
 42
0.0737939047395297
 10
780.7325157332508
 20
176.2382432975399
 42
0.0183878899657109
 10
780.2127657332504
 20
128.4819932975404
 42
-0.1144749489451909
 10
778.1202657332495
 20
118.4244932975402
 42
-0.1929163439413163
 10
768.1640157332506
 20
110.6079932975404
 42
-0.0603888289562337
 10
762.8855157332504
 20
109.2917432975405
 42
0.0
 10
761.6502657332502
 20
113.0514932975403
 42
0.0860918333465722
 10
765.3425157332501
 20
115.0157432975405
 42
0.1331843103855141
 97
        0
 75
     0
 76
     1
 98
        1
 10
0.0
 20
0.0
  0
LINE
  5
66F
330
1F
100
AcDbEntity
  8
LAY-8
  6
CONTINUOUS
 62
     3
100
AcDbLine
 10
888.5502657332501
 20
121.3269932975406
 30
0.0
 11
891.7227657332495
 21
121.3269932975406
 31
0.0
  0
LINE
  5
670
330
1F
100
AcDbEntity
  8
LAY-8
  6
CONTINUOUS
 62
     3
100
AcDbLine
 10
883.6902657332502
 20
128.4819932975408
 30
0.0
 11
882.8127657332499
 21
128.4819932975408
 31
0.0
  0
LINE
  5
671
330
1F
100
AcDbEntity
  8
LAY-8
  6
CONTINUOUS
 62
     3
100
AcDbLine
 10
890.5077657332498
 20
123.7569932975405
 30
0.0
 11
892.1277657332502
 21
123.7569932975405
 31
0.0
  0
LINE
  5
672
330
1F
100
AcDbEntity
  8
LAY-8
  6
CONTINUOUS
 62
     3
100
AcDbLine
 10
894.0852657332499
 20
155.2727432975403
 30
0.0
 11
892.2222657332503
 21
155.2727432975403
 31
0.0
  0
ARC
  5
673
330
1F
100
AcDbEntity
  8
LAY-8
  6
CONTINUOUS
 62
     3
100
AcDbCircle
 10
892.4147339127506
 20
146.5429236291668
 30
0.0
 40
6.12586430102253
100
AcDbArc
 50
17.92452211681263
 51
85.16543319077402
  0
ARC
  5
674
330
1F
100
AcDbEntity
  8
LAY-8
  6
CONTINUOUS
 62
     3
100
AcDbCircle
 10
892.0350964860535
 20
147.267499470792
 30
0.0
 40
5.35613931103931
100
AcDbArc
 50
92.11404364449162
 51
173.4175047026091
  0
ARC
  5
675
330
1F
100
AcDbEntity
  8
LAY-8
  6
CONTINUOUS
 62
     3
100
AcDbCircle
 10
900.3031407332622
 20
149.3823182975443
 30
0.0
 40
14.068519372934
100
AcDbArc
 50
193.4375782160214
 51
199.459638038058
  0
ARC
  5
676
330
1F
100
AcDbEntity
  8
LAY-8
  6
CONTINUOUS
 62
     3
100
AcDbCircle
 10
893.0721352387451
 20
148.3138641766611
 30
0.0
 40
7.03563707337184
100
AcDbArc
 50
210.9501336849607
 51
251.7794729821079
  0
ARC
  5
677
330
1F
100
AcDbEntity
  8
LAY-8
  6
CONTINUOUS
 62
     3
100
AcDbCircle
 10
909.5384669692061
 20
191.935931050351
 30
0.0
 40
53.6564425851668
100
AcDbArc
 50
249.6420733479936
 51
256.4727051201885
  0
ARC
  5
678
330
1F
100
AcDbEntity
  8
LAY-8
  6
CONTINUOUS
 62
     3
100
AcDbCircle
 10
895.2045721291955
 20
132.5217258531572
 30
0.0
 40
7.46245075729606
100
AcDbArc
 50
6.154262763177246
 51
76.17509904255616
  0
ARC
  5
679
330
1F
100
AcDbEntity
  8
LAY-8
  6
CONTINUOUS
 62
     3
100
AcDbCircle
 10
891.466388646756
 20
132.6692467118044
 30
0.0
 40
11.34515058180645
100
AcDbArc
 50
271.2948770866743
 51
348.6654156292868
  0
ARC
  5
67A
330
1F
100
AcDbEntity
  8
LAY-8
  6
CONTINUOUS
 62
     3
100
AcDbCircle
 10
889.7930054592774
 20
138.8156576811023
 30
0.0
 40
17.5327631578002
100
AcDbArc
 50
241.8829576087176
 51
265.9354096935781
  0
ARC
  5
67B
330
1F
100
AcDbEntity
  8
LAY-8
  6
CONTINUOUS
 62
     3
100
AcDbCircle
 10
891.6361043234866
 20
132.6658639777381
 30
0.0
 40
8.98004035462527
100
AcDbArc
 50
207.7689879465537
 51
262.7817283832026
  0
ARC
  5
67C
330
1F
100
AcDbEntity
  8
LAY-8
  6
CONTINUOUS
 62
     3
100
AcDbCircle
 10
892.0357777446515
 20
129.7002363757165
 30
0.0
 40
5.94395491876676
100
AcDbArc
 50
270.8867385422408
 51
352.7925382056677
  0
ARC
  5
67D
330
1F
100
AcDbEntity
  8
LAY-8
  6
CONTINUOUS
 62
     3
100
AcDbCircle
 10
893.3080045853666
 20
129.9846225433166
 30
0.0
 40
4.587101522190142
100
AcDbArc
 50
6.53892419415897
 51
65.09756080693691
  0
ARC
  5
67E
330
1F
100
AcDbEntity
  8
LAY-8
  6
CONTINUOUS
 62
     3
100
AcDbCircle
 10
882.171489183043
 20
107.9457141755208
 30
0.0
 40
29.27778413972754
100
AcDbArc
 50
63.49050203733571
 51
76.60259219849584
  0
ARC
  5
67F
330
1F
100
AcDbEntity
  8
LAY-8
  6
CONTINUOUS
 62
     3
100
AcDbCircle
 10
892.5268145799504
 20
148.2396411006685
 30
0.0
 40
12.34100950779567
100
AcDbArc
 50
226.0402388947521
 51
253.1776672992999
  0
ARC
  5
680
330
1F
100
AcDbEntity
  8
LAY-8
  6
CONTINUOUS
 62
     3
100
AcDbCircle
 10
888.5599257925998
 20
144.2192769075527
 30
0.0
 40
6.69372605905611
100
AcDbArc
 50
181.2393899443581
 51
226.5942921332421
  0
ARC
  5
681
330
1F
100
AcDbEntity
  8
LAY-8
  6
CONTINUOUS
 62
     3
100
AcDbCircle
 10
891.7963496799615
 20
145.2009291101863
 30
0.0
 40
9.9843256030919
100
AcDbArc
 50
117.4083995939977
 51
176.1964688215695
  0
ARC
  5
682
330
1F
100
AcDbEntity
  8
LAY-8
  6
CONTINUOUS
 62
     3
100
AcDbCircle
 10
892.7711044283905
 20
142.0979097937611
 30
0.0
 40
13.19974865367525
100
AcDbArc
 50
92.38301574576484
 51
114.9635286746436
  0
ARC
  5
683
330
1F
100
AcDbEntity
  8
LAY-8
  6
CONTINUOUS
 62
     3
100
AcDbCircle
 10
893.8542828460567
 20
145.1663038363954
 30
0.0
 40
10.10907867592157
100
AcDbArc
 50
67.66151957087348
 51
88.69073168448988
  0
ARC
  5
684
330
1F
100
AcDbEntity
  8
LAY-8
  6
CONTINUOUS
 62
     3
100
AcDbCircle
 10
1214.644453232815
 20
965.0297432964201
 30
0.0
 40
870.2800228963157
100
AcDbArc
 50
248.6422112053103
 51
248.8567777804232
  0
ARC
  5
685
330
1F
100
AcDbEntity
  8
LAY-8
  6
CONTINUOUS
 62
     3
100
AcDbCircle
 10
644.6900575363867
 20
138.3249792766235
 30
0.0
 40
222.0076085035812
100
AcDbArc
 50
355.7940354718673
 51
4.229650257234378
  0
ARC
  5
686
330
1F
100
AcDbEntity
  8
LAY-8
  6
CONTINUOUS
 62
     3
100
AcDbCircle
 10
1075.254047179557
 20
138.1881005739385
 30
0.0
 40
203.5906390589
100
AcDbArc
 50
175.3387608397566
 51
184.5428594926176
  0
ARC
  5
687
330
1F
100
AcDbEntity
  8
LAY-8
  6
CONTINUOUS
 62
     3
100
AcDbCircle
 10
869.4144089371338
 20
56.79804184123304
 30
0.0
 40
65.32859485251089
100
AcDbArc
 50
87.46575055044718
 51
92.90832285102188
  0
ARC
  5
688
330
1F
100
AcDbEntity
  8
LAY-8
  6
CONTINUOUS
 62
     3
100
AcDbCircle
 10
869.1456076027731
 20
167.5332474358077
 30
0.0
 40
13.19228548840207
100
AcDbArc
 50
256.6209501743446
 51
283.9984576255729
  0
CIRCLE
  5
689
330
1F
100
AcDbEntity
  8
LAY-8
  6
CONTINUOUS
 62
     3
100
AcDbCircle
 10
869.2855140383352
 20
166.5835466873709
 30
0.0
 40
3.57233446676989
  0
LINE
  5
68A
330
1F
100
AcDbEntity
  8
LAY-8
  6
CONTINUOUS
 62
     3
100
AcDbLine
 10
832.4847657332504
 20
141.8402432975408
 30
0.0
 11
832.4847657332504
 21
131.0469932975404
 31
0.0
  0
ARC
  5
68B
330
1F
100
AcDbEntity
  8
LAY-8
  6
CONTINUOUS
 62
     3
100
AcDbCircle
 10
623.1176988671592
 20
137.9938058671744
 30
0.0
 40
204.3697806131072
100
AcDbArc
 50
355.5405243117485
 51
4.673398698656258
  0
ARC
  5
68C
330
1F
100
AcDbEntity
  8
LAY-8
  6
CONTINUOUS
 62
     3
100
AcDbCircle
 10
829.7082849861232
 20
166.2206879814487
 30
0.0
 40
11.93349358546016
100
AcDbArc
 50
255.9341994177206
 51
284.5896440601899
  0
ARC
  5
68D
330
1F
100
AcDbEntity
  8
LAY-8
  6
CONTINUOUS
 62
     3
100
AcDbCircle
 10
870.0574727396162
 20
150.0785681383052
 30
0.0
 40
37.62465500458181
100
AcDbArc
 50
172.9875214416311
 51
181.4134392789641
  0
ARC
  5
68E
330
1F
100
AcDbEntity
  8
LAY-8
  6
CONTINUOUS
 62
     3
100
AcDbCircle
 10
843.7541069002549
 20
141.9275988818599
 30
0.0
 40
13.4194899665726
100
AcDbArc
 50
87.42068310381028
 51
147.4361518966862
  0
ARC
  5
68F
330
1F
100
AcDbEntity
  8
LAY-8
  6
CONTINUOUS
 62
     3
100
AcDbCircle
 10
844.7724057413762
 20
145.9204664797992
 30
0.0
 40
9.4221437555554
100
AcDbArc
 50
34.84393737091607
 51
92.5207065423111
  0
ARC
  5
690
330
1F
100
AcDbEntity
  8
LAY-8
  6
CONTINUOUS
 62
     3
100
AcDbCircle
 10
842.7905515344827
 20
144.6285942451525
 30
0.0
 40
11.7869965146059
100
AcDbArc
 50
359.8658335690532
 51
34.49363429411157
  0
ARC
  5
691
330
1F
100
AcDbEntity
  8
LAY-8
  6
CONTINUOUS
 62
     3
100
AcDbCircle
 10
793.1913601210061
 20
142.331577481214
 30
0.0
 40
61.42809087866958
100
AcDbArc
 50
358.4775281223095
 51
2.117232414210064
  0
ARC
  5
692
330
1F
100
AcDbEntity
  8
LAY-8
  6
CONTINUOUS
 62
     3
100
AcDbCircle
 10
1017.657633661698
 20
129.9067374739132
 30
0.0
 40
163.4166579853821
100
AcDbArc
 50
176.2131780319488
 51
182.7488833337936
  0
ARC
  5
693
330
1F
100
AcDbEntity
  8
LAY-8
  6
CONTINUOUS
 62
     3
100
AcDbCircle
 10
851.5771407332505
 20
90.60152619227756
 30
0.0
 40
31.59693252126744
100
AcDbArc
 50
84.82155189294139
 51
95.17844810705873
  0
ARC
  5
694
330
1F
100
AcDbEntity
  8
LAY-8
  6
CONTINUOUS
 62
     3
100
AcDbCircle
 10
684.1173378649745
 20
134.7751337882464
 30
0.0
 40
165.0975566668588
100
AcDbArc
 50
355.5862454873798
 51
2.816115806820253
  0
ARC
  5
695
330
1F
100
AcDbEntity
  8
LAY-8
  6
CONTINUOUS
 62
     3
100
AcDbCircle
 10
837.9447404568526
 20
143.0315138821554
 30
0.0
 40
11.07172507744154
100
AcDbArc
 50
359.2495022237244
 51
32.84055016678327
  0
ARC
  5
696
330
1F
100
AcDbEntity
  8
LAY-8
  6
CONTINUOUS
 62
     3
100
AcDbCircle
 10
841.010014520553
 20
143.2366273138687
 30
0.0
 40
8.51645057047003
100
AcDbArc
 50
42.91644474042847
 51
128.3015542351336
  0
ARC
  5
697
330
1F
100
AcDbEntity
  8
LAY-8
  6
CONTINUOUS
 62
     3
100
AcDbCircle
 10
843.5661722366405
 20
142.0795225138054
 30
0.0
 40
11.08398956318131
100
AcDbArc
 50
134.9787476233347
 51
181.2369872983282
  0
ARC
  5
698
330
1F
100
AcDbEntity
  8
LAY-8
  6
CONTINUOUS
 62
     3
100
AcDbCircle
 10
906.4088578951038
 20
130.9150147009811
 30
0.0
 40
73.95120993114926
100
AcDbArc
 50
179.8977458165987
 51
186.8855675734268
  0
ARC
  5
699
330
1F
100
AcDbEntity
  8
LAY-8
  6
CONTINUOUS
 62
     3
100
AcDbCircle
 10
829.5808780069314
 20
82.50692545117067
 30
0.0
 40
39.68909094418497
100
AcDbArc
 50
85.07099551674689
 51
93.91830029343228
  0
ARC
  5
69A
330
1F
100
AcDbEntity
  8
LAY-8
  6
CONTINUOUS
 62
     3
100
AcDbCircle
 10
-22479.01542217735
 20
772.3265245587829
 30
0.0
 40
23297.76001260591
100
AcDbArc
 50
358.4169008257799
 51
358.4423418242109
  0
ARC
  5
69B
330
1F
100
AcDbEntity
  8
LAY-8
  6
CONTINUOUS
 62
     3
100
AcDbCircle
 10
801.3244690765924
 20
133.7836489530205
 30
0.0
 40
9.935816039979159
100
AcDbArc
 50
278.3335103000368
 51
329.1221464187299
  0
LINE
  5
69C
330
1F
100
AcDbEntity
  8
LAY-8
  6
CONTINUOUS
 62
     3
100
AcDbLine
 10
801.0297657332495
 20
123.9527432975408
 30
0.0
 11
802.76451573325
 21
123.9527432975408
 31
0.0
  0
ARC
  5
69D
330
1F
100
AcDbEntity
  8
LAY-8
  6
CONTINUOUS
 62
     3
100
AcDbCircle
 10
801.6959653488738
 20
129.7461380097784
 30
0.0
 40
5.83157304846997
100
AcDbArc
 50
183.0707787095794
 51
263.4402016072427
  0
LINE
  5
69E
330
1F
100
AcDbEntity
  8
LAY-8
  6
CONTINUOUS
 62
     3
100
AcDbLine
 10
795.8727657332503
 20
131.3912432975403
 30
0.0
 11
795.8727657332503
 21
129.4337432975406
 31
0.0
  0
ARC
  5
69F
330
1F
100
AcDbEntity
  8
LAY-8
  6
CONTINUOUS
 62
     3
100
AcDbCircle
 10
802.0701866837845
 20
130.5807479047182
 30
0.0
 40
6.25019433457053
100
AcDbArc
 50
115.7403688633493
 51
172.5491744442191
  0
ARC
  5
6A0
330
1F
100
AcDbEntity
  8
LAY-8
  6
CONTINUOUS
 62
     3
100
AcDbCircle
 10
807.5660651757704
 20
118.8318862667977
 30
0.0
 40
19.22065786155208
100
AcDbArc
 50
98.71271710191789
 51
115.2874718053599
  0
ARC
  5
6A1
330
1F
100
AcDbEntity
  8
LAY-8
  6
CONTINUOUS
 62
     3
100
AcDbCircle
 10
798.6056099353726
 20
178.7501381160505
 30
0.0
 40
41.36406814694017
100
AcDbArc
 50
278.4088456599976
 51
286.1851416003176
  0
ARC
  5
6A2
330
1F
100
AcDbEntity
  8
LAY-8
  6
CONTINUOUS
 62
     3
100
AcDbCircle
 10
774.0908200122277
 20
219.7417570522223
 30
0.0
 40
44.00758833490465
100
AcDbArc
 50
261.7986203004403
 51
278.6803384946418
  0
ARC
  5
6A3
330
1F
100
AcDbEntity
  8
LAY-8
  6
CONTINUOUS
 62
     3
100
AcDbCircle
 10
1429.542531413435
 20
145.2960360950844
 30
0.0
 40
649.5474244683605
100
AcDbArc
 50
177.2695926307304
 51
181.4833117237826
  0
ARC
  5
6A4
330
1F
100
AcDbEntity
  8
LAY-8
  6
CONTINUOUS
 62
     3
100
AcDbCircle
 10
757.4899361790614
 20
127.9631356880093
 30
0.0
 40
22.72875263114311
100
AcDbArc
 50
335.1860595856123
 51
1.308075913059364
  0
ARC
  5
6A5
330
1F
100
AcDbEntity
  8
LAY-8
  6
CONTINUOUS
 62
     3
100
AcDbCircle
 10
763.3897327885478
 20
126.9383518626828
 30
0.0
 40
17.01394688196115
100
AcDbArc
 50
286.2966123578915
 51
329.973223283839
  0
ARC
  5
6A6
330
1F
100
AcDbEntity
  8
LAY-8
  6
CONTINUOUS
 62
     3
100
AcDbCircle
 10
760.0955749866654
 20
131.7223152915385
 30
0.0
 40
22.60341410821362
100
AcDbArc
 50
277.0901027239701
 51
290.9134154817058
  0
ARC
  5
6A7
330
1F
100
AcDbEntity
  8
LAY-8
  6
CONTINUOUS
 62
     3
100
AcDbCircle
 10
757.8347289685445
 20
124.6759859445988
 30
0.0
 40
12.23467000390025
100
AcDbArc
 50
288.1715191042997
 51
307.8537826235693
  0
ARC
  5
6A8
330
1F
100
AcDbEntity
  8
LAY-8
  6
CONTINUOUS
 62
     3
100
AcDbCircle
 10
760.0927386496022
 20
120.3407518472914
 30
0.0
 40
7.47769185530633
100
AcDbArc
 50
314.592391474832
 51
344.9374073189123
  0
ARC
  5
6A9
330
1F
100
AcDbEntity
  8
LAY-8
  6
CONTINUOUS
 62
     3
100
AcDbCircle
 10
273.3385521229312
 20
150.5197335838839
 30
0.0
 40
495.1400430399008
100
AcDbArc
 50
356.8390243485978
 51
2.971133813187157
  0
ARC
  5
6AA
330
1F
100
AcDbEntity
  8
LAY-8
  6
CONTINUOUS
 62
     3
100
AcDbCircle
 10
698.1439565227078
 20
126.7342761922787
 30
0.0
 40
69.67015049800598
100
AcDbArc
 50
353.1274757312911
 51
357.106204490141
  0
LINE
  5
6AB
330
1F
100
AcDbEntity
  8
LAY-8
  6
CONTINUOUS
 62
     3
100
AcDbLine
 10
793.1727657332505
 20
151.3644932975408
 30
0.0
 11
793.1727657332505
 21
147.7194932975406
 31
0.0
  0
ARC
  5
6AC
330
1F
100
AcDbEntity
  8
LAY-8
  6
CONTINUOUS
 62
     3
100
AcDbCircle
 10
801.8253617702993
 20
143.289019185788
 30
0.0
 40
8.948811051767192
100
AcDbArc
 50
103.4267945469744
 51
150.3242613737993
  0
ARC
  5
6AD
330
1F
100
AcDbEntity
  8
LAY-8
  6
CONTINUOUS
 62
     3
100
AcDbCircle
 10
802.4799095798306
 20
141.938383051302
 30
0.0
 40
10.4195273466423
100
AcDbArc
 50
77.23143261361693
 51
105.203415964315
  0
ARC
  5
6AE
330
1F
100
AcDbEntity
  8
LAY-8
  6
CONTINUOUS
 62
     3
100
AcDbCircle
 10
802.9283412817693
 20
145.2741886153419
 30
0.0
 40
7.07346538626002
100
AcDbArc
 50
3.537639967999379
 51
74.8013566619203
  0
ARC
  5
6AF
330
1F
100
AcDbEntity
  8
LAY-8
  6
CONTINUOUS
 62
     3
100
AcDbCircle
 10
797.005387356657
 20
143.9229870375123
 30
0.0
 40
13.10543751018921
100
AcDbArc
 50
353.0315250986587
 51
7.839947970678348
  0
ARC
  5
6B0
330
1F
100
AcDbEntity
  8
LAY-8
  6
CONTINUOUS
 62
     3
100
AcDbCircle
 10
808.3230955673338
 20
142.6511332504285
 30
0.0
 40
1.72058828228131
100
AcDbArc
 50
291.5204897073511
 51
349.3445900274031
  0
ARC
  5
6B1
330
1F
100
AcDbEntity
  8
LAY-8
  6
CONTINUOUS
 62
     3
100
AcDbCircle
 10
804.3433050110895
 20
150.6407362688747
 30
0.0
 40
10.64113335272784
100
AcDbArc
 50
282.7195832898965
 51
295.6781112778079
  0
ARC
  5
6B2
330
1F
100
AcDbEntity
  8
LAY-8
  6
CONTINUOUS
 62
     3
100
AcDbCircle
 10
778.8530099985786
 20
264.1202029775211
 30
0.0
 40
126.9482409370382
100
AcDbArc
 50
278.8438342053764
 51
282.6649181367123
  0
ARC
  5
6B3
330
1F
100
AcDbEntity
  8
LAY-8
  6
CONTINUOUS
 62
     3
100
AcDbCircle
 10
801.0970138675788
 20
125.9608481482869
 30
0.0
 40
13.0093661698492
100
AcDbArc
 50
102.0988446293839
 51
129.1556705448828
  0
ARC
  5
6B4
330
1F
100
AcDbEntity
  8
LAY-8
  6
CONTINUOUS
 62
     3
100
AcDbCircle
 10
797.3972379030153
 20
130.63663325008
 30
0.0
 40
7.04795370557922
100
AcDbArc
 50
129.8344892359069
 51
168.4089447024628
  0
ARC
  5
6B5
330
1F
100
AcDbEntity
  8
LAY-8
  6
CONTINUOUS
 62
     3
100
AcDbCircle
 10
798.9075018569991
 20
129.7758712547743
 30
0.0
 40
8.71709372588669
100
AcDbArc
 50
164.8589457925044
 51
187.8495628504518
  0
ARC
  5
6B6
330
1F
100
AcDbEntity
  8
LAY-8
  6
CONTINUOUS
 62
     3
100
AcDbCircle
 10
798.0915332915498
 20
129.4015021572861
 30
0.0
 40
7.861923471262902
100
AcDbArc
 50
185.9586126338419
 51
224.0091989319859
  0
ARC
  5
6B7
330
1F
100
AcDbEntity
  8
LAY-8
  6
CONTINUOUS
 62
     3
100
AcDbCircle
 10
798.4562953036885
 20
129.8111104772595
 30
0.0
 40
8.408956577563663
100
AcDbArc
 50
224.289750990011
 51
255.6505938786759
  0
ARC
  5
6B8
330
1F
100
AcDbEntity
  8
LAY-8
  6
CONTINUOUS
 62
     3
100
AcDbCircle
 10
798.2928130736758
 20
127.696349438741
 30
0.0
 40
6.33022832091786
100
AcDbArc
 50
252.3384873625213
 51
268.8069976857606
  0
LINE
  5
6B9
330
1F
100
AcDbEntity
  8
LAY-8
  6
CONTINUOUS
 62
     3
100
AcDbLine
 10
798.1610157332494
 20
121.3674932975407
 30
0.0
 11
800.9015157332504
 21
121.3674932975407
 31
0.0
  0
ARC
  5
6BA
330
1F
100
AcDbEntity
  8
LAY-8
  6
CONTINUOUS
 62
     3
100
AcDbCircle
 10
799.6613045867008
 20
134.9534026256827
 30
0.0
 40
13.64239920103932
100
AcDbArc
 50
275.2158792069686
 51
319.2336424873511
  0
ARC
  5
6BB
330
1F
100
AcDbEntity
  8
LAY-8
  6
CONTINUOUS
 62
     3
100
AcDbCircle
 10
814.8315560558314
 20
126.6492594265728
 30
0.0
 40
4.87535134009722
100
AcDbArc
 50
187.1167640402297
 51
216.4860549324747
  0
ARC
  5
6BC
330
1F
100
AcDbEntity
  8
LAY-8
  6
CONTINUOUS
 62
     3
100
AcDbCircle
 10
814.293773508146
 20
126.3367456528629
 30
0.0
 40
4.25769550620398
100
AcDbArc
 50
217.4081478714985
 51
264.8118660441384
  0
ARC
  5
6BD
330
1F
100
AcDbEntity
  8
LAY-8
  6
CONTINUOUS
 62
     3
100
AcDbCircle
 10
815.8995891945591
 20
130.6464512823031
 30
0.0
 40
8.56540620020894
100
AcDbArc
 50
271.2220539293239
 51
292.8159509797653
  0
LINE
  5
6BE
330
1F
100
AcDbEntity
  8
LAY-8
  6
CONTINUOUS
 62
     3
100
AcDbLine
 10
813.9087657332499
 20
122.0964932975407
 30
0.0
 11
816.08226573325
 21
122.0964932975407
 31
0.0
  0
LINE
  5
6BF
330
1F
100
AcDbEntity
  8
LAY-8
  6
CONTINUOUS
 62
     3
100
AcDbLine
 10
819.2210157332505
 20
122.7512432975407
 30
0.0
 11
819.2210157332505
 21
124.3239932975403
 31
0.0
  0
ARC
  5
6C0
330
1F
100
AcDbEntity
  8
LAY-8
  6
CONTINUOUS
 62
     3
100
AcDbCircle
 10
817.8242078457964
 20
127.0061188741088
 30
0.0
 40
3.024048591364801
100
AcDbArc
 50
243.6191685566582
 51
297.5097757939563
  0
ARC
  5
6C1
330
1F
100
AcDbEntity
  8
LAY-8
  6
CONTINUOUS
 62
     3
100
AcDbCircle
 10
818.1823989446042
 20
126.8302928780472
 30
0.0
 40
3.05188683107389
100
AcDbArc
 50
179.9117548191414
 51
236.1065985968857
  0
ARC
  5
6C2
330
1F
100
AcDbEntity
  8
LAY-8
  6
CONTINUOUS
 62
     3
100
AcDbCircle
 10
1268.65013583871
 20
131.9323843931732
 30
0.0
 40
453.5482655865661
100
AcDbArc
 50
178.2526643324597
 51
180.6439560401927
  0
ARC
  5
6C3
330
1F
100
AcDbEntity
  8
LAY-8
  6
CONTINUOUS
 62
     3
100
AcDbCircle
 10
805.0706272602787
 20
145.0191625973314
 30
0.0
 40
10.2690407511459
100
AcDbArc
 50
4.148222840814693
 51
92.36000944257292
  0
ARC
  5
6C4
330
1F
100
AcDbEntity
  8
LAY-8
  6
CONTINUOUS
 62
     3
100
AcDbCircle
 10
804.2685324125529
 20
137.6167288926886
 30
0.0
 40
17.66683515327064
100
AcDbArc
 50
88.77000393305703
 51
128.9068631829044
  0
LINE
  5
6C5
330
1F
100
AcDbEntity
  8
LAY-8
  6
CONTINUOUS
 62
     6
100
AcDbLine
 10
762.8855157332504
 20
109.2917432975405
 30
0.0
 11
761.6502657332506
 21
113.0514932975402
 31
0.0
  0
TEXT
  5
6C6
330
1F
100
AcDbEntity
  8
LAY-8
  6
CONTINUOUS
 62
     2
100
AcDbText
 10
196.5000000000003
 20
264.7499999999998
 30
0.0
 40
42.5
  1
製図
 41
1.509694117647059
  7
EXCADSTD
 72
     5
 11
297.3260000000002
 21
264.7499999999998
 31
0.0
100
AcDbText
  0
TEXT
  5
6C7
330
1F
100
AcDbEntity
  8
LAY-8
  6
CONTINUOUS
 62
     2
100
AcDbText
 10
351.5000000000002
 20
264.7499999999998
 30
0.0
 40
42.5
  1
写図
 41
1.509694117647059
  7
EXCADSTD
 72
     5
 11
452.3260000000002
 21
264.7499999999998
 31
0.0
100
AcDbText
  0
TEXT
  5
6C8
330
1F
100
AcDbEntity
  8
LAY-8
  6
CONTINUOUS
 62
     2
100
AcDbText
 10
501.5000000000002
 20
264.7499999999998
 30
0.0
 40
42.5
  1
検図
 41
1.303826737967914
  7
EXCADSTD
 72
     5
 11
588.5770000000002
 21
264.7499999999998
 31
0.0
100
AcDbText
  0
LINE
  5
6C9
330
1F
100
AcDbEntity
  8
LAY-8
  6
EXLTYPE2
 62
     6
100
AcDbLine
 10
-6.000000000000227
 20
1491.0
 30
0.0
 11
174.0000000000003
 21
1491.0
 31
0.0
  0
LINE
  5
6CA
330
1F
100
AcDbEntity
  8
LAY-8
  6
CONTINUOUS
 62
     7
100
AcDbLine
 10
174.0000000000003
 20
90.99999999999977
 30
0.0
 11
174.0000000000003
 21
2891.0
 31
0.0
  0
LINE
  5
6CB
330
1F
100
AcDbEntity
  8
LAY-8
  6
CONTINUOUS
 62
     7
100
AcDbLine
 10
174.0000000000003
 20
2891.0
 30
0.0
 11
1994.0
 21
2891.0
 31
0.0
  0
LINE
  5
6CC
330
1F
100
AcDbEntity
  8
LAY-8
  6
CONTINUOUS
 62
     7
100
AcDbLine
 10
1994.0
 20
90.99999999999977
 30
0.0
 11
1994.0
 21
2891.0
 31
0.0
  0
LINE
  5
6CD
330
1F
100
AcDbEntity
  8
LAY-8
  6
CONTINUOUS
 62
     7
100
AcDbLine
 10
174.0000000000003
 20
310.9999999999998
 30
0.0
 11
1994.0
 21
310.9999999999998
 31
0.0
  0
LINE
  5
6CE
330
1F
100
AcDbEntity
  8
LAY-8
  6
CONTINUOUS
 62
     7
100
AcDbLine
 10
174.0000000000003
 20
90.99999999999977
 30
0.0
 11
1994.0
 21
90.99999999999977
 31
0.0
  0
LINE
  5
6CF
330
1F
100
AcDbEntity
  8
LAY-8
  6
CONTINUOUS
 62
     6
100
AcDbLine
 10
744.0000000000003
 20
310.9999999999998
 30
0.0
 11
744.0000000000003
 21
90.99999999999977
 31
0.0
  0
LINE
  5
6D0
330
1F
100
AcDbEntity
  8
LAY-8
  6
CONTINUOUS
 62
     6
100
AcDbLine
 10
484.0000000000002
 20
310.9999999999998
 30
0.0
 11
484.0000000000002
 21
90.99999999999977
 31
0.0
  0
LINE
  5
6D1
330
1F
100
AcDbEntity
  8
LAY-8
  6
CONTINUOUS
 62
     6
100
AcDbLine
 10
329.0000000000002
 20
310.9999999999998
 30
0.0
 11
329.0000000000002
 21
90.99999999999977
 31
0.0
  0
CIRCLE
  5
6D2
330
1F
100
AcDbEntity
  8
LAY-8
  6
CONTINUOUS
 62
     6
100
AcDbCircle
 10
224.0000000000003
 20
115.9999999999998
 30
0.0
 40
1.0000002
  0
CIRCLE
  5
6D3
330
1F
100
AcDbEntity
  8
LAY-8
  6
CONTINUOUS
 62
     6
100
AcDbCircle
 10
274.0000000000002
 20
115.9999999999998
 30
0.0
 40
1.0000002
  0
CIRCLE
  5
6D4
330
1F
100
AcDbEntity
  8
LAY-8
  6
CONTINUOUS
 62
     6
100
AcDbCircle
 10
379.0000000000002
 20
115.9999999999998
 30
0.0
 40
1.0000002
  0
CIRCLE
  5
6D5
330
1F
100
AcDbEntity
  8
LAY-8
  6
CONTINUOUS
 62
     6
100
AcDbCircle
 10
429.0000000000002
 20
115.9999999999998
 30
0.0
 40
1.0000002
  0
LINE
  5
6D6
330
1F
100
AcDbEntity
  8
LAY-8
  6
CONTINUOUS
 62
     6
100
AcDbLine
 10
614.0000000000002
 20
310.9999999999998
 30
0.0
 11
614.0000000000002
 21
90.99999999999977
 31
0.0
  0
LINE
  5
6D7
330
1F
100
AcDbEntity
  8
LAY-8
  6
EXLTYPE2
 62
     6
100
AcDbLine
 10
174.0000000000003
 20
140.9999999999998
 30
0.0
 11
484.0000000000002
 21
140.9999999999998
 31
0.0
  0
LINE
  5
6D8
330
1F
100
AcDbEntity
  8
LAY-8
  6
CONTINUOUS
 62
     6
100
AcDbLine
 10
1994.0
 20
190.9999999999998
 30
0.0
 11
744.0000000000003
 21
190.9999999999998
 31
0.0
  0
LINE
  5
6D9
330
1F
100
AcDbEntity
  8
LAY-8
  6
CONTINUOUS
 62
     6
100
AcDbLine
 10
1854.0
 20
310.9999999999998
 30
0.0
 11
1854.0
 21
190.9999999999998
 31
0.0
  0
LINE
  5
6DA
330
1F
100
AcDbEntity
  8
LAY-8
  6
CONTINUOUS
 62
     6
100
AcDbLine
 10
1434.0
 20
310.9999999999998
 30
0.0
 11
1434.0
 21
90.99999999999977
 31
0.0
  0
LINE
  5
6DB
330
1F
100
AcDbEntity
  8
LAY-8
  6
CONTINUOUS
 62
     6
100
AcDbLine
 10
1384.0
 20
310.9999999999998
 30
0.0
 11
1384.0
 21
90.99999999999977
 31
0.0
  0
LINE
  5
6DC
330
1F
100
AcDbEntity
  8
LAY-8
  6
CONTINUOUS
 62
     6
100
AcDbLine
 10
1886.653808600001
 20
214.0029296999999
 30
0.0
 11
1963.9938965
 21
292.6998290999998
 31
0.0
  0
LINE
  5
6DD
330
1F
100
AcDbEntity
  8
LAY-8
  6
CONTINUOUS
 62
     6
100
AcDbLine
 10
1804.0
 20
310.9999999999998
 30
0.0
 11
1804.0
 21
190.9999999999998
 31
0.0
  0
TEXT
  5
6DE
330
1F
100
AcDbEntity
  8
LAY-8
  6
CONTINUOUS
 62
     2
100
AcDbText
 10
631.5000000000003
 20
264.7499999999998
 30
0.0
 40
42.5
  1
承認
 41
1.303826737967914
  7
EXCADSTD
 72
     5
 11
718.5770000000003
 21
264.7499999999998
 31
0.0
100
AcDbText
  0
TEXT
  5
6DF
330
1F
100
AcDbEntity
  8
LAY-8
  6
CONTINUOUS
 62
     2
100
AcDbText
 10
1884.5371094
 20
258.7227782999996
 30
0.0
 40
30.0
  1
１
 41
1.101333333333329
  7
EXCADSTD
 72
     5
 11
1908.1371094
 21
258.7227782999996
 31
0.0
100
AcDbText
  0
TEXT
  5
6E0
330
1F
100
AcDbEntity
  8
LAY-8
  6
CONTINUOUS
 62
     2
100
AcDbText
 10
1925.2792969
 20
214.3488464
 30
0.0
 40
30.0
  1
１０
 41
1.098531212121213
  7
EXCADSTD
 72
     5
 11
1977.0671969
 21
214.3488464
 31
0.0
100
AcDbText
  0
TEXT
  5
6E1
330
1F
100
AcDbEntity
  8
LAY-8
  6
CONTINUOUS
 62
     2
100
AcDbText
 10
1389.75
 20
254.7499999999998
 30
0.0
 40
42.5
  1
品
 41
1.12
  7
EXCADSTD
 72
     5
 11
1423.75
 21
254.7499999999998
 31
0.0
100
AcDbText
  0
TEXT
  5
6E2
330
1F
100
AcDbEntity
  8
LAY-8
  6
CONTINUOUS
 62
     2
100
AcDbText
 10
1389.75
 20
204.7499999999998
 30
0.0
 40
42.5
  1
番
 41
1.12
  7
EXCADSTD
 72
     5
 11
1423.75
 21
204.7499999999998
 31
0.0
100
AcDbText
  0
TEXT
  5
6E3
330
1F
100
AcDbEntity
  8
LAY-8
  6
CONTINUOUS
 62
     2
100
AcDbText
 10
1810.75
 20
254.7499999999998
 30
0.0
 40
42.5
  1
尺
 41
1.12
  7
EXCADSTD
 72
     5
 11
1844.75
 21
254.7499999999998
 31
0.0
100
AcDbText
  0
TEXT
  5
6E4
330
1F
100
AcDbEntity
  8
LAY-8
  6
CONTINUOUS
 62
     2
100
AcDbText
 10
1810.75
 20
204.7499999999998
 30
0.0
 40
42.5
  1
度
 41
1.12
  7
EXCADSTD
 72
     5
 11
1844.75
 21
204.7499999999998
 31
0.0
100
AcDbText
  0
TEXT
  5
6E5
330
1F
100
AcDbEntity
  8
LAY-8
  6
CONTINUOUS
 62
     2
100
AcDbText
 10
1389.75
 20
141.75
 30
0.0
 40
42.5
  1
図
 41
1.12
  7
EXCADSTD
 72
     5
 11
1423.75
 21
141.75
 31
0.0
100
AcDbText
  0
TEXT
  5
6E6
330
1F
100
AcDbEntity
  8
LAY-8
  6
CONTINUOUS
 62
     2
100
AcDbText
 10
1389.75
 20
98.74999999999977
 30
0.0
 40
42.5
  1
番
 41
1.12
  7
EXCADSTD
 72
     5
 11
1423.75
 21
98.74999999999977
 31
0.0
100
AcDbText
  0
LINE
  5
6E7
330
1F
100
AcDbEntity
  8
LAY-8
  6
CONTINUOUS
 62
     6
100
AcDbLine
 10
174.0000000000003
 20
260.9999999999998
 30
0.0
 11
744.0000000000003
 21
260.9999999999998
 31
0.0
  0
TEXT
  5
6E8
330
1F
100
AcDbEntity
  8
LAY-8
  6
CONTINUOUS
 62
     6
100
AcDbText
 10
196.500000000003
 20
176.0000000000011
 30
0.0
 40
50.0
  1
岩田
 41
1.28324
  7
EXCADSTD
 72
     5
 11
297.326000000003
 21
176.0000000000011
 31
0.0
100
AcDbText
  0
TEXT
  5
6E9
330
1F
100
AcDbEntity
  8
LAY-8
  6
CONTINUOUS
 62
     2
100
AcDbText
 10
1514.000000000005
 20
220.9999999999975
 30
0.0
 40
60.0
  1
Ｕ１２１
 41
1.065217391304348
  7
EXCADSTD
 72
     5
 11
1724.000000000005
 21
220.9999999999975
 31
0.0
100
AcDbText
  0
TEXT
  5
6EA
330
1F
100
AcDbEntity
  8
LAY-8
  6
CONTINUOUS
 62
     6
100
AcDbText
 10
180.3441156754791
 20
100.4500732000001
 30
0.0
 40
30.0
  1
'20
 41
0.4689784042553192
  7
EXCADSTD
 72
     5
 11
211.8326656754791
 21
100.4500732000001
 31
0.0
100
AcDbText
  0
TEXT
  5
6EB
330
1F
100
AcDbEntity
  8
LAY-8
  6
CONTINUOUS
 62
     6
100
AcDbText
 10
243.0691160569488
 20
100.4500732000001
 30
0.0
 40
30.0
  1
1
 41
0.7238636363636363
  7
EXCADSTD
 72
     5
 11
254.4441160569488
 21
100.4500732000001
 31
0.0
100
AcDbText
  0
TEXT
  5
6EC
330
1F
100
AcDbEntity
  8
LAY-8
  6
CONTINUOUS
 62
     6
100
AcDbText
 10
289.8941159138978
 20
100.4500732000001
 30
0.0
 40
30.0
  1
10
 41
0.408648648648649
  7
EXCADSTD
 72
     5
 11
311.4941159138979
 21
100.4500732000001
 31
0.0
100
AcDbText
  0
TEXT
  5
6ED
330
1F
100
AcDbEntity
  8
LAY-8
  6
CONTINUOUS
 62
     7
100
AcDbText
 10
1468.25
 20
106.75
 30
0.0
 40
70.0
  1
Ｕ１１２１００１
 41
1.042553191489362
  7
EXCADSTD
 72
     5
 11
1958.25
 21
106.75
 31
0.0
100
AcDbText
  0
TEXT
  5
6EE
330
1F
100
AcDbEntity
  8
LAY-8
  6
CONTINUOUS
 62
     2
100
AcDbText
 10
1261.0507812
 20
2733.0043945
 30
0.0
 40
60.0
  1
器　具　明　細
 41
1.294715447154472
  7
EXCADSTD
 72
     5
 11
1716.0507812
 21
2733.0043945
 31
0.0
100
AcDbText
  0
TEXT
  5
6EF
330
1F
100
AcDbEntity
  8
LAY-8
  6
CONTINUOUS
 62
     2
100
AcDbText
 10
1294.4003906
 20
2661.0
 30
0.0
 40
55.0
  1
品　　番
 41
1.245059288537549
  7
EXCADSTD
 72
     5
 11
1519.4003906
 21
2661.0
 31
0.0
100
AcDbText
  0
TEXT
  5
6F0
330
1F
100
AcDbEntity
  8
LAY-8
  6
CONTINUOUS
 62
     2
100
AcDbText
 10
1859.0
 20
2661.0
 30
0.0
 40
55.0
  1
個数
 41
0.9226601652892572
  7
EXCADSTD
 72
     5
 11
1938.7442
 21
2661.0
 31
0.0
100
AcDbText
  0
TEXT
  5
6F1
330
1F
100
AcDbEntity
  8
LAY-8
  6
CONTINUOUS
 62
     2
100
AcDbText
 10
1624.0170898
 20
2661.0
 30
0.0
 40
55.0
  1
品　　名
 41
0.9960474308300394
  7
EXCADSTD
 72
     5
 11
1804.0170898
 21
2661.0
 31
0.0
100
AcDbText
  0
TEXT
  5
6F2
330
1F
100
AcDbEntity
  8
LAY-8
  6
CONTINUOUS
 62
     2
100
AcDbText
 10
1879.0
 20
2534.6132812
 30
0.0
 40
47.5
  1
１
 41
1.112926243832238
  7
EXCADSTD
 72
     5
 11
1916.759997558594
 21
2534.6132812
 31
0.0
100
AcDbText
  0
TEXT
  5
6F3
330
1F
100
AcDbEntity
  8
LAY-8
  6
CONTINUOUS
 62
     2
100
AcDbText
 10
1879.0
 20
2468.4661255
 30
0.0
 40
47.5
  1
１
 41
1.112926243832238
  7
EXCADSTD
 72
     5
 11
1916.759997558594
 21
2468.4661255
 31
0.0
100
AcDbText
  0
TEXT
  5
6F4
330
1F
100
AcDbEntity
  8
LAY-8
  6
CONTINUOUS
 62
     2
100
AcDbText
 10
1879.0
 20
2599.9819336
 30
0.0
 40
47.5
  1
１
 41
1.112926243832238
  7
EXCADSTD
 72
     5
 11
1916.759997558594
 21
2599.9819336
 31
0.0
100
AcDbText
  0
LINE
  5
6F5
330
1F
100
AcDbEntity
  8
LAY-8
  6
CONTINUOUS
 62
     6
100
AcDbLine
 10
1244.0
 20
2396.0003052
 30
0.0
 11
1944.0
 21
2396.0003052
 31
0.0
  0
LINE
  5
6F6
330
1F
100
AcDbEntity
  8
LAY-8
  6
CONTINUOUS
 62
     6
100
AcDbLine
 10
1244.0
 20
2461.0003052
 30
0.0
 11
1944.0
 21
2461.0003052
 31
0.0
  0
LINE
  5
6F7
330
1F
100
AcDbEntity
  8
LAY-8
  6
CONTINUOUS
 62
     6
100
AcDbLine
 10
1244.0
 20
2526.0
 30
0.0
 11
1944.0
 21
2526.0
 31
0.0
  0
LINE
  5
6F8
330
1F
100
AcDbEntity
  8
LAY-8
  6
CONTINUOUS
 62
     6
100
AcDbLine
 10
1244.0
 20
2591.0
 30
0.0
 11
1944.0
 21
2591.0
 31
0.0
  0
LINE
  5
6F9
330
1F
100
AcDbEntity
  8
LAY-8
  6
CONTINUOUS
 62
     6
100
AcDbLine
 10
1244.0
 20
2721.0
 30
0.0
 11
1944.0
 21
2721.0
 31
0.0
  0
LINE
  5
6FA
330
1F
100
AcDbEntity
  8
LAY-8
  6
CONTINUOUS
 62
     6
100
AcDbLine
 10
1244.0
 20
2656.0
 30
0.0
 11
1944.0
 21
2656.0
 31
0.0
  0
TEXT
  5
6FB
330
1F
100
AcDbEntity
  8
LAY-8
  6
CONTINUOUS
 62
     2
100
AcDbText
 10
1246.9838562
 20
2598.4804687
 30
0.0
 40
50.0
  1
Ｕ１２１
 41
1.034782608695652
  7
EXCADSTD
 72
     5
 11
1416.9838562
 21
2598.4804687
 31
0.0
100
AcDbText
  0
TEXT
  5
6FC
330
1F
100
AcDbEntity
  8
LAY-8
  6
CONTINUOUS
 62
     2
100
AcDbText
 10
1246.9838562
 20
2533.4804687
 30
0.0
 40
50.0
  1
ＴＵ１２０
 41
1.013793103448276
  7
EXCADSTD
 72
     5
 11
1456.9838562
 21
2533.4804687
 31
0.0
100
AcDbText
  0
TEXT
  5
6FD
330
1F
100
AcDbEntity
  8
LAY-8
  6
CONTINUOUS
 62
     2
100
AcDbText
 10
1246.9838562
 20
2468.4798584
 30
0.0
 40
50.0
  1
ＪＵ６Ｔ２
 41
1.013793103448276
  7
EXCADSTD
 72
     5
 11
1456.9838562
 21
2468.4798584
 31
0.0
100
AcDbText
  0
TEXT
  5
6FE
330
1F
100
AcDbEntity
  8
LAY-8
  6
CONTINUOUS
 62
     6
100
AcDbText
 10
1672.9243164
 20
2233.0896606
 30
0.0
 40
17.5
  1
２
 41
1.28
  7
EXCADSTD
 72
     5
 11
1688.9243164
 21
2233.0896606
 31
0.0
100
AcDbText
  0
TEXT
  5
6FF
330
1F
100
AcDbEntity
  8
LAY-8
  6
CONTINUOUS
 62
     6
100
AcDbText
 10
1445.437384
 20
2135.1699219
 30
0.0
 40
17.5
  1
２
 41
1.28
  7
EXCADSTD
 72
     5
 11
1461.437384
 21
2135.1699219
 31
0.0
100
AcDbText
  0
TEXT
  5
700
330
1F
100
AcDbEntity
  8
LAY-8
  6
CONTINUOUS
 62
     2
100
AcDbText
 10
1232.3918762
 20
2152.2402039
 30
0.0
 40
45.0
  1
　　最高水圧０.７５ＭＰａ｛７.６ｋｇ
 41
0.9492260061919506
  7
EXCADSTD
 72
     5
 11
1889.3918762
 21
2152.2402039
 31
0.0
100
AcDbText
  0
TEXT
  5
701
330
1F
100
AcDbEntity
  8
LAY-8
  6
CONTINUOUS
 62
     2
100
AcDbText
 10
1232.3918762
 20
2202.2402039
 30
0.0
 40
45.0
  1
　　｛０．７Ｋｇｆ／ｃｍ}（流動時）、
 41
0.9793034825870649
  7
EXCADSTD
 72
     5
 11
1935.3918762
 21
2202.2402039
 31
0.0
100
AcDbText
  0
TEXT
  5
702
330
1F
100
AcDbEntity
  8
LAY-8
  6
CONTINUOUS
 62
     2
100
AcDbText
 10
1232.3918762
 20
2252.2402039
 30
0.0
 40
45.0
  1
注：給水には最低必要水圧０．０７ＭＰａ
 41
0.993903638151426
  7
EXCADSTD
 72
     5
 11
1954.3918762
 21
2252.2402039
 31
0.0
100
AcDbText
  0
TEXT
  5
703
330
1F
100
AcDbEntity
  8
LAY-8
  6
CONTINUOUS
 62
     2
100
AcDbText
 10
1232.3918762
 20
2104.240203900001
 30
0.0
 40
45.0
  1
　　ｆ／ｃｍ｝（静止時）を確保して
 41
0.9949394939493952
  7
EXCADSTD
 72
     5
 11
1878.3918762
 21
2104.240203900001
 31
0.0
100
AcDbText
  0
TEXT
  5
704
330
1F
100
AcDbEntity
  8
LAY-8
  6
CONTINUOUS
 62
     2
100
AcDbText
 10
1232.3918762
 20
2059.240203900001
 30
0.0
 40
45.0
  1
　　ください。
 41
1.009214092140921
  7
EXCADSTD
 72
     5
 11
1498.3918762
 21
2059.240203900001
 31
0.0
100
AcDbText
  0
LINE
  5
705
330
1F
100
AcDbEntity
  8
LAY-8
  6
CONTINUOUS
 62
     6
100
AcDbLine
 10
1244.0
 20
2331.0006104
 30
0.0
 11
1944.0
 21
2331.0006104
 31
0.0
  0
LINE
  5
706
330
1F
100
AcDbEntity
  8
LAY-8
  6
CONTINUOUS
 62
     6
100
AcDbLine
 10
1244.0
 20
2721.0
 30
0.0
 11
1244.0
 21
2331.0006104
 31
0.0
  0
LINE
  5
707
330
1F
100
AcDbEntity
  8
LAY-8
  6
CONTINUOUS
 62
     6
100
AcDbLine
 10
1574.0
 20
2721.0
 30
0.0
 11
1574.0
 21
2331.0006104
 31
0.0
  0
LINE
  5
708
330
1F
100
AcDbEntity
  8
LAY-8
  6
CONTINUOUS
 62
     6
100
AcDbLine
 10
1854.0
 20
2721.0
 30
0.0
 11
1854.0
 21
2331.0006104
 31
0.0
  0
LINE
  5
709
330
1F
100
AcDbEntity
  8
LAY-8
  6
CONTINUOUS
 62
     6
100
AcDbLine
 10
1944.0
 20
2721.0
 30
0.0
 11
1944.0
 21
2331.0006104
 31
0.0
  0
TEXT
  5
70A
330
1F
100
AcDbEntity
  8
LAY-8
  6
CONTINUOUS
 62
     2
100
AcDbText
 10
1879.0
 20
2339.381958
 30
0.0
 40
47.5
  1
４
 41
1.112926243832238
  7
EXCADSTD
 72
     5
 11
1916.759997558594
 21
2339.381958
 31
0.0
100
AcDbText
  0
TEXT
  5
70B
330
1F
100
AcDbEntity
  8
LAY-8
  6
CONTINUOUS
 62
     2
100
AcDbText
 10
1246.9838562
 20
2338.4801636
 30
0.0
 40
50.0
  1
ＮＴ７Ａカラー
 41
1.044878048780488
  7
EXCADSTD
 72
     5
 11
1552.9838562
 21
2338.4801636
 31
0.0
100
AcDbText
  0
TEXT
  5
70C
330
1F
100
AcDbEntity
  8
LAY-8
  6
CONTINUOUS
 62
     2
100
AcDbText
 10
1879.0
 20
2403.4661255
 30
0.0
 40
47.5
  1
１
 41
1.112926243832238
  7
EXCADSTD
 72
     5
 11
1916.759997558594
 21
2403.4661255
 31
0.0
100
AcDbText
  0
TEXT
  5
70D
330
1F
100
AcDbEntity
  8
LAY-8
  6
CONTINUOUS
 62
     2
100
AcDbText
 10
1246.9838562
 20
2403.4798584
 30
0.0
 40
50.0
  1
ＪＵ２
 41
1.070588235294118
  7
EXCADSTD
 72
     5
 11
1376.9838562
 21
2403.4798584
 31
0.0
100
AcDbText
  0
TEXT
  5
70E
330
1F
100
AcDbEntity
  8
LAY-8
  6
CONTINUOUS
 62
     2
100
AcDbText
 10
1577.918457
 20
2531.7788086
 30
0.0
 40
50.0
  1
Ｓトラップ
 41
0.8955172413793103
  7
EXCADSTD
 72
     5
 11
1763.418457
 21
2531.7788086
 31
0.0
100
AcDbText
  0
TEXT
  5
70F
330
1F
100
AcDbEntity
  8
LAY-8
  6
CONTINUOUS
 62
     2
100
AcDbText
 10
1577.918457000001
 20
2466.7791138
 30
0.0
 40
50.0
  1
小便器洗浄弁
 41
0.86
  7
EXCADSTD
 72
     5
 11
1792.918457000001
 21
2466.7791138
 31
0.0
100
AcDbText
  0
TEXT
  5
710
330
1F
100
AcDbEntity
  8
LAY-8
  6
CONTINUOUS
 62
     2
100
AcDbText
 10
1577.918457000001
 20
2401.7791138
 30
0.0
 40
50.0
  1
スプレッダー
 41
0.86
  7
EXCADSTD
 72
     5
 11
1792.918457000001
 21
2401.7791138
 31
0.0
100
AcDbText
  0
TEXT
  5
711
330
1F
100
AcDbEntity
  8
LAY-8
  6
CONTINUOUS
 62
     2
100
AcDbText
 10
1577.918457
 20
2336.779419
 30
0.0
 40
50.0
  1
化粧頭付木ねじ
 41
0.9253658536585366
  7
EXCADSTD
 72
     5
 11
1848.918457
 21
2336.779419
 31
0.0
100
AcDbText
  0
TEXT
  5
712
330
1F
100
AcDbEntity
  8
LAY-8
  6
CONTINUOUS
 62
     2
100
AcDbText
 10
1577.918457
 20
2596.0
 30
0.0
 40
50.0
  1
小便器
 41
1.029411764705882
  7
EXCADSTD
 72
     5
 11
1702.918457
 21
2596.0
 31
0.0
100
AcDbText
  0
TEXT
  5
713
330
1F
100
AcDbEntity
  8
LAY-8
  6
CONTINUOUS
 62
     2
100
AcDbText
 10
800.6107178000002
 20
248.9315185999999
 30
0.0
 40
57.5
  1
壁掛小便器（トラップ無）
 41
0.8778934566359979
  7
EXCADSTD
 72
     5
 11
1312.610723045209
 21
248.9315185999999
 31
0.0
100
AcDbText
  0
TEXT
  5
714
330
1F
100
AcDbEntity
  8
LAY-8
  6
CONTINUOUS
 62
     2
100
AcDbText
 10
802.6108398000001
 20
194.2713317999999
 30
0.0
 40
57.5
  1
小便器用Ｓトラップ
 41
0.886628392683472
  7
EXCADSTD
 72
     5
 11
1188.610843614697
 21
194.2713317999999
 31
0.0
100
AcDbText
  0
TEXT
  5
715
330
1F
100
AcDbEntity
  8
LAY-8
  6
CONTINUOUS
 62
     2
100
AcDbText
 10
747.75
 20
254.7499999999998
 30
0.0
 40
42.5
  1
品
 41
1.12
  7
EXCADSTD
 72
     5
 11
781.75
 21
254.7499999999998
 31
0.0
100
AcDbText
  0
TEXT
  5
716
330
1F
100
AcDbEntity
  8
LAY-8
  6
CONTINUOUS
 62
     2
100
AcDbText
 10
747.75
 20
204.7499999999998
 30
0.0
 40
42.5
  1
名
 41
1.12
  7
EXCADSTD
 72
     5
 11
781.75
 21
204.7499999999998
 31
0.0
100
AcDbText
  0
LINE
  5
717
330
1F
100
AcDbEntity
  8
LAY-8
  6
CONTINUOUS
 62
     6
100
AcDbLine
 10
794.0
 20
310.9999999999998
 30
0.0
 11
794.0
 21
190.9999999999998
 31
0.0
  0
ENDSEC
  0
SECTION
  2
OBJECTS
  0
DICTIONARY
  5
C
330
0
100
AcDbDictionary
  3
ACAD_GROUP
350
D
  3
ACAD_LAYOUT
350
1A
  3
ACAD_MATERIAL
350
3B
  3
ACAD_MLEADERSTYLE
350
73A
  3
ACAD_MLINESTYLE
350
17
  3
ACAD_PLOTSETTINGS
350
19
  3
ACAD_VISUALSTYLE
350
2A
  3
ACDBHEADERROUNDTRIPXREC
350
718
  3
ACDBVARIABLEDICTIONARY
350
738
  0
DICTIONARY
  5
D
102
{ACAD_REACTORS
330
C
102
}
330
C
100
AcDbDictionary
  0
DICTIONARY
  5
1A
102
{ACAD_REACTORS
330
C
102
}
330
C
100
AcDbDictionary
  0
DICTIONARY
  5
3B
102
{ACAD_REACTORS
330
C
102
}
330
C
100
AcDbDictionary
  3
BYBLOCK
350
3D
  3
BYLAYER
350
3C
  3
GLOBAL
350
3E
  0
DICTIONARY
  5
73A
102
{ACAD_REACTORS
330
C
102
}
330
C
100
AcDbDictionary
  0
DICTIONARY
  5
17
102
{ACAD_REACTORS
330
C
102
}
330
C
100
AcDbDictionary
  3
STANDARD
350
18
  0
DICTIONARY
  5
19
102
{ACAD_REACTORS
330
C
102
}
330
C
100
AcDbDictionary
  0
DICTIONARY
  5
2A
102
{ACAD_REACTORS
330
C
102
}
330
C
100
AcDbDictionary
  3
2DWIREFRAME
350
2F
  3
3D_HIDDEN
350
31
  3
3DWIREFRAME
350
30
  3
BASIC
350
32
  3
BRIGHTEN
350
36
  3
COLORCHANGE
350
3A
  3
CONCEPTUAL
350
34
  3
DIM
350
35
  3
FACEPATTERN
350
39
  3
FLAT
350
2B
  3
FLATWITHEDGES
350
2C
  3
GOURAUD
350
2D
  3
GOURAUDWITHEDGES
350
2E
  3
LINEPATTERN
350
38
  3
REALISTIC
350
33
  3
THICKEN
350
37
  0
DICTIONARY
  5
718
102
{ACAD_REACTORS
330
C
102
}
330
C
100
AcDbDictionary
  3
CEPSNTYPE
350
721
  3
DIMSTYLEDATA
350
737
  3
FINGERPRINTGUID
350
722
  3
HYPERLINKBASE
350
71B
  3
INSUNITS
350
720
  3
LAYOUTDICT
350
71D
  3
LWETCUNION
350
71F
  3
PLOTSETDICT
350
71E
  3
PSVPSCALE
350
724
  3
PUCSBASE
350
727
  3
PUCSORGBACK
350
72D
  3
PUCSORGBOTTOM
350
729
  3
PUCSORGFRONT
350
72C
  3
PUCSORGLEFT
350
72A
  3
PUCSORGRIGHT
350
72B
  3
PUCSORGTOP
350
728
  3
PUCSORTHOREF
350
725
  3
PUCSORTHOVIEW
350
726
  3
STYLESHEET
350
71C
  3
TSTACKALIGN
350
719
  3
TSTACKSIZE
350
71A
  3
UCSBASE
350
730
  3
UCSORGBACK
350
736
  3
UCSORGBOTTOM
350
732
  3
UCSORGFRONT
350
735
  3
UCSORGLEFT
350
733
  3
UCSORGRIGHT
350
734
  3
UCSORGTOP
350
731
  3
UCSORTHOREF
350
72E
  3
UCSORTHOVIEW
350
72F
  3
VERSIONGUID
350
723
  0
DICTIONARY
  5
738
102
{ACAD_REACTORS
330
C
102
}
330
C
100
AcDbDictionary
  3
DIMASSOC
350
73D
  3
HIDETEXT
350
73E
  3
PSOLHEIGHT
350
73C
  3
PSOLWIDTH
350
73B
  0
MATERIAL
  5
3D
102
{ACAD_REACTORS
330
3B
102
}
102
{ACAD_XDICTIONARY
360
741
102
}
330
3B
100
AcDbMaterial
  1
ByBlock
  0
MATERIAL
  5
3C
102
{ACAD_REACTORS
330
3B
102
}
102
{ACAD_XDICTIONARY
360
73F
102
}
330
3B
100
AcDbMaterial
  1
ByLayer
  0
MATERIAL
  5
3E
102
{ACAD_REACTORS
330
3B
102
}
102
{ACAD_XDICTIONARY
360
743
102
}
330
3B
100
AcDbMaterial
  1
Global
  0
MLINESTYLE
  5
18
102
{ACAD_REACTORS
330
17
102
}
330
17
100
AcDbMlineStyle
  2
Standard
 70
     0
  3

 62
   256
 51
90.0
 52
90.0
 71
     2
 49
0.5
 62
   256
  6
BYLAYER
 49
-0.5
 62
   256
  6
BYLAYER
  0
ACAD_PROXY_OBJECT
  5
2F
102
{ACAD_REACTORS
330
2A
102
}
330
2A
100
AcDbProxyObject
 90
      499
 91
      501
 93
      436
310
42CC9915DA5C99599C985B595049028333333333333E3BF0000000000000FB0107901411070040501600405405064090741402480A0340
1001
ACAD
1000
AcDbSavedByObjectVersion
1070
     0
  0
ACAD_PROXY_OBJECT
  5
31
102
{ACAD_REACTORS
330
2A
102
}
330
2A
100
AcDbProxyObject
 90
      499
 91
      501
 93
      500
310
424CD108121A5919195B90640502408333333333333E3BF0000000000000FB01079024090700405020000000000001110200405405064090740C02480A0340
1001
ACAD
1000
AcDbSavedByObjectVersion
1070
     0
  0
ACAD_PROXY_OBJECT
  5
30
102
{ACAD_REACTORS
330
2A
102
}
330
2A
100
AcDbProxyObject
 90
      499
 91
      501
 93
      436
310
42CCD915DA5C99599C985B595059028333333333333E3BF0000000000000FB0107901411070040501600405405064090741402480A0340
1001
ACAD
1000
AcDbSavedByObjectVersion
1070
     0
  0
ACAD_PROXY_OBJECT
  5
32
102
{ACAD_REACTORS
330
2A
102
}
330
2A
100
AcDbProxyObject
 90
      499
 91
      501
 93
      388
310
4150985CDA58D07406404333333333333E3BF0000000000000FB0107A41107004050150841D405064090741402480A0350
1001
ACAD
1000
AcDbSavedByObjectVersion
1070
     0
  0
ACAD_PROXY_OBJECT
  5
36
102
{ACAD_REACTORS
330
2A
102
}
330
2A
100
AcDbProxyObject
 90
      499
 91
      501
 93
      428
310
42109C9A59DA1D195B90C409028333333333333E3BF0000000000000FB010790141107004050150841D405064090741402480A029950
1001
ACAD
1000
AcDbSavedByObjectVersion
1070
     0
  0
ACAD_PROXY_OBJECT
  5
3A
102
{ACAD_REACTORS
330
2A
102
}
330
2A
100
AcDbProxyObject
 90
      499
 91
      501
 93
      452
310
42D0DBDB1BDC90DA185B99D95104090240C333333333333E3BF0000000000000FB0108901411070040501508421405064090741402480A0350
1001
ACAD
1000
AcDbSavedByObjectVersion
1070
     0
  0
ACAD_PROXY_OBJECT
  5
34
102
{ACAD_REACTORS
330
2A
102
}
330
2A
100
AcDbProxyObject
 90
      499
 91
      501
 93
      500
310
4290DBDB98D95C1D1D585B10940D028333333333333E3BF0000000000000FB0107902409070040501000000000000111010841D405064090740C02480A0340
1001
ACAD
1000
AcDbSavedByObjectVersion
1070
     0
  0
ACAD_PROXY_OBJECT
  5
35
102
{ACAD_REACTORS
330
2A
102
}
330
2A
100
AcDbProxyObject
 90
      499
 91
      501
 93
      412
310
40D11A5B50B409028333333333333E3BF0000000000000FB010790141107004050150841D405064090741402480A02677FFFFFD0
1001
ACAD
1000
AcDbSavedByObjectVersion
1070
     0
  0
ACAD_PROXY_OBJECT
  5
39
102
{ACAD_REACTORS
330
2A
102
}
330
2A
100
AcDbProxyObject
 90
      499
 91
      501
 93
      444
310
42D19858D95C185D1D195C9B90F409028333333333333E3BF0000000000000FB010790141107004050150841D405064090741402480A0350
1001
ACAD
1000
AcDbSavedByObjectVersion
1070
     0
  0
ACAD_PROXY_OBJECT
  5
2B
102
{ACAD_REACTORS
330
2A
102
}
330
2A
100
AcDbProxyObject
 90
      499
 91
      501
 93
      388
310
41119B185D240901404333333333333E3BF0000000000000F9010740A41107004050150841D405064090741402480A1B50
1001
ACAD
1000
AcDbSavedByObjectVersion
1070
     0
  0
ACAD_PROXY_OBJECT
  5
2C
102
{ACAD_REACTORS
330
2A
102
}
330
2A
100
AcDbProxyObject
 90
      499
 91
      501
 93
      476
310
43519B185D15DA5D1A115919D95CD0140901404333333333333E3BF0000000000000F9010740901411070040501600405405064090741402480A1B50
1001
ACAD
1000
AcDbSavedByObjectVersion
1070
     0
  0
ACAD_PROXY_OBJECT
  5
2D
102
{ACAD_REACTORS
330
2A
102
}
330
2A
100
AcDbProxyObject
 90
      499
 91
      501
 93
      412
310
41D1DBDD5C985D5910240902404333333333333E3BF0000000000000F9010740A411070040501641D405064090741402480A1B50
1001
ACAD
1000
AcDbSavedByObjectVersion
1070
     0
  0
ACAD_PROXY_OBJECT
  5
2E
102
{ACAD_REACTORS
330
2A
102
}
330
2A
100
AcDbProxyObject
 90
      499
 91
      501
 93
      500
310
4411DBDD5C985D5915DA5D1A115919D95CD0340902404333333333333E3BF0000000000000F9010740901411070040501600405405064090741402480A1B50
1001
ACAD
1000
AcDbSavedByObjectVersion
1070
     0
  0
ACAD_PROXY_OBJECT
  5
38
102
{ACAD_REACTORS
330
2A
102
}
330
2A
100
AcDbProxyObject
 90
      499
 91
      501
 93
      444
310
42D31A5B995C185D1D195C9B90E409028333333333333E3BF0000000000000FB010790141107004050750841D405064090741402483A0350
1001
ACAD
1000
AcDbSavedByObjectVersion
1070
     0
  0
ACAD_PROXY_OBJECT
  5
33
102
{ACAD_REACTORS
330
2A
102
}
330
2A
100
AcDbProxyObject
 90
      499
 91
      501
 93
      420
310
425499585B1A5CDD1A58D08409028333333333333E3BF0000000000000FB01079019070040501508421405064090741402480A1B40
1001
ACAD
1000
AcDbSavedByObjectVersion
1070
     0
  0
ACAD_PROXY_OBJECT
  5
37
102
{ACAD_REACTORS
330
2A
102
}
330
2A
100
AcDbProxyObject
 90
      499
 91
      501
 93
      412
310
41D51A1A58DAD95B90D409028333333333333E3BF0000000000000FB010790141107004050150C41D405064090741402480A0350
1001
ACAD
1000
AcDbSavedByObjectVersion
1070
     0
  0
XRECORD
  5
721
102
{ACAD_REACTORS
330
718
102
}
330
718
100
AcDbXrecord
 90
        0
  0
XRECORD
  5
737
102
{ACAD_REACTORS
330
718
102
}
330
718
100
AcDbXrecord
1000
DSTYLE
1002
{
1070
   340
340
11
1002
}
  0
XRECORD
  5
722
102
{ACAD_REACTORS
330
718
102
}
330
718
100
AcDbXrecord
  1
{1F10EA02-8C60-4F62-BD32-419851EE664A}
  0
XRECORD
  5
71B
102
{ACAD_REACTORS
330
718
102
}
330
718
100
AcDbXrecord
  1

  0
XRECORD
  5
720
102
{ACAD_REACTORS
330
718
102
}
330
718
100
AcDbXrecord
 90
        4
  0
XRECORD
  5
71D
102
{ACAD_REACTORS
330
718
102
}
330
718
100
AcDbXrecord
340
1A
  0
XRECORD
  5
71F
102
{ACAD_REACTORS
330
718
102
}
330
718
100
AcDbXrecord
 90
    10781
  0
XRECORD
  5
71E
102
{ACAD_REACTORS
330
718
102
}
330
718
100
AcDbXrecord
340
19
  0
XRECORD
  5
724
102
{ACAD_REACTORS
330
718
102
}
330
718
100
AcDbXrecord
 40
0.0
  0
XRECORD
  5
727
102
{ACAD_REACTORS
330
718
102
}
330
718
100
AcDbXrecord
340
0
  0
XRECORD
  5
72D
102
{ACAD_REACTORS
330
718
102
}
330
718
100
AcDbXrecord
 10
0.0
 20
0.0
 30
0.0
  0
XRECORD
  5
729
102
{ACAD_REACTORS
330
718
102
}
330
718
100
AcDbXrecord
 10
0.0
 20
0.0
 30
0.0
  0
XRECORD
  5
72C
102
{ACAD_REACTORS
330
718
102
}
330
718
100
AcDbXrecord
 10
0.0
 20
0.0
 30
0.0
  0
XRECORD
  5
72A
102
{ACAD_REACTORS
330
718
102
}
330
718
100
AcDbXrecord
 10
0.0
 20
0.0
 30
0.0
  0
XRECORD
  5
72B
102
{ACAD_REACTORS
330
718
102
}
330
718
100
AcDbXrecord
 10
0.0
 20
0.0
 30
0.0
  0
XRECORD
  5
728
102
{ACAD_REACTORS
330
718
102
}
330
718
100
AcDbXrecord
 10
0.0
 20
0.0
 30
0.0
  0
XRECORD
  5
725
102
{ACAD_REACTORS
330
718
102
}
330
718
100
AcDbXrecord
340
0
  0
XRECORD
  5
726
102
{ACAD_REACTORS
330
718
102
}
330
718
100
AcDbXrecord
 70
     0
  0
XRECORD
  5
71C
102
{ACAD_REACTORS
330
718
102
}
330
718
100
AcDbXrecord
  1

  0
XRECORD
  5
719
102
{ACAD_REACTORS
330
718
102
}
330
718
100
AcDbXrecord
 90
        1
  0
XRECORD
  5
71A
102
{ACAD_REACTORS
330
718
102
}
330
718
100
AcDbXrecord
 90
       70
  0
XRECORD
  5
730
102
{ACAD_REACTORS
330
718
102
}
330
718
100
AcDbXrecord
340
0
  0
XRECORD
  5
736
102
{ACAD_REACTORS
330
718
102
}
330
718
100
AcDbXrecord
 10
0.0
 20
0.0
 30
0.0
  0
XRECORD
  5
732
102
{ACAD_REACTORS
330
718
102
}
330
718
100
AcDbXrecord
 10
0.0
 20
0.0
 30
0.0
  0
XRECORD
  5
735
102
{ACAD_REACTORS
330
718
102
}
330
718
100
AcDbXrecord
 10
0.0
 20
0.0
 30
0.0
  0
XRECORD
  5
733
102
{ACAD_REACTORS
330
718
102
}
330
718
100
AcDbXrecord
 10
0.0
 20
0.0
 30
0.0
  0
XRECORD
  5
734
102
{ACAD_REACTORS
330
718
102
}
330
718
100
AcDbXrecord
 10
0.0
 20
0.0
 30
0.0
  0
XRECORD
  5
731
102
{ACAD_REACTORS
330
718
102
}
330
718
100
AcDbXrecord
 10
0.0
 20
0.0
 30
0.0
  0
XRECORD
  5
72E
102
{ACAD_REACTORS
330
718
102
}
330
718
100
AcDbXrecord
340
0
  0
XRECORD
  5
72F
102
{ACAD_REACTORS
330
718
102
}
330
718
100
AcDbXrecord
 70
     0
  0
XRECORD
  5
723
102
{ACAD_REACTORS
330
718
102
}
330
718
100
AcDbXrecord
  1
{FAEB1C32-E019-11D5-929B-00C0DF256EC4}
  0
DICTIONARYVAR
  5
73D
102
{ACAD_REACTORS
330
738
102
}
330
738
100
DictionaryVariables
280
     0
  1
2
  0
DICTIONARYVAR
  5
73E
102
{ACAD_REACTORS
330
738
102
}
330
738
100
DictionaryVariables
280
     0
  1
1
  0
DICTIONARYVAR
  5
73C
102
{ACAD_REACTORS
330
738
102
}
330
738
100
DictionaryVariables
280
     0
  1
80.000000
  0
DICTIONARYVAR
  5
73B
102
{ACAD_REACTORS
330
738
102
}
330
738
100
DictionaryVariables
280
     0
  1
5.000000
  0
DICTIONARY
  5
741
330
3D
100
AcDbDictionary
280
     1
  3
ACAD_XREC_ROUNDTRIP
360
742
  0
DICTIONARY
  5
73F
330
3C
100
AcDbDictionary
280
     1
  3
ACAD_XREC_ROUNDTRIP
360
740
  0
DICTIONARY
  5
743
330
3E
100
AcDbDictionary
280
     1
  3
ACAD_XREC_ROUNDTRIP
360
744
  0
XRECORD
  5
742
102
{ACAD_REACTORS
330
741
102
}
330
741
100
AcDbXrecord
102
MATERIAL
148
0.0
149
0.0
149
0.0
 93
        0
 94
      127
282
     0
 72
     1
 77
     1
171
     1
175
     1
179
     1
273
     0
  0
XRECORD
  5
740
102
{ACAD_REACTORS
330
73F
102
}
330
73F
100
AcDbXrecord
102
MATERIAL
148
0.0
149
0.0
149
0.0
 93
        0
 94
      127
282
     0
 72
     1
 77
     1
171
     1
175
     1
179
     1
273
     0
  0
XRECORD
  5
744
102
{ACAD_REACTORS
330
743
102
}
330
743
100
AcDbXrecord
102
MATERIAL
148
0.0
149
0.0
149
0.0
 93
        0
 94
      127
282
     0
 72
     1
 77
     1
171
     1
175
     1
179
     1
273
     0
  0
ENDSEC
  0
EOF
