  0
SECTION
  2
HEADER
  9
$ACADVER
  1
AC1014
  9
$ACADMAINTVER
 70
     9
  9
$DWGCODEPAGE
  3
ANSI_932
  9
$INSBASE
 10
0.0
 20
0.0
 30
0.0
  9
$EXTMIN
 10
17.9
 20
11.5
 30
0.0
  9
$EXTMAX
 10
199.9
 20
291.5
 30
0.0
  9
$LIMMIN
 10
0.0
 20
0.0
  9
$LIMMAX
 10
210.0
 20
297.0
  9
$ORTHOMODE
 70
     0
  9
$REGENMODE
 70
     1
  9
$FILLMODE
 70
     1
  9
$QTEXTMODE
 70
     0
  9
$MIRRTEXT
 70
     1
  9
$DRAGMODE
 70
     2
  9
$LTSCALE
 40
1.0
  9
$OSMODE
 70
    37
  9
$ATTMODE
 70
     1
  9
$TEXTSIZE
 40
2.5
  9
$TRACEWID
 40
1.0
  9
$TEXTSTYLE
  7
STANDARD
  9
$CLAYER
  8
寸法
  9
$CELTYPE
  6
BYLAYER
  9
$CECOLOR
 62
   256
  9
$CELTSCALE
 40
1.0
  9
$DELOBJ
 70
     1
  9
$DISPSILH
 70
     0
  9
$DIMSCALE
 40
1.0
  9
$DIMASZ
 40
2.5
  9
$DIMEXO
 40
0.625
  9
$DIMDLI
 40
3.75
  9
$DIMRND
 40
0.0
  9
$DIMDLE
 40
0.0
  9
$DIMEXE
 40
1.25
  9
$DIMTP
 40
0.0
  9
$DIMTM
 40
0.0
  9
$DIMTXT
 40
2.5
  9
$DIMCEN
 40
2.5
  9
$DIMTSZ
 40
0.0
  9
$DIMTOL
 70
     0
  9
$DIMLIM
 70
     0
  9
$DIMTIH
 70
     0
  9
$DIMTOH
 70
     0
  9
$DIMSE1
 70
     0
  9
$DIMSE2
 70
     0
  9
$DIMTAD
 70
     1
  9
$DIMZIN
 70
     8
  9
$DIMBLK
  1

  9
$DIMASO
 70
     1
  9
$DIMSHO
 70
     1
  9
$DIMPOST
  1

  9
$DIMAPOST
  1

  9
$DIMALT
 70
     0
  9
$DIMALTD
 70
     3
  9
$DIMALTF
 40
0.03937007874016
  9
$DIMLFAC
 40
1.0
  9
$DIMTOFL
 70
     1
  9
$DIMTVP
 40
0.0
  9
$DIMTIX
 70
     0
  9
$DIMSOXD
 70
     0
  9
$DIMSAH
 70
     0
  9
$DIMBLK1
  1

  9
$DIMBLK2
  1

  9
$DIMSTYLE
  2
ISO-25
  9
$DIMCLRD
 70
     0
  9
$DIMCLRE
 70
     0
  9
$DIMCLRT
 70
     0
  9
$DIMTFAC
 40
1.0
  9
$DIMGAP
 40
0.625
  9
$DIMJUST
 70
     0
  9
$DIMSD1
 70
     0
  9
$DIMSD2
 70
     0
  9
$DIMTOLJ
 70
     0
  9
$DIMTZIN
 70
     8
  9
$DIMALTZ
 70
     0
  9
$DIMALTTZ
 70
     0
  9
$DIMFIT
 70
     3
  9
$DIMUPT
 70
     0
  9
$DIMUNIT
 70
     2
  9
$DIMDEC
 70
     2
  9
$DIMTDEC
 70
     2
  9
$DIMALTU
 70
     2
  9
$DIMALTTD
 70
     3
  9
$DIMTXSTY
  7
STANDARD
  9
$DIMAUNIT
 70
     0
  9
$LUNITS
 70
     2
  9
$LUPREC
 70
     4
  9
$SKETCHINC
 40
1.0
  9
$FILLETRAD
 40
10.0
  9
$AUNITS
 70
     0
  9
$AUPREC
 70
     0
  9
$MENU
  1
.
  9
$ELEVATION
 40
0.0
  9
$PELEVATION
 40
0.0
  9
$THICKNESS
 40
0.0
  9
$LIMCHECK
 70
     0
  9
$CHAMFERA
 40
10.0
  9
$CHAMFERB
 40
10.0
  9
$CHAMFERC
 40
20.0
  9
$CHAMFERD
 40
0.0
  9
$SKPOLY
 70
     0
  9
$TDCREATE
 40
2457535.37123316
  9
$TDUPDATE
 40
2457535.371234421
  9
$TDINDWG
 40
0.0000000116
  9
$TDUSRTIMER
 40
0.0000000116
  9
$USRTIMER
 70
     1
  9
$ANGBASE
 50
0.0
  9
$ANGDIR
 70
     0
  9
$PDMODE
 70
     0
  9
$PDSIZE
 40
0.0
  9
$PLINEWID
 40
0.0
  9
$COORDS
 70
     1
  9
$SPLFRAME
 70
     0
  9
$SPLINETYPE
 70
     6
  9
$SPLINESEGS
 70
     8
  9
$ATTDIA
 70
     0
  9
$ATTREQ
 70
     1
  9
$HANDLING
 70
     1
  9
$HANDSEED
  5
4B1
  9
$SURFTAB1
 70
     6
  9
$SURFTAB2
 70
     6
  9
$SURFTYPE
 70
     6
  9
$SURFU
 70
     6
  9
$SURFV
 70
     6
  9
$UCSNAME
  2

  9
$UCSORG
 10
0.0
 20
0.0
 30
0.0
  9
$UCSXDIR
 10
1.0
 20
0.0
 30
0.0
  9
$UCSYDIR
 10
0.0
 20
1.0
 30
0.0
  9
$PUCSNAME
  2

  9
$PUCSORG
 10
0.0
 20
0.0
 30
0.0
  9
$PUCSXDIR
 10
1.0
 20
0.0
 30
0.0
  9
$PUCSYDIR
 10
0.0
 20
1.0
 30
0.0
  9
$USERI1
 70
     0
  9
$USERI2
 70
     0
  9
$USERI3
 70
     0
  9
$USERI4
 70
     0
  9
$USERI5
 70
     0
  9
$USERR1
 40
0.0
  9
$USERR2
 40
0.0
  9
$USERR3
 40
0.0
  9
$USERR4
 40
0.0
  9
$USERR5
 40
0.0
  9
$WORLDVIEW
 70
     1
  9
$SHADEDGE
 70
     3
  9
$SHADEDIF
 70
    70
  9
$TILEMODE
 70
     1
  9
$MAXACTVP
 70
    64
  9
$PINSBASE
 10
0.0
 20
0.0
 30
0.0
  9
$PLIMCHECK
 70
     0
  9
$PEXTMIN
 10
1.000000000000000E+20
 20
1.000000000000000E+20
 30
1.000000000000000E+20
  9
$PEXTMAX
 10
-1.000000000000000E+20
 20
-1.000000000000000E+20
 30
-1.000000000000000E+20
  9
$PLIMMIN
 10
0.0
 20
0.0
  9
$PLIMMAX
 10
420.0
 20
297.0
  9
$UNITMODE
 70
     0
  9
$VISRETAIN
 70
     1
  9
$PLINEGEN
 70
     0
  9
$PSLTSCALE
 70
     1
  9
$TREEDEPTH
 70
  3020
  9
$PICKSTYLE
 70
     1
  9
$CMLSTYLE
  2
STANDARD
  9
$CMLJUST
 70
     0
  9
$CMLSCALE
 40
20.0
  9
$PROXYGRAPHICS
 70
     1
  9
$MEASUREMENT
 70
     1
  0
ENDSEC
  0
SECTION
  2
CLASSES
  0
CLASS
  1
ACDBDICTIONARYWDFLT
  2
AcDbDictionaryWithDefault
  3
ObjectDBX Classes
 90
        0
280
     0
281
     0
  0
CLASS
  1
VISUALSTYLE
  2
AcDbVisualStyle
  3
ObjectDBX Classes
 90
     4095
280
     0
281
     0
  0
CLASS
  1
MATERIAL
  2
AcDbMaterial
  3
ObjectDBX Classes
 90
     1153
280
     0
281
     0
  0
CLASS
  1
SUN
  2
AcDbSun
  3
SCENEOE
 90
     1024
280
     0
281
     0
  0
CLASS
  1
DICTIONARYVAR
  2
AcDbDictionaryVar
  3
ObjectDBX Classes
 90
        0
280
     0
281
     0
  0
CLASS
  1
XRECORD
  2
AcDbXrecord
  3
AutoCAD 2000
 90
        0
280
     0
281
     0
  0
CLASS
  1
LWPOLYLINE
  2
AcDbPolyline
  3
AutoCAD 2000
 90
        0
280
     0
281
     1
  0
CLASS
  1
HATCH
  2
AcDbHatch
  3
AutoCAD 2000
 90
        0
280
     0
281
     1
  0
CLASS
  1
ACDBPLACEHOLDER
  2
AcDbPlaceHolder
  3
ObjectDBX Classes
 90
        0
280
     0
281
     0
  0
CLASS
  1
LAYOUT
  2
AcDbLayout
  3
ObjectDBX Classes
 90
        0
280
     0
281
     0
  0
ENDSEC
  0
SECTION
  2
TABLES
  0
TABLE
  2
VPORT
  5
8
330
0
100
AcDbSymbolTable
 70
     1
  0
VPORT
  5
29
330
8
100
AcDbSymbolTableRecord
100
AcDbViewportTableRecord
  2
*ACTIVE
 70
     0
 10
0.0
 20
0.0
 11
1.0
 21
1.0
 12
1089.0
 22
1515.0
 13
0.0
 23
0.0
 14
10.0
 24
10.0
 15
10.0
 25
10.0
 16
0.0
 26
0.0
 36
1.0
 17
0.0
 27
0.0
 37
0.0
 40
2800.0
 41
0.6500000000000001
 42
50.0
 43
0.0
 44
0.0
 50
0.0
 51
0.0
 71
     0
 72
  1000
 73
     1
 74
     3
 75
     0
 76
     0
 77
     0
 78
     0
  0
ENDTAB
  0
TABLE
  2
LTYPE
  5
5
330
0
100
AcDbSymbolTable
 70
     7
  0
LTYPE
  5
14
330
5
100
AcDbSymbolTableRecord
100
AcDbLinetypeTableRecord
  2
BYBLOCK
 70
     0
  3

 72
    65
 73
     0
 40
0.0
  0
LTYPE
  5
15
330
5
100
AcDbSymbolTableRecord
100
AcDbLinetypeTableRecord
  2
BYLAYER
 70
     0
  3

 72
    65
 73
     0
 40
0.0
  0
LTYPE
  5
16
330
5
100
AcDbSymbolTableRecord
100
AcDbLinetypeTableRecord
  2
CONTINUOUS
 70
     0
  3
Solid line
 72
    65
 73
     0
 40
0.0
  0
LTYPE
  5
40
330
5
100
AcDbSymbolTableRecord
100
AcDbLinetypeTableRecord
  2
EXLTYPE1
 70
     0
  3
破線
 72
    65
 73
     2
 40
3.0
 49
2.0
 74
     0
 49
-1.0
 74
     0
  0
LTYPE
  5
41
330
5
100
AcDbSymbolTableRecord
100
AcDbLinetypeTableRecord
  2
EXLTYPE2
 70
     0
  3
点線
 72
    65
 73
     2
 40
2.0
 49
1.0
 74
     0
 49
-1.0
 74
     0
  0
LTYPE
  5
42
330
5
100
AcDbSymbolTableRecord
100
AcDbLinetypeTableRecord
  2
EXLTYPE3
 70
     0
  3
一点鎖線
 72
    65
 73
     4
 40
10.0
 49
7.0
 74
     0
 49
-1.0
 74
     0
 49
1.0
 74
     0
 49
-1.0
 74
     0
  0
LTYPE
  5
43
330
5
100
AcDbSymbolTableRecord
100
AcDbLinetypeTableRecord
  2
EXLTYPE4
 70
     0
  3
二点鎖線
 72
    65
 73
     6
 40
12.0
 49
7.0
 74
     0
 49
-1.0
 74
     0
 49
1.0
 74
     0
 49
-1.0
 74
     0
 49
1.0
 74
     0
 49
-1.0
 74
     0
  0
LTYPE
  5
44
330
5
100
AcDbSymbolTableRecord
100
AcDbLinetypeTableRecord
  2
EXLTYPE5
 70
     0
  3
三点鎖線
 72
    65
 73
     8
 40
37.0
 49
30.0
 74
     0
 49
-1.0
 74
     0
 49
1.0
 74
     0
 49
-1.0
 74
     0
 49
1.0
 74
     0
 49
-1.0
 74
     0
 49
1.0
 74
     0
 49
-1.0
 74
     0
  0
LTYPE
  5
45
330
5
100
AcDbSymbolTableRecord
100
AcDbLinetypeTableRecord
  2
EXLTYPE6
 70
     0
  3
四点鎖線
 72
    65
 73
    10
 40
39.0
 49
30.0
 74
     0
 49
-1.0
 74
     0
 49
1.0
 74
     0
 49
-1.0
 74
     0
 49
1.0
 74
     0
 49
-1.0
 74
     0
 49
1.0
 74
     0
 49
-1.0
 74
     0
 49
1.0
 74
     0
 49
-1.0
 74
     0
  0
ENDTAB
  0
TABLE
  2
LAYER
  5
2
330
0
100
AcDbSymbolTable
 70
     6
  0
LAYER
  5
10
330
2
100
AcDbSymbolTableRecord
100
AcDbLayerTableRecord
  2
0
 70
     0
 62
     7
  6
CONTINUOUS
  0
LAYER
  5
48
330
2
100
AcDbSymbolTableRecord
100
AcDbLayerTableRecord
  2
枠
 70
     0
 62
     7
  6
CONTINUOUS
  0
LAYER
  5
49
330
2
100
AcDbSymbolTableRecord
100
AcDbLayerTableRecord
  2
スト_ル
 70
     0
 62
     7
  6
CONTINUOUS
  0
LAYER
  5
4A
330
2
100
AcDbSymbolTableRecord
100
AcDbLayerTableRecord
  2
寸法
 70
     0
 62
     7
  6
CONTINUOUS
  0
LAYER
  5
4B
330
2
100
AcDbSymbolTableRecord
100
AcDbLayerTableRecord
  2
器具明細表
 70
     0
 62
     7
  6
CONTINUOUS
  0
LAYER
  5
2CC
330
2
100
AcDbSymbolTableRecord
100
AcDbLayerTableRecord
  2
DEFPOINTS
 70
     0
 62
     7
  6
CONTINUOUS
  0
ENDTAB
  0
TABLE
  2
STYLE
  5
3
330
0
100
AcDbSymbolTable
 70
     5
  0
STYLE
  5
11
330
3
100
AcDbSymbolTableRecord
100
AcDbTextStyleTableRecord
  2
STANDARD
 70
     0
 40
0.0
 41
1.0
 50
0.0
 71
     0
 42
2.5
  3
monotxt
  4
extfont
  0
STYLE
  5
46
330
3
100
AcDbSymbolTableRecord
100
AcDbTextStyleTableRecord
  2
EXCADSTD
 70
     0
 40
0.0
 41
1.0
 50
0.0
 71
     0
 42
0.2
  3
monotxt
  4
extfont
  0
STYLE
  5
47
330
3
100
AcDbSymbolTableRecord
100
AcDbTextStyleTableRecord
  2
EXCADVERT
 70
     4
 40
0.0
 41
1.0
 50
0.0
 71
     0
 42
0.286885
  3
monotxt
  4
extfont
  0
STYLE
  5
2CA
330
3
100
AcDbSymbolTableRecord
100
AcDbTextStyleTableRecord
  2
EXCADDIM1
 70
     0
 40
0.0
 41
0.95
 50
0.0
 71
     0
 42
0.2
  3
monotxt
  4
extfont
  0
STYLE
  5
2D9
330
3
100
AcDbSymbolTableRecord
100
AcDbTextStyleTableRecord
  2
EXCADDIM2
 70
     0
 40
0.0
 41
0.84
 50
0.0
 71
     0
 42
0.2
  3
monotxt
  4
extfont
  0
ENDTAB
  0
TABLE
  2
VIEW
  5
6
330
0
100
AcDbSymbolTable
 70
     0
  0
ENDTAB
  0
TABLE
  2
UCS
  5
7
330
0
100
AcDbSymbolTable
 70
     0
  0
ENDTAB
  0
TABLE
  2
APPID
  5
9
330
0
100
AcDbSymbolTable
 70
     1
  0
APPID
  5
12
330
9
100
AcDbSymbolTableRecord
100
AcDbRegAppTableRecord
  2
ACAD
 70
     0
  0
ENDTAB
  0
TABLE
  2
DIMSTYLE
  5
A
330
0
100
AcDbSymbolTable
 70
     1
  0
DIMSTYLE
105
27
102
{ACAD_REACTORS
330
2CB
330
2DA
330
38D
330
3C0
330
3D2
330
455
102
}
330
A
100
AcDbSymbolTableRecord
100
AcDbDimStyleTableRecord
  2
ISO-25
 70
     0
  3

  4

  5

  6

  7

 40
1.0
 41
2.5
 42
0.625
 43
3.75
 44
1.25
 45
0.0
 46
0.0
 47
0.0
 48
0.0
140
2.5
141
2.5
142
0.0
143
0.03937007874016
144
1.0
145
0.0
146
1.0
147
0.625
 71
     0
 72
     0
 73
     0
 74
     0
 75
     0
 76
     0
 77
     1
 78
     8
170
     0
171
     3
172
     1
173
     0
174
     0
175
     0
176
     0
177
     0
178
     0
270
     2
271
     2
272
     2
273
     2
274
     3
340
11
275
     0
280
     0
281
     0
282
     0
283
     0
284
     8
285
     0
286
     0
287
     5
288
     0
  0
ENDTAB
  0
TABLE
  2
BLOCK_RECORD
  5
1
330
0
100
AcDbSymbolTable
 70
    21
  0
BLOCK_RECORD
  5
1F
330
1
100
AcDbSymbolTableRecord
100
AcDbBlockTableRecord
  2
*MODEL_SPACE
  0
BLOCK_RECORD
  5
1B
330
1
100
AcDbSymbolTableRecord
100
AcDbBlockTableRecord
  2
*PAPER_SPACE
  0
BLOCK_RECORD
  5
4C
330
1
100
AcDbSymbolTableRecord
100
AcDbBlockTableRecord
  2
EX_NORM
  0
BLOCK_RECORD
  5
4F
330
1
100
AcDbSymbolTableRecord
100
AcDbBlockTableRecord
  2
EX_BNORM
  0
BLOCK_RECORD
  5
52
330
1
100
AcDbSymbolTableRecord
100
AcDbBlockTableRecord
  2
EX_BCIR
  0
BLOCK_RECORD
  5
55
330
1
100
AcDbSymbolTableRecord
100
AcDbBlockTableRecord
  2
EX_RCIVIL
  0
BLOCK_RECORD
  5
58
330
1
100
AcDbSymbolTableRecord
100
AcDbBlockTableRecord
  2
EX_SLANT
  0
BLOCK_RECORD
  5
5B
330
1
100
AcDbSymbolTableRecord
100
AcDbBlockTableRecord
  2
EX_NONE
  0
BLOCK_RECORD
  5
5E
330
1
100
AcDbSymbolTableRecord
100
AcDbBlockTableRecord
  2
EX_CIVIL
  0
BLOCK_RECORD
  5
61
330
1
100
AcDbSymbolTableRecord
100
AcDbBlockTableRecord
  2
EX_WCIR
  0
BLOCK_RECORD
  5
64
330
1
100
AcDbSymbolTableRecord
100
AcDbBlockTableRecord
  2
EX_WCIR2
  0
BLOCK_RECORD
  5
67
330
1
100
AcDbSymbolTableRecord
100
AcDbBlockTableRecord
  2
EX_WNORM
  0
BLOCK_RECORD
  5
6A
330
1
100
AcDbSymbolTableRecord
100
AcDbBlockTableRecord
  2
EX_NNORM
  0
BLOCK_RECORD
  5
6D
330
1
100
AcDbSymbolTableRecord
100
AcDbBlockTableRecord
  2
EX_BBOX
  0
BLOCK_RECORD
  5
70
330
1
100
AcDbSymbolTableRecord
100
AcDbBlockTableRecord
  2
EX_WBOX
  0
BLOCK_RECORD
  5
73
330
1
100
AcDbSymbolTableRecord
100
AcDbBlockTableRecord
  2
EX_INTEGRAL
  0
BLOCK_RECORD
  5
2CD
330
1
100
AcDbSymbolTableRecord
100
AcDbBlockTableRecord
  2
*D15
  0
BLOCK_RECORD
  5
2DB
330
1
100
AcDbSymbolTableRecord
100
AcDbBlockTableRecord
  2
*D16
  0
BLOCK_RECORD
  5
38E
330
1
100
AcDbSymbolTableRecord
100
AcDbBlockTableRecord
  2
*D17
  0
BLOCK_RECORD
  5
3C1
330
1
100
AcDbSymbolTableRecord
100
AcDbBlockTableRecord
  2
*D18
  0
BLOCK_RECORD
  5
3D3
330
1
100
AcDbSymbolTableRecord
100
AcDbBlockTableRecord
  2
*D19
  0
BLOCK_RECORD
  5
456
330
1
100
AcDbSymbolTableRecord
100
AcDbBlockTableRecord
  2
*D20
  0
ENDTAB
  0
ENDSEC
  0
SECTION
  2
BLOCKS
  0
BLOCK
  5
20
330
1F
100
AcDbEntity
  8
0
100
AcDbBlockBegin
  2
*MODEL_SPACE
 70
     0
 10
0.0
 20
0.0
 30
0.0
  3
*MODEL_SPACE
  1

  0
ENDBLK
  5
21
330
1F
100
AcDbEntity
  8
0
100
AcDbBlockEnd
  0
BLOCK
  5
1C
330
1B
100
AcDbEntity
 67
     1
  8
0
100
AcDbBlockBegin
  2
*PAPER_SPACE
 70
     0
 10
0.0
 20
0.0
 30
0.0
  3
*PAPER_SPACE
  1

  0
ENDBLK
  5
1D
330
1B
100
AcDbEntity
 67
     1
  8
0
100
AcDbBlockEnd
  0
BLOCK
  5
4D
330
4C
100
AcDbEntity
  8
0
100
AcDbBlockBegin
  2
EX_NORM
 70
     0
 10
0.0
 20
0.0
 30
0.0
  3
EX_NORM
  1

  0
LINE
  5
76
330
4C
100
AcDbEntity
  8
0
  6
CONTINUOUS
 62
     0
100
AcDbLine
 10
0.0
 20
0.0
 30
0.0
 11
-1.0
 21
0.0
 31
0.0
  0
LINE
  5
77
330
4C
100
AcDbEntity
  8
0
  6
CONTINUOUS
 62
     0
100
AcDbLine
 10
0.0
 20
0.0
 30
0.0
 11
-1.0
 21
0.166666667
 31
0.0
  0
LINE
  5
78
330
4C
100
AcDbEntity
  8
0
  6
CONTINUOUS
 62
     0
100
AcDbLine
 10
0.0
 20
0.0
 30
0.0
 11
-1.0
 21
-0.166666667
 31
0.0
  0
ENDBLK
  5
4E
330
4C
100
AcDbEntity
  8
0
100
AcDbBlockEnd
  0
BLOCK
  5
50
330
4F
100
AcDbEntity
  8
0
100
AcDbBlockBegin
  2
EX_BNORM
 70
     0
 10
0.0
 20
0.0
 30
0.0
  3
EX_BNORM
  1

  0
LINE
  5
79
330
4F
100
AcDbEntity
  8
0
  6
CONTINUOUS
 62
     0
100
AcDbLine
 10
0.0
 20
0.0
 30
0.0
 11
-1.0
 21
0.0
 31
0.0
  0
LINE
  5
7A
330
4F
100
AcDbEntity
  8
0
  6
CONTINUOUS
 62
     0
100
AcDbLine
 10
0.0
 20
0.0
 30
0.0
 11
-1.0
 21
0.166666667
 31
0.0
  0
LINE
  5
7B
330
4F
100
AcDbEntity
  8
0
  6
CONTINUOUS
 62
     0
100
AcDbLine
 10
0.0
 20
0.0
 30
0.0
 11
-1.0
 21
-0.166666667
 31
0.0
  0
LINE
  5
7C
330
4F
100
AcDbEntity
  8
0
  6
CONTINUOUS
 62
     0
100
AcDbLine
 10
0.0
 20
0.0
 30
0.0
 11
-1.0
 21
0.083333333
 31
0.0
  0
LINE
  5
7D
330
4F
100
AcDbEntity
  8
0
  6
CONTINUOUS
 62
     0
100
AcDbLine
 10
0.0
 20
0.0
 30
0.0
 11
-1.0
 21
-0.083333333
 31
0.0
  0
LINE
  5
7E
330
4F
100
AcDbEntity
  8
0
  6
CONTINUOUS
 62
     0
100
AcDbLine
 10
-1.0
 20
0.166666667
 30
0.0
 11
-1.0
 21
-0.166666667
 31
0.0
  0
ENDBLK
  5
51
330
4F
100
AcDbEntity
  8
0
100
AcDbBlockEnd
  0
BLOCK
  5
53
330
52
100
AcDbEntity
  8
0
100
AcDbBlockBegin
  2
EX_BCIR
 70
     0
 10
0.0
 20
0.0
 30
0.0
  3
EX_BCIR
  1

  0
LINE
  5
7F
330
52
100
AcDbEntity
  8
0
  6
CONTINUOUS
 62
     0
100
AcDbLine
 10
0.0
 20
0.0
 30
0.0
 11
-1.0
 21
0.0
 31
0.0
  0
CIRCLE
  5
80
330
52
100
AcDbEntity
  8
0
  6
CONTINUOUS
 62
     0
100
AcDbCircle
 10
0.0
 20
0.0
 30
0.0
 40
0.5
  0
CIRCLE
  5
81
330
52
100
AcDbEntity
  8
0
  6
CONTINUOUS
 62
     0
100
AcDbCircle
 10
0.0
 20
0.0
 30
0.0
 40
0.25
  0
ENDBLK
  5
54
330
52
100
AcDbEntity
  8
0
100
AcDbBlockEnd
  0
BLOCK
  5
56
330
55
100
AcDbEntity
  8
0
100
AcDbBlockBegin
  2
EX_RCIVIL
 70
     0
 10
0.0
 20
0.0
 30
0.0
  3
EX_RCIVIL
  1

  0
LINE
  5
82
330
55
100
AcDbEntity
  8
0
  6
CONTINUOUS
 62
     0
100
AcDbLine
 10
0.0
 20
0.0
 30
0.0
 11
-1.0
 21
0.0
 31
0.0
  0
LINE
  5
83
330
55
100
AcDbEntity
  8
0
  6
CONTINUOUS
 62
     0
100
AcDbLine
 10
-1.0
 20
-0.25
 30
0.0
 11
0.0
 21
-0.25
 31
0.0
  0
LINE
  5
84
330
55
100
AcDbEntity
  8
0
  6
CONTINUOUS
 62
     0
100
AcDbLine
 10
-1.0
 20
-0.125
 30
0.0
 11
0.0
 21
-0.125
 31
0.0
  0
ENDBLK
  5
57
330
55
100
AcDbEntity
  8
0
100
AcDbBlockEnd
  0
BLOCK
  5
59
330
58
100
AcDbEntity
  8
0
100
AcDbBlockBegin
  2
EX_SLANT
 70
     0
 10
0.0
 20
0.0
 30
0.0
  3
EX_SLANT
  1

  0
LINE
  5
85
330
58
100
AcDbEntity
  8
0
  6
CONTINUOUS
 62
     0
100
AcDbLine
 10
0.0
 20
0.0
 30
0.0
 11
-1.0
 21
0.0
 31
0.0
  0
LINE
  5
86
330
58
100
AcDbEntity
  8
0
  6
CONTINUOUS
 62
     0
100
AcDbLine
 10
0.707106781
 20
0.707106781
 30
0.0
 11
-0.707106781
 21
-0.707106781
 31
0.0
  0
ENDBLK
  5
5A
330
58
100
AcDbEntity
  8
0
100
AcDbBlockEnd
  0
BLOCK
  5
5C
330
5B
100
AcDbEntity
  8
0
100
AcDbBlockBegin
  2
EX_NONE
 70
     0
 10
0.0
 20
0.0
 30
0.0
  3
EX_NONE
  1

  0
LINE
  5
87
330
5B
100
AcDbEntity
  8
0
  6
CONTINUOUS
 62
     0
100
AcDbLine
 10
0.0
 20
0.0
 30
0.0
 11
-1.0
 21
0.0
 31
0.0
  0
ENDBLK
  5
5D
330
5B
100
AcDbEntity
  8
0
100
AcDbBlockEnd
  0
BLOCK
  5
5F
330
5E
100
AcDbEntity
  8
0
100
AcDbBlockBegin
  2
EX_CIVIL
 70
     0
 10
0.0
 20
0.0
 30
0.0
  3
EX_CIVIL
  1

  0
LINE
  5
88
330
5E
100
AcDbEntity
  8
0
  6
CONTINUOUS
 62
     0
100
AcDbLine
 10
0.0
 20
0.0
 30
0.0
 11
-1.0
 21
0.0
 31
0.0
  0
LINE
  5
89
330
5E
100
AcDbEntity
  8
0
  6
CONTINUOUS
 62
     0
100
AcDbLine
 10
-1.0
 20
0.25
 30
0.0
 11
0.0
 21
0.25
 31
0.0
  0
LINE
  5
8A
330
5E
100
AcDbEntity
  8
0
  6
CONTINUOUS
 62
     0
100
AcDbLine
 10
-1.0
 20
0.125
 30
0.0
 11
0.0
 21
0.125
 31
0.0
  0
ENDBLK
  5
60
330
5E
100
AcDbEntity
  8
0
100
AcDbBlockEnd
  0
BLOCK
  5
62
330
61
100
AcDbEntity
  8
0
100
AcDbBlockBegin
  2
EX_WCIR
 70
     0
 10
0.0
 20
0.0
 30
0.0
  3
EX_WCIR
  1

  0
LINE
  5
8B
330
61
100
AcDbEntity
  8
0
  6
CONTINUOUS
 62
     0
100
AcDbLine
 10
0.0
 20
0.0
 30
0.0
 11
-1.0
 21
0.0
 31
0.0
  0
CIRCLE
  5
8C
330
61
100
AcDbEntity
  8
0
  6
CONTINUOUS
 62
     0
100
AcDbCircle
 10
0.0
 20
0.0
 30
0.0
 40
0.5
  0
ENDBLK
  5
63
330
61
100
AcDbEntity
  8
0
100
AcDbBlockEnd
  0
BLOCK
  5
65
330
64
100
AcDbEntity
  8
0
100
AcDbBlockBegin
  2
EX_WCIR2
 70
     0
 10
0.0
 20
0.0
 30
0.0
  3
EX_WCIR2
  1

  0
LINE
  5
8D
330
64
100
AcDbEntity
  8
0
  6
CONTINUOUS
 62
     0
100
AcDbLine
 10
-0.5
 20
0.0
 30
0.0
 11
-1.0
 21
0.0
 31
0.0
  0
CIRCLE
  5
8E
330
64
100
AcDbEntity
  8
0
  6
CONTINUOUS
 62
     0
100
AcDbCircle
 10
0.0
 20
0.0
 30
0.0
 40
0.5
  0
ENDBLK
  5
66
330
64
100
AcDbEntity
  8
0
100
AcDbBlockEnd
  0
BLOCK
  5
68
330
67
100
AcDbEntity
  8
0
100
AcDbBlockBegin
  2
EX_WNORM
 70
     0
 10
0.0
 20
0.0
 30
0.0
  3
EX_WNORM
  1

  0
LINE
  5
8F
330
67
100
AcDbEntity
  8
0
  6
CONTINUOUS
 62
     0
100
AcDbLine
 10
-1.0
 20
0.0
 30
0.0
 11
-1.0
 21
0.0
 31
0.0
  0
LINE
  5
90
330
67
100
AcDbEntity
  8
0
  6
CONTINUOUS
 62
     0
100
AcDbLine
 10
0.0
 20
0.0
 30
0.0
 11
-1.0
 21
0.166666667
 31
0.0
  0
LINE
  5
91
330
67
100
AcDbEntity
  8
0
  6
CONTINUOUS
 62
     0
100
AcDbLine
 10
0.0
 20
0.0
 30
0.0
 11
-1.0
 21
-0.166666667
 31
0.0
  0
LINE
  5
92
330
67
100
AcDbEntity
  8
0
  6
CONTINUOUS
 62
     0
100
AcDbLine
 10
-1.0
 20
0.166666667
 30
0.0
 11
-1.0
 21
-0.166666667
 31
0.0
  0
ENDBLK
  5
69
330
67
100
AcDbEntity
  8
0
100
AcDbBlockEnd
  0
BLOCK
  5
6B
330
6A
100
AcDbEntity
  8
0
100
AcDbBlockBegin
  2
EX_NNORM
 70
     0
 10
0.0
 20
0.0
 30
0.0
  3
EX_NNORM
  1

  0
LINE
  5
93
330
6A
100
AcDbEntity
  8
0
  6
CONTINUOUS
 62
     0
100
AcDbLine
 10
0.0
 20
0.0
 30
0.0
 11
-1.0
 21
0.0
 31
0.0
  0
LINE
  5
94
330
6A
100
AcDbEntity
  8
0
  6
CONTINUOUS
 62
     0
100
AcDbLine
 10
0.0
 20
0.0
 30
0.0
 11
-1.0
 21
0.166666667
 31
0.0
  0
LINE
  5
95
330
6A
100
AcDbEntity
  8
0
  6
CONTINUOUS
 62
     0
100
AcDbLine
 10
0.0
 20
0.0
 30
0.0
 11
-1.0
 21
-0.166666667
 31
0.0
  0
LINE
  5
96
330
6A
100
AcDbEntity
  8
0
  6
CONTINUOUS
 62
     0
100
AcDbLine
 10
-1.0
 20
0.166666667
 30
0.0
 11
-1.0
 21
-0.166666667
 31
0.0
  0
ENDBLK
  5
6C
330
6A
100
AcDbEntity
  8
0
100
AcDbBlockEnd
  0
BLOCK
  5
6E
330
6D
100
AcDbEntity
  8
0
100
AcDbBlockBegin
  2
EX_BBOX
 70
     0
 10
0.0
 20
0.0
 30
0.0
  3
EX_BBOX
  1

  0
LINE
  5
97
330
6D
100
AcDbEntity
  8
0
  6
CONTINUOUS
 62
     0
100
AcDbLine
 10
0.0
 20
0.0
 30
0.0
 11
-1.0
 21
0.0
 31
0.0
  0
LINE
  5
98
330
6D
100
AcDbEntity
  8
0
  6
CONTINUOUS
 62
     0
100
AcDbLine
 10
-0.5
 20
0.5
 30
0.0
 11
0.5
 21
0.5
 31
0.0
  0
LINE
  5
99
330
6D
100
AcDbEntity
  8
0
  6
CONTINUOUS
 62
     0
100
AcDbLine
 10
0.5
 20
0.5
 30
0.0
 11
0.5
 21
-0.5
 31
0.0
  0
LINE
  5
9A
330
6D
100
AcDbEntity
  8
0
  6
CONTINUOUS
 62
     0
100
AcDbLine
 10
0.5
 20
-0.5
 30
0.0
 11
-0.5
 21
-0.5
 31
0.0
  0
LINE
  5
9B
330
6D
100
AcDbEntity
  8
0
  6
CONTINUOUS
 62
     0
100
AcDbLine
 10
-0.5
 20
-0.5
 30
0.0
 11
-0.5
 21
0.5
 31
0.0
  0
LINE
  5
9C
330
6D
100
AcDbEntity
  8
0
  6
CONTINUOUS
 62
     0
100
AcDbLine
 10
-0.25
 20
0.25
 30
0.0
 11
0.25
 21
0.25
 31
0.0
  0
LINE
  5
9D
330
6D
100
AcDbEntity
  8
0
  6
CONTINUOUS
 62
     0
100
AcDbLine
 10
0.25
 20
0.25
 30
0.0
 11
0.25
 21
-0.25
 31
0.0
  0
LINE
  5
9E
330
6D
100
AcDbEntity
  8
0
  6
CONTINUOUS
 62
     0
100
AcDbLine
 10
0.25
 20
-0.25
 30
0.0
 11
-0.25
 21
-0.25
 31
0.0
  0
LINE
  5
9F
330
6D
100
AcDbEntity
  8
0
  6
CONTINUOUS
 62
     0
100
AcDbLine
 10
-0.25
 20
-0.25
 30
0.0
 11
-0.25
 21
0.25
 31
0.0
  0
ENDBLK
  5
6F
330
6D
100
AcDbEntity
  8
0
100
AcDbBlockEnd
  0
BLOCK
  5
71
330
70
100
AcDbEntity
  8
0
100
AcDbBlockBegin
  2
EX_WBOX
 70
     0
 10
0.0
 20
0.0
 30
0.0
  3
EX_WBOX
  1

  0
LINE
  5
A0
330
70
100
AcDbEntity
  8
0
  6
CONTINUOUS
 62
     0
100
AcDbLine
 10
-0.5
 20
0.0
 30
0.0
 11
-1.0
 21
0.0
 31
0.0
  0
LINE
  5
A1
330
70
100
AcDbEntity
  8
0
  6
CONTINUOUS
 62
     0
100
AcDbLine
 10
-0.5
 20
0.5
 30
0.0
 11
0.5
 21
0.5
 31
0.0
  0
LINE
  5
A2
330
70
100
AcDbEntity
  8
0
  6
CONTINUOUS
 62
     0
100
AcDbLine
 10
0.5
 20
0.5
 30
0.0
 11
0.5
 21
-0.5
 31
0.0
  0
LINE
  5
A3
330
70
100
AcDbEntity
  8
0
  6
CONTINUOUS
 62
     0
100
AcDbLine
 10
0.5
 20
-0.5
 30
0.0
 11
-0.5
 21
-0.5
 31
0.0
  0
LINE
  5
A4
330
70
100
AcDbEntity
  8
0
  6
CONTINUOUS
 62
     0
100
AcDbLine
 10
-0.5
 20
-0.5
 30
0.0
 11
-0.5
 21
0.5
 31
0.0
  0
ENDBLK
  5
72
330
70
100
AcDbEntity
  8
0
100
AcDbBlockEnd
  0
BLOCK
  5
74
330
73
100
AcDbEntity
  8
0
100
AcDbBlockBegin
  2
EX_INTEGRAL
 70
     0
 10
0.0
 20
0.0
 30
0.0
  3
EX_INTEGRAL
  1

  0
LINE
  5
A5
330
73
100
AcDbEntity
  8
0
  6
CONTINUOUS
 62
     0
100
AcDbLine
 10
0.0
 20
0.0
 30
0.0
 11
-1.0
 21
0.0
 31
0.0
  0
ARC
  5
A6
330
73
100
AcDbEntity
  8
0
  6
CONTINUOUS
 62
     0
100
AcDbCircle
 10
0.542115
 20
0.164992
 30
0.0
 40
0.56667
100
AcDbArc
 50
73.07249033629006
 51
196.9275130221199
  0
ARC
  5
A7
330
73
100
AcDbEntity
  8
0
  6
CONTINUOUS
 62
     0
100
AcDbCircle
 10
-0.542115
 20
-0.164992
 30
0.0
 40
0.56667
100
AcDbArc
 50
253.0724869220464
 51
16.9275130559125
  0
ENDBLK
  5
75
330
73
100
AcDbEntity
  8
0
100
AcDbBlockEnd
  0
BLOCK
  5
2CE
330
2CD
100
AcDbEntity
  8
0
100
AcDbBlockBegin
  2
*D15
 70
     1
 10
0.0
 20
0.0
 30
0.0
  3
*D15
  1

  0
LINE
  5
2D0
330
2CD
100
AcDbEntity
  8
寸法
  6
CONTINUOUS
 62
     3
100
AcDbLine
 10
1436.02631164695
 20
780.0
 30
0.0
 11
1367.3103943
 21
780.0
 31
0.0
  0
LINE
  5
2D1
330
2CD
100
AcDbEntity
  8
寸法
  6
CONTINUOUS
 62
     3
100
AcDbLine
 10
1448.8103943
 20
580.0
 30
0.0
 11
1367.3103943
 21
580.0
 31
0.0
  0
LINE
  5
2D2
330
2CD
100
AcDbEntity
  8
寸法
  6
CONTINUOUS
 62
     3
100
AcDbLine
 10
1377.3103943
 20
750.0
 30
0.0
 11
1377.3103943
 21
610.0
 31
0.0
  0
INSERT
  5
2D3
330
2CD
100
AcDbEntity
  8
寸法
 62
     3
100
AcDbBlockReference
  2
EX_NORM
 10
1377.3103943
 20
780.0
 30
0.0
 41
30.0
 42
30.0
 43
30.0
 50
90.0
  0
INSERT
  5
2D4
330
2CD
100
AcDbEntity
  8
寸法
 62
     3
100
AcDbBlockReference
  2
EX_NORM
 10
1377.3103943
 20
580.0
 30
0.0
 41
30.0
 42
30.0
 43
30.0
 50
270.0
  0
MTEXT
  5
2D5
330
2CD
100
AcDbEntity
  8
寸法
 62
     2
100
AcDbMText
 10
1353.810394359605
 20
680.0
 30
0.0
 40
40.0
 41
0.0
 71
     5
 72
     1
  1
200
  7
EXCADDIM1
 11
0.0
 21
1.0
 31
0.0
  0
POINT
  5
2D6
330
2CD
100
AcDbEntity
  8
DEFPOINTS
 62
     0
100
AcDbPoint
 10
1441.02631164695
 20
780.0
 30
0.0
  0
POINT
  5
2D7
330
2CD
100
AcDbEntity
  8
DEFPOINTS
 62
     0
100
AcDbPoint
 10
1453.8103943
 20
580.0
 30
0.0
  0
POINT
  5
2D8
330
2CD
100
AcDbEntity
  8
DEFPOINTS
 62
     0
100
AcDbPoint
 10
1377.3103943
 20
580.0
 30
0.0
  0
ENDBLK
  5
2CF
330
2CD
100
AcDbEntity
  8
0
100
AcDbBlockEnd
  0
BLOCK
  5
2DC
330
2DB
100
AcDbEntity
  8
0
100
AcDbBlockBegin
  2
*D16
 70
     1
 10
0.0
 20
0.0
 30
0.0
  3
*D16
  1

  0
LINE
  5
2DE
330
2DB
100
AcDbEntity
  8
寸法
  6
CONTINUOUS
 62
     3
100
AcDbLine
 10
1783.8103943
 20
1451.999999880791
 30
0.0
 11
1783.8103943
 21
1546.52531675
 31
0.0
  0
LINE
  5
2DF
330
2DB
100
AcDbEntity
  8
寸法
  6
CONTINUOUS
 62
     3
100
AcDbLine
 10
1578.810394300002
 20
1416.999999880791
 30
0.0
 11
1578.810394300002
 21
1546.52531675
 31
0.0
  0
LINE
  5
2E0
330
2DB
100
AcDbEntity
  8
寸法
  6
CONTINUOUS
 62
     3
100
AcDbLine
 10
1753.8103943
 20
1536.52531675
 30
0.0
 11
1608.810394300002
 21
1536.52531675
 31
0.0
  0
INSERT
  5
2E1
330
2DB
100
AcDbEntity
  8
寸法
 62
     3
100
AcDbBlockReference
  2
EX_NORM
 10
1783.8103943
 20
1536.52531675
 30
0.0
 41
30.0
 42
30.0
 43
30.0
  0
INSERT
  5
2E2
330
2DB
100
AcDbEntity
  8
寸法
 62
     3
100
AcDbBlockReference
  2
EX_NORM
 10
1578.810394300002
 20
1536.52531675
 30
0.0
 41
30.0
 42
30.0
 43
30.0
 50
180.0
  0
MTEXT
  5
2E3
330
2DB
100
AcDbEntity
  8
寸法
 62
     2
100
AcDbMText
 10
1681.310394300001
 20
1560.025316690395
 30
0.0
 40
40.0
 41
0.0
 71
     5
 72
     1
  1
205
  7
EXCADDIM2
  0
POINT
  5
2E4
330
2DB
100
AcDbEntity
  8
DEFPOINTS
 62
     0
100
AcDbPoint
 10
1783.8103943
 20
1445.0
 30
0.0
  0
POINT
  5
2E5
330
2DB
100
AcDbEntity
  8
DEFPOINTS
 62
     0
100
AcDbPoint
 10
1578.810394300002
 20
1410.0
 30
0.0
  0
POINT
  5
2E6
330
2DB
100
AcDbEntity
  8
DEFPOINTS
 62
     0
100
AcDbPoint
 10
1578.810394300002
 20
1536.52531675
 30
0.0
  0
ENDBLK
  5
2DD
330
2DB
100
AcDbEntity
  8
0
100
AcDbBlockEnd
  0
BLOCK
  5
38F
330
38E
100
AcDbEntity
  8
0
100
AcDbBlockBegin
  2
*D17
 70
     1
 10
0.0
 20
0.0
 30
0.0
  3
*D17
  1

  0
LINE
  5
391
330
38E
100
AcDbEntity
  8
寸法
  6
CONTINUOUS
 62
     3
100
AcDbLine
 10
809.5004606472999
 20
1445.0
 30
0.0
 11
959.9999999999992
 21
1445.0
 31
0.0
  0
LINE
  5
392
330
38E
100
AcDbEntity
  8
寸法
  6
CONTINUOUS
 62
     3
100
AcDbLine
 10
824.5004606472999
 20
580.0
 30
0.0
 11
959.9999999999992
 21
579.9999999999999
 31
0.0
  0
LINE
  5
393
330
38E
100
AcDbEntity
  8
寸法
  6
CONTINUOUS
 62
     3
100
AcDbLine
 10
949.9999999999997
 20
1415.0
 30
0.0
 11
949.9999999999997
 21
609.9999999999999
 31
0.0
  0
INSERT
  5
394
330
38E
100
AcDbEntity
  8
寸法
 62
     3
100
AcDbBlockReference
  2
EX_NORM
 10
949.9999999999997
 20
1445.0
 30
0.0
 41
30.0
 42
30.0
 43
30.0
 50
90.0
  0
INSERT
  5
395
330
38E
100
AcDbEntity
  8
寸法
 62
     3
100
AcDbBlockReference
  2
EX_NORM
 10
949.9999999999997
 20
579.9999999999999
 30
0.0
 41
30.0
 42
30.0
 43
30.0
 50
270.0
  0
MTEXT
  5
396
330
38E
100
AcDbEntity
  8
寸法
 62
     2
100
AcDbMText
 10
926.5000000596048
 20
1012.5
 30
0.0
 40
40.0
 41
0.0
 71
     5
 72
     1
  1
865
  7
EXCADDIM1
 11
0.0
 21
1.0
 31
0.0
  0
POINT
  5
397
330
38E
100
AcDbEntity
  8
DEFPOINTS
 62
     0
100
AcDbPoint
 10
804.5004606472999
 20
1445.0
 30
0.0
  0
POINT
  5
398
330
38E
100
AcDbEntity
  8
DEFPOINTS
 62
     0
100
AcDbPoint
 10
819.5004606472999
 20
580.0
 30
0.0
  0
POINT
  5
399
330
38E
100
AcDbEntity
  8
DEFPOINTS
 62
     0
100
AcDbPoint
 10
949.9999999999997
 20
579.9999999999999
 30
0.0
  0
ENDBLK
  5
390
330
38E
100
AcDbEntity
  8
0
100
AcDbBlockEnd
  0
BLOCK
  5
3C2
330
3C1
100
AcDbEntity
  8
0
100
AcDbBlockBegin
  2
*D18
 70
     1
 10
0.0
 20
0.0
 30
0.0
  3
*D18
  1

  0
LINE
  5
3C4
330
3C1
100
AcDbEntity
  8
寸法
  6
CONTINUOUS
 62
     3
100
AcDbLine
 10
663.9999598637908
 20
2472.0
 30
0.0
 11
970.0
 21
2472.0
 31
0.0
  0
LINE
  5
3C5
330
3C1
100
AcDbEntity
  8
寸法
  6
CONTINUOUS
 62
     3
100
AcDbLine
 10
663.9999598637908
 20
2122.0
 30
0.0
 11
970.0
 21
2122.0
 31
0.0
  0
LINE
  5
3C6
330
3C1
100
AcDbEntity
  8
寸法
  6
CONTINUOUS
 62
     3
100
AcDbLine
 10
960.0
 20
2442.0
 30
0.0
 11
960.0
 21
2152.0
 31
0.0
  0
INSERT
  5
3C7
330
3C1
100
AcDbEntity
  8
寸法
 62
     3
100
AcDbBlockReference
  2
EX_NORM
 10
960.0
 20
2472.0
 30
0.0
 41
30.0
 42
30.0
 43
30.0
 50
90.0
  0
INSERT
  5
3C8
330
3C1
100
AcDbEntity
  8
寸法
 62
     3
100
AcDbBlockReference
  2
EX_NORM
 10
960.0
 20
2122.0
 30
0.0
 41
30.0
 42
30.0
 43
30.0
 50
270.0
  0
MTEXT
  5
3C9
330
3C1
100
AcDbEntity
  8
寸法
 62
     2
100
AcDbMText
 10
936.5000000596048
 20
2297.0
 30
0.0
 40
40.0
 41
0.0
 71
     5
 72
     1
  1
350
  7
EXCADDIM2
 11
0.0
 21
1.0
 31
0.0
  0
POINT
  5
3CA
330
3C1
100
AcDbEntity
  8
DEFPOINTS
 62
     0
100
AcDbPoint
 10
656.999959983
 20
2472.0
 30
0.0
  0
POINT
  5
3CB
330
3C1
100
AcDbEntity
  8
DEFPOINTS
 62
     0
100
AcDbPoint
 10
656.999959983
 20
2122.0
 30
0.0
  0
POINT
  5
3CC
330
3C1
100
AcDbEntity
  8
DEFPOINTS
 62
     0
100
AcDbPoint
 10
960.0
 20
2122.0
 30
0.0
  0
ENDBLK
  5
3C3
330
3C1
100
AcDbEntity
  8
0
100
AcDbBlockEnd
  0
BLOCK
  5
3D4
330
3D3
100
AcDbEntity
  8
0
100
AcDbBlockBegin
  2
*D19
 70
     1
 10
0.0
 20
0.0
 30
0.0
  3
*D19
  1

  0
LINE
  5
3D6
330
3D3
100
AcDbEntity
  8
寸法
  6
CONTINUOUS
 62
     3
100
AcDbLine
 10
1603.8103943
 20
503.0000001192093
 30
0.0
 11
1603.8103943
 21
427.0
 31
0.0
  0
LINE
  5
3D7
330
3D3
100
AcDbEntity
  8
寸法
  6
CONTINUOUS
 62
     3
100
AcDbLine
 10
1783.8103943
 20
573.0000001192093
 30
0.0
 11
1783.8103943
 21
427.0
 31
0.0
  0
LINE
  5
3D8
330
3D3
100
AcDbEntity
  8
寸法
  6
CONTINUOUS
 62
     3
100
AcDbLine
 10
1633.8103943
 20
437.0
 30
0.0
 11
1753.8103943
 21
437.0
 31
0.0
  0
INSERT
  5
3D9
330
3D3
100
AcDbEntity
  8
寸法
 62
     3
100
AcDbBlockReference
  2
EX_NORM
 10
1603.8103943
 20
437.0
 30
0.0
 41
30.0
 42
30.0
 43
30.0
 50
180.0
  0
INSERT
  5
3DA
330
3D3
100
AcDbEntity
  8
寸法
 62
     3
100
AcDbBlockReference
  2
EX_NORM
 10
1783.8103943
 20
437.0
 30
0.0
 41
30.0
 42
30.0
 43
30.0
  0
MTEXT
  5
3DB
330
3D3
100
AcDbEntity
  8
寸法
 62
     2
100
AcDbMText
 10
1693.8103943
 20
460.4999999403954
 30
0.0
 40
40.0
 41
0.0
 71
     5
 72
     1
  1
180
  7
EXCADDIM2
  0
POINT
  5
3DC
330
3D3
100
AcDbEntity
  8
DEFPOINTS
 62
     0
100
AcDbPoint
 10
1603.8103943
 20
510.0
 30
0.0
  0
POINT
  5
3DD
330
3D3
100
AcDbEntity
  8
DEFPOINTS
 62
     0
100
AcDbPoint
 10
1783.8103943
 20
580.0
 30
0.0
  0
POINT
  5
3DE
330
3D3
100
AcDbEntity
  8
DEFPOINTS
 62
     0
100
AcDbPoint
 10
1783.8103943
 20
437.0
 30
0.0
  0
ENDBLK
  5
3D5
330
3D3
100
AcDbEntity
  8
0
100
AcDbBlockEnd
  0
BLOCK
  5
457
330
456
100
AcDbEntity
  8
0
100
AcDbBlockBegin
  2
*D20
 70
     1
 10
0.0
 20
0.0
 30
0.0
  3
*D20
  1

  0
LINE
  5
459
330
456
100
AcDbEntity
  8
寸法
  6
CONTINUOUS
 62
     3
100
AcDbLine
 10
494.499959983
 20
2465.000000119209
 30
0.0
 11
494.499959983
 21
1979.0
 31
0.0
  0
LINE
  5
45A
330
456
100
AcDbEntity
  8
寸法
  6
CONTINUOUS
 62
     3
100
AcDbLine
 10
819.499959983
 20
2465.000000119209
 30
0.0
 11
819.499959983
 21
1979.0
 31
0.0
  0
LINE
  5
45B
330
456
100
AcDbEntity
  8
寸法
  6
CONTINUOUS
 62
     3
100
AcDbLine
 10
524.499959983
 20
1989.0
 30
0.0
 11
789.499959983
 21
1989.0
 31
0.0
  0
INSERT
  5
45C
330
456
100
AcDbEntity
  8
寸法
 62
     3
100
AcDbBlockReference
  2
EX_NORM
 10
494.499959983
 20
1989.0
 30
0.0
 41
30.0
 42
30.0
 43
30.0
 50
180.0
  0
INSERT
  5
45D
330
456
100
AcDbEntity
  8
寸法
 62
     3
100
AcDbBlockReference
  2
EX_NORM
 10
819.499959983
 20
1989.0
 30
0.0
 41
30.0
 42
30.0
 43
30.0
  0
MTEXT
  5
45E
330
456
100
AcDbEntity
  8
寸法
 62
     2
100
AcDbMText
 10
656.9999599830002
 20
2012.499999940395
 30
0.0
 40
40.0
 41
0.0
 71
     5
 72
     1
  1
325
  7
EXCADDIM2
  0
POINT
  5
45F
330
456
100
AcDbEntity
  8
DEFPOINTS
 62
     0
100
AcDbPoint
 10
494.499959983
 20
2472.0
 30
0.0
  0
POINT
  5
460
330
456
100
AcDbEntity
  8
DEFPOINTS
 62
     0
100
AcDbPoint
 10
819.499959983
 20
2472.0
 30
0.0
  0
POINT
  5
461
330
456
100
AcDbEntity
  8
DEFPOINTS
 62
     0
100
AcDbPoint
 10
819.499959983
 20
1989.0
 30
0.0
  0
ENDBLK
  5
458
330
456
100
AcDbEntity
  8
0
100
AcDbBlockEnd
  0
ENDSEC
  0
SECTION
  2
ENTITIES
  0
LINE
  5
A8
330
1F
100
AcDbEntity
  8
枠
  6
CONTINUOUS
 62
     7
100
AcDbLine
 10
17.9
 20
11.5
 30
0.0
 11
199.9
 21
11.5
 31
0.0
  0
LINE
  5
A9
330
1F
100
AcDbEntity
  8
枠
  6
CONTINUOUS
 62
     7
100
AcDbLine
 10
199.9
 20
11.5
 30
0.0
 11
199.9
 21
291.5
 31
0.0
  0
LINE
  5
AA
330
1F
100
AcDbEntity
  8
枠
  6
CONTINUOUS
 62
     7
100
AcDbLine
 10
17.9
 20
11.5
 30
0.0
 11
17.9
 21
291.5
 31
0.0
  0
LINE
  5
AB
330
1F
100
AcDbEntity
  8
枠
  6
CONTINUOUS
 62
     7
100
AcDbLine
 10
17.9
 20
291.5
 30
0.0
 11
199.9
 21
291.5
 31
0.0
  0
LINE
  5
AC
330
1F
100
AcDbEntity
  8
枠
  6
CONTINUOUS
 62
     7
100
AcDbLine
 10
17.9
 20
33.5
 30
0.0
 11
199.9
 21
33.5
 31
0.0
  0
LINE
  5
AD
330
1F
100
AcDbEntity
  8
枠
  6
CONTINUOUS
 62
     6
100
AcDbLine
 10
199.9
 20
21.5
 30
0.0
 11
74.9
 21
21.5
 31
0.0
  0
LINE
  5
AE
330
1F
100
AcDbEntity
  8
枠
  6
CONTINUOUS
 62
     6
100
AcDbLine
 10
185.9
 20
33.5
 30
0.0
 11
185.9
 21
21.5
 31
0.0
  0
LINE
  5
AF
330
1F
100
AcDbEntity
  8
枠
  6
CONTINUOUS
 62
     6
100
AcDbLine
 10
180.9
 20
33.5
 30
0.0
 11
180.9
 21
21.5
 31
0.0
  0
LINE
  5
B0
330
1F
100
AcDbEntity
  8
枠
  6
CONTINUOUS
 62
     6
100
AcDbLine
 10
143.9
 20
33.5
 30
0.0
 11
143.9
 21
11.5
 31
0.0
  0
LINE
  5
B1
330
1F
100
AcDbEntity
  8
枠
  6
CONTINUOUS
 62
     6
100
AcDbLine
 10
138.9
 20
33.5
 30
0.0
 11
138.9
 21
11.5
 31
0.0
  0
LINE
  5
B2
330
1F
100
AcDbEntity
  8
枠
  6
CONTINUOUS
 62
     6
100
AcDbLine
 10
79.9
 20
33.5
 30
0.0
 11
79.9
 21
21.5
 31
0.0
  0
LINE
  5
B3
330
1F
100
AcDbEntity
  8
枠
  6
CONTINUOUS
 62
     6
100
AcDbLine
 10
74.9
 20
33.5
 30
0.0
 11
74.9
 21
11.5
 31
0.0
  0
LINE
  5
B4
330
1F
100
AcDbEntity
  8
枠
  6
CONTINUOUS
 62
     6
100
AcDbLine
 10
61.9
 20
33.5
 30
0.0
 11
61.9
 21
11.5
 31
0.0
  0
LINE
  5
B5
330
1F
100
AcDbEntity
  8
枠
  6
CONTINUOUS
 62
     6
100
AcDbLine
 10
48.9
 20
33.5
 30
0.0
 11
48.9
 21
11.5
 31
0.0
  0
LINE
  5
B6
330
1F
100
AcDbEntity
  8
枠
  6
CONTINUOUS
 62
     6
100
AcDbLine
 10
33.4
 20
33.5
 30
0.0
 11
33.4
 21
11.5
 31
0.0
  0
LINE
  5
B7
330
1F
100
AcDbEntity
  8
枠
  6
CONTINUOUS
 62
     6
100
AcDbLine
 10
17.9
 20
28.5
 30
0.0
 11
74.9
 21
28.5
 31
0.0
  0
LINE
  5
B8
330
1F
100
AcDbEntity
  8
枠
  6
CONTINUOUS
 62
     6
100
AcDbLine
 10
189.16538086
 20
23.80029297
 30
0.0
 11
196.89938965
 21
31.66998291
 31
0.0
  0
LINE
  5
B9
330
1F
100
AcDbEntity
  8
枠
  6
EXLTYPE2
 62
     6
100
AcDbLine
 10
17.9
 20
16.5
 30
0.0
 11
48.9
 21
16.5
 31
0.0
  0
CIRCLE
  5
BA
330
1F
100
AcDbEntity
  8
枠
  6
CONTINUOUS
 62
     6
100
AcDbCircle
 10
22.9
 20
14.0
 30
0.0
 40
0.10000002
  0
CIRCLE
  5
BB
330
1F
100
AcDbEntity
  8
枠
  6
CONTINUOUS
 62
     6
100
AcDbCircle
 10
27.9
 20
14.0
 30
0.0
 40
0.10000002
  0
CIRCLE
  5
BC
330
1F
100
AcDbEntity
  8
枠
  6
CONTINUOUS
 62
     6
100
AcDbCircle
 10
38.4
 20
14.0
 30
0.0
 40
0.10000002
  0
CIRCLE
  5
BD
330
1F
100
AcDbEntity
  8
枠
  6
CONTINUOUS
 62
     6
100
AcDbCircle
 10
43.4
 20
14.0
 30
0.0
 40
0.10000002
  0
TEXT
  5
BE
330
1F
100
AcDbEntity
  8
枠
  6
CONTINUOUS
 62
     2
100
AcDbText
 10
188.95371094
 20
28.27227783
 30
0.0
 40
3.0
  1
１
 41
1.101333351135257
  7
EXCADSTD
 72
     5
 11
191.313710978147
 21
28.27227783
 31
0.0
100
AcDbText
  0
TEXT
  5
BF
330
1F
100
AcDbEntity
  8
枠
  6
CONTINUOUS
 62
     2
100
AcDbText
 10
193.02792969
 20
23.83488464
 30
0.0
 40
3.0
  1
１０
 41
1.098531230663534
  7
EXCADSTD
 72
     5
 11
198.2067197774138
 21
23.83488464
 31
0.0
100
AcDbText
  0
TEXT
  5
C0
330
1F
100
AcDbEntity
  8
枠
  6
CONTINUOUS
 62
     2
100
AcDbText
 10
20.15
 20
28.875
 30
0.0
 40
4.25
  1
製図
 41
1.509694117647059
  7
EXCADSTD
 72
     5
 11
30.2326
 21
28.875
 31
0.0
100
AcDbText
  0
TEXT
  5
C1
330
1F
100
AcDbEntity
  8
枠
  6
CONTINUOUS
 62
     2
100
AcDbText
 10
35.65
 20
28.875
 30
0.0
 40
4.25
  1
写図
 41
1.509694117647059
  7
EXCADSTD
 72
     5
 11
45.7326
 21
28.875
 31
0.0
100
AcDbText
  0
TEXT
  5
C2
330
1F
100
AcDbEntity
  8
枠
  6
CONTINUOUS
 62
     2
100
AcDbText
 10
50.65
 20
28.875
 30
0.0
 40
4.25
  1
検図
 41
1.303826737967914
  7
EXCADSTD
 72
     5
 11
59.35769999999999
 21
28.875
 31
0.0
100
AcDbText
  0
TEXT
  5
C3
330
1F
100
AcDbEntity
  8
枠
  6
CONTINUOUS
 62
     2
100
AcDbText
 10
63.65000000000001
 20
28.875
 30
0.0
 40
4.25
  1
承認
 41
1.303826737967915
  7
EXCADSTD
 72
     5
 11
72.35770000000001
 21
28.875
 31
0.0
100
AcDbText
  0
TEXT
  5
C4
330
1F
100
AcDbEntity
  8
枠
  6
CONTINUOUS
 62
     2
100
AcDbText
 10
75.275
 20
27.875
 30
0.0
 40
4.25
  1
品
 41
1.120000000000002
  7
EXCADSTD
 72
     5
 11
78.67500000000001
 21
27.875
 31
0.0
100
AcDbText
  0
TEXT
  5
C5
330
1F
100
AcDbEntity
  8
枠
  6
CONTINUOUS
 62
     2
100
AcDbText
 10
75.275
 20
22.875
 30
0.0
 40
4.25
  1
名
 41
1.120000000000002
  7
EXCADSTD
 72
     5
 11
78.67500000000001
 21
22.875
 31
0.0
100
AcDbText
  0
TEXT
  5
C6
330
1F
100
AcDbEntity
  8
枠
  6
CONTINUOUS
 62
     2
100
AcDbText
 10
139.275
 20
27.875
 30
0.0
 40
4.25
  1
品
 41
1.120000000000002
  7
EXCADSTD
 72
     5
 11
142.675
 21
27.875
 31
0.0
100
AcDbText
  0
TEXT
  5
C7
330
1F
100
AcDbEntity
  8
枠
  6
CONTINUOUS
 62
     2
100
AcDbText
 10
139.275
 20
22.875
 30
0.0
 40
4.25
  1
番
 41
1.120000000000002
  7
EXCADSTD
 72
     5
 11
142.675
 21
22.875
 31
0.0
100
AcDbText
  0
TEXT
  5
C8
330
1F
100
AcDbEntity
  8
枠
  6
CONTINUOUS
 62
     2
100
AcDbText
 10
181.275
 20
27.875
 30
0.0
 40
4.25
  1
尺
 41
1.120000000000002
  7
EXCADSTD
 72
     5
 11
184.675
 21
27.875
 31
0.0
100
AcDbText
  0
TEXT
  5
C9
330
1F
100
AcDbEntity
  8
枠
  6
CONTINUOUS
 62
     2
100
AcDbText
 10
181.275
 20
22.875
 30
0.0
 40
4.25
  1
度
 41
1.120000000000002
  7
EXCADSTD
 72
     5
 11
184.675
 21
22.875
 31
0.0
100
AcDbText
  0
TEXT
  5
CA
330
1F
100
AcDbEntity
  8
枠
  6
CONTINUOUS
 62
     2
100
AcDbText
 10
139.275
 20
16.575
 30
0.0
 40
4.25
  1
図
 41
1.120000000000002
  7
EXCADSTD
 72
     5
 11
142.675
 21
16.575
 31
0.0
100
AcDbText
  0
TEXT
  5
CB
330
1F
100
AcDbEntity
  8
枠
  6
CONTINUOUS
 62
     2
100
AcDbText
 10
139.275
 20
12.275
 30
0.0
 40
4.25
  1
番
 41
1.120000000000002
  7
EXCADSTD
 72
     5
 11
142.675
 21
12.275
 31
0.0
100
AcDbText
  0
LINE
  5
CC
330
1F
100
AcDbEntity
  8
枠
  6
CONTINUOUS
 62
     3
100
AcDbLine
 10
82.64477539999999
 20
18.02879944
 30
0.0
 11
81.83840942999998
 21
18.02879944
 31
0.0
  0
LINE
  5
CD
330
1F
100
AcDbEntity
  8
枠
  6
CONTINUOUS
 62
     3
100
AcDbLine
 10
82.64477539999999
 20
18.83519592
 30
0.0
 11
82.64477539999999
 21
18.02879944
 31
0.0
  0
LINE
  5
CE
330
1F
100
AcDbEntity
  8
枠
  6
CONTINUOUS
 62
     3
100
AcDbLine
 10
81.83840942999998
 20
18.83519592
 30
0.0
 11
82.64477539999999
 21
18.83519592
 31
0.0
  0
LINE
  5
CF
330
1F
100
AcDbEntity
  8
枠
  6
CONTINUOUS
 62
     3
100
AcDbLine
 10
81.83840942999998
 20
18.83519592
 30
0.0
 11
81.83840942999998
 21
18.02879944
 31
0.0
  0
LINE
  5
D0
330
1F
100
AcDbEntity
  8
枠
  6
CONTINUOUS
 62
     3
100
AcDbLine
 10
81.53591918999999
 20
18.02879944
 30
0.0
 11
80.72955323
 21
18.02879944
 31
0.0
  0
LINE
  5
D1
330
1F
100
AcDbEntity
  8
枠
  6
CONTINUOUS
 62
     3
100
AcDbLine
 10
81.53591918999999
 20
18.83519592
 30
0.0
 11
81.53591918999999
 21
18.02879944
 31
0.0
  0
LINE
  5
D2
330
1F
100
AcDbEntity
  8
枠
  6
CONTINUOUS
 62
     3
100
AcDbLine
 10
80.72955323
 20
18.83519592
 30
0.0
 11
81.53591918999999
 21
18.83519592
 31
0.0
  0
LINE
  5
D3
330
1F
100
AcDbEntity
  8
枠
  6
CONTINUOUS
 62
     3
100
AcDbLine
 10
80.72955323
 20
18.83519592
 30
0.0
 11
80.72955323
 21
18.02879944
 31
0.0
  0
LINE
  5
D4
330
1F
100
AcDbEntity
  8
枠
  6
CONTINUOUS
 62
     3
100
AcDbLine
 10
79.88873290999999
 20
14.4
 30
0.0
 11
77.0
 21
14.4
 31
0.0
  0
ARC
  5
D5
330
1F
100
AcDbEntity
  8
枠
  6
CONTINUOUS
 62
     3
100
AcDbCircle
 10
79.88873290999999
 20
16.21440735
 30
0.0
 40
1.81439972
100
AcDbArc
 50
270.0000305200008
 51
334.0001373300005
  0
LINE
  5
D6
330
1F
100
AcDbEntity
  8
枠
  6
CONTINUOUS
 62
     3
100
AcDbLine
 10
82.64477539999999
 20
17.72640076
 30
0.0
 11
81.51930236999999
 21
15.41901245
 31
0.0
  0
LINE
  5
D7
330
1F
100
AcDbEntity
  8
枠
  6
CONTINUOUS
 62
     3
100
AcDbLine
 10
81.41122436999999
 20
17.72640076
 30
0.0
 11
82.64477539999999
 21
17.72640076
 31
0.0
  0
LINE
  5
D8
330
1F
100
AcDbEntity
  8
枠
  6
CONTINUOUS
 62
     3
100
AcDbLine
 10
80.501297
 20
15.86090698
 30
0.0
 11
81.41122436999999
 21
17.72640076
 31
0.0
  0
ARC
  5
D9
330
1F
100
AcDbEntity
  8
枠
  6
CONTINUOUS
 62
     3
100
AcDbCircle
 10
79.7765503
 20
16.21440735
 30
0.0
 40
0.8064000000000001
100
AcDbArc
 50
270.000030520001
 51
333.99855042
  0
LINE
  5
DA
330
1F
100
AcDbEntity
  8
枠
  6
CONTINUOUS
 62
     3
100
AcDbLine
 10
77.0
 20
15.40799561
 30
0.0
 11
79.7765503
 21
15.40799561
 31
0.0
  0
LINE
  5
DB
330
1F
100
AcDbEntity
  8
枠
  6
CONTINUOUS
 62
     3
100
AcDbLine
 10
77.0
 20
15.40799561
 30
0.0
 11
77.0
 21
14.4
 31
0.0
  0
LINE
  5
DC
330
1F
100
AcDbEntity
  8
枠
  6
CONTINUOUS
 62
     3
100
AcDbLine
 10
79.82249451000001
 20
16.71838989
 30
0.0
 11
77.0
 21
16.71838989
 31
0.0
  0
LINE
  5
DD
330
1F
100
AcDbEntity
  8
枠
  6
CONTINUOUS
 62
     3
100
AcDbLine
 10
79.82249451000001
 20
17.6256012
 30
0.0
 11
79.82249451000001
 21
16.71838989
 31
0.0
  0
LINE
  5
DE
330
1F
100
AcDbEntity
  8
枠
  6
CONTINUOUS
 62
     3
100
AcDbLine
 10
77.0
 20
17.6256012
 30
0.0
 11
79.82249451000001
 21
17.6256012
 31
0.0
  0
LINE
  5
DF
330
1F
100
AcDbEntity
  8
枠
  6
CONTINUOUS
 62
     3
100
AcDbLine
 10
77.0
 20
17.6256012
 30
0.0
 11
77.0
 21
16.71838989
 31
0.0
  0
LINE
  5
E0
330
1F
100
AcDbEntity
  8
枠
  6
CONTINUOUS
 62
     3
100
AcDbLine
 10
79.82249451000001
 20
17.92799988
 30
0.0
 11
77.0
 21
17.92799988
 31
0.0
  0
LINE
  5
E1
330
1F
100
AcDbEntity
  8
枠
  6
CONTINUOUS
 62
     3
100
AcDbLine
 10
79.82249451000001
 20
18.83519592
 30
0.0
 11
79.82249451000001
 21
17.92799988
 31
0.0
  0
LINE
  5
E2
330
1F
100
AcDbEntity
  8
枠
  6
CONTINUOUS
 62
     3
100
AcDbLine
 10
77.0
 20
18.83519592
 30
0.0
 11
79.82249451000001
 21
18.83519592
 31
0.0
  0
LINE
  5
E3
330
1F
100
AcDbEntity
  8
枠
  6
CONTINUOUS
 62
     3
100
AcDbLine
 10
77.0
 20
18.83519592
 30
0.0
 11
77.0
 21
17.92799988
 31
0.0
  0
LINE
  5
E4
330
1F
100
AcDbEntity
  8
枠
  6
CONTINUOUS
 62
     3
100
AcDbLine
 10
82.94726563
 20
17.72640076
 30
0.0
 11
82.94726563
 21
17.02078858
 31
0.0
  0
LINE
  5
E5
330
1F
100
AcDbEntity
  8
枠
  6
CONTINUOUS
 62
     3
100
AcDbLine
 10
82.94726563
 20
17.72640076
 30
0.0
 11
83.86540223
 21
17.72640076
 31
0.0
  0
LINE
  5
E6
330
1F
100
AcDbEntity
  8
枠
  6
CONTINUOUS
 62
     3
100
AcDbLine
 10
83.7536316
 20
18.43199768
 30
0.0
 11
83.86540223
 21
17.72640076
 31
0.0
  0
LINE
  5
E7
330
1F
100
AcDbEntity
  8
枠
  6
CONTINUOUS
 62
     3
100
AcDbLine
 10
83.7536316
 20
18.43199768
 30
0.0
 11
84.87623597000001
 21
18.43199768
 31
0.0
  0
LINE
  5
E8
330
1F
100
AcDbEntity
  8
枠
  6
CONTINUOUS
 62
     3
100
AcDbLine
 10
84.87623597000001
 20
18.43199768
 30
0.0
 11
84.98799134000001
 21
17.72640076
 31
0.0
  0
LINE
  5
E9
330
1F
100
AcDbEntity
  8
枠
  6
CONTINUOUS
 62
     3
100
AcDbLine
 10
84.98799134000001
 20
17.72640076
 30
0.0
 11
87.78567505000001
 21
17.72640076
 31
0.0
  0
LINE
  5
EA
330
1F
100
AcDbEntity
  8
枠
  6
CONTINUOUS
 62
     3
100
AcDbLine
 10
87.78567505000001
 20
17.72640076
 30
0.0
 11
87.19731141
 21
16.40505066
 31
0.0
  0
ARC
  5
EB
330
1F
100
AcDbEntity
  8
枠
  6
CONTINUOUS
 62
     3
100
AcDbCircle
 10
85.81610108000001
 20
17.0200409
 30
0.0
 40
1.51201057
100
AcDbArc
 50
263.4657745199994
 51
335.99877928
  0
LINE
  5
EC
330
1F
100
AcDbEntity
  8
枠
  6
CONTINUOUS
 62
     3
100
AcDbLine
 10
85.64384461
 20
15.51785889
 30
0.0
 11
85.53370666999999
 21
16.21440735
 31
0.0
  0
ARC
  5
ED
330
1F
100
AcDbEntity
  8
枠
  6
CONTINUOUS
 62
     3
100
AcDbCircle
 10
85.50581360000001
 20
16.81920471
 30
0.0
 40
0.60480058
100
AcDbArc
 50
272.6237487799989
 51
336.0065307699997
  0
LINE
  5
EE
330
1F
100
AcDbEntity
  8
枠
  6
CONTINUOUS
 62
     3
100
AcDbLine
 10
86.05850219999999
 20
16.57320252
 30
0.0
 11
86.25762939999998
 21
17.02078858
 31
0.0
  0
LINE
  5
EF
330
1F
100
AcDbEntity
  8
枠
  6
CONTINUOUS
 62
     3
100
AcDbLine
 10
86.25762939999998
 20
17.02078858
 30
0.0
 11
85.09976197
 21
17.02078858
 31
0.0
  0
LINE
  5
F0
330
1F
100
AcDbEntity
  8
枠
  6
CONTINUOUS
 62
     3
100
AcDbLine
 10
85.09976197
 20
17.02078858
 30
0.0
 11
85.51484681
 21
14.4
 31
0.0
  0
LINE
  5
F1
330
1F
100
AcDbEntity
  8
枠
  6
CONTINUOUS
 62
     3
100
AcDbLine
 10
85.51484681
 20
14.4
 30
0.0
 11
84.39224243999999
 21
14.4
 31
0.0
  0
LINE
  5
F2
330
1F
100
AcDbEntity
  8
枠
  6
CONTINUOUS
 62
     2
100
AcDbLine
 10
84.39224243999999
 20
14.4
 30
0.0
 11
83.97717286
 21
17.02078858
 31
0.0
  0
LINE
  5
F3
330
1F
100
AcDbEntity
  8
枠
  6
CONTINUOUS
 62
     2
100
AcDbLine
 10
83.97717286
 20
17.02078858
 30
0.0
 11
82.94726563
 21
17.02078858
 31
0.0
  0
LINE
  5
F4
330
1F
100
AcDbEntity
  8
枠
  6
CONTINUOUS
 62
     3
100
AcDbLine
 10
87.68476867999999
 20
14.4
 30
0.0
 11
87.68476867999999
 21
15.40799561
 31
0.0
  0
LINE
  5
F5
330
1F
100
AcDbEntity
  8
枠
  6
CONTINUOUS
 62
     3
100
AcDbLine
 10
87.68476867999999
 20
15.40799561
 30
0.0
 11
93.32954407
 21
15.40799561
 31
0.0
  0
LINE
  5
F6
330
1F
100
AcDbEntity
  8
枠
  6
CONTINUOUS
 62
     3
100
AcDbLine
 10
93.32954407
 20
15.40799561
 30
0.0
 11
93.32954407
 21
14.4
 31
0.0
  0
LINE
  5
F7
330
1F
100
AcDbEntity
  8
枠
  6
CONTINUOUS
 62
     3
100
AcDbLine
 10
93.32954407
 20
14.4
 30
0.0
 11
87.68476867999999
 21
14.4
 31
0.0
  0
LINE
  5
F8
330
1F
100
AcDbEntity
  8
枠
  6
CONTINUOUS
 62
     3
100
AcDbLine
 10
88.08795165999999
 20
18.83519592
 30
0.0
 11
88.08795165999999
 21
17.82720032
 31
0.0
  0
LINE
  5
F9
330
1F
100
AcDbEntity
  8
枠
  6
CONTINUOUS
 62
     3
100
AcDbLine
 10
88.08795165999999
 20
18.83519592
 30
0.0
 11
92.92636109
 21
18.83519592
 31
0.0
  0
LINE
  5
FA
330
1F
100
AcDbEntity
  8
枠
  6
CONTINUOUS
 62
     3
100
AcDbLine
 10
92.92636109
 20
18.83519592
 30
0.0
 11
92.92636109
 21
17.82720032
 31
0.0
  0
LINE
  5
FB
330
1F
100
AcDbEntity
  8
枠
  6
CONTINUOUS
 62
     3
100
AcDbLine
 10
92.92636109
 20
17.82720032
 30
0.0
 11
88.08795165999999
 21
17.82720032
 31
0.0
  0
LINE
  5
FC
330
1F
100
AcDbEntity
  8
枠
  6
CONTINUOUS
 62
     3
100
AcDbLine
 10
94.03521728999999
 20
18.83519592
 30
0.0
 11
94.03521728999999
 21
17.82720032
 31
0.0
  0
LINE
  5
FD
330
1F
100
AcDbEntity
  8
枠
  6
CONTINUOUS
 62
     3
100
AcDbLine
 10
94.03521728999999
 20
18.83519592
 30
0.0
 11
99.2768097
 21
18.83519592
 31
0.0
  0
LINE
  5
FE
330
1F
100
AcDbEntity
  8
枠
  6
CONTINUOUS
 62
     3
100
AcDbLine
 10
99.2768097
 20
18.83519592
 30
0.0
 11
97.70509339
 21
16.67189636
 31
0.0
  0
LINE
  5
FF
330
1F
100
AcDbEntity
  8
枠
  6
CONTINUOUS
 62
     3
100
AcDbLine
 10
97.70509339
 20
16.67189636
 30
0.0
 11
99.67999268
 21
14.4
 31
0.0
  0
LINE
  5
100
330
1F
100
AcDbEntity
  8
枠
  6
CONTINUOUS
 62
     3
100
AcDbLine
 10
99.67999268
 20
14.4
 30
0.0
 11
98.21081543
 21
14.4
 31
0.0
  0
LINE
  5
101
330
1F
100
AcDbEntity
  8
枠
  6
CONTINUOUS
 62
     3
100
AcDbLine
 10
98.21081543
 20
14.4
 30
0.0
 11
97.03613282
 21
15.75127258
 31
0.0
  0
LINE
  5
102
330
1F
100
AcDbEntity
  8
枠
  6
CONTINUOUS
 62
     3
100
AcDbLine
 10
97.03613282
 20
15.75127258
 30
0.0
 11
96.59788513999999
 21
15.14792481
 31
0.0
  0
ARC
  5
103
330
1F
100
AcDbEntity
  8
枠
  6
CONTINUOUS
 62
     3
100
AcDbCircle
 10
95.12992858999999
 20
16.21440735
 30
0.0
 40
1.81439972
100
AcDbArc
 50
270.0000305200008
 51
324.00115967
  0
LINE
  5
104
330
1F
100
AcDbEntity
  8
枠
  6
CONTINUOUS
 62
     3
100
AcDbLine
 10
95.12992858999999
 20
14.4
 30
0.0
 11
93.63203431
 21
14.4
 31
0.0
  0
LINE
  5
105
330
1F
100
AcDbEntity
  8
枠
  6
CONTINUOUS
 62
     3
100
AcDbLine
 10
93.63203431
 20
14.4
 30
0.0
 11
93.63203431
 21
15.40799561
 31
0.0
  0
LINE
  5
106
330
1F
100
AcDbEntity
  8
枠
  6
CONTINUOUS
 62
     3
100
AcDbLine
 10
93.63203431
 20
15.40799561
 30
0.0
 11
94.90270996999999
 21
15.40799561
 31
0.0
  0
ARC
  5
107
330
1F
100
AcDbEntity
  8
枠
  6
CONTINUOUS
 62
     3
100
AcDbCircle
 10
94.90270996999999
 20
16.41599121
 30
0.0
 40
1.00799942
100
AcDbArc
 50
270.0000305199999
 51
323.9965972900002
  0
LINE
  5
108
330
1F
100
AcDbEntity
  8
枠
  6
CONTINUOUS
 62
     3
100
AcDbLine
 10
95.71809388
 20
15.82350769
 30
0.0
 11
97.17395020000001
 21
17.82720032
 31
0.0
  0
LINE
  5
109
330
1F
100
AcDbEntity
  8
枠
  6
CONTINUOUS
 62
     3
100
AcDbLine
 10
97.17395020000001
 20
17.82720032
 30
0.0
 11
94.03521728999999
 21
17.82720032
 31
0.0
  0
LINE
  5
10A
330
1F
100
AcDbEntity
  8
枠
  6
CONTINUOUS
 62
     3
100
AcDbLine
 10
100.88955689
 20
18.83519592
 30
0.0
 11
100.88955689
 21
18.129599
 31
0.0
  0
LINE
  5
10B
330
1F
100
AcDbEntity
  8
枠
  6
CONTINUOUS
 62
     3
100
AcDbLine
 10
100.88955689
 20
18.83519592
 30
0.0
 11
106.13113404
 21
18.83519592
 31
0.0
  0
LINE
  5
10C
330
1F
100
AcDbEntity
  8
枠
  6
CONTINUOUS
 62
     3
100
AcDbLine
 10
106.13113404
 20
18.83519592
 30
0.0
 11
106.13113404
 21
18.129599
 31
0.0
  0
LINE
  5
10D
330
1F
100
AcDbEntity
  8
枠
  6
CONTINUOUS
 62
     3
100
AcDbLine
 10
106.13113404
 20
18.129599
 30
0.0
 11
104.06477356
 21
18.129599
 31
0.0
  0
LINE
  5
10E
330
1F
100
AcDbEntity
  8
枠
  6
CONTINUOUS
 62
     3
100
AcDbLine
 10
104.06477356
 20
18.129599
 30
0.0
 11
104.06477356
 21
15.20641174
 31
0.0
  0
LINE
  5
10F
330
1F
100
AcDbEntity
  8
枠
  6
CONTINUOUS
 62
     3
100
AcDbLine
 10
104.06477356
 20
15.20641174
 30
0.0
 11
106.33273316
 21
15.20641174
 31
0.0
  0
LINE
  5
110
330
1F
100
AcDbEntity
  8
枠
  6
CONTINUOUS
 62
     3
100
AcDbLine
 10
106.33273316
 20
15.20641174
 30
0.0
 11
106.33273316
 21
14.4
 31
0.0
  0
LINE
  5
111
330
1F
100
AcDbEntity
  8
枠
  6
CONTINUOUS
 62
     3
100
AcDbLine
 10
106.33273316
 20
14.4
 30
0.0
 11
100.68795777
 21
14.4
 31
0.0
  0
LINE
  5
112
330
1F
100
AcDbEntity
  8
枠
  6
CONTINUOUS
 62
     3
100
AcDbLine
 10
100.68795777
 20
14.4
 30
0.0
 11
100.68795777
 21
15.20641174
 31
0.0
  0
LINE
  5
113
330
1F
100
AcDbEntity
  8
枠
  6
CONTINUOUS
 62
     3
100
AcDbLine
 10
100.68795777
 20
15.20641174
 30
0.0
 11
102.95591736
 21
15.20641174
 31
0.0
  0
LINE
  5
114
330
1F
100
AcDbEntity
  8
枠
  6
CONTINUOUS
 62
     3
100
AcDbLine
 10
102.95591736
 20
15.20641174
 30
0.0
 11
102.95591736
 21
18.129599
 31
0.0
  0
LINE
  5
115
330
1F
100
AcDbEntity
  8
枠
  6
CONTINUOUS
 62
     3
100
AcDbLine
 10
102.95591736
 20
18.129599
 30
0.0
 11
100.88955689
 21
18.129599
 31
0.0
  0
LINE
  5
116
330
1F
100
AcDbEntity
  8
枠
  6
CONTINUOUS
 62
     3
100
AcDbLine
 10
106.43362427
 20
18.23039856
 30
0.0
 11
106.43362427
 21
17.76671448
 31
0.0
  0
LINE
  5
117
330
1F
100
AcDbEntity
  8
枠
  6
CONTINUOUS
 62
     3
100
AcDbLine
 10
106.43362427
 20
18.23039856
 30
0.0
 11
107.30931092
 21
18.23039856
 31
0.0
  0
LINE
  5
118
330
1F
100
AcDbEntity
  8
枠
  6
CONTINUOUS
 62
     3
100
AcDbLine
 10
107.30931092
 20
18.23039856
 30
0.0
 11
106.83682251
 21
18.83519592
 31
0.0
  0
LINE
  5
119
330
1F
100
AcDbEntity
  8
枠
  6
CONTINUOUS
 62
     3
100
AcDbLine
 10
106.83682251
 20
18.83519592
 30
0.0
 11
107.732193
 21
18.83519592
 31
0.0
  0
LINE
  5
11A
330
1F
100
AcDbEntity
  8
枠
  6
CONTINUOUS
 62
     3
100
AcDbLine
 10
107.732193
 20
18.83519592
 30
0.0
 11
108.2046814
 21
18.23039856
 31
0.0
  0
LINE
  5
11B
330
1F
100
AcDbEntity
  8
枠
  6
CONTINUOUS
 62
     3
100
AcDbLine
 10
108.2046814
 20
18.23039856
 30
0.0
 11
108.39930726
 21
18.23039856
 31
0.0
  0
LINE
  5
11C
330
1F
100
AcDbEntity
  8
枠
  6
CONTINUOUS
 62
     3
100
AcDbLine
 10
108.39930726
 20
18.23039856
 30
0.0
 11
108.39930726
 21
18.83519592
 31
0.0
  0
LINE
  5
11D
330
1F
100
AcDbEntity
  8
枠
  6
CONTINUOUS
 62
     3
100
AcDbLine
 10
108.39930726
 20
18.83519592
 30
0.0
 11
109.10476685
 21
18.83519592
 31
0.0
  0
LINE
  5
11E
330
1F
100
AcDbEntity
  8
枠
  6
CONTINUOUS
 62
     3
100
AcDbLine
 10
109.10476685
 20
18.83519592
 30
0.0
 11
109.10476685
 21
18.23039856
 31
0.0
  0
LINE
  5
11F
330
1F
100
AcDbEntity
  8
枠
  6
CONTINUOUS
 62
     3
100
AcDbLine
 10
109.10476685
 20
18.23039856
 30
0.0
 11
109.40725708
 21
18.23039856
 31
0.0
  0
LINE
  5
120
330
1F
100
AcDbEntity
  8
枠
  6
CONTINUOUS
 62
     3
100
AcDbLine
 10
109.40725708
 20
18.23039856
 30
0.0
 11
109.40725708
 21
18.83519592
 31
0.0
  0
LINE
  5
121
330
1F
100
AcDbEntity
  8
枠
  6
CONTINUOUS
 62
     3
100
AcDbLine
 10
109.40725708
 20
18.83519592
 30
0.0
 11
110.11273194
 21
18.83519592
 31
0.0
  0
LINE
  5
122
330
1F
100
AcDbEntity
  8
枠
  6
CONTINUOUS
 62
     3
100
AcDbLine
 10
110.11273194
 20
18.83519592
 30
0.0
 11
110.11273194
 21
18.23039856
 31
0.0
  0
LINE
  5
123
330
1F
100
AcDbEntity
  8
枠
  6
CONTINUOUS
 62
     3
100
AcDbLine
 10
110.11273194
 20
18.23039856
 30
0.0
 11
110.30735779
 21
18.23039856
 31
0.0
  0
LINE
  5
124
330
1F
100
AcDbEntity
  8
枠
  6
CONTINUOUS
 62
     3
100
AcDbLine
 10
110.30735779
 20
18.23039856
 30
0.0
 11
110.7798462
 21
18.83519592
 31
0.0
  0
LINE
  5
125
330
1F
100
AcDbEntity
  8
枠
  6
CONTINUOUS
 62
     3
100
AcDbLine
 10
110.7798462
 20
18.83519592
 30
0.0
 11
111.67521668
 21
18.83519592
 31
0.0
  0
LINE
  5
126
330
1F
100
AcDbEntity
  8
枠
  6
CONTINUOUS
 62
     3
100
AcDbLine
 10
111.67521668
 20
18.83519592
 30
0.0
 11
111.20272828
 21
18.23039856
 31
0.0
  0
LINE
  5
127
330
1F
100
AcDbEntity
  8
枠
  6
CONTINUOUS
 62
     3
100
AcDbLine
 10
111.20272828
 20
18.23039856
 30
0.0
 11
112.07839966
 21
18.23039856
 31
0.0
  0
LINE
  5
128
330
1F
100
AcDbEntity
  8
枠
  6
CONTINUOUS
 62
     3
100
AcDbLine
 10
112.07839966
 20
18.23039856
 30
0.0
 11
112.07839966
 21
17.76671448
 31
0.0
  0
LINE
  5
129
330
1F
100
AcDbEntity
  8
枠
  6
CONTINUOUS
 62
     3
100
AcDbLine
 10
112.07839966
 20
17.76671448
 30
0.0
 11
111.01609803
 21
17.76671448
 31
0.0
  0
LINE
  5
12A
330
1F
100
AcDbEntity
  8
枠
  6
CONTINUOUS
 62
     3
100
AcDbLine
 10
111.01609803
 20
17.76671448
 30
0.0
 11
110.83276368
 21
17.26273194
 31
0.0
  0
LINE
  5
12B
330
1F
100
AcDbEntity
  8
枠
  6
CONTINUOUS
 62
     3
100
AcDbLine
 10
110.83276368
 20
17.26273194
 30
0.0
 11
112.07839966
 21
17.26273194
 31
0.0
  0
LINE
  5
12C
330
1F
100
AcDbEntity
  8
枠
  6
CONTINUOUS
 62
     3
100
AcDbLine
 10
112.07839966
 20
17.26273194
 30
0.0
 11
112.07839966
 21
16.79904785
 31
0.0
  0
LINE
  5
12D
330
1F
100
AcDbEntity
  8
枠
  6
CONTINUOUS
 62
     3
100
AcDbLine
 10
112.07839966
 20
16.79904785
 30
0.0
 11
109.75999451
 21
16.79904785
 31
0.0
  0
LINE
  5
12E
330
1F
100
AcDbEntity
  8
枠
  6
CONTINUOUS
 62
     3
100
AcDbLine
 10
109.75999451
 20
16.79904785
 30
0.0
 11
109.75999451
 21
16.56720581
 31
0.0
  0
LINE
  5
12F
330
1F
100
AcDbEntity
  8
枠
  6
CONTINUOUS
 62
     3
100
AcDbLine
 10
109.75999451
 20
16.56720581
 30
0.0
 11
112.07839966
 21
16.56720581
 31
0.0
  0
LINE
  5
130
330
1F
100
AcDbEntity
  8
枠
  6
CONTINUOUS
 62
     3
100
AcDbLine
 10
112.07839966
 20
16.56720581
 30
0.0
 11
112.07839966
 21
16.10352173
 31
0.0
  0
LINE
  5
131
330
1F
100
AcDbEntity
  8
枠
  6
CONTINUOUS
 62
     3
100
AcDbLine
 10
112.07839966
 20
16.10352173
 30
0.0
 11
109.75999451
 21
16.10352173
 31
0.0
  0
LINE
  5
132
330
1F
100
AcDbEntity
  8
枠
  6
CONTINUOUS
 62
     3
100
AcDbLine
 10
109.75999451
 20
16.10352173
 30
0.0
 11
109.75999451
 21
15.87167969
 31
0.0
  0
LINE
  5
133
330
1F
100
AcDbEntity
  8
枠
  6
CONTINUOUS
 62
     3
100
AcDbLine
 10
109.75999451
 20
15.87167969
 30
0.0
 11
112.07839966
 21
15.87167969
 31
0.0
  0
LINE
  5
134
330
1F
100
AcDbEntity
  8
枠
  6
CONTINUOUS
 62
     3
100
AcDbLine
 10
112.07839966
 20
15.87167969
 30
0.0
 11
112.07839966
 21
15.40799561
 31
0.0
  0
LINE
  5
135
330
1F
100
AcDbEntity
  8
枠
  6
CONTINUOUS
 62
     3
100
AcDbLine
 10
112.07839966
 20
15.40799561
 30
0.0
 11
110.96278382
 21
15.40799561
 31
0.0
  0
LINE
  5
136
330
1F
100
AcDbEntity
  8
枠
  6
CONTINUOUS
 62
     3
100
AcDbLine
 10
110.96278382
 20
15.40799561
 30
0.0
 11
112.07839966
 21
14.4
 31
0.0
  0
LINE
  5
137
330
1F
100
AcDbEntity
  8
枠
  6
CONTINUOUS
 62
     3
100
AcDbLine
 10
112.07839966
 20
14.4
 30
0.0
 11
110.87562562
 21
14.4
 31
0.0
  0
LINE
  5
138
330
1F
100
AcDbEntity
  8
枠
  6
CONTINUOUS
 62
     3
100
AcDbLine
 10
110.87562562
 20
14.4
 30
0.0
 11
109.75999451
 21
15.40799561
 31
0.0
  0
LINE
  5
139
330
1F
100
AcDbEntity
  8
枠
  6
CONTINUOUS
 62
     3
100
AcDbLine
 10
109.75999451
 20
15.40799561
 30
0.0
 11
109.75999451
 21
14.4
 31
0.0
  0
LINE
  5
13A
330
1F
100
AcDbEntity
  8
枠
  6
CONTINUOUS
 62
     3
100
AcDbLine
 10
109.75999451
 20
14.4
 30
0.0
 11
108.75204468
 21
14.4
 31
0.0
  0
LINE
  5
13B
330
1F
100
AcDbEntity
  8
枠
  6
CONTINUOUS
 62
     3
100
AcDbLine
 10
108.75204468
 20
14.4
 30
0.0
 11
108.75204468
 21
15.40799561
 31
0.0
  0
LINE
  5
13C
330
1F
100
AcDbEntity
  8
枠
  6
CONTINUOUS
 62
     3
100
AcDbLine
 10
108.75204468
 20
15.40799561
 30
0.0
 11
107.63641358
 21
14.4
 31
0.0
  0
LINE
  5
13D
330
1F
100
AcDbEntity
  8
枠
  6
CONTINUOUS
 62
     3
100
AcDbLine
 10
107.63641358
 20
14.4
 30
0.0
 11
106.43362427
 21
14.4
 31
0.0
  0
LINE
  5
13E
330
1F
100
AcDbEntity
  8
枠
  6
CONTINUOUS
 62
     3
100
AcDbLine
 10
106.43362427
 20
14.4
 30
0.0
 11
107.54925538
 21
15.40799561
 31
0.0
  0
LINE
  5
13F
330
1F
100
AcDbEntity
  8
枠
  6
CONTINUOUS
 62
     3
100
AcDbLine
 10
107.54925538
 20
15.40799561
 30
0.0
 11
106.43362427
 21
15.40799561
 31
0.0
  0
LINE
  5
140
330
1F
100
AcDbEntity
  8
枠
  6
CONTINUOUS
 62
     3
100
AcDbLine
 10
106.43362427
 20
15.40799561
 30
0.0
 11
106.43362427
 21
15.87167969
 31
0.0
  0
LINE
  5
141
330
1F
100
AcDbEntity
  8
枠
  6
CONTINUOUS
 62
     3
100
AcDbLine
 10
106.43362427
 20
15.87167969
 30
0.0
 11
108.75204468
 21
15.87167969
 31
0.0
  0
LINE
  5
142
330
1F
100
AcDbEntity
  8
枠
  6
CONTINUOUS
 62
     3
100
AcDbLine
 10
108.75204468
 20
15.87167969
 30
0.0
 11
108.75204468
 21
16.10352173
 31
0.0
  0
LINE
  5
143
330
1F
100
AcDbEntity
  8
枠
  6
CONTINUOUS
 62
     3
100
AcDbLine
 10
108.75204468
 20
16.10352173
 30
0.0
 11
106.43362427
 21
16.10352173
 31
0.0
  0
LINE
  5
144
330
1F
100
AcDbEntity
  8
枠
  6
CONTINUOUS
 62
     3
100
AcDbLine
 10
106.43362427
 20
16.10352173
 30
0.0
 11
106.43362427
 21
16.56720581
 31
0.0
  0
LINE
  5
145
330
1F
100
AcDbEntity
  8
枠
  6
CONTINUOUS
 62
     3
100
AcDbLine
 10
106.43362427
 20
16.56720581
 30
0.0
 11
108.75204468
 21
16.56720581
 31
0.0
  0
LINE
  5
146
330
1F
100
AcDbEntity
  8
枠
  6
CONTINUOUS
 62
     3
100
AcDbLine
 10
108.75204468
 20
16.56720581
 30
0.0
 11
108.75204468
 21
16.79904785
 31
0.0
  0
LINE
  5
147
330
1F
100
AcDbEntity
  8
枠
  6
CONTINUOUS
 62
     3
100
AcDbLine
 10
108.75204468
 20
16.79904785
 30
0.0
 11
106.43362427
 21
16.79904785
 31
0.0
  0
LINE
  5
148
330
1F
100
AcDbEntity
  8
枠
  6
CONTINUOUS
 62
     3
100
AcDbLine
 10
106.43362427
 20
16.79904785
 30
0.0
 11
106.43362427
 21
17.26273194
 31
0.0
  0
LINE
  5
149
330
1F
100
AcDbEntity
  8
枠
  6
CONTINUOUS
 62
     3
100
AcDbLine
 10
106.43362427
 20
17.26273194
 30
0.0
 11
107.67927552
 21
17.26273194
 31
0.0
  0
LINE
  5
14A
330
1F
100
AcDbEntity
  8
枠
  6
CONTINUOUS
 62
     3
100
AcDbLine
 10
107.67927552
 20
17.26273194
 30
0.0
 11
107.49594117
 21
17.76671448
 31
0.0
  0
LINE
  5
14B
330
1F
100
AcDbEntity
  8
枠
  6
CONTINUOUS
 62
     3
100
AcDbLine
 10
107.49594117
 20
17.76671448
 30
0.0
 11
106.43362427
 21
17.76671448
 31
0.0
  0
LINE
  5
14C
330
1F
100
AcDbEntity
  8
枠
  6
CONTINUOUS
 62
     3
100
AcDbLine
 10
108.56849671
 20
17.76671448
 30
0.0
 11
109.94354249
 21
17.76671448
 31
0.0
  0
LINE
  5
14D
330
1F
100
AcDbEntity
  8
枠
  6
CONTINUOUS
 62
     3
100
AcDbLine
 10
109.94354249
 20
17.76671448
 30
0.0
 11
109.75999451
 21
17.26273194
 31
0.0
  0
LINE
  5
14E
330
1F
100
AcDbEntity
  8
枠
  6
CONTINUOUS
 62
     3
100
AcDbLine
 10
109.75999451
 20
17.26273194
 30
0.0
 11
108.75204468
 21
17.26273194
 31
0.0
  0
LINE
  5
14F
330
1F
100
AcDbEntity
  8
枠
  6
CONTINUOUS
 62
     3
100
AcDbLine
 10
108.75204468
 20
17.26273194
 30
0.0
 11
108.56849671
 21
17.76671448
 31
0.0
  0
LINE
  5
150
330
1F
100
AcDbEntity
  8
枠
  6
CONTINUOUS
 62
     3
100
AcDbLine
 10
114.82563782
 20
18.83519592
 30
0.0
 11
114.49894715
 21
17.52480164
 31
0.0
  0
LINE
  5
151
330
1F
100
AcDbEntity
  8
枠
  6
CONTINUOUS
 62
     3
100
AcDbLine
 10
114.82563782
 20
18.83519592
 30
0.0
 11
115.65681458
 21
18.83519592
 31
0.0
  0
LINE
  5
152
330
1F
100
AcDbEntity
  8
枠
  6
CONTINUOUS
 62
     3
100
AcDbLine
 10
115.65681458
 20
18.83519592
 30
0.0
 11
115.53109742
 21
18.33119812
 31
0.0
  0
LINE
  5
153
330
1F
100
AcDbEntity
  8
枠
  6
CONTINUOUS
 62
     3
100
AcDbLine
 10
115.53109742
 20
18.33119812
 30
0.0
 11
115.8584137
 21
18.33119812
 31
0.0
  0
LINE
  5
154
330
1F
100
AcDbEntity
  8
枠
  6
CONTINUOUS
 62
     3
100
AcDbLine
 10
115.8584137
 20
18.33119812
 30
0.0
 11
115.8584137
 21
18.83519592
 31
0.0
  0
LINE
  5
155
330
1F
100
AcDbEntity
  8
枠
  6
CONTINUOUS
 62
     3
100
AcDbLine
 10
115.8584137
 20
18.83519592
 30
0.0
 11
116.76567078
 21
18.83519592
 31
0.0
  0
LINE
  5
156
330
1F
100
AcDbEntity
  8
枠
  6
CONTINUOUS
 62
     3
100
AcDbLine
 10
116.76567078
 20
18.83519592
 30
0.0
 11
116.76567078
 21
18.33119812
 31
0.0
  0
LINE
  5
157
330
1F
100
AcDbEntity
  8
枠
  6
CONTINUOUS
 62
     3
100
AcDbLine
 10
116.76567078
 20
18.33119812
 30
0.0
 11
117.92477417
 21
18.33119812
 31
0.0
  0
LINE
  5
158
330
1F
100
AcDbEntity
  8
枠
  6
CONTINUOUS
 62
     3
100
AcDbLine
 10
117.92477417
 20
18.33119812
 30
0.0
 11
117.92477417
 21
17.82720032
 31
0.0
  0
LINE
  5
159
330
1F
100
AcDbEntity
  8
枠
  6
CONTINUOUS
 62
     3
100
AcDbLine
 10
116.76567078
 20
17.82720032
 30
0.0
 11
117.92477417
 21
17.82720032
 31
0.0
  0
LINE
  5
15A
330
1F
100
AcDbEntity
  8
枠
  6
CONTINUOUS
 62
     3
100
AcDbLine
 10
116.76567078
 20
17.82720032
 30
0.0
 11
116.76567078
 21
17.32320252
 31
0.0
  0
LINE
  5
15B
330
1F
100
AcDbEntity
  8
枠
  6
CONTINUOUS
 62
     3
100
AcDbLine
 10
116.76567078
 20
17.32320252
 30
0.0
 11
118.02566529
 21
17.32320252
 31
0.0
  0
LINE
  5
15C
330
1F
100
AcDbEntity
  8
枠
  6
CONTINUOUS
 62
     3
100
AcDbLine
 10
118.02566529
 20
17.32320252
 30
0.0
 11
118.02566529
 21
16.81920471
 31
0.0
  0
LINE
  5
15D
330
1F
100
AcDbEntity
  8
枠
  6
CONTINUOUS
 62
     3
100
AcDbLine
 10
118.02566529
 20
16.81920471
 30
0.0
 11
117.58515931
 21
16.81920471
 31
0.0
  0
LINE
  5
15E
330
1F
100
AcDbEntity
  8
枠
  6
CONTINUOUS
 62
     3
100
AcDbLine
 10
117.58515931
 20
16.81920471
 30
0.0
 11
118.02566529
 21
14.4
 31
0.0
  0
LINE
  5
15F
330
1F
100
AcDbEntity
  8
枠
  6
CONTINUOUS
 62
     3
100
AcDbLine
 10
118.02566529
 20
14.4
 30
0.0
 11
117.2059784
 21
14.4
 31
0.0
  0
LINE
  5
160
330
1F
100
AcDbEntity
  8
枠
  6
CONTINUOUS
 62
     3
100
AcDbLine
 10
117.2059784
 20
14.4
 30
0.0
 11
116.76567078
 21
16.8191742
 31
0.0
  0
LINE
  5
161
330
1F
100
AcDbEntity
  8
枠
  6
CONTINUOUS
 62
     3
100
AcDbLine
 10
116.76567078
 20
16.8191742
 30
0.0
 11
116.76567078
 21
14.4
 31
0.0
  0
LINE
  5
162
330
1F
100
AcDbEntity
  8
枠
  6
CONTINUOUS
 62
     3
100
AcDbLine
 10
116.76567078
 20
14.4
 30
0.0
 11
115.8584137
 21
14.4
 31
0.0
  0
LINE
  5
163
330
1F
100
AcDbEntity
  8
枠
  6
CONTINUOUS
 62
     3
100
AcDbLine
 10
115.8584137
 20
14.4
 30
0.0
 11
115.8584137
 21
16.81920471
 31
0.0
  0
LINE
  5
164
330
1F
100
AcDbEntity
  8
枠
  6
CONTINUOUS
 62
     3
100
AcDbLine
 10
115.8584137
 20
16.81920471
 30
0.0
 11
115.41810608
 21
14.4
 31
0.0
  0
LINE
  5
165
330
1F
100
AcDbEntity
  8
枠
  6
CONTINUOUS
 62
     3
100
AcDbLine
 10
115.41810608
 20
14.4
 30
0.0
 11
114.59840394
 21
14.4
 31
0.0
  0
LINE
  5
166
330
1F
100
AcDbEntity
  8
枠
  6
CONTINUOUS
 62
     3
100
AcDbLine
 10
114.59840394
 20
14.4
 30
0.0
 11
115.03871155
 21
16.81920471
 31
0.0
  0
LINE
  5
167
330
1F
100
AcDbEntity
  8
枠
  6
CONTINUOUS
 62
     3
100
AcDbLine
 10
115.03871155
 20
16.81920471
 30
0.0
 11
114.59840394
 21
16.81920471
 31
0.0
  0
LINE
  5
168
330
1F
100
AcDbEntity
  8
枠
  6
CONTINUOUS
 62
     3
100
AcDbLine
 10
114.59840394
 20
16.81920471
 30
0.0
 11
114.59840394
 21
17.32320252
 31
0.0
  0
LINE
  5
169
330
1F
100
AcDbEntity
  8
枠
  6
CONTINUOUS
 62
     3
100
AcDbLine
 10
114.59840394
 20
17.32320252
 30
0.0
 11
115.8584137
 21
17.32320252
 31
0.0
  0
LINE
  5
16A
330
1F
100
AcDbEntity
  8
枠
  6
CONTINUOUS
 62
     3
100
AcDbLine
 10
115.8584137
 20
17.32320252
 30
0.0
 11
115.8584137
 21
17.82720032
 31
0.0
  0
LINE
  5
16B
330
1F
100
AcDbEntity
  8
枠
  6
CONTINUOUS
 62
     3
100
AcDbLine
 10
115.8584137
 20
17.82720032
 30
0.0
 11
115.40539551
 21
17.82720032
 31
0.0
  0
LINE
  5
16C
330
1F
100
AcDbEntity
  8
枠
  6
CONTINUOUS
 62
     3
100
AcDbLine
 10
115.40539551
 20
17.82720032
 30
0.0
 11
115.33012391
 21
17.52480164
 31
0.0
  0
LINE
  5
16D
330
1F
100
AcDbEntity
  8
枠
  6
CONTINUOUS
 62
     3
100
AcDbLine
 10
115.33012391
 20
17.52480164
 30
0.0
 11
114.49894715
 21
17.52480164
 31
0.0
  0
LINE
  5
16E
330
1F
100
AcDbEntity
  8
枠
  6
CONTINUOUS
 62
     3
100
AcDbLine
 10
112.27999878
 20
18.33119812
 30
0.0
 11
112.27999878
 21
17.82720032
 31
0.0
  0
LINE
  5
16F
330
1F
100
AcDbEntity
  8
枠
  6
CONTINUOUS
 62
     3
100
AcDbLine
 10
112.27999878
 20
18.33119812
 30
0.0
 11
113.28796387
 21
18.33119812
 31
0.0
  0
LINE
  5
170
330
1F
100
AcDbEntity
  8
枠
  6
CONTINUOUS
 62
     3
100
AcDbLine
 10
113.28796387
 20
18.33119812
 30
0.0
 11
113.28796387
 21
18.83519592
 31
0.0
  0
LINE
  5
171
330
1F
100
AcDbEntity
  8
枠
  6
CONTINUOUS
 62
     3
100
AcDbLine
 10
113.28796387
 20
18.83519592
 30
0.0
 11
114.19522095
 21
18.83519592
 31
0.0
  0
LINE
  5
172
330
1F
100
AcDbEntity
  8
枠
  6
CONTINUOUS
 62
     3
100
AcDbLine
 10
114.19522095
 20
18.83519592
 30
0.0
 11
114.19522095
 21
18.33119812
 31
0.0
  0
LINE
  5
173
330
1F
100
AcDbEntity
  8
枠
  6
CONTINUOUS
 62
     3
100
AcDbLine
 10
114.19522095
 20
18.33119812
 30
0.0
 11
114.49751282
 21
18.33119812
 31
0.0
  0
LINE
  5
174
330
1F
100
AcDbEntity
  8
枠
  6
CONTINUOUS
 62
     3
100
AcDbLine
 10
114.49751282
 20
18.33119812
 30
0.0
 11
114.49751282
 21
17.82720032
 31
0.0
  0
LINE
  5
175
330
1F
100
AcDbEntity
  8
枠
  6
CONTINUOUS
 62
     3
100
AcDbLine
 10
114.49751282
 20
17.82720032
 30
0.0
 11
114.19522095
 21
17.82720032
 31
0.0
  0
LINE
  5
176
330
1F
100
AcDbEntity
  8
枠
  6
CONTINUOUS
 62
     3
100
AcDbLine
 10
114.19522095
 20
17.82720032
 30
0.0
 11
114.49751282
 21
17.41100159
 31
0.0
  0
LINE
  5
177
330
1F
100
AcDbEntity
  8
枠
  6
CONTINUOUS
 62
     3
100
AcDbLine
 10
114.49751282
 20
17.41100159
 30
0.0
 11
114.49751282
 21
16.38207092
 31
0.0
  0
LINE
  5
178
330
1F
100
AcDbEntity
  8
枠
  6
CONTINUOUS
 62
     3
100
AcDbLine
 10
114.49751282
 20
16.38207092
 30
0.0
 11
114.19522095
 21
16.79828491
 31
0.0
  0
LINE
  5
179
330
1F
100
AcDbEntity
  8
枠
  6
CONTINUOUS
 62
     3
100
AcDbLine
 10
114.19522095
 20
16.79828491
 30
0.0
 11
114.19522095
 21
14.4
 31
0.0
  0
LINE
  5
17A
330
1F
100
AcDbEntity
  8
枠
  6
CONTINUOUS
 62
     3
100
AcDbLine
 10
114.19522095
 20
14.4
 30
0.0
 11
113.28796387
 21
14.4
 31
0.0
  0
LINE
  5
17B
330
1F
100
AcDbEntity
  8
枠
  6
CONTINUOUS
 62
     3
100
AcDbLine
 10
113.28796387
 20
14.4
 30
0.0
 11
113.28796387
 21
17.82720032
 31
0.0
  0
LINE
  5
17C
330
1F
100
AcDbEntity
  8
枠
  6
CONTINUOUS
 62
     3
100
AcDbLine
 10
113.24838257
 20
17.82720032
 30
0.0
 11
112.88806153
 21
14.4
 31
0.0
  0
LINE
  5
17D
330
1F
100
AcDbEntity
  8
枠
  6
CONTINUOUS
 62
     3
100
AcDbLine
 10
112.88806153
 20
14.4
 30
0.0
 11
112.27999878
 21
14.4
 31
0.0
  0
LINE
  5
17E
330
1F
100
AcDbEntity
  8
枠
  6
CONTINUOUS
 62
     3
100
AcDbLine
 10
112.27999878
 20
14.4
 30
0.0
 11
112.64031983
 21
17.82720032
 31
0.0
  0
LINE
  5
17F
330
1F
100
AcDbEntity
  8
枠
  6
CONTINUOUS
 62
     3
100
AcDbLine
 10
112.64031983
 20
17.82720032
 30
0.0
 11
112.27999878
 21
17.82720032
 31
0.0
  0
LINE
  5
180
330
1F
100
AcDbEntity
  8
枠
  6
CONTINUOUS
 62
     3
100
AcDbLine
 10
118.52955628
 20
17.22240296
 30
0.0
 11
118.52955628
 21
16.61760559
 31
0.0
  0
LINE
  5
181
330
1F
100
AcDbEntity
  8
枠
  6
CONTINUOUS
 62
     3
100
AcDbLine
 10
118.52955628
 20
17.22240296
 30
0.0
 11
121.55363465
 21
17.22240296
 31
0.0
  0
LINE
  5
182
330
1F
100
AcDbEntity
  8
枠
  6
CONTINUOUS
 62
     3
100
AcDbLine
 10
121.55363465
 20
17.22240296
 30
0.0
 11
121.55363465
 21
16.61760559
 31
0.0
  0
LINE
  5
183
330
1F
100
AcDbEntity
  8
枠
  6
CONTINUOUS
 62
     3
100
AcDbLine
 10
121.55363465
 20
16.61760559
 30
0.0
 11
120.59591675
 21
16.61760559
 31
0.0
  0
LINE
  5
184
330
1F
100
AcDbEntity
  8
枠
  6
CONTINUOUS
 62
     3
100
AcDbLine
 10
120.59591675
 20
16.61760559
 30
0.0
 11
120.59591675
 21
15.77741089
 31
0.0
  0
LINE
  5
185
330
1F
100
AcDbEntity
  8
枠
  6
CONTINUOUS
 62
     3
100
AcDbLine
 10
120.59591675
 20
15.77741089
 30
0.0
 11
121.6040802
 21
15.99165955
 31
0.0
  0
LINE
  5
186
330
1F
100
AcDbEntity
  8
枠
  6
CONTINUOUS
 62
     3
100
AcDbLine
 10
121.6040802
 20
15.99165955
 30
0.0
 11
121.6040802
 21
15.06419983
 31
0.0
  0
LINE
  5
187
330
1F
100
AcDbEntity
  8
枠
  6
CONTINUOUS
 62
     3
100
AcDbLine
 10
121.6040802
 20
15.06419983
 30
0.0
 11
118.47909546
 21
14.4
 31
0.0
  0
LINE
  5
188
330
1F
100
AcDbEntity
  8
枠
  6
CONTINUOUS
 62
     3
100
AcDbLine
 10
118.47909546
 20
14.4
 30
0.0
 11
118.47909546
 21
15.32745972
 31
0.0
  0
LINE
  5
189
330
1F
100
AcDbEntity
  8
枠
  6
CONTINUOUS
 62
     3
100
AcDbLine
 10
118.47909546
 20
15.32745972
 30
0.0
 11
119.48725892
 21
15.54172363
 31
0.0
  0
LINE
  5
18A
330
1F
100
AcDbEntity
  8
枠
  6
CONTINUOUS
 62
     3
100
AcDbLine
 10
119.48725892
 20
15.54172363
 30
0.0
 11
119.48725892
 21
16.61760559
 31
0.0
  0
LINE
  5
18B
330
1F
100
AcDbEntity
  8
枠
  6
CONTINUOUS
 62
     3
100
AcDbLine
 10
119.48725892
 20
16.61760559
 30
0.0
 11
118.52955628
 21
16.61760559
 31
0.0
  0
LINE
  5
18C
330
1F
100
AcDbEntity
  8
枠
  6
CONTINUOUS
 62
     3
100
AcDbLine
 10
118.22726441
 20
18.43199768
 30
0.0
 11
118.22726441
 21
17.82720032
 31
0.0
  0
LINE
  5
18D
330
1F
100
AcDbEntity
  8
枠
  6
CONTINUOUS
 62
     3
100
AcDbLine
 10
118.22726441
 20
18.43199768
 30
0.0
 11
121.22448731
 21
18.43199768
 31
0.0
  0
LINE
  5
18E
330
1F
100
AcDbEntity
  8
枠
  6
CONTINUOUS
 62
     3
100
AcDbLine
 10
121.22448731
 20
18.43199768
 30
0.0
 11
121.07785035
 21
18.83519592
 31
0.0
  0
LINE
  5
18F
330
1F
100
AcDbEntity
  8
枠
  6
CONTINUOUS
 62
     3
100
AcDbLine
 10
121.07785035
 20
18.83519592
 30
0.0
 11
122.25765992
 21
18.83519592
 31
0.0
  0
LINE
  5
190
330
1F
100
AcDbEntity
  8
枠
  6
CONTINUOUS
 62
     3
100
AcDbLine
 10
122.25765992
 20
18.83519592
 30
0.0
 11
122.40449524
 21
18.43199768
 31
0.0
  0
LINE
  5
191
330
1F
100
AcDbEntity
  8
枠
  6
CONTINUOUS
 62
     3
100
AcDbLine
 10
122.40449524
 20
18.43199768
 30
0.0
 11
122.66249085
 21
18.43199768
 31
0.0
  0
LINE
  5
192
330
1F
100
AcDbEntity
  8
枠
  6
CONTINUOUS
 62
     3
100
AcDbLine
 10
122.66249085
 20
18.43199768
 30
0.0
 11
122.66249085
 21
18.83519592
 31
0.0
  0
LINE
  5
193
330
1F
100
AcDbEntity
  8
枠
  6
CONTINUOUS
 62
     3
100
AcDbLine
 10
122.66249085
 20
18.83519592
 30
0.0
 11
123.56954957
 21
18.83519592
 31
0.0
  0
LINE
  5
194
330
1F
100
AcDbEntity
  8
枠
  6
CONTINUOUS
 62
     3
100
AcDbLine
 10
123.56954957
 20
18.83519592
 30
0.0
 11
123.56954957
 21
18.43199768
 31
0.0
  0
LINE
  5
195
330
1F
100
AcDbEntity
  8
枠
  6
CONTINUOUS
 62
     3
100
AcDbLine
 10
123.56954957
 20
18.43199768
 30
0.0
 11
123.8720398
 21
18.43199768
 31
0.0
  0
LINE
  5
196
330
1F
100
AcDbEntity
  8
枠
  6
CONTINUOUS
 62
     3
100
AcDbLine
 10
123.8720398
 20
18.43199768
 30
0.0
 11
123.8720398
 21
17.82720032
 31
0.0
  0
LINE
  5
197
330
1F
100
AcDbEntity
  8
枠
  6
CONTINUOUS
 62
     3
100
AcDbLine
 10
123.8720398
 20
17.82720032
 30
0.0
 11
122.62454224
 21
17.82720032
 31
0.0
  0
LINE
  5
198
330
1F
100
AcDbEntity
  8
枠
  6
CONTINUOUS
 62
     3
100
AcDbLine
 10
122.62454224
 20
17.82720032
 30
0.0
 11
123.8720398
 21
14.4
 31
0.0
  0
LINE
  5
199
330
1F
100
AcDbEntity
  8
枠
  6
CONTINUOUS
 62
     3
100
AcDbLine
 10
123.8720398
 20
14.4
 30
0.0
 11
122.69201661
 21
14.4
 31
0.0
  0
LINE
  5
19A
330
1F
100
AcDbEntity
  8
枠
  6
CONTINUOUS
 62
     3
100
AcDbLine
 10
122.69201661
 20
14.4
 30
0.0
 11
121.44473267
 21
17.82720032
 31
0.0
  0
LINE
  5
19B
330
1F
100
AcDbEntity
  8
枠
  6
CONTINUOUS
 62
     3
100
AcDbLine
 10
121.44473267
 20
17.82720032
 30
0.0
 11
118.22726441
 21
17.82720032
 31
0.0
  0
LINE
  5
19C
330
1F
100
AcDbEntity
  8
枠
  6
CONTINUOUS
 62
     3
100
AcDbLine
 10
124.07363892
 20
17.97478333
 30
0.0
 11
124.07363892
 21
17.33699646
 31
0.0
  0
LINE
  5
19D
330
1F
100
AcDbEntity
  8
枠
  6
CONTINUOUS
 62
     3
100
AcDbLine
 10
124.07363892
 20
17.97478333
 30
0.0
 11
126.94636536
 21
18.93599548
 31
0.0
  0
LINE
  5
19E
330
1F
100
AcDbEntity
  8
枠
  6
CONTINUOUS
 62
     3
100
AcDbLine
 10
126.94636536
 20
18.93599548
 30
0.0
 11
129.81910706
 21
17.97475281
 31
0.0
  0
LINE
  5
19F
330
1F
100
AcDbEntity
  8
枠
  6
CONTINUOUS
 62
     3
100
AcDbLine
 10
129.81910706
 20
17.97475281
 30
0.0
 11
129.81910706
 21
17.33699646
 31
0.0
  0
LINE
  5
1A0
330
1F
100
AcDbEntity
  8
枠
  6
CONTINUOUS
 62
     3
100
AcDbLine
 10
129.81910706
 20
17.33699646
 30
0.0
 11
128.9624939
 21
17.62367859
 31
0.0
  0
LINE
  5
1A1
330
1F
100
AcDbEntity
  8
枠
  6
CONTINUOUS
 62
     3
100
AcDbLine
 10
128.9624939
 20
17.62367859
 30
0.0
 11
128.9624939
 21
17.1216034
 31
0.0
  0
LINE
  5
1A2
330
1F
100
AcDbEntity
  8
枠
  6
CONTINUOUS
 62
     3
100
AcDbLine
 10
128.9624939
 20
17.1216034
 30
0.0
 11
124.93045044
 21
17.1216034
 31
0.0
  0
LINE
  5
1A3
330
1F
100
AcDbEntity
  8
枠
  6
CONTINUOUS
 62
     3
100
AcDbLine
 10
124.93045044
 20
17.1216034
 30
0.0
 11
124.93045044
 21
17.62367859
 31
0.0
  0
LINE
  5
1A4
330
1F
100
AcDbEntity
  8
枠
  6
CONTINUOUS
 62
     3
100
AcDbLine
 10
124.93045044
 20
17.62367859
 30
0.0
 11
124.07363892
 21
17.33699646
 31
0.0
  0
LINE
  5
1A5
330
1F
100
AcDbEntity
  8
枠
  6
CONTINUOUS
 62
     3
100
AcDbLine
 10
125.23745728
 20
17.72640076
 30
0.0
 11
126.94636536
 21
18.29822388
 31
0.0
  0
LINE
  5
1A6
330
1F
100
AcDbEntity
  8
枠
  6
CONTINUOUS
 62
     3
100
AcDbLine
 10
126.94636536
 20
18.29822388
 30
0.0
 11
128.65548707
 21
17.72640076
 31
0.0
  0
LINE
  5
1A7
330
1F
100
AcDbEntity
  8
枠
  6
CONTINUOUS
 62
     3
100
AcDbLine
 10
128.65548707
 20
17.72640076
 30
0.0
 11
125.23745728
 21
17.72640076
 31
0.0
  0
LINE
  5
1A8
330
1F
100
AcDbEntity
  8
枠
  6
CONTINUOUS
 62
     3
100
AcDbLine
 10
124.07363892
 20
16.71838989
 30
0.0
 11
124.07363892
 21
16.11359253
 31
0.0
  0
LINE
  5
1A9
330
1F
100
AcDbEntity
  8
枠
  6
CONTINUOUS
 62
     3
100
AcDbLine
 10
124.07363892
 20
16.71838989
 30
0.0
 11
129.81910706
 21
16.71838989
 31
0.0
  0
LINE
  5
1AA
330
1F
100
AcDbEntity
  8
枠
  6
CONTINUOUS
 62
     3
100
AcDbLine
 10
129.81910706
 20
16.71838989
 30
0.0
 11
129.81910706
 21
16.11359253
 31
0.0
  0
LINE
  5
1AB
330
1F
100
AcDbEntity
  8
枠
  6
CONTINUOUS
 62
     3
100
AcDbLine
 10
129.81910706
 20
16.11359253
 30
0.0
 11
129.02011109
 21
16.11359253
 31
0.0
  0
LINE
  5
1AC
330
1F
100
AcDbEntity
  8
枠
  6
CONTINUOUS
 62
     3
100
AcDbLine
 10
129.02011109
 20
16.11359253
 30
0.0
 11
129.81910706
 21
14.4
 31
0.0
  0
LINE
  5
1AD
330
1F
100
AcDbEntity
  8
枠
  6
CONTINUOUS
 62
     3
100
AcDbLine
 10
129.81910706
 20
14.4
 30
0.0
 11
124.07363892
 21
14.4
 31
0.0
  0
LINE
  5
1AE
330
1F
100
AcDbEntity
  8
枠
  6
CONTINUOUS
 62
     3
100
AcDbLine
 10
124.07363892
 20
14.4
 30
0.0
 11
124.87261963
 21
16.11359253
 31
0.0
  0
LINE
  5
1AF
330
1F
100
AcDbEntity
  8
枠
  6
CONTINUOUS
 62
     3
100
AcDbLine
 10
124.87261963
 20
16.11359253
 30
0.0
 11
124.07363892
 21
16.11359253
 31
0.0
  0
LINE
  5
1B0
330
1F
100
AcDbEntity
  8
枠
  6
CONTINUOUS
 62
     3
100
AcDbLine
 10
125.98475647
 20
16.11359253
 30
0.0
 11
127.90797425
 21
16.11359253
 31
0.0
  0
LINE
  5
1B1
330
1F
100
AcDbEntity
  8
枠
  6
CONTINUOUS
 62
     3
100
AcDbLine
 10
127.90797425
 20
16.11359253
 30
0.0
 11
128.42497254
 21
15.00479736
 31
0.0
  0
LINE
  5
1B2
330
1F
100
AcDbEntity
  8
枠
  6
CONTINUOUS
 62
     3
100
AcDbLine
 10
128.42497254
 20
15.00479736
 30
0.0
 11
125.46775818
 21
15.00479736
 31
0.0
  0
LINE
  5
1B3
330
1F
100
AcDbEntity
  8
枠
  6
CONTINUOUS
 62
     3
100
AcDbLine
 10
125.98475647
 20
16.11359253
 30
0.0
 11
125.46775818
 21
15.00479736
 31
0.0
  0
LINE
  5
1B4
330
1F
100
AcDbEntity
  8
枠
  6
CONTINUOUS
 62
     3
100
AcDbLine
 10
132.74249268
 20
17.72640076
 30
0.0
 11
132.74249268
 21
17.1216034
 31
0.0
  0
LINE
  5
1B5
330
1F
100
AcDbEntity
  8
枠
  6
CONTINUOUS
 62
     3
100
AcDbLine
 10
132.74249268
 20
17.72640076
 30
0.0
 11
133.6495514
 21
17.72640076
 31
0.0
  0
LINE
  5
1B6
330
1F
100
AcDbEntity
  8
枠
  6
CONTINUOUS
 62
     3
100
AcDbLine
 10
133.6495514
 20
17.72640076
 30
0.0
 11
133.6495514
 21
18.83519592
 31
0.0
  0
LINE
  5
1B7
330
1F
100
AcDbEntity
  8
枠
  6
CONTINUOUS
 62
     3
100
AcDbLine
 10
133.6495514
 20
18.83519592
 30
0.0
 11
134.65750123
 21
18.83519592
 31
0.0
  0
LINE
  5
1B8
330
1F
100
AcDbEntity
  8
枠
  6
CONTINUOUS
 62
     3
100
AcDbLine
 10
134.65750123
 20
18.83519592
 30
0.0
 11
134.65750123
 21
17.72640076
 31
0.0
  0
LINE
  5
1B9
330
1F
100
AcDbEntity
  8
枠
  6
CONTINUOUS
 62
     3
100
AcDbLine
 10
134.65750123
 20
17.72640076
 30
0.0
 11
135.56477356
 21
17.72640076
 31
0.0
  0
LINE
  5
1BA
330
1F
100
AcDbEntity
  8
枠
  6
CONTINUOUS
 62
     3
100
AcDbLine
 10
135.56477356
 20
17.72640076
 30
0.0
 11
135.56477356
 21
17.1216034
 31
0.0
  0
LINE
  5
1BB
330
1F
100
AcDbEntity
  8
枠
  6
CONTINUOUS
 62
     3
100
AcDbLine
 10
135.56477356
 20
17.1216034
 30
0.0
 11
134.65750123
 21
17.1216034
 31
0.0
  0
LINE
  5
1BC
330
1F
100
AcDbEntity
  8
枠
  6
CONTINUOUS
 62
     3
100
AcDbLine
 10
134.65750123
 20
17.1216034
 30
0.0
 11
134.65750123
 21
15.00479736
 31
0.0
  0
LINE
  5
1BD
330
1F
100
AcDbEntity
  8
枠
  6
CONTINUOUS
 62
     3
100
AcDbLine
 10
134.65750123
 20
15.00479736
 30
0.0
 11
135.66566468
 21
15.00479736
 31
0.0
  0
LINE
  5
1BE
330
1F
100
AcDbEntity
  8
枠
  6
CONTINUOUS
 62
     3
100
AcDbLine
 10
135.66566468
 20
15.00479736
 30
0.0
 11
135.66566468
 21
14.4
 31
0.0
  0
LINE
  5
1BF
330
1F
100
AcDbEntity
  8
枠
  6
CONTINUOUS
 62
     3
100
AcDbLine
 10
135.66566468
 20
14.4
 30
0.0
 11
132.33909607
 21
14.4
 31
0.0
  0
LINE
  5
1C0
330
1F
100
AcDbEntity
  8
枠
  6
CONTINUOUS
 62
     3
100
AcDbLine
 10
132.33909607
 20
14.4
 30
0.0
 11
132.33909607
 21
15.00479736
 31
0.0
  0
LINE
  5
1C1
330
1F
100
AcDbEntity
  8
枠
  6
CONTINUOUS
 62
     3
100
AcDbLine
 10
132.33909607
 20
15.00479736
 30
0.0
 11
133.6495514
 21
15.00479736
 31
0.0
  0
LINE
  5
1C2
330
1F
100
AcDbEntity
  8
枠
  6
CONTINUOUS
 62
     3
100
AcDbLine
 10
133.6495514
 20
15.00479736
 30
0.0
 11
133.6495514
 21
17.1216034
 31
0.0
  0
LINE
  5
1C3
330
1F
100
AcDbEntity
  8
枠
  6
CONTINUOUS
 62
     3
100
AcDbLine
 10
133.6495514
 20
17.1216034
 30
0.0
 11
132.74249268
 21
17.1216034
 31
0.0
  0
LINE
  5
1C4
330
1F
100
AcDbEntity
  8
枠
  6
CONTINUOUS
 62
     3
100
AcDbLine
 10
130.02069092
 20
18.43199768
 30
0.0
 11
130.02069092
 21
17.82720032
 31
0.0
  0
LINE
  5
1C5
330
1F
100
AcDbEntity
  8
枠
  6
CONTINUOUS
 62
     3
100
AcDbLine
 10
130.02069092
 20
18.43199768
 30
0.0
 11
130.92796326
 21
18.43199768
 31
0.0
  0
LINE
  5
1C6
330
1F
100
AcDbEntity
  8
枠
  6
CONTINUOUS
 62
     3
100
AcDbLine
 10
130.92796326
 20
18.43199768
 30
0.0
 11
130.92796326
 21
18.83519592
 31
0.0
  0
LINE
  5
1C7
330
1F
100
AcDbEntity
  8
枠
  6
CONTINUOUS
 62
     3
100
AcDbLine
 10
130.92796326
 20
18.83519592
 30
0.0
 11
131.93591309
 21
18.83519592
 31
0.0
  0
LINE
  5
1C8
330
1F
100
AcDbEntity
  8
枠
  6
CONTINUOUS
 62
     3
100
AcDbLine
 10
131.93591309
 20
18.83519592
 30
0.0
 11
131.93591309
 21
18.43199768
 31
0.0
  0
LINE
  5
1C9
330
1F
100
AcDbEntity
  8
枠
  6
CONTINUOUS
 62
     3
100
AcDbLine
 10
131.93591309
 20
18.43199768
 30
0.0
 11
132.84318543
 21
18.43199768
 31
0.0
  0
LINE
  5
1CA
330
1F
100
AcDbEntity
  8
枠
  6
CONTINUOUS
 62
     3
100
AcDbLine
 10
132.84318543
 20
18.43199768
 30
0.0
 11
131.80261231
 21
16.945578
 31
0.0
  0
LINE
  5
1CB
330
1F
100
AcDbEntity
  8
枠
  6
CONTINUOUS
 62
     3
100
AcDbLine
 10
131.80261231
 20
16.945578
 30
0.0
 11
132.74249268
 21
16.2875885
 31
0.0
  0
LINE
  5
1CC
330
1F
100
AcDbEntity
  8
枠
  6
CONTINUOUS
 62
     3
100
AcDbLine
 10
132.74249268
 20
16.2875885
 30
0.0
 11
132.74249268
 21
15.18012085
 31
0.0
  0
LINE
  5
1CD
330
1F
100
AcDbEntity
  8
枠
  6
CONTINUOUS
 62
     3
100
AcDbLine
 10
132.74249268
 20
15.18012085
 30
0.0
 11
131.93591309
 21
15.74477234
 31
0.0
  0
LINE
  5
1CE
330
1F
100
AcDbEntity
  8
枠
  6
CONTINUOUS
 62
     3
100
AcDbLine
 10
131.93591309
 20
15.74477234
 30
0.0
 11
131.93591309
 21
14.4
 31
0.0
  0
LINE
  5
1CF
330
1F
100
AcDbEntity
  8
枠
  6
CONTINUOUS
 62
     3
100
AcDbLine
 10
131.93591309
 20
14.4
 30
0.0
 11
130.92796326
 21
14.4
 31
0.0
  0
LINE
  5
1D0
330
1F
100
AcDbEntity
  8
枠
  6
CONTINUOUS
 62
     3
100
AcDbLine
 10
130.92796326
 20
14.4
 30
0.0
 11
130.92796326
 21
15.69598999
 31
0.0
  0
LINE
  5
1D1
330
1F
100
AcDbEntity
  8
枠
  6
CONTINUOUS
 62
     3
100
AcDbLine
 10
130.92796326
 20
15.69598999
 30
0.0
 11
130.02069092
 21
14.4
 31
0.0
  0
LINE
  5
1D2
330
1F
100
AcDbEntity
  8
枠
  6
CONTINUOUS
 62
     3
100
AcDbLine
 10
130.02069092
 20
14.4
 30
0.0
 11
130.02069092
 21
15.9819397
 31
0.0
  0
LINE
  5
1D3
330
1F
100
AcDbEntity
  8
枠
  6
CONTINUOUS
 62
     3
100
AcDbLine
 10
130.02069092
 20
15.9819397
 30
0.0
 11
131.31248475
 21
17.82720032
 31
0.0
  0
LINE
  5
1D4
330
1F
100
AcDbEntity
  8
枠
  6
CONTINUOUS
 62
     3
100
AcDbLine
 10
131.31248475
 20
17.82720032
 30
0.0
 11
130.02069092
 21
17.82720032
 31
0.0
  0
ARC
  5
1D5
330
1F
100
AcDbEntity
  8
枠
  6
CONTINUOUS
 62
     2
100
AcDbCircle
 10
85.81610108000001
 20
17.0200409
 30
0.0
 40
0.6300122100000001
100
AcDbArc
 50
310.7683105900002
 51
335.9987793399995
  0
LINE
  5
1D6
330
1F
100
AcDbEntity
  8
枠
  6
CONTINUOUS
 62
     2
100
AcDbLine
 10
86.54002381000001
 20
17.09641113
 30
0.0
 11
86.39196777999999
 21
16.76390686
 31
0.0
  0
LINE
  5
1D7
330
1F
100
AcDbEntity
  8
枠
  6
CONTINUOUS
 62
     2
100
AcDbLine
 10
84.79850769999999
 20
17.47440186
 30
0.0
 11
87.12184144
 21
17.47440186
 31
0.0
  0
ARC
  5
1D8
330
1F
100
AcDbEntity
  8
枠
  6
CONTINUOUS
 62
     2
100
AcDbCircle
 10
95.12992858999999
 20
16.21440735
 30
0.0
 40
1.56240082
100
AcDbArc
 50
270.0000305200002
 51
324.0011596700003
  0
ARC
  5
1D9
330
1F
100
AcDbEntity
  8
枠
  6
CONTINUOUS
 62
     2
100
AcDbCircle
 10
95.12992858999999
 20
16.21440735
 30
0.0
 40
1.31040096
100
AcDbArc
 50
270.0000305200008
 51
324.0011596700003
  0
ARC
  5
1DA
330
1F
100
AcDbEntity
  8
枠
  6
CONTINUOUS
 62
     2
100
AcDbCircle
 10
79.85656739000001
 20
16.21440735
 30
0.0
 40
1.56239796
100
AcDbArc
 50
270.0000305199999
 51
333.99855042
  0
ARC
  5
1DB
330
1F
100
AcDbEntity
  8
枠
  6
CONTINUOUS
 62
     2
100
AcDbCircle
 10
79.7765503
 20
16.21440735
 30
0.0
 40
1.0583992
100
AcDbArc
 50
270.0000305200008
 51
333.99855042
  0
ARC
  5
1DC
330
1F
100
AcDbEntity
  8
枠
  6
CONTINUOUS
 62
     2
100
AcDbCircle
 10
79.81655884
 20
16.21440735
 30
0.0
 40
1.31039906
100
AcDbArc
 50
270.0000305200002
 51
333.99855042
  0
LINE
  5
1DD
330
1F
100
AcDbEntity
  8
枠
  6
CONTINUOUS
 62
     2
100
AcDbLine
 10
77.18408203999999
 20
18.60321274
 30
0.0
 11
79.63839722
 21
18.60321274
 31
0.0
  0
LINE
  5
1DE
330
1F
100
AcDbEntity
  8
枠
  6
CONTINUOUS
 62
     2
100
AcDbLine
 10
77.18408203999999
 20
18.3712143
 30
0.0
 11
79.63839722
 21
18.3712143
 31
0.0
  0
LINE
  5
1DF
330
1F
100
AcDbEntity
  8
枠
  6
CONTINUOUS
 62
     2
100
AcDbLine
 10
77.18408203999999
 20
18.13923111
 30
0.0
 11
79.63839722
 21
18.13923111
 31
0.0
  0
LINE
  5
1E0
330
1F
100
AcDbEntity
  8
枠
  6
CONTINUOUS
 62
     2
100
AcDbLine
 10
77.18408203999999
 20
17.41360321
 30
0.0
 11
79.63839722
 21
17.41360321
 31
0.0
  0
LINE
  5
1E1
330
1F
100
AcDbEntity
  8
枠
  6
CONTINUOUS
 62
     2
100
AcDbLine
 10
77.18408203999999
 20
17.16158905
 30
0.0
 11
79.63839722
 21
17.16158905
 31
0.0
  0
LINE
  5
1E2
330
1F
100
AcDbEntity
  8
枠
  6
CONTINUOUS
 62
     2
100
AcDbLine
 10
77.18408203999999
 20
16.92960587
 30
0.0
 11
79.63839722
 21
16.92960587
 31
0.0
  0
LINE
  5
1E3
330
1F
100
AcDbEntity
  8
枠
  6
CONTINUOUS
 62
     2
100
AcDbLine
 10
77.18408203999999
 20
15.15599671
 30
0.0
 11
79.7765503
 21
15.15599671
 31
0.0
  0
LINE
  5
1E4
330
1F
100
AcDbEntity
  8
枠
  6
CONTINUOUS
 62
     2
100
AcDbLine
 10
77.18408203999999
 20
14.9039978
 30
0.0
 11
79.7765503
 21
14.9039978
 31
0.0
  0
LINE
  5
1E5
330
1F
100
AcDbEntity
  8
枠
  6
CONTINUOUS
 62
     2
100
AcDbLine
 10
77.18408203999999
 20
14.6519989
 30
0.0
 11
79.7765503
 21
14.6519989
 31
0.0
  0
LINE
  5
1E6
330
1F
100
AcDbEntity
  8
枠
  6
CONTINUOUS
 62
     2
100
AcDbLine
 10
80.72770691
 20
15.75040283
 30
0.0
 11
81.61082459
 21
17.56103649
 31
0.0
  0
LINE
  5
1E7
330
1F
100
AcDbEntity
  8
枠
  6
CONTINUOUS
 62
     2
100
AcDbLine
 10
80.99412537
 20
15.63995972
 30
0.0
 11
81.93116760999999
 21
17.56103745
 31
0.0
  0
LINE
  5
1E8
330
1F
100
AcDbEntity
  8
枠
  6
CONTINUOUS
 62
     2
100
AcDbLine
 10
81.26052856999999
 20
15.52942505
 30
0.0
 11
82.25131225999999
 21
17.56103459
 31
0.0
  0
LINE
  5
1E9
330
1F
100
AcDbEntity
  8
枠
  6
CONTINUOUS
 62
     2
100
AcDbLine
 10
80.91363526
 20
18.56959763
 30
0.0
 11
81.35183716
 21
18.56959763
 31
0.0
  0
LINE
  5
1EA
330
1F
100
AcDbEntity
  8
枠
  6
CONTINUOUS
 62
     2
100
AcDbLine
 10
80.91363526
 20
18.28399887
 30
0.0
 11
81.35183716
 21
18.28399887
 31
0.0
  0
LINE
  5
1EB
330
1F
100
AcDbEntity
  8
枠
  6
CONTINUOUS
 62
     2
100
AcDbLine
 10
82.02249146
 20
18.56959763
 30
0.0
 11
82.46069336
 21
18.56959763
 31
0.0
  0
LINE
  5
1EC
330
1F
100
AcDbEntity
  8
枠
  6
CONTINUOUS
 62
     2
100
AcDbLine
 10
82.02249146
 20
18.28399887
 30
0.0
 11
82.46069336
 21
18.28399887
 31
0.0
  0
LINE
  5
1ED
330
1F
100
AcDbEntity
  8
枠
  6
CONTINUOUS
 62
     2
100
AcDbLine
 10
83.13134765999999
 20
17.22241821
 30
0.0
 11
84.32806396999999
 21
17.22241821
 31
0.0
  0
LINE
  5
1EE
330
1F
100
AcDbEntity
  8
枠
  6
CONTINUOUS
 62
     2
100
AcDbLine
 10
84.03753663
 20
18.25026837
 30
0.0
 11
84.16050720999999
 21
17.47440186
 31
0.0
  0
LINE
  5
1EF
330
1F
100
AcDbEntity
  8
枠
  6
CONTINUOUS
 62
     2
100
AcDbLine
 10
84.61880493999999
 20
14.58173027
 30
0.0
 11
84.24490356999999
 21
16.94190445
 31
0.0
  0
ARC
  5
1F0
330
1F
100
AcDbEntity
  8
枠
  6
CONTINUOUS
 62
     2
100
AcDbCircle
 10
85.79609681
 20
17.0200409
 30
0.0
 40
0.8820121300000001
100
AcDbArc
 50
272.671386720001
 51
335.9987793000007
  0
ARC
  5
1F1
330
1F
100
AcDbEntity
  8
枠
  6
CONTINUOUS
 62
     2
100
AcDbCircle
 10
85.77609253
 20
17.0200409
 30
0.0
 40
1.13401127
100
AcDbArc
 50
267.3674316300005
 51
335.9987792900001
  0
LINE
  5
1F2
330
1F
100
AcDbEntity
  8
枠
  6
CONTINUOUS
 62
     2
100
AcDbLine
 10
87.23516846000001
 20
17.50905266
 30
0.0
 11
86.81214904999999
 21
16.55885925
 31
0.0
  0
LINE
  5
1F3
330
1F
100
AcDbEntity
  8
枠
  6
CONTINUOUS
 62
     2
100
AcDbLine
 10
85.20906066999999
 20
14.58173027
 30
0.0
 11
84.82203675
 21
17.02488175
 31
0.0
  0
LINE
  5
1F4
330
1F
100
AcDbEntity
  8
枠
  6
CONTINUOUS
 62
     2
100
AcDbLine
 10
84.93392945
 20
14.58173027
 30
0.0
 11
84.35284424
 21
18.25026741
 31
0.0
  0
LINE
  5
1F5
330
1F
100
AcDbEntity
  8
枠
  6
CONTINUOUS
 62
     2
100
AcDbLine
 10
84.62797547
 20
18.25026741
 30
0.0
 11
84.73956299
 21
17.5459465
 31
0.0
  0
LINE
  5
1F6
330
1F
100
AcDbEntity
  8
枠
  6
CONTINUOUS
 62
     2
100
AcDbLine
 10
83.13134765999999
 20
17.47440186
 30
0.0
 11
83.96051026
 21
17.47440186
 31
0.0
  0
LINE
  5
1F7
330
1F
100
AcDbEntity
  8
枠
  6
CONTINUOUS
 62
     2
100
AcDbLine
 10
86.86698913999999
 20
17.25703945
 30
0.0
 11
86.60205078999999
 21
16.66135254
 31
0.0
  0
LINE
  5
1F8
330
1F
100
AcDbEntity
  8
枠
  6
CONTINUOUS
 62
     2
100
AcDbLine
 10
84.71073913999999
 20
17.22241821
 30
0.0
 11
86.63381958
 21
17.22241821
 31
0.0
  0
ARC
  5
1F9
330
1F
100
AcDbEntity
  8
枠
  6
CONTINUOUS
 62
     2
100
AcDbCircle
 10
85.75608826000001
 20
17.0200409
 30
0.0
 40
1.38601112
100
AcDbArc
 50
269.6113281199997
 51
335.9987792900002
  0
LINE
  5
1FA
330
1F
100
AcDbEntity
  8
枠
  6
CONTINUOUS
 62
     2
100
AcDbLine
 10
87.49098206
 20
17.50905552
 30
0.0
 11
87.02224731999999
 21
16.45633545
 31
0.0
  0
LINE
  5
1FB
330
1F
100
AcDbEntity
  8
枠
  6
CONTINUOUS
 62
     2
100
AcDbLine
 10
98.23126221000001
 20
18.33121338
 30
0.0
 11
96.18806458
 21
15.51827088
 31
0.0
  0
LINE
  5
1FC
330
1F
100
AcDbEntity
  8
枠
  6
CONTINUOUS
 62
     2
100
AcDbLine
 10
97.68681336
 20
18.07922974
 30
0.0
 11
95.93420411
 21
15.6664032
 31
0.0
  0
ARC
  5
1FD
330
1F
100
AcDbEntity
  8
枠
  6
CONTINUOUS
 62
     2
100
AcDbCircle
 10
95.19993592
 20
16.17440643
 30
0.0
 40
0.9324020700000001
100
AcDbArc
 50
270.0000305199995
 51
324.0011596699995
  0
LINE
  5
1FE
330
1F
100
AcDbEntity
  8
枠
  6
CONTINUOUS
 62
     2
100
AcDbLine
 10
88.28794861
 20
18.60155907
 30
0.0
 11
92.72636413999999
 21
18.60155907
 31
0.0
  0
LINE
  5
1FF
330
1F
100
AcDbEntity
  8
枠
  6
CONTINUOUS
 62
     2
100
AcDbLine
 10
88.28794861
 20
18.3395752
 30
0.0
 11
92.72636413999999
 21
18.3395752
 31
0.0
  0
LINE
  5
200
330
1F
100
AcDbEntity
  8
枠
  6
CONTINUOUS
 62
     2
100
AcDbLine
 10
88.28794861
 20
18.0675911
 30
0.0
 11
92.72636413999999
 21
18.0675911
 31
0.0
  0
LINE
  5
201
330
1F
100
AcDbEntity
  8
枠
  6
CONTINUOUS
 62
     2
100
AcDbLine
 10
87.88476563
 20
15.1644043
 30
0.0
 11
93.12954712000001
 21
15.1644043
 31
0.0
  0
LINE
  5
202
330
1F
100
AcDbEntity
  8
枠
  6
CONTINUOUS
 62
     2
100
AcDbLine
 10
87.88476563
 20
14.9124054
 30
0.0
 11
93.12954712000001
 21
14.9124054
 31
0.0
  0
LINE
  5
203
330
1F
100
AcDbEntity
  8
枠
  6
CONTINUOUS
 62
     2
100
AcDbLine
 10
87.88476563
 20
14.64039078
 30
0.0
 11
93.12954712000001
 21
14.64039078
 31
0.0
  0
LINE
  5
204
330
1F
100
AcDbEntity
  8
枠
  6
CONTINUOUS
 62
     2
100
AcDbLine
 10
94.23521424
 20
18.59321251
 30
0.0
 11
98.52568055
 21
18.59321251
 31
0.0
  0
LINE
  5
205
330
1F
100
AcDbEntity
  8
枠
  6
CONTINUOUS
 62
     2
100
AcDbLine
 10
98.78569031
 20
18.58321228
 30
0.0
 11
96.4519043
 21
15.37006226
 31
0.0
  0
LINE
  5
206
330
1F
100
AcDbEntity
  8
枠
  6
CONTINUOUS
 62
     2
100
AcDbLine
 10
94.23521424
 20
18.33121338
 30
0.0
 11
98.03125
 21
18.33121338
 31
0.0
  0
LINE
  5
207
330
1F
100
AcDbEntity
  8
枠
  6
CONTINUOUS
 62
     2
100
AcDbLine
 10
95.12992858999999
 20
15.16599693
 30
0.0
 11
93.83203125
 21
15.16599693
 31
0.0
  0
LINE
  5
208
330
1F
100
AcDbEntity
  8
枠
  6
CONTINUOUS
 62
     2
100
AcDbLine
 10
95.12992858999999
 20
14.9039978
 30
0.0
 11
93.83203125
 21
14.9039978
 31
0.0
  0
LINE
  5
209
330
1F
100
AcDbEntity
  8
枠
  6
CONTINUOUS
 62
     2
100
AcDbLine
 10
95.12992858999999
 20
14.64199867
 30
0.0
 11
93.83203125
 21
14.64199867
 31
0.0
  0
LINE
  5
20A
330
1F
100
AcDbEntity
  8
枠
  6
CONTINUOUS
 62
     2
100
AcDbLine
 10
97.14318847999999
 20
15.97371521
 30
0.0
 11
98.33715821000001
 21
14.59999981
 31
0.0
  0
LINE
  5
20B
330
1F
100
AcDbEntity
  8
枠
  6
CONTINUOUS
 62
     2
100
AcDbLine
 10
97.29534913
 20
16.15305081
 30
0.0
 11
98.64517212000001
 21
14.59999981
 31
0.0
  0
LINE
  5
20C
330
1F
100
AcDbEntity
  8
枠
  6
CONTINUOUS
 62
     2
100
AcDbLine
 10
97.44731141
 20
16.33229485
 30
0.0
 11
98.95294189999998
 21
14.59999981
 31
0.0
  0
LINE
  5
20D
330
1F
100
AcDbEntity
  8
枠
  6
CONTINUOUS
 62
     2
100
AcDbLine
 10
97.59927368999999
 20
16.51158466
 30
0.0
 11
99.2609253
 21
14.59999981
 31
0.0
  0
LINE
  5
20E
330
1F
100
AcDbEntity
  8
枠
  6
CONTINUOUS
 62
     2
100
AcDbLine
 10
94.23521424
 20
18.05922928
 30
0.0
 11
97.4367981
 21
18.05922928
 31
0.0
  0
LINE
  5
20F
330
1F
100
AcDbEntity
  8
枠
  6
CONTINUOUS
 62
     2
100
AcDbLine
 10
101.08955384
 20
18.60321274
 30
0.0
 11
105.93113709
 21
18.60321274
 31
0.0
  0
LINE
  5
210
330
1F
100
AcDbEntity
  8
枠
  6
CONTINUOUS
 62
     2
100
AcDbLine
 10
101.08955384
 20
18.35121384
 30
0.0
 11
105.93113709
 21
18.35121384
 31
0.0
  0
LINE
  5
211
330
1F
100
AcDbEntity
  8
枠
  6
CONTINUOUS
 62
     2
100
AcDbLine
 10
103.16773987
 20
15.14799156
 30
0.0
 11
103.16773987
 21
18.12122193
 31
0.0
  0
LINE
  5
212
330
1F
100
AcDbEntity
  8
枠
  6
CONTINUOUS
 62
     2
100
AcDbLine
 10
103.41958619
 20
15.14799156
 30
0.0
 11
103.41958619
 21
18.12122193
 31
0.0
  0
LINE
  5
213
330
1F
100
AcDbEntity
  8
枠
  6
CONTINUOUS
 62
     2
100
AcDbLine
 10
103.67141724
 20
15.14799156
 30
0.0
 11
103.67141724
 21
18.12122193
 31
0.0
  0
LINE
  5
214
330
1F
100
AcDbEntity
  8
枠
  6
CONTINUOUS
 62
     2
100
AcDbLine
 10
103.90324402
 20
15.14799156
 30
0.0
 11
103.90324402
 21
18.12122193
 31
0.0
  0
LINE
  5
215
330
1F
100
AcDbEntity
  8
枠
  6
CONTINUOUS
 62
     2
100
AcDbLine
 10
100.88795472
 20
14.94799175
 30
0.0
 11
106.13273621
 21
14.94799175
 31
0.0
  0
LINE
  5
216
330
1F
100
AcDbEntity
  8
枠
  6
CONTINUOUS
 62
     2
100
AcDbLine
 10
100.88795472
 20
14.64599266
 30
0.0
 11
106.13273621
 21
14.64599266
 31
0.0
  0
LINE
  5
217
330
1F
100
AcDbEntity
  8
枠
  6
CONTINUOUS
 62
     2
100
AcDbLine
 10
107.3127594
 20
18.63519612
 30
0.0
 11
107.68708802
 21
18.15615025
 31
0.0
  0
LINE
  5
218
330
1F
100
AcDbEntity
  8
枠
  6
CONTINUOUS
 62
     2
100
AcDbLine
 10
107.63247681
 20
18.63519612
 30
0.0
 11
108.00680542
 21
18.15615025
 31
0.0
  0
LINE
  5
219
330
1F
100
AcDbEntity
  8
枠
  6
CONTINUOUS
 62
     2
100
AcDbLine
 10
108.63113404
 20
18.63519612
 30
0.0
 11
108.63113404
 21
18.19855633
 31
0.0
  0
LINE
  5
21A
330
1F
100
AcDbEntity
  8
枠
  6
CONTINUOUS
 62
     2
100
AcDbLine
 10
108.90298462
 20
18.63519612
 30
0.0
 11
108.90298462
 21
18.19855633
 31
0.0
  0
LINE
  5
21B
330
1F
100
AcDbEntity
  8
枠
  6
CONTINUOUS
 62
     2
100
AcDbLine
 10
109.63909913
 20
18.63519612
 30
0.0
 11
109.63909913
 21
18.19855633
 31
0.0
  0
LINE
  5
21C
330
1F
100
AcDbEntity
  8
枠
  6
CONTINUOUS
 62
     2
100
AcDbLine
 10
109.93093873
 20
18.63519612
 30
0.0
 11
109.93093873
 21
18.19855633
 31
0.0
  0
LINE
  5
21D
330
1F
100
AcDbEntity
  8
枠
  6
CONTINUOUS
 62
     2
100
AcDbLine
 10
110.89956666
 20
18.63519612
 30
0.0
 11
110.52523804
 21
18.15615025
 31
0.0
  0
LINE
  5
21E
330
1F
100
AcDbEntity
  8
枠
  6
CONTINUOUS
 62
     2
100
AcDbLine
 10
111.23928833
 20
18.63519612
 30
0.0
 11
110.86495972
 21
18.15615025
 31
0.0
  0
LINE
  5
21F
330
1F
100
AcDbEntity
  8
枠
  6
CONTINUOUS
 62
     2
100
AcDbLine
 10
106.63362122
 20
17.99855652
 30
0.0
 11
111.87840271
 21
17.99855652
 31
0.0
  0
LINE
  5
220
330
1F
100
AcDbEntity
  8
枠
  6
CONTINUOUS
 62
     2
100
AcDbLine
 10
107.94317627
 20
17.21882858
 30
0.0
 11
107.72778321
 21
17.81061783
 31
0.0
  0
LINE
  5
221
330
1F
100
AcDbEntity
  8
枠
  6
CONTINUOUS
 62
     2
100
AcDbLine
 10
108.25122071
 20
17.21882858
 30
0.0
 11
108.03582764
 21
17.81061783
 31
0.0
  0
LINE
  5
222
330
1F
100
AcDbEntity
  8
枠
  6
CONTINUOUS
 62
     2
100
AcDbLine
 10
108.53926087
 20
17.21885147
 30
0.0
 11
108.32411194
 21
17.81059494
 31
0.0
  0
LINE
  5
223
330
1F
100
AcDbEntity
  8
枠
  6
CONTINUOUS
 62
     2
100
AcDbLine
 10
109.99194336
 20
17.21880665
 30
0.0
 11
110.20756531
 21
17.81063976
 31
0.0
  0
LINE
  5
224
330
1F
100
AcDbEntity
  8
枠
  6
CONTINUOUS
 62
     2
100
AcDbLine
 10
110.30020142
 20
17.21880665
 30
0.0
 11
110.51582337
 21
17.81063976
 31
0.0
  0
LINE
  5
225
330
1F
100
AcDbEntity
  8
枠
  6
CONTINUOUS
 62
     2
100
AcDbLine
 10
110.58824158
 20
17.21880665
 30
0.0
 11
110.80386353
 21
17.81063976
 31
0.0
  0
LINE
  5
226
330
1F
100
AcDbEntity
  8
枠
  6
CONTINUOUS
 62
     2
100
AcDbLine
 10
106.63362122
 20
17.03088989
 30
0.0
 11
111.87840271
 21
17.03088989
 31
0.0
  0
LINE
  5
227
330
1F
100
AcDbEntity
  8
枠
  6
CONTINUOUS
 62
     2
100
AcDbLine
 10
106.63362122
 20
16.33536377
 30
0.0
 11
108.78387452
 21
16.33536377
 31
0.0
  0
LINE
  5
228
330
1F
100
AcDbEntity
  8
枠
  6
CONTINUOUS
 62
     2
100
AcDbLine
 10
106.63362122
 20
15.63983765
 30
0.0
 11
108.78387452
 21
15.63983765
 31
0.0
  0
LINE
  5
229
330
1F
100
AcDbEntity
  8
枠
  6
CONTINUOUS
 62
     2
100
AcDbLine
 10
109.7475586
 20
15.63983765
 30
0.0
 11
111.87840271
 21
15.63983765
 31
0.0
  0
LINE
  5
22A
330
1F
100
AcDbEntity
  8
枠
  6
CONTINUOUS
 62
     2
100
AcDbLine
 10
106.95088196
 20
14.59999981
 30
0.0
 11
107.95332337
 21
15.5057539
 31
0.0
  0
LINE
  5
22B
330
1F
100
AcDbEntity
  8
枠
  6
CONTINUOUS
 62
     2
100
AcDbLine
 10
107.28677369
 20
14.59999981
 30
0.0
 11
108.28924561
 21
15.50575581
 31
0.0
  0
LINE
  5
22C
330
1F
100
AcDbEntity
  8
枠
  6
CONTINUOUS
 62
     2
100
AcDbLine
 10
107.60287476
 20
14.59999981
 30
0.0
 11
108.60534668
 21
15.50575581
 31
0.0
  0
LINE
  5
22D
330
1F
100
AcDbEntity
  8
枠
  6
CONTINUOUS
 62
     2
100
AcDbLine
 10
108.98387146
 20
14.59999981
 30
0.0
 11
108.98387146
 21
16.83089008
 31
0.0
  0
LINE
  5
22E
330
1F
100
AcDbEntity
  8
枠
  6
CONTINUOUS
 62
     2
100
AcDbLine
 10
109.27571106
 20
14.59999981
 30
0.0
 11
109.27571106
 21
16.83089008
 31
0.0
  0
LINE
  5
22F
330
1F
100
AcDbEntity
  8
枠
  6
CONTINUOUS
 62
     2
100
AcDbLine
 10
109.54756165
 20
14.59999981
 30
0.0
 11
109.54756165
 21
16.83089008
 31
0.0
  0
LINE
  5
230
330
1F
100
AcDbEntity
  8
枠
  6
CONTINUOUS
 62
     2
100
AcDbLine
 10
110.9171753
 20
14.59999981
 30
0.0
 11
109.91473389
 21
15.5057539
 31
0.0
  0
LINE
  5
231
330
1F
100
AcDbEntity
  8
枠
  6
CONTINUOUS
 62
     2
100
AcDbLine
 10
111.25308228
 20
14.59999981
 30
0.0
 11
110.25061036
 21
15.50575581
 31
0.0
  0
LINE
  5
232
330
1F
100
AcDbEntity
  8
枠
  6
CONTINUOUS
 62
     2
100
AcDbLine
 10
111.58918763
 20
14.59999981
 30
0.0
 11
110.5867157
 21
15.50575581
 31
0.0
  0
LINE
  5
233
330
1F
100
AcDbEntity
  8
枠
  6
CONTINUOUS
 62
     2
100
AcDbLine
 10
113.49978638
 20
18.63519612
 30
0.0
 11
113.49978638
 21
18.27919903
 31
0.0
  0
LINE
  5
234
330
1F
100
AcDbEntity
  8
枠
  6
CONTINUOUS
 62
     2
100
AcDbLine
 10
113.75161744
 20
18.63519612
 30
0.0
 11
113.75161744
 21
18.27919903
 31
0.0
  0
LINE
  5
235
330
1F
100
AcDbEntity
  8
枠
  6
CONTINUOUS
 62
     2
100
AcDbLine
 10
114.00346375
 20
18.63519612
 30
0.0
 11
114.00346375
 21
18.27919903
 31
0.0
  0
LINE
  5
236
330
1F
100
AcDbEntity
  8
枠
  6
CONTINUOUS
 62
     2
100
AcDbLine
 10
112.47999573
 20
18.07919922
 30
0.0
 11
114.29751587
 21
18.07919922
 31
0.0
  0
LINE
  5
237
330
1F
100
AcDbEntity
  8
枠
  6
CONTINUOUS
 62
     2
100
AcDbLine
 10
112.49441529
 20
14.59890499
 30
0.0
 11
112.83920289
 21
17.88029423
 31
0.0
  0
LINE
  5
238
330
1F
100
AcDbEntity
  8
枠
  6
CONTINUOUS
 62
     2
100
AcDbLine
 10
112.7276764
 20
14.59890499
 30
0.0
 11
113.07247925
 21
17.88029423
 31
0.0
  0
LINE
  5
239
330
1F
100
AcDbEntity
  8
枠
  6
CONTINUOUS
 62
     2
100
AcDbLine
 10
113.49978638
 20
14.59999981
 30
0.0
 11
113.49978638
 21
17.87919941
 31
0.0
  0
LINE
  5
23A
330
1F
100
AcDbEntity
  8
枠
  6
CONTINUOUS
 62
     2
100
AcDbLine
 10
113.75161744
 20
14.59999981
 30
0.0
 11
113.75161744
 21
17.87919941
 31
0.0
  0
LINE
  5
23B
330
1F
100
AcDbEntity
  8
枠
  6
CONTINUOUS
 62
     2
100
AcDbLine
 10
114.00346375
 20
14.59999981
 30
0.0
 11
114.00346375
 21
17.87919941
 31
0.0
  0
LINE
  5
23C
330
1F
100
AcDbEntity
  8
枠
  6
CONTINUOUS
 62
     2
100
AcDbLine
 10
114.12092591
 20
17.61542454
 30
0.0
 11
114.38003541
 21
17.25838413
 31
0.0
  0
LINE
  5
23D
330
1F
100
AcDbEntity
  8
枠
  6
CONTINUOUS
 62
     2
100
AcDbLine
 10
114.12092591
 20
17.2264246
 30
0.0
 11
114.38003541
 21
16.86938419
 31
0.0
  0
LINE
  5
23E
330
1F
100
AcDbEntity
  8
枠
  6
CONTINUOUS
 62
     2
100
AcDbLine
 10
114.74691773
 20
17.71886006
 30
0.0
 11
114.97688294
 21
18.64113751
 31
0.0
  0
LINE
  5
23F
330
1F
100
AcDbEntity
  8
枠
  6
CONTINUOUS
 62
     2
100
AcDbLine
 10
114.98674012
 20
17.71886864
 30
0.0
 11
115.21652222
 21
18.64112892
 31
0.0
  0
LINE
  5
240
330
1F
100
AcDbEntity
  8
枠
  6
CONTINUOUS
 62
     2
100
AcDbLine
 10
115.19638062
 20
17.71886006
 30
0.0
 11
115.42634583
 21
18.64113751
 31
0.0
  0
LINE
  5
241
330
1F
100
AcDbEntity
  8
枠
  6
CONTINUOUS
 62
     2
100
AcDbLine
 10
116.07023621
 20
18.27919903
 30
0.0
 11
116.07023621
 21
18.63519612
 31
0.0
  0
LINE
  5
242
330
1F
100
AcDbEntity
  8
枠
  6
CONTINUOUS
 62
     2
100
AcDbLine
 10
116.34207154
 20
18.27919903
 30
0.0
 11
116.34207154
 21
18.63519612
 31
0.0
  0
LINE
  5
243
330
1F
100
AcDbEntity
  8
枠
  6
CONTINUOUS
 62
     2
100
AcDbLine
 10
116.59391785
 20
18.27919903
 30
0.0
 11
116.59391785
 21
18.63519612
 31
0.0
  0
LINE
  5
244
330
1F
100
AcDbEntity
  8
枠
  6
CONTINUOUS
 62
     2
100
AcDbLine
 10
115.48622132
 20
18.07919922
 30
0.0
 11
117.72477723
 21
18.07919922
 31
0.0
  0
LINE
  5
245
330
1F
100
AcDbEntity
  8
枠
  6
CONTINUOUS
 62
     2
100
AcDbLine
 10
116.07023621
 20
17.87919941
 30
0.0
 11
116.07023621
 21
17.27120342
 31
0.0
  0
LINE
  5
246
330
1F
100
AcDbEntity
  8
枠
  6
CONTINUOUS
 62
     2
100
AcDbLine
 10
116.34207154
 20
17.87919941
 30
0.0
 11
116.34207154
 21
17.27120342
 31
0.0
  0
LINE
  5
247
330
1F
100
AcDbEntity
  8
枠
  6
CONTINUOUS
 62
     2
100
AcDbLine
 10
116.59391785
 20
17.87919941
 30
0.0
 11
116.59391785
 21
17.27120342
 31
0.0
  0
LINE
  5
248
330
1F
100
AcDbEntity
  8
枠
  6
CONTINUOUS
 62
     2
100
AcDbLine
 10
114.79840088
 20
17.07120361
 30
0.0
 11
117.82566834
 21
17.07120361
 31
0.0
  0
LINE
  5
249
330
1F
100
AcDbEntity
  8
枠
  6
CONTINUOUS
 62
     2
100
AcDbLine
 10
115.24479676
 20
16.87443867
 30
0.0
 11
114.83007813
 21
14.59676495
 31
0.0
  0
LINE
  5
24A
330
1F
100
AcDbEntity
  8
枠
  6
CONTINUOUS
 62
     2
100
AcDbLine
 10
115.48072815
 20
16.87443867
 30
0.0
 11
115.06602478
 21
14.59676495
 31
0.0
  0
LINE
  5
24B
330
1F
100
AcDbEntity
  8
枠
  6
CONTINUOUS
 62
     2
100
AcDbLine
 10
115.68891907
 20
16.87444153
 30
0.0
 11
115.27400208
 21
14.59676209
 31
0.0
  0
LINE
  5
24C
330
1F
100
AcDbEntity
  8
枠
  6
CONTINUOUS
 62
     2
100
AcDbLine
 10
116.07023621
 20
16.87120381
 30
0.0
 11
116.07023621
 21
14.59999981
 31
0.0
  0
LINE
  5
24D
330
1F
100
AcDbEntity
  8
枠
  6
CONTINUOUS
 62
     2
100
AcDbLine
 10
116.32206727
 20
16.87120381
 30
0.0
 11
116.32206727
 21
14.59999981
 31
0.0
  0
LINE
  5
24E
330
1F
100
AcDbEntity
  8
枠
  6
CONTINUOUS
 62
     3
100
AcDbLine
 10
116.59391785
 20
16.87120381
 30
0.0
 11
116.59391785
 21
14.59999981
 31
0.0
  0
LINE
  5
24F
330
1F
100
AcDbEntity
  8
枠
  6
CONTINUOUS
 62
     2
100
AcDbLine
 10
116.93495179
 20
16.87444153
 30
0.0
 11
117.34986878
 21
14.59676209
 31
0.0
  0
LINE
  5
250
330
1F
100
AcDbEntity
  8
枠
  6
CONTINUOUS
 62
     2
100
AcDbLine
 10
117.15109253
 20
16.87444153
 30
0.0
 11
117.56600953
 21
14.59676209
 31
0.0
  0
LINE
  5
251
330
1F
100
AcDbEntity
  8
枠
  6
CONTINUOUS
 62
     2
100
AcDbLine
 10
117.4070282
 20
16.87444153
 30
0.0
 11
117.8219452
 21
14.59676209
 31
0.0
  0
LINE
  5
252
330
1F
100
AcDbEntity
  8
枠
  6
CONTINUOUS
 62
     2
100
AcDbLine
 10
118.42726136
 20
18.24001541
 30
0.0
 11
121.28240967
 21
18.24001541
 31
0.0
  0
LINE
  5
253
330
1F
100
AcDbEntity
  8
枠
  6
CONTINUOUS
 62
     2
100
AcDbLine
 10
118.42726136
 20
17.98801651
 30
0.0
 11
121.37413025
 21
17.98801651
 31
0.0
  0
LINE
  5
254
330
1F
100
AcDbEntity
  8
枠
  6
CONTINUOUS
 62
     2
100
AcDbLine
 10
122.81166077
 20
14.58793869
 30
0.0
 11
121.334198
 21
18.64725723
 31
0.0
  0
LINE
  5
255
330
1F
100
AcDbEntity
  8
枠
  6
CONTINUOUS
 62
     2
100
AcDbLine
 10
123.07969666
 20
14.58793965
 30
0.0
 11
121.60229493
 21
18.64725628
 31
0.0
  0
LINE
  5
256
330
1F
100
AcDbEntity
  8
枠
  6
CONTINUOUS
 62
     2
100
AcDbLine
 10
123.34773255
 20
14.58793965
 30
0.0
 11
121.87033082
 21
18.64725628
 31
0.0
  0
LINE
  5
257
330
1F
100
AcDbEntity
  8
枠
  6
CONTINUOUS
 62
     2
100
AcDbLine
 10
123.61576844
 20
14.58793583
 30
0.0
 11
122.13813782
 21
18.64725914
 31
0.0
  0
LINE
  5
258
330
1F
100
AcDbEntity
  8
枠
  6
CONTINUOUS
 62
     2
100
AcDbLine
 10
122.85430909
 20
18.44001522
 30
0.0
 11
122.85430909
 21
18.63519612
 31
0.0
  0
LINE
  5
259
330
1F
100
AcDbEntity
  8
枠
  6
CONTINUOUS
 62
     2
100
AcDbLine
 10
123.12615967
 20
18.44001522
 30
0.0
 11
123.12615967
 21
18.63519612
 31
0.0
  0
LINE
  5
25A
330
1F
100
AcDbEntity
  8
枠
  6
CONTINUOUS
 62
     2
100
AcDbLine
 10
123.397995
 20
18.44001522
 30
0.0
 11
123.397995
 21
18.63519612
 31
0.0
  0
LINE
  5
25B
330
1F
100
AcDbEntity
  8
枠
  6
CONTINUOUS
 62
     2
100
AcDbLine
 10
122.48637391
 20
18.24001541
 30
0.0
 11
123.67204285
 21
18.24001541
 31
0.0
  0
LINE
  5
25C
330
1F
100
AcDbEntity
  8
枠
  6
CONTINUOUS
 62
     2
100
AcDbLine
 10
122.57810975
 20
17.98801651
 30
0.0
 11
123.67204285
 21
17.98801651
 31
0.0
  0
LINE
  5
25D
330
1F
100
AcDbEntity
  8
枠
  6
CONTINUOUS
 62
     2
100
AcDbLine
 10
118.72955323
 20
17.03640976
 30
0.0
 11
121.3536377
 21
17.03640976
 31
0.0
  0
LINE
  5
25E
330
1F
100
AcDbEntity
  8
枠
  6
CONTINUOUS
 62
     2
100
AcDbLine
 10
118.72955323
 20
16.7843956
 30
0.0
 11
121.3536377
 21
16.7843956
 31
0.0
  0
LINE
  5
25F
330
1F
100
AcDbEntity
  8
枠
  6
CONTINUOUS
 62
     2
100
AcDbLine
 10
119.67909241
 20
16.58439579
 30
0.0
 11
119.67909241
 21
15.5791153
 31
0.0
  0
LINE
  5
260
330
1F
100
AcDbEntity
  8
枠
  6
CONTINUOUS
 62
     2
100
AcDbLine
 10
119.93092347
 20
16.58439579
 30
0.0
 11
119.93092347
 21
15.63264313
 31
0.0
  0
LINE
  5
261
330
1F
100
AcDbEntity
  8
枠
  6
CONTINUOUS
 62
     2
100
AcDbLine
 10
120.18275452
 20
16.58439579
 30
0.0
 11
120.18275452
 21
15.68617191
 31
0.0
  0
LINE
  5
262
330
1F
100
AcDbEntity
  8
枠
  6
CONTINUOUS
 62
     2
100
AcDbLine
 10
120.43460083
 20
16.58439579
 30
0.0
 11
120.43460083
 21
15.73970261
 31
0.0
  0
LINE
  5
263
330
1F
100
AcDbEntity
  8
枠
  6
CONTINUOUS
 62
     2
100
AcDbLine
 10
118.6747284
 20
15.16563168
 30
0.0
 11
121.40844727
 21
15.74669972
 31
0.0
  0
LINE
  5
264
330
1F
100
AcDbEntity
  8
枠
  6
CONTINUOUS
 62
     2
100
AcDbLine
 10
118.6747284
 20
14.88800278
 30
0.0
 11
121.40844727
 21
15.46908512
 31
0.0
  0
LINE
  5
265
330
1F
100
AcDbEntity
  8
枠
  6
CONTINUOUS
 62
     2
100
AcDbLine
 10
118.6747284
 20
14.65037289
 30
0.0
 11
121.40844727
 21
15.23144093
 31
0.0
  0
LINE
  5
266
330
1F
100
AcDbEntity
  8
枠
  6
CONTINUOUS
 62
     2
100
AcDbLine
 10
124.26330567
 20
17.8325943
 30
0.0
 11
126.85153199
 21
18.69854012
 31
0.0
  0
LINE
  5
267
330
1F
100
AcDbEntity
  8
枠
  6
CONTINUOUS
 62
     2
100
AcDbLine
 10
124.26330567
 20
17.56686249
 30
0.0
 11
126.85153199
 21
18.43282356
 31
0.0
  0
LINE
  5
268
330
1F
100
AcDbEntity
  8
枠
  6
CONTINUOUS
 62
     2
100
AcDbLine
 10
127.04119874
 20
18.69853916
 30
0.0
 11
129.62944031
 21
17.8325304
 31
0.0
  0
LINE
  5
269
330
1F
100
AcDbEntity
  8
枠
  6
CONTINUOUS
 62
     2
100
AcDbLine
 10
127.04119874
 20
18.45282307
 30
0.0
 11
129.62944031
 21
17.58681431
 31
0.0
  0
LINE
  5
26A
330
1F
100
AcDbEntity
  8
枠
  6
CONTINUOUS
 62
     2
100
AcDbLine
 10
128.76249695
 20
17.55961075
 30
0.0
 11
125.13044739
 21
17.55961075
 31
0.0
  0
LINE
  5
26B
330
1F
100
AcDbEntity
  8
枠
  6
CONTINUOUS
 62
     2
100
AcDbLine
 10
128.76249695
 20
17.28759613
 30
0.0
 11
125.13044739
 21
17.28759613
 31
0.0
  0
LINE
  5
26C
330
1F
100
AcDbEntity
  8
枠
  6
CONTINUOUS
 62
     2
100
AcDbLine
 10
124.27363587
 20
16.50639191
 30
0.0
 11
129.61911011
 21
16.50639191
 31
0.0
  0
LINE
  5
26D
330
1F
100
AcDbEntity
  8
枠
  6
CONTINUOUS
 62
     2
100
AcDbLine
 10
124.27363587
 20
16.27440872
 30
0.0
 11
129.61911011
 21
16.27440872
 31
0.0
  0
LINE
  5
26E
330
1F
100
AcDbEntity
  8
枠
  6
CONTINUOUS
 62
     2
100
AcDbLine
 10
125.10133362
 20
16.09315338
 30
0.0
 11
124.59112549
 21
14.99924603
 31
0.0
  0
LINE
  5
26F
330
1F
100
AcDbEntity
  8
枠
  6
CONTINUOUS
 62
     2
100
AcDbLine
 10
125.4194336
 20
16.09315434
 30
0.0
 11
124.90921021
 21
14.99924603
 31
0.0
  0
LINE
  5
270
330
1F
100
AcDbEntity
  8
枠
  6
CONTINUOUS
 62
     2
100
AcDbLine
 10
125.73753357
 20
16.09315434
 30
0.0
 11
125.22731019
 21
14.99924603
 31
0.0
  0
LINE
  5
271
330
1F
100
AcDbEntity
  8
枠
  6
CONTINUOUS
 62
     2
100
AcDbLine
 10
128.15541077
 20
16.09316673
 30
0.0
 11
128.66583252
 21
14.99923363
 31
0.0
  0
LINE
  5
272
330
1F
100
AcDbEntity
  8
枠
  6
CONTINUOUS
 62
     2
100
AcDbLine
 10
128.47370911
 20
16.09314194
 30
0.0
 11
128.98370362
 21
14.99925842
 31
0.0
  0
LINE
  5
273
330
1F
100
AcDbEntity
  8
枠
  6
CONTINUOUS
 62
     2
100
AcDbLine
 10
128.79199219
 20
16.09313145
 30
0.0
 11
129.30181885
 21
14.99926891
 31
0.0
  0
LINE
  5
274
330
1F
100
AcDbEntity
  8
枠
  6
CONTINUOUS
 62
     2
100
AcDbLine
 10
124.46853638
 20
14.81799164
 30
0.0
 11
129.4242096
 21
14.81799164
 31
0.0
  0
LINE
  5
275
330
1F
100
AcDbEntity
  8
枠
  6
CONTINUOUS
 62
     2
100
AcDbLine
 10
124.35102845
 20
14.56599274
 30
0.0
 11
129.54171753
 21
14.56599274
 31
0.0
  0
LINE
  5
276
330
1F
100
AcDbEntity
  8
枠
  6
CONTINUOUS
 62
     2
100
AcDbLine
 10
131.13978577
 20
18.44001522
 30
0.0
 11
131.13978577
 21
18.63519612
 31
0.0
  0
LINE
  5
277
330
1F
100
AcDbEntity
  8
枠
  6
CONTINUOUS
 62
     2
100
AcDbLine
 10
131.43162537
 20
18.44001522
 30
0.0
 11
131.43162537
 21
18.63519612
 31
0.0
  0
LINE
  5
278
330
1F
100
AcDbEntity
  8
枠
  6
CONTINUOUS
 62
     2
100
AcDbLine
 10
131.72348023
 20
18.44001522
 30
0.0
 11
131.72348023
 21
18.63519612
 31
0.0
  0
LINE
  5
279
330
1F
100
AcDbEntity
  8
枠
  6
CONTINUOUS
 62
     2
100
AcDbLine
 10
130.22068787
 20
18.24001541
 30
0.0
 11
132.50878907
 21
18.24001541
 31
0.0
  0
LINE
  5
27A
330
1F
100
AcDbEntity
  8
枠
  6
CONTINUOUS
 62
     2
100
AcDbLine
 10
130.22068787
 20
17.98801651
 30
0.0
 11
132.33238221
 21
17.98801651
 31
0.0
  0
LINE
  5
27B
330
1F
100
AcDbEntity
  8
枠
  6
CONTINUOUS
 62
     2
100
AcDbLine
 10
131.5379181
 20
17.82416763
 30
0.0
 11
130.13537598
 21
15.82047215
 31
0.0
  0
LINE
  5
27C
330
1F
100
AcDbEntity
  8
枠
  6
CONTINUOUS
 62
     2
100
AcDbLine
 10
131.86566163
 20
17.82418003
 30
0.0
 11
130.13539124
 21
15.3528513
 31
0.0
  0
LINE
  5
27D
330
1F
100
AcDbEntity
  8
枠
  6
CONTINUOUS
 62
     2
100
AcDbLine
 10
132.17379761
 20
17.82417717
 30
0.0
 11
130.13539124
 21
14.91257324
 31
0.0
  0
LINE
  5
27E
330
1F
100
AcDbEntity
  8
枠
  6
CONTINUOUS
 62
     2
100
AcDbLine
 10
131.69299317
 20
16.78869095
 30
0.0
 11
132.57867432
 21
16.16846409
 31
0.0
  0
LINE
  5
27F
330
1F
100
AcDbEntity
  8
枠
  6
CONTINUOUS
 62
     2
100
AcDbLine
 10
131.54844666
 20
16.58219948
 30
0.0
 11
132.57865906
 21
15.86079922
 31
0.0
  0
LINE
  5
280
330
1F
100
AcDbEntity
  8
枠
  6
CONTINUOUS
 62
     2
100
AcDbLine
 10
131.39450074
 20
16.3623127
 30
0.0
 11
132.57865906
 21
15.5331501
 31
0.0
  0
LINE
  5
281
330
1F
100
AcDbEntity
  8
枠
  6
CONTINUOUS
 62
     2
100
AcDbLine
 10
131.13978577
 20
16.1472229
 30
0.0
 11
131.13978577
 21
14.59999981
 31
0.0
  0
LINE
  5
282
330
1F
100
AcDbEntity
  8
枠
  6
CONTINUOUS
 62
     2
100
AcDbLine
 10
131.43162537
 20
16.13631573
 30
0.0
 11
131.43162537
 21
14.59999981
 31
0.0
  0
LINE
  5
283
330
1F
100
AcDbEntity
  8
枠
  6
CONTINUOUS
 62
     2
100
AcDbLine
 10
131.72348023
 20
15.93195667
 30
0.0
 11
131.72348023
 21
14.59999981
 31
0.0
  0
LINE
  5
284
330
1F
100
AcDbEntity
  8
枠
  6
CONTINUOUS
 62
     2
100
AcDbLine
 10
133.86137391
 20
15.01799145
 30
0.0
 11
133.86137391
 21
18.63519612
 31
0.0
  0
LINE
  5
285
330
1F
100
AcDbEntity
  8
枠
  6
CONTINUOUS
 62
     2
100
AcDbLine
 10
134.15321351
 20
15.01799145
 30
0.0
 11
134.15321351
 21
18.63519612
 31
0.0
  0
LINE
  5
286
330
1F
100
AcDbEntity
  8
枠
  6
CONTINUOUS
 62
     2
100
AcDbLine
 10
134.44506836
 20
15.01799145
 30
0.0
 11
134.44506836
 21
18.63519612
 31
0.0
  0
LINE
  5
287
330
1F
100
AcDbEntity
  8
枠
  6
CONTINUOUS
 62
     2
100
AcDbLine
 10
132.94248963
 20
17.53440323
 30
0.0
 11
133.66137696
 21
17.53440323
 31
0.0
  0
LINE
  5
288
330
1F
100
AcDbEntity
  8
枠
  6
CONTINUOUS
 62
     2
100
AcDbLine
 10
132.94248963
 20
17.28241959
 30
0.0
 11
133.66137696
 21
17.28241959
 31
0.0
  0
LINE
  5
289
330
1F
100
AcDbEntity
  8
枠
  6
CONTINUOUS
 62
     2
100
AcDbLine
 10
134.64506531
 20
17.53440323
 30
0.0
 11
135.36477662
 21
17.53440323
 31
0.0
  0
LINE
  5
28A
330
1F
100
AcDbEntity
  8
枠
  6
CONTINUOUS
 62
     2
100
AcDbLine
 10
134.64506531
 20
17.26241913
 30
0.0
 11
135.36477662
 21
17.26241913
 31
0.0
  0
LINE
  5
28B
330
1F
100
AcDbEntity
  8
枠
  6
CONTINUOUS
 62
     2
100
AcDbLine
 10
132.53909302
 20
14.81799164
 30
0.0
 11
135.46566773
 21
14.81799164
 31
0.0
  0
LINE
  5
28C
330
1F
100
AcDbEntity
  8
枠
  6
CONTINUOUS
 62
     2
100
AcDbLine
 10
132.53909302
 20
14.56599274
 30
0.0
 11
135.46566773
 21
14.56599274
 31
0.0
  0
LINE
  5
28D
330
1F
100
AcDbEntity
  8
枠
  6
CONTINUOUS
 62
     2
100
AcDbLine
 10
109.7475586
 20
16.33536377
 30
0.0
 11
111.87840271
 21
16.33536377
 31
0.0
  0
LINE
  5
28E
330
1F
100
AcDbEntity
  8
枠
  6
CONTINUOUS
 62
     7
100
AcDbLine
 10
156.58103943
 20
58.0
 30
0.0
 11
131.5
 21
58.0
 31
0.0
  0
LINE
  5
28F
330
1F
100
AcDbEntity
  8
枠
  6
CONTINUOUS
 62
     7
100
AcDbLine
 10
178.38103943
 20
58.0
 30
0.0
 11
164.18103943
 21
58.0
 31
0.0
  0
TEXT
  5
290
330
1F
100
AcDbEntity
  8
枠
  6
CONTINUOUS
 62
     2
100
AcDbText
 10
101.0
 20
58.40001526
 30
0.0
 40
4.0
  1
Ｆ．Ｌ
 41
1.224999997545691
  7
EXCADSTD
 72
     5
 11
112.8999999761581
 21
58.40001526
 31
0.0
100
AcDbText
  0
LINE
  5
291
330
1F
100
AcDbEntity
  8
枠
  6
CONTINUOUS
 62
     7
100
AcDbLine
 10
30.5
 20
58.0
 30
0.0
 11
115.2
 21
58.0
 31
0.0
  0
TEXT
  5
292
330
1F
100
AcDbEntity
  8
枠
  6
CONTINUOUS
 62
     2
100
AcDbText
 10
177.88817139
 20
161.9
 30
0.0
 40
4.0
  1
Ｗ．Ｌ
 50
90.0
 41
1.224999997545691
  7
EXCADSTD
 72
     5
 11
177.88817139
 21
173.7999999761581
 31
0.0
100
AcDbText
  0
LINE
  5
293
330
1F
100
AcDbEntity
  8
枠
  6
CONTINUOUS
 62
     7
100
AcDbLine
 10
178.38103943
 20
58.0
 30
0.0
 11
178.38103943
 21
177.0
 31
0.0
  0
TEXT
  5
294
330
1F
100
AcDbEntity
  8
枠
  6
CONTINUOUS
 62
     2
100
AcDbText
 10
150.9
 20
24.175
 30
0.0
 40
6.5
  1
Ｕ５００
 41
1.076923076923077
  7
EXCADSTD
 72
     5
 11
173.9
 21
24.175
 31
0.0
100
AcDbText
  0
TEXT
  5
295
330
1F
100
AcDbEntity
  8
枠
  6
CONTINUOUS
 62
     7
100
AcDbText
 10
145.325
 20
13.075
 30
0.0
 40
7.0
  1
Ｕ０１０１３８０
 41
1.127659574468085
  7
EXCADSTD
 72
     5
 11
198.325
 21
13.075
 31
0.0
100
AcDbText
  0
TEXT
  5
296
330
1F
100
AcDbEntity
  8
枠
  6
CONTINUOUS
 62
     6
100
AcDbText
 10
20.54999997615803
 20
20.0
 30
0.0
 40
5.0
  1
亀井
 41
1.18991346010815
  7
EXCADSTD
 72
     5
 11
29.89932001986492
 21
20.0
 31
0.0
100
AcDbText
  0
TEXT
  5
297
330
1F
100
AcDbEntity
  8
枠
  6
CONTINUOUS
 62
     6
100
AcDbText
 10
18.20260742
 20
12.69500732
 30
0.0
 40
2.5
  1
２８
 41
1.005593513922258
  7
EXCADSTD
 72
     5
 11
22.15315336755173
 21
12.69500732
 31
0.0
100
AcDbText
  0
TEXT
  5
298
330
1F
100
AcDbEntity
  8
枠
  6
CONTINUOUS
 62
     6
100
AcDbText
 10
24.38260742
 20
12.69500732
 30
0.0
 40
2.5
  1
３
 41
1.189439987182616
  7
EXCADSTD
 72
     5
 11
26.50660739711181
 21
12.69500732
 31
0.0
100
AcDbText
  0
TEXT
  5
299
330
1F
100
AcDbEntity
  8
枠
  6
CONTINUOUS
 62
     6
100
AcDbText
 10
28.78260742
 20
12.69500732
 30
0.0
 40
2.5
  1
７
 41
1.189439987182616
  7
EXCADSTD
 72
     5
 11
30.90660739711181
 21
12.69500732
 31
0.0
100
AcDbText
  0
TEXT
  5
29A
330
1F
100
AcDbEntity
  8
枠
  6
CONTINUOUS
 62
     6
100
AcDbText
 10
63.34999997615805
 20
20.0
 30
0.0
 40
5.0
  1
間瀬
 41
1.18991346010815
  7
EXCADSTD
 72
     5
 11
72.69932001986494
 21
20.0
 31
0.0
100
AcDbText
  0
TEXT
  5
29B
330
1F
100
AcDbEntity
  8
枠
  6
CONTINUOUS
 62
     2
100
AcDbText
 10
93.4
 20
23.85
 30
0.0
 40
6.5
  1
非水洗小便器
 41
1.046153846153846
  7
EXCADSTD
 72
     5
 11
127.4
 21
23.85
 31
0.0
100
AcDbText
  0
LINE
  5
29C
330
1F
100
AcDbEntity
  8
スト_ル
  6
EXLTYPE3
 62
     6
100
AcDbLine
 10
160.38103943
 20
62.2
 30
0.0
 11
160.38103943
 21
50.05
 31
0.0
  0
LEADER
  5
29D
330
1F
100
AcDbEntity
  8
スト_ル
  6
CONTINUOUS
 62
     6
100
AcDbLeader
  3
ISO-25
 76
     2
 10
157.425
 20
54.96
 30
0.0
 10
148.34396057
 20
48.94
 30
0.0
1001
ACAD
1000
DSTYLE
1002
{
1070
     5
1000
EX_NORM
1070
    41
1040
3.5
1070
   341
1005
4C
1002
}
  0
TEXT
  5
29E
330
1F
100
AcDbEntity
  8
スト_ル
  6
CONTINUOUS
 62
     2
100
AcDbText
 10
121.24396057
 20
49.29000610000001
 30
0.0
 40
4.0
  1
ＶＵ５０ｏｒＶＰ５０
 41
0.8245762680041594
  7
EXCADSTD
 72
     5
 11
149.0439604627117
 21
49.29000610000001
 31
0.0
100
AcDbText
  0
LINE
  5
29F
330
1F
100
AcDbEntity
  8
スト_ル
  6
CONTINUOUS
 62
     6
100
AcDbLine
 10
121.7
 20
48.94
 30
0.0
 11
148.34396057
 21
48.94
 31
0.0
  0
LINE
  5
2A0
330
1F
100
AcDbEntity
  8
寸法
  6
CONTINUOUS
 62
     7
100
AcDbLine
 10
1532.548024861006
 20
593.2773500981125
 30
0.0
 11
1531.8103943
 21
579.9999999999995
 31
0.0
  0
ARC
  5
2A1
330
1F
100
AcDbEntity
  8
寸法
  6
CONTINUOUS
 62
     7
100
AcDbCircle
 10
1537.540326627034
 20
593.0000000000005
 30
0.0
 40
5.0
100
AcDbArc
 50
90.00000000000001
 51
176.820169880136
  0
LINE
  5
2A2
330
1F
100
AcDbEntity
  8
寸法
  6
CONTINUOUS
 62
     7
100
AcDbLine
 10
1675.072763738994
 20
593.2773500981143
 30
0.0
 11
1675.8103943
 21
579.9999999999995
 31
0.0
  0
ARC
  5
2A3
330
1F
100
AcDbEntity
  8
寸法
  6
CONTINUOUS
 62
     7
100
AcDbCircle
 10
1670.080461972967
 20
593.0000000000014
 30
0.0
 40
5.0
100
AcDbArc
 50
3.17983011986539
 51
90.00000000000001
  0
ARC
  5
2A4
330
1F
100
AcDbEntity
  8
寸法
  6
CONTINUOUS
 62
     7
100
AcDbCircle
 10
1566.3103943
 20
1269.0
 30
0.0
 40
600.0
100
AcDbArc
 50
270.0000000000002
 51
279.6836108897892
  0
LINE
  5
2A5
330
1F
100
AcDbEntity
  8
寸法
  6
CONTINUOUS
 62
     7
100
AcDbLine
 10
1650.8103943
 20
674.9800087539002
 30
0.0
 11
1641.3103943
 21
658.0000000001996
 31
0.0
  0
ARC
  5
2A6
330
1F
100
AcDbEntity
  8
寸法
  6
CONTINUOUS
 62
     7
100
AcDbCircle
 10
1566.3103943
 20
1269.0
 30
0.0
 40
613.0
100
AcDbArc
 50
279.4973848577388
 51
279.6836108897892
  0
ARC
  5
2A7
330
1F
100
AcDbEntity
  8
寸法
  6
CONTINUOUS
 62
     7
100
AcDbCircle
 10
1669.932020072707
 20
649.6079120038571
 30
0.0
 40
15.00000000000001
100
AcDbArc
 50
99.49738485773887
 51
183.8140748342909
  0
LINE
  5
2A8
330
1F
100
AcDbEntity
  8
寸法
  6
CONTINUOUS
 62
     7
100
AcDbLine
 10
1686.524895460093
 20
591.4981971147095
 30
0.0
 11
1685.8258145096
 21
579.9999999999995
 31
0.0
  0
ARC
  5
2A9
330
1F
100
AcDbEntity
  8
寸法
  6
CONTINUOUS
 62
     7
100
AcDbCircle
 10
1691.515679651617
 20
591.1947615307213
 30
0.0
 40
5.0
100
AcDbArc
 50
86.99790329781628
 51
176.5207464649497
  0
ARC
  5
2AA
330
1F
100
AcDbEntity
  8
寸法
  6
CONTINUOUS
 62
     7
100
AcDbCircle
 10
1648.117053575675
 20
601.0000000000014
 30
0.0
 40
3.000000000000002
100
AcDbArc
 50
183.8140748342902
 51
270.0000000000002
  0
LINE
  5
2AB
330
1F
100
AcDbEntity
  8
寸法
  6
CONTINUOUS
 62
     7
100
AcDbLine
 10
1546.3103943
 20
669.6674090580996
 30
0.0
 11
1566.3103943
 21
657.9999999999995
 31
0.0
  0
LINE
  5
2AC
330
1F
100
AcDbEntity
  8
寸法
  6
CONTINUOUS
 62
     7
100
AcDbLine
 10
1517.292724618917
 20
582.5883484054143
 30
0.0
 11
1517.8103943
 21
579.9999999999995
 31
0.0
  0
ARC
  5
2AD
330
1F
100
AcDbEntity
  8
寸法
  6
CONTINUOUS
 62
     7
100
AcDbCircle
 10
1514.350982591844
 20
581.9999999999995
 30
0.0
 40
3.000000000000002
100
AcDbArc
 50
11.30993247402023
 51
90.00000000000001
  0
ARC
  5
2AE
330
1F
100
AcDbEntity
  8
寸法
  6
CONTINUOUS
 62
     7
100
AcDbCircle
 10
1537.540326627034
 20
593.0000000000005
 30
0.0
 40
15.00000000000001
100
AcDbArc
 50
90.00000000000001
 51
163.8723797868407
  0
ARC
  5
2AF
330
1F
100
AcDbEntity
  8
寸法
  6
CONTINUOUS
 62
     7
100
AcDbCircle
 10
1520.248710161243
 20
597.9999999999995
 30
0.0
 40
3.000000000000002
100
AcDbArc
 50
270.0000000000002
 51
343.8723797868407
  0
LINE
  5
2B0
330
1F
100
AcDbEntity
  8
寸法
  6
CONTINUOUS
 62
     7
100
AcDbLine
 10
1555.920460493952
 20
652.4839566930063
 30
0.0
 11
1543.28267613954
 21
659.8564666755542
 31
0.0
  0
LINE
  5
2B1
330
1F
100
AcDbEntity
  8
寸法
  6
CONTINUOUS
 62
     7
100
AcDbLine
 10
1537.540326627034
 20
608.0000000000005
 30
0.0
 11
1550.148204105411
 21
608.0000000000005
 31
0.0
  0
LINE
  5
2B2
330
1F
100
AcDbEntity
  8
寸法
  6
CONTINUOUS
 62
     7
100
AcDbLine
 10
1553.14155957898
 20
610.8004429684293
 30
0.0
 11
1555.920460493952
 21
652.4839566930063
 31
0.0
  0
ARC
  5
2B3
330
1F
100
AcDbEntity
  8
寸法
  6
CONTINUOUS
 62
     7
100
AcDbCircle
 10
1550.148204105411
 20
611.0000000000005
 30
0.0
 40
3.000000000000002
100
AcDbArc
 50
270.0000000000002
 51
356.1859251657098
  0
ARC
  5
2B4
330
1F
100
AcDbEntity
  8
寸法
  6
CONTINUOUS
 62
     7
100
AcDbCircle
 10
1674.6204051871
 20
612.1083106594601
 30
0.0
 40
3.000000000000002
100
AcDbArc
 50
180.0
 51
266.997903297818
  0
LINE
  5
2B5
330
1F
100
AcDbEntity
  8
寸法
  6
CONTINUOUS
 62
     7
100
AcDbLine
 10
1671.6204051871
 20
616.690696944404
 30
0.0
 11
1671.6204051871
 21
612.1083106594601
 31
0.0
  0
ARC
  5
2B6
330
1F
100
AcDbEntity
  8
寸法
  6
CONTINUOUS
 62
     7
100
AcDbCircle
 10
1663.6204051871
 20
616.690696944404
 30
0.0
 40
8.0
100
AcDbArc
 50
0.0
 51
86.9979032978169
  0
LINE
  5
2B7
330
1F
100
AcDbEntity
  8
寸法
  6
CONTINUOUS
 62
     7
100
AcDbLine
 10
1664.039385190405
 20
624.6797178954862
 30
0.0
 11
1659.193476811079
 21
624.933859012554
 31
0.0
  0
ARC
  5
2B8
330
1F
100
AcDbEntity
  8
寸法
  6
CONTINUOUS
 62
     7
100
AcDbCircle
 10
1659.350594312319
 20
627.9297418692099
 30
0.0
 40
3.000000000000002
100
AcDbArc
 50
183.8140748342902
 51
266.997903297818
  0
LINE
  5
2B9
330
1F
100
AcDbEntity
  8
寸法
  6
CONTINUOUS
 62
     7
100
AcDbLine
 10
1656.357238838749
 20
627.7301848376387
 30
0.0
 11
1654.965242704858
 21
648.6101268460011
 31
0.0
  0
ARC
  5
2BA
330
1F
100
AcDbEntity
  8
寸法
  6
CONTINUOUS
 62
     7
100
AcDbCircle
 10
1659.6204051871
 20
612.894977772748
 30
0.0
 40
2.0
100
AcDbArc
 50
0.0
 51
86.9979032978137
  0
LINE
  5
2BB
330
1F
100
AcDbEntity
  8
寸法
  6
CONTINUOUS
 62
     7
100
AcDbLine
 10
1661.6204051871
 20
612.894977772748
 30
0.0
 11
1661.6204051871
 21
610.0000000000014
 31
0.0
  0
ARC
  5
2BC
330
1F
100
AcDbEntity
  8
寸法
  6
CONTINUOUS
 62
     7
100
AcDbCircle
 10
1659.6204051871
 20
610.0000000000014
 30
0.0
 40
2.0
100
AcDbArc
 50
270.0000000000002
 51
0.0
  0
LINE
  5
2BD
330
1F
100
AcDbEntity
  8
寸法
  6
CONTINUOUS
 62
     7
100
AcDbLine
 10
1659.725150187927
 20
614.8922330105183
 30
0.0
 11
1656.437282519262
 21
615.0646635017033
 31
0.0
  0
ARC
  5
2BE
330
1F
100
AcDbEntity
  8
寸法
  6
CONTINUOUS
 62
     7
100
AcDbCircle
 10
1656.332537518435
 20
613.067408263933
 30
0.0
 40
2.0
100
AcDbArc
 50
86.9979032978137
 51
183.8140748342916
  0
LINE
  5
2BF
330
1F
100
AcDbEntity
  8
寸法
  6
CONTINUOUS
 62
     7
100
AcDbLine
 10
1654.541461086984
 20
609.8669619789539
 30
0.0
 11
1654.336967202722
 21
612.9343702428855
 31
0.0
  0
LINE
  5
2C0
330
1F
100
AcDbEntity
  8
寸法
  6
CONTINUOUS
 62
     7
100
AcDbLine
 10
1659.6204051871
 20
608.0000000000014
 30
0.0
 11
1656.537031402697
 21
608.0000000000014
 31
0.0
  0
ARC
  5
2C1
330
1F
100
AcDbEntity
  8
寸法
  6
CONTINUOUS
 62
     7
100
AcDbCircle
 10
1656.537031402697
 20
610.0000000000014
 30
0.0
 40
2.0
100
AcDbArc
 50
183.8140748342882
 51
270.0000000000002
  0
ARC
  5
2C2
330
1F
100
AcDbEntity
  8
寸法
  6
CONTINUOUS
 62
     7
100
AcDbCircle
 10
1613.810394300002
 20
1410.0
 30
0.0
 40
35.0
100
AcDbArc
 50
90.00000000000001
 51
180.0
  0
LINE
  5
2C3
330
1F
100
AcDbEntity
  8
寸法
  6
CONTINUOUS
 62
     7
100
AcDbLine
 10
1434.062936955038
 20
772.2848686134425
 30
0.0
 11
1453.8103943
 21
579.9999999999995
 31
0.0
  0
ARC
  5
2C4
330
1F
100
AcDbEntity
  8
寸法
  6
CONTINUOUS
 62
     7
100
AcDbCircle
 10
778.810394300001
 20
1234.214785986246
 30
0.0
 40
800.0000000000006
100
AcDbArc
 50
325.1438722795597
 51
0.0
  0
LINE
  5
2C5
330
1F
100
AcDbEntity
  8
寸法
  6
CONTINUOUS
 62
     7
100
AcDbLine
 10
1578.810394300002
 20
1410.000000000001
 30
0.0
 11
1578.810394300001
 21
1234.21478598624
 31
0.0
  0
LINE
  5
2C6
330
1F
100
AcDbEntity
  8
寸法
  6
CONTINUOUS
 62
     7
100
AcDbLine
 10
1783.8103943
 20
1445.0
 30
0.0
 11
1613.810394300002
 21
1445.0
 31
0.0
  0
LINE
  5
2C7
330
1F
100
AcDbEntity
  8
寸法
  6
CONTINUOUS
 62
     7
100
AcDbLine
 10
1783.8103943
 20
579.9999999999995
 30
0.0
 11
1783.8103943
 21
1445.0
 31
0.0
  0
LINE
  5
2C8
330
1F
100
AcDbEntity
  8
寸法
  6
CONTINUOUS
 62
     7
100
AcDbLine
 10
1453.8103943
 20
579.9999999999995
 30
0.0
 11
1783.8103943
 21
579.9999999999995
 31
0.0
  0
LINE
  5
2C9
330
1F
100
AcDbEntity
  8
寸法
  6
EXLTYPE3
 62
     6
100
AcDbLine
 10
1603.810394300001
 20
569.9999999999995
 30
0.0
 11
1603.8103943
 21
680.1929433167429
 31
0.0
  0
DIMENSION
  5
2CB
330
1F
100
AcDbEntity
  8
寸法
  6
CONTINUOUS
 62
     3
100
AcDbDimension
  2
*D15
 10
1377.3103943
 20
580.0
 30
0.0
 11
1353.810394359605
 21
680.0
 31
0.0
 70
   160
  3
ISO-25
100
AcDbAlignedDimension
 13
1441.02631164695
 23
780.0
 33
0.0
 14
1453.8103943
 24
580.0
 34
0.0
 50
90.0
100
AcDbRotatedDimension
1001
ACAD
1000
DSTYLE
1002
{
1070
   270
1070
     2
1070
     6
1000
EX_NORM
1070
     7
1000
EX_NORM
1070
    41
1040
30.0
1070
    42
1040
5.000000000000227
1070
    44
1040
10.0
1070
    73
1070
     0
1070
    74
1070
     0
1070
    75
1070
     0
1070
    76
1070
     0
1070
    77
1070
     1
1070
    78
1070
     8
1070
   140
1040
40.0
1070
   147
1040
0.0
1070
   173
1070
     1
1070
   176
1070
     3
1070
   177
1070
     3
1070
   178
1070
     2
1070
   271
1070
     2
1070
   277
1070
     2
1070
   279
1070
     2
1070
   280
1070
     0
1070
   287
1070
     5
1070
   340
1005
2CA
1002
}
  0
DIMENSION
  5
2DA
330
1F
100
AcDbEntity
  8
寸法
  6
CONTINUOUS
 62
     3
100
AcDbDimension
  2
*D16
 10
1578.810394300002
 20
1536.52531675
 30
0.0
 11
1681.310394300001
 21
1560.025316690395
 31
0.0
 70
   160
  1
205
  3
ISO-25
100
AcDbAlignedDimension
 13
1783.8103943
 23
1445.0
 33
0.0
 14
1578.810394300002
 24
1410.0
 34
0.0
100
AcDbRotatedDimension
1001
ACAD
1000
DSTYLE
1002
{
1070
   270
1070
     2
1070
     6
1000
EX_NORM
1070
     7
1000
EX_NORM
1070
    41
1040
30.0
1070
    42
1040
6.99999988079071
1070
    44
1040
10.0
1070
    73
1070
     0
1070
    74
1070
     0
1070
    75
1070
     0
1070
    76
1070
     0
1070
    77
1070
     1
1070
    78
1070
     8
1070
   140
1040
40.0
1070
   147
1040
0.0
1070
   173
1070
     1
1070
   176
1070
     3
1070
   177
1070
     3
1070
   178
1070
     2
1070
   271
1070
     1
1070
   277
1070
     2
1070
   279
1070
     2
1070
   280
1070
     0
1070
   287
1070
     5
1070
   340
1005
2D9
1002
}
  0
POLYLINE
  5
2E7
330
1F
100
AcDbEntity
  8
寸法
  6
CONTINUOUS
 62
     6
100
AcDb2dPolyline
 66
     1
 10
0.0
 20
0.0
 30
0.0
 70
   128
  0
VERTEX
  5
2E8
330
2E7
100
AcDbEntity
  8
寸法
  6
CONTINUOUS
 62
     6
100
AcDbVertex
100
AcDb2dVertex
 10
1502.0
 20
580.0
 30
0.0
  0
VERTEX
  5
2E9
330
2E7
100
AcDbEntity
  8
寸法
  6
CONTINUOUS
 62
     6
100
AcDbVertex
100
AcDb2dVertex
 10
1501.881704702991
 20
580.8408236219235
 30
0.0
  0
VERTEX
  5
2EA
330
2E7
100
AcDbEntity
  8
寸法
  6
CONTINUOUS
 62
     6
100
AcDbVertex
100
AcDb2dVertex
 10
1501.570831145644
 20
583.2286179314867
 30
0.0
  0
VERTEX
  5
2EB
330
2E7
100
AcDbEntity
  8
寸法
  6
CONTINUOUS
 62
     6
100
AcDbVertex
100
AcDb2dVertex
 10
1501.133397828478
 20
586.9613680943785
 30
0.0
  0
VERTEX
  5
2EC
330
2E7
100
AcDbEntity
  8
寸法
  6
CONTINUOUS
 62
     6
100
AcDbVertex
100
AcDb2dVertex
 10
1500.635423252013
 20
591.8370592762874
 30
0.0
  0
VERTEX
  5
2ED
330
2E7
100
AcDbEntity
  8
寸法
  6
CONTINUOUS
 62
     6
100
AcDbVertex
100
AcDb2dVertex
 10
1500.142925916768
 20
597.6536766429026
 30
0.0
  0
VERTEX
  5
2EE
330
2E7
100
AcDbEntity
  8
寸法
  6
CONTINUOUS
 62
     6
100
AcDbVertex
100
AcDb2dVertex
 10
1499.721924323262
 20
604.2092053599129
 30
0.0
  0
VERTEX
  5
2EF
330
2E7
100
AcDbEntity
  8
寸法
  6
CONTINUOUS
 62
     6
100
AcDbVertex
100
AcDb2dVertex
 10
1499.438436972015
 20
611.3016305930071
 30
0.0
  0
VERTEX
  5
2F0
330
2E7
100
AcDbEntity
  8
寸法
  6
CONTINUOUS
 62
     6
100
AcDbVertex
100
AcDb2dVertex
 10
1499.358482363545
 20
618.7289375078741
 30
0.0
  0
VERTEX
  5
2F1
330
2E7
100
AcDbEntity
  8
寸法
  6
CONTINUOUS
 62
     6
100
AcDbVertex
100
AcDb2dVertex
 10
1499.548078998374
 20
626.2891112702025
 30
0.0
  0
VERTEX
  5
2F2
330
2E7
100
AcDbEntity
  8
寸法
  6
CONTINUOUS
 62
     6
100
AcDbVertex
100
AcDb2dVertex
 10
1500.073245377019
 20
633.7801370456815
 30
0.0
  0
VERTEX
  5
2F3
330
2E7
100
AcDbEntity
  8
寸法
  6
CONTINUOUS
 62
     6
100
AcDbVertex
100
AcDb2dVertex
 10
1501.0
 20
640.9999999999999
 30
0.0
  0
VERTEX
  5
2F4
330
2E7
100
AcDbEntity
  8
寸法
  6
CONTINUOUS
 62
     6
100
AcDbVertex
100
AcDb2dVertex
 10
1502.448036850208
 20
648.0591955008921
 30
0.0
  0
VERTEX
  5
2F5
330
2E7
100
AcDbEntity
  8
寸法
  6
CONTINUOUS
 62
     6
100
AcDbVertex
100
AcDb2dVertex
 10
1504.377538830312
 20
654.6115689377659
 30
0.0
  0
VERTEX
  5
2F6
330
2E7
100
AcDbEntity
  8
寸法
  6
CONTINUOUS
 62
     6
100
AcDbVertex
100
AcDb2dVertex
 10
1506.761784803968
 20
660.6645388743256
 30
0.0
  0
VERTEX
  5
2F7
330
2E7
100
AcDbEntity
  8
寸法
  6
CONTINUOUS
 62
     6
100
AcDbVertex
100
AcDb2dVertex
 10
1509.574053634836
 20
666.2255238742754
 30
0.0
  0
VERTEX
  5
2F8
330
2E7
100
AcDbEntity
  8
寸法
  6
CONTINUOUS
 62
     6
100
AcDbVertex
100
AcDb2dVertex
 10
1512.78762418657
 20
671.3019425013192
 30
0.0
  0
VERTEX
  5
2F9
330
2E7
100
AcDbEntity
  8
寸法
  6
CONTINUOUS
 62
     6
100
AcDbVertex
100
AcDb2dVertex
 10
1516.37577532283
 20
675.9012133191618
 30
0.0
  0
VERTEX
  5
2FA
330
2E7
100
AcDbEntity
  8
寸法
  6
CONTINUOUS
 62
     6
100
AcDbVertex
100
AcDb2dVertex
 10
1520.311785907272
 20
680.0307548915071
 30
0.0
  0
VERTEX
  5
2FB
330
2E7
100
AcDbEntity
  8
寸法
  6
CONTINUOUS
 62
     6
100
AcDbVertex
100
AcDb2dVertex
 10
1524.568934803552
 20
683.6979857820593
 30
0.0
  0
VERTEX
  5
2FC
330
2E7
100
AcDbEntity
  8
寸法
  6
CONTINUOUS
 62
     6
100
AcDbVertex
100
AcDb2dVertex
 10
1529.120500875329
 20
686.9103245545227
 30
0.0
  0
VERTEX
  5
2FD
330
2E7
100
AcDbEntity
  8
寸法
  6
CONTINUOUS
 62
     6
100
AcDbVertex
100
AcDb2dVertex
 10
1533.939762986259
 20
689.6751897726015
 30
0.0
  0
VERTEX
  5
2FE
330
2E7
100
AcDbEntity
  8
寸法
  6
CONTINUOUS
 62
     6
100
AcDbVertex
100
AcDb2dVertex
 10
1539.0
 20
692.0
 30
0.0
  0
VERTEX
  5
2FF
330
2E7
100
AcDbEntity
  8
寸法
  6
CONTINUOUS
 62
     6
100
AcDbVertex
100
AcDb2dVertex
 10
1543.305316455608
 20
693.5853176345273
 30
0.0
  0
VERTEX
  5
300
330
2E7
100
AcDbEntity
  8
寸法
  6
CONTINUOUS
 62
     6
100
AcDbVertex
100
AcDb2dVertex
 10
1547.737649063023
 20
694.9067655748992
 30
0.0
  0
VERTEX
  5
301
330
2E7
100
AcDbEntity
  8
寸法
  6
CONTINUOUS
 62
     6
100
AcDbVertex
100
AcDb2dVertex
 10
1552.28026611226
 20
695.9907400221049
 30
0.0
  0
VERTEX
  5
302
330
2E7
100
AcDbEntity
  8
寸法
  6
CONTINUOUS
 62
     6
100
AcDbVertex
100
AcDb2dVertex
 10
1556.916435893332
 20
696.8636371771335
 30
0.0
  0
VERTEX
  5
303
330
2E7
100
AcDbEntity
  8
寸法
  6
CONTINUOUS
 62
     6
100
AcDbVertex
100
AcDb2dVertex
 10
1561.629426696254
 20
697.551853240974
 30
0.0
  0
VERTEX
  5
304
330
2E7
100
AcDbEntity
  8
寸法
  6
CONTINUOUS
 62
     6
100
AcDbVertex
100
AcDb2dVertex
 10
1566.402506811039
 20
698.0817844146155
 30
0.0
  0
VERTEX
  5
305
330
2E7
100
AcDbEntity
  8
寸法
  6
CONTINUOUS
 62
     6
100
AcDbVertex
100
AcDb2dVertex
 10
1571.2189445277
 20
698.4798268990473
 30
0.0
  0
VERTEX
  5
306
330
2E7
100
AcDbEntity
  8
寸法
  6
CONTINUOUS
 62
     6
100
AcDbVertex
100
AcDb2dVertex
 10
1576.062008136254
 20
698.7723768952587
 30
0.0
  0
VERTEX
  5
307
330
2E7
100
AcDbEntity
  8
寸法
  6
CONTINUOUS
 62
     6
100
AcDbVertex
100
AcDb2dVertex
 10
1580.914965926712
 20
698.9858306042386
 30
0.0
  0
VERTEX
  5
308
330
2E7
100
AcDbEntity
  8
寸法
  6
CONTINUOUS
 62
     6
100
AcDbVertex
100
AcDb2dVertex
 10
1585.76108618909
 20
699.1465842269758
 30
0.0
  0
VERTEX
  5
309
330
2E7
100
AcDbEntity
  8
寸法
  6
CONTINUOUS
 62
     6
100
AcDbVertex
100
AcDb2dVertex
 10
1590.5836372134
 20
699.2810339644601
 30
0.0
  0
VERTEX
  5
30A
330
2E7
100
AcDbEntity
  8
寸法
  6
CONTINUOUS
 62
     6
100
AcDbVertex
100
AcDb2dVertex
 10
1593.199800699398
 20
699.3519867326111
 30
0.0
  0
VERTEX
  5
30B
330
2E7
100
AcDbEntity
  8
寸法
  6
CONTINUOUS
 62
     6
100
AcDbVertex
100
AcDb2dVertex
 10
1595.805322177942
 20
699.422680503702
 30
0.0
  0
VERTEX
  5
30C
330
2E7
100
AcDbEntity
  8
寸法
  6
CONTINUOUS
 62
     6
100
AcDbVertex
100
AcDb2dVertex
 10
1598.401558466309
 20
699.4928287954555
 30
0.0
  0
VERTEX
  5
30D
330
2E7
100
AcDbEntity
  8
寸法
  6
CONTINUOUS
 62
     6
100
AcDbVertex
100
AcDb2dVertex
 10
1600.989866381775
 20
699.5621451255936
 30
0.0
  0
VERTEX
  5
30E
330
2E7
100
AcDbEntity
  8
寸法
  6
CONTINUOUS
 62
     6
100
AcDbVertex
100
AcDb2dVertex
 10
1603.571602741616
 20
699.6303430118384
 30
0.0
  0
VERTEX
  5
30F
330
2E7
100
AcDbEntity
  8
寸法
  6
CONTINUOUS
 62
     6
100
AcDbVertex
100
AcDb2dVertex
 10
1606.148124363108
 20
699.6971359719125
 30
0.0
  0
VERTEX
  5
310
330
2E7
100
AcDbEntity
  8
寸法
  6
CONTINUOUS
 62
     6
100
AcDbVertex
100
AcDb2dVertex
 10
1608.720788063527
 20
699.762237523538
 30
0.0
  0
VERTEX
  5
311
330
2E7
100
AcDbEntity
  8
寸法
  6
CONTINUOUS
 62
     6
100
AcDbVertex
100
AcDb2dVertex
 10
1611.29095066015
 20
699.8253611844374
 30
0.0
  0
VERTEX
  5
312
330
2E7
100
AcDbEntity
  8
寸法
  6
CONTINUOUS
 62
     6
100
AcDbVertex
100
AcDb2dVertex
 10
1613.859968970252
 20
699.8862204723326
 30
0.0
  0
VERTEX
  5
313
330
2E7
100
AcDbEntity
  8
寸法
  6
CONTINUOUS
 62
     6
100
AcDbVertex
100
AcDb2dVertex
 10
1616.42919981111
 20
699.944528904946
 30
0.0
  0
VERTEX
  5
314
330
2E7
100
AcDbEntity
  8
寸法
  6
CONTINUOUS
 62
     6
100
AcDbVertex
100
AcDb2dVertex
 10
1619.0
 20
700.0
 30
0.0
  0
VERTEX
  5
315
330
2E7
100
AcDbEntity
  8
寸法
  6
CONTINUOUS
 62
     6
100
AcDbVertex
100
AcDb2dVertex
 10
1621.984667431501
 20
700.0597305353332
 30
0.0
  0
VERTEX
  5
316
330
2E7
100
AcDbEntity
  8
寸法
  6
CONTINUOUS
 62
     6
100
AcDbVertex
100
AcDb2dVertex
 10
1624.972871508299
 20
700.110806670094
 30
0.0
  0
VERTEX
  5
317
330
2E7
100
AcDbEntity
  8
寸法
  6
CONTINUOUS
 62
     6
100
AcDbVertex
100
AcDb2dVertex
 10
1627.964213530648
 20
700.1487751706377
 30
0.0
  0
VERTEX
  5
318
330
2E7
100
AcDbEntity
  8
寸法
  6
CONTINUOUS
 62
     6
100
AcDbVertex
100
AcDb2dVertex
 10
1630.958294798802
 20
700.1691828033194
 30
0.0
  0
VERTEX
  5
319
330
2E7
100
AcDbEntity
  8
寸法
  6
CONTINUOUS
 62
     6
100
AcDbVertex
100
AcDb2dVertex
 10
1633.954716613015
 20
700.1675763344938
 30
0.0
  0
VERTEX
  5
31A
330
2E7
100
AcDbEntity
  8
寸法
  6
CONTINUOUS
 62
     6
100
AcDbVertex
100
AcDb2dVertex
 10
1636.953080273539
 20
700.1395025305164
 30
0.0
  0
VERTEX
  5
31B
330
2E7
100
AcDbEntity
  8
寸法
  6
CONTINUOUS
 62
     6
100
AcDbVertex
100
AcDb2dVertex
 10
1639.952987080628
 20
700.0805081577421
 30
0.0
  0
VERTEX
  5
31C
330
2E7
100
AcDbEntity
  8
寸法
  6
CONTINUOUS
 62
     6
100
AcDbVertex
100
AcDb2dVertex
 10
1642.954038334535
 20
699.9861399825264
 30
0.0
  0
VERTEX
  5
31D
330
2E7
100
AcDbEntity
  8
寸法
  6
CONTINUOUS
 62
     6
100
AcDbVertex
100
AcDb2dVertex
 10
1645.955835335514
 20
699.851944771224
 30
0.0
  0
VERTEX
  5
31E
330
2E7
100
AcDbEntity
  8
寸法
  6
CONTINUOUS
 62
     6
100
AcDbVertex
100
AcDb2dVertex
 10
1648.957979383818
 20
699.67346929019
 30
0.0
  0
VERTEX
  5
31F
330
2E7
100
AcDbEntity
  8
寸法
  6
CONTINUOUS
 62
     6
100
AcDbVertex
100
AcDb2dVertex
 10
1651.9600717797
 20
699.4462603057799
 30
0.0
  0
VERTEX
  5
320
330
2E7
100
AcDbEntity
  8
寸法
  6
CONTINUOUS
 62
     6
100
AcDbVertex
100
AcDb2dVertex
 10
1653.936688091682
 20
699.2674345488266
 30
0.0
  0
VERTEX
  5
321
330
2E7
100
AcDbEntity
  8
寸法
  6
CONTINUOUS
 62
     6
100
AcDbVertex
100
AcDb2dVertex
 10
1655.911261132297
 20
699.061758165739
 30
0.0
  0
VERTEX
  5
322
330
2E7
100
AcDbEntity
  8
寸法
  6
CONTINUOUS
 62
     6
100
AcDbVertex
100
AcDb2dVertex
 10
1657.881942962029
 20
698.8254492852218
 30
0.0
  0
VERTEX
  5
323
330
2E7
100
AcDbEntity
  8
寸法
  6
CONTINUOUS
 62
     6
100
AcDbVertex
100
AcDb2dVertex
 10
1659.846885641361
 20
698.55472603598
 30
0.0
  0
VERTEX
  5
324
330
2E7
100
AcDbEntity
  8
寸法
  6
CONTINUOUS
 62
     6
100
AcDbVertex
100
AcDb2dVertex
 10
1661.804241230776
 20
698.2458065467185
 30
0.0
  0
VERTEX
  5
325
330
2E7
100
AcDbEntity
  8
寸法
  6
CONTINUOUS
 62
     6
100
AcDbVertex
100
AcDb2dVertex
 10
1663.752161790759
 20
697.8949089461423
 30
0.0
  0
VERTEX
  5
326
330
2E7
100
AcDbEntity
  8
寸法
  6
CONTINUOUS
 62
     6
100
AcDbVertex
100
AcDb2dVertex
 10
1665.688799381792
 20
697.4982513629561
 30
0.0
  0
VERTEX
  5
327
330
2E7
100
AcDbEntity
  8
寸法
  6
CONTINUOUS
 62
     6
100
AcDbVertex
100
AcDb2dVertex
 10
1667.612306064359
 20
697.052051925865
 30
0.0
  0
VERTEX
  5
328
330
2E7
100
AcDbEntity
  8
寸法
  6
CONTINUOUS
 62
     6
100
AcDbVertex
100
AcDb2dVertex
 10
1669.520833898944
 20
696.5525287635737
 30
0.0
  0
VERTEX
  5
329
330
2E7
100
AcDbEntity
  8
寸法
  6
CONTINUOUS
 62
     6
100
AcDbVertex
100
AcDb2dVertex
 10
1671.41253494603
 20
695.9959000047871
 30
0.0
  0
VERTEX
  5
32A
330
2E7
100
AcDbEntity
  8
寸法
  6
CONTINUOUS
 62
     6
100
AcDbVertex
100
AcDb2dVertex
 10
1673.2855612661
 20
695.37838377821
 30
0.0
  0
VERTEX
  5
32B
330
2E7
100
AcDbEntity
  8
寸法
  6
CONTINUOUS
 62
     6
100
AcDbVertex
100
AcDb2dVertex
 10
1673.815877944151
 20
695.1906411576795
 30
0.0
  0
VERTEX
  5
32C
330
2E7
100
AcDbEntity
  8
寸法
  6
CONTINUOUS
 62
     6
100
AcDbVertex
100
AcDb2dVertex
 10
1674.344402373122
 20
694.9975323537547
 30
0.0
  0
VERTEX
  5
32D
330
2E7
100
AcDbEntity
  8
寸法
  6
CONTINUOUS
 62
     6
100
AcDbVertex
100
AcDb2dVertex
 10
1674.871010486193
 20
694.7989478217949
 30
0.0
  0
VERTEX
  5
32E
330
2E7
100
AcDbEntity
  8
寸法
  6
CONTINUOUS
 62
     6
100
AcDbVertex
100
AcDb2dVertex
 10
1675.395578216545
 20
694.5947780171598
 30
0.0
  0
VERTEX
  5
32F
330
2E7
100
AcDbEntity
  8
寸法
  6
CONTINUOUS
 62
     6
100
AcDbVertex
100
AcDb2dVertex
 10
1675.917981497358
 20
694.3849133952085
 30
0.0
  0
VERTEX
  5
330
330
2E7
100
AcDbEntity
  8
寸法
  6
CONTINUOUS
 62
     6
100
AcDbVertex
100
AcDb2dVertex
 10
1676.438096261812
 20
694.1692444113012
 30
0.0
  0
VERTEX
  5
331
330
2E7
100
AcDbEntity
  8
寸法
  6
CONTINUOUS
 62
     6
100
AcDbVertex
100
AcDb2dVertex
 10
1676.955798443087
 20
693.9476615207968
 30
0.0
  0
VERTEX
  5
332
330
2E7
100
AcDbEntity
  8
寸法
  6
CONTINUOUS
 62
     6
100
AcDbVertex
100
AcDb2dVertex
 10
1677.470963974362
 20
693.720055179055
 30
0.0
  0
VERTEX
  5
333
330
2E7
100
AcDbEntity
  8
寸法
  6
CONTINUOUS
 62
     6
100
AcDbVertex
100
AcDb2dVertex
 10
1677.98346878882
 20
693.4863158414353
 30
0.0
  0
VERTEX
  5
334
330
2E7
100
AcDbEntity
  8
寸法
  6
CONTINUOUS
 62
     6
100
AcDbVertex
100
AcDb2dVertex
 10
1678.493188819639
 20
693.246333963297
 30
0.0
  0
VERTEX
  5
335
330
2E7
100
AcDbEntity
  8
寸法
  6
CONTINUOUS
 62
     6
100
AcDbVertex
100
AcDb2dVertex
 10
1679.0
 20
692.9999999999999
 30
0.0
  0
VERTEX
  5
336
330
2E7
100
AcDbEntity
  8
寸法
  6
CONTINUOUS
 62
     6
100
AcDbVertex
100
AcDb2dVertex
 10
1679.367740871242
 20
692.8162369286384
 30
0.0
  0
VERTEX
  5
337
330
2E7
100
AcDbEntity
  8
寸法
  6
CONTINUOUS
 62
     6
100
AcDbVertex
100
AcDb2dVertex
 10
1679.733692736148
 20
692.6288858556047
 30
0.0
  0
VERTEX
  5
338
330
2E7
100
AcDbEntity
  8
寸法
  6
CONTINUOUS
 62
     6
100
AcDbVertex
100
AcDb2dVertex
 10
1680.097680172928
 20
692.437796520851
 30
0.0
  0
VERTEX
  5
339
330
2E7
100
AcDbEntity
  8
寸法
  6
CONTINUOUS
 62
     6
100
AcDbVertex
100
AcDb2dVertex
 10
1680.45952775979
 20
692.2428186643297
 30
0.0
  0
VERTEX
  5
33A
330
2E7
100
AcDbEntity
  8
寸法
  6
CONTINUOUS
 62
     6
100
AcDbVertex
100
AcDb2dVertex
 10
1680.819060074941
 20
692.0438020259927
 30
0.0
  0
VERTEX
  5
33B
330
2E7
100
AcDbEntity
  8
寸法
  6
CONTINUOUS
 62
     6
100
AcDbVertex
100
AcDb2dVertex
 10
1681.17610169659
 20
691.8405963457925
 30
0.0
  0
VERTEX
  5
33C
330
2E7
100
AcDbEntity
  8
寸法
  6
CONTINUOUS
 62
     6
100
AcDbVertex
100
AcDb2dVertex
 10
1681.530477202946
 20
691.6330513636813
 30
0.0
  0
VERTEX
  5
33D
330
2E7
100
AcDbEntity
  8
寸法
  6
CONTINUOUS
 62
     6
100
AcDbVertex
100
AcDb2dVertex
 10
1681.882011172216
 20
691.421016819611
 30
0.0
  0
VERTEX
  5
33E
330
2E7
100
AcDbEntity
  8
寸法
  6
CONTINUOUS
 62
     6
100
AcDbVertex
100
AcDb2dVertex
 10
1682.23052818261
 20
691.2043424535342
 30
0.0
  0
VERTEX
  5
33F
330
2E7
100
AcDbEntity
  8
寸法
  6
CONTINUOUS
 62
     6
100
AcDbVertex
100
AcDb2dVertex
 10
1682.575852812335
 20
690.9828780054031
 30
0.0
  0
VERTEX
  5
340
330
2E7
100
AcDbEntity
  8
寸法
  6
CONTINUOUS
 62
     6
100
AcDbVertex
100
AcDb2dVertex
 10
1682.9178096396
 20
690.7564732151699
 30
0.0
  0
VERTEX
  5
341
330
2E7
100
AcDbEntity
  8
寸法
  6
CONTINUOUS
 62
     6
100
AcDbVertex
100
AcDb2dVertex
 10
1683.068565855483
 20
690.6543035518704
 30
0.0
  0
VERTEX
  5
342
330
2E7
100
AcDbEntity
  8
寸法
  6
CONTINUOUS
 62
     6
100
AcDbVertex
100
AcDb2dVertex
 10
1683.218655592593
 20
690.5511623972823
 30
0.0
  0
VERTEX
  5
343
330
2E7
100
AcDbEntity
  8
寸法
  6
CONTINUOUS
 62
     6
100
AcDbVertex
100
AcDb2dVertex
 10
1683.368111285908
 20
690.4470823997367
 30
0.0
  0
VERTEX
  5
344
330
2E7
100
AcDbEntity
  8
寸法
  6
CONTINUOUS
 62
     6
100
AcDbVertex
100
AcDb2dVertex
 10
1683.516965370406
 20
690.3420962075653
 30
0.0
  0
VERTEX
  5
345
330
2E7
100
AcDbEntity
  8
寸法
  6
CONTINUOUS
 62
     6
100
AcDbVertex
100
AcDb2dVertex
 10
1683.665250281068
 20
690.2362364690991
 30
0.0
  0
VERTEX
  5
346
330
2E7
100
AcDbEntity
  8
寸法
  6
CONTINUOUS
 62
     6
100
AcDbVertex
100
AcDb2dVertex
 10
1683.812998452873
 20
690.1295358326697
 30
0.0
  0
VERTEX
  5
347
330
2E7
100
AcDbEntity
  8
寸法
  6
CONTINUOUS
 62
     6
100
AcDbVertex
100
AcDb2dVertex
 10
1683.960242320799
 20
690.0220269466084
 30
0.0
  0
VERTEX
  5
348
330
2E7
100
AcDbEntity
  8
寸法
  6
CONTINUOUS
 62
     6
100
AcDbVertex
100
AcDb2dVertex
 10
1684.107014319826
 20
689.9137424592464
 30
0.0
  0
VERTEX
  5
349
330
2E7
100
AcDbEntity
  8
寸法
  6
CONTINUOUS
 62
     6
100
AcDbVertex
100
AcDb2dVertex
 10
1684.253346884932
 20
689.8047150189151
 30
0.0
  0
VERTEX
  5
34A
330
2E7
100
AcDbEntity
  8
寸法
  6
CONTINUOUS
 62
     6
100
AcDbVertex
100
AcDb2dVertex
 10
1684.399272451097
 20
689.6949772739458
 30
0.0
  0
VERTEX
  5
34B
330
2E7
100
AcDbEntity
  8
寸法
  6
CONTINUOUS
 62
     6
100
AcDbVertex
100
AcDb2dVertex
 10
1684.5448234533
 20
689.5845618726698
 30
0.0
  0
VERTEX
  5
34C
330
2E7
100
AcDbEntity
  8
寸法
  6
CONTINUOUS
 62
     6
100
AcDbVertex
100
AcDb2dVertex
 10
1685.104195353647
 20
689.1517485401977
 30
0.0
  0
VERTEX
  5
34D
330
2E7
100
AcDbEntity
  8
寸法
  6
CONTINUOUS
 62
     6
100
AcDbVertex
100
AcDb2dVertex
 10
1685.658129145191
 20
688.7099740719934
 30
0.0
  0
VERTEX
  5
34E
330
2E7
100
AcDbEntity
  8
寸法
  6
CONTINUOUS
 62
     6
100
AcDbVertex
100
AcDb2dVertex
 10
1686.206299519316
 20
688.2599163780087
 30
0.0
  0
VERTEX
  5
34F
330
2E7
100
AcDbEntity
  8
寸法
  6
CONTINUOUS
 62
     6
100
AcDbVertex
100
AcDb2dVertex
 10
1686.748381167406
 20
687.8022533681946
 30
0.0
  0
VERTEX
  5
350
330
2E7
100
AcDbEntity
  8
寸法
  6
CONTINUOUS
 62
     6
100
AcDbVertex
100
AcDb2dVertex
 10
1687.284048780848
 20
687.3376629525026
 30
0.0
  0
VERTEX
  5
351
330
2E7
100
AcDbEntity
  8
寸法
  6
CONTINUOUS
 62
     6
100
AcDbVertex
100
AcDb2dVertex
 10
1687.812977051024
 20
686.8668230408841
 30
0.0
  0
VERTEX
  5
352
330
2E7
100
AcDbEntity
  8
寸法
  6
CONTINUOUS
 62
     6
100
AcDbVertex
100
AcDb2dVertex
 10
1688.33484066932
 20
686.3904115432903
 30
0.0
  0
VERTEX
  5
353
330
2E7
100
AcDbEntity
  8
寸法
  6
CONTINUOUS
 62
     6
100
AcDbVertex
100
AcDb2dVertex
 10
1688.849314327122
 20
685.9091063696726
 30
0.0
  0
VERTEX
  5
354
330
2E7
100
AcDbEntity
  8
寸法
  6
CONTINUOUS
 62
     6
100
AcDbVertex
100
AcDb2dVertex
 10
1689.356072715812
 20
685.4235854299824
 30
0.0
  0
VERTEX
  5
355
330
2E7
100
AcDbEntity
  8
寸法
  6
CONTINUOUS
 62
     6
100
AcDbVertex
100
AcDb2dVertex
 10
1689.854790526777
 20
684.9345266341712
 30
0.0
  0
VERTEX
  5
356
330
2E7
100
AcDbEntity
  8
寸法
  6
CONTINUOUS
 62
     6
100
AcDbVertex
100
AcDb2dVertex
 10
1690.345142451401
 20
684.44260789219
 30
0.0
  0
VERTEX
  5
357
330
2E7
100
AcDbEntity
  8
寸法
  6
CONTINUOUS
 62
     6
100
AcDbVertex
100
AcDb2dVertex
 10
1693.790530210066
 20
680.6325505437079
 30
0.0
  0
VERTEX
  5
358
330
2E7
100
AcDbEntity
  8
寸法
  6
CONTINUOUS
 62
     6
100
AcDbVertex
100
AcDb2dVertex
 10
1696.77759508826
 20
676.6667367809625
 30
0.0
  0
VERTEX
  5
359
330
2E7
100
AcDbEntity
  8
寸法
  6
CONTINUOUS
 62
     6
100
AcDbVertex
100
AcDb2dVertex
 10
1699.348539211006
 20
672.5150734265333
 30
0.0
  0
VERTEX
  5
35A
330
2E7
100
AcDbEntity
  8
寸法
  6
CONTINUOUS
 62
     6
100
AcDbVertex
100
AcDb2dVertex
 10
1701.54556470333
 20
668.1474673029993
 30
0.0
  0
VERTEX
  5
35B
330
2E7
100
AcDbEntity
  8
寸法
  6
CONTINUOUS
 62
     6
100
AcDbVertex
100
AcDb2dVertex
 10
1703.41087369026
 20
663.5338252329403
 30
0.0
  0
VERTEX
  5
35C
330
2E7
100
AcDbEntity
  8
寸法
  6
CONTINUOUS
 62
     6
100
AcDbVertex
100
AcDb2dVertex
 10
1704.986668296822
 20
658.6440540389353
 30
0.0
  0
VERTEX
  5
35D
330
2E7
100
AcDbEntity
  8
寸法
  6
CONTINUOUS
 62
     6
100
AcDbVertex
100
AcDb2dVertex
 10
1706.315150648039
 20
653.448060543564
 30
0.0
  0
VERTEX
  5
35E
330
2E7
100
AcDbEntity
  8
寸法
  6
CONTINUOUS
 62
     6
100
AcDbVertex
100
AcDb2dVertex
 10
1707.43852286894
 20
647.9157515694054
 30
0.0
  0
VERTEX
  5
35F
330
2E7
100
AcDbEntity
  8
寸法
  6
CONTINUOUS
 62
     6
100
AcDbVertex
100
AcDb2dVertex
 10
1708.39898708455
 20
642.017033939039
 30
0.0
  0
VERTEX
  5
360
330
2E7
100
AcDbEntity
  8
寸法
  6
CONTINUOUS
 62
     6
100
AcDbVertex
100
AcDb2dVertex
 10
1709.238745419894
 20
635.7218144750441
 30
0.0
  0
VERTEX
  5
361
330
2E7
100
AcDbEntity
  8
寸法
  6
CONTINUOUS
 62
     6
100
AcDbVertex
100
AcDb2dVertex
 10
1710.0
 20
629.0
 30
0.0
  0
VERTEX
  5
362
330
2E7
100
AcDbEntity
  8
寸法
  6
CONTINUOUS
 62
     6
100
AcDbVertex
100
AcDb2dVertex
 10
1710.601582016521
 20
623.0615974153002
 30
0.0
  0
VERTEX
  5
363
330
2E7
100
AcDbEntity
  8
寸法
  6
CONTINUOUS
 62
     6
100
AcDbVertex
100
AcDb2dVertex
 10
1711.172248817177
 20
616.9581349202242
 30
0.0
  0
VERTEX
  5
364
330
2E7
100
AcDbEntity
  8
寸法
  6
CONTINUOUS
 62
     6
100
AcDbVertex
100
AcDb2dVertex
 10
1711.706442430398
 20
610.8435562935747
 30
0.0
  0
VERTEX
  5
365
330
2E7
100
AcDbEntity
  8
寸法
  6
CONTINUOUS
 62
     6
100
AcDbVertex
100
AcDb2dVertex
 10
1712.198604884612
 20
604.8718053141536
 30
0.0
  0
VERTEX
  5
366
330
2E7
100
AcDbEntity
  8
寸法
  6
CONTINUOUS
 62
     6
100
AcDbVertex
100
AcDb2dVertex
 10
1712.64317820825
 20
599.1968257607634
 30
0.0
  0
VERTEX
  5
367
330
2E7
100
AcDbEntity
  8
寸法
  6
CONTINUOUS
 62
     6
100
AcDbVertex
100
AcDb2dVertex
 10
1713.03460442974
 20
593.9725614122065
 30
0.0
  0
VERTEX
  5
368
330
2E7
100
AcDbEntity
  8
寸法
  6
CONTINUOUS
 62
     6
100
AcDbVertex
100
AcDb2dVertex
 10
1713.367325577512
 20
589.3529560472848
 30
0.0
  0
VERTEX
  5
369
330
2E7
100
AcDbEntity
  8
寸法
  6
CONTINUOUS
 62
     6
100
AcDbVertex
100
AcDb2dVertex
 10
1713.635783679994
 20
585.4919534448012
 30
0.0
  0
VERTEX
  5
36A
330
2E7
100
AcDbEntity
  8
寸法
  6
CONTINUOUS
 62
     6
100
AcDbVertex
100
AcDb2dVertex
 10
1713.834420765617
 20
582.5434973835577
 30
0.0
  0
VERTEX
  5
36B
330
2E7
100
AcDbEntity
  8
寸法
  6
CONTINUOUS
 62
     6
100
AcDbVertex
100
AcDb2dVertex
 10
1713.957678862809
 20
580.6615316423565
 30
0.0
  0
VERTEX
  5
36C
330
2E7
100
AcDbEntity
  8
寸法
  6
CONTINUOUS
 62
     6
100
AcDbVertex
100
AcDb2dVertex
 10
1714.0
 20
580.0
 30
0.0
  0
SEQEND
  5
36D
330
2E7
100
AcDbEntity
  8
寸法
  6
CONTINUOUS
 62
     6
  0
ARC
  5
36E
330
1F
100
AcDbEntity
  8
寸法
  6
CONTINUOUS
 62
     7
100
AcDbCircle
 10
1566.3103943
 20
968.9999999999995
 30
0.0
 40
300.0
100
AcDbArc
 50
260.0565302607203
 51
270.0000000000006
  0
ARC
  5
36F
330
1F
100
AcDbEntity
  8
寸法
  6
CONTINUOUS
 62
     7
100
AcDbCircle
 10
1566.3103943
 20
968.9999999999995
 30
0.0
 40
310.0
100
AcDbArc
 50
259.2814715069106
 51
265.7399758834569
  0
ARC
  5
370
330
1F
100
AcDbEntity
  8
寸法
  6
CONTINUOUS
 62
     7
100
AcDbCircle
 10
1441.02631164695
 20
773.0000000000001
 30
0.0
 40
6.999999999999886
100
AcDbArc
 50
145.1438722795602
 51
185.8636601955359
  0
ARC
  5
371
330
1F
100
AcDbEntity
  8
寸法
  6
CONTINUOUS
 62
     7
100
AcDbCircle
 10
1650.414103388575
 20
776.1241879362055
 30
0.0
 40
100.0000000000001
100
AcDbArc
 50
279.6836108897892
 51
293.5350747441084
  0
ARC
  5
372
330
1F
100
AcDbEntity
  8
寸法
  6
CONTINUOUS
 62
     7
100
AcDbCircle
 10
1650.414103388575
 20
776.1241879362055
 30
0.0
 40
113.0000000000001
100
AcDbArc
 50
279.6836108897892
 51
295.1899857848899
  0
LINE
  5
373
330
1F
100
AcDbEntity
  8
寸法
  6
CONTINUOUS
 62
     7
100
AcDbLine
 10
1674.463287685861
 20
609.1124278028042
 30
0.0
 11
1712.011404652091
 21
607.1432365505925
 31
0.0
  0
LINE
  5
374
330
1F
100
AcDbEntity
  8
寸法
  6
CONTINUOUS
 62
     7
100
AcDbLine
 10
1712.951822857437
 20
595.0774256066709
 30
0.0
 11
1691.777542153683
 21
596.1878996251476
 31
0.0
  0
LINE
  5
375
330
1F
100
AcDbEntity
  8
寸法
  6
CONTINUOUS
 62
     7
100
AcDbLine
 10
1500.367614699416
 20
594.9999999999995
 30
0.0
 11
1520.248710161243
 21
594.9999999999995
 31
0.0
  0
LINE
  5
376
330
1F
100
AcDbEntity
  8
寸法
  6
CONTINUOUS
 62
     7
100
AcDbLine
 10
1514.350982591844
 20
584.9999999999995
 30
0.0
 11
1501.363246522944
 21
584.9999999999995
 31
0.0
  0
LINE
  5
377
330
1F
100
AcDbEntity
  8
寸法
  6
CONTINUOUS
 62
     7
100
AcDbLine
 10
819.5004606472999
 20
580.0000000000005
 30
0.0
 11
494.5004606472999
 21
579.9999999999995
 31
0.0
  0
LINE
  5
378
330
1F
100
AcDbEntity
  8
寸法
  6
CONTINUOUS
 62
     7
100
AcDbLine
 10
804.5004606472999
 20
1445.0
 30
0.0
 11
509.5004606472999
 21
1445.0
 31
0.0
  0
ARC
  5
379
330
1F
100
AcDbEntity
  8
寸法
  6
CONTINUOUS
 62
     7
100
AcDbCircle
 10
1394.289545445266
 20
1122.483400073901
 30
0.0
 40
900.0000000000006
100
AcDbArc
 50
181.2404486733216
 51
183.6496667763911
  0
ARC
  5
37A
330
1F
100
AcDbEntity
  8
寸法
  6
CONTINUOUS
 62
     7
100
AcDbCircle
 10
623.126459888334
 20
800.0000000000005
 30
0.0
 40
20.0
100
AcDbArc
 50
229.908917927944
 51
270.0000000000002
  0
ARC
  5
37B
330
1F
100
AcDbEntity
  8
寸法
  6
CONTINUOUS
 62
     7
100
AcDbCircle
 10
771.2475096270605
 20
975.9549789698999
 30
0.0
 40
250.0000000000001
100
AcDbArc
 50
203.7568720551854
 51
229.9089179279443
  0
ARC
  5
37C
330
1F
100
AcDbEntity
  8
寸法
  6
CONTINUOUS
 62
     7
100
AcDbCircle
 10
1054.97909142873
 20
1100.840484487201
 30
0.0
 40
560.0
100
AcDbArc
 50
183.6496667763895
 51
203.7568720551854
  0
LINE
  5
37D
330
1F
100
AcDbEntity
  8
寸法
  6
CONTINUOUS
 62
     7
100
AcDbLine
 10
494.5004606472999
 20
580.0000000000005
 30
0.0
 11
494.500460647299
 21
1430.0
 31
0.0
  0
ARC
  5
37E
330
1F
100
AcDbEntity
  8
寸法
  6
CONTINUOUS
 62
     7
100
AcDbCircle
 10
509.5004606472999
 20
1430.0
 30
0.0
 40
15.00000000000001
100
AcDbArc
 50
90.00000000000001
 51
180.0
  0
ARC
  5
37F
330
1F
100
AcDbEntity
  8
寸法
  6
CONTINUOUS
 62
     7
100
AcDbCircle
 10
-80.28862415066612
 20
1122.4834000739
 30
0.0
 40
900.0000000000006
100
AcDbArc
 50
356.3503332236089
 51
358.7595513266785
  0
ARC
  5
380
330
1F
100
AcDbEntity
  8
寸法
  6
CONTINUOUS
 62
     7
100
AcDbCircle
 10
690.8744614062666
 20
800.0000000000005
 30
0.0
 40
20.0
100
AcDbArc
 50
270.0000000000002
 51
310.0910820720561
  0
ARC
  5
381
330
1F
100
AcDbEntity
  8
寸法
  6
CONTINUOUS
 62
     7
100
AcDbCircle
 10
542.7534116675401
 20
975.9549789698999
 30
0.0
 40
250.0000000000001
100
AcDbArc
 50
310.0910820720561
 51
336.2431279448146
  0
ARC
  5
382
330
1F
100
AcDbEntity
  8
寸法
  6
CONTINUOUS
 62
     7
100
AcDbCircle
 10
259.0218298658697
 20
1100.840484487201
 30
0.0
 40
560.0
100
AcDbArc
 50
336.2431279448146
 51
356.3503332236107
  0
LINE
  5
383
330
1F
100
AcDbEntity
  8
寸法
  6
CONTINUOUS
 62
     7
100
AcDbLine
 10
819.5004606472999
 20
580.0000000000005
 30
0.0
 11
819.5004606473008
 21
1430.0
 31
0.0
  0
ARC
  5
384
330
1F
100
AcDbEntity
  8
寸法
  6
CONTINUOUS
 62
     7
100
AcDbCircle
 10
804.5004606472999
 20
1430.0
 30
0.0
 40
15.00000000000001
100
AcDbArc
 50
0.0
 51
90.00000000000001
  0
LINE
  5
385
330
1F
100
AcDbEntity
  8
寸法
  6
CONTINUOUS
 62
     7
100
AcDbLine
 10
690.8744614062666
 20
780.0000000000005
 30
0.0
 11
623.208876104904
 21
780.0000000000005
 31
0.0
  0
ARC
  5
386
330
1F
100
AcDbEntity
  8
寸法
  6
CONTINUOUS
 62
     7
100
AcDbCircle
 10
1203.54590732014
 20
1115.000000000003
 30
0.0
 40
679.0454466728409
100
AcDbArc
 50
180.0000000000004
 51
209.1054665042975
  0
ARC
  5
387
330
1F
100
AcDbEntity
  8
寸法
  6
CONTINUOUS
 62
     7
100
AcDbCircle
 10
110.4550139744684
 20
1115.000000000002
 30
0.0
 40
679.0454466728324
100
AcDbArc
 50
330.8945334957025
 51
0.0
  0
ARC
  5
388
330
1F
100
AcDbEntity
  8
寸法
  6
CONTINUOUS
 62
     7
100
AcDbCircle
 10
537.5004606473001
 20
1367.0
 30
0.0
 40
13.00000000000001
100
AcDbArc
 50
90.00000000000001
 51
180.0
  0
ARC
  5
389
330
1F
100
AcDbEntity
  8
寸法
  6
CONTINUOUS
 62
     7
100
AcDbCircle
 10
776.5004606473008
 20
1367.0
 30
0.0
 40
13.00000000000001
100
AcDbArc
 50
0.0
 51
90.00000000000001
  0
LINE
  5
38A
330
1F
100
AcDbEntity
  8
寸法
  6
CONTINUOUS
 62
     7
100
AcDbLine
 10
524.5004606472994
 20
1115.000000000003
 30
0.0
 11
524.5004606472992
 21
1367.0
 31
0.0
  0
LINE
  5
38B
330
1F
100
AcDbEntity
  8
寸法
  6
CONTINUOUS
 62
     7
100
AcDbLine
 10
789.5004606473005
 20
1115.000000000001
 30
0.0
 11
789.5004606473008
 21
1367.0
 31
0.0
  0
LINE
  5
38C
330
1F
100
AcDbEntity
  8
寸法
  6
CONTINUOUS
 62
     7
100
AcDbLine
 10
537.5004606473001
 20
1380.0
 30
0.0
 11
776.5004606473008
 21
1380.0
 31
0.0
  0
DIMENSION
  5
38D
330
1F
100
AcDbEntity
  8
寸法
  6
CONTINUOUS
 62
     3
100
AcDbDimension
  2
*D17
 10
949.9999999999997
 20
579.9999999999999
 30
0.0
 11
926.5000000596048
 21
1012.5
 31
0.0
 70
   160
  1
865
  3
ISO-25
100
AcDbAlignedDimension
 13
804.5004606472999
 23
1445.0
 33
0.0
 14
819.5004606472999
 24
580.0
 34
0.0
 50
90.0
100
AcDbRotatedDimension
1001
ACAD
1000
DSTYLE
1002
{
1070
   270
1070
     2
1070
     6
1000
EX_NORM
1070
     7
1000
EX_NORM
1070
    41
1040
30.0
1070
    42
1040
5.0
1070
    44
1040
9.999999999999545
1070
    73
1070
     0
1070
    74
1070
     0
1070
    75
1070
     0
1070
    76
1070
     0
1070
    77
1070
     1
1070
    78
1070
     8
1070
   140
1040
40.0
1070
   147
1040
0.0
1070
   173
1070
     1
1070
   176
1070
     3
1070
   177
1070
     3
1070
   178
1070
     2
1070
   271
1070
     2
1070
   277
1070
     2
1070
   279
1070
     2
1070
   280
1070
     0
1070
   287
1070
     5
1070
   340
1005
2CA
1002
}
  0
ARC
  5
39A
330
1F
100
AcDbEntity
  8
寸法
  6
CONTINUOUS
 62
     7
100
AcDbCircle
 10
635.999959983
 20
2237.5
 30
0.0
 40
3.000000000000002
100
AcDbArc
 50
180.0000000000002
 51
270.0000000000002
  0
ARC
  5
39B
330
1F
100
AcDbEntity
  8
寸法
  6
CONTINUOUS
 62
     7
100
AcDbCircle
 10
656.999959983
 20
2292.0
 30
0.0
 40
47.00000000000004
100
AcDbArc
 50
135.1424307998003
 51
208.854507307823
  0
LINE
  5
39C
330
1F
100
AcDbEntity
  8
寸法
  6
CONTINUOUS
 62
     7
100
AcDbLine
 10
632.999959983
 20
2251.5
 30
0.0
 11
632.999959983
 21
2237.5
 31
0.0
  0
ARC
  5
39D
330
1F
100
AcDbEntity
  8
寸法
  6
CONTINUOUS
 62
     7
100
AcDbCircle
 10
629.999959983
 20
2251.5
 30
0.0
 40
3.000000000000002
100
AcDbArc
 50
0.0000000000001719
 51
90.00000000000009
  0
LINE
  5
39E
330
1F
100
AcDbEntity
  8
寸法
  6
CONTINUOUS
 62
     7
100
AcDbLine
 10
629.999959983
 20
2254.5
 30
0.0
 11
625.7722294853313
 21
2254.5
 31
0.0
  0
ARC
  5
39F
330
1F
100
AcDbEntity
  8
寸法
  6
CONTINUOUS
 62
     7
100
AcDbCircle
 10
625.7722294853313
 20
2257.5
 30
0.0
 40
3.000000000000002
100
AcDbArc
 50
208.8545073078203
 51
270.0000000000002
  0
LINE
  5
3A0
330
1F
100
AcDbEntity
  8
寸法
  6
CONTINUOUS
 62
     7
100
AcDbLine
 10
615.8351051161928
 20
2269.318405616123
 30
0.0
 11
623.1446855576626
 21
2256.052238656348
 31
0.0
  0
ARC
  5
3A1
330
1F
100
AcDbEntity
  8
寸法
  6
CONTINUOUS
 62
     7
100
AcDbCircle
 10
2493.848739732185
 20
2420.966119925612
 30
0.0
 40
2000.000000000001
100
AcDbArc
 50
178.5378283270346
 51
184.3082020652648
  0
ARC
  5
3A2
330
1F
100
AcDbEntity
  8
寸法
  6
CONTINUOUS
 62
     7
100
AcDbCircle
 10
624.0297026978196
 20
2142.0
 30
0.0
 40
20.0
100
AcDbArc
 50
246.3622267706503
 51
270.0000000000002
  0
ARC
  5
3A3
330
1F
100
AcDbEntity
  8
寸法
  6
CONTINUOUS
 62
     7
100
AcDbCircle
 10
696.2012559136035
 20
2306.897746820329
 30
0.0
 40
200.0000000000001
100
AcDbArc
 50
190.4206076433921
 51
246.3622267706503
  0
ARC
  5
3A4
330
1F
100
AcDbEntity
  8
寸法
  6
CONTINUOUS
 62
     7
100
AcDbCircle
 10
505.9121184129725
 20
2301.179100647663
 30
0.0
 40
34.39757953167553
100
AcDbArc
 50
281.7930733659898
 51
342.4245450736163
  0
ARC
  5
3A5
330
1F
100
AcDbEntity
  8
寸法
  6
CONTINUOUS
 62
     7
100
AcDbCircle
 10
513.6848224251628
 20
2282.489188289647
 30
0.0
 40
15.00000000000001
100
AcDbArc
 50
184.0002989334021
 51
267.1622963713024
  0
ARC
  5
3A6
330
1F
100
AcDbEntity
  8
寸法
  6
CONTINUOUS
 62
     7
100
AcDbCircle
 10
567.3036262265275
 20
2281.733509427243
 30
0.0
 40
30.00000000000002
100
AcDbArc
 50
109.3185812124167
 51
188.3764201104003
  0
ARC
  5
3A7
330
1F
100
AcDbEntity
  8
寸法
  6
CONTINUOUS
 62
     7
100
AcDbCircle
 10
681.2626230007579
 20
2267.897137313216
 30
0.0
 40
144.7958977449409
100
AcDbArc
 50
173.0772972963553
 51
245.6324720423091
  0
LINE
  5
3A8
330
1F
100
AcDbEntity
  8
寸法
  6
CONTINUOUS
 62
     7
100
AcDbLine
 10
494.4999599829958
 20
2472.0
 30
0.0
 11
656.9999599830003
 21
2472.0
 31
0.0
  0
LINE
  5
3A9
330
1F
100
AcDbEntity
  8
寸法
  6
CONTINUOUS
 62
     7
100
AcDbLine
 10
656.9999599830003
 20
2122.0
 30
0.0
 11
624.0297026978196
 21
2122.0
 31
0.0
  0
LINE
  5
3AA
330
1F
100
AcDbEntity
  8
寸法
  6
CONTINUOUS
 62
     7
100
AcDbLine
 10
656.9999599830003
 20
2136.000000000001
 30
0.0
 11
621.5215385417155
 21
2136.000000000001
 31
0.0
  0
LINE
  5
3AB
330
1F
100
AcDbEntity
  8
寸法
  6
CONTINUOUS
 62
     7
100
AcDbLine
 10
656.9999599830003
 20
2234.5
 30
0.0
 11
635.999959983
 21
2234.5
 31
0.0
  0
ARC
  5
3AC
330
1F
100
AcDbEntity
  8
寸法
  6
CONTINUOUS
 62
     7
100
AcDbCircle
 10
656.9999599830003
 20
2025.86702466726
 30
0.0
 40
301.1329753327383
100
AcDbArc
 50
90.00000000000001
 51
109.3185812124167
  0
ARC
  5
3AD
330
1F
100
AcDbEntity
  8
寸法
  6
CONTINUOUS
 62
     7
100
AcDbCircle
 10
656.9999599830003
 20
2025.86702466726
 30
0.0
 40
301.1329753327383
100
AcDbArc
 50
70.68141878758328
 51
89.99999999999996
  0
LINE
  5
3AE
330
1F
100
AcDbEntity
  8
寸法
  6
CONTINUOUS
 62
     7
100
AcDbLine
 10
656.9999599830003
 20
2234.5
 30
0.0
 11
677.9999599830005
 21
2234.5
 31
0.0
  0
LINE
  5
3AF
330
1F
100
AcDbEntity
  8
寸法
  6
CONTINUOUS
 62
     7
100
AcDbLine
 10
656.9999599830003
 20
2136.000000000001
 30
0.0
 11
692.4783814242851
 21
2136.000000000001
 31
0.0
  0
LINE
  5
3B0
330
1F
100
AcDbEntity
  8
寸法
  6
CONTINUOUS
 62
     7
100
AcDbLine
 10
656.9999599830003
 20
2122.0
 30
0.0
 11
689.9702172681809
 21
2122.0
 31
0.0
  0
LINE
  5
3B1
330
1F
100
AcDbEntity
  8
寸法
  6
CONTINUOUS
 62
     7
100
AcDbLine
 10
819.4999599830048
 20
2472.0
 30
0.0
 11
656.9999599830003
 21
2472.0
 31
0.0
  0
ARC
  5
3B2
330
1F
100
AcDbEntity
  8
寸法
  6
CONTINUOUS
 62
     7
100
AcDbCircle
 10
632.7372969652426
 20
2267.897137313216
 30
0.0
 40
144.7958977449409
100
AcDbArc
 50
294.3675279576909
 51
6.922702703644742
  0
ARC
  5
3B3
330
1F
100
AcDbEntity
  8
寸法
  6
CONTINUOUS
 62
     7
100
AcDbCircle
 10
746.696293739473
 20
2281.733509427243
 30
0.0
 40
30.00000000000002
100
AcDbArc
 50
351.6235798895997
 51
70.68141878758328
  0
ARC
  5
3B4
330
1F
100
AcDbEntity
  8
寸法
  6
CONTINUOUS
 62
     7
100
AcDbCircle
 10
800.3150975408378
 20
2282.489188289647
 30
0.0
 40
15.00000000000001
100
AcDbArc
 50
272.8377036286979
 51
355.999701066598
  0
ARC
  5
3B5
330
1F
100
AcDbEntity
  8
寸法
  6
CONTINUOUS
 62
     7
100
AcDbCircle
 10
808.0878015530282
 20
2301.179100647663
 30
0.0
 40
34.39757953167553
100
AcDbArc
 50
197.5754549263836
 51
258.2069266340104
  0
ARC
  5
3B6
330
1F
100
AcDbEntity
  8
寸法
  6
CONTINUOUS
 62
     7
100
AcDbCircle
 10
617.798664052397
 20
2306.897746820329
 30
0.0
 40
200.0000000000001
100
AcDbArc
 50
293.63777322935
 51
349.5793923566081
  0
ARC
  5
3B7
330
1F
100
AcDbEntity
  8
寸法
  6
CONTINUOUS
 62
     7
100
AcDbCircle
 10
689.9702172681809
 20
2142.0
 30
0.0
 40
20.0
100
AcDbArc
 50
270.0000000000002
 51
293.63777322935
  0
ARC
  5
3B8
330
1F
100
AcDbEntity
  8
寸法
  6
CONTINUOUS
 62
     7
100
AcDbCircle
 10
-1179.848819766184
 20
2420.966119925612
 30
0.0
 40
2000.000000000001
100
AcDbArc
 50
355.6917979347356
 51
1.462171672965401
  0
LINE
  5
3B9
330
1F
100
AcDbEntity
  8
寸法
  6
CONTINUOUS
 62
     7
100
AcDbLine
 10
698.1648148498077
 20
2269.318405616123
 30
0.0
 11
690.855234408338
 21
2256.052238656348
 31
0.0
  0
ARC
  5
3BA
330
1F
100
AcDbEntity
  8
寸法
  6
CONTINUOUS
 62
     7
100
AcDbCircle
 10
688.2276904806693
 20
2257.5
 30
0.0
 40
3.000000000000002
100
AcDbArc
 50
270.0000000000002
 51
331.14549269218
  0
LINE
  5
3BB
330
1F
100
AcDbEntity
  8
寸法
  6
CONTINUOUS
 62
     7
100
AcDbLine
 10
683.9999599830005
 20
2254.5
 30
0.0
 11
688.2276904806693
 21
2254.5
 31
0.0
  0
ARC
  5
3BC
330
1F
100
AcDbEntity
  8
寸法
  6
CONTINUOUS
 62
     7
100
AcDbCircle
 10
683.9999599830005
 20
2251.5
 30
0.0
 40
3.000000000000002
100
AcDbArc
 50
90.00000000000001
 51
180.0
  0
LINE
  5
3BD
330
1F
100
AcDbEntity
  8
寸法
  6
CONTINUOUS
 62
     7
100
AcDbLine
 10
680.9999599830005
 20
2251.5
 30
0.0
 11
680.9999599830005
 21
2237.5
 31
0.0
  0
ARC
  5
3BE
330
1F
100
AcDbEntity
  8
寸法
  6
CONTINUOUS
 62
     7
100
AcDbCircle
 10
656.9999599830005
 20
2292.0
 30
0.0
 40
47.00000000000004
100
AcDbArc
 50
331.1454926921771
 51
44.85756920019975
  0
ARC
  5
3BF
330
1F
100
AcDbEntity
  8
寸法
  6
CONTINUOUS
 62
     7
100
AcDbCircle
 10
677.9999599830005
 20
2237.5
 30
0.0
 40
3.000000000000002
100
AcDbArc
 50
270.0000000000002
 51
0.0
  0
DIMENSION
  5
3C0
330
1F
100
AcDbEntity
  8
寸法
  6
CONTINUOUS
 62
     3
100
AcDbDimension
  2
*D18
 10
960.0
 20
2122.0
 30
0.0
 11
936.5000000596048
 21
2297.0
 31
0.0
 70
   160
  3
ISO-25
100
AcDbAlignedDimension
 13
656.999959983
 23
2472.0
 33
0.0
 14
656.999959983
 24
2122.0
 34
0.0
 50
90.0
100
AcDbRotatedDimension
1001
ACAD
1000
DSTYLE
1002
{
1070
   270
1070
     2
1070
     6
1000
EX_NORM
1070
     7
1000
EX_NORM
1070
    41
1040
30.0
1070
    42
1040
6.99999988079071
1070
    44
1040
10.0
1070
    73
1070
     0
1070
    74
1070
     0
1070
    75
1070
     0
1070
    76
1070
     0
1070
    77
1070
     1
1070
    78
1070
     8
1070
   140
1040
40.0
1070
   147
1040
0.0
1070
   173
1070
     1
1070
   176
1070
     3
1070
   177
1070
     3
1070
   178
1070
     2
1070
   271
1070
     1
1070
   277
1070
     2
1070
   279
1070
     2
1070
   280
1070
     0
1070
   287
1070
     5
1070
   340
1005
2D9
1002
}
  0
LINE
  5
3CD
330
1F
100
AcDbEntity
  8
寸法
  6
CONTINUOUS
 62
     2
100
AcDbLine
 10
616.1315640098557
 20
2277.111250581209
 30
0.0
 11
623.2845399158956
 21
2257.475630446981
 31
0.0
  0
ARC
  5
3CE
330
1F
100
AcDbEntity
  8
寸法
  6
CONTINUOUS
 62
     2
100
AcDbCircle
 10
626.1030499830093
 20
2258.502373400001
 30
0.0
 40
2.999700000000005
100
AcDbArc
 50
200.015959602882
 51
270.0
  0
LINE
  5
3CF
330
1F
100
AcDbEntity
  8
寸法
  6
CONTINUOUS
 62
     2
100
AcDbLine
 10
697.868355956164
 20
2277.111250581209
 30
0.0
 11
690.7153800501236
 21
2257.475630446981
 31
0.0
  0
ARC
  5
3D0
330
1F
100
AcDbEntity
  8
寸法
  6
CONTINUOUS
 62
     2
100
AcDbCircle
 10
687.8968699830103
 20
2258.502373400001
 30
0.0
 40
2.999700000000005
100
AcDbArc
 50
270.0
 51
339.9840403971182
  0
LINE
  5
3D1
330
1F
100
AcDbEntity
  8
寸法
  6
CONTINUOUS
 62
     2
100
AcDbLine
 10
626.1030499830093
 20
2255.502673400001
 30
0.0
 11
687.8968699830103
 21
2255.502673400001
 31
0.0
  0
DIMENSION
  5
3D2
330
1F
100
AcDbEntity
  8
寸法
  6
CONTINUOUS
 62
     3
100
AcDbDimension
  2
*D19
 10
1783.8103943
 20
437.0
 30
0.0
 11
1693.8103943
 21
460.4999999403954
 31
0.0
 70
   160
  3
ISO-25
100
AcDbAlignedDimension
 13
1603.8103943
 23
510.0
 33
0.0
 14
1783.8103943
 24
580.0
 34
0.0
100
AcDbRotatedDimension
1001
ACAD
1000
DSTYLE
1002
{
1070
   270
1070
     2
1070
     6
1000
EX_NORM
1070
     7
1000
EX_NORM
1070
    41
1040
30.0
1070
    42
1040
6.99999988079071
1070
    44
1040
10.0
1070
    73
1070
     0
1070
    74
1070
     0
1070
    75
1070
     0
1070
    76
1070
     0
1070
    77
1070
     1
1070
    78
1070
     8
1070
   140
1040
40.0
1070
   147
1040
0.0
1070
   173
1070
     1
1070
   176
1070
     3
1070
   177
1070
     3
1070
   178
1070
     2
1070
   271
1070
     1
1070
   277
1070
     2
1070
   279
1070
     2
1070
   280
1070
     0
1070
   287
1070
     5
1070
   340
1005
2D9
1002
}
  0
ARC
  5
3DF
330
1F
100
AcDbEntity
  8
寸法
  6
CONTINUOUS
 62
     2
100
AcDbCircle
 10
656.9999599830097
 20
2291.999023400001
 30
0.0
 40
43.49565
100
AcDbArc
 50
129.11343684421
 51
200.0159596028828
  0
ARC
  5
3E0
330
1F
100
AcDbEntity
  8
寸法
  6
CONTINUOUS
 62
     2
100
AcDbCircle
 10
656.9999599830097
 20
2291.999023400001
 30
0.0
 40
43.49565
100
AcDbArc
 50
339.9840403971173
 51
50.88656315578594
  0
LINE
  5
3E1
330
1F
100
AcDbEntity
  8
寸法
  6
CONTINUOUS
 62
     7
100
AcDbLine
 10
616.180081879384
 20
776.0084170647992
 30
0.0
 11
625.0004606473005
 21
580.0
 31
0.0
  0
LINE
  5
3E2
330
1F
100
AcDbEntity
  8
寸法
  6
CONTINUOUS
 62
     7
100
AcDbLine
 10
697.8208394152157
 20
776.0084170647992
 30
0.0
 11
689.0004606473
 21
580.0
 31
0.0
  0
LINE
  5
3E3
330
1F
100
AcDbEntity
  8
寸法
  6
CONTINUOUS
 62
     6
100
AcDbLine
 10
1664.7103943
 20
579.9999999999998
 30
0.0
 11
1664.7103943
 21
594.9999999999998
 31
0.0
  0
LINE
  5
3E4
330
1F
100
AcDbEntity
  8
寸法
  6
CONTINUOUS
 62
     7
100
AcDbLine
 10
1537.540326627
 20
598.0
 30
0.0
 11
1559.5037350243
 21
598.0
 31
0.0
  0
LINE
  5
3E5
330
1F
100
AcDbEntity
  8
寸法
  6
CONTINUOUS
 62
     7
100
AcDbLine
 10
1648.1170535757
 20
598.0
 30
0.0
 11
1670.080461973
 21
598.0
 31
0.0
  0
LINE
  5
3E6
330
1F
100
AcDbEntity
  8
寸法
  6
CONTINUOUS
 62
     6
100
AcDbLine
 10
1540.7103943
 20
579.9999999999998
 30
0.0
 11
1540.7103943
 21
594.9999999999998
 31
0.0
  0
LINE
  5
3E7
330
1F
100
AcDbEntity
  8
寸法
  6
CONTINUOUS
 62
     6
100
AcDbLine
 10
1628.2103943
 20
579.9999999999995
 30
0.0
 11
1664.7103943
 21
579.9999999999995
 31
0.0
  0
LINE
  5
3E8
330
1F
100
AcDbEntity
  8
寸法
  6
CONTINUOUS
 62
     6
100
AcDbLine
 10
1540.7103943
 20
579.9999999999995
 30
0.0
 11
1628.2103943
 21
579.9999999999995
 31
0.0
  0
LINE
  5
3E9
330
1F
100
AcDbEntity
  8
寸法
  6
CONTINUOUS
 62
     6
100
AcDbLine
 10
681.2504606473001
 20
532.8999999999996
 30
0.0
 11
632.7504606473001
 21
532.8999999999996
 31
0.0
  0
LINE
  5
3EA
330
1F
100
AcDbEntity
  8
寸法
  6
CONTINUOUS
 62
     6
100
AcDbLine
 10
634.2504606473001
 20
527.5999999999997
 30
0.0
 11
679.7504606473001
 21
527.5999999999997
 31
0.0
  0
LINE
  5
3EB
330
1F
100
AcDbEntity
  8
寸法
  6
CONTINUOUS
 62
     6
100
AcDbLine
 10
634.2504606473001
 20
527.5999999999999
 30
0.0
 11
632.7504606473001
 21
532.8999999999999
 31
0.0
  0
LINE
  5
3EC
330
1F
100
AcDbEntity
  8
寸法
  6
CONTINUOUS
 62
     6
100
AcDbLine
 10
679.7504606472996
 20
527.5999999999999
 30
0.0
 11
681.2504606473001
 21
532.8999999999999
 31
0.0
  0
LINE
  5
3ED
330
1F
100
AcDbEntity
  8
寸法
  6
CONTINUOUS
 62
     6
100
AcDbLine
 10
631.5004606473001
 20
579.8999999999996
 30
0.0
 11
632.7504606473001
 21
532.8999999999999
 31
0.0
  0
LINE
  5
3EE
330
1F
100
AcDbEntity
  8
寸法
  6
CONTINUOUS
 62
     6
100
AcDbLine
 10
682.5004606473003
 20
579.8999999999996
 30
0.0
 11
681.2504606473003
 21
532.8999999999999
 31
0.0
  0
ARC
  5
3EF
330
1F
100
AcDbEntity
  8
寸法
  6
EXLTYPE4
 62
     6
100
AcDbCircle
 10
1616.92499999998
 20
528.5712186320101
 30
0.0
 40
22.73506200000002
100
AcDbArc
 50
231.267478
 51
308.7325220000001
  0
ARC
  5
3F0
330
1F
100
AcDbEntity
  8
寸法
  6
EXLTYPE4
 62
     6
100
AcDbCircle
 10
1588.474999999981
 20
493.1010946320101
 30
0.0
 40
22.73506200000002
100
AcDbArc
 50
51.26747800000003
 51
128.732522
  0
LINE
  5
3F1
330
1F
100
AcDbEntity
  8
寸法
  6
EXLTYPE4
 62
     6
100
AcDbLine
 10
1577.24999999998
 20
580.0
 30
0.0
 11
1577.24999999998
 21
512.8718411819975
 31
0.0
  0
LINE
  5
3F2
330
1F
100
AcDbEntity
  8
寸法
  6
EXLTYPE4
 62
     6
100
AcDbLine
 10
1574.24999999998
 20
510.83615684992
 30
0.0
 11
1574.24999999998
 21
580.0
 31
0.0
  0
LINE
  5
3F3
330
1F
100
AcDbEntity
  8
寸法
  6
EXLTYPE4
 62
     6
100
AcDbLine
 10
1628.149999999981
 20
580.0
 30
0.0
 11
1628.149999999981
 21
508.8004720820226
 31
0.0
  0
LINE
  5
3F4
330
1F
100
AcDbEntity
  8
寸法
  6
EXLTYPE4
 62
     6
100
AcDbLine
 10
1631.149999999981
 20
510.8361564141001
 30
0.0
 11
1631.149999999981
 21
580.0
 31
0.0
  0
LINE
  5
3F5
330
1F
100
AcDbEntity
  8
寸法
  6
CONTINUOUS
 62
     6
100
AcDbLine
 10
1662.8103943
 20
580.0
 30
0.0
 11
1662.8103943
 21
584.0
 31
0.0
  0
LINE
  5
3F6
330
1F
100
AcDbEntity
  8
寸法
  6
CONTINUOUS
 62
     6
100
AcDbLine
 10
1552.810394300002
 20
580.0
 30
0.0
 11
1552.810394300002
 21
583.9999999999998
 31
0.0
  0
LINE
  5
3F7
330
1F
100
AcDbEntity
  8
寸法
  6
CONTINUOUS
 62
     6
100
AcDbLine
 10
1544.810394299999
 20
583.9999999999998
 30
0.0
 11
1552.8103943
 21
583.9999999999998
 31
0.0
  0
LINE
  5
3F8
330
1F
100
AcDbEntity
  8
寸法
  6
CONTINUOUS
 62
     6
100
AcDbLine
 10
1544.810394299999
 20
580.0
 30
0.0
 11
1544.810394299999
 21
583.9999999999998
 31
0.0
  0
LINE
  5
3F9
330
1F
100
AcDbEntity
  8
寸法
  6
CONTINUOUS
 62
     6
100
AcDbLine
 10
1544.810394299999
 20
589.9999999999992
 30
0.0
 11
1544.810394299999
 21
594.9999999999994
 31
0.0
  0
LINE
  5
3FA
330
1F
100
AcDbEntity
  8
寸法
  6
CONTINUOUS
 62
     6
100
AcDbLine
 10
1662.810394300002
 20
590.0000000000002
 30
0.0
 11
1652.560394300002
 21
590.0
 31
0.0
  0
LINE
  5
3FB
330
1F
100
AcDbEntity
  8
寸法
  6
CONTINUOUS
 62
     6
100
AcDbLine
 10
1662.810394300002
 20
590.0000000000002
 30
0.0
 11
1662.810394300002
 21
595.0000000000005
 31
0.0
  0
LINE
  5
3FC
330
1F
100
AcDbEntity
  8
寸法
  6
CONTINUOUS
 62
     6
100
AcDbLine
 10
1580.310394300001
 20
527.6999999999998
 30
0.0
 11
1578.810394300001
 21
532.9999999999998
 31
0.0
  0
LINE
  5
3FD
330
1F
100
AcDbEntity
  8
寸法
  6
CONTINUOUS
 62
     6
100
AcDbLine
 10
1627.310394300001
 20
532.9999999999995
 30
0.0
 11
1578.810394300001
 21
532.9999999999995
 31
0.0
  0
LINE
  5
3FE
330
1F
100
AcDbEntity
  8
寸法
  6
CONTINUOUS
 62
     6
100
AcDbLine
 10
1625.8103943
 20
527.6999999999998
 30
0.0
 11
1627.310394300001
 21
532.9999999999998
 31
0.0
  0
LINE
  5
3FF
330
1F
100
AcDbEntity
  8
寸法
  6
CONTINUOUS
 62
     6
100
AcDbLine
 10
1625.110394299999
 20
579.9999999999995
 30
0.0
 11
1625.110394299999
 21
527.7
 31
0.0
  0
LINE
  5
400
330
1F
100
AcDbEntity
  8
寸法
  6
CONTINUOUS
 62
     6
100
AcDbLine
 10
1581.110394299999
 20
527.6999999999997
 30
0.0
 11
1581.110394299999
 21
579.9999999999995
 31
0.0
  0
LINE
  5
401
330
1F
100
AcDbEntity
  8
寸法
  6
CONTINUOUS
 62
     6
100
AcDbLine
 10
1580.3103943
 20
527.6999999999997
 30
0.0
 11
1625.8103943
 21
527.6999999999997
 31
0.0
  0
LINE
  5
402
330
1F
100
AcDbEntity
  8
寸法
  6
CONTINUOUS
 62
     6
100
AcDbLine
 10
1555.060394299999
 20
590.0
 30
0.0
 11
1555.060394299999
 21
593.0
 31
0.0
  0
LINE
  5
403
330
1F
100
AcDbEntity
  8
寸法
  6
CONTINUOUS
 62
     6
100
AcDbLine
 10
1652.560394300002
 20
590.0000000000008
 30
0.0
 11
1652.560394300002
 21
593.0
 31
0.0
  0
LINE
  5
404
330
1F
100
AcDbEntity
  8
寸法
  6
CONTINUOUS
 62
     6
100
AcDbLine
 10
1544.810394299999
 20
589.9999999999992
 30
0.0
 11
1555.060394299999
 21
589.9999999999992
 31
0.0
  0
LINE
  5
405
330
1F
100
AcDbEntity
  8
寸法
  6
CONTINUOUS
 62
     6
100
AcDbLine
 10
1557.060394299993
 20
589.9999999999992
 30
0.0
 11
1557.060394299993
 21
592.9999999999993
 31
0.0
  0
LINE
  5
406
330
1F
100
AcDbEntity
  8
寸法
  6
CONTINUOUS
 62
     6
100
AcDbLine
 10
1577.541747749137
 20
580.7011103124771
 30
0.0
 11
1578.810394300001
 21
533.0
 31
0.0
  0
LINE
  5
407
330
1F
100
AcDbEntity
  8
寸法
  6
CONTINUOUS
 62
     6
100
AcDbLine
 10
1554.8103943
 20
584.0
 30
0.0
 11
1577.54072480823
 21
580.6940769412685
 31
0.0
  0
LINE
  5
408
330
1F
100
AcDbEntity
  8
寸法
  6
CONTINUOUS
 62
     6
100
AcDbLine
 10
1554.810394300004
 20
580.0
 30
0.0
 11
1554.810394300004
 21
584.0
 31
0.0
  0
LINE
  5
409
330
1F
100
AcDbEntity
  8
寸法
  6
CONTINUOUS
 62
     6
100
AcDbLine
 10
1652.810394299996
 20
580.0
 30
0.0
 11
1652.810394299996
 21
584.0
 31
0.0
  0
LINE
  5
40A
330
1F
100
AcDbEntity
  8
寸法
  6
CONTINUOUS
 62
     6
100
AcDbLine
 10
1651.3015772
 20
584.0
 30
0.0
 11
1628.57124669177
 21
580.6940769412685
 31
0.0
  0
LINE
  5
40B
330
1F
100
AcDbEntity
  8
寸法
  6
CONTINUOUS
 62
     6
100
AcDbLine
 10
1651.3015772
 20
580.0
 30
0.0
 11
1651.3015772
 21
584.0
 31
0.0
  0
LINE
  5
40C
330
1F
100
AcDbEntity
  8
寸法
  6
CONTINUOUS
 62
     6
100
AcDbLine
 10
1662.8103943
 20
583.9999999999998
 30
0.0
 11
1652.8103943
 21
583.9999999999998
 31
0.0
  0
LINE
  5
40D
330
1F
100
AcDbEntity
  8
寸法
  6
CONTINUOUS
 62
     6
100
AcDbLine
 10
1628.578883332508
 20
580.6951876222901
 30
0.0
 11
1627.310394300001
 21
532.9999999999998
 31
0.0
  0
LINE
  5
40E
330
1F
100
AcDbEntity
  8
寸法
  6
CONTINUOUS
 62
     6
100
AcDbLine
 10
1650.560394300007
 20
589.9999999999992
 30
0.0
 11
1650.560394300007
 21
592.9999999999993
 31
0.0
  0
LINE
  5
40F
330
1F
100
AcDbEntity
  8
寸法
  6
CONTINUOUS
 62
     6
100
AcDbLine
 10
1544.8103943
 20
594.9999999999994
 30
0.0
 11
1544.8103943
 21
598.0
 31
0.0
  0
LINE
  5
410
330
1F
100
AcDbEntity
  8
寸法
  6
CONTINUOUS
 62
     6
100
AcDbLine
 10
1544.8103943
 20
594.9999999999994
 30
0.0
 11
1540.7103943
 21
594.9999999999994
 31
0.0
  0
LINE
  5
411
330
1F
100
AcDbEntity
  8
寸法
  6
CONTINUOUS
 62
     6
100
AcDbLine
 10
1555.0603943
 20
592.9999999999994
 30
0.0
 11
1555.0603943
 21
598.0
 31
0.0
  0
LINE
  5
412
330
1F
100
AcDbEntity
  8
寸法
  6
CONTINUOUS
 62
     6
100
AcDbLine
 10
1662.8103943
 20
594.9999999999994
 30
0.0
 11
1662.8103943
 21
598.0
 31
0.0
  0
LINE
  5
413
330
1F
100
AcDbEntity
  8
寸法
  6
CONTINUOUS
 62
     6
100
AcDbLine
 10
1664.7103943
 20
594.9999999999994
 30
0.0
 11
1662.8103943
 21
594.9999999999994
 31
0.0
  0
LINE
  5
414
330
1F
100
AcDbEntity
  8
寸法
  6
CONTINUOUS
 62
     6
100
AcDbLine
 10
1652.5603943
 20
592.9999999999994
 30
0.0
 11
1652.5603943
 21
598.0
 31
0.0
  0
LINE
  5
415
330
1F
100
AcDbEntity
  8
寸法
  6
CONTINUOUS
 62
     6
100
AcDbLine
 10
1652.5603943
 20
594.9999999999994
 30
0.0
 11
1648.1
 21
594.9999999999994
 31
0.0
  0
LINE
  5
416
330
1F
100
AcDbEntity
  8
寸法
  6
CONTINUOUS
 62
     6
100
AcDbLine
 10
1565.981967175255
 20
594.9999999999947
 30
0.0
 11
1555.0603943
 21
594.9999999999994
 31
0.0
  0
LINE
  5
417
330
1F
100
AcDbEntity
  8
寸法
  6
CONTINUOUS
 62
     6
100
AcDbLine
 10
1555.060394299999
 20
592.9999999999992
 30
0.0
 11
1568.8103943
 21
592.9999999999992
 31
0.0
  0
ARC
  5
418
330
1F
100
AcDbEntity
  8
寸法
  6
CONTINUOUS
 62
     7
100
AcDbCircle
 10
1559.503735024326
 20
601.0000000000007
 30
0.0
 40
3.000000000000002
100
AcDbArc
 50
270.0
 51
356.1859251657098
  0
LINE
  5
419
330
1F
100
AcDbEntity
  8
寸法
  6
CONTINUOUS
 62
     7
100
AcDbLine
 10
1563.310394300001
 20
613.0
 30
0.0
 11
1566.3103943
 21
657.9999999999995
 31
0.0
  0
LINE
  5
41A
330
1F
100
AcDbEntity
  8
寸法
  6
CONTINUOUS
 62
     7
100
AcDbLine
 10
1563.197491074195
 20
611.3064516129025
 30
0.0
 11
1562.643727633335
 21
602.9999999999993
 31
0.0
  0
LINE
  5
41B
330
1F
100
AcDbEntity
  8
寸法
  6
CONTINUOUS
 62
     6
100
AcDbLine
 10
1590.8103943
 20
613.0
 30
0.0
 11
1603.8103943
 21
613.0
 31
0.0
  0
LINE
  5
41C
330
1F
100
AcDbEntity
  8
寸法
  6
CONTINUOUS
 62
     6
100
AcDbLine
 10
1559.8103943
 20
613.0
 30
0.0
 11
1565.8103943
 21
610.0
 31
0.0
  0
LINE
  5
41D
330
1F
100
AcDbEntity
  8
寸法
  6
CONTINUOUS
 62
     6
100
AcDbLine
 10
1559.8103943
 20
613.0
 30
0.0
 11
1570.8103943
 21
613.0
 31
0.0
  0
LINE
  5
41E
330
1F
100
AcDbEntity
  8
寸法
  6
CONTINUOUS
 62
     6
100
AcDbLine
 10
1559.8103943
 20
603.0
 30
0.0
 11
1565.8103943
 21
600.0
 31
0.0
  0
LINE
  5
41F
330
1F
100
AcDbEntity
  8
寸法
  6
CONTINUOUS
 62
     6
100
AcDbLine
 10
1559.8103943
 20
603.0000000000001
 30
0.0
 11
1565.810394299999
 21
603.0000000000001
 31
0.0
  0
ARC
  5
420
330
1F
100
AcDbEntity
  8
寸法
  6
CONTINUOUS
 62
     6
100
AcDbCircle
 10
1568.810394299999
 20
596.0000000000001
 30
0.0
 40
3.0
100
AcDbArc
 50
180.0
 51
270.0
  0
LINE
  5
421
330
1F
100
AcDbEntity
  8
寸法
  6
CONTINUOUS
 62
     6
100
AcDbLine
 10
1565.810394299999
 20
610.0000000000003
 30
0.0
 11
1565.810394299999
 21
603.0000000000001
 31
0.0
  0
LINE
  5
422
330
1F
100
AcDbEntity
  8
寸法
  6
CONTINUOUS
 62
     6
100
AcDbLine
 10
1565.810394299999
 20
600.0000000000003
 30
0.0
 11
1565.810394299999
 21
596.0
 31
0.0
  0
ARC
  5
423
330
1F
100
AcDbEntity
  8
寸法
  6
CONTINUOUS
 62
     6
100
AcDbCircle
 10
1572.8103943
 20
598.0000000000001
 30
0.0
 40
2.0
100
AcDbArc
 50
180.0
 51
270.0
  0
LINE
  5
424
330
1F
100
AcDbEntity
  8
寸法
  6
CONTINUOUS
 62
     6
100
AcDbLine
 10
1572.8103943
 20
596.0000000000001
 30
0.0
 11
1588.8103943
 21
596.0000000000001
 31
0.0
  0
LINE
  5
425
330
1F
100
AcDbEntity
  8
寸法
  6
CONTINUOUS
 62
     6
100
AcDbLine
 10
1570.8103943
 20
598.0000000000001
 30
0.0
 11
1570.8103943
 21
613.0
 31
0.0
  0
LINE
  5
426
330
1F
100
AcDbEntity
  8
寸法
  6
CONTINUOUS
 62
     6
100
AcDbLine
 10
1568.8103943
 20
593.0000000000001
 30
0.0
 11
1590.8103943
 21
593.0000000000001
 31
0.0
  0
LINE
  5
427
330
1F
100
AcDbEntity
  8
寸法
  6
CONTINUOUS
 62
     6
100
AcDbLine
 10
1616.810394300001
 20
613.0000000000002
 30
0.0
 11
1603.810394300001
 21
613.0
 31
0.0
  0
LINE
  5
428
330
1F
100
AcDbEntity
  8
寸法
  6
CONTINUOUS
 62
     6
100
AcDbLine
 10
1652.5603943
 20
592.9999999999992
 30
0.0
 11
1638.8103943
 21
592.9999999999992
 31
0.0
  0
LINE
  5
429
330
1F
100
AcDbEntity
  8
寸法
  6
CONTINUOUS
 62
     6
100
AcDbLine
 10
1641.638821424744
 20
594.9999999999947
 30
0.0
 11
1652.560394299999
 21
594.9999999999994
 31
0.0
  0
LINE
  5
42A
330
1F
100
AcDbEntity
  8
寸法
  6
CONTINUOUS
 62
     6
100
AcDbLine
 10
1634.8103943
 20
596.0000000000001
 30
0.0
 11
1618.8103943
 21
596.0000000000001
 31
0.0
  0
LINE
  5
42B
330
1F
100
AcDbEntity
  8
寸法
  6
CONTINUOUS
 62
     6
100
AcDbLine
 10
1638.8103943
 20
593.0000000000001
 30
0.0
 11
1616.810394299999
 21
593.0000000000001
 31
0.0
  0
ARC
  5
42C
330
1F
100
AcDbEntity
  8
寸法
  6
CONTINUOUS
 62
     6
100
AcDbCircle
 10
1634.8103943
 20
598.0000000000001
 30
0.0
 40
2.0
100
AcDbArc
 50
270.0
 51
0.0
  0
ARC
  5
42D
330
1F
100
AcDbEntity
  8
寸法
  6
CONTINUOUS
 62
     7
100
AcDbCircle
 10
1648.117053575673
 20
601.0000000000007
 30
0.0
 40
3.000000000000002
100
AcDbArc
 50
183.8140748342902
 51
270.0
  0
ARC
  5
42E
330
1F
100
AcDbEntity
  8
寸法
  6
CONTINUOUS
 62
     6
100
AcDbCircle
 10
1638.8103943
 20
596.0000000000001
 30
0.0
 40
3.0
100
AcDbArc
 50
270.0
 51
0.0
  0
LINE
  5
42F
330
1F
100
AcDbEntity
  8
寸法
  6
CONTINUOUS
 62
     6
100
AcDbLine
 10
1641.8103943
 20
600.0000000000003
 30
0.0
 11
1641.8103943
 21
596.0
 31
0.0
  0
LINE
  5
430
330
1F
100
AcDbEntity
  8
寸法
  6
CONTINUOUS
 62
     6
100
AcDbLine
 10
1647.8103943
 20
603.0
 30
0.0
 11
1641.8103943
 21
600.0
 31
0.0
  0
LINE
  5
431
330
1F
100
AcDbEntity
  8
寸法
  6
CONTINUOUS
 62
     6
100
AcDbLine
 10
1647.8103943
 20
603.0000000000001
 30
0.0
 11
1641.8103943
 21
603.0000000000001
 31
0.0
  0
LINE
  5
432
330
1F
100
AcDbEntity
  8
寸法
  6
CONTINUOUS
 62
     6
100
AcDbLine
 10
1641.8103943
 20
610.0000000000003
 30
0.0
 11
1641.8103943
 21
603.0000000000001
 31
0.0
  0
LINE
  5
433
330
1F
100
AcDbEntity
  8
寸法
  6
CONTINUOUS
 62
     6
100
AcDbLine
 10
1647.8103943
 20
613.0
 30
0.0
 11
1641.8103943
 21
610.0
 31
0.0
  0
LINE
  5
434
330
1F
100
AcDbEntity
  8
寸法
  6
CONTINUOUS
 62
     6
100
AcDbLine
 10
1647.8103943
 20
613.0
 30
0.0
 11
1636.8103943
 21
613.0
 31
0.0
  0
LINE
  5
435
330
1F
100
AcDbEntity
  8
寸法
  6
CONTINUOUS
 62
     6
100
AcDbLine
 10
1636.8103943
 20
598.0000000000001
 30
0.0
 11
1636.8103943
 21
613.0
 31
0.0
  0
LINE
  5
436
330
1F
100
AcDbEntity
  8
寸法
  6
CONTINUOUS
 62
     7
100
AcDbLine
 10
1641.3103943
 20
657.9999999999995
 30
0.0
 11
1644.3103943
 21
613.0
 31
0.0
  0
LINE
  5
437
330
1F
100
AcDbEntity
  8
寸法
  6
CONTINUOUS
 62
     7
100
AcDbLine
 10
1644.423297525805
 20
611.3064516129025
 30
0.0
 11
1644.977060966665
 21
603.0000000000001
 31
0.0
  0
LINE
  5
438
330
1F
100
AcDbEntity
  8
寸法
  6
CONTINUOUS
 62
     7
100
AcDbLine
 10
1645.068458816127
 20
601.6290322580636
 30
0.0
 11
1645.127604944688
 21
600.7418403296458
 31
0.0
  0
LINE
  5
439
330
1F
100
AcDbEntity
  8
寸法
  6
CONTINUOUS
 62
     6
100
AcDbLine
 10
1622.4721478098
 20
596.13838533361
 30
0.0
 11
1630.4981918448
 21
596.13838533361
 31
0.0
  0
LINE
  5
43A
330
1F
100
AcDbEntity
  8
寸法
  6
CONTINUOUS
 62
     6
100
AcDbLine
 10
1625.66111280475
 20
656.0354956055876
 30
0.0
 11
1630.498191844751
 21
596.13838533361
 31
0.0
  0
LINE
  5
43B
330
1F
100
AcDbEntity
  8
寸法
  6
CONTINUOUS
 62
     6
100
AcDbLine
 10
1622.472147809804
 20
596.13838533361
 30
0.0
 11
1618.341549886293
 21
647.2872041285394
 31
0.0
  0
LINE
  5
43C
330
1F
100
AcDbEntity
  8
寸法
  6
CONTINUOUS
 62
     6
100
AcDbLine
 10
1572.5018081552
 20
596.13838533361
 30
0.0
 11
1580.527852190199
 21
596.13838533361
 31
0.0
  0
LINE
  5
43D
330
1F
100
AcDbEntity
  8
寸法
  6
CONTINUOUS
 62
     6
100
AcDbLine
 10
1580.527852190199
 20
596.13838533361
 30
0.0
 11
1584.530724900043
 21
645.7055944123595
 31
0.0
  0
LINE
  5
43E
330
1F
100
AcDbEntity
  8
寸法
  6
CONTINUOUS
 62
     6
100
AcDbLine
 10
1577.062786261781
 20
652.6165628319989
 30
0.0
 11
1572.501808155249
 21
596.13838533361
 31
0.0
  0
ARC
  5
43F
330
1F
100
AcDbEntity
  8
寸法
  6
CONTINUOUS
 62
     6
100
AcDbCircle
 10
1587.44823295384
 20
644.5631662930333
 30
0.0
 40
3.0
100
AcDbArc
 50
93.71998256905668
 51
175.3830145690611
  0
ARC
  5
440
330
1F
100
AcDbEntity
  8
寸法
  6
CONTINUOUS
 62
     6
100
AcDbCircle
 10
1615.404978207469
 20
646.380839145855
 30
0.0
 40
3.0
100
AcDbArc
 50
4.616985430937579
 51
93.71998256906116
  0
LINE
  5
441
330
1F
100
AcDbEntity
  8
寸法
  6
CONTINUOUS
 62
     6
100
AcDbLine
 10
1615.2103371905
 20
649.3745182994239
 30
0.0
 11
1587.144750300379
 21
647.5497688543124
 31
0.0
  0
LINE
  5
442
330
1F
100
AcDbEntity
  8
寸法
  6
CONTINUOUS
 62
     6
100
AcDbLine
 10
1638.061223850942
 20
658.8771130529309
 30
0.0
 11
1572.905458673634
 21
654.6408593512507
 31
0.0
  0
ARC
  5
443
330
1F
100
AcDbEntity
  8
寸法
  6
CONTINUOUS
 62
     6
100
AcDbCircle
 10
1627.654423572837
 20
656.1964683418806
 30
0.0
 40
1.9998
100
AcDbArc
 50
93.71998256905508
 51
184.6169854309404
  0
ARC
  5
444
330
1F
100
AcDbEntity
  8
寸法
  6
CONTINUOUS
 62
     6
100
AcDbCircle
 10
1575.069475493694
 20
652.7775355682921
 30
0.0
 40
1.9998
100
AcDbArc
 50
355.3830145690598
 51
93.71998256905508
  0
LINE
  5
445
330
1F
100
AcDbEntity
  8
寸法
  6
CONTINUOUS
 62
     6
100
AcDbLine
 10
1566.510928372968
 20
657.7321134260753
 30
0.0
 11
1571.218415493727
 21
655.0321480975348
 31
0.0
  0
ARC
  5
446
330
1F
100
AcDbEntity
  8
寸法
  6
CONTINUOUS
 62
     6
100
AcDbCircle
 10
1572.710837120761
 20
657.6342391369042
 30
0.0
 40
2.999700000000005
100
AcDbArc
 50
240.1637006561326
 51
273.7199825690573
  0
ARC
  5
447
330
1F
100
AcDbEntity
  8
寸法
  6
CONTINUOUS
 62
     6
100
AcDbCircle
 10
1568.00335
 20
660.3342044654433
 30
0.0
 40
2.999700000000005
100
AcDbArc
 50
93.7199825690572
 51
240.1637006561283
  0
LINE
  5
448
330
1F
100
AcDbEntity
  8
寸法
  6
CONTINUOUS
 62
     6
100
AcDbLine
 10
1641.801328447126
 20
668.13838533361
 30
0.0
 11
1567.808728447126
 21
663.3275842510973
 31
0.0
  0
LINE
  5
449
330
1F
100
AcDbEntity
  8
寸法
  6
CONTINUOUS
 62
     6
100
AcDbLine
 10
1568.00335
 20
660.334204465478
 30
0.0
 11
1586.612227181175
 21
661.5441039214319
 31
0.0
  0
LINE
  5
44A
330
1F
100
AcDbEntity
  8
寸法
  6
CONTINUOUS
 62
     6
100
AcDbLine
 10
1586.612227181175
 20
661.544103921436
 30
0.0
 11
1641.99595
 21
665.1450055479554
 31
0.0
  0
ARC
  5
44B
330
1F
100
AcDbEntity
  8
寸法
  6
CONTINUOUS
 62
     6
100
AcDbCircle
 10
1641.995950000001
 20
665.145005547957
 30
0.0
 40
2.999700000000005
100
AcDbArc
 50
308.413905404081
 51
93.7199825690572
  0
LINE
  5
44C
330
1F
100
AcDbEntity
  8
寸法
  6
CONTINUOUS
 62
     6
100
AcDbLine
 10
1643.859777480233
 20
662.7946125565759
 30
0.0
 11
1639.730429778301
 21
659.5200998472039
 31
0.0
  0
ARC
  5
44D
330
1F
100
AcDbEntity
  8
寸法
  6
CONTINUOUS
 62
     6
100
AcDbCircle
 10
1637.866602298068
 20
661.8704928385844
 30
0.0
 40
2.999700000000005
100
AcDbArc
 50
273.7199825690573
 51
308.4139054045598
  0
LINE
  5
44E
330
1F
100
AcDbEntity
  8
寸法
  6
CONTINUOUS
 62
     7
100
AcDbLine
 10
1641.3103943
 20
658.0000000000014
 30
0.0
 11
1627.7
 21
658.0000000000009
 31
0.0
  0
LINE
  5
44F
330
1F
100
AcDbEntity
  8
寸法
  6
EXLTYPE4
 62
     6
100
AcDbLine
 10
627.4400663472801
 20
510.83615684992
 30
0.0
 11
627.4400663472801
 21
580.0
 31
0.0
  0
LINE
  5
450
330
1F
100
AcDbEntity
  8
寸法
  6
EXLTYPE4
 62
     6
100
AcDbLine
 10
630.4400663472801
 20
580.0
 30
0.0
 11
630.4400663472801
 21
512.8718411819975
 31
0.0
  0
ARC
  5
451
330
1F
100
AcDbEntity
  8
寸法
  6
EXLTYPE4
 62
     6
100
AcDbCircle
 10
641.6650663472805
 20
493.1010946320101
 30
0.0
 40
22.73506200000002
100
AcDbArc
 50
51.26747800000003
 51
128.732522
  0
ARC
  5
452
330
1F
100
AcDbEntity
  8
寸法
  6
EXLTYPE4
 62
     6
100
AcDbCircle
 10
670.1150663472803
 20
528.5712186320101
 30
0.0
 40
22.73506200000002
100
AcDbArc
 50
231.267478
 51
308.7325220000001
  0
LINE
  5
453
330
1F
100
AcDbEntity
  8
寸法
  6
EXLTYPE4
 62
     6
100
AcDbLine
 10
681.3400663472806
 20
580.0
 30
0.0
 11
681.3400663472806
 21
508.8004720820226
 31
0.0
  0
LINE
  5
454
330
1F
100
AcDbEntity
  8
寸法
  6
EXLTYPE4
 62
     6
100
AcDbLine
 10
684.3400663472806
 20
510.8361564141001
 30
0.0
 11
684.3400663472806
 21
580.0
 31
0.0
  0
DIMENSION
  5
455
330
1F
100
AcDbEntity
  8
寸法
  6
CONTINUOUS
 62
     3
100
AcDbDimension
  2
*D20
 10
819.499959983
 20
1989.0
 30
0.0
 11
656.9999599830002
 21
2012.499999940395
 31
0.0
 70
   160
  3
ISO-25
100
AcDbAlignedDimension
 13
494.499959983
 23
2472.0
 33
0.0
 14
819.499959983
 24
2472.0
 34
0.0
100
AcDbRotatedDimension
1001
ACAD
1000
DSTYLE
1002
{
1070
   270
1070
     2
1070
     6
1000
EX_NORM
1070
     7
1000
EX_NORM
1070
    41
1040
30.0
1070
    42
1040
6.99999988079071
1070
    44
1040
10.0
1070
    73
1070
     0
1070
    74
1070
     0
1070
    75
1070
     0
1070
    76
1070
     0
1070
    77
1070
     1
1070
    78
1070
     8
1070
   140
1040
40.0
1070
   147
1040
0.0
1070
   173
1070
     1
1070
   176
1070
     3
1070
   177
1070
     3
1070
   178
1070
     2
1070
   271
1070
     1
1070
   277
1070
     2
1070
   279
1070
     2
1070
   280
1070
     0
1070
   287
1070
     5
1070
   340
1005
2D9
1002
}
  0
LINE
  5
462
330
1F
100
AcDbEntity
  8
寸法
  6
CONTINUOUS
 62
     6
100
AcDbLine
 10
1570.8103943
 20
613.0
 30
0.0
 11
1573.863492592329
 21
613.0
 31
0.0
  0
LINE
  5
463
330
1F
100
AcDbEntity
  8
寸法
  6
CONTINUOUS
 62
     6
100
AcDbLine
 10
1581.889536627278
 20
613.0
 30
0.0
 11
1621.110463372725
 21
613.0
 31
0.0
  0
LINE
  5
464
330
1F
100
AcDbEntity
  8
寸法
  6
CONTINUOUS
 62
     6
100
AcDbLine
 10
1629.136507407672
 20
613.0
 30
0.0
 11
1636.8103943
 21
613.0
 31
0.0
  0
ARC
  5
465
330
1F
100
AcDbEntity
  8
寸法
  6
CONTINUOUS
 62
     6
100
AcDbCircle
 10
1618.810394300001
 20
590.9999999999999
 30
0.0
 40
5.0
100
AcDbArc
 50
90.00000000000001
 51
180.0
  0
LINE
  5
466
330
1F
100
AcDbEntity
  8
寸法
  6
CONTINUOUS
 62
     6
100
AcDbLine
 10
1650.560394300007
 20
589.9999999999992
 30
0.0
 11
1616.8103943
 21
589.9999999999997
 31
0.0
  0
ARC
  5
467
330
1F
100
AcDbEntity
  8
寸法
  6
CONTINUOUS
 62
     6
100
AcDbCircle
 10
1588.810394299998
 20
590.9999999999999
 30
0.0
 40
5.0
100
AcDbArc
 50
0.0
 51
90.00000000000001
  0
LINE
  5
468
330
1F
100
AcDbEntity
  8
寸法
  6
CONTINUOUS
 62
     6
100
AcDbLine
 10
1557.060394299993
 20
589.9999999999992
 30
0.0
 11
1590.8103943
 21
589.9999999999997
 31
0.0
  0
LINE
  5
469
330
1F
100
AcDbEntity
  8
寸法
  6
CONTINUOUS
 62
     6
100
AcDbLine
 10
1590.8103943
 20
572.6
 30
0.0
 11
1603.8103943
 21
572.6
 31
0.0
  0
LINE
  5
46A
330
1F
100
AcDbEntity
  8
寸法
  6
CONTINUOUS
 62
     6
100
AcDbLine
 10
1616.8103943
 20
572.6
 30
0.0
 11
1603.8103943
 21
572.6
 31
0.0
  0
LINE
  5
46B
330
1F
100
AcDbEntity
  8
寸法
  6
CONTINUOUS
 62
     6
100
AcDbLine
 10
1590.810394299998
 20
572.6
 30
0.0
 11
1590.810394299998
 21
593.0000000000001
 31
0.0
  0
LINE
  5
46C
330
1F
100
AcDbEntity
  8
寸法
  6
CONTINUOUS
 62
     6
100
AcDbLine
 10
1593.810394299998
 20
572.5999999999999
 30
0.0
 11
1593.810394299999
 21
590.9999999999998
 31
0.0
  0
LINE
  5
46D
330
1F
100
AcDbEntity
  8
寸法
  6
CONTINUOUS
 62
     6
100
AcDbLine
 10
1613.810394300002
 20
572.5999999999999
 30
0.0
 11
1613.810394300001
 21
590.9999999999998
 31
0.0
  0
LINE
  5
46E
330
1F
100
AcDbEntity
  8
寸法
  6
CONTINUOUS
 62
     6
100
AcDbLine
 10
1616.810394300002
 20
572.6
 30
0.0
 11
1616.810394300002
 21
593.0000000000001
 31
0.0
  0
LINE
  5
46F
330
1F
100
AcDbEntity
  8
器具明細表
  6
CONTINUOUS
 62
     6
100
AcDbLine
 10
124.9
 20
253.3
 30
0.0
 11
194.9
 21
253.3
 31
0.0
  0
LINE
  5
470
330
1F
100
AcDbEntity
  8
器具明細表
  6
CONTINUOUS
 62
     6
100
AcDbLine
 10
124.9
 20
259.8
 30
0.0
 11
194.9
 21
259.8
 31
0.0
  0
LINE
  5
471
330
1F
100
AcDbEntity
  8
器具明細表
  6
CONTINUOUS
 62
     6
100
AcDbLine
 10
124.9
 20
266.3
 30
0.0
 11
194.9
 21
266.3
 31
0.0
  0
TEXT
  5
472
330
1F
100
AcDbEntity
  8
器具明細表
  6
CONTINUOUS
 62
     2
100
AcDbText
 10
126.60507812
 20
267.50043945
 30
0.0
 40
6.0
  1
器　具　明　細
 41
1.294715447154472
  7
EXCADSTD
 72
     5
 11
172.10507812
 21
267.50043945
 31
0.0
100
AcDbText
  0
TEXT
  5
473
330
1F
100
AcDbEntity
  8
器具明細表
  6
CONTINUOUS
 62
     2
100
AcDbText
 10
129.94003906
 20
260.3
 30
0.0
 40
5.5
  1
品　　番
 41
1.24505928853755
  7
EXCADSTD
 72
     5
 11
152.44003906
 21
260.3
 31
0.0
100
AcDbText
  0
TEXT
  5
474
330
1F
100
AcDbEntity
  8
器具明細表
  6
CONTINUOUS
 62
     2
100
AcDbText
 10
186.4
 20
260.3
 30
0.0
 40
5.5
  1
個数
 41
0.9226601640250081
  7
EXCADSTD
 72
     5
 11
194.3744199890733
 21
260.3
 31
0.0
100
AcDbText
  0
TEXT
  5
475
330
1F
100
AcDbEntity
  8
器具明細表
  6
CONTINUOUS
 62
     2
100
AcDbText
 10
162.90170898
 20
260.3
 30
0.0
 40
5.5
  1
品　　名
 41
0.9960474308300397
  7
EXCADSTD
 72
     5
 11
180.90170898
 21
260.3
 31
0.0
100
AcDbText
  0
TEXT
  5
476
330
1F
100
AcDbEntity
  8
器具明細表
  6
CONTINUOUS
 62
     2
100
AcDbText
 10
158.2918457
 20
253.8
 30
0.0
 40
5.0
  1
小便器
 41
0.9799999980365529
  7
EXCADSTD
 72
     5
 11
170.1918456761582
 21
253.8
 31
0.0
100
AcDbText
  0
TEXT
  5
477
330
1F
100
AcDbEntity
  8
器具明細表
  6
CONTINUOUS
 62
     2
100
AcDbText
 10
188.4
 20
254.19819336
 30
0.0
 40
4.75
  1
１
 41
1.112926266318877
  7
EXCADSTD
 72
     5
 11
192.1759998321533
 21
254.19819336
 31
0.0
100
AcDbText
  0
LINE
  5
478
330
1F
100
AcDbEntity
  8
器具明細表
  6
CONTINUOUS
 62
     6
100
AcDbLine
 10
124.9
 20
246.80003052
 30
0.0
 11
194.9
 21
246.80003052
 31
0.0
  0
TEXT
  5
479
330
1F
100
AcDbEntity
  8
器具明細表
  6
CONTINUOUS
 62
     2
100
AcDbText
 10
188.4
 20
247.63816528
 30
0.0
 40
4.75
  1
１
 41
1.112926266318877
  7
EXCADSTD
 72
     5
 11
192.1759998321533
 21
247.63816528
 31
0.0
100
AcDbText
  0
TEXT
  5
47A
330
1F
100
AcDbEntity
  8
器具明細表
  6
CONTINUOUS
 62
     2
100
AcDbText
 10
125.19838562
 20
254.04804687
 30
0.0
 40
5.0
  1
Ｕ５００
 41
0.9495652152144389
  7
EXCADSTD
 72
     5
 11
140.7983855842372
 21
254.04804687
 31
0.0
100
AcDbText
  0
TEXT
  5
47B
330
1F
100
AcDbEntity
  8
器具明細表
  6
CONTINUOUS
 62
     2
100
AcDbText
 10
125.19838562
 20
247.54801636
 30
0.0
 40
5.0
  1
９５９９－２０８０１
 41
0.7783050821999373
  7
EXCADSTD
 72
     5
 11
157.9983855127116
 21
247.54801636
 31
0.0
100
AcDbText
  0
TEXT
  5
47C
330
1F
100
AcDbEntity
  8
器具明細表
  6
CONTINUOUS
 62
     2
100
AcDbText
 10
158.2918457
 20
247.37791138
 30
0.0
 40
5.0
  1
排水セット
 41
0.931724135629062
  7
EXCADSTD
 72
     5
 11
177.5918456523163
 21
247.37791138
 31
0.0
100
AcDbText
  0
LINE
  5
47D
330
1F
100
AcDbEntity
  8
器具明細表
  6
CONTINUOUS
 62
     6
100
AcDbLine
 10
124.9
 20
266.3
 30
0.0
 11
124.9
 21
246.80003052
 31
0.0
  0
LINE
  5
47E
330
1F
100
AcDbEntity
  8
器具明細表
  6
CONTINUOUS
 62
     6
100
AcDbLine
 10
157.9
 20
266.3
 30
0.0
 11
157.9
 21
246.80003052
 31
0.0
  0
LINE
  5
47F
330
1F
100
AcDbEntity
  8
器具明細表
  6
CONTINUOUS
 62
     6
100
AcDbLine
 10
185.9
 20
266.3
 30
0.0
 11
185.9
 21
246.80003052
 31
0.0
  0
LINE
  5
480
330
1F
100
AcDbEntity
  8
器具明細表
  6
CONTINUOUS
 62
     6
100
AcDbLine
 10
194.9
 20
266.3
 30
0.0
 11
194.9
 21
246.80003052
 31
0.0
  0
LINE
  5
481
330
1F
100
AcDbEntity
  8
スト_ル
  6
EXLTYPE3
 62
     6
100
AcDbLine
 10
62.08
 20
229.19990234
 30
0.0
 11
69.57000000000001
 21
229.19990234
 31
0.0
  0
LINE
  5
482
330
1F
100
AcDbEntity
  8
寸法
  6
EXLTYPE3
 62
     6
100
AcDbLine
 10
656.9999599830097
 20
2097.0
 30
0.0
 11
656.9999599830097
 21
2494.0
 31
0.0
  0
LINE
  5
483
330
1F
100
AcDbEntity
  8
スト_ル
  6
EXLTYPE3
 62
     6
100
AcDbLine
 10
65.70004606473
 20
148.7
 30
0.0
 11
65.70004606473
 21
48.99999999999999
 31
0.0
  0
ENDSEC
  0
SECTION
  2
OBJECTS
  0
DICTIONARY
  5
C
330
0
100
AcDbDictionary
  3
ACAD_GROUP
350
D
  3
ACAD_LAYOUT
350
1A
  3
ACAD_MATERIAL
350
3B
  3
ACAD_MLEADERSTYLE
350
4A6
  3
ACAD_MLINESTYLE
350
17
  3
ACAD_PLOTSETTINGS
350
19
  3
ACAD_VISUALSTYLE
350
2A
  3
ACDBHEADERROUNDTRIPXREC
350
484
  3
ACDBVARIABLEDICTIONARY
350
4A4
  0
DICTIONARY
  5
D
102
{ACAD_REACTORS
330
C
102
}
330
C
100
AcDbDictionary
  0
DICTIONARY
  5
1A
102
{ACAD_REACTORS
330
C
102
}
330
C
100
AcDbDictionary
  0
DICTIONARY
  5
3B
102
{ACAD_REACTORS
330
C
102
}
330
C
100
AcDbDictionary
  3
BYBLOCK
350
3D
  3
BYLAYER
350
3C
  3
GLOBAL
350
3E
  0
DICTIONARY
  5
4A6
102
{ACAD_REACTORS
330
C
102
}
330
C
100
AcDbDictionary
  0
DICTIONARY
  5
17
102
{ACAD_REACTORS
330
C
102
}
330
C
100
AcDbDictionary
  3
STANDARD
350
18
  0
DICTIONARY
  5
19
102
{ACAD_REACTORS
330
C
102
}
330
C
100
AcDbDictionary
  0
DICTIONARY
  5
2A
102
{ACAD_REACTORS
330
C
102
}
330
C
100
AcDbDictionary
  3
2DWIREFRAME
350
2F
  3
3D_HIDDEN
350
31
  3
3DWIREFRAME
350
30
  3
BASIC
350
32
  3
BRIGHTEN
350
36
  3
COLORCHANGE
350
3A
  3
CONCEPTUAL
350
34
  3
DIM
350
35
  3
FACEPATTERN
350
39
  3
FLAT
350
2B
  3
FLATWITHEDGES
350
2C
  3
GOURAUD
350
2D
  3
GOURAUDWITHEDGES
350
2E
  3
LINEPATTERN
350
38
  3
REALISTIC
350
33
  3
THICKEN
350
37
  0
DICTIONARY
  5
484
102
{ACAD_REACTORS
330
C
102
}
330
C
100
AcDbDictionary
  3
CEPSNTYPE
350
48D
  3
DIMSTYLEDATA
350
4A3
  3
FINGERPRINTGUID
350
48E
  3
HYPERLINKBASE
350
487
  3
INSUNITS
350
48C
  3
LAYOUTDICT
350
489
  3
LWETCUNION
350
48B
  3
PLOTSETDICT
350
48A
  3
PSVPSCALE
350
490
  3
PUCSBASE
350
493
  3
PUCSORGBACK
350
499
  3
PUCSORGBOTTOM
350
495
  3
PUCSORGFRONT
350
498
  3
PUCSORGLEFT
350
496
  3
PUCSORGRIGHT
350
497
  3
PUCSORGTOP
350
494
  3
PUCSORTHOREF
350
491
  3
PUCSORTHOVIEW
350
492
  3
STYLESHEET
350
488
  3
TSTACKALIGN
350
485
  3
TSTACKSIZE
350
486
  3
UCSBASE
350
49C
  3
UCSORGBACK
350
4A2
  3
UCSORGBOTTOM
350
49E
  3
UCSORGFRONT
350
4A1
  3
UCSORGLEFT
350
49F
  3
UCSORGRIGHT
350
4A0
  3
UCSORGTOP
350
49D
  3
UCSORTHOREF
350
49A
  3
UCSORTHOVIEW
350
49B
  3
VERSIONGUID
350
48F
  0
DICTIONARY
  5
4A4
102
{ACAD_REACTORS
330
C
102
}
330
C
100
AcDbDictionary
  3
DIMASSOC
350
4A9
  3
HIDETEXT
350
4AA
  3
PSOLHEIGHT
350
4A8
  3
PSOLWIDTH
350
4A7
  0
MATERIAL
  5
3D
102
{ACAD_REACTORS
330
3B
102
}
102
{ACAD_XDICTIONARY
360
4AD
102
}
330
3B
100
AcDbMaterial
  1
ByBlock
  0
MATERIAL
  5
3C
102
{ACAD_REACTORS
330
3B
102
}
102
{ACAD_XDICTIONARY
360
4AB
102
}
330
3B
100
AcDbMaterial
  1
ByLayer
  0
MATERIAL
  5
3E
102
{ACAD_REACTORS
330
3B
102
}
102
{ACAD_XDICTIONARY
360
4AF
102
}
330
3B
100
AcDbMaterial
  1
Global
  0
MLINESTYLE
  5
18
102
{ACAD_REACTORS
330
17
102
}
330
17
100
AcDbMlineStyle
  2
Standard
 70
     0
  3

 62
   256
 51
90.0
 52
90.0
 71
     2
 49
0.5
 62
   256
  6
BYLAYER
 49
-0.5
 62
   256
  6
BYLAYER
  0
ACAD_PROXY_OBJECT
  5
2F
102
{ACAD_REACTORS
330
2A
102
}
330
2A
100
AcDbProxyObject
 90
      499
 91
      501
 93
      436
310
42CC9915DA5C99599C985B595049028333333333333E3BF0000000000000FB0107901411070040501600405405064090741402480A0340
1001
ACAD
1000
AcDbSavedByObjectVersion
1070
     0
  0
ACAD_PROXY_OBJECT
  5
31
102
{ACAD_REACTORS
330
2A
102
}
330
2A
100
AcDbProxyObject
 90
      499
 91
      501
 93
      500
310
424CD108121A5919195B90640502408333333333333E3BF0000000000000FB01079024090700405020000000000001110200405405064090740C02480A0340
1001
ACAD
1000
AcDbSavedByObjectVersion
1070
     0
  0
ACAD_PROXY_OBJECT
  5
30
102
{ACAD_REACTORS
330
2A
102
}
330
2A
100
AcDbProxyObject
 90
      499
 91
      501
 93
      436
310
42CCD915DA5C99599C985B595059028333333333333E3BF0000000000000FB0107901411070040501600405405064090741402480A0340
1001
ACAD
1000
AcDbSavedByObjectVersion
1070
     0
  0
ACAD_PROXY_OBJECT
  5
32
102
{ACAD_REACTORS
330
2A
102
}
330
2A
100
AcDbProxyObject
 90
      499
 91
      501
 93
      388
310
4150985CDA58D07406404333333333333E3BF0000000000000FB0107A41107004050150841D405064090741402480A0350
1001
ACAD
1000
AcDbSavedByObjectVersion
1070
     0
  0
ACAD_PROXY_OBJECT
  5
36
102
{ACAD_REACTORS
330
2A
102
}
330
2A
100
AcDbProxyObject
 90
      499
 91
      501
 93
      428
310
42109C9A59DA1D195B90C409028333333333333E3BF0000000000000FB010790141107004050150841D405064090741402480A029950
1001
ACAD
1000
AcDbSavedByObjectVersion
1070
     0
  0
ACAD_PROXY_OBJECT
  5
3A
102
{ACAD_REACTORS
330
2A
102
}
330
2A
100
AcDbProxyObject
 90
      499
 91
      501
 93
      452
310
42D0DBDB1BDC90DA185B99D95104090240C333333333333E3BF0000000000000FB0108901411070040501508421405064090741402480A0350
1001
ACAD
1000
AcDbSavedByObjectVersion
1070
     0
  0
ACAD_PROXY_OBJECT
  5
34
102
{ACAD_REACTORS
330
2A
102
}
330
2A
100
AcDbProxyObject
 90
      499
 91
      501
 93
      500
310
4290DBDB98D95C1D1D585B10940D028333333333333E3BF0000000000000FB0107902409070040501000000000000111010841D405064090740C02480A0340
1001
ACAD
1000
AcDbSavedByObjectVersion
1070
     0
  0
ACAD_PROXY_OBJECT
  5
35
102
{ACAD_REACTORS
330
2A
102
}
330
2A
100
AcDbProxyObject
 90
      499
 91
      501
 93
      412
310
40D11A5B50B409028333333333333E3BF0000000000000FB010790141107004050150841D405064090741402480A02677FFFFFD0
1001
ACAD
1000
AcDbSavedByObjectVersion
1070
     0
  0
ACAD_PROXY_OBJECT
  5
39
102
{ACAD_REACTORS
330
2A
102
}
330
2A
100
AcDbProxyObject
 90
      499
 91
      501
 93
      444
310
42D19858D95C185D1D195C9B90F409028333333333333E3BF0000000000000FB010790141107004050150841D405064090741402480A0350
1001
ACAD
1000
AcDbSavedByObjectVersion
1070
     0
  0
ACAD_PROXY_OBJECT
  5
2B
102
{ACAD_REACTORS
330
2A
102
}
330
2A
100
AcDbProxyObject
 90
      499
 91
      501
 93
      388
310
41119B185D240901404333333333333E3BF0000000000000F9010740A41107004050150841D405064090741402480A1B50
1001
ACAD
1000
AcDbSavedByObjectVersion
1070
     0
  0
ACAD_PROXY_OBJECT
  5
2C
102
{ACAD_REACTORS
330
2A
102
}
330
2A
100
AcDbProxyObject
 90
      499
 91
      501
 93
      476
310
43519B185D15DA5D1A115919D95CD0140901404333333333333E3BF0000000000000F9010740901411070040501600405405064090741402480A1B50
1001
ACAD
1000
AcDbSavedByObjectVersion
1070
     0
  0
ACAD_PROXY_OBJECT
  5
2D
102
{ACAD_REACTORS
330
2A
102
}
330
2A
100
AcDbProxyObject
 90
      499
 91
      501
 93
      412
310
41D1DBDD5C985D5910240902404333333333333E3BF0000000000000F9010740A411070040501641D405064090741402480A1B50
1001
ACAD
1000
AcDbSavedByObjectVersion
1070
     0
  0
ACAD_PROXY_OBJECT
  5
2E
102
{ACAD_REACTORS
330
2A
102
}
330
2A
100
AcDbProxyObject
 90
      499
 91
      501
 93
      500
310
4411DBDD5C985D5915DA5D1A115919D95CD0340902404333333333333E3BF0000000000000F9010740901411070040501600405405064090741402480A1B50
1001
ACAD
1000
AcDbSavedByObjectVersion
1070
     0
  0
ACAD_PROXY_OBJECT
  5
38
102
{ACAD_REACTORS
330
2A
102
}
330
2A
100
AcDbProxyObject
 90
      499
 91
      501
 93
      444
310
42D31A5B995C185D1D195C9B90E409028333333333333E3BF0000000000000FB010790141107004050750841D405064090741402483A0350
1001
ACAD
1000
AcDbSavedByObjectVersion
1070
     0
  0
ACAD_PROXY_OBJECT
  5
33
102
{ACAD_REACTORS
330
2A
102
}
330
2A
100
AcDbProxyObject
 90
      499
 91
      501
 93
      420
310
425499585B1A5CDD1A58D08409028333333333333E3BF0000000000000FB01079019070040501508421405064090741402480A1B40
1001
ACAD
1000
AcDbSavedByObjectVersion
1070
     0
  0
ACAD_PROXY_OBJECT
  5
37
102
{ACAD_REACTORS
330
2A
102
}
330
2A
100
AcDbProxyObject
 90
      499
 91
      501
 93
      412
310
41D51A1A58DAD95B90D409028333333333333E3BF0000000000000FB010790141107004050150C41D405064090741402480A0350
1001
ACAD
1000
AcDbSavedByObjectVersion
1070
     0
  0
XRECORD
  5
48D
102
{ACAD_REACTORS
330
484
102
}
330
484
100
AcDbXrecord
 90
        0
  0
XRECORD
  5
4A3
102
{ACAD_REACTORS
330
484
102
}
330
484
100
AcDbXrecord
1000
DSTYLE
1002
{
1070
   340
340
11
1002
}
  0
XRECORD
  5
48E
102
{ACAD_REACTORS
330
484
102
}
330
484
100
AcDbXrecord
  1
{B4E286E2-42FC-4F02-86A2-98A324092B88}
  0
XRECORD
  5
487
102
{ACAD_REACTORS
330
484
102
}
330
484
100
AcDbXrecord
  1

  0
XRECORD
  5
48C
102
{ACAD_REACTORS
330
484
102
}
330
484
100
AcDbXrecord
 90
        4
  0
XRECORD
  5
489
102
{ACAD_REACTORS
330
484
102
}
330
484
100
AcDbXrecord
340
1A
  0
XRECORD
  5
48B
102
{ACAD_REACTORS
330
484
102
}
330
484
100
AcDbXrecord
 90
    10781
  0
XRECORD
  5
48A
102
{ACAD_REACTORS
330
484
102
}
330
484
100
AcDbXrecord
340
19
  0
XRECORD
  5
490
102
{ACAD_REACTORS
330
484
102
}
330
484
100
AcDbXrecord
 40
0.0
  0
XRECORD
  5
493
102
{ACAD_REACTORS
330
484
102
}
330
484
100
AcDbXrecord
340
0
  0
XRECORD
  5
499
102
{ACAD_REACTORS
330
484
102
}
330
484
100
AcDbXrecord
 10
0.0
 20
0.0
 30
0.0
  0
XRECORD
  5
495
102
{ACAD_REACTORS
330
484
102
}
330
484
100
AcDbXrecord
 10
0.0
 20
0.0
 30
0.0
  0
XRECORD
  5
498
102
{ACAD_REACTORS
330
484
102
}
330
484
100
AcDbXrecord
 10
0.0
 20
0.0
 30
0.0
  0
XRECORD
  5
496
102
{ACAD_REACTORS
330
484
102
}
330
484
100
AcDbXrecord
 10
0.0
 20
0.0
 30
0.0
  0
XRECORD
  5
497
102
{ACAD_REACTORS
330
484
102
}
330
484
100
AcDbXrecord
 10
0.0
 20
0.0
 30
0.0
  0
XRECORD
  5
494
102
{ACAD_REACTORS
330
484
102
}
330
484
100
AcDbXrecord
 10
0.0
 20
0.0
 30
0.0
  0
XRECORD
  5
491
102
{ACAD_REACTORS
330
484
102
}
330
484
100
AcDbXrecord
340
0
  0
XRECORD
  5
492
102
{ACAD_REACTORS
330
484
102
}
330
484
100
AcDbXrecord
 70
     0
  0
XRECORD
  5
488
102
{ACAD_REACTORS
330
484
102
}
330
484
100
AcDbXrecord
  1

  0
XRECORD
  5
485
102
{ACAD_REACTORS
330
484
102
}
330
484
100
AcDbXrecord
 90
        1
  0
XRECORD
  5
486
102
{ACAD_REACTORS
330
484
102
}
330
484
100
AcDbXrecord
 90
       70
  0
XRECORD
  5
49C
102
{ACAD_REACTORS
330
484
102
}
330
484
100
AcDbXrecord
340
0
  0
XRECORD
  5
4A2
102
{ACAD_REACTORS
330
484
102
}
330
484
100
AcDbXrecord
 10
0.0
 20
0.0
 30
0.0
  0
XRECORD
  5
49E
102
{ACAD_REACTORS
330
484
102
}
330
484
100
AcDbXrecord
 10
0.0
 20
0.0
 30
0.0
  0
XRECORD
  5
4A1
102
{ACAD_REACTORS
330
484
102
}
330
484
100
AcDbXrecord
 10
0.0
 20
0.0
 30
0.0
  0
XRECORD
  5
49F
102
{ACAD_REACTORS
330
484
102
}
330
484
100
AcDbXrecord
 10
0.0
 20
0.0
 30
0.0
  0
XRECORD
  5
4A0
102
{ACAD_REACTORS
330
484
102
}
330
484
100
AcDbXrecord
 10
0.0
 20
0.0
 30
0.0
  0
XRECORD
  5
49D
102
{ACAD_REACTORS
330
484
102
}
330
484
100
AcDbXrecord
 10
0.0
 20
0.0
 30
0.0
  0
XRECORD
  5
49A
102
{ACAD_REACTORS
330
484
102
}
330
484
100
AcDbXrecord
340
0
  0
XRECORD
  5
49B
102
{ACAD_REACTORS
330
484
102
}
330
484
100
AcDbXrecord
 70
     0
  0
XRECORD
  5
48F
102
{ACAD_REACTORS
330
484
102
}
330
484
100
AcDbXrecord
  1
{FAEB1C32-E019-11D5-929B-00C0DF256EC4}
  0
DICTIONARYVAR
  5
4A9
102
{ACAD_REACTORS
330
4A4
102
}
330
4A4
100
DictionaryVariables
280
     0
  1
2
  0
DICTIONARYVAR
  5
4AA
102
{ACAD_REACTORS
330
4A4
102
}
330
4A4
100
DictionaryVariables
280
     0
  1
1
  0
DICTIONARYVAR
  5
4A8
102
{ACAD_REACTORS
330
4A4
102
}
330
4A4
100
DictionaryVariables
280
     0
  1
80.000000
  0
DICTIONARYVAR
  5
4A7
102
{ACAD_REACTORS
330
4A4
102
}
330
4A4
100
DictionaryVariables
280
     0
  1
5.000000
  0
DICTIONARY
  5
4AD
330
3D
100
AcDbDictionary
280
     1
  3
ACAD_XREC_ROUNDTRIP
360
4AE
  0
DICTIONARY
  5
4AB
330
3C
100
AcDbDictionary
280
     1
  3
ACAD_XREC_ROUNDTRIP
360
4AC
  0
DICTIONARY
  5
4AF
330
3E
100
AcDbDictionary
280
     1
  3
ACAD_XREC_ROUNDTRIP
360
4B0
  0
XRECORD
  5
4AE
102
{ACAD_REACTORS
330
4AD
102
}
330
4AD
100
AcDbXrecord
102
MATERIAL
148
0.0
149
0.0
149
0.0
 93
        0
 94
      127
282
     0
 72
     1
 77
     1
171
     1
175
     1
179
     1
273
     0
  0
XRECORD
  5
4AC
102
{ACAD_REACTORS
330
4AB
102
}
330
4AB
100
AcDbXrecord
102
MATERIAL
148
0.0
149
0.0
149
0.0
 93
        0
 94
      127
282
     0
 72
     1
 77
     1
171
     1
175
     1
179
     1
273
     0
  0
XRECORD
  5
4B0
102
{ACAD_REACTORS
330
4AF
102
}
330
4AF
100
AcDbXrecord
102
MATERIAL
148
0.0
149
0.0
149
0.0
 93
        0
 94
      127
282
     0
 72
     1
 77
     1
171
     1
175
     1
179
     1
273
     0
  0
ENDSEC
  0
EOF
