  0
SECTION
  2
HEADER
  9
$ACADVER
  1
AC1014
  9
$ACADMAINTVER
 70
     9
  9
$DWGCODEPAGE
  3
ANSI_932
  9
$INSBASE
 10
0.0
 20
0.0
 30
0.0
  9
$EXTMIN
 10
-0.6000000000000136
 20
9.100000000000001
 30
0.0
  9
$EXTMAX
 10
199.4000000000001
 20
289.1
 30
0.0
  9
$LIMMIN
 10
0.0
 20
0.0
  9
$LIMMAX
 10
210.0
 20
297.0
  9
$ORTHOMODE
 70
     0
  9
$REGENMODE
 70
     1
  9
$FILLMODE
 70
     1
  9
$QTEXTMODE
 70
     0
  9
$MIRRTEXT
 70
     1
  9
$DRAGMODE
 70
     2
  9
$LTSCALE
 40
1.0
  9
$OSMODE
 70
    37
  9
$ATTMODE
 70
     1
  9
$TEXTSIZE
 40
2.5
  9
$TRACEWID
 40
1.0
  9
$TEXTSTYLE
  7
STANDARD
  9
$CLAYER
  8
図
  9
$CELTYPE
  6
BYLAYER
  9
$CECOLOR
 62
   256
  9
$CELTSCALE
 40
1.0
  9
$DELOBJ
 70
     1
  9
$DISPSILH
 70
     0
  9
$DIMSCALE
 40
1.0
  9
$DIMASZ
 40
2.5
  9
$DIMEXO
 40
0.625
  9
$DIMDLI
 40
3.75
  9
$DIMRND
 40
0.0
  9
$DIMDLE
 40
0.0
  9
$DIMEXE
 40
1.25
  9
$DIMTP
 40
0.0
  9
$DIMTM
 40
0.0
  9
$DIMTXT
 40
2.5
  9
$DIMCEN
 40
2.5
  9
$DIMTSZ
 40
0.0
  9
$DIMTOL
 70
     0
  9
$DIMLIM
 70
     0
  9
$DIMTIH
 70
     0
  9
$DIMTOH
 70
     0
  9
$DIMSE1
 70
     0
  9
$DIMSE2
 70
     0
  9
$DIMTAD
 70
     1
  9
$DIMZIN
 70
     8
  9
$DIMBLK
  1

  9
$DIMASO
 70
     1
  9
$DIMSHO
 70
     1
  9
$DIMPOST
  1

  9
$DIMAPOST
  1

  9
$DIMALT
 70
     0
  9
$DIMALTD
 70
     3
  9
$DIMALTF
 40
0.03937007874016
  9
$DIMLFAC
 40
1.0
  9
$DIMTOFL
 70
     1
  9
$DIMTVP
 40
0.0
  9
$DIMTIX
 70
     0
  9
$DIMSOXD
 70
     0
  9
$DIMSAH
 70
     0
  9
$DIMBLK1
  1

  9
$DIMBLK2
  1

  9
$DIMSTYLE
  2
ISO-25
  9
$DIMCLRD
 70
     0
  9
$DIMCLRE
 70
     0
  9
$DIMCLRT
 70
     0
  9
$DIMTFAC
 40
1.0
  9
$DIMGAP
 40
0.625
  9
$DIMJUST
 70
     0
  9
$DIMSD1
 70
     0
  9
$DIMSD2
 70
     0
  9
$DIMTOLJ
 70
     0
  9
$DIMTZIN
 70
     8
  9
$DIMALTZ
 70
     0
  9
$DIMALTTZ
 70
     0
  9
$DIMFIT
 70
     3
  9
$DIMUPT
 70
     0
  9
$DIMUNIT
 70
     2
  9
$DIMDEC
 70
     2
  9
$DIMTDEC
 70
     2
  9
$DIMALTU
 70
     2
  9
$DIMALTTD
 70
     3
  9
$DIMTXSTY
  7
STANDARD
  9
$DIMAUNIT
 70
     0
  9
$LUNITS
 70
     2
  9
$LUPREC
 70
     4
  9
$SKETCHINC
 40
1.0
  9
$FILLETRAD
 40
10.0
  9
$AUNITS
 70
     0
  9
$AUPREC
 70
     0
  9
$MENU
  1
.
  9
$ELEVATION
 40
0.0
  9
$PELEVATION
 40
0.0
  9
$THICKNESS
 40
0.0
  9
$LIMCHECK
 70
     0
  9
$CHAMFERA
 40
10.0
  9
$CHAMFERB
 40
10.0
  9
$CHAMFERC
 40
20.0
  9
$CHAMFERD
 40
0.0
  9
$SKPOLY
 70
     0
  9
$TDCREATE
 40
2460368.615376621
  9
$TDUPDATE
 40
2460368.615376817
  9
$TDINDWG
 40
0.0000000116
  9
$TDUSRTIMER
 40
0.0000000116
  9
$USRTIMER
 70
     1
  9
$ANGBASE
 50
0.0
  9
$ANGDIR
 70
     0
  9
$PDMODE
 70
     0
  9
$PDSIZE
 40
0.0
  9
$PLINEWID
 40
0.0
  9
$COORDS
 70
     1
  9
$SPLFRAME
 70
     0
  9
$SPLINETYPE
 70
     6
  9
$SPLINESEGS
 70
     8
  9
$ATTDIA
 70
     0
  9
$ATTREQ
 70
     1
  9
$HANDLING
 70
     1
  9
$HANDSEED
  5
2D7
  9
$SURFTAB1
 70
     6
  9
$SURFTAB2
 70
     6
  9
$SURFTYPE
 70
     6
  9
$SURFU
 70
     6
  9
$SURFV
 70
     6
  9
$UCSNAME
  2

  9
$UCSORG
 10
0.0
 20
0.0
 30
0.0
  9
$UCSXDIR
 10
1.0
 20
0.0
 30
0.0
  9
$UCSYDIR
 10
0.0
 20
1.0
 30
0.0
  9
$PUCSNAME
  2

  9
$PUCSORG
 10
0.0
 20
0.0
 30
0.0
  9
$PUCSXDIR
 10
1.0
 20
0.0
 30
0.0
  9
$PUCSYDIR
 10
0.0
 20
1.0
 30
0.0
  9
$USERI1
 70
     0
  9
$USERI2
 70
     0
  9
$USERI3
 70
     0
  9
$USERI4
 70
     0
  9
$USERI5
 70
     0
  9
$USERR1
 40
0.0
  9
$USERR2
 40
0.0
  9
$USERR3
 40
0.0
  9
$USERR4
 40
0.0
  9
$USERR5
 40
0.0
  9
$WORLDVIEW
 70
     1
  9
$SHADEDGE
 70
     3
  9
$SHADEDIF
 70
    70
  9
$TILEMODE
 70
     1
  9
$MAXACTVP
 70
    64
  9
$PINSBASE
 10
0.0
 20
0.0
 30
0.0
  9
$PLIMCHECK
 70
     0
  9
$PEXTMIN
 10
1.000000000000000E+20
 20
1.000000000000000E+20
 30
1.000000000000000E+20
  9
$PEXTMAX
 10
-1.000000000000000E+20
 20
-1.000000000000000E+20
 30
-1.000000000000000E+20
  9
$PLIMMIN
 10
0.0
 20
0.0
  9
$PLIMMAX
 10
420.0
 20
297.0
  9
$UNITMODE
 70
     0
  9
$VISRETAIN
 70
     1
  9
$PLINEGEN
 70
     0
  9
$PSLTSCALE
 70
     1
  9
$TREEDEPTH
 70
  3020
  9
$PICKSTYLE
 70
     1
  9
$CMLSTYLE
  2
STANDARD
  9
$CMLJUST
 70
     0
  9
$CMLSCALE
 40
20.0
  9
$PROXYGRAPHICS
 70
     1
  9
$MEASUREMENT
 70
     1
  0
ENDSEC
  0
SECTION
  2
CLASSES
  0
CLASS
  1
ACDBDICTIONARYWDFLT
  2
AcDbDictionaryWithDefault
  3
ObjectDBX Classes
 90
        0
280
     0
281
     0
  0
CLASS
  1
VISUALSTYLE
  2
AcDbVisualStyle
  3
ObjectDBX Classes
 90
     4095
280
     0
281
     0
  0
CLASS
  1
MATERIAL
  2
AcDbMaterial
  3
ObjectDBX Classes
 90
     1153
280
     0
281
     0
  0
CLASS
  1
SUN
  2
AcDbSun
  3
SCENEOE
 90
     1024
280
     0
281
     0
  0
CLASS
  1
DICTIONARYVAR
  2
AcDbDictionaryVar
  3
ObjectDBX Classes
 90
        0
280
     0
281
     0
  0
CLASS
  1
XRECORD
  2
AcDbXrecord
  3
AutoCAD 2000
 90
        0
280
     0
281
     0
  0
CLASS
  1
LWPOLYLINE
  2
AcDbPolyline
  3
AutoCAD 2000
 90
        0
280
     0
281
     1
  0
CLASS
  1
HATCH
  2
AcDbHatch
  3
AutoCAD 2000
 90
        0
280
     0
281
     1
  0
CLASS
  1
ACDBPLACEHOLDER
  2
AcDbPlaceHolder
  3
ObjectDBX Classes
 90
        0
280
     0
281
     0
  0
CLASS
  1
LAYOUT
  2
AcDbLayout
  3
ObjectDBX Classes
 90
        0
280
     0
281
     0
  0
ENDSEC
  0
SECTION
  2
TABLES
  0
TABLE
  2
VPORT
  5
8
330
0
100
AcDbSymbolTable
 70
     1
  0
VPORT
  5
29
330
8
100
AcDbSymbolTableRecord
100
AcDbViewportTableRecord
  2
*ACTIVE
 70
     0
 10
0.0
 20
0.0
 11
1.0
 21
1.0
 12
497.0000000000002
 22
745.5000000000001
 13
0.0
 23
0.0
 14
10.0
 24
10.0
 15
10.0
 25
10.0
 16
0.0
 26
0.0
 36
1.0
 17
0.0
 27
0.0
 37
0.0
 40
1400.0
 41
0.7142857142857147
 42
50.0
 43
0.0
 44
0.0
 50
0.0
 51
0.0
 71
     0
 72
  1000
 73
     1
 74
     3
 75
     0
 76
     0
 77
     0
 78
     0
  0
ENDTAB
  0
TABLE
  2
LTYPE
  5
5
330
0
100
AcDbSymbolTable
 70
     9
  0
LTYPE
  5
14
330
5
100
AcDbSymbolTableRecord
100
AcDbLinetypeTableRecord
  2
BYBLOCK
 70
     0
  3

 72
    65
 73
     0
 40
0.0
  0
LTYPE
  5
15
330
5
100
AcDbSymbolTableRecord
100
AcDbLinetypeTableRecord
  2
BYLAYER
 70
     0
  3

 72
    65
 73
     0
 40
0.0
  0
LTYPE
  5
16
330
5
100
AcDbSymbolTableRecord
100
AcDbLinetypeTableRecord
  2
CONTINUOUS
 70
     0
  3
Solid line
 72
    65
 73
     0
 40
0.0
  0
LTYPE
  5
40
330
5
100
AcDbSymbolTableRecord
100
AcDbLinetypeTableRecord
  2
EXLTYPE1
 70
     0
  3
破線
 72
    65
 73
     2
 40
3.0
 49
2.0
 74
     0
 49
-1.0
 74
     0
  0
LTYPE
  5
41
330
5
100
AcDbSymbolTableRecord
100
AcDbLinetypeTableRecord
  2
EXLTYPE2
 70
     0
  3
点線
 72
    65
 73
     2
 40
2.0
 49
1.0
 74
     0
 49
-1.0
 74
     0
  0
LTYPE
  5
42
330
5
100
AcDbSymbolTableRecord
100
AcDbLinetypeTableRecord
  2
EXLTYPE3
 70
     0
  3
一点鎖線
 72
    65
 73
     4
 40
10.0
 49
7.0
 74
     0
 49
-1.0
 74
     0
 49
1.0
 74
     0
 49
-1.0
 74
     0
  0
LTYPE
  5
43
330
5
100
AcDbSymbolTableRecord
100
AcDbLinetypeTableRecord
  2
EXLTYPE4
 70
     0
  3
二点鎖線
 72
    65
 73
     6
 40
12.0
 49
7.0
 74
     0
 49
-1.0
 74
     0
 49
1.0
 74
     0
 49
-1.0
 74
     0
 49
1.0
 74
     0
 49
-1.0
 74
     0
  0
LTYPE
  5
44
330
5
100
AcDbSymbolTableRecord
100
AcDbLinetypeTableRecord
  2
EXLTYPE5
 70
     0
  3
三点鎖線
 72
    65
 73
     8
 40
37.0
 49
30.0
 74
     0
 49
-1.0
 74
     0
 49
1.0
 74
     0
 49
-1.0
 74
     0
 49
1.0
 74
     0
 49
-1.0
 74
     0
 49
1.0
 74
     0
 49
-1.0
 74
     0
  0
LTYPE
  5
45
330
5
100
AcDbSymbolTableRecord
100
AcDbLinetypeTableRecord
  2
EXLTYPE6
 70
     0
  3
四点鎖線
 72
    65
 73
    10
 40
39.0
 49
30.0
 74
     0
 49
-1.0
 74
     0
 49
1.0
 74
     0
 49
-1.0
 74
     0
 49
1.0
 74
     0
 49
-1.0
 74
     0
 49
1.0
 74
     0
 49
-1.0
 74
     0
 49
1.0
 74
     0
 49
-1.0
 74
     0
  0
LTYPE
  5
46
330
5
100
AcDbSymbolTableRecord
100
AcDbLinetypeTableRecord
  2
EXLTYPE7
 70
     0
  3
一点鎖線4
 72
    65
 73
     4
 40
4.283333333333333
 49
2.1
 74
     0
 49
-1.05
 74
     0
 49
0.0833333333333333
 74
     0
 49
-1.05
 74
     0
  0
LTYPE
  5
47
330
5
100
AcDbSymbolTableRecord
100
AcDbLinetypeTableRecord
  2
EXLTYPE8
 70
     0
  3
二点鎖線4
 72
    65
 73
     6
 40
5.416666666666666
 49
2.1
 74
     0
 49
-1.05
 74
     0
 49
0.0833333333333333
 74
     0
 49
-1.05
 74
     0
 49
0.0833333333333333
 74
     0
 49
-1.05
 74
     0
  0
ENDTAB
  0
TABLE
  2
LAYER
  5
2
330
0
100
AcDbSymbolTable
 70
     4
  0
LAYER
  5
10
330
2
100
AcDbSymbolTableRecord
100
AcDbLayerTableRecord
  2
0
 70
     0
 62
     7
  6
CONTINUOUS
  0
LAYER
  5
4A
330
2
100
AcDbSymbolTableRecord
100
AcDbLayerTableRecord
  2
図枠
 70
     0
 62
     7
  6
CONTINUOUS
  0
LAYER
  5
4B
330
2
100
AcDbSymbolTableRecord
100
AcDbLayerTableRecord
  2
図
 70
     0
 62
     7
  6
CONTINUOUS
  0
LAYER
  5
16D
330
2
100
AcDbSymbolTableRecord
100
AcDbLayerTableRecord
  2
DEFPOINTS
 70
     0
 62
     7
  6
CONTINUOUS
  0
ENDTAB
  0
TABLE
  2
STYLE
  5
3
330
0
100
AcDbSymbolTable
 70
     5
  0
STYLE
  5
11
330
3
100
AcDbSymbolTableRecord
100
AcDbTextStyleTableRecord
  2
STANDARD
 70
     0
 40
0.0
 41
1.0
 50
0.0
 71
     0
 42
2.5
  3
monotxt
  4
extfont
  0
STYLE
  5
48
330
3
100
AcDbSymbolTableRecord
100
AcDbTextStyleTableRecord
  2
EXCADSTD
 70
     0
 40
0.0
 41
1.0
 50
0.0
 71
     0
 42
0.2
  3
monotxt
  4
extfont
  0
STYLE
  5
49
330
3
100
AcDbSymbolTableRecord
100
AcDbTextStyleTableRecord
  2
EXCADVERT
 70
     4
 40
0.0
 41
1.0
 50
0.0
 71
     0
 42
0.286885
  3
monotxt
  4
extfont
  0
STYLE
  5
A8
330
3
100
AcDbSymbolTableRecord
100
AcDbTextStyleTableRecord
  2
EXCADTTF1
 70
     0
 40
0.0
 41
1.0
 50
0.0
 71
     0
 42
0.2
  3
MSGOTHIC.TTC
  4

1001
ACAD
1000
MS Gothic
1071
    32817
  0
STYLE
  5
16B
330
3
100
AcDbSymbolTableRecord
100
AcDbTextStyleTableRecord
  2
EXCADDIM1
 70
     0
 40
0.0
 41
0.84
 50
0.0
 71
     0
 42
0.2
  3
monotxt
  4
extfont
  0
ENDTAB
  0
TABLE
  2
VIEW
  5
6
330
0
100
AcDbSymbolTable
 70
     0
  0
ENDTAB
  0
TABLE
  2
UCS
  5
7
330
0
100
AcDbSymbolTable
 70
     0
  0
ENDTAB
  0
TABLE
  2
APPID
  5
9
330
0
100
AcDbSymbolTable
 70
     1
  0
APPID
  5
12
330
9
100
AcDbSymbolTableRecord
100
AcDbRegAppTableRecord
  2
ACAD
 70
     0
  0
ENDTAB
  0
TABLE
  2
DIMSTYLE
  5
A
330
0
100
AcDbSymbolTable
 70
     1
  0
DIMSTYLE
105
27
102
{ACAD_REACTORS
330
16C
330
196
330
1A3
330
1B3
330
1C0
330
1D0
330
1E7
330
287
330
29D
102
}
330
A
100
AcDbSymbolTableRecord
100
AcDbDimStyleTableRecord
  2
ISO-25
 70
     0
  3

  4

  5

  6

  7

 40
1.0
 41
2.5
 42
0.625
 43
3.75
 44
1.25
 45
0.0
 46
0.0
 47
0.0
 48
0.0
140
2.5
141
2.5
142
0.0
143
0.03937007874016
144
1.0
145
0.0
146
1.0
147
0.625
 71
     0
 72
     0
 73
     0
 74
     0
 75
     0
 76
     0
 77
     1
 78
     8
170
     0
171
     3
172
     1
173
     0
174
     0
175
     0
176
     0
177
     0
178
     0
270
     2
271
     2
272
     2
273
     2
274
     3
340
11
275
     0
280
     0
281
     0
282
     0
283
     0
284
     8
285
     0
286
     0
287
     5
288
     0
  0
ENDTAB
  0
TABLE
  2
BLOCK_RECORD
  5
1
330
0
100
AcDbSymbolTable
 70
    24
  0
BLOCK_RECORD
  5
1F
330
1
100
AcDbSymbolTableRecord
100
AcDbBlockTableRecord
  2
*MODEL_SPACE
  0
BLOCK_RECORD
  5
1B
330
1
100
AcDbSymbolTableRecord
100
AcDbBlockTableRecord
  2
*PAPER_SPACE
  0
BLOCK_RECORD
  5
4C
330
1
100
AcDbSymbolTableRecord
100
AcDbBlockTableRecord
  2
EX_NORM
  0
BLOCK_RECORD
  5
4F
330
1
100
AcDbSymbolTableRecord
100
AcDbBlockTableRecord
  2
EX_BNORM
  0
BLOCK_RECORD
  5
52
330
1
100
AcDbSymbolTableRecord
100
AcDbBlockTableRecord
  2
EX_BCIR
  0
BLOCK_RECORD
  5
55
330
1
100
AcDbSymbolTableRecord
100
AcDbBlockTableRecord
  2
EX_RCIVIL
  0
BLOCK_RECORD
  5
58
330
1
100
AcDbSymbolTableRecord
100
AcDbBlockTableRecord
  2
EX_SLANT
  0
BLOCK_RECORD
  5
5B
330
1
100
AcDbSymbolTableRecord
100
AcDbBlockTableRecord
  2
EX_NONE
  0
BLOCK_RECORD
  5
5E
330
1
100
AcDbSymbolTableRecord
100
AcDbBlockTableRecord
  2
EX_CIVIL
  0
BLOCK_RECORD
  5
61
330
1
100
AcDbSymbolTableRecord
100
AcDbBlockTableRecord
  2
EX_WCIR
  0
BLOCK_RECORD
  5
64
330
1
100
AcDbSymbolTableRecord
100
AcDbBlockTableRecord
  2
EX_WCIR2
  0
BLOCK_RECORD
  5
67
330
1
100
AcDbSymbolTableRecord
100
AcDbBlockTableRecord
  2
EX_WNORM
  0
BLOCK_RECORD
  5
6A
330
1
100
AcDbSymbolTableRecord
100
AcDbBlockTableRecord
  2
EX_NNORM
  0
BLOCK_RECORD
  5
6D
330
1
100
AcDbSymbolTableRecord
100
AcDbBlockTableRecord
  2
EX_BBOX
  0
BLOCK_RECORD
  5
70
330
1
100
AcDbSymbolTableRecord
100
AcDbBlockTableRecord
  2
EX_WBOX
  0
BLOCK_RECORD
  5
73
330
1
100
AcDbSymbolTableRecord
100
AcDbBlockTableRecord
  2
EX_INTEGRAL
  0
BLOCK_RECORD
  5
16E
330
1
100
AcDbSymbolTableRecord
100
AcDbBlockTableRecord
  2
*D15
  0
BLOCK_RECORD
  5
197
330
1
100
AcDbSymbolTableRecord
100
AcDbBlockTableRecord
  2
*D16
  0
BLOCK_RECORD
  5
1A4
330
1
100
AcDbSymbolTableRecord
100
AcDbBlockTableRecord
  2
*D17
  0
BLOCK_RECORD
  5
1B4
330
1
100
AcDbSymbolTableRecord
100
AcDbBlockTableRecord
  2
*D18
  0
BLOCK_RECORD
  5
1C1
330
1
100
AcDbSymbolTableRecord
100
AcDbBlockTableRecord
  2
*D19
  0
BLOCK_RECORD
  5
1D1
330
1
100
AcDbSymbolTableRecord
100
AcDbBlockTableRecord
  2
*D20
  0
BLOCK_RECORD
  5
1E8
330
1
100
AcDbSymbolTableRecord
100
AcDbBlockTableRecord
  2
*D21
  0
BLOCK_RECORD
  5
288
330
1
100
AcDbSymbolTableRecord
100
AcDbBlockTableRecord
  2
*D22
  0
BLOCK_RECORD
  5
29E
330
1
100
AcDbSymbolTableRecord
100
AcDbBlockTableRecord
  2
*D23
  0
ENDTAB
  0
ENDSEC
  0
SECTION
  2
BLOCKS
  0
BLOCK
  5
20
330
1F
100
AcDbEntity
  8
0
100
AcDbBlockBegin
  2
*MODEL_SPACE
 70
     0
 10
0.0
 20
0.0
 30
0.0
  3
*MODEL_SPACE
  1

  0
ENDBLK
  5
21
330
1F
100
AcDbEntity
  8
0
100
AcDbBlockEnd
  0
BLOCK
  5
1C
330
1B
100
AcDbEntity
 67
     1
  8
0
100
AcDbBlockBegin
  2
*PAPER_SPACE
 70
     0
 10
0.0
 20
0.0
 30
0.0
  3
*PAPER_SPACE
  1

  0
ENDBLK
  5
1D
330
1B
100
AcDbEntity
 67
     1
  8
0
100
AcDbBlockEnd
  0
BLOCK
  5
4D
330
4C
100
AcDbEntity
  8
0
100
AcDbBlockBegin
  2
EX_NORM
 70
     0
 10
0.0
 20
0.0
 30
0.0
  3
EX_NORM
  1

  0
LINE
  5
76
330
4C
100
AcDbEntity
  8
0
  6
CONTINUOUS
 62
     0
100
AcDbLine
 10
0.0
 20
0.0
 30
0.0
 11
-1.0
 21
0.0
 31
0.0
  0
LINE
  5
77
330
4C
100
AcDbEntity
  8
0
  6
CONTINUOUS
 62
     0
100
AcDbLine
 10
0.0
 20
0.0
 30
0.0
 11
-1.0
 21
0.166666667
 31
0.0
  0
LINE
  5
78
330
4C
100
AcDbEntity
  8
0
  6
CONTINUOUS
 62
     0
100
AcDbLine
 10
0.0
 20
0.0
 30
0.0
 11
-1.0
 21
-0.166666667
 31
0.0
  0
ENDBLK
  5
4E
330
4C
100
AcDbEntity
  8
0
100
AcDbBlockEnd
  0
BLOCK
  5
50
330
4F
100
AcDbEntity
  8
0
100
AcDbBlockBegin
  2
EX_BNORM
 70
     0
 10
0.0
 20
0.0
 30
0.0
  3
EX_BNORM
  1

  0
LINE
  5
79
330
4F
100
AcDbEntity
  8
0
  6
CONTINUOUS
 62
     0
100
AcDbLine
 10
0.0
 20
0.0
 30
0.0
 11
-1.0
 21
0.0
 31
0.0
  0
LINE
  5
7A
330
4F
100
AcDbEntity
  8
0
  6
CONTINUOUS
 62
     0
100
AcDbLine
 10
0.0
 20
0.0
 30
0.0
 11
-1.0
 21
0.166666667
 31
0.0
  0
LINE
  5
7B
330
4F
100
AcDbEntity
  8
0
  6
CONTINUOUS
 62
     0
100
AcDbLine
 10
0.0
 20
0.0
 30
0.0
 11
-1.0
 21
-0.166666667
 31
0.0
  0
LINE
  5
7C
330
4F
100
AcDbEntity
  8
0
  6
CONTINUOUS
 62
     0
100
AcDbLine
 10
0.0
 20
0.0
 30
0.0
 11
-1.0
 21
0.083333333
 31
0.0
  0
LINE
  5
7D
330
4F
100
AcDbEntity
  8
0
  6
CONTINUOUS
 62
     0
100
AcDbLine
 10
0.0
 20
0.0
 30
0.0
 11
-1.0
 21
-0.083333333
 31
0.0
  0
LINE
  5
7E
330
4F
100
AcDbEntity
  8
0
  6
CONTINUOUS
 62
     0
100
AcDbLine
 10
-1.0
 20
0.166666667
 30
0.0
 11
-1.0
 21
-0.166666667
 31
0.0
  0
ENDBLK
  5
51
330
4F
100
AcDbEntity
  8
0
100
AcDbBlockEnd
  0
BLOCK
  5
53
330
52
100
AcDbEntity
  8
0
100
AcDbBlockBegin
  2
EX_BCIR
 70
     0
 10
0.0
 20
0.0
 30
0.0
  3
EX_BCIR
  1

  0
LINE
  5
7F
330
52
100
AcDbEntity
  8
0
  6
CONTINUOUS
 62
     0
100
AcDbLine
 10
0.0
 20
0.0
 30
0.0
 11
-1.0
 21
0.0
 31
0.0
  0
CIRCLE
  5
80
330
52
100
AcDbEntity
  8
0
  6
CONTINUOUS
 62
     0
100
AcDbCircle
 10
0.0
 20
0.0
 30
0.0
 40
0.5
  0
CIRCLE
  5
81
330
52
100
AcDbEntity
  8
0
  6
CONTINUOUS
 62
     0
100
AcDbCircle
 10
0.0
 20
0.0
 30
0.0
 40
0.25
  0
ENDBLK
  5
54
330
52
100
AcDbEntity
  8
0
100
AcDbBlockEnd
  0
BLOCK
  5
56
330
55
100
AcDbEntity
  8
0
100
AcDbBlockBegin
  2
EX_RCIVIL
 70
     0
 10
0.0
 20
0.0
 30
0.0
  3
EX_RCIVIL
  1

  0
LINE
  5
82
330
55
100
AcDbEntity
  8
0
  6
CONTINUOUS
 62
     0
100
AcDbLine
 10
0.0
 20
0.0
 30
0.0
 11
-1.0
 21
0.0
 31
0.0
  0
LINE
  5
83
330
55
100
AcDbEntity
  8
0
  6
CONTINUOUS
 62
     0
100
AcDbLine
 10
-1.0
 20
-0.25
 30
0.0
 11
0.0
 21
-0.25
 31
0.0
  0
LINE
  5
84
330
55
100
AcDbEntity
  8
0
  6
CONTINUOUS
 62
     0
100
AcDbLine
 10
-1.0
 20
-0.125
 30
0.0
 11
0.0
 21
-0.125
 31
0.0
  0
ENDBLK
  5
57
330
55
100
AcDbEntity
  8
0
100
AcDbBlockEnd
  0
BLOCK
  5
59
330
58
100
AcDbEntity
  8
0
100
AcDbBlockBegin
  2
EX_SLANT
 70
     0
 10
0.0
 20
0.0
 30
0.0
  3
EX_SLANT
  1

  0
LINE
  5
85
330
58
100
AcDbEntity
  8
0
  6
CONTINUOUS
 62
     0
100
AcDbLine
 10
0.0
 20
0.0
 30
0.0
 11
-1.0
 21
0.0
 31
0.0
  0
LINE
  5
86
330
58
100
AcDbEntity
  8
0
  6
CONTINUOUS
 62
     0
100
AcDbLine
 10
0.707106781
 20
0.707106781
 30
0.0
 11
-0.707106781
 21
-0.707106781
 31
0.0
  0
ENDBLK
  5
5A
330
58
100
AcDbEntity
  8
0
100
AcDbBlockEnd
  0
BLOCK
  5
5C
330
5B
100
AcDbEntity
  8
0
100
AcDbBlockBegin
  2
EX_NONE
 70
     0
 10
0.0
 20
0.0
 30
0.0
  3
EX_NONE
  1

  0
LINE
  5
87
330
5B
100
AcDbEntity
  8
0
  6
CONTINUOUS
 62
     0
100
AcDbLine
 10
0.0
 20
0.0
 30
0.0
 11
-1.0
 21
0.0
 31
0.0
  0
ENDBLK
  5
5D
330
5B
100
AcDbEntity
  8
0
100
AcDbBlockEnd
  0
BLOCK
  5
5F
330
5E
100
AcDbEntity
  8
0
100
AcDbBlockBegin
  2
EX_CIVIL
 70
     0
 10
0.0
 20
0.0
 30
0.0
  3
EX_CIVIL
  1

  0
LINE
  5
88
330
5E
100
AcDbEntity
  8
0
  6
CONTINUOUS
 62
     0
100
AcDbLine
 10
0.0
 20
0.0
 30
0.0
 11
-1.0
 21
0.0
 31
0.0
  0
LINE
  5
89
330
5E
100
AcDbEntity
  8
0
  6
CONTINUOUS
 62
     0
100
AcDbLine
 10
-1.0
 20
0.25
 30
0.0
 11
0.0
 21
0.25
 31
0.0
  0
LINE
  5
8A
330
5E
100
AcDbEntity
  8
0
  6
CONTINUOUS
 62
     0
100
AcDbLine
 10
-1.0
 20
0.125
 30
0.0
 11
0.0
 21
0.125
 31
0.0
  0
ENDBLK
  5
60
330
5E
100
AcDbEntity
  8
0
100
AcDbBlockEnd
  0
BLOCK
  5
62
330
61
100
AcDbEntity
  8
0
100
AcDbBlockBegin
  2
EX_WCIR
 70
     0
 10
0.0
 20
0.0
 30
0.0
  3
EX_WCIR
  1

  0
LINE
  5
8B
330
61
100
AcDbEntity
  8
0
  6
CONTINUOUS
 62
     0
100
AcDbLine
 10
0.0
 20
0.0
 30
0.0
 11
-1.0
 21
0.0
 31
0.0
  0
CIRCLE
  5
8C
330
61
100
AcDbEntity
  8
0
  6
CONTINUOUS
 62
     0
100
AcDbCircle
 10
0.0
 20
0.0
 30
0.0
 40
0.5
  0
ENDBLK
  5
63
330
61
100
AcDbEntity
  8
0
100
AcDbBlockEnd
  0
BLOCK
  5
65
330
64
100
AcDbEntity
  8
0
100
AcDbBlockBegin
  2
EX_WCIR2
 70
     0
 10
0.0
 20
0.0
 30
0.0
  3
EX_WCIR2
  1

  0
LINE
  5
8D
330
64
100
AcDbEntity
  8
0
  6
CONTINUOUS
 62
     0
100
AcDbLine
 10
-0.5
 20
0.0
 30
0.0
 11
-1.0
 21
0.0
 31
0.0
  0
CIRCLE
  5
8E
330
64
100
AcDbEntity
  8
0
  6
CONTINUOUS
 62
     0
100
AcDbCircle
 10
0.0
 20
0.0
 30
0.0
 40
0.5
  0
ENDBLK
  5
66
330
64
100
AcDbEntity
  8
0
100
AcDbBlockEnd
  0
BLOCK
  5
68
330
67
100
AcDbEntity
  8
0
100
AcDbBlockBegin
  2
EX_WNORM
 70
     0
 10
0.0
 20
0.0
 30
0.0
  3
EX_WNORM
  1

  0
LINE
  5
8F
330
67
100
AcDbEntity
  8
0
  6
CONTINUOUS
 62
     0
100
AcDbLine
 10
-1.0
 20
0.0
 30
0.0
 11
-1.0
 21
0.0
 31
0.0
  0
LINE
  5
90
330
67
100
AcDbEntity
  8
0
  6
CONTINUOUS
 62
     0
100
AcDbLine
 10
0.0
 20
0.0
 30
0.0
 11
-1.0
 21
0.166666667
 31
0.0
  0
LINE
  5
91
330
67
100
AcDbEntity
  8
0
  6
CONTINUOUS
 62
     0
100
AcDbLine
 10
0.0
 20
0.0
 30
0.0
 11
-1.0
 21
-0.166666667
 31
0.0
  0
LINE
  5
92
330
67
100
AcDbEntity
  8
0
  6
CONTINUOUS
 62
     0
100
AcDbLine
 10
-1.0
 20
0.166666667
 30
0.0
 11
-1.0
 21
-0.166666667
 31
0.0
  0
ENDBLK
  5
69
330
67
100
AcDbEntity
  8
0
100
AcDbBlockEnd
  0
BLOCK
  5
6B
330
6A
100
AcDbEntity
  8
0
100
AcDbBlockBegin
  2
EX_NNORM
 70
     0
 10
0.0
 20
0.0
 30
0.0
  3
EX_NNORM
  1

  0
LINE
  5
93
330
6A
100
AcDbEntity
  8
0
  6
CONTINUOUS
 62
     0
100
AcDbLine
 10
0.0
 20
0.0
 30
0.0
 11
-1.0
 21
0.0
 31
0.0
  0
LINE
  5
94
330
6A
100
AcDbEntity
  8
0
  6
CONTINUOUS
 62
     0
100
AcDbLine
 10
0.0
 20
0.0
 30
0.0
 11
-1.0
 21
0.166666667
 31
0.0
  0
LINE
  5
95
330
6A
100
AcDbEntity
  8
0
  6
CONTINUOUS
 62
     0
100
AcDbLine
 10
0.0
 20
0.0
 30
0.0
 11
-1.0
 21
-0.166666667
 31
0.0
  0
LINE
  5
96
330
6A
100
AcDbEntity
  8
0
  6
CONTINUOUS
 62
     0
100
AcDbLine
 10
-1.0
 20
0.166666667
 30
0.0
 11
-1.0
 21
-0.166666667
 31
0.0
  0
ENDBLK
  5
6C
330
6A
100
AcDbEntity
  8
0
100
AcDbBlockEnd
  0
BLOCK
  5
6E
330
6D
100
AcDbEntity
  8
0
100
AcDbBlockBegin
  2
EX_BBOX
 70
     0
 10
0.0
 20
0.0
 30
0.0
  3
EX_BBOX
  1

  0
LINE
  5
97
330
6D
100
AcDbEntity
  8
0
  6
CONTINUOUS
 62
     0
100
AcDbLine
 10
0.0
 20
0.0
 30
0.0
 11
-1.0
 21
0.0
 31
0.0
  0
LINE
  5
98
330
6D
100
AcDbEntity
  8
0
  6
CONTINUOUS
 62
     0
100
AcDbLine
 10
-0.5
 20
0.5
 30
0.0
 11
0.5
 21
0.5
 31
0.0
  0
LINE
  5
99
330
6D
100
AcDbEntity
  8
0
  6
CONTINUOUS
 62
     0
100
AcDbLine
 10
0.5
 20
0.5
 30
0.0
 11
0.5
 21
-0.5
 31
0.0
  0
LINE
  5
9A
330
6D
100
AcDbEntity
  8
0
  6
CONTINUOUS
 62
     0
100
AcDbLine
 10
0.5
 20
-0.5
 30
0.0
 11
-0.5
 21
-0.5
 31
0.0
  0
LINE
  5
9B
330
6D
100
AcDbEntity
  8
0
  6
CONTINUOUS
 62
     0
100
AcDbLine
 10
-0.5
 20
-0.5
 30
0.0
 11
-0.5
 21
0.5
 31
0.0
  0
LINE
  5
9C
330
6D
100
AcDbEntity
  8
0
  6
CONTINUOUS
 62
     0
100
AcDbLine
 10
-0.25
 20
0.25
 30
0.0
 11
0.25
 21
0.25
 31
0.0
  0
LINE
  5
9D
330
6D
100
AcDbEntity
  8
0
  6
CONTINUOUS
 62
     0
100
AcDbLine
 10
0.25
 20
0.25
 30
0.0
 11
0.25
 21
-0.25
 31
0.0
  0
LINE
  5
9E
330
6D
100
AcDbEntity
  8
0
  6
CONTINUOUS
 62
     0
100
AcDbLine
 10
0.25
 20
-0.25
 30
0.0
 11
-0.25
 21
-0.25
 31
0.0
  0
LINE
  5
9F
330
6D
100
AcDbEntity
  8
0
  6
CONTINUOUS
 62
     0
100
AcDbLine
 10
-0.25
 20
-0.25
 30
0.0
 11
-0.25
 21
0.25
 31
0.0
  0
ENDBLK
  5
6F
330
6D
100
AcDbEntity
  8
0
100
AcDbBlockEnd
  0
BLOCK
  5
71
330
70
100
AcDbEntity
  8
0
100
AcDbBlockBegin
  2
EX_WBOX
 70
     0
 10
0.0
 20
0.0
 30
0.0
  3
EX_WBOX
  1

  0
LINE
  5
A0
330
70
100
AcDbEntity
  8
0
  6
CONTINUOUS
 62
     0
100
AcDbLine
 10
-0.5
 20
0.0
 30
0.0
 11
-1.0
 21
0.0
 31
0.0
  0
LINE
  5
A1
330
70
100
AcDbEntity
  8
0
  6
CONTINUOUS
 62
     0
100
AcDbLine
 10
-0.5
 20
0.5
 30
0.0
 11
0.5
 21
0.5
 31
0.0
  0
LINE
  5
A2
330
70
100
AcDbEntity
  8
0
  6
CONTINUOUS
 62
     0
100
AcDbLine
 10
0.5
 20
0.5
 30
0.0
 11
0.5
 21
-0.5
 31
0.0
  0
LINE
  5
A3
330
70
100
AcDbEntity
  8
0
  6
CONTINUOUS
 62
     0
100
AcDbLine
 10
0.5
 20
-0.5
 30
0.0
 11
-0.5
 21
-0.5
 31
0.0
  0
LINE
  5
A4
330
70
100
AcDbEntity
  8
0
  6
CONTINUOUS
 62
     0
100
AcDbLine
 10
-0.5
 20
-0.5
 30
0.0
 11
-0.5
 21
0.5
 31
0.0
  0
ENDBLK
  5
72
330
70
100
AcDbEntity
  8
0
100
AcDbBlockEnd
  0
BLOCK
  5
74
330
73
100
AcDbEntity
  8
0
100
AcDbBlockBegin
  2
EX_INTEGRAL
 70
     0
 10
0.0
 20
0.0
 30
0.0
  3
EX_INTEGRAL
  1

  0
LINE
  5
A5
330
73
100
AcDbEntity
  8
0
  6
CONTINUOUS
 62
     0
100
AcDbLine
 10
0.0
 20
0.0
 30
0.0
 11
-1.0
 21
0.0
 31
0.0
  0
ARC
  5
A6
330
73
100
AcDbEntity
  8
0
  6
CONTINUOUS
 62
     0
100
AcDbCircle
 10
0.542115
 20
0.164992
 30
0.0
 40
0.56667
100
AcDbArc
 50
73.07249033629006
 51
196.9275130221199
  0
ARC
  5
A7
330
73
100
AcDbEntity
  8
0
  6
CONTINUOUS
 62
     0
100
AcDbCircle
 10
-0.542115
 20
-0.164992
 30
0.0
 40
0.56667
100
AcDbArc
 50
253.0724869220464
 51
16.9275130559125
  0
ENDBLK
  5
75
330
73
100
AcDbEntity
  8
0
100
AcDbBlockEnd
  0
BLOCK
  5
16F
330
16E
100
AcDbEntity
  8
0
100
AcDbBlockBegin
  2
*D15
 70
     1
 10
0.0
 20
0.0
 30
0.0
  3
*D15
  1

  0
LINE
  5
171
330
16E
100
AcDbEntity
  8
図
  6
CONTINUOUS
 62
     3
100
AcDbLine
 10
783.0140620557501
 20
598.1285319592554
 30
0.0
 11
783.0140620557501
 21
631.2
 31
0.0
  0
LINE
  5
172
330
16E
100
AcDbEntity
  8
図
  6
CONTINUOUS
 62
     3
100
AcDbLine
 10
745.5140620557498
 20
587.9999999403954
 30
0.0
 11
745.5140620557498
 21
631.2
 31
0.0
  0
LINE
  5
173
330
16E
100
AcDbEntity
  8
図
  6
CONTINUOUS
 62
     3
100
AcDbLine
 10
768.0140620557501
 20
626.2
 30
0.0
 11
760.5140620557498
 21
626.2
 31
0.0
  0
INSERT
  5
174
330
16E
100
AcDbEntity
  8
図
 62
     3
100
AcDbBlockReference
  2
EX_NORM
 10
783.0140620557501
 20
626.2
 30
0.0
 41
15.0
 42
15.0
 43
15.0
  0
INSERT
  5
175
330
16E
100
AcDbEntity
  8
図
 62
     3
100
AcDbBlockReference
  2
EX_NORM
 10
745.5140620557498
 20
626.2
 30
0.0
 41
15.0
 42
15.0
 43
15.0
 50
180.0
  0
MTEXT
  5
176
330
16E
100
AcDbEntity
  8
図
 62
     2
100
AcDbMText
 10
825.5140620557504
 20
637.9499999701975
 30
0.0
 40
20.0
 41
0.0
 71
     5
 72
     1
  1
37.5
  7
EXCADDIM1
  0
POINT
  5
177
330
16E
100
AcDbEntity
  8
DEFPOINTS
 62
     0
100
AcDbPoint
 10
783.0140620557501
 20
594.62853201886
 30
0.0
  0
POINT
  5
178
330
16E
100
AcDbEntity
  8
DEFPOINTS
 62
     0
100
AcDbPoint
 10
745.5140620557498
 20
584.5
 30
0.0
  0
POINT
  5
179
330
16E
100
AcDbEntity
  8
DEFPOINTS
 62
     0
100
AcDbPoint
 10
745.5140620557498
 20
626.2
 30
0.0
  0
ENDBLK
  5
170
330
16E
100
AcDbEntity
  8
0
100
AcDbBlockEnd
  0
BLOCK
  5
198
330
197
100
AcDbEntity
  8
0
100
AcDbBlockBegin
  2
*D16
 70
     1
 10
0.0
 20
0.0
 30
0.0
  3
*D16
  1

  0
LINE
  5
19A
330
197
100
AcDbEntity
  8
図
  6
CONTINUOUS
 62
     3
100
AcDbLine
 10
280.5
 20
458.2935466227547
 30
0.0
 11
280.5
 21
396.5000000000001
 31
0.0
  0
LINE
  5
19B
330
197
100
AcDbEntity
  8
図
  6
CONTINUOUS
 62
     3
100
AcDbLine
 10
457.13498545571
 20
457.9285320784646
 30
0.0
 11
457.13498545571
 21
396.5000000000001
 31
0.0
  0
LINE
  5
19C
330
197
100
AcDbEntity
  8
図
  6
CONTINUOUS
 62
     3
100
AcDbLine
 10
295.5
 20
401.5000000000001
 30
0.0
 11
442.13498545571
 21
401.5000000000001
 31
0.0
  0
INSERT
  5
19D
330
197
100
AcDbEntity
  8
図
 62
     3
100
AcDbBlockReference
  2
EX_NORM
 10
280.5
 20
401.5000000000001
 30
0.0
 41
15.0
 42
15.0
 43
15.0
 50
180.0
  0
INSERT
  5
19E
330
197
100
AcDbEntity
  8
図
 62
     3
100
AcDbBlockReference
  2
EX_NORM
 10
457.13498545571
 20
401.5000000000001
 30
0.0
 41
15.0
 42
15.0
 43
15.0
  0
MTEXT
  5
19F
330
197
100
AcDbEntity
  8
図
 62
     2
100
AcDbMText
 10
368.817492727855
 20
413.2499999701977
 30
0.0
 40
20.0
 41
0.0
 71
     5
 72
     1
  1
176.6
  7
EXCADDIM1
  0
POINT
  5
1A0
330
197
100
AcDbEntity
  8
DEFPOINTS
 62
     0
100
AcDbPoint
 10
280.5
 20
461.79354656315
 30
0.0
  0
POINT
  5
1A1
330
197
100
AcDbEntity
  8
DEFPOINTS
 62
     0
100
AcDbPoint
 10
457.13498545571
 20
461.42853201886
 30
0.0
  0
POINT
  5
1A2
330
197
100
AcDbEntity
  8
DEFPOINTS
 62
     0
100
AcDbPoint
 10
457.13498545571
 20
401.5000000000001
 30
0.0
  0
ENDBLK
  5
199
330
197
100
AcDbEntity
  8
0
100
AcDbBlockEnd
  0
BLOCK
  5
1A5
330
1A4
100
AcDbEntity
  8
0
100
AcDbBlockBegin
  2
*D17
 70
     1
 10
0.0
 20
0.0
 30
0.0
  3
*D17
  1

  0
LINE
  5
1A7
330
1A4
100
AcDbEntity
  8
図
  6
CONTINUOUS
 62
     3
100
AcDbLine
 10
742.41406205575
 20
457.9285320784646
 30
0.0
 11
742.41406205575
 21
396.5000000000001
 31
0.0
  0
LINE
  5
1A8
330
1A4
100
AcDbEntity
  8
図
  6
CONTINUOUS
 62
     3
100
AcDbLine
 10
748.6140620557499
 20
457.9285320784646
 30
0.0
 11
748.6140620557499
 21
396.5000000000001
 31
0.0
  0
LINE
  5
1A9
330
1A4
100
AcDbEntity
  8
図
  6
CONTINUOUS
 62
     3
100
AcDbLine
 10
742.41406205575
 20
401.5000000000001
 30
0.0
 11
748.6140620557499
 21
401.5000000000001
 31
0.0
  0
LINE
  5
1AA
330
1A4
100
AcDbEntity
  8
図
  6
CONTINUOUS
 62
     3
100
AcDbLine
 10
727.41406205575
 20
401.5000000000001
 30
0.0
 11
712.41406205575
 21
401.5000000000001
 31
0.0
  0
LINE
  5
1AB
330
1A4
100
AcDbEntity
  8
図
  6
CONTINUOUS
 62
     3
100
AcDbLine
 10
763.6140620557499
 20
401.5000000000001
 30
0.0
 11
778.6140620557499
 21
401.5000000000001
 31
0.0
  0
INSERT
  5
1AC
330
1A4
100
AcDbEntity
  8
図
 62
     3
100
AcDbBlockReference
  2
EX_NORM
 10
742.41406205575
 20
401.5000000000001
 30
0.0
 41
15.0
 42
15.0
 43
15.0
  0
INSERT
  5
1AD
330
1A4
100
AcDbEntity
  8
図
 62
     3
100
AcDbBlockReference
  2
EX_NORM
 10
748.6140620557499
 20
401.5000000000001
 30
0.0
 41
15.0
 42
15.0
 43
15.0
 50
180.0
  0
MTEXT
  5
1AE
330
1A4
100
AcDbEntity
  8
図
 62
     2
100
AcDbMText
 10
699.91406205575
 20
413.2499999701977
 30
0.0
 40
20.0
 41
0.0
 71
     5
 72
     1
  1
%%c6.2
  7
EXCADDIM1
  0
POINT
  5
1AF
330
1A4
100
AcDbEntity
  8
DEFPOINTS
 62
     0
100
AcDbPoint
 10
742.41406205575
 20
461.42853201886
 30
0.0
  0
POINT
  5
1B0
330
1A4
100
AcDbEntity
  8
DEFPOINTS
 62
     0
100
AcDbPoint
 10
748.6140620557499
 20
461.42853201886
 30
0.0
  0
POINT
  5
1B1
330
1A4
100
AcDbEntity
  8
DEFPOINTS
 62
     0
100
AcDbPoint
 10
748.6140620557499
 20
401.5000000000001
 30
0.0
  0
ENDBLK
  5
1A6
330
1A4
100
AcDbEntity
  8
0
100
AcDbBlockEnd
  0
BLOCK
  5
1B5
330
1B4
100
AcDbEntity
  8
0
100
AcDbBlockBegin
  2
*D18
 70
     1
 10
0.0
 20
0.0
 30
0.0
  3
*D18
  1

  0
LINE
  5
1B7
330
1B4
100
AcDbEntity
  8
図
  6
CONTINUOUS
 62
     3
100
AcDbLine
 10
420.9999999403954
 20
574.42853201886
 30
0.0
 11
536.0
 21
574.4285320188599
 31
0.0
  0
LINE
  5
1B8
330
1B4
100
AcDbEntity
  8
図
  6
CONTINUOUS
 62
     3
100
AcDbLine
 10
460.6349853961054
 20
461.42853201886
 30
0.0
 11
536.0
 21
461.4285320188599
 31
0.0
  0
LINE
  5
1B9
330
1B4
100
AcDbEntity
  8
図
  6
CONTINUOUS
 62
     3
100
AcDbLine
 10
531.0
 20
559.4285320188599
 30
0.0
 11
531.0
 21
476.4285320188599
 31
0.0
  0
INSERT
  5
1BA
330
1B4
100
AcDbEntity
  8
図
 62
     3
100
AcDbBlockReference
  2
EX_NORM
 10
531.0
 20
574.4285320188599
 30
0.0
 41
15.0
 42
15.0
 43
15.0
 50
90.0
  0
INSERT
  5
1BB
330
1B4
100
AcDbEntity
  8
図
 62
     3
100
AcDbBlockReference
  2
EX_NORM
 10
531.0
 20
461.4285320188599
 30
0.0
 41
15.0
 42
15.0
 43
15.0
 50
270.0
  0
MTEXT
  5
1BC
330
1B4
100
AcDbEntity
  8
図
 62
     2
100
AcDbMText
 10
519.2500000298023
 20
517.92853201886
 30
0.0
 40
20.0
 41
0.0
 71
     5
 72
     1
  1
113
  7
EXCADDIM1
 11
0.0
 21
1.0
 31
0.0
  0
POINT
  5
1BD
330
1B4
100
AcDbEntity
  8
DEFPOINTS
 62
     0
100
AcDbPoint
 10
417.5
 20
574.42853201886
 30
0.0
  0
POINT
  5
1BE
330
1B4
100
AcDbEntity
  8
DEFPOINTS
 62
     0
100
AcDbPoint
 10
457.13498545571
 20
461.42853201886
 30
0.0
  0
POINT
  5
1BF
330
1B4
100
AcDbEntity
  8
DEFPOINTS
 62
     0
100
AcDbPoint
 10
531.0
 20
461.4285320188599
 30
0.0
  0
ENDBLK
  5
1B6
330
1B4
100
AcDbEntity
  8
0
100
AcDbBlockEnd
  0
BLOCK
  5
1C2
330
1C1
100
AcDbEntity
  8
0
100
AcDbBlockBegin
  2
*D19
 70
     1
 10
0.0
 20
0.0
 30
0.0
  3
*D19
  1

  0
LINE
  5
1C4
330
1C1
100
AcDbEntity
  8
図
  6
CONTINUOUS
 62
     3
100
AcDbLine
 10
827.9499999403954
 20
588.12853201886
 30
0.0
 11
910.0
 21
588.12853201886
 31
0.0
  0
LINE
  5
1C5
330
1C1
100
AcDbEntity
  8
図
  6
CONTINUOUS
 62
     3
100
AcDbLine
 10
827.9499999403954
 20
560.72853201886
 30
0.0
 11
910.0
 21
560.72853201886
 31
0.0
  0
LINE
  5
1C6
330
1C1
100
AcDbEntity
  8
図
  6
CONTINUOUS
 62
     3
100
AcDbLine
 10
905.0
 20
588.12853201886
 30
0.0
 11
905.0
 21
560.72853201886
 31
0.0
  0
LINE
  5
1C7
330
1C1
100
AcDbEntity
  8
図
  6
CONTINUOUS
 62
     3
100
AcDbLine
 10
905.0
 20
603.12853201886
 30
0.0
 11
905.0
 21
618.12853201886
 31
0.0
  0
LINE
  5
1C8
330
1C1
100
AcDbEntity
  8
図
  6
CONTINUOUS
 62
     3
100
AcDbLine
 10
905.0
 20
545.72853201886
 30
0.0
 11
905.0
 21
530.72853201886
 31
0.0
  0
INSERT
  5
1C9
330
1C1
100
AcDbEntity
  8
図
 62
     3
100
AcDbBlockReference
  2
EX_NORM
 10
905.0
 20
588.12853201886
 30
0.0
 41
15.0
 42
15.0
 43
15.0
 50
270.0
  0
INSERT
  5
1CA
330
1C1
100
AcDbEntity
  8
図
 62
     3
100
AcDbBlockReference
  2
EX_NORM
 10
905.0
 20
560.72853201886
 30
0.0
 41
15.0
 42
15.0
 43
15.0
 50
90.0
  0
MTEXT
  5
1CB
330
1C1
100
AcDbEntity
  8
図
 62
     2
100
AcDbMText
 10
893.2500000298024
 20
630.6285320188598
 30
0.0
 40
20.0
 41
0.0
 71
     5
 72
     1
  1
27.4
  7
EXCADDIM1
 11
0.0
 21
1.0
 31
0.0
  0
POINT
  5
1CC
330
1C1
100
AcDbEntity
  8
DEFPOINTS
 62
     0
100
AcDbPoint
 10
824.45
 20
588.12853201886
 30
0.0
  0
POINT
  5
1CD
330
1C1
100
AcDbEntity
  8
DEFPOINTS
 62
     0
100
AcDbPoint
 10
824.45
 20
560.72853201886
 30
0.0
  0
POINT
  5
1CE
330
1C1
100
AcDbEntity
  8
DEFPOINTS
 62
     0
100
AcDbPoint
 10
905.0
 20
560.72853201886
 30
0.0
  0
ENDBLK
  5
1C3
330
1C1
100
AcDbEntity
  8
0
100
AcDbBlockEnd
  0
BLOCK
  5
1D2
330
1D1
100
AcDbEntity
  8
0
100
AcDbBlockBegin
  2
*D20
 70
     1
 10
0.0
 20
0.0
 30
0.0
  3
*D20
  1

  0
LINE
  5
1D4
330
1D1
100
AcDbEntity
  8
図
  6
CONTINUOUS
 62
     3
100
AcDbLine
 10
365.5000000596046
 20
594.62853201886
 30
0.0
 11
213.0
 21
594.62853201886
 31
0.0
  0
LINE
  5
1D5
330
1D1
100
AcDbEntity
  8
図
  6
CONTINUOUS
 62
     3
100
AcDbLine
 10
285.1000000596047
 20
458.32853201886
 30
0.0
 11
213.0
 21
458.32853201886
 31
0.0
  0
LINE
  5
1D6
330
1D1
100
AcDbEntity
  8
図
  6
CONTINUOUS
 62
     3
100
AcDbLine
 10
218.0
 20
579.62853201886
 30
0.0
 11
218.0
 21
473.32853201886
 31
0.0
  0
INSERT
  5
1D7
330
1D1
100
AcDbEntity
  8
図
 62
     3
100
AcDbBlockReference
  2
EX_NORM
 10
218.0
 20
594.62853201886
 30
0.0
 41
15.0
 42
15.0
 43
15.0
 50
90.0
  0
INSERT
  5
1D8
330
1D1
100
AcDbEntity
  8
図
 62
     3
100
AcDbBlockReference
  2
EX_NORM
 10
218.0
 20
458.32853201886
 30
0.0
 41
15.0
 42
15.0
 43
15.0
 50
270.0
  0
MTEXT
  5
1D9
330
1D1
100
AcDbEntity
  8
図
 62
     2
100
AcDbMText
 10
206.2500000298024
 20
526.47853201886
 30
0.0
 40
20.0
 41
0.0
 71
     5
 72
     1
  1
（136.3）
  7
EXCADDIM1
 11
0.0
 21
1.0
 31
0.0
  0
POINT
  5
1DA
330
1D1
100
AcDbEntity
  8
DEFPOINTS
 62
     0
100
AcDbPoint
 10
368.9999999999999
 20
594.62853201886
 30
0.0
  0
POINT
  5
1DB
330
1D1
100
AcDbEntity
  8
DEFPOINTS
 62
     0
100
AcDbPoint
 10
288.6
 20
458.32853201886
 30
0.0
  0
POINT
  5
1DC
330
1D1
100
AcDbEntity
  8
DEFPOINTS
 62
     0
100
AcDbPoint
 10
218.0
 20
458.32853201886
 30
0.0
  0
ENDBLK
  5
1D3
330
1D1
100
AcDbEntity
  8
0
100
AcDbBlockEnd
  0
BLOCK
  5
1E9
330
1E8
100
AcDbEntity
  8
0
100
AcDbBlockBegin
  2
*D21
 70
     1
 10
0.0
 20
0.0
 30
0.0
  3
*D21
  1

  0
LINE
  5
1EB
330
1E8
100
AcDbEntity
  8
図
  6
CONTINUOUS
 62
     3
100
AcDbLine
 10
778.51406205575
 20
598.1285319592554
 30
0.0
 11
778.51406205575
 21
607.05
 31
0.0
  0
LINE
  5
1EC
330
1E8
100
AcDbEntity
  8
図
  6
CONTINUOUS
 62
     3
100
AcDbLine
 10
783.0140620557501
 20
598.1285319592554
 30
0.0
 11
783.0140620557501
 21
607.05
 31
0.0
  0
LINE
  5
1ED
330
1E8
100
AcDbEntity
  8
図
  6
CONTINUOUS
 62
     3
100
AcDbLine
 10
778.51406205575
 20
602.05
 30
0.0
 11
783.0140620557501
 21
602.05
 31
0.0
  0
LINE
  5
1EE
330
1E8
100
AcDbEntity
  8
図
  6
CONTINUOUS
 62
     3
100
AcDbLine
 10
763.51406205575
 20
602.05
 30
0.0
 11
748.51406205575
 21
602.05
 31
0.0
  0
LINE
  5
1EF
330
1E8
100
AcDbEntity
  8
図
  6
CONTINUOUS
 62
     3
100
AcDbLine
 10
798.0140620557501
 20
602.05
 30
0.0
 11
813.0140620557501
 21
602.05
 31
0.0
  0
INSERT
  5
1F0
330
1E8
100
AcDbEntity
  8
図
 62
     3
100
AcDbBlockReference
  2
EX_NORM
 10
778.51406205575
 20
602.05
 30
0.0
 41
15.0
 42
15.0
 43
15.0
  0
INSERT
  5
1F1
330
1E8
100
AcDbEntity
  8
図
 62
     3
100
AcDbBlockReference
  2
EX_NORM
 10
783.0140620557501
 20
602.05
 30
0.0
 41
15.0
 42
15.0
 43
15.0
 50
180.0
  0
MTEXT
  5
1F2
330
1E8
100
AcDbEntity
  8
図
 62
     2
100
AcDbMText
 10
818.0140620557501
 20
613.7999999701976
 30
0.0
 40
20.0
 41
0.0
 71
     5
 72
     1
  1
4.5
  7
EXCADDIM1
  0
POINT
  5
1F3
330
1E8
100
AcDbEntity
  8
DEFPOINTS
 62
     0
100
AcDbPoint
 10
778.51406205575
 20
594.62853201886
 30
0.0
  0
POINT
  5
1F4
330
1E8
100
AcDbEntity
  8
DEFPOINTS
 62
     0
100
AcDbPoint
 10
783.0140620557501
 20
594.62853201886
 30
0.0
  0
POINT
  5
1F5
330
1E8
100
AcDbEntity
  8
DEFPOINTS
 62
     0
100
AcDbPoint
 10
783.0140620557501
 20
602.05
 30
0.0
  0
ENDBLK
  5
1EA
330
1E8
100
AcDbEntity
  8
0
100
AcDbBlockEnd
  0
BLOCK
  5
289
330
288
100
AcDbEntity
  8
0
100
AcDbBlockBegin
  2
*D22
 70
     1
 10
0.0
 20
0.0
 30
0.0
  3
*D22
  1

  0
LINE
  5
28B
330
288
100
AcDbEntity
  8
図
  6
CONTINUOUS
 62
     3
100
AcDbLine
 10
384.0255407556602
 20
596.8035320188596
 30
0.0
 11
397.0159218124269
 21
604.3035320188593
 31
0.0
  0
LINE
  5
28C
330
288
100
AcDbEntity
  8
図
  6
CONTINUOUS
 62
     3
100
AcDbLine
 10
353.9744592443398
 20
579.4535320188604
 30
0.0
 11
340.984078187573
 21
571.9535320188608
 31
0.0
  0
MTEXT
  5
28D
330
288
100
AcDbEntity
  8
図
 62
     2
100
AcDbMText
 10
401.9662393746339
 20
620.7293304875168
 30
0.0
 40
20.0
 41
0.0
 71
     5
 72
     1
  1
%%c4.7
  7
EXCADDIM1
 11
0.8660254037844508
 21
0.499999999999979
 31
0.0
  0
LINE
  5
28E
330
288
100
AcDbEntity
  8
図
  6
CONTINUOUS
 62
     3
100
AcDbLine
 10
366.9648403011065
 20
586.9535320188601
 30
0.0
 11
371.0351596988934
 21
589.30353201886
 31
0.0
  0
INSERT
  5
28F
330
288
100
AcDbEntity
  8
図
 62
     3
100
AcDbBlockReference
  2
EX_NORM
 10
366.9648403011065
 20
586.9535320188601
 30
0.0
 41
15.0
 42
15.0
 43
15.0
 50
29.99999999999861
  0
INSERT
  5
290
330
288
100
AcDbEntity
  8
図
 62
     3
100
AcDbBlockReference
  2
EX_NORM
 10
371.0351596988934
 20
589.30353201886
 30
0.0
 41
15.0
 42
15.0
 43
15.0
 50
209.9999999999986
  0
POINT
  5
291
330
288
100
AcDbEntity
  8
DEFPOINTS
 62
     0
100
AcDbPoint
 10
371.0351596988934
 20
589.30353201886
 30
0.0
  0
POINT
  5
292
330
288
100
AcDbEntity
  8
DEFPOINTS
 62
     0
100
AcDbPoint
 10
366.9648403011065
 20
586.9535320188601
 30
0.0
  0
ENDBLK
  5
28A
330
288
100
AcDbEntity
  8
0
100
AcDbBlockEnd
  0
BLOCK
  5
29F
330
29E
100
AcDbEntity
  8
0
100
AcDbBlockBegin
  2
*D23
 70
     1
 10
0.0
 20
0.0
 30
0.0
  3
*D23
  1

  0
LINE
  5
2A1
330
29E
100
AcDbEntity
  8
図
  6
CONTINUOUS
 62
     3
100
AcDbLine
 10
348.8
 20
930.4999999403954
 30
0.0
 11
348.8
 21
997.4000000000001
 31
0.0
  0
LINE
  5
2A2
330
29E
100
AcDbEntity
  8
図
  6
CONTINUOUS
 62
     3
100
AcDbLine
 10
389.2
 20
930.4999999403954
 30
0.0
 11
389.2
 21
997.4000000000001
 31
0.0
  0
LINE
  5
2A3
330
29E
100
AcDbEntity
  8
図
  6
CONTINUOUS
 62
     3
100
AcDbLine
 10
363.8
 20
992.4000000000001
 30
0.0
 11
374.2
 21
992.4000000000001
 31
0.0
  0
INSERT
  5
2A4
330
29E
100
AcDbEntity
  8
図
 62
     3
100
AcDbBlockReference
  2
EX_NORM
 10
348.8
 20
992.4000000000001
 30
0.0
 41
15.0
 42
15.0
 43
15.0
 50
180.0
  0
INSERT
  5
2A5
330
29E
100
AcDbEntity
  8
図
 62
     3
100
AcDbBlockReference
  2
EX_NORM
 10
389.2
 20
992.4000000000001
 30
0.0
 41
15.0
 42
15.0
 43
15.0
  0
MTEXT
  5
2A6
330
29E
100
AcDbEntity
  8
図
 62
     2
100
AcDbMText
 10
369.0000000000001
 20
1004.149999970198
 30
0.0
 40
20.0
 41
0.0
 71
     5
 72
     1
  1
%%c40
  7
EXCADDIM1
  0
POINT
  5
2A7
330
29E
100
AcDbEntity
  8
DEFPOINTS
 62
     0
100
AcDbPoint
 10
348.8
 20
927.0
 30
0.0
  0
POINT
  5
2A8
330
29E
100
AcDbEntity
  8
DEFPOINTS
 62
     0
100
AcDbPoint
 10
389.2
 20
927.0
 30
0.0
  0
POINT
  5
2A9
330
29E
100
AcDbEntity
  8
DEFPOINTS
 62
     0
100
AcDbPoint
 10
389.2
 20
992.4000000000001
 30
0.0
  0
ENDBLK
  5
2A0
330
29E
100
AcDbEntity
  8
0
100
AcDbBlockEnd
  0
ENDSEC
  0
SECTION
  2
ENTITIES
  0
TEXT
  5
A9
330
1F
100
AcDbEntity
  8
0
  6
CONTINUOUS
 62
     2
100
AcDbText
 10
458.0000000000015
 20
58.25000000000017
 30
0.0
 40
16.875
  1
ジャニス工業株式会社
 41
1.025641025641026
  7
EXCADTTF1
 72
     5
 11
683.0000000000015
 21
58.25000000000017
 31
0.0
100
AcDbText
  0
HATCH
  5
AA
330
1F
100
AcDbEntity
  8
0
  6
CONTINUOUS
 62
     3
100
AcDbHatch
 10
0.0
 20
0.0
 30
0.0
210
0.0
220
0.0
230
1.0
  2
SOLID
 70
     1
 71
     1
 91
        2
 92
        3
 72
     1
 73
     1
 93
       27
 10
396.5863828666252
 20
75.68224664877047
 42
-0.1769427732109284
 10
396.5863828666252
 20
75.6822466487705
 42
0.0
 10
396.5863828666252
 20
73.8597466487704
 42
0.0
 10
397.0251328666255
 20
73.85974664877021
 42
-0.207533601427307
 10
399.8737113947851
 20
75.9966179564524
 42
-0.1226604740888933
 10
402.3913828666255
 20
76.05012164877039
 42
-0.3213715781137954
 10
404.9941640111046
 20
72.85532571892378
 42
-0.064704004662446
 10
405.0070078666247
 20
71.16649664877029
 42
-0.257798906330806
 10
404.4771328666253
 20
70.52524664877029
 42
-0.056602577721096
 10
403.3431328666251
 20
70.13037164877048
 42
-0.0166741689362636
 10
399.1851328666253
 20
69.34062164877037
 42
0.1186092302783404
 10
396.4412578666253
 20
68.02437164877033
 42
0.1699204224386695
 10
395.2465078666251
 20
66.02637164877028
 42
0.1006533494296199
 10
395.1360433397908
 20
64.29267775478637
 42
0.1675695228968024
 10
396.2185078666253
 20
61.96962164877034
 42
0.1376980079804242
 10
398.1861328666251
 20
60.83224664877045
 42
0.0719813663796923
 10
399.0805078666247
 20
60.68374664877041
 42
0.0
 10
400.4507578666252
 20
60.68374664877045
 42
0.1944607457809085
 10
404.9968828666253
 20
63.02262164877035
 42
0.1288538183665954
 10
405.4558828666248
 20
61.8751216487702
 42
0.2098387395261546
 10
406.9543828666249
 20
61.04824664877043
 42
0.0
 10
408.0411328666252
 20
61.04149664877047
 42
0.0945009641609563
 10
409.6105078666253
 20
61.37562164877039
 42
0.0
 10
409.6105078666251
 20
62.16199664877033
 42
-0.2395739894657535
 10
408.2402578666255
 20
62.14849664877023
 42
-0.2502312110031057
 10
407.5652578666248
 20
63.41749664877072
 42
-0.0104343570771765
 10
407.6563828666251
 20
72.88099664877032
 42
0.4051015674140716
 97
        0
 92
        3
 72
     1
 73
     1
 93
        8
 10
405.067757866625
 20
69.51274664877029
 42
-0.0339435190873666
 10
405.0677578666273
 20
69.51274664876468
 42
-0.0001110072973599
 10
404.9260078666256
 20
64.34224664877024
 42
-0.2253076310552528
 10
401.382257866625
 20
61.97637164877051
 42
0.0
 10
400.5148828666247
 20
61.97637164877049
 42
-0.3657967558150132
 10
397.9363828666251
 20
64.7168716487704
 42
0.0
 10
397.9363828666255
 20
65.69562164877043
 42
-0.2530797830369341
 10
399.6778828666252
 20
68.1053716487703
 42
-0.0724473624720066
 97
        0
 75
     0
 76
     1
 98
        1
 10
0.0
 20
0.0
  0
HATCH
  5
AB
330
1F
100
AcDbEntity
  8
0
  6
CONTINUOUS
 62
     3
100
AcDbHatch
 10
0.0
 20
0.0
 30
0.0
210
0.0
220
0.0
230
1.0
  2
SOLID
 70
     1
 71
     1
 91
        1
 92
        3
 72
     1
 73
     1
 93
       30
 10
450.367007866625
 20
76.66774664877062
 42
-0.0009362235736497
 10
450.3670078666251
 20
76.66774664877036
 42
0.0681165430304653
 10
449.5485467433659
 20
74.2141216487704
 42
0.0
 10
446.4655078666254
 20
76.32349664877044
 42
-0.302112590907374
 10
446.4655078666252
 20
76.3234966487704
 42
0.0
 10
443.3571328666252
 20
73.94074664877039
 42
-0.3704245237568778
 10
443.3571328666247
 20
73.94074664877024
 42
0.0
 10
443.5191328666248
 20
72.34774664877037
 42
-0.0262822419456939
 10
445.4361328666254
 20
70.81549664877025
 42
-0.180060563604375
 10
448.4938828666254
 20
69.88399664877045
 42
-0.0298130817160724
 10
448.4938828666252
 20
69.88399664877028
 42
-0.3153987453686078
 10
451.312007866625
 20
66.66087164877041
 42
0.0
 10
451.2951328666253
 20
65.21974664877024
 42
-0.3510306079065168
 10
445.8613828666248
 20
60.66349664877038
 42
0.0
 10
444.275132866625
 20
60.66349664877026
 42
-0.1053356344842436
 10
440.765132866625
 20
61.67599664877039
 42
0.1188608286962634
 10
441.4063828666249
 20
64.24099664877048
 42
0.0
 10
445.2538828666254
 20
61.87849664877042
 42
-0.2447573632916039
 10
445.2538828666249
 20
61.87849664877035
 42
0.0
 10
448.9663828666254
 20
64.47724664877043
 42
-0.3734162676407277
 10
448.9663828666252
 20
64.47724664877029
 42
0.0
 10
447.6197578666252
 20
67.07262164877045
 42
-0.261219770190848
 10
444.477632866625
 20
68.21337164877046
 42
-0.0572747914118363
 10
444.4776328666255
 20
68.21337164877039
 42
-0.1189658875692221
 10
441.9801328666249
 20
69.67812164877043
 42
-0.2005226878639636
 10
440.9338828666247
 20
72.03724664878138
 42
0.0
 10
440.9170078666253
 20
72.93162164877023
 42
-0.2622894489606957
 10
443.6001328666252
 20
77.03224664877047
 42
-0.0988461274137808
 10
446.1111328666252
 20
77.63637164877025
 42
0.0
 10
447.0426328666248
 20
77.63637164877044
 42
-0.0920156312561188
 97
        0
 75
     0
 76
     1
 98
        1
 10
0.0
 20
0.0
  0
ARC
  5
AC
330
1F
100
AcDbEntity
  8
0
  6
CONTINUOUS
 62
     3
100
AcDbCircle
 10
458.9212405344355
 20
72.45097187537482
 30
0.0
 40
9.537090018689154
100
AcDbArc
 50
153.7591918158497
 51
169.3462759801917
  0
LINE
  5
AD
330
1F
100
AcDbEntity
  8
0
  6
CONTINUOUS
 62
     3
100
AcDbLine
 10
449.1216328666249
 20
74.2141216487704
 30
0.0
 11
449.5485467433659
 21
74.2141216487704
 31
0.0
  0
LINE
  5
AE
330
1F
100
AcDbEntity
  8
0
  6
CONTINUOUS
 62
     3
100
AcDbLine
 10
445.9187578666248
 20
76.30999664877038
 30
0.0
 11
446.4655078666252
 21
76.3234966487704
 31
0.0
  0
LINE
  5
AF
330
1F
100
AcDbEntity
  8
0
  6
CONTINUOUS
 62
     3
100
AcDbLine
 10
440.9170078666253
 20
72.93162164877032
 30
0.0
 11
440.9338828666247
 21
72.03724664878138
 31
0.0
  0
LINE
  5
B0
330
1F
100
AcDbEntity
  8
0
  6
CONTINUOUS
 62
     3
100
AcDbLine
 10
443.3571328666247
 20
73.94074664877024
 30
0.0
 11
443.3098828666252
 21
73.05649664877023
 31
0.0
  0
LINE
  5
B1
330
1F
100
AcDbEntity
  8
0
  6
CONTINUOUS
 62
     3
100
AcDbLine
 10
451.312007866625
 20
66.66087164877041
 30
0.0
 11
451.295132866625
 21
65.21974664877035
 31
0.0
  0
LINE
  5
B2
330
1F
100
AcDbEntity
  8
0
  6
CONTINUOUS
 62
     3
100
AcDbLine
 10
448.9326328666252
 20
65.25349664877041
 30
0.0
 11
448.9663828666252
 21
64.47724664877029
 31
0.0
  0
ARC
  5
B3
330
1F
100
AcDbEntity
  8
0
  6
CONTINUOUS
 62
     3
100
AcDbCircle
 10
435.7672065660469
 20
64.28898797825013
 30
0.0
 40
5.63976870039419
100
AcDbArc
 50
332.3987521421788
 51
359.5124385477116
  0
LINE
  5
B4
330
1F
100
AcDbEntity
  8
0
  6
CONTINUOUS
 62
     3
100
AcDbLine
 10
396.5863828666252
 20
73.8597466487704
 30
0.0
 11
397.0251328666254
 21
73.8597466487704
 31
0.0
  0
HATCH
  5
B5
330
1F
100
AcDbEntity
  8
0
  6
CONTINUOUS
 62
     3
100
AcDbHatch
 10
0.0
 20
0.0
 30
0.0
210
0.0
220
0.0
230
1.0
  2
SOLID
 70
     1
 71
     1
 91
        2
 92
        1
 93
        1
 72
     2
 10
434.6427570191676
 20
83.29177334368552
 40
1.786167233384942
 50
0.0
 51
360.0
 73
     1
 97
        0
 92
        3
 72
     1
 73
     1
 93
        3
 10
433.0465078666251
 20
77.34949664877033
 42
0.1200283885712921
 10
436.1515078666251
 20
61.03137164877016
 42
-0.0401820615762149
 10
433.0498828666251
 20
61.02124664877036
 42
-0.0237521668114666
 97
        0
 75
     0
 76
     1
 98
        1
 10
0.0
 20
0.0
  0
HATCH
  5
B6
330
1F
100
AcDbEntity
  8
0
  6
CONTINUOUS
 62
     3
100
AcDbHatch
 10
0.0
 20
0.0
 30
0.0
210
0.0
220
0.0
230
1.0
  2
SOLID
 70
     1
 71
     1
 91
        1
 92
        3
 72
     1
 73
     1
 93
       16
 10
413.434382866625
 20
61.05162164877028
 42
-0.0386228372648426
 10
413.404007866625
 20
77.32249664877033
 42
-0.0398707891902887
 10
416.3571328666248
 20
77.33599664877043
 42
-0.1256886216044368
 10
416.2221328666251
 20
74.57524664877036
 42
-0.0367815758121429
 10
416.2221328666251
 20
74.57524664877025
 42
-0.268021535028829
 10
422.1790078666249
 20
77.66674664877036
 42
-0.2571134422124888
 10
426.252632866625
 20
75.65187164877051
 42
-0.1522526366014298
 10
427.2887578666253
 20
72.30049664877032
 42
-0.0158825412051521
 10
427.2145078666248
 20
61.03474664877032
 42
-0.0285251271418421
 10
424.3626328666252
 20
61.0347466487703
 42
-0.0452212723224612
 10
424.5077578666253
 20
71.44324664877047
 42
-0.0315567291532142
 10
423.6235078666249
 20
74.51787164877044
 42
-0.1476272403790709
 10
417.865757866625
 20
74.95999664877027
 42
-0.3908144705745794
 10
416.2423828666252
 20
70.92012164877023
 42
-0.2046259928850854
 10
416.2423828666252
 20
70.92012164877048
 42
0.0
 10
416.4955078666251
 20
61.02462164877039
 42
-0.0304995761723369
 97
        0
 75
     0
 76
     1
 98
        1
 10
0.0
 20
0.0
  0
HATCH
  5
B7
330
1F
100
AcDbEntity
  8
0
  6
CONTINUOUS
 62
     3
100
AcDbHatch
 10
0.0
 20
0.0
 30
0.0
210
0.0
220
0.0
230
1.0
  2
SOLID
 70
     1
 71
     1
 91
        1
 92
        3
 72
     1
 73
     1
 93
       10
 10
383.8626328666253
 20
61.60849664877028
 42
-0.017362223501556
 10
383.906507866625
 20
88.09212164877052
 42
-0.0267627618865285
 10
383.9065078666252
 20
88.09212164877039
 42
0.0737939047395297
 10
390.3662578666253
 20
88.11912164877
 42
0.0183878899657109
 10
390.1063828666252
 20
64.24099664877026
 42
-0.1144749489451909
 10
389.0601328666248
 20
59.21224664877023
 42
-0.1929163439413163
 10
384.0820078666253
 20
55.30399664877024
 42
-0.0603888289562337
 10
381.4427578666252
 20
54.64587164877031
 42
0.0
 10
380.8251328666251
 20
56.52574664877028
 42
0.0860918333465722
 10
382.6712578666251
 20
57.5078716487703
 42
0.1331843103855141
 97
        0
 75
     0
 76
     1
 98
        1
 10
0.0
 20
0.0
  0
LINE
  5
B8
330
1F
100
AcDbEntity
  8
0
  6
CONTINUOUS
 62
     3
100
AcDbLine
 10
444.275132866625
 20
60.66349664877038
 30
0.0
 11
445.8613828666248
 21
60.66349664877038
 31
0.0
  0
LINE
  5
B9
330
1F
100
AcDbEntity
  8
0
  6
CONTINUOUS
 62
     3
100
AcDbLine
 10
441.8451328666251
 20
64.24099664877048
 30
0.0
 11
441.4063828666249
 21
64.24099664877048
 31
0.0
  0
LINE
  5
BA
330
1F
100
AcDbEntity
  8
0
  6
CONTINUOUS
 62
     3
100
AcDbLine
 10
445.2538828666249
 20
61.87849664877035
 30
0.0
 11
446.0638828666251
 21
61.87849664877035
 31
0.0
  0
LINE
  5
BB
330
1F
100
AcDbEntity
  8
0
  6
CONTINUOUS
 62
     3
100
AcDbLine
 10
447.042632866625
 20
77.63637164877025
 30
0.0
 11
446.1111328666252
 21
77.63637164877025
 31
0.0
  0
ARC
  5
BC
330
1F
100
AcDbEntity
  8
0
  6
CONTINUOUS
 62
     3
100
AcDbCircle
 10
446.2073669563753
 20
73.27146181458346
 30
0.0
 40
3.062932150511265
100
AcDbArc
 50
17.92452211681263
 51
85.16543319077402
  0
ARC
  5
BD
330
1F
100
AcDbEntity
  8
0
  6
CONTINUOUS
 62
     3
100
AcDbCircle
 10
446.0175482430267
 20
73.63374973539607
 30
0.0
 40
2.678069655519655
100
AcDbArc
 50
92.11404364449162
 51
173.4175047026091
  0
ARC
  5
BE
330
1F
100
AcDbEntity
  8
0
  6
CONTINUOUS
 62
     3
100
AcDbCircle
 10
450.1515703666311
 20
74.69115914877221
 30
0.0
 40
7.034259686467
100
AcDbArc
 50
193.4375782160214
 51
199.459638038058
  0
ARC
  5
BF
330
1F
100
AcDbEntity
  8
0
  6
CONTINUOUS
 62
     3
100
AcDbCircle
 10
446.5360676193725
 20
74.15693208833062
 30
0.0
 40
3.51781853668592
100
AcDbArc
 50
210.9501336849607
 51
251.7794729821079
  0
ARC
  5
C0
330
1F
100
AcDbEntity
  8
0
  6
CONTINUOUS
 62
     3
100
AcDbCircle
 10
454.769233484603
 20
95.9679655251756
 30
0.0
 40
26.8282212925834
100
AcDbArc
 50
249.6420733479936
 51
256.4727051201885
  0
ARC
  5
C1
330
1F
100
AcDbEntity
  8
0
  6
CONTINUOUS
 62
     3
100
AcDbCircle
 10
447.6022860645978
 20
66.26086292657874
 30
0.0
 40
3.73122537864803
100
AcDbArc
 50
6.154262763177246
 51
76.17509904255616
  0
ARC
  5
C2
330
1F
100
AcDbEntity
  8
0
  6
CONTINUOUS
 62
     3
100
AcDbCircle
 10
445.733194323378
 20
66.33462335590224
 30
0.0
 40
5.672575290903224
100
AcDbArc
 50
271.2948770866743
 51
348.6654156292868
  0
ARC
  5
C3
330
1F
100
AcDbEntity
  8
0
  6
CONTINUOUS
 62
     3
100
AcDbCircle
 10
444.8965027296387
 20
69.40782884055125
 30
0.0
 40
8.766381578900099
100
AcDbArc
 50
241.8829576087176
 51
265.9354096935781
  0
ARC
  5
C4
330
1F
100
AcDbEntity
  8
0
  6
CONTINUOUS
 62
     3
100
AcDbCircle
 10
445.8180521617433
 20
66.33293198886918
 30
0.0
 40
4.490020177312635
100
AcDbArc
 50
207.7689879465537
 51
262.7817283832026
  0
ARC
  5
C5
330
1F
100
AcDbEntity
  8
0
  6
CONTINUOUS
 62
     3
100
AcDbCircle
 10
446.0178888723257
 20
64.85011818785836
 30
0.0
 40
2.97197745938338
100
AcDbArc
 50
270.8867385422408
 51
352.7925382056677
  0
ARC
  5
C6
330
1F
100
AcDbEntity
  8
0
  6
CONTINUOUS
 62
     3
100
AcDbCircle
 10
446.6540022926833
 20
64.99231127165842
 30
0.0
 40
2.29355076109507
100
AcDbArc
 50
6.53892419415897
 51
65.09756080693691
  0
ARC
  5
C7
330
1F
100
AcDbEntity
  8
0
  6
CONTINUOUS
 62
     3
100
AcDbCircle
 10
441.0857445915215
 20
53.97285708776053
 30
0.0
 40
14.63889206986377
100
AcDbArc
 50
63.49050203733571
 51
76.60259219849584
  0
ARC
  5
C8
330
1F
100
AcDbEntity
  8
0
  6
CONTINUOUS
 62
     3
100
AcDbCircle
 10
446.2634072899752
 20
74.11982055033434
 30
0.0
 40
6.170504753897835
100
AcDbArc
 50
226.0402388947521
 51
253.1776672992999
  0
ARC
  5
C9
330
1F
100
AcDbEntity
  8
0
  6
CONTINUOUS
 62
     3
100
AcDbCircle
 10
444.2799628962999
 20
72.10963845377648
 30
0.0
 40
3.346863029528055
100
AcDbArc
 50
181.2393899443581
 51
226.5942921332421
  0
ARC
  5
CA
330
1F
100
AcDbEntity
  8
0
  6
CONTINUOUS
 62
     3
100
AcDbCircle
 10
445.8981748399808
 20
72.60046455509325
 30
0.0
 40
4.99216280154595
100
AcDbArc
 50
117.4083995939977
 51
176.1964688215695
  0
ARC
  5
CB
330
1F
100
AcDbEntity
  8
0
  6
CONTINUOUS
 62
     3
100
AcDbCircle
 10
446.3855522141952
 20
71.04895489688062
 30
0.0
 40
6.599874326837624
100
AcDbArc
 50
92.38301574576484
 51
114.9635286746436
  0
ARC
  5
CC
330
1F
100
AcDbEntity
  8
0
  6
CONTINUOUS
 62
     3
100
AcDbCircle
 10
446.9271414230283
 20
72.58315191819776
 30
0.0
 40
5.054539337960785
100
AcDbArc
 50
67.66151957087348
 51
88.69073168448988
  0
ARC
  5
CD
330
1F
100
AcDbEntity
  8
0
  6
CONTINUOUS
 62
     3
100
AcDbCircle
 10
607.3222266164074
 20
482.5148716482101
 30
0.0
 40
435.1400114481578
100
AcDbArc
 50
248.6422112053103
 51
248.8567777804232
  0
ARC
  5
CE
330
1F
100
AcDbEntity
  8
0
  6
CONTINUOUS
 62
     3
100
AcDbCircle
 10
322.3450287681933
 20
69.1624896383118
 30
0.0
 40
111.0038042517906
100
AcDbArc
 50
355.7940354718673
 51
4.229650257234378
  0
ARC
  5
CF
330
1F
100
AcDbEntity
  8
0
  6
CONTINUOUS
 62
     3
100
AcDbCircle
 10
537.6270235897786
 20
69.09405028696938
 30
0.0
 40
101.79531952945
100
AcDbArc
 50
175.3387608397566
 51
184.5428594926176
  0
ARC
  5
D0
330
1F
100
AcDbEntity
  8
0
  6
CONTINUOUS
 62
     3
100
AcDbCircle
 10
434.7072044685669
 20
28.39902092061664
 30
0.0
 40
32.66429742625544
100
AcDbArc
 50
87.46575055044718
 51
92.90832285102188
  0
ARC
  5
D1
330
1F
100
AcDbEntity
  8
0
  6
CONTINUOUS
 62
     3
100
AcDbCircle
 10
434.5728038013866
 20
83.76662371790388
 30
0.0
 40
6.596142744201035
100
AcDbArc
 50
256.6209501743446
 51
283.9984576255729
  0
CIRCLE
  5
D2
330
1F
100
AcDbEntity
  8
0
  6
CONTINUOUS
 62
     3
100
AcDbCircle
 10
434.6427570191676
 20
83.29177334368552
 30
0.0
 40
1.786167233384945
  0
LINE
  5
D3
330
1F
100
AcDbEntity
  8
0
  6
CONTINUOUS
 62
     3
100
AcDbLine
 10
416.2423828666252
 20
70.92012164877048
 30
0.0
 11
416.2423828666252
 21
65.52349664877028
 31
0.0
  0
ARC
  5
D4
330
1F
100
AcDbEntity
  8
0
  6
CONTINUOUS
 62
     3
100
AcDbCircle
 10
311.5588494335796
 20
68.99690293358731
 30
0.0
 40
102.1848903065536
100
AcDbArc
 50
355.5405243117485
 51
4.673398698656258
  0
ARC
  5
D5
330
1F
100
AcDbEntity
  8
0
  6
CONTINUOUS
 62
     3
100
AcDbCircle
 10
414.8541424930616
 20
83.1103439907244
 30
0.0
 40
5.966746792730079
100
AcDbArc
 50
255.9341994177206
 51
284.5896440601899
  0
ARC
  5
D6
330
1F
100
AcDbEntity
  8
0
  6
CONTINUOUS
 62
     3
100
AcDbCircle
 10
435.0287363698081
 20
75.03928406915264
 30
0.0
 40
18.8123275022909
100
AcDbArc
 50
172.9875214416311
 51
181.4134392789641
  0
ARC
  5
D7
330
1F
100
AcDbEntity
  8
0
  6
CONTINUOUS
 62
     3
100
AcDbCircle
 10
421.8770534501274
 20
70.96379944093002
 30
0.0
 40
6.709744983286299
100
AcDbArc
 50
87.42068310381028
 51
147.4361518966862
  0
ARC
  5
D8
330
1F
100
AcDbEntity
  8
0
  6
CONTINUOUS
 62
     3
100
AcDbCircle
 10
422.3862028706881
 20
72.96023323989971
 30
0.0
 40
4.7110718777777
100
AcDbArc
 50
34.84393737091607
 51
92.5207065423111
  0
ARC
  5
D9
330
1F
100
AcDbEntity
  8
0
  6
CONTINUOUS
 62
     3
100
AcDbCircle
 10
421.3952757672413
 20
72.31429712257636
 30
0.0
 40
5.89349825730295
100
AcDbArc
 50
359.8658335690532
 51
34.49363429411157
  0
ARC
  5
DA
330
1F
100
AcDbEntity
  8
0
  6
CONTINUOUS
 62
     3
100
AcDbCircle
 10
396.5956800605031
 20
71.16578874060707
 30
0.0
 40
30.71404543933479
100
AcDbArc
 50
358.4775281223095
 51
2.117232414210064
  0
ARC
  5
DB
330
1F
100
AcDbEntity
  8
0
  6
CONTINUOUS
 62
     3
100
AcDbCircle
 10
508.8288168308489
 20
64.95336873695663
 30
0.0
 40
81.70832899269108
100
AcDbArc
 50
176.2131780319488
 51
182.7488833337936
  0
ARC
  5
DC
330
1F
100
AcDbEntity
  8
0
  6
CONTINUOUS
 62
     3
100
AcDbCircle
 10
425.7885703666253
 20
45.30076309613889
 30
0.0
 40
15.79846626063372
100
AcDbArc
 50
84.82155189294139
 51
95.17844810705873
  0
ARC
  5
DD
330
1F
100
AcDbEntity
  8
0
  6
CONTINUOUS
 62
     3
100
AcDbCircle
 10
342.0586689324873
 20
67.38756689412327
 30
0.0
 40
82.5487783334294
100
AcDbArc
 50
355.5862454873798
 51
2.816115806820253
  0
ARC
  5
DE
330
1F
100
AcDbEntity
  8
0
  6
CONTINUOUS
 62
     3
100
AcDbCircle
 10
418.9723702284263
 20
71.51575694107777
 30
0.0
 40
5.53586253872077
100
AcDbArc
 50
359.2495022237244
 51
32.84055016678327
  0
ARC
  5
DF
330
1F
100
AcDbEntity
  8
0
  6
CONTINUOUS
 62
     3
100
AcDbCircle
 10
420.5050072602765
 20
71.61831365693445
 30
0.0
 40
4.258225285235015
100
AcDbArc
 50
42.91644474042847
 51
128.3015542351336
  0
ARC
  5
E0
330
1F
100
AcDbEntity
  8
0
  6
CONTINUOUS
 62
     3
100
AcDbCircle
 10
421.7830861183202
 20
71.0397612569028
 30
0.0
 40
5.541994781590654
100
AcDbArc
 50
134.9787476233347
 51
181.2369872983282
  0
ARC
  5
E1
330
1F
100
AcDbEntity
  8
0
  6
CONTINUOUS
 62
     3
100
AcDbCircle
 10
453.2044289475519
 20
65.45750735049069
 30
0.0
 40
36.97560496557463
100
AcDbArc
 50
179.8977458165987
 51
186.8855675734268
  0
ARC
  5
E2
330
1F
100
AcDbEntity
  8
0
  6
CONTINUOUS
 62
     3
100
AcDbCircle
 10
414.7904390034657
 20
41.25346272558545
 30
0.0
 40
19.84454547209248
100
AcDbArc
 50
85.07099551674689
 51
93.91830029343228
  0
ARC
  5
E3
330
1F
100
AcDbEntity
  8
0
  6
CONTINUOUS
 62
     3
100
AcDbCircle
 10
-11239.50771108867
 20
386.1632622793915
 30
0.0
 40
11648.88000630296
100
AcDbArc
 50
358.4169008257799
 51
358.4423418242109
  0
ARC
  5
E4
330
1F
100
AcDbEntity
  8
0
  6
CONTINUOUS
 62
     3
100
AcDbCircle
 10
400.6622345382962
 20
66.89182447651035
 30
0.0
 40
4.967908019989579
100
AcDbArc
 50
278.3335103000368
 51
329.1221464187299
  0
LINE
  5
E5
330
1F
100
AcDbEntity
  8
0
  6
CONTINUOUS
 62
     3
100
AcDbLine
 10
400.5148828666248
 20
61.97637164877051
 30
0.0
 11
401.382257866625
 21
61.97637164877051
 31
0.0
  0
ARC
  5
E6
330
1F
100
AcDbEntity
  8
0
  6
CONTINUOUS
 62
     3
100
AcDbCircle
 10
400.8479826744369
 20
64.87306900488932
 30
0.0
 40
2.915786524234985
100
AcDbArc
 50
183.0707787095794
 51
263.4402016072427
  0
LINE
  5
E7
330
1F
100
AcDbEntity
  8
0
  6
CONTINUOUS
 62
     3
100
AcDbLine
 10
397.9363828666251
 20
65.69562164877027
 30
0.0
 11
397.9363828666251
 21
64.7168716487704
 31
0.0
  0
ARC
  5
E8
330
1F
100
AcDbEntity
  8
0
  6
CONTINUOUS
 62
     3
100
AcDbCircle
 10
401.0350933418923
 20
65.29037395235918
 30
0.0
 40
3.125097167285265
100
AcDbArc
 50
115.7403688633493
 51
172.5491744442191
  0
ARC
  5
E9
330
1F
100
AcDbEntity
  8
0
  6
CONTINUOUS
 62
     3
100
AcDbCircle
 10
403.7830325878852
 20
59.41594313339891
 30
0.0
 40
9.610328930776038
100
AcDbArc
 50
98.71271710191789
 51
115.2874718053599
  0
ARC
  5
EA
330
1F
100
AcDbEntity
  8
0
  6
CONTINUOUS
 62
     3
100
AcDbCircle
 10
399.3028049676863
 20
89.37506905802536
 30
0.0
 40
20.68203407347008
100
AcDbArc
 50
278.4088456599976
 51
286.1851416003176
  0
ARC
  5
EB
330
1F
100
AcDbEntity
  8
0
  6
CONTINUOUS
 62
     3
100
AcDbCircle
 10
387.0454100061139
 20
109.8708785261113
 30
0.0
 40
22.00379416745233
100
AcDbArc
 50
261.7986203004403
 51
278.6803384946418
  0
ARC
  5
EC
330
1F
100
AcDbEntity
  8
0
  6
CONTINUOUS
 62
     3
100
AcDbCircle
 10
714.7712657067174
 20
72.64801804754228
 30
0.0
 40
324.7737122341802
100
AcDbArc
 50
177.2695926307304
 51
181.4833117237826
  0
ARC
  5
ED
330
1F
100
AcDbEntity
  8
0
  6
CONTINUOUS
 62
     3
100
AcDbCircle
 10
378.7449680895307
 20
63.9815678440047
 30
0.0
 40
11.36437631557155
100
AcDbArc
 50
335.1860595856123
 51
1.308075913059364
  0
ARC
  5
EE
330
1F
100
AcDbEntity
  8
0
  6
CONTINUOUS
 62
     3
100
AcDbCircle
 10
381.6948663942739
 20
63.46917593134151
 30
0.0
 40
8.506973440980575
100
AcDbArc
 50
286.2966123578915
 51
329.973223283839
  0
ARC
  5
EF
330
1F
100
AcDbEntity
  8
0
  6
CONTINUOUS
 62
     3
100
AcDbCircle
 10
380.0477874933327
 20
65.86115764576931
 30
0.0
 40
11.30170705410681
100
AcDbArc
 50
277.0901027239701
 51
290.9134154817058
  0
ARC
  5
F0
330
1F
100
AcDbEntity
  8
0
  6
CONTINUOUS
 62
     3
100
AcDbCircle
 10
378.9173644842722
 20
62.3379929722995
 30
0.0
 40
6.117335001950124
100
AcDbArc
 50
288.1715191042997
 51
307.8537826235693
  0
ARC
  5
F1
330
1F
100
AcDbEntity
  8
0
  6
CONTINUOUS
 62
     3
100
AcDbCircle
 10
380.0463693248011
 20
60.17037592364574
 30
0.0
 40
3.738845927653165
100
AcDbArc
 50
314.592391474832
 51
344.9374073189123
  0
ARC
  5
F2
330
1F
100
AcDbEntity
  8
0
  6
CONTINUOUS
 62
     3
100
AcDbCircle
 10
136.6692760614656
 20
75.25986679194204
 30
0.0
 40
247.5700215199504
100
AcDbArc
 50
356.8390243485978
 51
2.971133813187157
  0
ARC
  5
F3
330
1F
100
AcDbEntity
  8
0
  6
CONTINUOUS
 62
     3
100
AcDbCircle
 10
349.0719782613539
 20
63.3671380961394
 30
0.0
 40
34.83507524900299
100
AcDbArc
 50
353.1274757312911
 51
357.106204490141
  0
LINE
  5
F4
330
1F
100
AcDbEntity
  8
0
  6
CONTINUOUS
 62
     3
100
AcDbLine
 10
396.5863828666252
 20
75.6822466487705
 30
0.0
 11
396.5863828666252
 21
73.8597466487704
 31
0.0
  0
ARC
  5
F5
330
1F
100
AcDbEntity
  8
0
  6
CONTINUOUS
 62
     3
100
AcDbCircle
 10
400.9126808851497
 20
71.64450959289411
 30
0.0
 40
4.474405525883595
100
AcDbArc
 50
103.4267945469744
 51
150.3242613737993
  0
ARC
  5
F6
330
1F
100
AcDbEntity
  8
0
  6
CONTINUOUS
 62
     3
100
AcDbCircle
 10
401.2399547899153
 20
70.96919152565107
 30
0.0
 40
5.209763673321151
100
AcDbArc
 50
77.23143261361693
 51
105.203415964315
  0
ARC
  5
F7
330
1F
100
AcDbEntity
  8
0
  6
CONTINUOUS
 62
     3
100
AcDbCircle
 10
401.4641706408847
 20
72.63709430767108
 30
0.0
 40
3.53673269313001
100
AcDbArc
 50
3.537639967999379
 51
74.8013566619203
  0
ARC
  5
F8
330
1F
100
AcDbEntity
  8
0
  6
CONTINUOUS
 62
     3
100
AcDbCircle
 10
398.5026936783285
 20
71.96149351875619
 30
0.0
 40
6.552718755094605
100
AcDbArc
 50
353.0315250986587
 51
7.839947970678348
  0
ARC
  5
F9
330
1F
100
AcDbEntity
  8
0
  6
CONTINUOUS
 62
     3
100
AcDbCircle
 10
404.1615477836669
 20
71.32556662521438
 30
0.0
 40
0.860294141140655
100
AcDbArc
 50
291.5204897073511
 51
349.3445900274031
  0
ARC
  5
FA
330
1F
100
AcDbEntity
  8
0
  6
CONTINUOUS
 62
     3
100
AcDbCircle
 10
402.1716525055447
 20
75.32036813443739
 30
0.0
 40
5.32056667636392
100
AcDbArc
 50
282.7195832898965
 51
295.6781112778079
  0
ARC
  5
FB
330
1F
100
AcDbEntity
  8
0
  6
CONTINUOUS
 62
     3
100
AcDbCircle
 10
389.4265049992893
 20
132.0601014887606
 30
0.0
 40
63.47412046851909
100
AcDbArc
 50
278.8438342053764
 51
282.6649181367123
  0
ARC
  5
FC
330
1F
100
AcDbEntity
  8
0
  6
CONTINUOUS
 62
     3
100
AcDbCircle
 10
400.5485069337894
 20
62.98042407414357
 30
0.0
 40
6.504683084924599
100
AcDbArc
 50
102.0988446293839
 51
129.1556705448828
  0
ARC
  5
FD
330
1F
100
AcDbEntity
  8
0
  6
CONTINUOUS
 62
     3
100
AcDbCircle
 10
398.6986189515076
 20
65.31831662504004
 30
0.0
 40
3.52397685278961
100
AcDbArc
 50
129.8344892359069
 51
168.4089447024628
  0
ARC
  5
FE
330
1F
100
AcDbEntity
  8
0
  6
CONTINUOUS
 62
     3
100
AcDbCircle
 10
399.4537509284996
 20
64.88793562738721
 30
0.0
 40
4.358546862943345
100
AcDbArc
 50
164.8589457925044
 51
187.8495628504518
  0
ARC
  5
FF
330
1F
100
AcDbEntity
  8
0
  6
CONTINUOUS
 62
     3
100
AcDbCircle
 10
399.0457666457749
 20
64.70075107864318
 30
0.0
 40
3.93096173563145
100
AcDbArc
 50
185.9586126338419
 51
224.0091989319859
  0
ARC
  5
100
330
1F
100
AcDbEntity
  8
0
  6
CONTINUOUS
 62
     3
100
AcDbCircle
 10
399.2281476518443
 20
64.9055552386298
 30
0.0
 40
4.204478288781829
100
AcDbArc
 50
224.289750990011
 51
255.6505938786759
  0
ARC
  5
101
330
1F
100
AcDbEntity
  8
0
  6
CONTINUOUS
 62
     3
100
AcDbCircle
 10
399.1464065368379
 20
63.84817471937055
 30
0.0
 40
3.16511416045893
100
AcDbArc
 50
252.3384873625213
 51
268.8069976857606
  0
LINE
  5
102
330
1F
100
AcDbEntity
  8
0
  6
CONTINUOUS
 62
     3
100
AcDbLine
 10
399.0805078666247
 20
60.68374664877041
 30
0.0
 11
400.4507578666252
 21
60.68374664877041
 31
0.0
  0
ARC
  5
103
330
1F
100
AcDbEntity
  8
0
  6
CONTINUOUS
 62
     3
100
AcDbCircle
 10
399.8306522933504
 20
67.47670131284139
 30
0.0
 40
6.821199600519659
100
AcDbArc
 50
275.2158792069686
 51
319.2336424873511
  0
ARC
  5
104
330
1F
100
AcDbEntity
  8
0
  6
CONTINUOUS
 62
     3
100
AcDbCircle
 10
407.4157780279157
 20
63.32462971328653
 30
0.0
 40
2.43767567004861
100
AcDbArc
 50
187.1167640402297
 51
216.4860549324747
  0
ARC
  5
105
330
1F
100
AcDbEntity
  8
0
  6
CONTINUOUS
 62
     3
100
AcDbCircle
 10
407.146886754073
 20
63.16837282643149
 30
0.0
 40
2.12884775310199
100
AcDbArc
 50
217.4081478714985
 51
264.8118660441384
  0
ARC
  5
106
330
1F
100
AcDbEntity
  8
0
  6
CONTINUOUS
 62
     3
100
AcDbCircle
 10
407.9497945972795
 20
65.32322564115162
 30
0.0
 40
4.28270310010447
100
AcDbArc
 50
271.2220539293239
 51
292.8159509797653
  0
LINE
  5
107
330
1F
100
AcDbEntity
  8
0
  6
CONTINUOUS
 62
     3
100
AcDbLine
 10
406.9543828666249
 20
61.04824664877043
 30
0.0
 11
408.041132866625
 21
61.04824664877043
 31
0.0
  0
LINE
  5
108
330
1F
100
AcDbEntity
  8
0
  6
CONTINUOUS
 62
     3
100
AcDbLine
 10
409.6105078666253
 20
61.37562164877039
 30
0.0
 11
409.6105078666253
 21
62.16199664877024
 31
0.0
  0
ARC
  5
109
330
1F
100
AcDbEntity
  8
0
  6
CONTINUOUS
 62
     3
100
AcDbCircle
 10
408.9121039228982
 20
63.5030594370545
 30
0.0
 40
1.5120242956824
100
AcDbArc
 50
243.6191685566582
 51
297.5097757939563
  0
ARC
  5
10A
330
1F
100
AcDbEntity
  8
0
  6
CONTINUOUS
 62
     3
100
AcDbCircle
 10
409.0911994723021
 20
63.41514643902372
 30
0.0
 40
1.525943415536945
100
AcDbArc
 50
179.9117548191414
 51
236.1065985968857
  0
ARC
  5
10B
330
1F
100
AcDbEntity
  8
0
  6
CONTINUOUS
 62
     3
100
AcDbCircle
 10
634.3250679193548
 20
65.96619219658663
 30
0.0
 40
226.7741327932831
100
AcDbArc
 50
178.2526643324597
 51
180.6439560401927
  0
ARC
  5
10C
330
1F
100
AcDbEntity
  8
0
  6
CONTINUOUS
 62
     3
100
AcDbCircle
 10
402.5353136301393
 20
72.50958129866575
 30
0.0
 40
5.134520375572949
100
AcDbArc
 50
4.148222840814693
 51
92.36000944257292
  0
ARC
  5
10D
330
1F
100
AcDbEntity
  8
0
  6
CONTINUOUS
 62
     3
100
AcDbCircle
 10
402.1342662062764
 20
68.8083644463444
 30
0.0
 40
8.83341757663532
100
AcDbArc
 50
88.77000393305703
 51
128.9068631829044
  0
LINE
  5
10E
330
1F
100
AcDbEntity
  8
0
  6
CONTINUOUS
 62
     6
100
AcDbLine
 10
381.4427578666252
 20
54.64587164877031
 30
0.0
 11
380.8251328666253
 21
56.52574664877022
 31
0.0
  0
TEXT
  5
10F
330
1F
100
AcDbEntity
  8
図枠
  6
CONTINUOUS
 62
     2
100
AcDbText
 10
98.25000000000013
 20
132.375
 30
0.0
 40
21.25
  1
製図
 41
1.509694117647059
  7
EXCADSTD
 72
     5
 11
148.6630000000001
 21
132.375
 31
0.0
100
AcDbText
  0
TEXT
  5
110
330
1F
100
AcDbEntity
  8
図枠
  6
CONTINUOUS
 62
     2
100
AcDbText
 10
175.7500000000001
 20
132.375
 30
0.0
 40
21.25
  1
写図
 41
1.509694117647059
  7
EXCADSTD
 72
     5
 11
226.1630000000001
 21
132.375
 31
0.0
100
AcDbText
  0
TEXT
  5
111
330
1F
100
AcDbEntity
  8
図枠
  6
CONTINUOUS
 62
     2
100
AcDbText
 10
250.7500000000001
 20
132.375
 30
0.0
 40
21.25
  1
検図
 41
1.303826737967914
  7
EXCADSTD
 72
     5
 11
294.2885000000001
 21
132.375
 31
0.0
100
AcDbText
  0
LINE
  5
112
330
1F
100
AcDbEntity
  8
図枠
  6
EXLTYPE2
 62
     6
100
AcDbLine
 10
-3.000000000000114
 20
745.5000000000001
 30
0.0
 11
87.00000000000013
 21
745.5000000000001
 31
0.0
  0
LINE
  5
113
330
1F
100
AcDbEntity
  8
図枠
  6
CONTINUOUS
 62
     7
100
AcDbLine
 10
87.00000000000013
 20
45.50000000000001
 30
0.0
 11
87.00000000000013
 21
1445.5
 31
0.0
  0
LINE
  5
114
330
1F
100
AcDbEntity
  8
図枠
  6
CONTINUOUS
 62
     7
100
AcDbLine
 10
87.00000000000013
 20
1445.5
 30
0.0
 11
997.0
 21
1445.5
 31
0.0
  0
LINE
  5
115
330
1F
100
AcDbEntity
  8
図枠
  6
CONTINUOUS
 62
     7
100
AcDbLine
 10
997.0
 20
45.50000000000001
 30
0.0
 11
997.0
 21
1445.5
 31
0.0
  0
LINE
  5
116
330
1F
100
AcDbEntity
  8
図枠
  6
CONTINUOUS
 62
     7
100
AcDbLine
 10
87.00000000000013
 20
155.5
 30
0.0
 11
997.0
 21
155.5
 31
0.0
  0
LINE
  5
117
330
1F
100
AcDbEntity
  8
図枠
  6
CONTINUOUS
 62
     7
100
AcDbLine
 10
87.00000000000013
 20
45.50000000000001
 30
0.0
 11
997.0
 21
45.50000000000001
 31
0.0
  0
LINE
  5
118
330
1F
100
AcDbEntity
  8
図枠
  6
CONTINUOUS
 62
     6
100
AcDbLine
 10
372.0000000000002
 20
155.5
 30
0.0
 11
372.0000000000002
 21
45.50000000000001
 31
0.0
  0
LINE
  5
119
330
1F
100
AcDbEntity
  8
図枠
  6
CONTINUOUS
 62
     6
100
AcDbLine
 10
242.0000000000001
 20
155.5
 30
0.0
 11
242.0000000000001
 21
45.50000000000001
 31
0.0
  0
LINE
  5
11A
330
1F
100
AcDbEntity
  8
図枠
  6
CONTINUOUS
 62
     6
100
AcDbLine
 10
164.5000000000001
 20
155.5
 30
0.0
 11
164.5000000000001
 21
45.50000000000001
 31
0.0
  0
CIRCLE
  5
11B
330
1F
100
AcDbEntity
  8
図枠
  6
CONTINUOUS
 62
     6
100
AcDbCircle
 10
112.0000000000001
 20
58.00000000000001
 30
0.0
 40
0.5000001
  0
CIRCLE
  5
11C
330
1F
100
AcDbEntity
  8
図枠
  6
CONTINUOUS
 62
     6
100
AcDbCircle
 10
137.0000000000001
 20
58.00000000000001
 30
0.0
 40
0.5000001
  0
CIRCLE
  5
11D
330
1F
100
AcDbEntity
  8
図枠
  6
CONTINUOUS
 62
     6
100
AcDbCircle
 10
189.5000000000001
 20
58.00000000000001
 30
0.0
 40
0.5000001
  0
CIRCLE
  5
11E
330
1F
100
AcDbEntity
  8
図枠
  6
CONTINUOUS
 62
     6
100
AcDbCircle
 10
214.5000000000001
 20
58.00000000000001
 30
0.0
 40
0.5000001
  0
LINE
  5
11F
330
1F
100
AcDbEntity
  8
図枠
  6
CONTINUOUS
 62
     6
100
AcDbLine
 10
307.0000000000001
 20
155.5
 30
0.0
 11
307.0000000000001
 21
45.50000000000001
 31
0.0
  0
LINE
  5
120
330
1F
100
AcDbEntity
  8
図枠
  6
EXLTYPE2
 62
     6
100
AcDbLine
 10
87.00000000000013
 20
70.5
 30
0.0
 11
242.0000000000001
 21
70.5
 31
0.0
  0
LINE
  5
121
330
1F
100
AcDbEntity
  8
図枠
  6
CONTINUOUS
 62
     6
100
AcDbLine
 10
997.0
 20
95.5
 30
0.0
 11
372.0000000000002
 21
95.5
 31
0.0
  0
LINE
  5
122
330
1F
100
AcDbEntity
  8
図枠
  6
CONTINUOUS
 62
     6
100
AcDbLine
 10
927.0
 20
155.5
 30
0.0
 11
927.0
 21
95.5
 31
0.0
  0
LINE
  5
123
330
1F
100
AcDbEntity
  8
図枠
  6
CONTINUOUS
 62
     6
100
AcDbLine
 10
717.0000000000001
 20
155.5
 30
0.0
 11
717.0000000000001
 21
45.50000000000001
 31
0.0
  0
LINE
  5
124
330
1F
100
AcDbEntity
  8
図枠
  6
CONTINUOUS
 62
     6
100
AcDbLine
 10
692.0000000000001
 20
155.5
 30
0.0
 11
692.0000000000001
 21
45.50000000000001
 31
0.0
  0
LINE
  5
125
330
1F
100
AcDbEntity
  8
図枠
  6
CONTINUOUS
 62
     6
100
AcDbLine
 10
943.3269043000001
 20
107.00146485
 30
0.0
 11
981.9969482500001
 21
146.34991455
 31
0.0
  0
LINE
  5
126
330
1F
100
AcDbEntity
  8
図枠
  6
CONTINUOUS
 62
     6
100
AcDbLine
 10
902.0
 20
155.5
 30
0.0
 11
902.0
 21
95.5
 31
0.0
  0
TEXT
  5
127
330
1F
100
AcDbEntity
  8
図枠
  6
CONTINUOUS
 62
     2
100
AcDbText
 10
315.7500000000002
 20
132.375
 30
0.0
 40
21.25
  1
承認
 41
1.303826737967914
  7
EXCADSTD
 72
     5
 11
359.2885000000002
 21
132.375
 31
0.0
100
AcDbText
  0
TEXT
  5
128
330
1F
100
AcDbEntity
  8
図枠
  6
CONTINUOUS
 62
     2
100
AcDbText
 10
942.2685546999998
 20
129.3613891499999
 30
0.0
 40
15.0
  1
１
 41
1.101333333333329
  7
EXCADSTD
 72
     5
 11
954.0685546999997
 21
129.3613891499999
 31
0.0
100
AcDbText
  0
TEXT
  5
129
330
1F
100
AcDbEntity
  8
図枠
  6
CONTINUOUS
 62
     2
100
AcDbText
 10
694.8750000000002
 20
127.375
 30
0.0
 40
21.25
  1
品
 41
1.12
  7
EXCADSTD
 72
     5
 11
711.8750000000002
 21
127.375
 31
0.0
100
AcDbText
  0
TEXT
  5
12A
330
1F
100
AcDbEntity
  8
図枠
  6
CONTINUOUS
 62
     2
100
AcDbText
 10
694.8750000000002
 20
102.375
 30
0.0
 40
21.25
  1
番
 41
1.12
  7
EXCADSTD
 72
     5
 11
711.8750000000002
 21
102.375
 31
0.0
100
AcDbText
  0
TEXT
  5
12B
330
1F
100
AcDbEntity
  8
図枠
  6
CONTINUOUS
 62
     2
100
AcDbText
 10
905.375
 20
127.375
 30
0.0
 40
21.25
  1
尺
 41
1.12
  7
EXCADSTD
 72
     5
 11
922.375
 21
127.375
 31
0.0
100
AcDbText
  0
TEXT
  5
12C
330
1F
100
AcDbEntity
  8
図枠
  6
CONTINUOUS
 62
     2
100
AcDbText
 10
905.375
 20
102.375
 30
0.0
 40
21.25
  1
度
 41
1.12
  7
EXCADSTD
 72
     5
 11
922.375
 21
102.375
 31
0.0
100
AcDbText
  0
TEXT
  5
12D
330
1F
100
AcDbEntity
  8
図枠
  6
CONTINUOUS
 62
     2
100
AcDbText
 10
694.8750000000002
 20
70.875
 30
0.0
 40
21.25
  1
図
 41
1.12
  7
EXCADSTD
 72
     5
 11
711.8750000000002
 21
70.875
 31
0.0
100
AcDbText
  0
TEXT
  5
12E
330
1F
100
AcDbEntity
  8
図枠
  6
CONTINUOUS
 62
     2
100
AcDbText
 10
694.8750000000002
 20
49.375
 30
0.0
 40
21.25
  1
番
 41
1.12
  7
EXCADSTD
 72
     5
 11
711.8750000000002
 21
49.375
 31
0.0
100
AcDbText
  0
LINE
  5
12F
330
1F
100
AcDbEntity
  8
図枠
  6
CONTINUOUS
 62
     6
100
AcDbLine
 10
87.00000000000013
 20
130.5
 30
0.0
 11
372.0000000000002
 21
130.5
 31
0.0
  0
TEXT
  5
130
330
1F
100
AcDbEntity
  8
図枠
  6
CONTINUOUS
 62
     2
100
AcDbText
 10
374.8749999999998
 20
127.3750000000001
 30
0.0
 40
21.25
  1
品
 41
1.12
  7
EXCADSTD
 72
     5
 11
391.8749999999998
 21
127.3750000000001
 31
0.0
100
AcDbText
  0
TEXT
  5
131
330
1F
100
AcDbEntity
  8
図枠
  6
CONTINUOUS
 62
     2
100
AcDbText
 10
374.8749999999998
 20
102.3750000000001
 30
0.0
 40
21.25
  1
名
 41
1.12
  7
EXCADSTD
 72
     5
 11
391.8749999999998
 21
102.3750000000001
 31
0.0
100
AcDbText
  0
LINE
  5
132
330
1F
100
AcDbEntity
  8
図枠
  6
CONTINUOUS
 62
     6
100
AcDbLine
 10
396.9999999999999
 20
155.5000000000001
 30
0.0
 11
396.9999999999999
 21
95.50000000000011
 31
0.0
  0
TEXT
  5
133
330
1F
100
AcDbEntity
  8
図枠
  6
CONTINUOUS
 62
     6
100
AcDbText
 10
98.25000000000148
 20
88.00000000000068
 30
0.0
 40
25.0
  1
岩田
 41
1.28324
  7
EXCADSTD
 72
     5
 11
148.6630000000015
 21
88.00000000000068
 31
0.0
100
AcDbText
  0
TEXT
  5
134
330
1F
100
AcDbEntity
  8
図枠
  6
CONTINUOUS
 62
     6
100
AcDbText
 10
90.17205783773956
 20
50.22503660000007
 30
0.0
 40
15.0
  1
'21
 41
0.5376093902439024
  7
EXCADSTD
 72
     5
 11
105.9163328377396
 21
50.22503660000007
 31
0.0
100
AcDbText
  0
TEXT
  5
135
330
1F
100
AcDbEntity
  8
図枠
  6
CONTINUOUS
 62
     6
100
AcDbText
 10
122.1595580284744
 20
50.22503660000007
 30
0.0
 40
15.0
  1
2
 41
0.4014705882352941
  7
EXCADSTD
 72
     5
 11
127.0345580284744
 21
50.22503660000007
 31
0.0
100
AcDbText
  0
TEXT
  5
136
330
1F
100
AcDbEntity
  8
図枠
  6
CONTINUOUS
 62
     2
100
AcDbText
 10
682.2499999999998
 20
1422.5
 30
0.0
 40
20.0
  1
材質
 41
1.895695454545453
  7
EXCADSTD
 72
     5
 11
741.8289999999997
 21
1422.5
 31
0.0
100
AcDbText
  0
TEXT
  5
137
330
1F
100
AcDbEntity
  8
図枠
  6
CONTINUOUS
 62
     2
100
AcDbText
 10
427.0000000000003
 20
1398.0
 30
0.0
 40
20.0
  1
１
 41
1.12
  7
EXCADSTD
 72
     5
 11
443.0000000000003
 21
1398.0
 31
0.0
100
AcDbText
  0
TEXT
  5
138
330
1F
100
AcDbEntity
  8
図枠
  6
CONTINUOUS
 62
     2
100
AcDbText
 10
427.0000000000003
 20
1373.0
 30
0.0
 40
20.0
  1
２
 41
1.12
  7
EXCADSTD
 72
     5
 11
443.0000000000003
 21
1373.0
 31
0.0
100
AcDbText
  0
TEXT
  5
139
330
1F
100
AcDbEntity
  8
図枠
  6
CONTINUOUS
 62
     2
100
AcDbText
 10
812.0000000000002
 20
1398.0
 30
0.0
 40
20.0
  1
１
 41
1.12
  7
EXCADSTD
 72
     5
 11
828.0000000000002
 21
1398.0
 31
0.0
100
AcDbText
  0
TEXT
  5
13A
330
1F
100
AcDbEntity
  8
図枠
  6
CONTINUOUS
 62
     2
100
AcDbText
 10
417.0000000000003
 20
1423.0
 30
0.0
 40
20.0
  1
番号
 41
1.166581818181818
  7
EXCADSTD
 72
     5
 11
453.6640000000003
 21
1423.0
 31
0.0
100
AcDbText
  0
TEXT
  5
13B
330
1F
100
AcDbEntity
  8
図枠
  6
CONTINUOUS
 62
     2
100
AcDbText
 10
516.5000000000001
 20
1423.0
 30
0.0
 40
20.0
  1
品名
 41
1.895695454545453
  7
EXCADSTD
 72
     5
 11
576.0790000000001
 21
1423.0
 31
0.0
100
AcDbText
  0
TEXT
  5
13C
330
1F
100
AcDbEntity
  8
図枠
  6
CONTINUOUS
 62
     2
100
AcDbText
 10
802.0000000000002
 20
1423.0
 30
0.0
 40
20.0
  1
個数
 41
1.166581818181818
  7
EXCADSTD
 72
     5
 11
838.6640000000002
 21
1423.0
 31
0.0
100
AcDbText
  0
TEXT
  5
13D
330
1F
100
AcDbEntity
  8
図枠
  6
CONTINUOUS
 62
     2
100
AcDbText
 10
889.5000000000002
 20
1423.0
 30
0.0
 40
20.0
  1
備考
 41
1.895695454545453
  7
EXCADSTD
 72
     5
 11
949.0790000000002
 21
1423.0
 31
0.0
100
AcDbText
  0
LINE
  5
13E
330
1F
100
AcDbEntity
  8
図枠
  6
CONTINUOUS
 62
     6
100
AcDbLine
 10
409.5000000000003
 20
1420.5
 30
0.0
 11
997.0000000000002
 21
1420.5
 31
0.0
  0
LINE
  5
13F
330
1F
100
AcDbEntity
  8
図枠
  6
CONTINUOUS
 62
     6
100
AcDbLine
 10
409.5000000000003
 20
1395.5
 30
0.0
 11
997.0000000000002
 21
1395.5
 31
0.0
  0
LINE
  5
140
330
1F
100
AcDbEntity
  8
図枠
  6
CONTINUOUS
 62
     6
100
AcDbLine
 10
409.5000000000003
 20
1370.5
 30
0.0
 11
997.0000000000002
 21
1370.5
 31
0.0
  0
LINE
  5
141
330
1F
100
AcDbEntity
  8
図枠
  6
CONTINUOUS
 62
     6
100
AcDbLine
 10
632.5000000000003
 20
1445.5
 30
0.0
 11
632.5000000000003
 21
1370.5
 31
0.0
  0
LINE
  5
142
330
1F
100
AcDbEntity
  8
図枠
  6
CONTINUOUS
 62
     6
100
AcDbLine
 10
796.9999999999997
 20
1370.5
 30
0.0
 11
796.9999999999997
 21
1445.5
 31
0.0
  0
LINE
  5
143
330
1F
100
AcDbEntity
  8
図枠
  6
CONTINUOUS
 62
     6
100
AcDbLine
 10
847.0000000000002
 20
1445.5
 30
0.0
 11
847.0000000000002
 21
1370.5
 31
0.0
  0
LINE
  5
144
330
1F
100
AcDbEntity
  8
図枠
  6
CONTINUOUS
 62
     6
100
AcDbLine
 10
460.5000000000002
 20
1445.5
 30
0.0
 11
460.5000000000002
 21
1370.5
 31
0.0
  0
LINE
  5
145
330
1F
100
AcDbEntity
  8
図枠
  6
CONTINUOUS
 62
     6
100
AcDbLine
 10
409.5000000000002
 20
1445.5
 30
0.0
 11
409.5000000000002
 21
1370.5
 31
0.0
  0
TEXT
  5
146
330
1F
100
AcDbEntity
  8
図枠
  6
CONTINUOUS
 62
     2
100
AcDbText
 10
467.0000000000003
 20
1398.0
 30
0.0
 40
20.0
  1
本体
 41
1.093670454545455
  7
EXCADSTD
 72
     5
 11
501.3725000000003
 21
1398.0
 31
0.0
100
AcDbText
  0
TEXT
  5
147
330
1F
100
AcDbEntity
  8
図枠
  6
CONTINUOUS
 62
     2
100
AcDbText
 10
812.0000000000002
 20
1373.0
 30
0.0
 40
20.0
  1
２
 41
1.12
  7
EXCADSTD
 72
     5
 11
828.0000000000002
 21
1373.0
 31
0.0
100
AcDbText
  0
TEXT
  5
148
330
1F
100
AcDbEntity
  8
図枠
  6
CONTINUOUS
 62
     6
100
AcDbText
 10
147.9470579271466
 20
50.22503660000007
 30
0.0
 40
15.0
  1
7
 41
0.4014705882352941
  7
EXCADSTD
 72
     5
 11
152.8220579271466
 21
50.22503660000007
 31
0.0
100
AcDbText
  0
TEXT
  5
149
330
1F
100
AcDbEntity
  8
図枠
  6
CONTINUOUS
 62
     2
100
AcDbText
 10
732.749995708468
 20
112.9999999999989
 30
0.0
 40
25.0
  1
Ｗ－ＹＯＲ１９７６
 41
0.8109433962264152
  7
EXCADSTD
 72
     5
 11
886.249995708468
 21
112.9999999999989
 31
0.0
100
AcDbText
  0
TEXT
  5
14A
330
1F
100
AcDbEntity
  8
図枠
  6
CONTINUOUS
 62
     2
100
AcDbText
 10
634.9999999999998
 20
1398.0
 30
0.0
 40
20.0
  1
鉄
 41
1.12
  7
EXCADSTD
 72
     5
 11
650.9999999999998
 21
1398.0
 31
0.0
100
AcDbText
  0
TEXT
  5
14B
330
1F
100
AcDbEntity
  8
図枠
  6
CONTINUOUS
 62
     2
100
AcDbText
 10
634.9999999999998
 20
1373.0
 30
0.0
 40
20.0
  1
鉄
 41
1.12
  7
EXCADSTD
 72
     5
 11
650.9999999999998
 21
1373.0
 31
0.0
100
AcDbText
  0
TEXT
  5
14C
330
1F
100
AcDbEntity
  8
図枠
  6
CONTINUOUS
 62
     2
100
AcDbText
 10
849.4999999999999
 20
1398.0
 30
0.0
 40
20.0
  1
サンドブラック塗装
 41
0.9245283018867926
  7
EXCADSTD
 72
     5
 11
989.4999999999999
 21
1398.0
 31
0.0
100
AcDbText
  0
TEXT
  5
14D
330
1F
100
AcDbEntity
  8
図枠
  6
CONTINUOUS
 62
     2
100
AcDbText
 10
962.6396484499998
 20
107.1744232000001
 30
0.0
 40
15.0
  1
５
 41
1.101333333333329
  7
EXCADSTD
 72
     5
 11
974.4396484499997
 21
107.1744232000001
 31
0.0
100
AcDbText
  0
TEXT
  5
14E
330
1F
100
AcDbEntity
  8
図枠
  6
CONTINUOUS
 62
     2
100
AcDbText
 10
403.3054198999999
 20
113.1356659
 30
0.0
 40
25.0
  1
ヨーク　リング型タオルハンガー
 41
0.8856179775280899
  7
EXCADSTD
 72
     5
 11
684.8054198999998
 21
113.1356659
 31
0.0
100
AcDbText
  0
TEXT
  5
14F
330
1F
100
AcDbEntity
  8
図枠
  6
CONTINUOUS
 62
     7
100
AcDbText
 10
779.125
 20
55.875
 30
0.0
 40
30.0
  1
９９１２００
 41
1.033333333333333
  7
EXCADSTD
 72
     5
 11
934.125
 21
55.875
 31
0.0
100
AcDbText
  0
TEXT
  5
150
330
1F
100
AcDbEntity
  8
図枠
  6
CONTINUOUS
 62
     2
100
AcDbText
 10
853.5000000000005
 20
1373.0
 30
0.0
 40
20.0
  1
４×４０
 41
0.9891304347826085
  7
EXCADSTD
 72
     5
 11
918.5000000000005
 21
1373.0
 31
0.0
100
AcDbText
  0
TEXT
  5
151
330
1F
100
AcDbEntity
  8
図枠
  6
CONTINUOUS
 62
     2
100
AcDbText
 10
467.0000000000002
 20
1373.0
 30
0.0
 40
20.0
  1
皿タッピンねじ
 41
1.067073170731707
  7
EXCADSTD
 72
     5
 11
592.0000000000002
 21
1373.0
 31
0.0
100
AcDbText
  0
TEXT
  5
152
330
1F
100
AcDbEntity
  8
図
  6
CONTINUOUS
 62
     2
100
AcDbText
 10
782.3894640244919
 20
667.8723611873469
 30
0.0
 40
20.0
  1
Ｗ.Ｌ
 50
90.0
 41
0.9767441860465117
  7
EXCADSTD
 72
     5
 11
782.3894640244919
 21
707.8723611873469
 31
0.0
100
AcDbText
  0
LINE
  5
153
330
1F
100
AcDbEntity
  8
図
  6
CONTINUOUS
 62
     7
100
AcDbLine
 10
783.0140620557501
 20
408.0
 30
0.0
 11
783.0140620557501
 21
704.0
 31
0.0
  0
CIRCLE
  5
154
330
1F
100
AcDbEntity
  8
図
  6
CONTINUOUS
 62
     3
100
AcDbCircle
 10
538.5
 20
829.5
 30
0.0
 40
17.5
  0
TEXT
  5
155
330
1F
100
AcDbEntity
  8
図
  6
CONTINUOUS
 62
     2
100
AcDbText
 10
526.8256310939789
 20
817.1256313323975
 30
0.0
 40
24.74873733520508
  1
1
 41
1.240909090909087
  7
EXCADSTD
 72
     5
 11
542.9123103618622
 21
817.1256313323975
 31
0.0
100
AcDbText
  0
LEADER
  5
156
330
1F
100
AcDbEntity
  8
図
  6
CONTINUOUS
 62
     3
100
AcDbLeader
  3
ISO-25
 76
     2
 10
437.1488273110593
 20
886.3999999999987
 30
0.0
 10
523.2403541982823
 20
838.0669837169281
 30
0.0
1001
ACAD
1000
DSTYLE
1002
{
1070
     5
1000
EX_NORM
1070
    41
1040
15.0
1070
   341
1005
4C
1002
}
  0
CIRCLE
  5
157
330
1F
100
AcDbEntity
  8
図
  6
CONTINUOUS
 62
     3
100
AcDbCircle
 10
532.5
 20
992.5
 30
0.0
 40
17.5
  0
TEXT
  5
158
330
1F
100
AcDbEntity
  8
図
  6
CONTINUOUS
 62
     2
100
AcDbText
 10
520.8256310939789
 20
980.1256313323975
 30
0.0
 40
24.74873733520508
  1
2
 41
0.8029411764705858
  7
EXCADSTD
 72
     5
 11
536.9123103618622
 21
980.1256313323975
 31
0.0
100
AcDbText
  0
LEADER
  5
159
330
1F
100
AcDbEntity
  8
図
  6
CONTINUOUS
 62
     3
100
AcDbLeader
  3
ISO-25
 76
     2
 10
371.2574985115781
 20
946.3604953461682
 30
0.0
 10
515.6752676873615
 20
987.6856067248237
 30
0.0
1001
ACAD
1000
DSTYLE
1002
{
1070
     5
1000
EX_NORM
1070
    41
1040
15.0
1070
   341
1005
4C
1002
}
  0
LINE
  5
15A
330
1F
100
AcDbEntity
  8
図
  6
EXLTYPE3
 62
     6
100
AcDbLine
 10
838.35
 20
574.4285320188598
 30
0.0
 11
733.7
 21
574.4285320188598
 31
0.0
  0
LINE
  5
15B
330
1F
100
AcDbEntity
  8
図
  6
CONTINUOUS
 62
     6
100
AcDbLine
 10
783.0140620557519
 20
586.1149999999968
 30
0.0
 11
814.8331481216894
 21
586.1149999999968
 31
0.0
  0
LINE
  5
15C
330
1F
100
AcDbEntity
  8
図
  6
CONTINUOUS
 62
     6
100
AcDbLine
 10
815.7841821904196
 20
586.3555869728445
 30
0.0
 11
819.039096290652
 21
588.1149999999968
 31
0.0
  0
LINE
  5
15D
330
1F
100
AcDbEntity
  8
図
  6
CONTINUOUS
 62
     6
100
AcDbLine
 10
783.0140620557519
 20
590.1149999999967
 30
0.0
 11
814.8331481216894
 21
590.1149999999967
 31
0.0
  0
LINE
  5
15E
330
1F
100
AcDbEntity
  8
図
  6
CONTINUOUS
 62
     6
100
AcDbLine
 10
815.7841821904196
 20
589.874413027149
 30
0.0
 11
819.039096290652
 21
588.1149999999968
 31
0.0
  0
ARC
  5
15F
330
1F
100
AcDbEntity
  8
図
  6
CONTINUOUS
 62
     6
100
AcDbCircle
 10
814.8331481216894
 20
588.1149999999968
 30
0.0
 40
2.0
100
AcDbArc
 50
270.0000000000002
 51
298.3930194213758
  0
ARC
  5
160
330
1F
100
AcDbEntity
  8
図
  6
CONTINUOUS
 62
     6
100
AcDbCircle
 10
814.8331481216894
 20
588.1149999999968
 30
0.0
 40
2.0
100
AcDbArc
 50
61.6069805786228
 51
90.00000000000001
  0
LINE
  5
161
330
1F
100
AcDbEntity
  8
図
  6
EXLTYPE3
 62
     6
100
AcDbLine
 10
824.45
 20
588.1285320188601
 30
0.0
 11
779.8913931833898
 21
588.1285320188601
 31
0.0
  0
LINE
  5
162
330
1F
100
AcDbEntity
  8
図
  6
CONTINUOUS
 62
     6
100
AcDbLine
 10
783.0140620557519
 20
562.7420640377227
 30
0.0
 11
814.8331481216894
 21
562.7420640377227
 31
0.0
  0
LINE
  5
163
330
1F
100
AcDbEntity
  8
図
  6
CONTINUOUS
 62
     6
100
AcDbLine
 10
815.7841821904196
 20
562.501477064875
 30
0.0
 11
819.039096290652
 21
560.7420640377227
 31
0.0
  0
LINE
  5
164
330
1F
100
AcDbEntity
  8
図
  6
CONTINUOUS
 62
     6
100
AcDbLine
 10
783.0140620557519
 20
558.7420640377228
 30
0.0
 11
814.8331481216894
 21
558.7420640377228
 31
0.0
  0
LINE
  5
165
330
1F
100
AcDbEntity
  8
図
  6
CONTINUOUS
 62
     6
100
AcDbLine
 10
815.7841821904196
 20
558.9826510105705
 30
0.0
 11
819.039096290652
 21
560.7420640377227
 31
0.0
  0
ARC
  5
166
330
1F
100
AcDbEntity
  8
図
  6
CONTINUOUS
 62
     6
100
AcDbCircle
 10
814.8331481216894
 20
560.7420640377227
 30
0.0
 40
2.0
100
AcDbArc
 50
61.6069805786257
 51
90.00000000000001
  0
ARC
  5
167
330
1F
100
AcDbEntity
  8
図
  6
CONTINUOUS
 62
     6
100
AcDbCircle
 10
814.8331481216894
 20
560.7420640377227
 30
0.0
 40
2.0
100
AcDbArc
 50
270.0
 51
298.3930194213771
  0
LINE
  5
168
330
1F
100
AcDbEntity
  8
図
  6
EXLTYPE3
 62
     6
100
AcDbLine
 10
824.45
 20
560.7285320188594
 30
0.0
 11
779.8913931833898
 21
560.7285320188594
 31
0.0
  0
LINE
  5
169
330
1F
100
AcDbEntity
  8
図
  6
EXLTYPE3
 62
     6
100
AcDbLine
 10
756.4764590412196
 20
561.4285320188601
 30
0.0
 11
736.8181761164597
 21
561.4285320188601
 31
0.0
  0
LINE
  5
16A
330
1F
100
AcDbEntity
  8
図
  6
EXLTYPE3
 62
     6
100
AcDbLine
 10
745.5140620557498
 20
584.5
 30
0.0
 11
745.5140620557498
 21
453.8
 31
0.0
  0
DIMENSION
  5
16C
330
1F
100
AcDbEntity
  8
図
  6
CONTINUOUS
 62
     3
100
AcDbDimension
  2
*D15
 10
745.5140620557498
 20
626.2
 30
0.0
 11
825.5140620557504
 21
637.9499999701975
 31
0.0
 70
   160
  3
ISO-25
100
AcDbAlignedDimension
 13
783.0140620557501
 23
594.62853201886
 33
0.0
 14
745.5140620557498
 24
584.5
 34
0.0
100
AcDbRotatedDimension
1001
ACAD
1000
DSTYLE
1002
{
1070
   270
1070
     2
1070
     6
1000
EX_NORM
1070
     7
1000
EX_NORM
1070
    41
1040
15.0
1070
    42
1040
3.499999940395355
1070
    44
1040
5.0
1070
    73
1070
     0
1070
    74
1070
     0
1070
    75
1070
     0
1070
    76
1070
     0
1070
    77
1070
     1
1070
    78
1070
     0
1070
   140
1040
20.0
1070
   147
1040
0.0
1070
   173
1070
     1
1070
   176
1070
     3
1070
   177
1070
     3
1070
   178
1070
     2
1070
   271
1070
     1
1070
   277
1070
     2
1070
   279
1070
     2
1070
   280
1070
     1
1070
   287
1070
     5
1070
   340
1005
16B
1002
}
  0
CIRCLE
  5
17A
330
1F
100
AcDbEntity
  8
図
  6
CONTINUOUS
 62
     6
100
AcDbCircle
 10
745.5140620557498
 20
574.42853201886
 30
0.0
 40
5.799999999999999
  0
CIRCLE
  5
17B
330
1F
100
AcDbEntity
  8
図
  6
EXLTYPE2
 62
     6
100
AcDbCircle
 10
745.5140620557498
 20
574.42853201886
 30
0.0
 40
3.4
  0
CIRCLE
  5
17C
330
1F
100
AcDbEntity
  8
図
  6
EXLTYPE2
 62
     6
100
AcDbCircle
 10
745.5140620557498
 20
574.42853201886
 30
0.0
 40
3.35
  0
LINE
  5
17D
330
1F
100
AcDbEntity
  8
図
  6
EXLTYPE3
 62
     6
100
AcDbLine
 10
377.35
 20
588.1285320188599
 30
0.0
 11
359.9499999999999
 21
588.1285320188599
 31
0.0
  0
LINE
  5
17E
330
1F
100
AcDbEntity
  8
図
  6
EXLTYPE3
 62
     6
100
AcDbLine
 10
417.5
 20
574.42853201886
 30
0.0
 11
328.9999999999999
 21
574.42853201886
 31
0.0
  0
LINE
  5
17F
330
1F
100
AcDbEntity
  8
図
  6
EXLTYPE3
 62
     6
100
AcDbLine
 10
457.5
 20
461.42853201886
 30
0.0
 11
280.86501454429
 21
461.42853201886
 31
0.0
  0
ARC
  5
180
330
1F
100
AcDbEntity
  8
図
  6
EXLTYPE3
 62
     6
100
AcDbCircle
 10
368.9999999999998
 20
472.9285320188601
 30
0.0
 40
88.50000000000006
100
AcDbArc
 50
0.0
 51
179.9999999999995
  0
LINE
  5
181
330
1F
100
AcDbEntity
  8
図
  6
EXLTYPE3
 62
     6
100
AcDbLine
 10
280.5
 20
461.42853201886
 30
0.0
 11
280.5000000000001
 21
472.9285320188609
 31
0.0
  0
LINE
  5
182
330
1F
100
AcDbEntity
  8
図
  6
EXLTYPE3
 62
     6
100
AcDbLine
 10
457.4999999999998
 20
461.42853201886
 30
0.0
 11
457.4999999999999
 21
473.65
 31
0.0
  0
LINE
  5
183
330
1F
100
AcDbEntity
  8
図
  6
CONTINUOUS
 62
     6
100
AcDbLine
 10
374.7
 20
580.22853201886
 30
0.0
 11
375.4999999999991
 21
580.22853201886
 31
0.0
  0
LINE
  5
184
330
1F
100
AcDbEntity
  8
図
  6
CONTINUOUS
 62
     6
100
AcDbLine
 10
374.7
 20
568.62853201886
 30
0.0
 11
375.4999999999991
 21
568.62853201886
 31
0.0
  0
LINE
  5
185
330
1F
100
AcDbEntity
  8
図
  6
CONTINUOUS
 62
     6
100
AcDbLine
 10
375.4999999999991
 20
568.62853201886
 30
0.0
 11
375.4999999999991
 21
580.22853201886
 31
0.0
  0
LINE
  5
186
330
1F
100
AcDbEntity
  8
図
  6
EXLTYPE2
 62
     6
100
AcDbLine
 10
375.4999999999991
 20
577.6785320188599
 30
0.0
 11
374.6999999999999
 21
577.6785320188599
 31
0.0
  0
LINE
  5
187
330
1F
100
AcDbEntity
  8
図
  6
EXLTYPE2
 62
     6
100
AcDbLine
 10
375.4999999999991
 20
571.1785320188601
 30
0.0
 11
374.6999999999999
 21
571.1785320188601
 31
0.0
  0
ELLIPSE
  5
188
330
1F
100
AcDbEntity
  8
図
  6
CONTINUOUS
 62
     6
100
AcDbEllipse
 10
379.0000000000003
 20
578.9245472087632
 30
0.0
 11
3.834909627313367E-13
 21
2.248007594949968
 31
0.0
210
0.0
220
0.0
230
1.0
 40
0.222419177374322
 41
3.141592653587944
 42
4.712391559358704
  0
ELLIPSE
  5
189
330
1F
100
AcDbEntity
  8
図
  6
CONTINUOUS
 62
     6
100
AcDbEllipse
 10
378.9999999999999
 20
574.42853201886
 30
0.0
 11
-4.129522958421626E-16
 21
-2.248007594949968
 31
0.0
210
0.0
220
0.0
230
1.0
 40
0.222419177374322
 41
0.0
 42
3.141592653591639
  0
LINE
  5
18A
330
1F
100
AcDbEntity
  8
図
  6
CONTINUOUS
 62
     6
100
AcDbLine
 10
378.9999999999999
 20
576.6765396138115
 30
0.0
 11
375.9999999999991
 21
576.6765396138118
 31
0.0
  0
ELLIPSE
  5
18B
330
1F
100
AcDbEntity
  8
図
  6
CONTINUOUS
 62
     6
100
AcDbEllipse
 10
375.9999999999995
 20
578.9245472087637
 30
0.0
 11
3.834909627313367E-13
 21
2.248007594949968
 31
0.0
210
0.0
220
0.0
230
1.0
 40
0.222419177374322
 41
1.569023729498566
 42
3.141592653591581
  0
ELLIPSE
  5
18C
330
1F
100
AcDbEntity
  8
図
  6
CONTINUOUS
 62
     6
100
AcDbEllipse
 10
375.9999999999991
 20
574.42853201886
 30
0.0
 11
-4.129522958421626E-16
 21
-2.248007594949968
 31
0.0
210
0.0
220
0.0
230
1.0
 40
0.222419177374322
 41
3.141592653587976
 42
6.283185307179586
  0
ELLIPSE
  5
18D
330
1F
100
AcDbEntity
  8
図
  6
CONTINUOUS
 62
     6
100
AcDbEllipse
 10
378.9999999999995
 20
569.9325168289633
 30
0.0
 11
3.834909627313367E-13
 21
2.248007594949968
 31
0.0
210
0.0
220
0.0
230
1.0
 40
0.222419177374322
 41
4.712388980383811
 42
6.283185307179586
  0
LINE
  5
18E
330
1F
100
AcDbEntity
  8
図
  6
CONTINUOUS
 62
     6
100
AcDbLine
 10
378.999999999999
 20
572.1805244239116
 30
0.0
 11
375.9999999999991
 21
572.180524423912
 31
0.0
  0
ELLIPSE
  5
18F
330
1F
100
AcDbEntity
  8
図
  6
CONTINUOUS
 62
     6
100
AcDbEllipse
 10
375.9999999999987
 20
569.9325168289638
 30
0.0
 11
3.834909627313367E-13
 21
2.248007594949968
 31
0.0
210
0.0
220
0.0
230
1.0
 40
0.222419177374322
 41
0.0
 42
1.570797578515345
  0
LINE
  5
190
330
1F
100
AcDbEntity
  8
図
  6
CONTINUOUS
 62
     6
100
AcDbLine
 10
363.3
 20
576.92853201886
 30
0.0
 11
361.9000000000014
 21
576.92853201886
 31
0.0
  0
LINE
  5
191
330
1F
100
AcDbEntity
  8
図
  6
CONTINUOUS
 62
     6
100
AcDbLine
 10
363.3
 20
571.92853201886
 30
0.0
 11
361.9000000000013
 21
571.92853201886
 31
0.0
  0
LINE
  5
192
330
1F
100
AcDbEntity
  8
図
  6
CONTINUOUS
 62
     6
100
AcDbLine
 10
367.2500000000001
 20
576.87853201886
 30
0.0
 11
366.7
 21
576.87853201886
 31
0.0
  0
LINE
  5
193
330
1F
100
AcDbEntity
  8
図
  6
CONTINUOUS
 62
     6
100
AcDbLine
 10
371.3
 20
576.87853201886
 30
0.0
 11
370.7500000000001
 21
576.87853201886
 31
0.0
  0
LINE
  5
194
330
1F
100
AcDbEntity
  8
図
  6
CONTINUOUS
 62
     6
100
AcDbLine
 10
367.2500000000001
 20
571.9785320188599
 30
0.0
 11
366.7000000000002
 21
571.9785320188599
 31
0.0
  0
LINE
  5
195
330
1F
100
AcDbEntity
  8
図
  6
CONTINUOUS
 62
     6
100
AcDbLine
 10
371.3
 20
571.9785320188599
 30
0.0
 11
370.7500000000001
 21
571.9785320188599
 31
0.0
  0
DIMENSION
  5
196
330
1F
100
AcDbEntity
  8
図
  6
CONTINUOUS
 62
     3
100
AcDbDimension
  2
*D16
 10
457.13498545571
 20
401.5000000000001
 30
0.0
 11
368.817492727855
 21
413.2499999701977
 31
0.0
 70
   160
  3
ISO-25
100
AcDbAlignedDimension
 13
280.5
 23
461.79354656315
 33
0.0
 14
457.13498545571
 24
461.42853201886
 34
0.0
100
AcDbRotatedDimension
1001
ACAD
1000
DSTYLE
1002
{
1070
   270
1070
     2
1070
     6
1000
EX_NORM
1070
     7
1000
EX_NORM
1070
    41
1040
15.0
1070
    42
1040
3.499999940395355
1070
    44
1040
5.0
1070
    73
1070
     0
1070
    74
1070
     0
1070
    75
1070
     0
1070
    76
1070
     0
1070
    77
1070
     1
1070
    78
1070
     0
1070
   140
1040
20.0
1070
   147
1040
0.0
1070
   173
1070
     1
1070
   176
1070
     3
1070
   177
1070
     3
1070
   178
1070
     2
1070
   271
1070
     1
1070
   277
1070
     2
1070
   279
1070
     2
1070
   280
1070
     0
1070
   287
1070
     5
1070
   340
1005
16B
1002
}
  0
DIMENSION
  5
1A3
330
1F
100
AcDbEntity
  8
図
  6
CONTINUOUS
 62
     3
100
AcDbDimension
  2
*D17
 10
748.6140620557499
 20
401.5000000000001
 30
0.0
 11
699.91406205575
 21
413.2499999701977
 31
0.0
 70
   160
  1
%%c<>
  3
ISO-25
100
AcDbAlignedDimension
 13
742.41406205575
 23
461.42853201886
 33
0.0
 14
748.6140620557499
 24
461.42853201886
 34
0.0
100
AcDbRotatedDimension
1001
ACAD
1000
DSTYLE
1002
{
1070
   270
1070
     2
1070
     6
1000
EX_NORM
1070
     7
1000
EX_NORM
1070
    41
1040
15.0
1070
    42
1040
3.499999940395355
1070
    44
1040
5.0
1070
    73
1070
     0
1070
    74
1070
     0
1070
    75
1070
     0
1070
    76
1070
     0
1070
    77
1070
     1
1070
    78
1070
     0
1070
   140
1040
20.0
1070
   147
1040
0.0
1070
   173
1070
     1
1070
   176
1070
     3
1070
   177
1070
     3
1070
   178
1070
     2
1070
   271
1070
     1
1070
   277
1070
     2
1070
   279
1070
     2
1070
   280
1070
     1
1070
   287
1070
     5
1070
   340
1005
16B
1002
}
  0
LINE
  5
1B2
330
1F
100
AcDbEntity
  8
図
  6
EXLTYPE3
 62
     6
100
AcDbLine
 10
368.9999999999999
 20
594.62853201886
 30
0.0
 11
368.9999999999999
 21
438.0
 31
0.0
  0
DIMENSION
  5
1B3
330
1F
100
AcDbEntity
  8
図
  6
CONTINUOUS
 62
     3
100
AcDbDimension
  2
*D18
 10
531.0
 20
461.4285320188599
 30
0.0
 11
519.2500000298023
 21
517.92853201886
 31
0.0
 70
   160
  3
ISO-25
100
AcDbAlignedDimension
 13
417.5
 23
574.42853201886
 33
0.0
 14
457.13498545571
 24
461.42853201886
 34
0.0
 50
90.0
100
AcDbRotatedDimension
1001
ACAD
1000
DSTYLE
1002
{
1070
   270
1070
     2
1070
     6
1000
EX_NORM
1070
     7
1000
EX_NORM
1070
    41
1040
15.0
1070
    42
1040
3.499999940395355
1070
    44
1040
5.0
1070
    73
1070
     0
1070
    74
1070
     0
1070
    75
1070
     0
1070
    76
1070
     0
1070
    77
1070
     1
1070
    78
1070
     0
1070
   140
1040
20.0
1070
   147
1040
0.0
1070
   173
1070
     1
1070
   176
1070
     3
1070
   177
1070
     3
1070
   178
1070
     2
1070
   271
1070
     0
1070
   277
1070
     2
1070
   279
1070
     2
1070
   280
1070
     0
1070
   287
1070
     5
1070
   340
1005
16B
1002
}
  0
DIMENSION
  5
1C0
330
1F
100
AcDbEntity
  8
図
  6
CONTINUOUS
 62
     3
100
AcDbDimension
  2
*D19
 10
905.0
 20
560.72853201886
 30
0.0
 11
893.2500000298024
 21
630.6285320188598
 31
0.0
 70
   160
  3
ISO-25
100
AcDbAlignedDimension
 13
824.45
 23
588.12853201886
 33
0.0
 14
824.45
 24
560.72853201886
 34
0.0
 50
90.0
100
AcDbRotatedDimension
1001
ACAD
1000
DSTYLE
1002
{
1070
   270
1070
     2
1070
     6
1000
EX_NORM
1070
     7
1000
EX_NORM
1070
    41
1040
15.0
1070
    42
1040
3.499999940395355
1070
    44
1040
5.0
1070
    73
1070
     0
1070
    74
1070
     0
1070
    75
1070
     0
1070
    76
1070
     0
1070
    77
1070
     1
1070
    78
1070
     0
1070
   140
1040
20.0
1070
   147
1040
0.0
1070
   173
1070
     1
1070
   176
1070
     3
1070
   177
1070
     3
1070
   178
1070
     2
1070
   271
1070
     1
1070
   277
1070
     2
1070
   279
1070
     2
1070
   280
1070
     1
1070
   287
1070
     5
1070
   340
1005
16B
1002
}
  0
LINE
  5
1CF
330
1F
100
AcDbEntity
  8
図
  6
EXLTYPE3
 62
     6
100
AcDbLine
 10
377.35
 20
560.72853201886
 30
0.0
 11
359.9499999999999
 21
560.72853201886
 31
0.0
  0
DIMENSION
  5
1D0
330
1F
100
AcDbEntity
  8
図
  6
CONTINUOUS
 62
     3
100
AcDbDimension
  2
*D20
 10
218.0
 20
458.32853201886
 30
0.0
 11
206.2500000298024
 21
526.47853201886
 31
0.0
 70
   160
  1
（136.3）
  3
ISO-25
100
AcDbAlignedDimension
 13
368.9999999999999
 23
594.62853201886
 33
0.0
 14
288.6
 24
458.32853201886
 34
0.0
 50
90.0
100
AcDbRotatedDimension
1001
ACAD
1000
DSTYLE
1002
{
1070
   270
1070
     2
1070
     6
1000
EX_NORM
1070
     7
1000
EX_NORM
1070
    41
1040
15.0
1070
    42
1040
3.499999940395355
1070
    44
1040
5.0
1070
    73
1070
     0
1070
    74
1070
     0
1070
    75
1070
     0
1070
    76
1070
     0
1070
    77
1070
     1
1070
    78
1070
     0
1070
   140
1040
20.0
1070
   147
1040
0.0
1070
   173
1070
     1
1070
   176
1070
     3
1070
   177
1070
     3
1070
   178
1070
     2
1070
   271
1070
     1
1070
   277
1070
     2
1070
   279
1070
     2
1070
   280
1070
     0
1070
   287
1070
     5
1070
   340
1005
16B
1002
}
  0
TEXT
  5
1DD
330
1F
100
AcDbEntity
  8
図
  6
CONTINUOUS
 62
     2
100
AcDbText
 10
502.1723611873471
 20
905.5248904003582
 30
0.0
 40
20.0
  1
Ｗ.Ｌ
 41
0.9767441860465117
  7
EXCADSTD
 72
     5
 11
542.1723611873471
 21
905.5248904003582
 31
0.0
100
AcDbText
  0
LINE
  5
1DE
330
1F
100
AcDbEntity
  8
図
  6
CONTINUOUS
 62
     7
100
AcDbLine
 10
544.0
 20
927.0
 30
0.0
 11
222.5
 21
927.0
 31
0.0
  0
LINE
  5
1DF
330
1F
100
AcDbEntity
  8
図
  6
CONTINUOUS
 62
     6
100
AcDbLine
 10
371.0135320188633
 20
927.0000000000018
 30
0.0
 11
371.0135320188633
 21
958.8190860659394
 31
0.0
  0
LINE
  5
1E0
330
1F
100
AcDbEntity
  8
図
  6
CONTINUOUS
 62
     6
100
AcDbLine
 10
370.7729450460155
 20
959.7701201346696
 30
0.0
 11
369.0135320188633
 21
963.0250342349019
 31
0.0
  0
LINE
  5
1E1
330
1F
100
AcDbEntity
  8
図
  6
CONTINUOUS
 62
     6
100
AcDbLine
 10
367.0135320188634
 20
927.0000000000018
 30
0.0
 11
367.0135320188634
 21
958.8190860659394
 31
0.0
  0
LINE
  5
1E2
330
1F
100
AcDbEntity
  8
図
  6
CONTINUOUS
 62
     6
100
AcDbLine
 10
367.2541189917111
 20
959.7701201346696
 30
0.0
 11
369.0135320188633
 21
963.0250342349019
 31
0.0
  0
ARC
  5
1E3
330
1F
100
AcDbEntity
  8
図
  6
CONTINUOUS
 62
     6
100
AcDbCircle
 10
369.0135320188633
 20
958.8190860659394
 30
0.0
 40
2.0
100
AcDbArc
 50
0.0000000000001719
 51
28.3930194213758
  0
ARC
  5
1E4
330
1F
100
AcDbEntity
  8
図
  6
CONTINUOUS
 62
     6
100
AcDbCircle
 10
369.0135320188633
 20
958.8190860659394
 30
0.0
 40
2.0
100
AcDbArc
 50
151.6069805786228
 51
180.0
  0
LINE
  5
1E5
330
1F
100
AcDbEntity
  8
図
  6
EXLTYPE3
 62
     6
100
AcDbLine
 10
368.9999999999999
 20
974.8500000000001
 30
0.0
 11
368.9999999999999
 21
864.07360934173
 31
0.0
  0
LINE
  5
1E6
330
1F
100
AcDbEntity
  8
図
  6
EXLTYPE3
 62
     6
100
AcDbLine
 10
480.4826307038298
 20
889.5000000000001
 30
0.0
 11
257.8078986651998
 21
889.5000000000001
 31
0.0
  0
DIMENSION
  5
1E7
330
1F
100
AcDbEntity
  8
図
  6
CONTINUOUS
 62
     3
100
AcDbDimension
  2
*D21
 10
783.0140620557501
 20
602.05
 30
0.0
 11
818.0140620557501
 21
613.7999999701976
 31
0.0
 70
   160
  3
ISO-25
100
AcDbAlignedDimension
 13
778.51406205575
 23
594.62853201886
 33
0.0
 14
783.0140620557501
 24
594.62853201886
 34
0.0
100
AcDbRotatedDimension
1001
ACAD
1000
DSTYLE
1002
{
1070
   270
1070
     2
1070
     6
1000
EX_NORM
1070
     7
1000
EX_NORM
1070
    41
1040
15.0
1070
    42
1040
3.499999940395355
1070
    44
1040
5.0
1070
    73
1070
     0
1070
    74
1070
     0
1070
    75
1070
     0
1070
    76
1070
     0
1070
    77
1070
     1
1070
    78
1070
     0
1070
   140
1040
20.0
1070
   147
1040
0.0
1070
   173
1070
     1
1070
   176
1070
     3
1070
   177
1070
     3
1070
   178
1070
     2
1070
   271
1070
     1
1070
   277
1070
     2
1070
   279
1070
     2
1070
   280
1070
     2
1070
   287
1070
     5
1070
   340
1005
16B
1002
}
  0
LINE
  5
1F6
330
1F
100
AcDbEntity
  8
図
  6
CONTINUOUS
 62
     6
100
AcDbLine
 10
374.7000000000001
 20
895.3000000000001
 30
0.0
 11
375.4999999999991
 21
895.3000000000001
 31
0.0
  0
LINE
  5
1F7
330
1F
100
AcDbEntity
  8
図
  6
EXLTYPE2
 62
     6
100
AcDbLine
 10
375.4999999999993
 20
892.7499999999999
 30
0.0
 11
374.7
 21
892.7499999999999
 31
0.0
  0
LINE
  5
1F8
330
1F
100
AcDbEntity
  8
図
  6
EXLTYPE2
 62
     6
100
AcDbLine
 10
375.4999999999993
 20
886.2500000000001
 30
0.0
 11
374.7
 21
886.2500000000001
 31
0.0
  0
ELLIPSE
  5
1F9
330
1F
100
AcDbEntity
  8
図
  6
CONTINUOUS
 62
     6
100
AcDbEllipse
 10
379.0000000000005
 20
893.9960151899032
 30
0.0
 11
-8.606651512975499E-16
 21
2.248007594949968
 31
0.0
210
0.0
220
0.0
230
1.0
 40
0.222419177374322
 41
3.141592653587944
 42
4.712391559358704
  0
ELLIPSE
  5
1FA
330
1F
100
AcDbEntity
  8
図
  6
CONTINUOUS
 62
     6
100
AcDbEllipse
 10
379.0000000000001
 20
889.5
 30
0.0
 11
-4.129522958421626E-16
 21
-2.248007594949968
 31
0.0
210
0.0
220
0.0
230
1.0
 40
0.222419177374322
 41
0.0
 42
3.141592653591639
  0
LINE
  5
1FB
330
1F
100
AcDbEntity
  8
図
  6
CONTINUOUS
 62
     6
100
AcDbLine
 10
379.0000000000001
 20
891.7480075949516
 30
0.0
 11
375.9999999999993
 21
891.7480075949518
 31
0.0
  0
ELLIPSE
  5
1FC
330
1F
100
AcDbEntity
  8
図
  6
CONTINUOUS
 62
     6
100
AcDbEllipse
 10
375.9999999999997
 20
893.9960151899038
 30
0.0
 11
-8.606651512975499E-16
 21
2.248007594949968
 31
0.0
210
0.0
220
0.0
230
1.0
 40
0.222419177374322
 41
1.569023729498566
 42
3.141592653591581
  0
ELLIPSE
  5
1FD
330
1F
100
AcDbEntity
  8
図
  6
CONTINUOUS
 62
     6
100
AcDbEllipse
 10
375.9999999999993
 20
889.5
 30
0.0
 11
-4.129522958421626E-16
 21
-2.248007594949968
 31
0.0
210
0.0
220
0.0
230
1.0
 40
0.222419177374322
 41
3.141592653587976
 42
6.283185307179586
  0
ELLIPSE
  5
1FE
330
1F
100
AcDbEntity
  8
図
  6
CONTINUOUS
 62
     6
100
AcDbEllipse
 10
378.9999999999997
 20
885.0039848101034
 30
0.0
 11
-8.606651512975499E-16
 21
2.248007594949968
 31
0.0
210
0.0
220
0.0
230
1.0
 40
0.222419177374322
 41
4.712388980383811
 42
6.283185307179586
  0
LINE
  5
1FF
330
1F
100
AcDbEntity
  8
図
  6
CONTINUOUS
 62
     6
100
AcDbLine
 10
378.9999999999991
 20
887.2519924050516
 30
0.0
 11
375.9999999999993
 21
887.251992405052
 31
0.0
  0
ELLIPSE
  5
200
330
1F
100
AcDbEntity
  8
図
  6
CONTINUOUS
 62
     6
100
AcDbEllipse
 10
375.9999999999988
 20
885.0039848101039
 30
0.0
 11
-8.606651512975499E-16
 21
2.248007594949968
 31
0.0
210
0.0
220
0.0
230
1.0
 40
0.222419177374322
 41
0.0
 42
1.570797578515345
  0
LINE
  5
201
330
1F
100
AcDbEntity
  8
図
  6
CONTINUOUS
 62
     6
100
AcDbLine
 10
363.3000000000001
 20
892.0
 30
0.0
 11
361.9000000000015
 21
892.0
 31
0.0
  0
LINE
  5
202
330
1F
100
AcDbEntity
  8
図
  6
CONTINUOUS
 62
     6
100
AcDbLine
 10
363.3000000000001
 20
887.0
 30
0.0
 11
361.9000000000014
 21
887.0
 31
0.0
  0
LINE
  5
203
330
1F
100
AcDbEntity
  8
図
  6
CONTINUOUS
 62
     6
100
AcDbLine
 10
367.2500000000002
 20
891.95
 30
0.0
 11
366.7
 21
891.95
 31
0.0
  0
LINE
  5
204
330
1F
100
AcDbEntity
  8
図
  6
CONTINUOUS
 62
     6
100
AcDbLine
 10
371.3000000000001
 20
891.95
 30
0.0
 11
370.7500000000002
 21
891.95
 31
0.0
  0
LINE
  5
205
330
1F
100
AcDbEntity
  8
図
  6
CONTINUOUS
 62
     6
100
AcDbLine
 10
367.2500000000002
 20
887.05
 30
0.0
 11
366.7000000000003
 21
887.05
 31
0.0
  0
LINE
  5
206
330
1F
100
AcDbEntity
  8
図
  6
CONTINUOUS
 62
     6
100
AcDbLine
 10
371.3000000000001
 20
887.05
 30
0.0
 11
370.7500000000002
 21
887.05
 31
0.0
  0
LINE
  5
207
330
1F
100
AcDbEntity
  8
図
  6
CONTINUOUS
 62
     6
100
AcDbLine
 10
375.4999999999991
 20
883.7
 30
0.0
 11
375.4999999999993
 21
895.3000000000001
 31
0.0
  0
LINE
  5
208
330
1F
100
AcDbEntity
  8
図
  6
CONTINUOUS
 62
     6
100
AcDbLine
 10
374.7000000000001
 20
883.7000000000002
 30
0.0
 11
375.4999999999991
 21
883.7000000000002
 31
0.0
  0
LINE
  5
209
330
1F
100
AcDbEntity
  8
図
  6
CONTINUOUS
 62
     6
100
AcDbLine
 10
363.3
 20
578.77853201886
 30
0.0
 11
361.9000000000013
 21
578.77853201886
 31
0.0
  0
LINE
  5
20A
330
1F
100
AcDbEntity
  8
図
  6
CONTINUOUS
 62
     6
100
AcDbLine
 10
361.9000000000013
 20
570.07853201886
 30
0.0
 11
361.9000000000014
 21
578.77853201886
 31
0.0
  0
LINE
  5
20B
330
1F
100
AcDbEntity
  8
図
  6
CONTINUOUS
 62
     6
100
AcDbLine
 10
363.3
 20
570.07853201886
 30
0.0
 11
361.9000000000013
 21
570.07853201886
 31
0.0
  0
LINE
  5
20C
330
1F
100
AcDbEntity
  8
図
  6
CONTINUOUS
 62
     6
100
AcDbLine
 10
363.3000000000001
 20
893.85
 30
0.0
 11
361.9000000000014
 21
893.85
 31
0.0
  0
LINE
  5
20D
330
1F
100
AcDbEntity
  8
図
  6
CONTINUOUS
 62
     6
100
AcDbLine
 10
361.9000000000014
 20
885.15
 30
0.0
 11
361.9000000000015
 21
893.85
 31
0.0
  0
LINE
  5
20E
330
1F
100
AcDbEntity
  8
図
  6
CONTINUOUS
 62
     6
100
AcDbLine
 10
363.3000000000001
 20
885.15
 30
0.0
 11
361.9000000000014
 21
885.15
 31
0.0
  0
LINE
  5
20F
330
1F
100
AcDbEntity
  8
図
  6
CONTINUOUS
 62
     2
100
AcDbLine
 10
783.0140620557501
 20
562.92853182897
 30
0.0
 11
783.0140620557501
 21
560.92853196677
 31
0.0
  0
LINE
  5
210
330
1F
100
AcDbEntity
  8
図
  6
CONTINUOUS
 62
     2
100
AcDbLine
 10
783.0140620557501
 20
562.92853182897
 30
0.0
 11
783.0140620557501
 21
566.9285320188201
 31
0.0
  0
LINE
  5
211
330
1F
100
AcDbEntity
  8
図
  6
CONTINUOUS
 62
     2
100
AcDbLine
 10
783.0140620557501
 20
594.62853201886
 30
0.0
 11
778.5140620557502
 21
594.62853201886
 31
0.0
  0
LINE
  5
212
330
1F
100
AcDbEntity
  8
図
  6
CONTINUOUS
 62
     2
100
AcDbLine
 10
783.0140620557501
 20
554.22853201886
 30
0.0
 11
778.5140620557502
 21
554.22853201886
 31
0.0
  0
LINE
  5
213
330
1F
100
AcDbEntity
  8
図
  6
CONTINUOUS
 62
     2
100
AcDbLine
 10
778.5140620557502
 20
554.22853201886
 30
0.0
 11
778.5140620557502
 21
594.62853201886
 31
0.0
  0
LINE
  5
214
330
1F
100
AcDbEntity
  8
図
  6
EXLTYPE2
 62
     2
100
AcDbLine
 10
781.01406205575
 20
590.52637915782
 30
0.0
 11
778.51406205575
 21
592.32853201886
 31
0.0
  0
LINE
  5
215
330
1F
100
AcDbEntity
  8
図
  6
EXLTYPE2
 62
     2
100
AcDbLine
 10
781.01406205575
 20
585.7306848799074
 30
0.0
 11
778.51406205575
 21
583.9285320188674
 31
0.0
  0
LINE
  5
216
330
1F
100
AcDbEntity
  8
図
  6
EXLTYPE2
 62
     2
100
AcDbLine
 10
783.0140620557501
 20
585.72853201886
 30
0.0
 11
781.0110755429326
 21
585.72853201886
 31
0.0
  0
LINE
  5
217
330
1F
100
AcDbEntity
  8
図
  6
EXLTYPE2
 62
     2
100
AcDbLine
 10
783.0140620557501
 20
590.52637915782
 30
0.0
 11
781.01406205575
 21
590.52637915782
 31
0.0
  0
LINE
  5
218
330
1F
100
AcDbEntity
  8
図
  6
CONTINUOUS
 62
     2
100
AcDbLine
 10
783.0140620557501
 20
554.2285320188595
 30
0.0
 11
778.5140620557502
 21
554.2285320188595
 31
0.0
  0
LINE
  5
219
330
1F
100
AcDbEntity
  8
図
  6
EXLTYPE2
 62
     2
100
AcDbLine
 10
781.01406205575
 20
558.3306848798995
 30
0.0
 11
778.51406205575
 21
556.5285320188596
 31
0.0
  0
LINE
  5
21A
330
1F
100
AcDbEntity
  8
図
  6
EXLTYPE2
 62
     2
100
AcDbLine
 10
781.01406205575
 20
563.1263791578122
 30
0.0
 11
778.51406205575
 21
564.9285320188521
 31
0.0
  0
LINE
  5
21B
330
1F
100
AcDbEntity
  8
図
  6
EXLTYPE2
 62
     2
100
AcDbLine
 10
783.0140620557501
 20
563.1285320188595
 30
0.0
 11
781.0110755429326
 21
563.1285320188595
 31
0.0
  0
LINE
  5
21C
330
1F
100
AcDbEntity
  8
図
  6
EXLTYPE2
 62
     2
100
AcDbLine
 10
783.0140620557501
 20
558.3306848798995
 30
0.0
 11
781.01406205575
 21
558.3306848798995
 31
0.0
  0
LINE
  5
21D
330
1F
100
AcDbEntity
  8
図
  6
CONTINUOUS
 62
     2
100
AcDbLine
 10
750.3426277724797
 20
560.5582828145701
 30
0.0
 11
750.3361420420797
 21
560.55815987997
 31
0.0
  0
LINE
  5
21E
330
1F
100
AcDbEntity
  8
図
  6
CONTINUOUS
 62
     2
100
AcDbLine
 10
746.38430938988
 20
566.2570988503701
 30
0.0
 11
746.3844323244798
 21
566.2506117229701
 31
0.0
  0
LINE
  5
21F
330
1F
100
AcDbEntity
  8
図
  6
CONTINUOUS
 62
     2
100
AcDbLine
 10
750.3368349460798
 20
560.5620095017701
 30
0.0
 11
750.3433206764797
 21
560.56213755857
 31
0.0
  0
LINE
  5
220
330
1F
100
AcDbEntity
  8
図
  6
CONTINUOUS
 62
     2
100
AcDbLine
 10
750.3053413418797
 20
562.48496011597
 30
0.0
 11
750.2988518860798
 21
562.4848320591701
 31
0.0
  0
LINE
  5
221
330
1F
100
AcDbEntity
  8
図
  6
CONTINUOUS
 62
     2
100
AcDbLine
 10
746.3805840996796
 20
566.2513049179701
 30
0.0
 11
746.3804574396798
 21
566.2577919871701
 31
0.0
  0
LINE
  5
222
330
1F
100
AcDbEntity
  8
図
  6
CONTINUOUS
 62
     2
100
AcDbLine
 10
744.4576339510795
 20
566.2198106735701
 30
0.0
 11
744.4577606108796
 21
566.2133236043701
 31
0.0
  0
LINE
  5
223
330
1F
100
AcDbEntity
  8
図
  6
CONTINUOUS
 62
     2
100
AcDbLine
 10
740.7227845576799
 20
560.3721039813701
 30
0.0
 11
740.7292702880795
 21
560.3722320381701
 31
0.0
  0
LINE
  5
224
330
1F
100
AcDbEntity
  8
図
  6
CONTINUOUS
 62
     2
100
AcDbLine
 10
740.6912909534799
 20
562.2950545955702
 30
0.0
 11
740.6848014978796
 21
562.29492653877
 31
0.0
  0
LINE
  5
225
330
1F
100
AcDbEntity
  8
図
  6
CONTINUOUS
 62
     2
100
AcDbLine
 10
743.3607706514798
 20
565.8300472865701
 30
0.0
 11
743.3572279002797
 21
565.8353966871701
 31
0.0
  0
LINE
  5
226
330
1F
100
AcDbEntity
  8
図
  6
CONTINUOUS
 62
     2
100
AcDbLine
 10
742.4140620557498
 20
461.428532018858
 30
0.0
 11
742.4140620557498
 21
561.42853201886
 31
0.0
  0
ARC
  5
227
330
1F
100
AcDbEntity
  8
図
  6
CONTINUOUS
 62
     2
100
AcDbCircle
 10
745.5140620557498
 20
461.42853201886
 30
0.0
 40
3.100000000000023
100
AcDbArc
 50
180.0
 51
0.0
  0
LINE
  5
228
330
1F
100
AcDbEntity
  8
図
  6
CONTINUOUS
 62
     2
100
AcDbLine
 10
748.6140620557502
 20
461.428532018858
 30
0.0
 11
748.6140620557502
 21
561.42853201886
 31
0.0
  0
LINE
  5
229
330
1F
100
AcDbEntity
  8
図
  6
CONTINUOUS
 62
     2
100
AcDbLine
 10
738.26406205575
 20
561.4285320188601
 30
0.0
 11
738.26406205575
 21
574.0785320188616
 31
0.0
  0
ARC
  5
22A
330
1F
100
AcDbEntity
  8
図
  6
CONTINUOUS
 62
     2
100
AcDbCircle
 10
745.5140620557501
 20
561.4285320188607
 30
0.0
 40
3.100000000000364
100
AcDbArc
 50
0.0
 51
180.0000000000105
  0
ARC
  5
22B
330
1F
100
AcDbEntity
  8
図
  6
CONTINUOUS
 62
     2
100
AcDbCircle
 10
745.5140620557498
 20
561.5785320188614
 30
0.0
 40
7.24999999999966
100
AcDbArc
 50
295.3144720198359
 51
0.0
  0
ARC
  5
22C
330
1F
100
AcDbEntity
  8
図
  6
CONTINUOUS
 62
     2
100
AcDbCircle
 10
745.5140620557498
 20
561.5785320188614
 30
0.0
 40
7.24999999999966
100
AcDbArc
 50
180.0
 51
244.6855279801681
  0
ARC
  5
22D
330
1F
100
AcDbEntity
  8
図
  6
EXLTYPE2
 62
     2
100
AcDbCircle
 10
745.5140620557498
 20
561.5785320188614
 30
0.0
 40
7.24999999999966
100
AcDbArc
 50
244.6855279801533
 51
295.3144720198468
  0
LINE
  5
22E
330
1F
100
AcDbEntity
  8
図
  6
CONTINUOUS
 62
     2
100
AcDbLine
 10
778.51406205575
 20
581.6285320188597
 30
0.0
 11
745.9140620557489
 21
581.6285320188597
 31
0.0
  0
LINE
  5
22F
330
1F
100
AcDbEntity
  8
図
  6
CONTINUOUS
 62
     2
100
AcDbLine
 10
778.51406205575
 20
567.2285320188598
 30
0.0
 11
745.9140620557489
 21
567.2285320188598
 31
0.0
  0
ARC
  5
230
330
1F
100
AcDbEntity
  8
図
  6
CONTINUOUS
 62
     2
100
AcDbCircle
 10
745.9140620557489
 20
574.4285320188598
 30
0.0
 40
7.199999999998796
100
AcDbArc
 50
90.00000000000001
 51
270.0
  0
LINE
  5
231
330
1F
100
AcDbEntity
  8
図
  6
CONTINUOUS
 62
     2
100
AcDbLine
 10
752.7640620557498
 20
561.4285320188601
 30
0.0
 11
752.7640620557493
 21
567.22853201886
 31
0.0
  0
LINE
  5
232
330
1F
100
AcDbEntity
  8
図
  6
EXLTYPE2
 62
     2
100
AcDbLine
 10
752.7640620557498
 20
567.22853201886
 30
0.0
 11
752.7640620557498
 21
574.0785320188616
 31
0.0
  0
LINE
  5
233
330
1F
100
AcDbEntity
  8
図
  6
CONTINUOUS
 62
     2
100
AcDbLine
 10
745.5140620557498
 20
578.92853201886
 30
0.0
 11
749.4111763727799
 21
576.67853201886
 31
0.0
  0
LINE
  5
234
330
1F
100
AcDbEntity
  8
図
  6
CONTINUOUS
 62
     2
100
AcDbLine
 10
745.5140620557497
 20
578.92853201886
 30
0.0
 11
741.6169477387197
 21
576.67853201886
 31
0.0
  0
LINE
  5
235
330
1F
100
AcDbEntity
  8
図
  6
CONTINUOUS
 62
     2
100
AcDbLine
 10
749.40772542601
 20
572.18052442391
 30
0.0
 11
749.40772542601
 21
576.6765396138137
 31
0.0
  0
LINE
  5
236
330
1F
100
AcDbEntity
  8
図
  6
CONTINUOUS
 62
     2
100
AcDbLine
 10
749.40772542601
 20
572.18052442391
 30
0.0
 11
745.5123365823599
 21
569.93152062643
 31
0.0
  0
LINE
  5
237
330
1F
100
AcDbEntity
  8
図
  6
CONTINUOUS
 62
     2
100
AcDbLine
 10
741.6203986854897
 20
572.18052442391
 30
0.0
 11
741.6203986854897
 21
576.6765396138137
 31
0.0
  0
LINE
  5
238
330
1F
100
AcDbEntity
  8
図
  6
CONTINUOUS
 62
     2
100
AcDbLine
 10
741.6203986854897
 20
572.18052442391
 30
0.0
 11
745.5157875291396
 21
569.93152062643
 31
0.0
  0
CIRCLE
  5
239
330
1F
100
AcDbEntity
  8
図
  6
CONTINUOUS
 62
     2
100
AcDbCircle
 10
745.5140620557498
 20
574.42853201886
 30
0.0
 40
3.25
  0
LINE
  5
23A
330
1F
100
AcDbEntity
  8
図
  6
CONTINUOUS
 62
     2
100
AcDbLine
 10
283.6000000000003
 20
469.52853201886
 30
0.0
 11
283.6000000000003
 21
472.9285320188603
 31
0.0
  0
ARC
  5
23B
330
1F
100
AcDbEntity
  8
図
  6
CONTINUOUS
 62
     2
100
AcDbCircle
 10
288.6000000000002
 20
469.52853201886
 30
0.0
 40
5.0
100
AcDbArc
 50
180.0
 51
270.0
  0
ARC
  5
23C
330
1F
100
AcDbEntity
  8
図
  6
CONTINUOUS
 62
     2
100
AcDbCircle
 10
288.6000000000002
 20
469.52853201886
 30
0.0
 40
11.2
100
AcDbArc
 50
180.0
 51
270.0
  0
LINE
  5
23D
330
1F
100
AcDbEntity
  8
図
  6
CONTINUOUS
 62
     2
100
AcDbLine
 10
277.4000000000002
 20
474.0000000000001
 30
0.0
 11
277.4000000000002
 21
469.52853201886
 31
0.0
  0
LINE
  5
23E
330
1F
100
AcDbEntity
  8
図
  6
CONTINUOUS
 62
     2
100
AcDbLine
 10
454.3999999999997
 20
469.5285320188598
 30
0.0
 11
454.3999999999997
 21
472.9285320188602
 31
0.0
  0
ARC
  5
23F
330
1F
100
AcDbEntity
  8
図
  6
CONTINUOUS
 62
     2
100
AcDbCircle
 10
449.3999999999997
 20
469.5285320188598
 30
0.0
 40
11.2
100
AcDbArc
 50
270.0
 51
0.0
  0
LINE
  5
240
330
1F
100
AcDbEntity
  8
図
  6
CONTINUOUS
 62
     2
100
AcDbLine
 10
460.5999999999998
 20
473.9999999999999
 30
0.0
 11
460.5999999999998
 21
469.5285320188598
 31
0.0
  0
LINE
  5
241
330
1F
100
AcDbEntity
  8
図
  6
CONTINUOUS
 62
     2
100
AcDbLine
 10
288.6000000000002
 20
464.52853201886
 30
0.0
 11
449.4
 21
464.5285320188601
 31
0.0
  0
LINE
  5
242
330
1F
100
AcDbEntity
  8
図
  6
CONTINUOUS
 62
     2
100
AcDbLine
 10
449.4
 20
458.32853201886
 30
0.0
 11
288.05
 21
458.32853201886
 31
0.0
  0
ARC
  5
243
330
1F
100
AcDbEntity
  8
図
  6
CONTINUOUS
 62
     2
100
AcDbCircle
 10
449.3999999999997
 20
469.5285320188598
 30
0.0
 40
5.0
100
AcDbArc
 50
270.0
 51
0.0
  0
ARC
  5
244
330
1F
100
AcDbEntity
  8
図
  6
CONTINUOUS
 62
     2
100
AcDbCircle
 10
368.9999999999999
 20
574.42853201886
 30
0.0
 40
20.19999999999993
100
AcDbArc
 50
325.5487365955216
 51
214.4512634044784
  0
ARC
  5
245
330
1F
100
AcDbEntity
  8
図
  6
EXLTYPE2
 62
     2
100
AcDbCircle
 10
368.9999999999999
 20
574.42853201886
 30
0.0
 40
20.19999999999993
100
AcDbArc
 50
303.558236583768
 51
325.5487365955209
  0
ARC
  5
246
330
1F
100
AcDbEntity
  8
図
  6
EXLTYPE2
 62
     2
100
AcDbCircle
 10
368.9999999999999
 20
574.42853201886
 30
0.0
 40
20.19999999999993
100
AcDbArc
 50
214.4512634044791
 51
236.4417634162324
  0
ARC
  5
247
330
1F
100
AcDbEntity
  8
図
  6
CONTINUOUS
 62
     2
100
AcDbCircle
 10
368.9999999999999
 20
574.42853201886
 30
0.0
 40
20.19999999999993
100
AcDbArc
 50
236.4417634162324
 51
303.558236583768
  0
LINE
  5
248
330
1F
100
AcDbEntity
  8
図
  6
CONTINUOUS
 62
     2
100
AcDbLine
 10
374.6999999999999
 20
581.6174123210999
 30
0.0
 11
371.3
 21
581.6174123210999
 31
0.0
  0
LINE
  5
249
330
1F
100
AcDbEntity
  8
図
  6
CONTINUOUS
 62
     2
100
AcDbLine
 10
374.6999999999999
 20
567.2396517166198
 30
0.0
 11
374.7
 21
581.6174123210999
 31
0.0
  0
LINE
  5
24A
330
1F
100
AcDbEntity
  8
図
  6
CONTINUOUS
 62
     2
100
AcDbLine
 10
371.3
 20
567.2396517166198
 30
0.0
 11
371.3
 21
581.6174123210999
 31
0.0
  0
LINE
  5
24B
330
1F
100
AcDbEntity
  8
図
  6
CONTINUOUS
 62
     2
100
AcDbLine
 10
374.6999999999999
 20
567.2396517166198
 30
0.0
 11
371.3
 21
567.2396517166198
 31
0.0
  0
LINE
  5
24C
330
1F
100
AcDbEntity
  8
図
  6
CONTINUOUS
 62
     2
100
AcDbLine
 10
366.7000000000002
 20
567.2396517166198
 30
0.0
 11
363.3000000000002
 21
567.23965171662
 31
0.0
  0
LINE
  5
24D
330
1F
100
AcDbEntity
  8
図
  6
CONTINUOUS
 62
     2
100
AcDbLine
 10
366.7000000000002
 20
567.2396517166198
 30
0.0
 11
366.7000000000002
 21
581.6174123210999
 31
0.0
  0
LINE
  5
24E
330
1F
100
AcDbEntity
  8
図
  6
CONTINUOUS
 62
     2
100
AcDbLine
 10
363.3000000000002
 20
567.2396517166198
 30
0.0
 11
363.3000000000002
 21
581.6174123210999
 31
0.0
  0
LINE
  5
24F
330
1F
100
AcDbEntity
  8
図
  6
CONTINUOUS
 62
     2
100
AcDbLine
 10
366.7000000000005
 20
581.6174123210999
 30
0.0
 11
363.3000000000007
 21
581.6174123210999
 31
0.0
  0
ARC
  5
250
330
1F
100
AcDbEntity
  8
図
  6
CONTINUOUS
 62
     2
100
AcDbCircle
 10
745.5140620557498
 20
574.0785320188616
 30
0.0
 40
7.249999999999886
100
AcDbArc
 50
124.7524814348266
 51
180.0
  0
ARC
  5
251
330
1F
100
AcDbEntity
  8
図
  6
EXLTYPE2
 62
     2
100
AcDbCircle
 10
745.5140620557498
 20
574.0785320188616
 30
0.0
 40
7.249999999999886
100
AcDbArc
 50
0.0
 51
124.535672343046
  0
LINE
  5
252
330
1F
100
AcDbEntity
  8
図
  6
CONTINUOUS
 62
     2
100
AcDbLine
 10
370.7500000000001
 20
554.32853201886
 30
0.0
 11
370.7500000000001
 21
581.3285320188612
 31
0.0
  0
LINE
  5
253
330
1F
100
AcDbEntity
  8
図
  6
CONTINUOUS
 62
     2
100
AcDbLine
 10
367.2500000000001
 20
554.32853201886
 30
0.0
 11
367.2500000000001
 21
581.3285320188612
 31
0.0
  0
LINE
  5
254
330
1F
100
AcDbEntity
  8
図
  6
CONTINUOUS
 62
     2
100
AcDbLine
 10
370.75
 20
581.3285320188612
 30
0.0
 11
367.25
 21
581.3285320188612
 31
0.0
  0
LINE
  5
255
330
1F
100
AcDbEntity
  8
図
  6
CONTINUOUS
 62
     2
100
AcDbLine
 10
370.75
 20
554.32853201886
 30
0.0
 11
367.25
 21
554.32853201886
 31
0.0
  0
ARC
  5
256
330
1F
100
AcDbEntity
  8
図
  6
CONTINUOUS
 62
     2
100
AcDbCircle
 10
368.9999999999998
 20
472.9285320188601
 30
0.0
 40
91.60000000000005
100
AcDbArc
 50
0.0
 51
88.90530879197821
  0
ARC
  5
257
330
1F
100
AcDbEntity
  8
図
  6
CONTINUOUS
 62
     2
100
AcDbCircle
 10
368.9999999999998
 20
472.9285320188601
 30
0.0
 40
91.60000000000005
100
AcDbArc
 50
91.09469120802152
 51
179.3298275819096
  0
ARC
  5
258
330
1F
100
AcDbEntity
  8
図
  6
CONTINUOUS
 62
     2
100
AcDbCircle
 10
368.9999999999998
 20
472.9285320188601
 30
0.0
 40
85.40000000000006
100
AcDbArc
 50
91.1741760277524
 51
179.9999999999998
  0
ARC
  5
259
330
1F
100
AcDbEntity
  8
図
  6
CONTINUOUS
 62
     2
100
AcDbCircle
 10
368.9999999999998
 20
472.9285320188601
 30
0.0
 40
85.40000000000006
100
AcDbArc
 50
0.0
 51
88.82582397224726
  0
LINE
  5
25A
330
1F
100
AcDbEntity
  8
図
  6
CONTINUOUS
 62
     2
100
AcDbLine
 10
379.4999999999986
 20
569.9325168289619
 30
0.0
 11
379.4999999999986
 21
578.9285320188618
 31
0.0
  0
LINE
  5
25B
330
1F
100
AcDbEntity
  8
図
  6
CONTINUOUS
 62
     2
100
AcDbLine
 10
379.45
 20
578.9285320188616
 30
0.0
 11
375.4999999999991
 21
578.9285320188619
 31
0.0
  0
LINE
  5
25C
330
1F
100
AcDbEntity
  8
図
  6
CONTINUOUS
 62
     2
100
AcDbLine
 10
379.5
 20
569.9325168289616
 30
0.0
 11
375.4999999999991
 21
569.932516828962
 31
0.0
  0
ARC
  5
25D
330
1F
100
AcDbEntity
  8
図
  6
CONTINUOUS
 62
     2
100
AcDbCircle
 10
379.7499999999969
 20
574.4285320188621
 30
0.0
 40
3.250000000002274
100
AcDbArc
 50
265.5882742142822
 51
94.41172578570979
  0
LINE
  5
25E
330
1F
100
AcDbEntity
  8
図
  6
CONTINUOUS
 62
     2
100
AcDbLine
 10
361.9000000000013
 20
570.1285320188601
 30
0.0
 11
361.4000000000014
 21
570.1285320188601
 31
0.0
  0
ARC
  5
25F
330
1F
100
AcDbEntity
  8
図
  6
CONTINUOUS
 62
     2
100
AcDbCircle
 10
361.4000000000014
 20
572.6285320188601
 30
0.0
 40
2.5
100
AcDbArc
 50
180.0
 51
270.0
  0
LINE
  5
260
330
1F
100
AcDbEntity
  8
図
  6
CONTINUOUS
 62
     2
100
AcDbLine
 10
358.9000000000014
 20
572.6285320188601
 30
0.0
 11
358.9000000000015
 21
576.2285320188598
 31
0.0
  0
LINE
  5
261
330
1F
100
AcDbEntity
  8
図
  6
CONTINUOUS
 62
     2
100
AcDbLine
 10
361.9
 20
578.7285320188598
 30
0.0
 11
361.4000000000015
 21
578.7285320188598
 31
0.0
  0
ARC
  5
262
330
1F
100
AcDbEntity
  8
図
  6
CONTINUOUS
 62
     2
100
AcDbCircle
 10
361.4000000000015
 20
576.2285320188598
 30
0.0
 40
2.5
100
AcDbArc
 50
90.00000000000001
 51
180.0
  0
LINE
  5
263
330
1F
100
AcDbEntity
  8
図
  6
CONTINUOUS
 62
     2
100
AcDbLine
 10
386.9999990017999
 20
927.0000000000001
 30
0.0
 11
351.0000005514
 21
927.0000000000001
 31
0.0
  0
ARC
  5
264
330
1F
100
AcDbEntity
  8
図
  6
CONTINUOUS
 62
     2
100
AcDbCircle
 10
457.5
 20
889.5
 30
0.0
 40
3.100000000000001
100
AcDbArc
 50
269.9999999999987
 51
90.00000000000139
  0
ARC
  5
265
330
1F
100
AcDbEntity
  8
図
  6
CONTINUOUS
 62
     2
100
AcDbCircle
 10
280.5000000000002
 20
889.5
 30
0.0
 40
3.100000000000001
100
AcDbArc
 50
89.99999999999893
 51
270.0
  0
LINE
  5
266
330
1F
100
AcDbEntity
  8
図
  6
CONTINUOUS
 62
     2
100
AcDbLine
 10
389.2
 20
922.5
 30
0.0
 11
389.2
 21
927.0
 31
0.0
  0
LINE
  5
267
330
1F
100
AcDbEntity
  8
図
  6
CONTINUOUS
 62
     2
100
AcDbLine
 10
348.8000000000001
 20
922.5
 30
0.0
 11
348.8000000000001
 21
927.0
 31
0.0
  0
LINE
  5
268
330
1F
100
AcDbEntity
  8
図
  6
CONTINUOUS
 62
     2
100
AcDbLine
 10
389.2
 20
922.5
 30
0.0
 11
348.8
 21
922.5
 31
0.0
  0
LINE
  5
269
330
1F
100
AcDbEntity
  8
図
  6
CONTINUOUS
 62
     2
100
AcDbLine
 10
374.7
 20
882.7
 30
0.0
 11
371.3
 21
882.7
 31
0.0
  0
LINE
  5
26A
330
1F
100
AcDbEntity
  8
図
  6
CONTINUOUS
 62
     2
100
AcDbLine
 10
363.3000000000002
 20
882.7
 30
0.0
 11
366.7000000000002
 21
882.7
 31
0.0
  0
LINE
  5
26B
330
1F
100
AcDbEntity
  8
図
  6
CONTINUOUS
 62
     2
100
AcDbLine
 10
370.75
 20
882.25
 30
0.0
 11
370.7499999999999
 21
896.7500000000002
 31
0.0
  0
LINE
  5
26C
330
1F
100
AcDbEntity
  8
図
  6
CONTINUOUS
 62
     2
100
AcDbLine
 10
367.2500000000001
 20
882.25
 30
0.0
 11
367.2500000000001
 21
896.7500000000002
 31
0.0
  0
LINE
  5
26D
330
1F
100
AcDbEntity
  8
図
  6
CONTINUOUS
 62
     2
100
AcDbLine
 10
370.75
 20
882.2500000000002
 30
0.0
 11
367.25
 21
882.2500000000002
 31
0.0
  0
LINE
  5
26E
330
1F
100
AcDbEntity
  8
図
  6
CONTINUOUS
 62
     2
100
AcDbLine
 10
370.75
 20
896.7500000000002
 30
0.0
 11
367.25
 21
896.7500000000002
 31
0.0
  0
LINE
  5
26F
330
1F
100
AcDbEntity
  8
図
  6
CONTINUOUS
 62
     2
100
AcDbLine
 10
379.4999999999986
 20
885.0039848101019
 30
0.0
 11
379.4999999999987
 21
894.0000000000018
 31
0.0
  0
LINE
  5
270
330
1F
100
AcDbEntity
  8
図
  6
CONTINUOUS
 62
     2
100
AcDbLine
 10
379.4500000000001
 20
894.0000000000016
 30
0.0
 11
375.4999999999993
 21
894.000000000002
 31
0.0
  0
LINE
  5
271
330
1F
100
AcDbEntity
  8
図
  6
CONTINUOUS
 62
     2
100
AcDbLine
 10
379.5000000000001
 20
885.0039848101017
 30
0.0
 11
375.4999999999991
 21
885.003984810102
 31
0.0
  0
ARC
  5
272
330
1F
100
AcDbEntity
  8
図
  6
CONTINUOUS
 62
     2
100
AcDbCircle
 10
379.749999999997
 20
889.5000000000022
 30
0.0
 40
3.250000000002274
100
AcDbArc
 50
265.5882742142822
 51
94.41172578570979
  0
LINE
  5
273
330
1F
100
AcDbEntity
  8
図
  6
CONTINUOUS
 62
     2
100
AcDbLine
 10
361.9000000000014
 20
885.2000000000002
 30
0.0
 11
361.4000000000015
 21
885.2000000000002
 31
0.0
  0
ARC
  5
274
330
1F
100
AcDbEntity
  8
図
  6
CONTINUOUS
 62
     2
100
AcDbCircle
 10
361.4000000000015
 20
887.7000000000002
 30
0.0
 40
2.5
100
AcDbArc
 50
180.0
 51
270.0
  0
LINE
  5
275
330
1F
100
AcDbEntity
  8
図
  6
CONTINUOUS
 62
     2
100
AcDbLine
 10
358.9000000000015
 20
887.7000000000002
 30
0.0
 11
358.9000000000016
 21
891.3
 31
0.0
  0
LINE
  5
276
330
1F
100
AcDbEntity
  8
図
  6
CONTINUOUS
 62
     2
100
AcDbLine
 10
361.9000000000001
 20
893.8
 30
0.0
 11
361.4000000000016
 21
893.8
 31
0.0
  0
ARC
  5
277
330
1F
100
AcDbEntity
  8
図
  6
CONTINUOUS
 62
     2
100
AcDbCircle
 10
361.4000000000016
 20
891.3
 30
0.0
 40
2.5
100
AcDbArc
 50
90.00000000000001
 51
180.0
  0
LINE
  5
278
330
1F
100
AcDbEntity
  8
図
  6
CONTINUOUS
 62
     2
100
AcDbLine
 10
380.72596106481
 20
892.6
 30
0.0
 11
457.5
 21
892.6
 31
0.0
  0
LINE
  5
279
330
1F
100
AcDbEntity
  8
図
  6
CONTINUOUS
 62
     2
100
AcDbLine
 10
380.7259610647999
 20
886.4000000000001
 30
0.0
 11
457.5
 21
886.4000000000001
 31
0.0
  0
LINE
  5
27A
330
1F
100
AcDbEntity
  8
図
  6
CONTINUOUS
 62
     2
100
AcDbLine
 10
363.3000000000003
 20
882.7
 30
0.0
 11
363.3000000000003
 21
922.5
 31
0.0
  0
LINE
  5
27B
330
1F
100
AcDbEntity
  8
図
  6
CONTINUOUS
 62
     2
100
AcDbLine
 10
366.7000000000003
 20
882.7
 30
0.0
 11
366.7000000000003
 21
922.5
 31
0.0
  0
LINE
  5
27C
330
1F
100
AcDbEntity
  8
図
  6
CONTINUOUS
 62
     2
100
AcDbLine
 10
371.3
 20
882.7
 30
0.0
 11
371.3
 21
922.5
 31
0.0
  0
LINE
  5
27D
330
1F
100
AcDbEntity
  8
図
  6
CONTINUOUS
 62
     2
100
AcDbLine
 10
374.6999999999999
 20
882.7
 30
0.0
 11
374.6999999999999
 21
922.5
 31
0.0
  0
LINE
  5
27E
330
1F
100
AcDbEntity
  8
図
  6
CONTINUOUS
 62
     2
100
AcDbLine
 10
280.5
 20
886.4000000000001
 30
0.0
 11
359.2645843496
 21
886.4000000000001
 31
0.0
  0
LINE
  5
27F
330
1F
100
AcDbEntity
  8
図
  6
EXLTYPE2
 62
     2
100
AcDbLine
 10
359.2645843496
 20
886.4000000000001
 30
0.0
 11
380.7259610647999
 21
886.4000000000001
 31
0.0
  0
LINE
  5
280
330
1F
100
AcDbEntity
  8
図
  6
CONTINUOUS
 62
     2
100
AcDbLine
 10
280.5
 20
892.6
 30
0.0
 11
359.2645843496
 21
892.6
 31
0.0
  0
LINE
  5
281
330
1F
100
AcDbEntity
  8
図
  6
EXLTYPE2
 62
     2
100
AcDbLine
 10
359.2645843496
 20
892.6
 30
0.0
 11
380.72596106481
 21
892.6
 31
0.0
  0
LINE
  5
282
330
1F
100
AcDbEntity
  8
図
  6
EXLTYPE2
 62
     2
100
AcDbLine
 10
366.6021528610401
 20
925.0
 30
0.0
 11
364.8000000000001
 21
922.5
 31
0.0
  0
LINE
  5
283
330
1F
100
AcDbEntity
  8
図
  6
EXLTYPE2
 62
     2
100
AcDbLine
 10
371.3978471389527
 20
925.0
 30
0.0
 11
373.1999999999927
 21
922.5
 31
0.0
  0
LINE
  5
284
330
1F
100
AcDbEntity
  8
図
  6
EXLTYPE2
 62
     2
100
AcDbLine
 10
371.4
 20
927.0
 30
0.0
 11
371.4
 21
924.9970134871826
 31
0.0
  0
LINE
  5
285
330
1F
100
AcDbEntity
  8
図
  6
EXLTYPE2
 62
     2
100
AcDbLine
 10
366.6021528610401
 20
927.0
 30
0.0
 11
366.6021528610401
 21
925.0
 31
0.0
  0
CIRCLE
  5
286
330
1F
100
AcDbEntity
  8
図
  6
CONTINUOUS
 62
     6
100
AcDbCircle
 10
368.9999999999999
 20
588.12853201886
 30
0.0
 40
4.199999999999932
  0
DIMENSION
  5
287
330
1F
100
AcDbEntity
  8
図
  6
CONTINUOUS
 62
     3
100
AcDbDimension
  2
*D22
 10
366.9648403011065
 20
586.9535320188601
 30
0.0
 11
401.9662393746339
 21
620.7293304875168
 31
0.0
 70
   163
  3
ISO-25
100
AcDbDiametricDimension
 15
371.0351596988934
 25
589.30353201886
 35
0.0
 40
0.0
1001
ACAD
1000
DSTYLE
1002
{
1070
   270
1070
     2
1070
     6
1000
EX_NORM
1070
     7
1000
EX_NORM
1070
    41
1040
15.0
1070
    73
1070
     0
1070
    74
1070
     0
1070
    77
1070
     1
1070
    78
1070
     0
1070
   140
1040
20.0
1070
   147
1040
0.0
1070
   173
1070
     1
1070
   176
1070
     3
1070
   177
1070
     3
1070
   178
1070
     2
1070
   271
1070
     1
1070
   277
1070
     2
1070
   279
1070
     2
1070
   280
1070
     1
1070
   287
1070
     5
1070
   340
1005
16B
1002
}
  0
CIRCLE
  5
293
330
1F
100
AcDbEntity
  8
図
  6
EXLTYPE1
 62
     2
100
AcDbCircle
 10
368.9999999999999
 20
561.42853201886
 30
0.0
 40
2.35
  0
CIRCLE
  5
294
330
1F
100
AcDbEntity
  8
図
  6
CONTINUOUS
 62
     2
100
AcDbCircle
 10
368.9999999999999
 20
588.12853201886
 30
0.0
 40
2.35
  0
ARC
  5
295
330
1F
100
AcDbEntity
  8
図
  6
EXLTYPE2
 62
     6
100
AcDbCircle
 10
368.9999999999999
 20
561.42853201886
 30
0.0
 40
4.199999999999932
100
AcDbArc
 50
311.5050807116697
 51
46.65997724843346
  0
ARC
  5
296
330
1F
100
AcDbEntity
  8
図
  6
CONTINUOUS
 62
     6
100
AcDbCircle
 10
368.9999999999999
 20
561.42853201886
 30
0.0
 40
4.199999999999932
100
AcDbArc
 50
46.65997724848938
 51
65.37568164783312
  0
ARC
  5
297
330
1F
100
AcDbEntity
  8
図
  6
EXLTYPE2
 62
     6
100
AcDbCircle
 10
368.9999999999999
 20
561.42853201886
 30
0.0
 40
4.199999999999932
100
AcDbArc
 50
65.37568164783312
 51
114.6243183521613
  0
ARC
  5
298
330
1F
100
AcDbEntity
  8
図
  6
CONTINUOUS
 62
     6
100
AcDbCircle
 10
369.0000000000002
 20
561.42853201886
 30
0.0
 40
4.199999999999932
100
AcDbArc
 50
114.6243183521669
 51
133.3400227515107
  0
ARC
  5
299
330
1F
100
AcDbEntity
  8
図
  6
EXLTYPE2
 62
     6
100
AcDbCircle
 10
369.0000000000002
 20
561.42853201886
 30
0.0
 40
4.199999999999932
100
AcDbArc
 50
133.3400227515666
 51
228.4949192883304
  0
ARC
  5
29A
330
1F
100
AcDbEntity
  8
図
  6
CONTINUOUS
 62
     6
100
AcDbCircle
 10
369.0000000000002
 20
561.42853201886
 30
0.0
 40
4.199999999999932
100
AcDbArc
 50
228.4949192883304
 51
245.37568164782
  0
ARC
  5
29B
330
1F
100
AcDbEntity
  8
図
  6
EXLTYPE2
 62
     6
100
AcDbCircle
 10
368.9999999999999
 20
561.42853201886
 30
0.0
 40
4.199999999999932
100
AcDbArc
 50
245.3756816478387
 51
294.62431835218
  0
ARC
  5
29C
330
1F
100
AcDbEntity
  8
図
  6
CONTINUOUS
 62
     6
100
AcDbCircle
 10
368.9999999999999
 20
561.42853201886
 30
0.0
 40
4.199999999999932
100
AcDbArc
 50
294.62431835218
 51
311.5050807116697
  0
DIMENSION
  5
29D
330
1F
100
AcDbEntity
  8
図
  6
CONTINUOUS
 62
     3
100
AcDbDimension
  2
*D23
 10
389.2
 20
992.4000000000001
 30
0.0
 11
369.0000000000001
 21
1004.149999970198
 31
0.0
 70
   160
  1
%%c40
  3
ISO-25
100
AcDbAlignedDimension
 13
348.8
 23
927.0
 33
0.0
 14
389.2
 24
927.0
 34
0.0
100
AcDbRotatedDimension
1001
ACAD
1000
DSTYLE
1002
{
1070
   270
1070
     2
1070
     6
1000
EX_NORM
1070
     7
1000
EX_NORM
1070
    41
1040
15.0
1070
    42
1040
3.499999940395355
1070
    44
1040
5.0
1070
    73
1070
     0
1070
    74
1070
     0
1070
    75
1070
     0
1070
    76
1070
     0
1070
    77
1070
     1
1070
    78
1070
     0
1070
   140
1040
20.0
1070
   147
1040
0.0
1070
   173
1070
     1
1070
   176
1070
     3
1070
   177
1070
     3
1070
   178
1070
     2
1070
   271
1070
     0
1070
   277
1070
     2
1070
   279
1070
     2
1070
   280
1070
     0
1070
   287
1070
     5
1070
   340
1005
16B
1002
}
  0
ENDSEC
  0
SECTION
  2
OBJECTS
  0
DICTIONARY
  5
C
330
0
100
AcDbDictionary
  3
ACAD_GROUP
350
D
  3
ACAD_LAYOUT
350
1A
  3
ACAD_MATERIAL
350
3B
  3
ACAD_MLEADERSTYLE
350
2CC
  3
ACAD_MLINESTYLE
350
17
  3
ACAD_PLOTSETTINGS
350
19
  3
ACAD_VISUALSTYLE
350
2A
  3
ACDBHEADERROUNDTRIPXREC
350
2AA
  3
ACDBVARIABLEDICTIONARY
350
2CA
  0
DICTIONARY
  5
D
102
{ACAD_REACTORS
330
C
102
}
330
C
100
AcDbDictionary
  0
DICTIONARY
  5
1A
102
{ACAD_REACTORS
330
C
102
}
330
C
100
AcDbDictionary
  0
DICTIONARY
  5
3B
102
{ACAD_REACTORS
330
C
102
}
330
C
100
AcDbDictionary
  3
BYBLOCK
350
3D
  3
BYLAYER
350
3C
  3
GLOBAL
350
3E
  0
DICTIONARY
  5
2CC
102
{ACAD_REACTORS
330
C
102
}
330
C
100
AcDbDictionary
  0
DICTIONARY
  5
17
102
{ACAD_REACTORS
330
C
102
}
330
C
100
AcDbDictionary
  3
STANDARD
350
18
  0
DICTIONARY
  5
19
102
{ACAD_REACTORS
330
C
102
}
330
C
100
AcDbDictionary
  0
DICTIONARY
  5
2A
102
{ACAD_REACTORS
330
C
102
}
330
C
100
AcDbDictionary
  3
2DWIREFRAME
350
2F
  3
3D_HIDDEN
350
31
  3
3DWIREFRAME
350
30
  3
BASIC
350
32
  3
BRIGHTEN
350
36
  3
COLORCHANGE
350
3A
  3
CONCEPTUAL
350
34
  3
DIM
350
35
  3
FACEPATTERN
350
39
  3
FLAT
350
2B
  3
FLATWITHEDGES
350
2C
  3
GOURAUD
350
2D
  3
GOURAUDWITHEDGES
350
2E
  3
LINEPATTERN
350
38
  3
REALISTIC
350
33
  3
THICKEN
350
37
  0
DICTIONARY
  5
2AA
102
{ACAD_REACTORS
330
C
102
}
330
C
100
AcDbDictionary
  3
CEPSNTYPE
350
2B3
  3
DIMSTYLEDATA
350
2C9
  3
FINGERPRINTGUID
350
2B4
  3
HYPERLINKBASE
350
2AD
  3
INSUNITS
350
2B2
  3
LAYOUTDICT
350
2AF
  3
LWETCUNION
350
2B1
  3
PLOTSETDICT
350
2B0
  3
PSVPSCALE
350
2B6
  3
PUCSBASE
350
2B9
  3
PUCSORGBACK
350
2BF
  3
PUCSORGBOTTOM
350
2BB
  3
PUCSORGFRONT
350
2BE
  3
PUCSORGLEFT
350
2BC
  3
PUCSORGRIGHT
350
2BD
  3
PUCSORGTOP
350
2BA
  3
PUCSORTHOREF
350
2B7
  3
PUCSORTHOVIEW
350
2B8
  3
STYLESHEET
350
2AE
  3
TSTACKALIGN
350
2AB
  3
TSTACKSIZE
350
2AC
  3
UCSBASE
350
2C2
  3
UCSORGBACK
350
2C8
  3
UCSORGBOTTOM
350
2C4
  3
UCSORGFRONT
350
2C7
  3
UCSORGLEFT
350
2C5
  3
UCSORGRIGHT
350
2C6
  3
UCSORGTOP
350
2C3
  3
UCSORTHOREF
350
2C0
  3
UCSORTHOVIEW
350
2C1
  3
VERSIONGUID
350
2B5
  0
DICTIONARY
  5
2CA
102
{ACAD_REACTORS
330
C
102
}
330
C
100
AcDbDictionary
  3
DIMASSOC
350
2CF
  3
HIDETEXT
350
2D0
  3
PSOLHEIGHT
350
2CE
  3
PSOLWIDTH
350
2CD
  0
MATERIAL
  5
3D
102
{ACAD_REACTORS
330
3B
102
}
102
{ACAD_XDICTIONARY
360
2D3
102
}
330
3B
100
AcDbMaterial
  1
ByBlock
  0
MATERIAL
  5
3C
102
{ACAD_REACTORS
330
3B
102
}
102
{ACAD_XDICTIONARY
360
2D1
102
}
330
3B
100
AcDbMaterial
  1
ByLayer
  0
MATERIAL
  5
3E
102
{ACAD_REACTORS
330
3B
102
}
102
{ACAD_XDICTIONARY
360
2D5
102
}
330
3B
100
AcDbMaterial
  1
Global
  0
MLINESTYLE
  5
18
102
{ACAD_REACTORS
330
17
102
}
330
17
100
AcDbMlineStyle
  2
Standard
 70
     0
  3

 62
   256
 51
90.0
 52
90.0
 71
     2
 49
0.5
 62
   256
  6
BYLAYER
 49
-0.5
 62
   256
  6
BYLAYER
  0
ACAD_PROXY_OBJECT
  5
2F
102
{ACAD_REACTORS
330
2A
102
}
330
2A
100
AcDbProxyObject
 90
      499
 91
      501
 93
      436
310
42CC9915DA5C99599C985B595049028333333333333E3BF0000000000000FB0107901411070040501600405405064090741402480A0340
1001
ACAD
1000
AcDbSavedByObjectVersion
1070
     0
  0
ACAD_PROXY_OBJECT
  5
31
102
{ACAD_REACTORS
330
2A
102
}
330
2A
100
AcDbProxyObject
 90
      499
 91
      501
 93
      500
310
424CD108121A5919195B90640502408333333333333E3BF0000000000000FB01079024090700405020000000000001110200405405064090740C02480A0340
1001
ACAD
1000
AcDbSavedByObjectVersion
1070
     0
  0
ACAD_PROXY_OBJECT
  5
30
102
{ACAD_REACTORS
330
2A
102
}
330
2A
100
AcDbProxyObject
 90
      499
 91
      501
 93
      436
310
42CCD915DA5C99599C985B595059028333333333333E3BF0000000000000FB0107901411070040501600405405064090741402480A0340
1001
ACAD
1000
AcDbSavedByObjectVersion
1070
     0
  0
ACAD_PROXY_OBJECT
  5
32
102
{ACAD_REACTORS
330
2A
102
}
330
2A
100
AcDbProxyObject
 90
      499
 91
      501
 93
      388
310
4150985CDA58D07406404333333333333E3BF0000000000000FB0107A41107004050150841D405064090741402480A0350
1001
ACAD
1000
AcDbSavedByObjectVersion
1070
     0
  0
ACAD_PROXY_OBJECT
  5
36
102
{ACAD_REACTORS
330
2A
102
}
330
2A
100
AcDbProxyObject
 90
      499
 91
      501
 93
      428
310
42109C9A59DA1D195B90C409028333333333333E3BF0000000000000FB010790141107004050150841D405064090741402480A029950
1001
ACAD
1000
AcDbSavedByObjectVersion
1070
     0
  0
ACAD_PROXY_OBJECT
  5
3A
102
{ACAD_REACTORS
330
2A
102
}
330
2A
100
AcDbProxyObject
 90
      499
 91
      501
 93
      452
310
42D0DBDB1BDC90DA185B99D95104090240C333333333333E3BF0000000000000FB0108901411070040501508421405064090741402480A0350
1001
ACAD
1000
AcDbSavedByObjectVersion
1070
     0
  0
ACAD_PROXY_OBJECT
  5
34
102
{ACAD_REACTORS
330
2A
102
}
330
2A
100
AcDbProxyObject
 90
      499
 91
      501
 93
      500
310
4290DBDB98D95C1D1D585B10940D028333333333333E3BF0000000000000FB0107902409070040501000000000000111010841D405064090740C02480A0340
1001
ACAD
1000
AcDbSavedByObjectVersion
1070
     0
  0
ACAD_PROXY_OBJECT
  5
35
102
{ACAD_REACTORS
330
2A
102
}
330
2A
100
AcDbProxyObject
 90
      499
 91
      501
 93
      412
310
40D11A5B50B409028333333333333E3BF0000000000000FB010790141107004050150841D405064090741402480A02677FFFFFD0
1001
ACAD
1000
AcDbSavedByObjectVersion
1070
     0
  0
ACAD_PROXY_OBJECT
  5
39
102
{ACAD_REACTORS
330
2A
102
}
330
2A
100
AcDbProxyObject
 90
      499
 91
      501
 93
      444
310
42D19858D95C185D1D195C9B90F409028333333333333E3BF0000000000000FB010790141107004050150841D405064090741402480A0350
1001
ACAD
1000
AcDbSavedByObjectVersion
1070
     0
  0
ACAD_PROXY_OBJECT
  5
2B
102
{ACAD_REACTORS
330
2A
102
}
330
2A
100
AcDbProxyObject
 90
      499
 91
      501
 93
      388
310
41119B185D240901404333333333333E3BF0000000000000F9010740A41107004050150841D405064090741402480A1B50
1001
ACAD
1000
AcDbSavedByObjectVersion
1070
     0
  0
ACAD_PROXY_OBJECT
  5
2C
102
{ACAD_REACTORS
330
2A
102
}
330
2A
100
AcDbProxyObject
 90
      499
 91
      501
 93
      476
310
43519B185D15DA5D1A115919D95CD0140901404333333333333E3BF0000000000000F9010740901411070040501600405405064090741402480A1B50
1001
ACAD
1000
AcDbSavedByObjectVersion
1070
     0
  0
ACAD_PROXY_OBJECT
  5
2D
102
{ACAD_REACTORS
330
2A
102
}
330
2A
100
AcDbProxyObject
 90
      499
 91
      501
 93
      412
310
41D1DBDD5C985D5910240902404333333333333E3BF0000000000000F9010740A411070040501641D405064090741402480A1B50
1001
ACAD
1000
AcDbSavedByObjectVersion
1070
     0
  0
ACAD_PROXY_OBJECT
  5
2E
102
{ACAD_REACTORS
330
2A
102
}
330
2A
100
AcDbProxyObject
 90
      499
 91
      501
 93
      500
310
4411DBDD5C985D5915DA5D1A115919D95CD0340902404333333333333E3BF0000000000000F9010740901411070040501600405405064090741402480A1B50
1001
ACAD
1000
AcDbSavedByObjectVersion
1070
     0
  0
ACAD_PROXY_OBJECT
  5
38
102
{ACAD_REACTORS
330
2A
102
}
330
2A
100
AcDbProxyObject
 90
      499
 91
      501
 93
      444
310
42D31A5B995C185D1D195C9B90E409028333333333333E3BF0000000000000FB010790141107004050750841D405064090741402483A0350
1001
ACAD
1000
AcDbSavedByObjectVersion
1070
     0
  0
ACAD_PROXY_OBJECT
  5
33
102
{ACAD_REACTORS
330
2A
102
}
330
2A
100
AcDbProxyObject
 90
      499
 91
      501
 93
      420
310
425499585B1A5CDD1A58D08409028333333333333E3BF0000000000000FB01079019070040501508421405064090741402480A1B40
1001
ACAD
1000
AcDbSavedByObjectVersion
1070
     0
  0
ACAD_PROXY_OBJECT
  5
37
102
{ACAD_REACTORS
330
2A
102
}
330
2A
100
AcDbProxyObject
 90
      499
 91
      501
 93
      412
310
41D51A1A58DAD95B90D409028333333333333E3BF0000000000000FB010790141107004050150C41D405064090741402480A0350
1001
ACAD
1000
AcDbSavedByObjectVersion
1070
     0
  0
XRECORD
  5
2B3
102
{ACAD_REACTORS
330
2AA
102
}
330
2AA
100
AcDbXrecord
 90
        0
  0
XRECORD
  5
2C9
102
{ACAD_REACTORS
330
2AA
102
}
330
2AA
100
AcDbXrecord
1000
DSTYLE
1002
{
1070
   340
340
11
1002
}
  0
XRECORD
  5
2B4
102
{ACAD_REACTORS
330
2AA
102
}
330
2AA
100
AcDbXrecord
  1
{A0078C3C-AC85-4928-B57A-1847E7F62CC2}
  0
XRECORD
  5
2AD
102
{ACAD_REACTORS
330
2AA
102
}
330
2AA
100
AcDbXrecord
  1

  0
XRECORD
  5
2B2
102
{ACAD_REACTORS
330
2AA
102
}
330
2AA
100
AcDbXrecord
 90
        4
  0
XRECORD
  5
2AF
102
{ACAD_REACTORS
330
2AA
102
}
330
2AA
100
AcDbXrecord
340
1A
  0
XRECORD
  5
2B1
102
{ACAD_REACTORS
330
2AA
102
}
330
2AA
100
AcDbXrecord
 90
    10781
  0
XRECORD
  5
2B0
102
{ACAD_REACTORS
330
2AA
102
}
330
2AA
100
AcDbXrecord
340
19
  0
XRECORD
  5
2B6
102
{ACAD_REACTORS
330
2AA
102
}
330
2AA
100
AcDbXrecord
 40
0.0
  0
XRECORD
  5
2B9
102
{ACAD_REACTORS
330
2AA
102
}
330
2AA
100
AcDbXrecord
340
0
  0
XRECORD
  5
2BF
102
{ACAD_REACTORS
330
2AA
102
}
330
2AA
100
AcDbXrecord
 10
0.0
 20
0.0
 30
0.0
  0
XRECORD
  5
2BB
102
{ACAD_REACTORS
330
2AA
102
}
330
2AA
100
AcDbXrecord
 10
0.0
 20
0.0
 30
0.0
  0
XRECORD
  5
2BE
102
{ACAD_REACTORS
330
2AA
102
}
330
2AA
100
AcDbXrecord
 10
0.0
 20
0.0
 30
0.0
  0
XRECORD
  5
2BC
102
{ACAD_REACTORS
330
2AA
102
}
330
2AA
100
AcDbXrecord
 10
0.0
 20
0.0
 30
0.0
  0
XRECORD
  5
2BD
102
{ACAD_REACTORS
330
2AA
102
}
330
2AA
100
AcDbXrecord
 10
0.0
 20
0.0
 30
0.0
  0
XRECORD
  5
2BA
102
{ACAD_REACTORS
330
2AA
102
}
330
2AA
100
AcDbXrecord
 10
0.0
 20
0.0
 30
0.0
  0
XRECORD
  5
2B7
102
{ACAD_REACTORS
330
2AA
102
}
330
2AA
100
AcDbXrecord
340
0
  0
XRECORD
  5
2B8
102
{ACAD_REACTORS
330
2AA
102
}
330
2AA
100
AcDbXrecord
 70
     0
  0
XRECORD
  5
2AE
102
{ACAD_REACTORS
330
2AA
102
}
330
2AA
100
AcDbXrecord
  1

  0
XRECORD
  5
2AB
102
{ACAD_REACTORS
330
2AA
102
}
330
2AA
100
AcDbXrecord
 90
        1
  0
XRECORD
  5
2AC
102
{ACAD_REACTORS
330
2AA
102
}
330
2AA
100
AcDbXrecord
 90
       70
  0
XRECORD
  5
2C2
102
{ACAD_REACTORS
330
2AA
102
}
330
2AA
100
AcDbXrecord
340
0
  0
XRECORD
  5
2C8
102
{ACAD_REACTORS
330
2AA
102
}
330
2AA
100
AcDbXrecord
 10
0.0
 20
0.0
 30
0.0
  0
XRECORD
  5
2C4
102
{ACAD_REACTORS
330
2AA
102
}
330
2AA
100
AcDbXrecord
 10
0.0
 20
0.0
 30
0.0
  0
XRECORD
  5
2C7
102
{ACAD_REACTORS
330
2AA
102
}
330
2AA
100
AcDbXrecord
 10
0.0
 20
0.0
 30
0.0
  0
XRECORD
  5
2C5
102
{ACAD_REACTORS
330
2AA
102
}
330
2AA
100
AcDbXrecord
 10
0.0
 20
0.0
 30
0.0
  0
XRECORD
  5
2C6
102
{ACAD_REACTORS
330
2AA
102
}
330
2AA
100
AcDbXrecord
 10
0.0
 20
0.0
 30
0.0
  0
XRECORD
  5
2C3
102
{ACAD_REACTORS
330
2AA
102
}
330
2AA
100
AcDbXrecord
 10
0.0
 20
0.0
 30
0.0
  0
XRECORD
  5
2C0
102
{ACAD_REACTORS
330
2AA
102
}
330
2AA
100
AcDbXrecord
340
0
  0
XRECORD
  5
2C1
102
{ACAD_REACTORS
330
2AA
102
}
330
2AA
100
AcDbXrecord
 70
     0
  0
XRECORD
  5
2B5
102
{ACAD_REACTORS
330
2AA
102
}
330
2AA
100
AcDbXrecord
  1
{FAEB1C32-E019-11D5-929B-00C0DF256EC4}
  0
DICTIONARYVAR
  5
2CF
102
{ACAD_REACTORS
330
2CA
102
}
330
2CA
100
DictionaryVariables
280
     0
  1
2
  0
DICTIONARYVAR
  5
2D0
102
{ACAD_REACTORS
330
2CA
102
}
330
2CA
100
DictionaryVariables
280
     0
  1
1
  0
DICTIONARYVAR
  5
2CE
102
{ACAD_REACTORS
330
2CA
102
}
330
2CA
100
DictionaryVariables
280
     0
  1
80.000000
  0
DICTIONARYVAR
  5
2CD
102
{ACAD_REACTORS
330
2CA
102
}
330
2CA
100
DictionaryVariables
280
     0
  1
5.000000
  0
DICTIONARY
  5
2D3
330
3D
100
AcDbDictionary
280
     1
  3
ACAD_XREC_ROUNDTRIP
360
2D4
  0
DICTIONARY
  5
2D1
330
3C
100
AcDbDictionary
280
     1
  3
ACAD_XREC_ROUNDTRIP
360
2D2
  0
DICTIONARY
  5
2D5
330
3E
100
AcDbDictionary
280
     1
  3
ACAD_XREC_ROUNDTRIP
360
2D6
  0
XRECORD
  5
2D4
102
{ACAD_REACTORS
330
2D3
102
}
330
2D3
100
AcDbXrecord
102
MATERIAL
148
0.0
149
0.0
149
0.0
 93
        0
 94
      127
282
     0
 72
     1
 77
     1
171
     1
175
     1
179
     1
273
     0
  0
XRECORD
  5
2D2
102
{ACAD_REACTORS
330
2D1
102
}
330
2D1
100
AcDbXrecord
102
MATERIAL
148
0.0
149
0.0
149
0.0
 93
        0
 94
      127
282
     0
 72
     1
 77
     1
171
     1
175
     1
179
     1
273
     0
  0
XRECORD
  5
2D6
102
{ACAD_REACTORS
330
2D5
102
}
330
2D5
100
AcDbXrecord
102
MATERIAL
148
0.0
149
0.0
149
0.0
 93
        0
 94
      127
282
     0
 72
     1
 77
     1
171
     1
175
     1
179
     1
273
     0
  0
ENDSEC
  0
EOF
