  0
SECTION
  2
HEADER
  9
$ACADVER
  1
AC1014
  9
$ACADMAINTVER
 70
     9
  9
$DWGCODEPAGE
  3
ANSI_932
  9
$INSBASE
 10
0.0
 20
0.0
 30
0.0
  9
$EXTMIN
 10
-0.6000000000000136
 20
9.100000000000001
 30
0.0
  9
$EXTMAX
 10
199.4000000000001
 20
289.1
 30
0.0
  9
$LIMMIN
 10
0.0
 20
0.0
  9
$LIMMAX
 10
210.0
 20
297.0
  9
$ORTHOMODE
 70
     0
  9
$REGENMODE
 70
     1
  9
$FILLMODE
 70
     1
  9
$QTEXTMODE
 70
     0
  9
$MIRRTEXT
 70
     1
  9
$DRAGMODE
 70
     2
  9
$LTSCALE
 40
1.0
  9
$OSMODE
 70
    37
  9
$ATTMODE
 70
     1
  9
$TEXTSIZE
 40
2.5
  9
$TRACEWID
 40
1.0
  9
$TEXTSTYLE
  7
STANDARD
  9
$CLAYER
  8
図
  9
$CELTYPE
  6
BYLAYER
  9
$CECOLOR
 62
   256
  9
$CELTSCALE
 40
1.0
  9
$DELOBJ
 70
     1
  9
$DISPSILH
 70
     0
  9
$DIMSCALE
 40
1.0
  9
$DIMASZ
 40
2.5
  9
$DIMEXO
 40
0.625
  9
$DIMDLI
 40
3.75
  9
$DIMRND
 40
0.0
  9
$DIMDLE
 40
0.0
  9
$DIMEXE
 40
1.25
  9
$DIMTP
 40
0.0
  9
$DIMTM
 40
0.0
  9
$DIMTXT
 40
2.5
  9
$DIMCEN
 40
2.5
  9
$DIMTSZ
 40
0.0
  9
$DIMTOL
 70
     0
  9
$DIMLIM
 70
     0
  9
$DIMTIH
 70
     0
  9
$DIMTOH
 70
     0
  9
$DIMSE1
 70
     0
  9
$DIMSE2
 70
     0
  9
$DIMTAD
 70
     1
  9
$DIMZIN
 70
     8
  9
$DIMBLK
  1

  9
$DIMASO
 70
     1
  9
$DIMSHO
 70
     1
  9
$DIMPOST
  1

  9
$DIMAPOST
  1

  9
$DIMALT
 70
     0
  9
$DIMALTD
 70
     3
  9
$DIMALTF
 40
0.03937007874016
  9
$DIMLFAC
 40
1.0
  9
$DIMTOFL
 70
     1
  9
$DIMTVP
 40
0.0
  9
$DIMTIX
 70
     0
  9
$DIMSOXD
 70
     0
  9
$DIMSAH
 70
     0
  9
$DIMBLK1
  1

  9
$DIMBLK2
  1

  9
$DIMSTYLE
  2
ISO-25
  9
$DIMCLRD
 70
     0
  9
$DIMCLRE
 70
     0
  9
$DIMCLRT
 70
     0
  9
$DIMTFAC
 40
1.0
  9
$DIMGAP
 40
0.625
  9
$DIMJUST
 70
     0
  9
$DIMSD1
 70
     0
  9
$DIMSD2
 70
     0
  9
$DIMTOLJ
 70
     0
  9
$DIMTZIN
 70
     8
  9
$DIMALTZ
 70
     0
  9
$DIMALTTZ
 70
     0
  9
$DIMFIT
 70
     3
  9
$DIMUPT
 70
     0
  9
$DIMUNIT
 70
     2
  9
$DIMDEC
 70
     2
  9
$DIMTDEC
 70
     2
  9
$DIMALTU
 70
     2
  9
$DIMALTTD
 70
     3
  9
$DIMTXSTY
  7
STANDARD
  9
$DIMAUNIT
 70
     0
  9
$LUNITS
 70
     2
  9
$LUPREC
 70
     4
  9
$SKETCHINC
 40
1.0
  9
$FILLETRAD
 40
10.0
  9
$AUNITS
 70
     0
  9
$AUPREC
 70
     0
  9
$MENU
  1
.
  9
$ELEVATION
 40
0.0
  9
$PELEVATION
 40
0.0
  9
$THICKNESS
 40
0.0
  9
$LIMCHECK
 70
     0
  9
$CHAMFERA
 40
10.0
  9
$CHAMFERB
 40
10.0
  9
$CHAMFERC
 40
20.0
  9
$CHAMFERD
 40
0.0
  9
$SKPOLY
 70
     0
  9
$TDCREATE
 40
2460368.626176956
  9
$TDUPDATE
 40
2460368.626177095
  9
$TDINDWG
 40
0.0000000116
  9
$TDUSRTIMER
 40
0.0000000116
  9
$USRTIMER
 70
     1
  9
$ANGBASE
 50
0.0
  9
$ANGDIR
 70
     0
  9
$PDMODE
 70
     0
  9
$PDSIZE
 40
0.0
  9
$PLINEWID
 40
0.0
  9
$COORDS
 70
     1
  9
$SPLFRAME
 70
     0
  9
$SPLINETYPE
 70
     6
  9
$SPLINESEGS
 70
     8
  9
$ATTDIA
 70
     0
  9
$ATTREQ
 70
     1
  9
$HANDLING
 70
     1
  9
$HANDSEED
  5
34E
  9
$SURFTAB1
 70
     6
  9
$SURFTAB2
 70
     6
  9
$SURFTYPE
 70
     6
  9
$SURFU
 70
     6
  9
$SURFV
 70
     6
  9
$UCSNAME
  2

  9
$UCSORG
 10
0.0
 20
0.0
 30
0.0
  9
$UCSXDIR
 10
1.0
 20
0.0
 30
0.0
  9
$UCSYDIR
 10
0.0
 20
1.0
 30
0.0
  9
$PUCSNAME
  2

  9
$PUCSORG
 10
0.0
 20
0.0
 30
0.0
  9
$PUCSXDIR
 10
1.0
 20
0.0
 30
0.0
  9
$PUCSYDIR
 10
0.0
 20
1.0
 30
0.0
  9
$USERI1
 70
     0
  9
$USERI2
 70
     0
  9
$USERI3
 70
     0
  9
$USERI4
 70
     0
  9
$USERI5
 70
     0
  9
$USERR1
 40
0.0
  9
$USERR2
 40
0.0
  9
$USERR3
 40
0.0
  9
$USERR4
 40
0.0
  9
$USERR5
 40
0.0
  9
$WORLDVIEW
 70
     1
  9
$SHADEDGE
 70
     3
  9
$SHADEDIF
 70
    70
  9
$TILEMODE
 70
     1
  9
$MAXACTVP
 70
    64
  9
$PINSBASE
 10
0.0
 20
0.0
 30
0.0
  9
$PLIMCHECK
 70
     0
  9
$PEXTMIN
 10
1.000000000000000E+20
 20
1.000000000000000E+20
 30
1.000000000000000E+20
  9
$PEXTMAX
 10
-1.000000000000000E+20
 20
-1.000000000000000E+20
 30
-1.000000000000000E+20
  9
$PLIMMIN
 10
0.0
 20
0.0
  9
$PLIMMAX
 10
420.0
 20
297.0
  9
$UNITMODE
 70
     0
  9
$VISRETAIN
 70
     1
  9
$PLINEGEN
 70
     0
  9
$PSLTSCALE
 70
     1
  9
$TREEDEPTH
 70
  3020
  9
$PICKSTYLE
 70
     1
  9
$CMLSTYLE
  2
STANDARD
  9
$CMLJUST
 70
     0
  9
$CMLSCALE
 40
20.0
  9
$PROXYGRAPHICS
 70
     1
  9
$MEASUREMENT
 70
     1
  0
ENDSEC
  0
SECTION
  2
CLASSES
  0
CLASS
  1
ACDBDICTIONARYWDFLT
  2
AcDbDictionaryWithDefault
  3
ObjectDBX Classes
 90
        0
280
     0
281
     0
  0
CLASS
  1
VISUALSTYLE
  2
AcDbVisualStyle
  3
ObjectDBX Classes
 90
     4095
280
     0
281
     0
  0
CLASS
  1
MATERIAL
  2
AcDbMaterial
  3
ObjectDBX Classes
 90
     1153
280
     0
281
     0
  0
CLASS
  1
SUN
  2
AcDbSun
  3
SCENEOE
 90
     1024
280
     0
281
     0
  0
CLASS
  1
DICTIONARYVAR
  2
AcDbDictionaryVar
  3
ObjectDBX Classes
 90
        0
280
     0
281
     0
  0
CLASS
  1
XRECORD
  2
AcDbXrecord
  3
AutoCAD 2000
 90
        0
280
     0
281
     0
  0
CLASS
  1
LWPOLYLINE
  2
AcDbPolyline
  3
AutoCAD 2000
 90
        0
280
     0
281
     1
  0
CLASS
  1
HATCH
  2
AcDbHatch
  3
AutoCAD 2000
 90
        0
280
     0
281
     1
  0
CLASS
  1
ACDBPLACEHOLDER
  2
AcDbPlaceHolder
  3
ObjectDBX Classes
 90
        0
280
     0
281
     0
  0
CLASS
  1
LAYOUT
  2
AcDbLayout
  3
ObjectDBX Classes
 90
        0
280
     0
281
     0
  0
ENDSEC
  0
SECTION
  2
TABLES
  0
TABLE
  2
VPORT
  5
8
330
0
100
AcDbSymbolTable
 70
     1
  0
VPORT
  5
29
330
8
100
AcDbSymbolTableRecord
100
AcDbViewportTableRecord
  2
*ACTIVE
 70
     0
 10
0.0
 20
0.0
 11
1.0
 21
1.0
 12
497.0000000000002
 22
745.5000000000001
 13
0.0
 23
0.0
 14
10.0
 24
10.0
 15
10.0
 25
10.0
 16
0.0
 26
0.0
 36
1.0
 17
0.0
 27
0.0
 37
0.0
 40
1400.0
 41
0.7142857142857147
 42
50.0
 43
0.0
 44
0.0
 50
0.0
 51
0.0
 71
     0
 72
  1000
 73
     1
 74
     3
 75
     0
 76
     0
 77
     0
 78
     0
  0
ENDTAB
  0
TABLE
  2
LTYPE
  5
5
330
0
100
AcDbSymbolTable
 70
     9
  0
LTYPE
  5
14
330
5
100
AcDbSymbolTableRecord
100
AcDbLinetypeTableRecord
  2
BYBLOCK
 70
     0
  3

 72
    65
 73
     0
 40
0.0
  0
LTYPE
  5
15
330
5
100
AcDbSymbolTableRecord
100
AcDbLinetypeTableRecord
  2
BYLAYER
 70
     0
  3

 72
    65
 73
     0
 40
0.0
  0
LTYPE
  5
16
330
5
100
AcDbSymbolTableRecord
100
AcDbLinetypeTableRecord
  2
CONTINUOUS
 70
     0
  3
Solid line
 72
    65
 73
     0
 40
0.0
  0
LTYPE
  5
40
330
5
100
AcDbSymbolTableRecord
100
AcDbLinetypeTableRecord
  2
EXLTYPE1
 70
     0
  3
破線
 72
    65
 73
     2
 40
3.0
 49
2.0
 74
     0
 49
-1.0
 74
     0
  0
LTYPE
  5
41
330
5
100
AcDbSymbolTableRecord
100
AcDbLinetypeTableRecord
  2
EXLTYPE2
 70
     0
  3
点線
 72
    65
 73
     2
 40
2.0
 49
1.0
 74
     0
 49
-1.0
 74
     0
  0
LTYPE
  5
42
330
5
100
AcDbSymbolTableRecord
100
AcDbLinetypeTableRecord
  2
EXLTYPE3
 70
     0
  3
一点鎖線
 72
    65
 73
     4
 40
10.0
 49
7.0
 74
     0
 49
-1.0
 74
     0
 49
1.0
 74
     0
 49
-1.0
 74
     0
  0
LTYPE
  5
43
330
5
100
AcDbSymbolTableRecord
100
AcDbLinetypeTableRecord
  2
EXLTYPE4
 70
     0
  3
二点鎖線
 72
    65
 73
     6
 40
12.0
 49
7.0
 74
     0
 49
-1.0
 74
     0
 49
1.0
 74
     0
 49
-1.0
 74
     0
 49
1.0
 74
     0
 49
-1.0
 74
     0
  0
LTYPE
  5
44
330
5
100
AcDbSymbolTableRecord
100
AcDbLinetypeTableRecord
  2
EXLTYPE5
 70
     0
  3
三点鎖線
 72
    65
 73
     8
 40
37.0
 49
30.0
 74
     0
 49
-1.0
 74
     0
 49
1.0
 74
     0
 49
-1.0
 74
     0
 49
1.0
 74
     0
 49
-1.0
 74
     0
 49
1.0
 74
     0
 49
-1.0
 74
     0
  0
LTYPE
  5
45
330
5
100
AcDbSymbolTableRecord
100
AcDbLinetypeTableRecord
  2
EXLTYPE6
 70
     0
  3
四点鎖線
 72
    65
 73
    10
 40
39.0
 49
30.0
 74
     0
 49
-1.0
 74
     0
 49
1.0
 74
     0
 49
-1.0
 74
     0
 49
1.0
 74
     0
 49
-1.0
 74
     0
 49
1.0
 74
     0
 49
-1.0
 74
     0
 49
1.0
 74
     0
 49
-1.0
 74
     0
  0
LTYPE
  5
46
330
5
100
AcDbSymbolTableRecord
100
AcDbLinetypeTableRecord
  2
EXLTYPE7
 70
     0
  3
一点鎖線4
 72
    65
 73
     4
 40
4.283333333333333
 49
2.1
 74
     0
 49
-1.05
 74
     0
 49
0.0833333333333333
 74
     0
 49
-1.05
 74
     0
  0
LTYPE
  5
47
330
5
100
AcDbSymbolTableRecord
100
AcDbLinetypeTableRecord
  2
EXLTYPE8
 70
     0
  3
二点鎖線4
 72
    65
 73
     6
 40
5.416666666666666
 49
2.1
 74
     0
 49
-1.05
 74
     0
 49
0.0833333333333333
 74
     0
 49
-1.05
 74
     0
 49
0.0833333333333333
 74
     0
 49
-1.05
 74
     0
  0
ENDTAB
  0
TABLE
  2
LAYER
  5
2
330
0
100
AcDbSymbolTable
 70
     4
  0
LAYER
  5
10
330
2
100
AcDbSymbolTableRecord
100
AcDbLayerTableRecord
  2
0
 70
     0
 62
     7
  6
CONTINUOUS
  0
LAYER
  5
4A
330
2
100
AcDbSymbolTableRecord
100
AcDbLayerTableRecord
  2
図枠
 70
     0
 62
     7
  6
CONTINUOUS
  0
LAYER
  5
4B
330
2
100
AcDbSymbolTableRecord
100
AcDbLayerTableRecord
  2
図
 70
     0
 62
     7
  6
CONTINUOUS
  0
LAYER
  5
15A
330
2
100
AcDbSymbolTableRecord
100
AcDbLayerTableRecord
  2
DEFPOINTS
 70
     0
 62
     7
  6
CONTINUOUS
  0
ENDTAB
  0
TABLE
  2
STYLE
  5
3
330
0
100
AcDbSymbolTable
 70
     5
  0
STYLE
  5
11
330
3
100
AcDbSymbolTableRecord
100
AcDbTextStyleTableRecord
  2
STANDARD
 70
     0
 40
0.0
 41
1.0
 50
0.0
 71
     0
 42
2.5
  3
monotxt
  4
extfont
  0
STYLE
  5
48
330
3
100
AcDbSymbolTableRecord
100
AcDbTextStyleTableRecord
  2
EXCADSTD
 70
     0
 40
0.0
 41
1.0
 50
0.0
 71
     0
 42
0.2
  3
monotxt
  4
extfont
  0
STYLE
  5
49
330
3
100
AcDbSymbolTableRecord
100
AcDbTextStyleTableRecord
  2
EXCADVERT
 70
     4
 40
0.0
 41
1.0
 50
0.0
 71
     0
 42
0.286885
  3
monotxt
  4
extfont
  0
STYLE
  5
A8
330
3
100
AcDbSymbolTableRecord
100
AcDbTextStyleTableRecord
  2
EXCADTTF1
 70
     0
 40
0.0
 41
1.0
 50
0.0
 71
     0
 42
0.2
  3
MSGOTHIC.TTC
  4

1001
ACAD
1000
MS Gothic
1071
    32817
  0
STYLE
  5
158
330
3
100
AcDbSymbolTableRecord
100
AcDbTextStyleTableRecord
  2
EXCADDIM1
 70
     0
 40
0.0
 41
0.84
 50
0.0
 71
     0
 42
0.2
  3
monotxt
  4
extfont
  0
ENDTAB
  0
TABLE
  2
VIEW
  5
6
330
0
100
AcDbSymbolTable
 70
     0
  0
ENDTAB
  0
TABLE
  2
UCS
  5
7
330
0
100
AcDbSymbolTable
 70
     0
  0
ENDTAB
  0
TABLE
  2
APPID
  5
9
330
0
100
AcDbSymbolTable
 70
     1
  0
APPID
  5
12
330
9
100
AcDbSymbolTableRecord
100
AcDbRegAppTableRecord
  2
ACAD
 70
     0
  0
ENDTAB
  0
TABLE
  2
DIMSTYLE
  5
A
330
0
100
AcDbSymbolTable
 70
     1
  0
DIMSTYLE
105
27
102
{ACAD_REACTORS
330
159
330
1B2
330
1BF
330
25D
330
26A
330
278
330
2AE
330
2BD
330
309
330
315
102
}
330
A
100
AcDbSymbolTableRecord
100
AcDbDimStyleTableRecord
  2
ISO-25
 70
     0
  3

  4

  5

  6

  7

 40
1.0
 41
2.5
 42
0.625
 43
3.75
 44
1.25
 45
0.0
 46
0.0
 47
0.0
 48
0.0
140
2.5
141
2.5
142
0.0
143
0.03937007874016
144
1.0
145
0.0
146
1.0
147
0.625
 71
     0
 72
     0
 73
     0
 74
     0
 75
     0
 76
     0
 77
     1
 78
     8
170
     0
171
     3
172
     1
173
     0
174
     0
175
     0
176
     0
177
     0
178
     0
270
     2
271
     2
272
     2
273
     2
274
     3
340
11
275
     0
280
     0
281
     0
282
     0
283
     0
284
     8
285
     0
286
     0
287
     5
288
     0
  0
ENDTAB
  0
TABLE
  2
BLOCK_RECORD
  5
1
330
0
100
AcDbSymbolTable
 70
    25
  0
BLOCK_RECORD
  5
1F
330
1
100
AcDbSymbolTableRecord
100
AcDbBlockTableRecord
  2
*MODEL_SPACE
  0
BLOCK_RECORD
  5
1B
330
1
100
AcDbSymbolTableRecord
100
AcDbBlockTableRecord
  2
*PAPER_SPACE
  0
BLOCK_RECORD
  5
4C
330
1
100
AcDbSymbolTableRecord
100
AcDbBlockTableRecord
  2
EX_NORM
  0
BLOCK_RECORD
  5
4F
330
1
100
AcDbSymbolTableRecord
100
AcDbBlockTableRecord
  2
EX_BNORM
  0
BLOCK_RECORD
  5
52
330
1
100
AcDbSymbolTableRecord
100
AcDbBlockTableRecord
  2
EX_BCIR
  0
BLOCK_RECORD
  5
55
330
1
100
AcDbSymbolTableRecord
100
AcDbBlockTableRecord
  2
EX_RCIVIL
  0
BLOCK_RECORD
  5
58
330
1
100
AcDbSymbolTableRecord
100
AcDbBlockTableRecord
  2
EX_SLANT
  0
BLOCK_RECORD
  5
5B
330
1
100
AcDbSymbolTableRecord
100
AcDbBlockTableRecord
  2
EX_NONE
  0
BLOCK_RECORD
  5
5E
330
1
100
AcDbSymbolTableRecord
100
AcDbBlockTableRecord
  2
EX_CIVIL
  0
BLOCK_RECORD
  5
61
330
1
100
AcDbSymbolTableRecord
100
AcDbBlockTableRecord
  2
EX_WCIR
  0
BLOCK_RECORD
  5
64
330
1
100
AcDbSymbolTableRecord
100
AcDbBlockTableRecord
  2
EX_WCIR2
  0
BLOCK_RECORD
  5
67
330
1
100
AcDbSymbolTableRecord
100
AcDbBlockTableRecord
  2
EX_WNORM
  0
BLOCK_RECORD
  5
6A
330
1
100
AcDbSymbolTableRecord
100
AcDbBlockTableRecord
  2
EX_NNORM
  0
BLOCK_RECORD
  5
6D
330
1
100
AcDbSymbolTableRecord
100
AcDbBlockTableRecord
  2
EX_BBOX
  0
BLOCK_RECORD
  5
70
330
1
100
AcDbSymbolTableRecord
100
AcDbBlockTableRecord
  2
EX_WBOX
  0
BLOCK_RECORD
  5
73
330
1
100
AcDbSymbolTableRecord
100
AcDbBlockTableRecord
  2
EX_INTEGRAL
  0
BLOCK_RECORD
  5
15B
330
1
100
AcDbSymbolTableRecord
100
AcDbBlockTableRecord
  2
*D15
  0
BLOCK_RECORD
  5
1B3
330
1
100
AcDbSymbolTableRecord
100
AcDbBlockTableRecord
  2
*D16
  0
BLOCK_RECORD
  5
1C0
330
1
100
AcDbSymbolTableRecord
100
AcDbBlockTableRecord
  2
*D17
  0
BLOCK_RECORD
  5
25E
330
1
100
AcDbSymbolTableRecord
100
AcDbBlockTableRecord
  2
*D18
  0
BLOCK_RECORD
  5
26B
330
1
100
AcDbSymbolTableRecord
100
AcDbBlockTableRecord
  2
*D19
  0
BLOCK_RECORD
  5
279
330
1
100
AcDbSymbolTableRecord
100
AcDbBlockTableRecord
  2
*D20
  0
BLOCK_RECORD
  5
2AF
330
1
100
AcDbSymbolTableRecord
100
AcDbBlockTableRecord
  2
*D21
  0
BLOCK_RECORD
  5
2BE
330
1
100
AcDbSymbolTableRecord
100
AcDbBlockTableRecord
  2
*D22
  0
BLOCK_RECORD
  5
30A
330
1
100
AcDbSymbolTableRecord
100
AcDbBlockTableRecord
  2
*D23
  0
BLOCK_RECORD
  5
316
330
1
100
AcDbSymbolTableRecord
100
AcDbBlockTableRecord
  2
*D24
  0
ENDTAB
  0
ENDSEC
  0
SECTION
  2
BLOCKS
  0
BLOCK
  5
20
330
1F
100
AcDbEntity
  8
0
100
AcDbBlockBegin
  2
*MODEL_SPACE
 70
     0
 10
0.0
 20
0.0
 30
0.0
  3
*MODEL_SPACE
  1

  0
ENDBLK
  5
21
330
1F
100
AcDbEntity
  8
0
100
AcDbBlockEnd
  0
BLOCK
  5
1C
330
1B
100
AcDbEntity
 67
     1
  8
0
100
AcDbBlockBegin
  2
*PAPER_SPACE
 70
     0
 10
0.0
 20
0.0
 30
0.0
  3
*PAPER_SPACE
  1

  0
ENDBLK
  5
1D
330
1B
100
AcDbEntity
 67
     1
  8
0
100
AcDbBlockEnd
  0
BLOCK
  5
4D
330
4C
100
AcDbEntity
  8
0
100
AcDbBlockBegin
  2
EX_NORM
 70
     0
 10
0.0
 20
0.0
 30
0.0
  3
EX_NORM
  1

  0
LINE
  5
76
330
4C
100
AcDbEntity
  8
0
  6
CONTINUOUS
 62
     0
100
AcDbLine
 10
0.0
 20
0.0
 30
0.0
 11
-1.0
 21
0.0
 31
0.0
  0
LINE
  5
77
330
4C
100
AcDbEntity
  8
0
  6
CONTINUOUS
 62
     0
100
AcDbLine
 10
0.0
 20
0.0
 30
0.0
 11
-1.0
 21
0.166666667
 31
0.0
  0
LINE
  5
78
330
4C
100
AcDbEntity
  8
0
  6
CONTINUOUS
 62
     0
100
AcDbLine
 10
0.0
 20
0.0
 30
0.0
 11
-1.0
 21
-0.166666667
 31
0.0
  0
ENDBLK
  5
4E
330
4C
100
AcDbEntity
  8
0
100
AcDbBlockEnd
  0
BLOCK
  5
50
330
4F
100
AcDbEntity
  8
0
100
AcDbBlockBegin
  2
EX_BNORM
 70
     0
 10
0.0
 20
0.0
 30
0.0
  3
EX_BNORM
  1

  0
LINE
  5
79
330
4F
100
AcDbEntity
  8
0
  6
CONTINUOUS
 62
     0
100
AcDbLine
 10
0.0
 20
0.0
 30
0.0
 11
-1.0
 21
0.0
 31
0.0
  0
LINE
  5
7A
330
4F
100
AcDbEntity
  8
0
  6
CONTINUOUS
 62
     0
100
AcDbLine
 10
0.0
 20
0.0
 30
0.0
 11
-1.0
 21
0.166666667
 31
0.0
  0
LINE
  5
7B
330
4F
100
AcDbEntity
  8
0
  6
CONTINUOUS
 62
     0
100
AcDbLine
 10
0.0
 20
0.0
 30
0.0
 11
-1.0
 21
-0.166666667
 31
0.0
  0
LINE
  5
7C
330
4F
100
AcDbEntity
  8
0
  6
CONTINUOUS
 62
     0
100
AcDbLine
 10
0.0
 20
0.0
 30
0.0
 11
-1.0
 21
0.083333333
 31
0.0
  0
LINE
  5
7D
330
4F
100
AcDbEntity
  8
0
  6
CONTINUOUS
 62
     0
100
AcDbLine
 10
0.0
 20
0.0
 30
0.0
 11
-1.0
 21
-0.083333333
 31
0.0
  0
LINE
  5
7E
330
4F
100
AcDbEntity
  8
0
  6
CONTINUOUS
 62
     0
100
AcDbLine
 10
-1.0
 20
0.166666667
 30
0.0
 11
-1.0
 21
-0.166666667
 31
0.0
  0
ENDBLK
  5
51
330
4F
100
AcDbEntity
  8
0
100
AcDbBlockEnd
  0
BLOCK
  5
53
330
52
100
AcDbEntity
  8
0
100
AcDbBlockBegin
  2
EX_BCIR
 70
     0
 10
0.0
 20
0.0
 30
0.0
  3
EX_BCIR
  1

  0
LINE
  5
7F
330
52
100
AcDbEntity
  8
0
  6
CONTINUOUS
 62
     0
100
AcDbLine
 10
0.0
 20
0.0
 30
0.0
 11
-1.0
 21
0.0
 31
0.0
  0
CIRCLE
  5
80
330
52
100
AcDbEntity
  8
0
  6
CONTINUOUS
 62
     0
100
AcDbCircle
 10
0.0
 20
0.0
 30
0.0
 40
0.5
  0
CIRCLE
  5
81
330
52
100
AcDbEntity
  8
0
  6
CONTINUOUS
 62
     0
100
AcDbCircle
 10
0.0
 20
0.0
 30
0.0
 40
0.25
  0
ENDBLK
  5
54
330
52
100
AcDbEntity
  8
0
100
AcDbBlockEnd
  0
BLOCK
  5
56
330
55
100
AcDbEntity
  8
0
100
AcDbBlockBegin
  2
EX_RCIVIL
 70
     0
 10
0.0
 20
0.0
 30
0.0
  3
EX_RCIVIL
  1

  0
LINE
  5
82
330
55
100
AcDbEntity
  8
0
  6
CONTINUOUS
 62
     0
100
AcDbLine
 10
0.0
 20
0.0
 30
0.0
 11
-1.0
 21
0.0
 31
0.0
  0
LINE
  5
83
330
55
100
AcDbEntity
  8
0
  6
CONTINUOUS
 62
     0
100
AcDbLine
 10
-1.0
 20
-0.25
 30
0.0
 11
0.0
 21
-0.25
 31
0.0
  0
LINE
  5
84
330
55
100
AcDbEntity
  8
0
  6
CONTINUOUS
 62
     0
100
AcDbLine
 10
-1.0
 20
-0.125
 30
0.0
 11
0.0
 21
-0.125
 31
0.0
  0
ENDBLK
  5
57
330
55
100
AcDbEntity
  8
0
100
AcDbBlockEnd
  0
BLOCK
  5
59
330
58
100
AcDbEntity
  8
0
100
AcDbBlockBegin
  2
EX_SLANT
 70
     0
 10
0.0
 20
0.0
 30
0.0
  3
EX_SLANT
  1

  0
LINE
  5
85
330
58
100
AcDbEntity
  8
0
  6
CONTINUOUS
 62
     0
100
AcDbLine
 10
0.0
 20
0.0
 30
0.0
 11
-1.0
 21
0.0
 31
0.0
  0
LINE
  5
86
330
58
100
AcDbEntity
  8
0
  6
CONTINUOUS
 62
     0
100
AcDbLine
 10
0.707106781
 20
0.707106781
 30
0.0
 11
-0.707106781
 21
-0.707106781
 31
0.0
  0
ENDBLK
  5
5A
330
58
100
AcDbEntity
  8
0
100
AcDbBlockEnd
  0
BLOCK
  5
5C
330
5B
100
AcDbEntity
  8
0
100
AcDbBlockBegin
  2
EX_NONE
 70
     0
 10
0.0
 20
0.0
 30
0.0
  3
EX_NONE
  1

  0
LINE
  5
87
330
5B
100
AcDbEntity
  8
0
  6
CONTINUOUS
 62
     0
100
AcDbLine
 10
0.0
 20
0.0
 30
0.0
 11
-1.0
 21
0.0
 31
0.0
  0
ENDBLK
  5
5D
330
5B
100
AcDbEntity
  8
0
100
AcDbBlockEnd
  0
BLOCK
  5
5F
330
5E
100
AcDbEntity
  8
0
100
AcDbBlockBegin
  2
EX_CIVIL
 70
     0
 10
0.0
 20
0.0
 30
0.0
  3
EX_CIVIL
  1

  0
LINE
  5
88
330
5E
100
AcDbEntity
  8
0
  6
CONTINUOUS
 62
     0
100
AcDbLine
 10
0.0
 20
0.0
 30
0.0
 11
-1.0
 21
0.0
 31
0.0
  0
LINE
  5
89
330
5E
100
AcDbEntity
  8
0
  6
CONTINUOUS
 62
     0
100
AcDbLine
 10
-1.0
 20
0.25
 30
0.0
 11
0.0
 21
0.25
 31
0.0
  0
LINE
  5
8A
330
5E
100
AcDbEntity
  8
0
  6
CONTINUOUS
 62
     0
100
AcDbLine
 10
-1.0
 20
0.125
 30
0.0
 11
0.0
 21
0.125
 31
0.0
  0
ENDBLK
  5
60
330
5E
100
AcDbEntity
  8
0
100
AcDbBlockEnd
  0
BLOCK
  5
62
330
61
100
AcDbEntity
  8
0
100
AcDbBlockBegin
  2
EX_WCIR
 70
     0
 10
0.0
 20
0.0
 30
0.0
  3
EX_WCIR
  1

  0
LINE
  5
8B
330
61
100
AcDbEntity
  8
0
  6
CONTINUOUS
 62
     0
100
AcDbLine
 10
0.0
 20
0.0
 30
0.0
 11
-1.0
 21
0.0
 31
0.0
  0
CIRCLE
  5
8C
330
61
100
AcDbEntity
  8
0
  6
CONTINUOUS
 62
     0
100
AcDbCircle
 10
0.0
 20
0.0
 30
0.0
 40
0.5
  0
ENDBLK
  5
63
330
61
100
AcDbEntity
  8
0
100
AcDbBlockEnd
  0
BLOCK
  5
65
330
64
100
AcDbEntity
  8
0
100
AcDbBlockBegin
  2
EX_WCIR2
 70
     0
 10
0.0
 20
0.0
 30
0.0
  3
EX_WCIR2
  1

  0
LINE
  5
8D
330
64
100
AcDbEntity
  8
0
  6
CONTINUOUS
 62
     0
100
AcDbLine
 10
-0.5
 20
0.0
 30
0.0
 11
-1.0
 21
0.0
 31
0.0
  0
CIRCLE
  5
8E
330
64
100
AcDbEntity
  8
0
  6
CONTINUOUS
 62
     0
100
AcDbCircle
 10
0.0
 20
0.0
 30
0.0
 40
0.5
  0
ENDBLK
  5
66
330
64
100
AcDbEntity
  8
0
100
AcDbBlockEnd
  0
BLOCK
  5
68
330
67
100
AcDbEntity
  8
0
100
AcDbBlockBegin
  2
EX_WNORM
 70
     0
 10
0.0
 20
0.0
 30
0.0
  3
EX_WNORM
  1

  0
LINE
  5
8F
330
67
100
AcDbEntity
  8
0
  6
CONTINUOUS
 62
     0
100
AcDbLine
 10
-1.0
 20
0.0
 30
0.0
 11
-1.0
 21
0.0
 31
0.0
  0
LINE
  5
90
330
67
100
AcDbEntity
  8
0
  6
CONTINUOUS
 62
     0
100
AcDbLine
 10
0.0
 20
0.0
 30
0.0
 11
-1.0
 21
0.166666667
 31
0.0
  0
LINE
  5
91
330
67
100
AcDbEntity
  8
0
  6
CONTINUOUS
 62
     0
100
AcDbLine
 10
0.0
 20
0.0
 30
0.0
 11
-1.0
 21
-0.166666667
 31
0.0
  0
LINE
  5
92
330
67
100
AcDbEntity
  8
0
  6
CONTINUOUS
 62
     0
100
AcDbLine
 10
-1.0
 20
0.166666667
 30
0.0
 11
-1.0
 21
-0.166666667
 31
0.0
  0
ENDBLK
  5
69
330
67
100
AcDbEntity
  8
0
100
AcDbBlockEnd
  0
BLOCK
  5
6B
330
6A
100
AcDbEntity
  8
0
100
AcDbBlockBegin
  2
EX_NNORM
 70
     0
 10
0.0
 20
0.0
 30
0.0
  3
EX_NNORM
  1

  0
LINE
  5
93
330
6A
100
AcDbEntity
  8
0
  6
CONTINUOUS
 62
     0
100
AcDbLine
 10
0.0
 20
0.0
 30
0.0
 11
-1.0
 21
0.0
 31
0.0
  0
LINE
  5
94
330
6A
100
AcDbEntity
  8
0
  6
CONTINUOUS
 62
     0
100
AcDbLine
 10
0.0
 20
0.0
 30
0.0
 11
-1.0
 21
0.166666667
 31
0.0
  0
LINE
  5
95
330
6A
100
AcDbEntity
  8
0
  6
CONTINUOUS
 62
     0
100
AcDbLine
 10
0.0
 20
0.0
 30
0.0
 11
-1.0
 21
-0.166666667
 31
0.0
  0
LINE
  5
96
330
6A
100
AcDbEntity
  8
0
  6
CONTINUOUS
 62
     0
100
AcDbLine
 10
-1.0
 20
0.166666667
 30
0.0
 11
-1.0
 21
-0.166666667
 31
0.0
  0
ENDBLK
  5
6C
330
6A
100
AcDbEntity
  8
0
100
AcDbBlockEnd
  0
BLOCK
  5
6E
330
6D
100
AcDbEntity
  8
0
100
AcDbBlockBegin
  2
EX_BBOX
 70
     0
 10
0.0
 20
0.0
 30
0.0
  3
EX_BBOX
  1

  0
LINE
  5
97
330
6D
100
AcDbEntity
  8
0
  6
CONTINUOUS
 62
     0
100
AcDbLine
 10
0.0
 20
0.0
 30
0.0
 11
-1.0
 21
0.0
 31
0.0
  0
LINE
  5
98
330
6D
100
AcDbEntity
  8
0
  6
CONTINUOUS
 62
     0
100
AcDbLine
 10
-0.5
 20
0.5
 30
0.0
 11
0.5
 21
0.5
 31
0.0
  0
LINE
  5
99
330
6D
100
AcDbEntity
  8
0
  6
CONTINUOUS
 62
     0
100
AcDbLine
 10
0.5
 20
0.5
 30
0.0
 11
0.5
 21
-0.5
 31
0.0
  0
LINE
  5
9A
330
6D
100
AcDbEntity
  8
0
  6
CONTINUOUS
 62
     0
100
AcDbLine
 10
0.5
 20
-0.5
 30
0.0
 11
-0.5
 21
-0.5
 31
0.0
  0
LINE
  5
9B
330
6D
100
AcDbEntity
  8
0
  6
CONTINUOUS
 62
     0
100
AcDbLine
 10
-0.5
 20
-0.5
 30
0.0
 11
-0.5
 21
0.5
 31
0.0
  0
LINE
  5
9C
330
6D
100
AcDbEntity
  8
0
  6
CONTINUOUS
 62
     0
100
AcDbLine
 10
-0.25
 20
0.25
 30
0.0
 11
0.25
 21
0.25
 31
0.0
  0
LINE
  5
9D
330
6D
100
AcDbEntity
  8
0
  6
CONTINUOUS
 62
     0
100
AcDbLine
 10
0.25
 20
0.25
 30
0.0
 11
0.25
 21
-0.25
 31
0.0
  0
LINE
  5
9E
330
6D
100
AcDbEntity
  8
0
  6
CONTINUOUS
 62
     0
100
AcDbLine
 10
0.25
 20
-0.25
 30
0.0
 11
-0.25
 21
-0.25
 31
0.0
  0
LINE
  5
9F
330
6D
100
AcDbEntity
  8
0
  6
CONTINUOUS
 62
     0
100
AcDbLine
 10
-0.25
 20
-0.25
 30
0.0
 11
-0.25
 21
0.25
 31
0.0
  0
ENDBLK
  5
6F
330
6D
100
AcDbEntity
  8
0
100
AcDbBlockEnd
  0
BLOCK
  5
71
330
70
100
AcDbEntity
  8
0
100
AcDbBlockBegin
  2
EX_WBOX
 70
     0
 10
0.0
 20
0.0
 30
0.0
  3
EX_WBOX
  1

  0
LINE
  5
A0
330
70
100
AcDbEntity
  8
0
  6
CONTINUOUS
 62
     0
100
AcDbLine
 10
-0.5
 20
0.0
 30
0.0
 11
-1.0
 21
0.0
 31
0.0
  0
LINE
  5
A1
330
70
100
AcDbEntity
  8
0
  6
CONTINUOUS
 62
     0
100
AcDbLine
 10
-0.5
 20
0.5
 30
0.0
 11
0.5
 21
0.5
 31
0.0
  0
LINE
  5
A2
330
70
100
AcDbEntity
  8
0
  6
CONTINUOUS
 62
     0
100
AcDbLine
 10
0.5
 20
0.5
 30
0.0
 11
0.5
 21
-0.5
 31
0.0
  0
LINE
  5
A3
330
70
100
AcDbEntity
  8
0
  6
CONTINUOUS
 62
     0
100
AcDbLine
 10
0.5
 20
-0.5
 30
0.0
 11
-0.5
 21
-0.5
 31
0.0
  0
LINE
  5
A4
330
70
100
AcDbEntity
  8
0
  6
CONTINUOUS
 62
     0
100
AcDbLine
 10
-0.5
 20
-0.5
 30
0.0
 11
-0.5
 21
0.5
 31
0.0
  0
ENDBLK
  5
72
330
70
100
AcDbEntity
  8
0
100
AcDbBlockEnd
  0
BLOCK
  5
74
330
73
100
AcDbEntity
  8
0
100
AcDbBlockBegin
  2
EX_INTEGRAL
 70
     0
 10
0.0
 20
0.0
 30
0.0
  3
EX_INTEGRAL
  1

  0
LINE
  5
A5
330
73
100
AcDbEntity
  8
0
  6
CONTINUOUS
 62
     0
100
AcDbLine
 10
0.0
 20
0.0
 30
0.0
 11
-1.0
 21
0.0
 31
0.0
  0
ARC
  5
A6
330
73
100
AcDbEntity
  8
0
  6
CONTINUOUS
 62
     0
100
AcDbCircle
 10
0.542115
 20
0.164992
 30
0.0
 40
0.56667
100
AcDbArc
 50
73.07249033629006
 51
196.9275130221199
  0
ARC
  5
A7
330
73
100
AcDbEntity
  8
0
  6
CONTINUOUS
 62
     0
100
AcDbCircle
 10
-0.542115
 20
-0.164992
 30
0.0
 40
0.56667
100
AcDbArc
 50
253.0724869220464
 51
16.9275130559125
  0
ENDBLK
  5
75
330
73
100
AcDbEntity
  8
0
100
AcDbBlockEnd
  0
BLOCK
  5
15C
330
15B
100
AcDbEntity
  8
0
100
AcDbBlockBegin
  2
*D15
 70
     1
 10
0.0
 20
0.0
 30
0.0
  3
*D15
  1

  0
LINE
  5
15E
330
15B
100
AcDbEntity
  8
図
  6
CONTINUOUS
 62
     3
100
AcDbLine
 10
817.5
 20
509.3857039844955
 30
0.0
 11
817.5
 21
567.5
 31
0.0
  0
LINE
  5
15F
330
15B
100
AcDbEntity
  8
図
  6
CONTINUOUS
 62
     3
100
AcDbLine
 10
817.5
 20
562.5
 30
0.0
 11
820.8000000000002
 21
562.5
 31
0.0
  0
LINE
  5
160
330
15B
100
AcDbEntity
  8
図
  6
CONTINUOUS
 62
     3
100
AcDbLine
 10
802.5
 20
562.5
 30
0.0
 11
787.5
 21
562.5
 31
0.0
  0
LINE
  5
161
330
15B
100
AcDbEntity
  8
図
  6
CONTINUOUS
 62
     3
100
AcDbLine
 10
835.8000000000002
 20
562.5
 30
0.0
 11
850.8000000000002
 21
562.5
 31
0.0
  0
INSERT
  5
162
330
15B
100
AcDbEntity
  8
図
 62
     3
100
AcDbBlockReference
  2
EX_NORM
 10
817.5
 20
562.5
 30
0.0
 41
15.0
 42
15.0
 43
15.0
  0
INSERT
  5
163
330
15B
100
AcDbEntity
  8
図
 62
     3
100
AcDbBlockReference
  2
EX_NORM
 10
820.8000000000002
 20
562.5
 30
0.0
 41
15.0
 42
15.0
 43
15.0
 50
180.0
  0
MTEXT
  5
164
330
15B
100
AcDbEntity
  8
図
 62
     2
100
AcDbMText
 10
855.8000000000004
 20
574.2499999701977
 30
0.0
 40
20.0
 41
0.0
 71
     5
 72
     1
  1
3.3
  7
EXCADDIM1
  0
POINT
  5
165
330
15B
100
AcDbEntity
  8
DEFPOINTS
 62
     0
100
AcDbPoint
 10
817.5
 20
505.8857040441001
 30
0.0
  0
POINT
  5
166
330
15B
100
AcDbEntity
  8
DEFPOINTS
 62
     0
100
AcDbPoint
 10
820.8000000000002
 20
505.8857040441001
 30
0.0
  0
POINT
  5
167
330
15B
100
AcDbEntity
  8
DEFPOINTS
 62
     0
100
AcDbPoint
 10
820.8000000000002
 20
562.5
 30
0.0
  0
ENDBLK
  5
15D
330
15B
100
AcDbEntity
  8
0
100
AcDbBlockEnd
  0
BLOCK
  5
1B4
330
1B3
100
AcDbEntity
  8
0
100
AcDbBlockBegin
  2
*D16
 70
     1
 10
0.0
 20
0.0
 30
0.0
  3
*D16
  1

  0
LINE
  5
1B6
330
1B3
100
AcDbEntity
  8
図
  6
CONTINUOUS
 62
     3
100
AcDbLine
 10
235.6999999999999
 20
863.5000000596046
 30
0.0
 11
235.6999999999999
 21
782.5
 31
0.0
  0
LINE
  5
1B7
330
1B3
100
AcDbEntity
  8
図
  6
CONTINUOUS
 62
     3
100
AcDbLine
 10
523.4999999999899
 20
863.5000000596046
 30
0.0
 11
523.4999999999899
 21
782.5
 31
0.0
  0
LINE
  5
1B8
330
1B3
100
AcDbEntity
  8
図
  6
CONTINUOUS
 62
     3
100
AcDbLine
 10
250.6999999999999
 20
787.5
 30
0.0
 11
508.4999999999899
 21
787.5
 31
0.0
  0
INSERT
  5
1B9
330
1B3
100
AcDbEntity
  8
図
 62
     3
100
AcDbBlockReference
  2
EX_NORM
 10
235.6999999999999
 20
787.5
 30
0.0
 41
15.0
 42
15.0
 43
15.0
 50
180.0
  0
INSERT
  5
1BA
330
1B3
100
AcDbEntity
  8
図
 62
     3
100
AcDbBlockReference
  2
EX_NORM
 10
523.4999999999899
 20
787.5
 30
0.0
 41
15.0
 42
15.0
 43
15.0
  0
MTEXT
  5
1BB
330
1B3
100
AcDbEntity
  8
図
 62
     2
100
AcDbMText
 10
379.599999999995
 20
799.2499999701977
 30
0.0
 40
20.0
 41
0.0
 71
     5
 72
     1
  1
288
  7
EXCADDIM1
  0
POINT
  5
1BC
330
1B3
100
AcDbEntity
  8
DEFPOINTS
 62
     0
100
AcDbPoint
 10
235.6999999999999
 20
867.0
 30
0.0
  0
POINT
  5
1BD
330
1B3
100
AcDbEntity
  8
DEFPOINTS
 62
     0
100
AcDbPoint
 10
523.4999999999899
 20
867.0
 30
0.0
  0
POINT
  5
1BE
330
1B3
100
AcDbEntity
  8
DEFPOINTS
 62
     0
100
AcDbPoint
 10
523.4999999999899
 20
787.5
 30
0.0
  0
ENDBLK
  5
1B5
330
1B3
100
AcDbEntity
  8
0
100
AcDbBlockEnd
  0
BLOCK
  5
1C1
330
1C0
100
AcDbEntity
  8
0
100
AcDbBlockBegin
  2
*D17
 70
     1
 10
0.0
 20
0.0
 30
0.0
  3
*D17
  1

  0
LINE
  5
1C3
330
1C0
100
AcDbEntity
  8
図
  6
CONTINUOUS
 62
     3
100
AcDbLine
 10
279.1
 20
1025.249999940395
 30
0.0
 11
279.1
 21
1061.5
 31
0.0
  0
LINE
  5
1C4
330
1C0
100
AcDbEntity
  8
図
  6
CONTINUOUS
 62
     3
100
AcDbLine
 10
480.1
 20
1025.249999940395
 30
0.0
 11
480.1
 21
1061.5
 31
0.0
  0
LINE
  5
1C5
330
1C0
100
AcDbEntity
  8
図
  6
CONTINUOUS
 62
     3
100
AcDbLine
 10
294.1
 20
1056.5
 30
0.0
 11
465.1
 21
1056.5
 31
0.0
  0
INSERT
  5
1C6
330
1C0
100
AcDbEntity
  8
図
 62
     3
100
AcDbBlockReference
  2
EX_NORM
 10
279.1
 20
1056.5
 30
0.0
 41
15.0
 42
15.0
 43
15.0
 50
180.0
  0
INSERT
  5
1C7
330
1C0
100
AcDbEntity
  8
図
 62
     3
100
AcDbBlockReference
  2
EX_NORM
 10
480.1
 20
1056.5
 30
0.0
 41
15.0
 42
15.0
 43
15.0
  0
MTEXT
  5
1C8
330
1C0
100
AcDbEntity
  8
図
 62
     2
100
AcDbMText
 10
379.6000000000001
 20
1068.249999970198
 30
0.0
 40
20.0
 41
0.0
 71
     5
 72
     1
  1
201
  7
EXCADDIM1
  0
POINT
  5
1C9
330
1C0
100
AcDbEntity
  8
DEFPOINTS
 62
     0
100
AcDbPoint
 10
279.1
 20
1021.75
 30
0.0
  0
POINT
  5
1CA
330
1C0
100
AcDbEntity
  8
DEFPOINTS
 62
     0
100
AcDbPoint
 10
480.1
 20
1021.75
 30
0.0
  0
POINT
  5
1CB
330
1C0
100
AcDbEntity
  8
DEFPOINTS
 62
     0
100
AcDbPoint
 10
480.1
 20
1056.5
 30
0.0
  0
ENDBLK
  5
1C2
330
1C0
100
AcDbEntity
  8
0
100
AcDbBlockEnd
  0
BLOCK
  5
25F
330
25E
100
AcDbEntity
  8
0
100
AcDbBlockBegin
  2
*D18
 70
     1
 10
0.0
 20
0.0
 30
0.0
  3
*D18
  1

  0
LINE
  5
261
330
25E
100
AcDbEntity
  8
図
  6
CONTINUOUS
 62
     3
100
AcDbLine
 10
270.5
 20
918.2
 30
0.0
 11
270.5
 21
909.0
 31
0.0
  0
LINE
  5
262
330
25E
100
AcDbEntity
  8
図
  6
CONTINUOUS
 62
     3
100
AcDbLine
 10
270.5
 20
933.2
 30
0.0
 11
270.5
 21
948.2
 31
0.0
  0
LINE
  5
263
330
25E
100
AcDbEntity
  8
図
  6
CONTINUOUS
 62
     3
100
AcDbLine
 10
270.5
 20
894.0
 30
0.0
 11
270.5
 21
879.0
 31
0.0
  0
INSERT
  5
264
330
25E
100
AcDbEntity
  8
図
 62
     3
100
AcDbBlockReference
  2
EX_NORM
 10
270.5
 20
918.2
 30
0.0
 41
15.0
 42
15.0
 43
15.0
 50
270.0
  0
INSERT
  5
265
330
25E
100
AcDbEntity
  8
図
 62
     3
100
AcDbBlockReference
  2
EX_NORM
 10
270.5
 20
909.0
 30
0.0
 41
15.0
 42
15.0
 43
15.0
 50
90.0
  0
MTEXT
  5
266
330
25E
100
AcDbEntity
  8
図
 62
     2
100
AcDbMText
 10
258.7500000298024
 20
826.4000000000001
 30
0.0
 40
20.0
 41
0.0
 71
     5
 72
     1
  1
%%c9.2
  7
EXCADDIM1
 11
-3.828568698926949E-16
 21
1.0
 31
0.0
  0
POINT
  5
267
330
25E
100
AcDbEntity
  8
DEFPOINTS
 62
     0
100
AcDbPoint
 10
245.18654075261
 20
918.2
 30
0.0
  0
POINT
  5
268
330
25E
100
AcDbEntity
  8
DEFPOINTS
 62
     0
100
AcDbPoint
 10
246.25
 20
909.0
 30
0.0
  0
POINT
  5
269
330
25E
100
AcDbEntity
  8
DEFPOINTS
 62
     0
100
AcDbPoint
 10
270.5
 20
909.0
 30
0.0
  0
ENDBLK
  5
260
330
25E
100
AcDbEntity
  8
0
100
AcDbBlockEnd
  0
BLOCK
  5
26C
330
26B
100
AcDbEntity
  8
0
100
AcDbBlockBegin
  2
*D19
 70
     1
 10
0.0
 20
0.0
 30
0.0
  3
*D19
  1

  0
LINE
  5
26E
330
26B
100
AcDbEntity
  8
図
  6
CONTINUOUS
 62
     3
100
AcDbLine
 10
388.4999999999899
 20
863.5000000596046
 30
0.0
 11
388.4999999999899
 21
827.5
 31
0.0
  0
LINE
  5
26F
330
26B
100
AcDbEntity
  8
図
  6
CONTINUOUS
 62
     3
100
AcDbLine
 10
403.4999999999899
 20
832.5
 30
0.0
 11
508.4999999999899
 21
832.5
 31
0.0
  0
INSERT
  5
270
330
26B
100
AcDbEntity
  8
図
 62
     3
100
AcDbBlockReference
  2
EX_NORM
 10
388.4999999999899
 20
832.5
 30
0.0
 41
15.0
 42
15.0
 43
15.0
 50
180.0
  0
INSERT
  5
271
330
26B
100
AcDbEntity
  8
図
 62
     3
100
AcDbBlockReference
  2
EX_NORM
 10
523.4999999999899
 20
832.5
 30
0.0
 41
15.0
 42
15.0
 43
15.0
  0
MTEXT
  5
272
330
26B
100
AcDbEntity
  8
図
 62
     2
100
AcDbMText
 10
455.9999999999901
 20
844.2499999701977
 30
0.0
 40
20.0
 41
0.0
 71
     5
 72
     1
  1
135
  7
EXCADDIM1
  0
POINT
  5
273
330
26B
100
AcDbEntity
  8
DEFPOINTS
 62
     0
100
AcDbPoint
 10
388.4999999999899
 20
867.0
 30
0.0
  0
POINT
  5
274
330
26B
100
AcDbEntity
  8
DEFPOINTS
 62
     0
100
AcDbPoint
 10
523.4999999999899
 20
863.5000000596001
 30
0.0
  0
POINT
  5
275
330
26B
100
AcDbEntity
  8
DEFPOINTS
 62
     0
100
AcDbPoint
 10
523.4999999999899
 20
832.5
 30
0.0
  0
ENDBLK
  5
26D
330
26B
100
AcDbEntity
  8
0
100
AcDbBlockEnd
  0
BLOCK
  5
27A
330
279
100
AcDbEntity
  8
0
100
AcDbBlockBegin
  2
*D20
 70
     1
 10
0.0
 20
0.0
 30
0.0
  3
*D20
  1

  0
LINE
  5
27C
330
279
100
AcDbEntity
  8
図
  6
CONTINUOUS
 62
     3
100
AcDbLine
 10
214.0014507678
 20
467.3597359216146
 30
0.0
 11
214.0014507678
 21
400.0
 31
0.0
  0
LINE
  5
27D
330
279
100
AcDbEntity
  8
図
  6
CONTINUOUS
 62
     3
100
AcDbLine
 10
545.19665789785
 20
467.0483092190946
 30
0.0
 11
545.19665789785
 21
400.0
 31
0.0
  0
LINE
  5
27E
330
279
100
AcDbEntity
  8
図
  6
CONTINUOUS
 62
     3
100
AcDbLine
 10
229.0014507678
 20
405.0
 30
0.0
 11
530.19665789785
 21
405.0
 31
0.0
  0
INSERT
  5
27F
330
279
100
AcDbEntity
  8
図
 62
     3
100
AcDbBlockReference
  2
EX_NORM
 10
214.0014507678
 20
405.0
 30
0.0
 41
15.0
 42
15.0
 43
15.0
 50
180.0
  0
INSERT
  5
280
330
279
100
AcDbEntity
  8
図
 62
     3
100
AcDbBlockReference
  2
EX_NORM
 10
545.19665789785
 20
405.0
 30
0.0
 41
15.0
 42
15.0
 43
15.0
  0
MTEXT
  5
281
330
279
100
AcDbEntity
  8
図
 62
     2
100
AcDbMText
 10
379.599054332825
 20
416.7499999701977
 30
0.0
 40
20.0
 41
0.0
 71
     5
 72
     1
  1
（331）
  7
EXCADDIM1
  0
POINT
  5
282
330
279
100
AcDbEntity
  8
DEFPOINTS
 62
     0
100
AcDbPoint
 10
214.0014507678
 20
470.85973586201
 30
0.0
  0
POINT
  5
283
330
279
100
AcDbEntity
  8
DEFPOINTS
 62
     0
100
AcDbPoint
 10
545.19665789785
 20
470.54830915949
 30
0.0
  0
POINT
  5
284
330
279
100
AcDbEntity
  8
DEFPOINTS
 62
     0
100
AcDbPoint
 10
545.19665789785
 20
405.0
 30
0.0
  0
ENDBLK
  5
27B
330
279
100
AcDbEntity
  8
0
100
AcDbBlockEnd
  0
BLOCK
  5
2B0
330
2AF
100
AcDbEntity
  8
0
100
AcDbBlockBegin
  2
*D21
 70
     1
 10
0.0
 20
0.0
 30
0.0
  3
*D21
  1

  0
LINE
  5
2B2
330
2AF
100
AcDbEntity
  8
図
  6
CONTINUOUS
 62
     3
100
AcDbLine
 10
861.9699999403954
 20
472.88570404412
 30
0.0
 11
893.6500000000001
 21
472.88570404412
 31
0.0
  0
LINE
  5
2B3
330
2AF
100
AcDbEntity
  8
図
  6
CONTINUOUS
 62
     3
100
AcDbLine
 10
862.5999999403954
 20
498.95
 30
0.0
 11
893.6500000000001
 21
498.95
 31
0.0
  0
LINE
  5
2B4
330
2AF
100
AcDbEntity
  8
図
  6
CONTINUOUS
 62
     3
100
AcDbLine
 10
888.6500000000001
 20
472.88570404412
 30
0.0
 11
888.6500000000001
 21
498.95
 31
0.0
  0
LINE
  5
2B5
330
2AF
100
AcDbEntity
  8
図
  6
CONTINUOUS
 62
     3
100
AcDbLine
 10
888.6500000000001
 20
457.88570404412
 30
0.0
 11
888.6500000000001
 21
442.88570404412
 31
0.0
  0
LINE
  5
2B6
330
2AF
100
AcDbEntity
  8
図
  6
CONTINUOUS
 62
     3
100
AcDbLine
 10
888.6500000000001
 20
513.95
 30
0.0
 11
888.6500000000001
 21
528.95
 31
0.0
  0
INSERT
  5
2B7
330
2AF
100
AcDbEntity
  8
図
 62
     3
100
AcDbBlockReference
  2
EX_NORM
 10
888.6500000000001
 20
472.88570404412
 30
0.0
 41
15.0
 42
15.0
 43
15.0
 50
90.0
  0
INSERT
  5
2B8
330
2AF
100
AcDbEntity
  8
図
 62
     3
100
AcDbBlockReference
  2
EX_NORM
 10
888.6500000000001
 20
498.95
 30
0.0
 41
15.0
 42
15.0
 43
15.0
 50
270.0
  0
MTEXT
  5
2B9
330
2AF
100
AcDbEntity
  8
図
 62
     2
100
AcDbMText
 10
876.9000000298025
 20
531.4499999999998
 30
0.0
 40
20.0
 41
0.0
 71
     5
 72
     1
  1
26
  7
EXCADDIM1
 11
0.0
 21
1.0
 31
0.0
  0
POINT
  5
2BA
330
2AF
100
AcDbEntity
  8
DEFPOINTS
 62
     0
100
AcDbPoint
 10
858.47
 20
472.88570404412
 30
0.0
  0
POINT
  5
2BB
330
2AF
100
AcDbEntity
  8
DEFPOINTS
 62
     0
100
AcDbPoint
 10
859.1
 20
498.95
 30
0.0
  0
POINT
  5
2BC
330
2AF
100
AcDbEntity
  8
DEFPOINTS
 62
     0
100
AcDbPoint
 10
888.6500000000001
 20
498.95
 30
0.0
  0
ENDBLK
  5
2B1
330
2AF
100
AcDbEntity
  8
0
100
AcDbBlockEnd
  0
BLOCK
  5
2BF
330
2BE
100
AcDbEntity
  8
0
100
AcDbBlockBegin
  2
*D22
 70
     1
 10
0.0
 20
0.0
 30
0.0
  3
*D22
  1

  0
LINE
  5
2C1
330
2BE
100
AcDbEntity
  8
図
  6
CONTINUOUS
 62
     3
100
AcDbLine
 10
824.2999999403953
 20
465.88570404412
 30
0.0
 11
918.95
 21
465.88570404412
 31
0.0
  0
LINE
  5
2C2
330
2BE
100
AcDbEntity
  8
図
  6
CONTINUOUS
 62
     3
100
AcDbLine
 10
824.2999999403953
 20
505.8857040441001
 30
0.0
 11
918.95
 21
505.8857040441001
 31
0.0
  0
LINE
  5
2C3
330
2BE
100
AcDbEntity
  8
図
  6
CONTINUOUS
 62
     3
100
AcDbLine
 10
913.95
 20
480.88570404412
 30
0.0
 11
913.95
 21
490.8857040441001
 31
0.0
  0
INSERT
  5
2C4
330
2BE
100
AcDbEntity
  8
図
 62
     3
100
AcDbBlockReference
  2
EX_NORM
 10
913.95
 20
465.88570404412
 30
0.0
 41
15.0
 42
15.0
 43
15.0
 50
270.0
  0
INSERT
  5
2C5
330
2BE
100
AcDbEntity
  8
図
 62
     3
100
AcDbBlockReference
  2
EX_NORM
 10
913.95
 20
505.8857040441001
 30
0.0
 41
15.0
 42
15.0
 43
15.0
 50
90.0
  0
MTEXT
  5
2C6
330
2BE
100
AcDbEntity
  8
図
 62
     2
100
AcDbMText
 10
902.2000000298025
 20
538.3857040440998
 30
0.0
 40
20.0
 41
0.0
 71
     5
 72
     1
  1
40
  7
EXCADDIM1
 11
0.0
 21
1.0
 31
0.0
  0
POINT
  5
2C7
330
2BE
100
AcDbEntity
  8
DEFPOINTS
 62
     0
100
AcDbPoint
 10
820.8
 20
465.88570404412
 30
0.0
  0
POINT
  5
2C8
330
2BE
100
AcDbEntity
  8
DEFPOINTS
 62
     0
100
AcDbPoint
 10
820.8
 20
505.8857040441001
 30
0.0
  0
POINT
  5
2C9
330
2BE
100
AcDbEntity
  8
DEFPOINTS
 62
     0
100
AcDbPoint
 10
913.95
 20
505.8857040441001
 30
0.0
  0
ENDBLK
  5
2C0
330
2BE
100
AcDbEntity
  8
0
100
AcDbBlockEnd
  0
BLOCK
  5
30B
330
30A
100
AcDbEntity
  8
0
100
AcDbBlockBegin
  2
*D23
 70
     1
 10
0.0
 20
0.0
 30
0.0
  3
*D23
  1

  0
LINE
  5
30D
330
30A
100
AcDbEntity
  8
図
  6
CONTINUOUS
 62
     3
100
AcDbLine
 10
699.96954373234
 20
486.9853966908553
 30
0.0
 11
699.96954373234
 21
602.0
 31
0.0
  0
LINE
  5
30E
330
30A
100
AcDbEntity
  8
図
  6
CONTINUOUS
 62
     3
100
AcDbLine
 10
714.96954373234
 20
597.0
 30
0.0
 11
805.8
 21
597.0
 31
0.0
  0
INSERT
  5
30F
330
30A
100
AcDbEntity
  8
図
 62
     3
100
AcDbBlockReference
  2
EX_NORM
 10
699.96954373234
 20
597.0
 30
0.0
 41
15.0
 42
15.0
 43
15.0
 50
180.0
  0
INSERT
  5
310
330
30A
100
AcDbEntity
  8
図
 62
     3
100
AcDbBlockReference
  2
EX_NORM
 10
820.8
 20
597.0
 30
0.0
 41
15.0
 42
15.0
 43
15.0
  0
MTEXT
  5
311
330
30A
100
AcDbEntity
  8
図
 62
     2
100
AcDbMText
 10
760.38477186617
 20
608.7499999701977
 30
0.0
 40
20.0
 41
0.0
 71
     5
 72
     1
  1
（120）
  7
EXCADDIM1
  0
POINT
  5
312
330
30A
100
AcDbEntity
  8
DEFPOINTS
 62
     0
100
AcDbPoint
 10
699.96954373234
 20
483.48539675046
 30
0.0
  0
POINT
  5
313
330
30A
100
AcDbEntity
  8
DEFPOINTS
 62
     0
100
AcDbPoint
 10
820.8
 20
518.05
 30
0.0
  0
POINT
  5
314
330
30A
100
AcDbEntity
  8
DEFPOINTS
 62
     0
100
AcDbPoint
 10
820.8
 20
597.0
 30
0.0
  0
ENDBLK
  5
30C
330
30A
100
AcDbEntity
  8
0
100
AcDbBlockEnd
  0
BLOCK
  5
317
330
316
100
AcDbEntity
  8
0
100
AcDbBlockBegin
  2
*D24
 70
     1
 10
0.0
 20
0.0
 30
0.0
  3
*D24
  1

  0
LINE
  5
319
330
316
100
AcDbEntity
  8
図
  6
CONTINUOUS
 62
     3
100
AcDbLine
 10
733.2999999999975
 20
406.9145608738017
 30
0.0
 11
755.8
 21
445.8857040441001
 31
0.0
  0
MTEXT
  5
31A
330
316
100
AcDbEntity
  8
図
 62
     2
100
AcDbMText
 10
695.6242015313373
 20
365.158163650759
 30
0.0
 40
20.0
 41
0.0
 71
     5
 72
     1
  1
R60
  7
EXCADDIM1
 11
0.5000000000000547
 21
0.8660254037844071
 31
0.0
  0
LINE
  5
31B
330
316
100
AcDbEntity
  8
図
  6
CONTINUOUS
 62
     3
100
AcDbLine
 10
755.8
 20
445.8857040441001
 30
0.0
 11
725.7999999999967
 21
393.9241798170356
 31
0.0
  0
INSERT
  5
31C
330
316
100
AcDbEntity
  8
図
 62
     3
100
AcDbBlockReference
  2
EX_NORM
 10
725.7999999999967
 20
393.9241798170356
 30
0.0
 41
15.0
 42
15.0
 43
15.0
 50
239.9999999999964
  0
POINT
  5
31D
330
316
100
AcDbEntity
  8
DEFPOINTS
 62
     0
100
AcDbPoint
 10
725.7999999999967
 20
393.9241798170356
 30
0.0
  0
POINT
  5
31E
330
316
100
AcDbEntity
  8
DEFPOINTS
 62
     0
100
AcDbPoint
 10
755.8
 20
445.8857040441001
 30
0.0
  0
ENDBLK
  5
318
330
316
100
AcDbEntity
  8
0
100
AcDbBlockEnd
  0
ENDSEC
  0
SECTION
  2
ENTITIES
  0
TEXT
  5
A9
330
1F
100
AcDbEntity
  8
0
  6
CONTINUOUS
 62
     2
100
AcDbText
 10
458.0000000000015
 20
58.25000000000017
 30
0.0
 40
16.875
  1
ジャニス工業株式会社
 41
1.025641025641026
  7
EXCADTTF1
 72
     5
 11
683.0000000000015
 21
58.25000000000017
 31
0.0
100
AcDbText
  0
HATCH
  5
AA
330
1F
100
AcDbEntity
  8
0
  6
CONTINUOUS
 62
     3
100
AcDbHatch
 10
0.0
 20
0.0
 30
0.0
210
0.0
220
0.0
230
1.0
  2
SOLID
 70
     1
 71
     1
 91
        2
 92
        3
 72
     1
 73
     1
 93
       27
 10
396.5863828666252
 20
75.68224664877047
 42
-0.1769427732109284
 10
396.5863828666252
 20
75.6822466487705
 42
0.0
 10
396.5863828666252
 20
73.8597466487704
 42
0.0
 10
397.0251328666255
 20
73.85974664877021
 42
-0.207533601427307
 10
399.8737113947851
 20
75.9966179564524
 42
-0.1226604740888933
 10
402.3913828666255
 20
76.05012164877039
 42
-0.3213715781137954
 10
404.9941640111046
 20
72.85532571892378
 42
-0.064704004662446
 10
405.0070078666247
 20
71.16649664877029
 42
-0.257798906330806
 10
404.4771328666253
 20
70.52524664877029
 42
-0.056602577721096
 10
403.3431328666251
 20
70.13037164877048
 42
-0.0166741689362636
 10
399.1851328666253
 20
69.34062164877037
 42
0.1186092302783404
 10
396.4412578666253
 20
68.02437164877033
 42
0.1699204224386695
 10
395.2465078666251
 20
66.02637164877028
 42
0.1006533494296199
 10
395.1360433397908
 20
64.29267775478637
 42
0.1675695228968024
 10
396.2185078666253
 20
61.96962164877034
 42
0.1376980079804242
 10
398.1861328666251
 20
60.83224664877045
 42
0.0719813663796923
 10
399.0805078666247
 20
60.68374664877041
 42
0.0
 10
400.4507578666252
 20
60.68374664877045
 42
0.1944607457809085
 10
404.9968828666253
 20
63.02262164877035
 42
0.1288538183665954
 10
405.4558828666248
 20
61.8751216487702
 42
0.2098387395261546
 10
406.9543828666249
 20
61.04824664877043
 42
0.0
 10
408.0411328666252
 20
61.04149664877047
 42
0.0945009641609563
 10
409.6105078666253
 20
61.37562164877039
 42
0.0
 10
409.6105078666251
 20
62.16199664877033
 42
-0.2395739894657535
 10
408.2402578666255
 20
62.14849664877023
 42
-0.2502312110031057
 10
407.5652578666248
 20
63.41749664877072
 42
-0.0104343570771765
 10
407.6563828666251
 20
72.88099664877032
 42
0.4051015674140716
 97
        0
 92
        3
 72
     1
 73
     1
 93
        8
 10
405.067757866625
 20
69.51274664877029
 42
-0.0339435190873666
 10
405.0677578666273
 20
69.51274664876468
 42
-0.0001110072973599
 10
404.9260078666256
 20
64.34224664877024
 42
-0.2253076310552528
 10
401.382257866625
 20
61.97637164877051
 42
0.0
 10
400.5148828666247
 20
61.97637164877049
 42
-0.3657967558150132
 10
397.9363828666251
 20
64.7168716487704
 42
0.0
 10
397.9363828666255
 20
65.69562164877043
 42
-0.2530797830369341
 10
399.6778828666252
 20
68.1053716487703
 42
-0.0724473624720066
 97
        0
 75
     0
 76
     1
 98
        1
 10
0.0
 20
0.0
  0
HATCH
  5
AB
330
1F
100
AcDbEntity
  8
0
  6
CONTINUOUS
 62
     3
100
AcDbHatch
 10
0.0
 20
0.0
 30
0.0
210
0.0
220
0.0
230
1.0
  2
SOLID
 70
     1
 71
     1
 91
        1
 92
        3
 72
     1
 73
     1
 93
       30
 10
450.367007866625
 20
76.66774664877062
 42
-0.0009362235736497
 10
450.3670078666251
 20
76.66774664877036
 42
0.0681165430304653
 10
449.5485467433659
 20
74.2141216487704
 42
0.0
 10
446.4655078666254
 20
76.32349664877044
 42
-0.302112590907374
 10
446.4655078666252
 20
76.3234966487704
 42
0.0
 10
443.3571328666252
 20
73.94074664877039
 42
-0.3704245237568778
 10
443.3571328666247
 20
73.94074664877024
 42
0.0
 10
443.5191328666248
 20
72.34774664877037
 42
-0.0262822419456939
 10
445.4361328666254
 20
70.81549664877025
 42
-0.180060563604375
 10
448.4938828666254
 20
69.88399664877045
 42
-0.0298130817160724
 10
448.4938828666252
 20
69.88399664877028
 42
-0.3153987453686078
 10
451.312007866625
 20
66.66087164877041
 42
0.0
 10
451.2951328666253
 20
65.21974664877024
 42
-0.3510306079065168
 10
445.8613828666248
 20
60.66349664877038
 42
0.0
 10
444.275132866625
 20
60.66349664877026
 42
-0.1053356344842436
 10
440.765132866625
 20
61.67599664877039
 42
0.1188608286962634
 10
441.4063828666249
 20
64.24099664877048
 42
0.0
 10
445.2538828666254
 20
61.87849664877042
 42
-0.2447573632916039
 10
445.2538828666249
 20
61.87849664877035
 42
0.0
 10
448.9663828666254
 20
64.47724664877043
 42
-0.3734162676407277
 10
448.9663828666252
 20
64.47724664877029
 42
0.0
 10
447.6197578666252
 20
67.07262164877045
 42
-0.261219770190848
 10
444.477632866625
 20
68.21337164877046
 42
-0.0572747914118363
 10
444.4776328666255
 20
68.21337164877039
 42
-0.1189658875692221
 10
441.9801328666249
 20
69.67812164877043
 42
-0.2005226878639636
 10
440.9338828666247
 20
72.03724664878138
 42
0.0
 10
440.9170078666253
 20
72.93162164877023
 42
-0.2622894489606957
 10
443.6001328666252
 20
77.03224664877047
 42
-0.0988461274137808
 10
446.1111328666252
 20
77.63637164877025
 42
0.0
 10
447.0426328666248
 20
77.63637164877044
 42
-0.0920156312561188
 97
        0
 75
     0
 76
     1
 98
        1
 10
0.0
 20
0.0
  0
ARC
  5
AC
330
1F
100
AcDbEntity
  8
0
  6
CONTINUOUS
 62
     3
100
AcDbCircle
 10
458.9212405344355
 20
72.45097187537482
 30
0.0
 40
9.537090018689154
100
AcDbArc
 50
153.7591918158497
 51
169.3462759801917
  0
LINE
  5
AD
330
1F
100
AcDbEntity
  8
0
  6
CONTINUOUS
 62
     3
100
AcDbLine
 10
449.1216328666249
 20
74.2141216487704
 30
0.0
 11
449.5485467433659
 21
74.2141216487704
 31
0.0
  0
LINE
  5
AE
330
1F
100
AcDbEntity
  8
0
  6
CONTINUOUS
 62
     3
100
AcDbLine
 10
445.9187578666248
 20
76.30999664877038
 30
0.0
 11
446.4655078666252
 21
76.3234966487704
 31
0.0
  0
LINE
  5
AF
330
1F
100
AcDbEntity
  8
0
  6
CONTINUOUS
 62
     3
100
AcDbLine
 10
440.9170078666253
 20
72.93162164877032
 30
0.0
 11
440.9338828666247
 21
72.03724664878138
 31
0.0
  0
LINE
  5
B0
330
1F
100
AcDbEntity
  8
0
  6
CONTINUOUS
 62
     3
100
AcDbLine
 10
443.3571328666247
 20
73.94074664877024
 30
0.0
 11
443.3098828666252
 21
73.05649664877023
 31
0.0
  0
LINE
  5
B1
330
1F
100
AcDbEntity
  8
0
  6
CONTINUOUS
 62
     3
100
AcDbLine
 10
451.312007866625
 20
66.66087164877041
 30
0.0
 11
451.295132866625
 21
65.21974664877035
 31
0.0
  0
LINE
  5
B2
330
1F
100
AcDbEntity
  8
0
  6
CONTINUOUS
 62
     3
100
AcDbLine
 10
448.9326328666252
 20
65.25349664877041
 30
0.0
 11
448.9663828666252
 21
64.47724664877029
 31
0.0
  0
ARC
  5
B3
330
1F
100
AcDbEntity
  8
0
  6
CONTINUOUS
 62
     3
100
AcDbCircle
 10
435.7672065660469
 20
64.28898797825013
 30
0.0
 40
5.63976870039419
100
AcDbArc
 50
332.3987521421788
 51
359.5124385477116
  0
LINE
  5
B4
330
1F
100
AcDbEntity
  8
0
  6
CONTINUOUS
 62
     3
100
AcDbLine
 10
396.5863828666252
 20
73.8597466487704
 30
0.0
 11
397.0251328666254
 21
73.8597466487704
 31
0.0
  0
HATCH
  5
B5
330
1F
100
AcDbEntity
  8
0
  6
CONTINUOUS
 62
     3
100
AcDbHatch
 10
0.0
 20
0.0
 30
0.0
210
0.0
220
0.0
230
1.0
  2
SOLID
 70
     1
 71
     1
 91
        2
 92
        1
 93
        1
 72
     2
 10
434.6427570191676
 20
83.29177334368552
 40
1.786167233384942
 50
0.0
 51
360.0
 73
     1
 97
        0
 92
        3
 72
     1
 73
     1
 93
        3
 10
433.0465078666251
 20
77.34949664877033
 42
0.1200283885712921
 10
436.1515078666251
 20
61.03137164877016
 42
-0.0401820615762149
 10
433.0498828666251
 20
61.02124664877036
 42
-0.0237521668114666
 97
        0
 75
     0
 76
     1
 98
        1
 10
0.0
 20
0.0
  0
HATCH
  5
B6
330
1F
100
AcDbEntity
  8
0
  6
CONTINUOUS
 62
     3
100
AcDbHatch
 10
0.0
 20
0.0
 30
0.0
210
0.0
220
0.0
230
1.0
  2
SOLID
 70
     1
 71
     1
 91
        1
 92
        3
 72
     1
 73
     1
 93
       16
 10
413.434382866625
 20
61.05162164877028
 42
-0.0386228372648426
 10
413.404007866625
 20
77.32249664877033
 42
-0.0398707891902887
 10
416.3571328666248
 20
77.33599664877043
 42
-0.1256886216044368
 10
416.2221328666251
 20
74.57524664877036
 42
-0.0367815758121429
 10
416.2221328666251
 20
74.57524664877025
 42
-0.268021535028829
 10
422.1790078666249
 20
77.66674664877036
 42
-0.2571134422124888
 10
426.252632866625
 20
75.65187164877051
 42
-0.1522526366014298
 10
427.2887578666253
 20
72.30049664877032
 42
-0.0158825412051521
 10
427.2145078666248
 20
61.03474664877032
 42
-0.0285251271418421
 10
424.3626328666252
 20
61.0347466487703
 42
-0.0452212723224612
 10
424.5077578666253
 20
71.44324664877047
 42
-0.0315567291532142
 10
423.6235078666249
 20
74.51787164877044
 42
-0.1476272403790709
 10
417.865757866625
 20
74.95999664877027
 42
-0.3908144705745794
 10
416.2423828666252
 20
70.92012164877023
 42
-0.2046259928850854
 10
416.2423828666252
 20
70.92012164877048
 42
0.0
 10
416.4955078666251
 20
61.02462164877039
 42
-0.0304995761723369
 97
        0
 75
     0
 76
     1
 98
        1
 10
0.0
 20
0.0
  0
HATCH
  5
B7
330
1F
100
AcDbEntity
  8
0
  6
CONTINUOUS
 62
     3
100
AcDbHatch
 10
0.0
 20
0.0
 30
0.0
210
0.0
220
0.0
230
1.0
  2
SOLID
 70
     1
 71
     1
 91
        1
 92
        3
 72
     1
 73
     1
 93
       10
 10
383.8626328666253
 20
61.60849664877028
 42
-0.017362223501556
 10
383.906507866625
 20
88.09212164877052
 42
-0.0267627618865285
 10
383.9065078666252
 20
88.09212164877039
 42
0.0737939047395297
 10
390.3662578666253
 20
88.11912164877
 42
0.0183878899657109
 10
390.1063828666252
 20
64.24099664877026
 42
-0.1144749489451909
 10
389.0601328666248
 20
59.21224664877023
 42
-0.1929163439413163
 10
384.0820078666253
 20
55.30399664877024
 42
-0.0603888289562337
 10
381.4427578666252
 20
54.64587164877031
 42
0.0
 10
380.8251328666251
 20
56.52574664877028
 42
0.0860918333465722
 10
382.6712578666251
 20
57.5078716487703
 42
0.1331843103855141
 97
        0
 75
     0
 76
     1
 98
        1
 10
0.0
 20
0.0
  0
LINE
  5
B8
330
1F
100
AcDbEntity
  8
0
  6
CONTINUOUS
 62
     3
100
AcDbLine
 10
444.275132866625
 20
60.66349664877038
 30
0.0
 11
445.8613828666248
 21
60.66349664877038
 31
0.0
  0
LINE
  5
B9
330
1F
100
AcDbEntity
  8
0
  6
CONTINUOUS
 62
     3
100
AcDbLine
 10
441.8451328666251
 20
64.24099664877048
 30
0.0
 11
441.4063828666249
 21
64.24099664877048
 31
0.0
  0
LINE
  5
BA
330
1F
100
AcDbEntity
  8
0
  6
CONTINUOUS
 62
     3
100
AcDbLine
 10
445.2538828666249
 20
61.87849664877035
 30
0.0
 11
446.0638828666251
 21
61.87849664877035
 31
0.0
  0
LINE
  5
BB
330
1F
100
AcDbEntity
  8
0
  6
CONTINUOUS
 62
     3
100
AcDbLine
 10
447.042632866625
 20
77.63637164877025
 30
0.0
 11
446.1111328666252
 21
77.63637164877025
 31
0.0
  0
ARC
  5
BC
330
1F
100
AcDbEntity
  8
0
  6
CONTINUOUS
 62
     3
100
AcDbCircle
 10
446.2073669563753
 20
73.27146181458346
 30
0.0
 40
3.062932150511265
100
AcDbArc
 50
17.92452211681263
 51
85.16543319077402
  0
ARC
  5
BD
330
1F
100
AcDbEntity
  8
0
  6
CONTINUOUS
 62
     3
100
AcDbCircle
 10
446.0175482430267
 20
73.63374973539607
 30
0.0
 40
2.678069655519655
100
AcDbArc
 50
92.11404364449162
 51
173.4175047026091
  0
ARC
  5
BE
330
1F
100
AcDbEntity
  8
0
  6
CONTINUOUS
 62
     3
100
AcDbCircle
 10
450.1515703666311
 20
74.69115914877221
 30
0.0
 40
7.034259686467
100
AcDbArc
 50
193.4375782160214
 51
199.459638038058
  0
ARC
  5
BF
330
1F
100
AcDbEntity
  8
0
  6
CONTINUOUS
 62
     3
100
AcDbCircle
 10
446.5360676193725
 20
74.15693208833062
 30
0.0
 40
3.51781853668592
100
AcDbArc
 50
210.9501336849607
 51
251.7794729821079
  0
ARC
  5
C0
330
1F
100
AcDbEntity
  8
0
  6
CONTINUOUS
 62
     3
100
AcDbCircle
 10
454.769233484603
 20
95.9679655251756
 30
0.0
 40
26.8282212925834
100
AcDbArc
 50
249.6420733479936
 51
256.4727051201885
  0
ARC
  5
C1
330
1F
100
AcDbEntity
  8
0
  6
CONTINUOUS
 62
     3
100
AcDbCircle
 10
447.6022860645978
 20
66.26086292657874
 30
0.0
 40
3.73122537864803
100
AcDbArc
 50
6.154262763177246
 51
76.17509904255616
  0
ARC
  5
C2
330
1F
100
AcDbEntity
  8
0
  6
CONTINUOUS
 62
     3
100
AcDbCircle
 10
445.733194323378
 20
66.33462335590224
 30
0.0
 40
5.672575290903224
100
AcDbArc
 50
271.2948770866743
 51
348.6654156292868
  0
ARC
  5
C3
330
1F
100
AcDbEntity
  8
0
  6
CONTINUOUS
 62
     3
100
AcDbCircle
 10
444.8965027296387
 20
69.40782884055125
 30
0.0
 40
8.766381578900099
100
AcDbArc
 50
241.8829576087176
 51
265.9354096935781
  0
ARC
  5
C4
330
1F
100
AcDbEntity
  8
0
  6
CONTINUOUS
 62
     3
100
AcDbCircle
 10
445.8180521617433
 20
66.33293198886918
 30
0.0
 40
4.490020177312635
100
AcDbArc
 50
207.7689879465537
 51
262.7817283832026
  0
ARC
  5
C5
330
1F
100
AcDbEntity
  8
0
  6
CONTINUOUS
 62
     3
100
AcDbCircle
 10
446.0178888723257
 20
64.85011818785836
 30
0.0
 40
2.97197745938338
100
AcDbArc
 50
270.8867385422408
 51
352.7925382056677
  0
ARC
  5
C6
330
1F
100
AcDbEntity
  8
0
  6
CONTINUOUS
 62
     3
100
AcDbCircle
 10
446.6540022926833
 20
64.99231127165842
 30
0.0
 40
2.29355076109507
100
AcDbArc
 50
6.53892419415897
 51
65.09756080693691
  0
ARC
  5
C7
330
1F
100
AcDbEntity
  8
0
  6
CONTINUOUS
 62
     3
100
AcDbCircle
 10
441.0857445915215
 20
53.97285708776053
 30
0.0
 40
14.63889206986377
100
AcDbArc
 50
63.49050203733571
 51
76.60259219849584
  0
ARC
  5
C8
330
1F
100
AcDbEntity
  8
0
  6
CONTINUOUS
 62
     3
100
AcDbCircle
 10
446.2634072899752
 20
74.11982055033434
 30
0.0
 40
6.170504753897835
100
AcDbArc
 50
226.0402388947521
 51
253.1776672992999
  0
ARC
  5
C9
330
1F
100
AcDbEntity
  8
0
  6
CONTINUOUS
 62
     3
100
AcDbCircle
 10
444.2799628962999
 20
72.10963845377648
 30
0.0
 40
3.346863029528055
100
AcDbArc
 50
181.2393899443581
 51
226.5942921332421
  0
ARC
  5
CA
330
1F
100
AcDbEntity
  8
0
  6
CONTINUOUS
 62
     3
100
AcDbCircle
 10
445.8981748399808
 20
72.60046455509325
 30
0.0
 40
4.99216280154595
100
AcDbArc
 50
117.4083995939977
 51
176.1964688215695
  0
ARC
  5
CB
330
1F
100
AcDbEntity
  8
0
  6
CONTINUOUS
 62
     3
100
AcDbCircle
 10
446.3855522141952
 20
71.04895489688062
 30
0.0
 40
6.599874326837624
100
AcDbArc
 50
92.38301574576484
 51
114.9635286746436
  0
ARC
  5
CC
330
1F
100
AcDbEntity
  8
0
  6
CONTINUOUS
 62
     3
100
AcDbCircle
 10
446.9271414230283
 20
72.58315191819776
 30
0.0
 40
5.054539337960785
100
AcDbArc
 50
67.66151957087348
 51
88.69073168448988
  0
ARC
  5
CD
330
1F
100
AcDbEntity
  8
0
  6
CONTINUOUS
 62
     3
100
AcDbCircle
 10
607.3222266164074
 20
482.5148716482101
 30
0.0
 40
435.1400114481578
100
AcDbArc
 50
248.6422112053103
 51
248.8567777804232
  0
ARC
  5
CE
330
1F
100
AcDbEntity
  8
0
  6
CONTINUOUS
 62
     3
100
AcDbCircle
 10
322.3450287681933
 20
69.1624896383118
 30
0.0
 40
111.0038042517906
100
AcDbArc
 50
355.7940354718673
 51
4.229650257234378
  0
ARC
  5
CF
330
1F
100
AcDbEntity
  8
0
  6
CONTINUOUS
 62
     3
100
AcDbCircle
 10
537.6270235897786
 20
69.09405028696938
 30
0.0
 40
101.79531952945
100
AcDbArc
 50
175.3387608397566
 51
184.5428594926176
  0
ARC
  5
D0
330
1F
100
AcDbEntity
  8
0
  6
CONTINUOUS
 62
     3
100
AcDbCircle
 10
434.7072044685669
 20
28.39902092061664
 30
0.0
 40
32.66429742625544
100
AcDbArc
 50
87.46575055044718
 51
92.90832285102188
  0
ARC
  5
D1
330
1F
100
AcDbEntity
  8
0
  6
CONTINUOUS
 62
     3
100
AcDbCircle
 10
434.5728038013866
 20
83.76662371790388
 30
0.0
 40
6.596142744201035
100
AcDbArc
 50
256.6209501743446
 51
283.9984576255729
  0
CIRCLE
  5
D2
330
1F
100
AcDbEntity
  8
0
  6
CONTINUOUS
 62
     3
100
AcDbCircle
 10
434.6427570191676
 20
83.29177334368552
 30
0.0
 40
1.786167233384945
  0
LINE
  5
D3
330
1F
100
AcDbEntity
  8
0
  6
CONTINUOUS
 62
     3
100
AcDbLine
 10
416.2423828666252
 20
70.92012164877048
 30
0.0
 11
416.2423828666252
 21
65.52349664877028
 31
0.0
  0
ARC
  5
D4
330
1F
100
AcDbEntity
  8
0
  6
CONTINUOUS
 62
     3
100
AcDbCircle
 10
311.5588494335796
 20
68.99690293358731
 30
0.0
 40
102.1848903065536
100
AcDbArc
 50
355.5405243117485
 51
4.673398698656258
  0
ARC
  5
D5
330
1F
100
AcDbEntity
  8
0
  6
CONTINUOUS
 62
     3
100
AcDbCircle
 10
414.8541424930616
 20
83.1103439907244
 30
0.0
 40
5.966746792730079
100
AcDbArc
 50
255.9341994177206
 51
284.5896440601899
  0
ARC
  5
D6
330
1F
100
AcDbEntity
  8
0
  6
CONTINUOUS
 62
     3
100
AcDbCircle
 10
435.0287363698081
 20
75.03928406915264
 30
0.0
 40
18.8123275022909
100
AcDbArc
 50
172.9875214416311
 51
181.4134392789641
  0
ARC
  5
D7
330
1F
100
AcDbEntity
  8
0
  6
CONTINUOUS
 62
     3
100
AcDbCircle
 10
421.8770534501274
 20
70.96379944093002
 30
0.0
 40
6.709744983286299
100
AcDbArc
 50
87.42068310381028
 51
147.4361518966862
  0
ARC
  5
D8
330
1F
100
AcDbEntity
  8
0
  6
CONTINUOUS
 62
     3
100
AcDbCircle
 10
422.3862028706881
 20
72.96023323989971
 30
0.0
 40
4.7110718777777
100
AcDbArc
 50
34.84393737091607
 51
92.5207065423111
  0
ARC
  5
D9
330
1F
100
AcDbEntity
  8
0
  6
CONTINUOUS
 62
     3
100
AcDbCircle
 10
421.3952757672413
 20
72.31429712257636
 30
0.0
 40
5.89349825730295
100
AcDbArc
 50
359.8658335690532
 51
34.49363429411157
  0
ARC
  5
DA
330
1F
100
AcDbEntity
  8
0
  6
CONTINUOUS
 62
     3
100
AcDbCircle
 10
396.5956800605031
 20
71.16578874060707
 30
0.0
 40
30.71404543933479
100
AcDbArc
 50
358.4775281223095
 51
2.117232414210064
  0
ARC
  5
DB
330
1F
100
AcDbEntity
  8
0
  6
CONTINUOUS
 62
     3
100
AcDbCircle
 10
508.8288168308489
 20
64.95336873695663
 30
0.0
 40
81.70832899269108
100
AcDbArc
 50
176.2131780319488
 51
182.7488833337936
  0
ARC
  5
DC
330
1F
100
AcDbEntity
  8
0
  6
CONTINUOUS
 62
     3
100
AcDbCircle
 10
425.7885703666253
 20
45.30076309613889
 30
0.0
 40
15.79846626063372
100
AcDbArc
 50
84.82155189294139
 51
95.17844810705873
  0
ARC
  5
DD
330
1F
100
AcDbEntity
  8
0
  6
CONTINUOUS
 62
     3
100
AcDbCircle
 10
342.0586689324873
 20
67.38756689412327
 30
0.0
 40
82.5487783334294
100
AcDbArc
 50
355.5862454873798
 51
2.816115806820253
  0
ARC
  5
DE
330
1F
100
AcDbEntity
  8
0
  6
CONTINUOUS
 62
     3
100
AcDbCircle
 10
418.9723702284263
 20
71.51575694107777
 30
0.0
 40
5.53586253872077
100
AcDbArc
 50
359.2495022237244
 51
32.84055016678327
  0
ARC
  5
DF
330
1F
100
AcDbEntity
  8
0
  6
CONTINUOUS
 62
     3
100
AcDbCircle
 10
420.5050072602765
 20
71.61831365693445
 30
0.0
 40
4.258225285235015
100
AcDbArc
 50
42.91644474042847
 51
128.3015542351336
  0
ARC
  5
E0
330
1F
100
AcDbEntity
  8
0
  6
CONTINUOUS
 62
     3
100
AcDbCircle
 10
421.7830861183202
 20
71.0397612569028
 30
0.0
 40
5.541994781590654
100
AcDbArc
 50
134.9787476233347
 51
181.2369872983282
  0
ARC
  5
E1
330
1F
100
AcDbEntity
  8
0
  6
CONTINUOUS
 62
     3
100
AcDbCircle
 10
453.2044289475519
 20
65.45750735049069
 30
0.0
 40
36.97560496557463
100
AcDbArc
 50
179.8977458165987
 51
186.8855675734268
  0
ARC
  5
E2
330
1F
100
AcDbEntity
  8
0
  6
CONTINUOUS
 62
     3
100
AcDbCircle
 10
414.7904390034657
 20
41.25346272558545
 30
0.0
 40
19.84454547209248
100
AcDbArc
 50
85.07099551674689
 51
93.91830029343228
  0
ARC
  5
E3
330
1F
100
AcDbEntity
  8
0
  6
CONTINUOUS
 62
     3
100
AcDbCircle
 10
-11239.50771108867
 20
386.1632622793915
 30
0.0
 40
11648.88000630296
100
AcDbArc
 50
358.4169008257799
 51
358.4423418242109
  0
ARC
  5
E4
330
1F
100
AcDbEntity
  8
0
  6
CONTINUOUS
 62
     3
100
AcDbCircle
 10
400.6622345382962
 20
66.89182447651035
 30
0.0
 40
4.967908019989579
100
AcDbArc
 50
278.3335103000368
 51
329.1221464187299
  0
LINE
  5
E5
330
1F
100
AcDbEntity
  8
0
  6
CONTINUOUS
 62
     3
100
AcDbLine
 10
400.5148828666248
 20
61.97637164877051
 30
0.0
 11
401.382257866625
 21
61.97637164877051
 31
0.0
  0
ARC
  5
E6
330
1F
100
AcDbEntity
  8
0
  6
CONTINUOUS
 62
     3
100
AcDbCircle
 10
400.8479826744369
 20
64.87306900488932
 30
0.0
 40
2.915786524234985
100
AcDbArc
 50
183.0707787095794
 51
263.4402016072427
  0
LINE
  5
E7
330
1F
100
AcDbEntity
  8
0
  6
CONTINUOUS
 62
     3
100
AcDbLine
 10
397.9363828666251
 20
65.69562164877027
 30
0.0
 11
397.9363828666251
 21
64.7168716487704
 31
0.0
  0
ARC
  5
E8
330
1F
100
AcDbEntity
  8
0
  6
CONTINUOUS
 62
     3
100
AcDbCircle
 10
401.0350933418923
 20
65.29037395235918
 30
0.0
 40
3.125097167285265
100
AcDbArc
 50
115.7403688633493
 51
172.5491744442191
  0
ARC
  5
E9
330
1F
100
AcDbEntity
  8
0
  6
CONTINUOUS
 62
     3
100
AcDbCircle
 10
403.7830325878852
 20
59.41594313339891
 30
0.0
 40
9.610328930776038
100
AcDbArc
 50
98.71271710191789
 51
115.2874718053599
  0
ARC
  5
EA
330
1F
100
AcDbEntity
  8
0
  6
CONTINUOUS
 62
     3
100
AcDbCircle
 10
399.3028049676863
 20
89.37506905802536
 30
0.0
 40
20.68203407347008
100
AcDbArc
 50
278.4088456599976
 51
286.1851416003176
  0
ARC
  5
EB
330
1F
100
AcDbEntity
  8
0
  6
CONTINUOUS
 62
     3
100
AcDbCircle
 10
387.0454100061139
 20
109.8708785261113
 30
0.0
 40
22.00379416745233
100
AcDbArc
 50
261.7986203004403
 51
278.6803384946418
  0
ARC
  5
EC
330
1F
100
AcDbEntity
  8
0
  6
CONTINUOUS
 62
     3
100
AcDbCircle
 10
714.7712657067174
 20
72.64801804754228
 30
0.0
 40
324.7737122341802
100
AcDbArc
 50
177.2695926307304
 51
181.4833117237826
  0
ARC
  5
ED
330
1F
100
AcDbEntity
  8
0
  6
CONTINUOUS
 62
     3
100
AcDbCircle
 10
378.7449680895307
 20
63.9815678440047
 30
0.0
 40
11.36437631557155
100
AcDbArc
 50
335.1860595856123
 51
1.308075913059364
  0
ARC
  5
EE
330
1F
100
AcDbEntity
  8
0
  6
CONTINUOUS
 62
     3
100
AcDbCircle
 10
381.6948663942739
 20
63.46917593134151
 30
0.0
 40
8.506973440980575
100
AcDbArc
 50
286.2966123578915
 51
329.973223283839
  0
ARC
  5
EF
330
1F
100
AcDbEntity
  8
0
  6
CONTINUOUS
 62
     3
100
AcDbCircle
 10
380.0477874933327
 20
65.86115764576931
 30
0.0
 40
11.30170705410681
100
AcDbArc
 50
277.0901027239701
 51
290.9134154817058
  0
ARC
  5
F0
330
1F
100
AcDbEntity
  8
0
  6
CONTINUOUS
 62
     3
100
AcDbCircle
 10
378.9173644842722
 20
62.3379929722995
 30
0.0
 40
6.117335001950124
100
AcDbArc
 50
288.1715191042997
 51
307.8537826235693
  0
ARC
  5
F1
330
1F
100
AcDbEntity
  8
0
  6
CONTINUOUS
 62
     3
100
AcDbCircle
 10
380.0463693248011
 20
60.17037592364574
 30
0.0
 40
3.738845927653165
100
AcDbArc
 50
314.592391474832
 51
344.9374073189123
  0
ARC
  5
F2
330
1F
100
AcDbEntity
  8
0
  6
CONTINUOUS
 62
     3
100
AcDbCircle
 10
136.6692760614656
 20
75.25986679194204
 30
0.0
 40
247.5700215199504
100
AcDbArc
 50
356.8390243485978
 51
2.971133813187157
  0
ARC
  5
F3
330
1F
100
AcDbEntity
  8
0
  6
CONTINUOUS
 62
     3
100
AcDbCircle
 10
349.0719782613539
 20
63.3671380961394
 30
0.0
 40
34.83507524900299
100
AcDbArc
 50
353.1274757312911
 51
357.106204490141
  0
LINE
  5
F4
330
1F
100
AcDbEntity
  8
0
  6
CONTINUOUS
 62
     3
100
AcDbLine
 10
396.5863828666252
 20
75.6822466487705
 30
0.0
 11
396.5863828666252
 21
73.8597466487704
 31
0.0
  0
ARC
  5
F5
330
1F
100
AcDbEntity
  8
0
  6
CONTINUOUS
 62
     3
100
AcDbCircle
 10
400.9126808851497
 20
71.64450959289411
 30
0.0
 40
4.474405525883595
100
AcDbArc
 50
103.4267945469744
 51
150.3242613737993
  0
ARC
  5
F6
330
1F
100
AcDbEntity
  8
0
  6
CONTINUOUS
 62
     3
100
AcDbCircle
 10
401.2399547899153
 20
70.96919152565107
 30
0.0
 40
5.209763673321151
100
AcDbArc
 50
77.23143261361693
 51
105.203415964315
  0
ARC
  5
F7
330
1F
100
AcDbEntity
  8
0
  6
CONTINUOUS
 62
     3
100
AcDbCircle
 10
401.4641706408847
 20
72.63709430767108
 30
0.0
 40
3.53673269313001
100
AcDbArc
 50
3.537639967999379
 51
74.8013566619203
  0
ARC
  5
F8
330
1F
100
AcDbEntity
  8
0
  6
CONTINUOUS
 62
     3
100
AcDbCircle
 10
398.5026936783285
 20
71.96149351875619
 30
0.0
 40
6.552718755094605
100
AcDbArc
 50
353.0315250986587
 51
7.839947970678348
  0
ARC
  5
F9
330
1F
100
AcDbEntity
  8
0
  6
CONTINUOUS
 62
     3
100
AcDbCircle
 10
404.1615477836669
 20
71.32556662521438
 30
0.0
 40
0.860294141140655
100
AcDbArc
 50
291.5204897073511
 51
349.3445900274031
  0
ARC
  5
FA
330
1F
100
AcDbEntity
  8
0
  6
CONTINUOUS
 62
     3
100
AcDbCircle
 10
402.1716525055447
 20
75.32036813443739
 30
0.0
 40
5.32056667636392
100
AcDbArc
 50
282.7195832898965
 51
295.6781112778079
  0
ARC
  5
FB
330
1F
100
AcDbEntity
  8
0
  6
CONTINUOUS
 62
     3
100
AcDbCircle
 10
389.4265049992893
 20
132.0601014887606
 30
0.0
 40
63.47412046851909
100
AcDbArc
 50
278.8438342053764
 51
282.6649181367123
  0
ARC
  5
FC
330
1F
100
AcDbEntity
  8
0
  6
CONTINUOUS
 62
     3
100
AcDbCircle
 10
400.5485069337894
 20
62.98042407414357
 30
0.0
 40
6.504683084924599
100
AcDbArc
 50
102.0988446293839
 51
129.1556705448828
  0
ARC
  5
FD
330
1F
100
AcDbEntity
  8
0
  6
CONTINUOUS
 62
     3
100
AcDbCircle
 10
398.6986189515076
 20
65.31831662504004
 30
0.0
 40
3.52397685278961
100
AcDbArc
 50
129.8344892359069
 51
168.4089447024628
  0
ARC
  5
FE
330
1F
100
AcDbEntity
  8
0
  6
CONTINUOUS
 62
     3
100
AcDbCircle
 10
399.4537509284996
 20
64.88793562738721
 30
0.0
 40
4.358546862943345
100
AcDbArc
 50
164.8589457925044
 51
187.8495628504518
  0
ARC
  5
FF
330
1F
100
AcDbEntity
  8
0
  6
CONTINUOUS
 62
     3
100
AcDbCircle
 10
399.0457666457749
 20
64.70075107864318
 30
0.0
 40
3.93096173563145
100
AcDbArc
 50
185.9586126338419
 51
224.0091989319859
  0
ARC
  5
100
330
1F
100
AcDbEntity
  8
0
  6
CONTINUOUS
 62
     3
100
AcDbCircle
 10
399.2281476518443
 20
64.9055552386298
 30
0.0
 40
4.204478288781829
100
AcDbArc
 50
224.289750990011
 51
255.6505938786759
  0
ARC
  5
101
330
1F
100
AcDbEntity
  8
0
  6
CONTINUOUS
 62
     3
100
AcDbCircle
 10
399.1464065368379
 20
63.84817471937055
 30
0.0
 40
3.16511416045893
100
AcDbArc
 50
252.3384873625213
 51
268.8069976857606
  0
LINE
  5
102
330
1F
100
AcDbEntity
  8
0
  6
CONTINUOUS
 62
     3
100
AcDbLine
 10
399.0805078666247
 20
60.68374664877041
 30
0.0
 11
400.4507578666252
 21
60.68374664877041
 31
0.0
  0
ARC
  5
103
330
1F
100
AcDbEntity
  8
0
  6
CONTINUOUS
 62
     3
100
AcDbCircle
 10
399.8306522933504
 20
67.47670131284139
 30
0.0
 40
6.821199600519659
100
AcDbArc
 50
275.2158792069686
 51
319.2336424873511
  0
ARC
  5
104
330
1F
100
AcDbEntity
  8
0
  6
CONTINUOUS
 62
     3
100
AcDbCircle
 10
407.4157780279157
 20
63.32462971328653
 30
0.0
 40
2.43767567004861
100
AcDbArc
 50
187.1167640402297
 51
216.4860549324747
  0
ARC
  5
105
330
1F
100
AcDbEntity
  8
0
  6
CONTINUOUS
 62
     3
100
AcDbCircle
 10
407.146886754073
 20
63.16837282643149
 30
0.0
 40
2.12884775310199
100
AcDbArc
 50
217.4081478714985
 51
264.8118660441384
  0
ARC
  5
106
330
1F
100
AcDbEntity
  8
0
  6
CONTINUOUS
 62
     3
100
AcDbCircle
 10
407.9497945972795
 20
65.32322564115162
 30
0.0
 40
4.28270310010447
100
AcDbArc
 50
271.2220539293239
 51
292.8159509797653
  0
LINE
  5
107
330
1F
100
AcDbEntity
  8
0
  6
CONTINUOUS
 62
     3
100
AcDbLine
 10
406.9543828666249
 20
61.04824664877043
 30
0.0
 11
408.041132866625
 21
61.04824664877043
 31
0.0
  0
LINE
  5
108
330
1F
100
AcDbEntity
  8
0
  6
CONTINUOUS
 62
     3
100
AcDbLine
 10
409.6105078666253
 20
61.37562164877039
 30
0.0
 11
409.6105078666253
 21
62.16199664877024
 31
0.0
  0
ARC
  5
109
330
1F
100
AcDbEntity
  8
0
  6
CONTINUOUS
 62
     3
100
AcDbCircle
 10
408.9121039228982
 20
63.5030594370545
 30
0.0
 40
1.5120242956824
100
AcDbArc
 50
243.6191685566582
 51
297.5097757939563
  0
ARC
  5
10A
330
1F
100
AcDbEntity
  8
0
  6
CONTINUOUS
 62
     3
100
AcDbCircle
 10
409.0911994723021
 20
63.41514643902372
 30
0.0
 40
1.525943415536945
100
AcDbArc
 50
179.9117548191414
 51
236.1065985968857
  0
ARC
  5
10B
330
1F
100
AcDbEntity
  8
0
  6
CONTINUOUS
 62
     3
100
AcDbCircle
 10
634.3250679193548
 20
65.96619219658663
 30
0.0
 40
226.7741327932831
100
AcDbArc
 50
178.2526643324597
 51
180.6439560401927
  0
ARC
  5
10C
330
1F
100
AcDbEntity
  8
0
  6
CONTINUOUS
 62
     3
100
AcDbCircle
 10
402.5353136301393
 20
72.50958129866575
 30
0.0
 40
5.134520375572949
100
AcDbArc
 50
4.148222840814693
 51
92.36000944257292
  0
ARC
  5
10D
330
1F
100
AcDbEntity
  8
0
  6
CONTINUOUS
 62
     3
100
AcDbCircle
 10
402.1342662062764
 20
68.8083644463444
 30
0.0
 40
8.83341757663532
100
AcDbArc
 50
88.77000393305703
 51
128.9068631829044
  0
LINE
  5
10E
330
1F
100
AcDbEntity
  8
0
  6
CONTINUOUS
 62
     6
100
AcDbLine
 10
381.4427578666252
 20
54.64587164877031
 30
0.0
 11
380.8251328666253
 21
56.52574664877022
 31
0.0
  0
TEXT
  5
10F
330
1F
100
AcDbEntity
  8
図枠
  6
CONTINUOUS
 62
     2
100
AcDbText
 10
98.25000000000013
 20
132.375
 30
0.0
 40
21.25
  1
製図
 41
1.509694117647059
  7
EXCADSTD
 72
     5
 11
148.6630000000001
 21
132.375
 31
0.0
100
AcDbText
  0
TEXT
  5
110
330
1F
100
AcDbEntity
  8
図枠
  6
CONTINUOUS
 62
     2
100
AcDbText
 10
175.7500000000001
 20
132.375
 30
0.0
 40
21.25
  1
写図
 41
1.509694117647059
  7
EXCADSTD
 72
     5
 11
226.1630000000001
 21
132.375
 31
0.0
100
AcDbText
  0
TEXT
  5
111
330
1F
100
AcDbEntity
  8
図枠
  6
CONTINUOUS
 62
     2
100
AcDbText
 10
250.7500000000001
 20
132.375
 30
0.0
 40
21.25
  1
検図
 41
1.303826737967914
  7
EXCADSTD
 72
     5
 11
294.2885000000001
 21
132.375
 31
0.0
100
AcDbText
  0
LINE
  5
112
330
1F
100
AcDbEntity
  8
図枠
  6
EXLTYPE2
 62
     6
100
AcDbLine
 10
-3.000000000000114
 20
745.5000000000001
 30
0.0
 11
87.00000000000013
 21
745.5000000000001
 31
0.0
  0
LINE
  5
113
330
1F
100
AcDbEntity
  8
図枠
  6
CONTINUOUS
 62
     7
100
AcDbLine
 10
87.00000000000013
 20
45.50000000000001
 30
0.0
 11
87.00000000000013
 21
1445.5
 31
0.0
  0
LINE
  5
114
330
1F
100
AcDbEntity
  8
図枠
  6
CONTINUOUS
 62
     7
100
AcDbLine
 10
87.00000000000013
 20
1445.5
 30
0.0
 11
997.0
 21
1445.5
 31
0.0
  0
LINE
  5
115
330
1F
100
AcDbEntity
  8
図枠
  6
CONTINUOUS
 62
     7
100
AcDbLine
 10
997.0
 20
45.50000000000001
 30
0.0
 11
997.0
 21
1445.5
 31
0.0
  0
LINE
  5
116
330
1F
100
AcDbEntity
  8
図枠
  6
CONTINUOUS
 62
     7
100
AcDbLine
 10
87.00000000000013
 20
155.5
 30
0.0
 11
997.0
 21
155.5
 31
0.0
  0
LINE
  5
117
330
1F
100
AcDbEntity
  8
図枠
  6
CONTINUOUS
 62
     7
100
AcDbLine
 10
87.00000000000013
 20
45.50000000000001
 30
0.0
 11
997.0
 21
45.50000000000001
 31
0.0
  0
LINE
  5
118
330
1F
100
AcDbEntity
  8
図枠
  6
CONTINUOUS
 62
     6
100
AcDbLine
 10
372.0000000000002
 20
155.5
 30
0.0
 11
372.0000000000002
 21
45.50000000000001
 31
0.0
  0
LINE
  5
119
330
1F
100
AcDbEntity
  8
図枠
  6
CONTINUOUS
 62
     6
100
AcDbLine
 10
242.0000000000001
 20
155.5
 30
0.0
 11
242.0000000000001
 21
45.50000000000001
 31
0.0
  0
LINE
  5
11A
330
1F
100
AcDbEntity
  8
図枠
  6
CONTINUOUS
 62
     6
100
AcDbLine
 10
164.5000000000001
 20
155.5
 30
0.0
 11
164.5000000000001
 21
45.50000000000001
 31
0.0
  0
CIRCLE
  5
11B
330
1F
100
AcDbEntity
  8
図枠
  6
CONTINUOUS
 62
     6
100
AcDbCircle
 10
112.0000000000001
 20
58.00000000000001
 30
0.0
 40
0.5000001
  0
CIRCLE
  5
11C
330
1F
100
AcDbEntity
  8
図枠
  6
CONTINUOUS
 62
     6
100
AcDbCircle
 10
137.0000000000001
 20
58.00000000000001
 30
0.0
 40
0.5000001
  0
CIRCLE
  5
11D
330
1F
100
AcDbEntity
  8
図枠
  6
CONTINUOUS
 62
     6
100
AcDbCircle
 10
189.5000000000001
 20
58.00000000000001
 30
0.0
 40
0.5000001
  0
CIRCLE
  5
11E
330
1F
100
AcDbEntity
  8
図枠
  6
CONTINUOUS
 62
     6
100
AcDbCircle
 10
214.5000000000001
 20
58.00000000000001
 30
0.0
 40
0.5000001
  0
LINE
  5
11F
330
1F
100
AcDbEntity
  8
図枠
  6
CONTINUOUS
 62
     6
100
AcDbLine
 10
307.0000000000001
 20
155.5
 30
0.0
 11
307.0000000000001
 21
45.50000000000001
 31
0.0
  0
LINE
  5
120
330
1F
100
AcDbEntity
  8
図枠
  6
EXLTYPE2
 62
     6
100
AcDbLine
 10
87.00000000000013
 20
70.5
 30
0.0
 11
242.0000000000001
 21
70.5
 31
0.0
  0
LINE
  5
121
330
1F
100
AcDbEntity
  8
図枠
  6
CONTINUOUS
 62
     6
100
AcDbLine
 10
997.0
 20
95.5
 30
0.0
 11
372.0000000000002
 21
95.5
 31
0.0
  0
LINE
  5
122
330
1F
100
AcDbEntity
  8
図枠
  6
CONTINUOUS
 62
     6
100
AcDbLine
 10
927.0
 20
155.5
 30
0.0
 11
927.0
 21
95.5
 31
0.0
  0
LINE
  5
123
330
1F
100
AcDbEntity
  8
図枠
  6
CONTINUOUS
 62
     6
100
AcDbLine
 10
717.0000000000001
 20
155.5
 30
0.0
 11
717.0000000000001
 21
45.50000000000001
 31
0.0
  0
LINE
  5
124
330
1F
100
AcDbEntity
  8
図枠
  6
CONTINUOUS
 62
     6
100
AcDbLine
 10
692.0000000000001
 20
155.5
 30
0.0
 11
692.0000000000001
 21
45.50000000000001
 31
0.0
  0
LINE
  5
125
330
1F
100
AcDbEntity
  8
図枠
  6
CONTINUOUS
 62
     6
100
AcDbLine
 10
943.3269043000001
 20
107.00146485
 30
0.0
 11
981.9969482500001
 21
146.34991455
 31
0.0
  0
LINE
  5
126
330
1F
100
AcDbEntity
  8
図枠
  6
CONTINUOUS
 62
     6
100
AcDbLine
 10
902.0
 20
155.5
 30
0.0
 11
902.0
 21
95.5
 31
0.0
  0
TEXT
  5
127
330
1F
100
AcDbEntity
  8
図枠
  6
CONTINUOUS
 62
     2
100
AcDbText
 10
315.7500000000002
 20
132.375
 30
0.0
 40
21.25
  1
承認
 41
1.303826737967914
  7
EXCADSTD
 72
     5
 11
359.2885000000002
 21
132.375
 31
0.0
100
AcDbText
  0
TEXT
  5
128
330
1F
100
AcDbEntity
  8
図枠
  6
CONTINUOUS
 62
     2
100
AcDbText
 10
942.2685546999998
 20
129.3613891499999
 30
0.0
 40
15.0
  1
１
 41
1.101333333333329
  7
EXCADSTD
 72
     5
 11
954.0685546999997
 21
129.3613891499999
 31
0.0
100
AcDbText
  0
TEXT
  5
129
330
1F
100
AcDbEntity
  8
図枠
  6
CONTINUOUS
 62
     2
100
AcDbText
 10
694.8750000000002
 20
127.375
 30
0.0
 40
21.25
  1
品
 41
1.12
  7
EXCADSTD
 72
     5
 11
711.8750000000002
 21
127.375
 31
0.0
100
AcDbText
  0
TEXT
  5
12A
330
1F
100
AcDbEntity
  8
図枠
  6
CONTINUOUS
 62
     2
100
AcDbText
 10
694.8750000000002
 20
102.375
 30
0.0
 40
21.25
  1
番
 41
1.12
  7
EXCADSTD
 72
     5
 11
711.8750000000002
 21
102.375
 31
0.0
100
AcDbText
  0
TEXT
  5
12B
330
1F
100
AcDbEntity
  8
図枠
  6
CONTINUOUS
 62
     2
100
AcDbText
 10
905.375
 20
127.375
 30
0.0
 40
21.25
  1
尺
 41
1.12
  7
EXCADSTD
 72
     5
 11
922.375
 21
127.375
 31
0.0
100
AcDbText
  0
TEXT
  5
12C
330
1F
100
AcDbEntity
  8
図枠
  6
CONTINUOUS
 62
     2
100
AcDbText
 10
905.375
 20
102.375
 30
0.0
 40
21.25
  1
度
 41
1.12
  7
EXCADSTD
 72
     5
 11
922.375
 21
102.375
 31
0.0
100
AcDbText
  0
TEXT
  5
12D
330
1F
100
AcDbEntity
  8
図枠
  6
CONTINUOUS
 62
     2
100
AcDbText
 10
694.8750000000002
 20
70.875
 30
0.0
 40
21.25
  1
図
 41
1.12
  7
EXCADSTD
 72
     5
 11
711.8750000000002
 21
70.875
 31
0.0
100
AcDbText
  0
TEXT
  5
12E
330
1F
100
AcDbEntity
  8
図枠
  6
CONTINUOUS
 62
     2
100
AcDbText
 10
694.8750000000002
 20
49.375
 30
0.0
 40
21.25
  1
番
 41
1.12
  7
EXCADSTD
 72
     5
 11
711.8750000000002
 21
49.375
 31
0.0
100
AcDbText
  0
LINE
  5
12F
330
1F
100
AcDbEntity
  8
図枠
  6
CONTINUOUS
 62
     6
100
AcDbLine
 10
87.00000000000013
 20
130.5
 30
0.0
 11
372.0000000000002
 21
130.5
 31
0.0
  0
TEXT
  5
130
330
1F
100
AcDbEntity
  8
図枠
  6
CONTINUOUS
 62
     2
100
AcDbText
 10
374.8749999999998
 20
127.3750000000001
 30
0.0
 40
21.25
  1
品
 41
1.12
  7
EXCADSTD
 72
     5
 11
391.8749999999998
 21
127.3750000000001
 31
0.0
100
AcDbText
  0
TEXT
  5
131
330
1F
100
AcDbEntity
  8
図枠
  6
CONTINUOUS
 62
     2
100
AcDbText
 10
374.8749999999998
 20
102.3750000000001
 30
0.0
 40
21.25
  1
名
 41
1.12
  7
EXCADSTD
 72
     5
 11
391.8749999999998
 21
102.3750000000001
 31
0.0
100
AcDbText
  0
LINE
  5
132
330
1F
100
AcDbEntity
  8
図枠
  6
CONTINUOUS
 62
     6
100
AcDbLine
 10
396.9999999999999
 20
155.5000000000001
 30
0.0
 11
396.9999999999999
 21
95.50000000000011
 31
0.0
  0
TEXT
  5
133
330
1F
100
AcDbEntity
  8
図枠
  6
CONTINUOUS
 62
     6
100
AcDbText
 10
98.25000000000148
 20
88.00000000000068
 30
0.0
 40
25.0
  1
岩田
 41
1.28324
  7
EXCADSTD
 72
     5
 11
148.6630000000015
 21
88.00000000000068
 31
0.0
100
AcDbText
  0
TEXT
  5
134
330
1F
100
AcDbEntity
  8
図枠
  6
CONTINUOUS
 62
     6
100
AcDbText
 10
90.17205783773956
 20
50.22503660000007
 30
0.0
 40
15.0
  1
'21
 41
0.5376093902439024
  7
EXCADSTD
 72
     5
 11
105.9163328377396
 21
50.22503660000007
 31
0.0
100
AcDbText
  0
TEXT
  5
135
330
1F
100
AcDbEntity
  8
図枠
  6
CONTINUOUS
 62
     6
100
AcDbText
 10
122.1595580284744
 20
50.22503660000007
 30
0.0
 40
15.0
  1
2
 41
0.4014705882352941
  7
EXCADSTD
 72
     5
 11
127.0345580284744
 21
50.22503660000007
 31
0.0
100
AcDbText
  0
TEXT
  5
136
330
1F
100
AcDbEntity
  8
図枠
  6
CONTINUOUS
 62
     2
100
AcDbText
 10
682.2499999999998
 20
1422.5
 30
0.0
 40
20.0
  1
材質
 41
1.895695454545453
  7
EXCADSTD
 72
     5
 11
741.8289999999997
 21
1422.5
 31
0.0
100
AcDbText
  0
TEXT
  5
137
330
1F
100
AcDbEntity
  8
図枠
  6
CONTINUOUS
 62
     2
100
AcDbText
 10
427.0000000000003
 20
1398.0
 30
0.0
 40
20.0
  1
１
 41
1.12
  7
EXCADSTD
 72
     5
 11
443.0000000000003
 21
1398.0
 31
0.0
100
AcDbText
  0
TEXT
  5
138
330
1F
100
AcDbEntity
  8
図枠
  6
CONTINUOUS
 62
     2
100
AcDbText
 10
427.0000000000003
 20
1373.0
 30
0.0
 40
20.0
  1
２
 41
1.12
  7
EXCADSTD
 72
     5
 11
443.0000000000003
 21
1373.0
 31
0.0
100
AcDbText
  0
TEXT
  5
139
330
1F
100
AcDbEntity
  8
図枠
  6
CONTINUOUS
 62
     2
100
AcDbText
 10
812.0000000000002
 20
1398.0
 30
0.0
 40
20.0
  1
１
 41
1.12
  7
EXCADSTD
 72
     5
 11
828.0000000000002
 21
1398.0
 31
0.0
100
AcDbText
  0
TEXT
  5
13A
330
1F
100
AcDbEntity
  8
図枠
  6
CONTINUOUS
 62
     2
100
AcDbText
 10
417.0000000000003
 20
1423.0
 30
0.0
 40
20.0
  1
番号
 41
1.166581818181818
  7
EXCADSTD
 72
     5
 11
453.6640000000003
 21
1423.0
 31
0.0
100
AcDbText
  0
TEXT
  5
13B
330
1F
100
AcDbEntity
  8
図枠
  6
CONTINUOUS
 62
     2
100
AcDbText
 10
516.5000000000001
 20
1423.0
 30
0.0
 40
20.0
  1
品名
 41
1.895695454545453
  7
EXCADSTD
 72
     5
 11
576.0790000000001
 21
1423.0
 31
0.0
100
AcDbText
  0
TEXT
  5
13C
330
1F
100
AcDbEntity
  8
図枠
  6
CONTINUOUS
 62
     2
100
AcDbText
 10
802.0000000000002
 20
1423.0
 30
0.0
 40
20.0
  1
個数
 41
1.166581818181818
  7
EXCADSTD
 72
     5
 11
838.6640000000002
 21
1423.0
 31
0.0
100
AcDbText
  0
TEXT
  5
13D
330
1F
100
AcDbEntity
  8
図枠
  6
CONTINUOUS
 62
     2
100
AcDbText
 10
889.5000000000002
 20
1423.0
 30
0.0
 40
20.0
  1
備考
 41
1.895695454545453
  7
EXCADSTD
 72
     5
 11
949.0790000000002
 21
1423.0
 31
0.0
100
AcDbText
  0
LINE
  5
13E
330
1F
100
AcDbEntity
  8
図枠
  6
CONTINUOUS
 62
     6
100
AcDbLine
 10
409.5000000000003
 20
1420.5
 30
0.0
 11
997.0000000000002
 21
1420.5
 31
0.0
  0
LINE
  5
13F
330
1F
100
AcDbEntity
  8
図枠
  6
CONTINUOUS
 62
     6
100
AcDbLine
 10
409.5000000000003
 20
1395.5
 30
0.0
 11
997.0000000000002
 21
1395.5
 31
0.0
  0
LINE
  5
140
330
1F
100
AcDbEntity
  8
図枠
  6
CONTINUOUS
 62
     6
100
AcDbLine
 10
409.5000000000003
 20
1370.5
 30
0.0
 11
997.0000000000002
 21
1370.5
 31
0.0
  0
LINE
  5
141
330
1F
100
AcDbEntity
  8
図枠
  6
CONTINUOUS
 62
     6
100
AcDbLine
 10
632.5000000000003
 20
1445.5
 30
0.0
 11
632.5000000000003
 21
1370.5
 31
0.0
  0
LINE
  5
142
330
1F
100
AcDbEntity
  8
図枠
  6
CONTINUOUS
 62
     6
100
AcDbLine
 10
796.9999999999997
 20
1370.5
 30
0.0
 11
796.9999999999997
 21
1445.5
 31
0.0
  0
LINE
  5
143
330
1F
100
AcDbEntity
  8
図枠
  6
CONTINUOUS
 62
     6
100
AcDbLine
 10
847.0000000000002
 20
1445.5
 30
0.0
 11
847.0000000000002
 21
1370.5
 31
0.0
  0
LINE
  5
144
330
1F
100
AcDbEntity
  8
図枠
  6
CONTINUOUS
 62
     6
100
AcDbLine
 10
460.5000000000002
 20
1445.5
 30
0.0
 11
460.5000000000002
 21
1370.5
 31
0.0
  0
LINE
  5
145
330
1F
100
AcDbEntity
  8
図枠
  6
CONTINUOUS
 62
     6
100
AcDbLine
 10
409.5000000000002
 20
1445.5
 30
0.0
 11
409.5000000000002
 21
1370.5
 31
0.0
  0
TEXT
  5
146
330
1F
100
AcDbEntity
  8
図枠
  6
CONTINUOUS
 62
     2
100
AcDbText
 10
467.0000000000003
 20
1398.0
 30
0.0
 40
20.0
  1
本体
 41
1.093670454545455
  7
EXCADSTD
 72
     5
 11
501.3725000000003
 21
1398.0
 31
0.0
100
AcDbText
  0
TEXT
  5
147
330
1F
100
AcDbEntity
  8
図枠
  6
CONTINUOUS
 62
     6
100
AcDbText
 10
147.9470579271466
 20
50.22503660000007
 30
0.0
 40
15.0
  1
7
 41
0.4014705882352941
  7
EXCADSTD
 72
     5
 11
152.8220579271466
 21
50.22503660000007
 31
0.0
100
AcDbText
  0
TEXT
  5
148
330
1F
100
AcDbEntity
  8
図枠
  6
CONTINUOUS
 62
     2
100
AcDbText
 10
634.9999999999998
 20
1398.0
 30
0.0
 40
20.0
  1
鉄
 41
1.12
  7
EXCADSTD
 72
     5
 11
650.9999999999998
 21
1398.0
 31
0.0
100
AcDbText
  0
TEXT
  5
149
330
1F
100
AcDbEntity
  8
図枠
  6
CONTINUOUS
 62
     2
100
AcDbText
 10
634.9999999999998
 20
1373.0
 30
0.0
 40
20.0
  1
鉄
 41
1.12
  7
EXCADSTD
 72
     5
 11
650.9999999999998
 21
1373.0
 31
0.0
100
AcDbText
  0
TEXT
  5
14A
330
1F
100
AcDbEntity
  8
図枠
  6
CONTINUOUS
 62
     2
100
AcDbText
 10
849.4999999999999
 20
1398.0
 30
0.0
 40
20.0
  1
サンドブラック塗装
 41
0.9245283018867926
  7
EXCADSTD
 72
     5
 11
989.4999999999999
 21
1398.0
 31
0.0
100
AcDbText
  0
TEXT
  5
14B
330
1F
100
AcDbEntity
  8
図枠
  6
CONTINUOUS
 62
     2
100
AcDbText
 10
812.0000000000002
 20
1373.0
 30
0.0
 40
20.0
  1
４
 41
1.12
  7
EXCADSTD
 72
     5
 11
828.0000000000002
 21
1373.0
 31
0.0
100
AcDbText
  0
TEXT
  5
14C
330
1F
100
AcDbEntity
  8
図枠
  6
CONTINUOUS
 62
     2
100
AcDbText
 10
962.6396484499998
 20
107.1744232000001
 30
0.0
 40
15.0
  1
５
 41
1.101333333333329
  7
EXCADSTD
 72
     5
 11
974.4396484499997
 21
107.1744232000001
 31
0.0
100
AcDbText
  0
TEXT
  5
14D
330
1F
100
AcDbEntity
  8
図枠
  6
CONTINUOUS
 62
     7
100
AcDbText
 10
779.125
 20
55.875
 30
0.0
 40
30.0
  1
９９１１００
 41
1.033333333333333
  7
EXCADSTD
 72
     5
 11
934.125
 21
55.875
 31
0.0
100
AcDbText
  0
TEXT
  5
14E
330
1F
100
AcDbEntity
  8
図枠
  6
CONTINUOUS
 62
     2
100
AcDbText
 10
467.0000000000002
 20
1373.0
 30
0.0
 40
20.0
  1
皿タッピンねじ
 41
1.067073170731707
  7
EXCADSTD
 72
     5
 11
592.0000000000002
 21
1373.0
 31
0.0
100
AcDbText
  0
TEXT
  5
14F
330
1F
100
AcDbEntity
  8
図枠
  6
CONTINUOUS
 62
     2
100
AcDbText
 10
853.5000000000005
 20
1373.0
 30
0.0
 40
20.0
  1
５×４０
 41
0.9891304347826085
  7
EXCADSTD
 72
     5
 11
918.5000000000005
 21
1373.0
 31
0.0
100
AcDbText
  0
TEXT
  5
150
330
1F
100
AcDbEntity
  8
図枠
  6
CONTINUOUS
 62
     2
100
AcDbText
 10
732.749995708468
 20
112.9999999999989
 30
0.0
 40
25.0
  1
Ｗ－ＹＯＲ２０７０
 41
0.8109433962264152
  7
EXCADSTD
 72
     5
 11
886.249995708468
 21
112.9999999999989
 31
0.0
100
AcDbText
  0
TEXT
  5
151
330
1F
100
AcDbEntity
  8
図枠
  6
CONTINUOUS
 62
     2
100
AcDbText
 10
401.8054198999998
 20
113.1356659
 30
0.0
 40
25.0
  1
ヨーク　ペーパーホルダーＡ２連
 41
0.8808987863947838
  7
EXCADSTD
 72
     5
 11
681.8053912897703
 21
113.1356659
 31
0.0
100
AcDbText
  0
CIRCLE
  5
152
330
1F
100
AcDbEntity
  8
図
  6
CONTINUOUS
 62
     3
100
AcDbCircle
 10
601.898605059095
 20
868.1512610038953
 30
0.0
 40
17.5
  0
TEXT
  5
153
330
1F
100
AcDbEntity
  8
図
  6
CONTINUOUS
 62
     2
100
AcDbText
 10
590.2242361530739
 20
855.7768923362928
 30
0.0
 40
24.74873733520508
  1
1
 41
1.240909090909087
  7
EXCADSTD
 72
     5
 11
606.3109154209571
 21
855.7768923362928
 31
0.0
100
AcDbText
  0
LEADER
  5
154
330
1F
100
AcDbEntity
  8
図
  6
CONTINUOUS
 62
     3
100
AcDbLeader
  3
ISO-25
 76
     2
 10
523.49999999999
 20
898.344173027295
 30
0.0
 10
585.5678224906524
 20
874.4405805777644
 30
0.0
1001
ACAD
1000
DSTYLE
1002
{
1070
     5
1000
EX_NORM
1070
    41
1040
15.0
1070
   341
1005
4C
1002
}
  0
CIRCLE
  5
155
330
1F
100
AcDbEntity
  8
図
  6
CONTINUOUS
 62
     3
100
AcDbCircle
 10
597.8565162691976
 20
1011.499999999959
 30
0.0
 40
17.5
  0
TEXT
  5
156
330
1F
100
AcDbEntity
  8
図
  6
CONTINUOUS
 62
     2
100
AcDbText
 10
586.1821473631766
 20
999.1256313323566
 30
0.0
 40
24.74873733520508
  1
2
 41
0.8029411764705858
  7
EXCADSTD
 72
     5
 11
602.2688266310598
 21
999.1256313323566
 31
0.0
100
AcDbText
  0
LEADER
  5
157
330
1F
100
AcDbEntity
  8
図
  6
CONTINUOUS
 62
     3
100
AcDbLeader
  3
ISO-25
 76
     2
 10
483.027980344462
 20
991.6498660629892
 30
0.0
 10
580.6122762147307
 20
1008.519029529807
 30
0.0
1001
ACAD
1000
DSTYLE
1002
{
1070
     5
1000
EX_NORM
1070
    41
1040
15.0
1070
   341
1005
4C
1002
}
  0
DIMENSION
  5
159
330
1F
100
AcDbEntity
  8
図
  6
CONTINUOUS
 62
     3
100
AcDbDimension
  2
*D15
 10
820.8000000000002
 20
562.5
 30
0.0
 11
855.8000000000004
 21
574.2499999701977
 31
0.0
 70
   160
  3
ISO-25
100
AcDbAlignedDimension
 13
817.5
 23
505.8857040441001
 33
0.0
 14
820.8000000000002
 24
505.8857040441001
 34
0.0
100
AcDbRotatedDimension
1001
ACAD
1000
DSTYLE
1002
{
1070
   270
1070
     2
1070
     6
1000
EX_NORM
1070
     7
1000
EX_NORM
1070
    41
1040
15.0
1070
    42
1040
3.499999940395355
1070
    44
1040
5.0
1070
    73
1070
     0
1070
    74
1070
     0
1070
    75
1070
     0
1070
    76
1070
     1
1070
    77
1070
     1
1070
    78
1070
     0
1070
   140
1040
20.0
1070
   147
1040
0.0
1070
   173
1070
     1
1070
   176
1070
     3
1070
   177
1070
     3
1070
   178
1070
     2
1070
   271
1070
     1
1070
   277
1070
     2
1070
   279
1070
     2
1070
   280
1070
     2
1070
   287
1070
     5
1070
   340
1005
158
1002
}
  0
ARC
  5
168
330
1F
100
AcDbEntity
  8
図
  6
EXLTYPE1
 62
     6
100
AcDbCircle
 10
804.05
 20
501.6357040441101
 30
0.0
 40
5.449999999992798
100
AcDbArc
 50
204.7344340265311
 51
335.2655659734598
  0
ARC
  5
169
330
1F
100
AcDbEntity
  8
図
  6
CONTINUOUS
 62
     6
100
AcDbCircle
 10
804.05
 20
501.6357040441101
 30
0.0
 40
5.449999999992798
100
AcDbArc
 50
335.2655659734598
 51
204.7344340265284
  0
LINE
  5
16A
330
1F
100
AcDbEntity
  8
図
  6
CONTINUOUS
 62
     2
100
AcDbLine
 10
801.7777172506217
 20
485.2313577686482
 30
0.0
 11
817.5
 21
476.9857040441102
 31
0.0
  0
LINE
  5
16B
330
1F
100
AcDbEntity
  8
図
  6
CONTINUOUS
 62
     2
100
AcDbLine
 10
799.0999999999995
 20
489.6593373115033
 30
0.0
 11
799.0999999999995
 21
501.6357040441088
 31
0.0
  0
LINE
  5
16C
330
1F
100
AcDbEntity
  8
図
  6
EXLTYPE3
 62
     6
100
AcDbLine
 10
804.05
 20
494.5321720252501
 30
0.0
 11
804.05
 21
511.2571720252502
 31
0.0
  0
LINE
  5
16D
330
1F
100
AcDbEntity
  8
図
  6
EXLTYPE3
 62
     6
100
AcDbLine
 10
811.48593794425
 20
501.6357040441101
 30
0.0
 11
796.3859379442499
 21
501.6357040441101
 31
0.0
  0
LINE
  5
16E
330
1F
100
AcDbEntity
  8
図
  6
CONTINUOUS
 62
     2
100
AcDbLine
 10
817.5000000000002
 20
495.385704044116
 30
0.0
 11
809.0
 21
495.385704044116
 31
0.0
  0
ARC
  5
16F
330
1F
100
AcDbEntity
  8
図
  6
CONTINUOUS
 62
     2
100
AcDbCircle
 10
804.0999999999995
 20
489.6593373115033
 30
0.0
 40
5.0
100
AcDbArc
 50
180.0
 51
242.3249434391275
  0
ARC
  5
170
330
1F
100
AcDbEntity
  8
図
  6
CONTINUOUS
 62
     2
100
AcDbCircle
 10
804.0499999999997
 20
501.6357040441088
 30
0.0
 40
4.949999999996408
100
AcDbArc
 50
0.0
 51
180.0
  0
LINE
  5
171
330
1F
100
AcDbEntity
  8
図
  6
CONTINUOUS
 62
     2
100
AcDbLine
 10
809.0
 20
495.3857040441201
 30
0.0
 11
809.0
 21
501.6357040441101
 31
0.0
  0
TEXT
  5
172
330
1F
100
AcDbEntity
  8
図
  6
CONTINUOUS
 62
     2
100
AcDbText
 10
820.1754019687417
 20
658.3520283369569
 30
0.0
 40
20.0
  1
Ｗ.Ｌ
 50
90.0
 41
0.9767441860465117
  7
EXCADSTD
 72
     5
 11
820.1754019687417
 21
698.3520283369569
 31
0.0
100
AcDbText
  0
LINE
  5
173
330
1F
100
AcDbEntity
  8
図
  6
EXLTYPE2
 62
     2
100
AcDbLine
 10
477.2021528610402
 20
978.0000000000002
 30
0.0
 11
477.2021528610402
 21
976.0000000000002
 31
0.0
  0
LINE
  5
174
330
1F
100
AcDbEntity
  8
図
  6
CONTINUOUS
 62
     6
100
AcDbLine
 10
482.1135320188634
 20
978.000000000002
 30
0.0
 11
482.1135320188634
 21
1009.81908606594
 31
0.0
  0
LINE
  5
175
330
1F
100
AcDbEntity
  8
図
  6
CONTINUOUS
 62
     6
100
AcDbLine
 10
481.8729450460157
 20
1010.77012013467
 30
0.0
 11
480.1135320188633
 21
1014.025034234902
 31
0.0
  0
LINE
  5
176
330
1F
100
AcDbEntity
  8
図
  6
CONTINUOUS
 62
     6
100
AcDbLine
 10
478.1135320188633
 20
978.000000000002
 30
0.0
 11
478.1135320188633
 21
1009.81908606594
 31
0.0
  0
LINE
  5
177
330
1F
100
AcDbEntity
  8
図
  6
CONTINUOUS
 62
     6
100
AcDbLine
 10
478.3541189917111
 20
1010.77012013467
 30
0.0
 11
480.1135320188633
 21
1014.025034234902
 31
0.0
  0
ARC
  5
178
330
1F
100
AcDbEntity
  8
図
  6
CONTINUOUS
 62
     6
100
AcDbCircle
 10
480.1135320188633
 20
1009.81908606594
 30
0.0
 40
2.0
100
AcDbArc
 50
0.0000000000001719
 51
28.3930194213758
  0
ARC
  5
179
330
1F
100
AcDbEntity
  8
図
  6
CONTINUOUS
 62
     6
100
AcDbCircle
 10
480.1135320188633
 20
1009.81908606594
 30
0.0
 40
2.0
100
AcDbArc
 50
151.6069805786228
 51
180.0
  0
LINE
  5
17A
330
1F
100
AcDbEntity
  8
図
  6
CONTINUOUS
 62
     2
100
AcDbLine
 10
482.9500000000002
 20
978.0000000000002
 30
0.0
 11
482.9500000000002
 21
975.9970134871802
 31
0.0
  0
LINE
  5
17B
330
1F
100
AcDbEntity
  8
図
  6
CONTINUOUS
 62
     2
100
AcDbLine
 10
477.2021528610402
 20
976.0000000000002
 30
0.0
 11
474.6000000000001
 21
974.7000000000003
 31
0.0
  0
LINE
  5
17C
330
1F
100
AcDbEntity
  8
図
  6
CONTINUOUS
 62
     2
100
AcDbLine
 10
482.9500000000002
 20
975.9970134871802
 30
0.0
 11
485.6
 21
974.7000000000003
 31
0.0
  0
LINE
  5
17D
330
1F
100
AcDbEntity
  8
図
  6
CONTINUOUS
 62
     2
100
AcDbLine
 10
487.1000000000001
 20
974.7000000000003
 30
0.0
 11
487.1000000000001
 21
978.0000000000002
 31
0.0
  0
LINE
  5
17E
330
1F
100
AcDbEntity
  8
図
  6
EXLTYPE3
 62
     6
100
AcDbLine
 10
480.1
 20
972.7000000000004
 30
0.0
 11
480.1
 21
1021.75
 31
0.0
  0
TEXT
  5
17F
330
1F
100
AcDbEntity
  8
図
  6
CONTINUOUS
 62
     2
100
AcDbText
 10
635.622361187347
 20
955.5248904003586
 30
0.0
 40
20.0
  1
Ｗ.Ｌ
 41
0.9767441860465117
  7
EXCADSTD
 72
     5
 11
675.622361187347
 21
955.5248904003586
 31
0.0
100
AcDbText
  0
LINE
  5
180
330
1F
100
AcDbEntity
  8
図
  6
EXLTYPE2
 62
     2
100
AcDbLine
 10
281.9978471389601
 20
978.0000000000002
 30
0.0
 11
281.9978471389601
 21
976.0000000000002
 31
0.0
  0
LINE
  5
181
330
1F
100
AcDbEntity
  8
図
  6
CONTINUOUS
 62
     6
100
AcDbLine
 10
277.0864679811369
 20
978.000000000002
 30
0.0
 11
277.0864679811369
 21
1009.81908606594
 31
0.0
  0
LINE
  5
182
330
1F
100
AcDbEntity
  8
図
  6
CONTINUOUS
 62
     6
100
AcDbLine
 10
277.3270549539847
 20
1010.77012013467
 30
0.0
 11
279.0864679811369
 21
1014.025034234902
 31
0.0
  0
LINE
  5
183
330
1F
100
AcDbEntity
  8
図
  6
CONTINUOUS
 62
     6
100
AcDbLine
 10
281.086467981137
 20
978.000000000002
 30
0.0
 11
281.086467981137
 21
1009.81908606594
 31
0.0
  0
LINE
  5
184
330
1F
100
AcDbEntity
  8
図
  6
CONTINUOUS
 62
     6
100
AcDbLine
 10
280.8458810082893
 20
1010.77012013467
 30
0.0
 11
279.0864679811369
 21
1014.025034234902
 31
0.0
  0
ARC
  5
185
330
1F
100
AcDbEntity
  8
図
  6
CONTINUOUS
 62
     6
100
AcDbCircle
 10
279.0864679811369
 20
1009.81908606594
 30
0.0
 40
2.0
100
AcDbArc
 50
151.6069805786258
 51
180.0
  0
ARC
  5
186
330
1F
100
AcDbEntity
  8
図
  6
CONTINUOUS
 62
     6
100
AcDbCircle
 10
279.0864679811369
 20
1009.81908606594
 30
0.0
 40
2.0
100
AcDbArc
 50
0.0
 51
28.39301942137798
  0
LINE
  5
187
330
1F
100
AcDbEntity
  8
図
  6
CONTINUOUS
 62
     2
100
AcDbLine
 10
276.2500000000002
 20
978.0000000000002
 30
0.0
 11
276.2500000000002
 21
975.9970134871802
 31
0.0
  0
LINE
  5
188
330
1F
100
AcDbEntity
  8
図
  6
CONTINUOUS
 62
     2
100
AcDbLine
 10
281.9978471389601
 20
976.0000000000002
 30
0.0
 11
284.6000000000003
 21
974.7000000000003
 31
0.0
  0
LINE
  5
189
330
1F
100
AcDbEntity
  8
図
  6
CONTINUOUS
 62
     2
100
AcDbLine
 10
276.2500000000002
 20
975.9970134871802
 30
0.0
 11
273.6000000000003
 21
974.7000000000003
 31
0.0
  0
LINE
  5
18A
330
1F
100
AcDbEntity
  8
図
  6
CONTINUOUS
 62
     2
100
AcDbLine
 10
272.1000000000003
 20
974.7000000000003
 30
0.0
 11
272.1000000000003
 21
978.0000000000002
 31
0.0
  0
LINE
  5
18B
330
1F
100
AcDbEntity
  8
図
  6
EXLTYPE3
 62
     6
100
AcDbLine
 10
279.1000000000003
 20
973.4000000000003
 30
0.0
 11
279.1000000000003
 21
1021.75
 31
0.0
  0
LINE
  5
18C
330
1F
100
AcDbEntity
  8
図
  6
EXLTYPE1
 62
     2
100
AcDbLine
 10
514.0134592473604
 20
909.0000000000001
 30
0.0
 11
245.0
 21
909.0000000000001
 31
0.0
  0
LINE
  5
18D
330
1F
100
AcDbEntity
  8
図
  6
EXLTYPE1
 62
     2
100
AcDbLine
 10
514.0134592473604
 20
918.2000000000005
 30
0.0
 11
245.18654075261
 21
918.2000000000005
 31
0.0
  0
LINE
  5
18E
330
1F
100
AcDbEntity
  8
図
  6
EXLTYPE1
 62
     2
100
AcDbLine
 10
389.5999999999851
 20
918.2000000000005
 30
0.0
 11
389.5999999999851
 21
963.21665016499
 31
0.0
  0
LINE
  5
18F
330
1F
100
AcDbEntity
  8
図
  6
EXLTYPE3
 62
     6
100
AcDbLine
 10
379.5999999999855
 20
988.5
 30
0.0
 11
379.5999999999855
 21
891.0
 31
0.0
  0
LINE
  5
190
330
1F
100
AcDbEntity
  8
図
  6
EXLTYPE3
 62
     6
100
AcDbLine
 10
515.52352974806
 20
913.6000000000001
 30
0.0
 11
242.25
 21
913.6000000000001
 31
0.0
  0
LINE
  5
191
330
1F
100
AcDbEntity
  8
図
  6
EXLTYPE2
 62
     2
100
AcDbLine
 10
471.09999999999
 20
964.8000000000002
 30
0.0
 11
471.09999999999
 21
956.3000000000003
 31
0.0
  0
LINE
  5
192
330
1F
100
AcDbEntity
  8
図
  6
EXLTYPE2
 62
     2
100
AcDbLine
 10
471.09999999999
 20
956.3000000000003
 30
0.0
 11
468.59999999999
 21
956.3000000000003
 31
0.0
  0
ARC
  5
193
330
1F
100
AcDbEntity
  8
図
  6
CONTINUOUS
 62
     2
100
AcDbCircle
 10
398.49999999999
 20
954.8000000000003
 30
0.0
 40
10.0
100
AcDbArc
 50
90.00000000000001
 51
180.0
  0
ARC
  5
194
330
1F
100
AcDbEntity
  8
図
  6
CONTINUOUS
 62
     2
100
AcDbCircle
 10
513.4999999999901
 20
954.8000000000003
 30
0.0
 40
10.0
100
AcDbArc
 50
0.0
 51
90.00000000000001
  0
LINE
  5
195
330
1F
100
AcDbEntity
  8
図
  6
CONTINUOUS
 62
     6
100
AcDbLine
 10
471.09999999999
 20
966.2000000000002
 30
0.0
 11
473.0999999999902
 21
966.2000000000002
 31
0.0
  0
ARC
  5
196
330
1F
100
AcDbEntity
  8
図
  6
CONTINUOUS
 62
     6
100
AcDbCircle
 10
473.0999999999902
 20
964.2000000000002
 30
0.0
 40
2.0
100
AcDbArc
 50
17.45760312376034
 51
90.00000000000001
  0
LINE
  5
197
330
1F
100
AcDbEntity
  8
図
  6
EXLTYPE2
 62
     6
100
AcDbLine
 10
475.0999999999902
 20
958.2000000000003
 30
0.0
 11
475.0999999999902
 21
964.2000000000002
 31
0.0
  0
ARC
  5
198
330
1F
100
AcDbEntity
  8
図
  6
EXLTYPE2
 62
     6
100
AcDbCircle
 10
473.0999999999902
 20
958.2000000000003
 30
0.0
 40
2.0
100
AcDbArc
 50
270.0
 51
0.0
  0
LINE
  5
199
330
1F
100
AcDbEntity
  8
図
  6
EXLTYPE2
 62
     6
100
AcDbLine
 10
471.0999999999898
 20
956.2000000000003
 30
0.0
 11
473.1849999999901
 21
956.2000000000003
 31
0.0
  0
ARC
  5
19A
330
1F
100
AcDbEntity
  8
図
  6
EXLTYPE2
 62
     6
100
AcDbCircle
 10
473.0999999999902
 20
964.2000000000002
 30
0.0
 40
2.0
100
AcDbArc
 50
0.0
 51
17.45760312372636
  0
CIRCLE
  5
19B
330
1F
100
AcDbEntity
  8
図
  6
CONTINUOUS
 62
     2
100
AcDbCircle
 10
544.07748292672
 20
908.3613234095083
 30
0.0
 40
4.600000000000026
  0
LINE
  5
19C
330
1F
100
AcDbEntity
  8
図
  6
CONTINUOUS
 62
     2
100
AcDbLine
 10
545.0189625732501
 20
912.8639466532601
 30
0.0
 11
523.2499999999906
 21
917.4157454779231
 31
0.0
  0
LINE
  5
19D
330
1F
100
AcDbEntity
  8
図
  6
CONTINUOUS
 62
     2
100
AcDbLine
 10
523.2499999999899
 20
908.0167800950795
 30
0.0
 11
543.1360032801894
 21
903.8587001657563
 31
0.0
  0
LINE
  5
19E
330
1F
100
AcDbEntity
  8
図
  6
EXLTYPE3
 62
     6
100
AcDbLine
 10
519.0235297480501
 20
913.6000000000004
 30
0.0
 11
549.5174540494879
 21
907.2238482505757
 31
0.0
  0
LINE
  5
19F
330
1F
100
AcDbEntity
  8
図
  6
EXLTYPE1
 62
     2
100
AcDbLine
 10
523.24999999999
 20
917.4157454779231
 30
0.0
 11
521.4431134241732
 21
917.7935578869631
 31
0.0
  0
ARC
  5
1A0
330
1F
100
AcDbEntity
  8
図
  6
CONTINUOUS
 62
     2
100
AcDbCircle
 10
517.5134592473504
 20
899.0000000000001
 30
0.0
 40
19.2
100
AcDbArc
 50
78.18984809840715
 51
90.00000000000001
  0
LINE
  5
1A1
330
1F
100
AcDbEntity
  8
図
  6
EXLTYPE1
 62
     2
100
AcDbLine
 10
519.5601541311117
 20
908.7883113994594
 30
0.0
 11
523.24999999999
 21
908.0167800950795
 31
0.0
  0
ARC
  5
1A2
330
1F
100
AcDbEntity
  8
図
  6
EXLTYPE1
 62
     2
100
AcDbCircle
 10
517.5134592473504
 20
899.0000000000001
 30
0.0
 40
10.0
100
AcDbArc
 50
78.18984809840715
 51
90.00000000000001
  0
LINE
  5
1A3
330
1F
100
AcDbEntity
  8
図
  6
CONTINUOUS
 62
     2
100
AcDbLine
 10
471.09999999999
 20
964.8000000000002
 30
0.0
 11
471.09999999999
 21
974.7000000000003
 31
0.0
  0
CIRCLE
  5
1A4
330
1F
100
AcDbEntity
  8
図
  6
CONTINUOUS
 62
     2
100
AcDbCircle
 10
215.1225170732713
 20
908.3613234095083
 30
0.0
 40
4.600000000000026
  0
LINE
  5
1A5
330
1F
100
AcDbEntity
  8
図
  6
CONTINUOUS
 62
     2
100
AcDbLine
 10
214.1810374267412
 20
912.8639466532601
 30
0.0
 11
235.9500000000007
 21
917.4157454779231
 31
0.0
  0
LINE
  5
1A6
330
1F
100
AcDbEntity
  8
図
  6
CONTINUOUS
 62
     2
100
AcDbLine
 10
235.9500000000014
 20
908.0167800950795
 30
0.0
 11
216.0639967198019
 21
903.8587001657563
 31
0.0
  0
ARC
  5
1A7
330
1F
100
AcDbEntity
  8
図
  6
CONTINUOUS
 62
     2
100
AcDbCircle
 10
360.7000000000012
 20
954.8000000000003
 30
0.0
 40
10.0
100
AcDbArc
 50
0.0
 51
90.00000000000001
  0
ARC
  5
1A8
330
1F
100
AcDbEntity
  8
図
  6
CONTINUOUS
 62
     2
100
AcDbCircle
 10
245.7000000000012
 20
954.8000000000003
 30
0.0
 40
10.0
100
AcDbArc
 50
90.00000000000001
 51
180.0
  0
LINE
  5
1A9
330
1F
100
AcDbEntity
  8
図
  6
CONTINUOUS
 62
     2
100
AcDbLine
 10
245.7000000000012
 20
964.8000000000003
 30
0.0
 11
360.7000000000012
 21
964.8000000000003
 31
0.0
  0
LINE
  5
1AA
330
1F
100
AcDbEntity
  8
図
  6
EXLTYPE1
 62
     2
100
AcDbLine
 10
239.6398458688795
 20
908.7883113994594
 30
0.0
 11
235.9500000000013
 21
908.0167800950795
 31
0.0
  0
ARC
  5
1AB
330
1F
100
AcDbEntity
  8
図
  6
CONTINUOUS
 62
     2
100
AcDbCircle
 10
241.6865407526409
 20
899.0000000000001
 30
0.0
 40
19.2
100
AcDbArc
 50
90.00000000000001
 51
101.810151901593
  0
LINE
  5
1AC
330
1F
100
AcDbEntity
  8
図
  6
EXLTYPE1
 62
     2
100
AcDbLine
 10
235.9500000000013
 20
917.4157454779231
 30
0.0
 11
237.756886575818
 21
917.7935578869631
 31
0.0
  0
ARC
  5
1AD
330
1F
100
AcDbEntity
  8
図
  6
EXLTYPE1
 62
     2
100
AcDbCircle
 10
241.6865407526409
 20
899.0000000000001
 30
0.0
 40
10.0
100
AcDbArc
 50
90.00000000000001
 51
101.8101519015928
  0
LINE
  5
1AE
330
1F
100
AcDbEntity
  8
図
  6
EXLTYPE3
 62
     6
100
AcDbLine
 10
240.1764702519411
 20
913.6000000000004
 30
0.0
 11
209.6825459505033
 21
907.2238482505757
 31
0.0
  0
LINE
  5
1AF
330
1F
100
AcDbEntity
  8
図
  6
CONTINUOUS
 62
     2
100
AcDbLine
 10
389.5999999999851
 20
959.35960524606
 30
0.0
 11
389.5999999999851
 21
974.7000000000003
 31
0.0
  0
LINE
  5
1B0
330
1F
100
AcDbEntity
  8
図
  6
EXLTYPE1
 62
     2
100
AcDbLine
 10
369.5999999999851
 20
918.2
 30
0.0
 11
369.5999999999851
 21
959.3596052461
 31
0.0
  0
LINE
  5
1B1
330
1F
100
AcDbEntity
  8
図
  6
CONTINUOUS
 62
     2
100
AcDbLine
 10
369.5999999999851
 20
959.6
 30
0.0
 11
369.5999999999851
 21
974.2500000000001
 31
0.0
  0
DIMENSION
  5
1B2
330
1F
100
AcDbEntity
  8
図
  6
CONTINUOUS
 62
     3
100
AcDbDimension
  2
*D16
 10
523.4999999999899
 20
787.5
 30
0.0
 11
379.599999999995
 21
799.2499999701977
 31
0.0
 70
   160
  3
ISO-25
100
AcDbAlignedDimension
 13
235.6999999999999
 23
867.0
 33
0.0
 14
523.4999999999899
 24
867.0
 34
0.0
100
AcDbRotatedDimension
1001
ACAD
1000
DSTYLE
1002
{
1070
   270
1070
     2
1070
     6
1000
EX_NORM
1070
     7
1000
EX_NORM
1070
    41
1040
15.0
1070
    42
1040
3.499999940395355
1070
    44
1040
5.0
1070
    73
1070
     0
1070
    74
1070
     0
1070
    75
1070
     0
1070
    76
1070
     0
1070
    77
1070
     1
1070
    78
1070
     0
1070
   140
1040
20.0
1070
   147
1040
0.0
1070
   173
1070
     1
1070
   176
1070
     3
1070
   177
1070
     3
1070
   178
1070
     2
1070
   271
1070
     0
1070
   277
1070
     2
1070
   279
1070
     2
1070
   280
1070
     0
1070
   287
1070
     5
1070
   340
1005
158
1002
}
  0
DIMENSION
  5
1BF
330
1F
100
AcDbEntity
  8
図
  6
CONTINUOUS
 62
     3
100
AcDbDimension
  2
*D17
 10
480.1
 20
1056.5
 30
0.0
 11
379.6000000000001
 21
1068.249999970198
 31
0.0
 70
   160
  3
ISO-25
100
AcDbAlignedDimension
 13
279.1
 23
1021.75
 33
0.0
 14
480.1
 24
1021.75
 34
0.0
100
AcDbRotatedDimension
1001
ACAD
1000
DSTYLE
1002
{
1070
   270
1070
     2
1070
     6
1000
EX_NORM
1070
     7
1000
EX_NORM
1070
    41
1040
15.0
1070
    42
1040
3.499999940395242
1070
    44
1040
5.0
1070
    73
1070
     0
1070
    74
1070
     0
1070
    75
1070
     0
1070
    76
1070
     0
1070
    77
1070
     1
1070
    78
1070
     0
1070
   140
1040
20.0
1070
   147
1040
0.0
1070
   173
1070
     1
1070
   176
1070
     3
1070
   177
1070
     3
1070
   178
1070
     2
1070
   271
1070
     0
1070
   277
1070
     2
1070
   279
1070
     2
1070
   280
1070
     0
1070
   287
1070
     5
1070
   340
1005
158
1002
}
  0
LINE
  5
1CC
330
1F
100
AcDbEntity
  8
図
  6
CONTINUOUS
 62
     2
100
AcDbLine
 10
751.8566608523028
 20
457.9171440667638
 30
0.0
 11
745.2624130961268
 21
468.895694568063
 31
0.0
  0
LINE
  5
1CD
330
1F
100
AcDbEntity
  8
図
  6
CONTINUOUS
 62
     2
100
AcDbLine
 10
759.8993906993368
 20
462.3725667358436
 30
0.0
 11
752.4310628459674
 21
477.0431983316968
 31
0.0
  0
ELLIPSE
  5
1CE
330
1F
100
AcDbEntity
  8
図
  6
CONTINUOUS
 62
     2
100
AcDbEllipse
 10
748.8040812988501
 20
473.04652809827
 30
0.0
 11
2.816913204200653
 21
4.879036790187179
 31
0.0
210
0.0
220
0.0
230
1.0
 40
0.577350269189626
 41
0.0
 42
6.283185307179586
  0
ARC
  5
1CF
330
1F
100
AcDbEntity
  8
図
  6
EXLTYPE2
 62
     2
100
AcDbCircle
 10
755.7999999999998
 20
460.2857040441001
 30
0.0
 40
4.6
100
AcDbArc
 50
69.23402672778053
 51
203.7500565273101
  0
ARC
  5
1D0
330
1F
100
AcDbEntity
  8
図
  6
CONTINUOUS
 62
     2
100
AcDbCircle
 10
755.7999999999998
 20
460.2857040441001
 30
0.0
 40
4.6
100
AcDbArc
 50
203.7500565273159
 51
30.62073546200464
  0
LINE
  5
1D1
330
1F
100
AcDbEntity
  8
図
  6
EXLTYPE3
 62
     6
100
AcDbLine
 10
755.8000000000008
 20
449.1071720252401
 30
0.0
 11
755.8000000000008
 21
478.9071720252401
 31
0.0
  0
LINE
  5
1D2
330
1F
100
AcDbEntity
  8
図
  6
EXLTYPE3
 62
     6
100
AcDbLine
 10
769.4859379442499
 20
460.2857040440978
 30
0.0
 11
742.03593794425
 21
460.2857040440978
 31
0.0
  0
LINE
  5
1D3
330
1F
100
AcDbEntity
  8
図
  6
CONTINUOUS
 62
     2
100
AcDbLine
 10
759.7791054825362
 20
462.6387793668284
 30
0.0
 11
805.481486346481
 21
483.2888919113077
 31
0.0
  0
LINE
  5
1D4
330
1F
100
AcDbEntity
  8
図
  6
CONTINUOUS
 62
     2
100
AcDbLine
 10
759.4144421199843
 20
457.4403906762465
 30
0.0
 11
810.6373229927905
 21
480.5848797571291
 31
0.0
  0
LINE
  5
1D5
330
1F
100
AcDbEntity
  8
図
  6
EXLTYPE1
 62
     2
100
AcDbLine
 10
805.4814863464821
 20
483.2888919113084
 30
0.0
 11
817.5000000000017
 21
488.7193236496762
 31
0.0
  0
LINE
  5
1D6
330
1F
100
AcDbEntity
  8
図
  6
EXLTYPE1
 62
     2
100
AcDbLine
 10
810.6373229927904
 20
480.5848797571292
 30
0.0
 11
817.5000000000002
 21
483.6857040440995
 31
0.0
  0
LINE
  5
1D7
330
1F
100
AcDbEntity
  8
図
  6
CONTINUOUS
 62
     3
100
AcDbLine
 10
767.703722563364
 20
482.6795520012378
 30
0.0
 11
799.1361183152112
 21
413.1140559767985
 31
0.0
  0
LINE
  5
1D8
330
1F
100
AcDbEntity
  8
図
  6
CONTINUOUS
 62
     3
100
AcDbLine
 10
765.4254892196802
 20
481.6501576007643
 30
0.0
 11
773.8800889662059
 21
469.0101519391339
 31
0.0
  0
LINE
  5
1D9
330
1F
100
AcDbEntity
  8
図
  6
CONTINUOUS
 62
     3
100
AcDbLine
 10
773.8800889662059
 20
469.0101519391339
 30
0.0
 11
769.9819559070482
 21
483.7089464017116
 31
0.0
  0
LINE
  5
1DA
330
1F
100
AcDbEntity
  8
図
  6
CONTINUOUS
 62
     3
100
AcDbLine
 10
784.2234643856196
 20
452.1899489549487
 30
0.0
 11
775.768864639094
 21
464.8299546165791
 31
0.0
  0
LINE
  5
1DB
330
1F
100
AcDbEntity
  8
図
  6
CONTINUOUS
 62
     3
100
AcDbLine
 10
775.768864639094
 20
464.8299546165791
 30
0.0
 11
779.6669976982516
 21
450.1311601540015
 31
0.0
  0
TEXT
  5
1DC
330
1F
100
AcDbEntity
  8
図
  6
CONTINUOUS
 62
     2
100
AcDbText
 10
783.539994355356
 20
451.8811306225352
 30
0.0
 40
20.0
  1
４.６
 50
294.3153024736197
 41
0.9767441860465107
  7
EXCADSTD
 72
     5
 11
800.0103047629343
 21
415.4293971235915
 31
0.0
100
AcDbText
  0
CIRCLE
  5
1DD
330
1F
100
AcDbEntity
  8
図
  6
EXLTYPE1
 62
     2
100
AcDbCircle
 10
804.05
 20
501.6357040441101
 30
0.0
 40
4.6
  0
LINE
  5
1DE
330
1F
100
AcDbEntity
  8
図
  6
EXLTYPE3
 62
     6
100
AcDbLine
 10
480.1000000000002
 20
458.7071720252501
 30
0.0
 11
480.1000000000003
 21
510.9071720252501
 31
0.0
  0
LINE
  5
1DF
330
1F
100
AcDbEntity
  8
図
  6
EXLTYPE1
 62
     2
100
AcDbLine
 10
474.6000000000001
 20
506.0857040441101
 30
0.0
 11
465.1000000000001
 21
506.0857040441101
 31
0.0
  0
LINE
  5
1E0
330
1F
100
AcDbEntity
  8
図
  6
EXLTYPE3
 62
     6
100
AcDbLine
 10
475.9
 20
501.6357040441101
 30
0.0
 11
434.8500000000001
 21
501.6357040441101
 31
0.0
  0
ARC
  5
1E1
330
1F
100
AcDbEntity
  8
図
  6
CONTINUOUS
 62
     2
100
AcDbCircle
 10
515.2905144936356
 20
480.6857040441001
 30
0.0
 40
25.0
100
AcDbArc
 50
270.0
 51
299.3175984457567
  0
LINE
  5
1E2
330
1F
100
AcDbEntity
  8
図
  6
CONTINUOUS
 62
     2
100
AcDbLine
 10
543.957663770901
 20
468.1121470784959
 30
0.0
 11
527.5317716299803
 21
458.8877311171996
 31
0.0
  0
ELLIPSE
  5
1E3
330
1F
100
AcDbEntity
  8
図
  6
CONTINUOUS
 62
     2
100
AcDbEllipse
 10
541.2162831425901
 20
473.0347650436602
 30
0.0
 11
-2.816913204200656
 21
4.879036790187178
 31
0.0
210
0.0
220
0.0
230
1.0
 40
0.5773502691896258
 41
0.0
 42
6.283185307179586
  0
LINE
  5
1E4
330
1F
100
AcDbEntity
  8
図
  6
EXLTYPE3
 62
     6
100
AcDbLine
 10
547.7615128846942
 20
476.7099151008381
 30
0.0
 11
518.5149654122406
 21
460.2857040440992
 31
0.0
  0
LINE
  5
1E5
330
1F
100
AcDbEntity
  8
図
  6
CONTINUOUS
 62
     2
100
AcDbLine
 10
487.1000000000001
 20
974.7000000000003
 30
0.0
 11
272.1
 21
974.7000000000003
 31
0.0
  0
LINE
  5
1E6
330
1F
100
AcDbEntity
  8
図
  6
CONTINUOUS
 62
     2
100
AcDbLine
 10
513.4999999999901
 20
964.8000000000003
 30
0.0
 11
398.49999999999
 21
964.8000000000003
 31
0.0
  0
LINE
  5
1E7
330
1F
100
AcDbEntity
  8
図
  6
EXLTYPE2
 62
     2
100
AcDbLine
 10
437.2999999999901
 20
964.8000000000002
 30
0.0
 11
437.2999999999901
 21
956.3000000000003
 31
0.0
  0
LINE
  5
1E8
330
1F
100
AcDbEntity
  8
図
  6
EXLTYPE2
 62
     2
100
AcDbLine
 10
439.7999999999901
 20
964.8000000000002
 30
0.0
 11
439.7999999999901
 21
956.3000000000003
 31
0.0
  0
LINE
  5
1E9
330
1F
100
AcDbEntity
  8
図
  6
EXLTYPE2
 62
     2
100
AcDbLine
 10
437.2999999999901
 20
956.3000000000003
 30
0.0
 11
439.7999999999901
 21
956.3000000000003
 31
0.0
  0
LINE
  5
1EA
330
1F
100
AcDbEntity
  8
図
  6
CONTINUOUS
 62
     2
100
AcDbLine
 10
430.2999999999897
 20
965.8000000000004
 30
0.0
 11
437.29999999999
 21
965.8000000000004
 31
0.0
  0
LINE
  5
1EB
330
1F
100
AcDbEntity
  8
図
  6
EXLTYPE2
 62
     2
100
AcDbLine
 10
430.2999999999897
 20
956.6000000000003
 30
0.0
 11
430.2999999999897
 21
964.8000000000002
 31
0.0
  0
LINE
  5
1EC
330
1F
100
AcDbEntity
  8
図
  6
EXLTYPE2
 62
     2
100
AcDbLine
 10
430.2999999999899
 20
956.6000000000003
 30
0.0
 11
437.29999999999
 21
956.6000000000003
 31
0.0
  0
LINE
  5
1ED
330
1F
100
AcDbEntity
  8
図
  6
CONTINUOUS
 62
     2
100
AcDbLine
 10
430.2999999999897
 20
964.8000000000002
 30
0.0
 11
430.2999999999897
 21
965.8000000000004
 31
0.0
  0
LINE
  5
1EE
330
1F
100
AcDbEntity
  8
図
  6
CONTINUOUS
 62
     2
100
AcDbLine
 10
439.7999999999901
 20
964.8000000000002
 30
0.0
 11
439.7999999999901
 21
974.7000000000003
 31
0.0
  0
LINE
  5
1EF
330
1F
100
AcDbEntity
  8
図
  6
CONTINUOUS
 62
     2
100
AcDbLine
 10
437.2999999999901
 20
964.8000000000002
 30
0.0
 11
437.2999999999901
 21
974.7000000000003
 31
0.0
  0
LINE
  5
1F0
330
1F
100
AcDbEntity
  8
図
  6
EXLTYPE1
 62
     6
100
AcDbLine
 10
467.54999999999
 20
955.750000000011
 30
0.0
 11
440.54999999999
 21
955.750000000011
 31
0.0
  0
LINE
  5
1F1
330
1F
100
AcDbEntity
  8
図
  6
EXLTYPE1
 62
     2
100
AcDbLine
 10
471.0999999999901
 20
506.58570404411
 30
0.0
 11
468.5999999999901
 21
506.58570404411
 31
0.0
  0
LINE
  5
1F2
330
1F
100
AcDbEntity
  8
図
  6
EXLTYPE2
 62
     6
100
AcDbLine
 10
471.09999999999
 20
506.63570404411
 30
0.0
 11
473.0999999999902
 21
506.63570404411
 31
0.0
  0
ARC
  5
1F3
330
1F
100
AcDbEntity
  8
図
  6
EXLTYPE2
 62
     6
100
AcDbCircle
 10
473.0999999999902
 20
504.63570404411
 30
0.0
 40
2.0
100
AcDbArc
 50
0.0
 51
90.00000000000001
  0
LINE
  5
1F4
330
1F
100
AcDbEntity
  8
図
  6
EXLTYPE2
 62
     6
100
AcDbLine
 10
475.0999999999902
 20
498.6357040441101
 30
0.0
 11
475.0999999999902
 21
504.63570404411
 31
0.0
  0
ARC
  5
1F5
330
1F
100
AcDbEntity
  8
図
  6
EXLTYPE2
 62
     6
100
AcDbCircle
 10
473.0999999999902
 20
498.6357040441101
 30
0.0
 40
2.0
100
AcDbArc
 50
270.0
 51
0.0
  0
LINE
  5
1F6
330
1F
100
AcDbEntity
  8
図
  6
EXLTYPE2
 62
     6
100
AcDbLine
 10
471.0999999999897
 20
496.6357040441101
 30
0.0
 11
473.1849999999901
 21
496.6357040441101
 31
0.0
  0
LINE
  5
1F7
330
1F
100
AcDbEntity
  8
図
  6
CONTINUOUS
 62
     2
100
AcDbLine
 10
468.5999999999912
 20
964.8
 30
0.0
 11
468.5999999999912
 21
974.7
 31
0.0
  0
LINE
  5
1F8
330
1F
100
AcDbEntity
  8
図
  6
EXLTYPE1
 62
     2
100
AcDbLine
 10
468.5999999999922
 20
956.3
 30
0.0
 11
468.5999999999909
 21
964.8
 31
0.0
  0
LINE
  5
1F9
330
1F
100
AcDbEntity
  8
図
  6
CONTINUOUS
 62
     6
100
AcDbLine
 10
467.69999999999
 20
966.6499999999903
 30
0.0
 11
467.69999999999
 21
964.8
 31
0.0
  0
LINE
  5
1FA
330
1F
100
AcDbEntity
  8
図
  6
CONTINUOUS
 62
     6
100
AcDbLine
 10
440.69999999999
 20
966.6499999999903
 30
0.0
 11
440.69999999999
 21
964.8
 31
0.0
  0
LINE
  5
1FB
330
1F
100
AcDbEntity
  8
図
  6
EXLTYPE1
 62
     6
100
AcDbLine
 10
440.69999999999
 20
964.8
 30
0.0
 11
440.69999999999
 21
955.7500000000101
 31
0.0
  0
LINE
  5
1FC
330
1F
100
AcDbEntity
  8
図
  6
EXLTYPE1
 62
     6
100
AcDbLine
 10
467.69999999999
 20
964.8
 30
0.0
 11
467.69999999999
 21
955.750000000011
 31
0.0
  0
LINE
  5
1FD
330
1F
100
AcDbEntity
  8
図
  6
CONTINUOUS
 62
     6
100
AcDbLine
 10
467.69999999999
 20
966.6499999999903
 30
0.0
 11
440.69999999999
 21
966.6499999999903
 31
0.0
  0
LINE
  5
1FE
330
1F
100
AcDbEntity
  8
図
  6
EXLTYPE2
 62
     6
100
AcDbLine
 10
468.599999999991
 20
963.75
 30
0.0
 11
467.69999999999
 21
963.75
 31
0.0
  0
LINE
  5
1FF
330
1F
100
AcDbEntity
  8
図
  6
EXLTYPE2
 62
     6
100
AcDbLine
 10
468.5999999999919
 20
958.6500000000004
 30
0.0
 11
467.69999999999
 21
958.6500000000004
 31
0.0
  0
LINE
  5
200
330
1F
100
AcDbEntity
  8
図
  6
EXLTYPE2
 62
     6
100
AcDbLine
 10
440.69999999999
 20
958.6500000000004
 30
0.0
 11
439.7999999999901
 21
958.6500000000004
 31
0.0
  0
LINE
  5
201
330
1F
100
AcDbEntity
  8
図
  6
EXLTYPE2
 62
     6
100
AcDbLine
 10
440.69999999999
 20
963.75
 30
0.0
 11
439.7999999999901
 21
963.75
 31
0.0
  0
LINE
  5
202
330
1F
100
AcDbEntity
  8
図
  6
EXLTYPE2
 62
     2
100
AcDbLine
 10
288.0999999999813
 20
964.8000000000002
 30
0.0
 11
288.0999999999813
 21
956.3000000000003
 31
0.0
  0
LINE
  5
203
330
1F
100
AcDbEntity
  8
図
  6
EXLTYPE2
 62
     2
100
AcDbLine
 10
288.0999999999813
 20
956.3000000000003
 30
0.0
 11
290.5999999999813
 21
956.3000000000003
 31
0.0
  0
LINE
  5
204
330
1F
100
AcDbEntity
  8
図
  6
CONTINUOUS
 62
     6
100
AcDbLine
 10
288.0999999999813
 20
966.2000000000002
 30
0.0
 11
286.099999999981
 21
966.2000000000002
 31
0.0
  0
ARC
  5
205
330
1F
100
AcDbEntity
  8
図
  6
CONTINUOUS
 62
     6
100
AcDbCircle
 10
286.099999999981
 20
964.2000000000002
 30
0.0
 40
2.0
100
AcDbArc
 50
90.00000000000001
 51
162.5423968762397
  0
LINE
  5
206
330
1F
100
AcDbEntity
  8
図
  6
EXLTYPE2
 62
     6
100
AcDbLine
 10
284.099999999981
 20
958.2000000000003
 30
0.0
 11
284.099999999981
 21
964.2000000000002
 31
0.0
  0
ARC
  5
207
330
1F
100
AcDbEntity
  8
図
  6
EXLTYPE2
 62
     6
100
AcDbCircle
 10
286.099999999981
 20
958.2000000000003
 30
0.0
 40
2.0
100
AcDbArc
 50
180.0
 51
270.0
  0
LINE
  5
208
330
1F
100
AcDbEntity
  8
図
  6
EXLTYPE2
 62
     6
100
AcDbLine
 10
288.0999999999815
 20
956.2000000000003
 30
0.0
 11
286.0149999999812
 21
956.2000000000003
 31
0.0
  0
ARC
  5
209
330
1F
100
AcDbEntity
  8
図
  6
EXLTYPE2
 62
     6
100
AcDbCircle
 10
286.099999999981
 20
964.2000000000002
 30
0.0
 40
2.0
100
AcDbArc
 50
162.5423968762737
 51
180.0
  0
LINE
  5
20A
330
1F
100
AcDbEntity
  8
図
  6
CONTINUOUS
 62
     2
100
AcDbLine
 10
288.0999999999813
 20
964.8000000000002
 30
0.0
 11
288.0999999999813
 21
974.7000000000003
 31
0.0
  0
LINE
  5
20B
330
1F
100
AcDbEntity
  8
図
  6
EXLTYPE2
 62
     2
100
AcDbLine
 10
321.8999999999811
 20
964.8000000000002
 30
0.0
 11
321.8999999999811
 21
956.3000000000003
 31
0.0
  0
LINE
  5
20C
330
1F
100
AcDbEntity
  8
図
  6
EXLTYPE2
 62
     2
100
AcDbLine
 10
319.3999999999812
 20
964.8000000000002
 30
0.0
 11
319.3999999999812
 21
956.3000000000003
 31
0.0
  0
LINE
  5
20D
330
1F
100
AcDbEntity
  8
図
  6
EXLTYPE2
 62
     2
100
AcDbLine
 10
321.8999999999811
 20
956.3000000000003
 30
0.0
 11
319.3999999999812
 21
956.3000000000003
 31
0.0
  0
LINE
  5
20E
330
1F
100
AcDbEntity
  8
図
  6
CONTINUOUS
 62
     2
100
AcDbLine
 10
328.8999999999816
 20
965.8000000000004
 30
0.0
 11
321.8999999999813
 21
965.8000000000004
 31
0.0
  0
LINE
  5
20F
330
1F
100
AcDbEntity
  8
図
  6
EXLTYPE2
 62
     2
100
AcDbLine
 10
328.8999999999816
 20
956.6000000000003
 30
0.0
 11
328.8999999999816
 21
964.8000000000002
 31
0.0
  0
LINE
  5
210
330
1F
100
AcDbEntity
  8
図
  6
EXLTYPE2
 62
     2
100
AcDbLine
 10
328.8999999999814
 20
956.6000000000003
 30
0.0
 11
321.8999999999813
 21
956.6000000000003
 31
0.0
  0
LINE
  5
211
330
1F
100
AcDbEntity
  8
図
  6
CONTINUOUS
 62
     2
100
AcDbLine
 10
328.8999999999816
 20
964.8000000000002
 30
0.0
 11
328.8999999999816
 21
965.8000000000004
 31
0.0
  0
LINE
  5
212
330
1F
100
AcDbEntity
  8
図
  6
CONTINUOUS
 62
     2
100
AcDbLine
 10
319.3999999999812
 20
964.8000000000002
 30
0.0
 11
319.3999999999812
 21
974.7000000000003
 31
0.0
  0
LINE
  5
213
330
1F
100
AcDbEntity
  8
図
  6
CONTINUOUS
 62
     2
100
AcDbLine
 10
321.8999999999811
 20
964.8000000000002
 30
0.0
 11
321.8999999999811
 21
974.7000000000003
 31
0.0
  0
LINE
  5
214
330
1F
100
AcDbEntity
  8
図
  6
EXLTYPE1
 62
     6
100
AcDbLine
 10
291.6499999999813
 20
955.750000000011
 30
0.0
 11
318.6499999999813
 21
955.750000000011
 31
0.0
  0
LINE
  5
215
330
1F
100
AcDbEntity
  8
図
  6
CONTINUOUS
 62
     2
100
AcDbLine
 10
290.5999999999801
 20
964.8
 30
0.0
 11
290.5999999999801
 21
974.7
 31
0.0
  0
LINE
  5
216
330
1F
100
AcDbEntity
  8
図
  6
EXLTYPE1
 62
     2
100
AcDbLine
 10
290.5999999999791
 20
956.3
 30
0.0
 11
290.5999999999804
 21
964.8
 31
0.0
  0
LINE
  5
217
330
1F
100
AcDbEntity
  8
図
  6
CONTINUOUS
 62
     6
100
AcDbLine
 10
291.4999999999813
 20
966.6499999999903
 30
0.0
 11
291.4999999999813
 21
964.8
 31
0.0
  0
LINE
  5
218
330
1F
100
AcDbEntity
  8
図
  6
CONTINUOUS
 62
     6
100
AcDbLine
 10
318.4999999999813
 20
966.6499999999903
 30
0.0
 11
318.4999999999813
 21
964.8
 31
0.0
  0
LINE
  5
219
330
1F
100
AcDbEntity
  8
図
  6
EXLTYPE1
 62
     6
100
AcDbLine
 10
318.4999999999813
 20
964.8
 30
0.0
 11
318.4999999999813
 21
955.7500000000101
 31
0.0
  0
LINE
  5
21A
330
1F
100
AcDbEntity
  8
図
  6
EXLTYPE1
 62
     6
100
AcDbLine
 10
291.4999999999813
 20
964.8
 30
0.0
 11
291.4999999999813
 21
955.750000000011
 31
0.0
  0
LINE
  5
21B
330
1F
100
AcDbEntity
  8
図
  6
CONTINUOUS
 62
     6
100
AcDbLine
 10
291.4999999999813
 20
966.6499999999903
 30
0.0
 11
318.4999999999813
 21
966.6499999999903
 31
0.0
  0
LINE
  5
21C
330
1F
100
AcDbEntity
  8
図
  6
EXLTYPE2
 62
     6
100
AcDbLine
 10
290.5999999999802
 20
963.75
 30
0.0
 11
291.4999999999813
 21
963.75
 31
0.0
  0
LINE
  5
21D
330
1F
100
AcDbEntity
  8
図
  6
EXLTYPE2
 62
     6
100
AcDbLine
 10
290.5999999999794
 20
958.6500000000004
 30
0.0
 11
291.4999999999813
 21
958.6500000000004
 31
0.0
  0
LINE
  5
21E
330
1F
100
AcDbEntity
  8
図
  6
EXLTYPE2
 62
     6
100
AcDbLine
 10
318.4999999999813
 20
958.6500000000004
 30
0.0
 11
319.3999999999812
 21
958.6500000000004
 31
0.0
  0
LINE
  5
21F
330
1F
100
AcDbEntity
  8
図
  6
EXLTYPE2
 62
     6
100
AcDbLine
 10
318.4999999999813
 20
963.75
 30
0.0
 11
319.3999999999812
 21
963.75
 31
0.0
  0
LINE
  5
220
330
1F
100
AcDbEntity
  8
図
  6
EXLTYPE1
 62
     6
100
AcDbLine
 10
467.5499999999903
 20
496.1857040441201
 30
0.0
 11
467.5499999999903
 21
507.0857040441001
 31
0.0
  0
LINE
  5
221
330
1F
100
AcDbEntity
  8
図
  6
EXLTYPE1
 62
     6
100
AcDbLine
 10
440.69999999999
 20
496.1857040441201
 30
0.0
 11
440.69999999999
 21
507.0857040441001
 31
0.0
  0
LINE
  5
222
330
1F
100
AcDbEntity
  8
図
  6
EXLTYPE1
 62
     6
100
AcDbLine
 10
467.54999999999
 20
507.0857040441001
 30
0.0
 11
440.69999999999
 21
507.0857040441001
 31
0.0
  0
LINE
  5
223
330
1F
100
AcDbEntity
  8
図
  6
EXLTYPE1
 62
     6
100
AcDbLine
 10
467.54999999999
 20
496.1857040441208
 30
0.0
 11
440.69999999999
 21
496.1857040441208
 31
0.0
  0
LINE
  5
224
330
1F
100
AcDbEntity
  8
図
  6
EXLTYPE2
 62
     6
100
AcDbLine
 10
440.69999999999
 20
504.1857040441099
 30
0.0
 11
439.9000000000003
 21
504.1857040441099
 31
0.0
  0
LINE
  5
225
330
1F
100
AcDbEntity
  8
図
  6
EXLTYPE2
 62
     6
100
AcDbLine
 10
440.69999999999
 20
499.0857040441102
 30
0.0
 11
439.9000000000003
 21
499.0857040441102
 31
0.0
  0
LINE
  5
226
330
1F
100
AcDbEntity
  8
図
  6
EXLTYPE2
 62
     6
100
AcDbLine
 10
468.5999999999901
 20
504.1857040441099
 30
0.0
 11
467.5499999999903
 21
504.1857040441099
 31
0.0
  0
LINE
  5
227
330
1F
100
AcDbEntity
  8
図
  6
EXLTYPE2
 62
     6
100
AcDbLine
 10
468.5999999999901
 20
499.0857040441102
 30
0.0
 11
467.54999999999
 21
499.0857040441102
 31
0.0
  0
LINE
  5
228
330
1F
100
AcDbEntity
  8
図
  6
EXLTYPE1
 62
     2
100
AcDbLine
 10
437.2999999999904
 20
506.58570404411
 30
0.0
 11
439.79999999999
 21
506.58570404411
 31
0.0
  0
LINE
  5
229
330
1F
100
AcDbEntity
  8
図
  6
EXLTYPE1
 62
     2
100
AcDbLine
 10
430.2993747408297
 20
497.06266650104
 30
0.0
 11
430.2993747408297
 21
506.26266650104
 31
0.0
  0
LINE
  5
22A
330
1F
100
AcDbEntity
  8
図
  6
CONTINUOUS
 62
     2
100
AcDbLine
 10
430.29937474083
 20
506.2357040441101
 30
0.0
 11
437.29999999999
 21
506.2357040441101
 31
0.0
  0
LINE
  5
22B
330
1F
100
AcDbEntity
  8
図
  6
EXLTYPE1
 62
     2
100
AcDbLine
 10
430.29937474083
 20
497.0357040441099
 30
0.0
 11
437.3999999999999
 21
497.0357040441099
 31
0.0
  0
ARC
  5
22C
330
1F
100
AcDbEntity
  8
図
  6
CONTINUOUS
 62
     2
100
AcDbCircle
 10
513.4999999999902
 20
499.5070380882401
 30
0.0
 40
10.0
100
AcDbArc
 50
0.0
 51
90.00000000000001
  0
LINE
  5
22D
330
1F
100
AcDbEntity
  8
図
  6
CONTINUOUS
 62
     2
100
AcDbLine
 10
513.24999999999
 20
509.5070380882401
 30
0.0
 11
398.4999999999901
 21
509.5070380882401
 31
0.0
  0
ARC
  5
22E
330
1F
100
AcDbEntity
  8
図
  6
CONTINUOUS
 62
     2
100
AcDbCircle
 10
398.4999999999901
 20
499.5070380882403
 30
0.0
 40
10.0
100
AcDbArc
 50
89.99999999999969
 51
180.0
  0
LINE
  5
22F
330
1F
100
AcDbEntity
  8
図
  6
CONTINUOUS
 62
     2
100
AcDbLine
 10
538.4188070240473
 20
477.9248700313959
 30
0.0
 11
522.6606693982927
 21
469.0754501649894
 31
0.0
  0
LINE
  5
230
330
1F
100
AcDbEntity
  8
図
  6
EXLTYPE1
 62
     2
100
AcDbLine
 10
522.6606693982909
 20
469.0754501649883
 30
0.0
 11
518.6211044832992
 21
466.8069202879588
 31
0.0
  0
ARC
  5
231
330
1F
100
AcDbEntity
  8
図
  6
EXLTYPE1
 62
     2
100
AcDbCircle
 10
511.2763502014943
 20
479.8857040441001
 30
0.0
 40
15.0
100
AcDbArc
 50
292.9763815353862
 51
299.3175984457568
  0
ARC
  5
232
330
1F
100
AcDbEntity
  8
図
  6
EXLTYPE1
 62
     2
100
AcDbCircle
 10
511.2763502014943
 20
479.8857040441001
 30
0.0
 40
15.0
100
AcDbArc
 50
270.0
 51
292.9763815353862
  0
LINE
  5
233
330
1F
100
AcDbEntity
  8
図
  6
EXLTYPE3
 62
     6
100
AcDbLine
 10
270.74999999998
 20
499.0857040441104
 30
0.0
 11
288.1499999999801
 21
499.0857040441103
 31
0.0
  0
LINE
  5
234
330
1F
100
AcDbEntity
  8
図
  6
EXLTYPE3
 62
     6
100
AcDbLine
 10
279.0999999999797
 20
458.7071720252504
 30
0.0
 11
279.0999999999798
 21
510.9071720252505
 31
0.0
  0
LINE
  5
235
330
1F
100
AcDbEntity
  8
図
  6
EXLTYPE3
 62
     6
100
AcDbLine
 10
283.2999999999801
 20
501.6357040441105
 30
0.0
 11
324.34999999998
 21
501.6357040441103
 31
0.0
  0
ARC
  5
236
330
1F
100
AcDbEntity
  8
図
  6
CONTINUOUS
 62
     2
100
AcDbCircle
 10
243.9094855063445
 20
480.6857040441006
 30
0.0
 40
25.0
100
AcDbArc
 50
240.682401554243
 51
269.9999999999998
  0
LINE
  5
237
330
1F
100
AcDbEntity
  8
図
  6
CONTINUOUS
 62
     2
100
AcDbLine
 10
215.2423362290789
 20
468.1121470784965
 30
0.0
 11
231.6682283699996
 21
458.8877311172002
 31
0.0
  0
ELLIPSE
  5
238
330
1F
100
AcDbEntity
  8
図
  6
CONTINUOUS
 62
     2
100
AcDbEllipse
 10
217.9837168573899
 20
473.0347650436609
 30
0.0
 11
2.816913204200675
 21
4.87903679018717
 31
0.0
210
0.0
220
0.0
230
1.0
 40
0.5773502691896256
 41
0.0
 42
6.283185307179586
  0
LINE
  5
239
330
1F
100
AcDbEntity
  8
図
  6
EXLTYPE3
 62
     6
100
AcDbLine
 10
211.4384871152858
 20
476.7099151008387
 30
0.0
 11
240.6850345877394
 21
460.2857040440998
 31
0.0
  0
LINE
  5
23A
330
1F
100
AcDbEntity
  8
図
  6
EXLTYPE1
 62
     2
100
AcDbLine
 10
288.09999999999
 20
506.5857040441103
 30
0.0
 11
290.59999999999
 21
506.5857040441103
 31
0.0
  0
LINE
  5
23B
330
1F
100
AcDbEntity
  8
図
  6
EXLTYPE2
 62
     6
100
AcDbLine
 10
288.0999999999901
 20
506.6357040441103
 30
0.0
 11
286.0999999999899
 21
506.6357040441103
 31
0.0
  0
ARC
  5
23C
330
1F
100
AcDbEntity
  8
図
  6
EXLTYPE2
 62
     6
100
AcDbCircle
 10
286.0999999999899
 20
504.6357040441103
 30
0.0
 40
2.0
100
AcDbArc
 50
90.00000000000001
 51
180.0
  0
LINE
  5
23D
330
1F
100
AcDbEntity
  8
図
  6
EXLTYPE2
 62
     6
100
AcDbLine
 10
284.0999999999899
 20
498.6357040441104
 30
0.0
 11
284.0999999999899
 21
504.6357040441103
 31
0.0
  0
ARC
  5
23E
330
1F
100
AcDbEntity
  8
図
  6
EXLTYPE2
 62
     6
100
AcDbCircle
 10
286.0999999999899
 20
498.6357040441104
 30
0.0
 40
2.0
100
AcDbArc
 50
180.0
 51
270.0
  0
LINE
  5
23F
330
1F
100
AcDbEntity
  8
図
  6
EXLTYPE2
 62
     6
100
AcDbLine
 10
288.0999999999904
 20
496.6357040441105
 30
0.0
 11
286.0149999999901
 21
496.6357040441105
 31
0.0
  0
LINE
  5
240
330
1F
100
AcDbEntity
  8
図
  6
EXLTYPE1
 62
     6
100
AcDbLine
 10
291.6499999999899
 20
496.1857040441205
 30
0.0
 11
291.6499999999899
 21
507.0857040441005
 31
0.0
  0
LINE
  5
241
330
1F
100
AcDbEntity
  8
図
  6
EXLTYPE1
 62
     6
100
AcDbLine
 10
318.4999999999901
 20
496.1857040441204
 30
0.0
 11
318.4999999999901
 21
507.0857040441004
 31
0.0
  0
LINE
  5
242
330
1F
100
AcDbEntity
  8
図
  6
EXLTYPE1
 62
     6
100
AcDbLine
 10
291.6499999999901
 20
507.0857040441005
 30
0.0
 11
318.4999999999902
 21
507.0857040441004
 31
0.0
  0
LINE
  5
243
330
1F
100
AcDbEntity
  8
図
  6
EXLTYPE1
 62
     6
100
AcDbLine
 10
291.6499999999901
 20
496.1857040441212
 30
0.0
 11
318.4999999999901
 21
496.1857040441211
 31
0.0
  0
LINE
  5
244
330
1F
100
AcDbEntity
  8
図
  6
EXLTYPE2
 62
     6
100
AcDbLine
 10
318.4999999999901
 20
504.1857040441101
 30
0.0
 11
319.2999999999798
 21
504.1857040441101
 31
0.0
  0
LINE
  5
245
330
1F
100
AcDbEntity
  8
図
  6
EXLTYPE2
 62
     6
100
AcDbLine
 10
318.4999999999901
 20
499.0857040441105
 30
0.0
 11
319.2999999999798
 21
499.0857040441105
 31
0.0
  0
LINE
  5
246
330
1F
100
AcDbEntity
  8
図
  6
EXLTYPE2
 62
     6
100
AcDbLine
 10
290.59999999999
 20
504.1857040441102
 30
0.0
 11
291.6499999999899
 21
504.1857040441102
 31
0.0
  0
LINE
  5
247
330
1F
100
AcDbEntity
  8
図
  6
EXLTYPE2
 62
     6
100
AcDbLine
 10
290.59999999999
 20
499.0857040441106
 30
0.0
 11
291.6499999999901
 21
499.0857040441106
 31
0.0
  0
LINE
  5
248
330
1F
100
AcDbEntity
  8
図
  6
EXLTYPE1
 62
     2
100
AcDbLine
 10
321.8999999999897
 20
506.5857040441102
 30
0.0
 11
319.3999999999901
 21
506.5857040441102
 31
0.0
  0
LINE
  5
249
330
1F
100
AcDbEntity
  8
図
  6
EXLTYPE1
 62
     2
100
AcDbLine
 10
328.9006252591504
 20
497.0626665010401
 30
0.0
 11
328.9006252591504
 21
506.2626665010401
 31
0.0
  0
LINE
  5
24A
330
1F
100
AcDbEntity
  8
図
  6
CONTINUOUS
 62
     2
100
AcDbLine
 10
328.9006252591502
 20
506.2357040441103
 30
0.0
 11
321.8999999999901
 21
506.2357040441103
 31
0.0
  0
LINE
  5
24B
330
1F
100
AcDbEntity
  8
図
  6
EXLTYPE1
 62
     2
100
AcDbLine
 10
328.9006252591501
 20
497.0357040441102
 30
0.0
 11
321.7999999999802
 21
497.0357040441102
 31
0.0
  0
ARC
  5
24C
330
1F
100
AcDbEntity
  8
図
  6
CONTINUOUS
 62
     2
100
AcDbCircle
 10
245.6999999999899
 20
499.5070380882406
 30
0.0
 40
10.0
100
AcDbArc
 50
89.99999999999969
 51
179.9999999999997
  0
LINE
  5
24D
330
1F
100
AcDbEntity
  8
図
  6
CONTINUOUS
 62
     2
100
AcDbLine
 10
245.9499999999902
 20
509.5070380882406
 30
0.0
 11
360.69999999999
 21
509.5070380882402
 31
0.0
  0
ARC
  5
24E
330
1F
100
AcDbEntity
  8
図
  6
CONTINUOUS
 62
     2
100
AcDbCircle
 10
360.69999999999
 20
499.5070380882403
 30
0.0
 40
10.0
100
AcDbArc
 50
0.0
 51
90.00000000000001
  0
LINE
  5
24F
330
1F
100
AcDbEntity
  8
図
  6
CONTINUOUS
 62
     2
100
AcDbLine
 10
220.7811929759328
 20
477.9248700313966
 30
0.0
 11
236.5393306016873
 21
469.07545016499
 31
0.0
  0
LINE
  5
250
330
1F
100
AcDbEntity
  8
図
  6
EXLTYPE1
 62
     2
100
AcDbLine
 10
236.5393306016891
 20
469.0754501649889
 30
0.0
 11
240.5788955166808
 21
466.8069202879593
 31
0.0
  0
ARC
  5
251
330
1F
100
AcDbEntity
  8
図
  6
EXLTYPE1
 62
     2
100
AcDbCircle
 10
247.9236497984858
 20
479.8857040441007
 30
0.0
 40
15.0
100
AcDbArc
 50
240.682401554243
 51
247.0236184646135
  0
ARC
  5
252
330
1F
100
AcDbEntity
  8
図
  6
EXLTYPE1
 62
     2
100
AcDbCircle
 10
247.9236497984858
 20
479.8857040441007
 30
0.0
 40
15.0
100
AcDbArc
 50
247.0236184646135
 51
269.9999999999998
  0
LINE
  5
253
330
1F
100
AcDbEntity
  8
図
  6
CONTINUOUS
 62
     2
100
AcDbLine
 10
515.5150000000001
 20
455.6857040441001
 30
0.0
 11
243.90948550634
 21
455.6857040441001
 31
0.0
  0
LINE
  5
254
330
1F
100
AcDbEntity
  8
図
  6
EXLTYPE3
 62
     6
100
AcDbLine
 10
518.5149654122401
 20
460.2857040441001
 30
0.0
 11
240.68503458774
 21
460.2857040441001
 31
0.0
  0
LINE
  5
255
330
1F
100
AcDbEntity
  8
図
  6
EXLTYPE3
 62
     6
100
AcDbLine
 10
379.59999999999
 20
519.0
 30
0.0
 11
379.59999999999
 21
447.0
 31
0.0
  0
LINE
  5
256
330
1F
100
AcDbEntity
  8
図
  6
CONTINUOUS
 62
     2
100
AcDbLine
 10
388.49999999999
 20
488.71932364968
 30
0.0
 11
370.69999999999
 21
488.71932364968
 31
0.0
  0
LINE
  5
257
330
1F
100
AcDbEntity
  8
図
  6
EXLTYPE1
 62
     2
100
AcDbLine
 10
388.49999999999
 20
488.71932364968
 30
0.0
 11
389.59999999999
 21
488.71932364968
 31
0.0
  0
LINE
  5
258
330
1F
100
AcDbEntity
  8
図
  6
EXLTYPE1
 62
     2
100
AcDbLine
 10
370.7549999999999
 20
488.71932364968
 30
0.0
 11
369.59999999999
 21
488.71932364968
 31
0.0
  0
LINE
  5
259
330
1F
100
AcDbEntity
  8
図
  6
EXLTYPE3
 62
     6
100
AcDbLine
 10
501.0000000000001
 20
485.8857040441101
 30
0.0
 11
261.35
 21
485.8857040441101
 31
0.0
  0
LINE
  5
25A
330
1F
100
AcDbEntity
  8
図
  6
CONTINUOUS
 62
     7
100
AcDbLine
 10
676.3065162692
 20
978.0000000000003
 30
0.0
 11
162.0
 21
978.0000000000003
 31
0.0
  0
LINE
  5
25B
330
1F
100
AcDbEntity
  8
図
  6
EXLTYPE3
 62
     6
100
AcDbLine
 10
479.2999999999901
 20
961.2000000000002
 30
0.0
 11
427.25
 21
961.2000000000002
 31
0.0
  0
LINE
  5
25C
330
1F
100
AcDbEntity
  8
図
  6
EXLTYPE3
 62
     6
100
AcDbLine
 10
279.8999999999812
 20
961.2000000000002
 30
0.0
 11
332.25
 21
961.2000000000002
 31
0.0
  0
DIMENSION
  5
25D
330
1F
100
AcDbEntity
  8
図
  6
CONTINUOUS
 62
     3
100
AcDbDimension
  2
*D18
 10
270.5
 20
909.0
 30
0.0
 11
258.7500000298024
 21
826.4000000000001
 31
0.0
 70
   160
  1
%%c<>
 53
90.00000000000001
  3
ISO-25
100
AcDbAlignedDimension
 13
245.18654075261
 23
918.2
 33
0.0
 14
246.25
 24
909.0
 34
0.0
 50
90.0
100
AcDbRotatedDimension
1001
ACAD
1000
DSTYLE
1002
{
1070
   270
1070
     2
1070
     6
1000
EX_NORM
1070
     7
1000
EX_NORM
1070
    41
1040
15.0
1070
    42
1040
0.0
1070
    44
1040
0.0
1070
    73
1070
     0
1070
    74
1070
     0
1070
    75
1070
     1
1070
    76
1070
     1
1070
    77
1070
     1
1070
    78
1070
     0
1070
   140
1040
20.0
1070
   147
1040
0.0
1070
   173
1070
     1
1070
   176
1070
     3
1070
   177
1070
     3
1070
   178
1070
     2
1070
   271
1070
     1
1070
   277
1070
     2
1070
   279
1070
     2
1070
   280
1070
     0
1070
   287
1070
     5
1070
   340
1005
158
1002
}
  0
DIMENSION
  5
26A
330
1F
100
AcDbEntity
  8
図
  6
CONTINUOUS
 62
     3
100
AcDbDimension
  2
*D19
 10
523.4999999999899
 20
832.5
 30
0.0
 11
455.9999999999901
 21
844.2499999701977
 31
0.0
 70
   160
  3
ISO-25
100
AcDbAlignedDimension
 13
388.4999999999899
 23
867.0
 33
0.0
 14
523.4999999999899
 24
863.5000000596001
 34
0.0
100
AcDbRotatedDimension
1001
ACAD
1000
DSTYLE
1002
{
1070
   270
1070
     2
1070
     6
1000
EX_NORM
1070
     7
1000
EX_NORM
1070
    41
1040
15.0
1070
    42
1040
3.499999940395355
1070
    44
1040
5.0
1070
    73
1070
     0
1070
    74
1070
     0
1070
    75
1070
     0
1070
    76
1070
     1
1070
    77
1070
     1
1070
    78
1070
     0
1070
   140
1040
20.0
1070
   147
1040
0.0
1070
   173
1070
     1
1070
   176
1070
     3
1070
   177
1070
     3
1070
   178
1070
     2
1070
   271
1070
     0
1070
   277
1070
     2
1070
   279
1070
     2
1070
   280
1070
     0
1070
   287
1070
     5
1070
   340
1005
158
1002
}
  0
CIRCLE
  5
276
330
1F
100
AcDbEntity
  8
図
  6
EXLTYPE4
 62
     3
100
AcDbCircle
 10
755.8
 20
445.8857040441001
 30
0.0
 40
19.0
  0
CIRCLE
  5
277
330
1F
100
AcDbEntity
  8
図
  6
EXLTYPE4
 62
     3
100
AcDbCircle
 10
755.8
 20
445.8857040441001
 30
0.0
 40
60.0
  0
DIMENSION
  5
278
330
1F
100
AcDbEntity
  8
図
  6
CONTINUOUS
 62
     3
100
AcDbDimension
  2
*D20
 10
545.19665789785
 20
405.0
 30
0.0
 11
379.599054332825
 21
416.7499999701977
 31
0.0
 70
   160
  1
（331）
  3
ISO-25
100
AcDbAlignedDimension
 13
214.0014507678
 23
470.85973586201
 33
0.0
 14
545.19665789785
 24
470.54830915949
 34
0.0
100
AcDbRotatedDimension
1001
ACAD
1000
DSTYLE
1002
{
1070
   270
1070
     2
1070
     6
1000
EX_NORM
1070
     7
1000
EX_NORM
1070
    41
1040
15.0
1070
    42
1040
3.499999940395355
1070
    44
1040
5.0
1070
    73
1070
     0
1070
    74
1070
     0
1070
    75
1070
     0
1070
    76
1070
     0
1070
    77
1070
     1
1070
    78
1070
     0
1070
   140
1040
20.0
1070
   147
1040
0.0
1070
   173
1070
     1
1070
   176
1070
     3
1070
   177
1070
     3
1070
   178
1070
     2
1070
   271
1070
     0
1070
   277
1070
     2
1070
   279
1070
     2
1070
   280
1070
     0
1070
   287
1070
     5
1070
   340
1005
158
1002
}
  0
LINE
  5
285
330
1F
100
AcDbEntity
  8
図
  6
CONTINUOUS
 62
     2
100
AcDbLine
 10
808.7043783823505
 20
507.1553154720294
 30
0.0
 11
743.7142781971901
 21
506.020909053606
 31
0.0
  0
LINE
  5
286
330
1F
100
AcDbEntity
  8
図
  6
CONTINUOUS
 62
     2
100
AcDbLine
 10
808.6764545320508
 20
508.75507178428
 30
0.0
 11
744.2969394563091
 21
507.6313231685857
 31
0.0
  0
ARC
  5
287
330
1F
100
AcDbEntity
  8
図
  6
CONTINUOUS
 62
     2
100
AcDbCircle
 10
745.197483628473
 20
456.0391820985156
 30
0.0
 40
51.6
100
AcDbArc
 50
91.00000000000014
 51
136.0000000000105
  0
ARC
  5
288
330
1F
100
AcDbEntity
  8
図
  6
CONTINUOUS
 62
     2
100
AcDbCircle
 10
745.197483628473
 20
456.0391820985156
 30
0.0
 40
50.0
100
AcDbArc
 50
91.00000000000014
 51
136.0000000000105
  0
LINE
  5
289
330
1F
100
AcDbEntity
  8
図
  6
CONTINUOUS
 62
     2
100
AcDbLine
 10
701.1204874128791
 20
482.3739433577192
 30
0.0
 11
699.9695437323356
 21
483.4853967504549
 31
0.0
  0
LINE
  5
28A
330
1F
100
AcDbEntity
  8
図
  6
CONTINUOUS
 62
     2
100
AcDbLine
 10
708.5236845269822
 20
492.3434688517481
 30
0.0
 11
699.9695437323351
 21
483.4853967504554
 31
0.0
  0
LINE
  5
28B
330
1F
100
AcDbEntity
  8
図
  6
CONTINUOUS
 62
     2
100
AcDbLine
 10
701.1204874128791
 20
482.3739433577192
 30
0.0
 11
709.2304936115323
 21
490.7721006214573
 31
0.0
  0
LINE
  5
28C
330
1F
100
AcDbEntity
  8
図
  6
CONTINUOUS
 62
     2
100
AcDbLine
 10
808.6764545320508
 20
508.75507178428
 30
0.0
 11
808.7043783823505
 21
507.1553154720294
 31
0.0
  0
TEXT
  5
28D
330
1F
100
AcDbEntity
  8
図
  6
CONTINUOUS
 62
     2
100
AcDbText
 10
747.0382912331758
 20
562.6875516842565
 30
0.0
 40
20.0
  1
１.６
 50
270.9999999999935
 41
0.9767441860465116
  7
EXCADSTD
 72
     5
 11
747.7363874906625
 21
522.6936438780008
 31
0.0
100
AcDbText
  0
LINE
  5
28E
330
1F
100
AcDbEntity
  8
図
  6
CONTINUOUS
 62
     3
100
AcDbLine
 10
746.5381500973508
 20
491.0679150003131
 30
0.0
 11
745.2580160518966
 21
564.4067453470936
 31
0.0
  0
LINE
  5
28F
330
1F
100
AcDbEntity
  8
図
  6
CONTINUOUS
 62
     3
100
AcDbLine
 10
749.0377693352423
 20
491.1115460164061
 30
0.0
 11
746.2763640007933
 21
506.065630427659
 31
0.0
  0
LINE
  5
290
330
1F
100
AcDbEntity
  8
図
  6
CONTINUOUS
 62
     3
100
AcDbLine
 10
746.2763640007933
 20
506.065630427659
 30
0.0
 11
744.0385308594604
 21
491.0242839842201
 31
0.0
  0
LINE
  5
291
330
1F
100
AcDbEntity
  8
図
  6
CONTINUOUS
 62
     3
100
AcDbLine
 10
743.4870348160447
 20
522.6194711511631
 30
0.0
 11
746.2484401504937
 21
507.6653867399102
 31
0.0
  0
LINE
  5
292
330
1F
100
AcDbEntity
  8
図
  6
CONTINUOUS
 62
     3
100
AcDbLine
 10
746.2484401504937
 20
507.6653867399102
 30
0.0
 11
748.4862732918266
 21
522.7067331833491
 31
0.0
  0
LINE
  5
293
330
1F
100
AcDbEntity
  8
図
  6
CONTINUOUS
 62
     2
100
AcDbLine
 10
818.7970134871802
 20
496.0357040441001
 30
0.0
 11
817.5
 21
493.3857040441001
 31
0.0
  0
LINE
  5
294
330
1F
100
AcDbEntity
  8
図
  6
CONTINUOUS
 62
     2
100
AcDbLine
 10
818.8
 20
501.7835511830601
 30
0.0
 11
817.5
 21
504.3857040441001
 31
0.0
  0
LINE
  5
295
330
1F
100
AcDbEntity
  8
図
  6
CONTINUOUS
 62
     2
100
AcDbLine
 10
820.8000000000001
 20
505.8857040441001
 30
0.0
 11
817.5000000000002
 21
505.8857040441001
 31
0.0
  0
LINE
  5
296
330
1F
100
AcDbEntity
  8
図
  6
CONTINUOUS
 62
     2
100
AcDbLine
 10
820.8000000000001
 20
496.0357040441001
 30
0.0
 11
818.7970134871802
 21
496.0357040441001
 31
0.0
  0
ARC
  5
297
330
1F
100
AcDbEntity
  8
図
  6
CONTINUOUS
 62
     6
100
AcDbCircle
 10
852.6190860659394
 20
498.8721720252369
 30
0.0
 40
2.0
100
AcDbArc
 50
61.6069805786228
 51
90.00000000000001
  0
ARC
  5
298
330
1F
100
AcDbEntity
  8
図
  6
CONTINUOUS
 62
     6
100
AcDbCircle
 10
852.6190860659394
 20
498.8721720252369
 30
0.0
 40
2.0
100
AcDbArc
 50
270.0000000000002
 51
298.3930194213758
  0
LINE
  5
299
330
1F
100
AcDbEntity
  8
図
  6
CONTINUOUS
 62
     6
100
AcDbLine
 10
853.5701201346697
 20
500.6315850523891
 30
0.0
 11
856.825034234902
 21
498.8721720252369
 31
0.0
  0
LINE
  5
29A
330
1F
100
AcDbEntity
  8
図
  6
CONTINUOUS
 62
     6
100
AcDbLine
 10
820.8000000000019
 20
500.8721720252368
 30
0.0
 11
852.6190860659394
 21
500.8721720252368
 31
0.0
  0
LINE
  5
29B
330
1F
100
AcDbEntity
  8
図
  6
CONTINUOUS
 62
     6
100
AcDbLine
 10
853.5701201346697
 20
497.1127589980847
 30
0.0
 11
856.825034234902
 21
498.8721720252369
 31
0.0
  0
LINE
  5
29C
330
1F
100
AcDbEntity
  8
図
  6
CONTINUOUS
 62
     6
100
AcDbLine
 10
820.8000000000019
 20
496.872172025237
 30
0.0
 11
852.6190860659394
 21
496.872172025237
 31
0.0
  0
LINE
  5
29D
330
1F
100
AcDbEntity
  8
図
  6
EXLTYPE2
 62
     2
100
AcDbLine
 10
820.8000000000001
 20
501.7835511830601
 30
0.0
 11
818.8
 21
501.7835511830601
 31
0.0
  0
LINE
  5
29E
330
1F
100
AcDbEntity
  8
図
  6
EXLTYPE3
 62
     6
100
AcDbLine
 10
858.47
 20
498.8857040441002
 30
0.0
 11
814.7759379442501
 21
498.8857040441002
 31
0.0
  0
LINE
  5
29F
330
1F
100
AcDbEntity
  8
図
  6
CONTINUOUS
 62
     2
100
AcDbLine
 10
820.8000000000002
 20
465.8857040441196
 30
0.0
 11
817.5000000000001
 21
465.8857040441196
 31
0.0
  0
LINE
  5
2A0
330
1F
100
AcDbEntity
  8
図
  6
CONTINUOUS
 62
     7
100
AcDbLine
 10
820.8000000000001
 20
435.9571720252501
 30
0.0
 11
820.7999999999998
 21
699.5
 31
0.0
  0
LINE
  5
2A1
330
1F
100
AcDbEntity
  8
図
  6
CONTINUOUS
 62
     2
100
AcDbLine
 10
817.5000000000002
 20
465.8857040441196
 30
0.0
 11
817.5000000000002
 21
505.8857040441001
 31
0.0
  0
LINE
  5
2A2
330
1F
100
AcDbEntity
  8
図
  6
CONTINUOUS
 62
     2
100
AcDbLine
 10
818.7970134871802
 20
475.7357040441196
 30
0.0
 11
817.5
 21
478.3857040441196
 31
0.0
  0
LINE
  5
2A3
330
1F
100
AcDbEntity
  8
図
  6
CONTINUOUS
 62
     2
100
AcDbLine
 10
818.8
 20
469.9878569051596
 30
0.0
 11
817.5
 21
467.3857040441196
 31
0.0
  0
LINE
  5
2A4
330
1F
100
AcDbEntity
  8
図
  6
CONTINUOUS
 62
     2
100
AcDbLine
 10
820.8000000000001
 20
475.7357040441196
 30
0.0
 11
818.7970134871802
 21
475.7357040441196
 31
0.0
  0
ARC
  5
2A5
330
1F
100
AcDbEntity
  8
図
  6
CONTINUOUS
 62
     6
100
AcDbCircle
 10
852.6190860659394
 20
472.8992360629828
 30
0.0
 40
2.0
100
AcDbArc
 50
270.0
 51
298.3930194213779
  0
ARC
  5
2A6
330
1F
100
AcDbEntity
  8
図
  6
CONTINUOUS
 62
     6
100
AcDbCircle
 10
852.6190860659394
 20
472.8992360629828
 30
0.0
 40
2.0
100
AcDbArc
 50
61.6069805786257
 51
90.00000000000001
  0
LINE
  5
2A7
330
1F
100
AcDbEntity
  8
図
  6
CONTINUOUS
 62
     6
100
AcDbLine
 10
853.5701201346697
 20
471.1398230358306
 30
0.0
 11
856.825034234902
 21
472.8992360629828
 31
0.0
  0
LINE
  5
2A8
330
1F
100
AcDbEntity
  8
図
  6
CONTINUOUS
 62
     6
100
AcDbLine
 10
820.8000000000019
 20
470.8992360629829
 30
0.0
 11
852.6190860659394
 21
470.8992360629829
 31
0.0
  0
LINE
  5
2A9
330
1F
100
AcDbEntity
  8
図
  6
CONTINUOUS
 62
     6
100
AcDbLine
 10
853.5701201346697
 20
474.658649090135
 30
0.0
 11
856.825034234902
 21
472.8992360629828
 31
0.0
  0
LINE
  5
2AA
330
1F
100
AcDbEntity
  8
図
  6
CONTINUOUS
 62
     6
100
AcDbLine
 10
820.8000000000019
 20
474.8992360629828
 30
0.0
 11
852.6190860659394
 21
474.8992360629828
 31
0.0
  0
LINE
  5
2AB
330
1F
100
AcDbEntity
  8
図
  6
EXLTYPE2
 62
     2
100
AcDbLine
 10
820.8000000000001
 20
469.9878569051596
 30
0.0
 11
818.8
 21
469.9878569051596
 31
0.0
  0
LINE
  5
2AC
330
1F
100
AcDbEntity
  8
図
  6
EXLTYPE3
 62
     6
100
AcDbLine
 10
858.47
 20
472.8857040441194
 30
0.0
 11
814.7759379442501
 21
472.8857040441194
 31
0.0
  0
LINE
  5
2AD
330
1F
100
AcDbEntity
  8
図
  6
EXLTYPE3
 62
     6
100
AcDbLine
 10
825.9
 20
485.8857040441098
 30
0.0
 11
815.9
 21
485.8857040441098
 31
0.0
  0
DIMENSION
  5
2AE
330
1F
100
AcDbEntity
  8
図
  6
CONTINUOUS
 62
     3
100
AcDbDimension
  2
*D21
 10
888.6500000000001
 20
498.95
 30
0.0
 11
876.9000000298025
 21
531.4499999999998
 31
0.0
 70
   160
  3
ISO-25
100
AcDbAlignedDimension
 13
858.47
 23
472.88570404412
 33
0.0
 14
859.1
 24
498.95
 34
0.0
 50
90.0
100
AcDbRotatedDimension
1001
ACAD
1000
DSTYLE
1002
{
1070
   270
1070
     2
1070
     6
1000
EX_NORM
1070
     7
1000
EX_NORM
1070
    41
1040
15.0
1070
    42
1040
3.499999940395355
1070
    44
1040
5.0
1070
    73
1070
     0
1070
    74
1070
     0
1070
    75
1070
     0
1070
    76
1070
     0
1070
    77
1070
     1
1070
    78
1070
     0
1070
   140
1040
20.0
1070
   147
1040
0.0
1070
   173
1070
     1
1070
   176
1070
     3
1070
   177
1070
     3
1070
   178
1070
     2
1070
   271
1070
     0
1070
   277
1070
     2
1070
   279
1070
     2
1070
   280
1070
     2
1070
   287
1070
     5
1070
   340
1005
158
1002
}
  0
DIMENSION
  5
2BD
330
1F
100
AcDbEntity
  8
図
  6
CONTINUOUS
 62
     3
100
AcDbDimension
  2
*D22
 10
913.95
 20
505.8857040441001
 30
0.0
 11
902.2000000298025
 21
538.3857040440998
 31
0.0
 70
   160
  3
ISO-25
100
AcDbAlignedDimension
 13
820.8
 23
465.88570404412
 33
0.0
 14
820.8
 24
505.8857040441001
 34
0.0
 50
90.0
100
AcDbRotatedDimension
1001
ACAD
1000
DSTYLE
1002
{
1070
   270
1070
     2
1070
     6
1000
EX_NORM
1070
     7
1000
EX_NORM
1070
    41
1040
15.0
1070
    42
1040
3.499999940395355
1070
    44
1040
5.0
1070
    73
1070
     0
1070
    74
1070
     0
1070
    75
1070
     0
1070
    76
1070
     0
1070
    77
1070
     1
1070
    78
1070
     0
1070
   140
1040
20.0
1070
   147
1040
0.0
1070
   173
1070
     1
1070
   176
1070
     3
1070
   177
1070
     3
1070
   178
1070
     2
1070
   271
1070
     0
1070
   277
1070
     2
1070
   279
1070
     2
1070
   280
1070
     2
1070
   287
1070
     5
1070
   340
1005
158
1002
}
  0
CIRCLE
  5
2CA
330
1F
100
AcDbEntity
  8
図
  6
CONTINUOUS
 62
     2
100
AcDbCircle
 10
480.1000000000001
 20
498.8857040441002
 30
0.0
 40
2.897847138959947
  0
CIRCLE
  5
2CB
330
1F
100
AcDbEntity
  8
図
  6
EXLTYPE1
 62
     6
100
AcDbCircle
 10
480.1000000000001
 20
498.8857040441002
 30
0.0
 40
5.5
  0
LINE
  5
2CC
330
1F
100
AcDbEntity
  8
図
  6
EXLTYPE3
 62
     6
100
AcDbLine
 10
488.4500000000001
 20
498.8857040441001
 30
0.0
 11
471.05
 21
498.8857040441001
 31
0.0
  0
CIRCLE
  5
2CD
330
1F
100
AcDbEntity
  8
図
  6
EXLTYPE1
 62
     6
100
AcDbCircle
 10
279.09999999998
 20
498.8857040441006
 30
0.0
 40
5.5
  0
CIRCLE
  5
2CE
330
1F
100
AcDbEntity
  8
図
  6
CONTINUOUS
 62
     2
100
AcDbCircle
 10
279.09999999998
 20
498.8857040441006
 30
0.0
 40
2.897847138959947
  0
LINE
  5
2CF
330
1F
100
AcDbEntity
  8
図
  6
EXLTYPE1
 62
     2
100
AcDbLine
 10
368.23134478303
 20
505.8857040441002
 30
0.0
 11
272.1000000000004
 21
505.8857040441002
 31
0.0
  0
LINE
  5
2D0
330
1F
100
AcDbEntity
  8
図
  6
CONTINUOUS
 62
     2
100
AcDbLine
 10
390.9686552169501
 20
505.8857040441002
 30
0.0
 11
368.23134478303
 21
505.8857040441002
 31
0.0
  0
LINE
  5
2D1
330
1F
100
AcDbEntity
  8
図
  6
EXLTYPE1
 62
     2
100
AcDbLine
 10
487.1000000000001
 20
505.8857040441002
 30
0.0
 11
390.9686552169501
 21
505.8857040441002
 31
0.0
  0
LINE
  5
2D2
330
1F
100
AcDbEntity
  8
図
  6
EXLTYPE1
 62
     6
100
AcDbLine
 10
488.4500000000001
 20
472.8857040441201
 30
0.0
 11
471.05
 21
472.8857040441201
 31
0.0
  0
LINE
  5
2D3
330
1F
100
AcDbEntity
  8
図
  6
EXLTYPE1
 62
     6
100
AcDbLine
 10
270.7499999999799
 20
472.8857040441206
 30
0.0
 11
288.14999999998
 21
472.8857040441205
 31
0.0
  0
ARC
  5
2D4
330
1F
100
AcDbEntity
  8
図
  6
CONTINUOUS
 62
     2
100
AcDbCircle
 10
513.4999999999902
 20
492.3739433577201
 30
0.0
 40
10.0
100
AcDbArc
 50
270.0
 51
0.0
  0
LINE
  5
2D5
330
1F
100
AcDbEntity
  8
図
  6
CONTINUOUS
 62
     2
100
AcDbLine
 10
398.4999999999901
 20
482.37394335772
 30
0.0
 11
513.4999999999902
 21
482.37394335772
 31
0.0
  0
ARC
  5
2D6
330
1F
100
AcDbEntity
  8
図
  6
CONTINUOUS
 62
     2
100
AcDbCircle
 10
398.49999999999
 20
492.3739433577201
 30
0.0
 40
10.0
100
AcDbArc
 50
180.0
 51
270.0
  0
ARC
  5
2D7
330
1F
100
AcDbEntity
  8
図
  6
CONTINUOUS
 62
     2
100
AcDbCircle
 10
360.69999999999
 20
492.3739433577202
 30
0.0
 40
10.0
100
AcDbArc
 50
270.0
 51
0.0
  0
LINE
  5
2D8
330
1F
100
AcDbEntity
  8
図
  6
CONTINUOUS
 62
     2
100
AcDbLine
 10
360.6999999999899
 20
482.3739433577201
 30
0.0
 11
245.6999999999897
 21
482.3739433577205
 31
0.0
  0
ARC
  5
2D9
330
1F
100
AcDbEntity
  8
図
  6
CONTINUOUS
 62
     2
100
AcDbCircle
 10
245.6999999999898
 20
492.3739433577206
 30
0.0
 40
10.0
100
AcDbArc
 50
179.9999999999997
 51
269.9999999999997
  0
LINE
  5
2DA
330
1F
100
AcDbEntity
  8
図
  6
CONTINUOUS
 62
     2
100
AcDbLine
 10
235.6999999999898
 20
492.3739433577207
 30
0.0
 11
235.6999999999899
 21
499.5070380882406
 31
0.0
  0
LINE
  5
2DB
330
1F
100
AcDbEntity
  8
図
  6
CONTINUOUS
 62
     2
100
AcDbLine
 10
523.4999999999902
 20
492.3739433577201
 30
0.0
 11
523.4999999999902
 21
499.5070380882401
 31
0.0
  0
LINE
  5
2DC
330
1F
100
AcDbEntity
  8
図
  6
CONTINUOUS
 62
     2
100
AcDbLine
 10
511.2763502014943
 20
464.8857040441001
 30
0.0
 11
247.92364979849
 21
464.8857040441001
 31
0.0
  0
LINE
  5
2DD
330
1F
100
AcDbEntity
  8
図
  6
CONTINUOUS
 62
     2
100
AcDbLine
 10
369.5999999999898
 20
488.7193236496801
 30
0.0
 11
369.5999999999898
 21
464.8857040441001
 31
0.0
  0
LINE
  5
2DE
330
1F
100
AcDbEntity
  8
図
  6
CONTINUOUS
 62
     2
100
AcDbLine
 10
389.5999999999901
 20
488.7193236496801
 30
0.0
 11
389.5999999999901
 21
464.8857040441001
 31
0.0
  0
LINE
  5
2DF
330
1F
100
AcDbEntity
  8
図
  6
CONTINUOUS
 62
     2
100
AcDbLine
 10
487.1000000000001
 20
465.8857040441203
 30
0.0
 11
389.59999999999
 21
465.8857040441124
 31
0.0
  0
LINE
  5
2E0
330
1F
100
AcDbEntity
  8
図
  6
CONTINUOUS
 62
     2
100
AcDbLine
 10
369.59999999999
 20
465.8857040441202
 30
0.0
 11
272.1
 21
465.8857040441202
 31
0.0
  0
LINE
  5
2E1
330
1F
100
AcDbEntity
  8
図
  6
CONTINUOUS
 62
     2
100
AcDbLine
 10
370.69999999999
 20
492.3739433577202
 30
0.0
 11
370.69999999999
 21
499.5070380882403
 31
0.0
  0
LINE
  5
2E2
330
1F
100
AcDbEntity
  8
図
  6
CONTINUOUS
 62
     2
100
AcDbLine
 10
388.4999999999901
 20
492.21
 30
0.0
 11
388.4999999999901
 21
499.5070380882403
 31
0.0
  0
LINE
  5
2E3
330
1F
100
AcDbEntity
  8
図
  6
EXLTYPE1
 62
     2
100
AcDbLine
 10
272.09999999998
 20
482.37394335772
 30
0.0
 11
272.09999999998
 21
505.8857040441002
 31
0.0
  0
LINE
  5
2E4
330
1F
100
AcDbEntity
  8
図
  6
EXLTYPE1
 62
     2
100
AcDbLine
 10
487.1
 20
482.37394335772
 30
0.0
 11
487.1000000000001
 21
505.8857040441002
 31
0.0
  0
LINE
  5
2E5
330
1F
100
AcDbEntity
  8
図
  6
CONTINUOUS
 62
     2
100
AcDbLine
 10
487.1
 20
465.88570404412
 30
0.0
 11
487.1
 21
482.37394335772
 31
0.0
  0
CIRCLE
  5
2E6
330
1F
100
AcDbEntity
  8
図
  6
CONTINUOUS
 62
     6
100
AcDbCircle
 10
480.1000000000001
 20
472.88570404412
 30
0.0
 40
5.5
  0
CIRCLE
  5
2E7
330
1F
100
AcDbEntity
  8
図
  6
CONTINUOUS
 62
     2
100
AcDbCircle
 10
480.1000000000001
 20
472.88570404412
 30
0.0
 40
2.897847138959947
  0
CIRCLE
  5
2E8
330
1F
100
AcDbEntity
  8
図
  6
CONTINUOUS
 62
     6
100
AcDbCircle
 10
279.0999999999799
 20
472.8857040441204
 30
0.0
 40
5.5
  0
CIRCLE
  5
2E9
330
1F
100
AcDbEntity
  8
図
  6
CONTINUOUS
 62
     2
100
AcDbCircle
 10
279.0999999999799
 20
472.8857040441204
 30
0.0
 40
2.897847138959947
  0
LINE
  5
2EA
330
1F
100
AcDbEntity
  8
図
  6
CONTINUOUS
 62
     2
100
AcDbLine
 10
272.09999999998
 20
465.8857040441202
 30
0.0
 11
272.0999999999797
 21
482.37394335772
 31
0.0
  0
LINE
  5
2EB
330
1F
100
AcDbEntity
  8
図
  6
CONTINUOUS
 62
     2
100
AcDbLine
 10
437.4000000000003
 20
476.9857040441111
 30
0.0
 11
439.9000000000003
 21
476.9857040441107
 31
0.0
  0
LINE
  5
2EC
330
1F
100
AcDbEntity
  8
図
  6
CONTINUOUS
 62
     2
100
AcDbLine
 10
471.0999999999901
 20
476.9857040441111
 30
0.0
 11
468.5999999999901
 21
476.9857040441107
 31
0.0
  0
LINE
  5
2ED
330
1F
100
AcDbEntity
  8
図
  6
CONTINUOUS
 62
     2
100
AcDbLine
 10
321.7999999999798
 20
476.9857040441113
 30
0.0
 11
319.2999999999798
 21
476.9857040441109
 31
0.0
  0
LINE
  5
2EE
330
1F
100
AcDbEntity
  8
図
  6
CONTINUOUS
 62
     2
100
AcDbLine
 10
288.0999999999899
 20
476.9857040441115
 30
0.0
 11
290.5999999999899
 21
476.985704044111
 31
0.0
  0
LINE
  5
2EF
330
1F
100
AcDbEntity
  8
図
  6
CONTINUOUS
 62
     2
100
AcDbLine
 10
288.0999999999899
 20
476.9857040441104
 30
0.0
 11
288.0999999999899
 21
482.3739433577201
 31
0.0
  0
LINE
  5
2F0
330
1F
100
AcDbEntity
  8
図
  6
CONTINUOUS
 62
     2
100
AcDbLine
 10
290.5999999999899
 20
476.9857040441104
 30
0.0
 11
290.5999999999899
 21
482.3739433577201
 31
0.0
  0
LINE
  5
2F1
330
1F
100
AcDbEntity
  8
図
  6
CONTINUOUS
 62
     2
100
AcDbLine
 10
319.3999999999897
 20
476.9857040441104
 30
0.0
 11
319.3999999999897
 21
482.3739433577201
 31
0.0
  0
LINE
  5
2F2
330
1F
100
AcDbEntity
  8
図
  6
CONTINUOUS
 62
     2
100
AcDbLine
 10
321.8999999999897
 20
476.9857040441104
 30
0.0
 11
321.8999999999897
 21
482.3739433577201
 31
0.0
  0
LINE
  5
2F3
330
1F
100
AcDbEntity
  8
図
  6
CONTINUOUS
 62
     2
100
AcDbLine
 10
437.2999999999903
 20
476.9857040441102
 30
0.0
 11
437.2999999999903
 21
482.37394335772
 31
0.0
  0
LINE
  5
2F4
330
1F
100
AcDbEntity
  8
図
  6
CONTINUOUS
 62
     2
100
AcDbLine
 10
468.5999999999901
 20
476.9857040441102
 30
0.0
 11
468.5999999999901
 21
482.37394335772
 31
0.0
  0
LINE
  5
2F5
330
1F
100
AcDbEntity
  8
図
  6
CONTINUOUS
 62
     2
100
AcDbLine
 10
471.0999999999901
 20
476.9857040441102
 30
0.0
 11
471.0999999999901
 21
482.37394335772
 31
0.0
  0
LINE
  5
2F6
330
1F
100
AcDbEntity
  8
図
  6
CONTINUOUS
 62
     2
100
AcDbLine
 10
439.7999999999903
 20
476.9857040441102
 30
0.0
 11
439.7999999999903
 21
482.37394335772
 31
0.0
  0
LINE
  5
2F7
330
1F
100
AcDbEntity
  8
図
  6
EXLTYPE1
 62
     2
100
AcDbLine
 10
288.0999999999899
 20
482.37394335772
 30
0.0
 11
288.09999999999
 21
506.5857040441103
 31
0.0
  0
LINE
  5
2F8
330
1F
100
AcDbEntity
  8
図
  6
EXLTYPE1
 62
     2
100
AcDbLine
 10
290.5999999999899
 20
482.37394335772
 30
0.0
 11
290.59999999999
 21
506.5857040441103
 31
0.0
  0
LINE
  5
2F9
330
1F
100
AcDbEntity
  8
図
  6
EXLTYPE1
 62
     2
100
AcDbLine
 10
319.3999999999897
 20
482.37394335772
 30
0.0
 11
319.3999999999899
 21
506.5857040441102
 31
0.0
  0
LINE
  5
2FA
330
1F
100
AcDbEntity
  8
図
  6
EXLTYPE1
 62
     2
100
AcDbLine
 10
321.8999999999897
 20
482.37394335772
 30
0.0
 11
321.8999999999899
 21
506.5857040441102
 31
0.0
  0
LINE
  5
2FB
330
1F
100
AcDbEntity
  8
図
  6
EXLTYPE1
 62
     2
100
AcDbLine
 10
437.2999999999903
 20
482.37394335772
 30
0.0
 11
437.2999999999903
 21
506.58570404411
 31
0.0
  0
LINE
  5
2FC
330
1F
100
AcDbEntity
  8
図
  6
EXLTYPE1
 62
     2
100
AcDbLine
 10
439.7999999999903
 20
482.37394335772
 30
0.0
 11
439.7999999999903
 21
506.58570404411
 31
0.0
  0
LINE
  5
2FD
330
1F
100
AcDbEntity
  8
図
  6
EXLTYPE1
 62
     2
100
AcDbLine
 10
468.5999999999901
 20
482.37394335772
 30
0.0
 11
468.5999999999901
 21
506.58570404411
 31
0.0
  0
LINE
  5
2FE
330
1F
100
AcDbEntity
  8
図
  6
EXLTYPE1
 62
     2
100
AcDbLine
 10
471.0999999999901
 20
482.37394335772
 30
0.0
 11
471.0999999999901
 21
506.58570404411
 31
0.0
  0
ARC
  5
2FF
330
1F
100
AcDbEntity
  8
図
  6
CONTINUOUS
 62
     2
100
AcDbCircle
 10
398.4999999999899
 20
867.0000000000002
 30
0.0
 40
10.0
100
AcDbArc
 50
180.0
 51
270.0
  0
ARC
  5
300
330
1F
100
AcDbEntity
  8
図
  6
CONTINUOUS
 62
     2
100
AcDbCircle
 10
513.49999999999
 20
867.0000000000002
 30
0.0
 40
10.0
100
AcDbArc
 50
270.0
 51
0.0
  0
LINE
  5
301
330
1F
100
AcDbEntity
  8
図
  6
CONTINUOUS
 62
     2
100
AcDbLine
 10
513.49999999999
 20
857.0000000000002
 30
0.0
 11
398.7863018430799
 21
857.0000000000002
 31
0.0
  0
LINE
  5
302
330
1F
100
AcDbEntity
  8
図
  6
CONTINUOUS
 62
     2
100
AcDbLine
 10
388.4999999999898
 20
867.0000000000002
 30
0.0
 11
388.4999999999899
 21
955.1100000000002
 31
0.0
  0
LINE
  5
303
330
1F
100
AcDbEntity
  8
図
  6
CONTINUOUS
 62
     2
100
AcDbLine
 10
523.4999999999899
 20
867.0000000000002
 30
0.0
 11
523.49999999999
 21
954.8000000000003
 31
0.0
  0
ARC
  5
304
330
1F
100
AcDbEntity
  8
図
  6
CONTINUOUS
 62
     2
100
AcDbCircle
 10
360.7000000000012
 20
867.0000000000002
 30
0.0
 40
10.0
100
AcDbArc
 50
270.0
 51
0.0
  0
ARC
  5
305
330
1F
100
AcDbEntity
  8
図
  6
CONTINUOUS
 62
     2
100
AcDbCircle
 10
245.7000000000011
 20
867.0000000000002
 30
0.0
 40
10.0
100
AcDbArc
 50
180.0
 51
270.0
  0
LINE
  5
306
330
1F
100
AcDbEntity
  8
図
  6
CONTINUOUS
 62
     2
100
AcDbLine
 10
245.7000000000011
 20
857.0000000000002
 30
0.0
 11
360.4136981569112
 21
857.0000000000002
 31
0.0
  0
LINE
  5
307
330
1F
100
AcDbEntity
  8
図
  6
CONTINUOUS
 62
     2
100
AcDbLine
 10
370.7000000000012
 20
867.0000000000002
 30
0.0
 11
370.7000000000014
 21
955.1100000000002
 31
0.0
  0
LINE
  5
308
330
1F
100
AcDbEntity
  8
図
  6
CONTINUOUS
 62
     2
100
AcDbLine
 10
235.7000000000012
 20
867.0000000000002
 30
0.0
 11
235.7000000000013
 21
954.8000000000003
 31
0.0
  0
DIMENSION
  5
309
330
1F
100
AcDbEntity
  8
図
  6
CONTINUOUS
 62
     3
100
AcDbDimension
  2
*D23
 10
820.8
 20
597.0
 30
0.0
 11
760.38477186617
 21
608.7499999701977
 31
0.0
 70
   160
  1
（120）
  3
ISO-25
100
AcDbAlignedDimension
 13
699.96954373234
 23
483.48539675046
 33
0.0
 14
820.8
 24
518.05
 34
0.0
100
AcDbRotatedDimension
1001
ACAD
1000
DSTYLE
1002
{
1070
   270
1070
     2
1070
     6
1000
EX_NORM
1070
     7
1000
EX_NORM
1070
    41
1040
15.0
1070
    42
1040
3.499999940395355
1070
    44
1040
5.0
1070
    73
1070
     0
1070
    74
1070
     0
1070
    75
1070
     0
1070
    76
1070
     1
1070
    77
1070
     1
1070
    78
1070
     0
1070
   140
1040
20.0
1070
   147
1040
0.0
1070
   173
1070
     1
1070
   176
1070
     3
1070
   177
1070
     3
1070
   178
1070
     2
1070
   271
1070
     0
1070
   277
1070
     2
1070
   279
1070
     2
1070
   280
1070
     0
1070
   287
1070
     5
1070
   340
1005
158
1002
}
  0
DIMENSION
  5
315
330
1F
100
AcDbEntity
  8
図
  6
CONTINUOUS
 62
     3
100
AcDbDimension
  2
*D24
 10
755.8
 20
445.8857040441001
 30
0.0
 11
695.6242015313373
 21
365.158163650759
 31
0.0
 70
   164
  3
ISO-25
100
AcDbRadialDimension
 15
725.7999999999967
 25
393.9241798170356
 35
0.0
 40
0.0
1001
ACAD
1000
DSTYLE
1002
{
1070
   270
1070
     2
1070
     6
1000
EX_NORM
1070
     7
1000
EX_NORM
1070
    41
1040
15.0
1070
    73
1070
     0
1070
    74
1070
     0
1070
    77
1070
     1
1070
    78
1070
     0
1070
   140
1040
20.0
1070
   147
1040
0.0
1070
   173
1070
     1
1070
   176
1070
     3
1070
   177
1070
     3
1070
   178
1070
     2
1070
   271
1070
     0
1070
   277
1070
     2
1070
   279
1070
     2
1070
   280
1070
     1
1070
   287
1070
     5
1070
   340
1005
158
1002
}
  0
LEADER
  5
31F
330
1F
100
AcDbEntity
  8
図
  6
CONTINUOUS
 62
     3
100
AcDbLeader
  3
ISO-25
 76
     3
 10
483.93323324
 20
502.82985451381
 30
0.0
 10
504.38640036877
 20
538.25577915654
 30
0.0
 10
569.4
 20
538.25577915654
 30
0.0
1001
ACAD
1000
DSTYLE
1002
{
1070
     5
1000
EX_NORM
1070
    41
1040
15.0
1070
   341
1005
4C
1002
}
  0
TEXT
  5
320
330
1F
100
AcDbEntity
  8
図
  6
CONTINUOUS
 62
     2
100
AcDbText
 10
502.893200273792
 20
540.75577915654
 30
0.0
 40
20.0
  1
４－φ６
 41
1.034782608695652
  7
EXCADSTD
 72
     5
 11
570.893200273792
 21
540.75577915654
 31
0.0
100
AcDbText
  0
ENDSEC
  0
SECTION
  2
OBJECTS
  0
DICTIONARY
  5
C
330
0
100
AcDbDictionary
  3
ACAD_GROUP
350
D
  3
ACAD_LAYOUT
350
1A
  3
ACAD_MATERIAL
350
3B
  3
ACAD_MLEADERSTYLE
350
343
  3
ACAD_MLINESTYLE
350
17
  3
ACAD_PLOTSETTINGS
350
19
  3
ACAD_VISUALSTYLE
350
2A
  3
ACDBHEADERROUNDTRIPXREC
350
321
  3
ACDBVARIABLEDICTIONARY
350
341
  0
DICTIONARY
  5
D
102
{ACAD_REACTORS
330
C
102
}
330
C
100
AcDbDictionary
  0
DICTIONARY
  5
1A
102
{ACAD_REACTORS
330
C
102
}
330
C
100
AcDbDictionary
  0
DICTIONARY
  5
3B
102
{ACAD_REACTORS
330
C
102
}
330
C
100
AcDbDictionary
  3
BYBLOCK
350
3D
  3
BYLAYER
350
3C
  3
GLOBAL
350
3E
  0
DICTIONARY
  5
343
102
{ACAD_REACTORS
330
C
102
}
330
C
100
AcDbDictionary
  0
DICTIONARY
  5
17
102
{ACAD_REACTORS
330
C
102
}
330
C
100
AcDbDictionary
  3
STANDARD
350
18
  0
DICTIONARY
  5
19
102
{ACAD_REACTORS
330
C
102
}
330
C
100
AcDbDictionary
  0
DICTIONARY
  5
2A
102
{ACAD_REACTORS
330
C
102
}
330
C
100
AcDbDictionary
  3
2DWIREFRAME
350
2F
  3
3D_HIDDEN
350
31
  3
3DWIREFRAME
350
30
  3
BASIC
350
32
  3
BRIGHTEN
350
36
  3
COLORCHANGE
350
3A
  3
CONCEPTUAL
350
34
  3
DIM
350
35
  3
FACEPATTERN
350
39
  3
FLAT
350
2B
  3
FLATWITHEDGES
350
2C
  3
GOURAUD
350
2D
  3
GOURAUDWITHEDGES
350
2E
  3
LINEPATTERN
350
38
  3
REALISTIC
350
33
  3
THICKEN
350
37
  0
DICTIONARY
  5
321
102
{ACAD_REACTORS
330
C
102
}
330
C
100
AcDbDictionary
  3
CEPSNTYPE
350
32A
  3
DIMSTYLEDATA
350
340
  3
FINGERPRINTGUID
350
32B
  3
HYPERLINKBASE
350
324
  3
INSUNITS
350
329
  3
LAYOUTDICT
350
326
  3
LWETCUNION
350
328
  3
PLOTSETDICT
350
327
  3
PSVPSCALE
350
32D
  3
PUCSBASE
350
330
  3
PUCSORGBACK
350
336
  3
PUCSORGBOTTOM
350
332
  3
PUCSORGFRONT
350
335
  3
PUCSORGLEFT
350
333
  3
PUCSORGRIGHT
350
334
  3
PUCSORGTOP
350
331
  3
PUCSORTHOREF
350
32E
  3
PUCSORTHOVIEW
350
32F
  3
STYLESHEET
350
325
  3
TSTACKALIGN
350
322
  3
TSTACKSIZE
350
323
  3
UCSBASE
350
339
  3
UCSORGBACK
350
33F
  3
UCSORGBOTTOM
350
33B
  3
UCSORGFRONT
350
33E
  3
UCSORGLEFT
350
33C
  3
UCSORGRIGHT
350
33D
  3
UCSORGTOP
350
33A
  3
UCSORTHOREF
350
337
  3
UCSORTHOVIEW
350
338
  3
VERSIONGUID
350
32C
  0
DICTIONARY
  5
341
102
{ACAD_REACTORS
330
C
102
}
330
C
100
AcDbDictionary
  3
DIMASSOC
350
346
  3
HIDETEXT
350
347
  3
PSOLHEIGHT
350
345
  3
PSOLWIDTH
350
344
  0
MATERIAL
  5
3D
102
{ACAD_REACTORS
330
3B
102
}
102
{ACAD_XDICTIONARY
360
34A
102
}
330
3B
100
AcDbMaterial
  1
ByBlock
  0
MATERIAL
  5
3C
102
{ACAD_REACTORS
330
3B
102
}
102
{ACAD_XDICTIONARY
360
348
102
}
330
3B
100
AcDbMaterial
  1
ByLayer
  0
MATERIAL
  5
3E
102
{ACAD_REACTORS
330
3B
102
}
102
{ACAD_XDICTIONARY
360
34C
102
}
330
3B
100
AcDbMaterial
  1
Global
  0
MLINESTYLE
  5
18
102
{ACAD_REACTORS
330
17
102
}
330
17
100
AcDbMlineStyle
  2
Standard
 70
     0
  3

 62
   256
 51
90.0
 52
90.0
 71
     2
 49
0.5
 62
   256
  6
BYLAYER
 49
-0.5
 62
   256
  6
BYLAYER
  0
ACAD_PROXY_OBJECT
  5
2F
102
{ACAD_REACTORS
330
2A
102
}
330
2A
100
AcDbProxyObject
 90
      499
 91
      501
 93
      436
310
42CC9915DA5C99599C985B595049028333333333333E3BF0000000000000FB0107901411070040501600405405064090741402480A0340
1001
ACAD
1000
AcDbSavedByObjectVersion
1070
     0
  0
ACAD_PROXY_OBJECT
  5
31
102
{ACAD_REACTORS
330
2A
102
}
330
2A
100
AcDbProxyObject
 90
      499
 91
      501
 93
      500
310
424CD108121A5919195B90640502408333333333333E3BF0000000000000FB01079024090700405020000000000001110200405405064090740C02480A0340
1001
ACAD
1000
AcDbSavedByObjectVersion
1070
     0
  0
ACAD_PROXY_OBJECT
  5
30
102
{ACAD_REACTORS
330
2A
102
}
330
2A
100
AcDbProxyObject
 90
      499
 91
      501
 93
      436
310
42CCD915DA5C99599C985B595059028333333333333E3BF0000000000000FB0107901411070040501600405405064090741402480A0340
1001
ACAD
1000
AcDbSavedByObjectVersion
1070
     0
  0
ACAD_PROXY_OBJECT
  5
32
102
{ACAD_REACTORS
330
2A
102
}
330
2A
100
AcDbProxyObject
 90
      499
 91
      501
 93
      388
310
4150985CDA58D07406404333333333333E3BF0000000000000FB0107A41107004050150841D405064090741402480A0350
1001
ACAD
1000
AcDbSavedByObjectVersion
1070
     0
  0
ACAD_PROXY_OBJECT
  5
36
102
{ACAD_REACTORS
330
2A
102
}
330
2A
100
AcDbProxyObject
 90
      499
 91
      501
 93
      428
310
42109C9A59DA1D195B90C409028333333333333E3BF0000000000000FB010790141107004050150841D405064090741402480A029950
1001
ACAD
1000
AcDbSavedByObjectVersion
1070
     0
  0
ACAD_PROXY_OBJECT
  5
3A
102
{ACAD_REACTORS
330
2A
102
}
330
2A
100
AcDbProxyObject
 90
      499
 91
      501
 93
      452
310
42D0DBDB1BDC90DA185B99D95104090240C333333333333E3BF0000000000000FB0108901411070040501508421405064090741402480A0350
1001
ACAD
1000
AcDbSavedByObjectVersion
1070
     0
  0
ACAD_PROXY_OBJECT
  5
34
102
{ACAD_REACTORS
330
2A
102
}
330
2A
100
AcDbProxyObject
 90
      499
 91
      501
 93
      500
310
4290DBDB98D95C1D1D585B10940D028333333333333E3BF0000000000000FB0107902409070040501000000000000111010841D405064090740C02480A0340
1001
ACAD
1000
AcDbSavedByObjectVersion
1070
     0
  0
ACAD_PROXY_OBJECT
  5
35
102
{ACAD_REACTORS
330
2A
102
}
330
2A
100
AcDbProxyObject
 90
      499
 91
      501
 93
      412
310
40D11A5B50B409028333333333333E3BF0000000000000FB010790141107004050150841D405064090741402480A02677FFFFFD0
1001
ACAD
1000
AcDbSavedByObjectVersion
1070
     0
  0
ACAD_PROXY_OBJECT
  5
39
102
{ACAD_REACTORS
330
2A
102
}
330
2A
100
AcDbProxyObject
 90
      499
 91
      501
 93
      444
310
42D19858D95C185D1D195C9B90F409028333333333333E3BF0000000000000FB010790141107004050150841D405064090741402480A0350
1001
ACAD
1000
AcDbSavedByObjectVersion
1070
     0
  0
ACAD_PROXY_OBJECT
  5
2B
102
{ACAD_REACTORS
330
2A
102
}
330
2A
100
AcDbProxyObject
 90
      499
 91
      501
 93
      388
310
41119B185D240901404333333333333E3BF0000000000000F9010740A41107004050150841D405064090741402480A1B50
1001
ACAD
1000
AcDbSavedByObjectVersion
1070
     0
  0
ACAD_PROXY_OBJECT
  5
2C
102
{ACAD_REACTORS
330
2A
102
}
330
2A
100
AcDbProxyObject
 90
      499
 91
      501
 93
      476
310
43519B185D15DA5D1A115919D95CD0140901404333333333333E3BF0000000000000F9010740901411070040501600405405064090741402480A1B50
1001
ACAD
1000
AcDbSavedByObjectVersion
1070
     0
  0
ACAD_PROXY_OBJECT
  5
2D
102
{ACAD_REACTORS
330
2A
102
}
330
2A
100
AcDbProxyObject
 90
      499
 91
      501
 93
      412
310
41D1DBDD5C985D5910240902404333333333333E3BF0000000000000F9010740A411070040501641D405064090741402480A1B50
1001
ACAD
1000
AcDbSavedByObjectVersion
1070
     0
  0
ACAD_PROXY_OBJECT
  5
2E
102
{ACAD_REACTORS
330
2A
102
}
330
2A
100
AcDbProxyObject
 90
      499
 91
      501
 93
      500
310
4411DBDD5C985D5915DA5D1A115919D95CD0340902404333333333333E3BF0000000000000F9010740901411070040501600405405064090741402480A1B50
1001
ACAD
1000
AcDbSavedByObjectVersion
1070
     0
  0
ACAD_PROXY_OBJECT
  5
38
102
{ACAD_REACTORS
330
2A
102
}
330
2A
100
AcDbProxyObject
 90
      499
 91
      501
 93
      444
310
42D31A5B995C185D1D195C9B90E409028333333333333E3BF0000000000000FB010790141107004050750841D405064090741402483A0350
1001
ACAD
1000
AcDbSavedByObjectVersion
1070
     0
  0
ACAD_PROXY_OBJECT
  5
33
102
{ACAD_REACTORS
330
2A
102
}
330
2A
100
AcDbProxyObject
 90
      499
 91
      501
 93
      420
310
425499585B1A5CDD1A58D08409028333333333333E3BF0000000000000FB01079019070040501508421405064090741402480A1B40
1001
ACAD
1000
AcDbSavedByObjectVersion
1070
     0
  0
ACAD_PROXY_OBJECT
  5
37
102
{ACAD_REACTORS
330
2A
102
}
330
2A
100
AcDbProxyObject
 90
      499
 91
      501
 93
      412
310
41D51A1A58DAD95B90D409028333333333333E3BF0000000000000FB010790141107004050150C41D405064090741402480A0350
1001
ACAD
1000
AcDbSavedByObjectVersion
1070
     0
  0
XRECORD
  5
32A
102
{ACAD_REACTORS
330
321
102
}
330
321
100
AcDbXrecord
 90
        0
  0
XRECORD
  5
340
102
{ACAD_REACTORS
330
321
102
}
330
321
100
AcDbXrecord
1000
DSTYLE
1002
{
1070
   340
340
11
1002
}
  0
XRECORD
  5
32B
102
{ACAD_REACTORS
330
321
102
}
330
321
100
AcDbXrecord
  1
{858F53F8-1E56-46E8-A853-7B13FEC1CAFD}
  0
XRECORD
  5
324
102
{ACAD_REACTORS
330
321
102
}
330
321
100
AcDbXrecord
  1

  0
XRECORD
  5
329
102
{ACAD_REACTORS
330
321
102
}
330
321
100
AcDbXrecord
 90
        4
  0
XRECORD
  5
326
102
{ACAD_REACTORS
330
321
102
}
330
321
100
AcDbXrecord
340
1A
  0
XRECORD
  5
328
102
{ACAD_REACTORS
330
321
102
}
330
321
100
AcDbXrecord
 90
    10781
  0
XRECORD
  5
327
102
{ACAD_REACTORS
330
321
102
}
330
321
100
AcDbXrecord
340
19
  0
XRECORD
  5
32D
102
{ACAD_REACTORS
330
321
102
}
330
321
100
AcDbXrecord
 40
0.0
  0
XRECORD
  5
330
102
{ACAD_REACTORS
330
321
102
}
330
321
100
AcDbXrecord
340
0
  0
XRECORD
  5
336
102
{ACAD_REACTORS
330
321
102
}
330
321
100
AcDbXrecord
 10
0.0
 20
0.0
 30
0.0
  0
XRECORD
  5
332
102
{ACAD_REACTORS
330
321
102
}
330
321
100
AcDbXrecord
 10
0.0
 20
0.0
 30
0.0
  0
XRECORD
  5
335
102
{ACAD_REACTORS
330
321
102
}
330
321
100
AcDbXrecord
 10
0.0
 20
0.0
 30
0.0
  0
XRECORD
  5
333
102
{ACAD_REACTORS
330
321
102
}
330
321
100
AcDbXrecord
 10
0.0
 20
0.0
 30
0.0
  0
XRECORD
  5
334
102
{ACAD_REACTORS
330
321
102
}
330
321
100
AcDbXrecord
 10
0.0
 20
0.0
 30
0.0
  0
XRECORD
  5
331
102
{ACAD_REACTORS
330
321
102
}
330
321
100
AcDbXrecord
 10
0.0
 20
0.0
 30
0.0
  0
XRECORD
  5
32E
102
{ACAD_REACTORS
330
321
102
}
330
321
100
AcDbXrecord
340
0
  0
XRECORD
  5
32F
102
{ACAD_REACTORS
330
321
102
}
330
321
100
AcDbXrecord
 70
     0
  0
XRECORD
  5
325
102
{ACAD_REACTORS
330
321
102
}
330
321
100
AcDbXrecord
  1

  0
XRECORD
  5
322
102
{ACAD_REACTORS
330
321
102
}
330
321
100
AcDbXrecord
 90
        1
  0
XRECORD
  5
323
102
{ACAD_REACTORS
330
321
102
}
330
321
100
AcDbXrecord
 90
       70
  0
XRECORD
  5
339
102
{ACAD_REACTORS
330
321
102
}
330
321
100
AcDbXrecord
340
0
  0
XRECORD
  5
33F
102
{ACAD_REACTORS
330
321
102
}
330
321
100
AcDbXrecord
 10
0.0
 20
0.0
 30
0.0
  0
XRECORD
  5
33B
102
{ACAD_REACTORS
330
321
102
}
330
321
100
AcDbXrecord
 10
0.0
 20
0.0
 30
0.0
  0
XRECORD
  5
33E
102
{ACAD_REACTORS
330
321
102
}
330
321
100
AcDbXrecord
 10
0.0
 20
0.0
 30
0.0
  0
XRECORD
  5
33C
102
{ACAD_REACTORS
330
321
102
}
330
321
100
AcDbXrecord
 10
0.0
 20
0.0
 30
0.0
  0
XRECORD
  5
33D
102
{ACAD_REACTORS
330
321
102
}
330
321
100
AcDbXrecord
 10
0.0
 20
0.0
 30
0.0
  0
XRECORD
  5
33A
102
{ACAD_REACTORS
330
321
102
}
330
321
100
AcDbXrecord
 10
0.0
 20
0.0
 30
0.0
  0
XRECORD
  5
337
102
{ACAD_REACTORS
330
321
102
}
330
321
100
AcDbXrecord
340
0
  0
XRECORD
  5
338
102
{ACAD_REACTORS
330
321
102
}
330
321
100
AcDbXrecord
 70
     0
  0
XRECORD
  5
32C
102
{ACAD_REACTORS
330
321
102
}
330
321
100
AcDbXrecord
  1
{FAEB1C32-E019-11D5-929B-00C0DF256EC4}
  0
DICTIONARYVAR
  5
346
102
{ACAD_REACTORS
330
341
102
}
330
341
100
DictionaryVariables
280
     0
  1
2
  0
DICTIONARYVAR
  5
347
102
{ACAD_REACTORS
330
341
102
}
330
341
100
DictionaryVariables
280
     0
  1
1
  0
DICTIONARYVAR
  5
345
102
{ACAD_REACTORS
330
341
102
}
330
341
100
DictionaryVariables
280
     0
  1
80.000000
  0
DICTIONARYVAR
  5
344
102
{ACAD_REACTORS
330
341
102
}
330
341
100
DictionaryVariables
280
     0
  1
5.000000
  0
DICTIONARY
  5
34A
330
3D
100
AcDbDictionary
280
     1
  3
ACAD_XREC_ROUNDTRIP
360
34B
  0
DICTIONARY
  5
348
330
3C
100
AcDbDictionary
280
     1
  3
ACAD_XREC_ROUNDTRIP
360
349
  0
DICTIONARY
  5
34C
330
3E
100
AcDbDictionary
280
     1
  3
ACAD_XREC_ROUNDTRIP
360
34D
  0
XRECORD
  5
34B
102
{ACAD_REACTORS
330
34A
102
}
330
34A
100
AcDbXrecord
102
MATERIAL
148
0.0
149
0.0
149
0.0
 93
        0
 94
      127
282
     0
 72
     1
 77
     1
171
     1
175
     1
179
     1
273
     0
  0
XRECORD
  5
349
102
{ACAD_REACTORS
330
348
102
}
330
348
100
AcDbXrecord
102
MATERIAL
148
0.0
149
0.0
149
0.0
 93
        0
 94
      127
282
     0
 72
     1
 77
     1
171
     1
175
     1
179
     1
273
     0
  0
XRECORD
  5
34D
102
{ACAD_REACTORS
330
34C
102
}
330
34C
100
AcDbXrecord
102
MATERIAL
148
0.0
149
0.0
149
0.0
 93
        0
 94
      127
282
     0
 72
     1
 77
     1
171
     1
175
     1
179
     1
273
     0
  0
ENDSEC
  0
EOF
