  0
SECTION
  2
HEADER
  9
$ACADVER
  1
AC1014
  9
$ACADMAINTVER
 70
     9
  9
$DWGCODEPAGE
  3
ANSI_932
  9
$INSBASE
 10
0.0
 20
0.0
 30
0.0
  9
$EXTMIN
 10
-0.6000000000000136
 20
9.100000000000001
 30
0.0
  9
$EXTMAX
 10
199.4000000000001
 20
289.1
 30
0.0
  9
$LIMMIN
 10
0.0
 20
0.0
  9
$LIMMAX
 10
210.0
 20
297.0
  9
$ORTHOMODE
 70
     0
  9
$REGENMODE
 70
     1
  9
$FILLMODE
 70
     1
  9
$QTEXTMODE
 70
     0
  9
$MIRRTEXT
 70
     1
  9
$DRAGMODE
 70
     2
  9
$LTSCALE
 40
1.0
  9
$OSMODE
 70
    37
  9
$ATTMODE
 70
     1
  9
$TEXTSIZE
 40
2.5
  9
$TRACEWID
 40
1.0
  9
$TEXTSTYLE
  7
STANDARD
  9
$CLAYER
  8
図
  9
$CELTYPE
  6
BYLAYER
  9
$CECOLOR
 62
   256
  9
$CELTSCALE
 40
1.0
  9
$DELOBJ
 70
     1
  9
$DISPSILH
 70
     0
  9
$DIMSCALE
 40
1.0
  9
$DIMASZ
 40
2.5
  9
$DIMEXO
 40
0.625
  9
$DIMDLI
 40
3.75
  9
$DIMRND
 40
0.0
  9
$DIMDLE
 40
0.0
  9
$DIMEXE
 40
1.25
  9
$DIMTP
 40
0.0
  9
$DIMTM
 40
0.0
  9
$DIMTXT
 40
2.5
  9
$DIMCEN
 40
2.5
  9
$DIMTSZ
 40
0.0
  9
$DIMTOL
 70
     0
  9
$DIMLIM
 70
     0
  9
$DIMTIH
 70
     0
  9
$DIMTOH
 70
     0
  9
$DIMSE1
 70
     0
  9
$DIMSE2
 70
     0
  9
$DIMTAD
 70
     1
  9
$DIMZIN
 70
     8
  9
$DIMBLK
  1

  9
$DIMASO
 70
     1
  9
$DIMSHO
 70
     1
  9
$DIMPOST
  1

  9
$DIMAPOST
  1

  9
$DIMALT
 70
     0
  9
$DIMALTD
 70
     3
  9
$DIMALTF
 40
0.03937007874016
  9
$DIMLFAC
 40
1.0
  9
$DIMTOFL
 70
     1
  9
$DIMTVP
 40
0.0
  9
$DIMTIX
 70
     0
  9
$DIMSOXD
 70
     0
  9
$DIMSAH
 70
     0
  9
$DIMBLK1
  1

  9
$DIMBLK2
  1

  9
$DIMSTYLE
  2
ISO-25
  9
$DIMCLRD
 70
     0
  9
$DIMCLRE
 70
     0
  9
$DIMCLRT
 70
     0
  9
$DIMTFAC
 40
1.0
  9
$DIMGAP
 40
0.625
  9
$DIMJUST
 70
     0
  9
$DIMSD1
 70
     0
  9
$DIMSD2
 70
     0
  9
$DIMTOLJ
 70
     0
  9
$DIMTZIN
 70
     8
  9
$DIMALTZ
 70
     0
  9
$DIMALTTZ
 70
     0
  9
$DIMFIT
 70
     3
  9
$DIMUPT
 70
     0
  9
$DIMUNIT
 70
     2
  9
$DIMDEC
 70
     2
  9
$DIMTDEC
 70
     2
  9
$DIMALTU
 70
     2
  9
$DIMALTTD
 70
     3
  9
$DIMTXSTY
  7
STANDARD
  9
$DIMAUNIT
 70
     0
  9
$LUNITS
 70
     2
  9
$LUPREC
 70
     4
  9
$SKETCHINC
 40
1.0
  9
$FILLETRAD
 40
10.0
  9
$AUNITS
 70
     0
  9
$AUPREC
 70
     0
  9
$MENU
  1
.
  9
$ELEVATION
 40
0.0
  9
$PELEVATION
 40
0.0
  9
$THICKNESS
 40
0.0
  9
$LIMCHECK
 70
     0
  9
$CHAMFERA
 40
10.0
  9
$CHAMFERB
 40
10.0
  9
$CHAMFERC
 40
20.0
  9
$CHAMFERD
 40
0.0
  9
$SKPOLY
 70
     0
  9
$TDCREATE
 40
2460368.622104387
  9
$TDUPDATE
 40
2460368.622104514
  9
$TDINDWG
 40
0.0000000116
  9
$TDUSRTIMER
 40
0.0000000116
  9
$USRTIMER
 70
     1
  9
$ANGBASE
 50
0.0
  9
$ANGDIR
 70
     0
  9
$PDMODE
 70
     0
  9
$PDSIZE
 40
0.0
  9
$PLINEWID
 40
0.0
  9
$COORDS
 70
     1
  9
$SPLFRAME
 70
     0
  9
$SPLINETYPE
 70
     6
  9
$SPLINESEGS
 70
     8
  9
$ATTDIA
 70
     0
  9
$ATTREQ
 70
     1
  9
$HANDLING
 70
     1
  9
$HANDSEED
  5
2A8
  9
$SURFTAB1
 70
     6
  9
$SURFTAB2
 70
     6
  9
$SURFTYPE
 70
     6
  9
$SURFU
 70
     6
  9
$SURFV
 70
     6
  9
$UCSNAME
  2

  9
$UCSORG
 10
0.0
 20
0.0
 30
0.0
  9
$UCSXDIR
 10
1.0
 20
0.0
 30
0.0
  9
$UCSYDIR
 10
0.0
 20
1.0
 30
0.0
  9
$PUCSNAME
  2

  9
$PUCSORG
 10
0.0
 20
0.0
 30
0.0
  9
$PUCSXDIR
 10
1.0
 20
0.0
 30
0.0
  9
$PUCSYDIR
 10
0.0
 20
1.0
 30
0.0
  9
$USERI1
 70
     0
  9
$USERI2
 70
     0
  9
$USERI3
 70
     0
  9
$USERI4
 70
     0
  9
$USERI5
 70
     0
  9
$USERR1
 40
0.0
  9
$USERR2
 40
0.0
  9
$USERR3
 40
0.0
  9
$USERR4
 40
0.0
  9
$USERR5
 40
0.0
  9
$WORLDVIEW
 70
     1
  9
$SHADEDGE
 70
     3
  9
$SHADEDIF
 70
    70
  9
$TILEMODE
 70
     1
  9
$MAXACTVP
 70
    64
  9
$PINSBASE
 10
0.0
 20
0.0
 30
0.0
  9
$PLIMCHECK
 70
     0
  9
$PEXTMIN
 10
1.000000000000000E+20
 20
1.000000000000000E+20
 30
1.000000000000000E+20
  9
$PEXTMAX
 10
-1.000000000000000E+20
 20
-1.000000000000000E+20
 30
-1.000000000000000E+20
  9
$PLIMMIN
 10
0.0
 20
0.0
  9
$PLIMMAX
 10
420.0
 20
297.0
  9
$UNITMODE
 70
     0
  9
$VISRETAIN
 70
     1
  9
$PLINEGEN
 70
     0
  9
$PSLTSCALE
 70
     1
  9
$TREEDEPTH
 70
  3020
  9
$PICKSTYLE
 70
     1
  9
$CMLSTYLE
  2
STANDARD
  9
$CMLJUST
 70
     0
  9
$CMLSCALE
 40
20.0
  9
$PROXYGRAPHICS
 70
     1
  9
$MEASUREMENT
 70
     1
  0
ENDSEC
  0
SECTION
  2
CLASSES
  0
CLASS
  1
ACDBDICTIONARYWDFLT
  2
AcDbDictionaryWithDefault
  3
ObjectDBX Classes
 90
        0
280
     0
281
     0
  0
CLASS
  1
VISUALSTYLE
  2
AcDbVisualStyle
  3
ObjectDBX Classes
 90
     4095
280
     0
281
     0
  0
CLASS
  1
MATERIAL
  2
AcDbMaterial
  3
ObjectDBX Classes
 90
     1153
280
     0
281
     0
  0
CLASS
  1
SUN
  2
AcDbSun
  3
SCENEOE
 90
     1024
280
     0
281
     0
  0
CLASS
  1
DICTIONARYVAR
  2
AcDbDictionaryVar
  3
ObjectDBX Classes
 90
        0
280
     0
281
     0
  0
CLASS
  1
XRECORD
  2
AcDbXrecord
  3
AutoCAD 2000
 90
        0
280
     0
281
     0
  0
CLASS
  1
LWPOLYLINE
  2
AcDbPolyline
  3
AutoCAD 2000
 90
        0
280
     0
281
     1
  0
CLASS
  1
HATCH
  2
AcDbHatch
  3
AutoCAD 2000
 90
        0
280
     0
281
     1
  0
CLASS
  1
ACDBPLACEHOLDER
  2
AcDbPlaceHolder
  3
ObjectDBX Classes
 90
        0
280
     0
281
     0
  0
CLASS
  1
LAYOUT
  2
AcDbLayout
  3
ObjectDBX Classes
 90
        0
280
     0
281
     0
  0
ENDSEC
  0
SECTION
  2
TABLES
  0
TABLE
  2
VPORT
  5
8
330
0
100
AcDbSymbolTable
 70
     1
  0
VPORT
  5
29
330
8
100
AcDbSymbolTableRecord
100
AcDbViewportTableRecord
  2
*ACTIVE
 70
     0
 10
0.0
 20
0.0
 11
1.0
 21
1.0
 12
198.8000000000001
 22
298.2
 13
0.0
 23
0.0
 14
10.0
 24
10.0
 15
10.0
 25
10.0
 16
0.0
 26
0.0
 36
1.0
 17
0.0
 27
0.0
 37
0.0
 40
560.0
 41
0.7142857142857147
 42
50.0
 43
0.0
 44
0.0
 50
0.0
 51
0.0
 71
     0
 72
  1000
 73
     1
 74
     3
 75
     0
 76
     0
 77
     0
 78
     0
  0
ENDTAB
  0
TABLE
  2
LTYPE
  5
5
330
0
100
AcDbSymbolTable
 70
     9
  0
LTYPE
  5
14
330
5
100
AcDbSymbolTableRecord
100
AcDbLinetypeTableRecord
  2
BYBLOCK
 70
     0
  3

 72
    65
 73
     0
 40
0.0
  0
LTYPE
  5
15
330
5
100
AcDbSymbolTableRecord
100
AcDbLinetypeTableRecord
  2
BYLAYER
 70
     0
  3

 72
    65
 73
     0
 40
0.0
  0
LTYPE
  5
16
330
5
100
AcDbSymbolTableRecord
100
AcDbLinetypeTableRecord
  2
CONTINUOUS
 70
     0
  3
Solid line
 72
    65
 73
     0
 40
0.0
  0
LTYPE
  5
40
330
5
100
AcDbSymbolTableRecord
100
AcDbLinetypeTableRecord
  2
EXLTYPE1
 70
     0
  3
破線
 72
    65
 73
     2
 40
3.0
 49
2.0
 74
     0
 49
-1.0
 74
     0
  0
LTYPE
  5
41
330
5
100
AcDbSymbolTableRecord
100
AcDbLinetypeTableRecord
  2
EXLTYPE2
 70
     0
  3
点線
 72
    65
 73
     2
 40
2.0
 49
1.0
 74
     0
 49
-1.0
 74
     0
  0
LTYPE
  5
42
330
5
100
AcDbSymbolTableRecord
100
AcDbLinetypeTableRecord
  2
EXLTYPE3
 70
     0
  3
一点鎖線
 72
    65
 73
     4
 40
10.0
 49
7.0
 74
     0
 49
-1.0
 74
     0
 49
1.0
 74
     0
 49
-1.0
 74
     0
  0
LTYPE
  5
43
330
5
100
AcDbSymbolTableRecord
100
AcDbLinetypeTableRecord
  2
EXLTYPE4
 70
     0
  3
二点鎖線
 72
    65
 73
     6
 40
12.0
 49
7.0
 74
     0
 49
-1.0
 74
     0
 49
1.0
 74
     0
 49
-1.0
 74
     0
 49
1.0
 74
     0
 49
-1.0
 74
     0
  0
LTYPE
  5
44
330
5
100
AcDbSymbolTableRecord
100
AcDbLinetypeTableRecord
  2
EXLTYPE5
 70
     0
  3
三点鎖線
 72
    65
 73
     8
 40
37.0
 49
30.0
 74
     0
 49
-1.0
 74
     0
 49
1.0
 74
     0
 49
-1.0
 74
     0
 49
1.0
 74
     0
 49
-1.0
 74
     0
 49
1.0
 74
     0
 49
-1.0
 74
     0
  0
LTYPE
  5
45
330
5
100
AcDbSymbolTableRecord
100
AcDbLinetypeTableRecord
  2
EXLTYPE6
 70
     0
  3
四点鎖線
 72
    65
 73
    10
 40
39.0
 49
30.0
 74
     0
 49
-1.0
 74
     0
 49
1.0
 74
     0
 49
-1.0
 74
     0
 49
1.0
 74
     0
 49
-1.0
 74
     0
 49
1.0
 74
     0
 49
-1.0
 74
     0
 49
1.0
 74
     0
 49
-1.0
 74
     0
  0
LTYPE
  5
46
330
5
100
AcDbSymbolTableRecord
100
AcDbLinetypeTableRecord
  2
EXLTYPE7
 70
     0
  3
一点鎖線4
 72
    65
 73
     4
 40
4.283333333333333
 49
2.1
 74
     0
 49
-1.05
 74
     0
 49
0.0833333333333333
 74
     0
 49
-1.05
 74
     0
  0
LTYPE
  5
47
330
5
100
AcDbSymbolTableRecord
100
AcDbLinetypeTableRecord
  2
EXLTYPE8
 70
     0
  3
二点鎖線4
 72
    65
 73
     6
 40
5.416666666666666
 49
2.1
 74
     0
 49
-1.05
 74
     0
 49
0.0833333333333333
 74
     0
 49
-1.05
 74
     0
 49
0.0833333333333333
 74
     0
 49
-1.05
 74
     0
  0
ENDTAB
  0
TABLE
  2
LAYER
  5
2
330
0
100
AcDbSymbolTable
 70
     4
  0
LAYER
  5
10
330
2
100
AcDbSymbolTableRecord
100
AcDbLayerTableRecord
  2
0
 70
     0
 62
     7
  6
CONTINUOUS
  0
LAYER
  5
4A
330
2
100
AcDbSymbolTableRecord
100
AcDbLayerTableRecord
  2
図枠
 70
     0
 62
     7
  6
CONTINUOUS
  0
LAYER
  5
4B
330
2
100
AcDbSymbolTableRecord
100
AcDbLayerTableRecord
  2
図
 70
     0
 62
     7
  6
CONTINUOUS
  0
LAYER
  5
164
330
2
100
AcDbSymbolTableRecord
100
AcDbLayerTableRecord
  2
DEFPOINTS
 70
     0
 62
     7
  6
CONTINUOUS
  0
ENDTAB
  0
TABLE
  2
STYLE
  5
3
330
0
100
AcDbSymbolTable
 70
     5
  0
STYLE
  5
11
330
3
100
AcDbSymbolTableRecord
100
AcDbTextStyleTableRecord
  2
STANDARD
 70
     0
 40
0.0
 41
1.0
 50
0.0
 71
     0
 42
2.5
  3
monotxt
  4
extfont
  0
STYLE
  5
48
330
3
100
AcDbSymbolTableRecord
100
AcDbTextStyleTableRecord
  2
EXCADSTD
 70
     0
 40
0.0
 41
1.0
 50
0.0
 71
     0
 42
0.2
  3
monotxt
  4
extfont
  0
STYLE
  5
49
330
3
100
AcDbSymbolTableRecord
100
AcDbTextStyleTableRecord
  2
EXCADVERT
 70
     4
 40
0.0
 41
1.0
 50
0.0
 71
     0
 42
0.286885
  3
monotxt
  4
extfont
  0
STYLE
  5
A8
330
3
100
AcDbSymbolTableRecord
100
AcDbTextStyleTableRecord
  2
EXCADTTF1
 70
     0
 40
0.0
 41
1.0
 50
0.0
 71
     0
 42
0.2
  3
MSGOTHIC.TTC
  4

1001
ACAD
1000
MS Gothic
1071
    32817
  0
STYLE
  5
162
330
3
100
AcDbSymbolTableRecord
100
AcDbTextStyleTableRecord
  2
EXCADDIM1
 70
     0
 40
0.0
 41
0.84
 50
0.0
 71
     0
 42
0.2
  3
monotxt
  4
extfont
  0
ENDTAB
  0
TABLE
  2
VIEW
  5
6
330
0
100
AcDbSymbolTable
 70
     0
  0
ENDTAB
  0
TABLE
  2
UCS
  5
7
330
0
100
AcDbSymbolTable
 70
     0
  0
ENDTAB
  0
TABLE
  2
APPID
  5
9
330
0
100
AcDbSymbolTable
 70
     1
  0
APPID
  5
12
330
9
100
AcDbSymbolTableRecord
100
AcDbRegAppTableRecord
  2
ACAD
 70
     0
  0
ENDTAB
  0
TABLE
  2
DIMSTYLE
  5
A
330
0
100
AcDbSymbolTable
 70
     1
  0
DIMSTYLE
105
27
102
{ACAD_REACTORS
330
163
330
171
330
17D
330
193
330
1A4
330
1B1
330
1C0
330
1CB
330
1D6
330
1E5
330
1F6
330
205
330
26E
102
}
330
A
100
AcDbSymbolTableRecord
100
AcDbDimStyleTableRecord
  2
ISO-25
 70
     0
  3

  4

  5

  6

  7

 40
1.0
 41
2.5
 42
0.625
 43
3.75
 44
1.25
 45
0.0
 46
0.0
 47
0.0
 48
0.0
140
2.5
141
2.5
142
0.0
143
0.03937007874016
144
1.0
145
0.0
146
1.0
147
0.625
 71
     0
 72
     0
 73
     0
 74
     0
 75
     0
 76
     0
 77
     1
 78
     8
170
     0
171
     3
172
     1
173
     0
174
     0
175
     0
176
     0
177
     0
178
     0
270
     2
271
     2
272
     2
273
     2
274
     3
340
11
275
     0
280
     0
281
     0
282
     0
283
     0
284
     8
285
     0
286
     0
287
     5
288
     0
  0
ENDTAB
  0
TABLE
  2
BLOCK_RECORD
  5
1
330
0
100
AcDbSymbolTable
 70
    28
  0
BLOCK_RECORD
  5
1F
330
1
100
AcDbSymbolTableRecord
100
AcDbBlockTableRecord
  2
*MODEL_SPACE
  0
BLOCK_RECORD
  5
1B
330
1
100
AcDbSymbolTableRecord
100
AcDbBlockTableRecord
  2
*PAPER_SPACE
  0
BLOCK_RECORD
  5
4C
330
1
100
AcDbSymbolTableRecord
100
AcDbBlockTableRecord
  2
EX_NORM
  0
BLOCK_RECORD
  5
4F
330
1
100
AcDbSymbolTableRecord
100
AcDbBlockTableRecord
  2
EX_BNORM
  0
BLOCK_RECORD
  5
52
330
1
100
AcDbSymbolTableRecord
100
AcDbBlockTableRecord
  2
EX_BCIR
  0
BLOCK_RECORD
  5
55
330
1
100
AcDbSymbolTableRecord
100
AcDbBlockTableRecord
  2
EX_RCIVIL
  0
BLOCK_RECORD
  5
58
330
1
100
AcDbSymbolTableRecord
100
AcDbBlockTableRecord
  2
EX_SLANT
  0
BLOCK_RECORD
  5
5B
330
1
100
AcDbSymbolTableRecord
100
AcDbBlockTableRecord
  2
EX_NONE
  0
BLOCK_RECORD
  5
5E
330
1
100
AcDbSymbolTableRecord
100
AcDbBlockTableRecord
  2
EX_CIVIL
  0
BLOCK_RECORD
  5
61
330
1
100
AcDbSymbolTableRecord
100
AcDbBlockTableRecord
  2
EX_WCIR
  0
BLOCK_RECORD
  5
64
330
1
100
AcDbSymbolTableRecord
100
AcDbBlockTableRecord
  2
EX_WCIR2
  0
BLOCK_RECORD
  5
67
330
1
100
AcDbSymbolTableRecord
100
AcDbBlockTableRecord
  2
EX_WNORM
  0
BLOCK_RECORD
  5
6A
330
1
100
AcDbSymbolTableRecord
100
AcDbBlockTableRecord
  2
EX_NNORM
  0
BLOCK_RECORD
  5
6D
330
1
100
AcDbSymbolTableRecord
100
AcDbBlockTableRecord
  2
EX_BBOX
  0
BLOCK_RECORD
  5
70
330
1
100
AcDbSymbolTableRecord
100
AcDbBlockTableRecord
  2
EX_WBOX
  0
BLOCK_RECORD
  5
73
330
1
100
AcDbSymbolTableRecord
100
AcDbBlockTableRecord
  2
EX_INTEGRAL
  0
BLOCK_RECORD
  5
165
330
1
100
AcDbSymbolTableRecord
100
AcDbBlockTableRecord
  2
*D15
  0
BLOCK_RECORD
  5
172
330
1
100
AcDbSymbolTableRecord
100
AcDbBlockTableRecord
  2
*D16
  0
BLOCK_RECORD
  5
17E
330
1
100
AcDbSymbolTableRecord
100
AcDbBlockTableRecord
  2
*D17
  0
BLOCK_RECORD
  5
194
330
1
100
AcDbSymbolTableRecord
100
AcDbBlockTableRecord
  2
*D18
  0
BLOCK_RECORD
  5
1A5
330
1
100
AcDbSymbolTableRecord
100
AcDbBlockTableRecord
  2
*D19
  0
BLOCK_RECORD
  5
1B2
330
1
100
AcDbSymbolTableRecord
100
AcDbBlockTableRecord
  2
*D20
  0
BLOCK_RECORD
  5
1C1
330
1
100
AcDbSymbolTableRecord
100
AcDbBlockTableRecord
  2
*D21
  0
BLOCK_RECORD
  5
1CC
330
1
100
AcDbSymbolTableRecord
100
AcDbBlockTableRecord
  2
*D22
  0
BLOCK_RECORD
  5
1D7
330
1
100
AcDbSymbolTableRecord
100
AcDbBlockTableRecord
  2
*D23
  0
BLOCK_RECORD
  5
1E6
330
1
100
AcDbSymbolTableRecord
100
AcDbBlockTableRecord
  2
*D24
  0
BLOCK_RECORD
  5
1F7
330
1
100
AcDbSymbolTableRecord
100
AcDbBlockTableRecord
  2
*D25
  0
BLOCK_RECORD
  5
206
330
1
100
AcDbSymbolTableRecord
100
AcDbBlockTableRecord
  2
*D26
  0
BLOCK_RECORD
  5
26F
330
1
100
AcDbSymbolTableRecord
100
AcDbBlockTableRecord
  2
*D27
  0
ENDTAB
  0
ENDSEC
  0
SECTION
  2
BLOCKS
  0
BLOCK
  5
20
330
1F
100
AcDbEntity
  8
0
100
AcDbBlockBegin
  2
*MODEL_SPACE
 70
     0
 10
0.0
 20
0.0
 30
0.0
  3
*MODEL_SPACE
  1

  0
ENDBLK
  5
21
330
1F
100
AcDbEntity
  8
0
100
AcDbBlockEnd
  0
BLOCK
  5
1C
330
1B
100
AcDbEntity
 67
     1
  8
0
100
AcDbBlockBegin
  2
*PAPER_SPACE
 70
     0
 10
0.0
 20
0.0
 30
0.0
  3
*PAPER_SPACE
  1

  0
ENDBLK
  5
1D
330
1B
100
AcDbEntity
 67
     1
  8
0
100
AcDbBlockEnd
  0
BLOCK
  5
4D
330
4C
100
AcDbEntity
  8
0
100
AcDbBlockBegin
  2
EX_NORM
 70
     0
 10
0.0
 20
0.0
 30
0.0
  3
EX_NORM
  1

  0
LINE
  5
76
330
4C
100
AcDbEntity
  8
0
  6
CONTINUOUS
 62
     0
100
AcDbLine
 10
0.0
 20
0.0
 30
0.0
 11
-1.0
 21
0.0
 31
0.0
  0
LINE
  5
77
330
4C
100
AcDbEntity
  8
0
  6
CONTINUOUS
 62
     0
100
AcDbLine
 10
0.0
 20
0.0
 30
0.0
 11
-1.0
 21
0.166666667
 31
0.0
  0
LINE
  5
78
330
4C
100
AcDbEntity
  8
0
  6
CONTINUOUS
 62
     0
100
AcDbLine
 10
0.0
 20
0.0
 30
0.0
 11
-1.0
 21
-0.166666667
 31
0.0
  0
ENDBLK
  5
4E
330
4C
100
AcDbEntity
  8
0
100
AcDbBlockEnd
  0
BLOCK
  5
50
330
4F
100
AcDbEntity
  8
0
100
AcDbBlockBegin
  2
EX_BNORM
 70
     0
 10
0.0
 20
0.0
 30
0.0
  3
EX_BNORM
  1

  0
LINE
  5
79
330
4F
100
AcDbEntity
  8
0
  6
CONTINUOUS
 62
     0
100
AcDbLine
 10
0.0
 20
0.0
 30
0.0
 11
-1.0
 21
0.0
 31
0.0
  0
LINE
  5
7A
330
4F
100
AcDbEntity
  8
0
  6
CONTINUOUS
 62
     0
100
AcDbLine
 10
0.0
 20
0.0
 30
0.0
 11
-1.0
 21
0.166666667
 31
0.0
  0
LINE
  5
7B
330
4F
100
AcDbEntity
  8
0
  6
CONTINUOUS
 62
     0
100
AcDbLine
 10
0.0
 20
0.0
 30
0.0
 11
-1.0
 21
-0.166666667
 31
0.0
  0
LINE
  5
7C
330
4F
100
AcDbEntity
  8
0
  6
CONTINUOUS
 62
     0
100
AcDbLine
 10
0.0
 20
0.0
 30
0.0
 11
-1.0
 21
0.083333333
 31
0.0
  0
LINE
  5
7D
330
4F
100
AcDbEntity
  8
0
  6
CONTINUOUS
 62
     0
100
AcDbLine
 10
0.0
 20
0.0
 30
0.0
 11
-1.0
 21
-0.083333333
 31
0.0
  0
LINE
  5
7E
330
4F
100
AcDbEntity
  8
0
  6
CONTINUOUS
 62
     0
100
AcDbLine
 10
-1.0
 20
0.166666667
 30
0.0
 11
-1.0
 21
-0.166666667
 31
0.0
  0
ENDBLK
  5
51
330
4F
100
AcDbEntity
  8
0
100
AcDbBlockEnd
  0
BLOCK
  5
53
330
52
100
AcDbEntity
  8
0
100
AcDbBlockBegin
  2
EX_BCIR
 70
     0
 10
0.0
 20
0.0
 30
0.0
  3
EX_BCIR
  1

  0
LINE
  5
7F
330
52
100
AcDbEntity
  8
0
  6
CONTINUOUS
 62
     0
100
AcDbLine
 10
0.0
 20
0.0
 30
0.0
 11
-1.0
 21
0.0
 31
0.0
  0
CIRCLE
  5
80
330
52
100
AcDbEntity
  8
0
  6
CONTINUOUS
 62
     0
100
AcDbCircle
 10
0.0
 20
0.0
 30
0.0
 40
0.5
  0
CIRCLE
  5
81
330
52
100
AcDbEntity
  8
0
  6
CONTINUOUS
 62
     0
100
AcDbCircle
 10
0.0
 20
0.0
 30
0.0
 40
0.25
  0
ENDBLK
  5
54
330
52
100
AcDbEntity
  8
0
100
AcDbBlockEnd
  0
BLOCK
  5
56
330
55
100
AcDbEntity
  8
0
100
AcDbBlockBegin
  2
EX_RCIVIL
 70
     0
 10
0.0
 20
0.0
 30
0.0
  3
EX_RCIVIL
  1

  0
LINE
  5
82
330
55
100
AcDbEntity
  8
0
  6
CONTINUOUS
 62
     0
100
AcDbLine
 10
0.0
 20
0.0
 30
0.0
 11
-1.0
 21
0.0
 31
0.0
  0
LINE
  5
83
330
55
100
AcDbEntity
  8
0
  6
CONTINUOUS
 62
     0
100
AcDbLine
 10
-1.0
 20
-0.25
 30
0.0
 11
0.0
 21
-0.25
 31
0.0
  0
LINE
  5
84
330
55
100
AcDbEntity
  8
0
  6
CONTINUOUS
 62
     0
100
AcDbLine
 10
-1.0
 20
-0.125
 30
0.0
 11
0.0
 21
-0.125
 31
0.0
  0
ENDBLK
  5
57
330
55
100
AcDbEntity
  8
0
100
AcDbBlockEnd
  0
BLOCK
  5
59
330
58
100
AcDbEntity
  8
0
100
AcDbBlockBegin
  2
EX_SLANT
 70
     0
 10
0.0
 20
0.0
 30
0.0
  3
EX_SLANT
  1

  0
LINE
  5
85
330
58
100
AcDbEntity
  8
0
  6
CONTINUOUS
 62
     0
100
AcDbLine
 10
0.0
 20
0.0
 30
0.0
 11
-1.0
 21
0.0
 31
0.0
  0
LINE
  5
86
330
58
100
AcDbEntity
  8
0
  6
CONTINUOUS
 62
     0
100
AcDbLine
 10
0.707106781
 20
0.707106781
 30
0.0
 11
-0.707106781
 21
-0.707106781
 31
0.0
  0
ENDBLK
  5
5A
330
58
100
AcDbEntity
  8
0
100
AcDbBlockEnd
  0
BLOCK
  5
5C
330
5B
100
AcDbEntity
  8
0
100
AcDbBlockBegin
  2
EX_NONE
 70
     0
 10
0.0
 20
0.0
 30
0.0
  3
EX_NONE
  1

  0
LINE
  5
87
330
5B
100
AcDbEntity
  8
0
  6
CONTINUOUS
 62
     0
100
AcDbLine
 10
0.0
 20
0.0
 30
0.0
 11
-1.0
 21
0.0
 31
0.0
  0
ENDBLK
  5
5D
330
5B
100
AcDbEntity
  8
0
100
AcDbBlockEnd
  0
BLOCK
  5
5F
330
5E
100
AcDbEntity
  8
0
100
AcDbBlockBegin
  2
EX_CIVIL
 70
     0
 10
0.0
 20
0.0
 30
0.0
  3
EX_CIVIL
  1

  0
LINE
  5
88
330
5E
100
AcDbEntity
  8
0
  6
CONTINUOUS
 62
     0
100
AcDbLine
 10
0.0
 20
0.0
 30
0.0
 11
-1.0
 21
0.0
 31
0.0
  0
LINE
  5
89
330
5E
100
AcDbEntity
  8
0
  6
CONTINUOUS
 62
     0
100
AcDbLine
 10
-1.0
 20
0.25
 30
0.0
 11
0.0
 21
0.25
 31
0.0
  0
LINE
  5
8A
330
5E
100
AcDbEntity
  8
0
  6
CONTINUOUS
 62
     0
100
AcDbLine
 10
-1.0
 20
0.125
 30
0.0
 11
0.0
 21
0.125
 31
0.0
  0
ENDBLK
  5
60
330
5E
100
AcDbEntity
  8
0
100
AcDbBlockEnd
  0
BLOCK
  5
62
330
61
100
AcDbEntity
  8
0
100
AcDbBlockBegin
  2
EX_WCIR
 70
     0
 10
0.0
 20
0.0
 30
0.0
  3
EX_WCIR
  1

  0
LINE
  5
8B
330
61
100
AcDbEntity
  8
0
  6
CONTINUOUS
 62
     0
100
AcDbLine
 10
0.0
 20
0.0
 30
0.0
 11
-1.0
 21
0.0
 31
0.0
  0
CIRCLE
  5
8C
330
61
100
AcDbEntity
  8
0
  6
CONTINUOUS
 62
     0
100
AcDbCircle
 10
0.0
 20
0.0
 30
0.0
 40
0.5
  0
ENDBLK
  5
63
330
61
100
AcDbEntity
  8
0
100
AcDbBlockEnd
  0
BLOCK
  5
65
330
64
100
AcDbEntity
  8
0
100
AcDbBlockBegin
  2
EX_WCIR2
 70
     0
 10
0.0
 20
0.0
 30
0.0
  3
EX_WCIR2
  1

  0
LINE
  5
8D
330
64
100
AcDbEntity
  8
0
  6
CONTINUOUS
 62
     0
100
AcDbLine
 10
-0.5
 20
0.0
 30
0.0
 11
-1.0
 21
0.0
 31
0.0
  0
CIRCLE
  5
8E
330
64
100
AcDbEntity
  8
0
  6
CONTINUOUS
 62
     0
100
AcDbCircle
 10
0.0
 20
0.0
 30
0.0
 40
0.5
  0
ENDBLK
  5
66
330
64
100
AcDbEntity
  8
0
100
AcDbBlockEnd
  0
BLOCK
  5
68
330
67
100
AcDbEntity
  8
0
100
AcDbBlockBegin
  2
EX_WNORM
 70
     0
 10
0.0
 20
0.0
 30
0.0
  3
EX_WNORM
  1

  0
LINE
  5
8F
330
67
100
AcDbEntity
  8
0
  6
CONTINUOUS
 62
     0
100
AcDbLine
 10
-1.0
 20
0.0
 30
0.0
 11
-1.0
 21
0.0
 31
0.0
  0
LINE
  5
90
330
67
100
AcDbEntity
  8
0
  6
CONTINUOUS
 62
     0
100
AcDbLine
 10
0.0
 20
0.0
 30
0.0
 11
-1.0
 21
0.166666667
 31
0.0
  0
LINE
  5
91
330
67
100
AcDbEntity
  8
0
  6
CONTINUOUS
 62
     0
100
AcDbLine
 10
0.0
 20
0.0
 30
0.0
 11
-1.0
 21
-0.166666667
 31
0.0
  0
LINE
  5
92
330
67
100
AcDbEntity
  8
0
  6
CONTINUOUS
 62
     0
100
AcDbLine
 10
-1.0
 20
0.166666667
 30
0.0
 11
-1.0
 21
-0.166666667
 31
0.0
  0
ENDBLK
  5
69
330
67
100
AcDbEntity
  8
0
100
AcDbBlockEnd
  0
BLOCK
  5
6B
330
6A
100
AcDbEntity
  8
0
100
AcDbBlockBegin
  2
EX_NNORM
 70
     0
 10
0.0
 20
0.0
 30
0.0
  3
EX_NNORM
  1

  0
LINE
  5
93
330
6A
100
AcDbEntity
  8
0
  6
CONTINUOUS
 62
     0
100
AcDbLine
 10
0.0
 20
0.0
 30
0.0
 11
-1.0
 21
0.0
 31
0.0
  0
LINE
  5
94
330
6A
100
AcDbEntity
  8
0
  6
CONTINUOUS
 62
     0
100
AcDbLine
 10
0.0
 20
0.0
 30
0.0
 11
-1.0
 21
0.166666667
 31
0.0
  0
LINE
  5
95
330
6A
100
AcDbEntity
  8
0
  6
CONTINUOUS
 62
     0
100
AcDbLine
 10
0.0
 20
0.0
 30
0.0
 11
-1.0
 21
-0.166666667
 31
0.0
  0
LINE
  5
96
330
6A
100
AcDbEntity
  8
0
  6
CONTINUOUS
 62
     0
100
AcDbLine
 10
-1.0
 20
0.166666667
 30
0.0
 11
-1.0
 21
-0.166666667
 31
0.0
  0
ENDBLK
  5
6C
330
6A
100
AcDbEntity
  8
0
100
AcDbBlockEnd
  0
BLOCK
  5
6E
330
6D
100
AcDbEntity
  8
0
100
AcDbBlockBegin
  2
EX_BBOX
 70
     0
 10
0.0
 20
0.0
 30
0.0
  3
EX_BBOX
  1

  0
LINE
  5
97
330
6D
100
AcDbEntity
  8
0
  6
CONTINUOUS
 62
     0
100
AcDbLine
 10
0.0
 20
0.0
 30
0.0
 11
-1.0
 21
0.0
 31
0.0
  0
LINE
  5
98
330
6D
100
AcDbEntity
  8
0
  6
CONTINUOUS
 62
     0
100
AcDbLine
 10
-0.5
 20
0.5
 30
0.0
 11
0.5
 21
0.5
 31
0.0
  0
LINE
  5
99
330
6D
100
AcDbEntity
  8
0
  6
CONTINUOUS
 62
     0
100
AcDbLine
 10
0.5
 20
0.5
 30
0.0
 11
0.5
 21
-0.5
 31
0.0
  0
LINE
  5
9A
330
6D
100
AcDbEntity
  8
0
  6
CONTINUOUS
 62
     0
100
AcDbLine
 10
0.5
 20
-0.5
 30
0.0
 11
-0.5
 21
-0.5
 31
0.0
  0
LINE
  5
9B
330
6D
100
AcDbEntity
  8
0
  6
CONTINUOUS
 62
     0
100
AcDbLine
 10
-0.5
 20
-0.5
 30
0.0
 11
-0.5
 21
0.5
 31
0.0
  0
LINE
  5
9C
330
6D
100
AcDbEntity
  8
0
  6
CONTINUOUS
 62
     0
100
AcDbLine
 10
-0.25
 20
0.25
 30
0.0
 11
0.25
 21
0.25
 31
0.0
  0
LINE
  5
9D
330
6D
100
AcDbEntity
  8
0
  6
CONTINUOUS
 62
     0
100
AcDbLine
 10
0.25
 20
0.25
 30
0.0
 11
0.25
 21
-0.25
 31
0.0
  0
LINE
  5
9E
330
6D
100
AcDbEntity
  8
0
  6
CONTINUOUS
 62
     0
100
AcDbLine
 10
0.25
 20
-0.25
 30
0.0
 11
-0.25
 21
-0.25
 31
0.0
  0
LINE
  5
9F
330
6D
100
AcDbEntity
  8
0
  6
CONTINUOUS
 62
     0
100
AcDbLine
 10
-0.25
 20
-0.25
 30
0.0
 11
-0.25
 21
0.25
 31
0.0
  0
ENDBLK
  5
6F
330
6D
100
AcDbEntity
  8
0
100
AcDbBlockEnd
  0
BLOCK
  5
71
330
70
100
AcDbEntity
  8
0
100
AcDbBlockBegin
  2
EX_WBOX
 70
     0
 10
0.0
 20
0.0
 30
0.0
  3
EX_WBOX
  1

  0
LINE
  5
A0
330
70
100
AcDbEntity
  8
0
  6
CONTINUOUS
 62
     0
100
AcDbLine
 10
-0.5
 20
0.0
 30
0.0
 11
-1.0
 21
0.0
 31
0.0
  0
LINE
  5
A1
330
70
100
AcDbEntity
  8
0
  6
CONTINUOUS
 62
     0
100
AcDbLine
 10
-0.5
 20
0.5
 30
0.0
 11
0.5
 21
0.5
 31
0.0
  0
LINE
  5
A2
330
70
100
AcDbEntity
  8
0
  6
CONTINUOUS
 62
     0
100
AcDbLine
 10
0.5
 20
0.5
 30
0.0
 11
0.5
 21
-0.5
 31
0.0
  0
LINE
  5
A3
330
70
100
AcDbEntity
  8
0
  6
CONTINUOUS
 62
     0
100
AcDbLine
 10
0.5
 20
-0.5
 30
0.0
 11
-0.5
 21
-0.5
 31
0.0
  0
LINE
  5
A4
330
70
100
AcDbEntity
  8
0
  6
CONTINUOUS
 62
     0
100
AcDbLine
 10
-0.5
 20
-0.5
 30
0.0
 11
-0.5
 21
0.5
 31
0.0
  0
ENDBLK
  5
72
330
70
100
AcDbEntity
  8
0
100
AcDbBlockEnd
  0
BLOCK
  5
74
330
73
100
AcDbEntity
  8
0
100
AcDbBlockBegin
  2
EX_INTEGRAL
 70
     0
 10
0.0
 20
0.0
 30
0.0
  3
EX_INTEGRAL
  1

  0
LINE
  5
A5
330
73
100
AcDbEntity
  8
0
  6
CONTINUOUS
 62
     0
100
AcDbLine
 10
0.0
 20
0.0
 30
0.0
 11
-1.0
 21
0.0
 31
0.0
  0
ARC
  5
A6
330
73
100
AcDbEntity
  8
0
  6
CONTINUOUS
 62
     0
100
AcDbCircle
 10
0.542115
 20
0.164992
 30
0.0
 40
0.56667
100
AcDbArc
 50
73.07249033629006
 51
196.9275130221199
  0
ARC
  5
A7
330
73
100
AcDbEntity
  8
0
  6
CONTINUOUS
 62
     0
100
AcDbCircle
 10
-0.542115
 20
-0.164992
 30
0.0
 40
0.56667
100
AcDbArc
 50
253.0724869220464
 51
16.9275130559125
  0
ENDBLK
  5
75
330
73
100
AcDbEntity
  8
0
100
AcDbBlockEnd
  0
BLOCK
  5
166
330
165
100
AcDbEntity
  8
0
100
AcDbBlockBegin
  2
*D15
 70
     1
 10
0.0
 20
0.0
 30
0.0
  3
*D15
  1

  0
LINE
  5
168
330
165
100
AcDbEntity
  8
図
  6
CONTINUOUS
 62
     3
100
AcDbLine
 10
226.1051613141618
 20
360.90222575902
 30
0.0
 11
209.5999999999999
 21
360.90222575902
 31
0.0
  0
LINE
  5
169
330
165
100
AcDbEntity
  8
図
  6
CONTINUOUS
 62
     3
100
AcDbLine
 10
226.1051613141618
 20
310.90222575902
 30
0.0
 11
209.5999999999999
 21
310.90222575902
 31
0.0
  0
LINE
  5
16A
330
165
100
AcDbEntity
  8
図
  6
CONTINUOUS
 62
     3
100
AcDbLine
 10
211.5999999999999
 20
354.90222575902
 30
0.0
 11
211.5999999999999
 21
316.90222575902
 31
0.0
  0
INSERT
  5
16B
330
165
100
AcDbEntity
  8
図
 62
     3
100
AcDbBlockReference
  2
EX_NORM
 10
211.5999999999999
 20
360.90222575902
 30
0.0
 41
6.0
 42
6.0
 43
6.0
 50
90.0
  0
INSERT
  5
16C
330
165
100
AcDbEntity
  8
図
 62
     3
100
AcDbBlockReference
  2
EX_NORM
 10
211.5999999999999
 20
310.90222575902
 30
0.0
 41
6.0
 42
6.0
 43
6.0
 50
270.0
  0
MTEXT
  5
16D
330
165
100
AcDbEntity
  8
図
 62
     2
100
AcDbMText
 10
206.900000011921
 20
335.90222575902
 30
0.0
 40
8.0
 41
0.0
 71
     5
 72
     1
  1
%%c50
  7
EXCADDIM1
 11
0.0
 21
1.0
 31
0.0
  0
POINT
  5
16E
330
165
100
AcDbEntity
  8
DEFPOINTS
 62
     0
100
AcDbPoint
 10
227.50516129032
 20
360.90222575902
 30
0.0
  0
POINT
  5
16F
330
165
100
AcDbEntity
  8
DEFPOINTS
 62
     0
100
AcDbPoint
 10
227.50516129032
 20
310.90222575902
 30
0.0
  0
POINT
  5
170
330
165
100
AcDbEntity
  8
DEFPOINTS
 62
     0
100
AcDbPoint
 10
211.5999999999999
 20
310.90222575902
 30
0.0
  0
ENDBLK
  5
167
330
165
100
AcDbEntity
  8
0
100
AcDbBlockEnd
  0
BLOCK
  5
173
330
172
100
AcDbEntity
  8
0
100
AcDbBlockBegin
  2
*D16
 70
     1
 10
0.0
 20
0.0
 30
0.0
  3
*D16
  1

  0
LINE
  5
175
330
172
100
AcDbEntity
  8
図
  6
CONTINUOUS
 62
     3
100
AcDbLine
 10
227.50516129032
 20
362.3022257351781
 30
0.0
 11
227.50516129032
 21
394.8000000000001
 31
0.0
  0
LINE
  5
176
330
172
100
AcDbEntity
  8
図
  6
CONTINUOUS
 62
     3
100
AcDbLine
 10
280.7051612903199
 20
392.8000000000001
 30
0.0
 11
233.50516129032
 21
392.8000000000001
 31
0.0
  0
INSERT
  5
177
330
172
100
AcDbEntity
  8
図
 62
     3
100
AcDbBlockReference
  2
EX_NORM
 10
286.7051612903199
 20
392.8000000000001
 30
0.0
 41
6.0
 42
6.0
 43
6.0
  0
INSERT
  5
178
330
172
100
AcDbEntity
  8
図
 62
     3
100
AcDbBlockReference
  2
EX_NORM
 10
227.50516129032
 20
392.8000000000001
 30
0.0
 41
6.0
 42
6.0
 43
6.0
 50
180.0
  0
MTEXT
  5
179
330
172
100
AcDbEntity
  8
図
 62
     2
100
AcDbMText
 10
257.10516129032
 20
397.4999999880792
 30
0.0
 40
8.0
 41
0.0
 71
     5
 72
     1
  1
59.2
  7
EXCADDIM1
  0
POINT
  5
17A
330
172
100
AcDbEntity
  8
DEFPOINTS
 62
     0
100
AcDbPoint
 10
286.7051612903199
 20
349.90222575902
 30
0.0
  0
POINT
  5
17B
330
172
100
AcDbEntity
  8
DEFPOINTS
 62
     0
100
AcDbPoint
 10
227.50516129032
 20
360.90222575902
 30
0.0
  0
POINT
  5
17C
330
172
100
AcDbEntity
  8
DEFPOINTS
 62
     0
100
AcDbPoint
 10
227.50516129032
 20
392.8000000000001
 30
0.0
  0
ENDBLK
  5
174
330
172
100
AcDbEntity
  8
0
100
AcDbBlockEnd
  0
BLOCK
  5
17F
330
17E
100
AcDbEntity
  8
0
100
AcDbBlockBegin
  2
*D17
 70
     1
 10
0.0
 20
0.0
 30
0.0
  3
*D17
  1

  0
LINE
  5
181
330
17E
100
AcDbEntity
  8
図
  6
CONTINUOUS
 62
     3
100
AcDbLine
 10
230.7051612903199
 20
309.5022257828618
 30
0.0
 11
230.7051612903199
 21
294.4
 31
0.0
  0
LINE
  5
182
330
17E
100
AcDbEntity
  8
図
  6
CONTINUOUS
 62
     3
100
AcDbLine
 10
227.50516129032
 20
309.5022257828618
 30
0.0
 11
227.50516129032
 21
294.4
 31
0.0
  0
LINE
  5
183
330
17E
100
AcDbEntity
  8
図
  6
CONTINUOUS
 62
     3
100
AcDbLine
 10
230.7051612903199
 20
296.4
 30
0.0
 11
227.50516129032
 21
296.4
 31
0.0
  0
LINE
  5
184
330
17E
100
AcDbEntity
  8
図
  6
CONTINUOUS
 62
     3
100
AcDbLine
 10
236.7051612903199
 20
296.4
 30
0.0
 11
242.7051612903199
 21
296.4
 31
0.0
  0
LINE
  5
185
330
17E
100
AcDbEntity
  8
図
  6
CONTINUOUS
 62
     3
100
AcDbLine
 10
221.50516129032
 20
296.4
 30
0.0
 11
215.50516129032
 21
296.4
 31
0.0
  0
INSERT
  5
186
330
17E
100
AcDbEntity
  8
図
 62
     3
100
AcDbBlockReference
  2
EX_NORM
 10
230.7051612903199
 20
296.4
 30
0.0
 41
6.0
 42
6.0
 43
6.0
 50
180.0
  0
INSERT
  5
187
330
17E
100
AcDbEntity
  8
図
 62
     3
100
AcDbBlockReference
  2
EX_NORM
 10
227.50516129032
 20
296.4
 30
0.0
 41
6.0
 42
6.0
 43
6.0
  0
MTEXT
  5
188
330
17E
100
AcDbEntity
  8
図
 62
     2
100
AcDbMText
 10
213.50516129032
 20
301.099999988079
 30
0.0
 40
8.0
 41
0.0
 71
     5
 72
     1
  1
3.2
  7
EXCADDIM1
  0
POINT
  5
189
330
17E
100
AcDbEntity
  8
DEFPOINTS
 62
     0
100
AcDbPoint
 10
230.7051612903199
 20
310.90222575902
 30
0.0
  0
POINT
  5
18A
330
17E
100
AcDbEntity
  8
DEFPOINTS
 62
     0
100
AcDbPoint
 10
227.50516129032
 20
310.90222575902
 30
0.0
  0
POINT
  5
18B
330
17E
100
AcDbEntity
  8
DEFPOINTS
 62
     0
100
AcDbPoint
 10
227.50516129032
 20
296.4
 30
0.0
  0
ENDBLK
  5
180
330
17E
100
AcDbEntity
  8
0
100
AcDbBlockEnd
  0
BLOCK
  5
195
330
194
100
AcDbEntity
  8
0
100
AcDbBlockBegin
  2
*D18
 70
     1
 10
0.0
 20
0.0
 30
0.0
  3
*D18
  1

  0
LINE
  5
197
330
194
100
AcDbEntity
  8
図
  6
CONTINUOUS
 62
     3
100
AcDbLine
 10
280.7051612903199
 20
315.7200000238419
 30
0.0
 11
280.7051612903199
 21
308.58
 31
0.0
  0
LINE
  5
198
330
194
100
AcDbEntity
  8
図
  6
CONTINUOUS
 62
     3
100
AcDbLine
 10
280.7051612903199
 20
310.58
 30
0.0
 11
286.7051612903199
 21
310.58
 31
0.0
  0
LINE
  5
199
330
194
100
AcDbEntity
  8
図
  6
CONTINUOUS
 62
     3
100
AcDbLine
 10
274.7051612903199
 20
310.58
 30
0.0
 11
268.7051612903199
 21
310.58
 31
0.0
  0
LINE
  5
19A
330
194
100
AcDbEntity
  8
図
  6
CONTINUOUS
 62
     3
100
AcDbLine
 10
292.7051612903199
 20
310.58
 30
0.0
 11
298.7051612903199
 21
310.58
 31
0.0
  0
INSERT
  5
19B
330
194
100
AcDbEntity
  8
図
 62
     3
100
AcDbBlockReference
  2
EX_NORM
 10
280.7051612903199
 20
310.58
 30
0.0
 41
6.0
 42
6.0
 43
6.0
  0
INSERT
  5
19C
330
194
100
AcDbEntity
  8
図
 62
     3
100
AcDbBlockReference
  2
EX_NORM
 10
286.7051612903199
 20
310.58
 30
0.0
 41
6.0
 42
6.0
 43
6.0
 50
180.0
  0
MTEXT
  5
19D
330
194
100
AcDbEntity
  8
図
 62
     2
100
AcDbMText
 10
296.7051612903199
 20
315.2799999880791
 30
0.0
 40
8.0
 41
0.0
 71
     5
 72
     1
  1
6
  7
EXCADDIM1
  0
POINT
  5
19E
330
194
100
AcDbEntity
  8
DEFPOINTS
 62
     0
100
AcDbPoint
 10
280.7051612903199
 20
317.12
 30
0.0
  0
POINT
  5
19F
330
194
100
AcDbEntity
  8
DEFPOINTS
 62
     0
100
AcDbPoint
 10
286.7051612903199
 20
317.54
 30
0.0
  0
POINT
  5
1A0
330
194
100
AcDbEntity
  8
DEFPOINTS
 62
     0
100
AcDbPoint
 10
286.7051612903199
 20
310.58
 30
0.0
  0
ENDBLK
  5
196
330
194
100
AcDbEntity
  8
0
100
AcDbBlockEnd
  0
BLOCK
  5
1A6
330
1A5
100
AcDbEntity
  8
0
100
AcDbBlockBegin
  2
*D19
 70
     1
 10
0.0
 20
0.0
 30
0.0
  3
*D19
  1

  0
LINE
  5
1A8
330
1A5
100
AcDbEntity
  8
図
  6
CONTINUOUS
 62
     3
100
AcDbLine
 10
288.1051612664781
 20
349.90222575902
 30
0.0
 11
352.7599999999999
 21
349.90222575902
 31
0.0
  0
LINE
  5
1A9
330
1A5
100
AcDbEntity
  8
図
  6
CONTINUOUS
 62
     3
100
AcDbLine
 10
288.1051612664781
 20
321.90222575902
 30
0.0
 11
352.7599999999999
 21
321.90222575902
 31
0.0
  0
LINE
  5
1AA
330
1A5
100
AcDbEntity
  8
図
  6
CONTINUOUS
 62
     3
100
AcDbLine
 10
350.7599999999999
 20
343.90222575902
 30
0.0
 11
350.7599999999999
 21
327.90222575902
 31
0.0
  0
INSERT
  5
1AB
330
1A5
100
AcDbEntity
  8
図
 62
     3
100
AcDbBlockReference
  2
EX_NORM
 10
350.7599999999999
 20
349.90222575902
 30
0.0
 41
6.0
 42
6.0
 43
6.0
 50
90.0
  0
INSERT
  5
1AC
330
1A5
100
AcDbEntity
  8
図
 62
     3
100
AcDbBlockReference
  2
EX_NORM
 10
350.7599999999999
 20
321.90222575902
 30
0.0
 41
6.0
 42
6.0
 43
6.0
 50
270.0
  0
MTEXT
  5
1AD
330
1A5
100
AcDbEntity
  8
図
 62
     2
100
AcDbMText
 10
346.0600000119211
 20
365.9022257590199
 30
0.0
 40
8.0
 41
0.0
 71
     5
 72
     1
  1
%%c28
  7
EXCADDIM1
 11
0.0
 21
1.0
 31
0.0
  0
POINT
  5
1AE
330
1A5
100
AcDbEntity
  8
DEFPOINTS
 62
     0
100
AcDbPoint
 10
286.7051612903199
 20
349.90222575902
 30
0.0
  0
POINT
  5
1AF
330
1A5
100
AcDbEntity
  8
DEFPOINTS
 62
     0
100
AcDbPoint
 10
286.7051612903199
 20
321.90222575902
 30
0.0
  0
POINT
  5
1B0
330
1A5
100
AcDbEntity
  8
DEFPOINTS
 62
     0
100
AcDbPoint
 10
350.7599999999999
 20
321.90222575902
 30
0.0
  0
ENDBLK
  5
1A7
330
1A5
100
AcDbEntity
  8
0
100
AcDbBlockEnd
  0
BLOCK
  5
1B3
330
1B2
100
AcDbEntity
  8
0
100
AcDbBlockBegin
  2
*D20
 70
     1
 10
0.0
 20
0.0
 30
0.0
  3
*D20
  1

  0
LINE
  5
1B5
330
1B2
100
AcDbEntity
  8
図
  6
CONTINUOUS
 62
     3
100
AcDbLine
 10
288.1051612664781
 20
346.90222575902
 30
0.0
 11
341.3599999999999
 21
346.90222575902
 31
0.0
  0
LINE
  5
1B6
330
1B2
100
AcDbEntity
  8
図
  6
CONTINUOUS
 62
     3
100
AcDbLine
 10
314.5599999761581
 20
339.90222575902
 30
0.0
 11
341.3599999999999
 21
339.90222575902
 31
0.0
  0
LINE
  5
1B7
330
1B2
100
AcDbEntity
  8
図
  6
CONTINUOUS
 62
     3
100
AcDbLine
 10
339.3599999999999
 20
346.90222575902
 30
0.0
 11
339.3599999999999
 21
339.90222575902
 31
0.0
  0
LINE
  5
1B8
330
1B2
100
AcDbEntity
  8
図
  6
CONTINUOUS
 62
     3
100
AcDbLine
 10
339.3599999999999
 20
352.90222575902
 30
0.0
 11
339.3599999999999
 21
358.90222575902
 31
0.0
  0
LINE
  5
1B9
330
1B2
100
AcDbEntity
  8
図
  6
CONTINUOUS
 62
     3
100
AcDbLine
 10
339.3599999999999
 20
333.90222575902
 30
0.0
 11
339.3599999999999
 21
327.90222575902
 31
0.0
  0
INSERT
  5
1BA
330
1B2
100
AcDbEntity
  8
図
 62
     3
100
AcDbBlockReference
  2
EX_NORM
 10
339.3599999999999
 20
346.90222575902
 30
0.0
 41
6.0
 42
6.0
 43
6.0
 50
270.0
  0
INSERT
  5
1BB
330
1B2
100
AcDbEntity
  8
図
 62
     3
100
AcDbBlockReference
  2
EX_NORM
 10
339.3599999999999
 20
339.90222575902
 30
0.0
 41
6.0
 42
6.0
 43
6.0
 50
90.0
  0
MTEXT
  5
1BC
330
1B2
100
AcDbEntity
  8
図
 62
     2
100
AcDbMText
 10
334.6600000119212
 20
356.9022257590198
 30
0.0
 40
8.0
 41
0.0
 71
     5
 72
     1
  1
7
  7
EXCADDIM1
 11
0.0
 21
1.0
 31
0.0
  0
POINT
  5
1BD
330
1B2
100
AcDbEntity
  8
DEFPOINTS
 62
     0
100
AcDbPoint
 10
286.7051612903199
 20
346.90222575902
 30
0.0
  0
POINT
  5
1BE
330
1B2
100
AcDbEntity
  8
DEFPOINTS
 62
     0
100
AcDbPoint
 10
313.16
 20
339.90222575902
 30
0.0
  0
POINT
  5
1BF
330
1B2
100
AcDbEntity
  8
DEFPOINTS
 62
     0
100
AcDbPoint
 10
339.3599999999999
 20
339.90222575902
 30
0.0
  0
ENDBLK
  5
1B4
330
1B2
100
AcDbEntity
  8
0
100
AcDbBlockEnd
  0
BLOCK
  5
1C2
330
1C1
100
AcDbEntity
  8
0
100
AcDbBlockBegin
  2
*D21
 70
     1
 10
0.0
 20
0.0
 30
0.0
  3
*D21
  1

  0
LINE
  5
1C4
330
1C1
100
AcDbEntity
  8
図
  6
CONTINUOUS
 62
     3
100
AcDbLine
 10
203.5347904217651
 20
176.2940952255133
 30
0.0
 11
193.8755321588748
 21
173.7059047744867
 31
0.0
  0
MTEXT
  5
1C5
330
1C1
100
AcDbEntity
  8
図
 62
     2
100
AcDbMText
 10
223.5687090912267
 20
186.5279655898156
 30
0.0
 40
8.0
 41
0.0
 71
     5
 72
     1
  1
%%c22
  7
EXCADDIM1
 11
0.9659258262890302
 21
0.2588190451026627
 31
0.0
  0
LINE
  5
1C6
330
1C1
100
AcDbEntity
  8
図
  6
CONTINUOUS
 62
     3
100
AcDbLine
 10
188.0799772011407
 20
172.1529905038707
 30
0.0
 11
209.3303453794993
 21
177.8470094961293
 31
0.0
  0
INSERT
  5
1C7
330
1C1
100
AcDbEntity
  8
図
 62
     3
100
AcDbBlockReference
  2
EX_NORM
 10
188.0799772011407
 20
172.1529905038707
 30
0.0
 41
6.0
 42
6.0
 43
6.0
 50
195.0000000000084
  0
INSERT
  5
1C8
330
1C1
100
AcDbEntity
  8
図
 62
     3
100
AcDbBlockReference
  2
EX_NORM
 10
209.3303453794993
 20
177.8470094961293
 30
0.0
 41
6.0
 42
6.0
 43
6.0
 50
15.00000000000842
  0
POINT
  5
1C9
330
1C1
100
AcDbEntity
  8
DEFPOINTS
 62
     0
100
AcDbPoint
 10
209.3303453794993
 20
177.8470094961293
 30
0.0
  0
POINT
  5
1CA
330
1C1
100
AcDbEntity
  8
DEFPOINTS
 62
     0
100
AcDbPoint
 10
188.0799772011407
 20
172.1529905038707
 30
0.0
  0
ENDBLK
  5
1C3
330
1C1
100
AcDbEntity
  8
0
100
AcDbBlockEnd
  0
BLOCK
  5
1CD
330
1CC
100
AcDbEntity
  8
0
100
AcDbBlockBegin
  2
*D22
 70
     1
 10
0.0
 20
0.0
 30
0.0
  3
*D22
  1

  0
LINE
  5
1CF
330
1CC
100
AcDbEntity
  8
図
  6
CONTINUOUS
 62
     3
100
AcDbLine
 10
200.1193748526931
 20
176.4142135623731
 30
0.0
 11
197.2909477279469
 21
173.5857864376269
 31
0.0
  0
MTEXT
  5
1D0
330
1CC
100
AcDbEntity
  8
図
 62
     2
100
AcDbMText
 10
212.3523221756498
 20
195.2939646116245
 30
0.0
 40
8.0
 41
0.0
 71
     5
 72
     1
  1
%%c16
  7
EXCADDIM1
 11
0.7071067811865485
 21
0.7071067811865467
 31
0.0
  0
LINE
  5
1D1
330
1CC
100
AcDbEntity
  8
図
  6
CONTINUOUS
 62
     3
100
AcDbLine
 10
193.0483070408276
 20
169.3431457505076
 30
0.0
 11
204.3620155398124
 21
180.6568542494924
 31
0.0
  0
INSERT
  5
1D2
330
1CC
100
AcDbEntity
  8
図
 62
     3
100
AcDbBlockReference
  2
EX_NORM
 10
193.0483070408276
 20
169.3431457505076
 30
0.0
 41
6.0
 42
6.0
 43
6.0
 50
224.9999999999999
  0
INSERT
  5
1D3
330
1CC
100
AcDbEntity
  8
図
 62
     3
100
AcDbBlockReference
  2
EX_NORM
 10
204.3620155398124
 20
180.6568542494924
 30
0.0
 41
6.0
 42
6.0
 43
6.0
 50
44.99999999999993
  0
POINT
  5
1D4
330
1CC
100
AcDbEntity
  8
DEFPOINTS
 62
     0
100
AcDbPoint
 10
204.3620155398124
 20
180.6568542494924
 30
0.0
  0
POINT
  5
1D5
330
1CC
100
AcDbEntity
  8
DEFPOINTS
 62
     0
100
AcDbPoint
 10
193.0483070408276
 20
169.3431457505076
 30
0.0
  0
ENDBLK
  5
1CE
330
1CC
100
AcDbEntity
  8
0
100
AcDbBlockEnd
  0
BLOCK
  5
1D8
330
1D7
100
AcDbEntity
  8
0
100
AcDbBlockBegin
  2
*D23
 70
     1
 10
0.0
 20
0.0
 30
0.0
  3
*D23
  1

  0
LINE
  5
1DA
330
1D7
100
AcDbEntity
  8
図
  6
CONTINUOUS
 62
     3
100
AcDbLine
 10
286.70516129032
 20
187.3999999761581
 30
0.0
 11
286.70516129032
 21
196.62
 31
0.0
  0
LINE
  5
1DB
330
1D7
100
AcDbEntity
  8
図
  6
CONTINUOUS
 62
     3
100
AcDbLine
 10
275.40516129032
 20
187.3999999761581
 30
0.0
 11
275.40516129032
 21
196.62
 31
0.0
  0
LINE
  5
1DC
330
1D7
100
AcDbEntity
  8
図
  6
CONTINUOUS
 62
     3
100
AcDbLine
 10
286.70516129032
 20
194.62
 30
0.0
 11
275.40516129032
 21
194.62
 31
0.0
  0
LINE
  5
1DD
330
1D7
100
AcDbEntity
  8
図
  6
CONTINUOUS
 62
     3
100
AcDbLine
 10
292.70516129032
 20
194.62
 30
0.0
 11
298.70516129032
 21
194.62
 31
0.0
  0
LINE
  5
1DE
330
1D7
100
AcDbEntity
  8
図
  6
CONTINUOUS
 62
     3
100
AcDbLine
 10
269.40516129032
 20
194.62
 30
0.0
 11
263.40516129032
 21
194.62
 31
0.0
  0
INSERT
  5
1DF
330
1D7
100
AcDbEntity
  8
図
 62
     3
100
AcDbBlockReference
  2
EX_NORM
 10
286.70516129032
 20
194.62
 30
0.0
 41
6.0
 42
6.0
 43
6.0
 50
180.0
  0
INSERT
  5
1E0
330
1D7
100
AcDbEntity
  8
図
 62
     3
100
AcDbBlockReference
  2
EX_NORM
 10
275.40516129032
 20
194.62
 30
0.0
 41
6.0
 42
6.0
 43
6.0
  0
MTEXT
  5
1E1
330
1D7
100
AcDbEntity
  8
図
 62
     2
100
AcDbMText
 10
262.4051612903201
 20
199.319999988079
 30
0.0
 40
8.0
 41
0.0
 71
     5
 72
     1
  1
11
  7
EXCADDIM1
  0
POINT
  5
1E2
330
1D7
100
AcDbEntity
  8
DEFPOINTS
 62
     0
100
AcDbPoint
 10
286.70516129032
 20
186.0
 30
0.0
  0
POINT
  5
1E3
330
1D7
100
AcDbEntity
  8
DEFPOINTS
 62
     0
100
AcDbPoint
 10
275.40516129032
 20
186.0
 30
0.0
  0
POINT
  5
1E4
330
1D7
100
AcDbEntity
  8
DEFPOINTS
 62
     0
100
AcDbPoint
 10
275.40516129032
 20
194.62
 30
0.0
  0
ENDBLK
  5
1D9
330
1D7
100
AcDbEntity
  8
0
100
AcDbBlockEnd
  0
BLOCK
  5
1E7
330
1E6
100
AcDbEntity
  8
0
100
AcDbBlockBegin
  2
*D24
 70
     1
 10
0.0
 20
0.0
 30
0.0
  3
*D24
  1

  0
LINE
  5
1E9
330
1E6
100
AcDbEntity
  8
図
  6
CONTINUOUS
 62
     3
100
AcDbLine
 10
290.2451612664781
 20
179.0
 30
0.0
 11
305.24516129032
 21
179.0
 31
0.0
  0
LINE
  5
1EA
330
1E6
100
AcDbEntity
  8
図
  6
CONTINUOUS
 62
     3
100
AcDbLine
 10
290.6851612664781
 20
171.0
 30
0.0
 11
305.24516129032
 21
171.0
 31
0.0
  0
LINE
  5
1EB
330
1E6
100
AcDbEntity
  8
図
  6
CONTINUOUS
 62
     3
100
AcDbLine
 10
303.24516129032
 20
179.0
 30
0.0
 11
303.24516129032
 21
171.0
 31
0.0
  0
LINE
  5
1EC
330
1E6
100
AcDbEntity
  8
図
  6
CONTINUOUS
 62
     3
100
AcDbLine
 10
303.24516129032
 20
185.0
 30
0.0
 11
303.24516129032
 21
191.0
 31
0.0
  0
LINE
  5
1ED
330
1E6
100
AcDbEntity
  8
図
  6
CONTINUOUS
 62
     3
100
AcDbLine
 10
303.24516129032
 20
165.0
 30
0.0
 11
303.24516129032
 21
159.0
 31
0.0
  0
INSERT
  5
1EE
330
1E6
100
AcDbEntity
  8
図
 62
     3
100
AcDbBlockReference
  2
EX_NORM
 10
303.24516129032
 20
179.0
 30
0.0
 41
6.0
 42
6.0
 43
6.0
 50
270.0
  0
INSERT
  5
1EF
330
1E6
100
AcDbEntity
  8
図
 62
     3
100
AcDbBlockReference
  2
EX_NORM
 10
303.24516129032
 20
171.0
 30
0.0
 41
6.0
 42
6.0
 43
6.0
 50
90.0
  0
MTEXT
  5
1F0
330
1E6
100
AcDbEntity
  8
図
 62
     2
100
AcDbMText
 10
298.5451613022409
 20
175.0
 30
0.0
 40
8.0
 41
0.0
 71
     5
 72
     1
  1
8
  7
EXCADDIM1
 11
0.0
 21
1.0
 31
0.0
  0
POINT
  5
1F1
330
1E6
100
AcDbEntity
  8
DEFPOINTS
 62
     0
100
AcDbPoint
 10
288.84516129032
 20
179.0
 30
0.0
  0
POINT
  5
1F2
330
1E6
100
AcDbEntity
  8
DEFPOINTS
 62
     0
100
AcDbPoint
 10
289.28516129032
 20
171.0
 30
0.0
  0
POINT
  5
1F3
330
1E6
100
AcDbEntity
  8
DEFPOINTS
 62
     0
100
AcDbPoint
 10
303.24516129032
 20
171.0
 30
0.0
  0
ENDBLK
  5
1E8
330
1E6
100
AcDbEntity
  8
0
100
AcDbBlockEnd
  0
BLOCK
  5
1F8
330
1F7
100
AcDbEntity
  8
0
100
AcDbBlockBegin
  2
*D25
 70
     1
 10
0.0
 20
0.0
 30
0.0
  3
*D25
  1

  0
LINE
  5
1FA
330
1F7
100
AcDbEntity
  8
図
  6
CONTINUOUS
 62
     3
100
AcDbLine
 10
277.40516129032
 20
162.6000000238419
 30
0.0
 11
277.40516129032
 21
152.86
 31
0.0
  0
LINE
  5
1FB
330
1F7
100
AcDbEntity
  8
図
  6
CONTINUOUS
 62
     3
100
AcDbLine
 10
283.70508189212
 20
162.6000000238419
 30
0.0
 11
283.70508189212
 21
152.86
 31
0.0
  0
LINE
  5
1FC
330
1F7
100
AcDbEntity
  8
図
  6
CONTINUOUS
 62
     3
100
AcDbLine
 10
277.40516129032
 20
154.86
 30
0.0
 11
283.70508189212
 21
154.86
 31
0.0
  0
LINE
  5
1FD
330
1F7
100
AcDbEntity
  8
図
  6
CONTINUOUS
 62
     3
100
AcDbLine
 10
271.40516129032
 20
154.86
 30
0.0
 11
265.40516129032
 21
154.86
 31
0.0
  0
LINE
  5
1FE
330
1F7
100
AcDbEntity
  8
図
  6
CONTINUOUS
 62
     3
100
AcDbLine
 10
289.70508189212
 20
154.86
 30
0.0
 11
295.70508189212
 21
154.86
 31
0.0
  0
INSERT
  5
1FF
330
1F7
100
AcDbEntity
  8
図
 62
     3
100
AcDbBlockReference
  2
EX_NORM
 10
277.40516129032
 20
154.86
 30
0.0
 41
6.0
 42
6.0
 43
6.0
  0
INSERT
  5
200
330
1F7
100
AcDbEntity
  8
図
 62
     3
100
AcDbBlockReference
  2
EX_NORM
 10
283.70508189212
 20
154.86
 30
0.0
 41
6.0
 42
6.0
 43
6.0
 50
180.0
  0
MTEXT
  5
201
330
1F7
100
AcDbEntity
  8
図
 62
     2
100
AcDbMText
 10
293.70508189212
 20
159.5599999880791
 30
0.0
 40
8.0
 41
0.0
 71
     5
 72
     1
  1
6
  7
EXCADDIM1
  0
POINT
  5
202
330
1F7
100
AcDbEntity
  8
DEFPOINTS
 62
     0
100
AcDbPoint
 10
277.40516129032
 20
164.0
 30
0.0
  0
POINT
  5
203
330
1F7
100
AcDbEntity
  8
DEFPOINTS
 62
     0
100
AcDbPoint
 10
283.70508189212
 20
164.0
 30
0.0
  0
POINT
  5
204
330
1F7
100
AcDbEntity
  8
DEFPOINTS
 62
     0
100
AcDbPoint
 10
283.70508189212
 20
154.86
 30
0.0
  0
ENDBLK
  5
1F9
330
1F7
100
AcDbEntity
  8
0
100
AcDbBlockEnd
  0
BLOCK
  5
207
330
206
100
AcDbEntity
  8
0
100
AcDbBlockBegin
  2
*D26
 70
     1
 10
0.0
 20
0.0
 30
0.0
  3
*D26
  1

  0
LINE
  5
209
330
206
100
AcDbEntity
  8
図
  6
CONTINUOUS
 62
     3
100
AcDbLine
 10
276.0051613141619
 20
166.0
 30
0.0
 11
264.70516129032
 21
166.0
 31
0.0
  0
LINE
  5
20A
330
206
100
AcDbEntity
  8
図
  6
CONTINUOUS
 62
     3
100
AcDbLine
 10
276.0051613141619
 20
164.0
 30
0.0
 11
264.70516129032
 21
164.0
 31
0.0
  0
LINE
  5
20B
330
206
100
AcDbEntity
  8
図
  6
CONTINUOUS
 62
     3
100
AcDbLine
 10
266.70516129032
 20
166.0
 30
0.0
 11
266.70516129032
 21
164.0
 31
0.0
  0
LINE
  5
20C
330
206
100
AcDbEntity
  8
図
  6
CONTINUOUS
 62
     3
100
AcDbLine
 10
266.70516129032
 20
172.0
 30
0.0
 11
266.70516129032
 21
178.0
 31
0.0
  0
LINE
  5
20D
330
206
100
AcDbEntity
  8
図
  6
CONTINUOUS
 62
     3
100
AcDbLine
 10
266.70516129032
 20
158.0
 30
0.0
 11
266.70516129032
 21
152.0
 31
0.0
  0
INSERT
  5
20E
330
206
100
AcDbEntity
  8
図
 62
     3
100
AcDbBlockReference
  2
EX_NORM
 10
266.70516129032
 20
166.0
 30
0.0
 41
6.0
 42
6.0
 43
6.0
 50
270.0
  0
INSERT
  5
20F
330
206
100
AcDbEntity
  8
図
 62
     3
100
AcDbBlockReference
  2
EX_NORM
 10
266.70516129032
 20
164.0
 30
0.0
 41
6.0
 42
6.0
 43
6.0
 50
90.0
  0
MTEXT
  5
210
330
206
100
AcDbEntity
  8
図
 62
     2
100
AcDbMText
 10
262.0051613022409
 20
153.9999999999999
 30
0.0
 40
8.0
 41
0.0
 71
     5
 72
     1
  1
2
  7
EXCADDIM1
 11
0.0
 21
1.0
 31
0.0
  0
POINT
  5
211
330
206
100
AcDbEntity
  8
DEFPOINTS
 62
     0
100
AcDbPoint
 10
277.40516129032
 20
166.0
 30
0.0
  0
POINT
  5
212
330
206
100
AcDbEntity
  8
DEFPOINTS
 62
     0
100
AcDbPoint
 10
277.40516129032
 20
164.0
 30
0.0
  0
POINT
  5
213
330
206
100
AcDbEntity
  8
DEFPOINTS
 62
     0
100
AcDbPoint
 10
266.70516129032
 20
164.0
 30
0.0
  0
ENDBLK
  5
208
330
206
100
AcDbEntity
  8
0
100
AcDbBlockEnd
  0
BLOCK
  5
270
330
26F
100
AcDbEntity
  8
0
100
AcDbBlockBegin
  2
*D27
 70
     1
 10
0.0
 20
0.0
 30
0.0
  3
*D27
  1

  0
LINE
  5
272
330
26F
100
AcDbEntity
  8
図
  6
CONTINUOUS
 62
     3
100
AcDbLine
 10
265.70516129032
 20
337.3022257351781
 30
0.0
 11
265.70516129032
 21
379.2
 31
0.0
  0
LINE
  5
273
330
26F
100
AcDbEntity
  8
図
  6
CONTINUOUS
 62
     3
100
AcDbLine
 10
280.70516129032
 20
377.2
 30
0.0
 11
271.70516129032
 21
377.2
 31
0.0
  0
INSERT
  5
274
330
26F
100
AcDbEntity
  8
図
 62
     3
100
AcDbBlockReference
  2
EX_NORM
 10
286.70516129032
 20
377.2
 30
0.0
 41
6.0
 42
6.0
 43
6.0
  0
INSERT
  5
275
330
26F
100
AcDbEntity
  8
図
 62
     3
100
AcDbBlockReference
  2
EX_NORM
 10
265.70516129032
 20
377.2
 30
0.0
 41
6.0
 42
6.0
 43
6.0
 50
180.0
  0
MTEXT
  5
276
330
26F
100
AcDbEntity
  8
図
 62
     2
100
AcDbMText
 10
276.20516129032
 20
381.8999999880791
 30
0.0
 40
8.0
 41
0.0
 71
     5
 72
     1
  1
21
  7
EXCADDIM1
  0
POINT
  5
277
330
26F
100
AcDbEntity
  8
DEFPOINTS
 62
     0
100
AcDbPoint
 10
286.70516129032
 20
349.90222575902
 30
0.0
  0
POINT
  5
278
330
26F
100
AcDbEntity
  8
DEFPOINTS
 62
     0
100
AcDbPoint
 10
265.70516129032
 20
335.90222575902
 30
0.0
  0
POINT
  5
279
330
26F
100
AcDbEntity
  8
DEFPOINTS
 62
     0
100
AcDbPoint
 10
265.70516129032
 20
377.2
 30
0.0
  0
ENDBLK
  5
271
330
26F
100
AcDbEntity
  8
0
100
AcDbBlockEnd
  0
ENDSEC
  0
SECTION
  2
ENTITIES
  0
TEXT
  5
A9
330
1F
100
AcDbEntity
  8
0
  6
CONTINUOUS
 62
     2
100
AcDbText
 10
183.2000000000006
 20
23.30000000000007
 30
0.0
 40
6.75
  1
ジャニス工業株式会社
 41
1.025641025641026
  7
EXCADTTF1
 72
     5
 11
273.2000000000006
 21
23.30000000000007
 31
0.0
100
AcDbText
  0
HATCH
  5
AA
330
1F
100
AcDbEntity
  8
0
  6
CONTINUOUS
 62
     3
100
AcDbHatch
 10
0.0
 20
0.0
 30
0.0
210
0.0
220
0.0
230
1.0
  2
SOLID
 70
     1
 71
     1
 91
        2
 92
        3
 72
     1
 73
     1
 93
       27
 10
158.6345531466501
 20
30.27289865950819
 42
-0.1769427732109284
 10
158.6345531466501
 20
30.2728986595082
 42
0.0
 10
158.6345531466501
 20
29.54389865950816
 42
0.0
 10
158.8100531466502
 20
29.54389865950809
 42
-0.207533601427307
 10
159.949484557914
 20
30.39864718258096
 42
-0.1226604740888933
 10
160.9565531466502
 20
30.42004865950815
 42
-0.3213715781137954
 10
161.9976656044418
 20
29.14213028756951
 42
-0.064704004662446
 10
162.0028031466499
 20
28.46659865950812
 42
-0.257798906330806
 10
161.7908531466501
 20
28.21009865950812
 42
-0.056602577721096
 10
161.3372531466501
 20
28.05214865950819
 42
-0.0166741689362636
 10
159.6740531466501
 20
27.73624865950815
 42
0.1186092302783404
 10
158.5765031466501
 20
27.20974865950813
 42
0.1699204224386695
 10
158.09860314665
 20
26.41054865950811
 42
0.1006533494296199
 10
158.0544173359163
 20
25.71707110191455
 42
0.1675695228968024
 10
158.4874031466501
 20
24.78784865950814
 42
0.1376980079804242
 10
159.27445314665
 20
24.33289865950818
 42
0.0719813663796923
 10
159.6322031466499
 20
24.27349865950816
 42
0.0
 10
160.1803031466501
 20
24.27349865950818
 42
0.1944607457809085
 10
161.9987531466501
 20
25.20904865950814
 42
0.1288538183665954
 10
162.1823531466499
 20
24.75004865950808
 42
0.2098387395261546
 10
162.78175314665
 20
24.41929865950817
 42
0.0
 10
163.2164531466501
 20
24.41659865950819
 42
0.0945009641609563
 10
163.8442031466501
 20
24.55024865950816
 42
0.0
 10
163.8442031466501
 20
24.86479865950814
 42
-0.2395739894657535
 10
163.2961031466502
 20
24.85939865950809
 42
-0.2502312110031057
 10
163.02610314665
 20
25.36699865950829
 42
-0.0104343570771765
 10
163.06255314665
 20
29.15239865950813
 42
0.4051015674140716
 97
        0
 92
        3
 72
     1
 73
     1
 93
        8
 10
162.02710314665
 20
27.80509865950812
 42
-0.0339435190873666
 10
162.0271031466509
 20
27.80509865950587
 42
-0.0001110072973599
 10
161.9704031466502
 20
25.73689865950809
 42
-0.2253076310552528
 10
160.55290314665
 20
24.7905486595082
 42
0.0
 10
160.2059531466499
 20
24.79054865950819
 42
-0.3657967558150132
 10
159.1745531466501
 20
25.88674865950816
 42
0.0
 10
159.1745531466502
 20
26.27824865950817
 42
-0.2530797830369341
 10
159.87115314665
 20
27.24214865950812
 42
-0.0724473624720066
 97
        0
 75
     0
 76
     1
 98
        1
 10
0.0
 20
0.0
  0
HATCH
  5
AB
330
1F
100
AcDbEntity
  8
0
  6
CONTINUOUS
 62
     3
100
AcDbHatch
 10
0.0
 20
0.0
 30
0.0
210
0.0
220
0.0
230
1.0
  2
SOLID
 70
     1
 71
     1
 91
        1
 92
        3
 72
     1
 73
     1
 93
       30
 10
180.14680314665
 20
30.66709865950824
 42
-0.0009362235736497
 10
180.14680314665
 20
30.66709865950815
 42
0.0681165430304653
 10
179.8194186973464
 20
29.68564865950816
 42
0.0
 10
178.5862031466502
 20
30.52939865950818
 42
-0.302112590907374
 10
178.5862031466501
 20
30.52939865950816
 42
0.0
 10
177.3428531466501
 20
29.57629865950815
 42
-0.3704245237568778
 10
177.3428531466499
 20
29.5762986595081
 42
0.0
 10
177.4076531466499
 20
28.93909865950815
 42
-0.0262822419456939
 10
178.1744531466501
 20
28.3261986595081
 42
-0.180060563604375
 10
179.3975531466502
 20
27.95359865950818
 42
-0.0298130817160724
 10
179.3975531466501
 20
27.95359865950811
 42
-0.3153987453686078
 10
180.52480314665
 20
26.66434865950816
 42
0.0
 10
180.5180531466501
 20
26.0878986595081
 42
-0.3510306079065168
 10
178.3445531466499
 20
24.26539865950815
 42
0.0
 10
177.71005314665
 20
24.2653986595081
 42
-0.1053356344842436
 10
176.30605314665
 20
24.67039865950816
 42
0.1188608286962634
 10
176.56255314665
 20
25.69639865950819
 42
0.0
 10
178.1015531466502
 20
24.75139865950817
 42
-0.2447573632916039
 10
178.10155314665
 20
24.75139865950814
 42
0.0
 10
179.5865531466501
 20
25.79089865950818
 42
-0.3734162676407277
 10
179.5865531466501
 20
25.79089865950812
 42
0.0
 10
179.0479031466501
 20
26.82904865950818
 42
-0.261219770190848
 10
177.79105314665
 20
27.28534865950818
 42
-0.0572747914118363
 10
177.7910531466502
 20
27.28534865950816
 42
-0.1189658875692221
 10
176.7920531466499
 20
27.87124865950817
 42
-0.2005226878639636
 10
176.3735531466499
 20
28.81489865951255
 42
0.0
 10
176.3668031466501
 20
29.17264865950809
 42
-0.2622894489606957
 10
177.4400531466501
 20
30.81289865950819
 42
-0.0988461274137808
 10
178.4444531466501
 20
31.0545486595081
 42
0.0
 10
178.8170531466499
 20
31.05454865950817
 42
-0.0920156312561188
 97
        0
 75
     0
 76
     1
 98
        1
 10
0.0
 20
0.0
  0
ARC
  5
AC
330
1F
100
AcDbEntity
  8
0
  6
CONTINUOUS
 62
     3
100
AcDbCircle
 10
183.5684962137742
 20
28.98038875014993
 30
0.0
 40
3.814836007475662
100
AcDbArc
 50
153.7591918158497
 51
169.3462759801917
  0
LINE
  5
AD
330
1F
100
AcDbEntity
  8
0
  6
CONTINUOUS
 62
     3
100
AcDbLine
 10
179.64865314665
 20
29.68564865950816
 30
0.0
 11
179.8194186973464
 21
29.68564865950816
 31
0.0
  0
LINE
  5
AE
330
1F
100
AcDbEntity
  8
0
  6
CONTINUOUS
 62
     3
100
AcDbLine
 10
178.3675031466499
 20
30.52399865950815
 30
0.0
 11
178.5862031466501
 21
30.52939865950816
 31
0.0
  0
LINE
  5
AF
330
1F
100
AcDbEntity
  8
0
  6
CONTINUOUS
 62
     3
100
AcDbLine
 10
176.3668031466501
 20
29.17264865950813
 30
0.0
 11
176.3735531466499
 21
28.81489865951255
 31
0.0
  0
LINE
  5
B0
330
1F
100
AcDbEntity
  8
0
  6
CONTINUOUS
 62
     3
100
AcDbLine
 10
177.3428531466499
 20
29.5762986595081
 30
0.0
 11
177.3239531466501
 21
29.22259865950809
 31
0.0
  0
LINE
  5
B1
330
1F
100
AcDbEntity
  8
0
  6
CONTINUOUS
 62
     3
100
AcDbLine
 10
180.52480314665
 20
26.66434865950816
 30
0.0
 11
180.51805314665
 21
26.08789865950814
 31
0.0
  0
LINE
  5
B2
330
1F
100
AcDbEntity
  8
0
  6
CONTINUOUS
 62
     3
100
AcDbLine
 10
179.5730531466501
 20
26.10139865950816
 30
0.0
 11
179.5865531466501
 21
25.79089865950812
 31
0.0
  0
ARC
  5
B3
330
1F
100
AcDbEntity
  8
0
  6
CONTINUOUS
 62
     3
100
AcDbCircle
 10
174.3068826264188
 20
25.71559519130005
 30
0.0
 40
2.255907480157676
100
AcDbArc
 50
332.3987521421788
 51
359.5124385477116
  0
LINE
  5
B4
330
1F
100
AcDbEntity
  8
0
  6
CONTINUOUS
 62
     3
100
AcDbLine
 10
158.6345531466501
 20
29.54389865950816
 30
0.0
 11
158.8100531466501
 21
29.54389865950816
 31
0.0
  0
HATCH
  5
B5
330
1F
100
AcDbEntity
  8
0
  6
CONTINUOUS
 62
     3
100
AcDbHatch
 10
0.0
 20
0.0
 30
0.0
210
0.0
220
0.0
230
1.0
  2
SOLID
 70
     1
 71
     1
 91
        2
 92
        1
 93
        1
 72
     2
 10
173.857102807667
 20
33.31670933747421
 40
0.7144668933539768
 50
0.0
 51
360.0
 73
     1
 97
        0
 92
        3
 72
     1
 73
     1
 93
        3
 10
173.2186031466501
 20
30.93979865950813
 42
0.1200283885712921
 10
174.4606031466501
 20
24.41254865950807
 42
-0.0401820615762149
 10
173.2199531466501
 20
24.40849865950815
 42
-0.0237521668114666
 97
        0
 75
     0
 76
     1
 98
        1
 10
0.0
 20
0.0
  0
HATCH
  5
B6
330
1F
100
AcDbEntity
  8
0
  6
CONTINUOUS
 62
     3
100
AcDbHatch
 10
0.0
 20
0.0
 30
0.0
210
0.0
220
0.0
230
1.0
  2
SOLID
 70
     1
 71
     1
 91
        1
 92
        3
 72
     1
 73
     1
 93
       16
 10
165.37375314665
 20
24.42064865950811
 42
-0.0386228372648426
 10
165.36160314665
 20
30.92899865950813
 42
-0.0398707891902887
 10
166.5428531466499
 20
30.93439865950817
 42
-0.1256886216044368
 10
166.48885314665
 20
29.83009865950815
 42
-0.0367815758121429
 10
166.48885314665
 20
29.8300986595081
 42
-0.268021535028829
 10
168.87160314665
 20
31.06669865950814
 42
-0.2571134422124888
 10
170.50105314665
 20
30.2607486595082
 42
-0.1522526366014298
 10
170.9155031466501
 20
28.92019865950813
 42
-0.0158825412051521
 10
170.8858031466499
 20
24.41389865950813
 42
-0.0285251271418421
 10
169.7450531466501
 20
24.41389865950812
 42
-0.0452212723224612
 10
169.8031031466501
 20
28.57729865950819
 42
-0.0315567291532142
 10
169.44940314665
 20
29.80714865950818
 42
-0.1476272403790709
 10
167.14630314665
 20
29.98399865950811
 42
-0.3908144705745794
 10
166.4969531466501
 20
28.36804865950809
 42
-0.2046259928850854
 10
166.4969531466501
 20
28.36804865950819
 42
0.0
 10
166.59820314665
 20
24.40984865950816
 42
-0.0304995761723369
 97
        0
 75
     0
 76
     1
 98
        1
 10
0.0
 20
0.0
  0
HATCH
  5
B7
330
1F
100
AcDbEntity
  8
0
  6
CONTINUOUS
 62
     3
100
AcDbHatch
 10
0.0
 20
0.0
 30
0.0
210
0.0
220
0.0
230
1.0
  2
SOLID
 70
     1
 71
     1
 91
        1
 92
        3
 72
     1
 73
     1
 93
       10
 10
153.5450531466501
 20
24.64339865950811
 42
-0.017362223501556
 10
153.56260314665
 20
35.23684865950821
 42
-0.0267627618865285
 10
153.5626031466501
 20
35.23684865950815
 42
0.0737939047395297
 10
156.1465031466501
 20
35.247648659508
 42
0.0183878899657109
 10
156.0425531466501
 20
25.69639865950811
 42
-0.1144749489451909
 10
155.6240531466499
 20
23.68489865950809
 42
-0.1929163439413163
 10
153.6328031466501
 20
22.12159865950809
 42
-0.0603888289562337
 10
152.5771031466501
 20
21.85834865950812
 42
0.0
 10
152.33005314665
 20
22.61029865950811
 42
0.0860918333465722
 10
153.06850314665
 20
23.00314865950812
 42
0.1331843103855141
 97
        0
 75
     0
 76
     1
 98
        1
 10
0.0
 20
0.0
  0
LINE
  5
B8
330
1F
100
AcDbEntity
  8
0
  6
CONTINUOUS
 62
     3
100
AcDbLine
 10
177.71005314665
 20
24.26539865950815
 30
0.0
 11
178.3445531466499
 21
24.26539865950815
 31
0.0
  0
LINE
  5
B9
330
1F
100
AcDbEntity
  8
0
  6
CONTINUOUS
 62
     3
100
AcDbLine
 10
176.73805314665
 20
25.69639865950819
 30
0.0
 11
176.56255314665
 21
25.69639865950819
 31
0.0
  0
LINE
  5
BA
330
1F
100
AcDbEntity
  8
0
  6
CONTINUOUS
 62
     3
100
AcDbLine
 10
178.10155314665
 20
24.75139865950814
 30
0.0
 11
178.42555314665
 21
24.75139865950814
 31
0.0
  0
LINE
  5
BB
330
1F
100
AcDbEntity
  8
0
  6
CONTINUOUS
 62
     3
100
AcDbLine
 10
178.81705314665
 20
31.0545486595081
 30
0.0
 11
178.4444531466501
 21
31.0545486595081
 31
0.0
  0
ARC
  5
BC
330
1F
100
AcDbEntity
  8
0
  6
CONTINUOUS
 62
     3
100
AcDbCircle
 10
178.4829467825501
 20
29.30858472583338
 30
0.0
 40
1.225172860204506
100
AcDbArc
 50
17.92452211681263
 51
85.16543319077402
  0
ARC
  5
BD
330
1F
100
AcDbEntity
  8
0
  6
CONTINUOUS
 62
     3
100
AcDbCircle
 10
178.4070192972107
 20
29.45349989415843
 30
0.0
 40
1.071227862207862
100
AcDbArc
 50
92.11404364449162
 51
173.4175047026091
  0
ARC
  5
BE
330
1F
100
AcDbEntity
  8
0
  6
CONTINUOUS
 62
     3
100
AcDbCircle
 10
180.0606281466524
 20
29.87646365950889
 30
0.0
 40
2.8137038745868
100
AcDbArc
 50
193.4375782160214
 51
199.459638038058
  0
ARC
  5
BF
330
1F
100
AcDbEntity
  8
0
  6
CONTINUOUS
 62
     3
100
AcDbCircle
 10
178.614427047749
 20
29.66277283533225
 30
0.0
 40
1.407127414674368
100
AcDbArc
 50
210.9501336849607
 51
251.7794729821079
  0
ARC
  5
C0
330
1F
100
AcDbEntity
  8
0
  6
CONTINUOUS
 62
     3
100
AcDbCircle
 10
181.9076933938412
 20
38.38718621007024
 30
0.0
 40
10.73128851703336
100
AcDbArc
 50
249.6420733479936
 51
256.4727051201885
  0
ARC
  5
C1
330
1F
100
AcDbEntity
  8
0
  6
CONTINUOUS
 62
     3
100
AcDbCircle
 10
179.0409144258391
 20
26.5043451706315
 30
0.0
 40
1.492490151459212
100
AcDbArc
 50
6.154262763177246
 51
76.17509904255616
  0
ARC
  5
C2
330
1F
100
AcDbEntity
  8
0
  6
CONTINUOUS
 62
     3
100
AcDbCircle
 10
178.2932777293512
 20
26.5338493423609
 30
0.0
 40
2.26903011636129
100
AcDbArc
 50
271.2948770866743
 51
348.6654156292868
  0
ARC
  5
C3
330
1F
100
AcDbEntity
  8
0
  6
CONTINUOUS
 62
     3
100
AcDbCircle
 10
177.9586010918555
 20
27.7631315362205
 30
0.0
 40
3.50655263156004
100
AcDbArc
 50
241.8829576087176
 51
265.9354096935781
  0
ARC
  5
C4
330
1F
100
AcDbEntity
  8
0
  6
CONTINUOUS
 62
     3
100
AcDbCircle
 10
178.3272208646973
 20
26.53317279554767
 30
0.0
 40
1.796008070925054
100
AcDbArc
 50
207.7689879465537
 51
262.7817283832026
  0
ARC
  5
C5
330
1F
100
AcDbEntity
  8
0
  6
CONTINUOUS
 62
     3
100
AcDbCircle
 10
178.4071555489303
 20
25.94004727514334
 30
0.0
 40
1.188790983753352
100
AcDbArc
 50
270.8867385422408
 51
352.7925382056677
  0
ARC
  5
C6
330
1F
100
AcDbEntity
  8
0
  6
CONTINUOUS
 62
     3
100
AcDbCircle
 10
178.6616009170733
 20
25.99692450866337
 30
0.0
 40
0.917420304438028
100
AcDbArc
 50
6.53892419415897
 51
65.09756080693691
  0
ARC
  5
C7
330
1F
100
AcDbEntity
  8
0
  6
CONTINUOUS
 62
     3
100
AcDbCircle
 10
176.4342978366086
 20
21.58914283510421
 30
0.0
 40
5.855556827945508
100
AcDbArc
 50
63.49050203733571
 51
76.60259219849584
  0
ARC
  5
C8
330
1F
100
AcDbEntity
  8
0
  6
CONTINUOUS
 62
     3
100
AcDbCircle
 10
178.5053629159901
 20
29.64792822013374
 30
0.0
 40
2.468201901559134
100
AcDbArc
 50
226.0402388947521
 51
253.1776672992999
  0
ARC
  5
C9
330
1F
100
AcDbEntity
  8
0
  6
CONTINUOUS
 62
     3
100
AcDbCircle
 10
177.71198515852
 20
28.84385538151059
 30
0.0
 40
1.338745211811222
100
AcDbArc
 50
181.2393899443581
 51
226.5942921332421
  0
ARC
  5
CA
330
1F
100
AcDbEntity
  8
0
  6
CONTINUOUS
 62
     3
100
AcDbCircle
 10
178.3592699359923
 20
29.0401858220373
 30
0.0
 40
1.99686512061838
100
AcDbArc
 50
117.4083995939977
 51
176.1964688215695
  0
ARC
  5
CB
330
1F
100
AcDbEntity
  8
0
  6
CONTINUOUS
 62
     3
100
AcDbCircle
 10
178.5542208856781
 20
28.41958195875225
 30
0.0
 40
2.63994973073505
100
AcDbArc
 50
92.38301574576484
 51
114.9635286746436
  0
ARC
  5
CC
330
1F
100
AcDbEntity
  8
0
  6
CONTINUOUS
 62
     3
100
AcDbCircle
 10
178.7708565692113
 20
29.0332607672791
 30
0.0
 40
2.021815735184314
100
AcDbArc
 50
67.66151957087348
 51
88.69073168448988
  0
ARC
  5
CD
330
1F
100
AcDbEntity
  8
0
  6
CONTINUOUS
 62
     3
100
AcDbCircle
 10
242.928890646563
 20
193.0059486592841
 30
0.0
 40
174.0560045792631
100
AcDbArc
 50
248.6422112053103
 51
248.8567777804232
  0
ARC
  5
CE
330
1F
100
AcDbEntity
  8
0
  6
CONTINUOUS
 62
     3
100
AcDbCircle
 10
128.9380115072773
 20
27.66499585532472
 30
0.0
 40
44.40152170071624
100
AcDbArc
 50
355.7940354718673
 51
4.229650257234378
  0
ARC
  5
CF
330
1F
100
AcDbEntity
  8
0
  6
CONTINUOUS
 62
     3
100
AcDbCircle
 10
215.0508094359114
 20
27.63762011478775
 30
0.0
 40
40.71812781178001
100
AcDbArc
 50
175.3387608397566
 51
184.5428594926176
  0
ARC
  5
D0
330
1F
100
AcDbEntity
  8
0
  6
CONTINUOUS
 62
     3
100
AcDbCircle
 10
173.8828817874268
 20
11.35960836824665
 30
0.0
 40
13.06571897050218
100
AcDbArc
 50
87.46575055044718
 51
92.90832285102188
  0
ARC
  5
D1
330
1F
100
AcDbEntity
  8
0
  6
CONTINUOUS
 62
     3
100
AcDbCircle
 10
173.8291215205546
 20
33.50664948716155
 30
0.0
 40
2.638457097680414
100
AcDbArc
 50
256.6209501743446
 51
283.9984576255729
  0
CIRCLE
  5
D2
330
1F
100
AcDbEntity
  8
0
  6
CONTINUOUS
 62
     3
100
AcDbCircle
 10
173.857102807667
 20
33.31670933747421
 30
0.0
 40
0.714466893353978
  0
LINE
  5
D3
330
1F
100
AcDbEntity
  8
0
  6
CONTINUOUS
 62
     3
100
AcDbLine
 10
166.4969531466501
 20
28.36804865950819
 30
0.0
 11
166.4969531466501
 21
26.20939865950811
 31
0.0
  0
ARC
  5
D4
330
1F
100
AcDbEntity
  8
0
  6
CONTINUOUS
 62
     3
100
AcDbCircle
 10
124.6235397734318
 20
27.59876117343492
 30
0.0
 40
40.87395612262144
100
AcDbArc
 50
355.5405243117485
 51
4.673398698656258
  0
ARC
  5
D5
330
1F
100
AcDbEntity
  8
0
  6
CONTINUOUS
 62
     3
100
AcDbCircle
 10
165.9416569972246
 20
33.24413759628976
 30
0.0
 40
2.386698717092032
100
AcDbArc
 50
255.9341994177206
 51
284.5896440601899
  0
ARC
  5
D6
330
1F
100
AcDbEntity
  8
0
  6
CONTINUOUS
 62
     3
100
AcDbCircle
 10
174.0114945479232
 20
30.01571362766106
 30
0.0
 40
7.524931000916362
100
AcDbArc
 50
172.9875214416311
 51
181.4134392789641
  0
ARC
  5
D7
330
1F
100
AcDbEntity
  8
0
  6
CONTINUOUS
 62
     3
100
AcDbCircle
 10
168.750821380051
 20
28.38551977637201
 30
0.0
 40
2.68389799331452
100
AcDbArc
 50
87.42068310381028
 51
147.4361518966862
  0
ARC
  5
D8
330
1F
100
AcDbEntity
  8
0
  6
CONTINUOUS
 62
     3
100
AcDbCircle
 10
168.9544811482752
 20
29.18409329595988
 30
0.0
 40
1.88442875111108
100
AcDbArc
 50
34.84393737091607
 51
92.5207065423111
  0
ARC
  5
D9
330
1F
100
AcDbEntity
  8
0
  6
CONTINUOUS
 62
     3
100
AcDbCircle
 10
168.5581103068965
 20
28.92571884903055
 30
0.0
 40
2.35739930292118
100
AcDbArc
 50
359.8658335690532
 51
34.49363429411157
  0
ARC
  5
DA
330
1F
100
AcDbEntity
  8
0
  6
CONTINUOUS
 62
     3
100
AcDbCircle
 10
158.6382720242012
 20
28.46631549624283
 30
0.0
 40
12.28561817573392
100
AcDbArc
 50
358.4775281223095
 51
2.117232414210064
  0
ARC
  5
DB
330
1F
100
AcDbEntity
  8
0
  6
CONTINUOUS
 62
     3
100
AcDbCircle
 10
203.5315267323396
 20
25.98134749478265
 30
0.0
 40
32.68333159707643
100
AcDbArc
 50
176.2131780319488
 51
182.7488833337936
  0
ARC
  5
DC
330
1F
100
AcDbEntity
  8
0
  6
CONTINUOUS
 62
     3
100
AcDbCircle
 10
170.3154281466501
 20
18.12030523845556
 30
0.0
 40
6.319386504253488
100
AcDbArc
 50
84.82155189294139
 51
95.17844810705873
  0
ARC
  5
DD
330
1F
100
AcDbEntity
  8
0
  6
CONTINUOUS
 62
     3
100
AcDbCircle
 10
136.8234675729949
 20
26.95502675764931
 30
0.0
 40
33.01951133337176
100
AcDbArc
 50
355.5862454873798
 51
2.816115806820253
  0
ARC
  5
DE
330
1F
100
AcDbEntity
  8
0
  6
CONTINUOUS
 62
     3
100
AcDbCircle
 10
167.5889480913705
 20
28.60630277643111
 30
0.0
 40
2.214345015488308
100
AcDbArc
 50
359.2495022237244
 51
32.84055016678327
  0
ARC
  5
DF
330
1F
100
AcDbEntity
  8
0
  6
CONTINUOUS
 62
     3
100
AcDbCircle
 10
168.2020029041106
 20
28.64732546277378
 30
0.0
 40
1.703290114094006
100
AcDbArc
 50
42.91644474042847
 51
128.3015542351336
  0
ARC
  5
E0
330
1F
100
AcDbEntity
  8
0
  6
CONTINUOUS
 62
     3
100
AcDbCircle
 10
168.7132344473281
 20
28.41590450276112
 30
0.0
 40
2.216797912636262
100
AcDbArc
 50
134.9787476233347
 51
181.2369872983282
  0
ARC
  5
E1
330
1F
100
AcDbEntity
  8
0
  6
CONTINUOUS
 62
     3
100
AcDbCircle
 10
181.2817715790208
 20
26.18300294019627
 30
0.0
 40
14.79024198622985
100
AcDbArc
 50
179.8977458165987
 51
186.8855675734268
  0
ARC
  5
E2
330
1F
100
AcDbEntity
  8
0
  6
CONTINUOUS
 62
     3
100
AcDbCircle
 10
165.9161756013863
 20
16.50138509023418
 30
0.0
 40
7.937818188836994
100
AcDbArc
 50
85.07099551674689
 51
93.91830029343228
  0
ARC
  5
E3
330
1F
100
AcDbEntity
  8
0
  6
CONTINUOUS
 62
     3
100
AcDbCircle
 10
-4495.80308443547
 20
154.4653049117566
 30
0.0
 40
4659.552002521183
100
AcDbArc
 50
358.4169008257799
 51
358.4423418242109
  0
ARC
  5
E4
330
1F
100
AcDbEntity
  8
0
  6
CONTINUOUS
 62
     3
100
AcDbCircle
 10
160.2648938153185
 20
26.75672979060414
 30
0.0
 40
1.987163207995832
100
AcDbArc
 50
278.3335103000368
 51
329.1221464187299
  0
LINE
  5
E5
330
1F
100
AcDbEntity
  8
0
  6
CONTINUOUS
 62
     3
100
AcDbLine
 10
160.2059531466499
 20
24.7905486595082
 30
0.0
 11
160.55290314665
 21
24.7905486595082
 31
0.0
  0
ARC
  5
E6
330
1F
100
AcDbEntity
  8
0
  6
CONTINUOUS
 62
     3
100
AcDbCircle
 10
160.3391930697748
 20
25.94922760195573
 30
0.0
 40
1.166314609693994
100
AcDbArc
 50
183.0707787095794
 51
263.4402016072427
  0
LINE
  5
E7
330
1F
100
AcDbEntity
  8
0
  6
CONTINUOUS
 62
     3
100
AcDbLine
 10
159.1745531466501
 20
26.27824865950811
 30
0.0
 11
159.1745531466501
 21
25.88674865950816
 31
0.0
  0
ARC
  5
E8
330
1F
100
AcDbEntity
  8
0
  6
CONTINUOUS
 62
     3
100
AcDbCircle
 10
160.4140373367569
 20
26.11614958094367
 30
0.0
 40
1.250038866914106
100
AcDbArc
 50
115.7403688633493
 51
172.5491744442191
  0
ARC
  5
E9
330
1F
100
AcDbEntity
  8
0
  6
CONTINUOUS
 62
     3
100
AcDbCircle
 10
161.5132130351541
 20
23.76637725335956
 30
0.0
 40
3.844131572310416
100
AcDbArc
 50
98.71271710191789
 51
115.2874718053599
  0
ARC
  5
EA
330
1F
100
AcDbEntity
  8
0
  6
CONTINUOUS
 62
     3
100
AcDbCircle
 10
159.7211219870745
 20
35.75002762321014
 30
0.0
 40
8.272813629388034
100
AcDbArc
 50
278.4088456599976
 51
286.1851416003176
  0
ARC
  5
EB
330
1F
100
AcDbEntity
  8
0
  6
CONTINUOUS
 62
     3
100
AcDbCircle
 10
154.8181640024455
 20
43.9483514104445
 30
0.0
 40
8.801517666980931
100
AcDbArc
 50
261.7986203004403
 51
278.6803384946418
  0
ARC
  5
EC
330
1F
100
AcDbEntity
  8
0
  6
CONTINUOUS
 62
     3
100
AcDbCircle
 10
285.908506282687
 20
29.05920721901691
 30
0.0
 40
129.9094848936721
100
AcDbArc
 50
177.2695926307304
 51
181.4833117237826
  0
ARC
  5
ED
330
1F
100
AcDbEntity
  8
0
  6
CONTINUOUS
 62
     3
100
AcDbCircle
 10
151.4979872358123
 20
25.59262713760188
 30
0.0
 40
4.545750526228622
100
AcDbArc
 50
335.1860595856123
 51
1.308075913059364
  0
ARC
  5
EE
330
1F
100
AcDbEntity
  8
0
  6
CONTINUOUS
 62
     3
100
AcDbCircle
 10
152.6779465577096
 20
25.3876703725366
 30
0.0
 40
3.40278937639223
100
AcDbArc
 50
286.2966123578915
 51
329.973223283839
  0
ARC
  5
EF
330
1F
100
AcDbEntity
  8
0
  6
CONTINUOUS
 62
     3
100
AcDbCircle
 10
152.0191149973331
 20
26.34446305830772
 30
0.0
 40
4.520682821642724
100
AcDbArc
 50
277.0901027239701
 51
290.9134154817058
  0
ARC
  5
F0
330
1F
100
AcDbEntity
  8
0
  6
CONTINUOUS
 62
     3
100
AcDbCircle
 10
151.5669457937089
 20
24.9351971889198
 30
0.0
 40
2.44693400078005
100
AcDbArc
 50
288.1715191042997
 51
307.8537826235693
  0
ARC
  5
F1
330
1F
100
AcDbEntity
  8
0
  6
CONTINUOUS
 62
     3
100
AcDbCircle
 10
152.0185477299204
 20
24.06815036945829
 30
0.0
 40
1.495538371061266
100
AcDbArc
 50
314.592391474832
 51
344.9374073189123
  0
ARC
  5
F2
330
1F
100
AcDbEntity
  8
0
  6
CONTINUOUS
 62
     3
100
AcDbCircle
 10
54.66771042458623
 20
30.10394671677682
 30
0.0
 40
99.02800860798017
100
AcDbArc
 50
356.8390243485978
 51
2.971133813187157
  0
ARC
  5
F3
330
1F
100
AcDbEntity
  8
0
  6
CONTINUOUS
 62
     3
100
AcDbCircle
 10
139.6287913045416
 20
25.34685523845576
 30
0.0
 40
13.9340300996012
100
AcDbArc
 50
353.1274757312911
 51
357.106204490141
  0
LINE
  5
F4
330
1F
100
AcDbEntity
  8
0
  6
CONTINUOUS
 62
     3
100
AcDbLine
 10
158.6345531466501
 20
30.2728986595082
 30
0.0
 11
158.6345531466501
 21
29.54389865950816
 31
0.0
  0
ARC
  5
F5
330
1F
100
AcDbEntity
  8
0
  6
CONTINUOUS
 62
     3
100
AcDbCircle
 10
160.3650723540599
 20
28.65780383715764
 30
0.0
 40
1.789762210353438
100
AcDbArc
 50
103.4267945469744
 51
150.3242613737993
  0
ARC
  5
F6
330
1F
100
AcDbEntity
  8
0
  6
CONTINUOUS
 62
     3
100
AcDbCircle
 10
160.4959819159661
 20
28.38767661026043
 30
0.0
 40
2.08390546932846
100
AcDbArc
 50
77.23143261361693
 51
105.203415964315
  0
ARC
  5
F7
330
1F
100
AcDbEntity
  8
0
  6
CONTINUOUS
 62
     3
100
AcDbCircle
 10
160.5856682563539
 20
29.05483772306843
 30
0.0
 40
1.414693077252004
100
AcDbArc
 50
3.537639967999379
 51
74.8013566619203
  0
ARC
  5
F8
330
1F
100
AcDbEntity
  8
0
  6
CONTINUOUS
 62
     3
100
AcDbCircle
 10
159.4010774713314
 20
28.78459740750247
 30
0.0
 40
2.621087502037842
100
AcDbArc
 50
353.0315250986587
 51
7.839947970678348
  0
ARC
  5
F9
330
1F
100
AcDbEntity
  8
0
  6
CONTINUOUS
 62
     3
100
AcDbCircle
 10
161.6646191134668
 20
28.53022665008575
 30
0.0
 40
0.344117656456262
100
AcDbArc
 50
291.5204897073511
 51
349.3445900274031
  0
ARC
  5
FA
330
1F
100
AcDbEntity
  8
0
  6
CONTINUOUS
 62
     3
100
AcDbCircle
 10
160.8686610022179
 20
30.12814725377496
 30
0.0
 40
2.128226670545568
100
AcDbArc
 50
282.7195832898965
 51
295.6781112778079
  0
ARC
  5
FB
330
1F
100
AcDbEntity
  8
0
  6
CONTINUOUS
 62
     3
100
AcDbCircle
 10
155.7706019997157
 20
52.82404059550424
 30
0.0
 40
25.38964818740764
100
AcDbArc
 50
278.8438342053764
 51
282.6649181367123
  0
ARC
  5
FC
330
1F
100
AcDbEntity
  8
0
  6
CONTINUOUS
 62
     3
100
AcDbCircle
 10
160.2194027735158
 20
25.19216962965743
 30
0.0
 40
2.60187323396984
100
AcDbArc
 50
102.0988446293839
 51
129.1556705448828
  0
ARC
  5
FD
330
1F
100
AcDbEntity
  8
0
  6
CONTINUOUS
 62
     3
100
AcDbCircle
 10
159.4794475806031
 20
26.12732665001602
 30
0.0
 40
1.409590741115844
100
AcDbArc
 50
129.8344892359069
 51
168.4089447024628
  0
ARC
  5
FE
330
1F
100
AcDbEntity
  8
0
  6
CONTINUOUS
 62
     3
100
AcDbCircle
 10
159.7815003713998
 20
25.95517425095488
 30
0.0
 40
1.743418745177338
100
AcDbArc
 50
164.8589457925044
 51
187.8495628504518
  0
ARC
  5
FF
330
1F
100
AcDbEntity
  8
0
  6
CONTINUOUS
 62
     3
100
AcDbCircle
 10
159.61830665831
 20
25.88030043145727
 30
0.0
 40
1.57238469425258
100
AcDbArc
 50
185.9586126338419
 51
224.0091989319859
  0
ARC
  5
100
330
1F
100
AcDbEntity
  8
0
  6
CONTINUOUS
 62
     3
100
AcDbCircle
 10
159.6912590607377
 20
25.96222209545192
 30
0.0
 40
1.681791315512732
100
AcDbArc
 50
224.289750990011
 51
255.6505938786759
  0
ARC
  5
101
330
1F
100
AcDbEntity
  8
0
  6
CONTINUOUS
 62
     3
100
AcDbCircle
 10
159.6585626147352
 20
25.53926988774822
 30
0.0
 40
1.266045664183572
100
AcDbArc
 50
252.3384873625213
 51
268.8069976857606
  0
LINE
  5
102
330
1F
100
AcDbEntity
  8
0
  6
CONTINUOUS
 62
     3
100
AcDbLine
 10
159.6322031466499
 20
24.27349865950816
 30
0.0
 11
160.1803031466501
 21
24.27349865950816
 31
0.0
  0
ARC
  5
103
330
1F
100
AcDbEntity
  8
0
  6
CONTINUOUS
 62
     3
100
AcDbCircle
 10
159.9322609173402
 20
26.99068052513655
 30
0.0
 40
2.728479840207864
100
AcDbArc
 50
275.2158792069686
 51
319.2336424873511
  0
ARC
  5
104
330
1F
100
AcDbEntity
  8
0
  6
CONTINUOUS
 62
     3
100
AcDbCircle
 10
162.9663112111663
 20
25.32985188531461
 30
0.0
 40
0.975070268019444
100
AcDbArc
 50
187.1167640402297
 51
216.4860549324747
  0
ARC
  5
105
330
1F
100
AcDbEntity
  8
0
  6
CONTINUOUS
 62
     3
100
AcDbCircle
 10
162.8587547016292
 20
25.2673491305726
 30
0.0
 40
0.851539101240796
100
AcDbArc
 50
217.4081478714985
 51
264.8118660441384
  0
ARC
  5
106
330
1F
100
AcDbEntity
  8
0
  6
CONTINUOUS
 62
     3
100
AcDbCircle
 10
163.1799178389118
 20
26.12929025646065
 30
0.0
 40
1.713081240041788
100
AcDbArc
 50
271.2220539293239
 51
292.8159509797653
  0
LINE
  5
107
330
1F
100
AcDbEntity
  8
0
  6
CONTINUOUS
 62
     3
100
AcDbLine
 10
162.78175314665
 20
24.41929865950817
 30
0.0
 11
163.21645314665
 21
24.41929865950817
 31
0.0
  0
LINE
  5
108
330
1F
100
AcDbEntity
  8
0
  6
CONTINUOUS
 62
     3
100
AcDbLine
 10
163.8442031466501
 20
24.55024865950816
 30
0.0
 11
163.8442031466501
 21
24.8647986595081
 31
0.0
  0
ARC
  5
109
330
1F
100
AcDbEntity
  8
0
  6
CONTINUOUS
 62
     3
100
AcDbCircle
 10
163.5648415691593
 20
25.4012237748218
 30
0.0
 40
0.60480971827296
100
AcDbArc
 50
243.6191685566582
 51
297.5097757939563
  0
ARC
  5
10A
330
1F
100
AcDbEntity
  8
0
  6
CONTINUOUS
 62
     3
100
AcDbCircle
 10
163.6364797889208
 20
25.36605857560949
 30
0.0
 40
0.610377366214778
100
AcDbArc
 50
179.9117548191414
 51
236.1065985968857
  0
ARC
  5
10B
330
1F
100
AcDbEntity
  8
0
  6
CONTINUOUS
 62
     3
100
AcDbCircle
 10
253.7300271677419
 20
26.38647687863465
 30
0.0
 40
90.70965311731324
100
AcDbArc
 50
178.2526643324597
 51
180.6439560401927
  0
ARC
  5
10C
330
1F
100
AcDbEntity
  8
0
  6
CONTINUOUS
 62
     3
100
AcDbCircle
 10
161.0141254520557
 20
29.0038325194663
 30
0.0
 40
2.05380815022918
100
AcDbArc
 50
4.148222840814693
 51
92.36000944257292
  0
ARC
  5
10D
330
1F
100
AcDbEntity
  8
0
  6
CONTINUOUS
 62
     3
100
AcDbCircle
 10
160.8537064825106
 20
27.52334577853776
 30
0.0
 40
3.533367030654128
100
AcDbArc
 50
88.77000393305703
 51
128.9068631829044
  0
LINE
  5
10E
330
1F
100
AcDbEntity
  8
0
  6
CONTINUOUS
 62
     6
100
AcDbLine
 10
152.5771031466501
 20
21.85834865950812
 30
0.0
 11
152.3300531466501
 21
22.61029865950809
 31
0.0
  0
TEXT
  5
10F
330
1F
100
AcDbEntity
  8
図枠
  6
CONTINUOUS
 62
     2
100
AcDbText
 10
39.30000000000005
 20
52.95
 30
0.0
 40
8.5
  1
製図
 41
1.509694117647059
  7
EXCADSTD
 72
     5
 11
59.46520000000005
 21
52.95
 31
0.0
100
AcDbText
  0
TEXT
  5
110
330
1F
100
AcDbEntity
  8
図枠
  6
CONTINUOUS
 62
     2
100
AcDbText
 10
70.30000000000005
 20
52.95
 30
0.0
 40
8.5
  1
写図
 41
1.509694117647059
  7
EXCADSTD
 72
     5
 11
90.46520000000005
 21
52.95
 31
0.0
100
AcDbText
  0
TEXT
  5
111
330
1F
100
AcDbEntity
  8
図枠
  6
CONTINUOUS
 62
     2
100
AcDbText
 10
100.3000000000001
 20
52.95
 30
0.0
 40
8.5
  1
検図
 41
1.303826737967914
  7
EXCADSTD
 72
     5
 11
117.7154
 21
52.95
 31
0.0
100
AcDbText
  0
LINE
  5
112
330
1F
100
AcDbEntity
  8
図枠
  6
EXLTYPE2
 62
     6
100
AcDbLine
 10
-1.200000000000045
 20
298.2
 30
0.0
 11
34.80000000000005
 21
298.2
 31
0.0
  0
LINE
  5
113
330
1F
100
AcDbEntity
  8
図枠
  6
CONTINUOUS
 62
     7
100
AcDbLine
 10
34.80000000000005
 20
18.2
 30
0.0
 11
34.80000000000005
 21
578.2
 31
0.0
  0
LINE
  5
114
330
1F
100
AcDbEntity
  8
図枠
  6
CONTINUOUS
 62
     7
100
AcDbLine
 10
34.80000000000005
 20
578.2
 30
0.0
 11
398.8
 21
578.2
 31
0.0
  0
LINE
  5
115
330
1F
100
AcDbEntity
  8
図枠
  6
CONTINUOUS
 62
     7
100
AcDbLine
 10
398.8
 20
18.2
 30
0.0
 11
398.8
 21
578.2
 31
0.0
  0
LINE
  5
116
330
1F
100
AcDbEntity
  8
図枠
  6
CONTINUOUS
 62
     7
100
AcDbLine
 10
34.80000000000005
 20
62.2
 30
0.0
 11
398.8
 21
62.2
 31
0.0
  0
LINE
  5
117
330
1F
100
AcDbEntity
  8
図枠
  6
CONTINUOUS
 62
     7
100
AcDbLine
 10
34.80000000000005
 20
18.2
 30
0.0
 11
398.8
 21
18.2
 31
0.0
  0
LINE
  5
118
330
1F
100
AcDbEntity
  8
図枠
  6
CONTINUOUS
 62
     6
100
AcDbLine
 10
148.8000000000001
 20
62.2
 30
0.0
 11
148.8000000000001
 21
18.2
 31
0.0
  0
LINE
  5
119
330
1F
100
AcDbEntity
  8
図枠
  6
CONTINUOUS
 62
     6
100
AcDbLine
 10
96.80000000000005
 20
62.2
 30
0.0
 11
96.80000000000005
 21
18.2
 31
0.0
  0
LINE
  5
11A
330
1F
100
AcDbEntity
  8
図枠
  6
CONTINUOUS
 62
     6
100
AcDbLine
 10
65.80000000000005
 20
62.2
 30
0.0
 11
65.80000000000005
 21
18.2
 31
0.0
  0
CIRCLE
  5
11B
330
1F
100
AcDbEntity
  8
図枠
  6
CONTINUOUS
 62
     6
100
AcDbCircle
 10
44.80000000000005
 20
23.2
 30
0.0
 40
0.20000004
  0
CIRCLE
  5
11C
330
1F
100
AcDbEntity
  8
図枠
  6
CONTINUOUS
 62
     6
100
AcDbCircle
 10
54.80000000000005
 20
23.2
 30
0.0
 40
0.20000004
  0
CIRCLE
  5
11D
330
1F
100
AcDbEntity
  8
図枠
  6
CONTINUOUS
 62
     6
100
AcDbCircle
 10
75.80000000000005
 20
23.2
 30
0.0
 40
0.20000004
  0
CIRCLE
  5
11E
330
1F
100
AcDbEntity
  8
図枠
  6
CONTINUOUS
 62
     6
100
AcDbCircle
 10
85.80000000000005
 20
23.2
 30
0.0
 40
0.20000004
  0
LINE
  5
11F
330
1F
100
AcDbEntity
  8
図枠
  6
CONTINUOUS
 62
     6
100
AcDbLine
 10
122.8000000000001
 20
62.2
 30
0.0
 11
122.8000000000001
 21
18.2
 31
0.0
  0
LINE
  5
120
330
1F
100
AcDbEntity
  8
図枠
  6
EXLTYPE2
 62
     6
100
AcDbLine
 10
34.80000000000005
 20
28.2
 30
0.0
 11
96.80000000000005
 21
28.2
 31
0.0
  0
LINE
  5
121
330
1F
100
AcDbEntity
  8
図枠
  6
CONTINUOUS
 62
     6
100
AcDbLine
 10
398.8
 20
38.2
 30
0.0
 11
148.8000000000001
 21
38.2
 31
0.0
  0
LINE
  5
122
330
1F
100
AcDbEntity
  8
図枠
  6
CONTINUOUS
 62
     6
100
AcDbLine
 10
370.8
 20
62.2
 30
0.0
 11
370.8
 21
38.2
 31
0.0
  0
LINE
  5
123
330
1F
100
AcDbEntity
  8
図枠
  6
CONTINUOUS
 62
     6
100
AcDbLine
 10
286.8000000000001
 20
62.2
 30
0.0
 11
286.8000000000001
 21
18.2
 31
0.0
  0
LINE
  5
124
330
1F
100
AcDbEntity
  8
図枠
  6
CONTINUOUS
 62
     6
100
AcDbLine
 10
276.8000000000001
 20
62.2
 30
0.0
 11
276.8000000000001
 21
18.2
 31
0.0
  0
LINE
  5
125
330
1F
100
AcDbEntity
  8
図枠
  6
CONTINUOUS
 62
     6
100
AcDbLine
 10
377.3307617200001
 20
42.80058594000002
 30
0.0
 11
392.7987793
 21
58.53996582
 31
0.0
  0
LINE
  5
126
330
1F
100
AcDbEntity
  8
図枠
  6
CONTINUOUS
 62
     6
100
AcDbLine
 10
360.8
 20
62.2
 30
0.0
 11
360.8
 21
38.2
 31
0.0
  0
TEXT
  5
127
330
1F
100
AcDbEntity
  8
図枠
  6
CONTINUOUS
 62
     2
100
AcDbText
 10
126.3000000000001
 20
52.95
 30
0.0
 40
8.5
  1
承認
 41
1.303826737967915
  7
EXCADSTD
 72
     5
 11
143.7154000000001
 21
52.95
 31
0.0
100
AcDbText
  0
TEXT
  5
128
330
1F
100
AcDbEntity
  8
図枠
  6
CONTINUOUS
 62
     2
100
AcDbText
 10
376.9074218799999
 20
51.74455565999997
 30
0.0
 40
6.0
  1
１
 41
1.101333351135257
  7
EXCADSTD
 72
     5
 11
381.6274219562939
 21
51.74455565999997
 31
0.0
100
AcDbText
  0
TEXT
  5
129
330
1F
100
AcDbEntity
  8
図枠
  6
CONTINUOUS
 62
     2
100
AcDbText
 10
277.9500000000001
 20
50.95
 30
0.0
 40
8.5
  1
品
 41
1.120000000000002
  7
EXCADSTD
 72
     5
 11
284.7500000000001
 21
50.95
 31
0.0
100
AcDbText
  0
TEXT
  5
12A
330
1F
100
AcDbEntity
  8
図枠
  6
CONTINUOUS
 62
     2
100
AcDbText
 10
277.9500000000001
 20
40.95
 30
0.0
 40
8.5
  1
番
 41
1.120000000000002
  7
EXCADSTD
 72
     5
 11
284.7500000000001
 21
40.95
 31
0.0
100
AcDbText
  0
TEXT
  5
12B
330
1F
100
AcDbEntity
  8
図枠
  6
CONTINUOUS
 62
     2
100
AcDbText
 10
362.15
 20
50.95
 30
0.0
 40
8.5
  1
尺
 41
1.120000000000002
  7
EXCADSTD
 72
     5
 11
368.95
 21
50.95
 31
0.0
100
AcDbText
  0
TEXT
  5
12C
330
1F
100
AcDbEntity
  8
図枠
  6
CONTINUOUS
 62
     2
100
AcDbText
 10
362.15
 20
40.95
 30
0.0
 40
8.5
  1
度
 41
1.120000000000002
  7
EXCADSTD
 72
     5
 11
368.95
 21
40.95
 31
0.0
100
AcDbText
  0
TEXT
  5
12D
330
1F
100
AcDbEntity
  8
図枠
  6
CONTINUOUS
 62
     2
100
AcDbText
 10
277.9500000000001
 20
28.35
 30
0.0
 40
8.5
  1
図
 41
1.120000000000002
  7
EXCADSTD
 72
     5
 11
284.7500000000001
 21
28.35
 31
0.0
100
AcDbText
  0
TEXT
  5
12E
330
1F
100
AcDbEntity
  8
図枠
  6
CONTINUOUS
 62
     2
100
AcDbText
 10
277.9500000000001
 20
19.75
 30
0.0
 40
8.5
  1
番
 41
1.120000000000002
  7
EXCADSTD
 72
     5
 11
284.7500000000001
 21
19.75
 31
0.0
100
AcDbText
  0
LINE
  5
12F
330
1F
100
AcDbEntity
  8
図枠
  6
CONTINUOUS
 62
     6
100
AcDbLine
 10
34.80000000000005
 20
52.2
 30
0.0
 11
148.8000000000001
 21
52.2
 31
0.0
  0
TEXT
  5
130
330
1F
100
AcDbEntity
  8
図枠
  6
CONTINUOUS
 62
     2
100
AcDbText
 10
149.9499999999999
 20
50.95000000000005
 30
0.0
 40
8.5
  1
品
 41
1.120000000000002
  7
EXCADSTD
 72
     5
 11
156.7499999999999
 21
50.95000000000005
 31
0.0
100
AcDbText
  0
TEXT
  5
131
330
1F
100
AcDbEntity
  8
図枠
  6
CONTINUOUS
 62
     2
100
AcDbText
 10
149.9499999999999
 20
40.95000000000005
 30
0.0
 40
8.5
  1
名
 41
1.120000000000002
  7
EXCADSTD
 72
     5
 11
156.7499999999999
 21
40.95000000000005
 31
0.0
100
AcDbText
  0
LINE
  5
132
330
1F
100
AcDbEntity
  8
図枠
  6
CONTINUOUS
 62
     6
100
AcDbLine
 10
158.8
 20
62.20000000000005
 30
0.0
 11
158.8
 21
38.20000000000005
 31
0.0
  0
TEXT
  5
133
330
1F
100
AcDbEntity
  8
図枠
  6
CONTINUOUS
 62
     6
100
AcDbText
 10
39.30000000000059
 20
35.20000000000027
 30
0.0
 40
10.0
  1
岩田
 41
1.28324
  7
EXCADSTD
 72
     5
 11
59.46520000000059
 21
35.20000000000027
 31
0.0
100
AcDbText
  0
TEXT
  5
134
330
1F
100
AcDbEntity
  8
図枠
  6
CONTINUOUS
 62
     6
100
AcDbText
 10
36.06882313509583
 20
20.09001464000003
 30
0.0
 40
6.0
  1
'21
 41
0.5376093867322295
  7
EXCADSTD
 72
     5
 11
42.36653309395908
 21
20.09001464000003
 31
0.0
100
AcDbText
  0
TEXT
  5
135
330
1F
100
AcDbEntity
  8
図枠
  6
CONTINUOUS
 62
     6
100
AcDbText
 10
48.86382321138977
 20
20.09001464000003
 30
0.0
 40
6.0
  1
2
 41
0.4014705882352947
  7
EXCADSTD
 72
     5
 11
50.81382321138977
 21
20.09001464000003
 31
0.0
100
AcDbText
  0
TEXT
  5
136
330
1F
100
AcDbEntity
  8
図枠
  6
CONTINUOUS
 62
     2
100
AcDbText
 10
272.8999999999999
 20
569.0000000000001
 30
0.0
 40
8.0
  1
材質
 41
1.895695454545453
  7
EXCADSTD
 72
     5
 11
296.7315999999999
 21
569.0000000000001
 31
0.0
100
AcDbText
  0
TEXT
  5
137
330
1F
100
AcDbEntity
  8
図枠
  6
CONTINUOUS
 62
     2
100
AcDbText
 10
170.8000000000001
 20
559.2
 30
0.0
 40
8.0
  1
１
 41
1.120000000000001
  7
EXCADSTD
 72
     5
 11
177.2000000000001
 21
559.2
 31
0.0
100
AcDbText
  0
TEXT
  5
138
330
1F
100
AcDbEntity
  8
図枠
  6
CONTINUOUS
 62
     2
100
AcDbText
 10
170.8000000000001
 20
549.2
 30
0.0
 40
8.0
  1
２
 41
1.120000000000001
  7
EXCADSTD
 72
     5
 11
177.2000000000001
 21
549.2
 31
0.0
100
AcDbText
  0
TEXT
  5
139
330
1F
100
AcDbEntity
  8
図枠
  6
CONTINUOUS
 62
     2
100
AcDbText
 10
324.8000000000001
 20
559.2
 30
0.0
 40
8.0
  1
１
 41
1.119999999999996
  7
EXCADSTD
 72
     5
 11
331.2000000000001
 21
559.2
 31
0.0
100
AcDbText
  0
TEXT
  5
13A
330
1F
100
AcDbEntity
  8
図枠
  6
CONTINUOUS
 62
     2
100
AcDbText
 10
166.8000000000001
 20
569.2
 30
0.0
 40
8.0
  1
番号
 41
1.166581818181819
  7
EXCADSTD
 72
     5
 11
181.4656000000001
 21
569.2
 31
0.0
100
AcDbText
  0
TEXT
  5
13B
330
1F
100
AcDbEntity
  8
図枠
  6
CONTINUOUS
 62
     2
100
AcDbText
 10
206.6000000000001
 20
569.2
 30
0.0
 40
8.0
  1
品名
 41
1.895695454545456
  7
EXCADSTD
 72
     5
 11
230.4316000000001
 21
569.2
 31
0.0
100
AcDbText
  0
TEXT
  5
13C
330
1F
100
AcDbEntity
  8
図枠
  6
CONTINUOUS
 62
     2
100
AcDbText
 10
320.8000000000001
 20
569.2
 30
0.0
 40
8.0
  1
個数
 41
1.166581818181817
  7
EXCADSTD
 72
     5
 11
335.4656000000001
 21
569.2
 31
0.0
100
AcDbText
  0
TEXT
  5
13D
330
1F
100
AcDbEntity
  8
図枠
  6
CONTINUOUS
 62
     2
100
AcDbText
 10
355.8000000000001
 20
569.2
 30
0.0
 40
8.0
  1
備考
 41
1.895695454545453
  7
EXCADSTD
 72
     5
 11
379.6316000000001
 21
569.2
 31
0.0
100
AcDbText
  0
LINE
  5
13E
330
1F
100
AcDbEntity
  8
図枠
  6
CONTINUOUS
 62
     6
100
AcDbLine
 10
163.8000000000001
 20
568.2
 30
0.0
 11
398.8000000000001
 21
568.2
 31
0.0
  0
LINE
  5
13F
330
1F
100
AcDbEntity
  8
図枠
  6
CONTINUOUS
 62
     6
100
AcDbLine
 10
163.8000000000001
 20
558.2
 30
0.0
 11
398.8000000000001
 21
558.2
 31
0.0
  0
TEXT
  5
140
330
1F
100
AcDbEntity
  8
図枠
  6
CONTINUOUS
 62
     2
100
AcDbText
 10
186.8000000000001
 20
559.2
 30
0.0
 40
8.0
  1
本体
 41
1.093670454545454
  7
EXCADSTD
 72
     5
 11
200.5490000000001
 21
559.2
 31
0.0
100
AcDbText
  0
TEXT
  5
141
330
1F
100
AcDbEntity
  8
図枠
  6
CONTINUOUS
 62
     2
100
AcDbText
 10
324.8000000000001
 20
549.2
 30
0.0
 40
8.0
  1
２
 41
1.119999999999996
  7
EXCADSTD
 72
     5
 11
331.2000000000001
 21
549.2
 31
0.0
100
AcDbText
  0
TEXT
  5
142
330
1F
100
AcDbEntity
  8
図枠
  6
CONTINUOUS
 62
     6
100
AcDbText
 10
59.17882317085865
 20
20.09001464000003
 30
0.0
 40
6.0
  1
7
 41
0.4014705882352947
  7
EXCADSTD
 72
     5
 11
61.12882317085865
 21
20.09001464000003
 31
0.0
100
AcDbText
  0
TEXT
  5
143
330
1F
100
AcDbEntity
  8
図枠
  6
CONTINUOUS
 62
     2
100
AcDbText
 10
253.9999999999999
 20
559.2
 30
0.0
 40
8.0
  1
鉄
 41
1.119999999999996
  7
EXCADSTD
 72
     5
 11
260.3999999999999
 21
559.2
 31
0.0
100
AcDbText
  0
TEXT
  5
144
330
1F
100
AcDbEntity
  8
図枠
  6
CONTINUOUS
 62
     2
100
AcDbText
 10
253.9999999999999
 20
549.2
 30
0.0
 40
8.0
  1
鉄
 41
1.119999999999996
  7
EXCADSTD
 72
     5
 11
260.3999999999999
 21
549.2
 31
0.0
100
AcDbText
  0
TEXT
  5
145
330
1F
100
AcDbEntity
  8
図枠
  6
CONTINUOUS
 62
     2
100
AcDbText
 10
385.0558593799999
 20
42.86976928000004
 30
0.0
 40
6.0
  1
２
 41
1.101333351135257
  7
EXCADSTD
 72
     5
 11
389.7758594562939
 21
42.86976928000004
 31
0.0
100
AcDbText
  0
TEXT
  5
146
330
1F
100
AcDbEntity
  8
図枠
  6
CONTINUOUS
 62
     2
100
AcDbText
 10
293.0999982833872
 20
45.19999999999955
 30
0.0
 40
10.0
  1
Ｗ－ＹＯＲ２０７３
 41
0.8109434415709298
  7
EXCADSTD
 72
     5
 11
354.5000017166147
 21
45.19999999999955
 31
0.0
100
AcDbText
  0
TEXT
  5
147
330
1F
100
AcDbEntity
  8
図枠
  6
CONTINUOUS
 62
     2
100
AcDbText
 10
164.3221679599999
 20
45.25426636
 30
0.0
 40
10.0
  1
ヨーク　ウォールフックＢ
 41
1.074647887323944
  7
EXCADSTD
 72
     5
 11
273.3221679599999
 21
45.25426636
 31
0.0
100
AcDbText
  0
LINE
  5
148
330
1F
100
AcDbEntity
  8
図枠
  6
CONTINUOUS
 62
     6
100
AcDbLine
 10
163.8
 20
548.2
 30
0.0
 11
398.8000000000001
 21
548.2
 31
0.0
  0
LINE
  5
149
330
1F
100
AcDbEntity
  8
図枠
  6
CONTINUOUS
 62
     6
100
AcDbLine
 10
398.8000000000001
 20
538.2
 30
0.0
 11
163.8000000000001
 21
538.2
 31
0.0
  0
LINE
  5
14A
330
1F
100
AcDbEntity
  8
図枠
  6
CONTINUOUS
 62
     6
100
AcDbLine
 10
398.8000000000001
 20
518.2
 30
0.0
 11
163.8000000000001
 21
518.2
 31
0.0
  0
LINE
  5
14B
330
1F
100
AcDbEntity
  8
図枠
  6
CONTINUOUS
 62
     6
100
AcDbLine
 10
163.8000000000001
 20
528.2
 30
0.0
 11
398.8000000000001
 21
528.2000000000002
 31
0.0
  0
LINE
  5
14C
330
1F
100
AcDbEntity
  8
図枠
  6
CONTINUOUS
 62
     6
100
AcDbLine
 10
163.8000000000001
 20
578.2
 30
0.0
 11
163.8000000000001
 21
518.2
 31
0.0
  0
LINE
  5
14D
330
1F
100
AcDbEntity
  8
図枠
  6
CONTINUOUS
 62
     6
100
AcDbLine
 10
184.2000000000001
 20
578.2
 30
0.0
 11
184.2000000000001
 21
518.2
 31
0.0
  0
LINE
  5
14E
330
1F
100
AcDbEntity
  8
図枠
  6
CONTINUOUS
 62
     6
100
AcDbLine
 10
253.0000000000002
 20
578.2
 30
0.0
 11
253.0000000000002
 21
518.2
 31
0.0
  0
LINE
  5
14F
330
1F
100
AcDbEntity
  8
図枠
  6
CONTINUOUS
 62
     6
100
AcDbLine
 10
318.7999999999999
 20
518.2
 30
0.0
 11
318.7999999999999
 21
578.2
 31
0.0
  0
LINE
  5
150
330
1F
100
AcDbEntity
  8
図枠
  6
CONTINUOUS
 62
     6
100
AcDbLine
 10
338.8000000000001
 20
578.2
 30
0.0
 11
338.8000000000001
 21
518.2
 31
0.0
  0
TEXT
  5
151
330
1F
100
AcDbEntity
  8
図枠
  6
CONTINUOUS
 62
     2
100
AcDbText
 10
253.9999999999999
 20
539.2
 30
0.0
 40
8.0
  1
鉄
 41
1.119999999999996
  7
EXCADSTD
 72
     5
 11
260.3999999999999
 21
539.2
 31
0.0
100
AcDbText
  0
TEXT
  5
152
330
1F
100
AcDbEntity
  8
図枠
  6
CONTINUOUS
 62
     2
100
AcDbText
 10
170.8000000000001
 20
539.2
 30
0.0
 40
8.0
  1
３
 41
1.120000000000001
  7
EXCADSTD
 72
     5
 11
177.2000000000001
 21
539.2
 31
0.0
100
AcDbText
  0
TEXT
  5
153
330
1F
100
AcDbEntity
  8
図枠
  6
CONTINUOUS
 62
     2
100
AcDbText
 10
170.8000000000001
 20
529.2
 30
0.0
 40
8.0
  1
４
 41
1.120000000000001
  7
EXCADSTD
 72
     5
 11
177.2000000000001
 21
529.2
 31
0.0
100
AcDbText
  0
TEXT
  5
154
330
1F
100
AcDbEntity
  8
図枠
  6
CONTINUOUS
 62
     2
100
AcDbText
 10
170.8000000000001
 20
519.2
 30
0.0
 40
8.0
  1
５
 41
1.120000000000001
  7
EXCADSTD
 72
     5
 11
177.2000000000001
 21
519.2
 31
0.0
100
AcDbText
  0
TEXT
  5
155
330
1F
100
AcDbEntity
  8
図枠
  6
CONTINUOUS
 62
     2
100
AcDbText
 10
186.8000000000001
 20
539.2
 30
0.0
 40
8.0
  1
取付金具
 41
0.9510869565217391
  7
EXCADSTD
 72
     5
 11
211.8000000000001
 21
539.2
 31
0.0
100
AcDbText
  0
TEXT
  5
156
330
1F
100
AcDbEntity
  8
図枠
  6
CONTINUOUS
 62
     2
100
AcDbText
 10
186.8000000000001
 20
529.2
 30
0.0
 40
8.0
  1
ホーローねじ
 41
0.925
  7
EXCADSTD
 72
     5
 11
223.8000000000001
 21
529.2
 31
0.0
100
AcDbText
  0
TEXT
  5
157
330
1F
100
AcDbEntity
  8
図枠
  6
CONTINUOUS
 62
     2
100
AcDbText
 10
186.8000000000001
 20
519.2
 30
0.0
 40
8.0
  1
六角レンチ
 41
0.935344827586207
  7
EXCADSTD
 72
     5
 11
217.8000000000001
 21
519.2
 31
0.0
100
AcDbText
  0
TEXT
  5
158
330
1F
100
AcDbEntity
  8
図枠
  6
CONTINUOUS
 62
     2
100
AcDbText
 10
324.8000000000001
 20
539.2
 30
0.0
 40
8.0
  1
１
 41
1.119999999999996
  7
EXCADSTD
 72
     5
 11
331.2000000000001
 21
539.2
 31
0.0
100
AcDbText
  0
TEXT
  5
159
330
1F
100
AcDbEntity
  8
図枠
  6
CONTINUOUS
 62
     2
100
AcDbText
 10
324.8000000000001
 20
529.2
 30
0.0
 40
8.0
  1
１
 41
1.119999999999996
  7
EXCADSTD
 72
     5
 11
331.2000000000001
 21
529.2
 31
0.0
100
AcDbText
  0
TEXT
  5
15A
330
1F
100
AcDbEntity
  8
図枠
  6
CONTINUOUS
 62
     2
100
AcDbText
 10
324.8000000000001
 20
519.2
 30
0.0
 40
8.0
  1
１
 41
1.119999999999996
  7
EXCADSTD
 72
     5
 11
331.2000000000001
 21
519.2
 31
0.0
100
AcDbText
  0
TEXT
  5
15B
330
1F
100
AcDbEntity
  8
図枠
  6
CONTINUOUS
 62
     2
100
AcDbText
 10
341.4000000000002
 20
519.2
 30
0.0
 40
8.0
  1
対辺２.５
 41
0.930379746835443
  7
EXCADSTD
 72
     5
 11
369.4000000000002
 21
519.2
 31
0.0
100
AcDbText
  0
TEXT
  5
15C
330
1F
100
AcDbEntity
  8
図枠
  6
CONTINUOUS
 62
     2
100
AcDbText
 10
341.4000000000002
 20
529.2
 30
0.0
 40
8.0
  1
Ｍ５×６
 41
0.9891304347826088
  7
EXCADSTD
 72
     5
 11
367.4000000000002
 21
529.2
 31
0.0
100
AcDbText
  0
TEXT
  5
15D
330
1F
100
AcDbEntity
  8
図枠
  6
CONTINUOUS
 62
     2
100
AcDbText
 10
339.8
 20
559.2
 30
0.0
 40
8.0
  1
サンドブラック塗装
 41
0.9245283018867926
  7
EXCADSTD
 72
     5
 11
395.8
 21
559.2
 31
0.0
100
AcDbText
  0
TEXT
  5
15E
330
1F
100
AcDbEntity
  8
図枠
  6
CONTINUOUS
 62
     2
100
AcDbText
 10
341.4000000000002
 20
539.2
 30
0.0
 40
8.0
  1
サンドブラック塗装
 41
0.9245283018867926
  7
EXCADSTD
 72
     5
 11
397.4000000000002
 21
539.2
 31
0.0
100
AcDbText
  0
TEXT
  5
15F
330
1F
100
AcDbEntity
  8
図枠
  6
CONTINUOUS
 62
     7
100
AcDbText
 10
311.65
 20
22.35
 30
0.0
 40
12.0
  1
９９２１００
 41
1.033333333333333
  7
EXCADSTD
 72
     5
 11
373.65
 21
22.35
 31
0.0
100
AcDbText
  0
TEXT
  5
160
330
1F
100
AcDbEntity
  8
図枠
  6
CONTINUOUS
 62
     2
100
AcDbText
 10
341.4000000000002
 20
549.2
 30
0.0
 40
8.0
  1
４×４０
 41
0.9891304347826088
  7
EXCADSTD
 72
     5
 11
367.4000000000002
 21
549.2
 31
0.0
100
AcDbText
  0
TEXT
  5
161
330
1F
100
AcDbEntity
  8
図枠
  6
CONTINUOUS
 62
     2
100
AcDbText
 10
186.8000000000001
 20
549.2
 30
0.0
 40
8.0
  1
皿タッピンねじ
 41
1.067073170731707
  7
EXCADSTD
 72
     5
 11
236.8000000000001
 21
549.2
 31
0.0
100
AcDbText
  0
DIMENSION
  5
163
330
1F
100
AcDbEntity
  8
図
  6
CONTINUOUS
 62
     3
100
AcDbDimension
  2
*D15
 10
211.5999999999999
 20
310.90222575902
 30
0.0
 11
206.900000011921
 21
335.90222575902
 31
0.0
 70
   160
  1
%%c50
  3
ISO-25
100
AcDbAlignedDimension
 13
227.50516129032
 23
360.90222575902
 33
0.0
 14
227.50516129032
 24
310.90222575902
 34
0.0
 50
90.0
100
AcDbRotatedDimension
1001
ACAD
1000
DSTYLE
1002
{
1070
   270
1070
     2
1070
     6
1000
EX_NORM
1070
     7
1000
EX_NORM
1070
    41
1040
6.0
1070
    42
1040
1.399999976158142
1070
    44
1040
2.0
1070
    73
1070
     0
1070
    74
1070
     0
1070
    75
1070
     0
1070
    76
1070
     0
1070
    77
1070
     1
1070
    78
1070
     0
1070
   140
1040
8.0
1070
   147
1040
0.0
1070
   173
1070
     1
1070
   176
1070
     3
1070
   177
1070
     3
1070
   178
1070
     2
1070
   271
1070
     0
1070
   277
1070
     2
1070
   279
1070
     2
1070
   280
1070
     0
1070
   287
1070
     5
1070
   340
1005
162
1002
}
  0
DIMENSION
  5
171
330
1F
100
AcDbEntity
  8
図
  6
CONTINUOUS
 62
     3
100
AcDbDimension
  2
*D16
 10
227.50516129032
 20
392.8000000000001
 30
0.0
 11
257.10516129032
 21
397.4999999880792
 31
0.0
 70
   160
  3
ISO-25
100
AcDbAlignedDimension
 13
286.7051612903199
 23
349.90222575902
 33
0.0
 14
227.50516129032
 24
360.90222575902
 34
0.0
100
AcDbRotatedDimension
1001
ACAD
1000
DSTYLE
1002
{
1070
   270
1070
     2
1070
     6
1000
EX_NORM
1070
     7
1000
EX_NORM
1070
    41
1040
6.0
1070
    42
1040
1.399999976158142
1070
    44
1040
2.0
1070
    73
1070
     0
1070
    74
1070
     0
1070
    75
1070
     1
1070
    76
1070
     0
1070
    77
1070
     1
1070
    78
1070
     8
1070
   140
1040
8.0
1070
   147
1040
0.0
1070
   173
1070
     1
1070
   176
1070
     3
1070
   177
1070
     3
1070
   178
1070
     2
1070
   271
1070
     1
1070
   277
1070
     2
1070
   279
1070
     2
1070
   280
1070
     0
1070
   287
1070
     5
1070
   340
1005
162
1002
}
  0
DIMENSION
  5
17D
330
1F
100
AcDbEntity
  8
図
  6
CONTINUOUS
 62
     3
100
AcDbDimension
  2
*D17
 10
227.50516129032
 20
296.4
 30
0.0
 11
213.50516129032
 21
301.099999988079
 31
0.0
 70
   160
  3
ISO-25
100
AcDbAlignedDimension
 13
230.7051612903199
 23
310.90222575902
 33
0.0
 14
227.50516129032
 24
310.90222575902
 34
0.0
100
AcDbRotatedDimension
1001
ACAD
1000
DSTYLE
1002
{
1070
   270
1070
     2
1070
     6
1000
EX_NORM
1070
     7
1000
EX_NORM
1070
    41
1040
6.0
1070
    42
1040
1.399999976158142
1070
    44
1040
2.0
1070
    73
1070
     0
1070
    74
1070
     0
1070
    75
1070
     0
1070
    76
1070
     0
1070
    77
1070
     1
1070
    78
1070
     8
1070
   140
1040
8.0
1070
   147
1040
0.0
1070
   173
1070
     1
1070
   176
1070
     3
1070
   177
1070
     3
1070
   178
1070
     2
1070
   271
1070
     1
1070
   277
1070
     2
1070
   279
1070
     2
1070
   280
1070
     2
1070
   287
1070
     5
1070
   340
1005
162
1002
}
  0
TEXT
  5
18C
330
1F
100
AcDbEntity
  8
図
  6
CONTINUOUS
 62
     2
100
AcDbText
 10
241.320000011921
 20
312.9022257590198
 30
0.0
 40
8.0
  1
φ
 50
90.0
 41
1.119999999999996
  7
EXCADSTD
 72
     5
 11
241.320000011921
 21
319.3022257590197
 31
0.0
100
AcDbText
  0
TEXT
  5
18D
330
1F
100
AcDbEntity
  8
図
  6
CONTINUOUS
 62
     2
100
AcDbText
 10
241.320000011921
 20
319.9022257590198
 30
0.0
 40
8.0
  1
６
 50
90.0
 41
1.119999999999996
  7
EXCADSTD
 72
     5
 11
241.320000011921
 21
326.3022257590197
 31
0.0
100
AcDbText
  0
LINE
  5
18E
330
1F
100
AcDbEntity
  8
図
  6
CONTINUOUS
 62
     3
100
AcDbLine
 10
242.02
 20
344.9022257590203
 30
0.0
 11
242.02
 21
312.2022249960804
 31
0.0
  0
LINE
  5
18F
330
1F
100
AcDbEntity
  8
図
  6
CONTINUOUS
 62
     3
100
AcDbLine
 10
241.02
 20
344.9022257590203
 30
0.0
 11
242.02
 21
338.9022257590203
 31
0.0
  0
LINE
  5
190
330
1F
100
AcDbEntity
  8
図
  6
CONTINUOUS
 62
     3
100
AcDbLine
 10
242.02
 20
338.9022257590203
 30
0.0
 11
243.02
 21
344.9022257590203
 31
0.0
  0
LINE
  5
191
330
1F
100
AcDbEntity
  8
図
  6
CONTINUOUS
 62
     3
100
AcDbLine
 10
243.02
 20
326.9022257590198
 30
0.0
 11
242.02
 21
332.9022257590198
 31
0.0
  0
LINE
  5
192
330
1F
100
AcDbEntity
  8
図
  6
CONTINUOUS
 62
     3
100
AcDbLine
 10
242.02
 20
332.9022257590198
 30
0.0
 11
241.02
 21
326.9022257590198
 31
0.0
  0
DIMENSION
  5
193
330
1F
100
AcDbEntity
  8
図
  6
CONTINUOUS
 62
     3
100
AcDbDimension
  2
*D18
 10
286.7051612903199
 20
310.58
 30
0.0
 11
296.7051612903199
 21
315.2799999880791
 31
0.0
 70
   160
  3
ISO-25
100
AcDbAlignedDimension
 13
280.7051612903199
 23
317.12
 33
0.0
 14
286.7051612903199
 24
317.54
 34
0.0
100
AcDbRotatedDimension
1001
ACAD
1000
DSTYLE
1002
{
1070
   270
1070
     2
1070
     6
1000
EX_NORM
1070
     7
1000
EX_NORM
1070
    41
1040
6.0
1070
    42
1040
1.399999976158142
1070
    44
1040
2.0
1070
    73
1070
     0
1070
    74
1070
     0
1070
    75
1070
     0
1070
    76
1070
     1
1070
    77
1070
     1
1070
    78
1070
     0
1070
   140
1040
8.0
1070
   147
1040
0.0
1070
   173
1070
     1
1070
   176
1070
     3
1070
   177
1070
     3
1070
   178
1070
     2
1070
   271
1070
     0
1070
   277
1070
     2
1070
   279
1070
     2
1070
   280
1070
     0
1070
   287
1070
     5
1070
   340
1005
162
1002
}
  0
TEXT
  5
1A1
330
1F
100
AcDbEntity
  8
図
  6
CONTINUOUS
 62
     2
100
AcDbText
 10
288.96516129032
 20
301.1799999880791
 30
0.0
 40
8.0
  1
（
 41
1.119999999999996
  7
EXCADSTD
 72
     5
 11
295.36516129032
 21
301.1799999880791
 31
0.0
100
AcDbText
  0
TEXT
  5
1A2
330
1F
100
AcDbEntity
  8
図
  6
CONTINUOUS
 62
     2
100
AcDbText
 10
296.46516129032
 20
301.1799999880791
 30
0.0
 40
8.0
  1
Ｍ５ネジ切り
 41
1.075
  7
EXCADSTD
 72
     5
 11
339.46516129032
 21
301.1799999880791
 31
0.0
100
AcDbText
  0
TEXT
  5
1A3
330
1F
100
AcDbEntity
  8
図
  6
CONTINUOUS
 62
     2
100
AcDbText
 10
338.96516129032
 20
301.1799999880791
 30
0.0
 40
8.0
  1
）
 41
1.119999999999996
  7
EXCADSTD
 72
     5
 11
345.36516129032
 21
301.1799999880791
 31
0.0
100
AcDbText
  0
DIMENSION
  5
1A4
330
1F
100
AcDbEntity
  8
図
  6
CONTINUOUS
 62
     3
100
AcDbDimension
  2
*D19
 10
350.7599999999999
 20
321.90222575902
 30
0.0
 11
346.0600000119211
 21
365.9022257590199
 31
0.0
 70
   160
  1
%%c28
  3
ISO-25
100
AcDbAlignedDimension
 13
286.7051612903199
 23
349.90222575902
 33
0.0
 14
286.7051612903199
 24
321.90222575902
 34
0.0
 50
90.0
100
AcDbRotatedDimension
1001
ACAD
1000
DSTYLE
1002
{
1070
   270
1070
     2
1070
     6
1000
EX_NORM
1070
     7
1000
EX_NORM
1070
    41
1040
6.0
1070
    42
1040
1.399999976158142
1070
    44
1040
2.0
1070
    73
1070
     0
1070
    74
1070
     0
1070
    75
1070
     0
1070
    76
1070
     0
1070
    77
1070
     1
1070
    78
1070
     0
1070
   140
1040
8.0
1070
   147
1040
0.0
1070
   173
1070
     1
1070
   176
1070
     3
1070
   177
1070
     3
1070
   178
1070
     2
1070
   271
1070
     0
1070
   277
1070
     2
1070
   279
1070
     2
1070
   280
1070
     1
1070
   287
1070
     5
1070
   340
1005
162
1002
}
  0
DIMENSION
  5
1B1
330
1F
100
AcDbEntity
  8
図
  6
CONTINUOUS
 62
     3
100
AcDbDimension
  2
*D20
 10
339.3599999999999
 20
339.90222575902
 30
0.0
 11
334.6600000119212
 21
356.9022257590198
 31
0.0
 70
   160
  3
ISO-25
100
AcDbAlignedDimension
 13
286.7051612903199
 23
346.90222575902
 33
0.0
 14
313.16
 24
339.90222575902
 34
0.0
 50
90.0
100
AcDbRotatedDimension
1001
ACAD
1000
DSTYLE
1002
{
1070
   270
1070
     2
1070
     6
1000
EX_NORM
1070
     7
1000
EX_NORM
1070
    41
1040
6.0
1070
    42
1040
1.399999976158142
1070
    44
1040
2.0
1070
    73
1070
     0
1070
    74
1070
     0
1070
    75
1070
     0
1070
    76
1070
     0
1070
    77
1070
     1
1070
    78
1070
     0
1070
   140
1040
8.0
1070
   147
1040
0.0
1070
   173
1070
     1
1070
   176
1070
     3
1070
   177
1070
     3
1070
   178
1070
     2
1070
   271
1070
     0
1070
   277
1070
     2
1070
   279
1070
     2
1070
   280
1070
     1
1070
   287
1070
     5
1070
   340
1005
162
1002
}
  0
DIMENSION
  5
1C0
330
1F
100
AcDbEntity
  8
図
  6
CONTINUOUS
 62
     3
100
AcDbDimension
  2
*D21
 10
188.0799772011407
 20
172.1529905038707
 30
0.0
 11
223.5687090912267
 21
186.5279655898156
 31
0.0
 70
   163
  3
ISO-25
100
AcDbDiametricDimension
 15
209.3303453794993
 25
177.8470094961293
 35
0.0
 40
0.0
1001
ACAD
1000
DSTYLE
1002
{
1070
   270
1070
     2
1070
     6
1000
EX_NORM
1070
     7
1000
EX_NORM
1070
    41
1040
6.0
1070
    73
1070
     0
1070
    74
1070
     0
1070
    77
1070
     1
1070
    78
1070
     0
1070
   140
1040
8.0
1070
   147
1040
0.0
1070
   173
1070
     1
1070
   176
1070
     3
1070
   177
1070
     3
1070
   178
1070
     2
1070
   271
1070
     0
1070
   277
1070
     2
1070
   279
1070
     2
1070
   280
1070
     1
1070
   287
1070
     5
1070
   340
1005
162
1002
}
  0
DIMENSION
  5
1CB
330
1F
100
AcDbEntity
  8
図
  6
CONTINUOUS
 62
     3
100
AcDbDimension
  2
*D22
 10
193.0483070408276
 20
169.3431457505076
 30
0.0
 11
212.3523221756498
 21
195.2939646116245
 31
0.0
 70
   163
  3
ISO-25
100
AcDbDiametricDimension
 15
204.3620155398124
 25
180.6568542494924
 35
0.0
 40
0.0
1001
ACAD
1000
DSTYLE
1002
{
1070
   270
1070
     2
1070
     6
1000
EX_NORM
1070
     7
1000
EX_NORM
1070
    41
1040
6.0
1070
    73
1070
     0
1070
    74
1070
     0
1070
    77
1070
     1
1070
    78
1070
     0
1070
   140
1040
8.0
1070
   147
1040
0.0
1070
   173
1070
     1
1070
   176
1070
     3
1070
   177
1070
     3
1070
   178
1070
     2
1070
   271
1070
     0
1070
   277
1070
     2
1070
   279
1070
     2
1070
   280
1070
     1
1070
   287
1070
     5
1070
   340
1005
162
1002
}
  0
DIMENSION
  5
1D6
330
1F
100
AcDbEntity
  8
図
  6
CONTINUOUS
 62
     3
100
AcDbDimension
  2
*D23
 10
275.40516129032
 20
194.62
 30
0.0
 11
262.4051612903201
 21
199.319999988079
 31
0.0
 70
   160
  3
ISO-25
100
AcDbAlignedDimension
 13
286.70516129032
 23
186.0
 33
0.0
 14
275.40516129032
 24
186.0
 34
0.0
100
AcDbRotatedDimension
1001
ACAD
1000
DSTYLE
1002
{
1070
   270
1070
     2
1070
     6
1000
EX_NORM
1070
     7
1000
EX_NORM
1070
    41
1040
6.0
1070
    42
1040
1.399999976158142
1070
    44
1040
2.0
1070
    73
1070
     0
1070
    74
1070
     0
1070
    75
1070
     0
1070
    76
1070
     0
1070
    77
1070
     1
1070
    78
1070
     0
1070
   140
1040
8.0
1070
   147
1040
0.0
1070
   173
1070
     1
1070
   176
1070
     3
1070
   177
1070
     3
1070
   178
1070
     2
1070
   271
1070
     0
1070
   277
1070
     2
1070
   279
1070
     2
1070
   280
1070
     2
1070
   287
1070
     5
1070
   340
1005
162
1002
}
  0
DIMENSION
  5
1E5
330
1F
100
AcDbEntity
  8
図
  6
CONTINUOUS
 62
     3
100
AcDbDimension
  2
*D24
 10
303.24516129032
 20
171.0
 30
0.0
 11
298.5451613022409
 21
175.0
 31
0.0
 70
   160
  3
ISO-25
100
AcDbAlignedDimension
 13
288.84516129032
 23
179.0
 33
0.0
 14
289.28516129032
 24
171.0
 34
0.0
 50
90.0
100
AcDbRotatedDimension
1001
ACAD
1000
DSTYLE
1002
{
1070
   270
1070
     2
1070
     6
1000
EX_NORM
1070
     7
1000
EX_NORM
1070
    41
1040
6.0
1070
    42
1040
1.399999976158142
1070
    44
1040
2.0
1070
    73
1070
     0
1070
    74
1070
     0
1070
    75
1070
     0
1070
    76
1070
     0
1070
    77
1070
     1
1070
    78
1070
     0
1070
   140
1040
8.0
1070
   147
1040
0.0
1070
   173
1070
     1
1070
   176
1070
     3
1070
   177
1070
     3
1070
   178
1070
     2
1070
   271
1070
     0
1070
   277
1070
     2
1070
   279
1070
     2
1070
   280
1070
     0
1070
   287
1070
     5
1070
   340
1005
162
1002
}
  0
TEXT
  5
1F4
330
1F
100
AcDbEntity
  8
図
  6
CONTINUOUS
 62
     2
100
AcDbText
 10
157.7977312283356
 20
193.3125698545691
 30
0.0
 40
8.0
  1
２－φ４
 41
1.034782605974571
  7
EXCADSTD
 72
     5
 11
184.99773115681
 21
193.3125698545691
 31
0.0
100
AcDbText
  0
LEADER
  5
1F5
330
1F
100
AcDbEntity
  8
図
  6
CONTINUOUS
 62
     3
100
AcDbLeader
  3
ISO-25
 76
     3
 10
197.24431317813
 20
180.36598784516
 30
0.0
 10
184.99773115681
 20
192.61256986649
 30
0.0
 10
157.82516129032
 20
192.61256986649
 30
0.0
1001
ACAD
1000
DSTYLE
1002
{
1070
     5
1000
EX_NORM
1070
    41
1040
6.0
1070
   341
1005
4C
1002
}
  0
DIMENSION
  5
1F6
330
1F
100
AcDbEntity
  8
図
  6
CONTINUOUS
 62
     3
100
AcDbDimension
  2
*D25
 10
283.70508189212
 20
154.86
 30
0.0
 11
293.70508189212
 21
159.5599999880791
 31
0.0
 70
   160
  3
ISO-25
100
AcDbAlignedDimension
 13
277.40516129032
 23
164.0
 33
0.0
 14
283.70508189212
 24
164.0
 34
0.0
100
AcDbRotatedDimension
1001
ACAD
1000
DSTYLE
1002
{
1070
   270
1070
     2
1070
     6
1000
EX_NORM
1070
     7
1000
EX_NORM
1070
    41
1040
6.0
1070
    42
1040
1.399999976158142
1070
    44
1040
2.0
1070
    73
1070
     0
1070
    74
1070
     0
1070
    75
1070
     0
1070
    76
1070
     0
1070
    77
1070
     1
1070
    78
1070
     0
1070
   140
1040
8.0
1070
   147
1040
0.0
1070
   173
1070
     1
1070
   176
1070
     3
1070
   177
1070
     3
1070
   178
1070
     2
1070
   271
1070
     0
1070
   277
1070
     2
1070
   279
1070
     2
1070
   280
1070
     2
1070
   287
1070
     5
1070
   340
1005
162
1002
}
  0
DIMENSION
  5
205
330
1F
100
AcDbEntity
  8
図
  6
CONTINUOUS
 62
     3
100
AcDbDimension
  2
*D26
 10
266.70516129032
 20
164.0
 30
0.0
 11
262.0051613022409
 21
153.9999999999999
 31
0.0
 70
   160
  3
ISO-25
100
AcDbAlignedDimension
 13
277.40516129032
 23
166.0
 33
0.0
 14
277.40516129032
 24
164.0
 34
0.0
 50
90.0
100
AcDbRotatedDimension
1001
ACAD
1000
DSTYLE
1002
{
1070
   270
1070
     2
1070
     6
1000
EX_NORM
1070
     7
1000
EX_NORM
1070
    41
1040
6.0
1070
    42
1040
1.399999976158142
1070
    44
1040
2.0
1070
    73
1070
     0
1070
    74
1070
     0
1070
    75
1070
     0
1070
    76
1070
     0
1070
    77
1070
     1
1070
    78
1070
     0
1070
   140
1040
8.0
1070
   147
1040
0.0
1070
   173
1070
     1
1070
   176
1070
     3
1070
   177
1070
     3
1070
   178
1070
     2
1070
   271
1070
     0
1070
   277
1070
     2
1070
   279
1070
     2
1070
   280
1070
     2
1070
   287
1070
     5
1070
   340
1005
162
1002
}
  0
CIRCLE
  5
214
330
1F
100
AcDbEntity
  8
図
  6
CONTINUOUS
 62
     2
100
AcDbCircle
 10
198.70516129032
 20
175.0
 30
0.0
 40
11.0
  0
LINE
  5
215
330
1F
100
AcDbEntity
  8
図
  6
EXLTYPE3
 62
     6
100
AcDbLine
 10
198.70516129032
 20
197.0
 30
0.0
 11
198.70516129032
 21
153.0
 31
0.0
  0
LINE
  5
216
330
1F
100
AcDbEntity
  8
図
  6
EXLTYPE3
 62
     6
100
AcDbLine
 10
176.70516129032
 20
175.0
 30
0.0
 11
220.70516129032
 21
175.0
 31
0.0
  0
LINE
  5
217
330
1F
100
AcDbEntity
  8
図
  6
CONTINUOUS
 62
     2
100
AcDbLine
 10
275.40516129032
 20
186.0
 30
0.0
 11
286.7051612903199
 21
186.0
 31
0.0
  0
LINE
  5
218
330
1F
100
AcDbEntity
  8
図
  6
CONTINUOUS
 62
     2
100
AcDbLine
 10
275.4051612903201
 20
183.0
 30
0.0
 11
275.4051612903201
 21
186.0
 31
0.0
  0
LINE
  5
219
330
1F
100
AcDbEntity
  8
図
  6
CONTINUOUS
 62
     2
100
AcDbLine
 10
275.4051612903201
 20
164.0
 30
0.0
 11
275.4051612903201
 21
167.0
 31
0.0
  0
LINE
  5
21A
330
1F
100
AcDbEntity
  8
図
  6
CONTINUOUS
 62
     2
100
AcDbLine
 10
275.40516129032
 20
183.0
 30
0.0
 11
284.6051612903208
 21
183.0
 31
0.0
  0
LINE
  5
21B
330
1F
100
AcDbEntity
  8
図
  6
CONTINUOUS
 62
     2
100
AcDbLine
 10
275.40516129032
 20
167.0
 30
0.0
 11
284.6051612903208
 21
167.0
 31
0.0
  0
LINE
  5
21C
330
1F
100
AcDbEntity
  8
図
  6
CONTINUOUS
 62
     2
100
AcDbLine
 10
284.6051612903208
 20
167.0
 30
0.0
 11
284.6051612903208
 21
183.0
 31
0.0
  0
LINE
  5
21D
330
1F
100
AcDbEntity
  8
図
  6
CONTINUOUS
 62
     2
100
AcDbLine
 10
277.4051612903189
 20
164.0
 30
0.0
 11
277.4051612903189
 21
165.9999999999994
 31
0.0
  0
LINE
  5
21E
330
1F
100
AcDbEntity
  8
図
  6
CONTINUOUS
 62
     2
100
AcDbLine
 10
283.6799999999999
 20
165.9999999999994
 30
0.0
 11
277.4051612903189
 21
165.9999999999994
 31
0.0
  0
LINE
  5
21F
330
1F
100
AcDbEntity
  8
図
  6
CONTINUOUS
 62
     2
100
AcDbLine
 10
286.70516129032
 20
186.0
 30
0.0
 11
286.70516129032
 21
164.0
 31
0.0
  0
LINE
  5
220
330
1F
100
AcDbEntity
  8
図
  6
EXLTYPE1
 62
     2
100
AcDbLine
 10
286.7051612903201
 20
181.0000000000002
 30
0.0
 11
284.6051612903208
 21
181.0000000000002
 31
0.0
  0
LINE
  5
221
330
1F
100
AcDbEntity
  8
図
  6
EXLTYPE1
 62
     2
100
AcDbLine
 10
286.7051612903201
 20
177.0000000000001
 30
0.0
 11
284.6051612903208
 21
177.0000000000001
 31
0.0
  0
LINE
  5
222
330
1F
100
AcDbEntity
  8
図
  6
EXLTYPE1
 62
     2
100
AcDbLine
 10
286.7051612903201
 20
168.9999999999993
 30
0.0
 11
284.6051612903208
 21
168.9999999999993
 31
0.0
  0
LINE
  5
223
330
1F
100
AcDbEntity
  8
図
  6
EXLTYPE1
 62
     2
100
AcDbLine
 10
286.7051612903201
 20
172.9999999999995
 30
0.0
 11
284.6051612903208
 21
172.9999999999995
 31
0.0
  0
LINE
  5
224
330
1F
100
AcDbEntity
  8
図
  6
EXLTYPE3
 62
     6
100
AcDbLine
 10
289.28516129032
 20
170.9999999999994
 30
0.0
 11
282.56516129032
 21
170.9999999999994
 31
0.0
  0
LINE
  5
225
330
1F
100
AcDbEntity
  8
図
  6
EXLTYPE3
 62
     6
100
AcDbLine
 10
288.84516129032
 20
179.0000000000001
 30
0.0
 11
282.62516129032
 21
179.0000000000001
 31
0.0
  0
CIRCLE
  5
226
330
1F
100
AcDbEntity
  8
図
  6
CONTINUOUS
 62
     2
100
AcDbCircle
 10
198.70516129032
 20
179.0
 30
0.0
 40
2.0
  0
LINE
  5
227
330
1F
100
AcDbEntity
  8
図
  6
EXLTYPE3
 62
     6
100
AcDbLine
 10
202.74516129032
 20
179.0
 30
0.0
 11
195.04516129032
 21
179.0
 31
0.0
  0
CIRCLE
  5
228
330
1F
100
AcDbEntity
  8
図
  6
CONTINUOUS
 62
     2
100
AcDbCircle
 10
198.70516129032
 20
171.0
 30
0.0
 40
2.0
  0
LINE
  5
229
330
1F
100
AcDbEntity
  8
図
  6
EXLTYPE3
 62
     6
100
AcDbLine
 10
202.74516129032
 20
171.0
 30
0.0
 11
195.04516129032
 21
171.0
 31
0.0
  0
LINE
  5
22A
330
1F
100
AcDbEntity
  8
図
  6
EXLTYPE1
 62
     2
100
AcDbLine
 10
205.0297166106567
 20
166.0
 30
0.0
 11
192.3806059699832
 21
166.0
 31
0.0
  0
CIRCLE
  5
22B
330
1F
100
AcDbEntity
  8
図
  6
EXLTYPE1
 62
     2
100
AcDbCircle
 10
198.70516129032
 20
175.0
 30
0.0
 40
8.0
  0
LINE
  5
22C
330
1F
100
AcDbEntity
  8
図
  6
EXLTYPE3
 62
     6
100
AcDbLine
 10
270.80516129032
 20
175.0
 30
0.0
 11
292.50516129032
 21
175.0
 31
0.0
  0
LINE
  5
22D
330
1F
100
AcDbEntity
  8
図
  6
CONTINUOUS
 62
     2
100
AcDbLine
 10
283.7050818921199
 20
165.97817380271
 30
0.0
 11
283.7050818921199
 21
164.0
 31
0.0
  0
LINE
  5
22E
330
1F
100
AcDbEntity
  8
図
  6
CONTINUOUS
 62
     2
100
AcDbLine
 10
275.40516129032
 20
164.0
 30
0.0
 11
277.4051612903189
 21
164.0
 31
0.0
  0
LINE
  5
22F
330
1F
100
AcDbEntity
  8
図
  6
CONTINUOUS
 62
     2
100
AcDbLine
 10
283.7050818921199
 20
164.0
 30
0.0
 11
286.7051612903199
 21
164.0
 31
0.0
  0
CIRCLE
  5
230
330
1F
100
AcDbEntity
  8
図
  6
CONTINUOUS
 62
     3
100
AcDbCircle
 10
269.16628314259
 20
274.25225058836
 30
0.0
 40
7.0
  0
TEXT
  5
231
330
1F
100
AcDbEntity
  8
図
  6
CONTINUOUS
 62
     2
100
AcDbText
 10
264.9165355801815
 20
269.3025030259515
 30
0.0
 40
9.899495124816895
  1
1
 41
1.240909090909089
  7
EXCADSTD
 72
     5
 11
271.3512074113125
 21
269.3025030259515
 31
0.0
100
AcDbText
  0
LEADER
  5
232
330
1F
100
AcDbEntity
  8
図
  6
CONTINUOUS
 62
     3
100
AcDbLeader
  3
ISO-25
 76
     2
 10
253.8
 20
331.6
 30
0.0
 10
267.3545498268725
 20
281.0137313723835
 30
0.0
1001
ACAD
1000
DSTYLE
1002
{
1070
     5
1000
EX_NORM
1070
    41
1040
6.0
1070
   341
1005
4C
1002
}
  0
CIRCLE
  5
233
330
1F
100
AcDbEntity
  8
図
  6
CONTINUOUS
 62
     3
100
AcDbCircle
 10
331.2584690615
 20
389.87715358522
 30
0.0
 40
7.0
  0
TEXT
  5
234
330
1F
100
AcDbEntity
  8
図
  6
CONTINUOUS
 62
     2
100
AcDbText
 10
327.0087214990916
 20
384.9274060228116
 30
0.0
 40
9.899495124816895
  1
2
 41
0.8029411764705868
  7
EXCADSTD
 72
     5
 11
333.4433933302225
 21
384.9274060228116
 31
0.0
100
AcDbText
  0
LEADER
  5
235
330
1F
100
AcDbEntity
  8
図
  6
CONTINUOUS
 62
     3
100
AcDbLeader
  3
ISO-25
 76
     2
 10
318.4
 20
341.88869374016
 30
0.0
 10
329.446735745782
 20
383.1156728011966
 30
0.0
1001
ACAD
1000
DSTYLE
1002
{
1070
     5
1000
EX_NORM
1070
    41
1040
6.0
1070
   341
1005
4C
1002
}
  0
CIRCLE
  5
236
330
1F
100
AcDbEntity
  8
図
  6
CONTINUOUS
 62
     3
100
AcDbCircle
 10
307.6
 20
391.2
 30
0.0
 40
7.0
  0
TEXT
  5
237
330
1F
100
AcDbEntity
  8
図
  6
CONTINUOUS
 62
     2
100
AcDbText
 10
303.3502524375916
 20
386.2502524375915
 30
0.0
 40
9.899495124816895
  1
3
 41
0.8029411764705868
  7
EXCADSTD
 72
     5
 11
309.7849242687225
 21
386.2502524375915
 31
0.0
100
AcDbText
  0
LEADER
  5
238
330
1F
100
AcDbEntity
  8
図
  6
CONTINUOUS
 62
     3
100
AcDbLeader
  3
ISO-25
 76
     2
 10
285.3
 20
344.96
 30
0.0
 10
304.5592735061836
 20
384.8949240773958
 30
0.0
1001
ACAD
1000
DSTYLE
1002
{
1070
     5
1000
EX_NORM
1070
    41
1040
6.0
1070
   341
1005
4C
1002
}
  0
CIRCLE
  5
239
330
1F
100
AcDbEntity
  8
図
  6
CONTINUOUS
 62
     3
100
AcDbCircle
 10
158.8
 20
223.6
 30
0.0
 40
7.0
  0
TEXT
  5
23A
330
1F
100
AcDbEntity
  8
図
  6
CONTINUOUS
 62
     2
100
AcDbText
 10
154.5502524375916
 20
218.6502524375915
 30
0.0
 40
9.899495124816895
  1
3
 41
0.8029411764705868
  7
EXCADSTD
 72
     5
 11
160.9849242687225
 21
218.6502524375915
 31
0.0
100
AcDbText
  0
LINE
  5
23B
330
1F
100
AcDbEntity
  8
図
  6
CONTINUOUS
 62
     2
100
AcDbLine
 10
227.50516129032
 20
310.90222575902
 30
0.0
 11
227.50516129032
 21
360.90222575902
 31
0.0
  0
LINE
  5
23C
330
1F
100
AcDbEntity
  8
図
  6
CONTINUOUS
 62
     2
100
AcDbLine
 10
227.50516129032
 20
360.90222575902
 30
0.0
 11
230.7051612903198
 21
360.90222575902
 31
0.0
  0
LINE
  5
23D
330
1F
100
AcDbEntity
  8
図
  6
CONTINUOUS
 62
     2
100
AcDbLine
 10
227.50516129032
 20
310.90222575902
 30
0.0
 11
230.7051612903198
 21
310.90222575902
 31
0.0
  0
LINE
  5
23E
330
1F
100
AcDbEntity
  8
図
  6
CONTINUOUS
 62
     2
100
AcDbLine
 10
230.7051612903198
 20
310.90222575902
 30
0.0
 11
230.7051612903198
 21
360.90222575902
 31
0.0
  0
CIRCLE
  5
23F
330
1F
100
AcDbEntity
  8
図
  6
CONTINUOUS
 62
     2
100
AcDbCircle
 10
116.8
 20
335.90222575902
 30
0.0
 40
25.0
  0
CIRCLE
  5
240
330
1F
100
AcDbEntity
  8
図
  6
EXLTYPE1
 62
     2
100
AcDbCircle
 10
116.8
 20
335.90222575902
 30
0.0
 40
14.0
  0
LINE
  5
241
330
1F
100
AcDbEntity
  8
図
  6
EXLTYPE3
 62
     6
100
AcDbLine
 10
116.8
 20
375.90222575902
 30
0.0
 11
116.8
 21
295.90222575902
 31
0.0
  0
LINE
  5
242
330
1F
100
AcDbEntity
  8
図
  6
EXLTYPE3
 62
     6
100
AcDbLine
 10
156.8
 20
335.90222575902
 30
0.0
 11
76.80000000000001
 21
335.90222575902
 31
0.0
  0
LINE
  5
243
330
1F
100
AcDbEntity
  8
図
  6
EXLTYPE3
 62
     6
100
AcDbLine
 10
291.42
 20
335.9022257590198
 30
0.0
 11
219.2
 21
335.9022257590198
 31
0.0
  0
LINE
  5
244
330
1F
100
AcDbEntity
  8
図
  6
CONTINUOUS
 62
     2
100
AcDbLine
 10
286.70516129032
 20
349.90222575902
 30
0.0
 11
275.7051612903199
 21
349.90222575902
 31
0.0
  0
ARC
  5
245
330
1F
100
AcDbEntity
  8
図
  6
CONTINUOUS
 62
     2
100
AcDbCircle
 10
280.50516129032
 20
335.90222575902
 30
0.0
 40
14.8
100
AcDbArc
 50
108.9246444160513
 51
251.0753555839487
  0
LINE
  5
246
330
1F
100
AcDbEntity
  8
図
  6
CONTINUOUS
 62
     2
100
AcDbLine
 10
286.70516129032
 20
321.90222575902
 30
0.0
 11
275.7051612903199
 21
321.90222575902
 31
0.0
  0
LINE
  5
247
330
1F
100
AcDbEntity
  8
図
  6
CONTINUOUS
 62
     2
100
AcDbLine
 10
266.0124044787261
 20
338.90222575902
 30
0.0
 11
230.7051612903199
 21
338.90222575902
 31
0.0
  0
LINE
  5
248
330
1F
100
AcDbEntity
  8
図
  6
CONTINUOUS
 62
     2
100
AcDbLine
 10
266.0124044787261
 20
332.90222575902
 30
0.0
 11
230.7051612903199
 21
332.90222575902
 31
0.0
  0
LINE
  5
249
330
1F
100
AcDbEntity
  8
図
  6
EXLTYPE1
 62
     2
100
AcDbLine
 10
274.7051612903198
 20
324.65222575902
 30
0.0
 11
274.7051612903198
 21
347.15222575902
 31
0.0
  0
LINE
  5
24A
330
1F
100
AcDbEntity
  8
図
  6
EXLTYPE1
 62
     2
100
AcDbLine
 10
286.7051612903199
 20
347.15222575902
 30
0.0
 11
274.7051612903198
 21
347.15222575902
 31
0.0
  0
LINE
  5
24B
330
1F
100
AcDbEntity
  8
図
  6
EXLTYPE1
 62
     2
100
AcDbLine
 10
286.7051612903199
 20
324.65222575902
 30
0.0
 11
274.7051612903198
 21
324.65222575902
 31
0.0
  0
LINE
  5
24C
330
1F
100
AcDbEntity
  8
図
  6
EXLTYPE1
 62
     2
100
AcDbLine
 10
278.2051612903199
 20
321.90222575902
 30
0.0
 11
278.2051612903199
 21
324.65222575902
 31
0.0
  0
LINE
  5
24D
330
1F
100
AcDbEntity
  8
図
  6
EXLTYPE1
 62
     2
100
AcDbLine
 10
283.2051612903199
 20
321.90222575902
 30
0.0
 11
283.2051612903199
 21
324.65222575902
 31
0.0
  0
LINE
  5
24E
330
1F
100
AcDbEntity
  8
図
  6
EXLTYPE3
 62
     6
100
AcDbLine
 10
280.7051612903201
 20
317.12
 30
0.0
 11
280.7051612903201
 21
327.94
 31
0.0
  0
LINE
  5
24F
330
1F
100
AcDbEntity
  8
図
  6
EXLTYPE1
 62
     2
100
AcDbLine
 10
275.40516129032
 20
346.90222575902
 30
0.0
 11
286.7051612903199
 21
346.90222575902
 31
0.0
  0
LINE
  5
250
330
1F
100
AcDbEntity
  8
図
  6
EXLTYPE1
 62
     2
100
AcDbLine
 10
275.4051612903201
 20
343.90222575902
 30
0.0
 11
275.4051612903201
 21
346.90222575902
 31
0.0
  0
LINE
  5
251
330
1F
100
AcDbEntity
  8
図
  6
EXLTYPE1
 62
     2
100
AcDbLine
 10
275.4051612903201
 20
324.90222575902
 30
0.0
 11
275.4051612903201
 21
327.90222575902
 31
0.0
  0
LINE
  5
252
330
1F
100
AcDbEntity
  8
図
  6
CONTINUOUS
 62
     2
100
AcDbLine
 10
275.40516129032
 20
343.90222575902
 30
0.0
 11
284.6051612903208
 21
343.90222575902
 31
0.0
  0
LINE
  5
253
330
1F
100
AcDbEntity
  8
図
  6
CONTINUOUS
 62
     2
100
AcDbLine
 10
275.40516129032
 20
327.90222575902
 30
0.0
 11
284.6051612903208
 21
327.90222575902
 31
0.0
  0
LINE
  5
254
330
1F
100
AcDbEntity
  8
図
  6
EXLTYPE1
 62
     2
100
AcDbLine
 10
284.6051612903208
 20
327.90222575902
 30
0.0
 11
284.6051612903208
 21
343.90222575902
 31
0.0
  0
LINE
  5
255
330
1F
100
AcDbEntity
  8
図
  6
CONTINUOUS
 62
     6
100
AcDbLine
 10
286.7051612903218
 20
337.8886937401568
 30
0.0
 11
320.4992131213593
 21
337.8886937401568
 31
0.0
  0
LINE
  5
256
330
1F
100
AcDbEntity
  8
図
  6
CONTINUOUS
 62
     6
100
AcDbLine
 10
321.4502471900895
 20
338.1292807130046
 30
0.0
 11
324.7051612903218
 21
339.8886937401568
 31
0.0
  0
LINE
  5
257
330
1F
100
AcDbEntity
  8
図
  6
CONTINUOUS
 62
     6
100
AcDbLine
 10
286.7051612903218
 20
341.8886937401567
 30
0.0
 11
320.4992131213593
 21
341.8886937401567
 31
0.0
  0
LINE
  5
258
330
1F
100
AcDbEntity
  8
図
  6
CONTINUOUS
 62
     6
100
AcDbLine
 10
321.4502471900895
 20
341.648106767309
 30
0.0
 11
324.7051612903218
 21
339.8886937401568
 31
0.0
  0
ARC
  5
259
330
1F
100
AcDbEntity
  8
図
  6
CONTINUOUS
 62
     6
100
AcDbCircle
 10
320.4992131213593
 20
339.8886937401568
 30
0.0
 40
2.0
100
AcDbArc
 50
270.0000000000002
 51
298.3930194213758
  0
ARC
  5
25A
330
1F
100
AcDbEntity
  8
図
  6
CONTINUOUS
 62
     6
100
AcDbCircle
 10
320.4992131213593
 20
339.8886937401568
 30
0.0
 40
2.0
100
AcDbArc
 50
61.6069805786228
 51
90.00000000000001
  0
LINE
  5
25B
330
1F
100
AcDbEntity
  8
図
  6
EXLTYPE3
 62
     6
100
AcDbLine
 10
328.1410992345699
 20
339.9022257590201
 30
0.0
 11
283.5824924179597
 21
339.9022257590201
 31
0.0
  0
LINE
  5
25C
330
1F
100
AcDbEntity
  8
図
  6
CONTINUOUS
 62
     6
100
AcDbLine
 10
286.7051612903218
 20
333.9157577778827
 30
0.0
 11
320.4992131213593
 21
333.9157577778827
 31
0.0
  0
LINE
  5
25D
330
1F
100
AcDbEntity
  8
図
  6
CONTINUOUS
 62
     6
100
AcDbLine
 10
321.4502471900895
 20
333.675170805035
 30
0.0
 11
324.7051612903218
 21
331.9157577778827
 31
0.0
  0
LINE
  5
25E
330
1F
100
AcDbEntity
  8
図
  6
CONTINUOUS
 62
     6
100
AcDbLine
 10
286.7051612903218
 20
329.9157577778828
 30
0.0
 11
320.4992131213593
 21
329.9157577778828
 31
0.0
  0
LINE
  5
25F
330
1F
100
AcDbEntity
  8
図
  6
CONTINUOUS
 62
     6
100
AcDbLine
 10
321.4502471900895
 20
330.1563447507305
 30
0.0
 11
324.7051612903218
 21
331.9157577778827
 31
0.0
  0
ARC
  5
260
330
1F
100
AcDbEntity
  8
図
  6
CONTINUOUS
 62
     6
100
AcDbCircle
 10
320.4992131213593
 20
331.9157577778827
 30
0.0
 40
2.0
100
AcDbArc
 50
61.60698057862422
 51
90.00000000000001
  0
ARC
  5
261
330
1F
100
AcDbEntity
  8
図
  6
CONTINUOUS
 62
     6
100
AcDbCircle
 10
320.4992131213593
 20
331.9157577778827
 30
0.0
 40
2.0
100
AcDbArc
 50
270.0
 51
298.3930194213779
  0
LINE
  5
262
330
1F
100
AcDbEntity
  8
図
  6
EXLTYPE3
 62
     6
100
AcDbLine
 10
328.1410992345699
 20
331.9022257590194
 30
0.0
 11
283.5824924179597
 21
331.9022257590194
 31
0.0
  0
LINE
  5
263
330
1F
100
AcDbEntity
  8
図
  6
EXLTYPE1
 62
     2
100
AcDbLine
 10
277.4051612903189
 20
324.90222575902
 30
0.0
 11
277.4051612903189
 21
326.9022257590194
 31
0.0
  0
LINE
  5
264
330
1F
100
AcDbEntity
  8
図
  6
EXLTYPE1
 62
     2
100
AcDbLine
 10
283.6799999999999
 20
326.9022257590194
 30
0.0
 11
277.4051612903189
 21
326.9022257590194
 31
0.0
  0
LINE
  5
265
330
1F
100
AcDbEntity
  8
図
  6
EXLTYPE1
 62
     2
100
AcDbLine
 10
286.7051612903201
 20
341.9022257590202
 30
0.0
 11
284.6051612903208
 21
341.9022257590202
 31
0.0
  0
LINE
  5
266
330
1F
100
AcDbEntity
  8
図
  6
EXLTYPE1
 62
     2
100
AcDbLine
 10
286.7051612903201
 20
337.90222575902
 30
0.0
 11
284.6051612903208
 21
337.90222575902
 31
0.0
  0
LINE
  5
267
330
1F
100
AcDbEntity
  8
図
  6
EXLTYPE1
 62
     2
100
AcDbLine
 10
286.7051612903201
 20
329.9022257590193
 30
0.0
 11
284.6051612903208
 21
329.9022257590193
 31
0.0
  0
LINE
  5
268
330
1F
100
AcDbEntity
  8
図
  6
EXLTYPE1
 62
     2
100
AcDbLine
 10
286.7051612903201
 20
333.9022257590195
 30
0.0
 11
284.6051612903208
 21
333.9022257590195
 31
0.0
  0
LINE
  5
269
330
1F
100
AcDbEntity
  8
図
  6
EXLTYPE1
 62
     2
100
AcDbLine
 10
275.40516129032
 20
324.90222575902
 30
0.0
 11
277.4051612903189
 21
324.90222575902
 31
0.0
  0
LINE
  5
26A
330
1F
100
AcDbEntity
  8
図
  6
EXLTYPE1
 62
     2
100
AcDbLine
 10
283.7050818921199
 20
326.88039956173
 30
0.0
 11
283.7050818921199
 21
324.90222575902
 31
0.0
  0
LINE
  5
26B
330
1F
100
AcDbEntity
  8
図
  6
EXLTYPE1
 62
     2
100
AcDbLine
 10
283.7050818921199
 20
324.90222575902
 30
0.0
 11
286.7051612903199
 21
324.90222575902
 31
0.0
  0
TEXT
  5
26C
330
1F
100
AcDbEntity
  8
図
  6
CONTINUOUS
 62
     2
100
AcDbText
 10
286.0805632590618
 20
406.5260549275068
 30
0.0
 40
8.0
  1
Ｗ.Ｌ
 50
90.0
 41
0.9767441860465117
  7
EXCADSTD
 72
     5
 11
286.0805632590618
 21
422.5260549275068
 31
0.0
100
AcDbText
  0
LINE
  5
26D
330
1F
100
AcDbEntity
  8
図
  6
CONTINUOUS
 62
     7
100
AcDbLine
 10
286.7051612903201
 20
288.6
 30
0.0
 11
286.7051612903201
 21
421.78
 31
0.0
  0
DIMENSION
  5
26E
330
1F
100
AcDbEntity
  8
図
  6
CONTINUOUS
 62
     3
100
AcDbDimension
  2
*D27
 10
265.70516129032
 20
377.2
 30
0.0
 11
276.20516129032
 21
381.8999999880791
 31
0.0
 70
   160
  3
ISO-25
100
AcDbAlignedDimension
 13
286.70516129032
 23
349.90222575902
 33
0.0
 14
265.70516129032
 24
335.90222575902
 34
0.0
100
AcDbRotatedDimension
1001
ACAD
1000
DSTYLE
1002
{
1070
   270
1070
     2
1070
     6
1000
EX_NORM
1070
     7
1000
EX_NORM
1070
    41
1040
6.0
1070
    42
1040
1.399999976158142
1070
    44
1040
2.0
1070
    73
1070
     0
1070
    74
1070
     0
1070
    75
1070
     1
1070
    76
1070
     0
1070
    77
1070
     1
1070
    78
1070
     0
1070
   140
1040
8.0
1070
   147
1040
0.0
1070
   173
1070
     1
1070
   176
1070
     3
1070
   177
1070
     3
1070
   178
1070
     2
1070
   271
1070
     0
1070
   277
1070
     2
1070
   279
1070
     2
1070
   280
1070
     0
1070
   287
1070
     5
1070
   340
1005
162
1002
}
  0
CIRCLE
  5
27A
330
1F
100
AcDbEntity
  8
図
  6
EXLTYPE1
 62
     2
100
AcDbCircle
 10
116.8
 20
335.90222575902
 30
0.0
 40
3.0
  0
ENDSEC
  0
SECTION
  2
OBJECTS
  0
DICTIONARY
  5
C
330
0
100
AcDbDictionary
  3
ACAD_GROUP
350
D
  3
ACAD_LAYOUT
350
1A
  3
ACAD_MATERIAL
350
3B
  3
ACAD_MLEADERSTYLE
350
29D
  3
ACAD_MLINESTYLE
350
17
  3
ACAD_PLOTSETTINGS
350
19
  3
ACAD_VISUALSTYLE
350
2A
  3
ACDBHEADERROUNDTRIPXREC
350
27B
  3
ACDBVARIABLEDICTIONARY
350
29B
  0
DICTIONARY
  5
D
102
{ACAD_REACTORS
330
C
102
}
330
C
100
AcDbDictionary
  0
DICTIONARY
  5
1A
102
{ACAD_REACTORS
330
C
102
}
330
C
100
AcDbDictionary
  0
DICTIONARY
  5
3B
102
{ACAD_REACTORS
330
C
102
}
330
C
100
AcDbDictionary
  3
BYBLOCK
350
3D
  3
BYLAYER
350
3C
  3
GLOBAL
350
3E
  0
DICTIONARY
  5
29D
102
{ACAD_REACTORS
330
C
102
}
330
C
100
AcDbDictionary
  0
DICTIONARY
  5
17
102
{ACAD_REACTORS
330
C
102
}
330
C
100
AcDbDictionary
  3
STANDARD
350
18
  0
DICTIONARY
  5
19
102
{ACAD_REACTORS
330
C
102
}
330
C
100
AcDbDictionary
  0
DICTIONARY
  5
2A
102
{ACAD_REACTORS
330
C
102
}
330
C
100
AcDbDictionary
  3
2DWIREFRAME
350
2F
  3
3D_HIDDEN
350
31
  3
3DWIREFRAME
350
30
  3
BASIC
350
32
  3
BRIGHTEN
350
36
  3
COLORCHANGE
350
3A
  3
CONCEPTUAL
350
34
  3
DIM
350
35
  3
FACEPATTERN
350
39
  3
FLAT
350
2B
  3
FLATWITHEDGES
350
2C
  3
GOURAUD
350
2D
  3
GOURAUDWITHEDGES
350
2E
  3
LINEPATTERN
350
38
  3
REALISTIC
350
33
  3
THICKEN
350
37
  0
DICTIONARY
  5
27B
102
{ACAD_REACTORS
330
C
102
}
330
C
100
AcDbDictionary
  3
CEPSNTYPE
350
284
  3
DIMSTYLEDATA
350
29A
  3
FINGERPRINTGUID
350
285
  3
HYPERLINKBASE
350
27E
  3
INSUNITS
350
283
  3
LAYOUTDICT
350
280
  3
LWETCUNION
350
282
  3
PLOTSETDICT
350
281
  3
PSVPSCALE
350
287
  3
PUCSBASE
350
28A
  3
PUCSORGBACK
350
290
  3
PUCSORGBOTTOM
350
28C
  3
PUCSORGFRONT
350
28F
  3
PUCSORGLEFT
350
28D
  3
PUCSORGRIGHT
350
28E
  3
PUCSORGTOP
350
28B
  3
PUCSORTHOREF
350
288
  3
PUCSORTHOVIEW
350
289
  3
STYLESHEET
350
27F
  3
TSTACKALIGN
350
27C
  3
TSTACKSIZE
350
27D
  3
UCSBASE
350
293
  3
UCSORGBACK
350
299
  3
UCSORGBOTTOM
350
295
  3
UCSORGFRONT
350
298
  3
UCSORGLEFT
350
296
  3
UCSORGRIGHT
350
297
  3
UCSORGTOP
350
294
  3
UCSORTHOREF
350
291
  3
UCSORTHOVIEW
350
292
  3
VERSIONGUID
350
286
  0
DICTIONARY
  5
29B
102
{ACAD_REACTORS
330
C
102
}
330
C
100
AcDbDictionary
  3
DIMASSOC
350
2A0
  3
HIDETEXT
350
2A1
  3
PSOLHEIGHT
350
29F
  3
PSOLWIDTH
350
29E
  0
MATERIAL
  5
3D
102
{ACAD_REACTORS
330
3B
102
}
102
{ACAD_XDICTIONARY
360
2A4
102
}
330
3B
100
AcDbMaterial
  1
ByBlock
  0
MATERIAL
  5
3C
102
{ACAD_REACTORS
330
3B
102
}
102
{ACAD_XDICTIONARY
360
2A2
102
}
330
3B
100
AcDbMaterial
  1
ByLayer
  0
MATERIAL
  5
3E
102
{ACAD_REACTORS
330
3B
102
}
102
{ACAD_XDICTIONARY
360
2A6
102
}
330
3B
100
AcDbMaterial
  1
Global
  0
MLINESTYLE
  5
18
102
{ACAD_REACTORS
330
17
102
}
330
17
100
AcDbMlineStyle
  2
Standard
 70
     0
  3

 62
   256
 51
90.0
 52
90.0
 71
     2
 49
0.5
 62
   256
  6
BYLAYER
 49
-0.5
 62
   256
  6
BYLAYER
  0
ACAD_PROXY_OBJECT
  5
2F
102
{ACAD_REACTORS
330
2A
102
}
330
2A
100
AcDbProxyObject
 90
      499
 91
      501
 93
      436
310
42CC9915DA5C99599C985B595049028333333333333E3BF0000000000000FB0107901411070040501600405405064090741402480A0340
1001
ACAD
1000
AcDbSavedByObjectVersion
1070
     0
  0
ACAD_PROXY_OBJECT
  5
31
102
{ACAD_REACTORS
330
2A
102
}
330
2A
100
AcDbProxyObject
 90
      499
 91
      501
 93
      500
310
424CD108121A5919195B90640502408333333333333E3BF0000000000000FB01079024090700405020000000000001110200405405064090740C02480A0340
1001
ACAD
1000
AcDbSavedByObjectVersion
1070
     0
  0
ACAD_PROXY_OBJECT
  5
30
102
{ACAD_REACTORS
330
2A
102
}
330
2A
100
AcDbProxyObject
 90
      499
 91
      501
 93
      436
310
42CCD915DA5C99599C985B595059028333333333333E3BF0000000000000FB0107901411070040501600405405064090741402480A0340
1001
ACAD
1000
AcDbSavedByObjectVersion
1070
     0
  0
ACAD_PROXY_OBJECT
  5
32
102
{ACAD_REACTORS
330
2A
102
}
330
2A
100
AcDbProxyObject
 90
      499
 91
      501
 93
      388
310
4150985CDA58D07406404333333333333E3BF0000000000000FB0107A41107004050150841D405064090741402480A0350
1001
ACAD
1000
AcDbSavedByObjectVersion
1070
     0
  0
ACAD_PROXY_OBJECT
  5
36
102
{ACAD_REACTORS
330
2A
102
}
330
2A
100
AcDbProxyObject
 90
      499
 91
      501
 93
      428
310
42109C9A59DA1D195B90C409028333333333333E3BF0000000000000FB010790141107004050150841D405064090741402480A029950
1001
ACAD
1000
AcDbSavedByObjectVersion
1070
     0
  0
ACAD_PROXY_OBJECT
  5
3A
102
{ACAD_REACTORS
330
2A
102
}
330
2A
100
AcDbProxyObject
 90
      499
 91
      501
 93
      452
310
42D0DBDB1BDC90DA185B99D95104090240C333333333333E3BF0000000000000FB0108901411070040501508421405064090741402480A0350
1001
ACAD
1000
AcDbSavedByObjectVersion
1070
     0
  0
ACAD_PROXY_OBJECT
  5
34
102
{ACAD_REACTORS
330
2A
102
}
330
2A
100
AcDbProxyObject
 90
      499
 91
      501
 93
      500
310
4290DBDB98D95C1D1D585B10940D028333333333333E3BF0000000000000FB0107902409070040501000000000000111010841D405064090740C02480A0340
1001
ACAD
1000
AcDbSavedByObjectVersion
1070
     0
  0
ACAD_PROXY_OBJECT
  5
35
102
{ACAD_REACTORS
330
2A
102
}
330
2A
100
AcDbProxyObject
 90
      499
 91
      501
 93
      412
310
40D11A5B50B409028333333333333E3BF0000000000000FB010790141107004050150841D405064090741402480A02677FFFFFD0
1001
ACAD
1000
AcDbSavedByObjectVersion
1070
     0
  0
ACAD_PROXY_OBJECT
  5
39
102
{ACAD_REACTORS
330
2A
102
}
330
2A
100
AcDbProxyObject
 90
      499
 91
      501
 93
      444
310
42D19858D95C185D1D195C9B90F409028333333333333E3BF0000000000000FB010790141107004050150841D405064090741402480A0350
1001
ACAD
1000
AcDbSavedByObjectVersion
1070
     0
  0
ACAD_PROXY_OBJECT
  5
2B
102
{ACAD_REACTORS
330
2A
102
}
330
2A
100
AcDbProxyObject
 90
      499
 91
      501
 93
      388
310
41119B185D240901404333333333333E3BF0000000000000F9010740A41107004050150841D405064090741402480A1B50
1001
ACAD
1000
AcDbSavedByObjectVersion
1070
     0
  0
ACAD_PROXY_OBJECT
  5
2C
102
{ACAD_REACTORS
330
2A
102
}
330
2A
100
AcDbProxyObject
 90
      499
 91
      501
 93
      476
310
43519B185D15DA5D1A115919D95CD0140901404333333333333E3BF0000000000000F9010740901411070040501600405405064090741402480A1B50
1001
ACAD
1000
AcDbSavedByObjectVersion
1070
     0
  0
ACAD_PROXY_OBJECT
  5
2D
102
{ACAD_REACTORS
330
2A
102
}
330
2A
100
AcDbProxyObject
 90
      499
 91
      501
 93
      412
310
41D1DBDD5C985D5910240902404333333333333E3BF0000000000000F9010740A411070040501641D405064090741402480A1B50
1001
ACAD
1000
AcDbSavedByObjectVersion
1070
     0
  0
ACAD_PROXY_OBJECT
  5
2E
102
{ACAD_REACTORS
330
2A
102
}
330
2A
100
AcDbProxyObject
 90
      499
 91
      501
 93
      500
310
4411DBDD5C985D5915DA5D1A115919D95CD0340902404333333333333E3BF0000000000000F9010740901411070040501600405405064090741402480A1B50
1001
ACAD
1000
AcDbSavedByObjectVersion
1070
     0
  0
ACAD_PROXY_OBJECT
  5
38
102
{ACAD_REACTORS
330
2A
102
}
330
2A
100
AcDbProxyObject
 90
      499
 91
      501
 93
      444
310
42D31A5B995C185D1D195C9B90E409028333333333333E3BF0000000000000FB010790141107004050750841D405064090741402483A0350
1001
ACAD
1000
AcDbSavedByObjectVersion
1070
     0
  0
ACAD_PROXY_OBJECT
  5
33
102
{ACAD_REACTORS
330
2A
102
}
330
2A
100
AcDbProxyObject
 90
      499
 91
      501
 93
      420
310
425499585B1A5CDD1A58D08409028333333333333E3BF0000000000000FB01079019070040501508421405064090741402480A1B40
1001
ACAD
1000
AcDbSavedByObjectVersion
1070
     0
  0
ACAD_PROXY_OBJECT
  5
37
102
{ACAD_REACTORS
330
2A
102
}
330
2A
100
AcDbProxyObject
 90
      499
 91
      501
 93
      412
310
41D51A1A58DAD95B90D409028333333333333E3BF0000000000000FB010790141107004050150C41D405064090741402480A0350
1001
ACAD
1000
AcDbSavedByObjectVersion
1070
     0
  0
XRECORD
  5
284
102
{ACAD_REACTORS
330
27B
102
}
330
27B
100
AcDbXrecord
 90
        0
  0
XRECORD
  5
29A
102
{ACAD_REACTORS
330
27B
102
}
330
27B
100
AcDbXrecord
1000
DSTYLE
1002
{
1070
   340
340
11
1002
}
  0
XRECORD
  5
285
102
{ACAD_REACTORS
330
27B
102
}
330
27B
100
AcDbXrecord
  1
{23B86125-7E04-441E-926E-1ECBCE8393BD}
  0
XRECORD
  5
27E
102
{ACAD_REACTORS
330
27B
102
}
330
27B
100
AcDbXrecord
  1

  0
XRECORD
  5
283
102
{ACAD_REACTORS
330
27B
102
}
330
27B
100
AcDbXrecord
 90
        4
  0
XRECORD
  5
280
102
{ACAD_REACTORS
330
27B
102
}
330
27B
100
AcDbXrecord
340
1A
  0
XRECORD
  5
282
102
{ACAD_REACTORS
330
27B
102
}
330
27B
100
AcDbXrecord
 90
    10781
  0
XRECORD
  5
281
102
{ACAD_REACTORS
330
27B
102
}
330
27B
100
AcDbXrecord
340
19
  0
XRECORD
  5
287
102
{ACAD_REACTORS
330
27B
102
}
330
27B
100
AcDbXrecord
 40
0.0
  0
XRECORD
  5
28A
102
{ACAD_REACTORS
330
27B
102
}
330
27B
100
AcDbXrecord
340
0
  0
XRECORD
  5
290
102
{ACAD_REACTORS
330
27B
102
}
330
27B
100
AcDbXrecord
 10
0.0
 20
0.0
 30
0.0
  0
XRECORD
  5
28C
102
{ACAD_REACTORS
330
27B
102
}
330
27B
100
AcDbXrecord
 10
0.0
 20
0.0
 30
0.0
  0
XRECORD
  5
28F
102
{ACAD_REACTORS
330
27B
102
}
330
27B
100
AcDbXrecord
 10
0.0
 20
0.0
 30
0.0
  0
XRECORD
  5
28D
102
{ACAD_REACTORS
330
27B
102
}
330
27B
100
AcDbXrecord
 10
0.0
 20
0.0
 30
0.0
  0
XRECORD
  5
28E
102
{ACAD_REACTORS
330
27B
102
}
330
27B
100
AcDbXrecord
 10
0.0
 20
0.0
 30
0.0
  0
XRECORD
  5
28B
102
{ACAD_REACTORS
330
27B
102
}
330
27B
100
AcDbXrecord
 10
0.0
 20
0.0
 30
0.0
  0
XRECORD
  5
288
102
{ACAD_REACTORS
330
27B
102
}
330
27B
100
AcDbXrecord
340
0
  0
XRECORD
  5
289
102
{ACAD_REACTORS
330
27B
102
}
330
27B
100
AcDbXrecord
 70
     0
  0
XRECORD
  5
27F
102
{ACAD_REACTORS
330
27B
102
}
330
27B
100
AcDbXrecord
  1

  0
XRECORD
  5
27C
102
{ACAD_REACTORS
330
27B
102
}
330
27B
100
AcDbXrecord
 90
        1
  0
XRECORD
  5
27D
102
{ACAD_REACTORS
330
27B
102
}
330
27B
100
AcDbXrecord
 90
       70
  0
XRECORD
  5
293
102
{ACAD_REACTORS
330
27B
102
}
330
27B
100
AcDbXrecord
340
0
  0
XRECORD
  5
299
102
{ACAD_REACTORS
330
27B
102
}
330
27B
100
AcDbXrecord
 10
0.0
 20
0.0
 30
0.0
  0
XRECORD
  5
295
102
{ACAD_REACTORS
330
27B
102
}
330
27B
100
AcDbXrecord
 10
0.0
 20
0.0
 30
0.0
  0
XRECORD
  5
298
102
{ACAD_REACTORS
330
27B
102
}
330
27B
100
AcDbXrecord
 10
0.0
 20
0.0
 30
0.0
  0
XRECORD
  5
296
102
{ACAD_REACTORS
330
27B
102
}
330
27B
100
AcDbXrecord
 10
0.0
 20
0.0
 30
0.0
  0
XRECORD
  5
297
102
{ACAD_REACTORS
330
27B
102
}
330
27B
100
AcDbXrecord
 10
0.0
 20
0.0
 30
0.0
  0
XRECORD
  5
294
102
{ACAD_REACTORS
330
27B
102
}
330
27B
100
AcDbXrecord
 10
0.0
 20
0.0
 30
0.0
  0
XRECORD
  5
291
102
{ACAD_REACTORS
330
27B
102
}
330
27B
100
AcDbXrecord
340
0
  0
XRECORD
  5
292
102
{ACAD_REACTORS
330
27B
102
}
330
27B
100
AcDbXrecord
 70
     0
  0
XRECORD
  5
286
102
{ACAD_REACTORS
330
27B
102
}
330
27B
100
AcDbXrecord
  1
{FAEB1C32-E019-11D5-929B-00C0DF256EC4}
  0
DICTIONARYVAR
  5
2A0
102
{ACAD_REACTORS
330
29B
102
}
330
29B
100
DictionaryVariables
280
     0
  1
2
  0
DICTIONARYVAR
  5
2A1
102
{ACAD_REACTORS
330
29B
102
}
330
29B
100
DictionaryVariables
280
     0
  1
1
  0
DICTIONARYVAR
  5
29F
102
{ACAD_REACTORS
330
29B
102
}
330
29B
100
DictionaryVariables
280
     0
  1
80.000000
  0
DICTIONARYVAR
  5
29E
102
{ACAD_REACTORS
330
29B
102
}
330
29B
100
DictionaryVariables
280
     0
  1
5.000000
  0
DICTIONARY
  5
2A4
330
3D
100
AcDbDictionary
280
     1
  3
ACAD_XREC_ROUNDTRIP
360
2A5
  0
DICTIONARY
  5
2A2
330
3C
100
AcDbDictionary
280
     1
  3
ACAD_XREC_ROUNDTRIP
360
2A3
  0
DICTIONARY
  5
2A6
330
3E
100
AcDbDictionary
280
     1
  3
ACAD_XREC_ROUNDTRIP
360
2A7
  0
XRECORD
  5
2A5
102
{ACAD_REACTORS
330
2A4
102
}
330
2A4
100
AcDbXrecord
102
MATERIAL
148
0.0
149
0.0
149
0.0
 93
        0
 94
      127
282
     0
 72
     1
 77
     1
171
     1
175
     1
179
     1
273
     0
  0
XRECORD
  5
2A3
102
{ACAD_REACTORS
330
2A2
102
}
330
2A2
100
AcDbXrecord
102
MATERIAL
148
0.0
149
0.0
149
0.0
 93
        0
 94
      127
282
     0
 72
     1
 77
     1
171
     1
175
     1
179
     1
273
     0
  0
XRECORD
  5
2A7
102
{ACAD_REACTORS
330
2A6
102
}
330
2A6
100
AcDbXrecord
102
MATERIAL
148
0.0
149
0.0
149
0.0
 93
        0
 94
      127
282
     0
 72
     1
 77
     1
171
     1
175
     1
179
     1
273
     0
  0
ENDSEC
  0
EOF
