  0
SECTION
  2
HEADER
  9
$ACADVER
  1
AC1014
  9
$ACADMAINTVER
 70
     9
  9
$DWGCODEPAGE
  3
ANSI_932
  9
$INSBASE
 10
0.0
 20
0.0
 30
0.0
  9
$EXTMIN
 10
17.39999999999998
 20
9.299999999999955
 30
0.0
  9
$EXTMAX
 10
199.4000000000002
 20
289.3
 30
0.0
  9
$LIMMIN
 10
0.0
 20
0.0
  9
$LIMMAX
 10
210.0
 20
297.0
  9
$ORTHOMODE
 70
     0
  9
$REGENMODE
 70
     1
  9
$FILLMODE
 70
     1
  9
$QTEXTMODE
 70
     0
  9
$MIRRTEXT
 70
     1
  9
$DRAGMODE
 70
     2
  9
$LTSCALE
 40
1.0
  9
$OSMODE
 70
    37
  9
$ATTMODE
 70
     1
  9
$TEXTSIZE
 40
2.5
  9
$TRACEWID
 40
1.0
  9
$TEXTSTYLE
  7
STANDARD
  9
$CLAYER
  8
化粧台
  9
$CELTYPE
  6
BYLAYER
  9
$CECOLOR
 62
   256
  9
$CELTSCALE
 40
1.0
  9
$DELOBJ
 70
     1
  9
$DISPSILH
 70
     0
  9
$DIMSCALE
 40
1.0
  9
$DIMASZ
 40
2.5
  9
$DIMEXO
 40
0.625
  9
$DIMDLI
 40
3.75
  9
$DIMRND
 40
0.0
  9
$DIMDLE
 40
0.0
  9
$DIMEXE
 40
1.25
  9
$DIMTP
 40
0.0
  9
$DIMTM
 40
0.0
  9
$DIMTXT
 40
2.5
  9
$DIMCEN
 40
2.5
  9
$DIMTSZ
 40
0.0
  9
$DIMTOL
 70
     0
  9
$DIMLIM
 70
     0
  9
$DIMTIH
 70
     0
  9
$DIMTOH
 70
     0
  9
$DIMSE1
 70
     0
  9
$DIMSE2
 70
     0
  9
$DIMTAD
 70
     1
  9
$DIMZIN
 70
     8
  9
$DIMBLK
  1

  9
$DIMASO
 70
     1
  9
$DIMSHO
 70
     1
  9
$DIMPOST
  1

  9
$DIMAPOST
  1

  9
$DIMALT
 70
     0
  9
$DIMALTD
 70
     3
  9
$DIMALTF
 40
0.03937007874016
  9
$DIMLFAC
 40
1.0
  9
$DIMTOFL
 70
     1
  9
$DIMTVP
 40
0.0
  9
$DIMTIX
 70
     0
  9
$DIMSOXD
 70
     0
  9
$DIMSAH
 70
     0
  9
$DIMBLK1
  1

  9
$DIMBLK2
  1

  9
$DIMSTYLE
  2
ISO-25
  9
$DIMCLRD
 70
     0
  9
$DIMCLRE
 70
     0
  9
$DIMCLRT
 70
     0
  9
$DIMTFAC
 40
1.0
  9
$DIMGAP
 40
0.625
  9
$DIMJUST
 70
     0
  9
$DIMSD1
 70
     0
  9
$DIMSD2
 70
     0
  9
$DIMTOLJ
 70
     0
  9
$DIMTZIN
 70
     8
  9
$DIMALTZ
 70
     0
  9
$DIMALTTZ
 70
     0
  9
$DIMFIT
 70
     3
  9
$DIMUPT
 70
     0
  9
$DIMUNIT
 70
     2
  9
$DIMDEC
 70
     2
  9
$DIMTDEC
 70
     2
  9
$DIMALTU
 70
     2
  9
$DIMALTTD
 70
     3
  9
$DIMTXSTY
  7
STANDARD
  9
$DIMAUNIT
 70
     0
  9
$LUNITS
 70
     2
  9
$LUPREC
 70
     4
  9
$SKETCHINC
 40
1.0
  9
$FILLETRAD
 40
10.0
  9
$AUNITS
 70
     0
  9
$AUPREC
 70
     0
  9
$MENU
  1
.
  9
$ELEVATION
 40
0.0
  9
$PELEVATION
 40
0.0
  9
$THICKNESS
 40
0.0
  9
$LIMCHECK
 70
     0
  9
$CHAMFERA
 40
10.0
  9
$CHAMFERB
 40
10.0
  9
$CHAMFERC
 40
20.0
  9
$CHAMFERD
 40
0.0
  9
$SKPOLY
 70
     0
  9
$TDCREATE
 40
2460046.448291343
  9
$TDUPDATE
 40
2460046.448291481
  9
$TDINDWG
 40
0.0000000116
  9
$TDUSRTIMER
 40
0.0000000116
  9
$USRTIMER
 70
     1
  9
$ANGBASE
 50
0.0
  9
$ANGDIR
 70
     0
  9
$PDMODE
 70
     0
  9
$PDSIZE
 40
0.0
  9
$PLINEWID
 40
0.0
  9
$COORDS
 70
     1
  9
$SPLFRAME
 70
     0
  9
$SPLINETYPE
 70
     6
  9
$SPLINESEGS
 70
     8
  9
$ATTDIA
 70
     0
  9
$ATTREQ
 70
     1
  9
$HANDLING
 70
     1
  9
$HANDSEED
  5
412
  9
$SURFTAB1
 70
     6
  9
$SURFTAB2
 70
     6
  9
$SURFTYPE
 70
     6
  9
$SURFU
 70
     6
  9
$SURFV
 70
     6
  9
$UCSNAME
  2

  9
$UCSORG
 10
0.0
 20
0.0
 30
0.0
  9
$UCSXDIR
 10
1.0
 20
0.0
 30
0.0
  9
$UCSYDIR
 10
0.0
 20
1.0
 30
0.0
  9
$PUCSNAME
  2

  9
$PUCSORG
 10
0.0
 20
0.0
 30
0.0
  9
$PUCSXDIR
 10
1.0
 20
0.0
 30
0.0
  9
$PUCSYDIR
 10
0.0
 20
1.0
 30
0.0
  9
$USERI1
 70
     0
  9
$USERI2
 70
     0
  9
$USERI3
 70
     0
  9
$USERI4
 70
     0
  9
$USERI5
 70
     0
  9
$USERR1
 40
0.0
  9
$USERR2
 40
0.0
  9
$USERR3
 40
0.0
  9
$USERR4
 40
0.0
  9
$USERR5
 40
0.0
  9
$WORLDVIEW
 70
     1
  9
$SHADEDGE
 70
     3
  9
$SHADEDIF
 70
    70
  9
$TILEMODE
 70
     1
  9
$MAXACTVP
 70
    64
  9
$PINSBASE
 10
0.0
 20
0.0
 30
0.0
  9
$PLIMCHECK
 70
     0
  9
$PEXTMIN
 10
1.000000000000000E+20
 20
1.000000000000000E+20
 30
1.000000000000000E+20
  9
$PEXTMAX
 10
-1.000000000000000E+20
 20
-1.000000000000000E+20
 30
-1.000000000000000E+20
  9
$PLIMMIN
 10
0.0
 20
0.0
  9
$PLIMMAX
 10
420.0
 20
297.0
  9
$UNITMODE
 70
     0
  9
$VISRETAIN
 70
     1
  9
$PLINEGEN
 70
     0
  9
$PSLTSCALE
 70
     1
  9
$TREEDEPTH
 70
  3020
  9
$PICKSTYLE
 70
     1
  9
$CMLSTYLE
  2
STANDARD
  9
$CMLJUST
 70
     0
  9
$CMLSCALE
 40
20.0
  9
$PROXYGRAPHICS
 70
     1
  9
$MEASUREMENT
 70
     1
  0
ENDSEC
  0
SECTION
  2
CLASSES
  0
CLASS
  1
ACDBDICTIONARYWDFLT
  2
AcDbDictionaryWithDefault
  3
ObjectDBX Classes
 90
        0
280
     0
281
     0
  0
CLASS
  1
VISUALSTYLE
  2
AcDbVisualStyle
  3
ObjectDBX Classes
 90
     4095
280
     0
281
     0
  0
CLASS
  1
MATERIAL
  2
AcDbMaterial
  3
ObjectDBX Classes
 90
     1153
280
     0
281
     0
  0
CLASS
  1
SUN
  2
AcDbSun
  3
SCENEOE
 90
     1024
280
     0
281
     0
  0
CLASS
  1
DICTIONARYVAR
  2
AcDbDictionaryVar
  3
ObjectDBX Classes
 90
        0
280
     0
281
     0
  0
CLASS
  1
XRECORD
  2
AcDbXrecord
  3
AutoCAD 2000
 90
        0
280
     0
281
     0
  0
CLASS
  1
LWPOLYLINE
  2
AcDbPolyline
  3
AutoCAD 2000
 90
        0
280
     0
281
     1
  0
CLASS
  1
HATCH
  2
AcDbHatch
  3
AutoCAD 2000
 90
        0
280
     0
281
     1
  0
CLASS
  1
ACDBPLACEHOLDER
  2
AcDbPlaceHolder
  3
ObjectDBX Classes
 90
        0
280
     0
281
     0
  0
CLASS
  1
LAYOUT
  2
AcDbLayout
  3
ObjectDBX Classes
 90
        0
280
     0
281
     0
  0
ENDSEC
  0
SECTION
  2
TABLES
  0
TABLE
  2
VPORT
  5
8
330
0
100
AcDbSymbolTable
 70
     1
  0
VPORT
  5
29
330
8
100
AcDbSymbolTableRecord
100
AcDbViewportTableRecord
  2
*ACTIVE
 70
     0
 10
0.0
 20
0.0
 11
1.0
 21
1.0
 12
1084.000000000001
 22
1493.0
 13
0.0
 23
0.0
 14
10.0
 24
10.0
 15
10.0
 25
10.0
 16
0.0
 26
0.0
 36
1.0
 17
0.0
 27
0.0
 37
0.0
 40
2800.0
 41
0.6500000000000007
 42
50.0
 43
0.0
 44
0.0
 50
0.0
 51
0.0
 71
     0
 72
  1000
 73
     1
 74
     3
 75
     0
 76
     0
 77
     0
 78
     0
  0
ENDTAB
  0
TABLE
  2
LTYPE
  5
5
330
0
100
AcDbSymbolTable
 70
     7
  0
LTYPE
  5
14
330
5
100
AcDbSymbolTableRecord
100
AcDbLinetypeTableRecord
  2
BYBLOCK
 70
     0
  3

 72
    65
 73
     0
 40
0.0
  0
LTYPE
  5
15
330
5
100
AcDbSymbolTableRecord
100
AcDbLinetypeTableRecord
  2
BYLAYER
 70
     0
  3

 72
    65
 73
     0
 40
0.0
  0
LTYPE
  5
16
330
5
100
AcDbSymbolTableRecord
100
AcDbLinetypeTableRecord
  2
CONTINUOUS
 70
     0
  3
Solid line
 72
    65
 73
     0
 40
0.0
  0
LTYPE
  5
40
330
5
100
AcDbSymbolTableRecord
100
AcDbLinetypeTableRecord
  2
EXLTYPE1
 70
     0
  3
破線
 72
    65
 73
     2
 40
3.0
 49
2.0
 74
     0
 49
-1.0
 74
     0
  0
LTYPE
  5
41
330
5
100
AcDbSymbolTableRecord
100
AcDbLinetypeTableRecord
  2
EXLTYPE2
 70
     0
  3
点線
 72
    65
 73
     2
 40
2.0
 49
1.0
 74
     0
 49
-1.0
 74
     0
  0
LTYPE
  5
42
330
5
100
AcDbSymbolTableRecord
100
AcDbLinetypeTableRecord
  2
EXLTYPE3
 70
     0
  3
一点鎖線
 72
    65
 73
     4
 40
10.0
 49
7.0
 74
     0
 49
-1.0
 74
     0
 49
1.0
 74
     0
 49
-1.0
 74
     0
  0
LTYPE
  5
43
330
5
100
AcDbSymbolTableRecord
100
AcDbLinetypeTableRecord
  2
EXLTYPE4
 70
     0
  3
二点鎖線
 72
    65
 73
     6
 40
12.0
 49
7.0
 74
     0
 49
-1.0
 74
     0
 49
1.0
 74
     0
 49
-1.0
 74
     0
 49
1.0
 74
     0
 49
-1.0
 74
     0
  0
LTYPE
  5
44
330
5
100
AcDbSymbolTableRecord
100
AcDbLinetypeTableRecord
  2
EXLTYPE5
 70
     0
  3
三点鎖線
 72
    65
 73
     8
 40
37.0
 49
30.0
 74
     0
 49
-1.0
 74
     0
 49
1.0
 74
     0
 49
-1.0
 74
     0
 49
1.0
 74
     0
 49
-1.0
 74
     0
 49
1.0
 74
     0
 49
-1.0
 74
     0
  0
LTYPE
  5
45
330
5
100
AcDbSymbolTableRecord
100
AcDbLinetypeTableRecord
  2
EXLTYPE6
 70
     0
  3
四点鎖線
 72
    65
 73
    10
 40
39.0
 49
30.0
 74
     0
 49
-1.0
 74
     0
 49
1.0
 74
     0
 49
-1.0
 74
     0
 49
1.0
 74
     0
 49
-1.0
 74
     0
 49
1.0
 74
     0
 49
-1.0
 74
     0
 49
1.0
 74
     0
 49
-1.0
 74
     0
  0
ENDTAB
  0
TABLE
  2
LAYER
  5
2
330
0
100
AcDbSymbolTable
 70
     4
  0
LAYER
  5
10
330
2
100
AcDbSymbolTableRecord
100
AcDbLayerTableRecord
  2
0
 70
     0
 62
     7
  6
CONTINUOUS
  0
LAYER
  5
48
330
2
100
AcDbSymbolTableRecord
100
AcDbLayerTableRecord
  2
枠_表
 70
     0
 62
     7
  6
CONTINUOUS
  0
LAYER
  5
49
330
2
100
AcDbSymbolTableRecord
100
AcDbLayerTableRecord
  2
化粧台
 70
     0
 62
     7
  6
CONTINUOUS
  0
LAYER
  5
262
330
2
100
AcDbSymbolTableRecord
100
AcDbLayerTableRecord
  2
DEFPOINTS
 70
     0
 62
     7
  6
CONTINUOUS
  0
ENDTAB
  0
TABLE
  2
STYLE
  5
3
330
0
100
AcDbSymbolTable
 70
     5
  0
STYLE
  5
11
330
3
100
AcDbSymbolTableRecord
100
AcDbTextStyleTableRecord
  2
STANDARD
 70
     0
 40
0.0
 41
1.0
 50
0.0
 71
     0
 42
2.5
  3
monotxt
  4
extfont
  0
STYLE
  5
46
330
3
100
AcDbSymbolTableRecord
100
AcDbTextStyleTableRecord
  2
EXCADSTD
 70
     0
 40
0.0
 41
1.0
 50
0.0
 71
     0
 42
0.2
  3
monotxt
  4
extfont
  0
STYLE
  5
47
330
3
100
AcDbSymbolTableRecord
100
AcDbTextStyleTableRecord
  2
EXCADVERT
 70
     4
 40
0.0
 41
1.0
 50
0.0
 71
     0
 42
0.286885
  3
monotxt
  4
extfont
  0
STYLE
  5
AC
330
3
100
AcDbSymbolTableRecord
100
AcDbTextStyleTableRecord
  2
EXCADTTF1
 70
     0
 40
0.0
 41
1.0
 50
0.0
 71
     0
 42
0.2
  3
MSGOTHIC.TTC
  4

1001
ACAD
1000
MS Gothic
1071
    32817
  0
STYLE
  5
260
330
3
100
AcDbSymbolTableRecord
100
AcDbTextStyleTableRecord
  2
EXCADDIM1
 70
     0
 40
0.0
 41
0.84
 50
0.0
 71
     0
 42
0.2
  3
monotxt
  4
extfont
  0
ENDTAB
  0
TABLE
  2
VIEW
  5
6
330
0
100
AcDbSymbolTable
 70
     0
  0
ENDTAB
  0
TABLE
  2
UCS
  5
7
330
0
100
AcDbSymbolTable
 70
     0
  0
ENDTAB
  0
TABLE
  2
APPID
  5
9
330
0
100
AcDbSymbolTable
 70
     1
  0
APPID
  5
12
330
9
100
AcDbSymbolTableRecord
100
AcDbRegAppTableRecord
  2
ACAD
 70
     0
  0
ENDTAB
  0
TABLE
  2
DIMSTYLE
  5
A
330
0
100
AcDbSymbolTable
 70
     1
  0
DIMSTYLE
105
27
102
{ACAD_REACTORS
330
261
330
272
330
287
330
294
330
2D7
330
31F
330
32C
102
}
330
A
100
AcDbSymbolTableRecord
100
AcDbDimStyleTableRecord
  2
ISO-25
 70
     0
  3

  4

  5

  6

  7

 40
1.0
 41
2.5
 42
0.625
 43
3.75
 44
1.25
 45
0.0
 46
0.0
 47
0.0
 48
0.0
140
2.5
141
2.5
142
0.0
143
0.03937007874016
144
1.0
145
0.0
146
1.0
147
0.625
 71
     0
 72
     0
 73
     0
 74
     0
 75
     0
 76
     0
 77
     1
 78
     8
170
     0
171
     3
172
     1
173
     0
174
     0
175
     0
176
     0
177
     0
178
     0
270
     2
271
     2
272
     2
273
     2
274
     3
340
11
275
     0
280
     0
281
     0
282
     0
283
     0
284
     8
285
     0
286
     0
287
     5
288
     0
  0
ENDTAB
  0
TABLE
  2
BLOCK_RECORD
  5
1
330
0
100
AcDbSymbolTable
 70
    22
  0
BLOCK_RECORD
  5
1F
330
1
100
AcDbSymbolTableRecord
100
AcDbBlockTableRecord
  2
*MODEL_SPACE
  0
BLOCK_RECORD
  5
1B
330
1
100
AcDbSymbolTableRecord
100
AcDbBlockTableRecord
  2
*PAPER_SPACE
  0
BLOCK_RECORD
  5
4A
330
1
100
AcDbSymbolTableRecord
100
AcDbBlockTableRecord
  2
EX_NORM
  0
BLOCK_RECORD
  5
4D
330
1
100
AcDbSymbolTableRecord
100
AcDbBlockTableRecord
  2
EX_BNORM
  0
BLOCK_RECORD
  5
50
330
1
100
AcDbSymbolTableRecord
100
AcDbBlockTableRecord
  2
EX_BCIR
  0
BLOCK_RECORD
  5
53
330
1
100
AcDbSymbolTableRecord
100
AcDbBlockTableRecord
  2
EX_RCIVIL
  0
BLOCK_RECORD
  5
56
330
1
100
AcDbSymbolTableRecord
100
AcDbBlockTableRecord
  2
EX_SLANT
  0
BLOCK_RECORD
  5
59
330
1
100
AcDbSymbolTableRecord
100
AcDbBlockTableRecord
  2
EX_NONE
  0
BLOCK_RECORD
  5
5C
330
1
100
AcDbSymbolTableRecord
100
AcDbBlockTableRecord
  2
EX_CIVIL
  0
BLOCK_RECORD
  5
5F
330
1
100
AcDbSymbolTableRecord
100
AcDbBlockTableRecord
  2
EX_WCIR
  0
BLOCK_RECORD
  5
62
330
1
100
AcDbSymbolTableRecord
100
AcDbBlockTableRecord
  2
EX_WCIR2
  0
BLOCK_RECORD
  5
65
330
1
100
AcDbSymbolTableRecord
100
AcDbBlockTableRecord
  2
EX_WNORM
  0
BLOCK_RECORD
  5
68
330
1
100
AcDbSymbolTableRecord
100
AcDbBlockTableRecord
  2
EX_NNORM
  0
BLOCK_RECORD
  5
6B
330
1
100
AcDbSymbolTableRecord
100
AcDbBlockTableRecord
  2
EX_BBOX
  0
BLOCK_RECORD
  5
6E
330
1
100
AcDbSymbolTableRecord
100
AcDbBlockTableRecord
  2
EX_WBOX
  0
BLOCK_RECORD
  5
71
330
1
100
AcDbSymbolTableRecord
100
AcDbBlockTableRecord
  2
EX_INTEGRAL
  0
BLOCK_RECORD
  5
263
330
1
100
AcDbSymbolTableRecord
100
AcDbBlockTableRecord
  2
*D15
  0
BLOCK_RECORD
  5
273
330
1
100
AcDbSymbolTableRecord
100
AcDbBlockTableRecord
  2
*D16
  0
BLOCK_RECORD
  5
288
330
1
100
AcDbSymbolTableRecord
100
AcDbBlockTableRecord
  2
*D17
  0
BLOCK_RECORD
  5
295
330
1
100
AcDbSymbolTableRecord
100
AcDbBlockTableRecord
  2
*D18
  0
BLOCK_RECORD
  5
2D8
330
1
100
AcDbSymbolTableRecord
100
AcDbBlockTableRecord
  2
*D19
  0
BLOCK_RECORD
  5
320
330
1
100
AcDbSymbolTableRecord
100
AcDbBlockTableRecord
  2
*D20
  0
BLOCK_RECORD
  5
32D
330
1
100
AcDbSymbolTableRecord
100
AcDbBlockTableRecord
  2
*D21
  0
ENDTAB
  0
ENDSEC
  0
SECTION
  2
BLOCKS
  0
BLOCK
  5
20
330
1F
100
AcDbEntity
  8
0
100
AcDbBlockBegin
  2
*MODEL_SPACE
 70
     0
 10
0.0
 20
0.0
 30
0.0
  3
*MODEL_SPACE
  1

  0
ENDBLK
  5
21
330
1F
100
AcDbEntity
  8
0
100
AcDbBlockEnd
  0
BLOCK
  5
1C
330
1B
100
AcDbEntity
 67
     1
  8
0
100
AcDbBlockBegin
  2
*PAPER_SPACE
 70
     0
 10
0.0
 20
0.0
 30
0.0
  3
*PAPER_SPACE
  1

  0
ENDBLK
  5
1D
330
1B
100
AcDbEntity
 67
     1
  8
0
100
AcDbBlockEnd
  0
BLOCK
  5
4B
330
4A
100
AcDbEntity
  8
0
100
AcDbBlockBegin
  2
EX_NORM
 70
     0
 10
0.0
 20
0.0
 30
0.0
  3
EX_NORM
  1

  0
LINE
  5
74
330
4A
100
AcDbEntity
  8
0
  6
CONTINUOUS
 62
     0
100
AcDbLine
 10
0.0
 20
0.0
 30
0.0
 11
-1.0
 21
0.0
 31
0.0
  0
LINE
  5
75
330
4A
100
AcDbEntity
  8
0
  6
CONTINUOUS
 62
     0
100
AcDbLine
 10
0.0
 20
0.0
 30
0.0
 11
-1.0
 21
0.166666667
 31
0.0
  0
LINE
  5
76
330
4A
100
AcDbEntity
  8
0
  6
CONTINUOUS
 62
     0
100
AcDbLine
 10
0.0
 20
0.0
 30
0.0
 11
-1.0
 21
-0.166666667
 31
0.0
  0
ENDBLK
  5
4C
330
4A
100
AcDbEntity
  8
0
100
AcDbBlockEnd
  0
BLOCK
  5
4E
330
4D
100
AcDbEntity
  8
0
100
AcDbBlockBegin
  2
EX_BNORM
 70
     0
 10
0.0
 20
0.0
 30
0.0
  3
EX_BNORM
  1

  0
LINE
  5
77
330
4D
100
AcDbEntity
  8
0
  6
CONTINUOUS
 62
     0
100
AcDbLine
 10
0.0
 20
0.0
 30
0.0
 11
-1.0
 21
0.0
 31
0.0
  0
LINE
  5
78
330
4D
100
AcDbEntity
  8
0
  6
CONTINUOUS
 62
     0
100
AcDbLine
 10
0.0
 20
0.0
 30
0.0
 11
-1.0
 21
0.166666667
 31
0.0
  0
LINE
  5
79
330
4D
100
AcDbEntity
  8
0
  6
CONTINUOUS
 62
     0
100
AcDbLine
 10
0.0
 20
0.0
 30
0.0
 11
-1.0
 21
-0.166666667
 31
0.0
  0
LINE
  5
7A
330
4D
100
AcDbEntity
  8
0
  6
CONTINUOUS
 62
     0
100
AcDbLine
 10
0.0
 20
0.0
 30
0.0
 11
-1.0
 21
0.083333333
 31
0.0
  0
LINE
  5
7B
330
4D
100
AcDbEntity
  8
0
  6
CONTINUOUS
 62
     0
100
AcDbLine
 10
0.0
 20
0.0
 30
0.0
 11
-1.0
 21
-0.083333333
 31
0.0
  0
LINE
  5
7C
330
4D
100
AcDbEntity
  8
0
  6
CONTINUOUS
 62
     0
100
AcDbLine
 10
-1.0
 20
0.166666667
 30
0.0
 11
-1.0
 21
-0.166666667
 31
0.0
  0
ENDBLK
  5
4F
330
4D
100
AcDbEntity
  8
0
100
AcDbBlockEnd
  0
BLOCK
  5
51
330
50
100
AcDbEntity
  8
0
100
AcDbBlockBegin
  2
EX_BCIR
 70
     0
 10
0.0
 20
0.0
 30
0.0
  3
EX_BCIR
  1

  0
LINE
  5
7D
330
50
100
AcDbEntity
  8
0
  6
CONTINUOUS
 62
     0
100
AcDbLine
 10
0.0
 20
0.0
 30
0.0
 11
-1.0
 21
0.0
 31
0.0
  0
CIRCLE
  5
7E
330
50
100
AcDbEntity
  8
0
  6
CONTINUOUS
 62
     0
100
AcDbCircle
 10
0.0
 20
0.0
 30
0.0
 40
0.5
  0
CIRCLE
  5
7F
330
50
100
AcDbEntity
  8
0
  6
CONTINUOUS
 62
     0
100
AcDbCircle
 10
0.0
 20
0.0
 30
0.0
 40
0.25
  0
ENDBLK
  5
52
330
50
100
AcDbEntity
  8
0
100
AcDbBlockEnd
  0
BLOCK
  5
54
330
53
100
AcDbEntity
  8
0
100
AcDbBlockBegin
  2
EX_RCIVIL
 70
     0
 10
0.0
 20
0.0
 30
0.0
  3
EX_RCIVIL
  1

  0
LINE
  5
80
330
53
100
AcDbEntity
  8
0
  6
CONTINUOUS
 62
     0
100
AcDbLine
 10
0.0
 20
0.0
 30
0.0
 11
-1.0
 21
0.0
 31
0.0
  0
LINE
  5
81
330
53
100
AcDbEntity
  8
0
  6
CONTINUOUS
 62
     0
100
AcDbLine
 10
-1.0
 20
-0.25
 30
0.0
 11
0.0
 21
-0.25
 31
0.0
  0
LINE
  5
82
330
53
100
AcDbEntity
  8
0
  6
CONTINUOUS
 62
     0
100
AcDbLine
 10
-1.0
 20
-0.125
 30
0.0
 11
0.0
 21
-0.125
 31
0.0
  0
ENDBLK
  5
55
330
53
100
AcDbEntity
  8
0
100
AcDbBlockEnd
  0
BLOCK
  5
57
330
56
100
AcDbEntity
  8
0
100
AcDbBlockBegin
  2
EX_SLANT
 70
     0
 10
0.0
 20
0.0
 30
0.0
  3
EX_SLANT
  1

  0
LINE
  5
83
330
56
100
AcDbEntity
  8
0
  6
CONTINUOUS
 62
     0
100
AcDbLine
 10
0.0
 20
0.0
 30
0.0
 11
-1.0
 21
0.0
 31
0.0
  0
LINE
  5
84
330
56
100
AcDbEntity
  8
0
  6
CONTINUOUS
 62
     0
100
AcDbLine
 10
0.707106781
 20
0.707106781
 30
0.0
 11
-0.707106781
 21
-0.707106781
 31
0.0
  0
ENDBLK
  5
58
330
56
100
AcDbEntity
  8
0
100
AcDbBlockEnd
  0
BLOCK
  5
5A
330
59
100
AcDbEntity
  8
0
100
AcDbBlockBegin
  2
EX_NONE
 70
     0
 10
0.0
 20
0.0
 30
0.0
  3
EX_NONE
  1

  0
LINE
  5
85
330
59
100
AcDbEntity
  8
0
  6
CONTINUOUS
 62
     0
100
AcDbLine
 10
0.0
 20
0.0
 30
0.0
 11
-1.0
 21
0.0
 31
0.0
  0
ENDBLK
  5
5B
330
59
100
AcDbEntity
  8
0
100
AcDbBlockEnd
  0
BLOCK
  5
5D
330
5C
100
AcDbEntity
  8
0
100
AcDbBlockBegin
  2
EX_CIVIL
 70
     0
 10
0.0
 20
0.0
 30
0.0
  3
EX_CIVIL
  1

  0
LINE
  5
86
330
5C
100
AcDbEntity
  8
0
  6
CONTINUOUS
 62
     0
100
AcDbLine
 10
0.0
 20
0.0
 30
0.0
 11
-1.0
 21
0.0
 31
0.0
  0
LINE
  5
87
330
5C
100
AcDbEntity
  8
0
  6
CONTINUOUS
 62
     0
100
AcDbLine
 10
-1.0
 20
0.25
 30
0.0
 11
0.0
 21
0.25
 31
0.0
  0
LINE
  5
88
330
5C
100
AcDbEntity
  8
0
  6
CONTINUOUS
 62
     0
100
AcDbLine
 10
-1.0
 20
0.125
 30
0.0
 11
0.0
 21
0.125
 31
0.0
  0
ENDBLK
  5
5E
330
5C
100
AcDbEntity
  8
0
100
AcDbBlockEnd
  0
BLOCK
  5
60
330
5F
100
AcDbEntity
  8
0
100
AcDbBlockBegin
  2
EX_WCIR
 70
     0
 10
0.0
 20
0.0
 30
0.0
  3
EX_WCIR
  1

  0
LINE
  5
89
330
5F
100
AcDbEntity
  8
0
  6
CONTINUOUS
 62
     0
100
AcDbLine
 10
0.0
 20
0.0
 30
0.0
 11
-1.0
 21
0.0
 31
0.0
  0
CIRCLE
  5
8A
330
5F
100
AcDbEntity
  8
0
  6
CONTINUOUS
 62
     0
100
AcDbCircle
 10
0.0
 20
0.0
 30
0.0
 40
0.5
  0
ENDBLK
  5
61
330
5F
100
AcDbEntity
  8
0
100
AcDbBlockEnd
  0
BLOCK
  5
63
330
62
100
AcDbEntity
  8
0
100
AcDbBlockBegin
  2
EX_WCIR2
 70
     0
 10
0.0
 20
0.0
 30
0.0
  3
EX_WCIR2
  1

  0
LINE
  5
8B
330
62
100
AcDbEntity
  8
0
  6
CONTINUOUS
 62
     0
100
AcDbLine
 10
-0.5
 20
0.0
 30
0.0
 11
-1.0
 21
0.0
 31
0.0
  0
CIRCLE
  5
8C
330
62
100
AcDbEntity
  8
0
  6
CONTINUOUS
 62
     0
100
AcDbCircle
 10
0.0
 20
0.0
 30
0.0
 40
0.5
  0
ENDBLK
  5
64
330
62
100
AcDbEntity
  8
0
100
AcDbBlockEnd
  0
BLOCK
  5
66
330
65
100
AcDbEntity
  8
0
100
AcDbBlockBegin
  2
EX_WNORM
 70
     0
 10
0.0
 20
0.0
 30
0.0
  3
EX_WNORM
  1

  0
LINE
  5
8D
330
65
100
AcDbEntity
  8
0
  6
CONTINUOUS
 62
     0
100
AcDbLine
 10
-1.0
 20
0.0
 30
0.0
 11
-1.0
 21
0.0
 31
0.0
  0
LINE
  5
8E
330
65
100
AcDbEntity
  8
0
  6
CONTINUOUS
 62
     0
100
AcDbLine
 10
0.0
 20
0.0
 30
0.0
 11
-1.0
 21
0.166666667
 31
0.0
  0
LINE
  5
8F
330
65
100
AcDbEntity
  8
0
  6
CONTINUOUS
 62
     0
100
AcDbLine
 10
0.0
 20
0.0
 30
0.0
 11
-1.0
 21
-0.166666667
 31
0.0
  0
LINE
  5
90
330
65
100
AcDbEntity
  8
0
  6
CONTINUOUS
 62
     0
100
AcDbLine
 10
-1.0
 20
0.166666667
 30
0.0
 11
-1.0
 21
-0.166666667
 31
0.0
  0
ENDBLK
  5
67
330
65
100
AcDbEntity
  8
0
100
AcDbBlockEnd
  0
BLOCK
  5
69
330
68
100
AcDbEntity
  8
0
100
AcDbBlockBegin
  2
EX_NNORM
 70
     0
 10
0.0
 20
0.0
 30
0.0
  3
EX_NNORM
  1

  0
LINE
  5
91
330
68
100
AcDbEntity
  8
0
  6
CONTINUOUS
 62
     0
100
AcDbLine
 10
0.0
 20
0.0
 30
0.0
 11
-1.0
 21
0.0
 31
0.0
  0
LINE
  5
92
330
68
100
AcDbEntity
  8
0
  6
CONTINUOUS
 62
     0
100
AcDbLine
 10
0.0
 20
0.0
 30
0.0
 11
-1.0
 21
0.166666667
 31
0.0
  0
LINE
  5
93
330
68
100
AcDbEntity
  8
0
  6
CONTINUOUS
 62
     0
100
AcDbLine
 10
0.0
 20
0.0
 30
0.0
 11
-1.0
 21
-0.166666667
 31
0.0
  0
LINE
  5
94
330
68
100
AcDbEntity
  8
0
  6
CONTINUOUS
 62
     0
100
AcDbLine
 10
-1.0
 20
0.166666667
 30
0.0
 11
-1.0
 21
-0.166666667
 31
0.0
  0
ENDBLK
  5
6A
330
68
100
AcDbEntity
  8
0
100
AcDbBlockEnd
  0
BLOCK
  5
6C
330
6B
100
AcDbEntity
  8
0
100
AcDbBlockBegin
  2
EX_BBOX
 70
     0
 10
0.0
 20
0.0
 30
0.0
  3
EX_BBOX
  1

  0
LINE
  5
95
330
6B
100
AcDbEntity
  8
0
  6
CONTINUOUS
 62
     0
100
AcDbLine
 10
0.0
 20
0.0
 30
0.0
 11
-1.0
 21
0.0
 31
0.0
  0
LINE
  5
96
330
6B
100
AcDbEntity
  8
0
  6
CONTINUOUS
 62
     0
100
AcDbLine
 10
-0.5
 20
0.5
 30
0.0
 11
0.5
 21
0.5
 31
0.0
  0
LINE
  5
97
330
6B
100
AcDbEntity
  8
0
  6
CONTINUOUS
 62
     0
100
AcDbLine
 10
0.5
 20
0.5
 30
0.0
 11
0.5
 21
-0.5
 31
0.0
  0
LINE
  5
98
330
6B
100
AcDbEntity
  8
0
  6
CONTINUOUS
 62
     0
100
AcDbLine
 10
0.5
 20
-0.5
 30
0.0
 11
-0.5
 21
-0.5
 31
0.0
  0
LINE
  5
99
330
6B
100
AcDbEntity
  8
0
  6
CONTINUOUS
 62
     0
100
AcDbLine
 10
-0.5
 20
-0.5
 30
0.0
 11
-0.5
 21
0.5
 31
0.0
  0
LINE
  5
9A
330
6B
100
AcDbEntity
  8
0
  6
CONTINUOUS
 62
     0
100
AcDbLine
 10
-0.25
 20
0.25
 30
0.0
 11
0.25
 21
0.25
 31
0.0
  0
LINE
  5
9B
330
6B
100
AcDbEntity
  8
0
  6
CONTINUOUS
 62
     0
100
AcDbLine
 10
0.25
 20
0.25
 30
0.0
 11
0.25
 21
-0.25
 31
0.0
  0
LINE
  5
9C
330
6B
100
AcDbEntity
  8
0
  6
CONTINUOUS
 62
     0
100
AcDbLine
 10
0.25
 20
-0.25
 30
0.0
 11
-0.25
 21
-0.25
 31
0.0
  0
LINE
  5
9D
330
6B
100
AcDbEntity
  8
0
  6
CONTINUOUS
 62
     0
100
AcDbLine
 10
-0.25
 20
-0.25
 30
0.0
 11
-0.25
 21
0.25
 31
0.0
  0
ENDBLK
  5
6D
330
6B
100
AcDbEntity
  8
0
100
AcDbBlockEnd
  0
BLOCK
  5
6F
330
6E
100
AcDbEntity
  8
0
100
AcDbBlockBegin
  2
EX_WBOX
 70
     0
 10
0.0
 20
0.0
 30
0.0
  3
EX_WBOX
  1

  0
LINE
  5
9E
330
6E
100
AcDbEntity
  8
0
  6
CONTINUOUS
 62
     0
100
AcDbLine
 10
-0.5
 20
0.0
 30
0.0
 11
-1.0
 21
0.0
 31
0.0
  0
LINE
  5
9F
330
6E
100
AcDbEntity
  8
0
  6
CONTINUOUS
 62
     0
100
AcDbLine
 10
-0.5
 20
0.5
 30
0.0
 11
0.5
 21
0.5
 31
0.0
  0
LINE
  5
A0
330
6E
100
AcDbEntity
  8
0
  6
CONTINUOUS
 62
     0
100
AcDbLine
 10
0.5
 20
0.5
 30
0.0
 11
0.5
 21
-0.5
 31
0.0
  0
LINE
  5
A1
330
6E
100
AcDbEntity
  8
0
  6
CONTINUOUS
 62
     0
100
AcDbLine
 10
0.5
 20
-0.5
 30
0.0
 11
-0.5
 21
-0.5
 31
0.0
  0
LINE
  5
A2
330
6E
100
AcDbEntity
  8
0
  6
CONTINUOUS
 62
     0
100
AcDbLine
 10
-0.5
 20
-0.5
 30
0.0
 11
-0.5
 21
0.5
 31
0.0
  0
ENDBLK
  5
70
330
6E
100
AcDbEntity
  8
0
100
AcDbBlockEnd
  0
BLOCK
  5
72
330
71
100
AcDbEntity
  8
0
100
AcDbBlockBegin
  2
EX_INTEGRAL
 70
     0
 10
0.0
 20
0.0
 30
0.0
  3
EX_INTEGRAL
  1

  0
LINE
  5
A3
330
71
100
AcDbEntity
  8
0
  6
CONTINUOUS
 62
     0
100
AcDbLine
 10
0.0
 20
0.0
 30
0.0
 11
-1.0
 21
0.0
 31
0.0
  0
ARC
  5
A4
330
71
100
AcDbEntity
  8
0
  6
CONTINUOUS
 62
     0
100
AcDbCircle
 10
0.542115
 20
0.164992
 30
0.0
 40
0.56667
100
AcDbArc
 50
73.07249033629006
 51
196.9275130221199
  0
ARC
  5
A5
330
71
100
AcDbEntity
  8
0
  6
CONTINUOUS
 62
     0
100
AcDbCircle
 10
-0.542115
 20
-0.164992
 30
0.0
 40
0.56667
100
AcDbArc
 50
253.0724869220464
 51
16.9275130559125
  0
ENDBLK
  5
73
330
71
100
AcDbEntity
  8
0
100
AcDbBlockEnd
  0
BLOCK
  5
264
330
263
100
AcDbEntity
  8
0
100
AcDbBlockBegin
  2
*D15
 70
     1
 10
0.0
 20
0.0
 30
0.0
  3
*D15
  1

  0
LINE
  5
266
330
263
100
AcDbEntity
  8
化粧台
  6
CONTINUOUS
 62
     3
100
AcDbLine
 10
495.0
 20
1929.362705405309
 30
0.0
 11
495.0
 21
1842.0
 31
0.0
  0
LINE
  5
267
330
263
100
AcDbEntity
  8
化粧台
  6
CONTINUOUS
 62
     3
100
AcDbLine
 10
845.0
 20
1929.362705405309
 30
0.0
 11
845.0
 21
1842.0
 31
0.0
  0
LINE
  5
268
330
263
100
AcDbEntity
  8
化粧台
  6
CONTINUOUS
 62
     3
100
AcDbLine
 10
525.0
 20
1852.0
 30
0.0
 11
815.0
 21
1852.0
 31
0.0
  0
INSERT
  5
269
330
263
100
AcDbEntity
  8
化粧台
 62
     3
100
AcDbBlockReference
  2
EX_NORM
 10
495.0
 20
1852.0
 30
0.0
 41
30.0
 42
30.0
 43
30.0
 50
180.0
  0
INSERT
  5
26A
330
263
100
AcDbEntity
  8
化粧台
 62
     3
100
AcDbBlockReference
  2
EX_NORM
 10
845.0
 20
1852.0
 30
0.0
 41
30.0
 42
30.0
 43
30.0
  0
MTEXT
  5
26B
330
263
100
AcDbEntity
  8
化粧台
 62
     2
100
AcDbMText
 10
670.0000000000001
 20
1875.499999940395
 30
0.0
 40
40.0
 41
0.0
 71
     5
 72
     1
  1
350
  7
EXCADDIM1
  0
POINT
  5
26C
330
263
100
AcDbEntity
  8
DEFPOINTS
 62
     0
100
AcDbPoint
 10
495.0
 20
1936.3627052861
 30
0.0
  0
POINT
  5
26D
330
263
100
AcDbEntity
  8
DEFPOINTS
 62
     0
100
AcDbPoint
 10
845.0
 20
1936.3627052861
 30
0.0
  0
POINT
  5
26E
330
263
100
AcDbEntity
  8
DEFPOINTS
 62
     0
100
AcDbPoint
 10
845.0
 20
1852.0
 30
0.0
  0
ENDBLK
  5
265
330
263
100
AcDbEntity
  8
0
100
AcDbBlockEnd
  0
BLOCK
  5
274
330
273
100
AcDbEntity
  8
0
100
AcDbBlockBegin
  2
*D16
 70
     1
 10
0.0
 20
0.0
 30
0.0
  3
*D16
  1

  0
LINE
  5
276
330
273
100
AcDbEntity
  8
化粧台
  6
CONTINUOUS
 62
     3
100
AcDbLine
 10
898.4500043807907
 20
562.6741750000001
 30
0.0
 11
1076.0
 21
562.6741750000001
 31
0.0
  0
LINE
  5
277
330
273
100
AcDbEntity
  8
化粧台
  6
CONTINUOUS
 62
     3
100
AcDbLine
 10
846.9999998807907
 20
1362.674193999999
 30
0.0
 11
1076.0
 21
1362.674193999999
 31
0.0
  0
LINE
  5
278
330
273
100
AcDbEntity
  8
化粧台
  6
CONTINUOUS
 62
     3
100
AcDbLine
 10
1066.0
 20
592.6741750000001
 30
0.0
 11
1066.0
 21
1332.674193999999
 31
0.0
  0
INSERT
  5
279
330
273
100
AcDbEntity
  8
化粧台
 62
     3
100
AcDbBlockReference
  2
EX_NORM
 10
1066.0
 20
562.6741750000001
 30
0.0
 41
30.0
 42
30.0
 43
30.0
 50
270.0
  0
INSERT
  5
27A
330
273
100
AcDbEntity
  8
化粧台
 62
     3
100
AcDbBlockReference
  2
EX_NORM
 10
1066.0
 20
1362.674193999999
 30
0.0
 41
30.0
 42
30.0
 43
30.0
 50
90.0
  0
MTEXT
  5
27B
330
273
100
AcDbEntity
  8
化粧台
 62
     2
100
AcDbMText
 10
1042.500000059604
 20
962.6741844999995
 30
0.0
 40
40.0
 41
0.0
 71
     5
 72
     1
  1
（800）
  7
EXCADDIM1
 11
0.0
 21
1.0
 31
0.0
  0
POINT
  5
27C
330
273
100
AcDbEntity
  8
DEFPOINTS
 62
     0
100
AcDbPoint
 10
891.4500045
 20
562.6741750000001
 30
0.0
  0
POINT
  5
27D
330
273
100
AcDbEntity
  8
DEFPOINTS
 62
     0
100
AcDbPoint
 10
840.0
 20
1362.674193999999
 30
0.0
  0
POINT
  5
27E
330
273
100
AcDbEntity
  8
DEFPOINTS
 62
     0
100
AcDbPoint
 10
1066.0
 20
1362.674193999999
 30
0.0
  0
ENDBLK
  5
275
330
273
100
AcDbEntity
  8
0
100
AcDbBlockEnd
  0
BLOCK
  5
289
330
288
100
AcDbEntity
  8
0
100
AcDbBlockBegin
  2
*D17
 70
     1
 10
0.0
 20
0.0
 30
0.0
  3
*D17
  1

  0
LINE
  5
28B
330
288
100
AcDbEntity
  8
化粧台
  6
CONTINUOUS
 62
     3
100
AcDbLine
 10
851.1251143807908
 20
562.6741750000001
 30
0.0
 11
1007.0
 21
562.6741750000001
 31
0.0
  0
LINE
  5
28C
330
288
100
AcDbEntity
  8
化粧台
  6
CONTINUOUS
 62
     3
100
AcDbLine
 10
851.9500043807907
 20
1262.674194
 30
0.0
 11
1007.0
 21
1262.674194
 31
0.0
  0
LINE
  5
28D
330
288
100
AcDbEntity
  8
化粧台
  6
CONTINUOUS
 62
     3
100
AcDbLine
 10
996.9999999999999
 20
592.6741750000001
 30
0.0
 11
996.9999999999999
 21
1232.674194
 31
0.0
  0
INSERT
  5
28E
330
288
100
AcDbEntity
  8
化粧台
 62
     3
100
AcDbBlockReference
  2
EX_NORM
 10
996.9999999999999
 20
562.6741750000001
 30
0.0
 41
30.0
 42
30.0
 43
30.0
 50
270.0
  0
INSERT
  5
28F
330
288
100
AcDbEntity
  8
化粧台
 62
     3
100
AcDbBlockReference
  2
EX_NORM
 10
996.9999999999999
 20
1262.674194
 30
0.0
 41
30.0
 42
30.0
 43
30.0
 50
90.0
  0
MTEXT
  5
290
330
288
100
AcDbEntity
  8
化粧台
 62
     2
100
AcDbMText
 10
973.5000000596045
 20
912.6741844999999
 30
0.0
 40
40.0
 41
0.0
 71
     5
 72
     1
  1
700
  7
EXCADDIM1
 11
0.0
 21
1.0
 31
0.0
  0
POINT
  5
291
330
288
100
AcDbEntity
  8
DEFPOINTS
 62
     0
100
AcDbPoint
 10
844.1251145000001
 20
562.6741750000001
 30
0.0
  0
POINT
  5
292
330
288
100
AcDbEntity
  8
DEFPOINTS
 62
     0
100
AcDbPoint
 10
844.9500045
 20
1262.674194
 30
0.0
  0
POINT
  5
293
330
288
100
AcDbEntity
  8
DEFPOINTS
 62
     0
100
AcDbPoint
 10
996.9999999999999
 20
1262.674194
 30
0.0
  0
ENDBLK
  5
28A
330
288
100
AcDbEntity
  8
0
100
AcDbBlockEnd
  0
BLOCK
  5
296
330
295
100
AcDbEntity
  8
0
100
AcDbBlockBegin
  2
*D18
 70
     1
 10
0.0
 20
0.0
 30
0.0
  3
*D18
  1

  0
LINE
  5
298
330
295
100
AcDbEntity
  8
化粧台
  6
CONTINUOUS
 62
     3
100
AcDbLine
 10
851.9500043807907
 20
1262.674194
 30
0.0
 11
1006.999999999998
 21
1262.674194
 31
0.0
  0
LINE
  5
299
330
295
100
AcDbEntity
  8
化粧台
  6
CONTINUOUS
 62
     3
100
AcDbLine
 10
846.9999998807907
 20
1362.674193999999
 30
0.0
 11
1006.999999999998
 21
1362.674193999999
 31
0.0
  0
LINE
  5
29A
330
295
100
AcDbEntity
  8
化粧台
  6
CONTINUOUS
 62
     3
100
AcDbLine
 10
996.9999999999991
 20
1292.674194
 30
0.0
 11
996.9999999999991
 21
1332.674193999999
 31
0.0
  0
INSERT
  5
29B
330
295
100
AcDbEntity
  8
化粧台
 62
     3
100
AcDbBlockReference
  2
EX_NORM
 10
996.9999999999991
 20
1262.674194
 30
0.0
 41
30.0
 42
30.0
 43
30.0
 50
270.0
  0
INSERT
  5
29C
330
295
100
AcDbEntity
  8
化粧台
 62
     3
100
AcDbBlockReference
  2
EX_NORM
 10
996.9999999999991
 20
1362.674193999999
 30
0.0
 41
30.0
 42
30.0
 43
30.0
 50
90.0
  0
MTEXT
  5
29D
330
295
100
AcDbEntity
  8
化粧台
 62
     2
100
AcDbMText
 10
973.500000059604
 20
1312.674193999999
 30
0.0
 40
40.0
 41
0.0
 71
     5
 72
     1
  1
100
  7
EXCADDIM1
 11
0.0
 21
1.0
 31
0.0
  0
POINT
  5
29E
330
295
100
AcDbEntity
  8
DEFPOINTS
 62
     0
100
AcDbPoint
 10
844.9500045
 20
1262.674194
 30
0.0
  0
POINT
  5
29F
330
295
100
AcDbEntity
  8
DEFPOINTS
 62
     0
100
AcDbPoint
 10
840.0
 20
1362.674193999999
 30
0.0
  0
POINT
  5
2A0
330
295
100
AcDbEntity
  8
DEFPOINTS
 62
     0
100
AcDbPoint
 10
996.9999999999991
 20
1362.674193999999
 30
0.0
  0
ENDBLK
  5
297
330
295
100
AcDbEntity
  8
0
100
AcDbBlockEnd
  0
BLOCK
  5
2D9
330
2D8
100
AcDbEntity
  8
0
100
AcDbBlockBegin
  2
*D19
 70
     1
 10
0.0
 20
0.0
 30
0.0
  3
*D19
  1

  0
LINE
  5
2DB
330
2D8
100
AcDbEntity
  8
化粧台
  6
CONTINUOUS
 62
     3
100
AcDbLine
 10
676.9999998807907
 20
1925.0
 30
0.0
 11
941.9999999999976
 21
1925.0
 31
0.0
  0
LINE
  5
2DC
330
2D8
100
AcDbEntity
  8
化粧台
  6
CONTINUOUS
 62
     3
100
AcDbLine
 10
931.9999999999976
 20
2175.0
 30
0.0
 11
931.9999999999976
 21
1955.0
 31
0.0
  0
INSERT
  5
2DD
330
2D8
100
AcDbEntity
  8
化粧台
 62
     3
100
AcDbBlockReference
  2
EX_NORM
 10
931.9999999999976
 20
2205.0
 30
0.0
 41
30.0
 42
30.0
 43
30.0
 50
90.0
  0
INSERT
  5
2DE
330
2D8
100
AcDbEntity
  8
化粧台
 62
     3
100
AcDbBlockReference
  2
EX_NORM
 10
931.9999999999976
 20
1925.0
 30
0.0
 41
30.0
 42
30.0
 43
30.0
 50
270.0
  0
MTEXT
  5
2DF
330
2D8
100
AcDbEntity
  8
化粧台
 62
     2
100
AcDbMText
 10
908.5000000596024
 20
2065.0
 30
0.0
 40
40.0
 41
0.0
 71
     5
 72
     1
  1
280
  7
EXCADDIM1
 11
0.0
 21
1.0
 31
0.0
  0
POINT
  5
2E0
330
2D8
100
AcDbEntity
  8
DEFPOINTS
 62
     0
100
AcDbPoint
 10
835.0
 20
2205.0
 30
0.0
  0
POINT
  5
2E1
330
2D8
100
AcDbEntity
  8
DEFPOINTS
 62
     0
100
AcDbPoint
 10
670.0
 20
1925.0
 30
0.0
  0
POINT
  5
2E2
330
2D8
100
AcDbEntity
  8
DEFPOINTS
 62
     0
100
AcDbPoint
 10
931.9999999999976
 20
1925.0
 30
0.0
  0
ENDBLK
  5
2DA
330
2D8
100
AcDbEntity
  8
0
100
AcDbBlockEnd
  0
BLOCK
  5
321
330
320
100
AcDbEntity
  8
0
100
AcDbBlockBegin
  2
*D20
 70
     1
 10
0.0
 20
0.0
 30
0.0
  3
*D20
  1

  0
LINE
  5
323
330
320
100
AcDbEntity
  8
化粧台
  6
CONTINUOUS
 62
     3
100
AcDbLine
 10
474.9999999999901
 20
1913.000000119209
 30
0.0
 11
474.9999999999901
 21
1789.0
 31
0.0
  0
LINE
  5
324
330
320
100
AcDbEntity
  8
化粧台
  6
CONTINUOUS
 62
     3
100
AcDbLine
 10
864.99999999999
 20
1913.000000119209
 30
0.0
 11
864.99999999999
 21
1789.0
 31
0.0
  0
LINE
  5
325
330
320
100
AcDbEntity
  8
化粧台
  6
CONTINUOUS
 62
     3
100
AcDbLine
 10
504.9999999999901
 20
1799.0
 30
0.0
 11
834.99999999999
 21
1799.0
 31
0.0
  0
INSERT
  5
326
330
320
100
AcDbEntity
  8
化粧台
 62
     3
100
AcDbBlockReference
  2
EX_NORM
 10
474.9999999999901
 20
1799.0
 30
0.0
 41
30.0
 42
30.0
 43
30.0
 50
180.0
  0
INSERT
  5
327
330
320
100
AcDbEntity
  8
化粧台
 62
     3
100
AcDbBlockReference
  2
EX_NORM
 10
864.99999999999
 20
1799.0
 30
0.0
 41
30.0
 42
30.0
 43
30.0
  0
MTEXT
  5
328
330
320
100
AcDbEntity
  8
化粧台
 62
     2
100
AcDbMText
 10
669.9999999999901
 20
1822.499999940395
 30
0.0
 40
40.0
 41
0.0
 71
     5
 72
     1
  1
390
  7
EXCADDIM1
  0
POINT
  5
329
330
320
100
AcDbEntity
  8
DEFPOINTS
 62
     0
100
AcDbPoint
 10
474.9999999999901
 20
1920.0
 30
0.0
  0
POINT
  5
32A
330
320
100
AcDbEntity
  8
DEFPOINTS
 62
     0
100
AcDbPoint
 10
864.99999999999
 20
1920.0
 30
0.0
  0
POINT
  5
32B
330
320
100
AcDbEntity
  8
DEFPOINTS
 62
     0
100
AcDbPoint
 10
864.99999999999
 20
1799.0
 30
0.0
  0
ENDBLK
  5
322
330
320
100
AcDbEntity
  8
0
100
AcDbBlockEnd
  0
BLOCK
  5
32E
330
32D
100
AcDbEntity
  8
0
100
AcDbBlockBegin
  2
*D21
 70
     1
 10
0.0
 20
0.0
 30
0.0
  3
*D21
  1

  0
LINE
  5
330
330
32D
100
AcDbEntity
  8
化粧台
  6
CONTINUOUS
 62
     3
100
AcDbLine
 10
871.9999998807807
 20
1920.0
 30
0.0
 11
1007.000000000004
 21
1920.0
 31
0.0
  0
LINE
  5
331
330
32D
100
AcDbEntity
  8
化粧台
  6
CONTINUOUS
 62
     3
100
AcDbLine
 10
997.0000000000035
 20
2175.0
 30
0.0
 11
997.0000000000035
 21
1950.0
 31
0.0
  0
INSERT
  5
332
330
32D
100
AcDbEntity
  8
化粧台
 62
     3
100
AcDbBlockReference
  2
EX_NORM
 10
997.0000000000035
 20
2205.0
 30
0.0
 41
30.0
 42
30.0
 43
30.0
 50
90.0
  0
INSERT
  5
333
330
32D
100
AcDbEntity
  8
化粧台
 62
     3
100
AcDbBlockReference
  2
EX_NORM
 10
997.0000000000035
 20
1920.0
 30
0.0
 41
30.0
 42
30.0
 43
30.0
 50
270.0
  0
MTEXT
  5
334
330
32D
100
AcDbEntity
  8
化粧台
 62
     2
100
AcDbMText
 10
973.5000000596083
 20
2062.5
 30
0.0
 40
40.0
 41
0.0
 71
     5
 72
     1
  1
285
  7
EXCADDIM1
 11
0.0
 21
1.0
 31
0.0
  0
POINT
  5
335
330
32D
100
AcDbEntity
  8
DEFPOINTS
 62
     0
100
AcDbPoint
 10
864.99999999999
 20
2205.0
 30
0.0
  0
POINT
  5
336
330
32D
100
AcDbEntity
  8
DEFPOINTS
 62
     0
100
AcDbPoint
 10
864.99999999999
 20
1920.0
 30
0.0
  0
POINT
  5
337
330
32D
100
AcDbEntity
  8
DEFPOINTS
 62
     0
100
AcDbPoint
 10
997.0000000000035
 20
1920.0
 30
0.0
  0
ENDBLK
  5
32F
330
32D
100
AcDbEntity
  8
0
100
AcDbBlockEnd
  0
ENDSEC
  0
SECTION
  2
ENTITIES
  0
LINE
  5
A6
330
1F
100
AcDbEntity
  8
枠_表
  6
CONTINUOUS
 62
     7
100
AcDbLine
 10
173.9999999999998
 20
92.99999999999955
 30
0.0
 11
1993.999999999999
 21
92.99999999999955
 31
0.0
  0
HATCH
  5
A7
330
1F
100
AcDbEntity
  8
枠_表
  6
CONTINUOUS
 62
     3
100
AcDbHatch
 10
0.0
 20
0.0
 30
0.0
210
0.0
220
0.0
230
1.0
  2
SOLID
 70
     1
 71
     1
 91
        1
 92
        3
 72
     1
 73
     1
 93
       10
 10
774.7252657332523
 20
123.21699329754
 42
-0.017362223501556
 10
774.813015733253
 20
176.184243297541
 42
-0.0267627618865285
 10
774.8130157332521
 20
176.1842432975408
 42
0.0737939047395297
 10
787.7325157332523
 20
176.2382432975406
 42
0.0183878899657109
 10
787.2127657332531
 20
128.4819932975411
 42
-0.1144749489451909
 10
785.1202657332523
 20
118.4244932975405
 42
-0.1929163439413163
 10
775.1640157332533
 20
110.6079932975399
 42
-0.0603888289562337
 10
769.885515733252
 20
109.2917432975401
 42
0.0
 10
768.6502657332518
 20
113.0514932975406
 42
0.0860918333465722
 10
772.3425157332529
 20
115.01574329754
 42
0.1331843103855141
 97
        0
 75
     0
 76
     1
 98
        1
 10
0.0
 20
0.0
  0
HATCH
  5
A8
330
1F
100
AcDbEntity
  8
枠_表
  6
CONTINUOUS
 62
     3
100
AcDbHatch
 10
0.0
 20
0.0
 30
0.0
210
0.0
220
0.0
230
1.0
  2
SOLID
 70
     1
 71
     1
 91
        1
 92
        3
 72
     1
 73
     1
 93
       16
 10
833.8687657332528
 20
122.1032432975406
 42
-0.0386228372648426
 10
833.8080157332527
 20
154.6449932975407
 42
-0.0398707891902887
 10
839.7142657332523
 20
154.6719932975414
 42
-0.1256886216044368
 10
839.4442657332529
 20
149.1504932975413
 42
-0.0367815758121429
 10
839.4442657332529
 20
149.1504932975399
 42
-0.268021535028829
 10
851.3580157332526
 20
155.3334932975407
 42
-0.2571134422124888
 10
859.5052657332516
 20
151.303743297541
 42
-0.1522526366014298
 10
861.5775157332522
 20
144.6009932975401
 42
-0.0158825412051521
 10
861.4290157332523
 20
122.0694932975412
 42
-0.0285251271418421
 10
855.7252657332532
 20
122.0694932975406
 42
-0.0452212723224612
 10
856.0155157332522
 20
142.8864932975404
 42
-0.0315567291532142
 10
854.2470157332525
 20
149.0357432975414
 42
-0.1476272403790709
 10
842.7315157332526
 20
149.9199932975405
 42
-0.3908144705745794
 10
839.484765733252
 20
141.8402432975405
 42
-0.2046259928850854
 10
839.484765733252
 20
141.8402432975404
 42
0.0
 10
839.991015733253
 20
122.0492432975408
 42
-0.0304995761723369
 97
        0
 75
     0
 76
     1
 98
        1
 10
0.0
 20
0.0
  0
HATCH
  5
A9
330
1F
100
AcDbEntity
  8
枠_表
  6
CONTINUOUS
 62
     3
100
AcDbHatch
 10
0.0
 20
0.0
 30
0.0
210
0.0
220
0.0
230
1.0
  2
SOLID
 70
     1
 71
     1
 91
        2
 92
        1
 93
        1
 72
     2
 10
876.285514038338
 20
166.5835466873705
 40
3.572334466769884
 50
0.0
 51
360.0
 73
     1
 97
        0
 92
        3
 72
     1
 73
     1
 93
        3
 10
873.0930157332518
 20
154.6989932975412
 42
0.1200283885712921
 10
879.3030157332519
 20
122.0627432975403
 42
-0.0401820615762149
 10
873.0997657332518
 20
122.0424932975407
 42
-0.0237521668114666
 97
        0
 75
     0
 76
     1
 98
        1
 10
0.0
 20
0.0
  0
HATCH
  5
AA
330
1F
100
AcDbEntity
  8
枠_表
  6
CONTINUOUS
 62
     3
100
AcDbHatch
 10
0.0
 20
0.0
 30
0.0
210
0.0
220
0.0
230
1.0
  2
SOLID
 70
     1
 71
     1
 91
        1
 92
        3
 72
     1
 73
     1
 93
       30
 10
907.7340157332516
 20
153.3354932975412
 42
-0.0009362235736497
 10
907.7340157332495
 20
153.3354932975402
 42
0.0681165430304653
 10
906.0970934867333
 20
148.4282432975408
 42
0.0
 10
899.9310157332525
 20
152.6469932975415
 42
-0.302112590907374
 10
899.931015733253
 20
152.6469932975408
 42
0.0
 10
893.714265733252
 20
147.8814932975413
 42
-0.3704245237568778
 10
893.7142657332521
 20
147.8814932975411
 42
0.0
 10
894.0382657332524
 20
144.6954932975402
 42
-0.0262822419456939
 10
897.8722657332523
 20
141.6309932975411
 42
-0.180060563604375
 10
903.9877657332523
 20
139.7679932975409
 42
-0.0298130817160724
 10
903.987765733252
 20
139.7679932975406
 42
-0.3153987453686078
 10
909.6240157332528
 20
133.3217432975403
 42
0.0
 10
909.5902657332533
 20
130.439493297541
 42
-0.3510306079065168
 10
898.7227657332522
 20
121.3269932975413
 42
0.0
 10
895.5502657332515
 20
121.3269932975405
 42
-0.1053356344842436
 10
888.5302657332527
 20
123.3519932975408
 42
0.1188608286962634
 10
889.8127657332526
 20
128.4819932975415
 42
0.0
 10
897.5077657332523
 20
123.7569932975408
 42
-0.2447573632916039
 10
897.5077657332525
 20
123.7569932975407
 42
0.0
 10
904.9327657332524
 20
128.9544932975409
 42
-0.3734162676407277
 10
904.9327657332532
 20
128.95449329754
 42
0.0
 10
902.239515733253
 20
134.1452432975409
 42
-0.261219770190848
 10
895.9552657332516
 20
136.4267432975409
 42
-0.0572747914118363
 10
895.9552657332526
 20
136.4267432975408
 42
-0.1189658875692221
 10
890.9602657332525
 20
139.3562432975409
 42
-0.2005226878639636
 10
888.8677657332522
 20
144.0744932975622
 42
0.0
 10
888.8340157332523
 20
145.8632432975405
 42
-0.2622894489606957
 10
894.2002657332532
 20
154.0644932975404
 42
-0.0988461274137808
 10
899.222265733253
 20
155.2727432975405
 42
0.0
 10
901.0852657332524
 20
155.2727432975403
 42
-0.0920156312561188
 97
        0
 75
     0
 76
     1
 98
        1
 10
0.0
 20
0.0
  0
HATCH
  5
AB
330
1F
100
AcDbEntity
  8
枠_表
  6
CONTINUOUS
 62
     3
100
AcDbHatch
 10
0.0
 20
0.0
 30
0.0
210
0.0
220
0.0
230
1.0
  2
SOLID
 70
     1
 71
     1
 91
        2
 92
        3
 72
     1
 73
     1
 93
       27
 10
800.1727657332519
 20
151.3644932975409
 42
-0.1769427732109284
 10
800.1727657332532
 20
151.364493297541
 42
0.0
 10
800.1727657332532
 20
147.7194932975408
 42
0.0
 10
801.0502657332526
 20
147.7194932975404
 42
-0.207533601427307
 10
806.747422789573
 20
151.9932359129042
 42
-0.1226604740888933
 10
811.7827657332525
 20
152.1002432975408
 42
-0.3213715781137954
 10
816.9883280222108
 20
145.7106514378481
 42
-0.064704004662446
 10
817.0140157332521
 20
142.3329932975406
 42
-0.257798906330806
 10
815.9542657332532
 20
141.05049329754
 42
-0.056602577721096
 10
813.686265733253
 20
140.2607432975415
 42
-0.0166741689362636
 10
805.3702657332522
 20
138.6812432975407
 42
0.1186092302783404
 10
799.8825157332523
 20
136.0487432975412
 42
0.1699204224386695
 10
797.493015733253
 20
132.05274329754
 42
0.1006533494296199
 10
797.2720866795844
 20
128.5853555095727
 42
0.1675695228968024
 10
799.4370157332534
 20
123.9392432975413
 42
0.1376980079804242
 10
803.3722657332518
 20
121.6644932975403
 42
0.0719813663796923
 10
805.1610157332522
 20
121.3674932975414
 42
0.0
 10
807.9015157332532
 20
121.3674932975415
 42
0.1944607457809085
 10
816.9937657332533
 20
126.0452432975407
 42
0.1288538183665954
 10
817.9117657332523
 20
123.750243297541
 42
0.2098387395261546
 10
820.9087657332526
 20
122.0964932975403
 42
0.0
 10
823.0822657332532
 20
122.0829932975404
 42
0.0945009641609563
 10
826.2210157332521
 20
122.7512432975414
 42
0.0
 10
826.2210157332519
 20
124.3239932975407
 42
-0.2395739894657535
 10
823.4805157332527
 20
124.2969932975405
 42
-0.2502312110031057
 10
822.1305157332524
 20
126.834993297542
 42
-0.0104343570771765
 10
822.3127657332528
 20
145.7619932975412
 42
0.4051015674140716
 97
        0
 92
        3
 72
     1
 73
     1
 93
        8
 10
817.1355157332526
 20
139.0254932975406
 42
-0.0339435190873666
 10
817.1355157332546
 20
139.0254932975297
 42
-0.0001110072973599
 10
816.8520157332528
 20
128.6844932975405
 42
-0.2253076310552528
 10
809.7645157332528
 20
123.952743297541
 42
0.0
 10
808.0297657332521
 20
123.952743297541
 42
-0.3657967558150132
 10
802.8727657332519
 20
129.4337432975408
 42
0.0
 10
802.8727657332527
 20
131.3912432975414
 42
-0.2530797830369341
 10
806.3557657332531
 20
136.2107432975412
 42
-0.0724473624720066
 97
        0
 75
     0
 76
     1
 98
        1
 10
0.0
 20
0.0
  0
TEXT
  5
AD
330
1F
100
AcDbEntity
  8
枠_表
  6
CONTINUOUS
 62
     2
100
AcDbText
 10
923.0000000000045
 20
116.5000000000009
 30
0.0
 40
33.75
  1
ジャニス工業株式会社
 41
1.025641025641026
  7
EXCADTTF1
 72
     5
 11
1373.000000000005
 21
116.5000000000009
 31
0.0
100
AcDbText
  0
ARC
  5
AE
330
1F
100
AcDbEntity
  8
枠_表
  6
CONTINUOUS
 62
     3
100
AcDbCircle
 10
811.2685324125545
 20
137.6167288926888
 30
0.0
 40
17.66683515327064
100
AcDbArc
 50
88.77000393305703
 51
128.9068631829044
  0
ARC
  5
AF
330
1F
100
AcDbEntity
  8
枠_表
  6
CONTINUOUS
 62
     3
100
AcDbCircle
 10
812.0706272602814
 20
145.0191625973321
 30
0.0
 40
10.2690407511459
100
AcDbArc
 50
4.148222840814693
 51
92.36000944257292
  0
ARC
  5
B0
330
1F
100
AcDbEntity
  8
枠_表
  6
CONTINUOUS
 62
     3
100
AcDbCircle
 10
1275.650135838712
 20
131.9323843931738
 30
0.0
 40
453.5482655865662
100
AcDbArc
 50
178.2526643324597
 51
180.6439560401927
  0
ARC
  5
B1
330
1F
100
AcDbEntity
  8
枠_表
  6
CONTINUOUS
 62
     3
100
AcDbCircle
 10
825.1823989446058
 20
126.8302928780474
 30
0.0
 40
3.05188683107389
100
AcDbArc
 50
179.9117548191414
 51
236.1065985968857
  0
ARC
  5
B2
330
1F
100
AcDbEntity
  8
枠_表
  6
CONTINUOUS
 62
     3
100
AcDbCircle
 10
824.824207845798
 20
127.006118874109
 30
0.0
 40
3.0240485913648
100
AcDbArc
 50
243.6191685566582
 51
297.5097757939563
  0
LINE
  5
B3
330
1F
100
AcDbEntity
  8
枠_表
  6
CONTINUOUS
 62
     3
100
AcDbLine
 10
826.2210157332521
 20
122.7512432975414
 30
0.0
 11
826.2210157332521
 21
124.3239932975405
 31
0.0
  0
LINE
  5
B4
330
1F
100
AcDbEntity
  8
枠_表
  6
CONTINUOUS
 62
     3
100
AcDbLine
 10
820.9087657332526
 20
122.0964932975403
 30
0.0
 11
823.0822657332527
 21
122.0964932975403
 31
0.0
  0
ARC
  5
B5
330
1F
100
AcDbEntity
  8
枠_表
  6
CONTINUOUS
 62
     3
100
AcDbCircle
 10
822.8995891945618
 20
130.6464512823027
 30
0.0
 40
8.56540620020894
100
AcDbArc
 50
271.2220539293239
 51
292.8159509797653
  0
ARC
  5
B6
330
1F
100
AcDbEntity
  8
枠_表
  6
CONTINUOUS
 62
     3
100
AcDbCircle
 10
821.2937735081488
 20
126.3367456528636
 30
0.0
 40
4.25769550620398
100
AcDbArc
 50
217.4081478714985
 51
264.8118660441384
  0
ARC
  5
B7
330
1F
100
AcDbEntity
  8
枠_表
  6
CONTINUOUS
 62
     3
100
AcDbCircle
 10
821.8315560558341
 20
126.6492594265731
 30
0.0
 40
4.87535134009722
100
AcDbArc
 50
187.1167640402297
 51
216.4860549324747
  0
ARC
  5
B8
330
1F
100
AcDbEntity
  8
枠_表
  6
CONTINUOUS
 62
     3
100
AcDbCircle
 10
806.6613045867035
 20
134.9534026256833
 30
0.0
 40
13.64239920103932
100
AcDbArc
 50
275.2158792069686
 51
319.2336424873511
  0
LINE
  5
B9
330
1F
100
AcDbEntity
  8
枠_表
  6
CONTINUOUS
 62
     3
100
AcDbLine
 10
805.1610157332522
 20
121.3674932975414
 30
0.0
 11
807.9015157332532
 21
121.3674932975414
 31
0.0
  0
ARC
  5
BA
330
1F
100
AcDbEntity
  8
枠_表
  6
CONTINUOUS
 62
     3
100
AcDbCircle
 10
805.2928130736774
 20
127.6963494387405
 30
0.0
 40
6.330228320917859
100
AcDbArc
 50
252.3384873625213
 51
268.8069976857606
  0
ARC
  5
BB
330
1F
100
AcDbEntity
  8
枠_表
  6
CONTINUOUS
 62
     3
100
AcDbCircle
 10
805.4562953036913
 20
129.8111104772602
 30
0.0
 40
8.408956577563659
100
AcDbArc
 50
224.289750990011
 51
255.6505938786759
  0
ARC
  5
BC
330
1F
100
AcDbEntity
  8
枠_表
  6
CONTINUOUS
 62
     3
100
AcDbCircle
 10
805.0915332915525
 20
129.4015021572864
 30
0.0
 40
7.8619234712629
100
AcDbArc
 50
185.9586126338419
 51
224.0091989319859
  0
ARC
  5
BD
330
1F
100
AcDbEntity
  8
枠_表
  6
CONTINUOUS
 62
     3
100
AcDbCircle
 10
805.9075018570019
 20
129.7758712547738
 30
0.0
 40
8.71709372588669
100
AcDbArc
 50
164.8589457925044
 51
187.8495628504518
  0
ARC
  5
BE
330
1F
100
AcDbEntity
  8
枠_表
  6
CONTINUOUS
 62
     3
100
AcDbCircle
 10
804.3972379030168
 20
130.6366332500806
 30
0.0
 40
7.04795370557922
100
AcDbArc
 50
129.8344892359069
 51
168.4089447024628
  0
ARC
  5
BF
330
1F
100
AcDbEntity
  8
枠_表
  6
CONTINUOUS
 62
     3
100
AcDbCircle
 10
808.0970138675804
 20
125.9608481482871
 30
0.0
 40
13.0093661698492
100
AcDbArc
 50
102.0988446293839
 51
129.1556705448828
  0
ARC
  5
C0
330
1F
100
AcDbEntity
  8
枠_表
  6
CONTINUOUS
 62
     3
100
AcDbCircle
 10
785.8530099985813
 20
264.1202029775218
 30
0.0
 40
126.9482409370382
100
AcDbArc
 50
278.8438342053764
 51
282.6649181367123
  0
ARC
  5
C1
330
1F
100
AcDbEntity
  8
枠_表
  6
CONTINUOUS
 62
     3
100
AcDbCircle
 10
811.3433050110922
 20
150.6407362688742
 30
0.0
 40
10.64113335272784
100
AcDbArc
 50
282.7195832898965
 51
295.6781112778079
  0
ARC
  5
C2
330
1F
100
AcDbEntity
  8
枠_表
  6
CONTINUOUS
 62
     3
100
AcDbCircle
 10
815.3230955673365
 20
142.6511332504288
 30
0.0
 40
1.72058828228131
100
AcDbArc
 50
291.5204897073511
 51
349.3445900274031
  0
ARC
  5
C3
330
1F
100
AcDbEntity
  8
枠_表
  6
CONTINUOUS
 62
     3
100
AcDbCircle
 10
804.0053873566586
 20
143.9229870375129
 30
0.0
 40
13.10543751018921
100
AcDbArc
 50
353.0315250986587
 51
7.839947970678348
  0
ARC
  5
C4
330
1F
100
AcDbEntity
  8
枠_表
  6
CONTINUOUS
 62
     3
100
AcDbCircle
 10
809.9283412817709
 20
145.2741886153422
 30
0.0
 40
7.07346538626002
100
AcDbArc
 50
3.537639967999379
 51
74.8013566619203
  0
ARC
  5
C5
330
1F
100
AcDbEntity
  8
枠_表
  6
CONTINUOUS
 62
     3
100
AcDbCircle
 10
809.4799095798334
 20
141.9383830513016
 30
0.0
 40
10.4195273466423
100
AcDbArc
 50
77.23143261361693
 51
105.203415964315
  0
ARC
  5
C6
330
1F
100
AcDbEntity
  8
枠_表
  6
CONTINUOUS
 62
     3
100
AcDbCircle
 10
808.8253617703009
 20
143.2890191857882
 30
0.0
 40
8.94881105176719
100
AcDbArc
 50
103.4267945469744
 51
150.3242613737993
  0
LINE
  5
C7
330
1F
100
AcDbEntity
  8
枠_表
  6
CONTINUOUS
 62
     3
100
AcDbLine
 10
800.1727657332532
 20
151.364493297541
 30
0.0
 11
800.1727657332532
 21
147.7194932975408
 31
0.0
  0
ARC
  5
C8
330
1F
100
AcDbEntity
  8
枠_表
  6
CONTINUOUS
 62
     3
100
AcDbCircle
 10
705.1439565227093
 20
126.7342761922782
 30
0.0
 40
69.67015049800598
100
AcDbArc
 50
353.1274757312911
 51
357.106204490141
  0
ARC
  5
C9
330
1F
100
AcDbEntity
  8
枠_表
  6
CONTINUOUS
 62
     3
100
AcDbCircle
 10
280.3385521229342
 20
150.5197335838841
 30
0.0
 40
495.1400430399008
100
AcDbArc
 50
356.8390243485978
 51
2.971133813187157
  0
ARC
  5
CA
330
1F
100
AcDbEntity
  8
枠_表
  6
CONTINUOUS
 62
     3
100
AcDbCircle
 10
767.0927386496049
 20
120.3407518472909
 30
0.0
 40
7.47769185530633
100
AcDbArc
 50
314.592391474832
 51
344.9374073189123
  0
ARC
  5
CB
330
1F
100
AcDbEntity
  8
枠_表
  6
CONTINUOUS
 62
     3
100
AcDbCircle
 10
764.8347289685461
 20
124.675985944599
 30
0.0
 40
12.23467000390025
100
AcDbArc
 50
288.1715191042997
 51
307.8537826235693
  0
LINE
  5
CC
330
1F
100
AcDbEntity
  8
枠_表
  6
CONTINUOUS
 62
     3
100
AcDbLine
 10
769.885515733252
 20
109.2917432975401
 30
0.0
 11
768.6502657332522
 21
113.0514932975404
 31
0.0
  0
ARC
  5
CD
330
1F
100
AcDbEntity
  8
枠_表
  6
CONTINUOUS
 62
     3
100
AcDbCircle
 10
767.0955749866681
 20
131.7223152915381
 30
0.0
 40
22.60341410821362
100
AcDbArc
 50
277.0901027239701
 51
290.9134154817058
  0
ARC
  5
CE
330
1F
100
AcDbEntity
  8
枠_表
  6
CONTINUOUS
 62
     3
100
AcDbCircle
 10
770.3897327885505
 20
126.938351862683
 30
0.0
 40
17.01394688196115
100
AcDbArc
 50
286.2966123578915
 51
329.973223283839
  0
ARC
  5
CF
330
1F
100
AcDbEntity
  8
枠_表
  6
CONTINUOUS
 62
     3
100
AcDbCircle
 10
764.4899361790641
 20
127.96313568801
 30
0.0
 40
22.72875263114311
100
AcDbArc
 50
335.1860595856123
 51
1.308075913059364
  0
ARC
  5
D0
330
1F
100
AcDbEntity
  8
枠_表
  6
CONTINUOUS
 62
     3
100
AcDbCircle
 10
1436.542531413436
 20
145.2960360950851
 30
0.0
 40
649.5474244683604
100
AcDbArc
 50
177.2695926307304
 51
181.4833117237826
  0
ARC
  5
D1
330
1F
100
AcDbEntity
  8
枠_表
  6
CONTINUOUS
 62
     3
100
AcDbCircle
 10
781.0908200122293
 20
219.7417570522225
 30
0.0
 40
44.00758833490465
100
AcDbArc
 50
261.7986203004403
 51
278.6803384946418
  0
ARC
  5
D2
330
1F
100
AcDbEntity
  8
枠_表
  6
CONTINUOUS
 62
     3
100
AcDbCircle
 10
805.6056099353754
 20
178.7501381160507
 30
0.0
 40
41.36406814694017
100
AcDbArc
 50
278.4088456599976
 51
286.1851416003176
  0
ARC
  5
D3
330
1F
100
AcDbEntity
  8
枠_表
  6
CONTINUOUS
 62
     3
100
AcDbCircle
 10
814.5660651757731
 20
118.8318862667984
 30
0.0
 40
19.22065786155208
100
AcDbArc
 50
98.71271710191789
 51
115.2874718053599
  0
ARC
  5
D4
330
1F
100
AcDbEntity
  8
枠_表
  6
CONTINUOUS
 62
     3
100
AcDbCircle
 10
809.0701866837861
 20
130.5807479047189
 30
0.0
 40
6.25019433457053
100
AcDbArc
 50
115.7403688633493
 51
172.5491744442191
  0
LINE
  5
D5
330
1F
100
AcDbEntity
  8
枠_表
  6
CONTINUOUS
 62
     3
100
AcDbLine
 10
802.8727657332519
 20
131.3912432975405
 30
0.0
 11
802.8727657332519
 21
129.4337432975408
 31
0.0
  0
ARC
  5
D6
330
1F
100
AcDbEntity
  8
枠_表
  6
CONTINUOUS
 62
     3
100
AcDbCircle
 10
808.6959653488765
 20
129.7461380097786
 30
0.0
 40
5.83157304846997
100
AcDbArc
 50
183.0707787095794
 51
263.4402016072427
  0
LINE
  5
D7
330
1F
100
AcDbEntity
  8
枠_表
  6
CONTINUOUS
 62
     3
100
AcDbLine
 10
808.0297657332522
 20
123.952743297541
 30
0.0
 11
809.7645157332528
 21
123.952743297541
 31
0.0
  0
ARC
  5
D8
330
1F
100
AcDbEntity
  8
枠_表
  6
CONTINUOUS
 62
     3
100
AcDbCircle
 10
808.324469076594
 20
133.7836489530207
 30
0.0
 40
9.935816039979159
100
AcDbArc
 50
278.3335103000368
 51
329.1221464187299
  0
ARC
  5
D9
330
1F
100
AcDbEntity
  8
枠_表
  6
CONTINUOUS
 62
     3
100
AcDbCircle
 10
-22472.01542217735
 20
772.3265245587834
 30
0.0
 40
23297.76001260591
100
AcDbArc
 50
358.4169008257799
 51
358.4423418242109
  0
ARC
  5
DA
330
1F
100
AcDbEntity
  8
枠_表
  6
CONTINUOUS
 62
     3
100
AcDbCircle
 10
836.5808780069341
 20
82.5069254511709
 30
0.0
 40
39.68909094418497
100
AcDbArc
 50
85.07099551674689
 51
93.91830029343228
  0
ARC
  5
DB
330
1F
100
AcDbEntity
  8
枠_表
  6
CONTINUOUS
 62
     3
100
AcDbCircle
 10
913.4088578951065
 20
130.9150147009814
 30
0.0
 40
73.95120993114925
100
AcDbArc
 50
179.8977458165987
 51
186.8855675734268
  0
ARC
  5
DC
330
1F
100
AcDbEntity
  8
枠_表
  6
CONTINUOUS
 62
     3
100
AcDbCircle
 10
850.566172236642
 20
142.0795225138056
 30
0.0
 40
11.08398956318131
100
AcDbArc
 50
134.9787476233347
 51
181.2369872983282
  0
ARC
  5
DD
330
1F
100
AcDbEntity
  8
枠_表
  6
CONTINUOUS
 62
     3
100
AcDbCircle
 10
848.0100145205557
 20
143.2366273138689
 30
0.0
 40
8.51645057047003
100
AcDbArc
 50
42.91644474042847
 51
128.3015542351336
  0
ARC
  5
DE
330
1F
100
AcDbEntity
  8
枠_表
  6
CONTINUOUS
 62
     3
100
AcDbCircle
 10
844.9447404568554
 20
143.0315138821561
 30
0.0
 40
11.07172507744154
100
AcDbArc
 50
359.2495022237244
 51
32.84055016678327
  0
ARC
  5
DF
330
1F
100
AcDbEntity
  8
枠_表
  6
CONTINUOUS
 62
     3
100
AcDbCircle
 10
691.1173378649761
 20
134.775133788246
 30
0.0
 40
165.0975566668588
100
AcDbArc
 50
355.5862454873798
 51
2.816115806820253
  0
ARC
  5
E0
330
1F
100
AcDbEntity
  8
枠_表
  6
CONTINUOUS
 62
     3
100
AcDbCircle
 10
858.5771407332533
 20
90.60152619227779
 30
0.0
 40
31.59693252126744
100
AcDbArc
 50
84.82155189294139
 51
95.17844810705873
  0
ARC
  5
E1
330
1F
100
AcDbEntity
  8
枠_表
  6
CONTINUOUS
 62
     3
100
AcDbCircle
 10
1024.6576336617
 20
129.9067374739138
 30
0.0
 40
163.4166579853822
100
AcDbArc
 50
176.2131780319488
 51
182.7488833337936
  0
ARC
  5
E2
330
1F
100
AcDbEntity
  8
枠_表
  6
CONTINUOUS
 62
     3
100
AcDbCircle
 10
800.1913601210077
 20
142.3315774812136
 30
0.0
 40
61.42809087866958
100
AcDbArc
 50
358.4775281223095
 51
2.117232414210064
  0
ARC
  5
E3
330
1F
100
AcDbEntity
  8
枠_表
  6
CONTINUOUS
 62
     3
100
AcDbCircle
 10
849.7905515344843
 20
144.6285942451527
 30
0.0
 40
11.7869965146059
100
AcDbArc
 50
359.8658335690532
 51
34.49363429411157
  0
ARC
  5
E4
330
1F
100
AcDbEntity
  8
枠_表
  6
CONTINUOUS
 62
     3
100
AcDbCircle
 10
851.772405741379
 20
145.9204664797994
 30
0.0
 40
9.4221437555554
100
AcDbArc
 50
34.84393737091607
 51
92.5207065423111
  0
ARC
  5
E5
330
1F
100
AcDbEntity
  8
枠_表
  6
CONTINUOUS
 62
     3
100
AcDbCircle
 10
850.7541069002576
 20
141.9275988818595
 30
0.0
 40
13.4194899665726
100
AcDbArc
 50
87.42068310381028
 51
147.4361518966862
  0
ARC
  5
E6
330
1F
100
AcDbEntity
  8
枠_表
  6
CONTINUOUS
 62
     3
100
AcDbCircle
 10
877.0574727396189
 20
150.0785681383059
 30
0.0
 40
37.6246550045818
100
AcDbArc
 50
172.9875214416311
 51
181.4134392789641
  0
ARC
  5
E7
330
1F
100
AcDbEntity
  8
枠_表
  6
CONTINUOUS
 62
     3
100
AcDbCircle
 10
836.7082849861259
 20
166.2206879814494
 30
0.0
 40
11.93349358546016
100
AcDbArc
 50
255.9341994177206
 51
284.5896440601899
  0
ARC
  5
E8
330
1F
100
AcDbEntity
  8
枠_表
  6
CONTINUOUS
 62
     3
100
AcDbCircle
 10
630.117698867162
 20
137.9938058671746
 30
0.0
 40
204.3697806131072
100
AcDbArc
 50
355.5405243117485
 51
4.673398698656258
  0
LINE
  5
E9
330
1F
100
AcDbEntity
  8
枠_表
  6
CONTINUOUS
 62
     3
100
AcDbLine
 10
839.484765733252
 20
141.8402432975404
 30
0.0
 11
839.484765733252
 21
131.0469932975411
 31
0.0
  0
CIRCLE
  5
EA
330
1F
100
AcDbEntity
  8
枠_表
  6
CONTINUOUS
 62
     3
100
AcDbCircle
 10
876.285514038338
 20
166.5835466873705
 30
0.0
 40
3.57233446676989
  0
ARC
  5
EB
330
1F
100
AcDbEntity
  8
枠_表
  6
CONTINUOUS
 62
     3
100
AcDbCircle
 10
876.1456076027747
 20
167.5332474358083
 30
0.0
 40
13.19228548840207
100
AcDbArc
 50
256.6209501743446
 51
283.9984576255729
  0
ARC
  5
EC
330
1F
100
AcDbEntity
  8
枠_表
  6
CONTINUOUS
 62
     3
100
AcDbCircle
 10
876.4144089371354
 20
56.79804184123327
 30
0.0
 40
65.32859485251088
100
AcDbArc
 50
87.46575055044718
 51
92.90832285102188
  0
ARC
  5
ED
330
1F
100
AcDbEntity
  8
枠_表
  6
CONTINUOUS
 62
     3
100
AcDbCircle
 10
1082.254047179559
 20
138.1881005739388
 30
0.0
 40
203.5906390589
100
AcDbArc
 50
175.3387608397566
 51
184.5428594926176
  0
ARC
  5
EE
330
1F
100
AcDbEntity
  8
枠_表
  6
CONTINUOUS
 62
     3
100
AcDbCircle
 10
651.6900575363894
 20
138.3249792766242
 30
0.0
 40
222.0076085035812
100
AcDbArc
 50
355.7940354718673
 51
4.229650257234378
  0
ARC
  5
EF
330
1F
100
AcDbEntity
  8
枠_表
  6
CONTINUOUS
 62
     3
100
AcDbCircle
 10
1221.644453232816
 20
965.0297432964203
 30
0.0
 40
870.2800228963156
100
AcDbArc
 50
248.6422112053103
 51
248.8567777804232
  0
ARC
  5
F0
330
1F
100
AcDbEntity
  8
枠_表
  6
CONTINUOUS
 62
     3
100
AcDbCircle
 10
900.8542828460594
 20
145.1663038363949
 30
0.0
 40
10.10907867592157
100
AcDbArc
 50
67.66151957087348
 51
88.69073168448988
  0
ARC
  5
F1
330
1F
100
AcDbEntity
  8
枠_表
  6
CONTINUOUS
 62
     3
100
AcDbCircle
 10
899.7711044283932
 20
142.0979097937607
 30
0.0
 40
13.19974865367525
100
AcDbArc
 50
92.38301574576484
 51
114.9635286746436
  0
ARC
  5
F2
330
1F
100
AcDbEntity
  8
枠_表
  6
CONTINUOUS
 62
     3
100
AcDbCircle
 10
898.7963496799631
 20
145.2009291101865
 30
0.0
 40
9.9843256030919
100
AcDbArc
 50
117.4083995939977
 51
176.1964688215695
  0
ARC
  5
F3
330
1F
100
AcDbEntity
  8
枠_表
  6
CONTINUOUS
 62
     3
100
AcDbCircle
 10
895.5599257926025
 20
144.219276907553
 30
0.0
 40
6.693726059056109
100
AcDbArc
 50
181.2393899443581
 51
226.5942921332421
  0
ARC
  5
F4
330
1F
100
AcDbEntity
  8
枠_表
  6
CONTINUOUS
 62
     3
100
AcDbCircle
 10
899.526814579952
 20
148.2396411006687
 30
0.0
 40
12.34100950779567
100
AcDbArc
 50
226.0402388947521
 51
253.1776672992999
  0
ARC
  5
F5
330
1F
100
AcDbEntity
  8
枠_表
  6
CONTINUOUS
 62
     3
100
AcDbCircle
 10
889.1714891830446
 20
107.9457141755211
 30
0.0
 40
29.27778413972754
100
AcDbArc
 50
63.49050203733571
 51
76.60259219849584
  0
ARC
  5
F6
330
1F
100
AcDbEntity
  8
枠_表
  6
CONTINUOUS
 62
     3
100
AcDbCircle
 10
900.3080045853693
 20
129.9846225433168
 30
0.0
 40
4.58710152219014
100
AcDbArc
 50
6.53892419415897
 51
65.09756080693691
  0
ARC
  5
F7
330
1F
100
AcDbEntity
  8
枠_表
  6
CONTINUOUS
 62
     3
100
AcDbCircle
 10
899.035777744653
 20
129.7002363757167
 30
0.0
 40
5.943954918766759
100
AcDbArc
 50
270.8867385422408
 51
352.7925382056677
  0
ARC
  5
F8
330
1F
100
AcDbEntity
  8
枠_表
  6
CONTINUOUS
 62
     3
100
AcDbCircle
 10
898.6361043234882
 20
132.6658639777384
 30
0.0
 40
8.98004035462527
100
AcDbArc
 50
207.7689879465537
 51
262.7817283832026
  0
ARC
  5
F9
330
1F
100
AcDbEntity
  8
枠_表
  6
CONTINUOUS
 62
     3
100
AcDbCircle
 10
896.793005459279
 20
138.8156576811025
 30
0.0
 40
17.5327631578002
100
AcDbArc
 50
241.8829576087176
 51
265.9354096935781
  0
ARC
  5
FA
330
1F
100
AcDbEntity
  8
枠_表
  6
CONTINUOUS
 62
     3
100
AcDbCircle
 10
898.4663886467587
 20
132.669246711805
 30
0.0
 40
11.34515058180645
100
AcDbArc
 50
271.2948770866743
 51
348.6654156292868
  0
ARC
  5
FB
330
1F
100
AcDbEntity
  8
枠_表
  6
CONTINUOUS
 62
     3
100
AcDbCircle
 10
902.2045721291971
 20
132.5217258531575
 30
0.0
 40
7.462450757296059
100
AcDbArc
 50
6.154262763177246
 51
76.17509904255616
  0
ARC
  5
FC
330
1F
100
AcDbEntity
  8
枠_表
  6
CONTINUOUS
 62
     3
100
AcDbCircle
 10
916.5384669692077
 20
191.9359310503512
 30
0.0
 40
53.65644258516679
100
AcDbArc
 50
249.6420733479936
 51
256.4727051201885
  0
ARC
  5
FD
330
1F
100
AcDbEntity
  8
枠_表
  6
CONTINUOUS
 62
     3
100
AcDbCircle
 10
900.0721352387467
 20
148.3138641766618
 30
0.0
 40
7.03563707337184
100
AcDbArc
 50
210.9501336849607
 51
251.7794729821079
  0
ARC
  5
FE
330
1F
100
AcDbEntity
  8
枠_表
  6
CONTINUOUS
 62
     3
100
AcDbCircle
 10
907.303140733265
 20
149.3823182975439
 30
0.0
 40
14.068519372934
100
AcDbArc
 50
193.4375782160214
 51
199.459638038058
  0
ARC
  5
FF
330
1F
100
AcDbEntity
  8
枠_表
  6
CONTINUOUS
 62
     3
100
AcDbCircle
 10
899.0350964860551
 20
147.2674994707927
 30
0.0
 40
5.35613931103931
100
AcDbArc
 50
92.11404364449162
 51
173.4175047026091
  0
ARC
  5
100
330
1F
100
AcDbEntity
  8
枠_表
  6
CONTINUOUS
 62
     3
100
AcDbCircle
 10
899.4147339127522
 20
146.5429236291675
 30
0.0
 40
6.12586430102253
100
AcDbArc
 50
17.92452211681263
 51
85.16543319077402
  0
LINE
  5
101
330
1F
100
AcDbEntity
  8
枠_表
  6
CONTINUOUS
 62
     3
100
AcDbLine
 10
901.0852657332526
 20
155.2727432975405
 30
0.0
 11
899.222265733253
 21
155.2727432975405
 31
0.0
  0
LINE
  5
102
330
1F
100
AcDbEntity
  8
枠_表
  6
CONTINUOUS
 62
     3
100
AcDbLine
 10
897.5077657332525
 20
123.7569932975407
 30
0.0
 11
899.1277657332529
 21
123.7569932975407
 31
0.0
  0
LINE
  5
103
330
1F
100
AcDbEntity
  8
枠_表
  6
CONTINUOUS
 62
     3
100
AcDbLine
 10
890.6902657332529
 20
128.4819932975415
 30
0.0
 11
889.8127657332526
 21
128.4819932975415
 31
0.0
  0
LINE
  5
104
330
1F
100
AcDbEntity
  8
枠_表
  6
CONTINUOUS
 62
     3
100
AcDbLine
 10
895.5502657332528
 20
121.3269932975413
 30
0.0
 11
898.7227657332522
 21
121.3269932975413
 31
0.0
  0
LINE
  5
105
330
1F
100
AcDbEntity
  8
枠_表
  6
CONTINUOUS
 62
     3
100
AcDbLine
 10
800.1727657332532
 20
147.7194932975408
 30
0.0
 11
801.0502657332523
 21
147.7194932975408
 31
0.0
  0
ARC
  5
106
330
1F
100
AcDbEntity
  8
枠_表
  6
CONTINUOUS
 62
     3
100
AcDbCircle
 10
878.5344131320966
 20
128.5779759565003
 30
0.0
 40
11.27953740078838
100
AcDbArc
 50
332.3987521421788
 51
359.5124385477116
  0
LINE
  5
107
330
1F
100
AcDbEntity
  8
枠_表
  6
CONTINUOUS
 62
     3
100
AcDbLine
 10
904.8652657332519
 20
130.5069932975402
 30
0.0
 11
904.9327657332532
 21
128.95449329754
 31
0.0
  0
LINE
  5
108
330
1F
100
AcDbEntity
  8
枠_表
  6
CONTINUOUS
 62
     3
100
AcDbLine
 10
909.6240157332528
 20
133.3217432975403
 30
0.0
 11
909.5902657332516
 21
130.4394932975401
 31
0.0
  0
LINE
  5
109
330
1F
100
AcDbEntity
  8
枠_表
  6
CONTINUOUS
 62
     3
100
AcDbLine
 10
893.7142657332521
 20
147.8814932975411
 30
0.0
 11
893.6197657332519
 21
146.1129932975405
 31
0.0
  0
LINE
  5
10A
330
1F
100
AcDbEntity
  8
枠_表
  6
CONTINUOUS
 62
     3
100
AcDbLine
 10
888.8340157332522
 20
145.8632432975401
 30
0.0
 11
888.8677657332522
 21
144.0744932975622
 31
0.0
  0
LINE
  5
10B
330
1F
100
AcDbEntity
  8
枠_表
  6
CONTINUOUS
 62
     3
100
AcDbLine
 10
898.8375157332524
 20
152.6199932975408
 30
0.0
 11
899.931015733253
 21
152.6469932975408
 31
0.0
  0
LINE
  5
10C
330
1F
100
AcDbEntity
  8
枠_表
  6
CONTINUOUS
 62
     3
100
AcDbLine
 10
905.2432657332525
 20
148.4282432975408
 30
0.0
 11
906.0970934867333
 21
148.4282432975408
 31
0.0
  0
ARC
  5
10D
330
1F
100
AcDbEntity
  8
枠_表
  6
CONTINUOUS
 62
     3
100
AcDbCircle
 10
924.8424810688704
 20
144.9019437507491
 30
0.0
 40
19.07418003737831
100
AcDbArc
 50
153.7591918158497
 51
169.3462759801917
  0
TEXT
  5
10E
330
1F
100
AcDbEntity
  8
枠_表
  6
CONTINUOUS
 62
     2
100
AcDbText
 10
1884.537109400001
 20
260.7227783000008
 30
0.0
 40
30.0
  1
１
 41
1.101333333333329
  7
EXCADSTD
 72
     5
 11
1908.137109400001
 21
260.7227783000008
 31
0.0
100
AcDbText
  0
TEXT
  5
10F
330
1F
100
AcDbEntity
  8
枠_表
  6
CONTINUOUS
 62
     2
100
AcDbText
 10
196.5000000000026
 20
266.7499999999995
 30
0.0
 40
42.5
  1
製図
 41
1.509694117647059
  7
EXCADSTD
 72
     5
 11
297.3260000000026
 21
266.7499999999995
 31
0.0
100
AcDbText
  0
TEXT
  5
110
330
1F
100
AcDbEntity
  8
枠_表
  6
CONTINUOUS
 62
     2
100
AcDbText
 10
351.5000000000026
 20
266.7499999999995
 30
0.0
 40
42.5
  1
写図
 41
1.509694117647059
  7
EXCADSTD
 72
     5
 11
452.3260000000026
 21
266.7499999999995
 31
0.0
100
AcDbText
  0
TEXT
  5
111
330
1F
100
AcDbEntity
  8
枠_表
  6
CONTINUOUS
 62
     2
100
AcDbText
 10
501.5000000000026
 20
266.7499999999995
 30
0.0
 40
42.5
  1
検図
 41
1.303826737967914
  7
EXCADSTD
 72
     5
 11
588.5770000000026
 21
266.7499999999995
 31
0.0
100
AcDbText
  0
TEXT
  5
112
330
1F
100
AcDbEntity
  8
枠_表
  6
CONTINUOUS
 62
     2
100
AcDbText
 10
631.5000000000026
 20
266.7499999999995
 30
0.0
 40
42.5
  1
承認
 41
1.303826737967914
  7
EXCADSTD
 72
     5
 11
718.5770000000026
 21
266.7499999999995
 31
0.0
100
AcDbText
  0
TEXT
  5
113
330
1F
100
AcDbEntity
  8
枠_表
  6
CONTINUOUS
 62
     2
100
AcDbText
 10
749.7500000000019
 20
256.7499999999995
 30
0.0
 40
42.5
  1
品
 41
1.12
  7
EXCADSTD
 72
     5
 11
783.7500000000019
 21
256.7499999999995
 31
0.0
100
AcDbText
  0
TEXT
  5
114
330
1F
100
AcDbEntity
  8
枠_表
  6
CONTINUOUS
 62
     2
100
AcDbText
 10
749.7500000000019
 20
206.7499999999995
 30
0.0
 40
42.5
  1
名
 41
1.12
  7
EXCADSTD
 72
     5
 11
783.7500000000019
 21
206.7499999999995
 31
0.0
100
AcDbText
  0
TEXT
  5
115
330
1F
100
AcDbEntity
  8
枠_表
  6
CONTINUOUS
 62
     2
100
AcDbText
 10
1389.750000000002
 20
256.7499999999995
 30
0.0
 40
42.5
  1
品
 41
1.12
  7
EXCADSTD
 72
     5
 11
1423.750000000002
 21
256.7499999999995
 31
0.0
100
AcDbText
  0
TEXT
  5
116
330
1F
100
AcDbEntity
  8
枠_表
  6
CONTINUOUS
 62
     2
100
AcDbText
 10
1389.750000000002
 20
206.7499999999995
 30
0.0
 40
42.5
  1
番
 41
1.12
  7
EXCADSTD
 72
     5
 11
1423.750000000002
 21
206.7499999999995
 31
0.0
100
AcDbText
  0
TEXT
  5
117
330
1F
100
AcDbEntity
  8
枠_表
  6
CONTINUOUS
 62
     2
100
AcDbText
 10
1810.750000000001
 20
256.7499999999995
 30
0.0
 40
42.5
  1
尺
 41
1.12
  7
EXCADSTD
 72
     5
 11
1844.750000000001
 21
256.7499999999995
 31
0.0
100
AcDbText
  0
TEXT
  5
118
330
1F
100
AcDbEntity
  8
枠_表
  6
CONTINUOUS
 62
     2
100
AcDbText
 10
1810.750000000001
 20
206.7499999999995
 30
0.0
 40
42.5
  1
度
 41
1.12
  7
EXCADSTD
 72
     5
 11
1844.750000000001
 21
206.7499999999995
 31
0.0
100
AcDbText
  0
TEXT
  5
119
330
1F
100
AcDbEntity
  8
枠_表
  6
CONTINUOUS
 62
     2
100
AcDbText
 10
1389.750000000002
 20
143.75
 30
0.0
 40
42.5
  1
図
 41
1.12
  7
EXCADSTD
 72
     5
 11
1423.750000000002
 21
143.75
 31
0.0
100
AcDbText
  0
TEXT
  5
11A
330
1F
100
AcDbEntity
  8
枠_表
  6
CONTINUOUS
 62
     2
100
AcDbText
 10
1389.750000000002
 20
100.7500000000005
 30
0.0
 40
42.5
  1
番
 41
1.12
  7
EXCADSTD
 72
     5
 11
1423.750000000002
 21
100.7500000000005
 31
0.0
100
AcDbText
  0
TEXT
  5
11B
330
1F
100
AcDbEntity
  8
枠_表
  6
CONTINUOUS
 62
     2
100
AcDbText
 10
1925.279296900001
 20
216.3488464
 30
0.0
 40
30.0
  1
１０
 41
1.098531212121213
  7
EXCADSTD
 72
     5
 11
1977.067196900001
 21
216.3488464
 31
0.0
100
AcDbText
  0
LINE
  5
11C
330
1F
100
AcDbEntity
  8
枠_表
  6
CONTINUOUS
 62
     7
100
AcDbLine
 10
174.0000000000026
 20
312.9999999999995
 30
0.0
 11
1994.000000000001
 21
312.9999999999995
 31
0.0
  0
LINE
  5
11D
330
1F
100
AcDbEntity
  8
枠_表
  6
CONTINUOUS
 62
     7
100
AcDbLine
 10
1994.000000000001
 20
92.99999999999955
 30
0.0
 11
1994.000000000001
 21
2893.0
 31
0.0
  0
LINE
  5
11E
330
1F
100
AcDbEntity
  8
枠_表
  6
CONTINUOUS
 62
     7
100
AcDbLine
 10
174.0000000000026
 20
2893.0
 30
0.0
 11
1994.000000000001
 21
2893.0
 31
0.0
  0
LINE
  5
11F
330
1F
100
AcDbEntity
  8
枠_表
  6
CONTINUOUS
 62
     6
100
AcDbLine
 10
1994.000000000001
 20
192.9999999999995
 30
0.0
 11
744.0000000000026
 21
192.9999999999995
 31
0.0
  0
LINE
  5
120
330
1F
100
AcDbEntity
  8
枠_表
  6
CONTINUOUS
 62
     6
100
AcDbLine
 10
1854.000000000001
 20
312.9999999999995
 30
0.0
 11
1854.000000000001
 21
192.9999999999995
 31
0.0
  0
LINE
  5
121
330
1F
100
AcDbEntity
  8
枠_表
  6
CONTINUOUS
 62
     6
100
AcDbLine
 10
1804.000000000001
 20
312.9999999999995
 30
0.0
 11
1804.000000000001
 21
192.9999999999995
 31
0.0
  0
LINE
  5
122
330
1F
100
AcDbEntity
  8
枠_表
  6
CONTINUOUS
 62
     6
100
AcDbLine
 10
1434.000000000001
 20
312.9999999999995
 30
0.0
 11
1434.000000000001
 21
92.99999999999955
 31
0.0
  0
LINE
  5
123
330
1F
100
AcDbEntity
  8
枠_表
  6
CONTINUOUS
 62
     6
100
AcDbLine
 10
1384.000000000001
 20
312.9999999999995
 30
0.0
 11
1384.000000000001
 21
92.99999999999955
 31
0.0
  0
LINE
  5
124
330
1F
100
AcDbEntity
  8
枠_表
  6
CONTINUOUS
 62
     6
100
AcDbLine
 10
794.0000000000026
 20
312.9999999999995
 30
0.0
 11
794.0000000000026
 21
192.9999999999995
 31
0.0
  0
LINE
  5
125
330
1F
100
AcDbEntity
  8
枠_表
  6
CONTINUOUS
 62
     6
100
AcDbLine
 10
744.0000000000026
 20
312.9999999999995
 30
0.0
 11
744.0000000000026
 21
92.99999999999955
 31
0.0
  0
LINE
  5
126
330
1F
100
AcDbEntity
  8
枠_表
  6
CONTINUOUS
 62
     6
100
AcDbLine
 10
614.0000000000026
 20
312.9999999999995
 30
0.0
 11
614.0000000000026
 21
92.99999999999955
 31
0.0
  0
LINE
  5
127
330
1F
100
AcDbEntity
  8
枠_表
  6
CONTINUOUS
 62
     6
100
AcDbLine
 10
484.0000000000026
 20
312.9999999999995
 30
0.0
 11
484.0000000000026
 21
92.99999999999955
 31
0.0
  0
LINE
  5
128
330
1F
100
AcDbEntity
  8
枠_表
  6
CONTINUOUS
 62
     6
100
AcDbLine
 10
329.0000000000026
 20
312.9999999999995
 30
0.0
 11
329.0000000000026
 21
92.99999999999955
 31
0.0
  0
LINE
  5
129
330
1F
100
AcDbEntity
  8
枠_表
  6
CONTINUOUS
 62
     6
100
AcDbLine
 10
174.0000000000026
 20
262.9999999999995
 30
0.0
 11
744.0000000000026
 21
262.9999999999995
 31
0.0
  0
LINE
  5
12A
330
1F
100
AcDbEntity
  8
枠_表
  6
CONTINUOUS
 62
     6
100
AcDbLine
 10
1886.653808600002
 20
216.0029297000005
 30
0.0
 11
1963.993896500001
 21
294.6998291
 31
0.0
  0
CIRCLE
  5
12B
330
1F
100
AcDbEntity
  8
枠_表
  6
CONTINUOUS
 62
     6
100
AcDbCircle
 10
224.0000000000026
 20
117.9999999999995
 30
0.0
 40
1.0000002
  0
CIRCLE
  5
12C
330
1F
100
AcDbEntity
  8
枠_表
  6
CONTINUOUS
 62
     6
100
AcDbCircle
 10
274.0000000000026
 20
117.9999999999995
 30
0.0
 40
1.0000002
  0
CIRCLE
  5
12D
330
1F
100
AcDbEntity
  8
枠_表
  6
CONTINUOUS
 62
     6
100
AcDbCircle
 10
379.0000000000026
 20
117.9999999999995
 30
0.0
 40
1.0000002
  0
CIRCLE
  5
12E
330
1F
100
AcDbEntity
  8
枠_表
  6
CONTINUOUS
 62
     6
100
AcDbCircle
 10
429.0000000000026
 20
117.9999999999995
 30
0.0
 40
1.0000002
  0
LINE
  5
12F
330
1F
100
AcDbEntity
  8
枠_表
  6
EXLTYPE2
 62
     6
100
AcDbLine
 10
174.0000000000026
 20
142.9999999999995
 30
0.0
 11
484.0000000000026
 21
142.9999999999995
 31
0.0
  0
CIRCLE
  5
130
330
1F
100
AcDbEntity
  8
枠_表
  6
CONTINUOUS
 62
     6
100
AcDbCircle
 10
224.0000000000026
 20
117.9999999999995
 30
0.0
 40
1.0000002
  0
CIRCLE
  5
131
330
1F
100
AcDbEntity
  8
枠_表
  6
CONTINUOUS
 62
     6
100
AcDbCircle
 10
274.0000000000026
 20
117.9999999999995
 30
0.0
 40
1.0000002
  0
LINE
  5
132
330
1F
100
AcDbEntity
  8
枠_表
  6
CONTINUOUS
 62
     7
100
AcDbLine
 10
174.0000000000026
 20
92.99999999999955
 30
0.0
 11
174.0000000000026
 21
2893.0
 31
0.0
  0
TEXT
  5
133
330
1F
100
AcDbEntity
  8
枠_表
  6
CONTINUOUS
 62
     2
100
AcDbText
 10
1571.500000000031
 20
227.9999999999995
 30
0.0
 40
50.0
  1
別表
 41
1.108252727272727
  7
EXCADSTD
 72
     5
 11
1658.577000000031
 21
227.9999999999995
 31
0.0
100
AcDbText
  0
TEXT
  5
134
330
1F
100
AcDbEntity
  8
枠_表
  6
CONTINUOUS
 62
     2
100
AcDbText
 10
1894.000000000035
 20
2728.749999999997
 30
0.0
 40
40.0
  1
１
 41
1.12
  7
EXCADSTD
 72
     5
 11
1926.000000000035
 21
2728.749999999997
 31
0.0
100
AcDbText
  0
LINE
  5
135
330
1F
100
AcDbEntity
  8
枠_表
  6
CONTINUOUS
 62
     6
100
AcDbLine
 10
1164.000000000035
 20
2773.499999999996
 30
0.0
 11
1964.000000000035
 21
2773.499999999996
 31
0.0
  0
LINE
  5
136
330
1F
100
AcDbEntity
  8
枠_表
  6
CONTINUOUS
 62
     6
100
AcDbLine
 10
1164.000000000035
 20
2822.999999999996
 30
0.0
 11
1964.000000000035
 21
2822.999999999996
 31
0.0
  0
LINE
  5
137
330
1F
100
AcDbEntity
  8
枠_表
  6
CONTINUOUS
 62
     6
100
AcDbLine
 10
1164.000000000035
 20
2723.999999999995
 30
0.0
 11
1964.000000000035
 21
2723.999999999995
 31
0.0
  0
TEXT
  5
138
330
1F
100
AcDbEntity
  8
枠_表
  6
CONTINUOUS
 62
     2
100
AcDbText
 10
1878.00000005964
 20
2778.25
 30
0.0
 40
40.0
  1
個数
 41
1.049923636363638
  7
EXCADSTD
 72
     5
 11
1943.99520005964
 21
2778.25
 31
0.0
100
AcDbText
  0
TEXT
  5
139
330
1F
100
AcDbEntity
  8
枠_表
  6
CONTINUOUS
 62
     2
100
AcDbText
 10
1249.000000000031
 20
2778.25
 30
0.0
 40
40.0
  1
品番
 41
1.895695454545453
  7
EXCADSTD
 72
     5
 11
1368.158000000031
 21
2778.25
 31
0.0
100
AcDbText
  0
LINE
  5
13A
330
1F
100
AcDbEntity
  8
枠_表
  6
CONTINUOUS
 62
     6
100
AcDbLine
 10
1164.000000000035
 20
2723.999999999999
 30
0.0
 11
1164.000000000035
 21
2822.999999999999
 31
0.0
  0
LINE
  5
13B
330
1F
100
AcDbEntity
  8
枠_表
  6
CONTINUOUS
 62
     6
100
AcDbLine
 10
1464.000000000038
 20
2822.999999999996
 30
0.0
 11
1464.000000000038
 21
2723.999999999999
 31
0.0
  0
LINE
  5
13C
330
1F
100
AcDbEntity
  8
枠_表
  6
CONTINUOUS
 62
     6
100
AcDbLine
 10
1864.000000000035
 20
2723.999999999999
 30
0.0
 11
1864.000000000035
 21
2822.999999999996
 31
0.0
  0
LINE
  5
13D
330
1F
100
AcDbEntity
  8
枠_表
  6
CONTINUOUS
 62
     6
100
AcDbLine
 10
1964.000000000035
 20
2723.999999999999
 30
0.0
 11
1964.000000000035
 21
2822.999999999999
 31
0.0
  0
TEXT
  5
13E
330
1F
100
AcDbEntity
  8
枠_表
  6
CONTINUOUS
 62
     2
100
AcDbText
 10
1894.000000000035
 20
2559.749999999997
 30
0.0
 40
40.0
  1
１
 41
1.12
  7
EXCADSTD
 72
     5
 11
1926.000000000035
 21
2559.749999999997
 31
0.0
100
AcDbText
  0
LINE
  5
13F
330
1F
100
AcDbEntity
  8
枠_表
  6
CONTINUOUS
 62
     6
100
AcDbLine
 10
1164.000000000035
 20
2604.499999999997
 30
0.0
 11
1964.000000000035
 21
2604.499999999997
 31
0.0
  0
LINE
  5
140
330
1F
100
AcDbEntity
  8
枠_表
  6
CONTINUOUS
 62
     6
100
AcDbLine
 10
1164.000000000035
 20
2653.999999999998
 30
0.0
 11
1964.000000000035
 21
2653.999999999998
 31
0.0
  0
LINE
  5
141
330
1F
100
AcDbEntity
  8
枠_表
  6
CONTINUOUS
 62
     6
100
AcDbLine
 10
1164.000000000035
 20
2554.999999999997
 30
0.0
 11
1964.000000000035
 21
2554.999999999997
 31
0.0
  0
TEXT
  5
142
330
1F
100
AcDbEntity
  8
枠_表
  6
CONTINUOUS
 62
     2
100
AcDbText
 10
1878.00000005964
 20
2609.249999999999
 30
0.0
 40
40.0
  1
個数
 41
1.049923636363638
  7
EXCADSTD
 72
     5
 11
1943.99520005964
 21
2609.249999999999
 31
0.0
100
AcDbText
  0
TEXT
  5
143
330
1F
100
AcDbEntity
  8
枠_表
  6
CONTINUOUS
 62
     2
100
AcDbText
 10
1249.000000000031
 20
2609.249999999999
 30
0.0
 40
40.0
  1
品番
 41
1.895695454545453
  7
EXCADSTD
 72
     5
 11
1368.158000000031
 21
2609.249999999999
 31
0.0
100
AcDbText
  0
TEXT
  5
144
330
1F
100
AcDbEntity
  8
枠_表
  6
CONTINUOUS
 62
     2
100
AcDbText
 10
1599.000000000031
 20
2609.249999999999
 30
0.0
 40
40.0
  1
品名
 41
1.895695454545453
  7
EXCADSTD
 72
     5
 11
1718.158000000031
 21
2609.249999999999
 31
0.0
100
AcDbText
  0
LINE
  5
145
330
1F
100
AcDbEntity
  8
枠_表
  6
CONTINUOUS
 62
     6
100
AcDbLine
 10
1164.000000000035
 20
2555.0
 30
0.0
 11
1164.000000000035
 21
2654.0
 31
0.0
  0
LINE
  5
146
330
1F
100
AcDbEntity
  8
枠_表
  6
CONTINUOUS
 62
     6
100
AcDbLine
 10
1464.000000000038
 20
2653.999999999998
 30
0.0
 11
1464.000000000038
 21
2555.0
 31
0.0
  0
LINE
  5
147
330
1F
100
AcDbEntity
  8
枠_表
  6
CONTINUOUS
 62
     6
100
AcDbLine
 10
1864.000000000035
 20
2555.0
 30
0.0
 11
1864.000000000035
 21
2653.999999999998
 31
0.0
  0
LINE
  5
148
330
1F
100
AcDbEntity
  8
枠_表
  6
CONTINUOUS
 62
     6
100
AcDbLine
 10
1964.000000000035
 20
2555.0
 30
0.0
 11
1964.000000000035
 21
2654.0
 31
0.0
  0
TEXT
  5
149
330
1F
100
AcDbEntity
  8
枠_表
  6
CONTINUOUS
 62
     2
100
AcDbText
 10
1160.999999999067
 20
2664.000000000005
 30
0.0
 40
40.0
  1
※壁排水／壁給水仕様
 41
1.052966101694915
  7
EXCADSTD
 72
     5
 11
1515.999999999067
 21
2664.000000000005
 31
0.0
100
AcDbText
  0
TEXT
  5
14A
330
1F
100
AcDbEntity
  8
枠_表
  6
CONTINUOUS
 62
     2
100
AcDbText
 10
1160.999999999067
 20
2833.000000000005
 30
0.0
 40
40.0
  1
※壁排水／床給水仕様
 41
1.052966101694915
  7
EXCADSTD
 72
     5
 11
1515.999999999067
 21
2833.000000000005
 31
0.0
100
AcDbText
  0
TEXT
  5
14B
330
1F
100
AcDbEntity
  8
枠_表
  6
CONTINUOUS
 62
     2
100
AcDbText
 10
929.0000017881293
 20
222.9999999999995
 30
0.0
 40
60.0
  1
手洗いキャビ
 41
1.066666650772095
  7
EXCADSTD
 72
     5
 11
1248.999997019758
 21
222.9999999999995
 31
0.0
100
AcDbText
  0
TEXT
  5
14C
330
1F
100
AcDbEntity
  8
枠_表
  6
CONTINUOUS
 62
     2
100
AcDbText
 10
1168.400000000029
 20
2728.749999999997
 30
0.0
 40
40.0
  1
ＬＴＣＲ３９１Ａ１Ｃ ◇▽－ＰＳ
 41
0.5459635677436988
  7
EXCADSTD
 72
     5
 11
1467.900014305144
 21
2728.749999999997
 31
0.0
100
AcDbText
  0
TEXT
  5
14D
330
1F
100
AcDbEntity
  8
枠_表
  6
CONTINUOUS
 62
     2
100
AcDbText
 10
1168.400000000029
 20
2559.749999999997
 30
0.0
 40
40.0
  1
ＬＴＣＲ３９１Ａ１Ｃ ◇▽－ＰＦ
 41
0.5459635677436988
  7
EXCADSTD
 72
     5
 11
1467.900014305144
 21
2559.749999999997
 31
0.0
100
AcDbText
  0
TEXT
  5
14E
330
1F
100
AcDbEntity
  8
枠_表
  6
CONTINUOUS
 62
     2
100
AcDbText
 10
1164.537187078901
 20
2484.242015055299
 30
0.0
 40
40.0
  1
※品番の◇は天板カラー記号を示す（別表１参照）
 41
0.9503649635036493
  7
EXCADSTD
 72
     5
 11
1908.537187078901
 21
2484.242015055299
 31
0.0
100
AcDbText
  0
TEXT
  5
14F
330
1F
100
AcDbEntity
  8
枠_表
  6
CONTINUOUS
 62
     2
100
AcDbText
 10
1164.537187078901
 20
2444.242015055299
 30
0.0
 40
40.0
  1
※品番の▽は扉カラー記号を示す（別表２参照）
 41
0.9511450381679387
  7
EXCADSTD
 72
     5
 11
1876.537187078901
 21
2444.242015055299
 31
0.0
100
AcDbText
  0
TEXT
  5
150
330
1F
100
AcDbEntity
  8
枠_表
  6
CONTINUOUS
 62
     2
100
AcDbText
 10
1164.537187078901
 20
2404.242015055299
 30
0.0
 40
40.0
  1
※単水栓はハンドル式
 41
0.9728813559322035
  7
EXCADSTD
 72
     5
 11
1492.537187078901
 21
2404.242015055299
 31
0.0
100
AcDbText
  0
TEXT
  5
151
330
1F
100
AcDbEntity
  8
枠_表
  6
CONTINUOUS
 62
     2
100
AcDbText
 10
1195.965213771105
 20
2322.0
 30
0.0
 40
40.0
  1
記号
 41
1.049923636363638
  7
EXCADSTD
 72
     5
 11
1261.960413771106
 21
2322.0
 31
0.0
100
AcDbText
  0
TEXT
  5
152
330
1F
100
AcDbEntity
  8
枠_表
  6
CONTINUOUS
 62
     2
100
AcDbText
 10
1425.456913030711
 20
2322.0
 30
0.0
 40
40.0
  1
カラー
 41
1.070588235294118
  7
EXCADSTD
 72
     5
 11
1529.456913030711
 21
2322.0
 31
0.0
100
AcDbText
  0
LINE
  5
153
330
1F
100
AcDbEntity
  8
枠_表
  6
CONTINUOUS
 62
     6
100
AcDbLine
 10
1163.965213711503
 20
2267.0
 30
0.0
 11
1652.948612111501
 21
2267.0
 31
0.0
  0
LINE
  5
154
330
1F
100
AcDbEntity
  8
枠_表
  6
CONTINUOUS
 62
     6
100
AcDbLine
 10
1163.965213711503
 20
2317.0
 30
0.0
 11
1652.948612111501
 21
2317.0
 31
0.0
  0
LINE
  5
155
330
1F
100
AcDbEntity
  8
枠_表
  6
CONTINUOUS
 62
     6
100
AcDbLine
 10
1163.965213711503
 20
2217.0
 30
0.0
 11
1652.948612111501
 21
2217.0
 31
0.0
  0
LINE
  5
156
330
1F
100
AcDbEntity
  8
枠_表
  6
CONTINUOUS
 62
     6
100
AcDbLine
 10
1163.965213711503
 20
2367.0
 30
0.0
 11
1652.948612111501
 21
2367.0
 31
0.0
  0
TEXT
  5
157
330
1F
100
AcDbEntity
  8
枠_表
  6
CONTINUOUS
 62
     2
100
AcDbText
 10
1213.965213711501
 20
2274.0
 30
0.0
 40
40.0
  1
Ｂ
 41
1.12
  7
EXCADSTD
 72
     5
 11
1245.965213711501
 21
2274.0
 31
0.0
100
AcDbText
  0
TEXT
  5
158
330
1F
100
AcDbEntity
  8
枠_表
  6
CONTINUOUS
 62
     2
100
AcDbText
 10
1306.965213711501
 20
2272.0
 30
0.0
 40
40.0
  1
ストーンベージュ
 41
1.061170212765957
  7
EXCADSTD
 72
     5
 11
1591.965213711501
 21
2272.0
 31
0.0
100
AcDbText
  0
TEXT
  5
159
330
1F
100
AcDbEntity
  8
枠_表
  6
CONTINUOUS
 62
     2
100
AcDbText
 10
1306.965213711501
 20
2222.0
 30
0.0
 40
40.0
  1
ストーングレー
 41
0.9902439024390244
  7
EXCADSTD
 72
     5
 11
1538.965213711501
 21
2222.0
 31
0.0
100
AcDbText
  0
LINE
  5
15A
330
1F
100
AcDbEntity
  8
枠_表
  6
CONTINUOUS
 62
     6
100
AcDbLine
 10
1301.965213711501
 20
2217.0
 30
0.0
 11
1301.965213711501
 21
2367.0
 31
0.0
  0
LINE
  5
15B
330
1F
100
AcDbEntity
  8
枠_表
  6
CONTINUOUS
 62
     6
100
AcDbLine
 10
1163.965213711503
 20
2367.0
 30
0.0
 11
1163.965213711503
 21
2217.0
 31
0.0
  0
LINE
  5
15C
330
1F
100
AcDbEntity
  8
枠_表
  6
CONTINUOUS
 62
     6
100
AcDbLine
 10
1652.948612111501
 20
2217.0
 30
0.0
 11
1652.948612111501
 21
2367.0
 31
0.0
  0
TEXT
  5
15D
330
1F
100
AcDbEntity
  8
枠_表
  6
CONTINUOUS
 62
     2
100
AcDbText
 10
1349.965213711503
 20
2160.129824196199
 30
0.0
 40
40.0
  1
別表１
 41
1.070588235294118
  7
EXCADSTD
 72
     5
 11
1453.965213711503
 21
2160.129824196199
 31
0.0
100
AcDbText
  0
LINE
  5
15E
330
1F
100
AcDbEntity
  8
枠_表
  6
CONTINUOUS
 62
     6
100
AcDbLine
 10
1344.965213711503
 20
2158.129824196199
 30
0.0
 11
1457.965213711503
 21
2158.129824196199
 31
0.0
  0
TEXT
  5
15F
330
1F
100
AcDbEntity
  8
枠_表
  6
CONTINUOUS
 62
     2
100
AcDbText
 10
1195.989389772905
 20
2068.000000000001
 30
0.0
 40
40.0
  1
記号
 41
1.049923636363638
  7
EXCADSTD
 72
     5
 11
1261.984589772905
 21
2068.000000000001
 31
0.0
100
AcDbText
  0
TEXT
  5
160
330
1F
100
AcDbEntity
  8
枠_表
  6
CONTINUOUS
 62
     2
100
AcDbText
 10
1213.9893897133
 20
2020.000000000001
 30
0.0
 40
40.0
  1
Ａ
 41
1.12
  7
EXCADSTD
 72
     5
 11
1245.9893897133
 21
2020.000000000001
 31
0.0
100
AcDbText
  0
TEXT
  5
161
330
1F
100
AcDbEntity
  8
枠_表
  6
CONTINUOUS
 62
     2
100
AcDbText
 10
1306.9893897133
 20
2018.000000000001
 30
0.0
 40
40.0
  1
ホワイト
 41
1.103260869565217
  7
EXCADSTD
 72
     5
 11
1451.9893897133
 21
2018.000000000001
 31
0.0
100
AcDbText
  0
LINE
  5
162
330
1F
100
AcDbEntity
  8
枠_表
  6
CONTINUOUS
 62
     6
100
AcDbLine
 10
1301.989389713301
 20
2013.0
 30
0.0
 11
1301.989389713301
 21
2113.0
 31
0.0
  0
LINE
  5
163
330
1F
100
AcDbEntity
  8
枠_表
  6
CONTINUOUS
 62
     6
100
AcDbLine
 10
1163.989389713302
 20
2113.0
 30
0.0
 11
1163.989389713302
 21
2013.0
 31
0.0
  0
LINE
  5
164
330
1F
100
AcDbEntity
  8
枠_表
  6
CONTINUOUS
 62
     6
100
AcDbLine
 10
1652.9727881133
 20
2013.0
 30
0.0
 11
1652.9727881133
 21
2113.0
 31
0.0
  0
LINE
  5
165
330
1F
100
AcDbEntity
  8
枠_表
  6
CONTINUOUS
 62
     6
100
AcDbLine
 10
1163.989389713302
 20
2013.0
 30
0.0
 11
1652.9727881133
 21
2013.0
 31
0.0
  0
LINE
  5
166
330
1F
100
AcDbEntity
  8
枠_表
  6
CONTINUOUS
 62
     6
100
AcDbLine
 10
1163.989389713302
 20
2063.0
 30
0.0
 11
1652.9727881133
 21
2063.0
 31
0.0
  0
LINE
  5
167
330
1F
100
AcDbEntity
  8
枠_表
  6
CONTINUOUS
 62
     6
100
AcDbLine
 10
1163.989389713302
 20
2113.0
 30
0.0
 11
1652.9727881133
 21
2113.0
 31
0.0
  0
TEXT
  5
168
330
1F
100
AcDbEntity
  8
枠_表
  6
CONTINUOUS
 62
     2
100
AcDbText
 10
1425.481089032511
 20
2068.000000000001
 30
0.0
 40
40.0
  1
カラー
 41
1.070588235294118
  7
EXCADSTD
 72
     5
 11
1529.481089032511
 21
2068.000000000001
 31
0.0
100
AcDbText
  0
LINE
  5
169
330
1F
100
AcDbEntity
  8
枠_表
  6
CONTINUOUS
 62
     6
100
AcDbLine
 10
1338.636504030302
 20
1954.709292143499
 30
0.0
 11
1451.636504030303
 21
1954.709292143499
 31
0.0
  0
TEXT
  5
16A
330
1F
100
AcDbEntity
  8
枠_表
  6
CONTINUOUS
 62
     2
100
AcDbText
 10
1343.636504030302
 20
1956.709292143499
 30
0.0
 40
40.0
  1
別表２
 41
1.070588235294118
  7
EXCADSTD
 72
     5
 11
1447.636504030302
 21
1956.709292143499
 31
0.0
100
AcDbText
  0
TEXT
  5
16B
330
1F
100
AcDbEntity
  8
枠_表
  6
CONTINUOUS
 62
     2
100
AcDbText
 10
1212.965213711501
 20
2220.0
 30
0.0
 40
40.0
  1
Ｇ
 41
1.12
  7
EXCADSTD
 72
     5
 11
1244.965213711501
 21
2220.0
 31
0.0
100
AcDbText
  0
TEXT
  5
16C
330
1F
100
AcDbEntity
  8
枠_表
  6
CONTINUOUS
 62
     6
100
AcDbText
 10
201.500000000006
 20
178.0000000000018
 30
0.0
 40
50.0
  1
伊藤
 41
1.166581818181818
  7
EXCADSTD
 72
     5
 11
293.160000000006
 21
178.0000000000018
 31
0.0
100
AcDbText
  0
TEXT
  5
16D
330
1F
100
AcDbEntity
  8
枠_表
  6
CONTINUOUS
 62
     6
100
AcDbText
 10
180.3441156754815
 20
102.4500732000001
 30
0.0
 40
30.0
  1
'23
 41
0.4689784042553192
  7
EXCADSTD
 72
     5
 11
211.8326656754815
 21
102.4500732000001
 31
0.0
100
AcDbText
  0
TEXT
  5
16E
330
1F
100
AcDbEntity
  8
枠_表
  6
CONTINUOUS
 62
     6
100
AcDbText
 10
243.0691160569512
 20
102.4500732000001
 30
0.0
 40
30.0
  1
1
 41
0.7238636363636363
  7
EXCADSTD
 72
     5
 11
254.4441160569512
 21
102.4500732000001
 31
0.0
100
AcDbText
  0
TEXT
  5
16F
330
1F
100
AcDbEntity
  8
枠_表
  6
CONTINUOUS
 62
     6
100
AcDbText
 10
289.8941159139002
 20
102.4500732000001
 30
0.0
 40
30.0
  1
17
 41
0.408648648648649
  7
EXCADSTD
 72
     5
 11
311.4941159139003
 21
102.4500732000001
 31
0.0
100
AcDbText
  0
TEXT
  5
170
330
1F
100
AcDbEntity
  8
枠_表
  6
CONTINUOUS
 62
     6
100
AcDbText
 10
499.5000000000059
 20
178.0000000000018
 30
0.0
 40
50.0
  1
川野
 41
1.166581818181818
  7
EXCADSTD
 72
     5
 11
591.1600000000059
 21
178.0000000000018
 31
0.0
100
AcDbText
  0
TEXT
  5
171
330
1F
100
AcDbEntity
  8
枠_表
  6
CONTINUOUS
 62
     7
100
AcDbText
 10
1508.99999999997
 20
114.5000000000005
 30
0.0
 40
60.0
  1
ＬＵ７１８４５０
 41
1.017730496453901
  7
EXCADSTD
 72
     5
 11
1918.99999999997
 21
114.5000000000005
 31
0.0
100
AcDbText
  0
TEXT
  5
172
330
1F
100
AcDbEntity
  8
枠_表
  6
CONTINUOUS
 62
     2
100
AcDbText
 10
1599.000000000031
 20
2778.25
 30
0.0
 40
40.0
  1
品名
 41
1.895695454545453
  7
EXCADSTD
 72
     5
 11
1718.158000000031
 21
2778.25
 31
0.0
100
AcDbText
  0
TEXT
  5
173
330
1F
100
AcDbEntity
  8
枠_表
  6
CONTINUOUS
 62
     2
100
AcDbText
 10
1472.999999999898
 20
2727.749999999995
 30
0.0
 40
40.0
  1
手洗いキャビ（共用形）
 41
0.9692307692307693
  7
EXCADSTD
 72
     5
 11
1832.999999999898
 21
2727.749999999995
 31
0.0
100
AcDbText
  0
TEXT
  5
174
330
1F
100
AcDbEntity
  8
枠_表
  6
CONTINUOUS
 62
     2
100
AcDbText
 10
1472.999999999898
 20
2558.749999999998
 30
0.0
 40
40.0
  1
手洗いキャビ（共用形）
 41
0.9692307692307693
  7
EXCADSTD
 72
     5
 11
1832.999999999898
 21
2558.749999999998
 31
0.0
100
AcDbText
  0
LINE
  5
175
330
1F
100
AcDbEntity
  8
化粧台
  6
EXLTYPE3
 62
     6
100
AcDbLine
 10
570.0000000000001
 20
1998.207428524799
 30
0.0
 11
570.0000000000001
 21
2088.007428524798
 31
0.0
  0
LINE
  5
176
330
1F
100
AcDbEntity
  8
化粧台
  6
CONTINUOUS
 62
     4
100
AcDbLine
 10
506.8914886175299
 20
1940.007428524798
 30
0.0
 11
522.1318686546166
 21
1958.049103798461
 31
0.0
  0
LINE
  5
177
330
1F
100
AcDbEntity
  8
化粧台
  6
CONTINUOUS
 62
     4
100
AcDbLine
 10
526.1454757526554
 20
2095.264846293187
 30
0.0
 11
511.2914886175296
 21
2110.007428524798
 31
0.0
  0
LINE
  5
178
330
1F
100
AcDbEntity
  8
化粧台
  6
CONTINUOUS
 62
     4
100
AcDbLine
 10
815.2914886175296
 20
2096.657428524799
 30
0.0
 11
829.0914886175298
 21
2110.457428524799
 31
0.0
  0
LINE
  5
179
330
1F
100
AcDbEntity
  8
化粧台
  6
CONTINUOUS
 62
     4
100
AcDbLine
 10
817.6914886175302
 20
1958.407428524799
 30
0.0
 11
833.89148861753
 21
1939.007428524798
 31
0.0
  0
ARC
  5
17A
330
1F
100
AcDbEntity
  8
化粧台
  6
CONTINUOUS
 62
     7
100
AcDbCircle
 10
669.9999837890101
 20
11925.0
 30
0.0
 40
9993.0
100
AcDbArc
 50
269.0536303734691
 51
270.9463698124559
  0
ARC
  5
17B
330
1F
100
AcDbEntity
  8
化粧台
  6
CONTINUOUS
 62
     7
100
AcDbCircle
 10
835.0000000000028
 20
1936.362705286089
 30
0.0
 40
3.0
100
AcDbArc
 50
270.9463698124562
 51
0.0
  0
ARC
  5
17C
330
1F
100
AcDbEntity
  8
化粧台
  6
CONTINUOUS
 62
     7
100
AcDbCircle
 10
669.9999837890101
 20
11925.0
 30
0.0
 40
10000.0
100
AcDbArc
 50
269.0536303734691
 51
270.9463698124559
  0
ARC
  5
17D
330
1F
100
AcDbEntity
  8
化粧台
  6
CONTINUOUS
 62
     7
100
AcDbCircle
 10
504.9999999999983
 20
1936.362705286089
 30
0.0
 40
10.0
100
AcDbArc
 50
180.0
 51
269.0536303734691
  0
LINE
  5
17E
330
1F
100
AcDbEntity
  8
化粧台
  6
CONTINUOUS
 62
     7
100
AcDbLine
 10
502.0000000000002
 20
1936.362705286089
 30
0.0
 11
502.0000000000002
 21
2189.999999999999
 31
0.0
  0
LINE
  5
17F
330
1F
100
AcDbEntity
  8
化粧台
  6
CONTINUOUS
 62
     7
100
AcDbLine
 10
495.0000000000001
 20
2194.999999999999
 30
0.0
 11
495.0000000000001
 21
1936.362705286089
 31
0.0
  0
ARC
  5
180
330
1F
100
AcDbEntity
  8
化粧台
  6
CONTINUOUS
 62
     7
100
AcDbCircle
 10
504.9999999999983
 20
1936.362705286089
 30
0.0
 40
3.0
100
AcDbArc
 50
180.0
 51
269.053630373419
  0
ARC
  5
181
330
1F
100
AcDbEntity
  8
化粧台
  6
CONTINUOUS
 62
     7
100
AcDbCircle
 10
835.0000000000028
 20
1936.362705286089
 30
0.0
 40
10.0
100
AcDbArc
 50
270.946369626531
 51
0.0
  0
LINE
  5
182
330
1F
100
AcDbEntity
  8
化粧台
  6
CONTINUOUS
 62
     7
100
AcDbLine
 10
845.0000000000001
 20
2194.999999999999
 30
0.0
 11
845.0000000000001
 21
1936.362705286089
 31
0.0
  0
ARC
  5
183
330
1F
100
AcDbEntity
  8
化粧台
  6
CONTINUOUS
 62
     7
100
AcDbCircle
 10
835.0000000000001
 20
2194.999999999999
 30
0.0
 40
10.0
100
AcDbArc
 50
0.0
 51
90.00000000000001
  0
ARC
  5
184
330
1F
100
AcDbEntity
  8
化粧台
  6
CONTINUOUS
 62
     7
100
AcDbCircle
 10
833.0000000000001
 20
2189.999999999999
 30
0.0
 40
5.0
100
AcDbArc
 50
0.0
 51
90.00000000000001
  0
LINE
  5
185
330
1F
100
AcDbEntity
  8
化粧台
  6
CONTINUOUS
 62
     7
100
AcDbLine
 10
835.0000000000001
 20
2204.999999999999
 30
0.0
 11
505.0000000000001
 21
2204.999999999999
 31
0.0
  0
LINE
  5
186
330
1F
100
AcDbEntity
  8
化粧台
  6
CONTINUOUS
 62
     7
100
AcDbLine
 10
507.0000000000002
 20
2194.999999999999
 30
0.0
 11
833.0000000000001
 21
2194.999999999999
 31
0.0
  0
LINE
  5
187
330
1F
100
AcDbEntity
  8
化粧台
  6
CONTINUOUS
 62
     7
100
AcDbLine
 10
838.0000000000001
 20
2189.999999999999
 30
0.0
 11
838.0000000000001
 21
1936.362705286089
 31
0.0
  0
LINE
  5
188
330
1F
100
AcDbEntity
  8
化粧台
  6
CONTINUOUS
 62
     7
100
AcDbLine
 10
815.7784272821474
 20
2092.547816174388
 30
0.0
 11
817.8743338240766
 21
1963.173283388257
 31
0.0
  0
POLYLINE
  5
189
330
1F
100
AcDbEntity
  8
化粧台
  6
CONTINUOUS
 62
     7
100
AcDb2dPolyline
 66
     1
 10
0.0
 20
0.0
 30
0.0
 70
   128
  0
VERTEX
  5
18A
330
189
100
AcDbEntity
  8
化粧台
  6
CONTINUOUS
 62
     7
100
AcDbVertex
100
AcDb2dVertex
 10
811.0799641782216
 20
2097.246279278315
 30
0.0
  0
VERTEX
  5
18B
330
189
100
AcDbEntity
  8
化粧台
  6
CONTINUOUS
 62
     7
100
AcDbVertex
100
AcDb2dVertex
 10
811.0856905701494
 20
2097.245453028458
 30
0.0
  0
VERTEX
  5
18C
330
189
100
AcDbEntity
  8
化粧台
  6
CONTINUOUS
 62
     7
100
AcDbVertex
100
AcDb2dVertex
 10
811.1019800480215
 20
2097.243073476011
 30
0.0
  0
VERTEX
  5
18D
330
189
100
AcDbEntity
  8
化粧台
  6
CONTINUOUS
 62
     7
100
AcDbVertex
100
AcDb2dVertex
 10
811.1274980649713
 20
2097.239289416663
 30
0.0
  0
VERTEX
  5
18E
330
189
100
AcDbEntity
  8
化粧台
  6
CONTINUOUS
 62
     7
100
AcDbVertex
100
AcDb2dVertex
 10
811.1609100741323
 20
2097.234249646102
 30
0.0
  0
VERTEX
  5
18F
330
189
100
AcDbEntity
  8
化粧台
  6
CONTINUOUS
 62
     7
100
AcDbVertex
100
AcDb2dVertex
 10
811.2008815286379
 20
2097.228102960018
 30
0.0
  0
VERTEX
  5
190
330
189
100
AcDbEntity
  8
化粧台
  6
CONTINUOUS
 62
     7
100
AcDbVertex
100
AcDb2dVertex
 10
811.2460778816214
 20
2097.220998154097
 30
0.0
  0
VERTEX
  5
191
330
189
100
AcDbEntity
  8
化粧台
  6
CONTINUOUS
 62
     7
100
AcDbVertex
100
AcDb2dVertex
 10
811.2951645862164
 20
2097.21308402403
 30
0.0
  0
VERTEX
  5
192
330
189
100
AcDbEntity
  8
化粧台
  6
CONTINUOUS
 62
     7
100
AcDbVertex
100
AcDb2dVertex
 10
811.3468070955562
 20
2097.204509365504
 30
0.0
  0
VERTEX
  5
193
330
189
100
AcDbEntity
  8
化粧台
  6
CONTINUOUS
 62
     7
100
AcDbVertex
100
AcDb2dVertex
 10
811.399670862774
 20
2097.195422974208
 30
0.0
  0
VERTEX
  5
194
330
189
100
AcDbEntity
  8
化粧台
  6
CONTINUOUS
 62
     7
100
AcDbVertex
100
AcDb2dVertex
 10
811.4524213410034
 20
2097.185973645829
 30
0.0
  0
VERTEX
  5
195
330
189
100
AcDbEntity
  8
化粧台
  6
CONTINUOUS
 62
     7
100
AcDbVertex
100
AcDb2dVertex
 10
811.503723983378
 20
2097.176310176058
 30
0.0
  0
VERTEX
  5
196
330
189
100
AcDbEntity
  8
化粧台
  6
CONTINUOUS
 62
     7
100
AcDbVertex
100
AcDb2dVertex
 10
811.557371073244
 20
2097.165536231404
 30
0.0
  0
VERTEX
  5
197
330
189
100
AcDbEntity
  8
化粧台
  6
CONTINUOUS
 62
     7
100
AcDbVertex
100
AcDb2dVertex
 10
811.6081116865806
 20
2097.154564733563
 30
0.0
  0
VERTEX
  5
198
330
189
100
AcDbEntity
  8
化粧台
  6
CONTINUOUS
 62
     7
100
AcDbVertex
100
AcDb2dVertex
 10
811.656419595114
 20
2097.143277516236
 30
0.0
  0
VERTEX
  5
199
330
189
100
AcDbEntity
  8
化粧台
  6
CONTINUOUS
 62
     7
100
AcDbVertex
100
AcDb2dVertex
 10
811.7027685705714
 20
2097.131556413124
 30
0.0
  0
VERTEX
  5
19A
330
189
100
AcDbEntity
  8
化粧台
  6
CONTINUOUS
 62
     7
100
AcDbVertex
100
AcDb2dVertex
 10
811.7476323846788
 20
2097.119283257927
 30
0.0
  0
VERTEX
  5
19B
330
189
100
AcDbEntity
  8
化粧台
  6
CONTINUOUS
 62
     7
100
AcDbVertex
100
AcDb2dVertex
 10
811.7914848091631
 20
2097.106339884347
 30
0.0
  0
VERTEX
  5
19C
330
189
100
AcDbEntity
  8
化粧台
  6
CONTINUOUS
 62
     7
100
AcDbVertex
100
AcDb2dVertex
 10
811.8347996157507
 20
2097.092608126084
 30
0.0
  0
VERTEX
  5
19D
330
189
100
AcDbEntity
  8
化粧台
  6
CONTINUOUS
 62
     7
100
AcDbVertex
100
AcDb2dVertex
 10
811.8780505761683
 20
2097.077969816838
 30
0.0
  0
VERTEX
  5
19E
330
189
100
AcDbEntity
  8
化粧台
  6
CONTINUOUS
 62
     7
100
AcDbVertex
100
AcDb2dVertex
 10
811.9217114621426
 20
2097.062306790312
 30
0.0
  0
VERTEX
  5
19F
330
189
100
AcDbEntity
  8
化粧台
  6
CONTINUOUS
 62
     7
100
AcDbVertex
100
AcDb2dVertex
 10
811.9662560454001
 20
2097.045500880206
 30
0.0
  0
VERTEX
  5
1A0
330
189
100
AcDbEntity
  8
化粧台
  6
CONTINUOUS
 62
     7
100
AcDbVertex
100
AcDb2dVertex
 10
812.0121580976672
 20
2097.02743392022
 30
0.0
  0
VERTEX
  5
1A1
330
189
100
AcDbEntity
  8
化粧台
  6
CONTINUOUS
 62
     7
100
AcDbVertex
100
AcDb2dVertex
 10
812.113524203598
 20
2096.985428601594
 30
0.0
  0
VERTEX
  5
1A2
330
189
100
AcDbEntity
  8
化粧台
  6
CONTINUOUS
 62
     7
100
AcDbVertex
100
AcDb2dVertex
 10
812.2212038217459
 20
2096.938309342862
 30
0.0
  0
VERTEX
  5
1A3
330
189
100
AcDbEntity
  8
化粧台
  6
CONTINUOUS
 62
     7
100
AcDbVertex
100
AcDb2dVertex
 10
812.333517073344
 20
2096.886982501494
 30
0.0
  0
VERTEX
  5
1A4
330
189
100
AcDbEntity
  8
化粧台
  6
CONTINUOUS
 62
     7
100
AcDbVertex
100
AcDb2dVertex
 10
812.4487840796252
 20
2096.83235443496
 30
0.0
  0
VERTEX
  5
1A5
330
189
100
AcDbEntity
  8
化粧台
  6
CONTINUOUS
 62
     7
100
AcDbVertex
100
AcDb2dVertex
 10
812.5653249618223
 20
2096.77533150073
 30
0.0
  0
VERTEX
  5
1A6
330
189
100
AcDbEntity
  8
化粧台
  6
CONTINUOUS
 62
     7
100
AcDbVertex
100
AcDb2dVertex
 10
812.6814598411685
 20
2096.716820056275
 30
0.0
  0
VERTEX
  5
1A7
330
189
100
AcDbEntity
  8
化粧台
  6
CONTINUOUS
 62
     7
100
AcDbVertex
100
AcDb2dVertex
 10
812.7955088388965
 20
2096.657726459065
 30
0.0
  0
VERTEX
  5
1A8
330
189
100
AcDbEntity
  8
化粧台
  6
CONTINUOUS
 62
     7
100
AcDbVertex
100
AcDb2dVertex
 10
812.9057920762393
 20
2096.59895706657
 30
0.0
  0
VERTEX
  5
1A9
330
189
100
AcDbEntity
  8
化粧台
  6
CONTINUOUS
 62
     7
100
AcDbVertex
100
AcDb2dVertex
 10
813.0106296744301
 20
2096.54141823626
 30
0.0
  0
VERTEX
  5
1AA
330
189
100
AcDbEntity
  8
化粧台
  6
CONTINUOUS
 62
     7
100
AcDbVertex
100
AcDb2dVertex
 10
813.1083417547019
 20
2096.486016325606
 30
0.0
  0
VERTEX
  5
1AB
330
189
100
AcDbEntity
  8
化粧台
  6
CONTINUOUS
 62
     7
100
AcDbVertex
100
AcDb2dVertex
 10
813.1972484382871
 20
2096.433657692077
 30
0.0
  0
VERTEX
  5
1AC
330
189
100
AcDbEntity
  8
化粧台
  6
CONTINUOUS
 62
     7
100
AcDbVertex
100
AcDb2dVertex
 10
813.2406690227714
 20
2096.407171425673
 30
0.0
  0
VERTEX
  5
1AD
330
189
100
AcDbEntity
  8
化粧台
  6
CONTINUOUS
 62
     7
100
AcDbVertex
100
AcDb2dVertex
 10
813.2815402101228
 20
2096.381487654528
 30
0.0
  0
VERTEX
  5
1AE
330
189
100
AcDbEntity
  8
化粧台
  6
CONTINUOUS
 62
     7
100
AcDbVertex
100
AcDb2dVertex
 10
813.3203047795007
 20
2096.356281769224
 30
0.0
  0
VERTEX
  5
1AF
330
189
100
AcDbEntity
  8
化粧台
  6
CONTINUOUS
 62
     7
100
AcDbVertex
100
AcDb2dVertex
 10
813.3574055100643
 20
2096.331229160341
 30
0.0
  0
VERTEX
  5
1B0
330
189
100
AcDbEntity
  8
化粧台
  6
CONTINUOUS
 62
     7
100
AcDbVertex
100
AcDb2dVertex
 10
813.3932851809726
 20
2096.306005218463
 30
0.0
  0
VERTEX
  5
1B1
330
189
100
AcDbEntity
  8
化粧台
  6
CONTINUOUS
 62
     7
100
AcDbVertex
100
AcDb2dVertex
 10
813.4283865713853
 20
2096.28028533417
 30
0.0
  0
VERTEX
  5
1B2
330
189
100
AcDbEntity
  8
化粧台
  6
CONTINUOUS
 62
     7
100
AcDbVertex
100
AcDb2dVertex
 10
813.4631524604613
 20
2096.253744898045
 30
0.0
  0
VERTEX
  5
1B3
330
189
100
AcDbEntity
  8
化粧台
  6
CONTINUOUS
 62
     7
100
AcDbVertex
100
AcDb2dVertex
 10
813.49802562736
 20
2096.226059300669
 30
0.0
  0
VERTEX
  5
1B4
330
189
100
AcDbEntity
  8
化粧台
  6
CONTINUOUS
 62
     7
100
AcDbVertex
100
AcDb2dVertex
 10
813.5334488512407
 20
2096.196903932625
 30
0.0
  0
VERTEX
  5
1B5
330
189
100
AcDbEntity
  8
化粧台
  6
CONTINUOUS
 62
     7
100
AcDbVertex
100
AcDb2dVertex
 10
813.5698649112624
 20
2096.165954184493
 30
0.0
  0
VERTEX
  5
1B6
330
189
100
AcDbEntity
  8
化粧台
  6
CONTINUOUS
 62
     7
100
AcDbVertex
100
AcDb2dVertex
 10
813.6077165865845
 20
2096.132885446856
 30
0.0
  0
VERTEX
  5
1B7
330
189
100
AcDbEntity
  8
化粧台
  6
CONTINUOUS
 62
     7
100
AcDbVertex
100
AcDb2dVertex
 10
813.6880596796594
 20
2096.060333971955
 30
0.0
  0
VERTEX
  5
1B8
330
189
100
AcDbEntity
  8
化粧台
  6
CONTINUOUS
 62
     7
100
AcDbVertex
100
AcDb2dVertex
 10
813.7742852201418
 20
2095.979716464548
 30
0.0
  0
VERTEX
  5
1B9
330
189
100
AcDbEntity
  8
化粧台
  6
CONTINUOUS
 62
     7
100
AcDbVertex
100
AcDb2dVertex
 10
813.8648667208245
 20
2095.892605157698
 30
0.0
  0
VERTEX
  5
1BA
330
189
100
AcDbEntity
  8
化粧台
  6
CONTINUOUS
 62
     7
100
AcDbVertex
100
AcDb2dVertex
 10
813.9582776945011
 20
2095.800572284467
 30
0.0
  0
VERTEX
  5
1BB
330
189
100
AcDbEntity
  8
化粧台
  6
CONTINUOUS
 62
     7
100
AcDbVertex
100
AcDb2dVertex
 10
814.0529916539649
 20
2095.70519007792
 30
0.0
  0
VERTEX
  5
1BC
330
189
100
AcDbEntity
  8
化粧台
  6
CONTINUOUS
 62
     7
100
AcDbVertex
100
AcDb2dVertex
 10
814.1474821120097
 20
2095.608030771119
 30
0.0
  0
VERTEX
  5
1BD
330
189
100
AcDbEntity
  8
化粧台
  6
CONTINUOUS
 62
     7
100
AcDbVertex
100
AcDb2dVertex
 10
814.2402225814284
 20
2095.510666597124
 30
0.0
  0
VERTEX
  5
1BE
330
189
100
AcDbEntity
  8
化粧台
  6
CONTINUOUS
 62
     7
100
AcDbVertex
100
AcDb2dVertex
 10
814.3296865750145
 20
2095.414669789003
 30
0.0
  0
VERTEX
  5
1BF
330
189
100
AcDbEntity
  8
化粧台
  6
CONTINUOUS
 62
     7
100
AcDbVertex
100
AcDb2dVertex
 10
814.4143476055615
 20
2095.321612579816
 30
0.0
  0
VERTEX
  5
1C0
330
189
100
AcDbEntity
  8
化粧台
  6
CONTINUOUS
 62
     7
100
AcDbVertex
100
AcDb2dVertex
 10
814.4926791858625
 20
2095.233067202627
 30
0.0
  0
VERTEX
  5
1C1
330
189
100
AcDbEntity
  8
化粧台
  6
CONTINUOUS
 62
     7
100
AcDbVertex
100
AcDb2dVertex
 10
814.563154828711
 20
2095.150605890498
 30
0.0
  0
VERTEX
  5
1C2
330
189
100
AcDbEntity
  8
化粧台
  6
CONTINUOUS
 62
     7
100
AcDbVertex
100
AcDb2dVertex
 10
814.5955557250791
 20
2095.111425974541
 30
0.0
  0
VERTEX
  5
1C3
330
189
100
AcDbEntity
  8
化粧台
  6
CONTINUOUS
 62
     7
100
AcDbVertex
100
AcDb2dVertex
 10
814.6258513903285
 20
2095.073768520968
 30
0.0
  0
VERTEX
  5
1C4
330
189
100
AcDbEntity
  8
化粧台
  6
CONTINUOUS
 62
     7
100
AcDbVertex
100
AcDb2dVertex
 10
814.6543595465155
 20
2095.037178800497
 30
0.0
  0
VERTEX
  5
1C5
330
189
100
AcDbEntity
  8
化粧台
  6
CONTINUOUS
 62
     7
100
AcDbVertex
100
AcDb2dVertex
 10
814.6813979156964
 20
2095.001202083846
 30
0.0
  0
VERTEX
  5
1C6
330
189
100
AcDbEntity
  8
化粧台
  6
CONTINUOUS
 62
     7
100
AcDbVertex
100
AcDb2dVertex
 10
814.7072842199275
 20
2094.965383641731
 30
0.0
  0
VERTEX
  5
1C7
330
189
100
AcDbEntity
  8
化粧台
  6
CONTINUOUS
 62
     7
100
AcDbVertex
100
AcDb2dVertex
 10
814.7323361812652
 20
2094.929268744874
 30
0.0
  0
VERTEX
  5
1C8
330
189
100
AcDbEntity
  8
化粧台
  6
CONTINUOUS
 62
     7
100
AcDbVertex
100
AcDb2dVertex
 10
814.7568715217658
 20
2094.892402663988
 30
0.0
  0
VERTEX
  5
1C9
330
189
100
AcDbEntity
  8
化粧台
  6
CONTINUOUS
 62
     7
100
AcDbVertex
100
AcDb2dVertex
 10
814.7812079634855
 20
2094.854330669793
 30
0.0
  0
VERTEX
  5
1CA
330
189
100
AcDbEntity
  8
化粧台
  6
CONTINUOUS
 62
     7
100
AcDbVertex
100
AcDb2dVertex
 10
814.8056632284806
 20
2094.814598033006
 30
0.0
  0
VERTEX
  5
1CB
330
189
100
AcDbEntity
  8
化粧台
  6
CONTINUOUS
 62
     7
100
AcDbVertex
100
AcDb2dVertex
 10
814.8305550388079
 20
2094.772750024346
 30
0.0
  0
VERTEX
  5
1CC
330
189
100
AcDbEntity
  8
化粧台
  6
CONTINUOUS
 62
     7
100
AcDbVertex
100
AcDb2dVertex
 10
814.8562011165229
 20
2094.72833191453
 30
0.0
  0
VERTEX
  5
1CD
330
189
100
AcDbEntity
  8
化粧台
  6
CONTINUOUS
 62
     7
100
AcDbVertex
100
AcDb2dVertex
 10
814.9072601044512
 20
2094.636722709755
 30
0.0
  0
VERTEX
  5
1CE
330
189
100
AcDbEntity
  8
化粧台
  6
CONTINUOUS
 62
     7
100
AcDbVertex
100
AcDb2dVertex
 10
814.9612557190634
 20
2094.536075250217
 30
0.0
  0
VERTEX
  5
1CF
330
189
100
AcDbEntity
  8
化粧台
  6
CONTINUOUS
 62
     7
100
AcDbVertex
100
AcDb2dVertex
 10
815.0173087266429
 20
2094.428118486696
 30
0.0
  0
VERTEX
  5
1D0
330
189
100
AcDbEntity
  8
化粧台
  6
CONTINUOUS
 62
     7
100
AcDbVertex
100
AcDb2dVertex
 10
815.0745398934725
 20
2094.314581369974
 30
0.0
  0
VERTEX
  5
1D1
330
189
100
AcDbEntity
  8
化粧台
  6
CONTINUOUS
 62
     7
100
AcDbVertex
100
AcDb2dVertex
 10
815.1320699858354
 20
2094.197192850831
 30
0.0
  0
VERTEX
  5
1D2
330
189
100
AcDbEntity
  8
化粧台
  6
CONTINUOUS
 62
     7
100
AcDbVertex
100
AcDb2dVertex
 10
815.1890197700143
 20
2094.077681880048
 30
0.0
  0
VERTEX
  5
1D3
330
189
100
AcDbEntity
  8
化粧台
  6
CONTINUOUS
 62
     7
100
AcDbVertex
100
AcDb2dVertex
 10
815.2445100122927
 20
2093.957777408406
 30
0.0
  0
VERTEX
  5
1D4
330
189
100
AcDbEntity
  8
化粧台
  6
CONTINUOUS
 62
     7
100
AcDbVertex
100
AcDb2dVertex
 10
815.2976614789533
 20
2093.839208386686
 30
0.0
  0
VERTEX
  5
1D5
330
189
100
AcDbEntity
  8
化粧台
  6
CONTINUOUS
 62
     7
100
AcDbVertex
100
AcDb2dVertex
 10
815.3475949362793
 20
2093.723703765668
 30
0.0
  0
VERTEX
  5
1D6
330
189
100
AcDbEntity
  8
化粧台
  6
CONTINUOUS
 62
     7
100
AcDbVertex
100
AcDb2dVertex
 10
815.3934311505536
 20
2093.612992496134
 30
0.0
  0
VERTEX
  5
1D7
330
189
100
AcDbEntity
  8
化粧台
  6
CONTINUOUS
 62
     7
100
AcDbVertex
100
AcDb2dVertex
 10
815.434290888059
 20
2093.508803528864
 30
0.0
  0
VERTEX
  5
1D8
330
189
100
AcDbEntity
  8
化粧台
  6
CONTINUOUS
 62
     7
100
AcDbVertex
100
AcDb2dVertex
 10
815.4519770698696
 20
2093.461329798587
 30
0.0
  0
VERTEX
  5
1D9
330
189
100
AcDbEntity
  8
化粧台
  6
CONTINUOUS
 62
     7
100
AcDbVertex
100
AcDb2dVertex
 10
815.4684200921624
 20
2093.415283741724
 30
0.0
  0
VERTEX
  5
1DA
330
189
100
AcDbEntity
  8
化粧台
  6
CONTINUOUS
 62
     7
100
AcDbVertex
100
AcDb2dVertex
 10
815.4837361338842
 20
2093.370177594502
 30
0.0
  0
VERTEX
  5
1DB
330
189
100
AcDbEntity
  8
化粧台
  6
CONTINUOUS
 62
     7
100
AcDbVertex
100
AcDb2dVertex
 10
815.4980413739818
 20
2093.325523593143
 30
0.0
  0
VERTEX
  5
1DC
330
189
100
AcDbEntity
  8
化粧台
  6
CONTINUOUS
 62
     7
100
AcDbVertex
100
AcDb2dVertex
 10
815.5114519914017
 20
2093.280833973874
 30
0.0
  0
VERTEX
  5
1DD
330
189
100
AcDbEntity
  8
化粧台
  6
CONTINUOUS
 62
     7
100
AcDbVertex
100
AcDb2dVertex
 10
815.524084165091
 20
2093.235620972916
 30
0.0
  0
VERTEX
  5
1DE
330
189
100
AcDbEntity
  8
化粧台
  6
CONTINUOUS
 62
     7
100
AcDbVertex
100
AcDb2dVertex
 10
815.5360540739964
 20
2093.189396826496
 30
0.0
  0
VERTEX
  5
1DF
330
189
100
AcDbEntity
  8
化粧台
  6
CONTINUOUS
 62
     7
100
AcDbVertex
100
AcDb2dVertex
 10
815.5474778970644
 20
2093.141673770835
 30
0.0
  0
VERTEX
  5
1E0
330
189
100
AcDbEntity
  8
化粧台
  6
CONTINUOUS
 62
     7
100
AcDbVertex
100
AcDb2dVertex
 10
815.5584718132419
 20
2093.091964042162
 30
0.0
  0
VERTEX
  5
1E1
330
189
100
AcDbEntity
  8
化粧台
  6
CONTINUOUS
 62
     7
100
AcDbVertex
100
AcDb2dVertex
 10
815.569152001476
 20
2093.039779876698
 30
0.0
  0
VERTEX
  5
1E2
330
189
100
AcDbEntity
  8
化粧台
  6
CONTINUOUS
 62
     7
100
AcDbVertex
100
AcDb2dVertex
 10
815.5796346407129
 20
2092.984633510667
 30
0.0
  0
VERTEX
  5
1E3
330
189
100
AcDbEntity
  8
化粧台
  6
CONTINUOUS
 62
     7
100
AcDbVertex
100
AcDb2dVertex
 10
815.5890656773895
 20
2092.931730478258
 30
0.0
  0
VERTEX
  5
1E4
330
189
100
AcDbEntity
  8
化粧台
  6
CONTINUOUS
 62
     7
100
AcDbVertex
100
AcDb2dVertex
 10
815.5982846923573
 20
2092.877342435595
 30
0.0
  0
VERTEX
  5
1E5
330
189
100
AcDbEntity
  8
化粧台
  6
CONTINUOUS
 62
     7
100
AcDbVertex
100
AcDb2dVertex
 10
815.6071471075138
 20
2092.822843877127
 30
0.0
  0
VERTEX
  5
1E6
330
189
100
AcDbEntity
  8
化粧台
  6
CONTINUOUS
 62
     7
100
AcDbVertex
100
AcDb2dVertex
 10
815.6155083447582
 20
2092.769609297303
 30
0.0
  0
VERTEX
  5
1E7
330
189
100
AcDbEntity
  8
化粧台
  6
CONTINUOUS
 62
     7
100
AcDbVertex
100
AcDb2dVertex
 10
815.6232238259885
 20
2092.719013190575
 30
0.0
  0
VERTEX
  5
1E8
330
189
100
AcDbEntity
  8
化粧台
  6
CONTINUOUS
 62
     7
100
AcDbVertex
100
AcDb2dVertex
 10
815.6301489731031
 20
2092.672430051392
 30
0.0
  0
VERTEX
  5
1E9
330
189
100
AcDbEntity
  8
化粧台
  6
CONTINUOUS
 62
     7
100
AcDbVertex
100
AcDb2dVertex
 10
815.6361392080005
 20
2092.631234374202
 30
0.0
  0
VERTEX
  5
1EA
330
189
100
AcDbEntity
  8
化粧台
  6
CONTINUOUS
 62
     7
100
AcDbVertex
100
AcDb2dVertex
 10
815.641049952579
 20
2092.596800653457
 30
0.0
  0
VERTEX
  5
1EB
330
189
100
AcDbEntity
  8
化粧台
  6
CONTINUOUS
 62
     7
100
AcDbVertex
100
AcDb2dVertex
 10
815.6447366287372
 20
2092.570503383606
 30
0.0
  0
VERTEX
  5
1EC
330
189
100
AcDbEntity
  8
化粧台
  6
CONTINUOUS
 62
     7
100
AcDbVertex
100
AcDb2dVertex
 10
815.6470546583732
 20
2092.5537170591
 30
0.0
  0
VERTEX
  5
1ED
330
189
100
AcDbEntity
  8
化粧台
  6
CONTINUOUS
 62
     7
100
AcDbVertex
100
AcDb2dVertex
 10
815.6478594633855
 20
2092.547816174386
 30
0.0
  0
SEQEND
  5
1EE
330
189
100
AcDbEntity
  8
化粧台
  6
CONTINUOUS
 62
     7
  0
ARC
  5
1EF
330
1F
100
AcDbEntity
  8
化粧台
  6
CONTINUOUS
 62
     7
100
AcDbCircle
 10
828.6279160096111
 20
2108.499999999999
 30
0.0
 40
5.0
100
AcDbArc
 50
0.0
 51
90.00000000000001
  0
LINE
  5
1F0
330
1F
100
AcDbEntity
  8
化粧台
  6
CONTINUOUS
 62
     7
100
AcDbLine
 10
570.6792123584647
 20
2092.726593197347
 30
0.0
 11
533.2073436609381
 21
2093.430183334799
 31
0.0
  0
ARC
  5
1F1
330
1F
100
AcDbEntity
  8
化粧台
  6
CONTINUOUS
 62
     7
100
AcDbCircle
 10
533.1134777600593
 20
2088.431064493177
 30
0.0
 40
5.0
100
AcDbArc
 50
88.92431281709273
 51
179.0538951222043
  0
LINE
  5
1F2
330
1F
100
AcDbEntity
  8
化粧台
  6
CONTINUOUS
 62
     7
100
AcDbLine
 10
528.1141594131979
 20
2088.513623967112
 30
0.0
 11
526.1326498958953
 21
1968.525009550174
 31
0.0
  0
ARC
  5
1F3
330
1F
100
AcDbEntity
  8
化粧台
  6
CONTINUOUS
 62
     7
100
AcDbCircle
 10
531.1319682427567
 20
1968.44245007624
 30
0.0
 40
5.0
100
AcDbArc
 50
179.0538951222043
 51
271.3628452964358
  0
LINE
  5
1F4
330
1F
100
AcDbEntity
  8
化粧台
  6
CONTINUOUS
 62
     7
100
AcDbLine
 10
531.2508877163892
 20
1963.443864460409
 30
0.0
 11
570.5246583417749
 21
1964.378211991756
 31
0.0
  0
LINE
  5
1F5
330
1F
100
AcDbEntity
  8
化粧台
  6
CONTINUOUS
 62
     7
100
AcDbLine
 10
813.1758707201462
 20
1958.605388103094
 30
0.0
 11
570.5246583417749
 21
1964.378211991756
 31
0.0
  0
POLYLINE
  5
1F6
330
1F
100
AcDbEntity
  8
化粧台
  6
CONTINUOUS
 62
     7
100
AcDb2dPolyline
 66
     1
 10
0.0
 20
0.0
 30
0.0
 70
   128
  0
VERTEX
  5
1F7
330
1F6
100
AcDbEntity
  8
化粧台
  6
CONTINUOUS
 62
     7
100
AcDbVertex
100
AcDb2dVertex
 10
817.8743338240766
 20
1963.173283388257
 30
0.0
  0
VERTEX
  5
1F8
330
1F6
100
AcDbEntity
  8
化粧台
  6
CONTINUOUS
 62
     7
100
AcDbVertex
100
AcDb2dVertex
 10
817.873507574219
 20
1963.167556996329
 30
0.0
  0
VERTEX
  5
1F9
330
1F6
100
AcDbEntity
  8
化粧台
  6
CONTINUOUS
 62
     7
100
AcDbVertex
100
AcDb2dVertex
 10
817.8711280217723
 20
1963.151267518457
 30
0.0
  0
VERTEX
  5
1FA
330
1F6
100
AcDbEntity
  8
化粧台
  6
CONTINUOUS
 62
     7
100
AcDbVertex
100
AcDb2dVertex
 10
817.8673439624243
 20
1963.125749501507
 30
0.0
  0
VERTEX
  5
1FB
330
1F6
100
AcDbEntity
  8
化粧台
  6
CONTINUOUS
 62
     7
100
AcDbVertex
100
AcDb2dVertex
 10
817.8623041918638
 20
1963.092337492347
 30
0.0
  0
VERTEX
  5
1FC
330
1F6
100
AcDbEntity
  8
化粧台
  6
CONTINUOUS
 62
     7
100
AcDbVertex
100
AcDb2dVertex
 10
817.8561575057793
 20
1963.052366037841
 30
0.0
  0
VERTEX
  5
1FD
330
1F6
100
AcDbEntity
  8
化粧台
  6
CONTINUOUS
 62
     7
100
AcDbVertex
100
AcDb2dVertex
 10
817.8490526998594
 20
1963.007169684858
 30
0.0
  0
VERTEX
  5
1FE
330
1F6
100
AcDbEntity
  8
化粧台
  6
CONTINUOUS
 62
     7
100
AcDbVertex
100
AcDb2dVertex
 10
817.8411385697918
 20
1962.958082980263
 30
0.0
  0
VERTEX
  5
1FF
330
1F6
100
AcDbEntity
  8
化粧台
  6
CONTINUOUS
 62
     7
100
AcDbVertex
100
AcDb2dVertex
 10
817.8325639112659
 20
1962.906440470923
 30
0.0
  0
VERTEX
  5
200
330
1F6
100
AcDbEntity
  8
化粧台
  6
CONTINUOUS
 62
     7
100
AcDbVertex
100
AcDb2dVertex
 10
817.8234775199696
 20
1962.853576703706
 30
0.0
  0
VERTEX
  5
201
330
1F6
100
AcDbEntity
  8
化粧台
  6
CONTINUOUS
 62
     7
100
AcDbVertex
100
AcDb2dVertex
 10
817.8140281915913
 20
1962.800826225477
 30
0.0
  0
VERTEX
  5
202
330
1F6
100
AcDbEntity
  8
化粧台
  6
CONTINUOUS
 62
     7
100
AcDbVertex
100
AcDb2dVertex
 10
817.8043647218194
 20
1962.749523583102
 30
0.0
  0
VERTEX
  5
203
330
1F6
100
AcDbEntity
  8
化粧台
  6
CONTINUOUS
 62
     7
100
AcDbVertex
100
AcDb2dVertex
 10
817.793590777166
 20
1962.695876493236
 30
0.0
  0
VERTEX
  5
204
330
1F6
100
AcDbEntity
  8
化粧台
  6
CONTINUOUS
 62
     7
100
AcDbVertex
100
AcDb2dVertex
 10
817.7826192793252
 20
1962.645135879899
 30
0.0
  0
VERTEX
  5
205
330
1F6
100
AcDbEntity
  8
化粧台
  6
CONTINUOUS
 62
     7
100
AcDbVertex
100
AcDb2dVertex
 10
817.7713320619985
 20
1962.596827971365
 30
0.0
  0
VERTEX
  5
206
330
1F6
100
AcDbEntity
  8
化粧台
  6
CONTINUOUS
 62
     7
100
AcDbVertex
100
AcDb2dVertex
 10
817.759610958886
 20
1962.550478995908
 30
0.0
  0
VERTEX
  5
207
330
1F6
100
AcDbEntity
  8
化粧台
  6
CONTINUOUS
 62
     7
100
AcDbVertex
100
AcDb2dVertex
 10
817.7473378036892
 20
1962.505615181801
 30
0.0
  0
VERTEX
  5
208
330
1F6
100
AcDbEntity
  8
化粧台
  6
CONTINUOUS
 62
     7
100
AcDbVertex
100
AcDb2dVertex
 10
817.7343944301088
 20
1962.461762757316
 30
0.0
  0
VERTEX
  5
209
330
1F6
100
AcDbEntity
  8
化粧台
  6
CONTINUOUS
 62
     7
100
AcDbVertex
100
AcDb2dVertex
 10
817.7206626718455
 20
1962.418447950728
 30
0.0
  0
VERTEX
  5
20A
330
1F6
100
AcDbEntity
  8
化粧台
  6
CONTINUOUS
 62
     7
100
AcDbVertex
100
AcDb2dVertex
 10
817.7060243626
 20
1962.375196990311
 30
0.0
  0
VERTEX
  5
20B
330
1F6
100
AcDbEntity
  8
化粧台
  6
CONTINUOUS
 62
     7
100
AcDbVertex
100
AcDb2dVertex
 10
817.6903613360737
 20
1962.331536104336
 30
0.0
  0
VERTEX
  5
20C
330
1F6
100
AcDbEntity
  8
化粧台
  6
CONTINUOUS
 62
     7
100
AcDbVertex
100
AcDb2dVertex
 10
817.673555425967
 20
1962.286991521079
 30
0.0
  0
VERTEX
  5
20D
330
1F6
100
AcDbEntity
  8
化粧台
  6
CONTINUOUS
 62
     7
100
AcDbVertex
100
AcDb2dVertex
 10
817.6554884659811
 20
1962.241089468811
 30
0.0
  0
VERTEX
  5
20E
330
1F6
100
AcDbEntity
  8
化粧台
  6
CONTINUOUS
 62
     7
100
AcDbVertex
100
AcDb2dVertex
 10
817.6134831473553
 20
1962.139723362881
 30
0.0
  0
VERTEX
  5
20F
330
1F6
100
AcDbEntity
  8
化粧台
  6
CONTINUOUS
 62
     7
100
AcDbVertex
100
AcDb2dVertex
 10
817.5663638886228
 20
1962.032043744732
 30
0.0
  0
VERTEX
  5
210
330
1F6
100
AcDbEntity
  8
化粧台
  6
CONTINUOUS
 62
     7
100
AcDbVertex
100
AcDb2dVertex
 10
817.515037047255
 20
1961.919730493134
 30
0.0
  0
VERTEX
  5
211
330
1F6
100
AcDbEntity
  8
化粧台
  6
CONTINUOUS
 62
     7
100
AcDbVertex
100
AcDb2dVertex
 10
817.460408980721
 20
1961.804463486853
 30
0.0
  0
VERTEX
  5
212
330
1F6
100
AcDbEntity
  8
化粧台
  6
CONTINUOUS
 62
     7
100
AcDbVertex
100
AcDb2dVertex
 10
817.4033860464915
 20
1961.687922604656
 30
0.0
  0
VERTEX
  5
213
330
1F6
100
AcDbEntity
  8
化粧台
  6
CONTINUOUS
 62
     7
100
AcDbVertex
100
AcDb2dVertex
 10
817.3448746020364
 20
1961.57178772531
 30
0.0
  0
VERTEX
  5
214
330
1F6
100
AcDbEntity
  8
化粧台
  6
CONTINUOUS
 62
     7
100
AcDbVertex
100
AcDb2dVertex
 10
817.2857810048263
 20
1961.457738727582
 30
0.0
  0
VERTEX
  5
215
330
1F6
100
AcDbEntity
  8
化粧台
  6
CONTINUOUS
 62
     7
100
AcDbVertex
100
AcDb2dVertex
 10
817.2270116123311
 20
1961.347455490239
 30
0.0
  0
VERTEX
  5
216
330
1F6
100
AcDbEntity
  8
化粧台
  6
CONTINUOUS
 62
     7
100
AcDbVertex
100
AcDb2dVertex
 10
817.1694727820213
 20
1961.242617892048
 30
0.0
  0
VERTEX
  5
217
330
1F6
100
AcDbEntity
  8
化粧台
  6
CONTINUOUS
 62
     7
100
AcDbVertex
100
AcDb2dVertex
 10
817.1140708713668
 20
1961.144905811777
 30
0.0
  0
VERTEX
  5
218
330
1F6
100
AcDbEntity
  8
化粧台
  6
CONTINUOUS
 62
     7
100
AcDbVertex
100
AcDb2dVertex
 10
817.061712237838
 20
1961.055999128191
 30
0.0
  0
VERTEX
  5
219
330
1F6
100
AcDbEntity
  8
化粧台
  6
CONTINUOUS
 62
     7
100
AcDbVertex
100
AcDb2dVertex
 10
817.0352259714347
 20
1961.012578543707
 30
0.0
  0
VERTEX
  5
21A
330
1F6
100
AcDbEntity
  8
化粧台
  6
CONTINUOUS
 62
     7
100
AcDbVertex
100
AcDb2dVertex
 10
817.0095422002898
 20
1960.971707356356
 30
0.0
  0
VERTEX
  5
21B
330
1F6
100
AcDbEntity
  8
化粧台
  6
CONTINUOUS
 62
     7
100
AcDbVertex
100
AcDb2dVertex
 10
816.9843363149853
 20
1960.932942786978
 30
0.0
  0
VERTEX
  5
21C
330
1F6
100
AcDbEntity
  8
化粧台
  6
CONTINUOUS
 62
     7
100
AcDbVertex
100
AcDb2dVertex
 10
816.959283706103
 20
1960.895842056415
 30
0.0
  0
VERTEX
  5
21D
330
1F6
100
AcDbEntity
  8
化粧台
  6
CONTINUOUS
 62
     7
100
AcDbVertex
100
AcDb2dVertex
 10
816.9340597642242
 20
1960.859962385506
 30
0.0
  0
VERTEX
  5
21E
330
1F6
100
AcDbEntity
  8
化粧台
  6
CONTINUOUS
 62
     7
100
AcDbVertex
100
AcDb2dVertex
 10
816.9083398799316
 20
1960.824860995094
 30
0.0
  0
VERTEX
  5
21F
330
1F6
100
AcDbEntity
  8
化粧台
  6
CONTINUOUS
 62
     7
100
AcDbVertex
100
AcDb2dVertex
 10
816.8817994438066
 20
1960.790095106018
 30
0.0
  0
VERTEX
  5
220
330
1F6
100
AcDbEntity
  8
化粧台
  6
CONTINUOUS
 62
     7
100
AcDbVertex
100
AcDb2dVertex
 10
816.8541138464311
 20
1960.755221939119
 30
0.0
  0
VERTEX
  5
221
330
1F6
100
AcDbEntity
  8
化粧台
  6
CONTINUOUS
 62
     7
100
AcDbVertex
100
AcDb2dVertex
 10
816.8249584783865
 20
1960.719798715239
 30
0.0
  0
VERTEX
  5
222
330
1F6
100
AcDbEntity
  8
化粧台
  6
CONTINUOUS
 62
     7
100
AcDbVertex
100
AcDb2dVertex
 10
816.794008730255
 20
1960.683382655217
 30
0.0
  0
VERTEX
  5
223
330
1F6
100
AcDbEntity
  8
化粧台
  6
CONTINUOUS
 62
     7
100
AcDbVertex
100
AcDb2dVertex
 10
816.7609399926182
 20
1960.645530979895
 30
0.0
  0
VERTEX
  5
224
330
1F6
100
AcDbEntity
  8
化粧台
  6
CONTINUOUS
 62
     7
100
AcDbVertex
100
AcDb2dVertex
 10
816.6883885177176
 20
1960.56518788682
 30
0.0
  0
VERTEX
  5
225
330
1F6
100
AcDbEntity
  8
化粧台
  6
CONTINUOUS
 62
     7
100
AcDbVertex
100
AcDb2dVertex
 10
816.6077710103108
 20
1960.478962346338
 30
0.0
  0
VERTEX
  5
226
330
1F6
100
AcDbEntity
  8
化粧台
  6
CONTINUOUS
 62
     7
100
AcDbVertex
100
AcDb2dVertex
 10
816.5206597034606
 20
1960.388380845655
 30
0.0
  0
VERTEX
  5
227
330
1F6
100
AcDbEntity
  8
化粧台
  6
CONTINUOUS
 62
     7
100
AcDbVertex
100
AcDb2dVertex
 10
816.4286268302301
 20
1960.294969871978
 30
0.0
  0
VERTEX
  5
228
330
1F6
100
AcDbEntity
  8
化粧台
  6
CONTINUOUS
 62
     7
100
AcDbVertex
100
AcDb2dVertex
 10
816.3332446236825
 20
1960.200255912514
 30
0.0
  0
VERTEX
  5
229
330
1F6
100
AcDbEntity
  8
化粧台
  6
CONTINUOUS
 62
     7
100
AcDbVertex
100
AcDb2dVertex
 10
816.2360853168805
 20
1960.105765454469
 30
0.0
  0
VERTEX
  5
22A
330
1F6
100
AcDbEntity
  8
化粧台
  6
CONTINUOUS
 62
     7
100
AcDbVertex
100
AcDb2dVertex
 10
816.1387211428871
 20
1960.013024985051
 30
0.0
  0
VERTEX
  5
22B
330
1F6
100
AcDbEntity
  8
化粧台
  6
CONTINUOUS
 62
     7
100
AcDbVertex
100
AcDb2dVertex
 10
816.0427243347656
 20
1959.923560991464
 30
0.0
  0
VERTEX
  5
22C
330
1F6
100
AcDbEntity
  8
化粧台
  6
CONTINUOUS
 62
     7
100
AcDbVertex
100
AcDb2dVertex
 10
815.9496671255786
 20
1959.838899960917
 30
0.0
  0
VERTEX
  5
22D
330
1F6
100
AcDbEntity
  8
化粧台
  6
CONTINUOUS
 62
     7
100
AcDbVertex
100
AcDb2dVertex
 10
815.8611217483892
 20
1959.760568380616
 30
0.0
  0
VERTEX
  5
22E
330
1F6
100
AcDbEntity
  8
化粧台
  6
CONTINUOUS
 62
     7
100
AcDbVertex
100
AcDb2dVertex
 10
815.7786604362609
 20
1959.690092737768
 30
0.0
  0
VERTEX
  5
22F
330
1F6
100
AcDbEntity
  8
化粧台
  6
CONTINUOUS
 62
     7
100
AcDbVertex
100
AcDb2dVertex
 10
815.7394805203035
 20
1959.657691841399
 30
0.0
  0
VERTEX
  5
230
330
1F6
100
AcDbEntity
  8
化粧台
  6
CONTINUOUS
 62
     7
100
AcDbVertex
100
AcDb2dVertex
 10
815.7018230667305
 20
1959.62739617615
 30
0.0
  0
VERTEX
  5
231
330
1F6
100
AcDbEntity
  8
化粧台
  6
CONTINUOUS
 62
     7
100
AcDbVertex
100
AcDb2dVertex
 10
815.6652333462594
 20
1959.598888019963
 30
0.0
  0
VERTEX
  5
232
330
1F6
100
AcDbEntity
  8
化粧台
  6
CONTINUOUS
 62
     7
100
AcDbVertex
100
AcDb2dVertex
 10
815.6292566296082
 20
1959.571849650782
 30
0.0
  0
VERTEX
  5
233
330
1F6
100
AcDbEntity
  8
化粧台
  6
CONTINUOUS
 62
     7
100
AcDbVertex
100
AcDb2dVertex
 10
815.5934381874943
 20
1959.545963346551
 30
0.0
  0
VERTEX
  5
234
330
1F6
100
AcDbEntity
  8
化粧台
  6
CONTINUOUS
 62
     7
100
AcDbVertex
100
AcDb2dVertex
 10
815.5573232906358
 20
1959.520911385213
 30
0.0
  0
VERTEX
  5
235
330
1F6
100
AcDbEntity
  8
化粧台
  6
CONTINUOUS
 62
     7
100
AcDbVertex
100
AcDb2dVertex
 10
815.5204572097502
 20
1959.496376044713
 30
0.0
  0
VERTEX
  5
236
330
1F6
100
AcDbEntity
  8
化粧台
  6
CONTINUOUS
 62
     7
100
AcDbVertex
100
AcDb2dVertex
 10
815.4823852155553
 20
1959.472039602993
 30
0.0
  0
VERTEX
  5
237
330
1F6
100
AcDbEntity
  8
化粧台
  6
CONTINUOUS
 62
     7
100
AcDbVertex
100
AcDb2dVertex
 10
815.4426525787688
 20
1959.447584337998
 30
0.0
  0
VERTEX
  5
238
330
1F6
100
AcDbEntity
  8
化粧台
  6
CONTINUOUS
 62
     7
100
AcDbVertex
100
AcDb2dVertex
 10
815.4008045701087
 20
1959.422692527671
 30
0.0
  0
VERTEX
  5
239
330
1F6
100
AcDbEntity
  8
化粧台
  6
CONTINUOUS
 62
     7
100
AcDbVertex
100
AcDb2dVertex
 10
815.3563864602922
 20
1959.397046449955
 30
0.0
  0
VERTEX
  5
23A
330
1F6
100
AcDbEntity
  8
化粧台
  6
CONTINUOUS
 62
     7
100
AcDbVertex
100
AcDb2dVertex
 10
815.2647772555172
 20
1959.345987462028
 30
0.0
  0
VERTEX
  5
23B
330
1F6
100
AcDbEntity
  8
化粧台
  6
CONTINUOUS
 62
     7
100
AcDbVertex
100
AcDb2dVertex
 10
815.1641297959789
 20
1959.291991847415
 30
0.0
  0
VERTEX
  5
23C
330
1F6
100
AcDbEntity
  8
化粧台
  6
CONTINUOUS
 62
     7
100
AcDbVertex
100
AcDb2dVertex
 10
815.0561730324582
 20
1959.235938839836
 30
0.0
  0
VERTEX
  5
23D
330
1F6
100
AcDbEntity
  8
化粧台
  6
CONTINUOUS
 62
     7
100
AcDbVertex
100
AcDb2dVertex
 10
814.9426359157359
 20
1959.178707673006
 30
0.0
  0
VERTEX
  5
23E
330
1F6
100
AcDbEntity
  8
化粧台
  6
CONTINUOUS
 62
     7
100
AcDbVertex
100
AcDb2dVertex
 10
814.8252473965928
 20
1959.121177580643
 30
0.0
  0
VERTEX
  5
23F
330
1F6
100
AcDbEntity
  8
化粧台
  6
CONTINUOUS
 62
     7
100
AcDbVertex
100
AcDb2dVertex
 10
814.7057364258096
 20
1959.064227796464
 30
0.0
  0
VERTEX
  5
240
330
1F6
100
AcDbEntity
  8
化粧台
  6
CONTINUOUS
 62
     7
100
AcDbVertex
100
AcDb2dVertex
 10
814.5858319541678
 20
1959.008737554186
 30
0.0
  0
VERTEX
  5
241
330
1F6
100
AcDbEntity
  8
化粧台
  6
CONTINUOUS
 62
     7
100
AcDbVertex
100
AcDb2dVertex
 10
814.4672629324474
 20
1958.955586087525
 30
0.0
  0
VERTEX
  5
242
330
1F6
100
AcDbEntity
  8
化粧台
  6
CONTINUOUS
 62
     7
100
AcDbVertex
100
AcDb2dVertex
 10
814.3517583114294
 20
1958.9056526302
 30
0.0
  0
VERTEX
  5
243
330
1F6
100
AcDbEntity
  8
化粧台
  6
CONTINUOUS
 62
     7
100
AcDbVertex
100
AcDb2dVertex
 10
814.2410470418951
 20
1958.859816415925
 30
0.0
  0
VERTEX
  5
244
330
1F6
100
AcDbEntity
  8
化粧台
  6
CONTINUOUS
 62
     7
100
AcDbVertex
100
AcDb2dVertex
 10
814.136858074625
 20
1958.81895667842
 30
0.0
  0
VERTEX
  5
245
330
1F6
100
AcDbEntity
  8
化粧台
  6
CONTINUOUS
 62
     7
100
AcDbVertex
100
AcDb2dVertex
 10
814.0893843443473
 20
1958.801270496609
 30
0.0
  0
VERTEX
  5
246
330
1F6
100
AcDbEntity
  8
化粧台
  6
CONTINUOUS
 62
     7
100
AcDbVertex
100
AcDb2dVertex
 10
814.0433382874851
 20
1958.784827474317
 30
0.0
  0
VERTEX
  5
247
330
1F6
100
AcDbEntity
  8
化粧台
  6
CONTINUOUS
 62
     7
100
AcDbVertex
100
AcDb2dVertex
 10
813.9982321402628
 20
1958.769511432595
 30
0.0
  0
VERTEX
  5
248
330
1F6
100
AcDbEntity
  8
化粧台
  6
CONTINUOUS
 62
     7
100
AcDbVertex
100
AcDb2dVertex
 10
813.9535781389045
 20
1958.755206192498
 30
0.0
  0
VERTEX
  5
249
330
1F6
100
AcDbEntity
  8
化粧台
  6
CONTINUOUS
 62
     7
100
AcDbVertex
100
AcDb2dVertex
 10
813.9088885196345
 20
1958.741795575078
 30
0.0
  0
VERTEX
  5
24A
330
1F6
100
AcDbEntity
  8
化粧台
  6
CONTINUOUS
 62
     7
100
AcDbVertex
100
AcDb2dVertex
 10
813.8636755186768
 20
1958.729163401388
 30
0.0
  0
VERTEX
  5
24B
330
1F6
100
AcDbEntity
  8
化粧台
  6
CONTINUOUS
 62
     7
100
AcDbVertex
100
AcDb2dVertex
 10
813.8174513722563
 20
1958.717193492483
 30
0.0
  0
VERTEX
  5
24C
330
1F6
100
AcDbEntity
  8
化粧台
  6
CONTINUOUS
 62
     7
100
AcDbVertex
100
AcDb2dVertex
 10
813.7697283165968
 20
1958.705769669415
 30
0.0
  0
VERTEX
  5
24D
330
1F6
100
AcDbEntity
  8
化粧台
  6
CONTINUOUS
 62
     7
100
AcDbVertex
100
AcDb2dVertex
 10
813.7200185879229
 20
1958.694775753237
 30
0.0
  0
VERTEX
  5
24E
330
1F6
100
AcDbEntity
  8
化粧台
  6
CONTINUOUS
 62
     7
100
AcDbVertex
100
AcDb2dVertex
 10
813.6678344224588
 20
1958.684095565004
 30
0.0
  0
VERTEX
  5
24F
330
1F6
100
AcDbEntity
  8
化粧台
  6
CONTINUOUS
 62
     7
100
AcDbVertex
100
AcDb2dVertex
 10
813.6126880564286
 20
1958.673612925767
 30
0.0
  0
VERTEX
  5
250
330
1F6
100
AcDbEntity
  8
化粧台
  6
CONTINUOUS
 62
     7
100
AcDbVertex
100
AcDb2dVertex
 10
813.5597850240198
 20
1958.66418188909
 30
0.0
  0
VERTEX
  5
251
330
1F6
100
AcDbEntity
  8
化粧台
  6
CONTINUOUS
 62
     7
100
AcDbVertex
100
AcDb2dVertex
 10
813.5053969813565
 20
1958.654962874123
 30
0.0
  0
VERTEX
  5
252
330
1F6
100
AcDbEntity
  8
化粧台
  6
CONTINUOUS
 62
     7
100
AcDbVertex
100
AcDb2dVertex
 10
813.4508984228883
 20
1958.646100458966
 30
0.0
  0
VERTEX
  5
253
330
1F6
100
AcDbEntity
  8
化粧台
  6
CONTINUOUS
 62
     7
100
AcDbVertex
100
AcDb2dVertex
 10
813.3976638430652
 20
1958.637739221721
 30
0.0
  0
VERTEX
  5
254
330
1F6
100
AcDbEntity
  8
化粧台
  6
CONTINUOUS
 62
     7
100
AcDbVertex
100
AcDb2dVertex
 10
813.3470677363367
 20
1958.630023740491
 30
0.0
  0
VERTEX
  5
255
330
1F6
100
AcDbEntity
  8
化粧台
  6
CONTINUOUS
 62
     7
100
AcDbVertex
100
AcDb2dVertex
 10
813.300484597153
 20
1958.623098593376
 30
0.0
  0
VERTEX
  5
256
330
1F6
100
AcDbEntity
  8
化粧台
  6
CONTINUOUS
 62
     7
100
AcDbVertex
100
AcDb2dVertex
 10
813.2592889199638
 20
1958.617108358479
 30
0.0
  0
VERTEX
  5
257
330
1F6
100
AcDbEntity
  8
化粧台
  6
CONTINUOUS
 62
     7
100
AcDbVertex
100
AcDb2dVertex
 10
813.2248551992186
 20
1958.6121976139
 30
0.0
  0
VERTEX
  5
258
330
1F6
100
AcDbEntity
  8
化粧台
  6
CONTINUOUS
 62
     7
100
AcDbVertex
100
AcDb2dVertex
 10
813.1985579293678
 20
1958.608510937742
 30
0.0
  0
VERTEX
  5
259
330
1F6
100
AcDbEntity
  8
化粧台
  6
CONTINUOUS
 62
     7
100
AcDbVertex
100
AcDb2dVertex
 10
813.1817716048605
 20
1958.606192908106
 30
0.0
  0
VERTEX
  5
25A
330
1F6
100
AcDbEntity
  8
化粧台
  6
CONTINUOUS
 62
     7
100
AcDbVertex
100
AcDb2dVertex
 10
813.1758707201471
 20
1958.605388103094
 30
0.0
  0
SEQEND
  5
25B
330
1F6
100
AcDbEntity
  8
化粧台
  6
CONTINUOUS
 62
     7
  0
ARC
  5
25C
330
1F
100
AcDbEntity
  8
化粧台
  6
CONTINUOUS
 62
     7
100
AcDbCircle
 10
511.37208399039
 20
2108.499999999999
 30
0.0
 40
5.0
100
AcDbArc
 50
90.00000000000001
 51
180.0
  0
ARC
  5
25D
330
1F
100
AcDbEntity
  8
化粧台
  6
CONTINUOUS
 62
     7
100
AcDbCircle
 10
507.0000000000002
 20
2189.999999999999
 30
0.0
 40
5.0
100
AcDbArc
 50
90.00000000000001
 51
180.0
  0
ARC
  5
25E
330
1F
100
AcDbEntity
  8
化粧台
  6
CONTINUOUS
 62
     7
100
AcDbCircle
 10
505.0000000000001
 20
2194.999999999999
 30
0.0
 40
10.0
100
AcDbArc
 50
90.00000000000001
 51
180.0
  0
LINE
  5
25F
330
1F
100
AcDbEntity
  8
化粧台
  6
EXLTYPE3
 62
     6
100
AcDbLine
 10
533.0000000000001
 20
2054.0
 30
0.0
 11
614.8000000000003
 21
2054.0
 31
0.0
  0
DIMENSION
  5
261
330
1F
100
AcDbEntity
  8
化粧台
  6
CONTINUOUS
 62
     3
100
AcDbDimension
  2
*D15
 10
845.0
 20
1852.0
 30
0.0
 11
670.0000000000001
 21
1875.499999940395
 31
0.0
 70
   160
  3
ISO-25
100
AcDbAlignedDimension
 13
495.0
 23
1936.3627052861
 33
0.0
 14
845.0
 24
1936.3627052861
 34
0.0
100
AcDbRotatedDimension
1001
ACAD
1000
DSTYLE
1002
{
1070
   270
1070
     2
1070
     6
1000
EX_NORM
1070
     7
1000
EX_NORM
1070
    41
1040
30.0
1070
    42
1040
6.99999988079071
1070
    44
1040
10.0
1070
    73
1070
     0
1070
    74
1070
     0
1070
    75
1070
     0
1070
    76
1070
     0
1070
    77
1070
     1
1070
    78
1070
     0
1070
   140
1040
40.0
1070
   147
1040
0.0
1070
   173
1070
     1
1070
   176
1070
     3
1070
   177
1070
     3
1070
   178
1070
     2
1070
   271
1070
     0
1070
   277
1070
     2
1070
   279
1070
     2
1070
   280
1070
     0
1070
   287
1070
     5
1070
   340
1005
260
1002
}
  0
LINE
  5
26F
330
1F
100
AcDbEntity
  8
化粧台
  6
EXLTYPE3
 62
     6
100
AcDbLine
 10
670.0000000000001
 20
2251.1
 30
0.0
 11
670.0000000000001
 21
1907.207428524799
 31
0.0
  0
LEADER
  5
270
330
1F
100
AcDbEntity
  8
化粧台
  6
CONTINUOUS
 62
     3
100
AcDbLeader
  3
ISO-25
 76
     3
 10
680.825467499998
 20
556.26543577403
 30
0.0
 10
748.1712099770709
 20
498.9495132005545
 30
0.0
 10
875.3028305917644
 20
498.9495132005545
 30
0.0
1001
ACAD
1000
DSTYLE
1002
{
1070
     5
1000
EX_NORM
1070
    41
1040
30.0
1070
   341
1005
4A
1002
}
  0
TEXT
  5
271
330
1F
100
AcDbEntity
  8
化粧台
  6
CONTINUOUS
 62
     2
100
AcDbText
 10
753.1712099770709
 20
502.4495131409498
 30
0.0
 40
40.0
  1
床給水
 41
1.132352941176471
  7
EXCADSTD
 72
     5
 11
863.1712099770709
 21
502.4495131409498
 31
0.0
100
AcDbText
  0
DIMENSION
  5
272
330
1F
100
AcDbEntity
  8
化粧台
  6
CONTINUOUS
 62
     3
100
AcDbDimension
  2
*D16
 10
1066.0
 20
1362.674193999999
 30
0.0
 11
1042.500000059604
 21
962.6741844999995
 31
0.0
 70
   160
  1
（800）
  3
ISO-25
100
AcDbAlignedDimension
 13
891.4500045
 23
562.6741750000001
 33
0.0
 14
840.0
 24
1362.674193999999
 34
0.0
 50
90.0
100
AcDbRotatedDimension
1001
ACAD
1000
DSTYLE
1002
{
1070
   270
1070
     2
1070
     6
1000
EX_NORM
1070
     7
1000
EX_NORM
1070
    41
1040
30.0
1070
    42
1040
6.99999988079071
1070
    44
1040
9.999999999999773
1070
    73
1070
     0
1070
    74
1070
     0
1070
    75
1070
     0
1070
    76
1070
     0
1070
    77
1070
     1
1070
    78
1070
     0
1070
   140
1040
40.0
1070
   147
1040
0.0
1070
   173
1070
     1
1070
   176
1070
     3
1070
   177
1070
     3
1070
   178
1070
     2
1070
   271
1070
     0
1070
   277
1070
     2
1070
   279
1070
     2
1070
   280
1070
     0
1070
   287
1070
     5
1070
   340
1005
260
1002
}
  0
POLYLINE
  5
27F
330
1F
100
AcDbEntity
  8
化粧台
  6
CONTINUOUS
 62
     3
100
AcDb2dPolyline
 66
     1
 10
0.0
 20
0.0
 30
0.0
 70
   128
  0
VERTEX
  5
280
330
27F
100
AcDbEntity
  8
化粧台
  6
CONTINUOUS
 62
     3
100
AcDbVertex
100
AcDb2dVertex
 10
1583.5
 20
893.1741750000001
 30
0.0
  0
VERTEX
  5
281
330
27F
100
AcDbEntity
  8
化粧台
  6
CONTINUOUS
 62
     3
100
AcDbVertex
100
AcDb2dVertex
 10
1616.1
 20
925.7741750000002
 30
0.0
  0
VERTEX
  5
282
330
27F
100
AcDbEntity
  8
化粧台
  6
CONTINUOUS
 62
     3
100
AcDbVertex
100
AcDb2dVertex
 10
1725.400000000001
 20
925.7741750000002
 30
0.0
  0
SEQEND
  5
283
330
27F
100
AcDbEntity
  8
化粧台
  6
CONTINUOUS
 62
     3
  0
LINE
  5
284
330
1F
100
AcDbEntity
  8
化粧台
  6
CONTINUOUS
 62
     3
100
AcDbLine
 10
1601.177669529664
 20
917.9229123415294
 30
0.0
 11
1583.5
 21
893.1741750000001
 31
0.0
  0
LINE
  5
285
330
1F
100
AcDbEntity
  8
化粧台
  6
CONTINUOUS
 62
     3
100
AcDbLine
 10
1583.5
 20
893.1741750000001
 30
0.0
 11
1608.248737341529
 21
910.8518445296638
 31
0.0
  0
TEXT
  5
286
330
1F
100
AcDbEntity
  8
化粧台
  6
CONTINUOUS
 62
     2
100
AcDbText
 10
1616.1
 20
929.2741749403956
 30
0.0
 40
40.0
  1
Ｒ１/２
 41
0.8342465753424658
  7
EXCADSTD
 72
     5
 11
1732.1
 21
929.2741749403956
 31
0.0
100
AcDbText
  0
DIMENSION
  5
287
330
1F
100
AcDbEntity
  8
化粧台
  6
CONTINUOUS
 62
     3
100
AcDbDimension
  2
*D17
 10
996.9999999999999
 20
1262.674194
 30
0.0
 11
973.5000000596045
 21
912.6741844999999
 31
0.0
 70
   160
  3
ISO-25
100
AcDbAlignedDimension
 13
844.1251145000001
 23
562.6741750000001
 33
0.0
 14
844.9500045
 24
1262.674194
 34
0.0
 50
90.0
100
AcDbRotatedDimension
1001
ACAD
1000
DSTYLE
1002
{
1070
   270
1070
     2
1070
     6
1000
EX_NORM
1070
     7
1000
EX_NORM
1070
    41
1040
30.0
1070
    42
1040
6.99999988079071
1070
    44
1040
9.999999999999886
1070
    73
1070
     0
1070
    74
1070
     0
1070
    75
1070
     0
1070
    76
1070
     0
1070
    77
1070
     1
1070
    78
1070
     0
1070
   140
1040
40.0
1070
   147
1040
0.0
1070
   173
1070
     1
1070
   176
1070
     3
1070
   177
1070
     3
1070
   178
1070
     2
1070
   271
1070
     0
1070
   277
1070
     2
1070
   279
1070
     2
1070
   280
1070
     0
1070
   287
1070
     5
1070
   340
1005
260
1002
}
  0
DIMENSION
  5
294
330
1F
100
AcDbEntity
  8
化粧台
  6
CONTINUOUS
 62
     3
100
AcDbDimension
  2
*D18
 10
996.9999999999991
 20
1362.674193999999
 30
0.0
 11
973.500000059604
 21
1312.674193999999
 31
0.0
 70
   160
  3
ISO-25
100
AcDbAlignedDimension
 13
844.9500045
 23
1262.674194
 33
0.0
 14
840.0
 24
1362.674193999999
 34
0.0
 50
90.0
100
AcDbRotatedDimension
1001
ACAD
1000
DSTYLE
1002
{
1070
   270
1070
     2
1070
     6
1000
EX_NORM
1070
     7
1000
EX_NORM
1070
    41
1040
30.0
1070
    42
1040
6.99999988079071
1070
    44
1040
9.999999999998977
1070
    73
1070
     0
1070
    74
1070
     0
1070
    75
1070
     0
1070
    76
1070
     0
1070
    77
1070
     1
1070
    78
1070
     0
1070
   140
1040
40.0
1070
   147
1040
0.0
1070
   173
1070
     1
1070
   176
1070
     3
1070
   177
1070
     3
1070
   178
1070
     2
1070
   271
1070
     0
1070
   277
1070
     2
1070
   279
1070
     2
1070
   280
1070
     0
1070
   287
1070
     5
1070
   340
1005
260
1002
}
  0
CIRCLE
  5
2A1
330
1F
100
AcDbEntity
  8
化粧台
  6
CONTINUOUS
 62
     6
100
AcDbCircle
 10
570.0000000000182
 20
2054.0000000004
 30
0.0
 40
17.0
  0
CIRCLE
  5
2A2
330
1F
100
AcDbEntity
  8
化粧台
  6
CONTINUOUS
 62
     2
100
AcDbCircle
 10
570.0000000000182
 20
2054.0000000004
 30
0.0
 40
27.85
  0
CIRCLE
  5
2A3
330
1F
100
AcDbEntity
  8
化粧台
  6
CONTINUOUS
 62
     2
100
AcDbCircle
 10
570.0000000000182
 20
2054.0000000004
 30
0.0
 40
14.50000000000001
  0
LINE
  5
2A4
330
1F
100
AcDbEntity
  8
化粧台
  6
CONTINUOUS
 62
     2
100
AcDbLine
 10
557.442631645321
 20
2046.750000000095
 30
0.0
 11
570.0000000000182
 21
2053.999999999991
 31
0.0
  0
LINE
  5
2A5
330
1F
100
AcDbEntity
  8
化粧台
  6
CONTINUOUS
 62
     2
100
AcDbLine
 10
582.5573683547154
 20
2046.750000000095
 30
0.0
 11
570.0000000000182
 21
2053.999999999991
 31
0.0
  0
LINE
  5
2A6
330
1F
100
AcDbEntity
  8
化粧台
  6
CONTINUOUS
 62
     2
100
AcDbLine
 10
570.00000000002
 20
2054.0
 30
0.0
 11
570.00000000002
 21
2068.5000000004
 31
0.0
  0
LINE
  5
2A7
330
1F
100
AcDbEntity
  8
化粧台
  6
CONTINUOUS
 62
     7
100
AcDbLine
 10
994.9500045000005
 20
2205.0
 30
0.0
 11
296.9500045000005
 21
2205.0
 31
0.0
  0
TEXT
  5
2A8
330
1F
100
AcDbEntity
  8
化粧台
  6
CONTINUOUS
 62
     2
100
AcDbText
 10
295.1500045002728
 20
2156.99999999995
 30
0.0
 40
40.0
  1
Ｗ.Ｌ.
 41
0.9086538461538461
  7
EXCADSTD
 72
     5
 11
385.1500045002728
 21
2156.99999999995
 31
0.0
100
AcDbText
  0
LINE
  5
2A9
330
1F
100
AcDbEntity
  8
化粧台
  6
CONTINUOUS
 62
     7
100
AcDbLine
 10
296.9500045000004
 20
562.6741750000002
 30
0.0
 11
891.4500045000005
 21
562.6741750000002
 31
0.0
  0
ARC
  5
2AA
330
1F
100
AcDbEntity
  8
化粧台
  6
CONTINUOUS
 62
     7
100
AcDbCircle
 10
500.0
 20
1357.674193999983
 30
0.0
 40
5.0
100
AcDbArc
 50
90.00000000000001
 51
186.0255750083663
  0
ARC
  5
2AB
330
1F
100
AcDbEntity
  8
化粧台
  6
CONTINUOUS
 62
     7
100
AcDbCircle
 10
509.5
 20
1267.674193999979
 30
0.0
 40
5.0
100
AcDbArc
 50
186.0255750083667
 51
270.0
  0
ARC
  5
2AC
330
1F
100
AcDbEntity
  8
化粧台
  6
CONTINUOUS
 62
     7
100
AcDbCircle
 10
830.5000000000001
 20
1267.674193999979
 30
0.0
 40
5.0
100
AcDbArc
 50
270.0
 51
353.9744249916336
  0
ARC
  5
2AD
330
1F
100
AcDbEntity
  8
化粧台
  6
CONTINUOUS
 62
     7
100
AcDbCircle
 10
840.0
 20
1357.674193999983
 30
0.0
 40
5.0
100
AcDbArc
 50
353.9744249916333
 51
90.00000000000001
  0
LINE
  5
2AE
330
1F
100
AcDbEntity
  8
化粧台
  6
CONTINUOUS
 62
     7
100
AcDbLine
 10
500.0
 20
1362.674193999983
 30
0.0
 11
840.0
 21
1362.674193999983
 31
0.0
  0
LINE
  5
2AF
330
1F
100
AcDbEntity
  8
化粧台
  6
CONTINUOUS
 62
     7
100
AcDbLine
 10
495.0276243093922
 20
1357.149332121529
 30
0.0
 11
504.5276243093922
 21
1267.149332121527
 31
0.0
  0
LINE
  5
2B0
330
1F
100
AcDbEntity
  8
化粧台
  6
CONTINUOUS
 62
     7
100
AcDbLine
 10
844.9723756906078
 20
1357.149332121529
 30
0.0
 11
835.4723756906078
 21
1267.149332121527
 31
0.0
  0
LINE
  5
2B1
330
1F
100
AcDbEntity
  8
化粧台
  6
CONTINUOUS
 62
     7
100
AcDbLine
 10
1248.933868
 20
562.6741750000002
 30
0.0
 11
1577.57489
 21
562.6741750000002
 31
0.0
  0
TEXT
  5
2B2
330
1F
100
AcDbEntity
  8
化粧台
  6
CONTINUOUS
 62
     2
100
AcDbText
 10
297.8500044999732
 20
570.3741749999999
 30
0.0
 40
40.0
  1
Ｆ.Ｌ.
 41
0.9086538461538461
  7
EXCADSTD
 72
     5
 11
387.8500044999732
 21
570.3741749999999
 31
0.0
100
AcDbText
  0
LINE
  5
2B3
330
1F
100
AcDbEntity
  8
化粧台
  6
CONTINUOUS
 62
     6
100
AcDbLine
 10
1577.57489
 20
893.1741750000001
 30
0.0
 11
1585.57489
 21
893.1741750000001
 31
0.0
  0
LINE
  5
2B4
330
1F
100
AcDbEntity
  8
化粧台
  6
CONTINUOUS
 62
     6
100
AcDbLine
 10
1585.57489
 20
893.1741750000001
 30
0.0
 11
1585.57489
 21
872.1741750000001
 31
0.0
  0
LINE
  5
2B5
330
1F
100
AcDbEntity
  8
化粧台
  6
CONTINUOUS
 62
     6
100
AcDbLine
 10
1577.57489
 20
872.1741750000001
 30
0.0
 11
1585.57489
 21
872.1741750000001
 31
0.0
  0
LINE
  5
2B6
330
1F
100
AcDbEntity
  8
化粧台
  6
CONTINUOUS
 62
     6
100
AcDbLine
 10
1577.57489
 20
855.1741750000002
 30
0.0
 11
1577.57489
 21
910.1741750000002
 31
0.0
  0
LINE
  5
2B7
330
1F
100
AcDbEntity
  8
化粧台
  6
EXLTYPE3
 62
     6
100
AcDbLine
 10
1477.57489
 20
677.674175
 30
0.0
 11
1477.57489
 21
528.3055458499002
 31
0.0
  0
LINE
  5
2B8
330
1F
100
AcDbEntity
  8
化粧台
  6
EXLTYPE4
 62
     6
100
AcDbLine
 10
1467.074890000001
 20
662.674174999996
 30
0.0
 11
1467.074890000001
 21
554.6741750000006
 31
0.0
  0
LINE
  5
2B9
330
1F
100
AcDbEntity
  8
化粧台
  6
CONTINUOUS
 62
     6
100
AcDbLine
 10
1488.074890000001
 20
554.6741750000001
 30
0.0
 11
1467.074890000001
 21
554.6741750000001
 31
0.0
  0
LINE
  5
2BA
330
1F
100
AcDbEntity
  8
化粧台
  6
EXLTYPE4
 62
     6
100
AcDbLine
 10
1488.074890000001
 20
662.674174999996
 30
0.0
 11
1488.074890000001
 21
554.6741750000006
 31
0.0
  0
LINE
  5
2BB
330
1F
100
AcDbEntity
  8
化粧台
  6
CONTINUOUS
 62
     2
100
AcDbLine
 10
1577.57489
 20
1242.674193999999
 30
0.0
 11
1292.574889999971
 21
1242.674193999999
 31
0.0
  0
LINE
  5
2BC
330
1F
100
AcDbEntity
  8
化粧台
  6
CONTINUOUS
 62
     2
100
AcDbLine
 10
1292.574889999971
 20
1262.674194
 30
0.0
 11
1312.024902
 21
1262.674194
 31
0.0
  0
LINE
  5
2BD
330
1F
100
AcDbEntity
  8
化粧台
  6
CONTINUOUS
 62
     2
100
AcDbLine
 10
1292.574889999971
 20
1242.674175
 30
0.0
 11
1292.574889999971
 21
1262.674175
 31
0.0
  0
LINE
  5
2BE
330
1F
100
AcDbEntity
  8
化粧台
  6
CONTINUOUS
 62
     2
100
AcDbLine
 10
1541.024901999999
 20
1262.674194
 30
0.0
 11
1577.57489
 21
1262.674194
 31
0.0
  0
TEXT
  5
2BF
330
1F
100
AcDbEntity
  8
化粧台
  6
CONTINUOUS
 62
     2
100
AcDbText
 10
1568.074889999895
 20
1513.65
 30
0.0
 40
40.0
  1
Ｗ.Ｌ.
 50
90.0
 41
0.9086538461538461
  7
EXCADSTD
 72
     5
 11
1568.074889999895
 21
1603.65
 31
0.0
100
AcDbText
  0
LINE
  5
2C0
330
1F
100
AcDbEntity
  8
化粧台
  6
CONTINUOUS
 62
     7
100
AcDbLine
 10
1577.57489
 20
1600.0
 30
0.0
 11
1577.57489
 21
562.6741750000002
 31
0.0
  0
LINE
  5
2C1
330
1F
100
AcDbEntity
  8
化粧台
  6
EXLTYPE3
 62
     6
100
AcDbLine
 10
1598.0
 20
882.6741750000003
 30
0.0
 11
1562.9
 21
882.6741750000003
 31
0.0
  0
LINE
  5
2C2
330
1F
100
AcDbEntity
  8
化粧台
  6
CONTINUOUS
 62
     6
100
AcDbLine
 10
1627.574889999961
 20
1023.674174999998
 30
0.0
 11
1627.574889999961
 21
991.6741749999983
 31
0.0
  0
LINE
  5
2C3
330
1F
100
AcDbEntity
  8
化粧台
  6
CONTINUOUS
 62
     6
100
AcDbLine
 10
1627.57489
 20
1023.674175
 30
0.0
 11
1577.57489
 21
1023.674175
 31
0.0
  0
LINE
  5
2C4
330
1F
100
AcDbEntity
  8
化粧台
  6
EXLTYPE3
 62
     6
100
AcDbLine
 10
1685.0
 20
1007.674175
 30
0.0
 11
1522.0
 21
1007.674175
 31
0.0
  0
LINE
  5
2C5
330
1F
100
AcDbEntity
  8
化粧台
  6
CONTINUOUS
 62
     6
100
AcDbLine
 10
1627.57489
 20
991.6741750000006
 30
0.0
 11
1577.57489
 21
991.6741750000006
 31
0.0
  0
LINE
  5
2C6
330
1F
100
AcDbEntity
  8
化粧台
  6
CONTINUOUS
 62
     3
100
AcDbLine
 10
1681.0
 20
562.674174999999
 30
0.0
 11
1681.0
 21
882.674175
 31
0.0
  0
LINE
  5
2C7
330
1F
100
AcDbEntity
  8
化粧台
  6
CONTINUOUS
 62
     3
100
AcDbLine
 10
1676.0
 20
592.674174999999
 30
0.0
 11
1681.0
 21
562.674174999999
 31
0.0
  0
LINE
  5
2C8
330
1F
100
AcDbEntity
  8
化粧台
  6
CONTINUOUS
 62
     3
100
AcDbLine
 10
1681.0
 20
562.674174999999
 30
0.0
 11
1686.0
 21
592.674174999999
 31
0.0
  0
LINE
  5
2C9
330
1F
100
AcDbEntity
  8
化粧台
  6
CONTINUOUS
 62
     3
100
AcDbLine
 10
1686.0
 20
852.674175
 30
0.0
 11
1681.0
 21
882.674175
 31
0.0
  0
LINE
  5
2CA
330
1F
100
AcDbEntity
  8
化粧台
  6
CONTINUOUS
 62
     3
100
AcDbLine
 10
1681.0
 20
882.674175
 30
0.0
 11
1676.0
 21
852.674175
 31
0.0
  0
TEXT
  5
2CB
330
1F
100
AcDbEntity
  8
化粧台
  6
CONTINUOUS
 62
     2
100
AcDbText
 10
1677.500000059605
 20
613.674175
 30
0.0
 40
40.0
  1
３２０
 50
90.0
 41
1.029411764705882
  7
EXCADSTD
 72
     5
 11
1677.500000059605
 21
713.674175
 31
0.0
100
AcDbText
  0
TEXT
  5
2CC
330
1F
100
AcDbEntity
  8
化粧台
  6
CONTINUOUS
 62
     2
100
AcDbText
 10
1677.500000059605
 20
708.674175
 30
0.0
 40
32.0
  1
（壁給水）
 50
90.0
 41
0.9655172413793105
  7
EXCADSTD
 72
     5
 11
1677.500000059605
 21
836.674175
 31
0.0
100
AcDbText
  0
LINE
  5
2CD
330
1F
100
AcDbEntity
  8
化粧台
  6
CONTINUOUS
 62
     3
100
AcDbLine
 10
1604.999999880791
 20
882.674175
 30
0.0
 11
1691.0
 21
882.674175
 31
0.0
  0
LINE
  5
2CE
330
1F
100
AcDbEntity
  8
化粧台
  6
CONTINUOUS
 62
     2
100
AcDbLine
 10
1556.024901999999
 20
1262.674194
 30
0.0
 11
1327.024902
 21
1262.674194
 31
0.0
  0
ARC
  5
2CF
330
1F
100
AcDbEntity
  8
化粧台
  6
CONTINUOUS
 62
     7
100
AcDbCircle
 10
1568.566009987159
 20
1267.674193999981
 30
0.0
 40
5.0
100
AcDbArc
 50
270.0
 51
357.5862971699695
  0
ARC
  5
2D0
330
1F
100
AcDbEntity
  8
化粧台
  6
CONTINUOUS
 62
     7
100
AcDbCircle
 10
1572.35968999323
 20
1357.674193999977
 30
0.0
 40
5.0
100
AcDbArc
 50
357.5862971699695
 51
90.00000000000001
  0
ARC
  5
2D1
330
1F
100
AcDbEntity
  8
化粧台
  6
CONTINUOUS
 62
     7
100
AcDbCircle
 10
1302.359689993226
 20
1357.674193999981
 30
0.0
 40
5.0
100
AcDbArc
 50
89.99999999999939
 51
189.6017550789933
  0
ARC
  5
2D2
330
1F
100
AcDbEntity
  8
化粧台
  6
CONTINUOUS
 62
     7
100
AcDbCircle
 10
1317.584886324272
 20
1267.674193999981
 30
0.0
 40
5.0
100
AcDbArc
 50
189.6017550789919
 51
270.0
  0
LINE
  5
2D3
330
1F
100
AcDbEntity
  8
化粧台
  6
CONTINUOUS
 62
     7
100
AcDbLine
 10
1297.429735352411
 20
1356.840199252096
 30
0.0
 11
1312.654931683456
 21
1266.840199252096
 31
0.0
  0
LINE
  5
2D4
330
1F
100
AcDbEntity
  8
化粧台
  6
CONTINUOUS
 62
     7
100
AcDbLine
 10
1572.3596899932
 20
1362.674193999977
 30
0.0
 11
1302.359689993226
 21
1362.674193999977
 31
0.0
  0
LINE
  5
2D5
330
1F
100
AcDbEntity
  8
化粧台
  6
CONTINUOUS
 62
     2
100
AcDbLine
 10
1307.574889999971
 20
1262.674194
 30
0.0
 11
1327.024902
 21
1262.674194
 31
0.0
  0
LINE
  5
2D6
330
1F
100
AcDbEntity
  8
化粧台
  6
CONTINUOUS
 62
     7
100
AcDbLine
 10
1577.355253926053
 20
1357.463620988702
 30
0.0
 11
1573.561573919984
 21
1267.463620988746
 31
0.0
  0
DIMENSION
  5
2D7
330
1F
100
AcDbEntity
  8
化粧台
  6
CONTINUOUS
 62
     3
100
AcDbDimension
  2
*D19
 10
931.9999999999976
 20
1925.0
 30
0.0
 11
908.5000000596024
 21
2065.0
 31
0.0
 70
   160
  3
ISO-25
100
AcDbAlignedDimension
 13
835.0
 23
2205.0
 33
0.0
 14
670.0
 24
1925.0
 34
0.0
 50
90.0
100
AcDbRotatedDimension
1001
ACAD
1000
DSTYLE
1002
{
1070
   270
1070
     2
1070
     6
1000
EX_NORM
1070
     7
1000
EX_NORM
1070
    41
1040
30.0
1070
    42
1040
6.99999988079071
1070
    44
1040
10.0
1070
    73
1070
     0
1070
    74
1070
     0
1070
    75
1070
     1
1070
    76
1070
     0
1070
    77
1070
     1
1070
    78
1070
     0
1070
   140
1040
40.0
1070
   147
1040
0.0
1070
   173
1070
     1
1070
   176
1070
     3
1070
   177
1070
     3
1070
   178
1070
     2
1070
   271
1070
     0
1070
   277
1070
     2
1070
   279
1070
     2
1070
   280
1070
     0
1070
   287
1070
     5
1070
   340
1005
260
1002
}
  0
LINE
  5
2E3
330
1F
100
AcDbEntity
  8
化粧台
  6
CONTINUOUS
 62
     2
100
AcDbLine
 10
474.9999999999984
 20
1242.674194000001
 30
0.0
 11
474.9999999999984
 21
1262.674194000001
 31
0.0
  0
LINE
  5
2E4
330
1F
100
AcDbEntity
  8
化粧台
  6
EXLTYPE3
 62
     6
100
AcDbLine
 10
838.9999999999711
 20
1115.674194000028
 30
0.0
 11
838.9999999999711
 21
1170.674194000028
 31
0.0
  0
LINE
  5
2E5
330
1F
100
AcDbEntity
  8
化粧台
  6
EXLTYPE1
 62
     6
100
AcDbLine
 10
836.4999999999711
 20
1146.674194000028
 30
0.0
 11
835.4291992187211
 21
1146.674194000028
 31
0.0
  0
LINE
  5
2E6
330
1F
100
AcDbEntity
  8
化粧台
  6
EXLTYPE1
 62
     6
100
AcDbLine
 10
836.4999999999711
 20
1146.674194000028
 30
0.0
 11
836.4999999999711
 21
1139.674194000028
 31
0.0
  0
LINE
  5
2E7
330
1F
100
AcDbEntity
  8
化粧台
  6
EXLTYPE1
 62
     6
100
AcDbLine
 10
836.4999999999711
 20
1139.674194000028
 30
0.0
 11
835.4291992187211
 21
1139.674194000028
 31
0.0
  0
ARC
  5
2E8
330
1F
100
AcDbEntity
  8
化粧台
  6
EXLTYPE1
 62
     6
100
AcDbCircle
 10
838.9999999999711
 20
1143.174194000028
 30
0.0
 40
5.0
100
AcDbArc
 50
135.572708129903
 51
224.4272880554191
  0
ARC
  5
2E9
330
1F
100
AcDbEntity
  8
化粧台
  6
EXLTYPE1
 62
     6
100
AcDbCircle
 10
838.9999999999711
 20
1143.174194000028
 30
0.0
 40
8.300000000000002
100
AcDbArc
 50
121.7465474276751
 51
238.2534349726588
  0
LINE
  5
2EA
330
1F
100
AcDbEntity
  8
化粧台
  6
EXLTYPE3
 62
     6
100
AcDbLine
 10
863.0000000000002
 20
1238.174194000001
 30
0.0
 11
477.0000000000002
 21
1026.674194000001
 31
0.0
  0
LINE
  5
2EB
330
1F
100
AcDbEntity
  8
化粧台
  6
CONTINUOUS
 62
     6
100
AcDbLine
 10
862.9999999999993
 20
1238.174194000001
 30
0.0
 11
477.0000000000002
 21
1238.174194000002
 31
0.0
  0
LINE
  5
2EC
330
1F
100
AcDbEntity
  8
化粧台
  6
EXLTYPE1
 62
     2
100
AcDbLine
 10
849.9999999999994
 20
1147.674175000001
 30
0.0
 11
489.9999999999993
 21
1147.674175000001
 31
0.0
  0
LINE
  5
2ED
330
1F
100
AcDbEntity
  8
化粧台
  6
EXLTYPE1
 62
     6
100
AcDbLine
 10
849.9999999999994
 20
1202.674175000001
 30
0.0
 11
489.9999999999993
 21
1202.674175000001
 31
0.0
  0
LINE
  5
2EE
330
1F
100
AcDbEntity
  8
化粧台
  6
CONTINUOUS
 62
     2
100
AcDbLine
 10
474.9999999999993
 20
1242.674194000001
 30
0.0
 11
864.9999999999994
 21
1242.674194000001
 31
0.0
  0
LINE
  5
2EF
330
1F
100
AcDbEntity
  8
化粧台
  6
EXLTYPE1
 62
     6
100
AcDbLine
 10
849.4999999999703
 20
1125.67419399997
 30
0.0
 11
849.4999999999703
 21
1160.674194000101
 31
0.0
  0
LINE
  5
2F0
330
1F
100
AcDbEntity
  8
化粧台
  6
EXLTYPE1
 62
     6
100
AcDbLine
 10
834.6328497432589
 20
1150.232380639336
 30
0.0
 11
847.9999999999684
 21
1160.674194000028
 31
0.0
  0
LINE
  5
2F1
330
1F
100
AcDbEntity
  8
化粧台
  6
EXLTYPE1
 62
     6
100
AcDbLine
 10
834.6328497433336
 20
1136.116007360673
 30
0.0
 11
847.9999999999684
 21
1125.674194000028
 31
0.0
  0
LINE
  5
2F2
330
1F
100
AcDbEntity
  8
化粧台
  6
EXLTYPE1
 62
     6
100
AcDbLine
 10
847.9999999999684
 20
1125.674194000028
 30
0.0
 11
849.4999999999703
 21
1125.674194000028
 31
0.0
  0
LINE
  5
2F3
330
1F
100
AcDbEntity
  8
化粧台
  6
EXLTYPE1
 62
     6
100
AcDbLine
 10
847.9999999999684
 20
1160.674194000028
 30
0.0
 11
849.4999999999703
 21
1160.674194000028
 31
0.0
  0
CIRCLE
  5
2F4
330
1F
100
AcDbEntity
  8
化粧台
  6
EXLTYPE1
 62
     6
100
AcDbCircle
 10
838.9999999999711
 20
1143.174194000028
 30
0.0
 40
6.5
  0
POLYLINE
  5
2F5
330
1F
100
AcDbEntity
  8
化粧台
  6
EXLTYPE1
 62
     6
100
AcDb2dPolyline
 66
     1
 10
0.0
 20
0.0
 30
0.0
 70
   128
  0
VERTEX
  5
2F6
330
2F5
100
AcDbEntity
  8
化粧台
  6
EXLTYPE1
 62
     6
100
AcDbVertex
100
AcDb2dVertex
 10
846.6841332339112
 20
1146.070666259271
 30
0.0
  0
VERTEX
  5
2F7
330
2F5
100
AcDbEntity
  8
化粧台
  6
EXLTYPE1
 62
     6
100
AcDbVertex
100
AcDb2dVertex
 10
843.4629279706189
 20
1148.136700526265
 30
0.0
  0
VERTEX
  5
2F8
330
2F5
100
AcDbEntity
  8
化粧台
  6
EXLTYPE1
 62
     6
100
AcDbVertex
100
AcDb2dVertex
 10
839.7242850449932
 20
1147.319871281357
 30
0.0
  0
VERTEX
  5
2F9
330
2F5
100
AcDbEntity
  8
化粧台
  6
EXLTYPE1
 62
     6
100
AcDbVertex
100
AcDb2dVertex
 10
837.658250777996
 20
1144.098666018064
 30
0.0
  0
VERTEX
  5
2FA
330
2F5
100
AcDbEntity
  8
化粧台
  6
EXLTYPE1
 62
     6
100
AcDbVertex
100
AcDb2dVertex
 10
838.4750800229069
 20
1140.360023092438
 30
0.0
  0
VERTEX
  5
2FB
330
2F5
100
AcDbEntity
  8
化粧台
  6
EXLTYPE1
 62
     6
100
AcDbVertex
100
AcDb2dVertex
 10
841.6962852862
 20
1138.29398882544
 30
0.0
  0
VERTEX
  5
2FC
330
2F5
100
AcDbEntity
  8
化粧台
  6
EXLTYPE1
 62
     6
100
AcDbVertex
100
AcDb2dVertex
 10
845.4349282118267
 20
1139.110818070352
 30
0.0
  0
VERTEX
  5
2FD
330
2F5
100
AcDbEntity
  8
化粧台
  6
EXLTYPE1
 62
     6
100
AcDbVertex
100
AcDb2dVertex
 10
847.500962478822
 20
1142.332023333645
 30
0.0
  0
VERTEX
  5
2FE
330
2F5
100
AcDbEntity
  8
化粧台
  6
EXLTYPE1
 62
     6
100
AcDbVertex
100
AcDb2dVertex
 10
846.6841332339112
 20
1146.070666259271
 30
0.0
  0
SEQEND
  5
2FF
330
2F5
100
AcDbEntity
  8
化粧台
  6
EXLTYPE1
 62
     6
  0
ARC
  5
300
330
1F
100
AcDbEntity
  8
化粧台
  6
EXLTYPE1
 62
     6
100
AcDbCircle
 10
838.9999999999711
 20
1143.174194000028
 30
0.0
 40
5.0
100
AcDbArc
 50
315.5727233886342
 51
44.42729187009697
  0
LINE
  5
301
330
1F
100
AcDbEntity
  8
化粧台
  6
EXLTYPE1
 62
     6
100
AcDbLine
 10
842.5708007812211
 20
1146.674194000028
 30
0.0
 11
841.4999999999711
 21
1146.674194000028
 31
0.0
  0
LINE
  5
302
330
1F
100
AcDbEntity
  8
化粧台
  6
EXLTYPE1
 62
     6
100
AcDbLine
 10
842.5708007812211
 20
1139.674194000028
 30
0.0
 11
841.4999999999711
 21
1139.674194000028
 31
0.0
  0
LINE
  5
303
330
1F
100
AcDbEntity
  8
化粧台
  6
EXLTYPE1
 62
     6
100
AcDbLine
 10
841.4999999999711
 20
1146.674194000028
 30
0.0
 11
841.4999999999711
 21
1139.674194000028
 31
0.0
  0
LINE
  5
304
330
1F
100
AcDbEntity
  8
化粧台
  6
EXLTYPE1
 62
     6
100
AcDbLine
 10
849.4999999999703
 20
1135.674194000028
 30
0.0
 11
838.9999999999711
 21
1135.674194000028
 31
0.0
  0
LINE
  5
305
330
1F
100
AcDbEntity
  8
化粧台
  6
EXLTYPE1
 62
     6
100
AcDbLine
 10
849.4999999999703
 20
1150.674194000028
 30
0.0
 11
849.4999999999703
 21
1135.674194000028
 31
0.0
  0
LINE
  5
306
330
1F
100
AcDbEntity
  8
化粧台
  6
EXLTYPE1
 62
     6
100
AcDbLine
 10
849.4999999999703
 20
1150.674194000028
 30
0.0
 11
838.9999999999711
 21
1150.674194000028
 31
0.0
  0
CIRCLE
  5
307
330
1F
100
AcDbEntity
  8
化粧台
  6
EXLTYPE1
 62
     6
100
AcDbCircle
 10
838.9999999999711
 20
1143.174194000028
 30
0.0
 40
7.5
  0
LINE
  5
308
330
1F
100
AcDbEntity
  8
化粧台
  6
EXLTYPE3
 62
     6
100
AcDbLine
 10
781.4999999999711
 20
1143.174194000029
 30
0.0
 11
866.4999999999711
 21
1143.174194000028
 31
0.0
  0
LINE
  5
309
330
1F
100
AcDbEntity
  8
化粧台
  6
CONTINUOUS
 62
     2
100
AcDbLine
 10
864.9999999999984
 20
1242.674194000001
 30
0.0
 11
864.9999999999984
 21
1262.674194000001
 31
0.0
  0
LINE
  5
30A
330
1F
100
AcDbEntity
  8
化粧台
  6
CONTINUOUS
 62
     2
100
AcDbLine
 10
474.9999999999993
 20
1262.674194000001
 30
0.0
 11
864.9999999999994
 21
1262.674194000001
 31
0.0
  0
LINE
  5
30B
330
1F
100
AcDbEntity
  8
化粧台
  6
CONTINUOUS
 62
     2
100
AcDbLine
 10
475.4999999999993
 20
762.6741940000019
 30
0.0
 11
475.4999999999993
 21
1242.674194000001
 31
0.0
  0
LINE
  5
30C
330
1F
100
AcDbEntity
  8
化粧台
  6
EXLTYPE1
 62
     2
100
AcDbLine
 10
489.9999999999993
 20
762.6741940000009
 30
0.0
 11
489.9999999999993
 21
1242.674194000001
 31
0.0
  0
LINE
  5
30D
330
1F
100
AcDbEntity
  8
化粧台
  6
CONTINUOUS
 62
     2
100
AcDbLine
 10
477.4999999999993
 20
762.6741940000009
 30
0.0
 11
477.4999999999993
 21
692.6741940000005
 31
0.0
  0
LINE
  5
30E
330
1F
100
AcDbEntity
  8
化粧台
  6
CONTINUOUS
 62
     6
100
AcDbLine
 10
477.0000000000002
 20
765.1741940000009
 30
0.0
 11
477.0000000000002
 21
1238.174194000001
 31
0.0
  0
LINE
  5
30F
330
1F
100
AcDbEntity
  8
化粧台
  6
CONTINUOUS
 62
     2
100
AcDbLine
 10
477.5000000000011
 20
692.6741940000009
 30
0.0
 11
862.4999999999966
 21
692.6741940000005
 31
0.0
  0
LINE
  5
310
330
1F
100
AcDbEntity
  8
化粧台
  6
CONTINUOUS
 62
     2
100
AcDbLine
 10
864.5000000000294
 20
762.674194
 30
0.0
 11
475.5000000000002
 21
762.6741940000019
 31
0.0
  0
LINE
  5
311
330
1F
100
AcDbEntity
  8
化粧台
  6
CONTINUOUS
 62
     6
100
AcDbLine
 10
862.9999999999993
 20
765.1741940000009
 30
0.0
 11
476.9999999999975
 21
765.1741940000019
 31
0.0
  0
LINE
  5
312
330
1F
100
AcDbEntity
  8
化粧台
  6
CONTINUOUS
 62
     2
100
AcDbLine
 10
862.4999999999966
 20
762.674194
 30
0.0
 11
862.4999999999966
 21
692.674194
 31
0.0
  0
LINE
  5
313
330
1F
100
AcDbEntity
  8
化粧台
  6
EXLTYPE1
 62
     2
100
AcDbLine
 10
850.0000000000011
 20
762.674194
 30
0.0
 11
850.0000000000011
 21
1242.674194000001
 31
0.0
  0
LINE
  5
314
330
1F
100
AcDbEntity
  8
化粧台
  6
CONTINUOUS
 62
     6
100
AcDbLine
 10
862.9999999999993
 20
765.1741940000009
 30
0.0
 11
862.9999999999984
 21
1238.174194000002
 31
0.0
  0
LINE
  5
315
330
1F
100
AcDbEntity
  8
化粧台
  6
CONTINUOUS
 62
     2
100
AcDbLine
 10
864.4999999999976
 20
762.6741940000014
 30
0.0
 11
864.4999999999976
 21
1242.674194000001
 31
0.0
  0
LINE
  5
316
330
1F
100
AcDbEntity
  8
化粧台
  6
EXLTYPE1
 62
     2
100
AcDbLine
 10
850.0000000000011
 20
780.6741940000006
 30
0.0
 11
489.9999999999993
 21
780.674194000001
 31
0.0
  0
LINE
  5
317
330
1F
100
AcDbEntity
  8
化粧台
  6
CONTINUOUS
 62
     6
100
AcDbLine
 10
543.9999999999997
 20
2254.999999999991
 30
0.0
 11
575.9999999999997
 21
2254.999999999991
 31
0.0
  0
LINE
  5
318
330
1F
100
AcDbEntity
  8
化粧台
  6
CONTINUOUS
 62
     6
100
AcDbLine
 10
543.9999999999997
 20
2204.999999999991
 30
0.0
 11
543.9999999999997
 21
2254.999999999991
 31
0.0
  0
LINE
  5
319
330
1F
100
AcDbEntity
  8
化粧台
  6
CONTINUOUS
 62
     6
100
AcDbLine
 10
575.9999999999997
 20
2204.999999999991
 30
0.0
 11
575.9999999999997
 21
2254.999999999991
 31
0.0
  0
LINE
  5
31A
330
1F
100
AcDbEntity
  8
化粧台
  6
EXLTYPE3
 62
     6
100
AcDbLine
 10
559.9999999999999
 20
2194.8
 30
0.0
 11
559.9999999999999
 21
2274.0
 31
0.0
  0
ARC
  5
31B
330
1F
100
AcDbEntity
  8
化粧台
  6
CONTINUOUS
 62
     7
100
AcDbCircle
 10
833.0000000000007
 20
2189.999999999999
 30
0.0
 40
5.0
100
AcDbArc
 50
0.0
 51
90.00000000000001
  0
LINE
  5
31C
330
1F
100
AcDbEntity
  8
化粧台
  6
CONTINUOUS
 62
     2
100
AcDbLine
 10
864.9999999999947
 20
1920.0
 30
0.0
 11
864.9999999999947
 21
2205.0
 31
0.0
  0
LINE
  5
31D
330
1F
100
AcDbEntity
  8
化粧台
  6
CONTINUOUS
 62
     2
100
AcDbLine
 10
864.9999999999947
 20
1920.000000000001
 30
0.0
 11
474.9999999999947
 21
1920.000000000001
 31
0.0
  0
LINE
  5
31E
330
1F
100
AcDbEntity
  8
化粧台
  6
CONTINUOUS
 62
     2
100
AcDbLine
 10
474.9999999999947
 20
1920.0
 30
0.0
 11
474.9999999999947
 21
2205.0
 31
0.0
  0
DIMENSION
  5
31F
330
1F
100
AcDbEntity
  8
化粧台
  6
CONTINUOUS
 62
     3
100
AcDbDimension
  2
*D20
 10
864.99999999999
 20
1799.0
 30
0.0
 11
669.9999999999901
 21
1822.499999940395
 31
0.0
 70
   160
  3
ISO-25
100
AcDbAlignedDimension
 13
474.9999999999901
 23
1920.0
 33
0.0
 14
864.99999999999
 24
1920.0
 34
0.0
100
AcDbRotatedDimension
1001
ACAD
1000
DSTYLE
1002
{
1070
   270
1070
     2
1070
     6
1000
EX_NORM
1070
     7
1000
EX_NORM
1070
    41
1040
30.0
1070
    42
1040
6.99999988079071
1070
    44
1040
10.0
1070
    73
1070
     0
1070
    74
1070
     0
1070
    75
1070
     0
1070
    76
1070
     0
1070
    77
1070
     1
1070
    78
1070
     0
1070
   140
1040
40.0
1070
   147
1040
0.0
1070
   173
1070
     1
1070
   176
1070
     3
1070
   177
1070
     3
1070
   178
1070
     2
1070
   271
1070
     0
1070
   277
1070
     2
1070
   279
1070
     2
1070
   280
1070
     0
1070
   287
1070
     5
1070
   340
1005
260
1002
}
  0
DIMENSION
  5
32C
330
1F
100
AcDbEntity
  8
化粧台
  6
CONTINUOUS
 62
     3
100
AcDbDimension
  2
*D21
 10
997.0000000000035
 20
1920.0
 30
0.0
 11
973.5000000596083
 21
2062.5
 31
0.0
 70
   160
  3
ISO-25
100
AcDbAlignedDimension
 13
864.99999999999
 23
2205.0
 33
0.0
 14
864.99999999999
 24
1920.0
 34
0.0
 50
90.0
100
AcDbRotatedDimension
1001
ACAD
1000
DSTYLE
1002
{
1070
   270
1070
     2
1070
     6
1000
EX_NORM
1070
     7
1000
EX_NORM
1070
    41
1040
30.0
1070
    42
1040
6.99999988079071
1070
    44
1040
10.0
1070
    73
1070
     0
1070
    74
1070
     0
1070
    75
1070
     1
1070
    76
1070
     0
1070
    77
1070
     1
1070
    78
1070
     0
1070
   140
1040
40.0
1070
   147
1040
0.0
1070
   173
1070
     1
1070
   176
1070
     3
1070
   177
1070
     3
1070
   178
1070
     2
1070
   271
1070
     0
1070
   277
1070
     2
1070
   279
1070
     2
1070
   280
1070
     0
1070
   287
1070
     5
1070
   340
1005
260
1002
}
  0
LINE
  5
338
330
1F
100
AcDbEntity
  8
化粧台
  6
CONTINUOUS
 62
     6
100
AcDbLine
 10
1577.57489
 20
762.6741940000009
 30
0.0
 11
1562.57489
 21
692.6741940000009
 31
0.0
  0
LINE
  5
339
330
1F
100
AcDbEntity
  8
化粧台
  6
CONTINUOUS
 62
     6
100
AcDbLine
 10
1577.57489
 20
692.6741940000009
 30
0.0
 11
1562.57489
 21
762.6741940000009
 31
0.0
  0
LINE
  5
33A
330
1F
100
AcDbEntity
  8
化粧台
  6
CONTINUOUS
 62
     6
100
AcDbLine
 10
1327.574889999999
 20
765.1742130000256
 30
0.0
 11
1309.274889999998
 21
765.1742130000256
 31
0.0
  0
LINE
  5
33B
330
1F
100
AcDbEntity
  8
化粧台
  6
CONTINUOUS
 62
     2
100
AcDbLine
 10
1577.57488999997
 20
762.674194
 30
0.0
 11
1330.57489
 21
762.674194
 31
0.0
  0
LINE
  5
33C
330
1F
100
AcDbEntity
  8
化粧台
  6
CONTINUOUS
 62
     2
100
AcDbLine
 10
1330.574889999999
 20
762.6741940000009
 30
0.0
 11
1330.574889999999
 21
1242.674194
 31
0.0
  0
LINE
  5
33D
330
1F
100
AcDbEntity
  8
化粧台
  6
CONTINUOUS
 62
     6
100
AcDbLine
 10
1327.574889999999
 20
765.174213000021
 30
0.0
 11
1327.574889999999
 21
1235.674174999981
 31
0.0
  0
LINE
  5
33E
330
1F
100
AcDbEntity
  8
化粧台
  6
CONTINUOUS
 62
     6
100
AcDbLine
 10
1309.274889999999
 20
765.174213000021
 30
0.0
 11
1309.274889999999
 21
1235.674174999981
 31
0.0
  0
LINE
  5
33F
330
1F
100
AcDbEntity
  8
化粧台
  6
CONTINUOUS
 62
     6
100
AcDbLine
 10
1327.574889999999
 20
1235.674174999981
 30
0.0
 11
1309.274889999999
 21
1235.674174999981
 31
0.0
  0
LINE
  5
340
330
1F
100
AcDbEntity
  8
化粧台
  6
CONTINUOUS
 62
     2
100
AcDbLine
 10
1562.57488999997
 20
692.6741940000009
 30
0.0
 11
1562.57488999997
 21
762.6741940000009
 31
0.0
  0
LINE
  5
341
330
1F
100
AcDbEntity
  8
化粧台
  6
CONTINUOUS
 62
     2
100
AcDbLine
 10
1577.57488999997
 20
692.6741940000009
 30
0.0
 11
1562.57488999997
 21
692.6741940000009
 31
0.0
  0
LINE
  5
342
330
1F
100
AcDbEntity
  8
化粧台
  6
CONTINUOUS
 62
     6
100
AcDbLine
 10
1558.07489572201
 20
729.6741939999607
 30
0.0
 11
1590.57489572201
 21
727.6741939999588
 31
0.0
  0
LINE
  5
343
330
1F
100
AcDbEntity
  8
化粧台
  6
CONTINUOUS
 62
     6
100
AcDbLine
 10
1590.57489572201
 20
727.6741939999588
 30
0.0
 11
1558.07489572201
 21
725.6741939999606
 31
0.0
  0
LINE
  5
344
330
1F
100
AcDbEntity
  8
化粧台
  6
EXLTYPE3
 62
     6
100
AcDbLine
 10
1545.17489
 20
727.6741940000007
 30
0.0
 11
1601.17489
 21
727.6741940000007
 31
0.0
  0
LINE
  5
345
330
1F
100
AcDbEntity
  8
化粧台
  6
CONTINUOUS
 62
     6
100
AcDbLine
 10
1558.07489572201
 20
729.6741939999607
 30
0.0
 11
1590.57489572201
 21
727.6741939999588
 31
0.0
  0
LINE
  5
346
330
1F
100
AcDbEntity
  8
化粧台
  6
CONTINUOUS
 62
     6
100
AcDbLine
 10
1590.57489572201
 20
727.6741939999588
 30
0.0
 11
1558.07489572201
 21
725.6741939999606
 31
0.0
  0
LINE
  5
347
330
1F
100
AcDbEntity
  8
化粧台
  6
EXLTYPE3
 62
     6
100
AcDbLine
 10
1545.17489
 20
727.6741940000007
 30
0.0
 11
1601.17489
 21
727.6741940000007
 31
0.0
  0
LINE
  5
348
330
1F
100
AcDbEntity
  8
化粧台
  6
CONTINUOUS
 62
     3
100
AcDbLine
 10
1477.57489
 20
521.3055459691093
 30
0.0
 11
1477.57489
 21
488.0
 31
0.0
  0
LINE
  5
349
330
1F
100
AcDbEntity
  8
化粧台
  6
CONTINUOUS
 62
     3
100
AcDbLine
 10
1577.57489
 20
555.6741751192093
 30
0.0
 11
1577.57489
 21
488.0
 31
0.0
  0
LINE
  5
34A
330
1F
100
AcDbEntity
  8
化粧台
  6
CONTINUOUS
 62
     3
100
AcDbLine
 10
1447.57489
 20
498.0
 30
0.0
 11
1829.074886185303
 21
498.0
 31
0.0
  0
LINE
  5
34B
330
1F
100
AcDbEntity
  8
化粧台
  6
CONTINUOUS
 62
     3
100
AcDbLine
 10
1447.57489
 20
493.0
 30
0.0
 11
1477.57489
 21
498.0
 31
0.0
  0
LINE
  5
34C
330
1F
100
AcDbEntity
  8
化粧台
  6
CONTINUOUS
 62
     3
100
AcDbLine
 10
1477.57489
 20
498.0
 30
0.0
 11
1447.57489
 21
503.0000000000001
 31
0.0
  0
LINE
  5
34D
330
1F
100
AcDbEntity
  8
化粧台
  6
CONTINUOUS
 62
     3
100
AcDbLine
 10
1607.57489
 20
503.0
 30
0.0
 11
1577.57489
 21
498.0
 31
0.0
  0
LINE
  5
34E
330
1F
100
AcDbEntity
  8
化粧台
  6
CONTINUOUS
 62
     3
100
AcDbLine
 10
1577.57489
 20
498.0
 30
0.0
 11
1607.57489
 21
493.0
 31
0.0
  0
TEXT
  5
34F
330
1F
100
AcDbEntity
  8
化粧台
  6
CONTINUOUS
 62
     2
100
AcDbText
 10
1607.57489
 20
501.4999999403954
 30
0.0
 40
40.0
  1
１００
 41
1.029411764705882
  7
EXCADSTD
 72
     5
 11
1707.57489
 21
501.4999999403954
 31
0.0
100
AcDbText
  0
TEXT
  5
350
330
1F
100
AcDbEntity
  8
化粧台
  6
CONTINUOUS
 62
     2
100
AcDbText
 10
1702.57489
 20
501.4999999403954
 30
0.0
 40
32.0
  1
（床給水）
 41
0.9655172413793105
  7
EXCADSTD
 72
     5
 11
1830.57489
 21
501.4999999403954
 31
0.0
100
AcDbText
  0
LINE
  5
351
330
1F
100
AcDbEntity
  8
化粧台
  6
CONTINUOUS
 62
     3
100
AcDbLine
 10
560.0
 20
2280.999999880791
 30
0.0
 11
560.0
 21
2321.0
 31
0.0
  0
LINE
  5
352
330
1F
100
AcDbEntity
  8
化粧台
  6
CONTINUOUS
 62
     3
100
AcDbLine
 10
670.0
 20
2258.099999880791
 30
0.0
 11
670.0
 21
2321.0
 31
0.0
  0
LINE
  5
353
330
1F
100
AcDbEntity
  8
化粧台
  6
CONTINUOUS
 62
     3
100
AcDbLine
 10
308.5000038146974
 20
2311.0
 30
0.0
 11
700.0000000000001
 21
2311.0
 31
0.0
  0
LINE
  5
354
330
1F
100
AcDbEntity
  8
化粧台
  6
CONTINUOUS
 62
     3
100
AcDbLine
 10
530.0
 20
2306.0
 30
0.0
 11
560.0
 21
2311.0
 31
0.0
  0
LINE
  5
355
330
1F
100
AcDbEntity
  8
化粧台
  6
CONTINUOUS
 62
     3
100
AcDbLine
 10
560.0
 20
2311.0
 30
0.0
 11
530.0
 21
2316.0
 31
0.0
  0
LINE
  5
356
330
1F
100
AcDbEntity
  8
化粧台
  6
CONTINUOUS
 62
     3
100
AcDbLine
 10
700.0
 20
2316.0
 30
0.0
 11
670.0
 21
2311.0
 31
0.0
  0
LINE
  5
357
330
1F
100
AcDbEntity
  8
化粧台
  6
CONTINUOUS
 62
     3
100
AcDbLine
 10
670.0
 20
2311.0
 30
0.0
 11
700.0
 21
2306.0
 31
0.0
  0
TEXT
  5
358
330
1F
100
AcDbEntity
  8
化粧台
  6
CONTINUOUS
 62
     2
100
AcDbText
 10
312.0000000000002
 20
2314.499999940395
 30
0.0
 40
40.0
  1
１１０
 41
1.029411764705882
  7
EXCADSTD
 72
     5
 11
412.0000000000002
 21
2314.499999940395
 31
0.0
100
AcDbText
  0
TEXT
  5
359
330
1F
100
AcDbEntity
  8
化粧台
  6
CONTINUOUS
 62
     2
100
AcDbText
 10
407.0000000000002
 20
2314.499999940395
 30
0.0
 40
32.0
  1
（壁排水）
 41
0.9655172413793109
  7
EXCADSTD
 72
     5
 11
535.0000000000002
 21
2314.499999940395
 31
0.0
100
AcDbText
  0
LINE
  5
35A
330
1F
100
AcDbEntity
  8
化粧台
  6
CONTINUOUS
 62
     6
100
AcDbLine
 10
680.5000000000197
 20
2204.999999999991
 30
0.0
 11
680.5000000000197
 21
2212.999999999991
 31
0.0
  0
LINE
  5
35B
330
1F
100
AcDbEntity
  8
化粧台
  6
CONTINUOUS
 62
     6
100
AcDbLine
 10
659.5000000000124
 20
2204.999999999991
 30
0.0
 11
659.5000000000124
 21
2212.999999999991
 31
0.0
  0
LINE
  5
35C
330
1F
100
AcDbEntity
  8
化粧台
  6
CONTINUOUS
 62
     6
100
AcDbLine
 10
680.5000000000033
 20
2212.999999999991
 30
0.0
 11
659.5000000000124
 21
2212.999999999991
 31
0.0
  0
LINE
  5
35D
330
1F
100
AcDbEntity
  8
化粧台
  6
CONTINUOUS
 62
     3
100
AcDbLine
 10
1750.0
 20
562.6741749999982
 30
0.0
 11
1750.0
 21
1007.674175
 31
0.0
  0
LINE
  5
35E
330
1F
100
AcDbEntity
  8
化粧台
  6
CONTINUOUS
 62
     3
100
AcDbLine
 10
1745.0
 20
592.6741749999982
 30
0.0
 11
1750.0
 21
562.6741749999982
 31
0.0
  0
LINE
  5
35F
330
1F
100
AcDbEntity
  8
化粧台
  6
CONTINUOUS
 62
     3
100
AcDbLine
 10
1750.0
 20
562.6741749999982
 30
0.0
 11
1755.0
 21
592.6741749999982
 31
0.0
  0
LINE
  5
360
330
1F
100
AcDbEntity
  8
化粧台
  6
CONTINUOUS
 62
     3
100
AcDbLine
 10
1755.0
 20
977.6741750000002
 30
0.0
 11
1750.0
 21
1007.674175
 31
0.0
  0
LINE
  5
361
330
1F
100
AcDbEntity
  8
化粧台
  6
CONTINUOUS
 62
     3
100
AcDbLine
 10
1750.0
 20
1007.674175
 30
0.0
 11
1745.0
 21
977.6741750000002
 31
0.0
  0
LINE
  5
362
330
1F
100
AcDbEntity
  8
化粧台
  6
CONTINUOUS
 62
     3
100
AcDbLine
 10
1691.999999880791
 20
1007.674175
 30
0.0
 11
1760.0
 21
1007.674175
 31
0.0
  0
TEXT
  5
363
330
1F
100
AcDbEntity
  8
化粧台
  6
CONTINUOUS
 62
     2
100
AcDbText
 10
1746.500000059605
 20
656.674175
 30
0.0
 40
40.0
  1
４４５
 50
90.0
 41
1.029411764705882
  7
EXCADSTD
 72
     5
 11
1746.500000059605
 21
756.674175
 31
0.0
100
AcDbText
  0
TEXT
  5
364
330
1F
100
AcDbEntity
  8
化粧台
  6
CONTINUOUS
 62
     2
100
AcDbText
 10
1746.500000059605
 20
751.674175
 30
0.0
 40
32.0
  1
（壁排水）
 50
90.0
 41
0.9655172413793105
  7
EXCADSTD
 72
     5
 11
1746.500000059605
 21
879.674175
 31
0.0
100
AcDbText
  0
LINE
  5
365
330
1F
100
AcDbEntity
  8
化粧台
  6
CONTINUOUS
 62
     6
100
AcDbLine
 10
659.4999999999984
 20
554.6741749998996
 30
0.0
 11
680.4999999999874
 21
554.6741749998996
 31
0.0
  0
LINE
  5
366
330
1F
100
AcDbEntity
  8
化粧台
  6
CONTINUOUS
 62
     6
100
AcDbLine
 10
680.4999999999874
 20
562.6741749998996
 30
0.0
 11
680.4999999999874
 21
554.6741749998996
 31
0.0
  0
LINE
  5
367
330
1F
100
AcDbEntity
  8
化粧台
  6
CONTINUOUS
 62
     6
100
AcDbLine
 10
659.4999999999802
 20
562.6741749998996
 30
0.0
 11
659.4999999999802
 21
554.6741749998996
 31
0.0
  0
LINE
  5
368
330
1F
100
AcDbEntity
  8
化粧台
  6
EXLTYPE4
 62
     6
100
AcDbLine
 10
659.4999999999984
 20
562.6741749998996
 30
0.0
 11
659.4999999999987
 21
664.8999999999999
 31
0.0
  0
LINE
  5
369
330
1F
100
AcDbEntity
  8
化粧台
  6
EXLTYPE4
 62
     6
100
AcDbLine
 10
680.4999999999984
 20
562.6741749998996
 30
0.0
 11
680.4999999999987
 21
664.8999999999999
 31
0.0
  0
TEXT
  5
36A
330
1F
100
AcDbEntity
  8
化粧台
  6
CONTINUOUS
 62
     2
100
AcDbText
 10
852.624999999995
 20
2316.0
 30
0.0
 40
40.0
  1
壁給水
 41
1.132352941176471
  7
EXCADSTD
 72
     5
 11
962.624999999995
 21
2316.0
 31
0.0
100
AcDbText
  0
LEADER
  5
36B
330
1F
100
AcDbEntity
  8
化粧台
  6
CONTINUOUS
 62
     3
100
AcDbLeader
  3
ISO-25
 76
     3
 10
680.5000000000207
 20
2213.0
 30
0.0
 10
849.0000000000005
 20
2311.0
 30
0.0
 10
956.0000000000002
 20
2311.0
 30
0.0
1001
ACAD
1000
DSTYLE
1002
{
1070
     5
1000
EX_NORM
1070
    41
1040
30.0
1070
   341
1005
4A
1002
}
  0
LINE
  5
36C
330
1F
100
AcDbEntity
  8
化粧台
  6
EXLTYPE3
 62
     6
100
AcDbLine
 10
819.9999999999967
 20
722.674194
 30
0.0
 11
819.9999999999967
 21
732.674194
 31
0.0
  0
LINE
  5
36D
330
1F
100
AcDbEntity
  8
化粧台
  6
EXLTYPE3
 62
     6
100
AcDbLine
 10
815.0
 20
727.6741940000002
 30
0.0
 11
825.0
 21
727.6741940000002
 31
0.0
  0
LINE
  5
36E
330
1F
100
AcDbEntity
  8
化粧台
  6
EXLTYPE3
 62
     6
100
AcDbLine
 10
519.9999999999992
 20
722.674194
 30
0.0
 11
519.9999999999992
 21
732.674194
 31
0.0
  0
LINE
  5
36F
330
1F
100
AcDbEntity
  8
化粧台
  6
EXLTYPE3
 62
     6
100
AcDbLine
 10
515.0
 20
727.6741940000005
 30
0.0
 11
525.0
 21
727.6741940000005
 31
0.0
  0
TEXT
  5
370
330
1F
100
AcDbEntity
  8
化粧台
  6
CONTINUOUS
 62
     2
100
AcDbText
 10
561.0
 20
820.4999999403954
 30
0.0
 40
40.0
  1
３００
 41
1.029411764705882
  7
EXCADSTD
 72
     5
 11
661.0
 21
820.4999999403954
 31
0.0
100
AcDbText
  0
TEXT
  5
371
330
1F
100
AcDbEntity
  8
化粧台
  6
CONTINUOUS
 62
     2
100
AcDbText
 10
656.0
 20
820.4999999403954
 30
0.0
 40
32.0
  1
（壁固定）
 41
0.9655172413793105
  7
EXCADSTD
 72
     5
 11
784.0
 21
820.4999999403954
 31
0.0
100
AcDbText
  0
LINE
  5
372
330
1F
100
AcDbEntity
  8
化粧台
  6
CONTINUOUS
 62
     3
100
AcDbLine
 10
520.0
 20
729.6741938807908
 30
0.0
 11
520.0
 21
827.0
 31
0.0
  0
LINE
  5
373
330
1F
100
AcDbEntity
  8
化粧台
  6
CONTINUOUS
 62
     3
100
AcDbLine
 10
820.0
 20
729.6741938807908
 30
0.0
 11
820.0
 21
827.0
 31
0.0
  0
LINE
  5
374
330
1F
100
AcDbEntity
  8
化粧台
  6
CONTINUOUS
 62
     3
100
AcDbLine
 10
520.0
 20
817.0
 30
0.0
 11
820.0
 21
817.0
 31
0.0
  0
LINE
  5
375
330
1F
100
AcDbEntity
  8
化粧台
  6
CONTINUOUS
 62
     3
100
AcDbLine
 10
550.0
 20
822.0
 30
0.0
 11
520.0
 21
817.0
 31
0.0
  0
LINE
  5
376
330
1F
100
AcDbEntity
  8
化粧台
  6
CONTINUOUS
 62
     3
100
AcDbLine
 10
520.0
 20
817.0
 30
0.0
 11
550.0
 21
812.0
 31
0.0
  0
LINE
  5
377
330
1F
100
AcDbEntity
  8
化粧台
  6
CONTINUOUS
 62
     3
100
AcDbLine
 10
790.0
 20
812.0
 30
0.0
 11
820.0
 21
817.0
 31
0.0
  0
LINE
  5
378
330
1F
100
AcDbEntity
  8
化粧台
  6
CONTINUOUS
 62
     3
100
AcDbLine
 10
820.0
 20
817.0
 30
0.0
 11
790.0
 21
822.0
 31
0.0
  0
LINE
  5
379
330
1F
100
AcDbEntity
  8
化粧台
  6
EXLTYPE3
 62
     6
100
AcDbLine
 10
669.9999999999981
 20
800.1
 30
0.0
 11
669.9999999999981
 21
550.8000000000001
 31
0.0
  0
LINE
  5
37A
330
1F
100
AcDbEntity
  8
化粧台
  6
EXLTYPE3
 62
     6
100
AcDbLine
 10
669.9999999999981
 20
1474.0
 30
0.0
 11
669.9999999999981
 21
873.2
 31
0.0
  0
LINE
  5
37B
330
1F
100
AcDbEntity
  8
化粧台
  6
EXLTYPE3
 62
     6
100
AcDbLine
 10
770.9692125047746
 20
827.5214762020767
 30
0.0
 11
863.0000000000002
 21
765.174194
 31
0.0
  0
LINE
  5
37C
330
1F
100
AcDbEntity
  8
化粧台
  6
EXLTYPE3
 62
     6
100
AcDbLine
 10
477.0000000000002
 20
1026.674194000001
 30
0.0
 11
723.3713074705773
 21
859.7672072032234
 31
0.0
  0
LEADER
  5
37D
330
1F
100
AcDbEntity
  8
化粧台
  6
CONTINUOUS
 62
     3
100
AcDbLeader
  3
ISO-25
 76
     3
 10
1610.0
 20
1023.674175
 30
0.0
 10
1640.8897976696
 20
1077.1768739992
 30
0.0
 10
1734.9
 20
1077.1768739992
 30
0.0
1001
ACAD
1000
DSTYLE
1002
{
1070
     5
1000
EX_NORM
1070
    41
1040
30.0
1070
   341
1005
4A
1002
}
  0
TEXT
  5
37E
330
1F
100
AcDbEntity
  8
化粧台
  6
CONTINUOUS
 62
     2
100
AcDbText
 10
1639.7448988348
 20
1082.1768739992
 30
0.0
 40
40.0
  1
φ３２
 41
1.029411764705882
  7
EXCADSTD
 72
     5
 11
1739.7448988348
 21
1082.1768739992
 31
0.0
100
AcDbText
  0
TEXT
  5
37F
330
1F
100
AcDbEntity
  8
化粧台
  6
CONTINUOUS
 62
     2
100
AcDbText
 10
1289.10941147894
 20
500.6094114193356
 30
0.0
 40
40.0
  1
Ｒ１/２
 41
0.8342465753424658
  7
EXCADSTD
 72
     5
 11
1405.10941147894
 21
500.6094114193356
 31
0.0
100
AcDbText
  0
LEADER
  5
380
330
1F
100
AcDbEntity
  8
化粧台
  6
CONTINUOUS
 62
     3
100
AcDbLeader
  3
ISO-25
 76
     3
 10
1465.19988580526
 20
560.87500419474
 30
0.0
 10
1412.10941147894
 20
497.1094114789402
 30
0.0
 10
1274.33755919474
 20
497.1094114789402
 30
0.0
1001
ACAD
1000
DSTYLE
1002
{
1070
     5
1000
EX_NORM
1070
    41
1040
30.0
1070
   341
1005
4A
1002
}
  0
LINE
  5
381
330
1F
100
AcDbEntity
  8
化粧台
  6
CONTINUOUS
 62
     6
100
AcDbLine
 10
829.5000000000368
 20
2237.50000572201
 30
0.0
 11
831.500000000035
 21
2205.00000572201
 31
0.0
  0
LINE
  5
382
330
1F
100
AcDbEntity
  8
化粧台
  6
CONTINUOUS
 62
     6
100
AcDbLine
 10
827.500000000035
 20
2205.00000572201
 30
0.0
 11
829.5000000000368
 21
2237.50000572201
 31
0.0
  0
LINE
  5
383
330
1F
100
AcDbEntity
  8
化粧台
  6
EXLTYPE3
 62
     6
100
AcDbLine
 10
829.499999999995
 20
2192.1
 30
0.0
 11
829.499999999995
 21
2248.1
 31
0.0
  0
LINE
  5
384
330
1F
100
AcDbEntity
  8
化粧台
  6
CONTINUOUS
 62
     6
100
AcDbLine
 10
510.4999999999638
 20
2237.50000572201
 30
0.0
 11
508.4999999999657
 21
2205.00000572201
 31
0.0
  0
LINE
  5
385
330
1F
100
AcDbEntity
  8
化粧台
  6
CONTINUOUS
 62
     6
100
AcDbLine
 10
512.4999999999657
 20
2205.00000572201
 30
0.0
 11
510.4999999999638
 21
2237.50000572201
 31
0.0
  0
LINE
  5
386
330
1F
100
AcDbEntity
  8
化粧台
  6
EXLTYPE3
 62
     6
100
AcDbLine
 10
510.5000000000057
 20
2192.1
 30
0.0
 11
510.5000000000057
 21
2248.1
 31
0.0
  0
LINE
  5
387
330
1F
100
AcDbEntity
  8
化粧台
  6
CONTINUOUS
 62
     3
100
AcDbLine
 10
829.5
 20
2255.099999880791
 30
0.0
 11
829.5
 21
2387.0
 31
0.0
  0
LINE
  5
388
330
1F
100
AcDbEntity
  8
化粧台
  6
CONTINUOUS
 62
     3
100
AcDbLine
 10
510.5000000000102
 20
2377.0
 30
0.0
 11
829.5000000000001
 21
2377.0
 31
0.0
  0
LINE
  5
389
330
1F
100
AcDbEntity
  8
化粧台
  6
CONTINUOUS
 62
     3
100
AcDbLine
 10
540.50000000001
 20
2382.0
 30
0.0
 11
510.5000000000101
 21
2377.0
 31
0.0
  0
LINE
  5
38A
330
1F
100
AcDbEntity
  8
化粧台
  6
CONTINUOUS
 62
     3
100
AcDbLine
 10
510.5000000000101
 20
2377.0
 30
0.0
 11
540.50000000001
 21
2372.0
 31
0.0
  0
LINE
  5
38B
330
1F
100
AcDbEntity
  8
化粧台
  6
CONTINUOUS
 62
     3
100
AcDbLine
 10
799.5
 20
2372.0
 30
0.0
 11
829.5
 21
2377.0
 31
0.0
  0
LINE
  5
38C
330
1F
100
AcDbEntity
  8
化粧台
  6
CONTINUOUS
 62
     3
100
AcDbLine
 10
829.5
 20
2377.0
 30
0.0
 11
799.5
 21
2382.0
 31
0.0
  0
TEXT
  5
38D
330
1F
100
AcDbEntity
  8
化粧台
  6
CONTINUOUS
 62
     2
100
AcDbText
 10
561.0000000000052
 20
2380.499999940395
 30
0.0
 40
40.0
  1
３１９
 41
1.029411764705882
  7
EXCADSTD
 72
     5
 11
661.0000000000052
 21
2380.499999940395
 31
0.0
100
AcDbText
  0
TEXT
  5
38E
330
1F
100
AcDbEntity
  8
化粧台
  6
CONTINUOUS
 62
     2
100
AcDbText
 10
656.0000000000052
 20
2380.499999940395
 30
0.0
 40
32.0
  1
（壁固定）
 41
0.9655172413793105
  7
EXCADSTD
 72
     5
 11
784.0000000000052
 21
2380.499999940395
 31
0.0
100
AcDbText
  0
LINE
  5
38F
330
1F
100
AcDbEntity
  8
化粧台
  6
CONTINUOUS
 62
     3
100
AcDbLine
 10
510.5000000000102
 20
2354.2
 30
0.0
 11
510.5000000000102
 21
2387.0
 31
0.0
  0
LINE
  5
390
330
1F
100
AcDbEntity
  8
化粧台
  6
CONTINUOUS
 62
     3
100
AcDbLine
 10
510.5000000000102
 20
2255.099999880791
 30
0.0
 11
510.5000000000102
 21
2295.3
 31
0.0
  0
LINE
  5
391
330
1F
100
AcDbEntity
  8
化粧台
  6
CONTINUOUS
 62
     3
100
AcDbLine
 10
831.9999998807807
 20
727.674194
 30
0.0
 11
941.9999999999902
 21
727.6741939999999
 31
0.0
  0
LINE
  5
392
330
1F
100
AcDbEntity
  8
化粧台
  6
CONTINUOUS
 62
     3
100
AcDbLine
 10
889.9999998807808
 20
562.674175
 30
0.0
 11
941.99999999999
 21
562.674175
 31
0.0
  0
LINE
  5
393
330
1F
100
AcDbEntity
  8
化粧台
  6
CONTINUOUS
 62
     3
100
AcDbLine
 10
931.9999999999905
 20
979.1741901853027
 30
0.0
 11
931.99999999999
 21
532.674175
 31
0.0
  0
LINE
  5
394
330
1F
100
AcDbEntity
  8
化粧台
  6
CONTINUOUS
 62
     3
100
AcDbLine
 10
926.9999999999902
 20
757.6741939999999
 30
0.0
 11
931.9999999999902
 21
727.6741939999999
 31
0.0
  0
LINE
  5
395
330
1F
100
AcDbEntity
  8
化粧台
  6
CONTINUOUS
 62
     3
100
AcDbLine
 10
931.9999999999902
 20
727.6741939999999
 30
0.0
 11
936.9999999999903
 21
757.6741939999999
 31
0.0
  0
LINE
  5
396
330
1F
100
AcDbEntity
  8
化粧台
  6
CONTINUOUS
 62
     3
100
AcDbLine
 10
936.99999999999
 20
532.674175
 30
0.0
 11
931.99999999999
 21
562.674175
 31
0.0
  0
LINE
  5
397
330
1F
100
AcDbEntity
  8
化粧台
  6
CONTINUOUS
 62
     3
100
AcDbLine
 10
931.99999999999
 20
562.674175
 30
0.0
 11
926.9999999999899
 21
532.674175
 31
0.0
  0
TEXT
  5
398
330
1F
100
AcDbEntity
  8
化粧台
  6
CONTINUOUS
 62
     2
100
AcDbText
 10
928.5000000595951
 20
757.6741939999995
 30
0.0
 40
40.0
  1
１６５
 50
89.99999999999994
 41
1.029411764705882
  7
EXCADSTD
 72
     5
 11
928.5000000595952
 21
857.6741939999995
 31
0.0
100
AcDbText
  0
TEXT
  5
399
330
1F
100
AcDbEntity
  8
化粧台
  6
CONTINUOUS
 62
     2
100
AcDbText
 10
928.5000000595952
 20
852.6741939999995
 30
0.0
 40
32.0
  1
（壁固定）
 50
89.99999999999994
 41
0.9655172413793105
  7
EXCADSTD
 72
     5
 11
928.5000000595953
 21
980.6741939999995
 31
0.0
100
AcDbText
  0
LINE
  5
39A
330
1F
100
AcDbEntity
  8
化粧台
  6
CONTINUOUS
 62
     6
100
AcDbLine
 10
1558.07489572201
 20
1183.674193999961
 30
0.0
 11
1590.57489572201
 21
1181.674193999959
 31
0.0
  0
LINE
  5
39B
330
1F
100
AcDbEntity
  8
化粧台
  6
CONTINUOUS
 62
     6
100
AcDbLine
 10
1590.57489572201
 20
1181.674193999959
 30
0.0
 11
1558.07489572201
 21
1179.674193999961
 31
0.0
  0
LINE
  5
39C
330
1F
100
AcDbEntity
  8
化粧台
  6
EXLTYPE3
 62
     6
100
AcDbLine
 10
1545.17489
 20
1181.674194000001
 30
0.0
 11
1601.17489
 21
1181.674194000001
 31
0.0
  0
LINE
  5
39D
330
1F
100
AcDbEntity
  8
化粧台
  6
EXLTYPE3
 62
     6
100
AcDbLine
 10
1545.17489
 20
867.6741940000003
 30
0.0
 11
1601.17489
 21
867.6741940000003
 31
0.0
  0
LINE
  5
39E
330
1F
100
AcDbEntity
  8
化粧台
  6
CONTINUOUS
 62
     6
100
AcDbLine
 10
1558.07489572201
 20
869.6741939999603
 30
0.0
 11
1590.57489572201
 21
867.6741939999584
 31
0.0
  0
LINE
  5
39F
330
1F
100
AcDbEntity
  8
化粧台
  6
CONTINUOUS
 62
     6
100
AcDbLine
 10
1590.57489572201
 20
867.6741939999584
 30
0.0
 11
1558.07489572201
 21
865.6741939999603
 31
0.0
  0
TEXT
  5
3A0
330
1F
100
AcDbEntity
  8
化粧台
  6
CONTINUOUS
 62
     2
100
AcDbText
 10
1808.500000059605
 20
606.1741844999995
 30
0.0
 40
40.0
  1
３０５
 50
90.0
 41
1.029411764705882
  7
EXCADSTD
 72
     5
 11
1808.500000059605
 21
706.1741844999995
 31
0.0
100
AcDbText
  0
TEXT
  5
3A1
330
1F
100
AcDbEntity
  8
化粧台
  6
CONTINUOUS
 62
     2
100
AcDbText
 10
1808.500000059605
 20
701.1741844999995
 30
0.0
 40
32.0
  1
（壁固定）
 50
90.0
 41
0.9655172413793105
  7
EXCADSTD
 72
     5
 11
1808.500000059605
 21
829.1741844999995
 31
0.0
100
AcDbText
  0
LINE
  5
3A2
330
1F
100
AcDbEntity
  8
化粧台
  6
CONTINUOUS
 62
     3
100
AcDbLine
 10
1584.574889880791
 20
562.6741749999999
 30
0.0
 11
1822.0
 21
562.674174999999
 31
0.0
  0
LINE
  5
3A3
330
1F
100
AcDbEntity
  8
化粧台
  6
CONTINUOUS
 62
     3
100
AcDbLine
 10
1812.0
 20
562.6741749999991
 30
0.0
 11
1812.0
 21
867.674194
 31
0.0
  0
LINE
  5
3A4
330
1F
100
AcDbEntity
  8
化粧台
  6
CONTINUOUS
 62
     3
100
AcDbLine
 10
1807.0
 20
592.6741749999991
 30
0.0
 11
1812.0
 21
562.6741749999991
 31
0.0
  0
LINE
  5
3A5
330
1F
100
AcDbEntity
  8
化粧台
  6
CONTINUOUS
 62
     3
100
AcDbLine
 10
1812.0
 20
562.6741749999991
 30
0.0
 11
1817.0
 21
592.6741749999991
 31
0.0
  0
CIRCLE
  5
3A6
330
1F
100
AcDbEntity
  8
化粧台
  6
CONTINUOUS
 62
     3
100
AcDbCircle
 10
1812.0
 20
867.674194
 30
0.0
 40
5.0
  0
CIRCLE
  5
3A7
330
1F
100
AcDbEntity
  8
化粧台
  6
CONTINUOUS
 62
     3
100
AcDbCircle
 10
1812.0
 20
867.674194
 30
0.0
 40
2.5
  0
TEXT
  5
3A8
330
1F
100
AcDbEntity
  8
化粧台
  6
CONTINUOUS
 62
     2
100
AcDbText
 10
1808.500000059604
 20
915.6741939999995
 30
0.0
 40
40.0
  1
３１４
 50
90.00000000000014
 41
1.029411764705882
  7
EXCADSTD
 72
     5
 11
1808.500000059604
 21
1015.674193999999
 31
0.0
100
AcDbText
  0
TEXT
  5
3A9
330
1F
100
AcDbEntity
  8
化粧台
  6
CONTINUOUS
 62
     2
100
AcDbText
 10
1808.500000059604
 20
1010.674193999999
 30
0.0
 40
32.0
  1
（壁固定）
 50
90.0000000000001
 41
0.9655172413793105
  7
EXCADSTD
 72
     5
 11
1808.500000059604
 21
1138.674193999999
 31
0.0
100
AcDbText
  0
LINE
  5
3AA
330
1F
100
AcDbEntity
  8
化粧台
  6
CONTINUOUS
 62
     3
100
AcDbLine
 10
1608.174889880791
 20
867.6741940000002
 30
0.0
 11
1822.0
 21
867.6741939999991
 31
0.0
  0
LINE
  5
3AB
330
1F
100
AcDbEntity
  8
化粧台
  6
CONTINUOUS
 62
     3
100
AcDbLine
 10
1608.174889880791
 20
1181.674194
 30
0.0
 11
1822.0
 21
1181.674194
 31
0.0
  0
LINE
  5
3AC
330
1F
100
AcDbEntity
  8
化粧台
  6
CONTINUOUS
 62
     3
100
AcDbLine
 10
1812.0
 20
867.6741939999991
 30
0.0
 11
1812.0
 21
1181.674194
 31
0.0
  0
LINE
  5
3AD
330
1F
100
AcDbEntity
  8
化粧台
  6
CONTINUOUS
 62
     3
100
AcDbLine
 10
1817.0
 20
1151.674194
 30
0.0
 11
1812.0
 21
1181.674194
 31
0.0
  0
LINE
  5
3AE
330
1F
100
AcDbEntity
  8
化粧台
  6
CONTINUOUS
 62
     3
100
AcDbLine
 10
1812.0
 20
1181.674194
 30
0.0
 11
1807.0
 21
1151.674194
 31
0.0
  0
LINE
  5
3AF
330
1F
100
AcDbEntity
  8
化粧台
  6
CONTINUOUS
 62
     6
100
AcDbLine
 10
687.5000000000009
 20
1382.242208634691
 30
0.0
 11
687.5000000000009
 21
1362.674193999996
 31
0.0
  0
LINE
  5
3B0
330
1F
100
AcDbEntity
  8
化粧台
  6
CONTINUOUS
 62
     6
100
AcDbLine
 10
652.5000000000009
 20
1425.111082164993
 30
0.0
 11
652.5000000000009
 21
1362.674193999996
 31
0.0
  0
LINE
  5
3B1
330
1F
100
AcDbEntity
  8
化粧台
  6
CONTINUOUS
 62
     6
100
AcDbLine
 10
681.9999999999991
 20
1428.742208634691
 30
0.0
 11
681.9999999999991
 21
1435.18005535689
 31
0.0
  0
LINE
  5
3B2
330
1F
100
AcDbEntity
  8
化粧台
  6
CONTINUOUS
 62
     6
100
AcDbLine
 10
657.9999999999992
 20
1428.742208634691
 30
0.0
 11
657.9999999999992
 21
1435.18005535689
 31
0.0
  0
ELLIPSE
  5
3B3
330
1F
100
AcDbEntity
  8
化粧台
  6
CONTINUOUS
 62
     6
100
AcDbEllipse
 10
669.9999999999992
 20
1428.742208634691
 30
0.0
 11
12.00000000000002
 21
0.0
 31
0.0
210
0.0
220
0.0
230
1.0
 40
0.4226182617406989
 41
0.0
 42
6.283185307179586
  0
ELLIPSE
  5
3B4
330
1F
100
AcDbEntity
  8
化粧台
  6
CONTINUOUS
 62
     6
100
AcDbEllipse
 10
669.9999999999992
 20
1435.18005535689
 30
0.0
 11
12.00000000000002
 21
0.0
 31
0.0
210
0.0
220
0.0
230
1.0
 40
0.4226182617406989
 41
0.0
 42
3.141592653589793
  0
ELLIPSE
  5
3B5
330
1F
100
AcDbEntity
  8
化粧台
  6
CONTINUOUS
 62
     6
100
AcDbEllipse
 10
725.9275498326289
 20
1416.329538858789
 30
0.0
 11
17.43340721660556
 21
-1.52522549808399
 31
0.0
210
0.0
220
0.0
230
1.0
 40
0.2794104048720002
 41
0.0
 42
6.283185307179586
  0
LINE
  5
3B6
330
1F
100
AcDbEntity
  8
化粧台
  6
CONTINUOUS
 62
     6
100
AcDbLine
 10
747.4999999999992
 20
1415.742208634691
 30
0.0
 11
747.4999999999992
 21
1399.742208634691
 31
0.0
  0
LINE
  5
3B7
330
1F
100
AcDbEntity
  8
化粧台
  6
CONTINUOUS
 62
     6
100
AcDbLine
 10
697.4999999999774
 20
1390.242208635342
 30
0.0
 11
718.2950580364369
 21
1390.968388063601
 31
0.0
  0
ARC
  5
3B8
330
1F
100
AcDbEntity
  8
化粧台
  6
CONTINUOUS
 62
     6
100
AcDbCircle
 10
716.2010882342885
 20
1450.931837684746
 30
0.0
 40
60.0
100
AcDbArc
 50
271.9999999999976
 51
301.4428966914533
  0
ARC
  5
3B9
330
1F
100
AcDbEntity
  8
化粧台
  6
CONTINUOUS
 62
     6
100
AcDbCircle
 10
716.2010882342885
 20
1364.552579584635
 30
0.0
 40
60.0
100
AcDbArc
 50
58.55710330854682
 51
88.00000000000246
  0
LINE
  5
3BA
330
1F
100
AcDbEntity
  8
化粧台
  6
CONTINUOUS
 62
     6
100
AcDbLine
 10
697.4999999999774
 20
1425.24220863404
 30
0.0
 11
718.2950580364369
 21
1424.516029205781
 31
0.0
  0
LINE
  5
3BB
330
1F
100
AcDbEntity
  8
化粧台
  6
CONTINUOUS
 62
     6
100
AcDbLine
 10
695.500000000001
 20
1390.242208634691
 30
0.0
 11
697.5000000000009
 21
1390.242208634691
 31
0.0
  0
LINE
  5
3BC
330
1F
100
AcDbEntity
  8
化粧台
  6
CONTINUOUS
 62
     6
100
AcDbLine
 10
695.3410084231047
 20
1425.242208634691
 30
0.0
 11
697.5000000000009
 21
1425.242208634691
 31
0.0
  0
ARC
  5
3BD
330
1F
100
AcDbEntity
  8
化粧台
  6
CONTINUOUS
 62
     6
100
AcDbCircle
 10
487.4999999999974
 20
1425.111082164991
 30
0.0
 40
200.0000000000001
100
AcDbArc
 50
2.24037485110208
 51
5.984350480638444
  0
ARC
  5
3BE
330
1F
100
AcDbEntity
  8
化粧台
  6
CONTINUOUS
 62
     6
100
AcDbCircle
 10
695.500000000001
 20
1382.242208634691
 30
0.0
 40
8.0
100
AcDbArc
 50
90.00000000000001
 51
180.0
  0
ARC
  5
3BF
330
1F
100
AcDbEntity
  8
化粧台
  6
CONTINUOUS
 62
     6
100
AcDbCircle
 10
695.3410084231047
 20
1433.242208634691
 30
0.0
 40
8.0
100
AcDbArc
 50
182.2403748511015
 51
270.0000000000002
  0
ARC
  5
3C0
330
1F
100
AcDbEntity
  8
化粧台
  6
CONTINUOUS
 62
     6
100
AcDbCircle
 10
669.9999999999992
 20
1444.242208634691
 30
0.0
 40
16.5
100
AcDbArc
 50
5.984350480639131
 51
174.015649519361
  0
ARC
  5
3C1
330
1F
100
AcDbEntity
  8
化粧台
  6
CONTINUOUS
 62
     6
100
AcDbCircle
 10
852.5000000000011
 20
1425.111082164991
 30
0.0
 40
200.0000000000001
100
AcDbArc
 50
174.0156495193615
 51
180.0
  0
ELLIPSE
  5
3C2
330
1F
100
AcDbEntity
  8
化粧台
  6
CONTINUOUS
 62
     6
100
AcDbEllipse
 10
669.9999999999992
 20
1435.18005535689
 30
0.0
 11
15.00000000000001
 21
0.0
 31
0.0
210
0.0
220
0.0
230
1.0
 40
0.5634910156533309
 41
5.639684198386308
 42
10.06827906956268
  0
LINE
  5
3C3
330
1F
100
AcDbEntity
  8
化粧台
  6
CONTINUOUS
 62
     6
100
AcDbLine
 10
697.5000000000009
 20
1390.242208634691
 30
0.0
 11
697.5000000000009
 21
1425.242208634691
 31
0.0
  0
LINE
  5
3C4
330
1F
100
AcDbEntity
  8
化粧台
  6
CONTINUOUS
 62
     7
100
AcDbLine
 10
511.37208399039
 20
2113.499999999999
 30
0.0
 11
653.6909221934022
 21
2113.499999999999
 31
0.0
  0
LINE
  5
3C5
330
1F
100
AcDbEntity
  8
化粧台
  6
CONTINUOUS
 62
     7
100
AcDbLine
 10
686.3090778065979
 20
2113.499999999999
 30
0.0
 11
828.6279160096103
 21
2113.499999999999
 31
0.0
  0
LINE
  5
3C6
330
1F
100
AcDbEntity
  8
化粧台
  6
CONTINUOUS
 62
     7
100
AcDbLine
 10
570.3701043250841
 20
2092.726593197347
 30
0.0
 11
654.4013891589727
 21
2094.304405708481
 31
0.0
  0
LINE
  5
3C7
330
1F
100
AcDbEntity
  8
化粧台
  6
CONTINUOUS
 62
     7
100
AcDbLine
 10
685.6203065855227
 20
2094.890587374002
 30
0.0
 11
811.0799641782179
 21
2097.246279278317
 31
0.0
  0
ARC
  5
3C8
330
1F
100
AcDbEntity
  8
化粧台
  6
CONTINUOUS
 62
     6
100
AcDbCircle
 10
669.9999999999997
 20
2145.0
 30
0.0
 40
21.0
100
AcDbArc
 50
56.44269023807931
 51
215.6769725018797
  0
ELLIPSE
  5
3C9
330
1F
100
AcDbEntity
  8
化粧台
  6
CONTINUOUS
 62
     6
100
AcDbEllipse
 10
725.9275498326293
 20
2136.412669775902
 30
0.0
 11
-17.43340721660556
 21
-1.525225498083999
 31
0.0
210
0.0
220
0.0
230
1.0
 40
0.2794104048720002
 41
0.0
 42
6.283185307179586
  0
LINE
  5
3CA
330
1F
100
AcDbEntity
  8
化粧台
  6
CONTINUOUS
 62
     6
100
AcDbLine
 10
747.4999999999997
 20
2153.0
 30
0.0
 11
747.4999999999997
 21
2137.0
 31
0.0
  0
LINE
  5
3CB
330
1F
100
AcDbEntity
  8
化粧台
  6
CONTINUOUS
 62
     6
100
AcDbLine
 10
697.4999999999778
 20
2127.500000000651
 30
0.0
 11
718.2950580364374
 21
2128.22617942891
 31
0.0
  0
ARC
  5
3CC
330
1F
100
AcDbEntity
  8
化粧台
  6
CONTINUOUS
 62
     6
100
AcDbCircle
 10
716.2010882342889
 20
2188.189629050055
 30
0.0
 40
60.0
100
AcDbArc
 50
271.9999999999977
 51
301.4428966914533
  0
ARC
  5
3CD
330
1F
100
AcDbEntity
  8
化粧台
  6
CONTINUOUS
 62
     6
100
AcDbCircle
 10
716.2010882342889
 20
2101.810370949945
 30
0.0
 40
60.0
100
AcDbArc
 50
58.55710330854687
 51
88.00000000000253
  0
LINE
  5
3CE
330
1F
100
AcDbEntity
  8
化粧台
  6
CONTINUOUS
 62
     6
100
AcDbLine
 10
697.4999999999778
 20
2162.499999999349
 30
0.0
 11
718.2950580364374
 21
2161.77382057109
 31
0.0
  0
LINE
  5
3CF
330
1F
100
AcDbEntity
  8
化粧台
  6
CONTINUOUS
 62
     6
100
AcDbLine
 10
669.9999999999997
 20
2162.5
 30
0.0
 11
697.5000000000015
 21
2162.5
 31
0.0
  0
LINE
  5
3D0
330
1F
100
AcDbEntity
  8
化粧台
  6
CONTINUOUS
 62
     6
100
AcDbLine
 10
686.8642727441671
 20
2127.5
 30
0.0
 11
697.5000000000015
 21
2127.5
 31
0.0
  0
LINE
  5
3D1
330
1F
100
AcDbEntity
  8
化粧台
  6
CONTINUOUS
 62
     6
100
AcDbLine
 10
697.5000000000015
 20
2127.5
 30
0.0
 11
697.5000000000015
 21
2162.5
 31
0.0
  0
ARC
  5
3D2
330
1F
100
AcDbEntity
  8
化粧台
  6
CONTINUOUS
 62
     6
100
AcDbCircle
 10
669.9999999999997
 20
2145.0
 30
0.0
 40
17.5
100
AcDbArc
 50
357.8803372600435
 51
182.1196627399567
  0
LINE
  5
3D3
330
1F
100
AcDbEntity
  8
化粧台
  6
CONTINUOUS
 62
     6
100
AcDbLine
 10
655.0149804149529
 20
2076.725814905336
 30
0.0
 11
652.5119742076854
 21
2144.352733526777
 31
0.0
  0
LINE
  5
3D4
330
1F
100
AcDbEntity
  8
化粧台
  6
CONTINUOUS
 62
     6
100
AcDbLine
 10
684.9850195850482
 20
2076.725814905336
 30
0.0
 11
687.4880257923138
 21
2144.352733526777
 31
0.0
  0
ELLIPSE
  5
3D5
330
1F
100
AcDbEntity
  8
化粧台
  6
CONTINUOUS
 62
     6
100
AcDbEllipse
 10
669.9999999999997
 20
2077.535709570398
 30
0.0
 11
1.109906930434687E-15
 21
18.12615574069923
 31
0.0
210
0.0
220
0.0
230
1.0
 40
0.827533439223411
 41
1.615492201463848
 42
4.667693105715715
  0
ARC
  5
3D6
330
1F
100
AcDbEntity
  8
化粧台
  6
CONTINUOUS
 62
     6
100
AcDbCircle
 10
1477.710163507536
 20
1374.325454312614
 30
0.0
 40
22.290250048
100
AcDbArc
 50
14.21368499999832
 51
14.69099199999863
  0
LINE
  5
3D7
330
1F
100
AcDbEntity
  8
化粧台
  6
CONTINUOUS
 62
     6
100
AcDbLine
 10
1499.891994250753
 20
1362.674193999977
 30
0.0
 11
1499.292742352209
 21
1379.834523146918
 31
0.0
  0
ARC
  5
3D8
330
1F
100
AcDbEntity
  8
化粧台
  6
CONTINUOUS
 62
     6
100
AcDbCircle
 10
1500.02974882428
 20
1361.530124310257
 30
0.0
 40
0.2001221096
100
AcDbArc
 50
156.7881739998772
 51
181.7954589998156
  0
LINE
  5
3D9
330
1F
100
AcDbEntity
  8
化粧台
  6
CONTINUOUS
 62
     6
100
AcDbLine
 10
1533.222314142054
 20
1411.098503763675
 30
0.0
 11
1534.913328301193
 21
1362.674193999996
 31
0.0
  0
LINE
  5
3DA
330
1F
100
AcDbEntity
  8
化粧台
  6
CONTINUOUS
 62
     6
100
AcDbLine
 10
1498.349553415656
 20
1406.843920424923
 30
0.0
 11
1499.891994250732
 21
1362.674193999996
 31
0.0
  0
LINE
  5
3DB
330
1F
100
AcDbEntity
  8
化粧台
  6
CONTINUOUS
 62
     6
100
AcDbLine
 10
1455.719702488018
 20
1421.550945139298
 30
0.0
 11
1458.495213358371
 21
1428.089638989623
 31
0.0
  0
LINE
  5
3DC
330
1F
100
AcDbEntity
  8
化粧台
  6
CONTINUOUS
 62
     6
100
AcDbLine
 10
1433.627586005144
 20
1430.928492223002
 30
0.0
 11
1436.403096875497
 21
1437.467186073325
 31
0.0
  0
LINE
  5
3DD
330
1F
100
AcDbEntity
  8
化粧台
  6
CONTINUOUS
 62
     6
100
AcDbLine
 10
1433.627586005129
 20
1430.928492223007
 30
0.0
 11
1455.719702487947
 21
1421.550945139328
 31
0.0
  0
CIRCLE
  5
3DE
330
1F
100
AcDbEntity
  8
化粧台
  6
CONTINUOUS
 62
     6
100
AcDbCircle
 10
1515.829915164838
 20
1407.711749985642
 30
0.0
 40
8.0
  0
ELLIPSE
  5
3DF
330
1F
100
AcDbEntity
  8
化粧台
  6
CONTINUOUS
 62
     6
100
AcDbEllipse
 10
1505.826355107741
 20
1417.040220653937
 30
0.0
 11
4.09199016036733
 21
4.38812220972216
 31
0.0
210
0.0
220
0.0
230
1.0
 40
0.5729548600241788
 41
0.0
 42
6.283185307179586
  0
CIRCLE
  5
3E0
330
1F
100
AcDbEntity
  8
化粧台
  6
CONTINUOUS
 62
     6
100
AcDbCircle
 10
1515.829915164838
 20
1407.711749985642
 30
0.0
 40
17.5
  0
ARC
  5
3E1
330
1F
100
AcDbEntity
  8
化粧台
  6
CONTINUOUS
 62
     6
100
AcDbCircle
 10
1483.252772791103
 20
1409.353528928463
 30
0.0
 40
50.00000000000004
100
AcDbArc
 50
2.000000000100005
 51
85.02071889590698
  0
ARC
  5
3E2
330
1F
100
AcDbEntity
  8
化粧台
  6
CONTINUOUS
 62
     6
100
AcDbCircle
 10
1473.364782740181
 20
1405.971433007317
 30
0.0
 40
25.00000000000002
100
AcDbArc
 50
2.000000000100005
 51
121.4089117966544
  0
LINE
  5
3E3
330
1F
100
AcDbEntity
  8
化粧台
  6
CONTINUOUS
 62
     6
100
AcDbLine
 10
1429.039058047877
 20
1440.593035101227
 30
0.0
 11
1460.336223065334
 21
1427.308176732626
 31
0.0
  0
ARC
  5
3E4
330
1F
100
AcDbEntity
  8
化粧台
  6
CONTINUOUS
 62
     6
100
AcDbCircle
 10
1480.648907786525
 20
1379.466744440366
 30
0.0
 40
80.0
100
AcDbArc
 50
85.02071889590641
 51
130.174907341017
  0
ENDSEC
  0
SECTION
  2
OBJECTS
  0
DICTIONARY
  5
C
330
0
100
AcDbDictionary
  3
ACAD_GROUP
350
D
  3
ACAD_LAYOUT
350
1A
  3
ACAD_MATERIAL
350
3B
  3
ACAD_MLEADERSTYLE
350
407
  3
ACAD_MLINESTYLE
350
17
  3
ACAD_PLOTSETTINGS
350
19
  3
ACAD_VISUALSTYLE
350
2A
  3
ACDBHEADERROUNDTRIPXREC
350
3E5
  3
ACDBVARIABLEDICTIONARY
350
405
  0
DICTIONARY
  5
D
102
{ACAD_REACTORS
330
C
102
}
330
C
100
AcDbDictionary
  0
DICTIONARY
  5
1A
102
{ACAD_REACTORS
330
C
102
}
330
C
100
AcDbDictionary
  0
DICTIONARY
  5
3B
102
{ACAD_REACTORS
330
C
102
}
330
C
100
AcDbDictionary
  3
BYBLOCK
350
3D
  3
BYLAYER
350
3C
  3
GLOBAL
350
3E
  0
DICTIONARY
  5
407
102
{ACAD_REACTORS
330
C
102
}
330
C
100
AcDbDictionary
  0
DICTIONARY
  5
17
102
{ACAD_REACTORS
330
C
102
}
330
C
100
AcDbDictionary
  3
STANDARD
350
18
  0
DICTIONARY
  5
19
102
{ACAD_REACTORS
330
C
102
}
330
C
100
AcDbDictionary
  0
DICTIONARY
  5
2A
102
{ACAD_REACTORS
330
C
102
}
330
C
100
AcDbDictionary
  3
2DWIREFRAME
350
2F
  3
3D_HIDDEN
350
31
  3
3DWIREFRAME
350
30
  3
BASIC
350
32
  3
BRIGHTEN
350
36
  3
COLORCHANGE
350
3A
  3
CONCEPTUAL
350
34
  3
DIM
350
35
  3
FACEPATTERN
350
39
  3
FLAT
350
2B
  3
FLATWITHEDGES
350
2C
  3
GOURAUD
350
2D
  3
GOURAUDWITHEDGES
350
2E
  3
LINEPATTERN
350
38
  3
REALISTIC
350
33
  3
THICKEN
350
37
  0
DICTIONARY
  5
3E5
102
{ACAD_REACTORS
330
C
102
}
330
C
100
AcDbDictionary
  3
CEPSNTYPE
350
3EE
  3
DIMSTYLEDATA
350
404
  3
FINGERPRINTGUID
350
3EF
  3
HYPERLINKBASE
350
3E8
  3
INSUNITS
350
3ED
  3
LAYOUTDICT
350
3EA
  3
LWETCUNION
350
3EC
  3
PLOTSETDICT
350
3EB
  3
PSVPSCALE
350
3F1
  3
PUCSBASE
350
3F4
  3
PUCSORGBACK
350
3FA
  3
PUCSORGBOTTOM
350
3F6
  3
PUCSORGFRONT
350
3F9
  3
PUCSORGLEFT
350
3F7
  3
PUCSORGRIGHT
350
3F8
  3
PUCSORGTOP
350
3F5
  3
PUCSORTHOREF
350
3F2
  3
PUCSORTHOVIEW
350
3F3
  3
STYLESHEET
350
3E9
  3
TSTACKALIGN
350
3E6
  3
TSTACKSIZE
350
3E7
  3
UCSBASE
350
3FD
  3
UCSORGBACK
350
403
  3
UCSORGBOTTOM
350
3FF
  3
UCSORGFRONT
350
402
  3
UCSORGLEFT
350
400
  3
UCSORGRIGHT
350
401
  3
UCSORGTOP
350
3FE
  3
UCSORTHOREF
350
3FB
  3
UCSORTHOVIEW
350
3FC
  3
VERSIONGUID
350
3F0
  0
DICTIONARY
  5
405
102
{ACAD_REACTORS
330
C
102
}
330
C
100
AcDbDictionary
  3
DIMASSOC
350
40A
  3
HIDETEXT
350
40B
  3
PSOLHEIGHT
350
409
  3
PSOLWIDTH
350
408
  0
MATERIAL
  5
3D
102
{ACAD_REACTORS
330
3B
102
}
102
{ACAD_XDICTIONARY
360
40E
102
}
330
3B
100
AcDbMaterial
  1
ByBlock
  0
MATERIAL
  5
3C
102
{ACAD_REACTORS
330
3B
102
}
102
{ACAD_XDICTIONARY
360
40C
102
}
330
3B
100
AcDbMaterial
  1
ByLayer
  0
MATERIAL
  5
3E
102
{ACAD_REACTORS
330
3B
102
}
102
{ACAD_XDICTIONARY
360
410
102
}
330
3B
100
AcDbMaterial
  1
Global
  0
MLINESTYLE
  5
18
102
{ACAD_REACTORS
330
17
102
}
330
17
100
AcDbMlineStyle
  2
Standard
 70
     0
  3

 62
   256
 51
90.0
 52
90.0
 71
     2
 49
0.5
 62
   256
  6
BYLAYER
 49
-0.5
 62
   256
  6
BYLAYER
  0
ACAD_PROXY_OBJECT
  5
2F
102
{ACAD_REACTORS
330
2A
102
}
330
2A
100
AcDbProxyObject
 90
      499
 91
      501
 93
      436
310
42CC9915DA5C99599C985B595049028333333333333E3BF0000000000000FB0107901411070040501600405405064090741402480A0340
1001
ACAD
1000
AcDbSavedByObjectVersion
1070
     0
  0
ACAD_PROXY_OBJECT
  5
31
102
{ACAD_REACTORS
330
2A
102
}
330
2A
100
AcDbProxyObject
 90
      499
 91
      501
 93
      500
310
424CD108121A5919195B90640502408333333333333E3BF0000000000000FB01079024090700405020000000000001110200405405064090740C02480A0340
1001
ACAD
1000
AcDbSavedByObjectVersion
1070
     0
  0
ACAD_PROXY_OBJECT
  5
30
102
{ACAD_REACTORS
330
2A
102
}
330
2A
100
AcDbProxyObject
 90
      499
 91
      501
 93
      436
310
42CCD915DA5C99599C985B595059028333333333333E3BF0000000000000FB0107901411070040501600405405064090741402480A0340
1001
ACAD
1000
AcDbSavedByObjectVersion
1070
     0
  0
ACAD_PROXY_OBJECT
  5
32
102
{ACAD_REACTORS
330
2A
102
}
330
2A
100
AcDbProxyObject
 90
      499
 91
      501
 93
      388
310
4150985CDA58D07406404333333333333E3BF0000000000000FB0107A41107004050150841D405064090741402480A0350
1001
ACAD
1000
AcDbSavedByObjectVersion
1070
     0
  0
ACAD_PROXY_OBJECT
  5
36
102
{ACAD_REACTORS
330
2A
102
}
330
2A
100
AcDbProxyObject
 90
      499
 91
      501
 93
      428
310
42109C9A59DA1D195B90C409028333333333333E3BF0000000000000FB010790141107004050150841D405064090741402480A029950
1001
ACAD
1000
AcDbSavedByObjectVersion
1070
     0
  0
ACAD_PROXY_OBJECT
  5
3A
102
{ACAD_REACTORS
330
2A
102
}
330
2A
100
AcDbProxyObject
 90
      499
 91
      501
 93
      452
310
42D0DBDB1BDC90DA185B99D95104090240C333333333333E3BF0000000000000FB0108901411070040501508421405064090741402480A0350
1001
ACAD
1000
AcDbSavedByObjectVersion
1070
     0
  0
ACAD_PROXY_OBJECT
  5
34
102
{ACAD_REACTORS
330
2A
102
}
330
2A
100
AcDbProxyObject
 90
      499
 91
      501
 93
      500
310
4290DBDB98D95C1D1D585B10940D028333333333333E3BF0000000000000FB0107902409070040501000000000000111010841D405064090740C02480A0340
1001
ACAD
1000
AcDbSavedByObjectVersion
1070
     0
  0
ACAD_PROXY_OBJECT
  5
35
102
{ACAD_REACTORS
330
2A
102
}
330
2A
100
AcDbProxyObject
 90
      499
 91
      501
 93
      412
310
40D11A5B50B409028333333333333E3BF0000000000000FB010790141107004050150841D405064090741402480A02677FFFFFD0
1001
ACAD
1000
AcDbSavedByObjectVersion
1070
     0
  0
ACAD_PROXY_OBJECT
  5
39
102
{ACAD_REACTORS
330
2A
102
}
330
2A
100
AcDbProxyObject
 90
      499
 91
      501
 93
      444
310
42D19858D95C185D1D195C9B90F409028333333333333E3BF0000000000000FB010790141107004050150841D405064090741402480A0350
1001
ACAD
1000
AcDbSavedByObjectVersion
1070
     0
  0
ACAD_PROXY_OBJECT
  5
2B
102
{ACAD_REACTORS
330
2A
102
}
330
2A
100
AcDbProxyObject
 90
      499
 91
      501
 93
      388
310
41119B185D240901404333333333333E3BF0000000000000F9010740A41107004050150841D405064090741402480A1B50
1001
ACAD
1000
AcDbSavedByObjectVersion
1070
     0
  0
ACAD_PROXY_OBJECT
  5
2C
102
{ACAD_REACTORS
330
2A
102
}
330
2A
100
AcDbProxyObject
 90
      499
 91
      501
 93
      476
310
43519B185D15DA5D1A115919D95CD0140901404333333333333E3BF0000000000000F9010740901411070040501600405405064090741402480A1B50
1001
ACAD
1000
AcDbSavedByObjectVersion
1070
     0
  0
ACAD_PROXY_OBJECT
  5
2D
102
{ACAD_REACTORS
330
2A
102
}
330
2A
100
AcDbProxyObject
 90
      499
 91
      501
 93
      412
310
41D1DBDD5C985D5910240902404333333333333E3BF0000000000000F9010740A411070040501641D405064090741402480A1B50
1001
ACAD
1000
AcDbSavedByObjectVersion
1070
     0
  0
ACAD_PROXY_OBJECT
  5
2E
102
{ACAD_REACTORS
330
2A
102
}
330
2A
100
AcDbProxyObject
 90
      499
 91
      501
 93
      500
310
4411DBDD5C985D5915DA5D1A115919D95CD0340902404333333333333E3BF0000000000000F9010740901411070040501600405405064090741402480A1B50
1001
ACAD
1000
AcDbSavedByObjectVersion
1070
     0
  0
ACAD_PROXY_OBJECT
  5
38
102
{ACAD_REACTORS
330
2A
102
}
330
2A
100
AcDbProxyObject
 90
      499
 91
      501
 93
      444
310
42D31A5B995C185D1D195C9B90E409028333333333333E3BF0000000000000FB010790141107004050750841D405064090741402483A0350
1001
ACAD
1000
AcDbSavedByObjectVersion
1070
     0
  0
ACAD_PROXY_OBJECT
  5
33
102
{ACAD_REACTORS
330
2A
102
}
330
2A
100
AcDbProxyObject
 90
      499
 91
      501
 93
      420
310
425499585B1A5CDD1A58D08409028333333333333E3BF0000000000000FB01079019070040501508421405064090741402480A1B40
1001
ACAD
1000
AcDbSavedByObjectVersion
1070
     0
  0
ACAD_PROXY_OBJECT
  5
37
102
{ACAD_REACTORS
330
2A
102
}
330
2A
100
AcDbProxyObject
 90
      499
 91
      501
 93
      412
310
41D51A1A58DAD95B90D409028333333333333E3BF0000000000000FB010790141107004050150C41D405064090741402480A0350
1001
ACAD
1000
AcDbSavedByObjectVersion
1070
     0
  0
XRECORD
  5
3EE
102
{ACAD_REACTORS
330
3E5
102
}
330
3E5
100
AcDbXrecord
 90
        0
  0
XRECORD
  5
404
102
{ACAD_REACTORS
330
3E5
102
}
330
3E5
100
AcDbXrecord
1000
DSTYLE
1002
{
1070
   340
340
11
1002
}
  0
XRECORD
  5
3EF
102
{ACAD_REACTORS
330
3E5
102
}
330
3E5
100
AcDbXrecord
  1
{CE244CED-AA82-4A7F-BF1B-4431BD2F5107}
  0
XRECORD
  5
3E8
102
{ACAD_REACTORS
330
3E5
102
}
330
3E5
100
AcDbXrecord
  1

  0
XRECORD
  5
3ED
102
{ACAD_REACTORS
330
3E5
102
}
330
3E5
100
AcDbXrecord
 90
        4
  0
XRECORD
  5
3EA
102
{ACAD_REACTORS
330
3E5
102
}
330
3E5
100
AcDbXrecord
340
1A
  0
XRECORD
  5
3EC
102
{ACAD_REACTORS
330
3E5
102
}
330
3E5
100
AcDbXrecord
 90
    10781
  0
XRECORD
  5
3EB
102
{ACAD_REACTORS
330
3E5
102
}
330
3E5
100
AcDbXrecord
340
19
  0
XRECORD
  5
3F1
102
{ACAD_REACTORS
330
3E5
102
}
330
3E5
100
AcDbXrecord
 40
0.0
  0
XRECORD
  5
3F4
102
{ACAD_REACTORS
330
3E5
102
}
330
3E5
100
AcDbXrecord
340
0
  0
XRECORD
  5
3FA
102
{ACAD_REACTORS
330
3E5
102
}
330
3E5
100
AcDbXrecord
 10
0.0
 20
0.0
 30
0.0
  0
XRECORD
  5
3F6
102
{ACAD_REACTORS
330
3E5
102
}
330
3E5
100
AcDbXrecord
 10
0.0
 20
0.0
 30
0.0
  0
XRECORD
  5
3F9
102
{ACAD_REACTORS
330
3E5
102
}
330
3E5
100
AcDbXrecord
 10
0.0
 20
0.0
 30
0.0
  0
XRECORD
  5
3F7
102
{ACAD_REACTORS
330
3E5
102
}
330
3E5
100
AcDbXrecord
 10
0.0
 20
0.0
 30
0.0
  0
XRECORD
  5
3F8
102
{ACAD_REACTORS
330
3E5
102
}
330
3E5
100
AcDbXrecord
 10
0.0
 20
0.0
 30
0.0
  0
XRECORD
  5
3F5
102
{ACAD_REACTORS
330
3E5
102
}
330
3E5
100
AcDbXrecord
 10
0.0
 20
0.0
 30
0.0
  0
XRECORD
  5
3F2
102
{ACAD_REACTORS
330
3E5
102
}
330
3E5
100
AcDbXrecord
340
0
  0
XRECORD
  5
3F3
102
{ACAD_REACTORS
330
3E5
102
}
330
3E5
100
AcDbXrecord
 70
     0
  0
XRECORD
  5
3E9
102
{ACAD_REACTORS
330
3E5
102
}
330
3E5
100
AcDbXrecord
  1

  0
XRECORD
  5
3E6
102
{ACAD_REACTORS
330
3E5
102
}
330
3E5
100
AcDbXrecord
 90
        1
  0
XRECORD
  5
3E7
102
{ACAD_REACTORS
330
3E5
102
}
330
3E5
100
AcDbXrecord
 90
       70
  0
XRECORD
  5
3FD
102
{ACAD_REACTORS
330
3E5
102
}
330
3E5
100
AcDbXrecord
340
0
  0
XRECORD
  5
403
102
{ACAD_REACTORS
330
3E5
102
}
330
3E5
100
AcDbXrecord
 10
0.0
 20
0.0
 30
0.0
  0
XRECORD
  5
3FF
102
{ACAD_REACTORS
330
3E5
102
}
330
3E5
100
AcDbXrecord
 10
0.0
 20
0.0
 30
0.0
  0
XRECORD
  5
402
102
{ACAD_REACTORS
330
3E5
102
}
330
3E5
100
AcDbXrecord
 10
0.0
 20
0.0
 30
0.0
  0
XRECORD
  5
400
102
{ACAD_REACTORS
330
3E5
102
}
330
3E5
100
AcDbXrecord
 10
0.0
 20
0.0
 30
0.0
  0
XRECORD
  5
401
102
{ACAD_REACTORS
330
3E5
102
}
330
3E5
100
AcDbXrecord
 10
0.0
 20
0.0
 30
0.0
  0
XRECORD
  5
3FE
102
{ACAD_REACTORS
330
3E5
102
}
330
3E5
100
AcDbXrecord
 10
0.0
 20
0.0
 30
0.0
  0
XRECORD
  5
3FB
102
{ACAD_REACTORS
330
3E5
102
}
330
3E5
100
AcDbXrecord
340
0
  0
XRECORD
  5
3FC
102
{ACAD_REACTORS
330
3E5
102
}
330
3E5
100
AcDbXrecord
 70
     0
  0
XRECORD
  5
3F0
102
{ACAD_REACTORS
330
3E5
102
}
330
3E5
100
AcDbXrecord
  1
{FAEB1C32-E019-11D5-929B-00C0DF256EC4}
  0
DICTIONARYVAR
  5
40A
102
{ACAD_REACTORS
330
405
102
}
330
405
100
DictionaryVariables
280
     0
  1
2
  0
DICTIONARYVAR
  5
40B
102
{ACAD_REACTORS
330
405
102
}
330
405
100
DictionaryVariables
280
     0
  1
1
  0
DICTIONARYVAR
  5
409
102
{ACAD_REACTORS
330
405
102
}
330
405
100
DictionaryVariables
280
     0
  1
80.000000
  0
DICTIONARYVAR
  5
408
102
{ACAD_REACTORS
330
405
102
}
330
405
100
DictionaryVariables
280
     0
  1
5.000000
  0
DICTIONARY
  5
40E
330
3D
100
AcDbDictionary
280
     1
  3
ACAD_XREC_ROUNDTRIP
360
40F
  0
DICTIONARY
  5
40C
330
3C
100
AcDbDictionary
280
     1
  3
ACAD_XREC_ROUNDTRIP
360
40D
  0
DICTIONARY
  5
410
330
3E
100
AcDbDictionary
280
     1
  3
ACAD_XREC_ROUNDTRIP
360
411
  0
XRECORD
  5
40F
102
{ACAD_REACTORS
330
40E
102
}
330
40E
100
AcDbXrecord
102
MATERIAL
148
0.0
149
0.0
149
0.0
 93
        0
 94
      127
282
     0
 72
     1
 77
     1
171
     1
175
     1
179
     1
273
     0
  0
XRECORD
  5
40D
102
{ACAD_REACTORS
330
40C
102
}
330
40C
100
AcDbXrecord
102
MATERIAL
148
0.0
149
0.0
149
0.0
 93
        0
 94
      127
282
     0
 72
     1
 77
     1
171
     1
175
     1
179
     1
273
     0
  0
XRECORD
  5
411
102
{ACAD_REACTORS
330
410
102
}
330
410
100
AcDbXrecord
102
MATERIAL
148
0.0
149
0.0
149
0.0
 93
        0
 94
      127
282
     0
 72
     1
 77
     1
171
     1
175
     1
179
     1
273
     0
  0
ENDSEC
  0
EOF
