  0
SECTION
  2
HEADER
  9
$ACADVER
  1
AC1014
  9
$ACADMAINTVER
 70
     9
  9
$DWGCODEPAGE
  3
ANSI_932
  9
$INSBASE
 10
0.0
 20
0.0
 30
0.0
  9
$EXTMIN
 10
-1.49999999999999
 20
13.5
 30
0.0
  9
$EXTMAX
 10
200.0
 20
288.5
 30
0.0
  9
$LIMMIN
 10
0.0
 20
0.0
  9
$LIMMAX
 10
210.0
 20
297.0
  9
$ORTHOMODE
 70
     0
  9
$REGENMODE
 70
     1
  9
$FILLMODE
 70
     1
  9
$QTEXTMODE
 70
     0
  9
$MIRRTEXT
 70
     1
  9
$DRAGMODE
 70
     2
  9
$LTSCALE
 40
1.0
  9
$OSMODE
 70
    37
  9
$ATTMODE
 70
     1
  9
$TEXTSIZE
 40
2.5
  9
$TRACEWID
 40
1.0
  9
$TEXTSTYLE
  7
STANDARD
  9
$CLAYER
  8
化粧台
  9
$CELTYPE
  6
BYLAYER
  9
$CECOLOR
 62
   256
  9
$CELTSCALE
 40
1.0
  9
$DELOBJ
 70
     1
  9
$DISPSILH
 70
     0
  9
$DIMSCALE
 40
1.0
  9
$DIMASZ
 40
2.5
  9
$DIMEXO
 40
0.625
  9
$DIMDLI
 40
3.75
  9
$DIMRND
 40
0.0
  9
$DIMDLE
 40
0.0
  9
$DIMEXE
 40
1.25
  9
$DIMTP
 40
0.0
  9
$DIMTM
 40
0.0
  9
$DIMTXT
 40
2.5
  9
$DIMCEN
 40
2.5
  9
$DIMTSZ
 40
0.0
  9
$DIMTOL
 70
     0
  9
$DIMLIM
 70
     0
  9
$DIMTIH
 70
     0
  9
$DIMTOH
 70
     0
  9
$DIMSE1
 70
     0
  9
$DIMSE2
 70
     0
  9
$DIMTAD
 70
     1
  9
$DIMZIN
 70
     8
  9
$DIMBLK
  1

  9
$DIMASO
 70
     1
  9
$DIMSHO
 70
     1
  9
$DIMPOST
  1

  9
$DIMAPOST
  1

  9
$DIMALT
 70
     0
  9
$DIMALTD
 70
     3
  9
$DIMALTF
 40
0.03937007874016
  9
$DIMLFAC
 40
1.0
  9
$DIMTOFL
 70
     1
  9
$DIMTVP
 40
0.0
  9
$DIMTIX
 70
     0
  9
$DIMSOXD
 70
     0
  9
$DIMSAH
 70
     0
  9
$DIMBLK1
  1

  9
$DIMBLK2
  1

  9
$DIMSTYLE
  2
ISO-25
  9
$DIMCLRD
 70
     0
  9
$DIMCLRE
 70
     0
  9
$DIMCLRT
 70
     0
  9
$DIMTFAC
 40
1.0
  9
$DIMGAP
 40
0.625
  9
$DIMJUST
 70
     0
  9
$DIMSD1
 70
     0
  9
$DIMSD2
 70
     0
  9
$DIMTOLJ
 70
     0
  9
$DIMTZIN
 70
     8
  9
$DIMALTZ
 70
     0
  9
$DIMALTTZ
 70
     0
  9
$DIMFIT
 70
     3
  9
$DIMUPT
 70
     0
  9
$DIMUNIT
 70
     2
  9
$DIMDEC
 70
     2
  9
$DIMTDEC
 70
     2
  9
$DIMALTU
 70
     2
  9
$DIMALTTD
 70
     3
  9
$DIMTXSTY
  7
STANDARD
  9
$DIMAUNIT
 70
     0
  9
$LUNITS
 70
     2
  9
$LUPREC
 70
     4
  9
$SKETCHINC
 40
1.0
  9
$FILLETRAD
 40
10.0
  9
$AUNITS
 70
     0
  9
$AUPREC
 70
     0
  9
$MENU
  1
.
  9
$ELEVATION
 40
0.0
  9
$PELEVATION
 40
0.0
  9
$THICKNESS
 40
0.0
  9
$LIMCHECK
 70
     0
  9
$CHAMFERA
 40
10.0
  9
$CHAMFERB
 40
10.0
  9
$CHAMFERC
 40
20.0
  9
$CHAMFERD
 40
0.0
  9
$SKPOLY
 70
     0
  9
$TDCREATE
 40
2458430.821954375
  9
$TDUPDATE
 40
2458430.82195456
  9
$TDINDWG
 40
0.0000000116
  9
$TDUSRTIMER
 40
0.0000000116
  9
$USRTIMER
 70
     1
  9
$ANGBASE
 50
0.0
  9
$ANGDIR
 70
     0
  9
$PDMODE
 70
     0
  9
$PDSIZE
 40
0.0
  9
$PLINEWID
 40
0.0
  9
$COORDS
 70
     1
  9
$SPLFRAME
 70
     0
  9
$SPLINETYPE
 70
     6
  9
$SPLINESEGS
 70
     8
  9
$ATTDIA
 70
     0
  9
$ATTREQ
 70
     1
  9
$HANDLING
 70
     1
  9
$HANDSEED
  5
23F
  9
$SURFTAB1
 70
     6
  9
$SURFTAB2
 70
     6
  9
$SURFTYPE
 70
     6
  9
$SURFU
 70
     6
  9
$SURFV
 70
     6
  9
$UCSNAME
  2

  9
$UCSORG
 10
0.0
 20
0.0
 30
0.0
  9
$UCSXDIR
 10
1.0
 20
0.0
 30
0.0
  9
$UCSYDIR
 10
0.0
 20
1.0
 30
0.0
  9
$PUCSNAME
  2

  9
$PUCSORG
 10
0.0
 20
0.0
 30
0.0
  9
$PUCSXDIR
 10
1.0
 20
0.0
 30
0.0
  9
$PUCSYDIR
 10
0.0
 20
1.0
 30
0.0
  9
$USERI1
 70
     0
  9
$USERI2
 70
     0
  9
$USERI3
 70
     0
  9
$USERI4
 70
     0
  9
$USERI5
 70
     0
  9
$USERR1
 40
0.0
  9
$USERR2
 40
0.0
  9
$USERR3
 40
0.0
  9
$USERR4
 40
0.0
  9
$USERR5
 40
0.0
  9
$WORLDVIEW
 70
     1
  9
$SHADEDGE
 70
     3
  9
$SHADEDIF
 70
    70
  9
$TILEMODE
 70
     1
  9
$MAXACTVP
 70
    64
  9
$PINSBASE
 10
0.0
 20
0.0
 30
0.0
  9
$PLIMCHECK
 70
     0
  9
$PEXTMIN
 10
1.000000000000000E+20
 20
1.000000000000000E+20
 30
1.000000000000000E+20
  9
$PEXTMAX
 10
-1.000000000000000E+20
 20
-1.000000000000000E+20
 30
-1.000000000000000E+20
  9
$PLIMMIN
 10
0.0
 20
0.0
  9
$PLIMMAX
 10
420.0
 20
297.0
  9
$UNITMODE
 70
     0
  9
$VISRETAIN
 70
     1
  9
$PLINEGEN
 70
     0
  9
$PSLTSCALE
 70
     1
  9
$TREEDEPTH
 70
  3020
  9
$PICKSTYLE
 70
     1
  9
$CMLSTYLE
  2
STANDARD
  9
$CMLJUST
 70
     0
  9
$CMLSCALE
 40
20.0
  9
$PROXYGRAPHICS
 70
     1
  9
$MEASUREMENT
 70
     1
  0
ENDSEC
  0
SECTION
  2
CLASSES
  0
CLASS
  1
ACDBDICTIONARYWDFLT
  2
AcDbDictionaryWithDefault
  3
ObjectDBX Classes
 90
        0
280
     0
281
     0
  0
CLASS
  1
VISUALSTYLE
  2
AcDbVisualStyle
  3
ObjectDBX Classes
 90
     4095
280
     0
281
     0
  0
CLASS
  1
MATERIAL
  2
AcDbMaterial
  3
ObjectDBX Classes
 90
     1153
280
     0
281
     0
  0
CLASS
  1
SUN
  2
AcDbSun
  3
SCENEOE
 90
     1024
280
     0
281
     0
  0
CLASS
  1
DICTIONARYVAR
  2
AcDbDictionaryVar
  3
ObjectDBX Classes
 90
        0
280
     0
281
     0
  0
CLASS
  1
XRECORD
  2
AcDbXrecord
  3
AutoCAD 2000
 90
        0
280
     0
281
     0
  0
CLASS
  1
LWPOLYLINE
  2
AcDbPolyline
  3
AutoCAD 2000
 90
        0
280
     0
281
     1
  0
CLASS
  1
HATCH
  2
AcDbHatch
  3
AutoCAD 2000
 90
        0
280
     0
281
     1
  0
CLASS
  1
ACDBPLACEHOLDER
  2
AcDbPlaceHolder
  3
ObjectDBX Classes
 90
        0
280
     0
281
     0
  0
CLASS
  1
LAYOUT
  2
AcDbLayout
  3
ObjectDBX Classes
 90
        0
280
     0
281
     0
  0
ENDSEC
  0
SECTION
  2
TABLES
  0
TABLE
  2
VPORT
  5
8
330
0
100
AcDbSymbolTable
 70
     1
  0
VPORT
  5
29
330
8
100
AcDbSymbolTableRecord
100
AcDbViewportTableRecord
  2
*ACTIVE
 70
     0
 10
0.0
 20
0.0
 11
1.0
 21
1.0
 12
992.5000000000001
 22
1510.0
 13
0.0
 23
0.0
 14
10.0
 24
10.0
 15
10.0
 25
10.0
 16
0.0
 26
0.0
 36
1.0
 17
0.0
 27
0.0
 37
0.0
 40
2750.0
 41
0.7327272727272728
 42
50.0
 43
0.0
 44
0.0
 50
0.0
 51
0.0
 71
     0
 72
  1000
 73
     1
 74
     3
 75
     0
 76
     0
 77
     0
 78
     0
  0
ENDTAB
  0
TABLE
  2
LTYPE
  5
5
330
0
100
AcDbSymbolTable
 70
     7
  0
LTYPE
  5
14
330
5
100
AcDbSymbolTableRecord
100
AcDbLinetypeTableRecord
  2
BYBLOCK
 70
     0
  3

 72
    65
 73
     0
 40
0.0
  0
LTYPE
  5
15
330
5
100
AcDbSymbolTableRecord
100
AcDbLinetypeTableRecord
  2
BYLAYER
 70
     0
  3

 72
    65
 73
     0
 40
0.0
  0
LTYPE
  5
16
330
5
100
AcDbSymbolTableRecord
100
AcDbLinetypeTableRecord
  2
CONTINUOUS
 70
     0
  3
Solid line
 72
    65
 73
     0
 40
0.0
  0
LTYPE
  5
40
330
5
100
AcDbSymbolTableRecord
100
AcDbLinetypeTableRecord
  2
EXLTYPE1
 70
     0
  3
破線
 72
    65
 73
     2
 40
3.0
 49
2.0
 74
     0
 49
-1.0
 74
     0
  0
LTYPE
  5
41
330
5
100
AcDbSymbolTableRecord
100
AcDbLinetypeTableRecord
  2
EXLTYPE2
 70
     0
  3
点線
 72
    65
 73
     2
 40
2.0
 49
1.0
 74
     0
 49
-1.0
 74
     0
  0
LTYPE
  5
42
330
5
100
AcDbSymbolTableRecord
100
AcDbLinetypeTableRecord
  2
EXLTYPE3
 70
     0
  3
一点鎖線
 72
    65
 73
     4
 40
10.0
 49
7.0
 74
     0
 49
-1.0
 74
     0
 49
1.0
 74
     0
 49
-1.0
 74
     0
  0
LTYPE
  5
43
330
5
100
AcDbSymbolTableRecord
100
AcDbLinetypeTableRecord
  2
EXLTYPE4
 70
     0
  3
二点鎖線
 72
    65
 73
     6
 40
12.0
 49
7.0
 74
     0
 49
-1.0
 74
     0
 49
1.0
 74
     0
 49
-1.0
 74
     0
 49
1.0
 74
     0
 49
-1.0
 74
     0
  0
LTYPE
  5
44
330
5
100
AcDbSymbolTableRecord
100
AcDbLinetypeTableRecord
  2
EXLTYPE5
 70
     0
  3
三点鎖線
 72
    65
 73
     8
 40
37.0
 49
30.0
 74
     0
 49
-1.0
 74
     0
 49
1.0
 74
     0
 49
-1.0
 74
     0
 49
1.0
 74
     0
 49
-1.0
 74
     0
 49
1.0
 74
     0
 49
-1.0
 74
     0
  0
LTYPE
  5
45
330
5
100
AcDbSymbolTableRecord
100
AcDbLinetypeTableRecord
  2
EXLTYPE6
 70
     0
  3
四点鎖線
 72
    65
 73
    10
 40
39.0
 49
30.0
 74
     0
 49
-1.0
 74
     0
 49
1.0
 74
     0
 49
-1.0
 74
     0
 49
1.0
 74
     0
 49
-1.0
 74
     0
 49
1.0
 74
     0
 49
-1.0
 74
     0
 49
1.0
 74
     0
 49
-1.0
 74
     0
  0
ENDTAB
  0
TABLE
  2
LAYER
  5
2
330
0
100
AcDbSymbolTable
 70
     7
  0
LAYER
  5
10
330
2
100
AcDbSymbolTableRecord
100
AcDbLayerTableRecord
  2
0
 70
     0
 62
     7
  6
CONTINUOUS
  0
LAYER
  5
48
330
2
100
AcDbSymbolTableRecord
100
AcDbLayerTableRecord
  2
枠_表
 70
     0
 62
     7
  6
CONTINUOUS
  0
LAYER
  5
49
330
2
100
AcDbSymbolTableRecord
100
AcDbLayerTableRecord
  2
化粧台
 70
     0
 62
     7
  6
CONTINUOUS
  0
LAYER
  5
4A
330
2
100
AcDbSymbolTableRecord
100
AcDbLayerTableRecord
  2
鏡台
 70
     0
 62
     7
  6
CONTINUOUS
  0
LAYER
  5
4B
330
2
100
AcDbSymbolTableRecord
100
AcDbLayerTableRecord
  2
付属金具
 70
     0
 62
     7
  6
CONTINUOUS
  0
LAYER
  5
4C
330
2
100
AcDbSymbolTableRecord
100
AcDbLayerTableRecord
  2
寸法
 70
     0
 62
     7
  6
CONTINUOUS
  0
LAYER
  5
AE
330
2
100
AcDbSymbolTableRecord
100
AcDbLayerTableRecord
  2
DEFPOINTS
 70
     0
 62
     7
  6
CONTINUOUS
  0
ENDTAB
  0
TABLE
  2
STYLE
  5
3
330
0
100
AcDbSymbolTable
 70
     5
  0
STYLE
  5
11
330
3
100
AcDbSymbolTableRecord
100
AcDbTextStyleTableRecord
  2
STANDARD
 70
     0
 40
0.0
 41
1.0
 50
0.0
 71
     0
 42
2.5
  3
monotxt
  4
extfont
  0
STYLE
  5
46
330
3
100
AcDbSymbolTableRecord
100
AcDbTextStyleTableRecord
  2
EXCADSTD
 70
     0
 40
0.0
 41
1.0
 50
0.0
 71
     0
 42
0.2
  3
monotxt
  4
extfont
  0
STYLE
  5
47
330
3
100
AcDbSymbolTableRecord
100
AcDbTextStyleTableRecord
  2
EXCADVERT
 70
     4
 40
0.0
 41
1.0
 50
0.0
 71
     0
 42
0.286885
  3
monotxt
  4
extfont
  0
STYLE
  5
AC
330
3
100
AcDbSymbolTableRecord
100
AcDbTextStyleTableRecord
  2
EXCADDIM1
 70
     0
 40
0.0
 41
0.84
 50
0.0
 71
     0
 42
0.2
  3
monotxt
  4
extfont
  0
STYLE
  5
208
330
3
100
AcDbSymbolTableRecord
100
AcDbTextStyleTableRecord
  2
EXCADTTF1
 70
     0
 40
0.0
 41
1.0
 50
0.0
 71
     0
 42
0.2
  3
MSGOTHIC.TTC
  4

1001
ACAD
1000
MS Gothic
1071
    32817
  0
ENDTAB
  0
TABLE
  2
VIEW
  5
6
330
0
100
AcDbSymbolTable
 70
     0
  0
ENDTAB
  0
TABLE
  2
UCS
  5
7
330
0
100
AcDbSymbolTable
 70
     0
  0
ENDTAB
  0
TABLE
  2
APPID
  5
9
330
0
100
AcDbSymbolTable
 70
     1
  0
APPID
  5
12
330
9
100
AcDbSymbolTableRecord
100
AcDbRegAppTableRecord
  2
ACAD
 70
     0
  0
ENDTAB
  0
TABLE
  2
DIMSTYLE
  5
A
330
0
100
AcDbSymbolTable
 70
     1
  0
DIMSTYLE
105
27
102
{ACAD_REACTORS
330
AD
330
BB
330
C8
330
D5
330
E2
330
EF
330
FE
330
10B
102
}
330
A
100
AcDbSymbolTableRecord
100
AcDbDimStyleTableRecord
  2
ISO-25
 70
     0
  3

  4

  5

  6

  7

 40
1.0
 41
2.5
 42
0.625
 43
3.75
 44
1.25
 45
0.0
 46
0.0
 47
0.0
 48
0.0
140
2.5
141
2.5
142
0.0
143
0.03937007874016
144
1.0
145
0.0
146
1.0
147
0.625
 71
     0
 72
     0
 73
     0
 74
     0
 75
     0
 76
     0
 77
     1
 78
     8
170
     0
171
     3
172
     1
173
     0
174
     0
175
     0
176
     0
177
     0
178
     0
270
     2
271
     2
272
     2
273
     2
274
     3
340
11
275
     0
280
     0
281
     0
282
     0
283
     0
284
     8
285
     0
286
     0
287
     5
288
     0
  0
ENDTAB
  0
TABLE
  2
BLOCK_RECORD
  5
1
330
0
100
AcDbSymbolTable
 70
    23
  0
BLOCK_RECORD
  5
1F
330
1
100
AcDbSymbolTableRecord
100
AcDbBlockTableRecord
  2
*MODEL_SPACE
  0
BLOCK_RECORD
  5
1B
330
1
100
AcDbSymbolTableRecord
100
AcDbBlockTableRecord
  2
*PAPER_SPACE
  0
BLOCK_RECORD
  5
4D
330
1
100
AcDbSymbolTableRecord
100
AcDbBlockTableRecord
  2
EX_NORM
  0
BLOCK_RECORD
  5
50
330
1
100
AcDbSymbolTableRecord
100
AcDbBlockTableRecord
  2
EX_BNORM
  0
BLOCK_RECORD
  5
53
330
1
100
AcDbSymbolTableRecord
100
AcDbBlockTableRecord
  2
EX_BCIR
  0
BLOCK_RECORD
  5
56
330
1
100
AcDbSymbolTableRecord
100
AcDbBlockTableRecord
  2
EX_RCIVIL
  0
BLOCK_RECORD
  5
59
330
1
100
AcDbSymbolTableRecord
100
AcDbBlockTableRecord
  2
EX_SLANT
  0
BLOCK_RECORD
  5
5C
330
1
100
AcDbSymbolTableRecord
100
AcDbBlockTableRecord
  2
EX_NONE
  0
BLOCK_RECORD
  5
5F
330
1
100
AcDbSymbolTableRecord
100
AcDbBlockTableRecord
  2
EX_CIVIL
  0
BLOCK_RECORD
  5
62
330
1
100
AcDbSymbolTableRecord
100
AcDbBlockTableRecord
  2
EX_WCIR
  0
BLOCK_RECORD
  5
65
330
1
100
AcDbSymbolTableRecord
100
AcDbBlockTableRecord
  2
EX_WCIR2
  0
BLOCK_RECORD
  5
68
330
1
100
AcDbSymbolTableRecord
100
AcDbBlockTableRecord
  2
EX_WNORM
  0
BLOCK_RECORD
  5
6B
330
1
100
AcDbSymbolTableRecord
100
AcDbBlockTableRecord
  2
EX_NNORM
  0
BLOCK_RECORD
  5
6E
330
1
100
AcDbSymbolTableRecord
100
AcDbBlockTableRecord
  2
EX_BBOX
  0
BLOCK_RECORD
  5
71
330
1
100
AcDbSymbolTableRecord
100
AcDbBlockTableRecord
  2
EX_WBOX
  0
BLOCK_RECORD
  5
74
330
1
100
AcDbSymbolTableRecord
100
AcDbBlockTableRecord
  2
EX_INTEGRAL
  0
BLOCK_RECORD
  5
AF
330
1
100
AcDbSymbolTableRecord
100
AcDbBlockTableRecord
  2
*D15
  0
BLOCK_RECORD
  5
BC
330
1
100
AcDbSymbolTableRecord
100
AcDbBlockTableRecord
  2
*D16
  0
BLOCK_RECORD
  5
C9
330
1
100
AcDbSymbolTableRecord
100
AcDbBlockTableRecord
  2
*D17
  0
BLOCK_RECORD
  5
D6
330
1
100
AcDbSymbolTableRecord
100
AcDbBlockTableRecord
  2
*D18
  0
BLOCK_RECORD
  5
E3
330
1
100
AcDbSymbolTableRecord
100
AcDbBlockTableRecord
  2
*D19
  0
BLOCK_RECORD
  5
F0
330
1
100
AcDbSymbolTableRecord
100
AcDbBlockTableRecord
  2
*D20
  0
BLOCK_RECORD
  5
FF
330
1
100
AcDbSymbolTableRecord
100
AcDbBlockTableRecord
  2
*D21
  0
BLOCK_RECORD
  5
10C
330
1
100
AcDbSymbolTableRecord
100
AcDbBlockTableRecord
  2
*D22
  0
ENDTAB
  0
ENDSEC
  0
SECTION
  2
BLOCKS
  0
BLOCK
  5
20
330
1F
100
AcDbEntity
  8
0
100
AcDbBlockBegin
  2
*MODEL_SPACE
 70
     0
 10
0.0
 20
0.0
 30
0.0
  3
*MODEL_SPACE
  1

  0
ENDBLK
  5
21
330
1F
100
AcDbEntity
  8
0
100
AcDbBlockEnd
  0
BLOCK
  5
1C
330
1B
100
AcDbEntity
 67
     1
  8
0
100
AcDbBlockBegin
  2
*PAPER_SPACE
 70
     0
 10
0.0
 20
0.0
 30
0.0
  3
*PAPER_SPACE
  1

  0
ENDBLK
  5
1D
330
1B
100
AcDbEntity
 67
     1
  8
0
100
AcDbBlockEnd
  0
BLOCK
  5
4E
330
4D
100
AcDbEntity
  8
0
100
AcDbBlockBegin
  2
EX_NORM
 70
     0
 10
0.0
 20
0.0
 30
0.0
  3
EX_NORM
  1

  0
LINE
  5
77
330
4D
100
AcDbEntity
  8
0
  6
CONTINUOUS
 62
     0
100
AcDbLine
 10
0.0
 20
0.0
 30
0.0
 11
-1.0
 21
0.0
 31
0.0
  0
LINE
  5
78
330
4D
100
AcDbEntity
  8
0
  6
CONTINUOUS
 62
     0
100
AcDbLine
 10
0.0
 20
0.0
 30
0.0
 11
-1.0
 21
0.166666667
 31
0.0
  0
LINE
  5
79
330
4D
100
AcDbEntity
  8
0
  6
CONTINUOUS
 62
     0
100
AcDbLine
 10
0.0
 20
0.0
 30
0.0
 11
-1.0
 21
-0.166666667
 31
0.0
  0
ENDBLK
  5
4F
330
4D
100
AcDbEntity
  8
0
100
AcDbBlockEnd
  0
BLOCK
  5
51
330
50
100
AcDbEntity
  8
0
100
AcDbBlockBegin
  2
EX_BNORM
 70
     0
 10
0.0
 20
0.0
 30
0.0
  3
EX_BNORM
  1

  0
LINE
  5
7A
330
50
100
AcDbEntity
  8
0
  6
CONTINUOUS
 62
     0
100
AcDbLine
 10
0.0
 20
0.0
 30
0.0
 11
-1.0
 21
0.0
 31
0.0
  0
LINE
  5
7B
330
50
100
AcDbEntity
  8
0
  6
CONTINUOUS
 62
     0
100
AcDbLine
 10
0.0
 20
0.0
 30
0.0
 11
-1.0
 21
0.166666667
 31
0.0
  0
LINE
  5
7C
330
50
100
AcDbEntity
  8
0
  6
CONTINUOUS
 62
     0
100
AcDbLine
 10
0.0
 20
0.0
 30
0.0
 11
-1.0
 21
-0.166666667
 31
0.0
  0
LINE
  5
7D
330
50
100
AcDbEntity
  8
0
  6
CONTINUOUS
 62
     0
100
AcDbLine
 10
0.0
 20
0.0
 30
0.0
 11
-1.0
 21
0.083333333
 31
0.0
  0
LINE
  5
7E
330
50
100
AcDbEntity
  8
0
  6
CONTINUOUS
 62
     0
100
AcDbLine
 10
0.0
 20
0.0
 30
0.0
 11
-1.0
 21
-0.083333333
 31
0.0
  0
LINE
  5
7F
330
50
100
AcDbEntity
  8
0
  6
CONTINUOUS
 62
     0
100
AcDbLine
 10
-1.0
 20
0.166666667
 30
0.0
 11
-1.0
 21
-0.166666667
 31
0.0
  0
ENDBLK
  5
52
330
50
100
AcDbEntity
  8
0
100
AcDbBlockEnd
  0
BLOCK
  5
54
330
53
100
AcDbEntity
  8
0
100
AcDbBlockBegin
  2
EX_BCIR
 70
     0
 10
0.0
 20
0.0
 30
0.0
  3
EX_BCIR
  1

  0
LINE
  5
80
330
53
100
AcDbEntity
  8
0
  6
CONTINUOUS
 62
     0
100
AcDbLine
 10
0.0
 20
0.0
 30
0.0
 11
-1.0
 21
0.0
 31
0.0
  0
CIRCLE
  5
81
330
53
100
AcDbEntity
  8
0
  6
CONTINUOUS
 62
     0
100
AcDbCircle
 10
0.0
 20
0.0
 30
0.0
 40
0.5
  0
CIRCLE
  5
82
330
53
100
AcDbEntity
  8
0
  6
CONTINUOUS
 62
     0
100
AcDbCircle
 10
0.0
 20
0.0
 30
0.0
 40
0.25
  0
ENDBLK
  5
55
330
53
100
AcDbEntity
  8
0
100
AcDbBlockEnd
  0
BLOCK
  5
57
330
56
100
AcDbEntity
  8
0
100
AcDbBlockBegin
  2
EX_RCIVIL
 70
     0
 10
0.0
 20
0.0
 30
0.0
  3
EX_RCIVIL
  1

  0
LINE
  5
83
330
56
100
AcDbEntity
  8
0
  6
CONTINUOUS
 62
     0
100
AcDbLine
 10
0.0
 20
0.0
 30
0.0
 11
-1.0
 21
0.0
 31
0.0
  0
LINE
  5
84
330
56
100
AcDbEntity
  8
0
  6
CONTINUOUS
 62
     0
100
AcDbLine
 10
-1.0
 20
-0.25
 30
0.0
 11
0.0
 21
-0.25
 31
0.0
  0
LINE
  5
85
330
56
100
AcDbEntity
  8
0
  6
CONTINUOUS
 62
     0
100
AcDbLine
 10
-1.0
 20
-0.125
 30
0.0
 11
0.0
 21
-0.125
 31
0.0
  0
ENDBLK
  5
58
330
56
100
AcDbEntity
  8
0
100
AcDbBlockEnd
  0
BLOCK
  5
5A
330
59
100
AcDbEntity
  8
0
100
AcDbBlockBegin
  2
EX_SLANT
 70
     0
 10
0.0
 20
0.0
 30
0.0
  3
EX_SLANT
  1

  0
LINE
  5
86
330
59
100
AcDbEntity
  8
0
  6
CONTINUOUS
 62
     0
100
AcDbLine
 10
0.0
 20
0.0
 30
0.0
 11
-1.0
 21
0.0
 31
0.0
  0
LINE
  5
87
330
59
100
AcDbEntity
  8
0
  6
CONTINUOUS
 62
     0
100
AcDbLine
 10
0.707106781
 20
0.707106781
 30
0.0
 11
-0.707106781
 21
-0.707106781
 31
0.0
  0
ENDBLK
  5
5B
330
59
100
AcDbEntity
  8
0
100
AcDbBlockEnd
  0
BLOCK
  5
5D
330
5C
100
AcDbEntity
  8
0
100
AcDbBlockBegin
  2
EX_NONE
 70
     0
 10
0.0
 20
0.0
 30
0.0
  3
EX_NONE
  1

  0
LINE
  5
88
330
5C
100
AcDbEntity
  8
0
  6
CONTINUOUS
 62
     0
100
AcDbLine
 10
0.0
 20
0.0
 30
0.0
 11
-1.0
 21
0.0
 31
0.0
  0
ENDBLK
  5
5E
330
5C
100
AcDbEntity
  8
0
100
AcDbBlockEnd
  0
BLOCK
  5
60
330
5F
100
AcDbEntity
  8
0
100
AcDbBlockBegin
  2
EX_CIVIL
 70
     0
 10
0.0
 20
0.0
 30
0.0
  3
EX_CIVIL
  1

  0
LINE
  5
89
330
5F
100
AcDbEntity
  8
0
  6
CONTINUOUS
 62
     0
100
AcDbLine
 10
0.0
 20
0.0
 30
0.0
 11
-1.0
 21
0.0
 31
0.0
  0
LINE
  5
8A
330
5F
100
AcDbEntity
  8
0
  6
CONTINUOUS
 62
     0
100
AcDbLine
 10
-1.0
 20
0.25
 30
0.0
 11
0.0
 21
0.25
 31
0.0
  0
LINE
  5
8B
330
5F
100
AcDbEntity
  8
0
  6
CONTINUOUS
 62
     0
100
AcDbLine
 10
-1.0
 20
0.125
 30
0.0
 11
0.0
 21
0.125
 31
0.0
  0
ENDBLK
  5
61
330
5F
100
AcDbEntity
  8
0
100
AcDbBlockEnd
  0
BLOCK
  5
63
330
62
100
AcDbEntity
  8
0
100
AcDbBlockBegin
  2
EX_WCIR
 70
     0
 10
0.0
 20
0.0
 30
0.0
  3
EX_WCIR
  1

  0
LINE
  5
8C
330
62
100
AcDbEntity
  8
0
  6
CONTINUOUS
 62
     0
100
AcDbLine
 10
0.0
 20
0.0
 30
0.0
 11
-1.0
 21
0.0
 31
0.0
  0
CIRCLE
  5
8D
330
62
100
AcDbEntity
  8
0
  6
CONTINUOUS
 62
     0
100
AcDbCircle
 10
0.0
 20
0.0
 30
0.0
 40
0.5
  0
ENDBLK
  5
64
330
62
100
AcDbEntity
  8
0
100
AcDbBlockEnd
  0
BLOCK
  5
66
330
65
100
AcDbEntity
  8
0
100
AcDbBlockBegin
  2
EX_WCIR2
 70
     0
 10
0.0
 20
0.0
 30
0.0
  3
EX_WCIR2
  1

  0
LINE
  5
8E
330
65
100
AcDbEntity
  8
0
  6
CONTINUOUS
 62
     0
100
AcDbLine
 10
-0.5
 20
0.0
 30
0.0
 11
-1.0
 21
0.0
 31
0.0
  0
CIRCLE
  5
8F
330
65
100
AcDbEntity
  8
0
  6
CONTINUOUS
 62
     0
100
AcDbCircle
 10
0.0
 20
0.0
 30
0.0
 40
0.5
  0
ENDBLK
  5
67
330
65
100
AcDbEntity
  8
0
100
AcDbBlockEnd
  0
BLOCK
  5
69
330
68
100
AcDbEntity
  8
0
100
AcDbBlockBegin
  2
EX_WNORM
 70
     0
 10
0.0
 20
0.0
 30
0.0
  3
EX_WNORM
  1

  0
LINE
  5
90
330
68
100
AcDbEntity
  8
0
  6
CONTINUOUS
 62
     0
100
AcDbLine
 10
-1.0
 20
0.0
 30
0.0
 11
-1.0
 21
0.0
 31
0.0
  0
LINE
  5
91
330
68
100
AcDbEntity
  8
0
  6
CONTINUOUS
 62
     0
100
AcDbLine
 10
0.0
 20
0.0
 30
0.0
 11
-1.0
 21
0.166666667
 31
0.0
  0
LINE
  5
92
330
68
100
AcDbEntity
  8
0
  6
CONTINUOUS
 62
     0
100
AcDbLine
 10
0.0
 20
0.0
 30
0.0
 11
-1.0
 21
-0.166666667
 31
0.0
  0
LINE
  5
93
330
68
100
AcDbEntity
  8
0
  6
CONTINUOUS
 62
     0
100
AcDbLine
 10
-1.0
 20
0.166666667
 30
0.0
 11
-1.0
 21
-0.166666667
 31
0.0
  0
ENDBLK
  5
6A
330
68
100
AcDbEntity
  8
0
100
AcDbBlockEnd
  0
BLOCK
  5
6C
330
6B
100
AcDbEntity
  8
0
100
AcDbBlockBegin
  2
EX_NNORM
 70
     0
 10
0.0
 20
0.0
 30
0.0
  3
EX_NNORM
  1

  0
LINE
  5
94
330
6B
100
AcDbEntity
  8
0
  6
CONTINUOUS
 62
     0
100
AcDbLine
 10
0.0
 20
0.0
 30
0.0
 11
-1.0
 21
0.0
 31
0.0
  0
LINE
  5
95
330
6B
100
AcDbEntity
  8
0
  6
CONTINUOUS
 62
     0
100
AcDbLine
 10
0.0
 20
0.0
 30
0.0
 11
-1.0
 21
0.166666667
 31
0.0
  0
LINE
  5
96
330
6B
100
AcDbEntity
  8
0
  6
CONTINUOUS
 62
     0
100
AcDbLine
 10
0.0
 20
0.0
 30
0.0
 11
-1.0
 21
-0.166666667
 31
0.0
  0
LINE
  5
97
330
6B
100
AcDbEntity
  8
0
  6
CONTINUOUS
 62
     0
100
AcDbLine
 10
-1.0
 20
0.166666667
 30
0.0
 11
-1.0
 21
-0.166666667
 31
0.0
  0
ENDBLK
  5
6D
330
6B
100
AcDbEntity
  8
0
100
AcDbBlockEnd
  0
BLOCK
  5
6F
330
6E
100
AcDbEntity
  8
0
100
AcDbBlockBegin
  2
EX_BBOX
 70
     0
 10
0.0
 20
0.0
 30
0.0
  3
EX_BBOX
  1

  0
LINE
  5
98
330
6E
100
AcDbEntity
  8
0
  6
CONTINUOUS
 62
     0
100
AcDbLine
 10
0.0
 20
0.0
 30
0.0
 11
-1.0
 21
0.0
 31
0.0
  0
LINE
  5
99
330
6E
100
AcDbEntity
  8
0
  6
CONTINUOUS
 62
     0
100
AcDbLine
 10
-0.5
 20
0.5
 30
0.0
 11
0.5
 21
0.5
 31
0.0
  0
LINE
  5
9A
330
6E
100
AcDbEntity
  8
0
  6
CONTINUOUS
 62
     0
100
AcDbLine
 10
0.5
 20
0.5
 30
0.0
 11
0.5
 21
-0.5
 31
0.0
  0
LINE
  5
9B
330
6E
100
AcDbEntity
  8
0
  6
CONTINUOUS
 62
     0
100
AcDbLine
 10
0.5
 20
-0.5
 30
0.0
 11
-0.5
 21
-0.5
 31
0.0
  0
LINE
  5
9C
330
6E
100
AcDbEntity
  8
0
  6
CONTINUOUS
 62
     0
100
AcDbLine
 10
-0.5
 20
-0.5
 30
0.0
 11
-0.5
 21
0.5
 31
0.0
  0
LINE
  5
9D
330
6E
100
AcDbEntity
  8
0
  6
CONTINUOUS
 62
     0
100
AcDbLine
 10
-0.25
 20
0.25
 30
0.0
 11
0.25
 21
0.25
 31
0.0
  0
LINE
  5
9E
330
6E
100
AcDbEntity
  8
0
  6
CONTINUOUS
 62
     0
100
AcDbLine
 10
0.25
 20
0.25
 30
0.0
 11
0.25
 21
-0.25
 31
0.0
  0
LINE
  5
9F
330
6E
100
AcDbEntity
  8
0
  6
CONTINUOUS
 62
     0
100
AcDbLine
 10
0.25
 20
-0.25
 30
0.0
 11
-0.25
 21
-0.25
 31
0.0
  0
LINE
  5
A0
330
6E
100
AcDbEntity
  8
0
  6
CONTINUOUS
 62
     0
100
AcDbLine
 10
-0.25
 20
-0.25
 30
0.0
 11
-0.25
 21
0.25
 31
0.0
  0
ENDBLK
  5
70
330
6E
100
AcDbEntity
  8
0
100
AcDbBlockEnd
  0
BLOCK
  5
72
330
71
100
AcDbEntity
  8
0
100
AcDbBlockBegin
  2
EX_WBOX
 70
     0
 10
0.0
 20
0.0
 30
0.0
  3
EX_WBOX
  1

  0
LINE
  5
A1
330
71
100
AcDbEntity
  8
0
  6
CONTINUOUS
 62
     0
100
AcDbLine
 10
-0.5
 20
0.0
 30
0.0
 11
-1.0
 21
0.0
 31
0.0
  0
LINE
  5
A2
330
71
100
AcDbEntity
  8
0
  6
CONTINUOUS
 62
     0
100
AcDbLine
 10
-0.5
 20
0.5
 30
0.0
 11
0.5
 21
0.5
 31
0.0
  0
LINE
  5
A3
330
71
100
AcDbEntity
  8
0
  6
CONTINUOUS
 62
     0
100
AcDbLine
 10
0.5
 20
0.5
 30
0.0
 11
0.5
 21
-0.5
 31
0.0
  0
LINE
  5
A4
330
71
100
AcDbEntity
  8
0
  6
CONTINUOUS
 62
     0
100
AcDbLine
 10
0.5
 20
-0.5
 30
0.0
 11
-0.5
 21
-0.5
 31
0.0
  0
LINE
  5
A5
330
71
100
AcDbEntity
  8
0
  6
CONTINUOUS
 62
     0
100
AcDbLine
 10
-0.5
 20
-0.5
 30
0.0
 11
-0.5
 21
0.5
 31
0.0
  0
ENDBLK
  5
73
330
71
100
AcDbEntity
  8
0
100
AcDbBlockEnd
  0
BLOCK
  5
75
330
74
100
AcDbEntity
  8
0
100
AcDbBlockBegin
  2
EX_INTEGRAL
 70
     0
 10
0.0
 20
0.0
 30
0.0
  3
EX_INTEGRAL
  1

  0
LINE
  5
A6
330
74
100
AcDbEntity
  8
0
  6
CONTINUOUS
 62
     0
100
AcDbLine
 10
0.0
 20
0.0
 30
0.0
 11
-1.0
 21
0.0
 31
0.0
  0
ARC
  5
A7
330
74
100
AcDbEntity
  8
0
  6
CONTINUOUS
 62
     0
100
AcDbCircle
 10
0.542115
 20
0.164992
 30
0.0
 40
0.56667
100
AcDbArc
 50
73.07249033629006
 51
196.9275130221199
  0
ARC
  5
A8
330
74
100
AcDbEntity
  8
0
  6
CONTINUOUS
 62
     0
100
AcDbCircle
 10
-0.542115
 20
-0.164992
 30
0.0
 40
0.56667
100
AcDbArc
 50
253.0724869220464
 51
16.9275130559125
  0
ENDBLK
  5
76
330
74
100
AcDbEntity
  8
0
100
AcDbBlockEnd
  0
BLOCK
  5
B0
330
AF
100
AcDbEntity
  8
0
100
AcDbBlockBegin
  2
*D15
 70
     1
 10
0.0
 20
0.0
 30
0.0
  3
*D15
  1

  0
LINE
  5
B2
330
AF
100
AcDbEntity
  8
化粧台
  6
CONTINUOUS
 62
     3
100
AcDbLine
 10
784.0000000000009
 20
1701.980761994291
 30
0.0
 11
784.0000000000009
 21
1813.0
 31
0.0
  0
LINE
  5
B3
330
AF
100
AcDbEntity
  8
化粧台
  6
CONTINUOUS
 62
     3
100
AcDbLine
 10
1084.000000000001
 20
1701.980761994291
 30
0.0
 11
1084.000000000001
 21
1813.0
 31
0.0
  0
LINE
  5
B4
330
AF
100
AcDbEntity
  8
化粧台
  6
CONTINUOUS
 62
     3
100
AcDbLine
 10
814.0000000000009
 20
1803.0
 30
0.0
 11
1054.000000000001
 21
1803.0
 31
0.0
  0
INSERT
  5
B5
330
AF
100
AcDbEntity
  8
化粧台
 62
     3
100
AcDbBlockReference
  2
EX_NORM
 10
784.0000000000009
 20
1803.0
 30
0.0
 41
30.0
 42
30.0
 43
30.0
 50
180.0
  0
INSERT
  5
B6
330
AF
100
AcDbEntity
  8
化粧台
 62
     3
100
AcDbBlockReference
  2
EX_NORM
 10
1084.000000000001
 20
1803.0
 30
0.0
 41
30.0
 42
30.0
 43
30.0
  0
MTEXT
  5
B7
330
AF
100
AcDbEntity
  8
化粧台
 62
     2
100
AcDbMText
 10
934.0000000000009
 20
1826.499999940395
 30
0.0
 40
40.0
 41
0.0
 71
     5
 72
     1
  1
300（壁固定）
  7
EXCADDIM1
  0
POINT
  5
B8
330
AF
100
AcDbEntity
  8
DEFPOINTS
 62
     0
100
AcDbPoint
 10
784.0000000000009
 20
1694.980762113501
 30
0.0
  0
POINT
  5
B9
330
AF
100
AcDbEntity
  8
DEFPOINTS
 62
     0
100
AcDbPoint
 10
1084.000000000001
 20
1694.980762113501
 30
0.0
  0
POINT
  5
BA
330
AF
100
AcDbEntity
  8
DEFPOINTS
 62
     0
100
AcDbPoint
 10
1084.000000000001
 20
1803.0
 30
0.0
  0
ENDBLK
  5
B1
330
AF
100
AcDbEntity
  8
0
100
AcDbBlockEnd
  0
BLOCK
  5
BD
330
BC
100
AcDbEntity
  8
0
100
AcDbBlockBegin
  2
*D16
 70
     1
 10
0.0
 20
0.0
 30
0.0
  3
*D16
  1

  0
LINE
  5
BF
330
BC
100
AcDbEntity
  8
化粧台
  6
CONTINUOUS
 62
     3
100
AcDbLine
 10
634.0000000000009
 20
1761.999999880791
 30
0.0
 11
634.0000000000009
 21
1933.0
 31
0.0
  0
LINE
  5
C0
330
BC
100
AcDbEntity
  8
化粧台
  6
CONTINUOUS
 62
     3
100
AcDbLine
 10
1234.000000000001
 20
1761.999999880791
 30
0.0
 11
1234.000000000001
 21
1933.0
 31
0.0
  0
LINE
  5
C1
330
BC
100
AcDbEntity
  8
化粧台
  6
CONTINUOUS
 62
     3
100
AcDbLine
 10
664.0000000000009
 20
1923.0
 30
0.0
 11
1204.000000000001
 21
1923.0
 31
0.0
  0
INSERT
  5
C2
330
BC
100
AcDbEntity
  8
化粧台
 62
     3
100
AcDbBlockReference
  2
EX_NORM
 10
634.0000000000009
 20
1923.0
 30
0.0
 41
30.0
 42
30.0
 43
30.0
 50
180.0
  0
INSERT
  5
C3
330
BC
100
AcDbEntity
  8
化粧台
 62
     3
100
AcDbBlockReference
  2
EX_NORM
 10
1234.000000000001
 20
1923.0
 30
0.0
 41
30.0
 42
30.0
 43
30.0
  0
MTEXT
  5
C4
330
BC
100
AcDbEntity
  8
化粧台
 62
     2
100
AcDbMText
 10
934.000000000001
 20
1946.499999940395
 30
0.0
 40
40.0
 41
0.0
 71
     5
 72
     1
  1
600
  7
EXCADDIM1
  0
POINT
  5
C5
330
BC
100
AcDbEntity
  8
DEFPOINTS
 62
     0
100
AcDbPoint
 10
634.0000000000009
 20
1755.0
 30
0.0
  0
POINT
  5
C6
330
BC
100
AcDbEntity
  8
DEFPOINTS
 62
     0
100
AcDbPoint
 10
1234.000000000001
 20
1755.0
 30
0.0
  0
POINT
  5
C7
330
BC
100
AcDbEntity
  8
DEFPOINTS
 62
     0
100
AcDbPoint
 10
1234.000000000001
 20
1923.0
 30
0.0
  0
ENDBLK
  5
BE
330
BC
100
AcDbEntity
  8
0
100
AcDbBlockEnd
  0
BLOCK
  5
CA
330
C9
100
AcDbEntity
  8
0
100
AcDbBlockBegin
  2
*D17
 70
     1
 10
0.0
 20
0.0
 30
0.0
  3
*D17
  1

  0
LINE
  5
CC
330
C9
100
AcDbEntity
  8
化粧台
  6
CONTINUOUS
 62
     3
100
AcDbLine
 10
674.5000000000008
 20
1761.999999880791
 30
0.0
 11
674.5000000000008
 21
1873.0
 31
0.0
  0
LINE
  5
CD
330
C9
100
AcDbEntity
  8
化粧台
  6
CONTINUOUS
 62
     3
100
AcDbLine
 10
1193.500000000001
 20
1761.999999880791
 30
0.0
 11
1193.500000000001
 21
1873.0
 31
0.0
  0
LINE
  5
CE
330
C9
100
AcDbEntity
  8
化粧台
  6
CONTINUOUS
 62
     3
100
AcDbLine
 10
704.5000000000008
 20
1863.0
 30
0.0
 11
1163.500000000001
 21
1863.0
 31
0.0
  0
INSERT
  5
CF
330
C9
100
AcDbEntity
  8
化粧台
 62
     3
100
AcDbBlockReference
  2
EX_NORM
 10
674.5000000000008
 20
1863.0
 30
0.0
 41
30.0
 42
30.0
 43
30.0
 50
180.0
  0
INSERT
  5
D0
330
C9
100
AcDbEntity
  8
化粧台
 62
     3
100
AcDbBlockReference
  2
EX_NORM
 10
1193.500000000001
 20
1863.0
 30
0.0
 41
30.0
 42
30.0
 43
30.0
  0
MTEXT
  5
D1
330
C9
100
AcDbEntity
  8
化粧台
 62
     2
100
AcDbMText
 10
934.0000000000009
 20
1886.499999940395
 30
0.0
 40
40.0
 41
0.0
 71
     5
 72
     1
  1
□519（鏡）
  7
EXCADDIM1
  0
POINT
  5
D2
330
C9
100
AcDbEntity
  8
DEFPOINTS
 62
     0
100
AcDbPoint
 10
674.5000000000008
 20
1755.0
 30
0.0
  0
POINT
  5
D3
330
C9
100
AcDbEntity
  8
DEFPOINTS
 62
     0
100
AcDbPoint
 10
1193.500000000001
 20
1755.0
 30
0.0
  0
POINT
  5
D4
330
C9
100
AcDbEntity
  8
DEFPOINTS
 62
     0
100
AcDbPoint
 10
1193.500000000001
 20
1863.0
 30
0.0
  0
ENDBLK
  5
CB
330
C9
100
AcDbEntity
  8
0
100
AcDbBlockEnd
  0
BLOCK
  5
D7
330
D6
100
AcDbEntity
  8
0
100
AcDbBlockBegin
  2
*D18
 70
     1
 10
0.0
 20
0.0
 30
0.0
  3
*D18
  1

  0
LINE
  5
D9
330
D6
100
AcDbEntity
  8
化粧台
  6
CONTINUOUS
 62
     3
100
AcDbLine
 10
1240.999999880792
 20
1755.0
 30
0.0
 11
1375.0
 21
1755.0
 31
0.0
  0
LINE
  5
DA
330
D6
100
AcDbEntity
  8
化粧台
  6
CONTINUOUS
 62
     3
100
AcDbLine
 10
1240.999999880792
 20
1235.0
 30
0.0
 11
1375.0
 21
1235.0
 31
0.0
  0
LINE
  5
DB
330
D6
100
AcDbEntity
  8
化粧台
  6
CONTINUOUS
 62
     3
100
AcDbLine
 10
1365.0
 20
1725.0
 30
0.0
 11
1365.0
 21
1265.0
 31
0.0
  0
INSERT
  5
DC
330
D6
100
AcDbEntity
  8
化粧台
 62
     3
100
AcDbBlockReference
  2
EX_NORM
 10
1365.0
 20
1755.0
 30
0.0
 41
30.0
 42
30.0
 43
30.0
 50
90.0
  0
INSERT
  5
DD
330
D6
100
AcDbEntity
  8
化粧台
 62
     3
100
AcDbBlockReference
  2
EX_NORM
 10
1365.0
 20
1235.0
 30
0.0
 41
30.0
 42
30.0
 43
30.0
 50
270.0
  0
MTEXT
  5
DE
330
D6
100
AcDbEntity
  8
化粧台
 62
     2
100
AcDbMText
 10
1341.500000059605
 20
1495.0
 30
0.0
 40
40.0
 41
0.0
 71
     5
 72
     1
  1
520
  7
EXCADDIM1
 11
0.0
 21
1.0
 31
0.0
  0
POINT
  5
DF
330
D6
100
AcDbEntity
  8
DEFPOINTS
 62
     0
100
AcDbPoint
 10
1234.000000000001
 20
1755.0
 30
0.0
  0
POINT
  5
E0
330
D6
100
AcDbEntity
  8
DEFPOINTS
 62
     0
100
AcDbPoint
 10
1234.000000000001
 20
1235.0
 30
0.0
  0
POINT
  5
E1
330
D6
100
AcDbEntity
  8
DEFPOINTS
 62
     0
100
AcDbPoint
 10
1365.0
 20
1235.0
 30
0.0
  0
ENDBLK
  5
D8
330
D6
100
AcDbEntity
  8
0
100
AcDbBlockEnd
  0
BLOCK
  5
E4
330
E3
100
AcDbEntity
  8
0
100
AcDbBlockBegin
  2
*D19
 70
     1
 10
0.0
 20
0.0
 30
0.0
  3
*D19
  1

  0
LINE
  5
E6
330
E3
100
AcDbEntity
  8
化粧台
  6
CONTINUOUS
 62
     3
100
AcDbLine
 10
1090.999999880792
 20
1255.0
 30
0.0
 11
1315.0
 21
1255.0
 31
0.0
  0
LINE
  5
E7
330
E3
100
AcDbEntity
  8
化粧台
  6
CONTINUOUS
 62
     3
100
AcDbLine
 10
1090.999999880792
 20
1694.980762113501
 30
0.0
 11
1315.0
 21
1694.980762113501
 31
0.0
  0
LINE
  5
E8
330
E3
100
AcDbEntity
  8
化粧台
  6
CONTINUOUS
 62
     3
100
AcDbLine
 10
1305.0
 20
1285.0
 30
0.0
 11
1305.0
 21
1664.980762113501
 31
0.0
  0
INSERT
  5
E9
330
E3
100
AcDbEntity
  8
化粧台
 62
     3
100
AcDbBlockReference
  2
EX_NORM
 10
1305.0
 20
1255.0
 30
0.0
 41
30.0
 42
30.0
 43
30.0
 50
270.0
  0
INSERT
  5
EA
330
E3
100
AcDbEntity
  8
化粧台
 62
     3
100
AcDbBlockReference
  2
EX_NORM
 10
1305.0
 20
1694.980762113501
 30
0.0
 41
30.0
 42
30.0
 43
30.0
 50
90.0
  0
MTEXT
  5
EB
330
E3
100
AcDbEntity
  8
化粧台
 62
     2
100
AcDbMText
 10
1281.500000059605
 20
1474.99038105675
 30
0.0
 40
40.0
 41
0.0
 71
     5
 72
     1
  1
440（壁固定）
  7
EXCADDIM1
 11
0.0
 21
1.0
 31
0.0
  0
POINT
  5
EC
330
E3
100
AcDbEntity
  8
DEFPOINTS
 62
     0
100
AcDbPoint
 10
1084.000000000001
 20
1255.0
 30
0.0
  0
POINT
  5
ED
330
E3
100
AcDbEntity
  8
DEFPOINTS
 62
     0
100
AcDbPoint
 10
1084.000000000001
 20
1694.980762113501
 30
0.0
  0
POINT
  5
EE
330
E3
100
AcDbEntity
  8
DEFPOINTS
 62
     0
100
AcDbPoint
 10
1305.0
 20
1694.980762113501
 30
0.0
  0
ENDBLK
  5
E5
330
E3
100
AcDbEntity
  8
0
100
AcDbBlockEnd
  0
BLOCK
  5
F1
330
F0
100
AcDbEntity
  8
0
100
AcDbBlockBegin
  2
*D20
 70
     1
 10
0.0
 20
0.0
 30
0.0
  3
*D20
  1

  0
LINE
  5
F3
330
F0
100
AcDbEntity
  8
化粧台
  6
CONTINUOUS
 62
     3
100
AcDbLine
 10
1140.999999880791
 20
2119.0
 30
0.0
 11
1315.000000000001
 21
2119.0
 31
0.0
  0
LINE
  5
F4
330
F0
100
AcDbEntity
  8
化粧台
  6
CONTINUOUS
 62
     3
100
AcDbLine
 10
1198.499999880791
 20
2081.8
 30
0.0
 11
1315.000000000001
 21
2081.8
 31
0.0
  0
LINE
  5
F5
330
F0
100
AcDbEntity
  8
化粧台
  6
CONTINUOUS
 62
     3
100
AcDbLine
 10
1305.000000000001
 20
2119.0
 30
0.0
 11
1305.000000000001
 21
2081.8
 31
0.0
  0
LINE
  5
F6
330
F0
100
AcDbEntity
  8
化粧台
  6
CONTINUOUS
 62
     3
100
AcDbLine
 10
1305.000000000001
 20
2149.0
 30
0.0
 11
1305.000000000001
 21
2179.0
 31
0.0
  0
LINE
  5
F7
330
F0
100
AcDbEntity
  8
化粧台
  6
CONTINUOUS
 62
     3
100
AcDbLine
 10
1305.000000000001
 20
2051.8
 30
0.0
 11
1305.000000000001
 21
2021.8
 31
0.0
  0
INSERT
  5
F8
330
F0
100
AcDbEntity
  8
化粧台
 62
     3
100
AcDbBlockReference
  2
EX_NORM
 10
1305.000000000001
 20
2119.0
 30
0.0
 41
30.0
 42
30.0
 43
30.0
 50
270.0
  0
INSERT
  5
F9
330
F0
100
AcDbEntity
  8
化粧台
 62
     3
100
AcDbBlockReference
  2
EX_NORM
 10
1305.000000000001
 20
2081.8
 30
0.0
 41
30.0
 42
30.0
 43
30.0
 50
90.0
  0
MTEXT
  5
FA
330
F0
100
AcDbEntity
  8
化粧台
 62
     2
100
AcDbMText
 10
1281.500000059606
 20
2016.8
 30
0.0
 40
40.0
 41
0.0
 71
     5
 72
     1
  1
38
  7
EXCADDIM1
 11
0.0
 21
1.0
 31
0.0
  0
POINT
  5
FB
330
F0
100
AcDbEntity
  8
DEFPOINTS
 62
     0
100
AcDbPoint
 10
1134.0
 20
2119.0
 30
0.0
  0
POINT
  5
FC
330
F0
100
AcDbEntity
  8
DEFPOINTS
 62
     0
100
AcDbPoint
 10
1191.5
 20
2081.8
 30
0.0
  0
POINT
  5
FD
330
F0
100
AcDbEntity
  8
DEFPOINTS
 62
     0
100
AcDbPoint
 10
1305.000000000001
 20
2081.8
 30
0.0
  0
ENDBLK
  5
F2
330
F0
100
AcDbEntity
  8
0
100
AcDbBlockEnd
  0
BLOCK
  5
100
330
FF
100
AcDbEntity
  8
0
100
AcDbBlockBegin
  2
*D21
 70
     1
 10
0.0
 20
0.0
 30
0.0
  3
*D21
  1

  0
LINE
  5
102
330
FF
100
AcDbEntity
  8
化粧台
  6
CONTINUOUS
 62
     3
100
AcDbLine
 10
1198.499999880792
 20
1233.8
 30
0.0
 11
1435.0
 21
1233.8
 31
0.0
  0
LINE
  5
103
330
FF
100
AcDbEntity
  8
化粧台
  6
CONTINUOUS
 62
     3
100
AcDbLine
 10
1198.499999880792
 20
1756.2
 30
0.0
 11
1435.0
 21
1756.2
 31
0.0
  0
LINE
  5
104
330
FF
100
AcDbEntity
  8
化粧台
  6
CONTINUOUS
 62
     3
100
AcDbLine
 10
1425.0
 20
1263.8
 30
0.0
 11
1425.0
 21
1726.2
 31
0.0
  0
INSERT
  5
105
330
FF
100
AcDbEntity
  8
化粧台
 62
     3
100
AcDbBlockReference
  2
EX_NORM
 10
1425.0
 20
1233.8
 30
0.0
 41
30.0
 42
30.0
 43
30.0
 50
270.0
  0
INSERT
  5
106
330
FF
100
AcDbEntity
  8
化粧台
 62
     3
100
AcDbBlockReference
  2
EX_NORM
 10
1425.0
 20
1756.2
 30
0.0
 41
30.0
 42
30.0
 43
30.0
 50
90.0
  0
MTEXT
  5
107
330
FF
100
AcDbEntity
  8
化粧台
 62
     2
100
AcDbMText
 10
1401.500000059605
 20
1495.0
 30
0.0
 40
40.0
 41
0.0
 71
     5
 72
     1
  1
（522.4）
  7
EXCADDIM1
 11
0.0
 21
1.0
 31
0.0
  0
POINT
  5
108
330
FF
100
AcDbEntity
  8
DEFPOINTS
 62
     0
100
AcDbPoint
 10
1191.500000000001
 20
1233.8
 30
0.0
  0
POINT
  5
109
330
FF
100
AcDbEntity
  8
DEFPOINTS
 62
     0
100
AcDbPoint
 10
1191.500000000001
 20
1756.2
 30
0.0
  0
POINT
  5
10A
330
FF
100
AcDbEntity
  8
DEFPOINTS
 62
     0
100
AcDbPoint
 10
1425.0
 20
1756.2
 30
0.0
  0
ENDBLK
  5
101
330
FF
100
AcDbEntity
  8
0
100
AcDbBlockEnd
  0
BLOCK
  5
10D
330
10C
100
AcDbEntity
  8
0
100
AcDbBlockBegin
  2
*D22
 70
     1
 10
0.0
 20
0.0
 30
0.0
  3
*D22
  1

  0
LINE
  5
10F
330
10C
100
AcDbEntity
  8
化粧台
  6
CONTINUOUS
 62
     3
100
AcDbLine
 10
1090.999999880791
 20
1694.980762113501
 30
0.0
 11
1315.0
 21
1694.980762113501
 31
0.0
  0
LINE
  5
110
330
10C
100
AcDbEntity
  8
化粧台
  6
CONTINUOUS
 62
     3
100
AcDbLine
 10
1240.999999880791
 20
1755.0
 30
0.0
 11
1315.0
 21
1755.0
 31
0.0
  0
LINE
  5
111
330
10C
100
AcDbEntity
  8
化粧台
  6
CONTINUOUS
 62
     3
100
AcDbLine
 10
1305.0
 20
1724.980762113501
 30
0.0
 11
1305.0
 21
1725.0
 31
0.0
  0
INSERT
  5
112
330
10C
100
AcDbEntity
  8
化粧台
 62
     3
100
AcDbBlockReference
  2
EX_NORM
 10
1305.0
 20
1694.980762113501
 30
0.0
 41
30.0
 42
30.0
 43
30.0
 50
270.0
  0
INSERT
  5
113
330
10C
100
AcDbEntity
  8
化粧台
 62
     3
100
AcDbBlockReference
  2
EX_NORM
 10
1305.0
 20
1755.0
 30
0.0
 41
30.0
 42
30.0
 43
30.0
 50
90.0
  0
MTEXT
  5
114
330
10C
100
AcDbEntity
  8
化粧台
 62
     2
100
AcDbMText
 10
1281.500000059605
 20
1819.999999999999
 30
0.0
 40
40.0
 41
0.0
 71
     5
 72
     1
  1
60
  7
EXCADDIM1
 11
0.0
 21
1.0
 31
0.0
  0
POINT
  5
115
330
10C
100
AcDbEntity
  8
DEFPOINTS
 62
     0
100
AcDbPoint
 10
1084.0
 20
1694.980762113501
 30
0.0
  0
POINT
  5
116
330
10C
100
AcDbEntity
  8
DEFPOINTS
 62
     0
100
AcDbPoint
 10
1234.0
 20
1755.0
 30
0.0
  0
POINT
  5
117
330
10C
100
AcDbEntity
  8
DEFPOINTS
 62
     0
100
AcDbPoint
 10
1305.0
 20
1755.0
 30
0.0
  0
ENDBLK
  5
10E
330
10C
100
AcDbEntity
  8
0
100
AcDbBlockEnd
  0
ENDSEC
  0
SECTION
  2
ENTITIES
  0
LINE
  5
A9
330
1F
100
AcDbEntity
  8
枠_表
  6
CONTINUOUS
 62
     7
100
AcDbLine
 10
180.0
 20
135.0
 30
0.0
 11
2000.0
 21
135.0
 31
0.0
  0
LINE
  5
AA
330
1F
100
AcDbEntity
  8
枠_表
  6
CONTINUOUS
 62
     7
100
AcDbLine
 10
2000.0
 20
135.0
 30
0.0
 11
2000.0
 21
2885.0
 31
0.0
  0
LINE
  5
AB
330
1F
100
AcDbEntity
  8
枠_表
  6
CONTINUOUS
 62
     7
100
AcDbLine
 10
180.0
 20
2885.0
 30
0.0
 11
2000.0
 21
2885.0
 31
0.0
  0
DIMENSION
  5
AD
330
1F
100
AcDbEntity
  8
化粧台
  6
CONTINUOUS
 62
     3
100
AcDbDimension
  2
*D15
 10
1084.000000000001
 20
1803.0
 30
0.0
 11
934.0000000000009
 21
1826.499999940395
 31
0.0
 70
   160
  1
<>（壁固定）
  3
ISO-25
100
AcDbAlignedDimension
 13
784.0000000000009
 23
1694.980762113501
 33
0.0
 14
1084.000000000001
 24
1694.980762113501
 34
0.0
100
AcDbRotatedDimension
1001
ACAD
1000
DSTYLE
1002
{
1070
   270
1070
     2
1070
     6
1000
EX_NORM
1070
     7
1000
EX_NORM
1070
    41
1040
30.0
1070
    42
1040
6.99999988079071
1070
    44
1040
10.0
1070
    73
1070
     0
1070
    74
1070
     0
1070
    75
1070
     0
1070
    76
1070
     0
1070
    77
1070
     1
1070
    78
1070
     8
1070
   140
1040
40.0
1070
   147
1040
0.0
1070
   173
1070
     1
1070
   176
1070
     3
1070
   177
1070
     3
1070
   178
1070
     2
1070
   271
1070
     2
1070
   277
1070
     2
1070
   279
1070
     2
1070
   280
1070
     0
1070
   287
1070
     5
1070
   340
1005
AC
1002
}
  0
DIMENSION
  5
BB
330
1F
100
AcDbEntity
  8
化粧台
  6
CONTINUOUS
 62
     3
100
AcDbDimension
  2
*D16
 10
1234.000000000001
 20
1923.0
 30
0.0
 11
934.000000000001
 21
1946.499999940395
 31
0.0
 70
   160
  3
ISO-25
100
AcDbAlignedDimension
 13
634.0000000000009
 23
1755.0
 33
0.0
 14
1234.000000000001
 24
1755.0
 34
0.0
100
AcDbRotatedDimension
1001
ACAD
1000
DSTYLE
1002
{
1070
   270
1070
     2
1070
     6
1000
EX_NORM
1070
     7
1000
EX_NORM
1070
    41
1040
30.0
1070
    42
1040
6.99999988079071
1070
    44
1040
10.0
1070
    73
1070
     0
1070
    74
1070
     0
1070
    75
1070
     0
1070
    76
1070
     0
1070
    77
1070
     1
1070
    78
1070
     8
1070
   140
1040
40.0
1070
   147
1040
0.0
1070
   173
1070
     1
1070
   176
1070
     3
1070
   177
1070
     3
1070
   178
1070
     2
1070
   271
1070
     2
1070
   277
1070
     2
1070
   279
1070
     2
1070
   280
1070
     0
1070
   287
1070
     5
1070
   340
1005
AC
1002
}
  0
DIMENSION
  5
C8
330
1F
100
AcDbEntity
  8
化粧台
  6
CONTINUOUS
 62
     3
100
AcDbDimension
  2
*D17
 10
1193.500000000001
 20
1863.0
 30
0.0
 11
934.0000000000009
 21
1886.499999940395
 31
0.0
 70
   160
  1
□<>（鏡）
  3
ISO-25
100
AcDbAlignedDimension
 13
674.5000000000008
 23
1755.0
 33
0.0
 14
1193.500000000001
 24
1755.0
 34
0.0
100
AcDbRotatedDimension
1001
ACAD
1000
DSTYLE
1002
{
1070
   270
1070
     2
1070
     6
1000
EX_NORM
1070
     7
1000
EX_NORM
1070
    41
1040
30.0
1070
    42
1040
6.99999988079071
1070
    44
1040
10.0
1070
    73
1070
     0
1070
    74
1070
     0
1070
    75
1070
     0
1070
    76
1070
     0
1070
    77
1070
     1
1070
    78
1070
     8
1070
   140
1040
40.0
1070
   147
1040
0.0
1070
   173
1070
     1
1070
   176
1070
     3
1070
   177
1070
     3
1070
   178
1070
     2
1070
   271
1070
     2
1070
   277
1070
     2
1070
   279
1070
     2
1070
   280
1070
     0
1070
   287
1070
     5
1070
   340
1005
AC
1002
}
  0
DIMENSION
  5
D5
330
1F
100
AcDbEntity
  8
化粧台
  6
CONTINUOUS
 62
     3
100
AcDbDimension
  2
*D18
 10
1365.0
 20
1235.0
 30
0.0
 11
1341.500000059605
 21
1495.0
 31
0.0
 70
   160
  3
ISO-25
100
AcDbAlignedDimension
 13
1234.000000000001
 23
1755.0
 33
0.0
 14
1234.000000000001
 24
1235.0
 34
0.0
 50
90.0
100
AcDbRotatedDimension
1001
ACAD
1000
DSTYLE
1002
{
1070
   270
1070
     2
1070
     6
1000
EX_NORM
1070
     7
1000
EX_NORM
1070
    41
1040
30.0
1070
    42
1040
6.99999988079071
1070
    44
1040
10.0
1070
    73
1070
     0
1070
    74
1070
     0
1070
    75
1070
     0
1070
    76
1070
     0
1070
    77
1070
     1
1070
    78
1070
     8
1070
   140
1040
40.0
1070
   147
1040
0.0
1070
   173
1070
     1
1070
   176
1070
     3
1070
   177
1070
     3
1070
   178
1070
     2
1070
   271
1070
     2
1070
   277
1070
     2
1070
   279
1070
     2
1070
   280
1070
     0
1070
   287
1070
     5
1070
   340
1005
AC
1002
}
  0
DIMENSION
  5
E2
330
1F
100
AcDbEntity
  8
化粧台
  6
CONTINUOUS
 62
     3
100
AcDbDimension
  2
*D19
 10
1305.0
 20
1694.980762113501
 30
0.0
 11
1281.500000059605
 21
1474.99038105675
 31
0.0
 70
   160
  1
440（壁固定）
  3
ISO-25
100
AcDbAlignedDimension
 13
1084.000000000001
 23
1255.0
 33
0.0
 14
1084.000000000001
 24
1694.980762113501
 34
0.0
 50
90.0
100
AcDbRotatedDimension
1001
ACAD
1000
DSTYLE
1002
{
1070
   270
1070
     2
1070
     6
1000
EX_NORM
1070
     7
1000
EX_NORM
1070
    41
1040
30.0
1070
    42
1040
6.99999988079071
1070
    44
1040
10.0
1070
    73
1070
     0
1070
    74
1070
     0
1070
    75
1070
     0
1070
    76
1070
     0
1070
    77
1070
     1
1070
    78
1070
     8
1070
   140
1040
40.0
1070
   147
1040
0.0
1070
   173
1070
     1
1070
   176
1070
     3
1070
   177
1070
     3
1070
   178
1070
     2
1070
   271
1070
     2
1070
   277
1070
     2
1070
   279
1070
     2
1070
   280
1070
     0
1070
   287
1070
     5
1070
   340
1005
AC
1002
}
  0
DIMENSION
  5
EF
330
1F
100
AcDbEntity
  8
化粧台
  6
CONTINUOUS
 62
     3
100
AcDbDimension
  2
*D20
 10
1305.000000000001
 20
2081.8
 30
0.0
 11
1281.500000059606
 21
2016.8
 31
0.0
 70
   160
  1
38
  3
ISO-25
100
AcDbAlignedDimension
 13
1134.0
 23
2119.0
 33
0.0
 14
1191.5
 24
2081.8
 34
0.0
 50
90.0
100
AcDbRotatedDimension
1001
ACAD
1000
DSTYLE
1002
{
1070
   270
1070
     2
1070
     6
1000
EX_NORM
1070
     7
1000
EX_NORM
1070
    41
1040
30.0
1070
    42
1040
6.99999988079071
1070
    44
1040
10.0
1070
    73
1070
     0
1070
    74
1070
     0
1070
    75
1070
     0
1070
    76
1070
     0
1070
    77
1070
     1
1070
    78
1070
     8
1070
   140
1040
40.0
1070
   147
1040
0.0
1070
   173
1070
     1
1070
   176
1070
     3
1070
   177
1070
     3
1070
   178
1070
     2
1070
   271
1070
     2
1070
   277
1070
     2
1070
   279
1070
     2
1070
   280
1070
     2
1070
   287
1070
     5
1070
   340
1005
AC
1002
}
  0
DIMENSION
  5
FE
330
1F
100
AcDbEntity
  8
化粧台
  6
CONTINUOUS
 62
     3
100
AcDbDimension
  2
*D21
 10
1425.0
 20
1756.2
 30
0.0
 11
1401.500000059605
 21
1495.0
 31
0.0
 70
   160
  1
（522.4）
  3
ISO-25
100
AcDbAlignedDimension
 13
1191.500000000001
 23
1233.8
 33
0.0
 14
1191.500000000001
 24
1756.2
 34
0.0
 50
90.0
100
AcDbRotatedDimension
1001
ACAD
1000
DSTYLE
1002
{
1070
   270
1070
     2
1070
     6
1000
EX_NORM
1070
     7
1000
EX_NORM
1070
    41
1040
30.0
1070
    42
1040
6.99999988079071
1070
    44
1040
10.0
1070
    73
1070
     0
1070
    74
1070
     0
1070
    75
1070
     0
1070
    76
1070
     0
1070
    77
1070
     1
1070
    78
1070
     8
1070
   140
1040
40.0
1070
   147
1040
0.0
1070
   173
1070
     1
1070
   176
1070
     3
1070
   177
1070
     3
1070
   178
1070
     2
1070
   271
1070
     2
1070
   277
1070
     2
1070
   279
1070
     2
1070
   280
1070
     0
1070
   287
1070
     5
1070
   340
1005
AC
1002
}
  0
DIMENSION
  5
10B
330
1F
100
AcDbEntity
  8
化粧台
  6
CONTINUOUS
 62
     3
100
AcDbDimension
  2
*D22
 10
1305.0
 20
1755.0
 30
0.0
 11
1281.500000059605
 21
1819.999999999999
 31
0.0
 70
   160
  1
60
  3
ISO-25
100
AcDbAlignedDimension
 13
1084.0
 23
1694.980762113501
 33
0.0
 14
1234.0
 24
1755.0
 34
0.0
 50
90.0
100
AcDbRotatedDimension
1001
ACAD
1000
DSTYLE
1002
{
1070
   270
1070
     2
1070
     6
1000
EX_NORM
1070
     7
1000
EX_NORM
1070
    41
1040
30.0
1070
    42
1040
6.99999988079071
1070
    44
1040
10.0
1070
    73
1070
     0
1070
    74
1070
     0
1070
    75
1070
     0
1070
    76
1070
     0
1070
    77
1070
     1
1070
    78
1070
     8
1070
   140
1040
40.0
1070
   147
1040
0.0
1070
   173
1070
     1
1070
   176
1070
     3
1070
   177
1070
     3
1070
   178
1070
     2
1070
   271
1070
     2
1070
   277
1070
     2
1070
   279
1070
     2
1070
   280
1070
     2
1070
   287
1070
     5
1070
   340
1005
AC
1002
}
  0
LINE
  5
118
330
1F
100
AcDbEntity
  8
化粧台
  6
CONTINUOUS
 62
     2
100
AcDbLine
 10
634.0000000000009
 20
2106.5
 30
0.0
 11
684.0000000000009
 21
2106.5
 31
0.0
  0
LINE
  5
119
330
1F
100
AcDbEntity
  8
化粧台
  6
CONTINUOUS
 62
     2
100
AcDbLine
 10
1184.000000000001
 20
2106.5
 30
0.0
 11
1234.000000000001
 21
2106.5
 31
0.0
  0
LINE
  5
11A
330
1F
100
AcDbEntity
  8
化粧台
  6
CONTINUOUS
 62
     2
100
AcDbLine
 10
684.0000000000009
 20
2104.0
 30
0.0
 11
1184.000000000001
 21
2104.0
 31
0.0
  0
LINE
  5
11B
330
1F
100
AcDbEntity
  8
化粧台
  6
CONTINUOUS
 62
     2
100
AcDbLine
 10
634.0000000000009
 20
2089.0
 30
0.0
 11
634.0000000000009
 21
2106.5
 31
0.0
  0
LINE
  5
11C
330
1F
100
AcDbEntity
  8
化粧台
  6
CONTINUOUS
 62
     2
100
AcDbLine
 10
1234.000000000001
 20
2089.0
 30
0.0
 11
1234.000000000001
 21
2106.5
 31
0.0
  0
LINE
  5
11D
330
1F
100
AcDbEntity
  8
化粧台
  6
CONTINUOUS
 62
     2
100
AcDbLine
 10
1134.000000000001
 20
2119.0
 30
0.0
 11
1134.000000000001
 21
2104.0
 31
0.0
  0
LINE
  5
11E
330
1F
100
AcDbEntity
  8
化粧台
  6
CONTINUOUS
 62
     2
100
AcDbLine
 10
734.0000000000009
 20
2119.0
 30
0.0
 11
734.0000000000009
 21
2104.0
 31
0.0
  0
LINE
  5
11F
330
1F
100
AcDbEntity
  8
化粧台
  6
CONTINUOUS
 62
     2
100
AcDbLine
 10
734.0000000000009
 20
2119.0
 30
0.0
 11
1134.000000000001
 21
2119.0
 31
0.0
  0
LINE
  5
120
330
1F
100
AcDbEntity
  8
化粧台
  6
CONTINUOUS
 62
     2
100
AcDbLine
 10
1193.500000000001
 20
2083.0
 30
0.0
 11
1193.500000000001
 21
2088.0
 31
0.0
  0
LINE
  5
121
330
1F
100
AcDbEntity
  8
化粧台
  6
CONTINUOUS
 62
     2
100
AcDbLine
 10
674.5000000000009
 20
2083.0
 30
0.0
 11
674.5000000000009
 21
2088.0
 31
0.0
  0
LINE
  5
122
330
1F
100
AcDbEntity
  8
化粧台
  6
CONTINUOUS
 62
     4
100
AcDbLine
 10
676.5000000000009
 20
2081.8
 30
0.0
 11
676.5000000000009
 21
2101.8
 31
0.0
  0
LINE
  5
123
330
1F
100
AcDbEntity
  8
化粧台
  6
CONTINUOUS
 62
     4
100
AcDbLine
 10
676.5000000000009
 20
2081.8
 30
0.0
 11
1191.500000000001
 21
2081.8
 31
0.0
  0
LINE
  5
124
330
1F
100
AcDbEntity
  8
化粧台
  6
CONTINUOUS
 62
     4
100
AcDbLine
 10
676.5000000000009
 20
2101.8
 30
0.0
 11
1191.500000000001
 21
2101.8
 31
0.0
  0
LINE
  5
125
330
1F
100
AcDbEntity
  8
化粧台
  6
CONTINUOUS
 62
     4
100
AcDbLine
 10
1191.500000000001
 20
2081.8
 30
0.0
 11
1191.500000000001
 21
2101.8
 31
0.0
  0
LINE
  5
126
330
1F
100
AcDbEntity
  8
化粧台
  6
CONTINUOUS
 62
     2
100
AcDbLine
 10
1184.000000000001
 20
2101.8
 30
0.0
 11
1184.000000000001
 21
2106.5
 31
0.0
  0
LINE
  5
127
330
1F
100
AcDbEntity
  8
化粧台
  6
CONTINUOUS
 62
     2
100
AcDbLine
 10
684.0000000000009
 20
2101.8
 30
0.0
 11
684.0000000000009
 21
2106.5
 31
0.0
  0
LINE
  5
128
330
1F
100
AcDbEntity
  8
化粧台
  6
CONTINUOUS
 62
     2
100
AcDbLine
 10
634.0000000000009
 20
2089.0
 30
0.0
 11
676.5000000000009
 21
2089.0
 31
0.0
  0
LINE
  5
129
330
1F
100
AcDbEntity
  8
化粧台
  6
CONTINUOUS
 62
     2
100
AcDbLine
 10
674.5000000000009
 20
2088.0
 30
0.0
 11
676.5000000000009
 21
2088.0
 31
0.0
  0
LINE
  5
12A
330
1F
100
AcDbEntity
  8
化粧台
  6
CONTINUOUS
 62
     2
100
AcDbLine
 10
674.5000000000009
 20
2083.0
 30
0.0
 11
676.5000000000009
 21
2083.0
 31
0.0
  0
LINE
  5
12B
330
1F
100
AcDbEntity
  8
化粧台
  6
CONTINUOUS
 62
     2
100
AcDbLine
 10
1191.500000000001
 20
2083.0
 30
0.0
 11
1193.500000000001
 21
2083.0
 31
0.0
  0
LINE
  5
12C
330
1F
100
AcDbEntity
  8
化粧台
  6
CONTINUOUS
 62
     2
100
AcDbLine
 10
1191.500000000001
 20
2088.0
 30
0.0
 11
1193.500000000001
 21
2088.0
 31
0.0
  0
LINE
  5
12D
330
1F
100
AcDbEntity
  8
化粧台
  6
CONTINUOUS
 62
     2
100
AcDbLine
 10
1191.500000000001
 20
2089.0
 30
0.0
 11
1234.000000000001
 21
2089.0
 31
0.0
  0
LINE
  5
12E
330
1F
100
AcDbEntity
  8
化粧台
  6
CONTINUOUS
 62
     2
100
AcDbLine
 10
634.0000000000009
 20
1755.0
 30
0.0
 11
634.0000000000009
 21
1235.0
 31
0.0
  0
LINE
  5
12F
330
1F
100
AcDbEntity
  8
化粧台
  6
CONTINUOUS
 62
     2
100
AcDbLine
 10
1234.000000000001
 20
1755.0
 30
0.0
 11
1234.000000000001
 21
1235.0
 31
0.0
  0
LINE
  5
130
330
1F
100
AcDbEntity
  8
化粧台
  6
CONTINUOUS
 62
     4
100
AcDbLine
 10
676.5000000000009
 20
1243.8
 30
0.0
 11
676.5000000000009
 21
1233.8
 31
0.0
  0
LINE
  5
131
330
1F
100
AcDbEntity
  8
化粧台
  6
CONTINUOUS
 62
     4
100
AcDbLine
 10
676.5000000000009
 20
1243.8
 30
0.0
 11
1191.500000000001
 21
1243.8
 31
0.0
  0
LINE
  5
132
330
1F
100
AcDbEntity
  8
化粧台
  6
CONTINUOUS
 62
     4
100
AcDbLine
 10
676.5000000000009
 20
1233.8
 30
0.0
 11
1191.500000000001
 21
1233.8
 31
0.0
  0
LINE
  5
133
330
1F
100
AcDbEntity
  8
化粧台
  6
CONTINUOUS
 62
     4
100
AcDbLine
 10
1191.500000000001
 20
1243.8
 30
0.0
 11
1191.500000000001
 21
1233.8
 31
0.0
  0
LINE
  5
134
330
1F
100
AcDbEntity
  8
化粧台
  6
CONTINUOUS
 62
     2
100
AcDbLine
 10
674.5000000000009
 20
1755.0
 30
0.0
 11
674.5000000000009
 21
1235.0
 31
0.0
  0
LINE
  5
135
330
1F
100
AcDbEntity
  8
化粧台
  6
CONTINUOUS
 62
     4
100
AcDbLine
 10
676.5000000000009
 20
1756.2
 30
0.0
 11
676.5000000000009
 21
1746.2
 31
0.0
  0
LINE
  5
136
330
1F
100
AcDbEntity
  8
化粧台
  6
CONTINUOUS
 62
     4
100
AcDbLine
 10
1191.500000000001
 20
1756.2
 30
0.0
 11
1191.500000000001
 21
1746.2
 31
0.0
  0
LINE
  5
137
330
1F
100
AcDbEntity
  8
化粧台
  6
CONTINUOUS
 62
     4
100
AcDbLine
 10
676.5000000000009
 20
1756.2
 30
0.0
 11
1191.500000000001
 21
1756.2
 31
0.0
  0
LINE
  5
138
330
1F
100
AcDbEntity
  8
化粧台
  6
CONTINUOUS
 62
     4
100
AcDbLine
 10
676.5000000000009
 20
1746.2
 30
0.0
 11
1191.500000000001
 21
1746.2
 31
0.0
  0
LINE
  5
139
330
1F
100
AcDbEntity
  8
化粧台
  6
CONTINUOUS
 62
     2
100
AcDbLine
 10
1193.500000000001
 20
1755.0
 30
0.0
 11
1193.500000000001
 21
1235.0
 31
0.0
  0
LINE
  5
13A
330
1F
100
AcDbEntity
  8
化粧台
  6
CONTINUOUS
 62
     2
100
AcDbLine
 10
634.0000000000009
 20
1755.0
 30
0.0
 11
676.5000000000009
 21
1755.0
 31
0.0
  0
LINE
  5
13B
330
1F
100
AcDbEntity
  8
化粧台
  6
CONTINUOUS
 62
     2
100
AcDbLine
 10
1191.500000000001
 20
1755.0
 30
0.0
 11
1234.000000000001
 21
1755.0
 31
0.0
  0
LINE
  5
13C
330
1F
100
AcDbEntity
  8
化粧台
  6
CONTINUOUS
 62
     2
100
AcDbLine
 10
1191.500000000001
 20
1235.0
 30
0.0
 11
1234.000000000001
 21
1235.0
 31
0.0
  0
LINE
  5
13D
330
1F
100
AcDbEntity
  8
化粧台
  6
CONTINUOUS
 62
     2
100
AcDbLine
 10
634.0000000000009
 20
1235.0
 30
0.0
 11
676.5000000000009
 21
1235.0
 31
0.0
  0
LINE
  5
13E
330
1F
100
AcDbEntity
  8
化粧台
  6
CONTINUOUS
 62
     2
100
AcDbLine
 10
1603.000000000001
 20
1755.0
 30
0.0
 11
1603.000000000001
 21
1235.0
 31
0.0
  0
LINE
  5
13F
330
1F
100
AcDbEntity
  8
化粧台
  6
CONTINUOUS
 62
     2
100
AcDbLine
 10
1633.000000000001
 20
1300.0
 30
0.0
 11
1633.000000000001
 21
1240.0
 31
0.0
  0
LINE
  5
140
330
1F
100
AcDbEntity
  8
化粧台
  6
CONTINUOUS
 62
     2
100
AcDbLine
 10
1602.000000000001
 20
1754.0
 30
0.0
 11
1602.000000000001
 21
1235.0
 31
0.0
  0
LINE
  5
141
330
1F
100
AcDbEntity
  8
化粧台
  6
CONTINUOUS
 62
     2
100
AcDbLine
 10
1597.000000000001
 20
1754.0
 30
0.0
 11
1602.000000000001
 21
1754.0
 31
0.0
  0
LINE
  5
142
330
1F
100
AcDbEntity
  8
化粧台
  6
CONTINUOUS
 62
     2
100
AcDbLine
 10
1615.800000000006
 20
1756.2
 30
0.0
 11
1615.800000000006
 21
1755.0
 31
0.0
  0
LINE
  5
143
330
1F
100
AcDbEntity
  8
化粧台
  6
CONTINUOUS
 62
     2
100
AcDbLine
 10
1595.800000000001
 20
1746.200000000005
 30
0.0
 11
1597.000000000001
 21
1746.200000000005
 31
0.0
  0
LINE
  5
144
330
1F
100
AcDbEntity
  8
化粧台
  6
CONTINUOUS
 62
     2
100
AcDbLine
 10
1595.800000000001
 20
1756.2
 30
0.0
 11
1615.800000000001
 21
1756.2
 31
0.0
  0
LINE
  5
145
330
1F
100
AcDbEntity
  8
化粧台
  6
CONTINUOUS
 62
     2
100
AcDbLine
 10
1595.800000000001
 20
1746.2
 30
0.0
 11
1595.800000000001
 21
1756.2
 31
0.0
  0
LINE
  5
146
330
1F
100
AcDbEntity
  8
化粧台
  6
CONTINUOUS
 62
     2
100
AcDbLine
 10
1597.000000000001
 20
1755.0
 30
0.0
 11
1597.000000000001
 21
1235.0
 31
0.0
  0
LINE
  5
147
330
1F
100
AcDbEntity
  8
化粧台
  6
CONTINUOUS
 62
     2
100
AcDbLine
 10
1597.000000000001
 20
1755.0
 30
0.0
 11
1620.500000000001
 21
1755.0
 31
0.0
  0
LINE
  5
148
330
1F
100
AcDbEntity
  8
化粧台
  6
CONTINUOUS
 62
     2
100
AcDbLine
 10
1595.800000000001
 20
1243.8
 30
0.0
 11
1597.000000000001
 21
1243.8
 31
0.0
  0
LINE
  5
149
330
1F
100
AcDbEntity
  8
化粧台
  6
CONTINUOUS
 62
     2
100
AcDbLine
 10
1615.800000000006
 20
1235.0
 30
0.0
 11
1615.800000000006
 21
1233.8
 31
0.0
  0
LINE
  5
14A
330
1F
100
AcDbEntity
  8
化粧台
  6
CONTINUOUS
 62
     2
100
AcDbLine
 10
1595.800000000001
 20
1233.8
 30
0.0
 11
1615.800000000001
 21
1233.8
 31
0.0
  0
LINE
  5
14B
330
1F
100
AcDbEntity
  8
化粧台
  6
CONTINUOUS
 62
     2
100
AcDbLine
 10
1595.800000000001
 20
1243.8
 30
0.0
 11
1595.800000000001
 21
1233.8
 31
0.0
  0
LINE
  5
14C
330
1F
100
AcDbEntity
  8
化粧台
  6
CONTINUOUS
 62
     2
100
AcDbLine
 10
1597.000000000001
 20
1235.0
 30
0.0
 11
1620.500000000001
 21
1235.0
 31
0.0
  0
LINE
  5
14D
330
1F
100
AcDbEntity
  8
化粧台
  6
CONTINUOUS
 62
     2
100
AcDbLine
 10
1633.000000000001
 20
1754.0
 30
0.0
 11
1633.000000000001
 21
1679.980762113501
 31
0.0
  0
LINE
  5
14E
330
1F
100
AcDbEntity
  8
化粧台
  6
CONTINUOUS
 62
     2
100
AcDbLine
 10
1633.000000000001
 20
1754.0
 30
0.0
 11
1620.500000000001
 21
1754.0
 31
0.0
  0
LINE
  5
14F
330
1F
100
AcDbEntity
  8
化粧台
  6
CONTINUOUS
 62
     2
100
AcDbLine
 10
1633.000000000001
 20
1704.0
 30
0.0
 11
1620.500000000001
 21
1725.650635094584
 31
0.0
  0
LINE
  5
150
330
1F
100
AcDbEntity
  8
化粧台
  6
CONTINUOUS
 62
     2
100
AcDbLine
 10
1620.500000000001
 20
1679.980762113501
 30
0.0
 11
1633.000000000001
 21
1679.980762113501
 31
0.0
  0
LINE
  5
151
330
1F
100
AcDbEntity
  8
化粧台
  6
CONTINUOUS
 62
     2
100
AcDbLine
 10
1620.500000000001
 20
1755.0
 30
0.0
 11
1620.500000000001
 21
1235.0
 31
0.0
  0
LINE
  5
152
330
1F
100
AcDbEntity
  8
化粧台
  6
CONTINUOUS
 62
     2
100
AcDbLine
 10
1633.000000000001
 20
1300.0
 30
0.0
 11
1620.500000000001
 21
1300.0
 31
0.0
  0
LINE
  5
153
330
1F
100
AcDbEntity
  8
化粧台
  6
CONTINUOUS
 62
     2
100
AcDbLine
 10
1633.000000000001
 20
1270.0
 30
0.0
 11
1620.500000000001
 21
1270.0
 31
0.0
  0
LINE
  5
154
330
1F
100
AcDbEntity
  8
化粧台
  6
CONTINUOUS
 62
     2
100
AcDbLine
 10
1633.000000000001
 20
1240.0
 30
0.0
 11
1620.500000000001
 21
1240.0
 31
0.0
  0
LINE
  5
155
330
1F
100
AcDbEntity
  8
枠_表
  6
CONTINUOUS
 62
     7
100
AcDbLine
 10
180.0
 20
135.0
 30
0.0
 11
180.0
 21
2885.0
 31
0.0
  0
LINE
  5
156
330
1F
100
AcDbEntity
  8
枠_表
  6
CONTINUOUS
 62
     7
100
AcDbLine
 10
180.0
 20
355.0
 30
0.0
 11
2000.0
 21
355.0
 31
0.0
  0
LINE
  5
157
330
1F
100
AcDbEntity
  8
枠_表
  6
CONTINUOUS
 62
     6
100
AcDbLine
 10
2000.0
 20
235.0
 30
0.0
 11
750.0
 21
235.0
 31
0.0
  0
LINE
  5
158
330
1F
100
AcDbEntity
  8
枠_表
  6
CONTINUOUS
 62
     6
100
AcDbLine
 10
1860.0
 20
355.0
 30
0.0
 11
1860.0
 21
235.0
 31
0.0
  0
LINE
  5
159
330
1F
100
AcDbEntity
  8
枠_表
  6
CONTINUOUS
 62
     6
100
AcDbLine
 10
1810.0
 20
355.0
 30
0.0
 11
1810.0
 21
235.0
 31
0.0
  0
LINE
  5
15A
330
1F
100
AcDbEntity
  8
枠_表
  6
CONTINUOUS
 62
     6
100
AcDbLine
 10
1440.0
 20
355.0
 30
0.0
 11
1440.0
 21
135.0
 31
0.0
  0
LINE
  5
15B
330
1F
100
AcDbEntity
  8
枠_表
  6
CONTINUOUS
 62
     6
100
AcDbLine
 10
1390.0
 20
355.0
 30
0.0
 11
1390.0
 21
135.0
 31
0.0
  0
LINE
  5
15C
330
1F
100
AcDbEntity
  8
枠_表
  6
CONTINUOUS
 62
     6
100
AcDbLine
 10
800.0
 20
355.0
 30
0.0
 11
800.0
 21
235.0
 31
0.0
  0
LINE
  5
15D
330
1F
100
AcDbEntity
  8
枠_表
  6
CONTINUOUS
 62
     6
100
AcDbLine
 10
750.0
 20
355.0
 30
0.0
 11
750.0
 21
135.0
 31
0.0
  0
LINE
  5
15E
330
1F
100
AcDbEntity
  8
枠_表
  6
CONTINUOUS
 62
     6
100
AcDbLine
 10
620.0
 20
355.0
 30
0.0
 11
620.0
 21
135.0
 31
0.0
  0
LINE
  5
15F
330
1F
100
AcDbEntity
  8
枠_表
  6
CONTINUOUS
 62
     6
100
AcDbLine
 10
490.0
 20
355.0
 30
0.0
 11
490.0
 21
135.0
 31
0.0
  0
LINE
  5
160
330
1F
100
AcDbEntity
  8
枠_表
  6
CONTINUOUS
 62
     6
100
AcDbLine
 10
335.0
 20
355.0
 30
0.0
 11
335.0
 21
135.0
 31
0.0
  0
LINE
  5
161
330
1F
100
AcDbEntity
  8
枠_表
  6
CONTINUOUS
 62
     6
100
AcDbLine
 10
180.0
 20
305.0
 30
0.0
 11
750.0
 21
305.0
 31
0.0
  0
LINE
  5
162
330
1F
100
AcDbEntity
  8
枠_表
  6
CONTINUOUS
 62
     6
100
AcDbLine
 10
1892.6538086
 20
258.0029297
 30
0.0
 11
1969.9938965
 21
336.6998291
 31
0.0
  0
LINE
  5
163
330
1F
100
AcDbEntity
  8
枠_表
  6
EXLTYPE2
 62
     6
100
AcDbLine
 10
180.0
 20
1510.0
 30
0.0
 11
-14.99999999999999
 21
1510.0
 31
0.0
  0
CIRCLE
  5
164
330
1F
100
AcDbEntity
  8
枠_表
  6
CONTINUOUS
 62
     6
100
AcDbCircle
 10
230.0
 20
160.0
 30
0.0
 40
1.0000002
  0
CIRCLE
  5
165
330
1F
100
AcDbEntity
  8
枠_表
  6
CONTINUOUS
 62
     6
100
AcDbCircle
 10
280.0
 20
160.0
 30
0.0
 40
1.0000002
  0
CIRCLE
  5
166
330
1F
100
AcDbEntity
  8
枠_表
  6
CONTINUOUS
 62
     6
100
AcDbCircle
 10
385.0
 20
160.0
 30
0.0
 40
1.0000002
  0
CIRCLE
  5
167
330
1F
100
AcDbEntity
  8
枠_表
  6
CONTINUOUS
 62
     6
100
AcDbCircle
 10
435.0
 20
160.0
 30
0.0
 40
1.0000002
  0
LINE
  5
168
330
1F
100
AcDbEntity
  8
枠_表
  6
EXLTYPE2
 62
     6
100
AcDbLine
 10
180.0
 20
185.0
 30
0.0
 11
490.0
 21
185.0
 31
0.0
  0
LINE
  5
169
330
1F
100
AcDbEntity
  8
化粧台
  6
CONTINUOUS
 62
     6
100
AcDbLine
 10
934.0000000000009
 20
2076.8
 30
0.0
 11
934.0000000000009
 21
2124.0
 31
0.0
  0
LINE
  5
16A
330
1F
100
AcDbEntity
  8
化粧台
  6
EXLTYPE2
 62
     6
100
AcDbLine
 10
684.0000000000009
 20
1755.0
 30
0.0
 11
684.0000000000009
 21
1235.0
 31
0.0
  0
LINE
  5
16B
330
1F
100
AcDbEntity
  8
化粧台
  6
EXLTYPE2
 62
     6
100
AcDbLine
 10
1184.000000000001
 20
1755.0
 30
0.0
 11
1184.000000000001
 21
1235.0
 31
0.0
  0
LINE
  5
16C
330
1F
100
AcDbEntity
  8
化粧台
  6
EXLTYPE2
 62
     6
100
AcDbLine
 10
684.0000000000009
 20
1675.0
 30
0.0
 11
1184.000000000001
 21
1675.0
 31
0.0
  0
LINE
  5
16D
330
1F
100
AcDbEntity
  8
化粧台
  6
EXLTYPE2
 62
     6
100
AcDbLine
 10
676.5000000000009
 20
1235.0
 30
0.0
 11
1191.500000000001
 21
1235.0
 31
0.0
  0
LINE
  5
16E
330
1F
100
AcDbEntity
  8
化粧台
  6
CONTINUOUS
 62
     6
100
AcDbLine
 10
990.5355339059315
 20
1579.464466094038
 30
0.0
 11
1005.535533905932
 21
1594.464466094036
 31
0.0
  0
LINE
  5
16F
330
1F
100
AcDbEntity
  8
化粧台
  6
CONTINUOUS
 62
     6
100
AcDbLine
 10
979.9999999999973
 20
1575.999999999975
 30
0.0
 11
1012.500000000001
 21
1608.499999999971
 31
0.0
  0
LINE
  5
170
330
1F
100
AcDbEntity
  8
化粧台
  6
CONTINUOUS
 62
     6
100
AcDbLine
 10
1000.714466094066
 20
1603.785533905903
 30
0.0
 11
987.9644660940667
 21
1591.035533905906
 31
0.0
  0
LINE
  5
171
330
1F
100
AcDbEntity
  8
化粧台
  6
CONTINUOUS
 62
     6
100
AcDbLine
 10
825.5355339059315
 20
1552.464466094037
 30
0.0
 11
840.5355339059324
 21
1567.464466094036
 31
0.0
  0
LINE
  5
172
330
1F
100
AcDbEntity
  8
化粧台
  6
CONTINUOUS
 62
     6
100
AcDbLine
 10
814.9999999999973
 20
1548.999999999974
 30
0.0
 11
847.5000000000009
 21
1581.499999999971
 31
0.0
  0
LINE
  5
173
330
1F
100
AcDbEntity
  8
化粧台
  6
CONTINUOUS
 62
     6
100
AcDbLine
 10
835.7144660940658
 20
1576.785533905903
 30
0.0
 11
822.9644660940667
 21
1564.035533905905
 31
0.0
  0
LINE
  5
174
330
1F
100
AcDbEntity
  8
化粧台
  6
CONTINUOUS
 62
     6
100
AcDbLine
 10
969.5355339059315
 20
1389.464466094037
 30
0.0
 11
984.5355339059324
 21
1404.464466094036
 31
0.0
  0
LINE
  5
175
330
1F
100
AcDbEntity
  8
化粧台
  6
CONTINUOUS
 62
     6
100
AcDbLine
 10
958.9999999999973
 20
1385.999999999974
 30
0.0
 11
991.5000000000009
 21
1418.499999999971
 31
0.0
  0
LINE
  5
176
330
1F
100
AcDbEntity
  8
化粧台
  6
CONTINUOUS
 62
     6
100
AcDbLine
 10
979.7144660940658
 20
1413.785533905903
 30
0.0
 11
966.9644660940667
 21
1401.035533905905
 31
0.0
  0
LINE
  5
177
330
1F
100
AcDbEntity
  8
化粧台
  6
CONTINUOUS
 62
     6
100
AcDbLine
 10
1089.000000000001
 20
1694.980762113501
 30
0.0
 11
1079.000000000001
 21
1694.980762113501
 31
0.0
  0
LINE
  5
178
330
1F
100
AcDbEntity
  8
化粧台
  6
CONTINUOUS
 62
     6
100
AcDbLine
 10
1084.0
 20
1689.980762113501
 30
0.0
 11
1084.0
 21
1699.980762113501
 31
0.0
  0
LINE
  5
179
330
1F
100
AcDbEntity
  8
化粧台
  6
CONTINUOUS
 62
     6
100
AcDbLine
 10
789.0000000000009
 20
1694.980762113501
 30
0.0
 11
779.0000000000009
 21
1694.980762113501
 31
0.0
  0
LINE
  5
17A
330
1F
100
AcDbEntity
  8
化粧台
  6
CONTINUOUS
 62
     6
100
AcDbLine
 10
784.0
 20
1689.980762113501
 30
0.0
 11
784.0
 21
1699.980762113501
 31
0.0
  0
LINE
  5
17B
330
1F
100
AcDbEntity
  8
化粧台
  6
CONTINUOUS
 62
     6
100
AcDbLine
 10
1089.000000000001
 20
1255.000000000001
 30
0.0
 11
1079.000000000001
 21
1255.000000000001
 31
0.0
  0
LINE
  5
17C
330
1F
100
AcDbEntity
  8
化粧台
  6
CONTINUOUS
 62
     6
100
AcDbLine
 10
1084.0
 20
1250.0
 30
0.0
 11
1084.0
 21
1260.0
 31
0.0
  0
LINE
  5
17D
330
1F
100
AcDbEntity
  8
化粧台
  6
CONTINUOUS
 62
     6
100
AcDbLine
 10
789.0000000000009
 20
1255.000000000001
 30
0.0
 11
779.0000000000009
 21
1255.000000000001
 31
0.0
  0
LINE
  5
17E
330
1F
100
AcDbEntity
  8
化粧台
  6
CONTINUOUS
 62
     6
100
AcDbLine
 10
784.0
 20
1250.0
 30
0.0
 11
784.0
 21
1260.0
 31
0.0
  0
LINE
  5
17F
330
1F
100
AcDbEntity
  8
化粧台
  6
CONTINUOUS
 62
     6
100
AcDbLine
 10
1625.500000000011
 20
1237.499999999982
 30
0.0
 11
1627.23205080758
 21
1238.499999999981
 31
0.0
  0
LINE
  5
180
330
1F
100
AcDbEntity
  8
化粧台
  6
CONTINUOUS
 62
     6
100
AcDbLine
 10
1625.499999999988
 20
1237.499999999982
 30
0.0
 11
1623.76794919242
 21
1238.499999999981
 31
0.0
  0
LINE
  5
181
330
1F
100
AcDbEntity
  8
化粧台
  6
CONTINUOUS
 62
     6
100
AcDbLine
 10
1620.8
 20
1240.000000000001
 30
0.0
 11
1630.2
 21
1240.000000000001
 31
0.0
  0
ARC
  5
182
330
1F
100
AcDbEntity
  8
化粧台
  6
CONTINUOUS
 62
     6
100
AcDbCircle
 10
1625.5
 20
1243.168000000001
 30
0.0
 40
5.668000000000172
100
AcDbArc
 50
213.9816465839783
 51
326.018353416022
  0
LINE
  5
183
330
1F
100
AcDbEntity
  8
化粧台
  6
EXLTYPE2
 62
     6
100
AcDbLine
 10
684.0000000000009
 20
1315.0
 30
0.0
 11
1184.000000000001
 21
1315.0
 31
0.0
  0
LINE
  5
184
330
1F
100
AcDbEntity
  8
化粧台
  6
EXLTYPE3
 62
     6
100
AcDbLine
 10
934.0000000000009
 20
1760.0
 30
0.0
 11
934.0000000000009
 21
1230.0
 31
0.0
  0
LINE
  5
185
330
1F
100
AcDbEntity
  8
化粧台
  6
CONTINUOUS
 62
     6
100
AcDbLine
 10
1657.19999999997
 20
1696.98076211351
 30
0.0
 11
1657.99999999997
 21
1692.98076211351
 31
0.0
  0
LINE
  5
186
330
1F
100
AcDbEntity
  8
化粧台
  6
CONTINUOUS
 62
     6
100
AcDbLine
 10
1658.79999999997
 20
1696.98076211351
 30
0.0
 11
1659.59999999997
 21
1692.98076211351
 31
0.0
  0
LINE
  5
187
330
1F
100
AcDbEntity
  8
化粧台
  6
CONTINUOUS
 62
     6
100
AcDbLine
 10
1660.399999999971
 20
1696.98076211351
 30
0.0
 11
1661.19999999997
 21
1692.98076211351
 31
0.0
  0
LINE
  5
188
330
1F
100
AcDbEntity
  8
化粧台
  6
CONTINUOUS
 62
     6
100
AcDbLine
 10
1661.99999999997
 20
1696.98076211351
 30
0.0
 11
1662.79999999997
 21
1692.98076211351
 31
0.0
  0
LINE
  5
189
330
1F
100
AcDbEntity
  8
化粧台
  6
CONTINUOUS
 62
     6
100
AcDbLine
 10
1663.59999999997
 20
1696.98076211351
 30
0.0
 11
1664.399999999971
 21
1692.98076211351
 31
0.0
  0
LINE
  5
18A
330
1F
100
AcDbEntity
  8
化粧台
  6
CONTINUOUS
 62
     6
100
AcDbLine
 10
1665.19999999997
 20
1696.98076211351
 30
0.0
 11
1665.99999999997
 21
1692.98076211351
 31
0.0
  0
ARC
  5
18B
330
1F
100
AcDbEntity
  8
化粧台
  6
CONTINUOUS
 62
     6
100
AcDbCircle
 10
1663.961651584658
 20
1708.48076211351
 30
0.0
 40
15.00000000000001
100
AcDbArc
 50
270.0000000000002
 51
295.8419327631677
  0
ARC
  5
18C
330
1F
100
AcDbEntity
  8
化粧台
  6
CONTINUOUS
 62
     6
100
AcDbCircle
 10
1663.961651584689
 20
1681.48076211351
 30
0.0
 40
15.00000000000001
100
AcDbArc
 50
64.15806723692057
 51
90.00000000000001
  0
LINE
  5
18D
330
1F
100
AcDbEntity
  8
化粧台
  6
CONTINUOUS
 62
     6
100
AcDbLine
 10
1668.538209186872
 20
1696.289716179001
 30
0.0
 11
1669.029612737218
 21
1693.832698427269
 31
0.0
  0
LINE
  5
18E
330
1F
100
AcDbEntity
  8
化粧台
  6
CONTINUOUS
 62
     6
100
AcDbLine
 10
1666.854468108429
 20
1696.70842157122
 30
0.0
 11
1667.517330903796
 21
1693.394107594379
 31
0.0
  0
LINE
  5
18F
330
1F
100
AcDbEntity
  8
化粧台
  6
CONTINUOUS
 62
     6
100
AcDbLine
 10
1655.59999999997
 20
1696.98076211351
 30
0.0
 11
1656.399999999971
 21
1692.98076211351
 31
0.0
  0
LINE
  5
190
330
1F
100
AcDbEntity
  8
化粧台
  6
CONTINUOUS
 62
     6
100
AcDbLine
 10
1653.99999999997
 20
1696.98076211351
 30
0.0
 11
1654.79999999997
 21
1692.98076211351
 31
0.0
  0
LINE
  5
191
330
1F
100
AcDbEntity
  8
化粧台
  6
CONTINUOUS
 62
     6
100
AcDbLine
 10
1652.399999999971
 20
1696.98076211351
 30
0.0
 11
1653.199999999971
 21
1692.98076211351
 31
0.0
  0
LINE
  5
192
330
1F
100
AcDbEntity
  8
化粧台
  6
CONTINUOUS
 62
     6
100
AcDbLine
 10
1650.79999999997
 20
1696.98076211351
 30
0.0
 11
1651.59999999997
 21
1692.98076211351
 31
0.0
  0
LINE
  5
193
330
1F
100
AcDbEntity
  8
化粧台
  6
CONTINUOUS
 62
     6
100
AcDbLine
 10
1649.19999999997
 20
1696.98076211351
 30
0.0
 11
1649.99999999997
 21
1692.98076211351
 31
0.0
  0
LINE
  5
194
330
1F
100
AcDbEntity
  8
化粧台
  6
CONTINUOUS
 62
     6
100
AcDbLine
 10
1647.59999999997
 20
1696.98076211351
 30
0.0
 11
1648.399999999971
 21
1692.98076211351
 31
0.0
  0
LINE
  5
195
330
1F
100
AcDbEntity
  8
化粧台
  6
CONTINUOUS
 62
     6
100
AcDbLine
 10
1645.99999999997
 20
1696.98076211351
 30
0.0
 11
1646.79999999997
 21
1692.98076211351
 31
0.0
  0
LINE
  5
196
330
1F
100
AcDbEntity
  8
化粧台
  6
CONTINUOUS
 62
     6
100
AcDbLine
 10
1644.399999999971
 20
1696.98076211351
 30
0.0
 11
1645.199999999971
 21
1692.98076211351
 31
0.0
  0
LINE
  5
197
330
1F
100
AcDbEntity
  8
化粧台
  6
CONTINUOUS
 62
     6
100
AcDbLine
 10
1642.79999999997
 20
1696.98076211351
 30
0.0
 11
1643.59999999997
 21
1692.98076211351
 31
0.0
  0
LINE
  5
198
330
1F
100
AcDbEntity
  8
化粧台
  6
CONTINUOUS
 62
     6
100
AcDbLine
 10
1641.19999999997
 20
1696.98076211351
 30
0.0
 11
1641.99999999997
 21
1692.98076211351
 31
0.0
  0
LINE
  5
199
330
1F
100
AcDbEntity
  8
化粧台
  6
CONTINUOUS
 62
     6
100
AcDbLine
 10
1639.59999999997
 20
1696.98076211351
 30
0.0
 11
1640.399999999971
 21
1692.98076211351
 31
0.0
  0
LINE
  5
19A
330
1F
100
AcDbEntity
  8
化粧台
  6
CONTINUOUS
 62
     6
100
AcDbLine
 10
1637.99999999997
 20
1696.98076211351
 30
0.0
 11
1638.79999999997
 21
1692.98076211351
 31
0.0
  0
LINE
  5
19B
330
1F
100
AcDbEntity
  8
化粧台
  6
CONTINUOUS
 62
     6
100
AcDbLine
 10
1636.399999999971
 20
1696.98076211351
 30
0.0
 11
1637.199999999971
 21
1692.98076211351
 31
0.0
  0
LINE
  5
19C
330
1F
100
AcDbEntity
  8
化粧台
  6
CONTINUOUS
 62
     6
100
AcDbLine
 10
1634.79999999997
 20
1696.98076211351
 30
0.0
 11
1635.59999999997
 21
1692.98076211351
 31
0.0
  0
LINE
  5
19D
330
1F
100
AcDbEntity
  8
化粧台
  6
CONTINUOUS
 62
     6
100
AcDbLine
 10
1633.19999999997
 20
1696.98076211351
 30
0.0
 11
1633.99999999997
 21
1692.98076211351
 31
0.0
  0
LINE
  5
19E
330
1F
100
AcDbEntity
  8
化粧台
  6
CONTINUOUS
 62
     6
100
AcDbLine
 10
1633.000000000001
 20
1696.48076211351
 30
0.0
 11
1663.961651584689
 21
1696.48076211351
 31
0.0
  0
LINE
  5
19F
330
1F
100
AcDbEntity
  8
化粧台
  6
CONTINUOUS
 62
     6
100
AcDbLine
 10
1633.000000000001
 20
1693.48076211351
 30
0.0
 11
1663.961651584658
 21
1693.48076211351
 31
0.0
  0
LINE
  5
1A0
330
1F
100
AcDbEntity
  8
化粧台
  6
CONTINUOUS
 62
     6
100
AcDbLine
 10
1657.19999999997
 20
1257.00000000001
 30
0.0
 11
1657.99999999997
 21
1253.00000000001
 31
0.0
  0
LINE
  5
1A1
330
1F
100
AcDbEntity
  8
化粧台
  6
CONTINUOUS
 62
     6
100
AcDbLine
 10
1658.79999999997
 20
1257.00000000001
 30
0.0
 11
1659.59999999997
 21
1253.00000000001
 31
0.0
  0
LINE
  5
1A2
330
1F
100
AcDbEntity
  8
化粧台
  6
CONTINUOUS
 62
     6
100
AcDbLine
 10
1660.399999999971
 20
1257.00000000001
 30
0.0
 11
1661.19999999997
 21
1253.00000000001
 31
0.0
  0
LINE
  5
1A3
330
1F
100
AcDbEntity
  8
化粧台
  6
CONTINUOUS
 62
     6
100
AcDbLine
 10
1661.99999999997
 20
1257.00000000001
 30
0.0
 11
1662.79999999997
 21
1253.00000000001
 31
0.0
  0
LINE
  5
1A4
330
1F
100
AcDbEntity
  8
化粧台
  6
CONTINUOUS
 62
     6
100
AcDbLine
 10
1663.59999999997
 20
1257.00000000001
 30
0.0
 11
1664.399999999971
 21
1253.00000000001
 31
0.0
  0
LINE
  5
1A5
330
1F
100
AcDbEntity
  8
化粧台
  6
CONTINUOUS
 62
     6
100
AcDbLine
 10
1665.19999999997
 20
1257.00000000001
 30
0.0
 11
1665.99999999997
 21
1253.00000000001
 31
0.0
  0
ARC
  5
1A6
330
1F
100
AcDbEntity
  8
化粧台
  6
CONTINUOUS
 62
     6
100
AcDbCircle
 10
1663.961651584658
 20
1268.50000000001
 30
0.0
 40
15.00000000000001
100
AcDbArc
 50
270.0000000000002
 51
295.8419327631677
  0
ARC
  5
1A7
330
1F
100
AcDbEntity
  8
化粧台
  6
CONTINUOUS
 62
     6
100
AcDbCircle
 10
1663.961651584689
 20
1241.50000000001
 30
0.0
 40
15.00000000000001
100
AcDbArc
 50
64.15806723692057
 51
90.00000000000001
  0
LINE
  5
1A8
330
1F
100
AcDbEntity
  8
化粧台
  6
CONTINUOUS
 62
     6
100
AcDbLine
 10
1668.538209186872
 20
1256.308954065501
 30
0.0
 11
1669.029612737218
 21
1253.851936313769
 31
0.0
  0
LINE
  5
1A9
330
1F
100
AcDbEntity
  8
化粧台
  6
CONTINUOUS
 62
     6
100
AcDbLine
 10
1666.854468108429
 20
1256.727659457719
 30
0.0
 11
1667.517330903796
 21
1253.413345480879
 31
0.0
  0
LINE
  5
1AA
330
1F
100
AcDbEntity
  8
化粧台
  6
CONTINUOUS
 62
     6
100
AcDbLine
 10
1655.59999999997
 20
1257.00000000001
 30
0.0
 11
1656.399999999971
 21
1253.00000000001
 31
0.0
  0
LINE
  5
1AB
330
1F
100
AcDbEntity
  8
化粧台
  6
CONTINUOUS
 62
     6
100
AcDbLine
 10
1653.99999999997
 20
1257.00000000001
 30
0.0
 11
1654.79999999997
 21
1253.00000000001
 31
0.0
  0
LINE
  5
1AC
330
1F
100
AcDbEntity
  8
化粧台
  6
CONTINUOUS
 62
     6
100
AcDbLine
 10
1652.399999999971
 20
1257.00000000001
 30
0.0
 11
1653.199999999971
 21
1253.00000000001
 31
0.0
  0
LINE
  5
1AD
330
1F
100
AcDbEntity
  8
化粧台
  6
CONTINUOUS
 62
     6
100
AcDbLine
 10
1650.79999999997
 20
1257.00000000001
 30
0.0
 11
1651.59999999997
 21
1253.00000000001
 31
0.0
  0
LINE
  5
1AE
330
1F
100
AcDbEntity
  8
化粧台
  6
CONTINUOUS
 62
     6
100
AcDbLine
 10
1649.19999999997
 20
1257.00000000001
 30
0.0
 11
1649.99999999997
 21
1253.00000000001
 31
0.0
  0
LINE
  5
1AF
330
1F
100
AcDbEntity
  8
化粧台
  6
CONTINUOUS
 62
     6
100
AcDbLine
 10
1647.59999999997
 20
1257.00000000001
 30
0.0
 11
1648.399999999971
 21
1253.00000000001
 31
0.0
  0
LINE
  5
1B0
330
1F
100
AcDbEntity
  8
化粧台
  6
CONTINUOUS
 62
     6
100
AcDbLine
 10
1645.99999999997
 20
1257.00000000001
 30
0.0
 11
1646.79999999997
 21
1253.00000000001
 31
0.0
  0
LINE
  5
1B1
330
1F
100
AcDbEntity
  8
化粧台
  6
CONTINUOUS
 62
     6
100
AcDbLine
 10
1644.399999999971
 20
1257.00000000001
 30
0.0
 11
1645.199999999971
 21
1253.00000000001
 31
0.0
  0
LINE
  5
1B2
330
1F
100
AcDbEntity
  8
化粧台
  6
CONTINUOUS
 62
     6
100
AcDbLine
 10
1642.79999999997
 20
1257.00000000001
 30
0.0
 11
1643.59999999997
 21
1253.00000000001
 31
0.0
  0
LINE
  5
1B3
330
1F
100
AcDbEntity
  8
化粧台
  6
CONTINUOUS
 62
     6
100
AcDbLine
 10
1641.19999999997
 20
1257.00000000001
 30
0.0
 11
1641.99999999997
 21
1253.00000000001
 31
0.0
  0
LINE
  5
1B4
330
1F
100
AcDbEntity
  8
化粧台
  6
CONTINUOUS
 62
     6
100
AcDbLine
 10
1639.59999999997
 20
1257.00000000001
 30
0.0
 11
1640.399999999971
 21
1253.00000000001
 31
0.0
  0
LINE
  5
1B5
330
1F
100
AcDbEntity
  8
化粧台
  6
CONTINUOUS
 62
     6
100
AcDbLine
 10
1637.99999999997
 20
1257.00000000001
 30
0.0
 11
1638.79999999997
 21
1253.00000000001
 31
0.0
  0
LINE
  5
1B6
330
1F
100
AcDbEntity
  8
化粧台
  6
CONTINUOUS
 62
     6
100
AcDbLine
 10
1636.399999999971
 20
1257.00000000001
 30
0.0
 11
1637.199999999971
 21
1253.00000000001
 31
0.0
  0
LINE
  5
1B7
330
1F
100
AcDbEntity
  8
化粧台
  6
CONTINUOUS
 62
     6
100
AcDbLine
 10
1634.79999999997
 20
1257.00000000001
 30
0.0
 11
1635.59999999997
 21
1253.00000000001
 31
0.0
  0
LINE
  5
1B8
330
1F
100
AcDbEntity
  8
化粧台
  6
CONTINUOUS
 62
     6
100
AcDbLine
 10
1633.19999999997
 20
1257.00000000001
 30
0.0
 11
1633.99999999997
 21
1253.00000000001
 31
0.0
  0
LINE
  5
1B9
330
1F
100
AcDbEntity
  8
化粧台
  6
CONTINUOUS
 62
     6
100
AcDbLine
 10
1633.000000000001
 20
1256.50000000001
 30
0.0
 11
1663.961651584689
 21
1256.50000000001
 31
0.0
  0
LINE
  5
1BA
330
1F
100
AcDbEntity
  8
化粧台
  6
CONTINUOUS
 62
     6
100
AcDbLine
 10
1633.000000000001
 20
1253.50000000001
 30
0.0
 11
1663.961651584658
 21
1253.50000000001
 31
0.0
  0
LINE
  5
1BB
330
1F
100
AcDbEntity
  8
化粧台
  6
CONTINUOUS
 62
     6
100
AcDbLine
 10
1081.99999999999
 20
2143.19999999997
 30
0.0
 11
1085.99999999999
 21
2143.99999999997
 31
0.0
  0
LINE
  5
1BC
330
1F
100
AcDbEntity
  8
化粧台
  6
CONTINUOUS
 62
     6
100
AcDbLine
 10
1081.99999999999
 20
2144.79999999997
 30
0.0
 11
1085.99999999999
 21
2145.59999999997
 31
0.0
  0
LINE
  5
1BD
330
1F
100
AcDbEntity
  8
化粧台
  6
CONTINUOUS
 62
     6
100
AcDbLine
 10
1081.99999999999
 20
2146.399999999971
 30
0.0
 11
1085.99999999999
 21
2147.19999999997
 31
0.0
  0
LINE
  5
1BE
330
1F
100
AcDbEntity
  8
化粧台
  6
CONTINUOUS
 62
     6
100
AcDbLine
 10
1081.99999999999
 20
2147.99999999997
 30
0.0
 11
1085.99999999999
 21
2148.79999999997
 31
0.0
  0
LINE
  5
1BF
330
1F
100
AcDbEntity
  8
化粧台
  6
CONTINUOUS
 62
     6
100
AcDbLine
 10
1081.99999999999
 20
2149.59999999997
 30
0.0
 11
1085.99999999999
 21
2150.399999999971
 31
0.0
  0
LINE
  5
1C0
330
1F
100
AcDbEntity
  8
化粧台
  6
CONTINUOUS
 62
     6
100
AcDbLine
 10
1081.99999999999
 20
2151.19999999997
 30
0.0
 11
1085.99999999999
 21
2151.99999999997
 31
0.0
  0
ARC
  5
1C1
330
1F
100
AcDbEntity
  8
化粧台
  6
CONTINUOUS
 62
     6
100
AcDbCircle
 10
1070.49999999999
 20
2149.961651584658
 30
0.0
 40
15.00000000000001
100
AcDbArc
 50
0.0000000000001719
 51
25.84193276316773
  0
ARC
  5
1C2
330
1F
100
AcDbEntity
  8
化粧台
  6
CONTINUOUS
 62
     6
100
AcDbCircle
 10
1097.49999999999
 20
2149.961651584689
 30
0.0
 40
15.00000000000001
100
AcDbArc
 50
154.1580672369207
 51
180.0000000000002
  0
LINE
  5
1C3
330
1F
100
AcDbEntity
  8
化粧台
  6
CONTINUOUS
 62
     6
100
AcDbLine
 10
1082.691045934499
 20
2154.538209186872
 30
0.0
 11
1085.148063686231
 21
2155.029612737218
 31
0.0
  0
LINE
  5
1C4
330
1F
100
AcDbEntity
  8
化粧台
  6
CONTINUOUS
 62
     6
100
AcDbLine
 10
1082.272340542281
 20
2152.854468108429
 30
0.0
 11
1085.586654519122
 21
2153.517330903796
 31
0.0
  0
LINE
  5
1C5
330
1F
100
AcDbEntity
  8
化粧台
  6
CONTINUOUS
 62
     6
100
AcDbLine
 10
1081.99999999999
 20
2141.59999999997
 30
0.0
 11
1085.99999999999
 21
2142.399999999971
 31
0.0
  0
LINE
  5
1C6
330
1F
100
AcDbEntity
  8
化粧台
  6
CONTINUOUS
 62
     6
100
AcDbLine
 10
1081.99999999999
 20
2139.99999999997
 30
0.0
 11
1085.99999999999
 21
2140.79999999997
 31
0.0
  0
LINE
  5
1C7
330
1F
100
AcDbEntity
  8
化粧台
  6
CONTINUOUS
 62
     6
100
AcDbLine
 10
1081.99999999999
 20
2138.399999999971
 30
0.0
 11
1085.99999999999
 21
2139.199999999971
 31
0.0
  0
LINE
  5
1C8
330
1F
100
AcDbEntity
  8
化粧台
  6
CONTINUOUS
 62
     6
100
AcDbLine
 10
1081.99999999999
 20
2136.79999999997
 30
0.0
 11
1085.99999999999
 21
2137.59999999997
 31
0.0
  0
LINE
  5
1C9
330
1F
100
AcDbEntity
  8
化粧台
  6
CONTINUOUS
 62
     6
100
AcDbLine
 10
1081.99999999999
 20
2135.19999999997
 30
0.0
 11
1085.99999999999
 21
2135.99999999997
 31
0.0
  0
LINE
  5
1CA
330
1F
100
AcDbEntity
  8
化粧台
  6
CONTINUOUS
 62
     6
100
AcDbLine
 10
1081.99999999999
 20
2133.59999999997
 30
0.0
 11
1085.99999999999
 21
2134.399999999971
 31
0.0
  0
LINE
  5
1CB
330
1F
100
AcDbEntity
  8
化粧台
  6
CONTINUOUS
 62
     6
100
AcDbLine
 10
1081.99999999999
 20
2131.99999999997
 30
0.0
 11
1085.99999999999
 21
2132.79999999997
 31
0.0
  0
LINE
  5
1CC
330
1F
100
AcDbEntity
  8
化粧台
  6
CONTINUOUS
 62
     6
100
AcDbLine
 10
1081.99999999999
 20
2130.399999999971
 30
0.0
 11
1085.99999999999
 21
2131.199999999971
 31
0.0
  0
LINE
  5
1CD
330
1F
100
AcDbEntity
  8
化粧台
  6
CONTINUOUS
 62
     6
100
AcDbLine
 10
1081.99999999999
 20
2128.79999999997
 30
0.0
 11
1085.99999999999
 21
2129.59999999997
 31
0.0
  0
LINE
  5
1CE
330
1F
100
AcDbEntity
  8
化粧台
  6
CONTINUOUS
 62
     6
100
AcDbLine
 10
1081.99999999999
 20
2127.19999999997
 30
0.0
 11
1085.99999999999
 21
2127.99999999997
 31
0.0
  0
LINE
  5
1CF
330
1F
100
AcDbEntity
  8
化粧台
  6
CONTINUOUS
 62
     6
100
AcDbLine
 10
1081.99999999999
 20
2125.59999999997
 30
0.0
 11
1085.99999999999
 21
2126.399999999971
 31
0.0
  0
LINE
  5
1D0
330
1F
100
AcDbEntity
  8
化粧台
  6
CONTINUOUS
 62
     6
100
AcDbLine
 10
1081.99999999999
 20
2123.99999999997
 30
0.0
 11
1085.99999999999
 21
2124.79999999997
 31
0.0
  0
LINE
  5
1D1
330
1F
100
AcDbEntity
  8
化粧台
  6
CONTINUOUS
 62
     6
100
AcDbLine
 10
1081.99999999999
 20
2122.399999999971
 30
0.0
 11
1085.99999999999
 21
2123.199999999971
 31
0.0
  0
LINE
  5
1D2
330
1F
100
AcDbEntity
  8
化粧台
  6
CONTINUOUS
 62
     6
100
AcDbLine
 10
1081.99999999999
 20
2120.79999999997
 30
0.0
 11
1085.99999999999
 21
2121.59999999997
 31
0.0
  0
LINE
  5
1D3
330
1F
100
AcDbEntity
  8
化粧台
  6
CONTINUOUS
 62
     6
100
AcDbLine
 10
1081.99999999999
 20
2119.19999999997
 30
0.0
 11
1085.99999999999
 21
2119.99999999997
 31
0.0
  0
LINE
  5
1D4
330
1F
100
AcDbEntity
  8
化粧台
  6
CONTINUOUS
 62
     6
100
AcDbLine
 10
1082.49999999999
 20
2119.000000000001
 30
0.0
 11
1082.49999999999
 21
2149.961651584689
 31
0.0
  0
LINE
  5
1D5
330
1F
100
AcDbEntity
  8
化粧台
  6
CONTINUOUS
 62
     6
100
AcDbLine
 10
1085.49999999999
 20
2119.000000000001
 30
0.0
 11
1085.49999999999
 21
2149.961651584658
 31
0.0
  0
LINE
  5
1D6
330
1F
100
AcDbEntity
  8
化粧台
  6
CONTINUOUS
 62
     6
100
AcDbLine
 10
781.9999999999905
 20
2143.19999999997
 30
0.0
 11
785.9999999999905
 21
2143.99999999997
 31
0.0
  0
LINE
  5
1D7
330
1F
100
AcDbEntity
  8
化粧台
  6
CONTINUOUS
 62
     6
100
AcDbLine
 10
781.9999999999905
 20
2144.79999999997
 30
0.0
 11
785.9999999999905
 21
2145.59999999997
 31
0.0
  0
LINE
  5
1D8
330
1F
100
AcDbEntity
  8
化粧台
  6
CONTINUOUS
 62
     6
100
AcDbLine
 10
781.9999999999905
 20
2146.399999999971
 30
0.0
 11
785.9999999999905
 21
2147.19999999997
 31
0.0
  0
LINE
  5
1D9
330
1F
100
AcDbEntity
  8
化粧台
  6
CONTINUOUS
 62
     6
100
AcDbLine
 10
781.9999999999905
 20
2147.99999999997
 30
0.0
 11
785.9999999999905
 21
2148.79999999997
 31
0.0
  0
LINE
  5
1DA
330
1F
100
AcDbEntity
  8
化粧台
  6
CONTINUOUS
 62
     6
100
AcDbLine
 10
781.9999999999905
 20
2149.59999999997
 30
0.0
 11
785.9999999999905
 21
2150.399999999971
 31
0.0
  0
LINE
  5
1DB
330
1F
100
AcDbEntity
  8
化粧台
  6
CONTINUOUS
 62
     6
100
AcDbLine
 10
781.9999999999905
 20
2151.19999999997
 30
0.0
 11
785.9999999999905
 21
2151.99999999997
 31
0.0
  0
ARC
  5
1DC
330
1F
100
AcDbEntity
  8
化粧台
  6
CONTINUOUS
 62
     6
100
AcDbCircle
 10
770.4999999999905
 20
2149.961651584658
 30
0.0
 40
15.00000000000001
100
AcDbArc
 50
0.0000000000001719
 51
25.84193276316773
  0
ARC
  5
1DD
330
1F
100
AcDbEntity
  8
化粧台
  6
CONTINUOUS
 62
     6
100
AcDbCircle
 10
797.4999999999905
 20
2149.961651584689
 30
0.0
 40
15.00000000000001
100
AcDbArc
 50
154.1580672369207
 51
180.0000000000002
  0
LINE
  5
1DE
330
1F
100
AcDbEntity
  8
化粧台
  6
CONTINUOUS
 62
     6
100
AcDbLine
 10
782.6910459344995
 20
2154.538209186872
 30
0.0
 11
785.1480636862311
 21
2155.029612737218
 31
0.0
  0
LINE
  5
1DF
330
1F
100
AcDbEntity
  8
化粧台
  6
CONTINUOUS
 62
     6
100
AcDbLine
 10
782.2723405422807
 20
2152.854468108429
 30
0.0
 11
785.5866545191216
 21
2153.517330903796
 31
0.0
  0
LINE
  5
1E0
330
1F
100
AcDbEntity
  8
化粧台
  6
CONTINUOUS
 62
     6
100
AcDbLine
 10
781.9999999999905
 20
2141.59999999997
 30
0.0
 11
785.9999999999905
 21
2142.399999999971
 31
0.0
  0
LINE
  5
1E1
330
1F
100
AcDbEntity
  8
化粧台
  6
CONTINUOUS
 62
     6
100
AcDbLine
 10
781.9999999999905
 20
2139.99999999997
 30
0.0
 11
785.9999999999905
 21
2140.79999999997
 31
0.0
  0
LINE
  5
1E2
330
1F
100
AcDbEntity
  8
化粧台
  6
CONTINUOUS
 62
     6
100
AcDbLine
 10
781.9999999999905
 20
2138.399999999971
 30
0.0
 11
785.9999999999905
 21
2139.199999999971
 31
0.0
  0
LINE
  5
1E3
330
1F
100
AcDbEntity
  8
化粧台
  6
CONTINUOUS
 62
     6
100
AcDbLine
 10
781.9999999999905
 20
2136.79999999997
 30
0.0
 11
785.9999999999905
 21
2137.59999999997
 31
0.0
  0
LINE
  5
1E4
330
1F
100
AcDbEntity
  8
化粧台
  6
CONTINUOUS
 62
     6
100
AcDbLine
 10
781.9999999999905
 20
2135.19999999997
 30
0.0
 11
785.9999999999905
 21
2135.99999999997
 31
0.0
  0
LINE
  5
1E5
330
1F
100
AcDbEntity
  8
化粧台
  6
CONTINUOUS
 62
     6
100
AcDbLine
 10
781.9999999999905
 20
2133.59999999997
 30
0.0
 11
785.9999999999905
 21
2134.399999999971
 31
0.0
  0
LINE
  5
1E6
330
1F
100
AcDbEntity
  8
化粧台
  6
CONTINUOUS
 62
     6
100
AcDbLine
 10
781.9999999999905
 20
2131.99999999997
 30
0.0
 11
785.9999999999905
 21
2132.79999999997
 31
0.0
  0
LINE
  5
1E7
330
1F
100
AcDbEntity
  8
化粧台
  6
CONTINUOUS
 62
     6
100
AcDbLine
 10
781.9999999999905
 20
2130.399999999971
 30
0.0
 11
785.9999999999905
 21
2131.199999999971
 31
0.0
  0
LINE
  5
1E8
330
1F
100
AcDbEntity
  8
化粧台
  6
CONTINUOUS
 62
     6
100
AcDbLine
 10
781.9999999999905
 20
2128.79999999997
 30
0.0
 11
785.9999999999905
 21
2129.59999999997
 31
0.0
  0
LINE
  5
1E9
330
1F
100
AcDbEntity
  8
化粧台
  6
CONTINUOUS
 62
     6
100
AcDbLine
 10
781.9999999999905
 20
2127.19999999997
 30
0.0
 11
785.9999999999905
 21
2127.99999999997
 31
0.0
  0
LINE
  5
1EA
330
1F
100
AcDbEntity
  8
化粧台
  6
CONTINUOUS
 62
     6
100
AcDbLine
 10
781.9999999999905
 20
2125.59999999997
 30
0.0
 11
785.9999999999905
 21
2126.399999999971
 31
0.0
  0
LINE
  5
1EB
330
1F
100
AcDbEntity
  8
化粧台
  6
CONTINUOUS
 62
     6
100
AcDbLine
 10
781.9999999999905
 20
2123.99999999997
 30
0.0
 11
785.9999999999905
 21
2124.79999999997
 31
0.0
  0
LINE
  5
1EC
330
1F
100
AcDbEntity
  8
化粧台
  6
CONTINUOUS
 62
     6
100
AcDbLine
 10
781.9999999999905
 20
2122.399999999971
 30
0.0
 11
785.9999999999905
 21
2123.199999999971
 31
0.0
  0
LINE
  5
1ED
330
1F
100
AcDbEntity
  8
化粧台
  6
CONTINUOUS
 62
     6
100
AcDbLine
 10
781.9999999999905
 20
2120.79999999997
 30
0.0
 11
785.9999999999905
 21
2121.59999999997
 31
0.0
  0
LINE
  5
1EE
330
1F
100
AcDbEntity
  8
化粧台
  6
CONTINUOUS
 62
     6
100
AcDbLine
 10
781.9999999999905
 20
2119.19999999997
 30
0.0
 11
785.9999999999905
 21
2119.99999999997
 31
0.0
  0
LINE
  5
1EF
330
1F
100
AcDbEntity
  8
化粧台
  6
CONTINUOUS
 62
     6
100
AcDbLine
 10
782.4999999999905
 20
2119.000000000001
 30
0.0
 11
782.4999999999905
 21
2149.961651584689
 31
0.0
  0
LINE
  5
1F0
330
1F
100
AcDbEntity
  8
化粧台
  6
CONTINUOUS
 62
     6
100
AcDbLine
 10
785.4999999999905
 20
2119.000000000001
 30
0.0
 11
785.4999999999905
 21
2149.961651584658
 31
0.0
  0
LINE
  5
1F1
330
1F
100
AcDbEntity
  8
化粧台
  6
CONTINUOUS
 62
     6
100
AcDbLine
 10
1680.5
 20
1694.9807621135
 30
0.0
 11
1610.49999999997
 21
1694.9807621135
 31
0.0
  0
LINE
  5
1F2
330
1F
100
AcDbEntity
  8
化粧台
  6
CONTINUOUS
 62
     6
100
AcDbLine
 10
1680.5
 20
1255.0
 30
0.0
 11
1610.49999999997
 21
1255.0
 31
0.0
  0
LINE
  5
1F3
330
1F
100
AcDbEntity
  8
化粧台
  6
CONTINUOUS
 62
     6
100
AcDbLine
 10
1084.0
 20
2166.5
 30
0.0
 11
1084.0
 21
2096.49999999997
 31
0.0
  0
LINE
  5
1F4
330
1F
100
AcDbEntity
  8
化粧台
  6
CONTINUOUS
 62
     6
100
AcDbLine
 10
784.0000000000002
 20
2166.5
 30
0.0
 11
784.0000000000002
 21
2096.49999999997
 31
0.0
  0
CIRCLE
  5
1F5
330
1F
100
AcDbEntity
  8
化粧台
  6
CONTINUOUS
 62
     6
100
AcDbCircle
 10
714.0
 20
2096.3
 30
0.0
 40
3.000000000000002
  0
CIRCLE
  5
1F6
330
1F
100
AcDbEntity
  8
化粧台
  6
CONTINUOUS
 62
     6
100
AcDbCircle
 10
934.0
 20
2096.3
 30
0.0
 40
3.000000000000002
  0
CIRCLE
  5
1F7
330
1F
100
AcDbEntity
  8
化粧台
  6
CONTINUOUS
 62
     6
100
AcDbCircle
 10
1154.0
 20
2096.3
 30
0.0
 40
3.000000000000002
  0
TEXT
  5
1F8
330
1F
100
AcDbEntity
  8
枠_表
  6
CONTINUOUS
 62
     2
100
AcDbText
 10
1890.5371094
 20
302.7227783
 30
0.0
 40
30.0
  1
１
 41
1.101333333333329
  7
EXCADSTD
 72
     5
 11
1914.1371094
 21
302.7227783
 31
0.0
100
AcDbText
  0
TEXT
  5
1F9
330
1F
100
AcDbEntity
  8
枠_表
  6
CONTINUOUS
 62
     2
100
AcDbText
 10
202.5000000000001
 20
308.75
 30
0.0
 40
42.5
  1
製図
 41
1.509694117647059
  7
EXCADSTD
 72
     5
 11
303.3260000000001
 21
308.75
 31
0.0
100
AcDbText
  0
TEXT
  5
1FA
330
1F
100
AcDbEntity
  8
枠_表
  6
CONTINUOUS
 62
     2
100
AcDbText
 10
357.5
 20
308.75
 30
0.0
 40
42.5
  1
写図
 41
1.509694117647059
  7
EXCADSTD
 72
     5
 11
458.326
 21
308.75
 31
0.0
100
AcDbText
  0
TEXT
  5
1FB
330
1F
100
AcDbEntity
  8
枠_表
  6
CONTINUOUS
 62
     2
100
AcDbText
 10
507.5
 20
308.75
 30
0.0
 40
42.5
  1
検図
 41
1.303826737967914
  7
EXCADSTD
 72
     5
 11
594.577
 21
308.75
 31
0.0
100
AcDbText
  0
TEXT
  5
1FC
330
1F
100
AcDbEntity
  8
枠_表
  6
CONTINUOUS
 62
     2
100
AcDbText
 10
637.5
 20
308.75
 30
0.0
 40
42.5
  1
承認
 41
1.303826737967914
  7
EXCADSTD
 72
     5
 11
724.577
 21
308.75
 31
0.0
100
AcDbText
  0
TEXT
  5
1FD
330
1F
100
AcDbEntity
  8
枠_表
  6
CONTINUOUS
 62
     2
100
AcDbText
 10
755.75
 20
298.75
 30
0.0
 40
42.5
  1
品
 41
1.12
  7
EXCADSTD
 72
     5
 11
789.75
 21
298.75
 31
0.0
100
AcDbText
  0
TEXT
  5
1FE
330
1F
100
AcDbEntity
  8
枠_表
  6
CONTINUOUS
 62
     2
100
AcDbText
 10
755.75
 20
248.75
 30
0.0
 40
42.5
  1
名
 41
1.12
  7
EXCADSTD
 72
     5
 11
789.75
 21
248.75
 31
0.0
100
AcDbText
  0
TEXT
  5
1FF
330
1F
100
AcDbEntity
  8
枠_表
  6
CONTINUOUS
 62
     2
100
AcDbText
 10
1395.75
 20
298.75
 30
0.0
 40
42.5
  1
品
 41
1.12
  7
EXCADSTD
 72
     5
 11
1429.75
 21
298.75
 31
0.0
100
AcDbText
  0
TEXT
  5
200
330
1F
100
AcDbEntity
  8
枠_表
  6
CONTINUOUS
 62
     2
100
AcDbText
 10
1395.75
 20
248.75
 30
0.0
 40
42.5
  1
番
 41
1.12
  7
EXCADSTD
 72
     5
 11
1429.75
 21
248.75
 31
0.0
100
AcDbText
  0
TEXT
  5
201
330
1F
100
AcDbEntity
  8
枠_表
  6
CONTINUOUS
 62
     2
100
AcDbText
 10
1816.75
 20
298.75
 30
0.0
 40
42.5
  1
尺
 41
1.12
  7
EXCADSTD
 72
     5
 11
1850.75
 21
298.75
 31
0.0
100
AcDbText
  0
TEXT
  5
202
330
1F
100
AcDbEntity
  8
枠_表
  6
CONTINUOUS
 62
     2
100
AcDbText
 10
1816.75
 20
248.75
 30
0.0
 40
42.5
  1
度
 41
1.12
  7
EXCADSTD
 72
     5
 11
1850.75
 21
248.75
 31
0.0
100
AcDbText
  0
TEXT
  5
203
330
1F
100
AcDbEntity
  8
枠_表
  6
CONTINUOUS
 62
     2
100
AcDbText
 10
1395.75
 20
185.75
 30
0.0
 40
42.5
  1
図
 41
1.12
  7
EXCADSTD
 72
     5
 11
1429.75
 21
185.75
 31
0.0
100
AcDbText
  0
TEXT
  5
204
330
1F
100
AcDbEntity
  8
枠_表
  6
CONTINUOUS
 62
     2
100
AcDbText
 10
1395.75
 20
142.75
 30
0.0
 40
42.5
  1
番
 41
1.12
  7
EXCADSTD
 72
     5
 11
1429.75
 21
142.75
 31
0.0
100
AcDbText
  0
TEXT
  5
205
330
1F
100
AcDbEntity
  8
枠_表
  6
CONTINUOUS
 62
     2
100
AcDbText
 10
810.0
 20
295.0
 30
0.0
 40
50.0
  1
600㎜幅
 41
0.8693548387096773
  7
EXCADSTD
 72
     5
 11
1002.5
 21
295.0
 31
0.0
100
AcDbText
  0
TEXT
  5
206
330
1F
100
AcDbEntity
  8
枠_表
  6
CONTINUOUS
 62
     2
100
AcDbText
 10
810.0
 20
245.0
 30
0.0
 40
50.0
  1
　　　化粧鏡
 41
1.32
  7
EXCADSTD
 72
     5
 11
1140.0
 21
245.0
 31
0.0
100
AcDbText
  0
TEXT
  5
207
330
1F
100
AcDbEntity
  8
枠_表
  6
CONTINUOUS
 62
     2
100
AcDbText
 10
1931.2792969
 20
258.3488464
 30
0.0
 40
30.0
  1
１０
 41
1.098531212121213
  7
EXCADSTD
 72
     5
 11
1983.0671969
 21
258.3488464
 31
0.0
100
AcDbText
  0
TEXT
  5
209
330
1F
100
AcDbEntity
  8
枠_表
  6
CONTINUOUS
 62
     2
100
AcDbText
 10
770.0
 20
155.0
 30
0.0
 40
45.0
  1
ジャニス工業株式会社
 41
1.025641025641026
  7
EXCADTTF1
 72
     5
 11
1370.0
 21
155.0
 31
0.0
100
AcDbText
  0
TEXT
  5
20A
330
1F
100
AcDbEntity
  8
枠_表
  6
CONTINUOUS
 62
     2
100
AcDbText
 10
235.0
 20
140.0
 30
0.0
 40
40.0
  1
10
 41
0.454054054054054
  7
EXCADSTD
 72
     5
 11
267.0
 21
140.0
 31
0.0
100
AcDbText
  0
TEXT
  5
20B
330
1F
100
AcDbEntity
  8
枠_表
  6
CONTINUOUS
 62
     2
100
AcDbText
 10
207.4999999999949
 20
220.0
 30
0.0
 40
50.0
  1
間瀬
 41
1.224910909090909
  7
EXCADSTD
 72
     5
 11
303.7429999999949
 21
220.0
 31
0.0
100
AcDbText
  0
TEXT
  5
20C
330
1F
100
AcDbEntity
  8
枠_表
  6
CONTINUOUS
 62
     2
100
AcDbText
 10
184.4999999
 20
140.0
 30
0.0
 40
40.0
  1
20
 41
0.454054054054054
  7
EXCADSTD
 72
     5
 11
216.4999999
 21
140.0
 31
0.0
100
AcDbText
  0
TEXT
  5
20D
330
1F
100
AcDbEntity
  8
枠_表
  6
CONTINUOUS
 62
     2
100
AcDbText
 10
288.0000001
 20
140.0
 30
0.0
 40
40.0
  1
30
 41
0.454054054054054
  7
EXCADSTD
 72
     5
 11
320.0000001
 21
140.0
 31
0.0
100
AcDbText
  0
TEXT
  5
20E
330
1F
100
AcDbEntity
  8
枠_表
  6
CONTINUOUS
 62
     2
100
AcDbText
 10
504.9999999999949
 20
220.0
 30
0.0
 40
50.0
  1
中村
 41
1.22491090909091
  7
EXCADSTD
 72
     5
 11
601.2429999999949
 21
220.0
 31
0.0
100
AcDbText
  0
TEXT
  5
20F
330
1F
100
AcDbEntity
  8
枠_表
  6
CONTINUOUS
 62
     2
100
AcDbText
 10
634.9999999999949
 20
220.0
 30
0.0
 40
50.0
  1
古林
 41
1.22491090909091
  7
EXCADSTD
 72
     5
 11
731.2429999999949
 21
220.0
 31
0.0
100
AcDbText
  0
TEXT
  5
210
330
1F
100
AcDbEntity
  8
枠_表
  6
CONTINUOUS
 62
     2
100
AcDbText
 10
1472.0
 20
270.0
 30
0.0
 40
50.0
  1
ＬＵＭ６０２ＣＳ
 41
0.8638297872340427
  7
EXCADSTD
 72
     5
 11
1762.0
 21
270.0
 31
0.0
100
AcDbText
  0
TEXT
  5
211
330
1F
100
AcDbEntity
  8
枠_表
  6
CONTINUOUS
 62
     7
100
AcDbText
 10
1452.00000166893
 20
151.5000000000001
 30
0.0
 40
70.0
  1
ＬＵ９１０７２０
 41
1.140425531914894
  7
EXCADSTD
 72
     5
 11
1988.00000166893
 21
151.5000000000001
 31
0.0
100
AcDbText
  0
ENDSEC
  0
SECTION
  2
OBJECTS
  0
DICTIONARY
  5
C
330
0
100
AcDbDictionary
  3
ACAD_GROUP
350
D
  3
ACAD_LAYOUT
350
1A
  3
ACAD_MATERIAL
350
3B
  3
ACAD_MLEADERSTYLE
350
234
  3
ACAD_MLINESTYLE
350
17
  3
ACAD_PLOTSETTINGS
350
19
  3
ACAD_VISUALSTYLE
350
2A
  3
ACDBHEADERROUNDTRIPXREC
350
212
  3
ACDBVARIABLEDICTIONARY
350
232
  0
DICTIONARY
  5
D
102
{ACAD_REACTORS
330
C
102
}
330
C
100
AcDbDictionary
  0
DICTIONARY
  5
1A
102
{ACAD_REACTORS
330
C
102
}
330
C
100
AcDbDictionary
  0
DICTIONARY
  5
3B
102
{ACAD_REACTORS
330
C
102
}
330
C
100
AcDbDictionary
  3
BYBLOCK
350
3D
  3
BYLAYER
350
3C
  3
GLOBAL
350
3E
  0
DICTIONARY
  5
234
102
{ACAD_REACTORS
330
C
102
}
330
C
100
AcDbDictionary
  0
DICTIONARY
  5
17
102
{ACAD_REACTORS
330
C
102
}
330
C
100
AcDbDictionary
  3
STANDARD
350
18
  0
DICTIONARY
  5
19
102
{ACAD_REACTORS
330
C
102
}
330
C
100
AcDbDictionary
  0
DICTIONARY
  5
2A
102
{ACAD_REACTORS
330
C
102
}
330
C
100
AcDbDictionary
  3
2DWIREFRAME
350
2F
  3
3D_HIDDEN
350
31
  3
3DWIREFRAME
350
30
  3
BASIC
350
32
  3
BRIGHTEN
350
36
  3
COLORCHANGE
350
3A
  3
CONCEPTUAL
350
34
  3
DIM
350
35
  3
FACEPATTERN
350
39
  3
FLAT
350
2B
  3
FLATWITHEDGES
350
2C
  3
GOURAUD
350
2D
  3
GOURAUDWITHEDGES
350
2E
  3
LINEPATTERN
350
38
  3
REALISTIC
350
33
  3
THICKEN
350
37
  0
DICTIONARY
  5
212
102
{ACAD_REACTORS
330
C
102
}
330
C
100
AcDbDictionary
  3
CEPSNTYPE
350
21B
  3
DIMSTYLEDATA
350
231
  3
FINGERPRINTGUID
350
21C
  3
HYPERLINKBASE
350
215
  3
INSUNITS
350
21A
  3
LAYOUTDICT
350
217
  3
LWETCUNION
350
219
  3
PLOTSETDICT
350
218
  3
PSVPSCALE
350
21E
  3
PUCSBASE
350
221
  3
PUCSORGBACK
350
227
  3
PUCSORGBOTTOM
350
223
  3
PUCSORGFRONT
350
226
  3
PUCSORGLEFT
350
224
  3
PUCSORGRIGHT
350
225
  3
PUCSORGTOP
350
222
  3
PUCSORTHOREF
350
21F
  3
PUCSORTHOVIEW
350
220
  3
STYLESHEET
350
216
  3
TSTACKALIGN
350
213
  3
TSTACKSIZE
350
214
  3
UCSBASE
350
22A
  3
UCSORGBACK
350
230
  3
UCSORGBOTTOM
350
22C
  3
UCSORGFRONT
350
22F
  3
UCSORGLEFT
350
22D
  3
UCSORGRIGHT
350
22E
  3
UCSORGTOP
350
22B
  3
UCSORTHOREF
350
228
  3
UCSORTHOVIEW
350
229
  3
VERSIONGUID
350
21D
  0
DICTIONARY
  5
232
102
{ACAD_REACTORS
330
C
102
}
330
C
100
AcDbDictionary
  3
DIMASSOC
350
237
  3
HIDETEXT
350
238
  3
PSOLHEIGHT
350
236
  3
PSOLWIDTH
350
235
  0
MATERIAL
  5
3D
102
{ACAD_REACTORS
330
3B
102
}
102
{ACAD_XDICTIONARY
360
23B
102
}
330
3B
100
AcDbMaterial
  1
ByBlock
  0
MATERIAL
  5
3C
102
{ACAD_REACTORS
330
3B
102
}
102
{ACAD_XDICTIONARY
360
239
102
}
330
3B
100
AcDbMaterial
  1
ByLayer
  0
MATERIAL
  5
3E
102
{ACAD_REACTORS
330
3B
102
}
102
{ACAD_XDICTIONARY
360
23D
102
}
330
3B
100
AcDbMaterial
  1
Global
  0
MLINESTYLE
  5
18
102
{ACAD_REACTORS
330
17
102
}
330
17
100
AcDbMlineStyle
  2
Standard
 70
     0
  3

 62
   256
 51
90.0
 52
90.0
 71
     2
 49
0.5
 62
   256
  6
BYLAYER
 49
-0.5
 62
   256
  6
BYLAYER
  0
ACAD_PROXY_OBJECT
  5
2F
102
{ACAD_REACTORS
330
2A
102
}
330
2A
100
AcDbProxyObject
 90
      499
 91
      501
 93
      436
310
42CC9915DA5C99599C985B595049028333333333333E3BF0000000000000FB0107901411070040501600405405064090741402480A0340
1001
ACAD
1000
AcDbSavedByObjectVersion
1070
     0
  0
ACAD_PROXY_OBJECT
  5
31
102
{ACAD_REACTORS
330
2A
102
}
330
2A
100
AcDbProxyObject
 90
      499
 91
      501
 93
      500
310
424CD108121A5919195B90640502408333333333333E3BF0000000000000FB01079024090700405020000000000001110200405405064090740C02480A0340
1001
ACAD
1000
AcDbSavedByObjectVersion
1070
     0
  0
ACAD_PROXY_OBJECT
  5
30
102
{ACAD_REACTORS
330
2A
102
}
330
2A
100
AcDbProxyObject
 90
      499
 91
      501
 93
      436
310
42CCD915DA5C99599C985B595059028333333333333E3BF0000000000000FB0107901411070040501600405405064090741402480A0340
1001
ACAD
1000
AcDbSavedByObjectVersion
1070
     0
  0
ACAD_PROXY_OBJECT
  5
32
102
{ACAD_REACTORS
330
2A
102
}
330
2A
100
AcDbProxyObject
 90
      499
 91
      501
 93
      388
310
4150985CDA58D07406404333333333333E3BF0000000000000FB0107A41107004050150841D405064090741402480A0350
1001
ACAD
1000
AcDbSavedByObjectVersion
1070
     0
  0
ACAD_PROXY_OBJECT
  5
36
102
{ACAD_REACTORS
330
2A
102
}
330
2A
100
AcDbProxyObject
 90
      499
 91
      501
 93
      428
310
42109C9A59DA1D195B90C409028333333333333E3BF0000000000000FB010790141107004050150841D405064090741402480A029950
1001
ACAD
1000
AcDbSavedByObjectVersion
1070
     0
  0
ACAD_PROXY_OBJECT
  5
3A
102
{ACAD_REACTORS
330
2A
102
}
330
2A
100
AcDbProxyObject
 90
      499
 91
      501
 93
      452
310
42D0DBDB1BDC90DA185B99D95104090240C333333333333E3BF0000000000000FB0108901411070040501508421405064090741402480A0350
1001
ACAD
1000
AcDbSavedByObjectVersion
1070
     0
  0
ACAD_PROXY_OBJECT
  5
34
102
{ACAD_REACTORS
330
2A
102
}
330
2A
100
AcDbProxyObject
 90
      499
 91
      501
 93
      500
310
4290DBDB98D95C1D1D585B10940D028333333333333E3BF0000000000000FB0107902409070040501000000000000111010841D405064090740C02480A0340
1001
ACAD
1000
AcDbSavedByObjectVersion
1070
     0
  0
ACAD_PROXY_OBJECT
  5
35
102
{ACAD_REACTORS
330
2A
102
}
330
2A
100
AcDbProxyObject
 90
      499
 91
      501
 93
      412
310
40D11A5B50B409028333333333333E3BF0000000000000FB010790141107004050150841D405064090741402480A02677FFFFFD0
1001
ACAD
1000
AcDbSavedByObjectVersion
1070
     0
  0
ACAD_PROXY_OBJECT
  5
39
102
{ACAD_REACTORS
330
2A
102
}
330
2A
100
AcDbProxyObject
 90
      499
 91
      501
 93
      444
310
42D19858D95C185D1D195C9B90F409028333333333333E3BF0000000000000FB010790141107004050150841D405064090741402480A0350
1001
ACAD
1000
AcDbSavedByObjectVersion
1070
     0
  0
ACAD_PROXY_OBJECT
  5
2B
102
{ACAD_REACTORS
330
2A
102
}
330
2A
100
AcDbProxyObject
 90
      499
 91
      501
 93
      388
310
41119B185D240901404333333333333E3BF0000000000000F9010740A41107004050150841D405064090741402480A1B50
1001
ACAD
1000
AcDbSavedByObjectVersion
1070
     0
  0
ACAD_PROXY_OBJECT
  5
2C
102
{ACAD_REACTORS
330
2A
102
}
330
2A
100
AcDbProxyObject
 90
      499
 91
      501
 93
      476
310
43519B185D15DA5D1A115919D95CD0140901404333333333333E3BF0000000000000F9010740901411070040501600405405064090741402480A1B50
1001
ACAD
1000
AcDbSavedByObjectVersion
1070
     0
  0
ACAD_PROXY_OBJECT
  5
2D
102
{ACAD_REACTORS
330
2A
102
}
330
2A
100
AcDbProxyObject
 90
      499
 91
      501
 93
      412
310
41D1DBDD5C985D5910240902404333333333333E3BF0000000000000F9010740A411070040501641D405064090741402480A1B50
1001
ACAD
1000
AcDbSavedByObjectVersion
1070
     0
  0
ACAD_PROXY_OBJECT
  5
2E
102
{ACAD_REACTORS
330
2A
102
}
330
2A
100
AcDbProxyObject
 90
      499
 91
      501
 93
      500
310
4411DBDD5C985D5915DA5D1A115919D95CD0340902404333333333333E3BF0000000000000F9010740901411070040501600405405064090741402480A1B50
1001
ACAD
1000
AcDbSavedByObjectVersion
1070
     0
  0
ACAD_PROXY_OBJECT
  5
38
102
{ACAD_REACTORS
330
2A
102
}
330
2A
100
AcDbProxyObject
 90
      499
 91
      501
 93
      444
310
42D31A5B995C185D1D195C9B90E409028333333333333E3BF0000000000000FB010790141107004050750841D405064090741402483A0350
1001
ACAD
1000
AcDbSavedByObjectVersion
1070
     0
  0
ACAD_PROXY_OBJECT
  5
33
102
{ACAD_REACTORS
330
2A
102
}
330
2A
100
AcDbProxyObject
 90
      499
 91
      501
 93
      420
310
425499585B1A5CDD1A58D08409028333333333333E3BF0000000000000FB01079019070040501508421405064090741402480A1B40
1001
ACAD
1000
AcDbSavedByObjectVersion
1070
     0
  0
ACAD_PROXY_OBJECT
  5
37
102
{ACAD_REACTORS
330
2A
102
}
330
2A
100
AcDbProxyObject
 90
      499
 91
      501
 93
      412
310
41D51A1A58DAD95B90D409028333333333333E3BF0000000000000FB010790141107004050150C41D405064090741402480A0350
1001
ACAD
1000
AcDbSavedByObjectVersion
1070
     0
  0
XRECORD
  5
21B
102
{ACAD_REACTORS
330
212
102
}
330
212
100
AcDbXrecord
 90
        0
  0
XRECORD
  5
231
102
{ACAD_REACTORS
330
212
102
}
330
212
100
AcDbXrecord
1000
DSTYLE
1002
{
1070
   340
340
11
1002
}
  0
XRECORD
  5
21C
102
{ACAD_REACTORS
330
212
102
}
330
212
100
AcDbXrecord
  1
{7F941FCD-6132-45BC-90E3-0AAB51603C00}
  0
XRECORD
  5
215
102
{ACAD_REACTORS
330
212
102
}
330
212
100
AcDbXrecord
  1

  0
XRECORD
  5
21A
102
{ACAD_REACTORS
330
212
102
}
330
212
100
AcDbXrecord
 90
        4
  0
XRECORD
  5
217
102
{ACAD_REACTORS
330
212
102
}
330
212
100
AcDbXrecord
340
1A
  0
XRECORD
  5
219
102
{ACAD_REACTORS
330
212
102
}
330
212
100
AcDbXrecord
 90
    10781
  0
XRECORD
  5
218
102
{ACAD_REACTORS
330
212
102
}
330
212
100
AcDbXrecord
340
19
  0
XRECORD
  5
21E
102
{ACAD_REACTORS
330
212
102
}
330
212
100
AcDbXrecord
 40
0.0
  0
XRECORD
  5
221
102
{ACAD_REACTORS
330
212
102
}
330
212
100
AcDbXrecord
340
0
  0
XRECORD
  5
227
102
{ACAD_REACTORS
330
212
102
}
330
212
100
AcDbXrecord
 10
0.0
 20
0.0
 30
0.0
  0
XRECORD
  5
223
102
{ACAD_REACTORS
330
212
102
}
330
212
100
AcDbXrecord
 10
0.0
 20
0.0
 30
0.0
  0
XRECORD
  5
226
102
{ACAD_REACTORS
330
212
102
}
330
212
100
AcDbXrecord
 10
0.0
 20
0.0
 30
0.0
  0
XRECORD
  5
224
102
{ACAD_REACTORS
330
212
102
}
330
212
100
AcDbXrecord
 10
0.0
 20
0.0
 30
0.0
  0
XRECORD
  5
225
102
{ACAD_REACTORS
330
212
102
}
330
212
100
AcDbXrecord
 10
0.0
 20
0.0
 30
0.0
  0
XRECORD
  5
222
102
{ACAD_REACTORS
330
212
102
}
330
212
100
AcDbXrecord
 10
0.0
 20
0.0
 30
0.0
  0
XRECORD
  5
21F
102
{ACAD_REACTORS
330
212
102
}
330
212
100
AcDbXrecord
340
0
  0
XRECORD
  5
220
102
{ACAD_REACTORS
330
212
102
}
330
212
100
AcDbXrecord
 70
     0
  0
XRECORD
  5
216
102
{ACAD_REACTORS
330
212
102
}
330
212
100
AcDbXrecord
  1

  0
XRECORD
  5
213
102
{ACAD_REACTORS
330
212
102
}
330
212
100
AcDbXrecord
 90
        1
  0
XRECORD
  5
214
102
{ACAD_REACTORS
330
212
102
}
330
212
100
AcDbXrecord
 90
       70
  0
XRECORD
  5
22A
102
{ACAD_REACTORS
330
212
102
}
330
212
100
AcDbXrecord
340
0
  0
XRECORD
  5
230
102
{ACAD_REACTORS
330
212
102
}
330
212
100
AcDbXrecord
 10
0.0
 20
0.0
 30
0.0
  0
XRECORD
  5
22C
102
{ACAD_REACTORS
330
212
102
}
330
212
100
AcDbXrecord
 10
0.0
 20
0.0
 30
0.0
  0
XRECORD
  5
22F
102
{ACAD_REACTORS
330
212
102
}
330
212
100
AcDbXrecord
 10
0.0
 20
0.0
 30
0.0
  0
XRECORD
  5
22D
102
{ACAD_REACTORS
330
212
102
}
330
212
100
AcDbXrecord
 10
0.0
 20
0.0
 30
0.0
  0
XRECORD
  5
22E
102
{ACAD_REACTORS
330
212
102
}
330
212
100
AcDbXrecord
 10
0.0
 20
0.0
 30
0.0
  0
XRECORD
  5
22B
102
{ACAD_REACTORS
330
212
102
}
330
212
100
AcDbXrecord
 10
0.0
 20
0.0
 30
0.0
  0
XRECORD
  5
228
102
{ACAD_REACTORS
330
212
102
}
330
212
100
AcDbXrecord
340
0
  0
XRECORD
  5
229
102
{ACAD_REACTORS
330
212
102
}
330
212
100
AcDbXrecord
 70
     0
  0
XRECORD
  5
21D
102
{ACAD_REACTORS
330
212
102
}
330
212
100
AcDbXrecord
  1
{FAEB1C32-E019-11D5-929B-00C0DF256EC4}
  0
DICTIONARYVAR
  5
237
102
{ACAD_REACTORS
330
232
102
}
330
232
100
DictionaryVariables
280
     0
  1
2
  0
DICTIONARYVAR
  5
238
102
{ACAD_REACTORS
330
232
102
}
330
232
100
DictionaryVariables
280
     0
  1
1
  0
DICTIONARYVAR
  5
236
102
{ACAD_REACTORS
330
232
102
}
330
232
100
DictionaryVariables
280
     0
  1
80.000000
  0
DICTIONARYVAR
  5
235
102
{ACAD_REACTORS
330
232
102
}
330
232
100
DictionaryVariables
280
     0
  1
5.000000
  0
DICTIONARY
  5
23B
330
3D
100
AcDbDictionary
280
     1
  3
ACAD_XREC_ROUNDTRIP
360
23C
  0
DICTIONARY
  5
239
330
3C
100
AcDbDictionary
280
     1
  3
ACAD_XREC_ROUNDTRIP
360
23A
  0
DICTIONARY
  5
23D
330
3E
100
AcDbDictionary
280
     1
  3
ACAD_XREC_ROUNDTRIP
360
23E
  0
XRECORD
  5
23C
102
{ACAD_REACTORS
330
23B
102
}
330
23B
100
AcDbXrecord
102
MATERIAL
148
0.0
149
0.0
149
0.0
 93
        0
 94
      127
282
     0
 72
     1
 77
     1
171
     1
175
     1
179
     1
273
     0
  0
XRECORD
  5
23A
102
{ACAD_REACTORS
330
239
102
}
330
239
100
AcDbXrecord
102
MATERIAL
148
0.0
149
0.0
149
0.0
 93
        0
 94
      127
282
     0
 72
     1
 77
     1
171
     1
175
     1
179
     1
273
     0
  0
XRECORD
  5
23E
102
{ACAD_REACTORS
330
23D
102
}
330
23D
100
AcDbXrecord
102
MATERIAL
148
0.0
149
0.0
149
0.0
 93
        0
 94
      127
282
     0
 72
     1
 77
     1
171
     1
175
     1
179
     1
273
     0
  0
ENDSEC
  0
EOF
