  0
SECTION
  2
HEADER
  9
$ACADVER
  1
AC1014
  9
$ACADMAINTVER
 70
     9
  9
$DWGCODEPAGE
  3
ANSI_932
  9
$INSBASE
 10
0.0
 20
0.0
 30
0.0
  9
$EXTMIN
 10
9.0
 20
8.372070309999998
 30
0.0
  9
$EXTMAX
 10
289.0
 20
190.5
 30
0.0
  9
$LIMMIN
 10
0.0
 20
0.0
  9
$LIMMAX
 10
297.0
 20
210.0
  9
$ORTHOMODE
 70
     0
  9
$REGENMODE
 70
     1
  9
$FILLMODE
 70
     1
  9
$QTEXTMODE
 70
     0
  9
$MIRRTEXT
 70
     1
  9
$DRAGMODE
 70
     2
  9
$LTSCALE
 40
1.0
  9
$OSMODE
 70
    37
  9
$ATTMODE
 70
     1
  9
$TEXTSIZE
 40
2.5
  9
$TRACEWID
 40
1.0
  9
$TEXTSTYLE
  7
STANDARD
  9
$CLAYER
  8
枠_表
  9
$CELTYPE
  6
BYLAYER
  9
$CECOLOR
 62
   256
  9
$CELTSCALE
 40
1.0
  9
$DELOBJ
 70
     1
  9
$DISPSILH
 70
     0
  9
$DIMSCALE
 40
1.0
  9
$DIMASZ
 40
2.5
  9
$DIMEXO
 40
0.625
  9
$DIMDLI
 40
3.75
  9
$DIMRND
 40
0.0
  9
$DIMDLE
 40
0.0
  9
$DIMEXE
 40
1.25
  9
$DIMTP
 40
0.0
  9
$DIMTM
 40
0.0
  9
$DIMTXT
 40
2.5
  9
$DIMCEN
 40
2.5
  9
$DIMTSZ
 40
0.0
  9
$DIMTOL
 70
     0
  9
$DIMLIM
 70
     0
  9
$DIMTIH
 70
     0
  9
$DIMTOH
 70
     0
  9
$DIMSE1
 70
     0
  9
$DIMSE2
 70
     0
  9
$DIMTAD
 70
     1
  9
$DIMZIN
 70
     8
  9
$DIMBLK
  1

  9
$DIMASO
 70
     1
  9
$DIMSHO
 70
     1
  9
$DIMPOST
  1

  9
$DIMAPOST
  1

  9
$DIMALT
 70
     0
  9
$DIMALTD
 70
     3
  9
$DIMALTF
 40
0.03937007874016
  9
$DIMLFAC
 40
1.0
  9
$DIMTOFL
 70
     1
  9
$DIMTVP
 40
0.0
  9
$DIMTIX
 70
     0
  9
$DIMSOXD
 70
     0
  9
$DIMSAH
 70
     0
  9
$DIMBLK1
  1

  9
$DIMBLK2
  1

  9
$DIMSTYLE
  2
ISO-25
  9
$DIMCLRD
 70
     0
  9
$DIMCLRE
 70
     0
  9
$DIMCLRT
 70
     0
  9
$DIMTFAC
 40
1.0
  9
$DIMGAP
 40
0.625
  9
$DIMJUST
 70
     0
  9
$DIMSD1
 70
     0
  9
$DIMSD2
 70
     0
  9
$DIMTOLJ
 70
     0
  9
$DIMTZIN
 70
     8
  9
$DIMALTZ
 70
     0
  9
$DIMALTTZ
 70
     0
  9
$DIMFIT
 70
     3
  9
$DIMUPT
 70
     0
  9
$DIMUNIT
 70
     2
  9
$DIMDEC
 70
     2
  9
$DIMTDEC
 70
     2
  9
$DIMALTU
 70
     2
  9
$DIMALTTD
 70
     3
  9
$DIMTXSTY
  7
STANDARD
  9
$DIMAUNIT
 70
     0
  9
$LUNITS
 70
     2
  9
$LUPREC
 70
     4
  9
$SKETCHINC
 40
1.0
  9
$FILLETRAD
 40
10.0
  9
$AUNITS
 70
     0
  9
$AUPREC
 70
     0
  9
$MENU
  1
.
  9
$ELEVATION
 40
0.0
  9
$PELEVATION
 40
0.0
  9
$THICKNESS
 40
0.0
  9
$LIMCHECK
 70
     0
  9
$CHAMFERA
 40
10.0
  9
$CHAMFERB
 40
10.0
  9
$CHAMFERC
 40
20.0
  9
$CHAMFERD
 40
0.0
  9
$SKPOLY
 70
     0
  9
$TDCREATE
 40
2458963.719495081
  9
$TDUPDATE
 40
2458963.719495452
  9
$TDINDWG
 40
0.0000000116
  9
$TDUSRTIMER
 40
0.0000000116
  9
$USRTIMER
 70
     1
  9
$ANGBASE
 50
0.0
  9
$ANGDIR
 70
     0
  9
$PDMODE
 70
     0
  9
$PDSIZE
 40
0.0
  9
$PLINEWID
 40
0.0
  9
$COORDS
 70
     1
  9
$SPLFRAME
 70
     0
  9
$SPLINETYPE
 70
     6
  9
$SPLINESEGS
 70
     8
  9
$ATTDIA
 70
     0
  9
$ATTREQ
 70
     1
  9
$HANDLING
 70
     1
  9
$HANDSEED
  5
5CA
  9
$SURFTAB1
 70
     6
  9
$SURFTAB2
 70
     6
  9
$SURFTYPE
 70
     6
  9
$SURFU
 70
     6
  9
$SURFV
 70
     6
  9
$UCSNAME
  2

  9
$UCSORG
 10
0.0
 20
0.0
 30
0.0
  9
$UCSXDIR
 10
1.0
 20
0.0
 30
0.0
  9
$UCSYDIR
 10
0.0
 20
1.0
 30
0.0
  9
$PUCSNAME
  2

  9
$PUCSORG
 10
0.0
 20
0.0
 30
0.0
  9
$PUCSXDIR
 10
1.0
 20
0.0
 30
0.0
  9
$PUCSYDIR
 10
0.0
 20
1.0
 30
0.0
  9
$USERI1
 70
     0
  9
$USERI2
 70
     0
  9
$USERI3
 70
     0
  9
$USERI4
 70
     0
  9
$USERI5
 70
     0
  9
$USERR1
 40
0.0
  9
$USERR2
 40
0.0
  9
$USERR3
 40
0.0
  9
$USERR4
 40
0.0
  9
$USERR5
 40
0.0
  9
$WORLDVIEW
 70
     1
  9
$SHADEDGE
 70
     3
  9
$SHADEDIF
 70
    70
  9
$TILEMODE
 70
     1
  9
$MAXACTVP
 70
    64
  9
$PINSBASE
 10
0.0
 20
0.0
 30
0.0
  9
$PLIMCHECK
 70
     0
  9
$PEXTMIN
 10
1.000000000000000E+20
 20
1.000000000000000E+20
 30
1.000000000000000E+20
  9
$PEXTMAX
 10
-1.000000000000000E+20
 20
-1.000000000000000E+20
 30
-1.000000000000000E+20
  9
$PLIMMIN
 10
0.0
 20
0.0
  9
$PLIMMAX
 10
420.0
 20
297.0
  9
$UNITMODE
 70
     0
  9
$VISRETAIN
 70
     1
  9
$PLINEGEN
 70
     0
  9
$PSLTSCALE
 70
     1
  9
$TREEDEPTH
 70
  3020
  9
$PICKSTYLE
 70
     1
  9
$CMLSTYLE
  2
STANDARD
  9
$CMLJUST
 70
     0
  9
$CMLSCALE
 40
20.0
  9
$PROXYGRAPHICS
 70
     1
  9
$MEASUREMENT
 70
     1
  0
ENDSEC
  0
SECTION
  2
CLASSES
  0
CLASS
  1
ACDBDICTIONARYWDFLT
  2
AcDbDictionaryWithDefault
  3
ObjectDBX Classes
 90
        0
280
     0
281
     0
  0
CLASS
  1
VISUALSTYLE
  2
AcDbVisualStyle
  3
ObjectDBX Classes
 90
     4095
280
     0
281
     0
  0
CLASS
  1
MATERIAL
  2
AcDbMaterial
  3
ObjectDBX Classes
 90
     1153
280
     0
281
     0
  0
CLASS
  1
SUN
  2
AcDbSun
  3
SCENEOE
 90
     1024
280
     0
281
     0
  0
CLASS
  1
DICTIONARYVAR
  2
AcDbDictionaryVar
  3
ObjectDBX Classes
 90
        0
280
     0
281
     0
  0
CLASS
  1
XRECORD
  2
AcDbXrecord
  3
AutoCAD 2000
 90
        0
280
     0
281
     0
  0
CLASS
  1
LWPOLYLINE
  2
AcDbPolyline
  3
AutoCAD 2000
 90
        0
280
     0
281
     1
  0
CLASS
  1
HATCH
  2
AcDbHatch
  3
AutoCAD 2000
 90
        0
280
     0
281
     1
  0
CLASS
  1
ACDBPLACEHOLDER
  2
AcDbPlaceHolder
  3
ObjectDBX Classes
 90
        0
280
     0
281
     0
  0
CLASS
  1
LAYOUT
  2
AcDbLayout
  3
ObjectDBX Classes
 90
        0
280
     0
281
     0
  0
ENDSEC
  0
SECTION
  2
TABLES
  0
TABLE
  2
VPORT
  5
8
330
0
100
AcDbSymbolTable
 70
     1
  0
VPORT
  5
29
330
8
100
AcDbSymbolTableRecord
100
AcDbViewportTableRecord
  2
*ACTIVE
 70
     0
 10
0.0
 20
0.0
 11
1.0
 21
1.0
 12
149.0
 22
99.436035155
 13
0.0
 23
0.0
 14
10.0
 24
10.0
 15
10.0
 25
10.0
 16
0.0
 26
0.0
 36
1.0
 17
0.0
 27
0.0
 37
0.0
 40
182.12792969
 41
1.537380897463602
 42
50.0
 43
0.0
 44
0.0
 50
0.0
 51
0.0
 71
     0
 72
  1000
 73
     1
 74
     3
 75
     0
 76
     0
 77
     0
 78
     0
  0
ENDTAB
  0
TABLE
  2
LTYPE
  5
5
330
0
100
AcDbSymbolTable
 70
     7
  0
LTYPE
  5
14
330
5
100
AcDbSymbolTableRecord
100
AcDbLinetypeTableRecord
  2
BYBLOCK
 70
     0
  3

 72
    65
 73
     0
 40
0.0
  0
LTYPE
  5
15
330
5
100
AcDbSymbolTableRecord
100
AcDbLinetypeTableRecord
  2
BYLAYER
 70
     0
  3

 72
    65
 73
     0
 40
0.0
  0
LTYPE
  5
16
330
5
100
AcDbSymbolTableRecord
100
AcDbLinetypeTableRecord
  2
CONTINUOUS
 70
     0
  3
Solid line
 72
    65
 73
     0
 40
0.0
  0
LTYPE
  5
40
330
5
100
AcDbSymbolTableRecord
100
AcDbLinetypeTableRecord
  2
EXLTYPE1
 70
     0
  3
破線
 72
    65
 73
     2
 40
3.0
 49
2.0
 74
     0
 49
-1.0
 74
     0
  0
LTYPE
  5
41
330
5
100
AcDbSymbolTableRecord
100
AcDbLinetypeTableRecord
  2
EXLTYPE2
 70
     0
  3
点線
 72
    65
 73
     2
 40
2.0
 49
1.0
 74
     0
 49
-1.0
 74
     0
  0
LTYPE
  5
42
330
5
100
AcDbSymbolTableRecord
100
AcDbLinetypeTableRecord
  2
EXLTYPE3
 70
     0
  3
一点鎖線
 72
    65
 73
     4
 40
10.0
 49
7.000000000000001
 74
     0
 49
-1.0
 74
     0
 49
1.0
 74
     0
 49
-1.0
 74
     0
  0
LTYPE
  5
43
330
5
100
AcDbSymbolTableRecord
100
AcDbLinetypeTableRecord
  2
EXLTYPE4
 70
     0
  3
二点鎖線
 72
    65
 73
     6
 40
12.0
 49
7.000000000000001
 74
     0
 49
-1.0
 74
     0
 49
1.0
 74
     0
 49
-1.0
 74
     0
 49
1.0
 74
     0
 49
-1.0
 74
     0
  0
LTYPE
  5
44
330
5
100
AcDbSymbolTableRecord
100
AcDbLinetypeTableRecord
  2
EXLTYPE5
 70
     0
  3
三点鎖線
 72
    65
 73
     8
 40
37.0
 49
30.0
 74
     0
 49
-1.0
 74
     0
 49
1.0
 74
     0
 49
-1.0
 74
     0
 49
1.0
 74
     0
 49
-1.0
 74
     0
 49
1.0
 74
     0
 49
-1.0
 74
     0
  0
LTYPE
  5
45
330
5
100
AcDbSymbolTableRecord
100
AcDbLinetypeTableRecord
  2
EXLTYPE6
 70
     0
  3
四点鎖線
 72
    65
 73
    10
 40
39.0
 49
30.0
 74
     0
 49
-1.0
 74
     0
 49
1.0
 74
     0
 49
-1.0
 74
     0
 49
1.0
 74
     0
 49
-1.0
 74
     0
 49
1.0
 74
     0
 49
-1.0
 74
     0
 49
1.0
 74
     0
 49
-1.0
 74
     0
  0
ENDTAB
  0
TABLE
  2
LAYER
  5
2
330
0
100
AcDbSymbolTable
 70
     8
  0
LAYER
  5
10
330
2
100
AcDbSymbolTableRecord
100
AcDbLayerTableRecord
  2
0
 70
     0
 62
     7
  6
CONTINUOUS
  0
LAYER
  5
48
330
2
100
AcDbSymbolTableRecord
100
AcDbLayerTableRecord
  2
枠_表
 70
     0
 62
     7
  6
CONTINUOUS
  0
LAYER
  5
49
330
2
100
AcDbSymbolTableRecord
100
AcDbLayerTableRecord
  2
ｶｳﾝﾀｰ_ｷｬﾋﾞﾈｯﾄ
 70
     0
 62
     7
  6
CONTINUOUS
  0
LAYER
  5
4A
330
2
100
AcDbSymbolTableRecord
100
AcDbLayerTableRecord
  2
給水栓
 70
     0
 62
     7
  6
CONTINUOUS
  0
LAYER
  5
4B
330
2
100
AcDbSymbolTableRecord
100
AcDbLayerTableRecord
  2
止水栓
 70
     0
 62
     7
  6
CONTINUOUS
  0
LAYER
  5
4C
330
2
100
AcDbSymbolTableRecord
100
AcDbLayerTableRecord
  2
排水器具
 70
     0
 62
     7
  6
CONTINUOUS
  0
LAYER
  5
4D
330
2
100
AcDbSymbolTableRecord
100
AcDbLayerTableRecord
  2
寸法
 70
     0
 62
     7
  6
CONTINUOUS
  0
LAYER
  5
455
330
2
100
AcDbSymbolTableRecord
100
AcDbLayerTableRecord
  2
DEFPOINTS
 70
     0
 62
     7
  6
CONTINUOUS
  0
ENDTAB
  0
TABLE
  2
STYLE
  5
3
330
0
100
AcDbSymbolTable
 70
     5
  0
STYLE
  5
11
330
3
100
AcDbSymbolTableRecord
100
AcDbTextStyleTableRecord
  2
STANDARD
 70
     0
 40
0.0
 41
1.0
 50
0.0
 71
     0
 42
2.5
  3
monotxt
  4
extfont
  0
STYLE
  5
46
330
3
100
AcDbSymbolTableRecord
100
AcDbTextStyleTableRecord
  2
EXCADSTD
 70
     0
 40
0.0
 41
1.0
 50
0.0
 71
     0
 42
0.2
  3
monotxt
  4
extfont
  0
STYLE
  5
47
330
3
100
AcDbSymbolTableRecord
100
AcDbTextStyleTableRecord
  2
EXCADVERT
 70
     4
 40
0.0
 41
1.0
 50
0.0
 71
     0
 42
0.286885
  3
monotxt
  4
extfont
  0
STYLE
  5
C5
330
3
100
AcDbSymbolTableRecord
100
AcDbTextStyleTableRecord
  2
EXCADTTF1
 70
     0
 40
0.0
 41
1.0
 50
0.0
 71
     0
 42
0.2
  3
MSGOTHIC.TTC
  4

1001
ACAD
1000
MS Gothic
1071
    32817
  0
STYLE
  5
453
330
3
100
AcDbSymbolTableRecord
100
AcDbTextStyleTableRecord
  2
EXCADDIM1
 70
     0
 40
0.0
 41
0.84
 50
0.0
 71
     0
 42
0.2
  3
monotxt
  4
extfont
  0
ENDTAB
  0
TABLE
  2
VIEW
  5
6
330
0
100
AcDbSymbolTable
 70
     0
  0
ENDTAB
  0
TABLE
  2
UCS
  5
7
330
0
100
AcDbSymbolTable
 70
     0
  0
ENDTAB
  0
TABLE
  2
APPID
  5
9
330
0
100
AcDbSymbolTable
 70
     1
  0
APPID
  5
12
330
9
100
AcDbSymbolTableRecord
100
AcDbRegAppTableRecord
  2
ACAD
 70
     0
  0
ENDTAB
  0
TABLE
  2
DIMSTYLE
  5
A
330
0
100
AcDbSymbolTable
 70
     1
  0
DIMSTYLE
105
27
102
{ACAD_REACTORS
330
454
330
464
330
470
330
47D
330
48A
330
497
330
4A4
330
4B0
330
4BC
330
4C8
330
4D5
330
4E4
330
4F1
330
4FF
330
50C
330
51B
330
528
330
535
330
548
330
555
330
561
330
582
330
590
102
}
330
A
100
AcDbSymbolTableRecord
100
AcDbDimStyleTableRecord
  2
ISO-25
 70
     0
  3

  4

  5

  6

  7

 40
1.0
 41
2.5
 42
0.625
 43
3.75
 44
1.25
 45
0.0
 46
0.0
 47
0.0
 48
0.0
140
2.5
141
2.5
142
0.0
143
0.03937007874016
144
1.0
145
0.0
146
1.0
147
0.625
 71
     0
 72
     0
 73
     0
 74
     0
 75
     0
 76
     0
 77
     1
 78
     8
170
     0
171
     3
172
     1
173
     0
174
     0
175
     0
176
     0
177
     0
178
     0
270
     2
271
     2
272
     2
273
     2
274
     3
340
11
275
     0
280
     0
281
     0
282
     0
283
     0
284
     8
285
     0
286
     0
287
     5
288
     0
  0
ENDTAB
  0
TABLE
  2
BLOCK_RECORD
  5
1
330
0
100
AcDbSymbolTable
 70
    38
  0
BLOCK_RECORD
  5
1F
330
1
100
AcDbSymbolTableRecord
100
AcDbBlockTableRecord
  2
*MODEL_SPACE
  0
BLOCK_RECORD
  5
1B
330
1
100
AcDbSymbolTableRecord
100
AcDbBlockTableRecord
  2
*PAPER_SPACE
  0
BLOCK_RECORD
  5
4E
330
1
100
AcDbSymbolTableRecord
100
AcDbBlockTableRecord
  2
EX_NORM
  0
BLOCK_RECORD
  5
51
330
1
100
AcDbSymbolTableRecord
100
AcDbBlockTableRecord
  2
EX_BNORM
  0
BLOCK_RECORD
  5
54
330
1
100
AcDbSymbolTableRecord
100
AcDbBlockTableRecord
  2
EX_BCIR
  0
BLOCK_RECORD
  5
57
330
1
100
AcDbSymbolTableRecord
100
AcDbBlockTableRecord
  2
EX_RCIVIL
  0
BLOCK_RECORD
  5
5A
330
1
100
AcDbSymbolTableRecord
100
AcDbBlockTableRecord
  2
EX_SLANT
  0
BLOCK_RECORD
  5
5D
330
1
100
AcDbSymbolTableRecord
100
AcDbBlockTableRecord
  2
EX_NONE
  0
BLOCK_RECORD
  5
60
330
1
100
AcDbSymbolTableRecord
100
AcDbBlockTableRecord
  2
EX_CIVIL
  0
BLOCK_RECORD
  5
63
330
1
100
AcDbSymbolTableRecord
100
AcDbBlockTableRecord
  2
EX_WCIR
  0
BLOCK_RECORD
  5
66
330
1
100
AcDbSymbolTableRecord
100
AcDbBlockTableRecord
  2
EX_WCIR2
  0
BLOCK_RECORD
  5
69
330
1
100
AcDbSymbolTableRecord
100
AcDbBlockTableRecord
  2
EX_WNORM
  0
BLOCK_RECORD
  5
6C
330
1
100
AcDbSymbolTableRecord
100
AcDbBlockTableRecord
  2
EX_NNORM
  0
BLOCK_RECORD
  5
6F
330
1
100
AcDbSymbolTableRecord
100
AcDbBlockTableRecord
  2
EX_BBOX
  0
BLOCK_RECORD
  5
72
330
1
100
AcDbSymbolTableRecord
100
AcDbBlockTableRecord
  2
EX_WBOX
  0
BLOCK_RECORD
  5
75
330
1
100
AcDbSymbolTableRecord
100
AcDbBlockTableRecord
  2
EX_INTEGRAL
  0
BLOCK_RECORD
  5
456
330
1
100
AcDbSymbolTableRecord
100
AcDbBlockTableRecord
  2
*D15
  0
BLOCK_RECORD
  5
465
330
1
100
AcDbSymbolTableRecord
100
AcDbBlockTableRecord
  2
*D16
  0
BLOCK_RECORD
  5
471
330
1
100
AcDbSymbolTableRecord
100
AcDbBlockTableRecord
  2
*D17
  0
BLOCK_RECORD
  5
47E
330
1
100
AcDbSymbolTableRecord
100
AcDbBlockTableRecord
  2
*D18
  0
BLOCK_RECORD
  5
48B
330
1
100
AcDbSymbolTableRecord
100
AcDbBlockTableRecord
  2
*D19
  0
BLOCK_RECORD
  5
498
330
1
100
AcDbSymbolTableRecord
100
AcDbBlockTableRecord
  2
*D20
  0
BLOCK_RECORD
  5
4A5
330
1
100
AcDbSymbolTableRecord
100
AcDbBlockTableRecord
  2
*D21
  0
BLOCK_RECORD
  5
4B1
330
1
100
AcDbSymbolTableRecord
100
AcDbBlockTableRecord
  2
*D22
  0
BLOCK_RECORD
  5
4BD
330
1
100
AcDbSymbolTableRecord
100
AcDbBlockTableRecord
  2
*D23
  0
BLOCK_RECORD
  5
4C9
330
1
100
AcDbSymbolTableRecord
100
AcDbBlockTableRecord
  2
*D24
  0
BLOCK_RECORD
  5
4D6
330
1
100
AcDbSymbolTableRecord
100
AcDbBlockTableRecord
  2
*D25
  0
BLOCK_RECORD
  5
4E5
330
1
100
AcDbSymbolTableRecord
100
AcDbBlockTableRecord
  2
*D26
  0
BLOCK_RECORD
  5
4F2
330
1
100
AcDbSymbolTableRecord
100
AcDbBlockTableRecord
  2
*D27
  0
BLOCK_RECORD
  5
500
330
1
100
AcDbSymbolTableRecord
100
AcDbBlockTableRecord
  2
*D28
  0
BLOCK_RECORD
  5
50D
330
1
100
AcDbSymbolTableRecord
100
AcDbBlockTableRecord
  2
*D29
  0
BLOCK_RECORD
  5
51C
330
1
100
AcDbSymbolTableRecord
100
AcDbBlockTableRecord
  2
*D30
  0
BLOCK_RECORD
  5
529
330
1
100
AcDbSymbolTableRecord
100
AcDbBlockTableRecord
  2
*D31
  0
BLOCK_RECORD
  5
536
330
1
100
AcDbSymbolTableRecord
100
AcDbBlockTableRecord
  2
*D32
  0
BLOCK_RECORD
  5
549
330
1
100
AcDbSymbolTableRecord
100
AcDbBlockTableRecord
  2
*D33
  0
BLOCK_RECORD
  5
556
330
1
100
AcDbSymbolTableRecord
100
AcDbBlockTableRecord
  2
*D34
  0
BLOCK_RECORD
  5
562
330
1
100
AcDbSymbolTableRecord
100
AcDbBlockTableRecord
  2
*D35
  0
BLOCK_RECORD
  5
583
330
1
100
AcDbSymbolTableRecord
100
AcDbBlockTableRecord
  2
*D36
  0
BLOCK_RECORD
  5
591
330
1
100
AcDbSymbolTableRecord
100
AcDbBlockTableRecord
  2
*D37
  0
ENDTAB
  0
ENDSEC
  0
SECTION
  2
BLOCKS
  0
BLOCK
  5
20
330
1F
100
AcDbEntity
  8
0
100
AcDbBlockBegin
  2
*MODEL_SPACE
 70
     0
 10
0.0
 20
0.0
 30
0.0
  3
*MODEL_SPACE
  1

  0
ENDBLK
  5
21
330
1F
100
AcDbEntity
  8
0
100
AcDbBlockEnd
  0
BLOCK
  5
1C
330
1B
100
AcDbEntity
 67
     1
  8
0
100
AcDbBlockBegin
  2
*PAPER_SPACE
 70
     0
 10
0.0
 20
0.0
 30
0.0
  3
*PAPER_SPACE
  1

  0
ENDBLK
  5
1D
330
1B
100
AcDbEntity
 67
     1
  8
0
100
AcDbBlockEnd
  0
BLOCK
  5
4F
330
4E
100
AcDbEntity
  8
0
100
AcDbBlockBegin
  2
EX_NORM
 70
     0
 10
0.0
 20
0.0
 30
0.0
  3
EX_NORM
  1

  0
LINE
  5
78
330
4E
100
AcDbEntity
  8
0
  6
CONTINUOUS
 62
     0
100
AcDbLine
 10
0.0
 20
0.0
 30
0.0
 11
-1.0
 21
0.0
 31
0.0
  0
LINE
  5
79
330
4E
100
AcDbEntity
  8
0
  6
CONTINUOUS
 62
     0
100
AcDbLine
 10
0.0
 20
0.0
 30
0.0
 11
-1.0
 21
0.166666667
 31
0.0
  0
LINE
  5
7A
330
4E
100
AcDbEntity
  8
0
  6
CONTINUOUS
 62
     0
100
AcDbLine
 10
0.0
 20
0.0
 30
0.0
 11
-1.0
 21
-0.166666667
 31
0.0
  0
ENDBLK
  5
50
330
4E
100
AcDbEntity
  8
0
100
AcDbBlockEnd
  0
BLOCK
  5
52
330
51
100
AcDbEntity
  8
0
100
AcDbBlockBegin
  2
EX_BNORM
 70
     0
 10
0.0
 20
0.0
 30
0.0
  3
EX_BNORM
  1

  0
LINE
  5
7B
330
51
100
AcDbEntity
  8
0
  6
CONTINUOUS
 62
     0
100
AcDbLine
 10
0.0
 20
0.0
 30
0.0
 11
-1.0
 21
0.0
 31
0.0
  0
LINE
  5
7C
330
51
100
AcDbEntity
  8
0
  6
CONTINUOUS
 62
     0
100
AcDbLine
 10
0.0
 20
0.0
 30
0.0
 11
-1.0
 21
0.166666667
 31
0.0
  0
LINE
  5
7D
330
51
100
AcDbEntity
  8
0
  6
CONTINUOUS
 62
     0
100
AcDbLine
 10
0.0
 20
0.0
 30
0.0
 11
-1.0
 21
-0.166666667
 31
0.0
  0
LINE
  5
7E
330
51
100
AcDbEntity
  8
0
  6
CONTINUOUS
 62
     0
100
AcDbLine
 10
0.0
 20
0.0
 30
0.0
 11
-1.0
 21
0.083333333
 31
0.0
  0
LINE
  5
7F
330
51
100
AcDbEntity
  8
0
  6
CONTINUOUS
 62
     0
100
AcDbLine
 10
0.0
 20
0.0
 30
0.0
 11
-1.0
 21
-0.083333333
 31
0.0
  0
LINE
  5
80
330
51
100
AcDbEntity
  8
0
  6
CONTINUOUS
 62
     0
100
AcDbLine
 10
-1.0
 20
0.166666667
 30
0.0
 11
-1.0
 21
-0.166666667
 31
0.0
  0
ENDBLK
  5
53
330
51
100
AcDbEntity
  8
0
100
AcDbBlockEnd
  0
BLOCK
  5
55
330
54
100
AcDbEntity
  8
0
100
AcDbBlockBegin
  2
EX_BCIR
 70
     0
 10
0.0
 20
0.0
 30
0.0
  3
EX_BCIR
  1

  0
LINE
  5
81
330
54
100
AcDbEntity
  8
0
  6
CONTINUOUS
 62
     0
100
AcDbLine
 10
0.0
 20
0.0
 30
0.0
 11
-1.0
 21
0.0
 31
0.0
  0
CIRCLE
  5
82
330
54
100
AcDbEntity
  8
0
  6
CONTINUOUS
 62
     0
100
AcDbCircle
 10
0.0
 20
0.0
 30
0.0
 40
0.5
  0
CIRCLE
  5
83
330
54
100
AcDbEntity
  8
0
  6
CONTINUOUS
 62
     0
100
AcDbCircle
 10
0.0
 20
0.0
 30
0.0
 40
0.25
  0
ENDBLK
  5
56
330
54
100
AcDbEntity
  8
0
100
AcDbBlockEnd
  0
BLOCK
  5
58
330
57
100
AcDbEntity
  8
0
100
AcDbBlockBegin
  2
EX_RCIVIL
 70
     0
 10
0.0
 20
0.0
 30
0.0
  3
EX_RCIVIL
  1

  0
LINE
  5
84
330
57
100
AcDbEntity
  8
0
  6
CONTINUOUS
 62
     0
100
AcDbLine
 10
0.0
 20
0.0
 30
0.0
 11
-1.0
 21
0.0
 31
0.0
  0
LINE
  5
85
330
57
100
AcDbEntity
  8
0
  6
CONTINUOUS
 62
     0
100
AcDbLine
 10
-1.0
 20
-0.25
 30
0.0
 11
0.0
 21
-0.25
 31
0.0
  0
LINE
  5
86
330
57
100
AcDbEntity
  8
0
  6
CONTINUOUS
 62
     0
100
AcDbLine
 10
-1.0
 20
-0.125
 30
0.0
 11
0.0
 21
-0.125
 31
0.0
  0
ENDBLK
  5
59
330
57
100
AcDbEntity
  8
0
100
AcDbBlockEnd
  0
BLOCK
  5
5B
330
5A
100
AcDbEntity
  8
0
100
AcDbBlockBegin
  2
EX_SLANT
 70
     0
 10
0.0
 20
0.0
 30
0.0
  3
EX_SLANT
  1

  0
LINE
  5
87
330
5A
100
AcDbEntity
  8
0
  6
CONTINUOUS
 62
     0
100
AcDbLine
 10
0.0
 20
0.0
 30
0.0
 11
-1.0
 21
0.0
 31
0.0
  0
LINE
  5
88
330
5A
100
AcDbEntity
  8
0
  6
CONTINUOUS
 62
     0
100
AcDbLine
 10
0.707106781
 20
0.707106781
 30
0.0
 11
-0.707106781
 21
-0.707106781
 31
0.0
  0
ENDBLK
  5
5C
330
5A
100
AcDbEntity
  8
0
100
AcDbBlockEnd
  0
BLOCK
  5
5E
330
5D
100
AcDbEntity
  8
0
100
AcDbBlockBegin
  2
EX_NONE
 70
     0
 10
0.0
 20
0.0
 30
0.0
  3
EX_NONE
  1

  0
LINE
  5
89
330
5D
100
AcDbEntity
  8
0
  6
CONTINUOUS
 62
     0
100
AcDbLine
 10
0.0
 20
0.0
 30
0.0
 11
-1.0
 21
0.0
 31
0.0
  0
ENDBLK
  5
5F
330
5D
100
AcDbEntity
  8
0
100
AcDbBlockEnd
  0
BLOCK
  5
61
330
60
100
AcDbEntity
  8
0
100
AcDbBlockBegin
  2
EX_CIVIL
 70
     0
 10
0.0
 20
0.0
 30
0.0
  3
EX_CIVIL
  1

  0
LINE
  5
8A
330
60
100
AcDbEntity
  8
0
  6
CONTINUOUS
 62
     0
100
AcDbLine
 10
0.0
 20
0.0
 30
0.0
 11
-1.0
 21
0.0
 31
0.0
  0
LINE
  5
8B
330
60
100
AcDbEntity
  8
0
  6
CONTINUOUS
 62
     0
100
AcDbLine
 10
-1.0
 20
0.25
 30
0.0
 11
0.0
 21
0.25
 31
0.0
  0
LINE
  5
8C
330
60
100
AcDbEntity
  8
0
  6
CONTINUOUS
 62
     0
100
AcDbLine
 10
-1.0
 20
0.125
 30
0.0
 11
0.0
 21
0.125
 31
0.0
  0
ENDBLK
  5
62
330
60
100
AcDbEntity
  8
0
100
AcDbBlockEnd
  0
BLOCK
  5
64
330
63
100
AcDbEntity
  8
0
100
AcDbBlockBegin
  2
EX_WCIR
 70
     0
 10
0.0
 20
0.0
 30
0.0
  3
EX_WCIR
  1

  0
LINE
  5
8D
330
63
100
AcDbEntity
  8
0
  6
CONTINUOUS
 62
     0
100
AcDbLine
 10
0.0
 20
0.0
 30
0.0
 11
-1.0
 21
0.0
 31
0.0
  0
CIRCLE
  5
8E
330
63
100
AcDbEntity
  8
0
  6
CONTINUOUS
 62
     0
100
AcDbCircle
 10
0.0
 20
0.0
 30
0.0
 40
0.5
  0
ENDBLK
  5
65
330
63
100
AcDbEntity
  8
0
100
AcDbBlockEnd
  0
BLOCK
  5
67
330
66
100
AcDbEntity
  8
0
100
AcDbBlockBegin
  2
EX_WCIR2
 70
     0
 10
0.0
 20
0.0
 30
0.0
  3
EX_WCIR2
  1

  0
LINE
  5
8F
330
66
100
AcDbEntity
  8
0
  6
CONTINUOUS
 62
     0
100
AcDbLine
 10
-0.5
 20
0.0
 30
0.0
 11
-1.0
 21
0.0
 31
0.0
  0
CIRCLE
  5
90
330
66
100
AcDbEntity
  8
0
  6
CONTINUOUS
 62
     0
100
AcDbCircle
 10
0.0
 20
0.0
 30
0.0
 40
0.5
  0
ENDBLK
  5
68
330
66
100
AcDbEntity
  8
0
100
AcDbBlockEnd
  0
BLOCK
  5
6A
330
69
100
AcDbEntity
  8
0
100
AcDbBlockBegin
  2
EX_WNORM
 70
     0
 10
0.0
 20
0.0
 30
0.0
  3
EX_WNORM
  1

  0
LINE
  5
91
330
69
100
AcDbEntity
  8
0
  6
CONTINUOUS
 62
     0
100
AcDbLine
 10
-1.0
 20
0.0
 30
0.0
 11
-1.0
 21
0.0
 31
0.0
  0
LINE
  5
92
330
69
100
AcDbEntity
  8
0
  6
CONTINUOUS
 62
     0
100
AcDbLine
 10
0.0
 20
0.0
 30
0.0
 11
-1.0
 21
0.166666667
 31
0.0
  0
LINE
  5
93
330
69
100
AcDbEntity
  8
0
  6
CONTINUOUS
 62
     0
100
AcDbLine
 10
0.0
 20
0.0
 30
0.0
 11
-1.0
 21
-0.166666667
 31
0.0
  0
LINE
  5
94
330
69
100
AcDbEntity
  8
0
  6
CONTINUOUS
 62
     0
100
AcDbLine
 10
-1.0
 20
0.166666667
 30
0.0
 11
-1.0
 21
-0.166666667
 31
0.0
  0
ENDBLK
  5
6B
330
69
100
AcDbEntity
  8
0
100
AcDbBlockEnd
  0
BLOCK
  5
6D
330
6C
100
AcDbEntity
  8
0
100
AcDbBlockBegin
  2
EX_NNORM
 70
     0
 10
0.0
 20
0.0
 30
0.0
  3
EX_NNORM
  1

  0
LINE
  5
95
330
6C
100
AcDbEntity
  8
0
  6
CONTINUOUS
 62
     0
100
AcDbLine
 10
0.0
 20
0.0
 30
0.0
 11
-1.0
 21
0.0
 31
0.0
  0
LINE
  5
96
330
6C
100
AcDbEntity
  8
0
  6
CONTINUOUS
 62
     0
100
AcDbLine
 10
0.0
 20
0.0
 30
0.0
 11
-1.0
 21
0.166666667
 31
0.0
  0
LINE
  5
97
330
6C
100
AcDbEntity
  8
0
  6
CONTINUOUS
 62
     0
100
AcDbLine
 10
0.0
 20
0.0
 30
0.0
 11
-1.0
 21
-0.166666667
 31
0.0
  0
LINE
  5
98
330
6C
100
AcDbEntity
  8
0
  6
CONTINUOUS
 62
     0
100
AcDbLine
 10
-1.0
 20
0.166666667
 30
0.0
 11
-1.0
 21
-0.166666667
 31
0.0
  0
ENDBLK
  5
6E
330
6C
100
AcDbEntity
  8
0
100
AcDbBlockEnd
  0
BLOCK
  5
70
330
6F
100
AcDbEntity
  8
0
100
AcDbBlockBegin
  2
EX_BBOX
 70
     0
 10
0.0
 20
0.0
 30
0.0
  3
EX_BBOX
  1

  0
LINE
  5
99
330
6F
100
AcDbEntity
  8
0
  6
CONTINUOUS
 62
     0
100
AcDbLine
 10
0.0
 20
0.0
 30
0.0
 11
-1.0
 21
0.0
 31
0.0
  0
LINE
  5
9A
330
6F
100
AcDbEntity
  8
0
  6
CONTINUOUS
 62
     0
100
AcDbLine
 10
-0.5
 20
0.5
 30
0.0
 11
0.5
 21
0.5
 31
0.0
  0
LINE
  5
9B
330
6F
100
AcDbEntity
  8
0
  6
CONTINUOUS
 62
     0
100
AcDbLine
 10
0.5
 20
0.5
 30
0.0
 11
0.5
 21
-0.5
 31
0.0
  0
LINE
  5
9C
330
6F
100
AcDbEntity
  8
0
  6
CONTINUOUS
 62
     0
100
AcDbLine
 10
0.5
 20
-0.5
 30
0.0
 11
-0.5
 21
-0.5
 31
0.0
  0
LINE
  5
9D
330
6F
100
AcDbEntity
  8
0
  6
CONTINUOUS
 62
     0
100
AcDbLine
 10
-0.5
 20
-0.5
 30
0.0
 11
-0.5
 21
0.5
 31
0.0
  0
LINE
  5
9E
330
6F
100
AcDbEntity
  8
0
  6
CONTINUOUS
 62
     0
100
AcDbLine
 10
-0.25
 20
0.25
 30
0.0
 11
0.25
 21
0.25
 31
0.0
  0
LINE
  5
9F
330
6F
100
AcDbEntity
  8
0
  6
CONTINUOUS
 62
     0
100
AcDbLine
 10
0.25
 20
0.25
 30
0.0
 11
0.25
 21
-0.25
 31
0.0
  0
LINE
  5
A0
330
6F
100
AcDbEntity
  8
0
  6
CONTINUOUS
 62
     0
100
AcDbLine
 10
0.25
 20
-0.25
 30
0.0
 11
-0.25
 21
-0.25
 31
0.0
  0
LINE
  5
A1
330
6F
100
AcDbEntity
  8
0
  6
CONTINUOUS
 62
     0
100
AcDbLine
 10
-0.25
 20
-0.25
 30
0.0
 11
-0.25
 21
0.25
 31
0.0
  0
ENDBLK
  5
71
330
6F
100
AcDbEntity
  8
0
100
AcDbBlockEnd
  0
BLOCK
  5
73
330
72
100
AcDbEntity
  8
0
100
AcDbBlockBegin
  2
EX_WBOX
 70
     0
 10
0.0
 20
0.0
 30
0.0
  3
EX_WBOX
  1

  0
LINE
  5
A2
330
72
100
AcDbEntity
  8
0
  6
CONTINUOUS
 62
     0
100
AcDbLine
 10
-0.5
 20
0.0
 30
0.0
 11
-1.0
 21
0.0
 31
0.0
  0
LINE
  5
A3
330
72
100
AcDbEntity
  8
0
  6
CONTINUOUS
 62
     0
100
AcDbLine
 10
-0.5
 20
0.5
 30
0.0
 11
0.5
 21
0.5
 31
0.0
  0
LINE
  5
A4
330
72
100
AcDbEntity
  8
0
  6
CONTINUOUS
 62
     0
100
AcDbLine
 10
0.5
 20
0.5
 30
0.0
 11
0.5
 21
-0.5
 31
0.0
  0
LINE
  5
A5
330
72
100
AcDbEntity
  8
0
  6
CONTINUOUS
 62
     0
100
AcDbLine
 10
0.5
 20
-0.5
 30
0.0
 11
-0.5
 21
-0.5
 31
0.0
  0
LINE
  5
A6
330
72
100
AcDbEntity
  8
0
  6
CONTINUOUS
 62
     0
100
AcDbLine
 10
-0.5
 20
-0.5
 30
0.0
 11
-0.5
 21
0.5
 31
0.0
  0
ENDBLK
  5
74
330
72
100
AcDbEntity
  8
0
100
AcDbBlockEnd
  0
BLOCK
  5
76
330
75
100
AcDbEntity
  8
0
100
AcDbBlockBegin
  2
EX_INTEGRAL
 70
     0
 10
0.0
 20
0.0
 30
0.0
  3
EX_INTEGRAL
  1

  0
LINE
  5
A7
330
75
100
AcDbEntity
  8
0
  6
CONTINUOUS
 62
     0
100
AcDbLine
 10
0.0
 20
0.0
 30
0.0
 11
-1.0
 21
0.0
 31
0.0
  0
ARC
  5
A8
330
75
100
AcDbEntity
  8
0
  6
CONTINUOUS
 62
     0
100
AcDbCircle
 10
0.542115
 20
0.164992
 30
0.0
 40
0.56667
100
AcDbArc
 50
73.07249033629006
 51
196.9275130221199
  0
ARC
  5
A9
330
75
100
AcDbEntity
  8
0
  6
CONTINUOUS
 62
     0
100
AcDbCircle
 10
-0.542115
 20
-0.164992
 30
0.0
 40
0.56667
100
AcDbArc
 50
253.0724869220464
 51
16.9275130559125
  0
ENDBLK
  5
77
330
75
100
AcDbEntity
  8
0
100
AcDbBlockEnd
  0
BLOCK
  5
457
330
456
100
AcDbEntity
  8
0
100
AcDbBlockBegin
  2
*D15
 70
     1
 10
0.0
 20
0.0
 30
0.0
  3
*D15
  1

  0
LINE
  5
459
330
456
100
AcDbEntity
  8
寸法
  6
CONTINUOUS
 62
     3
100
AcDbLine
 10
3475.500000178814
 20
859.5
 30
0.0
 11
3411.45
 21
859.5
 31
0.0
  0
LINE
  5
45A
330
456
100
AcDbEntity
  8
寸法
  6
CONTINUOUS
 62
     3
100
AcDbLine
 10
3475.500000178814
 20
891.5
 30
0.0
 11
3411.45
 21
891.5
 31
0.0
  0
LINE
  5
45B
330
456
100
AcDbEntity
  8
寸法
  6
CONTINUOUS
 62
     3
100
AcDbLine
 10
3426.45
 20
859.5
 30
0.0
 11
3426.45
 21
891.5
 31
0.0
  0
LINE
  5
45C
330
456
100
AcDbEntity
  8
寸法
  6
CONTINUOUS
 62
     3
100
AcDbLine
 10
3426.45
 20
814.5000038146973
 30
0.0
 11
3426.45
 21
769.5000076293945
 31
0.0
  0
LINE
  5
45D
330
456
100
AcDbEntity
  8
寸法
  6
CONTINUOUS
 62
     3
100
AcDbLine
 10
3426.45
 20
936.4999961853027
 30
0.0
 11
3426.45
 21
981.4999923706055
 31
0.0
  0
INSERT
  5
45E
330
456
100
AcDbEntity
  8
寸法
 62
     3
100
AcDbBlockReference
  2
EX_NORM
 10
3426.45
 20
859.5
 30
0.0
 41
44.99999618530273
 42
44.99999618530273
 43
44.99999618530273
 50
90.0
  0
INSERT
  5
45F
330
456
100
AcDbEntity
  8
寸法
 62
     3
100
AcDbBlockReference
  2
EX_NORM
 10
3426.45
 20
891.5
 30
0.0
 41
44.99999618530273
 42
44.99999618530273
 43
44.99999618530273
 50
270.0
  0
MTEXT
  5
460
330
456
100
AcDbEntity
  8
寸法
 62
     2
100
AcDbMText
 10
3391.200000089407
 20
739.4999999999983
 30
0.0
 40
59.99999618530273
 41
0.0
 71
     5
 72
     1
  1
%%c32
  7
EXCADDIM1
 11
0.0
 21
1.0
 31
0.0
  0
POINT
  5
461
330
456
100
AcDbEntity
  8
DEFPOINTS
 62
     0
100
AcDbPoint
 10
3486.0
 20
859.5
 30
0.0
  0
POINT
  5
462
330
456
100
AcDbEntity
  8
DEFPOINTS
 62
     0
100
AcDbPoint
 10
3486.0
 20
891.5
 30
0.0
  0
POINT
  5
463
330
456
100
AcDbEntity
  8
DEFPOINTS
 62
     0
100
AcDbPoint
 10
3426.45
 20
891.5
 30
0.0
  0
ENDBLK
  5
458
330
456
100
AcDbEntity
  8
0
100
AcDbBlockEnd
  0
BLOCK
  5
466
330
465
100
AcDbEntity
  8
0
100
AcDbBlockBegin
  2
*D16
 70
     1
 10
0.0
 20
0.0
 30
0.0
  3
*D16
  1

  0
LINE
  5
468
330
465
100
AcDbEntity
  8
寸法
  6
CONTINUOUS
 62
     3
100
AcDbLine
 10
3475.500000178814
 20
875.5
 30
0.0
 11
3321.45
 21
875.5
 31
0.0
  0
LINE
  5
469
330
465
100
AcDbEntity
  8
寸法
  6
CONTINUOUS
 62
     3
100
AcDbLine
 10
3336.45
 20
617.4999961853027
 30
0.0
 11
3336.45
 21
830.5000038146973
 31
0.0
  0
INSERT
  5
46A
330
465
100
AcDbEntity
  8
寸法
 62
     3
100
AcDbBlockReference
  2
EX_NORM
 10
3336.45
 20
572.5
 30
0.0
 41
44.99999618530273
 42
44.99999618530273
 43
44.99999618530273
 50
270.0
  0
INSERT
  5
46B
330
465
100
AcDbEntity
  8
寸法
 62
     3
100
AcDbBlockReference
  2
EX_NORM
 10
3336.45
 20
875.5
 30
0.0
 41
44.99999618530273
 42
44.99999618530273
 43
44.99999618530273
 50
90.0
  0
MTEXT
  5
46C
330
465
100
AcDbEntity
  8
寸法
 62
     2
100
AcDbMText
 10
3301.200000089407
 20
723.9999999999995
 30
0.0
 40
59.99999618530273
 41
0.0
 71
     5
 72
     1
  1
303
  7
EXCADDIM1
 11
0.0
 21
1.0
 31
0.0
  0
POINT
  5
46D
330
465
100
AcDbEntity
  8
DEFPOINTS
 62
     0
100
AcDbPoint
 10
3660.0
 20
572.5
 30
0.0
  0
POINT
  5
46E
330
465
100
AcDbEntity
  8
DEFPOINTS
 62
     0
100
AcDbPoint
 10
3486.0
 20
875.5
 30
0.0
  0
POINT
  5
46F
330
465
100
AcDbEntity
  8
DEFPOINTS
 62
     0
100
AcDbPoint
 10
3336.45
 20
875.5
 30
0.0
  0
ENDBLK
  5
467
330
465
100
AcDbEntity
  8
0
100
AcDbBlockEnd
  0
BLOCK
  5
472
330
471
100
AcDbEntity
  8
0
100
AcDbBlockBegin
  2
*D17
 70
     1
 10
0.0
 20
0.0
 30
0.0
  3
*D17
  1

  0
LINE
  5
474
330
471
100
AcDbEntity
  8
寸法
  6
CONTINUOUS
 62
     3
100
AcDbLine
 10
3670.499999821186
 20
572.5
 30
0.0
 11
3904.5
 21
572.5
 31
0.0
  0
LINE
  5
475
330
471
100
AcDbEntity
  8
寸法
  6
CONTINUOUS
 62
     3
100
AcDbLine
 10
3670.499999821186
 20
1067.5
 30
0.0
 11
3904.5
 21
1067.5
 31
0.0
  0
LINE
  5
476
330
471
100
AcDbEntity
  8
寸法
  6
CONTINUOUS
 62
     3
100
AcDbLine
 10
3889.5
 20
617.4999961853027
 30
0.0
 11
3889.5
 21
1022.500003814697
 31
0.0
  0
INSERT
  5
477
330
471
100
AcDbEntity
  8
寸法
 62
     3
100
AcDbBlockReference
  2
EX_NORM
 10
3889.5
 20
572.5
 30
0.0
 41
44.99999618530273
 42
44.99999618530273
 43
44.99999618530273
 50
270.0
  0
INSERT
  5
478
330
471
100
AcDbEntity
  8
寸法
 62
     3
100
AcDbBlockReference
  2
EX_NORM
 10
3889.5
 20
1067.5
 30
0.0
 41
44.99999618530273
 42
44.99999618530273
 43
44.99999618530273
 50
90.0
  0
MTEXT
  5
479
330
471
100
AcDbEntity
  8
寸法
 62
     2
100
AcDbMText
 10
3854.250000089407
 20
819.9999999999997
 30
0.0
 40
59.99999618530273
 41
0.0
 71
     5
 72
     1
  1
495
  7
EXCADDIM1
 11
0.0
 21
1.0
 31
0.0
  0
POINT
  5
47A
330
471
100
AcDbEntity
  8
DEFPOINTS
 62
     0
100
AcDbPoint
 10
3660.0
 20
572.5
 30
0.0
  0
POINT
  5
47B
330
471
100
AcDbEntity
  8
DEFPOINTS
 62
     0
100
AcDbPoint
 10
3660.0
 20
1067.5
 30
0.0
  0
POINT
  5
47C
330
471
100
AcDbEntity
  8
DEFPOINTS
 62
     0
100
AcDbPoint
 10
3889.5
 20
1067.5
 30
0.0
  0
ENDBLK
  5
473
330
471
100
AcDbEntity
  8
0
100
AcDbBlockEnd
  0
BLOCK
  5
47F
330
47E
100
AcDbEntity
  8
0
100
AcDbBlockBegin
  2
*D18
 70
     1
 10
0.0
 20
0.0
 30
0.0
  3
*D18
  1

  0
LINE
  5
481
330
47E
100
AcDbEntity
  8
寸法
  6
CONTINUOUS
 62
     3
100
AcDbLine
 10
3670.499999821186
 20
1067.5
 30
0.0
 11
3814.5
 21
1067.5
 31
0.0
  0
LINE
  5
482
330
47E
100
AcDbEntity
  8
寸法
  6
CONTINUOUS
 62
     3
100
AcDbLine
 10
3670.499999821186
 20
957.5
 30
0.0
 11
3814.5
 21
957.5
 31
0.0
  0
LINE
  5
483
330
47E
100
AcDbEntity
  8
寸法
  6
CONTINUOUS
 62
     3
100
AcDbLine
 10
3799.5
 20
1022.500003814697
 30
0.0
 11
3799.5
 21
1002.499996185303
 31
0.0
  0
INSERT
  5
484
330
47E
100
AcDbEntity
  8
寸法
 62
     3
100
AcDbBlockReference
  2
EX_NORM
 10
3799.5
 20
1067.5
 30
0.0
 41
44.99999618530273
 42
44.99999618530273
 43
44.99999618530273
 50
90.0
  0
INSERT
  5
485
330
47E
100
AcDbEntity
  8
寸法
 62
     3
100
AcDbBlockReference
  2
EX_NORM
 10
3799.5
 20
957.5
 30
0.0
 41
44.99999618530273
 42
44.99999618530273
 43
44.99999618530273
 50
270.0
  0
MTEXT
  5
486
330
47E
100
AcDbEntity
  8
寸法
 62
     2
100
AcDbMText
 10
3764.250000089407
 20
837.499999999999
 30
0.0
 40
59.99999618530273
 41
0.0
 71
     5
 72
     1
  1
110
  7
EXCADDIM1
 11
0.0
 21
1.0
 31
0.0
  0
POINT
  5
487
330
47E
100
AcDbEntity
  8
DEFPOINTS
 62
     0
100
AcDbPoint
 10
3660.0
 20
1067.5
 30
0.0
  0
POINT
  5
488
330
47E
100
AcDbEntity
  8
DEFPOINTS
 62
     0
100
AcDbPoint
 10
3660.0
 20
957.5
 30
0.0
  0
POINT
  5
489
330
47E
100
AcDbEntity
  8
DEFPOINTS
 62
     0
100
AcDbPoint
 10
3799.5
 20
957.5
 30
0.0
  0
ENDBLK
  5
480
330
47E
100
AcDbEntity
  8
0
100
AcDbBlockEnd
  0
BLOCK
  5
48C
330
48B
100
AcDbEntity
  8
0
100
AcDbBlockBegin
  2
*D19
 70
     1
 10
0.0
 20
0.0
 30
0.0
  3
*D19
  1

  0
LINE
  5
48E
330
48B
100
AcDbEntity
  8
寸法
  6
CONTINUOUS
 62
     3
100
AcDbLine
 10
1980.0
 20
562.0000001788139
 30
0.0
 11
1980.0
 21
339.0
 31
0.0
  0
LINE
  5
48F
330
48B
100
AcDbEntity
  8
寸法
  6
CONTINUOUS
 62
     3
100
AcDbLine
 10
2310.0
 20
562.0000001788139
 30
0.0
 11
2310.0
 21
339.0
 31
0.0
  0
LINE
  5
490
330
48B
100
AcDbEntity
  8
寸法
  6
CONTINUOUS
 62
     3
100
AcDbLine
 10
2024.999996185303
 20
354.0
 30
0.0
 11
2265.000003814697
 21
354.0
 31
0.0
  0
INSERT
  5
491
330
48B
100
AcDbEntity
  8
寸法
 62
     3
100
AcDbBlockReference
  2
EX_NORM
 10
1980.0
 20
354.0
 30
0.0
 41
44.99999618530273
 42
44.99999618530273
 43
44.99999618530273
 50
180.0
  0
INSERT
  5
492
330
48B
100
AcDbEntity
  8
寸法
 62
     3
100
AcDbBlockReference
  2
EX_NORM
 10
2310.0
 20
354.0
 30
0.0
 41
44.99999618530273
 42
44.99999618530273
 43
44.99999618530273
  0
MTEXT
  5
493
330
48B
100
AcDbEntity
  8
寸法
 62
     2
100
AcDbMText
 10
2145.0
 20
389.249999910593
 30
0.0
 40
59.99999618530273
 41
0.0
 71
     5
 72
     1
  1
330
  7
EXCADDIM1
  0
POINT
  5
494
330
48B
100
AcDbEntity
  8
DEFPOINTS
 62
     0
100
AcDbPoint
 10
1980.0
 20
572.5
 30
0.0
  0
POINT
  5
495
330
48B
100
AcDbEntity
  8
DEFPOINTS
 62
     0
100
AcDbPoint
 10
2310.0
 20
572.5
 30
0.0
  0
POINT
  5
496
330
48B
100
AcDbEntity
  8
DEFPOINTS
 62
     0
100
AcDbPoint
 10
2310.0
 20
354.0
 30
0.0
  0
ENDBLK
  5
48D
330
48B
100
AcDbEntity
  8
0
100
AcDbBlockEnd
  0
BLOCK
  5
499
330
498
100
AcDbEntity
  8
0
100
AcDbBlockBegin
  2
*D20
 70
     1
 10
0.0
 20
0.0
 30
0.0
  3
*D20
  1

  0
LINE
  5
49B
330
498
100
AcDbEntity
  8
寸法
  6
CONTINUOUS
 62
     3
100
AcDbLine
 10
2310.0
 20
562.0000001788139
 30
0.0
 11
2310.0
 21
339.0
 31
0.0
  0
LINE
  5
49C
330
498
100
AcDbEntity
  8
寸法
  6
CONTINUOUS
 62
     3
100
AcDbLine
 10
3660.0
 20
562.0000001788139
 30
0.0
 11
3660.0
 21
339.0
 31
0.0
  0
LINE
  5
49D
330
498
100
AcDbEntity
  8
寸法
  6
CONTINUOUS
 62
     3
100
AcDbLine
 10
2354.999996185303
 20
354.0
 30
0.0
 11
3615.000003814697
 21
354.0
 31
0.0
  0
INSERT
  5
49E
330
498
100
AcDbEntity
  8
寸法
 62
     3
100
AcDbBlockReference
  2
EX_NORM
 10
2310.0
 20
354.0
 30
0.0
 41
44.99999618530273
 42
44.99999618530273
 43
44.99999618530273
 50
180.0
  0
INSERT
  5
49F
330
498
100
AcDbEntity
  8
寸法
 62
     3
100
AcDbBlockReference
  2
EX_NORM
 10
3660.0
 20
354.0
 30
0.0
 41
44.99999618530273
 42
44.99999618530273
 43
44.99999618530273
  0
MTEXT
  5
4A0
330
498
100
AcDbEntity
  8
寸法
 62
     2
100
AcDbMText
 10
2985.0
 20
389.249999910593
 30
0.0
 40
59.99999618530273
 41
0.0
 71
     5
 72
     1
  1
最長1350
  7
EXCADDIM1
  0
POINT
  5
4A1
330
498
100
AcDbEntity
  8
DEFPOINTS
 62
     0
100
AcDbPoint
 10
2310.0
 20
572.5
 30
0.0
  0
POINT
  5
4A2
330
498
100
AcDbEntity
  8
DEFPOINTS
 62
     0
100
AcDbPoint
 10
3660.0
 20
572.5
 30
0.0
  0
POINT
  5
4A3
330
498
100
AcDbEntity
  8
DEFPOINTS
 62
     0
100
AcDbPoint
 10
3660.0
 20
354.0
 30
0.0
  0
ENDBLK
  5
49A
330
498
100
AcDbEntity
  8
0
100
AcDbBlockEnd
  0
BLOCK
  5
4A6
330
4A5
100
AcDbEntity
  8
0
100
AcDbBlockBegin
  2
*D21
 70
     1
 10
0.0
 20
0.0
 30
0.0
  3
*D21
  1

  0
LINE
  5
4A8
330
4A5
100
AcDbEntity
  8
寸法
  6
CONTINUOUS
 62
     3
100
AcDbLine
 10
1961.000000178814
 20
1392.5
 30
0.0
 11
1882.5
 21
1392.5
 31
0.0
  0
LINE
  5
4A9
330
4A5
100
AcDbEntity
  8
寸法
  6
CONTINUOUS
 62
     3
100
AcDbLine
 10
1897.5
 20
617.4999961853026
 30
0.0
 11
1897.5
 21
1347.500003814697
 31
0.0
  0
INSERT
  5
4AA
330
4A5
100
AcDbEntity
  8
寸法
 62
     3
100
AcDbBlockReference
  2
EX_NORM
 10
1897.5
 20
572.4999999999999
 30
0.0
 41
44.99999618530273
 42
44.99999618530273
 43
44.99999618530273
 50
270.0
  0
INSERT
  5
4AB
330
4A5
100
AcDbEntity
  8
寸法
 62
     3
100
AcDbBlockReference
  2
EX_NORM
 10
1897.5
 20
1392.5
 30
0.0
 41
44.99999618530273
 42
44.99999618530273
 43
44.99999618530273
 50
90.0
  0
MTEXT
  5
4AC
330
4A5
100
AcDbEntity
  8
寸法
 62
     2
100
AcDbMText
 10
1862.250000089407
 20
982.4999999999998
 30
0.0
 40
59.99999618530273
 41
0.0
 71
     5
 72
     1
  1
820
  7
EXCADDIM1
 11
0.0
 21
1.0
 31
0.0
  0
POINT
  5
4AD
330
4A5
100
AcDbEntity
  8
DEFPOINTS
 62
     0
100
AcDbPoint
 10
1980.0
 20
572.5
 30
0.0
  0
POINT
  5
4AE
330
4A5
100
AcDbEntity
  8
DEFPOINTS
 62
     0
100
AcDbPoint
 10
1971.5
 20
1392.5
 30
0.0
  0
POINT
  5
4AF
330
4A5
100
AcDbEntity
  8
DEFPOINTS
 62
     0
100
AcDbPoint
 10
1897.5
 20
1392.5
 30
0.0
  0
ENDBLK
  5
4A7
330
4A5
100
AcDbEntity
  8
0
100
AcDbBlockEnd
  0
BLOCK
  5
4B2
330
4B1
100
AcDbEntity
  8
0
100
AcDbBlockBegin
  2
*D22
 70
     1
 10
0.0
 20
0.0
 30
0.0
  3
*D22
  1

  0
LINE
  5
4B4
330
4B1
100
AcDbEntity
  8
寸法
  6
CONTINUOUS
 62
     3
100
AcDbLine
 10
1962.407281516514
 20
1452.5
 30
0.0
 11
1792.5
 21
1452.5
 31
0.0
  0
LINE
  5
4B5
330
4B1
100
AcDbEntity
  8
寸法
  6
CONTINUOUS
 62
     3
100
AcDbLine
 10
1807.5
 20
617.4999961853028
 30
0.0
 11
1807.5
 21
1407.500003814697
 31
0.0
  0
INSERT
  5
4B6
330
4B1
100
AcDbEntity
  8
寸法
 62
     3
100
AcDbBlockReference
  2
EX_NORM
 10
1807.5
 20
572.5000000000001
 30
0.0
 41
44.99999618530273
 42
44.99999618530273
 43
44.99999618530273
 50
270.0
  0
INSERT
  5
4B7
330
4B1
100
AcDbEntity
  8
寸法
 62
     3
100
AcDbBlockReference
  2
EX_NORM
 10
1807.5
 20
1452.5
 30
0.0
 41
44.99999618530273
 42
44.99999618530273
 43
44.99999618530273
 50
90.0
  0
MTEXT
  5
4B8
330
4B1
100
AcDbEntity
  8
寸法
 62
     2
100
AcDbMText
 10
1772.250000089407
 20
1012.5
 30
0.0
 40
59.99999618530273
 41
0.0
 71
     5
 72
     1
  1
880
  7
EXCADDIM1
 11
0.0
 21
1.0
 31
0.0
  0
POINT
  5
4B9
330
4B1
100
AcDbEntity
  8
DEFPOINTS
 62
     0
100
AcDbPoint
 10
1980.0
 20
572.5
 30
0.0
  0
POINT
  5
4BA
330
4B1
100
AcDbEntity
  8
DEFPOINTS
 62
     0
100
AcDbPoint
 10
1972.9072813377
 20
1452.5
 30
0.0
  0
POINT
  5
4BB
330
4B1
100
AcDbEntity
  8
DEFPOINTS
 62
     0
100
AcDbPoint
 10
1807.5
 20
1452.5
 30
0.0
  0
ENDBLK
  5
4B3
330
4B1
100
AcDbEntity
  8
0
100
AcDbBlockEnd
  0
BLOCK
  5
4BE
330
4BD
100
AcDbEntity
  8
0
100
AcDbBlockBegin
  2
*D23
 70
     1
 10
0.0
 20
0.0
 30
0.0
  3
*D23
  1

  0
LINE
  5
4C0
330
4BD
100
AcDbEntity
  8
寸法
  6
CONTINUOUS
 62
     3
100
AcDbLine
 10
2134.500000178814
 20
2377.5
 30
0.0
 11
1882.500000000002
 21
2377.5
 31
0.0
  0
LINE
  5
4C1
330
4BD
100
AcDbEntity
  8
寸法
  6
CONTINUOUS
 62
     3
100
AcDbLine
 10
1897.500000000002
 20
2527.500003814697
 30
0.0
 11
1897.500000000002
 21
2422.499996185303
 31
0.0
  0
INSERT
  5
4C2
330
4BD
100
AcDbEntity
  8
寸法
 62
     3
100
AcDbBlockReference
  2
EX_NORM
 10
1897.500000000002
 20
2572.5
 30
0.0
 41
44.99999618530273
 42
44.99999618530273
 43
44.99999618530273
 50
90.0
  0
INSERT
  5
4C3
330
4BD
100
AcDbEntity
  8
寸法
 62
     3
100
AcDbBlockReference
  2
EX_NORM
 10
1897.500000000002
 20
2377.5
 30
0.0
 41
44.99999618530273
 42
44.99999618530273
 43
44.99999618530273
 50
270.0
  0
MTEXT
  5
4C4
330
4BD
100
AcDbEntity
  8
寸法
 62
     2
100
AcDbMText
 10
1862.250000089409
 20
2475.0
 30
0.0
 40
59.99999618530273
 41
0.0
 71
     5
 72
     1
  1
195
  7
EXCADDIM1
 11
0.0
 21
1.0
 31
0.0
  0
POINT
  5
4C5
330
4BD
100
AcDbEntity
  8
DEFPOINTS
 62
     0
100
AcDbPoint
 10
1967.5
 20
2572.5
 30
0.0
  0
POINT
  5
4C6
330
4BD
100
AcDbEntity
  8
DEFPOINTS
 62
     0
100
AcDbPoint
 10
2145.0
 20
2377.5
 30
0.0
  0
POINT
  5
4C7
330
4BD
100
AcDbEntity
  8
DEFPOINTS
 62
     0
100
AcDbPoint
 10
1897.500000000002
 20
2377.5
 30
0.0
  0
ENDBLK
  5
4BF
330
4BD
100
AcDbEntity
  8
0
100
AcDbBlockEnd
  0
BLOCK
  5
4CA
330
4C9
100
AcDbEntity
  8
0
100
AcDbBlockBegin
  2
*D24
 70
     1
 10
0.0
 20
0.0
 30
0.0
  3
*D24
  1

  0
LINE
  5
4CC
330
4C9
100
AcDbEntity
  8
寸法
  6
CONTINUOUS
 62
     3
100
AcDbLine
 10
1967.5
 20
2390.117584265614
 30
0.0
 11
1967.5
 21
2244.5
 31
0.0
  0
LINE
  5
4CD
330
4C9
100
AcDbEntity
  8
寸法
  6
CONTINUOUS
 62
     3
100
AcDbLine
 10
2322.5
 20
2390.117584265614
 30
0.0
 11
2322.5
 21
2244.5
 31
0.0
  0
LINE
  5
4CE
330
4C9
100
AcDbEntity
  8
寸法
  6
CONTINUOUS
 62
     3
100
AcDbLine
 10
2012.499996185303
 20
2259.5
 30
0.0
 11
2277.500003814697
 21
2259.5
 31
0.0
  0
INSERT
  5
4CF
330
4C9
100
AcDbEntity
  8
寸法
 62
     3
100
AcDbBlockReference
  2
EX_NORM
 10
1967.5
 20
2259.5
 30
0.0
 41
44.99999618530273
 42
44.99999618530273
 43
44.99999618530273
 50
180.0
  0
INSERT
  5
4D0
330
4C9
100
AcDbEntity
  8
寸法
 62
     3
100
AcDbBlockReference
  2
EX_NORM
 10
2322.5
 20
2259.5
 30
0.0
 41
44.99999618530273
 42
44.99999618530273
 43
44.99999618530273
  0
MTEXT
  5
4D1
330
4C9
100
AcDbEntity
  8
寸法
 62
     2
100
AcDbMText
 10
2145.0
 20
2294.749999910593
 30
0.0
 40
59.99999618530273
 41
0.0
 71
     5
 72
     1
  1
355
  7
EXCADDIM1
  0
POINT
  5
4D2
330
4C9
100
AcDbEntity
  8
DEFPOINTS
 62
     0
100
AcDbPoint
 10
1967.5
 20
2400.6175840868
 30
0.0
  0
POINT
  5
4D3
330
4C9
100
AcDbEntity
  8
DEFPOINTS
 62
     0
100
AcDbPoint
 10
2322.5
 20
2400.6175840868
 30
0.0
  0
POINT
  5
4D4
330
4C9
100
AcDbEntity
  8
DEFPOINTS
 62
     0
100
AcDbPoint
 10
2322.5
 20
2259.5
 30
0.0
  0
ENDBLK
  5
4CB
330
4C9
100
AcDbEntity
  8
0
100
AcDbBlockEnd
  0
BLOCK
  5
4D7
330
4D6
100
AcDbEntity
  8
0
100
AcDbBlockBegin
  2
*D25
 70
     1
 10
0.0
 20
0.0
 30
0.0
  3
*D25
  1

  0
LINE
  5
4D9
330
4D6
100
AcDbEntity
  8
寸法
  6
CONTINUOUS
 62
     3
100
AcDbLine
 10
3670.499999821186
 20
2504.5
 30
0.0
 11
3781.5
 21
2504.5
 31
0.0
  0
LINE
  5
4DA
330
4D6
100
AcDbEntity
  8
寸法
  6
CONTINUOUS
 62
     3
100
AcDbLine
 10
3670.499999821186
 20
2572.5
 30
0.0
 11
3781.5
 21
2572.5
 31
0.0
  0
LINE
  5
4DB
330
4D6
100
AcDbEntity
  8
寸法
  6
CONTINUOUS
 62
     3
100
AcDbLine
 10
3766.5
 20
2504.5
 30
0.0
 11
3766.5
 21
2572.5
 31
0.0
  0
LINE
  5
4DC
330
4D6
100
AcDbEntity
  8
寸法
  6
CONTINUOUS
 62
     3
100
AcDbLine
 10
3766.5
 20
2459.500003814697
 30
0.0
 11
3766.5
 21
2414.500007629394
 31
0.0
  0
LINE
  5
4DD
330
4D6
100
AcDbEntity
  8
寸法
  6
CONTINUOUS
 62
     3
100
AcDbLine
 10
3766.5
 20
2617.499996185302
 30
0.0
 11
3766.5
 21
2662.499992370605
 31
0.0
  0
INSERT
  5
4DE
330
4D6
100
AcDbEntity
  8
寸法
 62
     3
100
AcDbBlockReference
  2
EX_NORM
 10
3766.5
 20
2504.5
 30
0.0
 41
44.99999618530273
 42
44.99999618530273
 43
44.99999618530273
 50
90.0
  0
INSERT
  5
4DF
330
4D6
100
AcDbEntity
  8
寸法
 62
     3
100
AcDbBlockReference
  2
EX_NORM
 10
3766.5
 20
2572.5
 30
0.0
 41
44.99999618530273
 42
44.99999618530273
 43
44.99999618530273
 50
270.0
  0
MTEXT
  5
4E0
330
4D6
100
AcDbEntity
  8
寸法
 62
     2
100
AcDbMText
 10
3731.250000089407
 20
2669.999999999999
 30
0.0
 40
59.99999618530273
 41
0.0
 71
     5
 72
     1
  1
68
  7
EXCADDIM1
 11
0.0
 21
1.0
 31
0.0
  0
POINT
  5
4E1
330
4D6
100
AcDbEntity
  8
DEFPOINTS
 62
     0
100
AcDbPoint
 10
3660.0
 20
2504.5
 30
0.0
  0
POINT
  5
4E2
330
4D6
100
AcDbEntity
  8
DEFPOINTS
 62
     0
100
AcDbPoint
 10
3660.0
 20
2572.5
 30
0.0
  0
POINT
  5
4E3
330
4D6
100
AcDbEntity
  8
DEFPOINTS
 62
     0
100
AcDbPoint
 10
3766.5
 20
2572.5
 30
0.0
  0
ENDBLK
  5
4D8
330
4D6
100
AcDbEntity
  8
0
100
AcDbBlockEnd
  0
BLOCK
  5
4E6
330
4E5
100
AcDbEntity
  8
0
100
AcDbBlockBegin
  2
*D26
 70
     1
 10
0.0
 20
0.0
 30
0.0
  3
*D26
  1

  0
LINE
  5
4E8
330
4E5
100
AcDbEntity
  8
寸法
  6
CONTINUOUS
 62
     3
100
AcDbLine
 10
3670.499999821186
 20
2572.5
 30
0.0
 11
3871.499999999997
 21
2572.5
 31
0.0
  0
LINE
  5
4E9
330
4E5
100
AcDbEntity
  8
寸法
  6
CONTINUOUS
 62
     3
100
AcDbLine
 10
3620.499999821186
 20
2182.5
 30
0.0
 11
3871.499999999997
 21
2182.5
 31
0.0
  0
LINE
  5
4EA
330
4E5
100
AcDbEntity
  8
寸法
  6
CONTINUOUS
 62
     3
100
AcDbLine
 10
3856.499999999999
 20
2527.500003814697
 30
0.0
 11
3856.499999999999
 21
2227.499996185302
 31
0.0
  0
INSERT
  5
4EB
330
4E5
100
AcDbEntity
  8
寸法
 62
     3
100
AcDbBlockReference
  2
EX_NORM
 10
3856.499999999999
 20
2572.5
 30
0.0
 41
44.99999618530273
 42
44.99999618530273
 43
44.99999618530273
 50
90.0
  0
INSERT
  5
4EC
330
4E5
100
AcDbEntity
  8
寸法
 62
     3
100
AcDbBlockReference
  2
EX_NORM
 10
3856.499999999999
 20
2182.5
 30
0.0
 41
44.99999618530273
 42
44.99999618530273
 43
44.99999618530273
 50
270.0
  0
MTEXT
  5
4ED
330
4E5
100
AcDbEntity
  8
寸法
 62
     2
100
AcDbMText
 10
3821.250000089406
 20
2377.5
 30
0.0
 40
59.99999618530273
 41
0.0
 71
     5
 72
     1
  1
375～530
  7
EXCADDIM1
 11
0.0
 21
1.0
 31
0.0
  0
POINT
  5
4EE
330
4E5
100
AcDbEntity
  8
DEFPOINTS
 62
     0
100
AcDbPoint
 10
3660.0
 20
2572.5
 30
0.0
  0
POINT
  5
4EF
330
4E5
100
AcDbEntity
  8
DEFPOINTS
 62
     0
100
AcDbPoint
 10
3610.0
 20
2182.5
 30
0.0
  0
POINT
  5
4F0
330
4E5
100
AcDbEntity
  8
DEFPOINTS
 62
     0
100
AcDbPoint
 10
3856.499999999999
 20
2182.5
 30
0.0
  0
ENDBLK
  5
4E7
330
4E5
100
AcDbEntity
  8
0
100
AcDbBlockEnd
  0
BLOCK
  5
4F3
330
4F2
100
AcDbEntity
  8
0
100
AcDbBlockBegin
  2
*D27
 70
     1
 10
0.0
 20
0.0
 30
0.0
  3
*D27
  1

  0
LINE
  5
4F5
330
4F2
100
AcDbEntity
  8
寸法
  6
CONTINUOUS
 62
     3
100
AcDbLine
 10
3610.0
 20
2172.000000178814
 30
0.0
 11
3610.0
 21
2066.0
 31
0.0
  0
LINE
  5
4F6
330
4F2
100
AcDbEntity
  8
寸法
  6
CONTINUOUS
 62
     3
100
AcDbLine
 10
3610.0
 20
2081.0
 30
0.0
 11
3660.0
 21
2081.0
 31
0.0
  0
LINE
  5
4F7
330
4F2
100
AcDbEntity
  8
寸法
  6
CONTINUOUS
 62
     3
100
AcDbLine
 10
3565.000003814697
 20
2081.0
 30
0.0
 11
3520.000007629395
 21
2081.0
 31
0.0
  0
LINE
  5
4F8
330
4F2
100
AcDbEntity
  8
寸法
  6
CONTINUOUS
 62
     3
100
AcDbLine
 10
3704.999996185303
 20
2081.0
 30
0.0
 11
3749.999992370605
 21
2081.0
 31
0.0
  0
INSERT
  5
4F9
330
4F2
100
AcDbEntity
  8
寸法
 62
     3
100
AcDbBlockReference
  2
EX_NORM
 10
3610.0
 20
2081.0
 30
0.0
 41
44.99999618530273
 42
44.99999618530273
 43
44.99999618530273
  0
INSERT
  5
4FA
330
4F2
100
AcDbEntity
  8
寸法
 62
     3
100
AcDbBlockReference
  2
EX_NORM
 10
3660.0
 20
2081.0
 30
0.0
 41
44.99999618530273
 42
44.99999618530273
 43
44.99999618530273
 50
180.0
  0
MTEXT
  5
4FB
330
4F2
100
AcDbEntity
  8
寸法
 62
     2
100
AcDbMText
 10
3757.5
 20
2116.249999910593
 30
0.0
 40
59.99999618530273
 41
0.0
 71
     5
 72
     1
  1
50
  7
EXCADDIM1
  0
POINT
  5
4FC
330
4F2
100
AcDbEntity
  8
DEFPOINTS
 62
     0
100
AcDbPoint
 10
3610.0
 20
2182.5
 30
0.0
  0
POINT
  5
4FD
330
4F2
100
AcDbEntity
  8
DEFPOINTS
 62
     0
100
AcDbPoint
 10
3660.0
 20
2182.5
 30
0.0
  0
POINT
  5
4FE
330
4F2
100
AcDbEntity
  8
DEFPOINTS
 62
     0
100
AcDbPoint
 10
3660.0
 20
2081.0
 30
0.0
  0
ENDBLK
  5
4F4
330
4F2
100
AcDbEntity
  8
0
100
AcDbBlockEnd
  0
BLOCK
  5
501
330
500
100
AcDbEntity
  8
0
100
AcDbBlockBegin
  2
*D28
 70
     1
 10
0.0
 20
0.0
 30
0.0
  3
*D28
  1

  0
LINE
  5
503
330
500
100
AcDbEntity
  8
寸法
  6
CONTINUOUS
 62
     3
100
AcDbLine
 10
1009.500000178814
 20
572.5
 30
0.0
 11
811.5
 21
572.5000000000001
 31
0.0
  0
LINE
  5
504
330
500
100
AcDbEntity
  8
寸法
  6
CONTINUOUS
 62
     3
100
AcDbLine
 10
976.0000001787339
 20
1047.5
 30
0.0
 11
811.5
 21
1047.5
 31
0.0
  0
LINE
  5
505
330
500
100
AcDbEntity
  8
寸法
  6
CONTINUOUS
 62
     3
100
AcDbLine
 10
826.5
 20
617.4999961853028
 30
0.0
 11
826.5
 21
1002.500003814697
 31
0.0
  0
INSERT
  5
506
330
500
100
AcDbEntity
  8
寸法
 62
     3
100
AcDbBlockReference
  2
EX_NORM
 10
826.5
 20
572.5000000000001
 30
0.0
 41
44.99999618530273
 42
44.99999618530273
 43
44.99999618530273
 50
270.0
  0
INSERT
  5
507
330
500
100
AcDbEntity
  8
寸法
 62
     3
100
AcDbBlockReference
  2
EX_NORM
 10
826.5
 20
1047.5
 30
0.0
 41
44.99999618530273
 42
44.99999618530273
 43
44.99999618530273
 50
90.0
  0
MTEXT
  5
508
330
500
100
AcDbEntity
  8
寸法
 62
     2
100
AcDbMText
 10
791.250000089407
 20
809.9999999999997
 30
0.0
 40
59.99999618530273
 41
0.0
 71
     5
 72
     1
  1
475(カバー壁固定)
  7
EXCADDIM1
 11
0.0
 21
1.0
 31
0.0
  0
POINT
  5
509
330
500
100
AcDbEntity
  8
DEFPOINTS
 62
     0
100
AcDbPoint
 10
1020.0
 20
572.5
 30
0.0
  0
POINT
  5
50A
330
500
100
AcDbEntity
  8
DEFPOINTS
 62
     0
100
AcDbPoint
 10
986.49999999992
 20
1047.5
 30
0.0
  0
POINT
  5
50B
330
500
100
AcDbEntity
  8
DEFPOINTS
 62
     0
100
AcDbPoint
 10
826.5
 20
1047.5
 30
0.0
  0
ENDBLK
  5
502
330
500
100
AcDbEntity
  8
0
100
AcDbBlockEnd
  0
BLOCK
  5
50E
330
50D
100
AcDbEntity
  8
0
100
AcDbBlockBegin
  2
*D29
 70
     1
 10
0.0
 20
0.0
 30
0.0
  3
*D29
  1

  0
LINE
  5
510
330
50D
100
AcDbEntity
  8
寸法
  6
CONTINUOUS
 62
     3
100
AcDbLine
 10
976.0000001788939
 20
1047.5
 30
0.0
 11
901.5
 21
1047.5
 31
0.0
  0
LINE
  5
511
330
50D
100
AcDbEntity
  8
寸法
  6
CONTINUOUS
 62
     3
100
AcDbLine
 10
976.0000001788939
 20
977.5000000000001
 30
0.0
 11
901.5
 21
977.5000000000002
 31
0.0
  0
LINE
  5
512
330
50D
100
AcDbEntity
  8
寸法
  6
CONTINUOUS
 62
     3
100
AcDbLine
 10
916.5
 20
1047.5
 30
0.0
 11
916.5
 21
977.5000000000002
 31
0.0
  0
LINE
  5
513
330
50D
100
AcDbEntity
  8
寸法
  6
CONTINUOUS
 62
     3
100
AcDbLine
 10
916.5
 20
1092.499996185303
 30
0.0
 11
916.5
 21
1137.499992370605
 31
0.0
  0
LINE
  5
514
330
50D
100
AcDbEntity
  8
寸法
  6
CONTINUOUS
 62
     3
100
AcDbLine
 10
916.5
 20
932.5000038146975
 30
0.0
 11
916.5
 21
887.5000076293948
 31
0.0
  0
INSERT
  5
515
330
50D
100
AcDbEntity
  8
寸法
 62
     3
100
AcDbBlockReference
  2
EX_NORM
 10
916.5
 20
1047.5
 30
0.0
 41
44.99999618530273
 42
44.99999618530273
 43
44.99999618530273
 50
270.0
  0
INSERT
  5
516
330
50D
100
AcDbEntity
  8
寸法
 62
     3
100
AcDbBlockReference
  2
EX_NORM
 10
916.5
 20
977.5000000000002
 30
0.0
 41
44.99999618530273
 42
44.99999618530273
 43
44.99999618530273
 50
90.0
  0
MTEXT
  5
517
330
50D
100
AcDbEntity
  8
寸法
 62
     2
100
AcDbMText
 10
881.2500000894074
 20
880.0
 30
0.0
 40
59.99999618530273
 41
0.0
 71
     5
 72
     1
  1
70
  7
EXCADDIM1
 11
0.0
 21
1.0
 31
0.0
  0
POINT
  5
518
330
50D
100
AcDbEntity
  8
DEFPOINTS
 62
     0
100
AcDbPoint
 10
986.5000000000799
 20
1047.5
 30
0.0
  0
POINT
  5
519
330
50D
100
AcDbEntity
  8
DEFPOINTS
 62
     0
100
AcDbPoint
 10
986.5000000000799
 20
977.5000000000001
 30
0.0
  0
POINT
  5
51A
330
50D
100
AcDbEntity
  8
DEFPOINTS
 62
     0
100
AcDbPoint
 10
916.5
 20
977.5000000000002
 30
0.0
  0
ENDBLK
  5
50F
330
50D
100
AcDbEntity
  8
0
100
AcDbBlockEnd
  0
BLOCK
  5
51D
330
51C
100
AcDbEntity
  8
0
100
AcDbBlockBegin
  2
*D30
 70
     1
 10
0.0
 20
0.0
 30
0.0
  3
*D30
  1

  0
LINE
  5
51F
330
51C
100
AcDbEntity
  8
寸法
  6
CONTINUOUS
 62
     3
100
AcDbLine
 10
1009.500000178814
 20
572.5
 30
0.0
 11
721.5
 21
572.5000000000001
 31
0.0
  0
LINE
  5
520
330
51C
100
AcDbEntity
  8
寸法
  6
CONTINUOUS
 62
     3
100
AcDbLine
 10
976.000000178894
 20
1177.5
 30
0.0
 11
721.5
 21
1177.5
 31
0.0
  0
LINE
  5
521
330
51C
100
AcDbEntity
  8
寸法
  6
CONTINUOUS
 62
     3
100
AcDbLine
 10
736.5
 20
617.4999961853028
 30
0.0
 11
736.5
 21
1132.500003814697
 31
0.0
  0
INSERT
  5
522
330
51C
100
AcDbEntity
  8
寸法
 62
     3
100
AcDbBlockReference
  2
EX_NORM
 10
736.5
 20
572.5000000000001
 30
0.0
 41
44.99999618530273
 42
44.99999618530273
 43
44.99999618530273
 50
270.0
  0
INSERT
  5
523
330
51C
100
AcDbEntity
  8
寸法
 62
     3
100
AcDbBlockReference
  2
EX_NORM
 10
736.5
 20
1177.5
 30
0.0
 41
44.99999618530273
 42
44.99999618530273
 43
44.99999618530273
 50
90.0
  0
MTEXT
  5
524
330
51C
100
AcDbEntity
  8
寸法
 62
     2
100
AcDbMText
 10
701.2500000894071
 20
874.9999999999998
 30
0.0
 40
59.99999618530273
 41
0.0
 71
     5
 72
     1
  1
605(キャビネット壁固定)
  7
EXCADDIM1
 11
0.0
 21
1.0
 31
0.0
  0
POINT
  5
525
330
51C
100
AcDbEntity
  8
DEFPOINTS
 62
     0
100
AcDbPoint
 10
1020.0
 20
572.5
 30
0.0
  0
POINT
  5
526
330
51C
100
AcDbEntity
  8
DEFPOINTS
 62
     0
100
AcDbPoint
 10
986.50000000008
 20
1177.5
 30
0.0
  0
POINT
  5
527
330
51C
100
AcDbEntity
  8
DEFPOINTS
 62
     0
100
AcDbPoint
 10
736.5
 20
1177.5
 30
0.0
  0
ENDBLK
  5
51E
330
51C
100
AcDbEntity
  8
0
100
AcDbBlockEnd
  0
BLOCK
  5
52A
330
529
100
AcDbEntity
  8
0
100
AcDbBlockBegin
  2
*D31
 70
     1
 10
0.0
 20
0.0
 30
0.0
  3
*D31
  1

  0
LINE
  5
52C
330
529
100
AcDbEntity
  8
寸法
  6
CONTINUOUS
 62
     3
100
AcDbLine
 10
1009.500000178814
 20
572.5
 30
0.0
 11
631.5
 21
572.5000000000001
 31
0.0
  0
LINE
  5
52D
330
529
100
AcDbEntity
  8
寸法
  6
CONTINUOUS
 62
     3
100
AcDbLine
 10
976.000000178894
 20
1427.5
 30
0.0
 11
631.5
 21
1427.5
 31
0.0
  0
LINE
  5
52E
330
529
100
AcDbEntity
  8
寸法
  6
CONTINUOUS
 62
     3
100
AcDbLine
 10
646.5
 20
617.4999961853028
 30
0.0
 11
646.5
 21
1382.500003814697
 31
0.0
  0
INSERT
  5
52F
330
529
100
AcDbEntity
  8
寸法
 62
     3
100
AcDbBlockReference
  2
EX_NORM
 10
646.5
 20
572.5000000000001
 30
0.0
 41
44.99999618530273
 42
44.99999618530273
 43
44.99999618530273
 50
270.0
  0
INSERT
  5
530
330
529
100
AcDbEntity
  8
寸法
 62
     3
100
AcDbBlockReference
  2
EX_NORM
 10
646.5
 20
1427.5
 30
0.0
 41
44.99999618530273
 42
44.99999618530273
 43
44.99999618530273
 50
90.0
  0
MTEXT
  5
531
330
529
100
AcDbEntity
  8
寸法
 62
     2
100
AcDbMText
 10
611.2500000894071
 20
1000.0
 30
0.0
 40
59.99999618530273
 41
0.0
 71
     5
 72
     1
  1
855（手洗器壁固定）
  7
EXCADDIM1
 11
0.0
 21
1.0
 31
0.0
  0
POINT
  5
532
330
529
100
AcDbEntity
  8
DEFPOINTS
 62
     0
100
AcDbPoint
 10
1020.0
 20
572.5
 30
0.0
  0
POINT
  5
533
330
529
100
AcDbEntity
  8
DEFPOINTS
 62
     0
100
AcDbPoint
 10
986.50000000008
 20
1427.5
 30
0.0
  0
POINT
  5
534
330
529
100
AcDbEntity
  8
DEFPOINTS
 62
     0
100
AcDbPoint
 10
646.5
 20
1427.5
 30
0.0
  0
ENDBLK
  5
52B
330
529
100
AcDbEntity
  8
0
100
AcDbBlockEnd
  0
BLOCK
  5
537
330
536
100
AcDbEntity
  8
0
100
AcDbBlockBegin
  2
*D32
 70
     1
 10
0.0
 20
0.0
 30
0.0
  3
*D32
  1

  0
LINE
  5
539
330
536
100
AcDbEntity
  8
寸法
  6
CONTINUOUS
 62
     3
100
AcDbLine
 10
1020.0
 20
562.0000001788139
 30
0.0
 11
1020.0
 21
339.0
 31
0.0
  0
LINE
  5
53A
330
536
100
AcDbEntity
  8
寸法
  6
CONTINUOUS
 62
     3
100
AcDbLine
 10
1174.0
 20
682.0000001788139
 30
0.0
 11
1174.0
 21
339.0
 31
0.0
  0
LINE
  5
53B
330
536
100
AcDbEntity
  8
寸法
  6
CONTINUOUS
 62
     3
100
AcDbLine
 10
1064.999996185303
 20
354.0
 30
0.0
 11
1129.000003814697
 21
354.0
 31
0.0
  0
INSERT
  5
53C
330
536
100
AcDbEntity
  8
寸法
 62
     3
100
AcDbBlockReference
  2
EX_NORM
 10
1020.0
 20
354.0
 30
0.0
 41
44.99999618530273
 42
44.99999618530273
 43
44.99999618530273
 50
180.0
  0
INSERT
  5
53D
330
536
100
AcDbEntity
  8
寸法
 62
     3
100
AcDbBlockReference
  2
EX_NORM
 10
1174.0
 20
354.0
 30
0.0
 41
44.99999618530273
 42
44.99999618530273
 43
44.99999618530273
  0
MTEXT
  5
53E
330
536
100
AcDbEntity
  8
寸法
 62
     2
100
AcDbMText
 10
1339.0
 20
389.249999910593
 30
0.0
 40
59.99999618530273
 41
0.0
 71
     5
 72
     1
  1
（154）
  7
EXCADDIM1
  0
POINT
  5
53F
330
536
100
AcDbEntity
  8
DEFPOINTS
 62
     0
100
AcDbPoint
 10
1020.0
 20
572.5
 30
0.0
  0
POINT
  5
540
330
536
100
AcDbEntity
  8
DEFPOINTS
 62
     0
100
AcDbPoint
 10
1174.0
 20
692.5
 30
0.0
  0
POINT
  5
541
330
536
100
AcDbEntity
  8
DEFPOINTS
 62
     0
100
AcDbPoint
 10
1174.0
 20
354.0
 30
0.0
  0
ENDBLK
  5
538
330
536
100
AcDbEntity
  8
0
100
AcDbBlockEnd
  0
BLOCK
  5
54A
330
549
100
AcDbEntity
  8
0
100
AcDbBlockBegin
  2
*D33
 70
     1
 10
0.0
 20
0.0
 30
0.0
  3
*D33
  1

  0
LINE
  5
54C
330
549
100
AcDbEntity
  8
寸法
  6
CONTINUOUS
 62
     3
100
AcDbLine
 10
1967.5
 20
2582.999999821186
 30
0.0
 11
1967.5
 21
2708.0
 31
0.0
  0
LINE
  5
54D
330
549
100
AcDbEntity
  8
寸法
  6
CONTINUOUS
 62
     3
100
AcDbLine
 10
3660.0
 20
2582.999999821186
 30
0.0
 11
3660.0
 21
2708.0
 31
0.0
  0
LINE
  5
54E
330
549
100
AcDbEntity
  8
寸法
  6
CONTINUOUS
 62
     3
100
AcDbLine
 10
2012.499996185303
 20
2693.0
 30
0.0
 11
3615.000003814697
 21
2693.0
 31
0.0
  0
INSERT
  5
54F
330
549
100
AcDbEntity
  8
寸法
 62
     3
100
AcDbBlockReference
  2
EX_NORM
 10
1967.5
 20
2693.0
 30
0.0
 41
44.99999618530273
 42
44.99999618530273
 43
44.99999618530273
 50
180.0
  0
INSERT
  5
550
330
549
100
AcDbEntity
  8
寸法
 62
     3
100
AcDbBlockReference
  2
EX_NORM
 10
3660.0
 20
2693.0
 30
0.0
 41
44.99999618530273
 42
44.99999618530273
 43
44.99999618530273
  0
MTEXT
  5
551
330
549
100
AcDbEntity
  8
寸法
 62
     2
100
AcDbMText
 10
2813.75
 20
2728.249999910593
 30
0.0
 40
59.99999618530273
 41
0.0
 71
     5
 72
     1
  1
最長1690
  7
EXCADDIM1
  0
POINT
  5
552
330
549
100
AcDbEntity
  8
DEFPOINTS
 62
     0
100
AcDbPoint
 10
1967.5
 20
2572.5
 30
0.0
  0
POINT
  5
553
330
549
100
AcDbEntity
  8
DEFPOINTS
 62
     0
100
AcDbPoint
 10
3660.0
 20
2572.5
 30
0.0
  0
POINT
  5
554
330
549
100
AcDbEntity
  8
DEFPOINTS
 62
     0
100
AcDbPoint
 10
3660.0
 20
2693.0
 30
0.0
  0
ENDBLK
  5
54B
330
549
100
AcDbEntity
  8
0
100
AcDbBlockEnd
  0
BLOCK
  5
557
330
556
100
AcDbEntity
  8
0
100
AcDbBlockBegin
  2
*D34
 70
     1
 10
0.0
 20
0.0
 30
0.0
  3
*D34
  1

  0
LINE
  5
559
330
556
100
AcDbEntity
  8
寸法
  6
CONTINUOUS
 62
     3
100
AcDbLine
 10
3565.0
 20
1989.000000178814
 30
0.0
 11
3565.0
 21
1766.0
 31
0.0
  0
LINE
  5
55A
330
556
100
AcDbEntity
  8
寸法
  6
CONTINUOUS
 62
     3
100
AcDbLine
 10
3609.999996185303
 20
1781.0
 30
0.0
 11
3615.000003814697
 21
1781.0
 31
0.0
  0
INSERT
  5
55B
330
556
100
AcDbEntity
  8
寸法
 62
     3
100
AcDbBlockReference
  2
EX_NORM
 10
3565.0
 20
1781.0
 30
0.0
 41
44.99999618530273
 42
44.99999618530273
 43
44.99999618530273
 50
180.0
  0
INSERT
  5
55C
330
556
100
AcDbEntity
  8
寸法
 62
     3
100
AcDbBlockReference
  2
EX_NORM
 10
3660.0
 20
1781.0
 30
0.0
 41
44.99999618530273
 42
44.99999618530273
 43
44.99999618530273
  0
MTEXT
  5
55D
330
556
100
AcDbEntity
  8
寸法
 62
     2
100
AcDbMText
 10
3332.499999999985
 20
1816.249999910623
 30
0.0
 40
59.99999618530273
 41
0.0
 71
     5
 72
     1
  1
（85～190）
  7
EXCADDIM1
  0
POINT
  5
55E
330
556
100
AcDbEntity
  8
DEFPOINTS
 62
     0
100
AcDbPoint
 10
3565.0
 20
1999.5
 30
0.0
  0
POINT
  5
55F
330
556
100
AcDbEntity
  8
DEFPOINTS
 62
     0
100
AcDbPoint
 10
3660.0
 20
1985.0
 30
0.0
  0
POINT
  5
560
330
556
100
AcDbEntity
  8
DEFPOINTS
 62
     0
100
AcDbPoint
 10
3660.0
 20
1781.0
 30
0.0
  0
ENDBLK
  5
558
330
556
100
AcDbEntity
  8
0
100
AcDbBlockEnd
  0
BLOCK
  5
563
330
562
100
AcDbEntity
  8
0
100
AcDbBlockBegin
  2
*D35
 70
     1
 10
0.0
 20
0.0
 30
0.0
  3
*D35
  1

  0
LINE
  5
565
330
562
100
AcDbEntity
  8
寸法
  6
CONTINUOUS
 62
     3
100
AcDbLine
 10
2935.0000000001
 20
2172.000000178814
 30
0.0
 11
2935.0000000001
 21
1676.0
 31
0.0
  0
LINE
  5
566
330
562
100
AcDbEntity
  8
寸法
  6
CONTINUOUS
 62
     3
100
AcDbLine
 10
3565.0
 20
1989.000000178814
 30
0.0
 11
3565.0
 21
1676.0
 31
0.0
  0
LINE
  5
567
330
562
100
AcDbEntity
  8
寸法
  6
CONTINUOUS
 62
     3
100
AcDbLine
 10
2979.999996185403
 20
1691.0
 30
0.0
 11
3520.000003814697
 21
1691.0
 31
0.0
  0
INSERT
  5
568
330
562
100
AcDbEntity
  8
寸法
 62
     3
100
AcDbBlockReference
  2
EX_NORM
 10
2935.0000000001
 20
1691.0
 30
0.0
 41
44.99999618530273
 42
44.99999618530273
 43
44.99999618530273
 50
180.0
  0
INSERT
  5
569
330
562
100
AcDbEntity
  8
寸法
 62
     3
100
AcDbBlockReference
  2
EX_NORM
 10
3565.0
 20
1691.0
 30
0.0
 41
44.99999618530273
 42
44.99999618530273
 43
44.99999618530273
  0
MTEXT
  5
56A
330
562
100
AcDbEntity
  8
寸法
 62
     2
100
AcDbMText
 10
3250.00000000005
 20
1726.249999910593
 30
0.0
 40
59.99999618530273
 41
0.0
 71
     5
 72
     1
  1
（630）
  7
EXCADDIM1
  0
POINT
  5
56B
330
562
100
AcDbEntity
  8
DEFPOINTS
 62
     0
100
AcDbPoint
 10
2935.0000000001
 20
2182.5
 30
0.0
  0
POINT
  5
56C
330
562
100
AcDbEntity
  8
DEFPOINTS
 62
     0
100
AcDbPoint
 10
3565.0
 20
1999.5
 30
0.0
  0
POINT
  5
56D
330
562
100
AcDbEntity
  8
DEFPOINTS
 62
     0
100
AcDbPoint
 10
3565.0
 20
1691.0
 30
0.0
  0
ENDBLK
  5
564
330
562
100
AcDbEntity
  8
0
100
AcDbBlockEnd
  0
BLOCK
  5
584
330
583
100
AcDbEntity
  8
0
100
AcDbBlockBegin
  2
*D36
 70
     1
 10
0.0
 20
0.0
 30
0.0
  3
*D36
  1

  0
LINE
  5
586
330
583
100
AcDbEntity
  8
寸法
  6
CONTINUOUS
 62
     3
100
AcDbLine
 10
3460.0
 20
2117.500000178814
 30
0.0
 11
3460.0
 21
1856.0
 31
0.0
  0
LINE
  5
587
330
583
100
AcDbEntity
  8
寸法
  6
CONTINUOUS
 62
     3
100
AcDbLine
 10
3615.000003814697
 20
1871.0
 30
0.0
 11
3504.999996185303
 21
1871.0
 31
0.0
  0
INSERT
  5
588
330
583
100
AcDbEntity
  8
寸法
 62
     3
100
AcDbBlockReference
  2
EX_NORM
 10
3660.0
 20
1871.0
 30
0.0
 41
44.99999618530273
 42
44.99999618530273
 43
44.99999618530273
  0
INSERT
  5
589
330
583
100
AcDbEntity
  8
寸法
 62
     3
100
AcDbBlockReference
  2
EX_NORM
 10
3460.0
 20
1871.0
 30
0.0
 41
44.99999618530273
 42
44.99999618530273
 43
44.99999618530273
 50
180.0
  0
MTEXT
  5
58A
330
583
100
AcDbEntity
  8
寸法
 62
     2
100
AcDbMText
 10
3340.0
 20
1906.249999910593
 30
0.0
 40
59.99999618530273
 41
0.0
 71
     5
 72
     1
  1
排水心
  7
EXCADDIM1
  0
POINT
  5
58B
330
583
100
AcDbEntity
  8
DEFPOINTS
 62
     0
100
AcDbPoint
 10
3660.0
 20
2182.5
 30
0.0
  0
POINT
  5
58C
330
583
100
AcDbEntity
  8
DEFPOINTS
 62
     0
100
AcDbPoint
 10
3460.0
 20
2128.0
 30
0.0
  0
POINT
  5
58D
330
583
100
AcDbEntity
  8
DEFPOINTS
 62
     0
100
AcDbPoint
 10
3460.0
 20
1871.0
 30
0.0
  0
ENDBLK
  5
585
330
583
100
AcDbEntity
  8
0
100
AcDbBlockEnd
  0
BLOCK
  5
592
330
591
100
AcDbEntity
  8
0
100
AcDbBlockBegin
  2
*D37
 70
     1
 10
0.0
 20
0.0
 30
0.0
  3
*D37
  1

  0
LINE
  5
594
330
591
100
AcDbEntity
  8
寸法
  6
CONTINUOUS
 62
     3
100
AcDbLine
 10
4083.0
 20
2116.000000178814
 30
0.0
 11
4083.0
 21
1947.0
 31
0.0
  0
LINE
  5
595
330
591
100
AcDbEntity
  8
寸法
  6
CONTINUOUS
 62
     3
100
AcDbLine
 10
4127.999996185303
 20
1962.0
 30
0.0
 11
4203.000003814697
 21
1962.0
 31
0.0
  0
INSERT
  5
596
330
591
100
AcDbEntity
  8
寸法
 62
     3
100
AcDbBlockReference
  2
EX_NORM
 10
4083.0
 20
1962.0
 30
0.0
 41
44.99999618530273
 42
44.99999618530273
 43
44.99999618530273
 50
180.0
  0
INSERT
  5
597
330
591
100
AcDbEntity
  8
寸法
 62
     3
100
AcDbBlockReference
  2
EX_NORM
 10
4248.0
 20
1962.0
 30
0.0
 41
44.99999618530273
 42
44.99999618530273
 43
44.99999618530273
  0
MTEXT
  5
598
330
591
100
AcDbEntity
  8
寸法
 62
     2
100
AcDbMText
 10
3918.0
 20
1997.249999910593
 30
0.0
 40
59.99999618530273
 41
0.0
 71
     5
 72
     1
  1
排水管出代
  7
EXCADDIM1
  0
POINT
  5
599
330
591
100
AcDbEntity
  8
DEFPOINTS
 62
     0
100
AcDbPoint
 10
4083.0
 20
2126.5
 30
0.0
  0
POINT
  5
59A
330
591
100
AcDbEntity
  8
DEFPOINTS
 62
     0
100
AcDbPoint
 10
4248.0
 20
2138.0
 30
0.0
  0
POINT
  5
59B
330
591
100
AcDbEntity
  8
DEFPOINTS
 62
     0
100
AcDbPoint
 10
4248.0
 20
1962.0
 30
0.0
  0
ENDBLK
  5
593
330
591
100
AcDbEntity
  8
0
100
AcDbBlockEnd
  0
ENDSEC
  0
SECTION
  2
ENTITIES
  0
LINE
  5
AA
330
1F
100
AcDbEntity
  8
枠_表
  6
CONTINUOUS
 62
     7
100
AcDbLine
 10
9.0
 20
190.5
 30
0.0
 11
9.0
 21
8.5
 31
0.0
  0
LINE
  5
AB
330
1F
100
AcDbEntity
  8
枠_表
  6
CONTINUOUS
 62
     7
100
AcDbLine
 10
9.0
 20
8.5
 30
0.0
 11
289.0
 21
8.5
 31
0.0
  0
LINE
  5
AC
330
1F
100
AcDbEntity
  8
枠_表
  6
CONTINUOUS
 62
     7
100
AcDbLine
 10
9.0
 20
190.5
 30
0.0
 11
289.0
 21
190.5
 31
0.0
  0
LINE
  5
AD
330
1F
100
AcDbEntity
  8
枠_表
  6
CONTINUOUS
 62
     7
100
AcDbLine
 10
289.0
 20
190.5
 30
0.0
 11
289.0
 21
8.5
 31
0.0
  0
LINE
  5
AE
330
1F
100
AcDbEntity
  8
枠_表
  6
CONTINUOUS
 62
     7
100
AcDbLine
 10
31.0
 20
190.5
 30
0.0
 11
31.0
 21
8.5
 31
0.0
  0
LINE
  5
AF
330
1F
100
AcDbEntity
  8
枠_表
  6
CONTINUOUS
 62
     6
100
AcDbLine
 10
19.0
 20
8.5
 30
0.0
 11
19.0
 21
133.5
 31
0.0
  0
LINE
  5
B0
330
1F
100
AcDbEntity
  8
枠_表
  6
CONTINUOUS
 62
     6
100
AcDbLine
 10
31.0
 20
22.5
 30
0.0
 11
19.0
 21
22.5
 31
0.0
  0
LINE
  5
B1
330
1F
100
AcDbEntity
  8
枠_表
  6
CONTINUOUS
 62
     6
100
AcDbLine
 10
31.0
 20
27.5
 30
0.0
 11
19.0
 21
27.5
 31
0.0
  0
LINE
  5
B2
330
1F
100
AcDbEntity
  8
枠_表
  6
CONTINUOUS
 62
     6
100
AcDbLine
 10
31.0
 20
64.5
 30
0.0
 11
9.0
 21
64.5
 31
0.0
  0
LINE
  5
B3
330
1F
100
AcDbEntity
  8
枠_表
  6
CONTINUOUS
 62
     6
100
AcDbLine
 10
31.0
 20
69.5
 30
0.0
 11
9.0
 21
69.5
 31
0.0
  0
LINE
  5
B4
330
1F
100
AcDbEntity
  8
枠_表
  6
CONTINUOUS
 62
     6
100
AcDbLine
 10
31.0
 20
128.5
 30
0.0
 11
19.0
 21
128.5
 31
0.0
  0
LINE
  5
B5
330
1F
100
AcDbEntity
  8
枠_表
  6
CONTINUOUS
 62
     6
100
AcDbLine
 10
31.0
 20
133.5
 30
0.0
 11
9.0
 21
133.5
 31
0.0
  0
LINE
  5
B6
330
1F
100
AcDbEntity
  8
枠_表
  6
CONTINUOUS
 62
     6
100
AcDbLine
 10
31.0
 20
146.5
 30
0.0
 11
9.0
 21
146.5
 31
0.0
  0
LINE
  5
B7
330
1F
100
AcDbEntity
  8
枠_表
  6
CONTINUOUS
 62
     6
100
AcDbLine
 10
31.0
 20
159.5
 30
0.0
 11
9.0
 21
159.5
 31
0.0
  0
LINE
  5
B8
330
1F
100
AcDbEntity
  8
枠_表
  6
CONTINUOUS
 62
     6
100
AcDbLine
 10
31.0
 20
175.0
 30
0.0
 11
9.0
 21
175.0
 31
0.0
  0
LINE
  5
B9
330
1F
100
AcDbEntity
  8
枠_表
  6
CONTINUOUS
 62
     6
100
AcDbLine
 10
26.0
 20
190.5
 30
0.0
 11
26.0
 21
133.5
 31
0.0
  0
CIRCLE
  5
BA
330
1F
100
AcDbEntity
  8
枠_表
  6
CONTINUOUS
 62
     6
100
AcDbCircle
 10
11.5
 20
185.5
 30
0.0
 40
0.10000002
  0
CIRCLE
  5
BB
330
1F
100
AcDbEntity
  8
枠_表
  6
CONTINUOUS
 62
     6
100
AcDbCircle
 10
11.5
 20
180.5
 30
0.0
 40
0.10000002
  0
CIRCLE
  5
BC
330
1F
100
AcDbEntity
  8
枠_表
  6
CONTINUOUS
 62
     6
100
AcDbCircle
 10
11.5
 20
170.0
 30
0.0
 40
0.10000002
  0
CIRCLE
  5
BD
330
1F
100
AcDbEntity
  8
枠_表
  6
CONTINUOUS
 62
     6
100
AcDbCircle
 10
11.5
 20
165.0
 30
0.0
 40
0.10000002
  0
LINE
  5
BE
330
1F
100
AcDbEntity
  8
枠_表
  6
EXLTYPE2
 62
     6
100
AcDbLine
 10
14.0
 20
190.5
 30
0.0
 11
14.0
 21
159.5
 31
0.0
  0
TEXT
  5
BF
330
1F
100
AcDbEntity
  8
枠_表
  6
CONTINUOUS
 62
     2
100
AcDbText
 10
22.5
 20
63.29999971389782
 30
0.0
 40
5.0
  1
ＬＴＣＫ３５２ＳＬＡ１Ｃ
 50
270.0
 41
0.6822535098438532
  7
EXCADSTD
 72
     5
 11
22.5
 21
28.70000028610241
 31
0.0
100
AcDbText
  0
HATCH
  5
C0
330
1F
100
AcDbEntity
  8
枠_表
  6
CONTINUOUS
 62
     3
100
AcDbHatch
 10
0.0
 20
0.0
 30
0.0
210
0.0
220
0.0
230
1.0
  2
SOLID
 70
     1
 71
     1
 91
        1
 92
        3
 72
     1
 73
     1
 93
       10
 10
12.02169932975409
 20
130.4274734266717
 42
-0.0173622235015558
 10
17.31842432975415
 20
130.4186984266717
 42
-0.0267627618865285
 10
17.31842432975411
 20
130.4186984266717
 42
0.0737939047395297
 10
17.32382432975406
 20
129.1267484266717
 42
0.0183878899657111
 10
12.54819932975409
 20
129.1787234266716
 42
-0.1144749489451909
 10
11.54244932975408
 20
129.3879734266717
 42
-0.1929163439413158
 10
10.76079932975408
 20
130.3835984266716
 42
-0.0603888289562339
 10
10.6291743297541
 20
130.9114484266717
 42
0.0
 10
11.00514932975409
 20
131.0349734266717
 42
0.0860918333465722
 10
11.20157432975409
 20
130.6657484266717
 42
0.1331843103855139
 97
        0
 75
     0
 76
     1
 98
        1
 10
0.0
 20
0.0
  0
HATCH
  5
C1
330
1F
100
AcDbEntity
  8
枠_表
  6
CONTINUOUS
 62
     3
100
AcDbHatch
 10
0.0
 20
0.0
 30
0.0
210
0.0
220
0.0
230
1.0
  2
SOLID
 70
     1
 71
     1
 91
        1
 92
        3
 72
     1
 73
     1
 93
       16
 10
11.91032432975409
 20
124.5131234266717
 42
-0.0386228372648425
 10
15.1644993297541
 20
124.5191984266717
 42
-0.0398707891902887
 10
15.16719932975412
 20
123.9285734266717
 42
-0.1256886216044368
 10
14.61504932975411
 20
123.9555734266717
 42
-0.0367815758121429
 10
14.61504932975408
 20
123.9555734266717
 42
-0.268021535028829
 10
15.2333493297541
 20
122.7641984266716
 42
-0.2571134422124887
 10
14.83037432975413
 20
121.9494734266717
 42
-0.15225263660143
 10
14.16009932975409
 20
121.7422484266717
 42
-0.0158825412051521
 10
11.9069493297541
 20
121.7570984266717
 42
-0.028525127141842
 10
11.90694932975409
 20
122.3274734266716
 42
-0.0452212723224612
 10
13.98864932975413
 20
122.2984484266717
 42
-0.0315567291532139
 10
14.60357432975412
 20
122.4752984266717
 42
-0.1476272403790711
 10
14.69199932975409
 20
123.6268484266717
 42
-0.3908144705745795
 10
13.88402432975408
 20
123.9515234266717
 42
-0.2046259928850854
 10
13.88402432975413
 20
123.9515234266717
 42
0.0
 10
11.90492432975411
 20
123.9008984266716
 42
-0.0304995761723369
 97
        0
 75
     0
 76
     1
 98
        1
 10
0.0
 20
0.0
  0
HATCH
  5
C2
330
1F
100
AcDbEntity
  8
枠_表
  6
CONTINUOUS
 62
     3
100
AcDbHatch
 10
0.0
 20
0.0
 30
0.0
210
0.0
220
0.0
230
1.0
  2
SOLID
 70
     1
 71
     1
 91
        2
 92
        1
 93
        1
 72
     2
 10
16.35835466873714
 20
120.2714485961632
 40
0.3572334466769884
 50
0.0
 51
360.0
 73
     1
 97
        0
 92
        3
 72
     1
 73
     1
 93
        3
 10
15.1698993297541
 20
120.5906984266717
 42
0.1200283885712921
 10
11.90627432975405
 20
119.9696984266717
 42
-0.040182061576215
 10
11.9042493297541
 20
120.5900234266717
 42
-0.0237521668114666
 97
        0
 75
     0
 76
     1
 98
        1
 10
0.0
 20
0.0
  0
HATCH
  5
C3
330
1F
100
AcDbEntity
  8
枠_表
  6
CONTINUOUS
 62
     3
100
AcDbHatch
 10
0.0
 20
0.0
 30
0.0
210
0.0
220
0.0
230
1.0
  2
SOLID
 70
     1
 71
     1
 91
        1
 92
        3
 72
     1
 73
     1
 93
       30
 10
15.03354932975417
 20
117.1265984266717
 42
-0.0009362235736497
 10
15.0335493297541
 20
117.1265984266717
 42
0.0681165430304651
 10
14.54282432975411
 20
117.2902906513236
 42
0.0
 10
14.96469932975412
 20
117.9068984266717
 42
-0.3021125909073739
 10
14.96469932975411
 20
117.9068984266717
 42
0.0
 10
14.48814932975411
 20
118.5285734266717
 42
-0.3704245237568778
 10
14.48814932975408
 20
118.5285734266718
 42
0.0
 10
14.1695493297541
 20
118.4961734266717
 42
-0.0262822419456938
 10
13.86309932975408
 20
118.1127734266717
 42
-0.180060563604375
 10
13.67679932975412
 20
117.5012234266717
 42
-0.0298130817160724
 10
13.67679932975409
 20
117.5012234266717
 42
-0.3153987453686079
 10
13.03217432975411
 20
116.9375984266716
 42
0.0
 10
12.74394932975408
 20
116.9409734266716
 42
-0.3510306079065163
 10
11.8326993297541
 20
118.0277234266717
 42
0.0
 10
11.83269932975408
 20
118.3449734266718
 42
-0.1053356344842436
 10
12.03519932975411
 20
119.0469734266717
 42
0.1188608286962634
 10
12.54819932975413
 20
118.9187234266717
 42
0.0
 10
12.07569932975411
 20
118.1492234266717
 42
-0.2447573632916038
 10
12.0756993297541
 20
118.1492234266717
 42
0.0
 10
12.59544932975412
 20
117.4067234266717
 42
-0.3734162676407275
 10
12.59544932975409
 20
117.4067234266716
 42
0.0
 10
13.11452432975412
 20
117.6760484266717
 42
-0.2612197701908478
 10
13.34267432975412
 20
118.3044734266717
 42
-0.0572747914118362
 10
13.34267432975411
 20
118.3044734266716
 42
-0.118965887569222
 10
13.63562432975412
 20
118.8039734266717
 42
-0.2005226878639635
 10
14.10744932975631
 20
119.0132234266717
 42
0.0
 10
14.28632432975408
 20
119.0165984266717
 42
-0.2622894489606957
 10
15.10644932975413
 20
118.4799734266716
 42
-0.0988461274137807
 10
15.22727432975408
 20
117.9777734266717
 42
0.0
 10
15.22727432975412
 20
117.7914734266717
 42
-0.0920156312561188
 97
        0
 75
     0
 76
     1
 98
        1
 10
0.0
 20
0.0
  0
HATCH
  5
C4
330
1F
100
AcDbEntity
  8
枠_表
  6
CONTINUOUS
 62
     3
100
AcDbHatch
 10
0.0
 20
0.0
 30
0.0
210
0.0
220
0.0
230
1.0
  2
SOLID
 70
     1
 71
     1
 91
        2
 92
        3
 72
     1
 73
     1
 93
       27
 10
14.83644932975413
 20
127.8827234266717
 42
-0.1769427732109283
 10
14.83644932975413
 20
127.8827234266716
 42
0.0
 10
14.47194932975411
 20
127.8827234266716
 42
0.0
 10
14.47194932975408
 20
127.7949734266716
 42
-0.2075336014273071
 10
14.89932359129051
 20
127.2252577210397
 42
-0.1226604740888932
 10
14.91002432975411
 20
126.7217234266717
 42
-0.3213715781137954
 10
14.27106514378479
 20
126.2011671977758
 42
-0.064704004662446
 10
13.93329932975409
 20
126.1985984266717
 42
-0.2577989063308058
 10
13.80504932975409
 20
126.3045734266716
 42
-0.0566025777210964
 10
13.72607432975412
 20
126.5313734266717
 42
-0.0166741689362634
 10
13.5681243297541
 20
127.3629734266717
 42
0.1186092302783404
 10
13.3048743297541
 20
127.9117484266717
 42
0.1699204224386696
 10
12.90527432975409
 20
128.1506984266717
 42
0.1006533494296197
 10
12.55853555095731
 20
128.1727913320385
 42
0.1675695228968026
 10
12.0939243297541
 20
127.9562984266716
 42
0.1376980079804241
 10
11.86644932975412
 20
127.5627734266717
 42
0.0719813663796925
 10
11.83674932975411
 20
127.3838984266717
 42
0.0
 10
11.83674932975412
 20
127.1098484266716
 42
0.1944607457809085
 10
12.3045243297541
 20
126.2006234266716
 42
0.1288538183665954
 10
12.07502432975407
 20
126.1088234266717
 42
0.2098387395261543
 10
11.90964932975412
 20
125.8091234266716
 42
0.0
 10
11.90829932975413
 20
125.5917734266717
 42
0.0945009641609561
 10
11.97512432975411
 20
125.2778984266717
 42
0.0
 10
12.1323993297541
 20
125.2778984266717
 42
-0.2395739894657533
 10
12.12969932975408
 20
125.5519484266716
 42
-0.2502312110031056
 10
12.38349932975418
 20
125.6869484266717
 42
-0.0104343570771767
 10
14.2761993297541
 20
125.6687234266716
 42
0.4051015674140718
 97
        0
 92
        3
 72
     1
 73
     1
 93
        8
 10
13.60254932975409
 20
126.1864484266717
 42
-0.0339435190873663
 10
13.60254932975092
 20
126.1864484266716
 42
-0.0001110072973599
 10
12.56844932975408
 20
126.2147984266716
 42
-0.2253076310552526
 10
12.09527432975413
 20
126.9235484266717
 42
0.0
 10
12.09527432975413
 20
127.0970234266718
 42
-0.3657967558150132
 10
12.64337432975411
 20
127.6127234266717
 42
0.0
 10
12.83912432975412
 20
127.6127234266716
 42
-0.253079783036934
 10
13.32107432975409
 20
127.2644234266717
 42
-0.0724473624720067
 97
        0
 75
     0
 76
     1
 98
        1
 10
0.0
 20
0.0
  0
TEXT
  5
C6
330
1F
100
AcDbEntity
  8
枠_表
  6
CONTINUOUS
 62
     2
100
AcDbText
 10
11.35000000000006
 20
115.5999999999964
 30
0.0
 40
3.375
  1
ジャニス工業株式会社
 50
270.0
 41
1.025641025641026
  7
EXCADTTF1
 72
     5
 11
11.35000000000005
 21
70.59999999999644
 31
0.0
100
AcDbText
  0
ARC
  5
C7
330
1F
100
AcDbEntity
  8
枠_表
  6
CONTINUOUS
 62
     3
100
AcDbCircle
 10
13.46167288926891
 20
126.7731467587415
 30
0.0
 40
1.766683515327064
100
AcDbArc
 50
358.7700039330571
 51
38.90686318290443
  0
ARC
  5
C8
330
1F
100
AcDbEntity
  8
枠_表
  6
CONTINUOUS
 62
     3
100
AcDbCircle
 10
14.20191625973318
 20
126.6929372739688
 30
0.0
 40
1.02690407511459
100
AcDbArc
 50
274.1482228408146
 51
2.360009442572949
  0
ARC
  5
C9
330
1F
100
AcDbEntity
  8
枠_表
  6
CONTINUOUS
 62
     3
100
AcDbCircle
 10
12.89323843931735
 20
80.33498641612573
 30
0.0
 40
45.35482655865662
100
AcDbArc
 50
88.25266433245969
 51
90.6439560401927
  0
ARC
  5
CA
330
1F
100
AcDbEntity
  8
枠_表
  6
CONTINUOUS
 62
     3
100
AcDbCircle
 10
12.38302928780477
 20
125.3817601055363
 30
0.0
 40
0.305188683107389
100
AcDbArc
 50
89.91175481914145
 51
146.1065985968857
  0
ARC
  5
CB
330
1F
100
AcDbEntity
  8
枠_表
  6
CONTINUOUS
 62
     3
100
AcDbCircle
 10
12.40061188741093
 20
125.4175792154171
 30
0.0
 40
0.30240485913648
100
AcDbArc
 50
153.6191685566582
 51
207.5097757939563
  0
LINE
  5
CC
330
1F
100
AcDbEntity
  8
枠_表
  6
CONTINUOUS
 62
     3
100
AcDbLine
 10
11.97512432975411
 20
125.2778984266717
 30
0.0
 11
12.13239932975408
 21
125.2778984266717
 31
0.0
  0
LINE
  5
CD
330
1F
100
AcDbEntity
  8
枠_表
  6
CONTINUOUS
 62
     3
100
AcDbLine
 10
11.90964932975412
 20
125.8091234266716
 30
0.0
 11
11.90964932975412
 21
125.5917734266717
 31
0.0
  0
ARC
  5
CE
330
1F
100
AcDbEntity
  8
枠_表
  6
CONTINUOUS
 62
     3
100
AcDbCircle
 10
12.76464512823036
 20
125.6100410805408
 30
0.0
 40
0.856540620020894
100
AcDbArc
 50
181.222053929324
 51
202.8159509797653
  0
ARC
  5
CF
330
1F
100
AcDbEntity
  8
枠_表
  6
CONTINUOUS
 62
     3
100
AcDbCircle
 10
12.33367456528633
 20
125.7706226491821
 30
0.0
 40
0.425769550620398
100
AcDbArc
 50
127.4081478714984
 51
174.8118660441383
  0
ARC
  5
D0
330
1F
100
AcDbEntity
  8
枠_表
  6
CONTINUOUS
 62
     3
100
AcDbCircle
 10
12.36492594265734
 20
125.7168443944136
 30
0.0
 40
0.487535134009722
100
AcDbArc
 50
97.11676404022975
 51
126.4860549324748
  0
ARC
  5
D1
330
1F
100
AcDbEntity
  8
枠_表
  6
CONTINUOUS
 62
     3
100
AcDbCircle
 10
13.19534026256831
 20
127.2338695413266
 30
0.0
 40
1.364239920103932
100
AcDbArc
 50
185.2158792069685
 51
229.2336424873511
  0
LINE
  5
D2
330
1F
100
AcDbEntity
  8
枠_表
  6
CONTINUOUS
 62
     3
100
AcDbLine
 10
11.83674932975411
 20
127.3838984266717
 30
0.0
 11
11.83674932975411
 21
127.1098484266716
 31
0.0
  0
ARC
  5
D3
330
1F
100
AcDbEntity
  8
枠_表
  6
CONTINUOUS
 62
     3
100
AcDbCircle
 10
12.46963494387414
 20
127.3707186926292
 30
0.0
 40
0.633022832091786
100
AcDbArc
 50
162.3384873625213
 51
178.8069976857606
  0
ARC
  5
D4
330
1F
100
AcDbEntity
  8
枠_表
  6
CONTINUOUS
 62
     3
100
AcDbCircle
 10
12.68111104772599
 20
127.3543704696278
 30
0.0
 40
0.840895657756366
100
AcDbArc
 50
134.289750990011
 51
165.6505938786759
  0
ARC
  5
D5
330
1F
100
AcDbEntity
  8
枠_表
  6
CONTINUOUS
 62
     3
100
AcDbCircle
 10
12.64015021572867
 20
127.3908466708417
 30
0.0
 40
0.78619234712629
100
AcDbArc
 50
95.95861263384197
 51
134.009198931986
  0
ARC
  5
D6
330
1F
100
AcDbEntity
  8
枠_表
  6
CONTINUOUS
 62
     3
100
AcDbCircle
 10
12.67758712547747
 20
127.3092498142968
 30
0.0
 40
0.871709372588669
100
AcDbArc
 50
74.85894579250447
 51
97.8495628504518
  0
ARC
  5
D7
330
1F
100
AcDbEntity
  8
枠_表
  6
CONTINUOUS
 62
     3
100
AcDbCircle
 10
12.76366332500804
 20
127.4602762096952
 30
0.0
 40
0.704795370557922
100
AcDbArc
 50
39.83448923590693
 51
78.40894470246283
  0
ARC
  5
D8
330
1F
100
AcDbEntity
  8
枠_表
  6
CONTINUOUS
 62
     3
100
AcDbCircle
 10
12.29608481482875
 20
127.0902986132389
 30
0.0
 40
1.30093661698492
100
AcDbArc
 50
12.09884462938389
 51
39.1556705448828
  0
ARC
  5
D9
330
1F
100
AcDbEntity
  8
枠_表
  6
CONTINUOUS
 62
     3
100
AcDbCircle
 10
26.11202029775215
 20
129.3146990001388
 30
0.0
 40
12.69482409370382
100
AcDbArc
 50
188.8438342053764
 51
192.6649181367123
  0
ARC
  5
DA
330
1F
100
AcDbEntity
  8
枠_表
  6
CONTINUOUS
 62
     3
100
AcDbCircle
 10
14.76407362688751
 20
126.7656694988877
 30
0.0
 40
1.064113335272784
100
AcDbArc
 50
192.7195832898965
 51
205.678111277808
  0
ARC
  5
DB
330
1F
100
AcDbEntity
  8
枠_表
  6
CONTINUOUS
 62
     3
100
AcDbCircle
 10
13.96511332504291
 20
126.3676904432633
 30
0.0
 40
0.172058828228131
100
AcDbArc
 50
201.5204897073512
 51
259.3445900274031
  0
ARC
  5
DC
330
1F
100
AcDbEntity
  8
枠_表
  6
CONTINUOUS
 62
     3
100
AcDbCircle
 10
14.09229870375127
 20
127.499461264331
 30
0.0
 40
1.310543751018921
100
AcDbArc
 50
263.0315250986587
 51
277.8399479706784
  0
ARC
  5
DD
330
1F
100
AcDbEntity
  8
枠_表
  6
CONTINUOUS
 62
     3
100
AcDbCircle
 10
14.22741886153425
 20
126.9071658718198
 30
0.0
 40
0.707346538626002
100
AcDbArc
 50
273.5376399679994
 51
344.8013566619203
  0
ARC
  5
DE
330
1F
100
AcDbEntity
  8
枠_表
  6
CONTINUOUS
 62
     3
100
AcDbCircle
 10
13.89383830513025
 20
126.9520090420136
 30
0.0
 40
1.04195273466423
100
AcDbArc
 50
347.231432613617
 51
15.20341596431492
  0
ARC
  5
DF
330
1F
100
AcDbEntity
  8
枠_表
  6
CONTINUOUS
 62
     3
100
AcDbCircle
 10
14.02890191857885
 20
127.0174638229668
 30
0.0
 40
0.894881105176719
100
AcDbArc
 50
13.42679454697442
 51
60.32426137379932
  0
LINE
  5
E0
330
1F
100
AcDbEntity
  8
枠_表
  6
CONTINUOUS
 62
     3
100
AcDbLine
 10
14.83644932975413
 20
127.8827234266716
 30
0.0
 11
14.47194932975411
 21
127.8827234266716
 31
0.0
  0
ARC
  5
E1
330
1F
100
AcDbEntity
  8
枠_表
  6
CONTINUOUS
 62
     3
100
AcDbCircle
 10
12.37342761922791
 20
137.385604347726
 30
0.0
 40
6.967015049800598
100
AcDbArc
 50
263.1274757312912
 51
267.106204490141
  0
ARC
  5
E2
330
1F
100
AcDbEntity
  8
枠_表
  6
CONTINUOUS
 62
     3
100
AcDbCircle
 10
14.75197335838845
 20
179.8661447877035
 30
0.0
 40
49.51400430399008
100
AcDbArc
 50
266.8390243485978
 51
272.9711338131872
  0
ARC
  5
E3
330
1F
100
AcDbEntity
  8
枠_表
  6
CONTINUOUS
 62
     3
100
AcDbCircle
 10
11.73407518472918
 20
131.1907261350365
 30
0.0
 40
0.747769185530633
100
AcDbArc
 50
224.592391474832
 51
254.9374073189123
  0
ARC
  5
E4
330
1F
100
AcDbEntity
  8
枠_表
  6
CONTINUOUS
 62
     3
100
AcDbCircle
 10
12.16759859445993
 20
131.4165271031423
 30
0.0
 40
1.223467000390025
100
AcDbArc
 50
198.1715191042997
 51
217.8537826235693
  0
LINE
  5
E5
330
1F
100
AcDbEntity
  8
枠_表
  6
CONTINUOUS
 62
     3
100
AcDbLine
 10
10.6291743297541
 20
130.9114484266717
 30
0.0
 11
11.00514932975408
 21
131.0349734266717
 31
0.0
  0
ARC
  5
E6
330
1F
100
AcDbEntity
  8
枠_表
  6
CONTINUOUS
 62
     3
100
AcDbCircle
 10
12.8722315291539
 20
131.1904425013302
 30
0.0
 40
2.260341410821362
100
AcDbArc
 50
187.09010272397
 51
200.9134154817058
  0
ARC
  5
E7
330
1F
100
AcDbEntity
  8
枠_表
  6
CONTINUOUS
 62
     3
100
AcDbCircle
 10
12.39383518626834
 20
130.8610267211419
 30
0.0
 40
1.701394688196115
100
AcDbArc
 50
196.2966123578915
 51
239.973223283839
  0
ARC
  5
E8
330
1F
100
AcDbEntity
  8
枠_表
  6
CONTINUOUS
 62
     3
100
AcDbCircle
 10
12.49631356880097
 20
131.4510063820906
 30
0.0
 40
2.272875263114311
100
AcDbArc
 50
245.1860595856124
 51
271.3080759130594
  0
ARC
  5
E9
330
1F
100
AcDbEntity
  8
枠_表
  6
CONTINUOUS
 62
     3
100
AcDbCircle
 10
14.22960360950848
 20
64.24574685865326
 30
0.0
 40
64.95474244683605
100
AcDbArc
 50
87.26959263073037
 51
91.4833117237826
  0
ARC
  5
EA
330
1F
100
AcDbEntity
  8
枠_表
  6
CONTINUOUS
 62
     3
100
AcDbCircle
 10
21.67417570522228
 20
129.790917998774
 30
0.0
 40
4.400758833490466
100
AcDbArc
 50
171.7986203004403
 51
188.6803384946418
  0
ARC
  5
EB
330
1F
100
AcDbEntity
  8
枠_表
  6
CONTINUOUS
 62
     3
100
AcDbCircle
 10
17.5750138116051
 20
127.3394390064594
 30
0.0
 40
4.136406814694017
100
AcDbArc
 50
188.4088456599977
 51
196.1851416003176
  0
ARC
  5
EC
330
1F
100
AcDbEntity
  8
枠_表
  6
CONTINUOUS
 62
     3
100
AcDbCircle
 10
11.58318862667981
 20
126.4433934824197
 30
0.0
 40
1.922065786155208
100
AcDbArc
 50
8.712717101917915
 51
25.2874718053599
  0
ARC
  5
ED
330
1F
100
AcDbEntity
  8
枠_表
  6
CONTINUOUS
 62
     3
100
AcDbCircle
 10
12.75807479047187
 20
126.9929813316183
 30
0.0
 40
0.625019433457053
100
AcDbArc
 50
25.74036886334938
 51
82.54917444421913
  0
LINE
  5
EE
330
1F
100
AcDbEntity
  8
枠_表
  6
CONTINUOUS
 62
     3
100
AcDbLine
 10
12.83912432975409
 20
127.6127234266717
 30
0.0
 11
12.64337432975411
 21
127.6127234266717
 31
0.0
  0
ARC
  5
EF
330
1F
100
AcDbEntity
  8
枠_表
  6
CONTINUOUS
 62
     3
100
AcDbCircle
 10
12.67461380097789
 20
127.0304034651093
 30
0.0
 40
0.583157304846997
100
AcDbArc
 50
93.07077870957934
 51
173.4402016072426
  0
LINE
  5
F0
330
1F
100
AcDbEntity
  8
枠_表
  6
CONTINUOUS
 62
     3
100
AcDbLine
 10
12.09527432975413
 20
127.0970234266717
 30
0.0
 11
12.09527432975413
 21
126.9235484266717
 31
0.0
  0
ARC
  5
F1
330
1F
100
AcDbEntity
  8
枠_表
  6
CONTINUOUS
 62
     3
100
AcDbCircle
 10
13.0783648953021
 20
127.0675530923375
 30
0.0
 40
0.993581603997916
100
AcDbArc
 50
188.3335103000368
 51
239.12214641873
  0
ARC
  5
F2
330
1F
100
AcDbEntity
  8
枠_表
  6
CONTINUOUS
 62
     3
100
AcDbCircle
 10
76.93265245587878
 20
2455.101542217732
 30
0.0
 40
2329.776001260591
100
AcDbArc
 50
268.4169008257798
 51
268.4423418242108
  0
ARC
  5
F3
330
1F
100
AcDbEntity
  8
枠_表
  6
CONTINUOUS
 62
     3
100
AcDbCircle
 10
7.950692545117123
 20
124.2419121993036
 30
0.0
 40
3.968909094418497
100
AcDbArc
 50
355.0709955167469
 51
3.918300293432266
  0
ARC
  5
F4
330
1F
100
AcDbEntity
  8
枠_表
  6
CONTINUOUS
 62
     3
100
AcDbCircle
 10
12.79150147009817
 20
116.5591142104863
 30
0.0
 40
7.395120993114926
100
AcDbArc
 50
89.89774581659873
 51
96.88556757342675
  0
ARC
  5
F5
330
1F
100
AcDbEntity
  8
枠_表
  6
CONTINUOUS
 62
     3
100
AcDbCircle
 10
13.90795225138059
 20
122.8433827763327
 30
0.0
 40
1.108398956318131
100
AcDbArc
 50
44.97874762333472
 51
91.23698729832816
  0
ARC
  5
F6
330
1F
100
AcDbEntity
  8
枠_表
  6
CONTINUOUS
 62
     3
100
AcDbCircle
 10
14.02366273138692
 20
123.0989985479414
 30
0.0
 40
0.851645057047003
100
AcDbArc
 50
312.9164447404285
 51
38.30155423513362
  0
ARC
  5
F7
330
1F
100
AcDbEntity
  8
枠_表
  6
CONTINUOUS
 62
     3
100
AcDbCircle
 10
14.00315138821558
 20
123.4055259543114
 30
0.0
 40
1.107172507744154
100
AcDbArc
 50
269.2495022237244
 51
302.8405501667833
  0
ARC
  5
F8
330
1F
100
AcDbEntity
  8
枠_表
  6
CONTINUOUS
 62
     3
100
AcDbCircle
 10
13.17751337882469
 20
138.7882662134993
 30
0.0
 40
16.50975566668588
100
AcDbArc
 50
265.58624548738
 51
272.8161158068203
  0
ARC
  5
F9
330
1F
100
AcDbEntity
  8
枠_表
  6
CONTINUOUS
 62
     3
100
AcDbCircle
 10
8.760152619227812
 20
122.0422859266716
 30
0.0
 40
3.159693252126744
100
AcDbArc
 50
354.8215518929414
 51
5.178448107058751
  0
ARC
  5
FA
330
1F
100
AcDbEntity
  8
枠_表
  6
CONTINUOUS
 62
     3
100
AcDbCircle
 10
12.69067374739135
 20
105.4342366338269
 30
0.0
 40
16.34166579853822
100
AcDbArc
 50
86.21317803194883
 51
92.74888333379353
  0
ARC
  5
FB
330
1F
100
AcDbEntity
  8
枠_表
  6
CONTINUOUS
 62
     3
100
AcDbCircle
 10
13.93315774812145
 20
127.8808639878961
 30
0.0
 40
6.142809087866958
100
AcDbArc
 50
268.4775281223095
 51
272.1172324142101
  0
ARC
  5
FC
330
1F
100
AcDbEntity
  8
枠_表
  6
CONTINUOUS
 62
     3
100
AcDbCircle
 10
14.1628594245153
 20
122.9209448465485
 30
0.0
 40
1.17869965146059
100
AcDbArc
 50
269.8658335690531
 51
304.4936342941115
  0
ARC
  5
FD
330
1F
100
AcDbEntity
  8
枠_表
  6
CONTINUOUS
 62
     3
100
AcDbCircle
 10
14.29204664797997
 20
122.722759425859
 30
0.0
 40
0.94221437555554
100
AcDbArc
 50
304.8439373709161
 51
2.520706542311074
  0
ARC
  5
FE
330
1F
100
AcDbEntity
  8
枠_表
  6
CONTINUOUS
 62
     3
100
AcDbCircle
 10
13.89275988818603
 20
122.8245893099712
 30
0.0
 40
1.34194899665726
100
AcDbArc
 50
357.4206831038103
 51
57.43615189668618
  0
ARC
  5
FF
330
1F
100
AcDbEntity
  8
枠_表
  6
CONTINUOUS
 62
     3
100
AcDbCircle
 10
14.70785681383056
 20
120.1942527260351
 30
0.0
 40
3.762465500458181
100
AcDbArc
 50
82.98752144163112
 51
91.4134392789641
  0
ARC
  5
100
330
1F
100
AcDbEntity
  8
枠_表
  6
CONTINUOUS
 62
     3
100
AcDbCircle
 10
16.32206879814491
 20
124.2291715013843
 30
0.0
 40
1.193349358546016
100
AcDbArc
 50
165.9341994177206
 51
194.5896440601899
  0
ARC
  5
101
330
1F
100
AcDbEntity
  8
枠_表
  6
CONTINUOUS
 62
     3
100
AcDbCircle
 10
13.4993805867175
 20
144.8882301132808
 30
0.0
 40
20.43697806131072
100
AcDbArc
 50
265.5405243117486
 51
274.6733986986563
  0
LINE
  5
102
330
1F
100
AcDbEntity
  8
枠_表
  6
CONTINUOUS
 62
     3
100
AcDbLine
 10
13.88402432975413
 20
123.9515234266717
 30
0.0
 11
12.80469932975409
 21
123.9515234266717
 31
0.0
  0
CIRCLE
  5
103
330
1F
100
AcDbEntity
  8
枠_表
  6
CONTINUOUS
 62
     3
100
AcDbCircle
 10
16.35835466873714
 20
120.2714485961632
 30
0.0
 40
0.357233446676989
  0
ARC
  5
104
330
1F
100
AcDbEntity
  8
枠_表
  6
CONTINUOUS
 62
     3
100
AcDbCircle
 10
16.45332474358081
 20
120.2854392397194
 30
0.0
 40
1.319228548840207
100
AcDbArc
 50
166.6209501743447
 51
193.9984576255729
  0
ARC
  5
105
330
1F
100
AcDbEntity
  8
枠_表
  6
CONTINUOUS
 62
     3
100
AcDbCircle
 10
5.379804184123359
 20
120.2585591062834
 30
0.0
 40
6.532859485251088
100
AcDbArc
 50
357.4657505504472
 51
2.908322851021861
  0
ARC
  5
106
330
1F
100
AcDbEntity
  8
枠_表
  6
CONTINUOUS
 62
     3
100
AcDbCircle
 10
13.5188100573939
 20
99.67459528204103
 30
0.0
 40
20.35906390589
100
AcDbArc
 50
85.33876083975656
 51
94.54285949261762
  0
ARC
  5
107
330
1F
100
AcDbEntity
  8
枠_表
  6
CONTINUOUS
 62
     3
100
AcDbCircle
 10
13.53249792766239
 20
142.730994246358
 30
0.0
 40
22.20076085035812
100
AcDbArc
 50
265.7940354718674
 51
274.2296502572344
  0
ARC
  5
108
330
1F
100
AcDbEntity
  8
枠_表
  6
CONTINUOUS
 62
     3
100
AcDbCircle
 10
96.20297432964206
 20
85.73555467671524
 30
0.0
 40
87.02800228963156
100
AcDbArc
 50
158.6422112053103
 51
158.8567777804232
  0
ARC
  5
109
330
1F
100
AcDbEntity
  8
枠_表
  6
CONTINUOUS
 62
     3
100
AcDbCircle
 10
14.21663038363958
 20
117.814571715391
 30
0.0
 40
1.010907867592157
100
AcDbArc
 50
337.6615195708736
 51
358.6907316844898
  0
ARC
  5
10A
330
1F
100
AcDbEntity
  8
枠_表
  6
CONTINUOUS
 62
     3
100
AcDbCircle
 10
13.90979097937615
 20
117.9228895571576
 30
0.0
 40
1.319974865367525
100
AcDbArc
 50
2.383015745764864
 51
24.9635286746436
  0
ARC
  5
10B
330
1F
100
AcDbEntity
  8
枠_表
  6
CONTINUOUS
 62
     3
100
AcDbCircle
 10
14.22009291101868
 20
118.0203650320006
 30
0.0
 40
0.99843256030919
100
AcDbArc
 50
27.40839959399765
 51
86.19646882156954
  0
ARC
  5
10C
330
1F
100
AcDbEntity
  8
枠_表
  6
CONTINUOUS
 62
     3
100
AcDbCircle
 10
14.12192769075533
 20
118.3440074207367
 30
0.0
 40
0.669372605905611
100
AcDbArc
 50
91.23938994435812
 51
136.5942921332421
  0
ARC
  5
10D
330
1F
100
AcDbEntity
  8
枠_表
  6
CONTINUOUS
 62
     3
100
AcDbCircle
 10
14.5239641100669
 20
117.9473185420017
 30
0.0
 40
1.234100950779567
100
AcDbArc
 50
136.0402388947521
 51
163.1776672992999
  0
ARC
  5
10E
330
1F
100
AcDbEntity
  8
枠_表
  6
CONTINUOUS
 62
     3
100
AcDbCircle
 10
10.49457141755214
 20
118.9828510816924
 30
0.0
 40
2.927778413972754
100
AcDbArc
 50
333.4905020373357
 51
346.6025921984959
  0
ARC
  5
10F
330
1F
100
AcDbEntity
  8
枠_表
  6
CONTINUOUS
 62
     3
100
AcDbCircle
 10
12.69846225433171
 20
117.86919954146
 30
0.0
 40
0.458710152219014
100
AcDbArc
 50
276.5389241941591
 51
335.0975608069369
  0
ARC
  5
110
330
1F
100
AcDbEntity
  8
枠_表
  6
CONTINUOUS
 62
     3
100
AcDbCircle
 10
12.6700236375717
 20
117.9964222255316
 30
0.0
 40
0.594395491876676
100
AcDbArc
 50
180.8867385422408
 51
262.7925382056678
  0
ARC
  5
111
330
1F
100
AcDbEntity
  8
枠_表
  6
CONTINUOUS
 62
     3
100
AcDbCircle
 10
12.96658639777386
 20
118.0363895676481
 30
0.0
 40
0.898004035462527
100
AcDbArc
 50
117.7689879465537
 51
172.7817283832025
  0
ARC
  5
112
330
1F
100
AcDbEntity
  8
枠_表
  6
CONTINUOUS
 62
     3
100
AcDbCircle
 10
13.58156576811028
 20
118.220699454069
 30
0.0
 40
1.75327631578002
100
AcDbArc
 50
151.8829576087176
 51
175.9354096935781
  0
ARC
  5
113
330
1F
100
AcDbEntity
  8
枠_表
  6
CONTINUOUS
 62
     3
100
AcDbCircle
 10
12.96692467118048
 20
118.0533611353211
 30
0.0
 40
1.134515058180645
100
AcDbArc
 50
181.2948770866743
 51
258.6654156292868
  0
ARC
  5
114
330
1F
100
AcDbEntity
  8
枠_表
  6
CONTINUOUS
 62
     3
100
AcDbCircle
 10
12.95217258531578
 20
117.6795427870772
 30
0.0
 40
0.746245075729606
100
AcDbArc
 50
276.1542627631773
 51
346.1750990425562
  0
ARC
  5
115
330
1F
100
AcDbEntity
  8
枠_表
  6
CONTINUOUS
 62
     3
100
AcDbCircle
 10
18.89359310503515
 20
116.2461533030761
 30
0.0
 40
5.36564425851668
100
AcDbArc
 50
159.6420733479936
 51
166.4727051201885
  0
ARC
  5
116
330
1F
100
AcDbEntity
  8
枠_表
  6
CONTINUOUS
 62
     3
100
AcDbCircle
 10
14.53138641766616
 20
117.8927864761222
 30
0.0
 40
0.703563707337184
100
AcDbArc
 50
120.9501336849606
 51
161.779472982108
  0
ARC
  5
117
330
1F
100
AcDbEntity
  8
枠_表
  6
CONTINUOUS
 62
     3
100
AcDbCircle
 10
14.63823182975447
 20
117.1696859266704
 30
0.0
 40
1.4068519372934
100
AcDbArc
 50
103.4375782160213
 51
109.459638038058
  0
ARC
  5
118
330
1F
100
AcDbEntity
  8
枠_表
  6
CONTINUOUS
 62
     3
100
AcDbCircle
 10
14.42674994707924
 20
117.9964903513914
 30
0.0
 40
0.535613931103931
100
AcDbArc
 50
2.114043644491606
 51
83.41750470260911
  0
ARC
  5
119
330
1F
100
AcDbEntity
  8
枠_表
  6
CONTINUOUS
 62
     3
100
AcDbCircle
 10
14.35429236291672
 20
117.9585266087217
 30
0.0
 40
0.612586430102253
100
AcDbArc
 50
287.9245221168126
 51
355.165433190774
  0
LINE
  5
11A
330
1F
100
AcDbEntity
  8
枠_表
  6
CONTINUOUS
 62
     3
100
AcDbLine
 10
15.22727432975408
 20
117.7914734266716
 30
0.0
 11
15.22727432975408
 21
117.9777734266717
 31
0.0
  0
LINE
  5
11B
330
1F
100
AcDbEntity
  8
枠_表
  6
CONTINUOUS
 62
     3
100
AcDbLine
 10
12.0756993297541
 20
118.1492234266717
 30
0.0
 11
12.0756993297541
 21
117.9872234266716
 31
0.0
  0
LINE
  5
11C
330
1F
100
AcDbEntity
  8
枠_表
  6
CONTINUOUS
 62
     3
100
AcDbLine
 10
12.54819932975413
 20
118.8309734266716
 30
0.0
 11
12.54819932975413
 21
118.9187234266717
 31
0.0
  0
LINE
  5
11D
330
1F
100
AcDbEntity
  8
枠_表
  6
CONTINUOUS
 62
     3
100
AcDbLine
 10
11.8326993297541
 20
118.3449734266717
 30
0.0
 11
11.8326993297541
 21
118.0277234266717
 31
0.0
  0
LINE
  5
11E
330
1F
100
AcDbEntity
  8
枠_表
  6
CONTINUOUS
 62
     3
100
AcDbLine
 10
14.47194932975411
 20
127.8827234266716
 30
0.0
 11
14.47194932975411
 21
127.7949734266717
 31
0.0
  0
ARC
  5
11F
330
1F
100
AcDbEntity
  8
枠_表
  6
CONTINUOUS
 62
     3
100
AcDbCircle
 10
12.55779759565006
 20
120.0465586867873
 30
0.0
 40
1.127953740078838
100
AcDbArc
 50
242.3987521421789
 51
269.5124385477116
  0
LINE
  5
120
330
1F
100
AcDbEntity
  8
枠_表
  6
CONTINUOUS
 62
     3
100
AcDbLine
 10
12.75069932975411
 20
117.4134734266717
 30
0.0
 11
12.59544932975409
 21
117.4067234266716
 31
0.0
  0
LINE
  5
121
330
1F
100
AcDbEntity
  8
枠_表
  6
CONTINUOUS
 62
     3
100
AcDbLine
 10
13.03217432975411
 20
116.9375984266716
 30
0.0
 11
12.7439493297541
 21
116.9409734266717
 31
0.0
  0
LINE
  5
122
330
1F
100
AcDbEntity
  8
枠_表
  6
CONTINUOUS
 62
     3
100
AcDbLine
 10
14.48814932975408
 20
118.5285734266718
 30
0.0
 11
14.31129932975408
 21
118.5380234266717
 31
0.0
  0
LINE
  5
123
330
1F
100
AcDbEntity
  8
枠_表
  6
CONTINUOUS
 62
     3
100
AcDbLine
 10
14.28632432975409
 20
119.0165984266717
 30
0.0
 11
14.10744932975631
 21
119.0132234266717
 31
0.0
  0
LINE
  5
124
330
1F
100
AcDbEntity
  8
枠_表
  6
CONTINUOUS
 62
     3
100
AcDbLine
 10
14.96199932975411
 20
118.0162484266717
 30
0.0
 11
14.96469932975411
 21
117.9068984266717
 31
0.0
  0
LINE
  5
125
330
1F
100
AcDbEntity
  8
枠_表
  6
CONTINUOUS
 62
     3
100
AcDbLine
 10
14.54282432975411
 20
117.3756734266717
 30
0.0
 11
14.54282432975411
 21
117.2902906513236
 31
0.0
  0
ARC
  5
126
330
1F
100
AcDbEntity
  8
枠_表
  6
CONTINUOUS
 62
     3
100
AcDbCircle
 10
14.19019437507499
 20
115.4157518931096
 30
0.0
 40
1.907418003737831
100
AcDbArc
 50
63.75919181584974
 51
79.34627598019162
  0
TEXT
  5
127
330
1F
100
AcDbEntity
  8
枠_表
  6
CONTINUOUS
 62
     7
100
AcDbText
 10
11.14999999999998
 20
57.0
 30
0.0
 40
6.0
  1
ＬＵ７１８１６０
 50
270.0
 41
1.017730496453901
  7
EXCADSTD
 72
     5
 11
11.14999999999997
 21
16.0
 31
0.0
100
AcDbText
  0
LINE
  5
128
330
1F
100
AcDbEntity
  8
枠_表
  6
CONTINUOUS
 62
     6
100
AcDbLine
 10
21.30029296999999
 20
19.23461914000001
 30
0.0
 11
29.16998290999999
 21
11.50061034999999
 31
0.0
  0
LINE
  5
129
330
1F
100
AcDbEntity
  8
枠_表
  6
CONTINUOUS
 62
     6
100
AcDbLine
 10
36.70000000000002
 20
148.3
 30
0.0
 11
108.7000000000001
 21
148.3
 31
0.0
  0
LINE
  5
12A
330
1F
100
AcDbEntity
  8
枠_表
  6
CONTINUOUS
 62
     6
100
AcDbLine
 10
36.70000000000002
 20
163.3
 30
0.0
 11
108.7000000000001
 21
163.3
 31
0.0
  0
LINE
  5
12B
330
1F
100
AcDbEntity
  8
枠_表
  6
CONTINUOUS
 62
     6
100
AcDbLine
 10
36.70000000000002
 20
168.3
 30
0.0
 11
108.7000000000001
 21
168.3
 31
0.0
  0
TEXT
  5
12C
330
1F
100
AcDbEntity
  8
枠_表
  6
CONTINUOUS
 62
     2
100
AcDbText
 10
37.20000002980201
 20
163.8
 30
0.0
 40
4.0
  1
配管スペース
 41
0.9999999970197677
  7
EXCADSTD
 72
     5
 11
57.19999997019737
 21
163.8
 31
0.0
100
AcDbText
  0
TEXT
  5
12D
330
1F
100
AcDbEntity
  8
枠_表
  6
CONTINUOUS
 62
     2
100
AcDbText
 10
64.00000001192103
 20
163.8
 30
0.0
 40
4.0
  1
排水心
 41
1.070588232839809
  7
EXCADSTD
 72
     5
 11
74.39999998807917
 21
163.8
 31
0.0
100
AcDbText
  0
TEXT
  5
12E
330
1F
100
AcDbEntity
  8
枠_表
  6
CONTINUOUS
 62
     2
100
AcDbText
 10
84.70000002980242
 20
163.8
 30
0.0
 40
4.0
  1
排水接続部材
 41
0.9999999970197677
  7
EXCADSTD
 72
     5
 11
104.6999999701978
 21
163.8
 31
0.0
100
AcDbText
  0
TEXT
  5
12F
330
1F
100
AcDbEntity
  8
枠_表
  6
CONTINUOUS
 62
     2
100
AcDbText
 10
64.00000001192103
 20
158.8
 30
0.0
 40
4.0
  1
２００
 41
1.070588232839809
  7
EXCADSTD
 72
     5
 11
74.39999998807917
 21
158.8
 31
0.0
100
AcDbText
  0
TEXT
  5
130
330
1F
100
AcDbEntity
  8
枠_表
  6
CONTINUOUS
 62
     2
100
AcDbText
 10
64.00000001192103
 20
153.8
 30
0.0
 40
4.0
  1
２８０
 41
1.070588232839809
  7
EXCADSTD
 72
     5
 11
74.39999998807917
 21
153.8
 31
0.0
100
AcDbText
  0
TEXT
  5
131
330
1F
100
AcDbEntity
  8
枠_表
  6
CONTINUOUS
 62
     2
100
AcDbText
 10
57.60000003576289
 20
148.8
 30
0.0
 40
4.0
  1
３８５～４６０
 41
0.9902438993861036
  7
EXCADSTD
 72
     5
 11
80.79999996423732
 21
148.8
 31
0.0
100
AcDbText
  0
TEXT
  5
132
330
1F
100
AcDbEntity
  8
枠_表
  6
CONTINUOUS
 62
     2
100
AcDbText
 10
83.10000003576289
 20
148.8
 30
0.0
 40
4.0
  1
排水アジャスタ
 41
0.9902438993861036
  7
EXCADSTD
 72
     5
 11
106.2999999642373
 21
148.8
 31
0.0
100
AcDbText
  0
LINE
  5
133
330
1F
100
AcDbEntity
  8
枠_表
  6
CONTINUOUS
 62
     6
100
AcDbLine
 10
36.70000000000002
 20
168.3
 30
0.0
 11
36.70000000000002
 21
148.3
 31
0.0
  0
LINE
  5
134
330
1F
100
AcDbEntity
  8
枠_表
  6
CONTINUOUS
 62
     6
100
AcDbLine
 10
57.70000000000003
 20
168.3
 30
0.0
 11
57.70000000000003
 21
148.3
 31
0.0
  0
LINE
  5
135
330
1F
100
AcDbEntity
  8
枠_表
  6
CONTINUOUS
 62
     6
100
AcDbLine
 10
80.70000000000005
 20
168.3
 30
0.0
 11
80.70000000000005
 21
148.3
 31
0.0
  0
LINE
  5
136
330
1F
100
AcDbEntity
  8
枠_表
  6
CONTINUOUS
 62
     6
100
AcDbLine
 10
108.7000000000001
 20
168.3
 30
0.0
 11
108.7000000000001
 21
148.3
 31
0.0
  0
LINE
  5
137
330
1F
100
AcDbEntity
  8
枠_表
  6
CONTINUOUS
 62
     6
100
AcDbLine
 10
57.70000000000002
 20
153.3
 30
0.0
 11
108.7000000000001
 21
153.3
 31
0.0
  0
TEXT
  5
138
330
1F
100
AcDbEntity
  8
枠_表
  6
CONTINUOUS
 62
     2
100
AcDbText
 10
84.70000002980242
 20
156.3
 30
0.0
 40
4.0
  1
排水ソケット
 41
0.9999999970197677
  7
EXCADSTD
 72
     5
 11
104.6999999701978
 21
156.3
 31
0.0
100
AcDbText
  0
LINE
  5
139
330
1F
100
AcDbEntity
  8
枠_表
  6
CONTINUOUS
 62
     6
100
AcDbLine
 10
57.70000000000002
 20
158.3
 30
0.0
 11
80.70000000000002
 21
158.3
 31
0.0
  0
LINE
  5
13A
330
1F
100
AcDbEntity
  8
枠_表
  6
CONTINUOUS
 62
     6
100
AcDbLine
 10
36.70000000000002
 20
135.3
 30
0.0
 11
108.7000000000001
 21
135.3
 31
0.0
  0
LINE
  5
13B
330
1F
100
AcDbEntity
  8
枠_表
  6
CONTINUOUS
 62
     6
100
AcDbLine
 10
36.70000000000002
 20
140.3
 30
0.0
 11
108.7000000000001
 21
140.3
 31
0.0
  0
TEXT
  5
13C
330
1F
100
AcDbEntity
  8
枠_表
  6
CONTINUOUS
 62
     2
100
AcDbText
 10
37.20000002980201
 20
135.8
 30
0.0
 40
4.0
  1
配管スペース
 41
0.9999999970197677
  7
EXCADSTD
 72
     5
 11
57.19999997019737
 21
135.8
 31
0.0
100
AcDbText
  0
TEXT
  5
13D
330
1F
100
AcDbEntity
  8
枠_表
  6
CONTINUOUS
 62
     2
100
AcDbText
 10
38.80000002384195
 20
153.8
 30
0.0
 40
4.0
  1
９５の場合
 41
1.01379310057081
  7
EXCADSTD
 72
     5
 11
55.59999997615823
 21
153.8
 31
0.0
100
AcDbText
  0
LINE
  5
13E
330
1F
100
AcDbEntity
  8
枠_表
  6
CONTINUOUS
 62
     6
100
AcDbLine
 10
36.70000000000002
 20
130.3
 30
0.0
 11
108.7000000000001
 21
130.3
 31
0.0
  0
TEXT
  5
13F
330
1F
100
AcDbEntity
  8
枠_表
  6
CONTINUOUS
 62
     2
100
AcDbText
 10
38.20000002980241
 20
130.8
 30
0.0
 40
4.0
  1
 ９５の場合
 41
0.8749999971025519
  7
EXCADSTD
 72
     5
 11
56.19999997019777
 21
130.8
 31
0.0
100
AcDbText
  0
LINE
  5
140
330
1F
100
AcDbEntity
  8
枠_表
  6
CONTINUOUS
 62
     6
100
AcDbLine
 10
36.70000000000002
 20
140.3
 30
0.0
 11
36.70000000000002
 21
130.3
 31
0.0
  0
LINE
  5
141
330
1F
100
AcDbEntity
  8
枠_表
  6
CONTINUOUS
 62
     6
100
AcDbLine
 10
57.70000000000003
 20
140.3
 30
0.0
 11
57.70000000000003
 21
130.3
 31
0.0
  0
LINE
  5
142
330
1F
100
AcDbEntity
  8
枠_表
  6
CONTINUOUS
 62
     6
100
AcDbLine
 10
108.7000000000001
 20
140.3
 30
0.0
 11
108.7000000000001
 21
130.3
 31
0.0
  0
TEXT
  5
143
330
1F
100
AcDbEntity
  8
枠_表
  6
CONTINUOUS
 62
     2
100
AcDbText
 10
34.50000000000001
 20
182.7
 30
0.0
 40
4.0
  1
※注意事項（便器設置）
 41
0.9692307660212887
  7
EXCADSTD
 72
     5
 11
70.49999988079072
 21
182.7
 31
0.0
100
AcDbText
  0
TEXT
  5
144
330
1F
100
AcDbEntity
  8
枠_表
  6
CONTINUOUS
 62
     2
100
AcDbText
 10
34.50000000000001
 20
178.7
 30
0.0
 40
4.0
  1
　本手洗キャビを設置するには、便器と後壁の間に
 41
0.9503649601536073
  7
EXCADSTD
 72
     5
 11
108.8999997377396
 21
178.7
 31
0.0
100
AcDbText
  0
TEXT
  5
145
330
1F
100
AcDbEntity
  8
枠_表
  6
CONTINUOUS
 62
     2
100
AcDbText
 10
34.50000000000001
 20
174.7
 30
0.0
 40
4.0
  1
　８５ミリ以上の配管スペースが必要です
 41
0.9539822975618648
  7
EXCADSTD
 72
     5
 11
96.0999997854233
 21
174.7
 31
0.0
100
AcDbText
  0
LINE
  5
146
330
1F
100
AcDbEntity
  8
枠_表
  6
CONTINUOUS
 62
     6
100
AcDbLine
 10
83.20000000000002
 20
140.3
 30
0.0
 11
83.20000000000002
 21
130.3
 31
0.0
  0
TEXT
  5
147
330
1F
100
AcDbEntity
  8
枠_表
  6
CONTINUOUS
 62
     2
100
AcDbText
 10
62.05000002384195
 20
135.8
 30
0.0
 40
4.0
  1
排水管出代
 41
1.01379310057081
  7
EXCADSTD
 72
     5
 11
78.84999997615823
 21
135.8
 31
0.0
100
AcDbText
  0
TEXT
  5
148
330
1F
100
AcDbEntity
  8
枠_表
  6
CONTINUOUS
 62
     2
100
AcDbText
 10
65.25000001192102
 20
130.8
 30
0.0
 40
4.0
  1
１６５
 41
1.070588232839809
  7
EXCADSTD
 72
     5
 11
75.64999998807916
 21
130.8
 31
0.0
100
AcDbText
  0
TEXT
  5
149
330
1F
100
AcDbEntity
  8
枠_表
  6
CONTINUOUS
 62
     2
100
AcDbText
 10
87.55000002384197
 20
135.8
 30
0.0
 40
4.0
  1
排水管高さ
 41
1.01379310057081
  7
EXCADSTD
 72
     5
 11
104.3499999761583
 21
135.8
 31
0.0
100
AcDbText
  0
TEXT
  5
14A
330
1F
100
AcDbEntity
  8
枠_表
  6
CONTINUOUS
 62
     2
100
AcDbText
 10
90.75000001192105
 20
130.8
 30
0.0
 40
4.0
  1
１２０
 41
1.070588232839809
  7
EXCADSTD
 72
     5
 11
101.1499999880792
 21
130.8
 31
0.0
100
AcDbText
  0
TEXT
  5
14B
330
1F
100
AcDbEntity
  8
枠_表
  6
CONTINUOUS
 62
     2
100
AcDbText
 10
36.70000000000002
 20
168.8
 30
0.0
 40
4.0
  1
◇床排水便器の場合
 41
0.9773584874171133
  7
EXCADSTD
 72
     5
 11
66.29999990463259
 21
168.8
 31
0.0
100
AcDbText
  0
TEXT
  5
14C
330
1F
100
AcDbEntity
  8
枠_表
  6
CONTINUOUS
 62
     2
100
AcDbText
 10
36.70000000000002
 20
140.8
 30
0.0
 40
4.0
  1
◇壁排水便器（後抜き）の場合
 41
0.9614457798650466
  7
EXCADSTD
 72
     5
 11
82.29999984502794
 21
140.8
 31
0.0
100
AcDbText
  0
TEXT
  5
14D
330
1F
100
AcDbEntity
  8
枠_表
  6
CONTINUOUS
 62
     2
100
AcDbText
 10
17.5
 20
188.25
 30
0.0
 40
5.0
  1
中村
 50
270.0
 41
1.283240000000002
  7
EXCADSTD
 72
     5
 11
17.5
 21
178.1674
 31
0.0
100
AcDbText
  0
TEXT
  5
14E
330
1F
100
AcDbEntity
  8
枠_表
  6
CONTINUOUS
 62
     2
100
AcDbText
 10
26.375
 20
188.25
 30
0.0
 40
4.25
  1
製図
 50
270.0
 41
1.509694117647061
  7
EXCADSTD
 72
     5
 11
26.375
 21
178.1674
 31
0.0
100
AcDbText
  0
TEXT
  5
14F
330
1F
100
AcDbEntity
  8
枠_表
  6
CONTINUOUS
 62
     2
100
AcDbText
 10
9.75
 20
189.8749999980791
 30
0.0
 40
3.5
  1
'20
 50
270.0
 41
0.4019814867359531
  7
EXCADSTD
 72
     5
 11
9.75
 21
186.7261450186474
 31
0.0
100
AcDbText
  0
TEXT
  5
150
330
1F
100
AcDbEntity
  8
枠_表
  6
CONTINUOUS
 62
     2
100
AcDbText
 10
9.75
 20
183.875
 30
0.0
 40
3.5
  1
4
 50
270.0
 41
0.3791666666666629
  7
EXCADSTD
 72
     5
 11
9.75
 21
182.7375
 31
0.0
100
AcDbText
  0
TEXT
  5
151
330
1F
100
AcDbEntity
  8
枠_表
  6
CONTINUOUS
 62
     2
100
AcDbText
 10
9.75
 20
178.57499999
 30
0.0
 40
3.5
  1
1
 50
270.0
 41
0.6204545454545393
  7
EXCADSTD
 72
     5
 11
9.75
 21
177.43749999
 31
0.0
100
AcDbText
  0
TEXT
  5
152
330
1F
100
AcDbEntity
  8
枠_表
  6
CONTINUOUS
 62
     2
100
AcDbText
 10
26.375
 20
172.75
 30
0.0
 40
4.25
  1
写図
 50
270.0
 41
1.509694117647061
  7
EXCADSTD
 72
     5
 11
26.375
 21
162.6674
 31
0.0
100
AcDbText
  0
TEXT
  5
153
330
1F
100
AcDbEntity
  8
枠_表
  6
CONTINUOUS
 62
     2
100
AcDbText
 10
26.375
 20
157.75
 30
0.0
 40
4.25
  1
検図
 50
270.0
 41
1.303826737967913
  7
EXCADSTD
 72
     5
 11
26.375
 21
149.0423
 31
0.0
100
AcDbText
  0
TEXT
  5
154
330
1F
100
AcDbEntity
  8
枠_表
  6
CONTINUOUS
 62
     2
100
AcDbText
 10
26.375
 20
144.75
 30
0.0
 40
4.25
  1
承認
 50
270.0
 41
1.303826737967913
  7
EXCADSTD
 72
     5
 11
26.375
 21
136.0423
 31
0.0
100
AcDbText
  0
TEXT
  5
155
330
1F
100
AcDbEntity
  8
枠_表
  6
CONTINUOUS
 62
     2
100
AcDbText
 10
25.375
 20
132.925
 30
0.0
 40
4.25
  1
品
 50
270.0
 41
1.120000000000002
  7
EXCADSTD
 72
     5
 11
25.375
 21
129.525
 31
0.0
100
AcDbText
  0
TEXT
  5
156
330
1F
100
AcDbEntity
  8
枠_表
  6
CONTINUOUS
 62
     2
100
AcDbText
 10
20.375
 20
132.925
 30
0.0
 40
4.25
  1
名
 50
270.0
 41
1.120000000000002
  7
EXCADSTD
 72
     5
 11
20.375
 21
129.525
 31
0.0
100
AcDbText
  0
TEXT
  5
157
330
1F
100
AcDbEntity
  8
枠_表
  6
CONTINUOUS
 62
     2
100
AcDbText
 10
25.375
 20
68.925
 30
0.0
 40
4.25
  1
品
 50
270.0
 41
1.120000000000002
  7
EXCADSTD
 72
     5
 11
25.375
 21
65.52499999999999
 31
0.0
100
AcDbText
  0
TEXT
  5
158
330
1F
100
AcDbEntity
  8
枠_表
  6
CONTINUOUS
 62
     2
100
AcDbText
 10
20.375
 20
68.925
 30
0.0
 40
4.25
  1
番
 50
270.0
 41
1.120000000000002
  7
EXCADSTD
 72
     5
 11
20.375
 21
65.52499999999999
 31
0.0
100
AcDbText
  0
TEXT
  5
159
330
1F
100
AcDbEntity
  8
枠_表
  6
CONTINUOUS
 62
     2
100
AcDbText
 10
14.07499999999999
 20
68.925
 30
0.0
 40
4.25
  1
図
 50
270.0
 41
1.120000000000002
  7
EXCADSTD
 72
     5
 11
14.07499999999999
 21
65.52499999999999
 31
0.0
100
AcDbText
  0
TEXT
  5
15A
330
1F
100
AcDbEntity
  8
枠_表
  6
CONTINUOUS
 62
     2
100
AcDbText
 10
9.774999999999977
 20
68.925
 30
0.0
 40
4.25
  1
番
 50
270.0
 41
1.120000000000002
  7
EXCADSTD
 72
     5
 11
9.774999999999977
 21
65.52499999999999
 31
0.0
100
AcDbText
  0
TEXT
  5
15B
330
1F
100
AcDbEntity
  8
枠_表
  6
CONTINUOUS
 62
     2
100
AcDbText
 10
25.375
 20
26.82499999999999
 30
0.0
 40
4.25
  1
尺
 50
270.0
 41
1.12
  7
EXCADSTD
 72
     5
 11
25.375
 21
23.42499999999999
 31
0.0
100
AcDbText
  0
TEXT
  5
15C
330
1F
100
AcDbEntity
  8
枠_表
  6
CONTINUOUS
 62
     2
100
AcDbText
 10
20.375
 20
26.82499999999999
 30
0.0
 40
4.25
  1
度
 50
270.0
 41
1.12
  7
EXCADSTD
 72
     5
 11
20.375
 21
23.42499999999999
 31
0.0
100
AcDbText
  0
TEXT
  5
15D
330
1F
100
AcDbEntity
  8
枠_表
  6
CONTINUOUS
 62
     2
100
AcDbText
 10
25.77227783000001
 20
19.44628906
 30
0.0
 40
4.0
  1
１
 50
270.0
 41
1.12
  7
EXCADSTD
 72
     5
 11
25.77227783000001
 21
16.24628906
 31
0.0
100
AcDbText
  0
TEXT
  5
15E
330
1F
100
AcDbEntity
  8
枠_表
  6
CONTINUOUS
 62
     2
100
AcDbText
 10
21.33488463999998
 20
15.37207031
 30
0.0
 40
4.0
  1
１５
 50
270.0
 41
1.020759090909091
  7
EXCADSTD
 72
     5
 11
21.33488463999998
 21
8.955870309999998
 31
0.0
100
AcDbText
  0
TEXT
  5
15F
330
1F
100
AcDbEntity
  8
枠_表
  6
CONTINUOUS
 62
     2
100
AcDbText
 10
25.40000000596047
 20
128.0
 30
0.0
 40
4.5
  1
手洗キャビ（集合配管仕様/左勝手）
 50
270.0
 41
0.8816503800217158
  7
EXCADSTD
 72
     5
 11
25.40000000596046
 21
70.0
 31
0.0
100
AcDbText
  0
TEXT
  5
160
330
1F
100
AcDbEntity
  8
枠_表
  6
CONTINUOUS
 62
     2
100
AcDbText
 10
20.09999999403954
 20
128.0
 30
0.0
 40
4.5
  1
　　（ＳＭＡ８２０型専用）
 50
270.0
 41
0.9292929292929294
  7
EXCADSTD
 72
     5
 11
20.09999999403954
 21
82.0
 31
0.0
100
AcDbText
  0
LINE
  5
161
330
1F
100
AcDbEntity
  8
ｶｳﾝﾀｰ_ｷｬﾋﾞﾈｯﾄ
  6
CONTINUOUS
 62
     2
100
AcDbLine
 10
1213.0
 20
867.614972646254
 30
0.0
 11
1354.886706557787
 21
861.7604626733341
 31
0.0
  0
LINE
  5
162
330
1F
100
AcDbEntity
  8
ｶｳﾝﾀｰ_ｷｬﾋﾞﾈｯﾄ
  6
CONTINUOUS
 62
     2
100
AcDbLine
 10
1213.0
 20
899.6422017241016
 30
0.0
 11
1356.205963634769
 21
893.7332567452445
 31
0.0
  0
LINE
  5
163
330
1F
100
AcDbEntity
  8
ｶｳﾝﾀｰ_ｷｬﾋﾞﾈｯﾄ
  6
CONTINUOUS
 62
     2
100
AcDbLine
 10
1174.0
 20
869.224185337725
 30
0.0
 11
1187.0
 21
868.687781107235
 31
0.0
  0
LINE
  5
164
330
1F
100
AcDbEntity
  8
ｶｳﾝﾀｰ_ｷｬﾋﾞﾈｯﾄ
  6
CONTINUOUS
 62
     2
100
AcDbLine
 10
1173.999999999998
 20
901.2514144155734
 30
0.0
 11
1187.0
 21
900.7150101850834
 31
0.0
  0
ARC
  5
165
330
1F
100
AcDbEntity
  8
ｶｳﾝﾀｰ_ｷｬﾋﾞﾈｯﾄ
  6
CONTINUOUS
 62
     6
100
AcDbCircle
 10
1199.999999999999
 20
862.1649914155992
 30
0.0
 40
4.7
100
AcDbArc
 50
154.8156634660141
 51
25.18433653398592
  0
ARC
  5
166
330
1F
100
AcDbEntity
  8
ｶｳﾝﾀｰ_ｷｬﾋﾞﾈｯﾄ
  6
CONTINUOUS
 62
     6
100
AcDbCircle
 10
1199.999999999999
 20
906.1649914155992
 30
0.0
 40
4.7
100
AcDbArc
 50
334.8156634660374
 51
205.1843365339627
  0
LINE
  5
167
330
1F
100
AcDbEntity
  8
ｶｳﾝﾀｰ_ｷｬﾋﾞﾈｯﾄ
  6
CONTINUOUS
 62
     6
100
AcDbLine
 10
1190.299999999998
 20
862.1649914156001
 30
0.0
 11
1209.699999999998
 21
862.1649914156001
 31
0.0
  0
LINE
  5
168
330
1F
100
AcDbEntity
  8
ｶｳﾝﾀｰ_ｷｬﾋﾞﾈｯﾄ
  6
CONTINUOUS
 62
     6
100
AcDbLine
 10
1199.999999999997
 20
871.864991415599
 30
0.0
 11
1199.999999999997
 21
852.4649914155993
 31
0.0
  0
LINE
  5
169
330
1F
100
AcDbEntity
  8
ｶｳﾝﾀｰ_ｷｬﾋﾞﾈｯﾄ
  6
CONTINUOUS
 62
     6
100
AcDbLine
 10
1190.299999999998
 20
906.1649914156001
 30
0.0
 11
1209.699999999998
 21
906.1649914156001
 31
0.0
  0
LINE
  5
16A
330
1F
100
AcDbEntity
  8
ｶｳﾝﾀｰ_ｷｬﾋﾞﾈｯﾄ
  6
CONTINUOUS
 62
     6
100
AcDbLine
 10
1199.999999999997
 20
915.864991415599
 30
0.0
 11
1199.999999999997
 21
896.4649914155993
 31
0.0
  0
LINE
  5
16B
330
1F
100
AcDbEntity
  8
ｶｳﾝﾀｰ_ｷｬﾋﾞﾈｯﾄ
  6
CONTINUOUS
 62
     6
100
AcDbLine
 10
1187.0
 20
858.6649914156001
 30
0.0
 11
1187.0
 21
909.6649914156001
 31
0.0
  0
LINE
  5
16C
330
1F
100
AcDbEntity
  8
ｶｳﾝﾀｰ_ｷｬﾋﾞﾈｯﾄ
  6
CONTINUOUS
 62
     6
100
AcDbLine
 10
1208.0
 20
914.6649914156001
 30
0.0
 11
1192.0
 21
914.6649914156001
 31
0.0
  0
LINE
  5
16D
330
1F
100
AcDbEntity
  8
ｶｳﾝﾀｰ_ｷｬﾋﾞﾈｯﾄ
  6
CONTINUOUS
 62
     6
100
AcDbLine
 10
1213.0
 20
858.6649914156001
 30
0.0
 11
1213.0
 21
909.6649914156001
 31
0.0
  0
LINE
  5
16E
330
1F
100
AcDbEntity
  8
ｶｳﾝﾀｰ_ｷｬﾋﾞﾈｯﾄ
  6
CONTINUOUS
 62
     6
100
AcDbLine
 10
1208.0
 20
853.6649914156001
 30
0.0
 11
1192.0
 21
853.6649914156001
 31
0.0
  0
ARC
  5
16F
330
1F
100
AcDbEntity
  8
ｶｳﾝﾀｰ_ｷｬﾋﾞﾈｯﾄ
  6
CONTINUOUS
 62
     6
100
AcDbCircle
 10
1208.0
 20
858.6649914156001
 30
0.0
 40
5.0
100
AcDbArc
 50
270.0
 51
0.0
  0
ARC
  5
170
330
1F
100
AcDbEntity
  8
ｶｳﾝﾀｰ_ｷｬﾋﾞﾈｯﾄ
  6
CONTINUOUS
 62
     6
100
AcDbCircle
 10
1208.0
 20
909.6649914156001
 30
0.0
 40
5.0
100
AcDbArc
 50
0.0
 51
90.00000000000001
  0
ARC
  5
171
330
1F
100
AcDbEntity
  8
ｶｳﾝﾀｰ_ｷｬﾋﾞﾈｯﾄ
  6
CONTINUOUS
 62
     6
100
AcDbCircle
 10
1192.0
 20
909.6649914156001
 30
0.0
 40
5.0
100
AcDbArc
 50
90.00000000000001
 51
180.0
  0
ARC
  5
172
330
1F
100
AcDbEntity
  8
ｶｳﾝﾀｰ_ｷｬﾋﾞﾈｯﾄ
  6
CONTINUOUS
 62
     6
100
AcDbCircle
 10
1192.0
 20
858.6649914156001
 30
0.0
 40
5.0
100
AcDbArc
 50
180.0
 51
270.0
  0
LINE
  5
173
330
1F
100
AcDbEntity
  8
ｶｳﾝﾀｰ_ｷｬﾋﾞﾈｯﾄ
  6
CONTINUOUS
 62
     6
100
AcDbLine
 10
1213.0
 20
902.8649914155999
 30
0.0
 11
1208.0
 21
902.8649914155999
 31
0.0
  0
LINE
  5
174
330
1F
100
AcDbEntity
  8
ｶｳﾝﾀｰ_ｷｬﾋﾞﾈｯﾄ
  6
CONTINUOUS
 62
     6
100
AcDbLine
 10
1192.0
 20
902.8649914155999
 30
0.0
 11
1187.0
 21
902.8649914155999
 31
0.0
  0
LINE
  5
175
330
1F
100
AcDbEntity
  8
ｶｳﾝﾀｰ_ｷｬﾋﾞﾈｯﾄ
  6
CONTINUOUS
 62
     6
100
AcDbLine
 10
1213.0
 20
865.4649914156003
 30
0.0
 11
1208.0
 21
865.4649914156003
 31
0.0
  0
LINE
  5
176
330
1F
100
AcDbEntity
  8
ｶｳﾝﾀｰ_ｷｬﾋﾞﾈｯﾄ
  6
CONTINUOUS
 62
     6
100
AcDbLine
 10
1192.0
 20
865.4649914156003
 30
0.0
 11
1187.0
 21
865.4649914156003
 31
0.0
  0
LINE
  5
177
330
1F
100
AcDbEntity
  8
ｶｳﾝﾀｰ_ｷｬﾋﾞﾈｯﾄ
  6
CONTINUOUS
 62
     6
100
AcDbLine
 10
1208.0
 20
904.1649914156001
 30
0.0
 11
1192.0
 21
904.1649914156001
 31
0.0
  0
LINE
  5
178
330
1F
100
AcDbEntity
  8
ｶｳﾝﾀｰ_ｷｬﾋﾞﾈｯﾄ
  6
CONTINUOUS
 62
     6
100
AcDbLine
 10
1208.0
 20
864.1649914156001
 30
0.0
 11
1192.0
 21
864.1649914156001
 31
0.0
  0
LINE
  5
179
330
1F
100
AcDbEntity
  8
ｶｳﾝﾀｰ_ｷｬﾋﾞﾈｯﾄ
  6
CONTINUOUS
 62
     6
100
AcDbLine
 10
1208.0
 20
864.1649914156001
 30
0.0
 11
1208.0
 21
904.1649914156001
 31
0.0
  0
LINE
  5
17A
330
1F
100
AcDbEntity
  8
ｶｳﾝﾀｰ_ｷｬﾋﾞﾈｯﾄ
  6
CONTINUOUS
 62
     6
100
AcDbLine
 10
1192.0
 20
864.1649914156001
 30
0.0
 11
1192.0
 21
904.1649914156001
 31
0.0
  0
LINE
  5
17B
330
1F
100
AcDbEntity
  8
ｶｳﾝﾀｰ_ｷｬﾋﾞﾈｯﾄ
  6
EXLTYPE4
 62
     6
100
AcDbLine
 10
1147.999999999999
 20
572.5
 30
0.0
 11
1647.999999999999
 21
572.5
 31
0.0
  0
LINE
  5
17C
330
1F
100
AcDbEntity
  8
ｶｳﾝﾀｰ_ｷｬﾋﾞﾈｯﾄ
  6
EXLTYPE2
 62
     6
100
AcDbLine
 10
1084.999999999998
 20
1042.5
 30
0.0
 11
1086.940384615384
 21
1052.201923076923
 31
0.0
  0
LINE
  5
17D
330
1F
100
AcDbEntity
  8
ｶｳﾝﾀｰ_ｷｬﾋﾞﾈｯﾄ
  6
EXLTYPE2
 62
     6
100
AcDbLine
 10
1043.799999999999
 20
1057.5
 30
0.0
 11
1086.170294145921
 21
1057.5
 31
0.0
  0
LINE
  5
17E
330
1F
100
AcDbEntity
  8
ｶｳﾝﾀｰ_ｷｬﾋﾞﾈｯﾄ
  6
EXLTYPE2
 62
     6
100
AcDbLine
 10
1039.358235122331
 20
1058.838123307809
 30
0.0
 11
1031.580756799446
 21
1064.867176271287
 31
0.0
  0
LINE
  5
17F
330
1F
100
AcDbEntity
  8
ｶｳﾝﾀｰ_ｷｬﾋﾞﾈｯﾄ
  6
EXLTYPE2
 62
     6
100
AcDbLine
 10
1019.999999999998
 20
957.5000000000005
 30
0.0
 11
1083.499999999998
 21
957.5000000000005
 31
0.0
  0
ARC
  5
180
330
1F
100
AcDbEntity
  8
ｶｳﾝﾀｰ_ｷｬﾋﾞﾈｯﾄ
  6
EXLTYPE2
 62
     6
100
AcDbCircle
 10
1083.499999999998
 20
959.0000000000005
 30
0.0
 40
1.5
100
AcDbArc
 50
270.0
 51
0.0
  0
LINE
  5
181
330
1F
100
AcDbEntity
  8
ｶｳﾝﾀｰ_ｷｬﾋﾞﾈｯﾄ
  6
EXLTYPE2
 62
     6
100
AcDbLine
 10
1084.999999999998
 20
1042.5
 30
0.0
 11
1084.999999999998
 21
959.0000000000005
 31
0.0
  0
ARC
  5
182
330
1F
100
AcDbEntity
  8
ｶｳﾝﾀｰ_ｷｬﾋﾞﾈｯﾄ
  6
EXLTYPE2
 62
     6
100
AcDbCircle
 10
1086.170294145921
 20
1056.0
 30
0.0
 40
1.5
100
AcDbArc
 50
348.6900675259798
 51
90.00000000000001
  0
ARC
  5
183
330
1F
100
AcDbEntity
  8
ｶｳﾝﾀｰ_ｷｬﾋﾞﾈｯﾄ
  6
EXLTYPE2
 62
     6
100
AcDbCircle
 10
1027.157792905295
 20
1064.5
 30
0.0
 40
3.000000000000001
100
AcDbArc
 50
52.21737915902787
 51
89.99999999993052
  0
LINE
  5
184
330
1F
100
AcDbEntity
  8
ｶｳﾝﾀｰ_ｷｬﾋﾞﾈｯﾄ
  6
EXLTYPE2
 62
     6
100
AcDbLine
 10
1019.999999999998
 20
1067.5
 30
0.0
 11
1027.157792905298
 21
1067.5
 31
0.0
  0
LINE
  5
185
330
1F
100
AcDbEntity
  8
ｶｳﾝﾀｰ_ｷｬﾋﾞﾈｯﾄ
  6
CONTINUOUS
 62
     6
100
AcDbLine
 10
1019.999999999999
 20
1015.7003711331
 30
0.0
 11
986.4999999999991
 21
1014.2003711331
 31
0.0
  0
LINE
  5
186
330
1F
100
AcDbEntity
  8
ｶｳﾝﾀｰ_ｷｬﾋﾞﾈｯﾄ
  6
CONTINUOUS
 62
     6
100
AcDbLine
 10
1019.999999999999
 20
1012.7003711331
 30
0.0
 11
986.4999999999991
 21
1014.2003711331
 31
0.0
  0
LINE
  5
187
330
1F
100
AcDbEntity
  8
ｶｳﾝﾀｰ_ｷｬﾋﾞﾈｯﾄ
  6
CONTINUOUS
 62
     6
100
AcDbLine
 10
1030.000000000001
 20
1014.200371133104
 30
0.0
 11
981.4999999999991
 21
1014.200371133104
 31
0.0
  0
LINE
  5
188
330
1F
100
AcDbEntity
  8
ｶｳﾝﾀｰ_ｷｬﾋﾞﾈｯﾄ
  6
CONTINUOUS
 62
     6
100
AcDbLine
 10
1019.999999999999
 20
1028.299999999701
 30
0.0
 11
986.4999999999991
 21
1026.799999999701
 31
0.0
  0
LINE
  5
189
330
1F
100
AcDbEntity
  8
ｶｳﾝﾀｰ_ｷｬﾋﾞﾈｯﾄ
  6
CONTINUOUS
 62
     6
100
AcDbLine
 10
1019.999999999999
 20
1025.299999999701
 30
0.0
 11
986.4999999999991
 21
1026.799999999701
 31
0.0
  0
LINE
  5
18A
330
1F
100
AcDbEntity
  8
ｶｳﾝﾀｰ_ｷｬﾋﾞﾈｯﾄ
  6
CONTINUOUS
 62
     6
100
AcDbLine
 10
1030.000000000001
 20
1026.799999999704
 30
0.0
 11
981.4999999999991
 21
1026.799999999704
 31
0.0
  0
LINE
  5
18B
330
1F
100
AcDbEntity
  8
ｶｳﾝﾀｰ_ｷｬﾋﾞﾈｯﾄ
  6
CONTINUOUS
 62
     6
100
AcDbLine
 10
1019.999999999999
 20
979.0000000000005
 30
0.0
 11
986.4999999999991
 21
977.5000000000005
 31
0.0
  0
LINE
  5
18C
330
1F
100
AcDbEntity
  8
ｶｳﾝﾀｰ_ｷｬﾋﾞﾈｯﾄ
  6
CONTINUOUS
 62
     6
100
AcDbLine
 10
1019.999999999999
 20
976.0000000000005
 30
0.0
 11
986.4999999999991
 21
977.5000000000005
 31
0.0
  0
LINE
  5
18D
330
1F
100
AcDbEntity
  8
ｶｳﾝﾀｰ_ｷｬﾋﾞﾈｯﾄ
  6
CONTINUOUS
 62
     6
100
AcDbLine
 10
1030.000000000001
 20
977.5000000000041
 30
0.0
 11
981.4999999999991
 21
977.5000000000041
 31
0.0
  0
LINE
  5
18E
330
1F
100
AcDbEntity
  8
ｶｳﾝﾀｰ_ｷｬﾋﾞﾈｯﾄ
  6
CONTINUOUS
 62
     6
100
AcDbLine
 10
1019.999999999999
 20
1049.0
 30
0.0
 11
986.4999999999991
 21
1047.5
 31
0.0
  0
LINE
  5
18F
330
1F
100
AcDbEntity
  8
ｶｳﾝﾀｰ_ｷｬﾋﾞﾈｯﾄ
  6
CONTINUOUS
 62
     6
100
AcDbLine
 10
1019.999999999999
 20
1046.0
 30
0.0
 11
986.4999999999991
 21
1047.5
 31
0.0
  0
LINE
  5
190
330
1F
100
AcDbEntity
  8
ｶｳﾝﾀｰ_ｷｬﾋﾞﾈｯﾄ
  6
CONTINUOUS
 62
     6
100
AcDbLine
 10
1030.000000000001
 20
1047.500000000004
 30
0.0
 11
981.4999999999991
 21
1047.500000000004
 31
0.0
  0
LINE
  5
191
330
1F
100
AcDbEntity
  8
ｶｳﾝﾀｰ_ｷｬﾋﾞﾈｯﾄ
  6
CONTINUOUS
 62
     6
100
AcDbLine
 10
1152.999999999999
 20
1252.5
 30
0.0
 11
1152.999999999999
 21
702.4999999999995
 31
0.0
  0
LINE
  5
192
330
1F
100
AcDbEntity
  8
ｶｳﾝﾀｰ_ｷｬﾋﾞﾈｯﾄ
  6
CONTINUOUS
 62
     6
100
AcDbLine
 10
1154.999999999999
 20
692.4999999999995
 30
0.0
 11
1154.999999999999
 21
1248.499999999999
 31
0.0
  0
LINE
  5
193
330
1F
100
AcDbEntity
  8
ｶｳﾝﾀｰ_ｷｬﾋﾞﾈｯﾄ
  6
CONTINUOUS
 62
     6
100
AcDbLine
 10
1198.591092474918
 20
1201.352553193225
 30
0.0
 11
1198.725461214367
 21
1201.292948936135
 31
0.0
  0
ARC
  5
194
330
1F
100
AcDbEntity
  8
ｶｳﾝﾀｰ_ｷｬﾋﾞﾈｯﾄ
  6
CONTINUOUS
 62
     6
100
AcDbCircle
 10
1198.928203230297
 20
1201.75
 30
0.0
 40
0.5
100
AcDbArc
 50
246.532161570985
 51
318.2856254630391
  0
LINE
  5
195
330
1F
100
AcDbEntity
  8
ｶｳﾝﾀｰ_ｷｬﾋﾞﾈｯﾄ
  6
CONTINUOUS
 62
     6
100
AcDbLine
 10
1198.591092474918
 20
1215.647446806774
 30
0.0
 11
1198.725461214367
 21
1215.707051063865
 31
0.0
  0
ARC
  5
196
330
1F
100
AcDbEntity
  8
ｶｳﾝﾀｰ_ｷｬﾋﾞﾈｯﾄ
  6
CONTINUOUS
 62
     6
100
AcDbCircle
 10
1191.355994991717
 20
1208.5
 30
0.0
 40
10.644005008294
100
AcDbArc
 50
318.2856254630404
 51
41.71437453695582
  0
ARC
  5
197
330
1F
100
AcDbEntity
  8
ｶｳﾝﾀｰ_ｷｬﾋﾞﾈｯﾄ
  6
CONTINUOUS
 62
     6
100
AcDbCircle
 10
1198.928203230297
 20
1215.25
 30
0.0
 40
0.5
100
AcDbArc
 50
41.71437453695226
 51
113.467838429003
  0
ARC
  5
198
330
1F
100
AcDbEntity
  8
ｶｳﾝﾀｰ_ｷｬﾋﾞﾈｯﾄ
  6
CONTINUOUS
 62
     6
100
AcDbCircle
 10
1188.453991678786
 20
1238.5
 30
0.0
 40
25.0
100
AcDbArc
 50
270.0
 51
293.92146262088
  0
ARC
  5
199
330
1F
100
AcDbEntity
  8
ｶｳﾝﾀｰ_ｷｬﾋﾞﾈｯﾄ
  6
CONTINUOUS
 62
     6
100
AcDbCircle
 10
1188.453991678786
 20
1178.5
 30
0.0
 40
25.0
100
AcDbArc
 50
66.078537379123
 51
89.99999999999973
  0
POLYLINE
  5
19A
330
1F
100
AcDbEntity
  8
ｶｳﾝﾀｰ_ｷｬﾋﾞﾈｯﾄ
  6
CONTINUOUS
 62
     6
100
AcDb2dPolyline
 66
     1
 10
0.0
 20
0.0
 30
0.0
 70
   128
  0
VERTEX
  5
19B
330
19A
100
AcDbEntity
  8
ｶｳﾝﾀｰ_ｷｬﾋﾞﾈｯﾄ
  6
CONTINUOUS
 62
     6
100
AcDbVertex
100
AcDb2dVertex
 10
1188.453991678786
 20
1203.5
 30
0.0
  0
VERTEX
  5
19C
330
19A
100
AcDbEntity
  8
ｶｳﾝﾀｰ_ｷｬﾋﾞﾈｯﾄ
  6
CONTINUOUS
 62
     6
100
AcDbVertex
100
AcDb2dVertex
 10
1174.000000000017
 20
1203.5
 30
0.0
  0
VERTEX
  5
19D
330
19A
100
AcDbEntity
  8
ｶｳﾝﾀｰ_ｷｬﾋﾞﾈｯﾄ
  6
CONTINUOUS
 62
     6
100
AcDbVertex
100
AcDb2dVertex
 10
1174.000000000017
 20
1213.5
 30
0.0
  0
VERTEX
  5
19E
330
19A
100
AcDbEntity
  8
ｶｳﾝﾀｰ_ｷｬﾋﾞﾈｯﾄ
  6
CONTINUOUS
 62
     6
100
AcDbVertex
100
AcDb2dVertex
 10
1188.453991678786
 20
1213.5
 30
0.0
  0
SEQEND
  5
19F
330
19A
100
AcDbEntity
  8
ｶｳﾝﾀｰ_ｷｬﾋﾞﾈｯﾄ
  6
CONTINUOUS
 62
     6
  0
LINE
  5
1A0
330
1F
100
AcDbEntity
  8
ｶｳﾝﾀｰ_ｷｬﾋﾞﾈｯﾄ
  6
EXLTYPE3
 62
     6
100
AcDbLine
 10
1094.999999999997
 20
1500.5680146347
 30
0.0
 11
1094.999999999997
 21
1372.5
 31
0.0
  0
LINE
  5
1A1
330
1F
100
AcDbEntity
  8
ｶｳﾝﾀｰ_ｷｬﾋﾞﾈｯﾄ
  6
CONTINUOUS
 62
     6
100
AcDbLine
 10
1019.999999999999
 20
1179.0
 30
0.0
 11
986.4999999999991
 21
1177.5
 31
0.0
  0
LINE
  5
1A2
330
1F
100
AcDbEntity
  8
ｶｳﾝﾀｰ_ｷｬﾋﾞﾈｯﾄ
  6
CONTINUOUS
 62
     6
100
AcDbLine
 10
1019.999999999999
 20
1176.0
 30
0.0
 11
986.4999999999991
 21
1177.5
 31
0.0
  0
LINE
  5
1A3
330
1F
100
AcDbEntity
  8
ｶｳﾝﾀｰ_ｷｬﾋﾞﾈｯﾄ
  6
CONTINUOUS
 62
     6
100
AcDbLine
 10
1030.000000000001
 20
1177.500000000004
 30
0.0
 11
981.4999999999991
 21
1177.500000000004
 31
0.0
  0
LINE
  5
1A4
330
1F
100
AcDbEntity
  8
ｶｳﾝﾀｰ_ｷｬﾋﾞﾈｯﾄ
  6
CONTINUOUS
 62
     6
100
AcDbLine
 10
1019.999999999999
 20
1429.0
 30
0.0
 11
986.4999999999991
 21
1427.5
 31
0.0
  0
LINE
  5
1A5
330
1F
100
AcDbEntity
  8
ｶｳﾝﾀｰ_ｷｬﾋﾞﾈｯﾄ
  6
CONTINUOUS
 62
     6
100
AcDbLine
 10
1019.999999999999
 20
1426.0
 30
0.0
 11
986.4999999999991
 21
1427.5
 31
0.0
  0
LINE
  5
1A6
330
1F
100
AcDbEntity
  8
ｶｳﾝﾀｰ_ｷｬﾋﾞﾈｯﾄ
  6
CONTINUOUS
 62
     6
100
AcDbLine
 10
1030.000000000001
 20
1427.500000000004
 30
0.0
 11
981.4999999999991
 21
1427.500000000004
 31
0.0
  0
LINE
  5
1A7
330
1F
100
AcDbEntity
  8
ｶｳﾝﾀｰ_ｷｬﾋﾞﾈｯﾄ
  6
CONTINUOUS
 62
     6
100
AcDbLine
 10
1112.500000000001
 20
1412.068014634701
 30
0.0
 11
1112.500000000001
 21
1392.500000000006
 31
0.0
  0
LINE
  5
1A8
330
1F
100
AcDbEntity
  8
ｶｳﾝﾀｰ_ｷｬﾋﾞﾈｯﾄ
  6
CONTINUOUS
 62
     6
100
AcDbLine
 10
1077.500000000001
 20
1454.936888165003
 30
0.0
 11
1077.500000000001
 21
1392.500000000006
 31
0.0
  0
LINE
  5
1A9
330
1F
100
AcDbEntity
  8
ｶｳﾝﾀｰ_ｷｬﾋﾞﾈｯﾄ
  6
CONTINUOUS
 62
     6
100
AcDbLine
 10
1106.999999999999
 20
1458.568014634701
 30
0.0
 11
1106.999999999999
 21
1465.0058613569
 31
0.0
  0
LINE
  5
1AA
330
1F
100
AcDbEntity
  8
ｶｳﾝﾀｰ_ｷｬﾋﾞﾈｯﾄ
  6
CONTINUOUS
 62
     6
100
AcDbLine
 10
1082.999999999999
 20
1458.568014634701
 30
0.0
 11
1082.999999999999
 21
1465.0058613569
 31
0.0
  0
ELLIPSE
  5
1AB
330
1F
100
AcDbEntity
  8
ｶｳﾝﾀｰ_ｷｬﾋﾞﾈｯﾄ
  6
CONTINUOUS
 62
     6
100
AcDbEllipse
 10
1094.999999999999
 20
1458.568014634701
 30
0.0
 11
12.00000000000002
 21
0.0
 31
0.0
210
0.0
220
0.0
230
1.0
 40
0.4226182617406989
 41
0.0
 42
6.283185307179586
  0
ELLIPSE
  5
1AC
330
1F
100
AcDbEntity
  8
ｶｳﾝﾀｰ_ｷｬﾋﾞﾈｯﾄ
  6
CONTINUOUS
 62
     6
100
AcDbEllipse
 10
1094.999999999999
 20
1465.0058613569
 30
0.0
 11
12.00000000000002
 21
0.0
 31
0.0
210
0.0
220
0.0
230
1.0
 40
0.4226182617406989
 41
0.0
 42
3.141592653589793
  0
ELLIPSE
  5
1AD
330
1F
100
AcDbEntity
  8
ｶｳﾝﾀｰ_ｷｬﾋﾞﾈｯﾄ
  6
CONTINUOUS
 62
     6
100
AcDbEllipse
 10
1150.927549832629
 20
1446.155344858799
 30
0.0
 11
17.43340721660556
 21
-1.52522549808399
 31
0.0
210
0.0
220
0.0
230
1.0
 40
0.2794104048720002
 41
0.0
 42
6.283185307179586
  0
LINE
  5
1AE
330
1F
100
AcDbEntity
  8
ｶｳﾝﾀｰ_ｷｬﾋﾞﾈｯﾄ
  6
CONTINUOUS
 62
     6
100
AcDbLine
 10
1172.499999999999
 20
1445.568014634701
 30
0.0
 11
1172.499999999999
 21
1429.568014634701
 31
0.0
  0
LINE
  5
1AF
330
1F
100
AcDbEntity
  8
ｶｳﾝﾀｰ_ｷｬﾋﾞﾈｯﾄ
  6
CONTINUOUS
 62
     6
100
AcDbLine
 10
1122.499999999977
 20
1420.068014635352
 30
0.0
 11
1143.295058036437
 21
1420.794194063611
 31
0.0
  0
ARC
  5
1B0
330
1F
100
AcDbEntity
  8
ｶｳﾝﾀｰ_ｷｬﾋﾞﾈｯﾄ
  6
CONTINUOUS
 62
     6
100
AcDbCircle
 10
1141.201088234288
 20
1480.757643684756
 30
0.0
 40
60.0
100
AcDbArc
 50
271.9999999999976
 51
301.4428966914533
  0
ARC
  5
1B1
330
1F
100
AcDbEntity
  8
ｶｳﾝﾀｰ_ｷｬﾋﾞﾈｯﾄ
  6
CONTINUOUS
 62
     6
100
AcDbCircle
 10
1141.201088234288
 20
1394.378385584645
 30
0.0
 40
60.0
100
AcDbArc
 50
58.55710330854682
 51
88.00000000000246
  0
LINE
  5
1B2
330
1F
100
AcDbEntity
  8
ｶｳﾝﾀｰ_ｷｬﾋﾞﾈｯﾄ
  6
CONTINUOUS
 62
     6
100
AcDbLine
 10
1122.499999999977
 20
1455.06801463405
 30
0.0
 11
1143.295058036437
 21
1454.341835205791
 31
0.0
  0
LINE
  5
1B3
330
1F
100
AcDbEntity
  8
ｶｳﾝﾀｰ_ｷｬﾋﾞﾈｯﾄ
  6
CONTINUOUS
 62
     6
100
AcDbLine
 10
1120.500000000001
 20
1420.068014634701
 30
0.0
 11
1122.500000000001
 21
1420.068014634701
 31
0.0
  0
LINE
  5
1B4
330
1F
100
AcDbEntity
  8
ｶｳﾝﾀｰ_ｷｬﾋﾞﾈｯﾄ
  6
CONTINUOUS
 62
     6
100
AcDbLine
 10
1120.341008423105
 20
1455.068014634701
 30
0.0
 11
1122.500000000001
 21
1455.068014634701
 31
0.0
  0
ARC
  5
1B5
330
1F
100
AcDbEntity
  8
ｶｳﾝﾀｰ_ｷｬﾋﾞﾈｯﾄ
  6
CONTINUOUS
 62
     6
100
AcDbCircle
 10
912.4999999999973
 20
1454.936888165001
 30
0.0
 40
200.0000000000001
100
AcDbArc
 50
2.24037485110208
 51
5.984350480638444
  0
ARC
  5
1B6
330
1F
100
AcDbEntity
  8
ｶｳﾝﾀｰ_ｷｬﾋﾞﾈｯﾄ
  6
CONTINUOUS
 62
     6
100
AcDbCircle
 10
1120.500000000001
 20
1412.068014634701
 30
0.0
 40
8.0
100
AcDbArc
 50
90.00000000000001
 51
180.0
  0
ARC
  5
1B7
330
1F
100
AcDbEntity
  8
ｶｳﾝﾀｰ_ｷｬﾋﾞﾈｯﾄ
  6
CONTINUOUS
 62
     6
100
AcDbCircle
 10
1120.341008423105
 20
1463.068014634701
 30
0.0
 40
8.0
100
AcDbArc
 50
182.2403748511015
 51
270.0000000000002
  0
ARC
  5
1B8
330
1F
100
AcDbEntity
  8
ｶｳﾝﾀｰ_ｷｬﾋﾞﾈｯﾄ
  6
CONTINUOUS
 62
     6
100
AcDbCircle
 10
1094.999999999999
 20
1474.068014634701
 30
0.0
 40
16.5
100
AcDbArc
 50
5.984350480639131
 51
174.015649519361
  0
ARC
  5
1B9
330
1F
100
AcDbEntity
  8
ｶｳﾝﾀｰ_ｷｬﾋﾞﾈｯﾄ
  6
CONTINUOUS
 62
     6
100
AcDbCircle
 10
1277.500000000001
 20
1454.936888165001
 30
0.0
 40
200.0000000000001
100
AcDbArc
 50
174.0156495193615
 51
180.0
  0
ELLIPSE
  5
1BA
330
1F
100
AcDbEntity
  8
ｶｳﾝﾀｰ_ｷｬﾋﾞﾈｯﾄ
  6
CONTINUOUS
 62
     6
100
AcDbEllipse
 10
1094.999999999999
 20
1465.0058613569
 30
0.0
 11
15.00000000000001
 21
0.0
 31
0.0
210
0.0
220
0.0
230
1.0
 40
0.5634910156533309
 41
5.639684198386308
 42
10.06827906956268
  0
LINE
  5
1BB
330
1F
100
AcDbEntity
  8
ｶｳﾝﾀｰ_ｷｬﾋﾞﾈｯﾄ
  6
CONTINUOUS
 62
     6
100
AcDbLine
 10
1122.500000000001
 20
1420.068014634701
 30
0.0
 11
1122.500000000001
 21
1455.068014634701
 31
0.0
  0
LINE
  5
1BC
330
1F
100
AcDbEntity
  8
ｶｳﾝﾀｰ_ｷｬﾋﾞﾈｯﾄ
  6
CONTINUOUS
 62
     2
100
AcDbLine
 10
1019.999999999999
 20
1272.5
 30
0.0
 11
1019.999999999999
 21
572.4999999999995
 31
0.0
  0
LINE
  5
1BD
330
1F
100
AcDbEntity
  8
ｶｳﾝﾀｰ_ｷｬﾋﾞﾈｯﾄ
  6
CONTINUOUS
 62
     2
100
AcDbLine
 10
1154.999999999997
 20
1252.5
 30
0.0
 11
1154.999999999997
 21
1272.5
 31
0.0
  0
LINE
  5
1BE
330
1F
100
AcDbEntity
  8
ｶｳﾝﾀｰ_ｷｬﾋﾞﾈｯﾄ
  6
CONTINUOUS
 62
     2
100
AcDbLine
 10
1048.926483252614
 20
1439.530038367934
 30
0.0
 11
1040.945970850536
 21
1438.971986577981
 31
0.0
  0
LINE
  5
1BF
330
1F
100
AcDbEntity
  8
ｶｳﾝﾀｰ_ｷｬﾋﾞﾈｯﾄ
  6
CONTINUOUS
 62
     2
100
AcDbLine
 10
1050.53088214873
 20
1416.586065211971
 30
0.0
 11
1042.550369746651
 21
1416.028013422018
 31
0.0
  0
LINE
  5
1C0
330
1F
100
AcDbEntity
  8
ｶｳﾝﾀｰ_ｷｬﾋﾞﾈｯﾄ
  6
CONTINUOUS
 62
     2
100
AcDbLine
 10
1048.926483252618
 20
1439.530038367901
 30
0.0
 11
1050.530882148728
 21
1416.586065212002
 31
0.0
  0
LINE
  5
1C1
330
1F
100
AcDbEntity
  8
ｶｳﾝﾀｰ_ｷｬﾋﾞﾈｯﾄ
  6
CONTINUOUS
 62
     2
100
AcDbLine
 10
1186.043693598399
 20
1272.500000000006
 30
0.0
 11
1019.999999999997
 21
1272.500000000006
 31
0.0
  0
ARC
  5
1C2
330
1F
100
AcDbEntity
  8
ｶｳﾝﾀｰ_ｷｬﾋﾞﾈｯﾄ
  6
CONTINUOUS
 62
     2
100
AcDbCircle
 10
-1729.158111549064
 20
1964.248451228714
 30
0.0
 40
3000.000000000002
100
AcDbArc
 50
346.7442358944288
 51
348.9204109532457
  0
ARC
  5
1C3
330
1F
100
AcDbEntity
  8
ｶｳﾝﾀｰ_ｷｬﾋﾞﾈｯﾄ
  6
CONTINUOUS
 62
     2
100
AcDbCircle
 10
1210.999999999999
 20
1388.500000000006
 30
0.0
 40
4.0
100
AcDbArc
 50
348.9204109532443
 51
90.00000000000001
  0
ARC
  5
1C4
330
1F
100
AcDbEntity
  8
ｶｳﾝﾀｰ_ｷｬﾋﾞﾈｯﾄ
  6
CONTINUOUS
 62
     2
100
AcDbCircle
 10
1186.04369359839
 20
1277.500000000007
 30
0.0
 40
5.0
100
AcDbArc
 50
270.0
 51
346.7442358944314
  0
LINE
  5
1C5
330
1F
100
AcDbEntity
  8
ｶｳﾝﾀｰ_ｷｬﾋﾞﾈｯﾄ
  6
CONTINUOUS
 62
     2
100
AcDbLine
 10
1210.999999999999
 20
1392.500000000006
 30
0.0
 11
1047.925669061197
 21
1392.500000000006
 31
0.0
  0
LINE
  5
1C6
330
1F
100
AcDbEntity
  8
ｶｳﾝﾀｰ_ｷｬﾋﾞﾈｯﾄ
  6
CONTINUOUS
 62
     2
100
AcDbLine
 10
1040.260195856493
 20
1448.779025894983
 30
0.0
 11
1043.935412860127
 21
1396.220974105031
 31
0.0
  0
ARC
  5
1C7
330
1F
100
AcDbEntity
  8
ｶｳﾝﾀｰ_ｷｬﾋﾞﾈｯﾄ
  6
CONTINUOUS
 62
     2
100
AcDbCircle
 10
1047.925669061166
 20
1396.500000000008
 30
0.0
 40
4.0
100
AcDbArc
 50
184.000000000003
 51
270.0
  0
ARC
  5
1C8
330
1F
100
AcDbEntity
  8
ｶｳﾝﾀｰ_ｷｬﾋﾞﾈｯﾄ
  6
CONTINUOUS
 62
     2
100
AcDbCircle
 10
1036.269939655454
 20
1448.500000000006
 30
0.0
 40
4.0
100
AcDbArc
 50
3.999999999996552
 51
90.00000000000001
  0
LINE
  5
1C9
330
1F
100
AcDbEntity
  8
ｶｳﾝﾀｰ_ｷｬﾋﾞﾈｯﾄ
  6
CONTINUOUS
 62
     2
100
AcDbLine
 10
1036.269939655454
 20
1452.500000000006
 30
0.0
 11
1019.999999999997
 21
1452.500000000006
 31
0.0
  0
LINE
  5
1CA
330
1F
100
AcDbEntity
  8
ｶｳﾝﾀｰ_ｷｬﾋﾞﾈｯﾄ
  6
CONTINUOUS
 62
     2
100
AcDbLine
 10
1019.999999999997
 20
1452.500000000006
 30
0.0
 11
1019.999999999997
 21
1272.500000000006
 31
0.0
  0
LINE
  5
1CB
330
1F
100
AcDbEntity
  8
ｶｳﾝﾀｰ_ｷｬﾋﾞﾈｯﾄ
  6
CONTINUOUS
 62
     2
100
AcDbLine
 10
1147.999999999999
 20
572.4999999999995
 30
0.0
 11
1019.999999999999
 21
572.4999999999995
 31
0.0
  0
LINE
  5
1CC
330
1F
100
AcDbEntity
  8
ｶｳﾝﾀｰ_ｷｬﾋﾞﾈｯﾄ
  6
CONTINUOUS
 62
     2
100
AcDbLine
 10
1173.999999999999
 20
692.4999999999995
 30
0.0
 11
1173.999999999999
 21
1248.499999999999
 31
0.0
  0
LINE
  5
1CD
330
1F
100
AcDbEntity
  8
ｶｳﾝﾀｰ_ｷｬﾋﾞﾈｯﾄ
  6
CONTINUOUS
 62
     2
100
AcDbLine
 10
1154.999999999999
 20
692.4999999999995
 30
0.0
 11
1173.999999999999
 21
692.4999999999995
 31
0.0
  0
LINE
  5
1CE
330
1F
100
AcDbEntity
  8
ｶｳﾝﾀｰ_ｷｬﾋﾞﾈｯﾄ
  6
CONTINUOUS
 62
     2
100
AcDbLine
 10
1132.999999999999
 20
702.4999999999995
 30
0.0
 11
1132.999999999999
 21
572.4999999999995
 31
0.0
  0
LINE
  5
1CF
330
1F
100
AcDbEntity
  8
ｶｳﾝﾀｰ_ｷｬﾋﾞﾈｯﾄ
  6
CONTINUOUS
 62
     2
100
AcDbLine
 10
1147.999999999999
 20
702.4999999999995
 30
0.0
 11
1147.999999999999
 21
572.4999999999995
 31
0.0
  0
LINE
  5
1D0
330
1F
100
AcDbEntity
  8
ｶｳﾝﾀｰ_ｷｬﾋﾞﾈｯﾄ
  6
CONTINUOUS
 62
     2
100
AcDbLine
 10
1152.999999999999
 20
702.4999999999995
 30
0.0
 11
1132.999999999999
 21
702.4999999999995
 31
0.0
  0
LINE
  5
1D1
330
1F
100
AcDbEntity
  8
ｶｳﾝﾀｰ_ｷｬﾋﾞﾈｯﾄ
  6
CONTINUOUS
 62
     2
100
AcDbLine
 10
1154.999999999999
 20
1248.5
 30
0.0
 11
1173.999999999999
 21
1248.5
 31
0.0
  0
LINE
  5
1D2
330
1F
100
AcDbEntity
  8
ｶｳﾝﾀｰ_ｷｬﾋﾞﾈｯﾄ
  6
CONTINUOUS
 62
     2
100
AcDbLine
 10
1154.999999999999
 20
1252.5
 30
0.0
 11
1019.999999999999
 21
1252.5
 31
0.0
  0
LINE
  5
1D3
330
1F
100
AcDbEntity
  8
ｶｳﾝﾀｰ_ｷｬﾋﾞﾈｯﾄ
  6
EXLTYPE4
 62
     6
100
AcDbLine
 10
1019.999999999999
 20
1452.5
 30
0.0
 11
1019.999999999999
 21
1602.5
 31
0.0
  0
LINE
  5
1D4
330
1F
100
AcDbEntity
  8
ｶｳﾝﾀｰ_ｷｬﾋﾞﾈｯﾄ
  6
CONTINUOUS
 62
     6
100
AcDbLine
 10
1409.999999999999
 20
841.2500000000005
 30
0.0
 11
1409.999999999999
 21
909.7500000000005
 31
0.0
  0
LINE
  5
1D5
330
1F
100
AcDbEntity
  8
ｶｳﾝﾀｰ_ｷｬﾋﾞﾈｯﾄ
  6
CONTINUOUS
 62
     6
100
AcDbLine
 10
1375.749999999999
 20
875.5000000000005
 30
0.0
 11
1444.249999999999
 21
875.5000000000005
 31
0.0
  0
CIRCLE
  5
1D6
330
1F
100
AcDbEntity
  8
ｶｳﾝﾀｰ_ｷｬﾋﾞﾈｯﾄ
  6
CONTINUOUS
 62
     6
100
AcDbCircle
 10
1410.0
 20
875.5000000000241
 30
0.0
 40
16.0
  0
CIRCLE
  5
1D7
330
1F
100
AcDbEntity
  8
ｶｳﾝﾀｰ_ｷｬﾋﾞﾈｯﾄ
  6
CONTINUOUS
 62
     6
100
AcDbCircle
 10
1409.999999999999
 20
875.5000000000005
 30
0.0
 40
19.5
  0
CIRCLE
  5
1D8
330
1F
100
AcDbEntity
  8
ｶｳﾝﾀｰ_ｷｬﾋﾞﾈｯﾄ
  6
CONTINUOUS
 62
     6
100
AcDbCircle
 10
1409.999999999999
 20
875.5000000000005
 30
0.0
 40
21.0
  0
CIRCLE
  5
1D9
330
1F
100
AcDbEntity
  8
ｶｳﾝﾀｰ_ｷｬﾋﾞﾈｯﾄ
  6
CONTINUOUS
 62
     6
100
AcDbCircle
 10
1409.999999999999
 20
875.5000000000005
 30
0.0
 40
24.25
  0
LINE
  5
1DA
330
1F
100
AcDbEntity
  8
ｶｳﾝﾀｰ_ｷｬﾋﾞﾈｯﾄ
  6
CONTINUOUS
 62
     6
100
AcDbLine
 10
1372.547892909319
 20
858.0291764799927
 30
0.0
 11
1394.16090904028
 21
857.1373831502774
 31
0.0
  0
LINE
  5
1DB
330
1F
100
AcDbEntity
  8
ｶｳﾝﾀｰ_ｷｬﾋﾞﾈｯﾄ
  6
CONTINUOUS
 62
     6
100
AcDbLine
 10
1374.114510688236
 20
895.9968694403856
 30
0.0
 11
1395.727526819259
 21
895.1050761106676
 31
0.0
  0
LINE
  5
1DC
330
1F
100
AcDbEntity
  8
ｶｳﾝﾀｰ_ｷｬﾋﾞﾈｯﾄ
  6
CONTINUOUS
 62
     6
100
AcDbLine
 10
1359.016421393299
 20
887.1289407795998
 30
0.0
 11
1373.723563903737
 21
886.5220966672136
 31
0.0
  0
LINE
  5
1DD
330
1F
100
AcDbEntity
  8
ｶｳﾝﾀｰ_ｷｬﾋﾞﾈｯﾄ
  6
CONTINUOUS
 62
     6
100
AcDbLine
 10
1358.231697183399
 20
868.1107933655999
 30
0.0
 11
1372.938839693818
 21
867.5039492532146
 31
0.0
  0
ARC
  5
1DE
330
1F
100
AcDbEntity
  8
ｶｳﾝﾀｰ_ｷｬﾋﾞﾈｯﾄ
  6
CONTINUOUS
 62
     6
100
AcDbCircle
 10
1371.77502596225
 20
877.0772336757359
 30
0.0
 40
16.24249999994036
100
AcDbArc
 50
141.7676344977704
 51
213.5067848072375
  0
ARC
  5
1DF
330
1F
100
AcDbEntity
  8
ｶｳﾝﾀｰ_ｷｬﾋﾞﾈｯﾄ
  6
CONTINUOUS
 62
     6
100
AcDbCircle
 10
1363.495595803555
 20
861.2831054056946
 30
0.0
 40
8.621249999888418
100
AcDbArc
 50
127.6309137774995
 51
177.6372096525008
  0
ARC
  5
1E0
330
1F
100
AcDbEntity
  8
ｶｳﾝﾀｰ_ｷｬﾋﾞﾈｯﾄ
  6
CONTINUOUS
 62
     6
100
AcDbCircle
 10
1364.824915069556
 20
893.4997611956519
 30
0.0
 40
8.621249999889734
100
AcDbArc
 50
177.637209652501
 51
227.6435055274939
  0
CIRCLE
  5
1E1
330
1F
100
AcDbEntity
  8
ｶｳﾝﾀｰ_ｷｬﾋﾞﾈｯﾄ
  6
CONTINUOUS
 62
     6
100
AcDbCircle
 10
1409.999999999999
 20
875.5000000000005
 30
0.0
 40
14.0
  0
LINE
  5
1E2
330
1F
100
AcDbEntity
  8
ｶｳﾝﾀｰ_ｷｬﾋﾞﾈｯﾄ
  6
CONTINUOUS
 62
     6
100
AcDbLine
 10
1356.486305763627
 20
900.5274754854968
 30
0.0
 11
1374.271172466126
 21
899.7936387364257
 31
0.0
  0
LINE
  5
1E3
330
1F
100
AcDbEntity
  8
ｶｳﾝﾀｰ_ｷｬﾋﾞﾈｯﾄ
  6
CONTINUOUS
 62
     6
100
AcDbLine
 10
1354.606364428928
 20
854.9662439330245
 30
0.0
 11
1372.391231131427
 21
854.2324071839525
 31
0.0
  0
LINE
  5
1E4
330
1F
100
AcDbEntity
  8
ｶｳﾝﾀｰ_ｷｬﾋﾞﾈｯﾄ
  6
CONTINUOUS
 62
     6
100
AcDbLine
 10
1356.486305763627
 20
900.5274754854968
 30
0.0
 11
1354.606364428928
 21
854.9662439330245
 31
0.0
  0
LINE
  5
1E5
330
1F
100
AcDbEntity
  8
ｶｳﾝﾀｰ_ｷｬﾋﾞﾈｯﾄ
  6
CONTINUOUS
 62
     6
100
AcDbLine
 10
1374.271172466126
 20
899.7936387364257
 30
0.0
 11
1372.391231131427
 21
854.2324071839525
 31
0.0
  0
LINE
  5
1E6
330
1F
100
AcDbEntity
  8
ｶｳﾝﾀｰ_ｷｬﾋﾞﾈｯﾄ
  6
CONTINUOUS
 62
     6
100
AcDbLine
 10
3581.2610618829
 20
736.5000000000105
 30
0.0
 11
3581.2610618829
 21
856.5000000000005
 31
0.0
  0
LINE
  5
1E7
330
1F
100
AcDbEntity
  8
ｶｳﾝﾀｰ_ｷｬﾋﾞﾈｯﾄ
  6
CONTINUOUS
 62
     6
100
AcDbLine
 10
3567.861061882901
 20
736.5000000000105
 30
0.0
 11
3567.861061882901
 21
852.7000000000003
 31
0.0
  0
LINE
  5
1E8
330
1F
100
AcDbEntity
  8
ｶｳﾝﾀｰ_ｷｬﾋﾞﾈｯﾄ
  6
CONTINUOUS
 62
     6
100
AcDbLine
 10
3567.861061882901
 20
898.2999999999988
 30
0.0
 11
3567.861061882901
 21
957.5000000000005
 31
0.0
  0
LINE
  5
1E9
330
1F
100
AcDbEntity
  8
ｶｳﾝﾀｰ_ｷｬﾋﾞﾈｯﾄ
  6
CONTINUOUS
 62
     6
100
AcDbLine
 10
3581.2610618829
 20
894.5000000000014
 30
0.0
 11
3581.2610618829
 21
957.5000000000005
 31
0.0
  0
LINE
  5
1EA
330
1F
100
AcDbEntity
  8
ｶｳﾝﾀｰ_ｷｬﾋﾞﾈｯﾄ
  6
CONTINUOUS
 62
     6
100
AcDbLine
 10
3624.5080136858
 20
647.5046069642399
 30
0.0
 11
3624.5080136858
 21
656.4953930358001
 31
0.0
  0
LINE
  5
1EB
330
1F
100
AcDbEntity
  8
ｶｳﾝﾀｰ_ｷｬﾋﾞﾈｯﾄ
  6
CONTINUOUS
 62
     6
100
AcDbLine
 10
3611.11411008
 20
647.5046069642399
 30
0.0
 11
3611.11411008
 21
656.4953930358001
 31
0.0
  0
ARC
  5
1EC
330
1F
100
AcDbEntity
  8
ｶｳﾝﾀｰ_ｷｬﾋﾞﾈｯﾄ
  6
CONTINUOUS
 62
     6
100
AcDbCircle
 10
3617.8110618829
 20
642.3437500000587
 30
0.0
 40
15.65624999996628
100
AcDbArc
 50
64.67518297256227
 51
115.3248170274378
  0
ARC
  5
1ED
330
1F
100
AcDbEntity
  8
ｶｳﾝﾀｰ_ｷｬﾋﾞﾈｯﾄ
  6
CONTINUOUS
 62
     6
100
AcDbCircle
 10
3627.770354026425
 20
653.7109375000477
 30
0.0
 40
4.289062499977329
100
AcDbArc
 50
90.00000000000001
 51
139.5187550025045
  0
ARC
  5
1EE
330
1F
100
AcDbEntity
  8
ｶｳﾝﾀｰ_ｷｬﾋﾞﾈｯﾄ
  6
CONTINUOUS
 62
     6
100
AcDbCircle
 10
3627.770354026425
 20
650.2890625000005
 30
0.0
 40
4.289062499977329
100
AcDbArc
 50
220.4812449974955
 51
270.0
  0
ARC
  5
1EF
330
1F
100
AcDbEntity
  8
ｶｳﾝﾀｰ_ｷｬﾋﾞﾈｯﾄ
  6
CONTINUOUS
 62
     6
100
AcDbCircle
 10
3617.8110618829
 20
661.6562499999895
 30
0.0
 40
15.65624999996628
100
AcDbArc
 50
244.6751829725621
 51
295.3248170274378
  0
ARC
  5
1F0
330
1F
100
AcDbEntity
  8
ｶｳﾝﾀｰ_ｷｬﾋﾞﾈｯﾄ
  6
CONTINUOUS
 62
     6
100
AcDbCircle
 10
3607.851769739375
 20
650.2890625000005
 30
0.0
 40
4.289062499977329
100
AcDbArc
 50
270.0
 51
319.5187550025045
  0
ARC
  5
1F1
330
1F
100
AcDbEntity
  8
ｶｳﾝﾀｰ_ｷｬﾋﾞﾈｯﾄ
  6
CONTINUOUS
 62
     6
100
AcDbCircle
 10
3607.851769739375
 20
653.7109375000477
 30
0.0
 40
4.289062499977329
100
AcDbArc
 50
40.48124499749549
 51
90.00000000000001
  0
LINE
  5
1F2
330
1F
100
AcDbEntity
  8
ｶｳﾝﾀｰ_ｷｬﾋﾞﾈｯﾄ
  6
CONTINUOUS
 62
     6
100
AcDbLine
 10
3624.5080136858
 20
693.0046069642299
 30
0.0
 11
3624.5080136858
 21
701.9953930357901
 31
0.0
  0
LINE
  5
1F3
330
1F
100
AcDbEntity
  8
ｶｳﾝﾀｰ_ｷｬﾋﾞﾈｯﾄ
  6
CONTINUOUS
 62
     6
100
AcDbLine
 10
3611.11411008
 20
693.0046069642299
 30
0.0
 11
3611.11411008
 21
701.9953930357901
 31
0.0
  0
ARC
  5
1F4
330
1F
100
AcDbEntity
  8
ｶｳﾝﾀｰ_ｷｬﾋﾞﾈｯﾄ
  6
CONTINUOUS
 62
     6
100
AcDbCircle
 10
3607.851769739375
 20
695.7890624999814
 30
0.0
 40
4.289062499977329
100
AcDbArc
 50
270.0
 51
319.5187550025045
  0
ARC
  5
1F5
330
1F
100
AcDbEntity
  8
ｶｳﾝﾀｰ_ｷｬﾋﾞﾈｯﾄ
  6
CONTINUOUS
 62
     6
100
AcDbCircle
 10
3617.8110618829
 20
707.1562499999704
 30
0.0
 40
15.65624999996628
100
AcDbArc
 50
244.6751829725621
 51
295.324817027437
  0
ARC
  5
1F6
330
1F
100
AcDbEntity
  8
ｶｳﾝﾀｰ_ｷｬﾋﾞﾈｯﾄ
  6
CONTINUOUS
 62
     6
100
AcDbCircle
 10
3627.770354026425
 20
695.7890624999814
 30
0.0
 40
4.289062499977329
100
AcDbArc
 50
220.4812449974966
 51
270.0
  0
ARC
  5
1F7
330
1F
100
AcDbEntity
  8
ｶｳﾝﾀｰ_ｷｬﾋﾞﾈｯﾄ
  6
CONTINUOUS
 62
     6
100
AcDbCircle
 10
3627.770354026425
 20
699.2109375000286
 30
0.0
 40
4.289062499977329
100
AcDbArc
 50
90.00000000000001
 51
139.5187550025034
  0
ARC
  5
1F8
330
1F
100
AcDbEntity
  8
ｶｳﾝﾀｰ_ｷｬﾋﾞﾈｯﾄ
  6
CONTINUOUS
 62
     6
100
AcDbCircle
 10
3617.8110618829
 20
687.8437500000396
 30
0.0
 40
15.65624999996628
100
AcDbArc
 50
64.67518297256302
 51
115.3248170274379
  0
ARC
  5
1F9
330
1F
100
AcDbEntity
  8
ｶｳﾝﾀｰ_ｷｬﾋﾞﾈｯﾄ
  6
CONTINUOUS
 62
     6
100
AcDbCircle
 10
3607.851769739375
 20
699.2109375000286
 30
0.0
 40
4.289062499977329
100
AcDbArc
 50
40.48124499749549
 51
90.00000000000001
  0
LINE
  5
1FA
330
1F
100
AcDbEntity
  8
ｶｳﾝﾀｰ_ｷｬﾋﾞﾈｯﾄ
  6
CONTINUOUS
 62
     6
100
AcDbLine
 10
3587.315668847099
 20
668.80304819712
 30
0.0
 11
3596.3064549187
 21
668.80304819712
 31
0.0
  0
LINE
  5
1FB
330
1F
100
AcDbEntity
  8
ｶｳﾝﾀｰ_ｷｬﾋﾞﾈｯﾄ
  6
CONTINUOUS
 62
     6
100
AcDbLine
 10
3587.315668847099
 20
682.1969518029
 30
0.0
 11
3596.3064549187
 21
682.1969518029
 31
0.0
  0
ARC
  5
1FC
330
1F
100
AcDbEntity
  8
ｶｳﾝﾀｰ_ｷｬﾋﾞﾈｯﾄ
  6
CONTINUOUS
 62
     6
100
AcDbCircle
 10
3590.1001243829
 20
665.5407078564854
 30
0.0
 40
4.289062499977329
100
AcDbArc
 50
130.4812449974934
 51
180.0
  0
ARC
  5
1FD
330
1F
100
AcDbEntity
  8
ｶｳﾝﾀｰ_ｷｬﾋﾞﾈｯﾄ
  6
CONTINUOUS
 62
     6
100
AcDbCircle
 10
3601.467311882889
 20
675.50000000001
 30
0.0
 40
15.65624999996628
100
AcDbArc
 50
154.6751829725627
 51
205.324817027437
  0
ARC
  5
1FE
330
1F
100
AcDbEntity
  8
ｶｳﾝﾀｰ_ｷｬﾋﾞﾈｯﾄ
  6
CONTINUOUS
 62
     6
100
AcDbCircle
 10
3593.521999382947
 20
665.5407078564854
 30
0.0
 40
4.289062499977329
100
AcDbArc
 50
0.0
 51
49.51875500250666
  0
ARC
  5
1FF
330
1F
100
AcDbEntity
  8
ｶｳﾝﾀｰ_ｷｬﾋﾞﾈｯﾄ
  6
CONTINUOUS
 62
     6
100
AcDbCircle
 10
3582.154811882958
 20
675.50000000001
 30
0.0
 40
15.65624999996628
100
AcDbArc
 50
334.675182972563
 51
25.32481702743741
  0
ARC
  5
200
330
1F
100
AcDbEntity
  8
ｶｳﾝﾀｰ_ｷｬﾋﾞﾈｯﾄ
  6
CONTINUOUS
 62
     6
100
AcDbCircle
 10
3593.521999382947
 20
685.4592921435351
 30
0.0
 40
4.289062499977329
100
AcDbArc
 50
310.4812449974933
 51
0.0
  0
ARC
  5
201
330
1F
100
AcDbEntity
  8
ｶｳﾝﾀｰ_ｷｬﾋﾞﾈｯﾄ
  6
CONTINUOUS
 62
     6
100
AcDbCircle
 10
3590.1001243829
 20
685.4592921435351
 30
0.0
 40
4.289062499977329
100
AcDbArc
 50
180.0
 51
229.5187550025067
  0
LINE
  5
202
330
1F
100
AcDbEntity
  8
ｶｳﾝﾀｰ_ｷｬﾋﾞﾈｯﾄ
  6
EXLTYPE3
 62
     6
100
AcDbLine
 10
3579.8110618829
 20
634.75000000006
 30
0.0
 11
3617.8110618829
 21
634.75000000006
 31
0.0
  0
LINE
  5
203
330
1F
100
AcDbEntity
  8
ｶｳﾝﾀｰ_ｷｬﾋﾞﾈｯﾄ
  6
EXLTYPE3
 62
     6
100
AcDbLine
 10
3617.8110618829
 20
663.49999999999
 30
0.0
 11
3617.8110618829
 21
708.5
 31
0.0
  0
LINE
  5
204
330
1F
100
AcDbEntity
  8
ｶｳﾝﾀｰ_ｷｬﾋﾞﾈｯﾄ
  6
CONTINUOUS
 62
     6
100
AcDbLine
 10
3585.061061882925
 20
695.5000000003852
 30
0.0
 11
3585.061061882925
 21
702.0000000000105
 31
0.0
  0
LINE
  5
205
330
1F
100
AcDbEntity
  8
ｶｳﾝﾀｰ_ｷｬﾋﾞﾈｯﾄ
  6
CONTINUOUS
 62
     6
100
AcDbLine
 10
3564.061061882925
 20
695.5000000003852
 30
0.0
 11
3564.061061882925
 21
702.0000000000105
 31
0.0
  0
ARC
  5
206
330
1F
100
AcDbEntity
  8
ｶｳﾝﾀｰ_ｷｬﾋﾞﾈｯﾄ
  6
CONTINUOUS
 62
     6
100
AcDbCircle
 10
3570.8110618829
 20
708.2500000000105
 30
0.0
 40
16.25000000000002
100
AcDbArc
 50
337.3801350519597
 51
22.61986494804051
  0
LINE
  5
207
330
1F
100
AcDbEntity
  8
ｶｳﾝﾀｰ_ｷｬﾋﾞﾈｯﾄ
  6
CONTINUOUS
 62
     6
100
AcDbLine
 10
3585.8110618829
 20
714.5000000000105
 30
0.0
 11
3563.3110618829
 21
714.5000000000105
 31
0.0
  0
LINE
  5
208
330
1F
100
AcDbEntity
  8
ｶｳﾝﾀｰ_ｷｬﾋﾞﾈｯﾄ
  6
CONTINUOUS
 62
     6
100
AcDbLine
 10
3585.8110618829
 20
702.0000000000105
 30
0.0
 11
3563.3110618829
 21
702.0000000000105
 31
0.0
  0
ELLIPSE
  5
209
330
1F
100
AcDbEntity
  8
ｶｳﾝﾀｰ_ｷｬﾋﾞﾈｯﾄ
  6
CONTINUOUS
 62
     6
100
AcDbEllipse
 10
3584.56596308327
 20
708.2500000000105
 30
0.0
 11
-1.031031008746985E-15
 21
-5.612671394804496
 31
0.0
210
0.0
220
0.0
230
1.0
 40
0.444547457729246
 41
0.0
 42
6.283185307179586
  0
LINE
  5
20A
330
1F
100
AcDbEntity
  8
ｶｳﾝﾀｰ_ｷｬﾋﾞﾈｯﾄ
  6
CONTINUOUS
 62
     6
100
AcDbLine
 10
3581.5610618829
 20
736.5000000000095
 30
0.0
 11
3567.5610618829
 21
736.5000000000095
 31
0.0
  0
ARC
  5
20B
330
1F
100
AcDbEntity
  8
ｶｳﾝﾀｰ_ｷｬﾋﾞﾈｯﾄ
  6
CONTINUOUS
 62
     6
100
AcDbCircle
 10
3578.311061882898
 20
708.2500000000105
 30
0.0
 40
16.25000000000002
100
AcDbArc
 50
157.3801350519595
 51
202.6198649480405
  0
ELLIPSE
  5
20C
330
1F
100
AcDbEntity
  8
ｶｳﾝﾀｰ_ｷｬﾋﾞﾈｯﾄ
  6
CONTINUOUS
 62
     6
100
AcDbEllipse
 10
3564.556160682528
 20
708.2500000000105
 30
0.0
 11
-1.031031008746985E-15
 21
-5.612671394804496
 31
0.0
210
0.0
220
0.0
230
1.0
 40
0.444547457729246
 41
0.0
 42
6.283185307179586
  0
ELLIPSE
  5
20D
330
1F
100
AcDbEntity
  8
ｶｳﾝﾀｰ_ｷｬﾋﾞﾈｯﾄ
  6
CONTINUOUS
 62
     6
100
AcDbEllipse
 10
3574.5610618829
 20
708.2500000000105
 30
0.0
 11
-1.030996966999055E-15
 21
-5.612486080160012
 31
0.0
210
0.0
220
0.0
230
1.0
 40
0.8728715609447605
 41
0.0
 42
6.283185307179586
  0
LINE
  5
20E
330
1F
100
AcDbEntity
  8
ｶｳﾝﾀｰ_ｷｬﾋﾞﾈｯﾄ
  6
CONTINUOUS
 62
     6
100
AcDbLine
 10
3581.5610618829
 20
714.5000000000105
 30
0.0
 11
3581.5610618829
 21
736.5000000000105
 31
0.0
  0
LINE
  5
20F
330
1F
100
AcDbEntity
  8
ｶｳﾝﾀｰ_ｷｬﾋﾞﾈｯﾄ
  6
CONTINUOUS
 62
     6
100
AcDbLine
 10
3567.5610618829
 20
714.5000000000105
 30
0.0
 11
3567.5610618829
 21
736.5000000000105
 31
0.0
  0
LINE
  5
210
330
1F
100
AcDbEntity
  8
ｶｳﾝﾀｰ_ｷｬﾋﾞﾈｯﾄ
  6
CONTINUOUS
 62
     6
100
AcDbLine
 10
3628.3110618829
 20
663.4999999999932
 30
0.0
 11
3628.3110618829
 21
658.0000000000214
 31
0.0
  0
LINE
  5
211
330
1F
100
AcDbEntity
  8
ｶｳﾝﾀｰ_ｷｬﾋﾞﾈｯﾄ
  6
CONTINUOUS
 62
     6
100
AcDbLine
 10
3607.3110618829
 20
663.4999999999932
 30
0.0
 11
3607.3110618829
 21
658.0000000000214
 31
0.0
  0
ARC
  5
212
330
1F
100
AcDbEntity
  8
ｶｳﾝﾀｰ_ｷｬﾋﾞﾈｯﾄ
  6
CONTINUOUS
 62
     6
100
AcDbCircle
 10
3625.311061882901
 20
627.5000000000132
 30
0.0
 40
1.5
100
AcDbArc
 50
270.0
 51
0.0
  0
LINE
  5
213
330
1F
100
AcDbEntity
  8
ｶｳﾝﾀｰ_ｷｬﾋﾞﾈｯﾄ
  6
CONTINUOUS
 62
     6
100
AcDbLine
 10
3626.811061882901
 20
643.5000000000132
 30
0.0
 11
3626.811061882901
 21
627.5000000000132
 31
0.0
  0
LINE
  5
214
330
1F
100
AcDbEntity
  8
ｶｳﾝﾀｰ_ｷｬﾋﾞﾈｯﾄ
  6
CONTINUOUS
 62
     6
100
AcDbLine
 10
3599.3110618829
 20
626.0000000000132
 30
0.0
 11
3625.311061882901
 21
626.0000000000132
 31
0.0
  0
LINE
  5
215
330
1F
100
AcDbEntity
  8
ｶｳﾝﾀｰ_ｷｬﾋﾞﾈｯﾄ
  6
CONTINUOUS
 62
     6
100
AcDbLine
 10
3623.9110618829
 20
639.5000000000114
 30
0.0
 11
3623.9110618829
 21
643.5000000000132
 31
0.0
  0
LINE
  5
216
330
1F
100
AcDbEntity
  8
ｶｳﾝﾀｰ_ｷｬﾋﾞﾈｯﾄ
  6
CONTINUOUS
 62
     6
100
AcDbLine
 10
3623.9110618829
 20
639.5000000000114
 30
0.0
 11
3611.711061882899
 21
639.5000000000114
 31
0.0
  0
LINE
  5
217
330
1F
100
AcDbEntity
  8
ｶｳﾝﾀｰ_ｷｬﾋﾞﾈｯﾄ
  6
CONTINUOUS
 62
     6
100
AcDbLine
 10
3611.711061882899
 20
639.5000000000114
 30
0.0
 11
3611.711061882899
 21
643.5000000000132
 31
0.0
  0
LINE
  5
218
330
1F
100
AcDbEntity
  8
ｶｳﾝﾀｰ_ｷｬﾋﾞﾈｯﾄ
  6
CONTINUOUS
 62
     6
100
AcDbLine
 10
3625.8110618829
 20
646.0000000000259
 30
0.0
 11
3625.8110618829
 21
643.5000000000132
 31
0.0
  0
LINE
  5
219
330
1F
100
AcDbEntity
  8
ｶｳﾝﾀｰ_ｷｬﾋﾞﾈｯﾄ
  6
CONTINUOUS
 62
     6
100
AcDbLine
 10
3609.8110618829
 20
646.0000000000259
 30
0.0
 11
3609.8110618829
 21
643.5000000000132
 31
0.0
  0
LINE
  5
21A
330
1F
100
AcDbEntity
  8
ｶｳﾝﾀｰ_ｷｬﾋﾞﾈｯﾄ
  6
CONTINUOUS
 62
     6
100
AcDbLine
 10
3599.3110618829
 20
643.5000000000132
 30
0.0
 11
3626.811061882901
 21
643.5000000000132
 31
0.0
  0
LINE
  5
21B
330
1F
100
AcDbEntity
  8
ｶｳﾝﾀｰ_ｷｬﾋﾞﾈｯﾄ
  6
CONTINUOUS
 62
     6
100
AcDbLine
 10
3597.811061882499
 20
645.2500000000259
 30
0.0
 11
3597.811061882499
 21
624.250000000025
 31
0.0
  0
LINE
  5
21C
330
1F
100
AcDbEntity
  8
ｶｳﾝﾀｰ_ｷｬﾋﾞﾈｯﾄ
  6
CONTINUOUS
 62
     6
100
AcDbLine
 10
3599.011061882525
 20
644.0500000000252
 30
0.0
 11
3585.111061882968
 21
644.0500000000252
 31
0.0
  0
LINE
  5
21D
330
1F
100
AcDbEntity
  8
ｶｳﾝﾀｰ_ｷｬﾋﾞﾈｯﾄ
  6
CONTINUOUS
 62
     6
100
AcDbLine
 10
3599.011061882525
 20
625.4500000000257
 30
0.0
 11
3585.111061882968
 21
625.4500000000257
 31
0.0
  0
LINE
  5
21E
330
1F
100
AcDbEntity
  8
ｶｳﾝﾀｰ_ｷｬﾋﾞﾈｯﾄ
  6
CONTINUOUS
 62
     6
100
AcDbLine
 10
3599.3110618829
 20
643.7500000000259
 30
0.0
 11
3599.3110618829
 21
625.7500000000259
 31
0.0
  0
LINE
  5
21F
330
1F
100
AcDbEntity
  8
ｶｳﾝﾀｰ_ｷｬﾋﾞﾈｯﾄ
  6
CONTINUOUS
 62
     6
100
AcDbLine
 10
3597.811061882525
 20
624.250000000025
 30
0.0
 11
3586.311061883
 21
624.250000000025
 31
0.0
  0
LINE
  5
220
330
1F
100
AcDbEntity
  8
ｶｳﾝﾀｰ_ｷｬﾋﾞﾈｯﾄ
  6
CONTINUOUS
 62
     6
100
AcDbLine
 10
3599.311061882712
 20
625.7500000002124
 30
0.0
 11
3597.811061882525
 21
624.250000000025
 31
0.0
  0
LINE
  5
221
330
1F
100
AcDbEntity
  8
ｶｳﾝﾀｰ_ｷｬﾋﾞﾈｯﾄ
  6
CONTINUOUS
 62
     6
100
AcDbLine
 10
3597.811061882525
 20
645.2500000000259
 30
0.0
 11
3586.311061883
 21
645.2500000000259
 31
0.0
  0
LINE
  5
222
330
1F
100
AcDbEntity
  8
ｶｳﾝﾀｰ_ｷｬﾋﾞﾈｯﾄ
  6
CONTINUOUS
 62
     6
100
AcDbLine
 10
3599.311061882712
 20
643.7499999998386
 30
0.0
 11
3597.811061882525
 21
645.2500000000259
 31
0.0
  0
LINE
  5
223
330
1F
100
AcDbEntity
  8
ｶｳﾝﾀｰ_ｷｬﾋﾞﾈｯﾄ
  6
CONTINUOUS
 62
     6
100
AcDbLine
 10
3586.311061883
 20
645.2500000000259
 30
0.0
 11
3586.311061883
 21
624.2500000000259
 31
0.0
  0
LINE
  5
224
330
1F
100
AcDbEntity
  8
ｶｳﾝﾀｰ_ｷｬﾋﾞﾈｯﾄ
  6
CONTINUOUS
 62
     6
100
AcDbLine
 10
3584.8110618829
 20
643.7500000000259
 30
0.0
 11
3584.8110618829
 21
625.7500000000941
 31
0.0
  0
LINE
  5
225
330
1F
100
AcDbEntity
  8
ｶｳﾝﾀｰ_ｷｬﾋﾞﾈｯﾄ
  6
CONTINUOUS
 62
     6
100
AcDbLine
 10
3584.811061882934
 20
625.7500000000596
 30
0.0
 11
3586.311061882968
 21
624.2500000000259
 31
0.0
  0
LINE
  5
226
330
1F
100
AcDbEntity
  8
ｶｳﾝﾀｰ_ｷｬﾋﾞﾈｯﾄ
  6
CONTINUOUS
 62
     6
100
AcDbLine
 10
3584.811061882934
 20
643.7499999999923
 30
0.0
 11
3586.311061882968
 21
645.2500000000259
 31
0.0
  0
LINE
  5
227
330
1F
100
AcDbEntity
  8
ｶｳﾝﾀｰ_ｷｬﾋﾞﾈｯﾄ
  6
CONTINUOUS
 62
     6
100
AcDbLine
 10
3630.523193469609
 20
657.0302947306559
 30
0.0
 11
3630.523193469609
 21
646.9697052694241
 31
0.0
  0
LINE
  5
228
330
1F
100
AcDbEntity
  8
ｶｳﾝﾀｰ_ｷｬﾋﾞﾈｯﾄ
  6
CONTINUOUS
 62
     6
100
AcDbLine
 10
3605.0610618829
 20
657.0000000000241
 30
0.0
 11
3605.0610618829
 21
647.0000000000241
 31
0.0
  0
LINE
  5
229
330
1F
100
AcDbEntity
  8
ｶｳﾝﾀｰ_ｷｬﾋﾞﾈｯﾄ
  6
CONTINUOUS
 62
     6
100
AcDbLine
 10
3606.311061882895
 20
646.0000000000268
 30
0.0
 11
3629.311061882904
 21
646.0000000000268
 31
0.0
  0
LINE
  5
22A
330
1F
100
AcDbEntity
  8
ｶｳﾝﾀｰ_ｷｬﾋﾞﾈｯﾄ
  6
CONTINUOUS
 62
     6
100
AcDbLine
 10
3629.3110618829
 20
646.0000000000232
 30
0.0
 11
3630.5610618829
 21
647.0000000000232
 31
0.0
  0
LINE
  5
22B
330
1F
100
AcDbEntity
  8
ｶｳﾝﾀｰ_ｷｬﾋﾞﾈｯﾄ
  6
CONTINUOUS
 62
     6
100
AcDbLine
 10
3606.3110618829
 20
646.0000000000232
 30
0.0
 11
3605.0610618829
 21
647.0000000000232
 31
0.0
  0
LINE
  5
22C
330
1F
100
AcDbEntity
  8
ｶｳﾝﾀｰ_ｷｬﾋﾞﾈｯﾄ
  6
CONTINUOUS
 62
     6
100
AcDbLine
 10
3606.311061882895
 20
658.0000000000214
 30
0.0
 11
3629.311061882904
 21
658.0000000000214
 31
0.0
  0
LINE
  5
22D
330
1F
100
AcDbEntity
  8
ｶｳﾝﾀｰ_ｷｬﾋﾞﾈｯﾄ
  6
CONTINUOUS
 62
     6
100
AcDbLine
 10
3629.3110618829
 20
658.000000000025
 30
0.0
 11
3630.5610618829
 21
657.000000000025
 31
0.0
  0
LINE
  5
22E
330
1F
100
AcDbEntity
  8
ｶｳﾝﾀｰ_ｷｬﾋﾞﾈｯﾄ
  6
CONTINUOUS
 62
     6
100
AcDbLine
 10
3606.3110618829
 20
658.000000000025
 30
0.0
 11
3605.0610618829
 21
657.000000000025
 31
0.0
  0
LINE
  5
22F
330
1F
100
AcDbEntity
  8
ｶｳﾝﾀｰ_ｷｬﾋﾞﾈｯﾄ
  6
CONTINUOUS
 62
     6
100
AcDbLine
 10
3605.8110618829
 20
665.000000000005
 30
0.0
 11
3597.811061882921
 21
665.000000000005
 31
0.0
  0
LINE
  5
230
330
1F
100
AcDbEntity
  8
ｶｳﾝﾀｰ_ｷｬﾋﾞﾈｯﾄ
  6
CONTINUOUS
 62
     6
100
AcDbLine
 10
3605.8110618829
 20
686.0000000000059
 30
0.0
 11
3597.811061882921
 21
686.0000000000059
 31
0.0
  0
ARC
  5
231
330
1F
100
AcDbEntity
  8
ｶｳﾝﾀｰ_ｷｬﾋﾞﾈｯﾄ
  6
CONTINUOUS
 62
     6
100
AcDbCircle
 10
3567.311061882912
 20
668.0000000000082
 30
0.0
 40
1.5
100
AcDbArc
 50
180.0
 51
270.0
  0
LINE
  5
232
330
1F
100
AcDbEntity
  8
ｶｳﾝﾀｰ_ｷｬﾋﾞﾈｯﾄ
  6
CONTINUOUS
 62
     6
100
AcDbLine
 10
3583.311061882912
 20
666.5000000000082
 30
0.0
 11
3567.311061882912
 21
666.5000000000082
 31
0.0
  0
LINE
  5
233
330
1F
100
AcDbEntity
  8
ｶｳﾝﾀｰ_ｷｬﾋﾞﾈｯﾄ
  6
CONTINUOUS
 62
     6
100
AcDbLine
 10
3565.811061882912
 20
694.00000000001
 30
0.0
 11
3565.811061882912
 21
668.0000000000082
 31
0.0
  0
LINE
  5
234
330
1F
100
AcDbEntity
  8
ｶｳﾝﾀｰ_ｷｬﾋﾞﾈｯﾄ
  6
CONTINUOUS
 62
     6
100
AcDbLine
 10
3579.311061882911
 20
669.4000000000101
 30
0.0
 11
3583.311061882912
 21
669.4000000000101
 31
0.0
  0
LINE
  5
235
330
1F
100
AcDbEntity
  8
ｶｳﾝﾀｰ_ｷｬﾋﾞﾈｯﾄ
  6
CONTINUOUS
 62
     6
100
AcDbLine
 10
3579.311061882911
 20
669.4000000000101
 30
0.0
 11
3579.311061882911
 21
681.6000000000099
 31
0.0
  0
LINE
  5
236
330
1F
100
AcDbEntity
  8
ｶｳﾝﾀｰ_ｷｬﾋﾞﾈｯﾄ
  6
CONTINUOUS
 62
     6
100
AcDbLine
 10
3579.311061882911
 20
681.6000000000099
 30
0.0
 11
3583.311061882912
 21
681.6000000000099
 31
0.0
  0
LINE
  5
237
330
1F
100
AcDbEntity
  8
ｶｳﾝﾀｰ_ｷｬﾋﾞﾈｯﾄ
  6
CONTINUOUS
 62
     6
100
AcDbLine
 10
3585.811061882925
 20
667.50000000001
 30
0.0
 11
3583.311061882912
 21
667.50000000001
 31
0.0
  0
LINE
  5
238
330
1F
100
AcDbEntity
  8
ｶｳﾝﾀｰ_ｷｬﾋﾞﾈｯﾄ
  6
CONTINUOUS
 62
     6
100
AcDbLine
 10
3585.811061882925
 20
683.50000000001
 30
0.0
 11
3583.311061882912
 21
683.50000000001
 31
0.0
  0
LINE
  5
239
330
1F
100
AcDbEntity
  8
ｶｳﾝﾀｰ_ｷｬﾋﾞﾈｯﾄ
  6
CONTINUOUS
 62
     6
100
AcDbLine
 10
3583.311061882912
 20
694.00000000001
 30
0.0
 11
3583.311061882912
 21
666.5000000000082
 31
0.0
  0
LINE
  5
23A
330
1F
100
AcDbEntity
  8
ｶｳﾝﾀｰ_ｷｬﾋﾞﾈｯﾄ
  6
CONTINUOUS
 62
     6
100
AcDbLine
 10
3585.061061882925
 20
695.5000000004102
 30
0.0
 11
3564.061061882925
 21
695.5000000004102
 31
0.0
  0
LINE
  5
23B
330
1F
100
AcDbEntity
  8
ｶｳﾝﾀｰ_ｷｬﾋﾞﾈｯﾄ
  6
CONTINUOUS
 62
     6
100
AcDbLine
 10
3583.561061882925
 20
694.00000000001
 30
0.0
 11
3565.561061882925
 21
694.00000000001
 31
0.0
  0
LINE
  5
23C
330
1F
100
AcDbEntity
  8
ｶｳﾝﾀｰ_ｷｬﾋﾞﾈｯﾄ
  6
CONTINUOUS
 62
     6
100
AcDbLine
 10
3565.561061883112
 20
694.0000000001974
 30
0.0
 11
3564.061061882925
 21
695.5000000003847
 31
0.0
  0
LINE
  5
23D
330
1F
100
AcDbEntity
  8
ｶｳﾝﾀｰ_ｷｬﾋﾞﾈｯﾄ
  6
CONTINUOUS
 62
     6
100
AcDbLine
 10
3583.561061882738
 20
694.0000000001974
 30
0.0
 11
3585.061061882925
 21
695.5000000003847
 31
0.0
  0
LINE
  5
23E
330
1F
100
AcDbEntity
  8
ｶｳﾝﾀｰ_ｷｬﾋﾞﾈｯﾄ
  6
CONTINUOUS
 62
     6
100
AcDbLine
 10
3596.841356613555
 20
662.7878684133002
 30
0.0
 11
3586.780767152324
 21
662.7878684133002
 31
0.0
  0
LINE
  5
23F
330
1F
100
AcDbEntity
  8
ｶｳﾝﾀｰ_ｷｬﾋﾞﾈｯﾄ
  6
CONTINUOUS
 62
     6
100
AcDbLine
 10
3596.811061882923
 20
688.25000000001
 30
0.0
 11
3586.811061882923
 21
688.25000000001
 31
0.0
  0
LINE
  5
240
330
1F
100
AcDbEntity
  8
ｶｳﾝﾀｰ_ｷｬﾋﾞﾈｯﾄ
  6
CONTINUOUS
 62
     6
100
AcDbLine
 10
3585.811061882927
 20
687.0000000000146
 30
0.0
 11
3585.811061882927
 21
664.0000000000055
 31
0.0
  0
LINE
  5
241
330
1F
100
AcDbEntity
  8
ｶｳﾝﾀｰ_ｷｬﾋﾞﾈｯﾄ
  6
CONTINUOUS
 62
     6
100
AcDbLine
 10
3585.811061882923
 20
664.00000000001
 30
0.0
 11
3586.811061882923
 21
662.75000000001
 31
0.0
  0
LINE
  5
242
330
1F
100
AcDbEntity
  8
ｶｳﾝﾀｰ_ｷｬﾋﾞﾈｯﾄ
  6
CONTINUOUS
 62
     6
100
AcDbLine
 10
3585.811061882923
 20
687.00000000001
 30
0.0
 11
3586.811061882923
 21
688.25000000001
 31
0.0
  0
LINE
  5
243
330
1F
100
AcDbEntity
  8
ｶｳﾝﾀｰ_ｷｬﾋﾞﾈｯﾄ
  6
CONTINUOUS
 62
     6
100
AcDbLine
 10
3597.811061882921
 20
687.0000000000146
 30
0.0
 11
3597.811061882921
 21
664.0000000000055
 31
0.0
  0
LINE
  5
244
330
1F
100
AcDbEntity
  8
ｶｳﾝﾀｰ_ｷｬﾋﾞﾈｯﾄ
  6
CONTINUOUS
 62
     6
100
AcDbLine
 10
3597.811061882925
 20
664.00000000001
 30
0.0
 11
3596.811061882925
 21
662.75000000001
 31
0.0
  0
LINE
  5
245
330
1F
100
AcDbEntity
  8
ｶｳﾝﾀｰ_ｷｬﾋﾞﾈｯﾄ
  6
CONTINUOUS
 62
     6
100
AcDbLine
 10
3597.811061882925
 20
687.00000000001
 30
0.0
 11
3596.811061882925
 21
688.25000000001
 31
0.0
  0
LINE
  5
246
330
1F
100
AcDbEntity
  8
ｶｳﾝﾀｰ_ｷｬﾋﾞﾈｯﾄ
  6
CONTINUOUS
 62
     6
100
AcDbLine
 10
3630.523193469609
 20
702.5302947306368
 30
0.0
 11
3630.523193469609
 21
692.469705269405
 31
0.0
  0
LINE
  5
247
330
1F
100
AcDbEntity
  8
ｶｳﾝﾀｰ_ｷｬﾋﾞﾈｯﾄ
  6
CONTINUOUS
 62
     6
100
AcDbLine
 10
3605.0610618829
 20
702.500000000005
 30
0.0
 11
3605.0610618829
 21
692.500000000005
 31
0.0
  0
LINE
  5
248
330
1F
100
AcDbEntity
  8
ｶｳﾝﾀｰ_ｷｬﾋﾞﾈｯﾄ
  6
CONTINUOUS
 62
     6
100
AcDbLine
 10
3606.311061882895
 20
691.5000000000077
 30
0.0
 11
3629.311061882904
 21
691.5000000000077
 31
0.0
  0
LINE
  5
249
330
1F
100
AcDbEntity
  8
ｶｳﾝﾀｰ_ｷｬﾋﾞﾈｯﾄ
  6
CONTINUOUS
 62
     6
100
AcDbLine
 10
3629.3110618829
 20
691.5000000000041
 30
0.0
 11
3630.5610618829
 21
692.5000000000041
 31
0.0
  0
LINE
  5
24A
330
1F
100
AcDbEntity
  8
ｶｳﾝﾀｰ_ｷｬﾋﾞﾈｯﾄ
  6
CONTINUOUS
 62
     6
100
AcDbLine
 10
3606.3110618829
 20
691.5000000000041
 30
0.0
 11
3605.0610618829
 21
692.5000000000041
 31
0.0
  0
LINE
  5
24B
330
1F
100
AcDbEntity
  8
ｶｳﾝﾀｰ_ｷｬﾋﾞﾈｯﾄ
  6
CONTINUOUS
 62
     6
100
AcDbLine
 10
3606.311061882895
 20
703.5000000000023
 30
0.0
 11
3629.311061882904
 21
703.5000000000023
 31
0.0
  0
LINE
  5
24C
330
1F
100
AcDbEntity
  8
ｶｳﾝﾀｰ_ｷｬﾋﾞﾈｯﾄ
  6
CONTINUOUS
 62
     6
100
AcDbLine
 10
3629.3110618829
 20
703.5000000000059
 30
0.0
 11
3630.5610618829
 21
702.5000000000059
 31
0.0
  0
LINE
  5
24D
330
1F
100
AcDbEntity
  8
ｶｳﾝﾀｰ_ｷｬﾋﾞﾈｯﾄ
  6
CONTINUOUS
 62
     6
100
AcDbLine
 10
3606.3110618829
 20
703.5000000000059
 30
0.0
 11
3605.0610618829
 21
702.5000000000059
 31
0.0
  0
LINE
  5
24E
330
1F
100
AcDbEntity
  8
ｶｳﾝﾀｰ_ｷｬﾋﾞﾈｯﾄ
  6
CONTINUOUS
 62
     6
100
AcDbLine
 10
3625.8110618829
 20
691.5000000000014
 30
0.0
 11
3625.8110618829
 21
687.4999999999932
 31
0.0
  0
LINE
  5
24F
330
1F
100
AcDbEntity
  8
ｶｳﾝﾀｰ_ｷｬﾋﾞﾈｯﾄ
  6
CONTINUOUS
 62
     6
100
AcDbLine
 10
3609.8110618829
 20
691.5000000000014
 30
0.0
 11
3609.8110618829
 21
687.4999999999932
 31
0.0
  0
LINE
  5
250
330
1F
100
AcDbEntity
  8
ｶｳﾝﾀｰ_ｷｬﾋﾞﾈｯﾄ
  6
CONTINUOUS
 62
     6
100
AcDbLine
 10
3629.8110618829
 20
663.4999999999932
 30
0.0
 11
3629.8110618829
 21
687.4999999999932
 31
0.0
  0
LINE
  5
251
330
1F
100
AcDbEntity
  8
ｶｳﾝﾀｰ_ｷｬﾋﾞﾈｯﾄ
  6
CONTINUOUS
 62
     6
100
AcDbLine
 10
3629.8110618829
 20
687.4999999999932
 30
0.0
 11
3605.8110618829
 21
687.4999999999932
 31
0.0
  0
LINE
  5
252
330
1F
100
AcDbEntity
  8
ｶｳﾝﾀｰ_ｷｬﾋﾞﾈｯﾄ
  6
CONTINUOUS
 62
     6
100
AcDbLine
 10
3629.8110618829
 20
663.4999999999932
 30
0.0
 11
3605.8110618829
 21
663.4999999999932
 31
0.0
  0
LINE
  5
253
330
1F
100
AcDbEntity
  8
ｶｳﾝﾀｰ_ｷｬﾋﾞﾈｯﾄ
  6
CONTINUOUS
 62
     6
100
AcDbLine
 10
3605.8110618829
 20
663.5000000000059
 30
0.0
 11
3605.8110618829
 21
687.4999999999932
 31
0.0
  0
LINE
  5
254
330
1F
100
AcDbEntity
  8
ｶｳﾝﾀｰ_ｷｬﾋﾞﾈｯﾄ
  6
EXLTYPE4
 62
     6
100
AcDbLine
 10
2309.999999999998
 20
572.5
 30
0.0
 11
3659.999999999999
 21
572.5000000000005
 31
0.0
  0
LINE
  5
255
330
1F
100
AcDbEntity
  8
ｶｳﾝﾀｰ_ｷｬﾋﾞﾈｯﾄ
  6
EXLTYPE4
 62
     6
100
AcDbLine
 10
1729.999999999999
 20
572.5
 30
0.0
 11
1979.999999999998
 21
572.5
 31
0.0
  0
LINE
  5
256
330
1F
100
AcDbEntity
  8
ｶｳﾝﾀｰ_ｷｬﾋﾞﾈｯﾄ
  6
CONTINUOUS
 62
     6
100
AcDbLine
 10
3646.797560975609
 20
906.1649914156001
 30
0.0
 11
3688.797560975599
 21
906.1649914156001
 31
0.0
  0
LINE
  5
257
330
1F
100
AcDbEntity
  8
ｶｳﾝﾀｰ_ｷｬﾋﾞﾈｯﾄ
  6
CONTINUOUS
 62
     6
100
AcDbLine
 10
3646.297560975599
 20
862.1649914156001
 30
0.0
 11
3688.797560975599
 21
862.1649914156001
 31
0.0
  0
LINE
  5
258
330
1F
100
AcDbEntity
  8
ｶｳﾝﾀｰ_ｷｬﾋﾞﾈｯﾄ
  6
CONTINUOUS
 62
     6
100
AcDbLine
 10
3659.999999999999
 20
860.6649914156001
 30
0.0
 11
3683.797560975599
 21
862.1649914156001
 31
0.0
  0
LINE
  5
259
330
1F
100
AcDbEntity
  8
ｶｳﾝﾀｰ_ｷｬﾋﾞﾈｯﾄ
  6
CONTINUOUS
 62
     6
100
AcDbLine
 10
3659.999999999999
 20
863.6649914156001
 30
0.0
 11
3683.797560975599
 21
862.1649914156001
 31
0.0
  0
LINE
  5
25A
330
1F
100
AcDbEntity
  8
ｶｳﾝﾀｰ_ｷｬﾋﾞﾈｯﾄ
  6
CONTINUOUS
 62
     6
100
AcDbLine
 10
3653.797560975599
 20
857.4649914156003
 30
0.0
 11
3653.797560975599
 21
866.8649914156008
 31
0.0
  0
ARC
  5
25B
330
1F
100
AcDbEntity
  8
ｶｳﾝﾀｰ_ｷｬﾋﾞﾈｯﾄ
  6
CONTINUOUS
 62
     6
100
AcDbCircle
 10
3656.965560975599
 20
862.1649914156001
 30
0.0
 40
5.66799999999985
100
AcDbArc
 50
123.9816465839693
 51
236.0183534160307
  0
LINE
  5
25C
330
1F
100
AcDbEntity
  8
ｶｳﾝﾀｰ_ｷｬﾋﾞﾈｯﾄ
  6
CONTINUOUS
 62
     6
100
AcDbLine
 10
3651.297560975599
 20
862.1649914156001
 30
0.0
 11
3652.154882385572
 21
863.6499156560908
 31
0.0
  0
LINE
  5
25D
330
1F
100
AcDbEntity
  8
ｶｳﾝﾀｰ_ｷｬﾋﾞﾈｯﾄ
  6
CONTINUOUS
 62
     6
100
AcDbLine
 10
3651.297560975599
 20
862.1649914156001
 30
0.0
 11
3652.154882385572
 21
860.6800671751103
 31
0.0
  0
LINE
  5
25E
330
1F
100
AcDbEntity
  8
ｶｳﾝﾀｰ_ｷｬﾋﾞﾈｯﾄ
  6
CONTINUOUS
 62
     6
100
AcDbLine
 10
3659.999999999999
 20
904.6649914156001
 30
0.0
 11
3683.797560975599
 21
906.1649914156001
 31
0.0
  0
LINE
  5
25F
330
1F
100
AcDbEntity
  8
ｶｳﾝﾀｰ_ｷｬﾋﾞﾈｯﾄ
  6
CONTINUOUS
 62
     6
100
AcDbLine
 10
3659.999999999999
 20
907.6649914156001
 30
0.0
 11
3683.797560975599
 21
906.1649914156001
 31
0.0
  0
LINE
  5
260
330
1F
100
AcDbEntity
  8
ｶｳﾝﾀｰ_ｷｬﾋﾞﾈｯﾄ
  6
CONTINUOUS
 62
     6
100
AcDbLine
 10
3653.797560975599
 20
901.4649914156003
 30
0.0
 11
3653.797560975599
 21
910.8649914156008
 31
0.0
  0
ARC
  5
261
330
1F
100
AcDbEntity
  8
ｶｳﾝﾀｰ_ｷｬﾋﾞﾈｯﾄ
  6
CONTINUOUS
 62
     6
100
AcDbCircle
 10
3656.965560975599
 20
906.1649914156001
 30
0.0
 40
5.66799999999985
100
AcDbArc
 50
123.9816465839693
 51
236.0183534160307
  0
LINE
  5
262
330
1F
100
AcDbEntity
  8
ｶｳﾝﾀｰ_ｷｬﾋﾞﾈｯﾄ
  6
CONTINUOUS
 62
     6
100
AcDbLine
 10
3651.297560975599
 20
906.1649914156001
 30
0.0
 11
3652.154882385572
 21
907.6499156560908
 31
0.0
  0
LINE
  5
263
330
1F
100
AcDbEntity
  8
ｶｳﾝﾀｰ_ｷｬﾋﾞﾈｯﾄ
  6
CONTINUOUS
 62
     6
100
AcDbLine
 10
3651.297560975599
 20
906.1649914156001
 30
0.0
 11
3652.154882385572
 21
904.6800671751103
 31
0.0
  0
LINE
  5
264
330
1F
100
AcDbEntity
  8
ｶｳﾝﾀｰ_ｷｬﾋﾞﾈｯﾄ
  6
CONTINUOUS
 62
     6
100
AcDbLine
 10
3633.548893843399
 20
874.1649914156001
 30
0.0
 11
3652.0
 21
874.1649914156001
 31
0.0
  0
LINE
  5
265
330
1F
100
AcDbEntity
  8
ｶｳﾝﾀｰ_ｷｬﾋﾞﾈｯﾄ
  6
CONTINUOUS
 62
     6
100
AcDbLine
 10
3633.548893843399
 20
876.1649914156001
 30
0.0
 11
3652.0
 21
876.1649914156001
 31
0.0
  0
LINE
  5
266
330
1F
100
AcDbEntity
  8
ｶｳﾝﾀｰ_ｷｬﾋﾞﾈｯﾄ
  6
CONTINUOUS
 62
     6
100
AcDbLine
 10
3645.900000000007
 20
869.1649914156001
 30
0.0
 11
3636.099999999993
 21
869.1649914156001
 31
0.0
  0
LINE
  5
267
330
1F
100
AcDbEntity
  8
ｶｳﾝﾀｰ_ｷｬﾋﾞﾈｯﾄ
  6
CONTINUOUS
 62
     6
100
AcDbLine
 10
3638.11324865405
 20
874.1649914156001
 30
0.0
 11
3638.11324865405
 21
869.6693084299
 31
0.0
  0
LINE
  5
268
330
1F
100
AcDbEntity
  8
ｶｳﾝﾀｰ_ｷｬﾋﾞﾈｯﾄ
  6
CONTINUOUS
 62
     6
100
AcDbLine
 10
3643.88675134595
 20
874.1649914156001
 30
0.0
 11
3643.88675134595
 21
869.6693084299
 31
0.0
  0
LINE
  5
269
330
1F
100
AcDbEntity
  8
ｶｳﾝﾀｰ_ｷｬﾋﾞﾈｯﾄ
  6
CONTINUOUS
 62
     6
100
AcDbLine
 10
3646.7735026919
 20
874.1649914156001
 30
0.0
 11
3646.7735026919
 21
869.6693084299027
 31
0.0
  0
LINE
  5
26A
330
1F
100
AcDbEntity
  8
ｶｳﾝﾀｰ_ｷｬﾋﾞﾈｯﾄ
  6
CONTINUOUS
 62
     6
100
AcDbLine
 10
3645.900000000001
 20
869.1649914155973
 30
0.0
 11
3646.7735026919
 21
869.6693084299027
 31
0.0
  0
LINE
  5
26B
330
1F
100
AcDbEntity
  8
ｶｳﾝﾀｰ_ｷｬﾋﾞﾈｯﾄ
  6
CONTINUOUS
 62
     6
100
AcDbLine
 10
3636.099999999999
 20
869.1649914155973
 30
0.0
 11
3635.2264973081
 21
869.6693084299027
 31
0.0
  0
LINE
  5
26C
330
1F
100
AcDbEntity
  8
ｶｳﾝﾀｰ_ｷｬﾋﾞﾈｯﾄ
  6
CONTINUOUS
 62
     6
100
AcDbLine
 10
3646.7735026919
 20
874.1649914156001
 30
0.0
 11
3635.2264973081
 21
874.1649914156001
 31
0.0
  0
LINE
  5
26D
330
1F
100
AcDbEntity
  8
ｶｳﾝﾀｰ_ｷｬﾋﾞﾈｯﾄ
  6
CONTINUOUS
 62
     6
100
AcDbLine
 10
3638.11324865405
 20
897.6606744013002
 30
0.0
 11
3638.11324865405
 21
894.1649914156001
 31
0.0
  0
LINE
  5
26E
330
1F
100
AcDbEntity
  8
ｶｳﾝﾀｰ_ｷｬﾋﾞﾈｯﾄ
  6
CONTINUOUS
 62
     6
100
AcDbLine
 10
3643.88675134595
 20
897.6606744013002
 30
0.0
 11
3643.88675134595
 21
894.1649914156001
 31
0.0
  0
LINE
  5
26F
330
1F
100
AcDbEntity
  8
ｶｳﾝﾀｰ_ｷｬﾋﾞﾈｯﾄ
  6
CONTINUOUS
 62
     6
100
AcDbLine
 10
3646.7735026919
 20
897.6606744012975
 30
0.0
 11
3646.7735026919
 21
894.1649914156001
 31
0.0
  0
LINE
  5
270
330
1F
100
AcDbEntity
  8
ｶｳﾝﾀｰ_ｷｬﾋﾞﾈｯﾄ
  6
CONTINUOUS
 62
     6
100
AcDbLine
 10
3636.099999999993
 20
898.1649914156001
 30
0.0
 11
3645.900000000007
 21
898.1649914156001
 31
0.0
  0
LINE
  5
271
330
1F
100
AcDbEntity
  8
ｶｳﾝﾀｰ_ｷｬﾋﾞﾈｯﾄ
  6
CONTINUOUS
 62
     6
100
AcDbLine
 10
3636.099999999999
 20
898.1649914156028
 30
0.0
 11
3635.2264973081
 21
897.6606744012975
 31
0.0
  0
LINE
  5
272
330
1F
100
AcDbEntity
  8
ｶｳﾝﾀｰ_ｷｬﾋﾞﾈｯﾄ
  6
CONTINUOUS
 62
     6
100
AcDbLine
 10
3645.900000000001
 20
898.1649914156028
 30
0.0
 11
3646.7735026919
 21
897.6606744012975
 31
0.0
  0
LINE
  5
273
330
1F
100
AcDbEntity
  8
ｶｳﾝﾀｰ_ｷｬﾋﾞﾈｯﾄ
  6
CONTINUOUS
 62
     6
100
AcDbLine
 10
3646.7735026919
 20
894.1649914156001
 30
0.0
 11
3635.2264973081
 21
894.1649914156001
 31
0.0
  0
LINE
  5
274
330
1F
100
AcDbEntity
  8
ｶｳﾝﾀｰ_ｷｬﾋﾞﾈｯﾄ
  6
CONTINUOUS
 62
     6
100
AcDbLine
 10
3627.320508075689
 20
894.1649914156001
 30
0.0
 11
3652.0
 21
894.1649914156001
 31
0.0
  0
LINE
  5
275
330
1F
100
AcDbEntity
  8
ｶｳﾝﾀｰ_ｷｬﾋﾞﾈｯﾄ
  6
CONTINUOUS
 62
     6
100
AcDbLine
 10
3632.353746889503
 20
892.1649914156001
 30
0.0
 11
3652.0
 21
892.1649914156001
 31
0.0
  0
LINE
  5
276
330
1F
100
AcDbEntity
  8
ｶｳﾝﾀｰ_ｷｬﾋﾞﾈｯﾄ
  6
CONTINUOUS
 62
     6
100
AcDbLine
 10
3652.0
 20
894.1649914156001
 30
0.0
 11
3652.0
 21
887.1649914156001
 31
0.0
  0
LINE
  5
277
330
1F
100
AcDbEntity
  8
ｶｳﾝﾀｰ_ｷｬﾋﾞﾈｯﾄ
  6
CONTINUOUS
 62
     6
100
AcDbLine
 10
3652.0
 20
881.1649914156001
 30
0.0
 11
3652.0
 21
874.1649914156001
 31
0.0
  0
LINE
  5
278
330
1F
100
AcDbEntity
  8
ｶｳﾝﾀｰ_ｷｬﾋﾞﾈｯﾄ
  6
CONTINUOUS
 62
     6
100
AcDbLine
 10
3652.1
 20
894.1649914156001
 30
0.0
 11
3652.1
 21
874.1649914156001
 31
0.0
  0
LINE
  5
279
330
1F
100
AcDbEntity
  8
ｶｳﾝﾀｰ_ｷｬﾋﾞﾈｯﾄ
  6
CONTINUOUS
 62
     6
100
AcDbLine
 10
3660.0
 20
914.6649914156001
 30
0.0
 11
3660.0
 21
853.6649914156001
 31
0.0
  0
LINE
  5
27A
330
1F
100
AcDbEntity
  8
ｶｳﾝﾀｰ_ｷｬﾋﾞﾈｯﾄ
  6
CONTINUOUS
 62
     6
100
AcDbLine
 10
3652.1
 20
894.1649914156001
 30
0.0
 11
3655.0
 21
914.6649914156001
 31
0.0
  0
LINE
  5
27B
330
1F
100
AcDbEntity
  8
ｶｳﾝﾀｰ_ｷｬﾋﾞﾈｯﾄ
  6
CONTINUOUS
 62
     6
100
AcDbLine
 10
3655.0
 20
914.6649914156001
 30
0.0
 11
3660.0
 21
914.6649914156001
 31
0.0
  0
LINE
  5
27C
330
1F
100
AcDbEntity
  8
ｶｳﾝﾀｰ_ｷｬﾋﾞﾈｯﾄ
  6
CONTINUOUS
 62
     6
100
AcDbLine
 10
3652.1
 20
874.1649914156001
 30
0.0
 11
3655.0
 21
853.6649914156001
 31
0.0
  0
LINE
  5
27D
330
1F
100
AcDbEntity
  8
ｶｳﾝﾀｰ_ｷｬﾋﾞﾈｯﾄ
  6
CONTINUOUS
 62
     6
100
AcDbLine
 10
3655.0
 20
853.6649914156001
 30
0.0
 11
3660.0
 21
853.6649914156001
 31
0.0
  0
LINE
  5
27E
330
1F
100
AcDbEntity
  8
ｶｳﾝﾀｰ_ｷｬﾋﾞﾈｯﾄ
  6
CONTINUOUS
 62
     2
100
AcDbLine
 10
3626.336721272921
 20
891.4073479491849
 30
0.0
 11
3627.721164974755
 21
957.5000000000005
 31
0.0
  0
LINE
  5
27F
330
1F
100
AcDbEntity
  8
ｶｳﾝﾀｰ_ｷｬﾋﾞﾈｯﾄ
  6
CONTINUOUS
 62
     2
100
AcDbLine
 10
3594.349372127041
 20
892.3464088835467
 30
0.0
 11
3595.714145306421
 21
957.5000000000005
 31
0.0
  0
LINE
  5
280
330
1F
100
AcDbEntity
  8
ｶｳﾝﾀｰ_ｷｬﾋﾞﾈｯﾄ
  6
EXLTYPE3
 62
     6
100
AcDbLine
 10
3476.0
 20
875.5000000000005
 30
0.0
 11
3642.799999999999
 21
875.5000000000005
 31
0.0
  0
LINE
  5
281
330
1F
100
AcDbEntity
  8
ｶｳﾝﾀｰ_ｷｬﾋﾞﾈｯﾄ
  6
CONTINUOUS
 62
     2
100
AcDbLine
 10
3485.999999999999
 20
859.5000000000014
 30
0.0
 11
3496.7881347287
 21
859.5000000000014
 31
0.0
  0
LINE
  5
282
330
1F
100
AcDbEntity
  8
ｶｳﾝﾀｰ_ｷｬﾋﾞﾈｯﾄ
  6
CONTINUOUS
 62
     2
100
AcDbLine
 10
3514.5881347287
 20
859.5000000000014
 30
0.0
 11
3555.5
 21
859.5000000000014
 31
0.0
  0
LINE
  5
283
330
1F
100
AcDbEntity
  8
ｶｳﾝﾀｰ_ｷｬﾋﾞﾈｯﾄ
  6
CONTINUOUS
 62
     2
100
AcDbLine
 10
3485.999999999999
 20
891.5000000000014
 30
0.0
 11
3496.7881347287
 21
891.5000000000014
 31
0.0
  0
LINE
  5
284
330
1F
100
AcDbEntity
  8
ｶｳﾝﾀｰ_ｷｬﾋﾞﾈｯﾄ
  6
CONTINUOUS
 62
     2
100
AcDbLine
 10
3514.5881347287
 20
891.5000000000014
 30
0.0
 11
3555.5
 21
891.5000000000014
 31
0.0
  0
LINE
  5
285
330
1F
100
AcDbEntity
  8
ｶｳﾝﾀｰ_ｷｬﾋﾞﾈｯﾄ
  6
CONTINUOUS
 62
     2
100
AcDbLine
 10
3485.999999999999
 20
891.5000000000014
 30
0.0
 11
3485.999999999999
 21
859.5000000000014
 31
0.0
  0
LINE
  5
286
330
1F
100
AcDbEntity
  8
ｶｳﾝﾀｰ_ｷｬﾋﾞﾈｯﾄ
  6
CONTINUOUS
 62
     6
100
AcDbLine
 10
2309.999999999999
 20
1042.5
 30
0.0
 11
3659.999999999997
 21
1042.5
 31
0.0
  0
CIRCLE
  5
287
330
1F
100
AcDbEntity
  8
ｶｳﾝﾀｰ_ｷｬﾋﾞﾈｯﾄ
  6
EXLTYPE2
 62
     6
100
AcDbCircle
 10
3320.499999999999
 20
1014.200371133099
 30
0.0
 40
4.7
  0
LINE
  5
288
330
1F
100
AcDbEntity
  8
ｶｳﾝﾀｰ_ｷｬﾋﾞﾈｯﾄ
  6
CONTINUOUS
 62
     6
100
AcDbLine
 10
3310.799999999998
 20
1014.2003711331
 30
0.0
 11
3330.199999999998
 21
1014.2003711331
 31
0.0
  0
LINE
  5
289
330
1F
100
AcDbEntity
  8
ｶｳﾝﾀｰ_ｷｬﾋﾞﾈｯﾄ
  6
CONTINUOUS
 62
     6
100
AcDbLine
 10
3320.499999999997
 20
1023.900371133099
 30
0.0
 11
3320.499999999997
 21
1004.5003711331
 31
0.0
  0
CIRCLE
  5
28A
330
1F
100
AcDbEntity
  8
ｶｳﾝﾀｰ_ｷｬﾋﾞﾈｯﾄ
  6
EXLTYPE2
 62
     6
100
AcDbCircle
 10
2718.999999999999
 20
1026.7999999997
 30
0.0
 40
4.7
  0
LINE
  5
28B
330
1F
100
AcDbEntity
  8
ｶｳﾝﾀｰ_ｷｬﾋﾞﾈｯﾄ
  6
CONTINUOUS
 62
     6
100
AcDbLine
 10
2709.299999999998
 20
1026.799999999701
 30
0.0
 11
2728.699999999998
 21
1026.799999999701
 31
0.0
  0
LINE
  5
28C
330
1F
100
AcDbEntity
  8
ｶｳﾝﾀｰ_ｷｬﾋﾞﾈｯﾄ
  6
CONTINUOUS
 62
     6
100
AcDbLine
 10
2718.999999999997
 20
1036.499999999699
 30
0.0
 11
2718.999999999997
 21
1017.0999999997
 31
0.0
  0
LINE
  5
28D
330
1F
100
AcDbEntity
  8
ｶｳﾝﾀｰ_ｷｬﾋﾞﾈｯﾄ
  6
CONTINUOUS
 62
     2
100
AcDbLine
 10
2309.999999999999
 20
1067.5
 30
0.0
 11
3659.999999999997
 21
1067.5
 31
0.0
  0
LINE
  5
28E
330
1F
100
AcDbEntity
  8
ｶｳﾝﾀｰ_ｷｬﾋﾞﾈｯﾄ
  6
CONTINUOUS
 62
     2
100
AcDbLine
 10
2309.999999999999
 20
1057.5
 30
0.0
 11
3659.999999999997
 21
1057.5
 31
0.0
  0
LINE
  5
28F
330
1F
100
AcDbEntity
  8
ｶｳﾝﾀｰ_ｷｬﾋﾞﾈｯﾄ
  6
CONTINUOUS
 62
     2
100
AcDbLine
 10
2309.999999999999
 20
957.5000000000005
 30
0.0
 11
3659.999999999997
 21
957.5000000000005
 31
0.0
  0
CIRCLE
  5
290
330
1F
100
AcDbEntity
  8
ｶｳﾝﾀｰ_ｷｬﾋﾞﾈｯﾄ
  6
EXLTYPE2
 62
     6
100
AcDbCircle
 10
3584.999999999999
 20
977.4999999999995
 30
0.0
 40
4.7
  0
LINE
  5
291
330
1F
100
AcDbEntity
  8
ｶｳﾝﾀｰ_ｷｬﾋﾞﾈｯﾄ
  6
CONTINUOUS
 62
     6
100
AcDbLine
 10
3575.299999999998
 20
977.5000000000005
 30
0.0
 11
3594.699999999998
 21
977.5000000000005
 31
0.0
  0
LINE
  5
292
330
1F
100
AcDbEntity
  8
ｶｳﾝﾀｰ_ｷｬﾋﾞﾈｯﾄ
  6
CONTINUOUS
 62
     6
100
AcDbLine
 10
3584.999999999997
 20
987.1999999999994
 30
0.0
 11
3584.999999999997
 21
967.7999999999997
 31
0.0
  0
CIRCLE
  5
293
330
1F
100
AcDbEntity
  8
ｶｳﾝﾀｰ_ｷｬﾋﾞﾈｯﾄ
  6
EXLTYPE2
 62
     6
100
AcDbCircle
 10
3584.999999999999
 20
1047.5
 30
0.0
 40
4.7
  0
LINE
  5
294
330
1F
100
AcDbEntity
  8
ｶｳﾝﾀｰ_ｷｬﾋﾞﾈｯﾄ
  6
CONTINUOUS
 62
     6
100
AcDbLine
 10
3575.299999999998
 20
1047.5
 30
0.0
 11
3594.699999999998
 21
1047.5
 31
0.0
  0
LINE
  5
295
330
1F
100
AcDbEntity
  8
ｶｳﾝﾀｰ_ｷｬﾋﾞﾈｯﾄ
  6
CONTINUOUS
 62
     6
100
AcDbLine
 10
3584.999999999997
 20
1057.199999999999
 30
0.0
 11
3584.999999999997
 21
1037.8
 31
0.0
  0
CIRCLE
  5
296
330
1F
100
AcDbEntity
  8
ｶｳﾝﾀｰ_ｷｬﾋﾞﾈｯﾄ
  6
EXLTYPE2
 62
     6
100
AcDbCircle
 10
3289.999999999999
 20
977.4999999999995
 30
0.0
 40
4.7
  0
LINE
  5
297
330
1F
100
AcDbEntity
  8
ｶｳﾝﾀｰ_ｷｬﾋﾞﾈｯﾄ
  6
CONTINUOUS
 62
     6
100
AcDbLine
 10
3280.299999999998
 20
977.5000000000005
 30
0.0
 11
3299.699999999998
 21
977.5000000000005
 31
0.0
  0
LINE
  5
298
330
1F
100
AcDbEntity
  8
ｶｳﾝﾀｰ_ｷｬﾋﾞﾈｯﾄ
  6
CONTINUOUS
 62
     6
100
AcDbLine
 10
3289.999999999997
 20
987.1999999999994
 30
0.0
 11
3289.999999999997
 21
967.7999999999997
 31
0.0
  0
CIRCLE
  5
299
330
1F
100
AcDbEntity
  8
ｶｳﾝﾀｰ_ｷｬﾋﾞﾈｯﾄ
  6
EXLTYPE2
 62
     6
100
AcDbCircle
 10
3289.999999999999
 20
1047.5
 30
0.0
 40
4.7
  0
LINE
  5
29A
330
1F
100
AcDbEntity
  8
ｶｳﾝﾀｰ_ｷｬﾋﾞﾈｯﾄ
  6
CONTINUOUS
 62
     6
100
AcDbLine
 10
3280.299999999998
 20
1047.5
 30
0.0
 11
3299.699999999998
 21
1047.5
 31
0.0
  0
LINE
  5
29B
330
1F
100
AcDbEntity
  8
ｶｳﾝﾀｰ_ｷｬﾋﾞﾈｯﾄ
  6
CONTINUOUS
 62
     6
100
AcDbLine
 10
3289.999999999997
 20
1057.199999999999
 30
0.0
 11
3289.999999999997
 21
1037.8
 31
0.0
  0
CIRCLE
  5
29C
330
1F
100
AcDbEntity
  8
ｶｳﾝﾀｰ_ｷｬﾋﾞﾈｯﾄ
  6
EXLTYPE2
 62
     6
100
AcDbCircle
 10
3024.999999999999
 20
977.4999999999995
 30
0.0
 40
4.7
  0
LINE
  5
29D
330
1F
100
AcDbEntity
  8
ｶｳﾝﾀｰ_ｷｬﾋﾞﾈｯﾄ
  6
CONTINUOUS
 62
     6
100
AcDbLine
 10
3015.299999999998
 20
977.5000000000005
 30
0.0
 11
3034.699999999998
 21
977.5000000000005
 31
0.0
  0
LINE
  5
29E
330
1F
100
AcDbEntity
  8
ｶｳﾝﾀｰ_ｷｬﾋﾞﾈｯﾄ
  6
CONTINUOUS
 62
     6
100
AcDbLine
 10
3024.999999999997
 20
987.1999999999994
 30
0.0
 11
3024.999999999997
 21
967.7999999999997
 31
0.0
  0
CIRCLE
  5
29F
330
1F
100
AcDbEntity
  8
ｶｳﾝﾀｰ_ｷｬﾋﾞﾈｯﾄ
  6
EXLTYPE2
 62
     6
100
AcDbCircle
 10
3024.999999999999
 20
1047.5
 30
0.0
 40
4.7
  0
LINE
  5
2A0
330
1F
100
AcDbEntity
  8
ｶｳﾝﾀｰ_ｷｬﾋﾞﾈｯﾄ
  6
CONTINUOUS
 62
     6
100
AcDbLine
 10
3015.299999999998
 20
1047.5
 30
0.0
 11
3034.699999999998
 21
1047.5
 31
0.0
  0
LINE
  5
2A1
330
1F
100
AcDbEntity
  8
ｶｳﾝﾀｰ_ｷｬﾋﾞﾈｯﾄ
  6
CONTINUOUS
 62
     6
100
AcDbLine
 10
3024.999999999997
 20
1057.199999999999
 30
0.0
 11
3024.999999999997
 21
1037.8
 31
0.0
  0
CIRCLE
  5
2A2
330
1F
100
AcDbEntity
  8
ｶｳﾝﾀｰ_ｷｬﾋﾞﾈｯﾄ
  6
EXLTYPE2
 62
     6
100
AcDbCircle
 10
2637.999999999999
 20
977.4999999999995
 30
0.0
 40
4.7
  0
LINE
  5
2A3
330
1F
100
AcDbEntity
  8
ｶｳﾝﾀｰ_ｷｬﾋﾞﾈｯﾄ
  6
CONTINUOUS
 62
     6
100
AcDbLine
 10
2628.299999999998
 20
977.5000000000005
 30
0.0
 11
2647.699999999998
 21
977.5000000000005
 31
0.0
  0
LINE
  5
2A4
330
1F
100
AcDbEntity
  8
ｶｳﾝﾀｰ_ｷｬﾋﾞﾈｯﾄ
  6
CONTINUOUS
 62
     6
100
AcDbLine
 10
2637.999999999997
 20
987.1999999999994
 30
0.0
 11
2637.999999999997
 21
967.7999999999997
 31
0.0
  0
CIRCLE
  5
2A5
330
1F
100
AcDbEntity
  8
ｶｳﾝﾀｰ_ｷｬﾋﾞﾈｯﾄ
  6
EXLTYPE2
 62
     6
100
AcDbCircle
 10
2637.999999999999
 20
1047.5
 30
0.0
 40
4.7
  0
LINE
  5
2A6
330
1F
100
AcDbEntity
  8
ｶｳﾝﾀｰ_ｷｬﾋﾞﾈｯﾄ
  6
CONTINUOUS
 62
     6
100
AcDbLine
 10
2628.299999999998
 20
1047.5
 30
0.0
 11
2647.699999999998
 21
1047.5
 31
0.0
  0
LINE
  5
2A7
330
1F
100
AcDbEntity
  8
ｶｳﾝﾀｰ_ｷｬﾋﾞﾈｯﾄ
  6
CONTINUOUS
 62
     6
100
AcDbLine
 10
2637.999999999997
 20
1057.199999999999
 30
0.0
 11
2637.999999999997
 21
1037.8
 31
0.0
  0
CIRCLE
  5
2A8
330
1F
100
AcDbEntity
  8
ｶｳﾝﾀｰ_ｷｬﾋﾞﾈｯﾄ
  6
EXLTYPE2
 62
     6
100
AcDbCircle
 10
2387.999999999999
 20
977.4999999999995
 30
0.0
 40
4.7
  0
LINE
  5
2A9
330
1F
100
AcDbEntity
  8
ｶｳﾝﾀｰ_ｷｬﾋﾞﾈｯﾄ
  6
CONTINUOUS
 62
     6
100
AcDbLine
 10
2378.299999999998
 20
977.5000000000005
 30
0.0
 11
2397.699999999998
 21
977.5000000000005
 31
0.0
  0
LINE
  5
2AA
330
1F
100
AcDbEntity
  8
ｶｳﾝﾀｰ_ｷｬﾋﾞﾈｯﾄ
  6
CONTINUOUS
 62
     6
100
AcDbLine
 10
2387.999999999997
 20
987.1999999999994
 30
0.0
 11
2387.999999999997
 21
967.7999999999997
 31
0.0
  0
CIRCLE
  5
2AB
330
1F
100
AcDbEntity
  8
ｶｳﾝﾀｰ_ｷｬﾋﾞﾈｯﾄ
  6
EXLTYPE2
 62
     6
100
AcDbCircle
 10
2387.999999999999
 20
1047.5
 30
0.0
 40
4.7
  0
LINE
  5
2AC
330
1F
100
AcDbEntity
  8
ｶｳﾝﾀｰ_ｷｬﾋﾞﾈｯﾄ
  6
CONTINUOUS
 62
     6
100
AcDbLine
 10
2378.299999999998
 20
1047.5
 30
0.0
 11
2397.699999999998
 21
1047.5
 31
0.0
  0
LINE
  5
2AD
330
1F
100
AcDbEntity
  8
ｶｳﾝﾀｰ_ｷｬﾋﾞﾈｯﾄ
  6
CONTINUOUS
 62
     6
100
AcDbLine
 10
2387.999999999997
 20
1057.199999999999
 30
0.0
 11
2387.999999999997
 21
1037.8
 31
0.0
  0
LINE
  5
2AE
330
1F
100
AcDbEntity
  8
ｶｳﾝﾀｰ_ｷｬﾋﾞﾈｯﾄ
  6
CONTINUOUS
 62
     2
100
AcDbLine
 10
3659.999999999997
 20
1067.5
 30
0.0
 11
3659.999999999997
 21
957.5000000000005
 31
0.0
  0
LINE
  5
2AF
330
1F
100
AcDbEntity
  8
ｶｳﾝﾀｰ_ｷｬﾋﾞﾈｯﾄ
  6
CONTINUOUS
 62
     6
100
AcDbLine
 10
2264.5
 20
1215.499999999999
 30
0.0
 11
2025.499999999989
 21
1215.499999999999
 31
0.0
  0
LINE
  5
2B0
330
1F
100
AcDbEntity
  8
ｶｳﾝﾀｰ_ｷｬﾋﾞﾈｯﾄ
  6
CONTINUOUS
 62
     6
100
AcDbLine
 10
2264.5
 20
1201.499999999999
 30
0.0
 11
2025.499999999993
 21
1201.499999999999
 31
0.0
  0
ARC
  5
2B1
330
1F
100
AcDbEntity
  8
ｶｳﾝﾀｰ_ｷｬﾋﾞﾈｯﾄ
  6
CONTINUOUS
 62
     6
100
AcDbCircle
 10
1997.999999999993
 20
1215.249999999999
 30
0.0
 40
0.5
100
AcDbArc
 50
90.00000000000001
 51
180.0
  0
POLYLINE
  5
2B2
330
1F
100
AcDbEntity
  8
ｶｳﾝﾀｰ_ｷｬﾋﾞﾈｯﾄ
  6
CONTINUOUS
 62
     6
100
AcDb2dPolyline
 66
     1
 10
0.0
 20
0.0
 30
0.0
 70
   128
  0
VERTEX
  5
2B3
330
2B2
100
AcDbEntity
  8
ｶｳﾝﾀｰ_ｷｬﾋﾞﾈｯﾄ
  6
CONTINUOUS
 62
     6
100
AcDbVertex
100
AcDb2dVertex
 10
1997.999999999993
 20
1215.749999999999
 30
0.0
  0
VERTEX
  5
2B4
330
2B2
100
AcDbEntity
  8
ｶｳﾝﾀｰ_ｷｬﾋﾞﾈｯﾄ
  6
CONTINUOUS
 62
     6
100
AcDbVertex
100
AcDb2dVertex
 10
2025.499999999993
 20
1215.749999999999
 30
0.0
  0
VERTEX
  5
2B5
330
2B2
100
AcDbEntity
  8
ｶｳﾝﾀｰ_ｷｬﾋﾞﾈｯﾄ
  6
CONTINUOUS
 62
     6
100
AcDbVertex
100
AcDb2dVertex
 10
2025.499999999993
 20
1201.249999999999
 30
0.0
  0
VERTEX
  5
2B6
330
2B2
100
AcDbEntity
  8
ｶｳﾝﾀｰ_ｷｬﾋﾞﾈｯﾄ
  6
CONTINUOUS
 62
     6
100
AcDbVertex
100
AcDb2dVertex
 10
1997.999999999993
 20
1201.249999999999
 30
0.0
  0
SEQEND
  5
2B7
330
2B2
100
AcDbEntity
  8
ｶｳﾝﾀｰ_ｷｬﾋﾞﾈｯﾄ
  6
CONTINUOUS
 62
     6
  0
LINE
  5
2B8
330
1F
100
AcDbEntity
  8
ｶｳﾝﾀｰ_ｷｬﾋﾞﾈｯﾄ
  6
CONTINUOUS
 62
     6
100
AcDbLine
 10
1997.499999999993
 20
1201.749999999999
 30
0.0
 11
1997.499999999993
 21
1215.249999999999
 31
0.0
  0
ARC
  5
2B9
330
1F
100
AcDbEntity
  8
ｶｳﾝﾀｰ_ｷｬﾋﾞﾈｯﾄ
  6
CONTINUOUS
 62
     6
100
AcDbCircle
 10
1997.999999999993
 20
1201.749999999999
 30
0.0
 40
0.5
100
AcDbArc
 50
180.0
 51
270.0
  0
ARC
  5
2BA
330
1F
100
AcDbEntity
  8
ｶｳﾝﾀｰ_ｷｬﾋﾞﾈｯﾄ
  6
CONTINUOUS
 62
     6
100
AcDbCircle
 10
2292.0
 20
1215.249999999999
 30
0.0
 40
0.5
100
AcDbArc
 50
0.0
 51
90.00000000000001
  0
LINE
  5
2BB
330
1F
100
AcDbEntity
  8
ｶｳﾝﾀｰ_ｷｬﾋﾞﾈｯﾄ
  6
CONTINUOUS
 62
     6
100
AcDbLine
 10
2292.5
 20
1201.749999999999
 30
0.0
 11
2292.5
 21
1215.249999999999
 31
0.0
  0
ARC
  5
2BC
330
1F
100
AcDbEntity
  8
ｶｳﾝﾀｰ_ｷｬﾋﾞﾈｯﾄ
  6
CONTINUOUS
 62
     6
100
AcDbCircle
 10
2292.0
 20
1201.749999999999
 30
0.0
 40
0.5
100
AcDbArc
 50
270.0
 51
0.0
  0
POLYLINE
  5
2BD
330
1F
100
AcDbEntity
  8
ｶｳﾝﾀｰ_ｷｬﾋﾞﾈｯﾄ
  6
CONTINUOUS
 62
     6
100
AcDb2dPolyline
 66
     1
 10
0.0
 20
0.0
 30
0.0
 70
   128
  0
VERTEX
  5
2BE
330
2BD
100
AcDbEntity
  8
ｶｳﾝﾀｰ_ｷｬﾋﾞﾈｯﾄ
  6
CONTINUOUS
 62
     6
100
AcDbVertex
100
AcDb2dVertex
 10
2292.0
 20
1215.749999999999
 30
0.0
  0
VERTEX
  5
2BF
330
2BD
100
AcDbEntity
  8
ｶｳﾝﾀｰ_ｷｬﾋﾞﾈｯﾄ
  6
CONTINUOUS
 62
     6
100
AcDbVertex
100
AcDb2dVertex
 10
2264.5
 20
1215.749999999999
 30
0.0
  0
VERTEX
  5
2C0
330
2BD
100
AcDbEntity
  8
ｶｳﾝﾀｰ_ｷｬﾋﾞﾈｯﾄ
  6
CONTINUOUS
 62
     6
100
AcDbVertex
100
AcDb2dVertex
 10
2264.5
 20
1201.249999999999
 30
0.0
  0
VERTEX
  5
2C1
330
2BD
100
AcDbEntity
  8
ｶｳﾝﾀｰ_ｷｬﾋﾞﾈｯﾄ
  6
CONTINUOUS
 62
     6
100
AcDbVertex
100
AcDb2dVertex
 10
2292.0
 20
1201.249999999999
 30
0.0
  0
SEQEND
  5
2C2
330
2BD
100
AcDbEntity
  8
ｶｳﾝﾀｰ_ｷｬﾋﾞﾈｯﾄ
  6
CONTINUOUS
 62
     6
  0
LINE
  5
2C3
330
1F
100
AcDbEntity
  8
ｶｳﾝﾀｰ_ｷｬﾋﾞﾈｯﾄ
  6
EXLTYPE3
 62
     6
100
AcDbLine
 10
2257.0
 20
1372.5
 30
0.0
 11
2257.0
 21
1500.5680146347
 31
0.0
  0
CIRCLE
  5
2C4
330
1F
100
AcDbEntity
  8
ｶｳﾝﾀｰ_ｷｬﾋﾞﾈｯﾄ
  6
EXLTYPE2
 62
     6
100
AcDbCircle
 10
2250.0
 20
1177.5
 30
0.0
 40
4.7
  0
CIRCLE
  5
2C5
330
1F
100
AcDbEntity
  8
ｶｳﾝﾀｰ_ｷｬﾋﾞﾈｯﾄ
  6
EXLTYPE2
 62
     6
100
AcDbCircle
 10
2040.0
 20
1177.5
 30
0.0
 40
4.7
  0
LINE
  5
2C6
330
1F
100
AcDbEntity
  8
ｶｳﾝﾀｰ_ｷｬﾋﾞﾈｯﾄ
  6
CONTINUOUS
 62
     6
100
AcDbLine
 10
2240.299999999999
 20
1177.5
 30
0.0
 11
2259.700000000001
 21
1177.5
 31
0.0
  0
LINE
  5
2C7
330
1F
100
AcDbEntity
  8
ｶｳﾝﾀｰ_ｷｬﾋﾞﾈｯﾄ
  6
CONTINUOUS
 62
     6
100
AcDbLine
 10
2249.999999999998
 20
1187.199999999999
 30
0.0
 11
2249.999999999998
 21
1167.8
 31
0.0
  0
LINE
  5
2C8
330
1F
100
AcDbEntity
  8
ｶｳﾝﾀｰ_ｷｬﾋﾞﾈｯﾄ
  6
CONTINUOUS
 62
     6
100
AcDbLine
 10
2030.299999999999
 20
1177.5
 30
0.0
 11
2049.699999999999
 21
1177.5
 31
0.0
  0
LINE
  5
2C9
330
1F
100
AcDbEntity
  8
ｶｳﾝﾀｰ_ｷｬﾋﾞﾈｯﾄ
  6
CONTINUOUS
 62
     6
100
AcDbLine
 10
2039.999999999998
 20
1187.199999999999
 30
0.0
 11
2039.999999999998
 21
1167.8
 31
0.0
  0
LINE
  5
2CA
330
1F
100
AcDbEntity
  8
ｶｳﾝﾀｰ_ｷｬﾋﾞﾈｯﾄ
  6
CONTINUOUS
 62
     2
100
AcDbLine
 10
2195.621603341668
 20
1452.500000000006
 30
0.0
 11
2231.391445772644
 21
1452.500000000006
 31
0.0
  0
LINE
  5
2CB
330
1F
100
AcDbEntity
  8
ｶｳﾝﾀｰ_ｷｬﾋﾞﾈｯﾄ
  6
CONTINUOUS
 62
     6
100
AcDbLine
 10
2272.647424142004
 20
1440.924309763685
 30
0.0
 11
2274.338438301143
 21
1392.500000000006
 31
0.0
  0
LINE
  5
2CC
330
1F
100
AcDbEntity
  8
ｶｳﾝﾀｰ_ｷｬﾋﾞﾈｯﾄ
  6
CONTINUOUS
 62
     6
100
AcDbLine
 10
2237.774663415606
 20
1436.669726424933
 30
0.0
 11
2239.317104250682
 21
1392.500000000006
 31
0.0
  0
LINE
  5
2CD
330
1F
100
AcDbEntity
  8
ｶｳﾝﾀｰ_ｷｬﾋﾞﾈｯﾄ
  6
CONTINUOUS
 62
     6
100
AcDbLine
 10
2195.144812487968
 20
1451.376751139308
 30
0.0
 11
2197.920323358321
 21
1457.915444989633
 31
0.0
  0
LINE
  5
2CE
330
1F
100
AcDbEntity
  8
ｶｳﾝﾀｰ_ｷｬﾋﾞﾈｯﾄ
  6
CONTINUOUS
 62
     6
100
AcDbLine
 10
2173.052696005094
 20
1460.754298223012
 30
0.0
 11
2175.828206875447
 21
1467.292992073335
 31
0.0
  0
LINE
  5
2CF
330
1F
100
AcDbEntity
  8
ｶｳﾝﾀｰ_ｷｬﾋﾞﾈｯﾄ
  6
CONTINUOUS
 62
     6
100
AcDbLine
 10
2173.052696005079
 20
1460.754298223017
 30
0.0
 11
2195.144812487897
 21
1451.376751139338
 31
0.0
  0
CIRCLE
  5
2D0
330
1F
100
AcDbEntity
  8
ｶｳﾝﾀｰ_ｷｬﾋﾞﾈｯﾄ
  6
CONTINUOUS
 62
     6
100
AcDbCircle
 10
2255.255025164788
 20
1437.537555985652
 30
0.0
 40
8.0
  0
ELLIPSE
  5
2D1
330
1F
100
AcDbEntity
  8
ｶｳﾝﾀｰ_ｷｬﾋﾞﾈｯﾄ
  6
CONTINUOUS
 62
     6
100
AcDbEllipse
 10
2245.251465107691
 20
1446.866026653947
 30
0.0
 11
4.091990160367331
 21
4.388122209722161
 31
0.0
210
0.0
220
0.0
230
1.0
 40
0.5729548600241787
 41
0.0
 42
6.283185307179586
  0
CIRCLE
  5
2D2
330
1F
100
AcDbEntity
  8
ｶｳﾝﾀｰ_ｷｬﾋﾞﾈｯﾄ
  6
CONTINUOUS
 62
     6
100
AcDbCircle
 10
2255.255025164788
 20
1437.537555985652
 30
0.0
 40
17.5
  0
ARC
  5
2D3
330
1F
100
AcDbEntity
  8
ｶｳﾝﾀｰ_ｷｬﾋﾞﾈｯﾄ
  6
CONTINUOUS
 62
     6
100
AcDbCircle
 10
2222.677882791053
 20
1439.179334928473
 30
0.0
 40
50.00000000000004
100
AcDbArc
 50
2.000000000100005
 51
85.02071889590698
  0
ARC
  5
2D4
330
1F
100
AcDbEntity
  8
ｶｳﾝﾀｰ_ｷｬﾋﾞﾈｯﾄ
  6
CONTINUOUS
 62
     6
100
AcDbCircle
 10
2212.789892740131
 20
1435.797239007327
 30
0.0
 40
25.00000000000002
100
AcDbArc
 50
2.000000000100005
 51
121.4089117966544
  0
LINE
  5
2D5
330
1F
100
AcDbEntity
  8
ｶｳﾝﾀｰ_ｷｬﾋﾞﾈｯﾄ
  6
CONTINUOUS
 62
     6
100
AcDbLine
 10
2168.464168047827
 20
1470.418841101237
 30
0.0
 11
2199.761333065284
 21
1457.133982732636
 31
0.0
  0
ARC
  5
2D6
330
1F
100
AcDbEntity
  8
ｶｳﾝﾀｰ_ｷｬﾋﾞﾈｯﾄ
  6
CONTINUOUS
 62
     6
100
AcDbCircle
 10
2220.074017786475
 20
1409.292550440376
 30
0.0
 40
80.0
100
AcDbArc
 50
85.02071889590641
 51
130.174907341017
  0
LINE
  5
2D7
330
1F
100
AcDbEntity
  8
ｶｳﾝﾀｰ_ｷｬﾋﾞﾈｯﾄ
  6
CONTINUOUS
 62
     2
100
AcDbLine
 10
2270.8708271092
 20
1452.500000000006
 30
0.0
 11
2317.092718662299
 21
1452.500000000006
 31
0.0
  0
LINE
  5
2D8
330
1F
100
AcDbEntity
  8
ｶｳﾝﾀｰ_ｷｬﾋﾞﾈｯﾄ
  6
CONTINUOUS
 62
     2
100
AcDbLine
 10
1972.907281337742
 20
1452.500000000006
 30
0.0
 11
2192.49860400207
 21
1452.500000000006
 31
0.0
  0
LINE
  5
2D9
330
1F
100
AcDbEntity
  8
ｶｳﾝﾀｰ_ｷｬﾋﾞﾈｯﾄ
  6
EXLTYPE3
 62
     6
100
AcDbLine
 10
2144.999999999998
 20
1462.500000000006
 30
0.0
 11
2144.999999999998
 21
562.4999999999995
 31
0.0
  0
LINE
  5
2DA
330
1F
100
AcDbEntity
  8
ｶｳﾝﾀｰ_ｷｬﾋﾞﾈｯﾄ
  6
EXLTYPE3
 62
     6
100
AcDbLine
 10
2295.0
 20
1444.0
 30
0.0
 11
2295.0
 21
1411.0
 31
0.0
  0
LINE
  5
2DB
330
1F
100
AcDbEntity
  8
ｶｳﾝﾀｰ_ｷｬﾋﾞﾈｯﾄ
  6
EXLTYPE3
 62
     6
100
AcDbLine
 10
2311.5
 20
1427.5
 30
0.0
 11
2278.5
 21
1427.5
 31
0.0
  0
LINE
  5
2DC
330
1F
100
AcDbEntity
  8
ｶｳﾝﾀｰ_ｷｬﾋﾞﾈｯﾄ
  6
EXLTYPE3
 62
     6
100
AcDbLine
 10
1978.5
 20
1427.5
 30
0.0
 11
2011.5
 21
1427.5
 31
0.0
  0
LINE
  5
2DD
330
1F
100
AcDbEntity
  8
ｶｳﾝﾀｰ_ｷｬﾋﾞﾈｯﾄ
  6
EXLTYPE3
 62
     6
100
AcDbLine
 10
1995.0
 20
1444.0
 30
0.0
 11
1995.0
 21
1411.0
 31
0.0
  0
LINE
  5
2DE
330
1F
100
AcDbEntity
  8
ｶｳﾝﾀｰ_ｷｬﾋﾞﾈｯﾄ
  6
CONTINUOUS
 62
     2
100
AcDbLine
 10
2300.0
 20
1272.5
 30
0.0
 11
2300.0
 21
1252.5
 31
0.0
  0
LINE
  5
2DF
330
1F
100
AcDbEntity
  8
ｶｳﾝﾀｰ_ｷｬﾋﾞﾈｯﾄ
  6
CONTINUOUS
 62
     2
100
AcDbLine
 10
1990.0
 20
1272.5
 30
0.0
 11
1990.0
 21
1252.5
 31
0.0
  0
CIRCLE
  5
2E0
330
1F
100
AcDbEntity
  8
ｶｳﾝﾀｰ_ｷｬﾋﾞﾈｯﾄ
  6
CONTINUOUS
 62
     2
100
AcDbCircle
 10
2295.0
 20
1427.5
 30
0.0
 40
11.50000000000001
  0
CIRCLE
  5
2E1
330
1F
100
AcDbEntity
  8
ｶｳﾝﾀｰ_ｷｬﾋﾞﾈｯﾄ
  6
CONTINUOUS
 62
     2
100
AcDbCircle
 10
1995.0
 20
1427.5
 30
0.0
 40
11.50000000000001
  0
LINE
  5
2E2
330
1F
100
AcDbEntity
  8
ｶｳﾝﾀｰ_ｷｬﾋﾞﾈｯﾄ
  6
CONTINUOUS
 62
     2
100
AcDbLine
 10
1975.0
 20
1272.500000000006
 30
0.0
 11
2315.0
 21
1272.500000000006
 31
0.0
  0
LINE
  5
2E3
330
1F
100
AcDbEntity
  8
ｶｳﾝﾀｰ_ｷｬﾋﾞﾈｯﾄ
  6
CONTINUOUS
 62
     2
100
AcDbLine
 10
2322.491646982895
 20
1388.241631341044
 30
0.0
 11
2315.0
 21
1272.500000000006
 31
0.0
  0
ARC
  5
2E4
330
1F
100
AcDbEntity
  8
ｶｳﾝﾀｰ_ｷｬﾋﾞﾈｯﾄ
  6
CONTINUOUS
 62
     2
100
AcDbCircle
 10
2318.5
 20
1388.50000000001
 30
0.0
 40
4.0
100
AcDbArc
 50
356.2965633057419
 51
90.00000000000001
  0
LINE
  5
2E5
330
1F
100
AcDbEntity
  8
ｶｳﾝﾀｰ_ｷｬﾋﾞﾈｯﾄ
  6
CONTINUOUS
 62
     2
100
AcDbLine
 10
1971.5
 20
1392.500000000006
 30
0.0
 11
2318.5
 21
1392.500000000006
 31
0.0
  0
LINE
  5
2E6
330
1F
100
AcDbEntity
  8
ｶｳﾝﾀｰ_ｷｬﾋﾞﾈｯﾄ
  6
CONTINUOUS
 62
     2
100
AcDbLine
 10
1967.508353017103
 20
1388.241631341044
 30
0.0
 11
1975.0
 21
1272.500000000006
 31
0.0
  0
ARC
  5
2E7
330
1F
100
AcDbEntity
  8
ｶｳﾝﾀｰ_ｷｬﾋﾞﾈｯﾄ
  6
CONTINUOUS
 62
     2
100
AcDbCircle
 10
1971.5
 20
1388.50000000001
 30
0.0
 40
4.0
100
AcDbArc
 50
90.00000000000001
 51
183.7034366942579
  0
ARC
  5
2E8
330
1F
100
AcDbEntity
  8
ｶｳﾝﾀｰ_ｷｬﾋﾞﾈｯﾄ
  6
CONTINUOUS
 62
     2
100
AcDbCircle
 10
2317.092718662256
 20
1448.500000000006
 30
0.0
 40
4.0
100
AcDbArc
 50
1.343608340442127
 51
90.00000000000001
  0
LINE
  5
2E9
330
1F
100
AcDbEntity
  8
ｶｳﾝﾀｰ_ｷｬﾋﾞﾈｯﾄ
  6
CONTINUOUS
 62
     2
100
AcDbLine
 10
2321.091618871131
 20
1448.593792960598
 30
0.0
 11
2322.498900208875
 21
1388.593792960598
 31
0.0
  0
ARC
  5
2EA
330
1F
100
AcDbEntity
  8
ｶｳﾝﾀｰ_ｷｬﾋﾞﾈｯﾄ
  6
CONTINUOUS
 62
     2
100
AcDbCircle
 10
1972.907281337742
 20
1448.500000000006
 30
0.0
 40
4.0
100
AcDbArc
 50
90.00000000000001
 51
178.656391659558
  0
LINE
  5
2EB
330
1F
100
AcDbEntity
  8
ｶｳﾝﾀｰ_ｷｬﾋﾞﾈｯﾄ
  6
CONTINUOUS
 62
     2
100
AcDbLine
 10
1968.908381128867
 20
1448.593792960598
 30
0.0
 11
1967.501099791123
 21
1388.593792960598
 31
0.0
  0
LINE
  5
2EC
330
1F
100
AcDbEntity
  8
ｶｳﾝﾀｰ_ｷｬﾋﾞﾈｯﾄ
  6
EXLTYPE3
 62
     6
100
AcDbLine
 10
1982.0
 20
1248.5
 30
0.0
 11
2308.0
 21
970.4999999999995
 31
0.0
  0
LINE
  5
2ED
330
1F
100
AcDbEntity
  8
ｶｳﾝﾀｰ_ｷｬﾋﾞﾈｯﾄ
  6
EXLTYPE3
 62
     6
100
AcDbLine
 10
2308.0
 20
970.4999999999995
 30
0.0
 11
1982.0
 21
692.5
 31
0.0
  0
LINE
  5
2EE
330
1F
100
AcDbEntity
  8
ｶｳﾝﾀｰ_ｷｬﾋﾞﾈｯﾄ
  6
CONTINUOUS
 62
     2
100
AcDbLine
 10
1980.0
 20
572.5
 30
0.0
 11
2309.999999999998
 21
572.5
 31
0.0
  0
LINE
  5
2EF
330
1F
100
AcDbEntity
  8
ｶｳﾝﾀｰ_ｷｬﾋﾞﾈｯﾄ
  6
CONTINUOUS
 62
     2
100
AcDbLine
 10
1982.0
 20
692.5
 30
0.0
 11
2307.999999999998
 21
692.5
 31
0.0
  0
LINE
  5
2F0
330
1F
100
AcDbEntity
  8
ｶｳﾝﾀｰ_ｷｬﾋﾞﾈｯﾄ
  6
CONTINUOUS
 62
     2
100
AcDbLine
 10
2309.999999999998
 20
572.5
 30
0.0
 11
2309.999999999998
 21
1252.5
 31
0.0
  0
LINE
  5
2F1
330
1F
100
AcDbEntity
  8
ｶｳﾝﾀｰ_ｷｬﾋﾞﾈｯﾄ
  6
CONTINUOUS
 62
     2
100
AcDbLine
 10
2307.999999999998
 20
692.5
 30
0.0
 11
2307.999999999998
 21
1248.5
 31
0.0
  0
LINE
  5
2F2
330
1F
100
AcDbEntity
  8
ｶｳﾝﾀｰ_ｷｬﾋﾞﾈｯﾄ
  6
CONTINUOUS
 62
     2
100
AcDbLine
 10
1979.999999999998
 20
572.5
 30
0.0
 11
1979.999999999998
 21
1252.5
 31
0.0
  0
LINE
  5
2F3
330
1F
100
AcDbEntity
  8
ｶｳﾝﾀｰ_ｷｬﾋﾞﾈｯﾄ
  6
CONTINUOUS
 62
     2
100
AcDbLine
 10
1981.999999999998
 20
1248.5
 30
0.0
 11
1981.999999999998
 21
692.5
 31
0.0
  0
LINE
  5
2F4
330
1F
100
AcDbEntity
  8
ｶｳﾝﾀｰ_ｷｬﾋﾞﾈｯﾄ
  6
CONTINUOUS
 62
     2
100
AcDbLine
 10
1981.999999999998
 20
1248.5
 30
0.0
 11
2308.0
 21
1248.5
 31
0.0
  0
LINE
  5
2F5
330
1F
100
AcDbEntity
  8
ｶｳﾝﾀｰ_ｷｬﾋﾞﾈｯﾄ
  6
CONTINUOUS
 62
     2
100
AcDbLine
 10
1979.999999999998
 20
1252.5
 30
0.0
 11
2309.999999999998
 21
1252.5
 31
0.0
  0
LINE
  5
2F6
330
1F
100
AcDbEntity
  8
ｶｳﾝﾀｰ_ｷｬﾋﾞﾈｯﾄ
  6
EXLTYPE4
 62
     6
100
AcDbLine
 10
3659.999999999999
 20
572.5
 30
0.0
 11
3659.999999999999
 21
1602.5
 31
0.0
  0
LINE
  5
2F7
330
1F
100
AcDbEntity
  8
ｶｳﾝﾀｰ_ｷｬﾋﾞﾈｯﾄ
  6
CONTINUOUS
 62
     6
100
AcDbLine
 10
3511.5881347287
 20
897.6534773478011
 30
0.0
 11
3496.7881347287
 21
897.6534773478011
 31
0.0
  0
LINE
  5
2F8
330
1F
100
AcDbEntity
  8
ｶｳﾝﾀｰ_ｷｬﾋﾞﾈｯﾄ
  6
CONTINUOUS
 62
     6
100
AcDbLine
 10
3511.5881347287
 20
895.1186621136007
 30
0.0
 11
3496.7881347287
 21
895.1186621136007
 31
0.0
  0
LINE
  5
2F9
330
1F
100
AcDbEntity
  8
ｶｳﾝﾀｰ_ｷｬﾋﾞﾈｯﾄ
  6
CONTINUOUS
 62
     6
100
AcDbLine
 10
3511.5881347287
 20
891.726417204201
 30
0.0
 11
3496.7881347287
 21
891.726417204201
 31
0.0
  0
LINE
  5
2FA
330
1F
100
AcDbEntity
  8
ｶｳﾝﾀｰ_ｷｬﾋﾞﾈｯﾄ
  6
CONTINUOUS
 62
     6
100
AcDbLine
 10
3511.5881347287
 20
887.6250000000005
 30
0.0
 11
3496.7881347287
 21
887.6250000000005
 31
0.0
  0
LINE
  5
2FB
330
1F
100
AcDbEntity
  8
ｶｳﾝﾀｰ_ｷｬﾋﾞﾈｯﾄ
  6
CONTINUOUS
 62
     6
100
AcDbLine
 10
3511.5881347287
 20
882.9936621136007
 30
0.0
 11
3496.7881347287
 21
882.9936621136007
 31
0.0
  0
LINE
  5
2FC
330
1F
100
AcDbEntity
  8
ｶｳﾝﾀｰ_ｷｬﾋﾞﾈｯﾄ
  6
CONTINUOUS
 62
     6
100
AcDbLine
 10
3511.5881347287
 20
878.0348152342008
 30
0.0
 11
3496.7881347287
 21
878.0348152342008
 31
0.0
  0
LINE
  5
2FD
330
1F
100
AcDbEntity
  8
ｶｳﾝﾀｰ_ｷｬﾋﾞﾈｯﾄ
  6
CONTINUOUS
 62
     6
100
AcDbLine
 10
3511.5881347287
 20
872.9651847658001
 30
0.0
 11
3496.7881347287
 21
872.9651847658001
 31
0.0
  0
LINE
  5
2FE
330
1F
100
AcDbEntity
  8
ｶｳﾝﾀｰ_ｷｬﾋﾞﾈｯﾄ
  6
CONTINUOUS
 62
     6
100
AcDbLine
 10
3511.5881347287
 20
868.0063378864011
 30
0.0
 11
3496.7881347287
 21
868.0063378864011
 31
0.0
  0
LINE
  5
2FF
330
1F
100
AcDbEntity
  8
ｶｳﾝﾀｰ_ｷｬﾋﾞﾈｯﾄ
  6
CONTINUOUS
 62
     6
100
AcDbLine
 10
3511.5881347287
 20
863.3750000000005
 30
0.0
 11
3496.7881347287
 21
863.3750000000005
 31
0.0
  0
LINE
  5
300
330
1F
100
AcDbEntity
  8
ｶｳﾝﾀｰ_ｷｬﾋﾞﾈｯﾄ
  6
CONTINUOUS
 62
     6
100
AcDbLine
 10
3511.5881347287
 20
859.2735827957999
 30
0.0
 11
3496.7881347287
 21
859.2735827957999
 31
0.0
  0
LINE
  5
301
330
1F
100
AcDbEntity
  8
ｶｳﾝﾀｰ_ｷｬﾋﾞﾈｯﾄ
  6
CONTINUOUS
 62
     6
100
AcDbLine
 10
3511.5881347287
 20
855.8813378864011
 30
0.0
 11
3496.7881347287
 21
855.8813378864011
 31
0.0
  0
LINE
  5
302
330
1F
100
AcDbEntity
  8
ｶｳﾝﾀｰ_ｷｬﾋﾞﾈｯﾄ
  6
CONTINUOUS
 62
     6
100
AcDbLine
 10
3511.5881347287
 20
853.3465226522007
 30
0.0
 11
3496.7881347287
 21
853.3465226522007
 31
0.0
  0
LINE
  5
303
330
1F
100
AcDbEntity
  8
ｶｳﾝﾀｰ_ｷｬﾋﾞﾈｯﾄ
  6
CONTINUOUS
 62
     6
100
AcDbLine
 10
3496.7881347287
 20
899.7499999999995
 30
0.0
 11
3496.7881347287
 21
851.2499999999995
 31
0.0
  0
LINE
  5
304
330
1F
100
AcDbEntity
  8
ｶｳﾝﾀｰ_ｷｬﾋﾞﾈｯﾄ
  6
CONTINUOUS
 62
     6
100
AcDbLine
 10
3511.5881347287
 20
899.7499999999995
 30
0.0
 11
3496.7881347287
 21
899.7499999999995
 31
0.0
  0
LINE
  5
305
330
1F
100
AcDbEntity
  8
ｶｳﾝﾀｰ_ｷｬﾋﾞﾈｯﾄ
  6
CONTINUOUS
 62
     6
100
AcDbLine
 10
3514.5881347287
 20
896.7499999999995
 30
0.0
 11
3514.5881347287
 21
854.2499999999995
 31
0.0
  0
LINE
  5
306
330
1F
100
AcDbEntity
  8
ｶｳﾝﾀｰ_ｷｬﾋﾞﾈｯﾄ
  6
CONTINUOUS
 62
     6
100
AcDbLine
 10
3511.5881347287
 20
851.2499999999995
 30
0.0
 11
3496.7881347287
 21
851.2499999999995
 31
0.0
  0
ARC
  5
307
330
1F
100
AcDbEntity
  8
ｶｳﾝﾀｰ_ｷｬﾋﾞﾈｯﾄ
  6
CONTINUOUS
 62
     6
100
AcDbCircle
 10
3511.5881347287
 20
896.7499999999995
 30
0.0
 40
3.000000000000003
100
AcDbArc
 50
0.0000000000000573
 51
90.00000000000001
  0
ARC
  5
308
330
1F
100
AcDbEntity
  8
ｶｳﾝﾀｰ_ｷｬﾋﾞﾈｯﾄ
  6
CONTINUOUS
 62
     6
100
AcDbCircle
 10
3511.5881347287
 20
854.2499999999995
 30
0.0
 40
3.000000000000003
100
AcDbArc
 50
270.0
 51
0.0000000000000573
  0
ARC
  5
309
330
1F
100
AcDbEntity
  8
ｶｳﾝﾀｰ_ｷｬﾋﾞﾈｯﾄ
  6
CONTINUOUS
 62
     6
100
AcDbCircle
 10
3610.0
 20
875.5000000000014
 30
0.0
 40
24.0
100
AcDbArc
 50
333.1948723387605
 51
341.8051276612408
  0
LINE
  5
30A
330
1F
100
AcDbEntity
  8
ｶｳﾝﾀｰ_ｷｬﾋﾞﾈｯﾄ
  6
CONTINUOUS
 62
     6
100
AcDbLine
 10
3635.2264973081
 20
874.1649914156001
 30
0.0
 11
3635.2264973081
 21
869.6693084299027
 31
0.0
  0
LINE
  5
30B
330
1F
100
AcDbEntity
  8
ｶｳﾝﾀｰ_ｷｬﾋﾞﾈｯﾄ
  6
CONTINUOUS
 62
     6
100
AcDbLine
 10
3635.2264973081
 20
897.6606744013002
 30
0.0
 11
3635.2264973081
 21
894.1649914156001
 31
0.0
  0
LINE
  5
30C
330
1F
100
AcDbEntity
  8
ｶｳﾝﾀｰ_ｷｬﾋﾞﾈｯﾄ
  6
CONTINUOUS
 62
     6
100
AcDbLine
 10
3595.0
 20
859.2500000000005
 30
0.0
 11
3595.0
 21
891.7500000000014
 31
0.0
  0
LINE
  5
30D
330
1F
100
AcDbEntity
  8
ｶｳﾝﾀｰ_ｷｬﾋﾞﾈｯﾄ
  6
CONTINUOUS
 62
     6
100
AcDbLine
 10
3558.5803430543
 20
865.9828349396007
 30
0.0
 11
3573.299999999999
 21
865.9828349396007
 31
0.0
  0
LINE
  5
30E
330
1F
100
AcDbEntity
  8
ｶｳﾝﾀｰ_ｷｬﾋﾞﾈｯﾄ
  6
CONTINUOUS
 62
     6
100
AcDbLine
 10
3558.5803430543
 20
885.0171650604002
 30
0.0
 11
3573.299999999999
 21
885.0171650604002
 31
0.0
  0
ARC
  5
30F
330
1F
100
AcDbEntity
  8
ｶｳﾝﾀｰ_ｷｬﾋﾞﾈｯﾄ
  6
CONTINUOUS
 62
     6
100
AcDbCircle
 10
3564.121249999887
 20
891.622034611049
 30
0.0
 40
8.621249999888418
100
AcDbArc
 50
180.0
 51
230.0062958749993
  0
ARC
  5
310
330
1F
100
AcDbEntity
  8
ｶｳﾝﾀｰ_ｷｬﾋﾞﾈｯﾄ
  6
CONTINUOUS
 62
     6
100
AcDbCircle
 10
3571.74249999994
 20
875.4999999999995
 30
0.0
 40
16.24249999994036
100
AcDbArc
 50
144.1304248452664
 51
215.8695751547332
  0
ARC
  5
311
330
1F
100
AcDbEntity
  8
ｶｳﾝﾀｰ_ｷｬﾋﾞﾈｯﾄ
  6
CONTINUOUS
 62
     6
100
AcDbCircle
 10
3564.121249999889
 20
859.3779653889501
 30
0.0
 40
8.621249999889734
100
AcDbArc
 50
129.9937041250111
 51
180.0
  0
LINE
  5
312
330
1F
100
AcDbEntity
  8
ｶｳﾝﾀｰ_ｷｬﾋﾞﾈｯﾄ
  6
CONTINUOUS
 62
     6
100
AcDbLine
 10
3609.999999999999
 20
908.3000000000006
 30
0.0
 11
3609.999999999999
 21
842.7000000000003
 31
0.0
  0
LINE
  5
313
330
1F
100
AcDbEntity
  8
ｶｳﾝﾀｰ_ｷｬﾋﾞﾈｯﾄ
  6
CONTINUOUS
 62
     6
100
AcDbLine
 10
3594.481355188496
 20
892.225424410603
 30
0.0
 11
3599.177021908741
 21
896.9210911308496
 31
0.0
  0
LINE
  5
314
330
1F
100
AcDbEntity
  8
ｶｳﾝﾀｰ_ｷｬﾋﾞﾈｯﾄ
  6
CONTINUOUS
 62
     6
100
AcDbLine
 10
3599.177021908743
 20
854.0789088691504
 30
0.0
 11
3594.481355188496
 21
858.7745755893961
 31
0.0
  0
ARC
  5
315
330
1F
100
AcDbEntity
  8
ｶｳﾝﾀｰ_ｷｬﾋﾞﾈｯﾄ
  6
CONTINUOUS
 62
     6
100
AcDbCircle
 10
3610.0
 20
875.4999999999995
 30
0.0
 40
24.0
100
AcDbArc
 50
243.1948723387709
 51
251.8051276612299
  0
ARC
  5
316
330
1F
100
AcDbEntity
  8
ｶｳﾝﾀｰ_ｷｬﾋﾞﾈｯﾄ
  6
CONTINUOUS
 62
     6
100
AcDbCircle
 10
3610.0
 20
875.4999999999995
 30
0.0
 40
24.0
100
AcDbArc
 50
288.19487233877
 51
296.8051276612383
  0
ARC
  5
317
330
1F
100
AcDbEntity
  8
ｶｳﾝﾀｰ_ｷｬﾋﾞﾈｯﾄ
  6
CONTINUOUS
 62
     6
100
AcDbCircle
 10
3610.0
 20
875.4999999999995
 30
0.0
 40
24.0
100
AcDbArc
 50
18.19487233876017
 51
26.80512766124016
  0
ARC
  5
318
330
1F
100
AcDbEntity
  8
ｶｳﾝﾀｰ_ｷｬﾋﾞﾈｯﾄ
  6
CONTINUOUS
 62
     6
100
AcDbCircle
 10
3610.0
 20
875.4999999999995
 30
0.0
 40
24.0
100
AcDbArc
 50
63.19487233876164
 51
71.80512766123854
  0
ARC
  5
319
330
1F
100
AcDbEntity
  8
ｶｳﾝﾀｰ_ｷｬﾋﾞﾈｯﾄ
  6
CONTINUOUS
 62
     6
100
AcDbCircle
 10
3610.0
 20
875.4999999999995
 30
0.0
 40
24.0
100
AcDbArc
 50
108.1948723387615
 51
116.8051276612383
  0
LINE
  5
31A
330
1F
100
AcDbEntity
  8
ｶｳﾝﾀｰ_ｷｬﾋﾞﾈｯﾄ
  6
CONTINUOUS
 62
     6
100
AcDbLine
 10
3602.506002401922
 20
898.2999999999997
 30
0.0
 11
3617.493997598076
 21
898.2999999999997
 31
0.0
  0
LINE
  5
31B
330
1F
100
AcDbEntity
  8
ｶｳﾝﾀｰ_ｷｬﾋﾞﾈｯﾄ
  6
CONTINUOUS
 62
     6
100
AcDbLine
 10
3620.822978091257
 20
896.9210911308496
 30
0.0
 11
3631.421091130849
 21
886.3229780912575
 31
0.0
  0
LINE
  5
31C
330
1F
100
AcDbEntity
  8
ｶｳﾝﾀｰ_ｷｬﾋﾞﾈｯﾄ
  6
CONTINUOUS
 62
     6
100
AcDbLine
 10
3632.799999999999
 20
882.9939975980774
 30
0.0
 11
3632.799999999999
 21
868.0060024019226
 31
0.0
  0
LINE
  5
31D
330
1F
100
AcDbEntity
  8
ｶｳﾝﾀｰ_ｷｬﾋﾞﾈｯﾄ
  6
CONTINUOUS
 62
     6
100
AcDbLine
 10
3631.421091130849
 20
864.6770219087434
 30
0.0
 11
3620.822978091257
 21
854.0789088691513
 31
0.0
  0
LINE
  5
31E
330
1F
100
AcDbEntity
  8
ｶｳﾝﾀｰ_ｷｬﾋﾞﾈｯﾄ
  6
CONTINUOUS
 62
     6
100
AcDbLine
 10
3617.493997598076
 20
852.6999999999994
 30
0.0
 11
3602.506002401922
 21
852.6999999999994
 31
0.0
  0
LINE
  5
31F
330
1F
100
AcDbEntity
  8
ｶｳﾝﾀｰ_ｷｬﾋﾞﾈｯﾄ
  6
CONTINUOUS
 62
     6
100
AcDbLine
 10
3610.0
 20
891.7500000000032
 30
0.0
 11
3595.0
 21
891.7500000000032
 31
0.0
  0
ARC
  5
320
330
1F
100
AcDbEntity
  8
ｶｳﾝﾀｰ_ｷｬﾋﾞﾈｯﾄ
  6
CONTINUOUS
 62
     6
100
AcDbCircle
 10
3610.0
 20
875.4999999999977
 30
0.0
 40
16.25
100
AcDbArc
 50
270.0
 51
90.00000000000001
  0
LINE
  5
321
330
1F
100
AcDbEntity
  8
ｶｳﾝﾀｰ_ｷｬﾋﾞﾈｯﾄ
  6
CONTINUOUS
 62
     6
100
AcDbLine
 10
3592.0
 20
894.5000000000014
 30
0.0
 11
3595.0
 21
891.7500000000014
 31
0.0
  0
LINE
  5
322
330
1F
100
AcDbEntity
  8
ｶｳﾝﾀｰ_ｷｬﾋﾞﾈｯﾄ
  6
CONTINUOUS
 62
     6
100
AcDbLine
 10
3592.0
 20
894.5000000000014
 30
0.0
 11
3573.299999999999
 21
894.5000000000014
 31
0.0
  0
LINE
  5
323
330
1F
100
AcDbEntity
  8
ｶｳﾝﾀｰ_ｷｬﾋﾞﾈｯﾄ
  6
CONTINUOUS
 62
     6
100
AcDbLine
 10
3573.299999999999
 20
852.7000000000003
 30
0.0
 11
3573.299999999999
 21
898.2999999999988
 31
0.0
  0
LINE
  5
324
330
1F
100
AcDbEntity
  8
ｶｳﾝﾀｰ_ｷｬﾋﾞﾈｯﾄ
  6
CONTINUOUS
 62
     6
100
AcDbLine
 10
3555.5
 20
852.7000000000003
 30
0.0
 11
3555.5
 21
898.2999999999988
 31
0.0
  0
LINE
  5
325
330
1F
100
AcDbEntity
  8
ｶｳﾝﾀｰ_ｷｬﾋﾞﾈｯﾄ
  6
CONTINUOUS
 62
     6
100
AcDbLine
 10
3555.5
 20
898.2999999999988
 30
0.0
 11
3573.299999999999
 21
898.2999999999988
 31
0.0
  0
LINE
  5
326
330
1F
100
AcDbEntity
  8
ｶｳﾝﾀｰ_ｷｬﾋﾞﾈｯﾄ
  6
CONTINUOUS
 62
     6
100
AcDbLine
 10
3555.5
 20
852.7000000000003
 30
0.0
 11
3573.299999999999
 21
852.7000000000003
 31
0.0
  0
LINE
  5
327
330
1F
100
AcDbEntity
  8
ｶｳﾝﾀｰ_ｷｬﾋﾞﾈｯﾄ
  6
CONTINUOUS
 62
     6
100
AcDbLine
 10
3592.0
 20
856.4999999999995
 30
0.0
 11
3595.0
 21
859.2499999999995
 31
0.0
  0
LINE
  5
328
330
1F
100
AcDbEntity
  8
ｶｳﾝﾀｰ_ｷｬﾋﾞﾈｯﾄ
  6
CONTINUOUS
 62
     6
100
AcDbLine
 10
3610.0
 20
859.2499999999977
 30
0.0
 11
3595.0
 21
859.2499999999977
 31
0.0
  0
LINE
  5
329
330
1F
100
AcDbEntity
  8
ｶｳﾝﾀｰ_ｷｬﾋﾞﾈｯﾄ
  6
CONTINUOUS
 62
     6
100
AcDbLine
 10
3592.0
 20
856.4999999999995
 30
0.0
 11
3573.299999999999
 21
856.4999999999995
 31
0.0
  0
LINE
  5
32A
330
1F
100
AcDbEntity
  8
ｶｳﾝﾀｰ_ｷｬﾋﾞﾈｯﾄ
  6
EXLTYPE2
 62
     6
100
AcDbLine
 10
2138.250000000001
 20
1162.788136415102
 30
0.0
 11
2138.250000000001
 21
1121.700000086402
 31
0.0
  0
LINE
  5
32B
330
1F
100
AcDbEntity
  8
ｶｳﾝﾀｰ_ｷｬﾋﾞﾈｯﾄ
  6
EXLTYPE2
 62
     6
100
AcDbLine
 10
2101.750000000001
 20
1121.700000086402
 30
0.0
 11
2138.250000000001
 21
1121.700000086402
 31
0.0
  0
LINE
  5
32C
330
1F
100
AcDbEntity
  8
ｶｳﾝﾀｰ_ｷｬﾋﾞﾈｯﾄ
  6
EXLTYPE2
 62
     6
100
AcDbLine
 10
2101.750000000001
 20
1162.788136415102
 30
0.0
 11
2101.750000000001
 21
1121.700000086402
 31
0.0
  0
LINE
  5
32D
330
1F
100
AcDbEntity
  8
ｶｳﾝﾀｰ_ｷｬﾋﾞﾈｯﾄ
  6
EXLTYPE2
 62
     6
100
AcDbLine
 10
2135.959820696864
 20
1180.588136415101
 30
0.0
 11
2136.199999999998
 21
1232.200000000001
 31
0.0
  0
LINE
  5
32E
330
1F
100
AcDbEntity
  8
ｶｳﾝﾀｰ_ｷｬﾋﾞﾈｯﾄ
  6
EXLTYPE2
 62
     6
100
AcDbLine
 10
2104.040179303134
 20
1180.588136415101
 30
0.0
 11
2103.799999999998
 21
1232.200000000001
 31
0.0
  0
LINE
  5
32F
330
1F
100
AcDbEntity
  8
ｶｳﾝﾀｰ_ｷｬﾋﾞﾈｯﾄ
  6
EXLTYPE2
 62
     6
100
AcDbLine
 10
2162.1667791896
 20
1043.5
 30
0.0
 11
2162.1667791896
 21
1054.291772306542
 31
0.0
  0
LINE
  5
330
330
1F
100
AcDbEntity
  8
ｶｳﾝﾀｰ_ｷｬﾋﾞﾈｯﾄ
  6
EXLTYPE2
 62
     6
100
AcDbLine
 10
2197.166779189599
 20
1080.0
 30
0.0
 11
2197.166779189599
 21
1168.729751891109
 31
0.0
  0
LINE
  5
331
330
1F
100
AcDbEntity
  8
ｶｳﾝﾀｰ_ｷｬﾋﾞﾈｯﾄ
  6
EXLTYPE2
 62
     6
100
AcDbLine
 10
2170.916326606125
 20
1062.2
 30
0.0
 11
2203.966779189599
 21
1062.2
 31
0.0
  0
LINE
  5
332
330
1F
100
AcDbEntity
  8
ｶｳﾝﾀｰ_ｷｬﾋﾞﾈｯﾄ
  6
EXLTYPE2
 62
     6
100
AcDbLine
 10
2177.453781365312
 20
1080.0
 30
0.0
 11
2203.966779189599
 21
1080.0
 31
0.0
  0
LINE
  5
333
330
1F
100
AcDbEntity
  8
ｶｳﾝﾀｰ_ｷｬﾋﾞﾈｯﾄ
  6
EXLTYPE2
 62
     6
100
AcDbLine
 10
2203.966779189599
 20
1080.0
 30
0.0
 11
2203.966779189599
 21
1062.2
 31
0.0
  0
LINE
  5
334
330
1F
100
AcDbEntity
  8
ｶｳﾝﾀｰ_ｷｬﾋﾞﾈｯﾄ
  6
EXLTYPE2
 62
     6
100
AcDbLine
 10
2217.866779189599
 20
1048.299999999999
 30
0.0
 11
2217.866779189599
 21
1002.7
 31
0.0
  0
LINE
  5
335
330
1F
100
AcDbEntity
  8
ｶｳﾝﾀｰ_ｷｬﾋﾞﾈｯﾄ
  6
EXLTYPE2
 62
     6
100
AcDbLine
 10
2235.6667791896
 20
1048.299999999999
 30
0.0
 11
2235.6667791896
 21
1002.7
 31
0.0
  0
LINE
  5
336
330
1F
100
AcDbEntity
  8
ｶｳﾝﾀｰ_ｷｬﾋﾞﾈｯﾄ
  6
EXLTYPE2
 62
     6
100
AcDbLine
 10
2235.6667791896
 20
1002.7
 30
0.0
 11
2217.866779189599
 21
1002.7
 31
0.0
  0
LINE
  5
337
330
1F
100
AcDbEntity
  8
ｶｳﾝﾀｰ_ｷｬﾋﾞﾈｯﾄ
  6
EXLTYPE2
 62
     6
100
AcDbLine
 10
2235.6667791896
 20
1048.299999999999
 30
0.0
 11
2217.866779189599
 21
1048.299999999999
 31
0.0
  0
LINE
  5
338
330
1F
100
AcDbEntity
  8
ｶｳﾝﾀｰ_ｷｬﾋﾞﾈｯﾄ
  6
EXLTYPE2
 62
     6
100
AcDbLine
 10
2200.1667791896
 20
1044.5
 30
0.0
 11
2200.1667791896
 21
1062.2
 31
0.0
  0
LINE
  5
339
330
1F
100
AcDbEntity
  8
ｶｳﾝﾀｰ_ｷｬﾋﾞﾈｯﾄ
  6
EXLTYPE2
 62
     6
100
AcDbLine
 10
2217.866779189599
 20
1044.5
 30
0.0
 11
2200.1667791896
 21
1044.5
 31
0.0
  0
LINE
  5
33A
330
1F
100
AcDbEntity
  8
ｶｳﾝﾀｰ_ｷｬﾋﾞﾈｯﾄ
  6
EXLTYPE2
 62
     6
100
AcDbLine
 10
2162.1667791896
 20
1043.5
 30
0.0
 11
2164.9167791896
 21
1040.5
 31
0.0
  0
LINE
  5
33B
330
1F
100
AcDbEntity
  8
ｶｳﾝﾀｰ_ｷｬﾋﾞﾈｯﾄ
  6
EXLTYPE2
 62
     6
100
AcDbLine
 10
2199.1667791896
 20
1006.5
 30
0.0
 11
2196.1667791896
 21
1009.25
 31
0.0
  0
ARC
  5
33C
330
1F
100
AcDbEntity
  8
ｶｳﾝﾀｰ_ｷｬﾋﾞﾈｯﾄ
  6
EXLTYPE2
 62
     6
100
AcDbCircle
 10
2181.166779189598
 20
1025.5
 30
0.0
 40
16.25
100
AcDbArc
 50
180.0
 51
270.0000000000002
  0
LINE
  5
33D
330
1F
100
AcDbEntity
  8
ｶｳﾝﾀｰ_ｷｬﾋﾞﾈｯﾄ
  6
EXLTYPE2
 62
     6
100
AcDbLine
 10
2181.166779189598
 20
1009.25
 30
0.0
 11
2196.1667791896
 21
1009.25
 31
0.0
  0
LINE
  5
33E
330
1F
100
AcDbEntity
  8
ｶｳﾝﾀｰ_ｷｬﾋﾞﾈｯﾄ
  6
EXLTYPE2
 62
     6
100
AcDbLine
 10
2164.916779189598
 20
1025.5
 30
0.0
 11
2164.916779189598
 21
1040.5
 31
0.0
  0
LINE
  5
33F
330
1F
100
AcDbEntity
  8
ｶｳﾝﾀｰ_ｷｬﾋﾞﾈｯﾄ
  6
EXLTYPE2
 62
     6
100
AcDbLine
 10
2217.866779189599
 20
1006.5
 30
0.0
 11
2199.1667791896
 21
1006.5
 31
0.0
  0
LINE
  5
340
330
1F
100
AcDbEntity
  8
ｶｳﾝﾀｰ_ｷｬﾋﾞﾈｯﾄ
  6
EXLTYPE2
 62
     6
100
AcDbLine
 10
2178.626282971898
 20
1162.0
 30
0.0
 11
2178.626282971898
 21
1127.899448691101
 31
0.0
  0
LINE
  5
341
330
1F
100
AcDbEntity
  8
ｶｳﾝﾀｰ_ｷｬﾋﾞﾈｯﾄ
  6
EXLTYPE2
 62
     6
100
AcDbLine
 10
2146.626282971898
 20
1168.729751891109
 30
0.0
 11
2146.626282971898
 21
1127.899448691101
 31
0.0
  0
ARC
  5
342
330
1F
100
AcDbEntity
  8
ｶｳﾝﾀｰ_ｷｬﾋﾞﾈｯﾄ
  6
EXLTYPE2
 62
     6
100
AcDbCircle
 10
2171.896531080748
 20
1168.729751891109
 30
0.0
 40
25.27024810889134
100
AcDbArc
 50
0.0
 51
180.0
  0
LINE
  5
343
330
1F
100
AcDbEntity
  8
ｶｳﾝﾀｰ_ｷｬﾋﾞﾈｯﾄ
  6
EXLTYPE2
 62
     6
100
AcDbLine
 10
2180.876282971901
 20
1110.099448691102
 30
0.0
 11
2180.876282971901
 21
1080.999998784102
 31
0.0
  0
LINE
  5
344
330
1F
100
AcDbEntity
  8
ｶｳﾝﾀｰ_ｷｬﾋﾞﾈｯﾄ
  6
EXLTYPE2
 62
     6
100
AcDbLine
 10
2144.376282971901
 20
1080.999998784102
 30
0.0
 11
2180.876282971901
 21
1080.999998784102
 31
0.0
  0
ARC
  5
345
330
1F
100
AcDbEntity
  8
ｶｳﾝﾀｰ_ｷｬﾋﾞﾈｯﾄ
  6
EXLTYPE2
 62
     6
100
AcDbCircle
 10
2145.35213900546
 20
1081.689543666233
 30
0.0
 40
32.146072855016
100
AcDbArc
 50
289.9362785335313
 51
358.7708905513497
  0
ARC
  5
346
330
1F
100
AcDbEntity
  8
ｶｳﾝﾀｰ_ｷｬﾋﾞﾈｯﾄ
  6
EXLTYPE2
 62
     6
100
AcDbCircle
 10
2143.539271083727
 20
1088.167222679043
 30
0.0
 40
40.539271083728
100
AcDbArc
 50
180.0
 51
244.8541152376212
  0
LINE
  5
347
330
1F
100
AcDbEntity
  8
ｶｳﾝﾀｰ_ｷｬﾋﾞﾈｯﾄ
  6
EXLTYPE2
 62
     6
100
AcDbLine
 10
2144.376282971901
 20
1110.099448691102
 30
0.0
 11
2144.376282971901
 21
1080.999998784102
 31
0.0
  0
ARC
  5
348
330
1F
100
AcDbEntity
  8
ｶｳﾝﾀｰ_ｷｬﾋﾞﾈｯﾄ
  6
EXLTYPE2
 62
     6
100
AcDbCircle
 10
2141.741676655201
 20
1088.074998758841
 30
0.0
 40
7.87499999998454
100
AcDbArc
 50
269.9999999999868
 51
296.0497988060272
  0
ARC
  5
349
330
1F
100
AcDbEntity
  8
ｶｳﾝﾀｰ_ｷｬﾋﾞﾈｯﾄ
  6
EXLTYPE2
 62
     6
100
AcDbCircle
 10
2144.875000000001
 20
1088.074998758841
 30
0.0
 40
7.87499999998454
100
AcDbArc
 50
180.0
 51
258.5249519358246
  0
LINE
  5
34A
330
1F
100
AcDbEntity
  8
ｶｳﾝﾀｰ_ｷｬﾋﾞﾈｯﾄ
  6
EXLTYPE2
 62
     6
100
AcDbLine
 10
2102.999999999999
 20
1121.700000086402
 30
0.0
 11
2102.999999999999
 21
1088.167222679043
 31
0.0
  0
LINE
  5
34B
330
1F
100
AcDbEntity
  8
ｶｳﾝﾀｰ_ｷｬﾋﾞﾈｯﾄ
  6
EXLTYPE2
 62
     6
100
AcDbLine
 10
2137.000000000001
 20
1096.700001686401
 30
0.0
 11
2144.376282971901
 21
1096.700001686401
 31
0.0
  0
LINE
  5
34C
330
1F
100
AcDbEntity
  8
ｶｳﾝﾀｰ_ｷｬﾋﾞﾈｯﾄ
  6
EXLTYPE2
 62
     6
100
AcDbLine
 10
2138.376282971901
 20
1110.099448691102
 30
0.0
 11
2186.876282971901
 21
1110.099448691102
 31
0.0
  0
LINE
  5
34D
330
1F
100
AcDbEntity
  8
ｶｳﾝﾀｰ_ｷｬﾋﾞﾈｯﾄ
  6
EXLTYPE2
 62
     6
100
AcDbLine
 10
2138.376282971901
 20
1124.899448691101
 30
0.0
 11
2138.376282971901
 21
1110.099448691102
 31
0.0
  0
LINE
  5
34E
330
1F
100
AcDbEntity
  8
ｶｳﾝﾀｰ_ｷｬﾋﾞﾈｯﾄ
  6
EXLTYPE2
 62
     6
100
AcDbLine
 10
2141.376282971901
 20
1127.899448691101
 30
0.0
 11
2183.876282971901
 21
1127.899448691101
 31
0.0
  0
LINE
  5
34F
330
1F
100
AcDbEntity
  8
ｶｳﾝﾀｰ_ｷｬﾋﾞﾈｯﾄ
  6
EXLTYPE2
 62
     6
100
AcDbLine
 10
2186.876282971901
 20
1124.899448691101
 30
0.0
 11
2186.876282971901
 21
1110.099448691102
 31
0.0
  0
ARC
  5
350
330
1F
100
AcDbEntity
  8
ｶｳﾝﾀｰ_ｷｬﾋﾞﾈｯﾄ
  6
EXLTYPE2
 62
     6
100
AcDbCircle
 10
2141.376282971901
 20
1124.899448691101
 30
0.0
 40
3.000000000000002
100
AcDbArc
 50
90.00000000000001
 51
180.0
  0
ARC
  5
351
330
1F
100
AcDbEntity
  8
ｶｳﾝﾀｰ_ｷｬﾋﾞﾈｯﾄ
  6
EXLTYPE2
 62
     6
100
AcDbCircle
 10
2183.876282971901
 20
1124.899448691101
 30
0.0
 40
3.000000000000002
100
AcDbArc
 50
0.0
 51
90.00000000000001
  0
LINE
  5
352
330
1F
100
AcDbEntity
  8
ｶｳﾝﾀｰ_ｷｬﾋﾞﾈｯﾄ
  6
EXLTYPE2
 62
     6
100
AcDbLine
 10
2126.313141485999
 20
1051.469907258401
 30
0.0
 11
2156.313141485999
 21
1051.469907258401
 31
0.0
  0
LINE
  5
353
330
1F
100
AcDbEntity
  8
ｶｳﾝﾀｰ_ｷｬﾋﾞﾈｯﾄ
  6
EXLTYPE2
 62
     6
100
AcDbLine
 10
2126.313141486003
 20
1051.469907258366
 30
0.0
 11
2126.313141486003
 21
1036.200001686401
 31
0.0
  0
LINE
  5
354
330
1F
100
AcDbEntity
  8
ｶｳﾝﾀｰ_ｷｬﾋﾞﾈｯﾄ
  6
EXLTYPE2
 62
     6
100
AcDbLine
 10
2127.813141486003
 20
1034.700001686401
 30
0.0
 11
2154.813141486004
 21
1034.700001686401
 31
0.0
  0
LINE
  5
355
330
1F
100
AcDbEntity
  8
ｶｳﾝﾀｰ_ｷｬﾋﾞﾈｯﾄ
  6
EXLTYPE2
 62
     6
100
AcDbLine
 10
2156.313141486004
 20
1051.46990725837
 30
0.0
 11
2156.313141486004
 21
1036.200001686401
 31
0.0
  0
ARC
  5
356
330
1F
100
AcDbEntity
  8
ｶｳﾝﾀｰ_ｷｬﾋﾞﾈｯﾄ
  6
EXLTYPE2
 62
     6
100
AcDbCircle
 10
2127.813141486003
 20
1036.200001686401
 30
0.0
 40
1.5
100
AcDbArc
 50
180.0
 51
270.0000000000002
  0
ARC
  5
357
330
1F
100
AcDbEntity
  8
ｶｳﾝﾀｰ_ｷｬﾋﾞﾈｯﾄ
  6
EXLTYPE2
 62
     6
100
AcDbCircle
 10
2154.813141486004
 20
1036.200001686401
 30
0.0
 40
1.5
100
AcDbArc
 50
270.0000000000002
 51
0.0
  0
LINE
  5
358
330
1F
100
AcDbEntity
  8
ｶｳﾝﾀｰ_ｷｬﾋﾞﾈｯﾄ
  6
EXLTYPE2
 62
     6
100
AcDbLine
 10
2095.750000000001
 20
1162.788136415102
 30
0.0
 11
2144.250000000001
 21
1162.788136415102
 31
0.0
  0
LINE
  5
359
330
1F
100
AcDbEntity
  8
ｶｳﾝﾀｰ_ｷｬﾋﾞﾈｯﾄ
  6
EXLTYPE2
 62
     6
100
AcDbLine
 10
2095.750000000001
 20
1177.588136415101
 30
0.0
 11
2095.750000000001
 21
1162.788136415102
 31
0.0
  0
LINE
  5
35A
330
1F
100
AcDbEntity
  8
ｶｳﾝﾀｰ_ｷｬﾋﾞﾈｯﾄ
  6
EXLTYPE2
 62
     6
100
AcDbLine
 10
2098.750000000001
 20
1180.588136415101
 30
0.0
 11
2141.250000000001
 21
1180.588136415101
 31
0.0
  0
LINE
  5
35B
330
1F
100
AcDbEntity
  8
ｶｳﾝﾀｰ_ｷｬﾋﾞﾈｯﾄ
  6
EXLTYPE2
 62
     6
100
AcDbLine
 10
2144.250000000001
 20
1177.588136415101
 30
0.0
 11
2144.250000000001
 21
1162.788136415102
 31
0.0
  0
ARC
  5
35C
330
1F
100
AcDbEntity
  8
ｶｳﾝﾀｰ_ｷｬﾋﾞﾈｯﾄ
  6
EXLTYPE2
 62
     6
100
AcDbCircle
 10
2098.750000000001
 20
1177.588136415101
 30
0.0
 40
3.000000000000002
100
AcDbArc
 50
90.00000000000001
 51
180.0
  0
ARC
  5
35D
330
1F
100
AcDbEntity
  8
ｶｳﾝﾀｰ_ｷｬﾋﾞﾈｯﾄ
  6
EXLTYPE2
 62
     6
100
AcDbCircle
 10
2141.250000000001
 20
1177.588136415101
 30
0.0
 40
3.000000000000002
100
AcDbArc
 50
0.0
 51
90.00000000000001
  0
LINE
  5
35E
330
1F
100
AcDbEntity
  8
ｶｳﾝﾀｰ_ｷｬﾋﾞﾈｯﾄ
  6
EXLTYPE2
 62
     6
100
AcDbLine
 10
2137.000000000001
 20
1121.700000086402
 30
0.0
 11
2137.000000000001
 21
1088.074998758841
 31
0.0
  0
LINE
  5
35F
330
1F
100
AcDbEntity
  8
ｶｳﾝﾀｰ_ｷｬﾋﾞﾈｯﾄ
  6
EXLTYPE2
 62
     6
100
AcDbLine
 10
2200.1667791896
 20
1044.5
 30
0.0
 11
2200.1667791896
 21
1006.5
 31
0.0
  0
LINE
  5
360
330
1F
100
AcDbEntity
  8
ｶｳﾝﾀｰ_ｷｬﾋﾞﾈｯﾄ
  6
EXLTYPE2
 62
     6
100
AcDbLine
 10
2200.1667791896
 20
1044.5
 30
0.0
 11
2162.1667791896
 21
1044.5
 31
0.0
  0
LINE
  5
361
330
1F
100
AcDbEntity
  8
ｶｳﾝﾀｰ_ｷｬﾋﾞﾈｯﾄ
  6
EXLTYPE2
 62
     6
100
AcDbLine
 10
2235.6667791896
 20
1041.499999999994
 30
0.0
 11
2409.999999999998
 21
1041.499999999994
 31
0.0
  0
LINE
  5
362
330
1F
100
AcDbEntity
  8
ｶｳﾝﾀｰ_ｷｬﾋﾞﾈｯﾄ
  6
EXLTYPE2
 62
     6
100
AcDbLine
 10
2235.6667791896
 20
1009.500000000006
 30
0.0
 11
2409.999999999998
 21
1009.500000000006
 31
0.0
  0
LINE
  5
363
330
1F
100
AcDbEntity
  8
ｶｳﾝﾀｰ_ｷｬﾋﾞﾈｯﾄ
  6
EXLTYPE4
 62
     6
100
AcDbLine
 10
1967.499999999999
 20
2572.5
 30
0.0
 11
1730.0
 21
2572.5
 31
0.0
  0
LINE
  5
364
330
1F
100
AcDbEntity
  8
ｶｳﾝﾀｰ_ｷｬﾋﾞﾈｯﾄ
  6
CONTINUOUS
 62
     6
100
AcDbLine
 10
3659.999999999999
 20
2391.0
 30
0.0
 11
3683.797560975599
 21
2392.5
 31
0.0
  0
LINE
  5
365
330
1F
100
AcDbEntity
  8
ｶｳﾝﾀｰ_ｷｬﾋﾞﾈｯﾄ
  6
CONTINUOUS
 62
     6
100
AcDbLine
 10
3659.999999999999
 20
2394.0
 30
0.0
 11
3683.797560975599
 21
2392.5
 31
0.0
  0
LINE
  5
366
330
1F
100
AcDbEntity
  8
ｶｳﾝﾀｰ_ｷｬﾋﾞﾈｯﾄ
  6
EXLTYPE3
 62
     6
100
AcDbLine
 10
3610.0
 20
2514.5
 30
0.0
 11
3610.0
 21
2182.5
 31
0.0
  0
LINE
  5
367
330
1F
100
AcDbEntity
  8
ｶｳﾝﾀｰ_ｷｬﾋﾞﾈｯﾄ
  6
CONTINUOUS
 62
     2
100
AcDbLine
 10
3626.0
 20
2405.5
 30
0.0
 11
3626.0
 21
2504.5
 31
0.0
  0
LINE
  5
368
330
1F
100
AcDbEntity
  8
ｶｳﾝﾀｰ_ｷｬﾋﾞﾈｯﾄ
  6
CONTINUOUS
 62
     2
100
AcDbLine
 10
3594.0
 20
2405.5
 30
0.0
 11
3594.0
 21
2504.5
 31
0.0
  0
LINE
  5
369
330
1F
100
AcDbEntity
  8
ｶｳﾝﾀｰ_ｷｬﾋﾞﾈｯﾄ
  6
CONTINUOUS
 62
     2
100
AcDbLine
 10
3626.0
 20
2237.0
 30
0.0
 11
3626.0
 21
2379.5
 31
0.0
  0
LINE
  5
36A
330
1F
100
AcDbEntity
  8
ｶｳﾝﾀｰ_ｷｬﾋﾞﾈｯﾄ
  6
CONTINUOUS
 62
     2
100
AcDbLine
 10
3594.0
 20
2237.0
 30
0.0
 11
3594.0
 21
2379.5
 31
0.0
  0
LINE
  5
36B
330
1F
100
AcDbEntity
  8
ｶｳﾝﾀｰ_ｷｬﾋﾞﾈｯﾄ
  6
EXLTYPE3
 62
     6
100
AcDbLine
 10
3580.0
 20
2392.499999999999
 30
0.0
 11
3685.797560975599
 21
2392.499999999999
 31
0.0
  0
LINE
  5
36C
330
1F
100
AcDbEntity
  8
ｶｳﾝﾀｰ_ｷｬﾋﾞﾈｯﾄ
  6
CONTINUOUS
 62
     6
100
AcDbLine
 10
3653.797560975599
 20
2387.800000000001
 30
0.0
 11
3653.797560975599
 21
2397.200000000001
 31
0.0
  0
ARC
  5
36D
330
1F
100
AcDbEntity
  8
ｶｳﾝﾀｰ_ｷｬﾋﾞﾈｯﾄ
  6
CONTINUOUS
 62
     6
100
AcDbCircle
 10
3656.965560975599
 20
2392.5
 30
0.0
 40
5.66799999999985
100
AcDbArc
 50
123.9816465839693
 51
236.0183534160307
  0
LINE
  5
36E
330
1F
100
AcDbEntity
  8
ｶｳﾝﾀｰ_ｷｬﾋﾞﾈｯﾄ
  6
CONTINUOUS
 62
     6
100
AcDbLine
 10
3651.297560975599
 20
2392.5
 30
0.0
 11
3652.154882385572
 21
2393.984924240491
 31
0.0
  0
LINE
  5
36F
330
1F
100
AcDbEntity
  8
ｶｳﾝﾀｰ_ｷｬﾋﾞﾈｯﾄ
  6
CONTINUOUS
 62
     6
100
AcDbLine
 10
3651.297560975599
 20
2392.5
 30
0.0
 11
3652.154882385572
 21
2391.015075759511
 31
0.0
  0
LINE
  5
370
330
1F
100
AcDbEntity
  8
ｶｳﾝﾀｰ_ｷｬﾋﾞﾈｯﾄ
  6
CONTINUOUS
 62
     6
100
AcDbLine
 10
3636.0
 20
2395.38675134595
 30
0.0
 11
3641.000000000002
 21
2398.273502691898
 31
0.0
  0
LINE
  5
371
330
1F
100
AcDbEntity
  8
ｶｳﾝﾀｰ_ｷｬﾋﾞﾈｯﾄ
  6
CONTINUOUS
 62
     6
100
AcDbLine
 10
3636.0
 20
2389.61324865405
 30
0.0
 11
3636.0
 21
2395.38675134595
 31
0.0
  0
LINE
  5
372
330
1F
100
AcDbEntity
  8
ｶｳﾝﾀｰ_ｷｬﾋﾞﾈｯﾄ
  6
CONTINUOUS
 62
     6
100
AcDbLine
 10
3640.999999999998
 20
2398.273502691898
 30
0.0
 11
3646.0
 21
2395.38675134595
 31
0.0
  0
LINE
  5
373
330
1F
100
AcDbEntity
  8
ｶｳﾝﾀｰ_ｷｬﾋﾞﾈｯﾄ
  6
CONTINUOUS
 62
     6
100
AcDbLine
 10
3646.0
 20
2395.38675134595
 30
0.0
 11
3646.0
 21
2389.61324865405
 31
0.0
  0
LINE
  5
374
330
1F
100
AcDbEntity
  8
ｶｳﾝﾀｰ_ｷｬﾋﾞﾈｯﾄ
  6
CONTINUOUS
 62
     6
100
AcDbLine
 10
3646.0
 20
2389.613248654051
 30
0.0
 11
3640.999999999998
 21
2386.726497308103
 31
0.0
  0
LINE
  5
375
330
1F
100
AcDbEntity
  8
ｶｳﾝﾀｰ_ｷｬﾋﾞﾈｯﾄ
  6
CONTINUOUS
 62
     6
100
AcDbLine
 10
3641.000000000002
 20
2386.726497308103
 30
0.0
 11
3636.0
 21
2389.613248654051
 31
0.0
  0
ARC
  5
376
330
1F
100
AcDbEntity
  8
ｶｳﾝﾀｰ_ｷｬﾋﾞﾈｯﾄ
  6
CONTINUOUS
 62
     6
100
AcDbCircle
 10
3628.860000000001
 20
2397.0
 30
0.0
 40
5.0
100
AcDbArc
 50
90.00000000000001
 51
135.5729959991947
  0
ARC
  5
377
330
1F
100
AcDbEntity
  8
ｶｳﾝﾀｰ_ｷｬﾋﾞﾈｯﾄ
  6
CONTINUOUS
 62
     6
100
AcDbCircle
 10
3628.860000000001
 20
2388.0
 30
0.0
 40
5.0
100
AcDbArc
 50
224.4270040008048
 51
270.0
  0
LINE
  5
378
330
1F
100
AcDbEntity
  8
ｶｳﾝﾀｰ_ｷｬﾋﾞﾈｯﾄ
  6
CONTINUOUS
 62
     6
100
AcDbLine
 10
3628.860000000001
 20
2402.0
 30
0.0
 11
3652.1
 21
2402.0
 31
0.0
  0
LINE
  5
379
330
1F
100
AcDbEntity
  8
ｶｳﾝﾀｰ_ｷｬﾋﾞﾈｯﾄ
  6
CONTINUOUS
 62
     6
100
AcDbLine
 10
3628.860000000001
 20
2383.0
 30
0.0
 11
3652.1
 21
2383.0
 31
0.0
  0
LINE
  5
37A
330
1F
100
AcDbEntity
  8
ｶｳﾝﾀｰ_ｷｬﾋﾞﾈｯﾄ
  6
CONTINUOUS
 62
     6
100
AcDbLine
 10
3591.299999999999
 20
2400.5
 30
0.0
 11
3591.299999999999
 21
2405.5
 31
0.0
  0
LINE
  5
37B
330
1F
100
AcDbEntity
  8
ｶｳﾝﾀｰ_ｷｬﾋﾞﾈｯﾄ
  6
CONTINUOUS
 62
     6
100
AcDbLine
 10
3591.299999999999
 20
2379.5
 30
0.0
 11
3591.299999999999
 21
2384.5
 31
0.0
  0
LINE
  5
37C
330
1F
100
AcDbEntity
  8
ｶｳﾝﾀｰ_ｷｬﾋﾞﾈｯﾄ
  6
CONTINUOUS
 62
     6
100
AcDbLine
 10
3591.299999999999
 20
2405.5
 30
0.0
 11
3660.0
 21
2405.5
 31
0.0
  0
LINE
  5
37D
330
1F
100
AcDbEntity
  8
ｶｳﾝﾀｰ_ｷｬﾋﾞﾈｯﾄ
  6
CONTINUOUS
 62
     6
100
AcDbLine
 10
3590.0
 20
2384.5
 30
0.0
 11
3590.0
 21
2400.5
 31
0.0
  0
LINE
  5
37E
330
1F
100
AcDbEntity
  8
ｶｳﾝﾀｰ_ｷｬﾋﾞﾈｯﾄ
  6
CONTINUOUS
 62
     6
100
AcDbLine
 10
3591.299999999999
 20
2379.5
 30
0.0
 11
3660.0
 21
2379.5
 31
0.0
  0
LINE
  5
37F
330
1F
100
AcDbEntity
  8
ｶｳﾝﾀｰ_ｷｬﾋﾞﾈｯﾄ
  6
CONTINUOUS
 62
     6
100
AcDbLine
 10
3590.0
 20
2400.5
 30
0.0
 11
3627.320508075691
 21
2400.5
 31
0.0
  0
LINE
  5
380
330
1F
100
AcDbEntity
  8
ｶｳﾝﾀｰ_ｷｬﾋﾞﾈｯﾄ
  6
CONTINUOUS
 62
     6
100
AcDbLine
 10
3590.0
 20
2384.5
 30
0.0
 11
3627.320508075691
 21
2384.5
 31
0.0
  0
LINE
  5
381
330
1F
100
AcDbEntity
  8
ｶｳﾝﾀｰ_ｷｬﾋﾞﾈｯﾄ
  6
CONTINUOUS
 62
     6
100
AcDbLine
 10
3660.0
 20
2379.5
 30
0.0
 11
3660.0
 21
2405.5
 31
0.0
  0
LINE
  5
382
330
1F
100
AcDbEntity
  8
ｶｳﾝﾀｰ_ｷｬﾋﾞﾈｯﾄ
  6
CONTINUOUS
 62
     6
100
AcDbLine
 10
3655.0
 20
2379.5
 30
0.0
 11
3655.0
 21
2405.5
 31
0.0
  0
LINE
  5
383
330
1F
100
AcDbEntity
  8
ｶｳﾝﾀｰ_ｷｬﾋﾞﾈｯﾄ
  6
EXLTYPE3
 62
     6
100
AcDbLine
 10
2925.0000000001
 20
2182.5
 30
0.0
 11
3610.0
 21
2182.5
 31
0.0
  0
CIRCLE
  5
384
330
1F
100
AcDbEntity
  8
ｶｳﾝﾀｰ_ｷｬﾋﾞﾈｯﾄ
  6
EXLTYPE2
 62
     5
100
AcDbCircle
 10
3400.0000000001
 20
2112.5
 30
0.0
 40
8.0
  0
CIRCLE
  5
385
330
1F
100
AcDbEntity
  8
ｶｳﾝﾀｰ_ｷｬﾋﾞﾈｯﾄ
  6
EXLTYPE2
 62
     5
100
AcDbCircle
 10
3400.0000000001
 20
2252.5
 30
0.0
 40
8.0
  0
LINE
  5
386
330
1F
100
AcDbEntity
  8
ｶｳﾝﾀｰ_ｷｬﾋﾞﾈｯﾄ
  6
EXLTYPE4
 62
     5
100
AcDbLine
 10
3557.0
 20
2373.5
 30
0.0
 11
3456.5
 21
2373.5
 31
0.0
  0
ARC
  5
387
330
1F
100
AcDbEntity
  8
ｶｳﾝﾀｰ_ｷｬﾋﾞﾈｯﾄ
  6
EXLTYPE4
 62
     5
100
AcDbCircle
 10
3557.0
 20
1999.500000000002
 30
0.0
 40
8.0
100
AcDbArc
 50
270.0
 51
0.0
  0
ARC
  5
388
330
1F
100
AcDbEntity
  8
ｶｳﾝﾀｰ_ｷｬﾋﾞﾈｯﾄ
  6
EXLTYPE4
 62
     5
100
AcDbCircle
 10
3557.0
 20
2365.5
 30
0.0
 40
8.0
100
AcDbArc
 50
0.0
 51
90.00000000000001
  0
LINE
  5
389
330
1F
100
AcDbEntity
  8
ｶｳﾝﾀｰ_ｷｬﾋﾞﾈｯﾄ
  6
EXLTYPE4
 62
     5
100
AcDbLine
 10
3557.0
 20
1991.500000000002
 30
0.0
 11
3456.5
 21
1991.500000000002
 31
0.0
  0
LINE
  5
38A
330
1F
100
AcDbEntity
  8
ｶｳﾝﾀｰ_ｷｬﾋﾞﾈｯﾄ
  6
EXLTYPE4
 62
     5
100
AcDbLine
 10
3565.0
 20
2365.5
 30
0.0
 11
3565.0
 21
1999.500000000002
 31
0.0
  0
ARC
  5
38B
330
1F
100
AcDbEntity
  8
ｶｳﾝﾀｰ_ｷｬﾋﾞﾈｯﾄ
  6
EXLTYPE4
 62
     5
100
AcDbCircle
 10
3210.00000000008
 20
2170.000000000057
 30
0.0
 40
80.0
100
AcDbArc
 50
270.0000000000002
 51
0.0000000000002292
  0
LINE
  5
38C
330
1F
100
AcDbEntity
  8
ｶｳﾝﾀｰ_ｷｬﾋﾞﾈｯﾄ
  6
EXLTYPE4
 62
     5
100
AcDbLine
 10
3154.44084767401
 20
2090.000000000057
 30
0.0
 11
3210.00000000008
 21
2090.000000000057
 31
0.0
  0
ARC
  5
38D
330
1F
100
AcDbEntity
  8
ｶｳﾝﾀｰ_ｷｬﾋﾞﾈｯﾄ
  6
EXLTYPE4
 62
     5
100
AcDbCircle
 10
3154.44084767401
 20
2389.999999999975
 30
0.0
 40
300.0
100
AcDbArc
 50
236.0987380031151
 51
270.8466142900034
  0
ARC
  5
38E
330
1F
100
AcDbEntity
  8
ｶｳﾝﾀｰ_ｷｬﾋﾞﾈｯﾄ
  6
EXLTYPE4
 62
     5
100
AcDbCircle
 10
3015.000000000098
 20
2182.50000000002
 30
0.0
 40
50.00000000000004
100
AcDbArc
 50
123.9012619968851
 51
236.0987380031151
  0
ARC
  5
38F
330
1F
100
AcDbEntity
  8
ｶｳﾝﾀｰ_ｷｬﾋﾞﾈｯﾄ
  6
EXLTYPE4
 62
     5
100
AcDbCircle
 10
3154.44084767401
 20
1975.000000000066
 30
0.0
 40
300.0
100
AcDbArc
 50
89.15338570999666
 51
123.901261996885
  0
LINE
  5
390
330
1F
100
AcDbEntity
  8
ｶｳﾝﾀｰ_ｷｬﾋﾞﾈｯﾄ
  6
EXLTYPE4
 62
     5
100
AcDbLine
 10
3228.00000000008
 20
2275.000000000066
 30
0.0
 11
3154.44084767401
 21
2275.000000000066
 31
0.0
  0
ARC
  5
391
330
1F
100
AcDbEntity
  8
ｶｳﾝﾀｰ_ｷｬﾋﾞﾈｯﾄ
  6
EXLTYPE4
 62
     5
100
AcDbCircle
 10
3228.00000000008
 20
2213.000000000066
 30
0.0
 40
62.00000000000004
100
AcDbArc
 50
0.0000000000002292
 51
90.00000000000009
  0
LINE
  5
392
330
1F
100
AcDbEntity
  8
ｶｳﾝﾀｰ_ｷｬﾋﾞﾈｯﾄ
  6
EXLTYPE4
 62
     5
100
AcDbLine
 10
3290.00000000008
 20
2170.000000000057
 30
0.0
 11
3290.00000000008
 21
2213.000000000066
 31
0.0
  0
ARC
  5
393
330
1F
100
AcDbEntity
  8
ｶｳﾝﾀｰ_ｷｬﾋﾞﾈｯﾄ
  6
EXLTYPE4
 62
     5
100
AcDbCircle
 10
3155.000000000078
 20
2182.50000000002
 30
0.0
 40
200.0000000000001
100
AcDbArc
 50
343.8723797868645
 51
0.0000000000115737
  0
LINE
  5
394
330
1F
100
AcDbEntity
  8
ｶｳﾝﾀｰ_ｷｬﾋﾞﾈｯﾄ
  6
EXLTYPE4
 62
     5
100
AcDbLine
 10
3355.000000000078
 20
2182.50000000002
 30
0.0
 11
3355.000000000078
 21
2262.431703666406
 31
0.0
  0
LINE
  5
395
330
1F
100
AcDbEntity
  8
ｶｳﾝﾀｰ_ｷｬﾋﾞﾈｯﾄ
  6
EXLTYPE4
 62
     5
100
AcDbLine
 10
3355.000000000078
 20
2262.431703666406
 30
0.0
 11
3358.581957501392
 21
2314.817832121921
 31
0.0
  0
ARC
  5
396
330
1F
100
AcDbEntity
  8
ｶｳﾝﾀｰ_ｷｬﾋﾞﾈｯﾄ
  6
EXLTYPE4
 62
     5
100
AcDbCircle
 10
3348.605252284433
 20
2315.500000000066
 30
0.0
 40
10.0
100
AcDbArc
 50
356.0884281873828
 51
94.92378669345322
  0
LINE
  5
397
330
1F
100
AcDbEntity
  8
ｶｳﾝﾀｰ_ｷｬﾋﾞﾈｯﾄ
  6
EXLTYPE4
 62
     5
100
AcDbLine
 10
3347.746946738331
 20
2325.463097489727
 30
0.0
 11
3255.312362143872
 21
2317.500000000066
 31
0.0
  0
LINE
  5
398
330
1F
100
AcDbEntity
  8
ｶｳﾝﾀｰ_ｷｬﾋﾞﾈｯﾄ
  6
EXLTYPE4
 62
     5
100
AcDbLine
 10
3162.980262303678
 20
2317.500000000066
 30
0.0
 11
3255.312362143872
 21
2317.500000000066
 31
0.0
  0
ARC
  5
399
330
1F
100
AcDbEntity
  8
ｶｳﾝﾀｰ_ｷｬﾋﾞﾈｯﾄ
  6
EXLTYPE4
 62
     5
100
AcDbCircle
 10
3162.980262303678
 20
2017.500000000066
 30
0.0
 40
300.0
100
AcDbArc
 50
90.00000000000031
 51
128.6469010437119
  0
ARC
  5
39A
330
1F
100
AcDbEntity
  8
ｶｳﾝﾀｰ_ｷｬﾋﾞﾈｯﾄ
  6
EXLTYPE4
 62
     5
100
AcDbCircle
 10
3025.586055288342
 20
2189.322093686026
 30
0.0
 40
80.0
100
AcDbArc
 50
128.6469010437122
 51
170.1800650606943
  0
ARC
  5
39B
330
1F
100
AcDbEntity
  8
ｶｳﾝﾀｰ_ｷｬﾋﾞﾈｯﾄ
  6
EXLTYPE4
 62
     5
100
AcDbCircle
 10
3065.000000000078
 20
2182.50000000006
 30
0.0
 40
120.0000000000001
100
AcDbArc
 50
170.1800650606943
 51
189.8199349393062
  0
ARC
  5
39C
330
1F
100
AcDbEntity
  8
ｶｳﾝﾀｰ_ｷｬﾋﾞﾈｯﾄ
  6
EXLTYPE4
 62
     5
100
AcDbCircle
 10
3025.586055288342
 20
2175.677906314095
 30
0.0
 40
80.0
100
AcDbArc
 50
189.8199349393062
 51
231.3530989562886
  0
ARC
  5
39D
330
1F
100
AcDbEntity
  8
ｶｳﾝﾀｰ_ｷｬﾋﾞﾈｯﾄ
  6
EXLTYPE4
 62
     5
100
AcDbCircle
 10
3162.980262303678
 20
2347.500000000056
 30
0.0
 40
300.0
100
AcDbArc
 50
231.3530989562886
 51
270.0000000000002
  0
LINE
  5
39E
330
1F
100
AcDbEntity
  8
ｶｳﾝﾀｰ_ｷｬﾋﾞﾈｯﾄ
  6
EXLTYPE4
 62
     5
100
AcDbLine
 10
3241.458082329042
 20
2047.500000000057
 30
0.0
 11
3162.980262303678
 21
2047.500000000057
 31
0.0
  0
ARC
  5
39F
330
1F
100
AcDbEntity
  8
ｶｳﾝﾀｰ_ｷｬﾋﾞﾈｯﾄ
  6
EXLTYPE4
 62
     5
100
AcDbCircle
 10
3241.458082329042
 20
2157.500000000057
 30
0.0
 40
110.0000000000001
100
AcDbArc
 50
270.0000000000002
 51
343.8723797868645
  0
ARC
  5
3A0
330
1F
100
AcDbEntity
  8
ｶｳﾝﾀｰ_ｷｬﾋﾞﾈｯﾄ
  6
EXLTYPE4
 62
     5
100
AcDbCircle
 10
3456.5
 20
1996.500000000002
 30
0.0
 40
5.0
100
AcDbArc
 50
180.0000000000002
 51
270.0000000000002
  0
LINE
  5
3A1
330
1F
100
AcDbEntity
  8
ｶｳﾝﾀｰ_ｷｬﾋﾞﾈｯﾄ
  6
EXLTYPE4
 62
     5
100
AcDbLine
 10
3451.5
 20
2368.5
 30
0.0
 11
3451.5
 21
1996.500000000002
 31
0.0
  0
ARC
  5
3A2
330
1F
100
AcDbEntity
  8
ｶｳﾝﾀｰ_ｷｬﾋﾞﾈｯﾄ
  6
EXLTYPE4
 62
     5
100
AcDbCircle
 10
3456.5
 20
2368.5
 30
0.0
 40
5.0
100
AcDbArc
 50
90.0000000000002
 51
180.0000000000002
  0
LINE
  5
3A3
330
1F
100
AcDbEntity
  8
ｶｳﾝﾀｰ_ｷｬﾋﾞﾈｯﾄ
  6
EXLTYPE4
 62
     5
100
AcDbLine
 10
3451.5
 20
2362.50000000004
 30
0.0
 11
3161.846584384422
 21
2362.50000000004
 31
0.0
  0
LINE
  5
3A4
330
1F
100
AcDbEntity
  8
ｶｳﾝﾀｰ_ｷｬﾋﾞﾈｯﾄ
  6
EXLTYPE4
 62
     5
100
AcDbLine
 10
3451.5
 20
2002.500000000042
 30
0.0
 11
3162.46794344817
 21
2002.500000000042
 31
0.0
  0
ARC
  5
3A5
330
1F
100
AcDbEntity
  8
ｶｳﾝﾀｰ_ｷｬﾋﾞﾈｯﾄ
  6
EXLTYPE4
 62
     5
100
AcDbCircle
 10
3162.46794344817
 20
2252.500000000044
 30
0.0
 40
250.0000000000001
100
AcDbArc
 50
215.6853347126525
 51
270.0000000000002
  0
ARC
  5
3A6
330
1F
100
AcDbEntity
  8
ｶｳﾝﾀｰ_ｷｬﾋﾞﾈｯﾄ
  6
EXLTYPE4
 62
     5
100
AcDbCircle
 10
3162.46794344817
 20
2112.50000000004
 30
0.0
 40
250.0000000000001
100
AcDbArc
 50
90.0000000000002
 51
144.3146652873486
  0
ARC
  5
3A7
330
1F
100
AcDbEntity
  8
ｶｳﾝﾀｰ_ｷｬﾋﾞﾈｯﾄ
  6
EXLTYPE4
 62
     5
100
AcDbCircle
 10
3065.00000000008
 20
2182.500000000044
 30
0.0
 40
130.0
100
AcDbArc
 50
144.3146652873486
 51
215.6853347126525
  0
LINE
  5
3A8
330
1F
100
AcDbEntity
  8
ｶｳﾝﾀｰ_ｷｬﾋﾞﾈｯﾄ
  6
CONTINUOUS
 62
     2
100
AcDbLine
 10
3486.0
 20
2166.5
 30
0.0
 11
3496.7881347287
 21
2166.5
 31
0.0
  0
LINE
  5
3A9
330
1F
100
AcDbEntity
  8
ｶｳﾝﾀｰ_ｷｬﾋﾞﾈｯﾄ
  6
CONTINUOUS
 62
     2
100
AcDbLine
 10
3514.5881347287
 20
2166.5
 30
0.0
 11
3555.5
 21
2166.5
 31
0.0
  0
LINE
  5
3AA
330
1F
100
AcDbEntity
  8
ｶｳﾝﾀｰ_ｷｬﾋﾞﾈｯﾄ
  6
CONTINUOUS
 62
     2
100
AcDbLine
 10
3486.0
 20
2198.5
 30
0.0
 11
3496.7881347287
 21
2198.5
 31
0.0
  0
LINE
  5
3AB
330
1F
100
AcDbEntity
  8
ｶｳﾝﾀｰ_ｷｬﾋﾞﾈｯﾄ
  6
CONTINUOUS
 62
     2
100
AcDbLine
 10
3514.5881347287
 20
2198.5
 30
0.0
 11
3555.5
 21
2198.5
 31
0.0
  0
LINE
  5
3AC
330
1F
100
AcDbEntity
  8
ｶｳﾝﾀｰ_ｷｬﾋﾞﾈｯﾄ
  6
CONTINUOUS
 62
     2
100
AcDbLine
 10
3486.0
 20
2198.5
 30
0.0
 11
3486.0
 21
2166.5
 31
0.0
  0
LINE
  5
3AD
330
1F
100
AcDbEntity
  8
ｶｳﾝﾀｰ_ｷｬﾋﾞﾈｯﾄ
  6
CONTINUOUS
 62
     2
100
AcDbLine
 10
2322.5
 20
2572.500000000001
 30
0.0
 11
3659.999999999999
 21
2572.500000000001
 31
0.0
  0
LINE
  5
3AE
330
1F
100
AcDbEntity
  8
ｶｳﾝﾀｰ_ｷｬﾋﾞﾈｯﾄ
  6
CONTINUOUS
 62
     2
100
AcDbLine
 10
2322.5
 20
2504.5
 30
0.0
 11
3659.999999999999
 21
2504.5
 31
0.0
  0
LINE
  5
3AF
330
1F
100
AcDbEntity
  8
ｶｳﾝﾀｰ_ｷｬﾋﾞﾈｯﾄ
  6
CONTINUOUS
 62
     6
100
AcDbLine
 10
2322.5
 20
2551.415585810602
 30
0.0
 11
3659.999999999999
 21
2551.415585810602
 31
0.0
  0
LINE
  5
3B0
330
1F
100
AcDbEntity
  8
ｶｳﾝﾀｰ_ｷｬﾋﾞﾈｯﾄ
  6
CONTINUOUS
 62
     6
100
AcDbLine
 10
2322.5
 20
2564.315585810601
 30
0.0
 11
3659.999999999999
 21
2564.315585810601
 31
0.0
  0
LINE
  5
3B1
330
1F
100
AcDbEntity
  8
ｶｳﾝﾀｰ_ｷｬﾋﾞﾈｯﾄ
  6
CONTINUOUS
 62
     6
100
AcDbLine
 10
3318.999999999997
 20
2572.5
 30
0.0
 11
3320.499999999997
 21
2606.0
 31
0.0
  0
LINE
  5
3B2
330
1F
100
AcDbEntity
  8
ｶｳﾝﾀｰ_ｷｬﾋﾞﾈｯﾄ
  6
CONTINUOUS
 62
     6
100
AcDbLine
 10
3321.999999999997
 20
2572.5
 30
0.0
 11
3320.499999999997
 21
2606.0
 31
0.0
  0
LINE
  5
3B3
330
1F
100
AcDbEntity
  8
ｶｳﾝﾀｰ_ｷｬﾋﾞﾈｯﾄ
  6
CONTINUOUS
 62
     6
100
AcDbLine
 10
3320.499999999994
 20
2562.499999999998
 30
0.0
 11
3320.499999999994
 21
2611.0
 31
0.0
  0
LINE
  5
3B4
330
1F
100
AcDbEntity
  8
ｶｳﾝﾀｰ_ｷｬﾋﾞﾈｯﾄ
  6
CONTINUOUS
 62
     6
100
AcDbLine
 10
2717.499999999997
 20
2572.5
 30
0.0
 11
2718.999999999996
 21
2606.0
 31
0.0
  0
LINE
  5
3B5
330
1F
100
AcDbEntity
  8
ｶｳﾝﾀｰ_ｷｬﾋﾞﾈｯﾄ
  6
CONTINUOUS
 62
     6
100
AcDbLine
 10
2720.499999999998
 20
2572.5
 30
0.0
 11
2718.999999999996
 21
2606.0
 31
0.0
  0
LINE
  5
3B6
330
1F
100
AcDbEntity
  8
ｶｳﾝﾀｰ_ｷｬﾋﾞﾈｯﾄ
  6
CONTINUOUS
 62
     6
100
AcDbLine
 10
2718.999999999994
 20
2562.499999999998
 30
0.0
 11
2718.999999999994
 21
2611.0
 31
0.0
  0
LINE
  5
3B7
330
1F
100
AcDbEntity
  8
ｶｳﾝﾀｰ_ｷｬﾋﾞﾈｯﾄ
  6
CONTINUOUS
 62
     6
100
AcDbLine
 10
3583.499999999997
 20
2572.5
 30
0.0
 11
3584.999999999997
 21
2606.0
 31
0.0
  0
LINE
  5
3B8
330
1F
100
AcDbEntity
  8
ｶｳﾝﾀｰ_ｷｬﾋﾞﾈｯﾄ
  6
CONTINUOUS
 62
     6
100
AcDbLine
 10
3586.499999999997
 20
2572.5
 30
0.0
 11
3584.999999999997
 21
2606.0
 31
0.0
  0
LINE
  5
3B9
330
1F
100
AcDbEntity
  8
ｶｳﾝﾀｰ_ｷｬﾋﾞﾈｯﾄ
  6
CONTINUOUS
 62
     6
100
AcDbLine
 10
3584.999999999994
 20
2562.499999999998
 30
0.0
 11
3584.999999999994
 21
2611.0
 31
0.0
  0
LINE
  5
3BA
330
1F
100
AcDbEntity
  8
ｶｳﾝﾀｰ_ｷｬﾋﾞﾈｯﾄ
  6
CONTINUOUS
 62
     6
100
AcDbLine
 10
3288.499999999997
 20
2572.5
 30
0.0
 11
3289.999999999997
 21
2606.0
 31
0.0
  0
LINE
  5
3BB
330
1F
100
AcDbEntity
  8
ｶｳﾝﾀｰ_ｷｬﾋﾞﾈｯﾄ
  6
CONTINUOUS
 62
     6
100
AcDbLine
 10
3291.499999999997
 20
2572.5
 30
0.0
 11
3289.999999999997
 21
2606.0
 31
0.0
  0
LINE
  5
3BC
330
1F
100
AcDbEntity
  8
ｶｳﾝﾀｰ_ｷｬﾋﾞﾈｯﾄ
  6
CONTINUOUS
 62
     6
100
AcDbLine
 10
3289.999999999994
 20
2562.499999999998
 30
0.0
 11
3289.999999999994
 21
2611.0
 31
0.0
  0
LINE
  5
3BD
330
1F
100
AcDbEntity
  8
ｶｳﾝﾀｰ_ｷｬﾋﾞﾈｯﾄ
  6
CONTINUOUS
 62
     6
100
AcDbLine
 10
3023.499999999997
 20
2572.5
 30
0.0
 11
3024.999999999997
 21
2606.0
 31
0.0
  0
LINE
  5
3BE
330
1F
100
AcDbEntity
  8
ｶｳﾝﾀｰ_ｷｬﾋﾞﾈｯﾄ
  6
CONTINUOUS
 62
     6
100
AcDbLine
 10
3026.499999999997
 20
2572.5
 30
0.0
 11
3024.999999999997
 21
2606.0
 31
0.0
  0
LINE
  5
3BF
330
1F
100
AcDbEntity
  8
ｶｳﾝﾀｰ_ｷｬﾋﾞﾈｯﾄ
  6
CONTINUOUS
 62
     6
100
AcDbLine
 10
3024.999999999994
 20
2562.499999999998
 30
0.0
 11
3024.999999999994
 21
2611.0
 31
0.0
  0
LINE
  5
3C0
330
1F
100
AcDbEntity
  8
ｶｳﾝﾀｰ_ｷｬﾋﾞﾈｯﾄ
  6
CONTINUOUS
 62
     6
100
AcDbLine
 10
2636.499999999996
 20
2572.5
 30
0.0
 11
2637.999999999998
 21
2606.0
 31
0.0
  0
LINE
  5
3C1
330
1F
100
AcDbEntity
  8
ｶｳﾝﾀｰ_ｷｬﾋﾞﾈｯﾄ
  6
CONTINUOUS
 62
     6
100
AcDbLine
 10
2639.499999999997
 20
2572.5
 30
0.0
 11
2637.999999999998
 21
2606.0
 31
0.0
  0
LINE
  5
3C2
330
1F
100
AcDbEntity
  8
ｶｳﾝﾀｰ_ｷｬﾋﾞﾈｯﾄ
  6
CONTINUOUS
 62
     6
100
AcDbLine
 10
2637.999999999994
 20
2562.499999999998
 30
0.0
 11
2637.999999999994
 21
2611.0
 31
0.0
  0
LINE
  5
3C3
330
1F
100
AcDbEntity
  8
ｶｳﾝﾀｰ_ｷｬﾋﾞﾈｯﾄ
  6
CONTINUOUS
 62
     6
100
AcDbLine
 10
2386.499999999997
 20
2572.5
 30
0.0
 11
2387.999999999997
 21
2606.0
 31
0.0
  0
LINE
  5
3C4
330
1F
100
AcDbEntity
  8
ｶｳﾝﾀｰ_ｷｬﾋﾞﾈｯﾄ
  6
CONTINUOUS
 62
     6
100
AcDbLine
 10
2389.499999999997
 20
2572.5
 30
0.0
 11
2387.999999999997
 21
2606.0
 31
0.0
  0
LINE
  5
3C5
330
1F
100
AcDbEntity
  8
ｶｳﾝﾀｰ_ｷｬﾋﾞﾈｯﾄ
  6
CONTINUOUS
 62
     6
100
AcDbLine
 10
2387.999999999994
 20
2562.499999999998
 30
0.0
 11
2387.999999999994
 21
2611.0
 31
0.0
  0
LINE
  5
3C6
330
1F
100
AcDbEntity
  8
ｶｳﾝﾀｰ_ｷｬﾋﾞﾈｯﾄ
  6
CONTINUOUS
 62
     2
100
AcDbLine
 10
3659.999999999999
 20
2504.5
 30
0.0
 11
3659.999999999999
 21
2572.500000000001
 31
0.0
  0
ARC
  5
3C7
330
1F
100
AcDbEntity
  8
ｶｳﾝﾀｰ_ｷｬﾋﾞﾈｯﾄ
  6
CONTINUOUS
 62
     6
100
AcDbCircle
 10
2257.0
 20
2497.5
 30
0.0
 40
21.0
100
AcDbArc
 50
326.4426902380793
 51
125.6769725018797
  0
ELLIPSE
  5
3C8
330
1F
100
AcDbEntity
  8
ｶｳﾝﾀｰ_ｷｬﾋﾞﾈｯﾄ
  6
CONTINUOUS
 62
     6
100
AcDbEllipse
 10
2248.412669775902
 20
2441.572450167371
 30
0.0
 11
-1.525225498083993
 21
17.43340721660556
 31
0.0
210
0.0
220
0.0
230
1.0
 40
0.2794104048720002
 41
0.0
 42
6.283185307179586
  0
LINE
  5
3C9
330
1F
100
AcDbEntity
  8
ｶｳﾝﾀｰ_ｷｬﾋﾞﾈｯﾄ
  6
CONTINUOUS
 62
     6
100
AcDbLine
 10
2265.0
 20
2420.0
 30
0.0
 11
2249.0
 21
2420.0
 31
0.0
  0
LINE
  5
3CA
330
1F
100
AcDbEntity
  8
ｶｳﾝﾀｰ_ｷｬﾋﾞﾈｯﾄ
  6
CONTINUOUS
 62
     6
100
AcDbLine
 10
2239.500000000651
 20
2470.000000000022
 30
0.0
 11
2240.22617942891
 21
2449.204941963563
 31
0.0
  0
ARC
  5
3CB
330
1F
100
AcDbEntity
  8
ｶｳﾝﾀｰ_ｷｬﾋﾞﾈｯﾄ
  6
CONTINUOUS
 62
     6
100
AcDbCircle
 10
2300.189629050055
 20
2451.298911765711
 30
0.0
 40
60.0
100
AcDbArc
 50
181.9999999999977
 51
211.4428966914532
  0
ARC
  5
3CC
330
1F
100
AcDbEntity
  8
ｶｳﾝﾀｰ_ｷｬﾋﾞﾈｯﾄ
  6
CONTINUOUS
 62
     6
100
AcDbCircle
 10
2213.810370949945
 20
2451.298911765711
 30
0.0
 40
60.0
100
AcDbArc
 50
328.5571033085469
 51
358.0000000000025
  0
LINE
  5
3CD
330
1F
100
AcDbEntity
  8
ｶｳﾝﾀｰ_ｷｬﾋﾞﾈｯﾄ
  6
CONTINUOUS
 62
     6
100
AcDbLine
 10
2274.499999999349
 20
2470.000000000022
 30
0.0
 11
2273.77382057109
 21
2449.204941963563
 31
0.0
  0
LINE
  5
3CE
330
1F
100
AcDbEntity
  8
ｶｳﾝﾀｰ_ｷｬﾋﾞﾈｯﾄ
  6
CONTINUOUS
 62
     6
100
AcDbLine
 10
2274.5
 20
2497.5
 30
0.0
 11
2274.5
 21
2469.999999999999
 31
0.0
  0
LINE
  5
3CF
330
1F
100
AcDbEntity
  8
ｶｳﾝﾀｰ_ｷｬﾋﾞﾈｯﾄ
  6
CONTINUOUS
 62
     6
100
AcDbLine
 10
2239.5
 20
2480.635727255833
 30
0.0
 11
2239.5
 21
2469.999999999999
 31
0.0
  0
LINE
  5
3D0
330
1F
100
AcDbEntity
  8
ｶｳﾝﾀｰ_ｷｬﾋﾞﾈｯﾄ
  6
CONTINUOUS
 62
     6
100
AcDbLine
 10
2239.5
 20
2469.999999999999
 30
0.0
 11
2274.5
 21
2469.999999999999
 31
0.0
  0
ARC
  5
3D1
330
1F
100
AcDbEntity
  8
ｶｳﾝﾀｰ_ｷｬﾋﾞﾈｯﾄ
  6
CONTINUOUS
 62
     6
100
AcDbCircle
 10
2257.0
 20
2497.5
 30
0.0
 40
17.5
100
AcDbArc
 50
267.8803372600434
 51
92.11966273995668
  0
ELLIPSE
  5
3D2
330
1F
100
AcDbEntity
  8
ｶｳﾝﾀｰ_ｷｬﾋﾞﾈｯﾄ
  6
CONTINUOUS
 62
     6
100
AcDbEllipse
 10
2189.535709570398
 20
2497.5
 30
0.0
 11
18.12615574069923
 21
-4.439627721738746E-15
 31
0.0
210
0.0
220
0.0
230
1.0
 40
0.827533439223411
 41
1.615492201463848
 42
4.667693105715715
  0
LINE
  5
3D3
330
1F
100
AcDbEntity
  8
ｶｳﾝﾀｰ_ｷｬﾋﾞﾈｯﾄ
  6
CONTINUOUS
 62
     6
100
AcDbLine
 10
2188.725814905336
 20
2482.514980414952
 30
0.0
 11
2256.352733526777
 21
2480.011974207686
 31
0.0
  0
LINE
  5
3D4
330
1F
100
AcDbEntity
  8
ｶｳﾝﾀｰ_ｷｬﾋﾞﾈｯﾄ
  6
CONTINUOUS
 62
     6
100
AcDbLine
 10
2188.725814905336
 20
2512.485019585047
 30
0.0
 11
2256.352733526777
 21
2514.988025792315
 31
0.0
  0
LINE
  5
3D5
330
1F
100
AcDbEntity
  8
ｶｳﾝﾀｰ_ｷｬﾋﾞﾈｯﾄ
  6
CONTINUOUS
 62
     6
100
AcDbLine
 10
2169.999999999998
 20
2447.500000000006
 30
0.0
 11
2169.999999999998
 21
2484.457898447125
 31
0.0
  0
LINE
  5
3D6
330
1F
100
AcDbEntity
  8
ｶｳﾝﾀｰ_ｷｬﾋﾞﾈｯﾄ
  6
CONTINUOUS
 62
     6
100
AcDbLine
 10
2122.0
 20
2511.861406616345
 30
0.0
 11
2122.0
 21
2498.6547005384
 31
0.0
  0
LINE
  5
3D7
330
1F
100
AcDbEntity
  8
ｶｳﾝﾀｰ_ｷｬﾋﾞﾈｯﾄ
  6
CONTINUOUS
 62
     6
100
AcDbLine
 10
2117.999999999998
 20
2511.861406616345
 30
0.0
 11
2117.999999999998
 21
2498.6547005384
 31
0.0
  0
LINE
  5
3D8
330
1F
100
AcDbEntity
  8
ｶｳﾝﾀｰ_ｷｬﾋﾞﾈｯﾄ
  6
CONTINUOUS
 62
     6
100
AcDbLine
 10
2117.999999999993
 20
2498.65470053836
 30
0.0
 11
2106.562657036162
 21
2492.051347499406
 31
0.0
  0
LINE
  5
3D9
330
1F
100
AcDbEntity
  8
ｶｳﾝﾀｰ_ｷｬﾋﾞﾈｯﾄ
  6
CONTINUOUS
 62
     6
100
AcDbLine
 10
2119.999999999998
 20
2495.190598923213
 30
0.0
 11
2108.562657036166
 21
2488.587245884259
 31
0.0
  0
LINE
  5
3DA
330
1F
100
AcDbEntity
  8
ｶｳﾝﾀｰ_ｷｬﾋﾞﾈｯﾄ
  6
CONTINUOUS
 62
     6
100
AcDbLine
 10
2120.0
 20
2495.190598923213
 30
0.0
 11
2131.437342963833
 21
2488.587245884259
 31
0.0
  0
LINE
  5
3DB
330
1F
100
AcDbEntity
  8
ｶｳﾝﾀｰ_ｷｬﾋﾞﾈｯﾄ
  6
CONTINUOUS
 62
     6
100
AcDbLine
 10
2122.000000000005
 20
2498.65470053836
 30
0.0
 11
2133.437342963836
 21
2492.051347499406
 31
0.0
  0
CIRCLE
  5
3DC
330
1F
100
AcDbEntity
  8
ｶｳﾝﾀｰ_ｷｬﾋﾞﾈｯﾄ
  6
CONTINUOUS
 62
     6
100
AcDbCircle
 10
2120.0
 20
2497.5
 30
0.0
 40
17.0
  0
CIRCLE
  5
3DD
330
1F
100
AcDbEntity
  8
ｶｳﾝﾀｰ_ｷｬﾋﾞﾈｯﾄ
  6
CONTINUOUS
 62
     6
100
AcDbCircle
 10
2120.0
 20
2497.5
 30
0.0
 40
14.50000000000001
  0
CIRCLE
  5
3DE
330
1F
100
AcDbEntity
  8
ｶｳﾝﾀｰ_ｷｬﾋﾞﾈｯﾄ
  6
CONTINUOUS
 62
     6
100
AcDbCircle
 10
2120.0
 20
2497.5
 30
0.0
 40
27.85
  0
LINE
  5
3DF
330
1F
100
AcDbEntity
  8
ｶｳﾝﾀｰ_ｷｬﾋﾞﾈｯﾄ
  6
CONTINUOUS
 62
     6
100
AcDbLine
 10
2294.999999999995
 20
2562.5
 30
0.0
 11
2294.999999999995
 21
2611.0
 31
0.0
  0
LINE
  5
3E0
330
1F
100
AcDbEntity
  8
ｶｳﾝﾀｰ_ｷｬﾋﾞﾈｯﾄ
  6
CONTINUOUS
 62
     6
100
AcDbLine
 10
2248.499999999998
 20
2572.5
 30
0.0
 11
2249.999999999998
 21
2606.0
 31
0.0
  0
LINE
  5
3E1
330
1F
100
AcDbEntity
  8
ｶｳﾝﾀｰ_ｷｬﾋﾞﾈｯﾄ
  6
CONTINUOUS
 62
     6
100
AcDbLine
 10
2251.499999999998
 20
2572.5
 30
0.0
 11
2249.999999999998
 21
2606.0
 31
0.0
  0
LINE
  5
3E2
330
1F
100
AcDbEntity
  8
ｶｳﾝﾀｰ_ｷｬﾋﾞﾈｯﾄ
  6
CONTINUOUS
 62
     6
100
AcDbLine
 10
2293.499999999998
 20
2572.5
 30
0.0
 11
2294.999999999998
 21
2606.0
 31
0.0
  0
LINE
  5
3E3
330
1F
100
AcDbEntity
  8
ｶｳﾝﾀｰ_ｷｬﾋﾞﾈｯﾄ
  6
CONTINUOUS
 62
     6
100
AcDbLine
 10
2296.499999999998
 20
2572.5
 30
0.0
 11
2294.999999999998
 21
2606.0
 31
0.0
  0
LINE
  5
3E4
330
1F
100
AcDbEntity
  8
ｶｳﾝﾀｰ_ｷｬﾋﾞﾈｯﾄ
  6
CONTINUOUS
 62
     6
100
AcDbLine
 10
2249.999999999995
 20
2562.499999999999
 30
0.0
 11
2249.999999999995
 21
2611.0
 31
0.0
  0
LINE
  5
3E5
330
1F
100
AcDbEntity
  8
ｶｳﾝﾀｰ_ｷｬﾋﾞﾈｯﾄ
  6
CONTINUOUS
 62
     6
100
AcDbLine
 10
1995.000000000004
 20
2562.5
 30
0.0
 11
1995.000000000004
 21
2611.0
 31
0.0
  0
LINE
  5
3E6
330
1F
100
AcDbEntity
  8
ｶｳﾝﾀｰ_ｷｬﾋﾞﾈｯﾄ
  6
CONTINUOUS
 62
     6
100
AcDbLine
 10
2041.5
 20
2572.5
 30
0.0
 11
2040.0
 21
2606.0
 31
0.0
  0
LINE
  5
3E7
330
1F
100
AcDbEntity
  8
ｶｳﾝﾀｰ_ｷｬﾋﾞﾈｯﾄ
  6
CONTINUOUS
 62
     6
100
AcDbLine
 10
2038.5
 20
2572.5
 30
0.0
 11
2040.0
 21
2606.0
 31
0.0
  0
LINE
  5
3E8
330
1F
100
AcDbEntity
  8
ｶｳﾝﾀｰ_ｷｬﾋﾞﾈｯﾄ
  6
CONTINUOUS
 62
     6
100
AcDbLine
 10
1996.5
 20
2572.5
 30
0.0
 11
1995.0
 21
2606.0
 31
0.0
  0
LINE
  5
3E9
330
1F
100
AcDbEntity
  8
ｶｳﾝﾀｰ_ｷｬﾋﾞﾈｯﾄ
  6
CONTINUOUS
 62
     6
100
AcDbLine
 10
1993.5
 20
2572.5
 30
0.0
 11
1995.0
 21
2606.0
 31
0.0
  0
LINE
  5
3EA
330
1F
100
AcDbEntity
  8
ｶｳﾝﾀｰ_ｷｬﾋﾞﾈｯﾄ
  6
CONTINUOUS
 62
     2
100
AcDbLine
 10
2216.0
 20
2395.967254938127
 30
0.0
 11
2216.0
 21
2481.505508802439
 31
0.0
  0
LINE
  5
3EB
330
1F
100
AcDbEntity
  8
ｶｳﾝﾀｰ_ｷｬﾋﾞﾈｯﾄ
  6
CONTINUOUS
 62
     2
100
AcDbLine
 10
2216.0
 20
2513.49449119756
 30
0.0
 11
2216.0
 21
2538.304391283406
 31
0.0
  0
LINE
  5
3EC
330
1F
100
AcDbEntity
  8
ｶｳﾝﾀｰ_ｷｬﾋﾞﾈｯﾄ
  6
EXLTYPE3
 62
     6
100
AcDbLine
 10
2087.149999999998
 20
2497.499999999999
 30
0.0
 11
2283.0
 21
2497.499999999999
 31
0.0
  0
LINE
  5
3ED
330
1F
100
AcDbEntity
  8
ｶｳﾝﾀｰ_ｷｬﾋﾞﾈｯﾄ
  6
CONTINUOUS
 62
     6
100
AcDbLine
 10
2257.0
 20
2471.5
 30
0.0
 11
2257.0
 21
2523.5
 31
0.0
  0
LINE
  5
3EE
330
1F
100
AcDbEntity
  8
ｶｳﾝﾀｰ_ｷｬﾋﾞﾈｯﾄ
  6
CONTINUOUS
 62
     6
100
AcDbLine
 10
2040.000000000004
 20
2562.499999999999
 30
0.0
 11
2040.000000000004
 21
2611.0
 31
0.0
  0
LINE
  5
3EF
330
1F
100
AcDbEntity
  8
ｶｳﾝﾀｰ_ｷｬﾋﾞﾈｯﾄ
  6
EXLTYPE3
 62
     6
100
AcDbLine
 10
2144.999999999998
 20
2367.499999999999
 30
0.0
 11
2144.999999999998
 21
2582.499999999999
 31
0.0
  0
LINE
  5
3F0
330
1F
100
AcDbEntity
  8
ｶｳﾝﾀｰ_ｷｬﾋﾞﾈｯﾄ
  6
CONTINUOUS
 62
     6
100
AcDbLine
 10
2169.999999999998
 20
2510.542101552876
 30
0.0
 11
2169.999999999998
 21
2532.131824714107
 31
0.0
  0
ARC
  5
3F1
330
1F
100
AcDbEntity
  8
ｶｳﾝﾀｰ_ｷｬﾋﾞﾈｯﾄ
  6
CONTINUOUS
 62
     6
100
AcDbCircle
 10
2304.5
 20
2538.304391283406
 30
0.0
 40
10.0
100
AcDbArc
 50
0.0
 51
78.46304096713943
  0
ARC
  5
3F2
330
1F
100
AcDbEntity
  8
ｶｳﾝﾀｰ_ｷｬﾋﾞﾈｯﾄ
  6
CONTINUOUS
 62
     6
100
AcDbCircle
 10
1985.5
 20
2538.304391283406
 30
0.0
 40
10.0
100
AcDbArc
 50
101.5369590328618
 51
180.0
  0
LINE
  5
3F3
330
1F
100
AcDbEntity
  8
ｶｳﾝﾀｰ_ｷｬﾋﾞﾈｯﾄ
  6
CONTINUOUS
 62
     6
100
AcDbLine
 10
2040.0
 20
2542.131824714099
 30
0.0
 11
2006.500000000002
 21
2545.925971137429
 31
0.0
  0
LINE
  5
3F4
330
1F
100
AcDbEntity
  8
ｶｳﾝﾀｰ_ｷｬﾋﾞﾈｯﾄ
  6
CONTINUOUS
 62
     6
100
AcDbLine
 10
2119.999999999998
 20
2530.349999999999
 30
0.0
 11
2119.999999999998
 21
2464.649999999998
 31
0.0
  0
LINE
  5
3F5
330
1F
100
AcDbEntity
  8
ｶｳﾝﾀｰ_ｷｬﾋﾞﾈｯﾄ
  6
CONTINUOUS
 62
     6
100
AcDbLine
 10
2314.5
 20
2538.304391283406
 30
0.0
 11
2314.5
 21
2400.61758408676
 31
0.0
  0
ARC
  5
3F6
330
1F
100
AcDbEntity
  8
ｶｳﾝﾀｰ_ｷｬﾋﾞﾈｯﾄ
  6
CONTINUOUS
 62
     6
100
AcDbCircle
 10
2302.499999999998
 20
2400.61758408676
 30
0.0
 40
12.00000000000001
100
AcDbArc
 50
272.2679503111399
 51
0.0
  0
ARC
  5
3F7
330
1F
100
AcDbEntity
  8
ｶｳﾝﾀｰ_ｷｬﾋﾞﾈｯﾄ
  6
CONTINUOUS
 62
     6
100
AcDbCircle
 10
2144.999999999998
 20
6377.500000000011
 30
0.0
 40
3992.000000000003
100
AcDbArc
 50
267.7320496888586
 51
272.2679503111416
  0
ARC
  5
3F8
330
1F
100
AcDbEntity
  8
ｶｳﾝﾀｰ_ｷｬﾋﾞﾈｯﾄ
  6
CONTINUOUS
 62
     6
100
AcDbCircle
 10
1987.499999999998
 20
2400.61758408676
 30
0.0
 40
12.00000000000001
100
AcDbArc
 50
180.0
 51
267.7320496888569
  0
LINE
  5
3F9
330
1F
100
AcDbEntity
  8
ｶｳﾝﾀｰ_ｷｬﾋﾞﾈｯﾄ
  6
CONTINUOUS
 62
     6
100
AcDbLine
 10
1975.5
 20
2538.304391283406
 30
0.0
 11
1975.5
 21
2400.61758408676
 31
0.0
  0
LINE
  5
3FA
330
1F
100
AcDbEntity
  8
ｶｳﾝﾀｰ_ｷｬﾋﾞﾈｯﾄ
  6
CONTINUOUS
 62
     6
100
AcDbLine
 10
2040.0
 20
2532.131824714107
 30
0.0
 11
2040.0
 21
2447.500000000006
 31
0.0
  0
ARC
  5
3FB
330
1F
100
AcDbEntity
  8
ｶｳﾝﾀｰ_ｷｬﾋﾞﾈｯﾄ
  6
CONTINUOUS
 62
     6
100
AcDbCircle
 10
2050.0
 20
2532.131824714107
 30
0.0
 40
10.0
100
AcDbArc
 50
90.00000000000001
 51
180.0
  0
LINE
  5
3FC
330
1F
100
AcDbEntity
  8
ｶｳﾝﾀｰ_ｷｬﾋﾞﾈｯﾄ
  6
CONTINUOUS
 62
     6
100
AcDbLine
 10
2159.999999999998
 20
2542.131824714107
 30
0.0
 11
2050.0
 21
2542.131824714107
 31
0.0
  0
ARC
  5
3FD
330
1F
100
AcDbEntity
  8
ｶｳﾝﾀｰ_ｷｬﾋﾞﾈｯﾄ
  6
CONTINUOUS
 62
     6
100
AcDbCircle
 10
2159.999999999998
 20
2532.131824714107
 30
0.0
 40
10.0
100
AcDbArc
 50
0.0
 51
90.00000000000001
  0
ARC
  5
3FE
330
1F
100
AcDbEntity
  8
ｶｳﾝﾀｰ_ｷｬﾋﾞﾈｯﾄ
  6
CONTINUOUS
 62
     6
100
AcDbCircle
 10
2159.999999999998
 20
2447.500000000006
 30
0.0
 40
10.0
100
AcDbArc
 50
270.0000000000002
 51
0.0
  0
LINE
  5
3FF
330
1F
100
AcDbEntity
  8
ｶｳﾝﾀｰ_ｷｬﾋﾞﾈｯﾄ
  6
CONTINUOUS
 62
     6
100
AcDbLine
 10
2159.999999999998
 20
2437.500000000006
 30
0.0
 11
2050.0
 21
2437.500000000006
 31
0.0
  0
ARC
  5
400
330
1F
100
AcDbEntity
  8
ｶｳﾝﾀｰ_ｷｬﾋﾞﾈｯﾄ
  6
CONTINUOUS
 62
     6
100
AcDbCircle
 10
2050.0
 20
2447.500000000006
 30
0.0
 40
10.0
100
AcDbArc
 50
180.0
 51
270.0000000000002
  0
LINE
  5
401
330
1F
100
AcDbEntity
  8
ｶｳﾝﾀｰ_ｷｬﾋﾞﾈｯﾄ
  6
CONTINUOUS
 62
     6
100
AcDbLine
 10
2040.0
 20
2437.5
 30
0.0
 11
1983.242969789011
 21
2394.910317847322
 31
0.0
  0
LINE
  5
402
330
1F
100
AcDbEntity
  8
ｶｳﾝﾀｰ_ｷｬﾋﾞﾈｯﾄ
  6
CONTINUOUS
 62
     6
100
AcDbLine
 10
2170.0
 20
2437.5
 30
0.0
 11
2209.970766956936
 21
2392.864329738639
 31
0.0
  0
LINE
  5
403
330
1F
100
AcDbEntity
  8
ｶｳﾝﾀｰ_ｷｬﾋﾞﾈｯﾄ
  6
CONTINUOUS
 62
     6
100
AcDbLine
 10
2170.0
 20
2542.131824714099
 30
0.0
 11
2201.071914671327
 21
2547.459420873666
 31
0.0
  0
LINE
  5
404
330
1F
100
AcDbEntity
  8
ｶｳﾝﾀｰ_ｷｬﾋﾞﾈｯﾄ
  6
CONTINUOUS
 62
     2
100
AcDbLine
 10
1983.5
 20
2544.500000000006
 30
0.0
 11
2006.5
 21
2544.500000000006
 31
0.0
  0
LINE
  5
405
330
1F
100
AcDbEntity
  8
ｶｳﾝﾀｰ_ｷｬﾋﾞﾈｯﾄ
  6
CONTINUOUS
 62
     2
100
AcDbLine
 10
2283.5
 20
2544.500000000006
 30
0.0
 11
2306.5
 21
2544.500000000006
 31
0.0
  0
LINE
  5
406
330
1F
100
AcDbEntity
  8
ｶｳﾝﾀｰ_ｷｬﾋﾞﾈｯﾄ
  6
CONTINUOUS
 62
     2
100
AcDbLine
 10
2306.5
 20
2544.500000000006
 30
0.0
 11
2306.5
 21
2552.500000000006
 31
0.0
  0
LINE
  5
407
330
1F
100
AcDbEntity
  8
ｶｳﾝﾀｰ_ｷｬﾋﾞﾈｯﾄ
  6
CONTINUOUS
 62
     2
100
AcDbLine
 10
2283.5
 20
2544.500000000006
 30
0.0
 11
2283.5
 21
2552.500000000006
 31
0.0
  0
LINE
  5
408
330
1F
100
AcDbEntity
  8
ｶｳﾝﾀｰ_ｷｬﾋﾞﾈｯﾄ
  6
CONTINUOUS
 62
     2
100
AcDbLine
 10
2006.5
 20
2544.500000000006
 30
0.0
 11
2006.5
 21
2552.500000000006
 31
0.0
  0
LINE
  5
409
330
1F
100
AcDbEntity
  8
ｶｳﾝﾀｰ_ｷｬﾋﾞﾈｯﾄ
  6
CONTINUOUS
 62
     2
100
AcDbLine
 10
1983.5
 20
2544.500000000006
 30
0.0
 11
1983.5
 21
2552.500000000006
 31
0.0
  0
LINE
  5
40A
330
1F
100
AcDbEntity
  8
ｶｳﾝﾀｰ_ｷｬﾋﾞﾈｯﾄ
  6
CONTINUOUS
 62
     2
100
AcDbLine
 10
1971.5
 20
2552.500000000006
 30
0.0
 11
2318.5
 21
2552.500000000006
 31
0.0
  0
ARC
  5
40B
330
1F
100
AcDbEntity
  8
ｶｳﾝﾀｰ_ｷｬﾋﾞﾈｯﾄ
  6
CONTINUOUS
 62
     2
100
AcDbCircle
 10
2206.0
 20
2538.304391283406
 30
0.0
 40
10.0
100
AcDbArc
 50
0.0
 51
90.00000000000001
  0
ARC
  5
40C
330
1F
100
AcDbEntity
  8
ｶｳﾝﾀｰ_ｷｬﾋﾞﾈｯﾄ
  6
CONTINUOUS
 62
     2
100
AcDbCircle
 10
2205.999999999998
 20
2395.967254938127
 30
0.0
 40
10.0
100
AcDbArc
 50
270.8777446663837
 51
0.0
  0
ARC
  5
40D
330
1F
100
AcDbEntity
  8
ｶｳﾝﾀｰ_ｷｬﾋﾞﾈｯﾄ
  6
CONTINUOUS
 62
     2
100
AcDbCircle
 10
2302.499999999998
 20
2400.61758408676
 30
0.0
 40
20.0
100
AcDbArc
 50
272.2679503111411
 51
0.0
  0
ARC
  5
40E
330
1F
100
AcDbEntity
  8
ｶｳﾝﾀｰ_ｷｬﾋﾞﾈｯﾄ
  6
CONTINUOUS
 62
     2
100
AcDbCircle
 10
2144.999999999998
 20
6377.500000000011
 30
0.0
 40
4000.000000000002
100
AcDbArc
 50
267.7320496888586
 51
272.2679503111416
  0
ARC
  5
40F
330
1F
100
AcDbEntity
  8
ｶｳﾝﾀｰ_ｷｬﾋﾞﾈｯﾄ
  6
CONTINUOUS
 62
     2
100
AcDbCircle
 10
1987.499999999998
 20
2400.61758408676
 30
0.0
 40
20.0
100
AcDbArc
 50
180.0
 51
267.7320496888586
  0
LINE
  5
410
330
1F
100
AcDbEntity
  8
ｶｳﾝﾀｰ_ｷｬﾋﾞﾈｯﾄ
  6
CONTINUOUS
 62
     2
100
AcDbLine
 10
2322.5
 20
2572.500000000006
 30
0.0
 11
2322.5
 21
2400.61758408676
 31
0.0
  0
LINE
  5
411
330
1F
100
AcDbEntity
  8
ｶｳﾝﾀｰ_ｷｬﾋﾞﾈｯﾄ
  6
CONTINUOUS
 62
     2
100
AcDbLine
 10
1967.5
 20
2572.500000000006
 30
0.0
 11
1967.5
 21
2400.61758408676
 31
0.0
  0
ARC
  5
412
330
1F
100
AcDbEntity
  8
ｶｳﾝﾀｰ_ｷｬﾋﾞﾈｯﾄ
  6
CONTINUOUS
 62
     2
100
AcDbCircle
 10
2318.5
 20
2556.500000000008
 30
0.0
 40
4.0
100
AcDbArc
 50
270.0000000000002
 51
0.0
  0
LINE
  5
413
330
1F
100
AcDbEntity
  8
ｶｳﾝﾀｰ_ｷｬﾋﾞﾈｯﾄ
  6
CONTINUOUS
 62
     2
100
AcDbLine
 10
1967.5
 20
2572.500000000006
 30
0.0
 11
2322.5
 21
2572.500000000006
 31
0.0
  0
ARC
  5
414
330
1F
100
AcDbEntity
  8
ｶｳﾝﾀｰ_ｷｬﾋﾞﾈｯﾄ
  6
CONTINUOUS
 62
     2
100
AcDbCircle
 10
1971.5
 20
2556.500000000008
 30
0.0
 40
4.0
100
AcDbArc
 50
180.0
 51
270.0000000000002
  0
LINE
  5
415
330
1F
100
AcDbEntity
  8
ｶｳﾝﾀｰ_ｷｬﾋﾞﾈｯﾄ
  6
CONTINUOUS
 62
     6
100
AcDbLine
 10
3511.5881347287
 20
2204.653477347801
 30
0.0
 11
3496.7881347287
 21
2204.653477347801
 31
0.0
  0
LINE
  5
416
330
1F
100
AcDbEntity
  8
ｶｳﾝﾀｰ_ｷｬﾋﾞﾈｯﾄ
  6
CONTINUOUS
 62
     6
100
AcDbLine
 10
3511.5881347287
 20
2202.118662113601
 30
0.0
 11
3496.7881347287
 21
2202.118662113601
 31
0.0
  0
LINE
  5
417
330
1F
100
AcDbEntity
  8
ｶｳﾝﾀｰ_ｷｬﾋﾞﾈｯﾄ
  6
CONTINUOUS
 62
     6
100
AcDbLine
 10
3511.5881347287
 20
2198.726417204201
 30
0.0
 11
3496.7881347287
 21
2198.726417204201
 31
0.0
  0
LINE
  5
418
330
1F
100
AcDbEntity
  8
ｶｳﾝﾀｰ_ｷｬﾋﾞﾈｯﾄ
  6
CONTINUOUS
 62
     6
100
AcDbLine
 10
3511.5881347287
 20
2194.625
 30
0.0
 11
3496.7881347287
 21
2194.625
 31
0.0
  0
LINE
  5
419
330
1F
100
AcDbEntity
  8
ｶｳﾝﾀｰ_ｷｬﾋﾞﾈｯﾄ
  6
CONTINUOUS
 62
     6
100
AcDbLine
 10
3511.5881347287
 20
2189.993662113601
 30
0.0
 11
3496.7881347287
 21
2189.993662113601
 31
0.0
  0
LINE
  5
41A
330
1F
100
AcDbEntity
  8
ｶｳﾝﾀｰ_ｷｬﾋﾞﾈｯﾄ
  6
CONTINUOUS
 62
     6
100
AcDbLine
 10
3511.5881347287
 20
2185.034815234201
 30
0.0
 11
3496.7881347287
 21
2185.034815234201
 31
0.0
  0
LINE
  5
41B
330
1F
100
AcDbEntity
  8
ｶｳﾝﾀｰ_ｷｬﾋﾞﾈｯﾄ
  6
CONTINUOUS
 62
     6
100
AcDbLine
 10
3511.5881347287
 20
2179.9651847658
 30
0.0
 11
3496.7881347287
 21
2179.9651847658
 31
0.0
  0
LINE
  5
41C
330
1F
100
AcDbEntity
  8
ｶｳﾝﾀｰ_ｷｬﾋﾞﾈｯﾄ
  6
CONTINUOUS
 62
     6
100
AcDbLine
 10
3511.5881347287
 20
2175.006337886401
 30
0.0
 11
3496.7881347287
 21
2175.006337886401
 31
0.0
  0
LINE
  5
41D
330
1F
100
AcDbEntity
  8
ｶｳﾝﾀｰ_ｷｬﾋﾞﾈｯﾄ
  6
CONTINUOUS
 62
     6
100
AcDbLine
 10
3511.5881347287
 20
2170.375
 30
0.0
 11
3496.7881347287
 21
2170.375
 31
0.0
  0
LINE
  5
41E
330
1F
100
AcDbEntity
  8
ｶｳﾝﾀｰ_ｷｬﾋﾞﾈｯﾄ
  6
CONTINUOUS
 62
     6
100
AcDbLine
 10
3511.5881347287
 20
2166.2735827958
 30
0.0
 11
3496.7881347287
 21
2166.2735827958
 31
0.0
  0
LINE
  5
41F
330
1F
100
AcDbEntity
  8
ｶｳﾝﾀｰ_ｷｬﾋﾞﾈｯﾄ
  6
CONTINUOUS
 62
     6
100
AcDbLine
 10
3511.5881347287
 20
2162.881337886401
 30
0.0
 11
3496.7881347287
 21
2162.881337886401
 31
0.0
  0
LINE
  5
420
330
1F
100
AcDbEntity
  8
ｶｳﾝﾀｰ_ｷｬﾋﾞﾈｯﾄ
  6
CONTINUOUS
 62
     6
100
AcDbLine
 10
3511.5881347287
 20
2160.346522652201
 30
0.0
 11
3496.7881347287
 21
2160.346522652201
 31
0.0
  0
LINE
  5
421
330
1F
100
AcDbEntity
  8
ｶｳﾝﾀｰ_ｷｬﾋﾞﾈｯﾄ
  6
CONTINUOUS
 62
     6
100
AcDbLine
 10
3496.7881347287
 20
2206.75
 30
0.0
 11
3496.7881347287
 21
2158.25
 31
0.0
  0
LINE
  5
422
330
1F
100
AcDbEntity
  8
ｶｳﾝﾀｰ_ｷｬﾋﾞﾈｯﾄ
  6
CONTINUOUS
 62
     6
100
AcDbLine
 10
3511.5881347287
 20
2206.75
 30
0.0
 11
3496.7881347287
 21
2206.75
 31
0.0
  0
LINE
  5
423
330
1F
100
AcDbEntity
  8
ｶｳﾝﾀｰ_ｷｬﾋﾞﾈｯﾄ
  6
CONTINUOUS
 62
     6
100
AcDbLine
 10
3514.5881347287
 20
2203.75
 30
0.0
 11
3514.5881347287
 21
2161.25
 31
0.0
  0
LINE
  5
424
330
1F
100
AcDbEntity
  8
ｶｳﾝﾀｰ_ｷｬﾋﾞﾈｯﾄ
  6
CONTINUOUS
 62
     6
100
AcDbLine
 10
3511.5881347287
 20
2158.25
 30
0.0
 11
3496.7881347287
 21
2158.25
 31
0.0
  0
ARC
  5
425
330
1F
100
AcDbEntity
  8
ｶｳﾝﾀｰ_ｷｬﾋﾞﾈｯﾄ
  6
CONTINUOUS
 62
     6
100
AcDbCircle
 10
3511.5881347287
 20
2203.75
 30
0.0
 40
3.000000000000003
100
AcDbArc
 50
0.0000000000000573
 51
90.00000000000001
  0
ARC
  5
426
330
1F
100
AcDbEntity
  8
ｶｳﾝﾀｰ_ｷｬﾋﾞﾈｯﾄ
  6
CONTINUOUS
 62
     6
100
AcDbCircle
 10
3511.5881347287
 20
2161.25
 30
0.0
 40
3.000000000000003
100
AcDbArc
 50
270.0
 51
0.0000000000000573
  0
LINE
  5
427
330
1F
100
AcDbEntity
  8
ｶｳﾝﾀｰ_ｷｬﾋﾞﾈｯﾄ
  6
CONTINUOUS
 62
     6
100
AcDbLine
 10
3628.999999999998
 20
2200.5
 30
0.0
 11
3591.999999999998
 21
2200.5
 31
0.0
  0
LINE
  5
428
330
1F
100
AcDbEntity
  8
ｶｳﾝﾀｰ_ｷｬﾋﾞﾈｯﾄ
  6
CONTINUOUS
 62
     6
100
AcDbLine
 10
3626.249999999998
 20
2197.5
 30
0.0
 11
3594.999999999998
 21
2197.5
 31
0.0
  0
LINE
  5
429
330
1F
100
AcDbEntity
  8
ｶｳﾝﾀｰ_ｷｬﾋﾞﾈｯﾄ
  6
CONTINUOUS
 62
     6
100
AcDbLine
 10
3594.999999999998
 20
2166.25
 30
0.0
 11
3594.999999999998
 21
2197.5
 31
0.0
  0
LINE
  5
42A
330
1F
100
AcDbEntity
  8
ｶｳﾝﾀｰ_ｷｬﾋﾞﾈｯﾄ
  6
CONTINUOUS
 62
     6
100
AcDbLine
 10
3591.999999999998
 20
2163.5
 30
0.0
 11
3591.999999999998
 21
2200.5
 31
0.0
  0
LINE
  5
42B
330
1F
100
AcDbEntity
  8
ｶｳﾝﾀｰ_ｷｬﾋﾞﾈｯﾄ
  6
CONTINUOUS
 62
     6
100
AcDbLine
 10
3558.5803430543
 20
2172.9828349396
 30
0.0
 11
3573.299999999999
 21
2172.9828349396
 31
0.0
  0
LINE
  5
42C
330
1F
100
AcDbEntity
  8
ｶｳﾝﾀｰ_ｷｬﾋﾞﾈｯﾄ
  6
CONTINUOUS
 62
     6
100
AcDbLine
 10
3558.5803430543
 20
2192.017165060401
 30
0.0
 11
3573.299999999999
 21
2192.017165060401
 31
0.0
  0
ARC
  5
42D
330
1F
100
AcDbEntity
  8
ｶｳﾝﾀｰ_ｷｬﾋﾞﾈｯﾄ
  6
CONTINUOUS
 62
     6
100
AcDbCircle
 10
3564.121249999889
 20
2166.377965388951
 30
0.0
 40
8.621249999889734
100
AcDbArc
 50
129.9937041250094
 51
180.0
  0
ARC
  5
42E
330
1F
100
AcDbEntity
  8
ｶｳﾝﾀｰ_ｷｬﾋﾞﾈｯﾄ
  6
CONTINUOUS
 62
     6
100
AcDbCircle
 10
3571.742499999938
 20
2182.5
 30
0.0
 40
16.24249999994036
100
AcDbArc
 50
144.1304248452668
 51
215.8695751547332
  0
ARC
  5
42F
330
1F
100
AcDbEntity
  8
ｶｳﾝﾀｰ_ｷｬﾋﾞﾈｯﾄ
  6
CONTINUOUS
 62
     6
100
AcDbCircle
 10
3564.121249999887
 20
2198.62203461105
 30
0.0
 40
8.621249999888418
100
AcDbArc
 50
180.0
 51
230.0062958749998
  0
LINE
  5
430
330
1F
100
AcDbEntity
  8
ｶｳﾝﾀｰ_ｷｬﾋﾞﾈｯﾄ
  6
CONTINUOUS
 62
     6
100
AcDbLine
 10
3619.5171650604
 20
2233.9196569457
 30
0.0
 11
3619.5171650604
 21
2219.199999999999
 31
0.0
  0
LINE
  5
431
330
1F
100
AcDbEntity
  8
ｶｳﾝﾀｰ_ｷｬﾋﾞﾈｯﾄ
  6
CONTINUOUS
 62
     6
100
AcDbLine
 10
3600.482834939599
 20
2233.9196569457
 30
0.0
 11
3600.482834939599
 21
2219.199999999999
 31
0.0
  0
ARC
  5
432
330
1F
100
AcDbEntity
  8
ｶｳﾝﾀｰ_ｷｬﾋﾞﾈｯﾄ
  6
CONTINUOUS
 62
     6
100
AcDbCircle
 10
3593.877965388951
 20
2228.378750000109
 30
0.0
 40
8.621249999889734
100
AcDbArc
 50
39.99370412501697
 51
90.00000000000001
  0
ARC
  5
433
330
1F
100
AcDbEntity
  8
ｶｳﾝﾀｰ_ｷｬﾋﾞﾈｯﾄ
  6
CONTINUOUS
 62
     6
100
AcDbCircle
 10
3609.999999999998
 20
2220.75750000006
 30
0.0
 40
16.24249999994036
100
AcDbArc
 50
54.13042484526097
 51
125.8695751547326
  0
ARC
  5
434
330
1F
100
AcDbEntity
  8
ｶｳﾝﾀｰ_ｷｬﾋﾞﾈｯﾄ
  6
CONTINUOUS
 62
     6
100
AcDbCircle
 10
3626.122034611049
 20
2228.378750000111
 30
0.0
 40
8.621249999888418
100
AcDbArc
 50
90.00000000000001
 51
140.0062958749989
  0
LINE
  5
435
330
1F
100
AcDbEntity
  8
ｶｳﾝﾀｰ_ｷｬﾋﾞﾈｯﾄ
  6
CONTINUOUS
 62
     6
100
AcDbLine
 10
3573.299999999999
 20
2159.700000000001
 30
0.0
 11
3573.299999999999
 21
2205.3
 31
0.0
  0
LINE
  5
436
330
1F
100
AcDbEntity
  8
ｶｳﾝﾀｰ_ｷｬﾋﾞﾈｯﾄ
  6
CONTINUOUS
 62
     6
100
AcDbLine
 10
3555.499999999998
 20
2159.700000000001
 30
0.0
 11
3555.499999999998
 21
2205.3
 31
0.0
  0
LINE
  5
437
330
1F
100
AcDbEntity
  8
ｶｳﾝﾀｰ_ｷｬﾋﾞﾈｯﾄ
  6
CONTINUOUS
 62
     6
100
AcDbLine
 10
3555.499999999998
 20
2205.3
 30
0.0
 11
3573.299999999999
 21
2205.3
 31
0.0
  0
LINE
  5
438
330
1F
100
AcDbEntity
  8
ｶｳﾝﾀｰ_ｷｬﾋﾞﾈｯﾄ
  6
CONTINUOUS
 62
     6
100
AcDbLine
 10
3555.499999999998
 20
2159.700000000001
 30
0.0
 11
3573.299999999999
 21
2159.700000000001
 31
0.0
  0
LINE
  5
439
330
1F
100
AcDbEntity
  8
ｶｳﾝﾀｰ_ｷｬﾋﾞﾈｯﾄ
  6
CONTINUOUS
 62
     6
100
AcDbLine
 10
3587.199999999999
 20
2219.199999999999
 30
0.0
 11
3632.799999999999
 21
2219.199999999999
 31
0.0
  0
LINE
  5
43A
330
1F
100
AcDbEntity
  8
ｶｳﾝﾀｰ_ｷｬﾋﾞﾈｯﾄ
  6
CONTINUOUS
 62
     6
100
AcDbLine
 10
3587.199999999999
 20
2237.0
 30
0.0
 11
3632.799999999999
 21
2237.0
 31
0.0
  0
LINE
  5
43B
330
1F
100
AcDbEntity
  8
ｶｳﾝﾀｰ_ｷｬﾋﾞﾈｯﾄ
  6
CONTINUOUS
 62
     6
100
AcDbLine
 10
3632.799999999999
 20
2237.0
 30
0.0
 11
3632.799999999999
 21
2219.199999999999
 31
0.0
  0
LINE
  5
43C
330
1F
100
AcDbEntity
  8
ｶｳﾝﾀｰ_ｷｬﾋﾞﾈｯﾄ
  6
CONTINUOUS
 62
     6
100
AcDbLine
 10
3587.199999999999
 20
2237.0
 30
0.0
 11
3587.199999999999
 21
2219.199999999999
 31
0.0
  0
LINE
  5
43D
330
1F
100
AcDbEntity
  8
ｶｳﾝﾀｰ_ｷｬﾋﾞﾈｯﾄ
  6
CONTINUOUS
 62
     6
100
AcDbLine
 10
3590.999999999998
 20
2201.5
 30
0.0
 11
3573.299999999999
 21
2201.5
 31
0.0
  0
LINE
  5
43E
330
1F
100
AcDbEntity
  8
ｶｳﾝﾀｰ_ｷｬﾋﾞﾈｯﾄ
  6
CONTINUOUS
 62
     6
100
AcDbLine
 10
3590.999999999998
 20
2219.199999999999
 30
0.0
 11
3590.999999999998
 21
2201.5
 31
0.0
  0
LINE
  5
43F
330
1F
100
AcDbEntity
  8
ｶｳﾝﾀｰ_ｷｬﾋﾞﾈｯﾄ
  6
CONTINUOUS
 62
     6
100
AcDbLine
 10
3591.999999999998
 20
2163.5
 30
0.0
 11
3594.999999999998
 21
2166.25
 31
0.0
  0
LINE
  5
440
330
1F
100
AcDbEntity
  8
ｶｳﾝﾀｰ_ｷｬﾋﾞﾈｯﾄ
  6
CONTINUOUS
 62
     6
100
AcDbLine
 10
3628.999999999998
 20
2200.5
 30
0.0
 11
3626.249999999998
 21
2197.5
 31
0.0
  0
ARC
  5
441
330
1F
100
AcDbEntity
  8
ｶｳﾝﾀｰ_ｷｬﾋﾞﾈｯﾄ
  6
CONTINUOUS
 62
     6
100
AcDbCircle
 10
3609.999999999998
 20
2182.499999999999
 30
0.0
 40
16.25
100
AcDbArc
 50
270.0
 51
0.0000000000001719
  0
LINE
  5
442
330
1F
100
AcDbEntity
  8
ｶｳﾝﾀｰ_ｷｬﾋﾞﾈｯﾄ
  6
CONTINUOUS
 62
     6
100
AcDbLine
 10
3626.249999999998
 20
2182.499999999999
 30
0.0
 11
3626.249999999998
 21
2197.5
 31
0.0
  0
LINE
  5
443
330
1F
100
AcDbEntity
  8
ｶｳﾝﾀｰ_ｷｬﾋﾞﾈｯﾄ
  6
CONTINUOUS
 62
     6
100
AcDbLine
 10
3609.999999999998
 20
2166.249999999999
 30
0.0
 11
3594.999999999998
 21
2166.249999999999
 31
0.0
  0
LINE
  5
444
330
1F
100
AcDbEntity
  8
ｶｳﾝﾀｰ_ｷｬﾋﾞﾈｯﾄ
  6
CONTINUOUS
 62
     6
100
AcDbLine
 10
3591.999999999998
 20
2163.5
 30
0.0
 11
3573.299999999999
 21
2163.5
 31
0.0
  0
LINE
  5
445
330
1F
100
AcDbEntity
  8
ｶｳﾝﾀｰ_ｷｬﾋﾞﾈｯﾄ
  6
CONTINUOUS
 62
     6
100
AcDbLine
 10
3628.999999999998
 20
2219.199999999999
 30
0.0
 11
3628.999999999998
 21
2200.5
 31
0.0
  0
ARC
  5
446
330
1F
100
AcDbEntity
  8
ｶｳﾝﾀｰ_ｷｬﾋﾞﾈｯﾄ
  6
CONTINUOUS
 62
     6
100
AcDbCircle
 10
3575.999999999998
 20
2216.5
 30
0.0
 40
15.00000000000001
100
AcDbArc
 50
270.0
 51
0.0000000000001719
  0
LINE
  5
447
330
1F
100
AcDbEntity
  8
ｶｳﾝﾀｰ_ｷｬﾋﾞﾈｯﾄ
  6
EXLTYPE4
 62
     6
100
AcDbLine
 10
3659.999999999999
 20
2504.5
 30
0.0
 11
3659.999999999999
 21
1686.5
 31
0.0
  0
LINE
  5
448
330
1F
100
AcDbEntity
  8
ｶｳﾝﾀｰ_ｷｬﾋﾞﾈｯﾄ
  6
EXLTYPE3
 62
     6
100
AcDbLine
 10
3460.0
 20
2237.0
 30
0.0
 11
3460.0
 21
2128.0
 31
0.0
  0
LINE
  5
449
330
1F
100
AcDbEntity
  8
ｶｳﾝﾀｰ_ｷｬﾋﾞﾈｯﾄ
  6
EXLTYPE4
 62
     6
100
AcDbLine
 10
4248.0
 20
2572.5
 30
0.0
 11
4248.0
 21
1686.5
 31
0.0
  0
LINE
  5
44A
330
1F
100
AcDbEntity
  8
ｶｳﾝﾀｰ_ｷｬﾋﾞﾈｯﾄ
  6
EXLTYPE4
 62
     6
100
AcDbLine
 10
4082.999999999955
 20
2238.5
 30
0.0
 11
4082.999999999955
 21
2126.500000000005
 31
0.0
  0
LINE
  5
44B
330
1F
100
AcDbEntity
  8
ｶｳﾝﾀｰ_ｷｬﾋﾞﾈｯﾄ
  6
EXLTYPE4
 62
     6
100
AcDbLine
 10
4082.999999999955
 20
2126.500000000005
 30
0.0
 11
4122.999999999953
 21
2126.500000000005
 31
0.0
  0
LINE
  5
44C
330
1F
100
AcDbEntity
  8
ｶｳﾝﾀｰ_ｷｬﾋﾞﾈｯﾄ
  6
EXLTYPE4
 62
     6
100
AcDbLine
 10
4082.999999999955
 20
2238.5
 30
0.0
 11
4122.999999999953
 21
2238.5
 31
0.0
  0
LINE
  5
44D
330
1F
100
AcDbEntity
  8
ｶｳﾝﾀｰ_ｷｬﾋﾞﾈｯﾄ
  6
EXLTYPE4
 62
     6
100
AcDbLine
 10
4122.999999999958
 20
2238.5
 30
0.0
 11
4122.999999999958
 21
2126.500000000005
 31
0.0
  0
LINE
  5
44E
330
1F
100
AcDbEntity
  8
ｶｳﾝﾀｰ_ｷｬﾋﾞﾈｯﾄ
  6
EXLTYPE4
 62
     6
100
AcDbLine
 10
4272.999999999953
 20
2138.0
 30
0.0
 11
4123.0
 21
2138.0
 31
0.0
  0
LINE
  5
44F
330
1F
100
AcDbEntity
  8
ｶｳﾝﾀｰ_ｷｬﾋﾞﾈｯﾄ
  6
EXLTYPE4
 62
     6
100
AcDbLine
 10
4272.999999999953
 20
2227.000000000009
 30
0.0
 11
4122.999999999958
 21
2227.000000000061
 31
0.0
  0
LINE
  5
450
330
1F
100
AcDbEntity
  8
ｶｳﾝﾀｰ_ｷｬﾋﾞﾈｯﾄ
  6
EXLTYPE3
 62
     6
100
AcDbLine
 10
4063.0
 20
2182.5
 30
0.0
 11
4303.0
 21
2182.5
 31
0.0
  0
LINE
  5
451
330
1F
100
AcDbEntity
  8
ｶｳﾝﾀｰ_ｷｬﾋﾞﾈｯﾄ
  6
EXLTYPE4
 62
     6
100
AcDbLine
 10
4003.5
 20
2572.5
 30
0.0
 11
4248.0
 21
2572.5
 31
0.0
  0
CIRCLE
  5
452
330
1F
100
AcDbEntity
  8
ｶｳﾝﾀｰ_ｷｬﾋﾞﾈｯﾄ
  6
EXLTYPE4
 62
     6
100
AcDbCircle
 10
3460.0
 20
2182.5
 30
0.0
 40
44.5
  0
DIMENSION
  5
454
330
1F
100
AcDbEntity
  8
寸法
  6
CONTINUOUS
 62
     3
100
AcDbDimension
  2
*D15
 10
3426.45
 20
891.5
 30
0.0
 11
3391.200000089407
 21
739.4999999999983
 31
0.0
 70
   160
  1
%%c32
  3
ISO-25
100
AcDbAlignedDimension
 13
3486.0
 23
859.5
 33
0.0
 14
3486.0
 24
891.5
 34
0.0
 50
90.0
100
AcDbRotatedDimension
1001
ACAD
1000
DSTYLE
1002
{
1070
   270
1070
     2
1070
     6
1000
EX_NORM
1070
     7
1000
EX_NORM
1070
    41
1040
44.99999618530273
1070
    42
1040
10.49999982118607
1070
    44
1040
15.0
1070
    73
1070
     0
1070
    74
1070
     0
1070
    75
1070
     0
1070
    76
1070
     0
1070
    77
1070
     1
1070
    78
1070
     8
1070
   140
1040
59.99999618530273
1070
   147
1040
0.0
1070
   173
1070
     1
1070
   176
1070
     3
1070
   177
1070
     3
1070
   178
1070
     2
1070
   271
1070
     1
1070
   277
1070
     2
1070
   279
1070
     2
1070
   280
1070
     1
1070
   287
1070
     5
1070
   340
1005
453
1002
}
  0
DIMENSION
  5
464
330
1F
100
AcDbEntity
  8
寸法
  6
CONTINUOUS
 62
     3
100
AcDbDimension
  2
*D16
 10
3336.45
 20
875.5
 30
0.0
 11
3301.200000089407
 21
723.9999999999995
 31
0.0
 70
   160
  3
ISO-25
100
AcDbAlignedDimension
 13
3660.0
 23
572.5
 33
0.0
 14
3486.0
 24
875.5
 34
0.0
 50
90.0
100
AcDbRotatedDimension
1001
ACAD
1000
DSTYLE
1002
{
1070
   270
1070
     2
1070
     6
1000
EX_NORM
1070
     7
1000
EX_NORM
1070
    41
1040
44.99999618530273
1070
    42
1040
10.49999982118607
1070
    44
1040
15.0
1070
    73
1070
     0
1070
    74
1070
     0
1070
    75
1070
     1
1070
    76
1070
     0
1070
    77
1070
     1
1070
    78
1070
     8
1070
   140
1040
59.99999618530273
1070
   147
1040
0.0
1070
   173
1070
     1
1070
   176
1070
     3
1070
   177
1070
     3
1070
   178
1070
     2
1070
   271
1070
     1
1070
   277
1070
     2
1070
   279
1070
     2
1070
   280
1070
     0
1070
   287
1070
     5
1070
   340
1005
453
1002
}
  0
DIMENSION
  5
470
330
1F
100
AcDbEntity
  8
寸法
  6
CONTINUOUS
 62
     3
100
AcDbDimension
  2
*D17
 10
3889.5
 20
1067.5
 30
0.0
 11
3854.250000089407
 21
819.9999999999997
 31
0.0
 70
   160
  3
ISO-25
100
AcDbAlignedDimension
 13
3660.0
 23
572.5
 33
0.0
 14
3660.0
 24
1067.5
 34
0.0
 50
90.0
100
AcDbRotatedDimension
1001
ACAD
1000
DSTYLE
1002
{
1070
   270
1070
     2
1070
     6
1000
EX_NORM
1070
     7
1000
EX_NORM
1070
    41
1040
44.99999618530273
1070
    42
1040
10.49999982118607
1070
    44
1040
15.0
1070
    73
1070
     0
1070
    74
1070
     0
1070
    75
1070
     0
1070
    76
1070
     0
1070
    77
1070
     1
1070
    78
1070
     8
1070
   140
1040
59.99999618530273
1070
   147
1040
0.0
1070
   173
1070
     1
1070
   176
1070
     3
1070
   177
1070
     3
1070
   178
1070
     2
1070
   271
1070
     1
1070
   277
1070
     2
1070
   279
1070
     2
1070
   280
1070
     0
1070
   287
1070
     5
1070
   340
1005
453
1002
}
  0
DIMENSION
  5
47D
330
1F
100
AcDbEntity
  8
寸法
  6
CONTINUOUS
 62
     3
100
AcDbDimension
  2
*D18
 10
3799.5
 20
957.5
 30
0.0
 11
3764.250000089407
 21
837.499999999999
 31
0.0
 70
   160
  3
ISO-25
100
AcDbAlignedDimension
 13
3660.0
 23
1067.5
 33
0.0
 14
3660.0
 24
957.5
 34
0.0
 50
90.0
100
AcDbRotatedDimension
1001
ACAD
1000
DSTYLE
1002
{
1070
   270
1070
     2
1070
     6
1000
EX_NORM
1070
     7
1000
EX_NORM
1070
    41
1040
44.99999618530273
1070
    42
1040
10.49999982118607
1070
    44
1040
15.0
1070
    73
1070
     0
1070
    74
1070
     0
1070
    75
1070
     0
1070
    76
1070
     0
1070
    77
1070
     1
1070
    78
1070
     8
1070
   140
1040
59.99999618530273
1070
   147
1040
0.0
1070
   173
1070
     1
1070
   176
1070
     3
1070
   177
1070
     3
1070
   178
1070
     2
1070
   271
1070
     1
1070
   277
1070
     2
1070
   279
1070
     2
1070
   280
1070
     2
1070
   287
1070
     5
1070
   340
1005
453
1002
}
  0
DIMENSION
  5
48A
330
1F
100
AcDbEntity
  8
寸法
  6
CONTINUOUS
 62
     3
100
AcDbDimension
  2
*D19
 10
2310.0
 20
354.0
 30
0.0
 11
2145.0
 21
389.249999910593
 31
0.0
 70
   160
  3
ISO-25
100
AcDbAlignedDimension
 13
1980.0
 23
572.5
 33
0.0
 14
2310.0
 24
572.5
 34
0.0
100
AcDbRotatedDimension
1001
ACAD
1000
DSTYLE
1002
{
1070
   270
1070
     2
1070
     6
1000
EX_NORM
1070
     7
1000
EX_NORM
1070
    41
1040
44.99999618530273
1070
    42
1040
10.49999982118607
1070
    44
1040
15.0
1070
    73
1070
     0
1070
    74
1070
     0
1070
    75
1070
     0
1070
    76
1070
     0
1070
    77
1070
     1
1070
    78
1070
     8
1070
   140
1040
59.99999618530273
1070
   147
1040
0.0
1070
   173
1070
     1
1070
   176
1070
     3
1070
   177
1070
     3
1070
   178
1070
     2
1070
   271
1070
     1
1070
   277
1070
     2
1070
   279
1070
     2
1070
   280
1070
     0
1070
   287
1070
     5
1070
   340
1005
453
1002
}
  0
DIMENSION
  5
497
330
1F
100
AcDbEntity
  8
寸法
  6
CONTINUOUS
 62
     3
100
AcDbDimension
  2
*D20
 10
3660.0
 20
354.0
 30
0.0
 11
2985.0
 21
389.249999910593
 31
0.0
 70
   160
  1
最長<>
  3
ISO-25
100
AcDbAlignedDimension
 13
2310.0
 23
572.5
 33
0.0
 14
3660.0
 24
572.5
 34
0.0
100
AcDbRotatedDimension
1001
ACAD
1000
DSTYLE
1002
{
1070
   270
1070
     2
1070
     6
1000
EX_NORM
1070
     7
1000
EX_NORM
1070
    41
1040
44.99999618530273
1070
    42
1040
10.49999982118607
1070
    44
1040
15.0
1070
    73
1070
     0
1070
    74
1070
     0
1070
    75
1070
     0
1070
    76
1070
     0
1070
    77
1070
     1
1070
    78
1070
     8
1070
   140
1040
59.99999618530273
1070
   147
1040
0.0
1070
   173
1070
     1
1070
   176
1070
     3
1070
   177
1070
     3
1070
   178
1070
     2
1070
   271
1070
     1
1070
   277
1070
     2
1070
   279
1070
     2
1070
   280
1070
     0
1070
   287
1070
     5
1070
   340
1005
453
1002
}
  0
DIMENSION
  5
4A4
330
1F
100
AcDbEntity
  8
寸法
  6
CONTINUOUS
 62
     3
100
AcDbDimension
  2
*D21
 10
1897.5
 20
1392.5
 30
0.0
 11
1862.250000089407
 21
982.4999999999998
 31
0.0
 70
   160
  3
ISO-25
100
AcDbAlignedDimension
 13
1980.0
 23
572.5
 33
0.0
 14
1971.5
 24
1392.5
 34
0.0
 50
90.0
100
AcDbRotatedDimension
1001
ACAD
1000
DSTYLE
1002
{
1070
   270
1070
     2
1070
     6
1000
EX_NORM
1070
     7
1000
EX_NORM
1070
    41
1040
44.99999618530273
1070
    42
1040
10.49999982118607
1070
    44
1040
15.0
1070
    73
1070
     0
1070
    74
1070
     0
1070
    75
1070
     1
1070
    76
1070
     0
1070
    77
1070
     1
1070
    78
1070
     8
1070
   140
1040
59.99999618530273
1070
   147
1040
0.0
1070
   173
1070
     1
1070
   176
1070
     3
1070
   177
1070
     3
1070
   178
1070
     2
1070
   271
1070
     1
1070
   277
1070
     2
1070
   279
1070
     2
1070
   280
1070
     0
1070
   287
1070
     5
1070
   340
1005
453
1002
}
  0
DIMENSION
  5
4B0
330
1F
100
AcDbEntity
  8
寸法
  6
CONTINUOUS
 62
     3
100
AcDbDimension
  2
*D22
 10
1807.5
 20
1452.5
 30
0.0
 11
1772.250000089407
 21
1012.5
 31
0.0
 70
   160
  3
ISO-25
100
AcDbAlignedDimension
 13
1980.0
 23
572.5
 33
0.0
 14
1972.9072813377
 24
1452.5
 34
0.0
 50
90.0
100
AcDbRotatedDimension
1001
ACAD
1000
DSTYLE
1002
{
1070
   270
1070
     2
1070
     6
1000
EX_NORM
1070
     7
1000
EX_NORM
1070
    41
1040
44.99999618530273
1070
    42
1040
10.49999982118584
1070
    44
1040
15.0
1070
    73
1070
     0
1070
    74
1070
     0
1070
    75
1070
     1
1070
    76
1070
     0
1070
    77
1070
     1
1070
    78
1070
     8
1070
   140
1040
59.99999618530273
1070
   147
1040
0.0
1070
   173
1070
     1
1070
   176
1070
     3
1070
   177
1070
     3
1070
   178
1070
     2
1070
   271
1070
     1
1070
   277
1070
     2
1070
   279
1070
     2
1070
   280
1070
     0
1070
   287
1070
     5
1070
   340
1005
453
1002
}
  0
DIMENSION
  5
4BC
330
1F
100
AcDbEntity
  8
寸法
  6
CONTINUOUS
 62
     3
100
AcDbDimension
  2
*D23
 10
1897.500000000002
 20
2377.5
 30
0.0
 11
1862.250000089409
 21
2475.0
 31
0.0
 70
   160
  3
ISO-25
100
AcDbAlignedDimension
 13
1967.5
 23
2572.5
 33
0.0
 14
2145.0
 24
2377.5
 34
0.0
 50
90.0
100
AcDbRotatedDimension
1001
ACAD
1000
DSTYLE
1002
{
1070
   270
1070
     2
1070
     6
1000
EX_NORM
1070
     7
1000
EX_NORM
1070
    41
1040
44.99999618530273
1070
    42
1040
10.49999982118607
1070
    44
1040
15.0
1070
    73
1070
     0
1070
    74
1070
     0
1070
    75
1070
     1
1070
    76
1070
     0
1070
    77
1070
     1
1070
    78
1070
     8
1070
   140
1040
59.99999618530273
1070
   147
1040
0.0
1070
   173
1070
     1
1070
   176
1070
     3
1070
   177
1070
     3
1070
   178
1070
     2
1070
   271
1070
     1
1070
   277
1070
     2
1070
   279
1070
     2
1070
   280
1070
     0
1070
   287
1070
     5
1070
   340
1005
453
1002
}
  0
DIMENSION
  5
4C8
330
1F
100
AcDbEntity
  8
寸法
  6
CONTINUOUS
 62
     3
100
AcDbDimension
  2
*D24
 10
2322.5
 20
2259.5
 30
0.0
 11
2145.0
 21
2294.749999910593
 31
0.0
 70
   160
  3
ISO-25
100
AcDbAlignedDimension
 13
1967.5
 23
2400.6175840868
 33
0.0
 14
2322.5
 24
2400.6175840868
 34
0.0
100
AcDbRotatedDimension
1001
ACAD
1000
DSTYLE
1002
{
1070
   270
1070
     2
1070
     6
1000
EX_NORM
1070
     7
1000
EX_NORM
1070
    41
1040
44.99999618530273
1070
    42
1040
10.49999982118607
1070
    44
1040
15.0
1070
    73
1070
     0
1070
    74
1070
     0
1070
    75
1070
     0
1070
    76
1070
     0
1070
    77
1070
     1
1070
    78
1070
     8
1070
   140
1040
59.99999618530273
1070
   147
1040
0.0
1070
   173
1070
     1
1070
   176
1070
     3
1070
   177
1070
     3
1070
   178
1070
     2
1070
   271
1070
     1
1070
   277
1070
     2
1070
   279
1070
     2
1070
   280
1070
     0
1070
   287
1070
     5
1070
   340
1005
453
1002
}
  0
DIMENSION
  5
4D5
330
1F
100
AcDbEntity
  8
寸法
  6
CONTINUOUS
 62
     3
100
AcDbDimension
  2
*D25
 10
3766.5
 20
2572.5
 30
0.0
 11
3731.250000089407
 21
2669.999999999999
 31
0.0
 70
   160
  3
ISO-25
100
AcDbAlignedDimension
 13
3660.0
 23
2504.5
 33
0.0
 14
3660.0
 24
2572.5
 34
0.0
 50
90.0
100
AcDbRotatedDimension
1001
ACAD
1000
DSTYLE
1002
{
1070
   270
1070
     2
1070
     6
1000
EX_NORM
1070
     7
1000
EX_NORM
1070
    41
1040
44.99999618530273
1070
    42
1040
10.49999982118607
1070
    44
1040
14.99999999999955
1070
    73
1070
     0
1070
    74
1070
     0
1070
    75
1070
     0
1070
    76
1070
     0
1070
    77
1070
     1
1070
    78
1070
     8
1070
   140
1040
59.99999618530273
1070
   147
1040
0.0
1070
   173
1070
     1
1070
   176
1070
     3
1070
   177
1070
     3
1070
   178
1070
     2
1070
   271
1070
     1
1070
   277
1070
     2
1070
   279
1070
     2
1070
   280
1070
     2
1070
   287
1070
     5
1070
   340
1005
453
1002
}
  0
DIMENSION
  5
4E4
330
1F
100
AcDbEntity
  8
寸法
  6
CONTINUOUS
 62
     3
100
AcDbDimension
  2
*D26
 10
3856.499999999999
 20
2182.5
 30
0.0
 11
3821.250000089406
 21
2377.5
 31
0.0
 70
   160
  1
375～530
  3
ISO-25
100
AcDbAlignedDimension
 13
3660.0
 23
2572.5
 33
0.0
 14
3610.0
 24
2182.5
 34
0.0
 50
90.0
100
AcDbRotatedDimension
1001
ACAD
1000
DSTYLE
1002
{
1070
   270
1070
     2
1070
     6
1000
EX_NORM
1070
     7
1000
EX_NORM
1070
    41
1040
44.99999618530273
1070
    42
1040
10.49999982118607
1070
    44
1040
14.99999999999818
1070
    73
1070
     0
1070
    74
1070
     0
1070
    75
1070
     0
1070
    76
1070
     0
1070
    77
1070
     1
1070
    78
1070
     8
1070
   140
1040
59.99999618530273
1070
   147
1040
0.0
1070
   173
1070
     1
1070
   176
1070
     3
1070
   177
1070
     3
1070
   178
1070
     2
1070
   271
1070
     1
1070
   277
1070
     2
1070
   279
1070
     2
1070
   280
1070
     0
1070
   287
1070
     5
1070
   340
1005
453
1002
}
  0
DIMENSION
  5
4F1
330
1F
100
AcDbEntity
  8
寸法
  6
CONTINUOUS
 62
     3
100
AcDbDimension
  2
*D27
 10
3660.0
 20
2081.0
 30
0.0
 11
3757.5
 21
2116.249999910593
 31
0.0
 70
   160
  3
ISO-25
100
AcDbAlignedDimension
 13
3610.0
 23
2182.5
 33
0.0
 14
3660.0
 24
2182.5
 34
0.0
100
AcDbRotatedDimension
1001
ACAD
1000
DSTYLE
1002
{
1070
   270
1070
     2
1070
     6
1000
EX_NORM
1070
     7
1000
EX_NORM
1070
    41
1040
44.99999618530273
1070
    42
1040
10.49999982118607
1070
    44
1040
15.0
1070
    73
1070
     0
1070
    74
1070
     0
1070
    75
1070
     0
1070
    76
1070
     1
1070
    77
1070
     1
1070
    78
1070
     8
1070
   140
1040
59.99999618530273
1070
   147
1040
0.0
1070
   173
1070
     1
1070
   176
1070
     3
1070
   177
1070
     3
1070
   178
1070
     2
1070
   271
1070
     1
1070
   277
1070
     2
1070
   279
1070
     2
1070
   280
1070
     2
1070
   287
1070
     5
1070
   340
1005
453
1002
}
  0
DIMENSION
  5
4FF
330
1F
100
AcDbEntity
  8
寸法
  6
CONTINUOUS
 62
     3
100
AcDbDimension
  2
*D28
 10
826.5
 20
1047.5
 30
0.0
 11
791.250000089407
 21
809.9999999999997
 31
0.0
 70
   160
  1
<>(カバー壁固定)
  3
ISO-25
100
AcDbAlignedDimension
 13
1020.0
 23
572.5
 33
0.0
 14
986.49999999992
 24
1047.5
 34
0.0
 50
90.0
100
AcDbRotatedDimension
1001
ACAD
1000
DSTYLE
1002
{
1070
   270
1070
     2
1070
     6
1000
EX_NORM
1070
     7
1000
EX_NORM
1070
    41
1040
44.99999618530273
1070
    42
1040
10.49999982118607
1070
    44
1040
15.0
1070
    73
1070
     0
1070
    74
1070
     0
1070
    75
1070
     0
1070
    76
1070
     0
1070
    77
1070
     1
1070
    78
1070
     8
1070
   140
1040
59.99999618530273
1070
   147
1040
0.0
1070
   173
1070
     1
1070
   176
1070
     3
1070
   177
1070
     3
1070
   178
1070
     2
1070
   271
1070
     1
1070
   277
1070
     2
1070
   279
1070
     2
1070
   280
1070
     0
1070
   287
1070
     5
1070
   340
1005
453
1002
}
  0
DIMENSION
  5
50C
330
1F
100
AcDbEntity
  8
寸法
  6
CONTINUOUS
 62
     3
100
AcDbDimension
  2
*D29
 10
916.5
 20
977.5000000000002
 30
0.0
 11
881.2500000894074
 21
880.0
 31
0.0
 70
   160
  3
ISO-25
100
AcDbAlignedDimension
 13
986.5000000000799
 23
1047.5
 33
0.0
 14
986.5000000000799
 24
977.5000000000001
 34
0.0
 50
90.0
100
AcDbRotatedDimension
1001
ACAD
1000
DSTYLE
1002
{
1070
   270
1070
     2
1070
     6
1000
EX_NORM
1070
     7
1000
EX_NORM
1070
    41
1040
44.99999618530273
1070
    42
1040
10.49999982118607
1070
    44
1040
15.0
1070
    73
1070
     0
1070
    74
1070
     0
1070
    75
1070
     0
1070
    76
1070
     0
1070
    77
1070
     1
1070
    78
1070
     8
1070
   140
1040
59.99999618530273
1070
   147
1040
0.0
1070
   173
1070
     1
1070
   176
1070
     3
1070
   177
1070
     3
1070
   178
1070
     2
1070
   271
1070
     1
1070
   277
1070
     2
1070
   279
1070
     2
1070
   280
1070
     2
1070
   287
1070
     5
1070
   340
1005
453
1002
}
  0
DIMENSION
  5
51B
330
1F
100
AcDbEntity
  8
寸法
  6
CONTINUOUS
 62
     3
100
AcDbDimension
  2
*D30
 10
736.5
 20
1177.5
 30
0.0
 11
701.2500000894071
 21
874.9999999999998
 31
0.0
 70
   160
  1
<>(キャビネット壁固定)
  3
ISO-25
100
AcDbAlignedDimension
 13
1020.0
 23
572.5
 33
0.0
 14
986.50000000008
 24
1177.5
 34
0.0
 50
90.0
100
AcDbRotatedDimension
1001
ACAD
1000
DSTYLE
1002
{
1070
   270
1070
     2
1070
     6
1000
EX_NORM
1070
     7
1000
EX_NORM
1070
    41
1040
44.99999618530273
1070
    42
1040
10.49999982118607
1070
    44
1040
15.0
1070
    73
1070
     0
1070
    74
1070
     0
1070
    75
1070
     0
1070
    76
1070
     0
1070
    77
1070
     1
1070
    78
1070
     8
1070
   140
1040
59.99999618530273
1070
   147
1040
0.0
1070
   173
1070
     1
1070
   176
1070
     3
1070
   177
1070
     3
1070
   178
1070
     2
1070
   271
1070
     1
1070
   277
1070
     2
1070
   279
1070
     2
1070
   280
1070
     0
1070
   287
1070
     5
1070
   340
1005
453
1002
}
  0
DIMENSION
  5
528
330
1F
100
AcDbEntity
  8
寸法
  6
CONTINUOUS
 62
     3
100
AcDbDimension
  2
*D31
 10
646.5
 20
1427.5
 30
0.0
 11
611.2500000894071
 21
1000.0
 31
0.0
 70
   160
  1
<>（手洗器壁固定）
  3
ISO-25
100
AcDbAlignedDimension
 13
1020.0
 23
572.5
 33
0.0
 14
986.50000000008
 24
1427.5
 34
0.0
 50
90.0
100
AcDbRotatedDimension
1001
ACAD
1000
DSTYLE
1002
{
1070
   270
1070
     2
1070
     6
1000
EX_NORM
1070
     7
1000
EX_NORM
1070
    41
1040
44.99999618530273
1070
    42
1040
10.49999982118607
1070
    44
1040
15.0
1070
    73
1070
     0
1070
    74
1070
     0
1070
    75
1070
     0
1070
    76
1070
     0
1070
    77
1070
     1
1070
    78
1070
     8
1070
   140
1040
59.99999618530273
1070
   147
1040
0.0
1070
   173
1070
     1
1070
   176
1070
     3
1070
   177
1070
     3
1070
   178
1070
     2
1070
   271
1070
     1
1070
   277
1070
     2
1070
   279
1070
     2
1070
   280
1070
     0
1070
   287
1070
     5
1070
   340
1005
453
1002
}
  0
DIMENSION
  5
535
330
1F
100
AcDbEntity
  8
寸法
  6
CONTINUOUS
 62
     3
100
AcDbDimension
  2
*D32
 10
1174.0
 20
354.0
 30
0.0
 11
1339.0
 21
389.249999910593
 31
0.0
 70
   160
  1
（154）
  3
ISO-25
100
AcDbAlignedDimension
 13
1020.0
 23
572.5
 33
0.0
 14
1174.0
 24
692.5
 34
0.0
100
AcDbRotatedDimension
1001
ACAD
1000
DSTYLE
1002
{
1070
   270
1070
     2
1070
     6
1000
EX_NORM
1070
     7
1000
EX_NORM
1070
    41
1040
44.99999618530273
1070
    42
1040
10.49999982118607
1070
    44
1040
15.0
1070
    73
1070
     0
1070
    74
1070
     0
1070
    75
1070
     0
1070
    76
1070
     0
1070
    77
1070
     1
1070
    78
1070
     8
1070
   140
1040
59.99999618530273
1070
   147
1040
0.0
1070
   173
1070
     1
1070
   176
1070
     3
1070
   177
1070
     3
1070
   178
1070
     2
1070
   271
1070
     1
1070
   277
1070
     2
1070
   279
1070
     2
1070
   280
1070
     2
1070
   287
1070
     5
1070
   340
1005
453
1002
}
  0
TEXT
  5
542
330
1F
100
AcDbEntity
  8
寸法
  6
CONTINUOUS
 62
     2
100
AcDbText
 10
3280.500000536442
 20
480.7499999105931
 30
0.0
 40
59.99999618530273
  1
Ｇ１/２
 41
0.8342465643686785
  7
EXCADSTD
 72
     5
 11
3454.499987185001
 21
480.7499999105931
 31
0.0
100
AcDbText
  0
LEADER
  5
543
330
1F
100
AcDbEntity
  8
寸法
  6
CONTINUOUS
 62
     3
100
AcDbLeader
  3
ISO-25
 76
     3
 10
3564.0610618829
 20
698.7500000002001
 30
0.0
 10
3454.5
 20
475.5
 30
0.0
 10
3283.5
 20
475.5
 30
0.0
1001
ACAD
1000
DSTYLE
1002
{
1070
     5
1000
EX_NORM
1070
    41
1040
45.0
1070
   341
1005
4E
1002
}
  0
TEXT
  5
544
330
1F
100
AcDbEntity
  8
寸法
  6
CONTINUOUS
 62
     2
100
AcDbText
 10
3307.500000536442
 20
393.749999910593
 30
0.0
 40
59.99999618530273
  1
Ｇ１/２
 41
0.8342465643686785
  7
EXCADSTD
 72
     5
 11
3481.499987185001
 21
393.749999910593
 31
0.0
100
AcDbText
  0
LEADER
  5
545
330
1F
100
AcDbEntity
  8
寸法
  6
CONTINUOUS
 62
     3
100
AcDbLeader
  3
ISO-25
 76
     3
 10
3592.0610618828
 20
624.25000000003
 30
0.0
 10
3481.5
 20
388.5
 30
0.0
 10
3306.0
 20
388.5
 30
0.0
1001
ACAD
1000
DSTYLE
1002
{
1070
     5
1000
EX_NORM
1070
    41
1040
45.0
1070
   341
1005
4E
1002
}
  0
TEXT
  5
546
330
1F
100
AcDbEntity
  8
寸法
  6
CONTINUOUS
 62
     2
100
AcDbText
 10
3699.9
 20
632.5499999105932
 30
0.0
 40
59.99999618530273
  1
Ｇ１/２
 41
0.8342465643686785
  7
EXCADSTD
 72
     5
 11
3873.899986648559
 21
632.5499999105932
 31
0.0
100
AcDbText
  0
LEADER
  5
547
330
1F
100
AcDbEntity
  8
寸法
  6
CONTINUOUS
 62
     3
100
AcDbLeader
  3
ISO-25
 76
     3
 10
3630.5231934696
 20
697.50000000002
 30
0.0
 10
3699.9
 20
627.3000000000002
 30
0.0
 10
3857.25
 20
627.3000000000002
 30
0.0
1001
ACAD
1000
DSTYLE
1002
{
1070
     5
1000
EX_NORM
1070
    41
1040
45.0
1070
   341
1005
4E
1002
}
  0
DIMENSION
  5
548
330
1F
100
AcDbEntity
  8
寸法
  6
CONTINUOUS
 62
     3
100
AcDbDimension
  2
*D33
 10
3660.0
 20
2693.0
 30
0.0
 11
2813.75
 21
2728.249999910593
 31
0.0
 70
   160
  1
最長1690
  3
ISO-25
100
AcDbAlignedDimension
 13
1967.5
 23
2572.5
 33
0.0
 14
3660.0
 24
2572.5
 34
0.0
100
AcDbRotatedDimension
1001
ACAD
1000
DSTYLE
1002
{
1070
   270
1070
     2
1070
     6
1000
EX_NORM
1070
     7
1000
EX_NORM
1070
    41
1040
44.99999618530273
1070
    42
1040
10.49999982118607
1070
    44
1040
15.0
1070
    73
1070
     0
1070
    74
1070
     0
1070
    75
1070
     0
1070
    76
1070
     0
1070
    77
1070
     1
1070
    78
1070
     8
1070
   140
1040
59.99999618530273
1070
   147
1040
0.0
1070
   173
1070
     1
1070
   176
1070
     3
1070
   177
1070
     3
1070
   178
1070
     2
1070
   271
1070
     1
1070
   277
1070
     2
1070
   279
1070
     2
1070
   280
1070
     0
1070
   287
1070
     5
1070
   340
1005
453
1002
}
  0
DIMENSION
  5
555
330
1F
100
AcDbEntity
  8
寸法
  6
CONTINUOUS
 62
     3
100
AcDbDimension
  2
*D34
 10
3660.0
 20
1781.0
 30
0.0
 11
3332.499999999985
 21
1816.249999910623
 31
0.0
 70
   160
  1
（85～190）
  3
ISO-25
100
AcDbAlignedDimension
 13
3565.0
 23
1999.5
 33
0.0
 14
3660.0
 24
1985.0
 34
0.0
100
AcDbRotatedDimension
1001
ACAD
1000
DSTYLE
1002
{
1070
   270
1070
     2
1070
     6
1000
EX_NORM
1070
     7
1000
EX_NORM
1070
    41
1040
44.99999618530273
1070
    42
1040
10.49999982118607
1070
    44
1040
15.0
1070
    73
1070
     0
1070
    74
1070
     0
1070
    75
1070
     0
1070
    76
1070
     1
1070
    77
1070
     1
1070
    78
1070
     8
1070
   140
1040
59.99999618530273
1070
   147
1040
0.0
1070
   173
1070
     1
1070
   176
1070
     3
1070
   177
1070
     3
1070
   178
1070
     2
1070
   271
1070
     1
1070
   277
1070
     2
1070
   279
1070
     2
1070
   280
1070
     1
1070
   287
1070
     5
1070
   340
1005
453
1002
}
  0
DIMENSION
  5
561
330
1F
100
AcDbEntity
  8
寸法
  6
CONTINUOUS
 62
     3
100
AcDbDimension
  2
*D35
 10
3565.0
 20
1691.0
 30
0.0
 11
3250.00000000005
 21
1726.249999910593
 31
0.0
 70
   160
  1
（630）
  3
ISO-25
100
AcDbAlignedDimension
 13
2935.0000000001
 23
2182.5
 33
0.0
 14
3565.0
 24
1999.5
 34
0.0
100
AcDbRotatedDimension
1001
ACAD
1000
DSTYLE
1002
{
1070
   270
1070
     2
1070
     6
1000
EX_NORM
1070
     7
1000
EX_NORM
1070
    41
1040
44.99999618530273
1070
    42
1040
10.49999982118607
1070
    44
1040
15.0
1070
    73
1070
     0
1070
    74
1070
     0
1070
    75
1070
     0
1070
    76
1070
     0
1070
    77
1070
     1
1070
    78
1070
     8
1070
   140
1040
59.99999618530273
1070
   147
1040
0.0
1070
   173
1070
     1
1070
   176
1070
     3
1070
   177
1070
     3
1070
   178
1070
     2
1070
   271
1070
     1
1070
   277
1070
     2
1070
   279
1070
     2
1070
   280
1070
     0
1070
   287
1070
     5
1070
   340
1005
453
1002
}
  0
TEXT
  5
56E
330
1F
100
AcDbEntity
  8
寸法
  6
CONTINUOUS
 62
     2
100
AcDbText
 10
2431.5
 20
1236.749999910593
 30
0.0
 40
59.99999618530273
  1
キャビネット
 41
0.9999999872843416
  7
EXCADSTD
 72
     5
 11
2731.499977111816
 21
1236.749999910593
 31
0.0
100
AcDbText
  0
LEADER
  5
56F
330
1F
100
AcDbEntity
  8
寸法
  6
CONTINUOUS
 62
     3
100
AcDbLeader
  3
ISO-25
 76
     3
 10
2308.0
 20
1138.5
 30
0.0
 10
2431.5
 20
1231.5
 30
0.0
 10
2724.0
 20
1231.5
 30
0.0
1001
ACAD
1000
DSTYLE
1002
{
1070
     5
1000
EX_NORM
1070
    41
1040
45.0
1070
   341
1005
4E
1002
}
  0
TEXT
  5
570
330
1F
100
AcDbEntity
  8
寸法
  6
CONTINUOUS
 62
     2
100
AcDbText
 10
2413.5
 20
1500.749999910593
 30
0.0
 40
59.99999618530273
  1
手洗器
 41
1.070588224822399
  7
EXCADSTD
 72
     5
 11
2569.499988555908
 21
1500.749999910593
 31
0.0
100
AcDbText
  0
LEADER
  5
571
330
1F
100
AcDbEntity
  8
寸法
  6
CONTINUOUS
 62
     3
100
AcDbLeader
  3
ISO-25
 76
     3
 10
2321.8979357976
 20
1414.2161498483
 30
0.0
 10
2413.5
 20
1495.5
 30
0.0
 10
2571.0
 20
1495.5
 30
0.0
1001
ACAD
1000
DSTYLE
1002
{
1070
     5
1000
EX_NORM
1070
    41
1040
45.0
1070
   341
1005
4E
1002
}
  0
TEXT
  5
572
330
1F
100
AcDbEntity
  8
寸法
  6
CONTINUOUS
 62
     2
100
AcDbText
 10
2008.500000357628
 20
1571.249999910593
 30
0.0
 40
59.99999618530273
  1
立水栓
 41
1.070588224822399
  7
EXCADSTD
 72
     5
 11
2164.499988913536
 21
1571.249999910593
 31
0.0
100
AcDbText
  0
POLYLINE
  5
573
330
1F
100
AcDbEntity
  8
寸法
  6
CONTINUOUS
 62
     3
100
AcDb2dPolyline
 66
     1
 10
0.0
 20
0.0
 30
0.0
 70
   128
  0
VERTEX
  5
574
330
573
100
AcDbEntity
  8
寸法
  6
CONTINUOUS
 62
     3
100
AcDbVertex
100
AcDb2dVertex
 10
2203.0927072907
 20
1487.4694977704
 30
0.0
  0
VERTEX
  5
575
330
573
100
AcDbEntity
  8
寸法
  6
CONTINUOUS
 62
     3
100
AcDbVertex
100
AcDb2dVertex
 10
2164.5
 20
1566.0
 30
0.0
  0
VERTEX
  5
576
330
573
100
AcDbEntity
  8
寸法
  6
CONTINUOUS
 62
     3
100
AcDbVertex
100
AcDb2dVertex
 10
2002.5
 20
1566.0
 30
0.0
  0
SEQEND
  5
577
330
573
100
AcDbEntity
  8
寸法
  6
CONTINUOUS
 62
     3
  0
LINE
  5
578
330
1F
100
AcDbEntity
  8
寸法
  6
CONTINUOUS
 62
     3
100
AcDbLine
 10
2176.51416764788
 20
1524.548214447964
 30
0.0
 11
2203.0927072907
 21
1487.4694977704
 31
0.0
  0
LINE
  5
579
330
1F
100
AcDbEntity
  8
寸法
  6
CONTINUOUS
 62
     3
100
AcDbLine
 10
2203.0927072907
 20
1487.4694977704
 30
0.0
 11
2189.976375199675
 21
1531.164026403605
 31
0.0
  0
TEXT
  5
57A
330
1F
100
AcDbEntity
  8
寸法
  6
CONTINUOUS
 62
     2
100
AcDbText
 10
3214.042463228306
 20
1158.749999910593
 30
0.0
 40
59.99999618530273
  1
手洗排水管
 41
1.013793091171089
  7
EXCADSTD
 72
     5
 11
3466.042444154819
 21
1158.749999910593
 31
0.0
100
AcDbText
  0
LEADER
  5
57B
330
1F
100
AcDbEntity
  8
寸法
  6
CONTINUOUS
 62
     3
100
AcDbLeader
  3
ISO-25
 76
     3
 10
3535.044067364301
 20
891.5
 30
0.0
 10
3466.04246251305
 20
1153.5
 30
0.0
 10
3209.54246251305
 20
1153.5
 30
0.0
1001
ACAD
1000
DSTYLE
1002
{
1070
     5
1000
EX_NORM
1070
    41
1040
45.0
1070
   341
1005
4E
1002
}
  0
TEXT
  5
57C
330
1F
100
AcDbEntity
  8
寸法
  6
CONTINUOUS
 62
     2
100
AcDbText
 10
3769.5
 20
480.7499999105931
 30
0.0
 40
59.99999618530273
  1
給水分岐
 41
1.034782597085703
  7
EXCADSTD
 72
     5
 11
3973.499984741211
 21
480.7499999105931
 31
0.0
100
AcDbText
  0
LEADER
  5
57D
330
1F
100
AcDbEntity
  8
寸法
  6
CONTINUOUS
 62
     3
100
AcDbLeader
  3
ISO-25
 76
     3
 10
3629.8110618829
 20
663.49999999999
 30
0.0
 10
3769.5
 20
475.5
 30
0.0
 10
3973.5
 20
475.5
 30
0.0
1001
ACAD
1000
DSTYLE
1002
{
1070
     5
1000
EX_NORM
1070
    41
1040
45.0
1070
   341
1005
4E
1002
}
  0
TEXT
  5
57E
330
1F
100
AcDbEntity
  8
寸法
  6
CONTINUOUS
 62
     2
100
AcDbText
 10
2815.317073170751
 20
1158.749999910593
 30
0.0
 40
59.99999618530273
  1
配管カバー
 41
1.013793091171089
  7
EXCADSTD
 72
     5
 11
3067.317054097264
 21
1158.749999910593
 31
0.0
100
AcDbText
  0
LEADER
  5
57F
330
1F
100
AcDbEntity
  8
寸法
  6
CONTINUOUS
 62
     3
100
AcDbLeader
  3
ISO-25
 76
     3
 10
2787.0
 20
1067.5
 30
0.0
 10
2815.317073170751
 20
1153.5
 30
0.0
 10
3067.31707317075
 20
1153.5
 30
0.0
1001
ACAD
1000
DSTYLE
1002
{
1070
     5
1000
EX_NORM
1070
    41
1040
45.0
1070
   341
1005
4E
1002
}
  0
TEXT
  5
580
330
1F
100
AcDbEntity
  8
寸法
  6
CONTINUOUS
 62
     2
100
AcDbText
 10
3703.5
 20
1661.749999910593
 30
0.0
 40
59.99999618530273
  1
配管スペース
 41
0.9999999872843416
  7
EXCADSTD
 72
     5
 11
4003.499977111816
 21
1661.749999910593
 31
0.0
100
AcDbText
  0
LEADER
  5
581
330
1F
100
AcDbEntity
  8
寸法
  6
CONTINUOUS
 62
     3
100
AcDbLeader
  3
ISO-25
 76
     3
 10
3612.5
 20
1781.0
 30
0.0
 10
3703.5
 20
1656.5
 30
0.0
 10
3994.5
 20
1656.5
 30
0.0
1001
ACAD
1000
DSTYLE
1002
{
1070
     5
1000
EX_NORM
1070
    41
1040
45.0
1070
   341
1005
4E
1002
}
  0
DIMENSION
  5
582
330
1F
100
AcDbEntity
  8
寸法
  6
CONTINUOUS
 62
     3
100
AcDbDimension
  2
*D36
 10
3460.0
 20
1871.0
 30
0.0
 11
3340.0
 21
1906.249999910593
 31
0.0
 70
   160
  1
排水心
  3
ISO-25
100
AcDbAlignedDimension
 13
3660.0
 23
2182.5
 33
0.0
 14
3460.0
 24
2128.0
 34
0.0
100
AcDbRotatedDimension
1001
ACAD
1000
DSTYLE
1002
{
1070
   270
1070
     2
1070
     6
1000
EX_NORM
1070
     7
1000
EX_NORM
1070
    41
1040
44.99999618530273
1070
    42
1040
10.49999982118607
1070
    44
1040
15.0
1070
    73
1070
     0
1070
    74
1070
     0
1070
    75
1070
     1
1070
    76
1070
     0
1070
    77
1070
     1
1070
    78
1070
     8
1070
   140
1040
59.99999618530273
1070
   147
1040
0.0
1070
   173
1070
     1
1070
   176
1070
     3
1070
   177
1070
     3
1070
   178
1070
     2
1070
   271
1070
     1
1070
   277
1070
     2
1070
   279
1070
     2
1070
   280
1070
     2
1070
   287
1070
     5
1070
   340
1005
453
1002
}
  0
TEXT
  5
58E
330
1F
100
AcDbEntity
  8
寸法
  6
CONTINUOUS
 62
     2
100
AcDbText
 10
2523.0000016093
 20
279.0000038146973
 30
0.0
 40
59.99999618530273
  1
１０１０（ＡＵ１０２０Ｗを併設の場合）
 41
0.9539822867064343
  7
EXCADSTD
 72
     5
 11
3446.999929130052
 21
279.0000038146973
 31
0.0
100
AcDbText
  0
TEXT
  5
58F
330
1F
100
AcDbEntity
  8
寸法
  6
CONTINUOUS
 62
     2
100
AcDbText
 10
2523.0000016093
 20
219.0000076293945
 30
0.0
 40
59.99999618530273
  1
１１６０（ＡＵ１１７０Ｗを併設の場合）
 41
0.9539822867064343
  7
EXCADSTD
 72
     5
 11
3446.999929130052
 21
219.0000076293945
 31
0.0
100
AcDbText
  0
DIMENSION
  5
590
330
1F
100
AcDbEntity
  8
寸法
  6
CONTINUOUS
 62
     3
100
AcDbDimension
  2
*D37
 10
4248.0
 20
1962.0
 30
0.0
 11
3918.0
 21
1997.249999910593
 31
0.0
 70
   160
  1
排水管出代
  3
ISO-25
100
AcDbAlignedDimension
 13
4083.0
 23
2126.5
 33
0.0
 14
4248.0
 24
2138.0
 34
0.0
100
AcDbRotatedDimension
1001
ACAD
1000
DSTYLE
1002
{
1070
   270
1070
     2
1070
     6
1000
EX_NORM
1070
     7
1000
EX_NORM
1070
    41
1040
44.99999618530273
1070
    42
1040
10.49999982118607
1070
    44
1040
15.0
1070
    73
1070
     0
1070
    74
1070
     0
1070
    75
1070
     0
1070
    76
1070
     1
1070
    77
1070
     1
1070
    78
1070
     8
1070
   140
1040
59.99999618530273
1070
   147
1040
0.0
1070
   173
1070
     1
1070
   176
1070
     3
1070
   177
1070
     3
1070
   178
1070
     2
1070
   271
1070
     1
1070
   277
1070
     2
1070
   279
1070
     2
1070
   280
1070
     1
1070
   287
1070
     5
1070
   340
1005
453
1002
}
  0
TEXT
  5
59C
330
1F
100
AcDbEntity
  8
寸法
  6
CONTINUOUS
 62
     2
100
AcDbText
 10
3761.400000000001
 20
1891.2
 30
0.0
 40
59.99999618530273
  1
（高さ１２０）
 41
0.9390243902439025
  7
EXCADSTD
 72
     5
 11
4091.399979019166
 21
1891.2
 31
0.0
100
AcDbText
  0
ENDSEC
  0
SECTION
  2
OBJECTS
  0
DICTIONARY
  5
C
330
0
100
AcDbDictionary
  3
ACAD_GROUP
350
D
  3
ACAD_LAYOUT
350
1A
  3
ACAD_MATERIAL
350
3B
  3
ACAD_MLEADERSTYLE
350
5BF
  3
ACAD_MLINESTYLE
350
17
  3
ACAD_PLOTSETTINGS
350
19
  3
ACAD_VISUALSTYLE
350
2A
  3
ACDBHEADERROUNDTRIPXREC
350
59D
  3
ACDBVARIABLEDICTIONARY
350
5BD
  0
DICTIONARY
  5
D
102
{ACAD_REACTORS
330
C
102
}
330
C
100
AcDbDictionary
  0
DICTIONARY
  5
1A
102
{ACAD_REACTORS
330
C
102
}
330
C
100
AcDbDictionary
  0
DICTIONARY
  5
3B
102
{ACAD_REACTORS
330
C
102
}
330
C
100
AcDbDictionary
  3
BYBLOCK
350
3D
  3
BYLAYER
350
3C
  3
GLOBAL
350
3E
  0
DICTIONARY
  5
5BF
102
{ACAD_REACTORS
330
C
102
}
330
C
100
AcDbDictionary
  0
DICTIONARY
  5
17
102
{ACAD_REACTORS
330
C
102
}
330
C
100
AcDbDictionary
  3
STANDARD
350
18
  0
DICTIONARY
  5
19
102
{ACAD_REACTORS
330
C
102
}
330
C
100
AcDbDictionary
  0
DICTIONARY
  5
2A
102
{ACAD_REACTORS
330
C
102
}
330
C
100
AcDbDictionary
  3
2DWIREFRAME
350
2F
  3
3D_HIDDEN
350
31
  3
3DWIREFRAME
350
30
  3
BASIC
350
32
  3
BRIGHTEN
350
36
  3
COLORCHANGE
350
3A
  3
CONCEPTUAL
350
34
  3
DIM
350
35
  3
FACEPATTERN
350
39
  3
FLAT
350
2B
  3
FLATWITHEDGES
350
2C
  3
GOURAUD
350
2D
  3
GOURAUDWITHEDGES
350
2E
  3
LINEPATTERN
350
38
  3
REALISTIC
350
33
  3
THICKEN
350
37
  0
DICTIONARY
  5
59D
102
{ACAD_REACTORS
330
C
102
}
330
C
100
AcDbDictionary
  3
CEPSNTYPE
350
5A6
  3
DIMSTYLEDATA
350
5BC
  3
FINGERPRINTGUID
350
5A7
  3
HYPERLINKBASE
350
5A0
  3
INSUNITS
350
5A5
  3
LAYOUTDICT
350
5A2
  3
LWETCUNION
350
5A4
  3
PLOTSETDICT
350
5A3
  3
PSVPSCALE
350
5A9
  3
PUCSBASE
350
5AC
  3
PUCSORGBACK
350
5B2
  3
PUCSORGBOTTOM
350
5AE
  3
PUCSORGFRONT
350
5B1
  3
PUCSORGLEFT
350
5AF
  3
PUCSORGRIGHT
350
5B0
  3
PUCSORGTOP
350
5AD
  3
PUCSORTHOREF
350
5AA
  3
PUCSORTHOVIEW
350
5AB
  3
STYLESHEET
350
5A1
  3
TSTACKALIGN
350
59E
  3
TSTACKSIZE
350
59F
  3
UCSBASE
350
5B5
  3
UCSORGBACK
350
5BB
  3
UCSORGBOTTOM
350
5B7
  3
UCSORGFRONT
350
5BA
  3
UCSORGLEFT
350
5B8
  3
UCSORGRIGHT
350
5B9
  3
UCSORGTOP
350
5B6
  3
UCSORTHOREF
350
5B3
  3
UCSORTHOVIEW
350
5B4
  3
VERSIONGUID
350
5A8
  0
DICTIONARY
  5
5BD
102
{ACAD_REACTORS
330
C
102
}
330
C
100
AcDbDictionary
  3
DIMASSOC
350
5C2
  3
HIDETEXT
350
5C3
  3
PSOLHEIGHT
350
5C1
  3
PSOLWIDTH
350
5C0
  0
MATERIAL
  5
3D
102
{ACAD_REACTORS
330
3B
102
}
102
{ACAD_XDICTIONARY
360
5C6
102
}
330
3B
100
AcDbMaterial
  1
ByBlock
  0
MATERIAL
  5
3C
102
{ACAD_REACTORS
330
3B
102
}
102
{ACAD_XDICTIONARY
360
5C4
102
}
330
3B
100
AcDbMaterial
  1
ByLayer
  0
MATERIAL
  5
3E
102
{ACAD_REACTORS
330
3B
102
}
102
{ACAD_XDICTIONARY
360
5C8
102
}
330
3B
100
AcDbMaterial
  1
Global
  0
MLINESTYLE
  5
18
102
{ACAD_REACTORS
330
17
102
}
330
17
100
AcDbMlineStyle
  2
Standard
 70
     0
  3

 62
   256
 51
90.0
 52
90.0
 71
     2
 49
0.5
 62
   256
  6
BYLAYER
 49
-0.5
 62
   256
  6
BYLAYER
  0
ACAD_PROXY_OBJECT
  5
2F
102
{ACAD_REACTORS
330
2A
102
}
330
2A
100
AcDbProxyObject
 90
      499
 91
      501
 93
      436
310
42CC9915DA5C99599C985B595049028333333333333E3BF0000000000000FB0107901411070040501600405405064090741402480A0340
1001
ACAD
1000
AcDbSavedByObjectVersion
1070
     0
  0
ACAD_PROXY_OBJECT
  5
31
102
{ACAD_REACTORS
330
2A
102
}
330
2A
100
AcDbProxyObject
 90
      499
 91
      501
 93
      500
310
424CD108121A5919195B90640502408333333333333E3BF0000000000000FB01079024090700405020000000000001110200405405064090740C02480A0340
1001
ACAD
1000
AcDbSavedByObjectVersion
1070
     0
  0
ACAD_PROXY_OBJECT
  5
30
102
{ACAD_REACTORS
330
2A
102
}
330
2A
100
AcDbProxyObject
 90
      499
 91
      501
 93
      436
310
42CCD915DA5C99599C985B595059028333333333333E3BF0000000000000FB0107901411070040501600405405064090741402480A0340
1001
ACAD
1000
AcDbSavedByObjectVersion
1070
     0
  0
ACAD_PROXY_OBJECT
  5
32
102
{ACAD_REACTORS
330
2A
102
}
330
2A
100
AcDbProxyObject
 90
      499
 91
      501
 93
      388
310
4150985CDA58D07406404333333333333E3BF0000000000000FB0107A41107004050150841D405064090741402480A0350
1001
ACAD
1000
AcDbSavedByObjectVersion
1070
     0
  0
ACAD_PROXY_OBJECT
  5
36
102
{ACAD_REACTORS
330
2A
102
}
330
2A
100
AcDbProxyObject
 90
      499
 91
      501
 93
      428
310
42109C9A59DA1D195B90C409028333333333333E3BF0000000000000FB010790141107004050150841D405064090741402480A029950
1001
ACAD
1000
AcDbSavedByObjectVersion
1070
     0
  0
ACAD_PROXY_OBJECT
  5
3A
102
{ACAD_REACTORS
330
2A
102
}
330
2A
100
AcDbProxyObject
 90
      499
 91
      501
 93
      452
310
42D0DBDB1BDC90DA185B99D95104090240C333333333333E3BF0000000000000FB0108901411070040501508421405064090741402480A0350
1001
ACAD
1000
AcDbSavedByObjectVersion
1070
     0
  0
ACAD_PROXY_OBJECT
  5
34
102
{ACAD_REACTORS
330
2A
102
}
330
2A
100
AcDbProxyObject
 90
      499
 91
      501
 93
      500
310
4290DBDB98D95C1D1D585B10940D028333333333333E3BF0000000000000FB0107902409070040501000000000000111010841D405064090740C02480A0340
1001
ACAD
1000
AcDbSavedByObjectVersion
1070
     0
  0
ACAD_PROXY_OBJECT
  5
35
102
{ACAD_REACTORS
330
2A
102
}
330
2A
100
AcDbProxyObject
 90
      499
 91
      501
 93
      412
310
40D11A5B50B409028333333333333E3BF0000000000000FB010790141107004050150841D405064090741402480A02677FFFFFD0
1001
ACAD
1000
AcDbSavedByObjectVersion
1070
     0
  0
ACAD_PROXY_OBJECT
  5
39
102
{ACAD_REACTORS
330
2A
102
}
330
2A
100
AcDbProxyObject
 90
      499
 91
      501
 93
      444
310
42D19858D95C185D1D195C9B90F409028333333333333E3BF0000000000000FB010790141107004050150841D405064090741402480A0350
1001
ACAD
1000
AcDbSavedByObjectVersion
1070
     0
  0
ACAD_PROXY_OBJECT
  5
2B
102
{ACAD_REACTORS
330
2A
102
}
330
2A
100
AcDbProxyObject
 90
      499
 91
      501
 93
      388
310
41119B185D240901404333333333333E3BF0000000000000F9010740A41107004050150841D405064090741402480A1B50
1001
ACAD
1000
AcDbSavedByObjectVersion
1070
     0
  0
ACAD_PROXY_OBJECT
  5
2C
102
{ACAD_REACTORS
330
2A
102
}
330
2A
100
AcDbProxyObject
 90
      499
 91
      501
 93
      476
310
43519B185D15DA5D1A115919D95CD0140901404333333333333E3BF0000000000000F9010740901411070040501600405405064090741402480A1B50
1001
ACAD
1000
AcDbSavedByObjectVersion
1070
     0
  0
ACAD_PROXY_OBJECT
  5
2D
102
{ACAD_REACTORS
330
2A
102
}
330
2A
100
AcDbProxyObject
 90
      499
 91
      501
 93
      412
310
41D1DBDD5C985D5910240902404333333333333E3BF0000000000000F9010740A411070040501641D405064090741402480A1B50
1001
ACAD
1000
AcDbSavedByObjectVersion
1070
     0
  0
ACAD_PROXY_OBJECT
  5
2E
102
{ACAD_REACTORS
330
2A
102
}
330
2A
100
AcDbProxyObject
 90
      499
 91
      501
 93
      500
310
4411DBDD5C985D5915DA5D1A115919D95CD0340902404333333333333E3BF0000000000000F9010740901411070040501600405405064090741402480A1B50
1001
ACAD
1000
AcDbSavedByObjectVersion
1070
     0
  0
ACAD_PROXY_OBJECT
  5
38
102
{ACAD_REACTORS
330
2A
102
}
330
2A
100
AcDbProxyObject
 90
      499
 91
      501
 93
      444
310
42D31A5B995C185D1D195C9B90E409028333333333333E3BF0000000000000FB010790141107004050750841D405064090741402483A0350
1001
ACAD
1000
AcDbSavedByObjectVersion
1070
     0
  0
ACAD_PROXY_OBJECT
  5
33
102
{ACAD_REACTORS
330
2A
102
}
330
2A
100
AcDbProxyObject
 90
      499
 91
      501
 93
      420
310
425499585B1A5CDD1A58D08409028333333333333E3BF0000000000000FB01079019070040501508421405064090741402480A1B40
1001
ACAD
1000
AcDbSavedByObjectVersion
1070
     0
  0
ACAD_PROXY_OBJECT
  5
37
102
{ACAD_REACTORS
330
2A
102
}
330
2A
100
AcDbProxyObject
 90
      499
 91
      501
 93
      412
310
41D51A1A58DAD95B90D409028333333333333E3BF0000000000000FB010790141107004050150C41D405064090741402480A0350
1001
ACAD
1000
AcDbSavedByObjectVersion
1070
     0
  0
XRECORD
  5
5A6
102
{ACAD_REACTORS
330
59D
102
}
330
59D
100
AcDbXrecord
 90
        0
  0
XRECORD
  5
5BC
102
{ACAD_REACTORS
330
59D
102
}
330
59D
100
AcDbXrecord
1000
DSTYLE
1002
{
1070
   340
340
11
1002
}
  0
XRECORD
  5
5A7
102
{ACAD_REACTORS
330
59D
102
}
330
59D
100
AcDbXrecord
  1
{05129125-51F4-4E8A-9075-1D9E361BBEF7}
  0
XRECORD
  5
5A0
102
{ACAD_REACTORS
330
59D
102
}
330
59D
100
AcDbXrecord
  1

  0
XRECORD
  5
5A5
102
{ACAD_REACTORS
330
59D
102
}
330
59D
100
AcDbXrecord
 90
        4
  0
XRECORD
  5
5A2
102
{ACAD_REACTORS
330
59D
102
}
330
59D
100
AcDbXrecord
340
1A
  0
XRECORD
  5
5A4
102
{ACAD_REACTORS
330
59D
102
}
330
59D
100
AcDbXrecord
 90
    10781
  0
XRECORD
  5
5A3
102
{ACAD_REACTORS
330
59D
102
}
330
59D
100
AcDbXrecord
340
19
  0
XRECORD
  5
5A9
102
{ACAD_REACTORS
330
59D
102
}
330
59D
100
AcDbXrecord
 40
0.0
  0
XRECORD
  5
5AC
102
{ACAD_REACTORS
330
59D
102
}
330
59D
100
AcDbXrecord
340
0
  0
XRECORD
  5
5B2
102
{ACAD_REACTORS
330
59D
102
}
330
59D
100
AcDbXrecord
 10
0.0
 20
0.0
 30
0.0
  0
XRECORD
  5
5AE
102
{ACAD_REACTORS
330
59D
102
}
330
59D
100
AcDbXrecord
 10
0.0
 20
0.0
 30
0.0
  0
XRECORD
  5
5B1
102
{ACAD_REACTORS
330
59D
102
}
330
59D
100
AcDbXrecord
 10
0.0
 20
0.0
 30
0.0
  0
XRECORD
  5
5AF
102
{ACAD_REACTORS
330
59D
102
}
330
59D
100
AcDbXrecord
 10
0.0
 20
0.0
 30
0.0
  0
XRECORD
  5
5B0
102
{ACAD_REACTORS
330
59D
102
}
330
59D
100
AcDbXrecord
 10
0.0
 20
0.0
 30
0.0
  0
XRECORD
  5
5AD
102
{ACAD_REACTORS
330
59D
102
}
330
59D
100
AcDbXrecord
 10
0.0
 20
0.0
 30
0.0
  0
XRECORD
  5
5AA
102
{ACAD_REACTORS
330
59D
102
}
330
59D
100
AcDbXrecord
340
0
  0
XRECORD
  5
5AB
102
{ACAD_REACTORS
330
59D
102
}
330
59D
100
AcDbXrecord
 70
     0
  0
XRECORD
  5
5A1
102
{ACAD_REACTORS
330
59D
102
}
330
59D
100
AcDbXrecord
  1

  0
XRECORD
  5
59E
102
{ACAD_REACTORS
330
59D
102
}
330
59D
100
AcDbXrecord
 90
        1
  0
XRECORD
  5
59F
102
{ACAD_REACTORS
330
59D
102
}
330
59D
100
AcDbXrecord
 90
       70
  0
XRECORD
  5
5B5
102
{ACAD_REACTORS
330
59D
102
}
330
59D
100
AcDbXrecord
340
0
  0
XRECORD
  5
5BB
102
{ACAD_REACTORS
330
59D
102
}
330
59D
100
AcDbXrecord
 10
0.0
 20
0.0
 30
0.0
  0
XRECORD
  5
5B7
102
{ACAD_REACTORS
330
59D
102
}
330
59D
100
AcDbXrecord
 10
0.0
 20
0.0
 30
0.0
  0
XRECORD
  5
5BA
102
{ACAD_REACTORS
330
59D
102
}
330
59D
100
AcDbXrecord
 10
0.0
 20
0.0
 30
0.0
  0
XRECORD
  5
5B8
102
{ACAD_REACTORS
330
59D
102
}
330
59D
100
AcDbXrecord
 10
0.0
 20
0.0
 30
0.0
  0
XRECORD
  5
5B9
102
{ACAD_REACTORS
330
59D
102
}
330
59D
100
AcDbXrecord
 10
0.0
 20
0.0
 30
0.0
  0
XRECORD
  5
5B6
102
{ACAD_REACTORS
330
59D
102
}
330
59D
100
AcDbXrecord
 10
0.0
 20
0.0
 30
0.0
  0
XRECORD
  5
5B3
102
{ACAD_REACTORS
330
59D
102
}
330
59D
100
AcDbXrecord
340
0
  0
XRECORD
  5
5B4
102
{ACAD_REACTORS
330
59D
102
}
330
59D
100
AcDbXrecord
 70
     0
  0
XRECORD
  5
5A8
102
{ACAD_REACTORS
330
59D
102
}
330
59D
100
AcDbXrecord
  1
{FAEB1C32-E019-11D5-929B-00C0DF256EC4}
  0
DICTIONARYVAR
  5
5C2
102
{ACAD_REACTORS
330
5BD
102
}
330
5BD
100
DictionaryVariables
280
     0
  1
2
  0
DICTIONARYVAR
  5
5C3
102
{ACAD_REACTORS
330
5BD
102
}
330
5BD
100
DictionaryVariables
280
     0
  1
1
  0
DICTIONARYVAR
  5
5C1
102
{ACAD_REACTORS
330
5BD
102
}
330
5BD
100
DictionaryVariables
280
     0
  1
80.000000
  0
DICTIONARYVAR
  5
5C0
102
{ACAD_REACTORS
330
5BD
102
}
330
5BD
100
DictionaryVariables
280
     0
  1
5.000000
  0
DICTIONARY
  5
5C6
330
3D
100
AcDbDictionary
280
     1
  3
ACAD_XREC_ROUNDTRIP
360
5C7
  0
DICTIONARY
  5
5C4
330
3C
100
AcDbDictionary
280
     1
  3
ACAD_XREC_ROUNDTRIP
360
5C5
  0
DICTIONARY
  5
5C8
330
3E
100
AcDbDictionary
280
     1
  3
ACAD_XREC_ROUNDTRIP
360
5C9
  0
XRECORD
  5
5C7
102
{ACAD_REACTORS
330
5C6
102
}
330
5C6
100
AcDbXrecord
102
MATERIAL
148
0.0
149
0.0
149
0.0
 93
        0
 94
      127
282
     0
 72
     1
 77
     1
171
     1
175
     1
179
     1
273
     0
  0
XRECORD
  5
5C5
102
{ACAD_REACTORS
330
5C4
102
}
330
5C4
100
AcDbXrecord
102
MATERIAL
148
0.0
149
0.0
149
0.0
 93
        0
 94
      127
282
     0
 72
     1
 77
     1
171
     1
175
     1
179
     1
273
     0
  0
XRECORD
  5
5C9
102
{ACAD_REACTORS
330
5C8
102
}
330
5C8
100
AcDbXrecord
102
MATERIAL
148
0.0
149
0.0
149
0.0
 93
        0
 94
      127
282
     0
 72
     1
 77
     1
171
     1
175
     1
179
     1
273
     0
  0
ENDSEC
  0
EOF
