  0
SECTION
  2
HEADER
  9
$ACADVER
  1
AC1014
  9
$ACADMAINTVER
 70
     9
  9
$DWGCODEPAGE
  3
ANSI_932
  9
$INSBASE
 10
0.0
 20
0.0
 30
0.0
  9
$EXTMIN
 10
0.0000000000000091
 20
8.5
 30
0.0
  9
$EXTMAX
 10
200.0
 20
288.5
 30
0.0
  9
$LIMMIN
 10
0.0
 20
0.0
  9
$LIMMAX
 10
210.0
 20
297.0
  9
$ORTHOMODE
 70
     0
  9
$REGENMODE
 70
     1
  9
$FILLMODE
 70
     1
  9
$QTEXTMODE
 70
     0
  9
$MIRRTEXT
 70
     1
  9
$DRAGMODE
 70
     2
  9
$LTSCALE
 40
1.0
  9
$OSMODE
 70
    37
  9
$ATTMODE
 70
     1
  9
$TEXTSIZE
 40
2.5
  9
$TRACEWID
 40
1.0
  9
$TEXTSTYLE
  7
STANDARD
  9
$CLAYER
  8
水栓
  9
$CELTYPE
  6
BYLAYER
  9
$CECOLOR
 62
   256
  9
$CELTSCALE
 40
1.0
  9
$DELOBJ
 70
     1
  9
$DISPSILH
 70
     0
  9
$DIMSCALE
 40
1.0
  9
$DIMASZ
 40
2.5
  9
$DIMEXO
 40
0.625
  9
$DIMDLI
 40
3.75
  9
$DIMRND
 40
0.0
  9
$DIMDLE
 40
0.0
  9
$DIMEXE
 40
1.25
  9
$DIMTP
 40
0.0
  9
$DIMTM
 40
0.0
  9
$DIMTXT
 40
2.5
  9
$DIMCEN
 40
2.5
  9
$DIMTSZ
 40
0.0
  9
$DIMTOL
 70
     0
  9
$DIMLIM
 70
     0
  9
$DIMTIH
 70
     0
  9
$DIMTOH
 70
     0
  9
$DIMSE1
 70
     0
  9
$DIMSE2
 70
     0
  9
$DIMTAD
 70
     1
  9
$DIMZIN
 70
     8
  9
$DIMBLK
  1

  9
$DIMASO
 70
     1
  9
$DIMSHO
 70
     1
  9
$DIMPOST
  1

  9
$DIMAPOST
  1

  9
$DIMALT
 70
     0
  9
$DIMALTD
 70
     3
  9
$DIMALTF
 40
0.03937007874016
  9
$DIMLFAC
 40
1.0
  9
$DIMTOFL
 70
     1
  9
$DIMTVP
 40
0.0
  9
$DIMTIX
 70
     0
  9
$DIMSOXD
 70
     0
  9
$DIMSAH
 70
     0
  9
$DIMBLK1
  1

  9
$DIMBLK2
  1

  9
$DIMSTYLE
  2
ISO-25
  9
$DIMCLRD
 70
     0
  9
$DIMCLRE
 70
     0
  9
$DIMCLRT
 70
     0
  9
$DIMTFAC
 40
1.0
  9
$DIMGAP
 40
0.625
  9
$DIMJUST
 70
     0
  9
$DIMSD1
 70
     0
  9
$DIMSD2
 70
     0
  9
$DIMTOLJ
 70
     0
  9
$DIMTZIN
 70
     8
  9
$DIMALTZ
 70
     0
  9
$DIMALTTZ
 70
     0
  9
$DIMFIT
 70
     3
  9
$DIMUPT
 70
     0
  9
$DIMUNIT
 70
     2
  9
$DIMDEC
 70
     2
  9
$DIMTDEC
 70
     2
  9
$DIMALTU
 70
     2
  9
$DIMALTTD
 70
     3
  9
$DIMTXSTY
  7
STANDARD
  9
$DIMAUNIT
 70
     0
  9
$LUNITS
 70
     2
  9
$LUPREC
 70
     4
  9
$SKETCHINC
 40
1.0
  9
$FILLETRAD
 40
10.0
  9
$AUNITS
 70
     0
  9
$AUPREC
 70
     0
  9
$MENU
  1
.
  9
$ELEVATION
 40
0.0
  9
$PELEVATION
 40
0.0
  9
$THICKNESS
 40
0.0
  9
$LIMCHECK
 70
     0
  9
$CHAMFERA
 40
10.0
  9
$CHAMFERB
 40
10.0
  9
$CHAMFERC
 40
20.0
  9
$CHAMFERD
 40
0.0
  9
$SKPOLY
 70
     0
  9
$TDCREATE
 40
2459761.469936655
  9
$TDUPDATE
 40
2459761.469936817
  9
$TDINDWG
 40
0.0000000116
  9
$TDUSRTIMER
 40
0.0000000116
  9
$USRTIMER
 70
     1
  9
$ANGBASE
 50
0.0
  9
$ANGDIR
 70
     0
  9
$PDMODE
 70
     0
  9
$PDSIZE
 40
0.0
  9
$PLINEWID
 40
0.0
  9
$COORDS
 70
     1
  9
$SPLFRAME
 70
     0
  9
$SPLINETYPE
 70
     6
  9
$SPLINESEGS
 70
     8
  9
$ATTDIA
 70
     0
  9
$ATTREQ
 70
     1
  9
$HANDLING
 70
     1
  9
$HANDSEED
  5
6D5
  9
$SURFTAB1
 70
     6
  9
$SURFTAB2
 70
     6
  9
$SURFTYPE
 70
     6
  9
$SURFU
 70
     6
  9
$SURFV
 70
     6
  9
$UCSNAME
  2

  9
$UCSORG
 10
0.0
 20
0.0
 30
0.0
  9
$UCSXDIR
 10
1.0
 20
0.0
 30
0.0
  9
$UCSYDIR
 10
0.0
 20
1.0
 30
0.0
  9
$PUCSNAME
  2

  9
$PUCSORG
 10
0.0
 20
0.0
 30
0.0
  9
$PUCSXDIR
 10
1.0
 20
0.0
 30
0.0
  9
$PUCSYDIR
 10
0.0
 20
1.0
 30
0.0
  9
$USERI1
 70
     0
  9
$USERI2
 70
     0
  9
$USERI3
 70
     0
  9
$USERI4
 70
     0
  9
$USERI5
 70
     0
  9
$USERR1
 40
0.0
  9
$USERR2
 40
0.0
  9
$USERR3
 40
0.0
  9
$USERR4
 40
0.0
  9
$USERR5
 40
0.0
  9
$WORLDVIEW
 70
     1
  9
$SHADEDGE
 70
     3
  9
$SHADEDIF
 70
    70
  9
$TILEMODE
 70
     1
  9
$MAXACTVP
 70
    64
  9
$PINSBASE
 10
0.0
 20
0.0
 30
0.0
  9
$PLIMCHECK
 70
     0
  9
$PEXTMIN
 10
1.000000000000000E+20
 20
1.000000000000000E+20
 30
1.000000000000000E+20
  9
$PEXTMAX
 10
-1.000000000000000E+20
 20
-1.000000000000000E+20
 30
-1.000000000000000E+20
  9
$PLIMMIN
 10
0.0
 20
0.0
  9
$PLIMMAX
 10
420.0
 20
297.0
  9
$UNITMODE
 70
     0
  9
$VISRETAIN
 70
     1
  9
$PLINEGEN
 70
     0
  9
$PSLTSCALE
 70
     1
  9
$TREEDEPTH
 70
  3020
  9
$PICKSTYLE
 70
     1
  9
$CMLSTYLE
  2
STANDARD
  9
$CMLJUST
 70
     0
  9
$CMLSCALE
 40
20.0
  9
$PROXYGRAPHICS
 70
     1
  9
$MEASUREMENT
 70
     1
  0
ENDSEC
  0
SECTION
  2
CLASSES
  0
CLASS
  1
ACDBDICTIONARYWDFLT
  2
AcDbDictionaryWithDefault
  3
ObjectDBX Classes
 90
        0
280
     0
281
     0
  0
CLASS
  1
VISUALSTYLE
  2
AcDbVisualStyle
  3
ObjectDBX Classes
 90
     4095
280
     0
281
     0
  0
CLASS
  1
MATERIAL
  2
AcDbMaterial
  3
ObjectDBX Classes
 90
     1153
280
     0
281
     0
  0
CLASS
  1
SUN
  2
AcDbSun
  3
SCENEOE
 90
     1024
280
     0
281
     0
  0
CLASS
  1
DICTIONARYVAR
  2
AcDbDictionaryVar
  3
ObjectDBX Classes
 90
        0
280
     0
281
     0
  0
CLASS
  1
XRECORD
  2
AcDbXrecord
  3
AutoCAD 2000
 90
        0
280
     0
281
     0
  0
CLASS
  1
LWPOLYLINE
  2
AcDbPolyline
  3
AutoCAD 2000
 90
        0
280
     0
281
     1
  0
CLASS
  1
HATCH
  2
AcDbHatch
  3
AutoCAD 2000
 90
        0
280
     0
281
     1
  0
CLASS
  1
ACDBPLACEHOLDER
  2
AcDbPlaceHolder
  3
ObjectDBX Classes
 90
        0
280
     0
281
     0
  0
CLASS
  1
LAYOUT
  2
AcDbLayout
  3
ObjectDBX Classes
 90
        0
280
     0
281
     0
  0
ENDSEC
  0
SECTION
  2
TABLES
  0
TABLE
  2
VPORT
  5
8
330
0
100
AcDbSymbolTable
 70
     1
  0
VPORT
  5
29
330
8
100
AcDbSymbolTableRecord
100
AcDbViewportTableRecord
  2
*ACTIVE
 70
     0
 10
0.0
 20
0.0
 11
1.0
 21
1.0
 12
1000.0
 22
1485.0
 13
0.0
 23
0.0
 14
10.0
 24
10.0
 15
10.0
 25
10.0
 16
0.0
 26
0.0
 36
1.0
 17
0.0
 27
0.0
 37
0.0
 40
2800.0
 41
0.7142857142857144
 42
50.0
 43
0.0
 44
0.0
 50
0.0
 51
0.0
 71
     0
 72
  1000
 73
     1
 74
     3
 75
     0
 76
     0
 77
     0
 78
     0
  0
ENDTAB
  0
TABLE
  2
LTYPE
  5
5
330
0
100
AcDbSymbolTable
 70
     7
  0
LTYPE
  5
14
330
5
100
AcDbSymbolTableRecord
100
AcDbLinetypeTableRecord
  2
BYBLOCK
 70
     0
  3

 72
    65
 73
     0
 40
0.0
  0
LTYPE
  5
15
330
5
100
AcDbSymbolTableRecord
100
AcDbLinetypeTableRecord
  2
BYLAYER
 70
     0
  3

 72
    65
 73
     0
 40
0.0
  0
LTYPE
  5
16
330
5
100
AcDbSymbolTableRecord
100
AcDbLinetypeTableRecord
  2
CONTINUOUS
 70
     0
  3
Solid line
 72
    65
 73
     0
 40
0.0
  0
LTYPE
  5
40
330
5
100
AcDbSymbolTableRecord
100
AcDbLinetypeTableRecord
  2
EXLTYPE1
 70
     0
  3
破線
 72
    65
 73
     2
 40
3.0
 49
2.0
 74
     0
 49
-1.0
 74
     0
  0
LTYPE
  5
41
330
5
100
AcDbSymbolTableRecord
100
AcDbLinetypeTableRecord
  2
EXLTYPE2
 70
     0
  3
点線
 72
    65
 73
     2
 40
2.0
 49
1.0
 74
     0
 49
-1.0
 74
     0
  0
LTYPE
  5
42
330
5
100
AcDbSymbolTableRecord
100
AcDbLinetypeTableRecord
  2
EXLTYPE3
 70
     0
  3
一点鎖線
 72
    65
 73
     4
 40
10.0
 49
7.0
 74
     0
 49
-1.0
 74
     0
 49
1.0
 74
     0
 49
-1.0
 74
     0
  0
LTYPE
  5
43
330
5
100
AcDbSymbolTableRecord
100
AcDbLinetypeTableRecord
  2
EXLTYPE4
 70
     0
  3
二点鎖線
 72
    65
 73
     6
 40
12.0
 49
7.0
 74
     0
 49
-1.0
 74
     0
 49
1.0
 74
     0
 49
-1.0
 74
     0
 49
1.0
 74
     0
 49
-1.0
 74
     0
  0
LTYPE
  5
44
330
5
100
AcDbSymbolTableRecord
100
AcDbLinetypeTableRecord
  2
EXLTYPE5
 70
     0
  3
三点鎖線
 72
    65
 73
     8
 40
37.0
 49
30.0
 74
     0
 49
-1.0
 74
     0
 49
1.0
 74
     0
 49
-1.0
 74
     0
 49
1.0
 74
     0
 49
-1.0
 74
     0
 49
1.0
 74
     0
 49
-1.0
 74
     0
  0
LTYPE
  5
45
330
5
100
AcDbSymbolTableRecord
100
AcDbLinetypeTableRecord
  2
EXLTYPE6
 70
     0
  3
四点鎖線
 72
    65
 73
    10
 40
39.0
 49
30.0
 74
     0
 49
-1.0
 74
     0
 49
1.0
 74
     0
 49
-1.0
 74
     0
 49
1.0
 74
     0
 49
-1.0
 74
     0
 49
1.0
 74
     0
 49
-1.0
 74
     0
 49
1.0
 74
     0
 49
-1.0
 74
     0
  0
ENDTAB
  0
TABLE
  2
LAYER
  5
2
330
0
100
AcDbSymbolTable
 70
     8
  0
LAYER
  5
10
330
2
100
AcDbSymbolTableRecord
100
AcDbLayerTableRecord
  2
0
 70
     0
 62
     7
  6
CONTINUOUS
  0
LAYER
  5
48
330
2
100
AcDbSymbolTableRecord
100
AcDbLayerTableRecord
  2
枠
 70
     0
 62
     7
  6
CONTINUOUS
  0
LAYER
  5
49
330
2
100
AcDbSymbolTableRecord
100
AcDbLayerTableRecord
  2
流し
 70
     0
 62
     7
  6
CONTINUOUS
  0
LAYER
  5
4A
330
2
100
AcDbSymbolTableRecord
100
AcDbLayerTableRecord
  2
水栓
 70
     0
 62
     7
  6
CONTINUOUS
  0
LAYER
  5
4B
330
2
100
AcDbSymbolTableRecord
100
AcDbLayerTableRecord
  2
トラップ
 70
     0
 62
     7
  6
CONTINUOUS
  0
LAYER
  5
4C
330
2
100
AcDbSymbolTableRecord
100
AcDbLayerTableRecord
  2
寸法
 70
     0
 62
     7
  6
CONTINUOUS
  0
LAYER
  5
4D
330
2
100
AcDbSymbolTableRecord
100
AcDbLayerTableRecord
  2
器具明細表
 70
     0
 62
     7
  6
CONTINUOUS
  0
LAYER
  5
5E5
330
2
100
AcDbSymbolTableRecord
100
AcDbLayerTableRecord
  2
DEFPOINTS
 70
     0
 62
     7
  6
CONTINUOUS
  0
ENDTAB
  0
TABLE
  2
STYLE
  5
3
330
0
100
AcDbSymbolTable
 70
     5
  0
STYLE
  5
11
330
3
100
AcDbSymbolTableRecord
100
AcDbTextStyleTableRecord
  2
STANDARD
 70
     0
 40
0.0
 41
1.0
 50
0.0
 71
     0
 42
2.5
  3
monotxt
  4
extfont
  0
STYLE
  5
46
330
3
100
AcDbSymbolTableRecord
100
AcDbTextStyleTableRecord
  2
EXCADSTD
 70
     0
 40
0.0
 41
1.0
 50
0.0
 71
     0
 42
0.2
  3
monotxt
  4
extfont
  0
STYLE
  5
47
330
3
100
AcDbSymbolTableRecord
100
AcDbTextStyleTableRecord
  2
EXCADVERT
 70
     4
 40
0.0
 41
1.0
 50
0.0
 71
     0
 42
0.286885
  3
monotxt
  4
extfont
  0
STYLE
  5
AA
330
3
100
AcDbSymbolTableRecord
100
AcDbTextStyleTableRecord
  2
EXCADTTF1
 70
     0
 40
0.0
 41
1.0
 50
0.0
 71
     0
 42
0.2
  3
MSGOTHIC.TTC
  4

1001
ACAD
1000
MS Gothic
1071
    32817
  0
STYLE
  5
5E3
330
3
100
AcDbSymbolTableRecord
100
AcDbTextStyleTableRecord
  2
EXCADDIM1
 70
     0
 40
0.0
 41
0.84
 50
0.0
 71
     0
 42
0.2
  3
monotxt
  4
extfont
  0
ENDTAB
  0
TABLE
  2
VIEW
  5
6
330
0
100
AcDbSymbolTable
 70
     0
  0
ENDTAB
  0
TABLE
  2
UCS
  5
7
330
0
100
AcDbSymbolTable
 70
     0
  0
ENDTAB
  0
TABLE
  2
APPID
  5
9
330
0
100
AcDbSymbolTable
 70
     1
  0
APPID
  5
12
330
9
100
AcDbSymbolTableRecord
100
AcDbRegAppTableRecord
  2
ACAD
 70
     0
  0
ENDTAB
  0
TABLE
  2
DIMSTYLE
  5
A
330
0
100
AcDbSymbolTable
 70
     1
  0
DIMSTYLE
105
27
102
{ACAD_REACTORS
330
5E4
330
5F2
330
5FF
330
60C
330
618
330
627
330
634
330
63F
330
64C
330
659
330
665
330
67D
330
694
102
}
330
A
100
AcDbSymbolTableRecord
100
AcDbDimStyleTableRecord
  2
ISO-25
 70
     0
  3

  4

  5

  6

  7

 40
1.0
 41
2.5
 42
0.625
 43
3.75
 44
1.25
 45
0.0
 46
0.0
 47
0.0
 48
0.0
140
2.5
141
2.5
142
0.0
143
0.03937007874016
144
1.0
145
0.0
146
1.0
147
0.625
 71
     0
 72
     0
 73
     0
 74
     0
 75
     0
 76
     0
 77
     1
 78
     8
170
     0
171
     3
172
     1
173
     0
174
     0
175
     0
176
     0
177
     0
178
     0
270
     2
271
     2
272
     2
273
     2
274
     3
340
11
275
     0
280
     0
281
     0
282
     0
283
     0
284
     8
285
     0
286
     0
287
     5
288
     0
  0
ENDTAB
  0
TABLE
  2
BLOCK_RECORD
  5
1
330
0
100
AcDbSymbolTable
 70
    28
  0
BLOCK_RECORD
  5
1F
330
1
100
AcDbSymbolTableRecord
100
AcDbBlockTableRecord
  2
*MODEL_SPACE
  0
BLOCK_RECORD
  5
1B
330
1
100
AcDbSymbolTableRecord
100
AcDbBlockTableRecord
  2
*PAPER_SPACE
  0
BLOCK_RECORD
  5
4E
330
1
100
AcDbSymbolTableRecord
100
AcDbBlockTableRecord
  2
EX_NORM
  0
BLOCK_RECORD
  5
51
330
1
100
AcDbSymbolTableRecord
100
AcDbBlockTableRecord
  2
EX_BNORM
  0
BLOCK_RECORD
  5
54
330
1
100
AcDbSymbolTableRecord
100
AcDbBlockTableRecord
  2
EX_BCIR
  0
BLOCK_RECORD
  5
57
330
1
100
AcDbSymbolTableRecord
100
AcDbBlockTableRecord
  2
EX_RCIVIL
  0
BLOCK_RECORD
  5
5A
330
1
100
AcDbSymbolTableRecord
100
AcDbBlockTableRecord
  2
EX_SLANT
  0
BLOCK_RECORD
  5
5D
330
1
100
AcDbSymbolTableRecord
100
AcDbBlockTableRecord
  2
EX_NONE
  0
BLOCK_RECORD
  5
60
330
1
100
AcDbSymbolTableRecord
100
AcDbBlockTableRecord
  2
EX_CIVIL
  0
BLOCK_RECORD
  5
63
330
1
100
AcDbSymbolTableRecord
100
AcDbBlockTableRecord
  2
EX_WCIR
  0
BLOCK_RECORD
  5
66
330
1
100
AcDbSymbolTableRecord
100
AcDbBlockTableRecord
  2
EX_WCIR2
  0
BLOCK_RECORD
  5
69
330
1
100
AcDbSymbolTableRecord
100
AcDbBlockTableRecord
  2
EX_WNORM
  0
BLOCK_RECORD
  5
6C
330
1
100
AcDbSymbolTableRecord
100
AcDbBlockTableRecord
  2
EX_NNORM
  0
BLOCK_RECORD
  5
6F
330
1
100
AcDbSymbolTableRecord
100
AcDbBlockTableRecord
  2
EX_BBOX
  0
BLOCK_RECORD
  5
72
330
1
100
AcDbSymbolTableRecord
100
AcDbBlockTableRecord
  2
EX_WBOX
  0
BLOCK_RECORD
  5
75
330
1
100
AcDbSymbolTableRecord
100
AcDbBlockTableRecord
  2
EX_INTEGRAL
  0
BLOCK_RECORD
  5
5E6
330
1
100
AcDbSymbolTableRecord
100
AcDbBlockTableRecord
  2
*D15
  0
BLOCK_RECORD
  5
5F3
330
1
100
AcDbSymbolTableRecord
100
AcDbBlockTableRecord
  2
*D16
  0
BLOCK_RECORD
  5
600
330
1
100
AcDbSymbolTableRecord
100
AcDbBlockTableRecord
  2
*D17
  0
BLOCK_RECORD
  5
60D
330
1
100
AcDbSymbolTableRecord
100
AcDbBlockTableRecord
  2
*D18
  0
BLOCK_RECORD
  5
619
330
1
100
AcDbSymbolTableRecord
100
AcDbBlockTableRecord
  2
*D19
  0
BLOCK_RECORD
  5
628
330
1
100
AcDbSymbolTableRecord
100
AcDbBlockTableRecord
  2
*D20
  0
BLOCK_RECORD
  5
635
330
1
100
AcDbSymbolTableRecord
100
AcDbBlockTableRecord
  2
*D21
  0
BLOCK_RECORD
  5
640
330
1
100
AcDbSymbolTableRecord
100
AcDbBlockTableRecord
  2
*D22
  0
BLOCK_RECORD
  5
64D
330
1
100
AcDbSymbolTableRecord
100
AcDbBlockTableRecord
  2
*D23
  0
BLOCK_RECORD
  5
65A
330
1
100
AcDbSymbolTableRecord
100
AcDbBlockTableRecord
  2
*D24
  0
BLOCK_RECORD
  5
666
330
1
100
AcDbSymbolTableRecord
100
AcDbBlockTableRecord
  2
*D25
  0
BLOCK_RECORD
  5
67E
330
1
100
AcDbSymbolTableRecord
100
AcDbBlockTableRecord
  2
*D26
  0
BLOCK_RECORD
  5
695
330
1
100
AcDbSymbolTableRecord
100
AcDbBlockTableRecord
  2
*D27
  0
ENDTAB
  0
ENDSEC
  0
SECTION
  2
BLOCKS
  0
BLOCK
  5
20
330
1F
100
AcDbEntity
  8
0
100
AcDbBlockBegin
  2
*MODEL_SPACE
 70
     0
 10
0.0
 20
0.0
 30
0.0
  3
*MODEL_SPACE
  1

  0
ENDBLK
  5
21
330
1F
100
AcDbEntity
  8
0
100
AcDbBlockEnd
  0
BLOCK
  5
1C
330
1B
100
AcDbEntity
 67
     1
  8
0
100
AcDbBlockBegin
  2
*PAPER_SPACE
 70
     0
 10
0.0
 20
0.0
 30
0.0
  3
*PAPER_SPACE
  1

  0
ENDBLK
  5
1D
330
1B
100
AcDbEntity
 67
     1
  8
0
100
AcDbBlockEnd
  0
BLOCK
  5
4F
330
4E
100
AcDbEntity
  8
0
100
AcDbBlockBegin
  2
EX_NORM
 70
     0
 10
0.0
 20
0.0
 30
0.0
  3
EX_NORM
  1

  0
LINE
  5
78
330
4E
100
AcDbEntity
  8
0
  6
CONTINUOUS
 62
     0
100
AcDbLine
 10
0.0
 20
0.0
 30
0.0
 11
-1.0
 21
0.0
 31
0.0
  0
LINE
  5
79
330
4E
100
AcDbEntity
  8
0
  6
CONTINUOUS
 62
     0
100
AcDbLine
 10
0.0
 20
0.0
 30
0.0
 11
-1.0
 21
0.166666667
 31
0.0
  0
LINE
  5
7A
330
4E
100
AcDbEntity
  8
0
  6
CONTINUOUS
 62
     0
100
AcDbLine
 10
0.0
 20
0.0
 30
0.0
 11
-1.0
 21
-0.166666667
 31
0.0
  0
ENDBLK
  5
50
330
4E
100
AcDbEntity
  8
0
100
AcDbBlockEnd
  0
BLOCK
  5
52
330
51
100
AcDbEntity
  8
0
100
AcDbBlockBegin
  2
EX_BNORM
 70
     0
 10
0.0
 20
0.0
 30
0.0
  3
EX_BNORM
  1

  0
LINE
  5
7B
330
51
100
AcDbEntity
  8
0
  6
CONTINUOUS
 62
     0
100
AcDbLine
 10
0.0
 20
0.0
 30
0.0
 11
-1.0
 21
0.0
 31
0.0
  0
LINE
  5
7C
330
51
100
AcDbEntity
  8
0
  6
CONTINUOUS
 62
     0
100
AcDbLine
 10
0.0
 20
0.0
 30
0.0
 11
-1.0
 21
0.166666667
 31
0.0
  0
LINE
  5
7D
330
51
100
AcDbEntity
  8
0
  6
CONTINUOUS
 62
     0
100
AcDbLine
 10
0.0
 20
0.0
 30
0.0
 11
-1.0
 21
-0.166666667
 31
0.0
  0
LINE
  5
7E
330
51
100
AcDbEntity
  8
0
  6
CONTINUOUS
 62
     0
100
AcDbLine
 10
0.0
 20
0.0
 30
0.0
 11
-1.0
 21
0.083333333
 31
0.0
  0
LINE
  5
7F
330
51
100
AcDbEntity
  8
0
  6
CONTINUOUS
 62
     0
100
AcDbLine
 10
0.0
 20
0.0
 30
0.0
 11
-1.0
 21
-0.083333333
 31
0.0
  0
LINE
  5
80
330
51
100
AcDbEntity
  8
0
  6
CONTINUOUS
 62
     0
100
AcDbLine
 10
-1.0
 20
0.166666667
 30
0.0
 11
-1.0
 21
-0.166666667
 31
0.0
  0
ENDBLK
  5
53
330
51
100
AcDbEntity
  8
0
100
AcDbBlockEnd
  0
BLOCK
  5
55
330
54
100
AcDbEntity
  8
0
100
AcDbBlockBegin
  2
EX_BCIR
 70
     0
 10
0.0
 20
0.0
 30
0.0
  3
EX_BCIR
  1

  0
LINE
  5
81
330
54
100
AcDbEntity
  8
0
  6
CONTINUOUS
 62
     0
100
AcDbLine
 10
0.0
 20
0.0
 30
0.0
 11
-1.0
 21
0.0
 31
0.0
  0
CIRCLE
  5
82
330
54
100
AcDbEntity
  8
0
  6
CONTINUOUS
 62
     0
100
AcDbCircle
 10
0.0
 20
0.0
 30
0.0
 40
0.5
  0
CIRCLE
  5
83
330
54
100
AcDbEntity
  8
0
  6
CONTINUOUS
 62
     0
100
AcDbCircle
 10
0.0
 20
0.0
 30
0.0
 40
0.25
  0
ENDBLK
  5
56
330
54
100
AcDbEntity
  8
0
100
AcDbBlockEnd
  0
BLOCK
  5
58
330
57
100
AcDbEntity
  8
0
100
AcDbBlockBegin
  2
EX_RCIVIL
 70
     0
 10
0.0
 20
0.0
 30
0.0
  3
EX_RCIVIL
  1

  0
LINE
  5
84
330
57
100
AcDbEntity
  8
0
  6
CONTINUOUS
 62
     0
100
AcDbLine
 10
0.0
 20
0.0
 30
0.0
 11
-1.0
 21
0.0
 31
0.0
  0
LINE
  5
85
330
57
100
AcDbEntity
  8
0
  6
CONTINUOUS
 62
     0
100
AcDbLine
 10
-1.0
 20
-0.25
 30
0.0
 11
0.0
 21
-0.25
 31
0.0
  0
LINE
  5
86
330
57
100
AcDbEntity
  8
0
  6
CONTINUOUS
 62
     0
100
AcDbLine
 10
-1.0
 20
-0.125
 30
0.0
 11
0.0
 21
-0.125
 31
0.0
  0
ENDBLK
  5
59
330
57
100
AcDbEntity
  8
0
100
AcDbBlockEnd
  0
BLOCK
  5
5B
330
5A
100
AcDbEntity
  8
0
100
AcDbBlockBegin
  2
EX_SLANT
 70
     0
 10
0.0
 20
0.0
 30
0.0
  3
EX_SLANT
  1

  0
LINE
  5
87
330
5A
100
AcDbEntity
  8
0
  6
CONTINUOUS
 62
     0
100
AcDbLine
 10
0.0
 20
0.0
 30
0.0
 11
-1.0
 21
0.0
 31
0.0
  0
LINE
  5
88
330
5A
100
AcDbEntity
  8
0
  6
CONTINUOUS
 62
     0
100
AcDbLine
 10
0.707106781
 20
0.707106781
 30
0.0
 11
-0.707106781
 21
-0.707106781
 31
0.0
  0
ENDBLK
  5
5C
330
5A
100
AcDbEntity
  8
0
100
AcDbBlockEnd
  0
BLOCK
  5
5E
330
5D
100
AcDbEntity
  8
0
100
AcDbBlockBegin
  2
EX_NONE
 70
     0
 10
0.0
 20
0.0
 30
0.0
  3
EX_NONE
  1

  0
LINE
  5
89
330
5D
100
AcDbEntity
  8
0
  6
CONTINUOUS
 62
     0
100
AcDbLine
 10
0.0
 20
0.0
 30
0.0
 11
-1.0
 21
0.0
 31
0.0
  0
ENDBLK
  5
5F
330
5D
100
AcDbEntity
  8
0
100
AcDbBlockEnd
  0
BLOCK
  5
61
330
60
100
AcDbEntity
  8
0
100
AcDbBlockBegin
  2
EX_CIVIL
 70
     0
 10
0.0
 20
0.0
 30
0.0
  3
EX_CIVIL
  1

  0
LINE
  5
8A
330
60
100
AcDbEntity
  8
0
  6
CONTINUOUS
 62
     0
100
AcDbLine
 10
0.0
 20
0.0
 30
0.0
 11
-1.0
 21
0.0
 31
0.0
  0
LINE
  5
8B
330
60
100
AcDbEntity
  8
0
  6
CONTINUOUS
 62
     0
100
AcDbLine
 10
-1.0
 20
0.25
 30
0.0
 11
0.0
 21
0.25
 31
0.0
  0
LINE
  5
8C
330
60
100
AcDbEntity
  8
0
  6
CONTINUOUS
 62
     0
100
AcDbLine
 10
-1.0
 20
0.125
 30
0.0
 11
0.0
 21
0.125
 31
0.0
  0
ENDBLK
  5
62
330
60
100
AcDbEntity
  8
0
100
AcDbBlockEnd
  0
BLOCK
  5
64
330
63
100
AcDbEntity
  8
0
100
AcDbBlockBegin
  2
EX_WCIR
 70
     0
 10
0.0
 20
0.0
 30
0.0
  3
EX_WCIR
  1

  0
LINE
  5
8D
330
63
100
AcDbEntity
  8
0
  6
CONTINUOUS
 62
     0
100
AcDbLine
 10
0.0
 20
0.0
 30
0.0
 11
-1.0
 21
0.0
 31
0.0
  0
CIRCLE
  5
8E
330
63
100
AcDbEntity
  8
0
  6
CONTINUOUS
 62
     0
100
AcDbCircle
 10
0.0
 20
0.0
 30
0.0
 40
0.5
  0
ENDBLK
  5
65
330
63
100
AcDbEntity
  8
0
100
AcDbBlockEnd
  0
BLOCK
  5
67
330
66
100
AcDbEntity
  8
0
100
AcDbBlockBegin
  2
EX_WCIR2
 70
     0
 10
0.0
 20
0.0
 30
0.0
  3
EX_WCIR2
  1

  0
LINE
  5
8F
330
66
100
AcDbEntity
  8
0
  6
CONTINUOUS
 62
     0
100
AcDbLine
 10
-0.5
 20
0.0
 30
0.0
 11
-1.0
 21
0.0
 31
0.0
  0
CIRCLE
  5
90
330
66
100
AcDbEntity
  8
0
  6
CONTINUOUS
 62
     0
100
AcDbCircle
 10
0.0
 20
0.0
 30
0.0
 40
0.5
  0
ENDBLK
  5
68
330
66
100
AcDbEntity
  8
0
100
AcDbBlockEnd
  0
BLOCK
  5
6A
330
69
100
AcDbEntity
  8
0
100
AcDbBlockBegin
  2
EX_WNORM
 70
     0
 10
0.0
 20
0.0
 30
0.0
  3
EX_WNORM
  1

  0
LINE
  5
91
330
69
100
AcDbEntity
  8
0
  6
CONTINUOUS
 62
     0
100
AcDbLine
 10
-1.0
 20
0.0
 30
0.0
 11
-1.0
 21
0.0
 31
0.0
  0
LINE
  5
92
330
69
100
AcDbEntity
  8
0
  6
CONTINUOUS
 62
     0
100
AcDbLine
 10
0.0
 20
0.0
 30
0.0
 11
-1.0
 21
0.166666667
 31
0.0
  0
LINE
  5
93
330
69
100
AcDbEntity
  8
0
  6
CONTINUOUS
 62
     0
100
AcDbLine
 10
0.0
 20
0.0
 30
0.0
 11
-1.0
 21
-0.166666667
 31
0.0
  0
LINE
  5
94
330
69
100
AcDbEntity
  8
0
  6
CONTINUOUS
 62
     0
100
AcDbLine
 10
-1.0
 20
0.166666667
 30
0.0
 11
-1.0
 21
-0.166666667
 31
0.0
  0
ENDBLK
  5
6B
330
69
100
AcDbEntity
  8
0
100
AcDbBlockEnd
  0
BLOCK
  5
6D
330
6C
100
AcDbEntity
  8
0
100
AcDbBlockBegin
  2
EX_NNORM
 70
     0
 10
0.0
 20
0.0
 30
0.0
  3
EX_NNORM
  1

  0
LINE
  5
95
330
6C
100
AcDbEntity
  8
0
  6
CONTINUOUS
 62
     0
100
AcDbLine
 10
0.0
 20
0.0
 30
0.0
 11
-1.0
 21
0.0
 31
0.0
  0
LINE
  5
96
330
6C
100
AcDbEntity
  8
0
  6
CONTINUOUS
 62
     0
100
AcDbLine
 10
0.0
 20
0.0
 30
0.0
 11
-1.0
 21
0.166666667
 31
0.0
  0
LINE
  5
97
330
6C
100
AcDbEntity
  8
0
  6
CONTINUOUS
 62
     0
100
AcDbLine
 10
0.0
 20
0.0
 30
0.0
 11
-1.0
 21
-0.166666667
 31
0.0
  0
LINE
  5
98
330
6C
100
AcDbEntity
  8
0
  6
CONTINUOUS
 62
     0
100
AcDbLine
 10
-1.0
 20
0.166666667
 30
0.0
 11
-1.0
 21
-0.166666667
 31
0.0
  0
ENDBLK
  5
6E
330
6C
100
AcDbEntity
  8
0
100
AcDbBlockEnd
  0
BLOCK
  5
70
330
6F
100
AcDbEntity
  8
0
100
AcDbBlockBegin
  2
EX_BBOX
 70
     0
 10
0.0
 20
0.0
 30
0.0
  3
EX_BBOX
  1

  0
LINE
  5
99
330
6F
100
AcDbEntity
  8
0
  6
CONTINUOUS
 62
     0
100
AcDbLine
 10
0.0
 20
0.0
 30
0.0
 11
-1.0
 21
0.0
 31
0.0
  0
LINE
  5
9A
330
6F
100
AcDbEntity
  8
0
  6
CONTINUOUS
 62
     0
100
AcDbLine
 10
-0.5
 20
0.5
 30
0.0
 11
0.5
 21
0.5
 31
0.0
  0
LINE
  5
9B
330
6F
100
AcDbEntity
  8
0
  6
CONTINUOUS
 62
     0
100
AcDbLine
 10
0.5
 20
0.5
 30
0.0
 11
0.5
 21
-0.5
 31
0.0
  0
LINE
  5
9C
330
6F
100
AcDbEntity
  8
0
  6
CONTINUOUS
 62
     0
100
AcDbLine
 10
0.5
 20
-0.5
 30
0.0
 11
-0.5
 21
-0.5
 31
0.0
  0
LINE
  5
9D
330
6F
100
AcDbEntity
  8
0
  6
CONTINUOUS
 62
     0
100
AcDbLine
 10
-0.5
 20
-0.5
 30
0.0
 11
-0.5
 21
0.5
 31
0.0
  0
LINE
  5
9E
330
6F
100
AcDbEntity
  8
0
  6
CONTINUOUS
 62
     0
100
AcDbLine
 10
-0.25
 20
0.25
 30
0.0
 11
0.25
 21
0.25
 31
0.0
  0
LINE
  5
9F
330
6F
100
AcDbEntity
  8
0
  6
CONTINUOUS
 62
     0
100
AcDbLine
 10
0.25
 20
0.25
 30
0.0
 11
0.25
 21
-0.25
 31
0.0
  0
LINE
  5
A0
330
6F
100
AcDbEntity
  8
0
  6
CONTINUOUS
 62
     0
100
AcDbLine
 10
0.25
 20
-0.25
 30
0.0
 11
-0.25
 21
-0.25
 31
0.0
  0
LINE
  5
A1
330
6F
100
AcDbEntity
  8
0
  6
CONTINUOUS
 62
     0
100
AcDbLine
 10
-0.25
 20
-0.25
 30
0.0
 11
-0.25
 21
0.25
 31
0.0
  0
ENDBLK
  5
71
330
6F
100
AcDbEntity
  8
0
100
AcDbBlockEnd
  0
BLOCK
  5
73
330
72
100
AcDbEntity
  8
0
100
AcDbBlockBegin
  2
EX_WBOX
 70
     0
 10
0.0
 20
0.0
 30
0.0
  3
EX_WBOX
  1

  0
LINE
  5
A2
330
72
100
AcDbEntity
  8
0
  6
CONTINUOUS
 62
     0
100
AcDbLine
 10
-0.5
 20
0.0
 30
0.0
 11
-1.0
 21
0.0
 31
0.0
  0
LINE
  5
A3
330
72
100
AcDbEntity
  8
0
  6
CONTINUOUS
 62
     0
100
AcDbLine
 10
-0.5
 20
0.5
 30
0.0
 11
0.5
 21
0.5
 31
0.0
  0
LINE
  5
A4
330
72
100
AcDbEntity
  8
0
  6
CONTINUOUS
 62
     0
100
AcDbLine
 10
0.5
 20
0.5
 30
0.0
 11
0.5
 21
-0.5
 31
0.0
  0
LINE
  5
A5
330
72
100
AcDbEntity
  8
0
  6
CONTINUOUS
 62
     0
100
AcDbLine
 10
0.5
 20
-0.5
 30
0.0
 11
-0.5
 21
-0.5
 31
0.0
  0
LINE
  5
A6
330
72
100
AcDbEntity
  8
0
  6
CONTINUOUS
 62
     0
100
AcDbLine
 10
-0.5
 20
-0.5
 30
0.0
 11
-0.5
 21
0.5
 31
0.0
  0
ENDBLK
  5
74
330
72
100
AcDbEntity
  8
0
100
AcDbBlockEnd
  0
BLOCK
  5
76
330
75
100
AcDbEntity
  8
0
100
AcDbBlockBegin
  2
EX_INTEGRAL
 70
     0
 10
0.0
 20
0.0
 30
0.0
  3
EX_INTEGRAL
  1

  0
LINE
  5
A7
330
75
100
AcDbEntity
  8
0
  6
CONTINUOUS
 62
     0
100
AcDbLine
 10
0.0
 20
0.0
 30
0.0
 11
-1.0
 21
0.0
 31
0.0
  0
ARC
  5
A8
330
75
100
AcDbEntity
  8
0
  6
CONTINUOUS
 62
     0
100
AcDbCircle
 10
0.542115
 20
0.164992
 30
0.0
 40
0.56667
100
AcDbArc
 50
73.07249033629006
 51
196.9275130221199
  0
ARC
  5
A9
330
75
100
AcDbEntity
  8
0
  6
CONTINUOUS
 62
     0
100
AcDbCircle
 10
-0.542115
 20
-0.164992
 30
0.0
 40
0.56667
100
AcDbArc
 50
253.0724869220464
 51
16.9275130559125
  0
ENDBLK
  5
77
330
75
100
AcDbEntity
  8
0
100
AcDbBlockEnd
  0
BLOCK
  5
5E7
330
5E6
100
AcDbEntity
  8
0
100
AcDbBlockBegin
  2
*D15
 70
     1
 10
0.0
 20
0.0
 30
0.0
  3
*D15
  1

  0
LINE
  5
5E9
330
5E6
100
AcDbEntity
  8
寸法
  6
CONTINUOUS
 62
     3
100
AcDbLine
 10
540.0
 20
2514.999999880791
 30
0.0
 11
540.0
 21
2583.0
 31
0.0
  0
LINE
  5
5EA
330
5E6
100
AcDbEntity
  8
寸法
  6
CONTINUOUS
 62
     3
100
AcDbLine
 10
680.0
 20
2528.999999880791
 30
0.0
 11
680.0
 21
2583.0
 31
0.0
  0
LINE
  5
5EB
330
5E6
100
AcDbEntity
  8
寸法
  6
CONTINUOUS
 62
     3
100
AcDbLine
 10
570.0
 20
2573.0
 30
0.0
 11
650.0
 21
2573.0
 31
0.0
  0
INSERT
  5
5EC
330
5E6
100
AcDbEntity
  8
寸法
 62
     3
100
AcDbBlockReference
  2
EX_NORM
 10
540.0
 20
2573.0
 30
0.0
 41
30.0
 42
30.0
 43
30.0
 50
180.0
  0
INSERT
  5
5ED
330
5E6
100
AcDbEntity
  8
寸法
 62
     3
100
AcDbBlockReference
  2
EX_NORM
 10
680.0
 20
2573.0
 30
0.0
 41
30.0
 42
30.0
 43
30.0
  0
MTEXT
  5
5EE
330
5E6
100
AcDbEntity
  8
寸法
 62
     2
100
AcDbMText
 10
610.0000000000001
 20
2596.000000119209
 30
0.0
 40
40.0
 41
0.0
 71
     5
 72
     1
  1
140
  7
EXCADDIM1
  0
POINT
  5
5EF
330
5E6
100
AcDbEntity
  8
DEFPOINTS
 62
     0
100
AcDbPoint
 10
540.0
 20
2508.0
 30
0.0
  0
POINT
  5
5F0
330
5E6
100
AcDbEntity
  8
DEFPOINTS
 62
     0
100
AcDbPoint
 10
680.0
 20
2522.0
 30
0.0
  0
POINT
  5
5F1
330
5E6
100
AcDbEntity
  8
DEFPOINTS
 62
     0
100
AcDbPoint
 10
680.0
 20
2573.0
 30
0.0
  0
ENDBLK
  5
5E8
330
5E6
100
AcDbEntity
  8
0
100
AcDbBlockEnd
  0
BLOCK
  5
5F4
330
5F3
100
AcDbEntity
  8
0
100
AcDbBlockBegin
  2
*D16
 70
     1
 10
0.0
 20
0.0
 30
0.0
  3
*D16
  1

  0
LINE
  5
5F6
330
5F3
100
AcDbEntity
  8
寸法
  6
CONTINUOUS
 62
     3
100
AcDbLine
 10
680.0
 20
2528.999999880791
 30
0.0
 11
680.0
 21
2583.0
 31
0.0
  0
LINE
  5
5F7
330
5F3
100
AcDbEntity
  8
寸法
  6
CONTINUOUS
 62
     3
100
AcDbLine
 10
820.0
 20
2514.999999880791
 30
0.0
 11
820.0
 21
2583.0
 31
0.0
  0
LINE
  5
5F8
330
5F3
100
AcDbEntity
  8
寸法
  6
CONTINUOUS
 62
     3
100
AcDbLine
 10
710.0
 20
2573.0
 30
0.0
 11
790.0
 21
2573.0
 31
0.0
  0
INSERT
  5
5F9
330
5F3
100
AcDbEntity
  8
寸法
 62
     3
100
AcDbBlockReference
  2
EX_NORM
 10
680.0
 20
2573.0
 30
0.0
 41
30.0
 42
30.0
 43
30.0
 50
180.0
  0
INSERT
  5
5FA
330
5F3
100
AcDbEntity
  8
寸法
 62
     3
100
AcDbBlockReference
  2
EX_NORM
 10
820.0
 20
2573.0
 30
0.0
 41
30.0
 42
30.0
 43
30.0
  0
MTEXT
  5
5FB
330
5F3
100
AcDbEntity
  8
寸法
 62
     2
100
AcDbMText
 10
750.0000000000001
 20
2596.000000119209
 30
0.0
 40
40.0
 41
0.0
 71
     5
 72
     1
  1
140
  7
EXCADDIM1
  0
POINT
  5
5FC
330
5F3
100
AcDbEntity
  8
DEFPOINTS
 62
     0
100
AcDbPoint
 10
680.0
 20
2522.0
 30
0.0
  0
POINT
  5
5FD
330
5F3
100
AcDbEntity
  8
DEFPOINTS
 62
     0
100
AcDbPoint
 10
820.0
 20
2508.0
 30
0.0
  0
POINT
  5
5FE
330
5F3
100
AcDbEntity
  8
DEFPOINTS
 62
     0
100
AcDbPoint
 10
820.0
 20
2573.0
 30
0.0
  0
ENDBLK
  5
5F5
330
5F3
100
AcDbEntity
  8
0
100
AcDbBlockEnd
  0
BLOCK
  5
601
330
600
100
AcDbEntity
  8
0
100
AcDbBlockBegin
  2
*D17
 70
     1
 10
0.0
 20
0.0
 30
0.0
  3
*D17
  1

  0
LINE
  5
603
330
600
100
AcDbEntity
  8
寸法
  6
CONTINUOUS
 62
     3
100
AcDbLine
 10
457.5
 20
2233.743338770209
 30
0.0
 11
457.5
 21
1990.0
 31
0.0
  0
LINE
  5
604
330
600
100
AcDbEntity
  8
寸法
  6
CONTINUOUS
 62
     3
100
AcDbLine
 10
902.5000000000001
 20
2233.743338770209
 30
0.0
 11
902.5000000000001
 21
1990.0
 31
0.0
  0
LINE
  5
605
330
600
100
AcDbEntity
  8
寸法
  6
CONTINUOUS
 62
     3
100
AcDbLine
 10
487.5
 20
2000.0
 30
0.0
 11
872.5000000000001
 21
2000.0
 31
0.0
  0
INSERT
  5
606
330
600
100
AcDbEntity
  8
寸法
 62
     3
100
AcDbBlockReference
  2
EX_NORM
 10
457.5
 20
2000.0
 30
0.0
 41
30.0
 42
30.0
 43
30.0
 50
180.0
  0
INSERT
  5
607
330
600
100
AcDbEntity
  8
寸法
 62
     3
100
AcDbBlockReference
  2
EX_NORM
 10
902.5000000000001
 20
2000.0
 30
0.0
 41
30.0
 42
30.0
 43
30.0
  0
MTEXT
  5
608
330
600
100
AcDbEntity
  8
寸法
 62
     2
100
AcDbMText
 10
680.0000000000001
 20
2023.000000119209
 30
0.0
 40
40.0
 41
0.0
 71
     5
 72
     1
  1
445
  7
EXCADDIM1
  0
POINT
  5
609
330
600
100
AcDbEntity
  8
DEFPOINTS
 62
     0
100
AcDbPoint
 10
457.5
 20
2240.743338651
 30
0.0
  0
POINT
  5
60A
330
600
100
AcDbEntity
  8
DEFPOINTS
 62
     0
100
AcDbPoint
 10
902.5000000000001
 20
2240.743338651
 30
0.0
  0
POINT
  5
60B
330
600
100
AcDbEntity
  8
DEFPOINTS
 62
     0
100
AcDbPoint
 10
902.5000000000001
 20
2000.0
 30
0.0
  0
ENDBLK
  5
602
330
600
100
AcDbEntity
  8
0
100
AcDbBlockEnd
  0
BLOCK
  5
60E
330
60D
100
AcDbEntity
  8
0
100
AcDbBlockBegin
  2
*D18
 70
     1
 10
0.0
 20
0.0
 30
0.0
  3
*D18
  1

  0
LINE
  5
610
330
60D
100
AcDbEntity
  8
寸法
  6
CONTINUOUS
 62
     3
100
AcDbLine
 10
686.9999998807907
 20
2080.0
 30
0.0
 11
992.5000000000034
 21
2080.0
 31
0.0
  0
LINE
  5
611
330
60D
100
AcDbEntity
  8
寸法
  6
CONTINUOUS
 62
     3
100
AcDbLine
 10
982.5000000000034
 20
2455.0
 30
0.0
 11
982.5000000000034
 21
2110.0
 31
0.0
  0
INSERT
  5
612
330
60D
100
AcDbEntity
  8
寸法
 62
     3
100
AcDbBlockReference
  2
EX_NORM
 10
982.5000000000034
 20
2485.0
 30
0.0
 41
30.0
 42
30.0
 43
30.0
 50
90.0
  0
INSERT
  5
613
330
60D
100
AcDbEntity
  8
寸法
 62
     3
100
AcDbBlockReference
  2
EX_NORM
 10
982.5000000000034
 20
2080.0
 30
0.0
 41
30.0
 42
30.0
 43
30.0
 50
270.0
  0
MTEXT
  5
614
330
60D
100
AcDbEntity
  8
寸法
 62
     2
100
AcDbMText
 10
959.4999998807957
 20
2282.5
 30
0.0
 40
40.0
 41
0.0
 71
     5
 72
     1
  1
405
  7
EXCADDIM1
 11
0.0
 21
1.0
 31
0.0
  0
POINT
  5
615
330
60D
100
AcDbEntity
  8
DEFPOINTS
 62
     0
100
AcDbPoint
 10
902.5
 20
2485.0
 30
0.0
  0
POINT
  5
616
330
60D
100
AcDbEntity
  8
DEFPOINTS
 62
     0
100
AcDbPoint
 10
680.0
 20
2080.0
 30
0.0
  0
POINT
  5
617
330
60D
100
AcDbEntity
  8
DEFPOINTS
 62
     0
100
AcDbPoint
 10
982.5000000000034
 20
2080.0
 30
0.0
  0
ENDBLK
  5
60F
330
60D
100
AcDbEntity
  8
0
100
AcDbBlockEnd
  0
BLOCK
  5
61A
330
619
100
AcDbEntity
  8
0
100
AcDbBlockBegin
  2
*D19
 70
     1
 10
0.0
 20
0.0
 30
0.0
  3
*D19
  1

  0
LINE
  5
61C
330
619
100
AcDbEntity
  8
寸法
  6
CONTINUOUS
 62
     3
100
AcDbLine
 10
1749.999999880791
 20
1435.0
 30
0.0
 11
1848.999999999995
 21
1435.0
 31
0.0
  0
LINE
  5
61D
330
619
100
AcDbEntity
  8
寸法
  6
CONTINUOUS
 62
     3
100
AcDbLine
 10
1726.999999880791
 20
1475.0
 30
0.0
 11
1848.999999999995
 21
1475.0
 31
0.0
  0
LINE
  5
61E
330
619
100
AcDbEntity
  8
寸法
  6
CONTINUOUS
 62
     3
100
AcDbLine
 10
1838.999999999996
 20
1435.0
 30
0.0
 11
1838.999999999996
 21
1475.0
 31
0.0
  0
LINE
  5
61F
330
619
100
AcDbEntity
  8
寸法
  6
CONTINUOUS
 62
     3
100
AcDbLine
 10
1838.999999999996
 20
1405.0
 30
0.0
 11
1838.999999999996
 21
1375.0
 31
0.0
  0
LINE
  5
620
330
619
100
AcDbEntity
  8
寸法
  6
CONTINUOUS
 62
     3
100
AcDbLine
 10
1838.999999999996
 20
1505.0
 30
0.0
 11
1838.999999999996
 21
1535.0
 31
0.0
  0
INSERT
  5
621
330
619
100
AcDbEntity
  8
寸法
 62
     3
100
AcDbBlockReference
  2
EX_NORM
 10
1838.999999999996
 20
1435.0
 30
0.0
 41
30.0
 42
30.0
 43
30.0
 50
90.0
  0
INSERT
  5
622
330
619
100
AcDbEntity
  8
寸法
 62
     3
100
AcDbBlockReference
  2
EX_NORM
 10
1838.999999999996
 20
1475.0
 30
0.0
 41
30.0
 42
30.0
 43
30.0
 50
270.0
  0
MTEXT
  5
623
330
619
100
AcDbEntity
  8
寸法
 62
     2
100
AcDbMText
 10
1815.999999880787
 20
1369.999999999999
 30
0.0
 40
40.0
 41
0.0
 71
     5
 72
     1
  1
40
  7
EXCADDIM1
 11
0.0
 21
1.0
 31
0.0
  0
POINT
  5
624
330
619
100
AcDbEntity
  8
DEFPOINTS
 62
     0
100
AcDbPoint
 10
1743.0
 20
1435.0
 30
0.0
  0
POINT
  5
625
330
619
100
AcDbEntity
  8
DEFPOINTS
 62
     0
100
AcDbPoint
 10
1720.0
 20
1475.0
 30
0.0
  0
POINT
  5
626
330
619
100
AcDbEntity
  8
DEFPOINTS
 62
     0
100
AcDbPoint
 10
1838.999999999996
 20
1475.0
 30
0.0
  0
ENDBLK
  5
61B
330
619
100
AcDbEntity
  8
0
100
AcDbBlockEnd
  0
BLOCK
  5
629
330
628
100
AcDbEntity
  8
0
100
AcDbBlockBegin
  2
*D20
 70
     1
 10
0.0
 20
0.0
 30
0.0
  3
*D20
  1

  0
LINE
  5
62B
330
628
100
AcDbEntity
  8
寸法
  6
CONTINUOUS
 62
     3
100
AcDbLine
 10
901.4999998807907
 20
1475.0
 30
0.0
 11
992.4999999999994
 21
1475.0
 31
0.0
  0
LINE
  5
62C
330
628
100
AcDbEntity
  8
寸法
  6
CONTINUOUS
 62
     3
100
AcDbLine
 10
686.9999998807907
 20
1365.0
 30
0.0
 11
992.4999999999994
 21
1365.0
 31
0.0
  0
LINE
  5
62D
330
628
100
AcDbEntity
  8
寸法
  6
CONTINUOUS
 62
     3
100
AcDbLine
 10
982.4999999999994
 20
1445.0
 30
0.0
 11
982.4999999999994
 21
1395.0
 31
0.0
  0
INSERT
  5
62E
330
628
100
AcDbEntity
  8
寸法
 62
     3
100
AcDbBlockReference
  2
EX_NORM
 10
982.4999999999994
 20
1475.0
 30
0.0
 41
30.0
 42
30.0
 43
30.0
 50
90.0
  0
INSERT
  5
62F
330
628
100
AcDbEntity
  8
寸法
 62
     3
100
AcDbBlockReference
  2
EX_NORM
 10
982.4999999999994
 20
1365.0
 30
0.0
 41
30.0
 42
30.0
 43
30.0
 50
270.0
  0
MTEXT
  5
630
330
628
100
AcDbEntity
  8
寸法
 62
     2
100
AcDbMText
 10
959.4999998807912
 20
1420.0
 30
0.0
 40
40.0
 41
0.0
 71
     5
 72
     1
  1
110
  7
EXCADDIM1
 11
0.0
 21
1.0
 31
0.0
  0
POINT
  5
631
330
628
100
AcDbEntity
  8
DEFPOINTS
 62
     0
100
AcDbPoint
 10
894.5
 20
1475.0
 30
0.0
  0
POINT
  5
632
330
628
100
AcDbEntity
  8
DEFPOINTS
 62
     0
100
AcDbPoint
 10
680.0
 20
1365.0
 30
0.0
  0
POINT
  5
633
330
628
100
AcDbEntity
  8
DEFPOINTS
 62
     0
100
AcDbPoint
 10
982.4999999999994
 20
1365.0
 30
0.0
  0
ENDBLK
  5
62A
330
628
100
AcDbEntity
  8
0
100
AcDbBlockEnd
  0
BLOCK
  5
636
330
635
100
AcDbEntity
  8
0
100
AcDbBlockBegin
  2
*D21
 70
     1
 10
0.0
 20
0.0
 30
0.0
  3
*D21
  1

  0
LINE
  5
638
330
635
100
AcDbEntity
  8
寸法
  6
CONTINUOUS
 62
     3
100
AcDbLine
 10
982.4999999999998
 20
585.0000000000001
 30
0.0
 11
982.4999999999998
 21
1335.0
 31
0.0
  0
INSERT
  5
639
330
635
100
AcDbEntity
  8
寸法
 62
     3
100
AcDbBlockReference
  2
EX_NORM
 10
982.4999999999998
 20
555.0000000000001
 30
0.0
 41
30.0
 42
30.0
 43
30.0
 50
270.0
  0
INSERT
  5
63A
330
635
100
AcDbEntity
  8
寸法
 62
     3
100
AcDbBlockReference
  2
EX_NORM
 10
982.4999999999998
 20
1365.0
 30
0.0
 41
30.0
 42
30.0
 43
30.0
 50
90.0
  0
MTEXT
  5
63B
330
635
100
AcDbEntity
  8
寸法
 62
     2
100
AcDbMText
 10
959.4999998807907
 20
959.9999999999998
 30
0.0
 40
40.0
 41
0.0
 71
     5
 72
     1
  1
810
  7
EXCADDIM1
 11
0.0
 21
1.0
 31
0.0
  0
POINT
  5
63C
330
635
100
AcDbEntity
  8
DEFPOINTS
 62
     0
100
AcDbPoint
 10
1006.0
 20
555.0
 30
0.0
  0
POINT
  5
63D
330
635
100
AcDbEntity
  8
DEFPOINTS
 62
     0
100
AcDbPoint
 10
1006.0
 20
1365.0
 30
0.0
  0
POINT
  5
63E
330
635
100
AcDbEntity
  8
DEFPOINTS
 62
     0
100
AcDbPoint
 10
982.4999999999998
 20
1365.0
 30
0.0
  0
ENDBLK
  5
637
330
635
100
AcDbEntity
  8
0
100
AcDbBlockEnd
  0
BLOCK
  5
641
330
640
100
AcDbEntity
  8
0
100
AcDbBlockBegin
  2
*D22
 70
     1
 10
0.0
 20
0.0
 30
0.0
  3
*D22
  1

  0
LINE
  5
643
330
640
100
AcDbEntity
  8
寸法
  6
CONTINUOUS
 62
     3
100
AcDbLine
 10
458.5000001192093
 20
1475.0
 30
0.0
 11
387.5000000000001
 21
1475.0
 31
0.0
  0
LINE
  5
644
330
640
100
AcDbEntity
  8
寸法
  6
CONTINUOUS
 62
     3
100
AcDbLine
 10
673.0000001192093
 20
1090.0
 30
0.0
 11
387.5000000000001
 21
1090.0
 31
0.0
  0
LINE
  5
645
330
640
100
AcDbEntity
  8
寸法
  6
CONTINUOUS
 62
     3
100
AcDbLine
 10
397.5000000000001
 20
1445.0
 30
0.0
 11
397.5000000000001
 21
1120.0
 31
0.0
  0
INSERT
  5
646
330
640
100
AcDbEntity
  8
寸法
 62
     3
100
AcDbBlockReference
  2
EX_NORM
 10
397.5000000000001
 20
1475.0
 30
0.0
 41
30.0
 42
30.0
 43
30.0
 50
90.0
  0
INSERT
  5
647
330
640
100
AcDbEntity
  8
寸法
 62
     3
100
AcDbBlockReference
  2
EX_NORM
 10
397.5000000000001
 20
1090.0
 30
0.0
 41
30.0
 42
30.0
 43
30.0
 50
270.0
  0
MTEXT
  5
648
330
640
100
AcDbEntity
  8
寸法
 62
     2
100
AcDbMText
 10
374.000000059605
 20
1282.5
 30
0.0
 40
40.0
 41
0.0
 71
     5
 72
     1
  1
385
  7
EXCADDIM1
 11
0.0
 21
1.0
 31
0.0
  0
POINT
  5
649
330
640
100
AcDbEntity
  8
DEFPOINTS
 62
     0
100
AcDbPoint
 10
465.5
 20
1475.0
 30
0.0
  0
POINT
  5
64A
330
640
100
AcDbEntity
  8
DEFPOINTS
 62
     0
100
AcDbPoint
 10
680.0
 20
1090.0
 30
0.0
  0
POINT
  5
64B
330
640
100
AcDbEntity
  8
DEFPOINTS
 62
     0
100
AcDbPoint
 10
397.5000000000001
 20
1090.0
 30
0.0
  0
ENDBLK
  5
642
330
640
100
AcDbEntity
  8
0
100
AcDbBlockEnd
  0
BLOCK
  5
64E
330
64D
100
AcDbEntity
  8
0
100
AcDbBlockBegin
  2
*D23
 70
     1
 10
0.0
 20
0.0
 30
0.0
  3
*D23
  1

  0
LINE
  5
650
330
64D
100
AcDbEntity
  8
寸法
  6
CONTINUOUS
 62
     3
100
AcDbLine
 10
1660.0
 20
510.0999994277954
 30
0.0
 11
1660.0
 21
452.0
 31
0.0
  0
LINE
  5
651
330
64D
100
AcDbEntity
  8
寸法
  6
CONTINUOUS
 62
     3
100
AcDbLine
 10
1720.0
 20
543.0999994277954
 30
0.0
 11
1720.0
 21
452.0
 31
0.0
  0
LINE
  5
652
330
64D
100
AcDbEntity
  8
寸法
  6
CONTINUOUS
 62
     3
100
AcDbLine
 10
1690.0
 20
462.0
 30
0.0
 11
1690.0
 21
462.0
 31
0.0
  0
INSERT
  5
653
330
64D
100
AcDbEntity
  8
寸法
 62
     3
100
AcDbBlockReference
  2
EX_NORM
 10
1660.0
 20
462.0
 30
0.0
 41
30.0
 42
30.0
 43
30.0
 50
180.0
  0
INSERT
  5
654
330
64D
100
AcDbEntity
  8
寸法
 62
     3
100
AcDbBlockReference
  2
EX_NORM
 10
1720.0
 20
462.0
 30
0.0
 41
30.0
 42
30.0
 43
30.0
  0
MTEXT
  5
655
330
64D
100
AcDbEntity
  8
寸法
 62
     2
100
AcDbMText
 10
1860.0
 20
485.4999999403954
 30
0.0
 40
40.0
 41
0.0
 71
     5
 72
     1
  1
60（床排水）
  7
EXCADDIM1
  0
POINT
  5
656
330
64D
100
AcDbEntity
  8
DEFPOINTS
 62
     0
100
AcDbPoint
 10
1660.0
 20
522.0
 30
0.0
  0
POINT
  5
657
330
64D
100
AcDbEntity
  8
DEFPOINTS
 62
     0
100
AcDbPoint
 10
1720.0
 20
555.0
 30
0.0
  0
POINT
  5
658
330
64D
100
AcDbEntity
  8
DEFPOINTS
 62
     0
100
AcDbPoint
 10
1720.0
 20
462.0
 30
0.0
  0
ENDBLK
  5
64F
330
64D
100
AcDbEntity
  8
0
100
AcDbBlockEnd
  0
BLOCK
  5
65B
330
65A
100
AcDbEntity
  8
0
100
AcDbBlockBegin
  2
*D24
 70
     1
 10
0.0
 20
0.0
 30
0.0
  3
*D24
  1

  0
LINE
  5
65D
330
65A
100
AcDbEntity
  8
寸法
  6
CONTINUOUS
 62
     3
100
AcDbLine
 10
1590.0
 20
906.0000001192094
 30
0.0
 11
1590.0
 21
791.625
 31
0.0
  0
LINE
  5
65E
330
65A
100
AcDbEntity
  8
寸法
  6
CONTINUOUS
 62
     3
100
AcDbLine
 10
1620.0
 20
801.625
 30
0.0
 11
1690.0
 21
801.625
 31
0.0
  0
INSERT
  5
65F
330
65A
100
AcDbEntity
  8
寸法
 62
     3
100
AcDbBlockReference
  2
EX_NORM
 10
1590.0
 20
801.625
 30
0.0
 41
30.0
 42
30.0
 43
30.0
 50
180.0
  0
INSERT
  5
660
330
65A
100
AcDbEntity
  8
寸法
 62
     3
100
AcDbBlockReference
  2
EX_NORM
 10
1720.0
 20
801.625
 30
0.0
 41
30.0
 42
30.0
 43
30.0
  0
MTEXT
  5
661
330
65A
100
AcDbEntity
  8
寸法
 62
     2
100
AcDbMText
 10
1655.0
 20
825.1249999403954
 30
0.0
 40
40.0
 41
0.0
 71
     5
 72
     1
  1
130
  7
EXCADDIM1
  0
POINT
  5
662
330
65A
100
AcDbEntity
  8
DEFPOINTS
 62
     0
100
AcDbPoint
 10
1590.0
 20
913.0
 30
0.0
  0
POINT
  5
663
330
65A
100
AcDbEntity
  8
DEFPOINTS
 62
     0
100
AcDbPoint
 10
1720.0
 20
901.9000000000001
 30
0.0
  0
POINT
  5
664
330
65A
100
AcDbEntity
  8
DEFPOINTS
 62
     0
100
AcDbPoint
 10
1720.0
 20
801.625
 30
0.0
  0
ENDBLK
  5
65C
330
65A
100
AcDbEntity
  8
0
100
AcDbBlockEnd
  0
BLOCK
  5
667
330
666
100
AcDbEntity
  8
0
100
AcDbBlockBegin
  2
*D25
 70
     1
 10
0.0
 20
0.0
 30
0.0
  3
*D25
  1

  0
LINE
  5
669
330
666
100
AcDbEntity
  8
寸法
  6
CONTINUOUS
 62
     3
100
AcDbLine
 10
740.0
 20
906.0000001192094
 30
0.0
 11
740.0
 21
791.625
 31
0.0
  0
LINE
  5
66A
330
666
100
AcDbEntity
  8
寸法
  6
CONTINUOUS
 62
     3
100
AcDbLine
 10
740.0
 20
801.625
 30
0.0
 11
680.0000000000001
 21
801.625
 31
0.0
  0
LINE
  5
66B
330
666
100
AcDbEntity
  8
寸法
  6
CONTINUOUS
 62
     3
100
AcDbLine
 10
770.0
 20
801.625
 30
0.0
 11
800.0
 21
801.625
 31
0.0
  0
LINE
  5
66C
330
666
100
AcDbEntity
  8
寸法
  6
CONTINUOUS
 62
     3
100
AcDbLine
 10
650.0000000000001
 20
801.625
 30
0.0
 11
620.0000000000001
 21
801.625
 31
0.0
  0
INSERT
  5
66D
330
666
100
AcDbEntity
  8
寸法
 62
     3
100
AcDbBlockReference
  2
EX_NORM
 10
740.0
 20
801.625
 30
0.0
 41
30.0
 42
30.0
 43
30.0
 50
180.0
  0
INSERT
  5
66E
330
666
100
AcDbEntity
  8
寸法
 62
     3
100
AcDbBlockReference
  2
EX_NORM
 10
680.0000000000001
 20
801.625
 30
0.0
 41
30.0
 42
30.0
 43
30.0
  0
MTEXT
  5
66F
330
666
100
AcDbEntity
  8
寸法
 62
     2
100
AcDbMText
 10
710.0000000000002
 20
825.1249999403952
 30
0.0
 40
40.0
 41
0.0
 71
     5
 72
     1
  1
60
  7
EXCADDIM1
  0
POINT
  5
670
330
666
100
AcDbEntity
  8
DEFPOINTS
 62
     0
100
AcDbPoint
 10
740.0
 20
913.0
 30
0.0
  0
POINT
  5
671
330
666
100
AcDbEntity
  8
DEFPOINTS
 62
     0
100
AcDbPoint
 10
680.0000000000001
 20
913.0000000000008
 30
0.0
  0
POINT
  5
672
330
666
100
AcDbEntity
  8
DEFPOINTS
 62
     0
100
AcDbPoint
 10
680.0000000000001
 20
801.625
 30
0.0
  0
ENDBLK
  5
668
330
666
100
AcDbEntity
  8
0
100
AcDbBlockEnd
  0
BLOCK
  5
67F
330
67E
100
AcDbEntity
  8
0
100
AcDbBlockBegin
  2
*D26
 70
     1
 10
0.0
 20
0.0
 30
0.0
  3
*D26
  1

  0
LINE
  5
681
330
67E
100
AcDbEntity
  8
寸法
  6
CONTINUOUS
 62
     3
100
AcDbLine
 10
1770.999999880791
 20
975.0
 30
0.0
 11
1849.0
 21
975.0
 31
0.0
  0
LINE
  5
682
330
67E
100
AcDbEntity
  8
寸法
  6
CONTINUOUS
 62
     3
100
AcDbLine
 10
1839.0
 20
585.0
 30
0.0
 11
1839.0
 21
945.0
 31
0.0
  0
INSERT
  5
683
330
67E
100
AcDbEntity
  8
寸法
 62
     3
100
AcDbBlockReference
  2
EX_NORM
 10
1839.0
 20
555.0
 30
0.0
 41
30.0
 42
30.0
 43
30.0
 50
270.0
  0
INSERT
  5
684
330
67E
100
AcDbEntity
  8
寸法
 62
     3
100
AcDbBlockReference
  2
EX_NORM
 10
1839.0
 20
975.0
 30
0.0
 41
30.0
 42
30.0
 43
30.0
 50
90.0
  0
MTEXT
  5
685
330
67E
100
AcDbEntity
  8
寸法
 62
     2
100
AcDbMText
 10
1815.500000059605
 20
765.0
 30
0.0
 40
40.0
 41
0.0
 71
     5
 72
     1
  1
420
  7
EXCADDIM1
 11
0.0
 21
1.0
 31
0.0
  0
POINT
  5
686
330
67E
100
AcDbEntity
  8
DEFPOINTS
 62
     0
100
AcDbPoint
 10
1720.0
 20
555.0
 30
0.0
  0
POINT
  5
687
330
67E
100
AcDbEntity
  8
DEFPOINTS
 62
     0
100
AcDbPoint
 10
1764.0
 20
975.0
 30
0.0
  0
POINT
  5
688
330
67E
100
AcDbEntity
  8
DEFPOINTS
 62
     0
100
AcDbPoint
 10
1839.0
 20
975.0
 30
0.0
  0
ENDBLK
  5
680
330
67E
100
AcDbEntity
  8
0
100
AcDbBlockEnd
  0
BLOCK
  5
696
330
695
100
AcDbEntity
  8
0
100
AcDbBlockBegin
  2
*D27
 70
     1
 10
0.0
 20
0.0
 30
0.0
  3
*D27
  1

  0
LINE
  5
698
330
695
100
AcDbEntity
  8
寸法
  6
CONTINUOUS
 62
     3
100
AcDbLine
 10
728.8999998807907
 20
1555.0
 30
0.0
 11
1052.5
 21
1555.0
 31
0.0
  0
LINE
  5
699
330
695
100
AcDbEntity
  8
寸法
  6
CONTINUOUS
 62
     3
100
AcDbLine
 10
1042.5
 20
1525.0
 30
0.0
 11
1042.5
 21
585.0
 31
0.0
  0
INSERT
  5
69A
330
695
100
AcDbEntity
  8
寸法
 62
     3
100
AcDbBlockReference
  2
EX_NORM
 10
1042.5
 20
1555.0
 30
0.0
 41
30.0
 42
30.0
 43
30.0
 50
90.0
  0
INSERT
  5
69B
330
695
100
AcDbEntity
  8
寸法
 62
     3
100
AcDbBlockReference
  2
EX_NORM
 10
1042.5
 20
555.0
 30
0.0
 41
30.0
 42
30.0
 43
30.0
 50
270.0
  0
MTEXT
  5
69C
330
695
100
AcDbEntity
  8
寸法
 62
     2
100
AcDbMText
 10
1019.000000059605
 20
1055.0
 30
0.0
 40
40.0
 41
0.0
 71
     5
 72
     1
  1
1000
  7
EXCADDIM1
 11
0.0
 21
1.0
 31
0.0
  0
POINT
  5
69D
330
695
100
AcDbEntity
  8
DEFPOINTS
 62
     0
100
AcDbPoint
 10
721.9
 20
1555.0
 30
0.0
  0
POINT
  5
69E
330
695
100
AcDbEntity
  8
DEFPOINTS
 62
     0
100
AcDbPoint
 10
1042.5
 20
555.0
 30
0.0
  0
POINT
  5
69F
330
695
100
AcDbEntity
  8
DEFPOINTS
 62
     0
100
AcDbPoint
 10
1042.5
 20
555.0
 30
0.0
  0
ENDBLK
  5
697
330
695
100
AcDbEntity
  8
0
100
AcDbBlockEnd
  0
ENDSEC
  0
SECTION
  2
ENTITIES
  0
TEXT
  5
AB
330
1F
100
AcDbEntity
  8
0
  6
CONTINUOUS
 62
     2
100
AcDbText
 10
92.2000000000003
 20
11.05000000000003
 30
0.0
 40
3.375
  1
ジャニス工業株式会社
 41
1.025641025641026
  7
EXCADTTF1
 72
     5
 11
137.2000000000003
 21
11.05000000000003
 31
0.0
100
AcDbText
  0
HATCH
  5
AC
330
1F
100
AcDbEntity
  8
0
  6
CONTINUOUS
 62
     3
100
AcDbHatch
 10
0.0
 20
0.0
 30
0.0
210
0.0
220
0.0
230
1.0
  2
SOLID
 70
     1
 71
     1
 91
        2
 92
        3
 72
     1
 73
     1
 93
       27
 10
79.91727657332504
 20
14.53644932975409
 42
-0.1769427732109284
 10
79.91727657332504
 20
14.5364493297541
 42
0.0
 10
79.91727657332504
 20
14.17194932975408
 42
0.0
 10
80.0050265733251
 20
14.17194932975404
 42
-0.207533601427307
 10
80.57474227895702
 20
14.59932359129048
 42
-0.1226604740888933
 10
81.07827657332508
 20
14.61002432975408
 42
-0.3213715781137954
 10
81.59883280222091
 20
13.97106514378476
 42
-0.064704004662446
 10
81.60140157332494
 20
13.63329932975406
 42
-0.257798906330806
 10
81.49542657332505
 20
13.50504932975406
 42
-0.056602577721096
 10
81.26862657332502
 20
13.42607432975409
 42
-0.0166741689362636
 10
80.43702657332504
 20
13.26812432975407
 42
0.1186092302783404
 10
79.88825157332506
 20
13.00487432975407
 42
0.1699204224386695
 10
79.64930157332502
 20
12.60527432975406
 42
0.1006533494296199
 10
79.62720866795816
 20
12.25853555095727
 42
0.1675695228968024
 10
79.84370157332506
 20
11.79392432975407
 42
0.1376980079804242
 10
80.237226573325
 20
11.56644932975409
 42
0.0719813663796923
 10
80.41610157332494
 20
11.53674932975408
 42
0.0
 10
80.69015157332504
 20
11.53674932975409
 42
0.1944607457809085
 10
81.59937657332505
 20
12.00452432975407
 42
0.1288538183665954
 10
81.69117657332495
 20
11.77502432975404
 42
0.2098387395261546
 10
81.99087657332498
 20
11.60964932975409
 42
0.0
 10
82.20822657332504
 20
11.60829932975409
 42
0.0945009641609563
 10
82.52210157332505
 20
11.67512432975408
 42
0.0
 10
82.52210157332503
 20
11.83239932975407
 42
-0.2395739894657535
 10
82.2480515733251
 20
11.82969932975405
 42
-0.2502312110031057
 10
82.11305157332498
 20
12.08349932975415
 42
-0.0104343570771765
 10
82.13127657332501
 20
13.97619932975406
 42
0.4051015674140716
 97
        0
 92
        3
 72
     1
 73
     1
 93
        8
 10
81.61355157332498
 20
13.30254932975406
 42
-0.0339435190873666
 10
81.61355157332537
 20
13.30254932975294
 42
-0.0001110072973599
 10
81.58520157332511
 20
12.26844932975405
 42
-0.2253076310552528
 10
80.876451573325
 20
11.7952743297541
 42
0.0
 10
80.70297657332493
 20
11.7952743297541
 42
-0.3657967558150132
 10
80.18727657332502
 20
12.34337432975408
 42
0.0
 10
80.18727657332511
 20
12.53912432975409
 42
-0.2530797830369341
 10
80.53557657332502
 20
13.02107432975406
 42
-0.0724473624720066
 97
        0
 75
     0
 76
     1
 98
        1
 10
0.0
 20
0.0
  0
HATCH
  5
AD
330
1F
100
AcDbEntity
  8
0
  6
CONTINUOUS
 62
     3
100
AcDbHatch
 10
0.0
 20
0.0
 30
0.0
210
0.0
220
0.0
230
1.0
  2
SOLID
 70
     1
 71
     1
 91
        1
 92
        3
 72
     1
 73
     1
 93
       30
 10
90.673401573325
 20
14.73354932975413
 42
-0.0009362235736497
 10
90.67340157332501
 20
14.73354932975407
 42
0.0681165430304653
 10
90.50970934867317
 20
14.24282432975408
 42
0.0
 10
89.89310157332508
 20
14.66469932975409
 42
-0.302112590907374
 10
89.89310157332503
 20
14.66469932975408
 42
0.0
 10
89.27142657332503
 20
14.18814932975408
 42
-0.3704245237568778
 10
89.27142657332493
 20
14.18814932975405
 42
0.0
 10
89.30382657332495
 20
13.86954932975407
 42
-0.0262822419456939
 10
89.68722657332506
 20
13.56309932975405
 42
-0.180060563604375
 10
90.29877657332507
 20
13.37679932975409
 42
-0.0298130817160724
 10
90.29877657332504
 20
13.37679932975406
 42
-0.3153987453686078
 10
90.862401573325
 20
12.73217432975408
 42
0.0
 10
90.85902657332505
 20
12.44394932975405
 42
-0.3510306079065168
 10
89.77227657332494
 20
11.53269932975408
 42
0.0
 10
89.45502657332499
 20
11.53269932975405
 42
-0.1053356344842436
 10
88.75302657332499
 20
11.73519932975408
 42
0.1188608286962634
 10
88.88127657332498
 20
12.2481993297541
 42
0.0
 10
89.65077657332507
 20
11.77569932975408
 42
-0.2447573632916039
 10
89.65077657332498
 20
11.77569932975407
 42
0.0
 10
90.39327657332507
 20
12.29544932975409
 42
-0.3734162676407277
 10
90.39327657332504
 20
12.29544932975406
 42
0.0
 10
90.12395157332503
 20
12.81452432975409
 42
-0.261219770190848
 10
89.495526573325
 20
13.04267432975409
 42
-0.0572747914118363
 10
89.4955265733251
 20
13.04267432975408
 42
-0.1189658875692221
 10
88.99602657332497
 20
13.33562432975408
 42
-0.2005226878639636
 10
88.78677657332494
 20
13.80744932975627
 42
0.0
 10
88.78340157332507
 20
13.98632432975404
 42
-0.2622894489606957
 10
89.32002657332504
 20
14.80644932975409
 42
-0.0988461274137808
 10
89.82222657332503
 20
14.92727432975405
 42
0.0
 10
90.00852657332496
 20
14.92727432975409
 42
-0.0920156312561188
 97
        0
 75
     0
 76
     1
 98
        1
 10
0.0
 20
0.0
  0
ARC
  5
AE
330
1F
100
AcDbEntity
  8
0
  6
CONTINUOUS
 62
     3
100
AcDbCircle
 10
92.3842481068871
 20
13.89019437507496
 30
0.0
 40
1.907418003737831
100
AcDbArc
 50
153.7591918158497
 51
169.3462759801917
  0
LINE
  5
AF
330
1F
100
AcDbEntity
  8
0
  6
CONTINUOUS
 62
     3
100
AcDbLine
 10
90.42432657332498
 20
14.24282432975408
 30
0.0
 11
90.50970934867317
 21
14.24282432975408
 31
0.0
  0
LINE
  5
B0
330
1F
100
AcDbEntity
  8
0
  6
CONTINUOUS
 62
     3
100
AcDbLine
 10
89.78375157332496
 20
14.66199932975407
 30
0.0
 11
89.89310157332503
 21
14.66469932975408
 31
0.0
  0
LINE
  5
B1
330
1F
100
AcDbEntity
  8
0
  6
CONTINUOUS
 62
     3
100
AcDbLine
 10
88.78340157332505
 20
13.98632432975406
 30
0.0
 11
88.78677657332494
 21
13.80744932975627
 31
0.0
  0
LINE
  5
B2
330
1F
100
AcDbEntity
  8
0
  6
CONTINUOUS
 62
     3
100
AcDbLine
 10
89.27142657332493
 20
14.18814932975405
 30
0.0
 11
89.26197657332503
 21
14.01129932975405
 31
0.0
  0
LINE
  5
B3
330
1F
100
AcDbEntity
  8
0
  6
CONTINUOUS
 62
     3
100
AcDbLine
 10
90.862401573325
 20
12.73217432975408
 30
0.0
 11
90.859026573325
 21
12.44394932975407
 31
0.0
  0
LINE
  5
B4
330
1F
100
AcDbEntity
  8
0
  6
CONTINUOUS
 62
     3
100
AcDbLine
 10
90.38652657332503
 20
12.45069932975408
 30
0.0
 11
90.39327657332504
 21
12.29544932975406
 31
0.0
  0
ARC
  5
B5
330
1F
100
AcDbEntity
  8
0
  6
CONTINUOUS
 62
     3
100
AcDbCircle
 10
87.75344131320938
 20
12.25779759565003
 30
0.0
 40
1.127953740078838
100
AcDbArc
 50
332.3987521421788
 51
359.5124385477116
  0
LINE
  5
B6
330
1F
100
AcDbEntity
  8
0
  6
CONTINUOUS
 62
     3
100
AcDbLine
 10
79.91727657332504
 20
14.17194932975408
 30
0.0
 11
80.00502657332507
 21
14.17194932975408
 31
0.0
  0
HATCH
  5
B7
330
1F
100
AcDbEntity
  8
0
  6
CONTINUOUS
 62
     3
100
AcDbHatch
 10
0.0
 20
0.0
 30
0.0
210
0.0
220
0.0
230
1.0
  2
SOLID
 70
     1
 71
     1
 91
        2
 92
        1
 93
        1
 72
     2
 10
87.52855140383352
 20
16.0583546687371
 40
0.3572334466769884
 50
0.0
 51
360.0
 73
     1
 97
        0
 92
        3
 72
     1
 73
     1
 93
        3
 10
87.20930157332502
 20
14.86989932975406
 42
0.1200283885712921
 10
87.83030157332503
 20
11.60627432975403
 42
-0.0401820615762149
 10
87.20997657332502
 20
11.60424932975407
 42
-0.0237521668114666
 97
        0
 75
     0
 76
     1
 98
        1
 10
0.0
 20
0.0
  0
HATCH
  5
B8
330
1F
100
AcDbEntity
  8
0
  6
CONTINUOUS
 62
     3
100
AcDbHatch
 10
0.0
 20
0.0
 30
0.0
210
0.0
220
0.0
230
1.0
  2
SOLID
 70
     1
 71
     1
 91
        1
 92
        3
 72
     1
 73
     1
 93
       16
 10
83.28687657332499
 20
11.61032432975406
 42
-0.0386228372648426
 10
83.28080157332498
 20
14.86449932975406
 42
-0.0398707891902887
 10
83.87142657332495
 20
14.86719932975408
 42
-0.1256886216044368
 10
83.84442657332501
 20
14.31504932975407
 42
-0.0367815758121429
 10
83.84442657332501
 20
14.31504932975405
 42
-0.268021535028829
 10
85.03580157332499
 20
14.93334932975407
 42
-0.2571134422124888
 10
85.850526573325
 20
14.5303743297541
 42
-0.1522526366014298
 10
86.05775157332505
 20
13.86009932975406
 42
-0.0158825412051521
 10
86.04290157332497
 20
11.60694932975407
 42
-0.0285251271418421
 10
85.47252657332504
 20
11.60694932975406
 42
-0.0452212723224612
 10
85.50155157332506
 20
13.68864932975409
 42
-0.0315567291532142
 10
85.32470157332497
 20
14.30357432975409
 42
-0.1476272403790709
 10
84.17315157332499
 20
14.39199932975405
 42
-0.3908144705745794
 10
83.84847657332503
 20
13.58402432975405
 42
-0.2046259928850854
 10
83.84847657332503
 20
13.58402432975409
 42
0.0
 10
83.89910157332501
 20
11.60492432975408
 42
-0.0304995761723369
 97
        0
 75
     0
 76
     1
 98
        1
 10
0.0
 20
0.0
  0
HATCH
  5
B9
330
1F
100
AcDbEntity
  8
0
  6
CONTINUOUS
 62
     3
100
AcDbHatch
 10
0.0
 20
0.0
 30
0.0
210
0.0
220
0.0
230
1.0
  2
SOLID
 70
     1
 71
     1
 91
        1
 92
        3
 72
     1
 73
     1
 93
       10
 10
77.37252657332506
 20
11.72169932975406
 42
-0.017362223501556
 10
77.38130157332499
 20
17.0184243297541
 42
-0.0267627618865285
 10
77.38130157332503
 20
17.01842432975408
 42
0.0737939047395297
 10
78.67325157332506
 20
17.023824329754
 42
0.0183878899657109
 10
78.62127657332503
 20
12.24819932975405
 42
-0.1144749489451909
 10
78.41202657332495
 20
11.24244932975405
 42
-0.1929163439413163
 10
77.41640157332506
 20
10.46079932975405
 42
-0.0603888289562337
 10
76.88855157332503
 20
10.32917432975406
 42
0.0
 10
76.765026573325
 20
10.70514932975406
 42
0.0860918333465722
 10
77.134251573325
 20
10.90157432975406
 42
0.1331843103855141
 97
        0
 75
     0
 76
     1
 98
        1
 10
0.0
 20
0.0
  0
LINE
  5
BA
330
1F
100
AcDbEntity
  8
0
  6
CONTINUOUS
 62
     3
100
AcDbLine
 10
89.455026573325
 20
11.53269932975408
 30
0.0
 11
89.77227657332494
 21
11.53269932975408
 31
0.0
  0
LINE
  5
BB
330
1F
100
AcDbEntity
  8
0
  6
CONTINUOUS
 62
     3
100
AcDbLine
 10
88.96902657332501
 20
12.2481993297541
 30
0.0
 11
88.88127657332498
 21
12.2481993297541
 31
0.0
  0
LINE
  5
BC
330
1F
100
AcDbEntity
  8
0
  6
CONTINUOUS
 62
     3
100
AcDbLine
 10
89.65077657332498
 20
11.77569932975407
 30
0.0
 11
89.81277657332501
 21
11.77569932975407
 31
0.0
  0
LINE
  5
BD
330
1F
100
AcDbEntity
  8
0
  6
CONTINUOUS
 62
     3
100
AcDbLine
 10
90.00852657332499
 20
14.92727432975405
 30
0.0
 11
89.82222657332503
 21
14.92727432975405
 31
0.0
  0
ARC
  5
BE
330
1F
100
AcDbEntity
  8
0
  6
CONTINUOUS
 62
     3
100
AcDbCircle
 10
89.84147339127506
 20
14.05429236291669
 30
0.0
 40
0.612586430102253
100
AcDbArc
 50
17.92452211681263
 51
85.16543319077402
  0
ARC
  5
BF
330
1F
100
AcDbEntity
  8
0
  6
CONTINUOUS
 62
     3
100
AcDbCircle
 10
89.80350964860534
 20
14.12674994707921
 30
0.0
 40
0.535613931103931
100
AcDbArc
 50
92.11404364449162
 51
173.4175047026091
  0
ARC
  5
C0
330
1F
100
AcDbEntity
  8
0
  6
CONTINUOUS
 62
     3
100
AcDbCircle
 10
90.63031407332622
 20
14.33823182975444
 30
0.0
 40
1.4068519372934
100
AcDbArc
 50
193.4375782160214
 51
199.459638038058
  0
ARC
  5
C1
330
1F
100
AcDbEntity
  8
0
  6
CONTINUOUS
 62
     3
100
AcDbCircle
 10
89.9072135238745
 20
14.23138641766612
 30
0.0
 40
0.703563707337184
100
AcDbArc
 50
210.9501336849607
 51
251.7794729821079
  0
ARC
  5
C2
330
1F
100
AcDbEntity
  8
0
  6
CONTINUOUS
 62
     3
100
AcDbCircle
 10
91.5538466969206
 20
18.59359310503512
 30
0.0
 40
5.36564425851668
100
AcDbArc
 50
249.6420733479936
 51
256.4727051201885
  0
ARC
  5
C3
330
1F
100
AcDbEntity
  8
0
  6
CONTINUOUS
 62
     3
100
AcDbCircle
 10
90.12045721291955
 20
12.65217258531575
 30
0.0
 40
0.746245075729606
100
AcDbArc
 50
6.154262763177246
 51
76.17509904255616
  0
ARC
  5
C4
330
1F
100
AcDbEntity
  8
0
  6
CONTINUOUS
 62
     3
100
AcDbCircle
 10
89.74663886467559
 20
12.66692467118045
 30
0.0
 40
1.134515058180645
100
AcDbArc
 50
271.2948770866743
 51
348.6654156292868
  0
ARC
  5
C5
330
1F
100
AcDbEntity
  8
0
  6
CONTINUOUS
 62
     3
100
AcDbCircle
 10
89.57930054592774
 20
13.28156576811025
 30
0.0
 40
1.75327631578002
100
AcDbArc
 50
241.8829576087176
 51
265.9354096935781
  0
ARC
  5
C6
330
1F
100
AcDbEntity
  8
0
  6
CONTINUOUS
 62
     3
100
AcDbCircle
 10
89.76361043234866
 20
12.66658639777384
 30
0.0
 40
0.898004035462527
100
AcDbArc
 50
207.7689879465537
 51
262.7817283832026
  0
ARC
  5
C7
330
1F
100
AcDbEntity
  8
0
  6
CONTINUOUS
 62
     3
100
AcDbCircle
 10
89.80357777446514
 20
12.37002363757167
 30
0.0
 40
0.594395491876676
100
AcDbArc
 50
270.8867385422408
 51
352.7925382056677
  0
ARC
  5
C8
330
1F
100
AcDbEntity
  8
0
  6
CONTINUOUS
 62
     3
100
AcDbCircle
 10
89.93080045853665
 20
12.39846225433168
 30
0.0
 40
0.458710152219014
100
AcDbArc
 50
6.53892419415897
 51
65.09756080693691
  0
ARC
  5
C9
330
1F
100
AcDbEntity
  8
0
  6
CONTINUOUS
 62
     3
100
AcDbCircle
 10
88.8171489183043
 20
10.19457141755211
 30
0.0
 40
2.927778413972754
100
AcDbArc
 50
63.49050203733571
 51
76.60259219849584
  0
ARC
  5
CA
330
1F
100
AcDbEntity
  8
0
  6
CONTINUOUS
 62
     3
100
AcDbCircle
 10
89.85268145799503
 20
14.22396411006687
 30
0.0
 40
1.234100950779567
100
AcDbArc
 50
226.0402388947521
 51
253.1776672992999
  0
ARC
  5
CB
330
1F
100
AcDbEntity
  8
0
  6
CONTINUOUS
 62
     3
100
AcDbCircle
 10
89.45599257925997
 20
13.8219276907553
 30
0.0
 40
0.669372605905611
100
AcDbArc
 50
181.2393899443581
 51
226.5942921332421
  0
ARC
  5
CC
330
1F
100
AcDbEntity
  8
0
  6
CONTINUOUS
 62
     3
100
AcDbCircle
 10
89.77963496799615
 20
13.92009291101865
 30
0.0
 40
0.99843256030919
100
AcDbArc
 50
117.4083995939977
 51
176.1964688215695
  0
ARC
  5
CD
330
1F
100
AcDbEntity
  8
0
  6
CONTINUOUS
 62
     3
100
AcDbCircle
 10
89.87711044283904
 20
13.60979097937612
 30
0.0
 40
1.319974865367525
100
AcDbArc
 50
92.38301574576484
 51
114.9635286746436
  0
ARC
  5
CE
330
1F
100
AcDbEntity
  8
0
  6
CONTINUOUS
 62
     3
100
AcDbCircle
 10
89.98542828460566
 20
13.91663038363955
 30
0.0
 40
1.010907867592157
100
AcDbArc
 50
67.66151957087348
 51
88.69073168448988
  0
ARC
  5
CF
330
1F
100
AcDbEntity
  8
0
  6
CONTINUOUS
 62
     3
100
AcDbCircle
 10
122.0644453232815
 20
95.90297432964203
 30
0.0
 40
87.02800228963156
100
AcDbArc
 50
248.6422112053103
 51
248.8567777804232
  0
ARC
  5
D0
330
1F
100
AcDbEntity
  8
0
  6
CONTINUOUS
 62
     3
100
AcDbCircle
 10
65.06900575363866
 20
13.23249792766236
 30
0.0
 40
22.20076085035812
100
AcDbArc
 50
355.7940354718673
 51
4.229650257234378
  0
ARC
  5
D1
330
1F
100
AcDbEntity
  8
0
  6
CONTINUOUS
 62
     3
100
AcDbCircle
 10
108.1254047179557
 20
13.21881005739387
 30
0.0
 40
20.35906390589
100
AcDbArc
 50
175.3387608397566
 51
184.5428594926176
  0
ARC
  5
D2
330
1F
100
AcDbEntity
  8
0
  6
CONTINUOUS
 62
     3
100
AcDbCircle
 10
87.54144089371337
 20
5.079804184123327
 30
0.0
 40
6.532859485251088
100
AcDbArc
 50
87.46575055044718
 51
92.90832285102188
  0
ARC
  5
D3
330
1F
100
AcDbEntity
  8
0
  6
CONTINUOUS
 62
     3
100
AcDbCircle
 10
87.5145607602773
 20
16.15332474358078
 30
0.0
 40
1.319228548840207
100
AcDbArc
 50
256.6209501743446
 51
283.9984576255729
  0
CIRCLE
  5
D4
330
1F
100
AcDbEntity
  8
0
  6
CONTINUOUS
 62
     3
100
AcDbCircle
 10
87.52855140383352
 20
16.0583546687371
 30
0.0
 40
0.357233446676989
  0
LINE
  5
D5
330
1F
100
AcDbEntity
  8
0
  6
CONTINUOUS
 62
     3
100
AcDbLine
 10
83.84847657332503
 20
13.58402432975409
 30
0.0
 11
83.84847657332503
 21
12.50469932975406
 31
0.0
  0
ARC
  5
D6
330
1F
100
AcDbEntity
  8
0
  6
CONTINUOUS
 62
     3
100
AcDbCircle
 10
62.91176988671592
 20
13.19938058671746
 30
0.0
 40
20.43697806131072
100
AcDbArc
 50
355.5405243117485
 51
4.673398698656258
  0
ARC
  5
D7
330
1F
100
AcDbEntity
  8
0
  6
CONTINUOUS
 62
     3
100
AcDbCircle
 10
83.57082849861231
 20
16.02206879814488
 30
0.0
 40
1.193349358546016
100
AcDbArc
 50
255.9341994177206
 51
284.5896440601899
  0
ARC
  5
D8
330
1F
100
AcDbEntity
  8
0
  6
CONTINUOUS
 62
     3
100
AcDbCircle
 10
87.60574727396161
 20
14.40785681383053
 30
0.0
 40
3.762465500458181
100
AcDbArc
 50
172.9875214416311
 51
181.4134392789641
  0
ARC
  5
D9
330
1F
100
AcDbEntity
  8
0
  6
CONTINUOUS
 62
     3
100
AcDbCircle
 10
84.97541069002548
 20
13.592759888186
 30
0.0
 40
1.34194899665726
100
AcDbArc
 50
87.42068310381028
 51
147.4361518966862
  0
ARC
  5
DA
330
1F
100
AcDbEntity
  8
0
  6
CONTINUOUS
 62
     3
100
AcDbCircle
 10
85.07724057413762
 20
13.99204664797994
 30
0.0
 40
0.94221437555554
100
AcDbArc
 50
34.84393737091607
 51
92.5207065423111
  0
ARC
  5
DB
330
1F
100
AcDbEntity
  8
0
  6
CONTINUOUS
 62
     3
100
AcDbCircle
 10
84.87905515344826
 20
13.86285942451527
 30
0.0
 40
1.17869965146059
100
AcDbArc
 50
359.8658335690532
 51
34.49363429411157
  0
ARC
  5
DC
330
1F
100
AcDbEntity
  8
0
  6
CONTINUOUS
 62
     3
100
AcDbCircle
 10
79.91913601210061
 20
13.63315774812141
 30
0.0
 40
6.142809087866958
100
AcDbArc
 50
358.4775281223095
 51
2.117232414210064
  0
ARC
  5
DD
330
1F
100
AcDbEntity
  8
0
  6
CONTINUOUS
 62
     3
100
AcDbCircle
 10
102.3657633661698
 20
12.39067374739133
 30
0.0
 40
16.34166579853822
100
AcDbArc
 50
176.2131780319488
 51
182.7488833337936
  0
ARC
  5
DE
330
1F
100
AcDbEntity
  8
0
  6
CONTINUOUS
 62
     3
100
AcDbCircle
 10
85.75771407332505
 20
8.46015261922778
 30
0.0
 40
3.159693252126744
100
AcDbArc
 50
84.82155189294139
 51
95.17844810705873
  0
ARC
  5
DF
330
1F
100
AcDbEntity
  8
0
  6
CONTINUOUS
 62
     3
100
AcDbCircle
 10
69.01173378649744
 20
12.87751337882465
 30
0.0
 40
16.50975566668588
100
AcDbArc
 50
355.5862454873798
 51
2.816115806820253
  0
ARC
  5
E0
330
1F
100
AcDbEntity
  8
0
  6
CONTINUOUS
 62
     3
100
AcDbCircle
 10
84.39447404568526
 20
13.70315138821555
 30
0.0
 40
1.107172507744154
100
AcDbArc
 50
359.2495022237244
 51
32.84055016678327
  0
ARC
  5
E1
330
1F
100
AcDbEntity
  8
0
  6
CONTINUOUS
 62
     3
100
AcDbCircle
 10
84.7010014520553
 20
13.72366273138689
 30
0.0
 40
0.851645057047003
100
AcDbArc
 50
42.91644474042847
 51
128.3015542351336
  0
ARC
  5
E2
330
1F
100
AcDbEntity
  8
0
  6
CONTINUOUS
 62
     3
100
AcDbCircle
 10
84.95661722366404
 20
13.60795225138056
 30
0.0
 40
1.108398956318131
100
AcDbArc
 50
134.9787476233347
 51
181.2369872983282
  0
ARC
  5
E3
330
1F
100
AcDbEntity
  8
0
  6
CONTINUOUS
 62
     3
100
AcDbCircle
 10
91.24088578951037
 20
12.49150147009814
 30
0.0
 40
7.395120993114926
100
AcDbArc
 50
179.8977458165987
 51
186.8855675734268
  0
ARC
  5
E4
330
1F
100
AcDbEntity
  8
0
  6
CONTINUOUS
 62
     3
100
AcDbCircle
 10
83.55808780069313
 20
7.65069254511709
 30
0.0
 40
3.968909094418497
100
AcDbArc
 50
85.07099551674689
 51
93.91830029343228
  0
ARC
  5
E5
330
1F
100
AcDbEntity
  8
0
  6
CONTINUOUS
 62
     3
100
AcDbCircle
 10
-2247.301542217735
 20
76.63265245587831
 30
0.0
 40
2329.776001260591
100
AcDbArc
 50
358.4169008257799
 51
358.4423418242109
  0
ARC
  5
E6
330
1F
100
AcDbEntity
  8
0
  6
CONTINUOUS
 62
     3
100
AcDbCircle
 10
80.73244690765924
 20
12.77836489530207
 30
0.0
 40
0.993581603997916
100
AcDbArc
 50
278.3335103000368
 51
329.1221464187299
  0
LINE
  5
E7
330
1F
100
AcDbEntity
  8
0
  6
CONTINUOUS
 62
     3
100
AcDbLine
 10
80.70297657332495
 20
11.7952743297541
 30
0.0
 11
80.876451573325
 21
11.7952743297541
 31
0.0
  0
ARC
  5
E8
330
1F
100
AcDbEntity
  8
0
  6
CONTINUOUS
 62
     3
100
AcDbCircle
 10
80.76959653488737
 20
12.37461380097786
 30
0.0
 40
0.583157304846997
100
AcDbArc
 50
183.0707787095794
 51
263.4402016072427
  0
LINE
  5
E9
330
1F
100
AcDbEntity
  8
0
  6
CONTINUOUS
 62
     3
100
AcDbLine
 10
80.18727657332502
 20
12.53912432975405
 30
0.0
 11
80.18727657332502
 21
12.34337432975408
 31
0.0
  0
ARC
  5
EA
330
1F
100
AcDbEntity
  8
0
  6
CONTINUOUS
 62
     3
100
AcDbCircle
 10
80.80701866837845
 20
12.45807479047184
 30
0.0
 40
0.625019433457053
100
AcDbArc
 50
115.7403688633493
 51
172.5491744442191
  0
ARC
  5
EB
330
1F
100
AcDbEntity
  8
0
  6
CONTINUOUS
 62
     3
100
AcDbCircle
 10
81.35660651757703
 20
11.28318862667978
 30
0.0
 40
1.922065786155208
100
AcDbArc
 50
98.71271710191789
 51
115.2874718053599
  0
ARC
  5
EC
330
1F
100
AcDbEntity
  8
0
  6
CONTINUOUS
 62
     3
100
AcDbCircle
 10
80.46056099353726
 20
17.27501381160507
 30
0.0
 40
4.136406814694017
100
AcDbArc
 50
278.4088456599976
 51
286.1851416003176
  0
ARC
  5
ED
330
1F
100
AcDbEntity
  8
0
  6
CONTINUOUS
 62
     3
100
AcDbCircle
 10
78.00908200122277
 20
21.37417570522225
 30
0.0
 40
4.400758833490466
100
AcDbArc
 50
261.7986203004403
 51
278.6803384946418
  0
ARC
  5
EE
330
1F
100
AcDbEntity
  8
0
  6
CONTINUOUS
 62
     3
100
AcDbCircle
 10
143.5542531413435
 20
13.92960360950845
 30
0.0
 40
64.95474244683605
100
AcDbArc
 50
177.2695926307304
 51
181.4833117237826
  0
ARC
  5
EF
330
1F
100
AcDbEntity
  8
0
  6
CONTINUOUS
 62
     3
100
AcDbCircle
 10
76.34899361790613
 20
12.19631356880094
 30
0.0
 40
2.272875263114311
100
AcDbArc
 50
335.1860595856123
 51
1.308075913059364
  0
ARC
  5
F0
330
1F
100
AcDbEntity
  8
0
  6
CONTINUOUS
 62
     3
100
AcDbCircle
 10
76.93897327885477
 20
12.0938351862683
 30
0.0
 40
1.701394688196115
100
AcDbArc
 50
286.2966123578915
 51
329.973223283839
  0
ARC
  5
F1
330
1F
100
AcDbEntity
  8
0
  6
CONTINUOUS
 62
     3
100
AcDbCircle
 10
76.60955749866653
 20
12.57223152915386
 30
0.0
 40
2.260341410821362
100
AcDbArc
 50
277.0901027239701
 51
290.9134154817058
  0
LINE
  5
F2
330
1F
100
AcDbEntity
  8
0
  6
CONTINUOUS
 62
     3
100
AcDbLine
 10
76.88855157332503
 20
10.32917432975406
 30
0.0
 11
76.76502657332506
 21
10.70514932975404
 31
0.0
  0
ARC
  5
F3
330
1F
100
AcDbEntity
  8
0
  6
CONTINUOUS
 62
     3
100
AcDbCircle
 10
76.38347289685444
 20
11.8675985944599
 30
0.0
 40
1.223467000390025
100
AcDbArc
 50
288.1715191042997
 51
307.8537826235693
  0
ARC
  5
F4
330
1F
100
AcDbEntity
  8
0
  6
CONTINUOUS
 62
     3
100
AcDbCircle
 10
76.60927386496022
 20
11.43407518472915
 30
0.0
 40
0.747769185530633
100
AcDbArc
 50
314.592391474832
 51
344.9374073189123
  0
ARC
  5
F5
330
1F
100
AcDbEntity
  8
0
  6
CONTINUOUS
 62
     3
100
AcDbCircle
 10
27.93385521229311
 20
14.45197335838841
 30
0.0
 40
49.51400430399008
100
AcDbArc
 50
356.8390243485978
 51
2.971133813187157
  0
ARC
  5
F6
330
1F
100
AcDbEntity
  8
0
  6
CONTINUOUS
 62
     3
100
AcDbCircle
 10
70.41439565227077
 20
12.07342761922788
 30
0.0
 40
6.967015049800598
100
AcDbArc
 50
353.1274757312911
 51
357.106204490141
  0
LINE
  5
F7
330
1F
100
AcDbEntity
  8
0
  6
CONTINUOUS
 62
     3
100
AcDbLine
 10
79.91727657332504
 20
14.5364493297541
 30
0.0
 11
79.91727657332504
 21
14.17194932975408
 31
0.0
  0
ARC
  5
F8
330
1F
100
AcDbEntity
  8
0
  6
CONTINUOUS
 62
     3
100
AcDbCircle
 10
80.78253617702993
 20
13.72890191857882
 30
0.0
 40
0.894881105176719
100
AcDbArc
 50
103.4267945469744
 51
150.3242613737993
  0
ARC
  5
F9
330
1F
100
AcDbEntity
  8
0
  6
CONTINUOUS
 62
     3
100
AcDbCircle
 10
80.84799095798306
 20
13.59383830513021
 30
0.0
 40
1.04195273466423
100
AcDbArc
 50
77.23143261361693
 51
105.203415964315
  0
ARC
  5
FA
330
1F
100
AcDbEntity
  8
0
  6
CONTINUOUS
 62
     3
100
AcDbCircle
 10
80.89283412817693
 20
13.92741886153421
 30
0.0
 40
0.707346538626002
100
AcDbArc
 50
3.537639967999379
 51
74.8013566619203
  0
ARC
  5
FB
330
1F
100
AcDbEntity
  8
0
  6
CONTINUOUS
 62
     3
100
AcDbCircle
 10
80.3005387356657
 20
13.79229870375124
 30
0.0
 40
1.310543751018921
100
AcDbArc
 50
353.0315250986587
 51
7.839947970678348
  0
ARC
  5
FC
330
1F
100
AcDbEntity
  8
0
  6
CONTINUOUS
 62
     3
100
AcDbCircle
 10
81.43230955673337
 20
13.66511332504287
 30
0.0
 40
0.172058828228131
100
AcDbArc
 50
291.5204897073511
 51
349.3445900274031
  0
ARC
  5
FD
330
1F
100
AcDbEntity
  8
0
  6
CONTINUOUS
 62
     3
100
AcDbCircle
 10
81.03433050110894
 20
14.46407362688748
 30
0.0
 40
1.064113335272784
100
AcDbArc
 50
282.7195832898965
 51
295.6781112778079
  0
ARC
  5
FE
330
1F
100
AcDbEntity
  8
0
  6
CONTINUOUS
 62
     3
100
AcDbCircle
 10
78.48530099985786
 20
25.81202029775212
 30
0.0
 40
12.69482409370382
100
AcDbArc
 50
278.8438342053764
 51
282.6649181367123
  0
ARC
  5
FF
330
1F
100
AcDbEntity
  8
0
  6
CONTINUOUS
 62
     3
100
AcDbCircle
 10
80.70970138675787
 20
11.99608481482871
 30
0.0
 40
1.30093661698492
100
AcDbArc
 50
102.0988446293839
 51
129.1556705448828
  0
ARC
  5
100
330
1F
100
AcDbEntity
  8
0
  6
CONTINUOUS
 62
     3
100
AcDbCircle
 10
80.33972379030152
 20
12.46366332500801
 30
0.0
 40
0.704795370557922
100
AcDbArc
 50
129.8344892359069
 51
168.4089447024628
  0
ARC
  5
101
330
1F
100
AcDbEntity
  8
0
  6
CONTINUOUS
 62
     3
100
AcDbCircle
 10
80.49075018569991
 20
12.37758712547744
 30
0.0
 40
0.871709372588669
100
AcDbArc
 50
164.8589457925044
 51
187.8495628504518
  0
ARC
  5
102
330
1F
100
AcDbEntity
  8
0
  6
CONTINUOUS
 62
     3
100
AcDbCircle
 10
80.40915332915498
 20
12.34015021572864
 30
0.0
 40
0.78619234712629
100
AcDbArc
 50
185.9586126338419
 51
224.0091989319859
  0
ARC
  5
103
330
1F
100
AcDbEntity
  8
0
  6
CONTINUOUS
 62
     3
100
AcDbCircle
 10
80.44562953036885
 20
12.38111104772596
 30
0.0
 40
0.840895657756366
100
AcDbArc
 50
224.289750990011
 51
255.6505938786759
  0
ARC
  5
104
330
1F
100
AcDbEntity
  8
0
  6
CONTINUOUS
 62
     3
100
AcDbCircle
 10
80.42928130736757
 20
12.16963494387411
 30
0.0
 40
0.633022832091786
100
AcDbArc
 50
252.3384873625213
 51
268.8069976857606
  0
LINE
  5
105
330
1F
100
AcDbEntity
  8
0
  6
CONTINUOUS
 62
     3
100
AcDbLine
 10
80.41610157332494
 20
11.53674932975408
 30
0.0
 11
80.69015157332504
 21
11.53674932975408
 31
0.0
  0
ARC
  5
106
330
1F
100
AcDbEntity
  8
0
  6
CONTINUOUS
 62
     3
100
AcDbCircle
 10
80.56613045867007
 20
12.89534026256828
 30
0.0
 40
1.364239920103932
100
AcDbArc
 50
275.2158792069686
 51
319.2336424873511
  0
ARC
  5
107
330
1F
100
AcDbEntity
  8
0
  6
CONTINUOUS
 62
     3
100
AcDbCircle
 10
82.08315560558313
 20
12.06492594265731
 30
0.0
 40
0.487535134009722
100
AcDbArc
 50
187.1167640402297
 51
216.4860549324747
  0
ARC
  5
108
330
1F
100
AcDbEntity
  8
0
  6
CONTINUOUS
 62
     3
100
AcDbCircle
 10
82.0293773508146
 20
12.0336745652863
 30
0.0
 40
0.425769550620398
100
AcDbArc
 50
217.4081478714985
 51
264.8118660441384
  0
ARC
  5
109
330
1F
100
AcDbEntity
  8
0
  6
CONTINUOUS
 62
     3
100
AcDbCircle
 10
82.1899589194559
 20
12.46464512823032
 30
0.0
 40
0.856540620020894
100
AcDbArc
 50
271.2220539293239
 51
292.8159509797653
  0
LINE
  5
10A
330
1F
100
AcDbEntity
  8
0
  6
CONTINUOUS
 62
     3
100
AcDbLine
 10
81.99087657332498
 20
11.60964932975409
 30
0.0
 11
82.20822657332499
 21
11.60964932975409
 31
0.0
  0
LINE
  5
10B
330
1F
100
AcDbEntity
  8
0
  6
CONTINUOUS
 62
     3
100
AcDbLine
 10
82.52210157332505
 20
11.67512432975408
 30
0.0
 11
82.52210157332505
 21
11.83239932975405
 31
0.0
  0
ARC
  5
10C
330
1F
100
AcDbEntity
  8
0
  6
CONTINUOUS
 62
     3
100
AcDbCircle
 10
82.38242078457964
 20
12.1006118874109
 30
0.0
 40
0.30240485913648
100
AcDbArc
 50
243.6191685566582
 51
297.5097757939563
  0
ARC
  5
10D
330
1F
100
AcDbEntity
  8
0
  6
CONTINUOUS
 62
     3
100
AcDbCircle
 10
82.41823989446041
 20
12.08302928780474
 30
0.0
 40
0.305188683107389
100
AcDbArc
 50
179.9117548191414
 51
236.1065985968857
  0
ARC
  5
10E
330
1F
100
AcDbEntity
  8
0
  6
CONTINUOUS
 62
     3
100
AcDbCircle
 10
127.465013583871
 20
12.59323843931733
 30
0.0
 40
45.35482655865662
100
AcDbArc
 50
178.2526643324597
 51
180.6439560401927
  0
ARC
  5
10F
330
1F
100
AcDbEntity
  8
0
  6
CONTINUOUS
 62
     3
100
AcDbCircle
 10
81.10706272602786
 20
13.90191625973315
 30
0.0
 40
1.02690407511459
100
AcDbArc
 50
4.148222840814693
 51
92.36000944257292
  0
ARC
  5
110
330
1F
100
AcDbEntity
  8
0
  6
CONTINUOUS
 62
     3
100
AcDbCircle
 10
81.02685324125528
 20
13.16167288926888
 30
0.0
 40
1.766683515327064
100
AcDbArc
 50
88.77000393305703
 51
128.9068631829044
  0
TEXT
  5
111
330
1F
100
AcDbEntity
  8
枠
  6
CONTINUOUS
 62
     2
100
AcDbText
 10
1890.5371094
 20
252.7227783
 30
0.0
 40
30.0
  1
１
 41
1.101333333333329
  7
EXCADSTD
 72
     5
 11
1914.1371094
 21
252.7227783
 31
0.0
100
AcDbText
  0
TEXT
  5
112
330
1F
100
AcDbEntity
  8
枠
  6
CONTINUOUS
 62
     2
100
AcDbText
 10
1931.2792969
 20
208.3488464
 30
0.0
 40
30.0
  1
１０
 41
1.098531212121213
  7
EXCADSTD
 72
     5
 11
1983.0671969
 21
208.3488464
 31
0.0
100
AcDbText
  0
TEXT
  5
113
330
1F
100
AcDbEntity
  8
枠
  6
CONTINUOUS
 62
     2
100
AcDbText
 10
202.5
 20
258.75
 30
0.0
 40
42.5
  1
製図
 41
1.509694117647059
  7
EXCADSTD
 72
     5
 11
303.326
 21
258.75
 31
0.0
100
AcDbText
  0
TEXT
  5
114
330
1F
100
AcDbEntity
  8
枠
  6
CONTINUOUS
 62
     2
100
AcDbText
 10
357.5
 20
258.75
 30
0.0
 40
42.5
  1
写図
 41
1.509694117647059
  7
EXCADSTD
 72
     5
 11
458.326
 21
258.75
 31
0.0
100
AcDbText
  0
TEXT
  5
115
330
1F
100
AcDbEntity
  8
枠
  6
CONTINUOUS
 62
     2
100
AcDbText
 10
507.5
 20
258.75
 30
0.0
 40
42.5
  1
検図
 41
1.303826737967914
  7
EXCADSTD
 72
     5
 11
594.577
 21
258.75
 31
0.0
100
AcDbText
  0
TEXT
  5
116
330
1F
100
AcDbEntity
  8
枠
  6
CONTINUOUS
 62
     2
100
AcDbText
 10
637.5
 20
258.75
 30
0.0
 40
42.5
  1
承認
 41
1.303826737967914
  7
EXCADSTD
 72
     5
 11
724.577
 21
258.75
 31
0.0
100
AcDbText
  0
TEXT
  5
117
330
1F
100
AcDbEntity
  8
枠
  6
CONTINUOUS
 62
     2
100
AcDbText
 10
755.75
 20
248.75
 30
0.0
 40
42.5
  1
品
 41
1.12
  7
EXCADSTD
 72
     5
 11
789.75
 21
248.75
 31
0.0
100
AcDbText
  0
TEXT
  5
118
330
1F
100
AcDbEntity
  8
枠
  6
CONTINUOUS
 62
     2
100
AcDbText
 10
755.75
 20
198.75
 30
0.0
 40
42.5
  1
名
 41
1.12
  7
EXCADSTD
 72
     5
 11
789.75
 21
198.75
 31
0.0
100
AcDbText
  0
TEXT
  5
119
330
1F
100
AcDbEntity
  8
枠
  6
CONTINUOUS
 62
     2
100
AcDbText
 10
1395.75
 20
248.75
 30
0.0
 40
42.5
  1
品
 41
1.12
  7
EXCADSTD
 72
     5
 11
1429.75
 21
248.75
 31
0.0
100
AcDbText
  0
TEXT
  5
11A
330
1F
100
AcDbEntity
  8
枠
  6
CONTINUOUS
 62
     2
100
AcDbText
 10
1395.75
 20
198.75
 30
0.0
 40
42.5
  1
番
 41
1.12
  7
EXCADSTD
 72
     5
 11
1429.75
 21
198.75
 31
0.0
100
AcDbText
  0
TEXT
  5
11B
330
1F
100
AcDbEntity
  8
枠
  6
CONTINUOUS
 62
     2
100
AcDbText
 10
1816.75
 20
248.75
 30
0.0
 40
42.5
  1
尺
 41
1.12
  7
EXCADSTD
 72
     5
 11
1850.75
 21
248.75
 31
0.0
100
AcDbText
  0
TEXT
  5
11C
330
1F
100
AcDbEntity
  8
枠
  6
CONTINUOUS
 62
     2
100
AcDbText
 10
1816.75
 20
198.75
 30
0.0
 40
42.5
  1
度
 41
1.12
  7
EXCADSTD
 72
     5
 11
1850.75
 21
198.75
 31
0.0
100
AcDbText
  0
TEXT
  5
11D
330
1F
100
AcDbEntity
  8
枠
  6
CONTINUOUS
 62
     2
100
AcDbText
 10
1395.75
 20
135.75
 30
0.0
 40
42.5
  1
図
 41
1.12
  7
EXCADSTD
 72
     5
 11
1429.75
 21
135.75
 31
0.0
100
AcDbText
  0
TEXT
  5
11E
330
1F
100
AcDbEntity
  8
枠
  6
CONTINUOUS
 62
     2
100
AcDbText
 10
1395.75
 20
92.75
 30
0.0
 40
42.5
  1
番
 41
1.12
  7
EXCADSTD
 72
     5
 11
1429.75
 21
92.75
 31
0.0
100
AcDbText
  0
LINE
  5
11F
330
1F
100
AcDbEntity
  8
枠
  6
CONTINUOUS
 62
     7
100
AcDbLine
 10
180.0
 20
85.0
 30
0.0
 11
180.0
 21
2885.0
 31
0.0
  0
LINE
  5
120
330
1F
100
AcDbEntity
  8
枠
  6
CONTINUOUS
 62
     7
100
AcDbLine
 10
180.0
 20
2885.0
 30
0.0
 11
2000.0
 21
2885.0
 31
0.0
  0
LINE
  5
121
330
1F
100
AcDbEntity
  8
枠
  6
CONTINUOUS
 62
     7
100
AcDbLine
 10
2000.0
 20
85.0
 30
0.0
 11
2000.0
 21
2885.0
 31
0.0
  0
LINE
  5
122
330
1F
100
AcDbEntity
  8
枠
  6
CONTINUOUS
 62
     7
100
AcDbLine
 10
180.0
 20
305.0
 30
0.0
 11
2000.0
 21
305.0
 31
0.0
  0
LINE
  5
123
330
1F
100
AcDbEntity
  8
枠
  6
CONTINUOUS
 62
     6
100
AcDbLine
 10
2000.0
 20
185.0
 30
0.0
 11
750.0
 21
185.0
 31
0.0
  0
LINE
  5
124
330
1F
100
AcDbEntity
  8
枠
  6
CONTINUOUS
 62
     6
100
AcDbLine
 10
1860.0
 20
305.0
 30
0.0
 11
1860.0
 21
185.0
 31
0.0
  0
LINE
  5
125
330
1F
100
AcDbEntity
  8
枠
  6
CONTINUOUS
 62
     6
100
AcDbLine
 10
1810.0
 20
305.0
 30
0.0
 11
1810.0
 21
185.0
 31
0.0
  0
LINE
  5
126
330
1F
100
AcDbEntity
  8
枠
  6
CONTINUOUS
 62
     6
100
AcDbLine
 10
1440.0
 20
305.0
 30
0.0
 11
1440.0
 21
85.0
 31
0.0
  0
LINE
  5
127
330
1F
100
AcDbEntity
  8
枠
  6
CONTINUOUS
 62
     6
100
AcDbLine
 10
1390.0
 20
305.0
 30
0.0
 11
1390.0
 21
85.0
 31
0.0
  0
LINE
  5
128
330
1F
100
AcDbEntity
  8
枠
  6
CONTINUOUS
 62
     6
100
AcDbLine
 10
800.0
 20
305.0
 30
0.0
 11
800.0
 21
185.0
 31
0.0
  0
LINE
  5
129
330
1F
100
AcDbEntity
  8
枠
  6
CONTINUOUS
 62
     6
100
AcDbLine
 10
750.0
 20
305.0
 30
0.0
 11
750.0
 21
85.0
 31
0.0
  0
LINE
  5
12A
330
1F
100
AcDbEntity
  8
枠
  6
CONTINUOUS
 62
     6
100
AcDbLine
 10
620.0
 20
305.0
 30
0.0
 11
620.0
 21
85.0
 31
0.0
  0
LINE
  5
12B
330
1F
100
AcDbEntity
  8
枠
  6
CONTINUOUS
 62
     6
100
AcDbLine
 10
490.0
 20
305.0
 30
0.0
 11
490.0
 21
85.0
 31
0.0
  0
LINE
  5
12C
330
1F
100
AcDbEntity
  8
枠
  6
CONTINUOUS
 62
     6
100
AcDbLine
 10
335.0
 20
305.0
 30
0.0
 11
335.0
 21
85.0
 31
0.0
  0
LINE
  5
12D
330
1F
100
AcDbEntity
  8
枠
  6
CONTINUOUS
 62
     6
100
AcDbLine
 10
180.0
 20
255.0
 30
0.0
 11
750.0
 21
255.0
 31
0.0
  0
LINE
  5
12E
330
1F
100
AcDbEntity
  8
枠
  6
CONTINUOUS
 62
     6
100
AcDbLine
 10
1892.6538086
 20
208.0029297
 30
0.0
 11
1969.9938965
 21
286.6998291
 31
0.0
  0
CIRCLE
  5
12F
330
1F
100
AcDbEntity
  8
枠
  6
CONTINUOUS
 62
     6
100
AcDbCircle
 10
230.0000000000001
 20
110.0
 30
0.0
 40
1.0000002
  0
CIRCLE
  5
130
330
1F
100
AcDbEntity
  8
枠
  6
CONTINUOUS
 62
     6
100
AcDbCircle
 10
280.0000000000001
 20
110.0
 30
0.0
 40
1.0000002
  0
CIRCLE
  5
131
330
1F
100
AcDbEntity
  8
枠
  6
CONTINUOUS
 62
     6
100
AcDbCircle
 10
385.0000000000001
 20
110.0
 30
0.0
 40
1.0000002
  0
CIRCLE
  5
132
330
1F
100
AcDbEntity
  8
枠
  6
CONTINUOUS
 62
     6
100
AcDbCircle
 10
435.0000000000001
 20
110.0
 30
0.0
 40
1.0000002
  0
LINE
  5
133
330
1F
100
AcDbEntity
  8
枠
  6
EXLTYPE2
 62
     6
100
AcDbLine
 10
180.0000000000001
 20
135.0000000000001
 30
0.0
 11
490.0000000000001
 21
135.0
 31
0.0
  0
LINE
  5
134
330
1F
100
AcDbEntity
  8
枠
  6
EXLTYPE1
 62
     6
100
AcDbLine
 10
0.0
 20
1485.0
 30
0.0
 11
180.0
 21
1485.0
 31
0.0
  0
TEXT
  5
135
330
1F
100
AcDbEntity
  8
枠
  6
CONTINUOUS
 62
     6
100
AcDbText
 10
212.5000001192124
 20
170.0
 30
0.0
 40
50.0
  1
川野
 41
1.096586909090909
  7
EXCADSTD
 72
     5
 11
298.6604001192123
 21
170.0
 31
0.0
100
AcDbText
  0
TEXT
  5
136
330
1F
100
AcDbEntity
  8
枠
  6
CONTINUOUS
 62
     6
100
AcDbText
 10
188.1441162000001
 20
94.45007320000005
 30
0.0
 40
30.0
  1
'22
 41
0.4689784042553192
  7
EXCADSTD
 72
     5
 11
219.6326662000001
 21
94.45007320000005
 31
0.0
100
AcDbText
  0
TEXT
  5
137
330
1F
100
AcDbEntity
  8
枠
  6
CONTINUOUS
 62
     2
100
AcDbText
 10
955.0
 20
215.0
 30
0.0
 40
60.0
  1
多目的流し
 41
1.126436781609195
  7
EXCADSTD
 72
     5
 11
1235.0
 21
215.0
 31
0.0
100
AcDbText
  0
TEXT
  5
138
330
1F
100
AcDbEntity
  8
枠
  6
CONTINUOUS
 62
     2
100
AcDbText
 10
1495.0
 20
215.0
 30
0.0
 40
60.0
  1
Ｓ４４０Ａ
 41
1.045977011494253
  7
EXCADSTD
 72
     5
 11
1755.0
 21
215.0
 31
0.0
100
AcDbText
  0
LINE
  5
139
330
1F
100
AcDbEntity
  8
枠
  6
CONTINUOUS
 62
     7
100
AcDbLine
 10
180.0
 20
85.0
 30
0.0
 11
2000.0
 21
85.0
 31
0.0
  0
LINE
  5
13A
330
1F
100
AcDbEntity
  8
枠
  6
CONTINUOUS
 62
     7
100
AcDbLine
 10
1720.0
 20
555.0
 30
0.0
 11
1720.0
 21
1939.0
 31
0.0
  0
LINE
  5
13B
330
1F
100
AcDbEntity
  8
枠
  6
CONTINUOUS
 62
     7
100
AcDbLine
 10
1170.0
 20
555.0
 30
0.0
 11
1720.0
 21
555.0
 31
0.0
  0
LINE
  5
13C
330
1F
100
AcDbEntity
  8
枠
  6
CONTINUOUS
 62
     7
100
AcDbLine
 10
280.0
 20
555.0
 30
0.0
 11
1080.0
 21
555.0000000000001
 31
0.0
  0
TEXT
  5
13D
330
1F
100
AcDbEntity
  8
枠
  6
CONTINUOUS
 62
     2
100
AcDbText
 10
1902.799999999983
 20
2687.499028864574
 30
0.0
 40
40.0
  1
１
 41
1.12
  7
EXCADSTD
 72
     5
 11
1934.799999999983
 21
2687.499028864574
 31
0.0
100
AcDbText
  0
TEXT
  5
13E
330
1F
100
AcDbEntity
  8
枠
  6
CONTINUOUS
 62
     2
100
AcDbText
 10
1882.594125766606
 20
2738.706474288304
 30
0.0
 40
40.0
  1
個数
 41
1.195746363636364
  7
EXCADSTD
 72
     5
 11
1957.755325766606
 21
2738.706474288304
 31
0.0
100
AcDbText
  0
TEXT
  5
13F
330
1F
100
AcDbEntity
  8
枠
  6
CONTINUOUS
 62
     2
100
AcDbText
 10
1902.799999999983
 20
2581.498380805176
 30
0.0
 40
40.0
  1
１
 41
1.12
  7
EXCADSTD
 72
     5
 11
1934.799999999983
 21
2581.498380805176
 31
0.0
100
AcDbText
  0
TEXT
  5
140
330
1F
100
AcDbEntity
  8
枠
  6
CONTINUOUS
 62
     2
100
AcDbText
 10
1902.799999999983
 20
2634.498704834875
 30
0.0
 40
40.0
  1
１
 41
1.12
  7
EXCADSTD
 72
     5
 11
1934.799999999983
 21
2634.498704834875
 31
0.0
100
AcDbText
  0
LINE
  5
141
330
1F
100
AcDbEntity
  8
枠
  6
CONTINUOUS
 62
     6
100
AcDbLine
 10
1243.00292969998
 20
2574.998055821801
 30
0.0
 11
1969.999999999981
 21
2574.998055821801
 31
0.0
  0
LINE
  5
142
330
1F
100
AcDbEntity
  8
枠
  6
CONTINUOUS
 62
     6
100
AcDbLine
 10
1243.00292969998
 20
2627.9983798515
 30
0.0
 11
1969.999999999981
 21
2627.9983798515
 31
0.0
  0
LINE
  5
143
330
1F
100
AcDbEntity
  8
枠
  6
CONTINUOUS
 62
     6
100
AcDbLine
 10
1243.00292969998
 20
2786.9993519406
 30
0.0
 11
1969.999999999981
 21
2786.9993519406
 31
0.0
  0
LINE
  5
144
330
1F
100
AcDbEntity
  8
枠
  6
CONTINUOUS
 62
     6
100
AcDbLine
 10
1243.00292969998
 20
2680.998703881201
 30
0.0
 11
1969.999999999981
 21
2680.998703881201
 31
0.0
  0
LINE
  5
145
330
1F
100
AcDbEntity
  8
枠
  6
CONTINUOUS
 62
     6
100
AcDbLine
 10
1243.00292969998
 20
2733.9990279109
 30
0.0
 11
1969.999999999981
 21
2733.9990279109
 31
0.0
  0
TEXT
  5
146
330
1F
100
AcDbEntity
  8
枠
  6
CONTINUOUS
 62
     2
100
AcDbText
 10
1247.002929699982
 20
2634.498704834875
 30
0.0
 40
40.0
  1
Ｋ１１１
 41
0.9891304347826085
  7
EXCADSTD
 72
     5
 11
1377.002929699982
 21
2634.498704834875
 31
0.0
100
AcDbText
  0
TEXT
  5
147
330
1F
100
AcDbEntity
  8
枠
  6
CONTINUOUS
 62
     2
100
AcDbText
 10
1576.099999761565
 20
2634.498704834875
 30
0.0
 40
40.0
  1
横水栓
 41
1.132352941176471
  7
EXCADSTD
 72
     5
 11
1686.099999761565
 21
2634.498704834875
 31
0.0
100
AcDbText
  0
TEXT
  5
148
330
1F
100
AcDbEntity
  8
枠
  6
CONTINUOUS
 62
     2
100
AcDbText
 10
1576.099999761565
 20
2581.498380805175
 30
0.0
 40
40.0
  1
Ｐトラップ
 41
1.086206896551724
  7
EXCADSTD
 72
     5
 11
1756.099999761565
 21
2581.498380805175
 31
0.0
100
AcDbText
  0
TEXT
  5
149
330
1F
100
AcDbEntity
  8
枠
  6
CONTINUOUS
 62
     2
100
AcDbText
 10
1576.099999761565
 20
2528.498056775475
 30
0.0
 40
40.0
  1
化粧頭付木ねじ
 41
1.067073170731707
  7
EXCADSTD
 72
     5
 11
1826.099999761565
 21
2528.498056775475
 31
0.0
100
AcDbText
  0
TEXT
  5
14A
330
1F
100
AcDbEntity
  8
枠
  6
CONTINUOUS
 62
     2
100
AcDbText
 10
1902.799999999983
 20
2528.498056775475
 30
0.0
 40
40.0
  1
３
 41
1.12
  7
EXCADSTD
 72
     5
 11
1934.799999999983
 21
2528.498056775475
 31
0.0
100
AcDbText
  0
LINE
  5
14B
330
1F
100
AcDbEntity
  8
枠
  6
CONTINUOUS
 62
     6
100
AcDbLine
 10
1243.00292969998
 20
2521.997731792101
 30
0.0
 11
1969.999999999981
 21
2521.997731792101
 31
0.0
  0
TEXT
  5
14C
330
1F
100
AcDbEntity
  8
枠
  6
CONTINUOUS
 62
     2
100
AcDbText
 10
1332.594125707001
 20
2738.706474288304
 30
0.0
 40
40.0
  1
品番
 41
2.18734090909091
  7
EXCADSTD
 72
     5
 11
1470.084125707001
 21
2738.706474288304
 31
0.0
100
AcDbText
  0
TEXT
  5
14D
330
1F
100
AcDbEntity
  8
枠
  6
CONTINUOUS
 62
     2
100
AcDbText
 10
1646.094125707001
 20
2738.706474288304
 30
0.0
 40
40.0
  1
品名
 41
2.18734090909091
  7
EXCADSTD
 72
     5
 11
1783.584125707001
 21
2738.706474288304
 31
0.0
100
AcDbText
  0
TEXT
  5
14E
330
1F
100
AcDbEntity
  8
枠
  6
CONTINUOUS
 62
     2
100
AcDbText
 10
1271.99999999998
 20
2795.999351940601
 30
0.0
 40
50.0
  1
器具明細
 41
2.556521739130435
  7
EXCADSTD
 72
     5
 11
1691.99999999998
 21
2795.999351940601
 31
0.0
100
AcDbText
  0
TEXT
  5
14F
330
1F
100
AcDbEntity
  8
枠
  6
CONTINUOUS
 62
     2
100
AcDbText
 10
1576.099999761565
 20
2687.499028864574
 30
0.0
 40
40.0
  1
多目的流し
 41
1.086206896551724
  7
EXCADSTD
 72
     5
 11
1756.099999761565
 21
2687.499028864574
 31
0.0
100
AcDbText
  0
TEXT
  5
150
330
1F
100
AcDbEntity
  8
枠
  6
CONTINUOUS
 62
     2
100
AcDbText
 10
1247.002929699982
 20
2581.498380805176
 30
0.0
 40
40.0
  1
ＮＬ３ＡＰ１９０Ｔ１
 41
0.9194915254237289
  7
EXCADSTD
 72
     5
 11
1557.002929699982
 21
2581.498380805176
 31
0.0
100
AcDbText
  0
TEXT
  5
151
330
1F
100
AcDbEntity
  8
枠
  6
CONTINUOUS
 62
     2
100
AcDbText
 10
1247.002929699982
 20
2528.498056775475
 30
0.0
 40
40.0
  1
ＮＴ７ＣＢＷ１
 41
0.9390243902439025
  7
EXCADSTD
 72
     5
 11
1467.002929699982
 21
2528.498056775475
 31
0.0
100
AcDbText
  0
TEXT
  5
152
330
1F
100
AcDbEntity
  8
枠
  6
CONTINUOUS
 62
     2
100
AcDbText
 10
1247.002929699982
 20
2687.499028864574
 30
0.0
 40
40.0
  1
Ｓ４４０Ａ ＢＷ１
 41
0.8425925925925927
  7
EXCADSTD
 72
     5
 11
1507.002929699982
 21
2687.499028864574
 31
0.0
100
AcDbText
  0
TEXT
  5
153
330
1F
100
AcDbEntity
  8
枠
  6
CONTINUOUS
 62
     6
100
AcDbText
 10
249.0691160569489
 20
94.45007320000002
 30
0.0
 40
30.0
  1
6
 41
0.4683823529411765
  7
EXCADSTD
 72
     5
 11
260.4441160569489
 21
94.45007320000002
 31
0.0
100
AcDbText
  0
TEXT
  5
154
330
1F
100
AcDbEntity
  8
枠
  6
CONTINUOUS
 62
     6
100
AcDbText
 10
293.8941159138977
 20
93.95007320000002
 30
0.0
 40
30.0
  1
30
 41
0.408648648648649
  7
EXCADSTD
 72
     5
 11
315.4941159138978
 21
93.95007320000002
 31
0.0
100
AcDbText
  0
LINE
  5
155
330
1F
100
AcDbEntity
  8
枠
  6
CONTINUOUS
 62
     6
100
AcDbLine
 10
1243.002929699981
 20
2362.996759703001
 30
0.0
 11
1969.999999999981
 21
2362.996759703001
 31
0.0
  0
TEXT
  5
156
330
1F
100
AcDbEntity
  8
枠
  6
CONTINUOUS
 62
     2
100
AcDbText
 10
1902.799999999983
 20
2316.496760656675
 30
0.0
 40
40.0
  1
１
 41
1.12
  7
EXCADSTD
 72
     5
 11
1934.799999999983
 21
2316.496760656675
 31
0.0
100
AcDbText
  0
LINE
  5
157
330
1F
100
AcDbEntity
  8
枠
  6
CONTINUOUS
 62
     6
100
AcDbLine
 10
1243.002929699981
 20
2309.996435673301
 30
0.0
 11
1969.999999999981
 21
2309.996435673301
 31
0.0
  0
TEXT
  5
158
330
1F
100
AcDbEntity
  8
枠
  6
CONTINUOUS
 62
     2
100
AcDbText
 10
1247.002929699982
 20
2369.497084686374
 30
0.0
 40
40.0
  1
Ｓトラップの場合
 41
1.061170212765957
  7
EXCADSTD
 72
     5
 11
1532.002929699982
 21
2369.497084686374
 31
0.0
100
AcDbText
  0
TEXT
  5
159
330
1F
100
AcDbEntity
  8
枠
  6
CONTINUOUS
 62
     2
100
AcDbText
 10
1247.002929699983
 20
2316.496760656675
 30
0.0
 40
40.0
  1
ＮＬ３ＡＳＴ２
 41
0.9390243902439025
  7
EXCADSTD
 72
     5
 11
1467.002929699983
 21
2316.496760656675
 31
0.0
100
AcDbText
  0
TEXT
  5
15A
330
1F
100
AcDbEntity
  8
枠
  6
CONTINUOUS
 62
     2
100
AcDbText
 10
1574.999999999983
 20
2316.496760656674
 30
0.0
 40
40.0
  1
Ｓトラップ
 41
1.086206896551724
  7
EXCADSTD
 72
     5
 11
1754.999999999983
 21
2316.496760656674
 31
0.0
100
AcDbText
  0
TEXT
  5
15B
330
1F
100
AcDbEntity
  8
枠
  6
CONTINUOUS
 62
     2
100
AcDbText
 10
1902.799999999983
 20
2263.496436626975
 30
0.0
 40
40.0
  1
１
 41
1.12
  7
EXCADSTD
 72
     5
 11
1934.799999999983
 21
2263.496436626975
 31
0.0
100
AcDbText
  0
LINE
  5
15C
330
1F
100
AcDbEntity
  8
枠
  6
CONTINUOUS
 62
     6
100
AcDbLine
 10
1243.002929699981
 20
2256.996111643601
 30
0.0
 11
1969.999999999981
 21
2256.996111643601
 31
0.0
  0
TEXT
  5
15D
330
1F
100
AcDbEntity
  8
枠
  6
CONTINUOUS
 62
     2
100
AcDbText
 10
1902.799999999983
 20
2475.497732745775
 30
0.0
 40
40.0
  1
１
 41
1.12
  7
EXCADSTD
 72
     5
 11
1934.799999999983
 21
2475.497732745775
 31
0.0
100
AcDbText
  0
LINE
  5
15E
330
1F
100
AcDbEntity
  8
枠
  6
CONTINUOUS
 62
     6
100
AcDbLine
 10
1243.002929699981
 20
2468.997407762401
 30
0.0
 11
1969.999999999981
 21
2468.997407762401
 31
0.0
  0
LINE
  5
15F
330
1F
100
AcDbEntity
  8
枠
  6
CONTINUOUS
 62
     6
100
AcDbLine
 10
1243.00292969998
 20
2786.9993519406
 30
0.0
 11
1243.00292969998
 21
2468.997407762401
 31
0.0
  0
LINE
  5
160
330
1F
100
AcDbEntity
  8
枠
  6
CONTINUOUS
 62
     6
100
AcDbLine
 10
1560.999999999982
 20
2786.9993519406
 30
0.0
 11
1560.999999999982
 21
2468.997407762401
 31
0.0
  0
LINE
  5
161
330
1F
100
AcDbEntity
  8
枠
  6
CONTINUOUS
 62
     6
100
AcDbLine
 10
1869.999999999981
 20
2786.9993519406
 30
0.0
 11
1869.999999999981
 21
2468.997407762401
 31
0.0
  0
LINE
  5
162
330
1F
100
AcDbEntity
  8
枠
  6
CONTINUOUS
 62
     6
100
AcDbLine
 10
1969.999999999981
 20
2468.9974077624
 30
0.0
 11
1969.999999999981
 21
2786.9993519406
 31
0.0
  0
LINE
  5
163
330
1F
100
AcDbEntity
  8
枠
  6
CONTINUOUS
 62
     6
100
AcDbLine
 10
1969.999999999981
 20
2256.996111643601
 30
0.0
 11
1969.999999999981
 21
2362.996759703001
 31
0.0
  0
LINE
  5
164
330
1F
100
AcDbEntity
  8
枠
  6
CONTINUOUS
 62
     6
100
AcDbLine
 10
1869.999999999981
 20
2362.996759703001
 30
0.0
 11
1869.999999999981
 21
2256.996111643601
 31
0.0
  0
LINE
  5
165
330
1F
100
AcDbEntity
  8
枠
  6
CONTINUOUS
 62
     6
100
AcDbLine
 10
1560.999999999982
 20
2362.996759703001
 30
0.0
 11
1560.999999999982
 21
2256.996111643601
 31
0.0
  0
LINE
  5
166
330
1F
100
AcDbEntity
  8
枠
  6
CONTINUOUS
 62
     6
100
AcDbLine
 10
1243.00292969998
 20
2362.996759703001
 30
0.0
 11
1243.00292969998
 21
2256.996111643601
 31
0.0
  0
TEXT
  5
167
330
1F
100
AcDbEntity
  8
枠
  6
CONTINUOUS
 62
     2
100
AcDbText
 10
1247.002929699983
 20
2475.497732745775
 30
0.0
 40
40.0
  1
ＬＵＭＥＨ７０－２００－３２Ｂ
 41
0.6095505617977529
  7
EXCADSTD
 72
     5
 11
1557.002929699983
 21
2475.497732745775
 31
0.0
100
AcDbText
  0
TEXT
  5
168
330
1F
100
AcDbEntity
  8
枠
  6
CONTINUOUS
 62
     2
100
AcDbText
 10
1574.999999999983
 20
2475.497732745774
 30
0.0
 40
40.0
  1
配管用アダプタ－
 41
1.061170212765957
  7
EXCADSTD
 72
     5
 11
1859.999999999983
 21
2475.497732745774
 31
0.0
100
AcDbText
  0
TEXT
  5
169
330
1F
100
AcDbEntity
  8
枠
  6
CONTINUOUS
 62
     2
100
AcDbText
 10
1247.002929699983
 20
2263.496436626975
 30
0.0
 40
40.0
  1
ＬＵＭＥＨ７０－２００－３２Ｂ
 41
0.6095505617977529
  7
EXCADSTD
 72
     5
 11
1557.002929699983
 21
2263.496436626975
 31
0.0
100
AcDbText
  0
TEXT
  5
16A
330
1F
100
AcDbEntity
  8
枠
  6
CONTINUOUS
 62
     2
100
AcDbText
 10
1574.999999999983
 20
2263.496436626974
 30
0.0
 40
40.0
  1
配管用アダプタ－
 41
1.061170212765957
  7
EXCADSTD
 72
     5
 11
1859.999999999983
 21
2263.496436626974
 31
0.0
100
AcDbText
  0
TEXT
  5
16B
330
1F
100
AcDbEntity
  8
枠
  6
CONTINUOUS
 62
     2
100
AcDbText
 10
1168.897305461
 20
621.06431065652
 30
0.0
 40
40.0
  1
ＬＵＭＥＨ７０－２００－３２Ｂ
 41
0.7570224719101125
  7
EXCADSTD
 72
     5
 11
1553.897305461
 21
621.06431065652
 31
0.0
100
AcDbText
  0
LEADER
  5
16C
330
1F
100
AcDbEntity
  8
枠
  6
CONTINUOUS
 62
     3
100
AcDbLeader
  3
ISO-25
 76
     3
 10
1635.999999999998
 20
565.9999999999969
 30
0.0
 10
1546.875
 20
617.4563263119203
 30
0.0
 10
1175.0
 20
617.4563263119203
 30
0.0
1001
ACAD
1000
DSTYLE
1002
{
1070
     5
1000
EX_NORM
1070
    41
1040
30.0
1070
   341
1005
4E
1002
}
  0
LEADER
  5
16D
330
1F
100
AcDbEntity
  8
枠
  6
CONTINUOUS
 62
     3
100
AcDbLeader
  3
ISO-25
 76
     3
 10
1634.5
 20
530.0
 30
0.0
 10
1595.0
 20
462.0
 30
0.0
 10
1402.0
 20
462.0
 30
0.0
1001
ACAD
1000
DSTYLE
1002
{
1070
     5
1000
EX_NORM
1070
    41
1040
30.0
1070
   341
1005
4E
1002
}
  0
TEXT
  5
16E
330
1F
100
AcDbEntity
  8
枠
  6
CONTINUOUS
 62
     7
100
AcDbText
 10
1475.0
 20
101.5
 30
0.0
 40
70.0
  1
Ｓ０４４００８６
 41
1.042553191489362
  7
EXCADSTD
 72
     5
 11
1965.0
 21
101.5
 31
0.0
100
AcDbText
  0
LINE
  5
16F
330
1F
100
AcDbEntity
  8
流し
  6
CONTINUOUS
 62
     7
100
AcDbLine
 10
1718.73302851
 20
1475.0
 30
0.0
 11
1720.0
 21
1475.0
 31
0.0
  0
LINE
  5
170
330
1F
100
AcDbEntity
  8
流し
  6
CONTINUOUS
 62
     6
100
AcDbLine
 10
1720.0
 20
1432.0
 30
0.0
 11
1735.8585715715
 21
1432.0
 31
0.0
  0
ARC
  5
171
330
1F
100
AcDbEntity
  8
流し
  6
CONTINUOUS
 62
     6
100
AcDbCircle
 10
1735.8585715715
 20
1442.0
 30
0.0
 40
9.999999999969283
100
AcDbArc
 50
270.0000000000002
 51
315.5729959990221
  0
ARC
  5
172
330
1F
100
AcDbEntity
  8
流し
  6
CONTINUOUS
 62
     6
100
AcDbCircle
 10
1735.8585715715
 20
1428.0
 30
0.0
 40
9.999999999969283
100
AcDbArc
 50
44.42700400097902
 51
90.00000000000001
  0
LINE
  5
173
330
1F
100
AcDbEntity
  8
流し
  6
CONTINUOUS
 62
     6
100
AcDbLine
 10
1735.8585715715
 20
1438.0
 30
0.0
 11
1720.0
 21
1438.0
 31
0.0
  0
ARC
  5
174
330
1F
100
AcDbEntity
  8
流し
  6
CONTINUOUS
 62
     2
100
AcDbCircle
 10
1328.0
 20
1357.0
 30
0.0
 40
8.0
100
AcDbArc
 50
96.25699104
 51
185.70575971
  0
ARC
  5
175
330
1F
100
AcDbEntity
  8
流し
  6
CONTINUOUS
 62
     2
100
AcDbCircle
 10
1294.43164501
 20
1663.16525855
 30
0.0
 40
300.0000000000003
100
AcDbArc
 50
276.2569910399999
 51
278.3269757400001
  0
ARC
  5
176
330
1F
100
AcDbEntity
  8
流し
  6
CONTINUOUS
 62
     2
100
AcDbCircle
 10
1381.3248864
 20
1069.49062998
 30
0.0
 40
300.0000000000003
100
AcDbArc
 50
92.00674356
 51
98.32697573999995
  0
ARC
  5
177
330
1F
100
AcDbEntity
  8
流し
  6
CONTINUOUS
 62
     2
100
AcDbCircle
 10
1416.83125761
 20
1200.27050304
 30
0.0
 40
61.00000000000004
100
AcDbArc
 50
200.18876803
 51
264.0000000000001
  0
ARC
  5
178
330
1F
100
AcDbEntity
  8
流し
  6
CONTINUOUS
 62
     2
100
AcDbCircle
 10
2017.212731817
 20
1419.046839579
 30
0.0
 40
700.0
100
AcDbArc
 50
185.1442236536
 51
200.0215151656
  0
LINE
  5
179
330
1F
100
AcDbEntity
  8
流し
  6
CONTINUOUS
 62
     2
100
AcDbLine
 10
1410.45502135
 20
1139.60466742
 30
0.0
 11
1534.58574412
 21
1126.55800273
 31
0.0
  0
ARC
  5
17A
330
1F
100
AcDbEntity
  8
流し
  6
CONTINUOUS
 62
     2
100
AcDbCircle
 10
1533.74951641
 20
1118.60182757
 30
0.0
 40
8.0
100
AcDbArc
 50
15.52865100999989
 51
83.99999999999996
  0
LINE
  5
17B
330
1F
100
AcDbEntity
  8
流し
  6
CONTINUOUS
 62
     2
100
AcDbLine
 10
1549.18610577
 20
1092.92911916
 30
0.0
 11
1541.45749
 21
1120.74358925
 31
0.0
  0
ARC
  5
17C
330
1F
100
AcDbEntity
  8
流し
  6
CONTINUOUS
 62
     2
100
AcDbCircle
 10
1553.04009257
 20
1094.0
 30
0.0
 40
4.0
100
AcDbArc
 50
195.52865101
 51
270.0000000000002
  0
LINE
  5
17D
330
1F
100
AcDbEntity
  8
流し
  6
CONTINUOUS
 62
     2
100
AcDbLine
 10
1553.04009257
 20
1090.0
 30
0.0
 11
1626.95990742
 21
1090.0
 31
0.0
  0
ARC
  5
17E
330
1F
100
AcDbEntity
  8
流し
  6
CONTINUOUS
 62
     2
100
AcDbCircle
 10
1626.95990742
 20
1094.0
 30
0.0
 40
4.0
100
AcDbArc
 50
270.0000000000002
 51
326.7756116000004
  0
ARC
  5
17F
330
1F
100
AcDbEntity
  8
流し
  6
CONTINUOUS
 62
     2
100
AcDbCircle
 10
1633.65215673
 20
1089.6166452
 30
0.0
 40
4.0
100
AcDbArc
 50
124.62701349
 51
146.7756116
  0
LINE
  5
180
330
1F
100
AcDbEntity
  8
流し
  6
CONTINUOUS
 62
     2
100
AcDbLine
 10
1631.37922965
 20
1092.90811942
 30
0.0
 11
1705.73687758
 21
1144.25541466
 31
0.0
  0
ARC
  5
181
330
1F
100
AcDbEntity
  8
流し
  6
CONTINUOUS
 62
     2
100
AcDbCircle
 10
1725.62489284
 20
1115.45494853
 30
0.0
 40
35.00000000000002
100
AcDbArc
 50
99.24818060999999
 51
124.62682117
  0
ARC
  5
182
330
1F
100
AcDbEntity
  8
流し
  6
CONTINUOUS
 62
     2
100
AcDbCircle
 10
1353.31118867
 20
1869.0
 30
0.0
 40
500.0000000000003
100
AcDbArc
 50
272.0067435600001
 51
300.5547192600001
  0
ARC
  5
183
330
1F
100
AcDbEntity
  8
流し
  6
CONTINUOUS
 62
     2
100
AcDbCircle
 10
1760.0
 20
1180.08475794
 30
0.0
 40
300.0000000000003
100
AcDbArc
 50
104.04872042
 51
120.55472032
  0
ARC
  5
184
330
1F
100
AcDbEntity
  8
流し
  6
CONTINUOUS
 62
     2
100
AcDbCircle
 10
1718.73302851
 20
1345.0
 30
0.0
 40
130.0000000000001
100
AcDbArc
 50
90.00000000000001
 51
104.0487209999999
  0
ARC
  5
185
330
1F
100
AcDbEntity
  8
流し
  6
CONTINUOUS
 62
     4
100
AcDbCircle
 10
1590.0
 20
4137.696344
 30
0.0
 40
3000.0
100
AcDbArc
 50
266.6607514200002
 51
271.0104242500003
  0
ARC
  5
186
330
1F
100
AcDbEntity
  8
流し
  6
CONTINUOUS
 62
     4
100
AcDbCircle
 10
1590.0
 20
3125.81379522
 30
0.0
 40
2000.000000000001
100
AcDbArc
 50
268.7454177400001
 51
271.2799421700004
  0
ARC
  5
187
330
1F
100
AcDbEntity
  8
流し
  6
CONTINUOUS
 62
     4
100
AcDbCircle
 10
1625.01843613
 20
1175.18216904
 30
0.0
 40
50.00000000000001
100
AcDbArc
 50
283.6400884600002
 51
333.4535482600002
  0
LINE
  5
188
330
1F
100
AcDbEntity
  8
流し
  6
CONTINUOUS
 62
     4
100
AcDbLine
 10
1720.0
 20
1160.0
 30
0.0
 11
1648.58868252
 21
1149.81969951
 31
0.0
  0
ARC
  5
189
330
1F
100
AcDbEntity
  8
流し
  6
CONTINUOUS
 62
     4
100
AcDbCircle
 10
1650.0
 20
1139.91979128
 30
0.0
 40
10.0
100
AcDbArc
 50
98.11334090999996
 51
138.49017459
  0
ARC
  5
18A
330
1F
100
AcDbEntity
  8
流し
  6
CONTINUOUS
 62
     4
100
AcDbCircle
 10
1634.45132065
 20
1136.31031946
 30
0.0
 40
10.0
100
AcDbArc
 50
271.2799421700004
 51
283.6400884600002
  0
LINE
  5
18B
330
1F
100
AcDbEntity
  8
流し
  6
CONTINUOUS
 62
     4
100
AcDbLine
 10
1631.5855564
 20
1098.61810655
 30
0.0
 11
1638.00113253
 21
1121.70708595
 31
0.0
  0
CIRCLE
  5
18C
330
1F
100
AcDbEntity
  8
流し
  6
CONTINUOUS
 62
     6
100
AcDbCircle
 10
760.0
 20
1395.0
 30
0.0
 40
7.500000000000004
  0
ARC
  5
18D
330
1F
100
AcDbEntity
  8
流し
  6
CONTINUOUS
 62
     6
100
AcDbCircle
 10
759.8000000000001
 20
1388.57873982
 30
0.0
 40
10.9999412
100
AcDbArc
 50
129.6135689135001
 51
46.81845464496998
  0
ARC
  5
18E
330
1F
100
AcDbEntity
  8
流し
  6
CONTINUOUS
 62
     6
100
AcDbCircle
 10
759.8000000000001
 20
1388.57873982
 30
0.0
 40
8.700042700000004
100
AcDbArc
 50
145.31921336
 51
29.38278698823992
  0
CIRCLE
  5
18F
330
1F
100
AcDbEntity
  8
流し
  6
CONTINUOUS
 62
     6
100
AcDbCircle
 10
759.25271726
 20
1370.56008752
 30
0.0
 40
2.5
  0
CIRCLE
  5
190
330
1F
100
AcDbEntity
  8
流し
  6
CONTINUOUS
 62
     6
100
AcDbCircle
 10
759.6140453600001
 20
1376.36086872
 30
0.0
 40
2.5
  0
CIRCLE
  5
191
330
1F
100
AcDbEntity
  8
流し
  6
CONTINUOUS
 62
     6
100
AcDbCircle
 10
820.0
 20
1435.0
 30
0.0
 40
7.500000000000004
  0
CIRCLE
  5
192
330
1F
100
AcDbEntity
  8
流し
  6
CONTINUOUS
 62
     6
100
AcDbCircle
 10
680.0
 20
1435.0
 30
0.0
 40
7.500000000000004
  0
CIRCLE
  5
193
330
1F
100
AcDbEntity
  8
流し
  6
CONTINUOUS
 62
     6
100
AcDbCircle
 10
540.0
 20
1435.0
 30
0.0
 40
7.500000000000004
  0
LINE
  5
194
330
1F
100
AcDbEntity
  8
流し
  6
EXLTYPE3
 62
     6
100
AcDbLine
 10
540.0
 20
1450.74342524
 30
0.0
 11
540.0
 21
1419.26972593
 31
0.0
  0
LINE
  5
195
330
1F
100
AcDbEntity
  8
流し
  6
EXLTYPE3
 62
     6
100
AcDbLine
 10
555.7434252400001
 20
1435.0
 30
0.0
 11
524.26972593
 21
1435.0
 31
0.0
  0
LINE
  5
196
330
1F
100
AcDbEntity
  8
流し
  6
EXLTYPE3
 62
     6
100
AcDbLine
 10
664.8194049900001
 20
1435.0
 30
0.0
 11
695.3157784
 21
1435.0
 31
0.0
  0
LINE
  5
197
330
1F
100
AcDbEntity
  8
流し
  6
EXLTYPE3
 62
     6
100
AcDbLine
 10
680.0
 20
1450.74342524
 30
0.0
 11
680.0
 21
1419.26972593
 31
0.0
  0
LINE
  5
198
330
1F
100
AcDbEntity
  8
流し
  6
EXLTYPE3
 62
     6
100
AcDbLine
 10
804.2565747599999
 20
1435.0
 30
0.0
 11
835.73027407
 21
1435.0
 31
0.0
  0
LINE
  5
199
330
1F
100
AcDbEntity
  8
流し
  6
EXLTYPE3
 62
     6
100
AcDbLine
 10
820.0
 20
1450.74342524
 30
0.0
 11
820.0
 21
1419.26972593
 31
0.0
  0
ARC
  5
19A
330
1F
100
AcDbEntity
  8
流し
  6
CONTINUOUS
 62
     2
100
AcDbCircle
 10
498.65483225
 20
1424.3847183
 30
0.0
 40
50.00000000000001
100
AcDbArc
 50
226.1291764500001
 51
253.8800141500002
  0
ARC
  5
19B
330
1F
100
AcDbEntity
  8
流し
  6
CONTINUOUS
 62
     2
100
AcDbCircle
 10
491.5
 20
1452.97847538
 30
0.0
 40
9.0
100
AcDbArc
 50
100.20488723
 51
180.0
  0
LINE
  5
19C
330
1F
100
AcDbEntity
  8
流し
  6
CONTINUOUS
 62
     2
100
AcDbLine
 10
482.5
 20
1377.02194722
 30
0.0
 11
482.5
 21
1452.97847538
 31
0.0
  0
ARC
  5
19D
330
1F
100
AcDbEntity
  8
流し
  6
CONTINUOUS
 62
     2
100
AcDbCircle
 10
465.5
 20
1467.0
 30
0.0
 40
8.0
100
AcDbArc
 50
90.00000000000001
 51
180.0
  0
LINE
  5
19E
330
1F
100
AcDbEntity
  8
流し
  6
CONTINUOUS
 62
     2
100
AcDbLine
 10
457.5
 20
1424.603333859
 30
0.0
 11
457.5
 21
1467.0
 31
0.0
  0
ARC
  5
19F
330
1F
100
AcDbEntity
  8
流し
  6
CONTINUOUS
 62
     2
100
AcDbCircle
 10
525.33921975
 20
1265.0
 30
0.0
 40
200.0
100
AcDbArc
 50
90.00000000000001
 51
100.20488723
  0
LINE
  5
1A0
330
1F
100
AcDbEntity
  8
流し
  6
CONTINUOUS
 62
     2
100
AcDbLine
 10
465.5
 20
1475.0
 30
0.0
 11
894.5
 21
1475.0
 31
0.0
  0
ARC
  5
1A1
330
1F
100
AcDbEntity
  8
流し
  6
CONTINUOUS
 62
     2
100
AcDbCircle
 10
1157.5
 20
1424.603333859
 30
0.0
 40
700.0
100
AcDbArc
 50
180.0
 51
201.6436608827001
  0
ARC
  5
1A2
330
1F
100
AcDbEntity
  8
流し
  6
CONTINUOUS
 62
     2
100
AcDbCircle
 10
540.3022983799999
 20
1568.48707277
 30
0.0
 40
200.0
100
AcDbArc
 50
253.8800141500002
 51
267.1402096100002
  0
LINE
  5
1A3
330
1F
100
AcDbEntity
  8
流し
  6
CONTINUOUS
 62
     2
100
AcDbLine
 10
525.33921975
 20
1465.0
 30
0.0
 11
834.66078025
 21
1465.0
 31
0.0
  0
ARC
  5
1A4
330
1F
100
AcDbEntity
  8
流し
  6
CONTINUOUS
 62
     2
100
AcDbCircle
 10
680.0
 20
4365.0
 30
0.0
 40
3000.0
100
AcDbArc
 50
267.1402096100002
 51
272.8597903879
  0
ARC
  5
1A5
330
1F
100
AcDbEntity
  8
流し
  6
CONTINUOUS
 62
     2
100
AcDbCircle
 10
819.6977016200001
 20
1568.48707277
 30
0.0
 40
200.0
100
AcDbArc
 50
272.8597903900002
 51
286.1199858500001
  0
ARC
  5
1A6
330
1F
100
AcDbEntity
  8
流し
  6
CONTINUOUS
 62
     2
100
AcDbCircle
 10
861.34516775
 20
1424.3847183
 30
0.0
 40
50.00000000000001
100
AcDbArc
 50
286.1199858500001
 51
313.8708235500002
  0
LINE
  5
1A7
330
1F
100
AcDbEntity
  8
流し
  6
CONTINUOUS
 62
     2
100
AcDbLine
 10
877.5
 20
1377.066419567
 30
0.0
 11
877.5
 21
1452.97847538
 31
0.0
  0
ARC
  5
1A8
330
1F
100
AcDbEntity
  8
流し
  6
CONTINUOUS
 62
     2
100
AcDbCircle
 10
834.66078025
 20
1265.0
 30
0.0
 40
200.0
100
AcDbArc
 50
79.79511276999996
 51
90.00000000000001
  0
ARC
  5
1A9
330
1F
100
AcDbEntity
  8
流し
  6
CONTINUOUS
 62
     2
100
AcDbCircle
 10
868.5
 20
1452.97847538
 30
0.0
 40
9.0
100
AcDbArc
 50
0.0
 51
79.79511276999996
  0
ARC
  5
1AA
330
1F
100
AcDbEntity
  8
流し
  6
CONTINUOUS
 62
     2
100
AcDbCircle
 10
894.5
 20
1467.0
 30
0.0
 40
8.0
100
AcDbArc
 50
0.0
 51
90.00000000000001
  0
ARC
  5
1AB
330
1F
100
AcDbEntity
  8
流し
  6
CONTINUOUS
 62
     2
100
AcDbCircle
 10
202.5
 20
1424.603333859
 30
0.0
 40
700.0
100
AcDbArc
 50
338.3563391173003
 51
0.0
  0
LINE
  5
1AC
330
1F
100
AcDbEntity
  8
流し
  6
CONTINUOUS
 62
     2
100
AcDbLine
 10
902.5
 20
1424.603333859
 30
0.0
 11
902.5
 21
1467.0
 31
0.0
  0
ARC
  5
1AD
330
1F
100
AcDbEntity
  8
流し
  6
CONTINUOUS
 62
     2
100
AcDbCircle
 10
554.2572936700001
 20
1185.23074299
 30
0.0
 40
51.00000000000004
100
AcDbArc
 50
201.6436608827001
 51
264.0000000000001
  0
LINE
  5
1AE
330
1F
100
AcDbEntity
  8
流し
  6
CONTINUOUS
 62
     2
100
AcDbLine
 10
624.58574412
 20
1126.55800273
 30
0.0
 11
548.92634204
 21
1134.51012633
 31
0.0
  0
ARC
  5
1AF
330
1F
100
AcDbEntity
  8
流し
  6
CONTINUOUS
 62
     2
100
AcDbCircle
 10
643.04009257
 20
1094.0
 30
0.0
 40
4.0
100
AcDbArc
 50
195.52865101
 51
270.0000000000002
  0
ARC
  5
1B0
330
1F
100
AcDbEntity
  8
流し
  6
CONTINUOUS
 62
     2
100
AcDbCircle
 10
623.7495164100001
 20
1118.60182757
 30
0.0
 40
8.0
100
AcDbArc
 50
15.52865100999989
 51
83.99999999999996
  0
LINE
  5
1B1
330
1F
100
AcDbEntity
  8
流し
  6
CONTINUOUS
 62
     2
100
AcDbLine
 10
639.18610577
 20
1092.92911916
 30
0.0
 11
631.45749
 21
1120.74358925
 31
0.0
  0
LINE
  5
1B2
330
1F
100
AcDbEntity
  8
流し
  6
CONTINUOUS
 62
     2
100
AcDbLine
 10
643.04009257
 20
1090.0
 30
0.0
 11
716.95990742
 21
1090.0
 31
0.0
  0
ARC
  5
1B3
330
1F
100
AcDbEntity
  8
流し
  6
CONTINUOUS
 62
     2
100
AcDbCircle
 10
716.95990742
 20
1094.0
 30
0.0
 40
4.0
100
AcDbArc
 50
270.0000000000002
 51
344.4713489900004
  0
LINE
  5
1B4
330
1F
100
AcDbEntity
  8
流し
  6
CONTINUOUS
 62
     2
100
AcDbLine
 10
720.8138942200001
 20
1092.92911916
 30
0.0
 11
728.54250999
 21
1120.74358925
 31
0.0
  0
ARC
  5
1B5
330
1F
100
AcDbEntity
  8
流し
  6
CONTINUOUS
 62
     2
100
AcDbCircle
 10
736.25048358
 20
1118.60182757
 30
0.0
 40
8.0
100
AcDbArc
 50
95.99999999999997
 51
164.47134899
  0
LINE
  5
1B6
330
1F
100
AcDbEntity
  8
流し
  6
CONTINUOUS
 62
     2
100
AcDbLine
 10
735.4142558799999
 20
1126.55800273
 30
0.0
 11
811.0736579500001
 21
1134.51012633
 31
0.0
  0
ARC
  5
1B7
330
1F
100
AcDbEntity
  8
流し
  6
CONTINUOUS
 62
     2
100
AcDbCircle
 10
805.7427063299999
 20
1185.23074299
 30
0.0
 40
51.00000000000004
100
AcDbArc
 50
276.0000000000002
 51
338.3563391173003
  0
LINE
  5
1B8
330
1F
100
AcDbEntity
  8
流し
  6
CONTINUOUS
 62
     4
100
AcDbLine
 10
540.5708411100001
 20
1143.45097826
 30
0.0
 11
819.42915889
 21
1143.45097826
 31
0.0
  0
ARC
  5
1B9
330
1F
100
AcDbEntity
  8
流し
  6
CONTINUOUS
 62
     4
100
AcDbCircle
 10
680.4238279599999
 20
3125.80187301
 30
0.0
 40
2000.000000000001
100
AcDbArc
 50
268.7276818700001
 51
271.2480403366002
  0
LINE
  5
1BA
330
1F
100
AcDbEntity
  8
流し
  6
EXLTYPE3
 62
     6
100
AcDbLine
 10
680.0
 20
506.0000000000001
 30
0.0
 11
679.9999999999998
 21
1620.0
 31
0.0
  0
CIRCLE
  5
1BB
330
1F
100
AcDbEntity
  8
流し
  6
CONTINUOUS
 62
     6
100
AcDbCircle
 10
708.0593578600001
 20
2363.31904417
 30
0.0
 40
2.5
  0
CIRCLE
  5
1BC
330
1F
100
AcDbEntity
  8
流し
  6
CONTINUOUS
 62
     6
100
AcDbCircle
 10
714.4593578600001
 20
2366.51904417
 30
0.0
 40
2.5
  0
CIRCLE
  5
1BD
330
1F
100
AcDbEntity
  8
流し
  6
CONTINUOUS
 62
     6
100
AcDbCircle
 10
721.2
 20
2364.3
 30
0.0
 40
2.5
  0
CIRCLE
  5
1BE
330
1F
100
AcDbEntity
  8
流し
  6
CONTINUOUS
 62
     6
100
AcDbCircle
 10
702.427739374
 20
2361.903338478
 30
0.0
 40
2.5
  0
ARC
  5
1BF
330
1F
100
AcDbEntity
  8
流し
  6
CONTINUOUS
 62
     6
100
AcDbCircle
 10
695.0869426200001
 20
2361.550430676
 30
0.0
 40
3.667424164178002
100
AcDbArc
 50
165.7641954313001
 51
134.2358045687
  0
CIRCLE
  5
1C0
330
1F
100
AcDbEntity
  8
流し
  6
CONTINUOUS
 62
     6
100
AcDbCircle
 10
695.0869426200001
 20
2361.550430676
 30
0.0
 40
2.5
  0
LINE
  5
1C1
330
1F
100
AcDbEntity
  8
流し
  6
CONTINUOUS
 62
     6
100
AcDbLine
 10
692.5284999580001
 20
2364.178047685
 30
0.0
 11
688.0
 21
2368.828987766
 31
0.0
  0
LINE
  5
1C2
330
1F
100
AcDbEntity
  8
流し
  6
CONTINUOUS
 62
     6
100
AcDbLine
 10
691.5321382083
 20
2362.452298511
 30
0.0
 11
688.0
 21
2363.348415841
 31
0.0
  0
ARC
  5
1C3
330
1F
100
AcDbEntity
  8
流し
  6
CONTINUOUS
 62
     6
100
AcDbCircle
 10
680.0
 20
2355.0
 30
0.0
 40
30.50000000000002
100
AcDbArc
 50
105.2062878761
 51
74.79371212394
  0
ARC
  5
1C4
330
1F
100
AcDbEntity
  8
流し
  6
CONTINUOUS
 62
     6
100
AcDbCircle
 10
680.0
 20
2355.0
 30
0.0
 40
20.50000000000001
100
AcDbArc
 50
112.9696765723
 51
67.03032342766001
  0
ARC
  5
1C5
330
1F
100
AcDbEntity
  8
流し
  6
CONTINUOUS
 62
     6
100
AcDbCircle
 10
686.9999999999999
 20
2500.8585715715
 30
0.0
 40
9.999999999969283
100
AcDbArc
 50
134.4270040009785
 51
180.0
  0
ARC
  5
1C6
330
1F
100
AcDbEntity
  8
流し
  6
CONTINUOUS
 62
     6
100
AcDbCircle
 10
673.0000000000001
 20
2500.8585715715
 30
0.0
 40
9.999999999969283
100
AcDbArc
 50
0.0
 51
45.57299599902151
  0
LINE
  5
1C7
330
1F
100
AcDbEntity
  8
流し
  6
CONTINUOUS
 62
     6
100
AcDbLine
 10
676.9999999999995
 20
2499.0
 30
0.0
 11
676.9999999999995
 21
2500.8585715715
 31
0.0
  0
LINE
  5
1C8
330
1F
100
AcDbEntity
  8
流し
  6
CONTINUOUS
 62
     6
100
AcDbLine
 10
683.0000000000005
 20
2500.8585715715
 30
0.0
 11
683.0000000000005
 21
2499.0
 31
0.0
  0
ARC
  5
1C9
330
1F
100
AcDbEntity
  8
流し
  6
CONTINUOUS
 62
     6
100
AcDbCircle
 10
540.0000000000001
 20
2445.0
 30
0.0
 40
7.500000000000004
100
AcDbArc
 50
180.0
 51
0.0
  0
LINE
  5
1CA
330
1F
100
AcDbEntity
  8
流し
  6
CONTINUOUS
 62
     6
100
AcDbLine
 10
543.0000000000006
 20
2485.0
 30
0.0
 11
543.0000000000005
 21
2500.8585715715
 31
0.0
  0
ARC
  5
1CB
330
1F
100
AcDbEntity
  8
流し
  6
CONTINUOUS
 62
     6
100
AcDbCircle
 10
533.0000000000001
 20
2500.8585715715
 30
0.0
 40
9.999999999969283
100
AcDbArc
 50
0.0
 51
45.57299599902151
  0
ARC
  5
1CC
330
1F
100
AcDbEntity
  8
流し
  6
CONTINUOUS
 62
     6
100
AcDbCircle
 10
546.9999999999999
 20
2500.8585715715
 30
0.0
 40
9.999999999969283
100
AcDbArc
 50
134.4270040009781
 51
180.0
  0
LINE
  5
1CD
330
1F
100
AcDbEntity
  8
流し
  6
CONTINUOUS
 62
     6
100
AcDbLine
 10
536.9999999999995
 20
2500.8585715715
 30
0.0
 11
536.9999999999995
 21
2485.0
 31
0.0
  0
ARC
  5
1CE
330
1F
100
AcDbEntity
  8
流し
  6
CONTINUOUS
 62
     6
100
AcDbCircle
 10
820.0
 20
2445.0
 30
0.0
 40
7.500000000000004
100
AcDbArc
 50
180.0
 51
0.0
  0
LINE
  5
1CF
330
1F
100
AcDbEntity
  8
流し
  6
CONTINUOUS
 62
     6
100
AcDbLine
 10
816.9999999999993
 20
2485.0
 30
0.0
 11
816.9999999999995
 21
2500.8585715715
 31
0.0
  0
ARC
  5
1D0
330
1F
100
AcDbEntity
  8
流し
  6
CONTINUOUS
 62
     6
100
AcDbCircle
 10
826.9999999999999
 20
2500.8585715715
 30
0.0
 40
9.999999999969283
100
AcDbArc
 50
134.4270040009785
 51
180.0
  0
ARC
  5
1D1
330
1F
100
AcDbEntity
  8
流し
  6
CONTINUOUS
 62
     6
100
AcDbCircle
 10
813.0000000000001
 20
2500.8585715715
 30
0.0
 40
9.999999999969283
100
AcDbArc
 50
0.0
 51
45.57299599902209
  0
LINE
  5
1D2
330
1F
100
AcDbEntity
  8
流し
  6
CONTINUOUS
 62
     6
100
AcDbLine
 10
823.0000000000005
 20
2500.8585715715
 30
0.0
 11
823.0000000000005
 21
2485.0
 31
0.0
  0
LINE
  5
1D3
330
1F
100
AcDbEntity
  8
流し
  6
CONTINUOUS
 62
     6
100
AcDbLine
 10
765.0
 20
2442.490169944
 30
0.0
 11
765.0
 21
2445.0
 31
0.0
  0
LINE
  5
1D4
330
1F
100
AcDbEntity
  8
流し
  6
CONTINUOUS
 62
     6
100
AcDbLine
 10
755.0
 20
2442.490169944
 30
0.0
 11
755.0
 21
2445.0
 31
0.0
  0
CIRCLE
  5
1D5
330
1F
100
AcDbEntity
  8
流し
  6
CONTINUOUS
 62
     6
100
AcDbCircle
 10
760.0
 20
2436.9
 30
0.0
 40
7.500000000000004
  0
LINE
  5
1D6
330
1F
100
AcDbEntity
  8
流し
  6
CONTINUOUS
 62
     6
100
AcDbLine
 10
770.7999411999999
 20
2435.75005075
 30
0.0
 11
770.7999411999999
 21
2438.04994925
 31
0.0
  0
LINE
  5
1D7
330
1F
100
AcDbEntity
  8
流し
  6
CONTINUOUS
 62
     6
100
AcDbLine
 10
748.8000588
 20
2435.75005075
 30
0.0
 11
748.8000588
 21
2438.04994925
 31
0.0
  0
LINE
  5
1D8
330
1F
100
AcDbEntity
  8
流し
  6
CONTINUOUS
 62
     6
100
AcDbLine
 10
770.7999411999999
 20
2438.04994925
 30
0.0
 11
767.4113168008
 21
2438.04994925
 31
0.0
  0
LINE
  5
1D9
330
1F
100
AcDbEntity
  8
流し
  6
CONTINUOUS
 62
     6
100
AcDbLine
 10
752.5886831992
 20
2438.04994925
 30
0.0
 11
748.8000588
 21
2438.04994925
 31
0.0
  0
LINE
  5
1DA
330
1F
100
AcDbEntity
  8
流し
  6
CONTINUOUS
 62
     6
100
AcDbLine
 10
770.7999411999999
 20
2435.75005075
 30
0.0
 11
767.4113168008
 21
2435.75005075
 31
0.0
  0
LINE
  5
1DB
330
1F
100
AcDbEntity
  8
流し
  6
CONTINUOUS
 62
     6
100
AcDbLine
 10
752.5886831992
 20
2435.75005075
 30
0.0
 11
748.8000588
 21
2435.75005075
 31
0.0
  0
CIRCLE
  5
1DC
330
1F
100
AcDbEntity
  8
流し
  6
CONTINUOUS
 62
     6
100
AcDbCircle
 10
736.7
 20
2364.2
 30
0.0
 40
2.5
  0
CIRCLE
  5
1DD
330
1F
100
AcDbEntity
  8
流し
  6
CONTINUOUS
 62
     6
100
AcDbCircle
 10
760.6999999999999
 20
2426.3
 30
0.0
 40
2.5
  0
CIRCLE
  5
1DE
330
1F
100
AcDbEntity
  8
流し
  6
CONTINUOUS
 62
     6
100
AcDbCircle
 10
762.2
 20
2413.0
 30
0.0
 40
2.5
  0
CIRCLE
  5
1DF
330
1F
100
AcDbEntity
  8
流し
  6
CONTINUOUS
 62
     6
100
AcDbCircle
 10
763.3
 20
2406.1
 30
0.0
 40
2.5
  0
CIRCLE
  5
1E0
330
1F
100
AcDbEntity
  8
流し
  6
CONTINUOUS
 62
     6
100
AcDbCircle
 10
762.2
 20
2399.7
 30
0.0
 40
2.5
  0
CIRCLE
  5
1E1
330
1F
100
AcDbEntity
  8
流し
  6
CONTINUOUS
 62
     6
100
AcDbCircle
 10
760.6999999999999
 20
2393.2
 30
0.0
 40
2.5
  0
CIRCLE
  5
1E2
330
1F
100
AcDbEntity
  8
流し
  6
CONTINUOUS
 62
     6
100
AcDbCircle
 10
758.4000000000001
 20
2387.5
 30
0.0
 40
2.5
  0
CIRCLE
  5
1E3
330
1F
100
AcDbEntity
  8
流し
  6
CONTINUOUS
 62
     6
100
AcDbCircle
 10
758.0
 20
2382.5
 30
0.0
 40
2.5
  0
CIRCLE
  5
1E4
330
1F
100
AcDbEntity
  8
流し
  6
CONTINUOUS
 62
     6
100
AcDbCircle
 10
756.1
 20
2377.2
 30
0.0
 40
2.5
  0
CIRCLE
  5
1E5
330
1F
100
AcDbEntity
  8
流し
  6
CONTINUOUS
 62
     6
100
AcDbCircle
 10
753.1
 20
2372.6
 30
0.0
 40
2.5
  0
CIRCLE
  5
1E6
330
1F
100
AcDbEntity
  8
流し
  6
CONTINUOUS
 62
     6
100
AcDbCircle
 10
748.5
 20
2367.3
 30
0.0
 40
2.5
  0
CIRCLE
  5
1E7
330
1F
100
AcDbEntity
  8
流し
  6
CONTINUOUS
 62
     6
100
AcDbCircle
 10
743.9
 20
2364.2
 30
0.0
 40
2.5
  0
CIRCLE
  5
1E8
330
1F
100
AcDbEntity
  8
流し
  6
CONTINUOUS
 62
     6
100
AcDbCircle
 10
760.6999999999999
 20
2420.1
 30
0.0
 40
2.5
  0
CIRCLE
  5
1E9
330
1F
100
AcDbEntity
  8
流し
  6
CONTINUOUS
 62
     6
100
AcDbCircle
 10
728.9
 20
2362.6
 30
0.0
 40
2.5
  0
ARC
  5
1EA
330
1F
100
AcDbEntity
  8
流し
  6
CONTINUOUS
 62
     2
100
AcDbCircle
 10
607.5
 20
2240.743338651
 30
0.0
 40
125.0000000000001
100
AcDbArc
 50
180.0
 51
253.1420439775002
  0
ARC
  5
1EB
330
1F
100
AcDbEntity
  8
流し
  6
CONTINUOUS
 62
     2
100
AcDbCircle
 10
607.5
 20
2240.743338651
 30
0.0
 40
150.0000000000001
100
AcDbArc
 50
180.0
 51
253.1420439775002
  0
ARC
  5
1EC
330
1F
100
AcDbEntity
  8
流し
  6
CONTINUOUS
 62
     2
100
AcDbCircle
 10
680.0
 20
2480.0
 30
0.0
 40
375.0000000000001
100
AcDbArc
 50
253.1420439775002
 51
286.8579560225001
  0
ARC
  5
1ED
330
1F
100
AcDbEntity
  8
流し
  6
CONTINUOUS
 62
     2
100
AcDbCircle
 10
680.0
 20
2480.0
 30
0.0
 40
400.0000000000001
100
AcDbArc
 50
253.1420439775002
 51
286.8579560225001
  0
ARC
  5
1EE
330
1F
100
AcDbEntity
  8
流し
  6
CONTINUOUS
 62
     2
100
AcDbCircle
 10
752.5
 20
2240.743338651
 30
0.0
 40
125.0000000000001
100
AcDbArc
 50
286.8579560225001
 51
0.0
  0
ARC
  5
1EF
330
1F
100
AcDbEntity
  8
流し
  6
CONTINUOUS
 62
     2
100
AcDbCircle
 10
752.5
 20
2240.743338651
 30
0.0
 40
150.0000000000001
100
AcDbArc
 50
286.8579560225001
 51
0.0
  0
LINE
  5
1F0
330
1F
100
AcDbEntity
  8
流し
  6
CONTINUOUS
 62
     2
100
AcDbLine
 10
877.5
 20
2240.743338651
 30
0.0
 11
877.5
 21
2405.0
 31
0.0
  0
LINE
  5
1F1
330
1F
100
AcDbEntity
  8
流し
  6
CONTINUOUS
 62
     2
100
AcDbLine
 10
902.5
 20
2240.743338651
 30
0.0
 11
902.5
 21
2485.0
 31
0.0
  0
ARC
  5
1F2
330
1F
100
AcDbEntity
  8
流し
  6
CONTINUOUS
 62
     2
100
AcDbCircle
 10
837.5
 20
2405.0
 30
0.0
 40
40.0
100
AcDbArc
 50
0.0
 51
90.00000000000001
  0
LINE
  5
1F3
330
1F
100
AcDbEntity
  8
流し
  6
CONTINUOUS
 62
     2
100
AcDbLine
 10
457.5
 20
2485.0
 30
0.0
 11
902.5
 21
2485.0
 31
0.0
  0
LINE
  5
1F4
330
1F
100
AcDbEntity
  8
流し
  6
CONTINUOUS
 62
     2
100
AcDbLine
 10
708.0240213179001
 20
2445.0
 30
0.0
 11
837.5
 21
2445.0
 31
0.0
  0
LINE
  5
1F5
330
1F
100
AcDbEntity
  8
流し
  6
CONTINUOUS
 62
     2
100
AcDbLine
 10
522.5
 20
2445.0
 30
0.0
 11
651.9758533788
 21
2445.0
 31
0.0
  0
ARC
  5
1F6
330
1F
100
AcDbEntity
  8
流し
  6
CONTINUOUS
 62
     2
100
AcDbCircle
 10
522.5
 20
2405.0
 30
0.0
 40
40.0
100
AcDbArc
 50
90.00000000000001
 51
180.0
  0
LINE
  5
1F7
330
1F
100
AcDbEntity
  8
流し
  6
CONTINUOUS
 62
     2
100
AcDbLine
 10
482.5
 20
2240.743338651
 30
0.0
 11
482.5
 21
2405.0
 31
0.0
  0
LINE
  5
1F8
330
1F
100
AcDbEntity
  8
流し
  6
CONTINUOUS
 62
     2
100
AcDbLine
 10
457.5
 20
2240.743338651
 30
0.0
 11
457.5
 21
2485.0
 31
0.0
  0
LINE
  5
1F9
330
1F
100
AcDbEntity
  8
流し
  6
EXLTYPE3
 62
     6
100
AcDbLine
 10
638.0
 20
2355.0
 30
0.0
 11
722.6
 21
2355.0
 31
0.0
  0
LINE
  5
1FA
330
1F
100
AcDbEntity
  8
流し
  6
CONTINUOUS
 62
     7
100
AcDbLine
 10
280.0000000000001
 20
2485.0
 30
0.0
 11
1080.0
 21
2485.0
 31
0.0
  0
LINE
  5
1FB
330
1F
100
AcDbEntity
  8
流し
  6
EXLTYPE3
 62
     6
100
AcDbLine
 10
680.0
 20
2522.0
 30
0.0
 11
680.0
 21
2065.0
 31
0.0
  0
ARC
  5
1FC
330
1F
100
AcDbEntity
  8
水栓
  6
CONTINUOUS
 62
     6
100
AcDbCircle
 10
1664.121927593869
 20
1588.536300397695
 30
0.0
 40
23.46401639458544
100
AcDbArc
 50
73.2096272470707
 51
90.29773112399253
  0
ARC
  5
1FD
330
1F
100
AcDbEntity
  8
水栓
  6
CONTINUOUS
 62
     6
100
AcDbCircle
 10
1663.878072406131
 20
1588.536300397695
 30
0.0
 40
23.46401639458544
100
AcDbArc
 50
89.70226887600734
 51
106.7903727529292
  0
ARC
  5
1FE
330
1F
100
AcDbEntity
  8
水栓
  6
CONTINUOUS
 62
     6
100
AcDbCircle
 10
1751.668710691058
 20
392.4329893726072
 30
0.0
 40
1220.240329147063
100
AcDbArc
 50
94.44685782769271
 51
95.20165865369175
  0
LINE
  5
1FF
330
1F
100
AcDbEntity
  8
水栓
  6
CONTINUOUS
 62
     6
100
AcDbLine
 10
1634.06892545045
 20
1600.96650689938
 30
0.0
 11
1633.99864177155
 21
1597.5
 31
0.0
  0
LINE
  5
200
330
1F
100
AcDbEntity
  8
水栓
  6
CONTINUOUS
 62
     6
100
AcDbLine
 10
1681.9297163211
 20
1600.96650689938
 30
0.0
 11
1682.0
 21
1597.5
 31
0.0
  0
ARC
  5
201
330
1F
100
AcDbEntity
  8
水栓
  6
CONTINUOUS
 62
     6
100
AcDbCircle
 10
1664.543155886402
 20
1564.260037153554
 30
0.0
 40
45.18931004768628
100
AcDbArc
 50
74.35306364125438
 51
81.91330010299941
  0
ARC
  5
202
330
1F
100
AcDbEntity
  8
水栓
  6
CONTINUOUS
 62
     6
100
AcDbCircle
 10
1673.990077899604
 20
1600.292845819703
 30
0.0
 40
7.968166508950754
100
AcDbArc
 50
4.849806568437553
 51
69.87938217398494
  0
LINE
  5
203
330
1F
100
AcDbEntity
  8
水栓
  6
CONTINUOUS
 62
     6
100
AcDbLine
 10
1657.0580900924
 20
1609.0
 30
0.0
 11
1657.0580900924
 21
1610.987311657898
 31
0.0
  0
LINE
  5
204
330
1F
100
AcDbEntity
  8
水栓
  6
CONTINUOUS
 62
     6
100
AcDbLine
 10
1670.9
 20
1609.0
 30
0.0
 11
1670.9
 21
1611.0
 31
0.0
  0
LINE
  5
205
330
1F
100
AcDbEntity
  8
水栓
  6
CONTINUOUS
 62
     6
100
AcDbLine
 10
1657.058090092399
 20
1609.0
 30
0.0
 11
1670.900000000002
 21
1609.0
 31
0.0
  0
LINE
  5
206
330
1F
100
AcDbEntity
  8
水栓
  6
CONTINUOUS
 62
     6
100
AcDbLine
 10
1633.99864177155
 20
1597.5
 30
0.0
 11
1682.0
 21
1597.5
 31
0.0
  0
ARC
  5
207
330
1F
100
AcDbEntity
  8
水栓
  6
CONTINUOUS
 62
     6
100
AcDbCircle
 10
1641.814756044946
 20
1599.862203405921
 30
0.0
 40
7.8241534880356
100
AcDbArc
 50
112.2609612399853
 51
171.8861632329181
  0
ARC
  5
208
330
1F
100
AcDbEntity
  8
水栓
  6
CONTINUOUS
 62
     6
100
AcDbCircle
 10
1641.814756044946
 20
1599.862203405921
 30
0.0
 40
7.8241534880356
100
AcDbArc
 50
95.66874558397856
 51
112.2609612399853
  0
LINE
  5
209
330
1F
100
AcDbEntity
  8
水栓
  6
CONTINUOUS
 62
     6
100
AcDbLine
 10
1657.1
 20
1611.0
 30
0.0
 11
1670.9
 21
1611.0
 31
0.0
  0
LINE
  5
20A
330
1F
100
AcDbEntity
  8
水栓
  6
CONTINUOUS
 62
     6
100
AcDbLine
 10
1657.8693001832
 20
1611.0
 30
0.0
 11
1657.8693001832
 21
1609.0
 31
0.0
  0
LINE
  5
20B
330
1F
100
AcDbEntity
  8
水栓
  6
CONTINUOUS
 62
     6
100
AcDbLine
 10
1659.2044905728
 20
1611.0
 30
0.0
 11
1659.2044905728
 21
1609.0
 31
0.0
  0
LINE
  5
20C
330
1F
100
AcDbEntity
  8
水栓
  6
CONTINUOUS
 62
     6
100
AcDbLine
 10
1660.8309336536
 20
1611.0
 30
0.0
 11
1660.8309336536
 21
1609.0
 31
0.0
  0
LINE
  5
20D
330
1F
100
AcDbEntity
  8
水栓
  6
CONTINUOUS
 62
     6
100
AcDbLine
 10
1662.7918093304
 20
1611.0
 30
0.0
 11
1662.7918093304
 21
1609.0
 31
0.0
  0
LINE
  5
20E
330
1F
100
AcDbEntity
  8
水栓
  6
CONTINUOUS
 62
     6
100
AcDbLine
 10
1665.2124239936
 20
1611.0
 30
0.0
 11
1665.2124239936
 21
1609.0
 31
0.0
  0
LINE
  5
20F
330
1F
100
AcDbEntity
  8
水栓
  6
CONTINUOUS
 62
     6
100
AcDbLine
 10
1667.172876338
 20
1611.0
 30
0.0
 11
1667.172876338
 21
1609.0
 31
0.0
  0
LINE
  5
210
330
1F
100
AcDbEntity
  8
水栓
  6
CONTINUOUS
 62
     6
100
AcDbLine
 10
1668.7993194188
 20
1611.0
 30
0.0
 11
1668.7993194188
 21
1609.0
 31
0.0
  0
LINE
  5
211
330
1F
100
AcDbEntity
  8
水栓
  6
CONTINUOUS
 62
     6
100
AcDbLine
 10
1670.1345098084
 20
1611.0
 30
0.0
 11
1670.1345098084
 21
1609.0
 31
0.0
  0
LINE
  5
212
330
1F
100
AcDbEntity
  8
水栓
  6
CONTINUOUS
 62
     6
100
AcDbLine
 10
1668.75
 20
1597.5
 30
0.0
 11
1668.75
 21
1592.0600596836
 31
0.0
  0
LINE
  5
213
330
1F
100
AcDbEntity
  8
水栓
  6
CONTINUOUS
 62
     6
100
AcDbLine
 10
1659.25
 20
1597.5
 30
0.0
 11
1659.25
 21
1592.0600596836
 31
0.0
  0
LINE
  5
214
330
1F
100
AcDbEntity
  8
水栓
  6
CONTINUOUS
 62
     6
100
AcDbLine
 10
1639.303784379025
 20
1567.566684029975
 30
0.0
 11
1641.18180155795
 21
1567.566684029975
 31
0.0
  0
LINE
  5
215
330
1F
100
AcDbEntity
  8
水栓
  6
CONTINUOUS
 62
     6
100
AcDbLine
 10
1641.181157739925
 20
1543.129927073075
 30
0.0
 11
1639.303784379025
 21
1543.129927073075
 31
0.0
  0
ARC
  5
216
330
1F
100
AcDbEntity
  8
水栓
  6
CONTINUOUS
 62
     6
100
AcDbCircle
 10
1557.276363005815
 20
1625.060950018129
 30
0.0
 40
93.27974647581581
100
AcDbArc
 50
319.8919779352829
 51
322.8506055615919
  0
ARC
  5
217
330
1F
100
AcDbEntity
  8
水栓
  6
CONTINUOUS
 62
     6
100
AcDbCircle
 10
1635.465019404963
 20
1565.452735816617
 30
0.0
 40
5.047266640842288
100
AcDbArc
 50
40.48613159048942
 51
139.5138684099591
  0
ARC
  5
218
330
1F
100
AcDbEntity
  8
水栓
  6
CONTINUOUS
 62
     6
100
AcDbCircle
 10
1635.465019404963
 20
1544.547067906434
 30
0.0
 40
5.047266640842288
100
AcDbArc
 50
220.4861315900404
 51
319.5138684095106
  0
ARC
  5
219
330
1F
100
AcDbEntity
  8
水栓
  6
CONTINUOUS
 62
     6
100
AcDbCircle
 10
1557.276363005815
 20
1484.938853704921
 30
0.0
 40
93.27974647581581
100
AcDbArc
 50
37.14939443840814
 51
40.10802206471712
  0
LINE
  5
21A
330
1F
100
AcDbEntity
  8
水栓
  6
CONTINUOUS
 62
     6
100
AcDbLine
 10
1639.303784379025
 20
1568.729744211124
 30
0.0
 11
1639.303784379025
 21
1541.270059511926
 31
0.0
  0
LINE
  5
21B
330
1F
100
AcDbEntity
  8
水栓
  6
CONTINUOUS
 62
     6
100
AcDbLine
 10
1628.61962425415
 20
1564.96727167303
 30
0.0
 11
1628.61962425415
 21
1545.03253205002
 31
0.0
  0
LINE
  5
21C
330
1F
100
AcDbEntity
  8
水栓
  6
CONTINUOUS
 62
     6
100
AcDbLine
 10
1641.182445375975
 20
1567.56604021195
 30
0.0
 11
1641.182445375975
 21
1543.132502345175
 31
0.0
  0
ELLIPSE
  5
21D
330
1F
100
AcDbEntity
  8
水栓
  6
CONTINUOUS
 62
     6
100
AcDbEllipse
 10
1635.1852804731
 20
1555.01822809783
 30
0.0
 11
-1.018304941451734E-15
 21
-5.543393911129954
 31
0.0
210
0.0
220
0.0
230
1.0
 40
0.6458628403730775
 41
0.0
 42
6.283185307179586
  0
CIRCLE
  5
21E
330
1F
100
AcDbEntity
  8
水栓
  6
CONTINUOUS
 62
     6
100
AcDbCircle
 10
1635.186177256452
 20
1565.75916492479
 30
0.0
 40
3.57995013694749
  0
CIRCLE
  5
21F
330
1F
100
AcDbEntity
  8
水栓
  6
CONTINUOUS
 62
     6
100
AcDbCircle
 10
1635.186177256452
 20
1544.24083507521
 30
0.0
 40
3.57995013694749
  0
ARC
  5
220
330
1F
100
AcDbEntity
  8
水栓
  6
CONTINUOUS
 62
     6
100
AcDbCircle
 10
1646.906647520226
 20
1574.527429145645
 30
0.0
 40
9.012491907207574
100
AcDbArc
 50
230.5695650933276
 51
273.259337118493
  0
ARC
  5
221
330
1F
100
AcDbEntity
  8
水栓
  6
CONTINUOUS
 62
     6
100
AcDbCircle
 10
1646.540205697613
 20
1570.854703718468
 30
0.0
 40
5.397222204554564
100
AcDbArc
 50
279.3714319923878
 51
0.0542414886001736
  0
LINE
  5
222
330
1F
100
AcDbEntity
  8
水栓
  6
CONTINUOUS
 62
     6
100
AcDbLine
 10
1651.9374254836
 20
1570.85981322785
 30
0.0
 11
1651.9374254836
 21
1577.6993546784
 31
0.0
  0
LINE
  5
223
330
1F
100
AcDbEntity
  8
水栓
  6
CONTINUOUS
 62
     6
100
AcDbLine
 10
1676.054204882075
 20
1572.3753608587
 30
0.0
 11
1676.054204882075
 21
1577.6993546784
 31
0.0
  0
ARC
  5
224
330
1F
100
AcDbEntity
  8
水栓
  6
CONTINUOUS
 62
     6
100
AcDbCircle
 10
1665.069882825836
 20
1570.128324284958
 30
0.0
 40
28.0006298686339
100
AcDbArc
 50
267.8102386868973
 51
290.8609558858561
  0
ARC
  5
225
330
1F
100
AcDbEntity
  8
水栓
  6
CONTINUOUS
 62
     6
100
AcDbCircle
 10
1682.654659079859
 20
1528.004142114497
 30
0.0
 40
17.68220863390609
100
AcDbArc
 50
101.3564293177025
 51
115.504769086701
  0
ARC
  5
226
330
1F
100
AcDbEntity
  8
水栓
  6
CONTINUOUS
 62
     6
100
AcDbCircle
 10
1663.845600060529
 20
1572.766847636432
 30
0.0
 40
30.61909534012943
100
AcDbArc
 50
255.732490114693
 51
270.2889210893399
  0
ARC
  5
227
330
1F
100
AcDbEntity
  8
水栓
  6
CONTINUOUS
 62
     6
100
AcDbCircle
 10
1509.948394191857
 20
1127.679091358106
 30
0.0
 40
440.4452965972076
100
AcDbArc
 50
70.58390504376491
 51
70.93782852221092
  0
ARC
  5
228
330
1F
100
AcDbEntity
  8
水栓
  6
CONTINUOUS
 62
     6
100
AcDbCircle
 10
1647.574024552336
 20
1531.510579677507
 30
0.0
 40
13.26189956153187
100
AcDbArc
 50
94.31701075467086
 51
118.8192193928626
  0
ARC
  5
229
330
1F
100
AcDbEntity
  8
水栓
  6
CONTINUOUS
 62
     6
100
AcDbCircle
 10
1647.493119405185
 20
1522.479291247193
 30
0.0
 40
22.39803430948259
100
AcDbArc
 50
73.6582643003746
 51
85.01619649974002
  0
ARC
  5
22A
330
1F
100
AcDbEntity
  8
水栓
  6
CONTINUOUS
 62
     6
100
AcDbCircle
 10
1648.282467807507
 20
1531.13282307521
 30
0.0
 40
13.70868862320474
100
AcDbArc
 50
85.1607915859822
 51
97.15187439015902
  0
ARC
  5
22B
330
1F
100
AcDbEntity
  8
水栓
  6
CONTINUOUS
 62
     6
100
AcDbCircle
 10
1685.833800587927
 20
1512.050287228387
 30
0.0
 40
33.94972568895039
100
AcDbArc
 50
91.56195713272105
 51
101.3149041425705
  0
ARC
  5
22C
330
1F
100
AcDbEntity
  8
水栓
  6
CONTINUOUS
 62
     6
100
AcDbCircle
 10
1685.270443228449
 20
1573.20426673245
 30
0.0
 40
9.2183078486638
100
AcDbArc
 50
181.2140962197781
 51
266.8372272780063
  0
LINE
  5
22D
330
1F
100
AcDbEntity
  8
水栓
  6
CONTINUOUS
 62
     6
100
AcDbLine
 10
1628.61962425415
 20
1546.9059197897
 30
0.0
 11
1621.90498434234
 21
1546.9059197897
 31
0.0
  0
LINE
  5
22E
330
1F
100
AcDbEntity
  8
水栓
  6
CONTINUOUS
 62
     6
100
AcDbLine
 10
1628.61962425415
 20
1563.0940802103
 30
0.0
 11
1621.90498434234
 21
1563.0940802103
 31
0.0
  0
ARC
  5
22F
330
1F
100
AcDbEntity
  8
水栓
  6
CONTINUOUS
 62
     6
100
AcDbCircle
 10
1625.541112716367
 20
1512.223931101122
 30
0.0
 40
34.87207721009576
100
AcDbArc
 50
95.98513766926888
 51
110.5054744619458
  0
ARC
  5
230
330
1F
100
AcDbEntity
  8
水栓
  6
CONTINUOUS
 62
     6
100
AcDbCircle
 10
1618.143322997524
 20
1530.772917908006
 30
0.0
 40
14.9131963213253
100
AcDbArc
 50
108.8478091913345
 51
153.2757185989244
  0
ARC
  5
231
330
1F
100
AcDbEntity
  8
水栓
  6
CONTINUOUS
 62
     6
100
AcDbCircle
 10
1587.605182743629
 20
1515.371774857213
 30
0.0
 40
6.488801497466272
100
AcDbArc
 50
312.803747858047
 51
356.2193228379227
  0
LINE
  5
232
330
1F
100
AcDbEntity
  8
水栓
  6
CONTINUOUS
 62
     6
100
AcDbLine
 10
1594.079863066209
 20
1514.943920216103
 30
0.0
 11
1604.823141019089
 21
1537.479345912523
 31
0.0
  0
ARC
  5
233
330
1F
100
AcDbEntity
  8
水栓
  6
CONTINUOUS
 62
     6
100
AcDbCircle
 10
1584.425684835134
 20
1516.887716308431
 30
0.0
 40
6.488801497466272
100
AcDbArc
 50
132.7983319670964
 51
176.2139069469721
  0
ARC
  5
234
330
1F
100
AcDbEntity
  8
水栓
  6
CONTINUOUS
 62
     6
100
AcDbCircle
 10
1624.646140626464
 20
1516.388764067829
 30
0.0
 40
46.78568684696436
100
AcDbArc
 50
93.35886232901453
 51
118.295949891756
  0
ARC
  5
235
330
1F
100
AcDbEntity
  8
水栓
  6
CONTINUOUS
 62
     6
100
AcDbCircle
 10
1622.944232209073
 20
1527.884635219043
 30
0.0
 40
36.07369676944123
100
AcDbArc
 50
124.5835984552076
 51
153.1397905721201
  0
LINE
  5
236
330
1F
100
AcDbEntity
  8
水栓
  6
CONTINUOUS
 62
     6
100
AcDbLine
 10
1580.01706369066
 20
1521.648872100675
 30
0.0
 11
1590.762471759462
 21
1544.183282186733
 31
0.0
  0
LINE
  5
237
330
1F
100
AcDbEntity
  8
水栓
  6
CONTINUOUS
 62
     6
100
AcDbLine
 10
1577.986121807369
 20
1517.388782655473
 30
0.0
 11
1592.014253917256
 21
1510.611035811711
 31
0.0
  0
LINE
  5
238
330
1F
100
AcDbEntity
  8
水栓
  6
CONTINUOUS
 62
     6
100
AcDbLine
 10
1594.079863066209
 20
1514.943920216118
 30
0.0
 11
1580.05176720957
 21
1521.721649543982
 31
0.0
  0
LINE
  5
239
330
1F
100
AcDbEntity
  8
水栓
  6
CONTINUOUS
 62
     6
100
AcDbLine
 10
1719.999999999998
 20
1580.000000000003
 30
0.0
 11
1718.108996704593
 21
1580.000000000003
 31
0.0
  0
ARC
  5
23A
330
1F
100
AcDbEntity
  8
水栓
  6
CONTINUOUS
 62
     6
100
AcDbCircle
 10
1718.11784312948
 20
1577.630516309411
 30
0.0
 40
2.369500204516059
100
AcDbArc
 50
90.21391177198596
 51
176.1899157546555
  0
LINE
  5
23B
330
1F
100
AcDbEntity
  8
水栓
  6
CONTINUOUS
 62
     6
100
AcDbLine
 10
1715.741016496792
 20
1577.78796845047
 30
0.0
 11
1715.741016496792
 21
1571.489969060416
 31
0.0
  0
LINE
  5
23C
330
1F
100
AcDbEntity
  8
水栓
  6
CONTINUOUS
 62
     6
100
AcDbLine
 10
1719.999999999998
 20
1530.0
 30
0.0
 11
1719.999999999998
 21
1580.0
 31
0.0
  0
LINE
  5
23D
330
1F
100
AcDbEntity
  8
水栓
  6
CONTINUOUS
 62
     6
100
AcDbLine
 10
1719.999999999998
 20
1529.999999999997
 30
0.0
 11
1718.108996704593
 21
1529.999999999997
 31
0.0
  0
ARC
  5
23E
330
1F
100
AcDbEntity
  8
水栓
  6
CONTINUOUS
 62
     6
100
AcDbCircle
 10
1718.11784312948
 20
1532.369483690589
 30
0.0
 40
2.369500204516059
100
AcDbArc
 50
183.8100842453443
 51
269.7860882280141
  0
LINE
  5
23F
330
1F
100
AcDbEntity
  8
水栓
  6
CONTINUOUS
 62
     6
100
AcDbLine
 10
1715.741016496792
 20
1532.21203154953
 30
0.0
 11
1715.741016496792
 21
1538.510030939584
 31
0.0
  0
ARC
  5
240
330
1F
100
AcDbEntity
  8
水栓
  6
CONTINUOUS
 62
     6
100
AcDbCircle
 10
1707.475329940802
 20
1574.359145516912
 30
0.0
 40
8.749499858868148
100
AcDbArc
 50
314.6784581374047
 51
340.8571430346097
  0
ARC
  5
241
330
1F
100
AcDbEntity
  8
水栓
  6
CONTINUOUS
 62
     6
100
AcDbCircle
 10
1711.492804069394
 20
1570.402854547992
 30
0.0
 40
3.112429519563806
100
AcDbArc
 50
288.7955386113762
 51
313.2994372681291
  0
ARC
  5
242
330
1F
100
AcDbEntity
  8
水栓
  6
CONTINUOUS
 62
     6
100
AcDbCircle
 10
1711.579418375899
 20
1571.230422426264
 30
0.0
 40
3.883640196853761
100
AcDbArc
 50
274.0802921463196
 51
283.6452090693696
  0
LINE
  5
243
330
1F
100
AcDbEntity
  8
水栓
  6
CONTINUOUS
 62
     6
100
AcDbLine
 10
1711.85575628318
 20
1567.35662602743
 30
0.0
 11
1711.85575628318
 21
1567.24651928807
 31
0.0
  0
ARC
  5
244
330
1F
100
AcDbEntity
  8
水栓
  6
CONTINUOUS
 62
     6
100
AcDbCircle
 10
1711.492804069394
 20
1539.597145452008
 30
0.0
 40
3.112429519563806
100
AcDbArc
 50
46.70056273187107
 51
71.20446138862386
  0
ARC
  5
245
330
1F
100
AcDbEntity
  8
水栓
  6
CONTINUOUS
 62
     6
100
AcDbCircle
 10
1711.579418375899
 20
1538.769577573736
 30
0.0
 40
3.883640196853761
100
AcDbArc
 50
76.35479093063047
 51
85.91970785368049
  0
LINE
  5
246
330
1F
100
AcDbEntity
  8
水栓
  6
CONTINUOUS
 62
     6
100
AcDbLine
 10
1711.85575628318
 20
1542.64337397257
 30
0.0
 11
1711.85575628318
 21
1542.75348071193
 31
0.0
  0
ARC
  5
247
330
1F
100
AcDbEntity
  8
水栓
  6
CONTINUOUS
 62
     6
100
AcDbCircle
 10
1711.492804069394
 20
1539.597145452008
 30
0.0
 40
3.112429519563806
100
AcDbArc
 50
46.70056273187107
 51
71.20446138862386
  0
ARC
  5
248
330
1F
100
AcDbEntity
  8
水栓
  6
CONTINUOUS
 62
     6
100
AcDbCircle
 10
1707.475329940802
 20
1535.640854483088
 30
0.0
 40
8.749499858868148
100
AcDbArc
 50
19.14285696539025
 51
45.32154186259545
  0
LINE
  5
249
330
1F
100
AcDbEntity
  8
水栓
  6
CONTINUOUS
 62
     6
100
AcDbLine
 10
1732.586887365867
 20
1565.5
 30
0.0
 11
1732.586887365867
 21
1544.499999999998
 31
0.0
  0
LINE
  5
24A
330
1F
100
AcDbEntity
  8
水栓
  6
CONTINUOUS
 62
     6
100
AcDbLine
 10
1732.86192577704
 20
1544.499999999998
 30
0.0
 11
1719.999999999998
 21
1544.499999999998
 31
0.0
  0
LINE
  5
24B
330
1F
100
AcDbEntity
  8
水栓
  6
CONTINUOUS
 62
     6
100
AcDbLine
 10
1734.000000000003
 20
1545.637617348526
 30
0.0
 11
1732.861925777037
 21
1544.499999999998
 31
0.0
  0
LINE
  5
24C
330
1F
100
AcDbEntity
  8
水栓
  6
CONTINUOUS
 62
     6
100
AcDbLine
 10
1719.999999999998
 20
1565.500000000001
 30
0.0
 11
1732.86192577704
 21
1565.500000000001
 31
0.0
  0
LINE
  5
24D
330
1F
100
AcDbEntity
  8
水栓
  6
CONTINUOUS
 62
     6
100
AcDbLine
 10
1732.861925777037
 20
1565.500000000001
 30
0.0
 11
1734.000000000003
 21
1564.362382651473
 31
0.0
  0
LINE
  5
24E
330
1F
100
AcDbEntity
  8
水栓
  6
CONTINUOUS
 62
     6
100
AcDbLine
 10
1734.000000000003
 20
1564.36238265147
 30
0.0
 11
1734.000000000003
 21
1545.63761734853
 31
0.0
  0
ARC
  5
24F
330
1F
100
AcDbEntity
  8
水栓
  6
CONTINUOUS
 62
     6
100
AcDbCircle
 10
1692.636365025468
 20
1543.889845142715
 30
0.0
 40
1.136365716179741
100
AcDbArc
 50
179.9368276323079
 51
270.086178101623
  0
ARC
  5
250
330
1F
100
AcDbEntity
  8
水栓
  6
CONTINUOUS
 62
     6
100
AcDbCircle
 10
1692.636365025468
 20
1566.110154857285
 30
0.0
 40
1.136365716179741
100
AcDbArc
 50
89.91382189837705
 51
180.0631723676922
  0
LINE
  5
251
330
1F
100
AcDbEntity
  8
水栓
  6
CONTINUOUS
 62
     6
100
AcDbLine
 10
1691.5
 20
1566.108901939545
 30
0.0
 11
1691.5
 21
1543.902519921384
 31
0.0
  0
LINE
  5
252
330
1F
100
AcDbEntity
  8
水栓
  6
CONTINUOUS
 62
     6
100
AcDbLine
 10
1711.855756283184
 20
1567.246519288074
 30
0.0
 11
1692.63636502547
 21
1567.246519288074
 31
0.0
  0
LINE
  5
253
330
1F
100
AcDbEntity
  8
水栓
  6
CONTINUOUS
 62
     6
100
AcDbLine
 10
1691.5
 20
1563.999999999995
 30
0.0
 11
1684.76184367029
 21
1563.999999999995
 31
0.0
  0
LINE
  5
254
330
1F
100
AcDbEntity
  8
水栓
  6
CONTINUOUS
 62
     6
100
AcDbLine
 10
1691.5
 20
1545.999999999995
 30
0.0
 11
1684.90840174219
 21
1545.999999999995
 31
0.0
  0
LINE
  5
255
330
1F
100
AcDbEntity
  8
水栓
  6
CONTINUOUS
 62
     6
100
AcDbLine
 10
1711.855756283184
 20
1542.753480711926
 30
0.0
 11
1692.63807422297
 21
1542.753480711926
 31
0.0
  0
LINE
  5
256
330
1F
100
AcDbEntity
  8
水栓
  6
CONTINUOUS
 62
     6
100
AcDbLine
 10
1583.787784411477
 20
1511.457219812875
 30
0.0
 11
1588.108272103299
 21
1520.520005843208
 31
0.0
  0
ARC
  5
257
330
1F
100
AcDbEntity
  8
水栓
  6
CONTINUOUS
 62
     6
100
AcDbCircle
 10
1669.257471196411
 20
1590.12093668449
 30
0.0
 40
1.973304385260744
100
AcDbArc
 50
48.74071048938145
 51
79.32017033772489
  0
ARC
  5
258
330
1F
100
AcDbEntity
  8
水栓
  6
CONTINUOUS
 62
     6
100
AcDbCircle
 10
1658.742528803589
 20
1590.12093668449
 30
0.0
 40
1.973304385260744
100
AcDbArc
 50
100.6798296622751
 51
131.2592895147447
  0
LINE
  5
259
330
1F
100
AcDbEntity
  8
水栓
  6
CONTINUOUS
 62
     6
100
AcDbLine
 10
1669.623165318883
 20
1592.0600596836
 30
0.0
 11
1658.37683468112
 21
1592.0600596836
 31
0.0
  0
LINE
  5
25A
330
1F
100
AcDbEntity
  8
水栓
  6
CONTINUOUS
 62
     6
100
AcDbLine
 10
1659.1456473692
 20
1578.5358595008
 30
0.0
 11
1659.8204392148
 21
1577.7023180052
 31
0.0
  0
LINE
  5
25B
330
1F
100
AcDbEntity
  8
水栓
  6
CONTINUOUS
 62
     6
100
AcDbLine
 10
1668.8547759632
 20
1578.5358595008
 30
0.0
 11
1668.1799841176
 21
1577.7023180052
 31
0.0
  0
ARC
  5
25C
330
1F
100
AcDbEntity
  8
水栓
  6
CONTINUOUS
 62
     6
100
AcDbCircle
 10
1650.761811385576
 20
1578.211167295658
 30
0.0
 40
0.511814199167523
100
AcDbArc
 50
180.1899818882595
 51
269.8575467523301
  0
ARC
  5
25D
330
1F
100
AcDbEntity
  8
水栓
  6
CONTINUOUS
 62
     6
100
AcDbCircle
 10
1677.238188614424
 20
1578.211167295658
 30
0.0
 40
0.511814199167523
100
AcDbArc
 50
270.1424532476763
 51
359.8100181117405
  0
LINE
  5
25E
330
1F
100
AcDbEntity
  8
水栓
  6
CONTINUOUS
 62
     6
100
AcDbLine
 10
1672.73304363047
 20
1578.5358595008
 30
0.0
 11
1673.41037547047
 21
1577.7023180052
 31
0.0
  0
LINE
  5
25F
330
1F
100
AcDbEntity
  8
水栓
  6
CONTINUOUS
 62
     6
100
AcDbLine
 10
1650.7605388744
 20
1577.6993546784
 30
0.0
 11
1677.2394611256
 21
1577.6993546784
 31
0.0
  0
LINE
  5
260
330
1F
100
AcDbEntity
  8
水栓
  6
CONTINUOUS
 62
     6
100
AcDbLine
 10
1655.26695636953
 20
1578.5358595008
 30
0.0
 11
1654.58962452953
 21
1577.7023180052
 31
0.0
  0
ARC
  5
261
330
1F
100
AcDbEntity
  8
水栓
  6
CONTINUOUS
 62
     6
100
AcDbCircle
 10
1696.235626207681
 20
1613.708091098129
 30
0.0
 40
33.88030950030249
100
AcDbArc
 50
220.7233384557307
 51
236.0135783950876
  0
ARC
  5
262
330
1F
100
AcDbEntity
  8
水栓
  6
CONTINUOUS
 62
     6
100
AcDbCircle
 10
1631.736408509842
 20
1613.776961849029
 30
0.0
 40
33.94645225944432
100
AcDbArc
 50
303.9440449050104
 51
319.2193593747007
  0
ARC
  5
263
330
1F
100
AcDbEntity
  8
水栓
  6
CONTINUOUS
 62
     6
100
AcDbCircle
 10
1676.248081843094
 20
1581.136924814084
 30
0.0
 40
5.349731111917274
100
AcDbArc
 50
95.4269467490977
 51
131.1592210426746
  0
LINE
  5
264
330
1F
100
AcDbEntity
  8
水栓
  6
CONTINUOUS
 62
     6
100
AcDbLine
 10
1672.72713609369
 20
1585.1646492336
 30
0.0
 11
1672.73304363047
 21
1578.5358595008
 31
0.0
  0
ARC
  5
265
330
1F
100
AcDbEntity
  8
水栓
  6
CONTINUOUS
 62
     6
100
AcDbCircle
 10
1677.315891428627
 20
1585.131035014162
 30
0.0
 40
0.427784262004133
100
AcDbArc
 50
359.6826989962678
 51
39.37346933296691
  0
ARC
  5
266
330
1F
100
AcDbEntity
  8
水栓
  6
CONTINUOUS
 62
     6
100
AcDbCircle
 10
1677.080672329818
 20
1584.867149487062
 30
0.0
 40
0.778945030813095
100
AcDbArc
 50
43.40574576777736
 51
73.90234106229548
  0
LINE
  5
267
330
1F
100
AcDbEntity
  8
水栓
  6
CONTINUOUS
 62
     6
100
AcDbLine
 10
1677.74409246322
 20
1585.1286659796
 30
0.0
 11
1677.75
 21
1578.2094702204
 31
0.0
  0
ARC
  5
268
330
1F
100
AcDbEntity
  8
水栓
  6
CONTINUOUS
 62
     6
100
AcDbCircle
 10
1651.740103083346
 20
1581.136924814084
 30
0.0
 40
5.349731111917274
100
AcDbArc
 50
48.84077895732544
 51
84.57305325090229
  0
ARC
  5
269
330
1F
100
AcDbEntity
  8
水栓
  6
CONTINUOUS
 62
     6
100
AcDbCircle
 10
1650.672293497813
 20
1585.131035014162
 30
0.0
 40
0.427784262004133
100
AcDbArc
 50
140.6265306670342
 51
180.3173010037323
  0
ARC
  5
26A
330
1F
100
AcDbEntity
  8
水栓
  6
CONTINUOUS
 62
     6
100
AcDbCircle
 10
1650.907512596621
 20
1584.867149487062
 30
0.0
 40
0.778945030813095
100
AcDbArc
 50
106.0976589377045
 51
136.5942542322198
  0
LINE
  5
26B
330
1F
100
AcDbEntity
  8
水栓
  6
CONTINUOUS
 62
     6
100
AcDbLine
 10
1650.24409246322
 20
1585.1286659796
 30
0.0
 11
1650.25
 21
1578.2094702204
 31
0.0
  0
LINE
  5
26C
330
1F
100
AcDbEntity
  8
水栓
  6
CONTINUOUS
 62
     6
100
AcDbLine
 10
1655.26104883275
 20
1585.1646492336
 30
0.0
 11
1655.26695636953
 21
1578.5358595008
 31
0.0
  0
ARC
  5
26D
330
1F
100
AcDbEntity
  8
水栓
  6
CONTINUOUS
 62
     6
100
AcDbCircle
 10
1663.573553734324
 20
1578.448624170391
 30
0.0
 40
8.047356372835944
100
AcDbArc
 50
87.00447282993213
 51
123.4296483587577
  0
ARC
  5
26E
330
1F
100
AcDbEntity
  8
水栓
  6
CONTINUOUS
 62
     6
100
AcDbCircle
 10
1664.414631192116
 20
1578.448624170391
 30
0.0
 40
8.047356372835944
100
AcDbArc
 50
56.57035164124194
 51
92.99552717006748
  0
LINE
  5
26F
330
1F
100
AcDbEntity
  8
水栓
  6
CONTINUOUS
 62
     6
100
AcDbLine
 10
1668.84886842642
 20
1585.1646492336
 30
0.0
 11
1668.8547759632
 21
1578.5358595008
 31
0.0
  0
LINE
  5
270
330
1F
100
AcDbEntity
  8
水栓
  6
CONTINUOUS
 62
     6
100
AcDbLine
 10
1659.13973983242
 20
1585.1646492336
 30
0.0
 11
1659.1456473692
 21
1578.5358595008
 31
0.0
  0
LINE
  5
271
330
1F
100
AcDbEntity
  8
水栓
  6
CONTINUOUS
 62
     6
100
AcDbLine
 10
1734.0
 20
1564.3623826515
 30
0.0
 11
1720.0
 21
1564.3623826515
 31
0.0
  0
LINE
  5
272
330
1F
100
AcDbEntity
  8
水栓
  6
CONTINUOUS
 62
     6
100
AcDbLine
 10
1734.0
 20
1545.6376173485
 30
0.0
 11
1720.0
 21
1545.6376173485
 31
0.0
  0
LINE
  5
273
330
1F
100
AcDbEntity
  8
水栓
  6
EXLTYPE3
 62
     6
100
AcDbLine
 10
1664.0
 20
1614.4
 30
0.0
 11
1664.0
 21
1536.6
 31
0.0
  0
LINE
  5
274
330
1F
100
AcDbEntity
  8
水栓
  6
CONTINUOUS
 62
     6
100
AcDbLine
 10
692.0
 20
1572.336022806
 30
0.0
 11
692.4487866334999
 21
1564.555847493
 31
0.0
  0
LINE
  5
275
330
1F
100
AcDbEntity
  8
水栓
  6
CONTINUOUS
 62
     6
100
AcDbLine
 10
668.0
 20
1572.336022806
 30
0.0
 11
667.5512133665001
 21
1564.555847493
 31
0.0
  0
ARC
  5
276
330
1F
100
AcDbEntity
  8
水栓
  6
CONTINUOUS
 62
     6
100
AcDbCircle
 10
680.0
 20
1555.0
 30
0.0
 40
8.0
100
AcDbArc
 50
0.0
 51
180.0
  0
LINE
  5
277
330
1F
100
AcDbEntity
  8
水栓
  6
CONTINUOUS
 62
     6
100
AcDbLine
 10
665.5
 20
1548.850813062
 30
0.0
 11
665.5
 21
1561.149186938
 31
0.0
  0
LINE
  5
278
330
1F
100
AcDbEntity
  8
水栓
  6
CONTINUOUS
 62
     6
100
AcDbLine
 10
694.5
 20
1548.850813062
 30
0.0
 11
694.5
 21
1561.149186938
 31
0.0
  0
LINE
  5
279
330
1F
100
AcDbEntity
  8
水栓
  6
CONTINUOUS
 62
     6
100
AcDbLine
 10
672.0
 20
1542.875644347
 30
0.0
 11
667.424647899
 21
1545.517225114
 31
0.0
  0
LINE
  5
27A
330
1F
100
AcDbEntity
  8
水栓
  6
CONTINUOUS
 62
     6
100
AcDbLine
 10
692.575352101
 20
1545.517225114
 30
0.0
 11
688.0
 21
1542.875644347
 31
0.0
  0
LINE
  5
27B
330
1F
100
AcDbEntity
  8
水栓
  6
CONTINUOUS
 62
     6
100
AcDbLine
 10
692.575352101
 20
1564.482774886
 30
0.0
 11
681.924647899
 21
1570.631961824
 31
0.0
  0
LINE
  5
27C
330
1F
100
AcDbEntity
  8
水栓
  6
CONTINUOUS
 62
     6
100
AcDbLine
 10
678.075352101
 20
1570.631961824
 30
0.0
 11
667.424647899
 21
1564.482774886
 31
0.0
  0
ARC
  5
27D
330
1F
100
AcDbEntity
  8
水栓
  6
CONTINUOUS
 62
     6
100
AcDbCircle
 10
680.0
 20
1555.0
 30
0.0
 40
15.75
100
AcDbArc
 50
202.9809198075
 51
217.0190801925002
  0
ARC
  5
27E
330
1F
100
AcDbEntity
  8
水栓
  6
CONTINUOUS
 62
     6
100
AcDbCircle
 10
680.0
 20
1555.0
 30
0.0
 40
15.75
100
AcDbArc
 50
142.9809198075
 51
157.0190801925
  0
ARC
  5
27F
330
1F
100
AcDbEntity
  8
水栓
  6
CONTINUOUS
 62
     6
100
AcDbCircle
 10
680.0
 20
1555.0
 30
0.0
 40
15.75
100
AcDbArc
 50
82.98091980746
 51
97.01908019254
  0
ARC
  5
280
330
1F
100
AcDbEntity
  8
水栓
  6
CONTINUOUS
 62
     6
100
AcDbCircle
 10
680.0
 20
1555.0
 30
0.0
 40
15.75
100
AcDbArc
 50
22.98091980745998
 51
37.01908019253998
  0
ARC
  5
281
330
1F
100
AcDbEntity
  8
水栓
  6
CONTINUOUS
 62
     6
100
AcDbCircle
 10
680.0
 20
1555.0
 30
0.0
 40
15.75
100
AcDbArc
 50
322.9809198075002
 51
337.0190801925004
  0
ARC
  5
282
330
1F
100
AcDbEntity
  8
水栓
  6
CONTINUOUS
 62
     6
100
AcDbCircle
 10
680.0
 20
1555.0
 30
0.0
 40
9.5
100
AcDbArc
 50
327.3631024964001
 51
212.6368975036001
  0
ARC
  5
283
330
1F
100
AcDbEntity
  8
水栓
  6
CONTINUOUS
 62
     6
100
AcDbCircle
 10
680.0
 20
1555.0
 30
0.0
 40
8.5
100
AcDbArc
 50
340.2500772044002
 51
199.7499227956
  0
LINE
  5
284
330
1F
100
AcDbEntity
  8
水栓
  6
EXLTYPE3
 62
     6
100
AcDbLine
 10
721.9
 20
1555.0
 30
0.0
 11
637.4
 21
1555.0
 31
0.0
  0
ARC
  5
285
330
1F
100
AcDbEntity
  8
水栓
  6
CONTINUOUS
 62
     6
100
AcDbCircle
 10
680.0
 20
1555.0
 30
0.0
 40
25.0
100
AcDbArc
 50
118.6854020141191
 51
251.3370751150576
  0
ARC
  5
286
330
1F
100
AcDbEntity
  8
水栓
  6
CONTINUOUS
 62
     6
100
AcDbCircle
 10
680.0
 20
1555.0
 30
0.0
 40
25.0
100
AcDbArc
 50
288.662924884909
 51
61.31459798592357
  0
ELLIPSE
  5
287
330
1F
100
AcDbEntity
  8
水栓
  6
CONTINUOUS
 62
     6
100
AcDbEllipse
 10
680.0
 20
1514.0
 30
0.0
 11
7.48000000000002
 21
0.0
 31
0.0
210
0.0
220
0.0
230
1.0
 40
0.453070078649725
 41
3.141592653589793
 42
6.283185307179586
  0
ELLIPSE
  5
288
330
1F
100
AcDbEntity
  8
水栓
  6
CONTINUOUS
 62
     6
100
AcDbEllipse
 10
680.0
 20
1514.0
 30
0.0
 11
7.48000000000002
 21
0.0
 31
0.0
210
0.0
220
0.0
230
1.0
 40
0.4433399689304896
 41
0.0
 42
3.141592653589793
  0
ELLIPSE
  5
289
330
1F
100
AcDbEntity
  8
水栓
  6
CONTINUOUS
 62
     6
100
AcDbEllipse
 10
680.0
 20
1518.6576671464
 30
0.0
 11
7.250000000000004
 21
-1.775737858763663E-15
 31
0.0
210
0.0
220
0.0
230
1.0
 40
0.4226182617406894
 41
0.8572423540845374
 42
2.284350299505254
  0
ARC
  5
28A
330
1F
100
AcDbEntity
  8
水栓
  6
CONTINUOUS
 62
     6
100
AcDbCircle
 10
676.6544276467
 20
1516.2737195144
 30
0.0
 40
4.904427646733002
100
AcDbArc
 50
106.5828712915007
 51
214.1330163469344
  0
ARC
  5
28B
330
1F
100
AcDbEntity
  8
水栓
  6
CONTINUOUS
 62
     6
100
AcDbCircle
 10
683.3455723532999
 20
1516.2737195144
 30
0.0
 40
4.904427646733002
100
AcDbArc
 50
325.8669836530656
 51
73.41712870854003
  0
LINE
  5
28C
330
1F
100
AcDbEntity
  8
水栓
  6
CONTINUOUS
 62
     6
100
AcDbLine
 10
672.0
 20
1555.0
 30
0.0
 11
672.0
 21
1517.819589438965
 31
0.0
  0
LINE
  5
28D
330
1F
100
AcDbEntity
  8
水栓
  6
CONTINUOUS
 62
     6
100
AcDbLine
 10
687.9999999999999
 20
1555.0
 30
0.0
 11
687.9999999999999
 21
1517.819589438965
 31
0.0
  0
LINE
  5
28E
330
1F
100
AcDbEntity
  8
水栓
  6
CONTINUOUS
 62
     6
100
AcDbLine
 10
674.7
 20
1590.5993546784
 30
0.0
 11
667.9256510836
 21
1585.8559045004
 31
0.0
  0
LINE
  5
28F
330
1F
100
AcDbEntity
  8
水栓
  6
CONTINUOUS
 62
     6
100
AcDbLine
 10
685.3
 20
1590.5993546784
 30
0.0
 11
692.0743489164
 21
1585.8559045004
 31
0.0
  0
LINE
  5
290
330
1F
100
AcDbEntity
  8
水栓
  6
CONTINUOUS
 62
     6
100
AcDbLine
 10
674.7
 20
1590.5993546784
 30
0.0
 11
685.3
 21
1590.5993546784
 31
0.0
  0
LINE
  5
291
330
1F
100
AcDbEntity
  8
水栓
  6
CONTINUOUS
 62
     6
100
AcDbLine
 10
668.2696064673
 20
1586.0967446534
 30
0.0
 11
691.7303935327
 21
1586.0967446534
 31
0.0
  0
LINE
  5
292
330
1F
100
AcDbEntity
  8
水栓
  6
CONTINUOUS
 62
     6
100
AcDbLine
 10
667.25
 20
1577.6993546784
 30
0.0
 11
692.75
 21
1577.6993546784
 31
0.0
  0
LINE
  5
293
330
1F
100
AcDbEntity
  8
水栓
  6
CONTINUOUS
 62
     6
100
AcDbLine
 10
667.0
 20
1577.9832118854
 30
0.0
 11
667.0
 21
1584.9653319074
 31
0.0
  0
LINE
  5
294
330
1F
100
AcDbEntity
  8
水栓
  6
CONTINUOUS
 62
     6
100
AcDbLine
 10
693.0
 20
1584.9653319074
 30
0.0
 11
693.0
 21
1577.9832118854
 31
0.0
  0
ARC
  5
295
330
1F
100
AcDbEntity
  8
水栓
  6
CONTINUOUS
 62
     6
100
AcDbCircle
 10
671.25
 20
1581.4742718964
 30
0.0
 40
5.5
100
AcDbArc
 50
122.8123740608
 51
140.5994312463
  0
ARC
  5
296
330
1F
100
AcDbEntity
  8
水栓
  6
CONTINUOUS
 62
     6
100
AcDbCircle
 10
671.25
 20
1581.4742718964
 30
0.0
 40
5.5
100
AcDbArc
 50
219.4005687536999
 51
223.3417582272
  0
ARC
  5
297
330
1F
100
AcDbEntity
  8
水栓
  6
CONTINUOUS
 62
     6
100
AcDbCircle
 10
688.75
 20
1581.4742718964
 30
0.0
 40
5.5
100
AcDbArc
 50
316.6582417728004
 51
320.5994312463005
  0
ARC
  5
298
330
1F
100
AcDbEntity
  8
水栓
  6
CONTINUOUS
 62
     6
100
AcDbCircle
 10
688.75
 20
1581.4742718964
 30
0.0
 40
5.5
100
AcDbArc
 50
39.40056875373995
 51
57.18762593919001
  0
ELLIPSE
  5
299
330
1F
100
AcDbEntity
  8
水栓
  6
CONTINUOUS
 62
     6
100
AcDbEllipse
 10
686.5
 20
1581.4742718964
 30
0.0
 11
5.054391654789002
 21
0.0
 31
0.0
210
0.0
220
0.0
230
1.0
 40
0.6906983568703553
 41
0.0
 42
6.283185307179586
  0
ELLIPSE
  5
29A
330
1F
100
AcDbEntity
  8
水栓
  6
CONTINUOUS
 62
     6
100
AcDbEllipse
 10
673.5
 20
1581.4742718964
 30
0.0
 11
5.054391654789002
 21
0.0
 31
0.0
210
0.0
220
0.0
230
1.0
 40
0.6906983568703553
 41
0.0
 42
6.283185307179586
  0
LINE
  5
29B
330
1F
100
AcDbEntity
  8
水栓
  6
CONTINUOUS
 62
     6
100
AcDbLine
 10
667.9999999999999
 20
1577.6993546784
 30
0.0
 11
667.9999999999999
 21
1572.336022806
 31
0.0
  0
LINE
  5
29C
330
1F
100
AcDbEntity
  8
水栓
  6
CONTINUOUS
 62
     6
100
AcDbLine
 10
692.0
 20
1577.6993546784
 30
0.0
 11
692.0
 21
1572.336022806
 31
0.0
  0
LINE
  5
29D
330
1F
100
AcDbEntity
  8
水栓
  6
CONTINUOUS
 62
     6
100
AcDbLine
 10
652.5
 20
1597.5
 30
0.0
 11
707.5
 21
1597.5
 31
0.0
  0
LINE
  5
29E
330
1F
100
AcDbEntity
  8
水栓
  6
CONTINUOUS
 62
     6
100
AcDbLine
 10
686.000061
 20
1597.5
 30
0.0
 11
685.4914856
 21
1601.6415405
 31
0.0
  0
ARC
  5
29F
330
1F
100
AcDbEntity
  8
水栓
  6
CONTINUOUS
 62
     6
100
AcDbCircle
 10
680.0
 20
1600.9672546
 30
0.0
 40
5.532728400000002
100
AcDbArc
 50
7.000164989999946
 51
172.99983215
  0
LINE
  5
2A0
330
1F
100
AcDbEntity
  8
水栓
  6
CONTINUOUS
 62
     6
100
AcDbLine
 10
673.999939
 20
1597.5
 30
0.0
 11
674.5085144
 21
1601.6415405
 31
0.0
  0
ARC
  5
2A1
330
1F
100
AcDbEntity
  8
水栓
  6
CONTINUOUS
 62
     6
100
AcDbCircle
 10
679.9319275938689
 20
1588.536300397695
 30
0.0
 40
23.46401639458544
100
AcDbArc
 50
73.2096272470707
 51
90.29773112399253
  0
ARC
  5
2A2
330
1F
100
AcDbEntity
  8
水栓
  6
CONTINUOUS
 62
     6
100
AcDbCircle
 10
679.6880724061315
 20
1588.536300397695
 30
0.0
 40
23.46401639458544
100
AcDbArc
 50
89.70226887600734
 51
106.7903727529292
  0
LINE
  5
2A3
330
1F
100
AcDbEntity
  8
水栓
  6
CONTINUOUS
 62
     6
100
AcDbLine
 10
672.8680900924004
 20
1609.0
 30
0.0
 11
672.8680900924002
 21
1610.987311657898
 31
0.0
  0
LINE
  5
2A4
330
1F
100
AcDbEntity
  8
水栓
  6
CONTINUOUS
 62
     6
100
AcDbLine
 10
686.7100000000002
 20
1609.0
 30
0.0
 11
686.7100000000002
 21
1611.0
 31
0.0
  0
LINE
  5
2A5
330
1F
100
AcDbEntity
  8
水栓
  6
CONTINUOUS
 62
     6
100
AcDbLine
 10
672.8680900923988
 20
1609.0
 30
0.0
 11
686.7100000000024
 21
1609.0
 31
0.0
  0
LINE
  5
2A6
330
1F
100
AcDbEntity
  8
水栓
  6
CONTINUOUS
 62
     6
100
AcDbLine
 10
672.91
 20
1611.0
 30
0.0
 11
686.7100000000004
 21
1611.0
 31
0.0
  0
LINE
  5
2A7
330
1F
100
AcDbEntity
  8
水栓
  6
CONTINUOUS
 62
     6
100
AcDbLine
 10
673.6793001832001
 20
1611.0
 30
0.0
 11
673.6793001832001
 21
1609.0
 31
0.0
  0
LINE
  5
2A8
330
1F
100
AcDbEntity
  8
水栓
  6
CONTINUOUS
 62
     6
100
AcDbLine
 10
675.0144905728001
 20
1611.0
 30
0.0
 11
675.0144905728001
 21
1609.0
 31
0.0
  0
LINE
  5
2A9
330
1F
100
AcDbEntity
  8
水栓
  6
CONTINUOUS
 62
     6
100
AcDbLine
 10
676.6409336536002
 20
1611.0
 30
0.0
 11
676.6409336536002
 21
1609.0
 31
0.0
  0
LINE
  5
2AA
330
1F
100
AcDbEntity
  8
水栓
  6
CONTINUOUS
 62
     6
100
AcDbLine
 10
678.6018093304002
 20
1611.0
 30
0.0
 11
678.6018093304002
 21
1609.0
 31
0.0
  0
LINE
  5
2AB
330
1F
100
AcDbEntity
  8
水栓
  6
CONTINUOUS
 62
     6
100
AcDbLine
 10
681.0224239936002
 20
1611.0
 30
0.0
 11
681.0224239936002
 21
1609.0
 31
0.0
  0
LINE
  5
2AC
330
1F
100
AcDbEntity
  8
水栓
  6
CONTINUOUS
 62
     6
100
AcDbLine
 10
682.9828763380002
 20
1611.0
 30
0.0
 11
682.9828763380002
 21
1609.0
 31
0.0
  0
LINE
  5
2AD
330
1F
100
AcDbEntity
  8
水栓
  6
CONTINUOUS
 62
     6
100
AcDbLine
 10
684.6093194188003
 20
1611.0
 30
0.0
 11
684.6093194188003
 21
1609.0
 31
0.0
  0
LINE
  5
2AE
330
1F
100
AcDbEntity
  8
水栓
  6
CONTINUOUS
 62
     6
100
AcDbLine
 10
685.9445098084001
 20
1611.0
 30
0.0
 11
685.9445098084001
 21
1609.0
 31
0.0
  0
ARC
  5
2AF
330
1F
100
AcDbEntity
  8
水栓
  6
CONTINUOUS
 62
     6
100
AcDbCircle
 10
658.9994812
 20
1601.7003479
 30
0.0
 40
5.999989500000002
100
AcDbArc
 50
97.34358214999997
 51
173.00027466
  0
ARC
  5
2B0
330
1F
100
AcDbEntity
  8
水栓
  6
CONTINUOUS
 62
     6
100
AcDbCircle
 10
683.7945557
 20
1409.2914429
 30
0.0
 40
200.0
100
AcDbArc
 50
93.09394835999997
 51
97.34307860999999
  0
LINE
  5
2B1
330
1F
100
AcDbEntity
  8
水栓
  6
CONTINUOUS
 62
     6
100
AcDbLine
 10
673.0000305
 20
1609.0
 30
0.0
 11
686.9999695
 21
1609.0
 31
0.0
  0
ARC
  5
2B2
330
1F
100
AcDbEntity
  8
水栓
  6
CONTINUOUS
 62
     6
100
AcDbCircle
 10
676.2054443
 20
1409.2914429
 30
0.0
 40
200.0
100
AcDbArc
 50
82.65698241999998
 51
86.90611266999998
  0
ARC
  5
2B3
330
1F
100
AcDbEntity
  8
水栓
  6
CONTINUOUS
 62
     6
100
AcDbCircle
 10
701.0005188
 20
1601.7003479
 30
0.0
 40
6.000073
100
AcDbArc
 50
6.999768259999972
 51
82.65643310999998
  0
LINE
  5
2B4
330
1F
100
AcDbEntity
  8
水栓
  6
CONTINUOUS
 62
     6
100
AcDbLine
 10
652.4386157622107
 20
1597.5
 30
0.0
 11
653.0441284
 21
1602.4315491
 31
0.0
  0
LINE
  5
2B5
330
1F
100
AcDbEntity
  8
水栓
  6
CONTINUOUS
 62
     6
100
AcDbLine
 10
707.560472566865
 20
1597.507425030702
 30
0.0
 11
706.9558716
 21
1602.4315491
 31
0.0
  0
LINE
  5
2B6
330
1F
100
AcDbEntity
  8
水栓
  6
CONTINUOUS
 62
     6
100
AcDbLine
 10
684.75
 20
1597.5
 30
0.0
 11
684.75
 21
1590.5993546784
 31
0.0
  0
LINE
  5
2B7
330
1F
100
AcDbEntity
  8
水栓
  6
CONTINUOUS
 62
     6
100
AcDbLine
 10
675.25
 20
1597.5
 30
0.0
 11
675.25
 21
1590.5993546784
 31
0.0
  0
CIRCLE
  5
2B8
330
1F
100
AcDbEntity
  8
水栓
  6
CONTINUOUS
 62
     6
100
AcDbCircle
 10
680.0
 20
2429.0
 30
0.0
 40
5.5000305
  0
CIRCLE
  5
2B9
330
1F
100
AcDbEntity
  8
水栓
  6
CONTINUOUS
 62
     6
100
AcDbCircle
 10
680.0
 20
2429.0
 30
0.0
 40
6.999969500000002
  0
LINE
  5
2BA
330
1F
100
AcDbEntity
  8
水栓
  6
CONTINUOUS
 62
     6
100
AcDbLine
 10
685.7571032365
 20
2402.310112702
 30
0.0
 11
690.2546692
 21
2417.6329651
 31
0.0
  0
ARC
  5
2BB
330
1F
100
AcDbEntity
  8
水栓
  6
CONTINUOUS
 62
     6
100
AcDbCircle
 10
709.4450378
 20
2412.0001831
 30
0.0
 40
20.0000286
100
AcDbArc
 50
136.3576660200001
 51
163.6419220000001
  0
LINE
  5
2BC
330
1F
100
AcDbEntity
  8
水栓
  6
CONTINUOUS
 62
     6
100
AcDbLine
 10
694.9717712
 20
2425.8032837
 30
0.0
 11
705.9925842
 21
2437.3590698
 31
0.0
  0
ARC
  5
2BD
330
1F
100
AcDbEntity
  8
水栓
  6
CONTINUOUS
 62
     6
100
AcDbCircle
 10
701.6506958
 20
2441.5
 30
0.0
 40
5.9999418
100
AcDbArc
 50
316.3570861800001
 51
103.64331055
  0
LINE
  5
2BE
330
1F
100
AcDbEntity
  8
水栓
  6
CONTINUOUS
 62
     6
100
AcDbLine
 10
700.2354431000001
 20
2447.3306885
 30
0.0
 11
684.7172546
 21
2443.564209
 31
0.0
  0
ARC
  5
2BF
330
1F
100
AcDbEntity
  8
水栓
  6
CONTINUOUS
 62
     6
100
AcDbCircle
 10
680.0
 20
2462.999939
 30
0.0
 40
19.9999619
100
AcDbArc
 50
256.3560943599999
 51
283.6425323500003
  0
LINE
  5
2C0
330
1F
100
AcDbEntity
  8
水栓
  6
CONTINUOUS
 62
     6
100
AcDbLine
 10
675.2822876
 20
2443.5643616
 30
0.0
 11
659.7647095000001
 21
2447.3309937
 31
0.0
  0
ARC
  5
2C1
330
1F
100
AcDbEntity
  8
水栓
  6
CONTINUOUS
 62
     6
100
AcDbCircle
 10
658.3494568000001
 20
2441.5003052
 30
0.0
 40
5.999989500000002
100
AcDbArc
 50
76.35670471
 51
223.64189148
  0
LINE
  5
2C2
330
1F
100
AcDbEntity
  8
水栓
  6
CONTINUOUS
 62
     6
100
AcDbLine
 10
654.0074158
 20
2437.359375
 30
0.0
 11
665.0285339
 21
2425.8029785
 31
0.0
  0
ARC
  5
2C3
330
1F
100
AcDbEntity
  8
水栓
  6
CONTINUOUS
 62
     6
100
AcDbCircle
 10
650.5551147
 20
2412.0000305
 30
0.0
 40
20.0000191
100
AcDbArc
 50
16.35711669999997
 51
43.64169311999996
  0
LINE
  5
2C4
330
1F
100
AcDbEntity
  8
水栓
  6
CONTINUOUS
 62
     6
100
AcDbLine
 10
669.745636
 20
2417.6325073
 30
0.0
 11
674.2428746025
 21
2402.310188201
 31
0.0
  0
LINE
  5
2C5
330
1F
100
AcDbEntity
  8
水栓
  6
CONTINUOUS
 62
     6
100
AcDbLine
 10
671.25
 20
2499.0
 30
0.0
 11
688.75
 21
2499.0
 31
0.0
  0
LINE
  5
2C6
330
1F
100
AcDbEntity
  8
水栓
  6
CONTINUOUS
 62
     6
100
AcDbLine
 10
669.5225
 20
2485.0
 30
0.0
 11
669.5225
 21
2497.2725
 31
0.0
  0
LINE
  5
2C7
330
1F
100
AcDbEntity
  8
水栓
  6
CONTINUOUS
 62
     6
100
AcDbLine
 10
690.4775
 20
2485.0
 30
0.0
 11
690.4775
 21
2497.2725
 31
0.0
  0
LINE
  5
2C8
330
1F
100
AcDbEntity
  8
水栓
  6
CONTINUOUS
 62
     6
100
AcDbLine
 10
669.5225
 20
2497.2725
 30
0.0
 11
671.25
 21
2499.0
 31
0.0
  0
LINE
  5
2C9
330
1F
100
AcDbEntity
  8
水栓
  6
CONTINUOUS
 62
     6
100
AcDbLine
 10
690.4775
 20
2497.2725
 30
0.0
 11
688.75
 21
2499.0
 31
0.0
  0
LINE
  5
2CA
330
1F
100
AcDbEntity
  8
水栓
  6
CONTINUOUS
 62
     6
100
AcDbLine
 10
670.5225
 20
2486.0
 30
0.0
 11
670.5225
 21
2498.2725
 31
0.0
  0
LINE
  5
2CB
330
1F
100
AcDbEntity
  8
水栓
  6
CONTINUOUS
 62
     6
100
AcDbLine
 10
669.5225
 20
2485.0
 30
0.0
 11
670.5225
 21
2486.0
 31
0.0
  0
LINE
  5
2CC
330
1F
100
AcDbEntity
  8
水栓
  6
CONTINUOUS
 62
     6
100
AcDbLine
 10
669.5225
 20
2497.2725
 30
0.0
 11
690.4775
 21
2497.2725
 31
0.0
  0
LINE
  5
2CD
330
1F
100
AcDbEntity
  8
水栓
  6
CONTINUOUS
 62
     6
100
AcDbLine
 10
689.4775
 20
2486.0
 30
0.0
 11
689.4775
 21
2498.2725
 31
0.0
  0
LINE
  5
2CE
330
1F
100
AcDbEntity
  8
水栓
  6
CONTINUOUS
 62
     6
100
AcDbLine
 10
690.4775
 20
2485.0
 30
0.0
 11
689.4775
 21
2486.0
 31
0.0
  0
ARC
  5
2CF
330
1F
100
AcDbEntity
  8
水栓
  6
CONTINUOUS
 62
     6
100
AcDbCircle
 10
679.9999696473001
 20
2403.999947428
 30
0.0
 40
5.9999418
100
AcDbArc
 50
196.35708618
 51
343.6433105500001
  0
ARC
  5
2D0
330
1F
100
AcDbEntity
  8
水栓
  6
CONTINUOUS
 62
     6
100
AcDbCircle
 10
739.0
 20
2455.532998323
 30
0.0
 40
50.00000000000001
100
AcDbArc
 50
180.0
 51
192.2991316734
  0
ARC
  5
2D1
330
1F
100
AcDbEntity
  8
水栓
  6
CONTINUOUS
 62
     6
100
AcDbCircle
 10
621.0
 20
2455.532998323
 30
0.0
 40
50.00000000000001
100
AcDbArc
 50
347.7010317601002
 51
0.0
  0
LINE
  5
2D2
330
1F
100
AcDbEntity
  8
水栓
  6
CONTINUOUS
 62
     6
100
AcDbLine
 10
669.5225
 20
2486.0
 30
0.0
 11
690.4775
 21
2486.0
 31
0.0
  0
LINE
  5
2D3
330
1F
100
AcDbEntity
  8
水栓
  6
CONTINUOUS
 62
     6
100
AcDbLine
 10
654.9999999999974
 20
2484.999999999998
 30
0.0
 11
654.9999999999974
 21
2483.108996704593
 31
0.0
  0
ARC
  5
2D4
330
1F
100
AcDbEntity
  8
水栓
  6
CONTINUOUS
 62
     6
100
AcDbCircle
 10
657.3694836905894
 20
2483.11784312948
 30
0.0
 40
2.369500204516059
100
AcDbArc
 50
180.213911771986
 51
266.1899157546555
  0
LINE
  5
2D5
330
1F
100
AcDbEntity
  8
水栓
  6
CONTINUOUS
 62
     6
100
AcDbLine
 10
657.21203154953
 20
2480.741016496792
 30
0.0
 11
663.5100309395842
 21
2480.741016496792
 31
0.0
  0
LINE
  5
2D6
330
1F
100
AcDbEntity
  8
水栓
  6
CONTINUOUS
 62
     6
100
AcDbLine
 10
705.0000000000001
 20
2484.999999999998
 30
0.0
 11
655.0000000000001
 21
2484.999999999998
 31
0.0
  0
LINE
  5
2D7
330
1F
100
AcDbEntity
  8
水栓
  6
CONTINUOUS
 62
     6
100
AcDbLine
 10
705.0000000000028
 20
2484.999999999998
 30
0.0
 11
705.0000000000028
 21
2483.108996704593
 31
0.0
  0
ARC
  5
2D8
330
1F
100
AcDbEntity
  8
水栓
  6
CONTINUOUS
 62
     6
100
AcDbCircle
 10
702.6305163094108
 20
2483.11784312948
 30
0.0
 40
2.369500204516059
100
AcDbArc
 50
273.8100842453443
 51
359.7860882280142
  0
LINE
  5
2D9
330
1F
100
AcDbEntity
  8
水栓
  6
CONTINUOUS
 62
     6
100
AcDbLine
 10
702.7879684504702
 20
2480.741016496792
 30
0.0
 11
696.489969060416
 21
2480.741016496792
 31
0.0
  0
ARC
  5
2DA
330
1F
100
AcDbEntity
  8
水栓
  6
CONTINUOUS
 62
     6
100
AcDbCircle
 10
660.6408544830884
 20
2472.475329940802
 30
0.0
 40
8.749499858868148
100
AcDbArc
 50
44.67845813740469
 51
70.85714303460972
  0
ARC
  5
2DB
330
1F
100
AcDbEntity
  8
水栓
  6
CONTINUOUS
 62
     6
100
AcDbCircle
 10
664.5971454520078
 20
2476.492804069394
 30
0.0
 40
3.112429519563806
100
AcDbArc
 50
18.79553861137628
 51
43.29943726812906
  0
ARC
  5
2DC
330
1F
100
AcDbEntity
  8
水栓
  6
CONTINUOUS
 62
     6
100
AcDbCircle
 10
663.7695775737362
 20
2476.579418375899
 30
0.0
 40
3.883640196853761
100
AcDbArc
 50
4.080292146319529
 51
13.64520906936955
  0
LINE
  5
2DD
330
1F
100
AcDbEntity
  8
水栓
  6
CONTINUOUS
 62
     6
100
AcDbLine
 10
667.6433739725702
 20
2476.85575628318
 30
0.0
 11
667.7534807119301
 21
2476.85575628318
 31
0.0
  0
ARC
  5
2DE
330
1F
100
AcDbEntity
  8
水栓
  6
CONTINUOUS
 62
     6
100
AcDbCircle
 10
695.4028545479924
 20
2476.492804069394
 30
0.0
 40
3.112429519563806
100
AcDbArc
 50
136.7005627318711
 51
161.2044613886239
  0
ARC
  5
2DF
330
1F
100
AcDbEntity
  8
水栓
  6
CONTINUOUS
 62
     6
100
AcDbCircle
 10
696.230422426264
 20
2476.579418375899
 30
0.0
 40
3.883640196853761
100
AcDbArc
 50
166.3547909306305
 51
175.9197078536805
  0
LINE
  5
2E0
330
1F
100
AcDbEntity
  8
水栓
  6
CONTINUOUS
 62
     6
100
AcDbLine
 10
692.35662602743
 20
2476.85575628318
 30
0.0
 11
692.2465192880701
 21
2476.85575628318
 31
0.0
  0
ARC
  5
2E1
330
1F
100
AcDbEntity
  8
水栓
  6
CONTINUOUS
 62
     6
100
AcDbCircle
 10
695.4028545479924
 20
2476.492804069394
 30
0.0
 40
3.112429519563806
100
AcDbArc
 50
136.7005627318711
 51
161.2044613886239
  0
ARC
  5
2E2
330
1F
100
AcDbEntity
  8
水栓
  6
CONTINUOUS
 62
     6
100
AcDbCircle
 10
699.3591455169118
 20
2472.475329940802
 30
0.0
 40
8.749499858868148
100
AcDbArc
 50
109.1428569653903
 51
135.3215418625955
  0
ARC
  5
2E3
330
1F
100
AcDbEntity
  8
水栓
  6
CONTINUOUS
 62
     6
100
AcDbCircle
 10
691.1101548572855
 20
2457.636365025468
 30
0.0
 40
1.136365716179741
100
AcDbArc
 50
269.9368276323079
 51
0.0861781016230218
  0
ARC
  5
2E4
330
1F
100
AcDbEntity
  8
水栓
  6
CONTINUOUS
 62
     6
100
AcDbCircle
 10
668.8898451427148
 20
2457.636365025468
 30
0.0
 40
1.136365716179741
100
AcDbArc
 50
179.9138218983771
 51
270.0631723676922
  0
LINE
  5
2E5
330
1F
100
AcDbEntity
  8
水栓
  6
CONTINUOUS
 62
     6
100
AcDbLine
 10
668.8910980604547
 20
2456.5
 30
0.0
 11
691.0974800786165
 21
2456.5
 31
0.0
  0
LINE
  5
2E6
330
1F
100
AcDbEntity
  8
水栓
  6
CONTINUOUS
 62
     6
100
AcDbLine
 10
667.7534807119263
 20
2476.855756283184
 30
0.0
 11
667.7534807119263
 21
2457.63636502547
 31
0.0
  0
LINE
  5
2E7
330
1F
100
AcDbEntity
  8
水栓
  6
CONTINUOUS
 62
     6
100
AcDbLine
 10
692.246519288074
 20
2476.855756283184
 30
0.0
 11
692.246519288074
 21
2457.63807422297
 31
0.0
  0
LINE
  5
2E8
330
1F
100
AcDbEntity
  8
水栓
  6
CONTINUOUS
 62
     6
100
AcDbLine
 10
671.0
 20
2455.532998323
 30
0.0
 11
671.0
 21
2456.5
 31
0.0
  0
LINE
  5
2E9
330
1F
100
AcDbEntity
  8
水栓
  6
CONTINUOUS
 62
     6
100
AcDbLine
 10
689.0
 20
2455.532998323
 30
0.0
 11
689.0
 21
2456.5
 31
0.0
  0
LINE
  5
2EA
330
1F
100
AcDbEntity
  8
水栓
  6
CONTINUOUS
 62
     6
100
AcDbLine
 10
689.5
 20
2393.6196242542
 30
0.0
 11
670.5
 21
2393.6196242542
 31
0.0
  0
LINE
  5
2EB
330
1F
100
AcDbEntity
  8
水栓
  6
CONTINUOUS
 62
     6
100
AcDbLine
 10
689.5
 20
2393.6196242542
 30
0.0
 11
692.3092940405
 21
2394.7936404802
 31
0.0
  0
LINE
  5
2EC
330
1F
100
AcDbEntity
  8
水栓
  6
CONTINUOUS
 62
     6
100
AcDbLine
 10
670.5
 20
2393.6196242542
 30
0.0
 11
667.6907059595
 21
2394.7936404802
 31
0.0
  0
LINE
  5
2ED
330
1F
100
AcDbEntity
  8
水栓
  6
CONTINUOUS
 62
     6
100
AcDbLine
 10
694.5
 20
2396.4339139312
 30
0.0
 11
694.5
 21
2403.4872819212
 31
0.0
  0
LINE
  5
2EE
330
1F
100
AcDbEntity
  8
水栓
  6
CONTINUOUS
 62
     6
100
AcDbLine
 10
665.5
 20
2396.4339139312
 30
0.0
 11
665.5
 21
2403.4872819212
 31
0.0
  0
ARC
  5
2EF
330
1F
100
AcDbEntity
  8
水栓
  6
CONTINUOUS
 62
     6
100
AcDbCircle
 10
690.15
 20
2399.9605979262
 30
0.0
 40
5.600000000000002
100
AcDbArc
 50
292.6802626258001
 51
320.9672132770003
  0
ARC
  5
2F0
330
1F
100
AcDbEntity
  8
水栓
  6
CONTINUOUS
 62
     6
100
AcDbCircle
 10
690.15
 20
2399.9605979262
 30
0.0
 40
5.600000000000002
100
AcDbArc
 50
39.03278672294999
 51
47.96049367104997
  0
ARC
  5
2F1
330
1F
100
AcDbEntity
  8
水栓
  6
CONTINUOUS
 62
     6
100
AcDbCircle
 10
669.85
 20
2399.9605979262
 30
0.0
 40
5.600000000000002
100
AcDbArc
 50
132.039506329
 51
140.967213277
  0
ARC
  5
2F2
330
1F
100
AcDbEntity
  8
水栓
  6
CONTINUOUS
 62
     6
100
AcDbCircle
 10
669.85
 20
2399.9605979262
 30
0.0
 40
5.600000000000002
100
AcDbArc
 50
219.032786723
 51
247.3197373742002
  0
LINE
  5
2F3
330
1F
100
AcDbEntity
  8
水栓
  6
CONTINUOUS
 62
     6
100
AcDbLine
 10
693.9
 20
2404.1196242542
 30
0.0
 11
686.9869195926999
 21
2404.1196242542
 31
0.0
  0
LINE
  5
2F4
330
1F
100
AcDbEntity
  8
水栓
  6
CONTINUOUS
 62
     6
100
AcDbLine
 10
673.0131271185
 20
2404.1196242542
 30
0.0
 11
666.1
 21
2404.1196242542
 31
0.0
  0
LINE
  5
2F5
330
1F
100
AcDbEntity
  8
水栓
  6
CONTINUOUS
 62
     6
100
AcDbLine
 10
668.0
 20
2404.1196242542
 30
0.0
 11
668.0
 21
2407.2666979902
 31
0.0
  0
LINE
  5
2F6
330
1F
100
AcDbEntity
  8
水栓
  6
CONTINUOUS
 62
     6
100
AcDbLine
 10
667.0
 20
2404.1196242542
 30
0.0
 11
668.1757205427
 21
2407.8197034952
 31
0.0
  0
LINE
  5
2F7
330
1F
100
AcDbEntity
  8
水栓
  6
CONTINUOUS
 62
     6
100
AcDbLine
 10
692.0
 20
2404.1196242542
 30
0.0
 11
692.0
 21
2407.2666979902
 31
0.0
  0
ARC
  5
2F8
330
1F
100
AcDbEntity
  8
水栓
  6
CONTINUOUS
 62
     6
100
AcDbCircle
 10
706.1199259569
 20
2412.3622238482
 30
0.0
 40
15.0
100
AcDbArc
 50
164.9758912316
 51
197.6279410082001
  0
LINE
  5
2F9
330
1F
100
AcDbEntity
  8
水栓
  6
CONTINUOUS
 62
     6
100
AcDbLine
 10
693.0
 20
2404.1196242542
 30
0.0
 11
691.8242794573
 21
2407.8197034952
 31
0.0
  0
ARC
  5
2FA
330
1F
100
AcDbEntity
  8
水栓
  6
CONTINUOUS
 62
     6
100
AcDbCircle
 10
653.8800740431
 20
2412.3622238482
 30
0.0
 40
15.0
100
AcDbArc
 50
342.3720589918003
 51
15.02410876844989
  0
ELLIPSE
  5
2FB
330
1F
100
AcDbEntity
  8
水栓
  6
CONTINUOUS
 62
     6
100
AcDbEllipse
 10
687.25
 20
2399.9605979262
 30
0.0
 11
-5.325352101035
 21
-1.712763866235489E-15
 31
0.0
210
0.0
220
0.0
230
1.0
 40
0.662244285073766
 41
0.4264953782910668
 42
4.934436552376068
  0
ELLIPSE
  5
2FC
330
1F
100
AcDbEntity
  8
水栓
  6
CONTINUOUS
 62
     6
100
AcDbEllipse
 10
672.75
 20
2399.9605979262
 30
0.0
 11
-5.325352101035
 21
-1.712763866235489E-15
 31
0.0
210
0.0
220
0.0
230
1.0
 40
0.662244285073766
 41
4.52110456227329
 42
8.998276228248216
  0
LINE
  5
2FD
330
1F
100
AcDbEntity
  8
水栓
  6
CONTINUOUS
 62
     6
100
AcDbLine
 10
667.0
 20
2404.1196242542
 30
0.0
 11
673.7117888305205
 21
2404.1196242542
 31
0.0
  0
LINE
  5
2FE
330
1F
100
AcDbEntity
  8
水栓
  6
CONTINUOUS
 62
     6
100
AcDbLine
 10
686.288231342178
 20
2404.1196242542
 30
0.0
 11
692.9999999999999
 21
2404.1196242542
 31
0.0
  0
LINE
  5
2FF
330
1F
100
AcDbEntity
  8
水栓
  6
CONTINUOUS
 62
     6
100
AcDbLine
 10
692.1076408181799
 20
2418.2176941405
 30
0.0
 11
693.1101023523231
 21
2423.54015831319
 31
0.0
  0
ARC
  5
300
330
1F
100
AcDbEntity
  8
水栓
  6
CONTINUOUS
 62
     6
100
AcDbCircle
 10
652.9999999999999
 20
2426.6196242542
 30
0.0
 40
40.0
100
AcDbArc
 50
344.9758912316003
 51
347.8748200008945
  0
LINE
  5
301
330
1F
100
AcDbEntity
  8
水栓
  6
CONTINUOUS
 62
     6
100
AcDbLine
 10
667.8923591818206
 20
2418.2176941405
 30
0.0
 11
666.8898976476773
 21
2423.54015831319
 31
0.0
  0
ARC
  5
302
330
1F
100
AcDbEntity
  8
水栓
  6
CONTINUOUS
 62
     6
100
AcDbCircle
 10
707.0000000000006
 20
2426.6196242542
 30
0.0
 40
40.0
100
AcDbArc
 50
192.1251799991055
 51
195.0241087683997
  0
ARC
  5
303
330
1F
100
AcDbEntity
  8
水栓
  6
CONTINUOUS
 62
     6
100
AcDbCircle
 10
680.0
 20
2352.954295445501
 30
0.0
 40
8.012742542918003
100
AcDbArc
 50
183.2317120644
 51
356.7682879356002
  0
ELLIPSE
  5
304
330
1F
100
AcDbEntity
  8
水栓
  6
CONTINUOUS
 62
     6
100
AcDbEllipse
 10
680.0
 20
2350.4631610505
 30
0.0
 11
8.25
 21
0.0
 31
0.0
210
0.0
220
0.0
230
1.0
 40
0.9063077870366061
 41
2.894783720120877
 42
6.529994240649264
  0
LINE
  5
305
330
1F
100
AcDbEntity
  8
水栓
  6
CONTINUOUS
 62
     6
100
AcDbLine
 10
672.0
 20
2393.6196242542
 30
0.0
 11
672.0
 21
2352.5025841892
 31
0.0
  0
LINE
  5
306
330
1F
100
AcDbEntity
  8
水栓
  6
CONTINUOUS
 62
     6
100
AcDbLine
 10
687.9999999999999
 20
2393.6196242542
 30
0.0
 11
687.9999999999999
 21
2352.5025841892
 31
0.0
  0
LINE
  5
307
330
1F
100
AcDbEntity
  8
水栓
  6
EXLTYPE3
 62
     6
100
AcDbLine
 10
1607.5
 20
1555.0
 30
0.0
 11
1739.8
 21
1555.0
 31
0.0
  0
LINE
  5
308
330
1F
100
AcDbEntity
  8
トラップ
  6
EXLTYPE3
 62
     6
100
AcDbLine
 10
1660.0
 20
671.0
 30
0.0
 11
1660.0
 21
513.7
 31
0.0
  0
LINE
  5
309
330
1F
100
AcDbEntity
  8
トラップ
  6
CONTINUOUS
 62
     6
100
AcDbLine
 10
1619.25
 20
1086.699999999999
 30
0.0
 11
1619.25
 21
1085.5
 31
0.0
  0
LINE
  5
30A
330
1F
100
AcDbEntity
  8
トラップ
  6
CONTINUOUS
 62
     6
100
AcDbLine
 10
1560.75
 20
1086.699999999999
 30
0.0
 11
1560.75
 21
1085.5
 31
0.0
  0
LINE
  5
30B
330
1F
100
AcDbEntity
  8
トラップ
  6
CONTINUOUS
 62
     6
100
AcDbLine
 10
1560.75
 20
1085.5
 30
0.0
 11
1619.25
 21
1085.5
 31
0.0
  0
LINE
  5
30C
330
1F
100
AcDbEntity
  8
トラップ
  6
CONTINUOUS
 62
     6
100
AcDbLine
 10
1560.75
 20
1086.7
 30
0.0
 11
1619.25
 21
1086.7
 31
0.0
  0
LINE
  5
30D
330
1F
100
AcDbEntity
  8
トラップ
  6
CONTINUOUS
 62
     6
100
AcDbLine
 10
1609.25
 20
1085.499999999999
 30
0.0
 11
1609.25
 21
1084.999999999999
 31
0.0
  0
LINE
  5
30E
330
1F
100
AcDbEntity
  8
トラップ
  6
CONTINUOUS
 62
     6
100
AcDbLine
 10
1617.0
 20
1085.499999999999
 30
0.0
 11
1617.0
 21
1084.999999999999
 31
0.0
  0
LINE
  5
30F
330
1F
100
AcDbEntity
  8
トラップ
  6
CONTINUOUS
 62
     6
100
AcDbLine
 10
1563.0
 20
1085.499999999999
 30
0.0
 11
1563.0
 21
1084.999999999999
 31
0.0
  0
LINE
  5
310
330
1F
100
AcDbEntity
  8
トラップ
  6
CONTINUOUS
 62
     6
100
AcDbLine
 10
1563.0
 20
1085.499999999999
 30
0.0
 11
1617.0
 21
1085.499999999999
 31
0.0
  0
LINE
  5
311
330
1F
100
AcDbEntity
  8
トラップ
  6
CONTINUOUS
 62
     6
100
AcDbLine
 10
1563.0
 20
1084.999999999999
 30
0.0
 11
1617.0
 21
1084.999999999999
 31
0.0
  0
LINE
  5
312
330
1F
100
AcDbEntity
  8
トラップ
  6
CONTINUOUS
 62
     6
100
AcDbLine
 10
1614.5
 20
1082.499999999999
 30
0.0
 11
1614.5
 21
1084.999999999999
 31
0.0
  0
LINE
  5
313
330
1F
100
AcDbEntity
  8
トラップ
  6
CONTINUOUS
 62
     6
100
AcDbLine
 10
1565.5
 20
1082.499999999999
 30
0.0
 11
1565.5
 21
1084.999999999999
 31
0.0
  0
LINE
  5
314
330
1F
100
AcDbEntity
  8
トラップ
  6
CONTINUOUS
 62
     6
100
AcDbLine
 10
1614.5
 20
1082.499999999999
 30
0.0
 11
1565.5
 21
1082.499999999999
 31
0.0
  0
LINE
  5
315
330
1F
100
AcDbEntity
  8
トラップ
  6
CONTINUOUS
 62
     6
100
AcDbLine
 10
1614.5
 20
1084.999999999999
 30
0.0
 11
1565.5
 21
1084.999999999999
 31
0.0
  0
LINE
  5
316
330
1F
100
AcDbEntity
  8
トラップ
  6
CONTINUOUS
 62
     6
100
AcDbLine
 10
1609.100000000113
 20
1076.499999999887
 30
0.0
 11
1611.100000000002
 21
1078.499999999775
 31
0.0
  0
LINE
  5
317
330
1F
100
AcDbEntity
  8
トラップ
  6
CONTINUOUS
 62
     6
100
AcDbLine
 10
1570.899999999889
 20
1076.499999999887
 30
0.0
 11
1568.900000000001
 21
1078.499999999775
 31
0.0
  0
LINE
  5
318
330
1F
100
AcDbEntity
  8
トラップ
  6
CONTINUOUS
 62
     6
100
AcDbLine
 10
1611.100000000002
 20
1078.4999999998
 30
0.0
 11
1611.100000000002
 21
1082.499999999999
 31
0.0
  0
LINE
  5
319
330
1F
100
AcDbEntity
  8
トラップ
  6
CONTINUOUS
 62
     6
100
AcDbLine
 10
1568.900000000001
 20
1078.4999999998
 30
0.0
 11
1568.900000000001
 21
1082.499999999999
 31
0.0
  0
LINE
  5
31A
330
1F
100
AcDbEntity
  8
トラップ
  6
CONTINUOUS
 62
     6
100
AcDbLine
 10
1609.100000000202
 20
1076.499999999999
 30
0.0
 11
1570.899999999801
 21
1076.499999999999
 31
0.0
  0
ARC
  5
31B
330
1F
100
AcDbEntity
  8
トラップ
  6
CONTINUOUS
 62
     6
100
AcDbCircle
 10
1606.578891429002
 20
1082.610105678104
 30
0.0
 40
6.110105678105146
100
AcDbArc
 50
222.2737374192949
 51
317.7262625806995
  0
LINE
  5
31C
330
1F
100
AcDbEntity
  8
トラップ
  6
CONTINUOUS
 62
     6
100
AcDbLine
 10
1602.057782858001
 20
1078.4999999998
 30
0.0
 11
1598.966604708601
 21
1078.4999999998
 31
0.0
  0
ARC
  5
31D
330
1F
100
AcDbEntity
  8
トラップ
  6
CONTINUOUS
 62
     6
100
AcDbCircle
 10
1590.0
 20
1097.600000001981
 30
0.0
 40
21.10000000198211
100
AcDbArc
 50
244.8520222959027
 51
295.1479777040973
  0
LINE
  5
31E
330
1F
100
AcDbEntity
  8
トラップ
  6
CONTINUOUS
 62
     6
100
AcDbLine
 10
1581.033395291401
 20
1078.4999999998
 30
0.0
 11
1577.942217142001
 21
1078.4999999998
 31
0.0
  0
ARC
  5
31F
330
1F
100
AcDbEntity
  8
トラップ
  6
CONTINUOUS
 62
     6
100
AcDbCircle
 10
1573.421108571001
 20
1082.610105678104
 30
0.0
 40
6.110105678103862
100
AcDbArc
 50
222.2737374192943
 51
317.7262625807115
  0
LINE
  5
320
330
1F
100
AcDbEntity
  8
トラップ
  6
CONTINUOUS
 62
     6
100
AcDbLine
 10
1577.942217142001
 20
1078.4999999998
 30
0.0
 11
1577.942217142001
 21
1082.499999999999
 31
0.0
  0
LINE
  5
321
330
1F
100
AcDbEntity
  8
トラップ
  6
CONTINUOUS
 62
     6
100
AcDbLine
 10
1581.033395291401
 20
1078.4999999998
 30
0.0
 11
1581.033395291401
 21
1082.499999999999
 31
0.0
  0
LINE
  5
322
330
1F
100
AcDbEntity
  8
トラップ
  6
CONTINUOUS
 62
     6
100
AcDbLine
 10
1598.966604708601
 20
1078.4999999998
 30
0.0
 11
1598.966604708601
 21
1082.499999999999
 31
0.0
  0
LINE
  5
323
330
1F
100
AcDbEntity
  8
トラップ
  6
CONTINUOUS
 62
     6
100
AcDbLine
 10
1602.057782858001
 20
1078.4999999998
 30
0.0
 11
1602.057782858001
 21
1082.499999999999
 31
0.0
  0
LINE
  5
324
330
1F
100
AcDbEntity
  8
トラップ
  6
CONTINUOUS
 62
     6
100
AcDbLine
 10
1572.999999999916
 20
1005.999999999999
 30
0.0
 11
1607.000000000087
 21
1005.999999999999
 31
0.0
  0
LINE
  5
325
330
1F
100
AcDbEntity
  8
トラップ
  6
CONTINUOUS
 62
     6
100
AcDbLine
 10
1605.875
 20
959.2102885693312
 30
0.0
 11
1606.800000000003
 21
960.812435566334
 31
0.0
  0
LINE
  5
326
330
1F
100
AcDbEntity
  8
トラップ
  6
CONTINUOUS
 62
     6
100
AcDbLine
 10
1606.800000000003
 20
1005.999999999999
 30
0.0
 11
1606.800000000003
 21
960.812435566334
 31
0.0
  0
LINE
  5
327
330
1F
100
AcDbEntity
  8
トラップ
  6
CONTINUOUS
 62
     6
100
AcDbLine
 10
1574.125
 20
959.2102885693312
 30
0.0
 11
1573.200000000001
 21
960.812435566334
 31
0.0
  0
LINE
  5
328
330
1F
100
AcDbEntity
  8
トラップ
  6
CONTINUOUS
 62
     6
100
AcDbLine
 10
1573.200000000001
 20
1005.999999999999
 30
0.0
 11
1573.200000000001
 21
960.8124355663331
 31
0.0
  0
LINE
  5
329
330
1F
100
AcDbEntity
  8
トラップ
  6
CONTINUOUS
 62
     6
100
AcDbLine
 10
1574.125
 20
959.2102885692984
 30
0.0
 11
1605.875
 21
959.2102885692984
 31
0.0
  0
LINE
  5
32A
330
1F
100
AcDbEntity
  8
トラップ
  6
CONTINUOUS
 62
     6
100
AcDbLine
 10
1560.75
 20
1086.699999999999
 30
0.0
 11
1566.581896551725
 21
1090.0
 31
0.0
  0
LINE
  5
32B
330
1F
100
AcDbEntity
  8
トラップ
  6
CONTINUOUS
 62
     6
100
AcDbLine
 10
1619.25
 20
1086.699999999999
 30
0.0
 11
1613.418103448275
 21
1090.0
 31
0.0
  0
LINE
  5
32C
330
1F
100
AcDbEntity
  8
トラップ
  6
CONTINUOUS
 62
     6
100
AcDbLine
 10
1571.0
 20
1069.931370848999
 30
0.0
 11
1571.0
 21
1076.499999999999
 31
0.0
  0
LINE
  5
32D
330
1F
100
AcDbEntity
  8
トラップ
  6
CONTINUOUS
 62
     6
100
AcDbLine
 10
1609.0
 20
1069.931370848999
 30
0.0
 11
1609.0
 21
1076.499999999999
 31
0.0
  0
LINE
  5
32E
330
1F
100
AcDbEntity
  8
トラップ
  6
CONTINUOUS
 62
     6
100
AcDbLine
 10
1574.125
 20
1057.931370848999
 30
0.0
 11
1574.125
 21
1018.999999999999
 31
0.0
  0
LINE
  5
32F
330
1F
100
AcDbEntity
  8
トラップ
  6
CONTINUOUS
 62
     6
100
AcDbLine
 10
1605.875
 20
1057.931370848999
 30
0.0
 11
1605.875
 21
1018.999999999999
 31
0.0
  0
LINE
  5
330
330
1F
100
AcDbEntity
  8
トラップ
  6
CONTINUOUS
 62
     6
100
AcDbLine
 10
1572.99999999998
 20
1005.999999999962
 30
0.0
 11
1571.267949192346
 21
1006.999999999999
 31
0.0
  0
LINE
  5
331
330
1F
100
AcDbEntity
  8
トラップ
  6
CONTINUOUS
 62
     6
100
AcDbLine
 10
1607.000000000022
 20
1005.999999999962
 30
0.0
 11
1608.732050807654
 21
1006.999999999999
 31
0.0
  0
POLYLINE
  5
332
330
1F
100
AcDbEntity
  8
トラップ
  6
CONTINUOUS
 62
     6
100
AcDb2dPolyline
 66
     1
 10
0.0
 20
0.0
 30
0.0
 70
   128
  0
VERTEX
  5
333
330
332
100
AcDbEntity
  8
トラップ
  6
CONTINUOUS
 62
     6
100
AcDbVertex
100
AcDb2dVertex
 10
1587.2502899
 20
1063.931462449
 30
0.0
  0
VERTEX
  5
334
330
332
100
AcDbEntity
  8
トラップ
  6
CONTINUOUS
 62
     6
100
AcDbVertex
100
AcDb2dVertex
 10
1587.2212982
 20
1064.454381149
 30
0.0
  0
VERTEX
  5
335
330
332
100
AcDbEntity
  8
トラップ
  6
CONTINUOUS
 62
     6
100
AcDbVertex
100
AcDb2dVertex
 10
1587.1344757
 20
1064.973332549
 30
0.0
  0
VERTEX
  5
336
330
332
100
AcDbEntity
  8
トラップ
  6
CONTINUOUS
 62
     6
100
AcDbVertex
100
AcDb2dVertex
 10
1586.9905853
 20
1065.484196749
 30
0.0
  0
VERTEX
  5
337
330
332
100
AcDbEntity
  8
トラップ
  6
CONTINUOUS
 62
     6
100
AcDbVertex
100
AcDb2dVertex
 10
1586.7905426
 20
1065.983464349
 30
0.0
  0
VERTEX
  5
338
330
332
100
AcDbEntity
  8
トラップ
  6
CONTINUOUS
 62
     6
100
AcDbVertex
100
AcDb2dVertex
 10
1586.536026
 20
1066.467015349
 30
0.0
  0
VERTEX
  5
339
330
332
100
AcDbEntity
  8
トラップ
  6
CONTINUOUS
 62
     6
100
AcDbVertex
100
AcDb2dVertex
 10
1586.2285614
 20
1066.931492949
 30
0.0
  0
VERTEX
  5
33A
330
332
100
AcDbEntity
  8
トラップ
  6
CONTINUOUS
 62
     6
100
AcDbVertex
100
AcDb2dVertex
 10
1585.871048
 20
1067.372929649
 30
0.0
  0
VERTEX
  5
33B
330
332
100
AcDbEntity
  8
トラップ
  6
CONTINUOUS
 62
     6
100
AcDbVertex
100
AcDb2dVertex
 10
1585.4660797
 20
1067.788121349
 30
0.0
  0
VERTEX
  5
33C
330
332
100
AcDbEntity
  8
トラップ
  6
CONTINUOUS
 62
     6
100
AcDbVertex
100
AcDb2dVertex
 10
1585.016861
 20
1068.174016149
 30
0.0
  0
VERTEX
  5
33D
330
332
100
AcDbEntity
  8
トラップ
  6
CONTINUOUS
 62
     6
100
AcDbVertex
100
AcDb2dVertex
 10
1584.5262909
 20
1068.527562249
 30
0.0
  0
VERTEX
  5
33E
330
332
100
AcDbEntity
  8
トラップ
  6
CONTINUOUS
 62
     6
100
AcDbVertex
100
AcDb2dVertex
 10
1583.9984894
 20
1068.846318349
 30
0.0
  0
VERTEX
  5
33F
330
332
100
AcDbEntity
  8
トラップ
  6
CONTINUOUS
 62
     6
100
AcDbVertex
100
AcDb2dVertex
 10
1583.4375763
 20
1069.127537849
 30
0.0
  0
VERTEX
  5
340
330
332
100
AcDbEntity
  8
トラップ
  6
CONTINUOUS
 62
     6
100
AcDbVertex
100
AcDb2dVertex
 10
1582.8475189
 20
1069.369237049
 30
0.0
  0
VERTEX
  5
341
330
332
100
AcDbEntity
  8
トラップ
  6
CONTINUOUS
 62
     6
100
AcDbVertex
100
AcDb2dVertex
 10
1582.2327423
 20
1069.569432349
 30
0.0
  0
VERTEX
  5
342
330
332
100
AcDbEntity
  8
トラップ
  6
CONTINUOUS
 62
     6
100
AcDbVertex
100
AcDb2dVertex
 10
1581.598587
 20
1069.726903049
 30
0.0
  0
VERTEX
  5
343
330
332
100
AcDbEntity
  8
トラップ
  6
CONTINUOUS
 62
     6
100
AcDbVertex
100
AcDb2dVertex
 10
1580.9490204
 20
1069.840123349
 30
0.0
  0
VERTEX
  5
344
330
332
100
AcDbEntity
  8
トラップ
  6
CONTINUOUS
 62
     6
100
AcDbVertex
100
AcDb2dVertex
 10
1580.2893829
 20
1069.908482649
 30
0.0
  0
VERTEX
  5
345
330
332
100
AcDbEntity
  8
トラップ
  6
CONTINUOUS
 62
     6
100
AcDbVertex
100
AcDb2dVertex
 10
1579.6253204
 20
1069.931523449
 30
0.0
  0
VERTEX
  5
346
330
332
100
AcDbEntity
  8
トラップ
  6
CONTINUOUS
 62
     6
100
AcDbVertex
100
AcDb2dVertex
 10
1578.9608002
 20
1069.908635249
 30
0.0
  0
VERTEX
  5
347
330
332
100
AcDbEntity
  8
トラップ
  6
CONTINUOUS
 62
     6
100
AcDbVertex
100
AcDb2dVertex
 10
1578.3013153
 20
1069.840275849
 30
0.0
  0
VERTEX
  5
348
330
332
100
AcDbEntity
  8
トラップ
  6
CONTINUOUS
 62
     6
100
AcDbVertex
100
AcDb2dVertex
 10
1577.6514435
 20
1069.726903049
 30
0.0
  0
VERTEX
  5
349
330
332
100
AcDbEntity
  8
トラップ
  6
CONTINUOUS
 62
     6
100
AcDbVertex
100
AcDb2dVertex
 10
1577.016983
 20
1069.569432349
 30
0.0
  0
VERTEX
  5
34A
330
332
100
AcDbEntity
  8
トラップ
  6
CONTINUOUS
 62
     6
100
AcDbVertex
100
AcDb2dVertex
 10
1576.402359
 20
1069.369237049
 30
0.0
  0
VERTEX
  5
34B
330
332
100
AcDbEntity
  8
トラップ
  6
CONTINUOUS
 62
     6
100
AcDbVertex
100
AcDb2dVertex
 10
1575.8126068
 20
1069.127537849
 30
0.0
  0
VERTEX
  5
34C
330
332
100
AcDbEntity
  8
トラップ
  6
CONTINUOUS
 62
     6
100
AcDbVertex
100
AcDb2dVertex
 10
1575.2515411
 20
1068.846318349
 30
0.0
  0
VERTEX
  5
34D
330
332
100
AcDbEntity
  8
トラップ
  6
CONTINUOUS
 62
     6
100
AcDbVertex
100
AcDb2dVertex
 10
1574.7237396
 20
1068.527562249
 30
0.0
  0
VERTEX
  5
34E
330
332
100
AcDbEntity
  8
トラップ
  6
CONTINUOUS
 62
     6
100
AcDbVertex
100
AcDb2dVertex
 10
1574.2331695
 20
1068.174016149
 30
0.0
  0
VERTEX
  5
34F
330
332
100
AcDbEntity
  8
トラップ
  6
CONTINUOUS
 62
     6
100
AcDbVertex
100
AcDb2dVertex
 10
1573.7837982
 20
1067.788121349
 30
0.0
  0
VERTEX
  5
350
330
332
100
AcDbEntity
  8
トラップ
  6
CONTINUOUS
 62
     6
100
AcDbVertex
100
AcDb2dVertex
 10
1573.3786774
 20
1067.372777149
 30
0.0
  0
VERTEX
  5
351
330
332
100
AcDbEntity
  8
トラップ
  6
CONTINUOUS
 62
     6
100
AcDbVertex
100
AcDb2dVertex
 10
1573.0219269
 20
1066.931492949
 30
0.0
  0
VERTEX
  5
352
330
332
100
AcDbEntity
  8
トラップ
  6
CONTINUOUS
 62
     6
100
AcDbVertex
100
AcDb2dVertex
 10
1572.71492
 20
1066.467167949
 30
0.0
  0
VERTEX
  5
353
330
332
100
AcDbEntity
  8
トラップ
  6
CONTINUOUS
 62
     6
100
AcDbVertex
100
AcDb2dVertex
 10
1572.460556
 20
1065.983616949
 30
0.0
  0
VERTEX
  5
354
330
332
100
AcDbEntity
  8
トラップ
  6
CONTINUOUS
 62
     6
100
AcDbVertex
100
AcDb2dVertex
 10
1572.2600555
 20
1065.484196749
 30
0.0
  0
VERTEX
  5
355
330
332
100
AcDbEntity
  8
トラップ
  6
CONTINUOUS
 62
     6
100
AcDbVertex
100
AcDb2dVertex
 10
1572.1161652
 20
1064.973179949
 30
0.0
  0
VERTEX
  5
356
330
332
100
AcDbEntity
  8
トラップ
  6
CONTINUOUS
 62
     6
100
AcDbVertex
100
AcDb2dVertex
 10
1572.0293426
 20
1064.454228549
 30
0.0
  0
VERTEX
  5
357
330
332
100
AcDbEntity
  8
トラップ
  6
CONTINUOUS
 62
     6
100
AcDbVertex
100
AcDb2dVertex
 10
1572.0001984
 20
1063.931462449
 30
0.0
  0
VERTEX
  5
358
330
332
100
AcDbEntity
  8
トラップ
  6
CONTINUOUS
 62
     6
100
AcDbVertex
100
AcDb2dVertex
 10
1572.0293426
 20
1063.408543749
 30
0.0
  0
VERTEX
  5
359
330
332
100
AcDbEntity
  8
トラップ
  6
CONTINUOUS
 62
     6
100
AcDbVertex
100
AcDb2dVertex
 10
1572.1161652
 20
1062.889592249
 30
0.0
  0
VERTEX
  5
35A
330
332
100
AcDbEntity
  8
トラップ
  6
CONTINUOUS
 62
     6
100
AcDbVertex
100
AcDb2dVertex
 10
1572.2600555
 20
1062.378422849
 30
0.0
  0
VERTEX
  5
35B
330
332
100
AcDbEntity
  8
トラップ
  6
CONTINUOUS
 62
     6
100
AcDbVertex
100
AcDb2dVertex
 10
1572.4602508
 20
1061.879155249
 30
0.0
  0
VERTEX
  5
35C
330
332
100
AcDbEntity
  8
トラップ
  6
CONTINUOUS
 62
     6
100
AcDbVertex
100
AcDb2dVertex
 10
1572.7147675
 20
1061.395604249
 30
0.0
  0
VERTEX
  5
35D
330
332
100
AcDbEntity
  8
トラップ
  6
CONTINUOUS
 62
     6
100
AcDbVertex
100
AcDb2dVertex
 10
1573.0219269
 20
1060.931431849
 30
0.0
  0
VERTEX
  5
35E
330
332
100
AcDbEntity
  8
トラップ
  6
CONTINUOUS
 62
     6
100
AcDbVertex
100
AcDb2dVertex
 10
1573.3794403
 20
1060.489995149
 30
0.0
  0
VERTEX
  5
35F
330
332
100
AcDbEntity
  8
トラップ
  6
CONTINUOUS
 62
     6
100
AcDbVertex
100
AcDb2dVertex
 10
1573.7845612
 20
1060.074803449
 30
0.0
  0
VERTEX
  5
360
330
332
100
AcDbEntity
  8
トラップ
  6
CONTINUOUS
 62
     6
100
AcDbVertex
100
AcDb2dVertex
 10
1574.2331695
 20
1059.688603549
 30
0.0
  0
VERTEX
  5
361
330
332
100
AcDbEntity
  8
トラップ
  6
CONTINUOUS
 62
     6
100
AcDbVertex
100
AcDb2dVertex
 10
1574.723587
 20
1059.335057349
 30
0.0
  0
VERTEX
  5
362
330
332
100
AcDbEntity
  8
トラップ
  6
CONTINUOUS
 62
     6
100
AcDbVertex
100
AcDb2dVertex
 10
1575.251236
 20
1059.016301249
 30
0.0
  0
VERTEX
  5
363
330
332
100
AcDbEntity
  8
トラップ
  6
CONTINUOUS
 62
     6
100
AcDbVertex
100
AcDb2dVertex
 10
1575.8126068
 20
1058.735081749
 30
0.0
  0
VERTEX
  5
364
330
332
100
AcDbEntity
  8
トラップ
  6
CONTINUOUS
 62
     6
100
AcDbVertex
100
AcDb2dVertex
 10
1576.4026642
 20
1058.493382549
 30
0.0
  0
VERTEX
  5
365
330
332
100
AcDbEntity
  8
トラップ
  6
CONTINUOUS
 62
     6
100
AcDbVertex
100
AcDb2dVertex
 10
1577.016983
 20
1058.293187249
 30
0.0
  0
VERTEX
  5
366
330
332
100
AcDbEntity
  8
トラップ
  6
CONTINUOUS
 62
     6
100
AcDbVertex
100
AcDb2dVertex
 10
1577.6514435
 20
1058.135869149
 30
0.0
  0
VERTEX
  5
367
330
332
100
AcDbEntity
  8
トラップ
  6
CONTINUOUS
 62
     6
100
AcDbVertex
100
AcDb2dVertex
 10
1578.3008575
 20
1058.022648949
 30
0.0
  0
VERTEX
  5
368
330
332
100
AcDbEntity
  8
トラップ
  6
CONTINUOUS
 62
     6
100
AcDbVertex
100
AcDb2dVertex
 10
1578.9601898
 20
1057.954289549
 30
0.0
  0
VERTEX
  5
369
330
332
100
AcDbEntity
  8
トラップ
  6
CONTINUOUS
 62
     6
100
AcDbVertex
100
AcDb2dVertex
 10
1579.6253204
 20
1057.931401349
 30
0.0
  0
VERTEX
  5
36A
330
332
100
AcDbEntity
  8
トラップ
  6
CONTINUOUS
 62
     6
100
AcDbVertex
100
AcDb2dVertex
 10
1580.2899933
 20
1057.954289549
 30
0.0
  0
VERTEX
  5
36B
330
332
100
AcDbEntity
  8
トラップ
  6
CONTINUOUS
 62
     6
100
AcDbVertex
100
AcDb2dVertex
 10
1580.9494781
 20
1058.022648949
 30
0.0
  0
VERTEX
  5
36C
330
332
100
AcDbEntity
  8
トラップ
  6
CONTINUOUS
 62
     6
100
AcDbVertex
100
AcDb2dVertex
 10
1581.598587
 20
1058.135869149
 30
0.0
  0
VERTEX
  5
36D
330
332
100
AcDbEntity
  8
トラップ
  6
CONTINUOUS
 62
     6
100
AcDbVertex
100
AcDb2dVertex
 10
1582.2328949
 20
1058.293339849
 30
0.0
  0
VERTEX
  5
36E
330
332
100
AcDbEntity
  8
トラップ
  6
CONTINUOUS
 62
     6
100
AcDbVertex
100
AcDb2dVertex
 10
1582.8473663
 20
1058.493535149
 30
0.0
  0
SEQEND
  5
36F
330
332
100
AcDbEntity
  8
トラップ
  6
CONTINUOUS
 62
     6
  0
POLYLINE
  5
370
330
1F
100
AcDbEntity
  8
トラップ
  6
CONTINUOUS
 62
     6
100
AcDb2dPolyline
 66
     1
 10
0.0
 20
0.0
 30
0.0
 70
   128
  0
VERTEX
  5
371
330
370
100
AcDbEntity
  8
トラップ
  6
CONTINUOUS
 62
     6
100
AcDbVertex
100
AcDb2dVertex
 10
1582.8473663
 20
1058.493535149
 30
0.0
  0
VERTEX
  5
372
330
370
100
AcDbEntity
  8
トラップ
  6
CONTINUOUS
 62
     6
100
AcDbVertex
100
AcDb2dVertex
 10
1583.4375763
 20
1058.735081749
 30
0.0
  0
VERTEX
  5
373
330
370
100
AcDbEntity
  8
トラップ
  6
CONTINUOUS
 62
     6
100
AcDbVertex
100
AcDb2dVertex
 10
1583.9984894
 20
1059.016301249
 30
0.0
  0
VERTEX
  5
374
330
370
100
AcDbEntity
  8
トラップ
  6
CONTINUOUS
 62
     6
100
AcDbVertex
100
AcDb2dVertex
 10
1584.5261383
 20
1059.335057349
 30
0.0
  0
VERTEX
  5
375
330
370
100
AcDbEntity
  8
トラップ
  6
CONTINUOUS
 62
     6
100
AcDbVertex
100
AcDb2dVertex
 10
1585.016861
 20
1059.688603549
 30
0.0
  0
VERTEX
  5
376
330
370
100
AcDbEntity
  8
トラップ
  6
CONTINUOUS
 62
     6
100
AcDbVertex
100
AcDb2dVertex
 10
1585.4662323
 20
1060.074498349
 30
0.0
  0
VERTEX
  5
377
330
370
100
AcDbEntity
  8
トラップ
  6
CONTINUOUS
 62
     6
100
AcDbVertex
100
AcDb2dVertex
 10
1585.871048
 20
1060.489842549
 30
0.0
  0
VERTEX
  5
378
330
370
100
AcDbEntity
  8
トラップ
  6
CONTINUOUS
 62
     6
100
AcDbVertex
100
AcDb2dVertex
 10
1586.2285614
 20
1060.931431849
 30
0.0
  0
VERTEX
  5
379
330
370
100
AcDbEntity
  8
トラップ
  6
CONTINUOUS
 62
     6
100
AcDbVertex
100
AcDb2dVertex
 10
1586.5355682
 20
1061.395756849
 30
0.0
  0
VERTEX
  5
37A
330
370
100
AcDbEntity
  8
トラップ
  6
CONTINUOUS
 62
     6
100
AcDbVertex
100
AcDb2dVertex
 10
1586.7900848
 20
1061.879307849
 30
0.0
  0
VERTEX
  5
37B
330
370
100
AcDbEntity
  8
トラップ
  6
CONTINUOUS
 62
     6
100
AcDbVertex
100
AcDb2dVertex
 10
1586.9905853
 20
1062.378422849
 30
0.0
  0
SEQEND
  5
37C
330
370
100
AcDbEntity
  8
トラップ
  6
CONTINUOUS
 62
     6
  0
POLYLINE
  5
37D
330
1F
100
AcDbEntity
  8
トラップ
  6
CONTINUOUS
 62
     6
100
AcDb2dPolyline
 66
     1
 10
0.0
 20
0.0
 30
0.0
 70
   128
  0
VERTEX
  5
37E
330
37D
100
AcDbEntity
  8
トラップ
  6
CONTINUOUS
 62
     6
100
AcDbVertex
100
AcDb2dVertex
 10
1586.9905853
 20
1062.378422849
 30
0.0
  0
VERTEX
  5
37F
330
37D
100
AcDbEntity
  8
トラップ
  6
CONTINUOUS
 62
     6
100
AcDbVertex
100
AcDb2dVertex
 10
1587.1344757
 20
1062.889439749
 30
0.0
  0
VERTEX
  5
380
330
37D
100
AcDbEntity
  8
トラップ
  6
CONTINUOUS
 62
     6
100
AcDbVertex
100
AcDb2dVertex
 10
1587.2214508
 20
1063.408391149
 30
0.0
  0
VERTEX
  5
381
330
37D
100
AcDbEntity
  8
トラップ
  6
CONTINUOUS
 62
     6
100
AcDbVertex
100
AcDb2dVertex
 10
1587.2507477
 20
1063.931309849
 30
0.0
  0
SEQEND
  5
382
330
37D
100
AcDbEntity
  8
トラップ
  6
CONTINUOUS
 62
     6
  0
POLYLINE
  5
383
330
1F
100
AcDbEntity
  8
トラップ
  6
CONTINUOUS
 62
     6
100
AcDb2dPolyline
 66
     1
 10
0.0
 20
0.0
 30
0.0
 70
   128
  0
VERTEX
  5
384
330
383
100
AcDbEntity
  8
トラップ
  6
CONTINUOUS
 62
     6
100
AcDbVertex
100
AcDb2dVertex
 10
1608.0001068
 20
1063.931462449
 30
0.0
  0
VERTEX
  5
385
330
383
100
AcDbEntity
  8
トラップ
  6
CONTINUOUS
 62
     6
100
AcDbVertex
100
AcDb2dVertex
 10
1607.9709625
 20
1064.454381149
 30
0.0
  0
VERTEX
  5
386
330
383
100
AcDbEntity
  8
トラップ
  6
CONTINUOUS
 62
     6
100
AcDbVertex
100
AcDb2dVertex
 10
1607.88414
 20
1064.973332549
 30
0.0
  0
VERTEX
  5
387
330
383
100
AcDbEntity
  8
トラップ
  6
CONTINUOUS
 62
     6
100
AcDbVertex
100
AcDb2dVertex
 10
1607.7404022
 20
1065.484196749
 30
0.0
  0
VERTEX
  5
388
330
383
100
AcDbEntity
  8
トラップ
  6
CONTINUOUS
 62
     6
100
AcDbVertex
100
AcDb2dVertex
 10
1607.5402069
 20
1065.983464349
 30
0.0
  0
VERTEX
  5
389
330
383
100
AcDbEntity
  8
トラップ
  6
CONTINUOUS
 62
     6
100
AcDbVertex
100
AcDb2dVertex
 10
1607.2856903
 20
1066.467015349
 30
0.0
  0
VERTEX
  5
38A
330
383
100
AcDbEntity
  8
トラップ
  6
CONTINUOUS
 62
     6
100
AcDbVertex
100
AcDb2dVertex
 10
1606.9783783
 20
1066.931492949
 30
0.0
  0
VERTEX
  5
38B
330
383
100
AcDbEntity
  8
トラップ
  6
CONTINUOUS
 62
     6
100
AcDbVertex
100
AcDb2dVertex
 10
1606.6208649
 20
1067.372929649
 30
0.0
  0
VERTEX
  5
38C
330
383
100
AcDbEntity
  8
トラップ
  6
CONTINUOUS
 62
     6
100
AcDbVertex
100
AcDb2dVertex
 10
1606.215744
 20
1067.788121349
 30
0.0
  0
VERTEX
  5
38D
330
383
100
AcDbEntity
  8
トラップ
  6
CONTINUOUS
 62
     6
100
AcDbVertex
100
AcDb2dVertex
 10
1605.7671356
 20
1068.174016149
 30
0.0
  0
VERTEX
  5
38E
330
383
100
AcDbEntity
  8
トラップ
  6
CONTINUOUS
 62
     6
100
AcDbVertex
100
AcDb2dVertex
 10
1605.2767181
 20
1068.527562249
 30
0.0
  0
VERTEX
  5
38F
330
383
100
AcDbEntity
  8
トラップ
  6
CONTINUOUS
 62
     6
100
AcDbVertex
100
AcDb2dVertex
 10
1604.7490692
 20
1068.846318349
 30
0.0
  0
VERTEX
  5
390
330
383
100
AcDbEntity
  8
トラップ
  6
CONTINUOUS
 62
     6
100
AcDbVertex
100
AcDb2dVertex
 10
1604.1876984
 20
1069.127537849
 30
0.0
  0
VERTEX
  5
391
330
383
100
AcDbEntity
  8
トラップ
  6
CONTINUOUS
 62
     6
100
AcDbVertex
100
AcDb2dVertex
 10
1603.597641
 20
1069.369237049
 30
0.0
  0
VERTEX
  5
392
330
383
100
AcDbEntity
  8
トラップ
  6
CONTINUOUS
 62
     6
100
AcDbVertex
100
AcDb2dVertex
 10
1602.9833221
 20
1069.569432349
 30
0.0
  0
VERTEX
  5
393
330
383
100
AcDbEntity
  8
トラップ
  6
CONTINUOUS
 62
     6
100
AcDbVertex
100
AcDb2dVertex
 10
1602.3488617
 20
1069.726903049
 30
0.0
  0
VERTEX
  5
394
330
383
100
AcDbEntity
  8
トラップ
  6
CONTINUOUS
 62
     6
100
AcDbVertex
100
AcDb2dVertex
 10
1601.6994476
 20
1069.840123349
 30
0.0
  0
VERTEX
  5
395
330
383
100
AcDbEntity
  8
トラップ
  6
CONTINUOUS
 62
     6
100
AcDbVertex
100
AcDb2dVertex
 10
1601.0401154
 20
1069.908482649
 30
0.0
  0
VERTEX
  5
396
330
383
100
AcDbEntity
  8
トラップ
  6
CONTINUOUS
 62
     6
100
AcDbVertex
100
AcDb2dVertex
 10
1600.3751373
 20
1069.931523449
 30
0.0
  0
VERTEX
  5
397
330
383
100
AcDbEntity
  8
トラップ
  6
CONTINUOUS
 62
     6
100
AcDbVertex
100
AcDb2dVertex
 10
1599.7104645
 20
1069.908635249
 30
0.0
  0
VERTEX
  5
398
330
383
100
AcDbEntity
  8
トラップ
  6
CONTINUOUS
 62
     6
100
AcDbVertex
100
AcDb2dVertex
 10
1599.0509796
 20
1069.840275849
 30
0.0
  0
VERTEX
  5
399
330
383
100
AcDbEntity
  8
トラップ
  6
CONTINUOUS
 62
     6
100
AcDbVertex
100
AcDb2dVertex
 10
1598.4017181
 20
1069.726903049
 30
0.0
  0
VERTEX
  5
39A
330
383
100
AcDbEntity
  8
トラップ
  6
CONTINUOUS
 62
     6
100
AcDbVertex
100
AcDb2dVertex
 10
1597.7674103
 20
1069.569432349
 30
0.0
  0
VERTEX
  5
39B
330
383
100
AcDbEntity
  8
トラップ
  6
CONTINUOUS
 62
     6
100
AcDbVertex
100
AcDb2dVertex
 10
1597.1529388
 20
1069.369237049
 30
0.0
  0
VERTEX
  5
39C
330
383
100
AcDbEntity
  8
トラップ
  6
CONTINUOUS
 62
     6
100
AcDbVertex
100
AcDb2dVertex
 10
1596.5628815
 20
1069.127537849
 30
0.0
  0
VERTEX
  5
39D
330
383
100
AcDbEntity
  8
トラップ
  6
CONTINUOUS
 62
     6
100
AcDbVertex
100
AcDb2dVertex
 10
1596.0019684
 20
1068.846318349
 30
0.0
  0
VERTEX
  5
39E
330
383
100
AcDbEntity
  8
トラップ
  6
CONTINUOUS
 62
     6
100
AcDbVertex
100
AcDb2dVertex
 10
1595.4743195
 20
1068.527562249
 30
0.0
  0
VERTEX
  5
39F
330
383
100
AcDbEntity
  8
トラップ
  6
CONTINUOUS
 62
     6
100
AcDbVertex
100
AcDb2dVertex
 10
1594.9834442
 20
1068.174016149
 30
0.0
  0
VERTEX
  5
3A0
330
383
100
AcDbEntity
  8
トラップ
  6
CONTINUOUS
 62
     6
100
AcDbVertex
100
AcDb2dVertex
 10
1594.5340729
 20
1067.788121349
 30
0.0
  0
VERTEX
  5
3A1
330
383
100
AcDbEntity
  8
トラップ
  6
CONTINUOUS
 62
     6
100
AcDbVertex
100
AcDb2dVertex
 10
1594.1292572
 20
1067.372777149
 30
0.0
  0
VERTEX
  5
3A2
330
383
100
AcDbEntity
  8
トラップ
  6
CONTINUOUS
 62
     6
100
AcDbVertex
100
AcDb2dVertex
 10
1593.7717438
 20
1066.931492949
 30
0.0
  0
VERTEX
  5
3A3
330
383
100
AcDbEntity
  8
トラップ
  6
CONTINUOUS
 62
     6
100
AcDbVertex
100
AcDb2dVertex
 10
1593.4647369
 20
1066.467167949
 30
0.0
  0
VERTEX
  5
3A4
330
383
100
AcDbEntity
  8
トラップ
  6
CONTINUOUS
 62
     6
100
AcDbVertex
100
AcDb2dVertex
 10
1593.2102203
 20
1065.983616949
 30
0.0
  0
VERTEX
  5
3A5
330
383
100
AcDbEntity
  8
トラップ
  6
CONTINUOUS
 62
     6
100
AcDbVertex
100
AcDb2dVertex
 10
1593.0098724
 20
1065.484196749
 30
0.0
  0
VERTEX
  5
3A6
330
383
100
AcDbEntity
  8
トラップ
  6
CONTINUOUS
 62
     6
100
AcDbVertex
100
AcDb2dVertex
 10
1592.865982
 20
1064.973179949
 30
0.0
  0
VERTEX
  5
3A7
330
383
100
AcDbEntity
  8
トラップ
  6
CONTINUOUS
 62
     6
100
AcDbVertex
100
AcDb2dVertex
 10
1592.779007
 20
1064.454228549
 30
0.0
  0
VERTEX
  5
3A8
330
383
100
AcDbEntity
  8
トラップ
  6
CONTINUOUS
 62
     6
100
AcDbVertex
100
AcDb2dVertex
 10
1592.7500153
 20
1063.931462449
 30
0.0
  0
VERTEX
  5
3A9
330
383
100
AcDbEntity
  8
トラップ
  6
CONTINUOUS
 62
     6
100
AcDbVertex
100
AcDb2dVertex
 10
1592.779007
 20
1063.408543749
 30
0.0
  0
VERTEX
  5
3AA
330
383
100
AcDbEntity
  8
トラップ
  6
CONTINUOUS
 62
     6
100
AcDbVertex
100
AcDb2dVertex
 10
1592.8658295
 20
1062.889592249
 30
0.0
  0
VERTEX
  5
3AB
330
383
100
AcDbEntity
  8
トラップ
  6
CONTINUOUS
 62
     6
100
AcDbVertex
100
AcDb2dVertex
 10
1593.0098724
 20
1062.378422849
 30
0.0
  0
VERTEX
  5
3AC
330
383
100
AcDbEntity
  8
トラップ
  6
CONTINUOUS
 62
     6
100
AcDbVertex
100
AcDb2dVertex
 10
1593.2099152
 20
1061.879155249
 30
0.0
  0
VERTEX
  5
3AD
330
383
100
AcDbEntity
  8
トラップ
  6
CONTINUOUS
 62
     6
100
AcDbVertex
100
AcDb2dVertex
 10
1593.4644318
 20
1061.395604249
 30
0.0
  0
VERTEX
  5
3AE
330
383
100
AcDbEntity
  8
トラップ
  6
CONTINUOUS
 62
     6
100
AcDbVertex
100
AcDb2dVertex
 10
1593.7717438
 20
1060.931431849
 30
0.0
  0
VERTEX
  5
3AF
330
383
100
AcDbEntity
  8
トラップ
  6
CONTINUOUS
 62
     6
100
AcDbVertex
100
AcDb2dVertex
 10
1594.1292572
 20
1060.489995149
 30
0.0
  0
VERTEX
  5
3B0
330
383
100
AcDbEntity
  8
トラップ
  6
CONTINUOUS
 62
     6
100
AcDbVertex
100
AcDb2dVertex
 10
1594.5342255
 20
1060.074803449
 30
0.0
  0
VERTEX
  5
3B1
330
383
100
AcDbEntity
  8
トラップ
  6
CONTINUOUS
 62
     6
100
AcDbVertex
100
AcDb2dVertex
 10
1594.9834442
 20
1059.688603549
 30
0.0
  0
VERTEX
  5
3B2
330
383
100
AcDbEntity
  8
トラップ
  6
CONTINUOUS
 62
     6
100
AcDbVertex
100
AcDb2dVertex
 10
1595.4740143
 20
1059.335057349
 30
0.0
  0
VERTEX
  5
3B3
330
383
100
AcDbEntity
  8
トラップ
  6
CONTINUOUS
 62
     6
100
AcDbVertex
100
AcDb2dVertex
 10
1596.0018158
 20
1059.016301249
 30
0.0
  0
VERTEX
  5
3B4
330
383
100
AcDbEntity
  8
トラップ
  6
CONTINUOUS
 62
     6
100
AcDbVertex
100
AcDb2dVertex
 10
1596.5628815
 20
1058.735081749
 30
0.0
  0
VERTEX
  5
3B5
330
383
100
AcDbEntity
  8
トラップ
  6
CONTINUOUS
 62
     6
100
AcDbVertex
100
AcDb2dVertex
 10
1597.1529388
 20
1058.493382549
 30
0.0
  0
VERTEX
  5
3B6
330
383
100
AcDbEntity
  8
トラップ
  6
CONTINUOUS
 62
     6
100
AcDbVertex
100
AcDb2dVertex
 10
1597.7677154
 20
1058.293187249
 30
0.0
  0
VERTEX
  5
3B7
330
383
100
AcDbEntity
  8
トラップ
  6
CONTINUOUS
 62
     6
100
AcDbVertex
100
AcDb2dVertex
 10
1598.4017181
 20
1058.135869149
 30
0.0
  0
VERTEX
  5
3B8
330
383
100
AcDbEntity
  8
トラップ
  6
CONTINUOUS
 62
     6
100
AcDbVertex
100
AcDb2dVertex
 10
1599.0512848
 20
1058.022648949
 30
0.0
  0
VERTEX
  5
3B9
330
383
100
AcDbEntity
  8
トラップ
  6
CONTINUOUS
 62
     6
100
AcDbVertex
100
AcDb2dVertex
 10
1599.7109222
 20
1057.954289549
 30
0.0
  0
VERTEX
  5
3BA
330
383
100
AcDbEntity
  8
トラップ
  6
CONTINUOUS
 62
     6
100
AcDbVertex
100
AcDb2dVertex
 10
1600.3751373
 20
1057.931401349
 30
0.0
  0
VERTEX
  5
3BB
330
383
100
AcDbEntity
  8
トラップ
  6
CONTINUOUS
 62
     6
100
AcDbVertex
100
AcDb2dVertex
 10
1601.0396576
 20
1057.954289549
 30
0.0
  0
VERTEX
  5
3BC
330
383
100
AcDbEntity
  8
トラップ
  6
CONTINUOUS
 62
     6
100
AcDbVertex
100
AcDb2dVertex
 10
1601.6991425
 20
1058.022648949
 30
0.0
  0
VERTEX
  5
3BD
330
383
100
AcDbEntity
  8
トラップ
  6
CONTINUOUS
 62
     6
100
AcDbVertex
100
AcDb2dVertex
 10
1602.3488617
 20
1058.135869149
 30
0.0
  0
VERTEX
  5
3BE
330
383
100
AcDbEntity
  8
トラップ
  6
CONTINUOUS
 62
     6
100
AcDbVertex
100
AcDb2dVertex
 10
1602.9833221
 20
1058.293339849
 30
0.0
  0
VERTEX
  5
3BF
330
383
100
AcDbEntity
  8
トラップ
  6
CONTINUOUS
 62
     6
100
AcDbVertex
100
AcDb2dVertex
 10
1603.5979462
 20
1058.493535149
 30
0.0
  0
SEQEND
  5
3C0
330
383
100
AcDbEntity
  8
トラップ
  6
CONTINUOUS
 62
     6
  0
POLYLINE
  5
3C1
330
1F
100
AcDbEntity
  8
トラップ
  6
CONTINUOUS
 62
     6
100
AcDb2dPolyline
 66
     1
 10
0.0
 20
0.0
 30
0.0
 70
   128
  0
VERTEX
  5
3C2
330
3C1
100
AcDbEntity
  8
トラップ
  6
CONTINUOUS
 62
     6
100
AcDbVertex
100
AcDb2dVertex
 10
1603.5979462
 20
1058.493535149
 30
0.0
  0
VERTEX
  5
3C3
330
3C1
100
AcDbEntity
  8
トラップ
  6
CONTINUOUS
 62
     6
100
AcDbVertex
100
AcDb2dVertex
 10
1604.1876984
 20
1058.735081749
 30
0.0
  0
VERTEX
  5
3C4
330
3C1
100
AcDbEntity
  8
トラップ
  6
CONTINUOUS
 62
     6
100
AcDbVertex
100
AcDb2dVertex
 10
1604.748764
 20
1059.016301249
 30
0.0
  0
VERTEX
  5
3C5
330
3C1
100
AcDbEntity
  8
トラップ
  6
CONTINUOUS
 62
     6
100
AcDbVertex
100
AcDb2dVertex
 10
1605.2765655
 20
1059.335057349
 30
0.0
  0
VERTEX
  5
3C6
330
3C1
100
AcDbEntity
  8
トラップ
  6
CONTINUOUS
 62
     6
100
AcDbVertex
100
AcDb2dVertex
 10
1605.7671356
 20
1059.688603549
 30
0.0
  0
VERTEX
  5
3C7
330
3C1
100
AcDbEntity
  8
トラップ
  6
CONTINUOUS
 62
     6
100
AcDbVertex
100
AcDb2dVertex
 10
1606.216507
 20
1060.074498349
 30
0.0
  0
VERTEX
  5
3C8
330
3C1
100
AcDbEntity
  8
トラップ
  6
CONTINUOUS
 62
     6
100
AcDbVertex
100
AcDb2dVertex
 10
1606.6216278
 20
1060.489842549
 30
0.0
  0
VERTEX
  5
3C9
330
3C1
100
AcDbEntity
  8
トラップ
  6
CONTINUOUS
 62
     6
100
AcDbVertex
100
AcDb2dVertex
 10
1606.9783783
 20
1060.931431849
 30
0.0
  0
VERTEX
  5
3CA
330
3C1
100
AcDbEntity
  8
トラップ
  6
CONTINUOUS
 62
     6
100
AcDbVertex
100
AcDb2dVertex
 10
1607.2853851
 20
1061.395756849
 30
0.0
  0
VERTEX
  5
3CB
330
3C1
100
AcDbEntity
  8
トラップ
  6
CONTINUOUS
 62
     6
100
AcDbVertex
100
AcDb2dVertex
 10
1607.5397491
 20
1061.879307849
 30
0.0
  0
VERTEX
  5
3CC
330
3C1
100
AcDbEntity
  8
トラップ
  6
CONTINUOUS
 62
     6
100
AcDbVertex
100
AcDb2dVertex
 10
1607.7404022
 20
1062.378422849
 30
0.0
  0
SEQEND
  5
3CD
330
3C1
100
AcDbEntity
  8
トラップ
  6
CONTINUOUS
 62
     6
  0
POLYLINE
  5
3CE
330
1F
100
AcDbEntity
  8
トラップ
  6
CONTINUOUS
 62
     6
100
AcDb2dPolyline
 66
     1
 10
0.0
 20
0.0
 30
0.0
 70
   128
  0
VERTEX
  5
3CF
330
3CE
100
AcDbEntity
  8
トラップ
  6
CONTINUOUS
 62
     6
100
AcDbVertex
100
AcDb2dVertex
 10
1607.7404022
 20
1062.378422849
 30
0.0
  0
VERTEX
  5
3D0
330
3CE
100
AcDbEntity
  8
トラップ
  6
CONTINUOUS
 62
     6
100
AcDbVertex
100
AcDb2dVertex
 10
1607.8842926
 20
1062.889439749
 30
0.0
  0
VERTEX
  5
3D1
330
3CE
100
AcDbEntity
  8
トラップ
  6
CONTINUOUS
 62
     6
100
AcDbVertex
100
AcDb2dVertex
 10
1607.9711151
 20
1063.408391149
 30
0.0
  0
VERTEX
  5
3D2
330
3CE
100
AcDbEntity
  8
トラップ
  6
CONTINUOUS
 62
     6
100
AcDbVertex
100
AcDb2dVertex
 10
1608.0001068
 20
1063.931309849
 30
0.0
  0
SEQEND
  5
3D3
330
3CE
100
AcDbEntity
  8
トラップ
  6
CONTINUOUS
 62
     6
  0
ARC
  5
3D4
330
1F
100
AcDbEntity
  8
トラップ
  6
CONTINUOUS
 62
     6
100
AcDbCircle
 10
1570.9999847
 20
1068.431431849
 30
0.0
 40
1.499939
100
AcDbArc
 50
90.00000000000001
 51
180.0
  0
ARC
  5
3D5
330
1F
100
AcDbEntity
  8
トラップ
  6
CONTINUOUS
 62
     6
100
AcDbCircle
 10
1570.9999847
 20
1059.431187749
 30
0.0
 40
1.499939
100
AcDbArc
 50
180.0
 51
270.0000000000002
  0
LINE
  5
3D6
330
1F
100
AcDbEntity
  8
トラップ
  6
CONTINUOUS
 62
     6
100
AcDbLine
 10
1569.5000458
 20
1059.431187749
 30
0.0
 11
1569.5000458
 21
1068.431431849
 31
0.0
  0
ARC
  5
3D7
330
1F
100
AcDbEntity
  8
トラップ
  6
CONTINUOUS
 62
     6
100
AcDbCircle
 10
1609.0001678
 20
1059.431187749
 30
0.0
 40
1.499939
100
AcDbArc
 50
270.0000000000002
 51
0.0
  0
LINE
  5
3D8
330
1F
100
AcDbEntity
  8
トラップ
  6
CONTINUOUS
 62
     6
100
AcDbLine
 10
1570.9999847
 20
1057.931248749
 30
0.0
 11
1609.0001678
 21
1057.931248749
 31
0.0
  0
ARC
  5
3D9
330
1F
100
AcDbEntity
  8
トラップ
  6
CONTINUOUS
 62
     6
100
AcDbCircle
 10
1609.0001678
 20
1068.431431849
 30
0.0
 40
1.499939
100
AcDbArc
 50
0.0
 51
90.00000000000001
  0
LINE
  5
3DA
330
1F
100
AcDbEntity
  8
トラップ
  6
CONTINUOUS
 62
     6
100
AcDbLine
 10
1610.5001068
 20
1059.431187749
 30
0.0
 11
1610.5001068
 21
1068.431431849
 31
0.0
  0
LINE
  5
3DB
330
1F
100
AcDbEntity
  8
トラップ
  6
CONTINUOUS
 62
     6
100
AcDbLine
 10
1570.9999847
 20
1069.931370849
 30
0.0
 11
1609.0001678
 21
1069.931370849
 31
0.0
  0
POLYLINE
  5
3DC
330
1F
100
AcDbEntity
  8
トラップ
  6
CONTINUOUS
 62
     6
100
AcDb2dPolyline
 66
     1
 10
0.0
 20
0.0
 30
0.0
 70
   128
  0
VERTEX
  5
3DD
330
3DC
100
AcDbEntity
  8
トラップ
  6
CONTINUOUS
 62
     6
100
AcDbVertex
100
AcDb2dVertex
 10
1587.0001221
 20
1012.999939
 30
0.0
  0
VERTEX
  5
3DE
330
3DC
100
AcDbEntity
  8
トラップ
  6
CONTINUOUS
 62
     6
100
AcDbVertex
100
AcDb2dVertex
 10
1586.9696045
 20
1013.5228577
 30
0.0
  0
VERTEX
  5
3DF
330
3DC
100
AcDbEntity
  8
トラップ
  6
CONTINUOUS
 62
     6
100
AcDbVertex
100
AcDb2dVertex
 10
1586.8786621
 20
1014.0418091
 30
0.0
  0
VERTEX
  5
3E0
330
3DC
100
AcDbEntity
  8
トラップ
  6
CONTINUOUS
 62
     6
100
AcDbVertex
100
AcDb2dVertex
 10
1586.7276001
 20
1014.5528259
 30
0.0
  0
VERTEX
  5
3E1
330
3DC
100
AcDbEntity
  8
トラップ
  6
CONTINUOUS
 62
     6
100
AcDbVertex
100
AcDb2dVertex
 10
1586.5177917
 20
1015.0520935
 30
0.0
  0
VERTEX
  5
3E2
330
3DC
100
AcDbEntity
  8
トラップ
  6
CONTINUOUS
 62
     6
100
AcDbVertex
100
AcDb2dVertex
 10
1586.2509155
 20
1015.5356445
 30
0.0
  0
VERTEX
  5
3E3
330
3DC
100
AcDbEntity
  8
トラップ
  6
CONTINUOUS
 62
     6
100
AcDbVertex
100
AcDb2dVertex
 10
1585.9283447
 20
1015.9999695
 30
0.0
  0
VERTEX
  5
3E4
330
3DC
100
AcDbEntity
  8
トラップ
  6
CONTINUOUS
 62
     6
100
AcDbVertex
100
AcDb2dVertex
 10
1585.5532837
 20
1016.4414063
 30
0.0
  0
VERTEX
  5
3E5
330
3DC
100
AcDbEntity
  8
トラップ
  6
CONTINUOUS
 62
     6
100
AcDbVertex
100
AcDb2dVertex
 10
1585.128479
 20
1016.8565979
 30
0.0
  0
VERTEX
  5
3E6
330
3DC
100
AcDbEntity
  8
トラップ
  6
CONTINUOUS
 62
     6
100
AcDbVertex
100
AcDb2dVertex
 10
1584.6566772
 20
1017.2426453
 30
0.0
  0
VERTEX
  5
3E7
330
3DC
100
AcDbEntity
  8
トラップ
  6
CONTINUOUS
 62
     6
100
AcDbVertex
100
AcDb2dVertex
 10
1584.1419983
 20
1017.5961914
 30
0.0
  0
VERTEX
  5
3E8
330
3DC
100
AcDbEntity
  8
トラップ
  6
CONTINUOUS
 62
     6
100
AcDbVertex
100
AcDb2dVertex
 10
1583.5881042
 20
1017.9149475
 30
0.0
  0
VERTEX
  5
3E9
330
3DC
100
AcDbEntity
  8
トラップ
  6
CONTINUOUS
 62
     6
100
AcDbVertex
100
AcDb2dVertex
 10
1582.9998779
 20
1018.196167
 30
0.0
  0
VERTEX
  5
3EA
330
3DC
100
AcDbEntity
  8
トラップ
  6
CONTINUOUS
 62
     6
100
AcDbVertex
100
AcDb2dVertex
 10
1582.3808288
 20
1018.4378662
 30
0.0
  0
VERTEX
  5
3EB
330
3DC
100
AcDbEntity
  8
トラップ
  6
CONTINUOUS
 62
     6
100
AcDbVertex
100
AcDb2dVertex
 10
1581.7358398
 20
1018.6380615
 30
0.0
  0
VERTEX
  5
3EC
330
3DC
100
AcDbEntity
  8
トラップ
  6
CONTINUOUS
 62
     6
100
AcDbVertex
100
AcDb2dVertex
 10
1581.0707092
 20
1018.7955322
 30
0.0
  0
VERTEX
  5
3ED
330
3DC
100
AcDbEntity
  8
トラップ
  6
CONTINUOUS
 62
     6
100
AcDbVertex
100
AcDb2dVertex
 10
1580.3892517
 20
1018.9087525
 30
0.0
  0
VERTEX
  5
3EE
330
3DC
100
AcDbEntity
  8
トラップ
  6
CONTINUOUS
 62
     6
100
AcDbVertex
100
AcDb2dVertex
 10
1579.6974182
 20
1018.9771118
 30
0.0
  0
VERTEX
  5
3EF
330
3DC
100
AcDbEntity
  8
トラップ
  6
CONTINUOUS
 62
     6
100
AcDbVertex
100
AcDb2dVertex
 10
1579.0000915
 20
1019.0
 30
0.0
  0
VERTEX
  5
3F0
330
3DC
100
AcDbEntity
  8
トラップ
  6
CONTINUOUS
 62
     6
100
AcDbVertex
100
AcDb2dVertex
 10
1578.3029175
 20
1018.9771118
 30
0.0
  0
VERTEX
  5
3F1
330
3DC
100
AcDbEntity
  8
トラップ
  6
CONTINUOUS
 62
     6
100
AcDbVertex
100
AcDb2dVertex
 10
1577.611084
 20
1018.9087525
 30
0.0
  0
VERTEX
  5
3F2
330
3DC
100
AcDbEntity
  8
トラップ
  6
CONTINUOUS
 62
     6
100
AcDbVertex
100
AcDb2dVertex
 10
1576.929779
 20
1018.7955322
 30
0.0
  0
VERTEX
  5
3F3
330
3DC
100
AcDbEntity
  8
トラップ
  6
CONTINUOUS
 62
     6
100
AcDbVertex
100
AcDb2dVertex
 10
1576.2643432
 20
1018.6380615
 30
0.0
  0
VERTEX
  5
3F4
330
3DC
100
AcDbEntity
  8
トラップ
  6
CONTINUOUS
 62
     6
100
AcDbVertex
100
AcDb2dVertex
 10
1575.6196594
 20
1018.4378662
 30
0.0
  0
VERTEX
  5
3F5
330
3DC
100
AcDbEntity
  8
トラップ
  6
CONTINUOUS
 62
     6
100
AcDbVertex
100
AcDb2dVertex
 10
1575.0
 20
1018.196167
 30
0.0
  0
VERTEX
  5
3F6
330
3DC
100
AcDbEntity
  8
トラップ
  6
CONTINUOUS
 62
     6
100
AcDbVertex
100
AcDb2dVertex
 10
1574.4114685
 20
1017.9149475
 30
0.0
  0
VERTEX
  5
3F7
330
3DC
100
AcDbEntity
  8
トラップ
  6
CONTINUOUS
 62
     6
100
AcDbVertex
100
AcDb2dVertex
 10
1573.8575745
 20
1017.5961914
 30
0.0
  0
VERTEX
  5
3F8
330
3DC
100
AcDbEntity
  8
トラップ
  6
CONTINUOUS
 62
     6
100
AcDbVertex
100
AcDb2dVertex
 10
1573.3432007
 20
1017.2426453
 30
0.0
  0
VERTEX
  5
3F9
330
3DC
100
AcDbEntity
  8
トラップ
  6
CONTINUOUS
 62
     6
100
AcDbVertex
100
AcDb2dVertex
 10
1572.8717041
 20
1016.8567505
 30
0.0
  0
VERTEX
  5
3FA
330
3DC
100
AcDbEntity
  8
トラップ
  6
CONTINUOUS
 62
     6
100
AcDbVertex
100
AcDb2dVertex
 10
1572.4467468
 20
1016.4414063
 30
0.0
  0
VERTEX
  5
3FB
330
3DC
100
AcDbEntity
  8
トラップ
  6
CONTINUOUS
 62
     6
100
AcDbVertex
100
AcDb2dVertex
 10
1572.0721435
 20
1015.9999695
 30
0.0
  0
VERTEX
  5
3FC
330
3DC
100
AcDbEntity
  8
トラップ
  6
CONTINUOUS
 62
     6
100
AcDbVertex
100
AcDb2dVertex
 10
1571.7500305
 20
1015.5356445
 30
0.0
  0
VERTEX
  5
3FD
330
3DC
100
AcDbEntity
  8
トラップ
  6
CONTINUOUS
 62
     6
100
AcDbVertex
100
AcDb2dVertex
 10
1571.4831543
 20
1015.0520935
 30
0.0
  0
VERTEX
  5
3FE
330
3DC
100
AcDbEntity
  8
トラップ
  6
CONTINUOUS
 62
     6
100
AcDbVertex
100
AcDb2dVertex
 10
1571.2727356
 20
1014.5528259
 30
0.0
  0
VERTEX
  5
3FF
330
3DC
100
AcDbEntity
  8
トラップ
  6
CONTINUOUS
 62
     6
100
AcDbVertex
100
AcDb2dVertex
 10
1571.1218262
 20
1014.0418091
 30
0.0
  0
VERTEX
  5
400
330
3DC
100
AcDbEntity
  8
トラップ
  6
CONTINUOUS
 62
     6
100
AcDbVertex
100
AcDb2dVertex
 10
1571.0307312
 20
1013.5228577
 30
0.0
  0
VERTEX
  5
401
330
3DC
100
AcDbEntity
  8
トラップ
  6
CONTINUOUS
 62
     6
100
AcDbVertex
100
AcDb2dVertex
 10
1571.0003662
 20
1012.999939
 30
0.0
  0
VERTEX
  5
402
330
3DC
100
AcDbEntity
  8
トラップ
  6
CONTINUOUS
 62
     6
100
AcDbVertex
100
AcDb2dVertex
 10
1571.0308838
 20
1012.4770203
 30
0.0
  0
VERTEX
  5
403
330
3DC
100
AcDbEntity
  8
トラップ
  6
CONTINUOUS
 62
     6
100
AcDbVertex
100
AcDb2dVertex
 10
1571.1219787
 20
1011.9580689
 30
0.0
  0
VERTEX
  5
404
330
3DC
100
AcDbEntity
  8
トラップ
  6
CONTINUOUS
 62
     6
100
AcDbVertex
100
AcDb2dVertex
 10
1571.2727356
 20
1011.447052
 30
0.0
  0
VERTEX
  5
405
330
3DC
100
AcDbEntity
  8
トラップ
  6
CONTINUOUS
 62
     6
100
AcDbVertex
100
AcDb2dVertex
 10
1571.4826965
 20
1010.9477844
 30
0.0
  0
VERTEX
  5
406
330
3DC
100
AcDbEntity
  8
トラップ
  6
CONTINUOUS
 62
     6
100
AcDbVertex
100
AcDb2dVertex
 10
1571.7497253
 20
1010.4642334
 30
0.0
  0
VERTEX
  5
407
330
3DC
100
AcDbEntity
  8
トラップ
  6
CONTINUOUS
 62
     6
100
AcDbVertex
100
AcDb2dVertex
 10
1572.0721435
 20
1009.9999085
 30
0.0
  0
VERTEX
  5
408
330
3DC
100
AcDbEntity
  8
トラップ
  6
CONTINUOUS
 62
     6
100
AcDbVertex
100
AcDb2dVertex
 10
1572.4472046
 20
1009.5584717
 30
0.0
  0
VERTEX
  5
409
330
3DC
100
AcDbEntity
  8
トラップ
  6
CONTINUOUS
 62
     6
100
AcDbVertex
100
AcDb2dVertex
 10
1572.8721619
 20
1009.14328
 30
0.0
  0
VERTEX
  5
40A
330
3DC
100
AcDbEntity
  8
トラップ
  6
CONTINUOUS
 62
     6
100
AcDbVertex
100
AcDb2dVertex
 10
1573.3432007
 20
1008.7573853
 30
0.0
  0
VERTEX
  5
40B
330
3DC
100
AcDbEntity
  8
トラップ
  6
CONTINUOUS
 62
     6
100
AcDbVertex
100
AcDb2dVertex
 10
1573.857727
 20
1008.4038391
 30
0.0
  0
VERTEX
  5
40C
330
3DC
100
AcDbEntity
  8
トラップ
  6
CONTINUOUS
 62
     6
100
AcDbVertex
100
AcDb2dVertex
 10
1574.4114685
 20
1008.085083
 30
0.0
  0
VERTEX
  5
40D
330
3DC
100
AcDbEntity
  8
トラップ
  6
CONTINUOUS
 62
     6
100
AcDbVertex
100
AcDb2dVertex
 10
1575.0
 20
1007.8038635
 30
0.0
  0
VERTEX
  5
40E
330
3DC
100
AcDbEntity
  8
トラップ
  6
CONTINUOUS
 62
     6
100
AcDbVertex
100
AcDb2dVertex
 10
1575.6190491
 20
1007.5621643
 30
0.0
  0
VERTEX
  5
40F
330
3DC
100
AcDbEntity
  8
トラップ
  6
CONTINUOUS
 62
     6
100
AcDbVertex
100
AcDb2dVertex
 10
1576.2637329
 20
1007.361969
 30
0.0
  0
VERTEX
  5
410
330
3DC
100
AcDbEntity
  8
トラップ
  6
CONTINUOUS
 62
     6
100
AcDbVertex
100
AcDb2dVertex
 10
1576.929779
 20
1007.2043457
 30
0.0
  0
VERTEX
  5
411
330
3DC
100
AcDbEntity
  8
トラップ
  6
CONTINUOUS
 62
     6
100
AcDbVertex
100
AcDb2dVertex
 10
1577.6112366
 20
1007.0911255
 30
0.0
  0
VERTEX
  5
412
330
3DC
100
AcDbEntity
  8
トラップ
  6
CONTINUOUS
 62
     6
100
AcDbVertex
100
AcDb2dVertex
 10
1578.3033752
 20
1007.0227661
 30
0.0
  0
VERTEX
  5
413
330
3DC
100
AcDbEntity
  8
トラップ
  6
CONTINUOUS
 62
     6
100
AcDbVertex
100
AcDb2dVertex
 10
1579.0000915
 20
1006.9998779
 30
0.0
  0
VERTEX
  5
414
330
3DC
100
AcDbEntity
  8
トラップ
  6
CONTINUOUS
 62
     6
100
AcDbVertex
100
AcDb2dVertex
 10
1579.6974182
 20
1007.0227661
 30
0.0
  0
VERTEX
  5
415
330
3DC
100
AcDbEntity
  8
トラップ
  6
CONTINUOUS
 62
     6
100
AcDbVertex
100
AcDb2dVertex
 10
1580.3894043
 20
1007.0911255
 30
0.0
  0
VERTEX
  5
416
330
3DC
100
AcDbEntity
  8
トラップ
  6
CONTINUOUS
 62
     6
100
AcDbVertex
100
AcDb2dVertex
 10
1581.0707092
 20
1007.2043457
 30
0.0
  0
VERTEX
  5
417
330
3DC
100
AcDbEntity
  8
トラップ
  6
CONTINUOUS
 62
     6
100
AcDbVertex
100
AcDb2dVertex
 10
1581.7362976
 20
1007.3618164
 30
0.0
  0
VERTEX
  5
418
330
3DC
100
AcDbEntity
  8
トラップ
  6
CONTINUOUS
 62
     6
100
AcDbVertex
100
AcDb2dVertex
 10
1582.381134
 20
1007.5620117
 30
0.0
  0
SEQEND
  5
419
330
3DC
100
AcDbEntity
  8
トラップ
  6
CONTINUOUS
 62
     6
  0
POLYLINE
  5
41A
330
1F
100
AcDbEntity
  8
トラップ
  6
CONTINUOUS
 62
     6
100
AcDb2dPolyline
 66
     1
 10
0.0
 20
0.0
 30
0.0
 70
   128
  0
VERTEX
  5
41B
330
41A
100
AcDbEntity
  8
トラップ
  6
CONTINUOUS
 62
     6
100
AcDbVertex
100
AcDb2dVertex
 10
1582.381134
 20
1007.5620117
 30
0.0
  0
VERTEX
  5
41C
330
41A
100
AcDbEntity
  8
トラップ
  6
CONTINUOUS
 62
     6
100
AcDbVertex
100
AcDb2dVertex
 10
1582.9998779
 20
1007.8038635
 30
0.0
  0
VERTEX
  5
41D
330
41A
100
AcDbEntity
  8
トラップ
  6
CONTINUOUS
 62
     6
100
AcDbVertex
100
AcDb2dVertex
 10
1583.5884094
 20
1008.085083
 30
0.0
  0
VERTEX
  5
41E
330
41A
100
AcDbEntity
  8
トラップ
  6
CONTINUOUS
 62
     6
100
AcDbVertex
100
AcDb2dVertex
 10
1584.1419983
 20
1008.4038391
 30
0.0
  0
VERTEX
  5
41F
330
41A
100
AcDbEntity
  8
トラップ
  6
CONTINUOUS
 62
     6
100
AcDbVertex
100
AcDb2dVertex
 10
1584.6566772
 20
1008.7573853
 30
0.0
  0
VERTEX
  5
420
330
41A
100
AcDbEntity
  8
トラップ
  6
CONTINUOUS
 62
     6
100
AcDbVertex
100
AcDb2dVertex
 10
1585.1280212
 20
1009.14328
 30
0.0
  0
VERTEX
  5
421
330
41A
100
AcDbEntity
  8
トラップ
  6
CONTINUOUS
 62
     6
100
AcDbVertex
100
AcDb2dVertex
 10
1585.5528259
 20
1009.5586243
 30
0.0
  0
VERTEX
  5
422
330
41A
100
AcDbEntity
  8
トラップ
  6
CONTINUOUS
 62
     6
100
AcDbVertex
100
AcDb2dVertex
 10
1585.9283447
 20
1009.9999085
 30
0.0
  0
VERTEX
  5
423
330
41A
100
AcDbEntity
  8
トラップ
  6
CONTINUOUS
 62
     6
100
AcDbVertex
100
AcDb2dVertex
 10
1586.2504578
 20
1010.4642334
 30
0.0
  0
VERTEX
  5
424
330
41A
100
AcDbEntity
  8
トラップ
  6
CONTINUOUS
 62
     6
100
AcDbVertex
100
AcDb2dVertex
 10
1586.5176391
 20
1010.9477844
 30
0.0
  0
VERTEX
  5
425
330
41A
100
AcDbEntity
  8
トラップ
  6
CONTINUOUS
 62
     6
100
AcDbVertex
100
AcDb2dVertex
 10
1586.7276001
 20
1011.447052
 30
0.0
  0
SEQEND
  5
426
330
41A
100
AcDbEntity
  8
トラップ
  6
CONTINUOUS
 62
     6
  0
POLYLINE
  5
427
330
1F
100
AcDbEntity
  8
トラップ
  6
CONTINUOUS
 62
     6
100
AcDb2dPolyline
 66
     1
 10
0.0
 20
0.0
 30
0.0
 70
   128
  0
VERTEX
  5
428
330
427
100
AcDbEntity
  8
トラップ
  6
CONTINUOUS
 62
     6
100
AcDbVertex
100
AcDb2dVertex
 10
1586.7276001
 20
1011.447052
 30
0.0
  0
VERTEX
  5
429
330
427
100
AcDbEntity
  8
トラップ
  6
CONTINUOUS
 62
     6
100
AcDbVertex
100
AcDb2dVertex
 10
1586.8786621
 20
1011.9580689
 30
0.0
  0
VERTEX
  5
42A
330
427
100
AcDbEntity
  8
トラップ
  6
CONTINUOUS
 62
     6
100
AcDbVertex
100
AcDb2dVertex
 10
1586.9699097
 20
1012.4770203
 30
0.0
  0
VERTEX
  5
42B
330
427
100
AcDbEntity
  8
トラップ
  6
CONTINUOUS
 62
     6
100
AcDbVertex
100
AcDb2dVertex
 10
1587.0005798
 20
1012.999939
 30
0.0
  0
SEQEND
  5
42C
330
427
100
AcDbEntity
  8
トラップ
  6
CONTINUOUS
 62
     6
  0
POLYLINE
  5
42D
330
1F
100
AcDbEntity
  8
トラップ
  6
CONTINUOUS
 62
     6
100
AcDb2dPolyline
 66
     1
 10
0.0
 20
0.0
 30
0.0
 70
   128
  0
VERTEX
  5
42E
330
42D
100
AcDbEntity
  8
トラップ
  6
CONTINUOUS
 62
     6
100
AcDbVertex
100
AcDb2dVertex
 10
1608.999939
 20
1012.999939
 30
0.0
  0
VERTEX
  5
42F
330
42D
100
AcDbEntity
  8
トラップ
  6
CONTINUOUS
 62
     6
100
AcDbVertex
100
AcDb2dVertex
 10
1608.9694214
 20
1013.5228577
 30
0.0
  0
VERTEX
  5
430
330
42D
100
AcDbEntity
  8
トラップ
  6
CONTINUOUS
 62
     6
100
AcDbVertex
100
AcDb2dVertex
 10
1608.8783264
 20
1014.0418091
 30
0.0
  0
VERTEX
  5
431
330
42D
100
AcDbEntity
  8
トラップ
  6
CONTINUOUS
 62
     6
100
AcDbVertex
100
AcDb2dVertex
 10
1608.727417
 20
1014.5528259
 30
0.0
  0
VERTEX
  5
432
330
42D
100
AcDbEntity
  8
トラップ
  6
CONTINUOUS
 62
     6
100
AcDbVertex
100
AcDb2dVertex
 10
1608.517456
 20
1015.0520935
 30
0.0
  0
VERTEX
  5
433
330
42D
100
AcDbEntity
  8
トラップ
  6
CONTINUOUS
 62
     6
100
AcDbVertex
100
AcDb2dVertex
 10
1608.2504272
 20
1015.5356445
 30
0.0
  0
VERTEX
  5
434
330
42D
100
AcDbEntity
  8
トラップ
  6
CONTINUOUS
 62
     6
100
AcDbVertex
100
AcDb2dVertex
 10
1607.9281616
 20
1015.9999695
 30
0.0
  0
VERTEX
  5
435
330
42D
100
AcDbEntity
  8
トラップ
  6
CONTINUOUS
 62
     6
100
AcDbVertex
100
AcDb2dVertex
 10
1607.5531006
 20
1016.4414063
 30
0.0
  0
VERTEX
  5
436
330
42D
100
AcDbEntity
  8
トラップ
  6
CONTINUOUS
 62
     6
100
AcDbVertex
100
AcDb2dVertex
 10
1607.1281433
 20
1016.8565979
 30
0.0
  0
VERTEX
  5
437
330
42D
100
AcDbEntity
  8
トラップ
  6
CONTINUOUS
 62
     6
100
AcDbVertex
100
AcDb2dVertex
 10
1606.6571045
 20
1017.2426453
 30
0.0
  0
VERTEX
  5
438
330
42D
100
AcDbEntity
  8
トラップ
  6
CONTINUOUS
 62
     6
100
AcDbVertex
100
AcDb2dVertex
 10
1606.1425781
 20
1017.5961914
 30
0.0
  0
VERTEX
  5
439
330
42D
100
AcDbEntity
  8
トラップ
  6
CONTINUOUS
 62
     6
100
AcDbVertex
100
AcDb2dVertex
 10
1605.5888367
 20
1017.9149475
 30
0.0
  0
VERTEX
  5
43A
330
42D
100
AcDbEntity
  8
トラップ
  6
CONTINUOUS
 62
     6
100
AcDbVertex
100
AcDb2dVertex
 10
1605.0003052
 20
1018.196167
 30
0.0
  0
VERTEX
  5
43B
330
42D
100
AcDbEntity
  8
トラップ
  6
CONTINUOUS
 62
     6
100
AcDbVertex
100
AcDb2dVertex
 10
1604.3812561
 20
1018.4378662
 30
0.0
  0
VERTEX
  5
43C
330
42D
100
AcDbEntity
  8
トラップ
  6
CONTINUOUS
 62
     6
100
AcDbVertex
100
AcDb2dVertex
 10
1603.7365723
 20
1018.6380615
 30
0.0
  0
VERTEX
  5
43D
330
42D
100
AcDbEntity
  8
トラップ
  6
CONTINUOUS
 62
     6
100
AcDbVertex
100
AcDb2dVertex
 10
1603.0705261
 20
1018.7955322
 30
0.0
  0
VERTEX
  5
43E
330
42D
100
AcDbEntity
  8
トラップ
  6
CONTINUOUS
 62
     6
100
AcDbVertex
100
AcDb2dVertex
 10
1602.3890686
 20
1018.9087525
 30
0.0
  0
VERTEX
  5
43F
330
42D
100
AcDbEntity
  8
トラップ
  6
CONTINUOUS
 62
     6
100
AcDbVertex
100
AcDb2dVertex
 10
1601.6969299
 20
1018.9771118
 30
0.0
  0
VERTEX
  5
440
330
42D
100
AcDbEntity
  8
トラップ
  6
CONTINUOUS
 62
     6
100
AcDbVertex
100
AcDb2dVertex
 10
1601.000061
 20
1019.0
 30
0.0
  0
VERTEX
  5
441
330
42D
100
AcDbEntity
  8
トラップ
  6
CONTINUOUS
 62
     6
100
AcDbVertex
100
AcDb2dVertex
 10
1600.3027344
 20
1018.9771118
 30
0.0
  0
VERTEX
  5
442
330
42D
100
AcDbEntity
  8
トラップ
  6
CONTINUOUS
 62
     6
100
AcDbVertex
100
AcDb2dVertex
 10
1599.6107483
 20
1018.9087525
 30
0.0
  0
VERTEX
  5
443
330
42D
100
AcDbEntity
  8
トラップ
  6
CONTINUOUS
 62
     6
100
AcDbVertex
100
AcDb2dVertex
 10
1598.9294433
 20
1018.7955322
 30
0.0
  0
VERTEX
  5
444
330
42D
100
AcDbEntity
  8
トラップ
  6
CONTINUOUS
 62
     6
100
AcDbVertex
100
AcDb2dVertex
 10
1598.263855
 20
1018.6380615
 30
0.0
  0
VERTEX
  5
445
330
42D
100
AcDbEntity
  8
トラップ
  6
CONTINUOUS
 62
     6
100
AcDbVertex
100
AcDb2dVertex
 10
1597.6190185
 20
1018.4378662
 30
0.0
  0
VERTEX
  5
446
330
42D
100
AcDbEntity
  8
トラップ
  6
CONTINUOUS
 62
     6
100
AcDbVertex
100
AcDb2dVertex
 10
1597.0002746
 20
1018.196167
 30
0.0
  0
VERTEX
  5
447
330
42D
100
AcDbEntity
  8
トラップ
  6
CONTINUOUS
 62
     6
100
AcDbVertex
100
AcDb2dVertex
 10
1596.4117432
 20
1017.9149475
 30
0.0
  0
VERTEX
  5
448
330
42D
100
AcDbEntity
  8
トラップ
  6
CONTINUOUS
 62
     6
100
AcDbVertex
100
AcDb2dVertex
 10
1595.8581543
 20
1017.5961914
 30
0.0
  0
VERTEX
  5
449
330
42D
100
AcDbEntity
  8
トラップ
  6
CONTINUOUS
 62
     6
100
AcDbVertex
100
AcDb2dVertex
 10
1595.3434753
 20
1017.2426453
 30
0.0
  0
VERTEX
  5
44A
330
42D
100
AcDbEntity
  8
トラップ
  6
CONTINUOUS
 62
     6
100
AcDbVertex
100
AcDb2dVertex
 10
1594.8721313
 20
1016.8567505
 30
0.0
  0
VERTEX
  5
44B
330
42D
100
AcDbEntity
  8
トラップ
  6
CONTINUOUS
 62
     6
100
AcDbVertex
100
AcDb2dVertex
 10
1594.4473266
 20
1016.4414063
 30
0.0
  0
VERTEX
  5
44C
330
42D
100
AcDbEntity
  8
トラップ
  6
CONTINUOUS
 62
     6
100
AcDbVertex
100
AcDb2dVertex
 10
1594.0718078
 20
1015.9999695
 30
0.0
  0
VERTEX
  5
44D
330
42D
100
AcDbEntity
  8
トラップ
  6
CONTINUOUS
 62
     6
100
AcDbVertex
100
AcDb2dVertex
 10
1593.7496948
 20
1015.5356445
 30
0.0
  0
VERTEX
  5
44E
330
42D
100
AcDbEntity
  8
トラップ
  6
CONTINUOUS
 62
     6
100
AcDbVertex
100
AcDb2dVertex
 10
1593.4825134
 20
1015.0520935
 30
0.0
  0
VERTEX
  5
44F
330
42D
100
AcDbEntity
  8
トラップ
  6
CONTINUOUS
 62
     6
100
AcDbVertex
100
AcDb2dVertex
 10
1593.2727051
 20
1014.5528259
 30
0.0
  0
VERTEX
  5
450
330
42D
100
AcDbEntity
  8
トラップ
  6
CONTINUOUS
 62
     6
100
AcDbVertex
100
AcDb2dVertex
 10
1593.1216431
 20
1014.0418091
 30
0.0
  0
VERTEX
  5
451
330
42D
100
AcDbEntity
  8
トラップ
  6
CONTINUOUS
 62
     6
100
AcDbVertex
100
AcDb2dVertex
 10
1593.0303955
 20
1013.5228577
 30
0.0
  0
VERTEX
  5
452
330
42D
100
AcDbEntity
  8
トラップ
  6
CONTINUOUS
 62
     6
100
AcDbVertex
100
AcDb2dVertex
 10
1593.0000305
 20
1012.999939
 30
0.0
  0
VERTEX
  5
453
330
42D
100
AcDbEntity
  8
トラップ
  6
CONTINUOUS
 62
     6
100
AcDbVertex
100
AcDb2dVertex
 10
1593.0305481
 20
1012.4770203
 30
0.0
  0
VERTEX
  5
454
330
42D
100
AcDbEntity
  8
トラップ
  6
CONTINUOUS
 62
     6
100
AcDbVertex
100
AcDb2dVertex
 10
1593.1214905
 20
1011.9580689
 30
0.0
  0
VERTEX
  5
455
330
42D
100
AcDbEntity
  8
トラップ
  6
CONTINUOUS
 62
     6
100
AcDbVertex
100
AcDb2dVertex
 10
1593.2727051
 20
1011.447052
 30
0.0
  0
VERTEX
  5
456
330
42D
100
AcDbEntity
  8
トラップ
  6
CONTINUOUS
 62
     6
100
AcDbVertex
100
AcDb2dVertex
 10
1593.4825134
 20
1010.9477844
 30
0.0
  0
VERTEX
  5
457
330
42D
100
AcDbEntity
  8
トラップ
  6
CONTINUOUS
 62
     6
100
AcDbVertex
100
AcDb2dVertex
 10
1593.7493896
 20
1010.4642334
 30
0.0
  0
VERTEX
  5
458
330
42D
100
AcDbEntity
  8
トラップ
  6
CONTINUOUS
 62
     6
100
AcDbVertex
100
AcDb2dVertex
 10
1594.0718078
 20
1009.9999085
 30
0.0
  0
VERTEX
  5
459
330
42D
100
AcDbEntity
  8
トラップ
  6
CONTINUOUS
 62
     6
100
AcDbVertex
100
AcDb2dVertex
 10
1594.4468689
 20
1009.5584717
 30
0.0
  0
VERTEX
  5
45A
330
42D
100
AcDbEntity
  8
トラップ
  6
CONTINUOUS
 62
     6
100
AcDbVertex
100
AcDb2dVertex
 10
1594.8716736
 20
1009.14328
 30
0.0
  0
VERTEX
  5
45B
330
42D
100
AcDbEntity
  8
トラップ
  6
CONTINUOUS
 62
     6
100
AcDbVertex
100
AcDb2dVertex
 10
1595.3434753
 20
1008.7573853
 30
0.0
  0
VERTEX
  5
45C
330
42D
100
AcDbEntity
  8
トラップ
  6
CONTINUOUS
 62
     6
100
AcDbVertex
100
AcDb2dVertex
 10
1595.8581543
 20
1008.4038391
 30
0.0
  0
VERTEX
  5
45D
330
42D
100
AcDbEntity
  8
トラップ
  6
CONTINUOUS
 62
     6
100
AcDbVertex
100
AcDb2dVertex
 10
1596.4120483
 20
1008.085083
 30
0.0
  0
VERTEX
  5
45E
330
42D
100
AcDbEntity
  8
トラップ
  6
CONTINUOUS
 62
     6
100
AcDbVertex
100
AcDb2dVertex
 10
1597.0002746
 20
1007.8038635
 30
0.0
  0
VERTEX
  5
45F
330
42D
100
AcDbEntity
  8
トラップ
  6
CONTINUOUS
 62
     6
100
AcDbVertex
100
AcDb2dVertex
 10
1597.6193237
 20
1007.5621643
 30
0.0
  0
VERTEX
  5
460
330
42D
100
AcDbEntity
  8
トラップ
  6
CONTINUOUS
 62
     6
100
AcDbVertex
100
AcDb2dVertex
 10
1598.2643127
 20
1007.361969
 30
0.0
  0
VERTEX
  5
461
330
42D
100
AcDbEntity
  8
トラップ
  6
CONTINUOUS
 62
     6
100
AcDbVertex
100
AcDb2dVertex
 10
1598.9294433
 20
1007.2043457
 30
0.0
  0
VERTEX
  5
462
330
42D
100
AcDbEntity
  8
トラップ
  6
CONTINUOUS
 62
     6
100
AcDbVertex
100
AcDb2dVertex
 10
1599.6109009
 20
1007.0911255
 30
0.0
  0
VERTEX
  5
463
330
42D
100
AcDbEntity
  8
トラップ
  6
CONTINUOUS
 62
     6
100
AcDbVertex
100
AcDb2dVertex
 10
1600.3027344
 20
1007.0227661
 30
0.0
  0
VERTEX
  5
464
330
42D
100
AcDbEntity
  8
トラップ
  6
CONTINUOUS
 62
     6
100
AcDbVertex
100
AcDb2dVertex
 10
1601.000061
 20
1006.9998779
 30
0.0
  0
VERTEX
  5
465
330
42D
100
AcDbEntity
  8
トラップ
  6
CONTINUOUS
 62
     6
100
AcDbVertex
100
AcDb2dVertex
 10
1601.6972351
 20
1007.0227661
 30
0.0
  0
VERTEX
  5
466
330
42D
100
AcDbEntity
  8
トラップ
  6
CONTINUOUS
 62
     6
100
AcDbVertex
100
AcDb2dVertex
 10
1602.3890686
 20
1007.0911255
 30
0.0
  0
VERTEX
  5
467
330
42D
100
AcDbEntity
  8
トラップ
  6
CONTINUOUS
 62
     6
100
AcDbVertex
100
AcDb2dVertex
 10
1603.0705261
 20
1007.2043457
 30
0.0
  0
VERTEX
  5
468
330
42D
100
AcDbEntity
  8
トラップ
  6
CONTINUOUS
 62
     6
100
AcDbVertex
100
AcDb2dVertex
 10
1603.7359619
 20
1007.3618164
 30
0.0
  0
VERTEX
  5
469
330
42D
100
AcDbEntity
  8
トラップ
  6
CONTINUOUS
 62
     6
100
AcDbVertex
100
AcDb2dVertex
 10
1604.3806457
 20
1007.5620117
 30
0.0
  0
SEQEND
  5
46A
330
42D
100
AcDbEntity
  8
トラップ
  6
CONTINUOUS
 62
     6
  0
POLYLINE
  5
46B
330
1F
100
AcDbEntity
  8
トラップ
  6
CONTINUOUS
 62
     6
100
AcDb2dPolyline
 66
     1
 10
0.0
 20
0.0
 30
0.0
 70
   128
  0
VERTEX
  5
46C
330
46B
100
AcDbEntity
  8
トラップ
  6
CONTINUOUS
 62
     6
100
AcDbVertex
100
AcDb2dVertex
 10
1604.3806457
 20
1007.5620117
 30
0.0
  0
VERTEX
  5
46D
330
46B
100
AcDbEntity
  8
トラップ
  6
CONTINUOUS
 62
     6
100
AcDbVertex
100
AcDb2dVertex
 10
1605.0003052
 20
1007.8038635
 30
0.0
  0
VERTEX
  5
46E
330
46B
100
AcDbEntity
  8
トラップ
  6
CONTINUOUS
 62
     6
100
AcDbVertex
100
AcDb2dVertex
 10
1605.5888367
 20
1008.085083
 30
0.0
  0
VERTEX
  5
46F
330
46B
100
AcDbEntity
  8
トラップ
  6
CONTINUOUS
 62
     6
100
AcDbVertex
100
AcDb2dVertex
 10
1606.1427307
 20
1008.4038391
 30
0.0
  0
VERTEX
  5
470
330
46B
100
AcDbEntity
  8
トラップ
  6
CONTINUOUS
 62
     6
100
AcDbVertex
100
AcDb2dVertex
 10
1606.6571045
 20
1008.7573853
 30
0.0
  0
VERTEX
  5
471
330
46B
100
AcDbEntity
  8
トラップ
  6
CONTINUOUS
 62
     6
100
AcDbVertex
100
AcDb2dVertex
 10
1607.1286011
 20
1009.14328
 30
0.0
  0
VERTEX
  5
472
330
46B
100
AcDbEntity
  8
トラップ
  6
CONTINUOUS
 62
     6
100
AcDbVertex
100
AcDb2dVertex
 10
1607.5535583
 20
1009.5586243
 30
0.0
  0
VERTEX
  5
473
330
46B
100
AcDbEntity
  8
トラップ
  6
CONTINUOUS
 62
     6
100
AcDbVertex
100
AcDb2dVertex
 10
1607.9281616
 20
1009.9999085
 30
0.0
  0
VERTEX
  5
474
330
46B
100
AcDbEntity
  8
トラップ
  6
CONTINUOUS
 62
     6
100
AcDbVertex
100
AcDb2dVertex
 10
1608.2502746
 20
1010.4642334
 30
0.0
  0
VERTEX
  5
475
330
46B
100
AcDbEntity
  8
トラップ
  6
CONTINUOUS
 62
     6
100
AcDbVertex
100
AcDb2dVertex
 10
1608.5171509
 20
1010.9477844
 30
0.0
  0
VERTEX
  5
476
330
46B
100
AcDbEntity
  8
トラップ
  6
CONTINUOUS
 62
     6
100
AcDbVertex
100
AcDb2dVertex
 10
1608.727417
 20
1011.447052
 30
0.0
  0
SEQEND
  5
477
330
46B
100
AcDbEntity
  8
トラップ
  6
CONTINUOUS
 62
     6
  0
POLYLINE
  5
478
330
1F
100
AcDbEntity
  8
トラップ
  6
CONTINUOUS
 62
     6
100
AcDb2dPolyline
 66
     1
 10
0.0
 20
0.0
 30
0.0
 70
   128
  0
VERTEX
  5
479
330
478
100
AcDbEntity
  8
トラップ
  6
CONTINUOUS
 62
     6
100
AcDbVertex
100
AcDb2dVertex
 10
1608.727417
 20
1011.447052
 30
0.0
  0
VERTEX
  5
47A
330
478
100
AcDbEntity
  8
トラップ
  6
CONTINUOUS
 62
     6
100
AcDbVertex
100
AcDb2dVertex
 10
1608.8783264
 20
1011.9580689
 30
0.0
  0
VERTEX
  5
47B
330
478
100
AcDbEntity
  8
トラップ
  6
CONTINUOUS
 62
     6
100
AcDbVertex
100
AcDb2dVertex
 10
1608.9694214
 20
1012.4770203
 30
0.0
  0
VERTEX
  5
47C
330
478
100
AcDbEntity
  8
トラップ
  6
CONTINUOUS
 62
     6
100
AcDbVertex
100
AcDb2dVertex
 10
1608.999939
 20
1012.999939
 30
0.0
  0
SEQEND
  5
47D
330
478
100
AcDbEntity
  8
トラップ
  6
CONTINUOUS
 62
     6
  0
ARC
  5
47E
330
1F
100
AcDbEntity
  8
トラップ
  6
CONTINUOUS
 62
     6
100
AcDbCircle
 10
1570.0
 20
1017.500061
 30
0.0
 40
1.499939
100
AcDbArc
 50
90.00000000000001
 51
180.0
  0
ARC
  5
47F
330
1F
100
AcDbEntity
  8
トラップ
  6
CONTINUOUS
 62
     6
100
AcDbCircle
 10
1570.0
 20
1008.4998169
 30
0.0
 40
1.499939
100
AcDbArc
 50
180.0
 51
270.0000000000002
  0
LINE
  5
480
330
1F
100
AcDbEntity
  8
トラップ
  6
CONTINUOUS
 62
     6
100
AcDbLine
 10
1568.500061
 20
1008.4998169
 30
0.0
 11
1568.500061
 21
1017.500061
 31
0.0
  0
ARC
  5
481
330
1F
100
AcDbEntity
  8
トラップ
  6
CONTINUOUS
 62
     6
100
AcDbCircle
 10
1610.0
 20
1008.4998169
 30
0.0
 40
1.499939
100
AcDbArc
 50
270.0000000000002
 51
0.0
  0
LINE
  5
482
330
1F
100
AcDbEntity
  8
トラップ
  6
CONTINUOUS
 62
     6
100
AcDbLine
 10
1570.0
 20
1006.9998779
 30
0.0
 11
1610.0
 21
1006.9998779
 31
0.0
  0
ARC
  5
483
330
1F
100
AcDbEntity
  8
トラップ
  6
CONTINUOUS
 62
     6
100
AcDbCircle
 10
1610.0
 20
1017.500061
 30
0.0
 40
1.499939
100
AcDbArc
 50
0.0
 51
90.00000000000001
  0
LINE
  5
484
330
1F
100
AcDbEntity
  8
トラップ
  6
CONTINUOUS
 62
     6
100
AcDbLine
 10
1611.499939
 20
1008.4998169
 30
0.0
 11
1611.499939
 21
1017.500061
 31
0.0
  0
LINE
  5
485
330
1F
100
AcDbEntity
  8
トラップ
  6
CONTINUOUS
 62
     6
100
AcDbLine
 10
1570.0
 20
1019.0
 30
0.0
 11
1610.0
 21
1019.0
 31
0.0
  0
POLYLINE
  5
486
330
1F
100
AcDbEntity
  8
トラップ
  6
CONTINUOUS
 62
     6
100
AcDb2dPolyline
 66
     1
 10
0.0
 20
0.0
 30
0.0
 70
   128
  0
VERTEX
  5
487
330
486
100
AcDbEntity
  8
トラップ
  6
CONTINUOUS
 62
     6
100
AcDbVertex
100
AcDb2dVertex
 10
1633.8979050588
 20
929.7000916000001
 30
0.0
  0
VERTEX
  5
488
330
486
100
AcDbEntity
  8
トラップ
  6
CONTINUOUS
 62
     6
100
AcDbVertex
100
AcDb2dVertex
 10
1633.8689133588
 20
930.2230102999999
 30
0.0
  0
VERTEX
  5
489
330
486
100
AcDbEntity
  8
トラップ
  6
CONTINUOUS
 62
     6
100
AcDbVertex
100
AcDb2dVertex
 10
1633.7820908588
 20
930.7419616999999
 30
0.0
  0
VERTEX
  5
48A
330
486
100
AcDbEntity
  8
トラップ
  6
CONTINUOUS
 62
     6
100
AcDbVertex
100
AcDb2dVertex
 10
1633.6382004588
 20
931.2528259
 30
0.0
  0
VERTEX
  5
48B
330
486
100
AcDbEntity
  8
トラップ
  6
CONTINUOUS
 62
     6
100
AcDbVertex
100
AcDb2dVertex
 10
1633.4381577588
 20
931.7520935
 30
0.0
  0
VERTEX
  5
48C
330
486
100
AcDbEntity
  8
トラップ
  6
CONTINUOUS
 62
     6
100
AcDbVertex
100
AcDb2dVertex
 10
1633.1836411588
 20
932.2356444999999
 30
0.0
  0
VERTEX
  5
48D
330
486
100
AcDbEntity
  8
トラップ
  6
CONTINUOUS
 62
     6
100
AcDbVertex
100
AcDb2dVertex
 10
1632.8761765588
 20
932.7001221
 30
0.0
  0
VERTEX
  5
48E
330
486
100
AcDbEntity
  8
トラップ
  6
CONTINUOUS
 62
     6
100
AcDbVertex
100
AcDb2dVertex
 10
1632.5186631588
 20
933.1415588
 30
0.0
  0
VERTEX
  5
48F
330
486
100
AcDbEntity
  8
トラップ
  6
CONTINUOUS
 62
     6
100
AcDbVertex
100
AcDb2dVertex
 10
1632.1136948588
 20
933.5567505
 30
0.0
  0
VERTEX
  5
490
330
486
100
AcDbEntity
  8
トラップ
  6
CONTINUOUS
 62
     6
100
AcDbVertex
100
AcDb2dVertex
 10
1631.6644761588
 20
933.9426453
 30
0.0
  0
VERTEX
  5
491
330
486
100
AcDbEntity
  8
トラップ
  6
CONTINUOUS
 62
     6
100
AcDbVertex
100
AcDb2dVertex
 10
1631.1739060588
 20
934.2961914
 30
0.0
  0
VERTEX
  5
492
330
486
100
AcDbEntity
  8
トラップ
  6
CONTINUOUS
 62
     6
100
AcDbVertex
100
AcDb2dVertex
 10
1630.6461045588
 20
934.6149475
 30
0.0
  0
VERTEX
  5
493
330
486
100
AcDbEntity
  8
トラップ
  6
CONTINUOUS
 62
     6
100
AcDbVertex
100
AcDb2dVertex
 10
1630.0851914588
 20
934.896167
 30
0.0
  0
VERTEX
  5
494
330
486
100
AcDbEntity
  8
トラップ
  6
CONTINUOUS
 62
     6
100
AcDbVertex
100
AcDb2dVertex
 10
1629.4951340588
 20
935.1378662000001
 30
0.0
  0
VERTEX
  5
495
330
486
100
AcDbEntity
  8
トラップ
  6
CONTINUOUS
 62
     6
100
AcDbVertex
100
AcDb2dVertex
 10
1628.8803574588
 20
935.3380615
 30
0.0
  0
VERTEX
  5
496
330
486
100
AcDbEntity
  8
トラップ
  6
CONTINUOUS
 62
     6
100
AcDbVertex
100
AcDb2dVertex
 10
1628.2462021588
 20
935.4955322000001
 30
0.0
  0
VERTEX
  5
497
330
486
100
AcDbEntity
  8
トラップ
  6
CONTINUOUS
 62
     6
100
AcDbVertex
100
AcDb2dVertex
 10
1627.5966355588
 20
935.6087524999999
 30
0.0
  0
VERTEX
  5
498
330
486
100
AcDbEntity
  8
トラップ
  6
CONTINUOUS
 62
     6
100
AcDbVertex
100
AcDb2dVertex
 10
1626.9369980588
 20
935.6771118
 30
0.0
  0
VERTEX
  5
499
330
486
100
AcDbEntity
  8
トラップ
  6
CONTINUOUS
 62
     6
100
AcDbVertex
100
AcDb2dVertex
 10
1626.2729355588
 20
935.7001526
 30
0.0
  0
VERTEX
  5
49A
330
486
100
AcDbEntity
  8
トラップ
  6
CONTINUOUS
 62
     6
100
AcDbVertex
100
AcDb2dVertex
 10
1625.6084153588
 20
935.6772644
 30
0.0
  0
VERTEX
  5
49B
330
486
100
AcDbEntity
  8
トラップ
  6
CONTINUOUS
 62
     6
100
AcDbVertex
100
AcDb2dVertex
 10
1624.9489304588
 20
935.6089049999999
 30
0.0
  0
VERTEX
  5
49C
330
486
100
AcDbEntity
  8
トラップ
  6
CONTINUOUS
 62
     6
100
AcDbVertex
100
AcDb2dVertex
 10
1624.2990586588
 20
935.4955322000001
 30
0.0
  0
VERTEX
  5
49D
330
486
100
AcDbEntity
  8
トラップ
  6
CONTINUOUS
 62
     6
100
AcDbVertex
100
AcDb2dVertex
 10
1623.6645981588
 20
935.3380615
 30
0.0
  0
VERTEX
  5
49E
330
486
100
AcDbEntity
  8
トラップ
  6
CONTINUOUS
 62
     6
100
AcDbVertex
100
AcDb2dVertex
 10
1623.0499741588
 20
935.1378662000001
 30
0.0
  0
VERTEX
  5
49F
330
486
100
AcDbEntity
  8
トラップ
  6
CONTINUOUS
 62
     6
100
AcDbVertex
100
AcDb2dVertex
 10
1622.4602219588
 20
934.896167
 30
0.0
  0
VERTEX
  5
4A0
330
486
100
AcDbEntity
  8
トラップ
  6
CONTINUOUS
 62
     6
100
AcDbVertex
100
AcDb2dVertex
 10
1621.8991562588
 20
934.6149475
 30
0.0
  0
VERTEX
  5
4A1
330
486
100
AcDbEntity
  8
トラップ
  6
CONTINUOUS
 62
     6
100
AcDbVertex
100
AcDb2dVertex
 10
1621.3713547588
 20
934.2961914
 30
0.0
  0
VERTEX
  5
4A2
330
486
100
AcDbEntity
  8
トラップ
  6
CONTINUOUS
 62
     6
100
AcDbVertex
100
AcDb2dVertex
 10
1620.8807846588
 20
933.9426453
 30
0.0
  0
VERTEX
  5
4A3
330
486
100
AcDbEntity
  8
トラップ
  6
CONTINUOUS
 62
     6
100
AcDbVertex
100
AcDb2dVertex
 10
1620.4314133588
 20
933.5567505
 30
0.0
  0
VERTEX
  5
4A4
330
486
100
AcDbEntity
  8
トラップ
  6
CONTINUOUS
 62
     6
100
AcDbVertex
100
AcDb2dVertex
 10
1620.0262925588
 20
933.1414063
 30
0.0
  0
VERTEX
  5
4A5
330
486
100
AcDbEntity
  8
トラップ
  6
CONTINUOUS
 62
     6
100
AcDbVertex
100
AcDb2dVertex
 10
1619.6695420588
 20
932.7001221
 30
0.0
  0
VERTEX
  5
4A6
330
486
100
AcDbEntity
  8
トラップ
  6
CONTINUOUS
 62
     6
100
AcDbVertex
100
AcDb2dVertex
 10
1619.3625351588
 20
932.2357971
 30
0.0
  0
VERTEX
  5
4A7
330
486
100
AcDbEntity
  8
トラップ
  6
CONTINUOUS
 62
     6
100
AcDbVertex
100
AcDb2dVertex
 10
1619.1081711588
 20
931.7522461
 30
0.0
  0
VERTEX
  5
4A8
330
486
100
AcDbEntity
  8
トラップ
  6
CONTINUOUS
 62
     6
100
AcDbVertex
100
AcDb2dVertex
 10
1618.9076706588
 20
931.2528259
 30
0.0
  0
VERTEX
  5
4A9
330
486
100
AcDbEntity
  8
トラップ
  6
CONTINUOUS
 62
     6
100
AcDbVertex
100
AcDb2dVertex
 10
1618.7637803588
 20
930.7418091
 30
0.0
  0
VERTEX
  5
4AA
330
486
100
AcDbEntity
  8
トラップ
  6
CONTINUOUS
 62
     6
100
AcDbVertex
100
AcDb2dVertex
 10
1618.6769577588
 20
930.2228577
 30
0.0
  0
VERTEX
  5
4AB
330
486
100
AcDbEntity
  8
トラップ
  6
CONTINUOUS
 62
     6
100
AcDbVertex
100
AcDb2dVertex
 10
1618.6478135588
 20
929.7000916000001
 30
0.0
  0
VERTEX
  5
4AC
330
486
100
AcDbEntity
  8
トラップ
  6
CONTINUOUS
 62
     6
100
AcDbVertex
100
AcDb2dVertex
 10
1618.6769577588
 20
929.1771729
 30
0.0
  0
VERTEX
  5
4AD
330
486
100
AcDbEntity
  8
トラップ
  6
CONTINUOUS
 62
     6
100
AcDbVertex
100
AcDb2dVertex
 10
1618.7637803588
 20
928.6582214000001
 30
0.0
  0
VERTEX
  5
4AE
330
486
100
AcDbEntity
  8
トラップ
  6
CONTINUOUS
 62
     6
100
AcDbVertex
100
AcDb2dVertex
 10
1618.9076706588
 20
928.147052
 30
0.0
  0
VERTEX
  5
4AF
330
486
100
AcDbEntity
  8
トラップ
  6
CONTINUOUS
 62
     6
100
AcDbVertex
100
AcDb2dVertex
 10
1619.1078659588
 20
927.6477844
 30
0.0
  0
VERTEX
  5
4B0
330
486
100
AcDbEntity
  8
トラップ
  6
CONTINUOUS
 62
     6
100
AcDbVertex
100
AcDb2dVertex
 10
1619.3623826588
 20
927.1642334000001
 30
0.0
  0
VERTEX
  5
4B1
330
486
100
AcDbEntity
  8
トラップ
  6
CONTINUOUS
 62
     6
100
AcDbVertex
100
AcDb2dVertex
 10
1619.6695420588
 20
926.7000609999999
 30
0.0
  0
VERTEX
  5
4B2
330
486
100
AcDbEntity
  8
トラップ
  6
CONTINUOUS
 62
     6
100
AcDbVertex
100
AcDb2dVertex
 10
1620.0270554588
 20
926.2586243
 30
0.0
  0
VERTEX
  5
4B3
330
486
100
AcDbEntity
  8
トラップ
  6
CONTINUOUS
 62
     6
100
AcDbVertex
100
AcDb2dVertex
 10
1620.4321763588
 20
925.8434326
 30
0.0
  0
VERTEX
  5
4B4
330
486
100
AcDbEntity
  8
トラップ
  6
CONTINUOUS
 62
     6
100
AcDbVertex
100
AcDb2dVertex
 10
1620.8807846588
 20
925.4572327
 30
0.0
  0
VERTEX
  5
4B5
330
486
100
AcDbEntity
  8
トラップ
  6
CONTINUOUS
 62
     6
100
AcDbVertex
100
AcDb2dVertex
 10
1621.3712021588
 20
925.1036865
 30
0.0
  0
VERTEX
  5
4B6
330
486
100
AcDbEntity
  8
トラップ
  6
CONTINUOUS
 62
     6
100
AcDbVertex
100
AcDb2dVertex
 10
1621.8988511588
 20
924.7849304
 30
0.0
  0
VERTEX
  5
4B7
330
486
100
AcDbEntity
  8
トラップ
  6
CONTINUOUS
 62
     6
100
AcDbVertex
100
AcDb2dVertex
 10
1622.4602219588
 20
924.5037109000001
 30
0.0
  0
VERTEX
  5
4B8
330
486
100
AcDbEntity
  8
トラップ
  6
CONTINUOUS
 62
     6
100
AcDbVertex
100
AcDb2dVertex
 10
1623.0502793588
 20
924.2620117
 30
0.0
  0
VERTEX
  5
4B9
330
486
100
AcDbEntity
  8
トラップ
  6
CONTINUOUS
 62
     6
100
AcDbVertex
100
AcDb2dVertex
 10
1623.6645981588
 20
924.0618164
 30
0.0
  0
VERTEX
  5
4BA
330
486
100
AcDbEntity
  8
トラップ
  6
CONTINUOUS
 62
     6
100
AcDbVertex
100
AcDb2dVertex
 10
1624.2990586588
 20
923.9044983
 30
0.0
  0
VERTEX
  5
4BB
330
486
100
AcDbEntity
  8
トラップ
  6
CONTINUOUS
 62
     6
100
AcDbVertex
100
AcDb2dVertex
 10
1624.9484726588
 20
923.7912781
 30
0.0
  0
VERTEX
  5
4BC
330
486
100
AcDbEntity
  8
トラップ
  6
CONTINUOUS
 62
     6
100
AcDbVertex
100
AcDb2dVertex
 10
1625.6078049588
 20
923.7229186999999
 30
0.0
  0
VERTEX
  5
4BD
330
486
100
AcDbEntity
  8
トラップ
  6
CONTINUOUS
 62
     6
100
AcDbVertex
100
AcDb2dVertex
 10
1626.2729355588
 20
923.7000304999999
 30
0.0
  0
VERTEX
  5
4BE
330
486
100
AcDbEntity
  8
トラップ
  6
CONTINUOUS
 62
     6
100
AcDbVertex
100
AcDb2dVertex
 10
1626.9376084588
 20
923.7229186999999
 30
0.0
  0
VERTEX
  5
4BF
330
486
100
AcDbEntity
  8
トラップ
  6
CONTINUOUS
 62
     6
100
AcDbVertex
100
AcDb2dVertex
 10
1627.5970932588
 20
923.7912781
 30
0.0
  0
VERTEX
  5
4C0
330
486
100
AcDbEntity
  8
トラップ
  6
CONTINUOUS
 62
     6
100
AcDbVertex
100
AcDb2dVertex
 10
1628.2462021588
 20
923.9044983
 30
0.0
  0
VERTEX
  5
4C1
330
486
100
AcDbEntity
  8
トラップ
  6
CONTINUOUS
 62
     6
100
AcDbVertex
100
AcDb2dVertex
 10
1628.8805100588
 20
924.061969
 30
0.0
  0
VERTEX
  5
4C2
330
486
100
AcDbEntity
  8
トラップ
  6
CONTINUOUS
 62
     6
100
AcDbVertex
100
AcDb2dVertex
 10
1629.4949814588
 20
924.2621643
 30
0.0
  0
SEQEND
  5
4C3
330
486
100
AcDbEntity
  8
トラップ
  6
CONTINUOUS
 62
     6
  0
POLYLINE
  5
4C4
330
1F
100
AcDbEntity
  8
トラップ
  6
CONTINUOUS
 62
     6
100
AcDb2dPolyline
 66
     1
 10
0.0
 20
0.0
 30
0.0
 70
   128
  0
VERTEX
  5
4C5
330
4C4
100
AcDbEntity
  8
トラップ
  6
CONTINUOUS
 62
     6
100
AcDbVertex
100
AcDb2dVertex
 10
1629.4949814588
 20
924.2621643
 30
0.0
  0
VERTEX
  5
4C6
330
4C4
100
AcDbEntity
  8
トラップ
  6
CONTINUOUS
 62
     6
100
AcDbVertex
100
AcDb2dVertex
 10
1630.0851914588
 20
924.5037109000001
 30
0.0
  0
VERTEX
  5
4C7
330
4C4
100
AcDbEntity
  8
トラップ
  6
CONTINUOUS
 62
     6
100
AcDbVertex
100
AcDb2dVertex
 10
1630.6461045588
 20
924.7849304
 30
0.0
  0
VERTEX
  5
4C8
330
4C4
100
AcDbEntity
  8
トラップ
  6
CONTINUOUS
 62
     6
100
AcDbVertex
100
AcDb2dVertex
 10
1631.1737534588
 20
925.1036865
 30
0.0
  0
VERTEX
  5
4C9
330
4C4
100
AcDbEntity
  8
トラップ
  6
CONTINUOUS
 62
     6
100
AcDbVertex
100
AcDb2dVertex
 10
1631.6644761588
 20
925.4572327
 30
0.0
  0
VERTEX
  5
4CA
330
4C4
100
AcDbEntity
  8
トラップ
  6
CONTINUOUS
 62
     6
100
AcDbVertex
100
AcDb2dVertex
 10
1632.1138474588
 20
925.8431274999999
 30
0.0
  0
VERTEX
  5
4CB
330
4C4
100
AcDbEntity
  8
トラップ
  6
CONTINUOUS
 62
     6
100
AcDbVertex
100
AcDb2dVertex
 10
1632.5186631588
 20
926.2584717
 30
0.0
  0
VERTEX
  5
4CC
330
4C4
100
AcDbEntity
  8
トラップ
  6
CONTINUOUS
 62
     6
100
AcDbVertex
100
AcDb2dVertex
 10
1632.8761765588
 20
926.7000609999999
 30
0.0
  0
VERTEX
  5
4CD
330
4C4
100
AcDbEntity
  8
トラップ
  6
CONTINUOUS
 62
     6
100
AcDbVertex
100
AcDb2dVertex
 10
1633.1831833588
 20
927.164386
 30
0.0
  0
VERTEX
  5
4CE
330
4C4
100
AcDbEntity
  8
トラップ
  6
CONTINUOUS
 62
     6
100
AcDbVertex
100
AcDb2dVertex
 10
1633.4376999588
 20
927.647937
 30
0.0
  0
VERTEX
  5
4CF
330
4C4
100
AcDbEntity
  8
トラップ
  6
CONTINUOUS
 62
     6
100
AcDbVertex
100
AcDb2dVertex
 10
1633.6382004588
 20
928.147052
 30
0.0
  0
SEQEND
  5
4D0
330
4C4
100
AcDbEntity
  8
トラップ
  6
CONTINUOUS
 62
     6
  0
POLYLINE
  5
4D1
330
1F
100
AcDbEntity
  8
トラップ
  6
CONTINUOUS
 62
     6
100
AcDb2dPolyline
 66
     1
 10
0.0
 20
0.0
 30
0.0
 70
   128
  0
VERTEX
  5
4D2
330
4D1
100
AcDbEntity
  8
トラップ
  6
CONTINUOUS
 62
     6
100
AcDbVertex
100
AcDb2dVertex
 10
1633.6382004588
 20
928.147052
 30
0.0
  0
VERTEX
  5
4D3
330
4D1
100
AcDbEntity
  8
トラップ
  6
CONTINUOUS
 62
     6
100
AcDbVertex
100
AcDb2dVertex
 10
1633.7820908588
 20
928.6580689
 30
0.0
  0
VERTEX
  5
4D4
330
4D1
100
AcDbEntity
  8
トラップ
  6
CONTINUOUS
 62
     6
100
AcDbVertex
100
AcDb2dVertex
 10
1633.8690659588
 20
929.1770203
 30
0.0
  0
VERTEX
  5
4D5
330
4D1
100
AcDbEntity
  8
トラップ
  6
CONTINUOUS
 62
     6
100
AcDbVertex
100
AcDb2dVertex
 10
1633.8983628588
 20
929.6999390000001
 30
0.0
  0
SEQEND
  5
4D6
330
4D1
100
AcDbEntity
  8
トラップ
  6
CONTINUOUS
 62
     6
  0
POLYLINE
  5
4D7
330
1F
100
AcDbEntity
  8
トラップ
  6
CONTINUOUS
 62
     6
100
AcDb2dPolyline
 66
     1
 10
0.0
 20
0.0
 30
0.0
 70
   128
  0
VERTEX
  5
4D8
330
4D7
100
AcDbEntity
  8
トラップ
  6
CONTINUOUS
 62
     6
100
AcDbVertex
100
AcDb2dVertex
 10
1654.6477219588
 20
929.7000916000001
 30
0.0
  0
VERTEX
  5
4D9
330
4D7
100
AcDbEntity
  8
トラップ
  6
CONTINUOUS
 62
     6
100
AcDbVertex
100
AcDb2dVertex
 10
1654.6185776588
 20
930.2230102999999
 30
0.0
  0
VERTEX
  5
4DA
330
4D7
100
AcDbEntity
  8
トラップ
  6
CONTINUOUS
 62
     6
100
AcDbVertex
100
AcDb2dVertex
 10
1654.5317551588
 20
930.7419616999999
 30
0.0
  0
VERTEX
  5
4DB
330
4D7
100
AcDbEntity
  8
トラップ
  6
CONTINUOUS
 62
     6
100
AcDbVertex
100
AcDb2dVertex
 10
1654.3880173588
 20
931.2528259
 30
0.0
  0
VERTEX
  5
4DC
330
4D7
100
AcDbEntity
  8
トラップ
  6
CONTINUOUS
 62
     6
100
AcDbVertex
100
AcDb2dVertex
 10
1654.1878220588
 20
931.7520935
 30
0.0
  0
VERTEX
  5
4DD
330
4D7
100
AcDbEntity
  8
トラップ
  6
CONTINUOUS
 62
     6
100
AcDbVertex
100
AcDb2dVertex
 10
1653.9333054588
 20
932.2356444999999
 30
0.0
  0
VERTEX
  5
4DE
330
4D7
100
AcDbEntity
  8
トラップ
  6
CONTINUOUS
 62
     6
100
AcDbVertex
100
AcDb2dVertex
 10
1653.6259934588
 20
932.7001221
 30
0.0
  0
VERTEX
  5
4DF
330
4D7
100
AcDbEntity
  8
トラップ
  6
CONTINUOUS
 62
     6
100
AcDbVertex
100
AcDb2dVertex
 10
1653.2684800588
 20
933.1415588
 30
0.0
  0
VERTEX
  5
4E0
330
4D7
100
AcDbEntity
  8
トラップ
  6
CONTINUOUS
 62
     6
100
AcDbVertex
100
AcDb2dVertex
 10
1652.8633591588
 20
933.5567505
 30
0.0
  0
VERTEX
  5
4E1
330
4D7
100
AcDbEntity
  8
トラップ
  6
CONTINUOUS
 62
     6
100
AcDbVertex
100
AcDb2dVertex
 10
1652.4147507588
 20
933.9426453
 30
0.0
  0
VERTEX
  5
4E2
330
4D7
100
AcDbEntity
  8
トラップ
  6
CONTINUOUS
 62
     6
100
AcDbVertex
100
AcDb2dVertex
 10
1651.9243332588
 20
934.2961914
 30
0.0
  0
VERTEX
  5
4E3
330
4D7
100
AcDbEntity
  8
トラップ
  6
CONTINUOUS
 62
     6
100
AcDbVertex
100
AcDb2dVertex
 10
1651.3966843588
 20
934.6149475
 30
0.0
  0
VERTEX
  5
4E4
330
4D7
100
AcDbEntity
  8
トラップ
  6
CONTINUOUS
 62
     6
100
AcDbVertex
100
AcDb2dVertex
 10
1650.8353135588
 20
934.896167
 30
0.0
  0
VERTEX
  5
4E5
330
4D7
100
AcDbEntity
  8
トラップ
  6
CONTINUOUS
 62
     6
100
AcDbVertex
100
AcDb2dVertex
 10
1650.2452561588
 20
935.1378662000001
 30
0.0
  0
VERTEX
  5
4E6
330
4D7
100
AcDbEntity
  8
トラップ
  6
CONTINUOUS
 62
     6
100
AcDbVertex
100
AcDb2dVertex
 10
1649.6309372588
 20
935.3380615
 30
0.0
  0
VERTEX
  5
4E7
330
4D7
100
AcDbEntity
  8
トラップ
  6
CONTINUOUS
 62
     6
100
AcDbVertex
100
AcDb2dVertex
 10
1648.9964768588
 20
935.4955322000001
 30
0.0
  0
VERTEX
  5
4E8
330
4D7
100
AcDbEntity
  8
トラップ
  6
CONTINUOUS
 62
     6
100
AcDbVertex
100
AcDb2dVertex
 10
1648.3470627588
 20
935.6087524999999
 30
0.0
  0
VERTEX
  5
4E9
330
4D7
100
AcDbEntity
  8
トラップ
  6
CONTINUOUS
 62
     6
100
AcDbVertex
100
AcDb2dVertex
 10
1647.6877305588
 20
935.6771118
 30
0.0
  0
VERTEX
  5
4EA
330
4D7
100
AcDbEntity
  8
トラップ
  6
CONTINUOUS
 62
     6
100
AcDbVertex
100
AcDb2dVertex
 10
1647.0227524588
 20
935.7001526
 30
0.0
  0
VERTEX
  5
4EB
330
4D7
100
AcDbEntity
  8
トラップ
  6
CONTINUOUS
 62
     6
100
AcDbVertex
100
AcDb2dVertex
 10
1646.3580796588
 20
935.6772644
 30
0.0
  0
VERTEX
  5
4EC
330
4D7
100
AcDbEntity
  8
トラップ
  6
CONTINUOUS
 62
     6
100
AcDbVertex
100
AcDb2dVertex
 10
1645.6985947588
 20
935.6089049999999
 30
0.0
  0
VERTEX
  5
4ED
330
4D7
100
AcDbEntity
  8
トラップ
  6
CONTINUOUS
 62
     6
100
AcDbVertex
100
AcDb2dVertex
 10
1645.0493332588
 20
935.4955322000001
 30
0.0
  0
VERTEX
  5
4EE
330
4D7
100
AcDbEntity
  8
トラップ
  6
CONTINUOUS
 62
     6
100
AcDbVertex
100
AcDb2dVertex
 10
1644.4150254588
 20
935.3380615
 30
0.0
  0
VERTEX
  5
4EF
330
4D7
100
AcDbEntity
  8
トラップ
  6
CONTINUOUS
 62
     6
100
AcDbVertex
100
AcDb2dVertex
 10
1643.8005539588
 20
935.1378662000001
 30
0.0
  0
VERTEX
  5
4F0
330
4D7
100
AcDbEntity
  8
トラップ
  6
CONTINUOUS
 62
     6
100
AcDbVertex
100
AcDb2dVertex
 10
1643.2104966588
 20
934.896167
 30
0.0
  0
VERTEX
  5
4F1
330
4D7
100
AcDbEntity
  8
トラップ
  6
CONTINUOUS
 62
     6
100
AcDbVertex
100
AcDb2dVertex
 10
1642.6495835588
 20
934.6149475
 30
0.0
  0
VERTEX
  5
4F2
330
4D7
100
AcDbEntity
  8
トラップ
  6
CONTINUOUS
 62
     6
100
AcDbVertex
100
AcDb2dVertex
 10
1642.1219346588
 20
934.2961914
 30
0.0
  0
VERTEX
  5
4F3
330
4D7
100
AcDbEntity
  8
トラップ
  6
CONTINUOUS
 62
     6
100
AcDbVertex
100
AcDb2dVertex
 10
1641.6310593588
 20
933.9426453
 30
0.0
  0
VERTEX
  5
4F4
330
4D7
100
AcDbEntity
  8
トラップ
  6
CONTINUOUS
 62
     6
100
AcDbVertex
100
AcDb2dVertex
 10
1641.1816880588
 20
933.5567505
 30
0.0
  0
VERTEX
  5
4F5
330
4D7
100
AcDbEntity
  8
トラップ
  6
CONTINUOUS
 62
     6
100
AcDbVertex
100
AcDb2dVertex
 10
1640.7768723588
 20
933.1414063
 30
0.0
  0
VERTEX
  5
4F6
330
4D7
100
AcDbEntity
  8
トラップ
  6
CONTINUOUS
 62
     6
100
AcDbVertex
100
AcDb2dVertex
 10
1640.4193589588
 20
932.7001221
 30
0.0
  0
VERTEX
  5
4F7
330
4D7
100
AcDbEntity
  8
トラップ
  6
CONTINUOUS
 62
     6
100
AcDbVertex
100
AcDb2dVertex
 10
1640.1123520588
 20
932.2357971
 30
0.0
  0
VERTEX
  5
4F8
330
4D7
100
AcDbEntity
  8
トラップ
  6
CONTINUOUS
 62
     6
100
AcDbVertex
100
AcDb2dVertex
 10
1639.8578354588
 20
931.7522461
 30
0.0
  0
VERTEX
  5
4F9
330
4D7
100
AcDbEntity
  8
トラップ
  6
CONTINUOUS
 62
     6
100
AcDbVertex
100
AcDb2dVertex
 10
1639.6574875588
 20
931.2528259
 30
0.0
  0
VERTEX
  5
4FA
330
4D7
100
AcDbEntity
  8
トラップ
  6
CONTINUOUS
 62
     6
100
AcDbVertex
100
AcDb2dVertex
 10
1639.5135971588
 20
930.7418091
 30
0.0
  0
VERTEX
  5
4FB
330
4D7
100
AcDbEntity
  8
トラップ
  6
CONTINUOUS
 62
     6
100
AcDbVertex
100
AcDb2dVertex
 10
1639.4266221588
 20
930.2228577
 30
0.0
  0
VERTEX
  5
4FC
330
4D7
100
AcDbEntity
  8
トラップ
  6
CONTINUOUS
 62
     6
100
AcDbVertex
100
AcDb2dVertex
 10
1639.3976304588
 20
929.7000916000001
 30
0.0
  0
VERTEX
  5
4FD
330
4D7
100
AcDbEntity
  8
トラップ
  6
CONTINUOUS
 62
     6
100
AcDbVertex
100
AcDb2dVertex
 10
1639.4266221588
 20
929.1771729
 30
0.0
  0
VERTEX
  5
4FE
330
4D7
100
AcDbEntity
  8
トラップ
  6
CONTINUOUS
 62
     6
100
AcDbVertex
100
AcDb2dVertex
 10
1639.5134446588
 20
928.6582214000001
 30
0.0
  0
VERTEX
  5
4FF
330
4D7
100
AcDbEntity
  8
トラップ
  6
CONTINUOUS
 62
     6
100
AcDbVertex
100
AcDb2dVertex
 10
1639.6574875588
 20
928.147052
 30
0.0
  0
VERTEX
  5
500
330
4D7
100
AcDbEntity
  8
トラップ
  6
CONTINUOUS
 62
     6
100
AcDbVertex
100
AcDb2dVertex
 10
1639.8575303588
 20
927.6477844
 30
0.0
  0
VERTEX
  5
501
330
4D7
100
AcDbEntity
  8
トラップ
  6
CONTINUOUS
 62
     6
100
AcDbVertex
100
AcDb2dVertex
 10
1640.1120469588
 20
927.1642334000001
 30
0.0
  0
VERTEX
  5
502
330
4D7
100
AcDbEntity
  8
トラップ
  6
CONTINUOUS
 62
     6
100
AcDbVertex
100
AcDb2dVertex
 10
1640.4193589588
 20
926.7000609999999
 30
0.0
  0
VERTEX
  5
503
330
4D7
100
AcDbEntity
  8
トラップ
  6
CONTINUOUS
 62
     6
100
AcDbVertex
100
AcDb2dVertex
 10
1640.7768723588
 20
926.2586243
 30
0.0
  0
VERTEX
  5
504
330
4D7
100
AcDbEntity
  8
トラップ
  6
CONTINUOUS
 62
     6
100
AcDbVertex
100
AcDb2dVertex
 10
1641.1818406588
 20
925.8434326
 30
0.0
  0
VERTEX
  5
505
330
4D7
100
AcDbEntity
  8
トラップ
  6
CONTINUOUS
 62
     6
100
AcDbVertex
100
AcDb2dVertex
 10
1641.6310593588
 20
925.4572327
 30
0.0
  0
VERTEX
  5
506
330
4D7
100
AcDbEntity
  8
トラップ
  6
CONTINUOUS
 62
     6
100
AcDbVertex
100
AcDb2dVertex
 10
1642.1216294588
 20
925.1036865
 30
0.0
  0
VERTEX
  5
507
330
4D7
100
AcDbEntity
  8
トラップ
  6
CONTINUOUS
 62
     6
100
AcDbVertex
100
AcDb2dVertex
 10
1642.6494309588
 20
924.7849304
 30
0.0
  0
VERTEX
  5
508
330
4D7
100
AcDbEntity
  8
トラップ
  6
CONTINUOUS
 62
     6
100
AcDbVertex
100
AcDb2dVertex
 10
1643.2104966588
 20
924.5037109000001
 30
0.0
  0
VERTEX
  5
509
330
4D7
100
AcDbEntity
  8
トラップ
  6
CONTINUOUS
 62
     6
100
AcDbVertex
100
AcDb2dVertex
 10
1643.8005539588
 20
924.2620117
 30
0.0
  0
VERTEX
  5
50A
330
4D7
100
AcDbEntity
  8
トラップ
  6
CONTINUOUS
 62
     6
100
AcDbVertex
100
AcDb2dVertex
 10
1644.4153305588
 20
924.0618164
 30
0.0
  0
VERTEX
  5
50B
330
4D7
100
AcDbEntity
  8
トラップ
  6
CONTINUOUS
 62
     6
100
AcDbVertex
100
AcDb2dVertex
 10
1645.0493332588
 20
923.9044983
 30
0.0
  0
VERTEX
  5
50C
330
4D7
100
AcDbEntity
  8
トラップ
  6
CONTINUOUS
 62
     6
100
AcDbVertex
100
AcDb2dVertex
 10
1645.6988999588
 20
923.7912781
 30
0.0
  0
VERTEX
  5
50D
330
4D7
100
AcDbEntity
  8
トラップ
  6
CONTINUOUS
 62
     6
100
AcDbVertex
100
AcDb2dVertex
 10
1646.3585373588
 20
923.7229186999999
 30
0.0
  0
VERTEX
  5
50E
330
4D7
100
AcDbEntity
  8
トラップ
  6
CONTINUOUS
 62
     6
100
AcDbVertex
100
AcDb2dVertex
 10
1647.0227524588
 20
923.7000304999999
 30
0.0
  0
VERTEX
  5
50F
330
4D7
100
AcDbEntity
  8
トラップ
  6
CONTINUOUS
 62
     6
100
AcDbVertex
100
AcDb2dVertex
 10
1647.6872727588
 20
923.7229186999999
 30
0.0
  0
VERTEX
  5
510
330
4D7
100
AcDbEntity
  8
トラップ
  6
CONTINUOUS
 62
     6
100
AcDbVertex
100
AcDb2dVertex
 10
1648.3467576588
 20
923.7912781
 30
0.0
  0
VERTEX
  5
511
330
4D7
100
AcDbEntity
  8
トラップ
  6
CONTINUOUS
 62
     6
100
AcDbVertex
100
AcDb2dVertex
 10
1648.9964768588
 20
923.9044983
 30
0.0
  0
VERTEX
  5
512
330
4D7
100
AcDbEntity
  8
トラップ
  6
CONTINUOUS
 62
     6
100
AcDbVertex
100
AcDb2dVertex
 10
1649.6309372588
 20
924.061969
 30
0.0
  0
VERTEX
  5
513
330
4D7
100
AcDbEntity
  8
トラップ
  6
CONTINUOUS
 62
     6
100
AcDbVertex
100
AcDb2dVertex
 10
1650.2455613588
 20
924.2621643
 30
0.0
  0
SEQEND
  5
514
330
4D7
100
AcDbEntity
  8
トラップ
  6
CONTINUOUS
 62
     6
  0
POLYLINE
  5
515
330
1F
100
AcDbEntity
  8
トラップ
  6
CONTINUOUS
 62
     6
100
AcDb2dPolyline
 66
     1
 10
0.0
 20
0.0
 30
0.0
 70
   128
  0
VERTEX
  5
516
330
515
100
AcDbEntity
  8
トラップ
  6
CONTINUOUS
 62
     6
100
AcDbVertex
100
AcDb2dVertex
 10
1650.2455613588
 20
924.2621643
 30
0.0
  0
VERTEX
  5
517
330
515
100
AcDbEntity
  8
トラップ
  6
CONTINUOUS
 62
     6
100
AcDbVertex
100
AcDb2dVertex
 10
1650.8353135588
 20
924.5037109000001
 30
0.0
  0
VERTEX
  5
518
330
515
100
AcDbEntity
  8
トラップ
  6
CONTINUOUS
 62
     6
100
AcDbVertex
100
AcDb2dVertex
 10
1651.3963791588
 20
924.7849304
 30
0.0
  0
VERTEX
  5
519
330
515
100
AcDbEntity
  8
トラップ
  6
CONTINUOUS
 62
     6
100
AcDbVertex
100
AcDb2dVertex
 10
1651.9241806588
 20
925.1036865
 30
0.0
  0
VERTEX
  5
51A
330
515
100
AcDbEntity
  8
トラップ
  6
CONTINUOUS
 62
     6
100
AcDbVertex
100
AcDb2dVertex
 10
1652.4147507588
 20
925.4572327
 30
0.0
  0
VERTEX
  5
51B
330
515
100
AcDbEntity
  8
トラップ
  6
CONTINUOUS
 62
     6
100
AcDbVertex
100
AcDb2dVertex
 10
1652.8641221588
 20
925.8431274999999
 30
0.0
  0
VERTEX
  5
51C
330
515
100
AcDbEntity
  8
トラップ
  6
CONTINUOUS
 62
     6
100
AcDbVertex
100
AcDb2dVertex
 10
1653.2692429588
 20
926.2584717
 30
0.0
  0
VERTEX
  5
51D
330
515
100
AcDbEntity
  8
トラップ
  6
CONTINUOUS
 62
     6
100
AcDbVertex
100
AcDb2dVertex
 10
1653.6259934588
 20
926.7000609999999
 30
0.0
  0
VERTEX
  5
51E
330
515
100
AcDbEntity
  8
トラップ
  6
CONTINUOUS
 62
     6
100
AcDbVertex
100
AcDb2dVertex
 10
1653.9330002588
 20
927.164386
 30
0.0
  0
VERTEX
  5
51F
330
515
100
AcDbEntity
  8
トラップ
  6
CONTINUOUS
 62
     6
100
AcDbVertex
100
AcDb2dVertex
 10
1654.1873642588
 20
927.647937
 30
0.0
  0
VERTEX
  5
520
330
515
100
AcDbEntity
  8
トラップ
  6
CONTINUOUS
 62
     6
100
AcDbVertex
100
AcDb2dVertex
 10
1654.3880173588
 20
928.147052
 30
0.0
  0
SEQEND
  5
521
330
515
100
AcDbEntity
  8
トラップ
  6
CONTINUOUS
 62
     6
  0
POLYLINE
  5
522
330
1F
100
AcDbEntity
  8
トラップ
  6
CONTINUOUS
 62
     6
100
AcDb2dPolyline
 66
     1
 10
0.0
 20
0.0
 30
0.0
 70
   128
  0
VERTEX
  5
523
330
522
100
AcDbEntity
  8
トラップ
  6
CONTINUOUS
 62
     6
100
AcDbVertex
100
AcDb2dVertex
 10
1654.3880173588
 20
928.147052
 30
0.0
  0
VERTEX
  5
524
330
522
100
AcDbEntity
  8
トラップ
  6
CONTINUOUS
 62
     6
100
AcDbVertex
100
AcDb2dVertex
 10
1654.5319077588
 20
928.6580689
 30
0.0
  0
VERTEX
  5
525
330
522
100
AcDbEntity
  8
トラップ
  6
CONTINUOUS
 62
     6
100
AcDbVertex
100
AcDb2dVertex
 10
1654.6187302588
 20
929.1770203
 30
0.0
  0
VERTEX
  5
526
330
522
100
AcDbEntity
  8
トラップ
  6
CONTINUOUS
 62
     6
100
AcDbVertex
100
AcDb2dVertex
 10
1654.6477219588
 20
929.6999390000001
 30
0.0
  0
SEQEND
  5
527
330
522
100
AcDbEntity
  8
トラップ
  6
CONTINUOUS
 62
     6
  0
ARC
  5
528
330
1F
100
AcDbEntity
  8
トラップ
  6
CONTINUOUS
 62
     6
100
AcDbCircle
 10
1617.6475998588
 20
934.2000609999999
 30
0.0
 40
1.499939
100
AcDbArc
 50
90.00000000000001
 51
180.0
  0
ARC
  5
529
330
1F
100
AcDbEntity
  8
トラップ
  6
CONTINUOUS
 62
     6
100
AcDbCircle
 10
1617.6475998588
 20
925.1998169
 30
0.0
 40
1.499939
100
AcDbArc
 50
180.0
 51
270.0000000000002
  0
LINE
  5
52A
330
1F
100
AcDbEntity
  8
トラップ
  6
CONTINUOUS
 62
     6
100
AcDbLine
 10
1616.1476609588
 20
925.1998169
 30
0.0
 11
1616.1476609588
 21
934.2000609999999
 31
0.0
  0
ARC
  5
52B
330
1F
100
AcDbEntity
  8
トラップ
  6
CONTINUOUS
 62
     6
100
AcDbCircle
 10
1655.6477829588
 20
925.1998169
 30
0.0
 40
1.499939
100
AcDbArc
 50
270.0000000000002
 51
0.0
  0
LINE
  5
52C
330
1F
100
AcDbEntity
  8
トラップ
  6
CONTINUOUS
 62
     6
100
AcDbLine
 10
1617.6475998588
 20
923.6998778999999
 30
0.0
 11
1655.6477829588
 21
923.6998778999999
 31
0.0
  0
ARC
  5
52D
330
1F
100
AcDbEntity
  8
トラップ
  6
CONTINUOUS
 62
     6
100
AcDbCircle
 10
1655.6477829588
 20
934.2000609999999
 30
0.0
 40
1.499939
100
AcDbArc
 50
0.0
 51
90.00000000000001
  0
LINE
  5
52E
330
1F
100
AcDbEntity
  8
トラップ
  6
CONTINUOUS
 62
     6
100
AcDbLine
 10
1657.1477219588
 20
925.1998169
 30
0.0
 11
1657.1477219588
 21
934.2000609999999
 31
0.0
  0
LINE
  5
52F
330
1F
100
AcDbEntity
  8
トラップ
  6
CONTINUOUS
 62
     6
100
AcDbLine
 10
1617.6475998588
 20
935.6999999999999
 30
0.0
 11
1655.6477829588
 21
935.6999999999999
 31
0.0
  0
LINE
  5
530
330
1F
100
AcDbEntity
  8
トラップ
  6
CONTINUOUS
 62
     6
100
AcDbLine
 10
1574.125
 20
959.2102885693312
 30
0.0
 11
1574.125
 21
905.5
 31
0.0
  0
LINE
  5
531
330
1F
100
AcDbEntity
  8
トラップ
  6
CONTINUOUS
 62
     6
100
AcDbLine
 10
1652.522615158802
 20
906.3238075794
 30
0.0
 11
1652.522615158802
 21
923.699999999999
 31
0.0
  0
LINE
  5
532
330
1F
100
AcDbEntity
  8
トラップ
  6
CONTINUOUS
 62
     6
100
AcDbLine
 10
1620.7726151588
 20
906.3238075794
 30
0.0
 11
1620.7726151588
 21
923.699999999999
 31
0.0
  0
LINE
  5
533
330
1F
100
AcDbEntity
  8
トラップ
  6
CONTINUOUS
 62
     6
100
AcDbLine
 10
1605.875
 20
959.2102885693312
 30
0.0
 11
1605.875
 21
906.3238075794
 31
0.0
  0
LINE
  5
534
330
1F
100
AcDbEntity
  8
トラップ
  6
CONTINUOUS
 62
     6
100
AcDbLine
 10
1598.3238075794
 20
864.125
 30
0.0
 11
1628.3238075794
 21
864.125
 31
0.0
  0
LINE
  5
535
330
1F
100
AcDbEntity
  8
トラップ
  6
CONTINUOUS
 62
     6
100
AcDbLine
 10
1626.3238075794
 20
866.125
 30
0.0
 11
1626.3238075794
 21
864.125
 31
0.0
  0
ARC
  5
536
330
1F
100
AcDbEntity
  8
トラップ
  6
CONTINUOUS
 62
     6
100
AcDbCircle
 10
1602.0738075794
 20
869.1562499999999
 30
0.0
 40
7.531250000000002
100
AcDbArc
 50
240.1371656437003
 51
270.0000000000002
  0
ARC
  5
537
330
1F
100
AcDbEntity
  8
トラップ
  6
CONTINUOUS
 62
     6
100
AcDbCircle
 10
1624.5738075794
 20
869.1562499999999
 30
0.0
 40
7.531250000000002
100
AcDbArc
 50
270.0000000000002
 51
299.8628343563
  0
LINE
  5
538
330
1F
100
AcDbEntity
  8
トラップ
  6
CONTINUOUS
 62
     6
100
AcDbLine
 10
1628.3238075794
 20
862.6249999999999
 30
0.0
 11
1628.3238075794
 21
864.125
 31
0.0
  0
LINE
  5
539
330
1F
100
AcDbEntity
  8
トラップ
  6
CONTINUOUS
 62
     6
100
AcDbLine
 10
1598.3238075794
 20
862.6249999999999
 30
0.0
 11
1598.3238075794
 21
864.125
 31
0.0
  0
LINE
  5
53A
330
1F
100
AcDbEntity
  8
トラップ
  6
CONTINUOUS
 62
     6
100
AcDbLine
 10
1602.0738075794
 20
861.625
 30
0.0
 11
1624.5738075794
 21
861.625
 31
0.0
  0
LINE
  5
53B
330
1F
100
AcDbEntity
  8
トラップ
  6
CONTINUOUS
 62
     6
100
AcDbLine
 10
1600.3238075794
 20
866.125
 30
0.0
 11
1600.3238075794
 21
864.125
 31
0.0
  0
LINE
  5
53C
330
1F
100
AcDbEntity
  8
トラップ
  6
CONTINUOUS
 62
     6
100
AcDbLine
 10
1600.3238075794
 20
866.125
 30
0.0
 11
1626.3238075794
 21
866.125
 31
0.0
  0
LINE
  5
53D
330
1F
100
AcDbEntity
  8
トラップ
  6
CONTINUOUS
 62
     6
100
AcDbLine
 10
1600.8238075794
 20
868.8608379667219
 30
0.0
 11
1600.8238075794
 21
866.125
 31
0.0
  0
LINE
  5
53E
330
1F
100
AcDbEntity
  8
トラップ
  6
CONTINUOUS
 62
     6
100
AcDbLine
 10
1625.8238075794
 20
868.8608379667213
 30
0.0
 11
1625.8238075794
 21
866.125
 31
0.0
  0
ARC
  5
53F
330
1F
100
AcDbEntity
  8
トラップ
  6
CONTINUOUS
 62
     6
100
AcDbCircle
 10
1613.3238075794
 20
906.3238075794018
 30
0.0
 40
39.19880757940177
100
AcDbArc
 50
180.0
 51
0.0
  0
ARC
  5
540
330
1F
100
AcDbEntity
  8
トラップ
  6
CONTINUOUS
 62
     6
100
AcDbCircle
 10
1613.3238075794
 20
906.3238075794018
 30
0.0
 40
7.448807579401774
100
AcDbArc
 50
180.0
 51
0.0
  0
LINE
  5
541
330
1F
100
AcDbEntity
  8
トラップ
  6
EXLTYPE3
 62
     6
100
AcDbLine
 10
1590.0
 20
1105.2
 30
0.0
 11
1590.0
 21
913.0000000000008
 31
0.0
  0
LINE
  5
542
330
1F
100
AcDbEntity
  8
トラップ
  6
EXLTYPE3
 62
     6
100
AcDbLine
 10
1674.6476151588
 20
975.0000000000001
 30
0.0
 11
1764.0
 21
975.0000000000001
 31
0.0
  0
ARC
  5
543
330
1F
100
AcDbEntity
  8
トラップ
  6
CONTINUOUS
 62
     6
100
AcDbCircle
 10
1674.6476151588
 20
936.9999999999993
 30
0.0
 40
53.875
100
AcDbArc
 50
90.00000000000001
 51
180.0
  0
ARC
  5
544
330
1F
100
AcDbEntity
  8
トラップ
  6
CONTINUOUS
 62
     6
100
AcDbCircle
 10
1674.6476151588
 20
936.9999999999993
 30
0.0
 40
22.125
100
AcDbArc
 50
90.00000000000001
 51
180.0
  0
LINE
  5
545
330
1F
100
AcDbEntity
  8
トラップ
  6
CONTINUOUS
 62
     6
100
AcDbLine
 10
1620.7726151588
 20
935.7
 30
0.0
 11
1620.7726151588
 21
936.9999999999994
 31
0.0
  0
LINE
  5
546
330
1F
100
AcDbEntity
  8
トラップ
  6
CONTINUOUS
 62
     6
100
AcDbLine
 10
1652.5226151588
 20
935.7
 30
0.0
 11
1652.5226151588
 21
936.9999999999994
 31
0.0
  0
LINE
  5
547
330
1F
100
AcDbEntity
  8
トラップ
  6
CONTINUOUS
 62
     6
100
AcDbLine
 10
709.25
 20
1086.699999999999
 30
0.0
 11
709.25
 21
1085.5
 31
0.0
  0
LINE
  5
548
330
1F
100
AcDbEntity
  8
トラップ
  6
CONTINUOUS
 62
     6
100
AcDbLine
 10
650.75
 20
1086.699999999999
 30
0.0
 11
650.75
 21
1085.5
 31
0.0
  0
LINE
  5
549
330
1F
100
AcDbEntity
  8
トラップ
  6
CONTINUOUS
 62
     6
100
AcDbLine
 10
650.75
 20
1085.5
 30
0.0
 11
709.25
 21
1085.5
 31
0.0
  0
LINE
  5
54A
330
1F
100
AcDbEntity
  8
トラップ
  6
CONTINUOUS
 62
     6
100
AcDbLine
 10
650.75
 20
1086.7
 30
0.0
 11
709.25
 21
1086.7
 31
0.0
  0
LINE
  5
54B
330
1F
100
AcDbEntity
  8
トラップ
  6
CONTINUOUS
 62
     6
100
AcDbLine
 10
699.25
 20
1085.499999999999
 30
0.0
 11
699.25
 21
1084.999999999999
 31
0.0
  0
LINE
  5
54C
330
1F
100
AcDbEntity
  8
トラップ
  6
CONTINUOUS
 62
     6
100
AcDbLine
 10
707.0
 20
1085.499999999999
 30
0.0
 11
707.0
 21
1084.999999999999
 31
0.0
  0
LINE
  5
54D
330
1F
100
AcDbEntity
  8
トラップ
  6
CONTINUOUS
 62
     6
100
AcDbLine
 10
653.0
 20
1085.499999999999
 30
0.0
 11
653.0
 21
1084.999999999999
 31
0.0
  0
LINE
  5
54E
330
1F
100
AcDbEntity
  8
トラップ
  6
CONTINUOUS
 62
     6
100
AcDbLine
 10
653.0
 20
1085.499999999999
 30
0.0
 11
707.0
 21
1085.499999999999
 31
0.0
  0
LINE
  5
54F
330
1F
100
AcDbEntity
  8
トラップ
  6
CONTINUOUS
 62
     6
100
AcDbLine
 10
653.0
 20
1084.999999999999
 30
0.0
 11
707.0
 21
1084.999999999999
 31
0.0
  0
LINE
  5
550
330
1F
100
AcDbEntity
  8
トラップ
  6
CONTINUOUS
 62
     6
100
AcDbLine
 10
704.5
 20
1082.499999999999
 30
0.0
 11
704.5
 21
1084.999999999999
 31
0.0
  0
LINE
  5
551
330
1F
100
AcDbEntity
  8
トラップ
  6
CONTINUOUS
 62
     6
100
AcDbLine
 10
655.5
 20
1082.499999999999
 30
0.0
 11
655.5
 21
1084.999999999999
 31
0.0
  0
LINE
  5
552
330
1F
100
AcDbEntity
  8
トラップ
  6
CONTINUOUS
 62
     6
100
AcDbLine
 10
704.5
 20
1082.499999999999
 30
0.0
 11
655.5
 21
1082.499999999999
 31
0.0
  0
LINE
  5
553
330
1F
100
AcDbEntity
  8
トラップ
  6
CONTINUOUS
 62
     6
100
AcDbLine
 10
704.5
 20
1084.999999999999
 30
0.0
 11
655.5
 21
1084.999999999999
 31
0.0
  0
LINE
  5
554
330
1F
100
AcDbEntity
  8
トラップ
  6
CONTINUOUS
 62
     6
100
AcDbLine
 10
699.1000000001131
 20
1076.499999999887
 30
0.0
 11
701.1000000000022
 21
1078.499999999775
 31
0.0
  0
LINE
  5
555
330
1F
100
AcDbEntity
  8
トラップ
  6
CONTINUOUS
 62
     6
100
AcDbLine
 10
660.8999999998887
 20
1076.499999999887
 30
0.0
 11
658.9000000000015
 21
1078.499999999775
 31
0.0
  0
LINE
  5
556
330
1F
100
AcDbEntity
  8
トラップ
  6
CONTINUOUS
 62
     6
100
AcDbLine
 10
701.1000000000022
 20
1078.4999999998
 30
0.0
 11
701.1000000000022
 21
1082.499999999999
 31
0.0
  0
LINE
  5
557
330
1F
100
AcDbEntity
  8
トラップ
  6
CONTINUOUS
 62
     6
100
AcDbLine
 10
658.9000000000015
 20
1078.4999999998
 30
0.0
 11
658.9000000000015
 21
1082.499999999999
 31
0.0
  0
LINE
  5
558
330
1F
100
AcDbEntity
  8
トラップ
  6
CONTINUOUS
 62
     6
100
AcDbLine
 10
699.1000000002023
 20
1076.499999999999
 30
0.0
 11
660.8999999998014
 21
1076.499999999999
 31
0.0
  0
ARC
  5
559
330
1F
100
AcDbEntity
  8
トラップ
  6
CONTINUOUS
 62
     6
100
AcDbCircle
 10
696.5788914290024
 20
1082.610105678104
 30
0.0
 40
6.110105678105146
100
AcDbArc
 50
222.2737374192949
 51
317.7262625806995
  0
LINE
  5
55A
330
1F
100
AcDbEntity
  8
トラップ
  6
CONTINUOUS
 62
     6
100
AcDbLine
 10
692.0577828580008
 20
1078.4999999998
 30
0.0
 11
688.9666047086012
 21
1078.4999999998
 31
0.0
  0
ARC
  5
55B
330
1F
100
AcDbEntity
  8
トラップ
  6
CONTINUOUS
 62
     6
100
AcDbCircle
 10
680.0
 20
1097.600000001981
 30
0.0
 40
21.10000000198211
100
AcDbArc
 50
244.8520222959027
 51
295.1479777040973
  0
LINE
  5
55C
330
1F
100
AcDbEntity
  8
トラップ
  6
CONTINUOUS
 62
     6
100
AcDbLine
 10
671.0333952914007
 20
1078.4999999998
 30
0.0
 11
667.942217142001
 21
1078.4999999998
 31
0.0
  0
ARC
  5
55D
330
1F
100
AcDbEntity
  8
トラップ
  6
CONTINUOUS
 62
     6
100
AcDbCircle
 10
663.4211085710012
 20
1082.610105678104
 30
0.0
 40
6.110105678103862
100
AcDbArc
 50
222.2737374192943
 51
317.7262625807115
  0
LINE
  5
55E
330
1F
100
AcDbEntity
  8
トラップ
  6
CONTINUOUS
 62
     6
100
AcDbLine
 10
667.942217142001
 20
1078.4999999998
 30
0.0
 11
667.942217142001
 21
1082.499999999999
 31
0.0
  0
LINE
  5
55F
330
1F
100
AcDbEntity
  8
トラップ
  6
CONTINUOUS
 62
     6
100
AcDbLine
 10
671.0333952914007
 20
1078.4999999998
 30
0.0
 11
671.0333952914007
 21
1082.499999999999
 31
0.0
  0
LINE
  5
560
330
1F
100
AcDbEntity
  8
トラップ
  6
CONTINUOUS
 62
     6
100
AcDbLine
 10
688.9666047086012
 20
1078.4999999998
 30
0.0
 11
688.9666047086012
 21
1082.499999999999
 31
0.0
  0
LINE
  5
561
330
1F
100
AcDbEntity
  8
トラップ
  6
CONTINUOUS
 62
     6
100
AcDbLine
 10
692.0577828580008
 20
1078.4999999998
 30
0.0
 11
692.0577828580008
 21
1082.499999999999
 31
0.0
  0
ELLIPSE
  5
562
330
1F
100
AcDbEntity
  8
トラップ
  6
CONTINUOUS
 62
     6
100
AcDbEllipse
 10
662.1916442350011
 20
1063.931370848999
 30
0.0
 11
3.342635244955803E-16
 21
5.458937625580006
 31
0.0
210
0.0
220
0.0
230
1.0
 40
0.8594427261992248
 41
0.0
 42
6.283185307179586
  0
ELLIPSE
  5
563
330
1F
100
AcDbEntity
  8
トラップ
  6
CONTINUOUS
 62
     6
100
AcDbEllipse
 10
680.0
 20
1063.931370848999
 30
0.0
 11
9.273618495499999
 21
0.0
 31
0.0
210
0.0
220
0.0
230
1.0
 40
0.5886523829106126
 41
0.0
 42
6.283185307179586
  0
ELLIPSE
  5
564
330
1F
100
AcDbEntity
  8
トラップ
  6
CONTINUOUS
 62
     6
100
AcDbEllipse
 10
697.8083557650007
 20
1063.931370848999
 30
0.0
 11
3.342635244955803E-16
 21
5.458937625580006
 31
0.0
210
0.0
220
0.0
230
1.0
 40
0.8594427261992248
 41
0.0
 42
6.283185307179586
  0
LINE
  5
565
330
1F
100
AcDbEntity
  8
トラップ
  6
CONTINUOUS
 62
     6
100
AcDbLine
 10
660.0
 20
1069.931370848999
 30
0.0
 11
700.0
 21
1069.931370848999
 31
0.0
  0
LINE
  5
566
330
1F
100
AcDbEntity
  8
トラップ
  6
CONTINUOUS
 62
     6
100
AcDbLine
 10
660.0
 20
1057.931370848999
 30
0.0
 11
700.0
 21
1057.931370848999
 31
0.0
  0
ARC
  5
567
330
1F
100
AcDbEntity
  8
トラップ
  6
CONTINUOUS
 62
     6
100
AcDbCircle
 10
665.9500000000007
 20
1063.931370848999
 30
0.0
 40
8.450000000000006
100
AcDbArc
 50
134.7602701039
 51
225.2397298961
  0
ARC
  5
568
330
1F
100
AcDbEntity
  8
トラップ
  6
CONTINUOUS
 62
     6
100
AcDbCircle
 10
694.0500000000011
 20
1063.931370848999
 30
0.0
 40
8.450000000000006
100
AcDbArc
 50
314.7602701039002
 51
45.23972989607999
  0
LINE
  5
569
330
1F
100
AcDbEntity
  8
トラップ
  6
CONTINUOUS
 62
     6
100
AcDbLine
 10
662.9999999999163
 20
1005.999999999999
 30
0.0
 11
697.0000000000873
 21
1005.999999999999
 31
0.0
  0
LINE
  5
56A
330
1F
100
AcDbEntity
  8
トラップ
  6
CONTINUOUS
 62
     6
100
AcDbLine
 10
695.875
 20
959.2102885693312
 30
0.0
 11
696.8000000000029
 21
960.812435566334
 31
0.0
  0
LINE
  5
56B
330
1F
100
AcDbEntity
  8
トラップ
  6
CONTINUOUS
 62
     6
100
AcDbLine
 10
696.8000000000029
 20
1005.999999999999
 30
0.0
 11
696.8000000000029
 21
960.812435566334
 31
0.0
  0
LINE
  5
56C
330
1F
100
AcDbEntity
  8
トラップ
  6
CONTINUOUS
 62
     6
100
AcDbLine
 10
664.125
 20
959.2102885693312
 30
0.0
 11
663.2000000000007
 21
960.812435566334
 31
0.0
  0
LINE
  5
56D
330
1F
100
AcDbEntity
  8
トラップ
  6
CONTINUOUS
 62
     6
100
AcDbLine
 10
663.2000000000007
 20
1005.999999999999
 30
0.0
 11
663.2000000000007
 21
960.8124355663331
 31
0.0
  0
LINE
  5
56E
330
1F
100
AcDbEntity
  8
トラップ
  6
CONTINUOUS
 62
     6
100
AcDbLine
 10
664.125
 20
959.2102885692984
 30
0.0
 11
695.875
 21
959.2102885692984
 31
0.0
  0
ELLIPSE
  5
56F
330
1F
100
AcDbEntity
  8
トラップ
  6
CONTINUOUS
 62
     6
100
AcDbEllipse
 10
662.1916442350011
 20
1012.999999999999
 30
0.0
 11
3.342635244955803E-16
 21
5.458937625580006
 31
0.0
210
0.0
220
0.0
230
1.0
 40
0.8594427261992248
 41
0.0
 42
6.283185307179586
  0
ELLIPSE
  5
570
330
1F
100
AcDbEntity
  8
トラップ
  6
CONTINUOUS
 62
     6
100
AcDbEllipse
 10
680.0
 20
1012.999999999999
 30
0.0
 11
9.273618495499999
 21
0.0
 31
0.0
210
0.0
220
0.0
230
1.0
 40
0.5886523829106126
 41
0.0
 42
6.283185307179586
  0
ELLIPSE
  5
571
330
1F
100
AcDbEntity
  8
トラップ
  6
CONTINUOUS
 62
     6
100
AcDbEllipse
 10
697.8083557650007
 20
1012.999999999999
 30
0.0
 11
3.342635244955803E-16
 21
5.458937625580006
 31
0.0
210
0.0
220
0.0
230
1.0
 40
0.8594427261992248
 41
0.0
 42
6.283185307179586
  0
LINE
  5
572
330
1F
100
AcDbEntity
  8
トラップ
  6
CONTINUOUS
 62
     6
100
AcDbLine
 10
660.0
 20
1018.999999999999
 30
0.0
 11
700.0
 21
1018.999999999999
 31
0.0
  0
LINE
  5
573
330
1F
100
AcDbEntity
  8
トラップ
  6
CONTINUOUS
 62
     6
100
AcDbLine
 10
660.0
 20
1006.999999999999
 30
0.0
 11
700.0
 21
1006.999999999999
 31
0.0
  0
ARC
  5
574
330
1F
100
AcDbEntity
  8
トラップ
  6
CONTINUOUS
 62
     6
100
AcDbCircle
 10
665.9500000000007
 20
1012.999999999999
 30
0.0
 40
8.450000000000006
100
AcDbArc
 50
134.7602701039
 51
225.2397298961
  0
ARC
  5
575
330
1F
100
AcDbEntity
  8
トラップ
  6
CONTINUOUS
 62
     6
100
AcDbCircle
 10
694.0500000000011
 20
1012.999999999999
 30
0.0
 40
8.450000000000006
100
AcDbArc
 50
314.7602701039002
 51
45.23972989607999
  0
LINE
  5
576
330
1F
100
AcDbEntity
  8
トラップ
  6
CONTINUOUS
 62
     6
100
AcDbLine
 10
650.75
 20
1086.699999999999
 30
0.0
 11
656.581896551725
 21
1090.0
 31
0.0
  0
LINE
  5
577
330
1F
100
AcDbEntity
  8
トラップ
  6
CONTINUOUS
 62
     6
100
AcDbLine
 10
709.25
 20
1086.699999999999
 30
0.0
 11
703.4181034482749
 21
1090.0
 31
0.0
  0
LINE
  5
578
330
1F
100
AcDbEntity
  8
トラップ
  6
CONTINUOUS
 62
     6
100
AcDbLine
 10
661.0
 20
1069.931370848999
 30
0.0
 11
661.0
 21
1076.499999999999
 31
0.0
  0
LINE
  5
579
330
1F
100
AcDbEntity
  8
トラップ
  6
CONTINUOUS
 62
     6
100
AcDbLine
 10
699.0
 20
1069.931370848999
 30
0.0
 11
699.0
 21
1076.499999999999
 31
0.0
  0
LINE
  5
57A
330
1F
100
AcDbEntity
  8
トラップ
  6
CONTINUOUS
 62
     6
100
AcDbLine
 10
664.125
 20
1057.931370848999
 30
0.0
 11
664.125
 21
1018.999999999999
 31
0.0
  0
LINE
  5
57B
330
1F
100
AcDbEntity
  8
トラップ
  6
CONTINUOUS
 62
     6
100
AcDbLine
 10
695.875
 20
1057.931370848999
 30
0.0
 11
695.875
 21
1018.999999999999
 31
0.0
  0
LINE
  5
57C
330
1F
100
AcDbEntity
  8
トラップ
  6
CONTINUOUS
 62
     6
100
AcDbLine
 10
662.99999999998
 20
1005.999999999962
 30
0.0
 11
661.2679491923464
 21
1006.999999999999
 31
0.0
  0
LINE
  5
57D
330
1F
100
AcDbEntity
  8
トラップ
  6
CONTINUOUS
 62
     6
100
AcDbLine
 10
697.0000000000218
 20
1005.999999999962
 30
0.0
 11
698.7320508076543
 21
1006.999999999999
 31
0.0
  0
LINE
  5
57E
330
1F
100
AcDbEntity
  8
トラップ
  6
CONTINUOUS
 62
     6
100
AcDbLine
 10
695.875
 20
959.2102885693312
 30
0.0
 11
695.875
 21
913.0625
 31
0.0
  0
LINE
  5
57F
330
1F
100
AcDbEntity
  8
トラップ
  6
CONTINUOUS
 62
     6
100
AcDbLine
 10
664.125
 20
959.2102885693312
 30
0.0
 11
664.125
 21
913.0625000000008
 31
0.0
  0
ARC
  5
580
330
1F
100
AcDbEntity
  8
トラップ
  6
CONTINUOUS
 62
     6
100
AcDbCircle
 10
740.0000000000011
 20
974.9999999999989
 30
0.0
 40
15.87500000000108
100
AcDbArc
 50
0.0
 51
180.0
  0
LINE
  5
581
330
1F
100
AcDbEntity
  8
トラップ
  6
CONTINUOUS
 62
     6
100
AcDbLine
 10
720.0
 20
923.699999999999
 30
0.0
 11
760.0
 21
923.699999999999
 31
0.0
  0
ARC
  5
582
330
1F
100
AcDbEntity
  8
トラップ
  6
CONTINUOUS
 62
     6
100
AcDbCircle
 10
754.0500000000011
 20
929.6999999999989
 30
0.0
 40
8.450000000000006
100
AcDbArc
 50
314.7602701039002
 51
45.23972989607999
  0
ARC
  5
583
330
1F
100
AcDbEntity
  8
トラップ
  6
CONTINUOUS
 62
     6
100
AcDbCircle
 10
725.9500000000007
 20
929.6999999999989
 30
0.0
 40
8.450000000000006
100
AcDbArc
 50
134.7602701039
 51
225.2397298961
  0
LINE
  5
584
330
1F
100
AcDbEntity
  8
トラップ
  6
CONTINUOUS
 62
     6
100
AcDbLine
 10
720.0
 20
935.6999999999989
 30
0.0
 11
760.0000000000018
 21
935.6999999999989
 31
0.0
  0
ELLIPSE
  5
585
330
1F
100
AcDbEntity
  8
トラップ
  6
CONTINUOUS
 62
     6
100
AcDbEllipse
 10
757.8083557650007
 20
929.6999999999989
 30
0.0
 11
3.342635244955803E-16
 21
5.458937625580006
 31
0.0
210
0.0
220
0.0
230
1.0
 40
0.8594427261992248
 41
0.0
 42
6.283185307179586
  0
ELLIPSE
  5
586
330
1F
100
AcDbEntity
  8
トラップ
  6
CONTINUOUS
 62
     6
100
AcDbEllipse
 10
740.0
 20
929.6999999999989
 30
0.0
 11
9.273618495499999
 21
0.0
 31
0.0
210
0.0
220
0.0
230
1.0
 40
0.5886523829106126
 41
0.0
 42
6.283185307179586
  0
ELLIPSE
  5
587
330
1F
100
AcDbEntity
  8
トラップ
  6
CONTINUOUS
 62
     6
100
AcDbEllipse
 10
722.1916442350011
 20
929.6999999999989
 30
0.0
 11
3.342635244955803E-16
 21
5.458937625580006
 31
0.0
210
0.0
220
0.0
230
1.0
 40
0.8594427261992248
 41
0.0
 42
6.283185307179586
  0
LINE
  5
588
330
1F
100
AcDbEntity
  8
トラップ
  6
CONTINUOUS
 62
     6
100
AcDbLine
 10
724.125
 20
913.0625000000008
 30
0.0
 11
724.125
 21
923.699999999999
 31
0.0
  0
LINE
  5
589
330
1F
100
AcDbEntity
  8
トラップ
  6
CONTINUOUS
 62
     6
100
AcDbLine
 10
755.8750000000018
 20
913.0625000000008
 30
0.0
 11
755.8750000000018
 21
923.699999999999
 31
0.0
  0
LINE
  5
58A
330
1F
100
AcDbEntity
  8
トラップ
  6
CONTINUOUS
 62
     6
100
AcDbLine
 10
724.125
 20
935.6999999999989
 30
0.0
 11
724.125
 21
974.9999999999992
 31
0.0
  0
LINE
  5
58B
330
1F
100
AcDbEntity
  8
トラップ
  6
CONTINUOUS
 62
     6
100
AcDbLine
 10
755.8750000000018
 20
935.6999999999989
 30
0.0
 11
755.8750000000018
 21
977.3
 31
0.0
  0
ARC
  5
58C
330
1F
100
AcDbEntity
  8
トラップ
  6
CONTINUOUS
 62
     6
100
AcDbCircle
 10
710.0000000000009
 20
913.0000000000008
 30
0.0
 40
45.87500000000079
100
AcDbArc
 50
180.0
 51
0.0
  0
ARC
  5
58D
330
1F
100
AcDbEntity
  8
トラップ
  6
CONTINUOUS
 62
     6
100
AcDbCircle
 10
710.0000000000009
 20
913.0000000000008
 30
0.0
 40
14.12500000000079
100
AcDbArc
 50
180.0
 51
0.0
  0
LINE
  5
58E
330
1F
100
AcDbEntity
  8
トラップ
  6
CONTINUOUS
 62
     6
100
AcDbLine
 10
695.0
 20
864.125
 30
0.0
 11
725.0
 21
864.125
 31
0.0
  0
LINE
  5
58F
330
1F
100
AcDbEntity
  8
トラップ
  6
CONTINUOUS
 62
     6
100
AcDbLine
 10
723.0
 20
866.125
 30
0.0
 11
723.0
 21
864.125
 31
0.0
  0
ARC
  5
590
330
1F
100
AcDbEntity
  8
トラップ
  6
CONTINUOUS
 62
     6
100
AcDbCircle
 10
698.75
 20
869.1562499999999
 30
0.0
 40
7.531250000000002
100
AcDbArc
 50
240.1371656437003
 51
270.0000000000002
  0
ARC
  5
591
330
1F
100
AcDbEntity
  8
トラップ
  6
CONTINUOUS
 62
     6
100
AcDbCircle
 10
721.25
 20
869.1562499999999
 30
0.0
 40
7.531250000000002
100
AcDbArc
 50
270.0000000000002
 51
299.8628343563
  0
LINE
  5
592
330
1F
100
AcDbEntity
  8
トラップ
  6
CONTINUOUS
 62
     6
100
AcDbLine
 10
725.0
 20
862.6249999999999
 30
0.0
 11
725.0
 21
864.125
 31
0.0
  0
LINE
  5
593
330
1F
100
AcDbEntity
  8
トラップ
  6
CONTINUOUS
 62
     6
100
AcDbLine
 10
695.0
 20
862.6249999999999
 30
0.0
 11
695.0
 21
864.125
 31
0.0
  0
LINE
  5
594
330
1F
100
AcDbEntity
  8
トラップ
  6
CONTINUOUS
 62
     6
100
AcDbLine
 10
698.75
 20
861.625
 30
0.0
 11
721.25
 21
861.625
 31
0.0
  0
LINE
  5
595
330
1F
100
AcDbEntity
  8
トラップ
  6
CONTINUOUS
 62
     6
100
AcDbLine
 10
697.0
 20
866.125
 30
0.0
 11
697.0
 21
864.125
 31
0.0
  0
LINE
  5
596
330
1F
100
AcDbEntity
  8
トラップ
  6
CONTINUOUS
 62
     6
100
AcDbLine
 10
697.0
 20
866.125
 30
0.0
 11
723.0
 21
866.125
 31
0.0
  0
LINE
  5
597
330
1F
100
AcDbEntity
  8
トラップ
  6
CONTINUOUS
 62
     6
100
AcDbLine
 10
697.5
 20
868.8608379667219
 30
0.0
 11
697.5
 21
866.125
 31
0.0
  0
LINE
  5
598
330
1F
100
AcDbEntity
  8
トラップ
  6
CONTINUOUS
 62
     6
100
AcDbLine
 10
722.5
 20
868.8608379667213
 30
0.0
 11
722.5
 21
866.125
 31
0.0
  0
LINE
  5
599
330
1F
100
AcDbEntity
  8
トラップ
  6
EXLTYPE3
 62
     6
100
AcDbLine
 10
778.0000000000001
 20
975.0000000000001
 30
0.0
 11
701.0
 21
975.0000000000001
 31
0.0
  0
LINE
  5
59A
330
1F
100
AcDbEntity
  8
トラップ
  6
EXLTYPE3
 62
     6
100
AcDbLine
 10
740.0
 20
912.99995742505
 30
0.0
 11
740.0
 21
1018.0
 31
0.0
  0
ARC
  5
59B
330
1F
100
AcDbEntity
  8
トラップ
  6
EXLTYPE3
 62
     6
100
AcDbCircle
 10
710.0000000000009
 20
913.0000000000008
 30
0.0
 40
30.00000000000079
100
AcDbArc
 50
180.0
 51
0.0
  0
ARC
  5
59C
330
1F
100
AcDbEntity
  8
トラップ
  6
CONTINUOUS
 62
     6
100
AcDbCircle
 10
1709.0
 20
960.9999999999998
 30
0.0
 40
10.0
100
AcDbArc
 50
233.1301023541561
 51
306.8698976458444
  0
ARC
  5
59D
330
1F
100
AcDbEntity
  8
トラップ
  6
CONTINUOUS
 62
     6
100
AcDbCircle
 10
1709.0
 20
988.9999999999998
 30
0.0
 40
10.0
100
AcDbArc
 50
53.13010235415626
 51
126.869897645844
  0
ELLIPSE
  5
59E
330
1F
100
AcDbEntity
  8
トラップ
  6
CONTINUOUS
 62
     6
100
AcDbEllipse
 10
1709.0
 20
993.6434319647194
 30
0.0
 11
-6.000047544032152
 21
-1.929762470938956E-15
 31
0.0
210
0.0
220
0.0
230
1.0
 40
0.8927542650237572
 41
0.0
 42
6.283185307179586
  0
ELLIPSE
  5
59F
330
1F
100
AcDbEntity
  8
トラップ
  6
CONTINUOUS
 62
     6
100
AcDbEllipse
 10
1709.0
 20
974.9999999999998
 30
0.0
 11
-4.083308070208673E-15
 21
10.66536450385002
 31
0.0
210
0.0
220
0.0
230
1.0
 40
0.5625686771262347
 41
0.0
 42
6.283185307179586
  0
ELLIPSE
  5
5A0
330
1F
100
AcDbEntity
  8
トラップ
  6
CONTINUOUS
 62
     6
100
AcDbEllipse
 10
1709.0
 20
956.3565680352801
 30
0.0
 11
-6.00004754403219
 21
-1.929762470938968E-15
 31
0.0
210
0.0
220
0.0
230
1.0
 40
0.8927542650237515
 41
0.0
 42
6.283185307179586
  0
LINE
  5
5A1
330
1F
100
AcDbEntity
  8
トラップ
  6
CONTINUOUS
 62
     6
100
AcDbLine
 10
1703.0
 20
952.9999999999998
 30
0.0
 11
1703.0
 21
996.9999999999998
 31
0.0
  0
LINE
  5
5A2
330
1F
100
AcDbEntity
  8
トラップ
  6
CONTINUOUS
 62
     6
100
AcDbLine
 10
1720.000000000003
 20
1000.5
 30
0.0
 11
1745.0
 21
1000.5
 31
0.0
  0
LINE
  5
5A3
330
1F
100
AcDbEntity
  8
トラップ
  6
CONTINUOUS
 62
     6
100
AcDbLine
 10
1720.000000000003
 20
949.4999999999998
 30
0.0
 11
1745.0
 21
949.4999999999998
 31
0.0
  0
LINE
  5
5A4
330
1F
100
AcDbEntity
  8
トラップ
  6
CONTINUOUS
 62
     6
100
AcDbLine
 10
1745.0
 20
949.4999999999998
 30
0.0
 11
1745.0
 21
1000.5
 31
0.0
  0
LINE
  5
5A5
330
1F
100
AcDbEntity
  8
トラップ
  6
CONTINUOUS
 62
     6
100
AcDbLine
 10
1715.0
 20
952.9999999999998
 30
0.0
 11
1715.0
 21
996.9999999999998
 31
0.0
  0
LINE
  5
5A6
330
1F
100
AcDbEntity
  8
トラップ
  6
CONTINUOUS
 62
     6
100
AcDbLine
 10
1720.000000000003
 20
944.9999999999998
 30
0.0
 11
1720.000000000003
 21
1005.0
 31
0.0
  0
LINE
  5
5A7
330
1F
100
AcDbEntity
  8
トラップ
  6
CONTINUOUS
 62
     6
100
AcDbLine
 10
1718.000000000003
 20
944.9999999999998
 30
0.0
 11
1718.000000000003
 21
1005.0
 31
0.0
  0
LINE
  5
5A8
330
1F
100
AcDbEntity
  8
トラップ
  6
CONTINUOUS
 62
     6
100
AcDbLine
 10
1718.000000000003
 20
944.9999999999998
 30
0.0
 11
1720.0
 21
944.9999999999998
 31
0.0
  0
LINE
  5
5A9
330
1F
100
AcDbEntity
  8
トラップ
  6
CONTINUOUS
 62
     6
100
AcDbLine
 10
1718.000000000003
 20
1005.0
 30
0.0
 11
1720.0
 21
1005.0
 31
0.0
  0
LINE
  5
5AA
330
1F
100
AcDbEntity
  8
トラップ
  6
CONTINUOUS
 62
     6
100
AcDbLine
 10
1715.0
 20
995.0000000000016
 30
0.0
 11
1718.000000000003
 21
995.0000000000016
 31
0.0
  0
LINE
  5
5AB
330
1F
100
AcDbEntity
  8
トラップ
  6
CONTINUOUS
 62
     6
100
AcDbLine
 10
1715.0
 20
955.0000000000016
 30
0.0
 11
1718.000000000003
 21
955.0000000000016
 31
0.0
  0
LINE
  5
5AC
330
1F
100
AcDbEntity
  8
トラップ
  6
CONTINUOUS
 62
     6
100
AcDbLine
 10
1674.6476151588
 20
959.1249999999993
 30
0.0
 11
1703.0
 21
959.1249999999993
 31
0.0
  0
LINE
  5
5AD
330
1F
100
AcDbEntity
  8
トラップ
  6
CONTINUOUS
 62
     6
100
AcDbLine
 10
1674.6476151588
 20
990.8749999999993
 30
0.0
 11
1703.0
 21
990.8749999999993
 31
0.0
  0
LINE
  5
5AE
330
1F
100
AcDbEntity
  8
トラップ
  6
EXLTYPE4
 62
     6
100
AcDbLine
 10
1644.0
 20
572.0
 30
0.0
 11
1644.0
 21
649.0
 31
0.0
  0
LINE
  5
5AF
330
1F
100
AcDbEntity
  8
トラップ
  6
EXLTYPE4
 62
     6
100
AcDbLine
 10
1676.0
 20
649.0
 30
0.0
 11
1676.0
 21
571.9999999999998
 31
0.0
  0
ARC
  5
5B0
330
1F
100
AcDbEntity
  8
トラップ
  6
EXLTYPE2
 62
     6
100
AcDbCircle
 10
1646.0
 20
566.0000000000002
 30
0.0
 40
10.0
100
AcDbArc
 50
143.1301023541561
 51
216.8698976458443
  0
ARC
  5
5B1
330
1F
100
AcDbEntity
  8
トラップ
  6
EXLTYPE2
 62
     6
100
AcDbCircle
 10
1674.0
 20
566.0000000000002
 30
0.0
 40
10.0
100
AcDbArc
 50
323.1301023541562
 51
36.869897645844
  0
ELLIPSE
  5
5B2
330
1F
100
AcDbEntity
  8
トラップ
  6
EXLTYPE2
 62
     6
100
AcDbEllipse
 10
1678.643431964719
 20
566.0000000000002
 30
0.0
 11
3.673969509765456E-16
 21
6.000047544032152
 31
0.0
210
0.0
220
0.0
230
1.0
 40
0.8927542650237572
 41
0.0
 42
6.283185307179586
  0
ELLIPSE
  5
5B3
330
1F
100
AcDbEntity
  8
トラップ
  6
EXLTYPE2
 62
     6
100
AcDbEllipse
 10
1660.0
 20
566.0000000000002
 30
0.0
 11
10.66536450385002
 21
0.0
 31
0.0
210
0.0
220
0.0
230
1.0
 40
0.5625686771262347
 41
0.0
 42
6.283185307179586
  0
ELLIPSE
  5
5B4
330
1F
100
AcDbEntity
  8
トラップ
  6
EXLTYPE2
 62
     6
100
AcDbEllipse
 10
1641.35656803528
 20
566.0000000000002
 30
0.0
 11
3.673969509765480E-16
 21
6.00004754403219
 31
0.0
210
0.0
220
0.0
230
1.0
 40
0.8927542650237515
 41
0.0
 42
6.283185307179586
  0
LINE
  5
5B5
330
1F
100
AcDbEntity
  8
トラップ
  6
EXLTYPE2
 62
     6
100
AcDbLine
 10
1638.0
 20
571.9999999999998
 30
0.0
 11
1682.0
 21
571.9999999999998
 31
0.0
  0
LINE
  5
5B6
330
1F
100
AcDbEntity
  8
トラップ
  6
EXLTYPE2
 62
     6
100
AcDbLine
 10
1685.5
 20
554.9999999999966
 30
0.0
 11
1685.5
 21
530.0000000000002
 31
0.0
  0
LINE
  5
5B7
330
1F
100
AcDbEntity
  8
トラップ
  6
EXLTYPE2
 62
     6
100
AcDbLine
 10
1634.5
 20
554.9999999999966
 30
0.0
 11
1634.5
 21
530.0000000000002
 31
0.0
  0
LINE
  5
5B8
330
1F
100
AcDbEntity
  8
トラップ
  6
EXLTYPE2
 62
     6
100
AcDbLine
 10
1634.5
 20
530.0000000000002
 30
0.0
 11
1685.5
 21
530.0000000000002
 31
0.0
  0
LINE
  5
5B9
330
1F
100
AcDbEntity
  8
トラップ
  6
EXLTYPE2
 62
     6
100
AcDbLine
 10
1638.0
 20
559.9999999999998
 30
0.0
 11
1682.0
 21
559.9999999999998
 31
0.0
  0
LINE
  5
5BA
330
1F
100
AcDbEntity
  8
トラップ
  6
EXLTYPE2
 62
     6
100
AcDbLine
 10
1630.0
 20
554.9999999999966
 30
0.0
 11
1690.0
 21
554.9999999999966
 31
0.0
  0
LINE
  5
5BB
330
1F
100
AcDbEntity
  8
トラップ
  6
EXLTYPE2
 62
     6
100
AcDbLine
 10
1630.0
 20
556.9999999999966
 30
0.0
 11
1690.0
 21
556.9999999999966
 31
0.0
  0
LINE
  5
5BC
330
1F
100
AcDbEntity
  8
トラップ
  6
EXLTYPE2
 62
     6
100
AcDbLine
 10
1630.0
 20
556.9999999999966
 30
0.0
 11
1630.0
 21
555.0000000000002
 31
0.0
  0
LINE
  5
5BD
330
1F
100
AcDbEntity
  8
トラップ
  6
EXLTYPE2
 62
     6
100
AcDbLine
 10
1690.0
 20
556.9999999999966
 30
0.0
 11
1690.0
 21
555.0000000000002
 31
0.0
  0
LINE
  5
5BE
330
1F
100
AcDbEntity
  8
トラップ
  6
EXLTYPE2
 62
     6
100
AcDbLine
 10
1680.000000000002
 20
559.9999999999998
 30
0.0
 11
1680.000000000002
 21
556.9999999999966
 31
0.0
  0
LINE
  5
5BF
330
1F
100
AcDbEntity
  8
トラップ
  6
EXLTYPE2
 62
     6
100
AcDbLine
 10
1640.000000000002
 20
559.9999999999998
 30
0.0
 11
1640.000000000002
 21
556.9999999999966
 31
0.0
  0
ARC
  5
5C0
330
1F
100
AcDbEntity
  8
トラップ
  6
EXLTYPE2
 62
     6
100
AcDbCircle
 10
665.9999999999998
 20
566.0000000000002
 30
0.0
 40
10.0
100
AcDbArc
 50
143.1301023541561
 51
216.8698976458443
  0
ARC
  5
5C1
330
1F
100
AcDbEntity
  8
トラップ
  6
EXLTYPE2
 62
     6
100
AcDbCircle
 10
693.9999999999998
 20
566.0000000000002
 30
0.0
 40
10.0
100
AcDbArc
 50
323.1301023541562
 51
36.869897645844
  0
ELLIPSE
  5
5C2
330
1F
100
AcDbEntity
  8
トラップ
  6
EXLTYPE2
 62
     6
100
AcDbEllipse
 10
698.6434319647194
 20
566.0000000000002
 30
0.0
 11
3.673969509765456E-16
 21
6.000047544032152
 31
0.0
210
0.0
220
0.0
230
1.0
 40
0.8927542650237572
 41
0.0
 42
6.283185307179586
  0
ELLIPSE
  5
5C3
330
1F
100
AcDbEntity
  8
トラップ
  6
EXLTYPE2
 62
     6
100
AcDbEllipse
 10
679.9999999999998
 20
566.0000000000002
 30
0.0
 11
10.66536450385002
 21
0.0
 31
0.0
210
0.0
220
0.0
230
1.0
 40
0.5625686771262347
 41
0.0
 42
6.283185307179586
  0
ELLIPSE
  5
5C4
330
1F
100
AcDbEntity
  8
トラップ
  6
EXLTYPE2
 62
     6
100
AcDbEllipse
 10
661.3565680352801
 20
566.0000000000002
 30
0.0
 11
3.673969509765480E-16
 21
6.00004754403219
 31
0.0
210
0.0
220
0.0
230
1.0
 40
0.8927542650237515
 41
0.0
 42
6.283185307179586
  0
LINE
  5
5C5
330
1F
100
AcDbEntity
  8
トラップ
  6
EXLTYPE2
 62
     6
100
AcDbLine
 10
657.9999999999998
 20
571.9999999999998
 30
0.0
 11
701.9999999999998
 21
571.9999999999998
 31
0.0
  0
LINE
  5
5C6
330
1F
100
AcDbEntity
  8
トラップ
  6
EXLTYPE2
 62
     6
100
AcDbLine
 10
705.4999999999998
 20
554.9999999999966
 30
0.0
 11
705.4999999999998
 21
530.0000000000002
 31
0.0
  0
LINE
  5
5C7
330
1F
100
AcDbEntity
  8
トラップ
  6
EXLTYPE2
 62
     6
100
AcDbLine
 10
654.4999999999998
 20
554.9999999999966
 30
0.0
 11
654.4999999999998
 21
530.0000000000002
 31
0.0
  0
LINE
  5
5C8
330
1F
100
AcDbEntity
  8
トラップ
  6
EXLTYPE2
 62
     6
100
AcDbLine
 10
654.4999999999998
 20
530.0000000000002
 30
0.0
 11
705.4999999999998
 21
530.0000000000002
 31
0.0
  0
LINE
  5
5C9
330
1F
100
AcDbEntity
  8
トラップ
  6
EXLTYPE2
 62
     6
100
AcDbLine
 10
657.9999999999998
 20
559.9999999999998
 30
0.0
 11
701.9999999999998
 21
559.9999999999998
 31
0.0
  0
LINE
  5
5CA
330
1F
100
AcDbEntity
  8
トラップ
  6
EXLTYPE2
 62
     6
100
AcDbLine
 10
649.9999999999998
 20
554.9999999999966
 30
0.0
 11
709.9999999999998
 21
554.9999999999966
 31
0.0
  0
LINE
  5
5CB
330
1F
100
AcDbEntity
  8
トラップ
  6
EXLTYPE2
 62
     6
100
AcDbLine
 10
649.9999999999998
 20
556.9999999999966
 30
0.0
 11
709.9999999999998
 21
556.9999999999966
 31
0.0
  0
LINE
  5
5CC
330
1F
100
AcDbEntity
  8
トラップ
  6
EXLTYPE2
 62
     6
100
AcDbLine
 10
649.9999999999998
 20
556.9999999999966
 30
0.0
 11
649.9999999999998
 21
555.0000000000002
 31
0.0
  0
LINE
  5
5CD
330
1F
100
AcDbEntity
  8
トラップ
  6
EXLTYPE2
 62
     6
100
AcDbLine
 10
709.9999999999998
 20
556.9999999999966
 30
0.0
 11
709.9999999999998
 21
555.0000000000002
 31
0.0
  0
LINE
  5
5CE
330
1F
100
AcDbEntity
  8
トラップ
  6
EXLTYPE2
 62
     6
100
AcDbLine
 10
700.0000000000016
 20
559.9999999999998
 30
0.0
 11
700.0000000000016
 21
556.9999999999966
 31
0.0
  0
LINE
  5
5CF
330
1F
100
AcDbEntity
  8
トラップ
  6
EXLTYPE2
 62
     6
100
AcDbLine
 10
660.0000000000016
 20
559.9999999999998
 30
0.0
 11
660.0000000000016
 21
556.9999999999966
 31
0.0
  0
LINE
  5
5D0
330
1F
100
AcDbEntity
  8
トラップ
  6
EXLTYPE4
 62
     6
100
AcDbLine
 10
664.1250000000017
 20
649.0
 30
0.0
 11
664.1250000000017
 21
571.9999999999998
 31
0.0
  0
LINE
  5
5D1
330
1F
100
AcDbEntity
  8
トラップ
  6
EXLTYPE4
 62
     6
100
AcDbLine
 10
695.8750000000018
 20
649.0
 30
0.0
 11
695.8750000000018
 21
572.0
 31
0.0
  0
LINE
  5
5D2
330
1F
100
AcDbEntity
  8
トラップ
  6
CONTINUOUS
 62
     6
100
AcDbLine
 10
718.5
 20
985.6653645038509
 30
0.0
 11
718.5
 21
964.334635496149
 31
0.0
  0
LINE
  5
5D3
330
1F
100
AcDbEntity
  8
トラップ
  6
CONTINUOUS
 62
     6
100
AcDbLine
 10
761.5
 20
964.3346354961491
 30
0.0
 11
761.5
 21
985.665364503851
 31
0.0
  0
LINE
  5
5D4
330
1F
100
AcDbEntity
  8
トラップ
  6
CONTINUOUS
 62
     6
100
AcDbLine
 10
759.9864766009557
 20
988.28686392944
 30
0.0
 11
741.5135233990442
 21
998.952228433291
 31
0.0
  0
LINE
  5
5D5
330
1F
100
AcDbEntity
  8
トラップ
  6
CONTINUOUS
 62
     6
100
AcDbLine
 10
738.4864766009557
 20
998.9522284332909
 30
0.0
 11
720.0135233990442
 21
988.28686392944
 31
0.0
  0
ARC
  5
5D6
330
1F
100
AcDbEntity
  8
トラップ
  6
CONTINUOUS
 62
     6
100
AcDbCircle
 10
740.0
 20
975.0
 30
0.0
 40
24.00000000000001
100
AcDbArc
 50
86.38432974940746
 51
93.61567025059199
  0
ARC
  5
5D7
330
1F
100
AcDbEntity
  8
トラップ
  6
CONTINUOUS
 62
     6
100
AcDbCircle
 10
740.0
 20
975.0
 30
0.0
 40
24.00000000000002
100
AcDbArc
 50
26.38432974940783
 51
33.61567025059265
  0
ARC
  5
5D8
330
1F
100
AcDbEntity
  8
トラップ
  6
CONTINUOUS
 62
     6
100
AcDbCircle
 10
740.0
 20
975.0
 30
0.0
 40
24.00000000000002
100
AcDbArc
 50
326.384329749408
 51
333.6156702505922
  0
ARC
  5
5D9
330
1F
100
AcDbEntity
  8
トラップ
  6
CONTINUOUS
 62
     6
100
AcDbCircle
 10
740.0
 20
975.0
 30
0.0
 40
24.00000000000002
100
AcDbArc
 50
206.3843297494086
 51
213.6156702505917
  0
ARC
  5
5DA
330
1F
100
AcDbEntity
  8
トラップ
  6
CONTINUOUS
 62
     6
100
AcDbCircle
 10
740.0
 20
975.0
 30
0.0
 40
24.00000000000002
100
AcDbArc
 50
146.3843297494072
 51
153.6156702505914
  0
LINE
  5
5DB
330
1F
100
AcDbEntity
  8
トラップ
  6
CONTINUOUS
 62
     6
100
AcDbLine
 10
720.0135233990443
 20
961.71313607056
 30
0.0
 11
723.999939
 21
959.4115779502465
 31
0.0
  0
LINE
  5
5DC
330
1F
100
AcDbEntity
  8
トラップ
  6
CONTINUOUS
 62
     6
100
AcDbLine
 10
756.000061
 20
959.4115779502465
 30
0.0
 11
759.9864766009558
 21
961.71313607056
 31
0.0
  0
ARC
  5
5DD
330
1F
100
AcDbEntity
  8
トラップ
  6
CONTINUOUS
 62
     6
100
AcDbCircle
 10
740.0
 20
975.0
 30
0.0
 40
30.00000000000001
100
AcDbArc
 50
302.231090359577
 51
237.7689096404237
  0
TEXT
  5
5DE
330
1F
100
AcDbEntity
  8
トラップ
  6
CONTINUOUS
 62
     2
100
AcDbText
 10
1174.997896358311
 20
1037.60391112745
 30
0.0
 40
40.0
  1
ＬＵＭＥＨ７０－２００－３２Ｂ
 41
0.7570224719101125
  7
EXCADSTD
 72
     5
 11
1559.997896358311
 21
1037.60391112745
 31
0.0
100
AcDbText
  0
LEADER
  5
5DF
330
1F
100
AcDbEntity
  8
トラップ
  6
CONTINUOUS
 62
     3
100
AcDbLeader
  3
ISO-25
 76
     3
 10
1643.999999999998
 20
619.6846832004369
 30
0.0
 10
1554.875
 20
671.1410095123603
 30
0.0
 10
1329.0
 20
671.1410095123603
 30
0.0
1001
ACAD
1000
DSTYLE
1002
{
1070
     5
1000
EX_NORM
1070
    41
1040
30.0
1070
   341
1005
4E
1002
}
  0
LEADER
  5
5E0
330
1F
100
AcDbEntity
  8
トラップ
  6
CONTINUOUS
 62
     3
100
AcDbLeader
  3
ISO-25
 76
     3
 10
1702.999999999998
 20
983.9999999999969
 30
0.0
 10
1613.875
 20
1035.45632631192
 30
0.0
 10
1174.0
 20
1035.45632631192
 30
0.0
1001
ACAD
1000
DSTYLE
1002
{
1070
     5
1000
EX_NORM
1070
    41
1040
30.0
1070
   341
1005
4E
1002
}
  0
TEXT
  5
5E1
330
1F
100
AcDbEntity
  8
トラップ
  6
CONTINUOUS
 62
     2
100
AcDbText
 10
1745.88728837974
 20
1050.46731904606
 30
0.0
 40
40.0
  1
ＶＵ,ＶＰ５０
 41
0.9130434782608696
  7
EXCADSTD
 72
     5
 11
1945.88728837974
 21
1050.46731904606
 31
0.0
100
AcDbText
  0
TEXT
  5
5E2
330
1F
100
AcDbEntity
  8
トラップ
  6
CONTINUOUS
 62
     2
100
AcDbText
 10
1402.58601984164
 20
463.5014137321597
 30
0.0
 40
40.0
  1
ＶＵ,ＶＰ５０
 41
0.9130434782608696
  7
EXCADSTD
 72
     5
 11
1602.58601984164
 21
463.5014137321597
 31
0.0
100
AcDbText
  0
DIMENSION
  5
5E4
330
1F
100
AcDbEntity
  8
寸法
  6
CONTINUOUS
 62
     3
100
AcDbDimension
  2
*D15
 10
680.0
 20
2573.0
 30
0.0
 11
610.0000000000001
 21
2596.000000119209
 31
0.0
 70
   160
  3
ISO-25
100
AcDbAlignedDimension
 13
540.0
 23
2508.0
 33
0.0
 14
680.0
 24
2522.0
 34
0.0
100
AcDbRotatedDimension
1001
ACAD
1000
DSTYLE
1002
{
1070
   270
1070
     2
1070
     6
1000
EX_NORM
1070
     7
1000
EX_NORM
1070
    41
1040
30.0
1070
    42
1040
6.99999988079071
1070
    44
1040
10.0
1070
    73
1070
     0
1070
    74
1070
     0
1070
    75
1070
     0
1070
    76
1070
     0
1070
    77
1070
     1
1070
    78
1070
     8
1070
   140
1040
40.0
1070
   147
1040
0.0
1070
   173
1070
     1
1070
   176
1070
     3
1070
   177
1070
     3
1070
   178
1070
     2
1070
   271
1070
     1
1070
   277
1070
     2
1070
   279
1070
     2
1070
   280
1070
     0
1070
   287
1070
     5
1070
   340
1005
5E3
1002
}
  0
DIMENSION
  5
5F2
330
1F
100
AcDbEntity
  8
寸法
  6
CONTINUOUS
 62
     3
100
AcDbDimension
  2
*D16
 10
820.0
 20
2573.0
 30
0.0
 11
750.0000000000001
 21
2596.000000119209
 31
0.0
 70
   160
  3
ISO-25
100
AcDbAlignedDimension
 13
680.0
 23
2522.0
 33
0.0
 14
820.0
 24
2508.0
 34
0.0
100
AcDbRotatedDimension
1001
ACAD
1000
DSTYLE
1002
{
1070
   270
1070
     2
1070
     6
1000
EX_NORM
1070
     7
1000
EX_NORM
1070
    41
1040
30.0
1070
    42
1040
6.99999988079071
1070
    44
1040
10.0
1070
    73
1070
     0
1070
    74
1070
     0
1070
    75
1070
     0
1070
    76
1070
     0
1070
    77
1070
     1
1070
    78
1070
     8
1070
   140
1040
40.0
1070
   147
1040
0.0
1070
   173
1070
     1
1070
   176
1070
     3
1070
   177
1070
     3
1070
   178
1070
     2
1070
   271
1070
     1
1070
   277
1070
     2
1070
   279
1070
     2
1070
   280
1070
     0
1070
   287
1070
     5
1070
   340
1005
5E3
1002
}
  0
DIMENSION
  5
5FF
330
1F
100
AcDbEntity
  8
寸法
  6
CONTINUOUS
 62
     3
100
AcDbDimension
  2
*D17
 10
902.5000000000001
 20
2000.0
 30
0.0
 11
680.0000000000001
 21
2023.000000119209
 31
0.0
 70
   160
  3
ISO-25
100
AcDbAlignedDimension
 13
457.5
 23
2240.743338651
 33
0.0
 14
902.5000000000001
 24
2240.743338651
 34
0.0
100
AcDbRotatedDimension
1001
ACAD
1000
DSTYLE
1002
{
1070
   270
1070
     2
1070
     6
1000
EX_NORM
1070
     7
1000
EX_NORM
1070
    41
1040
30.0
1070
    42
1040
6.99999988079071
1070
    44
1040
10.0
1070
    73
1070
     0
1070
    74
1070
     0
1070
    75
1070
     0
1070
    76
1070
     0
1070
    77
1070
     1
1070
    78
1070
     8
1070
   140
1040
40.0
1070
   147
1040
0.0
1070
   173
1070
     1
1070
   176
1070
     3
1070
   177
1070
     3
1070
   178
1070
     2
1070
   271
1070
     1
1070
   277
1070
     2
1070
   279
1070
     2
1070
   280
1070
     0
1070
   287
1070
     5
1070
   340
1005
5E3
1002
}
  0
DIMENSION
  5
60C
330
1F
100
AcDbEntity
  8
寸法
  6
CONTINUOUS
 62
     3
100
AcDbDimension
  2
*D18
 10
982.5000000000034
 20
2080.0
 30
0.0
 11
959.4999998807957
 21
2282.5
 31
0.0
 70
   160
  3
ISO-25
100
AcDbAlignedDimension
 13
902.5
 23
2485.0
 33
0.0
 14
680.0
 24
2080.0
 34
0.0
 50
90.0
100
AcDbRotatedDimension
1001
ACAD
1000
DSTYLE
1002
{
1070
   270
1070
     2
1070
     6
1000
EX_NORM
1070
     7
1000
EX_NORM
1070
    41
1040
30.0
1070
    42
1040
6.99999988079071
1070
    44
1040
10.0
1070
    73
1070
     0
1070
    74
1070
     0
1070
    75
1070
     1
1070
    76
1070
     0
1070
    77
1070
     1
1070
    78
1070
     8
1070
   140
1040
40.0
1070
   147
1040
0.0
1070
   173
1070
     1
1070
   176
1070
     3
1070
   177
1070
     3
1070
   178
1070
     2
1070
   271
1070
     1
1070
   277
1070
     2
1070
   279
1070
     2
1070
   280
1070
     0
1070
   287
1070
     5
1070
   340
1005
5E3
1002
}
  0
DIMENSION
  5
618
330
1F
100
AcDbEntity
  8
寸法
  6
CONTINUOUS
 62
     3
100
AcDbDimension
  2
*D19
 10
1838.999999999996
 20
1475.0
 30
0.0
 11
1815.999999880787
 21
1369.999999999999
 31
0.0
 70
   160
  3
ISO-25
100
AcDbAlignedDimension
 13
1743.0
 23
1435.0
 33
0.0
 14
1720.0
 24
1475.0
 34
0.0
 50
90.0
100
AcDbRotatedDimension
1001
ACAD
1000
DSTYLE
1002
{
1070
   270
1070
     2
1070
     6
1000
EX_NORM
1070
     7
1000
EX_NORM
1070
    41
1040
30.0
1070
    42
1040
6.99999988079071
1070
    44
1040
9.999999999999545
1070
    73
1070
     0
1070
    74
1070
     0
1070
    75
1070
     0
1070
    76
1070
     0
1070
    77
1070
     1
1070
    78
1070
     8
1070
   140
1040
40.0
1070
   147
1040
0.0
1070
   173
1070
     1
1070
   176
1070
     3
1070
   177
1070
     3
1070
   178
1070
     2
1070
   271
1070
     1
1070
   277
1070
     2
1070
   279
1070
     2
1070
   280
1070
     1
1070
   287
1070
     5
1070
   340
1005
5E3
1002
}
  0
DIMENSION
  5
627
330
1F
100
AcDbEntity
  8
寸法
  6
CONTINUOUS
 62
     3
100
AcDbDimension
  2
*D20
 10
982.4999999999994
 20
1365.0
 30
0.0
 11
959.4999998807912
 21
1420.0
 31
0.0
 70
   160
  3
ISO-25
100
AcDbAlignedDimension
 13
894.5
 23
1475.0
 33
0.0
 14
680.0
 24
1365.0
 34
0.0
 50
90.0
100
AcDbRotatedDimension
1001
ACAD
1000
DSTYLE
1002
{
1070
   270
1070
     2
1070
     6
1000
EX_NORM
1070
     7
1000
EX_NORM
1070
    41
1040
30.0
1070
    42
1040
6.99999988079071
1070
    44
1040
10.0
1070
    73
1070
     0
1070
    74
1070
     0
1070
    75
1070
     0
1070
    76
1070
     0
1070
    77
1070
     1
1070
    78
1070
     8
1070
   140
1040
40.0
1070
   147
1040
0.0
1070
   173
1070
     1
1070
   176
1070
     3
1070
   177
1070
     3
1070
   178
1070
     2
1070
   271
1070
     1
1070
   277
1070
     2
1070
   279
1070
     2
1070
   280
1070
     0
1070
   287
1070
     5
1070
   340
1005
5E3
1002
}
  0
DIMENSION
  5
634
330
1F
100
AcDbEntity
  8
寸法
  6
CONTINUOUS
 62
     3
100
AcDbDimension
  2
*D21
 10
982.4999999999998
 20
1365.0
 30
0.0
 11
959.4999998807907
 21
959.9999999999998
 31
0.0
 70
   160
  3
ISO-25
100
AcDbAlignedDimension
 13
1006.0
 23
555.0
 33
0.0
 14
1006.0
 24
1365.0
 34
0.0
 50
90.0
100
AcDbRotatedDimension
1001
ACAD
1000
DSTYLE
1002
{
1070
   270
1070
     2
1070
     6
1000
EX_NORM
1070
     7
1000
EX_NORM
1070
    41
1040
30.0
1070
    42
1040
0.0
1070
    44
1040
0.0
1070
    73
1070
     0
1070
    74
1070
     0
1070
    75
1070
     1
1070
    76
1070
     1
1070
    77
1070
     1
1070
    78
1070
     8
1070
   140
1040
40.0
1070
   147
1040
0.0
1070
   173
1070
     1
1070
   176
1070
     3
1070
   177
1070
     3
1070
   178
1070
     2
1070
   271
1070
     1
1070
   277
1070
     2
1070
   279
1070
     2
1070
   280
1070
     0
1070
   287
1070
     5
1070
   340
1005
5E3
1002
}
  0
DIMENSION
  5
63F
330
1F
100
AcDbEntity
  8
寸法
  6
CONTINUOUS
 62
     3
100
AcDbDimension
  2
*D22
 10
397.5000000000001
 20
1090.0
 30
0.0
 11
374.000000059605
 21
1282.5
 31
0.0
 70
   160
  3
ISO-25
100
AcDbAlignedDimension
 13
465.5
 23
1475.0
 33
0.0
 14
680.0
 24
1090.0
 34
0.0
 50
90.0
100
AcDbRotatedDimension
1001
ACAD
1000
DSTYLE
1002
{
1070
   270
1070
     2
1070
     6
1000
EX_NORM
1070
     7
1000
EX_NORM
1070
    41
1040
30.0
1070
    42
1040
6.99999988079071
1070
    44
1040
10.0
1070
    73
1070
     0
1070
    74
1070
     0
1070
    75
1070
     0
1070
    76
1070
     0
1070
    77
1070
     1
1070
    78
1070
     0
1070
   140
1040
40.0
1070
   147
1040
0.0
1070
   173
1070
     1
1070
   176
1070
     3
1070
   177
1070
     3
1070
   178
1070
     2
1070
   271
1070
     0
1070
   277
1070
     2
1070
   279
1070
     2
1070
   280
1070
     0
1070
   287
1070
     5
1070
   340
1005
5E3
1002
}
  0
DIMENSION
  5
64C
330
1F
100
AcDbEntity
  8
寸法
  6
CONTINUOUS
 62
     3
100
AcDbDimension
  2
*D23
 10
1720.0
 20
462.0
 30
0.0
 11
1860.0
 21
485.4999999403954
 31
0.0
 70
   160
  1
60（床排水）
  3
ISO-25
100
AcDbAlignedDimension
 13
1660.0
 23
522.0
 33
0.0
 14
1720.0
 24
555.0
 34
0.0
100
AcDbRotatedDimension
1001
ACAD
1000
DSTYLE
1002
{
1070
   270
1070
     2
1070
     6
1000
EX_NORM
1070
     7
1000
EX_NORM
1070
    41
1040
30.0
1070
    42
1040
11.90000057220459
1070
    44
1040
10.0
1070
    73
1070
     0
1070
    74
1070
     0
1070
    75
1070
     0
1070
    76
1070
     0
1070
    77
1070
     1
1070
    78
1070
     0
1070
   140
1040
40.0
1070
   147
1040
0.0
1070
   173
1070
     1
1070
   176
1070
     3
1070
   177
1070
     3
1070
   178
1070
     2
1070
   271
1070
     0
1070
   277
1070
     2
1070
   279
1070
     2
1070
   280
1070
     0
1070
   287
1070
     5
1070
   340
1005
5E3
1002
}
  0
DIMENSION
  5
659
330
1F
100
AcDbEntity
  8
寸法
  6
CONTINUOUS
 62
     3
100
AcDbDimension
  2
*D24
 10
1720.0
 20
801.625
 30
0.0
 11
1655.0
 21
825.1249999403954
 31
0.0
 70
   160
  3
ISO-25
100
AcDbAlignedDimension
 13
1590.0
 23
913.0
 33
0.0
 14
1720.0
 24
901.9000000000001
 34
0.0
100
AcDbRotatedDimension
1001
ACAD
1000
DSTYLE
1002
{
1070
   270
1070
     2
1070
     6
1000
EX_NORM
1070
     7
1000
EX_NORM
1070
    41
1040
30.0
1070
    42
1040
6.999999880790597
1070
    44
1040
10.0
1070
    73
1070
     0
1070
    74
1070
     0
1070
    75
1070
     0
1070
    76
1070
     1
1070
    77
1070
     1
1070
    78
1070
     0
1070
   140
1040
40.0
1070
   147
1040
0.0
1070
   173
1070
     1
1070
   176
1070
     3
1070
   177
1070
     3
1070
   178
1070
     2
1070
   271
1070
     0
1070
   277
1070
     2
1070
   279
1070
     2
1070
   280
1070
     0
1070
   287
1070
     5
1070
   340
1005
5E3
1002
}
  0
DIMENSION
  5
665
330
1F
100
AcDbEntity
  8
寸法
  6
CONTINUOUS
 62
     3
100
AcDbDimension
  2
*D25
 10
680.0000000000001
 20
801.625
 30
0.0
 11
710.0000000000002
 21
825.1249999403952
 31
0.0
 70
   160
  3
ISO-25
100
AcDbAlignedDimension
 13
740.0
 23
913.0
 33
0.0
 14
680.0000000000001
 24
913.0000000000008
 34
0.0
100
AcDbRotatedDimension
1001
ACAD
1000
DSTYLE
1002
{
1070
   270
1070
     2
1070
     6
1000
EX_NORM
1070
     7
1000
EX_NORM
1070
    41
1040
30.0
1070
    42
1040
6.999999880790597
1070
    44
1040
10.0
1070
    73
1070
     0
1070
    74
1070
     0
1070
    75
1070
     0
1070
    76
1070
     1
1070
    77
1070
     1
1070
    78
1070
     0
1070
   140
1040
40.0
1070
   147
1040
0.0
1070
   173
1070
     1
1070
   176
1070
     3
1070
   177
1070
     3
1070
   178
1070
     2
1070
   271
1070
     0
1070
   277
1070
     2
1070
   279
1070
     2
1070
   280
1070
     0
1070
   287
1070
     5
1070
   340
1005
5E3
1002
}
  0
LEADER
  5
673
330
1F
100
AcDbEntity
  8
寸法
  6
CONTINUOUS
 62
     3
100
AcDbLeader
  3
ISO-25
 76
     3
 10
1634.2638233562
 20
1607.6053730609
 30
0.0
 10
1571.0
 20
1660.0
 30
0.0
 10
1434.0
 20
1660.0
 30
0.0
1001
ACAD
1000
DSTYLE
1002
{
1070
     5
1000
EX_NORM
1070
    41
1040
30.0
1070
   341
1005
4E
1002
}
  0
POLYLINE
  5
674
330
1F
100
AcDbEntity
  8
寸法
  6
CONTINUOUS
 62
     3
100
AcDb2dPolyline
 66
     1
 10
0.0
 20
0.0
 30
0.0
 70
   128
  0
VERTEX
  5
675
330
674
100
AcDbEntity
  8
寸法
  6
CONTINUOUS
 62
     3
100
AcDbVertex
100
AcDb2dVertex
 10
1728.0
 20
1565.4775
 30
0.0
  0
VERTEX
  5
676
330
674
100
AcDbEntity
  8
寸法
  6
CONTINUOUS
 62
     3
100
AcDbVertex
100
AcDb2dVertex
 10
1766.0
 20
1608.0
 30
0.0
  0
VERTEX
  5
677
330
674
100
AcDbEntity
  8
寸法
  6
CONTINUOUS
 62
     3
100
AcDbVertex
100
AcDb2dVertex
 10
1894.3759155
 20
1608.0
 30
0.0
  0
SEQEND
  5
678
330
674
100
AcDbEntity
  8
寸法
  6
CONTINUOUS
 62
     3
  0
LINE
  5
679
330
1F
100
AcDbEntity
  8
寸法
  6
CONTINUOUS
 62
     3
100
AcDbLine
 10
1744.262042254771
 20
1591.178589115134
 30
0.0
 11
1728.0
 21
1565.4775
 31
0.0
  0
LINE
  5
67A
330
1F
100
AcDbEntity
  8
寸法
  6
CONTINUOUS
 62
     3
100
AcDbLine
 10
1728.0
 20
1565.4775
 30
0.0
 11
1751.718501305367
 21
1584.515165188444
 31
0.0
  0
LEADER
  5
67B
330
1F
100
AcDbEntity
  8
寸法
  6
CONTINUOUS
 62
     3
100
AcDbLeader
  3
ISO-25
 76
     3
 10
533.8096794242637
 20
1442.477980011701
 30
0.0
 10
511.0000000000004
 20
1554.897114317
 30
0.0
 10
277.3839745962204
 20
1554.897114317
 30
0.0
1001
ACAD
1000
DSTYLE
1002
{
1070
     5
1000
EX_NORM
1070
    41
1040
30.0
1070
   341
1005
4E
1002
}
  0
LINE
  5
67C
330
1F
100
AcDbEntity
  8
寸法
  6
CONTINUOUS
 62
     3
100
AcDbLine
 10
1726.999999880791
 20
555.0
 30
0.0
 11
1849.0
 21
555.0
 31
0.0
  0
DIMENSION
  5
67D
330
1F
100
AcDbEntity
  8
寸法
  6
CONTINUOUS
 62
     3
100
AcDbDimension
  2
*D26
 10
1839.0
 20
975.0
 30
0.0
 11
1815.500000059605
 21
765.0
 31
0.0
 70
   160
  3
ISO-25
100
AcDbAlignedDimension
 13
1720.0
 23
555.0
 33
0.0
 14
1764.0
 24
975.0
 34
0.0
 50
90.0
100
AcDbRotatedDimension
1001
ACAD
1000
DSTYLE
1002
{
1070
   270
1070
     2
1070
     6
1000
EX_NORM
1070
     7
1000
EX_NORM
1070
    41
1040
30.0
1070
    42
1040
6.99999988079071
1070
    44
1040
10.0
1070
    73
1070
     0
1070
    74
1070
     0
1070
    75
1070
     1
1070
    76
1070
     0
1070
    77
1070
     1
1070
    78
1070
     0
1070
   140
1040
40.0
1070
   147
1040
0.0
1070
   173
1070
     1
1070
   176
1070
     3
1070
   177
1070
     3
1070
   178
1070
     2
1070
   271
1070
     0
1070
   277
1070
     2
1070
   279
1070
     2
1070
   280
1070
     0
1070
   287
1070
     5
1070
   340
1005
5E3
1002
}
  0
TEXT
  5
689
330
1F
100
AcDbEntity
  8
寸法
  6
CONTINUOUS
 62
     2
100
AcDbText
 10
1179.4251308715
 20
978.3901978000001
 30
0.0
 40
40.0
  1
ＮＬ３ＡＰ１９０Ｔ１
 41
0.9194915254237289
  7
EXCADSTD
 72
     5
 11
1489.4251308715
 21
978.3901978000001
 31
0.0
100
AcDbText
  0
TEXT
  5
68A
330
1F
100
AcDbEntity
  8
寸法
  6
CONTINUOUS
 62
     2
100
AcDbText
 10
1441.0
 20
1663.5
 30
0.0
 40
40.0
  1
Ｋ１１１
 41
0.9891304347826085
  7
EXCADSTD
 72
     5
 11
1571.0
 21
1663.5
 31
0.0
100
AcDbText
  0
TEXT
  5
68B
330
1F
100
AcDbEntity
  8
寸法
  6
CONTINUOUS
 62
     2
100
AcDbText
 10
278.0
 20
558.5
 30
0.0
 40
40.0
  1
Ｆ.Ｌ.
 41
0.9692307692307692
  7
EXCADSTD
 72
     5
 11
374.0
 21
558.5
 31
0.0
100
AcDbText
  0
TEXT
  5
68C
330
1F
100
AcDbEntity
  8
寸法
  6
CONTINUOUS
 62
     2
100
AcDbText
 10
283.5082918572002
 20
1559.938893529
 30
0.0
 40
40.0
  1
ＮＴ７ＣＢＷ１
 41
0.9390243902439025
  7
EXCADSTD
 72
     5
 11
503.5082918572002
 21
1559.938893529
 31
0.0
100
AcDbText
  0
TEXT
  5
68D
330
1F
100
AcDbEntity
  8
寸法
  6
CONTINUOUS
 62
     2
100
AcDbText
 10
281.0000000000003
 20
2438.5
 30
0.0
 40
40.0
  1
Ｗ.Ｌ.
 41
0.9692307692307692
  7
EXCADSTD
 72
     5
 11
377.0000000000003
 21
2438.5
 31
0.0
100
AcDbText
  0
TEXT
  5
68E
330
1F
100
AcDbEntity
  8
寸法
  6
CONTINUOUS
 62
     2
100
AcDbText
 10
1716.5
 20
1839.9
 30
0.0
 40
40.0
  1
Ｗ.Ｌ.
 50
90.0
 41
0.9692307692307692
  7
EXCADSTD
 72
     5
 11
1716.5
 21
1935.9
 31
0.0
100
AcDbText
  0
TEXT
  5
68F
330
1F
100
AcDbEntity
  8
寸法
  6
CONTINUOUS
 62
     2
100
AcDbText
 10
1869.6246338
 20
1611.9465332
 30
0.0
 40
25.0
  1
２
 41
1.321599999999995
  7
EXCADSTD
 72
     5
 11
1893.2246338
 21
1611.9465332
 31
0.0
100
AcDbText
  0
TEXT
  5
690
330
1F
100
AcDbEntity
  8
寸法
  6
CONTINUOUS
 62
     2
100
AcDbText
 10
1834.3656921
 20
1629.5306092
 30
0.0
 40
25.0
  1
１
 41
1.321599999999995
  7
EXCADSTD
 72
     5
 11
1857.9656921
 21
1629.5306092
 31
0.0
100
AcDbText
  0
TEXT
  5
691
330
1F
100
AcDbEntity
  8
寸法
  6
CONTINUOUS
 62
     6
100
AcDbText
 10
1845.9593201
 20
1614.1076355
 30
0.0
 40
40.0
  1
／
 41
1.321599914550783
  7
EXCADSTD
 72
     5
 11
1883.719317658594
 21
1614.1076355
 31
0.0
100
AcDbText
  0
TEXT
  5
692
330
1F
100
AcDbEntity
  8
寸法
  6
CONTINUOUS
 62
     2
100
AcDbText
 10
1767.0944824
 20
1613.0
 30
0.0
 40
40.0
  1
ＰＪ
 41
1.049923636363638
  7
EXCADSTD
 72
     5
 11
1833.0896824
 21
1613.0
 31
0.0
100
AcDbText
  0
TEXT
  5
693
330
1F
100
AcDbEntity
  8
寸法
  6
CONTINUOUS
 62
     2
100
AcDbText
 10
1337.897305461
 20
674.7489938569599
 30
0.0
 40
40.0
  1
ＮＬ３ＡＳＴ２
 41
0.9390243902439025
  7
EXCADSTD
 72
     5
 11
1557.897305461
 21
674.7489938569599
 31
0.0
100
AcDbText
  0
DIMENSION
  5
694
330
1F
100
AcDbEntity
  8
寸法
  6
CONTINUOUS
 62
     3
100
AcDbDimension
  2
*D27
 10
1042.5
 20
555.0
 30
0.0
 11
1019.000000059605
 21
1055.0
 31
0.0
 70
   160
  3
ISO-25
100
AcDbAlignedDimension
 13
721.9
 23
1555.0
 33
0.0
 14
1042.5
 24
555.0
 34
0.0
 50
90.0
100
AcDbRotatedDimension
1001
ACAD
1000
DSTYLE
1002
{
1070
   270
1070
     2
1070
     6
1000
EX_NORM
1070
     7
1000
EX_NORM
1070
    41
1040
30.0
1070
    42
1040
6.99999988079071
1070
    44
1040
10.0
1070
    73
1070
     0
1070
    74
1070
     0
1070
    75
1070
     0
1070
    76
1070
     1
1070
    77
1070
     1
1070
    78
1070
     0
1070
   140
1040
40.0
1070
   147
1040
0.0
1070
   173
1070
     1
1070
   176
1070
     3
1070
   177
1070
     3
1070
   178
1070
     2
1070
   271
1070
     0
1070
   277
1070
     2
1070
   279
1070
     2
1070
   280
1070
     0
1070
   287
1070
     5
1070
   340
1005
5E3
1002
}
  0
POLYLINE
  5
6A0
330
1F
100
AcDbEntity
  8
寸法
  6
CONTINUOUS
 62
     3
100
AcDb2dPolyline
 66
     1
 10
0.0
 20
0.0
 30
0.0
 70
   128
  0
VERTEX
  5
6A1
330
6A0
100
AcDbEntity
  8
寸法
  6
CONTINUOUS
 62
     3
100
AcDbVertex
100
AcDb2dVertex
 10
1735.000000000007
 20
1000.499999999999
 30
0.0
  0
VERTEX
  5
6A2
330
6A0
100
AcDbEntity
  8
寸法
  6
CONTINUOUS
 62
     3
100
AcDbVertex
100
AcDb2dVertex
 10
1746.3012685381
 20
1046.5659053139
 30
0.0
  0
VERTEX
  5
6A3
330
6A0
100
AcDbEntity
  8
寸法
  6
CONTINUOUS
 62
     3
100
AcDbVertex
100
AcDb2dVertex
 10
1936.3771079348
 20
1046.5659053139
 30
0.0
  0
SEQEND
  5
6A4
330
6A0
100
AcDbEntity
  8
寸法
  6
CONTINUOUS
 62
     3
  0
LINE
  5
6A5
330
1F
100
AcDbEntity
  8
寸法
  6
CONTINUOUS
 62
     3
100
AcDbLine
 10
1737.29188587046
 20
1030.827335180604
 30
0.0
 11
1735.000000000007
 21
1000.499999999999
 31
0.0
  0
LINE
  5
6A6
330
1F
100
AcDbEntity
  8
寸法
  6
CONTINUOUS
 62
     3
100
AcDbLine
 10
1735.000000000007
 20
1000.499999999999
 30
0.0
 11
1747.00389263874
 21
1028.444705429074
 31
0.0
  0
LEADER
  5
6A7
330
1F
100
AcDbEntity
  8
寸法
  6
CONTINUOUS
 62
     3
100
AcDbLeader
  3
ISO-25
 76
     3
 10
1574.124999999998
 20
923.543673688077
 30
0.0
 10
1485.0
 20
975.0000000000003
 30
0.0
 10
1174.9978963583
 20
975.0000000000003
 30
0.0
1001
ACAD
1000
DSTYLE
1002
{
1070
     5
1000
EX_NORM
1070
    41
1040
30.0
1070
   341
1005
4E
1002
}
  0
ENDSEC
  0
SECTION
  2
OBJECTS
  0
DICTIONARY
  5
C
330
0
100
AcDbDictionary
  3
ACAD_GROUP
350
D
  3
ACAD_LAYOUT
350
1A
  3
ACAD_MATERIAL
350
3B
  3
ACAD_MLEADERSTYLE
350
6CA
  3
ACAD_MLINESTYLE
350
17
  3
ACAD_PLOTSETTINGS
350
19
  3
ACAD_VISUALSTYLE
350
2A
  3
ACDBHEADERROUNDTRIPXREC
350
6A8
  3
ACDBVARIABLEDICTIONARY
350
6C8
  0
DICTIONARY
  5
D
102
{ACAD_REACTORS
330
C
102
}
330
C
100
AcDbDictionary
  0
DICTIONARY
  5
1A
102
{ACAD_REACTORS
330
C
102
}
330
C
100
AcDbDictionary
  0
DICTIONARY
  5
3B
102
{ACAD_REACTORS
330
C
102
}
330
C
100
AcDbDictionary
  3
BYBLOCK
350
3D
  3
BYLAYER
350
3C
  3
GLOBAL
350
3E
  0
DICTIONARY
  5
6CA
102
{ACAD_REACTORS
330
C
102
}
330
C
100
AcDbDictionary
  0
DICTIONARY
  5
17
102
{ACAD_REACTORS
330
C
102
}
330
C
100
AcDbDictionary
  3
STANDARD
350
18
  0
DICTIONARY
  5
19
102
{ACAD_REACTORS
330
C
102
}
330
C
100
AcDbDictionary
  0
DICTIONARY
  5
2A
102
{ACAD_REACTORS
330
C
102
}
330
C
100
AcDbDictionary
  3
2DWIREFRAME
350
2F
  3
3D_HIDDEN
350
31
  3
3DWIREFRAME
350
30
  3
BASIC
350
32
  3
BRIGHTEN
350
36
  3
COLORCHANGE
350
3A
  3
CONCEPTUAL
350
34
  3
DIM
350
35
  3
FACEPATTERN
350
39
  3
FLAT
350
2B
  3
FLATWITHEDGES
350
2C
  3
GOURAUD
350
2D
  3
GOURAUDWITHEDGES
350
2E
  3
LINEPATTERN
350
38
  3
REALISTIC
350
33
  3
THICKEN
350
37
  0
DICTIONARY
  5
6A8
102
{ACAD_REACTORS
330
C
102
}
330
C
100
AcDbDictionary
  3
CEPSNTYPE
350
6B1
  3
DIMSTYLEDATA
350
6C7
  3
FINGERPRINTGUID
350
6B2
  3
HYPERLINKBASE
350
6AB
  3
INSUNITS
350
6B0
  3
LAYOUTDICT
350
6AD
  3
LWETCUNION
350
6AF
  3
PLOTSETDICT
350
6AE
  3
PSVPSCALE
350
6B4
  3
PUCSBASE
350
6B7
  3
PUCSORGBACK
350
6BD
  3
PUCSORGBOTTOM
350
6B9
  3
PUCSORGFRONT
350
6BC
  3
PUCSORGLEFT
350
6BA
  3
PUCSORGRIGHT
350
6BB
  3
PUCSORGTOP
350
6B8
  3
PUCSORTHOREF
350
6B5
  3
PUCSORTHOVIEW
350
6B6
  3
STYLESHEET
350
6AC
  3
TSTACKALIGN
350
6A9
  3
TSTACKSIZE
350
6AA
  3
UCSBASE
350
6C0
  3
UCSORGBACK
350
6C6
  3
UCSORGBOTTOM
350
6C2
  3
UCSORGFRONT
350
6C5
  3
UCSORGLEFT
350
6C3
  3
UCSORGRIGHT
350
6C4
  3
UCSORGTOP
350
6C1
  3
UCSORTHOREF
350
6BE
  3
UCSORTHOVIEW
350
6BF
  3
VERSIONGUID
350
6B3
  0
DICTIONARY
  5
6C8
102
{ACAD_REACTORS
330
C
102
}
330
C
100
AcDbDictionary
  3
DIMASSOC
350
6CD
  3
HIDETEXT
350
6CE
  3
PSOLHEIGHT
350
6CC
  3
PSOLWIDTH
350
6CB
  0
MATERIAL
  5
3D
102
{ACAD_REACTORS
330
3B
102
}
102
{ACAD_XDICTIONARY
360
6D1
102
}
330
3B
100
AcDbMaterial
  1
ByBlock
  0
MATERIAL
  5
3C
102
{ACAD_REACTORS
330
3B
102
}
102
{ACAD_XDICTIONARY
360
6CF
102
}
330
3B
100
AcDbMaterial
  1
ByLayer
  0
MATERIAL
  5
3E
102
{ACAD_REACTORS
330
3B
102
}
102
{ACAD_XDICTIONARY
360
6D3
102
}
330
3B
100
AcDbMaterial
  1
Global
  0
MLINESTYLE
  5
18
102
{ACAD_REACTORS
330
17
102
}
330
17
100
AcDbMlineStyle
  2
Standard
 70
     0
  3

 62
   256
 51
90.0
 52
90.0
 71
     2
 49
0.5
 62
   256
  6
BYLAYER
 49
-0.5
 62
   256
  6
BYLAYER
  0
ACAD_PROXY_OBJECT
  5
2F
102
{ACAD_REACTORS
330
2A
102
}
330
2A
100
AcDbProxyObject
 90
      499
 91
      501
 93
      436
310
42CC9915DA5C99599C985B595049028333333333333E3BF0000000000000FB0107901411070040501600405405064090741402480A0340
1001
ACAD
1000
AcDbSavedByObjectVersion
1070
     0
  0
ACAD_PROXY_OBJECT
  5
31
102
{ACAD_REACTORS
330
2A
102
}
330
2A
100
AcDbProxyObject
 90
      499
 91
      501
 93
      500
310
424CD108121A5919195B90640502408333333333333E3BF0000000000000FB01079024090700405020000000000001110200405405064090740C02480A0340
1001
ACAD
1000
AcDbSavedByObjectVersion
1070
     0
  0
ACAD_PROXY_OBJECT
  5
30
102
{ACAD_REACTORS
330
2A
102
}
330
2A
100
AcDbProxyObject
 90
      499
 91
      501
 93
      436
310
42CCD915DA5C99599C985B595059028333333333333E3BF0000000000000FB0107901411070040501600405405064090741402480A0340
1001
ACAD
1000
AcDbSavedByObjectVersion
1070
     0
  0
ACAD_PROXY_OBJECT
  5
32
102
{ACAD_REACTORS
330
2A
102
}
330
2A
100
AcDbProxyObject
 90
      499
 91
      501
 93
      388
310
4150985CDA58D07406404333333333333E3BF0000000000000FB0107A41107004050150841D405064090741402480A0350
1001
ACAD
1000
AcDbSavedByObjectVersion
1070
     0
  0
ACAD_PROXY_OBJECT
  5
36
102
{ACAD_REACTORS
330
2A
102
}
330
2A
100
AcDbProxyObject
 90
      499
 91
      501
 93
      428
310
42109C9A59DA1D195B90C409028333333333333E3BF0000000000000FB010790141107004050150841D405064090741402480A029950
1001
ACAD
1000
AcDbSavedByObjectVersion
1070
     0
  0
ACAD_PROXY_OBJECT
  5
3A
102
{ACAD_REACTORS
330
2A
102
}
330
2A
100
AcDbProxyObject
 90
      499
 91
      501
 93
      452
310
42D0DBDB1BDC90DA185B99D95104090240C333333333333E3BF0000000000000FB0108901411070040501508421405064090741402480A0350
1001
ACAD
1000
AcDbSavedByObjectVersion
1070
     0
  0
ACAD_PROXY_OBJECT
  5
34
102
{ACAD_REACTORS
330
2A
102
}
330
2A
100
AcDbProxyObject
 90
      499
 91
      501
 93
      500
310
4290DBDB98D95C1D1D585B10940D028333333333333E3BF0000000000000FB0107902409070040501000000000000111010841D405064090740C02480A0340
1001
ACAD
1000
AcDbSavedByObjectVersion
1070
     0
  0
ACAD_PROXY_OBJECT
  5
35
102
{ACAD_REACTORS
330
2A
102
}
330
2A
100
AcDbProxyObject
 90
      499
 91
      501
 93
      412
310
40D11A5B50B409028333333333333E3BF0000000000000FB010790141107004050150841D405064090741402480A02677FFFFFD0
1001
ACAD
1000
AcDbSavedByObjectVersion
1070
     0
  0
ACAD_PROXY_OBJECT
  5
39
102
{ACAD_REACTORS
330
2A
102
}
330
2A
100
AcDbProxyObject
 90
      499
 91
      501
 93
      444
310
42D19858D95C185D1D195C9B90F409028333333333333E3BF0000000000000FB010790141107004050150841D405064090741402480A0350
1001
ACAD
1000
AcDbSavedByObjectVersion
1070
     0
  0
ACAD_PROXY_OBJECT
  5
2B
102
{ACAD_REACTORS
330
2A
102
}
330
2A
100
AcDbProxyObject
 90
      499
 91
      501
 93
      388
310
41119B185D240901404333333333333E3BF0000000000000F9010740A41107004050150841D405064090741402480A1B50
1001
ACAD
1000
AcDbSavedByObjectVersion
1070
     0
  0
ACAD_PROXY_OBJECT
  5
2C
102
{ACAD_REACTORS
330
2A
102
}
330
2A
100
AcDbProxyObject
 90
      499
 91
      501
 93
      476
310
43519B185D15DA5D1A115919D95CD0140901404333333333333E3BF0000000000000F9010740901411070040501600405405064090741402480A1B50
1001
ACAD
1000
AcDbSavedByObjectVersion
1070
     0
  0
ACAD_PROXY_OBJECT
  5
2D
102
{ACAD_REACTORS
330
2A
102
}
330
2A
100
AcDbProxyObject
 90
      499
 91
      501
 93
      412
310
41D1DBDD5C985D5910240902404333333333333E3BF0000000000000F9010740A411070040501641D405064090741402480A1B50
1001
ACAD
1000
AcDbSavedByObjectVersion
1070
     0
  0
ACAD_PROXY_OBJECT
  5
2E
102
{ACAD_REACTORS
330
2A
102
}
330
2A
100
AcDbProxyObject
 90
      499
 91
      501
 93
      500
310
4411DBDD5C985D5915DA5D1A115919D95CD0340902404333333333333E3BF0000000000000F9010740901411070040501600405405064090741402480A1B50
1001
ACAD
1000
AcDbSavedByObjectVersion
1070
     0
  0
ACAD_PROXY_OBJECT
  5
38
102
{ACAD_REACTORS
330
2A
102
}
330
2A
100
AcDbProxyObject
 90
      499
 91
      501
 93
      444
310
42D31A5B995C185D1D195C9B90E409028333333333333E3BF0000000000000FB010790141107004050750841D405064090741402483A0350
1001
ACAD
1000
AcDbSavedByObjectVersion
1070
     0
  0
ACAD_PROXY_OBJECT
  5
33
102
{ACAD_REACTORS
330
2A
102
}
330
2A
100
AcDbProxyObject
 90
      499
 91
      501
 93
      420
310
425499585B1A5CDD1A58D08409028333333333333E3BF0000000000000FB01079019070040501508421405064090741402480A1B40
1001
ACAD
1000
AcDbSavedByObjectVersion
1070
     0
  0
ACAD_PROXY_OBJECT
  5
37
102
{ACAD_REACTORS
330
2A
102
}
330
2A
100
AcDbProxyObject
 90
      499
 91
      501
 93
      412
310
41D51A1A58DAD95B90D409028333333333333E3BF0000000000000FB010790141107004050150C41D405064090741402480A0350
1001
ACAD
1000
AcDbSavedByObjectVersion
1070
     0
  0
XRECORD
  5
6B1
102
{ACAD_REACTORS
330
6A8
102
}
330
6A8
100
AcDbXrecord
 90
        0
  0
XRECORD
  5
6C7
102
{ACAD_REACTORS
330
6A8
102
}
330
6A8
100
AcDbXrecord
1000
DSTYLE
1002
{
1070
   340
340
11
1002
}
  0
XRECORD
  5
6B2
102
{ACAD_REACTORS
330
6A8
102
}
330
6A8
100
AcDbXrecord
  1
{DD2EAD2B-C7A7-4F01-B60B-AC43711E96DA}
  0
XRECORD
  5
6AB
102
{ACAD_REACTORS
330
6A8
102
}
330
6A8
100
AcDbXrecord
  1

  0
XRECORD
  5
6B0
102
{ACAD_REACTORS
330
6A8
102
}
330
6A8
100
AcDbXrecord
 90
        4
  0
XRECORD
  5
6AD
102
{ACAD_REACTORS
330
6A8
102
}
330
6A8
100
AcDbXrecord
340
1A
  0
XRECORD
  5
6AF
102
{ACAD_REACTORS
330
6A8
102
}
330
6A8
100
AcDbXrecord
 90
    10781
  0
XRECORD
  5
6AE
102
{ACAD_REACTORS
330
6A8
102
}
330
6A8
100
AcDbXrecord
340
19
  0
XRECORD
  5
6B4
102
{ACAD_REACTORS
330
6A8
102
}
330
6A8
100
AcDbXrecord
 40
0.0
  0
XRECORD
  5
6B7
102
{ACAD_REACTORS
330
6A8
102
}
330
6A8
100
AcDbXrecord
340
0
  0
XRECORD
  5
6BD
102
{ACAD_REACTORS
330
6A8
102
}
330
6A8
100
AcDbXrecord
 10
0.0
 20
0.0
 30
0.0
  0
XRECORD
  5
6B9
102
{ACAD_REACTORS
330
6A8
102
}
330
6A8
100
AcDbXrecord
 10
0.0
 20
0.0
 30
0.0
  0
XRECORD
  5
6BC
102
{ACAD_REACTORS
330
6A8
102
}
330
6A8
100
AcDbXrecord
 10
0.0
 20
0.0
 30
0.0
  0
XRECORD
  5
6BA
102
{ACAD_REACTORS
330
6A8
102
}
330
6A8
100
AcDbXrecord
 10
0.0
 20
0.0
 30
0.0
  0
XRECORD
  5
6BB
102
{ACAD_REACTORS
330
6A8
102
}
330
6A8
100
AcDbXrecord
 10
0.0
 20
0.0
 30
0.0
  0
XRECORD
  5
6B8
102
{ACAD_REACTORS
330
6A8
102
}
330
6A8
100
AcDbXrecord
 10
0.0
 20
0.0
 30
0.0
  0
XRECORD
  5
6B5
102
{ACAD_REACTORS
330
6A8
102
}
330
6A8
100
AcDbXrecord
340
0
  0
XRECORD
  5
6B6
102
{ACAD_REACTORS
330
6A8
102
}
330
6A8
100
AcDbXrecord
 70
     0
  0
XRECORD
  5
6AC
102
{ACAD_REACTORS
330
6A8
102
}
330
6A8
100
AcDbXrecord
  1

  0
XRECORD
  5
6A9
102
{ACAD_REACTORS
330
6A8
102
}
330
6A8
100
AcDbXrecord
 90
        1
  0
XRECORD
  5
6AA
102
{ACAD_REACTORS
330
6A8
102
}
330
6A8
100
AcDbXrecord
 90
       70
  0
XRECORD
  5
6C0
102
{ACAD_REACTORS
330
6A8
102
}
330
6A8
100
AcDbXrecord
340
0
  0
XRECORD
  5
6C6
102
{ACAD_REACTORS
330
6A8
102
}
330
6A8
100
AcDbXrecord
 10
0.0
 20
0.0
 30
0.0
  0
XRECORD
  5
6C2
102
{ACAD_REACTORS
330
6A8
102
}
330
6A8
100
AcDbXrecord
 10
0.0
 20
0.0
 30
0.0
  0
XRECORD
  5
6C5
102
{ACAD_REACTORS
330
6A8
102
}
330
6A8
100
AcDbXrecord
 10
0.0
 20
0.0
 30
0.0
  0
XRECORD
  5
6C3
102
{ACAD_REACTORS
330
6A8
102
}
330
6A8
100
AcDbXrecord
 10
0.0
 20
0.0
 30
0.0
  0
XRECORD
  5
6C4
102
{ACAD_REACTORS
330
6A8
102
}
330
6A8
100
AcDbXrecord
 10
0.0
 20
0.0
 30
0.0
  0
XRECORD
  5
6C1
102
{ACAD_REACTORS
330
6A8
102
}
330
6A8
100
AcDbXrecord
 10
0.0
 20
0.0
 30
0.0
  0
XRECORD
  5
6BE
102
{ACAD_REACTORS
330
6A8
102
}
330
6A8
100
AcDbXrecord
340
0
  0
XRECORD
  5
6BF
102
{ACAD_REACTORS
330
6A8
102
}
330
6A8
100
AcDbXrecord
 70
     0
  0
XRECORD
  5
6B3
102
{ACAD_REACTORS
330
6A8
102
}
330
6A8
100
AcDbXrecord
  1
{FAEB1C32-E019-11D5-929B-00C0DF256EC4}
  0
DICTIONARYVAR
  5
6CD
102
{ACAD_REACTORS
330
6C8
102
}
330
6C8
100
DictionaryVariables
280
     0
  1
2
  0
DICTIONARYVAR
  5
6CE
102
{ACAD_REACTORS
330
6C8
102
}
330
6C8
100
DictionaryVariables
280
     0
  1
1
  0
DICTIONARYVAR
  5
6CC
102
{ACAD_REACTORS
330
6C8
102
}
330
6C8
100
DictionaryVariables
280
     0
  1
80.000000
  0
DICTIONARYVAR
  5
6CB
102
{ACAD_REACTORS
330
6C8
102
}
330
6C8
100
DictionaryVariables
280
     0
  1
5.000000
  0
DICTIONARY
  5
6D1
330
3D
100
AcDbDictionary
280
     1
  3
ACAD_XREC_ROUNDTRIP
360
6D2
  0
DICTIONARY
  5
6CF
330
3C
100
AcDbDictionary
280
     1
  3
ACAD_XREC_ROUNDTRIP
360
6D0
  0
DICTIONARY
  5
6D3
330
3E
100
AcDbDictionary
280
     1
  3
ACAD_XREC_ROUNDTRIP
360
6D4
  0
XRECORD
  5
6D2
102
{ACAD_REACTORS
330
6D1
102
}
330
6D1
100
AcDbXrecord
102
MATERIAL
148
0.0
149
0.0
149
0.0
 93
        0
 94
      127
282
     0
 72
     1
 77
     1
171
     1
175
     1
179
     1
273
     0
  0
XRECORD
  5
6D0
102
{ACAD_REACTORS
330
6CF
102
}
330
6CF
100
AcDbXrecord
102
MATERIAL
148
0.0
149
0.0
149
0.0
 93
        0
 94
      127
282
     0
 72
     1
 77
     1
171
     1
175
     1
179
     1
273
     0
  0
XRECORD
  5
6D4
102
{ACAD_REACTORS
330
6D3
102
}
330
6D3
100
AcDbXrecord
102
MATERIAL
148
0.0
149
0.0
149
0.0
 93
        0
 94
      127
282
     0
 72
     1
 77
     1
171
     1
175
     1
179
     1
273
     0
  0
ENDSEC
  0
EOF
