  0
SECTION
  2
HEADER
  9
$ACADVER
  1
AC1014
  9
$ACADMAINTVER
 70
     9
  9
$DWGCODEPAGE
  3
ANSI_932
  9
$INSBASE
 10
0.0
 20
0.0
 30
0.0
  9
$EXTMIN
 10
-0.3999999999999895
 20
10.0
 30
0.0
  9
$EXTMAX
 10
198.0
 20
286.0
 30
0.0
  9
$LIMMIN
 10
0.0
 20
0.0
  9
$LIMMAX
 10
210.0
 20
297.0
  9
$ORTHOMODE
 70
     0
  9
$REGENMODE
 70
     1
  9
$FILLMODE
 70
     1
  9
$QTEXTMODE
 70
     0
  9
$MIRRTEXT
 70
     1
  9
$DRAGMODE
 70
     2
  9
$LTSCALE
 40
1.0
  9
$OSMODE
 70
    37
  9
$ATTMODE
 70
     1
  9
$TEXTSIZE
 40
2.5
  9
$TRACEWID
 40
1.0
  9
$TEXTSTYLE
  7
STANDARD
  9
$CLAYER
  8
LAY-2
  9
$CELTYPE
  6
BYLAYER
  9
$CECOLOR
 62
   256
  9
$CELTSCALE
 40
1.0
  9
$DELOBJ
 70
     1
  9
$DISPSILH
 70
     0
  9
$DIMSCALE
 40
1.0
  9
$DIMASZ
 40
2.5
  9
$DIMEXO
 40
0.625
  9
$DIMDLI
 40
3.75
  9
$DIMRND
 40
0.0
  9
$DIMDLE
 40
0.0
  9
$DIMEXE
 40
1.25
  9
$DIMTP
 40
0.0
  9
$DIMTM
 40
0.0
  9
$DIMTXT
 40
2.5
  9
$DIMCEN
 40
2.5
  9
$DIMTSZ
 40
0.0
  9
$DIMTOL
 70
     0
  9
$DIMLIM
 70
     0
  9
$DIMTIH
 70
     0
  9
$DIMTOH
 70
     0
  9
$DIMSE1
 70
     0
  9
$DIMSE2
 70
     0
  9
$DIMTAD
 70
     1
  9
$DIMZIN
 70
     8
  9
$DIMBLK
  1

  9
$DIMASO
 70
     1
  9
$DIMSHO
 70
     1
  9
$DIMPOST
  1

  9
$DIMAPOST
  1

  9
$DIMALT
 70
     0
  9
$DIMALTD
 70
     3
  9
$DIMALTF
 40
0.03937007874016
  9
$DIMLFAC
 40
1.0
  9
$DIMTOFL
 70
     1
  9
$DIMTVP
 40
0.0
  9
$DIMTIX
 70
     0
  9
$DIMSOXD
 70
     0
  9
$DIMSAH
 70
     0
  9
$DIMBLK1
  1

  9
$DIMBLK2
  1

  9
$DIMSTYLE
  2
ISO-25
  9
$DIMCLRD
 70
     0
  9
$DIMCLRE
 70
     0
  9
$DIMCLRT
 70
     0
  9
$DIMTFAC
 40
1.0
  9
$DIMGAP
 40
0.625
  9
$DIMJUST
 70
     0
  9
$DIMSD1
 70
     0
  9
$DIMSD2
 70
     0
  9
$DIMTOLJ
 70
     0
  9
$DIMTZIN
 70
     8
  9
$DIMALTZ
 70
     0
  9
$DIMALTTZ
 70
     0
  9
$DIMFIT
 70
     3
  9
$DIMUPT
 70
     0
  9
$DIMUNIT
 70
     2
  9
$DIMDEC
 70
     2
  9
$DIMTDEC
 70
     2
  9
$DIMALTU
 70
     2
  9
$DIMALTTD
 70
     3
  9
$DIMTXSTY
  7
STANDARD
  9
$DIMAUNIT
 70
     0
  9
$LUNITS
 70
     2
  9
$LUPREC
 70
     4
  9
$SKETCHINC
 40
1.0
  9
$FILLETRAD
 40
10.0
  9
$AUNITS
 70
     0
  9
$AUPREC
 70
     0
  9
$MENU
  1
.
  9
$ELEVATION
 40
0.0
  9
$PELEVATION
 40
0.0
  9
$THICKNESS
 40
0.0
  9
$LIMCHECK
 70
     0
  9
$CHAMFERA
 40
10.0
  9
$CHAMFERB
 40
10.0
  9
$CHAMFERC
 40
20.0
  9
$CHAMFERD
 40
0.0
  9
$SKPOLY
 70
     0
  9
$TDCREATE
 40
2459769.614363958
  9
$TDUPDATE
 40
2459769.614364746
  9
$TDINDWG
 40
0.0000000116
  9
$TDUSRTIMER
 40
0.0000000116
  9
$USRTIMER
 70
     1
  9
$ANGBASE
 50
0.0
  9
$ANGDIR
 70
     0
  9
$PDMODE
 70
     0
  9
$PDSIZE
 40
0.0
  9
$PLINEWID
 40
0.0
  9
$COORDS
 70
     1
  9
$SPLFRAME
 70
     0
  9
$SPLINETYPE
 70
     6
  9
$SPLINESEGS
 70
     8
  9
$ATTDIA
 70
     0
  9
$ATTREQ
 70
     1
  9
$HANDLING
 70
     1
  9
$HANDSEED
  5
36D
  9
$SURFTAB1
 70
     6
  9
$SURFTAB2
 70
     6
  9
$SURFTYPE
 70
     6
  9
$SURFU
 70
     6
  9
$SURFV
 70
     6
  9
$UCSNAME
  2

  9
$UCSORG
 10
0.0
 20
0.0
 30
0.0
  9
$UCSXDIR
 10
1.0
 20
0.0
 30
0.0
  9
$UCSYDIR
 10
0.0
 20
1.0
 30
0.0
  9
$PUCSNAME
  2

  9
$PUCSORG
 10
0.0
 20
0.0
 30
0.0
  9
$PUCSXDIR
 10
1.0
 20
0.0
 30
0.0
  9
$PUCSYDIR
 10
0.0
 20
1.0
 30
0.0
  9
$USERI1
 70
     0
  9
$USERI2
 70
     0
  9
$USERI3
 70
     0
  9
$USERI4
 70
     0
  9
$USERI5
 70
     0
  9
$USERR1
 40
0.0
  9
$USERR2
 40
0.0
  9
$USERR3
 40
0.0
  9
$USERR4
 40
0.0
  9
$USERR5
 40
0.0
  9
$WORLDVIEW
 70
     1
  9
$SHADEDGE
 70
     3
  9
$SHADEDIF
 70
    70
  9
$TILEMODE
 70
     1
  9
$MAXACTVP
 70
    64
  9
$PINSBASE
 10
0.0
 20
0.0
 30
0.0
  9
$PLIMCHECK
 70
     0
  9
$PEXTMIN
 10
1.000000000000000E+20
 20
1.000000000000000E+20
 30
1.000000000000000E+20
  9
$PEXTMAX
 10
-1.000000000000000E+20
 20
-1.000000000000000E+20
 30
-1.000000000000000E+20
  9
$PLIMMIN
 10
0.0
 20
0.0
  9
$PLIMMAX
 10
420.0
 20
297.0
  9
$UNITMODE
 70
     0
  9
$VISRETAIN
 70
     1
  9
$PLINEGEN
 70
     0
  9
$PSLTSCALE
 70
     1
  9
$TREEDEPTH
 70
  3020
  9
$PICKSTYLE
 70
     1
  9
$CMLSTYLE
  2
STANDARD
  9
$CMLJUST
 70
     0
  9
$CMLSCALE
 40
20.0
  9
$PROXYGRAPHICS
 70
     1
  9
$MEASUREMENT
 70
     1
  0
ENDSEC
  0
SECTION
  2
CLASSES
  0
CLASS
  1
ACDBDICTIONARYWDFLT
  2
AcDbDictionaryWithDefault
  3
ObjectDBX Classes
 90
        0
280
     0
281
     0
  0
CLASS
  1
VISUALSTYLE
  2
AcDbVisualStyle
  3
ObjectDBX Classes
 90
     4095
280
     0
281
     0
  0
CLASS
  1
MATERIAL
  2
AcDbMaterial
  3
ObjectDBX Classes
 90
     1153
280
     0
281
     0
  0
CLASS
  1
SUN
  2
AcDbSun
  3
SCENEOE
 90
     1024
280
     0
281
     0
  0
CLASS
  1
DICTIONARYVAR
  2
AcDbDictionaryVar
  3
ObjectDBX Classes
 90
        0
280
     0
281
     0
  0
CLASS
  1
XRECORD
  2
AcDbXrecord
  3
AutoCAD 2000
 90
        0
280
     0
281
     0
  0
CLASS
  1
LWPOLYLINE
  2
AcDbPolyline
  3
AutoCAD 2000
 90
        0
280
     0
281
     1
  0
CLASS
  1
HATCH
  2
AcDbHatch
  3
AutoCAD 2000
 90
        0
280
     0
281
     1
  0
CLASS
  1
ACDBPLACEHOLDER
  2
AcDbPlaceHolder
  3
ObjectDBX Classes
 90
        0
280
     0
281
     0
  0
CLASS
  1
LAYOUT
  2
AcDbLayout
  3
ObjectDBX Classes
 90
        0
280
     0
281
     0
  0
ENDSEC
  0
SECTION
  2
TABLES
  0
TABLE
  2
VPORT
  5
8
330
0
100
AcDbSymbolTable
 70
     1
  0
VPORT
  5
29
330
8
100
AcDbSymbolTableRecord
100
AcDbViewportTableRecord
  2
*ACTIVE
 70
     0
 10
0.0
 20
0.0
 11
1.0
 21
1.0
 12
197.6000000000001
 22
296.0
 13
0.0
 23
0.0
 14
10.0
 24
10.0
 15
10.0
 25
10.0
 16
0.0
 26
0.0
 36
1.0
 17
0.0
 27
0.0
 37
0.0
 40
552.0
 41
0.7188405797101449
 42
50.0
 43
0.0
 44
0.0
 50
0.0
 51
0.0
 71
     0
 72
  1000
 73
     1
 74
     3
 75
     0
 76
     0
 77
     0
 78
     0
  0
ENDTAB
  0
TABLE
  2
LTYPE
  5
5
330
0
100
AcDbSymbolTable
 70
     7
  0
LTYPE
  5
14
330
5
100
AcDbSymbolTableRecord
100
AcDbLinetypeTableRecord
  2
BYBLOCK
 70
     0
  3

 72
    65
 73
     0
 40
0.0
  0
LTYPE
  5
15
330
5
100
AcDbSymbolTableRecord
100
AcDbLinetypeTableRecord
  2
BYLAYER
 70
     0
  3

 72
    65
 73
     0
 40
0.0
  0
LTYPE
  5
16
330
5
100
AcDbSymbolTableRecord
100
AcDbLinetypeTableRecord
  2
CONTINUOUS
 70
     0
  3
Solid line
 72
    65
 73
     0
 40
0.0
  0
LTYPE
  5
40
330
5
100
AcDbSymbolTableRecord
100
AcDbLinetypeTableRecord
  2
EXLTYPE1
 70
     0
  3
破線
 72
    65
 73
     2
 40
3.0
 49
2.0
 74
     0
 49
-1.0
 74
     0
  0
LTYPE
  5
41
330
5
100
AcDbSymbolTableRecord
100
AcDbLinetypeTableRecord
  2
EXLTYPE2
 70
     0
  3
点線
 72
    65
 73
     2
 40
2.0
 49
1.0
 74
     0
 49
-1.0
 74
     0
  0
LTYPE
  5
42
330
5
100
AcDbSymbolTableRecord
100
AcDbLinetypeTableRecord
  2
EXLTYPE3
 70
     0
  3
一点鎖線
 72
    65
 73
     4
 40
10.0
 49
7.0
 74
     0
 49
-1.0
 74
     0
 49
1.0
 74
     0
 49
-1.0
 74
     0
  0
LTYPE
  5
43
330
5
100
AcDbSymbolTableRecord
100
AcDbLinetypeTableRecord
  2
EXLTYPE4
 70
     0
  3
二点鎖線
 72
    65
 73
     6
 40
12.0
 49
7.0
 74
     0
 49
-1.0
 74
     0
 49
1.0
 74
     0
 49
-1.0
 74
     0
 49
1.0
 74
     0
 49
-1.0
 74
     0
  0
LTYPE
  5
44
330
5
100
AcDbSymbolTableRecord
100
AcDbLinetypeTableRecord
  2
EXLTYPE5
 70
     0
  3
三点鎖線
 72
    65
 73
     8
 40
37.0
 49
30.0
 74
     0
 49
-1.0
 74
     0
 49
1.0
 74
     0
 49
-1.0
 74
     0
 49
1.0
 74
     0
 49
-1.0
 74
     0
 49
1.0
 74
     0
 49
-1.0
 74
     0
  0
LTYPE
  5
45
330
5
100
AcDbSymbolTableRecord
100
AcDbLinetypeTableRecord
  2
EXLTYPE6
 70
     0
  3
四点鎖線
 72
    65
 73
    10
 40
39.0
 49
30.0
 74
     0
 49
-1.0
 74
     0
 49
1.0
 74
     0
 49
-1.0
 74
     0
 49
1.0
 74
     0
 49
-1.0
 74
     0
 49
1.0
 74
     0
 49
-1.0
 74
     0
 49
1.0
 74
     0
 49
-1.0
 74
     0
  0
ENDTAB
  0
TABLE
  2
LAYER
  5
2
330
0
100
AcDbSymbolTable
 70
     4
  0
LAYER
  5
10
330
2
100
AcDbSymbolTableRecord
100
AcDbLayerTableRecord
  2
0
 70
     0
 62
     7
  6
CONTINUOUS
  0
LAYER
  5
48
330
2
100
AcDbSymbolTableRecord
100
AcDbLayerTableRecord
  2
LAY-1
 70
     0
 62
     7
  6
CONTINUOUS
  0
LAYER
  5
49
330
2
100
AcDbSymbolTableRecord
100
AcDbLayerTableRecord
  2
LAY-2
 70
     0
 62
     7
  6
CONTINUOUS
  0
LAYER
  5
D5
330
2
100
AcDbSymbolTableRecord
100
AcDbLayerTableRecord
  2
DEFPOINTS
 70
     0
 62
     7
  6
CONTINUOUS
  0
ENDTAB
  0
TABLE
  2
STYLE
  5
3
330
0
100
AcDbSymbolTable
 70
     5
  0
STYLE
  5
11
330
3
100
AcDbSymbolTableRecord
100
AcDbTextStyleTableRecord
  2
STANDARD
 70
     0
 40
0.0
 41
1.0
 50
0.0
 71
     0
 42
2.5
  3
monotxt
  4
extfont
  0
STYLE
  5
46
330
3
100
AcDbSymbolTableRecord
100
AcDbTextStyleTableRecord
  2
EXCADSTD
 70
     0
 40
0.0
 41
1.0
 50
0.0
 71
     0
 42
0.2
  3
monotxt
  4
extfont
  0
STYLE
  5
47
330
3
100
AcDbSymbolTableRecord
100
AcDbTextStyleTableRecord
  2
EXCADVERT
 70
     4
 40
0.0
 41
1.0
 50
0.0
 71
     0
 42
0.286885
  3
monotxt
  4
extfont
  0
STYLE
  5
C7
330
3
100
AcDbSymbolTableRecord
100
AcDbTextStyleTableRecord
  2
EXCADTTF1
 70
     0
 40
0.0
 41
1.0
 50
0.0
 71
     0
 42
0.2
  3
MSGOTHIC.TTC
  4

1001
ACAD
1000
MS Gothic
1071
    32817
  0
STYLE
  5
D3
330
3
100
AcDbSymbolTableRecord
100
AcDbTextStyleTableRecord
  2
EXCADDIM1
 70
     0
 40
0.0
 41
0.84
 50
0.0
 71
     0
 42
0.2
  3
monotxt
  4
extfont
  0
ENDTAB
  0
TABLE
  2
VIEW
  5
6
330
0
100
AcDbSymbolTable
 70
     0
  0
ENDTAB
  0
TABLE
  2
UCS
  5
7
330
0
100
AcDbSymbolTable
 70
     0
  0
ENDTAB
  0
TABLE
  2
APPID
  5
9
330
0
100
AcDbSymbolTable
 70
     1
  0
APPID
  5
12
330
9
100
AcDbSymbolTableRecord
100
AcDbRegAppTableRecord
  2
ACAD
 70
     0
  0
ENDTAB
  0
TABLE
  2
DIMSTYLE
  5
A
330
0
100
AcDbSymbolTable
 70
     1
  0
DIMSTYLE
105
27
102
{ACAD_REACTORS
330
D4
330
E3
330
F0
330
FD
330
333
102
}
330
A
100
AcDbSymbolTableRecord
100
AcDbDimStyleTableRecord
  2
ISO-25
 70
     0
  3

  4

  5

  6

  7

 40
1.0
 41
2.5
 42
0.625
 43
3.75
 44
1.25
 45
0.0
 46
0.0
 47
0.0
 48
0.0
140
2.5
141
2.5
142
0.0
143
0.03937007874016
144
1.0
145
0.0
146
1.0
147
0.625
 71
     0
 72
     0
 73
     0
 74
     0
 75
     0
 76
     0
 77
     1
 78
     8
170
     0
171
     3
172
     1
173
     0
174
     0
175
     0
176
     0
177
     0
178
     0
270
     2
271
     2
272
     2
273
     2
274
     3
340
11
275
     0
280
     0
281
     0
282
     0
283
     0
284
     8
285
     0
286
     0
287
     5
288
     0
  0
ENDTAB
  0
TABLE
  2
BLOCK_RECORD
  5
1
330
0
100
AcDbSymbolTable
 70
    20
  0
BLOCK_RECORD
  5
1F
330
1
100
AcDbSymbolTableRecord
100
AcDbBlockTableRecord
  2
*MODEL_SPACE
  0
BLOCK_RECORD
  5
1B
330
1
100
AcDbSymbolTableRecord
100
AcDbBlockTableRecord
  2
*PAPER_SPACE
  0
BLOCK_RECORD
  5
4A
330
1
100
AcDbSymbolTableRecord
100
AcDbBlockTableRecord
  2
EX_NORM
  0
BLOCK_RECORD
  5
4D
330
1
100
AcDbSymbolTableRecord
100
AcDbBlockTableRecord
  2
EX_BNORM
  0
BLOCK_RECORD
  5
50
330
1
100
AcDbSymbolTableRecord
100
AcDbBlockTableRecord
  2
EX_BCIR
  0
BLOCK_RECORD
  5
53
330
1
100
AcDbSymbolTableRecord
100
AcDbBlockTableRecord
  2
EX_RCIVIL
  0
BLOCK_RECORD
  5
56
330
1
100
AcDbSymbolTableRecord
100
AcDbBlockTableRecord
  2
EX_SLANT
  0
BLOCK_RECORD
  5
59
330
1
100
AcDbSymbolTableRecord
100
AcDbBlockTableRecord
  2
EX_NONE
  0
BLOCK_RECORD
  5
5C
330
1
100
AcDbSymbolTableRecord
100
AcDbBlockTableRecord
  2
EX_CIVIL
  0
BLOCK_RECORD
  5
5F
330
1
100
AcDbSymbolTableRecord
100
AcDbBlockTableRecord
  2
EX_WCIR
  0
BLOCK_RECORD
  5
62
330
1
100
AcDbSymbolTableRecord
100
AcDbBlockTableRecord
  2
EX_WCIR2
  0
BLOCK_RECORD
  5
65
330
1
100
AcDbSymbolTableRecord
100
AcDbBlockTableRecord
  2
EX_WNORM
  0
BLOCK_RECORD
  5
68
330
1
100
AcDbSymbolTableRecord
100
AcDbBlockTableRecord
  2
EX_NNORM
  0
BLOCK_RECORD
  5
6B
330
1
100
AcDbSymbolTableRecord
100
AcDbBlockTableRecord
  2
EX_BBOX
  0
BLOCK_RECORD
  5
6E
330
1
100
AcDbSymbolTableRecord
100
AcDbBlockTableRecord
  2
EX_WBOX
  0
BLOCK_RECORD
  5
71
330
1
100
AcDbSymbolTableRecord
100
AcDbBlockTableRecord
  2
EX_INTEGRAL
  0
BLOCK_RECORD
  5
D6
330
1
100
AcDbSymbolTableRecord
100
AcDbBlockTableRecord
  2
*D15
  0
BLOCK_RECORD
  5
E4
330
1
100
AcDbSymbolTableRecord
100
AcDbBlockTableRecord
  2
*D16
  0
BLOCK_RECORD
  5
F1
330
1
100
AcDbSymbolTableRecord
100
AcDbBlockTableRecord
  2
*D17
  0
BLOCK_RECORD
  5
FE
330
1
100
AcDbSymbolTableRecord
100
AcDbBlockTableRecord
  2
*D18
  0
BLOCK_RECORD
  5
334
330
1
100
AcDbSymbolTableRecord
100
AcDbBlockTableRecord
  2
*D19
  0
ENDTAB
  0
ENDSEC
  0
SECTION
  2
BLOCKS
  0
BLOCK
  5
20
330
1F
100
AcDbEntity
  8
0
100
AcDbBlockBegin
  2
*MODEL_SPACE
 70
     0
 10
0.0
 20
0.0
 30
0.0
  3
*MODEL_SPACE
  1

  0
ENDBLK
  5
21
330
1F
100
AcDbEntity
  8
0
100
AcDbBlockEnd
  0
BLOCK
  5
1C
330
1B
100
AcDbEntity
 67
     1
  8
0
100
AcDbBlockBegin
  2
*PAPER_SPACE
 70
     0
 10
0.0
 20
0.0
 30
0.0
  3
*PAPER_SPACE
  1

  0
ENDBLK
  5
1D
330
1B
100
AcDbEntity
 67
     1
  8
0
100
AcDbBlockEnd
  0
BLOCK
  5
4B
330
4A
100
AcDbEntity
  8
0
100
AcDbBlockBegin
  2
EX_NORM
 70
     0
 10
0.0
 20
0.0
 30
0.0
  3
EX_NORM
  1

  0
LINE
  5
74
330
4A
100
AcDbEntity
  8
0
  6
CONTINUOUS
 62
     0
100
AcDbLine
 10
0.0
 20
0.0
 30
0.0
 11
-1.0
 21
0.0
 31
0.0
  0
LINE
  5
75
330
4A
100
AcDbEntity
  8
0
  6
CONTINUOUS
 62
     0
100
AcDbLine
 10
0.0
 20
0.0
 30
0.0
 11
-1.0
 21
0.166666667
 31
0.0
  0
LINE
  5
76
330
4A
100
AcDbEntity
  8
0
  6
CONTINUOUS
 62
     0
100
AcDbLine
 10
0.0
 20
0.0
 30
0.0
 11
-1.0
 21
-0.166666667
 31
0.0
  0
ENDBLK
  5
4C
330
4A
100
AcDbEntity
  8
0
100
AcDbBlockEnd
  0
BLOCK
  5
4E
330
4D
100
AcDbEntity
  8
0
100
AcDbBlockBegin
  2
EX_BNORM
 70
     0
 10
0.0
 20
0.0
 30
0.0
  3
EX_BNORM
  1

  0
LINE
  5
77
330
4D
100
AcDbEntity
  8
0
  6
CONTINUOUS
 62
     0
100
AcDbLine
 10
0.0
 20
0.0
 30
0.0
 11
-1.0
 21
0.0
 31
0.0
  0
LINE
  5
78
330
4D
100
AcDbEntity
  8
0
  6
CONTINUOUS
 62
     0
100
AcDbLine
 10
0.0
 20
0.0
 30
0.0
 11
-1.0
 21
0.166666667
 31
0.0
  0
LINE
  5
79
330
4D
100
AcDbEntity
  8
0
  6
CONTINUOUS
 62
     0
100
AcDbLine
 10
0.0
 20
0.0
 30
0.0
 11
-1.0
 21
-0.166666667
 31
0.0
  0
LINE
  5
7A
330
4D
100
AcDbEntity
  8
0
  6
CONTINUOUS
 62
     0
100
AcDbLine
 10
0.0
 20
0.0
 30
0.0
 11
-1.0
 21
0.083333333
 31
0.0
  0
LINE
  5
7B
330
4D
100
AcDbEntity
  8
0
  6
CONTINUOUS
 62
     0
100
AcDbLine
 10
0.0
 20
0.0
 30
0.0
 11
-1.0
 21
-0.083333333
 31
0.0
  0
LINE
  5
7C
330
4D
100
AcDbEntity
  8
0
  6
CONTINUOUS
 62
     0
100
AcDbLine
 10
-1.0
 20
0.166666667
 30
0.0
 11
-1.0
 21
-0.166666667
 31
0.0
  0
ENDBLK
  5
4F
330
4D
100
AcDbEntity
  8
0
100
AcDbBlockEnd
  0
BLOCK
  5
51
330
50
100
AcDbEntity
  8
0
100
AcDbBlockBegin
  2
EX_BCIR
 70
     0
 10
0.0
 20
0.0
 30
0.0
  3
EX_BCIR
  1

  0
LINE
  5
7D
330
50
100
AcDbEntity
  8
0
  6
CONTINUOUS
 62
     0
100
AcDbLine
 10
0.0
 20
0.0
 30
0.0
 11
-1.0
 21
0.0
 31
0.0
  0
CIRCLE
  5
7E
330
50
100
AcDbEntity
  8
0
  6
CONTINUOUS
 62
     0
100
AcDbCircle
 10
0.0
 20
0.0
 30
0.0
 40
0.5
  0
CIRCLE
  5
7F
330
50
100
AcDbEntity
  8
0
  6
CONTINUOUS
 62
     0
100
AcDbCircle
 10
0.0
 20
0.0
 30
0.0
 40
0.25
  0
ENDBLK
  5
52
330
50
100
AcDbEntity
  8
0
100
AcDbBlockEnd
  0
BLOCK
  5
54
330
53
100
AcDbEntity
  8
0
100
AcDbBlockBegin
  2
EX_RCIVIL
 70
     0
 10
0.0
 20
0.0
 30
0.0
  3
EX_RCIVIL
  1

  0
LINE
  5
80
330
53
100
AcDbEntity
  8
0
  6
CONTINUOUS
 62
     0
100
AcDbLine
 10
0.0
 20
0.0
 30
0.0
 11
-1.0
 21
0.0
 31
0.0
  0
LINE
  5
81
330
53
100
AcDbEntity
  8
0
  6
CONTINUOUS
 62
     0
100
AcDbLine
 10
-1.0
 20
-0.25
 30
0.0
 11
0.0
 21
-0.25
 31
0.0
  0
LINE
  5
82
330
53
100
AcDbEntity
  8
0
  6
CONTINUOUS
 62
     0
100
AcDbLine
 10
-1.0
 20
-0.125
 30
0.0
 11
0.0
 21
-0.125
 31
0.0
  0
ENDBLK
  5
55
330
53
100
AcDbEntity
  8
0
100
AcDbBlockEnd
  0
BLOCK
  5
57
330
56
100
AcDbEntity
  8
0
100
AcDbBlockBegin
  2
EX_SLANT
 70
     0
 10
0.0
 20
0.0
 30
0.0
  3
EX_SLANT
  1

  0
LINE
  5
83
330
56
100
AcDbEntity
  8
0
  6
CONTINUOUS
 62
     0
100
AcDbLine
 10
0.0
 20
0.0
 30
0.0
 11
-1.0
 21
0.0
 31
0.0
  0
LINE
  5
84
330
56
100
AcDbEntity
  8
0
  6
CONTINUOUS
 62
     0
100
AcDbLine
 10
0.707106781
 20
0.707106781
 30
0.0
 11
-0.707106781
 21
-0.707106781
 31
0.0
  0
ENDBLK
  5
58
330
56
100
AcDbEntity
  8
0
100
AcDbBlockEnd
  0
BLOCK
  5
5A
330
59
100
AcDbEntity
  8
0
100
AcDbBlockBegin
  2
EX_NONE
 70
     0
 10
0.0
 20
0.0
 30
0.0
  3
EX_NONE
  1

  0
LINE
  5
85
330
59
100
AcDbEntity
  8
0
  6
CONTINUOUS
 62
     0
100
AcDbLine
 10
0.0
 20
0.0
 30
0.0
 11
-1.0
 21
0.0
 31
0.0
  0
ENDBLK
  5
5B
330
59
100
AcDbEntity
  8
0
100
AcDbBlockEnd
  0
BLOCK
  5
5D
330
5C
100
AcDbEntity
  8
0
100
AcDbBlockBegin
  2
EX_CIVIL
 70
     0
 10
0.0
 20
0.0
 30
0.0
  3
EX_CIVIL
  1

  0
LINE
  5
86
330
5C
100
AcDbEntity
  8
0
  6
CONTINUOUS
 62
     0
100
AcDbLine
 10
0.0
 20
0.0
 30
0.0
 11
-1.0
 21
0.0
 31
0.0
  0
LINE
  5
87
330
5C
100
AcDbEntity
  8
0
  6
CONTINUOUS
 62
     0
100
AcDbLine
 10
-1.0
 20
0.25
 30
0.0
 11
0.0
 21
0.25
 31
0.0
  0
LINE
  5
88
330
5C
100
AcDbEntity
  8
0
  6
CONTINUOUS
 62
     0
100
AcDbLine
 10
-1.0
 20
0.125
 30
0.0
 11
0.0
 21
0.125
 31
0.0
  0
ENDBLK
  5
5E
330
5C
100
AcDbEntity
  8
0
100
AcDbBlockEnd
  0
BLOCK
  5
60
330
5F
100
AcDbEntity
  8
0
100
AcDbBlockBegin
  2
EX_WCIR
 70
     0
 10
0.0
 20
0.0
 30
0.0
  3
EX_WCIR
  1

  0
LINE
  5
89
330
5F
100
AcDbEntity
  8
0
  6
CONTINUOUS
 62
     0
100
AcDbLine
 10
0.0
 20
0.0
 30
0.0
 11
-1.0
 21
0.0
 31
0.0
  0
CIRCLE
  5
8A
330
5F
100
AcDbEntity
  8
0
  6
CONTINUOUS
 62
     0
100
AcDbCircle
 10
0.0
 20
0.0
 30
0.0
 40
0.5
  0
ENDBLK
  5
61
330
5F
100
AcDbEntity
  8
0
100
AcDbBlockEnd
  0
BLOCK
  5
63
330
62
100
AcDbEntity
  8
0
100
AcDbBlockBegin
  2
EX_WCIR2
 70
     0
 10
0.0
 20
0.0
 30
0.0
  3
EX_WCIR2
  1

  0
LINE
  5
8B
330
62
100
AcDbEntity
  8
0
  6
CONTINUOUS
 62
     0
100
AcDbLine
 10
-0.5
 20
0.0
 30
0.0
 11
-1.0
 21
0.0
 31
0.0
  0
CIRCLE
  5
8C
330
62
100
AcDbEntity
  8
0
  6
CONTINUOUS
 62
     0
100
AcDbCircle
 10
0.0
 20
0.0
 30
0.0
 40
0.5
  0
ENDBLK
  5
64
330
62
100
AcDbEntity
  8
0
100
AcDbBlockEnd
  0
BLOCK
  5
66
330
65
100
AcDbEntity
  8
0
100
AcDbBlockBegin
  2
EX_WNORM
 70
     0
 10
0.0
 20
0.0
 30
0.0
  3
EX_WNORM
  1

  0
LINE
  5
8D
330
65
100
AcDbEntity
  8
0
  6
CONTINUOUS
 62
     0
100
AcDbLine
 10
-1.0
 20
0.0
 30
0.0
 11
-1.0
 21
0.0
 31
0.0
  0
LINE
  5
8E
330
65
100
AcDbEntity
  8
0
  6
CONTINUOUS
 62
     0
100
AcDbLine
 10
0.0
 20
0.0
 30
0.0
 11
-1.0
 21
0.166666667
 31
0.0
  0
LINE
  5
8F
330
65
100
AcDbEntity
  8
0
  6
CONTINUOUS
 62
     0
100
AcDbLine
 10
0.0
 20
0.0
 30
0.0
 11
-1.0
 21
-0.166666667
 31
0.0
  0
LINE
  5
90
330
65
100
AcDbEntity
  8
0
  6
CONTINUOUS
 62
     0
100
AcDbLine
 10
-1.0
 20
0.166666667
 30
0.0
 11
-1.0
 21
-0.166666667
 31
0.0
  0
ENDBLK
  5
67
330
65
100
AcDbEntity
  8
0
100
AcDbBlockEnd
  0
BLOCK
  5
69
330
68
100
AcDbEntity
  8
0
100
AcDbBlockBegin
  2
EX_NNORM
 70
     0
 10
0.0
 20
0.0
 30
0.0
  3
EX_NNORM
  1

  0
LINE
  5
91
330
68
100
AcDbEntity
  8
0
  6
CONTINUOUS
 62
     0
100
AcDbLine
 10
0.0
 20
0.0
 30
0.0
 11
-1.0
 21
0.0
 31
0.0
  0
LINE
  5
92
330
68
100
AcDbEntity
  8
0
  6
CONTINUOUS
 62
     0
100
AcDbLine
 10
0.0
 20
0.0
 30
0.0
 11
-1.0
 21
0.166666667
 31
0.0
  0
LINE
  5
93
330
68
100
AcDbEntity
  8
0
  6
CONTINUOUS
 62
     0
100
AcDbLine
 10
0.0
 20
0.0
 30
0.0
 11
-1.0
 21
-0.166666667
 31
0.0
  0
LINE
  5
94
330
68
100
AcDbEntity
  8
0
  6
CONTINUOUS
 62
     0
100
AcDbLine
 10
-1.0
 20
0.166666667
 30
0.0
 11
-1.0
 21
-0.166666667
 31
0.0
  0
ENDBLK
  5
6A
330
68
100
AcDbEntity
  8
0
100
AcDbBlockEnd
  0
BLOCK
  5
6C
330
6B
100
AcDbEntity
  8
0
100
AcDbBlockBegin
  2
EX_BBOX
 70
     0
 10
0.0
 20
0.0
 30
0.0
  3
EX_BBOX
  1

  0
LINE
  5
95
330
6B
100
AcDbEntity
  8
0
  6
CONTINUOUS
 62
     0
100
AcDbLine
 10
0.0
 20
0.0
 30
0.0
 11
-1.0
 21
0.0
 31
0.0
  0
LINE
  5
96
330
6B
100
AcDbEntity
  8
0
  6
CONTINUOUS
 62
     0
100
AcDbLine
 10
-0.5
 20
0.5
 30
0.0
 11
0.5
 21
0.5
 31
0.0
  0
LINE
  5
97
330
6B
100
AcDbEntity
  8
0
  6
CONTINUOUS
 62
     0
100
AcDbLine
 10
0.5
 20
0.5
 30
0.0
 11
0.5
 21
-0.5
 31
0.0
  0
LINE
  5
98
330
6B
100
AcDbEntity
  8
0
  6
CONTINUOUS
 62
     0
100
AcDbLine
 10
0.5
 20
-0.5
 30
0.0
 11
-0.5
 21
-0.5
 31
0.0
  0
LINE
  5
99
330
6B
100
AcDbEntity
  8
0
  6
CONTINUOUS
 62
     0
100
AcDbLine
 10
-0.5
 20
-0.5
 30
0.0
 11
-0.5
 21
0.5
 31
0.0
  0
LINE
  5
9A
330
6B
100
AcDbEntity
  8
0
  6
CONTINUOUS
 62
     0
100
AcDbLine
 10
-0.25
 20
0.25
 30
0.0
 11
0.25
 21
0.25
 31
0.0
  0
LINE
  5
9B
330
6B
100
AcDbEntity
  8
0
  6
CONTINUOUS
 62
     0
100
AcDbLine
 10
0.25
 20
0.25
 30
0.0
 11
0.25
 21
-0.25
 31
0.0
  0
LINE
  5
9C
330
6B
100
AcDbEntity
  8
0
  6
CONTINUOUS
 62
     0
100
AcDbLine
 10
0.25
 20
-0.25
 30
0.0
 11
-0.25
 21
-0.25
 31
0.0
  0
LINE
  5
9D
330
6B
100
AcDbEntity
  8
0
  6
CONTINUOUS
 62
     0
100
AcDbLine
 10
-0.25
 20
-0.25
 30
0.0
 11
-0.25
 21
0.25
 31
0.0
  0
ENDBLK
  5
6D
330
6B
100
AcDbEntity
  8
0
100
AcDbBlockEnd
  0
BLOCK
  5
6F
330
6E
100
AcDbEntity
  8
0
100
AcDbBlockBegin
  2
EX_WBOX
 70
     0
 10
0.0
 20
0.0
 30
0.0
  3
EX_WBOX
  1

  0
LINE
  5
9E
330
6E
100
AcDbEntity
  8
0
  6
CONTINUOUS
 62
     0
100
AcDbLine
 10
-0.5
 20
0.0
 30
0.0
 11
-1.0
 21
0.0
 31
0.0
  0
LINE
  5
9F
330
6E
100
AcDbEntity
  8
0
  6
CONTINUOUS
 62
     0
100
AcDbLine
 10
-0.5
 20
0.5
 30
0.0
 11
0.5
 21
0.5
 31
0.0
  0
LINE
  5
A0
330
6E
100
AcDbEntity
  8
0
  6
CONTINUOUS
 62
     0
100
AcDbLine
 10
0.5
 20
0.5
 30
0.0
 11
0.5
 21
-0.5
 31
0.0
  0
LINE
  5
A1
330
6E
100
AcDbEntity
  8
0
  6
CONTINUOUS
 62
     0
100
AcDbLine
 10
0.5
 20
-0.5
 30
0.0
 11
-0.5
 21
-0.5
 31
0.0
  0
LINE
  5
A2
330
6E
100
AcDbEntity
  8
0
  6
CONTINUOUS
 62
     0
100
AcDbLine
 10
-0.5
 20
-0.5
 30
0.0
 11
-0.5
 21
0.5
 31
0.0
  0
ENDBLK
  5
70
330
6E
100
AcDbEntity
  8
0
100
AcDbBlockEnd
  0
BLOCK
  5
72
330
71
100
AcDbEntity
  8
0
100
AcDbBlockBegin
  2
EX_INTEGRAL
 70
     0
 10
0.0
 20
0.0
 30
0.0
  3
EX_INTEGRAL
  1

  0
LINE
  5
A3
330
71
100
AcDbEntity
  8
0
  6
CONTINUOUS
 62
     0
100
AcDbLine
 10
0.0
 20
0.0
 30
0.0
 11
-1.0
 21
0.0
 31
0.0
  0
ARC
  5
A4
330
71
100
AcDbEntity
  8
0
  6
CONTINUOUS
 62
     0
100
AcDbCircle
 10
0.542115
 20
0.164992
 30
0.0
 40
0.56667
100
AcDbArc
 50
73.07249033629006
 51
196.9275130221199
  0
ARC
  5
A5
330
71
100
AcDbEntity
  8
0
  6
CONTINUOUS
 62
     0
100
AcDbCircle
 10
-0.542115
 20
-0.164992
 30
0.0
 40
0.56667
100
AcDbArc
 50
253.0724869220464
 51
16.9275130559125
  0
ENDBLK
  5
73
330
71
100
AcDbEntity
  8
0
100
AcDbBlockEnd
  0
BLOCK
  5
D7
330
D6
100
AcDbEntity
  8
0
100
AcDbBlockBegin
  2
*D15
 70
     1
 10
0.0
 20
0.0
 30
0.0
  3
*D15
  1

  0
LINE
  5
D9
330
D6
100
AcDbEntity
  8
LAY-2
  6
CONTINUOUS
 62
     3
100
AcDbLine
 10
267.6
 20
293.2000000238419
 30
0.0
 11
267.6
 21
217.0
 31
0.0
  0
LINE
  5
DA
330
D6
100
AcDbEntity
  8
LAY-2
  6
CONTINUOUS
 62
     3
100
AcDbLine
 10
228.6
 20
219.0
 30
0.0
 11
261.6
 21
219.0
 31
0.0
  0
INSERT
  5
DB
330
D6
100
AcDbEntity
  8
LAY-2
 62
     3
100
AcDbBlockReference
  2
EX_NORM
 10
222.6
 20
219.0
 30
0.0
 41
6.0
 42
6.0
 43
6.0
 50
180.0
  0
INSERT
  5
DC
330
D6
100
AcDbEntity
  8
LAY-2
 62
     3
100
AcDbBlockReference
  2
EX_NORM
 10
267.6
 20
219.0
 30
0.0
 41
6.0
 42
6.0
 43
6.0
  0
MTEXT
  5
DD
330
D6
100
AcDbEntity
  8
LAY-2
 62
     2
100
AcDbMText
 10
245.1
 20
223.6999999880791
 30
0.0
 40
8.0
 41
0.0
 71
     5
 72
     1
  1
45
  7
EXCADDIM1
  0
POINT
  5
DE
330
D6
100
AcDbEntity
  8
DEFPOINTS
 62
     0
100
AcDbPoint
 10
222.6
 20
229.599999999998
 30
0.0
  0
POINT
  5
DF
330
D6
100
AcDbEntity
  8
DEFPOINTS
 62
     0
100
AcDbPoint
 10
267.6
 20
294.6
 30
0.0
  0
POINT
  5
E0
330
D6
100
AcDbEntity
  8
DEFPOINTS
 62
     0
100
AcDbPoint
 10
267.6
 20
219.0
 30
0.0
  0
ENDBLK
  5
D8
330
D6
100
AcDbEntity
  8
0
100
AcDbBlockEnd
  0
BLOCK
  5
E5
330
E4
100
AcDbEntity
  8
0
100
AcDbBlockBegin
  2
*D16
 70
     1
 10
0.0
 20
0.0
 30
0.0
  3
*D16
  1

  0
LINE
  5
E7
330
E4
100
AcDbEntity
  8
LAY-2
  6
CONTINUOUS
 62
     3
100
AcDbLine
 10
268.9999999761582
 20
294.6
 30
0.0
 11
300.8
 21
294.6
 31
0.0
  0
LINE
  5
E8
330
E4
100
AcDbEntity
  8
LAY-2
  6
CONTINUOUS
 62
     3
100
AcDbLine
 10
268.9999999761582
 20
340.6
 30
0.0
 11
300.8
 21
340.6
 31
0.0
  0
LINE
  5
E9
330
E4
100
AcDbEntity
  8
LAY-2
  6
CONTINUOUS
 62
     3
100
AcDbLine
 10
298.8
 20
300.6
 30
0.0
 11
298.8
 21
334.6
 31
0.0
  0
INSERT
  5
EA
330
E4
100
AcDbEntity
  8
LAY-2
 62
     3
100
AcDbBlockReference
  2
EX_NORM
 10
298.8
 20
294.6
 30
0.0
 41
6.0
 42
6.0
 43
6.0
 50
270.0
  0
INSERT
  5
EB
330
E4
100
AcDbEntity
  8
LAY-2
 62
     3
100
AcDbBlockReference
  2
EX_NORM
 10
298.8
 20
340.6
 30
0.0
 41
6.0
 42
6.0
 43
6.0
 50
90.0
  0
MTEXT
  5
EC
330
E4
100
AcDbEntity
  8
LAY-2
 62
     2
100
AcDbMText
 10
294.100000011921
 20
317.6
 30
0.0
 40
8.0
 41
0.0
 71
     5
 72
     1
  1
%%c46
  7
EXCADDIM1
 11
0.0
 21
1.0
 31
0.0
  0
POINT
  5
ED
330
E4
100
AcDbEntity
  8
DEFPOINTS
 62
     0
100
AcDbPoint
 10
267.6
 20
294.6
 30
0.0
  0
POINT
  5
EE
330
E4
100
AcDbEntity
  8
DEFPOINTS
 62
     0
100
AcDbPoint
 10
267.6
 20
340.6
 30
0.0
  0
POINT
  5
EF
330
E4
100
AcDbEntity
  8
DEFPOINTS
 62
     0
100
AcDbPoint
 10
298.8
 20
340.6
 30
0.0
  0
ENDBLK
  5
E6
330
E4
100
AcDbEntity
  8
0
100
AcDbBlockEnd
  0
BLOCK
  5
F2
330
F1
100
AcDbEntity
  8
0
100
AcDbBlockBegin
  2
*D17
 70
     1
 10
0.0
 20
0.0
 30
0.0
  3
*D17
  1

  0
LINE
  5
F4
330
F1
100
AcDbEntity
  8
LAY-2
  6
CONTINUOUS
 62
     3
100
AcDbLine
 10
183.71883362298
 20
236.09999999999
 30
0.0
 11
183.71883362298
 21
217.0
 31
0.0
  0
LINE
  5
F5
330
F1
100
AcDbEntity
  8
LAY-2
  6
CONTINUOUS
 62
     3
100
AcDbLine
 10
222.6
 20
301.265099
 30
0.0
 11
222.6
 21
217.0
 31
0.0
  0
LINE
  5
F6
330
F1
100
AcDbEntity
  8
LAY-2
  6
CONTINUOUS
 62
     3
100
AcDbLine
 10
189.71883362298
 20
219.0
 30
0.0
 11
216.6
 21
219.0
 31
0.0
  0
INSERT
  5
F7
330
F1
100
AcDbEntity
  8
LAY-2
 62
     3
100
AcDbBlockReference
  2
EX_NORM
 10
183.71883362298
 20
219.0
 30
0.0
 41
6.0
 42
6.0
 43
6.0
 50
180.0
  0
INSERT
  5
F8
330
F1
100
AcDbEntity
  8
LAY-2
 62
     3
100
AcDbBlockReference
  2
EX_NONE
 10
222.6
 20
219.0
 30
0.0
 41
6.0
 42
6.0
 43
6.0
  0
MTEXT
  5
F9
330
F1
100
AcDbEntity
  8
LAY-2
 62
     2
100
AcDbMText
 10
203.15941681149
 20
223.6999999880791
 30
0.0
 40
8.0
 41
0.0
 71
     5
 72
     1
  1
（39）
  7
EXCADDIM1
  0
POINT
  5
FA
330
F1
100
AcDbEntity
  8
DEFPOINTS
 62
     0
100
AcDbPoint
 10
183.71883362298
 20
237.09999999999
 30
0.0
  0
POINT
  5
FB
330
F1
100
AcDbEntity
  8
DEFPOINTS
 62
     0
100
AcDbPoint
 10
222.6
 20
302.265099
 30
0.0
  0
POINT
  5
FC
330
F1
100
AcDbEntity
  8
DEFPOINTS
 62
     0
100
AcDbPoint
 10
222.6
 20
219.0
 30
0.0
  0
ENDBLK
  5
F3
330
F1
100
AcDbEntity
  8
0
100
AcDbBlockEnd
  0
BLOCK
  5
FF
330
FE
100
AcDbEntity
  8
0
100
AcDbBlockBegin
  2
*D18
 70
     1
 10
0.0
 20
0.0
 30
0.0
  3
*D18
  1

  0
LINE
  5
101
330
FE
100
AcDbEntity
  8
LAY-2
  6
CONTINUOUS
 62
     3
100
AcDbLine
 10
183.4934150814193
 20
233.8763646690399
 30
0.0
 11
182.3167285007825
 21
217.0489625897727
 31
0.0
  0
ARC
  5
102
330
FE
100
AcDbEntity
  8
LAY-2
  6
CONTINUOUS
 62
     3
100
AcDbCircle
 10
183.71883362297
 20
237.09999999999
 30
0.0
 40
18.09999999998999
100
AcDbArc
 50
227.8377379548286
 51
246.9188689775124
  0
ARC
  5
103
330
FE
100
AcDbEntity
  8
LAY-2
  6
CONTINUOUS
 62
     3
100
AcDbCircle
 10
183.71883362297
 20
237.09999999999
 30
0.0
 40
18.09999999998999
100
AcDbArc
 50
289.0811310227154
 51
308.1622620453992
  0
ARC
  5
104
330
FE
100
AcDbEntity
  8
LAY-2
  6
CONTINUOUS
 62
     3
100
AcDbCircle
 10
183.71883362297
 20
237.09999999999
 30
0.0
 40
18.09999999998999
100
AcDbArc
 50
266.0000000001962
 51
270.0000000000315
  0
INSERT
  5
105
330
FE
100
AcDbEntity
  8
LAY-2
 62
     3
100
AcDbBlockReference
  2
EX_NORM
 10
182.4562414482639
 20
219.0440906902928
 30
0.0
 41
6.0
 42
6.0
 43
6.0
 50
346.4594344888543
  0
INSERT
  5
106
330
FE
100
AcDbEntity
  8
LAY-2
 62
     3
100
AcDbBlockReference
  2
EX_NONE
 10
183.71883362298
 20
219.0
 30
0.0
 41
6.0
 42
6.0
 43
6.0
 50
189.5405655113735
  0
MTEXT
  5
107
330
FE
100
AcDbEntity
  8
LAY-2
 62
     2
100
AcDbMText
 10
175.3185811918492
 20
226.6598965803557
 30
0.0
 40
8.0
 41
0.0
 71
     5
 72
     1
  1
4%%d
  7
EXCADDIM1
 11
0.7791121948025673
 21
-0.6268845092279171
 31
0.0
  0
POINT
  5
108
330
FE
100
AcDbEntity
  8
DEFPOINTS
 62
     0
100
AcDbPoint
 10
183.71883362297
 20
237.09999999999
 30
0.0
  0
POINT
  5
109
330
FE
100
AcDbEntity
  8
DEFPOINTS
 62
     0
100
AcDbPoint
 10
183.56317155516
 20
234.8739287193
 30
0.0
  0
POINT
  5
10A
330
FE
100
AcDbEntity
  8
DEFPOINTS
 62
     0
100
AcDbPoint
 10
183.71883362298
 20
219.0
 30
0.0
  0
POINT
  5
10B
330
FE
100
AcDbEntity
  8
DEFPOINTS
 62
     0
100
AcDbPoint
 10
183.2976655126272
 20
219.0049007346511
 30
0.0
  0
ENDBLK
  5
100
330
FE
100
AcDbEntity
  8
0
100
AcDbBlockEnd
  0
BLOCK
  5
335
330
334
100
AcDbEntity
  8
0
100
AcDbBlockBegin
  2
*D19
 70
     1
 10
0.0
 20
0.0
 30
0.0
  3
*D19
  1

  0
LINE
  5
337
330
334
100
AcDbEntity
  8
LAY-2
  6
CONTINUOUS
 62
     3
100
AcDbLine
 10
199.1380000238319
 20
317.59999999999
 30
0.0
 11
155.8
 21
317.59999999999
 31
0.0
  0
LINE
  5
338
330
334
100
AcDbEntity
  8
LAY-2
  6
CONTINUOUS
 62
     3
100
AcDbLine
 10
182.2139434289019
 20
235.59999999999
 30
0.0
 11
155.8
 21
235.59999999999
 31
0.0
  0
LINE
  5
339
330
334
100
AcDbEntity
  8
LAY-2
  6
CONTINUOUS
 62
     3
100
AcDbLine
 10
157.8
 20
311.59999999999
 30
0.0
 11
157.8
 21
241.59999999999
 31
0.0
  0
INSERT
  5
33A
330
334
100
AcDbEntity
  8
LAY-2
 62
     3
100
AcDbBlockReference
  2
EX_NORM
 10
157.8
 20
317.59999999999
 30
0.0
 41
6.0
 42
6.0
 43
6.0
 50
90.0
  0
INSERT
  5
33B
330
334
100
AcDbEntity
  8
LAY-2
 62
     3
100
AcDbBlockReference
  2
EX_NORM
 10
157.8
 20
235.59999999999
 30
0.0
 41
6.0
 42
6.0
 43
6.0
 50
270.0
  0
MTEXT
  5
33C
330
334
100
AcDbEntity
  8
LAY-2
 62
     2
100
AcDbMText
 10
153.100000011921
 20
276.59999999999
 30
0.0
 40
8.0
 41
0.0
 71
     5
 72
     1
  1
（82）
  7
EXCADDIM1
 11
0.0
 21
1.0
 31
0.0
  0
POINT
  5
33D
330
334
100
AcDbEntity
  8
DEFPOINTS
 62
     0
100
AcDbPoint
 10
200.53799999999
 20
317.59999999999
 30
0.0
  0
POINT
  5
33E
330
334
100
AcDbEntity
  8
DEFPOINTS
 62
     0
100
AcDbPoint
 10
183.61394340506
 20
235.59999999999
 30
0.0
  0
POINT
  5
33F
330
334
100
AcDbEntity
  8
DEFPOINTS
 62
     0
100
AcDbPoint
 10
157.8
 20
235.59999999999
 30
0.0
  0
ENDBLK
  5
336
330
334
100
AcDbEntity
  8
0
100
AcDbBlockEnd
  0
ENDSEC
  0
SECTION
  2
ENTITIES
  0
LINE
  5
A6
330
1F
100
AcDbEntity
  8
LAY-1
  6
CONTINUOUS
 62
     7
100
AcDbLine
 10
40.0
 20
20.0
 30
0.0
 11
396.0
 21
20.0
 31
0.0
  0
LINE
  5
A7
330
1F
100
AcDbEntity
  8
LAY-1
  6
CONTINUOUS
 62
     7
100
AcDbLine
 10
396.0
 20
572.0
 30
0.0
 11
396.0
 21
20.0
 31
0.0
  0
LINE
  5
A8
330
1F
100
AcDbEntity
  8
LAY-1
  6
CONTINUOUS
 62
     7
100
AcDbLine
 10
396.0
 20
572.0
 30
0.0
 11
40.0
 21
572.0
 31
0.0
  0
LINE
  5
A9
330
1F
100
AcDbEntity
  8
LAY-1
  6
CONTINUOUS
 62
     7
100
AcDbLine
 10
40.0
 20
572.0
 30
0.0
 11
40.0
 21
20.0
 31
0.0
  0
LINE
  5
AA
330
1F
100
AcDbEntity
  8
LAY-1
  6
CONTINUOUS
 62
     7
100
AcDbLine
 10
396.0
 20
64.0
 30
0.0
 11
40.0
 21
64.0
 31
0.0
  0
TEXT
  5
AB
330
1F
100
AcDbEntity
  8
LAY-1
  6
CONTINUOUS
 62
     2
100
AcDbText
 10
45.0
 20
55.20000004768372
 30
0.0
 40
7.599999904632568
  1
設計
 41
1.534976095816436
  7
EXCADSTD
 72
     5
 11
63.332
 21
55.20000004768372
 31
0.0
100
AcDbText
  0
TEXT
  5
AC
330
1F
100
AcDbEntity
  8
LAY-1
  6
CONTINUOUS
 62
     2
100
AcDbText
 10
75.0
 20
55.20000004768372
 30
0.0
 40
7.599999904632568
  1
製図
 41
1.534976095816435
  7
EXCADSTD
 72
     5
 11
93.332
 21
55.20000004768372
 31
0.0
100
AcDbText
  0
TEXT
  5
AD
330
1F
100
AcDbEntity
  8
LAY-1
  6
CONTINUOUS
 62
     2
100
AcDbText
 10
103.0
 20
55.20000004768372
 30
0.0
 40
7.599999904632568
  1
検図
 41
1.534976095816435
  7
EXCADSTD
 72
     5
 11
121.332
 21
55.20000004768372
 31
0.0
100
AcDbText
  0
CIRCLE
  5
AE
330
1F
100
AcDbEntity
  8
LAY-1
  6
CONTINUOUS
 62
     7
100
AcDbCircle
 10
50.0
 20
24.8
 30
0.0
 40
0.3
  0
CIRCLE
  5
AF
330
1F
100
AcDbEntity
  8
LAY-1
  6
CONTINUOUS
 62
     7
100
AcDbCircle
 10
60.0
 20
24.8
 30
0.0
 40
0.3
  0
CIRCLE
  5
B0
330
1F
100
AcDbEntity
  8
LAY-1
  6
CONTINUOUS
 62
     7
100
AcDbCircle
 10
80.0
 20
24.8
 30
0.0
 40
0.3
  0
CIRCLE
  5
B1
330
1F
100
AcDbEntity
  8
LAY-1
  6
CONTINUOUS
 62
     7
100
AcDbCircle
 10
90.0
 20
24.8
 30
0.0
 40
0.3
  0
TEXT
  5
B2
330
1F
100
AcDbEntity
  8
LAY-1
  6
CONTINUOUS
 62
     2
100
AcDbText
 10
129.0
 20
55.20000004768372
 30
0.0
 40
7.599999904632568
  1
承認
 41
1.534976095816435
  7
EXCADSTD
 72
     5
 11
147.332
 21
55.20000004768372
 31
0.0
100
AcDbText
  0
TEXT
  5
B3
330
1F
100
AcDbEntity
  8
LAY-1
  6
CONTINUOUS
 62
     2
100
AcDbText
 10
157.0
 20
61.59999990463257
 30
0.0
 40
7.330909018083053
  1
品名
  7
EXCADVERT
 72
     3
 11
157.0
 21
42.40000009536743
 31
0.0
100
AcDbText
  0
TEXT
  5
B4
330
1F
100
AcDbEntity
  8
LAY-1
  6
CONTINUOUS
 62
     2
100
AcDbText
 10
285.0
 20
38.59999990463257
 30
0.0
 40
6.567272654446689
  1
図番
  7
EXCADVERT
 72
     3
 11
285.0
 21
21.40000009536743
 31
0.0
100
AcDbText
  0
TEXT
  5
B5
330
1F
100
AcDbEntity
  8
LAY-1
  6
CONTINUOUS
 62
     2
100
AcDbText
 10
369.0
 20
61.59999990463257
 30
0.0
 40
7.330909018083053
  1
尺度
  7
EXCADVERT
 72
     3
 11
369.0
 21
42.40000009536743
 31
0.0
100
AcDbText
  0
TEXT
  5
B6
330
1F
100
AcDbEntity
  8
LAY-1
  6
CONTINUOUS
 62
     2
100
AcDbText
 10
285.0
 20
61.59999990463257
 30
0.0
 40
7.330909018083053
  1
品番
  7
EXCADVERT
 72
     3
 11
285.0
 21
42.40000009536743
 31
0.0
100
AcDbText
  0
LINE
  5
B7
330
1F
100
AcDbEntity
  8
LAY-1
  6
CONTINUOUS
 62
     6
100
AcDbLine
 10
152.0
 20
54.0
 30
0.0
 11
40.0
 21
54.0
 31
0.0
  0
LINE
  5
B8
330
1F
100
AcDbEntity
  8
LAY-1
  6
CONTINUOUS
 62
     6
100
AcDbLine
 10
70.0
 20
20.0
 30
0.0
 11
70.0
 21
64.0
 31
0.0
  0
LINE
  5
B9
330
1F
100
AcDbEntity
  8
LAY-1
  6
CONTINUOUS
 62
     6
100
AcDbLine
 10
100.0
 20
20.0
 30
0.0
 11
100.0
 21
64.0
 31
0.0
  0
LINE
  5
BA
330
1F
100
AcDbEntity
  8
LAY-1
  6
CONTINUOUS
 62
     6
100
AcDbLine
 10
126.0
 20
20.0
 30
0.0
 11
126.0
 21
64.0
 31
0.0
  0
LINE
  5
BB
330
1F
100
AcDbEntity
  8
LAY-1
  6
CONTINUOUS
 62
     6
100
AcDbLine
 10
152.0
 20
20.0
 30
0.0
 11
152.0
 21
64.0
 31
0.0
  0
LINE
  5
BC
330
1F
100
AcDbEntity
  8
LAY-1
  6
CONTINUOUS
 62
     6
100
AcDbLine
 10
152.0
 20
40.0
 30
0.0
 11
396.0
 21
40.0
 31
0.0
  0
LINE
  5
BD
330
1F
100
AcDbEntity
  8
LAY-1
  6
CONTINUOUS
 62
     6
100
AcDbLine
 10
364.0
 20
40.0
 30
0.0
 11
364.0
 21
64.0
 31
0.0
  0
LINE
  5
BE
330
1F
100
AcDbEntity
  8
LAY-1
  6
CONTINUOUS
 62
     6
100
AcDbLine
 10
162.0
 20
40.0
 30
0.0
 11
162.0
 21
64.0
 31
0.0
  0
LINE
  5
BF
330
1F
100
AcDbEntity
  8
LAY-1
  6
EXLTYPE2
 62
     6
100
AcDbLine
 10
40.0
 20
30.0
 30
0.0
 11
152.0
 21
30.0
 31
0.0
  0
LINE
  5
C0
330
1F
100
AcDbEntity
  8
LAY-1
  6
CONTINUOUS
 62
     6
100
AcDbLine
 10
393.8
 20
59.625
 30
0.0
 11
376.2
 21
44.775
 31
0.0
  0
LINE
  5
C1
330
1F
100
AcDbEntity
  8
LAY-1
  6
CONTINUOUS
 62
     6
100
AcDbLine
 10
280.0
 20
64.0
 30
0.0
 11
280.0
 21
20.0
 31
0.0
  0
LINE
  5
C2
330
1F
100
AcDbEntity
  8
LAY-1
  6
CONTINUOUS
 62
     6
100
AcDbLine
 10
290.0
 20
20.0
 30
0.0
 11
290.0
 21
64.0
 31
0.0
  0
LINE
  5
C3
330
1F
100
AcDbEntity
  8
LAY-1
  6
CONTINUOUS
 62
     6
100
AcDbLine
 10
374.0
 20
64.0
 30
0.0
 11
374.0
 21
40.0
 31
0.0
  0
TEXT
  5
C4
330
1F
100
AcDbEntity
  8
LAY-1
  6
CONTINUOUS
 62
     2
100
AcDbText
 10
375.5385185186
 20
53.98
 30
0.0
 40
8.0
  1
１
 41
1.119999999999996
  7
EXCADSTD
 72
     5
 11
381.9385185185999
 21
53.98
 31
0.0
100
AcDbText
  0
TEXT
  5
C5
330
1F
100
AcDbEntity
  8
LAY-1
  6
CONTINUOUS
 62
     2
100
AcDbText
 10
383.7585185186
 20
41.74
 30
0.0
 40
8.0
  1
２
 41
1.119999999999996
  7
EXCADSTD
 72
     5
 11
390.1585185186
 21
41.74
 31
0.0
100
AcDbText
  0
LINE
  5
C6
330
1F
100
AcDbEntity
  8
LAY-1
  6
EXLTYPE2
 62
     6
100
AcDbLine
 10
40.0
 20
296.0
 30
0.0
 11
-0.7999999999999972
 21
296.0
 31
0.0
  0
TEXT
  5
C8
330
1F
100
AcDbEntity
  8
LAY-1
  6
CONTINUOUS
 62
     2
100
AcDbText
 10
156.0
 20
24.0
 30
0.0
 40
9.0
  1
ジャニス工業株式会社
 41
1.025641025641026
  7
EXCADTTF1
 72
     5
 11
276.0
 21
24.0
 31
0.0
100
AcDbText
  0
TEXT
  5
C9
330
1F
100
AcDbEntity
  8
LAY-1
  6
CONTINUOUS
 62
     2
100
AcDbText
 10
99.60000002384186
 20
37.0
 30
0.0
 40
10.0
  1
地名坊
 41
1.103529409801259
  7
EXCADSTD
 72
     5
 11
126.3999999761581
 21
37.0
 31
0.0
100
AcDbText
  0
TEXT
  5
CA
330
1F
100
AcDbEntity
  8
LAY-1
  6
CONTINUOUS
 62
     7
100
AcDbText
 10
300.0
 20
23.5
 30
0.0
 40
13.0
  1
１５６４００
 41
1.323076923076923
  7
EXCADSTD
 72
     5
 11
386.0
 21
23.5
 31
0.0
100
AcDbText
  0
TEXT
  5
CB
330
1F
100
AcDbEntity
  8
LAY-1
  6
CONTINUOUS
 62
     7
100
AcDbText
 10
303.5
 20
47.0
 30
0.0
 40
10.0
  1
ＮＬ１４Ｅ
 41
1.13448275862069
  7
EXCADSTD
 72
     5
 11
350.5
 21
47.0
 31
0.0
100
AcDbText
  0
TEXT
  5
CC
330
1F
100
AcDbEntity
  8
LAY-1
  6
CONTINUOUS
 62
     7
100
AcDbText
 10
184.6
 20
48.99999999999999
 30
0.0
 40
12.0
  1
横水栓　13
 41
1.123853211009174
  7
EXCADSTD
 72
     5
 11
254.6
 21
48.99999999999999
 31
0.0
100
AcDbText
  0
TEXT
  5
CD
330
1F
100
AcDbEntity
  8
LAY-1
  6
CONTINUOUS
 62
     2
100
AcDbText
 10
168.6
 20
41.6
 30
0.0
 40
7.0
  1
（ホース接続形，逆流防止装置付き）
 41
1.01980198019802
  7
EXCADSTD
 72
     5
 11
271.6
 21
41.6
 31
0.0
100
AcDbText
  0
TEXT
  5
CE
330
1F
100
AcDbEntity
  8
LAY-1
  6
CONTINUOUS
 62
     2
100
AcDbText
 10
74.79999995231628
 20
37.0
 30
0.0
 40
10.0
  1
亀井
 41
1.18991346010815
  7
EXCADSTD
 72
     5
 11
93.49864003973008
 21
37.0
 31
0.0
100
AcDbText
  0
TEXT
  5
CF
330
1F
100
AcDbEntity
  8
LAY-1
  6
CONTINUOUS
 62
     2
100
AcDbText
 10
68.5
 20
21.8
 30
0.0
 40
6.0
  1
２７
 41
1.26379696969697
  7
EXCADSTD
 72
     5
 11
80.4158
 21
21.8
 31
0.0
100
AcDbText
  0
TEXT
  5
D0
330
1F
100
AcDbEntity
  8
LAY-1
  6
CONTINUOUS
 62
     2
100
AcDbText
 10
81.0
 20
21.8
 30
0.0
 40
6.0
  1
６
 41
1.493333333333335
  7
EXCADSTD
 72
     5
 11
87.4
 21
21.8
 31
0.0
100
AcDbText
  0
TEXT
  5
D1
330
1F
100
AcDbEntity
  8
LAY-1
  6
CONTINUOUS
 62
     2
100
AcDbText
 10
88.5
 20
21.8
 30
0.0
 40
6.0
  1
２４
 41
1.26379696969697
  7
EXCADSTD
 72
     5
 11
100.4158
 21
21.8
 31
0.0
100
AcDbText
  0
TEXT
  5
D2
330
1F
100
AcDbEntity
  8
LAY-1
  6
CONTINUOUS
 62
     2
100
AcDbText
 10
128.7999999523163
 20
37.0
 30
0.0
 40
10.0
  1
間瀬
 41
1.18991346010815
  7
EXCADSTD
 72
     5
 11
147.4986400397301
 21
37.0
 31
0.0
100
AcDbText
  0
DIMENSION
  5
D4
330
1F
100
AcDbEntity
  8
LAY-2
  6
CONTINUOUS
 62
     3
100
AcDbDimension
  2
*D15
 10
267.6
 20
219.0
 30
0.0
 11
245.1
 21
223.6999999880791
 31
0.0
 70
   160
  3
ISO-25
100
AcDbAlignedDimension
 13
222.6
 23
229.599999999998
 33
0.0
 14
267.6
 24
294.6
 34
0.0
100
AcDbRotatedDimension
1001
ACAD
1000
DSTYLE
1002
{
1070
   270
1070
     2
1070
     6
1000
EX_NORM
1070
     7
1000
EX_NORM
1070
    41
1040
6.0
1070
    42
1040
1.399999976158142
1070
    44
1040
2.0
1070
    73
1070
     0
1070
    74
1070
     0
1070
    75
1070
     1
1070
    76
1070
     0
1070
    77
1070
     1
1070
    78
1070
     0
1070
   140
1040
8.0
1070
   147
1040
0.0
1070
   173
1070
     1
1070
   176
1070
     3
1070
   177
1070
     3
1070
   178
1070
     2
1070
   271
1070
     0
1070
   277
1070
     2
1070
   279
1070
     2
1070
   280
1070
     0
1070
   287
1070
     5
1070
   340
1005
D3
1002
}
  0
TEXT
  5
E1
330
1F
100
AcDbEntity
  8
LAY-2
  6
CONTINUOUS
 62
     2
100
AcDbText
 10
292.2879570170099
 20
356.8968402179601
 30
0.0
 40
8.0
  1
ＰＪ１／２
 41
1.116379310344828
  7
EXCADSTD
 72
     5
 11
329.2879570170099
 21
356.8968402179601
 31
0.0
100
AcDbText
  0
LEADER
  5
E2
330
1F
100
AcDbEntity
  8
LAY-2
  6
CONTINUOUS
 62
     6
100
AcDbLeader
  3
ISO-25
 76
     3
 10
275.012774
 20
328.0775
 30
0.0
 10
292.8
 20
355.8968402179599
 30
0.0
 10
327.38795701701
 20
355.8968402179601
 30
0.0
1001
ACAD
1000
DSTYLE
1002
{
1070
     5
1000
EX_NORM
1070
    41
1040
6.0
1070
   341
1005
4A
1002
}
  0
DIMENSION
  5
E3
330
1F
100
AcDbEntity
  8
LAY-2
  6
CONTINUOUS
 62
     3
100
AcDbDimension
  2
*D16
 10
298.8
 20
340.6
 30
0.0
 11
294.100000011921
 21
317.6
 31
0.0
 70
   160
  1
%%c46
  3
ISO-25
100
AcDbAlignedDimension
 13
267.6
 23
294.6
 33
0.0
 14
267.6
 24
340.6
 34
0.0
 50
90.0
100
AcDbRotatedDimension
1001
ACAD
1000
DSTYLE
1002
{
1070
   270
1070
     2
1070
     6
1000
EX_NORM
1070
     7
1000
EX_NORM
1070
    41
1040
6.0
1070
    42
1040
1.399999976158142
1070
    44
1040
2.0
1070
    73
1070
     0
1070
    74
1070
     0
1070
    75
1070
     0
1070
    76
1070
     0
1070
    77
1070
     1
1070
    78
1070
     0
1070
   140
1040
8.0
1070
   147
1040
0.0
1070
   173
1070
     1
1070
   176
1070
     3
1070
   177
1070
     3
1070
   178
1070
     2
1070
   271
1070
     0
1070
   277
1070
     2
1070
   279
1070
     2
1070
   280
1070
     0
1070
   287
1070
     5
1070
   340
1005
D3
1002
}
  0
DIMENSION
  5
F0
330
1F
100
AcDbEntity
  8
LAY-2
  6
CONTINUOUS
 62
     3
100
AcDbDimension
  2
*D17
 10
222.6
 20
219.0
 30
0.0
 11
203.15941681149
 21
223.6999999880791
 31
0.0
 70
   160
  1
（39）
  3
ISO-25
100
AcDbAlignedDimension
 13
183.71883362298
 23
237.09999999999
 33
0.0
 14
222.6
 24
302.265099
 34
0.0
100
AcDbRotatedDimension
1001
ACAD
1000
DSTYLE
1002
{
1070
   270
1070
     2
1070
     6
1000
EX_NORM
1070
     7
1000
EX_NONE
1070
    41
1040
6.0
1070
    42
1040
1.0
1070
    44
1040
2.0
1070
    73
1070
     0
1070
    74
1070
     0
1070
    75
1070
     0
1070
    76
1070
     0
1070
    77
1070
     1
1070
    78
1070
     8
1070
   140
1040
8.0
1070
   147
1040
0.0
1070
   173
1070
     1
1070
   176
1070
     3
1070
   177
1070
     3
1070
   178
1070
     2
1070
   271
1070
     2
1070
   277
1070
     2
1070
   279
1070
     2
1070
   280
1070
     0
1070
   287
1070
     5
1070
   340
1005
D3
1002
}
  0
DIMENSION
  5
FD
330
1F
100
AcDbEntity
  8
LAY-2
  6
CONTINUOUS
 62
     3
100
AcDbDimension
  2
*D18
 10
183.2976655126272
 20
219.0049007346511
 30
0.0
 11
175.3185811918492
 21
226.6598965803557
 31
0.0
 70
   165
  3
ISO-25
100
AcDb3PointAngularDimension
 13
183.56317155516
 23
234.8739287193
 33
0.0
 14
183.71883362298
 24
219.0
 34
0.0
 15
183.71883362297
 25
237.09999999999
 35
0.0
1001
ACAD
1000
DSTYLE
1002
{
1070
   270
1070
     2
1070
     6
1000
EX_NORM
1070
     7
1000
EX_NONE
1070
    41
1040
6.0
1070
    42
1040
0.9999999999999897
1070
    44
1040
2.000000000000008
1070
    73
1070
     0
1070
    74
1070
     0
1070
    75
1070
     0
1070
    76
1070
     1
1070
    77
1070
     1
1070
    78
1070
     8
1070
   140
1040
8.0
1070
   147
1040
0.0
1070
   173
1070
     1
1070
   176
1070
     3
1070
   177
1070
     3
1070
   178
1070
     2
1070
   271
1070
     2
1070
   277
1070
     2
1070
   279
1070
     2
1070
   280
1070
     1
1070
   287
1070
     5
1070
   340
1005
D3
1002
}
  0
LINE
  5
10C
330
1F
100
AcDbEntity
  8
LAY-2
  6
CONTINUOUS
 62
     2
100
AcDbLine
 10
269.6129999999911
 20
317.5999999999932
 30
0.0
 11
269.6129999999911
 21
307.1229999999932
 31
0.0
  0
LINE
  5
10D
330
1F
100
AcDbEntity
  8
LAY-2
  6
CONTINUOUS
 62
     2
100
AcDbLine
 10
269.6129999999911
 20
317.5999999999932
 30
0.0
 11
269.6129999999911
 21
328.0769999999933
 31
0.0
  0
ARC
  5
10E
330
1F
100
AcDbEntity
  8
LAY-2
  6
CONTINUOUS
 62
     2
100
AcDbCircle
 10
222.5999999999912
 20
333.0999999999932
 30
0.0
 40
28.50000000000002
100
AcDbArc
 50
237.2230000000001
 51
293.447
  0
LINE
  5
10F
330
1F
100
AcDbEntity
  8
LAY-2
  6
CONTINUOUS
 62
     2
100
AcDbLine
 10
210.5999999999912
 20
333.5239999999933
 30
0.0
 11
210.5999999999911
 21
343.5719999999932
 31
0.0
  0
ARC
  5
110
330
1F
100
AcDbEntity
  8
LAY-2
  6
CONTINUOUS
 62
     2
100
AcDbCircle
 10
202.5999999999912
 20
333.5239999999933
 30
0.0
 40
8.0
100
AcDbArc
 50
265.7769999999999
 51
0.0
  0
LINE
  5
111
330
1F
100
AcDbEntity
  8
LAY-2
  6
CONTINUOUS
 62
     2
100
AcDbLine
 10
244.599999999991
 20
326.0999999999932
 30
0.0
 11
261.0999999999912
 21
326.0999999999932
 31
0.0
  0
LINE
  5
112
330
1F
100
AcDbEntity
  8
LAY-2
  6
CONTINUOUS
 62
     2
100
AcDbLine
 10
234.5999999999912
 20
336.0999999999932
 30
0.0
 11
234.5999999999912
 21
343.5719999999932
 31
0.0
  0
ARC
  5
113
330
1F
100
AcDbEntity
  8
LAY-2
  6
CONTINUOUS
 62
     2
100
AcDbCircle
 10
244.599999999991
 20
336.0999999999932
 30
0.0
 40
10.0
100
AcDbArc
 50
180.001
 51
270.0000000000002
  0
LINE
  5
114
330
1F
100
AcDbEntity
  8
LAY-2
  6
CONTINUOUS
 62
     2
100
AcDbLine
 10
281.599999999991
 20
326.9149999999933
 30
0.0
 11
280.4379999999911
 21
328.0769999999933
 31
0.0
  0
LINE
  5
115
330
1F
100
AcDbEntity
  8
LAY-2
  6
CONTINUOUS
 62
     2
100
AcDbLine
 10
267.599999999991
 20
328.0769999999933
 30
0.0
 11
280.4379999999911
 21
328.0769999999933
 31
0.0
  0
LINE
  5
116
330
1F
100
AcDbEntity
  8
LAY-2
  6
CONTINUOUS
 62
     2
100
AcDbLine
 10
267.599999999991
 20
340.5999999999932
 30
0.0
 11
267.599999999991
 21
317.5999999999932
 31
0.0
  0
ARC
  5
117
330
1F
100
AcDbEntity
  8
LAY-2
  6
CONTINUOUS
 62
     2
100
AcDbCircle
 10
261.0999999999912
 20
330.0999999999932
 30
0.0
 40
4.0
100
AcDbArc
 50
270.0000000000002
 51
0.0
  0
ARC
  5
118
330
1F
100
AcDbEntity
  8
LAY-2
  6
CONTINUOUS
 62
     2
100
AcDbCircle
 10
267.099999999991
 20
338.5999999999932
 30
0.0
 40
2.0
100
AcDbArc
 50
90.00000000000004
 51
180.001
  0
LINE
  5
119
330
1F
100
AcDbEntity
  8
LAY-2
  6
CONTINUOUS
 62
     2
100
AcDbLine
 10
265.099999999991
 20
338.5999999999932
 30
0.0
 11
265.099999999991
 21
317.5999999999932
 31
0.0
  0
LINE
  5
11A
330
1F
100
AcDbEntity
  8
LAY-2
  6
CONTINUOUS
 62
     2
100
AcDbLine
 10
267.099999999991
 20
340.5999999999932
 30
0.0
 11
267.599999999991
 21
340.5999999999932
 31
0.0
  0
LINE
  5
11B
330
1F
100
AcDbEntity
  8
LAY-2
  6
CONTINUOUS
 62
     2
100
AcDbLine
 10
281.599999999991
 20
317.5999999999932
 30
0.0
 11
281.599999999991
 21
326.9149999999933
 31
0.0
  0
LINE
  5
11C
330
1F
100
AcDbEntity
  8
LAY-2
  6
CONTINUOUS
 62
     2
100
AcDbLine
 10
281.599999999991
 20
317.5999999999932
 30
0.0
 11
281.599999999991
 21
308.2849999999933
 31
0.0
  0
LINE
  5
11D
330
1F
100
AcDbEntity
  8
LAY-2
  6
CONTINUOUS
 62
     2
100
AcDbLine
 10
267.099999999991
 20
294.5999999999932
 30
0.0
 11
267.599999999991
 21
294.5999999999932
 31
0.0
  0
LINE
  5
11E
330
1F
100
AcDbEntity
  8
LAY-2
  6
CONTINUOUS
 62
     2
100
AcDbLine
 10
265.099999999991
 20
296.5999999999932
 30
0.0
 11
265.099999999991
 21
317.5999999999932
 31
0.0
  0
ARC
  5
11F
330
1F
100
AcDbEntity
  8
LAY-2
  6
CONTINUOUS
 62
     2
100
AcDbCircle
 10
267.099999999991
 20
296.5999999999932
 30
0.0
 40
2.0
100
AcDbArc
 50
180.001
 51
270.0000000000002
  0
ARC
  5
120
330
1F
100
AcDbEntity
  8
LAY-2
  6
CONTINUOUS
 62
     2
100
AcDbCircle
 10
261.0999999999912
 20
305.0999999999932
 30
0.0
 40
4.0
100
AcDbArc
 50
0.0
 51
90.00000000000004
  0
LINE
  5
121
330
1F
100
AcDbEntity
  8
LAY-2
  6
CONTINUOUS
 62
     2
100
AcDbLine
 10
267.599999999991
 20
294.5999999999932
 30
0.0
 11
267.599999999991
 21
317.5999999999932
 31
0.0
  0
LINE
  5
122
330
1F
100
AcDbEntity
  8
LAY-2
  6
CONTINUOUS
 62
     2
100
AcDbLine
 10
267.599999999991
 20
307.1229999999932
 30
0.0
 11
280.4379999999911
 21
307.1229999999932
 31
0.0
  0
LINE
  5
123
330
1F
100
AcDbEntity
  8
LAY-2
  6
CONTINUOUS
 62
     2
100
AcDbLine
 10
281.599999999991
 20
308.2849999999933
 30
0.0
 11
280.4379999999911
 21
307.1229999999932
 31
0.0
  0
ARC
  5
124
330
1F
100
AcDbEntity
  8
LAY-2
  6
CONTINUOUS
 62
     2
100
AcDbCircle
 10
244.284999999991
 20
283.0999999999932
 30
0.0
 40
26.00000000000002
100
AcDbArc
 50
90.00000000000004
 51
113.447
  0
LINE
  5
125
330
1F
100
AcDbEntity
  8
LAY-2
  6
CONTINUOUS
 62
     2
100
AcDbLine
 10
244.284999999991
 20
309.0999999999932
 30
0.0
 11
261.0999999999912
 21
309.0999999999932
 31
0.0
  0
LINE
  5
126
330
1F
100
AcDbEntity
  8
LAY-2
  6
CONTINUOUS
 62
     2
100
AcDbLine
 10
280.4379999999911
 20
307.1229999999932
 30
0.0
 11
280.4379999999911
 21
328.0769999999933
 31
0.0
  0
ARC
  5
127
330
1F
100
AcDbEntity
  8
LAY-2
  6
CONTINUOUS
 62
     2
100
AcDbCircle
 10
222.5999999999912
 20
342.0529999999933
 30
0.0
 40
33.0
100
AcDbArc
 50
80.49400000000077
 51
90.00000000000004
  0
LINE
  5
128
330
1F
100
AcDbEntity
  8
LAY-2
  6
CONTINUOUS
 62
     2
100
AcDbLine
 10
229.3499999999912
 20
374.0999999999932
 30
0.0
 11
222.5999999999912
 21
374.0999999999932
 31
0.0
  0
LINE
  5
129
330
1F
100
AcDbEntity
  8
LAY-2
  6
CONTINUOUS
 62
     2
100
AcDbLine
 10
229.3499999999912
 20
374.1009999999933
 30
0.0
 11
228.0499999999911
 21
374.5999999999932
 31
0.0
  0
LINE
  5
12A
330
1F
100
AcDbEntity
  8
LAY-2
  6
CONTINUOUS
 62
     2
100
AcDbLine
 10
229.3499999999912
 20
371.5999999999932
 30
0.0
 11
229.3499999999912
 21
374.1009999999933
 31
0.0
  0
LINE
  5
12B
330
1F
100
AcDbEntity
  8
LAY-2
  6
CONTINUOUS
 62
     2
100
AcDbLine
 10
229.3499999999912
 20
371.5999999999932
 30
0.0
 11
222.5999999999912
 21
371.5999999999932
 31
0.0
  0
LINE
  5
12C
330
1F
100
AcDbEntity
  8
LAY-2
  6
CONTINUOUS
 62
     2
100
AcDbLine
 10
215.8499999999912
 20
371.5999999999932
 30
0.0
 11
222.5999999999912
 21
371.5999999999932
 31
0.0
  0
LINE
  5
12D
330
1F
100
AcDbEntity
  8
LAY-2
  6
CONTINUOUS
 62
     2
100
AcDbLine
 10
215.8499999999912
 20
371.5999999999932
 30
0.0
 11
215.8499999999912
 21
374.1009999999933
 31
0.0
  0
LINE
  5
12E
330
1F
100
AcDbEntity
  8
LAY-2
  6
CONTINUOUS
 62
     2
100
AcDbLine
 10
215.8499999999912
 20
374.1009999999933
 30
0.0
 11
217.1499999999911
 21
374.5999999999932
 31
0.0
  0
LINE
  5
12F
330
1F
100
AcDbEntity
  8
LAY-2
  6
CONTINUOUS
 62
     2
100
AcDbLine
 10
215.8499999999912
 20
374.0999999999932
 30
0.0
 11
222.5999999999912
 21
374.0999999999932
 31
0.0
  0
ARC
  5
130
330
1F
100
AcDbEntity
  8
LAY-2
  6
CONTINUOUS
 62
     2
100
AcDbCircle
 10
222.5999999999912
 20
342.0529999999933
 30
0.0
 40
33.0
100
AcDbArc
 50
90.00000000000004
 51
99.50700000000039
  0
LINE
  5
131
330
1F
100
AcDbEntity
  8
LAY-2
  6
CONTINUOUS
 62
     2
100
AcDbLine
 10
215.4499999999911
 20
371.5999999999932
 30
0.0
 11
229.7499999999911
 21
371.5999999999932
 31
0.0
  0
ARC
  5
132
330
1F
100
AcDbEntity
  8
LAY-2
  6
CONTINUOUS
 62
     2
100
AcDbCircle
 10
204.9849999999911
 20
369.8849999999933
 30
0.0
 40
18.0
100
AcDbArc
 50
288.4899999999996
 51
312.3040000000009
  0
ARC
  5
133
330
1F
100
AcDbEntity
  8
LAY-2
  6
CONTINUOUS
 62
     2
100
AcDbCircle
 10
212.2789999999911
 20
348.0719999999932
 30
0.0
 40
5.0
100
AcDbArc
 50
108.4899999999996
 51
133.3050000000002
  0
ARC
  5
134
330
1F
100
AcDbEntity
  8
LAY-2
  6
CONTINUOUS
 62
     2
100
AcDbCircle
 10
212.2789999999911
 20
348.0719999999932
 30
0.0
 40
5.0
100
AcDbArc
 50
226.6939999999983
 51
244.1579999999991
  0
LINE
  5
135
330
1F
100
AcDbEntity
  8
LAY-2
  6
CONTINUOUS
 62
     2
100
AcDbLine
 10
208.8499999999912
 20
344.4329999999932
 30
0.0
 11
208.8499999999912
 21
351.7099999999932
 31
0.0
  0
LINE
  5
136
330
1F
100
AcDbEntity
  8
LAY-2
  6
CONTINUOUS
 62
     2
100
AcDbLine
 10
236.3499999999912
 20
344.4329999999932
 30
0.0
 11
236.3499999999912
 21
351.7099999999932
 31
0.0
  0
ARC
  5
137
330
1F
100
AcDbEntity
  8
LAY-2
  6
CONTINUOUS
 62
     2
100
AcDbCircle
 10
232.9199999999911
 20
348.0719999999932
 30
0.0
 40
5.0
100
AcDbArc
 50
295.8410000000014
 51
313.3060000000017
  0
ARC
  5
138
330
1F
100
AcDbEntity
  8
LAY-2
  6
CONTINUOUS
 62
     2
100
AcDbCircle
 10
232.9199999999911
 20
348.0719999999932
 30
0.0
 40
5.0
100
AcDbArc
 50
46.69299999999867
 51
71.50800000000103
  0
ARC
  5
139
330
1F
100
AcDbEntity
  8
LAY-2
  6
CONTINUOUS
 62
     2
100
AcDbCircle
 10
240.2149999999912
 20
369.8849999999933
 30
0.0
 40
18.0
100
AcDbArc
 50
227.6969999999992
 51
251.509
  0
LINE
  5
13A
330
1F
100
AcDbEntity
  8
LAY-2
  6
CONTINUOUS
 62
     2
100
AcDbLine
 10
222.5999999999912
 20
356.5719999999932
 30
0.0
 11
217.0999999999912
 21
356.5719999999932
 31
0.0
  0
LINE
  5
13B
330
1F
100
AcDbEntity
  8
LAY-2
  6
CONTINUOUS
 62
     2
100
AcDbLine
 10
222.5999999999912
 20
356.5719999999932
 30
0.0
 11
228.0999999999912
 21
356.5719999999932
 31
0.0
  0
LINE
  5
13C
330
1F
100
AcDbEntity
  8
LAY-2
  6
CONTINUOUS
 62
     2
100
AcDbLine
 10
222.5999999999912
 20
343.5719999999932
 30
0.0
 11
210.0999999999912
 21
343.5719999999932
 31
0.0
  0
LINE
  5
13D
330
1F
100
AcDbEntity
  8
LAY-2
  6
CONTINUOUS
 62
     2
100
AcDbLine
 10
222.5999999999912
 20
343.5719999999932
 30
0.0
 11
235.0999999999912
 21
343.5719999999932
 31
0.0
  0
LINE
  5
13E
330
1F
100
AcDbEntity
  8
LAY-2
  6
CONTINUOUS
 62
     2
100
AcDbLine
 10
236.3499999999912
 20
344.4329999999932
 30
0.0
 11
236.3499999999912
 21
351.7109999999932
 31
0.0
  0
ARC
  5
13F
330
1F
100
AcDbEntity
  8
LAY-2
  6
CONTINUOUS
 62
     2
100
AcDbCircle
 10
232.9209999999912
 20
348.0719999999932
 30
0.0
 40
5.0
100
AcDbArc
 50
295.8420000000013
 51
313.3060000000017
  0
ARC
  5
140
330
1F
100
AcDbEntity
  8
LAY-2
  6
CONTINUOUS
 62
     2
100
AcDbCircle
 10
232.9209999999912
 20
348.0719999999932
 30
0.0
 40
5.0
100
AcDbArc
 50
46.69499999999977
 51
71.509
  0
LINE
  5
141
330
1F
100
AcDbEntity
  8
LAY-2
  6
CONTINUOUS
 62
     2
100
AcDbLine
 10
235.0999999999912
 20
343.5719999999932
 30
0.0
 11
222.5999999999912
 21
343.5719999999932
 31
0.0
  0
LINE
  5
142
330
1F
100
AcDbEntity
  8
LAY-2
  6
CONTINUOUS
 62
     2
100
AcDbLine
 10
208.8499999999912
 20
344.4329999999932
 30
0.0
 11
208.8499999999912
 21
351.7109999999932
 31
0.0
  0
ARC
  5
143
330
1F
100
AcDbEntity
  8
LAY-2
  6
CONTINUOUS
 62
     2
100
AcDbCircle
 10
212.2789999999911
 20
348.0719999999932
 30
0.0
 40
5.0
100
AcDbArc
 50
226.6939999999983
 51
244.1579999999991
  0
ARC
  5
144
330
1F
100
AcDbEntity
  8
LAY-2
  6
CONTINUOUS
 62
     2
100
AcDbCircle
 10
212.2789999999911
 20
348.0719999999932
 30
0.0
 40
5.0
100
AcDbArc
 50
108.491
 51
133.3050000000002
  0
LINE
  5
145
330
1F
100
AcDbEntity
  8
LAY-2
  6
CONTINUOUS
 62
     2
100
AcDbLine
 10
210.0999999999912
 20
343.5719999999932
 30
0.0
 11
222.5999999999912
 21
343.5719999999932
 31
0.0
  0
LINE
  5
146
330
1F
100
AcDbEntity
  8
LAY-2
  6
CONTINUOUS
 62
     2
100
AcDbLine
 10
217.8499999999912
 20
356.5719999999932
 30
0.0
 11
217.8499999999912
 21
361.5999999999932
 31
0.0
  0
LINE
  5
147
330
1F
100
AcDbEntity
  8
LAY-2
  6
CONTINUOUS
 62
     2
100
AcDbLine
 10
222.5999999999912
 20
361.5999999999932
 30
0.0
 11
217.8499999999912
 21
361.5999999999932
 31
0.0
  0
LINE
  5
148
330
1F
100
AcDbEntity
  8
LAY-2
  6
CONTINUOUS
 62
     2
100
AcDbLine
 10
227.3499999999912
 20
356.5719999999932
 30
0.0
 11
227.3499999999912
 21
361.5999999999932
 31
0.0
  0
LINE
  5
149
330
1F
100
AcDbEntity
  8
LAY-2
  6
CONTINUOUS
 62
     2
100
AcDbLine
 10
191.7434896411743
 20
364.7598872676351
 30
0.0
 11
191.5999999999912
 21
361.5999999999932
 31
0.0
  0
LINE
  5
14A
330
1F
100
AcDbEntity
  8
LAY-2
  6
CONTINUOUS
 62
     2
100
AcDbLine
 10
197.3469060259558
 20
370.4749943953633
 30
0.0
 11
214.5999999999912
 21
371.5999999999932
 31
0.0
  0
LINE
  5
14B
330
1F
100
AcDbEntity
  8
LAY-2
  6
CONTINUOUS
 62
     2
100
AcDbLine
 10
191.5999999999912
 20
361.5999999999932
 30
0.0
 11
218.3499999999912
 21
361.5999999999932
 31
0.0
  0
LINE
  5
14C
330
1F
100
AcDbEntity
  8
LAY-2
  6
CONTINUOUS
 62
     2
100
AcDbLine
 10
222.5999999999912
 20
371.5999999999932
 30
0.0
 11
214.5999999999912
 21
371.5999999999932
 31
0.0
  0
LINE
  5
14D
330
1F
100
AcDbEntity
  8
LAY-2
  6
CONTINUOUS
 62
     2
100
AcDbLine
 10
230.5999999999912
 20
371.5999999999932
 30
0.0
 11
222.5999999999912
 21
371.5999999999932
 31
0.0
  0
LINE
  5
14E
330
1F
100
AcDbEntity
  8
LAY-2
  6
CONTINUOUS
 62
     2
100
AcDbLine
 10
240.9081766804304
 20
365.2602069804253
 30
0.0
 11
241.0999999999912
 21
361.5999999999932
 31
0.0
  0
LINE
  5
14F
330
1F
100
AcDbEntity
  8
LAY-2
  6
CONTINUOUS
 62
     2
100
AcDbLine
 10
235.738082749428
 20
370.8896613229324
 30
0.0
 11
230.5999999999912
 21
371.5999999999932
 31
0.0
  0
LINE
  5
150
330
1F
100
AcDbEntity
  8
LAY-2
  6
CONTINUOUS
 62
     2
100
AcDbLine
 10
241.0999999999912
 20
361.5999999999932
 30
0.0
 11
222.5999999999912
 21
361.5999999999932
 31
0.0
  0
ARC
  5
151
330
1F
100
AcDbEntity
  8
LAY-2
  6
CONTINUOUS
 62
     2
100
AcDbCircle
 10
197.7373130599186
 20
364.4877093388595
 30
0.0
 40
6.000000000000004
100
AcDbArc
 50
93.7307482763022
 51
177.4000000000016
  0
ARC
  5
152
330
1F
100
AcDbEntity
  8
LAY-2
  6
CONTINUOUS
 62
     2
100
AcDbCircle
 10
234.916399471903
 20
364.9461912429678
 30
0.0
 40
6.000000000000004
100
AcDbArc
 50
2.99999999999909
 51
82.12876711252714
  0
LINE
  5
153
330
1F
100
AcDbEntity
  8
LAY-2
  6
CONTINUOUS
 62
     6
100
AcDbLine
 10
229.2429999999911
 20
371.5999999999932
 30
0.0
 11
229.2429999999911
 21
374.0999999999932
 31
0.0
  0
LINE
  5
154
330
1F
100
AcDbEntity
  8
LAY-2
  6
CONTINUOUS
 62
     6
100
AcDbLine
 10
229.3429999999911
 20
374.0999999999932
 30
0.0
 11
229.3429999999911
 21
371.5999999999932
 31
0.0
  0
LINE
  5
155
330
1F
100
AcDbEntity
  8
LAY-2
  6
CONTINUOUS
 62
     6
100
AcDbLine
 10
223.0469999999912
 20
371.5999999999932
 30
0.0
 11
223.0469999999912
 21
374.0999999999932
 31
0.0
  0
LINE
  5
156
330
1F
100
AcDbEntity
  8
LAY-2
  6
CONTINUOUS
 62
     6
100
AcDbLine
 10
223.9339999999911
 20
371.5999999999932
 30
0.0
 11
223.9339999999911
 21
374.0999999999932
 31
0.0
  0
LINE
  5
157
330
1F
100
AcDbEntity
  8
LAY-2
  6
CONTINUOUS
 62
     6
100
AcDbLine
 10
224.7979999999911
 20
371.5999999999932
 30
0.0
 11
224.7979999999911
 21
374.0999999999932
 31
0.0
  0
LINE
  5
158
330
1F
100
AcDbEntity
  8
LAY-2
  6
CONTINUOUS
 62
     6
100
AcDbLine
 10
225.6219999999911
 20
371.5999999999932
 30
0.0
 11
225.6219999999911
 21
374.0999999999932
 31
0.0
  0
LINE
  5
159
330
1F
100
AcDbEntity
  8
LAY-2
  6
CONTINUOUS
 62
     6
100
AcDbLine
 10
226.3939999999911
 20
371.5999999999932
 30
0.0
 11
226.3939999999911
 21
374.0999999999932
 31
0.0
  0
LINE
  5
15A
330
1F
100
AcDbEntity
  8
LAY-2
  6
CONTINUOUS
 62
     6
100
AcDbLine
 10
227.0989999999911
 20
371.5999999999932
 30
0.0
 11
227.0989999999911
 21
374.0999999999932
 31
0.0
  0
LINE
  5
15B
330
1F
100
AcDbEntity
  8
LAY-2
  6
CONTINUOUS
 62
     6
100
AcDbLine
 10
227.7249999999912
 20
371.5999999999932
 30
0.0
 11
227.7249999999912
 21
374.0999999999932
 31
0.0
  0
LINE
  5
15C
330
1F
100
AcDbEntity
  8
LAY-2
  6
CONTINUOUS
 62
     6
100
AcDbLine
 10
228.2609999999911
 20
371.5999999999932
 30
0.0
 11
228.2609999999911
 21
374.0999999999932
 31
0.0
  0
LINE
  5
15D
330
1F
100
AcDbEntity
  8
LAY-2
  6
CONTINUOUS
 62
     6
100
AcDbLine
 10
228.6979999999911
 20
371.5999999999932
 30
0.0
 11
228.6979999999911
 21
374.0999999999932
 31
0.0
  0
LINE
  5
15E
330
1F
100
AcDbEntity
  8
LAY-2
  6
CONTINUOUS
 62
     6
100
AcDbLine
 10
229.0269999999911
 20
371.5999999999932
 30
0.0
 11
229.0269999999911
 21
374.0999999999932
 31
0.0
  0
LINE
  5
15F
330
1F
100
AcDbEntity
  8
LAY-2
  6
CONTINUOUS
 62
     6
100
AcDbLine
 10
216.1729999999911
 20
371.5999999999932
 30
0.0
 11
216.1729999999911
 21
374.0999999999932
 31
0.0
  0
LINE
  5
160
330
1F
100
AcDbEntity
  8
LAY-2
  6
CONTINUOUS
 62
     6
100
AcDbLine
 10
216.5019999999911
 20
371.5999999999932
 30
0.0
 11
216.5019999999911
 21
374.0999999999932
 31
0.0
  0
LINE
  5
161
330
1F
100
AcDbEntity
  8
LAY-2
  6
CONTINUOUS
 62
     6
100
AcDbLine
 10
216.9389999999911
 20
371.5999999999932
 30
0.0
 11
216.9389999999911
 21
374.0999999999932
 31
0.0
  0
LINE
  5
162
330
1F
100
AcDbEntity
  8
LAY-2
  6
CONTINUOUS
 62
     6
100
AcDbLine
 10
217.4749999999912
 20
371.5999999999932
 30
0.0
 11
217.4749999999912
 21
374.0999999999932
 31
0.0
  0
LINE
  5
163
330
1F
100
AcDbEntity
  8
LAY-2
  6
CONTINUOUS
 62
     6
100
AcDbLine
 10
218.1009999999911
 20
371.5999999999932
 30
0.0
 11
218.1009999999911
 21
374.0999999999932
 31
0.0
  0
LINE
  5
164
330
1F
100
AcDbEntity
  8
LAY-2
  6
CONTINUOUS
 62
     6
100
AcDbLine
 10
218.8059999999911
 20
371.5999999999932
 30
0.0
 11
218.8059999999911
 21
374.0999999999932
 31
0.0
  0
LINE
  5
165
330
1F
100
AcDbEntity
  8
LAY-2
  6
CONTINUOUS
 62
     6
100
AcDbLine
 10
219.5779999999911
 20
371.5999999999932
 30
0.0
 11
219.5779999999911
 21
374.0999999999932
 31
0.0
  0
LINE
  5
166
330
1F
100
AcDbEntity
  8
LAY-2
  6
CONTINUOUS
 62
     6
100
AcDbLine
 10
220.4019999999911
 20
371.5999999999932
 30
0.0
 11
220.4019999999911
 21
374.0999999999932
 31
0.0
  0
LINE
  5
167
330
1F
100
AcDbEntity
  8
LAY-2
  6
CONTINUOUS
 62
     6
100
AcDbLine
 10
221.2659999999911
 20
371.5999999999932
 30
0.0
 11
221.2659999999911
 21
374.0999999999932
 31
0.0
  0
LINE
  5
168
330
1F
100
AcDbEntity
  8
LAY-2
  6
CONTINUOUS
 62
     6
100
AcDbLine
 10
222.1529999999912
 20
371.5999999999932
 30
0.0
 11
222.1529999999912
 21
374.0999999999932
 31
0.0
  0
LINE
  5
169
330
1F
100
AcDbEntity
  8
LAY-2
  6
CONTINUOUS
 62
     6
100
AcDbLine
 10
215.8569999999911
 20
374.0999999999932
 30
0.0
 11
215.8569999999911
 21
371.5999999999932
 31
0.0
  0
LINE
  5
16A
330
1F
100
AcDbEntity
  8
LAY-2
  6
CONTINUOUS
 62
     6
100
AcDbLine
 10
215.9569999999911
 20
371.5999999999932
 30
0.0
 11
215.9569999999911
 21
374.0999999999932
 31
0.0
  0
LINE
  5
16B
330
1F
100
AcDbEntity
  8
LAY-2
  6
CONTINUOUS
 62
     6
100
AcDbLine
 10
211.4129999999911
 20
343.0079999999932
 30
0.0
 11
210.5999999999912
 21
341.5999999999932
 31
0.0
  0
LINE
  5
16C
330
1F
100
AcDbEntity
  8
LAY-2
  6
CONTINUOUS
 62
     6
100
AcDbLine
 10
211.4129999999911
 20
343.5719999999932
 30
0.0
 11
211.4129999999911
 21
343.0079999999932
 31
0.0
  0
LINE
  5
16D
330
1F
100
AcDbEntity
  8
LAY-2
  6
CONTINUOUS
 62
     6
100
AcDbLine
 10
233.7869999999912
 20
343.0079999999932
 30
0.0
 11
234.5999999999912
 21
341.5999999999932
 31
0.0
  0
LINE
  5
16E
330
1F
100
AcDbEntity
  8
LAY-2
  6
CONTINUOUS
 62
     6
100
AcDbLine
 10
233.7869999999912
 20
343.5719999999932
 30
0.0
 11
233.7869999999912
 21
343.0079999999932
 31
0.0
  0
LINE
  5
16F
330
1F
100
AcDbEntity
  8
LAY-2
  6
CONTINUOUS
 62
     2
100
AcDbLine
 10
222.5999999999912
 20
343.0079999999932
 30
0.0
 11
234.5999999999912
 21
343.0079999999932
 31
0.0
  0
LINE
  5
170
330
1F
100
AcDbEntity
  8
LAY-2
  6
CONTINUOUS
 62
     2
100
AcDbLine
 10
210.5999999999912
 20
343.0079999999932
 30
0.0
 11
222.5999999999911
 21
343.0079999999932
 31
0.0
  0
LINE
  5
171
330
1F
100
AcDbEntity
  8
LAY-2
  6
CONTINUOUS
 62
     6
100
AcDbLine
 10
281.599999999991
 20
326.9149999999933
 30
0.0
 11
269.6129999999911
 21
326.9149999999933
 31
0.0
  0
LINE
  5
172
330
1F
100
AcDbEntity
  8
LAY-2
  6
CONTINUOUS
 62
     6
100
AcDbLine
 10
269.6129999999911
 20
326.9149999999933
 30
0.0
 11
267.599999999991
 21
328.0769999999933
 31
0.0
  0
LINE
  5
173
330
1F
100
AcDbEntity
  8
LAY-2
  6
CONTINUOUS
 62
     6
100
AcDbLine
 10
269.6129999999911
 20
308.2849999999933
 30
0.0
 11
267.599999999991
 21
307.1229999999932
 31
0.0
  0
LINE
  5
174
330
1F
100
AcDbEntity
  8
LAY-2
  6
CONTINUOUS
 62
     6
100
AcDbLine
 10
281.599999999991
 20
308.2849999999933
 30
0.0
 11
269.6129999999911
 21
308.2849999999933
 31
0.0
  0
LINE
  5
175
330
1F
100
AcDbEntity
  8
LAY-2
  6
CONTINUOUS
 62
     6
100
AcDbLine
 10
209.8959999999911
 20
352.1529999999932
 30
0.0
 11
210.1579999999911
 21
352.1869999999932
 31
0.0
  0
LINE
  5
176
330
1F
100
AcDbEntity
  8
LAY-2
  6
CONTINUOUS
 62
     6
100
AcDbLine
 10
210.1579999999911
 20
352.1869999999932
 30
0.0
 11
210.3559999999911
 21
352.2069999999932
 31
0.0
  0
LINE
  5
177
330
1F
100
AcDbEntity
  8
LAY-2
  6
CONTINUOUS
 62
     6
100
AcDbLine
 10
210.3559999999911
 20
352.2069999999932
 30
0.0
 11
210.5089999999911
 21
352.2189999999932
 31
0.0
  0
LINE
  5
178
330
1F
100
AcDbEntity
  8
LAY-2
  6
CONTINUOUS
 62
     6
100
AcDbLine
 10
210.5089999999911
 20
352.2189999999932
 30
0.0
 11
210.6309999999911
 21
352.2269999999933
 31
0.0
  0
LINE
  5
179
330
1F
100
AcDbEntity
  8
LAY-2
  6
CONTINUOUS
 62
     6
100
AcDbLine
 10
210.6309999999911
 20
352.2269999999933
 30
0.0
 11
210.7319999999911
 21
352.2319999999933
 31
0.0
  0
LINE
  5
17A
330
1F
100
AcDbEntity
  8
LAY-2
  6
CONTINUOUS
 62
     6
100
AcDbLine
 10
210.7319999999911
 20
352.2319999999933
 30
0.0
 11
210.8189999999911
 21
352.2359999999933
 31
0.0
  0
LINE
  5
17B
330
1F
100
AcDbEntity
  8
LAY-2
  6
CONTINUOUS
 62
     6
100
AcDbLine
 10
210.8189999999911
 20
352.2359999999933
 30
0.0
 11
210.8939999999911
 21
352.2389999999932
 31
0.0
  0
LINE
  5
17C
330
1F
100
AcDbEntity
  8
LAY-2
  6
CONTINUOUS
 62
     6
100
AcDbLine
 10
210.8939999999911
 20
352.2389999999932
 30
0.0
 11
210.9609999999911
 21
352.2399999999932
 31
0.0
  0
LINE
  5
17D
330
1F
100
AcDbEntity
  8
LAY-2
  6
CONTINUOUS
 62
     6
100
AcDbLine
 10
210.9609999999911
 20
352.2399999999932
 30
0.0
 11
211.0229999999912
 21
352.2419999999933
 31
0.0
  0
LINE
  5
17E
330
1F
100
AcDbEntity
  8
LAY-2
  6
CONTINUOUS
 62
     6
100
AcDbLine
 10
211.0229999999912
 20
352.2419999999933
 30
0.0
 11
211.0809999999911
 21
352.2429999999932
 31
0.0
  0
LINE
  5
17F
330
1F
100
AcDbEntity
  8
LAY-2
  6
CONTINUOUS
 62
     6
100
AcDbLine
 10
211.0809999999911
 20
352.2429999999932
 30
0.0
 11
211.1369999999912
 21
352.2429999999932
 31
0.0
  0
LINE
  5
180
330
1F
100
AcDbEntity
  8
LAY-2
  6
CONTINUOUS
 62
     6
100
AcDbLine
 10
211.1369999999912
 20
352.2429999999932
 30
0.0
 11
211.1899999999912
 21
352.2439999999932
 31
0.0
  0
LINE
  5
181
330
1F
100
AcDbEntity
  8
LAY-2
  6
CONTINUOUS
 62
     6
100
AcDbLine
 10
211.1899999999912
 20
352.2439999999932
 30
0.0
 11
211.2439999999912
 21
352.2429999999932
 31
0.0
  0
LINE
  5
182
330
1F
100
AcDbEntity
  8
LAY-2
  6
CONTINUOUS
 62
     6
100
AcDbLine
 10
211.2439999999912
 20
352.2429999999932
 30
0.0
 11
211.2979999999911
 21
352.2429999999932
 31
0.0
  0
LINE
  5
183
330
1F
100
AcDbEntity
  8
LAY-2
  6
CONTINUOUS
 62
     6
100
AcDbLine
 10
211.2979999999911
 20
352.2429999999932
 30
0.0
 11
211.3529999999911
 21
352.2429999999932
 31
0.0
  0
LINE
  5
184
330
1F
100
AcDbEntity
  8
LAY-2
  6
CONTINUOUS
 62
     6
100
AcDbLine
 10
211.3529999999911
 20
352.2429999999932
 30
0.0
 11
211.4109999999912
 21
352.2419999999933
 31
0.0
  0
LINE
  5
185
330
1F
100
AcDbEntity
  8
LAY-2
  6
CONTINUOUS
 62
     6
100
AcDbLine
 10
211.4109999999912
 20
352.2419999999933
 30
0.0
 11
211.4729999999911
 21
352.2399999999932
 31
0.0
  0
LINE
  5
186
330
1F
100
AcDbEntity
  8
LAY-2
  6
CONTINUOUS
 62
     6
100
AcDbLine
 10
211.4729999999911
 20
352.2399999999932
 30
0.0
 11
211.5409999999912
 21
352.2379999999932
 31
0.0
  0
LINE
  5
187
330
1F
100
AcDbEntity
  8
LAY-2
  6
CONTINUOUS
 62
     6
100
AcDbLine
 10
211.5409999999912
 20
352.2379999999932
 30
0.0
 11
211.6169999999911
 21
352.2359999999933
 31
0.0
  0
LINE
  5
188
330
1F
100
AcDbEntity
  8
LAY-2
  6
CONTINUOUS
 62
     6
100
AcDbLine
 10
211.6169999999911
 20
352.2359999999933
 30
0.0
 11
211.7039999999911
 21
352.2319999999933
 31
0.0
  0
LINE
  5
189
330
1F
100
AcDbEntity
  8
LAY-2
  6
CONTINUOUS
 62
     6
100
AcDbLine
 10
211.7039999999911
 20
352.2319999999933
 30
0.0
 11
211.8059999999912
 21
352.2269999999933
 31
0.0
  0
LINE
  5
18A
330
1F
100
AcDbEntity
  8
LAY-2
  6
CONTINUOUS
 62
     6
100
AcDbLine
 10
211.8059999999912
 20
352.2269999999933
 30
0.0
 11
211.9299999999911
 21
352.2189999999932
 31
0.0
  0
LINE
  5
18B
330
1F
100
AcDbEntity
  8
LAY-2
  6
CONTINUOUS
 62
     6
100
AcDbLine
 10
211.9299999999911
 20
352.2189999999932
 30
0.0
 11
212.0849999999911
 21
352.2059999999932
 31
0.0
  0
LINE
  5
18C
330
1F
100
AcDbEntity
  8
LAY-2
  6
CONTINUOUS
 62
     6
100
AcDbLine
 10
212.0849999999911
 20
352.2059999999932
 30
0.0
 11
212.2859999999912
 21
352.1859999999932
 31
0.0
  0
LINE
  5
18D
330
1F
100
AcDbEntity
  8
LAY-2
  6
CONTINUOUS
 62
     6
100
AcDbLine
 10
212.2859999999912
 20
352.1859999999932
 30
0.0
 11
212.5519999999912
 21
352.1499999999933
 31
0.0
  0
LINE
  5
18E
330
1F
100
AcDbEntity
  8
LAY-2
  6
CONTINUOUS
 62
     6
100
AcDbLine
 10
212.5519999999912
 20
352.1499999999933
 30
0.0
 11
212.9019999999912
 21
352.0839999999932
 31
0.0
  0
LINE
  5
18F
330
1F
100
AcDbEntity
  8
LAY-2
  6
CONTINUOUS
 62
     6
100
AcDbLine
 10
212.9019999999912
 20
352.0839999999932
 30
0.0
 11
213.3089999999911
 21
351.9589999999932
 31
0.0
  0
LINE
  5
190
330
1F
100
AcDbEntity
  8
LAY-2
  6
CONTINUOUS
 62
     6
100
AcDbLine
 10
209.1439999999911
 20
351.9679999999933
 30
0.0
 11
209.5509999999912
 21
352.0889999999932
 31
0.0
  0
LINE
  5
191
330
1F
100
AcDbEntity
  8
LAY-2
  6
CONTINUOUS
 62
     6
100
AcDbLine
 10
209.5509999999912
 20
352.0889999999932
 30
0.0
 11
209.8959999999911
 21
352.1529999999932
 31
0.0
  0
LINE
  5
192
330
1F
100
AcDbEntity
  8
LAY-2
  6
CONTINUOUS
 62
     6
100
AcDbLine
 10
213.2819999999912
 20
344.0149999999933
 30
0.0
 11
213.0179999999912
 21
343.8759999999933
 31
0.0
  0
LINE
  5
193
330
1F
100
AcDbEntity
  8
LAY-2
  6
CONTINUOUS
 62
     6
100
AcDbLine
 10
213.0179999999912
 20
343.8759999999933
 30
0.0
 11
212.7589999999911
 21
343.7809999999932
 31
0.0
  0
LINE
  5
194
330
1F
100
AcDbEntity
  8
LAY-2
  6
CONTINUOUS
 62
     6
100
AcDbLine
 10
212.7589999999911
 20
343.7809999999932
 30
0.0
 11
212.5269999999912
 21
343.7169999999933
 31
0.0
  0
LINE
  5
195
330
1F
100
AcDbEntity
  8
LAY-2
  6
CONTINUOUS
 62
     6
100
AcDbLine
 10
212.5269999999912
 20
343.7169999999933
 30
0.0
 11
212.3269999999911
 21
343.6729999999932
 31
0.0
  0
LINE
  5
196
330
1F
100
AcDbEntity
  8
LAY-2
  6
CONTINUOUS
 62
     6
100
AcDbLine
 10
212.3269999999911
 20
343.6729999999932
 30
0.0
 11
212.1539999999911
 21
343.6429999999932
 31
0.0
  0
LINE
  5
197
330
1F
100
AcDbEntity
  8
LAY-2
  6
CONTINUOUS
 62
     6
100
AcDbLine
 10
212.1539999999911
 20
343.6429999999932
 30
0.0
 11
212.0039999999912
 21
343.6219999999932
 31
0.0
  0
LINE
  5
198
330
1F
100
AcDbEntity
  8
LAY-2
  6
CONTINUOUS
 62
     6
100
AcDbLine
 10
212.0039999999912
 20
343.6219999999932
 30
0.0
 11
211.8719999999911
 21
343.6059999999932
 31
0.0
  0
LINE
  5
199
330
1F
100
AcDbEntity
  8
LAY-2
  6
CONTINUOUS
 62
     6
100
AcDbLine
 10
211.8719999999911
 20
343.6059999999932
 30
0.0
 11
211.7539999999912
 21
343.5949999999932
 31
0.0
  0
LINE
  5
19A
330
1F
100
AcDbEntity
  8
LAY-2
  6
CONTINUOUS
 62
     6
100
AcDbLine
 10
211.7539999999912
 20
343.5949999999932
 30
0.0
 11
211.6469999999912
 21
343.5869999999933
 31
0.0
  0
LINE
  5
19B
330
1F
100
AcDbEntity
  8
LAY-2
  6
CONTINUOUS
 62
     6
100
AcDbLine
 10
211.6469999999912
 20
343.5869999999933
 30
0.0
 11
211.5469999999912
 21
343.5809999999932
 31
0.0
  0
LINE
  5
19C
330
1F
100
AcDbEntity
  8
LAY-2
  6
CONTINUOUS
 62
     6
100
AcDbLine
 10
211.5469999999912
 20
343.5809999999932
 30
0.0
 11
211.4529999999911
 21
343.5769999999932
 31
0.0
  0
LINE
  5
19D
330
1F
100
AcDbEntity
  8
LAY-2
  6
CONTINUOUS
 62
     6
100
AcDbLine
 10
211.4529999999911
 20
343.5769999999932
 30
0.0
 11
211.3639999999912
 21
343.5739999999932
 31
0.0
  0
LINE
  5
19E
330
1F
100
AcDbEntity
  8
LAY-2
  6
CONTINUOUS
 62
     6
100
AcDbLine
 10
211.3639999999912
 20
343.5739999999932
 30
0.0
 11
211.2769999999912
 21
343.5729999999933
 31
0.0
  0
LINE
  5
19F
330
1F
100
AcDbEntity
  8
LAY-2
  6
CONTINUOUS
 62
     6
100
AcDbLine
 10
211.2769999999912
 20
343.5729999999933
 30
0.0
 11
211.2159999999911
 21
343.5719999999932
 31
0.0
  0
LINE
  5
1A0
330
1F
100
AcDbEntity
  8
LAY-2
  6
CONTINUOUS
 62
     6
100
AcDbLine
 10
213.5809999999911
 20
351.7109999999932
 30
0.0
 11
218.1209999999911
 21
351.7109999999932
 31
0.0
  0
LINE
  5
1A1
330
1F
100
AcDbEntity
  8
LAY-2
  6
CONTINUOUS
 62
     6
100
AcDbLine
 10
218.1209999999911
 20
344.4329999999932
 30
0.0
 11
213.5809999999911
 21
344.4329999999932
 31
0.0
  0
LINE
  5
1A2
330
1F
100
AcDbEntity
  8
LAY-2
  6
CONTINUOUS
 62
     6
100
AcDbLine
 10
213.5809999999911
 20
351.7109999999932
 30
0.0
 11
213.5809999999911
 21
344.4329999999932
 31
0.0
  0
LINE
  5
1A3
330
1F
100
AcDbEntity
  8
LAY-2
  6
CONTINUOUS
 62
     6
100
AcDbLine
 10
218.1209999999911
 20
351.7109999999932
 30
0.0
 11
218.1209999999911
 21
344.4329999999932
 31
0.0
  0
LINE
  5
1A4
330
1F
100
AcDbEntity
  8
LAY-2
  6
CONTINUOUS
 62
     6
100
AcDbLine
 10
218.1209999999911
 20
351.7109999999932
 30
0.0
 11
219.1759999999912
 21
352.0539999999933
 31
0.0
  0
LINE
  5
1A5
330
1F
100
AcDbEntity
  8
LAY-2
  6
CONTINUOUS
 62
     6
100
AcDbLine
 10
213.3089999999911
 20
351.9589999999932
 30
0.0
 11
213.5739999999911
 21
351.7529999999932
 31
0.0
  0
LINE
  5
1A6
330
1F
100
AcDbEntity
  8
LAY-2
  6
CONTINUOUS
 62
     6
100
AcDbLine
 10
213.5739999999911
 20
351.7529999999932
 30
0.0
 11
213.5809999999911
 21
351.7109999999932
 31
0.0
  0
LINE
  5
1A7
330
1F
100
AcDbEntity
  8
LAY-2
  6
CONTINUOUS
 62
     6
100
AcDbLine
 10
213.5809999999911
 20
344.4329999999932
 30
0.0
 11
213.4959999999911
 21
344.2049999999932
 31
0.0
  0
LINE
  5
1A8
330
1F
100
AcDbEntity
  8
LAY-2
  6
CONTINUOUS
 62
     6
100
AcDbLine
 10
213.4959999999911
 20
344.2049999999932
 30
0.0
 11
213.2819999999912
 21
344.0149999999933
 31
0.0
  0
LINE
  5
1A9
330
1F
100
AcDbEntity
  8
LAY-2
  6
CONTINUOUS
 62
     6
100
AcDbLine
 10
227.0789999999912
 20
351.7109999999932
 30
0.0
 11
226.0239999999911
 21
352.0539999999933
 31
0.0
  0
LINE
  5
1AA
330
1F
100
AcDbEntity
  8
LAY-2
  6
CONTINUOUS
 62
     6
100
AcDbLine
 10
226.0239999999911
 20
352.0539999999933
 30
0.0
 11
224.8679999999912
 21
352.1699999999933
 31
0.0
  0
LINE
  5
1AB
330
1F
100
AcDbEntity
  8
LAY-2
  6
CONTINUOUS
 62
     6
100
AcDbLine
 10
224.8679999999912
 20
352.1699999999933
 30
0.0
 11
224.2079999999911
 21
352.2079999999933
 31
0.0
  0
LINE
  5
1AC
330
1F
100
AcDbEntity
  8
LAY-2
  6
CONTINUOUS
 62
     6
100
AcDbLine
 10
224.2079999999911
 20
352.2079999999933
 30
0.0
 11
223.8139999999911
 21
352.2239999999932
 31
0.0
  0
LINE
  5
1AD
330
1F
100
AcDbEntity
  8
LAY-2
  6
CONTINUOUS
 62
     6
100
AcDbLine
 10
223.8139999999911
 20
352.2239999999932
 30
0.0
 11
223.5529999999911
 21
352.2309999999932
 31
0.0
  0
LINE
  5
1AE
330
1F
100
AcDbEntity
  8
LAY-2
  6
CONTINUOUS
 62
     6
100
AcDbLine
 10
223.5529999999911
 20
352.2309999999932
 30
0.0
 11
223.3679999999912
 21
352.2359999999933
 31
0.0
  0
LINE
  5
1AF
330
1F
100
AcDbEntity
  8
LAY-2
  6
CONTINUOUS
 62
     6
100
AcDbLine
 10
223.3679999999912
 20
352.2359999999933
 30
0.0
 11
223.2269999999911
 21
352.2379999999932
 31
0.0
  0
LINE
  5
1B0
330
1F
100
AcDbEntity
  8
LAY-2
  6
CONTINUOUS
 62
     6
100
AcDbLine
 10
223.2269999999911
 20
352.2379999999932
 30
0.0
 11
223.1139999999912
 21
352.2399999999932
 31
0.0
  0
LINE
  5
1B1
330
1F
100
AcDbEntity
  8
LAY-2
  6
CONTINUOUS
 62
     6
100
AcDbLine
 10
223.1139999999912
 20
352.2399999999932
 30
0.0
 11
223.0209999999911
 21
352.2409999999933
 31
0.0
  0
LINE
  5
1B2
330
1F
100
AcDbEntity
  8
LAY-2
  6
CONTINUOUS
 62
     6
100
AcDbLine
 10
223.0209999999911
 20
352.2409999999933
 30
0.0
 11
222.9409999999912
 21
352.2419999999933
 31
0.0
  0
LINE
  5
1B3
330
1F
100
AcDbEntity
  8
LAY-2
  6
CONTINUOUS
 62
     6
100
AcDbLine
 10
222.9409999999912
 20
352.2419999999933
 30
0.0
 11
222.8709999999911
 21
352.2429999999932
 31
0.0
  0
LINE
  5
1B4
330
1F
100
AcDbEntity
  8
LAY-2
  6
CONTINUOUS
 62
     6
100
AcDbLine
 10
222.8709999999911
 20
352.2429999999932
 30
0.0
 11
222.8069999999911
 21
352.2429999999932
 31
0.0
  0
LINE
  5
1B5
330
1F
100
AcDbEntity
  8
LAY-2
  6
CONTINUOUS
 62
     6
100
AcDbLine
 10
222.8069999999911
 20
352.2429999999932
 30
0.0
 11
222.7479999999912
 21
352.2429999999932
 31
0.0
  0
LINE
  5
1B6
330
1F
100
AcDbEntity
  8
LAY-2
  6
CONTINUOUS
 62
     6
100
AcDbLine
 10
222.7479999999912
 20
352.2429999999932
 30
0.0
 11
222.6919999999911
 21
352.2429999999932
 31
0.0
  0
LINE
  5
1B7
330
1F
100
AcDbEntity
  8
LAY-2
  6
CONTINUOUS
 62
     6
100
AcDbLine
 10
222.6919999999911
 20
352.2429999999932
 30
0.0
 11
222.6379999999912
 21
352.2439999999932
 31
0.0
  0
LINE
  5
1B8
330
1F
100
AcDbEntity
  8
LAY-2
  6
CONTINUOUS
 62
     6
100
AcDbLine
 10
222.6379999999912
 20
352.2439999999932
 30
0.0
 11
222.5999999999912
 21
352.2439999999932
 31
0.0
  0
LINE
  5
1B9
330
1F
100
AcDbEntity
  8
LAY-2
  6
CONTINUOUS
 62
     6
100
AcDbLine
 10
219.1759999999912
 20
352.0539999999933
 30
0.0
 11
220.3319999999911
 21
352.1699999999933
 31
0.0
  0
LINE
  5
1BA
330
1F
100
AcDbEntity
  8
LAY-2
  6
CONTINUOUS
 62
     6
100
AcDbLine
 10
220.3319999999911
 20
352.1699999999933
 30
0.0
 11
220.9919999999911
 21
352.2079999999933
 31
0.0
  0
LINE
  5
1BB
330
1F
100
AcDbEntity
  8
LAY-2
  6
CONTINUOUS
 62
     6
100
AcDbLine
 10
220.9919999999911
 20
352.2079999999933
 30
0.0
 11
221.3859999999911
 21
352.2239999999932
 31
0.0
  0
LINE
  5
1BC
330
1F
100
AcDbEntity
  8
LAY-2
  6
CONTINUOUS
 62
     6
100
AcDbLine
 10
221.3859999999911
 20
352.2239999999932
 30
0.0
 11
221.6469999999911
 21
352.2309999999932
 31
0.0
  0
LINE
  5
1BD
330
1F
100
AcDbEntity
  8
LAY-2
  6
CONTINUOUS
 62
     6
100
AcDbLine
 10
221.6469999999911
 20
352.2309999999932
 30
0.0
 11
221.8319999999911
 21
352.2359999999933
 31
0.0
  0
LINE
  5
1BE
330
1F
100
AcDbEntity
  8
LAY-2
  6
CONTINUOUS
 62
     6
100
AcDbLine
 10
221.8319999999911
 20
352.2359999999933
 30
0.0
 11
221.9729999999911
 21
352.2379999999932
 31
0.0
  0
LINE
  5
1BF
330
1F
100
AcDbEntity
  8
LAY-2
  6
CONTINUOUS
 62
     6
100
AcDbLine
 10
221.9729999999911
 20
352.2379999999932
 30
0.0
 11
222.0859999999911
 21
352.2399999999932
 31
0.0
  0
LINE
  5
1C0
330
1F
100
AcDbEntity
  8
LAY-2
  6
CONTINUOUS
 62
     6
100
AcDbLine
 10
222.0859999999911
 20
352.2399999999932
 30
0.0
 11
222.1789999999911
 21
352.2409999999933
 31
0.0
  0
LINE
  5
1C1
330
1F
100
AcDbEntity
  8
LAY-2
  6
CONTINUOUS
 62
     6
100
AcDbLine
 10
222.1789999999911
 20
352.2409999999933
 30
0.0
 11
222.2589999999911
 21
352.2419999999933
 31
0.0
  0
LINE
  5
1C2
330
1F
100
AcDbEntity
  8
LAY-2
  6
CONTINUOUS
 62
     6
100
AcDbLine
 10
222.2589999999911
 20
352.2419999999933
 30
0.0
 11
222.3289999999911
 21
352.2429999999932
 31
0.0
  0
LINE
  5
1C3
330
1F
100
AcDbEntity
  8
LAY-2
  6
CONTINUOUS
 62
     6
100
AcDbLine
 10
222.3289999999911
 20
352.2429999999932
 30
0.0
 11
222.3929999999912
 21
352.2429999999932
 31
0.0
  0
LINE
  5
1C4
330
1F
100
AcDbEntity
  8
LAY-2
  6
CONTINUOUS
 62
     6
100
AcDbLine
 10
222.3929999999912
 20
352.2429999999932
 30
0.0
 11
222.4519999999911
 21
352.2429999999932
 31
0.0
  0
LINE
  5
1C5
330
1F
100
AcDbEntity
  8
LAY-2
  6
CONTINUOUS
 62
     6
100
AcDbLine
 10
222.4519999999911
 20
352.2429999999932
 30
0.0
 11
222.5079999999912
 21
352.2429999999932
 31
0.0
  0
LINE
  5
1C6
330
1F
100
AcDbEntity
  8
LAY-2
  6
CONTINUOUS
 62
     6
100
AcDbLine
 10
222.5079999999912
 20
352.2429999999932
 30
0.0
 11
222.5619999999911
 21
352.2439999999932
 31
0.0
  0
LINE
  5
1C7
330
1F
100
AcDbEntity
  8
LAY-2
  6
CONTINUOUS
 62
     6
100
AcDbLine
 10
222.5619999999911
 20
352.2439999999932
 30
0.0
 11
222.5999999999912
 21
352.2439999999932
 31
0.0
  0
LINE
  5
1C8
330
1F
100
AcDbEntity
  8
LAY-2
  6
CONTINUOUS
 62
     6
100
AcDbLine
 10
222.5999999999912
 20
343.5719999999932
 30
0.0
 11
222.6859999999912
 21
343.5729999999933
 31
0.0
  0
LINE
  5
1C9
330
1F
100
AcDbEntity
  8
LAY-2
  6
CONTINUOUS
 62
     6
100
AcDbLine
 10
222.6859999999912
 20
343.5729999999933
 30
0.0
 11
222.7739999999911
 21
343.5729999999933
 31
0.0
  0
LINE
  5
1CA
330
1F
100
AcDbEntity
  8
LAY-2
  6
CONTINUOUS
 62
     6
100
AcDbLine
 10
222.7739999999911
 20
343.5729999999933
 30
0.0
 11
222.8659999999911
 21
343.5739999999932
 31
0.0
  0
LINE
  5
1CB
330
1F
100
AcDbEntity
  8
LAY-2
  6
CONTINUOUS
 62
     6
100
AcDbLine
 10
222.8659999999911
 20
343.5739999999932
 30
0.0
 11
222.9629999999911
 21
343.5749999999932
 31
0.0
  0
LINE
  5
1CC
330
1F
100
AcDbEntity
  8
LAY-2
  6
CONTINUOUS
 62
     6
100
AcDbLine
 10
222.9629999999911
 20
343.5749999999932
 30
0.0
 11
223.0679999999911
 21
343.5769999999932
 31
0.0
  0
LINE
  5
1CD
330
1F
100
AcDbEntity
  8
LAY-2
  6
CONTINUOUS
 62
     6
100
AcDbLine
 10
223.0679999999911
 20
343.5769999999932
 30
0.0
 11
223.1839999999911
 21
343.5799999999932
 31
0.0
  0
LINE
  5
1CE
330
1F
100
AcDbEntity
  8
LAY-2
  6
CONTINUOUS
 62
     6
100
AcDbLine
 10
223.1839999999911
 20
343.5799999999932
 30
0.0
 11
223.3159999999911
 21
343.5839999999932
 31
0.0
  0
LINE
  5
1CF
330
1F
100
AcDbEntity
  8
LAY-2
  6
CONTINUOUS
 62
     6
100
AcDbLine
 10
223.3159999999911
 20
343.5839999999932
 30
0.0
 11
223.4699999999911
 21
343.5889999999932
 31
0.0
  0
LINE
  5
1D0
330
1F
100
AcDbEntity
  8
LAY-2
  6
CONTINUOUS
 62
     6
100
AcDbLine
 10
223.4699999999911
 20
343.5889999999932
 30
0.0
 11
223.6539999999911
 21
343.5969999999933
 31
0.0
  0
LINE
  5
1D1
330
1F
100
AcDbEntity
  8
LAY-2
  6
CONTINUOUS
 62
     6
100
AcDbLine
 10
223.6539999999911
 20
343.5969999999933
 30
0.0
 11
223.8849999999911
 21
343.6089999999932
 31
0.0
  0
LINE
  5
1D2
330
1F
100
AcDbEntity
  8
LAY-2
  6
CONTINUOUS
 62
     6
100
AcDbLine
 10
223.8849999999911
 20
343.6089999999932
 30
0.0
 11
224.1829999999911
 21
343.6279999999932
 31
0.0
  0
LINE
  5
1D3
330
1F
100
AcDbEntity
  8
LAY-2
  6
CONTINUOUS
 62
     6
100
AcDbLine
 10
224.1829999999911
 20
343.6279999999932
 30
0.0
 11
224.5849999999911
 21
343.6619999999932
 31
0.0
  0
LINE
  5
1D4
330
1F
100
AcDbEntity
  8
LAY-2
  6
CONTINUOUS
 62
     6
100
AcDbLine
 10
224.5849999999911
 20
343.6619999999932
 30
0.0
 11
225.1499999999911
 21
343.7259999999932
 31
0.0
  0
LINE
  5
1D5
330
1F
100
AcDbEntity
  8
LAY-2
  6
CONTINUOUS
 62
     6
100
AcDbLine
 10
225.1499999999911
 20
343.7259999999932
 30
0.0
 11
225.9339999999911
 21
343.8579999999932
 31
0.0
  0
LINE
  5
1D6
330
1F
100
AcDbEntity
  8
LAY-2
  6
CONTINUOUS
 62
     6
100
AcDbLine
 10
225.9339999999911
 20
343.8579999999932
 30
0.0
 11
226.8019999999912
 21
344.1349999999933
 31
0.0
  0
LINE
  5
1D7
330
1F
100
AcDbEntity
  8
LAY-2
  6
CONTINUOUS
 62
     6
100
AcDbLine
 10
226.8019999999912
 20
344.1349999999933
 30
0.0
 11
227.0789999999912
 21
344.4329999999932
 31
0.0
  0
LINE
  5
1D8
330
1F
100
AcDbEntity
  8
LAY-2
  6
CONTINUOUS
 62
     6
100
AcDbLine
 10
222.5999999999912
 20
343.5719999999932
 30
0.0
 11
222.5139999999911
 21
343.5729999999933
 31
0.0
  0
LINE
  5
1D9
330
1F
100
AcDbEntity
  8
LAY-2
  6
CONTINUOUS
 62
     6
100
AcDbLine
 10
222.5139999999911
 20
343.5729999999933
 30
0.0
 11
222.4259999999912
 21
343.5729999999933
 31
0.0
  0
LINE
  5
1DA
330
1F
100
AcDbEntity
  8
LAY-2
  6
CONTINUOUS
 62
     6
100
AcDbLine
 10
222.4259999999912
 20
343.5729999999933
 30
0.0
 11
222.3339999999912
 21
343.5739999999932
 31
0.0
  0
LINE
  5
1DB
330
1F
100
AcDbEntity
  8
LAY-2
  6
CONTINUOUS
 62
     6
100
AcDbLine
 10
222.3339999999912
 20
343.5739999999932
 30
0.0
 11
222.2369999999911
 21
343.5749999999932
 31
0.0
  0
LINE
  5
1DC
330
1F
100
AcDbEntity
  8
LAY-2
  6
CONTINUOUS
 62
     6
100
AcDbLine
 10
222.2369999999911
 20
343.5749999999932
 30
0.0
 11
222.1319999999911
 21
343.5769999999932
 31
0.0
  0
LINE
  5
1DD
330
1F
100
AcDbEntity
  8
LAY-2
  6
CONTINUOUS
 62
     6
100
AcDbLine
 10
222.1319999999911
 20
343.5769999999932
 30
0.0
 11
222.0159999999911
 21
343.5799999999932
 31
0.0
  0
LINE
  5
1DE
330
1F
100
AcDbEntity
  8
LAY-2
  6
CONTINUOUS
 62
     6
100
AcDbLine
 10
222.0159999999911
 20
343.5799999999932
 30
0.0
 11
221.8839999999911
 21
343.5839999999932
 31
0.0
  0
LINE
  5
1DF
330
1F
100
AcDbEntity
  8
LAY-2
  6
CONTINUOUS
 62
     6
100
AcDbLine
 10
221.8839999999911
 20
343.5839999999932
 30
0.0
 11
221.7299999999912
 21
343.5889999999932
 31
0.0
  0
LINE
  5
1E0
330
1F
100
AcDbEntity
  8
LAY-2
  6
CONTINUOUS
 62
     6
100
AcDbLine
 10
221.7299999999912
 20
343.5889999999932
 30
0.0
 11
221.5459999999912
 21
343.5969999999933
 31
0.0
  0
LINE
  5
1E1
330
1F
100
AcDbEntity
  8
LAY-2
  6
CONTINUOUS
 62
     6
100
AcDbLine
 10
221.5459999999912
 20
343.5969999999933
 30
0.0
 11
221.3149999999912
 21
343.6089999999932
 31
0.0
  0
LINE
  5
1E2
330
1F
100
AcDbEntity
  8
LAY-2
  6
CONTINUOUS
 62
     6
100
AcDbLine
 10
221.3149999999912
 20
343.6089999999932
 30
0.0
 11
221.0169999999912
 21
343.6279999999932
 31
0.0
  0
LINE
  5
1E3
330
1F
100
AcDbEntity
  8
LAY-2
  6
CONTINUOUS
 62
     6
100
AcDbLine
 10
221.0169999999912
 20
343.6279999999932
 30
0.0
 11
220.6149999999911
 21
343.6619999999932
 31
0.0
  0
LINE
  5
1E4
330
1F
100
AcDbEntity
  8
LAY-2
  6
CONTINUOUS
 62
     6
100
AcDbLine
 10
220.6149999999911
 20
343.6619999999932
 30
0.0
 11
220.0499999999911
 21
343.7259999999932
 31
0.0
  0
LINE
  5
1E5
330
1F
100
AcDbEntity
  8
LAY-2
  6
CONTINUOUS
 62
     6
100
AcDbLine
 10
220.0499999999911
 20
343.7259999999932
 30
0.0
 11
219.2659999999911
 21
343.8579999999932
 31
0.0
  0
LINE
  5
1E6
330
1F
100
AcDbEntity
  8
LAY-2
  6
CONTINUOUS
 62
     6
100
AcDbLine
 10
219.2659999999911
 20
343.8579999999932
 30
0.0
 11
218.3979999999912
 21
344.1349999999933
 31
0.0
  0
LINE
  5
1E7
330
1F
100
AcDbEntity
  8
LAY-2
  6
CONTINUOUS
 62
     6
100
AcDbLine
 10
218.3979999999912
 20
344.1349999999933
 30
0.0
 11
218.1209999999911
 21
344.4329999999932
 31
0.0
  0
LINE
  5
1E8
330
1F
100
AcDbEntity
  8
LAY-2
  6
CONTINUOUS
 62
     6
100
AcDbLine
 10
227.0789999999912
 20
351.7109999999932
 30
0.0
 11
227.0789999999912
 21
344.4329999999932
 31
0.0
  0
LINE
  5
1E9
330
1F
100
AcDbEntity
  8
LAY-2
  6
CONTINUOUS
 62
     6
100
AcDbLine
 10
231.6189999999912
 20
351.7109999999932
 30
0.0
 11
227.0789999999912
 21
351.7109999999932
 31
0.0
  0
LINE
  5
1EA
330
1F
100
AcDbEntity
  8
LAY-2
  6
CONTINUOUS
 62
     6
100
AcDbLine
 10
227.0789999999912
 20
344.4329999999932
 30
0.0
 11
231.6189999999912
 21
344.4329999999932
 31
0.0
  0
LINE
  5
1EB
330
1F
100
AcDbEntity
  8
LAY-2
  6
CONTINUOUS
 62
     6
100
AcDbLine
 10
231.6189999999912
 20
351.7109999999932
 30
0.0
 11
231.6189999999912
 21
344.4329999999932
 31
0.0
  0
LINE
  5
1EC
330
1F
100
AcDbEntity
  8
LAY-2
  6
CONTINUOUS
 62
     6
100
AcDbLine
 10
236.0559999999911
 20
351.9679999999933
 30
0.0
 11
235.6489999999911
 21
352.0889999999932
 31
0.0
  0
LINE
  5
1ED
330
1F
100
AcDbEntity
  8
LAY-2
  6
CONTINUOUS
 62
     6
100
AcDbLine
 10
235.6489999999911
 20
352.0889999999932
 30
0.0
 11
235.3039999999911
 21
352.1529999999932
 31
0.0
  0
LINE
  5
1EE
330
1F
100
AcDbEntity
  8
LAY-2
  6
CONTINUOUS
 62
     6
100
AcDbLine
 10
235.3039999999911
 20
352.1529999999932
 30
0.0
 11
235.0419999999912
 21
352.1869999999932
 31
0.0
  0
LINE
  5
1EF
330
1F
100
AcDbEntity
  8
LAY-2
  6
CONTINUOUS
 62
     6
100
AcDbLine
 10
232.6479999999912
 20
352.1499999999933
 30
0.0
 11
232.2979999999911
 21
352.0839999999932
 31
0.0
  0
LINE
  5
1F0
330
1F
100
AcDbEntity
  8
LAY-2
  6
CONTINUOUS
 62
     6
100
AcDbLine
 10
232.2979999999911
 20
352.0839999999932
 30
0.0
 11
231.8909999999911
 21
351.9589999999932
 31
0.0
  0
LINE
  5
1F1
330
1F
100
AcDbEntity
  8
LAY-2
  6
CONTINUOUS
 62
     6
100
AcDbLine
 10
231.8909999999911
 20
351.9589999999932
 30
0.0
 11
231.6259999999911
 21
351.7529999999932
 31
0.0
  0
LINE
  5
1F2
330
1F
100
AcDbEntity
  8
LAY-2
  6
CONTINUOUS
 62
     6
100
AcDbLine
 10
231.6259999999911
 20
351.7529999999932
 30
0.0
 11
231.6189999999912
 21
351.7109999999932
 31
0.0
  0
LINE
  5
1F3
330
1F
100
AcDbEntity
  8
LAY-2
  6
CONTINUOUS
 62
     6
100
AcDbLine
 10
235.0419999999912
 20
352.1869999999932
 30
0.0
 11
234.8439999999912
 21
352.2069999999932
 31
0.0
  0
LINE
  5
1F4
330
1F
100
AcDbEntity
  8
LAY-2
  6
CONTINUOUS
 62
     6
100
AcDbLine
 10
234.8439999999912
 20
352.2069999999932
 30
0.0
 11
234.6909999999912
 21
352.2189999999932
 31
0.0
  0
LINE
  5
1F5
330
1F
100
AcDbEntity
  8
LAY-2
  6
CONTINUOUS
 62
     6
100
AcDbLine
 10
234.6909999999912
 20
352.2189999999932
 30
0.0
 11
234.5689999999911
 21
352.2269999999933
 31
0.0
  0
LINE
  5
1F6
330
1F
100
AcDbEntity
  8
LAY-2
  6
CONTINUOUS
 62
     6
100
AcDbLine
 10
234.5689999999911
 20
352.2269999999933
 30
0.0
 11
234.4679999999911
 21
352.2319999999933
 31
0.0
  0
LINE
  5
1F7
330
1F
100
AcDbEntity
  8
LAY-2
  6
CONTINUOUS
 62
     6
100
AcDbLine
 10
234.4679999999911
 20
352.2319999999933
 30
0.0
 11
234.3809999999911
 21
352.2359999999933
 31
0.0
  0
LINE
  5
1F8
330
1F
100
AcDbEntity
  8
LAY-2
  6
CONTINUOUS
 62
     6
100
AcDbLine
 10
234.3809999999911
 20
352.2359999999933
 30
0.0
 11
234.3059999999912
 21
352.2389999999932
 31
0.0
  0
LINE
  5
1F9
330
1F
100
AcDbEntity
  8
LAY-2
  6
CONTINUOUS
 62
     6
100
AcDbLine
 10
234.3059999999912
 20
352.2389999999932
 30
0.0
 11
234.2389999999912
 21
352.2399999999932
 31
0.0
  0
LINE
  5
1FA
330
1F
100
AcDbEntity
  8
LAY-2
  6
CONTINUOUS
 62
     6
100
AcDbLine
 10
234.2389999999912
 20
352.2399999999932
 30
0.0
 11
234.1769999999912
 21
352.2419999999933
 31
0.0
  0
LINE
  5
1FB
330
1F
100
AcDbEntity
  8
LAY-2
  6
CONTINUOUS
 62
     6
100
AcDbLine
 10
234.1769999999912
 20
352.2419999999933
 30
0.0
 11
234.1189999999912
 21
352.2429999999932
 31
0.0
  0
LINE
  5
1FC
330
1F
100
AcDbEntity
  8
LAY-2
  6
CONTINUOUS
 62
     6
100
AcDbLine
 10
234.1189999999912
 20
352.2429999999932
 30
0.0
 11
234.0629999999911
 21
352.2429999999932
 31
0.0
  0
LINE
  5
1FD
330
1F
100
AcDbEntity
  8
LAY-2
  6
CONTINUOUS
 62
     6
100
AcDbLine
 10
234.0629999999911
 20
352.2429999999932
 30
0.0
 11
234.0099999999911
 21
352.2439999999932
 31
0.0
  0
LINE
  5
1FE
330
1F
100
AcDbEntity
  8
LAY-2
  6
CONTINUOUS
 62
     6
100
AcDbLine
 10
234.0099999999911
 20
352.2439999999932
 30
0.0
 11
233.9559999999911
 21
352.2429999999932
 31
0.0
  0
LINE
  5
1FF
330
1F
100
AcDbEntity
  8
LAY-2
  6
CONTINUOUS
 62
     6
100
AcDbLine
 10
233.9559999999911
 20
352.2429999999932
 30
0.0
 11
233.9019999999912
 21
352.2429999999932
 31
0.0
  0
LINE
  5
200
330
1F
100
AcDbEntity
  8
LAY-2
  6
CONTINUOUS
 62
     6
100
AcDbLine
 10
233.9019999999912
 20
352.2429999999932
 30
0.0
 11
233.8469999999911
 21
352.2429999999932
 31
0.0
  0
LINE
  5
201
330
1F
100
AcDbEntity
  8
LAY-2
  6
CONTINUOUS
 62
     6
100
AcDbLine
 10
233.8469999999911
 20
352.2429999999932
 30
0.0
 11
233.7889999999911
 21
352.2419999999933
 31
0.0
  0
LINE
  5
202
330
1F
100
AcDbEntity
  8
LAY-2
  6
CONTINUOUS
 62
     6
100
AcDbLine
 10
233.7889999999911
 20
352.2419999999933
 30
0.0
 11
233.7269999999911
 21
352.2399999999932
 31
0.0
  0
LINE
  5
203
330
1F
100
AcDbEntity
  8
LAY-2
  6
CONTINUOUS
 62
     6
100
AcDbLine
 10
233.7269999999911
 20
352.2399999999932
 30
0.0
 11
233.6589999999911
 21
352.2379999999932
 31
0.0
  0
LINE
  5
204
330
1F
100
AcDbEntity
  8
LAY-2
  6
CONTINUOUS
 62
     6
100
AcDbLine
 10
233.6589999999911
 20
352.2379999999932
 30
0.0
 11
233.5829999999911
 21
352.2359999999933
 31
0.0
  0
LINE
  5
205
330
1F
100
AcDbEntity
  8
LAY-2
  6
CONTINUOUS
 62
     6
100
AcDbLine
 10
233.5829999999911
 20
352.2359999999933
 30
0.0
 11
233.4959999999911
 21
352.2319999999933
 31
0.0
  0
LINE
  5
206
330
1F
100
AcDbEntity
  8
LAY-2
  6
CONTINUOUS
 62
     6
100
AcDbLine
 10
233.4959999999911
 20
352.2319999999933
 30
0.0
 11
233.3939999999911
 21
352.2269999999933
 31
0.0
  0
LINE
  5
207
330
1F
100
AcDbEntity
  8
LAY-2
  6
CONTINUOUS
 62
     6
100
AcDbLine
 10
233.3939999999911
 20
352.2269999999933
 30
0.0
 11
233.2699999999911
 21
352.2189999999932
 31
0.0
  0
LINE
  5
208
330
1F
100
AcDbEntity
  8
LAY-2
  6
CONTINUOUS
 62
     6
100
AcDbLine
 10
233.2699999999911
 20
352.2189999999932
 30
0.0
 11
233.1149999999911
 21
352.2059999999932
 31
0.0
  0
LINE
  5
209
330
1F
100
AcDbEntity
  8
LAY-2
  6
CONTINUOUS
 62
     6
100
AcDbLine
 10
233.1149999999911
 20
352.2059999999932
 30
0.0
 11
232.9139999999911
 21
352.1859999999932
 31
0.0
  0
LINE
  5
20A
330
1F
100
AcDbEntity
  8
LAY-2
  6
CONTINUOUS
 62
     6
100
AcDbLine
 10
232.9139999999911
 20
352.1859999999932
 30
0.0
 11
232.6479999999912
 21
352.1499999999933
 31
0.0
  0
LINE
  5
20B
330
1F
100
AcDbEntity
  8
LAY-2
  6
CONTINUOUS
 62
     6
100
AcDbLine
 10
231.6189999999912
 20
344.4329999999932
 30
0.0
 11
231.7039999999912
 21
344.2049999999932
 31
0.0
  0
LINE
  5
20C
330
1F
100
AcDbEntity
  8
LAY-2
  6
CONTINUOUS
 62
     6
100
AcDbLine
 10
231.7039999999912
 20
344.2049999999932
 30
0.0
 11
231.9179999999911
 21
344.0149999999933
 31
0.0
  0
LINE
  5
20D
330
1F
100
AcDbEntity
  8
LAY-2
  6
CONTINUOUS
 62
     6
100
AcDbLine
 10
231.9179999999911
 20
344.0149999999933
 30
0.0
 11
232.1819999999911
 21
343.8759999999933
 31
0.0
  0
LINE
  5
20E
330
1F
100
AcDbEntity
  8
LAY-2
  6
CONTINUOUS
 62
     6
100
AcDbLine
 10
232.1819999999911
 20
343.8759999999933
 30
0.0
 11
232.4409999999912
 21
343.7809999999932
 31
0.0
  0
LINE
  5
20F
330
1F
100
AcDbEntity
  8
LAY-2
  6
CONTINUOUS
 62
     6
100
AcDbLine
 10
232.4409999999912
 20
343.7809999999932
 30
0.0
 11
232.6729999999912
 21
343.7169999999933
 31
0.0
  0
LINE
  5
210
330
1F
100
AcDbEntity
  8
LAY-2
  6
CONTINUOUS
 62
     6
100
AcDbLine
 10
232.6729999999912
 20
343.7169999999933
 30
0.0
 11
232.8729999999911
 21
343.6729999999932
 31
0.0
  0
LINE
  5
211
330
1F
100
AcDbEntity
  8
LAY-2
  6
CONTINUOUS
 62
     6
100
AcDbLine
 10
232.8729999999911
 20
343.6729999999932
 30
0.0
 11
233.0459999999912
 21
343.6429999999932
 31
0.0
  0
LINE
  5
212
330
1F
100
AcDbEntity
  8
LAY-2
  6
CONTINUOUS
 62
     6
100
AcDbLine
 10
233.0459999999912
 20
343.6429999999932
 30
0.0
 11
233.1959999999911
 21
343.6219999999932
 31
0.0
  0
LINE
  5
213
330
1F
100
AcDbEntity
  8
LAY-2
  6
CONTINUOUS
 62
     6
100
AcDbLine
 10
233.1959999999911
 20
343.6219999999932
 30
0.0
 11
233.3279999999911
 21
343.6059999999932
 31
0.0
  0
LINE
  5
214
330
1F
100
AcDbEntity
  8
LAY-2
  6
CONTINUOUS
 62
     6
100
AcDbLine
 10
233.3279999999911
 20
343.6059999999932
 30
0.0
 11
233.4459999999911
 21
343.5949999999932
 31
0.0
  0
LINE
  5
215
330
1F
100
AcDbEntity
  8
LAY-2
  6
CONTINUOUS
 62
     6
100
AcDbLine
 10
233.4459999999911
 20
343.5949999999932
 30
0.0
 11
233.5529999999911
 21
343.5869999999933
 31
0.0
  0
LINE
  5
216
330
1F
100
AcDbEntity
  8
LAY-2
  6
CONTINUOUS
 62
     6
100
AcDbLine
 10
233.5529999999911
 20
343.5869999999933
 30
0.0
 11
233.6529999999912
 21
343.5809999999932
 31
0.0
  0
LINE
  5
217
330
1F
100
AcDbEntity
  8
LAY-2
  6
CONTINUOUS
 62
     6
100
AcDbLine
 10
233.6529999999912
 20
343.5809999999932
 30
0.0
 11
233.7469999999911
 21
343.5769999999932
 31
0.0
  0
LINE
  5
218
330
1F
100
AcDbEntity
  8
LAY-2
  6
CONTINUOUS
 62
     6
100
AcDbLine
 10
233.7469999999911
 20
343.5769999999932
 30
0.0
 11
233.8359999999911
 21
343.5739999999932
 31
0.0
  0
LINE
  5
219
330
1F
100
AcDbEntity
  8
LAY-2
  6
CONTINUOUS
 62
     6
100
AcDbLine
 10
233.8359999999911
 20
343.5739999999932
 30
0.0
 11
233.9229999999912
 21
343.5729999999933
 31
0.0
  0
LINE
  5
21A
330
1F
100
AcDbEntity
  8
LAY-2
  6
CONTINUOUS
 62
     6
100
AcDbLine
 10
233.9229999999912
 20
343.5729999999933
 30
0.0
 11
233.9839999999911
 21
343.5719999999932
 31
0.0
  0
LINE
  5
21B
330
1F
100
AcDbEntity
  8
LAY-2
  6
EXLTYPE3
 62
     1
100
AcDbLine
 10
200.5379999999911
 20
317.5999999999932
 30
0.0
 11
282.6563810332601
 21
317.5999999999933
 31
0.0
  0
ARC
  5
21C
330
1F
100
AcDbEntity
  8
LAY-2
  6
EXLTYPE3
 62
     1
100
AcDbCircle
 10
200.5379999999911
 20
305.5999999999932
 30
0.0
 40
12.00000000000001
100
AcDbArc
 50
90.00000000000004
 51
176.0000000000001
  0
LINE
  5
21D
330
1F
100
AcDbEntity
  8
LAY-2
  6
CONTINUOUS
 62
     6
100
AcDbLine
 10
217.1499999999911
 20
374.5999999999932
 30
0.0
 11
222.5999999999912
 21
374.5999999999932
 31
0.0
  0
LINE
  5
21E
330
1F
100
AcDbEntity
  8
LAY-2
  6
CONTINUOUS
 62
     6
100
AcDbLine
 10
228.0499999999911
 20
374.5999999999932
 30
0.0
 11
222.5999999999912
 21
374.5999999999932
 31
0.0
  0
LINE
  5
21F
330
1F
100
AcDbEntity
  8
LAY-2
  6
EXLTYPE3
 62
     1
100
AcDbLine
 10
222.6
 20
302.265099
 30
0.0
 11
222.6
 21
377.36
 31
0.0
  0
TEXT
  5
220
330
1F
100
AcDbEntity
  8
LAY-2
  6
CONTINUOUS
 62
     2
100
AcDbText
 10
233.8022478270801
 20
390.67790585442
 30
0.0
 40
8.0
  1
青色
 41
1.049923634625293
  7
EXCADSTD
 72
     5
 11
247.0012878052266
 21
390.67790585442
 31
0.0
100
AcDbText
  0
LEADER
  5
221
330
1F
100
AcDbEntity
  8
LAY-2
  6
CONTINUOUS
 62
     3
100
AcDbLeader
  3
ISO-25
 76
     3
 10
222.5999999999903
 20
375.05299999999
 30
0.0
 10
233.8022478270802
 20
389.8779058544201
 30
0.0
 10
249.4
 20
389.8779058544201
 30
0.0
1001
ACAD
1000
DSTYLE
1002
{
1070
     5
1000
EX_NORM
1070
    41
1040
6.0
1070
   341
1005
4A
1002
}
  0
LINE
  5
222
330
1F
100
AcDbEntity
  8
LAY-2
  6
CONTINUOUS
 62
     2
100
AcDbLine
 10
197.3282594989238
 20
259.7025175464597
 30
0.0
 11
203.383896647537
 21
260.281356664295
 31
0.0
  0
LINE
  5
223
330
1F
100
AcDbEntity
  8
LAY-2
  6
CONTINUOUS
 62
     2
100
AcDbLine
 10
204.0814546953004
 20
270.2569015000421
 30
0.0
 11
198.1660641357099
 21
271.6735452546634
 31
0.0
  0
LINE
  5
224
330
1F
100
AcDbEntity
  8
LAY-2
  6
CONTINUOUS
 62
     2
100
AcDbLine
 10
197.3282594989238
 20
259.7025175464597
 30
0.0
 11
185.3578878497491
 21
260.5395674736654
 31
0.0
  0
LINE
  5
225
330
1F
100
AcDbEntity
  8
LAY-2
  6
CONTINUOUS
 62
     2
100
AcDbLine
 10
204.0814546953004
 20
270.2569015000421
 30
0.0
 11
203.383896647537
 21
260.281356664295
 31
0.0
  0
LINE
  5
226
330
1F
100
AcDbEntity
  8
LAY-2
  6
CONTINUOUS
 62
     2
100
AcDbLine
 10
198.1660641357099
 20
271.6735452546634
 30
0.0
 11
186.1947666389036
 21
272.507491734684
 31
0.0
  0
LINE
  5
227
330
1F
100
AcDbEntity
  8
LAY-2
  6
CONTINUOUS
 62
     2
100
AcDbLine
 10
174.2245661277803
 20
273.346989050046
 30
0.0
 11
186.1949377769549
 21
272.5099391228403
 31
0.0
  0
LINE
  5
228
330
1F
100
AcDbEntity
  8
LAY-2
  6
CONTINUOUS
 62
     2
100
AcDbLine
 10
168.1689289791672
 20
272.7681499322107
 30
0.0
 11
167.4713709314038
 21
262.7926050964637
 31
0.0
  0
LINE
  5
229
330
1F
100
AcDbEntity
  8
LAY-2
  6
CONTINUOUS
 62
     2
100
AcDbLine
 10
173.3875162005745
 20
261.3766174008713
 30
0.0
 11
185.3578878497491
 21
260.5395674736654
 31
0.0
  0
LINE
  5
22A
330
1F
100
AcDbEntity
  8
LAY-2
  6
CONTINUOUS
 62
     2
100
AcDbLine
 10
168.1689289791672
 20
272.7681499322107
 30
0.0
 11
174.2245661277803
 21
273.346989050046
 31
0.0
  0
LINE
  5
22B
330
1F
100
AcDbEntity
  8
LAY-2
  6
CONTINUOUS
 62
     2
100
AcDbLine
 10
173.3875162005745
 20
261.3766174008713
 30
0.0
 11
167.4713709314038
 21
262.7926050964637
 31
0.0
  0
LINE
  5
22C
330
1F
100
AcDbEntity
  8
LAY-2
  6
CONTINUOUS
 62
     2
100
AcDbLine
 10
177.1297770783762
 20
236.0534170793301
 30
0.0
 11
175.912456897963
 21
240.1483079909856
 31
0.0
  0
LINE
  5
22D
330
1F
100
AcDbEntity
  8
LAY-2
  6
CONTINUOUS
 62
     2
100
AcDbLine
 10
177.4785594470969
 20
241.0412373306292
 30
0.0
 11
176.2612392666837
 21
245.1361282422847
 31
0.0
  0
LINE
  5
22E
330
1F
100
AcDbEntity
  8
LAY-2
  6
CONTINUOUS
 62
     2
100
AcDbLine
 10
177.8273418158176
 20
246.0290575819284
 30
0.0
 11
176.6100216354043
 21
250.1239484935837
 31
0.0
  0
LINE
  5
22F
330
1F
100
AcDbEntity
  8
LAY-2
  6
CONTINUOUS
 62
     2
100
AcDbLine
 10
178.1761241845382
 20
251.0168778332274
 30
0.0
 11
176.958804004125
 21
255.1117687448829
 31
0.0
  0
LINE
  5
230
330
1F
100
AcDbEntity
  8
LAY-2
  6
CONTINUOUS
 62
     2
100
AcDbLine
 10
177.1297770783762
 20
236.0534170793301
 30
0.0
 11
183.6139434050651
 21
235.5999999999932
 31
0.0
  0
LINE
  5
231
330
1F
100
AcDbEntity
  8
LAY-2
  6
CONTINUOUS
 62
     2
100
AcDbLine
 10
176.958804004125
 20
255.1117687448829
 30
0.0
 11
177.3773754476706
 21
261.0976192636185
 31
0.0
  0
LINE
  5
232
330
1F
100
AcDbEntity
  8
LAY-2
  6
CONTINUOUS
 62
     2
100
AcDbLine
 10
176.6100216354043
 20
250.1239484935837
 30
0.0
 11
176.6797781091485
 21
251.1215125438435
 31
0.0
  0
LINE
  5
233
330
1F
100
AcDbEntity
  8
LAY-2
  6
CONTINUOUS
 62
     2
100
AcDbLine
 10
175.912456897963
 20
240.1483079909856
 30
0.0
 11
175.9822133717072
 21
241.1458720412454
 31
0.0
  0
LINE
  5
234
330
1F
100
AcDbEntity
  8
LAY-2
  6
CONTINUOUS
 62
     2
100
AcDbLine
 10
176.2612392666837
 20
245.1361282422847
 30
0.0
 11
176.3309957404277
 21
246.1336922925445
 31
0.0
  0
LINE
  5
235
330
1F
100
AcDbEntity
  8
LAY-2
  6
CONTINUOUS
 62
     2
100
AcDbLine
 10
192.2222640708409
 20
244.0200246623786
 30
0.0
 11
192.292020544585
 21
245.0175887126384
 31
0.0
  0
LINE
  5
236
330
1F
100
AcDbEntity
  8
LAY-2
  6
CONTINUOUS
 62
     2
100
AcDbLine
 10
191.8734817021202
 20
239.0322044110794
 30
0.0
 11
191.9432381758643
 21
240.0297684613393
 31
0.0
  0
LINE
  5
237
330
1F
100
AcDbEntity
  8
LAY-2
  6
CONTINUOUS
 62
     2
100
AcDbLine
 10
192.5711161960353
 20
249.008842477728
 30
0.0
 11
192.6408029133056
 21
250.0054089639375
 31
0.0
  0
LINE
  5
238
330
1F
100
AcDbEntity
  8
LAY-2
  6
CONTINUOUS
 62
     2
100
AcDbLine
 10
183.9627257737858
 20
240.5878202512923
 30
0.0
 11
191.9432381758643
 21
240.0297684613393
 31
0.0
  0
LINE
  5
239
330
1F
100
AcDbEntity
  8
LAY-2
  6
CONTINUOUS
 62
     2
100
AcDbLine
 10
184.3115081425064
 20
245.5756405025914
 30
0.0
 11
192.292020544585
 21
245.0175887126384
 31
0.0
  0
LINE
  5
23A
330
1F
100
AcDbEntity
  8
LAY-2
  6
CONTINUOUS
 62
     2
100
AcDbLine
 10
184.6602905112271
 20
250.5634607538906
 30
0.0
 11
192.6408029133056
 21
250.0054089639375
 31
0.0
  0
LINE
  5
23B
330
1F
100
AcDbEntity
  8
LAY-2
  6
CONTINUOUS
 62
     2
100
AcDbLine
 10
192.9198288082821
 20
253.9956651649768
 30
0.0
 11
193.3384002518277
 21
259.9815156837125
 31
0.0
  0
LINE
  5
23C
330
1F
100
AcDbEntity
  8
LAY-2
  6
CONTINUOUS
 62
     2
100
AcDbLine
 10
190.098109731754
 20
235.1465829206564
 30
0.0
 11
183.6139434050651
 21
235.5999999999932
 31
0.0
  0
LINE
  5
23D
330
1F
100
AcDbEntity
  8
LAY-2
  6
CONTINUOUS
 62
     2
100
AcDbLine
 10
191.1444568379159
 20
250.1100436745537
 30
0.0
 11
192.9198288082821
 21
253.9956651649768
 31
0.0
  0
LINE
  5
23E
330
1F
100
AcDbEntity
  8
LAY-2
  6
CONTINUOUS
 62
     2
100
AcDbLine
 10
190.7956744691953
 20
245.1222234232546
 30
0.0
 11
192.5710464395614
 21
249.0078449136777
 31
0.0
  0
LINE
  5
23F
330
1F
100
AcDbEntity
  8
LAY-2
  6
CONTINUOUS
 62
     2
100
AcDbLine
 10
190.4468921004746
 20
240.1344031719555
 30
0.0
 11
192.2222640708409
 21
244.0200246623786
 31
0.0
  0
LINE
  5
240
330
1F
100
AcDbEntity
  8
LAY-2
  6
CONTINUOUS
 62
     2
100
AcDbLine
 10
190.098109731754
 20
235.1465829206564
 30
0.0
 11
191.8734817021202
 21
239.0322044110794
 31
0.0
  0
LINE
  5
241
330
1F
100
AcDbEntity
  8
LAY-2
  6
CONTINUOUS
 62
     2
100
AcDbLine
 10
183.9627257737858
 20
240.5878202512923
 30
0.0
 11
175.9822133717072
 21
241.1458720412454
 31
0.0
  0
LINE
  5
242
330
1F
100
AcDbEntity
  8
LAY-2
  6
CONTINUOUS
 62
     2
100
AcDbLine
 10
184.3115081425064
 20
245.5756405025914
 30
0.0
 11
176.3309957404277
 21
246.1336922925445
 31
0.0
  0
LINE
  5
243
330
1F
100
AcDbEntity
  8
LAY-2
  6
CONTINUOUS
 62
     2
100
AcDbLine
 10
184.6602905112271
 20
250.5634607538906
 30
0.0
 11
176.6797781091485
 21
251.1215125438435
 31
0.0
  0
LINE
  5
244
330
1F
100
AcDbEntity
  8
LAY-2
  6
CONTINUOUS
 62
     2
100
AcDbLine
 10
188.0877991630082
 20
299.5791180750048
 30
0.0
 11
176.6158125850203
 21
300.3813175230622
 31
0.0
  0
LINE
  5
245
330
1F
100
AcDbEntity
  8
LAY-2
  6
CONTINUOUS
 62
     2
100
AcDbLine
 10
176.6158125850203
 20
300.3813175230622
 30
0.0
 11
188.0877991630082
 21
299.5791180750048
 31
0.0
  0
ARC
  5
246
330
1F
100
AcDbEntity
  8
LAY-2
  6
CONTINUOUS
 62
     2
100
AcDbCircle
 10
176.6716642397344
 20
286.8444463708105
 30
0.0
 40
1.5
100
AcDbArc
 50
356.0000000000003
 51
86.00000000000027
  0
LINE
  5
247
330
1F
100
AcDbEntity
  8
LAY-2
  6
CONTINUOUS
 62
     2
100
AcDbLine
 10
176.7762989503506
 20
288.3407924462002
 30
0.0
 11
187.2507214780787
 21
287.6083494718869
 31
0.0
  0
LINE
  5
248
330
1F
100
AcDbEntity
  8
LAY-2
  6
CONTINUOUS
 62
     2
100
AcDbLine
 10
174.4947972872519
 20
291.5527661636017
 30
0.0
 11
174.4829947707487
 21
291.2979687919429
 31
0.0
  0
LINE
  5
249
330
1F
100
AcDbEntity
  8
LAY-2
  6
CONTINUOUS
 62
     2
100
AcDbLine
 10
174.4829947707487
 20
291.2979687919429
 30
0.0
 11
174.4901459712004
 21
291.0418460472831
 31
0.0
  0
LINE
  5
24A
330
1F
100
AcDbEntity
  8
LAY-2
  6
CONTINUOUS
 62
     2
100
AcDbLine
 10
174.4901459712004
 20
291.0418460472831
 30
0.0
 11
174.5153230810306
 21
290.7854652501461
 31
0.0
  0
LINE
  5
24B
330
1F
100
AcDbEntity
  8
LAY-2
  6
CONTINUOUS
 62
     2
100
AcDbLine
 10
174.5153230810306
 20
290.7854652501461
 30
0.0
 11
174.5605212283397
 21
290.5286868875845
 31
0.0
  0
LINE
  5
24C
330
1F
100
AcDbEntity
  8
LAY-2
  6
CONTINUOUS
 62
     2
100
AcDbLine
 10
174.5605212283397
 20
290.5286868875845
 30
0.0
 11
174.6268774901255
 21
290.2734363312251
 31
0.0
  0
LINE
  5
24D
330
1F
100
AcDbEntity
  8
LAY-2
  6
CONTINUOUS
 62
     2
100
AcDbLine
 10
174.6268774901255
 20
290.2734363312251
 30
0.0
 11
174.7145313793354
 21
290.0217087091683
 31
0.0
  0
LINE
  5
24E
330
1F
100
AcDbEntity
  8
LAY-2
  6
CONTINUOUS
 62
     2
100
AcDbLine
 10
174.7145313793354
 20
290.0217087091683
 30
0.0
 11
174.8244804600199
 21
289.7734342649404
 31
0.0
  0
LINE
  5
24F
330
1F
100
AcDbEntity
  8
LAY-2
  6
CONTINUOUS
 62
     2
100
AcDbLine
 10
174.8244804600199
 20
289.7734342649404
 30
0.0
 11
174.9589988861742
 21
289.532463741795
 31
0.0
  0
LINE
  5
250
330
1F
100
AcDbEntity
  8
LAY-2
  6
CONTINUOUS
 62
     2
100
AcDbLine
 10
174.9589988861742
 20
289.532463741795
 30
0.0
 11
175.1182959272197
 21
289.3017898318828
 31
0.0
  0
LINE
  5
251
330
1F
100
AcDbEntity
  8
LAY-2
  6
CONTINUOUS
 62
     2
100
AcDbLine
 10
175.1182959272197
 20
289.3017898318828
 30
0.0
 11
175.3025808525776
 21
289.0844052273549
 31
0.0
  0
LINE
  5
252
330
1F
100
AcDbEntity
  8
LAY-2
  6
CONTINUOUS
 62
     2
100
AcDbLine
 10
175.3025808525776
 20
289.0844052273549
 30
0.0
 11
175.5122024446166
 21
288.8852977484621
 31
0.0
  0
LINE
  5
253
330
1F
100
AcDbEntity
  8
LAY-2
  6
CONTINUOUS
 62
     2
100
AcDbLine
 10
175.5122024446166
 20
288.8852977484621
 30
0.0
 11
175.7465119216553
 21
288.7095249719297
 31
0.0
  0
ARC
  5
254
330
1F
100
AcDbEntity
  8
LAY-2
  6
CONTINUOUS
 62
     2
100
AcDbCircle
 10
177.9309313416227
 20
297.685011409871
 30
0.0
 40
3.000000000000002
100
AcDbArc
 50
116.0000000000001
 51
176.0000000000003
  0
LINE
  5
255
330
1F
100
AcDbEntity
  8
LAY-2
  6
CONTINUOUS
 62
     2
100
AcDbLine
 10
174.9382391908433
 20
297.8942808311034
 30
0.0
 11
174.4916582459334
 21
291.50787578134
 31
0.0
  0
LINE
  5
256
330
1F
100
AcDbEntity
  8
LAY-2
  6
CONTINUOUS
 62
     2
100
AcDbLine
 10
174.995998945375
 20
298.2902161929447
 30
0.0
 11
174.9523441357372
 21
298.0386485924961
 31
0.0
  0
LINE
  5
257
330
1F
100
AcDbEntity
  8
LAY-2
  6
CONTINUOUS
 62
     2
100
AcDbLine
 10
174.9523441357372
 20
298.0386485924961
 30
0.0
 11
174.9382391908433
 21
297.8942808311034
 31
0.0
  0
LINE
  5
258
330
1F
100
AcDbEntity
  8
LAY-2
  6
CONTINUOUS
 62
     2
100
AcDbLine
 10
176.1066446012514
 20
273.2153813025686
 30
0.0
 11
176.8258962843887
 21
273.8400095327002
 31
0.0
  0
ARC
  5
259
330
1F
100
AcDbEntity
  8
LAY-2
  6
CONTINUOUS
 62
     2
100
AcDbCircle
 10
175.8414924457055
 20
274.9724366086683
 30
0.0
 40
1.5
100
AcDbArc
 50
311.0000000000006
 51
356.0000000000003
  0
LINE
  5
25A
330
1F
100
AcDbEntity
  8
LAY-2
  6
CONTINUOUS
 62
     2
100
AcDbLine
 10
177.3378385210953
 20
274.8678018980521
 30
0.0
 11
178.1680103151241
 21
286.7398116601943
 31
0.0
  0
LINE
  5
25B
330
1F
100
AcDbEntity
  8
LAY-2
  6
CONTINUOUS
 62
     2
100
AcDbLine
 10
188.0877991630073
 20
299.5791180750049
 30
0.0
 11
199.5597857409953
 21
298.7769186269483
 31
0.0
  0
LINE
  5
25C
330
1F
100
AcDbEntity
  8
LAY-2
  6
CONTINUOUS
 62
     2
100
AcDbLine
 10
199.5597857409953
 20
298.7769186269483
 30
0.0
 11
188.0877991630073
 21
299.5791180750049
 31
0.0
  0
ARC
  5
25D
330
1F
100
AcDbEntity
  8
LAY-2
  6
CONTINUOUS
 62
     2
100
AcDbCircle
 10
197.6205092951909
 20
285.3795604221847
 30
0.0
 40
1.5
100
AcDbArc
 50
86.00000000000513
 51
176.0000000000044
  0
LINE
  5
25E
330
1F
100
AcDbEntity
  8
LAY-2
  6
CONTINUOUS
 62
     2
100
AcDbLine
 10
197.7251440058069
 20
286.8759064975744
 30
0.0
 11
187.2507214780787
 21
287.6083494718869
 31
0.0
  0
LINE
  5
25F
330
1F
100
AcDbEntity
  8
LAY-2
  6
CONTINUOUS
 62
     2
100
AcDbLine
 10
200.4314625940071
 20
289.7390978462555
 30
0.0
 11
200.4076893089008
 21
289.4851375522817
 31
0.0
  0
LINE
  5
260
330
1F
100
AcDbEntity
  8
LAY-2
  6
CONTINUOUS
 62
     2
100
AcDbLine
 10
200.4076893089008
 20
289.4851375522817
 30
0.0
 11
200.3649623068396
 21
289.2325026313091
 31
0.0
  0
LINE
  5
261
330
1F
100
AcDbEntity
  8
LAY-2
  6
CONTINUOUS
 62
     2
100
AcDbLine
 10
200.3649623068396
 20
289.2325026313091
 30
0.0
 11
200.3043489083474
 21
288.9821208909141
 31
0.0
  0
LINE
  5
262
330
1F
100
AcDbEntity
  8
LAY-2
  6
CONTINUOUS
 62
     2
100
AcDbLine
 10
200.3043489083474
 20
288.9821208909141
 30
0.0
 11
200.2238539853238
 21
288.7341318440442
 31
0.0
  0
LINE
  5
263
330
1F
100
AcDbEntity
  8
LAY-2
  6
CONTINUOUS
 62
     2
100
AcDbLine
 10
200.2238539853238
 20
288.7341318440442
 30
0.0
 11
200.1226194866659
 21
288.4906003752737
 31
0.0
  0
LINE
  5
264
330
1F
100
AcDbEntity
  8
LAY-2
  6
CONTINUOUS
 62
     2
100
AcDbLine
 10
200.1226194866659
 20
288.4906003752737
 30
0.0
 11
200.0007849253215
 21
288.2535216127031
 31
0.0
  0
LINE
  5
265
330
1F
100
AcDbEntity
  8
LAY-2
  6
CONTINUOUS
 62
     2
100
AcDbLine
 10
200.0007849253215
 20
288.2535216127031
 30
0.0
 11
199.8573527372398
 21
288.0229653128064
 31
0.0
  0
LINE
  5
266
330
1F
100
AcDbEntity
  8
LAY-2
  6
CONTINUOUS
 62
     2
100
AcDbLine
 10
198.2339363172977
 20
286.9125040899523
 30
0.0
 11
197.9367461239916
 21
286.8771489064186
 31
0.0
  0
LINE
  5
267
330
1F
100
AcDbEntity
  8
LAY-2
  6
CONTINUOUS
 62
     2
100
AcDbLine
 10
197.9367461239916
 20
286.8771489064186
 30
0.0
 11
197.6712755470929
 21
286.8796733471565
 31
0.0
  0
LINE
  5
268
330
1F
100
AcDbEntity
  8
LAY-2
  6
CONTINUOUS
 62
     2
100
AcDbLine
 10
197.6712755470929
 20
286.8796733471565
 30
0.0
 11
197.6373583693841
 21
286.8820450672639
 31
0.0
  0
LINE
  5
269
330
1F
100
AcDbEntity
  8
LAY-2
  6
CONTINUOUS
 62
     2
100
AcDbLine
 10
197.6373583693841
 20
286.8820450672639
 30
0.0
 11
197.3408306301999
 21
286.9278413541699
 31
0.0
  0
ARC
  5
26A
330
1F
100
AcDbEntity
  8
LAY-2
  6
CONTINUOUS
 62
     2
100
AcDbCircle
 10
197.8822123468185
 20
296.2898819349894
 30
0.0
 40
3.000000000000002
100
AcDbArc
 50
356.0000000000043
 51
56.00000000000404
  0
LINE
  5
26B
330
1F
100
AcDbEntity
  8
LAY-2
  6
CONTINUOUS
 62
     2
100
AcDbLine
 10
200.874904497598
 20
296.0806125137572
 30
0.0
 11
200.4283235526887
 21
289.6942074639937
 31
0.0
  0
LINE
  5
26C
330
1F
100
AcDbEntity
  8
LAY-2
  6
CONTINUOUS
 62
     2
100
AcDbLine
 10
196.2830359301234
 20
271.8047210728441
 30
0.0
 11
195.6579104251948
 21
272.5231468213592
 31
0.0
  0
ARC
  5
26D
330
1F
100
AcDbEntity
  8
LAY-2
  6
CONTINUOUS
 62
     2
100
AcDbCircle
 10
196.7903375011629
 20
273.5075506600424
 30
0.0
 40
1.5
100
AcDbArc
 50
176.0000000000044
 51
221.0000000000052
  0
LINE
  5
26E
330
1F
100
AcDbEntity
  8
LAY-2
  6
CONTINUOUS
 62
     2
100
AcDbLine
 10
195.2939914257732
 20
273.6121853706585
 30
0.0
 11
196.1241632198011
 21
285.4841951328008
 31
0.0
  0
LINE
  5
26F
330
1F
100
AcDbEntity
  8
LAY-2
  6
CONTINUOUS
 62
     6
100
AcDbLine
 10
176.9572464653149
 20
273.9551274286619
 30
0.0
 11
176.9016310847344
 21
273.1597904322405
 31
0.0
  0
LINE
  5
270
330
1F
100
AcDbEntity
  8
LAY-2
  6
CONTINUOUS
 62
     6
100
AcDbLine
 10
195.5438598497572
 20
272.655424809862
 30
0.0
 11
195.4882444797451
 21
271.8600879645758
 31
0.0
  0
LINE
  5
271
330
1F
100
AcDbEntity
  8
LAY-2
  6
CONTINUOUS
 62
     6
100
AcDbLine
 10
184.5905340374829
 20
249.5658967036307
 30
0.0
 11
192.5710464395614
 21
249.0078449136777
 31
0.0
  0
LINE
  5
272
330
1F
100
AcDbEntity
  8
LAY-2
  6
CONTINUOUS
 62
     6
100
AcDbLine
 10
184.2417516687623
 20
244.5780764523316
 30
0.0
 11
192.2222640708409
 21
244.0200246623786
 31
0.0
  0
LINE
  5
273
330
1F
100
AcDbEntity
  8
LAY-2
  6
CONTINUOUS
 62
     6
100
AcDbLine
 10
183.8929693000417
 20
239.5902562010325
 30
0.0
 11
191.8734817021202
 21
239.0322044110794
 31
0.0
  0
LINE
  5
274
330
1F
100
AcDbEntity
  8
LAY-2
  6
CONTINUOUS
 62
     6
100
AcDbLine
 10
183.8929693000417
 20
239.5902562010325
 30
0.0
 11
175.912456897963
 21
240.1483079909856
 31
0.0
  0
LINE
  5
275
330
1F
100
AcDbEntity
  8
LAY-2
  6
CONTINUOUS
 62
     6
100
AcDbLine
 10
184.2417516687623
 20
244.5780764523316
 30
0.0
 11
176.2612392666837
 21
245.1361282422847
 31
0.0
  0
LINE
  5
276
330
1F
100
AcDbEntity
  8
LAY-2
  6
CONTINUOUS
 62
     6
100
AcDbLine
 10
184.5905340374829
 20
249.5658967036307
 30
0.0
 11
176.6100216354043
 21
250.1239484935837
 31
0.0
  0
LINE
  5
277
330
1F
100
AcDbEntity
  8
LAY-2
  6
CONTINUOUS
 62
     6
100
AcDbLine
 10
178.7924443490223
 20
300.2291126030306
 30
0.0
 11
178.8761097820811
 21
301.4259999999932
 31
0.0
  0
LINE
  5
278
330
1F
100
AcDbEntity
  8
LAY-2
  6
CONTINUOUS
 62
     6
100
AcDbLine
 10
197.3783598567769
 20
298.9294587845226
 30
0.0
 11
197.3961097820811
 21
299.1829999999932
 31
0.0
  0
LINE
  5
279
330
1F
100
AcDbEntity
  8
LAY-2
  6
CONTINUOUS
 62
     6
100
AcDbLine
 10
174.2245661277803
 20
273.346989050046
 30
0.0
 11
173.3875162005745
 21
261.3766174008713
 31
0.0
  0
LINE
  5
27A
330
1F
100
AcDbEntity
  8
LAY-2
  6
CONTINUOUS
 62
     6
100
AcDbLine
 10
198.1653587384146
 20
271.6735943941649
 30
0.0
 11
197.3282594989238
 21
259.7025175464597
 31
0.0
  0
LINE
  5
27B
330
1F
100
AcDbEntity
  8
LAY-2
  6
CONTINUOUS
 62
     6
100
AcDbLine
 10
184.9393164062035
 20
254.5537169549299
 30
0.0
 11
192.9198288082821
 21
253.9956651649768
 31
0.0
  0
LINE
  5
27C
330
1F
100
AcDbEntity
  8
LAY-2
  6
CONTINUOUS
 62
     6
100
AcDbLine
 10
184.9393164062035
 20
254.5537169549299
 30
0.0
 11
176.958804004125
 21
255.1117687448829
 31
0.0
  0
LINE
  5
27D
330
1F
100
AcDbEntity
  8
LAY-2
  6
CONTINUOUS
 62
     6
100
AcDbLine
 10
176.3742776386218
 20
300.0523648369988
 30
0.0
 11
176.1488983844941
 21
299.9257781401907
 31
0.0
  0
LINE
  5
27E
330
1F
100
AcDbEntity
  8
LAY-2
  6
CONTINUOUS
 62
     6
100
AcDbLine
 10
176.1488983844941
 20
299.9257781401907
 30
0.0
 11
175.9370874616453
 21
299.7781938152712
 31
0.0
  0
LINE
  5
27F
330
1F
100
AcDbEntity
  8
LAY-2
  6
CONTINUOUS
 62
     6
100
AcDbLine
 10
175.9370874616453
 20
299.7781938152712
 30
0.0
 11
175.7429048827503
 21
299.6103304003956
 31
0.0
  0
LINE
  5
280
330
1F
100
AcDbEntity
  8
LAY-2
  6
CONTINUOUS
 62
     6
100
AcDbLine
 10
175.7429048827503
 20
299.6103304003956
 30
0.0
 11
175.5654228402327
 21
299.4232552160879
 31
0.0
  0
LINE
  5
281
330
1F
100
AcDbEntity
  8
LAY-2
  6
CONTINUOUS
 62
     6
100
AcDbLine
 10
175.5654228402327
 20
299.4232552160879
 30
0.0
 11
175.407913052138
 21
299.2207492491279
 31
0.0
  0
LINE
  5
282
330
1F
100
AcDbEntity
  8
LAY-2
  6
CONTINUOUS
 62
     6
100
AcDbLine
 10
175.407913052138
 20
299.2207492491279
 30
0.0
 11
175.2714428389904
 21
299.0037403070922
 31
0.0
  0
LINE
  5
283
330
1F
100
AcDbEntity
  8
LAY-2
  6
CONTINUOUS
 62
     6
100
AcDbLine
 10
175.2714428389904
 20
299.0037403070922
 30
0.0
 11
175.1562214702111
 21
298.7752210821316
 31
0.0
  0
LINE
  5
284
330
1F
100
AcDbEntity
  8
LAY-2
  6
CONTINUOUS
 62
     6
100
AcDbLine
 10
175.1562214702111
 20
298.7752210821316
 30
0.0
 11
175.0643138303743
 21
298.5360496253488
 31
0.0
  0
LINE
  5
285
330
1F
100
AcDbEntity
  8
LAY-2
  6
CONTINUOUS
 62
     6
100
AcDbLine
 10
175.0643138303743
 20
298.5360496253488
 30
0.0
 11
174.995998945375
 21
298.2902161929447
 31
0.0
  0
LINE
  5
286
330
1F
100
AcDbEntity
  8
LAY-2
  6
CONTINUOUS
 62
     6
100
AcDbLine
 10
176.8590581916755
 20
300.232988244621
 30
0.0
 11
176.6120183905572
 21
300.1550309700186
 31
0.0
  0
LINE
  5
287
330
1F
100
AcDbEntity
  8
LAY-2
  6
CONTINUOUS
 62
     6
100
AcDbLine
 10
176.6120183905572
 20
300.1550309700186
 30
0.0
 11
176.3742776386218
 21
300.0523648369988
 31
0.0
  0
LINE
  5
288
330
1F
100
AcDbEntity
  8
LAY-2
  6
CONTINUOUS
 62
     6
100
AcDbLine
 10
177.1132624009288
 20
300.2843810456528
 30
0.0
 11
176.8590581916755
 21
300.232988244621
 31
0.0
  0
LINE
  5
289
330
1F
100
AcDbEntity
  8
LAY-2
  6
CONTINUOUS
 62
     6
100
AcDbLine
 10
180.0310061006207
 20
297.498062201208
 30
0.0
 11
180.0398856814468
 21
297.7540664063382
 31
0.0
  0
LINE
  5
28A
330
1F
100
AcDbEntity
  8
LAY-2
  6
CONTINUOUS
 62
     6
100
AcDbLine
 10
180.0398856814468
 20
297.7540664063382
 30
0.0
 11
180.0246144556455
 21
298.0087520746875
 31
0.0
  0
LINE
  5
28B
330
1F
100
AcDbEntity
  8
LAY-2
  6
CONTINUOUS
 62
     6
100
AcDbLine
 10
180.0246144556455
 20
298.0087520746875
 30
0.0
 11
179.9841251026927
 21
298.2611913986794
 31
0.0
  0
LINE
  5
28C
330
1F
100
AcDbEntity
  8
LAY-2
  6
CONTINUOUS
 62
     6
100
AcDbLine
 10
179.9841251026927
 20
298.2611913986794
 30
0.0
 11
179.9202034812678
 21
298.5082521732155
 31
0.0
  0
LINE
  5
28D
330
1F
100
AcDbEntity
  8
LAY-2
  6
CONTINUOUS
 62
     6
100
AcDbLine
 10
179.9202034812678
 20
298.5082521732155
 30
0.0
 11
179.8317822708466
 21
298.7490065907194
 31
0.0
  0
LINE
  5
28E
330
1F
100
AcDbEntity
  8
LAY-2
  6
CONTINUOUS
 62
     6
100
AcDbLine
 10
179.8317822708466
 20
298.7490065907194
 30
0.0
 11
179.7205775736348
 21
298.9793248820426
 31
0.0
  0
LINE
  5
28F
330
1F
100
AcDbEntity
  8
LAY-2
  6
CONTINUOUS
 62
     6
100
AcDbLine
 10
179.7205775736348
 20
298.9793248820426
 30
0.0
 11
179.5865893896324
 21
299.199207047185
 31
0.0
  0
LINE
  5
290
330
1F
100
AcDbEntity
  8
LAY-2
  6
CONTINUOUS
 62
     6
100
AcDbLine
 10
179.5865893896324
 20
299.199207047185
 30
0.0
 11
179.4315338210448
 21
299.4045233169983
 31
0.0
  0
LINE
  5
291
330
1F
100
AcDbEntity
  8
LAY-2
  6
CONTINUOUS
 62
     6
100
AcDbLine
 10
179.4315338210448
 20
299.4045233169983
 30
0.0
 11
179.256268918975
 21
299.5932088069079
 31
0.0
  0
LINE
  5
292
330
1F
100
AcDbEntity
  8
LAY-2
  6
CONTINUOUS
 62
     6
100
AcDbLine
 10
179.256268918975
 20
299.5932088069079
 30
0.0
 11
179.0627200550496
 21
299.7641264399163
 31
0.0
  0
LINE
  5
293
330
1F
100
AcDbEntity
  8
LAY-2
  6
CONTINUOUS
 62
     6
100
AcDbLine
 10
179.0627200550496
 20
299.7641264399163
 30
0.0
 11
178.8516755238975
 21
299.9142137673988
 31
0.0
  0
LINE
  5
294
330
1F
100
AcDbEntity
  8
LAY-2
  6
CONTINUOUS
 62
     6
100
AcDbLine
 10
178.8516755238975
 20
299.9142137673988
 30
0.0
 11
178.6270558252463
 21
300.0421941994102
 31
0.0
  0
LINE
  5
295
330
1F
100
AcDbEntity
  8
LAY-2
  6
CONTINUOUS
 62
     6
100
AcDbLine
 10
178.6270558252463
 20
300.0421941994102
 30
0.0
 11
178.3898585231462
 21
300.1479979794769
 31
0.0
  0
LINE
  5
296
330
1F
100
AcDbEntity
  8
LAY-2
  6
CONTINUOUS
 62
     6
100
AcDbLine
 10
178.3898585231462
 20
300.1479979794769
 30
0.0
 11
178.1437948479031
 21
300.2273558255029
 31
0.0
  0
LINE
  5
297
330
1F
100
AcDbEntity
  8
LAY-2
  6
CONTINUOUS
 62
     6
100
AcDbLine
 10
177.3717080826401
 20
300.3104162065857
 30
0.0
 11
177.1132624009288
 21
300.2843810456528
 31
0.0
  0
LINE
  5
298
330
1F
100
AcDbEntity
  8
LAY-2
  6
CONTINUOUS
 62
     6
100
AcDbLine
 10
178.1437948479031
 20
300.2273558255029
 30
0.0
 11
177.8900018765149
 21
300.2821931091147
 31
0.0
  0
LINE
  5
299
330
1F
100
AcDbEntity
  8
LAY-2
  6
CONTINUOUS
 62
     6
100
AcDbLine
 10
177.8900018765149
 20
300.2821931091147
 30
0.0
 11
177.6672450939941
 21
300.3077941997359
 31
0.0
  0
LINE
  5
29A
330
1F
100
AcDbEntity
  8
LAY-2
  6
CONTINUOUS
 62
     6
100
AcDbLine
 10
177.6672450939941
 20
300.3077941997359
 30
0.0
 11
177.631263031711
 21
300.3093078687405
 31
0.0
  0
LINE
  5
29B
330
1F
100
AcDbEntity
  8
LAY-2
  6
CONTINUOUS
 62
     6
100
AcDbLine
 10
177.631263031711
 20
300.3093078687405
 30
0.0
 11
177.3717080826401
 21
300.3104162065857
 31
0.0
  0
LINE
  5
29C
330
1F
100
AcDbEntity
  8
LAY-2
  6
CONTINUOUS
 62
     6
100
AcDbLine
 10
179.5872154146606
 20
291.1515597134551
 30
0.0
 11
180.0337963595705
 21
297.5379647632184
 31
0.0
  0
LINE
  5
29D
330
1F
100
AcDbEntity
  8
LAY-2
  6
CONTINUOUS
 62
     6
100
AcDbLine
 10
178.8890383246315
 20
289.3097755917516
 30
0.0
 11
179.0500081267754
 21
289.5330908908196
 31
0.0
  0
LINE
  5
29E
330
1F
100
AcDbEntity
  8
LAY-2
  6
CONTINUOUS
 62
     6
100
AcDbLine
 10
179.4782598503493
 20
290.4965645340792
 30
0.0
 11
179.5348829926405
 21
290.7472253003691
 31
0.0
  0
LINE
  5
29F
330
1F
100
AcDbEntity
  8
LAY-2
  6
CONTINUOUS
 62
     6
100
AcDbLine
 10
179.4017551835267
 20
290.2482964613143
 30
0.0
 11
179.4782598503493
 21
290.4965645340792
 31
0.0
  0
LINE
  5
2A0
330
1F
100
AcDbEntity
  8
LAY-2
  6
CONTINUOUS
 62
     6
100
AcDbLine
 10
179.3065060691704
 20
290.0043464537014
 30
0.0
 11
179.4017551835267
 21
290.2482964613143
 31
0.0
  0
LINE
  5
2A1
330
1F
100
AcDbEntity
  8
LAY-2
  6
CONTINUOUS
 62
     6
100
AcDbLine
 10
179.1895198151296
 20
289.7649237806617
 30
0.0
 11
179.3065060691704
 21
290.0043464537014
 31
0.0
  0
LINE
  5
2A2
330
1F
100
AcDbEntity
  8
LAY-2
  6
CONTINUOUS
 62
     6
100
AcDbLine
 10
179.0500081267754
 20
289.5330908908196
 30
0.0
 11
179.1895198151296
 21
289.7649237806617
 31
0.0
  0
LINE
  5
2A3
330
1F
100
AcDbEntity
  8
LAY-2
  6
CONTINUOUS
 62
     6
100
AcDbLine
 10
179.5348829926405
 20
290.7472253003691
 30
0.0
 11
179.5726221744504
 21
291.0002090037106
 31
0.0
  0
LINE
  5
2A4
330
1F
100
AcDbEntity
  8
LAY-2
  6
CONTINUOUS
 62
     6
100
AcDbLine
 10
179.5726221744504
 20
291.0002090037106
 30
0.0
 11
179.5872154146606
 21
291.1515597134551
 31
0.0
  0
LINE
  5
2A5
330
1F
100
AcDbEntity
  8
LAY-2
  6
CONTINUOUS
 62
     6
100
AcDbLine
 10
176.8640845867734
 20
288.3346538765107
 30
0.0
 11
177.1641001496447
 21
288.3387357921177
 31
0.0
  0
LINE
  5
2A6
330
1F
100
AcDbEntity
  8
LAY-2
  6
CONTINUOUS
 62
     6
100
AcDbLine
 10
177.1641001496447
 20
288.3387357921177
 30
0.0
 11
177.4589952155374
 21
288.3842758855753
 31
0.0
  0
LINE
  5
2A7
330
1F
100
AcDbEntity
  8
LAY-2
  6
CONTINUOUS
 62
     6
100
AcDbLine
 10
177.4589952155374
 20
288.3842758855753
 30
0.0
 11
177.7445005023555
 21
288.4675629265776
 31
0.0
  0
LINE
  5
2A8
330
1F
100
AcDbEntity
  8
LAY-2
  6
CONTINUOUS
 62
     6
100
AcDbLine
 10
177.7445005023555
 20
288.4675629265776
 30
0.0
 11
178.0153491639528
 21
288.5849554412919
 31
0.0
  0
LINE
  5
2A9
330
1F
100
AcDbEntity
  8
LAY-2
  6
CONTINUOUS
 62
     6
100
AcDbLine
 10
178.0153491639528
 20
288.5849554412919
 30
0.0
 11
178.2672719182332
 21
288.7327421994124
 31
0.0
  0
LINE
  5
2AA
330
1F
100
AcDbEntity
  8
LAY-2
  6
CONTINUOUS
 62
     6
100
AcDbLine
 10
178.2672719182332
 20
288.7327421994124
 30
0.0
 11
178.4969272906773
 21
288.906144650109
 31
0.0
  0
LINE
  5
2AB
330
1F
100
AcDbEntity
  8
LAY-2
  6
CONTINUOUS
 62
     6
100
AcDbLine
 10
178.4969272906773
 20
288.906144650109
 30
0.0
 11
178.7049640629664
 21
289.1001052166567
 31
0.0
  0
LINE
  5
2AC
330
1F
100
AcDbEntity
  8
LAY-2
  6
CONTINUOUS
 62
     6
100
AcDbLine
 10
178.7049640629664
 20
289.1001052166567
 30
0.0
 11
178.8890383246315
 21
289.3097755917516
 31
0.0
  0
LINE
  5
2AD
330
1F
100
AcDbEntity
  8
LAY-2
  6
CONTINUOUS
 62
     2
100
AcDbLine
 10
175.7465119216553
 20
288.7095249719297
 30
0.0
 11
176.0028653739113
 21
288.5622839874302
 31
0.0
  0
LINE
  5
2AE
330
1F
100
AcDbEntity
  8
LAY-2
  6
CONTINUOUS
 62
     2
100
AcDbLine
 10
176.0028653739113
 20
288.5622839874302
 30
0.0
 11
176.2775515710789
 21
288.4478440770597
 31
0.0
  0
LINE
  5
2AF
330
1F
100
AcDbEntity
  8
LAY-2
  6
CONTINUOUS
 62
     2
100
AcDbLine
 10
176.2775515710789
 20
288.4478440770597
 30
0.0
 11
176.5669290393256
 21
288.3714720869644
 31
0.0
  0
LINE
  5
2B0
330
1F
100
AcDbEntity
  8
LAY-2
  6
CONTINUOUS
 62
     2
100
AcDbLine
 10
176.5669290393256
 20
288.3714720869644
 30
0.0
 11
176.8301674090646
 21
288.337025596618
 31
0.0
  0
LINE
  5
2B1
330
1F
100
AcDbEntity
  8
LAY-2
  6
CONTINUOUS
 62
     2
100
AcDbLine
 10
176.8301674090646
 20
288.337025596618
 30
0.0
 11
176.8640845867734
 21
288.3346538765107
 31
0.0
  0
ARC
  5
2B2
330
1F
100
AcDbEntity
  8
LAY-2
  6
CONTINUOUS
 62
     6
100
AcDbCircle
 10
177.4843503967128
 20
291.2986063601077
 30
0.0
 40
3.000000000000002
100
AcDbArc
 50
176.0000000000003
 51
266.0000000000005
  0
LINE
  5
2B3
330
1F
100
AcDbEntity
  8
LAY-2
  6
CONTINUOUS
 62
     6
100
AcDbLine
 10
182.9309011085583
 20
289.539388822878
 30
0.0
 11
183.2624074392694
 21
289.1623456520097
 31
0.0
  0
LINE
  5
2B4
330
1F
100
AcDbEntity
  8
LAY-2
  6
CONTINUOUS
 62
     6
100
AcDbLine
 10
183.2624074392694
 20
289.1623456520097
 30
0.0
 11
183.6310885285374
 21
288.8438519245735
 31
0.0
  0
LINE
  5
2B5
330
1F
100
AcDbEntity
  8
LAY-2
  6
CONTINUOUS
 62
     6
100
AcDbLine
 10
183.6310885285374
 20
288.8438519245735
 30
0.0
 11
184.0136516208377
 21
288.5805242192146
 31
0.0
  0
LINE
  5
2B6
330
1F
100
AcDbEntity
  8
LAY-2
  6
CONTINUOUS
 62
     6
100
AcDbLine
 10
184.0136516208377
 20
288.5805242192146
 30
0.0
 11
184.3955727676767
 21
288.365358614163
 31
0.0
  0
LINE
  5
2B7
330
1F
100
AcDbEntity
  8
LAY-2
  6
CONTINUOUS
 62
     6
100
AcDbLine
 10
184.3955727676767
 20
288.365358614163
 30
0.0
 11
184.7683134048623
 21
288.1909326488069
 31
0.0
  0
LINE
  5
2B8
330
1F
100
AcDbEntity
  8
LAY-2
  6
CONTINUOUS
 62
     6
100
AcDbLine
 10
184.7683134048623
 20
288.1909326488069
 30
0.0
 11
185.1272554679299
 21
288.0485472725886
 31
0.0
  0
LINE
  5
2B9
330
1F
100
AcDbEntity
  8
LAY-2
  6
CONTINUOUS
 62
     6
100
AcDbLine
 10
185.1272554679299
 20
288.0485472725886
 30
0.0
 11
185.4710526104604
 21
287.9332844217308
 31
0.0
  0
LINE
  5
2BA
330
1F
100
AcDbEntity
  8
LAY-2
  6
CONTINUOUS
 62
     6
100
AcDbLine
 10
185.4710526104604
 20
287.9332844217308
 30
0.0
 11
185.8034160627599
 21
287.8408748141374
 31
0.0
  0
LINE
  5
2BB
330
1F
100
AcDbEntity
  8
LAY-2
  6
CONTINUOUS
 62
     6
100
AcDbLine
 10
185.8034160627599
 20
287.8408748141374
 30
0.0
 11
186.1229297219356
 21
287.7654028219805
 31
0.0
  0
LINE
  5
2BC
330
1F
100
AcDbEntity
  8
LAY-2
  6
CONTINUOUS
 62
     6
100
AcDbLine
 10
186.1229297219356
 20
287.7654028219805
 30
0.0
 11
186.4335140877149
 21
287.705591855315
 31
0.0
  0
LINE
  5
2BD
330
1F
100
AcDbEntity
  8
LAY-2
  6
CONTINUOUS
 62
     6
100
AcDbLine
 10
186.4335140877149
 20
287.705591855315
 30
0.0
 11
186.7380920957748
 21
287.6602350806693
 31
0.0
  0
LINE
  5
2BE
330
1F
100
AcDbEntity
  8
LAY-2
  6
CONTINUOUS
 62
     6
100
AcDbLine
 10
186.7380920957748
 20
287.6602350806693
 30
0.0
 11
187.0383798483209
 21
287.6252027288949
 31
0.0
  0
LINE
  5
2BF
330
1F
100
AcDbEntity
  8
LAY-2
  6
CONTINUOUS
 62
     6
100
AcDbLine
 10
187.0383798483209
 20
287.6252027288949
 30
0.0
 11
187.2507214780787
 21
287.6083494718869
 31
0.0
  0
LINE
  5
2C0
330
1F
100
AcDbEntity
  8
LAY-2
  6
CONTINUOUS
 62
     6
100
AcDbLine
 10
182.9187515929219
 20
297.3362290411504
 30
0.0
 11
182.472170648012
 21
290.949823991387
 31
0.0
  0
LINE
  5
2C1
330
1F
100
AcDbEntity
  8
LAY-2
  6
CONTINUOUS
 62
     6
100
AcDbLine
 10
188.0877991630082
 20
299.5791180750048
 30
0.0
 11
187.8281534840457
 21
299.5932645019773
 31
0.0
  0
LINE
  5
2C2
330
1F
100
AcDbEntity
  8
LAY-2
  6
CONTINUOUS
 62
     6
100
AcDbLine
 10
187.8281534840457
 20
299.5932645019773
 30
0.0
 11
187.5640292535659
 21
299.6007070064928
 31
0.0
  0
LINE
  5
2C3
330
1F
100
AcDbEntity
  8
LAY-2
  6
CONTINUOUS
 62
     6
100
AcDbLine
 10
187.5640292535659
 20
299.6007070064928
 30
0.0
 11
187.2944289075186
 21
299.6015153450253
 31
0.0
  0
LINE
  5
2C4
330
1F
100
AcDbEntity
  8
LAY-2
  6
CONTINUOUS
 62
     6
100
AcDbLine
 10
187.2944289075186
 20
299.6015153450253
 30
0.0
 11
187.0131577921811
 21
299.5931153642664
 31
0.0
  0
LINE
  5
2C5
330
1F
100
AcDbEntity
  8
LAY-2
  6
CONTINUOUS
 62
     6
100
AcDbLine
 10
187.0131577921811
 20
299.5931153642664
 30
0.0
 11
186.7192183435029
 21
299.5755768206898
 31
0.0
  0
LINE
  5
2C6
330
1F
100
AcDbEntity
  8
LAY-2
  6
CONTINUOUS
 62
     6
100
AcDbLine
 10
186.7192183435029
 20
299.5755768206898
 30
0.0
 11
186.4064159077614
 21
299.5463255609873
 31
0.0
  0
LINE
  5
2C7
330
1F
100
AcDbEntity
  8
LAY-2
  6
CONTINUOUS
 62
     6
100
AcDbLine
 10
186.4064159077614
 20
299.5463255609873
 30
0.0
 11
186.0724763309611
 21
299.5015108419051
 31
0.0
  0
LINE
  5
2C8
330
1F
100
AcDbEntity
  8
LAY-2
  6
CONTINUOUS
 62
     6
100
AcDbLine
 10
186.0724763309611
 20
299.5015108419051
 30
0.0
 11
185.7130605745321
 21
299.4364238690872
 31
0.0
  0
LINE
  5
2C9
330
1F
100
AcDbEntity
  8
LAY-2
  6
CONTINUOUS
 62
     6
100
AcDbLine
 10
185.7130605745321
 20
299.4364238690872
 30
0.0
 11
185.3258247280053
 21
299.3462163352295
 31
0.0
  0
LINE
  5
2CA
330
1F
100
AcDbEntity
  8
LAY-2
  6
CONTINUOUS
 62
     6
100
AcDbLine
 10
185.3258247280053
 20
299.3462163352295
 30
0.0
 11
184.9100712266433
 21
299.2209125998296
 31
0.0
  0
LINE
  5
2CB
330
1F
100
AcDbEntity
  8
LAY-2
  6
CONTINUOUS
 62
     6
100
AcDbLine
 10
184.9100712266433
 20
299.2209125998296
 30
0.0
 11
184.4700903259597
 21
299.0501882400162
 31
0.0
  0
LINE
  5
2CC
330
1F
100
AcDbEntity
  8
LAY-2
  6
CONTINUOUS
 62
     6
100
AcDbLine
 10
184.4700903259597
 20
299.0501882400162
 30
0.0
 11
184.0218640241768
 21
298.8188914990318
 31
0.0
  0
LINE
  5
2CD
330
1F
100
AcDbEntity
  8
LAY-2
  6
CONTINUOUS
 62
     6
100
AcDbLine
 10
184.0218640241768
 20
298.8188914990318
 30
0.0
 11
183.592696306438
 21
298.5160911191593
 31
0.0
  0
LINE
  5
2CE
330
1F
100
AcDbEntity
  8
LAY-2
  6
CONTINUOUS
 62
     6
100
AcDbLine
 10
183.592696306438
 20
298.5160911191593
 30
0.0
 11
183.2301912212608
 21
298.1344485334582
 31
0.0
  0
LINE
  5
2CF
330
1F
100
AcDbEntity
  8
LAY-2
  6
CONTINUOUS
 62
     6
100
AcDbLine
 10
183.2301912212608
 20
298.1344485334582
 30
0.0
 11
182.989124061518
 21
297.6831652249994
 31
0.0
  0
LINE
  5
2D0
330
1F
100
AcDbEntity
  8
LAY-2
  6
CONTINUOUS
 62
     6
100
AcDbLine
 10
182.989124061518
 20
297.6831652249994
 30
0.0
 11
182.9187515929219
 21
297.3362290411504
 31
0.0
  0
LINE
  5
2D1
330
1F
100
AcDbEntity
  8
LAY-2
  6
CONTINUOUS
 62
     6
100
AcDbLine
 10
192.345447340689
 20
289.7632084892821
 30
0.0
 11
192.1184158341236
 21
289.3119461542411
 31
0.0
  0
LINE
  5
2D2
330
1F
100
AcDbEntity
  8
LAY-2
  6
CONTINUOUS
 62
     6
100
AcDbLine
 10
192.1184158341236
 20
289.3119461542411
 30
0.0
 11
191.7972503872675
 21
288.9193932842405
 31
0.0
  0
LINE
  5
2D3
330
1F
100
AcDbEntity
  8
LAY-2
  6
CONTINUOUS
 62
     6
100
AcDbLine
 10
191.7972503872675
 20
288.9193932842405
 30
0.0
 11
191.416495986093
 21
288.5921562356255
 31
0.0
  0
LINE
  5
2D4
330
1F
100
AcDbEntity
  8
LAY-2
  6
CONTINUOUS
 62
     6
100
AcDbLine
 10
191.416495986093
 20
288.5921562356255
 30
0.0
 11
191.0070771161584
 21
288.3280725577098
 31
0.0
  0
LINE
  5
2D5
330
1F
100
AcDbEntity
  8
LAY-2
  6
CONTINUOUS
 62
     6
100
AcDbLine
 10
191.0070771161584
 20
288.3280725577098
 30
0.0
 11
190.5915889682509
 21
288.1205500313461
 31
0.0
  0
LINE
  5
2D6
330
1F
100
AcDbEntity
  8
LAY-2
  6
CONTINUOUS
 62
     6
100
AcDbLine
 10
190.5915889682509
 20
288.1205500313461
 30
0.0
 11
190.1834393872841
 21
287.9606315534999
 31
0.0
  0
LINE
  5
2D7
330
1F
100
AcDbEntity
  8
LAY-2
  6
CONTINUOUS
 62
     6
100
AcDbLine
 10
190.1834393872841
 20
287.9606315534999
 30
0.0
 11
189.7900508338703
 21
287.8397785599791
 31
0.0
  0
LINE
  5
2D8
330
1F
100
AcDbEntity
  8
LAY-2
  6
CONTINUOUS
 62
     6
100
AcDbLine
 10
189.7900508338703
 20
287.8397785599791
 30
0.0
 11
189.4147857559466
 21
287.7487339484364
 31
0.0
  0
LINE
  5
2D9
330
1F
100
AcDbEntity
  8
LAY-2
  6
CONTINUOUS
 62
     6
100
AcDbLine
 10
189.4147857559466
 20
287.7487339484364
 30
0.0
 11
189.0582929351947
 21
287.682440142147
 31
0.0
  0
LINE
  5
2DA
330
1F
100
AcDbEntity
  8
LAY-2
  6
CONTINUOUS
 62
     6
100
AcDbLine
 10
189.0582929351947
 20
287.682440142147
 30
0.0
 11
188.7163030895185
 21
287.6371859108045
 31
0.0
  0
LINE
  5
2DB
330
1F
100
AcDbEntity
  8
LAY-2
  6
CONTINUOUS
 62
     6
100
AcDbLine
 10
188.7163030895185
 20
287.6371859108045
 30
0.0
 11
188.3893952441259
 21
287.6069161136339
 31
0.0
  0
LINE
  5
2DC
330
1F
100
AcDbEntity
  8
LAY-2
  6
CONTINUOUS
 62
     6
100
AcDbLine
 10
188.3893952441259
 20
287.6069161136339
 30
0.0
 11
188.073509386342
 21
287.5909122124797
 31
0.0
  0
LINE
  5
2DD
330
1F
100
AcDbEntity
  8
LAY-2
  6
CONTINUOUS
 62
     6
100
AcDbLine
 10
188.073509386342
 20
287.5909122124797
 30
0.0
 11
187.7655830675424
 21
287.5883859127129
 31
0.0
  0
LINE
  5
2DE
330
1F
100
AcDbEntity
  8
LAY-2
  6
CONTINUOUS
 62
     6
100
AcDbLine
 10
187.7655830675424
 20
287.5883859127129
 30
0.0
 11
187.4633421337315
 21
287.5954864710799
 31
0.0
  0
LINE
  5
2DF
330
1F
100
AcDbEntity
  8
LAY-2
  6
CONTINUOUS
 62
     6
100
AcDbLine
 10
187.4633421337315
 20
287.5954864710799
 30
0.0
 11
187.2507214780787
 21
287.6083494718869
 31
0.0
  0
LINE
  5
2E0
330
1F
100
AcDbEntity
  8
LAY-2
  6
CONTINUOUS
 62
     6
100
AcDbLine
 10
192.8943920955194
 20
296.6386643037096
 30
0.0
 11
192.44781115061
 21
290.2522592539461
 31
0.0
  0
LINE
  5
2E1
330
1F
100
AcDbEntity
  8
LAY-2
  6
CONTINUOUS
 62
     6
100
AcDbLine
 10
188.0877991630072
 20
299.5791180750048
 30
0.0
 11
188.3468867901797
 21
299.5569911356304
 31
0.0
  0
LINE
  5
2E2
330
1F
100
AcDbEntity
  8
LAY-2
  6
CONTINUOUS
 62
     6
100
AcDbLine
 10
188.3468867901797
 20
299.5569911356304
 30
0.0
 11
188.6094763782372
 21
299.527602222009
 31
0.0
  0
LINE
  5
2E3
330
1F
100
AcDbEntity
  8
LAY-2
  6
CONTINUOUS
 62
     6
100
AcDbLine
 10
188.6094763782372
 20
299.527602222009
 30
0.0
 11
188.8765654912297
 21
299.4908815776672
 31
0.0
  0
LINE
  5
2E4
330
1F
100
AcDbEntity
  8
LAY-2
  6
CONTINUOUS
 62
     6
100
AcDbLine
 10
188.8765654912297
 20
299.4908815776672
 30
0.0
 11
189.1539302440376
 21
299.4434179716116
 31
0.0
  0
LINE
  5
2E5
330
1F
100
AcDbEntity
  8
LAY-2
  6
CONTINUOUS
 62
     6
100
AcDbLine
 10
189.1539302440376
 20
299.4434179716116
 30
0.0
 11
189.4425682007112
 21
299.3851416473684
 31
0.0
  0
LINE
  5
2E6
330
1F
100
AcDbEntity
  8
LAY-2
  6
CONTINUOUS
 62
     6
100
AcDbLine
 10
189.4425682007112
 20
299.3851416473684
 30
0.0
 11
189.7482554761308
 21
299.3126413739445
 31
0.0
  0
LINE
  5
2E7
330
1F
100
AcDbEntity
  8
LAY-2
  6
CONTINUOUS
 62
     6
100
AcDbLine
 10
189.7482554761308
 20
299.3126413739445
 30
0.0
 11
190.072708172502
 21
299.2217873821913
 31
0.0
  0
LINE
  5
2E8
330
1F
100
AcDbEntity
  8
LAY-2
  6
CONTINUOUS
 62
     6
100
AcDbLine
 10
190.072708172502
 20
299.2217873821913
 30
0.0
 11
190.4195677636569
 21
299.1073128259626
 31
0.0
  0
LINE
  5
2E9
330
1F
100
AcDbEntity
  8
LAY-2
  6
CONTINUOUS
 62
     6
100
AcDbLine
 10
190.4195677636569
 20
299.1073128259626
 30
0.0
 11
190.7904805953276
 21
298.9640903720594
 31
0.0
  0
LINE
  5
2EA
330
1F
100
AcDbEntity
  8
LAY-2
  6
CONTINUOUS
 62
     6
100
AcDbLine
 10
190.7904805953276
 20
298.9640903720594
 30
0.0
 11
191.1847491027765
 21
298.7821443799794
 31
0.0
  0
LINE
  5
2EB
330
1F
100
AcDbEntity
  8
LAY-2
  6
CONTINUOUS
 62
     6
100
AcDbLine
 10
191.1847491027765
 20
298.7821443799794
 30
0.0
 11
191.5966879010149
 21
298.5518479915884
 31
0.0
  0
LINE
  5
2EC
330
1F
100
AcDbEntity
  8
LAY-2
  6
CONTINUOUS
 62
     6
100
AcDbLine
 10
191.5966879010149
 20
298.5518479915884
 30
0.0
 11
192.008361810556
 21
298.2604211702367
 31
0.0
  0
LINE
  5
2ED
330
1F
100
AcDbEntity
  8
LAY-2
  6
CONTINUOUS
 62
     6
100
AcDbLine
 10
192.008361810556
 20
298.2604211702367
 30
0.0
 11
192.3912112297287
 21
297.9008390207366
 31
0.0
  0
LINE
  5
2EE
330
1F
100
AcDbEntity
  8
LAY-2
  6
CONTINUOUS
 62
     6
100
AcDbLine
 10
192.3912112297287
 20
297.9008390207366
 30
0.0
 11
192.6970740582257
 21
297.4724595976269
 31
0.0
  0
LINE
  5
2EF
330
1F
100
AcDbEntity
  8
LAY-2
  6
CONTINUOUS
 62
     6
100
AcDbLine
 10
192.6970740582257
 20
297.4724595976269
 30
0.0
 11
192.8729886714915
 21
296.992018083143
 31
0.0
  0
LINE
  5
2F0
330
1F
100
AcDbEntity
  8
LAY-2
  6
CONTINUOUS
 62
     6
100
AcDbLine
 10
192.8729886714915
 20
296.992018083143
 30
0.0
 11
192.8943920955193
 21
296.6386643037096
 31
0.0
  0
LINE
  5
2F1
330
1F
100
AcDbEntity
  8
LAY-2
  6
CONTINUOUS
 62
     6
100
AcDbLine
 10
192.4478111506099
 20
290.2522592539461
 30
0.0
 11
192.345447340689
 21
289.7632084892821
 31
0.0
  0
LINE
  5
2F2
330
1F
100
AcDbEntity
  8
LAY-2
  6
CONTINUOUS
 62
     6
100
AcDbLine
 10
182.6674940219622
 20
289.9728189864926
 30
0.0
 11
182.9309011085583
 21
289.539388822878
 31
0.0
  0
LINE
  5
2F3
330
1F
100
AcDbEntity
  8
LAY-2
  6
CONTINUOUS
 62
     6
100
AcDbLine
 10
182.5054755489263
 20
290.4512863462938
 30
0.0
 11
182.6674940219622
 21
289.9728189864926
 31
0.0
  0
LINE
  5
2F4
330
1F
100
AcDbEntity
  8
LAY-2
  6
CONTINUOUS
 62
     6
100
AcDbLine
 10
182.472170648012
 20
290.949823991387
 30
0.0
 11
182.5054755489263
 21
290.4512863462938
 31
0.0
  0
LINE
  5
2F5
330
1F
100
AcDbEntity
  8
LAY-2
  6
CONTINUOUS
 62
     6
100
AcDbLine
 10
195.776557069921
 20
296.3970260196314
 30
0.0
 11
195.8033928036518
 21
296.6517746082342
 31
0.0
  0
LINE
  5
2F6
330
1F
100
AcDbEntity
  8
LAY-2
  6
CONTINUOUS
 62
     6
100
AcDbLine
 10
195.8033928036518
 20
296.6517746082342
 30
0.0
 11
195.8539608051676
 21
296.9018563493164
 31
0.0
  0
LINE
  5
2F7
330
1F
100
AcDbEntity
  8
LAY-2
  6
CONTINUOUS
 62
     6
100
AcDbLine
 10
195.8539608051676
 20
296.9018563493164
 30
0.0
 11
195.929188882045
 21
297.1462039223539
 31
0.0
  0
LINE
  5
2F8
330
1F
100
AcDbEntity
  8
LAY-2
  6
CONTINUOUS
 62
     6
100
AcDbLine
 10
195.929188882045
 20
297.1462039223539
 30
0.0
 11
196.0268726367621
 21
297.3819641481435
 31
0.0
  0
LINE
  5
2F9
330
1F
100
AcDbEntity
  8
LAY-2
  6
CONTINUOUS
 62
     6
100
AcDbLine
 10
196.0268726367621
 20
297.3819641481435
 30
0.0
 11
196.1479398768955
 21
297.6080697061612
 31
0.0
  0
LINE
  5
2FA
330
1F
100
AcDbEntity
  8
LAY-2
  6
CONTINUOUS
 62
     6
100
AcDbLine
 10
196.1479398768955
 20
297.6080697061612
 30
0.0
 11
196.2901164484496
 21
297.8206698531534
 31
0.0
  0
LINE
  5
2FB
330
1F
100
AcDbEntity
  8
LAY-2
  6
CONTINUOUS
 62
     6
100
AcDbLine
 10
195.3327663839614
 20
290.0505235318784
 30
0.0
 11
195.7793473288708
 21
296.4369285816418
 31
0.0
  0
LINE
  5
2FC
330
1F
100
AcDbEntity
  8
LAY-2
  6
CONTINUOUS
 62
     6
100
AcDbLine
 10
196.4534023514245
 20
298.0197645891201
 30
0.0
 11
196.6355234318248
 21
298.2015031708078
 31
0.0
  0
LINE
  5
2FD
330
1F
100
AcDbEntity
  8
LAY-2
  6
CONTINUOUS
 62
     6
100
AcDbLine
 10
196.6355234318248
 20
298.2015031708078
 30
0.0
 11
196.8353426126527
 21
298.3639602265896
 31
0.0
  0
LINE
  5
2FE
330
1F
100
AcDbEntity
  8
LAY-2
  6
CONTINUOUS
 62
     6
100
AcDbLine
 10
196.8353426126527
 20
298.3639602265896
 30
0.0
 11
197.0507950093337
 21
298.5062777053629
 31
0.0
  0
LINE
  5
2FF
330
1F
100
AcDbEntity
  8
LAY-2
  6
CONTINUOUS
 62
     6
100
AcDbLine
 10
197.0507950093337
 20
298.5062777053629
 30
0.0
 11
197.2806737883966
 21
298.6255326714505
 31
0.0
  0
LINE
  5
300
330
1F
100
AcDbEntity
  8
LAY-2
  6
CONTINUOUS
 62
     6
100
AcDbLine
 10
197.2806737883966
 20
298.6255326714505
 30
0.0
 11
197.5209189371665
 21
298.7210065866973
 31
0.0
  0
LINE
  5
301
330
1F
100
AcDbEntity
  8
LAY-2
  6
CONTINUOUS
 62
     6
100
AcDbLine
 10
197.5209189371665
 20
298.7210065866973
 30
0.0
 11
197.7705328915931
 21
298.7927692075768
 31
0.0
  0
LINE
  5
302
330
1F
100
AcDbEntity
  8
LAY-2
  6
CONTINUOUS
 62
     6
100
AcDbLine
 10
197.7705328915931
 20
298.7927692075768
 30
0.0
 11
198.0252463695804
 21
298.8371093037832
 31
0.0
  0
LINE
  5
303
330
1F
100
AcDbEntity
  8
LAY-2
  6
CONTINUOUS
 62
     6
100
AcDbLine
 10
198.0252463695804
 20
298.8371093037832
 30
0.0
 11
198.2842013200258
 21
298.8560917598907
 31
0.0
  0
LINE
  5
304
330
1F
100
AcDbEntity
  8
LAY-2
  6
CONTINUOUS
 62
     6
100
AcDbLine
 10
198.2842013200258
 20
298.8560917598907
 30
0.0
 11
198.5083532320214
 21
298.8504419502746
 31
0.0
  0
LINE
  5
305
330
1F
100
AcDbEntity
  8
LAY-2
  6
CONTINUOUS
 62
     6
100
AcDbLine
 10
198.5083532320214
 20
298.8504419502746
 30
0.0
 11
198.544195781357
 21
298.8469331531695
 31
0.0
  0
LINE
  5
306
330
1F
100
AcDbEntity
  8
LAY-2
  6
CONTINUOUS
 62
     6
100
AcDbLine
 10
198.544195781357
 20
298.8469331531695
 30
0.0
 11
198.8013790103206
 21
298.8119076376154
 31
0.0
  0
LINE
  5
307
330
1F
100
AcDbEntity
  8
LAY-2
  6
CONTINUOUS
 62
     6
100
AcDbLine
 10
196.2901164484496
 20
297.8206698531534
 30
0.0
 11
196.4534023514245
 21
298.0197645891201
 31
0.0
  0
LINE
  5
308
330
1F
100
AcDbEntity
  8
LAY-2
  6
CONTINUOUS
 62
     6
100
AcDbLine
 10
198.8013790103206
 20
298.8119076376154
 30
0.0
 11
199.0536861223424
 21
298.7501571621254
 31
0.0
  0
LINE
  5
309
330
1F
100
AcDbEntity
  8
LAY-2
  6
CONTINUOUS
 62
     6
100
AcDbLine
 10
199.0536861223424
 20
298.7501571621254
 30
0.0
 11
199.2982639382191
 21
298.6638861242216
 31
0.0
  0
LINE
  5
30A
330
1F
100
AcDbEntity
  8
LAY-2
  6
CONTINUOUS
 62
     6
100
AcDbLine
 10
199.2982639382191
 20
298.6638861242216
 30
0.0
 11
199.532050009326
 21
298.5523062292746
 31
0.0
  0
LINE
  5
30B
330
1F
100
AcDbEntity
  8
LAY-2
  6
CONTINUOUS
 62
     6
100
AcDbLine
 10
199.532050009326
 20
298.5523062292746
 30
0.0
 11
199.7531887205102
 21
298.4175521183325
 31
0.0
  0
LINE
  5
30C
330
1F
100
AcDbEntity
  8
LAY-2
  6
CONTINUOUS
 62
     6
100
AcDbLine
 10
199.7531887205102
 20
298.4175521183325
 30
0.0
 11
199.9587571360946
 21
298.2608306248669
 31
0.0
  0
LINE
  5
30D
330
1F
100
AcDbEntity
  8
LAY-2
  6
CONTINUOUS
 62
     6
100
AcDbLine
 10
199.9587571360946
 20
298.2608306248669
 30
0.0
 11
200.1479669614504
 21
298.0852041975022
 31
0.0
  0
LINE
  5
30E
330
1F
100
AcDbEntity
  8
LAY-2
  6
CONTINUOUS
 62
     6
100
AcDbLine
 10
200.1479669614504
 20
298.0852041975022
 30
0.0
 11
200.31689769685
 21
297.8919494261838
 31
0.0
  0
LINE
  5
30F
330
1F
100
AcDbEntity
  8
LAY-2
  6
CONTINUOUS
 62
     6
100
AcDbLine
 10
200.31689769685
 20
297.8919494261838
 30
0.0
 11
200.4666166628175
 21
297.6819941184881
 31
0.0
  0
LINE
  5
310
330
1F
100
AcDbEntity
  8
LAY-2
  6
CONTINUOUS
 62
     6
100
AcDbLine
 10
200.4666166628175
 20
297.6819941184881
 30
0.0
 11
200.5944101930971
 21
297.4595378000373
 31
0.0
  0
LINE
  5
311
330
1F
100
AcDbEntity
  8
LAY-2
  6
CONTINUOUS
 62
     6
100
AcDbLine
 10
200.5944101930971
 20
297.4595378000373
 30
0.0
 11
200.6993504801125
 21
297.2256477913555
 31
0.0
  0
LINE
  5
312
330
1F
100
AcDbEntity
  8
LAY-2
  6
CONTINUOUS
 62
     6
100
AcDbLine
 10
200.6993504801125
 20
297.2256477913555
 30
0.0
 11
200.7816467932846
 21
296.9833167845936
 31
0.0
  0
LINE
  5
313
330
1F
100
AcDbEntity
  8
LAY-2
  6
CONTINUOUS
 62
     6
100
AcDbLine
 10
200.7816467932846
 20
296.9833167845936
 30
0.0
 11
200.8393737609868
 21
296.7336818567492
 31
0.0
  0
LINE
  5
314
330
1F
100
AcDbEntity
  8
LAY-2
  6
CONTINUOUS
 62
     6
100
AcDbLine
 10
200.8393737609868
 20
296.7336818567492
 30
0.0
 11
200.872810409114
 21
296.4807332640232
 31
0.0
  0
LINE
  5
315
330
1F
100
AcDbEntity
  8
LAY-2
  6
CONTINUOUS
 62
     6
100
AcDbLine
 10
200.872810409114
 20
296.4807332640232
 30
0.0
 11
200.8810289300898
 21
296.2255383269398
 31
0.0
  0
LINE
  5
316
330
1F
100
AcDbEntity
  8
LAY-2
  6
CONTINUOUS
 62
     6
100
AcDbLine
 10
200.8810289300898
 20
296.2255383269398
 30
0.0
 11
200.874904497598
 21
296.0806125137573
 31
0.0
  0
LINE
  5
317
330
1F
100
AcDbEntity
  8
LAY-2
  6
CONTINUOUS
 62
     6
100
AcDbLine
 10
196.5321330648757
 20
287.2901357756541
 30
0.0
 11
196.3032299469309
 21
287.4715451541193
 31
0.0
  0
LINE
  5
318
330
1F
100
AcDbEntity
  8
LAY-2
  6
CONTINUOUS
 62
     6
100
AcDbLine
 10
196.3032299469309
 20
287.4715451541193
 30
0.0
 11
196.0999425215621
 21
287.6752219144209
 31
0.0
  0
LINE
  5
319
330
1F
100
AcDbEntity
  8
LAY-2
  6
CONTINUOUS
 62
     6
100
AcDbLine
 10
196.0999425215621
 20
287.6752219144209
 30
0.0
 11
195.9209244423504
 21
287.8962479927812
 31
0.0
  0
LINE
  5
31A
330
1F
100
AcDbEntity
  8
LAY-2
  6
CONTINUOUS
 62
     6
100
AcDbLine
 10
195.9209244423504
 20
287.8962479927812
 30
0.0
 11
195.7678220550277
 21
288.1294960560017
 31
0.0
  0
LINE
  5
31B
330
1F
100
AcDbEntity
  8
LAY-2
  6
CONTINUOUS
 62
     6
100
AcDbLine
 10
195.7678220550277
 20
288.1294960560017
 30
0.0
 11
195.6394982825962
 21
288.3730407324554
 31
0.0
  0
LINE
  5
31C
330
1F
100
AcDbEntity
  8
LAY-2
  6
CONTINUOUS
 62
     6
100
AcDbLine
 10
195.6394982825962
 20
288.3730407324554
 30
0.0
 11
195.5336092145865
 21
288.6220337148385
 31
0.0
  0
LINE
  5
31D
330
1F
100
AcDbEntity
  8
LAY-2
  6
CONTINUOUS
 62
     6
100
AcDbLine
 10
195.5336092145865
 20
288.6220337148385
 30
0.0
 11
195.4510826585753
 21
288.8754076826272
 31
0.0
  0
LINE
  5
31E
330
1F
100
AcDbEntity
  8
LAY-2
  6
CONTINUOUS
 62
     6
100
AcDbLine
 10
195.4510826585753
 20
288.8754076826272
 30
0.0
 11
195.390711781091
 21
289.1302397001441
 31
0.0
  0
LINE
  5
31F
330
1F
100
AcDbEntity
  8
LAY-2
  6
CONTINUOUS
 62
     6
100
AcDbLine
 10
195.390711781091
 20
289.1302397001441
 30
0.0
 11
195.3495038899829
 21
289.3867390368107
 31
0.0
  0
LINE
  5
320
330
1F
100
AcDbEntity
  8
LAY-2
  6
CONTINUOUS
 62
     6
100
AcDbLine
 10
195.3495038899829
 20
289.3867390368107
 30
0.0
 11
195.3283170363538
 21
289.6428408080527
 31
0.0
  0
LINE
  5
321
330
1F
100
AcDbEntity
  8
LAY-2
  6
CONTINUOUS
 62
     6
100
AcDbLine
 10
195.3261536561533
 20
289.8986147703439
 30
0.0
 11
195.3327663839614
 21
290.0505235318784
 31
0.0
  0
LINE
  5
322
330
1F
100
AcDbEntity
  8
LAY-2
  6
CONTINUOUS
 62
     6
100
AcDbLine
 10
195.3283170363538
 20
289.6428408080527
 30
0.0
 11
195.3261536561533
 21
289.8986147703439
 31
0.0
  0
LINE
  5
323
330
1F
100
AcDbEntity
  8
LAY-2
  6
CONTINUOUS
 62
     6
100
AcDbLine
 10
196.7840079656146
 20
287.1361908686979
 30
0.0
 11
196.5321330648757
 21
287.2901357756541
 31
0.0
  0
LINE
  5
324
330
1F
100
AcDbEntity
  8
LAY-2
  6
CONTINUOUS
 62
     6
100
AcDbLine
 10
197.3408306301999
 20
286.9278413541699
 30
0.0
 11
197.0551434188415
 21
287.0139797153465
 31
0.0
  0
LINE
  5
325
330
1F
100
AcDbEntity
  8
LAY-2
  6
CONTINUOUS
 62
     6
100
AcDbLine
 10
197.0551434188415
 20
287.0139797153465
 30
0.0
 11
196.7840079656146
 21
287.1361908686979
 31
0.0
  0
LINE
  5
326
330
1F
100
AcDbEntity
  8
LAY-2
  6
CONTINUOUS
 62
     2
100
AcDbLine
 10
199.8573527372398
 20
288.0229653128064
 30
0.0
 11
199.6906068202157
 21
287.8030612447317
 31
0.0
  0
LINE
  5
327
330
1F
100
AcDbEntity
  8
LAY-2
  6
CONTINUOUS
 62
     2
100
AcDbLine
 10
199.6906068202157
 20
287.8030612447317
 30
0.0
 11
199.5007564436703
 21
287.5968021006299
 31
0.0
  0
LINE
  5
328
330
1F
100
AcDbEntity
  8
LAY-2
  6
CONTINUOUS
 62
     2
100
AcDbLine
 10
199.5007564436703
 20
287.5968021006299
 30
0.0
 11
199.2880108770248
 21
287.407180572652
 31
0.0
  0
LINE
  5
329
330
1F
100
AcDbEntity
  8
LAY-2
  6
CONTINUOUS
 62
     2
100
AcDbLine
 10
199.2880108770248
 20
287.407180572652
 30
0.0
 11
199.0527189026479
 21
287.2391844810492
 31
0.0
  0
LINE
  5
32A
330
1F
100
AcDbEntity
  8
LAY-2
  6
CONTINUOUS
 62
     2
100
AcDbLine
 10
199.0527189026479
 20
287.2391844810492
 30
0.0
 11
198.7962268669587
 21
287.0977318895989
 31
0.0
  0
LINE
  5
32B
330
1F
100
AcDbEntity
  8
LAY-2
  6
CONTINUOUS
 62
     2
100
AcDbLine
 10
198.7962268669587
 20
287.0977318895989
 30
0.0
 11
198.5218762444766
 21
286.9876013491313
 31
0.0
  0
LINE
  5
32C
330
1F
100
AcDbEntity
  8
LAY-2
  6
CONTINUOUS
 62
     2
100
AcDbLine
 10
198.5218762444766
 20
286.9876013491313
 30
0.0
 11
198.2339363172977
 21
286.9125040899523
 31
0.0
  0
ARC
  5
32D
330
1F
100
AcDbEntity
  8
LAY-2
  6
CONTINUOUS
 62
     6
100
AcDbCircle
 10
197.4356314019092
 20
289.9034768852259
 30
0.0
 40
3.000000000000002
100
AcDbArc
 50
266.0000000000051
 51
356.0000000000043
  0
ARC
  5
32E
330
1F
100
AcDbEntity
  8
LAY-2
  6
CONTINUOUS
 62
     2
100
AcDbCircle
 10
169.6061097820811
 20
307.3659999999933
 30
0.0
 40
11.0
100
AcDbArc
 50
319.9158821788073
 51
353.9519999999999
  0
LINE
  5
32F
330
1F
100
AcDbEntity
  8
LAY-2
  6
EXLTYPE3
 62
     1
100
AcDbLine
 10
188.5673538163651
 20
306.4370691245149
 30
0.0
 11
183.4582813372472
 21
233.3739287192978
 31
0.0
  0
ARC
  5
330
330
1F
100
AcDbEntity
  8
LAY-2
  6
CONTINUOUS
 62
     2
100
AcDbCircle
 10
203.3809999999911
 20
303.2519999999932
 30
0.0
 40
7.000000000000004
100
AcDbArc
 50
57.22300000000022
 51
184.4986393579493
  0
ARC
  5
331
330
1F
100
AcDbEntity
  8
LAY-2
  6
CONTINUOUS
 62
     2
100
AcDbCircle
 10
201.3951097820811
 20
302.4299999999932
 30
0.0
 40
5.0
100
AcDbArc
 50
175.5692822125763
 51
224.9750656195122
  0
ARC
  5
332
330
1F
100
AcDbEntity
  8
LAY-2
  6
CONTINUOUS
 62
     2
100
AcDbCircle
 10
200.5379999999911
 20
305.5999999999932
 30
0.0
 40
20.0
100
AcDbArc
 50
85.77699999999977
 51
178.2609442807316
  0
DIMENSION
  5
333
330
1F
100
AcDbEntity
  8
LAY-2
  6
CONTINUOUS
 62
     3
100
AcDbDimension
  2
*D19
 10
157.8
 20
235.59999999999
 30
0.0
 11
153.100000011921
 21
276.59999999999
 31
0.0
 70
   160
  1
（82）
  3
ISO-25
100
AcDbAlignedDimension
 13
200.53799999999
 23
317.59999999999
 33
0.0
 14
183.61394340506
 24
235.59999999999
 34
0.0
 50
90.0
100
AcDbRotatedDimension
1001
ACAD
1000
DSTYLE
1002
{
1070
   270
1070
     2
1070
     6
1000
EX_NORM
1070
     7
1000
EX_NORM
1070
    41
1040
6.0
1070
    42
1040
1.399999976158142
1070
    44
1040
2.0
1070
    73
1070
     0
1070
    74
1070
     0
1070
    75
1070
     0
1070
    76
1070
     0
1070
    77
1070
     1
1070
    78
1070
     8
1070
   140
1040
8.0
1070
   147
1040
0.0
1070
   173
1070
     1
1070
   176
1070
     3
1070
   177
1070
     3
1070
   178
1070
     2
1070
   271
1070
     1
1070
   277
1070
     2
1070
   279
1070
     2
1070
   280
1070
     0
1070
   287
1070
     5
1070
   340
1005
D3
1002
}
  0
ENDSEC
  0
SECTION
  2
OBJECTS
  0
DICTIONARY
  5
C
330
0
100
AcDbDictionary
  3
ACAD_GROUP
350
D
  3
ACAD_LAYOUT
350
1A
  3
ACAD_MATERIAL
350
3B
  3
ACAD_MLEADERSTYLE
350
362
  3
ACAD_MLINESTYLE
350
17
  3
ACAD_PLOTSETTINGS
350
19
  3
ACAD_VISUALSTYLE
350
2A
  3
ACDBHEADERROUNDTRIPXREC
350
340
  3
ACDBVARIABLEDICTIONARY
350
360
  0
DICTIONARY
  5
D
102
{ACAD_REACTORS
330
C
102
}
330
C
100
AcDbDictionary
  0
DICTIONARY
  5
1A
102
{ACAD_REACTORS
330
C
102
}
330
C
100
AcDbDictionary
  0
DICTIONARY
  5
3B
102
{ACAD_REACTORS
330
C
102
}
330
C
100
AcDbDictionary
  3
BYBLOCK
350
3D
  3
BYLAYER
350
3C
  3
GLOBAL
350
3E
  0
DICTIONARY
  5
362
102
{ACAD_REACTORS
330
C
102
}
330
C
100
AcDbDictionary
  0
DICTIONARY
  5
17
102
{ACAD_REACTORS
330
C
102
}
330
C
100
AcDbDictionary
  3
STANDARD
350
18
  0
DICTIONARY
  5
19
102
{ACAD_REACTORS
330
C
102
}
330
C
100
AcDbDictionary
  0
DICTIONARY
  5
2A
102
{ACAD_REACTORS
330
C
102
}
330
C
100
AcDbDictionary
  3
2DWIREFRAME
350
2F
  3
3D_HIDDEN
350
31
  3
3DWIREFRAME
350
30
  3
BASIC
350
32
  3
BRIGHTEN
350
36
  3
COLORCHANGE
350
3A
  3
CONCEPTUAL
350
34
  3
DIM
350
35
  3
FACEPATTERN
350
39
  3
FLAT
350
2B
  3
FLATWITHEDGES
350
2C
  3
GOURAUD
350
2D
  3
GOURAUDWITHEDGES
350
2E
  3
LINEPATTERN
350
38
  3
REALISTIC
350
33
  3
THICKEN
350
37
  0
DICTIONARY
  5
340
102
{ACAD_REACTORS
330
C
102
}
330
C
100
AcDbDictionary
  3
CEPSNTYPE
350
349
  3
DIMSTYLEDATA
350
35F
  3
FINGERPRINTGUID
350
34A
  3
HYPERLINKBASE
350
343
  3
INSUNITS
350
348
  3
LAYOUTDICT
350
345
  3
LWETCUNION
350
347
  3
PLOTSETDICT
350
346
  3
PSVPSCALE
350
34C
  3
PUCSBASE
350
34F
  3
PUCSORGBACK
350
355
  3
PUCSORGBOTTOM
350
351
  3
PUCSORGFRONT
350
354
  3
PUCSORGLEFT
350
352
  3
PUCSORGRIGHT
350
353
  3
PUCSORGTOP
350
350
  3
PUCSORTHOREF
350
34D
  3
PUCSORTHOVIEW
350
34E
  3
STYLESHEET
350
344
  3
TSTACKALIGN
350
341
  3
TSTACKSIZE
350
342
  3
UCSBASE
350
358
  3
UCSORGBACK
350
35E
  3
UCSORGBOTTOM
350
35A
  3
UCSORGFRONT
350
35D
  3
UCSORGLEFT
350
35B
  3
UCSORGRIGHT
350
35C
  3
UCSORGTOP
350
359
  3
UCSORTHOREF
350
356
  3
UCSORTHOVIEW
350
357
  3
VERSIONGUID
350
34B
  0
DICTIONARY
  5
360
102
{ACAD_REACTORS
330
C
102
}
330
C
100
AcDbDictionary
  3
DIMASSOC
350
365
  3
HIDETEXT
350
366
  3
PSOLHEIGHT
350
364
  3
PSOLWIDTH
350
363
  0
MATERIAL
  5
3D
102
{ACAD_REACTORS
330
3B
102
}
102
{ACAD_XDICTIONARY
360
369
102
}
330
3B
100
AcDbMaterial
  1
ByBlock
  0
MATERIAL
  5
3C
102
{ACAD_REACTORS
330
3B
102
}
102
{ACAD_XDICTIONARY
360
367
102
}
330
3B
100
AcDbMaterial
  1
ByLayer
  0
MATERIAL
  5
3E
102
{ACAD_REACTORS
330
3B
102
}
102
{ACAD_XDICTIONARY
360
36B
102
}
330
3B
100
AcDbMaterial
  1
Global
  0
MLINESTYLE
  5
18
102
{ACAD_REACTORS
330
17
102
}
330
17
100
AcDbMlineStyle
  2
Standard
 70
     0
  3

 62
   256
 51
90.0
 52
90.0
 71
     2
 49
0.5
 62
   256
  6
BYLAYER
 49
-0.5
 62
   256
  6
BYLAYER
  0
ACAD_PROXY_OBJECT
  5
2F
102
{ACAD_REACTORS
330
2A
102
}
330
2A
100
AcDbProxyObject
 90
      499
 91
      501
 93
      436
310
42CC9915DA5C99599C985B595049028333333333333E3BF0000000000000FB0107901411070040501600405405064090741402480A0340
1001
ACAD
1000
AcDbSavedByObjectVersion
1070
     0
  0
ACAD_PROXY_OBJECT
  5
31
102
{ACAD_REACTORS
330
2A
102
}
330
2A
100
AcDbProxyObject
 90
      499
 91
      501
 93
      500
310
424CD108121A5919195B90640502408333333333333E3BF0000000000000FB01079024090700405020000000000001110200405405064090740C02480A0340
1001
ACAD
1000
AcDbSavedByObjectVersion
1070
     0
  0
ACAD_PROXY_OBJECT
  5
30
102
{ACAD_REACTORS
330
2A
102
}
330
2A
100
AcDbProxyObject
 90
      499
 91
      501
 93
      436
310
42CCD915DA5C99599C985B595059028333333333333E3BF0000000000000FB0107901411070040501600405405064090741402480A0340
1001
ACAD
1000
AcDbSavedByObjectVersion
1070
     0
  0
ACAD_PROXY_OBJECT
  5
32
102
{ACAD_REACTORS
330
2A
102
}
330
2A
100
AcDbProxyObject
 90
      499
 91
      501
 93
      388
310
4150985CDA58D07406404333333333333E3BF0000000000000FB0107A41107004050150841D405064090741402480A0350
1001
ACAD
1000
AcDbSavedByObjectVersion
1070
     0
  0
ACAD_PROXY_OBJECT
  5
36
102
{ACAD_REACTORS
330
2A
102
}
330
2A
100
AcDbProxyObject
 90
      499
 91
      501
 93
      428
310
42109C9A59DA1D195B90C409028333333333333E3BF0000000000000FB010790141107004050150841D405064090741402480A029950
1001
ACAD
1000
AcDbSavedByObjectVersion
1070
     0
  0
ACAD_PROXY_OBJECT
  5
3A
102
{ACAD_REACTORS
330
2A
102
}
330
2A
100
AcDbProxyObject
 90
      499
 91
      501
 93
      452
310
42D0DBDB1BDC90DA185B99D95104090240C333333333333E3BF0000000000000FB0108901411070040501508421405064090741402480A0350
1001
ACAD
1000
AcDbSavedByObjectVersion
1070
     0
  0
ACAD_PROXY_OBJECT
  5
34
102
{ACAD_REACTORS
330
2A
102
}
330
2A
100
AcDbProxyObject
 90
      499
 91
      501
 93
      500
310
4290DBDB98D95C1D1D585B10940D028333333333333E3BF0000000000000FB0107902409070040501000000000000111010841D405064090740C02480A0340
1001
ACAD
1000
AcDbSavedByObjectVersion
1070
     0
  0
ACAD_PROXY_OBJECT
  5
35
102
{ACAD_REACTORS
330
2A
102
}
330
2A
100
AcDbProxyObject
 90
      499
 91
      501
 93
      412
310
40D11A5B50B409028333333333333E3BF0000000000000FB010790141107004050150841D405064090741402480A02677FFFFFD0
1001
ACAD
1000
AcDbSavedByObjectVersion
1070
     0
  0
ACAD_PROXY_OBJECT
  5
39
102
{ACAD_REACTORS
330
2A
102
}
330
2A
100
AcDbProxyObject
 90
      499
 91
      501
 93
      444
310
42D19858D95C185D1D195C9B90F409028333333333333E3BF0000000000000FB010790141107004050150841D405064090741402480A0350
1001
ACAD
1000
AcDbSavedByObjectVersion
1070
     0
  0
ACAD_PROXY_OBJECT
  5
2B
102
{ACAD_REACTORS
330
2A
102
}
330
2A
100
AcDbProxyObject
 90
      499
 91
      501
 93
      388
310
41119B185D240901404333333333333E3BF0000000000000F9010740A41107004050150841D405064090741402480A1B50
1001
ACAD
1000
AcDbSavedByObjectVersion
1070
     0
  0
ACAD_PROXY_OBJECT
  5
2C
102
{ACAD_REACTORS
330
2A
102
}
330
2A
100
AcDbProxyObject
 90
      499
 91
      501
 93
      476
310
43519B185D15DA5D1A115919D95CD0140901404333333333333E3BF0000000000000F9010740901411070040501600405405064090741402480A1B50
1001
ACAD
1000
AcDbSavedByObjectVersion
1070
     0
  0
ACAD_PROXY_OBJECT
  5
2D
102
{ACAD_REACTORS
330
2A
102
}
330
2A
100
AcDbProxyObject
 90
      499
 91
      501
 93
      412
310
41D1DBDD5C985D5910240902404333333333333E3BF0000000000000F9010740A411070040501641D405064090741402480A1B50
1001
ACAD
1000
AcDbSavedByObjectVersion
1070
     0
  0
ACAD_PROXY_OBJECT
  5
2E
102
{ACAD_REACTORS
330
2A
102
}
330
2A
100
AcDbProxyObject
 90
      499
 91
      501
 93
      500
310
4411DBDD5C985D5915DA5D1A115919D95CD0340902404333333333333E3BF0000000000000F9010740901411070040501600405405064090741402480A1B50
1001
ACAD
1000
AcDbSavedByObjectVersion
1070
     0
  0
ACAD_PROXY_OBJECT
  5
38
102
{ACAD_REACTORS
330
2A
102
}
330
2A
100
AcDbProxyObject
 90
      499
 91
      501
 93
      444
310
42D31A5B995C185D1D195C9B90E409028333333333333E3BF0000000000000FB010790141107004050750841D405064090741402483A0350
1001
ACAD
1000
AcDbSavedByObjectVersion
1070
     0
  0
ACAD_PROXY_OBJECT
  5
33
102
{ACAD_REACTORS
330
2A
102
}
330
2A
100
AcDbProxyObject
 90
      499
 91
      501
 93
      420
310
425499585B1A5CDD1A58D08409028333333333333E3BF0000000000000FB01079019070040501508421405064090741402480A1B40
1001
ACAD
1000
AcDbSavedByObjectVersion
1070
     0
  0
ACAD_PROXY_OBJECT
  5
37
102
{ACAD_REACTORS
330
2A
102
}
330
2A
100
AcDbProxyObject
 90
      499
 91
      501
 93
      412
310
41D51A1A58DAD95B90D409028333333333333E3BF0000000000000FB010790141107004050150C41D405064090741402480A0350
1001
ACAD
1000
AcDbSavedByObjectVersion
1070
     0
  0
XRECORD
  5
349
102
{ACAD_REACTORS
330
340
102
}
330
340
100
AcDbXrecord
 90
        0
  0
XRECORD
  5
35F
102
{ACAD_REACTORS
330
340
102
}
330
340
100
AcDbXrecord
1000
DSTYLE
1002
{
1070
   340
340
11
1002
}
  0
XRECORD
  5
34A
102
{ACAD_REACTORS
330
340
102
}
330
340
100
AcDbXrecord
  1
{4B5EA28D-3217-4B53-B2B5-A1BFD70341C9}
  0
XRECORD
  5
343
102
{ACAD_REACTORS
330
340
102
}
330
340
100
AcDbXrecord
  1

  0
XRECORD
  5
348
102
{ACAD_REACTORS
330
340
102
}
330
340
100
AcDbXrecord
 90
        4
  0
XRECORD
  5
345
102
{ACAD_REACTORS
330
340
102
}
330
340
100
AcDbXrecord
340
1A
  0
XRECORD
  5
347
102
{ACAD_REACTORS
330
340
102
}
330
340
100
AcDbXrecord
 90
    10781
  0
XRECORD
  5
346
102
{ACAD_REACTORS
330
340
102
}
330
340
100
AcDbXrecord
340
19
  0
XRECORD
  5
34C
102
{ACAD_REACTORS
330
340
102
}
330
340
100
AcDbXrecord
 40
0.0
  0
XRECORD
  5
34F
102
{ACAD_REACTORS
330
340
102
}
330
340
100
AcDbXrecord
340
0
  0
XRECORD
  5
355
102
{ACAD_REACTORS
330
340
102
}
330
340
100
AcDbXrecord
 10
0.0
 20
0.0
 30
0.0
  0
XRECORD
  5
351
102
{ACAD_REACTORS
330
340
102
}
330
340
100
AcDbXrecord
 10
0.0
 20
0.0
 30
0.0
  0
XRECORD
  5
354
102
{ACAD_REACTORS
330
340
102
}
330
340
100
AcDbXrecord
 10
0.0
 20
0.0
 30
0.0
  0
XRECORD
  5
352
102
{ACAD_REACTORS
330
340
102
}
330
340
100
AcDbXrecord
 10
0.0
 20
0.0
 30
0.0
  0
XRECORD
  5
353
102
{ACAD_REACTORS
330
340
102
}
330
340
100
AcDbXrecord
 10
0.0
 20
0.0
 30
0.0
  0
XRECORD
  5
350
102
{ACAD_REACTORS
330
340
102
}
330
340
100
AcDbXrecord
 10
0.0
 20
0.0
 30
0.0
  0
XRECORD
  5
34D
102
{ACAD_REACTORS
330
340
102
}
330
340
100
AcDbXrecord
340
0
  0
XRECORD
  5
34E
102
{ACAD_REACTORS
330
340
102
}
330
340
100
AcDbXrecord
 70
     0
  0
XRECORD
  5
344
102
{ACAD_REACTORS
330
340
102
}
330
340
100
AcDbXrecord
  1

  0
XRECORD
  5
341
102
{ACAD_REACTORS
330
340
102
}
330
340
100
AcDbXrecord
 90
        1
  0
XRECORD
  5
342
102
{ACAD_REACTORS
330
340
102
}
330
340
100
AcDbXrecord
 90
       70
  0
XRECORD
  5
358
102
{ACAD_REACTORS
330
340
102
}
330
340
100
AcDbXrecord
340
0
  0
XRECORD
  5
35E
102
{ACAD_REACTORS
330
340
102
}
330
340
100
AcDbXrecord
 10
0.0
 20
0.0
 30
0.0
  0
XRECORD
  5
35A
102
{ACAD_REACTORS
330
340
102
}
330
340
100
AcDbXrecord
 10
0.0
 20
0.0
 30
0.0
  0
XRECORD
  5
35D
102
{ACAD_REACTORS
330
340
102
}
330
340
100
AcDbXrecord
 10
0.0
 20
0.0
 30
0.0
  0
XRECORD
  5
35B
102
{ACAD_REACTORS
330
340
102
}
330
340
100
AcDbXrecord
 10
0.0
 20
0.0
 30
0.0
  0
XRECORD
  5
35C
102
{ACAD_REACTORS
330
340
102
}
330
340
100
AcDbXrecord
 10
0.0
 20
0.0
 30
0.0
  0
XRECORD
  5
359
102
{ACAD_REACTORS
330
340
102
}
330
340
100
AcDbXrecord
 10
0.0
 20
0.0
 30
0.0
  0
XRECORD
  5
356
102
{ACAD_REACTORS
330
340
102
}
330
340
100
AcDbXrecord
340
0
  0
XRECORD
  5
357
102
{ACAD_REACTORS
330
340
102
}
330
340
100
AcDbXrecord
 70
     0
  0
XRECORD
  5
34B
102
{ACAD_REACTORS
330
340
102
}
330
340
100
AcDbXrecord
  1
{FAEB1C32-E019-11D5-929B-00C0DF256EC4}
  0
DICTIONARYVAR
  5
365
102
{ACAD_REACTORS
330
360
102
}
330
360
100
DictionaryVariables
280
     0
  1
2
  0
DICTIONARYVAR
  5
366
102
{ACAD_REACTORS
330
360
102
}
330
360
100
DictionaryVariables
280
     0
  1
1
  0
DICTIONARYVAR
  5
364
102
{ACAD_REACTORS
330
360
102
}
330
360
100
DictionaryVariables
280
     0
  1
80.000000
  0
DICTIONARYVAR
  5
363
102
{ACAD_REACTORS
330
360
102
}
330
360
100
DictionaryVariables
280
     0
  1
5.000000
  0
DICTIONARY
  5
369
330
3D
100
AcDbDictionary
280
     1
  3
ACAD_XREC_ROUNDTRIP
360
36A
  0
DICTIONARY
  5
367
330
3C
100
AcDbDictionary
280
     1
  3
ACAD_XREC_ROUNDTRIP
360
368
  0
DICTIONARY
  5
36B
330
3E
100
AcDbDictionary
280
     1
  3
ACAD_XREC_ROUNDTRIP
360
36C
  0
XRECORD
  5
36A
102
{ACAD_REACTORS
330
369
102
}
330
369
100
AcDbXrecord
102
MATERIAL
148
0.0
149
0.0
149
0.0
 93
        0
 94
      127
282
     0
 72
     1
 77
     1
171
     1
175
     1
179
     1
273
     0
  0
XRECORD
  5
368
102
{ACAD_REACTORS
330
367
102
}
330
367
100
AcDbXrecord
102
MATERIAL
148
0.0
149
0.0
149
0.0
 93
        0
 94
      127
282
     0
 72
     1
 77
     1
171
     1
175
     1
179
     1
273
     0
  0
XRECORD
  5
36C
102
{ACAD_REACTORS
330
36B
102
}
330
36B
100
AcDbXrecord
102
MATERIAL
148
0.0
149
0.0
149
0.0
 93
        0
 94
      127
282
     0
 72
     1
 77
     1
171
     1
175
     1
179
     1
273
     0
  0
ENDSEC
  0
EOF
