  0
SECTION
  2
HEADER
  9
$ACADVER
  1
AC1014
  9
$ACADMAINTVER
 70
     9
  9
$DWGCODEPAGE
  3
ANSI_932
  9
$INSBASE
 10
0.0
 20
0.0
 30
0.0
  9
$EXTMIN
 10
20.00000000000007
 20
8.0
 30
0.0
  9
$EXTMAX
 10
276.4000000000001
 20
288.0
 30
0.0
  9
$LIMMIN
 10
0.0
 20
0.0
  9
$LIMMAX
 10
210.0
 20
297.0
  9
$ORTHOMODE
 70
     0
  9
$REGENMODE
 70
     1
  9
$FILLMODE
 70
     1
  9
$QTEXTMODE
 70
     0
  9
$MIRRTEXT
 70
     1
  9
$DRAGMODE
 70
     2
  9
$LTSCALE
 40
1.0
  9
$OSMODE
 70
    37
  9
$ATTMODE
 70
     1
  9
$TEXTSIZE
 40
2.5
  9
$TRACEWID
 40
1.0
  9
$TEXTSTYLE
  7
STANDARD
  9
$CLAYER
  8
図
  9
$CELTYPE
  6
BYLAYER
  9
$CECOLOR
 62
   256
  9
$CELTSCALE
 40
1.0
  9
$DELOBJ
 70
     1
  9
$DISPSILH
 70
     0
  9
$DIMSCALE
 40
1.0
  9
$DIMASZ
 40
2.5
  9
$DIMEXO
 40
0.625
  9
$DIMDLI
 40
3.75
  9
$DIMRND
 40
0.0
  9
$DIMDLE
 40
0.0
  9
$DIMEXE
 40
1.25
  9
$DIMTP
 40
0.0
  9
$DIMTM
 40
0.0
  9
$DIMTXT
 40
2.5
  9
$DIMCEN
 40
2.5
  9
$DIMTSZ
 40
0.0
  9
$DIMTOL
 70
     0
  9
$DIMLIM
 70
     0
  9
$DIMTIH
 70
     0
  9
$DIMTOH
 70
     0
  9
$DIMSE1
 70
     0
  9
$DIMSE2
 70
     0
  9
$DIMTAD
 70
     1
  9
$DIMZIN
 70
     8
  9
$DIMBLK
  1

  9
$DIMASO
 70
     1
  9
$DIMSHO
 70
     1
  9
$DIMPOST
  1

  9
$DIMAPOST
  1

  9
$DIMALT
 70
     0
  9
$DIMALTD
 70
     3
  9
$DIMALTF
 40
0.03937007874016
  9
$DIMLFAC
 40
1.0
  9
$DIMTOFL
 70
     1
  9
$DIMTVP
 40
0.0
  9
$DIMTIX
 70
     0
  9
$DIMSOXD
 70
     0
  9
$DIMSAH
 70
     0
  9
$DIMBLK1
  1

  9
$DIMBLK2
  1

  9
$DIMSTYLE
  2
ISO-25
  9
$DIMCLRD
 70
     0
  9
$DIMCLRE
 70
     0
  9
$DIMCLRT
 70
     0
  9
$DIMTFAC
 40
1.0
  9
$DIMGAP
 40
0.625
  9
$DIMJUST
 70
     0
  9
$DIMSD1
 70
     0
  9
$DIMSD2
 70
     0
  9
$DIMTOLJ
 70
     0
  9
$DIMTZIN
 70
     8
  9
$DIMALTZ
 70
     0
  9
$DIMALTTZ
 70
     0
  9
$DIMFIT
 70
     3
  9
$DIMUPT
 70
     0
  9
$DIMUNIT
 70
     2
  9
$DIMDEC
 70
     2
  9
$DIMTDEC
 70
     2
  9
$DIMALTU
 70
     2
  9
$DIMALTTD
 70
     3
  9
$DIMTXSTY
  7
STANDARD
  9
$DIMAUNIT
 70
     0
  9
$LUNITS
 70
     2
  9
$LUPREC
 70
     4
  9
$SKETCHINC
 40
1.0
  9
$FILLETRAD
 40
10.0
  9
$AUNITS
 70
     0
  9
$AUPREC
 70
     0
  9
$MENU
  1
.
  9
$ELEVATION
 40
0.0
  9
$PELEVATION
 40
0.0
  9
$THICKNESS
 40
0.0
  9
$LIMCHECK
 70
     0
  9
$CHAMFERA
 40
10.0
  9
$CHAMFERB
 40
10.0
  9
$CHAMFERC
 40
20.0
  9
$CHAMFERD
 40
0.0
  9
$SKPOLY
 70
     0
  9
$TDCREATE
 40
2460026.590042072
  9
$TDUPDATE
 40
2460026.590042176
  9
$TDINDWG
 40
0.0000000116
  9
$TDUSRTIMER
 40
0.0000000116
  9
$USRTIMER
 70
     1
  9
$ANGBASE
 50
0.0
  9
$ANGDIR
 70
     0
  9
$PDMODE
 70
     0
  9
$PDSIZE
 40
0.0
  9
$PLINEWID
 40
0.0
  9
$COORDS
 70
     1
  9
$SPLFRAME
 70
     0
  9
$SPLINETYPE
 70
     6
  9
$SPLINESEGS
 70
     8
  9
$ATTDIA
 70
     0
  9
$ATTREQ
 70
     1
  9
$HANDLING
 70
     1
  9
$HANDSEED
  5
203
  9
$SURFTAB1
 70
     6
  9
$SURFTAB2
 70
     6
  9
$SURFTYPE
 70
     6
  9
$SURFU
 70
     6
  9
$SURFV
 70
     6
  9
$UCSNAME
  2

  9
$UCSORG
 10
0.0
 20
0.0
 30
0.0
  9
$UCSXDIR
 10
1.0
 20
0.0
 30
0.0
  9
$UCSYDIR
 10
0.0
 20
1.0
 30
0.0
  9
$PUCSNAME
  2

  9
$PUCSORG
 10
0.0
 20
0.0
 30
0.0
  9
$PUCSXDIR
 10
1.0
 20
0.0
 30
0.0
  9
$PUCSYDIR
 10
0.0
 20
1.0
 30
0.0
  9
$USERI1
 70
     0
  9
$USERI2
 70
     0
  9
$USERI3
 70
     0
  9
$USERI4
 70
     0
  9
$USERI5
 70
     0
  9
$USERR1
 40
0.0
  9
$USERR2
 40
0.0
  9
$USERR3
 40
0.0
  9
$USERR4
 40
0.0
  9
$USERR5
 40
0.0
  9
$WORLDVIEW
 70
     1
  9
$SHADEDGE
 70
     3
  9
$SHADEDIF
 70
    70
  9
$TILEMODE
 70
     1
  9
$MAXACTVP
 70
    64
  9
$PINSBASE
 10
0.0
 20
0.0
 30
0.0
  9
$PLIMCHECK
 70
     0
  9
$PEXTMIN
 10
1.000000000000000E+20
 20
1.000000000000000E+20
 30
1.000000000000000E+20
  9
$PEXTMAX
 10
-1.000000000000000E+20
 20
-1.000000000000000E+20
 30
-1.000000000000000E+20
  9
$PLIMMIN
 10
0.0
 20
0.0
  9
$PLIMMAX
 10
420.0
 20
297.0
  9
$UNITMODE
 70
     0
  9
$VISRETAIN
 70
     1
  9
$PLINEGEN
 70
     0
  9
$PSLTSCALE
 70
     1
  9
$TREEDEPTH
 70
  3020
  9
$PICKSTYLE
 70
     1
  9
$CMLSTYLE
  2
STANDARD
  9
$CMLJUST
 70
     0
  9
$CMLSCALE
 40
20.0
  9
$PROXYGRAPHICS
 70
     1
  9
$MEASUREMENT
 70
     1
  0
ENDSEC
  0
SECTION
  2
CLASSES
  0
CLASS
  1
ACDBDICTIONARYWDFLT
  2
AcDbDictionaryWithDefault
  3
ObjectDBX Classes
 90
        0
280
     0
281
     0
  0
CLASS
  1
VISUALSTYLE
  2
AcDbVisualStyle
  3
ObjectDBX Classes
 90
     4095
280
     0
281
     0
  0
CLASS
  1
MATERIAL
  2
AcDbMaterial
  3
ObjectDBX Classes
 90
     1153
280
     0
281
     0
  0
CLASS
  1
SUN
  2
AcDbSun
  3
SCENEOE
 90
     1024
280
     0
281
     0
  0
CLASS
  1
DICTIONARYVAR
  2
AcDbDictionaryVar
  3
ObjectDBX Classes
 90
        0
280
     0
281
     0
  0
CLASS
  1
XRECORD
  2
AcDbXrecord
  3
AutoCAD 2000
 90
        0
280
     0
281
     0
  0
CLASS
  1
LWPOLYLINE
  2
AcDbPolyline
  3
AutoCAD 2000
 90
        0
280
     0
281
     1
  0
CLASS
  1
HATCH
  2
AcDbHatch
  3
AutoCAD 2000
 90
        0
280
     0
281
     1
  0
CLASS
  1
ACDBPLACEHOLDER
  2
AcDbPlaceHolder
  3
ObjectDBX Classes
 90
        0
280
     0
281
     0
  0
CLASS
  1
LAYOUT
  2
AcDbLayout
  3
ObjectDBX Classes
 90
        0
280
     0
281
     0
  0
ENDSEC
  0
SECTION
  2
TABLES
  0
TABLE
  2
VPORT
  5
8
330
0
100
AcDbSymbolTable
 70
     1
  0
VPORT
  5
29
330
8
100
AcDbSymbolTableRecord
100
AcDbViewportTableRecord
  2
*ACTIVE
 70
     0
 10
0.0
 20
0.0
 11
1.0
 21
1.0
 12
74.10000000000004
 22
74.0
 13
0.0
 23
0.0
 14
10.0
 24
10.0
 15
10.0
 25
10.0
 16
0.0
 26
0.0
 36
1.0
 17
0.0
 27
0.0
 37
0.0
 40
140.0
 41
0.9157142857142858
 42
50.0
 43
0.0
 44
0.0
 50
0.0
 51
0.0
 71
     0
 72
  1000
 73
     1
 74
     3
 75
     0
 76
     0
 77
     0
 78
     0
  0
ENDTAB
  0
TABLE
  2
LTYPE
  5
5
330
0
100
AcDbSymbolTable
 70
    11
  0
LTYPE
  5
14
330
5
100
AcDbSymbolTableRecord
100
AcDbLinetypeTableRecord
  2
BYBLOCK
 70
     0
  3

 72
    65
 73
     0
 40
0.0
  0
LTYPE
  5
15
330
5
100
AcDbSymbolTableRecord
100
AcDbLinetypeTableRecord
  2
BYLAYER
 70
     0
  3

 72
    65
 73
     0
 40
0.0
  0
LTYPE
  5
16
330
5
100
AcDbSymbolTableRecord
100
AcDbLinetypeTableRecord
  2
CONTINUOUS
 70
     0
  3
Solid line
 72
    65
 73
     0
 40
0.0
  0
LTYPE
  5
40
330
5
100
AcDbSymbolTableRecord
100
AcDbLinetypeTableRecord
  2
EXLTYPE1
 70
     0
  3
破線
 72
    65
 73
     2
 40
3.0
 49
2.0
 74
     0
 49
-1.0
 74
     0
  0
LTYPE
  5
41
330
5
100
AcDbSymbolTableRecord
100
AcDbLinetypeTableRecord
  2
EXLTYPE2
 70
     0
  3
点線
 72
    65
 73
     2
 40
2.0
 49
1.0
 74
     0
 49
-1.0
 74
     0
  0
LTYPE
  5
42
330
5
100
AcDbSymbolTableRecord
100
AcDbLinetypeTableRecord
  2
EXLTYPE3
 70
     0
  3
一点鎖線
 72
    65
 73
     4
 40
10.0
 49
7.0
 74
     0
 49
-1.0
 74
     0
 49
1.0
 74
     0
 49
-1.0
 74
     0
  0
LTYPE
  5
43
330
5
100
AcDbSymbolTableRecord
100
AcDbLinetypeTableRecord
  2
EXLTYPE4
 70
     0
  3
二点鎖線
 72
    65
 73
     6
 40
12.0
 49
7.0
 74
     0
 49
-1.0
 74
     0
 49
1.0
 74
     0
 49
-1.0
 74
     0
 49
1.0
 74
     0
 49
-1.0
 74
     0
  0
LTYPE
  5
44
330
5
100
AcDbSymbolTableRecord
100
AcDbLinetypeTableRecord
  2
EXLTYPE5
 70
     0
  3
三点鎖線
 72
    65
 73
     8
 40
37.0
 49
30.0
 74
     0
 49
-1.0
 74
     0
 49
1.0
 74
     0
 49
-1.0
 74
     0
 49
1.0
 74
     0
 49
-1.0
 74
     0
 49
1.0
 74
     0
 49
-1.0
 74
     0
  0
LTYPE
  5
45
330
5
100
AcDbSymbolTableRecord
100
AcDbLinetypeTableRecord
  2
EXLTYPE6
 70
     0
  3
四点鎖線
 72
    65
 73
    10
 40
39.0
 49
30.0
 74
     0
 49
-1.0
 74
     0
 49
1.0
 74
     0
 49
-1.0
 74
     0
 49
1.0
 74
     0
 49
-1.0
 74
     0
 49
1.0
 74
     0
 49
-1.0
 74
     0
 49
1.0
 74
     0
 49
-1.0
 74
     0
  0
LTYPE
  5
46
330
5
100
AcDbSymbolTableRecord
100
AcDbLinetypeTableRecord
  2
EXLTYPE7
 70
     0
  3
破線2
 72
    65
 73
     2
 40
3.0
 49
2.0
 74
     0
 49
-1.0
 74
     0
  0
LTYPE
  5
47
330
5
100
AcDbSymbolTableRecord
100
AcDbLinetypeTableRecord
  2
EXLTYPE8
 70
     0
  3
一点鎖線3
 72
    65
 73
     4
 40
28.575
 49
19.05
 74
     0
 49
-3.175
 74
     0
 49
3.175
 74
     0
 49
-3.175
 74
     0
  0
LTYPE
  5
48
330
5
100
AcDbSymbolTableRecord
100
AcDbLinetypeTableRecord
  2
EXLTYPE9
 70
     0
  3
一点鎖線2
 72
    65
 73
     4
 40
25.6
 49
20.0
 74
     0
 49
-2.0
 74
     0
 49
1.6
 74
     0
 49
-2.0
 74
     0
  0
LTYPE
  5
49
330
5
100
AcDbSymbolTableRecord
100
AcDbLinetypeTableRecord
  2
EXLTYPE10
 70
     0
  3
二点鎖線2
 72
    65
 73
     6
 40
31.2
 49
20.0
 74
     0
 49
-2.4
 74
     0
 49
2.0
 74
     0
 49
-2.4
 74
     0
 49
2.0
 74
     0
 49
-2.4
 74
     0
  0
ENDTAB
  0
TABLE
  2
LAYER
  5
2
330
0
100
AcDbSymbolTable
 70
     5
  0
LAYER
  5
10
330
2
100
AcDbSymbolTableRecord
100
AcDbLayerTableRecord
  2
0
 70
     0
 62
     7
  6
CONTINUOUS
  0
LAYER
  5
4C
330
2
100
AcDbSymbolTableRecord
100
AcDbLayerTableRecord
  2
LAY-1
 70
     0
 62
     7
  6
CONTINUOUS
  0
LAYER
  5
4D
330
2
100
AcDbSymbolTableRecord
100
AcDbLayerTableRecord
  2
図
 70
     0
 62
     7
  6
CONTINUOUS
  0
LAYER
  5
4E
330
2
100
AcDbSymbolTableRecord
100
AcDbLayerTableRecord
  2
寸法
 70
     0
 62
     7
  6
CONTINUOUS
  0
LAYER
  5
17B
330
2
100
AcDbSymbolTableRecord
100
AcDbLayerTableRecord
  2
DEFPOINTS
 70
     0
 62
     7
  6
CONTINUOUS
  0
ENDTAB
  0
TABLE
  2
STYLE
  5
3
330
0
100
AcDbSymbolTable
 70
     5
  0
STYLE
  5
11
330
3
100
AcDbSymbolTableRecord
100
AcDbTextStyleTableRecord
  2
STANDARD
 70
     0
 40
0.0
 41
1.0
 50
0.0
 71
     0
 42
2.5
  3
monotxt
  4
extfont
  0
STYLE
  5
4A
330
3
100
AcDbSymbolTableRecord
100
AcDbTextStyleTableRecord
  2
EXCADSTD
 70
     0
 40
0.0
 41
1.0
 50
0.0
 71
     0
 42
0.2
  3
monotxt
  4
extfont
  0
STYLE
  5
4B
330
3
100
AcDbSymbolTableRecord
100
AcDbTextStyleTableRecord
  2
EXCADVERT
 70
     4
 40
0.0
 41
1.0
 50
0.0
 71
     0
 42
0.286885
  3
monotxt
  4
extfont
  0
STYLE
  5
B1
330
3
100
AcDbSymbolTableRecord
100
AcDbTextStyleTableRecord
  2
EXCADTTF1
 70
     0
 40
0.0
 41
1.0
 50
0.0
 71
     0
 42
0.2
  3
MSGOTHIC.TTC
  4

1001
ACAD
1000
MS Gothic
1071
    32817
  0
STYLE
  5
179
330
3
100
AcDbSymbolTableRecord
100
AcDbTextStyleTableRecord
  2
EXCADDIM1
 70
     0
 40
0.0
 41
0.84
 50
0.0
 71
     0
 42
0.2
  3
monotxt
  4
extfont
  0
ENDTAB
  0
TABLE
  2
VIEW
  5
6
330
0
100
AcDbSymbolTable
 70
     0
  0
ENDTAB
  0
TABLE
  2
UCS
  5
7
330
0
100
AcDbSymbolTable
 70
     0
  0
ENDTAB
  0
TABLE
  2
APPID
  5
9
330
0
100
AcDbSymbolTable
 70
     1
  0
APPID
  5
12
330
9
100
AcDbSymbolTableRecord
100
AcDbRegAppTableRecord
  2
ACAD
 70
     0
  0
ENDTAB
  0
TABLE
  2
DIMSTYLE
  5
A
330
0
100
AcDbSymbolTable
 70
     1
  0
DIMSTYLE
105
27
102
{ACAD_REACTORS
330
17A
330
188
330
195
330
1A2
330
1AF
330
1BC
330
1C9
102
}
330
A
100
AcDbSymbolTableRecord
100
AcDbDimStyleTableRecord
  2
ISO-25
 70
     0
  3

  4

  5

  6

  7

 40
1.0
 41
2.5
 42
0.625
 43
3.75
 44
1.25
 45
0.0
 46
0.0
 47
0.0
 48
0.0
140
2.5
141
2.5
142
0.0
143
0.03937007874016
144
1.0
145
0.0
146
1.0
147
0.625
 71
     0
 72
     0
 73
     0
 74
     0
 75
     0
 76
     0
 77
     1
 78
     8
170
     0
171
     3
172
     1
173
     0
174
     0
175
     0
176
     0
177
     0
178
     0
270
     2
271
     2
272
     2
273
     2
274
     3
340
11
275
     0
280
     0
281
     0
282
     0
283
     0
284
     8
285
     0
286
     0
287
     5
288
     0
  0
ENDTAB
  0
TABLE
  2
BLOCK_RECORD
  5
1
330
0
100
AcDbSymbolTable
 70
    22
  0
BLOCK_RECORD
  5
1F
330
1
100
AcDbSymbolTableRecord
100
AcDbBlockTableRecord
  2
*MODEL_SPACE
  0
BLOCK_RECORD
  5
1B
330
1
100
AcDbSymbolTableRecord
100
AcDbBlockTableRecord
  2
*PAPER_SPACE
  0
BLOCK_RECORD
  5
4F
330
1
100
AcDbSymbolTableRecord
100
AcDbBlockTableRecord
  2
EX_NORM
  0
BLOCK_RECORD
  5
52
330
1
100
AcDbSymbolTableRecord
100
AcDbBlockTableRecord
  2
EX_BNORM
  0
BLOCK_RECORD
  5
55
330
1
100
AcDbSymbolTableRecord
100
AcDbBlockTableRecord
  2
EX_BCIR
  0
BLOCK_RECORD
  5
58
330
1
100
AcDbSymbolTableRecord
100
AcDbBlockTableRecord
  2
EX_RCIVIL
  0
BLOCK_RECORD
  5
5B
330
1
100
AcDbSymbolTableRecord
100
AcDbBlockTableRecord
  2
EX_SLANT
  0
BLOCK_RECORD
  5
5E
330
1
100
AcDbSymbolTableRecord
100
AcDbBlockTableRecord
  2
EX_NONE
  0
BLOCK_RECORD
  5
61
330
1
100
AcDbSymbolTableRecord
100
AcDbBlockTableRecord
  2
EX_CIVIL
  0
BLOCK_RECORD
  5
64
330
1
100
AcDbSymbolTableRecord
100
AcDbBlockTableRecord
  2
EX_WCIR
  0
BLOCK_RECORD
  5
67
330
1
100
AcDbSymbolTableRecord
100
AcDbBlockTableRecord
  2
EX_WCIR2
  0
BLOCK_RECORD
  5
6A
330
1
100
AcDbSymbolTableRecord
100
AcDbBlockTableRecord
  2
EX_WNORM
  0
BLOCK_RECORD
  5
6D
330
1
100
AcDbSymbolTableRecord
100
AcDbBlockTableRecord
  2
EX_NNORM
  0
BLOCK_RECORD
  5
70
330
1
100
AcDbSymbolTableRecord
100
AcDbBlockTableRecord
  2
EX_BBOX
  0
BLOCK_RECORD
  5
73
330
1
100
AcDbSymbolTableRecord
100
AcDbBlockTableRecord
  2
EX_WBOX
  0
BLOCK_RECORD
  5
76
330
1
100
AcDbSymbolTableRecord
100
AcDbBlockTableRecord
  2
EX_INTEGRAL
  0
BLOCK_RECORD
  5
17C
330
1
100
AcDbSymbolTableRecord
100
AcDbBlockTableRecord
  2
*D15
  0
BLOCK_RECORD
  5
189
330
1
100
AcDbSymbolTableRecord
100
AcDbBlockTableRecord
  2
*D16
  0
BLOCK_RECORD
  5
196
330
1
100
AcDbSymbolTableRecord
100
AcDbBlockTableRecord
  2
*D17
  0
BLOCK_RECORD
  5
1A3
330
1
100
AcDbSymbolTableRecord
100
AcDbBlockTableRecord
  2
*D18
  0
BLOCK_RECORD
  5
1B0
330
1
100
AcDbSymbolTableRecord
100
AcDbBlockTableRecord
  2
*D19
  0
BLOCK_RECORD
  5
1BD
330
1
100
AcDbSymbolTableRecord
100
AcDbBlockTableRecord
  2
*D20
  0
BLOCK_RECORD
  5
1CA
330
1
100
AcDbSymbolTableRecord
100
AcDbBlockTableRecord
  2
*D21
  0
ENDTAB
  0
ENDSEC
  0
SECTION
  2
BLOCKS
  0
BLOCK
  5
20
330
1F
100
AcDbEntity
  8
0
100
AcDbBlockBegin
  2
*MODEL_SPACE
 70
     0
 10
0.0
 20
0.0
 30
0.0
  3
*MODEL_SPACE
  1

  0
ENDBLK
  5
21
330
1F
100
AcDbEntity
  8
0
100
AcDbBlockEnd
  0
BLOCK
  5
1C
330
1B
100
AcDbEntity
 67
     1
  8
0
100
AcDbBlockBegin
  2
*PAPER_SPACE
 70
     0
 10
0.0
 20
0.0
 30
0.0
  3
*PAPER_SPACE
  1

  0
ENDBLK
  5
1D
330
1B
100
AcDbEntity
 67
     1
  8
0
100
AcDbBlockEnd
  0
BLOCK
  5
50
330
4F
100
AcDbEntity
  8
0
100
AcDbBlockBegin
  2
EX_NORM
 70
     0
 10
0.0
 20
0.0
 30
0.0
  3
EX_NORM
  1

  0
LINE
  5
79
330
4F
100
AcDbEntity
  8
0
  6
CONTINUOUS
 62
     0
100
AcDbLine
 10
0.0
 20
0.0
 30
0.0
 11
-1.0
 21
0.0
 31
0.0
  0
LINE
  5
7A
330
4F
100
AcDbEntity
  8
0
  6
CONTINUOUS
 62
     0
100
AcDbLine
 10
0.0
 20
0.0
 30
0.0
 11
-1.0
 21
0.166666667
 31
0.0
  0
LINE
  5
7B
330
4F
100
AcDbEntity
  8
0
  6
CONTINUOUS
 62
     0
100
AcDbLine
 10
0.0
 20
0.0
 30
0.0
 11
-1.0
 21
-0.166666667
 31
0.0
  0
ENDBLK
  5
51
330
4F
100
AcDbEntity
  8
0
100
AcDbBlockEnd
  0
BLOCK
  5
53
330
52
100
AcDbEntity
  8
0
100
AcDbBlockBegin
  2
EX_BNORM
 70
     0
 10
0.0
 20
0.0
 30
0.0
  3
EX_BNORM
  1

  0
LINE
  5
7C
330
52
100
AcDbEntity
  8
0
  6
CONTINUOUS
 62
     0
100
AcDbLine
 10
0.0
 20
0.0
 30
0.0
 11
-1.0
 21
0.0
 31
0.0
  0
LINE
  5
7D
330
52
100
AcDbEntity
  8
0
  6
CONTINUOUS
 62
     0
100
AcDbLine
 10
0.0
 20
0.0
 30
0.0
 11
-1.0
 21
0.166666667
 31
0.0
  0
LINE
  5
7E
330
52
100
AcDbEntity
  8
0
  6
CONTINUOUS
 62
     0
100
AcDbLine
 10
0.0
 20
0.0
 30
0.0
 11
-1.0
 21
-0.166666667
 31
0.0
  0
LINE
  5
7F
330
52
100
AcDbEntity
  8
0
  6
CONTINUOUS
 62
     0
100
AcDbLine
 10
0.0
 20
0.0
 30
0.0
 11
-1.0
 21
0.083333333
 31
0.0
  0
LINE
  5
80
330
52
100
AcDbEntity
  8
0
  6
CONTINUOUS
 62
     0
100
AcDbLine
 10
0.0
 20
0.0
 30
0.0
 11
-1.0
 21
-0.083333333
 31
0.0
  0
LINE
  5
81
330
52
100
AcDbEntity
  8
0
  6
CONTINUOUS
 62
     0
100
AcDbLine
 10
-1.0
 20
0.166666667
 30
0.0
 11
-1.0
 21
-0.166666667
 31
0.0
  0
ENDBLK
  5
54
330
52
100
AcDbEntity
  8
0
100
AcDbBlockEnd
  0
BLOCK
  5
56
330
55
100
AcDbEntity
  8
0
100
AcDbBlockBegin
  2
EX_BCIR
 70
     0
 10
0.0
 20
0.0
 30
0.0
  3
EX_BCIR
  1

  0
LINE
  5
82
330
55
100
AcDbEntity
  8
0
  6
CONTINUOUS
 62
     0
100
AcDbLine
 10
0.0
 20
0.0
 30
0.0
 11
-1.0
 21
0.0
 31
0.0
  0
CIRCLE
  5
83
330
55
100
AcDbEntity
  8
0
  6
CONTINUOUS
 62
     0
100
AcDbCircle
 10
0.0
 20
0.0
 30
0.0
 40
0.5
  0
CIRCLE
  5
84
330
55
100
AcDbEntity
  8
0
  6
CONTINUOUS
 62
     0
100
AcDbCircle
 10
0.0
 20
0.0
 30
0.0
 40
0.25
  0
ENDBLK
  5
57
330
55
100
AcDbEntity
  8
0
100
AcDbBlockEnd
  0
BLOCK
  5
59
330
58
100
AcDbEntity
  8
0
100
AcDbBlockBegin
  2
EX_RCIVIL
 70
     0
 10
0.0
 20
0.0
 30
0.0
  3
EX_RCIVIL
  1

  0
LINE
  5
85
330
58
100
AcDbEntity
  8
0
  6
CONTINUOUS
 62
     0
100
AcDbLine
 10
0.0
 20
0.0
 30
0.0
 11
-1.0
 21
0.0
 31
0.0
  0
LINE
  5
86
330
58
100
AcDbEntity
  8
0
  6
CONTINUOUS
 62
     0
100
AcDbLine
 10
-1.0
 20
-0.25
 30
0.0
 11
0.0
 21
-0.25
 31
0.0
  0
LINE
  5
87
330
58
100
AcDbEntity
  8
0
  6
CONTINUOUS
 62
     0
100
AcDbLine
 10
-1.0
 20
-0.125
 30
0.0
 11
0.0
 21
-0.125
 31
0.0
  0
ENDBLK
  5
5A
330
58
100
AcDbEntity
  8
0
100
AcDbBlockEnd
  0
BLOCK
  5
5C
330
5B
100
AcDbEntity
  8
0
100
AcDbBlockBegin
  2
EX_SLANT
 70
     0
 10
0.0
 20
0.0
 30
0.0
  3
EX_SLANT
  1

  0
LINE
  5
88
330
5B
100
AcDbEntity
  8
0
  6
CONTINUOUS
 62
     0
100
AcDbLine
 10
0.0
 20
0.0
 30
0.0
 11
-1.0
 21
0.0
 31
0.0
  0
LINE
  5
89
330
5B
100
AcDbEntity
  8
0
  6
CONTINUOUS
 62
     0
100
AcDbLine
 10
0.707106781
 20
0.707106781
 30
0.0
 11
-0.707106781
 21
-0.707106781
 31
0.0
  0
ENDBLK
  5
5D
330
5B
100
AcDbEntity
  8
0
100
AcDbBlockEnd
  0
BLOCK
  5
5F
330
5E
100
AcDbEntity
  8
0
100
AcDbBlockBegin
  2
EX_NONE
 70
     0
 10
0.0
 20
0.0
 30
0.0
  3
EX_NONE
  1

  0
LINE
  5
8A
330
5E
100
AcDbEntity
  8
0
  6
CONTINUOUS
 62
     0
100
AcDbLine
 10
0.0
 20
0.0
 30
0.0
 11
-1.0
 21
0.0
 31
0.0
  0
ENDBLK
  5
60
330
5E
100
AcDbEntity
  8
0
100
AcDbBlockEnd
  0
BLOCK
  5
62
330
61
100
AcDbEntity
  8
0
100
AcDbBlockBegin
  2
EX_CIVIL
 70
     0
 10
0.0
 20
0.0
 30
0.0
  3
EX_CIVIL
  1

  0
LINE
  5
8B
330
61
100
AcDbEntity
  8
0
  6
CONTINUOUS
 62
     0
100
AcDbLine
 10
0.0
 20
0.0
 30
0.0
 11
-1.0
 21
0.0
 31
0.0
  0
LINE
  5
8C
330
61
100
AcDbEntity
  8
0
  6
CONTINUOUS
 62
     0
100
AcDbLine
 10
-1.0
 20
0.25
 30
0.0
 11
0.0
 21
0.25
 31
0.0
  0
LINE
  5
8D
330
61
100
AcDbEntity
  8
0
  6
CONTINUOUS
 62
     0
100
AcDbLine
 10
-1.0
 20
0.125
 30
0.0
 11
0.0
 21
0.125
 31
0.0
  0
ENDBLK
  5
63
330
61
100
AcDbEntity
  8
0
100
AcDbBlockEnd
  0
BLOCK
  5
65
330
64
100
AcDbEntity
  8
0
100
AcDbBlockBegin
  2
EX_WCIR
 70
     0
 10
0.0
 20
0.0
 30
0.0
  3
EX_WCIR
  1

  0
LINE
  5
8E
330
64
100
AcDbEntity
  8
0
  6
CONTINUOUS
 62
     0
100
AcDbLine
 10
0.0
 20
0.0
 30
0.0
 11
-1.0
 21
0.0
 31
0.0
  0
CIRCLE
  5
8F
330
64
100
AcDbEntity
  8
0
  6
CONTINUOUS
 62
     0
100
AcDbCircle
 10
0.0
 20
0.0
 30
0.0
 40
0.5
  0
ENDBLK
  5
66
330
64
100
AcDbEntity
  8
0
100
AcDbBlockEnd
  0
BLOCK
  5
68
330
67
100
AcDbEntity
  8
0
100
AcDbBlockBegin
  2
EX_WCIR2
 70
     0
 10
0.0
 20
0.0
 30
0.0
  3
EX_WCIR2
  1

  0
LINE
  5
90
330
67
100
AcDbEntity
  8
0
  6
CONTINUOUS
 62
     0
100
AcDbLine
 10
-0.5
 20
0.0
 30
0.0
 11
-1.0
 21
0.0
 31
0.0
  0
CIRCLE
  5
91
330
67
100
AcDbEntity
  8
0
  6
CONTINUOUS
 62
     0
100
AcDbCircle
 10
0.0
 20
0.0
 30
0.0
 40
0.5
  0
ENDBLK
  5
69
330
67
100
AcDbEntity
  8
0
100
AcDbBlockEnd
  0
BLOCK
  5
6B
330
6A
100
AcDbEntity
  8
0
100
AcDbBlockBegin
  2
EX_WNORM
 70
     0
 10
0.0
 20
0.0
 30
0.0
  3
EX_WNORM
  1

  0
LINE
  5
92
330
6A
100
AcDbEntity
  8
0
  6
CONTINUOUS
 62
     0
100
AcDbLine
 10
-1.0
 20
0.0
 30
0.0
 11
-1.0
 21
0.0
 31
0.0
  0
LINE
  5
93
330
6A
100
AcDbEntity
  8
0
  6
CONTINUOUS
 62
     0
100
AcDbLine
 10
0.0
 20
0.0
 30
0.0
 11
-1.0
 21
0.166666667
 31
0.0
  0
LINE
  5
94
330
6A
100
AcDbEntity
  8
0
  6
CONTINUOUS
 62
     0
100
AcDbLine
 10
0.0
 20
0.0
 30
0.0
 11
-1.0
 21
-0.166666667
 31
0.0
  0
LINE
  5
95
330
6A
100
AcDbEntity
  8
0
  6
CONTINUOUS
 62
     0
100
AcDbLine
 10
-1.0
 20
0.166666667
 30
0.0
 11
-1.0
 21
-0.166666667
 31
0.0
  0
ENDBLK
  5
6C
330
6A
100
AcDbEntity
  8
0
100
AcDbBlockEnd
  0
BLOCK
  5
6E
330
6D
100
AcDbEntity
  8
0
100
AcDbBlockBegin
  2
EX_NNORM
 70
     0
 10
0.0
 20
0.0
 30
0.0
  3
EX_NNORM
  1

  0
LINE
  5
96
330
6D
100
AcDbEntity
  8
0
  6
CONTINUOUS
 62
     0
100
AcDbLine
 10
0.0
 20
0.0
 30
0.0
 11
-1.0
 21
0.0
 31
0.0
  0
LINE
  5
97
330
6D
100
AcDbEntity
  8
0
  6
CONTINUOUS
 62
     0
100
AcDbLine
 10
0.0
 20
0.0
 30
0.0
 11
-1.0
 21
0.166666667
 31
0.0
  0
LINE
  5
98
330
6D
100
AcDbEntity
  8
0
  6
CONTINUOUS
 62
     0
100
AcDbLine
 10
0.0
 20
0.0
 30
0.0
 11
-1.0
 21
-0.166666667
 31
0.0
  0
LINE
  5
99
330
6D
100
AcDbEntity
  8
0
  6
CONTINUOUS
 62
     0
100
AcDbLine
 10
-1.0
 20
0.166666667
 30
0.0
 11
-1.0
 21
-0.166666667
 31
0.0
  0
ENDBLK
  5
6F
330
6D
100
AcDbEntity
  8
0
100
AcDbBlockEnd
  0
BLOCK
  5
71
330
70
100
AcDbEntity
  8
0
100
AcDbBlockBegin
  2
EX_BBOX
 70
     0
 10
0.0
 20
0.0
 30
0.0
  3
EX_BBOX
  1

  0
LINE
  5
9A
330
70
100
AcDbEntity
  8
0
  6
CONTINUOUS
 62
     0
100
AcDbLine
 10
0.0
 20
0.0
 30
0.0
 11
-1.0
 21
0.0
 31
0.0
  0
LINE
  5
9B
330
70
100
AcDbEntity
  8
0
  6
CONTINUOUS
 62
     0
100
AcDbLine
 10
-0.5
 20
0.5
 30
0.0
 11
0.5
 21
0.5
 31
0.0
  0
LINE
  5
9C
330
70
100
AcDbEntity
  8
0
  6
CONTINUOUS
 62
     0
100
AcDbLine
 10
0.5
 20
0.5
 30
0.0
 11
0.5
 21
-0.5
 31
0.0
  0
LINE
  5
9D
330
70
100
AcDbEntity
  8
0
  6
CONTINUOUS
 62
     0
100
AcDbLine
 10
0.5
 20
-0.5
 30
0.0
 11
-0.5
 21
-0.5
 31
0.0
  0
LINE
  5
9E
330
70
100
AcDbEntity
  8
0
  6
CONTINUOUS
 62
     0
100
AcDbLine
 10
-0.5
 20
-0.5
 30
0.0
 11
-0.5
 21
0.5
 31
0.0
  0
LINE
  5
9F
330
70
100
AcDbEntity
  8
0
  6
CONTINUOUS
 62
     0
100
AcDbLine
 10
-0.25
 20
0.25
 30
0.0
 11
0.25
 21
0.25
 31
0.0
  0
LINE
  5
A0
330
70
100
AcDbEntity
  8
0
  6
CONTINUOUS
 62
     0
100
AcDbLine
 10
0.25
 20
0.25
 30
0.0
 11
0.25
 21
-0.25
 31
0.0
  0
LINE
  5
A1
330
70
100
AcDbEntity
  8
0
  6
CONTINUOUS
 62
     0
100
AcDbLine
 10
0.25
 20
-0.25
 30
0.0
 11
-0.25
 21
-0.25
 31
0.0
  0
LINE
  5
A2
330
70
100
AcDbEntity
  8
0
  6
CONTINUOUS
 62
     0
100
AcDbLine
 10
-0.25
 20
-0.25
 30
0.0
 11
-0.25
 21
0.25
 31
0.0
  0
ENDBLK
  5
72
330
70
100
AcDbEntity
  8
0
100
AcDbBlockEnd
  0
BLOCK
  5
74
330
73
100
AcDbEntity
  8
0
100
AcDbBlockBegin
  2
EX_WBOX
 70
     0
 10
0.0
 20
0.0
 30
0.0
  3
EX_WBOX
  1

  0
LINE
  5
A3
330
73
100
AcDbEntity
  8
0
  6
CONTINUOUS
 62
     0
100
AcDbLine
 10
-0.5
 20
0.0
 30
0.0
 11
-1.0
 21
0.0
 31
0.0
  0
LINE
  5
A4
330
73
100
AcDbEntity
  8
0
  6
CONTINUOUS
 62
     0
100
AcDbLine
 10
-0.5
 20
0.5
 30
0.0
 11
0.5
 21
0.5
 31
0.0
  0
LINE
  5
A5
330
73
100
AcDbEntity
  8
0
  6
CONTINUOUS
 62
     0
100
AcDbLine
 10
0.5
 20
0.5
 30
0.0
 11
0.5
 21
-0.5
 31
0.0
  0
LINE
  5
A6
330
73
100
AcDbEntity
  8
0
  6
CONTINUOUS
 62
     0
100
AcDbLine
 10
0.5
 20
-0.5
 30
0.0
 11
-0.5
 21
-0.5
 31
0.0
  0
LINE
  5
A7
330
73
100
AcDbEntity
  8
0
  6
CONTINUOUS
 62
     0
100
AcDbLine
 10
-0.5
 20
-0.5
 30
0.0
 11
-0.5
 21
0.5
 31
0.0
  0
ENDBLK
  5
75
330
73
100
AcDbEntity
  8
0
100
AcDbBlockEnd
  0
BLOCK
  5
77
330
76
100
AcDbEntity
  8
0
100
AcDbBlockBegin
  2
EX_INTEGRAL
 70
     0
 10
0.0
 20
0.0
 30
0.0
  3
EX_INTEGRAL
  1

  0
LINE
  5
A8
330
76
100
AcDbEntity
  8
0
  6
CONTINUOUS
 62
     0
100
AcDbLine
 10
0.0
 20
0.0
 30
0.0
 11
-1.0
 21
0.0
 31
0.0
  0
ARC
  5
A9
330
76
100
AcDbEntity
  8
0
  6
CONTINUOUS
 62
     0
100
AcDbCircle
 10
0.542115
 20
0.164992
 30
0.0
 40
0.56667
100
AcDbArc
 50
73.07249033629006
 51
196.9275130221199
  0
ARC
  5
AA
330
76
100
AcDbEntity
  8
0
  6
CONTINUOUS
 62
     0
100
AcDbCircle
 10
-0.542115
 20
-0.164992
 30
0.0
 40
0.56667
100
AcDbArc
 50
253.0724869220464
 51
16.9275130559125
  0
ENDBLK
  5
78
330
76
100
AcDbEntity
  8
0
100
AcDbBlockEnd
  0
BLOCK
  5
17D
330
17C
100
AcDbEntity
  8
0
100
AcDbBlockBegin
  2
*D15
 70
     1
 10
0.0
 20
0.0
 30
0.0
  3
*D15
  1

  0
LINE
  5
17F
330
17C
100
AcDbEntity
  8
寸法
  6
CONTINUOUS
 62
     3
100
AcDbLine
 10
39.05
 20
81.39999999403953
 30
0.0
 11
39.05
 21
89.55
 31
0.0
  0
LINE
  5
180
330
17C
100
AcDbEntity
  8
寸法
  6
CONTINUOUS
 62
     3
100
AcDbLine
 10
72.05
 20
81.39999999403953
 30
0.0
 11
72.05
 21
89.55
 31
0.0
  0
LINE
  5
181
330
17C
100
AcDbEntity
  8
寸法
  6
CONTINUOUS
 62
     3
100
AcDbLine
 10
40.55
 20
89.05
 30
0.0
 11
70.55
 21
89.05
 31
0.0
  0
INSERT
  5
182
330
17C
100
AcDbEntity
  8
寸法
 62
     3
100
AcDbBlockReference
  2
EX_NORM
 10
39.05
 20
89.05
 30
0.0
 41
1.5
 42
1.5
 43
1.5
 50
180.0
  0
INSERT
  5
183
330
17C
100
AcDbEntity
  8
寸法
 62
     3
100
AcDbBlockReference
  2
EX_NORM
 10
72.05
 20
89.05
 30
0.0
 41
1.5
 42
1.5
 43
1.5
  0
MTEXT
  5
184
330
17C
100
AcDbEntity
  8
寸法
 62
     2
100
AcDbMText
 10
55.55
 20
90.22499999701976
 30
0.0
 40
2.0
 41
0.0
 71
     5
 72
     1
  1
%%c33
  7
EXCADDIM1
  0
POINT
  5
185
330
17C
100
AcDbEntity
  8
DEFPOINTS
 62
     0
100
AcDbPoint
 10
39.05
 20
81.05
 30
0.0
  0
POINT
  5
186
330
17C
100
AcDbEntity
  8
DEFPOINTS
 62
     0
100
AcDbPoint
 10
72.05
 20
81.05
 30
0.0
  0
POINT
  5
187
330
17C
100
AcDbEntity
  8
DEFPOINTS
 62
     0
100
AcDbPoint
 10
72.05
 20
89.05
 30
0.0
  0
ENDBLK
  5
17E
330
17C
100
AcDbEntity
  8
0
100
AcDbBlockEnd
  0
BLOCK
  5
18A
330
189
100
AcDbEntity
  8
0
100
AcDbBlockBegin
  2
*D16
 70
     1
 10
0.0
 20
0.0
 30
0.0
  3
*D16
  1

  0
LINE
  5
18C
330
189
100
AcDbEntity
  8
寸法
  6
CONTINUOUS
 62
     3
100
AcDbLine
 10
32.95
 20
82.89999999403953
 30
0.0
 11
32.95
 21
92.55
 31
0.0
  0
LINE
  5
18D
330
189
100
AcDbEntity
  8
寸法
  6
CONTINUOUS
 62
     3
100
AcDbLine
 10
78.15
 20
82.89999999403953
 30
0.0
 11
78.15
 21
92.55
 31
0.0
  0
LINE
  5
18E
330
189
100
AcDbEntity
  8
寸法
  6
CONTINUOUS
 62
     3
100
AcDbLine
 10
34.45
 20
92.05
 30
0.0
 11
76.65
 21
92.05
 31
0.0
  0
INSERT
  5
18F
330
189
100
AcDbEntity
  8
寸法
 62
     3
100
AcDbBlockReference
  2
EX_NORM
 10
32.95
 20
92.05
 30
0.0
 41
1.5
 42
1.5
 43
1.5
 50
180.0
  0
INSERT
  5
190
330
189
100
AcDbEntity
  8
寸法
 62
     3
100
AcDbBlockReference
  2
EX_NORM
 10
78.15
 20
92.05
 30
0.0
 41
1.5
 42
1.5
 43
1.5
  0
MTEXT
  5
191
330
189
100
AcDbEntity
  8
寸法
 62
     2
100
AcDbMText
 10
55.55000000000001
 20
93.22499999701976
 30
0.0
 40
2.0
 41
0.0
 71
     5
 72
     1
  1
%%c45.2
  7
EXCADDIM1
  0
POINT
  5
192
330
189
100
AcDbEntity
  8
DEFPOINTS
 62
     0
100
AcDbPoint
 10
32.95
 20
82.55
 30
0.0
  0
POINT
  5
193
330
189
100
AcDbEntity
  8
DEFPOINTS
 62
     0
100
AcDbPoint
 10
78.15
 20
82.55
 30
0.0
  0
POINT
  5
194
330
189
100
AcDbEntity
  8
DEFPOINTS
 62
     0
100
AcDbPoint
 10
78.15
 20
92.05
 30
0.0
  0
ENDBLK
  5
18B
330
189
100
AcDbEntity
  8
0
100
AcDbBlockEnd
  0
BLOCK
  5
197
330
196
100
AcDbEntity
  8
0
100
AcDbBlockBegin
  2
*D17
 70
     1
 10
0.0
 20
0.0
 30
0.0
  3
*D17
  1

  0
LINE
  5
199
330
196
100
AcDbEntity
  8
寸法
  6
CONTINUOUS
 62
     3
100
AcDbLine
 10
31.55
 20
82.89999999403953
 30
0.0
 11
31.55
 21
95.55
 31
0.0
  0
LINE
  5
19A
330
196
100
AcDbEntity
  8
寸法
  6
CONTINUOUS
 62
     3
100
AcDbLine
 10
79.55
 20
82.89999999403953
 30
0.0
 11
79.55
 21
95.55
 31
0.0
  0
LINE
  5
19B
330
196
100
AcDbEntity
  8
寸法
  6
CONTINUOUS
 62
     3
100
AcDbLine
 10
33.05
 20
95.05
 30
0.0
 11
78.05
 21
95.05
 31
0.0
  0
INSERT
  5
19C
330
196
100
AcDbEntity
  8
寸法
 62
     3
100
AcDbBlockReference
  2
EX_NORM
 10
31.55
 20
95.05
 30
0.0
 41
1.5
 42
1.5
 43
1.5
 50
180.0
  0
INSERT
  5
19D
330
196
100
AcDbEntity
  8
寸法
 62
     3
100
AcDbBlockReference
  2
EX_NORM
 10
79.55
 20
95.05
 30
0.0
 41
1.5
 42
1.5
 43
1.5
  0
MTEXT
  5
19E
330
196
100
AcDbEntity
  8
寸法
 62
     2
100
AcDbMText
 10
55.55
 20
96.22499999701976
 30
0.0
 40
2.0
 41
0.0
 71
     5
 72
     1
  1
%%c48
  7
EXCADDIM1
  0
POINT
  5
19F
330
196
100
AcDbEntity
  8
DEFPOINTS
 62
     0
100
AcDbPoint
 10
31.55
 20
82.55
 30
0.0
  0
POINT
  5
1A0
330
196
100
AcDbEntity
  8
DEFPOINTS
 62
     0
100
AcDbPoint
 10
79.55
 20
82.55
 30
0.0
  0
POINT
  5
1A1
330
196
100
AcDbEntity
  8
DEFPOINTS
 62
     0
100
AcDbPoint
 10
79.55
 20
95.05
 30
0.0
  0
ENDBLK
  5
198
330
196
100
AcDbEntity
  8
0
100
AcDbBlockEnd
  0
BLOCK
  5
1A4
330
1A3
100
AcDbEntity
  8
0
100
AcDbBlockBegin
  2
*D18
 70
     1
 10
0.0
 20
0.0
 30
0.0
  3
*D18
  1

  0
LINE
  5
1A6
330
1A3
100
AcDbEntity
  8
寸法
  6
CONTINUOUS
 62
     3
100
AcDbLine
 10
38.05
 20
74.70000000596046
 30
0.0
 11
38.05
 21
67.55
 31
0.0
  0
LINE
  5
1A7
330
1A3
100
AcDbEntity
  8
寸法
  6
CONTINUOUS
 62
     3
100
AcDbLine
 10
73.05
 20
74.70000000596046
 30
0.0
 11
73.05
 21
67.55
 31
0.0
  0
LINE
  5
1A8
330
1A3
100
AcDbEntity
  8
寸法
  6
CONTINUOUS
 62
     3
100
AcDbLine
 10
39.55
 20
68.05
 30
0.0
 11
71.55
 21
68.05
 31
0.0
  0
INSERT
  5
1A9
330
1A3
100
AcDbEntity
  8
寸法
 62
     3
100
AcDbBlockReference
  2
EX_NORM
 10
38.05
 20
68.05
 30
0.0
 41
1.5
 42
1.5
 43
1.5
 50
180.0
  0
INSERT
  5
1AA
330
1A3
100
AcDbEntity
  8
寸法
 62
     3
100
AcDbBlockReference
  2
EX_NORM
 10
73.05
 20
68.05
 30
0.0
 41
1.5
 42
1.5
 43
1.5
  0
MTEXT
  5
1AB
330
1A3
100
AcDbEntity
  8
寸法
 62
     2
100
AcDbMText
 10
55.55
 20
69.22499999701976
 30
0.0
 40
2.0
 41
0.0
 71
     5
 72
     1
  1
%%c35
  7
EXCADDIM1
  0
POINT
  5
1AC
330
1A3
100
AcDbEntity
  8
DEFPOINTS
 62
     0
100
AcDbPoint
 10
38.05
 20
75.05
 30
0.0
  0
POINT
  5
1AD
330
1A3
100
AcDbEntity
  8
DEFPOINTS
 62
     0
100
AcDbPoint
 10
73.05
 20
75.05
 30
0.0
  0
POINT
  5
1AE
330
1A3
100
AcDbEntity
  8
DEFPOINTS
 62
     0
100
AcDbPoint
 10
73.05
 20
68.05
 30
0.0
  0
ENDBLK
  5
1A5
330
1A3
100
AcDbEntity
  8
0
100
AcDbBlockEnd
  0
BLOCK
  5
1B1
330
1B0
100
AcDbEntity
  8
0
100
AcDbBlockBegin
  2
*D19
 70
     1
 10
0.0
 20
0.0
 30
0.0
  3
*D19
  1

  0
LINE
  5
1B3
330
1B0
100
AcDbEntity
  8
寸法
  6
CONTINUOUS
 62
     3
100
AcDbLine
 10
31.20000000596047
 20
82.55
 30
0.0
 11
25.04999999999999
 21
82.55
 31
0.0
  0
LINE
  5
1B4
330
1B0
100
AcDbEntity
  8
寸法
  6
CONTINUOUS
 62
     3
100
AcDbLine
 10
31.20000000596047
 20
78.05
 30
0.0
 11
25.04999999999999
 21
78.05
 31
0.0
  0
LINE
  5
1B5
330
1B0
100
AcDbEntity
  8
寸法
  6
CONTINUOUS
 62
     3
100
AcDbLine
 10
25.55
 20
81.05
 30
0.0
 11
25.55
 21
79.55
 31
0.0
  0
INSERT
  5
1B6
330
1B0
100
AcDbEntity
  8
寸法
 62
     3
100
AcDbBlockReference
  2
EX_NORM
 10
25.55
 20
82.55
 30
0.0
 41
1.5
 42
1.5
 43
1.5
 50
90.0
  0
INSERT
  5
1B7
330
1B0
100
AcDbEntity
  8
寸法
 62
     3
100
AcDbBlockReference
  2
EX_NORM
 10
25.55
 20
78.05
 30
0.0
 41
1.5
 42
1.5
 43
1.5
 50
270.0
  0
MTEXT
  5
1B8
330
1B0
100
AcDbEntity
  8
寸法
 62
     2
100
AcDbMText
 10
24.37500000298024
 20
80.3
 30
0.0
 40
2.0
 41
0.0
 71
     5
 72
     1
  1
4.5
  7
EXCADDIM1
 11
0.0
 21
1.0
 31
0.0
  0
POINT
  5
1B9
330
1B0
100
AcDbEntity
  8
DEFPOINTS
 62
     0
100
AcDbPoint
 10
31.55
 20
82.55
 30
0.0
  0
POINT
  5
1BA
330
1B0
100
AcDbEntity
  8
DEFPOINTS
 62
     0
100
AcDbPoint
 10
31.55
 20
78.05
 30
0.0
  0
POINT
  5
1BB
330
1B0
100
AcDbEntity
  8
DEFPOINTS
 62
     0
100
AcDbPoint
 10
25.55
 20
78.05
 30
0.0
  0
ENDBLK
  5
1B2
330
1B0
100
AcDbEntity
  8
0
100
AcDbBlockEnd
  0
BLOCK
  5
1BE
330
1BD
100
AcDbEntity
  8
0
100
AcDbBlockBegin
  2
*D20
 70
     1
 10
0.0
 20
0.0
 30
0.0
  3
*D20
  1

  0
LINE
  5
1C0
330
1BD
100
AcDbEntity
  8
寸法
  6
CONTINUOUS
 62
     3
100
AcDbLine
 10
31.20000000596047
 20
78.05
 30
0.0
 11
28.05
 21
78.05
 31
0.0
  0
LINE
  5
1C1
330
1BD
100
AcDbEntity
  8
寸法
  6
CONTINUOUS
 62
     3
100
AcDbLine
 10
32.60000000596047
 20
81.05
 30
0.0
 11
28.05
 21
81.05
 31
0.0
  0
LINE
  5
1C2
330
1BD
100
AcDbEntity
  8
寸法
  6
CONTINUOUS
 62
     3
100
AcDbLine
 10
28.55
 20
79.3
 30
0.0
 11
28.55
 21
79.8
 31
0.0
  0
INSERT
  5
1C3
330
1BD
100
AcDbEntity
  8
寸法
 62
     3
100
AcDbBlockReference
  2
EX_NORM
 10
28.55
 20
78.05
 30
0.0
 41
1.25
 42
1.25
 43
1.25
 50
270.0
  0
INSERT
  5
1C4
330
1BD
100
AcDbEntity
  8
寸法
 62
     3
100
AcDbBlockReference
  2
EX_NORM
 10
28.55
 20
81.05
 30
0.0
 41
1.25
 42
1.25
 43
1.25
 50
90.0
  0
MTEXT
  5
1C5
330
1BD
100
AcDbEntity
  8
寸法
 62
     2
100
AcDbMText
 10
27.37500000298025
 20
79.54999999999998
 30
0.0
 40
2.0
 41
0.0
 71
     5
 72
     1
  1
3
  7
EXCADDIM1
 11
0.0
 21
1.0
 31
0.0
  0
POINT
  5
1C6
330
1BD
100
AcDbEntity
  8
DEFPOINTS
 62
     0
100
AcDbPoint
 10
31.55
 20
78.05
 30
0.0
  0
POINT
  5
1C7
330
1BD
100
AcDbEntity
  8
DEFPOINTS
 62
     0
100
AcDbPoint
 10
32.95
 20
81.05
 30
0.0
  0
POINT
  5
1C8
330
1BD
100
AcDbEntity
  8
DEFPOINTS
 62
     0
100
AcDbPoint
 10
28.55
 20
81.05
 30
0.0
  0
ENDBLK
  5
1BF
330
1BD
100
AcDbEntity
  8
0
100
AcDbBlockEnd
  0
BLOCK
  5
1CB
330
1CA
100
AcDbEntity
  8
0
100
AcDbBlockBegin
  2
*D21
 70
     1
 10
0.0
 20
0.0
 30
0.0
  3
*D21
  1

  0
LINE
  5
1CD
330
1CA
100
AcDbEntity
  8
寸法
  6
CONTINUOUS
 62
     3
100
AcDbLine
 10
79.89999999403953
 20
82.55
 30
0.0
 11
85.04999999999998
 21
82.55
 31
0.0
  0
LINE
  5
1CE
330
1CA
100
AcDbEntity
  8
寸法
  6
CONTINUOUS
 62
     3
100
AcDbLine
 10
73.39999999403953
 20
75.05
 30
0.0
 11
85.04999999999998
 21
75.05
 31
0.0
  0
LINE
  5
1CF
330
1CA
100
AcDbEntity
  8
寸法
  6
CONTINUOUS
 62
     3
100
AcDbLine
 10
84.55
 20
81.05
 30
0.0
 11
84.55
 21
76.55
 31
0.0
  0
INSERT
  5
1D0
330
1CA
100
AcDbEntity
  8
寸法
 62
     3
100
AcDbBlockReference
  2
EX_NORM
 10
84.55
 20
82.55
 30
0.0
 41
1.5
 42
1.5
 43
1.5
 50
90.0
  0
INSERT
  5
1D1
330
1CA
100
AcDbEntity
  8
寸法
 62
     3
100
AcDbBlockReference
  2
EX_NORM
 10
84.55
 20
75.05
 30
0.0
 41
1.5
 42
1.5
 43
1.5
 50
270.0
  0
MTEXT
  5
1D2
330
1CA
100
AcDbEntity
  8
寸法
 62
     2
100
AcDbMText
 10
83.37500000298023
 20
78.8
 30
0.0
 40
2.0
 41
0.0
 71
     5
 72
     1
  1
7.5
  7
EXCADDIM1
 11
0.0
 21
1.0
 31
0.0
  0
POINT
  5
1D3
330
1CA
100
AcDbEntity
  8
DEFPOINTS
 62
     0
100
AcDbPoint
 10
79.55
 20
82.55
 30
0.0
  0
POINT
  5
1D4
330
1CA
100
AcDbEntity
  8
DEFPOINTS
 62
     0
100
AcDbPoint
 10
73.05
 20
75.05
 30
0.0
  0
POINT
  5
1D5
330
1CA
100
AcDbEntity
  8
DEFPOINTS
 62
     0
100
AcDbPoint
 10
84.55
 20
75.05
 30
0.0
  0
ENDBLK
  5
1CC
330
1CA
100
AcDbEntity
  8
0
100
AcDbBlockEnd
  0
ENDSEC
  0
SECTION
  2
ENTITIES
  0
CIRCLE
  5
AB
330
1F
100
AcDbEntity
  8
LAY-1
  6
CONTINUOUS
 62
     3
100
AcDbCircle
 10
79.5
 20
65.3
 30
0.0
 40
1.75
  0
TEXT
  5
AC
330
1F
100
AcDbEntity
  8
LAY-1
  6
CONTINUOUS
 62
     2
100
AcDbText
 10
78.96256310939789
 20
64.06256310939789
 30
0.0
 40
2.474873781204224
  1
1
 41
1.240909090909089
  7
EXCADSTD
 72
     5
 11
80.57123106718063
 21
64.06256310939789
 31
0.0
100
AcDbText
  0
LEADER
  5
AD
330
1F
100
AcDbEntity
  8
LAY-1
  6
CONTINUOUS
 62
     3
100
AcDbLeader
  3
ISO-25
 76
     2
 10
73.05
 20
75.05
 30
0.0
 10
78.53446257848402
 20
66.75953331159391
 30
0.0
1001
ACAD
1000
DSTYLE
1002
{
1070
     5
1000
EX_NORM
1070
    41
1040
1.5
1070
   341
1005
4F
1002
}
  0
CIRCLE
  5
AE
330
1F
100
AcDbEntity
  8
LAY-1
  6
CONTINUOUS
 62
     3
100
AcDbCircle
 10
86.15
 20
65.45
 30
0.0
 40
1.75
  0
TEXT
  5
AF
330
1F
100
AcDbEntity
  8
LAY-1
  6
CONTINUOUS
 62
     2
100
AcDbText
 10
85.6125631093979
 20
64.21256310939789
 30
0.0
 40
2.474873781204224
  1
2
 41
0.8029411764705868
  7
EXCADSTD
 72
     5
 11
87.22123106718064
 21
64.21256310939789
 31
0.0
100
AcDbText
  0
LEADER
  5
B0
330
1F
100
AcDbEntity
  8
LAY-1
  6
CONTINUOUS
 62
     3
100
AcDbLeader
  3
ISO-25
 76
     2
 10
79.05
 20
76.05
 30
0.0
 10
85.17611154912338
 20
66.90397430694257
 30
0.0
1001
ACAD
1000
DSTYLE
1002
{
1070
     5
1000
EX_NORM
1070
    41
1040
1.5
1070
   341
1005
4F
1002
}
  0
TEXT
  5
B2
330
1F
100
AcDbEntity
  8
LAY-1
  6
CONTINUOUS
 62
     2
100
AcDbText
 10
47.10000000000017
 20
5.275000000000006
 30
0.0
 40
1.6875
  1
ジャニス工業株式会社
 41
1.025641025641025
  7
EXCADTTF1
 72
     5
 11
69.60000000000016
 21
5.275000000000006
 31
0.0
100
AcDbText
  0
HATCH
  5
B3
330
1F
100
AcDbEntity
  8
LAY-1
  6
CONTINUOUS
 62
     3
100
AcDbHatch
 10
0.0
 20
0.0
 30
0.0
210
0.0
220
0.0
230
1.0
  2
SOLID
 70
     1
 71
     1
 91
        2
 92
        3
 72
     1
 73
     1
 93
       27
 10
40.95863828666254
 20
7.018224664877036
 42
-0.1769427732109284
 10
40.95863828666254
 20
7.018224664877039
 42
0.0
 10
40.95863828666254
 20
6.835974664877028
 42
0.0
 10
41.00251328666257
 20
6.835974664877011
 42
-0.207533601427307
 10
41.28737113947853
 20
7.049661795645228
 42
-0.1226604740888933
 10
41.53913828666256
 20
7.055012164877027
 42
-0.3213715781137954
 10
41.79941640111048
 20
6.735532571892367
 42
-0.064704004662446
 10
41.80070078666249
 20
6.566649664877017
 42
-0.257798906330806
 10
41.74771328666255
 20
6.502524664877019
 42
-0.056602577721096
 10
41.63431328666253
 20
6.463037164877036
 42
-0.0166741689362636
 10
41.21851328666254
 20
6.384062164877025
 42
0.1186092302783404
 10
40.94412578666255
 20
6.252437164877022
 42
0.1699204224386695
 10
40.82465078666253
 20
6.052637164877017
 42
0.1006533494296199
 10
40.8136043339791
 20
5.879267775478626
 42
0.1675695228968024
 10
40.92185078666255
 20
5.646962164877023
 42
0.1376980079804242
 10
41.11861328666252
 20
5.533224664877034
 42
0.0719813663796923
 10
41.20805078666249
 20
5.51837466487703
 42
0.0
 10
41.34507578666254
 20
5.518374664877034
 42
0.1944607457809085
 10
41.79968828666254
 20
5.752262164877023
 42
0.1288538183665954
 10
41.8455882866625
 20
5.637512164877009
 42
0.2098387395261546
 10
41.99543828666251
 20
5.554824664877032
 42
0.0
 10
42.10411328666254
 20
5.554149664877035
 42
0.0945009641609563
 10
42.26105078666254
 20
5.587562164877028
 42
0.0
 10
42.26105078666254
 20
5.666199664877023
 42
-0.2395739894657535
 10
42.12402578666257
 20
5.664849664877012
 42
-0.2502312110031057
 10
42.0565257866625
 20
5.791749664877061
 42
-0.0104343570771765
 10
42.06563828666253
 20
6.738099664877021
 42
0.4051015674140716
 97
        0
 92
        3
 72
     1
 73
     1
 93
        8
 10
41.80677578666251
 20
6.401274664877018
 42
-0.0339435190873666
 10
41.80677578666268
 20
6.401274664876457
 42
-0.0001110072973599
 10
41.79260078666258
 20
5.884224664877012
 42
-0.2253076310552528
 10
41.43822578666252
 20
5.64763716487704
 42
0.0
 10
41.35148828666249
 20
5.647637164877037
 42
-0.3657967558150132
 10
41.09363828666253
 20
5.921687164877028
 42
0.0
 10
41.09363828666257
 20
6.019562164877032
 42
-0.2530797830369341
 10
41.26778828666253
 20
6.260537164877018
 42
-0.0724473624720066
 97
        0
 75
     0
 76
     1
 98
        1
 10
0.0
 20
0.0
  0
HATCH
  5
B4
330
1F
100
AcDbEntity
  8
LAY-1
  6
CONTINUOUS
 62
     3
100
AcDbHatch
 10
0.0
 20
0.0
 30
0.0
210
0.0
220
0.0
230
1.0
  2
SOLID
 70
     1
 71
     1
 91
        1
 92
        3
 72
     1
 73
     1
 93
       30
 10
46.33670078666252
 20
7.116774664877049
 42
-0.0009362235736497
 10
46.33670078666253
 20
7.116774664877026
 42
0.0681165430304653
 10
46.25485467433661
 20
6.871412164877029
 42
0.0
 10
45.94655078666256
 20
7.082349664877033
 42
-0.302112590907374
 10
45.94655078666253
 20
7.082349664877029
 42
0.0
 10
45.63571328666254
 20
6.844074664877027
 42
-0.3704245237568778
 10
45.63571328666249
 20
6.844074664877013
 42
0.0
 10
45.6519132866625
 20
6.684774664877025
 42
-0.0262822419456939
 10
45.84361328666255
 20
6.531549664877013
 42
-0.180060563604375
 10
46.14938828666256
 20
6.438399664877034
 42
-0.0298130817160724
 10
46.14938828666254
 20
6.438399664877017
 42
-0.3153987453686078
 10
46.43120078666252
 20
6.11608716487703
 42
0.0
 10
46.42951328666255
 20
5.971974664877013
 42
-0.3510306079065168
 10
45.88613828666249
 20
5.516349664877026
 42
0.0
 10
45.72751328666251
 20
5.516349664877015
 42
-0.1053356344842436
 10
45.37651328666252
 20
5.617599664877027
 42
0.1188608286962634
 10
45.44063828666251
 20
5.874099664877036
 42
0.0
 10
45.82538828666256
 20
5.637849664877031
 42
-0.2447573632916039
 10
45.82538828666251
 20
5.637849664877024
 42
0.0
 10
46.19663828666256
 20
5.897724664877033
 42
-0.3734162676407277
 10
46.19663828666254
 20
5.897724664877018
 42
0.0
 10
46.06197578666254
 20
6.157262164877034
 42
-0.261219770190848
 10
45.74776328666252
 20
6.271337164877035
 42
-0.0572747914118363
 10
45.74776328666257
 20
6.271337164877028
 42
-0.1189658875692221
 10
45.49801328666251
 20
6.417812164877032
 42
-0.2005226878639636
 10
45.39338828666249
 20
6.653724664878126
 42
0.0
 10
45.39170078666255
 20
6.743162164877011
 42
-0.2622894489606957
 10
45.66001328666254
 20
7.153224664877036
 42
-0.0988461274137808
 10
45.91111328666253
 20
7.213637164877014
 42
0.0
 10
46.0042632866625
 20
7.213637164877032
 42
-0.0920156312561188
 97
        0
 75
     0
 76
     1
 98
        1
 10
0.0
 20
0.0
  0
ARC
  5
B5
330
1F
100
AcDbEntity
  8
LAY-1
  6
CONTINUOUS
 62
     3
100
AcDbCircle
 10
47.19212405344357
 20
6.695097187537471
 30
0.0
 40
0.9537090018689155
100
AcDbArc
 50
153.7591918158497
 51
169.3462759801917
  0
LINE
  5
B6
330
1F
100
AcDbEntity
  8
LAY-1
  6
CONTINUOUS
 62
     3
100
AcDbLine
 10
46.21216328666251
 20
6.871412164877029
 30
0.0
 11
46.25485467433661
 21
6.871412164877029
 31
0.0
  0
LINE
  5
B7
330
1F
100
AcDbEntity
  8
LAY-1
  6
CONTINUOUS
 62
     3
100
AcDbLine
 10
45.8918757866625
 20
7.080999664877027
 30
0.0
 11
45.94655078666253
 21
7.082349664877029
 31
0.0
  0
LINE
  5
B8
330
1F
100
AcDbEntity
  8
LAY-1
  6
CONTINUOUS
 62
     3
100
AcDbLine
 10
45.39170078666255
 20
6.74316216487702
 30
0.0
 11
45.39338828666249
 21
6.653724664878126
 31
0.0
  0
LINE
  5
B9
330
1F
100
AcDbEntity
  8
LAY-1
  6
CONTINUOUS
 62
     3
100
AcDbLine
 10
45.63571328666249
 20
6.844074664877013
 30
0.0
 11
45.63098828666254
 21
6.755649664877012
 31
0.0
  0
LINE
  5
BA
330
1F
100
AcDbEntity
  8
LAY-1
  6
CONTINUOUS
 62
     3
100
AcDbLine
 10
46.43120078666252
 20
6.11608716487703
 30
0.0
 11
46.42951328666252
 21
5.971974664877024
 31
0.0
  0
LINE
  5
BB
330
1F
100
AcDbEntity
  8
LAY-1
  6
CONTINUOUS
 62
     3
100
AcDbLine
 10
46.19326328666254
 20
5.975349664877029
 30
0.0
 11
46.19663828666254
 21
5.897724664877018
 31
0.0
  0
ARC
  5
BC
330
1F
100
AcDbEntity
  8
LAY-1
  6
CONTINUOUS
 62
     3
100
AcDbCircle
 10
44.87672065660471
 20
5.878898797825002
 30
0.0
 40
0.563976870039419
100
AcDbArc
 50
332.3987521421788
 51
359.5124385477116
  0
LINE
  5
BD
330
1F
100
AcDbEntity
  8
LAY-1
  6
CONTINUOUS
 62
     3
100
AcDbLine
 10
40.95863828666254
 20
6.835974664877028
 30
0.0
 11
41.00251328666256
 21
6.835974664877028
 31
0.0
  0
HATCH
  5
BE
330
1F
100
AcDbEntity
  8
LAY-1
  6
CONTINUOUS
 62
     3
100
AcDbHatch
 10
0.0
 20
0.0
 30
0.0
210
0.0
220
0.0
230
1.0
  2
SOLID
 70
     1
 71
     1
 91
        2
 92
        1
 93
        1
 72
     2
 10
44.76427570191678
 20
7.779177334368541
 40
0.1786167233384942
 50
0.0
 51
360.0
 73
     1
 97
        0
 92
        3
 72
     1
 73
     1
 93
        3
 10
44.60465078666253
 20
7.184949664877021
 42
0.1200283885712921
 10
44.91515078666254
 20
5.553137164877005
 42
-0.0401820615762149
 10
44.60498828666253
 20
5.552124664877025
 42
-0.0237521668114666
 97
        0
 75
     0
 76
     1
 98
        1
 10
0.0
 20
0.0
  0
HATCH
  5
BF
330
1F
100
AcDbEntity
  8
LAY-1
  6
CONTINUOUS
 62
     3
100
AcDbHatch
 10
0.0
 20
0.0
 30
0.0
210
0.0
220
0.0
230
1.0
  2
SOLID
 70
     1
 71
     1
 91
        1
 92
        3
 72
     1
 73
     1
 93
       16
 10
42.64343828666252
 20
5.555162164877017
 42
-0.0386228372648426
 10
42.64040078666251
 20
7.182249664877022
 42
-0.0398707891902887
 10
42.9357132866625
 20
7.183599664877031
 42
-0.1256886216044368
 10
42.92221328666253
 20
6.907524664877025
 42
-0.0367815758121429
 10
42.92221328666253
 20
6.907524664877014
 42
-0.268021535028829
 10
43.51790078666252
 20
7.216674664877024
 42
-0.2571134422124888
 10
43.92526328666252
 20
7.015187164877039
 42
-0.1522526366014298
 10
44.02887578666255
 20
6.680049664877021
 42
-0.0158825412051521
 10
44.02145078666251
 20
5.553474664877021
 42
-0.0285251271418421
 10
43.73626328666254
 20
5.553474664877019
 42
-0.0452212723224612
 10
43.75077578666254
 20
6.594324664877036
 42
-0.0315567291532142
 10
43.66235078666251
 20
6.901787164877033
 42
-0.1476272403790709
 10
43.08657578666251
 20
6.945999664877016
 42
-0.3908144705745794
 10
42.92423828666254
 20
6.542012164877012
 42
-0.2046259928850854
 10
42.92423828666254
 20
6.542012164877036
 42
0.0
 10
42.94955078666253
 20
5.552462164877028
 42
-0.0304995761723369
 97
        0
 75
     0
 76
     1
 98
        1
 10
0.0
 20
0.0
  0
HATCH
  5
C0
330
1F
100
AcDbEntity
  8
LAY-1
  6
CONTINUOUS
 62
     3
100
AcDbHatch
 10
0.0
 20
0.0
 30
0.0
210
0.0
220
0.0
230
1.0
  2
SOLID
 70
     1
 71
     1
 91
        1
 92
        3
 72
     1
 73
     1
 93
       10
 10
39.68626328666255
 20
5.610849664877017
 42
-0.017362223501556
 10
39.69065078666253
 20
8.259212164877042
 42
-0.0267627618865285
 10
39.69065078666254
 20
8.259212164877027
 42
0.0737939047395297
 10
40.33662578666254
 20
8.261912164876989
 42
0.0183878899657109
 10
40.31063828666254
 20
5.874099664877015
 42
-0.1144749489451909
 10
40.2060132866625
 20
5.371224664877012
 42
-0.1929163439413163
 10
39.70820078666255
 20
4.980399664877012
 42
-0.0603888289562337
 10
39.44427578666254
 20
4.91458716487702
 42
0.0
 10
39.38251328666252
 20
5.102574664877016
 42
0.0860918333465722
 10
39.56712578666252
 20
5.200787164877019
 42
0.1331843103855141
 97
        0
 75
     0
 76
     1
 98
        1
 10
0.0
 20
0.0
  0
LINE
  5
C1
330
1F
100
AcDbEntity
  8
LAY-1
  6
CONTINUOUS
 62
     3
100
AcDbLine
 10
45.72751328666252
 20
5.516349664877026
 30
0.0
 11
45.88613828666249
 21
5.516349664877026
 31
0.0
  0
LINE
  5
C2
330
1F
100
AcDbEntity
  8
LAY-1
  6
CONTINUOUS
 62
     3
100
AcDbLine
 10
45.48451328666253
 20
5.874099664877036
 30
0.0
 11
45.44063828666251
 21
5.874099664877036
 31
0.0
  0
LINE
  5
C3
330
1F
100
AcDbEntity
  8
LAY-1
  6
CONTINUOUS
 62
     3
100
AcDbLine
 10
45.82538828666251
 20
5.637849664877024
 30
0.0
 11
45.90638828666253
 21
5.637849664877024
 31
0.0
  0
LINE
  5
C4
330
1F
100
AcDbEntity
  8
LAY-1
  6
CONTINUOUS
 62
     3
100
AcDbLine
 10
46.00426328666251
 20
7.213637164877014
 30
0.0
 11
45.91111328666253
 21
7.213637164877014
 31
0.0
  0
ARC
  5
C5
330
1F
100
AcDbEntity
  8
LAY-1
  6
CONTINUOUS
 62
     3
100
AcDbCircle
 10
45.92073669563755
 20
6.777146181458335
 30
0.0
 40
0.3062932150511265
100
AcDbArc
 50
17.92452211681263
 51
85.16543319077402
  0
ARC
  5
C6
330
1F
100
AcDbEntity
  8
LAY-1
  6
CONTINUOUS
 62
     3
100
AcDbCircle
 10
45.90175482430269
 20
6.813374973539595
 30
0.0
 40
0.2678069655519655
100
AcDbArc
 50
92.11404364449162
 51
173.4175047026091
  0
ARC
  5
C7
330
1F
100
AcDbEntity
  8
LAY-1
  6
CONTINUOUS
 62
     3
100
AcDbCircle
 10
46.31515703666313
 20
6.91911591487721
 30
0.0
 40
0.7034259686467
100
AcDbArc
 50
193.4375782160214
 51
199.459638038058
  0
ARC
  5
C8
330
1F
100
AcDbEntity
  8
LAY-1
  6
CONTINUOUS
 62
     3
100
AcDbCircle
 10
45.95360676193727
 20
6.865693208833051
 30
0.0
 40
0.351781853668592
100
AcDbArc
 50
210.9501336849607
 51
251.7794729821079
  0
ARC
  5
C9
330
1F
100
AcDbEntity
  8
LAY-1
  6
CONTINUOUS
 62
     3
100
AcDbCircle
 10
46.77692334846032
 20
9.046796552517549
 30
0.0
 40
2.68282212925834
100
AcDbArc
 50
249.6420733479936
 51
256.4727051201885
  0
ARC
  5
CA
330
1F
100
AcDbEntity
  8
LAY-1
  6
CONTINUOUS
 62
     3
100
AcDbCircle
 10
46.06022860645979
 20
6.076086292657862
 30
0.0
 40
0.373122537864803
100
AcDbArc
 50
6.154262763177246
 51
76.17509904255616
  0
ARC
  5
CB
330
1F
100
AcDbEntity
  8
LAY-1
  6
CONTINUOUS
 62
     3
100
AcDbCircle
 10
45.87331943233782
 20
6.083462335590212
 30
0.0
 40
0.5672575290903225
100
AcDbArc
 50
271.2948770866743
 51
348.6654156292868
  0
ARC
  5
CC
330
1F
100
AcDbEntity
  8
LAY-1
  6
CONTINUOUS
 62
     3
100
AcDbCircle
 10
45.78965027296389
 20
6.390782884055113
 30
0.0
 40
0.87663815789001
100
AcDbArc
 50
241.8829576087176
 51
265.9354096935781
  0
ARC
  5
CD
330
1F
100
AcDbEntity
  8
LAY-1
  6
CONTINUOUS
 62
     3
100
AcDbCircle
 10
45.88180521617435
 20
6.083293198886906
 30
0.0
 40
0.4490020177312635
100
AcDbArc
 50
207.7689879465537
 51
262.7817283832026
  0
ARC
  5
CE
330
1F
100
AcDbEntity
  8
LAY-1
  6
CONTINUOUS
 62
     3
100
AcDbCircle
 10
45.90178888723259
 20
5.935011818785824
 30
0.0
 40
0.297197745938338
100
AcDbArc
 50
270.8867385422408
 51
352.7925382056677
  0
ARC
  5
CF
330
1F
100
AcDbEntity
  8
LAY-1
  6
CONTINUOUS
 62
     3
100
AcDbCircle
 10
45.96540022926835
 20
5.949231127165831
 30
0.0
 40
0.229355076109507
100
AcDbArc
 50
6.53892419415897
 51
65.09756080693691
  0
ARC
  5
D0
330
1F
100
AcDbEntity
  8
LAY-1
  6
CONTINUOUS
 62
     3
100
AcDbCircle
 10
45.40857445915217
 20
4.847285708776042
 30
0.0
 40
1.463889206986377
100
AcDbArc
 50
63.49050203733571
 51
76.60259219849584
  0
ARC
  5
D1
330
1F
100
AcDbEntity
  8
LAY-1
  6
CONTINUOUS
 62
     3
100
AcDbCircle
 10
45.92634072899754
 20
6.861982055033423
 30
0.0
 40
0.6170504753897835
100
AcDbArc
 50
226.0402388947521
 51
253.1776672992999
  0
ARC
  5
D2
330
1F
100
AcDbEntity
  8
LAY-1
  6
CONTINUOUS
 62
     3
100
AcDbCircle
 10
45.72799628963001
 20
6.660963845377637
 30
0.0
 40
0.3346863029528055
100
AcDbArc
 50
181.2393899443581
 51
226.5942921332421
  0
ARC
  5
D3
330
1F
100
AcDbEntity
  8
LAY-1
  6
CONTINUOUS
 62
     3
100
AcDbCircle
 10
45.88981748399809
 20
6.710046455509314
 30
0.0
 40
0.499216280154595
100
AcDbArc
 50
117.4083995939977
 51
176.1964688215695
  0
ARC
  5
D4
330
1F
100
AcDbEntity
  8
LAY-1
  6
CONTINUOUS
 62
     3
100
AcDbCircle
 10
45.93855522141954
 20
6.55489548968805
 30
0.0
 40
0.6599874326837625
100
AcDbArc
 50
92.38301574576484
 51
114.9635286746436
  0
ARC
  5
D5
330
1F
100
AcDbEntity
  8
LAY-1
  6
CONTINUOUS
 62
     3
100
AcDbCircle
 10
45.99271414230285
 20
6.708315191819764
 30
0.0
 40
0.5054539337960785
100
AcDbArc
 50
67.66151957087348
 51
88.69073168448988
  0
ARC
  5
D6
330
1F
100
AcDbEntity
  8
LAY-1
  6
CONTINUOUS
 62
     3
100
AcDbCircle
 10
62.03222266164077
 20
47.701487164821
 30
0.0
 40
43.51400114481578
100
AcDbArc
 50
248.6422112053103
 51
248.8567777804232
  0
ARC
  5
D7
330
1F
100
AcDbEntity
  8
LAY-1
  6
CONTINUOUS
 62
     3
100
AcDbCircle
 10
33.53450287681935
 20
6.366248963831168
 30
0.0
 40
11.10038042517906
100
AcDbArc
 50
355.7940354718673
 51
4.229650257234378
  0
ARC
  5
D8
330
1F
100
AcDbEntity
  8
LAY-1
  6
CONTINUOUS
 62
     3
100
AcDbCircle
 10
55.06270235897788
 20
6.359405028696926
 30
0.0
 40
10.179531952945
100
AcDbArc
 50
175.3387608397566
 51
184.5428594926176
  0
ARC
  5
D9
330
1F
100
AcDbEntity
  8
LAY-1
  6
CONTINUOUS
 62
     3
100
AcDbCircle
 10
44.77072044685671
 20
2.289902092061652
 30
0.0
 40
3.266429742625544
100
AcDbArc
 50
87.46575055044718
 51
92.90832285102188
  0
ARC
  5
DA
330
1F
100
AcDbEntity
  8
LAY-1
  6
CONTINUOUS
 62
     3
100
AcDbCircle
 10
44.75728038013867
 20
7.826662371790377
 30
0.0
 40
0.6596142744201035
100
AcDbArc
 50
256.6209501743446
 51
283.9984576255729
  0
CIRCLE
  5
DB
330
1F
100
AcDbEntity
  8
LAY-1
  6
CONTINUOUS
 62
     3
100
AcDbCircle
 10
44.76427570191678
 20
7.779177334368541
 30
0.0
 40
0.1786167233384945
  0
LINE
  5
DC
330
1F
100
AcDbEntity
  8
LAY-1
  6
CONTINUOUS
 62
     3
100
AcDbLine
 10
42.92423828666254
 20
6.542012164877036
 30
0.0
 11
42.92423828666254
 21
6.002349664877016
 31
0.0
  0
ARC
  5
DD
330
1F
100
AcDbEntity
  8
LAY-1
  6
CONTINUOUS
 62
     3
100
AcDbCircle
 10
32.45588494335798
 20
6.349690293358719
 30
0.0
 40
10.21848903065536
100
AcDbArc
 50
355.5405243117485
 51
4.673398698656258
  0
ARC
  5
DE
330
1F
100
AcDbEntity
  8
LAY-1
  6
CONTINUOUS
 62
     3
100
AcDbCircle
 10
42.78541424930618
 20
7.761034399072429
 30
0.0
 40
0.596674679273008
100
AcDbArc
 50
255.9341994177206
 51
284.5896440601899
  0
ARC
  5
DF
330
1F
100
AcDbEntity
  8
LAY-1
  6
CONTINUOUS
 62
     3
100
AcDbCircle
 10
44.80287363698083
 20
6.953928406915253
 30
0.0
 40
1.88123275022909
100
AcDbArc
 50
172.9875214416311
 51
181.4134392789641
  0
ARC
  5
E0
330
1F
100
AcDbEntity
  8
LAY-1
  6
CONTINUOUS
 62
     3
100
AcDbCircle
 10
43.48770534501276
 20
6.54637994409299
 30
0.0
 40
0.67097449832863
100
AcDbArc
 50
87.42068310381028
 51
147.4361518966862
  0
ARC
  5
E1
330
1F
100
AcDbEntity
  8
LAY-1
  6
CONTINUOUS
 62
     3
100
AcDbCircle
 10
43.53862028706883
 20
6.746023323989959
 30
0.0
 40
0.47110718777777
100
AcDbArc
 50
34.84393737091607
 51
92.5207065423111
  0
ARC
  5
E2
330
1F
100
AcDbEntity
  8
LAY-1
  6
CONTINUOUS
 62
     3
100
AcDbCircle
 10
43.43952757672415
 20
6.681429712257625
 30
0.0
 40
0.589349825730295
100
AcDbArc
 50
359.8658335690532
 51
34.49363429411157
  0
ARC
  5
E3
330
1F
100
AcDbEntity
  8
LAY-1
  6
CONTINUOUS
 62
     3
100
AcDbCircle
 10
40.95956800605033
 20
6.566578874060696
 30
0.0
 40
3.071404543933479
100
AcDbArc
 50
358.4775281223095
 51
2.117232414210064
  0
ARC
  5
E4
330
1F
100
AcDbEntity
  8
LAY-1
  6
CONTINUOUS
 62
     3
100
AcDbCircle
 10
52.18288168308491
 20
5.945336873695652
 30
0.0
 40
8.170832899269108
100
AcDbArc
 50
176.2131780319488
 51
182.7488833337936
  0
ARC
  5
E5
330
1F
100
AcDbEntity
  8
LAY-1
  6
CONTINUOUS
 62
     3
100
AcDbCircle
 10
43.87885703666254
 20
3.980076309613878
 30
0.0
 40
1.579846626063372
100
AcDbArc
 50
84.82155189294139
 51
95.17844810705873
  0
ARC
  5
E6
330
1F
100
AcDbEntity
  8
LAY-1
  6
CONTINUOUS
 62
     3
100
AcDbCircle
 10
35.50586689324874
 20
6.188756689412315
 30
0.0
 40
8.25487783334294
100
AcDbArc
 50
355.5862454873798
 51
2.816115806820253
  0
ARC
  5
E7
330
1F
100
AcDbEntity
  8
LAY-1
  6
CONTINUOUS
 62
     3
100
AcDbCircle
 10
43.19723702284265
 20
6.601575694107765
 30
0.0
 40
0.553586253872077
100
AcDbArc
 50
359.2495022237244
 51
32.84055016678327
  0
ARC
  5
E8
330
1F
100
AcDbEntity
  8
LAY-1
  6
CONTINUOUS
 62
     3
100
AcDbCircle
 10
43.35050072602767
 20
6.611831365693433
 30
0.0
 40
0.4258225285235015
100
AcDbArc
 50
42.91644474042847
 51
128.3015542351336
  0
ARC
  5
E9
330
1F
100
AcDbEntity
  8
LAY-1
  6
CONTINUOUS
 62
     3
100
AcDbCircle
 10
43.47830861183204
 20
6.553976125690269
 30
0.0
 40
0.5541994781590655
100
AcDbArc
 50
134.9787476233347
 51
181.2369872983282
  0
ARC
  5
EA
330
1F
100
AcDbEntity
  8
LAY-1
  6
CONTINUOUS
 62
     3
100
AcDbCircle
 10
46.62044289475521
 20
5.995750735049057
 30
0.0
 40
3.697560496557463
100
AcDbArc
 50
179.8977458165987
 51
186.8855675734268
  0
ARC
  5
EB
330
1F
100
AcDbEntity
  8
LAY-1
  6
CONTINUOUS
 62
     3
100
AcDbCircle
 10
42.77904390034659
 20
3.575346272558534
 30
0.0
 40
1.984454547209249
100
AcDbArc
 50
85.07099551674689
 51
93.91830029343228
  0
ARC
  5
EC
330
1F
100
AcDbEntity
  8
LAY-1
  6
CONTINUOUS
 62
     3
100
AcDbCircle
 10
-1122.650771108868
 20
38.06632622793914
 30
0.0
 40
1164.888000630296
100
AcDbArc
 50
358.4169008257799
 51
358.4423418242109
  0
ARC
  5
ED
330
1F
100
AcDbEntity
  8
LAY-1
  6
CONTINUOUS
 62
     3
100
AcDbCircle
 10
41.36622345382964
 20
6.139182447651024
 30
0.0
 40
0.496790801998958
100
AcDbArc
 50
278.3335103000368
 51
329.1221464187299
  0
LINE
  5
EE
330
1F
100
AcDbEntity
  8
LAY-1
  6
CONTINUOUS
 62
     3
100
AcDbLine
 10
41.35148828666249
 20
5.64763716487704
 30
0.0
 11
41.43822578666252
 21
5.64763716487704
 31
0.0
  0
ARC
  5
EF
330
1F
100
AcDbEntity
  8
LAY-1
  6
CONTINUOUS
 62
     3
100
AcDbCircle
 10
41.38479826744371
 20
5.93730690048892
 30
0.0
 40
0.2915786524234985
100
AcDbArc
 50
183.0707787095794
 51
263.4402016072427
  0
LINE
  5
F0
330
1F
100
AcDbEntity
  8
LAY-1
  6
CONTINUOUS
 62
     3
100
AcDbLine
 10
41.09363828666253
 20
6.019562164877016
 30
0.0
 11
41.09363828666253
 21
5.921687164877028
 31
0.0
  0
ARC
  5
F1
330
1F
100
AcDbEntity
  8
LAY-1
  6
CONTINUOUS
 62
     3
100
AcDbCircle
 10
41.40350933418924
 20
5.979037395235906
 30
0.0
 40
0.3125097167285265
100
AcDbArc
 50
115.7403688633493
 51
172.5491744442191
  0
ARC
  5
F2
330
1F
100
AcDbEntity
  8
LAY-1
  6
CONTINUOUS
 62
     3
100
AcDbCircle
 10
41.67830325878854
 20
5.39159431333988
 30
0.0
 40
0.961032893077604
100
AcDbArc
 50
98.71271710191789
 51
115.2874718053599
  0
ARC
  5
F3
330
1F
100
AcDbEntity
  8
LAY-1
  6
CONTINUOUS
 62
     3
100
AcDbCircle
 10
41.23028049676865
 20
8.387506905802525
 30
0.0
 40
2.068203407347009
100
AcDbArc
 50
278.4088456599976
 51
286.1851416003176
  0
ARC
  5
F4
330
1F
100
AcDbEntity
  8
LAY-1
  6
CONTINUOUS
 62
     3
100
AcDbCircle
 10
40.0045410006114
 20
10.43708785261111
 30
0.0
 40
2.200379416745233
100
AcDbArc
 50
261.7986203004403
 51
278.6803384946418
  0
ARC
  5
F5
330
1F
100
AcDbEntity
  8
LAY-1
  6
CONTINUOUS
 62
     3
100
AcDbCircle
 10
72.77712657067175
 20
6.714801804754217
 30
0.0
 40
32.47737122341803
100
AcDbArc
 50
177.2695926307304
 51
181.4833117237826
  0
ARC
  5
F6
330
1F
100
AcDbEntity
  8
LAY-1
  6
CONTINUOUS
 62
     3
100
AcDbCircle
 10
39.17449680895309
 20
5.848156784400459
 30
0.0
 40
1.136437631557156
100
AcDbArc
 50
335.1860595856123
 51
1.308075913059364
  0
ARC
  5
F7
330
1F
100
AcDbEntity
  8
LAY-1
  6
CONTINUOUS
 62
     3
100
AcDbCircle
 10
39.46948663942741
 20
5.79691759313414
 30
0.0
 40
0.8506973440980575
100
AcDbArc
 50
286.2966123578915
 51
329.973223283839
  0
ARC
  5
F8
330
1F
100
AcDbEntity
  8
LAY-1
  6
CONTINUOUS
 62
     3
100
AcDbCircle
 10
39.30477874933329
 20
6.03611576457692
 30
0.0
 40
1.130170705410681
100
AcDbArc
 50
277.0901027239701
 51
290.9134154817058
  0
ARC
  5
F9
330
1F
100
AcDbEntity
  8
LAY-1
  6
CONTINUOUS
 62
     3
100
AcDbCircle
 10
39.19173644842724
 20
5.683799297229939
 30
0.0
 40
0.6117335001950125
100
AcDbArc
 50
288.1715191042997
 51
307.8537826235693
  0
ARC
  5
FA
330
1F
100
AcDbEntity
  8
LAY-1
  6
CONTINUOUS
 62
     3
100
AcDbCircle
 10
39.30463693248013
 20
5.467037592364562
 30
0.0
 40
0.3738845927653165
100
AcDbArc
 50
314.592391474832
 51
344.9374073189123
  0
ARC
  5
FB
330
1F
100
AcDbEntity
  8
LAY-1
  6
CONTINUOUS
 62
     3
100
AcDbCircle
 10
14.96692760614659
 20
6.975986679194193
 30
0.0
 40
24.75700215199504
100
AcDbArc
 50
356.8390243485978
 51
2.971133813187157
  0
ARC
  5
FC
330
1F
100
AcDbEntity
  8
LAY-1
  6
CONTINUOUS
 62
     3
100
AcDbCircle
 10
36.20719782613541
 20
5.786713809613929
 30
0.0
 40
3.483507524900299
100
AcDbArc
 50
353.1274757312911
 51
357.106204490141
  0
LINE
  5
FD
330
1F
100
AcDbEntity
  8
LAY-1
  6
CONTINUOUS
 62
     3
100
AcDbLine
 10
40.95863828666254
 20
7.018224664877039
 30
0.0
 11
40.95863828666254
 21
6.835974664877028
 31
0.0
  0
ARC
  5
FE
330
1F
100
AcDbEntity
  8
LAY-1
  6
CONTINUOUS
 62
     3
100
AcDbCircle
 10
41.39126808851498
 20
6.6144509592894
 30
0.0
 40
0.4474405525883595
100
AcDbArc
 50
103.4267945469744
 51
150.3242613737993
  0
ARC
  5
FF
330
1F
100
AcDbEntity
  8
LAY-1
  6
CONTINUOUS
 62
     3
100
AcDbCircle
 10
41.42399547899155
 20
6.546919152565096
 30
0.0
 40
0.520976367332115
100
AcDbArc
 50
77.23143261361693
 51
105.203415964315
  0
ARC
  5
100
330
1F
100
AcDbEntity
  8
LAY-1
  6
CONTINUOUS
 62
     3
100
AcDbCircle
 10
41.44641706408849
 20
6.713709430767096
 30
0.0
 40
0.353673269313001
100
AcDbArc
 50
3.537639967999379
 51
74.8013566619203
  0
ARC
  5
101
330
1F
100
AcDbEntity
  8
LAY-1
  6
CONTINUOUS
 62
     3
100
AcDbCircle
 10
41.15026936783287
 20
6.646149351875607
 30
0.0
 40
0.6552718755094605
100
AcDbArc
 50
353.0315250986587
 51
7.839947970678348
  0
ARC
  5
102
330
1F
100
AcDbEntity
  8
LAY-1
  6
CONTINUOUS
 62
     3
100
AcDbCircle
 10
41.71615477836671
 20
6.582556662521426
 30
0.0
 40
0.0860294141140655
100
AcDbArc
 50
291.5204897073511
 51
349.3445900274031
  0
ARC
  5
103
330
1F
100
AcDbEntity
  8
LAY-1
  6
CONTINUOUS
 62
     3
100
AcDbCircle
 10
41.51716525055449
 20
6.982036813443727
 30
0.0
 40
0.532056667636392
100
AcDbArc
 50
282.7195832898965
 51
295.6781112778079
  0
ARC
  5
104
330
1F
100
AcDbEntity
  8
LAY-1
  6
CONTINUOUS
 62
     3
100
AcDbCircle
 10
40.24265049992895
 20
12.65601014887605
 30
0.0
 40
6.347412046851909
100
AcDbArc
 50
278.8438342053764
 51
282.6649181367123
  0
ARC
  5
105
330
1F
100
AcDbEntity
  8
LAY-1
  6
CONTINUOUS
 62
     3
100
AcDbCircle
 10
41.35485069337896
 20
5.748042407414346
 30
0.0
 40
0.65046830849246
100
AcDbArc
 50
102.0988446293839
 51
129.1556705448828
  0
ARC
  5
106
330
1F
100
AcDbEntity
  8
LAY-1
  6
CONTINUOUS
 62
     3
100
AcDbCircle
 10
41.16986189515078
 20
5.981831662503993
 30
0.0
 40
0.352397685278961
100
AcDbArc
 50
129.8344892359069
 51
168.4089447024628
  0
ARC
  5
107
330
1F
100
AcDbEntity
  8
LAY-1
  6
CONTINUOUS
 62
     3
100
AcDbCircle
 10
41.24537509284998
 20
5.938793562738709
 30
0.0
 40
0.4358546862943345
100
AcDbArc
 50
164.8589457925044
 51
187.8495628504518
  0
ARC
  5
108
330
1F
100
AcDbEntity
  8
LAY-1
  6
CONTINUOUS
 62
     3
100
AcDbCircle
 10
41.20457666457751
 20
5.920075107864307
 30
0.0
 40
0.393096173563145
100
AcDbArc
 50
185.9586126338419
 51
224.0091989319859
  0
ARC
  5
109
330
1F
100
AcDbEntity
  8
LAY-1
  6
CONTINUOUS
 62
     3
100
AcDbCircle
 10
41.22281476518445
 20
5.940555523862969
 30
0.0
 40
0.420447828878183
100
AcDbArc
 50
224.289750990011
 51
255.6505938786759
  0
ARC
  5
10A
330
1F
100
AcDbEntity
  8
LAY-1
  6
CONTINUOUS
 62
     3
100
AcDbCircle
 10
41.21464065368381
 20
5.834817471937043
 30
0.0
 40
0.316511416045893
100
AcDbArc
 50
252.3384873625213
 51
268.8069976857606
  0
LINE
  5
10B
330
1F
100
AcDbEntity
  8
LAY-1
  6
CONTINUOUS
 62
     3
100
AcDbLine
 10
41.20805078666249
 20
5.51837466487703
 30
0.0
 11
41.34507578666254
 21
5.51837466487703
 31
0.0
  0
ARC
  5
10C
330
1F
100
AcDbEntity
  8
LAY-1
  6
CONTINUOUS
 62
     3
100
AcDbCircle
 10
41.28306522933506
 20
6.197670131284127
 30
0.0
 40
0.682119960051966
100
AcDbArc
 50
275.2158792069686
 51
319.2336424873511
  0
ARC
  5
10D
330
1F
100
AcDbEntity
  8
LAY-1
  6
CONTINUOUS
 62
     3
100
AcDbCircle
 10
42.04157780279159
 20
5.782462971328641
 30
0.0
 40
0.243767567004861
100
AcDbArc
 50
187.1167640402297
 51
216.4860549324747
  0
ARC
  5
10E
330
1F
100
AcDbEntity
  8
LAY-1
  6
CONTINUOUS
 62
     3
100
AcDbCircle
 10
42.01468867540732
 20
5.766837282643138
 30
0.0
 40
0.212884775310199
100
AcDbArc
 50
217.4081478714985
 51
264.8118660441384
  0
ARC
  5
10F
330
1F
100
AcDbEntity
  8
LAY-1
  6
CONTINUOUS
 62
     3
100
AcDbCircle
 10
42.09497945972797
 20
5.982322564115151
 30
0.0
 40
0.428270310010447
100
AcDbArc
 50
271.2220539293239
 51
292.8159509797653
  0
LINE
  5
110
330
1F
100
AcDbEntity
  8
LAY-1
  6
CONTINUOUS
 62
     3
100
AcDbLine
 10
41.99543828666251
 20
5.554824664877032
 30
0.0
 11
42.10411328666252
 21
5.554824664877032
 31
0.0
  0
LINE
  5
111
330
1F
100
AcDbEntity
  8
LAY-1
  6
CONTINUOUS
 62
     3
100
AcDbLine
 10
42.26105078666254
 20
5.587562164877028
 30
0.0
 11
42.26105078666254
 21
5.666199664877013
 31
0.0
  0
ARC
  5
112
330
1F
100
AcDbEntity
  8
LAY-1
  6
CONTINUOUS
 62
     3
100
AcDbCircle
 10
42.19121039228984
 20
5.800305943705439
 30
0.0
 40
0.15120242956824
100
AcDbArc
 50
243.6191685566582
 51
297.5097757939563
  0
ARC
  5
113
330
1F
100
AcDbEntity
  8
LAY-1
  6
CONTINUOUS
 62
     3
100
AcDbCircle
 10
42.20911994723023
 20
5.79151464390236
 30
0.0
 40
0.1525943415536945
100
AcDbArc
 50
179.9117548191414
 51
236.1065985968857
  0
ARC
  5
114
330
1F
100
AcDbEntity
  8
LAY-1
  6
CONTINUOUS
 62
     3
100
AcDbCircle
 10
64.73250679193549
 20
6.046619219658652
 30
0.0
 40
22.67741327932831
100
AcDbArc
 50
178.2526643324597
 51
180.6439560401927
  0
ARC
  5
115
330
1F
100
AcDbEntity
  8
LAY-1
  6
CONTINUOUS
 62
     3
100
AcDbCircle
 10
41.55353136301395
 20
6.700958129866564
 30
0.0
 40
0.513452037557295
100
AcDbArc
 50
4.148222840814693
 51
92.36000944257292
  0
ARC
  5
116
330
1F
100
AcDbEntity
  8
LAY-1
  6
CONTINUOUS
 62
     3
100
AcDbCircle
 10
41.51342662062766
 20
6.330836444634429
 30
0.0
 40
0.883341757663532
100
AcDbArc
 50
88.77000393305703
 51
128.9068631829044
  0
LINE
  5
117
330
1F
100
AcDbEntity
  8
LAY-1
  6
CONTINUOUS
 62
     6
100
AcDbLine
 10
39.44427578666254
 20
4.91458716487702
 30
0.0
 11
39.38251328666255
 21
5.102574664877011
 31
0.0
  0
LINE
  5
118
330
1F
100
AcDbEntity
  8
LAY-1
  6
CONTINUOUS
 62
     7
100
AcDbLine
 10
10.00000000000003
 20
15.0
 30
0.0
 11
101.0
 21
15.0
 31
0.0
  0
LINE
  5
119
330
1F
100
AcDbEntity
  8
LAY-1
  6
CONTINUOUS
 62
     7
100
AcDbLine
 10
10.00000000000003
 20
4.0
 30
0.0
 11
101.0
 21
4.0
 31
0.0
  0
LINE
  5
11A
330
1F
100
AcDbEntity
  8
LAY-1
  6
CONTINUOUS
 62
     6
100
AcDbLine
 10
38.50000000000004
 20
15.0
 30
0.0
 11
38.50000000000004
 21
4.0
 31
0.0
  0
LINE
  5
11B
330
1F
100
AcDbEntity
  8
LAY-1
  6
CONTINUOUS
 62
     6
100
AcDbLine
 10
25.50000000000004
 20
15.0
 30
0.0
 11
25.50000000000004
 21
4.0
 31
0.0
  0
LINE
  5
11C
330
1F
100
AcDbEntity
  8
LAY-1
  6
CONTINUOUS
 62
     6
100
AcDbLine
 10
17.75000000000004
 20
15.0
 30
0.0
 11
17.75000000000004
 21
4.0
 31
0.0
  0
CIRCLE
  5
11D
330
1F
100
AcDbEntity
  8
LAY-1
  6
CONTINUOUS
 62
     6
100
AcDbCircle
 10
12.50000000000003
 20
5.25
 30
0.0
 40
0.05000001
  0
CIRCLE
  5
11E
330
1F
100
AcDbEntity
  8
LAY-1
  6
CONTINUOUS
 62
     6
100
AcDbCircle
 10
15.00000000000003
 20
5.25
 30
0.0
 40
0.05000001
  0
CIRCLE
  5
11F
330
1F
100
AcDbEntity
  8
LAY-1
  6
CONTINUOUS
 62
     6
100
AcDbCircle
 10
20.25000000000004
 20
5.25
 30
0.0
 40
0.05000001
  0
CIRCLE
  5
120
330
1F
100
AcDbEntity
  8
LAY-1
  6
CONTINUOUS
 62
     6
100
AcDbCircle
 10
22.75000000000004
 20
5.25
 30
0.0
 40
0.05000001
  0
LINE
  5
121
330
1F
100
AcDbEntity
  8
LAY-1
  6
CONTINUOUS
 62
     6
100
AcDbLine
 10
32.00000000000004
 20
15.0
 30
0.0
 11
32.00000000000004
 21
4.0
 31
0.0
  0
LINE
  5
122
330
1F
100
AcDbEntity
  8
LAY-1
  6
EXLTYPE2
 62
     6
100
AcDbLine
 10
10.00000000000003
 20
6.5
 30
0.0
 11
25.50000000000004
 21
6.5
 31
0.0
  0
LINE
  5
123
330
1F
100
AcDbEntity
  8
LAY-1
  6
CONTINUOUS
 62
     6
100
AcDbLine
 10
101.0
 20
9.0
 30
0.0
 11
38.50000000000004
 21
9.0
 31
0.0
  0
LINE
  5
124
330
1F
100
AcDbEntity
  8
LAY-1
  6
CONTINUOUS
 62
     6
100
AcDbLine
 10
94.00000000000003
 20
15.0
 30
0.0
 11
94.00000000000003
 21
9.0
 31
0.0
  0
LINE
  5
125
330
1F
100
AcDbEntity
  8
LAY-1
  6
CONTINUOUS
 62
     6
100
AcDbLine
 10
73.00000000000003
 20
15.0
 30
0.0
 11
73.00000000000003
 21
4.0
 31
0.0
  0
LINE
  5
126
330
1F
100
AcDbEntity
  8
LAY-1
  6
CONTINUOUS
 62
     6
100
AcDbLine
 10
70.50000000000003
 20
15.0
 30
0.0
 11
70.50000000000003
 21
4.0
 31
0.0
  0
LINE
  5
127
330
1F
100
AcDbEntity
  8
LAY-1
  6
CONTINUOUS
 62
     6
100
AcDbLine
 10
95.63269043000005
 20
10.15014648499999
 30
0.0
 11
99.49969482500003
 21
14.08499145499999
 31
0.0
  0
LINE
  5
128
330
1F
100
AcDbEntity
  8
LAY-1
  6
CONTINUOUS
 62
     6
100
AcDbLine
 10
91.50000000000003
 20
15.0
 30
0.0
 11
91.50000000000003
 21
9.0
 31
0.0
  0
TEXT
  5
129
330
1F
100
AcDbEntity
  8
LAY-1
  6
CONTINUOUS
 62
     2
100
AcDbText
 10
71.91250000000005
 20
8.662499999999994
 30
0.0
 40
1.718181818181818
  1
図番
  7
EXCADVERT
 72
     3
 11
71.91250000000005
 21
4.162499999999994
 31
0.0
100
AcDbText
  0
TEXT
  5
12A
330
1F
100
AcDbEntity
  8
LAY-1
  6
CONTINUOUS
 62
     2
100
AcDbText
 10
71.91250000000005
 20
14.3125
 30
0.0
 40
1.813636363636364
  1
品番
  7
EXCADVERT
 72
     3
 11
71.91250000000005
 21
9.5625
 31
0.0
100
AcDbText
  0
TEXT
  5
12B
330
1F
100
AcDbEntity
  8
LAY-1
  6
CONTINUOUS
 62
     2
100
AcDbText
 10
92.96250000000003
 20
14.3125
 30
0.0
 40
1.813636363636364
  1
尺度
  7
EXCADVERT
 72
     3
 11
92.96250000000003
 21
9.5625
 31
0.0
100
AcDbText
  0
TEXT
  5
12C
330
1F
100
AcDbEntity
  8
LAY-1
  6
CONTINUOUS
 62
     2
100
AcDbText
 10
11.00000000000003
 20
12.625
 30
0.0
 40
2.25
  1
製図
 41
1.490632323232323
  7
EXCADSTD
 72
     5
 11
16.27045000000003
 21
12.625
 31
0.0
100
AcDbText
  0
TEXT
  5
12D
330
1F
100
AcDbEntity
  8
LAY-1
  6
CONTINUOUS
 62
     2
100
AcDbText
 10
18.75000000000004
 20
12.625
 30
0.0
 40
2.25
  1
写図
 41
1.490632323232323
  7
EXCADSTD
 72
     5
 11
24.02045000000004
 21
12.625
 31
0.0
100
AcDbText
  0
TEXT
  5
12E
330
1F
100
AcDbEntity
  8
LAY-1
  6
CONTINUOUS
 62
     2
100
AcDbText
 10
26.25000000000004
 20
12.625
 30
0.0
 40
2.25
  1
検図
 41
1.29620202020202
  7
EXCADSTD
 72
     5
 11
30.83300000000003
 21
12.625
 31
0.0
100
AcDbText
  0
TEXT
  5
12F
330
1F
100
AcDbEntity
  8
LAY-1
  6
CONTINUOUS
 62
     2
100
AcDbText
 10
32.75000000000004
 20
12.625
 30
0.0
 40
2.25
  1
承認
 41
1.29620202020202
  7
EXCADSTD
 72
     5
 11
37.33300000000003
 21
12.625
 31
0.0
100
AcDbText
  0
LINE
  5
130
330
1F
100
AcDbEntity
  8
LAY-1
  6
CONTINUOUS
 62
     6
100
AcDbLine
 10
10.00000000000003
 20
12.5
 30
0.0
 11
38.50000000000004
 21
12.5
 31
0.0
  0
TEXT
  5
131
330
1F
100
AcDbEntity
  8
LAY-1
  6
CONTINUOUS
 62
     2
100
AcDbText
 10
97.97646486884187
 20
9.917442319999992
 30
0.0
 40
2.0
  1
１
 41
1.119999999999996
  7
EXCADSTD
 72
     5
 11
99.57646486884187
 21
9.917442319999992
 31
0.0
100
AcDbText
  0
TEXT
  5
132
330
1F
100
AcDbEntity
  8
LAY-1
  6
CONTINUOUS
 62
     6
100
AcDbText
 10
11.32499998807925
 20
8.250000000000057
 30
0.0
 40
2.5
  1
川野
 41
1.18991346010815
  7
EXCADSTD
 72
     5
 11
15.99966000993269
 21
8.250000000000057
 31
0.0
100
AcDbText
  0
LINE
  5
133
330
1F
100
AcDbEntity
  8
LAY-1
  6
CONTINUOUS
 62
     7
100
AcDbLine
 10
101.0
 20
4.0
 30
0.0
 11
101.0
 21
144.0
 31
0.0
  0
LINE
  5
134
330
1F
100
AcDbEntity
  8
LAY-1
  6
CONTINUOUS
 62
     7
100
AcDbLine
 10
10.00000000000003
 20
4.0
 30
0.0
 11
10.00000000000003
 21
144.0
 31
0.0
  0
LINE
  5
135
330
1F
100
AcDbEntity
  8
LAY-1
  6
CONTINUOUS
 62
     7
100
AcDbLine
 10
10.00000000000003
 20
144.0
 30
0.0
 11
101.0
 21
144.0
 31
0.0
  0
LINE
  5
136
330
1F
100
AcDbEntity
  8
LAY-1
  6
CONTINUOUS
 62
     6
100
AcDbLine
 10
101.0
 20
141.5
 30
0.0
 11
62.1
 21
141.5
 31
0.0
  0
LINE
  5
137
330
1F
100
AcDbEntity
  8
LAY-1
  6
CONTINUOUS
 62
     6
100
AcDbLine
 10
62.1
 20
141.5
 30
0.0
 11
41.6
 21
141.5
 31
0.0
  0
TEXT
  5
138
330
1F
100
AcDbEntity
  8
LAY-1
  6
CONTINUOUS
 62
     2
100
AcDbText
 10
42.475
 20
141.75
 30
0.0
 40
2.0
  1
番号
 41
1.093670454545454
  7
EXCADSTD
 72
     5
 11
45.91225
 21
141.75
 31
0.0
100
AcDbText
  0
TEXT
  5
139
330
1F
100
AcDbEntity
  8
LAY-1
  6
CONTINUOUS
 62
     2
100
AcDbText
 10
51.35
 20
141.75
 30
0.0
 40
2.0
  1
品名
 41
1.895695454545456
  7
EXCADSTD
 72
     5
 11
57.3079
 21
141.75
 31
0.0
100
AcDbText
  0
TEXT
  5
13A
330
1F
100
AcDbEntity
  8
LAY-1
  6
CONTINUOUS
 62
     2
100
AcDbText
 10
65.1
 20
141.75
 30
0.0
 40
2.0
  1
材質
 41
1.895695454545453
  7
EXCADSTD
 72
     5
 11
71.05789999999999
 21
141.75
 31
0.0
100
AcDbText
  0
TEXT
  5
13B
330
1F
100
AcDbEntity
  8
LAY-1
  6
CONTINUOUS
 62
     2
100
AcDbText
 10
75.475
 20
141.75
 30
0.0
 40
2.0
  1
個数
 41
1.093670454545457
  7
EXCADSTD
 72
     5
 11
78.91225
 21
141.75
 31
0.0
100
AcDbText
  0
TEXT
  5
13C
330
1F
100
AcDbEntity
  8
LAY-1
  6
CONTINUOUS
 62
     2
100
AcDbText
 10
85.85
 20
141.75
 30
0.0
 40
2.0
  1
備考
 41
2.62480909090909
  7
EXCADSTD
 72
     5
 11
94.09939999999999
 21
141.75
 31
0.0
100
AcDbText
  0
TEXT
  5
13D
330
1F
100
AcDbEntity
  8
LAY-1
  6
CONTINUOUS
 62
     2
100
AcDbText
 10
43.35
 20
139.25
 30
0.0
 40
2.0
  1
１
 41
1.120000000000001
  7
EXCADSTD
 72
     5
 11
44.95
 21
139.25
 31
0.0
100
AcDbText
  0
LINE
  5
13E
330
1F
100
AcDbEntity
  8
LAY-1
  6
CONTINUOUS
 62
     6
100
AcDbLine
 10
101.0
 20
139.0
 30
0.0
 11
41.60000000000003
 21
139.0
 31
0.0
  0
TEXT
  5
13F
330
1F
100
AcDbEntity
  8
LAY-1
  6
CONTINUOUS
 62
     2
100
AcDbText
 10
43.35
 20
136.75
 30
0.0
 40
2.0
  1
２
 41
1.120000000000001
  7
EXCADSTD
 72
     5
 11
44.95
 21
136.75
 31
0.0
100
AcDbText
  0
LINE
  5
140
330
1F
100
AcDbEntity
  8
LAY-1
  6
CONTINUOUS
 62
     6
100
AcDbLine
 10
101.0
 20
136.5
 30
0.0
 11
41.6
 21
136.5
 31
0.0
  0
LINE
  5
141
330
1F
100
AcDbEntity
  8
LAY-1
  6
CONTINUOUS
 62
     6
100
AcDbLine
 10
41.6
 20
144.0
 30
0.0
 11
41.6
 21
136.5
 31
0.0
  0
LINE
  5
142
330
1F
100
AcDbEntity
  8
LAY-1
  6
CONTINUOUS
 62
     6
100
AcDbLine
 10
47.1
 20
144.0
 30
0.0
 11
47.1
 21
136.5
 31
0.0
  0
LINE
  5
143
330
1F
100
AcDbEntity
  8
LAY-1
  6
CONTINUOUS
 62
     6
100
AcDbLine
 10
74.6
 20
144.0
 30
0.0
 11
74.6
 21
136.5
 31
0.0
  0
LINE
  5
144
330
1F
100
AcDbEntity
  8
LAY-1
  6
CONTINUOUS
 62
     6
100
AcDbLine
 10
80.1
 20
144.0
 30
0.0
 11
80.1
 21
136.5
 31
0.0
  0
LINE
  5
145
330
1F
100
AcDbEntity
  8
LAY-1
  6
CONTINUOUS
 62
     6
100
AcDbLine
 10
62.1
 20
144.0
 30
0.0
 11
62.1
 21
136.5
 31
0.0
  0
TEXT
  5
146
330
1F
100
AcDbEntity
  8
LAY-1
  6
CONTINUOUS
 62
     2
100
AcDbText
 10
76.35
 20
139.25
 30
0.0
 40
2.0
  1
１
 41
1.119999999999996
  7
EXCADSTD
 72
     5
 11
77.94999999999999
 21
139.25
 31
0.0
100
AcDbText
  0
TEXT
  5
147
330
1F
100
AcDbEntity
  8
LAY-1
  6
CONTINUOUS
 62
     2
100
AcDbText
 10
76.35
 20
136.75
 30
0.0
 40
2.0
  1
１
 41
1.119999999999996
  7
EXCADSTD
 72
     5
 11
77.94999999999999
 21
136.75
 31
0.0
100
AcDbText
  0
TEXT
  5
148
330
1F
100
AcDbEntity
  8
LAY-1
  6
CONTINUOUS
 62
     2
100
AcDbText
 10
47.50000000000001
 20
136.75
 30
0.0
 40
2.0
  1
スポンジパッキン
 41
1.061170212765957
  7
EXCADSTD
 72
     5
 11
61.75000000000001
 21
136.75
 31
0.0
100
AcDbText
  0
TEXT
  5
149
330
1F
100
AcDbEntity
  8
LAY-1
  6
CONTINUOUS
 62
     2
100
AcDbText
 10
47.50000000000001
 20
139.25
 30
0.0
 40
2.0
  1
変換アダプター
 41
1.067073170731707
  7
EXCADSTD
 72
     5
 11
60.00000000000001
 21
139.25
 31
0.0
100
AcDbText
  0
TEXT
  5
14A
330
1F
100
AcDbEntity
  8
LAY-1
  6
CONTINUOUS
 62
     2
100
AcDbText
 10
74.04999952316285
 20
10.55
 30
0.0
 40
3.0
  1
ＭＥＪＰ２１０７－Ａ
 41
0.6723164218967245
  7
EXCADSTD
 72
     5
 11
91.05000047683717
 21
10.55
 31
0.0
100
AcDbText
  0
TEXT
  5
14B
330
1F
100
AcDbEntity
  8
LAY-1
  6
CONTINUOUS
 62
     2
100
AcDbText
 10
44.75000000000001
 20
10.52499999999999
 30
0.0
 40
3.0
  1
変換アダプター
 41
1.109756097560975
  7
EXCADSTD
 72
     5
 11
64.25
 21
10.52499999999999
 31
0.0
100
AcDbText
  0
TEXT
  5
14C
330
1F
100
AcDbEntity
  8
LAY-1
  6
CONTINUOUS
 62
     6
100
AcDbText
 10
10.31720578377398
 20
4.472503660000001
 30
0.0
 40
1.5
  1
'23
 41
0.4689784011919448
  7
EXCADSTD
 72
     5
 11
11.89163327348979
 21
4.472503660000001
 31
0.0
100
AcDbText
  0
TEXT
  5
14D
330
1F
100
AcDbEntity
  8
LAY-1
  6
CONTINUOUS
 62
     6
100
AcDbText
 10
13.45345580284746
 20
4.472503660000001
 30
0.0
 40
1.5
  1
2
 41
0.4683823529411762
  7
EXCADSTD
 72
     5
 11
14.02220580284746
 21
4.472503660000001
 31
0.0
100
AcDbText
  0
TEXT
  5
14E
330
1F
100
AcDbEntity
  8
LAY-1
  6
CONTINUOUS
 62
     6
100
AcDbText
 10
15.79470579569492
 20
4.472503660000001
 30
0.0
 40
1.5
  1
10
 41
0.4086486468443998
  7
EXCADSTD
 72
     5
 11
16.87470579092654
 21
4.472503660000001
 31
0.0
100
AcDbText
  0
TEXT
  5
14F
330
1F
100
AcDbEntity
  8
LAY-1
  6
CONTINUOUS
 62
     2
100
AcDbText
 10
95.26435548192094
 20
12.13613891499998
 30
0.0
 40
2.0
  1
２
 41
1.119999999999996
  7
EXCADSTD
 72
     5
 11
96.86435548192094
 21
12.13613891499998
 31
0.0
100
AcDbText
  0
TEXT
  5
150
330
1F
100
AcDbEntity
  8
LAY-1
  6
CONTINUOUS
 62
     7
100
AcDbText
 10
76.21250000000003
 20
4.787499999999994
 30
0.0
 40
3.5
  1
９１０１８００
 41
1.048780487804878
  7
EXCADSTD
 72
     5
 11
97.71250000000003
 21
4.787499999999994
 31
0.0
100
AcDbText
  0
TEXT
  5
151
330
1F
100
AcDbEntity
  8
LAY-1
  6
CONTINUOUS
 62
     2
100
AcDbText
 10
62.50000000000001
 20
136.75
 30
0.0
 40
2.0
  1
発砲ＰＥ
 41
1.103260869565216
  7
EXCADSTD
 72
     5
 11
69.75
 21
136.75
 31
0.0
100
AcDbText
  0
TEXT
  5
152
330
1F
100
AcDbEntity
  8
LAY-1
  6
CONTINUOUS
 62
     2
100
AcDbText
 10
62.50000000000001
 20
139.25
 30
0.0
 40
2.0
  1
真鍮
 41
1.093670454545454
  7
EXCADSTD
 72
     5
 11
65.93725
 21
139.25
 31
0.0
100
AcDbText
  0
TEXT
  5
153
330
1F
100
AcDbEntity
  8
LAY-1
  6
CONTINUOUS
 62
     2
100
AcDbText
 10
80.5
 20
139.25
 30
0.0
 40
2.0
  1
メッキ、ＦＴＴ加工品
 41
1.052966101694915
  7
EXCADSTD
 72
     5
 11
98.25
 21
139.25
 31
0.0
100
AcDbText
  0
TEXT
  5
154
330
1F
100
AcDbEntity
  8
LAY-1
  6
CONTINUOUS
 62
     6
100
AcDbText
 10
26.19999998807908
 20
8.25
 30
0.0
 40
2.5
  1
椎葉
 41
1.18991346010815
  7
EXCADSTD
 72
     5
 11
30.87466000993253
 21
8.25
 31
0.0
100
AcDbText
  0
TEXT
  5
155
330
1F
100
AcDbEntity
  8
LAY-1
  6
CONTINUOUS
 62
     6
100
AcDbText
 10
32.69999998807908
 20
8.25
 30
0.0
 40
2.5
  1
椎葉
 41
1.18991346010815
  7
EXCADSTD
 72
     5
 11
37.37466000993253
 21
8.25
 31
0.0
100
AcDbText
  0
LINE
  5
156
330
1F
100
AcDbEntity
  8
図
  6
CONTINUOUS
 62
     2
100
AcDbLine
 10
38.04999999999999
 20
75.05
 30
0.0
 11
73.04999999999998
 21
75.05
 31
0.0
  0
LINE
  5
157
330
1F
100
AcDbEntity
  8
図
  6
CONTINUOUS
 62
     2
100
AcDbLine
 10
31.55
 20
82.55
 30
0.0
 11
31.55
 21
78.05000000000001
 31
0.0
  0
LINE
  5
158
330
1F
100
AcDbEntity
  8
図
  6
CONTINUOUS
 62
     2
100
AcDbLine
 10
32.95
 20
81.04999999999997
 30
0.0
 11
32.95
 21
82.55
 31
0.0
  0
LINE
  5
159
330
1F
100
AcDbEntity
  8
図
  6
CONTINUOUS
 62
     2
100
AcDbLine
 10
31.55000000000002
 20
82.55
 30
0.0
 11
32.95
 21
82.55
 31
0.0
  0
LINE
  5
15A
330
1F
100
AcDbEntity
  8
図
  6
CONTINUOUS
 62
     2
100
AcDbLine
 10
39.04999999999999
 20
75.05
 30
0.0
 11
39.04999999999999
 21
81.04999999999997
 31
0.0
  0
LINE
  5
15B
330
1F
100
AcDbEntity
  8
図
  6
CONTINUOUS
 62
     2
100
AcDbLine
 10
38.04999999999998
 20
78.05
 30
0.0
 11
38.04999999999998
 21
75.05
 31
0.0
  0
LINE
  5
15C
330
1F
100
AcDbEntity
  8
図
  6
CONTINUOUS
 62
     2
100
AcDbLine
 10
38.04999999999998
 20
78.05
 30
0.0
 11
31.55000000000002
 21
78.05
 31
0.0
  0
LINE
  5
15D
330
1F
100
AcDbEntity
  8
図
  6
CONTINUOUS
 62
     2
100
AcDbLine
 10
79.55000000000004
 20
82.54999999999998
 30
0.0
 11
79.55000000000004
 21
78.05000000000001
 31
0.0
  0
LINE
  5
15E
330
1F
100
AcDbEntity
  8
図
  6
CONTINUOUS
 62
     2
100
AcDbLine
 10
78.15000000000003
 20
81.04999999999995
 30
0.0
 11
78.15000000000003
 21
82.54999999999998
 31
0.0
  0
LINE
  5
15F
330
1F
100
AcDbEntity
  8
図
  6
CONTINUOUS
 62
     2
100
AcDbLine
 10
79.55000000000001
 20
82.54999999999998
 30
0.0
 11
78.15000000000003
 21
82.54999999999998
 31
0.0
  0
LINE
  5
160
330
1F
100
AcDbEntity
  8
図
  6
CONTINUOUS
 62
     2
100
AcDbLine
 10
72.05000000000004
 20
75.05
 30
0.0
 11
72.05000000000004
 21
81.04999999999997
 31
0.0
  0
LINE
  5
161
330
1F
100
AcDbEntity
  8
図
  6
CONTINUOUS
 62
     2
100
AcDbLine
 10
73.05000000000005
 20
78.05
 30
0.0
 11
73.05000000000004
 21
75.05
 31
0.0
  0
LINE
  5
162
330
1F
100
AcDbEntity
  8
図
  6
CONTINUOUS
 62
     2
100
AcDbLine
 10
73.05000000000005
 20
78.05
 30
0.0
 11
79.55000000000001
 21
78.04999999999998
 31
0.0
  0
LINE
  5
163
330
1F
100
AcDbEntity
  8
図
  6
CONTINUOUS
 62
     2
100
AcDbLine
 10
78.15
 20
81.04999999999997
 30
0.0
 11
32.95
 21
81.04999999999997
 31
0.0
  0
LINE
  5
164
330
1F
100
AcDbEntity
  8
図
  6
CONTINUOUS
 62
     6
100
AcDbLine
 10
32.05
 20
78.05
 30
0.0
 11
32.05
 21
76.05
 31
0.0
  0
LINE
  5
165
330
1F
100
AcDbEntity
  8
図
  6
CONTINUOUS
 62
     6
100
AcDbLine
 10
32.05
 20
76.05
 30
0.0
 11
38.04999999999998
 21
76.05
 31
0.0
  0
LINE
  5
166
330
1F
100
AcDbEntity
  8
図
  6
CONTINUOUS
 62
     6
100
AcDbLine
 10
79.05000000000003
 20
76.04999999999998
 30
0.0
 11
73.05000000000004
 21
76.05
 31
0.0
  0
LINE
  5
167
330
1F
100
AcDbEntity
  8
図
  6
CONTINUOUS
 62
     6
100
AcDbLine
 10
79.05000000000003
 20
78.04999999999998
 30
0.0
 11
79.05000000000003
 21
76.04999999999998
 31
0.0
  0
CIRCLE
  5
168
330
1F
100
AcDbEntity
  8
図
  6
CONTINUOUS
 62
     6
100
AcDbCircle
 10
35.19000000000001
 20
76.27500000000002
 30
0.0
 40
0.1
  0
CIRCLE
  5
169
330
1F
100
AcDbEntity
  8
図
  6
CONTINUOUS
 62
     6
100
AcDbCircle
 10
35.19000000000001
 20
77.68499999999999
 30
0.0
 40
0.1
  0
CIRCLE
  5
16A
330
1F
100
AcDbEntity
  8
図
  6
CONTINUOUS
 62
     6
100
AcDbCircle
 10
37.075
 20
76.47500000000001
 30
0.0
 40
0.1
  0
CIRCLE
  5
16B
330
1F
100
AcDbEntity
  8
図
  6
CONTINUOUS
 62
     6
100
AcDbCircle
 10
37.075
 20
77.68499999999999
 30
0.0
 40
0.1
  0
CIRCLE
  5
16C
330
1F
100
AcDbEntity
  8
図
  6
CONTINUOUS
 62
     6
100
AcDbCircle
 10
33.04500000000002
 20
76.47500000000001
 30
0.0
 40
0.1
  0
CIRCLE
  5
16D
330
1F
100
AcDbEntity
  8
図
  6
CONTINUOUS
 62
     6
100
AcDbCircle
 10
33.04500000000002
 20
77.68499999999999
 30
0.0
 40
0.1
  0
CIRCLE
  5
16E
330
1F
100
AcDbEntity
  8
図
  6
CONTINUOUS
 62
     6
100
AcDbCircle
 10
34.16
 20
76.97500000000001
 30
0.0
 40
0.1
  0
CIRCLE
  5
16F
330
1F
100
AcDbEntity
  8
図
  6
CONTINUOUS
 62
     6
100
AcDbCircle
 10
36.06000000000002
 20
76.87499999999999
 30
0.0
 40
0.1
  0
CIRCLE
  5
170
330
1F
100
AcDbEntity
  8
図
  6
CONTINUOUS
 62
     6
100
AcDbCircle
 10
75.91000000000003
 20
76.27500000000002
 30
0.0
 40
0.1
  0
CIRCLE
  5
171
330
1F
100
AcDbEntity
  8
図
  6
CONTINUOUS
 62
     6
100
AcDbCircle
 10
75.91000000000003
 20
77.68499999999999
 30
0.0
 40
0.1
  0
CIRCLE
  5
172
330
1F
100
AcDbEntity
  8
図
  6
CONTINUOUS
 62
     6
100
AcDbCircle
 10
74.02500000000003
 20
76.47500000000001
 30
0.0
 40
0.1
  0
CIRCLE
  5
173
330
1F
100
AcDbEntity
  8
図
  6
CONTINUOUS
 62
     6
100
AcDbCircle
 10
74.02500000000003
 20
77.68499999999999
 30
0.0
 40
0.1
  0
CIRCLE
  5
174
330
1F
100
AcDbEntity
  8
図
  6
CONTINUOUS
 62
     6
100
AcDbCircle
 10
78.05500000000002
 20
76.47500000000001
 30
0.0
 40
0.1
  0
CIRCLE
  5
175
330
1F
100
AcDbEntity
  8
図
  6
CONTINUOUS
 62
     6
100
AcDbCircle
 10
78.05500000000002
 20
77.68499999999999
 30
0.0
 40
0.1
  0
CIRCLE
  5
176
330
1F
100
AcDbEntity
  8
図
  6
CONTINUOUS
 62
     6
100
AcDbCircle
 10
76.94000000000003
 20
76.97500000000001
 30
0.0
 40
0.1
  0
CIRCLE
  5
177
330
1F
100
AcDbEntity
  8
図
  6
CONTINUOUS
 62
     6
100
AcDbCircle
 10
75.04000000000002
 20
76.87499999999999
 30
0.0
 40
0.1
  0
LINE
  5
178
330
1F
100
AcDbEntity
  8
図
  6
EXLTYPE3
 62
     6
100
AcDbLine
 10
55.55
 20
85.0
 30
0.0
 11
55.55
 21
71.1
 31
0.0
  0
DIMENSION
  5
17A
330
1F
100
AcDbEntity
  8
寸法
  6
CONTINUOUS
 62
     3
100
AcDbDimension
  2
*D15
 10
72.05
 20
89.05
 30
0.0
 11
55.55
 21
90.22499999701976
 31
0.0
 70
   160
  1
%%c33
  3
ISO-25
100
AcDbAlignedDimension
 13
39.05
 23
81.05
 33
0.0
 14
72.05
 24
81.05
 34
0.0
100
AcDbRotatedDimension
1001
ACAD
1000
DSTYLE
1002
{
1070
   270
1070
     2
1070
     6
1000
EX_NORM
1070
     7
1000
EX_NORM
1070
    41
1040
1.5
1070
    42
1040
0.3499999940395355
1070
    44
1040
0.5
1070
    73
1070
     0
1070
    74
1070
     0
1070
    75
1070
     0
1070
    76
1070
     0
1070
    77
1070
     1
1070
    78
1070
     0
1070
   140
1040
2.0
1070
   147
1040
0.0
1070
   173
1070
     1
1070
   176
1070
     3
1070
   177
1070
     3
1070
   178
1070
     2
1070
   271
1070
     0
1070
   277
1070
     2
1070
   279
1070
     2
1070
   280
1070
     0
1070
   287
1070
     5
1070
   340
1005
179
1002
}
  0
DIMENSION
  5
188
330
1F
100
AcDbEntity
  8
寸法
  6
CONTINUOUS
 62
     3
100
AcDbDimension
  2
*D16
 10
78.15
 20
92.05
 30
0.0
 11
55.55000000000001
 21
93.22499999701976
 31
0.0
 70
   160
  1
%%c45.2
  3
ISO-25
100
AcDbAlignedDimension
 13
32.95
 23
82.55
 33
0.0
 14
78.15
 24
82.55
 34
0.0
100
AcDbRotatedDimension
1001
ACAD
1000
DSTYLE
1002
{
1070
   270
1070
     2
1070
     6
1000
EX_NORM
1070
     7
1000
EX_NORM
1070
    41
1040
1.5
1070
    42
1040
0.3499999940395355
1070
    44
1040
0.5
1070
    73
1070
     0
1070
    74
1070
     0
1070
    75
1070
     0
1070
    76
1070
     0
1070
    77
1070
     1
1070
    78
1070
     8
1070
   140
1040
2.0
1070
   147
1040
0.0
1070
   173
1070
     1
1070
   176
1070
     3
1070
   177
1070
     3
1070
   178
1070
     2
1070
   271
1070
     1
1070
   277
1070
     2
1070
   279
1070
     2
1070
   280
1070
     0
1070
   287
1070
     5
1070
   340
1005
179
1002
}
  0
DIMENSION
  5
195
330
1F
100
AcDbEntity
  8
寸法
  6
CONTINUOUS
 62
     3
100
AcDbDimension
  2
*D17
 10
79.55
 20
95.05
 30
0.0
 11
55.55
 21
96.22499999701976
 31
0.0
 70
   160
  1
%%c48
  3
ISO-25
100
AcDbAlignedDimension
 13
31.55
 23
82.55
 33
0.0
 14
79.55
 24
82.55
 34
0.0
100
AcDbRotatedDimension
1001
ACAD
1000
DSTYLE
1002
{
1070
   270
1070
     2
1070
     6
1000
EX_NORM
1070
     7
1000
EX_NORM
1070
    41
1040
1.5
1070
    42
1040
0.3499999940395355
1070
    44
1040
0.5
1070
    73
1070
     0
1070
    74
1070
     0
1070
    75
1070
     0
1070
    76
1070
     0
1070
    77
1070
     1
1070
    78
1070
     0
1070
   140
1040
2.0
1070
   147
1040
0.0
1070
   173
1070
     1
1070
   176
1070
     3
1070
   177
1070
     3
1070
   178
1070
     2
1070
   271
1070
     0
1070
   277
1070
     2
1070
   279
1070
     2
1070
   280
1070
     0
1070
   287
1070
     5
1070
   340
1005
179
1002
}
  0
DIMENSION
  5
1A2
330
1F
100
AcDbEntity
  8
寸法
  6
CONTINUOUS
 62
     3
100
AcDbDimension
  2
*D18
 10
73.05
 20
68.05
 30
0.0
 11
55.55
 21
69.22499999701976
 31
0.0
 70
   160
  1
%%c35
  3
ISO-25
100
AcDbAlignedDimension
 13
38.05
 23
75.05
 33
0.0
 14
73.05
 24
75.05
 34
0.0
100
AcDbRotatedDimension
1001
ACAD
1000
DSTYLE
1002
{
1070
   270
1070
     2
1070
     6
1000
EX_NORM
1070
     7
1000
EX_NORM
1070
    41
1040
1.5
1070
    42
1040
0.3499999940395355
1070
    44
1040
0.5
1070
    73
1070
     0
1070
    74
1070
     0
1070
    75
1070
     0
1070
    76
1070
     0
1070
    77
1070
     1
1070
    78
1070
     0
1070
   140
1040
2.0
1070
   147
1040
0.0
1070
   173
1070
     1
1070
   176
1070
     3
1070
   177
1070
     3
1070
   178
1070
     2
1070
   271
1070
     0
1070
   277
1070
     2
1070
   279
1070
     2
1070
   280
1070
     0
1070
   287
1070
     5
1070
   340
1005
179
1002
}
  0
DIMENSION
  5
1AF
330
1F
100
AcDbEntity
  8
寸法
  6
CONTINUOUS
 62
     3
100
AcDbDimension
  2
*D19
 10
25.55
 20
78.05
 30
0.0
 11
24.37500000298024
 21
80.3
 31
0.0
 70
   160
  3
ISO-25
100
AcDbAlignedDimension
 13
31.55
 23
82.55
 33
0.0
 14
31.55
 24
78.05
 34
0.0
 50
90.0
100
AcDbRotatedDimension
1001
ACAD
1000
DSTYLE
1002
{
1070
   270
1070
     2
1070
     6
1000
EX_NORM
1070
     7
1000
EX_NORM
1070
    41
1040
1.5
1070
    42
1040
0.3499999940395355
1070
    44
1040
0.5000000000000178
1070
    73
1070
     0
1070
    74
1070
     0
1070
    75
1070
     0
1070
    76
1070
     0
1070
    77
1070
     1
1070
    78
1070
     8
1070
   140
1040
2.0
1070
   147
1040
0.0
1070
   173
1070
     1
1070
   176
1070
     3
1070
   177
1070
     3
1070
   178
1070
     2
1070
   271
1070
     1
1070
   277
1070
     2
1070
   279
1070
     2
1070
   280
1070
     0
1070
   287
1070
     5
1070
   340
1005
179
1002
}
  0
DIMENSION
  5
1BC
330
1F
100
AcDbEntity
  8
寸法
  6
CONTINUOUS
 62
     3
100
AcDbDimension
  2
*D20
 10
28.55
 20
81.05
 30
0.0
 11
27.37500000298025
 21
79.54999999999998
 31
0.0
 70
   160
  3
ISO-25
100
AcDbAlignedDimension
 13
31.55
 23
78.05
 33
0.0
 14
32.95
 24
81.05
 34
0.0
 50
90.0
100
AcDbRotatedDimension
1001
ACAD
1000
DSTYLE
1002
{
1070
   270
1070
     2
1070
     6
1000
EX_NORM
1070
     7
1000
EX_NORM
1070
    41
1040
1.25
1070
    42
1040
0.3499999940395355
1070
    44
1040
0.5
1070
    73
1070
     0
1070
    74
1070
     0
1070
    75
1070
     0
1070
    76
1070
     0
1070
    77
1070
     1
1070
    78
1070
     0
1070
   140
1040
2.0
1070
   147
1040
0.0
1070
   173
1070
     1
1070
   176
1070
     3
1070
   177
1070
     3
1070
   178
1070
     2
1070
   271
1070
     0
1070
   277
1070
     2
1070
   279
1070
     2
1070
   280
1070
     0
1070
   287
1070
     5
1070
   340
1005
179
1002
}
  0
DIMENSION
  5
1C9
330
1F
100
AcDbEntity
  8
寸法
  6
CONTINUOUS
 62
     3
100
AcDbDimension
  2
*D21
 10
84.55
 20
75.05
 30
0.0
 11
83.37500000298023
 21
78.8
 31
0.0
 70
   160
  3
ISO-25
100
AcDbAlignedDimension
 13
79.55
 23
82.55
 33
0.0
 14
73.05
 24
75.05
 34
0.0
 50
90.0
100
AcDbRotatedDimension
1001
ACAD
1000
DSTYLE
1002
{
1070
   270
1070
     2
1070
     6
1000
EX_NORM
1070
     7
1000
EX_NORM
1070
    41
1040
1.5
1070
    42
1040
0.3499999940395355
1070
    44
1040
0.4999999999999858
1070
    73
1070
     0
1070
    74
1070
     0
1070
    75
1070
     0
1070
    76
1070
     0
1070
    77
1070
     1
1070
    78
1070
     8
1070
   140
1040
2.0
1070
   147
1040
0.0
1070
   173
1070
     1
1070
   176
1070
     3
1070
   177
1070
     3
1070
   178
1070
     2
1070
   271
1070
     1
1070
   277
1070
     2
1070
   279
1070
     2
1070
   280
1070
     0
1070
   287
1070
     5
1070
   340
1005
179
1002
}
  0
ENDSEC
  0
SECTION
  2
OBJECTS
  0
DICTIONARY
  5
C
330
0
100
AcDbDictionary
  3
ACAD_GROUP
350
D
  3
ACAD_LAYOUT
350
1A
  3
ACAD_MATERIAL
350
3B
  3
ACAD_MLEADERSTYLE
350
1F8
  3
ACAD_MLINESTYLE
350
17
  3
ACAD_PLOTSETTINGS
350
19
  3
ACAD_VISUALSTYLE
350
2A
  3
ACDBHEADERROUNDTRIPXREC
350
1D6
  3
ACDBVARIABLEDICTIONARY
350
1F6
  0
DICTIONARY
  5
D
102
{ACAD_REACTORS
330
C
102
}
330
C
100
AcDbDictionary
  0
DICTIONARY
  5
1A
102
{ACAD_REACTORS
330
C
102
}
330
C
100
AcDbDictionary
  0
DICTIONARY
  5
3B
102
{ACAD_REACTORS
330
C
102
}
330
C
100
AcDbDictionary
  3
BYBLOCK
350
3D
  3
BYLAYER
350
3C
  3
GLOBAL
350
3E
  0
DICTIONARY
  5
1F8
102
{ACAD_REACTORS
330
C
102
}
330
C
100
AcDbDictionary
  0
DICTIONARY
  5
17
102
{ACAD_REACTORS
330
C
102
}
330
C
100
AcDbDictionary
  3
STANDARD
350
18
  0
DICTIONARY
  5
19
102
{ACAD_REACTORS
330
C
102
}
330
C
100
AcDbDictionary
  0
DICTIONARY
  5
2A
102
{ACAD_REACTORS
330
C
102
}
330
C
100
AcDbDictionary
  3
2DWIREFRAME
350
2F
  3
3D_HIDDEN
350
31
  3
3DWIREFRAME
350
30
  3
BASIC
350
32
  3
BRIGHTEN
350
36
  3
COLORCHANGE
350
3A
  3
CONCEPTUAL
350
34
  3
DIM
350
35
  3
FACEPATTERN
350
39
  3
FLAT
350
2B
  3
FLATWITHEDGES
350
2C
  3
GOURAUD
350
2D
  3
GOURAUDWITHEDGES
350
2E
  3
LINEPATTERN
350
38
  3
REALISTIC
350
33
  3
THICKEN
350
37
  0
DICTIONARY
  5
1D6
102
{ACAD_REACTORS
330
C
102
}
330
C
100
AcDbDictionary
  3
CEPSNTYPE
350
1DF
  3
DIMSTYLEDATA
350
1F5
  3
FINGERPRINTGUID
350
1E0
  3
HYPERLINKBASE
350
1D9
  3
INSUNITS
350
1DE
  3
LAYOUTDICT
350
1DB
  3
LWETCUNION
350
1DD
  3
PLOTSETDICT
350
1DC
  3
PSVPSCALE
350
1E2
  3
PUCSBASE
350
1E5
  3
PUCSORGBACK
350
1EB
  3
PUCSORGBOTTOM
350
1E7
  3
PUCSORGFRONT
350
1EA
  3
PUCSORGLEFT
350
1E8
  3
PUCSORGRIGHT
350
1E9
  3
PUCSORGTOP
350
1E6
  3
PUCSORTHOREF
350
1E3
  3
PUCSORTHOVIEW
350
1E4
  3
STYLESHEET
350
1DA
  3
TSTACKALIGN
350
1D7
  3
TSTACKSIZE
350
1D8
  3
UCSBASE
350
1EE
  3
UCSORGBACK
350
1F4
  3
UCSORGBOTTOM
350
1F0
  3
UCSORGFRONT
350
1F3
  3
UCSORGLEFT
350
1F1
  3
UCSORGRIGHT
350
1F2
  3
UCSORGTOP
350
1EF
  3
UCSORTHOREF
350
1EC
  3
UCSORTHOVIEW
350
1ED
  3
VERSIONGUID
350
1E1
  0
DICTIONARY
  5
1F6
102
{ACAD_REACTORS
330
C
102
}
330
C
100
AcDbDictionary
  3
DIMASSOC
350
1FB
  3
HIDETEXT
350
1FC
  3
PSOLHEIGHT
350
1FA
  3
PSOLWIDTH
350
1F9
  0
MATERIAL
  5
3D
102
{ACAD_REACTORS
330
3B
102
}
102
{ACAD_XDICTIONARY
360
1FF
102
}
330
3B
100
AcDbMaterial
  1
ByBlock
  0
MATERIAL
  5
3C
102
{ACAD_REACTORS
330
3B
102
}
102
{ACAD_XDICTIONARY
360
1FD
102
}
330
3B
100
AcDbMaterial
  1
ByLayer
  0
MATERIAL
  5
3E
102
{ACAD_REACTORS
330
3B
102
}
102
{ACAD_XDICTIONARY
360
201
102
}
330
3B
100
AcDbMaterial
  1
Global
  0
MLINESTYLE
  5
18
102
{ACAD_REACTORS
330
17
102
}
330
17
100
AcDbMlineStyle
  2
Standard
 70
     0
  3

 62
   256
 51
90.0
 52
90.0
 71
     2
 49
0.5
 62
   256
  6
BYLAYER
 49
-0.5
 62
   256
  6
BYLAYER
  0
ACAD_PROXY_OBJECT
  5
2F
102
{ACAD_REACTORS
330
2A
102
}
330
2A
100
AcDbProxyObject
 90
      499
 91
      501
 93
      436
310
42CC9915DA5C99599C985B595049028333333333333E3BF0000000000000FB0107901411070040501600405405064090741402480A0340
1001
ACAD
1000
AcDbSavedByObjectVersion
1070
     0
  0
ACAD_PROXY_OBJECT
  5
31
102
{ACAD_REACTORS
330
2A
102
}
330
2A
100
AcDbProxyObject
 90
      499
 91
      501
 93
      500
310
424CD108121A5919195B90640502408333333333333E3BF0000000000000FB01079024090700405020000000000001110200405405064090740C02480A0340
1001
ACAD
1000
AcDbSavedByObjectVersion
1070
     0
  0
ACAD_PROXY_OBJECT
  5
30
102
{ACAD_REACTORS
330
2A
102
}
330
2A
100
AcDbProxyObject
 90
      499
 91
      501
 93
      436
310
42CCD915DA5C99599C985B595059028333333333333E3BF0000000000000FB0107901411070040501600405405064090741402480A0340
1001
ACAD
1000
AcDbSavedByObjectVersion
1070
     0
  0
ACAD_PROXY_OBJECT
  5
32
102
{ACAD_REACTORS
330
2A
102
}
330
2A
100
AcDbProxyObject
 90
      499
 91
      501
 93
      388
310
4150985CDA58D07406404333333333333E3BF0000000000000FB0107A41107004050150841D405064090741402480A0350
1001
ACAD
1000
AcDbSavedByObjectVersion
1070
     0
  0
ACAD_PROXY_OBJECT
  5
36
102
{ACAD_REACTORS
330
2A
102
}
330
2A
100
AcDbProxyObject
 90
      499
 91
      501
 93
      428
310
42109C9A59DA1D195B90C409028333333333333E3BF0000000000000FB010790141107004050150841D405064090741402480A029950
1001
ACAD
1000
AcDbSavedByObjectVersion
1070
     0
  0
ACAD_PROXY_OBJECT
  5
3A
102
{ACAD_REACTORS
330
2A
102
}
330
2A
100
AcDbProxyObject
 90
      499
 91
      501
 93
      452
310
42D0DBDB1BDC90DA185B99D95104090240C333333333333E3BF0000000000000FB0108901411070040501508421405064090741402480A0350
1001
ACAD
1000
AcDbSavedByObjectVersion
1070
     0
  0
ACAD_PROXY_OBJECT
  5
34
102
{ACAD_REACTORS
330
2A
102
}
330
2A
100
AcDbProxyObject
 90
      499
 91
      501
 93
      500
310
4290DBDB98D95C1D1D585B10940D028333333333333E3BF0000000000000FB0107902409070040501000000000000111010841D405064090740C02480A0340
1001
ACAD
1000
AcDbSavedByObjectVersion
1070
     0
  0
ACAD_PROXY_OBJECT
  5
35
102
{ACAD_REACTORS
330
2A
102
}
330
2A
100
AcDbProxyObject
 90
      499
 91
      501
 93
      412
310
40D11A5B50B409028333333333333E3BF0000000000000FB010790141107004050150841D405064090741402480A02677FFFFFD0
1001
ACAD
1000
AcDbSavedByObjectVersion
1070
     0
  0
ACAD_PROXY_OBJECT
  5
39
102
{ACAD_REACTORS
330
2A
102
}
330
2A
100
AcDbProxyObject
 90
      499
 91
      501
 93
      444
310
42D19858D95C185D1D195C9B90F409028333333333333E3BF0000000000000FB010790141107004050150841D405064090741402480A0350
1001
ACAD
1000
AcDbSavedByObjectVersion
1070
     0
  0
ACAD_PROXY_OBJECT
  5
2B
102
{ACAD_REACTORS
330
2A
102
}
330
2A
100
AcDbProxyObject
 90
      499
 91
      501
 93
      388
310
41119B185D240901404333333333333E3BF0000000000000F9010740A41107004050150841D405064090741402480A1B50
1001
ACAD
1000
AcDbSavedByObjectVersion
1070
     0
  0
ACAD_PROXY_OBJECT
  5
2C
102
{ACAD_REACTORS
330
2A
102
}
330
2A
100
AcDbProxyObject
 90
      499
 91
      501
 93
      476
310
43519B185D15DA5D1A115919D95CD0140901404333333333333E3BF0000000000000F9010740901411070040501600405405064090741402480A1B50
1001
ACAD
1000
AcDbSavedByObjectVersion
1070
     0
  0
ACAD_PROXY_OBJECT
  5
2D
102
{ACAD_REACTORS
330
2A
102
}
330
2A
100
AcDbProxyObject
 90
      499
 91
      501
 93
      412
310
41D1DBDD5C985D5910240902404333333333333E3BF0000000000000F9010740A411070040501641D405064090741402480A1B50
1001
ACAD
1000
AcDbSavedByObjectVersion
1070
     0
  0
ACAD_PROXY_OBJECT
  5
2E
102
{ACAD_REACTORS
330
2A
102
}
330
2A
100
AcDbProxyObject
 90
      499
 91
      501
 93
      500
310
4411DBDD5C985D5915DA5D1A115919D95CD0340902404333333333333E3BF0000000000000F9010740901411070040501600405405064090741402480A1B50
1001
ACAD
1000
AcDbSavedByObjectVersion
1070
     0
  0
ACAD_PROXY_OBJECT
  5
38
102
{ACAD_REACTORS
330
2A
102
}
330
2A
100
AcDbProxyObject
 90
      499
 91
      501
 93
      444
310
42D31A5B995C185D1D195C9B90E409028333333333333E3BF0000000000000FB010790141107004050750841D405064090741402483A0350
1001
ACAD
1000
AcDbSavedByObjectVersion
1070
     0
  0
ACAD_PROXY_OBJECT
  5
33
102
{ACAD_REACTORS
330
2A
102
}
330
2A
100
AcDbProxyObject
 90
      499
 91
      501
 93
      420
310
425499585B1A5CDD1A58D08409028333333333333E3BF0000000000000FB01079019070040501508421405064090741402480A1B40
1001
ACAD
1000
AcDbSavedByObjectVersion
1070
     0
  0
ACAD_PROXY_OBJECT
  5
37
102
{ACAD_REACTORS
330
2A
102
}
330
2A
100
AcDbProxyObject
 90
      499
 91
      501
 93
      412
310
41D51A1A58DAD95B90D409028333333333333E3BF0000000000000FB010790141107004050150C41D405064090741402480A0350
1001
ACAD
1000
AcDbSavedByObjectVersion
1070
     0
  0
XRECORD
  5
1DF
102
{ACAD_REACTORS
330
1D6
102
}
330
1D6
100
AcDbXrecord
 90
        0
  0
XRECORD
  5
1F5
102
{ACAD_REACTORS
330
1D6
102
}
330
1D6
100
AcDbXrecord
1000
DSTYLE
1002
{
1070
   340
340
11
1002
}
  0
XRECORD
  5
1E0
102
{ACAD_REACTORS
330
1D6
102
}
330
1D6
100
AcDbXrecord
  1
{8C268BE7-5AB1-4D94-9E43-7B4AD9BB0A39}
  0
XRECORD
  5
1D9
102
{ACAD_REACTORS
330
1D6
102
}
330
1D6
100
AcDbXrecord
  1

  0
XRECORD
  5
1DE
102
{ACAD_REACTORS
330
1D6
102
}
330
1D6
100
AcDbXrecord
 90
        4
  0
XRECORD
  5
1DB
102
{ACAD_REACTORS
330
1D6
102
}
330
1D6
100
AcDbXrecord
340
1A
  0
XRECORD
  5
1DD
102
{ACAD_REACTORS
330
1D6
102
}
330
1D6
100
AcDbXrecord
 90
    10781
  0
XRECORD
  5
1DC
102
{ACAD_REACTORS
330
1D6
102
}
330
1D6
100
AcDbXrecord
340
19
  0
XRECORD
  5
1E2
102
{ACAD_REACTORS
330
1D6
102
}
330
1D6
100
AcDbXrecord
 40
0.0
  0
XRECORD
  5
1E5
102
{ACAD_REACTORS
330
1D6
102
}
330
1D6
100
AcDbXrecord
340
0
  0
XRECORD
  5
1EB
102
{ACAD_REACTORS
330
1D6
102
}
330
1D6
100
AcDbXrecord
 10
0.0
 20
0.0
 30
0.0
  0
XRECORD
  5
1E7
102
{ACAD_REACTORS
330
1D6
102
}
330
1D6
100
AcDbXrecord
 10
0.0
 20
0.0
 30
0.0
  0
XRECORD
  5
1EA
102
{ACAD_REACTORS
330
1D6
102
}
330
1D6
100
AcDbXrecord
 10
0.0
 20
0.0
 30
0.0
  0
XRECORD
  5
1E8
102
{ACAD_REACTORS
330
1D6
102
}
330
1D6
100
AcDbXrecord
 10
0.0
 20
0.0
 30
0.0
  0
XRECORD
  5
1E9
102
{ACAD_REACTORS
330
1D6
102
}
330
1D6
100
AcDbXrecord
 10
0.0
 20
0.0
 30
0.0
  0
XRECORD
  5
1E6
102
{ACAD_REACTORS
330
1D6
102
}
330
1D6
100
AcDbXrecord
 10
0.0
 20
0.0
 30
0.0
  0
XRECORD
  5
1E3
102
{ACAD_REACTORS
330
1D6
102
}
330
1D6
100
AcDbXrecord
340
0
  0
XRECORD
  5
1E4
102
{ACAD_REACTORS
330
1D6
102
}
330
1D6
100
AcDbXrecord
 70
     0
  0
XRECORD
  5
1DA
102
{ACAD_REACTORS
330
1D6
102
}
330
1D6
100
AcDbXrecord
  1

  0
XRECORD
  5
1D7
102
{ACAD_REACTORS
330
1D6
102
}
330
1D6
100
AcDbXrecord
 90
        1
  0
XRECORD
  5
1D8
102
{ACAD_REACTORS
330
1D6
102
}
330
1D6
100
AcDbXrecord
 90
       70
  0
XRECORD
  5
1EE
102
{ACAD_REACTORS
330
1D6
102
}
330
1D6
100
AcDbXrecord
340
0
  0
XRECORD
  5
1F4
102
{ACAD_REACTORS
330
1D6
102
}
330
1D6
100
AcDbXrecord
 10
0.0
 20
0.0
 30
0.0
  0
XRECORD
  5
1F0
102
{ACAD_REACTORS
330
1D6
102
}
330
1D6
100
AcDbXrecord
 10
0.0
 20
0.0
 30
0.0
  0
XRECORD
  5
1F3
102
{ACAD_REACTORS
330
1D6
102
}
330
1D6
100
AcDbXrecord
 10
0.0
 20
0.0
 30
0.0
  0
XRECORD
  5
1F1
102
{ACAD_REACTORS
330
1D6
102
}
330
1D6
100
AcDbXrecord
 10
0.0
 20
0.0
 30
0.0
  0
XRECORD
  5
1F2
102
{ACAD_REACTORS
330
1D6
102
}
330
1D6
100
AcDbXrecord
 10
0.0
 20
0.0
 30
0.0
  0
XRECORD
  5
1EF
102
{ACAD_REACTORS
330
1D6
102
}
330
1D6
100
AcDbXrecord
 10
0.0
 20
0.0
 30
0.0
  0
XRECORD
  5
1EC
102
{ACAD_REACTORS
330
1D6
102
}
330
1D6
100
AcDbXrecord
340
0
  0
XRECORD
  5
1ED
102
{ACAD_REACTORS
330
1D6
102
}
330
1D6
100
AcDbXrecord
 70
     0
  0
XRECORD
  5
1E1
102
{ACAD_REACTORS
330
1D6
102
}
330
1D6
100
AcDbXrecord
  1
{FAEB1C32-E019-11D5-929B-00C0DF256EC4}
  0
DICTIONARYVAR
  5
1FB
102
{ACAD_REACTORS
330
1F6
102
}
330
1F6
100
DictionaryVariables
280
     0
  1
2
  0
DICTIONARYVAR
  5
1FC
102
{ACAD_REACTORS
330
1F6
102
}
330
1F6
100
DictionaryVariables
280
     0
  1
1
  0
DICTIONARYVAR
  5
1FA
102
{ACAD_REACTORS
330
1F6
102
}
330
1F6
100
DictionaryVariables
280
     0
  1
80.000000
  0
DICTIONARYVAR
  5
1F9
102
{ACAD_REACTORS
330
1F6
102
}
330
1F6
100
DictionaryVariables
280
     0
  1
5.000000
  0
DICTIONARY
  5
1FF
330
3D
100
AcDbDictionary
280
     1
  3
ACAD_XREC_ROUNDTRIP
360
200
  0
DICTIONARY
  5
1FD
330
3C
100
AcDbDictionary
280
     1
  3
ACAD_XREC_ROUNDTRIP
360
1FE
  0
DICTIONARY
  5
201
330
3E
100
AcDbDictionary
280
     1
  3
ACAD_XREC_ROUNDTRIP
360
202
  0
XRECORD
  5
200
102
{ACAD_REACTORS
330
1FF
102
}
330
1FF
100
AcDbXrecord
102
MATERIAL
148
0.0
149
0.0
149
0.0
 93
        0
 94
      127
282
     0
 72
     1
 77
     1
171
     1
175
     1
179
     1
273
     0
  0
XRECORD
  5
1FE
102
{ACAD_REACTORS
330
1FD
102
}
330
1FD
100
AcDbXrecord
102
MATERIAL
148
0.0
149
0.0
149
0.0
 93
        0
 94
      127
282
     0
 72
     1
 77
     1
171
     1
175
     1
179
     1
273
     0
  0
XRECORD
  5
202
102
{ACAD_REACTORS
330
201
102
}
330
201
100
AcDbXrecord
102
MATERIAL
148
0.0
149
0.0
149
0.0
 93
        0
 94
      127
282
     0
 72
     1
 77
     1
171
     1
175
     1
179
     1
273
     0
  0
ENDSEC
  0
EOF
