  0
SECTION
  2
HEADER
  9
$ACADVER
  1
AC1014
  9
$ACADMAINTVER
 70
     0
  9
$DWGCODEPAGE
  3
ANSI_932
  9
$INSBASE
 10
0.0
 20
0.0
 30
0.0
  9
$EXTMIN
 10
12.1
 20
11.0
 30
0.0
  9
$EXTMAX
 10
417.0
 20
283.4
 30
0.0
  9
$LIMMIN
 10
0.0
 20
0.0
  9
$LIMMAX
 10
420.0
 20
297.0
  9
$ORTHOMODE
 70
     0
  9
$REGENMODE
 70
     1
  9
$FILLMODE
 70
     1
  9
$QTEXTMODE
 70
     0
  9
$MIRRTEXT
 70
     1
  9
$DRAGMODE
 70
     2
  9
$LTSCALE
 40
1.0
  9
$OSMODE
 70
     0
  9
$ATTMODE
 70
     1
  9
$TEXTSIZE
 40
0.2
  9
$TRACEWID
 40
0.05
  9
$TEXTSTYLE
  7
STANDARD
  9
$CLAYER
  8
図
  9
$CELTYPE
  6
CONTINUOUS
  9
$CECOLOR
 62
   256
  9
$CELTSCALE
 40
1.0
  9
$DELOBJ
 70
     1
  9
$DISPSILH
 70
     0
  9
$DIMSCALE
 40
1.0
  9
$DIMASZ
 40
0.18
  9
$DIMEXO
 40
0.0625
  9
$DIMDLI
 40
0.38
  9
$DIMRND
 40
0.0
  9
$DIMDLE
 40
0.0
  9
$DIMEXE
 40
0.18
  9
$DIMTP
 40
0.0
  9
$DIMTM
 40
0.0
  9
$DIMTXT
 40
0.18
  9
$DIMCEN
 40
0.09
  9
$DIMTSZ
 40
0.0
  9
$DIMTOL
 70
     0
  9
$DIMLIM
 70
     0
  9
$DIMTIH
 70
     1
  9
$DIMTOH
 70
     1
  9
$DIMSE1
 70
     0
  9
$DIMSE2
 70
     0
  9
$DIMTAD
 70
     0
  9
$DIMZIN
 70
     0
  9
$DIMBLK
  1

  9
$DIMASO
 70
     1
  9
$DIMSHO
 70
     1
  9
$DIMPOST
  1

  9
$DIMAPOST
  1

  9
$DIMALT
 70
     0
  9
$DIMALTD
 70
     2
  9
$DIMALTF
 40
25.4
  9
$DIMLFAC
 40
1.0
  9
$DIMTOFL
 70
     0
  9
$DIMTVP
 40
0.0
  9
$DIMTIX
 70
     0
  9
$DIMSOXD
 70
     0
  9
$DIMSAH
 70
     0
  9
$DIMBLK1
  1

  9
$DIMBLK2
  1

  9
$DIMSTYLE
  2
STANDARD
  9
$DIMCLRD
 70
     0
  9
$DIMCLRE
 70
     0
  9
$DIMCLRT
 70
     0
  9
$DIMTFAC
 40
1.0
  9
$DIMGAP
 40
0.09
  9
$DIMJUST
 70
     0
  9
$DIMSD1
 70
     0
  9
$DIMSD2
 70
     0
  9
$DIMTOLJ
 70
     1
  9
$DIMTZIN
 70
     0
  9
$DIMALTZ
 70
     0
  9
$DIMALTTZ
 70
     0
  9
$DIMFIT
 70
     3
  9
$DIMUPT
 70
     0
  9
$DIMUNIT
 70
     2
  9
$DIMDEC
 70
     4
  9
$DIMTDEC
 70
     4
  9
$DIMALTU
 70
     2
  9
$DIMALTTD
 70
     2
  9
$DIMTXSTY
  7
STANDARD
  9
$DIMAUNIT
 70
     0
  9
$LUNITS
 70
     2
  9
$LUPREC
 70
     4
  9
$SKETCHINC
 40
0.1
  9
$FILLETRAD
 40
0.0
  9
$AUNITS
 70
     0
  9
$AUPREC
 70
     0
  9
$MENU
  1
acad
  9
$ELEVATION
 40
0.0
  9
$PELEVATION
 40
0.0
  9
$THICKNESS
 40
0.0
  9
$LIMCHECK
 70
     0
  9
$BLIPMODE
 70
     1
  9
$CHAMFERA
 40
0.0
  9
$CHAMFERB
 40
0.0
  9
$CHAMFERC
 40
0.0
  9
$CHAMFERD
 40
0.0
  9
$SKPOLY
 70
     0
  9
$TDCREATE
 40
2454536.499269456
  9
$TDUPDATE
 40
2454536.499269456
  9
$TDINDWG
 40
0.0000000000
  9
$TDUSRTIMER
 40
0.0000000000
  9
$USRTIMER
 70
     1
  9
$ANGBASE
 50
0.0
  9
$ANGDIR
 70
     0
  9
$PDMODE
 70
     0
  9
$PDSIZE
 40
0.0
  9
$PLINEWID
 40
0.0
  9
$COORDS
 70
     1
  9
$SPLFRAME
 70
     0
  9
$SPLINETYPE
 70
     6
  9
$SPLINESEGS
 70
     8
  9
$ATTDIA
 70
     0
  9
$ATTREQ
 70
     1
  9
$HANDLING
 70
     1
  9
$HANDSEED
  5
55F
  9
$SURFTAB1
 70
     6
  9
$SURFTAB2
 70
     6
  9
$SURFTYPE
 70
     6
  9
$SURFU
 70
     6
  9
$SURFV
 70
     6
  9
$UCSNAME
  2

  9
$UCSORG
 10
0.0
 20
0.0
 30
0.0
  9
$UCSXDIR
 10
1.0
 20
0.0
 30
0.0
  9
$UCSYDIR
 10
0.0
 20
1.0
 30
0.0
  9
$PUCSNAME
  2

  9
$PUCSORG
 10
0.0
 20
0.0
 30
0.0
  9
$PUCSXDIR
 10
1.0
 20
0.0
 30
0.0
  9
$PUCSYDIR
 10
0.0
 20
1.0
 30
0.0
  9
$USERI1
 70
     0
  9
$USERI2
 70
     0
  9
$USERI3
 70
     0
  9
$USERI4
 70
     0
  9
$USERI5
 70
     0
  9
$USERR1
 40
0.0
  9
$USERR2
 40
0.0
  9
$USERR3
 40
0.0
  9
$USERR4
 40
0.0
  9
$USERR5
 40
0.0
  9
$WORLDVIEW
 70
     1
  9
$SHADEDGE
 70
     3
  9
$SHADEDIF
 70
    70
  9
$TILEMODE
 70
     1
  9
$MAXACTVP
 70
    16
  9
$PINSBASE
 10
0.0
 20
0.0
 30
0.0
  9
$PLIMCHECK
 70
     0
  9
$PEXTMIN
 10
1.000000E+20
 20
1.000000E+20
 30
1.000000E+20
  9
$PEXTMAX
 10
-1.000000E+20
 20
-1.000000E+20
 30
-1.000000E+20
  9
$PLIMMIN
 10
0.0
 20
0.0
  9
$PLIMMAX
 10
12.0
 20
9.0
  9
$UNITMODE
 70
     0
  9
$VISRETAIN
 70
     0
  9
$PLINEGEN
 70
     1
  9
$PSLTSCALE
 70
     0
  9
$TREEDEPTH
 70
  3020
  9
$PICKSTYLE
 70
     1
  9
$CMLSTYLE
  2
Standard
  9
$CMLJUST
 70
     0
  9
$CMLSCALE
 40
1.0
  9
$PROXYGRAPHICS
 70
     0
  9
$MEASUREMENT
 70
     0
  0
ENDSEC
  0
SECTION
  2
CLASSES
  0
CLASS
  1
LWPOLYLINE
  2
AcDbPolyline
  3
"AutoCAD"
 90
        0
280
     0
281
     1
  0
CLASS
  1
IMAGE
  2
AcDbRasterImage
  3
ISM
 90
      127
280
     0
281
     1
  0
CLASS
  1
OLE2FRAME
  2
AcDbOle2Frame
  3
""
 90
        0
280
     0
281
     1
  0
CLASS
  1
HATCH
  2
AcDbHatch
  3
"ACAD_SEDONA"
 90
        0
280
     0
281
     1
  0
CLASS
  1
DICTIONARYVAR
  2
AcDbDictionaryVar
  3
"AutoCAD"
 90
        0
280
     0
281
     0
  0
CLASS
  1
RASTERVARIABLES
  2
AcDbRasterVariables
  3
ISM
 90
        0
280
     0
281
     0
  0
CLASS
  1
IMAGEDEF
  2
AcDbRasterImageDef
  3
ISM
 90
        0
280
     0
281
     0
  0
CLASS
  1
IMAGEDEF_REACTOR
  2
AcDbRasterImageDefReactor
  3
ISM
 90
        1
280
     0
281
     0
  0
CLASS
  1
IDBUFFER
  2
AcDbIdBuffer
  3
"Acad"
 90
        0
280
     0
281
     0
  0
CLASS
  1
SPATIAL_FILTER
  2
AcDbSpatialFilter
  3
"Acad"
 90
        0
280
     0
281
     0
  0
CLASS
  1
XRECORD
  2
AcDbXrecord
  3
"<Built In>"
 90
        0
280
     0
281
     0
  0
CLASS
  1
SORTENTSTABLE
  2
AcDbSortentsTable
  3
"AutoCAD"
 90
        0
280
     0
281
     0
  0
CLASS
  1
LAYER_INDEX
  2
AcDbLayerIndex
  3
"Acad"
 90
        0
280
     0
281
     0
  0
CLASS
  1
SPATIAL_INDEX
  2
AcDbSpatialIndex
  3
"Acad"
 90
        0
280
     0
281
     0
  0
CLASS
  1
OBJECT_PTR
  2
CAseDLPNTableRecord
  3
"ASE-LPNTableRecord"
 90
        1
280
     0
281
     0
  0
CLASS
  1
LAYOUT
  2
AcDbLayout
  3
"AutoCAD 2000"
 90
        1
280
     0
281
     0
  0
CLASS
  1
PLOTSETTINGS
  2
AcDbPlotSettings
  3
"AutoCAD 2000"
 90
        1
280
     0
281
     0
  0
CLASS
  1
ACDBDICTIONARYWDFLT
  2
AcDbDictionaryWithDefault
  3
"AutoCAD 2000"
 90
        1
280
     0
281
     0
  0
CLASS
  1
ACDBPLACEHOLDER
  2
AcDbPlaceHolder
  3
"AutoCAD 2000"
 90
        1
280
     0
281
     0
  0
CLASS
  1
VBA_PROJECT
  2
AcDbVbaProject
  3
"acadvba"
 90
        1
280
     0
281
     0
  0
CLASS
  1
WIPEOUT
  2
AcDbWipeout
  3
WipeOut|AutoCAD Express Tool|expresstools@autodesk.com
 90
      127
280
     0
281
     1
  0
CLASS
  1
WIPEOUTVARIABLES
  2
AcDbWipeoutVariables
  3
WipeOut|AutoCAD Express Tool|expresstools@autodesk.com
 90
        0
280
     0
281
     0
  0
CLASS
  1
RTEXT
  2
RText
  3
RText|AutoCAD Express Tool|expresstools@autodesk.com
 90
        0
280
     0
281
     1
  0
CLASS
  1
ARCALIGNEDTEXT
  2
AcDbArcAlignedText
  3
ATEXT|AutoCAD Express Tool|expresstools@autodesk.com
 90
        0
280
     0
281
     1
  0
ENDSEC
  0
SECTION
  2
TABLES
  0
TABLE
  2
VPORT
  5
7
100
AcDbSymbolTable
 70
     1
  0
VPORT
  5
15
100
AcDbSymbolTableRecord
100
AcDbViewportTableRecord
  2
*ACTIVE
 70
     0
 10
0.0
 20
0.0
 11
1.0
 21
1.0
 12
1072.75
 22
736.0
 13
0.0
 23
0.0
 14
1.0
 24
1.0
 15
0.0
 25
0.0
 16
0.0
 26
0.0
 36
1.0
 17
0.0
 27
0.0
 37
0.0
 40
1362.0
 41
1.722533
 42
50.0
 43
0.0
 44
0.0
 50
0.0
 51
0.0
 71
     0
 72
   100
 73
     1
 74
     1
 75
     0
 76
     0
 77
     0
 78
     0
  0
ENDTAB
  0
TABLE
  2
LTYPE
  5
4
100
AcDbSymbolTable
 70
     9
  0
LTYPE
  5
11
100
AcDbSymbolTableRecord
100
AcDbLinetypeTableRecord
  2
BYBLOCK
 70
    64
  3

 72
    65
 73
     0
 40
0.0
  0
LTYPE
  5
12
100
AcDbSymbolTableRecord
100
AcDbLinetypeTableRecord
  2
BYLAYER
 70
    64
  3

 72
    65
 73
     0
 40
0.0
  0
LTYPE
  5
13
100
AcDbSymbolTableRecord
100
AcDbLinetypeTableRecord
  2
CONTINUOUS
 70
    64
  3
実線
 72
    65
 73
     0
 40
0.0
  0
LTYPE
  5
1D
100
AcDbSymbolTableRecord
100
AcDbLinetypeTableRecord
  2
EXLTYPE1
 70
    64
  3
破線
 72
    65
 73
     2
 40
3.0
 49
2.0
 74
     0
 49
-1.0
 74
     0
  0
LTYPE
  5
1E
100
AcDbSymbolTableRecord
100
AcDbLinetypeTableRecord
  2
EXLTYPE2
 70
    64
  3
点線
 72
    65
 73
     2
 40
2.0
 49
1.0
 74
     0
 49
-1.0
 74
     0
  0
LTYPE
  5
1F
100
AcDbSymbolTableRecord
100
AcDbLinetypeTableRecord
  2
EXLTYPE3
 70
    64
  3
一点鎖線
 72
    65
 73
     4
 40
10.0
 49
7.0
 74
     0
 49
-1.0
 74
     0
 49
1.0
 74
     0
 49
-1.0
 74
     0
  0
LTYPE
  5
20
100
AcDbSymbolTableRecord
100
AcDbLinetypeTableRecord
  2
EXLTYPE4
 70
    64
  3
二点鎖線
 72
    65
 73
     6
 40
12.0
 49
7.0
 74
     0
 49
-1.0
 74
     0
 49
1.0
 74
     0
 49
-1.0
 74
     0
 49
1.0
 74
     0
 49
-1.0
 74
     0
  0
LTYPE
  5
21
100
AcDbSymbolTableRecord
100
AcDbLinetypeTableRecord
  2
EXLTYPE5
 70
    64
  3
三点鎖線
 72
    65
 73
     8
 40
37.0
 49
30.0
 74
     0
 49
-1.0
 74
     0
 49
1.0
 74
     0
 49
-1.0
 74
     0
 49
1.0
 74
     0
 49
-1.0
 74
     0
 49
1.0
 74
     0
 49
-1.0
 74
     0
  0
LTYPE
  5
22
100
AcDbSymbolTableRecord
100
AcDbLinetypeTableRecord
  2
EXLTYPE6
 70
    64
  3
四点鎖線
 72
    65
 73
    10
 40
39.0
 49
30.0
 74
     0
 49
-1.0
 74
     0
 49
1.0
 74
     0
 49
-1.0
 74
     0
 49
1.0
 74
     0
 49
-1.0
 74
     0
 49
1.0
 74
     0
 49
-1.0
 74
     0
 49
1.0
 74
     0
 49
-1.0
 74
     0
  0
ENDTAB
  0
TABLE
  2
LAYER
  5
2
100
AcDbSymbolTable
 70
     4
  0
LAYER
  5
14
100
AcDbSymbolTableRecord
100
AcDbLayerTableRecord
  2
0
 70
     0
 62
     7
  6
CONTINUOUS
  0
LAYER
  5
25
100
AcDbSymbolTableRecord
100
AcDbLayerTableRecord
  2
図枠
 70
    64
 62
     7
  6
CONTINUOUS
  0
LAYER
  5
26
100
AcDbSymbolTableRecord
100
AcDbLayerTableRecord
  2
図
 70
    64
 62
     7
  6
CONTINUOUS
  0
LAYER
  5
27
100
AcDbSymbolTableRecord
100
AcDbLayerTableRecord
  2
寸法
 70
    64
 62
     7
  6
CONTINUOUS
  0
ENDTAB
  0
TABLE
  2
STYLE
  5
3
100
AcDbSymbolTable
 70
     5
  0
STYLE
  5
17
100
AcDbSymbolTableRecord
100
AcDbTextStyleTableRecord
  2
STANDARD
 70
     0
 40
0.0
 41
1.0
 50
0.0
 71
     0
 42
0.0
  3
monotxt
  4
extfont
  0
STYLE
  5
23
100
AcDbSymbolTableRecord
100
AcDbTextStyleTableRecord
  2
EXCADSTD
 70
    64
 40
0.0
 41
1.0
 50
0.0
 71
     0
 42
0.2
  3
monotxt
  4
extfont
  0
STYLE
  5
24
100
AcDbSymbolTableRecord
100
AcDbTextStyleTableRecord
  2
EXCADVERT
 70
    68
 40
0.0
 41
1.0
 50
0.0
 71
     0
 42
0.286885
  3
monotxt
  4
extfont
  0
STYLE
  5
425
100
AcDbSymbolTableRecord
100
AcDbTextStyleTableRecord
  2
EXCADDIM1
 70
    64
 40
0.0
 41
0.95
 50
0.0
 71
     0
 42
0.2
  3
monotxt
  4
extfont
  0
STYLE
  5
4A4
100
AcDbSymbolTableRecord
100
AcDbTextStyleTableRecord
  2
EXCADDIM2
 70
    64
 40
0.0
 41
0.84
 50
0.0
 71
     0
 42
0.2
  3
monotxt
  4
extfont
  0
ENDTAB
  0
TABLE
  2
VIEW
  5
5
100
AcDbSymbolTable
 70
     0
  0
ENDTAB
  0
TABLE
  2
UCS
  5
6
100
AcDbSymbolTable
 70
     0
  0
ENDTAB
  0
TABLE
  2
APPID
  5
8
100
AcDbSymbolTable
 70
     1
  0
APPID
  5
16
100
AcDbSymbolTableRecord
100
AcDbRegAppTableRecord
  2
ACAD
 70
     0
  0
ENDTAB
  0
TABLE
  2
DIMSTYLE
  5
9
100
AcDbSymbolTable
 70
     1
  0
DIMSTYLE
105
18
100
AcDbSymbolTableRecord
100
AcDbDimStyleTableRecord
  2
STANDARD
 70
     0
  3

  4

  5

  6

  7

 40
1.0
 41
0.18
 42
0.0625
 43
0.38
 44
0.18
 45
0.0
 46
0.0
 47
0.0
 48
0.0
 71
     0
 72
     0
 73
     1
 74
     1
 75
     0
 76
     0
 77
     0
 78
     0
140
0.18
141
0.09
142
0.0
143
25.4
144
1.0
145
0.0
146
1.0
147
0.09
170
     0
171
     2
172
     1
173
     0
174
     0
175
     0
176
     0
177
     0
178
     0
270
     2
271
     4
272
     4
273
     2
274
     2
275
     0
280
     0
281
     0
282
     0
283
     1
284
     0
285
     0
286
     0
287
     0
288
     0
340
17
  0
ENDTAB
  0
TABLE
  2
BLOCK_RECORD
  5
1
100
AcDbSymbolTable
 70
    35
  0
BLOCK_RECORD
  5
A
100
AcDbSymbolTableRecord
100
AcDbBlockTableRecord
  2
*MODEL_SPACE
  0
BLOCK_RECORD
  5
B
100
AcDbSymbolTableRecord
100
AcDbBlockTableRecord
  2
*PAPER_SPACE
  0
BLOCK_RECORD
  5
28
100
AcDbSymbolTableRecord
100
AcDbBlockTableRecord
  2
_EX_NORM
  0
BLOCK_RECORD
  5
29
100
AcDbSymbolTableRecord
100
AcDbBlockTableRecord
  2
_EX_BNORM
  0
BLOCK_RECORD
  5
2A
100
AcDbSymbolTableRecord
100
AcDbBlockTableRecord
  2
_EX_BCIR
  0
BLOCK_RECORD
  5
2B
100
AcDbSymbolTableRecord
100
AcDbBlockTableRecord
  2
_EX_RCIVIL
  0
BLOCK_RECORD
  5
2C
100
AcDbSymbolTableRecord
100
AcDbBlockTableRecord
  2
_EX_SLANT
  0
BLOCK_RECORD
  5
2D
100
AcDbSymbolTableRecord
100
AcDbBlockTableRecord
  2
_EX_NONE
  0
BLOCK_RECORD
  5
2E
100
AcDbSymbolTableRecord
100
AcDbBlockTableRecord
  2
_EX_CIVIL
  0
BLOCK_RECORD
  5
2F
100
AcDbSymbolTableRecord
100
AcDbBlockTableRecord
  2
_EX_WCIR
  0
BLOCK_RECORD
  5
30
100
AcDbSymbolTableRecord
100
AcDbBlockTableRecord
  2
_EX_WCIR2
  0
BLOCK_RECORD
  5
31
100
AcDbSymbolTableRecord
100
AcDbBlockTableRecord
  2
_EX_WNORM
  0
BLOCK_RECORD
  5
32
100
AcDbSymbolTableRecord
100
AcDbBlockTableRecord
  2
_EX_NNORM
  0
BLOCK_RECORD
  5
33
100
AcDbSymbolTableRecord
100
AcDbBlockTableRecord
  2
_EX_BBOX
  0
BLOCK_RECORD
  5
34
100
AcDbSymbolTableRecord
100
AcDbBlockTableRecord
  2
_EX_WBOX
  0
BLOCK_RECORD
  5
35
100
AcDbSymbolTableRecord
100
AcDbBlockTableRecord
  2
_EX_INTEGRAL
  0
BLOCK_RECORD
  5
41A
100
AcDbSymbolTableRecord
100
AcDbBlockTableRecord
  2
*D14
  0
BLOCK_RECORD
  5
439
100
AcDbSymbolTableRecord
100
AcDbBlockTableRecord
  2
*D15
  0
BLOCK_RECORD
  5
445
100
AcDbSymbolTableRecord
100
AcDbBlockTableRecord
  2
*D16
  0
BLOCK_RECORD
  5
451
100
AcDbSymbolTableRecord
100
AcDbBlockTableRecord
  2
*D17
  0
BLOCK_RECORD
  5
45D
100
AcDbSymbolTableRecord
100
AcDbBlockTableRecord
  2
*D18
  0
BLOCK_RECORD
  5
469
100
AcDbSymbolTableRecord
100
AcDbBlockTableRecord
  2
*D19
  0
BLOCK_RECORD
  5
475
100
AcDbSymbolTableRecord
100
AcDbBlockTableRecord
  2
*D20
  0
BLOCK_RECORD
  5
481
100
AcDbSymbolTableRecord
100
AcDbBlockTableRecord
  2
*D21
  0
BLOCK_RECORD
  5
48D
100
AcDbSymbolTableRecord
100
AcDbBlockTableRecord
  2
*D22
  0
BLOCK_RECORD
  5
499
100
AcDbSymbolTableRecord
100
AcDbBlockTableRecord
  2
*D23
  0
BLOCK_RECORD
  5
4A6
100
AcDbSymbolTableRecord
100
AcDbBlockTableRecord
  2
*D24
  0
BLOCK_RECORD
  5
4B2
100
AcDbSymbolTableRecord
100
AcDbBlockTableRecord
  2
*D25
  0
BLOCK_RECORD
  5
4D6
100
AcDbSymbolTableRecord
100
AcDbBlockTableRecord
  2
*D26
  0
BLOCK_RECORD
  5
4F5
100
AcDbSymbolTableRecord
100
AcDbBlockTableRecord
  2
*D27
  0
BLOCK_RECORD
  5
501
100
AcDbSymbolTableRecord
100
AcDbBlockTableRecord
  2
*D28
  0
BLOCK_RECORD
  5
50D
100
AcDbSymbolTableRecord
100
AcDbBlockTableRecord
  2
*D29
  0
BLOCK_RECORD
  5
519
100
AcDbSymbolTableRecord
100
AcDbBlockTableRecord
  2
*D30
  0
BLOCK_RECORD
  5
52C
100
AcDbSymbolTableRecord
100
AcDbBlockTableRecord
  2
*D31
  0
BLOCK_RECORD
  5
537
100
AcDbSymbolTableRecord
100
AcDbBlockTableRecord
  2
*D32
  0
BLOCK_RECORD
  5
540
100
AcDbSymbolTableRecord
100
AcDbBlockTableRecord
  2
*D33
  0
BLOCK_RECORD
  5
54E
100
AcDbSymbolTableRecord
100
AcDbBlockTableRecord
  2
*D34
  0
ENDTAB
  0
ENDSEC
  0
SECTION
  2
BLOCKS
  0
BLOCK
  5
D
100
AcDbEntity
  8
0
100
AcDbBlockBegin
  2
*MODEL_SPACE
 70
     0
 10
0.0
 20
0.0
 30
0.0
  3
*MODEL_SPACE
  1

  0
ENDBLK
  5
E
100
AcDbEntity
  8
0
100
AcDbBlockEnd
  0
BLOCK
  5
F
100
AcDbEntity
 67
     1
  8
0
100
AcDbBlockBegin
  2
*PAPER_SPACE
 70
     0
 10
0.0
 20
0.0
 30
0.0
  3
*PAPER_SPACE
  1

  0
ENDBLK
  5
10
100
AcDbEntity
 67
     1
  8
0
100
AcDbBlockEnd
  0
BLOCK
  5
36
100
AcDbEntity
  8
0
100
AcDbBlockBegin
  2
_EX_NORM
 70
     0
 10
0.0
 20
0.0
 30
0.0
  3
_EX_NORM
  1

  0
LINE
  5
37
100
AcDbEntity
  8
0
  6
CONTINUOUS
 62
     0
100
AcDbLine
 10
0.0
 20
0.0
 30
0.0
 11
-1.0
 21
0.0
 31
0.0
  0
LINE
  5
38
100
AcDbEntity
  8
0
  6
CONTINUOUS
 62
     0
100
AcDbLine
 10
0.0
 20
0.0
 30
0.0
 11
-1.0
 21
0.166667
 31
0.0
  0
LINE
  5
39
100
AcDbEntity
  8
0
  6
CONTINUOUS
 62
     0
100
AcDbLine
 10
0.0
 20
0.0
 30
0.0
 11
-1.0
 21
-0.166667
 31
0.0
  0
ENDBLK
  5
3A
100
AcDbEntity
  8
0
100
AcDbBlockEnd
  0
BLOCK
  5
3B
100
AcDbEntity
  8
0
100
AcDbBlockBegin
  2
_EX_BNORM
 70
     0
 10
0.0
 20
0.0
 30
0.0
  3
_EX_BNORM
  1

  0
LINE
  5
3C
100
AcDbEntity
  8
0
  6
CONTINUOUS
 62
     0
100
AcDbLine
 10
0.0
 20
0.0
 30
0.0
 11
-1.0
 21
0.0
 31
0.0
  0
LINE
  5
3D
100
AcDbEntity
  8
0
  6
CONTINUOUS
 62
     0
100
AcDbLine
 10
0.0
 20
0.0
 30
0.0
 11
-1.0
 21
0.166667
 31
0.0
  0
LINE
  5
3E
100
AcDbEntity
  8
0
  6
CONTINUOUS
 62
     0
100
AcDbLine
 10
0.0
 20
0.0
 30
0.0
 11
-1.0
 21
-0.166667
 31
0.0
  0
LINE
  5
3F
100
AcDbEntity
  8
0
  6
CONTINUOUS
 62
     0
100
AcDbLine
 10
0.0
 20
0.0
 30
0.0
 11
-1.0
 21
0.083333
 31
0.0
  0
LINE
  5
40
100
AcDbEntity
  8
0
  6
CONTINUOUS
 62
     0
100
AcDbLine
 10
0.0
 20
0.0
 30
0.0
 11
-1.0
 21
-0.083333
 31
0.0
  0
LINE
  5
41
100
AcDbEntity
  8
0
  6
CONTINUOUS
 62
     0
100
AcDbLine
 10
-1.0
 20
0.166667
 30
0.0
 11
-1.0
 21
-0.166667
 31
0.0
  0
ENDBLK
  5
42
100
AcDbEntity
  8
0
100
AcDbBlockEnd
  0
BLOCK
  5
43
100
AcDbEntity
  8
0
100
AcDbBlockBegin
  2
_EX_BCIR
 70
     0
 10
0.0
 20
0.0
 30
0.0
  3
_EX_BCIR
  1

  0
LINE
  5
44
100
AcDbEntity
  8
0
  6
CONTINUOUS
 62
     0
100
AcDbLine
 10
0.0
 20
0.0
 30
0.0
 11
-1.0
 21
0.0
 31
0.0
  0
CIRCLE
  5
45
100
AcDbEntity
  8
0
  6
CONTINUOUS
 62
     0
100
AcDbCircle
 10
0.0
 20
0.0
 30
0.0
 40
0.5
  0
CIRCLE
  5
46
100
AcDbEntity
  8
0
  6
CONTINUOUS
 62
     0
100
AcDbCircle
 10
0.0
 20
0.0
 30
0.0
 40
0.25
  0
ENDBLK
  5
47
100
AcDbEntity
  8
0
100
AcDbBlockEnd
  0
BLOCK
  5
48
100
AcDbEntity
  8
0
100
AcDbBlockBegin
  2
_EX_RCIVIL
 70
     0
 10
0.0
 20
0.0
 30
0.0
  3
_EX_RCIVIL
  1

  0
LINE
  5
49
100
AcDbEntity
  8
0
  6
CONTINUOUS
 62
     0
100
AcDbLine
 10
0.0
 20
0.0
 30
0.0
 11
-1.0
 21
0.0
 31
0.0
  0
LINE
  5
4A
100
AcDbEntity
  8
0
  6
CONTINUOUS
 62
     0
100
AcDbLine
 10
-1.0
 20
-0.25
 30
0.0
 11
0.0
 21
-0.25
 31
0.0
  0
LINE
  5
4B
100
AcDbEntity
  8
0
  6
CONTINUOUS
 62
     0
100
AcDbLine
 10
-1.0
 20
-0.125
 30
0.0
 11
0.0
 21
-0.125
 31
0.0
  0
ENDBLK
  5
4C
100
AcDbEntity
  8
0
100
AcDbBlockEnd
  0
BLOCK
  5
4D
100
AcDbEntity
  8
0
100
AcDbBlockBegin
  2
_EX_SLANT
 70
     0
 10
0.0
 20
0.0
 30
0.0
  3
_EX_SLANT
  1

  0
LINE
  5
4E
100
AcDbEntity
  8
0
  6
CONTINUOUS
 62
     0
100
AcDbLine
 10
0.0
 20
0.0
 30
0.0
 11
-1.0
 21
0.0
 31
0.0
  0
LINE
  5
4F
100
AcDbEntity
  8
0
  6
CONTINUOUS
 62
     0
100
AcDbLine
 10
0.707107
 20
0.707107
 30
0.0
 11
-0.707107
 21
-0.707107
 31
0.0
  0
ENDBLK
  5
50
100
AcDbEntity
  8
0
100
AcDbBlockEnd
  0
BLOCK
  5
51
100
AcDbEntity
  8
0
100
AcDbBlockBegin
  2
_EX_NONE
 70
     0
 10
0.0
 20
0.0
 30
0.0
  3
_EX_NONE
  1

  0
LINE
  5
52
100
AcDbEntity
  8
0
  6
CONTINUOUS
 62
     0
100
AcDbLine
 10
0.0
 20
0.0
 30
0.0
 11
-1.0
 21
0.0
 31
0.0
  0
ENDBLK
  5
53
100
AcDbEntity
  8
0
100
AcDbBlockEnd
  0
BLOCK
  5
54
100
AcDbEntity
  8
0
100
AcDbBlockBegin
  2
_EX_CIVIL
 70
     0
 10
0.0
 20
0.0
 30
0.0
  3
_EX_CIVIL
  1

  0
LINE
  5
55
100
AcDbEntity
  8
0
  6
CONTINUOUS
 62
     0
100
AcDbLine
 10
0.0
 20
0.0
 30
0.0
 11
-1.0
 21
0.0
 31
0.0
  0
LINE
  5
56
100
AcDbEntity
  8
0
  6
CONTINUOUS
 62
     0
100
AcDbLine
 10
-1.0
 20
0.25
 30
0.0
 11
0.0
 21
0.25
 31
0.0
  0
LINE
  5
57
100
AcDbEntity
  8
0
  6
CONTINUOUS
 62
     0
100
AcDbLine
 10
-1.0
 20
0.125
 30
0.0
 11
0.0
 21
0.125
 31
0.0
  0
ENDBLK
  5
58
100
AcDbEntity
  8
0
100
AcDbBlockEnd
  0
BLOCK
  5
59
100
AcDbEntity
  8
0
100
AcDbBlockBegin
  2
_EX_WCIR
 70
     0
 10
0.0
 20
0.0
 30
0.0
  3
_EX_WCIR
  1

  0
LINE
  5
5A
100
AcDbEntity
  8
0
  6
CONTINUOUS
 62
     0
100
AcDbLine
 10
0.0
 20
0.0
 30
0.0
 11
-1.0
 21
0.0
 31
0.0
  0
CIRCLE
  5
5B
100
AcDbEntity
  8
0
  6
CONTINUOUS
 62
     0
100
AcDbCircle
 10
0.0
 20
0.0
 30
0.0
 40
0.5
  0
ENDBLK
  5
5C
100
AcDbEntity
  8
0
100
AcDbBlockEnd
  0
BLOCK
  5
5D
100
AcDbEntity
  8
0
100
AcDbBlockBegin
  2
_EX_WCIR2
 70
     0
 10
0.0
 20
0.0
 30
0.0
  3
_EX_WCIR2
  1

  0
LINE
  5
5E
100
AcDbEntity
  8
0
  6
CONTINUOUS
 62
     0
100
AcDbLine
 10
-0.5
 20
0.0
 30
0.0
 11
-1.0
 21
0.0
 31
0.0
  0
CIRCLE
  5
5F
100
AcDbEntity
  8
0
  6
CONTINUOUS
 62
     0
100
AcDbCircle
 10
0.0
 20
0.0
 30
0.0
 40
0.5
  0
ENDBLK
  5
60
100
AcDbEntity
  8
0
100
AcDbBlockEnd
  0
BLOCK
  5
61
100
AcDbEntity
  8
0
100
AcDbBlockBegin
  2
_EX_WNORM
 70
     0
 10
0.0
 20
0.0
 30
0.0
  3
_EX_WNORM
  1

  0
LINE
  5
62
100
AcDbEntity
  8
0
  6
CONTINUOUS
 62
     0
100
AcDbLine
 10
-1.0
 20
0.0
 30
0.0
 11
-1.0
 21
0.0
 31
0.0
  0
LINE
  5
63
100
AcDbEntity
  8
0
  6
CONTINUOUS
 62
     0
100
AcDbLine
 10
0.0
 20
0.0
 30
0.0
 11
-1.0
 21
0.166667
 31
0.0
  0
LINE
  5
64
100
AcDbEntity
  8
0
  6
CONTINUOUS
 62
     0
100
AcDbLine
 10
0.0
 20
0.0
 30
0.0
 11
-1.0
 21
-0.166667
 31
0.0
  0
LINE
  5
65
100
AcDbEntity
  8
0
  6
CONTINUOUS
 62
     0
100
AcDbLine
 10
-1.0
 20
0.166667
 30
0.0
 11
-1.0
 21
-0.166667
 31
0.0
  0
ENDBLK
  5
66
100
AcDbEntity
  8
0
100
AcDbBlockEnd
  0
BLOCK
  5
67
100
AcDbEntity
  8
0
100
AcDbBlockBegin
  2
_EX_NNORM
 70
     0
 10
0.0
 20
0.0
 30
0.0
  3
_EX_NNORM
  1

  0
LINE
  5
68
100
AcDbEntity
  8
0
  6
CONTINUOUS
 62
     0
100
AcDbLine
 10
0.0
 20
0.0
 30
0.0
 11
-1.0
 21
0.0
 31
0.0
  0
LINE
  5
69
100
AcDbEntity
  8
0
  6
CONTINUOUS
 62
     0
100
AcDbLine
 10
0.0
 20
0.0
 30
0.0
 11
-1.0
 21
0.166667
 31
0.0
  0
LINE
  5
6A
100
AcDbEntity
  8
0
  6
CONTINUOUS
 62
     0
100
AcDbLine
 10
0.0
 20
0.0
 30
0.0
 11
-1.0
 21
-0.166667
 31
0.0
  0
LINE
  5
6B
100
AcDbEntity
  8
0
  6
CONTINUOUS
 62
     0
100
AcDbLine
 10
-1.0
 20
0.166667
 30
0.0
 11
-1.0
 21
-0.166667
 31
0.0
  0
ENDBLK
  5
6C
100
AcDbEntity
  8
0
100
AcDbBlockEnd
  0
BLOCK
  5
6D
100
AcDbEntity
  8
0
100
AcDbBlockBegin
  2
_EX_BBOX
 70
     0
 10
0.0
 20
0.0
 30
0.0
  3
_EX_BBOX
  1

  0
LINE
  5
6E
100
AcDbEntity
  8
0
  6
CONTINUOUS
 62
     0
100
AcDbLine
 10
0.0
 20
0.0
 30
0.0
 11
-1.0
 21
0.0
 31
0.0
  0
LINE
  5
6F
100
AcDbEntity
  8
0
  6
CONTINUOUS
 62
     0
100
AcDbLine
 10
-0.5
 20
0.5
 30
0.0
 11
0.5
 21
0.5
 31
0.0
  0
LINE
  5
70
100
AcDbEntity
  8
0
  6
CONTINUOUS
 62
     0
100
AcDbLine
 10
0.5
 20
0.5
 30
0.0
 11
0.5
 21
-0.5
 31
0.0
  0
LINE
  5
71
100
AcDbEntity
  8
0
  6
CONTINUOUS
 62
     0
100
AcDbLine
 10
0.5
 20
-0.5
 30
0.0
 11
-0.5
 21
-0.5
 31
0.0
  0
LINE
  5
72
100
AcDbEntity
  8
0
  6
CONTINUOUS
 62
     0
100
AcDbLine
 10
-0.5
 20
-0.5
 30
0.0
 11
-0.5
 21
0.5
 31
0.0
  0
LINE
  5
73
100
AcDbEntity
  8
0
  6
CONTINUOUS
 62
     0
100
AcDbLine
 10
-0.25
 20
0.25
 30
0.0
 11
0.25
 21
0.25
 31
0.0
  0
LINE
  5
74
100
AcDbEntity
  8
0
  6
CONTINUOUS
 62
     0
100
AcDbLine
 10
0.25
 20
0.25
 30
0.0
 11
0.25
 21
-0.25
 31
0.0
  0
LINE
  5
75
100
AcDbEntity
  8
0
  6
CONTINUOUS
 62
     0
100
AcDbLine
 10
0.25
 20
-0.25
 30
0.0
 11
-0.25
 21
-0.25
 31
0.0
  0
LINE
  5
76
100
AcDbEntity
  8
0
  6
CONTINUOUS
 62
     0
100
AcDbLine
 10
-0.25
 20
-0.25
 30
0.0
 11
-0.25
 21
0.25
 31
0.0
  0
ENDBLK
  5
77
100
AcDbEntity
  8
0
100
AcDbBlockEnd
  0
BLOCK
  5
78
100
AcDbEntity
  8
0
100
AcDbBlockBegin
  2
_EX_WBOX
 70
     0
 10
0.0
 20
0.0
 30
0.0
  3
_EX_WBOX
  1

  0
LINE
  5
79
100
AcDbEntity
  8
0
  6
CONTINUOUS
 62
     0
100
AcDbLine
 10
-0.5
 20
0.0
 30
0.0
 11
-1.0
 21
0.0
 31
0.0
  0
LINE
  5
7A
100
AcDbEntity
  8
0
  6
CONTINUOUS
 62
     0
100
AcDbLine
 10
-0.5
 20
0.5
 30
0.0
 11
0.5
 21
0.5
 31
0.0
  0
LINE
  5
7B
100
AcDbEntity
  8
0
  6
CONTINUOUS
 62
     0
100
AcDbLine
 10
0.5
 20
0.5
 30
0.0
 11
0.5
 21
-0.5
 31
0.0
  0
LINE
  5
7C
100
AcDbEntity
  8
0
  6
CONTINUOUS
 62
     0
100
AcDbLine
 10
0.5
 20
-0.5
 30
0.0
 11
-0.5
 21
-0.5
 31
0.0
  0
LINE
  5
7D
100
AcDbEntity
  8
0
  6
CONTINUOUS
 62
     0
100
AcDbLine
 10
-0.5
 20
-0.5
 30
0.0
 11
-0.5
 21
0.5
 31
0.0
  0
ENDBLK
  5
7E
100
AcDbEntity
  8
0
100
AcDbBlockEnd
  0
BLOCK
  5
7F
100
AcDbEntity
  8
0
100
AcDbBlockBegin
  2
_EX_INTEGRAL
 70
     0
 10
0.0
 20
0.0
 30
0.0
  3
_EX_INTEGRAL
  1

  0
LINE
  5
80
100
AcDbEntity
  8
0
  6
CONTINUOUS
 62
     0
100
AcDbLine
 10
0.0
 20
0.0
 30
0.0
 11
-1.0
 21
0.0
 31
0.0
  0
ARC
  5
81
100
AcDbEntity
  8
0
  6
CONTINUOUS
 62
     0
100
AcDbCircle
 10
0.542115
 20
0.164992
 30
0.0
 40
0.56667
100
AcDbArc
 50
73.07249
 51
196.927513
  0
ARC
  5
82
100
AcDbEntity
  8
0
  6
CONTINUOUS
 62
     0
100
AcDbCircle
 10
-0.542115
 20
-0.164992
 30
0.0
 40
0.56667
100
AcDbArc
 50
253.072487
 51
16.927513
  0
ENDBLK
  5
83
100
AcDbEntity
  8
0
100
AcDbBlockEnd
  0
BLOCK
  5
41B
100
AcDbEntity
  8
0
100
AcDbBlockBegin
  2
*D14
 70
    65
 10
0.0
 20
0.0
 30
0.0
  3
*D14
  1

  0
LINE
  5
41C
100
AcDbEntity
  8
寸法
  6
CONTINUOUS
 62
     3
100
AcDbLine
 10
1622.601106
 20
734.604698
 30
0.0
 11
1622.601106
 21
806.104698
 31
0.0
  0
LINE
  5
41D
100
AcDbEntity
  8
寸法
  6
CONTINUOUS
 62
     3
100
AcDbLine
 10
1683.601106
 20
734.604698
 30
0.0
 11
1683.601106
 21
806.104698
 31
0.0
  0
TEXT
  5
41E
100
AcDbEntity
  8
寸法
  6
CONTINUOUS
 62
     2
100
AcDbText
 10
1628.111106
 20
797.854698
 30
0.0
 40
20.0
  1
%%c61
 41
0.945
  7
EXCADSTD
 72
     1
 11
1653.101106
 21
797.854698
 31
0.0
100
AcDbText
  0
LINE
  5
41F
100
AcDbEntity
  8
寸法
  6
CONTINUOUS
 62
     3
100
AcDbLine
 10
1622.601106
 20
796.104698
 30
0.0
 11
1683.601106
 21
796.104698
 31
0.0
  0
LINE
  5
420
100
AcDbEntity
  8
寸法
  6
CONTINUOUS
 62
     3
100
AcDbLine
 10
1640.101106
 20
799.021365
 30
0.0
 11
1622.601106
 21
796.104698
 31
0.0
  0
LINE
  5
421
100
AcDbEntity
  8
寸法
  6
CONTINUOUS
 62
     3
100
AcDbLine
 10
1622.601106
 20
796.104698
 30
0.0
 11
1640.101106
 21
793.188032
 31
0.0
  0
LINE
  5
422
100
AcDbEntity
  8
寸法
  6
CONTINUOUS
 62
     3
100
AcDbLine
 10
1666.101106
 20
793.188032
 30
0.0
 11
1683.601106
 21
796.104698
 31
0.0
  0
LINE
  5
423
100
AcDbEntity
  8
寸法
  6
CONTINUOUS
 62
     3
100
AcDbLine
 10
1683.601106
 20
796.104698
 30
0.0
 11
1666.101106
 21
799.021365
 31
0.0
  0
ENDBLK
  5
424
100
AcDbEntity
  8
0
100
AcDbBlockEnd
  0
BLOCK
  5
43A
100
AcDbEntity
  8
0
100
AcDbBlockBegin
  2
*D15
 70
    65
 10
0.0
 20
0.0
 30
0.0
  3
*D15
  1

  0
LINE
  5
43B
100
AcDbEntity
  8
寸法
  6
CONTINUOUS
 62
     3
100
AcDbLine
 10
1267.0
 20
890.604698
 30
0.0
 11
1267.0
 21
906.104698
 31
0.0
  0
LINE
  5
43C
100
AcDbEntity
  8
寸法
  6
CONTINUOUS
 62
     3
100
AcDbLine
 10
1287.0
 20
890.604698
 30
0.0
 11
1287.0
 21
906.104698
 31
0.0
  0
TEXT
  5
43D
100
AcDbEntity
  8
寸法
  6
CONTINUOUS
 62
     2
100
AcDbText
 10
1260.2
 20
902.604698
 30
0.0
 40
20.0
  1
20
 41
0.945
  7
EXCADSTD
 72
     1
 11
1277.0
 21
902.604698
 31
0.0
100
AcDbText
  0
LINE
  5
43E
100
AcDbEntity
  8
寸法
  6
CONTINUOUS
 62
     3
100
AcDbLine
 10
1252.0
 20
901.104698
 30
0.0
 11
1302.0
 21
901.104698
 31
0.0
  0
LINE
  5
43F
100
AcDbEntity
  8
寸法
  6
CONTINUOUS
 62
     3
100
AcDbLine
 10
1252.0
 20
898.604698
 30
0.0
 11
1267.0
 21
901.104698
 31
0.0
  0
LINE
  5
440
100
AcDbEntity
  8
寸法
  6
CONTINUOUS
 62
     3
100
AcDbLine
 10
1267.0
 20
901.104698
 30
0.0
 11
1252.0
 21
903.604698
 31
0.0
  0
LINE
  5
441
100
AcDbEntity
  8
寸法
  6
CONTINUOUS
 62
     3
100
AcDbLine
 10
1302.0
 20
903.604698
 30
0.0
 11
1287.0
 21
901.104698
 31
0.0
  0
LINE
  5
442
100
AcDbEntity
  8
寸法
  6
CONTINUOUS
 62
     3
100
AcDbLine
 10
1287.0
 20
901.104698
 30
0.0
 11
1302.0
 21
898.604698
 31
0.0
  0
ENDBLK
  5
443
100
AcDbEntity
  8
0
100
AcDbBlockEnd
  0
BLOCK
  5
446
100
AcDbEntity
  8
0
100
AcDbBlockBegin
  2
*D16
 70
    65
 10
0.0
 20
0.0
 30
0.0
  3
*D16
  1

  0
LINE
  5
447
100
AcDbEntity
  8
寸法
  6
CONTINUOUS
 62
     3
100
AcDbLine
 10
393.601106
 20
1319.604698
 30
0.0
 11
393.601106
 21
1367.104698
 31
0.0
  0
LINE
  5
448
100
AcDbEntity
  8
寸法
  6
CONTINUOUS
 62
     3
100
AcDbLine
 10
748.601106
 20
1319.604698
 30
0.0
 11
748.601106
 21
1367.104698
 31
0.0
  0
TEXT
  5
449
100
AcDbEntity
  8
寸法
  6
CONTINUOUS
 62
     2
100
AcDbText
 10
546.951106
 20
1358.854698
 30
0.0
 40
20.0
  1
355
 41
0.945
  7
EXCADSTD
 72
     1
 11
571.101106
 21
1358.854698
 31
0.0
100
AcDbText
  0
LINE
  5
44A
100
AcDbEntity
  8
寸法
  6
CONTINUOUS
 62
     3
100
AcDbLine
 10
393.601106
 20
1357.104698
 30
0.0
 11
748.601106
 21
1357.104698
 31
0.0
  0
LINE
  5
44B
100
AcDbEntity
  8
寸法
  6
CONTINUOUS
 62
     3
100
AcDbLine
 10
408.601106
 20
1359.604698
 30
0.0
 11
393.601106
 21
1357.104698
 31
0.0
  0
LINE
  5
44C
100
AcDbEntity
  8
寸法
  6
CONTINUOUS
 62
     3
100
AcDbLine
 10
393.601106
 20
1357.104698
 30
0.0
 11
408.601106
 21
1354.604698
 31
0.0
  0
LINE
  5
44D
100
AcDbEntity
  8
寸法
  6
CONTINUOUS
 62
     3
100
AcDbLine
 10
733.601106
 20
1354.604698
 30
0.0
 11
748.601106
 21
1357.104698
 31
0.0
  0
LINE
  5
44E
100
AcDbEntity
  8
寸法
  6
CONTINUOUS
 62
     3
100
AcDbLine
 10
748.601106
 20
1357.104698
 30
0.0
 11
733.601106
 21
1359.604698
 31
0.0
  0
ENDBLK
  5
44F
100
AcDbEntity
  8
0
100
AcDbBlockEnd
  0
BLOCK
  5
452
100
AcDbEntity
  8
0
100
AcDbBlockBegin
  2
*D17
 70
    65
 10
0.0
 20
0.0
 30
0.0
  3
*D17
  1

  0
LINE
  5
453
100
AcDbEntity
  8
寸法
  6
CONTINUOUS
 62
     3
100
AcDbLine
 10
573.601106
 20
1122.104698
 30
0.0
 11
828.601106
 21
1122.104698
 31
0.0
  0
LINE
  5
454
100
AcDbEntity
  8
寸法
  6
CONTINUOUS
 62
     3
100
AcDbLine
 10
751.101106
 20
1317.104698
 30
0.0
 11
828.601106
 21
1317.104698
 31
0.0
  0
TEXT
  5
455
100
AcDbEntity
  8
寸法
  6
CONTINUOUS
 62
     2
100
AcDbText
 10
817.101106
 20
1195.454698
 30
0.0
 40
20.0
  1
195
 50
90.0
 41
0.945
  7
EXCADSTD
 72
     1
 11
817.101106
 21
1219.604698
 31
0.0
100
AcDbText
  0
LINE
  5
456
100
AcDbEntity
  8
寸法
  6
CONTINUOUS
 62
     3
100
AcDbLine
 10
818.601106
 20
1122.104698
 30
0.0
 11
818.601106
 21
1317.104698
 31
0.0
  0
LINE
  5
457
100
AcDbEntity
  8
寸法
  6
CONTINUOUS
 62
     3
100
AcDbLine
 10
816.101106
 20
1137.104698
 30
0.0
 11
818.601106
 21
1122.104698
 31
0.0
  0
LINE
  5
458
100
AcDbEntity
  8
寸法
  6
CONTINUOUS
 62
     3
100
AcDbLine
 10
818.601106
 20
1122.104698
 30
0.0
 11
821.101106
 21
1137.104698
 31
0.0
  0
LINE
  5
459
100
AcDbEntity
  8
寸法
  6
CONTINUOUS
 62
     3
100
AcDbLine
 10
821.101106
 20
1302.104698
 30
0.0
 11
818.601106
 21
1317.104698
 31
0.0
  0
LINE
  5
45A
100
AcDbEntity
  8
寸法
  6
CONTINUOUS
 62
     3
100
AcDbLine
 10
818.601106
 20
1317.104698
 30
0.0
 11
816.101106
 21
1302.104698
 31
0.0
  0
ENDBLK
  5
45B
100
AcDbEntity
  8
0
100
AcDbBlockEnd
  0
BLOCK
  5
45E
100
AcDbEntity
  8
0
100
AcDbBlockBegin
  2
*D18
 70
    65
 10
0.0
 20
0.0
 30
0.0
  3
*D18
  1

  0
LINE
  5
45F
100
AcDbEntity
  8
寸法
  6
CONTINUOUS
 62
     3
100
AcDbLine
 10
395.101106
 20
890.604698
 30
0.0
 11
395.101106
 21
968.104698
 31
0.0
  0
LINE
  5
460
100
AcDbEntity
  8
寸法
  6
CONTINUOUS
 62
     3
100
AcDbLine
 10
747.101106
 20
890.604698
 30
0.0
 11
747.101106
 21
968.104698
 31
0.0
  0
TEXT
  5
461
100
AcDbEntity
  8
寸法
  6
CONTINUOUS
 62
     2
100
AcDbText
 10
546.951106
 20
959.604698
 30
0.0
 40
20.0
  1
352
 41
0.945
  7
EXCADSTD
 72
     1
 11
571.101106
 21
959.604698
 31
0.0
100
AcDbText
  0
LINE
  5
462
100
AcDbEntity
  8
寸法
  6
CONTINUOUS
 62
     3
100
AcDbLine
 10
395.101106
 20
958.104698
 30
0.0
 11
747.101106
 21
958.104698
 31
0.0
  0
LINE
  5
463
100
AcDbEntity
  8
寸法
  6
CONTINUOUS
 62
     3
100
AcDbLine
 10
410.101106
 20
960.604698
 30
0.0
 11
395.101106
 21
958.104698
 31
0.0
  0
LINE
  5
464
100
AcDbEntity
  8
寸法
  6
CONTINUOUS
 62
     3
100
AcDbLine
 10
395.101106
 20
958.104698
 30
0.0
 11
410.101106
 21
955.604698
 31
0.0
  0
LINE
  5
465
100
AcDbEntity
  8
寸法
  6
CONTINUOUS
 62
     3
100
AcDbLine
 10
732.101106
 20
955.604698
 30
0.0
 11
747.101106
 21
958.104698
 31
0.0
  0
LINE
  5
466
100
AcDbEntity
  8
寸法
  6
CONTINUOUS
 62
     3
100
AcDbLine
 10
747.101106
 20
958.104698
 30
0.0
 11
732.101106
 21
960.604698
 31
0.0
  0
ENDBLK
  5
467
100
AcDbEntity
  8
0
100
AcDbBlockEnd
  0
BLOCK
  5
46A
100
AcDbEntity
  8
0
100
AcDbBlockBegin
  2
*D19
 70
    65
 10
0.0
 20
0.0
 30
0.0
  3
*D19
  1

  0
LINE
  5
46B
100
AcDbEntity
  8
寸法
  6
CONTINUOUS
 62
     3
100
AcDbLine
 10
734.401106
 20
825.104698
 30
0.0
 11
620.166086
 21
825.104698
 31
0.0
  0
TEXT
  5
46C
100
AcDbEntity
  8
寸法
  6
CONTINUOUS
 62
     2
100
AcDbText
 10
620.980663
 20
843.978761
 30
0.0
 40
20.0
  1
2°
 50
72.751118
 41
0.945
  7
EXCADSTD
 72
     1
 11
625.962249
 21
860.023193
 31
0.0
100
AcDbText
  0
ARC
  5
46D
100
AcDbEntity
  8
寸法
  6
CONTINUOUS
 62
     3
100
AcDbCircle
 10
738.426325
 20
825.104634
 30
0.0
 40
116.260223
100
AcDbArc
 50
152.155439
 51
189.392315
  0
LINE
  5
46E
100
AcDbEntity
  8
寸法
  6
CONTINUOUS
 62
     3
100
AcDbLine
 10
619.666086
 20
840.104698
 30
0.0
 11
622.166086
 21
825.104698
 31
0.0
  0
LINE
  5
46F
100
AcDbEntity
  8
寸法
  6
CONTINUOUS
 62
     3
100
AcDbLine
 10
622.166086
 20
825.104698
 30
0.0
 11
624.666086
 21
840.104698
 31
0.0
  0
LINE
  5
470
100
AcDbEntity
  8
寸法
  6
CONTINUOUS
 62
     3
100
AcDbLine
 10
625.258878
 20
806.143675
 30
0.0
 11
622.236908
 21
821.047289
 31
0.0
  0
LINE
  5
471
100
AcDbEntity
  8
寸法
  6
CONTINUOUS
 62
     3
100
AcDbLine
 10
622.236908
 20
821.047289
 30
0.0
 11
620.261924
 21
805.969177
 31
0.0
  0
LINE
  5
472
100
AcDbEntity
  8
寸法
  6
CONTINUOUS
 62
     3
100
AcDbLine
 10
641.69405
 20
821.726747
 30
0.0
 11
620.238127
 21
820.97749
 31
0.0
  0
ENDBLK
  5
473
100
AcDbEntity
  8
0
100
AcDbBlockEnd
  0
BLOCK
  5
476
100
AcDbEntity
  8
0
100
AcDbBlockBegin
  2
*D20
 70
    65
 10
0.0
 20
0.0
 30
0.0
  3
*D20
  1

  0
LINE
  5
477
100
AcDbEntity
  8
寸法
  6
CONTINUOUS
 62
     3
100
AcDbLine
 10
670.021777
 20
825.217497
 30
0.0
 11
668.569463
 21
866.806323
 31
0.0
  0
LINE
  5
478
100
AcDbEntity
  8
寸法
  6
CONTINUOUS
 62
     3
100
AcDbLine
 10
696.005938
 20
826.124884
 30
0.0
 11
694.553624
 21
867.71371
 31
0.0
  0
TEXT
  5
479
100
AcDbEntity
  8
寸法
  6
CONTINUOUS
 62
     2
100
AcDbText
 10
657.548403
 20
862.919325
 30
0.0
 40
20.0
  1
%%c26
 50
2.0
 41
0.945
  7
EXCADSTD
 72
     1
 11
681.683692
 21
863.762148
 31
0.0
100
AcDbText
  0
LINE
  5
47A
100
AcDbEntity
  8
寸法
  6
CONTINUOUS
 62
     3
100
AcDbLine
 10
653.753098
 20
861.285876
 30
0.0
 11
709.718984
 21
863.240248
 31
0.0
  0
LINE
  5
47B
100
AcDbEntity
  8
寸法
  6
CONTINUOUS
 62
     3
100
AcDbLine
 10
653.840347
 20
858.787399
 30
0.0
 11
668.74396
 21
861.809368
 31
0.0
  0
LINE
  5
47C
100
AcDbEntity
  8
寸法
  6
CONTINUOUS
 62
     3
100
AcDbLine
 10
668.74396
 20
861.809368
 30
0.0
 11
653.665849
 21
863.784353
 31
0.0
  0
LINE
  5
47D
100
AcDbEntity
  8
寸法
  6
CONTINUOUS
 62
     3
100
AcDbLine
 10
709.631736
 20
865.738725
 30
0.0
 11
694.728122
 21
862.716755
 31
0.0
  0
LINE
  5
47E
100
AcDbEntity
  8
寸法
  6
CONTINUOUS
 62
     3
100
AcDbLine
 10
694.728122
 20
862.716755
 30
0.0
 11
709.806233
 21
860.741771
 31
0.0
  0
ENDBLK
  5
47F
100
AcDbEntity
  8
0
100
AcDbBlockEnd
  0
BLOCK
  5
482
100
AcDbEntity
  8
0
100
AcDbBlockBegin
  2
*D21
 70
    65
 10
0.0
 20
0.0
 30
0.0
  3
*D21
  1

  0
LINE
  5
483
100
AcDbEntity
  8
寸法
  6
CONTINUOUS
 62
     3
100
AcDbLine
 10
421.101106
 20
875.704698
 30
0.0
 11
421.101106
 21
933.104698
 31
0.0
  0
LINE
  5
484
100
AcDbEntity
  8
寸法
  6
CONTINUOUS
 62
     3
100
AcDbLine
 10
721.101106
 20
871.604698
 30
0.0
 11
721.101106
 21
933.104698
 31
0.0
  0
TEXT
  5
485
100
AcDbEntity
  8
寸法
  6
CONTINUOUS
 62
     2
100
AcDbText
 10
546.951106
 20
924.854698
 30
0.0
 40
20.0
  1
300
 41
0.945
  7
EXCADSTD
 72
     1
 11
571.101106
 21
924.854698
 31
0.0
100
AcDbText
  0
LINE
  5
486
100
AcDbEntity
  8
寸法
  6
CONTINUOUS
 62
     3
100
AcDbLine
 10
421.101106
 20
923.104698
 30
0.0
 11
721.101106
 21
923.104698
 31
0.0
  0
LINE
  5
487
100
AcDbEntity
  8
寸法
  6
CONTINUOUS
 62
     3
100
AcDbLine
 10
436.101106
 20
925.604698
 30
0.0
 11
421.101106
 21
923.104698
 31
0.0
  0
LINE
  5
488
100
AcDbEntity
  8
寸法
  6
CONTINUOUS
 62
     3
100
AcDbLine
 10
421.101106
 20
923.104698
 30
0.0
 11
436.101106
 21
920.604698
 31
0.0
  0
LINE
  5
489
100
AcDbEntity
  8
寸法
  6
CONTINUOUS
 62
     3
100
AcDbLine
 10
706.101106
 20
920.604698
 30
0.0
 11
721.101106
 21
923.104698
 31
0.0
  0
LINE
  5
48A
100
AcDbEntity
  8
寸法
  6
CONTINUOUS
 62
     3
100
AcDbLine
 10
721.101106
 20
923.104698
 30
0.0
 11
706.101106
 21
925.604698
 31
0.0
  0
ENDBLK
  5
48B
100
AcDbEntity
  8
0
100
AcDbBlockEnd
  0
BLOCK
  5
48E
100
AcDbEntity
  8
0
100
AcDbBlockBegin
  2
*D22
 70
    65
 10
0.0
 20
0.0
 30
0.0
  3
*D22
  1

  0
LINE
  5
48F
100
AcDbEntity
  8
寸法
  6
CONTINUOUS
 62
     3
100
AcDbLine
 10
1620.101106
 20
731.104698
 30
0.0
 11
1611.301106
 21
731.104698
 31
0.0
  0
LINE
  5
490
100
AcDbEntity
  8
寸法
  6
CONTINUOUS
 62
     3
100
AcDbLine
 10
1621.601106
 20
713.104698
 30
0.0
 11
1611.301106
 21
713.104698
 31
0.0
  0
TEXT
  5
491
100
AcDbEntity
  8
寸法
  6
CONTINUOUS
 62
     2
100
AcDbText
 10
1614.551106
 20
661.304698
 30
0.0
 40
20.0
  1
18
 50
90.0
 41
0.945
  7
EXCADSTD
 72
     1
 11
1614.551106
 21
678.104698
 31
0.0
100
AcDbText
  0
LINE
  5
492
100
AcDbEntity
  8
寸法
  6
CONTINUOUS
 62
     3
100
AcDbLine
 10
1616.301106
 20
746.104698
 30
0.0
 11
1616.301106
 21
656.354697
 31
0.0
  0
LINE
  5
493
100
AcDbEntity
  8
寸法
  6
CONTINUOUS
 62
     3
100
AcDbLine
 10
1613.801106
 20
746.104698
 30
0.0
 11
1616.301106
 21
731.104698
 31
0.0
  0
LINE
  5
494
100
AcDbEntity
  8
寸法
  6
CONTINUOUS
 62
     3
100
AcDbLine
 10
1616.301106
 20
731.104698
 30
0.0
 11
1618.801106
 21
746.104698
 31
0.0
  0
LINE
  5
495
100
AcDbEntity
  8
寸法
  6
CONTINUOUS
 62
     3
100
AcDbLine
 10
1618.801106
 20
698.104698
 30
0.0
 11
1616.301106
 21
713.104698
 31
0.0
  0
LINE
  5
496
100
AcDbEntity
  8
寸法
  6
CONTINUOUS
 62
     3
100
AcDbLine
 10
1616.301106
 20
713.104698
 30
0.0
 11
1613.801106
 21
698.104698
 31
0.0
  0
ENDBLK
  5
497
100
AcDbEntity
  8
0
100
AcDbBlockEnd
  0
BLOCK
  5
49A
100
AcDbEntity
  8
0
100
AcDbBlockBegin
  2
*D23
 70
    65
 10
0.0
 20
0.0
 30
0.0
  3
*D23
  1

  0
LINE
  5
49B
100
AcDbEntity
  8
寸法
  6
CONTINUOUS
 62
     3
100
AcDbLine
 10
441.101106
 20
275.104698
 30
0.0
 11
621.101106
 21
275.104698
 31
0.0
  0
LINE
  5
49C
100
AcDbEntity
  8
寸法
  6
CONTINUOUS
 62
     3
100
AcDbLine
 10
456.101106
 20
277.604698
 30
0.0
 11
441.101106
 21
275.104698
 31
0.0
  0
LINE
  5
49D
100
AcDbEntity
  8
寸法
  6
CONTINUOUS
 62
     3
100
AcDbLine
 10
441.101106
 20
275.104698
 30
0.0
 11
456.101106
 21
272.604698
 31
0.0
  0
LINE
  5
49E
100
AcDbEntity
  8
寸法
  6
CONTINUOUS
 62
     3
100
AcDbLine
 10
606.101106
 20
272.604698
 30
0.0
 11
621.101106
 21
275.104698
 31
0.0
  0
LINE
  5
49F
100
AcDbEntity
  8
寸法
  6
CONTINUOUS
 62
     3
100
AcDbLine
 10
621.101106
 20
275.104698
 30
0.0
 11
606.101106
 21
277.604698
 31
0.0
  0
TEXT
  5
4A0
100
AcDbEntity
  8
寸法
  6
CONTINUOUS
 62
     2
100
AcDbText
 10
510.101106
 20
276.604698
 30
0.0
 40
20.0
  1
180
 41
0.84
  7
EXCADSTD
 72
     1
 11
531.101106
 21
276.604698
 31
0.0
100
AcDbText
  0
LINE
  5
4A1
100
AcDbEntity
  8
寸法
  6
CONTINUOUS
 62
     3
100
AcDbLine
 10
441.101106
 20
373.804698
 30
0.0
 11
441.101106
 21
265.104698
 31
0.0
  0
LINE
  5
4A2
100
AcDbEntity
  8
寸法
  6
CONTINUOUS
 62
     3
100
AcDbLine
 10
621.101106
 20
377.204698
 30
0.0
 11
621.101106
 21
265.104698
 31
0.0
  0
ENDBLK
  5
4A3
100
AcDbEntity
  8
0
100
AcDbBlockEnd
  0
BLOCK
  5
4A7
100
AcDbEntity
  8
0
100
AcDbBlockBegin
  2
*D24
 70
    65
 10
0.0
 20
0.0
 30
0.0
  3
*D24
  1

  0
LINE
  5
4A8
100
AcDbEntity
  8
寸法
  6
CONTINUOUS
 62
     3
100
AcDbLine
 10
1686.075981
 20
733.579573
 30
0.0
 11
1753.789789
 21
801.293382
 31
0.0
  0
LINE
  5
4A9
100
AcDbEntity
  8
寸法
  6
CONTINUOUS
 62
     3
100
AcDbLine
 10
1620.126231
 20
733.579573
 30
0.0
 11
1552.412423
 21
801.293382
 31
0.0
  0
TEXT
  5
4AA
100
AcDbEntity
  8
寸法
  6
CONTINUOUS
 62
     2
100
AcDbText
 10
1632.836106
 20
834.75
 30
0.0
 40
20.0
  1
90%%d
 41
0.945
  7
EXCADSTD
 72
     1
 11
1653.101106
 21
834.75
 31
0.0
100
AcDbText
  0
ARC
  5
4AB
100
AcDbEntity
  8
寸法
  6
CONTINUOUS
 62
     3
100
AcDbCircle
 10
1653.101106
 20
700.60459
 30
0.0
 40
132.395378
100
AcDbArc
 50
45.000033
 51
134.999967
  0
LINE
  5
4AC
100
AcDbEntity
  8
寸法
  6
CONTINUOUS
 62
     3
100
AcDbLine
 10
1732.281958
 20
804.534288
 30
0.0
 11
1746.718722
 21
794.222314
 31
0.0
  0
LINE
  5
4AD
100
AcDbEntity
  8
寸法
  6
CONTINUOUS
 62
     3
100
AcDbLine
 10
1746.718722
 20
794.222314
 30
0.0
 11
1736.406748
 21
808.659077
 31
0.0
  0
LINE
  5
4AE
100
AcDbEntity
  8
寸法
  6
CONTINUOUS
 62
     3
100
AcDbLine
 10
1569.795465
 20
808.659077
 30
0.0
 11
1559.483491
 21
794.222314
 31
0.0
  0
LINE
  5
4AF
100
AcDbEntity
  8
寸法
  6
CONTINUOUS
 62
     3
100
AcDbLine
 10
1559.483491
 20
794.222314
 30
0.0
 11
1573.920254
 21
804.534288
 31
0.0
  0
ENDBLK
  5
4B0
100
AcDbEntity
  8
0
100
AcDbBlockEnd
  0
BLOCK
  5
4B3
100
AcDbEntity
  8
0
100
AcDbBlockBegin
  2
*D25
 70
    65
 10
0.0
 20
0.0
 30
0.0
  3
*D25
  1

  0
LINE
  5
4B4
100
AcDbEntity
  8
寸法
  6
CONTINUOUS
 62
     3
100
AcDbLine
 10
746.693825
 20
888.104698
 30
0.0
 11
793.600006
 21
888.104698
 31
0.0
  0
LINE
  5
4B5
100
AcDbEntity
  8
寸法
  6
CONTINUOUS
 62
     3
100
AcDbLine
 10
735.301106
 20
863.104698
 30
0.0
 11
793.600006
 21
863.104698
 31
0.0
  0
TEXT
  5
4B6
100
AcDbEntity
  8
寸法
  6
CONTINUOUS
 62
     2
100
AcDbText
 10
781.850006
 20
908.884699
 30
0.0
 40
20.0
  1
25
 50
90.0
 41
0.945
  7
EXCADSTD
 72
     1
 11
781.850006
 21
926.104698
 31
0.0
100
AcDbText
  0
LINE
  5
4B7
100
AcDbEntity
  8
寸法
  6
CONTINUOUS
 62
     3
100
AcDbLine
 10
783.600006
 20
948.354699
 30
0.0
 11
783.600006
 21
840.604698
 31
0.0
  0
LINE
  5
4B8
100
AcDbEntity
  8
寸法
  6
CONTINUOUS
 62
     3
100
AcDbLine
 10
780.68334
 20
905.604698
 30
0.0
 11
783.600006
 21
888.104698
 31
0.0
  0
LINE
  5
4B9
100
AcDbEntity
  8
寸法
  6
CONTINUOUS
 62
     3
100
AcDbLine
 10
783.600006
 20
888.104698
 30
0.0
 11
786.516673
 21
905.604698
 31
0.0
  0
LINE
  5
4BA
100
AcDbEntity
  8
寸法
  6
CONTINUOUS
 62
     3
100
AcDbLine
 10
786.516673
 20
845.604698
 30
0.0
 11
783.600006
 21
863.104698
 31
0.0
  0
LINE
  5
4BB
100
AcDbEntity
  8
寸法
  6
CONTINUOUS
 62
     3
100
AcDbLine
 10
783.600006
 20
863.104698
 30
0.0
 11
780.68334
 21
845.604698
 31
0.0
  0
ENDBLK
  5
4BC
100
AcDbEntity
  8
0
100
AcDbBlockEnd
  0
BLOCK
  5
4D7
100
AcDbEntity
  8
0
100
AcDbBlockBegin
  2
*D26
 70
    65
 10
0.0
 20
0.0
 30
0.0
  3
*D26
  1

  0
LINE
  5
4D8
100
AcDbEntity
  8
寸法
  6
CONTINUOUS
 62
     3
100
AcDbLine
 10
368.602206
 20
647.854698
 30
0.0
 11
368.602206
 21
740.604698
 31
0.0
  0
LINE
  5
4D9
100
AcDbEntity
  8
寸法
  6
CONTINUOUS
 62
     3
100
AcDbLine
 10
371.518873
 20
690.604698
 30
0.0
 11
368.602206
 21
708.104698
 31
0.0
  0
LINE
  5
4DA
100
AcDbEntity
  8
寸法
  6
CONTINUOUS
 62
     3
100
AcDbLine
 10
368.602206
 20
708.104698
 30
0.0
 11
365.685539
 21
690.604698
 31
0.0
  0
LINE
  5
4DB
100
AcDbEntity
  8
寸法
  6
CONTINUOUS
 62
     3
100
AcDbLine
 10
365.685539
 20
735.604698
 30
0.0
 11
368.602206
 21
718.104698
 31
0.0
  0
LINE
  5
4DC
100
AcDbEntity
  8
寸法
  6
CONTINUOUS
 62
     3
100
AcDbLine
 10
368.602206
 20
718.104698
 30
0.0
 11
371.518873
 21
735.604698
 31
0.0
  0
TEXT
  5
4DD
100
AcDbEntity
  8
寸法
  6
CONTINUOUS
 62
     2
100
AcDbText
 10
366.852206
 20
652.884699
 30
0.0
 40
20.0
  1
10
 50
90.0
 41
0.945
  7
EXCADSTD
 72
     1
 11
366.852206
 21
670.104698
 31
0.0
100
AcDbText
  0
LINE
  5
4DE
100
AcDbEntity
  8
寸法
  6
CONTINUOUS
 62
     3
100
AcDbLine
 10
402.287933
 20
708.104698
 30
0.0
 11
358.602206
 21
708.104698
 31
0.0
  0
LINE
  5
4DF
100
AcDbEntity
  8
寸法
  6
CONTINUOUS
 62
     3
100
AcDbLine
 10
425.7
 20
718.104698
 30
0.0
 11
358.602206
 21
718.104698
 31
0.0
  0
ENDBLK
  5
4E0
100
AcDbEntity
  8
0
100
AcDbBlockEnd
  0
BLOCK
  5
4F6
100
AcDbEntity
  8
0
100
AcDbBlockBegin
  2
*D27
 70
    65
 10
0.0
 20
0.0
 30
0.0
  3
*D27
  1

  0
LINE
  5
4F7
100
AcDbEntity
  8
寸法
  6
CONTINUOUS
 62
     3
100
AcDbLine
 10
1290.5
 20
888.104698
 30
0.0
 11
1337.0
 21
888.104698
 31
0.0
  0
LINE
  5
4F8
100
AcDbEntity
  8
寸法
  6
CONTINUOUS
 62
     3
100
AcDbLine
 10
1290.5
 20
708.104698
 30
0.0
 11
1337.0
 21
708.104698
 31
0.0
  0
TEXT
  5
4F9
100
AcDbEntity
  8
寸法
  6
CONTINUOUS
 62
     2
100
AcDbText
 10
1325.25
 20
773.114699
 30
0.0
 40
20.0
  1
180
 50
90.0
 41
0.945
  7
EXCADSTD
 72
     1
 11
1325.25
 21
798.104698
 31
0.0
100
AcDbText
  0
LINE
  5
4FA
100
AcDbEntity
  8
寸法
  6
CONTINUOUS
 62
     3
100
AcDbLine
 10
1327.0
 20
888.104698
 30
0.0
 11
1327.0
 21
708.104698
 31
0.0
  0
LINE
  5
4FB
100
AcDbEntity
  8
寸法
  6
CONTINUOUS
 62
     3
100
AcDbLine
 10
1329.916667
 20
870.604698
 30
0.0
 11
1327.0
 21
888.104698
 31
0.0
  0
LINE
  5
4FC
100
AcDbEntity
  8
寸法
  6
CONTINUOUS
 62
     3
100
AcDbLine
 10
1327.0
 20
888.104698
 30
0.0
 11
1324.083333
 21
870.604698
 31
0.0
  0
LINE
  5
4FD
100
AcDbEntity
  8
寸法
  6
CONTINUOUS
 62
     3
100
AcDbLine
 10
1324.083333
 20
725.604698
 30
0.0
 11
1327.0
 21
708.104698
 31
0.0
  0
LINE
  5
4FE
100
AcDbEntity
  8
寸法
  6
CONTINUOUS
 62
     3
100
AcDbLine
 10
1327.0
 20
708.104698
 30
0.0
 11
1329.916667
 21
725.604698
 31
0.0
  0
ENDBLK
  5
4FF
100
AcDbEntity
  8
0
100
AcDbBlockEnd
  0
BLOCK
  5
502
100
AcDbEntity
  8
0
100
AcDbBlockBegin
  2
*D28
 70
    65
 10
0.0
 20
0.0
 30
0.0
  3
*D28
  1

  0
LINE
  5
503
100
AcDbEntity
  8
寸法
  6
CONTINUOUS
 62
     3
100
AcDbLine
 10
1117.0
 20
704.604699
 30
0.0
 11
1117.0
 21
663.104698
 31
0.0
  0
LINE
  5
504
100
AcDbEntity
  8
寸法
  6
CONTINUOUS
 62
     3
100
AcDbLine
 10
1287.0
 20
704.604699
 30
0.0
 11
1287.0
 21
663.104698
 31
0.0
  0
TEXT
  5
505
100
AcDbEntity
  8
寸法
  6
CONTINUOUS
 62
     2
100
AcDbText
 10
1177.01
 20
674.854698
 30
0.0
 40
20.0
  1
170
 41
0.945
  7
EXCADSTD
 72
     1
 11
1202.0
 21
674.854698
 31
0.0
100
AcDbText
  0
LINE
  5
506
100
AcDbEntity
  8
寸法
  6
CONTINUOUS
 62
     3
100
AcDbLine
 10
1117.0
 20
673.104698
 30
0.0
 11
1287.0
 21
673.104698
 31
0.0
  0
LINE
  5
507
100
AcDbEntity
  8
寸法
  6
CONTINUOUS
 62
     3
100
AcDbLine
 10
1134.5
 20
676.021365
 30
0.0
 11
1117.0
 21
673.104698
 31
0.0
  0
LINE
  5
508
100
AcDbEntity
  8
寸法
  6
CONTINUOUS
 62
     3
100
AcDbLine
 10
1117.0
 20
673.104698
 30
0.0
 11
1134.5
 21
670.188032
 31
0.0
  0
LINE
  5
509
100
AcDbEntity
  8
寸法
  6
CONTINUOUS
 62
     3
100
AcDbLine
 10
1269.5
 20
670.188032
 30
0.0
 11
1287.0
 21
673.104698
 31
0.0
  0
LINE
  5
50A
100
AcDbEntity
  8
寸法
  6
CONTINUOUS
 62
     3
100
AcDbLine
 10
1287.0
 20
673.104698
 30
0.0
 11
1269.5
 21
676.021365
 31
0.0
  0
ENDBLK
  5
50B
100
AcDbEntity
  8
0
100
AcDbBlockEnd
  0
BLOCK
  5
50E
100
AcDbEntity
  8
0
100
AcDbBlockBegin
  2
*D29
 70
    65
 10
0.0
 20
0.0
 30
0.0
  3
*D29
  1

  0
LINE
  5
50F
100
AcDbEntity
  8
寸法
  6
CONTINUOUS
 62
     3
100
AcDbLine
 10
390.101106
 20
345.104698
 30
0.0
 11
348.601106
 21
345.104698
 31
0.0
  0
LINE
  5
510
100
AcDbEntity
  8
寸法
  6
CONTINUOUS
 62
     3
100
AcDbLine
 10
427.401106
 20
390.104698
 30
0.0
 11
348.601106
 21
390.104698
 31
0.0
  0
TEXT
  5
511
100
AcDbEntity
  8
寸法
  6
CONTINUOUS
 62
     2
100
AcDbText
 10
356.851106
 20
350.384699
 30
0.0
 40
20.0
  1
45
 50
90.0
 41
0.945
  7
EXCADSTD
 72
     1
 11
356.851106
 21
367.604698
 31
0.0
100
AcDbText
  0
LINE
  5
512
100
AcDbEntity
  8
寸法
  6
CONTINUOUS
 62
     3
100
AcDbLine
 10
358.601106
 20
345.104698
 30
0.0
 11
358.601106
 21
390.104698
 31
0.0
  0
LINE
  5
513
100
AcDbEntity
  8
寸法
  6
CONTINUOUS
 62
     3
100
AcDbLine
 10
355.684439
 20
362.604698
 30
0.0
 11
358.601106
 21
345.104698
 31
0.0
  0
LINE
  5
514
100
AcDbEntity
  8
寸法
  6
CONTINUOUS
 62
     3
100
AcDbLine
 10
358.601106
 20
345.104698
 30
0.0
 11
361.517773
 21
362.604698
 31
0.0
  0
LINE
  5
515
100
AcDbEntity
  8
寸法
  6
CONTINUOUS
 62
     3
100
AcDbLine
 10
361.517773
 20
372.604698
 30
0.0
 11
358.601106
 21
390.104698
 31
0.0
  0
LINE
  5
516
100
AcDbEntity
  8
寸法
  6
CONTINUOUS
 62
     3
100
AcDbLine
 10
358.601106
 20
390.104698
 30
0.0
 11
355.684439
 21
372.604698
 31
0.0
  0
ENDBLK
  5
517
100
AcDbEntity
  8
0
100
AcDbBlockEnd
  0
BLOCK
  5
51A
100
AcDbEntity
  8
0
100
AcDbBlockBegin
  2
*D30
 70
    65
 10
0.0
 20
0.0
 30
0.0
  3
*D30
  1

  0
LINE
  5
51B
100
AcDbEntity
  8
寸法
  6
CONTINUOUS
 62
     3
100
AcDbLine
 10
752.101106
 20
345.104698
 30
0.0
 11
793.601106
 21
345.104698
 31
0.0
  0
LINE
  5
51C
100
AcDbEntity
  8
寸法
  6
CONTINUOUS
 62
     3
100
AcDbLine
 10
761.601106
 20
420.104698
 30
0.0
 11
793.601106
 21
420.104698
 31
0.0
  0
TEXT
  5
51D
100
AcDbEntity
  8
寸法
  6
CONTINUOUS
 62
     2
100
AcDbText
 10
781.851106
 20
365.384699
 30
0.0
 40
20.0
  1
75
 50
90.0
 41
0.945
  7
EXCADSTD
 72
     1
 11
781.851106
 21
382.604698
 31
0.0
100
AcDbText
  0
LINE
  5
51E
100
AcDbEntity
  8
寸法
  6
CONTINUOUS
 62
     3
100
AcDbLine
 10
783.601106
 20
345.104698
 30
0.0
 11
783.601106
 21
420.104698
 31
0.0
  0
LINE
  5
51F
100
AcDbEntity
  8
寸法
  6
CONTINUOUS
 62
     3
100
AcDbLine
 10
780.684439
 20
362.604698
 30
0.0
 11
783.601106
 21
345.104698
 31
0.0
  0
LINE
  5
520
100
AcDbEntity
  8
寸法
  6
CONTINUOUS
 62
     3
100
AcDbLine
 10
783.601106
 20
345.104698
 30
0.0
 11
786.517773
 21
362.604698
 31
0.0
  0
LINE
  5
521
100
AcDbEntity
  8
寸法
  6
CONTINUOUS
 62
     3
100
AcDbLine
 10
786.517773
 20
402.604698
 30
0.0
 11
783.601106
 21
420.104698
 31
0.0
  0
LINE
  5
522
100
AcDbEntity
  8
寸法
  6
CONTINUOUS
 62
     3
100
AcDbLine
 10
783.601106
 20
420.104698
 30
0.0
 11
780.684439
 21
402.604698
 31
0.0
  0
ENDBLK
  5
523
100
AcDbEntity
  8
0
100
AcDbBlockEnd
  0
BLOCK
  5
52D
100
AcDbEntity
  8
0
100
AcDbBlockBegin
  2
*D31
 70
    65
 10
0.0
 20
0.0
 30
0.0
  3
*D31
  1

  0
TEXT
  5
52E
100
AcDbEntity
  8
寸法
  6
CONTINUOUS
 62
     2
100
AcDbText
 10
602.111106
 20
1088.854698
 30
0.0
 40
20.0
  1
112
 41
0.945
  7
EXCADSTD
 72
     1
 11
627.101106
 21
1088.854698
 31
0.0
100
AcDbText
  0
LINE
  5
52F
100
AcDbEntity
  8
寸法
  6
CONTINUOUS
 62
     3
100
AcDbLine
 10
683.101106
 20
1087.104698
 30
0.0
 11
571.101106
 21
1087.104698
 31
0.0
  0
LINE
  5
530
100
AcDbEntity
  8
寸法
  6
CONTINUOUS
 62
     3
100
AcDbLine
 10
665.601106
 20
1084.188032
 30
0.0
 11
683.101106
 21
1087.104698
 31
0.0
  0
LINE
  5
531
100
AcDbEntity
  8
寸法
  6
CONTINUOUS
 62
     3
100
AcDbLine
 10
683.101106
 20
1087.104698
 30
0.0
 11
665.601106
 21
1090.021365
 31
0.0
  0
LINE
  5
532
100
AcDbEntity
  8
寸法
  6
CONTINUOUS
 62
     3
100
AcDbLine
 10
588.601106
 20
1090.021365
 30
0.0
 11
571.101106
 21
1087.104698
 31
0.0
  0
LINE
  5
533
100
AcDbEntity
  8
寸法
  6
CONTINUOUS
 62
     3
100
AcDbLine
 10
571.101106
 20
1087.104698
 30
0.0
 11
588.601106
 21
1084.188032
 31
0.0
  0
LINE
  5
534
100
AcDbEntity
  8
寸法
  6
CONTINUOUS
 62
     3
100
AcDbLine
 10
683.101106
 20
1219.104698
 30
0.0
 11
683.101106
 21
1077.104698
 31
0.0
  0
ENDBLK
  5
535
100
AcDbEntity
  8
0
100
AcDbBlockEnd
  0
BLOCK
  5
538
100
AcDbEntity
  8
0
100
AcDbBlockBegin
  2
*D32
 70
    65
 10
0.0
 20
0.0
 30
0.0
  3
*D32
  1

  0
LINE
  5
539
100
AcDbEntity
  8
寸法
  6
CONTINUOUS
 62
     3
100
AcDbLine
 10
546.101106
 20
1178.604699
 30
0.0
 11
546.101106
 21
1077.104698
 31
0.0
  0
TEXT
  5
53A
100
AcDbEntity
  8
寸法
  6
CONTINUOUS
 62
     2
100
AcDbText
 10
490.881106
 20
1088.854698
 30
0.0
 40
20.0
  1
25
 41
0.945
  7
EXCADSTD
 72
     1
 11
508.101106
 21
1088.854698
 31
0.0
100
AcDbText
  0
LINE
  5
53B
100
AcDbEntity
  8
寸法
  6
CONTINUOUS
 62
     3
100
AcDbLine
 10
593.601106
 20
1087.104698
 30
0.0
 11
485.851105
 21
1087.104698
 31
0.0
  0
LINE
  5
53C
100
AcDbEntity
  8
寸法
  6
CONTINUOUS
 62
     3
100
AcDbLine
 10
528.601106
 20
1084.188032
 30
0.0
 11
546.101106
 21
1087.104698
 31
0.0
  0
LINE
  5
53D
100
AcDbEntity
  8
寸法
  6
CONTINUOUS
 62
     3
100
AcDbLine
 10
546.101106
 20
1087.104698
 30
0.0
 11
528.601106
 21
1090.021365
 31
0.0
  0
ENDBLK
  5
53E
100
AcDbEntity
  8
0
100
AcDbBlockEnd
  0
BLOCK
  5
541
100
AcDbEntity
  8
0
100
AcDbBlockBegin
  2
*D33
 70
    65
 10
0.0
 20
0.0
 30
0.0
  3
*D33
  1

  0
TEXT
  5
542
100
AcDbEntity
  8
寸法
  6
CONTINUOUS
 62
     2
100
AcDbText
 10
578.881106
 20
311.854698
 30
0.0
 40
20.0
  1
50
 41
0.945
  7
EXCADSTD
 72
     1
 11
596.101106
 21
311.854698
 31
0.0
100
AcDbText
  0
LINE
  5
543
100
AcDbEntity
  8
寸法
  6
CONTINUOUS
 62
     3
100
AcDbLine
 10
621.101106
 20
310.104698
 30
0.0
 11
571.101106
 21
310.104698
 31
0.0
  0
LINE
  5
544
100
AcDbEntity
  8
寸法
  6
CONTINUOUS
 62
     3
100
AcDbLine
 10
603.601106
 20
307.188032
 30
0.0
 11
621.101106
 21
310.104698
 31
0.0
  0
LINE
  5
545
100
AcDbEntity
  8
寸法
  6
CONTINUOUS
 62
     3
100
AcDbLine
 10
621.101106
 20
310.104698
 30
0.0
 11
603.601106
 21
313.021365
 31
0.0
  0
LINE
  5
546
100
AcDbEntity
  8
寸法
  6
CONTINUOUS
 62
     3
100
AcDbLine
 10
588.601106
 20
313.021365
 30
0.0
 11
571.101106
 21
310.104698
 31
0.0
  0
LINE
  5
547
100
AcDbEntity
  8
寸法
  6
CONTINUOUS
 62
     3
100
AcDbLine
 10
571.101106
 20
310.104698
 30
0.0
 11
588.601106
 21
307.188032
 31
0.0
  0
LINE
  5
548
100
AcDbEntity
  8
寸法
  6
CONTINUOUS
 62
     3
100
AcDbLine
 10
571.101106
 20
327.104698
 30
0.0
 11
571.101106
 21
300.104698
 31
0.0
  0
ENDBLK
  5
549
100
AcDbEntity
  8
0
100
AcDbBlockEnd
  0
BLOCK
  5
54F
100
AcDbEntity
  8
0
100
AcDbBlockBegin
  2
*D34
 70
    65
 10
0.0
 20
0.0
 30
0.0
  3
*D34
  1

  0
LINE
  5
550
100
AcDbEntity
  8
寸法
  6
CONTINUOUS
 62
     3
100
AcDbLine
 10
369.2
 20
1272.104698
 30
0.0
 11
369.2
 21
1317.104698
 31
0.0
  0
LINE
  5
551
100
AcDbEntity
  8
寸法
  6
CONTINUOUS
 62
     3
100
AcDbLine
 10
366.283333
 20
1289.604698
 30
0.0
 11
369.2
 21
1272.104698
 31
0.0
  0
LINE
  5
552
100
AcDbEntity
  8
寸法
  6
CONTINUOUS
 62
     3
100
AcDbLine
 10
369.2
 20
1272.104698
 30
0.0
 11
372.116667
 21
1289.604698
 31
0.0
  0
LINE
  5
553
100
AcDbEntity
  8
寸法
  6
CONTINUOUS
 62
     3
100
AcDbLine
 10
372.116667
 20
1299.604698
 30
0.0
 11
369.2
 21
1317.104698
 31
0.0
  0
LINE
  5
554
100
AcDbEntity
  8
寸法
  6
CONTINUOUS
 62
     3
100
AcDbLine
 10
369.2
 20
1317.104698
 30
0.0
 11
366.283333
 21
1299.604698
 31
0.0
  0
TEXT
  5
555
100
AcDbEntity
  8
寸法
  6
CONTINUOUS
 62
     2
100
AcDbText
 10
367.45
 20
1277.384699
 30
0.0
 40
20.0
  1
45
 50
90.0
 41
0.945
  7
EXCADSTD
 72
     1
 11
367.45
 21
1294.604698
 31
0.0
100
AcDbText
  0
LINE
  5
556
100
AcDbEntity
  8
寸法
  6
CONTINUOUS
 62
     3
100
AcDbLine
 10
366.851106
 20
1272.104698
 30
0.0
 11
359.2
 21
1272.104698
 31
0.0
  0
LINE
  5
557
100
AcDbEntity
  8
寸法
  6
CONTINUOUS
 62
     3
100
AcDbLine
 10
390.101106
 20
1317.104698
 30
0.0
 11
359.2
 21
1317.104698
 31
0.0
  0
ENDBLK
  5
558
100
AcDbEntity
  8
0
100
AcDbBlockEnd
  0
ENDSEC
  0
SECTION
  2
ENTITIES
  0
TEXT
  5
84
100
AcDbEntity
  8
図枠
  6
CONTINUOUS
 62
     2
100
AcDbText
 10
832.375
 20
159.0
 30
0.0
 40
17.5
  1
^J
 41
0.0
  7
EXCADSTD
 72
     5
 11
832.375
 21
159.0
 31
0.0
100
AcDbText
  0
TEXT
  5
85
100
AcDbEntity
  8
図枠
  6
CONTINUOUS
 62
     2
100
AcDbText
 10
825.125
 20
168.625
 30
0.0
 40
7.875
  1
＋
 41
0.84
  7
EXCADSTD
 72
     5
 11
831.425
 21
168.625
 31
0.0
100
AcDbText
  0
TEXT
  5
86
100
AcDbEntity
  8
図枠
  6
CONTINUOUS
 62
     2
100
AcDbText
 10
830.375
 20
159.0
 30
0.0
 40
7.875
  1
－
 41
0.84
  7
EXCADSTD
 72
     5
 11
836.675
 21
159.0
 31
0.0
100
AcDbText
  0
TEXT
  5
87
100
AcDbEntity
  8
図枠
  6
CONTINUOUS
 62
     2
100
AcDbText
 10
836.25
 20
159.0
 30
0.0
 40
17.5
  1
２ｍｍ
 41
0.712
  7
EXCADSTD
 72
     5
 11
880.75
 21
159.0
 31
0.0
100
AcDbText
  0
TEXT
  5
88
100
AcDbEntity
  8
図枠
  6
CONTINUOUS
 62
     2
100
AcDbText
 10
827.875
 20
143.625
 30
0.0
 40
7.875
  1
＋
 41
0.84
  7
EXCADSTD
 72
     5
 11
834.175
 21
143.625
 31
0.0
100
AcDbText
  0
TEXT
  5
89
100
AcDbEntity
  8
図枠
  6
CONTINUOUS
 62
     2
100
AcDbText
 10
833.125
 20
134.0
 30
0.0
 40
7.875
  1
－
 41
0.84
  7
EXCADSTD
 72
     5
 11
839.425
 21
134.0
 31
0.0
100
AcDbText
  0
TEXT
  5
8A
100
AcDbEntity
  8
図枠
  6
CONTINUOUS
 62
     2
100
AcDbText
 10
839.0
 20
134.0
 30
0.0
 40
17.5
  1
５％
 41
0.744
  7
EXCADSTD
 72
     5
 11
867.4146
 21
134.0
 31
0.0
100
AcDbText
  0
TEXT
  5
8B
100
AcDbEntity
  8
図枠
  6
CONTINUOUS
 62
     2
100
AcDbText
 10
827.375
 20
117.625
 30
0.0
 40
7.875
  1
＋
 41
0.84
  7
EXCADSTD
 72
     5
 11
833.675
 21
117.625
 31
0.0
100
AcDbText
  0
TEXT
  5
8C
100
AcDbEntity
  8
図枠
  6
CONTINUOUS
 62
     2
100
AcDbText
 10
832.625
 20
108.0
 30
0.0
 40
7.875
  1
－
 41
0.84
  7
EXCADSTD
 72
     5
 11
838.925
 21
108.0
 31
0.0
100
AcDbText
  0
TEXT
  5
8D
100
AcDbEntity
  8
図枠
  6
CONTINUOUS
 62
     2
100
AcDbText
 10
838.5
 20
108.0
 30
0.0
 40
17.5
  1
４％
 41
0.744
  7
EXCADSTD
 72
     5
 11
866.9146
 21
108.0
 31
0.0
100
AcDbText
  0
TEXT
  5
8E
100
AcDbEntity
  8
図枠
  6
CONTINUOUS
 62
     2
100
AcDbText
 10
827.375
 20
92.625
 30
0.0
 40
7.875
  1
＋
 41
0.84
  7
EXCADSTD
 72
     5
 11
833.675
 21
92.625
 31
0.0
100
AcDbText
  0
TEXT
  5
8F
100
AcDbEntity
  8
図枠
  6
CONTINUOUS
 62
     2
100
AcDbText
 10
832.625
 20
83.0
 30
0.0
 40
7.875
  1
－
 41
0.84
  7
EXCADSTD
 72
     5
 11
838.925
 21
83.0
 31
0.0
100
AcDbText
  0
TEXT
  5
90
100
AcDbEntity
  8
図枠
  6
CONTINUOUS
 62
     2
100
AcDbText
 10
838.5
 20
83.0
 30
0.0
 40
17.5
  1
３％
 41
0.744
  7
EXCADSTD
 72
     5
 11
866.9146
 21
83.0
 31
0.0
100
AcDbText
  0
LINE
  5
91
100
AcDbEntity
  8
図枠
  6
CONTINUOUS
 62
     2
100
AcDbLine
 10
1391.999985
 20
91.100098
 30
0.0
 11
1406.800552
 21
91.100098
 31
0.0
  0
LINE
  5
92
100
AcDbEntity
  8
図枠
  6
CONTINUOUS
 62
     2
100
AcDbLine
 10
1391.999985
 20
89.600159
 30
0.0
 11
1406.800552
 21
89.600159
 31
0.0
  0
LINE
  5
93
100
AcDbEntity
  8
図枠
  6
CONTINUOUS
 62
     2
100
AcDbLine
 10
1391.999985
 20
88.10022
 30
0.0
 11
1406.800552
 21
88.10022
 31
0.0
  0
LINE
  5
94
100
AcDbEntity
  8
図枠
  6
CONTINUOUS
 62
     2
100
AcDbLine
 10
1391.999985
 20
83.900009
 30
0.0
 11
1406.800552
 21
83.900009
 31
0.0
  0
LINE
  5
95
100
AcDbEntity
  8
図枠
  6
CONTINUOUS
 62
     2
100
AcDbLine
 10
1391.999985
 20
82.40007
 30
0.0
 11
1406.800552
 21
82.40007
 31
0.0
  0
LINE
  5
96
100
AcDbEntity
  8
図枠
  6
CONTINUOUS
 62
     2
100
AcDbLine
 10
1391.999985
 20
81.000076
 30
0.0
 11
1406.800552
 21
81.000076
 31
0.0
  0
LINE
  5
97
100
AcDbEntity
  8
図枠
  6
CONTINUOUS
 62
     2
100
AcDbLine
 10
1427.400375
 20
84.500061
 30
0.0
 11
1432.190643
 21
84.500061
 31
0.0
  0
LINE
  5
98
100
AcDbEntity
  8
図枠
  6
CONTINUOUS
 62
     2
100
AcDbLine
 10
1438.745667
 20
84.500061
 30
0.0
 11
1451.738144
 21
84.500061
 31
0.0
  0
LINE
  5
99
100
AcDbEntity
  8
図枠
  6
CONTINUOUS
 62
     2
100
AcDbLine
 10
1414.199692
 20
89.925018
 30
0.0
 11
1416.999527
 21
89.925018
 31
0.0
  0
LINE
  5
9A
100
AcDbEntity
  8
図枠
  6
CONTINUOUS
 62
     2
100
AcDbLine
 10
1420.800034
 20
89.925018
 30
0.0
 11
1423.599869
 21
89.925018
 31
0.0
  0
LINE
  5
9B
100
AcDbEntity
  8
図枠
  6
CONTINUOUS
 62
     2
100
AcDbLine
 10
1414.199692
 20
91.200119
 30
0.0
 11
1416.999527
 21
91.200119
 31
0.0
  0
LINE
  5
9C
100
AcDbEntity
  8
図枠
  6
CONTINUOUS
 62
     2
100
AcDbLine
 10
1420.800034
 20
91.200119
 30
0.0
 11
1423.599869
 21
91.200119
 31
0.0
  0
LINE
  5
9D
100
AcDbEntity
  8
図枠
  6
CONTINUOUS
 62
     2
100
AcDbLine
 10
1420.800034
 20
88.599945
 30
0.0
 11
1423.599869
 21
88.599945
 31
0.0
  0
LINE
  5
9E
100
AcDbEntity
  8
図枠
  6
CONTINUOUS
 62
     2
100
AcDbLine
 10
1414.199692
 20
88.599945
 30
0.0
 11
1416.999527
 21
88.599945
 31
0.0
  0
LINE
  5
9F
100
AcDbEntity
  8
図枠
  6
CONTINUOUS
 62
     2
100
AcDbLine
 10
1416.95787
 20
72.873703
 30
0.0
 11
1422.774139
 21
84.800049
 31
0.0
  0
LINE
  5
A0
100
AcDbEntity
  8
図枠
  6
CONTINUOUS
 62
     2
100
AcDbLine
 10
1391.999985
 20
70.900055
 30
0.0
 11
1407.5271
 21
70.900055
 31
0.0
  0
ARC
  5
A1
100
AcDbEntity
  8
図枠
  6
CONTINUOUS
 62
     2
100
AcDbCircle
 10
1407.327057
 20
77.200104
 30
0.0
 40
6.299996
100
AcDbArc
 50
271.81958
 51
336.289307
  0
LINE
  5
A2
100
AcDbEntity
  8
図枠
  6
CONTINUOUS
 62
     2
100
AcDbLine
 10
1413.095261
 20
74.666763
 30
0.0
 11
1418.037659
 21
84.800049
 31
0.0
  0
LINE
  5
A3
100
AcDbEntity
  8
図枠
  6
CONTINUOUS
 62
     2
100
AcDbLine
 10
1391.999985
 20
67.09993
 30
0.0
 11
1407.5271
 21
67.09993
 31
0.0
  0
LINE
  5
A4
100
AcDbEntity
  8
図枠
  6
CONTINUOUS
 62
     2
100
AcDbLine
 10
1391.999985
 20
68.274857
 30
0.0
 11
1407.5271
 21
68.274857
 31
0.0
  0
LINE
  5
A5
100
AcDbEntity
  8
図枠
  6
CONTINUOUS
 62
     2
100
AcDbLine
 10
1391.999985
 20
69.549805
 30
0.0
 11
1407.5271
 21
69.549805
 31
0.0
  0
ARC
  5
A6
100
AcDbEntity
  8
図枠
  6
CONTINUOUS
 62
     2
100
AcDbCircle
 10
1408.427292
 20
76.399933
 30
0.0
 40
9.299989
100
AcDbArc
 50
270.0
 51
335.027344
  0
LINE
  5
A7
100
AcDbEntity
  8
図枠
  6
CONTINUOUS
 62
     2
100
AcDbLine
 10
1413.807846
 20
72.873703
 30
0.0
 11
1419.624115
 21
84.800049
 31
0.0
  0
LINE
  5
A8
100
AcDbEntity
  8
図枠
  6
CONTINUOUS
 62
     2
100
AcDbLine
 10
1415.48288
 20
72.873703
 30
0.0
 11
1421.299149
 21
84.800049
 31
0.0
  0
LINE
  5
A9
100
AcDbEntity
  8
図枠
  6
CONTINUOUS
 62
     2
100
AcDbLine
 10
1439.015137
 20
82.899948
 30
0.0
 11
1449.43956
 21
82.899948
 31
0.0
  0
LINE
  5
AA
100
AcDbEntity
  8
図枠
  6
CONTINUOUS
 62
     2
100
AcDbLine
 10
1427.400375
 20
82.899948
 30
0.0
 11
1432.459885
 21
82.899948
 31
0.0
  0
ARC
  5
AB
100
AcDbEntity
  8
図枠
  6
CONTINUOUS
 62
     2
100
AcDbCircle
 10
1408.32727
 20
76.399933
 30
0.0
 40
7.924991
100
AcDbArc
 50
270.0
 51
333.579834
  0
ARC
  5
AC
100
AcDbEntity
  8
図枠
  6
CONTINUOUS
 62
     2
100
AcDbCircle
 10
1408.227249
 20
76.399933
 30
0.0
 40
6.549993
100
AcDbArc
 50
270.0
 51
327.428223
  0
LINE
  5
AD
100
AcDbEntity
  8
図枠
  6
CONTINUOUS
 62
     2
100
AcDbLine
 10
1437.581421
 20
66.999985
 30
0.0
 11
1434.096771
 21
89.000031
 31
0.0
  0
LINE
  5
AE
100
AcDbEntity
  8
図枠
  6
CONTINUOUS
 62
     2
100
AcDbLine
 10
1436.062866
 20
66.999985
 30
0.0
 11
1432.577759
 21
89.000031
 31
0.0
  0
LINE
  5
AF
100
AcDbEntity
  8
図枠
  6
CONTINUOUS
 62
     2
100
AcDbLine
 10
1440.419632
 20
66.999985
 30
0.0
 11
1436.932388
 21
89.000031
 31
0.0
  0
LINE
  5
B0
100
AcDbEntity
  8
図枠
  6
CONTINUOUS
 62
     2
100
AcDbLine
 10
1438.999954
 20
66.999985
 30
0.0
 11
1435.514999
 21
89.000031
 31
0.0
  0
ARC
  5
B1
100
AcDbEntity
  8
図枠
  6
CONTINUOUS
 62
     2
100
AcDbCircle
 10
1443.876892
 20
81.495453
 30
0.0
 40
7.500067
100
AcDbArc
 50
265.063721
 51
335.998779
  0
ARC
  5
B2
100
AcDbEntity
  8
図枠
  6
CONTINUOUS
 62
     2
100
AcDbCircle
 10
1443.976913
 20
80.995346
 30
0.0
 40
4.500073
100
AcDbArc
 50
291.123291
 51
335.998779
  0
ARC
  5
B3
100
AcDbEntity
  8
図枠
  6
CONTINUOUS
 62
     2
100
AcDbCircle
 10
1443.876892
 20
81.195389
 30
0.0
 40
6.000071
100
AcDbArc
 50
271.032715
 51
335.998779
  0
LINE
  5
B4
100
AcDbEntity
  8
図枠
  6
CONTINUOUS
 62
     2
100
AcDbLine
 10
1453.624207
 20
84.950043
 30
0.0
 11
1450.728699
 21
78.445221
 31
0.0
  0
LINE
  5
B5
100
AcDbEntity
  8
図枠
  6
CONTINUOUS
 62
     2
100
AcDbLine
 10
1451.242462
 20
83.286453
 30
0.0
 11
1449.35907
 21
79.055267
 31
0.0
  0
LINE
  5
B6
100
AcDbEntity
  8
図枠
  6
CONTINUOUS
 62
     2
100
AcDbLine
 10
1449.033066
 20
81.786362
 30
0.0
 11
1448.089462
 21
79.665543
 31
0.0
  0
LINE
  5
B7
100
AcDbEntity
  8
図枠
  6
CONTINUOUS
 62
     2
100
AcDbLine
 10
1446.004578
 20
78.530899
 30
0.0
 11
1447.322937
 21
81.493164
 31
0.0
  0
ARC
  5
B8
100
AcDbEntity
  8
図枠
  6
CONTINUOUS
 62
     2
100
AcDbCircle
 10
1441.929947
 20
80.300003
 30
0.0
 40
4.350003
100
AcDbArc
 50
283.010254
 51
336.006592
  0
LINE
  5
B9
100
AcDbEntity
  8
図枠
  6
CONTINUOUS
 62
     2
100
AcDbLine
 10
1457.999741
 20
90.999771
 30
0.0
 11
1484.79982
 21
90.999771
 31
0.0
  0
LINE
  5
BA
100
AcDbEntity
  8
図枠
  6
CONTINUOUS
 62
     2
100
AcDbLine
 10
1457.999741
 20
89.399734
 30
0.0
 11
1484.79982
 21
89.399734
 31
0.0
  0
LINE
  5
BB
100
AcDbEntity
  8
図枠
  6
CONTINUOUS
 62
     2
100
AcDbLine
 10
1457.999741
 20
87.799698
 30
0.0
 11
1484.79982
 21
87.799698
 31
0.0
  0
LINE
  5
BC
100
AcDbEntity
  8
図枠
  6
CONTINUOUS
 62
     2
100
AcDbLine
 10
1455.599838
 20
70.599991
 30
0.0
 11
1487.199722
 21
70.599991
 31
0.0
  0
LINE
  5
BD
100
AcDbEntity
  8
図枠
  6
CONTINUOUS
 62
     2
100
AcDbLine
 10
1455.599838
 20
68.999954
 30
0.0
 11
1487.199722
 21
68.999954
 31
0.0
  0
LINE
  5
BE
100
AcDbEntity
  8
図枠
  6
CONTINUOUS
 62
     2
100
AcDbLine
 10
1455.599838
 20
67.399918
 30
0.0
 11
1487.199722
 21
67.399918
 31
0.0
  0
LINE
  5
BF
100
AcDbEntity
  8
図枠
  6
CONTINUOUS
 62
     2
100
AcDbLine
 10
1491.000229
 20
67.399918
 30
0.0
 11
1498.91626
 21
67.399918
 31
0.0
  0
LINE
  5
C0
100
AcDbEntity
  8
図枠
  6
CONTINUOUS
 62
     2
100
AcDbLine
 10
1491.000229
 20
68.999954
 30
0.0
 11
1498.91626
 21
68.999954
 31
0.0
  0
LINE
  5
C1
100
AcDbEntity
  8
図枠
  6
CONTINUOUS
 62
     2
100
AcDbLine
 10
1491.000229
 20
70.599991
 30
0.0
 11
1498.91626
 21
70.599991
 31
0.0
  0
LINE
  5
C2
100
AcDbEntity
  8
図枠
  6
CONTINUOUS
 62
     2
100
AcDbLine
 10
1493.400131
 20
90.999771
 30
0.0
 11
1521.037689
 21
90.999771
 31
0.0
  0
LINE
  5
C3
100
AcDbEntity
  8
図枠
  6
CONTINUOUS
 62
     2
100
AcDbLine
 10
1493.400131
 20
89.399734
 30
0.0
 11
1519.875198
 21
89.399734
 31
0.0
  0
LINE
  5
C4
100
AcDbEntity
  8
図枠
  6
CONTINUOUS
 62
     2
100
AcDbLine
 10
1493.400131
 20
87.799698
 30
0.0
 11
1518.712784
 21
87.799698
 31
0.0
  0
LINE
  5
C5
100
AcDbEntity
  8
図枠
  6
CONTINUOUS
 62
     2
100
AcDbLine
 10
1504.540878
 20
72.930313
 30
0.0
 11
1514.327713
 21
86.400009
 31
0.0
  0
LINE
  5
C6
100
AcDbEntity
  8
図枠
  6
CONTINUOUS
 62
     2
100
AcDbLine
 10
1503.428513
 20
73.738495
 30
0.0
 11
1512.628189
 21
86.400009
 31
0.0
  0
LINE
  5
C7
100
AcDbEntity
  8
図枠
  6
CONTINUOUS
 62
     2
100
AcDbLine
 10
1515.996185
 20
86.400009
 30
0.0
 11
1505.571381
 21
72.051254
 31
0.0
  0
LINE
  5
C8
100
AcDbEntity
  8
図枠
  6
CONTINUOUS
 62
     2
100
AcDbLine
 10
1517.695786
 20
86.400009
 30
0.0
 11
1506.662308
 21
71.21347
 31
0.0
  0
ARC
  5
C9
100
AcDbEntity
  8
図枠
  6
CONTINUOUS
 62
     2
100
AcDbCircle
 10
1498.91626
 20
76.800018
 30
0.0
 40
5.425005
100
AcDbArc
 50
270.0
 51
325.51001
  0
ARC
  5
CA
100
AcDbEntity
  8
図枠
  6
CONTINUOUS
 62
     2
100
AcDbCircle
 10
1498.91626
 20
76.800018
 30
0.0
 40
6.800003
100
AcDbArc
 50
270.0
 51
324.896729
  0
ARC
  5
CB
100
AcDbEntity
  8
図枠
  6
CONTINUOUS
 62
     2
100
AcDbCircle
 10
1498.91626
 20
76.800018
 30
0.0
 40
8.175001
100
AcDbArc
 50
270.0
 51
324.490234
  0
ARC
  5
CC
100
AcDbEntity
  8
図枠
  6
CONTINUOUS
 62
     2
100
AcDbCircle
 10
1498.91626
 20
76.800018
 30
0.0
 40
9.549999
100
AcDbArc
 50
270.0
 51
324.200195
  0
LINE
  5
CD
100
AcDbEntity
  8
図枠
  6
CONTINUOUS
 62
     2
100
AcDbLine
 10
1513.49054
 20
78.485275
 30
0.0
 11
1523.474518
 21
66.999985
 31
0.0
  0
LINE
  5
CE
100
AcDbEntity
  8
図枠
  6
CONTINUOUS
 62
     2
100
AcDbLine
 10
1512.661148
 20
77.343689
 30
0.0
 11
1521.652618
 21
66.999985
 31
0.0
  0
LINE
  5
CF
100
AcDbEntity
  8
図枠
  6
CONTINUOUS
 62
     2
100
AcDbLine
 10
1511.01709
 20
75.080811
 30
0.0
 11
1518.041855
 21
66.999985
 31
0.0
  0
LINE
  5
D0
100
AcDbEntity
  8
図枠
  6
CONTINUOUS
 62
     2
100
AcDbLine
 10
1511.846481
 20
76.222397
 30
0.0
 11
1519.863754
 21
66.999985
 31
0.0
  0
LINE
  5
D1
100
AcDbEntity
  8
図枠
  6
CONTINUOUS
 62
     2
100
AcDbLine
 10
1534.199692
 20
91.149994
 30
0.0
 11
1563.399673
 21
91.149994
 31
0.0
  0
LINE
  5
D2
100
AcDbEntity
  8
図枠
  6
CONTINUOUS
 62
     2
100
AcDbLine
 10
1534.199692
 20
89.525009
 30
0.0
 11
1563.399673
 21
89.525009
 31
0.0
  0
LINE
  5
D3
100
AcDbEntity
  8
図枠
  6
CONTINUOUS
 62
     2
100
AcDbLine
 10
1546.749512
 20
70.774933
 30
0.0
 11
1546.749512
 21
88.525024
 31
0.0
  0
LINE
  5
D4
100
AcDbEntity
  8
図枠
  6
CONTINUOUS
 62
     2
100
AcDbLine
 10
1548.074509
 20
70.774933
 30
0.0
 11
1548.074509
 21
88.525024
 31
0.0
  0
LINE
  5
D5
100
AcDbEntity
  8
図枠
  6
CONTINUOUS
 62
     2
100
AcDbLine
 10
1549.524857
 20
70.774933
 30
0.0
 11
1549.524857
 21
88.525024
 31
0.0
  0
LINE
  5
D6
100
AcDbEntity
  8
図枠
  6
CONTINUOUS
 62
     2
100
AcDbLine
 10
1550.849854
 20
70.774933
 30
0.0
 11
1550.849854
 21
88.525024
 31
0.0
  0
LINE
  5
D7
100
AcDbEntity
  8
図枠
  6
CONTINUOUS
 62
     2
100
AcDbLine
 10
1532.999741
 20
69.774948
 30
0.0
 11
1564.599625
 21
69.774948
 31
0.0
  0
LINE
  5
D8
100
AcDbEntity
  8
図枠
  6
CONTINUOUS
 62
     2
100
AcDbLine
 10
1532.999741
 20
68.399979
 30
0.0
 11
1564.599625
 21
68.399979
 31
0.0
  0
LINE
  5
D9
100
AcDbEntity
  8
図枠
  6
CONTINUOUS
 62
     2
100
AcDbLine
 10
1532.999741
 20
67.025009
 30
0.0
 11
1564.599625
 21
67.025009
 31
0.0
  0
LINE
  5
DA
100
AcDbEntity
  8
図枠
  6
CONTINUOUS
 62
     7
100
AcDbLine
 10
1573.620163
 20
88.207794
 30
0.0
 11
1570.960556
 21
91.611954
 31
0.0
  0
LINE
  5
DB
100
AcDbEntity
  8
図枠
  6
CONTINUOUS
 62
     7
100
AcDbLine
 10
1575.459991
 20
88.207794
 30
0.0
 11
1572.800385
 21
91.611954
 31
0.0
  0
LINE
  5
DC
100
AcDbEntity
  8
図枠
  6
CONTINUOUS
 62
     7
100
AcDbLine
 10
1579.275604
 20
88.419739
 30
0.0
 11
1579.275604
 21
91.400009
 31
0.0
  0
LINE
  5
DD
100
AcDbEntity
  8
図枠
  6
CONTINUOUS
 62
     7
100
AcDbLine
 10
1580.724884
 20
88.419739
 30
0.0
 11
1580.724884
 21
91.400009
 31
0.0
  0
LINE
  5
DE
100
AcDbEntity
  8
図枠
  6
CONTINUOUS
 62
     7
100
AcDbLine
 10
1585.27536
 20
88.419739
 30
0.0
 11
1585.27536
 21
91.400009
 31
0.0
  0
LINE
  5
DF
100
AcDbEntity
  8
図枠
  6
CONTINUOUS
 62
     7
100
AcDbLine
 10
1586.72464
 20
88.419739
 30
0.0
 11
1586.72464
 21
91.400009
 31
0.0
  0
LINE
  5
E0
100
AcDbEntity
  8
図枠
  6
CONTINUOUS
 62
     7
100
AcDbLine
 10
1590.540176
 20
88.207794
 30
0.0
 11
1593.199783
 21
91.611954
 31
0.0
  0
LINE
  5
E1
100
AcDbEntity
  8
図枠
  6
CONTINUOUS
 62
     7
100
AcDbLine
 10
1592.380081
 20
88.207794
 30
0.0
 11
1595.039688
 21
91.611954
 31
0.0
  0
LINE
  5
E2
100
AcDbEntity
  8
図枠
  6
CONTINUOUS
 62
     7
100
AcDbLine
 10
1567.20018
 20
87.419754
 30
0.0
 11
1598.800064
 21
87.419754
 31
0.0
  0
LINE
  5
E3
100
AcDbEntity
  8
図枠
  6
CONTINUOUS
 62
     2
100
AcDbLine
 10
1573.826538
 20
86.480041
 30
0.0
 11
1575.238129
 21
82.599655
 31
0.0
  0
LINE
  5
E4
100
AcDbEntity
  8
図枠
  6
CONTINUOUS
 62
     7
100
AcDbLine
 10
1575.581146
 20
86.480118
 30
0.0
 11
1576.994492
 21
82.599503
 31
0.0
  0
LINE
  5
E5
100
AcDbEntity
  8
図枠
  6
CONTINUOUS
 62
     7
100
AcDbLine
 10
1577.284027
 20
86.480118
 30
0.0
 11
1578.697296
 21
82.599503
 31
0.0
  0
LINE
  5
E6
100
AcDbEntity
  8
図枠
  6
CONTINUOUS
 62
     2
100
AcDbLine
 10
1588.716141
 20
86.480118
 30
0.0
 11
1587.302872
 21
82.599503
 31
0.0
  0
LINE
  5
E7
100
AcDbEntity
  8
図枠
  6
CONTINUOUS
 62
     2
100
AcDbLine
 10
1590.418945
 20
86.480118
 30
0.0
 11
1589.005676
 21
82.599503
 31
0.0
  0
LINE
  5
E8
100
AcDbEntity
  8
図枠
  6
CONTINUOUS
 62
     2
100
AcDbLine
 10
1592.173706
 20
86.479965
 30
0.0
 11
1590.762192
 21
82.599655
 31
0.0
  0
LINE
  5
E9
100
AcDbEntity
  8
図枠
  6
CONTINUOUS
 62
     7
100
AcDbLine
 10
1567.20018
 20
81.659866
 30
0.0
 11
1598.800064
 21
81.659866
 31
0.0
  0
LINE
  5
EA
100
AcDbEntity
  8
図枠
  6
CONTINUOUS
 62
     7
100
AcDbLine
 10
1567.20018
 20
77.519852
 30
0.0
 11
1580.075241
 21
77.519852
 31
0.0
  0
LINE
  5
EB
100
AcDbEntity
  8
図枠
  6
CONTINUOUS
 62
     7
100
AcDbLine
 10
1585.925003
 20
77.519852
 30
0.0
 11
1598.800064
 21
77.519852
 31
0.0
  0
LINE
  5
EC
100
AcDbEntity
  8
図枠
  6
CONTINUOUS
 62
     7
100
AcDbLine
 10
1567.20018
 20
73.379837
 30
0.0
 11
1580.075241
 21
73.379837
 31
0.0
  0
LINE
  5
ED
100
AcDbEntity
  8
図枠
  6
CONTINUOUS
 62
     7
100
AcDbLine
 10
1585.925003
 20
73.379837
 30
0.0
 11
1598.800064
 21
73.379837
 31
0.0
  0
LINE
  5
EE
100
AcDbEntity
  8
図枠
  6
CONTINUOUS
 62
     2
100
AcDbLine
 10
1581.075226
 20
66.999985
 30
0.0
 11
1581.075226
 21
80.659882
 31
0.0
  0
LINE
  5
EF
100
AcDbEntity
  8
図枠
  6
CONTINUOUS
 62
     2
100
AcDbLine
 10
1582.325226
 20
66.999985
 30
0.0
 11
1582.325226
 21
80.659882
 31
0.0
  0
LINE
  5
F0
100
AcDbEntity
  8
図枠
  6
CONTINUOUS
 62
     2
100
AcDbLine
 10
1583.675018
 20
66.999985
 30
0.0
 11
1583.675018
 21
80.659882
 31
0.0
  0
LINE
  5
F1
100
AcDbEntity
  8
図枠
  6
CONTINUOUS
 62
     2
100
AcDbLine
 10
1584.925018
 20
66.999985
 30
0.0
 11
1584.925018
 21
80.659882
 31
0.0
  0
LINE
  5
F2
100
AcDbEntity
  8
図枠
  6
CONTINUOUS
 62
     2
100
AcDbLine
 10
1568.620239
 20
66.670395
 30
0.0
 11
1575.304123
 21
72.709442
 31
0.0
  0
LINE
  5
F3
100
AcDbEntity
  8
図枠
  6
CONTINUOUS
 62
     2
100
AcDbLine
 10
1570.559021
 20
66.670395
 30
0.0
 11
1577.242905
 21
72.709442
 31
0.0
  0
LINE
  5
F4
100
AcDbEntity
  8
図枠
  6
CONTINUOUS
 62
     2
100
AcDbLine
 10
1572.423569
 20
66.670395
 30
0.0
 11
1579.107452
 21
72.709442
 31
0.0
  0
LINE
  5
F5
100
AcDbEntity
  8
図枠
  6
CONTINUOUS
 62
     2
100
AcDbLine
 10
1593.576752
 20
66.670395
 30
0.0
 11
1586.892868
 21
72.709442
 31
0.0
  0
LINE
  5
F6
100
AcDbEntity
  8
図枠
  6
CONTINUOUS
 62
     2
100
AcDbLine
 10
1595.441299
 20
66.670395
 30
0.0
 11
1588.757416
 21
72.709442
 31
0.0
  0
LINE
  5
F7
100
AcDbEntity
  8
図枠
  6
CONTINUOUS
 62
     2
100
AcDbLine
 10
1597.380005
 20
66.670395
 30
0.0
 11
1590.696121
 21
72.709442
 31
0.0
  0
LINE
  5
F8
100
AcDbEntity
  8
図枠
  6
CONTINUOUS
 62
     2
100
AcDbLine
 10
1608.249756
 20
66.999985
 30
0.0
 11
1608.249756
 21
91.400009
 31
0.0
  0
LINE
  5
F9
100
AcDbEntity
  8
図枠
  6
CONTINUOUS
 62
     2
100
AcDbLine
 10
1609.699951
 20
66.999985
 30
0.0
 11
1609.699951
 21
91.400009
 31
0.0
  0
LINE
  5
FA
100
AcDbEntity
  8
図枠
  6
CONTINUOUS
 62
     2
100
AcDbLine
 10
1611.150146
 20
66.999985
 30
0.0
 11
1611.150146
 21
91.400009
 31
0.0
  0
LINE
  5
FB
100
AcDbEntity
  8
図枠
  6
CONTINUOUS
 62
     7
100
AcDbLine
 10
1601.999985
 20
87.900101
 30
0.0
 11
1607.249771
 21
87.900101
 31
0.0
  0
LINE
  5
FC
100
AcDbEntity
  8
図枠
  6
CONTINUOUS
 62
     7
100
AcDbLine
 10
1612.150131
 20
87.900101
 30
0.0
 11
1613.199478
 21
87.900101
 31
0.0
  0
LINE
  5
FD
100
AcDbEntity
  8
図枠
  6
CONTINUOUS
 62
     2
100
AcDbLine
 10
1602.235733
 20
66.994492
 30
0.0
 11
1604.329163
 21
86.905609
 31
0.0
  0
LINE
  5
FE
100
AcDbEntity
  8
図枠
  6
CONTINUOUS
 62
     2
100
AcDbLine
 10
1603.592697
 20
66.994492
 30
0.0
 11
1605.686127
 21
86.905609
 31
0.0
  0
LINE
  5
FF
100
AcDbEntity
  8
図枠
  6
CONTINUOUS
 62
     2
100
AcDbLine
 10
1611.737839
 20
85.184876
 30
0.0
 11
1613.611771
 21
82.604691
 31
0.0
  0
LINE
  5
100
100
AcDbEntity
  8
図枠
  6
CONTINUOUS
 62
     2
100
AcDbLine
 10
1611.737762
 20
83.314682
 30
0.0
 11
1613.611847
 21
80.734192
 31
0.0
  0
LINE
  5
101
100
AcDbEntity
  8
図枠
  6
CONTINUOUS
 62
     2
100
AcDbLine
 10
1615.738235
 20
85.570313
 30
0.0
 11
1617.198959
 21
91.429688
 31
0.0
  0
LINE
  5
102
100
AcDbEntity
  8
図枠
  6
CONTINUOUS
 62
     2
100
AcDbLine
 10
1617.026535
 20
85.570313
 30
0.0
 11
1618.487259
 21
91.429688
 31
0.0
  0
LINE
  5
103
100
AcDbEntity
  8
図枠
  6
CONTINUOUS
 62
     2
100
AcDbLine
 10
1618.108231
 20
85.570313
 30
0.0
 11
1619.569794
 21
91.429688
 31
0.0
  0
LINE
  5
104
100
AcDbEntity
  8
図枠
  6
CONTINUOUS
 62
     7
100
AcDbLine
 10
1619.689346
 20
87.900101
 30
0.0
 11
1622.550064
 21
87.900101
 31
0.0
  0
LINE
  5
105
100
AcDbEntity
  8
図枠
  6
CONTINUOUS
 62
     7
100
AcDbLine
 10
1627.450424
 20
87.900101
 30
0.0
 11
1633.599869
 21
87.900101
 31
0.0
  0
LINE
  5
106
100
AcDbEntity
  8
図枠
  6
CONTINUOUS
 62
     2
100
AcDbLine
 10
1623.550049
 20
66.999985
 30
0.0
 11
1623.550049
 21
91.400009
 31
0.0
  0
LINE
  5
107
100
AcDbEntity
  8
図枠
  6
CONTINUOUS
 62
     2
100
AcDbLine
 10
1625.000244
 20
66.999985
 30
0.0
 11
1625.000244
 21
91.400009
 31
0.0
  0
LINE
  5
108
100
AcDbEntity
  8
図枠
  6
CONTINUOUS
 62
     2
100
AcDbLine
 10
1626.450439
 20
66.999985
 30
0.0
 11
1626.450439
 21
91.400009
 31
0.0
  0
LINE
  5
109
100
AcDbEntity
  8
図枠
  6
CONTINUOUS
 62
     7
100
AcDbLine
 10
1615.800034
 20
81.899734
 30
0.0
 11
1622.550064
 21
81.899734
 31
0.0
  0
LINE
  5
10A
100
AcDbEntity
  8
図枠
  6
CONTINUOUS
 62
     7
100
AcDbLine
 10
1627.450424
 20
81.899734
 30
0.0
 11
1634.200455
 21
81.899734
 31
0.0
  0
LINE
  5
10B
100
AcDbEntity
  8
図枠
  6
CONTINUOUS
 62
     2
100
AcDbLine
 10
1616.122528
 20
66.98381
 30
0.0
 11
1618.658234
 21
80.915924
 31
0.0
  0
LINE
  5
10C
100
AcDbEntity
  8
図枠
  6
CONTINUOUS
 62
     2
100
AcDbLine
 10
1617.520157
 20
66.98381
 30
0.0
 11
1620.055786
 21
80.915924
 31
0.0
  0
LINE
  5
10D
100
AcDbEntity
  8
図枠
  6
CONTINUOUS
 62
     2
100
AcDbLine
 10
1618.714844
 20
66.98381
 30
0.0
 11
1621.250473
 21
80.915924
 31
0.0
  0
LINE
  5
10E
100
AcDbEntity
  8
図枠
  6
CONTINUOUS
 62
     2
100
AcDbLine
 10
1631.285721
 20
66.98381
 30
0.0
 11
1628.750015
 21
80.915924
 31
0.0
  0
LINE
  5
10F
100
AcDbEntity
  8
図枠
  6
CONTINUOUS
 62
     2
100
AcDbLine
 10
1632.480179
 20
66.98381
 30
0.0
 11
1629.943329
 21
80.915924
 31
0.0
  0
LINE
  5
110
100
AcDbEntity
  8
図枠
  6
CONTINUOUS
 62
     2
100
AcDbLine
 10
1633.877808
 20
66.98381
 30
0.0
 11
1631.340958
 21
80.915924
 31
0.0
  0
LINE
  5
111
100
AcDbEntity
  8
図枠
  6
CONTINUOUS
 62
     2
100
AcDbLine
 10
1637.400375
 20
88.874985
 30
0.0
 11
1654.848495
 21
88.874985
 31
0.0
  0
LINE
  5
112
100
AcDbEntity
  8
図枠
  6
CONTINUOUS
 62
     2
100
AcDbLine
 10
1637.400375
 20
87.52504
 30
0.0
 11
1655.339752
 21
87.52504
 31
0.0
  0
LINE
  5
113
100
AcDbEntity
  8
図枠
  6
CONTINUOUS
 62
     2
100
AcDbLine
 10
1661.967941
 20
87.52504
 30
0.0
 11
1669.000259
 21
87.52504
 31
0.0
  0
LINE
  5
114
100
AcDbEntity
  8
図枠
  6
CONTINUOUS
 62
     2
100
AcDbLine
 10
1661.476608
 20
88.874985
 30
0.0
 11
1669.000259
 21
88.874985
 31
0.0
  0
LINE
  5
115
100
AcDbEntity
  8
図枠
  6
CONTINUOUS
 62
     2
100
AcDbLine
 10
1663.925568
 20
89.87497
 30
0.0
 11
1663.925568
 21
91.400009
 31
0.0
  0
LINE
  5
116
100
AcDbEntity
  8
図枠
  6
CONTINUOUS
 62
     2
100
AcDbLine
 10
1665.550552
 20
89.87497
 30
0.0
 11
1665.550552
 21
91.400009
 31
0.0
  0
LINE
  5
117
100
AcDbEntity
  8
図枠
  6
CONTINUOUS
 62
     2
100
AcDbLine
 10
1667.074677
 20
89.87497
 30
0.0
 11
1667.074677
 21
91.400009
 31
0.0
  0
LINE
  5
118
100
AcDbEntity
  8
図枠
  6
CONTINUOUS
 62
     2
100
AcDbLine
 10
1663.831497
 20
66.939713
 30
0.0
 11
1654.907623
 21
91.460281
 31
0.0
  0
LINE
  5
119
100
AcDbEntity
  8
図枠
  6
CONTINUOUS
 62
     2
100
AcDbLine
 10
1665.427719
 20
66.939713
 30
0.0
 11
1656.503845
 21
91.460281
 31
0.0
  0
LINE
  5
11A
100
AcDbEntity
  8
図枠
  6
CONTINUOUS
 62
     2
100
AcDbLine
 10
1666.864716
 20
66.939713
 30
0.0
 11
1657.939316
 21
91.460281
 31
0.0
  0
LINE
  5
11B
100
AcDbEntity
  8
図枠
  6
CONTINUOUS
 62
     2
100
AcDbLine
 10
1668.461014
 20
66.939713
 30
0.0
 11
1659.535538
 21
91.460281
 31
0.0
  0
LINE
  5
11C
100
AcDbEntity
  8
図枠
  6
CONTINUOUS
 62
     2
100
AcDbLine
 10
1639.199692
 20
81.674973
 30
0.0
 11
1655.200211
 21
81.674973
 31
0.0
  0
LINE
  5
11D
100
AcDbEntity
  8
図枠
  6
CONTINUOUS
 62
     2
100
AcDbLine
 10
1639.199692
 20
80.325027
 30
0.0
 11
1655.200211
 21
80.325027
 31
0.0
  0
LINE
  5
11E
100
AcDbEntity
  8
図枠
  6
CONTINUOUS
 62
     2
100
AcDbLine
 10
1645.025421
 20
79.325043
 30
0.0
 11
1645.025421
 21
72.884842
 31
0.0
  0
LINE
  5
11F
100
AcDbEntity
  8
図枠
  6
CONTINUOUS
 62
     2
100
AcDbLine
 10
1646.400391
 20
79.325043
 30
0.0
 11
1646.400391
 21
73.177048
 31
0.0
  0
LINE
  5
120
100
AcDbEntity
  8
図枠
  6
CONTINUOUS
 62
     2
100
AcDbLine
 10
1647.999512
 20
79.325043
 30
0.0
 11
1647.999512
 21
73.516937
 31
0.0
  0
LINE
  5
121
100
AcDbEntity
  8
図枠
  6
CONTINUOUS
 62
     2
100
AcDbLine
 10
1649.374481
 20
79.325043
 30
0.0
 11
1649.374481
 21
73.809143
 31
0.0
  0
LINE
  5
122
100
AcDbEntity
  8
図枠
  6
CONTINUOUS
 62
     2
100
AcDbLine
 10
1638.877579
 20
70.5784
 30
0.0
 11
1655.522324
 21
74.115692
 31
0.0
  0
LINE
  5
123
100
AcDbEntity
  8
図枠
  6
CONTINUOUS
 62
     2
100
AcDbLine
 10
1638.877579
 20
68.967987
 30
0.0
 11
1655.522324
 21
72.506043
 31
0.0
  0
LINE
  5
124
100
AcDbEntity
  8
図枠
  6
CONTINUOUS
 62
     2
100
AcDbLine
 10
1638.877579
 20
67.357956
 30
0.0
 11
1655.522324
 21
70.895706
 31
0.0
  0
LINE
  5
125
100
AcDbEntity
  8
図枠
  6
CONTINUOUS
 62
     2
100
AcDbLine
 10
1672.148529
 20
86.40947
 30
0.0
 11
1687.588593
 21
91.575714
 31
0.0
  0
LINE
  5
126
100
AcDbEntity
  8
図枠
  6
CONTINUOUS
 62
     2
100
AcDbLine
 10
1672.148529
 20
84.985596
 30
0.0
 11
1687.588593
 21
90.152069
 31
0.0
  0
LINE
  5
127
100
AcDbEntity
  8
図枠
  6
CONTINUOUS
 62
     2
100
AcDbLine
 10
1689.011017
 20
91.575714
 30
0.0
 11
1704.45108
 21
86.409317
 31
0.0
  0
LINE
  5
128
100
AcDbEntity
  8
図枠
  6
CONTINUOUS
 62
     2
100
AcDbLine
 10
1689.011017
 20
90.152069
 30
0.0
 11
1704.45108
 21
84.986359
 31
0.0
  0
LINE
  5
129
100
AcDbEntity
  8
図枠
  6
CONTINUOUS
 62
     2
100
AcDbLine
 10
1677.300278
 20
84.675003
 30
0.0
 11
1699.300552
 21
84.675003
 31
0.0
  0
LINE
  5
12A
100
AcDbEntity
  8
図枠
  6
CONTINUOUS
 62
     2
100
AcDbLine
 10
1677.300278
 20
83.325058
 30
0.0
 11
1699.300552
 21
83.325058
 31
0.0
  0
LINE
  5
12B
100
AcDbEntity
  8
図枠
  6
CONTINUOUS
 62
     2
100
AcDbLine
 10
1672.20018
 20
78.674942
 30
0.0
 11
1704.399429
 21
78.674942
 31
0.0
  0
LINE
  5
12C
100
AcDbEntity
  8
図枠
  6
CONTINUOUS
 62
     2
100
AcDbLine
 10
1672.20018
 20
77.324997
 30
0.0
 11
1704.399429
 21
77.324997
 31
0.0
  0
LINE
  5
12D
100
AcDbEntity
  8
図枠
  6
CONTINUOUS
 62
     2
100
AcDbLine
 10
1677.299286
 20
76.418701
 30
0.0
 11
1674.018036
 21
69.381271
 31
0.0
  0
LINE
  5
12E
100
AcDbEntity
  8
図枠
  6
CONTINUOUS
 62
     2
100
AcDbLine
 10
1678.678452
 20
76.418701
 30
0.0
 11
1675.397202
 21
69.381271
 31
0.0
  0
LINE
  5
12F
100
AcDbEntity
  8
図枠
  6
CONTINUOUS
 62
     2
100
AcDbLine
 10
1680.057465
 20
76.418701
 30
0.0
 11
1676.776062
 21
69.381271
 31
0.0
  0
LINE
  5
130
100
AcDbEntity
  8
図枠
  6
CONTINUOUS
 62
     2
100
AcDbLine
 10
1681.43663
 20
76.418701
 30
0.0
 11
1678.155304
 21
69.381271
 31
0.0
  0
LINE
  5
131
100
AcDbEntity
  8
図枠
  6
CONTINUOUS
 62
     2
100
AcDbLine
 10
1695.162979
 20
76.418701
 30
0.0
 11
1698.444382
 21
69.381271
 31
0.0
  0
LINE
  5
132
100
AcDbEntity
  8
図枠
  6
CONTINUOUS
 62
     2
100
AcDbLine
 10
1696.542221
 20
76.418701
 30
0.0
 11
1699.823547
 21
69.381271
 31
0.0
  0
LINE
  5
133
100
AcDbEntity
  8
図枠
  6
CONTINUOUS
 62
     2
100
AcDbLine
 10
1697.921158
 20
76.418701
 30
0.0
 11
1701.202408
 21
69.381271
 31
0.0
  0
LINE
  5
134
100
AcDbEntity
  8
図枠
  6
CONTINUOUS
 62
     2
100
AcDbLine
 10
1699.300324
 20
76.418701
 30
0.0
 11
1702.581574
 21
69.381271
 31
0.0
  0
LINE
  5
135
100
AcDbEntity
  8
図枠
  6
CONTINUOUS
 62
     2
100
AcDbLine
 10
1673.354202
 20
68.474976
 30
0.0
 11
1703.245407
 21
68.474976
 31
0.0
  0
LINE
  5
136
100
AcDbEntity
  8
図枠
  6
CONTINUOUS
 62
     2
100
AcDbLine
 10
1672.724777
 20
67.12503
 30
0.0
 11
1703.874832
 21
67.12503
 31
0.0
  0
LINE
  5
137
100
AcDbEntity
  8
図枠
  6
CONTINUOUS
 62
     2
100
AcDbLine
 10
1713.124786
 20
91.400009
 30
0.0
 11
1713.124786
 21
89.87497
 31
0.0
  0
LINE
  5
138
100
AcDbEntity
  8
図枠
  6
CONTINUOUS
 62
     2
100
AcDbLine
 10
1714.374786
 20
91.400009
 30
0.0
 11
1714.374786
 21
89.87497
 31
0.0
  0
LINE
  5
139
100
AcDbEntity
  8
図枠
  6
CONTINUOUS
 62
     2
100
AcDbLine
 10
1715.624481
 20
91.400009
 30
0.0
 11
1715.624481
 21
89.87497
 31
0.0
  0
LINE
  5
13A
100
AcDbEntity
  8
図枠
  6
CONTINUOUS
 62
     2
100
AcDbLine
 10
1716.874481
 20
91.400009
 30
0.0
 11
1716.874481
 21
89.87497
 31
0.0
  0
LINE
  5
13B
100
AcDbEntity
  8
図枠
  6
CONTINUOUS
 62
     2
100
AcDbLine
 10
1707.59935
 20
88.874985
 30
0.0
 11
1721.612335
 21
88.874985
 31
0.0
  0
LINE
  5
13C
100
AcDbEntity
  8
図枠
  6
CONTINUOUS
 62
     2
100
AcDbLine
 10
1707.59935
 20
87.52504
 30
0.0
 11
1720.667282
 21
87.52504
 31
0.0
  0
LINE
  5
13D
100
AcDbEntity
  8
図枠
  6
CONTINUOUS
 62
     2
100
AcDbLine
 10
1715.875946
 20
86.705795
 30
0.0
 11
1707.172867
 21
74.273926
 31
0.0
  0
LINE
  5
13E
100
AcDbEntity
  8
図枠
  6
CONTINUOUS
 62
     2
100
AcDbLine
 10
1717.707001
 20
86.705795
 30
0.0
 11
1707.172867
 21
71.658417
 31
0.0
  0
LINE
  5
13F
100
AcDbEntity
  8
図枠
  6
CONTINUOUS
 62
     2
100
AcDbLine
 10
1719.721237
 20
86.705795
 30
0.0
 11
1707.172867
 21
68.780991
 31
0.0
  0
LINE
  5
140
100
AcDbEntity
  8
図枠
  6
CONTINUOUS
 62
     2
100
AcDbLine
 10
1716.458908
 20
80.302063
 30
0.0
 11
1721.981369
 21
76.435867
 31
0.0
  0
LINE
  5
141
100
AcDbEntity
  8
図枠
  6
CONTINUOUS
 62
     2
100
AcDbLine
 10
1715.598694
 20
79.073273
 30
0.0
 11
1721.981369
 21
74.604889
 31
0.0
  0
LINE
  5
142
100
AcDbEntity
  8
図枠
  6
CONTINUOUS
 62
     2
100
AcDbLine
 10
1714.652191
 20
77.721268
 30
0.0
 11
1721.981369
 21
72.590347
 31
0.0
  0
LINE
  5
143
100
AcDbEntity
  8
図枠
  6
CONTINUOUS
 62
     2
100
AcDbLine
 10
1713.124786
 20
76.283051
 30
0.0
 11
1713.124786
 21
66.999985
 31
0.0
  0
LINE
  5
144
100
AcDbEntity
  8
図枠
  6
CONTINUOUS
 62
     2
100
AcDbLine
 10
1714.374786
 20
76.915527
 30
0.0
 11
1714.374786
 21
66.999985
 31
0.0
  0
LINE
  5
145
100
AcDbEntity
  8
図枠
  6
CONTINUOUS
 62
     2
100
AcDbLine
 10
1715.624481
 20
76.040665
 30
0.0
 11
1715.624481
 21
66.999985
 31
0.0
  0
LINE
  5
146
100
AcDbEntity
  8
図枠
  6
CONTINUOUS
 62
     2
100
AcDbLine
 10
1716.874481
 20
75.165573
 30
0.0
 11
1716.874481
 21
66.999985
 31
0.0
  0
LINE
  5
147
100
AcDbEntity
  8
図枠
  6
CONTINUOUS
 62
     2
100
AcDbLine
 10
1723.800522
 20
84.675003
 30
0.0
 11
1728.324753
 21
84.675003
 31
0.0
  0
LINE
  5
148
100
AcDbEntity
  8
図枠
  6
CONTINUOUS
 62
     2
100
AcDbLine
 10
1723.800522
 20
83.325058
 30
0.0
 11
1728.324753
 21
83.325058
 31
0.0
  0
LINE
  5
149
100
AcDbEntity
  8
図枠
  6
CONTINUOUS
 62
     2
100
AcDbLine
 10
1734.074417
 20
84.675003
 30
0.0
 11
1738.599869
 21
84.675003
 31
0.0
  0
LINE
  5
14A
100
AcDbEntity
  8
図枠
  6
CONTINUOUS
 62
     2
100
AcDbLine
 10
1734.074417
 20
83.325058
 30
0.0
 11
1738.599869
 21
83.325058
 31
0.0
  0
LINE
  5
14B
100
AcDbEntity
  8
図枠
  6
CONTINUOUS
 62
     2
100
AcDbLine
 10
1729.324738
 20
91.400009
 30
0.0
 11
1729.324738
 21
69.47496
 31
0.0
  0
LINE
  5
14C
100
AcDbEntity
  8
図枠
  6
CONTINUOUS
 62
     2
100
AcDbLine
 10
1730.574738
 20
91.400009
 30
0.0
 11
1730.574738
 21
69.47496
 31
0.0
  0
LINE
  5
14D
100
AcDbEntity
  8
図枠
  6
CONTINUOUS
 62
     2
100
AcDbLine
 10
1731.824432
 20
91.400009
 30
0.0
 11
1731.824432
 21
69.47496
 31
0.0
  0
LINE
  5
14E
100
AcDbEntity
  8
図枠
  6
CONTINUOUS
 62
     2
100
AcDbLine
 10
1733.074432
 20
91.400009
 30
0.0
 11
1733.074432
 21
69.47496
 31
0.0
  0
LINE
  5
14F
100
AcDbEntity
  8
図枠
  6
CONTINUOUS
 62
     2
100
AcDbLine
 10
1721.399399
 20
68.474976
 30
0.0
 11
1739.200455
 21
68.474976
 31
0.0
  0
LINE
  5
150
100
AcDbEntity
  8
図枠
  6
CONTINUOUS
 62
     2
100
AcDbLine
 10
1721.399399
 20
67.12503
 30
0.0
 11
1739.200455
 21
67.12503
 31
0.0
  0
LINE
  5
151
100
AcDbEntity
  8
図枠
  6
CONTINUOUS
 62
     3
100
AcDbLine
 10
1419.800049
 20
92.399994
 30
0.0
 11
1424.599854
 21
92.399994
 31
0.0
  0
LINE
  5
152
100
AcDbEntity
  8
図枠
  6
CONTINUOUS
 62
     3
100
AcDbLine
 10
1424.599854
 20
92.399994
 30
0.0
 11
1424.599854
 21
87.600037
 31
0.0
  0
LINE
  5
153
100
AcDbEntity
  8
図枠
  6
CONTINUOUS
 62
     3
100
AcDbLine
 10
1424.599854
 20
87.600037
 30
0.0
 11
1419.800049
 21
87.600037
 31
0.0
  0
LINE
  5
154
100
AcDbEntity
  8
図枠
  6
CONTINUOUS
 62
     3
100
AcDbLine
 10
1419.800049
 20
92.399994
 30
0.0
 11
1419.800049
 21
87.600037
 31
0.0
  0
LINE
  5
155
100
AcDbEntity
  8
図枠
  6
CONTINUOUS
 62
     3
100
AcDbLine
 10
1413.199707
 20
92.399994
 30
0.0
 11
1417.999512
 21
92.399994
 31
0.0
  0
LINE
  5
156
100
AcDbEntity
  8
図枠
  6
CONTINUOUS
 62
     3
100
AcDbLine
 10
1417.999512
 20
92.399994
 30
0.0
 11
1417.999512
 21
87.600037
 31
0.0
  0
LINE
  5
157
100
AcDbEntity
  8
図枠
  6
CONTINUOUS
 62
     3
100
AcDbLine
 10
1417.999512
 20
87.600037
 30
0.0
 11
1413.199707
 21
87.600037
 31
0.0
  0
LINE
  5
158
100
AcDbEntity
  8
図枠
  6
CONTINUOUS
 62
     3
100
AcDbLine
 10
1413.199707
 20
92.399994
 30
0.0
 11
1413.199707
 21
87.600037
 31
0.0
  0
LINE
  5
159
100
AcDbEntity
  8
図枠
  6
CONTINUOUS
 62
     3
100
AcDbLine
 10
1391.0
 20
71.999985
 30
0.0
 11
1407.5271
 21
71.999985
 31
0.0
  0
ARC
  5
15A
100
AcDbEntity
  8
図枠
  6
CONTINUOUS
 62
     3
100
AcDbCircle
 10
1407.5271
 20
76.800018
 30
0.0
 40
4.8
100
AcDbArc
 50
270.000031
 51
333.99855
  0
LINE
  5
15B
100
AcDbEntity
  8
図枠
  6
CONTINUOUS
 62
     3
100
AcDbLine
 10
1411.841064
 20
74.695831
 30
0.0
 11
1417.257324
 21
85.800034
 31
0.0
  0
LINE
  5
15C
100
AcDbEntity
  8
図枠
  6
CONTINUOUS
 62
     3
100
AcDbLine
 10
1417.257324
 20
85.800034
 30
0.0
 11
1424.599854
 21
85.800034
 31
0.0
  0
LINE
  5
15D
100
AcDbEntity
  8
図枠
  6
CONTINUOUS
 62
     3
100
AcDbLine
 10
1424.599854
 20
85.800034
 30
0.0
 11
1417.900635
 21
72.065598
 31
0.0
  0
ARC
  5
15E
100
AcDbEntity
  8
図枠
  6
CONTINUOUS
 62
     3
100
AcDbCircle
 10
1408.194824
 20
76.800018
 30
0.0
 40
10.799999
100
AcDbArc
 50
270.000031
 51
334.000137
  0
LINE
  5
15F
100
AcDbEntity
  8
図枠
  6
CONTINUOUS
 62
     3
100
AcDbLine
 10
1408.194824
 20
66.0
 30
0.0
 11
1391.0
 21
66.0
 31
0.0
  0
LINE
  5
160
100
AcDbEntity
  8
図枠
  6
CONTINUOUS
 62
     3
100
AcDbLine
 10
1391.0
 20
71.999985
 30
0.0
 11
1391.0
 21
66.0
 31
0.0
  0
LINE
  5
161
100
AcDbEntity
  8
図枠
  6
CONTINUOUS
 62
     3
100
AcDbLine
 10
1391.0
 20
85.199982
 30
0.0
 11
1407.800537
 21
85.199982
 31
0.0
  0
LINE
  5
162
100
AcDbEntity
  8
図枠
  6
CONTINUOUS
 62
     3
100
AcDbLine
 10
1407.800537
 20
85.199982
 30
0.0
 11
1407.800537
 21
79.799973
 31
0.0
  0
LINE
  5
163
100
AcDbEntity
  8
図枠
  6
CONTINUOUS
 62
     3
100
AcDbLine
 10
1407.800537
 20
79.799973
 30
0.0
 11
1391.0
 21
79.799973
 31
0.0
  0
LINE
  5
164
100
AcDbEntity
  8
図枠
  6
CONTINUOUS
 62
     3
100
AcDbLine
 10
1391.0
 20
85.199982
 30
0.0
 11
1391.0
 21
79.799973
 31
0.0
  0
LINE
  5
165
100
AcDbEntity
  8
図枠
  6
CONTINUOUS
 62
     3
100
AcDbLine
 10
1391.0
 20
92.399994
 30
0.0
 11
1407.800537
 21
92.399994
 31
0.0
  0
LINE
  5
166
100
AcDbEntity
  8
図枠
  6
CONTINUOUS
 62
     3
100
AcDbLine
 10
1407.800537
 20
92.399994
 30
0.0
 11
1407.800537
 21
86.999985
 31
0.0
  0
LINE
  5
167
100
AcDbEntity
  8
図枠
  6
CONTINUOUS
 62
     3
100
AcDbLine
 10
1407.800537
 20
86.999985
 30
0.0
 11
1391.0
 21
86.999985
 31
0.0
  0
LINE
  5
168
100
AcDbEntity
  8
図枠
  6
CONTINUOUS
 62
     3
100
AcDbLine
 10
1391.0
 20
92.399994
 30
0.0
 11
1391.0
 21
86.999985
 31
0.0
  0
LINE
  5
169
100
AcDbEntity
  8
図枠
  6
CONTINUOUS
 62
     3
100
AcDbLine
 10
1426.400391
 20
85.800034
 30
0.0
 11
1431.865479
 21
85.800034
 31
0.0
  0
LINE
  5
16A
100
AcDbEntity
  8
図枠
  6
CONTINUOUS
 62
     3
100
AcDbLine
 10
1431.200195
 20
90.000015
 30
0.0
 11
1431.865479
 21
85.800034
 31
0.0
  0
LINE
  5
16B
100
AcDbEntity
  8
図枠
  6
CONTINUOUS
 62
     3
100
AcDbLine
 10
1431.200195
 20
90.000015
 30
0.0
 11
1437.882324
 21
90.000015
 31
0.0
  0
LINE
  5
16C
100
AcDbEntity
  8
図枠
  6
CONTINUOUS
 62
     3
100
AcDbLine
 10
1437.882324
 20
90.000015
 30
0.0
 11
1438.547607
 21
85.800034
 31
0.0
  0
LINE
  5
16D
100
AcDbEntity
  8
図枠
  6
CONTINUOUS
 62
     3
100
AcDbLine
 10
1438.547607
 20
85.800034
 30
0.0
 11
1455.200439
 21
85.800034
 31
0.0
  0
LINE
  5
16E
100
AcDbEntity
  8
図枠
  6
CONTINUOUS
 62
     3
100
AcDbLine
 10
1455.200439
 20
85.800034
 30
0.0
 11
1451.698242
 21
77.934814
 31
0.0
  0
ARC
  5
16F
100
AcDbEntity
  8
図枠
  6
CONTINUOUS
 62
     3
100
AcDbCircle
 10
1443.476807
 20
81.595474
 30
0.0
 40
9.000063
100
AcDbArc
 50
263.465775
 51
335.998779
  0
LINE
  5
170
100
AcDbEntity
  8
図枠
  6
CONTINUOUS
 62
     3
100
AcDbLine
 10
1442.451416
 20
72.6539
 30
0.0
 11
1441.795898
 21
76.800018
 31
0.0
  0
ARC
  5
171
100
AcDbEntity
  8
図枠
  6
CONTINUOUS
 62
     3
100
AcDbCircle
 10
1441.629883
 20
80.400024
 30
0.0
 40
3.600003
100
AcDbArc
 50
272.623749
 51
336.006531
  0
LINE
  5
172
100
AcDbEntity
  8
図枠
  6
CONTINUOUS
 62
     3
100
AcDbLine
 10
1444.919678
 20
78.935715
 30
0.0
 11
1446.10498
 21
81.599976
 31
0.0
  0
LINE
  5
173
100
AcDbEntity
  8
図枠
  6
CONTINUOUS
 62
     3
100
AcDbLine
 10
1446.10498
 20
81.599976
 30
0.0
 11
1439.212891
 21
81.599976
 31
0.0
  0
LINE
  5
174
100
AcDbEntity
  8
図枠
  6
CONTINUOUS
 62
     3
100
AcDbLine
 10
1439.212891
 20
81.599976
 30
0.0
 11
1441.683594
 21
66.0
 31
0.0
  0
LINE
  5
175
100
AcDbEntity
  8
図枠
  6
CONTINUOUS
 62
     3
100
AcDbLine
 10
1441.683594
 20
66.0
 30
0.0
 11
1435.001465
 21
66.0
 31
0.0
  0
LINE
  5
176
100
AcDbEntity
  8
図枠
  6
CONTINUOUS
 62
     3
100
AcDbLine
 10
1435.001465
 20
66.0
 30
0.0
 11
1432.530762
 21
81.599976
 31
0.0
  0
LINE
  5
177
100
AcDbEntity
  8
図枠
  6
CONTINUOUS
 62
     3
100
AcDbLine
 10
1432.530762
 20
81.599976
 30
0.0
 11
1426.400391
 21
81.599976
 31
0.0
  0
LINE
  5
178
100
AcDbEntity
  8
図枠
  6
CONTINUOUS
 62
     3
100
AcDbLine
 10
1426.400391
 20
85.800034
 30
0.0
 11
1426.400391
 21
81.599976
 31
0.0
  0
LINE
  5
179
100
AcDbEntity
  8
図枠
  6
CONTINUOUS
 62
     3
100
AcDbLine
 10
1454.599854
 20
71.999985
 30
0.0
 11
1488.199707
 21
71.999985
 31
0.0
  0
LINE
  5
17A
100
AcDbEntity
  8
図枠
  6
CONTINUOUS
 62
     3
100
AcDbLine
 10
1488.199707
 20
71.999985
 30
0.0
 11
1488.199707
 21
66.0
 31
0.0
  0
LINE
  5
17B
100
AcDbEntity
  8
図枠
  6
CONTINUOUS
 62
     3
100
AcDbLine
 10
1488.199707
 20
66.0
 30
0.0
 11
1454.599854
 21
66.0
 31
0.0
  0
LINE
  5
17C
100
AcDbEntity
  8
図枠
  6
CONTINUOUS
 62
     3
100
AcDbLine
 10
1454.599854
 20
66.0
 30
0.0
 11
1454.599854
 21
71.999985
 31
0.0
  0
LINE
  5
17D
100
AcDbEntity
  8
図枠
  6
CONTINUOUS
 62
     3
100
AcDbLine
 10
1456.999756
 20
92.399994
 30
0.0
 11
1485.799805
 21
92.399994
 31
0.0
  0
LINE
  5
17E
100
AcDbEntity
  8
図枠
  6
CONTINUOUS
 62
     3
100
AcDbLine
 10
1485.799805
 20
92.399994
 30
0.0
 11
1485.799805
 21
86.400009
 31
0.0
  0
LINE
  5
17F
100
AcDbEntity
  8
図枠
  6
CONTINUOUS
 62
     3
100
AcDbLine
 10
1485.799805
 20
86.400009
 30
0.0
 11
1456.999756
 21
86.400009
 31
0.0
  0
LINE
  5
180
100
AcDbEntity
  8
図枠
  6
CONTINUOUS
 62
     3
100
AcDbLine
 10
1456.999756
 20
92.399994
 30
0.0
 11
1456.999756
 21
86.400009
 31
0.0
  0
LINE
  5
181
100
AcDbEntity
  8
図枠
  6
CONTINUOUS
 62
     3
100
AcDbLine
 10
1492.400146
 20
92.399994
 30
0.0
 11
1523.600098
 21
92.399994
 31
0.0
  0
LINE
  5
182
100
AcDbEntity
  8
図枠
  6
CONTINUOUS
 62
     3
100
AcDbLine
 10
1523.600098
 20
92.399994
 30
0.0
 11
1514.244629
 21
79.523178
 31
0.0
  0
LINE
  5
183
100
AcDbEntity
  8
図枠
  6
CONTINUOUS
 62
     3
100
AcDbLine
 10
1514.244629
 20
79.523178
 30
0.0
 11
1526.0
 21
66.0
 31
0.0
  0
LINE
  5
184
100
AcDbEntity
  8
図枠
  6
CONTINUOUS
 62
     3
100
AcDbLine
 10
1526.0
 20
66.0
 30
0.0
 11
1517.254883
 21
66.0
 31
0.0
  0
LINE
  5
185
100
AcDbEntity
  8
図枠
  6
CONTINUOUS
 62
     3
100
AcDbLine
 10
1517.254883
 20
66.0
 30
0.0
 11
1510.262695
 21
74.043289
 31
0.0
  0
LINE
  5
186
100
AcDbEntity
  8
図枠
  6
CONTINUOUS
 62
     3
100
AcDbLine
 10
1510.262695
 20
74.043289
 30
0.0
 11
1507.654053
 21
70.451904
 31
0.0
  0
ARC
  5
187
100
AcDbEntity
  8
図枠
  6
CONTINUOUS
 62
     3
100
AcDbCircle
 10
1498.91626
 20
76.800018
 30
0.0
 40
10.799999
100
AcDbArc
 50
270.000031
 51
324.00116
  0
LINE
  5
188
100
AcDbEntity
  8
図枠
  6
CONTINUOUS
 62
     3
100
AcDbLine
 10
1498.91626
 20
66.0
 30
0.0
 11
1490.000244
 21
66.0
 31
0.0
  0
LINE
  5
189
100
AcDbEntity
  8
図枠
  6
CONTINUOUS
 62
     3
100
AcDbLine
 10
1490.000244
 20
66.0
 30
0.0
 11
1490.000244
 21
71.999985
 31
0.0
  0
LINE
  5
18A
100
AcDbEntity
  8
図枠
  6
CONTINUOUS
 62
     3
100
AcDbLine
 10
1490.000244
 20
71.999985
 30
0.0
 11
1497.563721
 21
71.999985
 31
0.0
  0
ARC
  5
18B
100
AcDbEntity
  8
図枠
  6
CONTINUOUS
 62
     3
100
AcDbCircle
 10
1497.563721
 20
77.999969
 30
0.0
 40
5.999999
100
AcDbArc
 50
270.000031
 51
323.996597
  0
LINE
  5
18C
100
AcDbEntity
  8
図枠
  6
CONTINUOUS
 62
     3
100
AcDbLine
 10
1502.417236
 20
74.473282
 30
0.0
 11
1511.083008
 21
86.400009
 31
0.0
  0
LINE
  5
18D
100
AcDbEntity
  8
図枠
  6
CONTINUOUS
 62
     3
100
AcDbLine
 10
1511.083008
 20
86.400009
 30
0.0
 11
1492.400146
 21
86.400009
 31
0.0
  0
LINE
  5
18E
100
AcDbEntity
  8
図枠
  6
CONTINUOUS
 62
     3
100
AcDbLine
 10
1492.400146
 20
92.399994
 30
0.0
 11
1492.400146
 21
86.400009
 31
0.0
  0
LINE
  5
18F
100
AcDbEntity
  8
図枠
  6
CONTINUOUS
 62
     3
100
AcDbLine
 10
1533.199707
 20
92.399994
 30
0.0
 11
1564.399658
 21
92.399994
 31
0.0
  0
LINE
  5
190
100
AcDbEntity
  8
図枠
  6
CONTINUOUS
 62
     3
100
AcDbLine
 10
1564.399658
 20
92.399994
 30
0.0
 11
1564.399658
 21
88.200012
 31
0.0
  0
LINE
  5
191
100
AcDbEntity
  8
図枠
  6
CONTINUOUS
 62
     3
100
AcDbLine
 10
1564.399658
 20
88.200012
 30
0.0
 11
1552.099854
 21
88.200012
 31
0.0
  0
LINE
  5
192
100
AcDbEntity
  8
図枠
  6
CONTINUOUS
 62
     3
100
AcDbLine
 10
1552.099854
 20
88.200012
 30
0.0
 11
1552.099854
 21
70.800034
 31
0.0
  0
LINE
  5
193
100
AcDbEntity
  8
図枠
  6
CONTINUOUS
 62
     3
100
AcDbLine
 10
1552.099854
 20
70.800034
 30
0.0
 11
1565.599609
 21
70.800034
 31
0.0
  0
LINE
  5
194
100
AcDbEntity
  8
図枠
  6
CONTINUOUS
 62
     3
100
AcDbLine
 10
1565.599609
 20
70.800034
 30
0.0
 11
1565.599609
 21
66.0
 31
0.0
  0
LINE
  5
195
100
AcDbEntity
  8
図枠
  6
CONTINUOUS
 62
     3
100
AcDbLine
 10
1565.599609
 20
66.0
 30
0.0
 11
1531.999756
 21
66.0
 31
0.0
  0
LINE
  5
196
100
AcDbEntity
  8
図枠
  6
CONTINUOUS
 62
     3
100
AcDbLine
 10
1531.999756
 20
66.0
 30
0.0
 11
1531.999756
 21
70.800034
 31
0.0
  0
LINE
  5
197
100
AcDbEntity
  8
図枠
  6
CONTINUOUS
 62
     3
100
AcDbLine
 10
1531.999756
 20
70.800034
 30
0.0
 11
1545.499512
 21
70.800034
 31
0.0
  0
LINE
  5
198
100
AcDbEntity
  8
図枠
  6
CONTINUOUS
 62
     3
100
AcDbLine
 10
1545.499512
 20
70.800034
 30
0.0
 11
1545.499512
 21
88.200012
 31
0.0
  0
LINE
  5
199
100
AcDbEntity
  8
図枠
  6
CONTINUOUS
 62
     3
100
AcDbLine
 10
1545.499512
 20
88.200012
 30
0.0
 11
1533.199707
 21
88.200012
 31
0.0
  0
LINE
  5
19A
100
AcDbEntity
  8
図枠
  6
CONTINUOUS
 62
     3
100
AcDbLine
 10
1533.199707
 20
92.399994
 30
0.0
 11
1533.199707
 21
88.200012
 31
0.0
  0
LINE
  5
19B
100
AcDbEntity
  8
図枠
  6
CONTINUOUS
 62
     3
100
AcDbLine
 10
1566.200195
 20
88.799988
 30
0.0
 11
1571.412598
 21
88.799988
 31
0.0
  0
LINE
  5
19C
100
AcDbEntity
  8
図枠
  6
CONTINUOUS
 62
     3
100
AcDbLine
 10
1571.412598
 20
88.799988
 30
0.0
 11
1568.600098
 21
92.399994
 31
0.0
  0
LINE
  5
19D
100
AcDbEntity
  8
図枠
  6
CONTINUOUS
 62
     3
100
AcDbLine
 10
1568.600098
 20
92.399994
 30
0.0
 11
1573.929688
 21
92.399994
 31
0.0
  0
LINE
  5
19E
100
AcDbEntity
  8
図枠
  6
CONTINUOUS
 62
     3
100
AcDbLine
 10
1573.929688
 20
92.399994
 30
0.0
 11
1576.742188
 21
88.799988
 31
0.0
  0
LINE
  5
19F
100
AcDbEntity
  8
図枠
  6
CONTINUOUS
 62
     3
100
AcDbLine
 10
1576.742188
 20
88.799988
 30
0.0
 11
1577.900635
 21
88.799988
 31
0.0
  0
LINE
  5
1A0
100
AcDbEntity
  8
図枠
  6
CONTINUOUS
 62
     3
100
AcDbLine
 10
1577.900635
 20
88.799988
 30
0.0
 11
1577.900635
 21
92.399994
 31
0.0
  0
LINE
  5
1A1
100
AcDbEntity
  8
図枠
  6
CONTINUOUS
 62
     3
100
AcDbLine
 10
1577.900635
 20
92.399994
 30
0.0
 11
1582.099854
 21
92.399994
 31
0.0
  0
LINE
  5
1A2
100
AcDbEntity
  8
図枠
  6
CONTINUOUS
 62
     3
100
AcDbLine
 10
1582.099854
 20
92.399994
 30
0.0
 11
1582.099854
 21
88.799988
 31
0.0
  0
LINE
  5
1A3
100
AcDbEntity
  8
図枠
  6
CONTINUOUS
 62
     3
100
AcDbLine
 10
1582.099854
 20
88.799988
 30
0.0
 11
1583.900391
 21
88.799988
 31
0.0
  0
LINE
  5
1A4
100
AcDbEntity
  8
図枠
  6
CONTINUOUS
 62
     3
100
AcDbLine
 10
1583.900391
 20
88.799988
 30
0.0
 11
1583.900391
 21
92.399994
 31
0.0
  0
LINE
  5
1A5
100
AcDbEntity
  8
図枠
  6
CONTINUOUS
 62
     3
100
AcDbLine
 10
1583.900391
 20
92.399994
 30
0.0
 11
1588.099609
 21
92.399994
 31
0.0
  0
LINE
  5
1A6
100
AcDbEntity
  8
図枠
  6
CONTINUOUS
 62
     3
100
AcDbLine
 10
1588.099609
 20
92.399994
 30
0.0
 11
1588.099609
 21
88.799988
 31
0.0
  0
LINE
  5
1A7
100
AcDbEntity
  8
図枠
  6
CONTINUOUS
 62
     3
100
AcDbLine
 10
1588.099609
 20
88.799988
 30
0.0
 11
1589.258057
 21
88.799988
 31
0.0
  0
LINE
  5
1A8
100
AcDbEntity
  8
図枠
  6
CONTINUOUS
 62
     3
100
AcDbLine
 10
1589.258057
 20
88.799988
 30
0.0
 11
1592.070557
 21
92.399994
 31
0.0
  0
LINE
  5
1A9
100
AcDbEntity
  8
図枠
  6
CONTINUOUS
 62
     3
100
AcDbLine
 10
1592.070557
 20
92.399994
 30
0.0
 11
1597.400146
 21
92.399994
 31
0.0
  0
LINE
  5
1AA
100
AcDbEntity
  8
図枠
  6
CONTINUOUS
 62
     3
100
AcDbLine
 10
1597.400146
 20
92.399994
 30
0.0
 11
1594.587646
 21
88.799988
 31
0.0
  0
LINE
  5
1AB
100
AcDbEntity
  8
図枠
  6
CONTINUOUS
 62
     3
100
AcDbLine
 10
1594.587646
 20
88.799988
 30
0.0
 11
1599.800049
 21
88.799988
 31
0.0
  0
LINE
  5
1AC
100
AcDbEntity
  8
図枠
  6
CONTINUOUS
 62
     3
100
AcDbLine
 10
1599.800049
 20
88.799988
 30
0.0
 11
1599.800049
 21
86.039978
 31
0.0
  0
LINE
  5
1AD
100
AcDbEntity
  8
図枠
  6
CONTINUOUS
 62
     3
100
AcDbLine
 10
1599.800049
 20
86.039978
 30
0.0
 11
1593.476807
 21
86.039978
 31
0.0
  0
LINE
  5
1AE
100
AcDbEntity
  8
図枠
  6
CONTINUOUS
 62
     3
100
AcDbLine
 10
1593.476807
 20
86.039978
 30
0.0
 11
1592.385498
 21
83.040024
 31
0.0
  0
LINE
  5
1AF
100
AcDbEntity
  8
図枠
  6
CONTINUOUS
 62
     3
100
AcDbLine
 10
1592.385498
 20
83.040024
 30
0.0
 11
1599.800049
 21
83.040024
 31
0.0
  0
LINE
  5
1B0
100
AcDbEntity
  8
図枠
  6
CONTINUOUS
 62
     3
100
AcDbLine
 10
1599.800049
 20
83.040024
 30
0.0
 11
1599.800049
 21
80.280014
 31
0.0
  0
LINE
  5
1B1
100
AcDbEntity
  8
図枠
  6
CONTINUOUS
 62
     3
100
AcDbLine
 10
1599.800049
 20
80.280014
 30
0.0
 11
1586.0
 21
80.280014
 31
0.0
  0
LINE
  5
1B2
100
AcDbEntity
  8
図枠
  6
CONTINUOUS
 62
     3
100
AcDbLine
 10
1586.0
 20
80.280014
 30
0.0
 11
1586.0
 21
78.900009
 31
0.0
  0
LINE
  5
1B3
100
AcDbEntity
  8
図枠
  6
CONTINUOUS
 62
     3
100
AcDbLine
 10
1586.0
 20
78.900009
 30
0.0
 11
1599.800049
 21
78.900009
 31
0.0
  0
LINE
  5
1B4
100
AcDbEntity
  8
図枠
  6
CONTINUOUS
 62
     3
100
AcDbLine
 10
1599.800049
 20
78.900009
 30
0.0
 11
1599.800049
 21
76.139999
 31
0.0
  0
LINE
  5
1B5
100
AcDbEntity
  8
図枠
  6
CONTINUOUS
 62
     3
100
AcDbLine
 10
1599.800049
 20
76.139999
 30
0.0
 11
1586.0
 21
76.139999
 31
0.0
  0
LINE
  5
1B6
100
AcDbEntity
  8
図枠
  6
CONTINUOUS
 62
     3
100
AcDbLine
 10
1586.0
 20
76.139999
 30
0.0
 11
1586.0
 21
74.759995
 31
0.0
  0
LINE
  5
1B7
100
AcDbEntity
  8
図枠
  6
CONTINUOUS
 62
     3
100
AcDbLine
 10
1586.0
 20
74.759995
 30
0.0
 11
1599.800049
 21
74.759995
 31
0.0
  0
LINE
  5
1B8
100
AcDbEntity
  8
図枠
  6
CONTINUOUS
 62
     3
100
AcDbLine
 10
1599.800049
 20
74.759995
 30
0.0
 11
1599.800049
 21
71.999985
 31
0.0
  0
LINE
  5
1B9
100
AcDbEntity
  8
図枠
  6
CONTINUOUS
 62
     3
100
AcDbLine
 10
1599.800049
 20
71.999985
 30
0.0
 11
1593.159424
 21
71.999985
 31
0.0
  0
LINE
  5
1BA
100
AcDbEntity
  8
図枠
  6
CONTINUOUS
 62
     3
100
AcDbLine
 10
1593.159424
 20
71.999985
 30
0.0
 11
1599.800049
 21
66.0
 31
0.0
  0
LINE
  5
1BB
100
AcDbEntity
  8
図枠
  6
CONTINUOUS
 62
     3
100
AcDbLine
 10
1599.800049
 20
66.0
 30
0.0
 11
1592.640625
 21
66.0
 31
0.0
  0
LINE
  5
1BC
100
AcDbEntity
  8
図枠
  6
CONTINUOUS
 62
     3
100
AcDbLine
 10
1592.640625
 20
66.0
 30
0.0
 11
1586.0
 21
71.999985
 31
0.0
  0
LINE
  5
1BD
100
AcDbEntity
  8
図枠
  6
CONTINUOUS
 62
     3
100
AcDbLine
 10
1586.0
 20
71.999985
 30
0.0
 11
1586.0
 21
66.0
 31
0.0
  0
LINE
  5
1BE
100
AcDbEntity
  8
図枠
  6
CONTINUOUS
 62
     3
100
AcDbLine
 10
1586.0
 20
66.0
 30
0.0
 11
1580.000244
 21
66.0
 31
0.0
  0
LINE
  5
1BF
100
AcDbEntity
  8
図枠
  6
CONTINUOUS
 62
     3
100
AcDbLine
 10
1580.000244
 20
66.0
 30
0.0
 11
1580.000244
 21
71.999985
 31
0.0
  0
LINE
  5
1C0
100
AcDbEntity
  8
図枠
  6
CONTINUOUS
 62
     3
100
AcDbLine
 10
1580.000244
 20
71.999985
 30
0.0
 11
1573.359619
 21
66.0
 31
0.0
  0
LINE
  5
1C1
100
AcDbEntity
  8
図枠
  6
CONTINUOUS
 62
     3
100
AcDbLine
 10
1573.359619
 20
66.0
 30
0.0
 11
1566.200195
 21
66.0
 31
0.0
  0
LINE
  5
1C2
100
AcDbEntity
  8
図枠
  6
CONTINUOUS
 62
     3
100
AcDbLine
 10
1566.200195
 20
66.0
 30
0.0
 11
1572.84082
 21
71.999985
 31
0.0
  0
LINE
  5
1C3
100
AcDbEntity
  8
図枠
  6
CONTINUOUS
 62
     3
100
AcDbLine
 10
1572.84082
 20
71.999985
 30
0.0
 11
1566.200195
 21
71.999985
 31
0.0
  0
LINE
  5
1C4
100
AcDbEntity
  8
図枠
  6
CONTINUOUS
 62
     3
100
AcDbLine
 10
1566.200195
 20
71.999985
 30
0.0
 11
1566.200195
 21
74.759995
 31
0.0
  0
LINE
  5
1C5
100
AcDbEntity
  8
図枠
  6
CONTINUOUS
 62
     3
100
AcDbLine
 10
1566.200195
 20
74.759995
 30
0.0
 11
1580.000244
 21
74.759995
 31
0.0
  0
LINE
  5
1C6
100
AcDbEntity
  8
図枠
  6
CONTINUOUS
 62
     3
100
AcDbLine
 10
1580.000244
 20
74.759995
 30
0.0
 11
1580.000244
 21
76.139999
 31
0.0
  0
LINE
  5
1C7
100
AcDbEntity
  8
図枠
  6
CONTINUOUS
 62
     3
100
AcDbLine
 10
1580.000244
 20
76.139999
 30
0.0
 11
1566.200195
 21
76.139999
 31
0.0
  0
LINE
  5
1C8
100
AcDbEntity
  8
図枠
  6
CONTINUOUS
 62
     3
100
AcDbLine
 10
1566.200195
 20
76.139999
 30
0.0
 11
1566.200195
 21
78.900009
 31
0.0
  0
LINE
  5
1C9
100
AcDbEntity
  8
図枠
  6
CONTINUOUS
 62
     3
100
AcDbLine
 10
1566.200195
 20
78.900009
 30
0.0
 11
1580.000244
 21
78.900009
 31
0.0
  0
LINE
  5
1CA
100
AcDbEntity
  8
図枠
  6
CONTINUOUS
 62
     3
100
AcDbLine
 10
1580.000244
 20
78.900009
 30
0.0
 11
1580.000244
 21
80.280014
 31
0.0
  0
LINE
  5
1CB
100
AcDbEntity
  8
図枠
  6
CONTINUOUS
 62
     3
100
AcDbLine
 10
1580.000244
 20
80.280014
 30
0.0
 11
1566.200195
 21
80.280014
 31
0.0
  0
LINE
  5
1CC
100
AcDbEntity
  8
図枠
  6
CONTINUOUS
 62
     3
100
AcDbLine
 10
1566.200195
 20
80.280014
 30
0.0
 11
1566.200195
 21
83.040024
 31
0.0
  0
LINE
  5
1CD
100
AcDbEntity
  8
図枠
  6
CONTINUOUS
 62
     3
100
AcDbLine
 10
1566.200195
 20
83.040024
 30
0.0
 11
1573.614746
 21
83.040024
 31
0.0
  0
LINE
  5
1CE
100
AcDbEntity
  8
図枠
  6
CONTINUOUS
 62
     3
100
AcDbLine
 10
1573.614746
 20
83.040024
 30
0.0
 11
1572.523438
 21
86.039978
 31
0.0
  0
LINE
  5
1CF
100
AcDbEntity
  8
図枠
  6
CONTINUOUS
 62
     3
100
AcDbLine
 10
1572.523438
 20
86.039978
 30
0.0
 11
1566.200195
 21
86.039978
 31
0.0
  0
LINE
  5
1D0
100
AcDbEntity
  8
図枠
  6
CONTINUOUS
 62
     3
100
AcDbLine
 10
1566.200195
 20
88.799988
 30
0.0
 11
1566.200195
 21
86.039978
 31
0.0
  0
LINE
  5
1D1
100
AcDbEntity
  8
図枠
  6
CONTINUOUS
 62
     3
100
AcDbLine
 10
1578.907715
 20
86.039978
 30
0.0
 11
1587.092529
 21
86.039978
 31
0.0
  0
LINE
  5
1D2
100
AcDbEntity
  8
図枠
  6
CONTINUOUS
 62
     3
100
AcDbLine
 10
1587.092529
 20
86.039978
 30
0.0
 11
1586.0
 21
83.040024
 31
0.0
  0
LINE
  5
1D3
100
AcDbEntity
  8
図枠
  6
CONTINUOUS
 62
     3
100
AcDbLine
 10
1586.0
 20
83.040024
 30
0.0
 11
1580.000244
 21
83.040024
 31
0.0
  0
LINE
  5
1D4
100
AcDbEntity
  8
図枠
  6
CONTINUOUS
 62
     3
100
AcDbLine
 10
1580.000244
 20
83.040024
 30
0.0
 11
1578.907715
 21
86.039978
 31
0.0
  0
LINE
  5
1D5
100
AcDbEntity
  8
図枠
  6
CONTINUOUS
 62
     3
100
AcDbLine
 10
1616.152588
 20
92.399994
 30
0.0
 11
1621.100098
 21
92.399994
 31
0.0
  0
LINE
  5
1D6
100
AcDbEntity
  8
図枠
  6
CONTINUOUS
 62
     3
100
AcDbLine
 10
1621.100098
 20
92.399994
 30
0.0
 11
1620.351807
 21
89.399963
 31
0.0
  0
LINE
  5
1D7
100
AcDbEntity
  8
図枠
  6
CONTINUOUS
 62
     3
100
AcDbLine
 10
1620.351807
 20
89.399963
 30
0.0
 11
1622.300049
 21
89.399963
 31
0.0
  0
LINE
  5
1D8
100
AcDbEntity
  8
図枠
  6
CONTINUOUS
 62
     3
100
AcDbLine
 10
1622.300049
 20
89.399963
 30
0.0
 11
1622.300049
 21
92.399994
 31
0.0
  0
LINE
  5
1D9
100
AcDbEntity
  8
図枠
  6
CONTINUOUS
 62
     3
100
AcDbLine
 10
1622.300049
 20
92.399994
 30
0.0
 11
1627.700439
 21
92.399994
 31
0.0
  0
LINE
  5
1DA
100
AcDbEntity
  8
図枠
  6
CONTINUOUS
 62
     3
100
AcDbLine
 10
1627.700439
 20
92.399994
 30
0.0
 11
1627.700439
 21
89.399963
 31
0.0
  0
LINE
  5
1DB
100
AcDbEntity
  8
図枠
  6
CONTINUOUS
 62
     3
100
AcDbLine
 10
1627.700439
 20
89.399963
 30
0.0
 11
1634.599854
 21
89.399963
 31
0.0
  0
LINE
  5
1DC
100
AcDbEntity
  8
図枠
  6
CONTINUOUS
 62
     3
100
AcDbLine
 10
1634.599854
 20
89.399963
 30
0.0
 11
1634.599854
 21
86.400009
 31
0.0
  0
LINE
  5
1DD
100
AcDbEntity
  8
図枠
  6
CONTINUOUS
 62
     3
100
AcDbLine
 10
1627.700439
 20
86.400009
 30
0.0
 11
1634.599854
 21
86.400009
 31
0.0
  0
LINE
  5
1DE
100
AcDbEntity
  8
図枠
  6
CONTINUOUS
 62
     3
100
AcDbLine
 10
1627.700439
 20
86.400009
 30
0.0
 11
1627.700439
 21
83.399979
 31
0.0
  0
LINE
  5
1DF
100
AcDbEntity
  8
図枠
  6
CONTINUOUS
 62
     3
100
AcDbLine
 10
1627.700439
 20
83.399979
 30
0.0
 11
1635.200439
 21
83.399979
 31
0.0
  0
LINE
  5
1E0
100
AcDbEntity
  8
図枠
  6
CONTINUOUS
 62
     3
100
AcDbLine
 10
1635.200439
 20
83.399979
 30
0.0
 11
1635.200439
 21
80.400024
 31
0.0
  0
LINE
  5
1E1
100
AcDbEntity
  8
図枠
  6
CONTINUOUS
 62
     3
100
AcDbLine
 10
1635.200439
 20
80.400024
 30
0.0
 11
1632.578369
 21
80.400024
 31
0.0
  0
LINE
  5
1E2
100
AcDbEntity
  8
図枠
  6
CONTINUOUS
 62
     3
100
AcDbLine
 10
1632.578369
 20
80.400024
 30
0.0
 11
1635.200439
 21
66.0
 31
0.0
  0
LINE
  5
1E3
100
AcDbEntity
  8
図枠
  6
CONTINUOUS
 62
     3
100
AcDbLine
 10
1635.200439
 20
66.0
 30
0.0
 11
1630.321289
 21
66.0
 31
0.0
  0
LINE
  5
1E4
100
AcDbEntity
  8
図枠
  6
CONTINUOUS
 62
     3
100
AcDbLine
 10
1630.321289
 20
66.0
 30
0.0
 11
1627.700439
 21
80.399872
 31
0.0
  0
LINE
  5
1E5
100
AcDbEntity
  8
図枠
  6
CONTINUOUS
 62
     3
100
AcDbLine
 10
1627.700439
 20
80.399872
 30
0.0
 11
1627.700439
 21
66.0
 31
0.0
  0
LINE
  5
1E6
100
AcDbEntity
  8
図枠
  6
CONTINUOUS
 62
     3
100
AcDbLine
 10
1627.700439
 20
66.0
 30
0.0
 11
1622.300049
 21
66.0
 31
0.0
  0
LINE
  5
1E7
100
AcDbEntity
  8
図枠
  6
CONTINUOUS
 62
     3
100
AcDbLine
 10
1622.300049
 20
66.0
 30
0.0
 11
1622.300049
 21
80.400024
 31
0.0
  0
LINE
  5
1E8
100
AcDbEntity
  8
図枠
  6
CONTINUOUS
 62
     3
100
AcDbLine
 10
1622.300049
 20
80.400024
 30
0.0
 11
1619.679199
 21
66.0
 31
0.0
  0
LINE
  5
1E9
100
AcDbEntity
  8
図枠
  6
CONTINUOUS
 62
     3
100
AcDbLine
 10
1619.679199
 20
66.0
 30
0.0
 11
1614.800049
 21
66.0
 31
0.0
  0
LINE
  5
1EA
100
AcDbEntity
  8
図枠
  6
CONTINUOUS
 62
     3
100
AcDbLine
 10
1614.800049
 20
66.0
 30
0.0
 11
1617.420898
 21
80.400024
 31
0.0
  0
LINE
  5
1EB
100
AcDbEntity
  8
図枠
  6
CONTINUOUS
 62
     3
100
AcDbLine
 10
1617.420898
 20
80.400024
 30
0.0
 11
1614.800049
 21
80.400024
 31
0.0
  0
LINE
  5
1EC
100
AcDbEntity
  8
図枠
  6
CONTINUOUS
 62
     3
100
AcDbLine
 10
1614.800049
 20
80.400024
 30
0.0
 11
1614.800049
 21
83.399979
 31
0.0
  0
LINE
  5
1ED
100
AcDbEntity
  8
図枠
  6
CONTINUOUS
 62
     3
100
AcDbLine
 10
1614.800049
 20
83.399979
 30
0.0
 11
1622.300049
 21
83.399979
 31
0.0
  0
LINE
  5
1EE
100
AcDbEntity
  8
図枠
  6
CONTINUOUS
 62
     3
100
AcDbLine
 10
1622.300049
 20
83.399979
 30
0.0
 11
1622.300049
 21
86.400009
 31
0.0
  0
LINE
  5
1EF
100
AcDbEntity
  8
図枠
  6
CONTINUOUS
 62
     3
100
AcDbLine
 10
1622.300049
 20
86.400009
 30
0.0
 11
1619.603516
 21
86.400009
 31
0.0
  0
LINE
  5
1F0
100
AcDbEntity
  8
図枠
  6
CONTINUOUS
 62
     3
100
AcDbLine
 10
1619.603516
 20
86.400009
 30
0.0
 11
1619.155518
 21
84.600006
 31
0.0
  0
LINE
  5
1F1
100
AcDbEntity
  8
図枠
  6
CONTINUOUS
 62
     3
100
AcDbLine
 10
1619.155518
 20
84.600006
 30
0.0
 11
1614.208008
 21
84.600006
 31
0.0
  0
LINE
  5
1F2
100
AcDbEntity
  8
図枠
  6
CONTINUOUS
 62
     3
100
AcDbLine
 10
1616.152588
 20
92.399994
 30
0.0
 11
1614.208008
 21
84.600006
 31
0.0
  0
LINE
  5
1F3
100
AcDbEntity
  8
図枠
  6
CONTINUOUS
 62
     3
100
AcDbLine
 10
1601.0
 20
89.399963
 30
0.0
 11
1606.999756
 21
89.399963
 31
0.0
  0
LINE
  5
1F4
100
AcDbEntity
  8
図枠
  6
CONTINUOUS
 62
     3
100
AcDbLine
 10
1606.999756
 20
89.399963
 30
0.0
 11
1606.999756
 21
92.399994
 31
0.0
  0
LINE
  5
1F5
100
AcDbEntity
  8
図枠
  6
CONTINUOUS
 62
     3
100
AcDbLine
 10
1606.999756
 20
92.399994
 30
0.0
 11
1612.400146
 21
92.399994
 31
0.0
  0
LINE
  5
1F6
100
AcDbEntity
  8
図枠
  6
CONTINUOUS
 62
     3
100
AcDbLine
 10
1612.400146
 20
92.399994
 30
0.0
 11
1612.400146
 21
89.399963
 31
0.0
  0
LINE
  5
1F7
100
AcDbEntity
  8
図枠
  6
CONTINUOUS
 62
     3
100
AcDbLine
 10
1612.400146
 20
89.399963
 30
0.0
 11
1614.199463
 21
89.399963
 31
0.0
  0
LINE
  5
1F8
100
AcDbEntity
  8
図枠
  6
CONTINUOUS
 62
     3
100
AcDbLine
 10
1614.199463
 20
89.399963
 30
0.0
 11
1614.199463
 21
86.400009
 31
0.0
  0
LINE
  5
1F9
100
AcDbEntity
  8
図枠
  6
CONTINUOUS
 62
     3
100
AcDbLine
 10
1614.199463
 20
86.400009
 30
0.0
 11
1612.400146
 21
86.400009
 31
0.0
  0
LINE
  5
1FA
100
AcDbEntity
  8
図枠
  6
CONTINUOUS
 62
     3
100
AcDbLine
 10
1612.400146
 20
86.400009
 30
0.0
 11
1614.199463
 21
83.922668
 31
0.0
  0
LINE
  5
1FB
100
AcDbEntity
  8
図枠
  6
CONTINUOUS
 62
     3
100
AcDbLine
 10
1614.199463
 20
83.922668
 30
0.0
 11
1614.199463
 21
77.798019
 31
0.0
  0
LINE
  5
1FC
100
AcDbEntity
  8
図枠
  6
CONTINUOUS
 62
     3
100
AcDbLine
 10
1614.199463
 20
77.798019
 30
0.0
 11
1612.400146
 21
80.275513
 31
0.0
  0
LINE
  5
1FD
100
AcDbEntity
  8
図枠
  6
CONTINUOUS
 62
     3
100
AcDbLine
 10
1612.400146
 20
80.275513
 30
0.0
 11
1612.400146
 21
66.0
 31
0.0
  0
LINE
  5
1FE
100
AcDbEntity
  8
図枠
  6
CONTINUOUS
 62
     3
100
AcDbLine
 10
1612.400146
 20
66.0
 30
0.0
 11
1606.999756
 21
66.0
 31
0.0
  0
LINE
  5
1FF
100
AcDbEntity
  8
図枠
  6
CONTINUOUS
 62
     3
100
AcDbLine
 10
1606.999756
 20
66.0
 30
0.0
 11
1606.999756
 21
86.400009
 31
0.0
  0
LINE
  5
200
100
AcDbEntity
  8
図枠
  6
CONTINUOUS
 62
     3
100
AcDbLine
 10
1606.76416
 20
86.400009
 30
0.0
 11
1604.619385
 21
66.0
 31
0.0
  0
LINE
  5
201
100
AcDbEntity
  8
図枠
  6
CONTINUOUS
 62
     3
100
AcDbLine
 10
1604.619385
 20
66.0
 30
0.0
 11
1601.0
 21
66.0
 31
0.0
  0
LINE
  5
202
100
AcDbEntity
  8
図枠
  6
CONTINUOUS
 62
     3
100
AcDbLine
 10
1601.0
 20
66.0
 30
0.0
 11
1603.144775
 21
86.400009
 31
0.0
  0
LINE
  5
203
100
AcDbEntity
  8
図枠
  6
CONTINUOUS
 62
     3
100
AcDbLine
 10
1603.144775
 20
86.400009
 30
0.0
 11
1601.0
 21
86.400009
 31
0.0
  0
LINE
  5
204
100
AcDbEntity
  8
図枠
  6
CONTINUOUS
 62
     3
100
AcDbLine
 10
1601.0
 20
89.399963
 30
0.0
 11
1601.0
 21
86.400009
 31
0.0
  0
LINE
  5
205
100
AcDbEntity
  8
図枠
  6
CONTINUOUS
 62
     3
100
AcDbLine
 10
1636.400391
 20
90.000015
 30
0.0
 11
1654.240967
 21
90.000015
 31
0.0
  0
LINE
  5
206
100
AcDbEntity
  8
図枠
  6
CONTINUOUS
 62
     3
100
AcDbLine
 10
1654.240967
 20
90.000015
 30
0.0
 11
1653.368164
 21
92.399994
 31
0.0
  0
LINE
  5
207
100
AcDbEntity
  8
図枠
  6
CONTINUOUS
 62
     3
100
AcDbLine
 10
1653.368164
 20
92.399994
 30
0.0
 11
1660.390869
 21
92.399994
 31
0.0
  0
LINE
  5
208
100
AcDbEntity
  8
図枠
  6
CONTINUOUS
 62
     3
100
AcDbLine
 10
1660.390869
 20
92.399994
 30
0.0
 11
1661.264893
 21
90.000015
 31
0.0
  0
LINE
  5
209
100
AcDbEntity
  8
図枠
  6
CONTINUOUS
 62
     3
100
AcDbLine
 10
1661.264893
 20
90.000015
 30
0.0
 11
1662.800537
 21
90.000015
 31
0.0
  0
LINE
  5
20A
100
AcDbEntity
  8
図枠
  6
CONTINUOUS
 62
     3
100
AcDbLine
 10
1662.800537
 20
90.000015
 30
0.0
 11
1662.800537
 21
92.399994
 31
0.0
  0
LINE
  5
20B
100
AcDbEntity
  8
図枠
  6
CONTINUOUS
 62
     3
100
AcDbLine
 10
1662.800537
 20
92.399994
 30
0.0
 11
1668.199707
 21
92.399994
 31
0.0
  0
LINE
  5
20C
100
AcDbEntity
  8
図枠
  6
CONTINUOUS
 62
     3
100
AcDbLine
 10
1668.199707
 20
92.399994
 30
0.0
 11
1668.199707
 21
90.000015
 31
0.0
  0
LINE
  5
20D
100
AcDbEntity
  8
図枠
  6
CONTINUOUS
 62
     3
100
AcDbLine
 10
1668.199707
 20
90.000015
 30
0.0
 11
1670.000244
 21
90.000015
 31
0.0
  0
LINE
  5
20E
100
AcDbEntity
  8
図枠
  6
CONTINUOUS
 62
     3
100
AcDbLine
 10
1670.000244
 20
90.000015
 30
0.0
 11
1670.000244
 21
86.400009
 31
0.0
  0
LINE
  5
20F
100
AcDbEntity
  8
図枠
  6
CONTINUOUS
 62
     3
100
AcDbLine
 10
1670.000244
 20
86.400009
 30
0.0
 11
1662.574707
 21
86.400009
 31
0.0
  0
LINE
  5
210
100
AcDbEntity
  8
図枠
  6
CONTINUOUS
 62
     3
100
AcDbLine
 10
1662.574707
 20
86.400009
 30
0.0
 11
1670.000244
 21
66.0
 31
0.0
  0
LINE
  5
211
100
AcDbEntity
  8
図枠
  6
CONTINUOUS
 62
     3
100
AcDbLine
 10
1670.000244
 20
66.0
 30
0.0
 11
1662.976318
 21
66.0
 31
0.0
  0
LINE
  5
212
100
AcDbEntity
  8
図枠
  6
CONTINUOUS
 62
     3
100
AcDbLine
 10
1662.976318
 20
66.0
 30
0.0
 11
1655.552002
 21
86.400009
 31
0.0
  0
LINE
  5
213
100
AcDbEntity
  8
図枠
  6
CONTINUOUS
 62
     3
100
AcDbLine
 10
1655.552002
 20
86.400009
 30
0.0
 11
1636.400391
 21
86.400009
 31
0.0
  0
LINE
  5
214
100
AcDbEntity
  8
図枠
  6
CONTINUOUS
 62
     3
100
AcDbLine
 10
1636.400391
 20
90.000015
 30
0.0
 11
1636.400391
 21
86.400009
 31
0.0
  0
LINE
  5
215
100
AcDbEntity
  8
図枠
  6
CONTINUOUS
 62
     3
100
AcDbLine
 10
1638.199707
 20
82.800003
 30
0.0
 11
1656.200195
 21
82.800003
 31
0.0
  0
LINE
  5
216
100
AcDbEntity
  8
図枠
  6
CONTINUOUS
 62
     3
100
AcDbLine
 10
1656.200195
 20
82.800003
 30
0.0
 11
1656.200195
 21
79.199997
 31
0.0
  0
LINE
  5
217
100
AcDbEntity
  8
図枠
  6
CONTINUOUS
 62
     3
100
AcDbLine
 10
1656.200195
 20
79.199997
 30
0.0
 11
1650.499512
 21
79.199997
 31
0.0
  0
LINE
  5
218
100
AcDbEntity
  8
図枠
  6
CONTINUOUS
 62
     3
100
AcDbLine
 10
1650.499512
 20
79.199997
 30
0.0
 11
1650.499512
 21
74.198853
 31
0.0
  0
LINE
  5
219
100
AcDbEntity
  8
図枠
  6
CONTINUOUS
 62
     3
100
AcDbLine
 10
1650.499512
 20
74.198853
 30
0.0
 11
1656.500488
 21
75.474182
 31
0.0
  0
LINE
  5
21A
100
AcDbEntity
  8
図枠
  6
CONTINUOUS
 62
     3
100
AcDbLine
 10
1656.500488
 20
75.474182
 30
0.0
 11
1656.500488
 21
69.953552
 31
0.0
  0
LINE
  5
21B
100
AcDbEntity
  8
図枠
  6
CONTINUOUS
 62
     3
100
AcDbLine
 10
1656.500488
 20
69.953552
 30
0.0
 11
1637.899414
 21
66.0
 31
0.0
  0
LINE
  5
21C
100
AcDbEntity
  8
図枠
  6
CONTINUOUS
 62
     3
100
AcDbLine
 10
1637.899414
 20
66.0
 30
0.0
 11
1637.899414
 21
71.52063
 31
0.0
  0
LINE
  5
21D
100
AcDbEntity
  8
図枠
  6
CONTINUOUS
 62
     3
100
AcDbLine
 10
1637.899414
 20
71.52063
 30
0.0
 11
1643.900391
 21
72.795959
 31
0.0
  0
LINE
  5
21E
100
AcDbEntity
  8
図枠
  6
CONTINUOUS
 62
     3
100
AcDbLine
 10
1643.900391
 20
72.795959
 30
0.0
 11
1643.900391
 21
79.199997
 31
0.0
  0
LINE
  5
21F
100
AcDbEntity
  8
図枠
  6
CONTINUOUS
 62
     3
100
AcDbLine
 10
1643.900391
 20
79.199997
 30
0.0
 11
1638.199707
 21
79.199997
 31
0.0
  0
LINE
  5
220
100
AcDbEntity
  8
図枠
  6
CONTINUOUS
 62
     3
100
AcDbLine
 10
1638.199707
 20
82.800003
 30
0.0
 11
1638.199707
 21
79.199997
 31
0.0
  0
LINE
  5
221
100
AcDbEntity
  8
図枠
  6
CONTINUOUS
 62
     3
100
AcDbLine
 10
1671.200195
 20
79.799973
 30
0.0
 11
1705.399414
 21
79.799973
 31
0.0
  0
LINE
  5
222
100
AcDbEntity
  8
図枠
  6
CONTINUOUS
 62
     3
100
AcDbLine
 10
1705.399414
 20
79.799973
 30
0.0
 11
1705.399414
 21
76.199966
 31
0.0
  0
LINE
  5
223
100
AcDbEntity
  8
図枠
  6
CONTINUOUS
 62
     3
100
AcDbLine
 10
1705.399414
 20
76.199966
 30
0.0
 11
1700.643555
 21
76.199966
 31
0.0
  0
LINE
  5
224
100
AcDbEntity
  8
図枠
  6
CONTINUOUS
 62
     3
100
AcDbLine
 10
1700.643555
 20
76.199966
 30
0.0
 11
1705.399414
 21
66.0
 31
0.0
  0
LINE
  5
225
100
AcDbEntity
  8
図枠
  6
CONTINUOUS
 62
     3
100
AcDbLine
 10
1705.399414
 20
66.0
 30
0.0
 11
1671.200195
 21
66.0
 31
0.0
  0
LINE
  5
226
100
AcDbEntity
  8
図枠
  6
CONTINUOUS
 62
     3
100
AcDbLine
 10
1671.200195
 20
66.0
 30
0.0
 11
1675.956055
 21
76.199966
 31
0.0
  0
LINE
  5
227
100
AcDbEntity
  8
図枠
  6
CONTINUOUS
 62
     3
100
AcDbLine
 10
1675.956055
 20
76.199966
 30
0.0
 11
1671.200195
 21
76.199966
 31
0.0
  0
LINE
  5
228
100
AcDbEntity
  8
図枠
  6
CONTINUOUS
 62
     3
100
AcDbLine
 10
1671.200195
 20
79.799973
 30
0.0
 11
1671.200195
 21
76.199966
 31
0.0
  0
LINE
  5
229
100
AcDbEntity
  8
図枠
  6
CONTINUOUS
 62
     3
100
AcDbLine
 10
1682.575928
 20
76.199966
 30
0.0
 11
1694.023682
 21
76.199966
 31
0.0
  0
LINE
  5
22A
100
AcDbEntity
  8
図枠
  6
CONTINUOUS
 62
     3
100
AcDbLine
 10
1694.023682
 20
76.199966
 30
0.0
 11
1697.101074
 21
69.600006
 31
0.0
  0
LINE
  5
22B
100
AcDbEntity
  8
図枠
  6
CONTINUOUS
 62
     3
100
AcDbLine
 10
1697.101074
 20
69.600006
 30
0.0
 11
1679.498535
 21
69.600006
 31
0.0
  0
LINE
  5
22C
100
AcDbEntity
  8
図枠
  6
CONTINUOUS
 62
     3
100
AcDbLine
 10
1682.575928
 20
76.199966
 30
0.0
 11
1679.498535
 21
69.600006
 31
0.0
  0
LINE
  5
22D
100
AcDbEntity
  8
図枠
  6
CONTINUOUS
 62
     3
100
AcDbLine
 10
1671.200195
 20
87.278458
 30
0.0
 11
1688.299805
 21
92.99997
 31
0.0
  0
LINE
  5
22E
100
AcDbEntity
  8
図枠
  6
CONTINUOUS
 62
     3
100
AcDbLine
 10
1688.299805
 20
92.99997
 30
0.0
 11
1705.399414
 21
87.278305
 31
0.0
  0
LINE
  5
22F
100
AcDbEntity
  8
図枠
  6
CONTINUOUS
 62
     3
100
AcDbLine
 10
1705.399414
 20
87.278305
 30
0.0
 11
1705.399414
 21
83.482147
 31
0.0
  0
LINE
  5
230
100
AcDbEntity
  8
図枠
  6
CONTINUOUS
 62
     3
100
AcDbLine
 10
1705.399414
 20
83.482147
 30
0.0
 11
1700.300537
 21
85.188538
 31
0.0
  0
LINE
  5
231
100
AcDbEntity
  8
図枠
  6
CONTINUOUS
 62
     3
100
AcDbLine
 10
1700.300537
 20
85.188538
 30
0.0
 11
1700.300537
 21
82.200027
 31
0.0
  0
LINE
  5
232
100
AcDbEntity
  8
図枠
  6
CONTINUOUS
 62
     3
100
AcDbLine
 10
1700.300537
 20
82.200027
 30
0.0
 11
1676.300293
 21
82.200027
 31
0.0
  0
LINE
  5
233
100
AcDbEntity
  8
図枠
  6
CONTINUOUS
 62
     3
100
AcDbLine
 10
1676.300293
 20
82.200027
 30
0.0
 11
1676.300293
 21
85.188538
 31
0.0
  0
LINE
  5
234
100
AcDbEntity
  8
図枠
  6
CONTINUOUS
 62
     3
100
AcDbLine
 10
1676.300293
 20
85.188538
 30
0.0
 11
1671.200195
 21
83.482147
 31
0.0
  0
LINE
  5
235
100
AcDbEntity
  8
図枠
  6
CONTINUOUS
 62
     3
100
AcDbLine
 10
1671.200195
 20
87.278458
 30
0.0
 11
1671.200195
 21
83.482147
 31
0.0
  0
LINE
  5
236
100
AcDbEntity
  8
図枠
  6
CONTINUOUS
 62
     3
100
AcDbLine
 10
1678.127686
 20
85.800034
 30
0.0
 11
1688.299805
 21
89.203735
 31
0.0
  0
LINE
  5
237
100
AcDbEntity
  8
図枠
  6
CONTINUOUS
 62
     3
100
AcDbLine
 10
1688.299805
 20
89.203735
 30
0.0
 11
1698.473145
 21
85.800034
 31
0.0
  0
LINE
  5
238
100
AcDbEntity
  8
図枠
  6
CONTINUOUS
 62
     3
100
AcDbLine
 10
1698.473145
 20
85.800034
 30
0.0
 11
1678.127686
 21
85.800034
 31
0.0
  0
LINE
  5
239
100
AcDbEntity
  8
図枠
  6
CONTINUOUS
 62
     3
100
AcDbLine
 10
1722.800537
 20
85.800034
 30
0.0
 11
1728.199707
 21
85.800034
 31
0.0
  0
LINE
  5
23A
100
AcDbEntity
  8
図枠
  6
CONTINUOUS
 62
     3
100
AcDbLine
 10
1728.199707
 20
85.800034
 30
0.0
 11
1728.199707
 21
92.399994
 31
0.0
  0
LINE
  5
23B
100
AcDbEntity
  8
図枠
  6
CONTINUOUS
 62
     3
100
AcDbLine
 10
1728.199707
 20
92.399994
 30
0.0
 11
1734.199463
 21
92.399994
 31
0.0
  0
LINE
  5
23C
100
AcDbEntity
  8
図枠
  6
CONTINUOUS
 62
     3
100
AcDbLine
 10
1734.199463
 20
92.399994
 30
0.0
 11
1734.199463
 21
85.800034
 31
0.0
  0
LINE
  5
23D
100
AcDbEntity
  8
図枠
  6
CONTINUOUS
 62
     3
100
AcDbLine
 10
1734.199463
 20
85.800034
 30
0.0
 11
1739.599854
 21
85.800034
 31
0.0
  0
LINE
  5
23E
100
AcDbEntity
  8
図枠
  6
CONTINUOUS
 62
     3
100
AcDbLine
 10
1739.599854
 20
85.800034
 30
0.0
 11
1739.599854
 21
82.200027
 31
0.0
  0
LINE
  5
23F
100
AcDbEntity
  8
図枠
  6
CONTINUOUS
 62
     3
100
AcDbLine
 10
1739.599854
 20
82.200027
 30
0.0
 11
1734.199463
 21
82.200027
 31
0.0
  0
LINE
  5
240
100
AcDbEntity
  8
図枠
  6
CONTINUOUS
 62
     3
100
AcDbLine
 10
1734.199463
 20
82.200027
 30
0.0
 11
1734.199463
 21
69.600006
 31
0.0
  0
LINE
  5
241
100
AcDbEntity
  8
図枠
  6
CONTINUOUS
 62
     3
100
AcDbLine
 10
1734.199463
 20
69.600006
 30
0.0
 11
1740.200439
 21
69.600006
 31
0.0
  0
LINE
  5
242
100
AcDbEntity
  8
図枠
  6
CONTINUOUS
 62
     3
100
AcDbLine
 10
1740.200439
 20
69.600006
 30
0.0
 11
1740.200439
 21
66.0
 31
0.0
  0
LINE
  5
243
100
AcDbEntity
  8
図枠
  6
CONTINUOUS
 62
     3
100
AcDbLine
 10
1740.200439
 20
66.0
 30
0.0
 11
1720.399414
 21
66.0
 31
0.0
  0
LINE
  5
244
100
AcDbEntity
  8
図枠
  6
CONTINUOUS
 62
     3
100
AcDbLine
 10
1720.399414
 20
66.0
 30
0.0
 11
1720.399414
 21
69.600006
 31
0.0
  0
LINE
  5
245
100
AcDbEntity
  8
図枠
  6
CONTINUOUS
 62
     3
100
AcDbLine
 10
1720.399414
 20
69.600006
 30
0.0
 11
1728.199707
 21
69.600006
 31
0.0
  0
LINE
  5
246
100
AcDbEntity
  8
図枠
  6
CONTINUOUS
 62
     3
100
AcDbLine
 10
1728.199707
 20
69.600006
 30
0.0
 11
1728.199707
 21
82.200027
 31
0.0
  0
LINE
  5
247
100
AcDbEntity
  8
図枠
  6
CONTINUOUS
 62
     3
100
AcDbLine
 10
1728.199707
 20
82.200027
 30
0.0
 11
1722.800537
 21
82.200027
 31
0.0
  0
LINE
  5
248
100
AcDbEntity
  8
図枠
  6
CONTINUOUS
 62
     3
100
AcDbLine
 10
1722.800537
 20
85.800034
 30
0.0
 11
1722.800537
 21
82.200027
 31
0.0
  0
LINE
  5
249
100
AcDbEntity
  8
図枠
  6
CONTINUOUS
 62
     3
100
AcDbLine
 10
1706.599365
 20
90.000015
 30
0.0
 11
1711.999756
 21
90.000015
 31
0.0
  0
LINE
  5
24A
100
AcDbEntity
  8
図枠
  6
CONTINUOUS
 62
     3
100
AcDbLine
 10
1711.999756
 20
90.000015
 30
0.0
 11
1711.999756
 21
92.399994
 31
0.0
  0
LINE
  5
24B
100
AcDbEntity
  8
図枠
  6
CONTINUOUS
 62
     3
100
AcDbLine
 10
1711.999756
 20
92.399994
 30
0.0
 11
1717.999512
 21
92.399994
 31
0.0
  0
LINE
  5
24C
100
AcDbEntity
  8
図枠
  6
CONTINUOUS
 62
     3
100
AcDbLine
 10
1717.999512
 20
92.399994
 30
0.0
 11
1717.999512
 21
90.000015
 31
0.0
  0
LINE
  5
24D
100
AcDbEntity
  8
図枠
  6
CONTINUOUS
 62
     3
100
AcDbLine
 10
1717.999512
 20
90.000015
 30
0.0
 11
1723.399902
 21
90.000015
 31
0.0
  0
LINE
  5
24E
100
AcDbEntity
  8
図枠
  6
CONTINUOUS
 62
     3
100
AcDbLine
 10
1723.399902
 20
90.000015
 30
0.0
 11
1717.206055
 21
81.152283
 31
0.0
  0
LINE
  5
24F
100
AcDbEntity
  8
図枠
  6
CONTINUOUS
 62
     3
100
AcDbLine
 10
1717.206055
 20
81.152283
 30
0.0
 11
1722.800537
 21
77.235657
 31
0.0
  0
LINE
  5
250
100
AcDbEntity
  8
図枠
  6
CONTINUOUS
 62
     3
100
AcDbLine
 10
1722.800537
 20
77.235657
 30
0.0
 11
1722.800537
 21
70.643555
 31
0.0
  0
LINE
  5
251
100
AcDbEntity
  8
図枠
  6
CONTINUOUS
 62
     3
100
AcDbLine
 10
1722.800537
 20
70.643555
 30
0.0
 11
1717.999512
 21
74.004608
 31
0.0
  0
LINE
  5
252
100
AcDbEntity
  8
図枠
  6
CONTINUOUS
 62
     3
100
AcDbLine
 10
1717.999512
 20
74.004608
 30
0.0
 11
1717.999512
 21
66.0
 31
0.0
  0
LINE
  5
253
100
AcDbEntity
  8
図枠
  6
CONTINUOUS
 62
     3
100
AcDbLine
 10
1717.999512
 20
66.0
 30
0.0
 11
1711.999756
 21
66.0
 31
0.0
  0
LINE
  5
254
100
AcDbEntity
  8
図枠
  6
CONTINUOUS
 62
     3
100
AcDbLine
 10
1711.999756
 20
66.0
 30
0.0
 11
1711.999756
 21
73.714233
 31
0.0
  0
LINE
  5
255
100
AcDbEntity
  8
図枠
  6
CONTINUOUS
 62
     3
100
AcDbLine
 10
1711.999756
 20
73.714233
 30
0.0
 11
1706.599365
 21
66.0
 31
0.0
  0
LINE
  5
256
100
AcDbEntity
  8
図枠
  6
CONTINUOUS
 62
     3
100
AcDbLine
 10
1706.599365
 20
66.0
 30
0.0
 11
1706.599365
 21
75.416351
 31
0.0
  0
LINE
  5
257
100
AcDbEntity
  8
図枠
  6
CONTINUOUS
 62
     3
100
AcDbLine
 10
1706.599365
 20
75.416351
 30
0.0
 11
1714.288574
 21
86.400009
 31
0.0
  0
LINE
  5
258
100
AcDbEntity
  8
図枠
  6
CONTINUOUS
 62
     3
100
AcDbLine
 10
1714.288574
 20
86.400009
 30
0.0
 11
1706.599365
 21
86.400009
 31
0.0
  0
LINE
  5
259
100
AcDbEntity
  8
図枠
  6
CONTINUOUS
 62
     3
100
AcDbLine
 10
1706.599365
 20
90.000015
 30
0.0
 11
1706.599365
 21
86.400009
 31
0.0
  0
TEXT
  5
25A
100
AcDbEntity
  8
図枠
  6
CONTINUOUS
 62
     6
100
AcDbText
 10
154.929482
 20
152.957437
 30
0.0
 40
20.0
  1
△
 41
1.18
  7
EXCADVERT
 72
     3
 11
154.929482
 21
132.957437
 31
0.0
100
AcDbText
  0
TEXT
  5
25B
100
AcDbEntity
  8
図枠
  6
CONTINUOUS
 62
     6
100
AcDbText
 10
154.929482
 20
127.957437
 30
0.0
 40
20.0
  1
△
 41
1.18
  7
EXCADVERT
 72
     3
 11
154.929482
 21
107.957437
 31
0.0
100
AcDbText
  0
TEXT
  5
25C
100
AcDbEntity
  8
図枠
  6
CONTINUOUS
 62
     6
100
AcDbText
 10
154.929482
 20
102.957437
 30
0.0
 40
20.0
  1
△
 41
1.18
  7
EXCADVERT
 72
     3
 11
154.929482
 21
82.957437
 31
0.0
100
AcDbText
  0
LINE
  5
25D
100
AcDbEntity
  8
図枠
  6
CONTINUOUS
 62
     7
100
AcDbLine
 10
130.0
 20
55.0
 30
0.0
 11
2055.0
 21
55.0
 31
0.0
  0
LINE
  5
25E
100
AcDbEntity
  8
図枠
  6
CONTINUOUS
 62
     7
100
AcDbLine
 10
1375.0
 20
237.5
 30
0.0
 11
2055.0
 21
237.5
 31
0.0
  0
LINE
  5
25F
100
AcDbEntity
  8
図枠
  6
CONTINUOUS
 62
     7
100
AcDbLine
 10
1375.0
 20
237.5
 30
0.0
 11
1375.0
 21
55.0
 31
0.0
  0
LINE
  5
260
100
AcDbEntity
  8
図枠
  6
CONTINUOUS
 62
     6
100
AcDbLine
 10
1375.0
 20
105.0
 30
0.0
 11
2055.0
 21
105.0
 31
0.0
  0
LINE
  5
261
100
AcDbEntity
  8
図枠
  6
CONTINUOUS
 62
     6
100
AcDbLine
 10
2055.0
 20
155.0
 30
0.0
 11
1375.0
 21
155.0
 31
0.0
  0
LINE
  5
262
100
AcDbEntity
  8
図枠
  6
CONTINUOUS
 62
     6
100
AcDbLine
 10
1890.0
 20
237.5
 30
0.0
 11
1890.0
 21
155.0
 31
0.0
  0
LINE
  5
263
100
AcDbEntity
  8
図枠
  6
CONTINUOUS
 62
     6
100
AcDbLine
 10
1953.75
 20
237.5
 30
0.0
 11
1953.75
 21
155.0
 31
0.0
  0
LINE
  5
264
100
AcDbEntity
  8
図枠
  6
CONTINUOUS
 62
     6
100
AcDbLine
 10
2055.0
 20
212.5
 30
0.0
 11
1890.0
 21
212.5
 31
0.0
  0
LINE
  5
265
100
AcDbEntity
  8
図枠
  6
CONTINUOUS
 62
     6
100
AcDbLine
 10
1755.0
 20
155.0
 30
0.0
 11
1755.0
 21
55.0
 31
0.0
  0
LINE
  5
266
100
AcDbEntity
  8
図枠
  6
CONTINUOUS
 62
     6
100
AcDbLine
 10
1780.0
 20
55.0
 30
0.0
 11
1780.0
 21
155.0
 31
0.0
  0
LINE
  5
267
100
AcDbEntity
  8
図枠
  6
CONTINUOUS
 62
     6
100
AcDbLine
 10
1400.0
 20
237.5
 30
0.0
 11
1400.0
 21
105.0
 31
0.0
  0
LINE
  5
268
100
AcDbEntity
  8
図枠
  6
CONTINUOUS
 62
     6
100
AcDbLine
 10
1755.0
 20
237.5
 30
0.0
 11
1755.0
 21
155.0
 31
0.0
  0
LINE
  5
269
100
AcDbEntity
  8
図枠
  6
CONTINUOUS
 62
     6
100
AcDbLine
 10
1730.0
 20
237.5
 30
0.0
 11
1730.0
 21
155.0
 31
0.0
  0
LINE
  5
26A
100
AcDbEntity
  8
図枠
  6
CONTINUOUS
 62
     6
100
AcDbLine
 10
1552.5
 20
237.5
 30
0.0
 11
1552.5
 21
155.0
 31
0.0
  0
LINE
  5
26B
100
AcDbEntity
  8
図枠
  6
CONTINUOUS
 62
     6
100
AcDbLine
 10
1577.5
 20
237.5
 30
0.0
 11
1577.5
 21
155.0
 31
0.0
  0
LINE
  5
26C
100
AcDbEntity
  8
図枠
  6
CONTINUOUS
 62
     6
100
AcDbLine
 10
1463.75
 20
237.5
 30
0.0
 11
1463.75
 21
155.0
 31
0.0
  0
LINE
  5
26D
100
AcDbEntity
  8
図枠
  6
CONTINUOUS
 62
     6
100
AcDbLine
 10
1488.75
 20
237.5
 30
0.0
 11
1488.75
 21
155.0
 31
0.0
  0
LINE
  5
26E
100
AcDbEntity
  8
図枠
  6
CONTINUOUS
 62
     6
100
AcDbLine
 10
530.0
 20
205.0
 30
0.0
 11
530.0
 21
55.0
 31
0.0
  0
LINE
  5
26F
100
AcDbEntity
  8
図枠
  6
CONTINUOUS
 62
     6
100
AcDbLine
 10
455.0
 20
205.0
 30
0.0
 11
455.0
 21
55.0
 31
0.0
  0
LINE
  5
270
100
AcDbEntity
  8
図枠
  6
CONTINUOUS
 62
     6
100
AcDbLine
 10
180.0
 20
205.0
 30
0.0
 11
180.0
 21
55.0
 31
0.0
  0
LINE
  5
271
100
AcDbEntity
  8
図枠
  6
CONTINUOUS
 62
     6
100
AcDbLine
 10
355.0
 20
205.0
 30
0.0
 11
355.0
 21
55.0
 31
0.0
  0
LINE
  5
272
100
AcDbEntity
  8
図枠
  6
CONTINUOUS
 62
     6
100
AcDbLine
 10
130.0
 20
155.0
 30
0.0
 11
580.0
 21
155.0
 31
0.0
  0
LINE
  5
273
100
AcDbEntity
  8
図枠
  6
CONTINUOUS
 62
     6
100
AcDbLine
 10
130.0
 20
130.0
 30
0.0
 11
580.0
 21
130.0
 31
0.0
  0
LINE
  5
274
100
AcDbEntity
  8
図枠
  6
CONTINUOUS
 62
     6
100
AcDbLine
 10
130.0
 20
105.0
 30
0.0
 11
580.0
 21
105.0
 31
0.0
  0
LINE
  5
275
100
AcDbEntity
  8
図枠
  6
CONTINUOUS
 62
     6
100
AcDbLine
 10
130.0
 20
80.0
 30
0.0
 11
580.0
 21
80.0
 31
0.0
  0
LINE
  5
276
100
AcDbEntity
  8
図枠
  6
CONTINUOUS
 62
     7
100
AcDbLine
 10
580.0
 20
205.0
 30
0.0
 11
580.0
 21
55.0
 31
0.0
  0
TEXT
  5
277
100
AcDbEntity
  8
図枠
  6
CONTINUOUS
 62
     2
100
AcDbText
 10
1898.125
 20
215.0
 30
0.0
 40
20.0
  1
尺度
 41
0.9975
  7
EXCADSTD
 72
     5
 11
1941.6635
 21
215.0
 31
0.0
100
AcDbText
  0
TEXT
  5
278
100
AcDbEntity
  8
図枠
  6
CONTINUOUS
 62
     2
100
AcDbText
 10
1968.125
 20
215.0
 30
0.0
 40
20.0
  1
投影法
 41
1.015
  7
EXCADSTD
 72
     5
 11
2040.625
 21
215.0
 31
0.0
100
AcDbText
  0
TEXT
  5
279
100
AcDbEntity
  8
図枠
  6
CONTINUOUS
 62
     2
100
AcDbText
 10
1959.625
 20
172.5
 30
0.0
 40
22.5
  1
第３角法
 41
0.835333
  7
EXCADSTD
 72
     5
 11
2049.125
 21
172.5
 31
0.0
100
AcDbText
  0
TEXT
  5
27A
100
AcDbEntity
  8
図枠
  6
CONTINUOUS
 62
     2
100
AcDbText
 10
1767.5
 20
100.0
 30
0.0
 40
20.0
  1
図番
 41
1.125
  7
EXCADVERT
 72
     3
 11
1767.5
 21
60.0
 31
0.0
100
AcDbText
  0
TEXT
  5
27B
100
AcDbEntity
  8
図枠
  6
CONTINUOUS
 62
     2
100
AcDbText
 10
1476.25
 20
226.25
 30
0.0
 40
23.75
  1
製図
  7
EXCADVERT
 72
     3
 11
1476.25
 21
166.25
 31
0.0
100
AcDbText
  0
TEXT
  5
27C
100
AcDbEntity
  8
図枠
  6
CONTINUOUS
 62
     2
100
AcDbText
 10
1565.0
 20
226.25
 30
0.0
 40
23.75
  1
写図
  7
EXCADVERT
 72
     3
 11
1565.0
 21
166.25
 31
0.0
100
AcDbText
  0
TEXT
  5
27D
100
AcDbEntity
  8
図枠
  6
CONTINUOUS
 62
     2
100
AcDbText
 10
1742.5
 20
226.25
 30
0.0
 40
23.75
  1
承認
  7
EXCADVERT
 72
     3
 11
1742.5
 21
166.25
 31
0.0
100
AcDbText
  0
TEXT
  5
27E
100
AcDbEntity
  8
図枠
  6
CONTINUOUS
 62
     2
100
AcDbText
 10
135.5
 20
57.0
 30
0.0
 40
20.0
  1
符号
 41
0.84
  7
EXCADSTD
 72
     5
 11
172.164
 21
57.0
 31
0.0
100
AcDbText
  0
TEXT
  5
27F
100
AcDbEntity
  8
図枠
  6
CONTINUOUS
 62
     2
100
AcDbText
 10
363.0
 20
57.0
 30
0.0
 40
20.0
  1
制改ＮＯ
 41
0.84
  7
EXCADSTD
 72
     5
 11
443.0
 21
57.0
 31
0.0
100
AcDbText
  0
TEXT
  5
280
100
AcDbEntity
  8
図枠
  6
CONTINUOUS
 62
     2
100
AcDbText
 10
474.0
 20
57.0
 30
0.0
 40
20.0
  1
日付
 41
0.84
  7
EXCADSTD
 72
     5
 11
510.664
 21
57.0
 31
0.0
100
AcDbText
  0
TEXT
  5
281
100
AcDbEntity
  8
図枠
  6
CONTINUOUS
 62
     2
100
AcDbText
 10
535.5
 20
58.0
 30
0.0
 40
20.0
  1
担当
 41
0.84
  7
EXCADSTD
 72
     5
 11
572.164
 21
58.0
 31
0.0
100
AcDbText
  0
LINE
  5
282
100
AcDbEntity
  8
図枠
  6
CONTINUOUS
 62
     6
100
AcDbLine
 10
1907.22549
 20
168.36088
 30
0.0
 11
1938.787142
 21
200.47641
 31
0.0
  0
TEXT
  5
283
100
AcDbEntity
  8
図枠
  6
CONTINUOUS
 62
     2
100
AcDbText
 10
1906.65
 20
180.8
 30
0.0
 40
20.0
  1
1
 41
0.5
  7
EXCADSTD
 72
     5
 11
1913.15
 21
180.8
 31
0.0
100
AcDbText
  0
TEXT
  5
284
100
AcDbEntity
  8
図枠
  6
CONTINUOUS
 62
     2
100
AcDbText
 10
621.25
 20
182.5
 30
0.0
 40
20.0
  1
寸法許容差
 41
2.037
  7
EXCADSTD
 72
     5
 11
863.75
 21
182.5
 31
0.0
100
AcDbText
  0
TEXT
  5
285
100
AcDbEntity
  8
図枠
  6
CONTINUOUS
 62
     2
100
AcDbText
 10
595.0
 20
160.0
 30
0.0
 40
15.0
  1
４０ｍｍ以下
 41
0.84
  7
EXCADSTD
 72
     5
 11
685.0
 21
160.0
 31
0.0
100
AcDbText
  0
TEXT
  5
286
100
AcDbEntity
  8
図枠
  6
CONTINUOUS
 62
     2
100
AcDbText
 10
595.0
 20
85.0
 30
0.0
 40
15.0
  1
１５１ｍｍ以上
 41
0.84
  7
EXCADSTD
 72
     5
 11
700.0
 21
85.0
 31
0.0
100
AcDbText
  0
LINE
  5
287
100
AcDbEntity
  8
図枠
  6
CONTINUOUS
 62
     7
100
AcDbLine
 10
905.0
 20
205.0
 30
0.0
 11
905.0
 21
55.0
 31
0.0
  0
LINE
  5
288
100
AcDbEntity
  8
図枠
  6
CONTINUOUS
 62
     6
100
AcDbLine
 10
130.0
 20
180.0
 30
0.0
 11
905.0
 21
180.0
 31
0.0
  0
LINE
  5
289
100
AcDbEntity
  8
図枠
  6
CONTINUOUS
 62
     7
100
AcDbLine
 10
130.0
 20
205.0
 30
0.0
 11
905.0
 21
205.0
 31
0.0
  0
TEXT
  5
28A
100
AcDbEntity
  8
図枠
  6
CONTINUOUS
 62
     6
100
AcDbText
 10
154.929482
 20
177.957437
 30
0.0
 40
20.0
  1
△
 41
1.18
  7
EXCADVERT
 72
     3
 11
154.929482
 21
157.957437
 31
0.0
100
AcDbText
  0
TEXT
  5
28B
100
AcDbEntity
  8
図枠
  6
CONTINUOUS
 62
     6
100
AcDbText
 10
154.929482
 20
202.957437
 30
0.0
 40
20.0
  1
△
 41
1.18
  7
EXCADVERT
 72
     3
 11
154.929482
 21
182.957437
 31
0.0
100
AcDbText
  0
TEXT
  5
28C
100
AcDbEntity
  8
図枠
  6
CONTINUOUS
 62
     2
100
AcDbText
 10
1927.65
 20
165.8
 30
0.0
 40
20.0
  1
５
 41
0.84
  7
EXCADSTD
 72
     5
 11
1943.65
 21
165.8
 31
0.0
100
AcDbText
  0
LINE
  5
28D
100
AcDbEntity
  8
図枠
  6
CONTINUOUS
 62
     6
100
AcDbLine
 10
1641.25
 20
237.5
 30
0.0
 11
1641.25
 21
155.0
 31
0.0
  0
LINE
  5
28E
100
AcDbEntity
  8
図枠
  6
CONTINUOUS
 62
     6
100
AcDbLine
 10
1666.25
 20
237.5
 30
0.0
 11
1666.25
 21
155.0
 31
0.0
  0
TEXT
  5
28F
100
AcDbEntity
  8
図枠
  6
CONTINUOUS
 62
     2
100
AcDbText
 10
1653.75
 20
226.25
 30
0.0
 40
23.75
  1
検図
  7
EXCADVERT
 72
     3
 11
1653.75
 21
166.25
 31
0.0
100
AcDbText
  0
TEXT
  5
290
100
AcDbEntity
  8
図枠
  6
CONTINUOUS
 62
     2
100
AcDbText
 10
1387.5
 20
226.25
 30
0.0
 40
23.75
  1
設計
  7
EXCADVERT
 72
     3
 11
1387.5
 21
166.25
 31
0.0
100
AcDbText
  0
TEXT
  5
291
100
AcDbEntity
  8
図枠
  6
CONTINUOUS
 62
     2
100
AcDbText
 10
1387.5
 20
150.0
 30
0.0
 40
20.0
  1
品名
 41
1.125
  7
EXCADVERT
 72
     3
 11
1387.5
 21
110.0
 31
0.0
100
AcDbText
  0
TEXT
  5
292
100
AcDbEntity
  8
図枠
  6
CONTINUOUS
 62
     2
100
AcDbText
 10
1767.5
 20
151.25
 30
0.0
 40
20.0
  1
品番
 41
1.125
  7
EXCADVERT
 72
     3
 11
1767.5
 21
108.75
 31
0.0
100
AcDbText
  0
TEXT
  5
293
100
AcDbEntity
  8
図枠
  6
CONTINUOUS
 62
     2
100
AcDbText
 10
595.0
 20
135.0
 30
0.0
 40
15.0
  1
４１ｍｍ以上５０ｍｍまで
 41
0.84
  7
EXCADSTD
 72
     5
 11
775.0
 21
135.0
 31
0.0
100
AcDbText
  0
TEXT
  5
294
100
AcDbEntity
  8
図枠
  6
CONTINUOUS
 62
     2
100
AcDbText
 10
595.0
 20
110.0
 30
0.0
 40
15.0
  1
５１ｍｍ以上１５０ｍｍまで
 41
0.84
  7
EXCADSTD
 72
     5
 11
790.0
 21
110.0
 31
0.0
100
AcDbText
  0
TEXT
  5
295
100
AcDbEntity
  8
図枠
  6
CONTINUOUS
 62
     2
100
AcDbText
 10
589.0
 20
60.0
 30
0.0
 40
15.0
  1
１ｍｍ未満は切上げ、最大は２５ｍｍとする。
 41
0.8
  7
EXCADSTD
 72
     5
 11
888.999999
 21
60.0
 31
0.0
100
AcDbText
  0
TEXT
  5
296
100
AcDbEntity
  8
図枠
  6
CONTINUOUS
 62
     2
100
AcDbText
 10
211.498006
 20
57.500067
 30
0.0
 40
20.0
  1
変更事項
 41
1.165505
  7
EXCADSTD
 72
     5
 11
322.498506
 21
57.500067
 31
0.0
100
AcDbText
  0
LINE
  5
297
100
AcDbEntity
  8
図枠
  6
CONTINUOUS
 62
     6
100
AcDbLine
 10
921.5
 20
75.0
 30
0.0
 11
1343.5
 21
75.0
 31
0.0
  0
TEXT
  5
298
100
AcDbEntity
  8
図枠
  6
CONTINUOUS
 62
     2
100
AcDbText
 10
921.5
 20
75.0
 30
0.0
 40
20.0
  1
注１．外観・寸法・性能及び品質は、別途定める製品規格による。
 41
0.595
  7
EXCADSTD
 72
     5
 11
1346.499993
 21
75.0
 31
0.0
100
AcDbText
  0
CIRCLE
  5
299
100
AcDbEntity
  8
図枠
  6
CONTINUOUS
 62
     6
100
AcDbCircle
 10
1512.35
 20
165.15
 30
0.0
 40
0.5
  0
CIRCLE
  5
29A
100
AcDbEntity
  8
図枠
  6
CONTINUOUS
 62
     6
100
AcDbCircle
 10
1528.75
 20
165.15
 30
0.0
 40
0.5
  0
TEXT
  5
29B
100
AcDbEntity
  8
図枠
  6
CONTINUOUS
 62
     2
100
AcDbText
 10
1819.9
 20
113.5
 30
0.0
 40
30.0
  1
Ｌ３５３
 41
0.826
  7
EXCADSTD
 72
     5
 11
1937.9
 21
113.5
 31
0.0
100
AcDbText
  0
TEXT
  5
29C
100
AcDbEntity
  8
図枠
  6
CONTINUOUS
 62
     7
100
AcDbText
 10
1804.5
 20
64.5
 30
0.0
 40
30.0
  1
１０５２７３０
 41
0.91
  7
EXCADSTD
 72
     5
 11
2032.0
 21
64.5
 31
0.0
100
AcDbText
  0
TEXT
  5
29D
100
AcDbEntity
  8
図枠
  6
CONTINUOUS
 62
     2
100
AcDbText
 10
1580.75
 20
111.0
 30
0.0
 40
30.0
  1
手洗器
 41
0.728
  7
EXCADSTD
 72
     5
 11
1658.75
 21
111.0
 31
0.0
100
AcDbText
  0
TEXT
  5
29E
100
AcDbEntity
  8
図枠
  6
CONTINUOUS
 62
     2
100
AcDbText
 10
1496.125
 20
187.25
 30
0.0
 40
25.0
  1
風穴
 41
0.8568
  7
EXCADSTD
 72
     5
 11
1542.8716
 21
187.25
 31
0.0
100
AcDbText
  0
TEXT
  5
29F
100
AcDbEntity
  8
図枠
  6
CONTINUOUS
 62
     6
100
AcDbText
 10
1489.522058
 20
158.625037
 30
0.0
 40
12.5
  1
１７
 41
0.7392
  7
EXCADSTD
 72
     5
 11
1509.687257
 21
158.625037
 31
0.0
100
AcDbText
  0
TEXT
  5
2A0
100
AcDbEntity
  8
図枠
  6
CONTINUOUS
 62
     6
100
AcDbText
 10
1514.772058
 20
158.375037
 30
0.0
 40
12.5
  1
８
 41
0.8736
  7
EXCADSTD
 72
     5
 11
1525.172058
 21
158.375037
 31
0.0
100
AcDbText
  0
TEXT
  5
2A1
100
AcDbEntity
  8
図枠
  6
CONTINUOUS
 62
     6
100
AcDbText
 10
1530.572058
 20
158.625037
 30
0.0
 40
12.5
  1
２６
 41
0.7392
  7
EXCADSTD
 72
     5
 11
1550.737257
 21
158.625037
 31
0.0
100
AcDbText
  0
TEXT
  5
2A2
100
AcDbEntity
  8
図枠
  6
CONTINUOUS
 62
     2
100
AcDbText
 10
1797.0
 20
187.25
 30
0.0
 40
25.0
  1
竹川
 41
0.8568
  7
EXCADSTD
 72
     5
 11
1843.7466
 21
187.25
 31
0.0
100
AcDbText
  0
LINE
  5
2A3
100
AcDbEntity
  8
図枠
  6
CONTINUOUS
 62
     7
100
AcDbLine
 10
130.0
 20
1417.0
 30
0.0
 11
2055.0
 21
1417.0
 31
0.0
  0
LINE
  5
2A4
100
AcDbEntity
  8
図枠
  6
CONTINUOUS
 62
     7
100
AcDbLine
 10
130.0
 20
55.0
 30
0.0
 11
130.0
 21
1417.0
 31
0.0
  0
LINE
  5
2A5
100
AcDbEntity
  8
図枠
  6
CONTINUOUS
 62
     7
100
AcDbLine
 10
2055.0
 20
55.0
 30
0.0
 11
2055.0
 21
1417.0
 31
0.0
  0
LINE
  5
2A6
100
AcDbEntity
  8
図枠
  6
CONTINUOUS
 62
     7
100
AcDbLine
 10
60.5
 20
736.0
 30
0.0
 11
130.0
 21
736.0
 31
0.0
  0
LINE
  5
2A7
100
AcDbEntity
  8
図枠
  6
CONTINUOUS
 62
     7
100
AcDbLine
 10
2085.0
 20
736.0
 30
0.0
 11
2055.0
 21
736.0
 31
0.0
  0
TEXT
  5
2A8
100
AcDbEntity
  8
図枠
  6
CONTINUOUS
 62
     2
100
AcDbText
 10
1407.5
 20
130.5
 30
0.0
 40
20.0
  1
３５５×１９５
 41
0.801
  7
EXCADSTD
 72
     5
 11
1541.0
 21
130.5
 31
0.0
100
AcDbText
  0
TEXT
  5
2A9
100
AcDbEntity
  8
図枠
  6
CONTINUOUS
 62
     2
100
AcDbText
 10
360.0
 20
82.0
 30
0.0
 40
20.0
  1
０５－０４４
 41
0.665
  7
EXCADSTD
 72
     5
 11
455.0
 21
82.0
 31
0.0
100
AcDbText
  0
TEXT
  5
2AA
100
AcDbEntity
  8
図枠
  6
CONTINUOUS
 62
     2
100
AcDbText
 10
1406.375
 20
187.25
 30
0.0
 40
25.0
  1
竹川
 41
0.8568
  7
EXCADSTD
 72
     5
 11
1453.1216
 21
187.25
 31
0.0
100
AcDbText
  0
LINE
  5
2AB
100
AcDbEntity
  8
図
  6
EXLTYPE3
 62
     6
100
AcDbLine
 10
571.101106
 20
908.104698
 30
0.0
 11
571.101106
 21
693.704698
 31
0.0
  0
LINE
  5
2AC
100
AcDbEntity
  8
図
  6
EXLTYPE3
 62
     6
100
AcDbLine
 10
681.980089
 20
855.274439
 30
0.0
 11
685.114912
 21
765.504862
 31
0.0
  0
LINE
  5
2AD
100
AcDbEntity
  8
図
  6
CONTINUOUS
 62
     7
100
AcDbLine
 10
399.008387
 20
888.104698
 30
0.0
 11
743.193825
 21
888.104698
 31
0.0
  0
LINE
  5
2AE
100
AcDbEntity
  8
図
  6
CONTINUOUS
 62
     7
100
AcDbLine
 10
395.009487
 20
884.198491
 30
0.0
 11
393.602206
 21
824.198491
 31
0.0
  0
ARC
  5
2AF
100
AcDbEntity
  8
図
  6
CONTINUOUS
 62
     7
100
AcDbCircle
 10
399.008387
 20
884.104698
 30
0.0
 40
4.0
100
AcDbArc
 50
90.0
 51
178.656392
  0
LINE
  5
2B0
100
AcDbEntity
  8
図
  6
CONTINUOUS
 62
     7
100
AcDbLine
 10
747.192725
 20
884.198491
 30
0.0
 11
748.600006
 21
824.198491
 31
0.0
  0
ARC
  5
2B1
100
AcDbEntity
  8
図
  6
CONTINUOUS
 62
     7
100
AcDbCircle
 10
743.193825
 20
884.104698
 30
0.0
 40
4.0
100
AcDbArc
 50
1.343608
 51
90.0
  0
CIRCLE
  5
2B2
100
AcDbEntity
  8
図
  6
CONTINUOUS
 62
     7
100
AcDbCircle
 10
421.101106
 20
863.104698
 30
0.0
 40
3.5
  0
CIRCLE
  5
2B3
100
AcDbEntity
  8
図
  6
CONTINUOUS
 62
     6
100
AcDbCircle
 10
421.101106
 20
863.104698
 30
0.0
 40
6.0
  0
LINE
  5
2B4
100
AcDbEntity
  8
図
  6
EXLTYPE3
 62
     6
100
AcDbLine
 10
410.401106
 20
863.104698
 30
0.0
 11
432.901106
 21
863.104698
 31
0.0
  0
LINE
  5
2B5
100
AcDbEntity
  8
図
  6
EXLTYPE3
 62
     6
100
AcDbLine
 10
421.101106
 20
873.204698
 30
0.0
 11
421.101106
 21
852.504698
 31
0.0
  0
CIRCLE
  5
2B6
100
AcDbEntity
  8
図
  6
CONTINUOUS
 62
     7
100
AcDbCircle
 10
721.101106
 20
863.104698
 30
0.0
 40
3.5
  0
CIRCLE
  5
2B7
100
AcDbEntity
  8
図
  6
CONTINUOUS
 62
     6
100
AcDbCircle
 10
721.101106
 20
863.104698
 30
0.0
 40
6.0
  0
LINE
  5
2B8
100
AcDbEntity
  8
図
  6
EXLTYPE3
 62
     6
100
AcDbLine
 10
731.801106
 20
863.104698
 30
0.0
 11
709.301106
 21
863.104698
 31
0.0
  0
LINE
  5
2B9
100
AcDbEntity
  8
図
  6
EXLTYPE3
 62
     6
100
AcDbLine
 10
721.101106
 20
873.204698
 30
0.0
 11
721.101106
 21
852.504698
 31
0.0
  0
CIRCLE
  5
2BA
100
AcDbEntity
  8
図
  6
CONTINUOUS
 62
     7
100
AcDbCircle
 10
546.101106
 20
1242.104698
 30
0.0
 40
30.5
  0
CIRCLE
  5
2BB
100
AcDbEntity
  8
図
  6
CONTINUOUS
 62
     7
100
AcDbCircle
 10
546.101106
 20
1242.104698
 30
0.0
 40
20.5
  0
LINE
  5
2BC
100
AcDbEntity
  8
図
  6
CONTINUOUS
 62
     2
100
AcDbLine
 10
466.101106
 20
1276.736523
 30
0.0
 11
466.101106
 21
1192.104698
 31
0.0
  0
ARC
  5
2BD
100
AcDbEntity
  8
図
  6
CONTINUOUS
 62
     2
100
AcDbCircle
 10
476.101106
 20
1276.736523
 30
0.0
 40
10.0
100
AcDbArc
 50
90.0
 51
180.0
  0
LINE
  5
2BE
100
AcDbEntity
  8
図
  6
CONTINUOUS
 62
     2
100
AcDbLine
 10
586.101106
 20
1286.736523
 30
0.0
 11
476.101106
 21
1286.736523
 31
0.0
  0
ARC
  5
2BF
100
AcDbEntity
  8
図
  6
CONTINUOUS
 62
     2
100
AcDbCircle
 10
586.101106
 20
1276.736523
 30
0.0
 40
10.0
100
AcDbArc
 50
0.0
 51
90.0
  0
LINE
  5
2C0
100
AcDbEntity
  8
図
  6
CONTINUOUS
 62
     2
100
AcDbLine
 10
596.101106
 20
1192.104698
 30
0.0
 11
596.101106
 21
1276.736523
 31
0.0
  0
ARC
  5
2C1
100
AcDbEntity
  8
図
  6
CONTINUOUS
 62
     2
100
AcDbCircle
 10
586.101106
 20
1192.104698
 30
0.0
 40
10.0
100
AcDbArc
 50
270.0
 51
0.0
  0
LINE
  5
2C2
100
AcDbEntity
  8
図
  6
CONTINUOUS
 62
     2
100
AcDbLine
 10
586.101106
 20
1182.104698
 30
0.0
 11
476.101106
 21
1182.104698
 31
0.0
  0
ARC
  5
2C3
100
AcDbEntity
  8
図
  6
CONTINUOUS
 62
     2
100
AcDbCircle
 10
476.101106
 20
1192.104698
 30
0.0
 40
10.0
100
AcDbArc
 50
180.0
 51
270.0
  0
LINE
  5
2C4
100
AcDbEntity
  8
図
  6
EXLTYPE3
 62
     6
100
AcDbLine
 10
546.101106
 20
1286.736523
 30
0.0
 11
546.101106
 21
1182.104698
 31
0.0
  0
LINE
  5
2C5
100
AcDbEntity
  8
図
  6
CONTINUOUS
 62
     7
100
AcDbLine
 10
546.101106
 20
1286.736523
 30
0.0
 11
551.101106
 21
1286.736523
 31
0.0
  0
LINE
  5
2C6
100
AcDbEntity
  8
図
  6
CONTINUOUS
 62
     7
100
AcDbLine
 10
395.101106
 20
1301.104698
 30
0.0
 11
395.101106
 21
1317.104698
 31
0.0
  0
ARC
  5
2C7
100
AcDbEntity
  8
図
  6
CONTINUOUS
 62
     7
100
AcDbCircle
 10
397.601106
 20
1301.104698
 30
0.0
 40
4.0
100
AcDbArc
 50
180.0
 51
270.0
  0
ARC
  5
2C8
100
AcDbEntity
  8
図
  6
CONTINUOUS
 62
     7
100
AcDbCircle
 10
399.101106
 20
1301.104698
 30
0.0
 40
4.0
100
AcDbArc
 50
180.0
 51
270.0
  0
LINE
  5
2C9
100
AcDbEntity
  8
図
  6
CONTINUOUS
 62
     7
100
AcDbLine
 10
393.601106
 20
1317.104698
 30
0.0
 11
748.601106
 21
1317.104698
 31
0.0
  0
LINE
  5
2CA
100
AcDbEntity
  8
図
  6
CONTINUOUS
 62
     7
100
AcDbLine
 10
747.101106
 20
1301.104698
 30
0.0
 11
747.101106
 21
1317.104698
 31
0.0
  0
ARC
  5
2CB
100
AcDbEntity
  8
図
  6
CONTINUOUS
 62
     7
100
AcDbCircle
 10
744.601106
 20
1301.104698
 30
0.0
 40
4.0
100
AcDbArc
 50
270.0
 51
0.0
  0
ARC
  5
2CC
100
AcDbEntity
  8
図
  6
CONTINUOUS
 62
     7
100
AcDbCircle
 10
743.101106
 20
1301.104698
 30
0.0
 40
4.0
100
AcDbArc
 50
270.0
 51
0.0
  0
LINE
  5
2CD
100
AcDbEntity
  8
図
  6
CONTINUOUS
 62
     7
100
AcDbLine
 10
397.601106
 20
1297.104698
 30
0.0
 11
744.601106
 21
1297.104698
 31
0.0
  0
LINE
  5
2CE
100
AcDbEntity
  8
図
  6
EXLTYPE3
 62
     6
100
AcDbLine
 10
683.101106
 20
1219.104698
 30
0.0
 11
683.101106
 21
1265.104698
 31
0.0
  0
CIRCLE
  5
2CF
100
AcDbEntity
  8
図
  6
CONTINUOUS
 62
     7
100
AcDbCircle
 10
683.101106
 20
1242.104698
 30
0.0
 40
13.0
  0
LINE
  5
2D0
100
AcDbEntity
  8
図
  6
CONTINUOUS
 62
     7
100
AcDbLine
 10
393.601106
 20
1317.104698
 30
0.0
 11
393.601106
 21
1145.222283
 31
0.0
  0
LINE
  5
2D1
100
AcDbEntity
  8
図
  6
CONTINUOUS
 62
     7
100
AcDbLine
 10
748.601106
 20
1317.104698
 30
0.0
 11
748.601106
 21
1145.222283
 31
0.0
  0
ARC
  5
2D2
100
AcDbEntity
  8
図
  6
CONTINUOUS
 62
     7
100
AcDbCircle
 10
411.601106
 20
1282.90909
 30
0.0
 40
10.0
100
AcDbArc
 50
90.0
 51
180.0
  0
LINE
  5
2D3
100
AcDbEntity
  8
図
  6
CONTINUOUS
 62
     7
100
AcDbLine
 10
401.601106
 20
1282.90909
 30
0.0
 11
401.601106
 21
1145.222283
 31
0.0
  0
ARC
  5
2D4
100
AcDbEntity
  8
図
  6
CONTINUOUS
 62
     7
100
AcDbCircle
 10
413.601106
 20
1145.222283
 30
0.0
 40
12.0
100
AcDbArc
 50
180.0
 51
267.73205
  0
ARC
  5
2D5
100
AcDbEntity
  8
図
  6
CONTINUOUS
 62
     7
100
AcDbCircle
 10
413.601106
 20
1145.222283
 30
0.0
 40
20.0
100
AcDbArc
 50
180.0
 51
267.73205
  0
ARC
  5
2D6
100
AcDbEntity
  8
図
  6
CONTINUOUS
 62
     7
100
AcDbCircle
 10
571.101106
 20
5122.104698
 30
0.0
 40
3992.0
100
AcDbArc
 50
267.73205
 51
272.26795
  0
ARC
  5
2D7
100
AcDbEntity
  8
図
  6
CONTINUOUS
 62
     7
100
AcDbCircle
 10
571.101106
 20
5122.104698
 30
0.0
 40
4000.0
100
AcDbArc
 50
267.73205
 51
272.26795
  0
ARC
  5
2D8
100
AcDbEntity
  8
図
  6
CONTINUOUS
 62
     7
100
AcDbCircle
 10
728.601106
 20
1145.222283
 30
0.0
 40
12.0
100
AcDbArc
 50
272.26795
 51
0.0
  0
ARC
  5
2D9
100
AcDbEntity
  8
図
  6
CONTINUOUS
 62
     7
100
AcDbCircle
 10
728.601106
 20
1145.222283
 30
0.0
 40
20.0
100
AcDbArc
 50
272.26795
 51
0.0
  0
ARC
  5
2DA
100
AcDbEntity
  8
図
  6
CONTINUOUS
 62
     7
100
AcDbCircle
 10
632.101106
 20
1140.571953
 30
0.0
 40
10.0
100
AcDbArc
 50
270.877745
 51
0.0
  0
ARC
  5
2DB
100
AcDbEntity
  8
図
  6
CONTINUOUS
 62
     7
100
AcDbCircle
 10
632.101106
 20
1282.90909
 30
0.0
 40
10.0
100
AcDbArc
 50
0.0
 51
90.0
  0
LINE
  5
2DC
100
AcDbEntity
  8
図
  6
CONTINUOUS
 62
     7
100
AcDbLine
 10
642.101106
 20
1140.571953
 30
0.0
 11
642.101106
 21
1282.90909
 31
0.0
  0
LINE
  5
2DD
100
AcDbEntity
  8
図
  6
CONTINUOUS
 62
     2
100
AcDbLine
 10
401.601106
 20
1282.90909
 30
0.0
 11
466.101106
 21
1276.736523
 31
0.0
  0
LINE
  5
2DE
100
AcDbEntity
  8
図
  6
CONTINUOUS
 62
     2
100
AcDbLine
 10
411.601106
 20
1292.90909
 30
0.0
 11
476.101106
 21
1286.736523
 31
0.0
  0
LINE
  5
2DF
100
AcDbEntity
  8
図
  6
CONTINUOUS
 62
     2
100
AcDbLine
 10
401.601106
 20
1145.222283
 30
0.0
 11
466.101106
 21
1192.104698
 31
0.0
  0
LINE
  5
2E0
100
AcDbEntity
  8
図
  6
CONTINUOUS
 62
     2
100
AcDbLine
 10
413.126232
 20
1133.231682
 30
0.0
 11
476.101106
 21
1182.104698
 31
0.0
  0
LINE
  5
2E1
100
AcDbEntity
  8
図
  6
CONTINUOUS
 62
     2
100
AcDbLine
 10
586.101106
 20
1286.736523
 30
0.0
 11
632.101106
 21
1292.90909
 31
0.0
  0
LINE
  5
2E2
100
AcDbEntity
  8
図
  6
CONTINUOUS
 62
     2
100
AcDbLine
 10
642.101106
 20
1282.90909
 30
0.0
 11
596.101106
 21
1276.736523
 31
0.0
  0
LINE
  5
2E3
100
AcDbEntity
  8
図
  6
CONTINUOUS
 62
     2
100
AcDbLine
 10
586.101106
 20
1182.104698
 30
0.0
 11
632.254296
 21
1130.573127
 31
0.0
  0
LINE
  5
2E4
100
AcDbEntity
  8
図
  6
CONTINUOUS
 62
     2
100
AcDbLine
 10
642.101106
 20
1140.571953
 30
0.0
 11
596.101106
 21
1192.104698
 31
0.0
  0
ARC
  5
2E5
100
AcDbEntity
  8
図
  6
CONTINUOUS
 62
     7
100
AcDbCircle
 10
730.601106
 20
1282.90909
 30
0.0
 40
10.0
100
AcDbArc
 50
0.0
 51
90.0
  0
LINE
  5
2E6
100
AcDbEntity
  8
図
  6
CONTINUOUS
 62
     7
100
AcDbLine
 10
740.601106
 20
1282.90909
 30
0.0
 11
740.601106
 21
1145.222283
 31
0.0
  0
LINE
  5
2E7
100
AcDbEntity
  8
図
  6
EXLTYPE3
 62
     6
100
AcDbLine
 10
546.101106
 20
460.104698
 30
0.0
 11
546.101106
 21
377.104698
 31
0.0
  0
LINE
  5
2E8
100
AcDbEntity
  8
図
  6
EXLTYPE3
 62
     6
100
AcDbLine
 10
441.101106
 20
402.504698
 30
0.0
 11
441.101106
 21
376.304698
 31
0.0
  0
CIRCLE
  5
2E9
100
AcDbEntity
  8
図
  6
CONTINUOUS
 62
     7
100
AcDbCircle
 10
546.101106
 20
420.104698
 30
0.0
 40
21.0
  0
CIRCLE
  5
2EA
100
AcDbEntity
  8
図
  6
CONTINUOUS
 62
     7
100
AcDbCircle
 10
546.101106
 20
420.104698
 30
0.0
 40
29.0
  0
CIRCLE
  5
2EB
100
AcDbEntity
  8
図
  6
CONTINUOUS
 62
     7
100
AcDbCircle
 10
441.101106
 20
390.104698
 30
0.0
 40
7.0
  0
LINE
  5
2EC
100
AcDbEntity
  8
図
  6
EXLTYPE3
 62
     6
100
AcDbLine
 10
571.101106
 20
560.104698
 30
0.0
 11
571.101106
 21
327.104698
 31
0.0
  0
LINE
  5
2ED
100
AcDbEntity
  8
図
  6
EXLTYPE3
 62
     6
100
AcDbLine
 10
496.101106
 20
420.104698
 30
0.0
 11
758.101106
 21
420.104698
 31
0.0
  0
LINE
  5
2EE
100
AcDbEntity
  8
図
  6
EXLTYPE3
 62
     6
100
AcDbLine
 10
621.101106
 20
399.404698
 30
0.0
 11
621.101106
 21
379.704698
 31
0.0
  0
CIRCLE
  5
2EF
100
AcDbEntity
  8
図
  6
CONTINUOUS
 62
     7
100
AcDbCircle
 10
621.101106
 20
390.104698
 30
0.0
 40
7.0
  0
LINE
  5
2F0
100
AcDbEntity
  8
図
  6
EXLTYPE3
 62
     6
100
AcDbLine
 10
430.901106
 20
390.104698
 30
0.0
 11
632.101106
 21
390.104698
 31
0.0
  0
LINE
  5
2F1
100
AcDbEntity
  8
図
  6
CONTINUOUS
 62
     7
100
AcDbLine
 10
393.601106
 20
345.104698
 30
0.0
 11
746.101106
 21
345.104698
 31
0.0
  0
LINE
  5
2F2
100
AcDbEntity
  8
図
  6
CONTINUOUS
 62
     7
100
AcDbLine
 10
643.099773
 20
345.104698
 30
0.0
 11
748.601106
 21
345.104698
 31
0.0
  0
LINE
  5
2F3
100
AcDbEntity
  8
図
  6
CONTINUOUS
 62
     2
100
AcDbLine
 10
676.735855
 20
475.104698
 30
0.0
 11
688.668257
 21
475.104698
 31
0.0
  0
LINE
  5
2F4
100
AcDbEntity
  8
図
  6
CONTINUOUS
 62
     2
100
AcDbLine
 10
676.735855
 20
380.104698
 30
0.0
 11
688.668257
 21
380.104698
 31
0.0
  0
LINE
  5
2F5
100
AcDbEntity
  8
図
  6
CONTINUOUS
 62
     2
100
AcDbLine
 10
646.735855
 20
445.104698
 30
0.0
 11
646.735855
 21
410.104698
 31
0.0
  0
LINE
  5
2F6
100
AcDbEntity
  8
図
  6
EXLTYPE3
 62
     6
100
AcDbLine
 10
683.101106
 20
443.104698
 30
0.0
 11
683.101106
 21
397.104698
 31
0.0
  0
CIRCLE
  5
2F7
100
AcDbEntity
  8
図
  6
CONTINUOUS
 62
     7
100
AcDbCircle
 10
683.101106
 20
420.104698
 30
0.0
 40
13.0
  0
LINE
  5
2F8
100
AcDbEntity
  8
図
  6
CONTINUOUS
 62
     2
100
AcDbLine
 10
393.601106
 20
516.987114
 30
0.0
 11
401.101106
 21
505.104698
 31
0.0
  0
LINE
  5
2F9
100
AcDbEntity
  8
図
  6
CONTINUOUS
 62
     2
100
AcDbLine
 10
411.101106
 20
515.104698
 30
0.0
 11
412.809649
 21
536.971448
 31
0.0
  0
LINE
  5
2FA
100
AcDbEntity
  8
図
  6
CONTINUOUS
 62
     2
100
AcDbLine
 10
748.601106
 20
516.987114
 30
0.0
 11
741.101106
 21
505.104698
 31
0.0
  0
LINE
  5
2FB
100
AcDbEntity
  8
図
  6
CONTINUOUS
 62
     2
100
AcDbLine
 10
731.101106
 20
515.104698
 30
0.0
 11
729.392563
 21
536.971448
 31
0.0
  0
ARC
  5
2FC
100
AcDbEntity
  8
図
  6
CONTINUOUS
 62
     2
100
AcDbCircle
 10
676.735855
 20
410.104698
 30
0.0
 40
30.0
100
AcDbArc
 50
180.0
 51
270.0
  0
ARC
  5
2FD
100
AcDbEntity
  8
図
  6
CONTINUOUS
 62
     2
100
AcDbCircle
 10
688.668257
 20
410.104698
 30
0.0
 40
30.0
100
AcDbArc
 50
270.0
 51
0.0
  0
LINE
  5
2FE
100
AcDbEntity
  8
図
  6
CONTINUOUS
 62
     2
100
AcDbLine
 10
718.668257
 20
445.104698
 30
0.0
 11
718.668257
 21
410.104698
 31
0.0
  0
ARC
  5
2FF
100
AcDbEntity
  8
図
  6
CONTINUOUS
 62
     2
100
AcDbCircle
 10
688.668257
 20
445.104698
 30
0.0
 40
30.0
100
AcDbArc
 50
0.0
 51
90.0
  0
ARC
  5
300
100
AcDbEntity
  8
図
  6
CONTINUOUS
 62
     2
100
AcDbCircle
 10
676.735855
 20
445.104698
 30
0.0
 40
30.0
100
AcDbArc
 50
90.0
 51
180.0
  0
ARC
  5
301
100
AcDbEntity
  8
図
  6
CONTINUOUS
 62
     2
100
AcDbCircle
 10
621.101073
 20
395.104698
 30
0.0
 40
15.0
100
AcDbArc
 50
90.0
 51
180.0
  0
ARC
  5
302
100
AcDbEntity
  8
図
  6
CONTINUOUS
 62
     2
100
AcDbCircle
 10
621.101073
 20
395.104698
 30
0.0
 40
15.0
100
AcDbArc
 50
0.0
 51
90.0
  0
ARC
  5
303
100
AcDbEntity
  8
図
  6
CONTINUOUS
 62
     2
100
AcDbCircle
 10
621.101073
 20
385.104698
 30
0.0
 40
15.0
100
AcDbArc
 50
180.0
 51
270.0
  0
ARC
  5
304
100
AcDbEntity
  8
図
  6
CONTINUOUS
 62
     2
100
AcDbCircle
 10
621.101073
 20
385.104698
 30
0.0
 40
15.0
100
AcDbArc
 50
270.0
 51
0.0
  0
LINE
  5
305
100
AcDbEntity
  8
図
  6
CONTINUOUS
 62
     2
100
AcDbLine
 10
456.101073
 20
395.104698
 30
0.0
 11
456.101073
 21
385.104698
 31
0.0
  0
ARC
  5
306
100
AcDbEntity
  8
図
  6
CONTINUOUS
 62
     2
100
AcDbCircle
 10
441.101073
 20
385.104698
 30
0.0
 40
15.0
100
AcDbArc
 50
270.0
 51
0.0
  0
ARC
  5
307
100
AcDbEntity
  8
図
  6
CONTINUOUS
 62
     2
100
AcDbCircle
 10
441.101073
 20
395.104698
 30
0.0
 40
15.0
100
AcDbArc
 50
0.0
 51
90.0
  0
ARC
  5
308
100
AcDbEntity
  8
図
  6
CONTINUOUS
 62
     2
100
AcDbCircle
 10
441.101073
 20
395.104698
 30
0.0
 40
15.0
100
AcDbArc
 50
90.0
 51
180.0
  0
LINE
  5
309
100
AcDbEntity
  8
図
  6
CONTINUOUS
 62
     2
100
AcDbLine
 10
426.101073
 20
395.104698
 30
0.0
 11
426.101073
 21
385.104698
 31
0.0
  0
ARC
  5
30A
100
AcDbEntity
  8
図
  6
CONTINUOUS
 62
     2
100
AcDbCircle
 10
441.101073
 20
385.104698
 30
0.0
 40
15.0
100
AcDbArc
 50
180.0
 51
270.0
  0
LINE
  5
30B
100
AcDbEntity
  8
図
  6
CONTINUOUS
 62
     7
100
AcDbLine
 10
393.601106
 20
516.987114
 30
0.0
 11
393.601106
 21
345.104698
 31
0.0
  0
LINE
  5
30C
100
AcDbEntity
  8
図
  6
CONTINUOUS
 62
     7
100
AcDbLine
 10
408.101106
 20
504.104698
 30
0.0
 11
408.101106
 21
345.104698
 31
0.0
  0
LINE
  5
30D
100
AcDbEntity
  8
図
  6
CONTINUOUS
 62
     7
100
AcDbLine
 10
411.101106
 20
507.104698
 30
0.0
 11
731.101106
 21
507.104698
 31
0.0
  0
ARC
  5
30E
100
AcDbEntity
  8
図
  6
CONTINUOUS
 62
     7
100
AcDbCircle
 10
411.101106
 20
505.104698
 30
0.0
 40
10.0
100
AcDbArc
 50
90.0
 51
180.0
  0
ARC
  5
30F
100
AcDbEntity
  8
図
  6
CONTINUOUS
 62
     7
100
AcDbCircle
 10
411.101106
 20
504.104698
 30
0.0
 40
3.0
100
AcDbArc
 50
90.0
 51
180.0
  0
ARC
  5
310
100
AcDbEntity
  8
図
  6
CONTINUOUS
 62
     7
100
AcDbCircle
 10
413.601106
 20
516.987114
 30
0.0
 40
20.0
100
AcDbArc
 50
92.26795
 51
180.0
  0
ARC
  5
311
100
AcDbEntity
  8
図
  6
CONTINUOUS
 62
     7
100
AcDbCircle
 10
571.101106
 20
-3459.895302
 30
0.0
 40
4000.0
100
AcDbArc
 50
87.73205
 51
92.26795
  0
LINE
  5
312
100
AcDbEntity
  8
図
  6
CONTINUOUS
 62
     7
100
AcDbLine
 10
734.101106
 20
504.104698
 30
0.0
 11
734.101106
 21
345.104698
 31
0.0
  0
LINE
  5
313
100
AcDbEntity
  8
図
  6
CONTINUOUS
 62
     7
100
AcDbLine
 10
748.601106
 20
516.987114
 30
0.0
 11
748.601106
 21
345.104698
 31
0.0
  0
ARC
  5
314
100
AcDbEntity
  8
図
  6
CONTINUOUS
 62
     7
100
AcDbCircle
 10
731.101106
 20
505.104698
 30
0.0
 40
10.0
100
AcDbArc
 50
0.0
 51
90.0
  0
ARC
  5
315
100
AcDbEntity
  8
図
  6
CONTINUOUS
 62
     7
100
AcDbCircle
 10
731.101106
 20
504.104698
 30
0.0
 40
3.0
100
AcDbArc
 50
0.0
 51
90.0
  0
ARC
  5
316
100
AcDbEntity
  8
図
  6
CONTINUOUS
 62
     7
100
AcDbCircle
 10
728.601106
 20
516.987114
 30
0.0
 40
20.0
100
AcDbArc
 50
0.0
 51
87.73205
  0
LINE
  5
317
100
AcDbEntity
  8
図
  6
CONTINUOUS
 62
     7
100
AcDbLine
 10
401.101106
 20
505.104698
 30
0.0
 11
401.101106
 21
345.104698
 31
0.0
  0
LINE
  5
318
100
AcDbEntity
  8
図
  6
CONTINUOUS
 62
     7
100
AcDbLine
 10
741.101106
 20
505.104698
 30
0.0
 11
741.101106
 21
345.104698
 31
0.0
  0
LINE
  5
319
100
AcDbEntity
  8
図
  6
CONTINUOUS
 62
     7
100
AcDbLine
 10
411.101106
 20
515.104698
 30
0.0
 11
731.101106
 21
515.104698
 31
0.0
  0
LINE
  5
31A
100
AcDbEntity
  8
図
  6
CONTINUOUS
 62
     6
100
AcDbLine
 10
1653.101106
 20
737.404698
 30
0.0
 11
1653.101106
 21
702.704698
 31
0.0
  0
LINE
  5
31B
100
AcDbEntity
  8
図
  6
CONTINUOUS
 62
     7
100
AcDbLine
 10
1728.101106
 20
888.104698
 30
0.0
 11
1728.101106
 21
708.104698
 31
0.0
  0
ARC
  5
31C
100
AcDbEntity
  8
図
  6
CONTINUOUS
 62
     7
100
AcDbCircle
 10
1720.223802
 20
875.104698
 30
0.0
 40
3.0
100
AcDbArc
 50
90.0
 51
176.0
  0
LINE
  5
31D
100
AcDbEntity
  8
図
  6
CONTINUOUS
 62
     7
100
AcDbLine
 10
1720.223802
 20
878.104698
 30
0.0
 11
1728.101106
 21
878.104698
 31
0.0
  0
LINE
  5
31E
100
AcDbEntity
  8
図
  6
CONTINUOUS
 62
     7
100
AcDbLine
 10
1622.601106
 20
731.104698
 30
0.0
 11
1683.601106
 21
731.104698
 31
0.0
  0
LINE
  5
31F
100
AcDbEntity
  8
図
  6
CONTINUOUS
 62
     7
100
AcDbLine
 10
1711.831167
 20
888.104698
 30
0.0
 11
1728.101106
 21
888.104698
 31
0.0
  0
LINE
  5
320
100
AcDbEntity
  8
図
  6
CONTINUOUS
 62
     7
100
AcDbLine
 10
1632.101106
 20
721.604698
 30
0.0
 11
1622.601106
 21
731.104698
 31
0.0
  0
LINE
  5
321
100
AcDbEntity
  8
図
  6
CONTINUOUS
 62
     7
100
AcDbLine
 10
1674.101106
 20
721.604698
 30
0.0
 11
1683.601106
 21
731.104698
 31
0.0
  0
LINE
  5
322
100
AcDbEntity
  8
図
  6
CONTINUOUS
 62
     7
100
AcDbLine
 10
1705.073605
 20
744.46031
 30
0.0
 11
1710.944745
 21
828.421515
 31
0.0
  0
LINE
  5
323
100
AcDbEntity
  8
図
  6
CONTINUOUS
 62
     7
100
AcDbLine
 10
1717.23111
 20
875.313968
 30
0.0
 11
1714.701581
 21
839.140013
 31
0.0
  0
ARC
  5
324
100
AcDbEntity
  8
図
  6
CONTINUOUS
 62
     7
100
AcDbCircle
 10
1688.115016
 20
745.64617
 30
0.0
 40
10.0
100
AcDbArc
 50
301.700566
 51
356.0
  0
ARC
  5
325
100
AcDbEntity
  8
図
  6
CONTINUOUS
 62
     7
100
AcDbCircle
 10
1711.831167
 20
884.104698
 30
0.0
 40
4.0
100
AcDbArc
 50
90.0
 51
176.0
  0
LINE
  5
326
100
AcDbEntity
  8
図
  6
CONTINUOUS
 62
     7
100
AcDbLine
 10
1632.101106
 20
721.604698
 30
0.0
 11
1632.601106
 21
713.104698
 31
0.0
  0
ARC
  5
327
100
AcDbEntity
  8
図
  6
CONTINUOUS
 62
     7
100
AcDbCircle
 10
1700.175437
 20
832.104698
 30
0.0
 40
4.0
100
AcDbArc
 50
270.0
 51
356.0
  0
LINE
  5
328
100
AcDbEntity
  8
図
  6
CONTINUOUS
 62
     7
100
AcDbLine
 10
1674.101106
 20
721.604698
 30
0.0
 11
1673.601106
 21
713.104698
 31
0.0
  0
LINE
  5
329
100
AcDbEntity
  8
図
  6
CONTINUOUS
 62
     7
100
AcDbLine
 10
1632.101106
 20
721.604698
 30
0.0
 11
1674.101106
 21
721.604698
 31
0.0
  0
ARC
  5
32A
100
AcDbEntity
  8
図
  6
CONTINUOUS
 62
     7
100
AcDbCircle
 10
1688.115016
 20
745.64617
 30
0.0
 40
17.0
100
AcDbArc
 50
315.895757
 51
356.0
  0
ARC
  5
32B
100
AcDbEntity
  8
図
  6
CONTINUOUS
 62
     7
100
AcDbCircle
 10
1593.660093
 20
724.024722
 30
0.0
 40
5.0
100
AcDbArc
 50
73.518058
 51
178.0
  0
ARC
  5
32C
100
AcDbEntity
  8
図
  6
CONTINUOUS
 62
     7
100
AcDbCircle
 10
1724.677221
 20
838.442448
 30
0.0
 40
10.0
100
AcDbArc
 50
176.0
 51
265.0
  0
ARC
  5
32D
100
AcDbEntity
  8
図
  6
CONTINUOUS
 62
     7
100
AcDbCircle
 10
1724.677221
 20
838.442448
 30
0.0
 40
17.0
100
AcDbArc
 50
216.119167
 51
257.856567
  0
LINE
  5
32E
100
AcDbEntity
  8
図
  6
CONTINUOUS
 62
     7
100
AcDbLine
 10
1728.101106
 20
828.104698
 30
0.0
 11
1723.805664
 21
828.480501
 31
0.0
  0
ARC
  5
32F
100
AcDbEntity
  8
図
  6
CONTINUOUS
 62
     2
100
AcDbCircle
 10
1736.101106
 20
787.104698
 30
0.0
 40
10.0
100
AcDbArc
 50
143.130102
 51
180.0
  0
ARC
  5
330
100
AcDbEntity
  8
図
  6
CONTINUOUS
 62
     7
100
AcDbCircle
 10
1625.781573
 20
715.104698
 30
0.0
 40
2.0
100
AcDbArc
 50
189.923789
 51
270.0
  0
ARC
  5
331
100
AcDbEntity
  8
図
  6
CONTINUOUS
 62
     7
100
AcDbCircle
 10
1618.96051
 20
713.532091
 30
0.0
 40
5.0
100
AcDbArc
 50
12.982778
 51
45.0
  0
ARC
  5
332
100
AcDbEntity
  8
図
  6
CONTINUOUS
 62
     7
100
AcDbCircle
 10
1680.420639
 20
715.104698
 30
0.0
 40
2.0
100
AcDbArc
 50
270.0
 51
350.076211
  0
ARC
  5
333
100
AcDbEntity
  8
図
  6
CONTINUOUS
 62
     7
100
AcDbCircle
 10
1687.241702
 20
713.532091
 30
0.0
 40
5.0
100
AcDbArc
 50
135.0
 51
167.017222
  0
LINE
  5
334
100
AcDbEntity
  8
図
  6
CONTINUOUS
 62
     7
100
AcDbLine
 10
1595.078659
 20
728.819268
 30
0.0
 11
1617.327047
 21
722.236622
 31
0.0
  0
LINE
  5
335
100
AcDbEntity
  8
図
  6
CONTINUOUS
 62
     7
100
AcDbLine
 10
1683.601106
 20
731.104698
 30
0.0
 11
1693.369817
 21
737.13811
 31
0.0
  0
LINE
  5
336
100
AcDbEntity
  8
図
  6
CONTINUOUS
 62
     7
100
AcDbLine
 10
1707.84091
 20
884.383724
 30
0.0
 11
1698.090657
 21
744.948605
 31
0.0
  0
LINE
  5
337
100
AcDbEntity
  8
図
  6
CONTINUOUS
 62
     7
100
AcDbLine
 10
1596.533281
 20
738.817404
 30
0.0
 11
1622.601106
 21
731.104698
 31
0.0
  0
LINE
  5
338
100
AcDbEntity
  8
図
  6
CONTINUOUS
 62
     7
100
AcDbLine
 10
1537.101106
 20
828.104698
 30
0.0
 11
1700.175437
 21
828.104698
 31
0.0
  0
ARC
  5
339
100
AcDbEntity
  8
図
  6
CONTINUOUS
 62
     7
100
AcDbCircle
 10
1568.749453
 20
713.104698
 30
0.0
 40
3.0
100
AcDbArc
 50
90.0
 51
172.874984
  0
LINE
  5
33A
100
AcDbEntity
  8
図
  6
CONTINUOUS
 62
     7
100
AcDbLine
 10
1565.772619
 20
713.476803
 30
0.0
 11
1565.320097
 21
709.856629
 31
0.0
  0
ARC
  5
33B
100
AcDbEntity
  8
図
  6
CONTINUOUS
 62
     7
100
AcDbCircle
 10
4477.259218
 20
1399.85315
 30
0.0
 40
3000.0
100
AcDbArc
 50
191.079589
 51
193.255764
  0
ARC
  5
33C
100
AcDbEntity
  8
図
  6
CONTINUOUS
 62
     7
100
AcDbCircle
 10
1537.101106
 20
824.104698
 30
0.0
 40
4.0
100
AcDbArc
 50
28.450091
 51
191.079589
  0
ARC
  5
33D
100
AcDbEntity
  8
図
  6
CONTINUOUS
 62
     7
100
AcDbCircle
 10
2419.850455
 20
1302.403337
 30
0.0
 40
1000.0
100
AcDbArc
 50
208.450091
 51
214.02764
  0
ARC
  5
33E
100
AcDbEntity
  8
図
  6
CONTINUOUS
 62
     7
100
AcDbCircle
 10
4477.259218
 20
1399.85315
 30
0.0
 40
2993.0
100
AcDbArc
 50
191.447513
 51
193.170193
  0
ARC
  5
33F
100
AcDbEntity
  8
図
  6
CONTINUOUS
 62
     7
100
AcDbCircle
 10
2419.850455
 20
1302.403337
 30
0.0
 40
1007.0
100
AcDbArc
 50
209.545829
 51
214.02764
  0
ARC
  5
340
100
AcDbEntity
  8
図
  6
CONTINUOUS
 62
     7
100
AcDbCircle
 10
1599.370412
 20
748.406496
 30
0.0
 40
17.0
100
AcDbArc
 50
214.02764
 51
231.888338
  0
ARC
  5
341
100
AcDbEntity
  8
図
  6
CONTINUOUS
 62
     7
100
AcDbCircle
 10
1599.370412
 20
748.406496
 30
0.0
 40
10.0
100
AcDbArc
 50
214.02764
 51
253.518058
  0
ARC
  5
342
100
AcDbEntity
  8
図
  6
CONTINUOUS
 62
     7
100
AcDbCircle
 10
1571.749453
 20
713.104698
 30
0.0
 40
10.0
100
AcDbArc
 50
90.0
 51
151.247384
  0
ARC
  5
343
100
AcDbEntity
  8
図
  6
CONTINUOUS
 62
     7
100
AcDbCircle
 10
1562.057413
 20
713.104698
 30
0.0
 40
5.0
100
AcDbArc
 50
193.255764
 51
270.0
  0
ARC
  5
344
100
AcDbEntity
  8
図
  6
CONTINUOUS
 62
     7
100
AcDbCircle
 10
1563.335542
 20
710.104698
 30
0.0
 40
2.0
100
AcDbArc
 50
270.0
 51
352.874984
  0
LINE
  5
345
100
AcDbEntity
  8
図
  6
CONTINUOUS
 62
     7
100
AcDbLine
 10
1689.847805
 20
723.209262
 30
0.0
 11
1695.254504
 21
726.548581
 31
0.0
  0
LINE
  5
346
100
AcDbEntity
  8
図
  6
CONTINUOUS
 62
     7
100
AcDbLine
 10
1721.101106
 20
821.822839
 30
0.0
 11
1721.101106
 21
723.104698
 31
0.0
  0
ARC
  5
347
100
AcDbEntity
  8
図
  6
CONTINUOUS
 62
     7
100
AcDbCircle
 10
1697.608436
 20
722.12565
 30
0.0
 40
12.0
100
AcDbArc
 50
4.679814
 51
76.929237
  0
LINE
  5
348
100
AcDbEntity
  8
図
  6
CONTINUOUS
 62
     2
100
AcDbLine
 10
1726.101106
 20
717.104698
 30
0.0
 11
1726.101106
 21
787.104698
 31
0.0
  0
ARC
  5
349
100
AcDbEntity
  8
図
  6
CONTINUOUS
 62
     7
100
AcDbCircle
 10
1697.881904
 20
722.294551
 30
0.0
 40
5.0
100
AcDbArc
 50
2.0
 51
121.700566
  0
ARC
  5
34A
100
AcDbEntity
  8
図
  6
CONTINUOUS
 62
     7
100
AcDbCircle
 10
1707.92955
 20
721.104698
 30
0.0
 40
5.0
100
AcDbArc
 50
182.0
 51
270.0
  0
LINE
  5
34B
100
AcDbEntity
  8
図
  6
CONTINUOUS
 62
     7
100
AcDbLine
 10
1709.56843
 20
723.104698
 30
0.0
 11
1721.101106
 21
723.104698
 31
0.0
  0
ARC
  5
34C
100
AcDbEntity
  8
図
  6
CONTINUOUS
 62
     2
100
AcDbCircle
 10
1725.101106
 20
717.104698
 30
0.0
 40
1.0
100
AcDbArc
 50
270.0
 51
0.0
  0
LINE
  5
34D
100
AcDbEntity
  8
図
  6
CONTINUOUS
 62
     7
100
AcDbLine
 10
1702.932596
 20
720.930201
 30
0.0
 11
1702.878858
 21
722.469049
 31
0.0
  0
LINE
  5
34E
100
AcDbEntity
  8
図
  6
CONTINUOUS
 62
     7
100
AcDbLine
 10
1707.92955
 20
716.104698
 30
0.0
 11
1728.101106
 21
716.104698
 31
0.0
  0
LINE
  5
34F
100
AcDbEntity
  8
図
  6
CONTINUOUS
 62
     7
100
AcDbLine
 10
1689.847805
 20
723.209262
 30
0.0
 11
1683.706169
 21
717.067625
 31
0.0
  0
LINE
  5
350
100
AcDbEntity
  8
図
  6
CONTINUOUS
 62
     7
100
AcDbLine
 10
1625.781573
 20
713.104698
 30
0.0
 11
1680.420639
 21
713.104698
 31
0.0
  0
LINE
  5
351
100
AcDbEntity
  8
図
  6
CONTINUOUS
 62
     7
100
AcDbLine
 10
1617.327047
 20
722.236622
 30
0.0
 11
1622.496044
 21
717.067625
 31
0.0
  0
LINE
  5
352
100
AcDbEntity
  8
図
  6
CONTINUOUS
 62
     7
100
AcDbLine
 10
1562.057413
 20
708.104698
 30
0.0
 11
1728.101106
 21
708.104698
 31
0.0
  0
LINE
  5
353
100
AcDbEntity
  8
図
  6
CONTINUOUS
 62
     7
100
AcDbLine
 10
1287.0
 20
888.104698
 30
0.0
 11
1287.0
 21
708.104698
 31
0.0
  0
LINE
  5
354
100
AcDbEntity
  8
図
  6
CONTINUOUS
 62
     7
100
AcDbLine
 10
1270.73006
 20
888.104698
 30
0.0
 11
1287.0
 21
888.104698
 31
0.0
  0
ARC
  5
355
100
AcDbEntity
  8
図
  6
CONTINUOUS
 62
     7
100
AcDbCircle
 10
1270.73006
 20
884.104698
 30
0.0
 40
4.0
100
AcDbArc
 50
90.0
 51
176.0
  0
ARC
  5
356
100
AcDbEntity
  8
図
  6
CONTINUOUS
 62
     7
100
AcDbCircle
 10
1259.074331
 20
832.104698
 30
0.0
 40
4.0
100
AcDbArc
 50
270.0
 51
356.0
  0
LINE
  5
357
100
AcDbEntity
  8
図
  6
CONTINUOUS
 62
     7
100
AcDbLine
 10
1266.739804
 20
884.383724
 30
0.0
 11
1263.064587
 21
831.825673
 31
0.0
  0
LINE
  5
358
100
AcDbEntity
  8
図
  6
CONTINUOUS
 62
     7
100
AcDbLine
 10
1096.0
 20
828.104698
 30
0.0
 11
1259.074331
 21
828.104698
 31
0.0
  0
ARC
  5
359
100
AcDbEntity
  8
図
  6
CONTINUOUS
 62
     7
100
AcDbCircle
 10
1120.956306
 20
713.104698
 30
0.0
 40
5.0
100
AcDbArc
 50
193.255764
 51
270.0
  0
ARC
  5
35A
100
AcDbEntity
  8
図
  6
CONTINUOUS
 62
     7
100
AcDbCircle
 10
1096.0
 20
824.104698
 30
0.0
 40
4.0
100
AcDbArc
 50
90.0
 51
191.079589
  0
LINE
  5
35B
100
AcDbEntity
  8
図
  6
EXLTYPE3
 62
     6
100
AcDbLine
 10
546.101106
 20
749.104698
 30
0.0
 11
546.101106
 21
686.104698
 31
0.0
  0
LINE
  5
35C
100
AcDbEntity
  8
図
  6
CONTINUOUS
 62
     7
100
AcDbLine
 10
722.0
 20
719.0
 30
0.0
 11
718.766256
 21
811.602308
 31
0.0
  0
LINE
  5
35D
100
AcDbEntity
  8
図
  6
CONTINUOUS
 62
     7
100
AcDbLine
 10
393.609459
 20
823.84633
 30
0.0
 11
400.798374
 21
712.781738
 31
0.0
  0
LINE
  5
35E
100
AcDbEntity
  8
図
  6
CONTINUOUS
 62
     7
100
AcDbLine
 10
401.305508
 20
813.319082
 30
0.0
 11
407.215207
 21
722.017645
 31
0.0
  0
ARC
  5
35F
100
AcDbEntity
  8
図
  6
CONTINUOUS
 62
     7
100
AcDbCircle
 10
1230.994962
 20
1383.989223
 30
0.0
 40
1007.0
100
AcDbArc
 50
214.52065
 51
219.892848
  0
ARC
  5
360
100
AcDbEntity
  8
図
  6
CONTINUOUS
 62
     7
100
AcDbCircle
 10
1230.994962
 20
1383.989223
 30
0.0
 40
1000.0
100
AcDbArc
 50
213.893705
 51
219.892848
  0
ARC
  5
361
100
AcDbEntity
  8
図
  6
CONTINUOUS
 62
     7
100
AcDbCircle
 10
397.601106
 20
824.104698
 30
0.0
 40
4.0
100
AcDbArc
 50
33.893705
 51
183.703437
  0
ARC
  5
362
100
AcDbEntity
  8
図
  6
CONTINUOUS
 62
     7
100
AcDbCircle
 10
-251.845264
 20
1269.914909
 30
0.0
 40
1007.0
100
AcDbArc
 50
328.164855
 51
332.250645
  0
ARC
  5
363
100
AcDbEntity
  8
図
  6
CONTINUOUS
 62
     7
100
AcDbCircle
 10
-251.845264
 20
1269.914909
 30
0.0
 40
1000.0
100
AcDbArc
 50
328.164855
 51
333.237861
  0
ARC
  5
364
100
AcDbEntity
  8
図
  6
CONTINUOUS
 62
     7
100
AcDbCircle
 10
644.60983
 20
817.82613
 30
0.0
 40
4.0
100
AcDbArc
 50
92.0
 51
153.237861
  0
LINE
  5
365
100
AcDbEntity
  8
図
  6
CONTINUOUS
 62
     7
100
AcDbLine
 10
738.495706
 20
825.107135
 30
0.0
 11
644.470232
 21
821.823693
 31
0.0
  0
ARC
  5
366
100
AcDbEntity
  8
図
  6
CONTINUOUS
 62
     7
100
AcDbCircle
 10
649.626097
 20
808.995816
 30
0.0
 40
3.0
100
AcDbArc
 50
92.0
 51
178.0
  0
LINE
  5
367
100
AcDbEntity
  8
図
  6
CONTINUOUS
 62
     7
100
AcDbLine
 10
670.109025
 20
822.71902
 30
0.0
 11
670.45802
 21
812.725111
 31
0.0
  0
LINE
  5
368
100
AcDbEntity
  8
図
  6
CONTINUOUS
 62
     7
100
AcDbLine
 10
696.093187
 20
823.626407
 30
0.0
 11
696.442182
 21
813.632498
 31
0.0
  0
ARC
  5
369
100
AcDbEntity
  8
図
  6
CONTINUOUS
 62
     7
100
AcDbCircle
 10
715.774783
 20
811.305779
 30
0.0
 40
3.0
100
AcDbArc
 50
2.0
 51
92.0
  0
ARC
  5
36A
100
AcDbEntity
  8
図
  6
CONTINUOUS
 62
     7
100
AcDbCircle
 10
715.774783
 20
811.305779
 30
0.0
 40
10.0
100
AcDbArc
 50
2.0
 51
38.869898
  0
LINE
  5
36B
100
AcDbEntity
  8
図
  6
CONTINUOUS
 62
     7
100
AcDbLine
 10
723.560512
 20
817.58132
 30
0.0
 11
738.740003
 21
818.111399
 31
0.0
  0
ARC
  5
36C
100
AcDbEntity
  8
図
  6
CONTINUOUS
 62
     7
100
AcDbCircle
 10
738.356108
 20
829.104698
 30
0.0
 40
11.0
100
AcDbArc
 50
270.0
 51
285.151568
  0
LINE
  5
36D
100
AcDbEntity
  8
図
  6
CONTINUOUS
 62
     7
100
AcDbLine
 10
735.0067
 20
722.321912
 30
0.0
 11
741.231215
 21
818.487083
 31
0.0
  0
LINE
  5
36E
100
AcDbEntity
  8
図
  6
CONTINUOUS
 62
     7
100
AcDbLine
 10
725.768691
 20
811.654774
 30
0.0
 11
728.861465
 21
723.089319
 31
0.0
  0
LINE
  5
36F
100
AcDbEntity
  8
図
  6
CONTINUOUS
 62
     7
100
AcDbLine
 10
748.592753
 20
823.84633
 30
0.0
 11
741.403838
 21
712.781738
 31
0.0
  0
ARC
  5
370
100
AcDbEntity
  8
図
  6
CONTINUOUS
 62
     7
100
AcDbCircle
 10
738.356108
 20
829.104698
 30
0.0
 40
4.0
100
AcDbArc
 50
270.0
 51
321.317813
  0
ARC
  5
371
100
AcDbEntity
  8
図
  6
CONTINUOUS
 62
     7
100
AcDbCircle
 10
744.601106
 20
824.104698
 30
0.0
 40
4.0
100
AcDbArc
 50
356.296563
 51
141.317813
  0
LINE
  5
372
100
AcDbEntity
  8
図
  6
CONTINUOUS
 62
     7
100
AcDbLine
 10
649.521399
 20
811.993988
 30
0.0
 11
715.670084
 21
814.303951
 31
0.0
  0
LINE
  5
373
100
AcDbEntity
  8
図
  6
CONTINUOUS
 62
     7
100
AcDbLine
 10
639.342567
 20
801.051123
 30
0.0
 11
636.620618
 21
723.104698
 31
0.0
  0
ARC
  5
374
100
AcDbEntity
  8
図
  6
CONTINUOUS
 62
     2
100
AcDbCircle
 10
646.101073
 20
373.104698
 30
0.0
 40
3.0
100
AcDbArc
 50
180.0
 51
270.0
  0
LINE
  5
375
100
AcDbEntity
  8
図
  6
CONTINUOUS
 62
     2
100
AcDbLine
 10
643.101073
 20
465.104698
 30
0.0
 11
643.101073
 21
412.104698
 31
0.0
  0
LINE
  5
376
100
AcDbEntity
  8
図
  6
CONTINUOUS
 62
     2
100
AcDbLine
 10
719.101106
 20
370.104698
 30
0.0
 11
646.101073
 21
370.104698
 31
0.0
  0
ARC
  5
377
100
AcDbEntity
  8
図
  6
CONTINUOUS
 62
     2
100
AcDbCircle
 10
719.101106
 20
373.104698
 30
0.0
 40
3.0
100
AcDbArc
 50
270.0
 51
0.0
  0
LINE
  5
378
100
AcDbEntity
  8
図
  6
CONTINUOUS
 62
     2
100
AcDbLine
 10
722.101106
 20
482.104698
 30
0.0
 11
722.101106
 21
373.104698
 31
0.0
  0
ARC
  5
379
100
AcDbEntity
  8
図
  6
CONTINUOUS
 62
     2
100
AcDbCircle
 10
719.101106
 20
482.104698
 30
0.0
 40
3.0
100
AcDbArc
 50
0.0
 51
90.0
  0
LINE
  5
37A
100
AcDbEntity
  8
図
  6
CONTINUOUS
 62
     2
100
AcDbLine
 10
719.101106
 20
485.104698
 30
0.0
 11
646.101073
 21
485.104698
 31
0.0
  0
ARC
  5
37B
100
AcDbEntity
  8
図
  6
CONTINUOUS
 62
     2
100
AcDbCircle
 10
646.101073
 20
482.104698
 30
0.0
 40
3.0
100
AcDbArc
 50
90.0
 51
180.0
  0
LINE
  5
37C
100
AcDbEntity
  8
図
  6
CONTINUOUS
 62
     2
100
AcDbLine
 10
457.101106
 20
412.104698
 30
0.0
 11
457.101106
 21
348.104698
 31
0.0
  0
ARC
  5
37D
100
AcDbEntity
  8
図
  6
CONTINUOUS
 62
     2
100
AcDbCircle
 10
461.101106
 20
412.104698
 30
0.0
 40
3.0
100
AcDbArc
 50
0.0
 51
90.0
  0
LINE
  5
37E
100
AcDbEntity
  8
図
  6
CONTINUOUS
 62
     2
100
AcDbLine
 10
460.101106
 20
415.104698
 30
0.0
 11
461.101106
 21
415.104698
 31
0.0
  0
ARC
  5
37F
100
AcDbEntity
  8
図
  6
CONTINUOUS
 62
     2
100
AcDbCircle
 10
460.101106
 20
412.104698
 30
0.0
 40
3.0
100
AcDbArc
 50
90.0
 51
180.0
  0
ARC
  5
380
100
AcDbEntity
  8
図
  6
CONTINUOUS
 62
     2
100
AcDbCircle
 10
461.101106
 20
348.104698
 30
0.0
 40
3.0
100
AcDbArc
 50
270.0
 51
0.0
  0
ARC
  5
381
100
AcDbEntity
  8
図
  6
CONTINUOUS
 62
     2
100
AcDbCircle
 10
460.101106
 20
348.104698
 30
0.0
 40
3.0
100
AcDbArc
 50
180.0
 51
270.0
  0
LINE
  5
382
100
AcDbEntity
  8
図
  6
CONTINUOUS
 62
     2
100
AcDbLine
 10
464.101106
 20
465.104698
 30
0.0
 11
464.101106
 21
348.104698
 31
0.0
  0
ARC
  5
383
100
AcDbEntity
  8
図
  6
CONTINUOUS
 62
     2
100
AcDbCircle
 10
467.101106
 20
482.104698
 30
0.0
 40
10.0
100
AcDbArc
 50
90.0
 51
180.0
  0
LINE
  5
384
100
AcDbEntity
  8
図
  6
CONTINUOUS
 62
     2
100
AcDbLine
 10
474.101106
 20
492.104698
 30
0.0
 11
467.101106
 21
492.104698
 31
0.0
  0
LINE
  5
385
100
AcDbEntity
  8
図
  6
CONTINUOUS
 62
     2
100
AcDbLine
 10
457.101106
 20
482.104698
 30
0.0
 11
457.101106
 21
465.104698
 31
0.0
  0
ARC
  5
386
100
AcDbEntity
  8
図
  6
CONTINUOUS
 62
     2
100
AcDbCircle
 10
460.101106
 20
465.104698
 30
0.0
 40
3.0
100
AcDbArc
 50
180.0
 51
270.0
  0
LINE
  5
387
100
AcDbEntity
  8
図
  6
CONTINUOUS
 62
     2
100
AcDbLine
 10
460.101106
 20
462.104698
 30
0.0
 11
461.101106
 21
462.104698
 31
0.0
  0
ARC
  5
388
100
AcDbEntity
  8
図
  6
CONTINUOUS
 62
     2
100
AcDbCircle
 10
461.101106
 20
465.104698
 30
0.0
 40
3.0
100
AcDbArc
 50
270.0
 51
0.0
  0
ARC
  5
389
100
AcDbEntity
  8
図
  6
CONTINUOUS
 62
     2
100
AcDbCircle
 10
474.101106
 20
489.104698
 30
0.0
 40
3.0
100
AcDbArc
 50
0.0
 51
90.0
  0
LINE
  5
38A
100
AcDbEntity
  8
図
  6
CONTINUOUS
 62
     2
100
AcDbLine
 10
477.101106
 20
489.104698
 30
0.0
 11
477.101106
 21
488.104698
 31
0.0
  0
ARC
  5
38B
100
AcDbEntity
  8
図
  6
CONTINUOUS
 62
     2
100
AcDbCircle
 10
474.101106
 20
488.104698
 30
0.0
 40
3.0
100
AcDbArc
 50
270.0
 51
0.0
  0
ARC
  5
38C
100
AcDbEntity
  8
図
  6
CONTINUOUS
 62
     2
100
AcDbCircle
 10
467.101106
 20
482.104698
 30
0.0
 40
3.0
100
AcDbArc
 50
90.0
 51
180.0
  0
LINE
  5
38D
100
AcDbEntity
  8
図
  6
CONTINUOUS
 62
     2
100
AcDbLine
 10
464.101106
 20
482.104698
 30
0.0
 11
464.101106
 21
465.104698
 31
0.0
  0
LINE
  5
38E
100
AcDbEntity
  8
図
  6
CONTINUOUS
 62
     2
100
AcDbLine
 10
596.101073
 20
485.104698
 30
0.0
 11
467.101106
 21
485.104698
 31
0.0
  0
ARC
  5
38F
100
AcDbEntity
  8
図
  6
CONTINUOUS
 62
     2
100
AcDbCircle
 10
596.101073
 20
482.104698
 30
0.0
 40
3.0
100
AcDbArc
 50
0.0
 51
90.0
  0
LINE
  5
390
100
AcDbEntity
  8
図
  6
CONTINUOUS
 62
     2
100
AcDbLine
 10
599.101073
 20
482.104698
 30
0.0
 11
599.101073
 21
348.104698
 31
0.0
  0
ARC
  5
391
100
AcDbEntity
  8
図
  6
CONTINUOUS
 62
     2
100
AcDbCircle
 10
603.101073
 20
412.104698
 30
0.0
 40
3.0
100
AcDbArc
 50
0.0
 51
90.0
  0
LINE
  5
392
100
AcDbEntity
  8
図
  6
CONTINUOUS
 62
     2
100
AcDbLine
 10
602.101073
 20
415.104698
 30
0.0
 11
603.101073
 21
415.104698
 31
0.0
  0
ARC
  5
393
100
AcDbEntity
  8
図
  6
CONTINUOUS
 62
     2
100
AcDbCircle
 10
602.101073
 20
412.104698
 30
0.0
 40
3.0
100
AcDbArc
 50
90.0
 51
180.0
  0
LINE
  5
394
100
AcDbEntity
  8
図
  6
CONTINUOUS
 62
     2
100
AcDbLine
 10
606.101073
 20
412.104698
 30
0.0
 11
606.101073
 21
348.104698
 31
0.0
  0
ARC
  5
395
100
AcDbEntity
  8
図
  6
CONTINUOUS
 62
     2
100
AcDbCircle
 10
602.101073
 20
348.104698
 30
0.0
 40
3.0
100
AcDbArc
 50
180.0
 51
270.0
  0
ARC
  5
396
100
AcDbEntity
  8
図
  6
CONTINUOUS
 62
     2
100
AcDbCircle
 10
603.101073
 20
348.104698
 30
0.0
 40
3.0
100
AcDbArc
 50
270.0
 51
0.0
  0
ARC
  5
397
100
AcDbEntity
  8
図
  6
CONTINUOUS
 62
     2
100
AcDbCircle
 10
633.101073
 20
482.104698
 30
0.0
 40
3.0
100
AcDbArc
 50
0.0
 51
90.0
  0
ARC
  5
398
100
AcDbEntity
  8
図
  6
CONTINUOUS
 62
     2
100
AcDbCircle
 10
633.101073
 20
482.104698
 30
0.0
 40
10.0
100
AcDbArc
 50
0.0
 51
90.0
  0
LINE
  5
399
100
AcDbEntity
  8
図
  6
CONTINUOUS
 62
     2
100
AcDbLine
 10
633.101073
 20
492.104698
 30
0.0
 11
626.101073
 21
492.104698
 31
0.0
  0
ARC
  5
39A
100
AcDbEntity
  8
図
  6
CONTINUOUS
 62
     2
100
AcDbCircle
 10
626.101073
 20
489.104698
 30
0.0
 40
3.0
100
AcDbArc
 50
90.0
 51
180.0
  0
LINE
  5
39B
100
AcDbEntity
  8
図
  6
CONTINUOUS
 62
     2
100
AcDbLine
 10
623.101073
 20
489.104698
 30
0.0
 11
623.101073
 21
488.104698
 31
0.0
  0
LINE
  5
39C
100
AcDbEntity
  8
図
  6
CONTINUOUS
 62
     2
100
AcDbLine
 10
633.101073
 20
485.104698
 30
0.0
 11
626.101073
 21
485.104698
 31
0.0
  0
ARC
  5
39D
100
AcDbEntity
  8
図
  6
CONTINUOUS
 62
     2
100
AcDbCircle
 10
626.101073
 20
488.104698
 30
0.0
 40
3.0
100
AcDbArc
 50
180.0
 51
270.0
  0
LINE
  5
39E
100
AcDbEntity
  8
図
  6
CONTINUOUS
 62
     2
100
AcDbLine
 10
636.101073
 20
482.104698
 30
0.0
 11
636.101073
 21
465.104698
 31
0.0
  0
ARC
  5
39F
100
AcDbEntity
  8
図
  6
CONTINUOUS
 62
     2
100
AcDbCircle
 10
639.101073
 20
465.104698
 30
0.0
 40
3.0
100
AcDbArc
 50
180.0
 51
270.0
  0
LINE
  5
3A0
100
AcDbEntity
  8
図
  6
CONTINUOUS
 62
     2
100
AcDbLine
 10
639.101073
 20
462.104698
 30
0.0
 11
640.101073
 21
462.104698
 31
0.0
  0
LINE
  5
3A1
100
AcDbEntity
  8
図
  6
CONTINUOUS
 62
     2
100
AcDbLine
 10
643.101073
 20
482.104698
 30
0.0
 11
643.101073
 21
465.104698
 31
0.0
  0
ARC
  5
3A2
100
AcDbEntity
  8
図
  6
CONTINUOUS
 62
     2
100
AcDbCircle
 10
640.101073
 20
465.104698
 30
0.0
 40
3.0
100
AcDbArc
 50
270.0
 51
0.0
  0
LINE
  5
3A3
100
AcDbEntity
  8
図
  6
CONTINUOUS
 62
     2
100
AcDbLine
 10
636.101073
 20
412.104698
 30
0.0
 11
636.101073
 21
348.104698
 31
0.0
  0
LINE
  5
3A4
100
AcDbEntity
  8
図
  6
CONTINUOUS
 62
     2
100
AcDbLine
 10
643.101073
 20
412.104698
 30
0.0
 11
643.101073
 21
348.104698
 31
0.0
  0
ARC
  5
3A5
100
AcDbEntity
  8
図
  6
CONTINUOUS
 62
     2
100
AcDbCircle
 10
640.101073
 20
412.104698
 30
0.0
 40
3.0
100
AcDbArc
 50
0.0
 51
90.0
  0
LINE
  5
3A6
100
AcDbEntity
  8
図
  6
CONTINUOUS
 62
     2
100
AcDbLine
 10
639.101073
 20
415.104698
 30
0.0
 11
640.101073
 21
415.104698
 31
0.0
  0
ARC
  5
3A7
100
AcDbEntity
  8
図
  6
CONTINUOUS
 62
     2
100
AcDbCircle
 10
639.101073
 20
412.104698
 30
0.0
 40
3.0
100
AcDbArc
 50
90.0
 51
180.0
  0
ARC
  5
3A8
100
AcDbEntity
  8
図
  6
CONTINUOUS
 62
     2
100
AcDbCircle
 10
639.101073
 20
348.104698
 30
0.0
 40
3.0
100
AcDbArc
 50
180.0
 51
270.0
  0
ARC
  5
3A9
100
AcDbEntity
  8
図
  6
CONTINUOUS
 62
     2
100
AcDbCircle
 10
640.101073
 20
348.104698
 30
0.0
 40
3.0
100
AcDbArc
 50
270.0
 51
0.0
  0
LINE
  5
3AA
100
AcDbEntity
  8
図
  6
EXLTYPE3
 62
     6
100
AcDbLine
 10
571.101106
 20
1328.877018
 30
0.0
 11
571.101106
 21
1072.704698
 31
0.0
  0
ARC
  5
3AB
100
AcDbEntity
  8
図
  6
CONTINUOUS
 62
     7
100
AcDbCircle
 10
4036.158112
 20
1399.85315
 30
0.0
 40
3000.0
100
AcDbArc
 50
191.079589
 51
193.255764
  0
LINE
  5
3AC
100
AcDbEntity
  8
図
  6
CONTINUOUS
 62
     7
100
AcDbLine
 10
1120.956306
 20
708.104698
 30
0.0
 11
1287.0
 21
708.104698
 31
0.0
  0
LINE
  5
3AD
100
AcDbEntity
  8
図
  6
EXLTYPE3
 62
     6
100
AcDbLine
 10
466.101106
 20
1242.104698
 30
0.0
 11
757.101106
 21
1242.104698
 31
0.0
  0
LINE
  5
3AE
100
AcDbEntity
  8
図
  6
CONTINUOUS
 62
     7
100
AcDbLine
 10
466.101106
 20
1242.104698
 30
0.0
 11
466.101106
 21
1247.104698
 31
0.0
  0
LINE
  5
3AF
100
AcDbEntity
  8
図
  6
EXLTYPE3
 62
     6
100
AcDbLine
 10
466.101106
 20
1267.104698
 30
0.0
 11
466.101106
 21
1242.104698
 31
0.0
  0
LINE
  5
3B0
100
AcDbEntity
  8
図
  6
EXLTYPE3
 62
     6
100
AcDbLine
 10
466.101106
 20
1272.104698
 30
0.0
 11
345.8
 21
1272.104698
 31
0.0
  0
LINE
  5
3B1
100
AcDbEntity
  8
図
  6
CONTINUOUS
 62
     7
100
AcDbLine
 10
1571.749453
 20
723.104698
 30
0.0
 11
1581.695414
 21
723.104698
 31
0.0
  0
ARC
  5
3B2
100
AcDbEntity
  8
図
  6
CONTINUOUS
 62
     7
100
AcDbCircle
 10
1593.660093
 20
724.024722
 30
0.0
 40
12.0
100
AcDbArc
 50
113.484511
 51
184.397104
  0
LINE
  5
3B3
100
AcDbEntity
  8
図
  6
CONTINUOUS
 62
     7
100
AcDbLine
 10
1568.749453
 20
716.104698
 30
0.0
 11
1585.483406
 21
716.104698
 31
0.0
  0
LINE
  5
3B4
100
AcDbEntity
  8
図
  6
CONTINUOUS
 62
     7
100
AcDbLine
 10
1588.481578
 20
719.0
 30
0.0
 11
1588.663139
 21
724.19922
 31
0.0
  0
ARC
  5
3B5
100
AcDbEntity
  8
図
  6
CONTINUOUS
 62
     7
100
AcDbCircle
 10
1585.483406
 20
719.104698
 30
0.0
 40
3.0
100
AcDbArc
 50
270.0
 51
358.0
  0
ARC
  5
3B6
100
AcDbEntity
  8
図
  6
CONTINUOUS
 62
     2
100
AcDbCircle
 10
1577.45276
 20
713.104698
 30
0.0
 40
3.0
100
AcDbArc
 50
7.125016
 51
90.0
  0
LINE
  5
3B7
100
AcDbEntity
  8
図
  6
CONTINUOUS
 62
     2
100
AcDbLine
 10
1580.429593
 20
713.476803
 30
0.0
 11
1580.772619
 21
710.732594
 31
0.0
  0
ARC
  5
3B8
100
AcDbEntity
  8
図
  6
CONTINUOUS
 62
     2
100
AcDbCircle
 10
1583.749453
 20
711.104698
 30
0.0
 40
3.0
100
AcDbArc
 50
187.125016
 51
270.0
  0
ARC
  5
3B9
100
AcDbEntity
  8
図
  6
CONTINUOUS
 62
     2
100
AcDbCircle
 10
1585.20404
 20
711.104698
 30
0.0
 40
3.0
100
AcDbArc
 50
270.0
 51
358.0
  0
LINE
  5
3BA
100
AcDbEntity
  8
図
  6
CONTINUOUS
 62
     2
100
AcDbLine
 10
1588.202212
 20
711.0
 30
0.0
 11
1588.279366
 21
713.209397
 31
0.0
  0
ARC
  5
3BB
100
AcDbEntity
  8
図
  6
CONTINUOUS
 62
     2
100
AcDbCircle
 10
1591.277539
 20
713.104698
 30
0.0
 40
3.0
100
AcDbArc
 50
90.0
 51
178.0
  0
LINE
  5
3BC
100
AcDbEntity
  8
図
  6
CONTINUOUS
 62
     2
100
AcDbLine
 10
1591.277539
 20
716.104698
 30
0.0
 11
1623.247897
 21
716.104698
 31
0.0
  0
ARC
  5
3BD
100
AcDbEntity
  8
図
  6
CONTINUOUS
 62
     2
100
AcDbCircle
 10
1608.45276
 20
711.104698
 30
0.0
 40
3.0
100
AcDbArc
 50
270.0
 51
352.874984
  0
ARC
  5
3BE
100
AcDbEntity
  8
図
  6
CONTINUOUS
 62
     2
100
AcDbCircle
 10
1614.749453
 20
713.104698
 30
0.0
 40
3.0
100
AcDbArc
 50
90.0
 51
172.874984
  0
LINE
  5
3BF
100
AcDbEntity
  8
図
  6
CONTINUOUS
 62
     2
100
AcDbLine
 10
1611.772619
 20
713.476803
 30
0.0
 11
1611.429593
 21
710.732594
 31
0.0
  0
LINE
  5
3C0
100
AcDbEntity
  8
図
  6
CONTINUOUS
 62
     2
100
AcDbLine
 10
1657.476106
 20
713.104698
 30
0.0
 11
1657.772619
 21
710.732594
 31
0.0
  0
ARC
  5
3C1
100
AcDbEntity
  8
図
  6
CONTINUOUS
 62
     2
100
AcDbCircle
 10
1660.749453
 20
711.104698
 30
0.0
 40
3.0
100
AcDbArc
 50
187.125016
 51
270.0
  0
LINE
  5
3C2
100
AcDbEntity
  8
図
  6
CONTINUOUS
 62
     2
100
AcDbLine
 10
1682.954315
 20
716.104698
 30
0.0
 11
1707.92955
 21
716.104698
 31
0.0
  0
LINE
  5
3C3
100
AcDbEntity
  8
図
  6
EXLTYPE3
 62
     6
100
AcDbLine
 10
546.101106
 20
749.104698
 30
0.0
 11
546.101106
 21
686.104698
 31
0.0
  0
LINE
  5
3C4
100
AcDbEntity
  8
図
  6
CONTINUOUS
 62
     7
100
AcDbLine
 10
515.601106
 20
731.104698
 30
0.0
 11
576.601106
 21
731.104698
 31
0.0
  0
LINE
  5
3C5
100
AcDbEntity
  8
図
  6
EXLTYPE3
 62
     6
100
AcDbLine
 10
621.101106
 20
732.004698
 30
0.0
 11
621.101106
 21
692.604698
 31
0.0
  0
LINE
  5
3C6
100
AcDbEntity
  8
図
  6
EXLTYPE3
 62
     6
100
AcDbLine
 10
441.101106
 20
695.104698
 30
0.0
 11
441.101106
 21
736.104698
 31
0.0
  0
LINE
  5
3C7
100
AcDbEntity
  8
図
  6
CONTINUOUS
 62
     7
100
AcDbLine
 10
525.101106
 20
721.604698
 30
0.0
 11
515.601106
 21
731.104698
 31
0.0
  0
LINE
  5
3C8
100
AcDbEntity
  8
図
  6
CONTINUOUS
 62
     7
100
AcDbLine
 10
567.101106
 20
721.604698
 30
0.0
 11
576.601106
 21
731.104698
 31
0.0
  0
LINE
  5
3C9
100
AcDbEntity
  8
図
  6
CONTINUOUS
 62
     7
100
AcDbLine
 10
525.101106
 20
721.604698
 30
0.0
 11
567.101106
 21
721.604698
 31
0.0
  0
LINE
  5
3CA
100
AcDbEntity
  8
図
  6
CONTINUOUS
 62
     7
100
AcDbLine
 10
525.101106
 20
721.604698
 30
0.0
 11
525.601106
 21
713.104698
 31
0.0
  0
LINE
  5
3CB
100
AcDbEntity
  8
図
  6
CONTINUOUS
 62
     7
100
AcDbLine
 10
567.101106
 20
721.604698
 30
0.0
 11
566.601106
 21
713.104698
 31
0.0
  0
ARC
  5
3CC
100
AcDbEntity
  8
図
  6
CONTINUOUS
 62
     7
100
AcDbCircle
 10
573.420639
 20
715.104698
 30
0.0
 40
2.0
100
AcDbArc
 50
270.0
 51
350.076211
  0
ARC
  5
3CD
100
AcDbEntity
  8
図
  6
CONTINUOUS
 62
     7
100
AcDbCircle
 10
580.241702
 20
713.532091
 30
0.0
 40
5.0
100
AcDbArc
 50
135.0
 51
167.017222
  0
ARC
  5
3CE
100
AcDbEntity
  8
図
  6
CONTINUOUS
 62
     7
100
AcDbCircle
 10
511.96051
 20
713.532091
 30
0.0
 40
5.0
100
AcDbArc
 50
12.982778
 51
45.0
  0
LINE
  5
3CF
100
AcDbEntity
  8
図
  6
CONTINUOUS
 62
     7
100
AcDbLine
 10
510.759537
 20
721.804132
 30
0.0
 11
515.496044
 21
717.067625
 31
0.0
  0
LINE
  5
3D0
100
AcDbEntity
  8
図
  6
CONTINUOUS
 62
     7
100
AcDbLine
 10
518.781573
 20
713.104698
 30
0.0
 11
573.420639
 21
713.104698
 31
0.0
  0
ARC
  5
3D1
100
AcDbEntity
  8
図
  6
CONTINUOUS
 62
     7
100
AcDbCircle
 10
593.602989
 20
722.280689
 30
0.0
 40
5.0
100
AcDbArc
 50
2.0
 51
114.113254
  0
LINE
  5
3D2
100
AcDbEntity
  8
図
  6
CONTINUOUS
 62
     7
100
AcDbLine
 10
598.718277
 20
719.066553
 30
0.0
 11
598.599943
 21
722.455187
 31
0.0
  0
LINE
  5
3D3
100
AcDbEntity
  8
図
  6
CONTINUOUS
 62
     7
100
AcDbLine
 10
582.368856
 20
722.730313
 30
0.0
 11
591.560281
 21
726.844388
 31
0.0
  0
ARC
  5
3D4
100
AcDbEntity
  8
図
  6
CONTINUOUS
 62
     7
100
AcDbCircle
 10
469.658331
 20
723.97425
 30
0.0
 40
5.0
100
AcDbArc
 50
80.0
 51
178.0
  0
LINE
  5
3D5
100
AcDbEntity
  8
図
  6
CONTINUOUS
 62
     7
100
AcDbLine
 10
510.759537
 20
721.804132
 30
0.0
 11
470.526572
 21
728.898289
 31
0.0
  0
ARC
  5
3D6
100
AcDbEntity
  8
図
  6
CONTINUOUS
 62
     7
100
AcDbCircle
 10
469.658331
 20
723.97425
 30
0.0
 40
12.0
100
AcDbArc
 50
121.898058
 51
178.0
  0
LINE
  5
3D7
100
AcDbEntity
  8
図
  6
CONTINUOUS
 62
     7
100
AcDbLine
 10
515.601106
 20
731.104698
 30
0.0
 11
469.685716
 21
739.200821
 31
0.0
  0
LINE
  5
3D8
100
AcDbEntity
  8
図
  6
CONTINUOUS
 62
     7
100
AcDbLine
 10
464.202212
 20
711.0
 30
0.0
 11
464.661377
 21
724.148748
 31
0.0
  0
LINE
  5
3D9
100
AcDbEntity
  8
図
  6
CONTINUOUS
 62
     7
100
AcDbLine
 10
576.601106
 20
731.104698
 30
0.0
 11
593.313764
 21
738.585272
 31
0.0
  0
ARC
  5
3DA
100
AcDbEntity
  8
図
  6
CONTINUOUS
 62
     7
100
AcDbCircle
 10
724.998172
 20
719.104698
 30
0.0
 40
3.0
100
AcDbArc
 50
182.0
 51
270.0
  0
ARC
  5
3DB
100
AcDbEntity
  8
図
  6
CONTINUOUS
 62
     7
100
AcDbCircle
 10
411.749453
 20
713.104698
 30
0.0
 40
3.0
100
AcDbArc
 50
90.0
 51
172.874984
  0
ARC
  5
3DC
100
AcDbEntity
  8
図
  6
CONTINUOUS
 62
     7
100
AcDbCircle
 10
405.787933
 20
713.104698
 30
0.0
 40
5.0
100
AcDbArc
 50
183.703437
 51
270.0
  0
ARC
  5
3DD
100
AcDbEntity
  8
図
  6
CONTINUOUS
 62
     7
100
AcDbCircle
 10
406.335542
 20
710.104698
 30
0.0
 40
2.0
100
AcDbArc
 50
270.0
 51
352.874984
  0
ARC
  5
3DE
100
AcDbEntity
  8
図
  6
CONTINUOUS
 62
     7
100
AcDbCircle
 10
411.749453
 20
713.104698
 30
0.0
 40
10.0
100
AcDbArc
 50
90.0
 51
116.963617
  0
ARC
  5
3DF
100
AcDbEntity
  8
図
  6
CONTINUOUS
 62
     7
100
AcDbCircle
 10
461.20404
 20
711.104698
 30
0.0
 40
3.0
100
AcDbArc
 50
270.0
 51
358.0
  0
ARC
  5
3E0
100
AcDbEntity
  8
図
  6
CONTINUOUS
 62
     7
100
AcDbCircle
 10
471.422198
 20
749.048898
 30
0.0
 40
17.0
100
AcDbArc
 50
219.892848
 51
241.340017
  0
ARC
  5
3E1
100
AcDbEntity
  8
図
  6
CONTINUOUS
 62
     7
100
AcDbCircle
 10
471.422198
 20
749.048898
 30
0.0
 40
10.0
100
AcDbArc
 50
219.892848
 51
260.0
  0
ARC
  5
3E2
100
AcDbEntity
  8
図
  6
CONTINUOUS
 62
     7
100
AcDbCircle
 10
589.228347
 20
747.712669
 30
0.0
 40
17.0
100
AcDbArc
 50
302.204836
 51
328.164855
  0
ARC
  5
3E3
100
AcDbEntity
  8
図
  6
CONTINUOUS
 62
     7
100
AcDbCircle
 10
589.228347
 20
747.712669
 30
0.0
 40
10.0
100
AcDbArc
 50
294.113254
 51
328.164855
  0
ARC
  5
3E4
100
AcDbEntity
  8
図
  6
CONTINUOUS
 62
     7
100
AcDbCircle
 10
731.335542
 20
714.104698
 30
0.0
 40
9.0
100
AcDbArc
 50
65.926609
 51
90.0
  0
ARC
  5
3E5
100
AcDbEntity
  8
図
  6
CONTINUOUS
 62
     7
100
AcDbCircle
 10
735.866671
 20
710.104698
 30
0.0
 40
2.0
100
AcDbArc
 50
187.125016
 51
270.0
  0
ARC
  5
3E6
100
AcDbEntity
  8
図
  6
CONTINUOUS
 62
     7
100
AcDbCircle
 10
736.41428
 20
713.104698
 30
0.0
 40
5.0
100
AcDbArc
 50
270.0
 51
356.296563
  0
LINE
  5
3E7
100
AcDbEntity
  8
図
  6
CONTINUOUS
 62
     7
100
AcDbLine
 10
728.860928
 20
723.104698
 30
0.0
 11
731.335542
 21
723.104698
 31
0.0
  0
ARC
  5
3E8
100
AcDbEntity
  8
図
  6
CONTINUOUS
 62
     7
100
AcDbCircle
 10
730.45276
 20
713.104698
 30
0.0
 40
3.0
100
AcDbArc
 50
7.125016
 51
90.0
  0
LINE
  5
3E9
100
AcDbEntity
  8
図
  6
CONTINUOUS
 62
     7
100
AcDbLine
 10
733.772619
 20
710.732594
 30
0.0
 11
733.429593
 21
713.476803
 31
0.0
  0
LINE
  5
3EA
100
AcDbEntity
  8
図
  6
CONTINUOUS
 62
     7
100
AcDbLine
 10
724.998172
 20
716.104698
 30
0.0
 11
730.45276
 21
716.104698
 31
0.0
  0
ARC
  5
3EB
100
AcDbEntity
  8
図
  6
CONTINUOUS
 62
     7
100
AcDbCircle
 10
459.749453
 20
711.104698
 30
0.0
 40
3.0
100
AcDbArc
 50
185.191655
 51
270.0
  0
ARC
  5
3EC
100
AcDbEntity
  8
図
  6
CONTINUOUS
 62
     7
100
AcDbCircle
 10
427.565175
 20
716.104698
 30
0.0
 40
2.0
100
AcDbArc
 50
90.0
 51
150.0
  0
ARC
  5
3ED
100
AcDbEntity
  8
図
  6
CONTINUOUS
 62
     7
100
AcDbCircle
 10
453.361296
 20
715.104698
 30
0.0
 40
3.0
100
AcDbArc
 50
5.191655
 51
90.0
  0
ARC
  5
3EE
100
AcDbEntity
  8
図
  6
CONTINUOUS
 62
     7
100
AcDbCircle
 10
424.101073
 20
718.104698
 30
0.0
 40
2.0
100
AcDbArc
 50
270.0
 51
330.0
  0
LINE
  5
3EF
100
AcDbEntity
  8
図
  6
CONTINUOUS
 62
     7
100
AcDbLine
 10
456.76176
 20
710.833236
 30
0.0
 11
456.348989
 21
715.376161
 31
0.0
  0
LINE
  5
3F0
100
AcDbEntity
  8
図
  6
CONTINUOUS
 62
     7
100
AcDbLine
 10
427.565175
 20
718.104698
 30
0.0
 11
453.361296
 21
718.104698
 31
0.0
  0
ARC
  5
3F1
100
AcDbEntity
  8
図
  6
CONTINUOUS
 62
     7
100
AcDbCircle
 10
453.361296
 20
715.104698
 30
0.0
 40
10.0
100
AcDbArc
 50
64.544517
 51
90.0
  0
LINE
  5
3F2
100
AcDbEntity
  8
図
  6
CONTINUOUS
 62
     7
100
AcDbLine
 10
457.665641
 20
724.393044
 30
0.0
 11
457.656637
 21
724.135205
 31
0.0
  0
ARC
  5
3F3
100
AcDbEntity
  8
図
  6
CONTINUOUS
 62
     7
100
AcDbCircle
 10
427.565175
 20
716.104698
 30
0.0
 40
9.0
100
AcDbArc
 50
90.0
 51
128.942441
  0
LINE
  5
3F4
100
AcDbEntity
  8
図
  6
CONTINUOUS
 62
     7
100
AcDbLine
 10
427.565175
 20
725.104698
 30
0.0
 11
453.361296
 21
725.104698
 31
0.0
  0
LINE
  5
3F5
100
AcDbEntity
  8
図
  6
CONTINUOUS
 62
     7
100
AcDbLine
 10
411.749453
 20
723.104698
 30
0.0
 11
421.90832
 21
723.104698
 31
0.0
  0
LINE
  5
3F6
100
AcDbEntity
  8
図
  6
CONTINUOUS
 62
     7
100
AcDbLine
 10
434.101106
 20
718.104698
 30
0.0
 11
434.101106
 21
725.104698
 31
0.0
  0
LINE
  5
3F7
100
AcDbEntity
  8
図
  6
CONTINUOUS
 62
     7
100
AcDbLine
 10
448.101106
 20
718.104698
 30
0.0
 11
448.101106
 21
725.104698
 31
0.0
  0
ARC
  5
3F8
100
AcDbEntity
  8
図
  6
CONTINUOUS
 62
     7
100
AcDbCircle
 10
601.718773
 20
719.104698
 30
0.0
 40
3.0
100
AcDbArc
 50
182.0
 51
270.0
  0
ARC
  5
3F9
100
AcDbEntity
  8
図
  6
CONTINUOUS
 62
     7
100
AcDbCircle
 10
640.483373
 20
719.104698
 30
0.0
 40
3.0
100
AcDbArc
 50
270.0
 51
358.0
  0
LINE
  5
3FA
100
AcDbEntity
  8
図
  6
CONTINUOUS
 62
     7
100
AcDbLine
 10
601.718773
 20
716.104698
 30
0.0
 11
640.483373
 21
716.104698
 31
0.0
  0
ARC
  5
3FB
100
AcDbEntity
  8
図
  6
CONTINUOUS
 62
     7
100
AcDbCircle
 10
593.602989
 20
722.280689
 30
0.0
 40
12.0
100
AcDbArc
 50
3.937453
 51
66.951189
  0
LINE
  5
3FC
100
AcDbEntity
  8
図
  6
CONTINUOUS
 62
     7
100
AcDbLine
 10
605.574664
 20
723.104698
 30
0.0
 11
636.620618
 21
723.104698
 31
0.0
  0
LINE
  5
3FD
100
AcDbEntity
  8
図
  6
CONTINUOUS
 62
     7
100
AcDbLine
 10
735.866671
 20
708.104698
 30
0.0
 11
736.41428
 21
708.104698
 31
0.0
  0
LINE
  5
3FE
100
AcDbEntity
  8
図
  6
CONTINUOUS
 62
     7
100
AcDbLine
 10
405.787933
 20
708.104698
 30
0.0
 11
406.335542
 21
708.104698
 31
0.0
  0
LINE
  5
3FF
100
AcDbEntity
  8
図
  6
CONTINUOUS
 62
     7
100
AcDbLine
 10
408.772619
 20
713.476803
 30
0.0
 11
408.320097
 21
709.856629
 31
0.0
  0
LINE
  5
400
100
AcDbEntity
  8
図
  6
CONTINUOUS
 62
     7
100
AcDbLine
 10
459.749453
 20
708.104698
 30
0.0
 11
461.20404
 21
708.104698
 31
0.0
  0
LINE
  5
401
100
AcDbEntity
  8
図
  6
CONTINUOUS
 62
     7
100
AcDbLine
 10
582.368856
 20
722.730313
 30
0.0
 11
576.706169
 21
717.067625
 31
0.0
  0
LINE
  5
402
100
AcDbEntity
  8
図
  6
CONTINUOUS
 62
     7
100
AcDbLine
 10
598.720601
 20
719.0
 30
0.0
 11
598.718277
 21
719.066553
 31
0.0
  0
LINE
  5
403
100
AcDbEntity
  8
図
  6
CONTINUOUS
 62
     7
100
AcDbLine
 10
424.101073
 20
716.104698
 30
0.0
 11
411.749453
 21
716.104698
 31
0.0
  0
LINE
  5
404
100
AcDbEntity
  8
図
  6
CONTINUOUS
 62
     7
100
AcDbLine
 10
646.627925
 20
809.100514
 30
0.0
 11
643.481545
 21
719.0
 31
0.0
  0
ARC
  5
405
100
AcDbEntity
  8
図
  6
CONTINUOUS
 62
     7
100
AcDbCircle
 10
518.781573
 20
715.104698
 30
0.0
 40
2.0
100
AcDbArc
 50
192.982778
 51
270.0
  0
LINE
  5
406
100
AcDbEntity
  8
図
  6
CONTINUOUS
 62
     2
100
AcDbLine
 10
453.543016
 20
716.104698
 30
0.0
 11
424.101073
 21
716.104698
 31
0.0
  0
ARC
  5
407
100
AcDbEntity
  8
図
  6
CONTINUOUS
 62
     2
100
AcDbCircle
 10
453.543016
 20
713.104698
 30
0.0
 40
3.0
100
AcDbArc
 50
5.191655
 51
90.0
  0
ARC
  5
408
100
AcDbEntity
  8
図
  6
CONTINUOUS
 62
     2
100
AcDbCircle
 10
467.277539
 20
713.104698
 30
0.0
 40
3.0
100
AcDbArc
 50
90.0
 51
178.0
  0
LINE
  5
409
100
AcDbEntity
  8
図
  6
CONTINUOUS
 62
     2
100
AcDbLine
 10
467.277539
 20
716.104698
 30
0.0
 11
516.247897
 21
716.104698
 31
0.0
  0
LINE
  5
40A
100
AcDbEntity
  8
図
  6
CONTINUOUS
 62
     2
100
AcDbLine
 10
575.954315
 20
716.104698
 30
0.0
 11
595.92464
 21
716.104698
 31
0.0
  0
ARC
  5
40B
100
AcDbEntity
  8
図
  6
CONTINUOUS
 62
     2
100
AcDbCircle
 10
595.92464
 20
713.104698
 30
0.0
 40
3.0
100
AcDbArc
 50
2.0
 51
90.0
  0
LINE
  5
40C
100
AcDbEntity
  8
図
  6
CONTINUOUS
 62
     2
100
AcDbLine
 10
598.999967
 20
711.0
 30
0.0
 11
598.922813
 21
713.209397
 31
0.0
  0
ARC
  5
40D
100
AcDbEntity
  8
図
  6
CONTINUOUS
 62
     2
100
AcDbCircle
 10
601.998139
 20
711.104698
 30
0.0
 40
3.0
100
AcDbArc
 50
182.0
 51
270.0
  0
LINE
  5
40E
100
AcDbEntity
  8
図
  6
CONTINUOUS
 62
     2
100
AcDbLine
 10
601.998139
 20
708.104698
 30
0.0
 11
603.452726
 21
708.104698
 31
0.0
  0
ARC
  5
40F
100
AcDbEntity
  8
図
  6
CONTINUOUS
 62
     2
100
AcDbCircle
 10
603.452726
 20
711.104698
 30
0.0
 40
3.0
100
AcDbArc
 50
270.0
 51
352.874984
  0
LINE
  5
410
100
AcDbEntity
  8
図
  6
CONTINUOUS
 62
     2
100
AcDbLine
 10
606.772586
 20
713.476803
 30
0.0
 11
606.42956
 21
710.732594
 31
0.0
  0
ARC
  5
411
100
AcDbEntity
  8
図
  6
CONTINUOUS
 62
     2
100
AcDbCircle
 10
609.74942
 20
713.104698
 30
0.0
 40
3.0
100
AcDbArc
 50
90.0
 51
172.874984
  0
ARC
  5
412
100
AcDbEntity
  8
図
  6
CONTINUOUS
 62
     2
100
AcDbCircle
 10
632.452726
 20
713.104698
 30
0.0
 40
3.0
100
AcDbArc
 50
7.125016
 51
90.0
  0
LINE
  5
413
100
AcDbEntity
  8
図
  6
CONTINUOUS
 62
     2
100
AcDbLine
 10
635.42956
 20
713.476803
 30
0.0
 11
635.772586
 21
710.732594
 31
0.0
  0
ARC
  5
414
100
AcDbEntity
  8
図
  6
CONTINUOUS
 62
     2
100
AcDbCircle
 10
638.74942
 20
711.104698
 30
0.0
 40
3.0
100
AcDbArc
 50
187.125016
 51
270.0
  0
LINE
  5
415
100
AcDbEntity
  8
図
  6
CONTINUOUS
 62
     2
100
AcDbLine
 10
638.74942
 20
708.104698
 30
0.0
 11
640.204007
 21
708.104698
 31
0.0
  0
ARC
  5
416
100
AcDbEntity
  8
図
  6
CONTINUOUS
 62
     2
100
AcDbCircle
 10
640.204007
 20
711.104698
 30
0.0
 40
3.0
100
AcDbArc
 50
270.0
 51
358.0
  0
LINE
  5
417
100
AcDbEntity
  8
図
  6
CONTINUOUS
 62
     2
100
AcDbLine
 10
643.279333
 20
713.209397
 30
0.0
 11
643.202179
 21
711.0
 31
0.0
  0
ARC
  5
418
100
AcDbEntity
  8
図
  6
CONTINUOUS
 62
     2
100
AcDbCircle
 10
646.277505
 20
713.104698
 30
0.0
 40
3.0
100
AcDbArc
 50
90.0
 51
178.0
  0
LINE
  5
419
100
AcDbEntity
  8
図
  6
CONTINUOUS
 62
     2
100
AcDbLine
 10
646.277505
 20
716.104698
 30
0.0
 11
724.998172
 21
716.104698
 31
0.0
  0
DIMENSION
  5
426
100
AcDbEntity
  8
寸法
  6
CONTINUOUS
 62
     3
100
AcDbDimension
  2
*D14
 10
1683.601106
 20
796.104698
 30
0.0
 11
1653.101106
 21
807.854698
 31
0.0
 70
   160
  1
%%c61
  3
STANDARD
100
AcDbAlignedDimension
 13
1622.601106
 23
731.104698
 33
0.0
 14
1683.601106
 24
731.104698
 34
0.0
100
AcDbRotatedDimension
1001
ACAD
1000
DSTYLE
1002
{
1070
     6
1000
_EX_NORM
1070
     7
1000
_EX_NORM
1070
    41
1040
17.5
1070
    42
1040
3.5
1070
    44
1040
10.0
1070
    73
1070
     0
1070
    74
1070
     0
1070
    75
1070
     0
1070
    76
1070
     0
1070
    77
1070
     1
1070
    78
1070
     8
1070
   140
1040
20.0
1070
   147
1040
1.75
1070
   173
1070
     1
1070
   176
1070
     3
1070
   177
1070
     3
1070
   178
1070
     2
1070
   271
1070
     1
1070
   279
1070
     2
1070
   280
1070
     0
1070
   287
1070
     5
1070
   340
1005
425
1002
}
  0
LINE
  5
427
100
AcDbEntity
  8
寸法
  6
CONTINUOUS
 62
     3
100
AcDbLine
 10
1632.101106
 20
725.104698
 30
0.0
 11
1632.101106
 21
771.104698
 31
0.0
  0
LINE
  5
428
100
AcDbEntity
  8
寸法
  6
CONTINUOUS
 62
     3
100
AcDbLine
 10
1674.101106
 20
725.104698
 30
0.0
 11
1674.101106
 21
771.104698
 31
0.0
  0
LINE
  5
429
100
AcDbEntity
  8
寸法
  6
CONTINUOUS
 62
     3
100
AcDbLine
 10
1632.101106
 20
761.104698
 30
0.0
 11
1674.101106
 21
761.104698
 31
0.0
  0
LINE
  5
42A
100
AcDbEntity
  8
寸法
  6
CONTINUOUS
 62
     3
100
AcDbLine
 10
1649.601106
 20
764.021365
 30
0.0
 11
1632.101106
 21
761.104698
 31
0.0
  0
LINE
  5
42B
100
AcDbEntity
  8
寸法
  6
CONTINUOUS
 62
     3
100
AcDbLine
 10
1632.101106
 20
761.104698
 30
0.0
 11
1649.601106
 21
758.188032
 31
0.0
  0
LINE
  5
42C
100
AcDbEntity
  8
寸法
  6
CONTINUOUS
 62
     3
100
AcDbLine
 10
1656.601106
 20
758.188032
 30
0.0
 11
1674.101106
 21
761.104698
 31
0.0
  0
LINE
  5
42D
100
AcDbEntity
  8
寸法
  6
CONTINUOUS
 62
     3
100
AcDbLine
 10
1674.101106
 20
761.104698
 30
0.0
 11
1656.601106
 21
764.021365
 31
0.0
  0
TEXT
  5
42E
100
AcDbEntity
  8
寸法
  6
CONTINUOUS
 62
     2
100
AcDbText
 10
1628.501107
 20
762.854698
 30
0.0
 40
20.0
  1
φ４１
 41
0.672
  7
EXCADSTD
 72
     5
 11
1676.501106
 21
762.854698
 31
0.0
100
AcDbText
  0
TEXT
  5
42F
100
AcDbEntity
  8
寸法
  6
CONTINUOUS
 62
     2
100
AcDbText
 10
1673.501106
 20
762.854698
 30
0.0
 40
9.0
  1
±２
 41
0.56
  7
EXCADSTD
 72
     5
 11
1684.500305
 21
762.854698
 31
0.0
100
AcDbText
  0
LINE
  5
430
100
AcDbEntity
  8
寸法
  6
CONTINUOUS
 62
     3
100
AcDbLine
 10
1114.5
 20
708.104698
 30
0.0
 11
1055.0
 21
708.104698
 31
0.0
  0
LINE
  5
431
100
AcDbEntity
  8
寸法
  6
CONTINUOUS
 62
     3
100
AcDbLine
 10
1088.5
 20
828.104698
 30
0.0
 11
1055.0
 21
828.104698
 31
0.0
  0
LINE
  5
432
100
AcDbEntity
  8
寸法
  6
CONTINUOUS
 62
     3
100
AcDbLine
 10
1060.0
 20
708.104698
 30
0.0
 11
1060.0
 21
828.104698
 31
0.0
  0
LINE
  5
433
100
AcDbEntity
  8
寸法
  6
CONTINUOUS
 62
     3
100
AcDbLine
 10
1057.5
 20
723.104698
 30
0.0
 11
1060.0
 21
708.104698
 31
0.0
  0
LINE
  5
434
100
AcDbEntity
  8
寸法
  6
CONTINUOUS
 62
     3
100
AcDbLine
 10
1060.0
 20
708.104698
 30
0.0
 11
1062.5
 21
723.104698
 31
0.0
  0
LINE
  5
435
100
AcDbEntity
  8
寸法
  6
CONTINUOUS
 62
     3
100
AcDbLine
 10
1062.5
 20
813.104698
 30
0.0
 11
1060.0
 21
828.104698
 31
0.0
  0
LINE
  5
436
100
AcDbEntity
  8
寸法
  6
CONTINUOUS
 62
     3
100
AcDbLine
 10
1060.0
 20
828.104698
 30
0.0
 11
1057.5
 21
813.104698
 31
0.0
  0
TEXT
  5
437
100
AcDbEntity
  8
寸法
  6
CONTINUOUS
 62
     2
100
AcDbText
 10
1058.5
 20
731.854698
 30
0.0
 40
20.0
  1
１２０
 50
90.0
 41
0.805
  7
EXCADSTD
 72
     5
 11
1058.5
 21
789.354698
 31
0.0
100
AcDbText
  0
TEXT
  5
438
100
AcDbEntity
  8
寸法
  6
CONTINUOUS
 62
     2
100
AcDbText
 10
1058.5
 20
786.854698
 30
0.0
 40
9.0
  1
±４
 50
90.0
 41
0.711667
  7
EXCADSTD
 72
     5
 11
1058.5
 21
800.832847
 31
0.0
100
AcDbText
  0
DIMENSION
  5
444
100
AcDbEntity
  8
寸法
  6
CONTINUOUS
 62
     3
100
AcDbDimension
  2
*D15
 10
1287.0
 20
901.104698
 30
0.0
 11
1277.0
 21
912.604698
 31
0.0
 70
   160
  3
STANDARD
100
AcDbAlignedDimension
 13
1267.0
 23
888.104698
 33
0.0
 14
1287.0
 24
888.104698
 34
0.0
100
AcDbRotatedDimension
1001
ACAD
1000
DSTYLE
1002
{
1070
     6
1000
_EX_NORM
1070
     7
1000
_EX_NORM
1070
    41
1040
15.0
1070
    42
1040
2.5
1070
    44
1040
5.0
1070
    73
1070
     0
1070
    74
1070
     0
1070
    75
1070
     0
1070
    76
1070
     0
1070
    77
1070
     1
1070
    78
1070
     8
1070
   140
1040
20.0
1070
   147
1040
1.5
1070
   173
1070
     1
1070
   176
1070
     3
1070
   177
1070
     3
1070
   178
1070
     2
1070
   271
1070
     2
1070
   279
1070
     2
1070
   280
1070
     0
1070
   287
1070
     5
1070
   340
1005
425
1002
}
  0
DIMENSION
  5
450
100
AcDbEntity
  8
寸法
  6
CONTINUOUS
 62
     3
100
AcDbDimension
  2
*D16
 10
748.601106
 20
1357.104698
 30
0.0
 11
571.101106
 21
1368.854698
 31
0.0
 70
   160
  3
STANDARD
100
AcDbAlignedDimension
 13
393.601106
 23
1317.104698
 33
0.0
 14
748.601106
 24
1317.104698
 34
0.0
100
AcDbRotatedDimension
1001
ACAD
1000
DSTYLE
1002
{
1070
     6
1000
_EX_NORM
1070
     7
1000
_EX_NORM
1070
    41
1040
15.0
1070
    42
1040
2.5
1070
    44
1040
10.0
1070
    73
1070
     0
1070
    74
1070
     0
1070
    75
1070
     0
1070
    76
1070
     0
1070
    77
1070
     1
1070
    78
1070
     8
1070
   140
1040
20.0
1070
   147
1040
1.75
1070
   173
1070
     1
1070
   176
1070
     3
1070
   177
1070
     3
1070
   178
1070
     2
1070
   271
1070
     2
1070
   279
1070
     2
1070
   280
1070
     0
1070
   287
1070
     5
1070
   340
1005
425
1002
}
  0
DIMENSION
  5
45C
100
AcDbEntity
  8
寸法
  6
CONTINUOUS
 62
     3
100
AcDbDimension
  2
*D17
 10
818.601106
 20
1317.104698
 30
0.0
 11
807.101106
 21
1219.604698
 31
0.0
 70
   160
  3
STANDARD
100
AcDbAlignedDimension
 13
571.101106
 23
1122.104698
 33
0.0
 14
748.601106
 24
1317.104698
 34
0.0
 50
90.0
100
AcDbRotatedDimension
1001
ACAD
1000
DSTYLE
1002
{
1070
     6
1000
_EX_NORM
1070
     7
1000
_EX_NORM
1070
    41
1040
15.0
1070
    42
1040
2.5
1070
    44
1040
10.0
1070
    73
1070
     0
1070
    74
1070
     0
1070
    75
1070
     0
1070
    76
1070
     0
1070
    77
1070
     1
1070
    78
1070
     8
1070
   140
1040
20.0
1070
   147
1040
1.5
1070
   173
1070
     1
1070
   176
1070
     3
1070
   177
1070
     3
1070
   178
1070
     2
1070
   271
1070
     2
1070
   279
1070
     2
1070
   280
1070
     0
1070
   287
1070
     5
1070
   340
1005
425
1002
}
  0
DIMENSION
  5
468
100
AcDbEntity
  8
寸法
  6
CONTINUOUS
 62
     3
100
AcDbDimension
  2
*D18
 10
747.101106
 20
958.104698
 30
0.0
 11
571.101106
 21
969.604698
 31
0.0
 70
   160
  3
STANDARD
100
AcDbAlignedDimension
 13
395.101106
 23
888.104698
 33
0.0
 14
747.101106
 24
888.104698
 34
0.0
100
AcDbRotatedDimension
1001
ACAD
1000
DSTYLE
1002
{
1070
     6
1000
_EX_NORM
1070
     7
1000
_EX_NORM
1070
    41
1040
15.0
1070
    42
1040
2.5
1070
    44
1040
10.0
1070
    73
1070
     0
1070
    74
1070
     0
1070
    75
1070
     0
1070
    76
1070
     0
1070
    77
1070
     1
1070
    78
1070
     8
1070
   140
1040
20.0
1070
   147
1040
1.5
1070
   173
1070
     1
1070
   176
1070
     3
1070
   177
1070
     3
1070
   178
1070
     2
1070
   271
1070
     2
1070
   279
1070
     2
1070
   280
1070
     0
1070
   287
1070
     5
1070
   340
1005
425
1002
}
  0
DIMENSION
  5
474
100
AcDbEntity
  8
寸法
  6
CONTINUOUS
 62
     3
100
AcDbDimension
  2
*D19
 10
622.183793
 20
823.075684
 30
0.0
 11
616.411991
 21
862.988422
 31
0.0
 70
   165
  1
2°
  3
STANDARD
100
AcDb3PointAngularDimension
 13
734.463606
 23
825.104698
 33
0.0
 14
641.756512
 24
821.728928
 34
0.0
 15
738.425928
 25
825.104698
 35
0.0
1001
ACAD
1000
DSTYLE
1002
{
1070
     6
1000
_EX_NORM
1070
     7
1000
_EX_NORM
1070
    41
1040
15.0
1070
    42
1040
0.0625
1070
    44
1040
2.0
1070
    73
1070
     0
1070
    74
1070
     0
1070
    75
1070
     0
1070
    76
1070
     0
1070
    77
1070
     1
1070
    78
1070
     8
1070
   140
1040
20.0
1070
   147
1040
1.5
1070
   173
1070
     1
1070
   176
1070
     3
1070
   177
1070
     3
1070
   178
1070
     2
1070
   271
1070
     2
1070
   279
1070
     2
1070
   280
1070
     1
1070
   287
1070
     5
1070
   340
1005
425
1002
}
  0
DIMENSION
  5
480
100
AcDbEntity
  8
寸法
  6
CONTINUOUS
 62
     3
100
AcDbDimension
  2
*D20
 10
694.728122
 20
862.716755
 30
0.0
 11
681.334697
 21
873.756056
 31
0.0
 70
   161
  1
%%c26
  3
STANDARD
100
AcDbAlignedDimension
 13
670.109025
 23
822.71902
 33
0.0
 14
696.093187
 24
823.626407
 34
0.0
1001
ACAD
1000
DSTYLE
1002
{
1070
     6
1000
_EX_NORM
1070
     7
1000
_EX_NORM
1070
    41
1040
15.0
1070
    42
1040
2.5
1070
    44
1040
5.0
1070
    73
1070
     0
1070
    74
1070
     0
1070
    75
1070
     0
1070
    76
1070
     0
1070
    77
1070
     1
1070
    78
1070
     8
1070
   140
1040
20.0
1070
   147
1040
1.5
1070
   173
1070
     1
1070
   176
1070
     3
1070
   177
1070
     3
1070
   178
1070
     2
1070
   271
1070
     2
1070
   279
1070
     2
1070
   280
1070
     0
1070
   287
1070
     5
1070
   340
1005
425
1002
}
  0
DIMENSION
  5
48C
100
AcDbEntity
  8
寸法
  6
CONTINUOUS
 62
     3
100
AcDbDimension
  2
*D21
 10
721.101106
 20
923.104698
 30
0.0
 11
571.101106
 21
934.854698
 31
0.0
 70
   160
  3
STANDARD
100
AcDbAlignedDimension
 13
421.101106
 23
873.204698
 33
0.0
 14
721.101106
 24
869.104698
 34
0.0
100
AcDbRotatedDimension
1001
ACAD
1000
DSTYLE
1002
{
1070
     6
1000
_EX_NORM
1070
     7
1000
_EX_NORM
1070
    41
1040
15.0
1070
    42
1040
2.5
1070
    44
1040
10.0
1070
    73
1070
     0
1070
    74
1070
     0
1070
    75
1070
     0
1070
    76
1070
     0
1070
    77
1070
     1
1070
    78
1070
     8
1070
   140
1040
20.0
1070
   147
1040
1.75
1070
   173
1070
     1
1070
   176
1070
     3
1070
   177
1070
     3
1070
   178
1070
     2
1070
   271
1070
     2
1070
   279
1070
     2
1070
   280
1070
     0
1070
   287
1070
     5
1070
   340
1005
425
1002
}
  0
DIMENSION
  5
498
100
AcDbEntity
  8
寸法
  6
CONTINUOUS
 62
     3
100
AcDbDimension
  2
*D22
 10
1616.301106
 20
713.104698
 30
0.0
 11
1604.551106
 21
678.104698
 31
0.0
 70
   160
  3
STANDARD
100
AcDbAlignedDimension
 13
1622.601106
 23
731.104698
 33
0.0
 14
1624.101106
 24
713.104698
 34
0.0
 50
90.0
100
AcDbRotatedDimension
1001
ACAD
1000
DSTYLE
1002
{
1070
     6
1000
_EX_NORM
1070
     7
1000
_EX_NORM
1070
    41
1040
15.0
1070
    42
1040
2.5
1070
    44
1040
5.0
1070
    73
1070
     0
1070
    74
1070
     0
1070
    75
1070
     0
1070
    76
1070
     0
1070
    77
1070
     1
1070
    78
1070
     8
1070
   140
1040
20.0
1070
   147
1040
1.75
1070
   173
1070
     1
1070
   176
1070
     3
1070
   177
1070
     3
1070
   178
1070
     2
1070
   271
1070
     2
1070
   279
1070
     2
1070
   280
1070
     2
1070
   287
1070
     5
1070
   340
1005
425
1002
}
  0
DIMENSION
  5
4A5
100
AcDbEntity
  8
寸法
  6
CONTINUOUS
 62
     3
100
AcDbDimension
  2
*D23
 10
621.101106
 20
275.104698
 30
0.0
 11
531.101106
 21
286.604698
 31
0.0
 70
   160
  3
STANDARD
100
AcDbAlignedDimension
 13
441.101106
 23
376.304698
 33
0.0
 14
621.101106
 24
379.704698
 34
0.0
100
AcDbRotatedDimension
1001
ACAD
1000
DSTYLE
1002
{
1070
     6
1000
_EX_NORM
1070
     7
1000
_EX_NORM
1070
    41
1040
15.0
1070
    42
1040
2.5
1070
    44
1040
10.0
1070
    73
1070
     0
1070
    74
1070
     0
1070
    75
1070
     0
1070
    76
1070
     0
1070
    77
1070
     1
1070
    78
1070
     8
1070
   140
1040
20.0
1070
   147
1040
1.5
1070
   173
1070
     1
1070
   176
1070
     3
1070
   177
1070
     3
1070
   178
1070
     2
1070
   271
1070
     2
1070
   279
1070
     2
1070
   280
1070
     0
1070
   287
1070
     5
1070
   340
1005
4A4
1002
}
  0
DIMENSION
  5
4B1
100
AcDbEntity
  8
寸法
  6
CONTINUOUS
 62
     3
100
AcDbDimension
  2
*D24
 10
1653.101106
 20
833.0
 30
0.0
 11
1653.101106
 21
844.75
 31
0.0
 70
   165
  3
STANDARD
100
AcDb3PointAngularDimension
 13
1686.031787
 23
733.535379
 33
0.0
 14
1620.170425
 24
733.535379
 34
0.0
 15
1653.101106
 25
700.604698
 35
0.0
1001
ACAD
1000
DSTYLE
1002
{
1070
     6
1000
_EX_NORM
1070
     7
1000
_EX_NORM
1070
    41
1040
17.5
1070
    42
1040
0.0625
1070
    44
1040
10.0
1070
    73
1070
     0
1070
    74
1070
     0
1070
    75
1070
     0
1070
    76
1070
     0
1070
    77
1070
     1
1070
    78
1070
     0
1070
   140
1040
20.0
1070
   147
1040
1.75
1070
   173
1070
     1
1070
   176
1070
     3
1070
   177
1070
     3
1070
   178
1070
     2
1070
   271
1070
     0
1070
   279
1070
     2
1070
   280
1070
     0
1070
   287
1070
     5
1070
   340
1005
425
1002
}
  0
DIMENSION
  5
4BD
100
AcDbEntity
  8
寸法
  6
CONTINUOUS
 62
     3
100
AcDbDimension
  2
*D25
 10
783.600006
 20
863.104698
 30
0.0
 11
771.850006
 21
926.104698
 31
0.0
 70
   160
  3
STANDARD
100
AcDbAlignedDimension
 13
743.193825
 23
888.104698
 33
0.0
 14
731.801106
 24
863.104698
 34
0.0
 50
90.0
100
AcDbRotatedDimension
1001
ACAD
1000
DSTYLE
1002
{
1070
     6
1000
_EX_NORM
1070
     7
1000
_EX_NORM
1070
    41
1040
17.5
1070
    42
1040
3.5
1070
    44
1040
10.0
1070
    73
1070
     0
1070
    74
1070
     0
1070
    75
1070
     0
1070
    76
1070
     0
1070
    77
1070
     1
1070
    78
1070
     0
1070
   140
1040
20.0
1070
   147
1040
1.75
1070
   173
1070
     1
1070
   176
1070
     3
1070
   177
1070
     3
1070
   178
1070
     2
1070
   271
1070
     0
1070
   279
1070
     2
1070
   280
1070
     1
1070
   287
1070
     5
1070
   340
1005
425
1002
}
  0
LINE
  5
4BE
100
AcDbEntity
  8
寸法
  6
CONTINUOUS
 62
     7
100
AcDbLine
 10
546.101106
 20
1286.736523
 30
0.0
 11
546.101106
 21
1281.736523
 31
0.0
  0
LINE
  5
4BF
100
AcDbEntity
  8
寸法
  6
CONTINUOUS
 62
     7
100
AcDbLine
 10
571.101106
 20
1286.736523
 30
0.0
 11
566.101106
 21
1286.736523
 31
0.0
  0
LINE
  5
4C0
100
AcDbEntity
  8
寸法
  6
CONTINUOUS
 62
     7
100
AcDbLine
 10
571.101106
 20
1286.736523
 30
0.0
 11
571.101106
 21
1291.736523
 31
0.0
  0
LINE
  5
4C1
100
AcDbEntity
  8
寸法
  6
CONTINUOUS
 62
     7
100
AcDbLine
 10
571.101106
 20
1328.877018
 30
0.0
 11
571.101106
 21
1348.877018
 31
0.0
  0
POLYLINE
  5
4C2
100
AcDbEntity
  8
寸法
  6
CONTINUOUS
 62
     6
100
AcDb2dPolyline
 66
     1
 10
0.0
 20
0.0
 30
0.0
 70
   128
  0
VERTEX
  5
4C3
100
AcDbEntity
  8
寸法
  6
CONTINUOUS
 62
     6
100
AcDbVertex
100
AcDb2dVertex
 10
571.101106
 20
1338.877018
 30
0.0
  0
VERTEX
  5
4C4
100
AcDbEntity
  8
寸法
  6
CONTINUOUS
 62
     6
100
AcDbVertex
100
AcDb2dVertex
 10
599.523906
 20
1338.877018
 30
0.0
  0
SEQEND
  5
4C5
100
AcDbEntity
  8
寸法
  6
CONTINUOUS
 62
     6
  0
LINE
  5
4C6
100
AcDbEntity
  8
寸法
  6
CONTINUOUS
 62
     6
100
AcDbLine
 10
588.601106
 20
1341.793685
 30
0.0
 11
571.101106
 21
1338.877018
 31
0.0
  0
LINE
  5
4C7
100
AcDbEntity
  8
寸法
  6
CONTINUOUS
 62
     6
100
AcDbLine
 10
571.101106
 20
1338.877018
 30
0.0
 11
588.601106
 21
1335.960352
 31
0.0
  0
TEXT
  5
4C8
100
AcDbEntity
  8
寸法
  6
CONTINUOUS
 62
     2
100
AcDbText
 10
602.043754
 20
1327.677018
 30
0.0
 40
20.0
  1
Ｂ
 41
0.945
  7
EXCADSTD
 72
     5
 11
620.043754
 21
1327.677018
 31
0.0
100
AcDbText
  0
TEXT
  5
4C9
100
AcDbEntity
  8
寸法
  6
CONTINUOUS
 62
     2
100
AcDbText
 10
293.05
 20
892.55
 30
0.0
 40
20.0
  1
２－φ７
 41
0.819
  7
EXCADSTD
 72
     5
 11
371.05
 21
892.55
 31
0.0
100
AcDbText
  0
TEXT
  5
4CA
100
AcDbEntity
  8
寸法
  6
CONTINUOUS
 62
     2
100
AcDbText
 10
362.3
 20
903.55
 30
0.0
 40
9.0
  1
＋２
 41
0.758333
  7
EXCADSTD
 72
     5
 11
377.194749
 21
903.55
 31
0.0
100
AcDbText
  0
TEXT
  5
4CB
100
AcDbEntity
  8
寸法
  6
CONTINUOUS
 62
     2
100
AcDbText
 10
369.05
 20
892.55
 30
0.0
 40
9.0
  1
－１
 41
0.758333
  7
EXCADSTD
 72
     5
 11
383.944749
 21
892.55
 31
0.0
100
AcDbText
  0
TEXT
  5
4CC
100
AcDbEntity
  8
寸法
  6
CONTINUOUS
 62
     2
100
AcDbText
 10
528.601106
 20
1223.083561
 30
0.0
 40
20.0
  1
Ｏ
 41
0.945
  7
EXCADSTD
 72
     5
 11
546.601106
 21
1223.083561
 31
0.0
100
AcDbText
  0
TEXT
  5
4CD
100
AcDbEntity
  8
寸法
  6
CONTINUOUS
 62
     2
100
AcDbText
 10
759.979374
 20
1196.925737
 30
0.0
 40
20.0
  1
Ａ
 41
0.945
  7
EXCADSTD
 72
     5
 11
777.979374
 21
1196.925737
 31
0.0
100
AcDbText
  0
LINE
  5
4CE
100
AcDbEntity
  8
寸法
  6
CONTINUOUS
 62
     3
100
AcDbLine
 10
769.679374
 20
1242.104698
 30
0.0
 11
774.208707
 21
1225.200997
 31
0.0
  0
LINE
  5
4CF
100
AcDbEntity
  8
寸法
  6
CONTINUOUS
 62
     7
100
AcDbLine
 10
757.101106
 20
1242.104698
 30
0.0
 11
782.851106
 21
1242.104698
 31
0.0
  0
LINE
  5
4D0
100
AcDbEntity
  8
寸法
  6
CONTINUOUS
 62
     3
100
AcDbLine
 10
769.679374
 20
1242.104698
 30
0.0
 11
769.679374
 21
1217.104698
 31
0.0
  0
LINE
  5
4D1
100
AcDbEntity
  8
寸法
  6
CONTINUOUS
 62
     3
100
AcDbLine
 10
769.679374
 20
1242.104698
 30
0.0
 11
765.150041
 21
1225.200997
 31
0.0
  0
TEXT
  5
4D2
100
AcDbEntity
  8
寸法
  6
CONTINUOUS
 62
     2
100
AcDbText
 10
1573.100738
 20
627.604698
 30
0.0
 40
20.0
  1
Ｂ－Ｏ－Ｂ断面図
 41
0.798
  7
EXCADSTD
 72
     5
 11
1725.100738
 21
627.604698
 31
0.0
100
AcDbText
  0
LINE
  5
4D3
100
AcDbEntity
  8
寸法
  6
CONTINUOUS
 62
     6
100
AcDbLine
 10
1573.100738
 20
628.104698
 30
0.0
 11
1724.0
 21
628.104698
 31
0.0
  0
TEXT
  5
4D4
100
AcDbEntity
  8
寸法
  6
CONTINUOUS
 62
     2
100
AcDbText
 10
501.190622
 20
636.989814
 30
0.0
 40
20.0
  1
Ａ－Ｏ－Ａ断面図
 41
0.798
  7
EXCADSTD
 72
     5
 11
653.190622
 21
636.989814
 31
0.0
100
AcDbText
  0
LINE
  5
4D5
100
AcDbEntity
  8
寸法
  6
CONTINUOUS
 62
     6
100
AcDbLine
 10
501.190622
 20
637.489814
 30
0.0
 11
651.0
 21
637.489814
 31
0.0
  0
DIMENSION
  5
4E1
100
AcDbEntity
  8
寸法
  6
CONTINUOUS
 62
     3
100
AcDbDimension
  2
*D26
 10
368.602206
 20
718.104698
 30
0.0
 11
356.852206
 21
670.104698
 31
0.0
 70
   160
  3
STANDARD
100
AcDbAlignedDimension
 13
405.787933
 23
708.104698
 33
0.0
 14
427.565175
 24
718.104698
 34
0.0
 50
90.0
100
AcDbRotatedDimension
1001
ACAD
1000
DSTYLE
1002
{
1070
     6
1000
_EX_NORM
1070
     7
1000
_EX_NORM
1070
    41
1040
17.5
1070
    42
1040
3.5
1070
    44
1040
10.0
1070
    73
1070
     0
1070
    74
1070
     0
1070
    75
1070
     0
1070
    76
1070
     0
1070
    77
1070
     1
1070
    78
1070
     0
1070
   140
1040
20.0
1070
   147
1040
1.75
1070
   173
1070
     1
1070
   176
1070
     3
1070
   177
1070
     3
1070
   178
1070
     2
1070
   271
1070
     0
1070
   279
1070
     2
1070
   280
1070
     1
1070
   287
1070
     5
1070
   340
1005
425
1002
}
  0
LINE
  5
4E2
100
AcDbEntity
  8
寸法
  6
CONTINUOUS
 62
     3
100
AcDbLine
 10
741.101106
 20
240.104698
 30
0.0
 11
401.101106
 21
240.104698
 31
0.0
  0
LINE
  5
4E3
100
AcDbEntity
  8
寸法
  6
CONTINUOUS
 62
     3
100
AcDbLine
 10
723.601106
 20
237.188032
 30
0.0
 11
741.101106
 21
240.104698
 31
0.0
  0
LINE
  5
4E4
100
AcDbEntity
  8
寸法
  6
CONTINUOUS
 62
     3
100
AcDbLine
 10
741.101106
 20
240.104698
 30
0.0
 11
723.601106
 21
243.021365
 31
0.0
  0
LINE
  5
4E5
100
AcDbEntity
  8
寸法
  6
CONTINUOUS
 62
     3
100
AcDbLine
 10
418.601106
 20
243.021365
 30
0.0
 11
401.101106
 21
240.104698
 31
0.0
  0
LINE
  5
4E6
100
AcDbEntity
  8
寸法
  6
CONTINUOUS
 62
     3
100
AcDbLine
 10
401.101106
 20
240.104698
 30
0.0
 11
418.601106
 21
237.188032
 31
0.0
  0
TEXT
  5
4E7
100
AcDbEntity
  8
寸法
  6
CONTINUOUS
 62
     2
100
AcDbText
 10
533.101106
 20
241.854698
 30
0.0
 40
20.0
  1
３４０
 41
0.833
  7
EXCADSTD
 72
     5
 11
592.601106
 21
241.854698
 31
0.0
100
AcDbText
  0
TEXT
  5
4E8
100
AcDbEntity
  8
寸法
  6
CONTINUOUS
 62
     2
100
AcDbText
 10
590.601106
 20
241.854698
 30
0.0
 40
9.0
  1
±７
 41
0.758333
  7
EXCADSTD
 72
     5
 11
605.495855
 21
241.854698
 31
0.0
100
AcDbText
  0
LINE
  5
4E9
100
AcDbEntity
  8
寸法
  6
CONTINUOUS
 62
     3
100
AcDbLine
 10
741.101106
 20
341.604699
 30
0.0
 11
741.101106
 21
230.104698
 31
0.0
  0
LINE
  5
4EA
100
AcDbEntity
  8
寸法
  6
CONTINUOUS
 62
     3
100
AcDbLine
 10
401.101106
 20
341.604699
 30
0.0
 11
401.101106
 21
230.104698
 31
0.0
  0
LINE
  5
4EB
100
AcDbEntity
  8
寸法
  6
CONTINUOUS
 62
     7
100
AcDbLine
 10
571.101106
 20
1052.704698
 30
0.0
 11
571.101106
 21
1072.704698
 31
0.0
  0
POLYLINE
  5
4EC
100
AcDbEntity
  8
寸法
  6
CONTINUOUS
 62
     6
100
AcDb2dPolyline
 66
     1
 10
0.0
 20
0.0
 30
0.0
 70
   128
  0
VERTEX
  5
4ED
100
AcDbEntity
  8
寸法
  6
CONTINUOUS
 62
     6
100
AcDbVertex
100
AcDb2dVertex
 10
571.101106
 20
1062.704698
 30
0.0
  0
VERTEX
  5
4EE
100
AcDbEntity
  8
寸法
  6
CONTINUOUS
 62
     6
100
AcDbVertex
100
AcDb2dVertex
 10
599.523906
 20
1062.704698
 30
0.0
  0
SEQEND
  5
4EF
100
AcDbEntity
  8
寸法
  6
CONTINUOUS
 62
     6
  0
LINE
  5
4F0
100
AcDbEntity
  8
寸法
  6
CONTINUOUS
 62
     6
100
AcDbLine
 10
588.601106
 20
1065.621365
 30
0.0
 11
571.101106
 21
1062.704698
 31
0.0
  0
LINE
  5
4F1
100
AcDbEntity
  8
寸法
  6
CONTINUOUS
 62
     6
100
AcDbLine
 10
571.101106
 20
1062.704698
 30
0.0
 11
588.601106
 21
1059.788032
 31
0.0
  0
TEXT
  5
4F2
100
AcDbEntity
  8
寸法
  6
CONTINUOUS
 62
     2
100
AcDbText
 10
602.043754
 20
1051.504698
 30
0.0
 40
20.0
  1
Ｂ
 41
0.945
  7
EXCADSTD
 72
     5
 11
620.043754
 21
1051.504698
 31
0.0
100
AcDbText
  0
LEADER
  5
4F3
100
AcDbEntity
  8
寸法
  6
CONTINUOUS
 62
     3
100
AcDbLeader
  3
STANDARD
 73
     3
 74
     1
 75
     0
 40
0.0
 76
     2
 10
418.793096
 20
865.735875
 30
0.0
 10
379.3
 20
890.8
 30
0.0
 77
     3
1001
ACAD
1000
DSTYLE
1002
{
1070
    41
1040
17.5
1070
     5
1000
_EX_NORM
1070
     6
1000
_EX_NORM
1070
     7
1000
_EX_NORM
1070
   341
1005
28
1002
}
  0
LINE
  5
4F4
100
AcDbEntity
  8
寸法
  6
CONTINUOUS
 62
     3
100
AcDbLine
 10
296.5
 20
890.8
 30
0.0
 11
379.3
 21
890.8
 31
0.0
  0
DIMENSION
  5
500
100
AcDbEntity
  8
寸法
  6
CONTINUOUS
 62
     3
100
AcDbDimension
  2
*D27
 10
1327.0
 20
708.104698
 30
0.0
 11
1315.25
 21
798.104698
 31
0.0
 70
   160
  3
STANDARD
100
AcDbAlignedDimension
 13
1287.0
 23
888.104698
 33
0.0
 14
1287.0
 24
708.104698
 34
0.0
 50
90.0
100
AcDbRotatedDimension
1001
ACAD
1000
DSTYLE
1002
{
1070
     6
1000
_EX_NORM
1070
     7
1000
_EX_NORM
1070
    41
1040
17.5
1070
    42
1040
3.5
1070
    44
1040
10.0
1070
    73
1070
     0
1070
    74
1070
     0
1070
    75
1070
     0
1070
    76
1070
     0
1070
    77
1070
     1
1070
    78
1070
     0
1070
   140
1040
20.0
1070
   147
1040
1.75
1070
   173
1070
     1
1070
   176
1070
     3
1070
   177
1070
     3
1070
   178
1070
     2
1070
   271
1070
     0
1070
   279
1070
     2
1070
   280
1070
     0
1070
   287
1070
     5
1070
   340
1005
425
1002
}
  0
DIMENSION
  5
50C
100
AcDbEntity
  8
寸法
  6
CONTINUOUS
 62
     3
100
AcDbDimension
  2
*D28
 10
1287.0
 20
673.104698
 30
0.0
 11
1202.0
 21
684.854698
 31
0.0
 70
   160
  3
STANDARD
100
AcDbAlignedDimension
 13
1117.0
 23
708.104698
 33
0.0
 14
1287.0
 24
708.104698
 34
0.0
100
AcDbRotatedDimension
1001
ACAD
1000
DSTYLE
1002
{
1070
     6
1000
_EX_NORM
1070
     7
1000
_EX_NORM
1070
    41
1040
17.5
1070
    42
1040
3.5
1070
    44
1040
10.0
1070
    73
1070
     0
1070
    74
1070
     0
1070
    75
1070
     0
1070
    76
1070
     0
1070
    77
1070
     1
1070
    78
1070
     0
1070
   140
1040
20.0
1070
   147
1040
1.75
1070
   173
1070
     1
1070
   176
1070
     3
1070
   177
1070
     3
1070
   178
1070
     2
1070
   271
1070
     0
1070
   279
1070
     2
1070
   280
1070
     0
1070
   287
1070
     5
1070
   340
1005
425
1002
}
  0
DIMENSION
  5
518
100
AcDbEntity
  8
寸法
  6
CONTINUOUS
 62
     3
100
AcDbDimension
  2
*D29
 10
358.601106
 20
390.104698
 30
0.0
 11
346.851106
 21
367.604698
 31
0.0
 70
   160
  3
STANDARD
100
AcDbAlignedDimension
 13
393.601106
 23
345.104698
 33
0.0
 14
430.901106
 24
390.104698
 34
0.0
 50
90.0
100
AcDbRotatedDimension
1001
ACAD
1000
DSTYLE
1002
{
1070
     6
1000
_EX_NORM
1070
     7
1000
_EX_NORM
1070
    41
1040
17.5
1070
    42
1040
3.5
1070
    44
1040
10.0
1070
    73
1070
     0
1070
    74
1070
     0
1070
    75
1070
     0
1070
    76
1070
     0
1070
    77
1070
     1
1070
    78
1070
     0
1070
   140
1040
20.0
1070
   147
1040
1.75
1070
   173
1070
     1
1070
   176
1070
     3
1070
   177
1070
     3
1070
   178
1070
     2
1070
   271
1070
     0
1070
   279
1070
     2
1070
   280
1070
     0
1070
   287
1070
     5
1070
   340
1005
425
1002
}
  0
DIMENSION
  5
524
100
AcDbEntity
  8
寸法
  6
CONTINUOUS
 62
     3
100
AcDbDimension
  2
*D30
 10
783.601106
 20
420.104698
 30
0.0
 11
771.851106
 21
382.604698
 31
0.0
 70
   160
  3
STANDARD
100
AcDbAlignedDimension
 13
748.601106
 23
345.104698
 33
0.0
 14
758.101106
 24
420.104698
 34
0.0
 50
90.0
100
AcDbRotatedDimension
1001
ACAD
1000
DSTYLE
1002
{
1070
     6
1000
_EX_NORM
1070
     7
1000
_EX_NORM
1070
    41
1040
17.5
1070
    42
1040
3.5
1070
    44
1040
10.0
1070
    73
1070
     0
1070
    74
1070
     0
1070
    75
1070
     0
1070
    76
1070
     0
1070
    77
1070
     1
1070
    78
1070
     0
1070
   140
1040
20.0
1070
   147
1040
1.75
1070
   173
1070
     1
1070
   176
1070
     3
1070
   177
1070
     3
1070
   178
1070
     2
1070
   271
1070
     0
1070
   279
1070
     2
1070
   280
1070
     0
1070
   287
1070
     5
1070
   340
1005
425
1002
}
  0
TEXT
  5
525
100
AcDbEntity
  8
寸法
  6
CONTINUOUS
 62
     2
100
AcDbText
 10
292.05
 20
415.25
 30
0.0
 40
20.0
  1
２－φ１４
 41
0.8106
  7
EXCADSTD
 72
     5
 11
388.55
 21
415.25
 31
0.0
100
AcDbText
  0
LINE
  5
526
100
AcDbEntity
  8
寸法
  6
CONTINUOUS
 62
     3
100
AcDbLine
 10
296.5
 20
413.5
 30
0.0
 11
379.3
 21
413.5
 31
0.0
  0
LEADER
  5
527
100
AcDbEntity
  8
寸法
  6
CONTINUOUS
 62
     3
100
AcDbLeader
  3
STANDARD
 73
     3
 74
     1
 75
     0
 40
0.0
 76
     2
 10
436.264409
 20
395.164971
 30
0.0
 10
379.3
 20
413.5
 30
0.0
 77
     3
1001
ACAD
1000
DSTYLE
1002
{
1070
    41
1040
17.5
1070
     5
1000
_EX_NORM
1070
     6
1000
_EX_NORM
1070
     7
1000
_EX_NORM
1070
   341
1005
28
1002
}
  0
LINE
  5
528
100
AcDbEntity
  8
寸法
  6
CONTINUOUS
 62
     7
100
AcDbLine
 10
571.101106
 20
1182.104698
 30
0.0
 11
566.101106
 21
1182.104698
 31
0.0
  0
LINE
  5
529
100
AcDbEntity
  8
寸法
  6
CONTINUOUS
 62
     7
100
AcDbLine
 10
571.101106
 20
1182.104698
 30
0.0
 11
571.101106
 21
1177.104698
 31
0.0
  0
LINE
  5
52A
100
AcDbEntity
  8
寸法
  6
CONTINUOUS
 62
     7
100
AcDbLine
 10
546.101106
 20
1182.104698
 30
0.0
 11
546.101106
 21
1187.104698
 31
0.0
  0
LINE
  5
52B
100
AcDbEntity
  8
寸法
  6
CONTINUOUS
 62
     7
100
AcDbLine
 10
546.101106
 20
1182.104698
 30
0.0
 11
551.101106
 21
1182.104698
 31
0.0
  0
DIMENSION
  5
536
100
AcDbEntity
  8
寸法
  6
CONTINUOUS
 62
     3
100
AcDbDimension
  2
*D31
 10
571.101106
 20
1087.104698
 30
0.0
 11
627.101106
 21
1098.854698
 31
0.0
 70
   160
  3
STANDARD
100
AcDbAlignedDimension
 13
683.101106
 23
1219.104698
 33
0.0
 14
571.101106
 24
1087.104698
 34
0.0
100
AcDbRotatedDimension
1001
ACAD
1000
DSTYLE
1002
{
1070
     6
1000
_EX_NORM
1070
     7
1000
_EX_NORM
1070
    41
1040
17.5
1070
    42
1040
0.0
1070
    44
1040
10.0
1070
    73
1070
     0
1070
    74
1070
     0
1070
    75
1070
     0
1070
    76
1070
     1
1070
    77
1070
     1
1070
    78
1070
     0
1070
   140
1040
20.0
1070
   147
1040
1.75
1070
   173
1070
     1
1070
   176
1070
     3
1070
   177
1070
     3
1070
   178
1070
     2
1070
   271
1070
     0
1070
   279
1070
     2
1070
   280
1070
     0
1070
   287
1070
     5
1070
   340
1005
425
1002
}
  0
DIMENSION
  5
53F
100
AcDbEntity
  8
寸法
  6
CONTINUOUS
 62
     3
100
AcDbDimension
  2
*D32
 10
546.101106
 20
1087.104698
 30
0.0
 11
508.101106
 21
1098.854698
 31
0.0
 70
   160
  3
STANDARD
100
AcDbAlignedDimension
 13
571.101106
 23
1087.104698
 33
0.0
 14
546.101106
 24
1182.104698
 34
0.0
100
AcDbRotatedDimension
1001
ACAD
1000
DSTYLE
1002
{
1070
     6
1000
_EX_NONE
1070
     7
1000
_EX_NORM
1070
    41
1040
17.5
1070
    42
1040
3.5
1070
    44
1040
10.0
1070
    73
1070
     0
1070
    74
1070
     0
1070
    75
1070
     1
1070
    76
1070
     0
1070
    77
1070
     1
1070
    78
1070
     0
1070
   140
1040
20.0
1070
   147
1040
1.75
1070
   173
1070
     1
1070
   176
1070
     3
1070
   177
1070
     3
1070
   178
1070
     2
1070
   271
1070
     0
1070
   279
1070
     2
1070
   280
1070
     2
1070
   287
1070
     5
1070
   340
1005
425
1002
}
  0
DIMENSION
  5
54A
100
AcDbEntity
  8
寸法
  6
CONTINUOUS
 62
     3
100
AcDbDimension
  2
*D33
 10
571.101106
 20
310.104698
 30
0.0
 11
596.101106
 21
321.854698
 31
0.0
 70
   160
  3
STANDARD
100
AcDbAlignedDimension
 13
621.101106
 23
310.104698
 33
0.0
 14
571.101106
 24
327.104698
 34
0.0
100
AcDbRotatedDimension
1001
ACAD
1000
DSTYLE
1002
{
1070
     6
1000
_EX_NORM
1070
     7
1000
_EX_NORM
1070
    41
1040
17.5
1070
    42
1040
0.0
1070
    44
1040
10.0
1070
    73
1070
     0
1070
    74
1070
     0
1070
    75
1070
     1
1070
    76
1070
     0
1070
    77
1070
     1
1070
    78
1070
     0
1070
   140
1040
20.0
1070
   147
1040
1.75
1070
   173
1070
     1
1070
   176
1070
     3
1070
   177
1070
     3
1070
   178
1070
     2
1070
   271
1070
     0
1070
   279
1070
     2
1070
   280
1070
     0
1070
   287
1070
     5
1070
   340
1005
425
1002
}
  0
LINE
  5
54B
100
AcDbEntity
  8
寸法
  6
CONTINUOUS
 62
     7
100
AcDbLine
 10
466.101106
 20
1242.104698
 30
0.0
 11
471.101106
 21
1242.104698
 31
0.0
  0
LINE
  5
54C
100
AcDbEntity
  8
寸法
  6
CONTINUOUS
 62
     7
100
AcDbLine
 10
466.101106
 20
1272.104698
 30
0.0
 11
466.101106
 21
1267.104698
 31
0.0
  0
LINE
  5
54D
100
AcDbEntity
  8
寸法
  6
CONTINUOUS
 62
     7
100
AcDbLine
 10
466.101106
 20
1272.104698
 30
0.0
 11
461.101106
 21
1272.104698
 31
0.0
  0
DIMENSION
  5
559
100
AcDbEntity
  8
寸法
  6
CONTINUOUS
 62
     3
100
AcDbDimension
  2
*D34
 10
369.2
 20
1317.104698
 30
0.0
 11
357.45
 21
1294.604698
 31
0.0
 70
   160
  3
STANDARD
100
AcDbAlignedDimension
 13
370.351106
 23
1272.104698
 33
0.0
 14
393.601106
 24
1317.104698
 34
0.0
 50
90.0
100
AcDbRotatedDimension
1001
ACAD
1000
DSTYLE
1002
{
1070
     6
1000
_EX_NORM
1070
     7
1000
_EX_NORM
1070
    41
1040
17.5
1070
    42
1040
3.5
1070
    44
1040
10.0
1070
    73
1070
     0
1070
    74
1070
     0
1070
    75
1070
     0
1070
    76
1070
     0
1070
    77
1070
     1
1070
    78
1070
     0
1070
   140
1040
20.0
1070
   147
1040
1.75
1070
   173
1070
     1
1070
   176
1070
     3
1070
   177
1070
     3
1070
   178
1070
     2
1070
   271
1070
     0
1070
   279
1070
     2
1070
   280
1070
     0
1070
   287
1070
     5
1070
   340
1005
425
1002
}
  0
LINE
  5
55A
100
AcDbEntity
  8
寸法
  6
CONTINUOUS
 62
     7
100
AcDbLine
 10
320.05
 20
1272.104698
 30
0.0
 11
345.8
 21
1272.104698
 31
0.0
  0
LINE
  5
55B
100
AcDbEntity
  8
寸法
  6
CONTINUOUS
 62
     3
100
AcDbLine
 10
332.628268
 20
1272.104698
 30
0.0
 11
332.628268
 21
1247.104698
 31
0.0
  0
LINE
  5
55C
100
AcDbEntity
  8
寸法
  6
CONTINUOUS
 62
     3
100
AcDbLine
 10
332.628268
 20
1272.104698
 30
0.0
 11
328.098934
 21
1255.200997
 31
0.0
  0
LINE
  5
55D
100
AcDbEntity
  8
寸法
  6
CONTINUOUS
 62
     3
100
AcDbLine
 10
332.628268
 20
1272.104698
 30
0.0
 11
337.157601
 21
1255.200997
 31
0.0
  0
TEXT
  5
55E
100
AcDbEntity
  8
寸法
  6
CONTINUOUS
 62
     2
100
AcDbText
 10
322.928268
 20
1226.925737
 30
0.0
 40
20.0
  1
Ａ
 41
0.945
  7
EXCADSTD
 72
     5
 11
340.928268
 21
1226.925737
 31
0.0
100
AcDbText
  0
ENDSEC
  0
SECTION
  2
OBJECTS
  0
DICTIONARY
  5
19
100
AcDbDictionary
  3
ACAD_GROUP
350
1A
  3
ACAD_MLINESTYLE
350
1B
  0
DICTIONARY
  5
1A
102
{ACAD_REACTORS
330
19
102
}
100
AcDbDictionary
  0
DICTIONARY
  5
1B
102
{ACAD_REACTORS
330
19
102
}
100
AcDbDictionary
  3
STANDARD
350
1C
  0
MLINESTYLE
  5
1C
102
{ACAD_REACTORS
330
1B
102
}
100
AcDbMlineStyle
  2
Standard
 70
     0
  3

 62
     0
 51
90.0
 52
90.0
 71
     2
 49
0.5
 62
   256
  6
ByLayer
 49
-0.5
 62
   256
  6
ByLayer
  0
ENDSEC
  0
EOF
