  0
SECTION
  2
HEADER
  9
$ACADVER
  1
AC1014
  9
$ACADMAINTVER
 70
     0
  9
$DWGCODEPAGE
  3
ANSI_932
  9
$INSBASE
 10
0.0
 20
0.0
 30
0.0
  9
$EXTMIN
 10
0.0
 20
11.5
 30
0.0
  9
$EXTMAX
 10
200.0
 20
289.5
 30
0.0
  9
$LIMMIN
 10
0.0
 20
0.0
  9
$LIMMAX
 10
210.0
 20
297.0
  9
$ORTHOMODE
 70
     0
  9
$REGENMODE
 70
     1
  9
$FILLMODE
 70
     1
  9
$QTEXTMODE
 70
     0
  9
$MIRRTEXT
 70
     1
  9
$DRAGMODE
 70
     2
  9
$LTSCALE
 40
1.0
  9
$OSMODE
 70
     0
  9
$ATTMODE
 70
     1
  9
$TEXTSIZE
 40
0.2
  9
$TRACEWID
 40
0.05
  9
$TEXTSTYLE
  7
STANDARD
  9
$CLAYER
  8
LAY-2
  9
$CELTYPE
  6
CONTINUOUS
  9
$CECOLOR
 62
   256
  9
$CELTSCALE
 40
1.0
  9
$DELOBJ
 70
     1
  9
$DISPSILH
 70
     0
  9
$DIMSCALE
 40
1.0
  9
$DIMASZ
 40
0.18
  9
$DIMEXO
 40
0.0625
  9
$DIMDLI
 40
0.38
  9
$DIMRND
 40
0.0
  9
$DIMDLE
 40
0.0
  9
$DIMEXE
 40
0.18
  9
$DIMTP
 40
0.0
  9
$DIMTM
 40
0.0
  9
$DIMTXT
 40
0.18
  9
$DIMCEN
 40
0.09
  9
$DIMTSZ
 40
0.0
  9
$DIMTOL
 70
     0
  9
$DIMLIM
 70
     0
  9
$DIMTIH
 70
     1
  9
$DIMTOH
 70
     1
  9
$DIMSE1
 70
     0
  9
$DIMSE2
 70
     0
  9
$DIMTAD
 70
     0
  9
$DIMZIN
 70
     0
  9
$DIMBLK
  1

  9
$DIMASO
 70
     1
  9
$DIMSHO
 70
     1
  9
$DIMPOST
  1

  9
$DIMAPOST
  1

  9
$DIMALT
 70
     0
  9
$DIMALTD
 70
     2
  9
$DIMALTF
 40
25.4
  9
$DIMLFAC
 40
1.0
  9
$DIMTOFL
 70
     0
  9
$DIMTVP
 40
0.0
  9
$DIMTIX
 70
     0
  9
$DIMSOXD
 70
     0
  9
$DIMSAH
 70
     0
  9
$DIMBLK1
  1

  9
$DIMBLK2
  1

  9
$DIMSTYLE
  2
STANDARD
  9
$DIMCLRD
 70
     0
  9
$DIMCLRE
 70
     0
  9
$DIMCLRT
 70
     0
  9
$DIMTFAC
 40
1.0
  9
$DIMGAP
 40
0.09
  9
$DIMJUST
 70
     0
  9
$DIMSD1
 70
     0
  9
$DIMSD2
 70
     0
  9
$DIMTOLJ
 70
     1
  9
$DIMTZIN
 70
     0
  9
$DIMALTZ
 70
     0
  9
$DIMALTTZ
 70
     0
  9
$DIMFIT
 70
     3
  9
$DIMUPT
 70
     0
  9
$DIMUNIT
 70
     2
  9
$DIMDEC
 70
     4
  9
$DIMTDEC
 70
     4
  9
$DIMALTU
 70
     2
  9
$DIMALTTD
 70
     2
  9
$DIMTXSTY
  7
STANDARD
  9
$DIMAUNIT
 70
     0
  9
$LUNITS
 70
     2
  9
$LUPREC
 70
     4
  9
$SKETCHINC
 40
0.1
  9
$FILLETRAD
 40
0.0
  9
$AUNITS
 70
     0
  9
$AUPREC
 70
     0
  9
$MENU
  1
acad
  9
$ELEVATION
 40
0.0
  9
$PELEVATION
 40
0.0
  9
$THICKNESS
 40
0.0
  9
$LIMCHECK
 70
     0
  9
$BLIPMODE
 70
     1
  9
$CHAMFERA
 40
0.0
  9
$CHAMFERB
 40
0.0
  9
$CHAMFERC
 40
0.0
  9
$CHAMFERD
 40
0.0
  9
$SKPOLY
 70
     0
  9
$TDCREATE
 40
2456238.167473380
  9
$TDUPDATE
 40
2456238.167473380
  9
$TDINDWG
 40
0.0000000000
  9
$TDUSRTIMER
 40
0.0000000000
  9
$USRTIMER
 70
     1
  9
$ANGBASE
 50
0.0
  9
$ANGDIR
 70
     0
  9
$PDMODE
 70
     0
  9
$PDSIZE
 40
0.0
  9
$PLINEWID
 40
0.0
  9
$COORDS
 70
     1
  9
$SPLFRAME
 70
     0
  9
$SPLINETYPE
 70
     6
  9
$SPLINESEGS
 70
     8
  9
$ATTDIA
 70
     0
  9
$ATTREQ
 70
     1
  9
$HANDLING
 70
     1
  9
$HANDSEED
  5
3BB
  9
$SURFTAB1
 70
     6
  9
$SURFTAB2
 70
     6
  9
$SURFTYPE
 70
     6
  9
$SURFU
 70
     6
  9
$SURFV
 70
     6
  9
$UCSNAME
  2

  9
$UCSORG
 10
0.0
 20
0.0
 30
0.0
  9
$UCSXDIR
 10
1.0
 20
0.0
 30
0.0
  9
$UCSYDIR
 10
0.0
 20
1.0
 30
0.0
  9
$PUCSNAME
  2

  9
$PUCSORG
 10
0.0
 20
0.0
 30
0.0
  9
$PUCSXDIR
 10
1.0
 20
0.0
 30
0.0
  9
$PUCSYDIR
 10
0.0
 20
1.0
 30
0.0
  9
$USERI1
 70
     0
  9
$USERI2
 70
     0
  9
$USERI3
 70
     0
  9
$USERI4
 70
     0
  9
$USERI5
 70
     0
  9
$USERR1
 40
0.0
  9
$USERR2
 40
0.0
  9
$USERR3
 40
0.0
  9
$USERR4
 40
0.0
  9
$USERR5
 40
0.0
  9
$WORLDVIEW
 70
     1
  9
$SHADEDGE
 70
     3
  9
$SHADEDIF
 70
    70
  9
$TILEMODE
 70
     1
  9
$MAXACTVP
 70
    16
  9
$PINSBASE
 10
0.0
 20
0.0
 30
0.0
  9
$PLIMCHECK
 70
     0
  9
$PEXTMIN
 10
1.000000E+20
 20
1.000000E+20
 30
1.000000E+20
  9
$PEXTMAX
 10
-1.000000E+20
 20
-1.000000E+20
 30
-1.000000E+20
  9
$PLIMMIN
 10
0.0
 20
0.0
  9
$PLIMMAX
 10
12.0
 20
9.0
  9
$UNITMODE
 70
     0
  9
$VISRETAIN
 70
     0
  9
$PLINEGEN
 70
     1
  9
$PSLTSCALE
 70
     0
  9
$TREEDEPTH
 70
  3020
  9
$PICKSTYLE
 70
     1
  9
$CMLSTYLE
  2
Standard
  9
$CMLJUST
 70
     0
  9
$CMLSCALE
 40
1.0
  9
$PROXYGRAPHICS
 70
     0
  9
$MEASUREMENT
 70
     0
  0
ENDSEC
  0
SECTION
  2
CLASSES
  0
CLASS
  1
LWPOLYLINE
  2
AcDbPolyline
  3
"AutoCAD"
 90
        0
280
     0
281
     1
  0
CLASS
  1
IMAGE
  2
AcDbRasterImage
  3
ISM
 90
      127
280
     0
281
     1
  0
CLASS
  1
OLE2FRAME
  2
AcDbOle2Frame
  3
""
 90
        0
280
     0
281
     1
  0
CLASS
  1
HATCH
  2
AcDbHatch
  3
"ACAD_SEDONA"
 90
        0
280
     0
281
     1
  0
CLASS
  1
DICTIONARYVAR
  2
AcDbDictionaryVar
  3
"AutoCAD"
 90
        0
280
     0
281
     0
  0
CLASS
  1
RASTERVARIABLES
  2
AcDbRasterVariables
  3
ISM
 90
        0
280
     0
281
     0
  0
CLASS
  1
IMAGEDEF
  2
AcDbRasterImageDef
  3
ISM
 90
        0
280
     0
281
     0
  0
CLASS
  1
IMAGEDEF_REACTOR
  2
AcDbRasterImageDefReactor
  3
ISM
 90
        1
280
     0
281
     0
  0
CLASS
  1
IDBUFFER
  2
AcDbIdBuffer
  3
"Acad"
 90
        0
280
     0
281
     0
  0
CLASS
  1
SPATIAL_FILTER
  2
AcDbSpatialFilter
  3
"Acad"
 90
        0
280
     0
281
     0
  0
CLASS
  1
XRECORD
  2
AcDbXrecord
  3
"<Built In>"
 90
        0
280
     0
281
     0
  0
CLASS
  1
SORTENTSTABLE
  2
AcDbSortentsTable
  3
"AutoCAD"
 90
        0
280
     0
281
     0
  0
CLASS
  1
LAYER_INDEX
  2
AcDbLayerIndex
  3
"Acad"
 90
        0
280
     0
281
     0
  0
CLASS
  1
SPATIAL_INDEX
  2
AcDbSpatialIndex
  3
"Acad"
 90
        0
280
     0
281
     0
  0
CLASS
  1
OBJECT_PTR
  2
CAseDLPNTableRecord
  3
"ASE-LPNTableRecord"
 90
        1
280
     0
281
     0
  0
CLASS
  1
LAYOUT
  2
AcDbLayout
  3
"AutoCAD 2000"
 90
        1
280
     0
281
     0
  0
CLASS
  1
PLOTSETTINGS
  2
AcDbPlotSettings
  3
"AutoCAD 2000"
 90
        1
280
     0
281
     0
  0
CLASS
  1
ACDBDICTIONARYWDFLT
  2
AcDbDictionaryWithDefault
  3
"AutoCAD 2000"
 90
        1
280
     0
281
     0
  0
CLASS
  1
ACDBPLACEHOLDER
  2
AcDbPlaceHolder
  3
"AutoCAD 2000"
 90
        1
280
     0
281
     0
  0
CLASS
  1
VBA_PROJECT
  2
AcDbVbaProject
  3
"acadvba"
 90
        1
280
     0
281
     0
  0
CLASS
  1
WIPEOUT
  2
AcDbWipeout
  3
WipeOut|AutoCAD Express Tool|expresstools@autodesk.com
 90
      127
280
     0
281
     1
  0
CLASS
  1
WIPEOUTVARIABLES
  2
AcDbWipeoutVariables
  3
WipeOut|AutoCAD Express Tool|expresstools@autodesk.com
 90
        0
280
     0
281
     0
  0
CLASS
  1
RTEXT
  2
RText
  3
RText|AutoCAD Express Tool|expresstools@autodesk.com
 90
        0
280
     0
281
     1
  0
CLASS
  1
ARCALIGNEDTEXT
  2
AcDbArcAlignedText
  3
ATEXT|AutoCAD Express Tool|expresstools@autodesk.com
 90
        0
280
     0
281
     1
  0
ENDSEC
  0
SECTION
  2
TABLES
  0
TABLE
  2
VPORT
  5
7
100
AcDbSymbolTable
 70
     1
  0
VPORT
  5
15
100
AcDbSymbolTableRecord
100
AcDbViewportTableRecord
  2
*ACTIVE
 70
     0
 10
0.0
 20
0.0
 11
1.0
 21
1.0
 12
1000.0
 22
1505.0
 13
0.0
 23
0.0
 14
1.0
 24
1.0
 15
0.0
 25
0.0
 16
0.0
 26
0.0
 36
1.0
 17
0.0
 27
0.0
 37
0.0
 40
2780.0
 41
1.722533
 42
50.0
 43
0.0
 44
0.0
 50
0.0
 51
0.0
 71
     0
 72
   100
 73
     1
 74
     1
 75
     0
 76
     0
 77
     0
 78
     0
  0
ENDTAB
  0
TABLE
  2
LTYPE
  5
4
100
AcDbSymbolTable
 70
     9
  0
LTYPE
  5
11
100
AcDbSymbolTableRecord
100
AcDbLinetypeTableRecord
  2
BYBLOCK
 70
    64
  3

 72
    65
 73
     0
 40
0.0
  0
LTYPE
  5
12
100
AcDbSymbolTableRecord
100
AcDbLinetypeTableRecord
  2
BYLAYER
 70
    64
  3

 72
    65
 73
     0
 40
0.0
  0
LTYPE
  5
13
100
AcDbSymbolTableRecord
100
AcDbLinetypeTableRecord
  2
CONTINUOUS
 70
    64
  3
実線
 72
    65
 73
     0
 40
0.0
  0
LTYPE
  5
1D
100
AcDbSymbolTableRecord
100
AcDbLinetypeTableRecord
  2
EXLTYPE1
 70
    64
  3
破線
 72
    65
 73
     2
 40
3.0
 49
2.0
 74
     0
 49
-1.0
 74
     0
  0
LTYPE
  5
1E
100
AcDbSymbolTableRecord
100
AcDbLinetypeTableRecord
  2
EXLTYPE2
 70
    64
  3
点線
 72
    65
 73
     2
 40
2.0
 49
1.0
 74
     0
 49
-1.0
 74
     0
  0
LTYPE
  5
1F
100
AcDbSymbolTableRecord
100
AcDbLinetypeTableRecord
  2
EXLTYPE3
 70
    64
  3
一点鎖線
 72
    65
 73
     4
 40
10.0
 49
7.0
 74
     0
 49
-1.0
 74
     0
 49
1.0
 74
     0
 49
-1.0
 74
     0
  0
LTYPE
  5
20
100
AcDbSymbolTableRecord
100
AcDbLinetypeTableRecord
  2
EXLTYPE4
 70
    64
  3
二点鎖線
 72
    65
 73
     6
 40
12.0
 49
7.0
 74
     0
 49
-1.0
 74
     0
 49
1.0
 74
     0
 49
-1.0
 74
     0
 49
1.0
 74
     0
 49
-1.0
 74
     0
  0
LTYPE
  5
21
100
AcDbSymbolTableRecord
100
AcDbLinetypeTableRecord
  2
EXLTYPE5
 70
    64
  3
三点鎖線
 72
    65
 73
     8
 40
37.0
 49
30.0
 74
     0
 49
-1.0
 74
     0
 49
1.0
 74
     0
 49
-1.0
 74
     0
 49
1.0
 74
     0
 49
-1.0
 74
     0
 49
1.0
 74
     0
 49
-1.0
 74
     0
  0
LTYPE
  5
22
100
AcDbSymbolTableRecord
100
AcDbLinetypeTableRecord
  2
EXLTYPE6
 70
    64
  3
四点鎖線
 72
    65
 73
    10
 40
39.0
 49
30.0
 74
     0
 49
-1.0
 74
     0
 49
1.0
 74
     0
 49
-1.0
 74
     0
 49
1.0
 74
     0
 49
-1.0
 74
     0
 49
1.0
 74
     0
 49
-1.0
 74
     0
 49
1.0
 74
     0
 49
-1.0
 74
     0
  0
ENDTAB
  0
TABLE
  2
LAYER
  5
2
100
AcDbSymbolTable
 70
     4
  0
LAYER
  5
14
100
AcDbSymbolTableRecord
100
AcDbLayerTableRecord
  2
0
 70
     0
 62
     7
  6
CONTINUOUS
  0
LAYER
  5
25
100
AcDbSymbolTableRecord
100
AcDbLayerTableRecord
  2
LAY-1
 70
    64
 62
     7
  6
CONTINUOUS
  0
LAYER
  5
26
100
AcDbSymbolTableRecord
100
AcDbLayerTableRecord
  2
LAY-2
 70
    64
 62
     7
  6
CONTINUOUS
  0
LAYER
  5
27
100
AcDbSymbolTableRecord
100
AcDbLayerTableRecord
  2
LAY-3
 70
    64
 62
     7
  6
CONTINUOUS
  0
ENDTAB
  0
TABLE
  2
STYLE
  5
3
100
AcDbSymbolTable
 70
     5
  0
STYLE
  5
17
100
AcDbSymbolTableRecord
100
AcDbTextStyleTableRecord
  2
STANDARD
 70
     0
 40
0.0
 41
1.0
 50
0.0
 71
     0
 42
0.0
  3
monotxt
  4
extfont
  0
STYLE
  5
23
100
AcDbSymbolTableRecord
100
AcDbTextStyleTableRecord
  2
EXCADSTD
 70
    64
 40
0.0
 41
1.0
 50
0.0
 71
     0
 42
0.2
  3
monotxt
  4
extfont
  0
STYLE
  5
24
100
AcDbSymbolTableRecord
100
AcDbTextStyleTableRecord
  2
EXCADVERT
 70
    68
 40
0.0
 41
1.0
 50
0.0
 71
     0
 42
0.286885
  3
monotxt
  4
extfont
  0
STYLE
  5
AE
100
AcDbSymbolTableRecord
100
AcDbTextStyleTableRecord
  2
EXCADTTF1
 70
    64
 40
0.0
 41
1.0
 50
0.0
 71
     0
 42
0.2
  3
MS Gothic.ttf
  4

1001
ACAD
1000
MS Gothic
1071
    32817
  0
STYLE
  5
3B9
100
AcDbSymbolTableRecord
100
AcDbTextStyleTableRecord
  2
EXCADDIM1
 70
    64
 40
0.0
 41
0.84
 50
0.0
 71
     0
 42
0.2
  3
monotxt
  4
extfont
  0
ENDTAB
  0
TABLE
  2
VIEW
  5
5
100
AcDbSymbolTable
 70
     0
  0
ENDTAB
  0
TABLE
  2
UCS
  5
6
100
AcDbSymbolTable
 70
     0
  0
ENDTAB
  0
TABLE
  2
APPID
  5
8
100
AcDbSymbolTable
 70
     1
  0
APPID
  5
16
100
AcDbSymbolTableRecord
100
AcDbRegAppTableRecord
  2
ACAD
 70
     0
  0
ENDTAB
  0
TABLE
  2
DIMSTYLE
  5
9
100
AcDbSymbolTable
 70
     1
  0
DIMSTYLE
105
18
100
AcDbSymbolTableRecord
100
AcDbDimStyleTableRecord
  2
STANDARD
 70
     0
  3

  4

  5

  6

  7

 40
1.0
 41
0.18
 42
0.0625
 43
0.38
 44
0.18
 45
0.0
 46
0.0
 47
0.0
 48
0.0
 71
     0
 72
     0
 73
     1
 74
     1
 75
     0
 76
     0
 77
     0
 78
     0
140
0.18
141
0.09
142
0.0
143
25.4
144
1.0
145
0.0
146
1.0
147
0.09
170
     0
171
     2
172
     1
173
     0
174
     0
175
     0
176
     0
177
     0
178
     0
270
     2
271
     4
272
     4
273
     2
274
     2
275
     0
280
     0
281
     0
282
     0
283
     1
284
     0
285
     0
286
     0
287
     0
288
     0
340
17
  0
ENDTAB
  0
TABLE
  2
BLOCK_RECORD
  5
1
100
AcDbSymbolTable
 70
    15
  0
BLOCK_RECORD
  5
A
100
AcDbSymbolTableRecord
100
AcDbBlockTableRecord
  2
*MODEL_SPACE
  0
BLOCK_RECORD
  5
B
100
AcDbSymbolTableRecord
100
AcDbBlockTableRecord
  2
*PAPER_SPACE
  0
BLOCK_RECORD
  5
28
100
AcDbSymbolTableRecord
100
AcDbBlockTableRecord
  2
_EX_NORM
  0
BLOCK_RECORD
  5
29
100
AcDbSymbolTableRecord
100
AcDbBlockTableRecord
  2
_EX_BNORM
  0
BLOCK_RECORD
  5
2A
100
AcDbSymbolTableRecord
100
AcDbBlockTableRecord
  2
_EX_BCIR
  0
BLOCK_RECORD
  5
2B
100
AcDbSymbolTableRecord
100
AcDbBlockTableRecord
  2
_EX_RCIVIL
  0
BLOCK_RECORD
  5
2C
100
AcDbSymbolTableRecord
100
AcDbBlockTableRecord
  2
_EX_SLANT
  0
BLOCK_RECORD
  5
2D
100
AcDbSymbolTableRecord
100
AcDbBlockTableRecord
  2
_EX_NONE
  0
BLOCK_RECORD
  5
2E
100
AcDbSymbolTableRecord
100
AcDbBlockTableRecord
  2
_EX_CIVIL
  0
BLOCK_RECORD
  5
2F
100
AcDbSymbolTableRecord
100
AcDbBlockTableRecord
  2
_EX_WCIR
  0
BLOCK_RECORD
  5
30
100
AcDbSymbolTableRecord
100
AcDbBlockTableRecord
  2
_EX_WCIR2
  0
BLOCK_RECORD
  5
31
100
AcDbSymbolTableRecord
100
AcDbBlockTableRecord
  2
_EX_WNORM
  0
BLOCK_RECORD
  5
32
100
AcDbSymbolTableRecord
100
AcDbBlockTableRecord
  2
_EX_NNORM
  0
BLOCK_RECORD
  5
33
100
AcDbSymbolTableRecord
100
AcDbBlockTableRecord
  2
_EX_BBOX
  0
BLOCK_RECORD
  5
34
100
AcDbSymbolTableRecord
100
AcDbBlockTableRecord
  2
_EX_WBOX
  0
BLOCK_RECORD
  5
35
100
AcDbSymbolTableRecord
100
AcDbBlockTableRecord
  2
_EX_INTEGRAL
  0
BLOCK_RECORD
  5
3AE
100
AcDbSymbolTableRecord
100
AcDbBlockTableRecord
  2
*D14
  0
ENDTAB
  0
ENDSEC
  0
SECTION
  2
BLOCKS
  0
BLOCK
  5
D
100
AcDbEntity
  8
0
100
AcDbBlockBegin
  2
*MODEL_SPACE
 70
     0
 10
0.0
 20
0.0
 30
0.0
  3
*MODEL_SPACE
  1

  0
ENDBLK
  5
E
100
AcDbEntity
  8
0
100
AcDbBlockEnd
  0
BLOCK
  5
F
100
AcDbEntity
 67
     1
  8
0
100
AcDbBlockBegin
  2
*PAPER_SPACE
 70
     0
 10
0.0
 20
0.0
 30
0.0
  3
*PAPER_SPACE
  1

  0
ENDBLK
  5
10
100
AcDbEntity
 67
     1
  8
0
100
AcDbBlockEnd
  0
BLOCK
  5
36
100
AcDbEntity
  8
0
100
AcDbBlockBegin
  2
_EX_NORM
 70
     0
 10
0.0
 20
0.0
 30
0.0
  3
_EX_NORM
  1

  0
LINE
  5
37
100
AcDbEntity
  8
0
  6
CONTINUOUS
 62
     0
100
AcDbLine
 10
0.0
 20
0.0
 30
0.0
 11
-1.0
 21
0.0
 31
0.0
  0
LINE
  5
38
100
AcDbEntity
  8
0
  6
CONTINUOUS
 62
     0
100
AcDbLine
 10
0.0
 20
0.0
 30
0.0
 11
-1.0
 21
0.166667
 31
0.0
  0
LINE
  5
39
100
AcDbEntity
  8
0
  6
CONTINUOUS
 62
     0
100
AcDbLine
 10
0.0
 20
0.0
 30
0.0
 11
-1.0
 21
-0.166667
 31
0.0
  0
ENDBLK
  5
3A
100
AcDbEntity
  8
0
100
AcDbBlockEnd
  0
BLOCK
  5
3B
100
AcDbEntity
  8
0
100
AcDbBlockBegin
  2
_EX_BNORM
 70
     0
 10
0.0
 20
0.0
 30
0.0
  3
_EX_BNORM
  1

  0
LINE
  5
3C
100
AcDbEntity
  8
0
  6
CONTINUOUS
 62
     0
100
AcDbLine
 10
0.0
 20
0.0
 30
0.0
 11
-1.0
 21
0.0
 31
0.0
  0
LINE
  5
3D
100
AcDbEntity
  8
0
  6
CONTINUOUS
 62
     0
100
AcDbLine
 10
0.0
 20
0.0
 30
0.0
 11
-1.0
 21
0.166667
 31
0.0
  0
LINE
  5
3E
100
AcDbEntity
  8
0
  6
CONTINUOUS
 62
     0
100
AcDbLine
 10
0.0
 20
0.0
 30
0.0
 11
-1.0
 21
-0.166667
 31
0.0
  0
LINE
  5
3F
100
AcDbEntity
  8
0
  6
CONTINUOUS
 62
     0
100
AcDbLine
 10
0.0
 20
0.0
 30
0.0
 11
-1.0
 21
0.083333
 31
0.0
  0
LINE
  5
40
100
AcDbEntity
  8
0
  6
CONTINUOUS
 62
     0
100
AcDbLine
 10
0.0
 20
0.0
 30
0.0
 11
-1.0
 21
-0.083333
 31
0.0
  0
LINE
  5
41
100
AcDbEntity
  8
0
  6
CONTINUOUS
 62
     0
100
AcDbLine
 10
-1.0
 20
0.166667
 30
0.0
 11
-1.0
 21
-0.166667
 31
0.0
  0
ENDBLK
  5
42
100
AcDbEntity
  8
0
100
AcDbBlockEnd
  0
BLOCK
  5
43
100
AcDbEntity
  8
0
100
AcDbBlockBegin
  2
_EX_BCIR
 70
     0
 10
0.0
 20
0.0
 30
0.0
  3
_EX_BCIR
  1

  0
LINE
  5
44
100
AcDbEntity
  8
0
  6
CONTINUOUS
 62
     0
100
AcDbLine
 10
0.0
 20
0.0
 30
0.0
 11
-1.0
 21
0.0
 31
0.0
  0
CIRCLE
  5
45
100
AcDbEntity
  8
0
  6
CONTINUOUS
 62
     0
100
AcDbCircle
 10
0.0
 20
0.0
 30
0.0
 40
0.5
  0
CIRCLE
  5
46
100
AcDbEntity
  8
0
  6
CONTINUOUS
 62
     0
100
AcDbCircle
 10
0.0
 20
0.0
 30
0.0
 40
0.25
  0
ENDBLK
  5
47
100
AcDbEntity
  8
0
100
AcDbBlockEnd
  0
BLOCK
  5
48
100
AcDbEntity
  8
0
100
AcDbBlockBegin
  2
_EX_RCIVIL
 70
     0
 10
0.0
 20
0.0
 30
0.0
  3
_EX_RCIVIL
  1

  0
LINE
  5
49
100
AcDbEntity
  8
0
  6
CONTINUOUS
 62
     0
100
AcDbLine
 10
0.0
 20
0.0
 30
0.0
 11
-1.0
 21
0.0
 31
0.0
  0
LINE
  5
4A
100
AcDbEntity
  8
0
  6
CONTINUOUS
 62
     0
100
AcDbLine
 10
-1.0
 20
-0.25
 30
0.0
 11
0.0
 21
-0.25
 31
0.0
  0
LINE
  5
4B
100
AcDbEntity
  8
0
  6
CONTINUOUS
 62
     0
100
AcDbLine
 10
-1.0
 20
-0.125
 30
0.0
 11
0.0
 21
-0.125
 31
0.0
  0
ENDBLK
  5
4C
100
AcDbEntity
  8
0
100
AcDbBlockEnd
  0
BLOCK
  5
4D
100
AcDbEntity
  8
0
100
AcDbBlockBegin
  2
_EX_SLANT
 70
     0
 10
0.0
 20
0.0
 30
0.0
  3
_EX_SLANT
  1

  0
LINE
  5
4E
100
AcDbEntity
  8
0
  6
CONTINUOUS
 62
     0
100
AcDbLine
 10
0.0
 20
0.0
 30
0.0
 11
-1.0
 21
0.0
 31
0.0
  0
LINE
  5
4F
100
AcDbEntity
  8
0
  6
CONTINUOUS
 62
     0
100
AcDbLine
 10
0.707107
 20
0.707107
 30
0.0
 11
-0.707107
 21
-0.707107
 31
0.0
  0
ENDBLK
  5
50
100
AcDbEntity
  8
0
100
AcDbBlockEnd
  0
BLOCK
  5
51
100
AcDbEntity
  8
0
100
AcDbBlockBegin
  2
_EX_NONE
 70
     0
 10
0.0
 20
0.0
 30
0.0
  3
_EX_NONE
  1

  0
LINE
  5
52
100
AcDbEntity
  8
0
  6
CONTINUOUS
 62
     0
100
AcDbLine
 10
0.0
 20
0.0
 30
0.0
 11
-1.0
 21
0.0
 31
0.0
  0
ENDBLK
  5
53
100
AcDbEntity
  8
0
100
AcDbBlockEnd
  0
BLOCK
  5
54
100
AcDbEntity
  8
0
100
AcDbBlockBegin
  2
_EX_CIVIL
 70
     0
 10
0.0
 20
0.0
 30
0.0
  3
_EX_CIVIL
  1

  0
LINE
  5
55
100
AcDbEntity
  8
0
  6
CONTINUOUS
 62
     0
100
AcDbLine
 10
0.0
 20
0.0
 30
0.0
 11
-1.0
 21
0.0
 31
0.0
  0
LINE
  5
56
100
AcDbEntity
  8
0
  6
CONTINUOUS
 62
     0
100
AcDbLine
 10
-1.0
 20
0.25
 30
0.0
 11
0.0
 21
0.25
 31
0.0
  0
LINE
  5
57
100
AcDbEntity
  8
0
  6
CONTINUOUS
 62
     0
100
AcDbLine
 10
-1.0
 20
0.125
 30
0.0
 11
0.0
 21
0.125
 31
0.0
  0
ENDBLK
  5
58
100
AcDbEntity
  8
0
100
AcDbBlockEnd
  0
BLOCK
  5
59
100
AcDbEntity
  8
0
100
AcDbBlockBegin
  2
_EX_WCIR
 70
     0
 10
0.0
 20
0.0
 30
0.0
  3
_EX_WCIR
  1

  0
LINE
  5
5A
100
AcDbEntity
  8
0
  6
CONTINUOUS
 62
     0
100
AcDbLine
 10
0.0
 20
0.0
 30
0.0
 11
-1.0
 21
0.0
 31
0.0
  0
CIRCLE
  5
5B
100
AcDbEntity
  8
0
  6
CONTINUOUS
 62
     0
100
AcDbCircle
 10
0.0
 20
0.0
 30
0.0
 40
0.5
  0
ENDBLK
  5
5C
100
AcDbEntity
  8
0
100
AcDbBlockEnd
  0
BLOCK
  5
5D
100
AcDbEntity
  8
0
100
AcDbBlockBegin
  2
_EX_WCIR2
 70
     0
 10
0.0
 20
0.0
 30
0.0
  3
_EX_WCIR2
  1

  0
LINE
  5
5E
100
AcDbEntity
  8
0
  6
CONTINUOUS
 62
     0
100
AcDbLine
 10
-0.5
 20
0.0
 30
0.0
 11
-1.0
 21
0.0
 31
0.0
  0
CIRCLE
  5
5F
100
AcDbEntity
  8
0
  6
CONTINUOUS
 62
     0
100
AcDbCircle
 10
0.0
 20
0.0
 30
0.0
 40
0.5
  0
ENDBLK
  5
60
100
AcDbEntity
  8
0
100
AcDbBlockEnd
  0
BLOCK
  5
61
100
AcDbEntity
  8
0
100
AcDbBlockBegin
  2
_EX_WNORM
 70
     0
 10
0.0
 20
0.0
 30
0.0
  3
_EX_WNORM
  1

  0
LINE
  5
62
100
AcDbEntity
  8
0
  6
CONTINUOUS
 62
     0
100
AcDbLine
 10
-1.0
 20
0.0
 30
0.0
 11
-1.0
 21
0.0
 31
0.0
  0
LINE
  5
63
100
AcDbEntity
  8
0
  6
CONTINUOUS
 62
     0
100
AcDbLine
 10
0.0
 20
0.0
 30
0.0
 11
-1.0
 21
0.166667
 31
0.0
  0
LINE
  5
64
100
AcDbEntity
  8
0
  6
CONTINUOUS
 62
     0
100
AcDbLine
 10
0.0
 20
0.0
 30
0.0
 11
-1.0
 21
-0.166667
 31
0.0
  0
LINE
  5
65
100
AcDbEntity
  8
0
  6
CONTINUOUS
 62
     0
100
AcDbLine
 10
-1.0
 20
0.166667
 30
0.0
 11
-1.0
 21
-0.166667
 31
0.0
  0
ENDBLK
  5
66
100
AcDbEntity
  8
0
100
AcDbBlockEnd
  0
BLOCK
  5
67
100
AcDbEntity
  8
0
100
AcDbBlockBegin
  2
_EX_NNORM
 70
     0
 10
0.0
 20
0.0
 30
0.0
  3
_EX_NNORM
  1

  0
LINE
  5
68
100
AcDbEntity
  8
0
  6
CONTINUOUS
 62
     0
100
AcDbLine
 10
0.0
 20
0.0
 30
0.0
 11
-1.0
 21
0.0
 31
0.0
  0
LINE
  5
69
100
AcDbEntity
  8
0
  6
CONTINUOUS
 62
     0
100
AcDbLine
 10
0.0
 20
0.0
 30
0.0
 11
-1.0
 21
0.166667
 31
0.0
  0
LINE
  5
6A
100
AcDbEntity
  8
0
  6
CONTINUOUS
 62
     0
100
AcDbLine
 10
0.0
 20
0.0
 30
0.0
 11
-1.0
 21
-0.166667
 31
0.0
  0
LINE
  5
6B
100
AcDbEntity
  8
0
  6
CONTINUOUS
 62
     0
100
AcDbLine
 10
-1.0
 20
0.166667
 30
0.0
 11
-1.0
 21
-0.166667
 31
0.0
  0
ENDBLK
  5
6C
100
AcDbEntity
  8
0
100
AcDbBlockEnd
  0
BLOCK
  5
6D
100
AcDbEntity
  8
0
100
AcDbBlockBegin
  2
_EX_BBOX
 70
     0
 10
0.0
 20
0.0
 30
0.0
  3
_EX_BBOX
  1

  0
LINE
  5
6E
100
AcDbEntity
  8
0
  6
CONTINUOUS
 62
     0
100
AcDbLine
 10
0.0
 20
0.0
 30
0.0
 11
-1.0
 21
0.0
 31
0.0
  0
LINE
  5
6F
100
AcDbEntity
  8
0
  6
CONTINUOUS
 62
     0
100
AcDbLine
 10
-0.5
 20
0.5
 30
0.0
 11
0.5
 21
0.5
 31
0.0
  0
LINE
  5
70
100
AcDbEntity
  8
0
  6
CONTINUOUS
 62
     0
100
AcDbLine
 10
0.5
 20
0.5
 30
0.0
 11
0.5
 21
-0.5
 31
0.0
  0
LINE
  5
71
100
AcDbEntity
  8
0
  6
CONTINUOUS
 62
     0
100
AcDbLine
 10
0.5
 20
-0.5
 30
0.0
 11
-0.5
 21
-0.5
 31
0.0
  0
LINE
  5
72
100
AcDbEntity
  8
0
  6
CONTINUOUS
 62
     0
100
AcDbLine
 10
-0.5
 20
-0.5
 30
0.0
 11
-0.5
 21
0.5
 31
0.0
  0
LINE
  5
73
100
AcDbEntity
  8
0
  6
CONTINUOUS
 62
     0
100
AcDbLine
 10
-0.25
 20
0.25
 30
0.0
 11
0.25
 21
0.25
 31
0.0
  0
LINE
  5
74
100
AcDbEntity
  8
0
  6
CONTINUOUS
 62
     0
100
AcDbLine
 10
0.25
 20
0.25
 30
0.0
 11
0.25
 21
-0.25
 31
0.0
  0
LINE
  5
75
100
AcDbEntity
  8
0
  6
CONTINUOUS
 62
     0
100
AcDbLine
 10
0.25
 20
-0.25
 30
0.0
 11
-0.25
 21
-0.25
 31
0.0
  0
LINE
  5
76
100
AcDbEntity
  8
0
  6
CONTINUOUS
 62
     0
100
AcDbLine
 10
-0.25
 20
-0.25
 30
0.0
 11
-0.25
 21
0.25
 31
0.0
  0
ENDBLK
  5
77
100
AcDbEntity
  8
0
100
AcDbBlockEnd
  0
BLOCK
  5
78
100
AcDbEntity
  8
0
100
AcDbBlockBegin
  2
_EX_WBOX
 70
     0
 10
0.0
 20
0.0
 30
0.0
  3
_EX_WBOX
  1

  0
LINE
  5
79
100
AcDbEntity
  8
0
  6
CONTINUOUS
 62
     0
100
AcDbLine
 10
-0.5
 20
0.0
 30
0.0
 11
-1.0
 21
0.0
 31
0.0
  0
LINE
  5
7A
100
AcDbEntity
  8
0
  6
CONTINUOUS
 62
     0
100
AcDbLine
 10
-0.5
 20
0.5
 30
0.0
 11
0.5
 21
0.5
 31
0.0
  0
LINE
  5
7B
100
AcDbEntity
  8
0
  6
CONTINUOUS
 62
     0
100
AcDbLine
 10
0.5
 20
0.5
 30
0.0
 11
0.5
 21
-0.5
 31
0.0
  0
LINE
  5
7C
100
AcDbEntity
  8
0
  6
CONTINUOUS
 62
     0
100
AcDbLine
 10
0.5
 20
-0.5
 30
0.0
 11
-0.5
 21
-0.5
 31
0.0
  0
LINE
  5
7D
100
AcDbEntity
  8
0
  6
CONTINUOUS
 62
     0
100
AcDbLine
 10
-0.5
 20
-0.5
 30
0.0
 11
-0.5
 21
0.5
 31
0.0
  0
ENDBLK
  5
7E
100
AcDbEntity
  8
0
100
AcDbBlockEnd
  0
BLOCK
  5
7F
100
AcDbEntity
  8
0
100
AcDbBlockBegin
  2
_EX_INTEGRAL
 70
     0
 10
0.0
 20
0.0
 30
0.0
  3
_EX_INTEGRAL
  1

  0
LINE
  5
80
100
AcDbEntity
  8
0
  6
CONTINUOUS
 62
     0
100
AcDbLine
 10
0.0
 20
0.0
 30
0.0
 11
-1.0
 21
0.0
 31
0.0
  0
ARC
  5
81
100
AcDbEntity
  8
0
  6
CONTINUOUS
 62
     0
100
AcDbCircle
 10
0.542115
 20
0.164992
 30
0.0
 40
0.56667
100
AcDbArc
 50
73.07249
 51
196.927513
  0
ARC
  5
82
100
AcDbEntity
  8
0
  6
CONTINUOUS
 62
     0
100
AcDbCircle
 10
-0.542115
 20
-0.164992
 30
0.0
 40
0.56667
100
AcDbArc
 50
253.072487
 51
16.927513
  0
ENDBLK
  5
83
100
AcDbEntity
  8
0
100
AcDbBlockEnd
  0
BLOCK
  5
3AF
100
AcDbEntity
  8
0
100
AcDbBlockBegin
  2
*D14
 70
    65
 10
0.0
 20
0.0
 30
0.0
  3
*D14
  1

  0
TEXT
  5
3B0
100
AcDbEntity
  8
LAY-3
  6
CONTINUOUS
 62
     2
100
AcDbText
 10
1168.889043
 20
2185.870536
 30
0.0
 40
40.0
  1
402
 50
90.0
 41
0.84
  7
EXCADSTD
 72
     1
 11
1168.889043
 21
2229.550536
 31
0.0
100
AcDbText
  0
LINE
  5
3B1
100
AcDbEntity
  8
LAY-3
  6
CONTINUOUS
 62
     3
100
AcDbLine
 10
1173.889043
 20
2028.550536
 30
0.0
 11
1173.889043
 21
2430.550536
 31
0.0
  0
LINE
  5
3B2
100
AcDbEntity
  8
LAY-3
  6
CONTINUOUS
 62
     3
100
AcDbLine
 10
1168.889043
 20
2058.550536
 30
0.0
 11
1173.889043
 21
2028.550536
 31
0.0
  0
LINE
  5
3B3
100
AcDbEntity
  8
LAY-3
  6
CONTINUOUS
 62
     3
100
AcDbLine
 10
1173.889043
 20
2028.550536
 30
0.0
 11
1178.889043
 21
2058.550536
 31
0.0
  0
LINE
  5
3B4
100
AcDbEntity
  8
LAY-3
  6
CONTINUOUS
 62
     3
100
AcDbLine
 10
1178.889043
 20
2400.550536
 30
0.0
 11
1173.889043
 21
2430.550536
 31
0.0
  0
LINE
  5
3B5
100
AcDbEntity
  8
LAY-3
  6
CONTINUOUS
 62
     3
100
AcDbLine
 10
1173.889043
 20
2430.550536
 30
0.0
 11
1168.889043
 21
2400.550536
 31
0.0
  0
LINE
  5
3B6
100
AcDbEntity
  8
LAY-3
  6
CONTINUOUS
 62
     3
100
AcDbLine
 10
694.889043
 20
2430.550536
 30
0.0
 11
1183.889043
 21
2430.550536
 31
0.0
  0
LINE
  5
3B7
100
AcDbEntity
  8
LAY-3
  6
CONTINUOUS
 62
     3
100
AcDbLine
 10
694.889043
 20
2028.550536
 30
0.0
 11
1183.889043
 21
2028.550536
 31
0.0
  0
ENDBLK
  5
3B8
100
AcDbEntity
  8
0
100
AcDbBlockEnd
  0
ENDSEC
  0
SECTION
  2
ENTITIES
  0
LINE
  5
84
100
AcDbEntity
  8
LAY-1
  6
CONTINUOUS
 62
     7
100
AcDbLine
 10
180.0
 20
115.0
 30
0.0
 11
2000.0
 21
115.0
 31
0.0
  0
LINE
  5
85
100
AcDbEntity
  8
LAY-1
  6
CONTINUOUS
 62
     7
100
AcDbLine
 10
2000.0
 20
115.0
 30
0.0
 11
2000.0
 21
2895.0
 31
0.0
  0
LINE
  5
86
100
AcDbEntity
  8
LAY-1
  6
CONTINUOUS
 62
     7
100
AcDbLine
 10
180.0
 20
115.0
 30
0.0
 11
180.0
 21
2895.0
 31
0.0
  0
LINE
  5
87
100
AcDbEntity
  8
LAY-1
  6
CONTINUOUS
 62
     7
100
AcDbLine
 10
180.0
 20
335.0
 30
0.0
 11
2000.0
 21
335.0
 31
0.0
  0
LINE
  5
88
100
AcDbEntity
  8
LAY-1
  6
CONTINUOUS
 62
     6
100
AcDbLine
 10
2000.0
 20
215.0
 30
0.0
 11
750.0
 21
215.0
 31
0.0
  0
LINE
  5
89
100
AcDbEntity
  8
LAY-1
  6
CONTINUOUS
 62
     6
100
AcDbLine
 10
1860.0
 20
335.0
 30
0.0
 11
1860.0
 21
215.0
 31
0.0
  0
LINE
  5
8A
100
AcDbEntity
  8
LAY-1
  6
CONTINUOUS
 62
     6
100
AcDbLine
 10
1810.0
 20
335.0
 30
0.0
 11
1810.0
 21
215.0
 31
0.0
  0
LINE
  5
8B
100
AcDbEntity
  8
LAY-1
  6
CONTINUOUS
 62
     6
100
AcDbLine
 10
1440.0
 20
335.0
 30
0.0
 11
1440.0
 21
115.0
 31
0.0
  0
LINE
  5
8C
100
AcDbEntity
  8
LAY-1
  6
CONTINUOUS
 62
     6
100
AcDbLine
 10
1390.0
 20
335.0
 30
0.0
 11
1390.0
 21
115.0
 31
0.0
  0
LINE
  5
8D
100
AcDbEntity
  8
LAY-1
  6
CONTINUOUS
 62
     6
100
AcDbLine
 10
800.0
 20
335.0
 30
0.0
 11
800.0
 21
215.0
 31
0.0
  0
LINE
  5
8E
100
AcDbEntity
  8
LAY-1
  6
CONTINUOUS
 62
     6
100
AcDbLine
 10
750.0
 20
335.0
 30
0.0
 11
750.0
 21
115.0
 31
0.0
  0
LINE
  5
8F
100
AcDbEntity
  8
LAY-1
  6
CONTINUOUS
 62
     6
100
AcDbLine
 10
620.0
 20
335.0
 30
0.0
 11
620.0
 21
115.0
 31
0.0
  0
LINE
  5
90
100
AcDbEntity
  8
LAY-1
  6
CONTINUOUS
 62
     6
100
AcDbLine
 10
490.0
 20
335.0
 30
0.0
 11
490.0
 21
115.0
 31
0.0
  0
LINE
  5
91
100
AcDbEntity
  8
LAY-1
  6
CONTINUOUS
 62
     6
100
AcDbLine
 10
335.0
 20
335.0
 30
0.0
 11
335.0
 21
115.0
 31
0.0
  0
LINE
  5
92
100
AcDbEntity
  8
LAY-1
  6
CONTINUOUS
 62
     6
100
AcDbLine
 10
180.0
 20
285.0
 30
0.0
 11
750.0
 21
285.0
 31
0.0
  0
LINE
  5
93
100
AcDbEntity
  8
LAY-1
  6
CONTINUOUS
 62
     6
100
AcDbLine
 10
1892.653809
 20
238.00293
 30
0.0
 11
1969.993897
 21
316.699829
 31
0.0
  0
TEXT
  5
94
100
AcDbEntity
  8
LAY-1
  6
CONTINUOUS
 62
     2
100
AcDbText
 10
1890.537109
 20
282.722778
 30
0.0
 40
30.0
  1
１
 41
0.826
  7
EXCADSTD
 72
     5
 11
1914.13711
 21
282.722778
 31
0.0
100
AcDbText
  0
TEXT
  5
95
100
AcDbEntity
  8
LAY-1
  6
CONTINUOUS
 62
     2
100
AcDbText
 10
1931.279297
 20
238.348846
 30
0.0
 40
30.0
  1
１０
 41
0.791
  7
EXCADSTD
 72
     5
 11
1983.067198
 21
238.348846
 31
0.0
100
AcDbText
  0
TEXT
  5
96
100
AcDbEntity
  8
LAY-1
  6
CONTINUOUS
 62
     2
100
AcDbText
 10
202.5
 20
288.75
 30
0.0
 40
42.5
  1
製図
 41
1.087059
  7
EXCADSTD
 72
     5
 11
303.326
 21
288.75
 31
0.0
100
AcDbText
  0
TEXT
  5
97
100
AcDbEntity
  8
LAY-1
  6
CONTINUOUS
 62
     2
100
AcDbText
 10
357.5
 20
288.75
 30
0.0
 40
42.5
  1
写図
 41
1.087059
  7
EXCADSTD
 72
     5
 11
458.326
 21
288.75
 31
0.0
100
AcDbText
  0
TEXT
  5
98
100
AcDbEntity
  8
LAY-1
  6
CONTINUOUS
 62
     2
100
AcDbText
 10
507.5
 20
288.75
 30
0.0
 40
42.5
  1
検図
 41
0.938824
  7
EXCADSTD
 72
     5
 11
594.577
 21
288.75
 31
0.0
100
AcDbText
  0
TEXT
  5
99
100
AcDbEntity
  8
LAY-1
  6
CONTINUOUS
 62
     2
100
AcDbText
 10
637.5
 20
288.75
 30
0.0
 40
42.5
  1
承認
 41
0.938824
  7
EXCADSTD
 72
     5
 11
724.577
 21
288.75
 31
0.0
100
AcDbText
  0
TEXT
  5
9A
100
AcDbEntity
  8
LAY-1
  6
CONTINUOUS
 62
     2
100
AcDbText
 10
755.75
 20
278.75
 30
0.0
 40
42.5
  1
品
 41
0.84
  7
EXCADSTD
 72
     5
 11
789.75
 21
278.75
 31
0.0
100
AcDbText
  0
TEXT
  5
9B
100
AcDbEntity
  8
LAY-1
  6
CONTINUOUS
 62
     2
100
AcDbText
 10
755.75
 20
228.75
 30
0.0
 40
42.5
  1
名
 41
0.84
  7
EXCADSTD
 72
     5
 11
789.75
 21
228.75
 31
0.0
100
AcDbText
  0
TEXT
  5
9C
100
AcDbEntity
  8
LAY-1
  6
CONTINUOUS
 62
     2
100
AcDbText
 10
1395.75
 20
278.75
 30
0.0
 40
42.5
  1
品
 41
0.84
  7
EXCADSTD
 72
     5
 11
1429.75
 21
278.75
 31
0.0
100
AcDbText
  0
TEXT
  5
9D
100
AcDbEntity
  8
LAY-1
  6
CONTINUOUS
 62
     2
100
AcDbText
 10
1395.75
 20
228.75
 30
0.0
 40
42.5
  1
番
 41
0.84
  7
EXCADSTD
 72
     5
 11
1429.75
 21
228.75
 31
0.0
100
AcDbText
  0
TEXT
  5
9E
100
AcDbEntity
  8
LAY-1
  6
CONTINUOUS
 62
     2
100
AcDbText
 10
1816.75
 20
278.75
 30
0.0
 40
42.5
  1
尺
 41
0.84
  7
EXCADSTD
 72
     5
 11
1850.75
 21
278.75
 31
0.0
100
AcDbText
  0
TEXT
  5
9F
100
AcDbEntity
  8
LAY-1
  6
CONTINUOUS
 62
     2
100
AcDbText
 10
1816.75
 20
228.75
 30
0.0
 40
42.5
  1
度
 41
0.84
  7
EXCADSTD
 72
     5
 11
1850.75
 21
228.75
 31
0.0
100
AcDbText
  0
TEXT
  5
A0
100
AcDbEntity
  8
LAY-1
  6
CONTINUOUS
 62
     2
100
AcDbText
 10
1395.75
 20
165.75
 30
0.0
 40
42.5
  1
図
 41
0.84
  7
EXCADSTD
 72
     5
 11
1429.75
 21
165.75
 31
0.0
100
AcDbText
  0
TEXT
  5
A1
100
AcDbEntity
  8
LAY-1
  6
CONTINUOUS
 62
     2
100
AcDbText
 10
1395.75
 20
122.75
 30
0.0
 40
42.5
  1
番
 41
0.84
  7
EXCADSTD
 72
     5
 11
1429.75
 21
122.75
 31
0.0
100
AcDbText
  0
LINE
  5
A2
100
AcDbEntity
  8
LAY-1
  6
CONTINUOUS
 62
     7
100
AcDbLine
 10
180.0
 20
2895.0
 30
0.0
 11
2000.0
 21
2895.0
 31
0.0
  0
TEXT
  5
A3
100
AcDbEntity
  8
LAY-1
  6
CONTINUOUS
 62
     2
100
AcDbText
 10
832.5
 20
242.5
 30
0.0
 40
65.0
  1
蓋付前丸暖房便座
 41
0.848077
  7
EXCADSTD
 72
     5
 11
1357.5
 21
242.5
 31
0.0
100
AcDbText
  0
CIRCLE
  5
A4
100
AcDbEntity
  8
LAY-1
  6
CONTINUOUS
 62
     2
100
AcDbCircle
 10
448.239502
 20
877.0
 30
0.0
 40
10.0
  0
TEXT
  5
A5
100
AcDbEntity
  8
LAY-1
  6
CONTINUOUS
 62
     2
100
AcDbText
 10
491.870941
 20
853.25
 30
0.0
 40
47.5
  1
電源は交流１００Ｖ―５０／６０Ｈｚ、最高消費電力は ４５Ｗで
 41
0.702961
  7
EXCADSTD
 72
     5
 11
1676.870941
 21
853.25
 31
0.0
100
AcDbText
  0
TEXT
  5
A6
100
AcDbEntity
  8
LAY-1
  6
CONTINUOUS
 62
     2
100
AcDbText
 10
491.870941
 20
803.25
 30
0.0
 40
47.5
  1
す。これに適した配線を行なってください。
 41
0.716211
  7
EXCADSTD
 72
     5
 11
1301.870941
 21
803.25
 31
0.0
100
AcDbText
  0
CIRCLE
  5
A7
100
AcDbEntity
  8
LAY-1
  6
CONTINUOUS
 62
     2
100
AcDbCircle
 10
448.239502
 20
777.0
 30
0.0
 40
10.0
  0
TEXT
  5
A8
100
AcDbEntity
  8
LAY-1
  6
CONTINUOUS
 62
     2
100
AcDbText
 10
491.870941
 20
753.25
 30
0.0
 40
47.5
  1
電源コードの長さは１．２ｍです。コンセントは便器の近くの壁面
 41
0.713263
  7
EXCADSTD
 72
     5
 11
1701.870941
 21
753.25
 31
0.0
100
AcDbText
  0
TEXT
  5
A9
100
AcDbEntity
  8
LAY-1
  6
CONTINUOUS
 62
     2
100
AcDbText
 10
491.870941
 20
703.25
 30
0.0
 40
47.5
  1
に設けてください。
 41
0.727018
  7
EXCADSTD
 72
     5
 11
861.870941
 21
703.25
 31
0.0
100
AcDbText
  0
CIRCLE
  5
AA
100
AcDbEntity
  8
LAY-1
  6
CONTINUOUS
 62
     2
100
AcDbCircle
 10
448.239502
 20
677.0
 30
0.0
 40
10.0
  0
TEXT
  5
AB
100
AcDbEntity
  8
LAY-1
  6
CONTINUOUS
 62
     2
100
AcDbText
 10
491.870941
 20
653.25
 30
0.0
 40
47.5
  1
水がかかったり、表面に結露が生じるような湿気の多い場所での使
 41
0.713263
  7
EXCADSTD
 72
     5
 11
1701.870941
 21
653.25
 31
0.0
100
AcDbText
  0
TEXT
  5
AC
100
AcDbEntity
  8
LAY-1
  6
CONTINUOUS
 62
     2
100
AcDbText
 10
491.870941
 20
603.25
 30
0.0
 40
47.5
  1
用は避けてください。特に、浴室内には設置しないでください。
 41
0.713466
  7
EXCADSTD
 72
     5
 11
1661.870941
 21
603.25
 31
0.0
100
AcDbText
  0
LINE
  5
AD
100
AcDbEntity
  8
LAY-1
  6
EXLTYPE2
 62
     6
100
AcDbLine
 10
0.0
 20
1505.0
 30
0.0
 11
180.0
 21
1505.0
 31
0.0
  0
TEXT
  5
AF
100
AcDbEntity
  8
LAY-1
  6
CONTINUOUS
 62
     2
100
AcDbText
 10
770.0
 20
135.0
 30
0.0
 40
45.0
  1
ジャニス工業株式会社
  7
EXCADTTF1
 72
     5
 11
1370.0
 21
135.0
 31
0.0
100
AcDbText
  0
LINE
  5
B0
100
AcDbEntity
  8
LAY-1
  6
EXLTYPE2
 62
     6
100
AcDbLine
 10
180.0
 20
165.0
 30
0.0
 11
490.0
 21
165.0
 31
0.0
  0
CIRCLE
  5
B1
100
AcDbEntity
  8
LAY-1
  6
CONTINUOUS
 62
     6
100
AcDbCircle
 10
385.0
 20
140.0
 30
0.0
 40
1.0
  0
CIRCLE
  5
B2
100
AcDbEntity
  8
LAY-1
  6
CONTINUOUS
 62
     6
100
AcDbCircle
 10
435.0
 20
140.0
 30
0.0
 40
1.0
  0
CIRCLE
  5
B3
100
AcDbEntity
  8
LAY-1
  6
CONTINUOUS
 62
     6
100
AcDbCircle
 10
230.0
 20
140.0
 30
0.0
 40
1.0
  0
CIRCLE
  5
B4
100
AcDbEntity
  8
LAY-1
  6
CONTINUOUS
 62
     6
100
AcDbCircle
 10
280.0
 20
140.0
 30
0.0
 40
1.0
  0
TEXT
  5
B5
100
AcDbEntity
  8
LAY-1
  6
CONTINUOUS
 62
     6
100
AcDbText
 10
494.0
 20
200.0
 30
0.0
 40
50.0
  1
地名坊
 41
0.7504
  7
EXCADSTD
 72
     5
 11
628.0
 21
200.0
 31
0.0
100
AcDbText
  0
TEXT
  5
B6
100
AcDbEntity
  8
LAY-1
  6
CONTINUOUS
 62
     6
100
AcDbText
 10
206.5
 20
200.0
 30
0.0
 40
50.0
  1
間瀬
 41
0.8568
  7
EXCADSTD
 72
     5
 11
299.9932
 21
200.0
 31
0.0
100
AcDbText
  0
TEXT
  5
B7
100
AcDbEntity
  8
LAY-1
  6
CONTINUOUS
 62
     6
100
AcDbText
 10
636.5
 20
200.0
 30
0.0
 40
50.0
  1
古林
 41
0.8568
  7
EXCADSTD
 72
     5
 11
729.9932
 21
200.0
 31
0.0
100
AcDbText
  0
TEXT
  5
B8
100
AcDbEntity
  8
LAY-1
  6
CONTINUOUS
 62
     7
100
AcDbText
 10
1517.500001
 20
131.5
 30
0.0
 40
70.0
  1
２０５５５０
 41
0.81
  7
EXCADSTD
 72
     5
 11
1922.499999
 21
131.5
 31
0.0
100
AcDbText
  0
TEXT
  5
B9
100
AcDbEntity
  8
LAY-1
  6
CONTINUOUS
 62
     2
100
AcDbText
 10
1458.0
 20
250.0
 30
0.0
 40
50.0
  1
ＮＣ８２３ＷＨＳ
 41
0.714
  7
EXCADSTD
 72
     5
 11
1798.000012
 21
250.0
 31
0.0
100
AcDbText
  0
TEXT
  5
BA
100
AcDbEntity
  8
LAY-1
  6
CONTINUOUS
 62
     6
100
AcDbText
 10
184.844116
 20
126.950073
 30
0.0
 40
25.0
  1
２４
 41
0.75768
  7
EXCADSTD
 72
     5
 11
226.182775
 21
126.950073
 31
0.0
100
AcDbText
  0
TEXT
  5
BB
100
AcDbEntity
  8
LAY-1
  6
CONTINUOUS
 62
     6
100
AcDbText
 10
244.119116
 20
126.950073
 30
0.0
 40
25.0
  1
２
 41
0.89208
  7
EXCADSTD
 72
     5
 11
265.359116
 21
126.950073
 31
0.0
100
AcDbText
  0
TEXT
  5
BC
100
AcDbEntity
  8
LAY-1
  6
CONTINUOUS
 62
     6
100
AcDbText
 10
286.844116
 20
126.950073
 30
0.0
 40
25.0
  1
２４
 41
0.75768
  7
EXCADSTD
 72
     5
 11
328.182775
 21
126.950073
 31
0.0
100
AcDbText
  0
LEADER
  5
BD
100
AcDbEntity
  8
LAY-2
  6
CONTINUOUS
 62
     6
100
AcDbLeader
  3
STANDARD
 73
     3
 74
     1
 75
     0
 40
0.0
 76
     2
 10
1401.042349
 20
1529.573852
 30
0.0
 10
1356.0
 20
1666.5
 30
0.0
 77
     6
1001
ACAD
1000
DSTYLE
1002
{
1070
    41
1040
35.0
1070
     5
1000
_EX_NORM
1070
     6
1000
_EX_NORM
1070
     7
1000
_EX_NORM
1070
   341
1005
28
1002
}
  0
LEADER
  5
BE
100
AcDbEntity
  8
LAY-2
  6
CONTINUOUS
 62
     6
100
AcDbLeader
  3
STANDARD
 73
     3
 74
     1
 75
     0
 40
0.0
 76
     2
 10
639.877835
 20
1322.0
 30
0.0
 10
716.0
 20
1269.0
 30
0.0
 77
     6
1001
ACAD
1000
DSTYLE
1002
{
1070
    41
1040
35.0
1070
     5
1000
_EX_NORM
1070
     6
1000
_EX_NORM
1070
     7
1000
_EX_NORM
1070
   341
1005
28
1002
}
  0
LINE
  5
BF
100
AcDbEntity
  8
LAY-2
  6
CONTINUOUS
 62
     6
100
AcDbLine
 10
598.472964
 20
1572.034914
 30
0.0
 11
618.566714
 21
1589.707338
 31
0.0
  0
LINE
  5
C0
100
AcDbEntity
  8
LAY-2
  6
CONTINUOUS
 62
     6
100
AcDbLine
 10
633.177835
 20
1459.710329
 30
0.0
 11
591.241229
 21
1459.710329
 31
0.0
  0
LINE
  5
C1
100
AcDbEntity
  8
LAY-2
  6
CONTINUOUS
 62
     6
100
AcDbLine
 10
593.384341
 20
1561.164064
 30
0.0
 11
590.7414
 21
1460.223416
 31
0.0
  0
LINE
  5
C2
100
AcDbEntity
  8
LAY-2
  6
CONTINUOUS
 62
     6
100
AcDbLine
 10
601.069086
 20
1497.542933
 30
0.0
 11
603.48001
 21
1566.582747
 31
0.0
  0
ARC
  5
C3
100
AcDbEntity
  8
LAY-2
  6
CONTINUOUS
 62
     6
100
AcDbCircle
 10
596.362133
 20
1483.865296
 30
0.0
 40
5.0
100
AcDbArc
 50
135.0
 51
178.500157
  0
ARC
  5
C4
100
AcDbEntity
  8
LAY-2
  6
CONTINUOUS
 62
     6
100
AcDbCircle
 10
591.241229
 20
1460.210329
 30
0.0
 40
0.5
100
AcDbArc
 50
178.50016
 51
270.0
  0
ARC
  5
C5
100
AcDbEntity
  8
LAY-2
  6
CONTINUOUS
 62
     6
100
AcDbCircle
 10
596.072132
 20
1497.71743
 30
0.0
 40
5.0
100
AcDbArc
 50
315.0
 51
358.0
  0
LINE
  5
C6
100
AcDbEntity
  8
LAY-2
  6
CONTINUOUS
 62
     6
100
AcDbLine
 10
592.826599
 20
1487.40083
 30
0.0
 11
599.607666
 21
1494.181896
 31
0.0
  0
ARC
  5
C7
100
AcDbEntity
  8
LAY-2
  6
CONTINUOUS
 62
     6
100
AcDbCircle
 10
608.379214
 20
1560.771425
 30
0.0
 40
15.0
100
AcDbArc
 50
131.330933
 51
178.500488
  0
ARC
  5
C8
100
AcDbEntity
  8
LAY-2
  6
CONTINUOUS
 62
     6
100
AcDbCircle
 10
1095.102989
 20
3999.022215
 30
0.0
 40
2500.0
100
AcDbArc
 50
266.262862
 51
267.400191
  0
ARC
  5
C9
100
AcDbEntity
  8
LAY-2
  6
CONTINUOUS
 62
     6
100
AcDbCircle
 10
332.741901
 20
-2395.271317
 30
0.0
 40
4000.000244
100
AcDbArc
 50
80.855635
 51
84.606497
  0
ARC
  5
CA
100
AcDbEntity
  8
LAY-2
  6
CONTINUOUS
 62
     6
100
AcDbCircle
 10
1087.902983
 20
4004.176255
 30
0.0
 40
2500.0
100
AcDbArc
 50
266.41844
 51
268.837446
  0
LINE
  5
CB
100
AcDbEntity
  8
LAY-2
  6
CONTINUOUS
 62
     6
100
AcDbLine
 10
931.872637
 20
1472.038133
 30
0.0
 11
1092.997997
 21
1468.768365
 31
0.0
  0
LINE
  5
CC
100
AcDbEntity
  8
LAY-2
  6
CONTINUOUS
 62
     6
100
AcDbLine
 10
633.177835
 20
1199.299247
 30
0.0
 11
633.177835
 21
1461.831649
 31
0.0
  0
LINE
  5
CD
100
AcDbEntity
  8
LAY-2
  6
CONTINUOUS
 62
     6
100
AcDbLine
 10
639.877835
 20
1198.649247
 30
0.0
 11
639.877835
 21
1461.831649
 31
0.0
  0
ARC
  5
CE
100
AcDbEntity
  8
LAY-2
  6
CONTINUOUS
 62
     6
100
AcDbCircle
 10
1095.102989
 20
3999.022215
 30
0.0
 40
2500.0
100
AcDbArc
 50
262.001387
 51
266.262862
  0
ARC
  5
CF
100
AcDbEntity
  8
LAY-2
  6
CONTINUOUS
 62
     6
100
AcDbCircle
 10
763.964011
 20
1470.444492
 30
0.0
 40
5.000011
100
AcDbArc
 50
355.347467
 51
88.837294
  0
ARC
  5
D0
100
AcDbEntity
  8
LAY-2
  6
CONTINUOUS
 62
     6
100
AcDbCircle
 10
1087.902983
 20
4004.176255
 30
0.0
 40
2500.0
100
AcDbArc
 50
260.44731
 51
266.41844
  0
LINE
  5
D1
100
AcDbEntity
  8
LAY-2
  6
CONTINUOUS
 62
     6
100
AcDbLine
 10
931.872637
 20
1472.038149
 30
0.0
 11
748.193469
 21
1475.76557
 31
0.0
  0
LINE
  5
D2
100
AcDbEntity
  8
LAY-2
  6
CONTINUOUS
 62
     6
100
AcDbLine
 10
637.004931
 20
1582.888118
 30
0.0
 11
637.366214
 21
1562.188478
 31
0.0
  0
LINE
  5
D3
100
AcDbEntity
  8
LAY-2
  6
CONTINUOUS
 62
     6
100
AcDbLine
 10
652.17126
 20
1564.003197
 30
0.0
 11
652.555159
 21
1582.921958
 31
0.0
  0
LINE
  5
D4
100
AcDbEntity
  8
LAY-2
  6
CONTINUOUS
 62
     6
100
AcDbLine
 10
647.834903
 20
1539.936647
 30
0.0
 11
718.70795
 21
1479.172609
 31
0.0
  0
LINE
  5
D5
100
AcDbEntity
  8
LAY-2
  6
CONTINUOUS
 62
     6
100
AcDbLine
 10
720.219045
 20
1459.710329
 30
0.0
 11
639.877835
 21
1459.710329
 31
0.0
  0
LINE
  5
D6
100
AcDbEntity
  8
LAY-2
  6
CONTINUOUS
 62
     6
100
AcDbLine
 10
741.905097
 20
1478.157969
 30
0.0
 11
670.275173
 21
1539.305607
 31
0.0
  0
CIRCLE
  5
D7
100
AcDbEntity
  8
LAY-2
  6
CONTINUOUS
 62
     6
100
AcDbCircle
 10
636.527835
 20
1514.71039
 30
0.0
 40
15.0
  0
ARC
  5
D8
100
AcDbEntity
  8
LAY-2
  6
CONTINUOUS
 62
     6
100
AcDbCircle
 10
636.527835
 20
1514.71039
 30
0.0
 40
15.5
100
AcDbArc
 50
0.0
 51
180.0
  0
LINE
  5
D9
100
AcDbEntity
  8
LAY-2
  6
CONTINUOUS
 62
     6
100
AcDbLine
 10
621.027835
 20
1514.71039
 30
0.0
 11
618.145371
 21
1459.710329
 31
0.0
  0
ARC
  5
DA
100
AcDbEntity
  8
LAY-2
  6
CONTINUOUS
 62
     6
100
AcDbCircle
 10
638.357555
 20
1461.831649
 30
0.0
 40
1.52028
100
AcDbArc
 50
0.0
 51
90.0
  0
ARC
  5
DB
100
AcDbEntity
  8
LAY-2
  6
CONTINUOUS
 62
     6
100
AcDbCircle
 10
634.698115
 20
1461.831649
 30
0.0
 40
1.52028
100
AcDbArc
 50
90.0
 51
180.0
  0
LINE
  5
DC
100
AcDbEntity
  8
LAY-2
  6
CONTINUOUS
 62
     6
100
AcDbLine
 10
638.357555
 20
1463.351929
 30
0.0
 11
634.698115
 21
1463.351929
 31
0.0
  0
LINE
  5
DD
100
AcDbEntity
  8
LAY-2
  6
CONTINUOUS
 62
     6
100
AcDbLine
 10
641.527835
 20
1472.721094
 30
0.0
 11
631.527835
 21
1472.721094
 31
0.0
  0
LINE
  5
DE
100
AcDbEntity
  8
LAY-2
  6
CONTINUOUS
 62
     6
100
AcDbLine
 10
631.527835
 20
1459.710329
 30
0.0
 11
631.527835
 21
1472.721094
 31
0.0
  0
LINE
  5
DF
100
AcDbEntity
  8
LAY-2
  6
CONTINUOUS
 62
     6
100
AcDbLine
 10
641.527835
 20
1459.710329
 30
0.0
 11
641.527835
 21
1472.721094
 31
0.0
  0
LINE
  5
E0
100
AcDbEntity
  8
LAY-2
  6
CONTINUOUS
 62
     6
100
AcDbLine
 10
641.527835
 20
1466.215711
 30
0.0
 11
631.527835
 21
1466.215711
 31
0.0
  0
ARC
  5
E1
100
AcDbEntity
  8
LAY-2
  6
CONTINUOUS
 62
     6
100
AcDbCircle
 10
630.527835
 20
1462.710329
 30
0.0
 40
3.0
100
AcDbArc
 50
180.0
 51
270.0
  0
ARC
  5
E2
100
AcDbEntity
  8
LAY-2
  6
CONTINUOUS
 62
     6
100
AcDbCircle
 10
642.527835
 20
1462.710329
 30
0.0
 40
3.0
100
AcDbArc
 50
270.0
 51
0.0
  0
ARC
  5
E3
100
AcDbEntity
  8
LAY-2
  6
CONTINUOUS
 62
     6
100
AcDbCircle
 10
630.527835
 20
1473.710329
 30
0.0
 40
3.0
100
AcDbArc
 50
90.0
 51
180.0
  0
ARC
  5
E4
100
AcDbEntity
  8
LAY-2
  6
CONTINUOUS
 62
     6
100
AcDbCircle
 10
642.527835
 20
1473.710329
 30
0.0
 40
3.0
100
AcDbArc
 50
0.0
 51
90.0
  0
LINE
  5
E5
100
AcDbEntity
  8
LAY-2
  6
CONTINUOUS
 62
     6
100
AcDbLine
 10
627.527835
 20
1462.710329
 30
0.0
 11
627.527835
 21
1473.710329
 31
0.0
  0
LINE
  5
E6
100
AcDbEntity
  8
LAY-2
  6
CONTINUOUS
 62
     6
100
AcDbLine
 10
645.527835
 20
1462.710329
 30
0.0
 11
645.527835
 21
1473.710329
 31
0.0
  0
LINE
  5
E7
100
AcDbEntity
  8
LAY-2
  6
CONTINUOUS
 62
     6
100
AcDbLine
 10
642.527835
 20
1476.710329
 30
0.0
 11
630.527835
 21
1476.710329
 31
0.0
  0
LINE
  5
E8
100
AcDbEntity
  8
LAY-2
  6
CONTINUOUS
 62
     6
100
AcDbLine
 10
652.027835
 20
1514.71039
 30
0.0
 11
654.910299
 21
1459.710329
 31
0.0
  0
ARC
  5
E9
100
AcDbEntity
  8
LAY-2
  6
CONTINUOUS
 62
     6
100
AcDbCircle
 10
648.815773
 20
1545.210335
 30
0.0
 40
4.5
100
AcDbArc
 50
223.340619
 51
270.0
  0
ARC
  5
EA
100
AcDbEntity
  8
LAY-2
  6
CONTINUOUS
 62
     6
100
AcDbCircle
 10
667.361575
 20
1562.711855
 30
0.0
 40
30.0
100
AcDbArc
 50
181.0
 51
229.391357
  0
ARC
  5
EB
100
AcDbEntity
  8
LAY-2
  6
CONTINUOUS
 62
     6
100
AcDbCircle
 10
637.027835
 20
1530.202333
 30
0.0
 40
0.5
100
AcDbArc
 50
0.0
 51
88.153198
  0
ARC
  5
EC
100
AcDbEntity
  8
LAY-2
  6
CONTINUOUS
 62
     6
100
AcDbCircle
 10
636.027835
 20
1530.202333
 30
0.0
 40
0.5
100
AcDbArc
 50
91.846832
 51
180.0
  0
ARC
  5
ED
100
AcDbEntity
  8
LAY-2
  6
CONTINUOUS
 62
     6
100
AcDbCircle
 10
636.527835
 20
1514.71039
 30
0.0
 40
16.0
100
AcDbArc
 50
88.151489
 51
91.848511
  0
LINE
  5
EE
100
AcDbEntity
  8
LAY-2
  6
CONTINUOUS
 62
     6
100
AcDbLine
 10
636.027835
 20
1530.21039
 30
0.0
 11
637.027835
 21
1530.21039
 31
0.0
  0
LINE
  5
EF
100
AcDbEntity
  8
LAY-2
  6
CONTINUOUS
 62
     6
100
AcDbLine
 10
651.827811
 20
1543.210335
 30
0.0
 11
651.827811
 21
1545.210335
 31
0.0
  0
LINE
  5
F0
100
AcDbEntity
  8
LAY-2
  6
CONTINUOUS
 62
     6
100
AcDbLine
 10
656.065597
 20
1534.79772
 30
0.0
 11
654.817497
 21
1545.385933
 31
0.0
  0
ARC
  5
F1
100
AcDbEntity
  8
LAY-2
  6
CONTINUOUS
 62
     6
100
AcDbCircle
 10
677.166091
 20
1563.495975
 30
0.0
 40
25.000004
100
AcDbArc
 50
194.017134
 51
260.44731
  0
LINE
  5
F2
100
AcDbEntity
  8
LAY-2
  6
CONTINUOUS
 62
     6
100
AcDbLine
 10
648.815773
 20
1540.710335
 30
0.0
 11
649.327811
 21
1540.710335
 31
0.0
  0
ARC
  5
F3
100
AcDbEntity
  8
LAY-2
  6
CONTINUOUS
 62
     6
100
AcDbCircle
 10
649.327811
 20
1543.210335
 30
0.0
 40
2.5
100
AcDbArc
 50
270.0
 51
0.0
  0
ARC
  5
F4
100
AcDbEntity
  8
LAY-2
  6
CONTINUOUS
 62
     6
100
AcDbCircle
 10
661.52778
 20
1535.441581
 30
0.0
 40
5.5
100
AcDbArc
 50
186.722792
 51
229.391384
  0
LINE
  5
F5
100
AcDbEntity
  8
LAY-2
  6
CONTINUOUS
 62
     6
100
AcDbLine
 10
654.640009
 20
1552.652736
 30
0.0
 11
652.969514
 21
1554.078773
 31
0.0
  0
ARC
  5
F6
100
AcDbEntity
  8
LAY-2
  6
CONTINUOUS
 62
     6
100
AcDbCircle
 10
653.327811
 20
1545.210335
 30
0.0
 40
1.5
100
AcDbArc
 50
6.722792
 51
180.0
  0
ARC
  5
F7
100
AcDbEntity
  8
LAY-2
  6
CONTINUOUS
 62
     6
100
AcDbCircle
 10
677.166091
 20
1563.495975
 30
0.0
 40
25.000004
100
AcDbArc
 50
178.837446
 51
194.017134
  0
LINE
  5
F8
100
AcDbEntity
  8
LAY-2
  6
CONTINUOUS
 62
     6
100
AcDbLine
 10
652.969575
 20
1554.078742
 30
0.0
 11
653.02857
 21
1556.985963
 31
0.0
  0
LINE
  5
F9
100
AcDbEntity
  8
LAY-2
  6
CONTINUOUS
 62
     6
100
AcDbLine
 10
691.294425
 20
1520.7048
 30
0.0
 11
691.535464
 21
1506.894655
 31
0.0
  0
ARC
  5
FA
100
AcDbEntity
  8
LAY-2
  6
CONTINUOUS
 62
     6
100
AcDbCircle
 10
715.309207
 20
1483.639162
 30
0.0
 40
5.0
100
AcDbArc
 50
0.999878
 51
53.841919
  0
ARC
  5
FB
100
AcDbEntity
  8
LAY-2
  6
CONTINUOUS
 62
     6
100
AcDbCircle
 10
720.219045
 20
1460.210329
 30
0.0
 40
0.5
100
AcDbArc
 50
270.0
 51
1.000259
  0
ARC
  5
FC
100
AcDbEntity
  8
LAY-2
  6
CONTINUOUS
 62
     6
100
AcDbCircle
 10
720.727786
 20
1459.712587
 30
0.0
 40
3.598692
100
AcDbArc
 50
90.0
 51
91.000511
  0
ARC
  5
FD
100
AcDbEntity
  8
LAY-2
  6
CONTINUOUS
 62
     6
100
AcDbCircle
 10
715.453555
 20
1475.37671
 30
0.0
 40
5.0
100
AcDbArc
 50
1.000214
 51
49.392029
  0
LINE
  5
FE
100
AcDbEntity
  8
LAY-2
  6
CONTINUOUS
 62
     6
100
AcDbLine
 10
720.718969
 20
1460.219057
 30
0.0
 11
720.309695
 21
1483.66028
 31
0.0
  0
LINE
  5
FF
100
AcDbEntity
  8
LAY-2
  6
CONTINUOUS
 62
     6
100
AcDbLine
 10
720.309634
 20
1483.660158
 30
0.0
 11
720.308231
 21
1483.741212
 31
0.0
  0
LINE
  5
100
100
AcDbEntity
  8
LAY-2
  6
CONTINUOUS
 62
     6
100
AcDbLine
 10
695.541141
 20
1504.278871
 30
0.0
 11
718.259402
 21
1487.676027
 31
0.0
  0
ARC
  5
101
100
AcDbEntity
  8
LAY-2
  6
CONTINUOUS
 62
     6
100
AcDbCircle
 10
701.441531
 20
1512.352602
 30
0.0
 40
10.0
100
AcDbArc
 50
181.002686
 51
233.839844
  0
ARC
  5
102
100
AcDbEntity
  8
LAY-2
  6
CONTINUOUS
 62
     6
100
AcDbCircle
 10
701.533816
 20
1507.069154
 30
0.0
 40
10.0
100
AcDbArc
 50
181.001465
 51
229.389771
  0
ARC
  5
103
100
AcDbEntity
  8
LAY-2
  6
CONTINUOUS
 62
     6
100
AcDbCircle
 10
748.397725
 20
1485.763596
 30
0.0
 40
9.999998
100
AcDbArc
 50
229.51396
 51
268.837446
  0
ARC
  5
104
100
AcDbEntity
  8
LAY-2
  6
CONTINUOUS
 62
     6
100
AcDbCircle
 10
754.188987
 20
1572.856764
 30
0.0
 40
49.999989
100
AcDbArc
 50
238.546736
 51
262.001448
  0
ARC
  5
105
100
AcDbEntity
  8
LAY-2
  6
CONTINUOUS
 62
     6
100
AcDbCircle
 10
332.636704
 20
-2400.53645
 30
0.0
 40
4000.000244
100
AcDbArc
 50
84.621931
 51
85.05406
  0
ARC
  5
106
100
AcDbEntity
  8
LAY-2
  6
CONTINUOUS
 62
     6
100
AcDbCircle
 10
636.126407
 20
1185.959413
 30
0.0
 40
400.0
100
AcDbArc
 50
87.459688
 51
89.440301
  0
ARC
  5
107
100
AcDbEntity
  8
LAY-2
  6
CONTINUOUS
 62
     6
100
AcDbCircle
 10
636.127811
 20
1191.210329
 30
0.0
 40
400.0
100
AcDbArc
 50
85.505127
 51
92.06937
  0
ARC
  5
108
100
AcDbEntity
  8
LAY-2
  6
CONTINUOUS
 62
     6
100
AcDbCircle
 10
621.868838
 20
1585.952882
 30
0.0
 40
5.0
100
AcDbArc
 50
92.069305
 51
131.33255
  0
ARC
  5
109
100
AcDbEntity
  8
LAY-2
  6
CONTINUOUS
 62
     6
100
AcDbCircle
 10
640.004475
 20
1582.940471
 30
0.0
 40
3.0
100
AcDbArc
 50
89.440301
 51
180.999915
  0
ARC
  5
10A
100
AcDbEntity
  8
LAY-2
  6
CONTINUOUS
 62
     6
100
AcDbCircle
 10
643.013263
 20
1186.059269
 30
0.0
 40
399.999939
100
AcDbArc
 50
85.05406
 51
88.189711
  0
ARC
  5
10B
100
AcDbEntity
  8
LAY-2
  6
CONTINUOUS
 62
     6
100
AcDbCircle
 10
655.554525
 20
1582.861081
 30
0.0
 40
2.999987
100
AcDbArc
 50
88.189375
 51
178.837202
  0
ARC
  5
10C
100
AcDbEntity
  8
LAY-2
  6
CONTINUOUS
 62
     6
100
AcDbCircle
 10
665.516482
 20
1565.057008
 30
0.0
 40
25.0
100
AcDbArc
 50
50.819455
 51
85.505188
  0
ARC
  5
10D
100
AcDbEntity
  8
LAY-2
  6
CONTINUOUS
 62
     6
100
AcDbCircle
 10
708.629602
 20
1586.023706
 30
0.0
 40
0.999999
100
AcDbArc
 50
84.608931
 51
178.837446
  0
LINE
  5
10E
100
AcDbEntity
  8
LAY-2
  6
CONTINUOUS
 62
     6
100
AcDbLine
 10
707.544837
 20
1581.855563
 30
0.0
 11
707.629813
 21
1586.043988
 31
0.0
  0
ARC
  5
10F
100
AcDbEntity
  8
LAY-2
  6
CONTINUOUS
 62
     6
100
AcDbCircle
 10
780.834833
 20
1463.905244
 30
0.0
 40
3.0
100
AcDbArc
 50
268.837588
 51
358.837612
  0
ARC
  5
110
100
AcDbEntity
  8
LAY-2
  6
CONTINUOUS
 62
     6
100
AcDbCircle
 10
788.958903
 20
1469.937271
 30
0.0
 40
5.000011
100
AcDbArc
 50
88.837675
 51
178.837446
  0
LINE
  5
111
100
AcDbEntity
  8
LAY-2
  6
CONTINUOUS
 62
     6
100
AcDbLine
 10
783.9599
 20
1470.038727
 30
0.0
 11
783.834216
 21
1463.844386
 31
0.0
  0
ARC
  5
112
100
AcDbEntity
  8
LAY-2
  6
CONTINUOUS
 62
     6
100
AcDbCircle
 10
857.185998
 20
862.789338
 30
0.0
 40
699.999939
100
AcDbArc
 50
71.887404
 51
80.855635
  0
LINE
  5
113
100
AcDbEntity
  8
LAY-2
  6
CONTINUOUS
 62
     6
100
AcDbLine
 10
981.702959
 20
1501.595298
 30
0.0
 11
1083.390165
 21
1496.978006
 31
0.0
  0
ARC
  5
114
100
AcDbEntity
  8
LAY-2
  6
CONTINUOUS
 62
     6
100
AcDbCircle
 10
963.922777
 20
1466.386674
 30
0.0
 40
5.000011
100
AcDbArc
 50
355.345107
 51
88.83721
  0
ARC
  5
115
100
AcDbEntity
  8
LAY-2
  6
CONTINUOUS
 62
     6
100
AcDbCircle
 10
980.856392
 20
1462.942404
 30
0.0
 40
3.0
100
AcDbArc
 50
268.837544
 51
358.836933
  0
ARC
  5
116
100
AcDbEntity
  8
LAY-2
  6
CONTINUOUS
 62
     6
100
AcDbCircle
 10
988.917668
 20
1465.879452
 30
0.0
 40
5.000007
100
AcDbArc
 50
88.837553
 51
178.83737
  0
LINE
  5
117
100
AcDbEntity
  8
LAY-2
  6
CONTINUOUS
 62
     6
100
AcDbLine
 10
983.918666
 20
1465.980894
 30
0.0
 11
983.878102
 21
1463.981317
 31
0.0
  0
LINE
  5
118
100
AcDbEntity
  8
LAY-2
  6
CONTINUOUS
 62
     6
100
AcDbLine
 10
983.855774
 20
1462.88151
 30
0.0
 11
983.878102
 21
1463.981317
 31
0.0
  0
ARC
  5
119
100
AcDbEntity
  8
LAY-2
  6
CONTINUOUS
 62
     6
100
AcDbCircle
 10
986.102769
 20
1507.951248
 30
0.0
 40
6.0
100
AcDbArc
 50
194.058623
 51
341.270735
  0
ARC
  5
11A
100
AcDbEntity
  8
LAY-2
  6
CONTINUOUS
 62
     6
100
AcDbCircle
 10
1057.02634
 20
1493.167504
 30
0.0
 40
40.000008
100
AcDbArc
 50
18.735823
 51
48.152144
  0
LINE
  5
11B
100
AcDbEntity
  8
LAY-2
  6
CONTINUOUS
 62
     6
100
AcDbLine
 10
1093.935349
 20
1503.539142
 30
0.0
 11
1037.262202
 21
1504.689202
 31
0.0
  0
ARC
  5
11C
100
AcDbEntity
  8
LAY-2
  6
CONTINUOUS
 62
     6
100
AcDbCircle
 10
893.175286
 20
1460.351012
 30
0.0
 40
199.999939
100
AcDbArc
 50
2.412092
 51
8.578108
  0
ARC
  5
11D
100
AcDbEntity
  8
LAY-2
  6
CONTINUOUS
 62
     6
100
AcDbCircle
 10
1083.027426
 20
1488.989253
 30
0.0
 40
7.999994
100
AcDbArc
 50
8.578047
 51
85.828596
  0
ARC
  5
11E
100
AcDbEntity
  8
LAY-2
  6
CONTINUOUS
 62
     6
100
AcDbCircle
 10
1093.955647
 20
1504.538945
 30
0.0
 40
1.0
100
AcDbArc
 50
268.837446
 51
358.837446
  0
LINE
  5
11F
100
AcDbEntity
  8
LAY-2
  6
CONTINUOUS
 62
     6
100
AcDbLine
 10
1094.90682
 20
1506.015696
 30
0.0
 11
1094.955435
 21
1504.518648
 31
0.0
  0
ARC
  5
120
100
AcDbEntity
  8
LAY-2
  6
CONTINUOUS
 62
     6
100
AcDbCircle
 10
1067.033691
 20
1504.341285
 30
0.0
 40
25.000004
100
AcDbArc
 50
48.152083
 51
71.887404
  0
LINE
  5
121
100
AcDbEntity
  8
LAY-2
  6
CONTINUOUS
 62
     6
100
AcDbLine
 10
462.0
 20
1198.649247
 30
0.0
 11
462.0
 21
1419.960329
 31
0.0
  0
LINE
  5
122
100
AcDbEntity
  8
LAY-2
  6
CONTINUOUS
 62
     6
100
AcDbLine
 10
466.0
 20
1199.299247
 30
0.0
 11
466.0
 21
1419.960329
 31
0.0
  0
LINE
  5
123
100
AcDbEntity
  8
LAY-2
  6
CONTINUOUS
 62
     6
100
AcDbLine
 10
471.0
 20
1439.960329
 30
0.0
 11
472.284485
 21
1463.960329
 31
0.0
  0
LINE
  5
124
100
AcDbEntity
  8
LAY-2
  6
CONTINUOUS
 62
     6
100
AcDbLine
 10
463.0
 20
1461.960329
 30
0.0
 11
463.0
 21
1449.960329
 31
0.0
  0
LINE
  5
125
100
AcDbEntity
  8
LAY-2
  6
CONTINUOUS
 62
     6
100
AcDbLine
 10
465.0
 20
1461.960329
 30
0.0
 11
465.0
 21
1449.960329
 31
0.0
  0
LINE
  5
126
100
AcDbEntity
  8
LAY-2
  6
CONTINUOUS
 62
     6
100
AcDbLine
 10
469.0
 20
1437.960329
 30
0.0
 11
471.325744
 21
1464.474245
 31
0.0
  0
LINE
  5
127
100
AcDbEntity
  8
LAY-2
  6
CONTINUOUS
 62
     6
100
AcDbLine
 10
455.0
 20
1467.960329
 30
0.0
 11
455.0
 21
1451.960329
 31
0.0
  0
LINE
  5
128
100
AcDbEntity
  8
LAY-2
  6
CONTINUOUS
 62
     6
100
AcDbLine
 10
455.0
 20
1467.960329
 30
0.0
 11
469.514465
 21
1466.64081
 31
0.0
  0
ARC
  5
129
100
AcDbEntity
  8
LAY-2
  6
CONTINUOUS
 62
     6
100
AcDbCircle
 10
443.0
 20
1459.710329
 30
0.0
 40
5.0
100
AcDbArc
 50
139.458496
 51
220.541626
  0
CIRCLE
  5
12A
100
AcDbEntity
  8
LAY-2
  6
CONTINUOUS
 62
     6
100
AcDbCircle
 10
443.0
 20
1459.710329
 30
0.0
 40
2.0
  0
LINE
  5
12B
100
AcDbEntity
  8
LAY-2
  6
CONTINUOUS
 62
     6
100
AcDbLine
 10
455.0
 20
1456.460329
 30
0.0
 11
439.200317
 21
1456.460329
 31
0.0
  0
LINE
  5
12C
100
AcDbEntity
  8
LAY-2
  6
CONTINUOUS
 62
     6
100
AcDbLine
 10
455.0
 20
1462.960329
 30
0.0
 11
439.200317
 21
1462.960329
 31
0.0
  0
ARC
  5
12D
100
AcDbEntity
  8
LAY-2
  6
CONTINUOUS
 62
     6
100
AcDbCircle
 10
471.416076
 20
1463.46454
 30
0.0
 40
1.0
100
AcDbArc
 50
29.723236
 51
95.25293
  0
ARC
  5
12E
100
AcDbEntity
  8
LAY-2
  6
CONTINUOUS
 62
     6
100
AcDbCircle
 10
464.0
 20
1467.960329
 30
0.0
 40
1.0
100
AcDbArc
 50
0.0
 51
180.0
  0
ARC
  5
12F
100
AcDbEntity
  8
LAY-2
  6
CONTINUOUS
 62
     6
100
AcDbCircle
 10
464.0
 20
1461.960329
 30
0.0
 40
1.0
100
AcDbArc
 50
0.0
 51
180.0
  0
ARC
  5
130
100
AcDbEntity
  8
LAY-2
  6
CONTINUOUS
 62
     6
100
AcDbCircle
 10
469.333374
 20
1464.64905
 30
0.0
 40
2.0
100
AcDbArc
 50
354.986938
 51
84.80542
  0
LINE
  5
131
100
AcDbEntity
  8
LAY-2
  6
CONTINUOUS
 62
     6
100
AcDbLine
 10
465.0
 20
1467.960329
 30
0.0
 11
465.0
 21
1467.05121
 31
0.0
  0
LINE
  5
132
100
AcDbEntity
  8
LAY-2
  6
CONTINUOUS
 62
     6
100
AcDbLine
 10
463.0
 20
1467.233095
 30
0.0
 11
463.0
 21
1467.960329
 31
0.0
  0
ARC
  5
133
100
AcDbEntity
  8
LAY-2
  6
CONTINUOUS
 62
     6
100
AcDbCircle
 10
455.0
 20
1447.960329
 30
0.0
 40
4.0
100
AcDbArc
 50
0.0
 51
90.0
  0
LINE
  5
134
100
AcDbEntity
  8
LAY-2
  6
CONTINUOUS
 62
     6
100
AcDbLine
 10
468.5
 20
1435.960329
 30
0.0
 11
468.444397
 21
1434.460329
 31
0.0
  0
LINE
  5
135
100
AcDbEntity
  8
LAY-2
  6
CONTINUOUS
 62
     6
100
AcDbLine
 10
459.5
 20
1435.960329
 30
0.0
 11
459.555542
 21
1434.460329
 31
0.0
  0
ARC
  5
136
100
AcDbEntity
  8
LAY-2
  6
CONTINUOUS
 62
     6
100
AcDbCircle
 10
464.0
 20
1449.960329
 30
0.0
 40
1.0
100
AcDbArc
 50
180.0
 51
0.0
  0
LINE
  5
137
100
AcDbEntity
  8
LAY-2
  6
CONTINUOUS
 62
     6
100
AcDbLine
 10
469.0
 20
1437.960329
 30
0.0
 11
471.0
 21
1439.960329
 31
0.0
  0
LINE
  5
138
100
AcDbEntity
  8
LAY-2
  6
CONTINUOUS
 62
     6
100
AcDbLine
 10
469.0
 20
1435.960329
 30
0.0
 11
469.0
 21
1437.960329
 31
0.0
  0
LINE
  5
139
100
AcDbEntity
  8
LAY-2
  6
CONTINUOUS
 62
     6
100
AcDbLine
 10
459.0
 20
1435.960329
 30
0.0
 11
459.0
 21
1447.960329
 31
0.0
  0
LINE
  5
13A
100
AcDbEntity
  8
LAY-2
  6
CONTINUOUS
 62
     6
100
AcDbLine
 10
459.0
 20
1435.960329
 30
0.0
 11
469.0
 21
1435.960329
 31
0.0
  0
LINE
  5
13B
100
AcDbEntity
  8
LAY-2
  6
CONTINUOUS
 62
     6
100
AcDbLine
 10
459.967041
 20
1437.960329
 30
0.0
 11
467.858764
 21
1437.960329
 31
0.0
  0
LINE
  5
13C
100
AcDbEntity
  8
LAY-2
  6
CONTINUOUS
 62
     6
100
AcDbLine
 10
468.388855
 20
1432.960329
 30
0.0
 11
468.333313
 21
1431.460329
 31
0.0
  0
LINE
  5
13D
100
AcDbEntity
  8
LAY-2
  6
CONTINUOUS
 62
     6
100
AcDbLine
 10
468.27771
 20
1429.960329
 30
0.0
 11
468.222168
 21
1428.460329
 31
0.0
  0
LINE
  5
13E
100
AcDbEntity
  8
LAY-2
  6
CONTINUOUS
 62
     6
100
AcDbLine
 10
468.166626
 20
1426.960329
 30
0.0
 11
468.111084
 21
1425.460329
 31
0.0
  0
LINE
  5
13F
100
AcDbEntity
  8
LAY-2
  6
CONTINUOUS
 62
     6
100
AcDbLine
 10
468.055542
 20
1423.960329
 30
0.0
 11
468.0
 21
1422.460329
 31
0.0
  0
LINE
  5
140
100
AcDbEntity
  8
LAY-2
  6
CONTINUOUS
 62
     6
100
AcDbLine
 10
459.611084
 20
1432.960329
 30
0.0
 11
459.666626
 21
1431.460329
 31
0.0
  0
LINE
  5
141
100
AcDbEntity
  8
LAY-2
  6
CONTINUOUS
 62
     6
100
AcDbLine
 10
459.722168
 20
1429.960329
 30
0.0
 11
459.77771
 21
1428.460329
 31
0.0
  0
LINE
  5
142
100
AcDbEntity
  8
LAY-2
  6
CONTINUOUS
 62
     6
100
AcDbLine
 10
459.833313
 20
1426.960329
 30
0.0
 11
459.888855
 21
1425.460329
 31
0.0
  0
LINE
  5
143
100
AcDbEntity
  8
LAY-2
  6
CONTINUOUS
 62
     6
100
AcDbLine
 10
459.944397
 20
1423.960329
 30
0.0
 11
460.0
 21
1422.460329
 31
0.0
  0
LINE
  5
144
100
AcDbEntity
  8
LAY-2
  6
CONTINUOUS
 62
     6
100
AcDbLine
 10
468.578125
 20
1422.460329
 30
0.0
 11
468.5
 21
1419.960329
 31
0.0
  0
LINE
  5
145
100
AcDbEntity
  8
LAY-2
  6
CONTINUOUS
 62
     6
100
AcDbLine
 10
459.421875
 20
1422.460329
 30
0.0
 11
459.5
 21
1419.960329
 31
0.0
  0
LINE
  5
146
100
AcDbEntity
  8
LAY-2
  6
CONTINUOUS
 62
     6
100
AcDbLine
 10
459.5
 20
1419.960329
 30
0.0
 11
468.5
 21
1419.960329
 31
0.0
  0
LINE
  5
147
100
AcDbEntity
  8
LAY-2
  6
CONTINUOUS
 62
     6
100
AcDbLine
 10
459.421875
 20
1422.460329
 30
0.0
 11
468.578125
 21
1422.460329
 31
0.0
  0
LINE
  5
148
100
AcDbEntity
  8
LAY-2
  6
CONTINUOUS
 62
     2
100
AcDbLine
 10
459.851562
 20
1424.710329
 30
0.0
 11
468.148437
 21
1424.710329
 31
0.0
  0
LINE
  5
149
100
AcDbEntity
  8
LAY-2
  6
CONTINUOUS
 62
     2
100
AcDbLine
 10
459.757813
 20
1427.710329
 30
0.0
 11
468.242188
 21
1427.710329
 31
0.0
  0
LINE
  5
14A
100
AcDbEntity
  8
LAY-2
  6
CONTINUOUS
 62
     2
100
AcDbLine
 10
459.664063
 20
1430.710329
 30
0.0
 11
468.335938
 21
1430.710329
 31
0.0
  0
LINE
  5
14B
100
AcDbEntity
  8
LAY-2
  6
CONTINUOUS
 62
     2
100
AcDbLine
 10
459.570313
 20
1433.710329
 30
0.0
 11
468.429688
 21
1433.710329
 31
0.0
  0
ARC
  5
14C
100
AcDbEntity
  8
LAY-2
  6
CONTINUOUS
 62
     6
100
AcDbCircle
 10
549.588917
 20
1199.299247
 30
0.0
 40
83.588918
100
AcDbArc
 50
180.0
 51
0.0
  0
ARC
  5
14D
100
AcDbEntity
  8
LAY-2
  6
CONTINUOUS
 62
     6
100
AcDbCircle
 10
550.938918
 20
1198.649247
 30
0.0
 40
88.938918
100
AcDbArc
 50
180.0
 51
0.0
  0
LINE
  5
14E
100
AcDbEntity
  8
LAY-2
  6
CONTINUOUS
 62
     6
100
AcDbLine
 10
769.073235
 20
1463.844386
 30
0.0
 11
783.834216
 21
1463.844386
 31
0.0
  0
LINE
  5
14F
100
AcDbEntity
  8
LAY-2
  6
CONTINUOUS
 62
     6
100
AcDbLine
 10
768.947547
 20
1470.038927
 30
0.0
 11
769.073235
 21
1463.844386
 31
0.0
  0
ARC
  5
150
100
AcDbEntity
  8
LAY-2
  6
CONTINUOUS
 62
     6
100
AcDbCircle
 10
772.072618
 20
1463.905244
 30
0.0
 40
3.0
100
AcDbArc
 50
181.162388
 51
271.162412
  0
LINE
  5
151
100
AcDbEntity
  8
LAY-2
  6
CONTINUOUS
 62
     6
100
AcDbLine
 10
772.133477
 20
1460.905862
 30
0.0
 11
780.773973
 21
1460.905862
 31
0.0
  0
LINE
  5
152
100
AcDbEntity
  8
LAY-2
  6
CONTINUOUS
 62
     6
100
AcDbLine
 10
968.90632
 20
1465.980894
 30
0.0
 11
968.946884
 21
1463.981317
 31
0.0
  0
ARC
  5
153
100
AcDbEntity
  8
LAY-2
  6
CONTINUOUS
 62
     6
100
AcDbCircle
 10
971.968594
 20
1462.942404
 30
0.0
 40
3.0
100
AcDbArc
 50
181.163067
 51
271.162456
  0
LINE
  5
154
100
AcDbEntity
  8
LAY-2
  6
CONTINUOUS
 62
     6
100
AcDbLine
 10
968.969212
 20
1462.88151
 30
0.0
 11
968.946884
 21
1463.981317
 31
0.0
  0
LINE
  5
155
100
AcDbEntity
  8
LAY-2
  6
CONTINUOUS
 62
     6
100
AcDbLine
 10
972.029456
 20
1459.943021
 30
0.0
 11
980.79553
 21
1459.943021
 31
0.0
  0
LINE
  5
156
100
AcDbEntity
  8
LAY-2
  6
CONTINUOUS
 62
     6
100
AcDbLine
 10
983.855774
 20
1462.88151
 30
0.0
 11
968.969212
 21
1462.88151
 31
0.0
  0
LINE
  5
157
100
AcDbEntity
  8
LAY-2
  6
CONTINUOUS
 62
     6
100
AcDbLine
 10
1356.0
 20
1666.5
 30
0.0
 11
1046.0
 21
1666.5
 31
0.0
  0
LINE
  5
158
100
AcDbEntity
  8
LAY-2
  6
CONTINUOUS
 62
     6
100
AcDbLine
 10
716.0
 20
1269.0
 30
0.0
 11
905.0
 21
1269.0
 31
0.0
  0
TEXT
  5
159
100
AcDbEntity
  8
LAY-2
  6
CONTINUOUS
 62
     2
100
AcDbText
 10
1052.000001
 20
1670.0
 30
0.0
 40
40.0
  1
温度調節スイッチ
 41
0.798
  7
EXCADSTD
 72
     5
 11
1356.0
 21
1670.0
 31
0.0
100
AcDbText
  0
ARC
  5
15A
100
AcDbEntity
  8
LAY-2
  6
CONTINUOUS
 62
     6
100
AcDbCircle
 10
605.982248
 20
2421.590835
 30
0.0
 40
2.338
100
AcDbArc
 50
90.407842
 51
180.0
  0
ARC
  5
15B
100
AcDbEntity
  8
LAY-2
  6
CONTINUOUS
 62
     6
100
AcDbCircle
 10
605.982248
 20
2421.590835
 30
0.0
 40
5.0
100
AcDbArc
 50
90.407842
 51
180.0
  0
ARC
  5
15C
100
AcDbEntity
  8
LAY-2
  6
CONTINUOUS
 62
     6
100
AcDbCircle
 10
641.531344
 20
-2572.449342
 30
0.0
 40
4999.1667
100
AcDbArc
 50
90.407842
 51
90.468477
  0
ARC
  5
15D
100
AcDbEntity
  8
LAY-2
  6
CONTINUOUS
 62
     6
100
AcDbCircle
 10
620.980258
 20
2391.511473
 30
0.0
 40
26.0
100
AcDbArc
 50
90.236725
 51
180.0
  0
ARC
  5
15E
100
AcDbEntity
  8
LAY-2
  6
CONTINUOUS
 62
     6
100
AcDbCircle
 10
605.982248
 20
2037.510237
 30
0.0
 40
2.338
100
AcDbArc
 50
180.0
 51
269.592158
  0
ARC
  5
15F
100
AcDbEntity
  8
LAY-2
  6
CONTINUOUS
 62
     6
100
AcDbCircle
 10
641.531344
 20
7031.550414
 30
0.0
 40
4999.1667
100
AcDbArc
 50
269.531523
 51
269.592158
  0
ARC
  5
160
100
AcDbEntity
  8
LAY-2
  6
CONTINUOUS
 62
     6
100
AcDbCircle
 10
605.982248
 20
2037.510237
 30
0.0
 40
5.0
100
AcDbArc
 50
180.0
 51
269.592158
  0
ARC
  5
161
100
AcDbEntity
  8
LAY-2
  6
CONTINUOUS
 62
     6
100
AcDbCircle
 10
214.931185
 20
2229.550536
 30
0.0
 40
400.0
100
AcDbArc
 50
340.336792
 51
19.663208
  0
ARC
  5
162
100
AcDbEntity
  8
LAY-2
  6
CONTINUOUS
 62
     6
100
AcDbCircle
 10
641.531344
 20
7031.550536
 30
0.0
 40
5000.0
100
AcDbArc
 50
269.531494
 51
269.72937
  0
LINE
  5
163
100
AcDbEntity
  8
LAY-2
  6
EXLTYPE3
 62
     1
100
AcDbLine
 10
614.931185
 20
2229.550536
 30
0.0
 11
1113.812506
 21
2229.550536
 31
0.0
  0
ARC
  5
164
100
AcDbEntity
  8
LAY-2
  6
CONTINUOUS
 62
     6
100
AcDbCircle
 10
214.931185
 20
2229.550536
 30
0.0
 40
403.0
100
AcDbArc
 50
340.840555
 51
19.159445
  0
LINE
  5
165
100
AcDbEntity
  8
LAY-2
  6
CONTINUOUS
 62
     6
100
AcDbLine
 10
590.731234
 20
2369.19409
 30
0.0
 11
590.731234
 21
2417.384032
 31
0.0
  0
LINE
  5
166
100
AcDbEntity
  8
LAY-2
  6
CONTINUOUS
 62
     6
100
AcDbLine
 10
590.731234
 20
2041.71704
 30
0.0
 11
590.731234
 21
2089.906981
 31
0.0
  0
ARC
  5
167
100
AcDbEntity
  8
LAY-2
  6
CONTINUOUS
 62
     6
100
AcDbCircle
 10
600.731234
 20
2041.71704
 30
0.0
 40
10.0
100
AcDbArc
 50
180.0
 51
269.531372
  0
LINE
  5
168
100
AcDbEntity
  8
LAY-2
  6
CONTINUOUS
 62
     6
100
AcDbLine
 10
603.644248
 20
2037.510237
 30
0.0
 11
603.644248
 21
2040.379043
 31
0.0
  0
ARC
  5
169
100
AcDbEntity
  8
LAY-2
  6
CONTINUOUS
 62
     6
100
AcDbCircle
 10
600.731234
 20
2041.71704
 30
0.0
 40
9.1667
100
AcDbArc
 50
180.0
 51
269.531372
  0
LINE
  5
16A
100
AcDbEntity
  8
LAY-2
  6
CONTINUOUS
 62
     6
100
AcDbLine
 10
591.564534
 20
2041.71704
 30
0.0
 11
591.564534
 21
2046.979043
 31
0.0
  0
LINE
  5
16B
100
AcDbEntity
  8
LAY-2
  6
CONTINUOUS
 62
     6
100
AcDbLine
 10
600.982248
 20
2037.510237
 30
0.0
 11
600.982248
 21
2040.379043
 31
0.0
  0
ARC
  5
16C
100
AcDbEntity
  8
LAY-2
  6
CONTINUOUS
 62
     6
100
AcDbCircle
 10
599.382248
 20
2040.379043
 30
0.0
 40
1.6
100
AcDbArc
 50
0.0
 51
90.0
  0
ARC
  5
16D
100
AcDbEntity
  8
LAY-2
  6
CONTINUOUS
 62
     6
100
AcDbCircle
 10
599.382248
 20
2040.379043
 30
0.0
 40
4.262
100
AcDbArc
 50
0.0
 51
90.0
  0
LINE
  5
16E
100
AcDbEntity
  8
LAY-2
  6
CONTINUOUS
 62
     6
100
AcDbLine
 10
599.382248
 20
2041.979043
 30
0.0
 11
596.564534
 21
2041.979043
 31
0.0
  0
ARC
  5
16F
100
AcDbEntity
  8
LAY-2
  6
CONTINUOUS
 62
     6
100
AcDbCircle
 10
596.564534
 20
2046.979043
 30
0.0
 40
5.0
100
AcDbArc
 50
180.0
 51
270.0
  0
LINE
  5
170
100
AcDbEntity
  8
LAY-2
  6
CONTINUOUS
 62
     6
100
AcDbLine
 10
599.382248
 20
2044.641043
 30
0.0
 11
596.564534
 21
2044.641043
 31
0.0
  0
ARC
  5
171
100
AcDbEntity
  8
LAY-2
  6
CONTINUOUS
 62
     6
100
AcDbCircle
 10
596.564534
 20
2046.979043
 30
0.0
 40
2.338
100
AcDbArc
 50
180.0
 51
270.0
  0
ARC
  5
172
100
AcDbEntity
  8
LAY-2
  6
CONTINUOUS
 62
     6
100
AcDbCircle
 10
605.731234
 20
2089.906981
 30
0.0
 40
15.0
100
AcDbArc
 50
160.336731
 51
180.0
  0
LINE
  5
173
100
AcDbEntity
  8
LAY-2
  6
CONTINUOUS
 62
     6
100
AcDbLine
 10
594.980258
 20
2366.807721
 30
0.0
 11
594.980258
 21
2391.011473
 31
0.0
  0
ARC
  5
174
100
AcDbEntity
  8
LAY-2
  6
CONTINUOUS
 62
     6
100
AcDbCircle
 10
609.980258
 20
2366.807721
 30
0.0
 40
15.0
100
AcDbArc
 50
180.0
 51
199.313711
  0
ARC
  5
175
100
AcDbEntity
  8
LAY-2
  6
CONTINUOUS
 62
     6
100
AcDbCircle
 10
605.731234
 20
2369.19409
 30
0.0
 40
15.0
100
AcDbArc
 50
180.0
 51
199.663269
  0
ARC
  5
176
100
AcDbEntity
  8
LAY-2
  6
CONTINUOUS
 62
     6
100
AcDbCircle
 10
596.564534
 20
2412.122029
 30
0.0
 40
2.338
100
AcDbArc
 50
90.0
 51
180.0
  0
LINE
  5
177
100
AcDbEntity
  8
LAY-2
  6
CONTINUOUS
 62
     6
100
AcDbLine
 10
591.564534
 20
2417.384032
 30
0.0
 11
591.564534
 21
2412.122029
 31
0.0
  0
ARC
  5
178
100
AcDbEntity
  8
LAY-2
  6
CONTINUOUS
 62
     6
100
AcDbCircle
 10
596.564534
 20
2412.122029
 30
0.0
 40
5.0
100
AcDbArc
 50
90.0
 51
180.0
  0
LINE
  5
179
100
AcDbEntity
  8
LAY-2
  6
CONTINUOUS
 62
     6
100
AcDbLine
 10
599.382248
 20
2417.122029
 30
0.0
 11
596.564534
 21
2417.122029
 31
0.0
  0
ARC
  5
17A
100
AcDbEntity
  8
LAY-2
  6
CONTINUOUS
 62
     6
100
AcDbCircle
 10
599.382248
 20
2418.722029
 30
0.0
 40
1.6
100
AcDbArc
 50
270.0
 51
0.0
  0
LINE
  5
17B
100
AcDbEntity
  8
LAY-2
  6
CONTINUOUS
 62
     6
100
AcDbLine
 10
599.382248
 20
2414.460029
 30
0.0
 11
596.564534
 21
2414.460029
 31
0.0
  0
ARC
  5
17C
100
AcDbEntity
  8
LAY-2
  6
CONTINUOUS
 62
     6
100
AcDbCircle
 10
599.382248
 20
2418.722029
 30
0.0
 40
4.262
100
AcDbArc
 50
270.0
 51
0.0
  0
LINE
  5
17D
100
AcDbEntity
  8
LAY-2
  6
CONTINUOUS
 62
     6
100
AcDbLine
 10
603.644248
 20
2421.590835
 30
0.0
 11
603.644248
 21
2418.722029
 31
0.0
  0
LINE
  5
17E
100
AcDbEntity
  8
LAY-2
  6
CONTINUOUS
 62
     6
100
AcDbLine
 10
600.982248
 20
2421.590835
 30
0.0
 11
600.982248
 21
2418.722029
 31
0.0
  0
ARC
  5
17F
100
AcDbEntity
  8
LAY-2
  6
CONTINUOUS
 62
     6
100
AcDbCircle
 10
600.731234
 20
2417.384032
 30
0.0
 40
9.1667
100
AcDbArc
 50
90.468628
 51
180.0
  0
ARC
  5
180
100
AcDbEntity
  8
LAY-2
  6
CONTINUOUS
 62
     6
100
AcDbCircle
 10
600.731234
 20
2417.384032
 30
0.0
 40
10.0
100
AcDbArc
 50
90.468628
 51
180.0
  0
LINE
  5
181
100
AcDbEntity
  8
LAY-2
  6
CONTINUOUS
 62
     6
100
AcDbLine
 10
636.954867
 20
2416.29077
 30
0.0
 11
636.954867
 21
2372.723998
 31
0.0
  0
LINE
  5
182
100
AcDbEntity
  8
LAY-2
  6
CONTINUOUS
 62
     6
100
AcDbLine
 10
652.127811
 20
2375.050505
 30
0.0
 11
652.127811
 21
2420.550536
 31
0.0
  0
ARC
  5
183
100
AcDbEntity
  8
LAY-2
  6
EXLTYPE2
 62
     6
100
AcDbCircle
 10
867.199333
 20
2489.346248
 30
0.0
 40
360.0
100
AcDbArc
 50
272.889669
 51
285.267393
  0
ARC
  5
184
100
AcDbEntity
  8
LAY-2
  6
EXLTYPE2
 62
     6
100
AcDbCircle
 10
867.199333
 20
1969.754824
 30
0.0
 40
360.0
100
AcDbArc
 50
74.732607
 51
87.110331
  0
LINE
  5
185
100
AcDbEntity
  8
LAY-2
  6
CONTINUOUS
 62
     6
100
AcDbLine
 10
696.495731
 20
2089.550152
 30
0.0
 11
696.495731
 21
2369.550902
 31
0.0
  0
LINE
  5
186
100
AcDbEntity
  8
LAY-2
  6
CONTINUOUS
 62
     6
100
AcDbLine
 10
690.131259
 20
2365.116698
 30
0.0
 11
690.131259
 21
2094.377074
 31
0.0
  0
LINE
  5
187
100
AcDbEntity
  8
LAY-2
  6
CONTINUOUS
 62
     6
100
AcDbLine
 10
707.127811
 20
2092.050567
 30
0.0
 11
707.127811
 21
2367.050505
 31
0.0
  0
ARC
  5
188
100
AcDbEntity
  8
LAY-2
  6
CONTINUOUS
 62
     6
100
AcDbCircle
 10
636.532565
 20
2085.971496
 30
0.0
 40
70.0
100
AcDbArc
 50
259.056093
 51
280.865979
  0
ARC
  5
189
100
AcDbEntity
  8
LAY-2
  6
CONTINUOUS
 62
     6
100
AcDbCircle
 10
623.713725
 20
2019.19068
 30
0.0
 40
2.0
100
AcDbArc
 50
181.0
 51
259.134021
  0
ARC
  5
18A
100
AcDbEntity
  8
LAY-2
  6
CONTINUOUS
 62
     6
100
AcDbCircle
 10
649.351405
 20
2019.19068
 30
0.0
 40
2.0
100
AcDbArc
 50
280.865979
 51
359.0
  0
ARC
  5
18B
100
AcDbEntity
  8
LAY-2
  6
EXLTYPE2
 62
     6
100
AcDbCircle
 10
865.182819
 20
2529.295386
 30
0.0
 40
400.0
100
AcDbArc
 50
267.636774
 51
272.889669
  0
ARC
  5
18C
100
AcDbEntity
  8
LAY-2
  6
EXLTYPE2
 62
     6
100
AcDbCircle
 10
852.812506
 20
2229.550536
 30
0.0
 40
100.0
100
AcDbArc
 50
92.342026
 51
267.636773
  0
LINE
  5
18D
100
AcDbEntity
  8
LAY-2
  6
CONTINUOUS
 62
     6
100
AcDbLine
 10
656.128225
 20
2371.5509
 30
0.0
 11
694.495657
 21
2371.55092
 31
0.0
  0
ARC
  5
18E
100
AcDbEntity
  8
LAY-2
  6
CONTINUOUS
 62
     6
100
AcDbCircle
 10
687.131259
 20
2364.723998
 30
0.0
 40
3.0
100
AcDbArc
 50
0.0
 51
90.0
  0
LINE
  5
18F
100
AcDbEntity
  8
LAY-2
  6
CONTINUOUS
 62
     6
100
AcDbLine
 10
702.127811
 20
2372.050505
 30
0.0
 11
655.127811
 21
2372.050505
 31
0.0
  0
LINE
  5
190
100
AcDbEntity
  8
LAY-2
  6
CONTINUOUS
 62
     6
100
AcDbLine
 10
687.131259
 20
2367.723998
 30
0.0
 11
641.954867
 21
2367.723998
 31
0.0
  0
ARC
  5
191
100
AcDbEntity
  8
LAY-2
  6
CONTINUOUS
 62
     6
100
AcDbCircle
 10
641.954867
 20
2372.723998
 30
0.0
 40
5.0
100
AcDbArc
 50
180.0
 51
270.0
  0
LINE
  5
192
100
AcDbEntity
  8
LAY-2
  6
CONTINUOUS
 62
     6
100
AcDbLine
 10
664.661349
 20
2368.150511
 30
0.0
 11
669.462618
 21
2368.150511
 31
0.0
  0
ARC
  5
193
100
AcDbEntity
  8
LAY-2
  6
CONTINUOUS
 62
     6
100
AcDbCircle
 10
669.022921
 20
2372.418371
 30
0.0
 40
4.0
100
AcDbArc
 50
231.202598
 51
270.0
  0
LINE
  5
194
100
AcDbEntity
  8
LAY-2
  6
CONTINUOUS
 62
     6
100
AcDbLine
 10
679.628226
 20
2369.300912
 30
0.0
 11
654.628226
 21
2369.300899
 31
0.0
  0
ARC
  5
195
100
AcDbEntity
  8
LAY-2
  6
CONTINUOUS
 62
     6
100
AcDbCircle
 10
654.628226
 20
2370.300899
 30
0.0
 40
1.0
100
AcDbArc
 50
180.0
 51
270.0
  0
LINE
  5
196
100
AcDbEntity
  8
LAY-2
  6
CONTINUOUS
 62
     6
100
AcDbLine
 10
653.628225
 20
2372.452223
 30
0.0
 11
653.628226
 21
2370.300898
 31
0.0
  0
ARC
  5
197
100
AcDbEntity
  8
LAY-2
  6
CONTINUOUS
 62
     6
100
AcDbCircle
 10
656.128223
 20
2374.5509
 30
0.0
 40
3.0
100
AcDbArc
 50
232.719738
 51
270.0
  0
LINE
  5
198
100
AcDbEntity
  8
LAY-2
  6
CONTINUOUS
 62
     6
100
AcDbLine
 10
653.456121
 20
2372.559464
 30
0.0
 11
653.456121
 21
2368.028237
 31
0.0
  0
LINE
  5
199
100
AcDbEntity
  8
LAY-2
  6
CONTINUOUS
 62
     6
100
AcDbLine
 10
658.242921
 20
2369.300901
 30
0.0
 11
658.242921
 21
2368.150277
 31
0.0
  0
ARC
  5
19A
100
AcDbEntity
  8
LAY-2
  6
CONTINUOUS
 62
     6
100
AcDbCircle
 10
655.127811
 20
2375.050505
 30
0.0
 40
2.999998
100
AcDbArc
 50
180.0
 51
270.0
  0
LINE
  5
19B
100
AcDbEntity
  8
LAY-2
  6
CONTINUOUS
 62
     6
100
AcDbLine
 10
680.628225
 20
2371.550913
 30
0.0
 11
680.628226
 21
2370.300913
 31
0.0
  0
ARC
  5
19C
100
AcDbEntity
  8
LAY-2
  6
CONTINUOUS
 62
     6
100
AcDbCircle
 10
679.628226
 20
2370.300912
 30
0.0
 40
1.0
100
AcDbArc
 50
270.0
 51
0.0
  0
ARC
  5
19D
100
AcDbEntity
  8
LAY-2
  6
CONTINUOUS
 62
     6
100
AcDbCircle
 10
694.495658
 20
2369.55092
 30
0.0
 40
2.0
100
AcDbArc
 50
0.0
 51
90.0
  0
ARC
  5
19E
100
AcDbEntity
  8
LAY-2
  6
CONTINUOUS
 62
     6
100
AcDbCircle
 10
702.127811
 20
2367.050505
 30
0.0
 40
4.999998
100
AcDbArc
 50
0.0
 51
89.999969
  0
ARC
  5
19F
100
AcDbEntity
  8
LAY-2
  6
EXLTYPE2
 62
     6
100
AcDbCircle
 10
865.182819
 20
1929.805686
 30
0.0
 40
400.0
100
AcDbArc
 50
87.110331
 51
92.363226
  0
ARC
  5
1A0
100
AcDbEntity
  8
LAY-2
  6
EXLTYPE2
 62
     6
100
AcDbCircle
 10
938.112506
 20
2229.550536
 30
0.0
 40
90.7
100
AcDbArc
 50
285.263637
 51
74.742988
  0
ARC
  5
1A1
100
AcDbEntity
  8
LAY-2
  6
CONTINUOUS
 62
     6
100
AcDbCircle
 10
641.531344
 20
-2582.445924
 30
0.0
 40
5000.0
100
AcDbArc
 50
90.066467
 51
90.23673
  0
LINE
  5
1A2
100
AcDbEntity
  8
LAY-2
  6
CONTINUOUS
 62
     6
100
AcDbLine
 10
656.128225
 20
2087.550172
 30
0.0
 11
694.495657
 21
2087.550152
 31
0.0
  0
ARC
  5
1A3
100
AcDbEntity
  8
LAY-2
  6
CONTINUOUS
 62
     6
100
AcDbCircle
 10
687.131259
 20
2094.377074
 30
0.0
 40
3.0
100
AcDbArc
 50
270.0
 51
0.0
  0
LINE
  5
1A4
100
AcDbEntity
  8
LAY-2
  6
CONTINUOUS
 62
     6
100
AcDbLine
 10
702.127811
 20
2087.050567
 30
0.0
 11
655.127811
 21
2087.050567
 31
0.0
  0
LINE
  5
1A5
100
AcDbEntity
  8
LAY-2
  6
CONTINUOUS
 62
     6
100
AcDbLine
 10
687.131259
 20
2091.377074
 30
0.0
 11
641.954867
 21
2091.377074
 31
0.0
  0
ARC
  5
1A6
100
AcDbEntity
  8
LAY-2
  6
CONTINUOUS
 62
     6
100
AcDbCircle
 10
641.954867
 20
2086.377074
 30
0.0
 40
5.0
100
AcDbArc
 50
90.0
 51
180.0
  0
LINE
  5
1A7
100
AcDbEntity
  8
LAY-2
  6
CONTINUOUS
 62
     6
100
AcDbLine
 10
664.661349
 20
2090.950561
 30
0.0
 11
669.462618
 21
2090.950561
 31
0.0
  0
ARC
  5
1A8
100
AcDbEntity
  8
LAY-2
  6
CONTINUOUS
 62
     6
100
AcDbCircle
 10
669.022921
 20
2086.682701
 30
0.0
 40
4.0
100
AcDbArc
 50
90.0
 51
128.797402
  0
LINE
  5
1A9
100
AcDbEntity
  8
LAY-2
  6
CONTINUOUS
 62
     6
100
AcDbLine
 10
679.628226
 20
2089.80016
 30
0.0
 11
654.628226
 21
2089.800173
 31
0.0
  0
ARC
  5
1AA
100
AcDbEntity
  8
LAY-2
  6
CONTINUOUS
 62
     6
100
AcDbCircle
 10
654.628226
 20
2088.800173
 30
0.0
 40
1.0
100
AcDbArc
 50
90.0
 51
180.0
  0
LINE
  5
1AB
100
AcDbEntity
  8
LAY-2
  6
CONTINUOUS
 62
     6
100
AcDbLine
 10
653.628225
 20
2086.648849
 30
0.0
 11
653.628226
 21
2088.800174
 31
0.0
  0
ARC
  5
1AC
100
AcDbEntity
  8
LAY-2
  6
CONTINUOUS
 62
     6
100
AcDbCircle
 10
656.128223
 20
2084.550172
 30
0.0
 40
3.0
100
AcDbArc
 50
90.0
 51
127.280262
  0
LINE
  5
1AD
100
AcDbEntity
  8
LAY-2
  6
CONTINUOUS
 62
     6
100
AcDbLine
 10
653.456121
 20
2086.541608
 30
0.0
 11
653.456121
 21
2091.072835
 31
0.0
  0
LINE
  5
1AE
100
AcDbEntity
  8
LAY-2
  6
CONTINUOUS
 62
     6
100
AcDbLine
 10
658.242921
 20
2089.800171
 30
0.0
 11
658.242921
 21
2090.950795
 31
0.0
  0
ARC
  5
1AF
100
AcDbEntity
  8
LAY-2
  6
CONTINUOUS
 62
     6
100
AcDbCircle
 10
655.127811
 20
2084.050567
 30
0.0
 40
2.999998
100
AcDbArc
 50
90.0
 51
180.0
  0
LINE
  5
1B0
100
AcDbEntity
  8
LAY-2
  6
CONTINUOUS
 62
     6
100
AcDbLine
 10
680.628225
 20
2087.550159
 30
0.0
 11
680.628226
 21
2088.800159
 31
0.0
  0
ARC
  5
1B1
100
AcDbEntity
  8
LAY-2
  6
CONTINUOUS
 62
     6
100
AcDbCircle
 10
679.628226
 20
2088.80016
 30
0.0
 40
1.0
100
AcDbArc
 50
0.0
 51
90.0
  0
ARC
  5
1B2
100
AcDbEntity
  8
LAY-2
  6
CONTINUOUS
 62
     6
100
AcDbCircle
 10
694.495658
 20
2089.550152
 30
0.0
 40
2.0
100
AcDbArc
 50
270.0
 51
0.0
  0
ARC
  5
1B3
100
AcDbEntity
  8
LAY-2
  6
CONTINUOUS
 62
     6
100
AcDbCircle
 10
702.127811
 20
2092.050567
 30
0.0
 40
4.999998
100
AcDbArc
 50
270.000031
 51
0.0
  0
LINE
  5
1B4
100
AcDbEntity
  8
LAY-2
  6
CONTINUOUS
 62
     6
100
AcDbLine
 10
652.127811
 20
2084.050567
 30
0.0
 11
652.127811
 21
2038.550536
 31
0.0
  0
LINE
  5
1B5
100
AcDbEntity
  8
LAY-2
  6
CONTINUOUS
 62
     6
100
AcDbLine
 10
636.954867
 20
2042.810302
 30
0.0
 11
636.954867
 21
2086.377074
 31
0.0
  0
ARC
  5
1B6
100
AcDbEntity
  8
LAY-2
  6
CONTINUOUS
 62
     6
100
AcDbCircle
 10
620.980258
 20
2067.589599
 30
0.0
 40
26.0
100
AcDbArc
 50
180.0
 51
269.763275
  0
ARC
  5
1B7
100
AcDbEntity
  8
LAY-2
  6
CONTINUOUS
 62
     6
100
AcDbCircle
 10
641.531344
 20
7041.546996
 30
0.0
 40
5000.0
100
AcDbArc
 50
269.76327
 51
269.933533
  0
LINE
  5
1B8
100
AcDbEntity
  8
LAY-2
  6
CONTINUOUS
 62
     6
100
AcDbLine
 10
594.980258
 20
2092.293351
 30
0.0
 11
594.980258
 21
2068.089599
 31
0.0
  0
ARC
  5
1B9
100
AcDbEntity
  8
LAY-2
  6
CONTINUOUS
 62
     6
100
AcDbCircle
 10
609.980258
 20
2092.293351
 30
0.0
 40
15.0
100
AcDbArc
 50
160.686289
 51
180.0
  0
LINE
  5
1BA
100
AcDbEntity
  8
LAY-2
  6
CONTINUOUS
 62
     6
100
AcDbLine
 10
471.333374
 20
1889.710799
 30
0.0
 11
471.333374
 21
1909.390265
 31
0.0
  0
LINE
  5
1BB
100
AcDbEntity
  8
LAY-2
  6
CONTINUOUS
 62
     6
100
AcDbLine
 10
472.284485
 20
1891.050528
 30
0.0
 11
472.284485
 21
1908.050536
 31
0.0
  0
LINE
  5
1BC
100
AcDbEntity
  8
LAY-2
  6
CONTINUOUS
 62
     6
100
AcDbLine
 10
469.425114
 20
1911.38816
 30
0.0
 11
455.0
 21
1912.050536
 31
0.0
  0
LINE
  5
1BD
100
AcDbEntity
  8
LAY-2
  6
CONTINUOUS
 62
     6
100
AcDbLine
 10
455.0
 20
1887.050528
 30
0.0
 11
469.425114
 21
1887.712904
 31
0.0
  0
ARC
  5
1BE
100
AcDbEntity
  8
LAY-2
  6
CONTINUOUS
 62
     6
100
AcDbCircle
 10
469.333374
 20
1889.710799
 30
0.0
 40
2.0
100
AcDbArc
 50
272.629075
 51
0.0
  0
ARC
  5
1BF
100
AcDbEntity
  8
LAY-2
  6
CONTINUOUS
 62
     6
100
AcDbCircle
 10
469.333374
 20
1909.390265
 30
0.0
 40
2.0
100
AcDbArc
 50
0.0
 51
87.370925
  0
LINE
  5
1C0
100
AcDbEntity
  8
LAY-2
  6
CONTINUOUS
 62
     6
100
AcDbLine
 10
455.0
 20
1887.050528
 30
0.0
 11
455.0
 21
1912.050536
 31
0.0
  0
ARC
  5
1C1
100
AcDbEntity
  8
LAY-2
  6
CONTINUOUS
 62
     6
100
AcDbCircle
 10
471.284485
 20
1891.050528
 30
0.0
 40
1.0
100
AcDbArc
 50
270.0
 51
0.0
  0
ARC
  5
1C2
100
AcDbEntity
  8
LAY-2
  6
CONTINUOUS
 62
     6
100
AcDbCircle
 10
471.284485
 20
1908.050536
 30
0.0
 40
1.0
100
AcDbArc
 50
0.0
 51
90.0
  0
ARC
  5
1C3
100
AcDbEntity
  8
LAY-2
  6
CONTINUOUS
 62
     6
100
AcDbCircle
 10
464.0
 20
1911.800536
 30
0.0
 40
1.0
100
AcDbArc
 50
0.0
 51
180.0
  0
ARC
  5
1C4
100
AcDbEntity
  8
LAY-2
  6
CONTINUOUS
 62
     6
100
AcDbCircle
 10
464.0
 20
1887.300528
 30
0.0
 40
1.0
100
AcDbArc
 50
180.0
 51
0.0
  0
LINE
  5
1C5
100
AcDbEntity
  8
LAY-2
  6
CONTINUOUS
 62
     6
100
AcDbLine
 10
465.0
 20
1912.050536
 30
0.0
 11
465.0
 21
1911.591353
 31
0.0
  0
LINE
  5
1C6
100
AcDbEntity
  8
LAY-2
  6
CONTINUOUS
 62
     6
100
AcDbLine
 10
465.0
 20
1887.509711
 30
0.0
 11
465.0
 21
1887.050528
 31
0.0
  0
LINE
  5
1C7
100
AcDbEntity
  8
LAY-2
  6
CONTINUOUS
 62
     2
100
AcDbLine
 10
455.0
 20
1906.050536
 30
0.0
 11
438.0
 21
1906.050536
 31
0.0
  0
LINE
  5
1C8
100
AcDbEntity
  8
LAY-2
  6
CONTINUOUS
 62
     2
100
AcDbLine
 10
455.0
 20
1893.050536
 30
0.0
 11
438.0
 21
1893.050536
 31
0.0
  0
ARC
  5
1C9
100
AcDbEntity
  8
LAY-2
  6
CONTINUOUS
 62
     6
100
AcDbCircle
 10
464.0
 20
1905.550536
 30
0.0
 40
1.0
100
AcDbArc
 50
0.0
 51
180.0
  0
ARC
  5
1CA
100
AcDbEntity
  8
LAY-2
  6
CONTINUOUS
 62
     6
100
AcDbCircle
 10
464.0
 20
1893.550528
 30
0.0
 40
1.0
100
AcDbArc
 50
180.0
 51
0.0
  0
LINE
  5
1CB
100
AcDbEntity
  8
LAY-2
  6
CONTINUOUS
 62
     6
100
AcDbLine
 10
465.0
 20
1905.550536
 30
0.0
 11
465.0
 21
1893.550528
 31
0.0
  0
LINE
  5
1CC
100
AcDbEntity
  8
LAY-2
  6
CONTINUOUS
 62
     6
100
AcDbLine
 10
463.0
 20
1893.550528
 30
0.0
 11
463.0
 21
1905.550536
 31
0.0
  0
CIRCLE
  5
1CD
100
AcDbEntity
  8
LAY-2
  6
EXLTYPE2
 62
     6
100
AcDbCircle
 10
644.901248
 20
2299.550536
 30
0.0
 40
6.0
  0
CIRCLE
  5
1CE
100
AcDbEntity
  8
LAY-2
  6
EXLTYPE2
 62
     6
100
AcDbCircle
 10
644.901248
 20
2159.550536
 30
0.0
 40
6.0
  0
LINE
  5
1CF
100
AcDbEntity
  8
LAY-2
  6
CONTINUOUS
 62
     6
100
AcDbLine
 10
471.823455
 20
1908.892861
 30
0.0
 11
622.514025
 21
2017.590455
 31
0.0
  0
LINE
  5
1D0
100
AcDbEntity
  8
LAY-2
  6
CONTINUOUS
 62
     6
100
AcDbLine
 10
630.846458
 20
2016.20282
 30
0.0
 11
472.284485
 21
1901.827348
 31
0.0
  0
LINE
  5
1D1
100
AcDbEntity
  8
LAY-2
  6
CONTINUOUS
 62
     6
100
AcDbLine
 10
619.901248
 20
2299.550536
 30
0.0
 11
669.901248
 21
2299.550536
 31
0.0
  0
LINE
  5
1D2
100
AcDbEntity
  8
LAY-2
  6
CONTINUOUS
 62
     6
100
AcDbLine
 10
619.901248
 20
2159.550536
 30
0.0
 11
669.901248
 21
2159.550536
 31
0.0
  0
LINE
  5
1D3
100
AcDbEntity
  8
LAY-2
  6
CONTINUOUS
 62
     6
100
AcDbLine
 10
644.901248
 20
2134.550536
 30
0.0
 11
644.901248
 21
2184.550536
 31
0.0
  0
TEXT
  5
1D4
100
AcDbEntity
  8
LAY-2
  6
CONTINUOUS
 62
     2
100
AcDbText
 10
716.0
 20
1272.5
 30
0.0
 40
40.0
  1
電源コード
 41
0.8106
  7
EXCADSTD
 72
     5
 11
909.0
 21
1272.5
 31
0.0
100
AcDbText
  0
ARC
  5
1D5
100
AcDbEntity
  8
LAY-2
  6
CONTINUOUS
 62
     6
100
AcDbCircle
 10
1608.658241
 20
7487.412459
 30
0.0
 40
6018.150391
100
AcDbArc
 50
268.190796
 51
271.809205
  0
ARC
  5
1D6
100
AcDbEntity
  8
LAY-2
  6
CONTINUOUS
 62
     6
100
AcDbCircle
 10
1608.657036
 20
6019.054516
 30
0.0
 40
4514.486328
100
AcDbArc
 50
267.731239
 51
272.268805
  0
ARC
  5
1D7
100
AcDbEntity
  8
LAY-2
  6
CONTINUOUS
 62
     6
100
AcDbCircle
 10
1608.656449
 20
3297.157548
 30
0.0
 40
1799.236328
100
AcDbArc
 50
264.234742
 51
275.765259
  0
ARC
  5
1D8
100
AcDbEntity
  8
LAY-2
  6
CONTINUOUS
 62
     6
100
AcDbCircle
 10
1608.657488
 20
2056.498969
 30
0.0
 40
531.345886
100
AcDbArc
 50
250.317653
 51
289.682643
  0
ARC
  5
1D9
100
AcDbEntity
  8
LAY-2
  6
CONTINUOUS
 62
     6
100
AcDbCircle
 10
1685.444306
 20
1088.939428
 30
0.0
 40
500.0
100
AcDbArc
 50
78.208454
 51
82.185122
  0
ARC
  5
1DA
100
AcDbEntity
  8
LAY-2
  6
CONTINUOUS
 62
     6
100
AcDbCircle
 10
1697.24313
 20
1088.592348
 30
0.0
 40
500.0
100
AcDbArc
 50
79.641932
 51
86.614349
  0
ARC
  5
1DB
100
AcDbEntity
  8
LAY-2
  6
CONTINUOUS
 62
     6
100
AcDbCircle
 10
1784.963548
 20
1565.662535
 30
0.0
 40
13.0
100
AcDbArc
 50
15.04368
 51
78.208454
  0
ARC
  5
1DC
100
AcDbEntity
  8
LAY-2
  6
CONTINUOUS
 62
     6
100
AcDbCircle
 10
1784.445767
 20
1565.688417
 30
0.0
 40
15.0
100
AcDbArc
 50
15.07666
 51
79.641903
  0
ARC
  5
1DD
100
AcDbEntity
  8
LAY-2
  6
CONTINUOUS
 62
     6
100
AcDbCircle
 10
1786.742108
 20
1524.094566
 30
0.0
 40
16.0
100
AcDbArc
 50
272.268805
 51
358.095527
  0
LINE
  5
1DE
100
AcDbEntity
  8
LAY-2
  6
CONTINUOUS
 62
     6
100
AcDbLine
 10
1806.640709
 20
1460.22778
 30
0.0
 11
1804.001198
 21
1535.808571
 31
0.0
  0
ARC
  5
1DF
100
AcDbEntity
  8
LAY-2
  6
CONTINUOUS
 62
     6
100
AcDbCircle
 10
1790.199933
 20
1499.062675
 30
0.0
 40
8.000002
100
AcDbArc
 50
43.370667
 51
95.765442
  0
LINE
  5
1E0
100
AcDbEntity
  8
LAY-2
  6
CONTINUOUS
 62
     6
100
AcDbLine
 10
1797.968603
 20
1511.665734
 30
0.0
 11
1798.65646
 21
1472.26156
 31
0.0
  0
LINE
  5
1E1
100
AcDbEntity
  8
LAY-2
  6
CONTINUOUS
 62
     6
100
AcDbLine
 10
1806.074795
 20
1459.710329
 30
0.0
 11
1805.614712
 21
1472.884767
 31
0.0
  0
LINE
  5
1E2
100
AcDbEntity
  8
LAY-2
  6
CONTINUOUS
 62
     6
100
AcDbLine
 10
1800.617764
 20
1477.710268
 30
0.0
 11
1798.513103
 21
1477.710268
 31
0.0
  0
ARC
  5
1E3
100
AcDbEntity
  8
LAY-2
  6
CONTINUOUS
 62
     6
100
AcDbCircle
 10
1800.617764
 20
1472.710268
 30
0.0
 40
5.0
100
AcDbArc
 50
2.000031
 51
90.0
  0
ARC
  5
1E4
100
AcDbEntity
  8
LAY-2
  6
CONTINUOUS
 62
     6
100
AcDbCircle
 10
1806.141014
 20
1460.210329
 30
0.0
 40
0.5
100
AcDbArc
 50
270.0
 51
2.00013
  0
ARC
  5
1E5
100
AcDbEntity
  8
LAY-2
  6
CONTINUOUS
 62
     6
100
AcDbCircle
 10
1652.65878
 20
1530.10345
 30
0.0
 40
150.0
100
AcDbArc
 50
2.074556
 51
15.04368
  0
ARC
  5
1E6
100
AcDbEntity
  8
LAY-2
  6
CONTINUOUS
 62
     6
100
AcDbCircle
 10
1654.092557
 20
1530.573305
 30
0.0
 40
150.0
100
AcDbArc
 50
2.000153
 51
15.076721
  0
ARC
  5
1E7
100
AcDbEntity
  8
LAY-2
  6
CONTINUOUS
 62
     6
100
AcDbCircle
 10
1652.816126
 20
1528.547816
 30
0.0
 40
150.0
100
AcDbArc
 50
358.095527
 51
2.67814
  0
LINE
  5
1E8
100
AcDbEntity
  8
LAY-2
  6
CONTINUOUS
 62
     6
100
AcDbLine
 10
1404.65878
 20
1459.710329
 30
0.0
 11
1806.65878
 21
1459.710329
 31
0.0
  0
LINE
  5
1E9
100
AcDbEntity
  8
LAY-2
  6
CONTINUOUS
 62
     6
100
AcDbLine
 10
1267.999992
 20
1467.960329
 30
0.0
 11
1288.0
 21
1467.960329
 31
0.0
  0
LINE
  5
1EA
100
AcDbEntity
  8
LAY-2
  6
CONTINUOUS
 62
     6
100
AcDbLine
 10
1285.0
 20
1437.960329
 30
0.0
 11
1290.35434
 21
1454.510134
 31
0.0
  0
LINE
  5
1EB
100
AcDbEntity
  8
LAY-2
  6
CONTINUOUS
 62
     6
100
AcDbLine
 10
1282.5
 20
1437.960329
 30
0.0
 11
1287.378098
 21
1454.545901
 31
0.0
  0
ARC
  5
1EC
100
AcDbEntity
  8
LAY-2
  6
CONTINUOUS
 62
     6
100
AcDbCircle
 10
1285.5
 20
1462.460329
 30
0.0
 40
2.0
100
AcDbArc
 50
0.0
 51
90.0
  0
LINE
  5
1ED
100
AcDbEntity
  8
LAY-2
  6
CONTINUOUS
 62
     6
100
AcDbLine
 10
1271.000008
 20
1437.960329
 30
0.0
 11
1265.645653
 21
1454.510134
 31
0.0
  0
LINE
  5
1EE
100
AcDbEntity
  8
LAY-2
  6
CONTINUOUS
 62
     6
100
AcDbLine
 10
1273.500008
 20
1437.960329
 30
0.0
 11
1268.621895
 21
1454.545901
 31
0.0
  0
ARC
  5
1EF
100
AcDbEntity
  8
LAY-2
  6
CONTINUOUS
 62
     6
100
AcDbCircle
 10
1267.999992
 20
1465.460329
 30
0.0
 40
2.5
100
AcDbArc
 50
90.0
 51
180.0
  0
LINE
  5
1F0
100
AcDbEntity
  8
LAY-2
  6
CONTINUOUS
 62
     6
100
AcDbLine
 10
1285.0
 20
1467.960329
 30
0.0
 11
1285.0
 21
1468.460329
 31
0.0
  0
LINE
  5
1F1
100
AcDbEntity
  8
LAY-2
  6
CONTINUOUS
 62
     6
100
AcDbLine
 10
1270.999992
 20
1467.960329
 30
0.0
 11
1270.999992
 21
1468.460329
 31
0.0
  0
LINE
  5
1F2
100
AcDbEntity
  8
LAY-2
  6
CONTINUOUS
 62
     6
100
AcDbLine
 10
1271.499992
 20
1468.960329
 30
0.0
 11
1284.5
 21
1468.960329
 31
0.0
  0
ARC
  5
1F3
100
AcDbEntity
  8
LAY-2
  6
CONTINUOUS
 62
     6
100
AcDbCircle
 10
1271.499992
 20
1468.460329
 30
0.0
 40
0.5
100
AcDbArc
 50
90.0
 51
180.0
  0
ARC
  5
1F4
100
AcDbEntity
  8
LAY-2
  6
CONTINUOUS
 62
     6
100
AcDbCircle
 10
1284.5
 20
1468.460329
 30
0.0
 40
0.5
100
AcDbArc
 50
0.0
 51
90.0
  0
LINE
  5
1F5
100
AcDbEntity
  8
LAY-2
  6
CONTINUOUS
 62
     6
100
AcDbLine
 10
1265.499992
 20
1465.460329
 30
0.0
 11
1265.499992
 21
1455.433596
 31
0.0
  0
LINE
  5
1F6
100
AcDbEntity
  8
LAY-2
  6
CONTINUOUS
 62
     6
100
AcDbLine
 10
1264.749992
 20
1462.960329
 30
0.0
 11
1265.499992
 21
1462.960329
 31
0.0
  0
LINE
  5
1F7
100
AcDbEntity
  8
LAY-2
  6
CONTINUOUS
 62
     6
100
AcDbLine
 10
1264.749992
 20
1462.960329
 30
0.0
 11
1264.749992
 21
1455.63074
 31
0.0
  0
LINE
  5
1F8
100
AcDbEntity
  8
LAY-2
  6
CONTINUOUS
 62
     6
100
AcDbLine
 10
1266.652885
 20
1448.960329
 30
0.0
 11
1267.44117
 21
1448.960329
 31
0.0
  0
LINE
  5
1F9
100
AcDbEntity
  8
LAY-2
  6
CONTINUOUS
 62
     6
100
AcDbLine
 10
1266.652885
 20
1448.960329
 30
0.0
 11
1264.99276
 21
1454.091616
 31
0.0
  0
LINE
  5
1FA
100
AcDbEntity
  8
LAY-2
  6
CONTINUOUS
 62
     6
100
AcDbLine
 10
1268.499992
 20
1462.460329
 30
0.0
 11
1268.499992
 21
1455.392397
 31
0.0
  0
LINE
  5
1FB
100
AcDbEntity
  8
LAY-2
  6
CONTINUOUS
 62
     6
100
AcDbLine
 10
1270.499992
 20
1464.460329
 30
0.0
 11
1285.5
 21
1464.460329
 31
0.0
  0
ARC
  5
1FC
100
AcDbEntity
  8
LAY-2
  6
CONTINUOUS
 62
     6
100
AcDbCircle
 10
1268.499992
 20
1455.433596
 30
0.0
 40
3.0
100
AcDbArc
 50
180.0
 51
197.927734
  0
ARC
  5
1FD
100
AcDbEntity
  8
LAY-2
  6
CONTINUOUS
 62
     6
100
AcDbCircle
 10
1268.499992
 20
1455.433596
 30
0.0
 40
3.0
100
AcDbArc
 50
180.0
 51
197.927734
  0
ARC
  5
1FE
100
AcDbEntity
  8
LAY-2
  6
CONTINUOUS
 62
     6
100
AcDbCircle
 10
1268.499992
 20
1455.433596
 30
0.0
 40
3.0
100
AcDbArc
 50
180.0
 51
197.927979
  0
ARC
  5
1FF
100
AcDbEntity
  8
LAY-2
  6
CONTINUOUS
 62
     6
100
AcDbCircle
 10
1269.749992
 20
1455.63074
 30
0.0
 40
5.0
100
AcDbArc
 50
180.0
 51
197.927979
  0
ARC
  5
200
100
AcDbEntity
  8
LAY-2
  6
CONTINUOUS
 62
     6
100
AcDbCircle
 10
1270.499992
 20
1462.460329
 30
0.0
 40
2.0
100
AcDbArc
 50
90.0
 51
180.0
  0
ARC
  5
201
100
AcDbEntity
  8
LAY-2
  6
CONTINUOUS
 62
     6
100
AcDbCircle
 10
1271.499992
 20
1455.392397
 30
0.0
 40
3.0
100
AcDbArc
 50
180.0
 51
196.389526
  0
LINE
  5
202
100
AcDbEntity
  8
LAY-2
  6
CONTINUOUS
 62
     6
100
AcDbLine
 10
1271.000008
 20
1437.960329
 30
0.0
 11
1271.750008
 21
1435.960329
 31
0.0
  0
LINE
  5
203
100
AcDbEntity
  8
LAY-2
  6
CONTINUOUS
 62
     6
100
AcDbLine
 10
1285.0
 20
1437.960329
 30
0.0
 11
1284.25
 21
1435.960329
 31
0.0
  0
LINE
  5
204
100
AcDbEntity
  8
LAY-2
  6
CONTINUOUS
 62
     6
100
AcDbLine
 10
1272.250008
 20
1435.960329
 30
0.0
 11
1272.361107
 21
1434.460329
 31
0.0
  0
LINE
  5
205
100
AcDbEntity
  8
LAY-2
  6
CONTINUOUS
 62
     6
100
AcDbLine
 10
1283.75
 20
1435.960329
 30
0.0
 11
1283.638885
 21
1434.460329
 31
0.0
  0
LINE
  5
206
100
AcDbEntity
  8
LAY-2
  6
CONTINUOUS
 62
     6
100
AcDbLine
 10
1272.916664
 20
1426.960329
 30
0.0
 11
1273.027779
 21
1425.460329
 31
0.0
  0
LINE
  5
207
100
AcDbEntity
  8
LAY-2
  6
CONTINUOUS
 62
     6
100
AcDbLine
 10
1272.69445
 20
1429.960329
 30
0.0
 11
1272.80555
 21
1428.460329
 31
0.0
  0
LINE
  5
208
100
AcDbEntity
  8
LAY-2
  6
CONTINUOUS
 62
     6
100
AcDbLine
 10
1272.472237
 20
1432.960329
 30
0.0
 11
1272.583336
 21
1431.460329
 31
0.0
  0
LINE
  5
209
100
AcDbEntity
  8
LAY-2
  6
CONTINUOUS
 62
     6
100
AcDbLine
 10
1283.194443
 20
1428.460329
 30
0.0
 11
1283.305557
 21
1429.960329
 31
0.0
  0
LINE
  5
20A
100
AcDbEntity
  8
LAY-2
  6
CONTINUOUS
 62
     6
100
AcDbLine
 10
1283.305557
 20
1429.960329
 30
0.0
 11
1283.194443
 21
1428.460329
 31
0.0
  0
LINE
  5
20B
100
AcDbEntity
  8
LAY-2
  6
CONTINUOUS
 62
     6
100
AcDbLine
 10
1283.527771
 20
1432.960329
 30
0.0
 11
1283.416656
 21
1431.460329
 31
0.0
  0
LINE
  5
20C
100
AcDbEntity
  8
LAY-2
  6
CONTINUOUS
 62
     6
100
AcDbLine
 10
1283.305542
 20
1429.960329
 30
0.0
 11
1283.194443
 21
1428.460329
 31
0.0
  0
LINE
  5
20D
100
AcDbEntity
  8
LAY-2
  6
CONTINUOUS
 62
     6
100
AcDbLine
 10
1283.083328
 20
1426.960329
 30
0.0
 11
1282.972229
 21
1425.460329
 31
0.0
  0
LINE
  5
20E
100
AcDbEntity
  8
LAY-2
  6
CONTINUOUS
 62
     6
100
AcDbLine
 10
1282.5
 20
1437.960329
 30
0.0
 11
1282.5
 21
1439.460329
 31
0.0
  0
LINE
  5
20F
100
AcDbEntity
  8
LAY-2
  6
CONTINUOUS
 62
     6
100
AcDbLine
 10
1273.500008
 20
1437.960329
 30
0.0
 11
1273.500008
 21
1439.460329
 31
0.0
  0
LINE
  5
210
100
AcDbEntity
  8
LAY-2
  6
CONTINUOUS
 62
     6
100
AcDbLine
 10
1273.500008
 20
1439.460329
 30
0.0
 11
1282.5
 21
1439.460329
 31
0.0
  0
LINE
  5
211
100
AcDbEntity
  8
LAY-2
  6
CONTINUOUS
 62
     6
100
AcDbLine
 10
1271.000008
 20
1437.960329
 30
0.0
 11
1284.999985
 21
1437.960329
 31
0.0
  0
LINE
  5
212
100
AcDbEntity
  8
LAY-2
  6
CONTINUOUS
 62
     6
100
AcDbLine
 10
1271.750008
 20
1435.960329
 30
0.0
 11
1284.249985
 21
1435.960329
 31
0.0
  0
LINE
  5
213
100
AcDbEntity
  8
LAY-2
  6
CONTINUOUS
 62
     6
100
AcDbLine
 10
1272.804695
 20
1422.460329
 30
0.0
 11
1273.000008
 21
1419.960329
 31
0.0
  0
LINE
  5
214
100
AcDbEntity
  8
LAY-2
  6
CONTINUOUS
 62
     6
100
AcDbLine
 10
1283.195313
 20
1422.460329
 30
0.0
 11
1283.0
 21
1419.960329
 31
0.0
  0
LINE
  5
215
100
AcDbEntity
  8
LAY-2
  6
CONTINUOUS
 62
     6
100
AcDbLine
 10
1273.138893
 20
1423.960329
 30
0.0
 11
1273.250008
 21
1422.460329
 31
0.0
  0
LINE
  5
216
100
AcDbEntity
  8
LAY-2
  6
CONTINUOUS
 62
     6
100
AcDbLine
 10
1282.861099
 20
1423.960329
 30
0.0
 11
1282.75
 21
1422.460329
 31
0.0
  0
LINE
  5
217
100
AcDbEntity
  8
LAY-2
  6
CONTINUOUS
 62
     6
100
AcDbLine
 10
1281.0
 20
1173.35308
 30
0.0
 11
1281.0
 21
1419.960329
 31
0.0
  0
LINE
  5
218
100
AcDbEntity
  8
LAY-2
  6
CONTINUOUS
 62
     6
100
AcDbLine
 10
1275.0
 20
1172.50308
 30
0.0
 11
1275.0
 21
1419.960329
 31
0.0
  0
LINE
  5
219
100
AcDbEntity
  8
LAY-2
  6
CONTINUOUS
 62
     6
100
AcDbLine
 10
1272.804695
 20
1422.460329
 30
0.0
 11
1283.195313
 21
1422.460329
 31
0.0
  0
LINE
  5
21A
100
AcDbEntity
  8
LAY-2
  6
CONTINUOUS
 62
     6
100
AcDbLine
 10
1273.000008
 20
1419.960329
 30
0.0
 11
1283.0
 21
1419.960329
 31
0.0
  0
ARC
  5
21B
100
AcDbEntity
  8
LAY-2
  6
CONTINUOUS
 62
     6
100
AcDbCircle
 10
1288.0
 20
1465.460329
 30
0.0
 40
2.5
100
AcDbArc
 50
0.0
 51
90.0
  0
LINE
  5
21C
100
AcDbEntity
  8
LAY-2
  6
CONTINUOUS
 62
     6
100
AcDbLine
 10
1290.5
 20
1465.460329
 30
0.0
 11
1290.5
 21
1455.433596
 31
0.0
  0
LINE
  5
21D
100
AcDbEntity
  8
LAY-2
  6
CONTINUOUS
 62
     6
100
AcDbLine
 10
1291.25
 20
1462.960329
 30
0.0
 11
1291.25
 21
1455.63074
 31
0.0
  0
LINE
  5
21E
100
AcDbEntity
  8
LAY-2
  6
CONTINUOUS
 62
     6
100
AcDbLine
 10
1289.347107
 20
1448.960329
 30
0.0
 11
1291.007217
 21
1454.091677
 31
0.0
  0
LINE
  5
21F
100
AcDbEntity
  8
LAY-2
  6
CONTINUOUS
 62
     6
100
AcDbLine
 10
1288.558823
 20
1448.960329
 30
0.0
 11
1289.347107
 21
1448.960329
 31
0.0
  0
LINE
  5
220
100
AcDbEntity
  8
LAY-2
  6
CONTINUOUS
 62
     6
100
AcDbLine
 10
1290.5
 20
1462.960329
 30
0.0
 11
1291.25
 21
1462.960329
 31
0.0
  0
LINE
  5
221
100
AcDbEntity
  8
LAY-2
  6
CONTINUOUS
 62
     6
100
AcDbLine
 10
1287.5
 20
1462.460329
 30
0.0
 11
1287.5
 21
1455.392397
 31
0.0
  0
ARC
  5
222
100
AcDbEntity
  8
LAY-2
  6
CONTINUOUS
 62
     6
100
AcDbCircle
 10
1287.5
 20
1455.433596
 30
0.0
 40
3.0
100
AcDbArc
 50
342.072021
 51
0.0
  0
ARC
  5
223
100
AcDbEntity
  8
LAY-2
  6
CONTINUOUS
 62
     6
100
AcDbCircle
 10
1287.5
 20
1455.433596
 30
0.0
 40
3.0
100
AcDbArc
 50
342.072021
 51
0.0
  0
ARC
  5
224
100
AcDbEntity
  8
LAY-2
  6
CONTINUOUS
 62
     6
100
AcDbCircle
 10
1286.25
 20
1455.63074
 30
0.0
 40
5.0
100
AcDbArc
 50
342.072021
 51
0.0
  0
ARC
  5
225
100
AcDbEntity
  8
LAY-2
  6
CONTINUOUS
 62
     6
100
AcDbCircle
 10
1284.5
 20
1455.392397
 30
0.0
 40
3.0
100
AcDbArc
 50
343.610535
 51
0.0
  0
ARC
  5
226
100
AcDbEntity
  8
LAY-2
  6
CONTINUOUS
 62
     6
100
AcDbCircle
 10
1608.65878
 20
-408.78961
 30
0.0
 40
2000.0
100
AcDbArc
 50
86.614349
 51
93.41275
  0
ARC
  5
227
100
AcDbEntity
  8
LAY-2
  6
CONTINUOUS
 62
     6
100
AcDbCircle
 10
1410.585502
 20
1452.696997
 30
0.0
 40
10.0
100
AcDbArc
 50
135.0
 51
180.0
  0
ARC
  5
228
100
AcDbEntity
  8
LAY-2
  6
CONTINUOUS
 62
     6
100
AcDbCircle
 10
1410.585502
 20
1452.696997
 30
0.0
 40
14.3
100
AcDbArc
 50
135.0
 51
180.0
  0
LINE
  5
229
100
AcDbEntity
  8
LAY-2
  6
CONTINUOUS
 62
     6
100
AcDbLine
 10
1400.585502
 20
1172.50308
 30
0.0
 11
1400.585502
 21
1452.696997
 31
0.0
  0
LINE
  5
22A
100
AcDbEntity
  8
LAY-2
  6
CONTINUOUS
 62
     6
100
AcDbLine
 10
1396.285502
 20
1173.35308
 30
0.0
 11
1396.285502
 21
1452.696997
 31
0.0
  0
ARC
  5
22B
100
AcDbEntity
  8
LAY-2
  6
CONTINUOUS
 62
     6
100
AcDbCircle
 10
1432.354012
 20
1565.662535
 30
0.0
 40
13.0
100
AcDbArc
 50
101.791546
 51
164.95632
  0
ARC
  5
22C
100
AcDbEntity
  8
LAY-2
  6
CONTINUOUS
 62
     6
100
AcDbCircle
 10
1430.575451
 20
1524.094428
 30
0.0
 40
16.0
100
AcDbArc
 50
181.904512
 51
267.731239
  0
ARC
  5
22D
100
AcDbEntity
  8
LAY-2
  6
CONTINUOUS
 62
     6
100
AcDbCircle
 10
1432.493985
 20
1565.706728
 30
0.0
 40
15.0
100
AcDbArc
 50
100.318298
 51
165.653076
  0
ARC
  5
22E
100
AcDbEntity
  8
LAY-2
  6
CONTINUOUS
 62
     6
100
AcDbCircle
 10
1427.112882
 20
1499.062724
 30
0.0
 40
8.000001
100
AcDbArc
 50
84.234772
 51
132.005799
  0
LINE
  5
22F
100
AcDbEntity
  8
LAY-2
  6
CONTINUOUS
 62
     6
100
AcDbLine
 10
1409.269811
 20
1529.717256
 30
0.0
 11
1408.65878
 21
1459.710329
 31
0.0
  0
LINE
  5
230
100
AcDbEntity
  8
LAY-2
  6
CONTINUOUS
 62
     6
100
AcDbLine
 10
1413.37521
 20
1537.490297
 30
0.0
 11
1410.676852
 21
1460.227781
 31
0.0
  0
LINE
  5
231
100
AcDbEntity
  8
LAY-2
  6
CONTINUOUS
 62
     6
100
AcDbLine
 10
1409.007928
 20
1529.712892
 30
0.0
 11
1409.007928
 21
1499.712892
 31
0.0
  0
ARC
  5
232
100
AcDbEntity
  8
LAY-2
  6
CONTINUOUS
 62
     6
100
AcDbCircle
 10
1465.427545
 20
1514.712892
 30
0.0
 40
70.0
100
AcDbArc
 50
169.056093
 51
190.865979
  0
LINE
  5
233
100
AcDbEntity
  8
LAY-2
  6
CONTINUOUS
 62
     6
100
AcDbLine
 10
1419.344213
 20
1511.665774
 30
0.0
 11
1418.656399
 21
1472.261599
 31
0.0
  0
ARC
  5
234
100
AcDbEntity
  8
LAY-2
  6
CONTINUOUS
 62
     6
100
AcDbCircle
 10
1406.65878
 20
1474.710329
 30
0.0
 40
2.0
100
AcDbArc
 50
90.0
 51
180.0
  0
LINE
  5
235
100
AcDbEntity
  8
LAY-2
  6
CONTINUOUS
 62
     6
100
AcDbLine
 10
1408.65878
 20
1459.710329
 30
0.0
 11
1404.65878
 21
1459.710329
 31
0.0
  0
LINE
  5
236
100
AcDbEntity
  8
LAY-2
  6
CONTINUOUS
 62
     6
100
AcDbLine
 10
1404.65878
 20
1459.710329
 30
0.0
 11
1404.65878
 21
1474.710329
 31
0.0
  0
LINE
  5
237
100
AcDbEntity
  8
LAY-2
  6
CONTINUOUS
 62
     6
100
AcDbLine
 10
1404.65878
 20
1459.710329
 30
0.0
 11
1398.153398
 21
1466.215711
 31
0.0
  0
LINE
  5
238
100
AcDbEntity
  8
LAY-2
  6
CONTINUOUS
 62
     6
100
AcDbLine
 10
1398.153398
 20
1466.215711
 30
0.0
 11
1404.65878
 21
1472.721094
 31
0.0
  0
LINE
  5
239
100
AcDbEntity
  8
LAY-2
  6
CONTINUOUS
 62
     6
100
AcDbLine
 10
1403.514434
 20
1459.768065
 30
0.0
 11
1404.057739
 21
1460.31137
 31
0.0
  0
LINE
  5
23A
100
AcDbEntity
  8
LAY-2
  6
CONTINUOUS
 62
     6
100
AcDbLine
 10
1400.473875
 20
1462.808624
 30
0.0
 11
1401.01718
 21
1463.351929
 31
0.0
  0
LINE
  5
23B
100
AcDbEntity
  8
LAY-2
  6
CONTINUOUS
 62
     6
100
AcDbLine
 10
1411.242825
 20
1459.710329
 30
0.0
 11
1411.702847
 21
1472.884767
 31
0.0
  0
LINE
  5
23C
100
AcDbEntity
  8
LAY-2
  6
CONTINUOUS
 62
     6
100
AcDbLine
 10
1416.699856
 20
1477.710268
 30
0.0
 11
1418.799747
 21
1477.710268
 31
0.0
  0
ARC
  5
23D
100
AcDbEntity
  8
LAY-2
  6
CONTINUOUS
 62
     6
100
AcDbCircle
 10
1416.699856
 20
1472.710268
 30
0.0
 40
5.0
100
AcDbArc
 50
90.0
 51
178.0
  0
ARC
  5
23E
100
AcDbEntity
  8
LAY-2
  6
CONTINUOUS
 62
     6
100
AcDbCircle
 10
1411.176547
 20
1460.210329
 30
0.0
 40
0.5
100
AcDbArc
 50
177.999784
 51
270.0
  0
ARC
  5
23F
100
AcDbEntity
  8
LAY-2
  6
CONTINUOUS
 62
     6
100
AcDbCircle
 10
1409.163163
 20
1460.210329
 30
0.0
 40
0.5
100
AcDbArc
 50
179.499927
 51
270.0
  0
LINE
  5
240
100
AcDbEntity
  8
LAY-2
  6
CONTINUOUS
 62
     6
100
AcDbLine
 10
1408.65878
 20
1459.710329
 30
0.0
 11
1408.65878
 21
1476.710329
 31
0.0
  0
LINE
  5
241
100
AcDbEntity
  8
LAY-2
  6
CONTINUOUS
 62
     6
100
AcDbLine
 10
1408.65878
 20
1476.710329
 30
0.0
 11
1406.65878
 21
1476.710329
 31
0.0
  0
LINE
  5
242
100
AcDbEntity
  8
LAY-2
  6
CONTINUOUS
 62
     6
100
AcDbLine
 10
1409.007928
 20
1499.712892
 30
0.0
 11
1398.611825
 21
1499.894357
 31
0.0
  0
ARC
  5
243
100
AcDbEntity
  8
LAY-2
  6
CONTINUOUS
 62
     6
100
AcDbCircle
 10
1398.64673
 20
1501.894052
 30
0.0
 40
2.0
100
AcDbArc
 50
190.865979
 51
269.0
  0
LINE
  5
244
100
AcDbEntity
  8
LAY-2
  6
CONTINUOUS
 62
     6
100
AcDbLine
 10
1409.099574
 20
1510.212892
 30
0.0
 11
1409.007928
 21
1510.212892
 31
0.0
  0
ARC
  5
245
100
AcDbEntity
  8
LAY-2
  6
CONTINUOUS
 62
     6
100
AcDbCircle
 10
1564.65878
 20
1530.10345
 30
0.0
 40
150.0
100
AcDbArc
 50
164.95632
 51
174.523035
  0
ARC
  5
246
100
AcDbEntity
  8
LAY-2
  6
CONTINUOUS
 62
     6
100
AcDbCircle
 10
1563.28378
 20
1532.254885
 30
0.0
 40
150.0
100
AcDbArc
 50
165.653137
 51
177.999817
  0
LINE
  5
247
100
AcDbEntity
  8
LAY-2
  6
CONTINUOUS
 62
     6
100
AcDbLine
 10
1409.007928
 20
1529.712892
 30
0.0
 11
1398.611825
 21
1529.531427
 31
0.0
  0
ARC
  5
248
100
AcDbEntity
  8
LAY-2
  6
CONTINUOUS
 62
     6
100
AcDbCircle
 10
1398.64673
 20
1527.531732
 30
0.0
 40
2.0
100
AcDbArc
 50
91.0
 51
169.134021
  0
ARC
  5
249
100
AcDbEntity
  8
LAY-2
  6
CONTINUOUS
 62
     6
100
AcDbCircle
 10
1412.655541
 20
1531.210329
 30
0.0
 40
0.5
100
AcDbArc
 50
270.0
 51
357.999268
  0
ARC
  5
24A
100
AcDbEntity
  8
LAY-2
  6
CONTINUOUS
 62
     6
100
AcDbCircle
 10
1410.350243
 20
1530.212892
 30
0.0
 40
0.5
100
AcDbArc
 50
95.804535
 51
180.0
  0
ARC
  5
24B
100
AcDbEntity
  8
LAY-2
  6
CONTINUOUS
 62
     6
100
AcDbCircle
 10
1412.638207
 20
1530.712892
 30
0.0
 40
0.5
100
AcDbArc
 50
270.0
 51
357.999784
  0
ARC
  5
24C
100
AcDbEntity
  8
LAY-2
  6
CONTINUOUS
 62
     6
100
AcDbCircle
 10
1409.769792
 20
1529.712892
 30
0.0
 40
0.5
100
AcDbArc
 50
90.0
 51
179.499927
  0
LINE
  5
24D
100
AcDbEntity
  8
LAY-2
  6
CONTINUOUS
 62
     6
100
AcDbLine
 10
1412.638207
 20
1530.212892
 30
0.0
 11
1409.769792
 21
1530.212892
 31
0.0
  0
LINE
  5
24E
100
AcDbEntity
  8
LAY-2
  6
CONTINUOUS
 62
     6
100
AcDbLine
 10
1412.655541
 20
1530.710329
 30
0.0
 11
1410.299706
 21
1530.710329
 31
0.0
  0
ARC
  5
24F
100
AcDbEntity
  8
LAY-2
  6
CONTINUOUS
 62
     6
100
AcDbCircle
 10
1564.501429
 20
1528.547768
 30
0.0
 40
150.0
100
AcDbArc
 50
173.925773
 51
181.904512
  0
LINE
  5
250
100
AcDbEntity
  8
LAY-2
  6
CONTINUOUS
 62
     6
100
AcDbLine
 10
1409.178127
 20
1519.212892
 30
0.0
 11
1409.007928
 21
1519.212892
 31
0.0
  0
ARC
  5
251
100
AcDbEntity
  8
LAY-2
  6
CONTINUOUS
 62
     6
100
AcDbCircle
 10
1508.156465
 20
1462.710222
 30
0.0
 40
2.999994
100
AcDbArc
 50
270.0
 51
0.0
  0
ARC
  5
252
100
AcDbEntity
  8
LAY-2
  6
CONTINUOUS
 62
     6
100
AcDbCircle
 10
1469.156465
 20
1462.710323
 30
0.0
 40
2.999994
100
AcDbArc
 50
180.0
 51
270.0
  0
ARC
  5
253
100
AcDbEntity
  8
LAY-2
  6
CONTINUOUS
 62
     6
100
AcDbCircle
 10
1467.116003
 20
1511.910086
 30
0.0
 40
7.000001
100
AcDbArc
 50
270.0
 51
293.470215
  0
ARC
  5
254
100
AcDbEntity
  8
LAY-2
  6
CONTINUOUS
 62
     6
100
AcDbCircle
 10
1448.156343
 20
1463.480853
 30
0.0
 40
2.999994
100
AcDbArc
 50
180.0
 51
270.0
  0
LINE
  5
255
100
AcDbEntity
  8
LAY-2
  6
CONTINUOUS
 62
     6
100
AcDbLine
 10
1445.156339
 20
1471.48317
 30
0.0
 11
1445.156343
 21
1463.480973
 31
0.0
  0
LINE
  5
256
100
AcDbEntity
  8
LAY-2
  6
CONTINUOUS
 62
     6
100
AcDbLine
 10
1466.156463
 20
1467.469998
 30
0.0
 11
1466.156465
 21
1462.710323
 31
0.0
  0
ARC
  5
257
100
AcDbEntity
  8
LAY-2
  6
CONTINUOUS
 62
     6
100
AcDbCircle
 10
1461.156463
 20
1467.470118
 30
0.0
 40
5.000018
100
AcDbArc
 50
359.999299
 51
44.641694
  0
LINE
  5
258
100
AcDbEntity
  8
LAY-2
  6
CONTINUOUS
 62
     6
100
AcDbLine
 10
1459.276832
 20
1504.345024
 30
0.0
 11
1460.276893
 21
1504.345024
 31
0.0
  0
ARC
  5
259
100
AcDbEntity
  8
LAY-2
  6
CONTINUOUS
 62
     6
100
AcDbCircle
 10
1459.276893
 20
1510.345018
 30
0.0
 40
5.999994
100
AcDbArc
 50
211.471007
 51
270.0
  0
ARC
  5
25A
100
AcDbEntity
  8
LAY-2
  6
CONTINUOUS
 62
     6
100
AcDbCircle
 10
1460.276893
 20
1510.345018
 30
0.0
 40
5.999994
100
AcDbArc
 50
270.0
 51
324.36802
  0
LINE
  5
25B
100
AcDbEntity
  8
LAY-2
  6
CONTINUOUS
 62
     6
100
AcDbLine
 10
1468.604837
 20
1505.070243
 30
0.0
 11
1468.579814
 21
1503.635917
 31
0.0
  0
ARC
  5
25C
100
AcDbEntity
  8
LAY-2
  6
CONTINUOUS
 62
     6
100
AcDbCircle
 10
1501.766026
 20
1432.107859
 30
0.0
 40
80.000092
100
AcDbArc
 50
111.35036
 51
113.470459
  0
ARC
  5
25D
100
AcDbEntity
  8
LAY-2
  6
CONTINUOUS
 62
     6
100
AcDbCircle
 10
1516.156463
 20
1467.469904
 30
0.0
 40
5.000006
100
AcDbArc
 50
149.068451
 51
180.000733
  0
LINE
  5
25E
100
AcDbEntity
  8
LAY-2
  6
CONTINUOUS
 62
     6
100
AcDbLine
 10
1511.156463
 20
1467.469901
 30
0.0
 11
1511.156465
 21
1462.710222
 31
0.0
  0
ARC
  5
25F
100
AcDbEntity
  8
LAY-2
  6
CONTINUOUS
 62
     6
100
AcDbCircle
 10
1519.365689
 20
1088.550234
 30
0.0
 40
500.0
100
AcDbArc
 50
93.412781
 51
96.07113
  0
ARC
  5
260
100
AcDbEntity
  8
LAY-2
  6
CONTINUOUS
 62
     6
100
AcDbCircle
 10
1465.658778
 20
1583.92418
 30
0.0
 40
1.999998
100
AcDbArc
 50
0.0
 51
97.58545
  0
ARC
  5
261
100
AcDbEntity
  8
LAY-2
  6
CONTINUOUS
 62
     6
100
AcDbCircle
 10
1531.873254
 20
1088.939428
 30
0.0
 40
500.0
100
AcDbArc
 50
97.814878
 51
101.791546
  0
ARC
  5
262
100
AcDbEntity
  8
LAY-2
  6
CONTINUOUS
 62
     6
100
AcDbCircle
 10
1519.365689
 20
1088.550234
 30
0.0
 40
500.0
100
AcDbArc
 50
97.494294
 51
100.318329
  0
ARC
  5
263
100
AcDbEntity
  8
LAY-2
  6
CONTINUOUS
 62
     6
100
AcDbCircle
 10
1464.15878
 20
1582.314285
 30
0.0
 40
2.0
100
AcDbArc
 50
0.0
 51
97.814878
  0
ARC
  5
264
100
AcDbEntity
  8
LAY-2
  6
CONTINUOUS
 62
     6
100
AcDbCircle
 10
1531.398043
 20
1090.282186
 30
0.0
 40
499.999969
100
AcDbArc
 50
97.585572
 51
98.887345
  0
ARC
  5
265
100
AcDbEntity
  8
LAY-2
  6
CONTINUOUS
 62
     6
100
AcDbCircle
 10
1473.437842
 20
1583.399399
 30
0.0
 40
3.0
100
AcDbArc
 50
95.384353
 51
179.000001
  0
LINE
  5
266
100
AcDbEntity
  8
LAY-2
  6
CONTINUOUS
 62
     6
100
AcDbLine
 10
1470.417691
 20
1582.269345
 30
0.0
 11
1470.438346
 21
1583.451877
 31
0.0
  0
ARC
  5
267
100
AcDbEntity
  8
LAY-2
  6
CONTINUOUS
 62
     6
100
AcDbCircle
 10
1473.437955
 20
1583.399477
 30
0.0
 40
3.0
100
AcDbArc
 50
95.384094
 51
178.999207
  0
LINE
  5
268
100
AcDbEntity
  8
LAY-2
  6
CONTINUOUS
 62
     6
100
AcDbLine
 10
1467.658779
 20
1582.07838
 30
0.0
 11
1467.658778
 21
1583.924181
 31
0.0
  0
LINE
  5
269
100
AcDbEntity
  8
LAY-2
  6
EXLTYPE3
 62
     1
100
AcDbLine
 10
1608.65878
 20
1611.21039
 30
0.0
 11
1608.65878
 21
1439.710329
 31
0.0
  0
ARC
  5
26A
100
AcDbEntity
  8
LAY-2
  6
CONTINUOUS
 62
     6
100
AcDbCircle
 10
1757.040625
 20
1510.344935
 30
0.0
 40
5.999994
100
AcDbArc
 50
215.629763
 51
270.0
  0
ARC
  5
26B
100
AcDbEntity
  8
LAY-2
  6
CONTINUOUS
 62
     6
100
AcDbCircle
 10
1709.156343
 20
1462.703506
 30
0.0
 40
2.999994
100
AcDbArc
 50
180.0
 51
270.0
  0
LINE
  5
26C
100
AcDbEntity
  8
LAY-2
  6
CONTINUOUS
 62
     6
100
AcDbLine
 10
1706.156341
 20
1467.470006
 30
0.0
 11
1706.156343
 21
1462.703506
 31
0.0
  0
ARC
  5
26D
100
AcDbEntity
  8
LAY-2
  6
CONTINUOUS
 62
     6
100
AcDbCircle
 10
1701.156341
 20
1467.470126
 30
0.0
 40
5.000009
100
AcDbArc
 50
359.999299
 51
30.931366
  0
LINE
  5
26E
100
AcDbEntity
  8
LAY-2
  6
CONTINUOUS
 62
     6
100
AcDbLine
 10
1751.156341
 20
1467.469909
 30
0.0
 11
1751.156343
 21
1462.703405
 31
0.0
  0
ARC
  5
26F
100
AcDbEntity
  8
LAY-2
  6
CONTINUOUS
 62
     6
100
AcDbCircle
 10
1756.156463
 20
1467.470033
 30
0.0
 40
5.000026
100
AcDbArc
 50
135.357819
 51
180.001038
  0
ARC
  5
270
100
AcDbEntity
  8
LAY-2
  6
CONTINUOUS
 62
     6
100
AcDbCircle
 10
1748.156343
 20
1462.703405
 30
0.0
 40
2.999994
100
AcDbArc
 50
270.0
 51
0.0
  0
LINE
  5
271
100
AcDbEntity
  8
LAY-2
  6
CONTINUOUS
 62
     6
100
AcDbLine
 10
1748.712748
 20
1505.070272
 30
0.0
 11
1748.737773
 21
1503.635824
 31
0.0
  0
ARC
  5
272
100
AcDbEntity
  8
LAY-2
  6
CONTINUOUS
 62
     6
100
AcDbCircle
 10
1715.551472
 20
1432.107974
 30
0.0
 40
80.000092
100
AcDbArc
 50
66.529541
 51
68.649617
  0
ARC
  5
273
100
AcDbEntity
  8
LAY-2
  6
CONTINUOUS
 62
     6
100
AcDbCircle
 10
1750.201513
 20
1511.910117
 30
0.0
 40
7.000001
100
AcDbArc
 50
246.529541
 51
270.0
  0
ARC
  5
274
100
AcDbEntity
  8
LAY-2
  6
CONTINUOUS
 62
     6
100
AcDbCircle
 10
1606.93577
 20
-410.058772
 30
0.0
 40
1996.999878
100
AcDbArc
 50
85.858503
 51
94.042375
  0
ARC
  5
275
100
AcDbEntity
  8
LAY-2
  6
CONTINUOUS
 62
     6
100
AcDbCircle
 10
1753.15878
 20
1582.314285
 30
0.0
 40
2.0
100
AcDbArc
 50
82.185122
 51
180.0
  0
LINE
  5
276
100
AcDbEntity
  8
LAY-2
  6
CONTINUOUS
 62
     6
100
AcDbLine
 10
1746.904051
 20
1582.029929
 30
0.0
 11
1746.878896
 21
1583.470073
 31
0.0
  0
ARC
  5
277
100
AcDbEntity
  8
LAY-2
  6
CONTINUOUS
 62
     6
100
AcDbCircle
 10
1743.879727
 20
1583.399477
 30
0.0
 40
3.0
100
AcDbArc
 50
1.000793
 51
84.615906
  0
ARC
  5
278
100
AcDbEntity
  8
LAY-2
  6
CONTINUOUS
 62
     6
100
AcDbCircle
 10
1743.879717
 20
1583.39941
 30
0.0
 40
3.0
100
AcDbArc
 50
0.999999
 51
84.615661
  0
LINE
  5
279
100
AcDbEntity
  8
LAY-2
  6
CONTINUOUS
 62
     6
100
AcDbLine
 10
1772.156461
 20
1471.483103
 30
0.0
 11
1772.156465
 21
1463.480906
 31
0.0
  0
ARC
  5
27A
100
AcDbEntity
  8
LAY-2
  6
CONTINUOUS
 62
     6
100
AcDbCircle
 10
1769.156465
 20
1463.480782
 30
0.0
 40
2.999994
100
AcDbArc
 50
270.0
 51
0.0
  0
LINE
  5
27B
100
AcDbEntity
  8
LAY-2
  6
CONTINUOUS
 62
     6
100
AcDbLine
 10
1758.040748
 20
1504.344941
 30
0.0
 11
1757.040625
 21
1504.344941
 31
0.0
  0
ARC
  5
27C
100
AcDbEntity
  8
LAY-2
  6
CONTINUOUS
 62
     6
100
AcDbCircle
 10
1758.040748
 20
1510.344935
 30
0.0
 40
5.999994
100
AcDbArc
 50
270.0
 51
328.531332
  0
LINE
  5
27D
100
AcDbEntity
  8
LAY-2
  6
CONTINUOUS
 62
     2
100
AcDbLine
 10
1283.574219
 20
1433.710329
 30
0.0
 11
1272.425781
 21
1433.710329
 31
0.0
  0
LINE
  5
27E
100
AcDbEntity
  8
LAY-2
  6
CONTINUOUS
 62
     2
100
AcDbLine
 10
1283.339844
 20
1430.710329
 30
0.0
 11
1272.660156
 21
1430.710329
 31
0.0
  0
LINE
  5
27F
100
AcDbEntity
  8
LAY-2
  6
CONTINUOUS
 62
     2
100
AcDbLine
 10
1283.105469
 20
1427.710329
 30
0.0
 11
1272.894531
 21
1427.710329
 31
0.0
  0
LINE
  5
280
100
AcDbEntity
  8
LAY-2
  6
CONTINUOUS
 62
     2
100
AcDbLine
 10
1282.871094
 20
1424.710329
 30
0.0
 11
1273.128906
 21
1424.710329
 31
0.0
  0
ARC
  5
281
100
AcDbEntity
  8
LAY-2
  6
CONTINUOUS
 62
     6
100
AcDbCircle
 10
1338.642751
 20
1173.35308
 30
0.0
 40
57.642751
100
AcDbArc
 50
180.0
 51
0.0
  0
ARC
  5
282
100
AcDbEntity
  8
LAY-2
  6
CONTINUOUS
 62
     6
100
AcDbCircle
 10
1337.792751
 20
1172.50308
 30
0.0
 40
62.792751
100
AcDbArc
 50
180.0
 51
0.0
  0
LINE
  5
283
100
AcDbEntity
  8
LAY-2
  6
CONTINUOUS
 62
     6
100
AcDbLine
 10
1772.156465
 20
1463.480906
 30
0.0
 11
1751.156343
 21
1463.480906
 31
0.0
  0
LINE
  5
284
100
AcDbEntity
  8
LAY-2
  6
CONTINUOUS
 62
     6
100
AcDbLine
 10
1445.156349
 20
1463.480853
 30
0.0
 11
1466.156465
 21
1463.480853
 31
0.0
  0
LINE
  5
285
100
AcDbEntity
  8
LAY-2
  6
CONTINUOUS
 62
     6
100
AcDbLine
 10
1448.156343
 20
1460.480859
 30
0.0
 11
1467.149115
 21
1460.480859
 31
0.0
  0
LINE
  5
286
100
AcDbEntity
  8
LAY-2
  6
CONTINUOUS
 62
     6
100
AcDbLine
 10
1511.156459
 20
1462.710222
 30
0.0
 11
1466.156465
 21
1462.710222
 31
0.0
  0
LINE
  5
287
100
AcDbEntity
  8
LAY-2
  6
CONTINUOUS
 62
     6
100
AcDbLine
 10
1769.156465
 20
1460.480788
 30
0.0
 11
1750.171272
 21
1460.480788
 31
0.0
  0
LINE
  5
288
100
AcDbEntity
  8
LAY-2
  6
CONTINUOUS
 62
     6
100
AcDbLine
 10
1706.156349
 20
1462.703506
 30
0.0
 11
1751.156337
 21
1462.703506
 31
0.0
  0
LINE
  5
289
100
AcDbEntity
  8
LAY-2
  6
CONTINUOUS
 62
     6
100
AcDbLine
 10
1530.65878
 20
1458.710329
 30
0.0
 11
1546.65878
 21
1458.710329
 31
0.0
  0
LINE
  5
28A
100
AcDbEntity
  8
LAY-2
  6
CONTINUOUS
 62
     6
100
AcDbLine
 10
1530.65878
 20
1418.710329
 30
0.0
 11
1530.65878
 21
1458.710329
 31
0.0
  0
LINE
  5
28B
100
AcDbEntity
  8
LAY-2
  6
CONTINUOUS
 62
     6
100
AcDbLine
 10
1530.65878
 20
1418.710329
 30
0.0
 11
1546.65878
 21
1418.710329
 31
0.0
  0
LINE
  5
28C
100
AcDbEntity
  8
LAY-2
  6
CONTINUOUS
 62
     6
100
AcDbLine
 10
1546.65878
 20
1418.710329
 30
0.0
 11
1546.65878
 21
1458.710329
 31
0.0
  0
LINE
  5
28D
100
AcDbEntity
  8
LAY-2
  6
CONTINUOUS
 62
     6
100
AcDbLine
 10
1686.65878
 20
1458.710329
 30
0.0
 11
1670.65878
 21
1458.710329
 31
0.0
  0
LINE
  5
28E
100
AcDbEntity
  8
LAY-2
  6
CONTINUOUS
 62
     6
100
AcDbLine
 10
1686.65878
 20
1418.710329
 30
0.0
 11
1686.65878
 21
1458.710329
 31
0.0
  0
LINE
  5
28F
100
AcDbEntity
  8
LAY-2
  6
CONTINUOUS
 62
     6
100
AcDbLine
 10
1686.65878
 20
1418.710329
 30
0.0
 11
1670.65878
 21
1418.710329
 31
0.0
  0
LINE
  5
290
100
AcDbEntity
  8
LAY-2
  6
CONTINUOUS
 62
     6
100
AcDbLine
 10
1670.65878
 20
1418.710329
 30
0.0
 11
1670.65878
 21
1458.710329
 31
0.0
  0
LINE
  5
291
100
AcDbEntity
  8
LAY-2
  6
CONTINUOUS
 62
     6
100
AcDbLine
 10
1543.15878
 20
1378.210329
 30
0.0
 11
1534.15878
 21
1378.210329
 31
0.0
  0
LINE
  5
292
100
AcDbEntity
  8
LAY-2
  6
CONTINUOUS
 62
     6
100
AcDbLine
 10
1543.15878
 20
1378.210329
 30
0.0
 11
1543.15878
 21
1380.210329
 31
0.0
  0
LINE
  5
293
100
AcDbEntity
  8
LAY-2
  6
CONTINUOUS
 62
     6
100
AcDbLine
 10
1534.15878
 20
1378.210329
 30
0.0
 11
1534.15878
 21
1380.210329
 31
0.0
  0
LINE
  5
294
100
AcDbEntity
  8
LAY-2
  6
CONTINUOUS
 62
     6
100
AcDbLine
 10
1544.65878
 20
1381.710329
 30
0.0
 11
1543.15878
 21
1380.210329
 31
0.0
  0
LINE
  5
295
100
AcDbEntity
  8
LAY-2
  6
CONTINUOUS
 62
     6
100
AcDbLine
 10
1532.65878
 20
1381.710329
 30
0.0
 11
1534.15878
 21
1380.210329
 31
0.0
  0
LINE
  5
296
100
AcDbEntity
  8
LAY-2
  6
CONTINUOUS
 62
     6
100
AcDbLine
 10
1544.65878
 20
1381.710329
 30
0.0
 11
1543.15878
 21
1380.210329
 31
0.0
  0
LINE
  5
297
100
AcDbEntity
  8
LAY-2
  6
CONTINUOUS
 62
     6
100
AcDbLine
 10
1532.65878
 20
1381.710329
 30
0.0
 11
1534.15878
 21
1380.210329
 31
0.0
  0
LINE
  5
298
100
AcDbEntity
  8
LAY-2
  6
CONTINUOUS
 62
     6
100
AcDbLine
 10
1543.15878
 20
1380.210329
 30
0.0
 11
1534.15878
 21
1380.210329
 31
0.0
  0
LINE
  5
299
100
AcDbEntity
  8
LAY-2
  6
CONTINUOUS
 62
     6
100
AcDbLine
 10
1544.65878
 20
1381.710329
 30
0.0
 11
1532.65878
 21
1381.710329
 31
0.0
  0
ARC
  5
29A
100
AcDbEntity
  8
LAY-2
  6
CONTINUOUS
 62
     6
100
AcDbCircle
 10
1538.65878
 20
1407.744473
 30
0.0
 40
12.5
100
AcDbArc
 50
0.0
 51
61.314598
  0
LINE
  5
29B
100
AcDbEntity
  8
LAY-2
  6
CONTINUOUS
 62
     6
100
AcDbLine
 10
1551.35878
 20
1406.744473
 30
0.0
 11
1525.95878
 21
1406.744473
 31
0.0
  0
LINE
  5
29C
100
AcDbEntity
  8
LAY-2
  6
CONTINUOUS
 62
     6
100
AcDbLine
 10
1551.35878
 20
1407.744473
 30
0.0
 11
1525.95878
 21
1407.744473
 31
0.0
  0
LINE
  5
29D
100
AcDbEntity
  8
LAY-2
  6
CONTINUOUS
 62
     6
100
AcDbLine
 10
1551.15878
 20
1407.744473
 30
0.0
 11
1526.15878
 21
1407.744473
 31
0.0
  0
ARC
  5
29E
100
AcDbEntity
  8
LAY-2
  6
CONTINUOUS
 62
     6
100
AcDbCircle
 10
1538.65878
 20
1407.744473
 30
0.0
 40
12.5
100
AcDbArc
 50
118.685402
 51
180.0
  0
LINE
  5
29F
100
AcDbEntity
  8
LAY-2
  6
CONTINUOUS
 62
     6
100
AcDbLine
 10
1550.65878
 20
1406.744473
 30
0.0
 11
1526.65878
 21
1406.744473
 31
0.0
  0
ARC
  5
2A0
100
AcDbEntity
  8
LAY-2
  6
CONTINUOUS
 62
     6
100
AcDbCircle
 10
1550.65878
 20
1405.744473
 30
0.0
 40
1.0
100
AcDbArc
 50
0.0
 51
90.0
  0
ARC
  5
2A1
100
AcDbEntity
  8
LAY-2
  6
CONTINUOUS
 62
     6
100
AcDbCircle
 10
1551.35878
 20
1407.444473
 30
0.0
 40
0.3
100
AcDbArc
 50
0.0
 51
90.0
  0
ARC
  5
2A2
100
AcDbEntity
  8
LAY-2
  6
CONTINUOUS
 62
     6
100
AcDbCircle
 10
1551.35878
 20
1407.044473
 30
0.0
 40
0.3
100
AcDbArc
 50
270.0
 51
0.0
  0
LINE
  5
2A3
100
AcDbEntity
  8
LAY-2
  6
CONTINUOUS
 62
     6
100
AcDbLine
 10
1551.65878
 20
1407.044473
 30
0.0
 11
1551.65878
 21
1407.444473
 31
0.0
  0
LINE
  5
2A4
100
AcDbEntity
  8
LAY-2
  6
CONTINUOUS
 62
     6
100
AcDbLine
 10
1525.65878
 20
1407.044473
 30
0.0
 11
1525.65878
 21
1407.444473
 31
0.0
  0
ARC
  5
2A5
100
AcDbEntity
  8
LAY-2
  6
CONTINUOUS
 62
     6
100
AcDbCircle
 10
1525.95878
 20
1407.044473
 30
0.0
 40
0.3
100
AcDbArc
 50
180.0
 51
270.0
  0
ARC
  5
2A6
100
AcDbEntity
  8
LAY-2
  6
CONTINUOUS
 62
     6
100
AcDbCircle
 10
1525.95878
 20
1407.444473
 30
0.0
 40
0.3
100
AcDbArc
 50
90.0
 51
180.0
  0
LINE
  5
2A7
100
AcDbEntity
  8
LAY-2
  6
CONTINUOUS
 62
     6
100
AcDbLine
 10
1525.65878
 20
1405.744473
 30
0.0
 11
1525.65878
 21
1404.744473
 31
0.0
  0
ARC
  5
2A8
100
AcDbEntity
  8
LAY-2
  6
CONTINUOUS
 62
     6
100
AcDbCircle
 10
1526.65878
 20
1405.744473
 30
0.0
 40
1.0
100
AcDbArc
 50
90.0
 51
180.0
  0
LINE
  5
2A9
100
AcDbEntity
  8
LAY-2
  6
CONTINUOUS
 62
     6
100
AcDbLine
 10
1544.65878
 20
1418.710329
 30
0.0
 11
1532.65878
 21
1418.710329
 31
0.0
  0
LINE
  5
2AA
100
AcDbEntity
  8
LAY-2
  6
CONTINUOUS
 62
     6
100
AcDbLine
 10
1551.65878
 20
1405.744473
 30
0.0
 11
1551.65878
 21
1387.244473
 31
0.0
  0
ARC
  5
2AB
100
AcDbEntity
  8
LAY-2
  6
CONTINUOUS
 62
     6
100
AcDbCircle
 10
1550.65878
 20
1387.244473
 30
0.0
 40
1.0
100
AcDbArc
 50
270.0
 51
0.0
  0
LINE
  5
2AC
100
AcDbEntity
  8
LAY-2
  6
CONTINUOUS
 62
     6
100
AcDbLine
 10
1550.15878
 20
1403.744473
 30
0.0
 11
1550.15878
 21
1387.244473
 31
0.0
  0
ARC
  5
2AD
100
AcDbEntity
  8
LAY-2
  6
CONTINUOUS
 62
     6
100
AcDbCircle
 10
1549.15878
 20
1387.244473
 30
0.0
 40
1.0
100
AcDbArc
 50
270.0
 51
0.0
  0
LINE
  5
2AE
100
AcDbEntity
  8
LAY-2
  6
CONTINUOUS
 62
     6
100
AcDbLine
 10
1527.15878
 20
1388.244473
 30
0.0
 11
1550.15878
 21
1388.244473
 31
0.0
  0
LINE
  5
2AF
100
AcDbEntity
  8
LAY-2
  6
CONTINUOUS
 62
     6
100
AcDbLine
 10
1525.65878
 20
1405.744473
 30
0.0
 11
1525.65878
 21
1387.244473
 31
0.0
  0
ARC
  5
2B0
100
AcDbEntity
  8
LAY-2
  6
CONTINUOUS
 62
     6
100
AcDbCircle
 10
1526.65878
 20
1387.244473
 30
0.0
 40
1.0
100
AcDbArc
 50
180.0
 51
270.0
  0
ARC
  5
2B1
100
AcDbEntity
  8
LAY-2
  6
CONTINUOUS
 62
     6
100
AcDbCircle
 10
1528.15878
 20
1387.244473
 30
0.0
 40
1.0
100
AcDbArc
 50
180.0
 51
270.0
  0
LINE
  5
2B2
100
AcDbEntity
  8
LAY-2
  6
CONTINUOUS
 62
     6
100
AcDbLine
 10
1550.65878
 20
1386.244473
 30
0.0
 11
1526.65878
 21
1386.244473
 31
0.0
  0
LINE
  5
2B3
100
AcDbEntity
  8
LAY-2
  6
CONTINUOUS
 62
     6
100
AcDbLine
 10
1527.15878
 20
1387.244473
 30
0.0
 11
1527.15878
 21
1403.744473
 31
0.0
  0
LINE
  5
2B4
100
AcDbEntity
  8
LAY-2
  6
CONTINUOUS
 62
     6
100
AcDbLine
 10
1527.15878
 20
1397.244473
 30
0.0
 11
1550.15878
 21
1397.244473
 31
0.0
  0
LINE
  5
2B5
100
AcDbEntity
  8
LAY-2
  6
CONTINUOUS
 62
     6
100
AcDbLine
 10
1527.15878
 20
1392.244473
 30
0.0
 11
1550.15878
 21
1392.244473
 31
0.0
  0
LINE
  5
2B6
100
AcDbEntity
  8
LAY-2
  6
CONTINUOUS
 62
     6
100
AcDbLine
 10
1527.15878
 20
1401.344473
 30
0.0
 11
1550.15878
 21
1401.344473
 31
0.0
  0
LINE
  5
2B7
100
AcDbEntity
  8
LAY-2
  6
CONTINUOUS
 62
     6
100
AcDbLine
 10
1546.293238
 20
1387.244473
 30
0.0
 11
1546.293238
 21
1403.744473
 31
0.0
  0
LINE
  5
2B8
100
AcDbEntity
  8
LAY-2
  6
CONTINUOUS
 62
     6
100
AcDbLine
 10
1531.024322
 20
1387.244473
 30
0.0
 11
1531.024322
 21
1403.744473
 31
0.0
  0
LINE
  5
2B9
100
AcDbEntity
  8
LAY-2
  6
CONTINUOUS
 62
     6
100
AcDbLine
 10
1541.45878
 20
1387.244473
 30
0.0
 11
1541.45878
 21
1403.744473
 31
0.0
  0
LINE
  5
2BA
100
AcDbEntity
  8
LAY-2
  6
CONTINUOUS
 62
     6
100
AcDbLine
 10
1535.924322
 20
1387.244473
 30
0.0
 11
1535.924322
 21
1403.744473
 31
0.0
  0
LINE
  5
2BB
100
AcDbEntity
  8
LAY-2
  6
CONTINUOUS
 62
     6
100
AcDbLine
 10
1527.15878
 20
1403.744473
 30
0.0
 11
1550.15878
 21
1403.744473
 31
0.0
  0
ARC
  5
2BC
100
AcDbEntity
  8
LAY-2
  6
CONTINUOUS
 62
     6
100
AcDbCircle
 10
1549.65878
 20
1454.710329
 30
0.0
 40
5.0
100
AcDbArc
 50
90.0
 51
126.869898
  0
LINE
  5
2BD
100
AcDbEntity
  8
LAY-2
  6
CONTINUOUS
 62
     6
100
AcDbLine
 10
1544.65878
 20
1386.244473
 30
0.0
 11
1544.65878
 21
1381.710329
 31
0.0
  0
LINE
  5
2BE
100
AcDbEntity
  8
LAY-2
  6
CONTINUOUS
 62
     6
100
AcDbLine
 10
1543.65878
 20
1386.244473
 30
0.0
 11
1543.65878
 21
1380.710329
 31
0.0
  0
LINE
  5
2BF
100
AcDbEntity
  8
LAY-2
  6
CONTINUOUS
 62
     6
100
AcDbLine
 10
1532.65878
 20
1386.244473
 30
0.0
 11
1532.65878
 21
1381.710329
 31
0.0
  0
LINE
  5
2C0
100
AcDbEntity
  8
LAY-2
  6
CONTINUOUS
 62
     6
100
AcDbLine
 10
1533.65878
 20
1386.244473
 30
0.0
 11
1533.65878
 21
1380.710329
 31
0.0
  0
ARC
  5
2C1
100
AcDbEntity
  8
LAY-2
  6
CONTINUOUS
 62
     6
100
AcDbCircle
 10
1527.65878
 20
1454.710329
 30
0.0
 40
5.0
100
AcDbArc
 50
53.130102
 51
90.0
  0
ARC
  5
2C2
100
AcDbEntity
  8
LAY-2
  6
EXLTYPE2
 62
     6
100
AcDbCircle
 10
1527.65878
 20
1454.710329
 30
0.0
 40
5.0
100
AcDbArc
 50
0.0
 51
53.130102
  0
LINE
  5
2C3
100
AcDbEntity
  8
LAY-2
  6
EXLTYPE2
 62
     6
100
AcDbLine
 10
1532.65878
 20
1454.710329
 30
0.0
 11
1532.65878
 21
1418.710329
 31
0.0
  0
LINE
  5
2C4
100
AcDbEntity
  8
LAY-2
  6
EXLTYPE2
 62
     6
100
AcDbLine
 10
1544.65878
 20
1454.710329
 30
0.0
 11
1544.65878
 21
1418.710329
 31
0.0
  0
ARC
  5
2C5
100
AcDbEntity
  8
LAY-2
  6
EXLTYPE2
 62
     6
100
AcDbCircle
 10
1549.65878
 20
1454.710329
 30
0.0
 40
5.0
100
AcDbArc
 50
126.869898
 51
180.0
  0
LINE
  5
2C6
100
AcDbEntity
  8
LAY-2
  6
CONTINUOUS
 62
     6
100
AcDbLine
 10
1674.15878
 20
1378.210329
 30
0.0
 11
1683.15878
 21
1378.210329
 31
0.0
  0
LINE
  5
2C7
100
AcDbEntity
  8
LAY-2
  6
CONTINUOUS
 62
     6
100
AcDbLine
 10
1674.15878
 20
1378.210329
 30
0.0
 11
1674.15878
 21
1380.210329
 31
0.0
  0
LINE
  5
2C8
100
AcDbEntity
  8
LAY-2
  6
CONTINUOUS
 62
     6
100
AcDbLine
 10
1683.15878
 20
1378.210329
 30
0.0
 11
1683.15878
 21
1380.210329
 31
0.0
  0
LINE
  5
2C9
100
AcDbEntity
  8
LAY-2
  6
CONTINUOUS
 62
     6
100
AcDbLine
 10
1672.65878
 20
1381.710329
 30
0.0
 11
1674.15878
 21
1380.210329
 31
0.0
  0
LINE
  5
2CA
100
AcDbEntity
  8
LAY-2
  6
CONTINUOUS
 62
     6
100
AcDbLine
 10
1684.65878
 20
1381.710329
 30
0.0
 11
1683.15878
 21
1380.210329
 31
0.0
  0
LINE
  5
2CB
100
AcDbEntity
  8
LAY-2
  6
CONTINUOUS
 62
     6
100
AcDbLine
 10
1672.65878
 20
1381.710329
 30
0.0
 11
1674.15878
 21
1380.210329
 31
0.0
  0
LINE
  5
2CC
100
AcDbEntity
  8
LAY-2
  6
CONTINUOUS
 62
     6
100
AcDbLine
 10
1684.65878
 20
1381.710329
 30
0.0
 11
1683.15878
 21
1380.210329
 31
0.0
  0
LINE
  5
2CD
100
AcDbEntity
  8
LAY-2
  6
CONTINUOUS
 62
     6
100
AcDbLine
 10
1674.15878
 20
1380.210329
 30
0.0
 11
1683.15878
 21
1380.210329
 31
0.0
  0
LINE
  5
2CE
100
AcDbEntity
  8
LAY-2
  6
CONTINUOUS
 62
     6
100
AcDbLine
 10
1672.65878
 20
1381.710329
 30
0.0
 11
1684.65878
 21
1381.710329
 31
0.0
  0
ARC
  5
2CF
100
AcDbEntity
  8
LAY-2
  6
CONTINUOUS
 62
     6
100
AcDbCircle
 10
1678.65878
 20
1407.744473
 30
0.0
 40
12.5
100
AcDbArc
 50
118.685402
 51
180.0
  0
LINE
  5
2D0
100
AcDbEntity
  8
LAY-2
  6
CONTINUOUS
 62
     6
100
AcDbLine
 10
1665.95878
 20
1406.744473
 30
0.0
 11
1691.35878
 21
1406.744473
 31
0.0
  0
LINE
  5
2D1
100
AcDbEntity
  8
LAY-2
  6
CONTINUOUS
 62
     6
100
AcDbLine
 10
1665.95878
 20
1407.744473
 30
0.0
 11
1691.35878
 21
1407.744473
 31
0.0
  0
LINE
  5
2D2
100
AcDbEntity
  8
LAY-2
  6
CONTINUOUS
 62
     6
100
AcDbLine
 10
1666.15878
 20
1407.744473
 30
0.0
 11
1691.15878
 21
1407.744473
 31
0.0
  0
ARC
  5
2D3
100
AcDbEntity
  8
LAY-2
  6
CONTINUOUS
 62
     6
100
AcDbCircle
 10
1678.65878
 20
1407.744473
 30
0.0
 40
12.5
100
AcDbArc
 50
0.0
 51
61.314598
  0
LINE
  5
2D4
100
AcDbEntity
  8
LAY-2
  6
CONTINUOUS
 62
     6
100
AcDbLine
 10
1666.65878
 20
1406.744473
 30
0.0
 11
1690.65878
 21
1406.744473
 31
0.0
  0
ARC
  5
2D5
100
AcDbEntity
  8
LAY-2
  6
CONTINUOUS
 62
     6
100
AcDbCircle
 10
1666.65878
 20
1405.744473
 30
0.0
 40
1.0
100
AcDbArc
 50
90.0
 51
180.0
  0
ARC
  5
2D6
100
AcDbEntity
  8
LAY-2
  6
CONTINUOUS
 62
     6
100
AcDbCircle
 10
1665.95878
 20
1407.444473
 30
0.0
 40
0.3
100
AcDbArc
 50
90.0
 51
180.0
  0
ARC
  5
2D7
100
AcDbEntity
  8
LAY-2
  6
CONTINUOUS
 62
     6
100
AcDbCircle
 10
1665.95878
 20
1407.044473
 30
0.0
 40
0.3
100
AcDbArc
 50
180.0
 51
270.0
  0
LINE
  5
2D8
100
AcDbEntity
  8
LAY-2
  6
CONTINUOUS
 62
     6
100
AcDbLine
 10
1665.65878
 20
1407.044473
 30
0.0
 11
1665.65878
 21
1407.444473
 31
0.0
  0
LINE
  5
2D9
100
AcDbEntity
  8
LAY-2
  6
CONTINUOUS
 62
     6
100
AcDbLine
 10
1691.65878
 20
1407.044473
 30
0.0
 11
1691.65878
 21
1407.444473
 31
0.0
  0
ARC
  5
2DA
100
AcDbEntity
  8
LAY-2
  6
CONTINUOUS
 62
     6
100
AcDbCircle
 10
1691.35878
 20
1407.044473
 30
0.0
 40
0.3
100
AcDbArc
 50
270.0
 51
0.0
  0
ARC
  5
2DB
100
AcDbEntity
  8
LAY-2
  6
CONTINUOUS
 62
     6
100
AcDbCircle
 10
1691.35878
 20
1407.444473
 30
0.0
 40
0.3
100
AcDbArc
 50
0.0
 51
90.0
  0
LINE
  5
2DC
100
AcDbEntity
  8
LAY-2
  6
CONTINUOUS
 62
     6
100
AcDbLine
 10
1691.65878
 20
1405.744473
 30
0.0
 11
1691.65878
 21
1404.744473
 31
0.0
  0
ARC
  5
2DD
100
AcDbEntity
  8
LAY-2
  6
CONTINUOUS
 62
     6
100
AcDbCircle
 10
1690.65878
 20
1405.744473
 30
0.0
 40
1.0
100
AcDbArc
 50
0.0
 51
90.0
  0
LINE
  5
2DE
100
AcDbEntity
  8
LAY-2
  6
CONTINUOUS
 62
     6
100
AcDbLine
 10
1672.65878
 20
1418.710329
 30
0.0
 11
1684.65878
 21
1418.710329
 31
0.0
  0
LINE
  5
2DF
100
AcDbEntity
  8
LAY-2
  6
CONTINUOUS
 62
     6
100
AcDbLine
 10
1665.65878
 20
1405.744473
 30
0.0
 11
1665.65878
 21
1387.244473
 31
0.0
  0
ARC
  5
2E0
100
AcDbEntity
  8
LAY-2
  6
CONTINUOUS
 62
     6
100
AcDbCircle
 10
1666.65878
 20
1387.244473
 30
0.0
 40
1.0
100
AcDbArc
 50
180.0
 51
270.0
  0
LINE
  5
2E1
100
AcDbEntity
  8
LAY-2
  6
CONTINUOUS
 62
     6
100
AcDbLine
 10
1667.15878
 20
1403.744473
 30
0.0
 11
1667.15878
 21
1387.244473
 31
0.0
  0
ARC
  5
2E2
100
AcDbEntity
  8
LAY-2
  6
CONTINUOUS
 62
     6
100
AcDbCircle
 10
1668.15878
 20
1387.244473
 30
0.0
 40
1.0
100
AcDbArc
 50
180.0
 51
270.0
  0
LINE
  5
2E3
100
AcDbEntity
  8
LAY-2
  6
CONTINUOUS
 62
     6
100
AcDbLine
 10
1690.15878
 20
1388.244473
 30
0.0
 11
1667.15878
 21
1388.244473
 31
0.0
  0
LINE
  5
2E4
100
AcDbEntity
  8
LAY-2
  6
CONTINUOUS
 62
     6
100
AcDbLine
 10
1691.65878
 20
1405.744473
 30
0.0
 11
1691.65878
 21
1387.244473
 31
0.0
  0
ARC
  5
2E5
100
AcDbEntity
  8
LAY-2
  6
CONTINUOUS
 62
     6
100
AcDbCircle
 10
1690.65878
 20
1387.244473
 30
0.0
 40
1.0
100
AcDbArc
 50
270.0
 51
0.0
  0
ARC
  5
2E6
100
AcDbEntity
  8
LAY-2
  6
CONTINUOUS
 62
     6
100
AcDbCircle
 10
1689.15878
 20
1387.244473
 30
0.0
 40
1.0
100
AcDbArc
 50
270.0
 51
0.0
  0
LINE
  5
2E7
100
AcDbEntity
  8
LAY-2
  6
CONTINUOUS
 62
     6
100
AcDbLine
 10
1666.65878
 20
1386.244473
 30
0.0
 11
1690.65878
 21
1386.244473
 31
0.0
  0
LINE
  5
2E8
100
AcDbEntity
  8
LAY-2
  6
CONTINUOUS
 62
     6
100
AcDbLine
 10
1690.15878
 20
1387.244473
 30
0.0
 11
1690.15878
 21
1403.744473
 31
0.0
  0
LINE
  5
2E9
100
AcDbEntity
  8
LAY-2
  6
CONTINUOUS
 62
     6
100
AcDbLine
 10
1690.15878
 20
1397.244473
 30
0.0
 11
1667.15878
 21
1397.244473
 31
0.0
  0
LINE
  5
2EA
100
AcDbEntity
  8
LAY-2
  6
CONTINUOUS
 62
     6
100
AcDbLine
 10
1690.15878
 20
1392.244473
 30
0.0
 11
1667.15878
 21
1392.244473
 31
0.0
  0
LINE
  5
2EB
100
AcDbEntity
  8
LAY-2
  6
CONTINUOUS
 62
     6
100
AcDbLine
 10
1690.15878
 20
1401.344473
 30
0.0
 11
1667.15878
 21
1401.344473
 31
0.0
  0
LINE
  5
2EC
100
AcDbEntity
  8
LAY-2
  6
CONTINUOUS
 62
     6
100
AcDbLine
 10
1671.024322
 20
1387.244473
 30
0.0
 11
1671.024322
 21
1403.744473
 31
0.0
  0
LINE
  5
2ED
100
AcDbEntity
  8
LAY-2
  6
CONTINUOUS
 62
     6
100
AcDbLine
 10
1686.293238
 20
1387.244473
 30
0.0
 11
1686.293238
 21
1403.744473
 31
0.0
  0
LINE
  5
2EE
100
AcDbEntity
  8
LAY-2
  6
CONTINUOUS
 62
     6
100
AcDbLine
 10
1675.85878
 20
1387.244473
 30
0.0
 11
1675.85878
 21
1403.744473
 31
0.0
  0
LINE
  5
2EF
100
AcDbEntity
  8
LAY-2
  6
CONTINUOUS
 62
     6
100
AcDbLine
 10
1681.393238
 20
1387.244473
 30
0.0
 11
1681.393238
 21
1403.744473
 31
0.0
  0
LINE
  5
2F0
100
AcDbEntity
  8
LAY-2
  6
CONTINUOUS
 62
     6
100
AcDbLine
 10
1690.15878
 20
1403.744473
 30
0.0
 11
1667.15878
 21
1403.744473
 31
0.0
  0
ARC
  5
2F1
100
AcDbEntity
  8
LAY-2
  6
CONTINUOUS
 62
     6
100
AcDbCircle
 10
1667.65878
 20
1454.710329
 30
0.0
 40
5.0
100
AcDbArc
 50
53.130102
 51
90.0
  0
LINE
  5
2F2
100
AcDbEntity
  8
LAY-2
  6
CONTINUOUS
 62
     6
100
AcDbLine
 10
1672.65878
 20
1386.244473
 30
0.0
 11
1672.65878
 21
1381.710329
 31
0.0
  0
LINE
  5
2F3
100
AcDbEntity
  8
LAY-2
  6
CONTINUOUS
 62
     6
100
AcDbLine
 10
1673.65878
 20
1386.244473
 30
0.0
 11
1673.65878
 21
1380.710329
 31
0.0
  0
LINE
  5
2F4
100
AcDbEntity
  8
LAY-2
  6
CONTINUOUS
 62
     6
100
AcDbLine
 10
1684.65878
 20
1386.244473
 30
0.0
 11
1684.65878
 21
1381.710329
 31
0.0
  0
LINE
  5
2F5
100
AcDbEntity
  8
LAY-2
  6
CONTINUOUS
 62
     6
100
AcDbLine
 10
1683.65878
 20
1386.244473
 30
0.0
 11
1683.65878
 21
1380.710329
 31
0.0
  0
ARC
  5
2F6
100
AcDbEntity
  8
LAY-2
  6
CONTINUOUS
 62
     6
100
AcDbCircle
 10
1689.65878
 20
1454.710329
 30
0.0
 40
5.0
100
AcDbArc
 50
90.0
 51
126.869898
  0
ARC
  5
2F7
100
AcDbEntity
  8
LAY-2
  6
EXLTYPE2
 62
     6
100
AcDbCircle
 10
1689.65878
 20
1454.710329
 30
0.0
 40
5.0
100
AcDbArc
 50
126.869898
 51
180.0
  0
LINE
  5
2F8
100
AcDbEntity
  8
LAY-2
  6
EXLTYPE2
 62
     6
100
AcDbLine
 10
1684.65878
 20
1454.710329
 30
0.0
 11
1684.65878
 21
1418.710329
 31
0.0
  0
LINE
  5
2F9
100
AcDbEntity
  8
LAY-2
  6
EXLTYPE2
 62
     6
100
AcDbLine
 10
1672.65878
 20
1454.710329
 30
0.0
 11
1672.65878
 21
1418.710329
 31
0.0
  0
ARC
  5
2FA
100
AcDbEntity
  8
LAY-2
  6
EXLTYPE2
 62
     6
100
AcDbCircle
 10
1667.65878
 20
1454.710329
 30
0.0
 40
5.0
100
AcDbArc
 50
0.0
 51
53.130102
  0
LINE
  5
2FB
100
AcDbEntity
  8
LAY-2
  6
EXLTYPE3
 62
     1
100
AcDbLine
 10
1538.685367
 20
1459.710329
 30
0.0
 11
1538.685367
 21
1371.210329
 31
0.0
  0
LINE
  5
2FC
100
AcDbEntity
  8
LAY-2
  6
EXLTYPE3
 62
     1
100
AcDbLine
 10
1678.632193
 20
1459.710329
 30
0.0
 11
1678.632193
 21
1371.210329
 31
0.0
  0
LINE
  5
2FD
100
AcDbEntity
  8
LAY-2
  6
CONTINUOUS
 62
     6
100
AcDbLine
 10
590.727966
 20
1459.710329
 30
0.0
 11
633.177835
 21
1459.710329
 31
0.0
  0
LINE
  5
2FE
100
AcDbEntity
  8
LAY-2
  6
CONTINUOUS
 62
     6
100
AcDbLine
 10
639.877835
 20
1459.710329
 30
0.0
 11
720.727851
 21
1459.710329
 31
0.0
  0
LINE
  5
2FF
100
AcDbEntity
  8
LAY-2
  6
CONTINUOUS
 62
     6
100
AcDbLine
 10
653.429422
 20
1418.716241
 30
0.0
 11
653.429422
 21
1458.716241
 31
0.0
  0
LINE
  5
300
100
AcDbEntity
  8
LAY-2
  6
CONTINUOUS
 62
     6
100
AcDbLine
 10
639.877835
 20
1458.716241
 30
0.0
 11
653.429422
 21
1458.716241
 31
0.0
  0
LINE
  5
301
100
AcDbEntity
  8
LAY-2
  6
CONTINUOUS
 62
     6
100
AcDbLine
 10
639.877835
 20
1418.716241
 30
0.0
 11
653.429422
 21
1418.716241
 31
0.0
  0
LINE
  5
302
100
AcDbEntity
  8
LAY-2
  6
CONTINUOUS
 62
     6
100
AcDbLine
 10
649.929422
 20
1378.216241
 30
0.0
 11
640.929422
 21
1378.216241
 31
0.0
  0
LINE
  5
303
100
AcDbEntity
  8
LAY-2
  6
CONTINUOUS
 62
     6
100
AcDbLine
 10
649.929422
 20
1378.216241
 30
0.0
 11
649.929422
 21
1380.216241
 31
0.0
  0
LINE
  5
304
100
AcDbEntity
  8
LAY-2
  6
CONTINUOUS
 62
     6
100
AcDbLine
 10
640.929422
 20
1378.216241
 30
0.0
 11
640.929422
 21
1380.216241
 31
0.0
  0
LINE
  5
305
100
AcDbEntity
  8
LAY-2
  6
CONTINUOUS
 62
     6
100
AcDbLine
 10
651.429422
 20
1381.716241
 30
0.0
 11
649.929422
 21
1380.216241
 31
0.0
  0
LINE
  5
306
100
AcDbEntity
  8
LAY-2
  6
CONTINUOUS
 62
     6
100
AcDbLine
 10
651.429422
 20
1381.716241
 30
0.0
 11
649.929422
 21
1380.216241
 31
0.0
  0
LINE
  5
307
100
AcDbEntity
  8
LAY-2
  6
CONTINUOUS
 62
     6
100
AcDbLine
 10
649.929422
 20
1380.216241
 30
0.0
 11
640.929422
 21
1380.216241
 31
0.0
  0
ARC
  5
308
100
AcDbEntity
  8
LAY-2
  6
CONTINUOUS
 62
     6
100
AcDbCircle
 10
645.429422
 20
1407.750385
 30
0.0
 40
12.5
100
AcDbArc
 50
0.0
 51
61.314598
  0
ARC
  5
309
100
AcDbEntity
  8
LAY-2
  6
CONTINUOUS
 62
     6
100
AcDbCircle
 10
657.429422
 20
1405.750385
 30
0.0
 40
1.0
100
AcDbArc
 50
0.0
 51
90.0
  0
ARC
  5
30A
100
AcDbEntity
  8
LAY-2
  6
CONTINUOUS
 62
     6
100
AcDbCircle
 10
658.129422
 20
1407.450385
 30
0.0
 40
0.3
100
AcDbArc
 50
0.0
 51
90.0
  0
ARC
  5
30B
100
AcDbEntity
  8
LAY-2
  6
CONTINUOUS
 62
     6
100
AcDbCircle
 10
658.129422
 20
1407.050385
 30
0.0
 40
0.3
100
AcDbArc
 50
270.0
 51
0.0
  0
LINE
  5
30C
100
AcDbEntity
  8
LAY-2
  6
CONTINUOUS
 62
     6
100
AcDbLine
 10
658.429422
 20
1407.050385
 30
0.0
 11
658.429422
 21
1407.450385
 31
0.0
  0
LINE
  5
30D
100
AcDbEntity
  8
LAY-2
  6
CONTINUOUS
 62
     6
100
AcDbLine
 10
632.429422
 20
1407.050385
 30
0.0
 11
632.429422
 21
1407.450385
 31
0.0
  0
ARC
  5
30E
100
AcDbEntity
  8
LAY-2
  6
CONTINUOUS
 62
     6
100
AcDbCircle
 10
632.729422
 20
1407.050385
 30
0.0
 40
0.3
100
AcDbArc
 50
180.0
 51
270.0
  0
ARC
  5
30F
100
AcDbEntity
  8
LAY-2
  6
CONTINUOUS
 62
     6
100
AcDbCircle
 10
632.729422
 20
1407.450385
 30
0.0
 40
0.3
100
AcDbArc
 50
90.0
 51
180.0
  0
LINE
  5
310
100
AcDbEntity
  8
LAY-2
  6
CONTINUOUS
 62
     6
100
AcDbLine
 10
651.429422
 20
1386.250385
 30
0.0
 11
651.429422
 21
1381.716241
 31
0.0
  0
LINE
  5
311
100
AcDbEntity
  8
LAY-2
  6
CONTINUOUS
 62
     6
100
AcDbLine
 10
650.429422
 20
1386.250385
 30
0.0
 11
650.429422
 21
1380.716241
 31
0.0
  0
LINE
  5
312
100
AcDbEntity
  8
LAY-2
  6
CONTINUOUS
 62
     6
100
AcDbLine
 10
640.429422
 20
1386.250385
 30
0.0
 11
640.429422
 21
1380.716241
 31
0.0
  0
LINE
  5
313
100
AcDbEntity
  8
LAY-2
  6
EXLTYPE2
 62
     6
100
AcDbLine
 10
651.429422
 20
1454.716241
 30
0.0
 11
651.429422
 21
1418.716241
 31
0.0
  0
LINE
  5
314
100
AcDbEntity
  8
LAY-2
  6
CONTINUOUS
 62
     6
100
AcDbLine
 10
641.679422
 20
1402.750385
 30
0.0
 11
641.679422
 21
1387.250385
 31
0.0
  0
LINE
  5
315
100
AcDbEntity
  8
LAY-2
  6
CONTINUOUS
 62
     6
100
AcDbLine
 10
642.929422
 20
1386.250385
 30
0.0
 11
642.929422
 21
1392.250385
 31
0.0
  0
LINE
  5
316
100
AcDbEntity
  8
LAY-2
  6
CONTINUOUS
 62
     6
100
AcDbLine
 10
647.929422
 20
1386.250385
 30
0.0
 11
647.929422
 21
1392.250385
 31
0.0
  0
LINE
  5
317
100
AcDbEntity
  8
LAY-2
  6
CONTINUOUS
 62
     6
100
AcDbLine
 10
656.929422
 20
1403.750385
 30
0.0
 11
656.929422
 21
1387.250385
 31
0.0
  0
LINE
  5
318
100
AcDbEntity
  8
LAY-2
  6
CONTINUOUS
 62
     6
100
AcDbLine
 10
649.179422
 20
1402.750385
 30
0.0
 11
649.179422
 21
1387.250385
 31
0.0
  0
ARC
  5
319
100
AcDbEntity
  8
LAY-2
  6
CONTINUOUS
 62
     6
100
AcDbCircle
 10
642.679422
 20
1387.250385
 30
0.0
 40
1.0
100
AcDbArc
 50
180.0
 51
270.0
  0
ARC
  5
31A
100
AcDbEntity
  8
LAY-2
  6
CONTINUOUS
 62
     6
100
AcDbCircle
 10
648.179422
 20
1387.250385
 30
0.0
 40
1.0
100
AcDbArc
 50
270.0
 51
0.0
  0
ARC
  5
31B
100
AcDbEntity
  8
LAY-2
  6
CONTINUOUS
 62
     6
100
AcDbCircle
 10
655.929422
 20
1387.250385
 30
0.0
 40
1.0
100
AcDbArc
 50
270.0
 51
0.0
  0
LINE
  5
31C
100
AcDbEntity
  8
LAY-2
  6
CONTINUOUS
 62
     6
100
AcDbLine
 10
657.429422
 20
1403.750385
 30
0.0
 11
650.179422
 21
1403.750385
 31
0.0
  0
LINE
  5
31D
100
AcDbEntity
  8
LAY-2
  6
CONTINUOUS
 62
     6
100
AcDbLine
 10
643.429422
 20
1392.750385
 30
0.0
 11
647.429422
 21
1392.750385
 31
0.0
  0
ARC
  5
31E
100
AcDbEntity
  8
LAY-2
  6
CONTINUOUS
 62
     6
100
AcDbCircle
 10
640.679422
 20
1402.750385
 30
0.0
 40
1.0
100
AcDbArc
 50
0.0
 51
90.0
  0
LINE
  5
31F
100
AcDbEntity
  8
LAY-2
  6
CONTINUOUS
 62
     6
100
AcDbLine
 10
632.429422
 20
1405.750385
 30
0.0
 11
632.429422
 21
1404.750385
 31
0.0
  0
ARC
  5
320
100
AcDbEntity
  8
LAY-2
  6
CONTINUOUS
 62
     6
100
AcDbCircle
 10
643.429422
 20
1392.250385
 30
0.0
 40
0.5
100
AcDbArc
 50
90.0
 51
180.0
  0
ARC
  5
321
100
AcDbEntity
  8
LAY-2
  6
CONTINUOUS
 62
     6
100
AcDbCircle
 10
647.429422
 20
1392.250385
 30
0.0
 40
0.5
100
AcDbArc
 50
0.0
 51
90.0
  0
ARC
  5
322
100
AcDbEntity
  8
LAY-2
  6
CONTINUOUS
 62
     6
100
AcDbCircle
 10
650.179422
 20
1402.750385
 30
0.0
 40
1.0
100
AcDbArc
 50
90.0
 51
180.0
  0
LINE
  5
323
100
AcDbEntity
  8
LAY-2
  6
CONTINUOUS
 62
     6
100
AcDbLine
 10
658.429422
 20
1405.750385
 30
0.0
 11
658.429422
 21
1404.750385
 31
0.0
  0
ARC
  5
324
100
AcDbEntity
  8
LAY-2
  6
CONTINUOUS
 62
     6
100
AcDbCircle
 10
657.429422
 20
1404.750385
 30
0.0
 40
1.0
100
AcDbArc
 50
270.0
 51
0.0
  0
LINE
  5
325
100
AcDbEntity
  8
LAY-2
  6
CONTINUOUS
 62
     6
100
AcDbLine
 10
652.821479
 20
1387.250385
 30
0.0
 11
652.821479
 21
1403.750385
 31
0.0
  0
LINE
  5
326
100
AcDbEntity
  8
LAY-2
  6
CONTINUOUS
 62
     6
100
AcDbLine
 10
649.179422
 20
1400.750385
 30
0.0
 11
656.929422
 21
1400.750385
 31
0.0
  0
LINE
  5
327
100
AcDbEntity
  8
LAY-2
  6
CONTINUOUS
 62
     6
100
AcDbLine
 10
649.179422
 20
1395.750385
 30
0.0
 11
656.929422
 21
1395.750385
 31
0.0
  0
LINE
  5
328
100
AcDbEntity
  8
LAY-2
  6
CONTINUOUS
 62
     6
100
AcDbLine
 10
649.179422
 20
1390.750385
 30
0.0
 11
656.929422
 21
1390.750385
 31
0.0
  0
ARC
  5
329
100
AcDbEntity
  8
LAY-2
  6
CONTINUOUS
 62
     6
100
AcDbCircle
 10
633.429422
 20
1404.750385
 30
0.0
 40
1.0
100
AcDbArc
 50
180.0
 51
255.428557
  0
LINE
  5
32A
100
AcDbEntity
  8
LAY-2
  6
CONTINUOUS
 62
     6
100
AcDbLine
 10
639.877835
 20
1403.750385
 30
0.0
 11
640.679422
 21
1403.750385
 31
0.0
  0
LINE
  5
32B
100
AcDbEntity
  8
LAY-2
  6
CONTINUOUS
 62
     6
100
AcDbLine
 10
641.679422
 20
1400.750385
 30
0.0
 11
639.877835
 21
1400.750385
 31
0.0
  0
LINE
  5
32C
100
AcDbEntity
  8
LAY-2
  6
CONTINUOUS
 62
     6
100
AcDbLine
 10
641.679422
 20
1395.750385
 30
0.0
 11
639.877835
 21
1395.750385
 31
0.0
  0
LINE
  5
32D
100
AcDbEntity
  8
LAY-2
  6
CONTINUOUS
 62
     6
100
AcDbLine
 10
641.679422
 20
1390.750385
 30
0.0
 11
639.877835
 21
1390.750385
 31
0.0
  0
LINE
  5
32E
100
AcDbEntity
  8
LAY-2
  6
CONTINUOUS
 62
     6
100
AcDbLine
 10
639.877835
 20
1386.250385
 30
0.0
 11
655.929422
 21
1386.250385
 31
0.0
  0
LINE
  5
32F
100
AcDbEntity
  8
LAY-2
  6
CONTINUOUS
 62
     6
100
AcDbLine
 10
658.129422
 20
1407.750385
 30
0.0
 11
639.877835
 21
1407.750385
 31
0.0
  0
LINE
  5
330
100
AcDbEntity
  8
LAY-2
  6
CONTINUOUS
 62
     6
100
AcDbLine
 10
633.177835
 20
1407.750385
 30
0.0
 11
632.729422
 21
1407.750385
 31
0.0
  0
LINE
  5
331
100
AcDbEntity
  8
LAY-2
  6
CONTINUOUS
 62
     6
100
AcDbLine
 10
658.129422
 20
1406.750385
 30
0.0
 11
639.877835
 21
1406.750385
 31
0.0
  0
ARC
  5
332
100
AcDbEntity
  8
LAY-2
  6
CONTINUOUS
 62
     6
100
AcDbCircle
 10
645.429422
 20
1407.750385
 30
0.0
 40
12.5
100
AcDbArc
 50
118.685402
 51
118.685403
  0
ARC
  5
333
100
AcDbEntity
  8
LAY-2
  6
CONTINUOUS
 62
     6
100
AcDbCircle
 10
645.429422
 20
1407.750385
 30
0.0
 40
12.5
100
AcDbArc
 50
168.558271
 51
180.0
  0
LINE
  5
334
100
AcDbEntity
  8
LAY-2
  6
CONTINUOUS
 62
     6
100
AcDbLine
 10
639.877835
 20
1381.267828
 30
0.0
 11
640.929422
 21
1380.216241
 31
0.0
  0
LINE
  5
335
100
AcDbEntity
  8
LAY-2
  6
CONTINUOUS
 62
     6
100
AcDbLine
 10
639.877835
 20
1381.267828
 30
0.0
 11
640.929422
 21
1380.216241
 31
0.0
  0
LINE
  5
336
100
AcDbEntity
  8
LAY-2
  6
CONTINUOUS
 62
     6
100
AcDbLine
 10
651.429422
 20
1381.716241
 30
0.0
 11
639.877835
 21
1381.716241
 31
0.0
  0
LINE
  5
337
100
AcDbEntity
  8
LAY-2
  6
CONTINUOUS
 62
     6
100
AcDbLine
 10
651.429422
 20
1418.716241
 30
0.0
 11
639.877835
 21
1418.716241
 31
0.0
  0
LINE
  5
338
100
AcDbEntity
  8
LAY-2
  6
CONTINUOUS
 62
     6
100
AcDbLine
 10
657.429422
 20
1406.750385
 30
0.0
 11
639.877835
 21
1406.750385
 31
0.0
  0
LINE
  5
339
100
AcDbEntity
  8
LAY-2
  6
CONTINUOUS
 62
     6
100
AcDbLine
 10
657.929422
 20
1407.750385
 30
0.0
 11
639.877835
 21
1407.750385
 31
0.0
  0
LINE
  5
33A
100
AcDbEntity
  8
LAY-2
  6
CONTINUOUS
 62
     6
100
AcDbLine
 10
633.177835
 20
1407.750385
 30
0.0
 11
632.929422
 21
1407.750385
 31
0.0
  0
LINE
  5
33B
100
AcDbEntity
  8
LAY-2
  6
CONTINUOUS
 62
     6
100
AcDbLine
 10
633.177835
 20
1406.750385
 30
0.0
 11
632.729422
 21
1406.750385
 31
0.0
  0
ARC
  5
33C
100
AcDbEntity
  8
LAY-2
  6
CONTINUOUS
 62
     6
100
AcDbCircle
 10
633.429422
 20
1405.750385
 30
0.0
 40
1.0
100
AcDbArc
 50
104.571443
 51
180.0
  0
ARC
  5
33D
100
AcDbEntity
  8
LAY-2
  6
EXLTYPE2
 62
     6
100
AcDbCircle
 10
656.429422
 20
1454.716241
 30
0.0
 40
5.0
100
AcDbArc
 50
126.869898
 51
180.0
  0
ARC
  5
33E
100
AcDbEntity
  8
LAY-2
  6
CONTINUOUS
 62
     6
100
AcDbCircle
 10
656.429422
 20
1454.716241
 30
0.0
 40
5.0
100
AcDbArc
 50
87.213586
 51
126.869898
  0
ARC
  5
33F
100
AcDbEntity
  8
LAY-2
  6
CONTINUOUS
 62
     6
100
AcDbCircle
 10
687.650919
 20
3529.150536
 30
0.0
 40
1500.0
100
AcDbArc
 50
270.0
 51
276.874878
  0
ARC
  5
340
100
AcDbEntity
  8
LAY-2
  6
CONTINUOUS
 62
     6
100
AcDbCircle
 10
631.115606
 20
2038.550536
 30
0.0
 40
10.0
100
AcDbArc
 50
180.0
 51
270.0
  0
ARC
  5
341
100
AcDbEntity
  8
LAY-2
  6
CONTINUOUS
 62
     6
100
AcDbCircle
 10
831.292762
 20
2337.778629
 30
0.0
 40
300.0
100
AcDbArc
 50
276.874878
 51
321.79724
  0
ARC
  5
342
100
AcDbEntity
  8
LAY-2
  6
CONTINUOUS
 62
     6
100
AcDbCircle
 10
968.812506
 20
2229.550536
 30
0.0
 40
125.0
100
AcDbArc
 50
320.84559
 51
38.20276
  0
ARC
  5
343
100
AcDbEntity
  8
LAY-2
  6
CONTINUOUS
 62
     6
100
AcDbCircle
 10
831.292762
 20
2121.322443
 30
0.0
 40
300.0
100
AcDbArc
 50
38.20276
 51
83.125122
  0
ARC
  5
344
100
AcDbEntity
  8
LAY-2
  6
CONTINUOUS
 62
     6
100
AcDbCircle
 10
687.650919
 20
929.950536
 30
0.0
 40
1500.0
100
AcDbArc
 50
83.125122
 51
90.0
  0
LINE
  5
345
100
AcDbEntity
  8
LAY-2
  6
CONTINUOUS
 62
     6
100
AcDbLine
 10
687.650919
 20
2430.550536
 30
0.0
 11
631.115606
 21
2430.550536
 31
0.0
  0
ARC
  5
346
100
AcDbEntity
  8
LAY-2
  6
CONTINUOUS
 62
     6
100
AcDbCircle
 10
631.115606
 20
2420.550536
 30
0.0
 40
10.0
100
AcDbArc
 50
90.0
 51
180.0
  0
ARC
  5
347
100
AcDbEntity
  8
LAY-2
  6
CONTINUOUS
 62
     6
100
AcDbCircle
 10
641.531344
 20
-2572.449342
 30
0.0
 40
5000.0
100
AcDbArc
 50
90.201535
 51
90.468475
  0
ARC
  5
348
100
AcDbEntity
  8
LAY-2
  6
CONTINUOUS
 62
     6
100
AcDbCircle
 10
641.954867
 20
2416.29077
 30
0.0
 40
5.0
100
AcDbArc
 50
162.719849
 51
180.0
  0
LINE
  5
349
100
AcDbEntity
  8
LAY-2
  6
CONTINUOUS
 62
     6
100
AcDbLine
 10
637.355319
 20
2418.33795
 30
0.0
 11
637.180514
 21
2417.775877
 31
0.0
  0
ARC
  5
34A
100
AcDbEntity
  8
LAY-2
  6
CONTINUOUS
 62
     6
100
AcDbCircle
 10
642.129672
 20
2416.852782
 30
0.0
 40
5.0
100
AcDbArc
 50
96.816345
 51
162.720337
  0
ARC
  5
34B
100
AcDbEntity
  8
LAY-2
  6
CONTINUOUS
 62
     6
100
AcDbCircle
 10
712.750704
 20
1826.058592
 30
0.0
 40
600.0
100
AcDbArc
 50
95.798955
 51
96.816559
  0
ARC
  5
34C
100
AcDbEntity
  8
LAY-2
  6
CONTINUOUS
 62
     6
100
AcDbCircle
 10
662.127811
 20
2420.550536
 30
0.0
 40
10.0
100
AcDbArc
 50
90.0
 51
180.0
  0
LINE
  5
34D
100
AcDbEntity
  8
LAY-2
  6
CONTINUOUS
 62
     6
100
AcDbLine
 10
621.550044
 20
2028.550536
 30
0.0
 11
621.71403
 21
2019.155776
 31
0.0
  0
LINE
  5
34E
100
AcDbEntity
  8
LAY-2
  6
CONTINUOUS
 62
     6
100
AcDbLine
 10
651.515086
 20
2028.550536
 30
0.0
 11
651.3511
 21
2019.155776
 31
0.0
  0
ARC
  5
34F
100
AcDbEntity
  8
LAY-2
  6
CONTINUOUS
 62
     6
100
AcDbCircle
 10
618.912142
 20
2029.050536
 30
0.0
 40
0.5
100
AcDbArc
 50
180.0
 51
270.0
  0
ARC
  5
350
100
AcDbEntity
  8
LAY-2
  6
CONTINUOUS
 62
     6
100
AcDbCircle
 10
617.912142
 20
2031.107421
 30
0.0
 40
0.5
100
AcDbArc
 50
0.0
 51
89.734283
  0
LINE
  5
351
100
AcDbEntity
  8
LAY-2
  6
CONTINUOUS
 62
     6
100
AcDbLine
 10
618.412142
 20
2031.107421
 30
0.0
 11
618.412142
 21
2029.050536
 31
0.0
  0
LINE
  5
352
100
AcDbEntity
  8
LAY-2
  6
CONTINUOUS
 62
     6
100
AcDbLine
 10
687.650919
 20
2028.550536
 30
0.0
 11
619.5
 21
2028.550536
 31
0.0
  0
ARC
  5
353
100
AcDbEntity
  8
LAY-2
  6
CONTINUOUS
 62
     6
100
AcDbCircle
 10
662.127811
 20
2038.550536
 30
0.0
 40
10.0
100
AcDbArc
 50
180.0
 51
270.0
  0
LINE
  5
354
100
AcDbEntity
  8
LAY-2
  6
CONTINUOUS
 62
     6
100
AcDbLine
 10
637.355319
 20
2040.763122
 30
0.0
 11
637.180514
 21
2041.325195
 31
0.0
  0
ARC
  5
355
100
AcDbEntity
  8
LAY-2
  6
CONTINUOUS
 62
     6
100
AcDbCircle
 10
641.954867
 20
2042.810302
 30
0.0
 40
5.0
100
AcDbArc
 50
180.0
 51
197.280151
  0
ARC
  5
356
100
AcDbEntity
  8
LAY-2
  6
CONTINUOUS
 62
     6
100
AcDbCircle
 10
642.129672
 20
2042.24829
 30
0.0
 40
5.0
100
AcDbArc
 50
197.279663
 51
263.183655
  0
ARC
  5
357
100
AcDbEntity
  8
LAY-2
  6
CONTINUOUS
 62
     6
100
AcDbCircle
 10
642.129672
 20
2042.24829
 30
0.0
 40
5.0
100
AcDbArc
 50
197.278809
 51
263.183472
  0
ARC
  5
358
100
AcDbEntity
  8
LAY-2
  6
CONTINUOUS
 62
     6
100
AcDbCircle
 10
712.750704
 20
2633.04248
 30
0.0
 40
600.0
100
AcDbArc
 50
263.183441
 51
264.230758
  0
TEXT
  5
359
100
AcDbEntity
  8
LAY-3
  6
CONTINUOUS
 62
     2
100
AcDbText
 10
533.5
 20
2268.96703
 30
0.0
 40
40.0
  1
^J１９８
 50
90.0
 41
0.6545
  7
EXCADSTD
 72
     5
 11
533.5
 21
2387.96703
 31
0.0
100
AcDbText
  0
TEXT
  5
35A
100
AcDbEntity
  8
LAY-3
  6
CONTINUOUS
 62
     2
100
AcDbText
 10
533.5
 20
2383.96703
 30
0.0
 40
40.0
  1
^J
 50
90.0
 41
0.0
  7
EXCADSTD
 72
     5
 11
533.5
 21
2383.96703
 31
0.0
100
AcDbText
  0
LINE
  5
35B
100
AcDbEntity
  8
LAY-3
  6
CONTINUOUS
 62
     3
100
AcDbLine
 10
537.0
 20
2229.550536
 30
0.0
 11
537.0
 21
2427.383524
 31
0.0
  0
LINE
  5
35C
100
AcDbEntity
  8
LAY-3
  6
CONTINUOUS
 62
     3
100
AcDbLine
 10
531.166667
 20
2264.550536
 30
0.0
 11
537.0
 21
2229.550536
 31
0.0
  0
LINE
  5
35D
100
AcDbEntity
  8
LAY-3
  6
CONTINUOUS
 62
     3
100
AcDbLine
 10
537.0
 20
2229.550536
 30
0.0
 11
542.833333
 21
2264.550536
 31
0.0
  0
LINE
  5
35E
100
AcDbEntity
  8
LAY-3
  6
CONTINUOUS
 62
     3
100
AcDbLine
 10
542.833333
 20
2392.383524
 30
0.0
 11
537.0
 21
2427.383524
 31
0.0
  0
LINE
  5
35F
100
AcDbEntity
  8
LAY-3
  6
CONTINUOUS
 62
     3
100
AcDbLine
 10
537.0
 20
2427.383524
 30
0.0
 11
531.166667
 21
2392.383524
 31
0.0
  0
TEXT
  5
360
100
AcDbEntity
  8
LAY-3
  6
CONTINUOUS
 62
     2
100
AcDbText
 10
533.5
 20
2063.261016
 30
0.0
 40
40.0
  1
^J２１４
 50
90.0
 41
0.6545
  7
EXCADSTD
 72
     5
 11
533.5
 21
2182.261016
 31
0.0
100
AcDbText
  0
TEXT
  5
361
100
AcDbEntity
  8
LAY-3
  6
CONTINUOUS
 62
     2
100
AcDbText
 10
533.5
 20
2178.261016
 30
0.0
 40
40.0
  1
^J
 50
90.0
 41
0.0
  7
EXCADSTD
 72
     5
 11
533.5
 21
2178.261016
 31
0.0
100
AcDbText
  0
LINE
  5
362
100
AcDbEntity
  8
LAY-3
  6
CONTINUOUS
 62
     3
100
AcDbLine
 10
537.0
 20
2015.971496
 30
0.0
 11
537.0
 21
2229.550536
 31
0.0
  0
LINE
  5
363
100
AcDbEntity
  8
LAY-3
  6
CONTINUOUS
 62
     3
100
AcDbLine
 10
531.166667
 20
2050.971496
 30
0.0
 11
537.0
 21
2015.971496
 31
0.0
  0
LINE
  5
364
100
AcDbEntity
  8
LAY-3
  6
CONTINUOUS
 62
     3
100
AcDbLine
 10
537.0
 20
2015.971496
 30
0.0
 11
542.833333
 21
2050.971496
 31
0.0
  0
LINE
  5
365
100
AcDbEntity
  8
LAY-3
  6
CONTINUOUS
 62
     3
100
AcDbLine
 10
542.833333
 20
2194.550536
 30
0.0
 11
537.0
 21
2229.550536
 31
0.0
  0
LINE
  5
366
100
AcDbEntity
  8
LAY-3
  6
CONTINUOUS
 62
     3
100
AcDbLine
 10
537.0
 20
2229.550536
 30
0.0
 11
531.166667
 21
2194.550536
 31
0.0
  0
TEXT
  5
367
100
AcDbEntity
  8
LAY-3
  6
CONTINUOUS
 62
     2
100
AcDbText
 10
468.5
 20
2162.17751
 30
0.0
 40
40.0
  1
^J４１２
 50
90.0
 41
0.6545
  7
EXCADSTD
 72
     5
 11
468.5
 21
2281.17751
 31
0.0
100
AcDbText
  0
TEXT
  5
368
100
AcDbEntity
  8
LAY-3
  6
CONTINUOUS
 62
     2
100
AcDbText
 10
468.5
 20
2277.17751
 30
0.0
 40
40.0
  1
^J
 50
90.0
 41
0.0
  7
EXCADSTD
 72
     5
 11
468.5
 21
2277.17751
 31
0.0
100
AcDbText
  0
LINE
  5
369
100
AcDbEntity
  8
LAY-3
  6
CONTINUOUS
 62
     3
100
AcDbLine
 10
472.0
 20
2015.971496
 30
0.0
 11
472.0
 21
2427.383524
 31
0.0
  0
LINE
  5
36A
100
AcDbEntity
  8
LAY-3
  6
CONTINUOUS
 62
     3
100
AcDbLine
 10
466.166667
 20
2050.971496
 30
0.0
 11
472.0
 21
2015.971496
 31
0.0
  0
LINE
  5
36B
100
AcDbEntity
  8
LAY-3
  6
CONTINUOUS
 62
     3
100
AcDbLine
 10
472.0
 20
2015.971496
 30
0.0
 11
477.833333
 21
2050.971496
 31
0.0
  0
LINE
  5
36C
100
AcDbEntity
  8
LAY-3
  6
CONTINUOUS
 62
     3
100
AcDbLine
 10
477.833333
 20
2392.383524
 30
0.0
 11
472.0
 21
2427.383524
 31
0.0
  0
LINE
  5
36D
100
AcDbEntity
  8
LAY-3
  6
CONTINUOUS
 62
     3
100
AcDbLine
 10
472.0
 20
2427.383524
 30
0.0
 11
466.166667
 21
2392.383524
 31
0.0
  0
TEXT
  5
36E
100
AcDbEntity
  8
LAY-3
  6
CONTINUOUS
 62
     2
100
AcDbText
 10
809.856877
 20
2490.5
 30
0.0
 40
40.0
  1
^J４５０
 41
0.6545
  7
EXCADSTD
 72
     5
 11
928.856877
 21
2490.5
 31
0.0
100
AcDbText
  0
TEXT
  5
36F
100
AcDbEntity
  8
LAY-3
  6
CONTINUOUS
 62
     2
100
AcDbText
 10
924.856877
 20
2490.5
 30
0.0
 40
40.0
  1
^J
 41
0.0
  7
EXCADSTD
 72
     5
 11
924.856877
 21
2490.5
 31
0.0
100
AcDbText
  0
LINE
  5
370
100
AcDbEntity
  8
LAY-3
  6
CONTINUOUS
 62
     3
100
AcDbLine
 10
644.901248
 20
2487.0
 30
0.0
 11
1093.812506
 21
2487.0
 31
0.0
  0
LINE
  5
371
100
AcDbEntity
  8
LAY-3
  6
CONTINUOUS
 62
     3
100
AcDbLine
 10
679.901248
 20
2492.833333
 30
0.0
 11
644.901248
 21
2487.0
 31
0.0
  0
LINE
  5
372
100
AcDbEntity
  8
LAY-3
  6
CONTINUOUS
 62
     3
100
AcDbLine
 10
644.901248
 20
2487.0
 30
0.0
 11
679.901248
 21
2481.166667
 31
0.0
  0
LINE
  5
373
100
AcDbEntity
  8
LAY-3
  6
CONTINUOUS
 62
     3
100
AcDbLine
 10
1058.812506
 20
2481.166667
 30
0.0
 11
1093.812506
 21
2487.0
 31
0.0
  0
LINE
  5
374
100
AcDbEntity
  8
LAY-3
  6
CONTINUOUS
 62
     3
100
AcDbLine
 10
1093.812506
 20
2487.0
 30
0.0
 11
1058.812506
 21
2492.833333
 31
0.0
  0
TEXT
  5
375
100
AcDbEntity
  8
LAY-3
  6
CONTINUOUS
 62
     2
100
AcDbText
 10
782.77187
 20
2555.5
 30
0.0
 40
40.0
  1
^J５０４
 41
0.6545
  7
EXCADSTD
 72
     5
 11
901.77187
 21
2555.5
 31
0.0
100
AcDbText
  0
TEXT
  5
376
100
AcDbEntity
  8
LAY-3
  6
CONTINUOUS
 62
     2
100
AcDbText
 10
897.77187
 20
2555.5
 30
0.0
 40
40.0
  1
^J
 41
0.0
  7
EXCADSTD
 72
     5
 11
897.77187
 21
2555.5
 31
0.0
100
AcDbText
  0
LINE
  5
377
100
AcDbEntity
  8
LAY-3
  6
CONTINUOUS
 62
     3
100
AcDbLine
 10
590.731234
 20
2552.0
 30
0.0
 11
1093.812506
 21
2552.0
 31
0.0
  0
LINE
  5
378
100
AcDbEntity
  8
LAY-3
  6
CONTINUOUS
 62
     3
100
AcDbLine
 10
625.731234
 20
2557.833333
 30
0.0
 11
590.731234
 21
2552.0
 31
0.0
  0
LINE
  5
379
100
AcDbEntity
  8
LAY-3
  6
CONTINUOUS
 62
     3
100
AcDbLine
 10
590.731234
 20
2552.0
 30
0.0
 11
625.731234
 21
2546.166667
 31
0.0
  0
LINE
  5
37A
100
AcDbEntity
  8
LAY-3
  6
CONTINUOUS
 62
     3
100
AcDbLine
 10
1058.812506
 20
2546.166667
 30
0.0
 11
1093.812506
 21
2552.0
 31
0.0
  0
LINE
  5
37B
100
AcDbEntity
  8
LAY-3
  6
CONTINUOUS
 62
     3
100
AcDbLine
 10
1093.812506
 20
2552.0
 30
0.0
 11
1058.812506
 21
2557.833333
 31
0.0
  0
TEXT
  5
37C
100
AcDbEntity
  8
LAY-3
  6
CONTINUOUS
 62
     2
100
AcDbText
 10
940.5
 20
2170.050536
 30
0.0
 40
40.0
  1
^J２００
 50
90.0
 41
0.6545
  7
EXCADSTD
 72
     5
 11
940.5
 21
2289.050536
 31
0.0
100
AcDbText
  0
TEXT
  5
37D
100
AcDbEntity
  8
LAY-3
  6
CONTINUOUS
 62
     2
100
AcDbText
 10
940.5
 20
2285.050536
 30
0.0
 40
40.0
  1
^J
 50
90.0
 41
0.0
  7
EXCADSTD
 72
     5
 11
940.5
 21
2285.050536
 31
0.0
100
AcDbText
  0
LINE
  5
37E
100
AcDbEntity
  8
LAY-3
  6
CONTINUOUS
 62
     3
100
AcDbLine
 10
944.0
 20
2129.486713
 30
0.0
 11
944.0
 21
2329.614359
 31
0.0
  0
LINE
  5
37F
100
AcDbEntity
  8
LAY-3
  6
CONTINUOUS
 62
     3
100
AcDbLine
 10
938.166667
 20
2164.486713
 30
0.0
 11
944.0
 21
2129.486713
 31
0.0
  0
LINE
  5
380
100
AcDbEntity
  8
LAY-3
  6
CONTINUOUS
 62
     3
100
AcDbLine
 10
944.0
 20
2129.486713
 30
0.0
 11
949.833333
 21
2164.486713
 31
0.0
  0
LINE
  5
381
100
AcDbEntity
  8
LAY-3
  6
CONTINUOUS
 62
     3
100
AcDbLine
 10
949.833333
 20
2294.614359
 30
0.0
 11
944.0
 21
2329.614359
 31
0.0
  0
LINE
  5
382
100
AcDbEntity
  8
LAY-3
  6
CONTINUOUS
 62
     3
100
AcDbLine
 10
944.0
 20
2329.614359
 30
0.0
 11
938.166667
 21
2294.614359
 31
0.0
  0
TEXT
  5
383
100
AcDbEntity
  8
LAY-3
  6
CONTINUOUS
 62
     2
100
AcDbText
 10
831.312506
 20
1950.5
 30
0.0
 40
40.0
  1
^J２７６
 41
0.6545
  7
EXCADSTD
 72
     5
 11
950.312506
 21
1950.5
 31
0.0
100
AcDbText
  0
TEXT
  5
384
100
AcDbEntity
  8
LAY-3
  6
CONTINUOUS
 62
     2
100
AcDbText
 10
946.312506
 20
1950.5
 30
0.0
 40
40.0
  1
^J
 41
0.0
  7
EXCADSTD
 72
     5
 11
946.312506
 21
1950.5
 31
0.0
100
AcDbText
  0
LINE
  5
385
100
AcDbEntity
  8
LAY-3
  6
CONTINUOUS
 62
     3
100
AcDbLine
 10
752.812506
 20
1947.0
 30
0.0
 11
1028.812506
 21
1947.0
 31
0.0
  0
LINE
  5
386
100
AcDbEntity
  8
LAY-3
  6
CONTINUOUS
 62
     3
100
AcDbLine
 10
787.812506
 20
1952.833333
 30
0.0
 11
752.812506
 21
1947.0
 31
0.0
  0
LINE
  5
387
100
AcDbEntity
  8
LAY-3
  6
CONTINUOUS
 62
     3
100
AcDbLine
 10
752.812506
 20
1947.0
 30
0.0
 11
787.812506
 21
1941.166667
 31
0.0
  0
LINE
  5
388
100
AcDbEntity
  8
LAY-3
  6
CONTINUOUS
 62
     3
100
AcDbLine
 10
993.812506
 20
1941.166667
 30
0.0
 11
1028.812506
 21
1947.0
 31
0.0
  0
LINE
  5
389
100
AcDbEntity
  8
LAY-3
  6
CONTINUOUS
 62
     3
100
AcDbLine
 10
1028.812506
 20
1947.0
 30
0.0
 11
993.812506
 21
1952.833333
 31
0.0
  0
TEXT
  5
38A
100
AcDbEntity
  8
LAY-3
  6
CONTINUOUS
 62
     2
100
AcDbText
 10
1364.5
 20
1465.96036
 30
0.0
 40
40.0
  1
^J１３１
 50
90.0
 41
0.6545
  7
EXCADSTD
 72
     5
 11
1364.5
 21
1584.960359
 31
0.0
100
AcDbText
  0
TEXT
  5
38B
100
AcDbEntity
  8
LAY-3
  6
CONTINUOUS
 62
     2
100
AcDbText
 10
1364.5
 20
1580.960359
 30
0.0
 40
40.0
  1
^J
 50
90.0
 41
0.0
  7
EXCADSTD
 72
     5
 11
1364.5
 21
1580.960359
 31
0.0
100
AcDbText
  0
LINE
  5
38C
100
AcDbEntity
  8
LAY-3
  6
CONTINUOUS
 62
     3
100
AcDbLine
 10
1368.0
 20
1459.710329
 30
0.0
 11
1368.0
 21
1591.21039
 31
0.0
  0
LINE
  5
38D
100
AcDbEntity
  8
LAY-3
  6
CONTINUOUS
 62
     3
100
AcDbLine
 10
1362.166667
 20
1494.710329
 30
0.0
 11
1368.0
 21
1459.710329
 31
0.0
  0
LINE
  5
38E
100
AcDbEntity
  8
LAY-3
  6
CONTINUOUS
 62
     3
100
AcDbLine
 10
1368.0
 20
1459.710329
 30
0.0
 11
1373.833333
 21
1494.710329
 31
0.0
  0
LINE
  5
38F
100
AcDbEntity
  8
LAY-3
  6
CONTINUOUS
 62
     3
100
AcDbLine
 10
1373.833333
 20
1556.21039
 30
0.0
 11
1368.0
 21
1591.21039
 31
0.0
  0
LINE
  5
390
100
AcDbEntity
  8
LAY-3
  6
CONTINUOUS
 62
     3
100
AcDbLine
 10
1368.0
 20
1591.21039
 30
0.0
 11
1362.166667
 21
1556.21039
 31
0.0
  0
TEXT
  5
391
100
AcDbEntity
  8
LAY-3
  6
CONTINUOUS
 62
     2
100
AcDbText
 10
1479.5
 20
1377.960329
 30
0.0
 40
40.0
  1
^J８２
 50
90.0
 41
0.610444
  7
EXCADSTD
 72
     5
 11
1479.5
 21
1459.960329
 31
0.0
100
AcDbText
  0
TEXT
  5
392
100
AcDbEntity
  8
LAY-3
  6
CONTINUOUS
 62
     2
100
AcDbText
 10
1479.5
 20
1455.960329
 30
0.0
 40
40.0
  1
^J
 50
90.0
 41
0.0
  7
EXCADSTD
 72
     5
 11
1479.5
 21
1455.960329
 31
0.0
100
AcDbText
  0
LINE
  5
393
100
AcDbEntity
  8
LAY-3
  6
CONTINUOUS
 62
     3
100
AcDbLine
 10
1483.0
 20
1378.210329
 30
0.0
 11
1483.0
 21
1459.710329
 31
0.0
  0
LINE
  5
394
100
AcDbEntity
  8
LAY-3
  6
CONTINUOUS
 62
     3
100
AcDbLine
 10
1477.166667
 20
1413.210329
 30
0.0
 11
1483.0
 21
1378.210329
 31
0.0
  0
LINE
  5
395
100
AcDbEntity
  8
LAY-3
  6
CONTINUOUS
 62
     3
100
AcDbLine
 10
1483.0
 20
1378.210329
 30
0.0
 11
1488.833333
 21
1413.210329
 31
0.0
  0
LINE
  5
396
100
AcDbEntity
  8
LAY-3
  6
CONTINUOUS
 62
     3
100
AcDbLine
 10
1488.833333
 20
1424.710329
 30
0.0
 11
1483.0
 21
1459.710329
 31
0.0
  0
LINE
  5
397
100
AcDbEntity
  8
LAY-3
  6
CONTINUOUS
 62
     3
100
AcDbLine
 10
1483.0
 20
1459.710329
 30
0.0
 11
1477.166667
 21
1424.710329
 31
0.0
  0
TEXT
  5
398
100
AcDbEntity
  8
LAY-3
  6
CONTINUOUS
 62
     2
100
AcDbText
 10
1549.185367
 20
1334.5
 30
0.0
 40
40.0
  1
^J１４０
 41
0.6545
  7
EXCADSTD
 72
     5
 11
1668.185367
 21
1334.5
 31
0.0
100
AcDbText
  0
TEXT
  5
399
100
AcDbEntity
  8
LAY-3
  6
CONTINUOUS
 62
     2
100
AcDbText
 10
1664.185367
 20
1334.5
 30
0.0
 40
40.0
  1
^J
 41
0.0
  7
EXCADSTD
 72
     5
 11
1664.185367
 21
1334.5
 31
0.0
100
AcDbText
  0
LINE
  5
39A
100
AcDbEntity
  8
LAY-3
  6
CONTINUOUS
 62
     3
100
AcDbLine
 10
1538.685367
 20
1331.0
 30
0.0
 11
1678.685367
 21
1331.0
 31
0.0
  0
LINE
  5
39B
100
AcDbEntity
  8
LAY-3
  6
CONTINUOUS
 62
     3
100
AcDbLine
 10
1573.685367
 20
1336.833333
 30
0.0
 11
1538.685367
 21
1331.0
 31
0.0
  0
LINE
  5
39C
100
AcDbEntity
  8
LAY-3
  6
CONTINUOUS
 62
     3
100
AcDbLine
 10
1538.685367
 20
1331.0
 30
0.0
 11
1573.685367
 21
1325.166667
 31
0.0
  0
LINE
  5
39D
100
AcDbEntity
  8
LAY-3
  6
CONTINUOUS
 62
     3
100
AcDbLine
 10
1643.685367
 20
1325.166667
 30
0.0
 11
1678.685367
 21
1331.0
 31
0.0
  0
LINE
  5
39E
100
AcDbEntity
  8
LAY-3
  6
CONTINUOUS
 62
     3
100
AcDbLine
 10
1678.685367
 20
1331.0
 30
0.0
 11
1643.685367
 21
1336.833333
 31
0.0
  0
LINE
  5
39F
100
AcDbEntity
  8
LAY-3
  6
CONTINUOUS
 62
     3
100
AcDbLine
 10
1348.0
 20
1459.710329
 30
0.0
 11
1396.285502
 21
1459.710329
 31
0.0
  0
LINE
  5
3A0
100
AcDbEntity
  8
LAY-3
  6
CONTINUOUS
 62
     3
100
AcDbLine
 10
1558.65878
 20
1591.21039
 30
0.0
 11
1348.0
 21
1591.21039
 31
0.0
  0
LINE
  5
3A1
100
AcDbEntity
  8
LAY-3
  6
CONTINUOUS
 62
     3
100
AcDbLine
 10
1527.132193
 20
1378.210329
 30
0.0
 11
1463.0
 21
1378.210329
 31
0.0
  0
LINE
  5
3A2
100
AcDbEntity
  8
LAY-3
  6
CONTINUOUS
 62
     3
100
AcDbLine
 10
1678.685367
 20
1371.210329
 30
0.0
 11
1678.685367
 21
1311.0
 31
0.0
  0
LINE
  5
3A3
100
AcDbEntity
  8
LAY-3
  6
CONTINUOUS
 62
     3
100
AcDbLine
 10
1538.685367
 20
1371.210329
 30
0.0
 11
1538.685367
 21
1311.0
 31
0.0
  0
LINE
  5
3A4
100
AcDbEntity
  8
LAY-3
  6
CONTINUOUS
 62
     3
100
AcDbLine
 10
600.649643
 20
2427.383524
 30
0.0
 11
452.0
 21
2427.383524
 31
0.0
  0
LINE
  5
3A5
100
AcDbEntity
  8
LAY-3
  6
CONTINUOUS
 62
     3
100
AcDbLine
 10
614.931185
 20
2229.550536
 30
0.0
 11
517.0
 21
2229.550536
 31
0.0
  0
LINE
  5
3A6
100
AcDbEntity
  8
LAY-3
  6
CONTINUOUS
 62
     3
100
AcDbLine
 10
1028.812506
 20
2229.550536
 30
0.0
 11
1028.812506
 21
1927.0
 31
0.0
  0
LINE
  5
3A7
100
AcDbEntity
  8
LAY-3
  6
CONTINUOUS
 62
     3
100
AcDbLine
 10
752.812506
 20
2229.550536
 30
0.0
 11
752.812506
 21
1927.0
 31
0.0
  0
LINE
  5
3A8
100
AcDbEntity
  8
LAY-3
  6
CONTINUOUS
 62
     3
100
AcDbLine
 10
852.812506
 20
2329.614359
 30
0.0
 11
964.0
 21
2329.614359
 31
0.0
  0
LINE
  5
3A9
100
AcDbEntity
  8
LAY-3
  6
CONTINUOUS
 62
     3
100
AcDbLine
 10
852.812506
 20
2129.486713
 30
0.0
 11
964.0
 21
2129.486713
 31
0.0
  0
LINE
  5
3AA
100
AcDbEntity
  8
LAY-3
  6
CONTINUOUS
 62
     3
100
AcDbLine
 10
1093.812506
 20
2229.550536
 30
0.0
 11
1093.812506
 21
2572.0
 31
0.0
  0
LINE
  5
3AB
100
AcDbEntity
  8
LAY-3
  6
CONTINUOUS
 62
     3
100
AcDbLine
 10
590.731234
 20
2417.384032
 30
0.0
 11
590.731234
 21
2572.0
 31
0.0
  0
LINE
  5
3AC
100
AcDbEntity
  8
LAY-3
  6
CONTINUOUS
 62
     3
100
AcDbLine
 10
644.901248
 20
2274.550536
 30
0.0
 11
644.901248
 21
2507.0
 31
0.0
  0
LINE
  5
3AD
100
AcDbEntity
  8
LAY-3
  6
CONTINUOUS
 62
     3
100
AcDbLine
 10
621.769612
 20
2015.971496
 30
0.0
 11
452.0
 21
2015.971496
 31
0.0
  0
DIMENSION
  5
3BA
100
AcDbEntity
  8
LAY-3
  6
CONTINUOUS
 62
     3
100
AcDbDimension
  2
*D14
 10
1173.889043
 20
2430.550536
 30
0.0
 11
1148.889043
 21
2229.550536
 31
0.0
 70
   160
  3
STANDARD
100
AcDbAlignedDimension
 13
1028.812506
 23
2028.550536
 33
0.0
 14
1023.889043
 24
2430.550536
 34
0.0
 50
90.0
100
AcDbRotatedDimension
1001
ACAD
1000
DSTYLE
1002
{
1070
     6
1000
_EX_NORM
1070
     7
1000
_EX_NORM
1070
    41
1040
30.0
1070
    42
1040
0.0
1070
    44
1040
0.0
1070
    73
1070
     0
1070
    74
1070
     0
1070
    75
1070
     0
1070
    76
1070
     0
1070
    77
1070
     1
1070
    78
1070
     8
1070
   140
1040
40.0
1070
   147
1040
5.0
1070
   173
1070
     1
1070
   176
1070
     3
1070
   177
1070
     3
1070
   178
1070
     2
1070
   271
1070
     1
1070
   279
1070
     2
1070
   280
1070
     0
1070
   287
1070
     5
1070
   340
1005
3B9
1002
}
  0
ENDSEC
  0
SECTION
  2
OBJECTS
  0
DICTIONARY
  5
19
100
AcDbDictionary
  3
ACAD_GROUP
350
1A
  3
ACAD_MLINESTYLE
350
1B
  0
DICTIONARY
  5
1A
102
{ACAD_REACTORS
330
19
102
}
100
AcDbDictionary
  0
DICTIONARY
  5
1B
102
{ACAD_REACTORS
330
19
102
}
100
AcDbDictionary
  3
STANDARD
350
1C
  0
MLINESTYLE
  5
1C
102
{ACAD_REACTORS
330
1B
102
}
100
AcDbMlineStyle
  2
Standard
 70
     0
  3

 62
     0
 51
90.0
 52
90.0
 71
     2
 49
0.5
 62
   256
  6
ByLayer
 49
-0.5
 62
   256
  6
ByLayer
  0
ENDSEC
  0
EOF
