  0
SECTION
  2
HEADER
  9
$ACADVER
  1
AC1014
  9
$ACADMAINTVER
 70
     0
  9
$DWGCODEPAGE
  3
ANSI_932
  9
$INSBASE
 10
0.0
 20
0.0
 30
0.0
  9
$EXTMIN
 10
-1.1
 20
10.0
 30
0.0
  9
$EXTMAX
 10
198.0
 20
286.0
 30
0.0
  9
$LIMMIN
 10
0.0
 20
0.0
  9
$LIMMAX
 10
210.0
 20
297.0
  9
$ORTHOMODE
 70
     0
  9
$REGENMODE
 70
     1
  9
$FILLMODE
 70
     1
  9
$QTEXTMODE
 70
     0
  9
$MIRRTEXT
 70
     1
  9
$DRAGMODE
 70
     2
  9
$LTSCALE
 40
1.0
  9
$OSMODE
 70
     0
  9
$ATTMODE
 70
     1
  9
$TEXTSIZE
 40
0.2
  9
$TRACEWID
 40
0.05
  9
$TEXTSTYLE
  7
STANDARD
  9
$CLAYER
  8
LAY-1
  9
$CELTYPE
  6
CONTINUOUS
  9
$CECOLOR
 62
   256
  9
$CELTSCALE
 40
1.0
  9
$DELOBJ
 70
     1
  9
$DISPSILH
 70
     0
  9
$DIMSCALE
 40
1.0
  9
$DIMASZ
 40
0.18
  9
$DIMEXO
 40
0.0625
  9
$DIMDLI
 40
0.38
  9
$DIMRND
 40
0.0
  9
$DIMDLE
 40
0.0
  9
$DIMEXE
 40
0.18
  9
$DIMTP
 40
0.0
  9
$DIMTM
 40
0.0
  9
$DIMTXT
 40
0.18
  9
$DIMCEN
 40
0.09
  9
$DIMTSZ
 40
0.0
  9
$DIMTOL
 70
     0
  9
$DIMLIM
 70
     0
  9
$DIMTIH
 70
     1
  9
$DIMTOH
 70
     1
  9
$DIMSE1
 70
     0
  9
$DIMSE2
 70
     0
  9
$DIMTAD
 70
     0
  9
$DIMZIN
 70
     0
  9
$DIMBLK
  1

  9
$DIMASO
 70
     1
  9
$DIMSHO
 70
     1
  9
$DIMPOST
  1

  9
$DIMAPOST
  1

  9
$DIMALT
 70
     0
  9
$DIMALTD
 70
     2
  9
$DIMALTF
 40
25.4
  9
$DIMLFAC
 40
1.0
  9
$DIMTOFL
 70
     0
  9
$DIMTVP
 40
0.0
  9
$DIMTIX
 70
     0
  9
$DIMSOXD
 70
     0
  9
$DIMSAH
 70
     0
  9
$DIMBLK1
  1

  9
$DIMBLK2
  1

  9
$DIMSTYLE
  2
STANDARD
  9
$DIMCLRD
 70
     0
  9
$DIMCLRE
 70
     0
  9
$DIMCLRT
 70
     0
  9
$DIMTFAC
 40
1.0
  9
$DIMGAP
 40
0.09
  9
$DIMJUST
 70
     0
  9
$DIMSD1
 70
     0
  9
$DIMSD2
 70
     0
  9
$DIMTOLJ
 70
     1
  9
$DIMTZIN
 70
     0
  9
$DIMALTZ
 70
     0
  9
$DIMALTTZ
 70
     0
  9
$DIMFIT
 70
     3
  9
$DIMUPT
 70
     0
  9
$DIMUNIT
 70
     2
  9
$DIMDEC
 70
     4
  9
$DIMTDEC
 70
     4
  9
$DIMALTU
 70
     2
  9
$DIMALTTD
 70
     2
  9
$DIMTXSTY
  7
STANDARD
  9
$DIMAUNIT
 70
     0
  9
$LUNITS
 70
     2
  9
$LUPREC
 70
     4
  9
$SKETCHINC
 40
0.1
  9
$FILLETRAD
 40
0.0
  9
$AUNITS
 70
     0
  9
$AUPREC
 70
     0
  9
$MENU
  1
acad
  9
$ELEVATION
 40
0.0
  9
$PELEVATION
 40
0.0
  9
$THICKNESS
 40
0.0
  9
$LIMCHECK
 70
     0
  9
$BLIPMODE
 70
     1
  9
$CHAMFERA
 40
0.0
  9
$CHAMFERB
 40
0.0
  9
$CHAMFERC
 40
0.0
  9
$CHAMFERD
 40
0.0
  9
$SKPOLY
 70
     0
  9
$TDCREATE
 40
2454792.135985301
  9
$TDUPDATE
 40
2454792.135985301
  9
$TDINDWG
 40
0.0000000000
  9
$TDUSRTIMER
 40
0.0000000000
  9
$USRTIMER
 70
     1
  9
$ANGBASE
 50
0.0
  9
$ANGDIR
 70
     0
  9
$PDMODE
 70
     0
  9
$PDSIZE
 40
0.0
  9
$PLINEWID
 40
0.0
  9
$COORDS
 70
     1
  9
$SPLFRAME
 70
     0
  9
$SPLINETYPE
 70
     6
  9
$SPLINESEGS
 70
     8
  9
$ATTDIA
 70
     0
  9
$ATTREQ
 70
     1
  9
$HANDLING
 70
     1
  9
$HANDSEED
  5
258
  9
$SURFTAB1
 70
     6
  9
$SURFTAB2
 70
     6
  9
$SURFTYPE
 70
     6
  9
$SURFU
 70
     6
  9
$SURFV
 70
     6
  9
$UCSNAME
  2

  9
$UCSORG
 10
0.0
 20
0.0
 30
0.0
  9
$UCSXDIR
 10
1.0
 20
0.0
 30
0.0
  9
$UCSYDIR
 10
0.0
 20
1.0
 30
0.0
  9
$PUCSNAME
  2

  9
$PUCSORG
 10
0.0
 20
0.0
 30
0.0
  9
$PUCSXDIR
 10
1.0
 20
0.0
 30
0.0
  9
$PUCSYDIR
 10
0.0
 20
1.0
 30
0.0
  9
$USERI1
 70
     0
  9
$USERI2
 70
     0
  9
$USERI3
 70
     0
  9
$USERI4
 70
     0
  9
$USERI5
 70
     0
  9
$USERR1
 40
0.0
  9
$USERR2
 40
0.0
  9
$USERR3
 40
0.0
  9
$USERR4
 40
0.0
  9
$USERR5
 40
0.0
  9
$WORLDVIEW
 70
     1
  9
$SHADEDGE
 70
     3
  9
$SHADEDIF
 70
    70
  9
$TILEMODE
 70
     1
  9
$MAXACTVP
 70
    16
  9
$PINSBASE
 10
0.0
 20
0.0
 30
0.0
  9
$PLIMCHECK
 70
     0
  9
$PEXTMIN
 10
1.000000E+20
 20
1.000000E+20
 30
1.000000E+20
  9
$PEXTMAX
 10
-1.000000E+20
 20
-1.000000E+20
 30
-1.000000E+20
  9
$PLIMMIN
 10
0.0
 20
0.0
  9
$PLIMMAX
 10
12.0
 20
9.0
  9
$UNITMODE
 70
     0
  9
$VISRETAIN
 70
     0
  9
$PLINEGEN
 70
     1
  9
$PSLTSCALE
 70
     0
  9
$TREEDEPTH
 70
  3020
  9
$PICKSTYLE
 70
     1
  9
$CMLSTYLE
  2
Standard
  9
$CMLJUST
 70
     0
  9
$CMLSCALE
 40
1.0
  9
$PROXYGRAPHICS
 70
     0
  9
$MEASUREMENT
 70
     0
  0
ENDSEC
  0
SECTION
  2
CLASSES
  0
CLASS
  1
LWPOLYLINE
  2
AcDbPolyline
  3
"AutoCAD"
 90
        0
280
     0
281
     1
  0
CLASS
  1
IMAGE
  2
AcDbRasterImage
  3
ISM
 90
      127
280
     0
281
     1
  0
CLASS
  1
OLE2FRAME
  2
AcDbOle2Frame
  3
""
 90
        0
280
     0
281
     1
  0
CLASS
  1
HATCH
  2
AcDbHatch
  3
"ACAD_SEDONA"
 90
        0
280
     0
281
     1
  0
CLASS
  1
DICTIONARYVAR
  2
AcDbDictionaryVar
  3
"AutoCAD"
 90
        0
280
     0
281
     0
  0
CLASS
  1
RASTERVARIABLES
  2
AcDbRasterVariables
  3
ISM
 90
        0
280
     0
281
     0
  0
CLASS
  1
IMAGEDEF
  2
AcDbRasterImageDef
  3
ISM
 90
        0
280
     0
281
     0
  0
CLASS
  1
IMAGEDEF_REACTOR
  2
AcDbRasterImageDefReactor
  3
ISM
 90
        1
280
     0
281
     0
  0
CLASS
  1
IDBUFFER
  2
AcDbIdBuffer
  3
"Acad"
 90
        0
280
     0
281
     0
  0
CLASS
  1
SPATIAL_FILTER
  2
AcDbSpatialFilter
  3
"Acad"
 90
        0
280
     0
281
     0
  0
CLASS
  1
XRECORD
  2
AcDbXrecord
  3
"<Built In>"
 90
        0
280
     0
281
     0
  0
CLASS
  1
SORTENTSTABLE
  2
AcDbSortentsTable
  3
"AutoCAD"
 90
        0
280
     0
281
     0
  0
CLASS
  1
LAYER_INDEX
  2
AcDbLayerIndex
  3
"Acad"
 90
        0
280
     0
281
     0
  0
CLASS
  1
SPATIAL_INDEX
  2
AcDbSpatialIndex
  3
"Acad"
 90
        0
280
     0
281
     0
  0
CLASS
  1
OBJECT_PTR
  2
CAseDLPNTableRecord
  3
"ASE-LPNTableRecord"
 90
        1
280
     0
281
     0
  0
CLASS
  1
LAYOUT
  2
AcDbLayout
  3
"AutoCAD 2000"
 90
        1
280
     0
281
     0
  0
CLASS
  1
PLOTSETTINGS
  2
AcDbPlotSettings
  3
"AutoCAD 2000"
 90
        1
280
     0
281
     0
  0
CLASS
  1
ACDBDICTIONARYWDFLT
  2
AcDbDictionaryWithDefault
  3
"AutoCAD 2000"
 90
        1
280
     0
281
     0
  0
CLASS
  1
ACDBPLACEHOLDER
  2
AcDbPlaceHolder
  3
"AutoCAD 2000"
 90
        1
280
     0
281
     0
  0
CLASS
  1
VBA_PROJECT
  2
AcDbVbaProject
  3
"acadvba"
 90
        1
280
     0
281
     0
  0
CLASS
  1
WIPEOUT
  2
AcDbWipeout
  3
WipeOut|AutoCAD Express Tool|expresstools@autodesk.com
 90
      127
280
     0
281
     1
  0
CLASS
  1
WIPEOUTVARIABLES
  2
AcDbWipeoutVariables
  3
WipeOut|AutoCAD Express Tool|expresstools@autodesk.com
 90
        0
280
     0
281
     0
  0
CLASS
  1
RTEXT
  2
RText
  3
RText|AutoCAD Express Tool|expresstools@autodesk.com
 90
        0
280
     0
281
     1
  0
CLASS
  1
ARCALIGNEDTEXT
  2
AcDbArcAlignedText
  3
ATEXT|AutoCAD Express Tool|expresstools@autodesk.com
 90
        0
280
     0
281
     1
  0
ENDSEC
  0
SECTION
  2
TABLES
  0
TABLE
  2
VPORT
  5
7
100
AcDbSymbolTable
 70
     1
  0
VPORT
  5
15
100
AcDbSymbolTableRecord
100
AcDbViewportTableRecord
  2
*ACTIVE
 70
     0
 10
0.0
 20
0.0
 11
1.0
 21
1.0
 12
196.9
 22
296.0
 13
0.0
 23
0.0
 14
1.0
 24
1.0
 15
0.0
 25
0.0
 16
0.0
 26
0.0
 36
1.0
 17
0.0
 27
0.0
 37
0.0
 40
552.0
 41
1.722533
 42
50.0
 43
0.0
 44
0.0
 50
0.0
 51
0.0
 71
     0
 72
   100
 73
     1
 74
     1
 75
     0
 76
     0
 77
     0
 78
     0
  0
ENDTAB
  0
TABLE
  2
LTYPE
  5
4
100
AcDbSymbolTable
 70
     9
  0
LTYPE
  5
11
100
AcDbSymbolTableRecord
100
AcDbLinetypeTableRecord
  2
BYBLOCK
 70
    64
  3

 72
    65
 73
     0
 40
0.0
  0
LTYPE
  5
12
100
AcDbSymbolTableRecord
100
AcDbLinetypeTableRecord
  2
BYLAYER
 70
    64
  3

 72
    65
 73
     0
 40
0.0
  0
LTYPE
  5
13
100
AcDbSymbolTableRecord
100
AcDbLinetypeTableRecord
  2
CONTINUOUS
 70
    64
  3
実線
 72
    65
 73
     0
 40
0.0
  0
LTYPE
  5
1D
100
AcDbSymbolTableRecord
100
AcDbLinetypeTableRecord
  2
EXLTYPE1
 70
    64
  3
破線
 72
    65
 73
     2
 40
3.0
 49
2.0
 74
     0
 49
-1.0
 74
     0
  0
LTYPE
  5
1E
100
AcDbSymbolTableRecord
100
AcDbLinetypeTableRecord
  2
EXLTYPE2
 70
    64
  3
点線
 72
    65
 73
     2
 40
2.0
 49
1.0
 74
     0
 49
-1.0
 74
     0
  0
LTYPE
  5
1F
100
AcDbSymbolTableRecord
100
AcDbLinetypeTableRecord
  2
EXLTYPE3
 70
    64
  3
一点鎖線
 72
    65
 73
     4
 40
10.0
 49
7.0
 74
     0
 49
-1.0
 74
     0
 49
1.0
 74
     0
 49
-1.0
 74
     0
  0
LTYPE
  5
20
100
AcDbSymbolTableRecord
100
AcDbLinetypeTableRecord
  2
EXLTYPE4
 70
    64
  3
二点鎖線
 72
    65
 73
     6
 40
12.0
 49
7.0
 74
     0
 49
-1.0
 74
     0
 49
1.0
 74
     0
 49
-1.0
 74
     0
 49
1.0
 74
     0
 49
-1.0
 74
     0
  0
LTYPE
  5
21
100
AcDbSymbolTableRecord
100
AcDbLinetypeTableRecord
  2
EXLTYPE5
 70
    64
  3
三点鎖線
 72
    65
 73
     8
 40
37.0
 49
30.0
 74
     0
 49
-1.0
 74
     0
 49
1.0
 74
     0
 49
-1.0
 74
     0
 49
1.0
 74
     0
 49
-1.0
 74
     0
 49
1.0
 74
     0
 49
-1.0
 74
     0
  0
LTYPE
  5
22
100
AcDbSymbolTableRecord
100
AcDbLinetypeTableRecord
  2
EXLTYPE6
 70
    64
  3
四点鎖線
 72
    65
 73
    10
 40
39.0
 49
30.0
 74
     0
 49
-1.0
 74
     0
 49
1.0
 74
     0
 49
-1.0
 74
     0
 49
1.0
 74
     0
 49
-1.0
 74
     0
 49
1.0
 74
     0
 49
-1.0
 74
     0
 49
1.0
 74
     0
 49
-1.0
 74
     0
  0
ENDTAB
  0
TABLE
  2
LAYER
  5
2
100
AcDbSymbolTable
 70
     3
  0
LAYER
  5
14
100
AcDbSymbolTableRecord
100
AcDbLayerTableRecord
  2
0
 70
     0
 62
     7
  6
CONTINUOUS
  0
LAYER
  5
25
100
AcDbSymbolTableRecord
100
AcDbLayerTableRecord
  2
LAY-1
 70
    64
 62
     7
  6
CONTINUOUS
  0
LAYER
  5
26
100
AcDbSymbolTableRecord
100
AcDbLayerTableRecord
  2
LAY-2
 70
    64
 62
     7
  6
CONTINUOUS
  0
ENDTAB
  0
TABLE
  2
STYLE
  5
3
100
AcDbSymbolTable
 70
     5
  0
STYLE
  5
17
100
AcDbSymbolTableRecord
100
AcDbTextStyleTableRecord
  2
STANDARD
 70
     0
 40
0.0
 41
1.0
 50
0.0
 71
     0
 42
0.0
  3
monotxt
  4
extfont
  0
STYLE
  5
23
100
AcDbSymbolTableRecord
100
AcDbTextStyleTableRecord
  2
EXCADSTD
 70
    64
 40
0.0
 41
1.0
 50
0.0
 71
     0
 42
0.2
  3
monotxt
  4
extfont
  0
STYLE
  5
24
100
AcDbSymbolTableRecord
100
AcDbTextStyleTableRecord
  2
EXCADVERT
 70
    68
 40
0.0
 41
1.0
 50
0.0
 71
     0
 42
0.286885
  3
monotxt
  4
extfont
  0
STYLE
  5
CC
100
AcDbSymbolTableRecord
100
AcDbTextStyleTableRecord
  2
EXCADTTF1
 70
    64
 40
0.0
 41
1.0
 50
0.0
 71
     0
 42
0.2
  3
MS Gothic.ttf
  4

1001
ACAD
1000
MS Gothic
1071
    32817
  0
STYLE
  5
160
100
AcDbSymbolTableRecord
100
AcDbTextStyleTableRecord
  2
EXCADDIM1
 70
    64
 40
0.0
 41
0.84
 50
0.0
 71
     0
 42
0.2
  3
monotxt
  4
extfont
  0
ENDTAB
  0
TABLE
  2
VIEW
  5
5
100
AcDbSymbolTable
 70
     0
  0
ENDTAB
  0
TABLE
  2
UCS
  5
6
100
AcDbSymbolTable
 70
     0
  0
ENDTAB
  0
TABLE
  2
APPID
  5
8
100
AcDbSymbolTable
 70
     1
  0
APPID
  5
16
100
AcDbSymbolTableRecord
100
AcDbRegAppTableRecord
  2
ACAD
 70
     0
  0
ENDTAB
  0
TABLE
  2
DIMSTYLE
  5
9
100
AcDbSymbolTable
 70
     1
  0
DIMSTYLE
105
18
100
AcDbSymbolTableRecord
100
AcDbDimStyleTableRecord
  2
STANDARD
 70
     0
  3

  4

  5

  6

  7

 40
1.0
 41
0.18
 42
0.0625
 43
0.38
 44
0.18
 45
0.0
 46
0.0
 47
0.0
 48
0.0
 71
     0
 72
     0
 73
     1
 74
     1
 75
     0
 76
     0
 77
     0
 78
     0
140
0.18
141
0.09
142
0.0
143
25.4
144
1.0
145
0.0
146
1.0
147
0.09
170
     0
171
     2
172
     1
173
     0
174
     0
175
     0
176
     0
177
     0
178
     0
270
     2
271
     4
272
     4
273
     2
274
     2
275
     0
280
     0
281
     0
282
     0
283
     1
284
     0
285
     0
286
     0
287
     0
288
     0
340
17
  0
ENDTAB
  0
TABLE
  2
BLOCK_RECORD
  5
1
100
AcDbSymbolTable
 70
    22
  0
BLOCK_RECORD
  5
A
100
AcDbSymbolTableRecord
100
AcDbBlockTableRecord
  2
*MODEL_SPACE
  0
BLOCK_RECORD
  5
B
100
AcDbSymbolTableRecord
100
AcDbBlockTableRecord
  2
*PAPER_SPACE
  0
BLOCK_RECORD
  5
27
100
AcDbSymbolTableRecord
100
AcDbBlockTableRecord
  2
_EX_NORM
  0
BLOCK_RECORD
  5
28
100
AcDbSymbolTableRecord
100
AcDbBlockTableRecord
  2
_EX_BNORM
  0
BLOCK_RECORD
  5
29
100
AcDbSymbolTableRecord
100
AcDbBlockTableRecord
  2
_EX_BCIR
  0
BLOCK_RECORD
  5
2A
100
AcDbSymbolTableRecord
100
AcDbBlockTableRecord
  2
_EX_RCIVIL
  0
BLOCK_RECORD
  5
2B
100
AcDbSymbolTableRecord
100
AcDbBlockTableRecord
  2
_EX_SLANT
  0
BLOCK_RECORD
  5
2C
100
AcDbSymbolTableRecord
100
AcDbBlockTableRecord
  2
_EX_NONE
  0
BLOCK_RECORD
  5
2D
100
AcDbSymbolTableRecord
100
AcDbBlockTableRecord
  2
_EX_CIVIL
  0
BLOCK_RECORD
  5
2E
100
AcDbSymbolTableRecord
100
AcDbBlockTableRecord
  2
_EX_WCIR
  0
BLOCK_RECORD
  5
2F
100
AcDbSymbolTableRecord
100
AcDbBlockTableRecord
  2
_EX_WCIR2
  0
BLOCK_RECORD
  5
30
100
AcDbSymbolTableRecord
100
AcDbBlockTableRecord
  2
_EX_WNORM
  0
BLOCK_RECORD
  5
31
100
AcDbSymbolTableRecord
100
AcDbBlockTableRecord
  2
_EX_NNORM
  0
BLOCK_RECORD
  5
32
100
AcDbSymbolTableRecord
100
AcDbBlockTableRecord
  2
_EX_BBOX
  0
BLOCK_RECORD
  5
33
100
AcDbSymbolTableRecord
100
AcDbBlockTableRecord
  2
_EX_WBOX
  0
BLOCK_RECORD
  5
34
100
AcDbSymbolTableRecord
100
AcDbBlockTableRecord
  2
_EX_INTEGRAL
  0
BLOCK_RECORD
  5
155
100
AcDbSymbolTableRecord
100
AcDbBlockTableRecord
  2
*D14
  0
BLOCK_RECORD
  5
162
100
AcDbSymbolTableRecord
100
AcDbBlockTableRecord
  2
*D15
  0
BLOCK_RECORD
  5
16E
100
AcDbSymbolTableRecord
100
AcDbBlockTableRecord
  2
*D16
  0
BLOCK_RECORD
  5
17A
100
AcDbSymbolTableRecord
100
AcDbBlockTableRecord
  2
*D17
  0
BLOCK_RECORD
  5
186
100
AcDbSymbolTableRecord
100
AcDbBlockTableRecord
  2
*D18
  0
BLOCK_RECORD
  5
191
100
AcDbSymbolTableRecord
100
AcDbBlockTableRecord
  2
*D19
  0
BLOCK_RECORD
  5
19D
100
AcDbSymbolTableRecord
100
AcDbBlockTableRecord
  2
*D20
  0
BLOCK_RECORD
  5
1B5
100
AcDbSymbolTableRecord
100
AcDbBlockTableRecord
  2
*D21
  0
ENDTAB
  0
ENDSEC
  0
SECTION
  2
BLOCKS
  0
BLOCK
  5
D
100
AcDbEntity
  8
0
100
AcDbBlockBegin
  2
*MODEL_SPACE
 70
     0
 10
0.0
 20
0.0
 30
0.0
  3
*MODEL_SPACE
  1

  0
ENDBLK
  5
E
100
AcDbEntity
  8
0
100
AcDbBlockEnd
  0
BLOCK
  5
F
100
AcDbEntity
 67
     1
  8
0
100
AcDbBlockBegin
  2
*PAPER_SPACE
 70
     0
 10
0.0
 20
0.0
 30
0.0
  3
*PAPER_SPACE
  1

  0
ENDBLK
  5
10
100
AcDbEntity
 67
     1
  8
0
100
AcDbBlockEnd
  0
BLOCK
  5
35
100
AcDbEntity
  8
0
100
AcDbBlockBegin
  2
_EX_NORM
 70
     0
 10
0.0
 20
0.0
 30
0.0
  3
_EX_NORM
  1

  0
LINE
  5
36
100
AcDbEntity
  8
0
  6
CONTINUOUS
 62
     0
100
AcDbLine
 10
0.0
 20
0.0
 30
0.0
 11
-1.0
 21
0.0
 31
0.0
  0
LINE
  5
37
100
AcDbEntity
  8
0
  6
CONTINUOUS
 62
     0
100
AcDbLine
 10
0.0
 20
0.0
 30
0.0
 11
-1.0
 21
0.166667
 31
0.0
  0
LINE
  5
38
100
AcDbEntity
  8
0
  6
CONTINUOUS
 62
     0
100
AcDbLine
 10
0.0
 20
0.0
 30
0.0
 11
-1.0
 21
-0.166667
 31
0.0
  0
ENDBLK
  5
39
100
AcDbEntity
  8
0
100
AcDbBlockEnd
  0
BLOCK
  5
3A
100
AcDbEntity
  8
0
100
AcDbBlockBegin
  2
_EX_BNORM
 70
     0
 10
0.0
 20
0.0
 30
0.0
  3
_EX_BNORM
  1

  0
LINE
  5
3B
100
AcDbEntity
  8
0
  6
CONTINUOUS
 62
     0
100
AcDbLine
 10
0.0
 20
0.0
 30
0.0
 11
-1.0
 21
0.0
 31
0.0
  0
LINE
  5
3C
100
AcDbEntity
  8
0
  6
CONTINUOUS
 62
     0
100
AcDbLine
 10
0.0
 20
0.0
 30
0.0
 11
-1.0
 21
0.166667
 31
0.0
  0
LINE
  5
3D
100
AcDbEntity
  8
0
  6
CONTINUOUS
 62
     0
100
AcDbLine
 10
0.0
 20
0.0
 30
0.0
 11
-1.0
 21
-0.166667
 31
0.0
  0
LINE
  5
3E
100
AcDbEntity
  8
0
  6
CONTINUOUS
 62
     0
100
AcDbLine
 10
0.0
 20
0.0
 30
0.0
 11
-1.0
 21
0.083333
 31
0.0
  0
LINE
  5
3F
100
AcDbEntity
  8
0
  6
CONTINUOUS
 62
     0
100
AcDbLine
 10
0.0
 20
0.0
 30
0.0
 11
-1.0
 21
-0.083333
 31
0.0
  0
LINE
  5
40
100
AcDbEntity
  8
0
  6
CONTINUOUS
 62
     0
100
AcDbLine
 10
-1.0
 20
0.166667
 30
0.0
 11
-1.0
 21
-0.166667
 31
0.0
  0
ENDBLK
  5
41
100
AcDbEntity
  8
0
100
AcDbBlockEnd
  0
BLOCK
  5
42
100
AcDbEntity
  8
0
100
AcDbBlockBegin
  2
_EX_BCIR
 70
     0
 10
0.0
 20
0.0
 30
0.0
  3
_EX_BCIR
  1

  0
LINE
  5
43
100
AcDbEntity
  8
0
  6
CONTINUOUS
 62
     0
100
AcDbLine
 10
0.0
 20
0.0
 30
0.0
 11
-1.0
 21
0.0
 31
0.0
  0
CIRCLE
  5
44
100
AcDbEntity
  8
0
  6
CONTINUOUS
 62
     0
100
AcDbCircle
 10
0.0
 20
0.0
 30
0.0
 40
0.5
  0
CIRCLE
  5
45
100
AcDbEntity
  8
0
  6
CONTINUOUS
 62
     0
100
AcDbCircle
 10
0.0
 20
0.0
 30
0.0
 40
0.25
  0
ENDBLK
  5
46
100
AcDbEntity
  8
0
100
AcDbBlockEnd
  0
BLOCK
  5
47
100
AcDbEntity
  8
0
100
AcDbBlockBegin
  2
_EX_RCIVIL
 70
     0
 10
0.0
 20
0.0
 30
0.0
  3
_EX_RCIVIL
  1

  0
LINE
  5
48
100
AcDbEntity
  8
0
  6
CONTINUOUS
 62
     0
100
AcDbLine
 10
0.0
 20
0.0
 30
0.0
 11
-1.0
 21
0.0
 31
0.0
  0
LINE
  5
49
100
AcDbEntity
  8
0
  6
CONTINUOUS
 62
     0
100
AcDbLine
 10
-1.0
 20
-0.25
 30
0.0
 11
0.0
 21
-0.25
 31
0.0
  0
LINE
  5
4A
100
AcDbEntity
  8
0
  6
CONTINUOUS
 62
     0
100
AcDbLine
 10
-1.0
 20
-0.125
 30
0.0
 11
0.0
 21
-0.125
 31
0.0
  0
ENDBLK
  5
4B
100
AcDbEntity
  8
0
100
AcDbBlockEnd
  0
BLOCK
  5
4C
100
AcDbEntity
  8
0
100
AcDbBlockBegin
  2
_EX_SLANT
 70
     0
 10
0.0
 20
0.0
 30
0.0
  3
_EX_SLANT
  1

  0
LINE
  5
4D
100
AcDbEntity
  8
0
  6
CONTINUOUS
 62
     0
100
AcDbLine
 10
0.0
 20
0.0
 30
0.0
 11
-1.0
 21
0.0
 31
0.0
  0
LINE
  5
4E
100
AcDbEntity
  8
0
  6
CONTINUOUS
 62
     0
100
AcDbLine
 10
0.707107
 20
0.707107
 30
0.0
 11
-0.707107
 21
-0.707107
 31
0.0
  0
ENDBLK
  5
4F
100
AcDbEntity
  8
0
100
AcDbBlockEnd
  0
BLOCK
  5
50
100
AcDbEntity
  8
0
100
AcDbBlockBegin
  2
_EX_NONE
 70
     0
 10
0.0
 20
0.0
 30
0.0
  3
_EX_NONE
  1

  0
LINE
  5
51
100
AcDbEntity
  8
0
  6
CONTINUOUS
 62
     0
100
AcDbLine
 10
0.0
 20
0.0
 30
0.0
 11
-1.0
 21
0.0
 31
0.0
  0
ENDBLK
  5
52
100
AcDbEntity
  8
0
100
AcDbBlockEnd
  0
BLOCK
  5
53
100
AcDbEntity
  8
0
100
AcDbBlockBegin
  2
_EX_CIVIL
 70
     0
 10
0.0
 20
0.0
 30
0.0
  3
_EX_CIVIL
  1

  0
LINE
  5
54
100
AcDbEntity
  8
0
  6
CONTINUOUS
 62
     0
100
AcDbLine
 10
0.0
 20
0.0
 30
0.0
 11
-1.0
 21
0.0
 31
0.0
  0
LINE
  5
55
100
AcDbEntity
  8
0
  6
CONTINUOUS
 62
     0
100
AcDbLine
 10
-1.0
 20
0.25
 30
0.0
 11
0.0
 21
0.25
 31
0.0
  0
LINE
  5
56
100
AcDbEntity
  8
0
  6
CONTINUOUS
 62
     0
100
AcDbLine
 10
-1.0
 20
0.125
 30
0.0
 11
0.0
 21
0.125
 31
0.0
  0
ENDBLK
  5
57
100
AcDbEntity
  8
0
100
AcDbBlockEnd
  0
BLOCK
  5
58
100
AcDbEntity
  8
0
100
AcDbBlockBegin
  2
_EX_WCIR
 70
     0
 10
0.0
 20
0.0
 30
0.0
  3
_EX_WCIR
  1

  0
LINE
  5
59
100
AcDbEntity
  8
0
  6
CONTINUOUS
 62
     0
100
AcDbLine
 10
0.0
 20
0.0
 30
0.0
 11
-1.0
 21
0.0
 31
0.0
  0
CIRCLE
  5
5A
100
AcDbEntity
  8
0
  6
CONTINUOUS
 62
     0
100
AcDbCircle
 10
0.0
 20
0.0
 30
0.0
 40
0.5
  0
ENDBLK
  5
5B
100
AcDbEntity
  8
0
100
AcDbBlockEnd
  0
BLOCK
  5
5C
100
AcDbEntity
  8
0
100
AcDbBlockBegin
  2
_EX_WCIR2
 70
     0
 10
0.0
 20
0.0
 30
0.0
  3
_EX_WCIR2
  1

  0
LINE
  5
5D
100
AcDbEntity
  8
0
  6
CONTINUOUS
 62
     0
100
AcDbLine
 10
-0.5
 20
0.0
 30
0.0
 11
-1.0
 21
0.0
 31
0.0
  0
CIRCLE
  5
5E
100
AcDbEntity
  8
0
  6
CONTINUOUS
 62
     0
100
AcDbCircle
 10
0.0
 20
0.0
 30
0.0
 40
0.5
  0
ENDBLK
  5
5F
100
AcDbEntity
  8
0
100
AcDbBlockEnd
  0
BLOCK
  5
60
100
AcDbEntity
  8
0
100
AcDbBlockBegin
  2
_EX_WNORM
 70
     0
 10
0.0
 20
0.0
 30
0.0
  3
_EX_WNORM
  1

  0
LINE
  5
61
100
AcDbEntity
  8
0
  6
CONTINUOUS
 62
     0
100
AcDbLine
 10
-1.0
 20
0.0
 30
0.0
 11
-1.0
 21
0.0
 31
0.0
  0
LINE
  5
62
100
AcDbEntity
  8
0
  6
CONTINUOUS
 62
     0
100
AcDbLine
 10
0.0
 20
0.0
 30
0.0
 11
-1.0
 21
0.166667
 31
0.0
  0
LINE
  5
63
100
AcDbEntity
  8
0
  6
CONTINUOUS
 62
     0
100
AcDbLine
 10
0.0
 20
0.0
 30
0.0
 11
-1.0
 21
-0.166667
 31
0.0
  0
LINE
  5
64
100
AcDbEntity
  8
0
  6
CONTINUOUS
 62
     0
100
AcDbLine
 10
-1.0
 20
0.166667
 30
0.0
 11
-1.0
 21
-0.166667
 31
0.0
  0
ENDBLK
  5
65
100
AcDbEntity
  8
0
100
AcDbBlockEnd
  0
BLOCK
  5
66
100
AcDbEntity
  8
0
100
AcDbBlockBegin
  2
_EX_NNORM
 70
     0
 10
0.0
 20
0.0
 30
0.0
  3
_EX_NNORM
  1

  0
LINE
  5
67
100
AcDbEntity
  8
0
  6
CONTINUOUS
 62
     0
100
AcDbLine
 10
0.0
 20
0.0
 30
0.0
 11
-1.0
 21
0.0
 31
0.0
  0
LINE
  5
68
100
AcDbEntity
  8
0
  6
CONTINUOUS
 62
     0
100
AcDbLine
 10
0.0
 20
0.0
 30
0.0
 11
-1.0
 21
0.166667
 31
0.0
  0
LINE
  5
69
100
AcDbEntity
  8
0
  6
CONTINUOUS
 62
     0
100
AcDbLine
 10
0.0
 20
0.0
 30
0.0
 11
-1.0
 21
-0.166667
 31
0.0
  0
LINE
  5
6A
100
AcDbEntity
  8
0
  6
CONTINUOUS
 62
     0
100
AcDbLine
 10
-1.0
 20
0.166667
 30
0.0
 11
-1.0
 21
-0.166667
 31
0.0
  0
ENDBLK
  5
6B
100
AcDbEntity
  8
0
100
AcDbBlockEnd
  0
BLOCK
  5
6C
100
AcDbEntity
  8
0
100
AcDbBlockBegin
  2
_EX_BBOX
 70
     0
 10
0.0
 20
0.0
 30
0.0
  3
_EX_BBOX
  1

  0
LINE
  5
6D
100
AcDbEntity
  8
0
  6
CONTINUOUS
 62
     0
100
AcDbLine
 10
0.0
 20
0.0
 30
0.0
 11
-1.0
 21
0.0
 31
0.0
  0
LINE
  5
6E
100
AcDbEntity
  8
0
  6
CONTINUOUS
 62
     0
100
AcDbLine
 10
-0.5
 20
0.5
 30
0.0
 11
0.5
 21
0.5
 31
0.0
  0
LINE
  5
6F
100
AcDbEntity
  8
0
  6
CONTINUOUS
 62
     0
100
AcDbLine
 10
0.5
 20
0.5
 30
0.0
 11
0.5
 21
-0.5
 31
0.0
  0
LINE
  5
70
100
AcDbEntity
  8
0
  6
CONTINUOUS
 62
     0
100
AcDbLine
 10
0.5
 20
-0.5
 30
0.0
 11
-0.5
 21
-0.5
 31
0.0
  0
LINE
  5
71
100
AcDbEntity
  8
0
  6
CONTINUOUS
 62
     0
100
AcDbLine
 10
-0.5
 20
-0.5
 30
0.0
 11
-0.5
 21
0.5
 31
0.0
  0
LINE
  5
72
100
AcDbEntity
  8
0
  6
CONTINUOUS
 62
     0
100
AcDbLine
 10
-0.25
 20
0.25
 30
0.0
 11
0.25
 21
0.25
 31
0.0
  0
LINE
  5
73
100
AcDbEntity
  8
0
  6
CONTINUOUS
 62
     0
100
AcDbLine
 10
0.25
 20
0.25
 30
0.0
 11
0.25
 21
-0.25
 31
0.0
  0
LINE
  5
74
100
AcDbEntity
  8
0
  6
CONTINUOUS
 62
     0
100
AcDbLine
 10
0.25
 20
-0.25
 30
0.0
 11
-0.25
 21
-0.25
 31
0.0
  0
LINE
  5
75
100
AcDbEntity
  8
0
  6
CONTINUOUS
 62
     0
100
AcDbLine
 10
-0.25
 20
-0.25
 30
0.0
 11
-0.25
 21
0.25
 31
0.0
  0
ENDBLK
  5
76
100
AcDbEntity
  8
0
100
AcDbBlockEnd
  0
BLOCK
  5
77
100
AcDbEntity
  8
0
100
AcDbBlockBegin
  2
_EX_WBOX
 70
     0
 10
0.0
 20
0.0
 30
0.0
  3
_EX_WBOX
  1

  0
LINE
  5
78
100
AcDbEntity
  8
0
  6
CONTINUOUS
 62
     0
100
AcDbLine
 10
-0.5
 20
0.0
 30
0.0
 11
-1.0
 21
0.0
 31
0.0
  0
LINE
  5
79
100
AcDbEntity
  8
0
  6
CONTINUOUS
 62
     0
100
AcDbLine
 10
-0.5
 20
0.5
 30
0.0
 11
0.5
 21
0.5
 31
0.0
  0
LINE
  5
7A
100
AcDbEntity
  8
0
  6
CONTINUOUS
 62
     0
100
AcDbLine
 10
0.5
 20
0.5
 30
0.0
 11
0.5
 21
-0.5
 31
0.0
  0
LINE
  5
7B
100
AcDbEntity
  8
0
  6
CONTINUOUS
 62
     0
100
AcDbLine
 10
0.5
 20
-0.5
 30
0.0
 11
-0.5
 21
-0.5
 31
0.0
  0
LINE
  5
7C
100
AcDbEntity
  8
0
  6
CONTINUOUS
 62
     0
100
AcDbLine
 10
-0.5
 20
-0.5
 30
0.0
 11
-0.5
 21
0.5
 31
0.0
  0
ENDBLK
  5
7D
100
AcDbEntity
  8
0
100
AcDbBlockEnd
  0
BLOCK
  5
7E
100
AcDbEntity
  8
0
100
AcDbBlockBegin
  2
_EX_INTEGRAL
 70
     0
 10
0.0
 20
0.0
 30
0.0
  3
_EX_INTEGRAL
  1

  0
LINE
  5
7F
100
AcDbEntity
  8
0
  6
CONTINUOUS
 62
     0
100
AcDbLine
 10
0.0
 20
0.0
 30
0.0
 11
-1.0
 21
0.0
 31
0.0
  0
ARC
  5
80
100
AcDbEntity
  8
0
  6
CONTINUOUS
 62
     0
100
AcDbCircle
 10
0.542115
 20
0.164992
 30
0.0
 40
0.56667
100
AcDbArc
 50
73.07249
 51
196.927513
  0
ARC
  5
81
100
AcDbEntity
  8
0
  6
CONTINUOUS
 62
     0
100
AcDbCircle
 10
-0.542115
 20
-0.164992
 30
0.0
 40
0.56667
100
AcDbArc
 50
253.072487
 51
16.927513
  0
ENDBLK
  5
82
100
AcDbEntity
  8
0
100
AcDbBlockEnd
  0
BLOCK
  5
156
100
AcDbEntity
  8
0
100
AcDbBlockBegin
  2
*D14
 70
    65
 10
0.0
 20
0.0
 30
0.0
  3
*D14
  1

  0
TEXT
  5
157
100
AcDbEntity
  8
LAY-2
  6
CONTINUOUS
 62
     2
100
AcDbText
 10
234.318186
 20
378.962154
 30
0.0
 40
8.0
  1
98
 50
90.0
 41
0.84
  7
EXCADSTD
 72
     1
 11
234.318186
 21
384.842154
 31
0.0
100
AcDbText
  0
LINE
  5
158
100
AcDbEntity
  8
LAY-2
  6
CONTINUOUS
 62
     3
100
AcDbLine
 10
217.318186
 20
433.842154
 30
0.0
 11
238.318186
 21
433.842154
 31
0.0
  0
LINE
  5
159
100
AcDbEntity
  8
LAY-2
  6
CONTINUOUS
 62
     3
100
AcDbLine
 10
203.928826
 20
335.842154
 30
0.0
 11
238.318186
 21
335.842154
 31
0.0
  0
LINE
  5
15A
100
AcDbEntity
  8
LAY-2
  6
CONTINUOUS
 62
     3
100
AcDbLine
 10
236.318186
 20
433.842154
 30
0.0
 11
236.318186
 21
335.842154
 31
0.0
  0
LINE
  5
15B
100
AcDbEntity
  8
LAY-2
  6
CONTINUOUS
 62
     3
100
AcDbLine
 10
237.318186
 20
427.842154
 30
0.0
 11
236.318186
 21
433.842154
 31
0.0
  0
LINE
  5
15C
100
AcDbEntity
  8
LAY-2
  6
CONTINUOUS
 62
     3
100
AcDbLine
 10
236.318186
 20
433.842154
 30
0.0
 11
235.318186
 21
427.842154
 31
0.0
  0
LINE
  5
15D
100
AcDbEntity
  8
LAY-2
  6
CONTINUOUS
 62
     3
100
AcDbLine
 10
235.318186
 20
341.842154
 30
0.0
 11
236.318186
 21
335.842154
 31
0.0
  0
LINE
  5
15E
100
AcDbEntity
  8
LAY-2
  6
CONTINUOUS
 62
     3
100
AcDbLine
 10
236.318186
 20
335.842154
 30
0.0
 11
237.318186
 21
341.842154
 31
0.0
  0
ENDBLK
  5
15F
100
AcDbEntity
  8
0
100
AcDbBlockEnd
  0
BLOCK
  5
163
100
AcDbEntity
  8
0
100
AcDbBlockBegin
  2
*D15
 70
    65
 10
0.0
 20
0.0
 30
0.0
  3
*D15
  1

  0
TEXT
  5
164
100
AcDbEntity
  8
LAY-2
  6
CONTINUOUS
 62
     2
100
AcDbText
 10
234.318186
 20
210.025925
 30
0.0
 40
8.0
  1
84
 50
90.0
 41
0.84
  7
EXCADSTD
 72
     1
 11
234.318186
 21
215.905925
 31
0.0
100
AcDbText
  0
LINE
  5
165
100
AcDbEntity
  8
LAY-2
  6
CONTINUOUS
 62
     3
100
AcDbLine
 10
204.604064
 20
257.905925
 30
0.0
 11
238.318186
 21
257.905925
 31
0.0
  0
LINE
  5
166
100
AcDbEntity
  8
LAY-2
  6
CONTINUOUS
 62
     3
100
AcDbLine
 10
204.604064
 20
173.905925
 30
0.0
 11
238.318186
 21
173.905925
 31
0.0
  0
LINE
  5
167
100
AcDbEntity
  8
LAY-2
  6
CONTINUOUS
 62
     3
100
AcDbLine
 10
236.318186
 20
257.905925
 30
0.0
 11
236.318186
 21
173.905925
 31
0.0
  0
LINE
  5
168
100
AcDbEntity
  8
LAY-2
  6
CONTINUOUS
 62
     3
100
AcDbLine
 10
237.318186
 20
251.905925
 30
0.0
 11
236.318186
 21
257.905925
 31
0.0
  0
LINE
  5
169
100
AcDbEntity
  8
LAY-2
  6
CONTINUOUS
 62
     3
100
AcDbLine
 10
236.318186
 20
257.905925
 30
0.0
 11
235.318186
 21
251.905925
 31
0.0
  0
LINE
  5
16A
100
AcDbEntity
  8
LAY-2
  6
CONTINUOUS
 62
     3
100
AcDbLine
 10
235.318186
 20
179.905925
 30
0.0
 11
236.318186
 21
173.905925
 31
0.0
  0
LINE
  5
16B
100
AcDbEntity
  8
LAY-2
  6
CONTINUOUS
 62
     3
100
AcDbLine
 10
236.318186
 20
173.905925
 30
0.0
 11
237.318186
 21
179.905925
 31
0.0
  0
ENDBLK
  5
16C
100
AcDbEntity
  8
0
100
AcDbBlockEnd
  0
BLOCK
  5
16F
100
AcDbEntity
  8
0
100
AcDbBlockBegin
  2
*D16
 70
    65
 10
0.0
 20
0.0
 30
0.0
  3
*D16
  1

  0
TEXT
  5
170
100
AcDbEntity
  8
LAY-2
  6
CONTINUOUS
 62
     2
100
AcDbText
 10
122.918186
 20
275.905925
 30
0.0
 40
8.0
  1
170
 41
0.84
  7
EXCADSTD
 72
     1
 11
131.318186
 21
275.905925
 31
0.0
100
AcDbText
  0
LINE
  5
171
100
AcDbEntity
  8
LAY-2
  6
CONTINUOUS
 62
     3
100
AcDbLine
 10
46.318186
 20
216.905925
 30
0.0
 11
46.318186
 21
275.905925
 31
0.0
  0
LINE
  5
172
100
AcDbEntity
  8
LAY-2
  6
CONTINUOUS
 62
     3
100
AcDbLine
 10
216.318186
 20
216.905925
 30
0.0
 11
216.318186
 21
275.905925
 31
0.0
  0
LINE
  5
173
100
AcDbEntity
  8
LAY-2
  6
CONTINUOUS
 62
     3
100
AcDbLine
 10
46.318186
 20
273.905925
 30
0.0
 11
216.318186
 21
273.905925
 31
0.0
  0
LINE
  5
174
100
AcDbEntity
  8
LAY-2
  6
CONTINUOUS
 62
     3
100
AcDbLine
 10
52.318186
 20
274.905925
 30
0.0
 11
46.318186
 21
273.905925
 31
0.0
  0
LINE
  5
175
100
AcDbEntity
  8
LAY-2
  6
CONTINUOUS
 62
     3
100
AcDbLine
 10
46.318186
 20
273.905925
 30
0.0
 11
52.318186
 21
272.905925
 31
0.0
  0
LINE
  5
176
100
AcDbEntity
  8
LAY-2
  6
CONTINUOUS
 62
     3
100
AcDbLine
 10
210.318186
 20
272.905925
 30
0.0
 11
216.318186
 21
273.905925
 31
0.0
  0
LINE
  5
177
100
AcDbEntity
  8
LAY-2
  6
CONTINUOUS
 62
     3
100
AcDbLine
 10
216.318186
 20
273.905925
 30
0.0
 11
210.318186
 21
274.905925
 31
0.0
  0
ENDBLK
  5
178
100
AcDbEntity
  8
0
100
AcDbBlockEnd
  0
BLOCK
  5
17B
100
AcDbEntity
  8
0
100
AcDbBlockBegin
  2
*D17
 70
    65
 10
0.0
 20
0.0
 30
0.0
  3
*D17
  1

  0
TEXT
  5
17C
100
AcDbEntity
  8
LAY-2
  6
CONTINUOUS
 62
     2
100
AcDbText
 10
345.11804
 20
210.025925
 30
0.0
 40
8.0
  1
44
 50
90.0
 41
0.84
  7
EXCADSTD
 72
     1
 11
345.11804
 21
215.905925
 31
0.0
100
AcDbText
  0
LINE
  5
17D
100
AcDbEntity
  8
LAY-2
  6
CONTINUOUS
 62
     3
100
AcDbLine
 10
362.11804
 20
237.905925
 30
0.0
 11
345.11804
 21
237.905925
 31
0.0
  0
LINE
  5
17E
100
AcDbEntity
  8
LAY-2
  6
CONTINUOUS
 62
     3
100
AcDbLine
 10
362.11804
 20
193.905925
 30
0.0
 11
345.11804
 21
193.905925
 31
0.0
  0
LINE
  5
17F
100
AcDbEntity
  8
LAY-2
  6
CONTINUOUS
 62
     3
100
AcDbLine
 10
347.11804
 20
237.905925
 30
0.0
 11
347.11804
 21
193.905925
 31
0.0
  0
LINE
  5
180
100
AcDbEntity
  8
LAY-2
  6
CONTINUOUS
 62
     3
100
AcDbLine
 10
348.11804
 20
231.905925
 30
0.0
 11
347.11804
 21
237.905925
 31
0.0
  0
LINE
  5
181
100
AcDbEntity
  8
LAY-2
  6
CONTINUOUS
 62
     3
100
AcDbLine
 10
347.11804
 20
237.905925
 30
0.0
 11
346.11804
 21
231.905925
 31
0.0
  0
LINE
  5
182
100
AcDbEntity
  8
LAY-2
  6
CONTINUOUS
 62
     3
100
AcDbLine
 10
346.11804
 20
199.905925
 30
0.0
 11
347.11804
 21
193.905925
 31
0.0
  0
LINE
  5
183
100
AcDbEntity
  8
LAY-2
  6
CONTINUOUS
 62
     3
100
AcDbLine
 10
347.11804
 20
193.905925
 30
0.0
 11
348.11804
 21
199.905925
 31
0.0
  0
ENDBLK
  5
184
100
AcDbEntity
  8
0
100
AcDbBlockEnd
  0
BLOCK
  5
187
100
AcDbEntity
  8
0
100
AcDbBlockBegin
  2
*D18
 70
    65
 10
0.0
 20
0.0
 30
0.0
  3
*D18
  1

  0
TEXT
  5
188
100
AcDbEntity
  8
LAY-2
  6
CONTINUOUS
 62
     2
100
AcDbText
 10
102.938186
 20
479.842154
 30
0.0
 40
8.0
  1
45
 41
0.84
  7
EXCADSTD
 72
     1
 11
108.818186
 21
479.842154
 31
0.0
100
AcDbText
  0
LINE
  5
189
100
AcDbEntity
  8
LAY-2
  6
CONTINUOUS
 62
     3
100
AcDbLine
 10
86.318186
 20
460.842154
 30
0.0
 11
86.318186
 21
479.842154
 31
0.0
  0
LINE
  5
18A
100
AcDbEntity
  8
LAY-2
  6
CONTINUOUS
 62
     3
100
AcDbLine
 10
86.318186
 20
477.842154
 30
0.0
 11
131.318186
 21
477.842154
 31
0.0
  0
LINE
  5
18B
100
AcDbEntity
  8
LAY-2
  6
CONTINUOUS
 62
     3
100
AcDbLine
 10
92.318186
 20
478.842154
 30
0.0
 11
86.318186
 21
477.842154
 31
0.0
  0
LINE
  5
18C
100
AcDbEntity
  8
LAY-2
  6
CONTINUOUS
 62
     3
100
AcDbLine
 10
86.318186
 20
477.842154
 30
0.0
 11
92.318186
 21
476.842154
 31
0.0
  0
LINE
  5
18D
100
AcDbEntity
  8
LAY-2
  6
CONTINUOUS
 62
     3
100
AcDbLine
 10
125.318186
 20
476.842154
 30
0.0
 11
131.318186
 21
477.842154
 31
0.0
  0
LINE
  5
18E
100
AcDbEntity
  8
LAY-2
  6
CONTINUOUS
 62
     3
100
AcDbLine
 10
131.318186
 20
477.842154
 30
0.0
 11
125.318186
 21
478.842154
 31
0.0
  0
ENDBLK
  5
18F
100
AcDbEntity
  8
0
100
AcDbBlockEnd
  0
BLOCK
  5
192
100
AcDbEntity
  8
0
100
AcDbBlockBegin
  2
*D19
 70
    65
 10
0.0
 20
0.0
 30
0.0
  3
*D19
  1

  0
TEXT
  5
193
100
AcDbEntity
  8
LAY-2
  6
CONTINUOUS
 62
     2
100
AcDbText
 10
150.438186
 20
479.842154
 30
0.0
 40
8.0
  1
50
 41
0.84
  7
EXCADSTD
 72
     1
 11
156.318186
 21
479.842154
 31
0.0
100
AcDbText
  0
LINE
  5
194
100
AcDbEntity
  8
LAY-2
  6
CONTINUOUS
 62
     3
100
AcDbLine
 10
131.318186
 20
460.842154
 30
0.0
 11
131.318186
 21
479.842154
 31
0.0
  0
LINE
  5
195
100
AcDbEntity
  8
LAY-2
  6
CONTINUOUS
 62
     3
100
AcDbLine
 10
181.318186
 20
460.842154
 30
0.0
 11
181.318186
 21
479.842154
 31
0.0
  0
LINE
  5
196
100
AcDbEntity
  8
LAY-2
  6
CONTINUOUS
 62
     3
100
AcDbLine
 10
131.318186
 20
477.842154
 30
0.0
 11
181.318186
 21
477.842154
 31
0.0
  0
LINE
  5
197
100
AcDbEntity
  8
LAY-2
  6
CONTINUOUS
 62
     3
100
AcDbLine
 10
137.318186
 20
478.842154
 30
0.0
 11
131.318186
 21
477.842154
 31
0.0
  0
LINE
  5
198
100
AcDbEntity
  8
LAY-2
  6
CONTINUOUS
 62
     3
100
AcDbLine
 10
131.318186
 20
477.842154
 30
0.0
 11
137.318186
 21
476.842154
 31
0.0
  0
LINE
  5
199
100
AcDbEntity
  8
LAY-2
  6
CONTINUOUS
 62
     3
100
AcDbLine
 10
175.318186
 20
476.842154
 30
0.0
 11
181.318186
 21
477.842154
 31
0.0
  0
LINE
  5
19A
100
AcDbEntity
  8
LAY-2
  6
CONTINUOUS
 62
     3
100
AcDbLine
 10
181.318186
 20
477.842154
 30
0.0
 11
175.318186
 21
478.842154
 31
0.0
  0
ENDBLK
  5
19B
100
AcDbEntity
  8
0
100
AcDbBlockEnd
  0
BLOCK
  5
19E
100
AcDbEntity
  8
0
100
AcDbBlockBegin
  2
*D20
 70
    65
 10
0.0
 20
0.0
 30
0.0
  3
*D20
  1

  0
TEXT
  5
19F
100
AcDbEntity
  8
LAY-2
  6
CONTINUOUS
 62
     2
100
AcDbText
 10
165.438186
 20
247.605925
 30
0.0
 40
8.0
  1
20
 41
0.84
  7
EXCADSTD
 72
     1
 11
171.318186
 21
247.605925
 31
0.0
100
AcDbText
  0
LINE
  5
1A0
100
AcDbEntity
  8
LAY-2
  6
CONTINUOUS
 62
     3
100
AcDbLine
 10
161.318186
 20
243.605925
 30
0.0
 11
161.318186
 21
247.605925
 31
0.0
  0
LINE
  5
1A1
100
AcDbEntity
  8
LAY-2
  6
CONTINUOUS
 62
     3
100
AcDbLine
 10
181.318186
 20
243.605925
 30
0.0
 11
181.318186
 21
247.605925
 31
0.0
  0
LINE
  5
1A2
100
AcDbEntity
  8
LAY-2
  6
CONTINUOUS
 62
     3
100
AcDbLine
 10
161.318186
 20
245.605925
 30
0.0
 11
181.318186
 21
245.605925
 31
0.0
  0
LINE
  5
1A3
100
AcDbEntity
  8
LAY-2
  6
CONTINUOUS
 62
     3
100
AcDbLine
 10
167.318186
 20
246.605925
 30
0.0
 11
161.318186
 21
245.605925
 31
0.0
  0
LINE
  5
1A4
100
AcDbEntity
  8
LAY-2
  6
CONTINUOUS
 62
     3
100
AcDbLine
 10
161.318186
 20
245.605925
 30
0.0
 11
167.318186
 21
244.605925
 31
0.0
  0
LINE
  5
1A5
100
AcDbEntity
  8
LAY-2
  6
CONTINUOUS
 62
     3
100
AcDbLine
 10
175.318186
 20
244.605925
 30
0.0
 11
181.318186
 21
245.605925
 31
0.0
  0
LINE
  5
1A6
100
AcDbEntity
  8
LAY-2
  6
CONTINUOUS
 62
     3
100
AcDbLine
 10
181.318186
 20
245.605925
 30
0.0
 11
175.318186
 21
246.605925
 31
0.0
  0
ENDBLK
  5
1A7
100
AcDbEntity
  8
0
100
AcDbBlockEnd
  0
BLOCK
  5
1B6
100
AcDbEntity
  8
0
100
AcDbBlockBegin
  2
*D21
 70
    65
 10
0.0
 20
0.0
 30
0.0
  3
*D21
  1

  0
TEXT
  5
1B7
100
AcDbEntity
  8
LAY-2
  6
CONTINUOUS
 62
     2
100
AcDbText
 10
116.618186
 20
178.025925
 30
0.0
 40
8.0
  1
20
 50
90.0
 41
0.84
  7
EXCADSTD
 72
     1
 11
116.618186
 21
183.905925
 31
0.0
100
AcDbText
  0
LINE
  5
1B8
100
AcDbEntity
  8
LAY-2
  6
CONTINUOUS
 62
     3
100
AcDbLine
 10
125.618186
 20
193.905925
 30
0.0
 11
116.618186
 21
193.905925
 31
0.0
  0
LINE
  5
1B9
100
AcDbEntity
  8
LAY-2
  6
CONTINUOUS
 62
     3
100
AcDbLine
 10
118.618186
 20
193.905925
 30
0.0
 11
118.618186
 21
173.905925
 31
0.0
  0
LINE
  5
1BA
100
AcDbEntity
  8
LAY-2
  6
CONTINUOUS
 62
     3
100
AcDbLine
 10
119.618186
 20
187.905925
 30
0.0
 11
118.618186
 21
193.905925
 31
0.0
  0
LINE
  5
1BB
100
AcDbEntity
  8
LAY-2
  6
CONTINUOUS
 62
     3
100
AcDbLine
 10
118.618186
 20
193.905925
 30
0.0
 11
117.618186
 21
187.905925
 31
0.0
  0
LINE
  5
1BC
100
AcDbEntity
  8
LAY-2
  6
CONTINUOUS
 62
     3
100
AcDbLine
 10
117.618186
 20
179.905925
 30
0.0
 11
118.618186
 21
173.905925
 31
0.0
  0
LINE
  5
1BD
100
AcDbEntity
  8
LAY-2
  6
CONTINUOUS
 62
     3
100
AcDbLine
 10
118.618186
 20
173.905925
 30
0.0
 11
119.618186
 21
179.905925
 31
0.0
  0
ENDBLK
  5
1BE
100
AcDbEntity
  8
0
100
AcDbBlockEnd
  0
ENDSEC
  0
SECTION
  2
ENTITIES
  0
LEADER
  5
83
100
AcDbEntity
  8
LAY-1
  6
CONTINUOUS
 62
     6
100
AcDbLeader
  3
STANDARD
 73
     3
 74
     1
 75
     0
 40
0.0
 76
     3
 10
182.818186
 20
445.031494
 30
0.0
 10
198.66
 20
461.031494
 30
0.0
 10
227.2
 20
461.031494
 30
0.0
 77
     6
1001
ACAD
1000
DSTYLE
1002
{
1070
    41
1040
6.0
1070
     5
1000
_EX_NORM
1070
     6
1000
_EX_NORM
1070
     7
1000
_EX_NORM
1070
   341
1005
27
1002
}
  0
TEXT
  5
84
100
AcDbEntity
  8
LAY-1
  6
CONTINUOUS
 62
     2
100
AcDbText
 10
199.2
 20
463.031494
 30
0.0
 40
8.0
  1
４×３０
 41
0.6825
  7
EXCADSTD
 72
     5
 11
225.2
 21
463.031494
 31
0.0
100
AcDbText
  0
LINE
  5
85
100
AcDbEntity
  8
LAY-1
  6
CONTINUOUS
 62
     7
100
AcDbLine
 10
40.0
 20
20.0
 30
0.0
 11
396.0
 21
20.0
 31
0.0
  0
LINE
  5
86
100
AcDbEntity
  8
LAY-1
  6
CONTINUOUS
 62
     7
100
AcDbLine
 10
396.0
 20
572.0
 30
0.0
 11
396.0
 21
20.0
 31
0.0
  0
LINE
  5
87
100
AcDbEntity
  8
LAY-1
  6
CONTINUOUS
 62
     7
100
AcDbLine
 10
396.0
 20
572.0
 30
0.0
 11
40.0
 21
572.0
 31
0.0
  0
LINE
  5
88
100
AcDbEntity
  8
LAY-1
  6
CONTINUOUS
 62
     7
100
AcDbLine
 10
40.0
 20
572.0
 30
0.0
 11
40.0
 21
20.0
 31
0.0
  0
LINE
  5
89
100
AcDbEntity
  8
LAY-1
  6
CONTINUOUS
 62
     7
100
AcDbLine
 10
396.0
 20
64.0
 30
0.0
 11
40.0
 21
64.0
 31
0.0
  0
TEXT
  5
8A
100
AcDbEntity
  8
LAY-1
  6
CONTINUOUS
 62
     2
100
AcDbText
 10
45.0
 20
55.2
 30
0.0
 40
7.6
  1
設計
 41
1.105263
  7
EXCADSTD
 72
     5
 11
63.332
 21
55.2
 31
0.0
100
AcDbText
  0
TEXT
  5
8B
100
AcDbEntity
  8
LAY-1
  6
CONTINUOUS
 62
     2
100
AcDbText
 10
75.0
 20
55.2
 30
0.0
 40
7.6
  1
製図
 41
1.105263
  7
EXCADSTD
 72
     5
 11
93.332
 21
55.2
 31
0.0
100
AcDbText
  0
TEXT
  5
8C
100
AcDbEntity
  8
LAY-1
  6
CONTINUOUS
 62
     2
100
AcDbText
 10
103.0
 20
55.2
 30
0.0
 40
7.6
  1
検図
 41
1.105263
  7
EXCADSTD
 72
     5
 11
121.332
 21
55.2
 31
0.0
100
AcDbText
  0
CIRCLE
  5
8D
100
AcDbEntity
  8
LAY-1
  6
CONTINUOUS
 62
     7
100
AcDbCircle
 10
50.0
 20
24.8
 30
0.0
 40
0.3
  0
CIRCLE
  5
8E
100
AcDbEntity
  8
LAY-1
  6
CONTINUOUS
 62
     7
100
AcDbCircle
 10
60.0
 20
24.8
 30
0.0
 40
0.3
  0
CIRCLE
  5
8F
100
AcDbEntity
  8
LAY-1
  6
CONTINUOUS
 62
     7
100
AcDbCircle
 10
80.0
 20
24.8
 30
0.0
 40
0.3
  0
CIRCLE
  5
90
100
AcDbEntity
  8
LAY-1
  6
CONTINUOUS
 62
     7
100
AcDbCircle
 10
90.0
 20
24.8
 30
0.0
 40
0.3
  0
TEXT
  5
91
100
AcDbEntity
  8
LAY-1
  6
CONTINUOUS
 62
     2
100
AcDbText
 10
129.0
 20
55.2
 30
0.0
 40
7.6
  1
承認
 41
1.105263
  7
EXCADSTD
 72
     5
 11
147.332
 21
55.2
 31
0.0
100
AcDbText
  0
TEXT
  5
92
100
AcDbEntity
  8
LAY-1
  6
CONTINUOUS
 62
     2
100
AcDbText
 10
157.0
 20
61.6
 30
0.0
 40
7.6
  1
品名
 41
1.052632
  7
EXCADVERT
 72
     3
 11
157.0
 21
42.4
 31
0.0
100
AcDbText
  0
TEXT
  5
93
100
AcDbEntity
  8
LAY-1
  6
CONTINUOUS
 62
     2
100
AcDbText
 10
382.758519
 20
41.74
 30
0.0
 40
8.0
  1
２
 41
1.05
  7
EXCADSTD
 72
     5
 11
390.758519
 21
41.74
 31
0.0
100
AcDbText
  0
TEXT
  5
94
100
AcDbEntity
  8
LAY-1
  6
CONTINUOUS
 62
     2
100
AcDbText
 10
285.0
 20
38.6
 30
0.0
 40
7.6
  1
図番
 41
1.052632
  7
EXCADVERT
 72
     3
 11
285.0
 21
21.4
 31
0.0
100
AcDbText
  0
TEXT
  5
95
100
AcDbEntity
  8
LAY-1
  6
CONTINUOUS
 62
     2
100
AcDbText
 10
369.0
 20
61.6
 30
0.0
 40
7.6
  1
尺度
 41
1.052632
  7
EXCADVERT
 72
     3
 11
369.0
 21
42.4
 31
0.0
100
AcDbText
  0
TEXT
  5
96
100
AcDbEntity
  8
LAY-1
  6
CONTINUOUS
 62
     2
100
AcDbText
 10
285.0
 20
61.6
 30
0.0
 40
7.6
  1
品番
 41
1.052632
  7
EXCADVERT
 72
     3
 11
285.0
 21
42.4
 31
0.0
100
AcDbText
  0
TEXT
  5
97
100
AcDbEntity
  8
LAY-1
  6
CONTINUOUS
 62
     2
100
AcDbText
 10
374.538519
 20
53.98
 30
0.0
 40
8.0
  1
１
 41
1.05
  7
EXCADSTD
 72
     5
 11
382.538519
 21
53.98
 31
0.0
100
AcDbText
  0
TEXT
  5
98
100
AcDbEntity
  8
LAY-1
  6
CONTINUOUS
 62
     7
100
AcDbText
 10
165.1
 20
46.6
 30
0.0
 40
11.0
  1
樹脂製ワンタッチ式紙巻器
 41
0.693636
  7
EXCADSTD
 72
     5
 11
274.1
 21
46.6
 31
0.0
100
AcDbText
  0
TEXT
  5
99
100
AcDbEntity
  8
LAY-1
  6
CONTINUOUS
 62
     2
100
AcDbText
 10
170.6
 20
563.2
 30
0.0
 40
7.6
  1
番号
 41
0.994737
  7
EXCADSTD
 72
     5
 11
187.0988
 21
563.2
 31
0.0
100
AcDbText
  0
TEXT
  5
9A
100
AcDbEntity
  8
LAY-1
  6
CONTINUOUS
 62
     2
100
AcDbText
 10
202.6
 20
563.2
 30
0.0
 40
7.6
  1
品名
 41
1.989474
  7
EXCADSTD
 72
     5
 11
235.5976
 21
563.2
 31
0.0
100
AcDbText
  0
TEXT
  5
9B
100
AcDbEntity
  8
LAY-1
  6
CONTINUOUS
 62
     2
100
AcDbText
 10
262.6
 20
563.2
 30
0.0
 40
7.6
  1
材質
 41
1.989474
  7
EXCADSTD
 72
     5
 11
295.5976
 21
563.2
 31
0.0
100
AcDbText
  0
TEXT
  5
9C
100
AcDbEntity
  8
LAY-1
  6
CONTINUOUS
 62
     2
100
AcDbText
 10
312.6
 20
563.2
 30
0.0
 40
7.6
  1
個数
 41
0.994737
  7
EXCADSTD
 72
     5
 11
329.0988
 21
563.2
 31
0.0
100
AcDbText
  0
TEXT
  5
9D
100
AcDbEntity
  8
LAY-1
  6
CONTINUOUS
 62
     2
100
AcDbText
 10
344.6
 20
563.2
 30
0.0
 40
7.6
  1
備考
 41
1.989474
  7
EXCADSTD
 72
     5
 11
377.5976
 21
563.2
 31
0.0
100
AcDbText
  0
TEXT
  5
9E
100
AcDbEntity
  8
LAY-1
  6
CONTINUOUS
 62
     2
100
AcDbText
 10
175.6
 20
553.2
 30
0.0
 40
7.6
  1
１
 41
0.884211
  7
EXCADSTD
 72
     5
 11
182.0
 21
553.2
 31
0.0
100
AcDbText
  0
TEXT
  5
9F
100
AcDbEntity
  8
LAY-1
  6
CONTINUOUS
 62
     2
100
AcDbText
 10
193.4
 20
553.2
 30
0.0
 40
7.6
  1
本体
 41
0.884211
  7
EXCADSTD
 72
     5
 11
208.0656
 21
553.2
 31
0.0
100
AcDbText
  0
TEXT
  5
A0
100
AcDbEntity
  8
LAY-1
  6
CONTINUOUS
 62
     2
100
AcDbText
 10
253.4
 20
553.2
 30
0.0
 40
7.6
  1
合成樹脂
 41
0.884211
  7
EXCADSTD
 72
     5
 11
285.4
 21
553.2
 31
0.0
100
AcDbText
  0
TEXT
  5
A1
100
AcDbEntity
  8
LAY-1
  6
CONTINUOUS
 62
     2
100
AcDbText
 10
317.6
 20
553.2
 30
0.0
 40
7.6
  1
１
 41
0.884211
  7
EXCADSTD
 72
     5
 11
324.0
 21
553.2
 31
0.0
100
AcDbText
  0
TEXT
  5
A2
100
AcDbEntity
  8
LAY-1
  6
CONTINUOUS
 62
     2
100
AcDbText
 10
175.6
 20
543.2
 30
0.0
 40
7.6
  1
２
 41
0.884211
  7
EXCADSTD
 72
     5
 11
182.0
 21
543.2
 31
0.0
100
AcDbText
  0
TEXT
  5
A3
100
AcDbEntity
  8
LAY-1
  6
CONTINUOUS
 62
     2
100
AcDbText
 10
193.4
 20
543.2
 30
0.0
 40
7.6
  1
軸
 41
0.884211
  7
EXCADSTD
 72
     5
 11
199.8
 21
543.2
 31
0.0
100
AcDbText
  0
TEXT
  5
A4
100
AcDbEntity
  8
LAY-1
  6
CONTINUOUS
 62
     2
100
AcDbText
 10
317.6
 20
543.2
 30
0.0
 40
7.6
  1
２
 41
0.884211
  7
EXCADSTD
 72
     5
 11
324.0
 21
543.2
 31
0.0
100
AcDbText
  0
TEXT
  5
A5
100
AcDbEntity
  8
LAY-1
  6
CONTINUOUS
 62
     2
100
AcDbText
 10
175.6
 20
533.2
 30
0.0
 40
7.6
  1
３
 41
0.884211
  7
EXCADSTD
 72
     5
 11
182.0
 21
533.2
 31
0.0
100
AcDbText
  0
TEXT
  5
A6
100
AcDbEntity
  8
LAY-1
  6
CONTINUOUS
 62
     2
100
AcDbText
 10
193.4
 20
533.2
 30
0.0
 40
7.6
  1
紙切板
 41
0.884211
  7
EXCADSTD
 72
     5
 11
217.4
 21
533.2
 31
0.0
100
AcDbText
  0
TEXT
  5
A7
100
AcDbEntity
  8
LAY-1
  6
CONTINUOUS
 62
     2
100
AcDbText
 10
317.6
 20
533.2
 30
0.0
 40
7.6
  1
１
 41
0.884211
  7
EXCADSTD
 72
     5
 11
324.0
 21
533.2
 31
0.0
100
AcDbText
  0
TEXT
  5
A8
100
AcDbEntity
  8
LAY-1
  6
CONTINUOUS
 62
     2
100
AcDbText
 10
175.6
 20
523.2
 30
0.0
 40
7.6
  1
４
 41
0.884211
  7
EXCADSTD
 72
     5
 11
182.0
 21
523.2
 31
0.0
100
AcDbText
  0
TEXT
  5
A9
100
AcDbEntity
  8
LAY-1
  6
CONTINUOUS
 62
     2
100
AcDbText
 10
193.4
 20
523.2
 30
0.0
 40
7.6
  1
タッピンネジ
 41
0.884211
  7
EXCADSTD
 72
     5
 11
241.4
 21
523.2
 31
0.0
100
AcDbText
  0
TEXT
  5
AA
100
AcDbEntity
  8
LAY-1
  6
CONTINUOUS
 62
     2
100
AcDbText
 10
317.6
 20
523.2
 30
0.0
 40
7.6
  1
３
 41
0.884211
  7
EXCADSTD
 72
     5
 11
324.0
 21
523.2
 31
0.0
100
AcDbText
  0
TEXT
  5
AB
100
AcDbEntity
  8
LAY-1
  6
CONTINUOUS
 62
     2
100
AcDbText
 10
253.4
 20
523.2
 30
0.0
 40
7.6
  1
ステンレス
 41
0.884211
  7
EXCADSTD
 72
     5
 11
293.4
 21
523.2
 31
0.0
100
AcDbText
  0
TEXT
  5
AC
100
AcDbEntity
  8
LAY-1
  6
CONTINUOUS
 62
     2
100
AcDbText
 10
253.4
 20
543.2
 30
0.0
 40
7.6
  1
合成樹脂
 41
0.884211
  7
EXCADSTD
 72
     5
 11
285.4
 21
543.2
 31
0.0
100
AcDbText
  0
TEXT
  5
AD
100
AcDbEntity
  8
LAY-1
  6
CONTINUOUS
 62
     2
100
AcDbText
 10
253.4
 20
533.2
 30
0.0
 40
7.6
  1
合成樹脂
 41
0.884211
  7
EXCADSTD
 72
     5
 11
285.4
 21
533.2
 31
0.0
100
AcDbText
  0
TEXT
  5
AE
100
AcDbEntity
  8
LAY-1
  6
CONTINUOUS
 62
     2
100
AcDbText
 10
335.4
 20
523.2
 30
0.0
 40
7.6
  1
トラス
 41
0.692632
  7
EXCADSTD
 72
     5
 11
354.2
 21
523.2
 31
0.0
100
AcDbText
  0
LINE
  5
AF
100
AcDbEntity
  8
LAY-1
  6
CONTINUOUS
 62
     6
100
AcDbLine
 10
152.0
 20
54.0
 30
0.0
 11
40.0
 21
54.0
 31
0.0
  0
LINE
  5
B0
100
AcDbEntity
  8
LAY-1
  6
CONTINUOUS
 62
     6
100
AcDbLine
 10
70.0
 20
20.0
 30
0.0
 11
70.0
 21
64.0
 31
0.0
  0
LINE
  5
B1
100
AcDbEntity
  8
LAY-1
  6
CONTINUOUS
 62
     6
100
AcDbLine
 10
100.0
 20
20.0
 30
0.0
 11
100.0
 21
64.0
 31
0.0
  0
LINE
  5
B2
100
AcDbEntity
  8
LAY-1
  6
CONTINUOUS
 62
     6
100
AcDbLine
 10
126.0
 20
20.0
 30
0.0
 11
126.0
 21
64.0
 31
0.0
  0
LINE
  5
B3
100
AcDbEntity
  8
LAY-1
  6
CONTINUOUS
 62
     6
100
AcDbLine
 10
152.0
 20
20.0
 30
0.0
 11
152.0
 21
64.0
 31
0.0
  0
LINE
  5
B4
100
AcDbEntity
  8
LAY-1
  6
CONTINUOUS
 62
     6
100
AcDbLine
 10
152.0
 20
40.0
 30
0.0
 11
396.0
 21
40.0
 31
0.0
  0
LINE
  5
B5
100
AcDbEntity
  8
LAY-1
  6
CONTINUOUS
 62
     6
100
AcDbLine
 10
364.0
 20
40.0
 30
0.0
 11
364.0
 21
64.0
 31
0.0
  0
LINE
  5
B6
100
AcDbEntity
  8
LAY-1
  6
CONTINUOUS
 62
     6
100
AcDbLine
 10
162.0
 20
40.0
 30
0.0
 11
162.0
 21
64.0
 31
0.0
  0
LINE
  5
B7
100
AcDbEntity
  8
LAY-1
  6
EXLTYPE2
 62
     6
100
AcDbLine
 10
40.0
 20
30.0
 30
0.0
 11
152.0
 21
30.0
 31
0.0
  0
LINE
  5
B8
100
AcDbEntity
  8
LAY-1
  6
CONTINUOUS
 62
     6
100
AcDbLine
 10
393.8
 20
59.625
 30
0.0
 11
376.2
 21
44.775
 31
0.0
  0
LINE
  5
B9
100
AcDbEntity
  8
LAY-1
  6
CONTINUOUS
 62
     6
100
AcDbLine
 10
280.0
 20
64.0
 30
0.0
 11
280.0
 21
20.0
 31
0.0
  0
LINE
  5
BA
100
AcDbEntity
  8
LAY-1
  6
CONTINUOUS
 62
     6
100
AcDbLine
 10
290.0
 20
20.0
 30
0.0
 11
290.0
 21
64.0
 31
0.0
  0
LINE
  5
BB
100
AcDbEntity
  8
LAY-1
  6
CONTINUOUS
 62
     6
100
AcDbLine
 10
374.0
 20
64.0
 30
0.0
 11
374.0
 21
40.0
 31
0.0
  0
LINE
  5
BC
100
AcDbEntity
  8
LAY-1
  6
CONTINUOUS
 62
     6
100
AcDbLine
 10
332.6
 20
572.0
 30
0.0
 11
332.6
 21
522.0
 31
0.0
  0
LINE
  5
BD
100
AcDbEntity
  8
LAY-1
  6
CONTINUOUS
 62
     6
100
AcDbLine
 10
310.6
 20
572.0
 30
0.0
 11
310.6
 21
522.0
 31
0.0
  0
LINE
  5
BE
100
AcDbEntity
  8
LAY-1
  6
CONTINUOUS
 62
     6
100
AcDbLine
 10
250.6
 20
572.0
 30
0.0
 11
250.6
 21
522.0
 31
0.0
  0
LINE
  5
BF
100
AcDbEntity
  8
LAY-1
  6
CONTINUOUS
 62
     6
100
AcDbLine
 10
190.6
 20
572.0
 30
0.0
 11
190.6
 21
522.0
 31
0.0
  0
LINE
  5
C0
100
AcDbEntity
  8
LAY-1
  6
CONTINUOUS
 62
     6
100
AcDbLine
 10
168.6
 20
572.0
 30
0.0
 11
168.6
 21
522.0
 31
0.0
  0
LINE
  5
C1
100
AcDbEntity
  8
LAY-1
  6
CONTINUOUS
 62
     6
100
AcDbLine
 10
168.6
 20
562.0
 30
0.0
 11
396.0
 21
562.0
 31
0.0
  0
LINE
  5
C2
100
AcDbEntity
  8
LAY-1
  6
CONTINUOUS
 62
     6
100
AcDbLine
 10
168.6
 20
552.0
 30
0.0
 11
396.0
 21
552.0
 31
0.0
  0
LINE
  5
C3
100
AcDbEntity
  8
LAY-1
  6
CONTINUOUS
 62
     6
100
AcDbLine
 10
168.6
 20
542.0
 30
0.0
 11
396.0
 21
542.0
 31
0.0
  0
LINE
  5
C4
100
AcDbEntity
  8
LAY-1
  6
CONTINUOUS
 62
     6
100
AcDbLine
 10
168.6
 20
532.0
 30
0.0
 11
396.0
 21
532.0
 31
0.0
  0
LINE
  5
C5
100
AcDbEntity
  8
LAY-1
  6
CONTINUOUS
 62
     6
100
AcDbLine
 10
168.6
 20
522.0
 30
0.0
 11
396.0
 21
522.0
 31
0.0
  0
TEXT
  5
C6
100
AcDbEntity
  8
LAY-1
  6
CONTINUOUS
 62
     7
100
AcDbText
 10
300.0
 20
23.5
 30
0.0
 40
13.0
  1
２５３６００
 41
0.926154
  7
EXCADSTD
 72
     5
 11
386.0
 21
23.5
 31
0.0
100
AcDbText
  0
TEXT
  5
C7
100
AcDbEntity
  8
LAY-1
  6
CONTINUOUS
 62
     6
100
AcDbText
 10
74.5
 20
37.0
 30
0.0
 40
10.0
  1
間瀬
 41
0.8568
  7
EXCADSTD
 72
     5
 11
93.19864
 21
37.0
 31
0.0
100
AcDbText
  0
TEXT
  5
C8
100
AcDbEntity
  8
LAY-1
  6
CONTINUOUS
 62
     6
100
AcDbText
 10
129.1
 20
37.0
 30
0.0
 40
10.0
  1
古林
 41
0.8568
  7
EXCADSTD
 72
     5
 11
147.79864
 21
37.0
 31
0.0
100
AcDbText
  0
TEXT
  5
C9
100
AcDbEntity
  8
LAY-1
  6
CONTINUOUS
 62
     2
100
AcDbText
 10
68.5
 20
21.8
 30
0.0
 40
6.0
  1
２０
 41
0.91
  7
EXCADSTD
 72
     5
 11
80.4158
 21
21.8
 31
0.0
100
AcDbText
  0
TEXT
  5
CA
100
AcDbEntity
  8
LAY-1
  6
CONTINUOUS
 62
     2
100
AcDbText
 10
81.0
 20
21.8
 30
0.0
 40
6.0
  1
５
 41
1.12
  7
EXCADSTD
 72
     5
 11
87.4
 21
21.8
 31
0.0
100
AcDbText
  0
TEXT
  5
CB
100
AcDbEntity
  8
LAY-1
  6
CONTINUOUS
 62
     2
100
AcDbText
 10
88.5
 20
21.8
 30
0.0
 40
6.0
  1
２０
 41
0.91
  7
EXCADSTD
 72
     5
 11
100.4158
 21
21.8
 31
0.0
100
AcDbText
  0
TEXT
  5
CD
100
AcDbEntity
  8
LAY-1
  6
CONTINUOUS
 62
     2
100
AcDbText
 10
156.0
 20
24.0
 30
0.0
 40
9.0
  1
ジャニス工業株式会社
  7
EXCADTTF1
 72
     5
 11
276.0
 21
24.0
 31
0.0
100
AcDbText
  0
TEXT
  5
CE
100
AcDbEntity
  8
LAY-1
  6
CONTINUOUS
 62
     2
100
AcDbText
 10
335.4
 20
553.2
 30
0.0
 40
7.6
  1
カラー対応
 41
0.663158
  7
EXCADSTD
 72
     5
 11
365.4
 21
553.2
 31
0.0
100
AcDbText
  0
TEXT
  5
CF
100
AcDbEntity
  8
LAY-1
  6
CONTINUOUS
 62
     2
100
AcDbText
 10
335.4
 20
543.2
 30
0.0
 40
7.6
  1
カラー対応
 41
0.663158
  7
EXCADSTD
 72
     5
 11
365.4
 21
543.2
 31
0.0
100
AcDbText
  0
TEXT
  5
D0
100
AcDbEntity
  8
LAY-1
  6
CONTINUOUS
 62
     2
100
AcDbText
 10
335.4
 20
533.2
 30
0.0
 40
7.6
  1
カラー対応
 41
0.663158
  7
EXCADSTD
 72
     5
 11
365.4
 21
533.2
 31
0.0
100
AcDbText
  0
TEXT
  5
D1
100
AcDbEntity
  8
LAY-2
  6
CONTINUOUS
 62
     7
100
AcDbText
 10
294.599996
 20
46.099999
 30
0.0
 40
11.600001
  1
ＮＣ７１ＶＪ
 41
0.743448
  7
EXCADSTD
 72
     5
 11
356.200004
 21
46.099999
 31
0.0
100
AcDbText
  0
LINE
  5
D2
100
AcDbEntity
  8
LAY-2
  6
CONTINUOUS
 62
     7
100
AcDbLine
 10
46.318186
 20
433.842154
 30
0.0
 11
216.318186
 21
433.842154
 31
0.0
  0
LINE
  5
D3
100
AcDbEntity
  8
LAY-2
  6
CONTINUOUS
 62
     7
100
AcDbLine
 10
71.29584
 20
424.842154
 30
0.0
 11
191.340532
 21
424.842154
 31
0.0
  0
LINE
  5
D4
100
AcDbEntity
  8
LAY-2
  6
CONTINUOUS
 62
     7
100
AcDbLine
 10
193.340406
 20
422.864625
 30
0.0
 11
194.295967
 21
337.819684
 31
0.0
  0
ARC
  5
D5
100
AcDbEntity
  8
LAY-2
  6
CONTINUOUS
 62
     7
100
AcDbCircle
 10
196.29584
 20
337.842154
 30
0.0
 40
2.0
100
AcDbArc
 50
180.643746
 51
270.0
  0
LINE
  5
D6
100
AcDbEntity
  8
LAY-2
  6
CONTINUOUS
 62
     7
100
AcDbLine
 10
196.29584
 20
335.842154
 30
0.0
 11
202.928826
 21
335.842154
 31
0.0
  0
ARC
  5
D7
100
AcDbEntity
  8
LAY-2
  6
CONTINUOUS
 62
     7
100
AcDbCircle
 10
202.928826
 20
345.842154
 30
0.0
 40
10.0
100
AcDbArc
 50
270.0
 51
356.527299
  0
ARC
  5
D8
100
AcDbEntity
  8
LAY-2
  6
CONTINUOUS
 62
     7
100
AcDbCircle
 10
-1783.41708
 20
466.382369
 30
0.0
 40
2000.0
100
AcDbArc
 50
356.527299
 51
359.06775
  0
LINE
  5
D9
100
AcDbEntity
  8
LAY-2
  6
CONTINUOUS
 62
     7
100
AcDbLine
 10
69.295967
 20
422.864625
 30
0.0
 11
68.340406
 21
337.819684
 31
0.0
  0
ARC
  5
DA
100
AcDbEntity
  8
LAY-2
  6
CONTINUOUS
 62
     7
100
AcDbCircle
 10
66.340532
 20
337.842154
 30
0.0
 40
2.0
100
AcDbArc
 50
270.0
 51
359.356254
  0
LINE
  5
DB
100
AcDbEntity
  8
LAY-2
  6
CONTINUOUS
 62
     7
100
AcDbLine
 10
66.340532
 20
335.842154
 30
0.0
 11
59.707547
 21
335.842154
 31
0.0
  0
ARC
  5
DC
100
AcDbEntity
  8
LAY-2
  6
CONTINUOUS
 62
     7
100
AcDbCircle
 10
59.707547
 20
345.842154
 30
0.0
 40
10.0
100
AcDbArc
 50
183.472701
 51
270.0
  0
ARC
  5
DD
100
AcDbEntity
  8
LAY-2
  6
CONTINUOUS
 62
     7
100
AcDbCircle
 10
2046.053452
 20
466.382369
 30
0.0
 40
2000.0
100
AcDbArc
 50
180.93225
 51
183.472701
  0
LINE
  5
DE
100
AcDbEntity
  8
LAY-2
  6
EXLTYPE3
 62
     1
100
AcDbLine
 10
131.318186
 20
259.905925
 30
0.0
 11
131.318186
 21
171.905925
 31
0.0
  0
ARC
  5
DF
100
AcDbEntity
  8
LAY-2
  6
CONTINUOUS
 62
     7
100
AcDbCircle
 10
203.604064
 20
183.905925
 30
0.0
 40
10.0
100
AcDbArc
 50
270.0
 51
350.303972
  0
ARC
  5
E0
100
AcDbEntity
  8
LAY-2
  6
CONTINUOUS
 62
     7
100
AcDbCircle
 10
203.604064
 20
247.905925
 30
0.0
 40
10.0
100
AcDbArc
 50
9.696028
 51
90.0
  0
ARC
  5
E1
100
AcDbEntity
  8
LAY-2
  6
CONTINUOUS
 62
     7
100
AcDbCircle
 10
16.318186
 20
215.905925
 30
0.0
 40
200.0
100
AcDbArc
 50
350.303972
 51
9.696028
  0
ARC
  5
E2
100
AcDbEntity
  8
LAY-2
  6
CONTINUOUS
 62
     7
100
AcDbCircle
 10
196.318186
 20
255.905925
 30
0.0
 40
2.0
100
AcDbArc
 50
90.0
 51
180.0
  0
LINE
  5
E3
100
AcDbEntity
  8
LAY-2
  6
CONTINUOUS
 62
     7
100
AcDbLine
 10
194.318186
 20
255.905925
 30
0.0
 11
194.318186
 21
175.905925
 31
0.0
  0
ARC
  5
E4
100
AcDbEntity
  8
LAY-2
  6
CONTINUOUS
 62
     7
100
AcDbCircle
 10
196.318186
 20
175.905925
 30
0.0
 40
2.0
100
AcDbArc
 50
180.0
 51
270.0
  0
LINE
  5
E5
100
AcDbEntity
  8
LAY-2
  6
CONTINUOUS
 62
     7
100
AcDbLine
 10
59.032308
 20
257.905925
 30
0.0
 11
203.604064
 21
257.905925
 31
0.0
  0
LINE
  5
E6
100
AcDbEntity
  8
LAY-2
  6
CONTINUOUS
 62
     7
100
AcDbLine
 10
203.604064
 20
173.905925
 30
0.0
 11
63.3
 21
173.905925
 31
0.0
  0
LINE
  5
E7
100
AcDbEntity
  8
LAY-2
  6
CONTINUOUS
 62
     7
100
AcDbLine
 10
203.604064
 20
173.905925
 30
0.0
 11
59.032308
 21
173.905925
 31
0.0
  0
LINE
  5
E8
100
AcDbEntity
  8
LAY-2
  6
CONTINUOUS
 62
     7
100
AcDbLine
 10
190.818186
 20
226.724214
 30
0.0
 11
71.818186
 21
226.724214
 31
0.0
  0
ARC
  5
E9
100
AcDbEntity
  8
LAY-2
  6
CONTINUOUS
 62
     7
100
AcDbCircle
 10
190.818186
 20
228.724214
 30
0.0
 40
2.0
100
AcDbArc
 50
270.0
 51
0.0
  0
LINE
  5
EA
100
AcDbEntity
  8
LAY-2
  6
CONTINUOUS
 62
     7
100
AcDbLine
 10
71.818186
 20
230.892175
 30
0.0
 11
190.818186
 21
230.892175
 31
0.0
  0
ARC
  5
EB
100
AcDbEntity
  8
LAY-2
  6
CONTINUOUS
 62
     7
100
AcDbCircle
 10
190.818186
 20
232.892175
 30
0.0
 40
2.0
100
AcDbArc
 50
270.0
 51
0.0
  0
LINE
  5
EC
100
AcDbEntity
  8
LAY-2
  6
CONTINUOUS
 62
     7
100
AcDbLine
 10
192.818186
 20
257.405925
 30
0.0
 11
192.818186
 21
228.724214
 31
0.0
  0
LINE
  5
ED
100
AcDbEntity
  8
LAY-2
  6
CONTINUOUS
 62
     7
100
AcDbLine
 10
192.818186
 20
255.405925
 30
0.0
 11
194.318186
 21
255.405925
 31
0.0
  0
LINE
  5
EE
100
AcDbEntity
  8
LAY-2
  6
CONTINUOUS
 62
     7
100
AcDbLine
 10
192.818186
 20
247.405925
 30
0.0
 11
194.318186
 21
247.405925
 31
0.0
  0
ARC
  5
EF
100
AcDbEntity
  8
LAY-2
  6
CONTINUOUS
 62
     7
100
AcDbCircle
 10
191.340532
 20
422.842154
 30
0.0
 40
2.0
100
AcDbArc
 50
0.643746
 51
90.0
  0
LINE
  5
F0
100
AcDbEntity
  8
LAY-2
  6
CONTINUOUS
 62
     7
100
AcDbLine
 10
192.182986
 20
411.842154
 30
0.0
 11
193.318186
 21
411.842154
 31
0.0
  0
LINE
  5
F1
100
AcDbEntity
  8
LAY-2
  6
CONTINUOUS
 62
     7
100
AcDbLine
 10
70.453386
 20
411.842154
 30
0.0
 11
69.318186
 21
411.842154
 31
0.0
  0
LINE
  5
F2
100
AcDbEntity
  8
LAY-2
  6
EXLTYPE3
 62
     1
100
AcDbLine
 10
124.618186
 20
193.905925
 30
0.0
 11
138.018186
 21
193.905925
 31
0.0
  0
LINE
  5
F3
100
AcDbEntity
  8
LAY-2
  6
EXLTYPE3
 62
     1
100
AcDbLine
 10
86.318186
 20
231.205925
 30
0.0
 11
86.318186
 21
244.605925
 31
0.0
  0
LINE
  5
F4
100
AcDbEntity
  8
LAY-2
  6
EXLTYPE3
 62
     1
100
AcDbLine
 10
93.018186
 20
237.905925
 30
0.0
 11
79.618186
 21
237.905925
 31
0.0
  0
ARC
  5
F5
100
AcDbEntity
  8
LAY-2
  6
CONTINUOUS
 62
     7
100
AcDbCircle
 10
59.032308
 20
247.905925
 30
0.0
 40
10.0
100
AcDbArc
 50
90.0
 51
170.303972
  0
ARC
  5
F6
100
AcDbEntity
  8
LAY-2
  6
CONTINUOUS
 62
     7
100
AcDbCircle
 10
246.318186
 20
215.905925
 30
0.0
 40
200.0
100
AcDbArc
 50
170.303972
 51
189.696028
  0
ARC
  5
F7
100
AcDbEntity
  8
LAY-2
  6
CONTINUOUS
 62
     7
100
AcDbCircle
 10
66.318186
 20
255.905925
 30
0.0
 40
2.0
100
AcDbArc
 50
0.0
 51
90.0
  0
ARC
  5
F8
100
AcDbEntity
  8
LAY-2
  6
CONTINUOUS
 62
     7
100
AcDbCircle
 10
66.318186
 20
175.905925
 30
0.0
 40
2.0
100
AcDbArc
 50
270.0
 51
0.0
  0
ARC
  5
F9
100
AcDbEntity
  8
LAY-2
  6
CONTINUOUS
 62
     7
100
AcDbCircle
 10
71.818186
 20
228.724214
 30
0.0
 40
2.0
100
AcDbArc
 50
180.0
 51
270.0
  0
ARC
  5
FA
100
AcDbEntity
  8
LAY-2
  6
CONTINUOUS
 62
     7
100
AcDbCircle
 10
71.818186
 20
232.892175
 30
0.0
 40
2.0
100
AcDbArc
 50
180.0
 51
270.0
  0
LINE
  5
FB
100
AcDbEntity
  8
LAY-2
  6
CONTINUOUS
 62
     7
100
AcDbLine
 10
69.818186
 20
257.405925
 30
0.0
 11
69.818186
 21
228.724214
 31
0.0
  0
LINE
  5
FC
100
AcDbEntity
  8
LAY-2
  6
CONTINUOUS
 62
     7
100
AcDbLine
 10
69.818186
 20
255.405925
 30
0.0
 11
68.318186
 21
255.405925
 31
0.0
  0
LINE
  5
FD
100
AcDbEntity
  8
LAY-2
  6
CONTINUOUS
 62
     7
100
AcDbLine
 10
69.818186
 20
247.405925
 30
0.0
 11
68.318186
 21
247.405925
 31
0.0
  0
LINE
  5
FE
100
AcDbEntity
  8
LAY-2
  6
EXLTYPE3
 62
     1
100
AcDbLine
 10
181.318186
 20
231.205925
 30
0.0
 11
181.318186
 21
244.605925
 31
0.0
  0
LINE
  5
FF
100
AcDbEntity
  8
LAY-2
  6
EXLTYPE3
 62
     1
100
AcDbLine
 10
188.018186
 20
237.905925
 30
0.0
 11
154.618186
 21
237.905925
 31
0.0
  0
LINE
  5
100
100
AcDbEntity
  8
LAY-2
  6
EXLTYPE3
 62
     1
100
AcDbLine
 10
161.318186
 20
231.205925
 30
0.0
 11
161.318186
 21
244.605925
 31
0.0
  0
ARC
  5
101
100
AcDbEntity
  8
LAY-2
  6
CONTINUOUS
 62
     7
100
AcDbCircle
 10
168.818186
 20
204.809904
 30
0.0
 40
2.5
100
AcDbArc
 50
90.0
 51
180.0
  0
LINE
  5
102
100
AcDbEntity
  8
LAY-2
  6
CONTINUOUS
 62
     7
100
AcDbLine
 10
166.318186
 20
204.809904
 30
0.0
 11
166.318186
 21
201.111802
 31
0.0
  0
ARC
  5
103
100
AcDbEntity
  8
LAY-2
  6
CONTINUOUS
 62
     7
100
AcDbCircle
 10
168.818186
 20
201.111802
 30
0.0
 40
2.5
100
AcDbArc
 50
180.0
 51
251.565051
  0
LINE
  5
104
100
AcDbEntity
  8
LAY-2
  6
CONTINUOUS
 62
     7
100
AcDbLine
 10
168.027617
 20
198.740093
 30
0.0
 11
190.318186
 21
191.309904
 31
0.0
  0
LINE
  5
105
100
AcDbEntity
  8
LAY-2
  6
CONTINUOUS
 62
     7
100
AcDbLine
 10
190.318186
 20
191.309904
 30
0.0
 11
190.318186
 21
191.305925
 31
0.0
  0
ARC
  5
106
100
AcDbEntity
  8
LAY-2
  6
CONTINUOUS
 62
     7
100
AcDbCircle
 10
191.318186
 20
191.309904
 30
0.0
 40
1.0
100
AcDbArc
 50
180.0
 51
270.0
  0
LINE
  5
107
100
AcDbEntity
  8
LAY-2
  6
CONTINUOUS
 62
     7
100
AcDbLine
 10
194.318186
 20
207.309904
 30
0.0
 11
168.818186
 21
207.309904
 31
0.0
  0
LINE
  5
108
100
AcDbEntity
  8
LAY-2
  6
CONTINUOUS
 62
     7
100
AcDbLine
 10
191.318186
 20
190.309904
 30
0.0
 11
194.318186
 21
190.309904
 31
0.0
  0
LINE
  5
109
100
AcDbEntity
  8
LAY-2
  6
CONTINUOUS
 62
     7
100
AcDbLine
 10
94.608756
 20
198.736115
 30
0.0
 11
72.318186
 21
191.305925
 31
0.0
  0
ARC
  5
10A
100
AcDbEntity
  8
LAY-2
  6
CONTINUOUS
 62
     7
100
AcDbCircle
 10
93.818186
 20
204.805925
 30
0.0
 40
2.5
100
AcDbArc
 50
0.0
 51
90.0
  0
LINE
  5
10B
100
AcDbEntity
  8
LAY-2
  6
CONTINUOUS
 62
     7
100
AcDbLine
 10
96.318186
 20
204.805925
 30
0.0
 11
96.318186
 21
201.107823
 31
0.0
  0
ARC
  5
10C
100
AcDbEntity
  8
LAY-2
  6
CONTINUOUS
 62
     7
100
AcDbCircle
 10
93.818186
 20
201.107823
 30
0.0
 40
2.5
100
AcDbArc
 50
288.434949
 51
0.0
  0
LINE
  5
10D
100
AcDbEntity
  8
LAY-2
  6
CONTINUOUS
 62
     7
100
AcDbLine
 10
68.318186
 20
207.305925
 30
0.0
 11
93.818186
 21
207.305925
 31
0.0
  0
LINE
  5
10E
100
AcDbEntity
  8
LAY-2
  6
CONTINUOUS
 62
     7
100
AcDbLine
 10
72.318186
 20
191.305925
 30
0.0
 11
72.318186
 21
191.301947
 31
0.0
  0
ARC
  5
10F
100
AcDbEntity
  8
LAY-2
  6
CONTINUOUS
 62
     7
100
AcDbCircle
 10
71.318186
 20
191.305925
 30
0.0
 40
1.0
100
AcDbArc
 50
270.0
 51
0.0
  0
LINE
  5
110
100
AcDbEntity
  8
LAY-2
  6
CONTINUOUS
 62
     7
100
AcDbLine
 10
71.318186
 20
190.305925
 30
0.0
 11
68.318186
 21
190.305925
 31
0.0
  0
LINE
  5
111
100
AcDbEntity
  8
LAY-2
  6
CONTINUOUS
 62
     7
100
AcDbLine
 10
68.318186
 20
175.905925
 30
0.0
 11
68.318186
 21
255.905925
 31
0.0
  0
ARC
  5
112
100
AcDbEntity
  8
LAY-2
  6
CONTINUOUS
 62
     7
100
AcDbCircle
 10
280.11804
 20
190.602926
 30
0.0
 40
15.0
100
AcDbArc
 50
180.0
 51
268.830861
  0
POLYLINE
  5
113
100
AcDbEntity
  8
LAY-2
  6
CONTINUOUS
 62
     7
100
AcDb2dPolyline
 66
     1
 10
0.0
 20
0.0
 30
0.0
 70
   128
  0
VERTEX
  5
114
100
AcDbEntity
  8
LAY-2
  6
CONTINUOUS
 62
     7
100
AcDbVertex
100
AcDb2dVertex
 10
279.11804
 20
175.620211
 30
0.0
  0
VERTEX
  5
115
100
AcDbEntity
  8
LAY-2
  6
CONTINUOUS
 62
     7
100
AcDbVertex
100
AcDb2dVertex
 10
363.11804
 20
173.905925
 30
0.0
  0
VERTEX
  5
116
100
AcDbEntity
  8
LAY-2
  6
CONTINUOUS
 62
     7
100
AcDbVertex
100
AcDb2dVertex
 10
363.11804
 20
257.905925
 30
0.0
  0
VERTEX
  5
117
100
AcDbEntity
  8
LAY-2
  6
CONTINUOUS
 62
     7
100
AcDbVertex
100
AcDb2dVertex
 10
294.505923
 20
256.505678
 30
0.0
  0
SEQEND
  5
118
100
AcDbEntity
  8
LAY-2
  6
CONTINUOUS
 62
     7
  0
LINE
  5
119
100
AcDbEntity
  8
LAY-2
  6
CONTINUOUS
 62
     7
100
AcDbLine
 10
265.11804
 20
226.511923
 30
0.0
 11
265.11804
 21
190.602926
 31
0.0
  0
LINE
  5
11A
100
AcDbEntity
  8
LAY-2
  6
EXLTYPE3
 62
     1
100
AcDbLine
 10
361.11804
 20
237.905925
 30
0.0
 11
391.11804
 21
237.905925
 31
0.0
  0
LINE
  5
11B
100
AcDbEntity
  8
LAY-2
  6
EXLTYPE3
 62
     1
100
AcDbLine
 10
361.11804
 20
193.905925
 30
0.0
 11
391.11804
 21
193.905925
 31
0.0
  0
ARC
  5
11C
100
AcDbEntity
  8
LAY-2
  6
CONTINUOUS
 62
     7
100
AcDbCircle
 10
294.650913
 20
213.922005
 30
0.0
 40
35.0
100
AcDbArc
 50
144.610812
 51
158.485322
  0
POLYLINE
  5
11D
100
AcDbEntity
  8
LAY-2
  6
CONTINUOUS
 62
     7
100
AcDb2dPolyline
 66
     1
 10
0.0
 20
0.0
 30
0.0
 70
   128
  0
VERTEX
  5
11E
100
AcDbEntity
  8
LAY-2
  6
CONTINUOUS
 62
     7
100
AcDbVertex
100
AcDb2dVertex
 10
261.309364
 20
230.892175
 30
0.0
  0
VERTEX
  5
11F
100
AcDbEntity
  8
LAY-2
  6
CONTINUOUS
 62
     7
100
AcDbVertex
100
AcDb2dVertex
 10
261.590721
 20
226.724214
 30
0.0
  0
VERTEX
  5
120
100
AcDbEntity
  8
LAY-2
  6
CONTINUOUS
 62
     7
100
AcDbVertex
100
AcDb2dVertex
 10
262.089585
 20
226.75789
 30
0.0
  0
SEQEND
  5
121
100
AcDbEntity
  8
LAY-2
  6
CONTINUOUS
 62
     7
  0
ARC
  5
122
100
AcDbEntity
  8
LAY-2
  6
CONTINUOUS
 62
     7
100
AcDbCircle
 10
294.191571
 20
218.90216
 30
0.0
 40
35.0
100
AcDbArc
 50
127.402236
 51
159.966356
  0
ARC
  5
123
100
AcDbEntity
  8
LAY-2
  6
CONTINUOUS
 62
     7
100
AcDbCircle
 10
295.11804
 20
226.511923
 30
0.0
 40
30.0
100
AcDbArc
 50
91.169139
 51
180.0
  0
ARC
  5
124
100
AcDbEntity
  8
LAY-2
  6
CONTINUOUS
 62
     7
100
AcDbCircle
 10
71.557013
 20
420.842154
 30
0.0
 40
1.0
100
AcDbArc
 50
90.0
 51
179.356254
  0
LINE
  5
125
100
AcDbEntity
  8
LAY-2
  6
CONTINUOUS
 62
     7
100
AcDbLine
 10
70.545714
 20
419.842154
 30
0.0
 11
69.318186
 21
419.842154
 31
0.0
  0
ARC
  5
126
100
AcDbEntity
  8
LAY-2
  6
CONTINUOUS
 62
     7
100
AcDbCircle
 10
71.29584
 20
422.842154
 30
0.0
 40
2.0
100
AcDbArc
 50
90.0
 51
179.356254
  0
LINE
  5
127
100
AcDbEntity
  8
LAY-2
  6
CONTINUOUS
 62
     7
100
AcDbLine
 10
71.557013
 20
421.842154
 30
0.0
 11
191.079359
 21
421.842154
 31
0.0
  0
ARC
  5
128
100
AcDbEntity
  8
LAY-2
  6
CONTINUOUS
 62
     7
100
AcDbCircle
 10
191.079359
 20
420.842154
 30
0.0
 40
1.0
100
AcDbArc
 50
0.643746
 51
90.0
  0
LINE
  5
129
100
AcDbEntity
  8
LAY-2
  6
CONTINUOUS
 62
     7
100
AcDbLine
 10
192.090932
 20
419.842154
 30
0.0
 11
193.318186
 21
419.842154
 31
0.0
  0
ARC
  5
12A
100
AcDbEntity
  8
LAY-2
  6
CONTINUOUS
 62
     7
100
AcDbCircle
 10
72.602083
 20
337.842154
 30
0.0
 40
3.0
100
AcDbArc
 50
179.356254
 51
270.0
  0
LINE
  5
12B
100
AcDbEntity
  8
LAY-2
  6
CONTINUOUS
 62
     7
100
AcDbLine
 10
70.557076
 20
420.853389
 30
0.0
 11
69.602273
 21
337.87586
 31
0.0
  0
ARC
  5
12C
100
AcDbEntity
  8
LAY-2
  6
CONTINUOUS
 62
     7
100
AcDbCircle
 10
190.034289
 20
337.842154
 30
0.0
 40
3.0
100
AcDbArc
 50
270.0
 51
0.643746
  0
LINE
  5
12D
100
AcDbEntity
  8
LAY-2
  6
CONTINUOUS
 62
     7
100
AcDbLine
 10
192.079296
 20
420.853389
 30
0.0
 11
193.0341
 21
337.87586
 31
0.0
  0
LINE
  5
12E
100
AcDbEntity
  8
LAY-2
  6
CONTINUOUS
 62
     7
100
AcDbLine
 10
190.034289
 20
334.842154
 30
0.0
 11
72.602083
 21
334.842154
 31
0.0
  0
LINE
  5
12F
100
AcDbEntity
  8
LAY-2
  6
EXLTYPE3
 62
     1
100
AcDbLine
 10
131.318186
 20
461.842154
 30
0.0
 11
131.318186
 21
332.842154
 31
0.0
  0
LINE
  5
130
100
AcDbEntity
  8
LAY-2
  6
CONTINUOUS
 62
     2
100
AcDbLine
 10
69.318186
 20
419.842154
 30
0.0
 11
69.318186
 21
411.842154
 31
0.0
  0
LINE
  5
131
100
AcDbEntity
  8
LAY-2
  6
CONTINUOUS
 62
     2
100
AcDbLine
 10
193.318186
 20
419.842154
 30
0.0
 11
193.318186
 21
411.842154
 31
0.0
  0
LINE
  5
132
100
AcDbEntity
  8
LAY-2
  6
CONTINUOUS
 62
     7
100
AcDbLine
 10
69.318186
 20
418.842154
 30
0.0
 11
69.25077
 21
418.842154
 31
0.0
  0
LINE
  5
133
100
AcDbEntity
  8
LAY-2
  6
CONTINUOUS
 62
     7
100
AcDbLine
 10
69.318186
 20
412.842154
 30
0.0
 11
69.183355
 21
412.842154
 31
0.0
  0
LINE
  5
134
100
AcDbEntity
  8
LAY-2
  6
CONTINUOUS
 62
     7
100
AcDbLine
 10
193.318186
 20
418.842154
 30
0.0
 11
193.385602
 21
418.842154
 31
0.0
  0
LINE
  5
135
100
AcDbEntity
  8
LAY-2
  6
CONTINUOUS
 62
     7
100
AcDbLine
 10
193.318186
 20
412.842154
 30
0.0
 11
193.453018
 21
412.842154
 31
0.0
  0
LINE
  5
136
100
AcDbEntity
  8
LAY-2
  6
CONTINUOUS
 62
     7
100
AcDbLine
 10
68.700209
 20
369.842154
 30
0.0
 11
69.970102
 21
369.842154
 31
0.0
  0
LINE
  5
137
100
AcDbEntity
  8
LAY-2
  6
CONTINUOUS
 62
     7
100
AcDbLine
 10
68.47549
 20
349.842154
 30
0.0
 11
69.739966
 21
349.842154
 31
0.0
  0
LINE
  5
138
100
AcDbEntity
  8
LAY-2
  6
CONTINUOUS
 62
     7
100
AcDbLine
 10
193.936164
 20
369.842154
 30
0.0
 11
192.666271
 21
369.842154
 31
0.0
  0
LINE
  5
139
100
AcDbEntity
  8
LAY-2
  6
CONTINUOUS
 62
     7
100
AcDbLine
 10
194.160883
 20
349.842154
 30
0.0
 11
192.896406
 21
349.842154
 31
0.0
  0
LINE
  5
13A
100
AcDbEntity
  8
LAY-2
  6
CONTINUOUS
 62
     7
100
AcDbLine
 10
84.818186
 20
433.842154
 30
0.0
 11
84.818186
 21
456.220834
 31
0.0
  0
LINE
  5
13B
100
AcDbEntity
  8
LAY-2
  6
CONTINUOUS
 62
     7
100
AcDbLine
 10
87.818186
 20
433.842154
 30
0.0
 11
87.818186
 21
456.220834
 31
0.0
  0
LINE
  5
13C
100
AcDbEntity
  8
LAY-2
  6
EXLTYPE3
 62
     1
100
AcDbLine
 10
86.318186
 20
461.842154
 30
0.0
 11
86.318186
 21
431.842154
 31
0.0
  0
LINE
  5
13D
100
AcDbEntity
  8
LAY-2
  6
CONTINUOUS
 62
     7
100
AcDbLine
 10
84.818186
 20
456.220834
 30
0.0
 11
86.318186
 21
459.842154
 31
0.0
  0
LINE
  5
13E
100
AcDbEntity
  8
LAY-2
  6
CONTINUOUS
 62
     7
100
AcDbLine
 10
87.818186
 20
456.220834
 30
0.0
 11
86.318186
 21
459.842154
 31
0.0
  0
LINE
  5
13F
100
AcDbEntity
  8
LAY-2
  6
CONTINUOUS
 62
     7
100
AcDbLine
 10
129.818186
 20
433.842154
 30
0.0
 11
129.818186
 21
456.220834
 31
0.0
  0
LINE
  5
140
100
AcDbEntity
  8
LAY-2
  6
CONTINUOUS
 62
     7
100
AcDbLine
 10
132.818186
 20
433.842154
 30
0.0
 11
132.818186
 21
456.220834
 31
0.0
  0
LINE
  5
141
100
AcDbEntity
  8
LAY-2
  6
CONTINUOUS
 62
     7
100
AcDbLine
 10
129.818186
 20
456.220834
 30
0.0
 11
131.318186
 21
459.842154
 31
0.0
  0
LINE
  5
142
100
AcDbEntity
  8
LAY-2
  6
CONTINUOUS
 62
     7
100
AcDbLine
 10
132.818186
 20
456.220834
 30
0.0
 11
131.318186
 21
459.842154
 31
0.0
  0
LINE
  5
143
100
AcDbEntity
  8
LAY-2
  6
CONTINUOUS
 62
     7
100
AcDbLine
 10
179.818186
 20
433.842154
 30
0.0
 11
179.818186
 21
456.220834
 31
0.0
  0
LINE
  5
144
100
AcDbEntity
  8
LAY-2
  6
CONTINUOUS
 62
     7
100
AcDbLine
 10
182.818186
 20
433.842154
 30
0.0
 11
182.818186
 21
456.220834
 31
0.0
  0
LINE
  5
145
100
AcDbEntity
  8
LAY-2
  6
EXLTYPE3
 62
     1
100
AcDbLine
 10
181.318186
 20
461.842154
 30
0.0
 11
181.318186
 21
431.842154
 31
0.0
  0
LINE
  5
146
100
AcDbEntity
  8
LAY-2
  6
CONTINUOUS
 62
     7
100
AcDbLine
 10
179.818186
 20
456.220834
 30
0.0
 11
181.318186
 21
459.842154
 31
0.0
  0
LINE
  5
147
100
AcDbEntity
  8
LAY-2
  6
CONTINUOUS
 62
     7
100
AcDbLine
 10
182.818186
 20
456.220834
 30
0.0
 11
181.318186
 21
459.842154
 31
0.0
  0
CIRCLE
  5
148
100
AcDbEntity
  8
LAY-2
  6
CONTINUOUS
 62
     7
100
AcDbCircle
 10
131.318186
 20
193.905925
 30
0.0
 40
4.7
  0
LINE
  5
149
100
AcDbEntity
  8
LAY-2
  6
CONTINUOUS
 62
     7
100
AcDbLine
 10
363.11804
 20
239.405925
 30
0.0
 11
385.49672
 21
239.405925
 31
0.0
  0
LINE
  5
14A
100
AcDbEntity
  8
LAY-2
  6
CONTINUOUS
 62
     7
100
AcDbLine
 10
363.11804
 20
236.405925
 30
0.0
 11
385.49672
 21
236.405925
 31
0.0
  0
LINE
  5
14B
100
AcDbEntity
  8
LAY-2
  6
CONTINUOUS
 62
     7
100
AcDbLine
 10
385.49672
 20
239.405925
 30
0.0
 11
389.11804
 21
237.905925
 31
0.0
  0
LINE
  5
14C
100
AcDbEntity
  8
LAY-2
  6
CONTINUOUS
 62
     7
100
AcDbLine
 10
385.49672
 20
236.405925
 30
0.0
 11
389.11804
 21
237.905925
 31
0.0
  0
LINE
  5
14D
100
AcDbEntity
  8
LAY-2
  6
CONTINUOUS
 62
     7
100
AcDbLine
 10
363.11804
 20
195.405925
 30
0.0
 11
385.49672
 21
195.405925
 31
0.0
  0
LINE
  5
14E
100
AcDbEntity
  8
LAY-2
  6
CONTINUOUS
 62
     7
100
AcDbLine
 10
363.11804
 20
192.405925
 30
0.0
 11
385.49672
 21
192.405925
 31
0.0
  0
LINE
  5
14F
100
AcDbEntity
  8
LAY-2
  6
CONTINUOUS
 62
     7
100
AcDbLine
 10
385.49672
 20
195.405925
 30
0.0
 11
389.11804
 21
193.905925
 31
0.0
  0
LINE
  5
150
100
AcDbEntity
  8
LAY-2
  6
CONTINUOUS
 62
     7
100
AcDbLine
 10
385.49672
 20
192.405925
 30
0.0
 11
389.11804
 21
193.905925
 31
0.0
  0
LINE
  5
151
100
AcDbEntity
  8
LAY-2
  6
CONTINUOUS
 62
     7
100
AcDbLine
 10
68.318186
 20
191.309904
 30
0.0
 11
72.330121
 21
191.309904
 31
0.0
  0
LINE
  5
152
100
AcDbEntity
  8
LAY-2
  6
CONTINUOUS
 62
     7
100
AcDbLine
 10
190.318186
 20
191.309904
 30
0.0
 11
194.318186
 21
191.309904
 31
0.0
  0
ARC
  5
153
100
AcDbEntity
  8
LAY-2
  6
CONTINUOUS
 62
     7
100
AcDbCircle
 10
59.032308
 20
183.905925
 30
0.0
 40
10.0
100
AcDbArc
 50
189.696028
 51
270.0
  0
LINE
  5
154
100
AcDbEntity
  8
LAY-2
  6
CONTINUOUS
 62
     2
100
AcDbLine
 10
192.818186
 20
257.405925
 30
0.0
 11
69.818186
 21
257.405925
 31
0.0
  0
DIMENSION
  5
161
100
AcDbEntity
  8
LAY-2
  6
CONTINUOUS
 62
     3
100
AcDbDimension
  2
*D14
 10
236.318186
 20
335.842154
 30
0.0
 11
230.318186
 21
384.842154
 31
0.0
 70
   160
  1
98
  3
STANDARD
100
AcDbAlignedDimension
 13
216.318186
 23
433.842154
 33
0.0
 14
202.928826
 24
335.842154
 34
0.0
 50
90.0
100
AcDbRotatedDimension
1001
ACAD
1000
DSTYLE
1002
{
1070
     6
1000
_EX_NORM
1070
     7
1000
_EX_NORM
1070
    41
1040
6.0
1070
    42
1040
1.0
1070
    44
1040
2.0
1070
    73
1070
     0
1070
    74
1070
     0
1070
    75
1070
     0
1070
    76
1070
     0
1070
    77
1070
     1
1070
    78
1070
     8
1070
   140
1040
8.0
1070
   147
1040
2.0
1070
   173
1070
     1
1070
   176
1070
     3
1070
   177
1070
     3
1070
   178
1070
     2
1070
   271
1070
     2
1070
   279
1070
     2
1070
   280
1070
     0
1070
   287
1070
     5
1070
   340
1005
160
1002
}
  0
DIMENSION
  5
16D
100
AcDbEntity
  8
LAY-2
  6
CONTINUOUS
 62
     3
100
AcDbDimension
  2
*D15
 10
236.318186
 20
173.905925
 30
0.0
 11
230.318186
 21
215.905925
 31
0.0
 70
   160
  1
84
  3
STANDARD
100
AcDbAlignedDimension
 13
203.604064
 23
257.905925
 33
0.0
 14
203.604064
 24
173.905925
 34
0.0
 50
90.0
100
AcDbRotatedDimension
1001
ACAD
1000
DSTYLE
1002
{
1070
     6
1000
_EX_NORM
1070
     7
1000
_EX_NORM
1070
    41
1040
6.0
1070
    42
1040
1.0
1070
    44
1040
2.0
1070
    73
1070
     0
1070
    74
1070
     0
1070
    75
1070
     0
1070
    76
1070
     0
1070
    77
1070
     1
1070
    78
1070
     8
1070
   140
1040
8.0
1070
   147
1040
2.0
1070
   173
1070
     1
1070
   176
1070
     3
1070
   177
1070
     3
1070
   178
1070
     2
1070
   271
1070
     2
1070
   279
1070
     2
1070
   280
1070
     0
1070
   287
1070
     5
1070
   340
1005
160
1002
}
  0
DIMENSION
  5
179
100
AcDbEntity
  8
LAY-2
  6
CONTINUOUS
 62
     3
100
AcDbDimension
  2
*D16
 10
216.318186
 20
273.905925
 30
0.0
 11
131.318186
 21
279.905925
 31
0.0
 70
   160
  1
170
  3
STANDARD
100
AcDbAlignedDimension
 13
46.318186
 23
215.905925
 33
0.0
 14
216.318186
 24
215.905925
 34
0.0
100
AcDbRotatedDimension
1001
ACAD
1000
DSTYLE
1002
{
1070
     6
1000
_EX_NORM
1070
     7
1000
_EX_NORM
1070
    41
1040
6.0
1070
    42
1040
1.0
1070
    44
1040
2.0
1070
    73
1070
     0
1070
    74
1070
     0
1070
    75
1070
     0
1070
    76
1070
     0
1070
    77
1070
     1
1070
    78
1070
     8
1070
   140
1040
8.0
1070
   147
1040
2.0
1070
   173
1070
     1
1070
   176
1070
     3
1070
   177
1070
     3
1070
   178
1070
     2
1070
   271
1070
     2
1070
   279
1070
     2
1070
   280
1070
     0
1070
   287
1070
     5
1070
   340
1005
160
1002
}
  0
DIMENSION
  5
185
100
AcDbEntity
  8
LAY-2
  6
CONTINUOUS
 62
     3
100
AcDbDimension
  2
*D17
 10
347.11804
 20
193.905925
 30
0.0
 11
341.11804
 21
215.905925
 31
0.0
 70
   160
  1
44
  3
STANDARD
100
AcDbAlignedDimension
 13
363.11804
 23
237.905925
 33
0.0
 14
363.11804
 24
193.905925
 34
0.0
 50
90.0
100
AcDbRotatedDimension
1001
ACAD
1000
DSTYLE
1002
{
1070
     6
1000
_EX_NORM
1070
     7
1000
_EX_NORM
1070
    41
1040
6.0
1070
    42
1040
1.0
1070
    44
1040
2.0
1070
    73
1070
     0
1070
    74
1070
     0
1070
    75
1070
     0
1070
    76
1070
     0
1070
    77
1070
     1
1070
    78
1070
     8
1070
   140
1040
8.0
1070
   147
1040
2.0
1070
   173
1070
     1
1070
   176
1070
     3
1070
   177
1070
     3
1070
   178
1070
     2
1070
   271
1070
     2
1070
   279
1070
     2
1070
   280
1070
     0
1070
   287
1070
     5
1070
   340
1005
160
1002
}
  0
DIMENSION
  5
190
100
AcDbEntity
  8
LAY-2
  6
CONTINUOUS
 62
     3
100
AcDbDimension
  2
*D18
 10
131.318186
 20
477.842154
 30
0.0
 11
108.818186
 21
483.842154
 31
0.0
 70
   160
  1
45
  3
STANDARD
100
AcDbAlignedDimension
 13
86.318186
 23
459.842154
 33
0.0
 14
131.318186
 24
459.842154
 34
0.0
100
AcDbRotatedDimension
1001
ACAD
1000
DSTYLE
1002
{
1070
     6
1000
_EX_NORM
1070
     7
1000
_EX_NORM
1070
    41
1040
6.0
1070
    42
1040
1.0
1070
    44
1040
2.0
1070
    73
1070
     0
1070
    74
1070
     0
1070
    75
1070
     0
1070
    76
1070
     1
1070
    77
1070
     1
1070
    78
1070
     8
1070
   140
1040
8.0
1070
   147
1040
2.0
1070
   173
1070
     1
1070
   176
1070
     3
1070
   177
1070
     3
1070
   178
1070
     2
1070
   271
1070
     2
1070
   279
1070
     2
1070
   280
1070
     0
1070
   287
1070
     5
1070
   340
1005
160
1002
}
  0
DIMENSION
  5
19C
100
AcDbEntity
  8
LAY-2
  6
CONTINUOUS
 62
     3
100
AcDbDimension
  2
*D19
 10
181.318186
 20
477.842154
 30
0.0
 11
156.318186
 21
483.842154
 31
0.0
 70
   160
  1
50
  3
STANDARD
100
AcDbAlignedDimension
 13
131.318186
 23
459.842154
 33
0.0
 14
181.318186
 24
459.842154
 34
0.0
100
AcDbRotatedDimension
1001
ACAD
1000
DSTYLE
1002
{
1070
     6
1000
_EX_NORM
1070
     7
1000
_EX_NORM
1070
    41
1040
6.0
1070
    42
1040
1.0
1070
    44
1040
2.0
1070
    73
1070
     0
1070
    74
1070
     0
1070
    75
1070
     0
1070
    76
1070
     0
1070
    77
1070
     1
1070
    78
1070
     8
1070
   140
1040
8.0
1070
   147
1040
2.0
1070
   173
1070
     1
1070
   176
1070
     3
1070
   177
1070
     3
1070
   178
1070
     2
1070
   271
1070
     2
1070
   279
1070
     2
1070
   280
1070
     0
1070
   287
1070
     5
1070
   340
1005
160
1002
}
  0
DIMENSION
  5
1A8
100
AcDbEntity
  8
LAY-2
  6
CONTINUOUS
 62
     3
100
AcDbDimension
  2
*D20
 10
181.318186
 20
245.605925
 30
0.0
 11
171.318186
 21
251.605925
 31
0.0
 70
   160
  1
20
  3
STANDARD
100
AcDbAlignedDimension
 13
161.318186
 23
242.605925
 33
0.0
 14
181.318186
 24
242.605925
 34
0.0
100
AcDbRotatedDimension
1001
ACAD
1000
DSTYLE
1002
{
1070
     6
1000
_EX_NORM
1070
     7
1000
_EX_NORM
1070
    41
1040
6.0
1070
    42
1040
1.0
1070
    44
1040
2.0
1070
    73
1070
     0
1070
    74
1070
     0
1070
    75
1070
     0
1070
    76
1070
     0
1070
    77
1070
     1
1070
    78
1070
     8
1070
   140
1040
8.0
1070
   147
1040
2.0
1070
   173
1070
     1
1070
   176
1070
     3
1070
   177
1070
     3
1070
   178
1070
     2
1070
   271
1070
     2
1070
   279
1070
     2
1070
   280
1070
     0
1070
   287
1070
     5
1070
   340
1005
160
1002
}
  0
CIRCLE
  5
1A9
100
AcDbEntity
  8
LAY-2
  6
CONTINUOUS
 62
     6
100
AcDbCircle
 10
193.9
 20
314.842154
 30
0.0
 40
9.5
  0
LEADER
  5
1AA
100
AcDbEntity
  8
LAY-2
  6
CONTINUOUS
 62
     6
100
AcDbLeader
  3
STANDARD
 73
     3
 74
     1
 75
     0
 40
0.0
 76
     2
 10
199.526933
 20
335.842154
 30
0.0
 10
196.358781
 20
324.018449
 30
0.0
 77
     6
1001
ACAD
1000
DSTYLE
1002
{
1070
    41
1040
6.0
1070
     5
1000
_EX_NORM
1070
     6
1000
_EX_NORM
1070
     7
1000
_EX_NORM
1070
   341
1005
27
1002
}
  0
TEXT
  5
1AB
100
AcDbEntity
  8
LAY-2
  6
CONTINUOUS
 62
     2
100
AcDbText
 10
187.182485
 20
308.12464
 30
0.0
 40
13.435029
  1
１
 41
0.84
  7
EXCADSTD
 72
     5
 11
197.930509
 21
308.12464
 31
0.0
100
AcDbText
  0
CIRCLE
  5
1AC
100
AcDbEntity
  8
LAY-2
  6
CONTINUOUS
 62
     6
100
AcDbCircle
 10
171.9
 20
314.842154
 30
0.0
 40
9.5
  0
LEADER
  5
1AD
100
AcDbEntity
  8
LAY-2
  6
CONTINUOUS
 62
     6
100
AcDbLeader
  3
STANDARD
 73
     3
 74
     1
 75
     0
 40
0.0
 76
     2
 10
160.352995
 20
334.842154
 30
0.0
 10
167.15
 20
323.069395
 30
0.0
 77
     6
1001
ACAD
1000
DSTYLE
1002
{
1070
    41
1040
6.0
1070
     5
1000
_EX_NORM
1070
     6
1000
_EX_NORM
1070
     7
1000
_EX_NORM
1070
   341
1005
27
1002
}
  0
TEXT
  5
1AE
100
AcDbEntity
  8
LAY-2
  6
CONTINUOUS
 62
     2
100
AcDbText
 10
165.182485
 20
308.12464
 30
0.0
 40
13.435029
  1
３
 41
0.84
  7
EXCADSTD
 72
     5
 11
175.930509
 21
308.12464
 31
0.0
100
AcDbText
  0
CIRCLE
  5
1AF
100
AcDbEntity
  8
LAY-2
  6
CONTINUOUS
 62
     6
100
AcDbCircle
 10
165.328819
 20
153.905925
 30
0.0
 40
9.5
  0
LEADER
  5
1B0
100
AcDbEntity
  8
LAY-2
  6
CONTINUOUS
 62
     6
100
AcDbLeader
  3
STANDARD
 73
     3
 74
     1
 75
     0
 40
0.0
 76
     2
 10
176.578375
 20
195.88984
 30
0.0
 10
167.7876
 20
163.082221
 30
0.0
 77
     6
1001
ACAD
1000
DSTYLE
1002
{
1070
    41
1040
6.0
1070
     5
1000
_EX_NORM
1070
     6
1000
_EX_NORM
1070
     7
1000
_EX_NORM
1070
   341
1005
27
1002
}
  0
TEXT
  5
1B1
100
AcDbEntity
  8
LAY-2
  6
CONTINUOUS
 62
     2
100
AcDbText
 10
158.611305
 20
147.188411
 30
0.0
 40
13.435029
  1
２
 41
0.84
  7
EXCADSTD
 72
     5
 11
169.359328
 21
147.188411
 31
0.0
100
AcDbText
  0
CIRCLE
  5
1B2
100
AcDbEntity
  8
LAY-2
  6
CONTINUOUS
 62
     6
100
AcDbCircle
 10
143.328819
 20
153.905925
 30
0.0
 40
9.5
  0
LEADER
  5
1B3
100
AcDbEntity
  8
LAY-2
  6
CONTINUOUS
 62
     6
100
AcDbLeader
  3
STANDARD
 73
     3
 74
     1
 75
     0
 40
0.0
 76
     2
 10
133.696997
 20
189.852376
 30
0.0
 10
140.870038
 20
163.082221
 30
0.0
 77
     6
1001
ACAD
1000
DSTYLE
1002
{
1070
    41
1040
6.0
1070
     5
1000
_EX_NORM
1070
     6
1000
_EX_NORM
1070
     7
1000
_EX_NORM
1070
   341
1005
27
1002
}
  0
TEXT
  5
1B4
100
AcDbEntity
  8
LAY-2
  6
CONTINUOUS
 62
     2
100
AcDbText
 10
136.611305
 20
147.188411
 30
0.0
 40
13.435029
  1
４
 41
0.84
  7
EXCADSTD
 72
     5
 11
147.359328
 21
147.188411
 31
0.0
100
AcDbText
  0
DIMENSION
  5
1BF
100
AcDbEntity
  8
LAY-2
  6
CONTINUOUS
 62
     3
100
AcDbDimension
  2
*D21
 10
118.618186
 20
173.905925
 30
0.0
 11
112.618186
 21
183.905925
 31
0.0
 70
   160
  1
20
  3
STANDARD
100
AcDbAlignedDimension
 13
126.618186
 23
193.905925
 33
0.0
 14
131.318186
 24
173.905925
 34
0.0
 50
90.0
100
AcDbRotatedDimension
1001
ACAD
1000
DSTYLE
1002
{
1070
     6
1000
_EX_NORM
1070
     7
1000
_EX_NORM
1070
    41
1040
6.0
1070
    42
1040
1.0
1070
    44
1040
2.0
1070
    73
1070
     0
1070
    74
1070
     0
1070
    75
1070
     0
1070
    76
1070
     1
1070
    77
1070
     1
1070
    78
1070
     8
1070
   140
1040
8.0
1070
   147
1040
2.0
1070
   173
1070
     1
1070
   176
1070
     3
1070
   177
1070
     3
1070
   178
1070
     2
1070
   271
1070
     2
1070
   279
1070
     2
1070
   280
1070
     0
1070
   287
1070
     5
1070
   340
1005
160
1002
}
  0
LINE
  5
1C0
100
AcDbEntity
  8
LAY-2
  6
EXLTYPE2
 62
     6
100
AcDbLine
 10
181.318186
 20
242.605925
 30
0.0
 11
161.318186
 21
242.605925
 31
0.0
  0
LINE
  5
1C1
100
AcDbEntity
  8
LAY-2
  6
EXLTYPE2
 62
     6
100
AcDbLine
 10
181.318186
 20
240.405925
 30
0.0
 11
161.318186
 21
240.405925
 31
0.0
  0
LINE
  5
1C2
100
AcDbEntity
  8
LAY-2
  6
EXLTYPE2
 62
     6
100
AcDbLine
 10
181.318186
 20
235.405925
 30
0.0
 11
161.318186
 21
235.405925
 31
0.0
  0
LINE
  5
1C3
100
AcDbEntity
  8
LAY-2
  6
EXLTYPE2
 62
     6
100
AcDbLine
 10
181.318186
 20
233.205925
 30
0.0
 11
161.318186
 21
233.205925
 31
0.0
  0
ARC
  5
1C4
100
AcDbEntity
  8
LAY-2
  6
EXLTYPE2
 62
     6
100
AcDbCircle
 10
181.318186
 20
237.905925
 30
0.0
 40
2.5
100
AcDbArc
 50
270.0
 51
90.0
  0
ARC
  5
1C5
100
AcDbEntity
  8
LAY-2
  6
EXLTYPE2
 62
     6
100
AcDbCircle
 10
161.318186
 20
237.905925
 30
0.0
 40
2.5
100
AcDbArc
 50
90.0
 51
270.0
  0
ARC
  5
1C6
100
AcDbEntity
  8
LAY-2
  6
EXLTYPE4
 62
     6
100
AcDbCircle
 10
335.323141
 20
313.502908
 30
0.0
 40
35.0
100
AcDbArc
 50
336.42402
 51
40.846322
  0
POLYLINE
  5
1C7
100
AcDbEntity
  8
LAY-2
  6
EXLTYPE4
 62
     6
100
AcDb2dPolyline
 66
     1
 10
0.0
 20
0.0
 30
0.0
 70
   128
  0
VERTEX
  5
1C8
100
AcDbEntity
  8
LAY-2
  6
EXLTYPE4
 62
     6
100
AcDbVertex
100
AcDb2dVertex
 10
365.823928
 20
335.167338
 30
0.0
  0
VERTEX
  5
1C9
100
AcDbEntity
  8
LAY-2
  6
EXLTYPE4
 62
     6
100
AcDbVertex
100
AcDb2dVertex
 10
362.00106
 20
336.851602
 30
0.0
  0
VERTEX
  5
1CA
100
AcDbEntity
  8
LAY-2
  6
EXLTYPE4
 62
     6
100
AcDbVertex
100
AcDb2dVertex
 10
361.79947
 20
336.394041
 30
0.0
  0
SEQEND
  5
1CB
100
AcDbEntity
  8
LAY-2
  6
EXLTYPE4
 62
     6
  0
ARC
  5
1CC
100
AcDbEntity
  8
LAY-2
  6
EXLTYPE4
 62
     6
100
AcDbCircle
 10
339.948089
 20
311.599543
 30
0.0
 40
35.0
100
AcDbArc
 50
336.222864
 51
42.327356
  0
LINE
  5
1CD
100
AcDbEntity
  8
LAY-2
  6
EXLTYPE4
 62
     6
100
AcDbLine
 10
371.977312
 20
297.488238
 30
0.0
 11
354.460453
 21
257.72924
 31
0.0
  0
LINE
  5
1CE
100
AcDbEntity
  8
LAY-2
  6
EXLTYPE4
 62
     6
100
AcDbLine
 10
367.401708
 20
299.504139
 30
0.0
 11
350.164528
 21
260.379941
 31
0.0
  0
ARC
  5
1CF
100
AcDbEntity
  8
LAY-2
  6
EXLTYPE4
 62
     6
100
AcDbCircle
 10
345.588925
 20
262.395842
 30
0.0
 40
5.0
100
AcDbArc
 50
285.396313
 51
336.222864
  0
LINE
  5
1D0
100
AcDbEntity
  8
LAY-2
  6
CONTINUOUS
 62
     6
100
AcDbLine
 10
84.909381
 20
433.842154
 30
0.0
 11
88.318186
 21
435.197154
 31
0.0
  0
LINE
  5
1D1
100
AcDbEntity
  8
LAY-2
  6
CONTINUOUS
 62
     6
100
AcDbLine
 10
84.318186
 20
435.197154
 30
0.0
 11
88.318186
 21
436.787154
 31
0.0
  0
LINE
  5
1D2
100
AcDbEntity
  8
LAY-2
  6
CONTINUOUS
 62
     6
100
AcDbLine
 10
84.318186
 20
436.787154
 30
0.0
 11
88.318186
 21
438.377154
 31
0.0
  0
LINE
  5
1D3
100
AcDbEntity
  8
LAY-2
  6
CONTINUOUS
 62
     6
100
AcDbLine
 10
84.318186
 20
438.377154
 30
0.0
 11
88.318186
 21
439.967154
 31
0.0
  0
LINE
  5
1D4
100
AcDbEntity
  8
LAY-2
  6
CONTINUOUS
 62
     6
100
AcDbLine
 10
84.318186
 20
439.967154
 30
0.0
 11
88.318186
 21
441.557154
 31
0.0
  0
LINE
  5
1D5
100
AcDbEntity
  8
LAY-2
  6
CONTINUOUS
 62
     6
100
AcDbLine
 10
84.318186
 20
441.557154
 30
0.0
 11
88.318186
 21
443.147154
 31
0.0
  0
LINE
  5
1D6
100
AcDbEntity
  8
LAY-2
  6
CONTINUOUS
 62
     6
100
AcDbLine
 10
84.318186
 20
443.147154
 30
0.0
 11
88.318186
 21
444.737154
 31
0.0
  0
LINE
  5
1D7
100
AcDbEntity
  8
LAY-2
  6
CONTINUOUS
 62
     6
100
AcDbLine
 10
84.318186
 20
444.737154
 30
0.0
 11
88.318186
 21
446.327154
 31
0.0
  0
LINE
  5
1D8
100
AcDbEntity
  8
LAY-2
  6
CONTINUOUS
 62
     6
100
AcDbLine
 10
84.318186
 20
446.327154
 30
0.0
 11
88.318186
 21
447.917154
 31
0.0
  0
LINE
  5
1D9
100
AcDbEntity
  8
LAY-2
  6
CONTINUOUS
 62
     6
100
AcDbLine
 10
84.318186
 20
447.917154
 30
0.0
 11
88.318186
 21
449.507154
 31
0.0
  0
LINE
  5
1DA
100
AcDbEntity
  8
LAY-2
  6
CONTINUOUS
 62
     6
100
AcDbLine
 10
84.318186
 20
449.507154
 30
0.0
 11
88.318186
 21
451.097154
 31
0.0
  0
LINE
  5
1DB
100
AcDbEntity
  8
LAY-2
  6
CONTINUOUS
 62
     6
100
AcDbLine
 10
84.318186
 20
451.097154
 30
0.0
 11
88.318186
 21
452.687154
 31
0.0
  0
LINE
  5
1DC
100
AcDbEntity
  8
LAY-2
  6
CONTINUOUS
 62
     6
100
AcDbLine
 10
84.318186
 20
452.687154
 30
0.0
 11
88.318186
 21
454.277154
 31
0.0
  0
LINE
  5
1DD
100
AcDbEntity
  8
LAY-2
  6
CONTINUOUS
 62
     6
100
AcDbLine
 10
84.318186
 20
454.277154
 30
0.0
 11
88.318186
 21
455.867154
 31
0.0
  0
LINE
  5
1DE
100
AcDbEntity
  8
LAY-2
  6
CONTINUOUS
 62
     6
100
AcDbLine
 10
84.318186
 20
455.867154
 30
0.0
 11
87.807796
 21
457.254274
 31
0.0
  0
LINE
  5
1DF
100
AcDbEntity
  8
LAY-2
  6
CONTINUOUS
 62
     6
100
AcDbLine
 10
85.029775
 20
457.740011
 30
0.0
 11
87.242305
 21
458.619491
 31
0.0
  0
LINE
  5
1E0
100
AcDbEntity
  8
LAY-2
  6
CONTINUOUS
 62
     6
100
AcDbLine
 10
129.909381
 20
433.842154
 30
0.0
 11
133.318186
 21
435.197154
 31
0.0
  0
LINE
  5
1E1
100
AcDbEntity
  8
LAY-2
  6
CONTINUOUS
 62
     6
100
AcDbLine
 10
129.318186
 20
435.197154
 30
0.0
 11
133.318186
 21
436.787154
 31
0.0
  0
LINE
  5
1E2
100
AcDbEntity
  8
LAY-2
  6
CONTINUOUS
 62
     6
100
AcDbLine
 10
129.318186
 20
436.787154
 30
0.0
 11
133.318186
 21
438.377154
 31
0.0
  0
LINE
  5
1E3
100
AcDbEntity
  8
LAY-2
  6
CONTINUOUS
 62
     6
100
AcDbLine
 10
129.318186
 20
438.377154
 30
0.0
 11
133.318186
 21
439.967154
 31
0.0
  0
LINE
  5
1E4
100
AcDbEntity
  8
LAY-2
  6
CONTINUOUS
 62
     6
100
AcDbLine
 10
129.318186
 20
439.967154
 30
0.0
 11
133.318186
 21
441.557154
 31
0.0
  0
LINE
  5
1E5
100
AcDbEntity
  8
LAY-2
  6
CONTINUOUS
 62
     6
100
AcDbLine
 10
129.318186
 20
441.557154
 30
0.0
 11
133.318186
 21
443.147154
 31
0.0
  0
LINE
  5
1E6
100
AcDbEntity
  8
LAY-2
  6
CONTINUOUS
 62
     6
100
AcDbLine
 10
129.318186
 20
443.147154
 30
0.0
 11
133.318186
 21
444.737154
 31
0.0
  0
LINE
  5
1E7
100
AcDbEntity
  8
LAY-2
  6
CONTINUOUS
 62
     6
100
AcDbLine
 10
129.318186
 20
444.737154
 30
0.0
 11
133.318186
 21
446.327154
 31
0.0
  0
LINE
  5
1E8
100
AcDbEntity
  8
LAY-2
  6
CONTINUOUS
 62
     6
100
AcDbLine
 10
129.318186
 20
446.327154
 30
0.0
 11
133.318186
 21
447.917154
 31
0.0
  0
LINE
  5
1E9
100
AcDbEntity
  8
LAY-2
  6
CONTINUOUS
 62
     6
100
AcDbLine
 10
129.318186
 20
447.917154
 30
0.0
 11
133.318186
 21
449.507154
 31
0.0
  0
LINE
  5
1EA
100
AcDbEntity
  8
LAY-2
  6
CONTINUOUS
 62
     6
100
AcDbLine
 10
129.318186
 20
449.507154
 30
0.0
 11
133.318186
 21
451.097154
 31
0.0
  0
LINE
  5
1EB
100
AcDbEntity
  8
LAY-2
  6
CONTINUOUS
 62
     6
100
AcDbLine
 10
129.318186
 20
451.097154
 30
0.0
 11
133.318186
 21
452.687154
 31
0.0
  0
LINE
  5
1EC
100
AcDbEntity
  8
LAY-2
  6
CONTINUOUS
 62
     6
100
AcDbLine
 10
129.318186
 20
452.687154
 30
0.0
 11
133.318186
 21
454.277154
 31
0.0
  0
LINE
  5
1ED
100
AcDbEntity
  8
LAY-2
  6
CONTINUOUS
 62
     6
100
AcDbLine
 10
129.318186
 20
454.277154
 30
0.0
 11
133.318186
 21
455.867154
 31
0.0
  0
LINE
  5
1EE
100
AcDbEntity
  8
LAY-2
  6
CONTINUOUS
 62
     6
100
AcDbLine
 10
129.318186
 20
455.867154
 30
0.0
 11
132.807796
 21
457.254274
 31
0.0
  0
LINE
  5
1EF
100
AcDbEntity
  8
LAY-2
  6
CONTINUOUS
 62
     6
100
AcDbLine
 10
130.029775
 20
457.740011
 30
0.0
 11
132.242305
 21
458.619491
 31
0.0
  0
LINE
  5
1F0
100
AcDbEntity
  8
LAY-2
  6
CONTINUOUS
 62
     6
100
AcDbLine
 10
179.909381
 20
433.842154
 30
0.0
 11
183.318186
 21
435.197154
 31
0.0
  0
LINE
  5
1F1
100
AcDbEntity
  8
LAY-2
  6
CONTINUOUS
 62
     6
100
AcDbLine
 10
179.318186
 20
435.197154
 30
0.0
 11
183.318186
 21
436.787154
 31
0.0
  0
LINE
  5
1F2
100
AcDbEntity
  8
LAY-2
  6
CONTINUOUS
 62
     6
100
AcDbLine
 10
179.318186
 20
436.787154
 30
0.0
 11
183.318186
 21
438.377154
 31
0.0
  0
LINE
  5
1F3
100
AcDbEntity
  8
LAY-2
  6
CONTINUOUS
 62
     6
100
AcDbLine
 10
179.318186
 20
438.377154
 30
0.0
 11
183.318186
 21
439.967154
 31
0.0
  0
LINE
  5
1F4
100
AcDbEntity
  8
LAY-2
  6
CONTINUOUS
 62
     6
100
AcDbLine
 10
179.318186
 20
439.967154
 30
0.0
 11
183.318186
 21
441.557154
 31
0.0
  0
LINE
  5
1F5
100
AcDbEntity
  8
LAY-2
  6
CONTINUOUS
 62
     6
100
AcDbLine
 10
179.318186
 20
441.557154
 30
0.0
 11
183.318186
 21
443.147154
 31
0.0
  0
LINE
  5
1F6
100
AcDbEntity
  8
LAY-2
  6
CONTINUOUS
 62
     6
100
AcDbLine
 10
179.318186
 20
443.147154
 30
0.0
 11
183.318186
 21
444.737154
 31
0.0
  0
LINE
  5
1F7
100
AcDbEntity
  8
LAY-2
  6
CONTINUOUS
 62
     6
100
AcDbLine
 10
179.318186
 20
444.737154
 30
0.0
 11
183.318186
 21
446.327154
 31
0.0
  0
LINE
  5
1F8
100
AcDbEntity
  8
LAY-2
  6
CONTINUOUS
 62
     6
100
AcDbLine
 10
179.318186
 20
446.327154
 30
0.0
 11
183.318186
 21
447.917154
 31
0.0
  0
LINE
  5
1F9
100
AcDbEntity
  8
LAY-2
  6
CONTINUOUS
 62
     6
100
AcDbLine
 10
179.318186
 20
447.917154
 30
0.0
 11
183.318186
 21
449.507154
 31
0.0
  0
LINE
  5
1FA
100
AcDbEntity
  8
LAY-2
  6
CONTINUOUS
 62
     6
100
AcDbLine
 10
179.318186
 20
449.507154
 30
0.0
 11
183.318186
 21
451.097154
 31
0.0
  0
LINE
  5
1FB
100
AcDbEntity
  8
LAY-2
  6
CONTINUOUS
 62
     6
100
AcDbLine
 10
179.318186
 20
451.097154
 30
0.0
 11
183.318186
 21
452.687154
 31
0.0
  0
LINE
  5
1FC
100
AcDbEntity
  8
LAY-2
  6
CONTINUOUS
 62
     6
100
AcDbLine
 10
179.318186
 20
452.687154
 30
0.0
 11
183.318186
 21
454.277154
 31
0.0
  0
LINE
  5
1FD
100
AcDbEntity
  8
LAY-2
  6
CONTINUOUS
 62
     6
100
AcDbLine
 10
179.318186
 20
454.277154
 30
0.0
 11
183.318186
 21
455.867154
 31
0.0
  0
LINE
  5
1FE
100
AcDbEntity
  8
LAY-2
  6
CONTINUOUS
 62
     6
100
AcDbLine
 10
179.318186
 20
455.867154
 30
0.0
 11
182.807796
 21
457.254274
 31
0.0
  0
LINE
  5
1FF
100
AcDbEntity
  8
LAY-2
  6
CONTINUOUS
 62
     6
100
AcDbLine
 10
180.029775
 20
457.740011
 30
0.0
 11
182.242305
 21
458.619491
 31
0.0
  0
LINE
  5
200
100
AcDbEntity
  8
LAY-2
  6
CONTINUOUS
 62
     6
100
AcDbLine
 10
131.833186
 20
196.055925
 30
0.0
 11
130.803186
 21
196.055925
 31
0.0
  0
LINE
  5
201
100
AcDbEntity
  8
LAY-2
  6
CONTINUOUS
 62
     6
100
AcDbLine
 10
131.833186
 20
191.755925
 30
0.0
 11
130.803186
 21
191.755925
 31
0.0
  0
LINE
  5
202
100
AcDbEntity
  8
LAY-2
  6
CONTINUOUS
 62
     6
100
AcDbLine
 10
129.168186
 20
193.390925
 30
0.0
 11
129.168186
 21
194.420925
 31
0.0
  0
LINE
  5
203
100
AcDbEntity
  8
LAY-2
  6
CONTINUOUS
 62
     6
100
AcDbLine
 10
133.468186
 20
193.390925
 30
0.0
 11
133.468186
 21
194.420925
 31
0.0
  0
LINE
  5
204
100
AcDbEntity
  8
LAY-2
  6
CONTINUOUS
 62
     6
100
AcDbLine
 10
129.168186
 20
194.420925
 30
0.0
 11
130.148186
 21
194.420925
 31
0.0
  0
LINE
  5
205
100
AcDbEntity
  8
LAY-2
  6
CONTINUOUS
 62
     6
100
AcDbLine
 10
132.488186
 20
194.420925
 30
0.0
 11
133.468186
 21
194.420925
 31
0.0
  0
LINE
  5
206
100
AcDbEntity
  8
LAY-2
  6
CONTINUOUS
 62
     6
100
AcDbLine
 10
129.168186
 20
193.390925
 30
0.0
 11
130.148186
 21
193.390925
 31
0.0
  0
LINE
  5
207
100
AcDbEntity
  8
LAY-2
  6
CONTINUOUS
 62
     6
100
AcDbLine
 10
132.488186
 20
193.390925
 30
0.0
 11
133.468186
 21
193.390925
 31
0.0
  0
LINE
  5
208
100
AcDbEntity
  8
LAY-2
  6
CONTINUOUS
 62
     6
100
AcDbLine
 10
130.803186
 20
191.755925
 30
0.0
 11
130.803186
 21
192.735925
 31
0.0
  0
LINE
  5
209
100
AcDbEntity
  8
LAY-2
  6
CONTINUOUS
 62
     6
100
AcDbLine
 10
130.803186
 20
195.075925
 30
0.0
 11
130.803186
 21
196.055925
 31
0.0
  0
LINE
  5
20A
100
AcDbEntity
  8
LAY-2
  6
CONTINUOUS
 62
     6
100
AcDbLine
 10
131.833186
 20
191.755925
 30
0.0
 11
131.833186
 21
192.735925
 31
0.0
  0
LINE
  5
20B
100
AcDbEntity
  8
LAY-2
  6
CONTINUOUS
 62
     6
100
AcDbLine
 10
131.833186
 20
195.075925
 30
0.0
 11
131.833186
 21
196.055925
 31
0.0
  0
ARC
  5
20C
100
AcDbEntity
  8
LAY-2
  6
CONTINUOUS
 62
     6
100
AcDbCircle
 10
130.148186
 20
195.075925
 30
0.0
 40
0.655
100
AcDbArc
 50
270.0
 51
0.0
  0
ARC
  5
20D
100
AcDbEntity
  8
LAY-2
  6
CONTINUOUS
 62
     6
100
AcDbCircle
 10
132.488186
 20
195.075925
 30
0.0
 40
0.655
100
AcDbArc
 50
180.0
 51
270.0
  0
ARC
  5
20E
100
AcDbEntity
  8
LAY-2
  6
CONTINUOUS
 62
     6
100
AcDbCircle
 10
132.488186
 20
192.735925
 30
0.0
 40
0.655
100
AcDbArc
 50
90.0
 51
180.0
  0
ARC
  5
20F
100
AcDbEntity
  8
LAY-2
  6
CONTINUOUS
 62
     6
100
AcDbCircle
 10
130.148186
 20
192.735925
 30
0.0
 40
0.655
100
AcDbArc
 50
0.0
 51
90.0
  0
LINE
  5
210
100
AcDbEntity
  8
LAY-2
  6
EXLTYPE2
 62
     6
100
AcDbLine
 10
86.833186
 20
240.055925
 30
0.0
 11
85.803186
 21
240.055925
 31
0.0
  0
LINE
  5
211
100
AcDbEntity
  8
LAY-2
  6
EXLTYPE2
 62
     6
100
AcDbLine
 10
86.833186
 20
235.755925
 30
0.0
 11
85.803186
 21
235.755925
 31
0.0
  0
LINE
  5
212
100
AcDbEntity
  8
LAY-2
  6
EXLTYPE2
 62
     6
100
AcDbLine
 10
84.168186
 20
237.390925
 30
0.0
 11
84.168186
 21
238.420925
 31
0.0
  0
LINE
  5
213
100
AcDbEntity
  8
LAY-2
  6
EXLTYPE2
 62
     6
100
AcDbLine
 10
88.468186
 20
237.390925
 30
0.0
 11
88.468186
 21
238.420925
 31
0.0
  0
CIRCLE
  5
214
100
AcDbEntity
  8
LAY-2
  6
EXLTYPE2
 62
     6
100
AcDbCircle
 10
86.318186
 20
237.905925
 30
0.0
 40
4.7
  0
LINE
  5
215
100
AcDbEntity
  8
LAY-2
  6
EXLTYPE2
 62
     6
100
AcDbLine
 10
84.168186
 20
238.420925
 30
0.0
 11
85.148186
 21
238.420925
 31
0.0
  0
LINE
  5
216
100
AcDbEntity
  8
LAY-2
  6
EXLTYPE2
 62
     6
100
AcDbLine
 10
87.488186
 20
238.420925
 30
0.0
 11
88.468186
 21
238.420925
 31
0.0
  0
LINE
  5
217
100
AcDbEntity
  8
LAY-2
  6
EXLTYPE2
 62
     6
100
AcDbLine
 10
84.168186
 20
237.390925
 30
0.0
 11
85.148186
 21
237.390925
 31
0.0
  0
LINE
  5
218
100
AcDbEntity
  8
LAY-2
  6
EXLTYPE2
 62
     6
100
AcDbLine
 10
87.488186
 20
237.390925
 30
0.0
 11
88.468186
 21
237.390925
 31
0.0
  0
LINE
  5
219
100
AcDbEntity
  8
LAY-2
  6
EXLTYPE2
 62
     6
100
AcDbLine
 10
85.803186
 20
235.755925
 30
0.0
 11
85.803186
 21
236.735925
 31
0.0
  0
LINE
  5
21A
100
AcDbEntity
  8
LAY-2
  6
EXLTYPE2
 62
     6
100
AcDbLine
 10
85.803186
 20
239.075925
 30
0.0
 11
85.803186
 21
240.055925
 31
0.0
  0
LINE
  5
21B
100
AcDbEntity
  8
LAY-2
  6
EXLTYPE2
 62
     6
100
AcDbLine
 10
86.833186
 20
235.755925
 30
0.0
 11
86.833186
 21
236.735925
 31
0.0
  0
LINE
  5
21C
100
AcDbEntity
  8
LAY-2
  6
EXLTYPE2
 62
     6
100
AcDbLine
 10
86.833186
 20
239.075925
 30
0.0
 11
86.833186
 21
240.055925
 31
0.0
  0
ARC
  5
21D
100
AcDbEntity
  8
LAY-2
  6
EXLTYPE2
 62
     6
100
AcDbCircle
 10
85.148186
 20
239.075925
 30
0.0
 40
0.655
100
AcDbArc
 50
270.0
 51
0.0
  0
ARC
  5
21E
100
AcDbEntity
  8
LAY-2
  6
EXLTYPE2
 62
     6
100
AcDbCircle
 10
87.488186
 20
239.075925
 30
0.0
 40
0.655
100
AcDbArc
 50
180.0
 51
270.0
  0
ARC
  5
21F
100
AcDbEntity
  8
LAY-2
  6
EXLTYPE2
 62
     6
100
AcDbCircle
 10
87.488186
 20
236.735925
 30
0.0
 40
0.655
100
AcDbArc
 50
90.0
 51
180.0
  0
ARC
  5
220
100
AcDbEntity
  8
LAY-2
  6
EXLTYPE2
 62
     6
100
AcDbCircle
 10
85.148186
 20
236.735925
 30
0.0
 40
0.655
100
AcDbArc
 50
0.0
 51
90.0
  0
LINE
  5
221
100
AcDbEntity
  8
LAY-2
  6
EXLTYPE2
 62
     6
100
AcDbLine
 10
181.833186
 20
240.055925
 30
0.0
 11
180.803186
 21
240.055925
 31
0.0
  0
LINE
  5
222
100
AcDbEntity
  8
LAY-2
  6
EXLTYPE2
 62
     6
100
AcDbLine
 10
181.833186
 20
235.755925
 30
0.0
 11
180.803186
 21
235.755925
 31
0.0
  0
LINE
  5
223
100
AcDbEntity
  8
LAY-2
  6
EXLTYPE2
 62
     6
100
AcDbLine
 10
179.168186
 20
237.390925
 30
0.0
 11
179.168186
 21
238.420925
 31
0.0
  0
LINE
  5
224
100
AcDbEntity
  8
LAY-2
  6
EXLTYPE2
 62
     6
100
AcDbLine
 10
183.468186
 20
237.390925
 30
0.0
 11
183.468186
 21
238.420925
 31
0.0
  0
LINE
  5
225
100
AcDbEntity
  8
LAY-2
  6
EXLTYPE2
 62
     6
100
AcDbLine
 10
179.168186
 20
238.420925
 30
0.0
 11
180.148186
 21
238.420925
 31
0.0
  0
LINE
  5
226
100
AcDbEntity
  8
LAY-2
  6
EXLTYPE2
 62
     6
100
AcDbLine
 10
182.488186
 20
238.420925
 30
0.0
 11
183.468186
 21
238.420925
 31
0.0
  0
LINE
  5
227
100
AcDbEntity
  8
LAY-2
  6
EXLTYPE2
 62
     6
100
AcDbLine
 10
179.168186
 20
237.390925
 30
0.0
 11
180.148186
 21
237.390925
 31
0.0
  0
LINE
  5
228
100
AcDbEntity
  8
LAY-2
  6
EXLTYPE2
 62
     6
100
AcDbLine
 10
182.488186
 20
237.390925
 30
0.0
 11
183.468186
 21
237.390925
 31
0.0
  0
LINE
  5
229
100
AcDbEntity
  8
LAY-2
  6
EXLTYPE2
 62
     6
100
AcDbLine
 10
180.803186
 20
235.755925
 30
0.0
 11
180.803186
 21
236.735925
 31
0.0
  0
LINE
  5
22A
100
AcDbEntity
  8
LAY-2
  6
EXLTYPE2
 62
     6
100
AcDbLine
 10
180.803186
 20
239.075925
 30
0.0
 11
180.803186
 21
240.055925
 31
0.0
  0
LINE
  5
22B
100
AcDbEntity
  8
LAY-2
  6
EXLTYPE2
 62
     6
100
AcDbLine
 10
181.833186
 20
235.755925
 30
0.0
 11
181.833186
 21
236.735925
 31
0.0
  0
LINE
  5
22C
100
AcDbEntity
  8
LAY-2
  6
EXLTYPE2
 62
     6
100
AcDbLine
 10
181.833186
 20
239.075925
 30
0.0
 11
181.833186
 21
240.055925
 31
0.0
  0
ARC
  5
22D
100
AcDbEntity
  8
LAY-2
  6
EXLTYPE2
 62
     6
100
AcDbCircle
 10
180.148186
 20
239.075925
 30
0.0
 40
0.655
100
AcDbArc
 50
270.0
 51
0.0
  0
ARC
  5
22E
100
AcDbEntity
  8
LAY-2
  6
EXLTYPE2
 62
     6
100
AcDbCircle
 10
182.488186
 20
239.075925
 30
0.0
 40
0.655
100
AcDbArc
 50
180.0
 51
270.0
  0
ARC
  5
22F
100
AcDbEntity
  8
LAY-2
  6
EXLTYPE2
 62
     6
100
AcDbCircle
 10
182.488186
 20
236.735925
 30
0.0
 40
0.655
100
AcDbArc
 50
90.0
 51
180.0
  0
ARC
  5
230
100
AcDbEntity
  8
LAY-2
  6
EXLTYPE2
 62
     6
100
AcDbCircle
 10
180.148186
 20
236.735925
 30
0.0
 40
0.655
100
AcDbArc
 50
0.0
 51
90.0
  0
ARC
  5
231
100
AcDbEntity
  8
LAY-2
  6
EXLTYPE2
 62
     6
100
AcDbCircle
 10
161.318186
 20
237.905925
 30
0.0
 40
4.7
100
AcDbArc
 50
90.0
 51
270.0
  0
CIRCLE
  5
232
100
AcDbEntity
  8
LAY-2
  6
EXLTYPE2
 62
     6
100
AcDbCircle
 10
181.318186
 20
237.905925
 30
0.0
 40
4.7
  0
LINE
  5
233
100
AcDbEntity
  8
LAY-2
  6
CONTINUOUS
 62
     6
100
AcDbLine
 10
363.11804
 20
239.31473
 30
0.0
 11
364.47304
 21
235.905925
 31
0.0
  0
LINE
  5
234
100
AcDbEntity
  8
LAY-2
  6
CONTINUOUS
 62
     6
100
AcDbLine
 10
364.47304
 20
239.905925
 30
0.0
 11
366.06304
 21
235.905925
 31
0.0
  0
LINE
  5
235
100
AcDbEntity
  8
LAY-2
  6
CONTINUOUS
 62
     6
100
AcDbLine
 10
366.06304
 20
239.905925
 30
0.0
 11
367.65304
 21
235.905925
 31
0.0
  0
LINE
  5
236
100
AcDbEntity
  8
LAY-2
  6
CONTINUOUS
 62
     6
100
AcDbLine
 10
367.65304
 20
239.905925
 30
0.0
 11
369.24304
 21
235.905925
 31
0.0
  0
LINE
  5
237
100
AcDbEntity
  8
LAY-2
  6
CONTINUOUS
 62
     6
100
AcDbLine
 10
369.24304
 20
239.905925
 30
0.0
 11
370.83304
 21
235.905925
 31
0.0
  0
LINE
  5
238
100
AcDbEntity
  8
LAY-2
  6
CONTINUOUS
 62
     6
100
AcDbLine
 10
370.83304
 20
239.905925
 30
0.0
 11
372.42304
 21
235.905925
 31
0.0
  0
LINE
  5
239
100
AcDbEntity
  8
LAY-2
  6
CONTINUOUS
 62
     6
100
AcDbLine
 10
372.42304
 20
239.905925
 30
0.0
 11
374.01304
 21
235.905925
 31
0.0
  0
LINE
  5
23A
100
AcDbEntity
  8
LAY-2
  6
CONTINUOUS
 62
     6
100
AcDbLine
 10
374.01304
 20
239.905925
 30
0.0
 11
375.60304
 21
235.905925
 31
0.0
  0
LINE
  5
23B
100
AcDbEntity
  8
LAY-2
  6
CONTINUOUS
 62
     6
100
AcDbLine
 10
375.60304
 20
239.905925
 30
0.0
 11
377.19304
 21
235.905925
 31
0.0
  0
LINE
  5
23C
100
AcDbEntity
  8
LAY-2
  6
CONTINUOUS
 62
     6
100
AcDbLine
 10
377.19304
 20
239.905925
 30
0.0
 11
378.78304
 21
235.905925
 31
0.0
  0
LINE
  5
23D
100
AcDbEntity
  8
LAY-2
  6
CONTINUOUS
 62
     6
100
AcDbLine
 10
378.78304
 20
239.905925
 30
0.0
 11
380.37304
 21
235.905925
 31
0.0
  0
LINE
  5
23E
100
AcDbEntity
  8
LAY-2
  6
CONTINUOUS
 62
     6
100
AcDbLine
 10
380.37304
 20
239.905925
 30
0.0
 11
381.96304
 21
235.905925
 31
0.0
  0
LINE
  5
23F
100
AcDbEntity
  8
LAY-2
  6
CONTINUOUS
 62
     6
100
AcDbLine
 10
381.96304
 20
239.905925
 30
0.0
 11
383.55304
 21
235.905925
 31
0.0
  0
LINE
  5
240
100
AcDbEntity
  8
LAY-2
  6
CONTINUOUS
 62
     6
100
AcDbLine
 10
383.55304
 20
239.905925
 30
0.0
 11
385.14304
 21
235.905925
 31
0.0
  0
LINE
  5
241
100
AcDbEntity
  8
LAY-2
  6
CONTINUOUS
 62
     6
100
AcDbLine
 10
385.14304
 20
239.905925
 30
0.0
 11
386.53016
 21
236.416315
 31
0.0
  0
LINE
  5
242
100
AcDbEntity
  8
LAY-2
  6
CONTINUOUS
 62
     6
100
AcDbLine
 10
387.015897
 20
239.194337
 30
0.0
 11
387.895377
 21
236.981807
 31
0.0
  0
LINE
  5
243
100
AcDbEntity
  8
LAY-2
  6
CONTINUOUS
 62
     6
100
AcDbLine
 10
363.11804
 20
195.31473
 30
0.0
 11
364.47304
 21
191.905925
 31
0.0
  0
LINE
  5
244
100
AcDbEntity
  8
LAY-2
  6
CONTINUOUS
 62
     6
100
AcDbLine
 10
364.47304
 20
195.905925
 30
0.0
 11
366.06304
 21
191.905925
 31
0.0
  0
LINE
  5
245
100
AcDbEntity
  8
LAY-2
  6
CONTINUOUS
 62
     6
100
AcDbLine
 10
366.06304
 20
195.905925
 30
0.0
 11
367.65304
 21
191.905925
 31
0.0
  0
LINE
  5
246
100
AcDbEntity
  8
LAY-2
  6
CONTINUOUS
 62
     6
100
AcDbLine
 10
367.65304
 20
195.905925
 30
0.0
 11
369.24304
 21
191.905925
 31
0.0
  0
LINE
  5
247
100
AcDbEntity
  8
LAY-2
  6
CONTINUOUS
 62
     6
100
AcDbLine
 10
369.24304
 20
195.905925
 30
0.0
 11
370.83304
 21
191.905925
 31
0.0
  0
LINE
  5
248
100
AcDbEntity
  8
LAY-2
  6
CONTINUOUS
 62
     6
100
AcDbLine
 10
370.83304
 20
195.905925
 30
0.0
 11
372.42304
 21
191.905925
 31
0.0
  0
LINE
  5
249
100
AcDbEntity
  8
LAY-2
  6
CONTINUOUS
 62
     6
100
AcDbLine
 10
372.42304
 20
195.905925
 30
0.0
 11
374.01304
 21
191.905925
 31
0.0
  0
LINE
  5
24A
100
AcDbEntity
  8
LAY-2
  6
CONTINUOUS
 62
     6
100
AcDbLine
 10
374.01304
 20
195.905925
 30
0.0
 11
375.60304
 21
191.905925
 31
0.0
  0
LINE
  5
24B
100
AcDbEntity
  8
LAY-2
  6
CONTINUOUS
 62
     6
100
AcDbLine
 10
375.60304
 20
195.905925
 30
0.0
 11
377.19304
 21
191.905925
 31
0.0
  0
LINE
  5
24C
100
AcDbEntity
  8
LAY-2
  6
CONTINUOUS
 62
     6
100
AcDbLine
 10
377.19304
 20
195.905925
 30
0.0
 11
378.78304
 21
191.905925
 31
0.0
  0
LINE
  5
24D
100
AcDbEntity
  8
LAY-2
  6
CONTINUOUS
 62
     6
100
AcDbLine
 10
378.78304
 20
195.905925
 30
0.0
 11
380.37304
 21
191.905925
 31
0.0
  0
LINE
  5
24E
100
AcDbEntity
  8
LAY-2
  6
CONTINUOUS
 62
     6
100
AcDbLine
 10
380.37304
 20
195.905925
 30
0.0
 11
381.96304
 21
191.905925
 31
0.0
  0
LINE
  5
24F
100
AcDbEntity
  8
LAY-2
  6
CONTINUOUS
 62
     6
100
AcDbLine
 10
381.96304
 20
195.905925
 30
0.0
 11
383.55304
 21
191.905925
 31
0.0
  0
LINE
  5
250
100
AcDbEntity
  8
LAY-2
  6
CONTINUOUS
 62
     6
100
AcDbLine
 10
383.55304
 20
195.905925
 30
0.0
 11
385.14304
 21
191.905925
 31
0.0
  0
LINE
  5
251
100
AcDbEntity
  8
LAY-2
  6
CONTINUOUS
 62
     6
100
AcDbLine
 10
385.14304
 20
195.905925
 30
0.0
 11
386.53016
 21
192.416315
 31
0.0
  0
LINE
  5
252
100
AcDbEntity
  8
LAY-2
  6
CONTINUOUS
 62
     6
100
AcDbLine
 10
387.015897
 20
195.194337
 30
0.0
 11
387.895377
 21
192.981807
 31
0.0
  0
LINE
  5
253
100
AcDbEntity
  8
LAY-2
  6
EXLTYPE4
 62
     6
100
AcDbLine
 10
79.318186
 20
139.305925
 30
0.0
 11
79.318186
 21
226.724214
 31
0.0
  0
LINE
  5
254
100
AcDbEntity
  8
LAY-2
  6
EXLTYPE4
 62
     6
100
AcDbLine
 10
183.318186
 20
139.305925
 30
0.0
 11
183.318186
 21
226.724214
 31
0.0
  0
LINE
  5
255
100
AcDbEntity
  8
LAY-2
  6
EXLTYPE4
 62
     6
100
AcDbLine
 10
183.318186
 20
139.305925
 30
0.0
 11
79.318186
 21
139.305925
 31
0.0
  0
ARC
  5
256
100
AcDbEntity
  8
LAY-2
  6
EXLTYPE4
 62
     6
100
AcDbCircle
 10
289.41804
 20
187.305925
 30
0.0
 40
48.0
100
AcDbArc
 50
120.29878
 51
344.484676
  0
LINE
  5
257
100
AcDbEntity
  8
LAY-2
  6
EXLTYPE2
 62
     6
100
AcDbLine
 10
40.0
 20
296.0
 30
0.0
 11
-2.2
 21
296.0
 31
0.0
  0
ENDSEC
  0
SECTION
  2
OBJECTS
  0
DICTIONARY
  5
19
100
AcDbDictionary
  3
ACAD_GROUP
350
1A
  3
ACAD_MLINESTYLE
350
1B
  0
DICTIONARY
  5
1A
102
{ACAD_REACTORS
330
19
102
}
100
AcDbDictionary
  0
DICTIONARY
  5
1B
102
{ACAD_REACTORS
330
19
102
}
100
AcDbDictionary
  3
STANDARD
350
1C
  0
MLINESTYLE
  5
1C
102
{ACAD_REACTORS
330
1B
102
}
100
AcDbMlineStyle
  2
Standard
 70
     0
  3

 62
     0
 51
90.0
 52
90.0
 71
     2
 49
0.5
 62
   256
  6
ByLayer
 49
-0.5
 62
   256
  6
ByLayer
  0
ENDSEC
  0
EOF
