  0
SECTION
  2
HEADER
  9
$ACADVER
  1
AC1014
  9
$ACADMAINTVER
 70
     0
  9
$DWGCODEPAGE
  3
ANSI_932
  9
$INSBASE
 10
0.0
 20
0.0
 30
0.0
  9
$EXTMIN
 10
-0.1
 20
11.5
 30
0.0
  9
$EXTMAX
 10
199.9
 20
291.5
 30
0.0
  9
$LIMMIN
 10
0.0
 20
0.0
  9
$LIMMAX
 10
210.0
 20
297.0
  9
$ORTHOMODE
 70
     0
  9
$REGENMODE
 70
     1
  9
$FILLMODE
 70
     1
  9
$QTEXTMODE
 70
     0
  9
$MIRRTEXT
 70
     1
  9
$DRAGMODE
 70
     2
  9
$LTSCALE
 40
1.0
  9
$OSMODE
 70
     0
  9
$ATTMODE
 70
     1
  9
$TEXTSIZE
 40
0.2
  9
$TRACEWID
 40
0.05
  9
$TEXTSTYLE
  7
STANDARD
  9
$CLAYER
  8
LAY-1
  9
$CELTYPE
  6
CONTINUOUS
  9
$CECOLOR
 62
   256
  9
$CELTSCALE
 40
1.0
  9
$DELOBJ
 70
     1
  9
$DISPSILH
 70
     0
  9
$DIMSCALE
 40
1.0
  9
$DIMASZ
 40
0.18
  9
$DIMEXO
 40
0.0625
  9
$DIMDLI
 40
0.38
  9
$DIMRND
 40
0.0
  9
$DIMDLE
 40
0.0
  9
$DIMEXE
 40
0.18
  9
$DIMTP
 40
0.0
  9
$DIMTM
 40
0.0
  9
$DIMTXT
 40
0.18
  9
$DIMCEN
 40
0.09
  9
$DIMTSZ
 40
0.0
  9
$DIMTOL
 70
     0
  9
$DIMLIM
 70
     0
  9
$DIMTIH
 70
     1
  9
$DIMTOH
 70
     1
  9
$DIMSE1
 70
     0
  9
$DIMSE2
 70
     0
  9
$DIMTAD
 70
     0
  9
$DIMZIN
 70
     0
  9
$DIMBLK
  1

  9
$DIMASO
 70
     1
  9
$DIMSHO
 70
     1
  9
$DIMPOST
  1

  9
$DIMAPOST
  1

  9
$DIMALT
 70
     0
  9
$DIMALTD
 70
     2
  9
$DIMALTF
 40
25.4
  9
$DIMLFAC
 40
1.0
  9
$DIMTOFL
 70
     0
  9
$DIMTVP
 40
0.0
  9
$DIMTIX
 70
     0
  9
$DIMSOXD
 70
     0
  9
$DIMSAH
 70
     0
  9
$DIMBLK1
  1

  9
$DIMBLK2
  1

  9
$DIMSTYLE
  2
STANDARD
  9
$DIMCLRD
 70
     0
  9
$DIMCLRE
 70
     0
  9
$DIMCLRT
 70
     0
  9
$DIMTFAC
 40
1.0
  9
$DIMGAP
 40
0.09
  9
$DIMJUST
 70
     0
  9
$DIMSD1
 70
     0
  9
$DIMSD2
 70
     0
  9
$DIMTOLJ
 70
     1
  9
$DIMTZIN
 70
     0
  9
$DIMALTZ
 70
     0
  9
$DIMALTTZ
 70
     0
  9
$DIMFIT
 70
     3
  9
$DIMUPT
 70
     0
  9
$DIMUNIT
 70
     2
  9
$DIMDEC
 70
     4
  9
$DIMTDEC
 70
     4
  9
$DIMALTU
 70
     2
  9
$DIMALTTD
 70
     2
  9
$DIMTXSTY
  7
STANDARD
  9
$DIMAUNIT
 70
     0
  9
$LUNITS
 70
     2
  9
$LUPREC
 70
     4
  9
$SKETCHINC
 40
0.1
  9
$FILLETRAD
 40
0.0
  9
$AUNITS
 70
     0
  9
$AUPREC
 70
     0
  9
$MENU
  1
acad
  9
$ELEVATION
 40
0.0
  9
$PELEVATION
 40
0.0
  9
$THICKNESS
 40
0.0
  9
$LIMCHECK
 70
     0
  9
$BLIPMODE
 70
     1
  9
$CHAMFERA
 40
0.0
  9
$CHAMFERB
 40
0.0
  9
$CHAMFERC
 40
0.0
  9
$CHAMFERD
 40
0.0
  9
$SKPOLY
 70
     0
  9
$TDCREATE
 40
2454512.142092650
  9
$TDUPDATE
 40
2454512.142092650
  9
$TDINDWG
 40
0.0000000000
  9
$TDUSRTIMER
 40
0.0000000000
  9
$USRTIMER
 70
     1
  9
$ANGBASE
 50
0.0
  9
$ANGDIR
 70
     0
  9
$PDMODE
 70
     0
  9
$PDSIZE
 40
0.0
  9
$PLINEWID
 40
0.0
  9
$COORDS
 70
     1
  9
$SPLFRAME
 70
     0
  9
$SPLINETYPE
 70
     6
  9
$SPLINESEGS
 70
     8
  9
$ATTDIA
 70
     0
  9
$ATTREQ
 70
     1
  9
$HANDLING
 70
     1
  9
$HANDSEED
  5
319
  9
$SURFTAB1
 70
     6
  9
$SURFTAB2
 70
     6
  9
$SURFTYPE
 70
     6
  9
$SURFU
 70
     6
  9
$SURFV
 70
     6
  9
$UCSNAME
  2

  9
$UCSORG
 10
0.0
 20
0.0
 30
0.0
  9
$UCSXDIR
 10
1.0
 20
0.0
 30
0.0
  9
$UCSYDIR
 10
0.0
 20
1.0
 30
0.0
  9
$PUCSNAME
  2

  9
$PUCSORG
 10
0.0
 20
0.0
 30
0.0
  9
$PUCSXDIR
 10
1.0
 20
0.0
 30
0.0
  9
$PUCSYDIR
 10
0.0
 20
1.0
 30
0.0
  9
$USERI1
 70
     0
  9
$USERI2
 70
     0
  9
$USERI3
 70
     0
  9
$USERI4
 70
     0
  9
$USERI5
 70
     0
  9
$USERR1
 40
0.0
  9
$USERR2
 40
0.0
  9
$USERR3
 40
0.0
  9
$USERR4
 40
0.0
  9
$USERR5
 40
0.0
  9
$WORLDVIEW
 70
     1
  9
$SHADEDGE
 70
     3
  9
$SHADEDIF
 70
    70
  9
$TILEMODE
 70
     1
  9
$MAXACTVP
 70
    16
  9
$PINSBASE
 10
0.0
 20
0.0
 30
0.0
  9
$PLIMCHECK
 70
     0
  9
$PEXTMIN
 10
1.000000E+20
 20
1.000000E+20
 30
1.000000E+20
  9
$PEXTMAX
 10
-1.000000E+20
 20
-1.000000E+20
 30
-1.000000E+20
  9
$PLIMMIN
 10
0.0
 20
0.0
  9
$PLIMMAX
 10
12.0
 20
9.0
  9
$UNITMODE
 70
     0
  9
$VISRETAIN
 70
     0
  9
$PLINEGEN
 70
     1
  9
$PSLTSCALE
 70
     0
  9
$TREEDEPTH
 70
  3020
  9
$PICKSTYLE
 70
     1
  9
$CMLSTYLE
  2
Standard
  9
$CMLJUST
 70
     0
  9
$CMLSCALE
 40
1.0
  9
$PROXYGRAPHICS
 70
     0
  9
$MEASUREMENT
 70
     0
  0
ENDSEC
  0
SECTION
  2
CLASSES
  0
CLASS
  1
LWPOLYLINE
  2
AcDbPolyline
  3
"AutoCAD"
 90
        0
280
     0
281
     1
  0
CLASS
  1
IMAGE
  2
AcDbRasterImage
  3
ISM
 90
      127
280
     0
281
     1
  0
CLASS
  1
OLE2FRAME
  2
AcDbOle2Frame
  3
""
 90
        0
280
     0
281
     1
  0
CLASS
  1
HATCH
  2
AcDbHatch
  3
"ACAD_SEDONA"
 90
        0
280
     0
281
     1
  0
CLASS
  1
DICTIONARYVAR
  2
AcDbDictionaryVar
  3
"AutoCAD"
 90
        0
280
     0
281
     0
  0
CLASS
  1
RASTERVARIABLES
  2
AcDbRasterVariables
  3
ISM
 90
        0
280
     0
281
     0
  0
CLASS
  1
IMAGEDEF
  2
AcDbRasterImageDef
  3
ISM
 90
        0
280
     0
281
     0
  0
CLASS
  1
IMAGEDEF_REACTOR
  2
AcDbRasterImageDefReactor
  3
ISM
 90
        1
280
     0
281
     0
  0
CLASS
  1
IDBUFFER
  2
AcDbIdBuffer
  3
"Acad"
 90
        0
280
     0
281
     0
  0
CLASS
  1
SPATIAL_FILTER
  2
AcDbSpatialFilter
  3
"Acad"
 90
        0
280
     0
281
     0
  0
CLASS
  1
XRECORD
  2
AcDbXrecord
  3
"<Built In>"
 90
        0
280
     0
281
     0
  0
CLASS
  1
SORTENTSTABLE
  2
AcDbSortentsTable
  3
"AutoCAD"
 90
        0
280
     0
281
     0
  0
CLASS
  1
LAYER_INDEX
  2
AcDbLayerIndex
  3
"Acad"
 90
        0
280
     0
281
     0
  0
CLASS
  1
SPATIAL_INDEX
  2
AcDbSpatialIndex
  3
"Acad"
 90
        0
280
     0
281
     0
  0
CLASS
  1
OBJECT_PTR
  2
CAseDLPNTableRecord
  3
"ASE-LPNTableRecord"
 90
        1
280
     0
281
     0
  0
CLASS
  1
LAYOUT
  2
AcDbLayout
  3
"AutoCAD 2000"
 90
        1
280
     0
281
     0
  0
CLASS
  1
PLOTSETTINGS
  2
AcDbPlotSettings
  3
"AutoCAD 2000"
 90
        1
280
     0
281
     0
  0
CLASS
  1
ACDBDICTIONARYWDFLT
  2
AcDbDictionaryWithDefault
  3
"AutoCAD 2000"
 90
        1
280
     0
281
     0
  0
CLASS
  1
ACDBPLACEHOLDER
  2
AcDbPlaceHolder
  3
"AutoCAD 2000"
 90
        1
280
     0
281
     0
  0
CLASS
  1
VBA_PROJECT
  2
AcDbVbaProject
  3
"acadvba"
 90
        1
280
     0
281
     0
  0
CLASS
  1
WIPEOUT
  2
AcDbWipeout
  3
WipeOut|AutoCAD Express Tool|expresstools@autodesk.com
 90
      127
280
     0
281
     1
  0
CLASS
  1
WIPEOUTVARIABLES
  2
AcDbWipeoutVariables
  3
WipeOut|AutoCAD Express Tool|expresstools@autodesk.com
 90
        0
280
     0
281
     0
  0
CLASS
  1
RTEXT
  2
RText
  3
RText|AutoCAD Express Tool|expresstools@autodesk.com
 90
        0
280
     0
281
     1
  0
CLASS
  1
ARCALIGNEDTEXT
  2
AcDbArcAlignedText
  3
ATEXT|AutoCAD Express Tool|expresstools@autodesk.com
 90
        0
280
     0
281
     1
  0
ENDSEC
  0
SECTION
  2
TABLES
  0
TABLE
  2
VPORT
  5
7
100
AcDbSymbolTable
 70
     1
  0
VPORT
  5
15
100
AcDbSymbolTableRecord
100
AcDbViewportTableRecord
  2
*ACTIVE
 70
     0
 10
0.0
 20
0.0
 11
1.0
 21
1.0
 12
199.8
 22
303.0
 13
0.0
 23
0.0
 14
1.0
 24
1.0
 15
0.0
 25
0.0
 16
0.0
 26
0.0
 36
1.0
 17
0.0
 27
0.0
 37
0.0
 40
560.0
 41
1.722533
 42
50.0
 43
0.0
 44
0.0
 50
0.0
 51
0.0
 71
     0
 72
   100
 73
     1
 74
     1
 75
     0
 76
     0
 77
     0
 78
     0
  0
ENDTAB
  0
TABLE
  2
LTYPE
  5
4
100
AcDbSymbolTable
 70
     9
  0
LTYPE
  5
11
100
AcDbSymbolTableRecord
100
AcDbLinetypeTableRecord
  2
BYBLOCK
 70
    64
  3

 72
    65
 73
     0
 40
0.0
  0
LTYPE
  5
12
100
AcDbSymbolTableRecord
100
AcDbLinetypeTableRecord
  2
BYLAYER
 70
    64
  3

 72
    65
 73
     0
 40
0.0
  0
LTYPE
  5
13
100
AcDbSymbolTableRecord
100
AcDbLinetypeTableRecord
  2
CONTINUOUS
 70
    64
  3
実線
 72
    65
 73
     0
 40
0.0
  0
LTYPE
  5
1D
100
AcDbSymbolTableRecord
100
AcDbLinetypeTableRecord
  2
EXLTYPE1
 70
    64
  3
破線
 72
    65
 73
     2
 40
3.0
 49
2.0
 74
     0
 49
-1.0
 74
     0
  0
LTYPE
  5
1E
100
AcDbSymbolTableRecord
100
AcDbLinetypeTableRecord
  2
EXLTYPE2
 70
    64
  3
点線
 72
    65
 73
     2
 40
2.0
 49
1.0
 74
     0
 49
-1.0
 74
     0
  0
LTYPE
  5
1F
100
AcDbSymbolTableRecord
100
AcDbLinetypeTableRecord
  2
EXLTYPE3
 70
    64
  3
一点鎖線
 72
    65
 73
     4
 40
10.0
 49
7.0
 74
     0
 49
-1.0
 74
     0
 49
1.0
 74
     0
 49
-1.0
 74
     0
  0
LTYPE
  5
20
100
AcDbSymbolTableRecord
100
AcDbLinetypeTableRecord
  2
EXLTYPE4
 70
    64
  3
二点鎖線
 72
    65
 73
     6
 40
12.0
 49
7.0
 74
     0
 49
-1.0
 74
     0
 49
1.0
 74
     0
 49
-1.0
 74
     0
 49
1.0
 74
     0
 49
-1.0
 74
     0
  0
LTYPE
  5
21
100
AcDbSymbolTableRecord
100
AcDbLinetypeTableRecord
  2
EXLTYPE5
 70
    64
  3
三点鎖線
 72
    65
 73
     8
 40
37.0
 49
30.0
 74
     0
 49
-1.0
 74
     0
 49
1.0
 74
     0
 49
-1.0
 74
     0
 49
1.0
 74
     0
 49
-1.0
 74
     0
 49
1.0
 74
     0
 49
-1.0
 74
     0
  0
LTYPE
  5
22
100
AcDbSymbolTableRecord
100
AcDbLinetypeTableRecord
  2
EXLTYPE6
 70
    64
  3
四点鎖線
 72
    65
 73
    10
 40
39.0
 49
30.0
 74
     0
 49
-1.0
 74
     0
 49
1.0
 74
     0
 49
-1.0
 74
     0
 49
1.0
 74
     0
 49
-1.0
 74
     0
 49
1.0
 74
     0
 49
-1.0
 74
     0
 49
1.0
 74
     0
 49
-1.0
 74
     0
  0
ENDTAB
  0
TABLE
  2
LAYER
  5
2
100
AcDbSymbolTable
 70
     4
  0
LAYER
  5
14
100
AcDbSymbolTableRecord
100
AcDbLayerTableRecord
  2
0
 70
     0
 62
     7
  6
CONTINUOUS
  0
LAYER
  5
25
100
AcDbSymbolTableRecord
100
AcDbLayerTableRecord
  2
LAY-1
 70
    64
 62
     7
  6
CONTINUOUS
  0
LAYER
  5
26
100
AcDbSymbolTableRecord
100
AcDbLayerTableRecord
  2
LAY-2
 70
    64
 62
     7
  6
CONTINUOUS
  0
LAYER
  5
27
100
AcDbSymbolTableRecord
100
AcDbLayerTableRecord
  2
LAY-3
 70
    64
 62
     7
  6
CONTINUOUS
  0
ENDTAB
  0
TABLE
  2
STYLE
  5
3
100
AcDbSymbolTable
 70
     4
  0
STYLE
  5
17
100
AcDbSymbolTableRecord
100
AcDbTextStyleTableRecord
  2
STANDARD
 70
     0
 40
0.0
 41
1.0
 50
0.0
 71
     0
 42
0.0
  3
monotxt
  4
extfont
  0
STYLE
  5
23
100
AcDbSymbolTableRecord
100
AcDbTextStyleTableRecord
  2
EXCADSTD
 70
    64
 40
0.0
 41
1.0
 50
0.0
 71
     0
 42
0.2
  3
monotxt
  4
extfont
  0
STYLE
  5
24
100
AcDbSymbolTableRecord
100
AcDbTextStyleTableRecord
  2
EXCADVERT
 70
    68
 40
0.0
 41
1.0
 50
0.0
 71
     0
 42
0.286885
  3
monotxt
  4
extfont
  0
STYLE
  5
D9
100
AcDbSymbolTableRecord
100
AcDbTextStyleTableRecord
  2
EXCADDIM1
 70
    64
 40
0.0
 41
0.84
 50
0.0
 71
     0
 42
0.2
  3
monotxt
  4
extfont
  0
ENDTAB
  0
TABLE
  2
VIEW
  5
5
100
AcDbSymbolTable
 70
     0
  0
ENDTAB
  0
TABLE
  2
UCS
  5
6
100
AcDbSymbolTable
 70
     0
  0
ENDTAB
  0
TABLE
  2
APPID
  5
8
100
AcDbSymbolTable
 70
     1
  0
APPID
  5
16
100
AcDbSymbolTableRecord
100
AcDbRegAppTableRecord
  2
ACAD
 70
     0
  0
ENDTAB
  0
TABLE
  2
DIMSTYLE
  5
9
100
AcDbSymbolTable
 70
     1
  0
DIMSTYLE
105
18
100
AcDbSymbolTableRecord
100
AcDbDimStyleTableRecord
  2
STANDARD
 70
     0
  3

  4

  5

  6

  7

 40
1.0
 41
0.18
 42
0.0625
 43
0.38
 44
0.18
 45
0.0
 46
0.0
 47
0.0
 48
0.0
 71
     0
 72
     0
 73
     1
 74
     1
 75
     0
 76
     0
 77
     0
 78
     0
140
0.18
141
0.09
142
0.0
143
25.4
144
1.0
145
0.0
146
1.0
147
0.09
170
     0
171
     2
172
     1
173
     0
174
     0
175
     0
176
     0
177
     0
178
     0
270
     2
271
     4
272
     4
273
     2
274
     2
275
     0
280
     0
281
     0
282
     0
283
     1
284
     0
285
     0
286
     0
287
     0
288
     0
340
17
  0
ENDTAB
  0
TABLE
  2
BLOCK_RECORD
  5
1
100
AcDbSymbolTable
 70
    21
  0
BLOCK_RECORD
  5
A
100
AcDbSymbolTableRecord
100
AcDbBlockTableRecord
  2
*MODEL_SPACE
  0
BLOCK_RECORD
  5
B
100
AcDbSymbolTableRecord
100
AcDbBlockTableRecord
  2
*PAPER_SPACE
  0
BLOCK_RECORD
  5
28
100
AcDbSymbolTableRecord
100
AcDbBlockTableRecord
  2
_EX_NORM
  0
BLOCK_RECORD
  5
29
100
AcDbSymbolTableRecord
100
AcDbBlockTableRecord
  2
_EX_BNORM
  0
BLOCK_RECORD
  5
2A
100
AcDbSymbolTableRecord
100
AcDbBlockTableRecord
  2
_EX_BCIR
  0
BLOCK_RECORD
  5
2B
100
AcDbSymbolTableRecord
100
AcDbBlockTableRecord
  2
_EX_RCIVIL
  0
BLOCK_RECORD
  5
2C
100
AcDbSymbolTableRecord
100
AcDbBlockTableRecord
  2
_EX_SLANT
  0
BLOCK_RECORD
  5
2D
100
AcDbSymbolTableRecord
100
AcDbBlockTableRecord
  2
_EX_NONE
  0
BLOCK_RECORD
  5
2E
100
AcDbSymbolTableRecord
100
AcDbBlockTableRecord
  2
_EX_CIVIL
  0
BLOCK_RECORD
  5
2F
100
AcDbSymbolTableRecord
100
AcDbBlockTableRecord
  2
_EX_WCIR
  0
BLOCK_RECORD
  5
30
100
AcDbSymbolTableRecord
100
AcDbBlockTableRecord
  2
_EX_WCIR2
  0
BLOCK_RECORD
  5
31
100
AcDbSymbolTableRecord
100
AcDbBlockTableRecord
  2
_EX_WNORM
  0
BLOCK_RECORD
  5
32
100
AcDbSymbolTableRecord
100
AcDbBlockTableRecord
  2
_EX_NNORM
  0
BLOCK_RECORD
  5
33
100
AcDbSymbolTableRecord
100
AcDbBlockTableRecord
  2
_EX_BBOX
  0
BLOCK_RECORD
  5
34
100
AcDbSymbolTableRecord
100
AcDbBlockTableRecord
  2
_EX_WBOX
  0
BLOCK_RECORD
  5
35
100
AcDbSymbolTableRecord
100
AcDbBlockTableRecord
  2
_EX_INTEGRAL
  0
BLOCK_RECORD
  5
CE
100
AcDbSymbolTableRecord
100
AcDbBlockTableRecord
  2
*D14
  0
BLOCK_RECORD
  5
DB
100
AcDbSymbolTableRecord
100
AcDbBlockTableRecord
  2
*D15
  0
BLOCK_RECORD
  5
E7
100
AcDbSymbolTableRecord
100
AcDbBlockTableRecord
  2
*D16
  0
BLOCK_RECORD
  5
F3
100
AcDbSymbolTableRecord
100
AcDbBlockTableRecord
  2
*D17
  0
BLOCK_RECORD
  5
106
100
AcDbSymbolTableRecord
100
AcDbBlockTableRecord
  2
*D18
  0
BLOCK_RECORD
  5
114
100
AcDbSymbolTableRecord
100
AcDbBlockTableRecord
  2
*D19
  0
BLOCK_RECORD
  5
11F
100
AcDbSymbolTableRecord
100
AcDbBlockTableRecord
  2
*D20
  0
ENDTAB
  0
ENDSEC
  0
SECTION
  2
BLOCKS
  0
BLOCK
  5
D
100
AcDbEntity
  8
0
100
AcDbBlockBegin
  2
*MODEL_SPACE
 70
     0
 10
0.0
 20
0.0
 30
0.0
  3
*MODEL_SPACE
  1

  0
ENDBLK
  5
E
100
AcDbEntity
  8
0
100
AcDbBlockEnd
  0
BLOCK
  5
F
100
AcDbEntity
 67
     1
  8
0
100
AcDbBlockBegin
  2
*PAPER_SPACE
 70
     0
 10
0.0
 20
0.0
 30
0.0
  3
*PAPER_SPACE
  1

  0
ENDBLK
  5
10
100
AcDbEntity
 67
     1
  8
0
100
AcDbBlockEnd
  0
BLOCK
  5
36
100
AcDbEntity
  8
0
100
AcDbBlockBegin
  2
_EX_NORM
 70
     0
 10
0.0
 20
0.0
 30
0.0
  3
_EX_NORM
  1

  0
LINE
  5
37
100
AcDbEntity
  8
0
  6
CONTINUOUS
 62
     0
100
AcDbLine
 10
0.0
 20
0.0
 30
0.0
 11
-1.0
 21
0.0
 31
0.0
  0
LINE
  5
38
100
AcDbEntity
  8
0
  6
CONTINUOUS
 62
     0
100
AcDbLine
 10
0.0
 20
0.0
 30
0.0
 11
-1.0
 21
0.166667
 31
0.0
  0
LINE
  5
39
100
AcDbEntity
  8
0
  6
CONTINUOUS
 62
     0
100
AcDbLine
 10
0.0
 20
0.0
 30
0.0
 11
-1.0
 21
-0.166667
 31
0.0
  0
ENDBLK
  5
3A
100
AcDbEntity
  8
0
100
AcDbBlockEnd
  0
BLOCK
  5
3B
100
AcDbEntity
  8
0
100
AcDbBlockBegin
  2
_EX_BNORM
 70
     0
 10
0.0
 20
0.0
 30
0.0
  3
_EX_BNORM
  1

  0
LINE
  5
3C
100
AcDbEntity
  8
0
  6
CONTINUOUS
 62
     0
100
AcDbLine
 10
0.0
 20
0.0
 30
0.0
 11
-1.0
 21
0.0
 31
0.0
  0
LINE
  5
3D
100
AcDbEntity
  8
0
  6
CONTINUOUS
 62
     0
100
AcDbLine
 10
0.0
 20
0.0
 30
0.0
 11
-1.0
 21
0.166667
 31
0.0
  0
LINE
  5
3E
100
AcDbEntity
  8
0
  6
CONTINUOUS
 62
     0
100
AcDbLine
 10
0.0
 20
0.0
 30
0.0
 11
-1.0
 21
-0.166667
 31
0.0
  0
LINE
  5
3F
100
AcDbEntity
  8
0
  6
CONTINUOUS
 62
     0
100
AcDbLine
 10
0.0
 20
0.0
 30
0.0
 11
-1.0
 21
0.083333
 31
0.0
  0
LINE
  5
40
100
AcDbEntity
  8
0
  6
CONTINUOUS
 62
     0
100
AcDbLine
 10
0.0
 20
0.0
 30
0.0
 11
-1.0
 21
-0.083333
 31
0.0
  0
LINE
  5
41
100
AcDbEntity
  8
0
  6
CONTINUOUS
 62
     0
100
AcDbLine
 10
-1.0
 20
0.166667
 30
0.0
 11
-1.0
 21
-0.166667
 31
0.0
  0
ENDBLK
  5
42
100
AcDbEntity
  8
0
100
AcDbBlockEnd
  0
BLOCK
  5
43
100
AcDbEntity
  8
0
100
AcDbBlockBegin
  2
_EX_BCIR
 70
     0
 10
0.0
 20
0.0
 30
0.0
  3
_EX_BCIR
  1

  0
LINE
  5
44
100
AcDbEntity
  8
0
  6
CONTINUOUS
 62
     0
100
AcDbLine
 10
0.0
 20
0.0
 30
0.0
 11
-1.0
 21
0.0
 31
0.0
  0
CIRCLE
  5
45
100
AcDbEntity
  8
0
  6
CONTINUOUS
 62
     0
100
AcDbCircle
 10
0.0
 20
0.0
 30
0.0
 40
0.5
  0
CIRCLE
  5
46
100
AcDbEntity
  8
0
  6
CONTINUOUS
 62
     0
100
AcDbCircle
 10
0.0
 20
0.0
 30
0.0
 40
0.25
  0
ENDBLK
  5
47
100
AcDbEntity
  8
0
100
AcDbBlockEnd
  0
BLOCK
  5
48
100
AcDbEntity
  8
0
100
AcDbBlockBegin
  2
_EX_RCIVIL
 70
     0
 10
0.0
 20
0.0
 30
0.0
  3
_EX_RCIVIL
  1

  0
LINE
  5
49
100
AcDbEntity
  8
0
  6
CONTINUOUS
 62
     0
100
AcDbLine
 10
0.0
 20
0.0
 30
0.0
 11
-1.0
 21
0.0
 31
0.0
  0
LINE
  5
4A
100
AcDbEntity
  8
0
  6
CONTINUOUS
 62
     0
100
AcDbLine
 10
-1.0
 20
-0.25
 30
0.0
 11
0.0
 21
-0.25
 31
0.0
  0
LINE
  5
4B
100
AcDbEntity
  8
0
  6
CONTINUOUS
 62
     0
100
AcDbLine
 10
-1.0
 20
-0.125
 30
0.0
 11
0.0
 21
-0.125
 31
0.0
  0
ENDBLK
  5
4C
100
AcDbEntity
  8
0
100
AcDbBlockEnd
  0
BLOCK
  5
4D
100
AcDbEntity
  8
0
100
AcDbBlockBegin
  2
_EX_SLANT
 70
     0
 10
0.0
 20
0.0
 30
0.0
  3
_EX_SLANT
  1

  0
LINE
  5
4E
100
AcDbEntity
  8
0
  6
CONTINUOUS
 62
     0
100
AcDbLine
 10
0.0
 20
0.0
 30
0.0
 11
-1.0
 21
0.0
 31
0.0
  0
LINE
  5
4F
100
AcDbEntity
  8
0
  6
CONTINUOUS
 62
     0
100
AcDbLine
 10
0.707107
 20
0.707107
 30
0.0
 11
-0.707107
 21
-0.707107
 31
0.0
  0
ENDBLK
  5
50
100
AcDbEntity
  8
0
100
AcDbBlockEnd
  0
BLOCK
  5
51
100
AcDbEntity
  8
0
100
AcDbBlockBegin
  2
_EX_NONE
 70
     0
 10
0.0
 20
0.0
 30
0.0
  3
_EX_NONE
  1

  0
LINE
  5
52
100
AcDbEntity
  8
0
  6
CONTINUOUS
 62
     0
100
AcDbLine
 10
0.0
 20
0.0
 30
0.0
 11
-1.0
 21
0.0
 31
0.0
  0
ENDBLK
  5
53
100
AcDbEntity
  8
0
100
AcDbBlockEnd
  0
BLOCK
  5
54
100
AcDbEntity
  8
0
100
AcDbBlockBegin
  2
_EX_CIVIL
 70
     0
 10
0.0
 20
0.0
 30
0.0
  3
_EX_CIVIL
  1

  0
LINE
  5
55
100
AcDbEntity
  8
0
  6
CONTINUOUS
 62
     0
100
AcDbLine
 10
0.0
 20
0.0
 30
0.0
 11
-1.0
 21
0.0
 31
0.0
  0
LINE
  5
56
100
AcDbEntity
  8
0
  6
CONTINUOUS
 62
     0
100
AcDbLine
 10
-1.0
 20
0.25
 30
0.0
 11
0.0
 21
0.25
 31
0.0
  0
LINE
  5
57
100
AcDbEntity
  8
0
  6
CONTINUOUS
 62
     0
100
AcDbLine
 10
-1.0
 20
0.125
 30
0.0
 11
0.0
 21
0.125
 31
0.0
  0
ENDBLK
  5
58
100
AcDbEntity
  8
0
100
AcDbBlockEnd
  0
BLOCK
  5
59
100
AcDbEntity
  8
0
100
AcDbBlockBegin
  2
_EX_WCIR
 70
     0
 10
0.0
 20
0.0
 30
0.0
  3
_EX_WCIR
  1

  0
LINE
  5
5A
100
AcDbEntity
  8
0
  6
CONTINUOUS
 62
     0
100
AcDbLine
 10
0.0
 20
0.0
 30
0.0
 11
-1.0
 21
0.0
 31
0.0
  0
CIRCLE
  5
5B
100
AcDbEntity
  8
0
  6
CONTINUOUS
 62
     0
100
AcDbCircle
 10
0.0
 20
0.0
 30
0.0
 40
0.5
  0
ENDBLK
  5
5C
100
AcDbEntity
  8
0
100
AcDbBlockEnd
  0
BLOCK
  5
5D
100
AcDbEntity
  8
0
100
AcDbBlockBegin
  2
_EX_WCIR2
 70
     0
 10
0.0
 20
0.0
 30
0.0
  3
_EX_WCIR2
  1

  0
LINE
  5
5E
100
AcDbEntity
  8
0
  6
CONTINUOUS
 62
     0
100
AcDbLine
 10
-0.5
 20
0.0
 30
0.0
 11
-1.0
 21
0.0
 31
0.0
  0
CIRCLE
  5
5F
100
AcDbEntity
  8
0
  6
CONTINUOUS
 62
     0
100
AcDbCircle
 10
0.0
 20
0.0
 30
0.0
 40
0.5
  0
ENDBLK
  5
60
100
AcDbEntity
  8
0
100
AcDbBlockEnd
  0
BLOCK
  5
61
100
AcDbEntity
  8
0
100
AcDbBlockBegin
  2
_EX_WNORM
 70
     0
 10
0.0
 20
0.0
 30
0.0
  3
_EX_WNORM
  1

  0
LINE
  5
62
100
AcDbEntity
  8
0
  6
CONTINUOUS
 62
     0
100
AcDbLine
 10
-1.0
 20
0.0
 30
0.0
 11
-1.0
 21
0.0
 31
0.0
  0
LINE
  5
63
100
AcDbEntity
  8
0
  6
CONTINUOUS
 62
     0
100
AcDbLine
 10
0.0
 20
0.0
 30
0.0
 11
-1.0
 21
0.166667
 31
0.0
  0
LINE
  5
64
100
AcDbEntity
  8
0
  6
CONTINUOUS
 62
     0
100
AcDbLine
 10
0.0
 20
0.0
 30
0.0
 11
-1.0
 21
-0.166667
 31
0.0
  0
LINE
  5
65
100
AcDbEntity
  8
0
  6
CONTINUOUS
 62
     0
100
AcDbLine
 10
-1.0
 20
0.166667
 30
0.0
 11
-1.0
 21
-0.166667
 31
0.0
  0
ENDBLK
  5
66
100
AcDbEntity
  8
0
100
AcDbBlockEnd
  0
BLOCK
  5
67
100
AcDbEntity
  8
0
100
AcDbBlockBegin
  2
_EX_NNORM
 70
     0
 10
0.0
 20
0.0
 30
0.0
  3
_EX_NNORM
  1

  0
LINE
  5
68
100
AcDbEntity
  8
0
  6
CONTINUOUS
 62
     0
100
AcDbLine
 10
0.0
 20
0.0
 30
0.0
 11
-1.0
 21
0.0
 31
0.0
  0
LINE
  5
69
100
AcDbEntity
  8
0
  6
CONTINUOUS
 62
     0
100
AcDbLine
 10
0.0
 20
0.0
 30
0.0
 11
-1.0
 21
0.166667
 31
0.0
  0
LINE
  5
6A
100
AcDbEntity
  8
0
  6
CONTINUOUS
 62
     0
100
AcDbLine
 10
0.0
 20
0.0
 30
0.0
 11
-1.0
 21
-0.166667
 31
0.0
  0
LINE
  5
6B
100
AcDbEntity
  8
0
  6
CONTINUOUS
 62
     0
100
AcDbLine
 10
-1.0
 20
0.166667
 30
0.0
 11
-1.0
 21
-0.166667
 31
0.0
  0
ENDBLK
  5
6C
100
AcDbEntity
  8
0
100
AcDbBlockEnd
  0
BLOCK
  5
6D
100
AcDbEntity
  8
0
100
AcDbBlockBegin
  2
_EX_BBOX
 70
     0
 10
0.0
 20
0.0
 30
0.0
  3
_EX_BBOX
  1

  0
LINE
  5
6E
100
AcDbEntity
  8
0
  6
CONTINUOUS
 62
     0
100
AcDbLine
 10
0.0
 20
0.0
 30
0.0
 11
-1.0
 21
0.0
 31
0.0
  0
LINE
  5
6F
100
AcDbEntity
  8
0
  6
CONTINUOUS
 62
     0
100
AcDbLine
 10
-0.5
 20
0.5
 30
0.0
 11
0.5
 21
0.5
 31
0.0
  0
LINE
  5
70
100
AcDbEntity
  8
0
  6
CONTINUOUS
 62
     0
100
AcDbLine
 10
0.5
 20
0.5
 30
0.0
 11
0.5
 21
-0.5
 31
0.0
  0
LINE
  5
71
100
AcDbEntity
  8
0
  6
CONTINUOUS
 62
     0
100
AcDbLine
 10
0.5
 20
-0.5
 30
0.0
 11
-0.5
 21
-0.5
 31
0.0
  0
LINE
  5
72
100
AcDbEntity
  8
0
  6
CONTINUOUS
 62
     0
100
AcDbLine
 10
-0.5
 20
-0.5
 30
0.0
 11
-0.5
 21
0.5
 31
0.0
  0
LINE
  5
73
100
AcDbEntity
  8
0
  6
CONTINUOUS
 62
     0
100
AcDbLine
 10
-0.25
 20
0.25
 30
0.0
 11
0.25
 21
0.25
 31
0.0
  0
LINE
  5
74
100
AcDbEntity
  8
0
  6
CONTINUOUS
 62
     0
100
AcDbLine
 10
0.25
 20
0.25
 30
0.0
 11
0.25
 21
-0.25
 31
0.0
  0
LINE
  5
75
100
AcDbEntity
  8
0
  6
CONTINUOUS
 62
     0
100
AcDbLine
 10
0.25
 20
-0.25
 30
0.0
 11
-0.25
 21
-0.25
 31
0.0
  0
LINE
  5
76
100
AcDbEntity
  8
0
  6
CONTINUOUS
 62
     0
100
AcDbLine
 10
-0.25
 20
-0.25
 30
0.0
 11
-0.25
 21
0.25
 31
0.0
  0
ENDBLK
  5
77
100
AcDbEntity
  8
0
100
AcDbBlockEnd
  0
BLOCK
  5
78
100
AcDbEntity
  8
0
100
AcDbBlockBegin
  2
_EX_WBOX
 70
     0
 10
0.0
 20
0.0
 30
0.0
  3
_EX_WBOX
  1

  0
LINE
  5
79
100
AcDbEntity
  8
0
  6
CONTINUOUS
 62
     0
100
AcDbLine
 10
-0.5
 20
0.0
 30
0.0
 11
-1.0
 21
0.0
 31
0.0
  0
LINE
  5
7A
100
AcDbEntity
  8
0
  6
CONTINUOUS
 62
     0
100
AcDbLine
 10
-0.5
 20
0.5
 30
0.0
 11
0.5
 21
0.5
 31
0.0
  0
LINE
  5
7B
100
AcDbEntity
  8
0
  6
CONTINUOUS
 62
     0
100
AcDbLine
 10
0.5
 20
0.5
 30
0.0
 11
0.5
 21
-0.5
 31
0.0
  0
LINE
  5
7C
100
AcDbEntity
  8
0
  6
CONTINUOUS
 62
     0
100
AcDbLine
 10
0.5
 20
-0.5
 30
0.0
 11
-0.5
 21
-0.5
 31
0.0
  0
LINE
  5
7D
100
AcDbEntity
  8
0
  6
CONTINUOUS
 62
     0
100
AcDbLine
 10
-0.5
 20
-0.5
 30
0.0
 11
-0.5
 21
0.5
 31
0.0
  0
ENDBLK
  5
7E
100
AcDbEntity
  8
0
100
AcDbBlockEnd
  0
BLOCK
  5
7F
100
AcDbEntity
  8
0
100
AcDbBlockBegin
  2
_EX_INTEGRAL
 70
     0
 10
0.0
 20
0.0
 30
0.0
  3
_EX_INTEGRAL
  1

  0
LINE
  5
80
100
AcDbEntity
  8
0
  6
CONTINUOUS
 62
     0
100
AcDbLine
 10
0.0
 20
0.0
 30
0.0
 11
-1.0
 21
0.0
 31
0.0
  0
ARC
  5
81
100
AcDbEntity
  8
0
  6
CONTINUOUS
 62
     0
100
AcDbCircle
 10
0.542115
 20
0.164992
 30
0.0
 40
0.56667
100
AcDbArc
 50
73.07249
 51
196.927513
  0
ARC
  5
82
100
AcDbEntity
  8
0
  6
CONTINUOUS
 62
     0
100
AcDbCircle
 10
-0.542115
 20
-0.164992
 30
0.0
 40
0.56667
100
AcDbArc
 50
253.072487
 51
16.927513
  0
ENDBLK
  5
83
100
AcDbEntity
  8
0
100
AcDbBlockEnd
  0
BLOCK
  5
CF
100
AcDbEntity
  8
0
100
AcDbBlockBegin
  2
*D14
 70
    65
 10
0.0
 20
0.0
 30
0.0
  3
*D14
  1

  0
LINE
  5
D0
100
AcDbEntity
  8
LAY-3
  6
CONTINUOUS
 62
     3
100
AcDbLine
 10
128.4
 20
357.0
 30
0.0
 11
224.0
 21
357.0
 31
0.0
  0
LINE
  5
D1
100
AcDbEntity
  8
LAY-3
  6
CONTINUOUS
 62
     3
100
AcDbLine
 10
128.4
 20
209.0
 30
0.0
 11
224.0
 21
209.0
 31
0.0
  0
TEXT
  5
D2
100
AcDbEntity
  8
LAY-3
  6
CONTINUOUS
 62
     2
100
AcDbText
 10
221.3
 20
272.08
 30
0.0
 40
8.0
  1
%%c148
 50
90.0
 41
0.84
  7
EXCADSTD
 72
     1
 11
221.3
 21
283.0
 31
0.0
100
AcDbText
  0
LINE
  5
D3
100
AcDbEntity
  8
LAY-3
  6
CONTINUOUS
 62
     3
100
AcDbLine
 10
222.0
 20
357.0
 30
0.0
 11
222.0
 21
209.0
 31
0.0
  0
LINE
  5
D4
100
AcDbEntity
  8
LAY-3
  6
CONTINUOUS
 62
     3
100
AcDbLine
 10
223.0
 20
351.0
 30
0.0
 11
222.0
 21
357.0
 31
0.0
  0
LINE
  5
D5
100
AcDbEntity
  8
LAY-3
  6
CONTINUOUS
 62
     3
100
AcDbLine
 10
222.0
 20
357.0
 30
0.0
 11
221.0
 21
351.0
 31
0.0
  0
LINE
  5
D6
100
AcDbEntity
  8
LAY-3
  6
CONTINUOUS
 62
     3
100
AcDbLine
 10
221.0
 20
215.0
 30
0.0
 11
222.0
 21
209.0
 31
0.0
  0
LINE
  5
D7
100
AcDbEntity
  8
LAY-3
  6
CONTINUOUS
 62
     3
100
AcDbLine
 10
222.0
 20
209.0
 30
0.0
 11
223.0
 21
215.0
 31
0.0
  0
ENDBLK
  5
D8
100
AcDbEntity
  8
0
100
AcDbBlockEnd
  0
BLOCK
  5
DC
100
AcDbEntity
  8
0
100
AcDbBlockBegin
  2
*D15
 70
    65
 10
0.0
 20
0.0
 30
0.0
  3
*D15
  1

  0
LINE
  5
DD
100
AcDbEntity
  8
LAY-3
  6
CONTINUOUS
 62
     3
100
AcDbLine
 10
363.684408
 20
371.0
 30
0.0
 11
379.284408
 21
371.0
 31
0.0
  0
LINE
  5
DE
100
AcDbEntity
  8
LAY-3
  6
CONTINUOUS
 62
     3
100
AcDbLine
 10
363.684408
 20
343.0
 30
0.0
 11
379.284408
 21
343.0
 31
0.0
  0
TEXT
  5
DF
100
AcDbEntity
  8
LAY-3
  6
CONTINUOUS
 62
     2
100
AcDbText
 10
376.584408
 20
351.12
 30
0.0
 40
8.0
  1
28
 50
90.0
 41
0.84
  7
EXCADSTD
 72
     1
 11
376.584408
 21
357.0
 31
0.0
100
AcDbText
  0
LINE
  5
E0
100
AcDbEntity
  8
LAY-3
  6
CONTINUOUS
 62
     3
100
AcDbLine
 10
377.284408
 20
371.0
 30
0.0
 11
377.284408
 21
343.0
 31
0.0
  0
LINE
  5
E1
100
AcDbEntity
  8
LAY-3
  6
CONTINUOUS
 62
     3
100
AcDbLine
 10
378.284408
 20
365.0
 30
0.0
 11
377.284408
 21
371.0
 31
0.0
  0
LINE
  5
E2
100
AcDbEntity
  8
LAY-3
  6
CONTINUOUS
 62
     3
100
AcDbLine
 10
377.284408
 20
371.0
 30
0.0
 11
376.284408
 21
365.0
 31
0.0
  0
LINE
  5
E3
100
AcDbEntity
  8
LAY-3
  6
CONTINUOUS
 62
     3
100
AcDbLine
 10
376.284408
 20
349.0
 30
0.0
 11
377.284408
 21
343.0
 31
0.0
  0
LINE
  5
E4
100
AcDbEntity
  8
LAY-3
  6
CONTINUOUS
 62
     3
100
AcDbLine
 10
377.284408
 20
343.0
 30
0.0
 11
378.284408
 21
349.0
 31
0.0
  0
ENDBLK
  5
E5
100
AcDbEntity
  8
0
100
AcDbBlockEnd
  0
BLOCK
  5
E8
100
AcDbEntity
  8
0
100
AcDbBlockBegin
  2
*D16
 70
    65
 10
0.0
 20
0.0
 30
0.0
  3
*D16
  1

  0
LINE
  5
E9
100
AcDbEntity
  8
LAY-3
  6
CONTINUOUS
 62
     3
100
AcDbLine
 10
316.0
 20
381.0
 30
0.0
 11
394.284408
 21
381.0
 31
0.0
  0
LINE
  5
EA
100
AcDbEntity
  8
LAY-3
  6
CONTINUOUS
 62
     3
100
AcDbLine
 10
316.0
 20
333.0
 30
0.0
 11
394.284408
 21
333.0
 31
0.0
  0
TEXT
  5
EB
100
AcDbEntity
  8
LAY-3
  6
CONTINUOUS
 62
     2
100
AcDbText
 10
391.584408
 20
348.6
 30
0.0
 40
8.0
  1
%%c48
 50
90.0
 41
0.84
  7
EXCADSTD
 72
     1
 11
391.584408
 21
357.0
 31
0.0
100
AcDbText
  0
LINE
  5
EC
100
AcDbEntity
  8
LAY-3
  6
CONTINUOUS
 62
     3
100
AcDbLine
 10
392.284408
 20
381.0
 30
0.0
 11
392.284408
 21
333.0
 31
0.0
  0
LINE
  5
ED
100
AcDbEntity
  8
LAY-3
  6
CONTINUOUS
 62
     3
100
AcDbLine
 10
393.284408
 20
375.0
 30
0.0
 11
392.284408
 21
381.0
 31
0.0
  0
LINE
  5
EE
100
AcDbEntity
  8
LAY-3
  6
CONTINUOUS
 62
     3
100
AcDbLine
 10
392.284408
 20
381.0
 30
0.0
 11
391.284408
 21
375.0
 31
0.0
  0
LINE
  5
EF
100
AcDbEntity
  8
LAY-3
  6
CONTINUOUS
 62
     3
100
AcDbLine
 10
391.284408
 20
339.0
 30
0.0
 11
392.284408
 21
333.0
 31
0.0
  0
LINE
  5
F0
100
AcDbEntity
  8
LAY-3
  6
CONTINUOUS
 62
     3
100
AcDbLine
 10
392.284408
 20
333.0
 30
0.0
 11
393.284408
 21
339.0
 31
0.0
  0
ENDBLK
  5
F1
100
AcDbEntity
  8
0
100
AcDbBlockEnd
  0
BLOCK
  5
F4
100
AcDbEntity
  8
0
100
AcDbBlockBegin
  2
*D17
 70
    65
 10
0.0
 20
0.0
 30
0.0
  3
*D17
  1

  0
LINE
  5
F5
100
AcDbEntity
  8
LAY-3
  6
CONTINUOUS
 62
     3
100
AcDbLine
 10
256.4
 20
369.0
 30
0.0
 11
240.6
 21
369.0
 31
0.0
  0
LINE
  5
F6
100
AcDbEntity
  8
LAY-3
  6
CONTINUOUS
 62
     3
100
AcDbLine
 10
256.4
 20
345.0
 30
0.0
 11
240.6
 21
345.0
 31
0.0
  0
TEXT
  5
F7
100
AcDbEntity
  8
LAY-3
  6
CONTINUOUS
 62
     2
100
AcDbText
 10
241.9
 20
348.6
 30
0.0
 40
8.0
  1
%%c24
 50
90.0
 41
0.84
  7
EXCADSTD
 72
     1
 11
241.9
 21
357.0
 31
0.0
100
AcDbText
  0
LINE
  5
F8
100
AcDbEntity
  8
LAY-3
  6
CONTINUOUS
 62
     3
100
AcDbLine
 10
242.6
 20
369.0
 30
0.0
 11
242.6
 21
345.0
 31
0.0
  0
LINE
  5
F9
100
AcDbEntity
  8
LAY-3
  6
CONTINUOUS
 62
     3
100
AcDbLine
 10
243.6
 20
363.0
 30
0.0
 11
242.6
 21
369.0
 31
0.0
  0
LINE
  5
FA
100
AcDbEntity
  8
LAY-3
  6
CONTINUOUS
 62
     3
100
AcDbLine
 10
242.6
 20
369.0
 30
0.0
 11
241.6
 21
363.0
 31
0.0
  0
LINE
  5
FB
100
AcDbEntity
  8
LAY-3
  6
CONTINUOUS
 62
     3
100
AcDbLine
 10
241.6
 20
351.0
 30
0.0
 11
242.6
 21
345.0
 31
0.0
  0
LINE
  5
FC
100
AcDbEntity
  8
LAY-3
  6
CONTINUOUS
 62
     3
100
AcDbLine
 10
242.6
 20
345.0
 30
0.0
 11
243.6
 21
351.0
 31
0.0
  0
ENDBLK
  5
FD
100
AcDbEntity
  8
0
100
AcDbBlockEnd
  0
BLOCK
  5
107
100
AcDbEntity
  8
0
100
AcDbBlockBegin
  2
*D18
 70
    65
 10
0.0
 20
0.0
 30
0.0
  3
*D18
  1

  0
TEXT
  5
108
100
AcDbEntity
  8
LAY-3
  6
CONTINUOUS
 62
     2
100
AcDbText
 10
280.2
 20
218.9
 30
0.0
 40
8.0
  1
%%c12
 41
0.84
  7
EXCADSTD
 72
     1
 11
288.6
 21
218.9
 31
0.0
100
AcDbText
  0
LINE
  5
109
100
AcDbEntity
  8
LAY-3
  6
CONTINUOUS
 62
     3
100
AcDbLine
 10
254.6
 20
218.2
 30
0.0
 11
299.300001
 21
218.2
 31
0.0
  0
LINE
  5
10A
100
AcDbEntity
  8
LAY-3
  6
CONTINUOUS
 62
     3
100
AcDbLine
 10
254.6
 20
217.2
 30
0.0
 11
260.6
 21
218.2
 31
0.0
  0
LINE
  5
10B
100
AcDbEntity
  8
LAY-3
  6
CONTINUOUS
 62
     3
100
AcDbLine
 10
260.6
 20
218.2
 30
0.0
 11
254.6
 21
219.2
 31
0.0
  0
LINE
  5
10C
100
AcDbEntity
  8
LAY-3
  6
CONTINUOUS
 62
     3
100
AcDbLine
 10
278.6
 20
219.2
 30
0.0
 11
272.6
 21
218.2
 31
0.0
  0
LINE
  5
10D
100
AcDbEntity
  8
LAY-3
  6
CONTINUOUS
 62
     3
100
AcDbLine
 10
272.6
 20
218.2
 30
0.0
 11
278.6
 21
217.2
 31
0.0
  0
ENDBLK
  5
10E
100
AcDbEntity
  8
0
100
AcDbBlockEnd
  0
BLOCK
  5
115
100
AcDbEntity
  8
0
100
AcDbBlockBegin
  2
*D19
 70
    65
 10
0.0
 20
0.0
 30
0.0
  3
*D19
  1

  0
LINE
  5
116
100
AcDbEntity
  8
LAY-3
  6
CONTINUOUS
 62
     3
100
AcDbLine
 10
257.6
 20
370.2
 30
0.0
 11
257.6
 21
413.0
 31
0.0
  0
TEXT
  5
117
100
AcDbEntity
  8
LAY-3
  6
CONTINUOUS
 62
     2
100
AcDbText
 10
280.22
 20
411.7
 30
0.0
 40
8.0
  1
57
 41
0.84
  7
EXCADSTD
 72
     1
 11
286.1
 21
411.7
 31
0.0
100
AcDbText
  0
LINE
  5
118
100
AcDbEntity
  8
LAY-3
  6
CONTINUOUS
 62
     3
100
AcDbLine
 10
257.6
 20
411.0
 30
0.0
 11
314.6
 21
411.0
 31
0.0
  0
LINE
  5
119
100
AcDbEntity
  8
LAY-3
  6
CONTINUOUS
 62
     3
100
AcDbLine
 10
263.6
 20
412.0
 30
0.0
 11
257.6
 21
411.0
 31
0.0
  0
LINE
  5
11A
100
AcDbEntity
  8
LAY-3
  6
CONTINUOUS
 62
     3
100
AcDbLine
 10
257.6
 20
411.0
 30
0.0
 11
263.6
 21
410.0
 31
0.0
  0
LINE
  5
11B
100
AcDbEntity
  8
LAY-3
  6
CONTINUOUS
 62
     3
100
AcDbLine
 10
308.6
 20
410.0
 30
0.0
 11
314.6
 21
411.0
 31
0.0
  0
LINE
  5
11C
100
AcDbEntity
  8
LAY-3
  6
CONTINUOUS
 62
     3
100
AcDbLine
 10
314.6
 20
411.0
 30
0.0
 11
308.6
 21
412.0
 31
0.0
  0
ENDBLK
  5
11D
100
AcDbEntity
  8
0
100
AcDbBlockEnd
  0
BLOCK
  5
120
100
AcDbEntity
  8
0
100
AcDbBlockBegin
  2
*D20
 70
    65
 10
0.0
 20
0.0
 30
0.0
  3
*D20
  1

  0
LINE
  5
121
100
AcDbEntity
  8
LAY-3
  6
CONTINUOUS
 62
     3
100
AcDbLine
 10
266.6
 20
371.29556
 30
0.0
 11
266.6
 21
398.0
 31
0.0
  0
TEXT
  5
122
100
AcDbEntity
  8
LAY-3
  6
CONTINUOUS
 62
     2
100
AcDbText
 10
284.72
 20
396.7
 30
0.0
 40
8.0
  1
48
 41
0.84
  7
EXCADSTD
 72
     1
 11
290.6
 21
396.7
 31
0.0
100
AcDbText
  0
LINE
  5
123
100
AcDbEntity
  8
LAY-3
  6
CONTINUOUS
 62
     3
100
AcDbLine
 10
266.6
 20
396.0
 30
0.0
 11
314.6
 21
396.0
 31
0.0
  0
LINE
  5
124
100
AcDbEntity
  8
LAY-3
  6
CONTINUOUS
 62
     3
100
AcDbLine
 10
272.6
 20
397.0
 30
0.0
 11
266.6
 21
396.0
 31
0.0
  0
LINE
  5
125
100
AcDbEntity
  8
LAY-3
  6
CONTINUOUS
 62
     3
100
AcDbLine
 10
266.6
 20
396.0
 30
0.0
 11
272.6
 21
395.0
 31
0.0
  0
LINE
  5
126
100
AcDbEntity
  8
LAY-3
  6
CONTINUOUS
 62
     3
100
AcDbLine
 10
308.6
 20
395.0
 30
0.0
 11
314.6
 21
396.0
 31
0.0
  0
LINE
  5
127
100
AcDbEntity
  8
LAY-3
  6
CONTINUOUS
 62
     3
100
AcDbLine
 10
314.6
 20
396.0
 30
0.0
 11
308.6
 21
397.0
 31
0.0
  0
ENDBLK
  5
128
100
AcDbEntity
  8
0
100
AcDbBlockEnd
  0
ENDSEC
  0
SECTION
  2
ENTITIES
  0
LINE
  5
84
100
AcDbEntity
  8
LAY-2
  6
EXLTYPE3
 62
     6
100
AcDbLine
 10
266.6
 20
369.89556
 30
0.0
 11
266.6
 21
197.712371
 31
0.0
  0
LINE
  5
85
100
AcDbEntity
  8
LAY-2
  6
EXLTYPE3
 62
     6
100
AcDbLine
 10
321.428506
 20
357.0
 30
0.0
 11
254.862398
 21
357.0
 31
0.0
  0
LINE
  5
86
100
AcDbEntity
  8
LAY-2
  6
EXLTYPE3
 62
     6
100
AcDbLine
 10
306.999996
 20
343.0
 30
0.0
 11
362.284408
 21
343.0
 31
0.0
  0
LINE
  5
87
100
AcDbEntity
  8
LAY-2
  6
EXLTYPE3
 62
     6
100
AcDbLine
 10
306.999996
 20
371.0
 30
0.0
 11
362.284408
 21
371.0
 31
0.0
  0
LINE
  5
88
100
AcDbEntity
  8
LAY-2
  6
CONTINUOUS
 62
     2
100
AcDbLine
 10
357.600003
 20
370.749999
 30
0.0
 11
354.582245
 21
369.5
 31
0.0
  0
LINE
  5
89
100
AcDbEntity
  8
LAY-2
  6
CONTINUOUS
 62
     2
100
AcDbLine
 10
357.600003
 20
371.25
 30
0.0
 11
354.582235
 21
372.5
 31
0.0
  0
LINE
  5
8A
100
AcDbEntity
  8
LAY-2
  6
CONTINUOUS
 62
     2
100
AcDbLine
 10
357.600003
 20
370.749999
 30
0.0
 11
357.600003
 21
371.25
 31
0.0
  0
LINE
  5
8B
100
AcDbEntity
  8
LAY-2
  6
CONTINUOUS
 62
     2
100
AcDbLine
 10
307.6
 20
369.0
 30
0.0
 11
307.6
 21
380.8
 31
0.0
  0
LINE
  5
8C
100
AcDbEntity
  8
LAY-2
  6
CONTINUOUS
 62
     2
100
AcDbLine
 10
307.8
 20
381.0
 30
0.0
 11
314.6
 21
381.0
 31
0.0
  0
LINE
  5
8D
100
AcDbEntity
  8
LAY-2
  6
CONTINUOUS
 62
     2
100
AcDbLine
 10
307.8
 20
381.0
 30
0.0
 11
314.6
 21
381.0
 31
0.0
  0
ARC
  5
8E
100
AcDbEntity
  8
LAY-2
  6
CONTINUOUS
 62
     2
100
AcDbCircle
 10
307.8
 20
380.8
 30
0.0
 40
0.2
100
AcDbArc
 50
90.0
 51
180.0
  0
LINE
  5
8F
100
AcDbEntity
  8
LAY-2
  6
CONTINUOUS
 62
     2
100
AcDbLine
 10
290.6
 20
345.0
 30
0.0
 11
278.015151
 21
345.0
 31
0.0
  0
LINE
  5
90
100
AcDbEntity
  8
LAY-2
  6
CONTINUOUS
 62
     2
100
AcDbLine
 10
272.6
 20
345.0
 30
0.0
 11
307.6
 21
345.0
 31
0.0
  0
LINE
  5
91
100
AcDbEntity
  8
LAY-2
  6
CONTINUOUS
 62
     2
100
AcDbLine
 10
314.6
 20
369.5
 30
0.0
 11
354.582245
 21
369.5
 31
0.0
  0
LINE
  5
92
100
AcDbEntity
  8
LAY-2
  6
CONTINUOUS
 62
     2
100
AcDbLine
 10
314.6
 20
372.5
 30
0.0
 11
354.582235
 21
372.5
 31
0.0
  0
LINE
  5
93
100
AcDbEntity
  8
LAY-2
  6
CONTINUOUS
 62
     2
100
AcDbLine
 10
357.600003
 20
343.25
 30
0.0
 11
354.582235
 21
344.5
 31
0.0
  0
LINE
  5
94
100
AcDbEntity
  8
LAY-2
  6
CONTINUOUS
 62
     2
100
AcDbLine
 10
357.600003
 20
342.749999
 30
0.0
 11
354.582245
 21
341.5
 31
0.0
  0
LINE
  5
95
100
AcDbEntity
  8
LAY-2
  6
CONTINUOUS
 62
     2
100
AcDbLine
 10
357.600003
 20
342.749999
 30
0.0
 11
357.600003
 21
343.25
 31
0.0
  0
LINE
  5
96
100
AcDbEntity
  8
LAY-2
  6
CONTINUOUS
 62
     2
100
AcDbLine
 10
307.8
 20
333.0
 30
0.0
 11
314.6
 21
333.0
 31
0.0
  0
LINE
  5
97
100
AcDbEntity
  8
LAY-2
  6
CONTINUOUS
 62
     2
100
AcDbLine
 10
307.8
 20
333.0
 30
0.0
 11
314.6
 21
333.0
 31
0.0
  0
ARC
  5
98
100
AcDbEntity
  8
LAY-2
  6
CONTINUOUS
 62
     2
100
AcDbCircle
 10
307.8
 20
333.2
 30
0.0
 40
0.2
100
AcDbArc
 50
180.0
 51
270.0
  0
LINE
  5
99
100
AcDbEntity
  8
LAY-2
  6
CONTINUOUS
 62
     2
100
AcDbLine
 10
314.6
 20
344.5
 30
0.0
 11
354.582235
 21
344.5
 31
0.0
  0
LINE
  5
9A
100
AcDbEntity
  8
LAY-2
  6
CONTINUOUS
 62
     2
100
AcDbLine
 10
314.6
 20
341.5
 30
0.0
 11
354.582245
 21
341.5
 31
0.0
  0
LINE
  5
9B
100
AcDbEntity
  8
LAY-2
  6
CONTINUOUS
 62
     2
100
AcDbLine
 10
314.6
 20
333.0
 30
0.0
 11
314.6
 21
381.0
 31
0.0
  0
LINE
  5
9C
100
AcDbEntity
  8
LAY-2
  6
CONTINUOUS
 62
     2
100
AcDbLine
 10
307.6
 20
333.2
 30
0.0
 11
307.6
 21
380.8
 31
0.0
  0
LINE
  5
9D
100
AcDbEntity
  8
LAY-2
  6
CONTINUOUS
 62
     2
100
AcDbLine
 10
272.6
 20
357.0
 30
0.0
 11
272.6
 21
209.0
 31
0.0
  0
LINE
  5
9E
100
AcDbEntity
  8
LAY-2
  6
CONTINUOUS
 62
     2
100
AcDbLine
 10
257.6
 20
345.2
 30
0.0
 11
257.6
 21
368.8
 31
0.0
  0
LINE
  5
9F
100
AcDbEntity
  8
LAY-2
  6
CONTINUOUS
 62
     2
100
AcDbLine
 10
257.8
 20
345.0
 30
0.0
 11
260.6
 21
345.0
 31
0.0
  0
ARC
  5
A0
100
AcDbEntity
  8
LAY-2
  6
CONTINUOUS
 62
     2
100
AcDbCircle
 10
257.8
 20
345.2
 30
0.0
 40
0.2
100
AcDbArc
 50
180.0
 51
270.0
  0
ARC
  5
A1
100
AcDbEntity
  8
LAY-2
  6
CONTINUOUS
 62
     2
100
AcDbCircle
 10
257.8
 20
368.8
 30
0.0
 40
0.2
100
AcDbArc
 50
90.0
 51
180.0
  0
LINE
  5
A2
100
AcDbEntity
  8
LAY-2
  6
CONTINUOUS
 62
     2
100
AcDbLine
 10
260.6
 20
357.0
 30
0.0
 11
260.6
 21
209.0
 31
0.0
  0
ARC
  5
A3
100
AcDbEntity
  8
LAY-2
  6
CONTINUOUS
 62
     2
100
AcDbCircle
 10
266.6
 20
209.0
 30
0.0
 40
6.0
100
AcDbArc
 50
180.0
 51
0.0
  0
ARC
  5
A4
100
AcDbEntity
  8
LAY-2
  6
CONTINUOUS
 62
     2
100
AcDbCircle
 10
266.6
 20
357.0
 30
0.0
 40
6.625
100
AcDbArc
 50
334.912372
 51
205.087628
  0
LINE
  5
A5
100
AcDbEntity
  8
LAY-2
  6
CONTINUOUS
 62
     2
100
AcDbLine
 10
257.8
 20
369.0
 30
0.0
 11
307.6
 21
369.0
 31
0.0
  0
ARC
  5
A6
100
AcDbEntity
  8
LAY-2
  6
CONTINUOUS
 62
     2
100
AcDbCircle
 10
266.6
 20
357.0
 30
0.0
 40
6.0
100
AcDbArc
 50
0.0
 51
180.0
  0
LINE
  5
A7
100
AcDbEntity
  8
LAY-2
  6
EXLTYPE3
 62
     6
100
AcDbLine
 10
127.0
 20
525.271867
 30
0.0
 11
127.0
 21
415.728747
 31
0.0
  0
LINE
  5
A8
100
AcDbEntity
  8
LAY-2
  6
EXLTYPE3
 62
     6
100
AcDbLine
 10
40.908405
 20
431.451614
 30
0.0
 11
213.091595
 21
431.451614
 31
0.0
  0
LINE
  5
A9
100
AcDbEntity
  8
LAY-2
  6
EXLTYPE3
 62
     6
100
AcDbLine
 10
127.0
 20
200.0
 30
0.0
 11
127.0
 21
393.840415
 31
0.0
  0
LINE
  5
AA
100
AcDbEntity
  8
LAY-2
  6
EXLTYPE3
 62
     6
100
AcDbLine
 10
44.0
 20
283.0
 30
0.0
 11
210.0
 21
283.0
 31
0.0
  0
ARC
  5
AB
100
AcDbEntity
  8
LAY-2
  6
EXLTYPE3
 62
     6
100
AcDbCircle
 10
127.0
 20
283.0
 30
0.0
 40
74.0
100
AcDbArc
 50
0.0
 51
180.0
  0
ARC
  5
AC
100
AcDbEntity
  8
LAY-2
  6
EXLTYPE3
 62
     6
100
AcDbCircle
 10
127.0
 20
283.0
 30
0.0
 40
74.0
100
AcDbArc
 50
180.0
 51
0.0
  0
LINE
  5
AD
100
AcDbEntity
  8
LAY-2
  6
CONTINUOUS
 62
     2
100
AcDbLine
 10
127.250001
 20
522.451617
 30
0.0
 11
126.75
 21
522.451617
 31
0.0
  0
LINE
  5
AE
100
AcDbEntity
  8
LAY-2
  6
CONTINUOUS
 62
     2
100
AcDbLine
 10
126.75
 20
522.451617
 30
0.0
 11
125.5
 21
519.433849
 31
0.0
  0
LINE
  5
AF
100
AcDbEntity
  8
LAY-2
  6
CONTINUOUS
 62
     2
100
AcDbLine
 10
127.250001
 20
522.451617
 30
0.0
 11
128.5
 21
519.433859
 31
0.0
  0
LINE
  5
B0
100
AcDbEntity
  8
LAY-2
  6
CONTINUOUS
 62
     2
100
AcDbLine
 10
151.0
 20
472.451614
 30
0.0
 11
151.0
 21
479.451614
 31
0.0
  0
LINE
  5
B1
100
AcDbEntity
  8
LAY-2
  6
CONTINUOUS
 62
     2
100
AcDbLine
 10
151.0
 20
472.451614
 30
0.0
 11
139.0
 21
472.451614
 31
0.0
  0
LINE
  5
B2
100
AcDbEntity
  8
LAY-2
  6
CONTINUOUS
 62
     2
100
AcDbLine
 10
115.0
 20
438.076614
 30
0.0
 11
115.0
 21
472.451614
 31
0.0
  0
LINE
  5
B3
100
AcDbEntity
  8
LAY-2
  6
CONTINUOUS
 62
     2
100
AcDbLine
 10
139.0
 20
438.076614
 30
0.0
 11
139.0
 21
472.451614
 31
0.0
  0
LINE
  5
B4
100
AcDbEntity
  8
LAY-2
  6
CONTINUOUS
 62
     2
100
AcDbLine
 10
138.786108
 20
437.451614
 30
0.0
 11
201.0
 21
437.451614
 31
0.0
  0
LINE
  5
B5
100
AcDbEntity
  8
LAY-2
  6
CONTINUOUS
 62
     2
100
AcDbLine
 10
125.5
 20
479.451614
 30
0.0
 11
125.5
 21
519.433849
 31
0.0
  0
LINE
  5
B6
100
AcDbEntity
  8
LAY-2
  6
CONTINUOUS
 62
     2
100
AcDbLine
 10
128.5
 20
479.451614
 30
0.0
 11
128.5
 21
519.433859
 31
0.0
  0
LINE
  5
B7
100
AcDbEntity
  8
LAY-2
  6
CONTINUOUS
 62
     2
100
AcDbLine
 10
103.0
 20
472.451614
 30
0.0
 11
103.0
 21
479.451614
 31
0.0
  0
LINE
  5
B8
100
AcDbEntity
  8
LAY-2
  6
CONTINUOUS
 62
     2
100
AcDbLine
 10
53.0
 20
437.451614
 30
0.0
 11
115.213892
 21
437.451614
 31
0.0
  0
LINE
  5
B9
100
AcDbEntity
  8
LAY-2
  6
CONTINUOUS
 62
     2
100
AcDbLine
 10
139.0
 20
472.451614
 30
0.0
 11
103.0
 21
472.451614
 31
0.0
  0
LINE
  5
BA
100
AcDbEntity
  8
LAY-2
  6
CONTINUOUS
 62
     2
100
AcDbLine
 10
103.0
 20
479.451614
 30
0.0
 11
151.0
 21
479.451614
 31
0.0
  0
LINE
  5
BB
100
AcDbEntity
  8
LAY-2
  6
CONTINUOUS
 62
     2
100
AcDbLine
 10
138.8
 20
422.451614
 30
0.0
 11
115.2
 21
422.451614
 31
0.0
  0
ARC
  5
BC
100
AcDbEntity
  8
LAY-2
  6
CONTINUOUS
 62
     2
100
AcDbCircle
 10
115.2
 20
422.651614
 30
0.0
 40
0.2
100
AcDbArc
 50
180.0
 51
270.0
  0
LINE
  5
BD
100
AcDbEntity
  8
LAY-2
  6
CONTINUOUS
 62
     2
100
AcDbLine
 10
115.0
 20
422.651614
 30
0.0
 11
115.0
 21
424.826614
 31
0.0
  0
LINE
  5
BE
100
AcDbEntity
  8
LAY-2
  6
CONTINUOUS
 62
     2
100
AcDbLine
 10
139.0
 20
422.651614
 30
0.0
 11
139.0
 21
424.826614
 31
0.0
  0
ARC
  5
BF
100
AcDbEntity
  8
LAY-2
  6
CONTINUOUS
 62
     2
100
AcDbCircle
 10
138.8
 20
422.651614
 30
0.0
 40
0.2
100
AcDbArc
 50
270.0
 51
0.0
  0
ARC
  5
C0
100
AcDbEntity
  8
LAY-2
  6
CONTINUOUS
 62
     2
100
AcDbCircle
 10
127.0
 20
357.0
 30
0.0
 40
12.0
100
AcDbArc
 50
0.0
 51
180.0
  0
ARC
  5
C1
100
AcDbEntity
  8
LAY-2
  6
CONTINUOUS
 62
     2
100
AcDbCircle
 10
127.0
 20
357.0
 30
0.0
 40
12.0
100
AcDbArc
 50
180.0
 51
0.0
  0
LINE
  5
C2
100
AcDbEntity
  8
LAY-2
  6
CONTINUOUS
 62
     2
100
AcDbLine
 10
138.786108
 20
425.451614
 30
0.0
 11
201.0
 21
425.451614
 31
0.0
  0
ARC
  5
C3
100
AcDbEntity
  8
LAY-2
  6
CONTINUOUS
 62
     2
100
AcDbCircle
 10
127.0
 20
357.0
 30
0.0
 40
24.0
100
AcDbArc
 50
203.704959
 51
336.295041
  0
LINE
  5
C4
100
AcDbEntity
  8
LAY-2
  6
CONTINUOUS
 62
     2
100
AcDbLine
 10
115.213892
 20
425.451614
 30
0.0
 11
53.0
 21
425.451614
 31
0.0
  0
ARC
  5
C5
100
AcDbEntity
  8
LAY-2
  6
CONTINUOUS
 62
     2
100
AcDbCircle
 10
127.0
 20
357.0
 30
0.0
 40
24.0
100
AcDbArc
 50
5.622457
 51
174.377543
  0
ARC
  5
C6
100
AcDbEntity
  8
LAY-2
  6
CONTINUOUS
 62
     2
100
AcDbCircle
 10
127.0
 20
283.0
 30
0.0
 40
68.0
100
AcDbArc
 50
98.401432
 51
81.598568
  0
ARC
  5
C7
100
AcDbEntity
  8
LAY-2
  6
CONTINUOUS
 62
     2
100
AcDbCircle
 10
127.0
 20
283.0
 30
0.0
 40
80.0
100
AcDbArc
 50
97.744695
 51
82.255305
  0
ARC
  5
C8
100
AcDbEntity
  8
LAY-2
  6
CONTINUOUS
 62
     2
100
AcDbCircle
 10
53.0
 20
431.451614
 30
0.0
 40
6.0
100
AcDbArc
 50
90.0
 51
270.0
  0
ARC
  5
C9
100
AcDbEntity
  8
LAY-2
  6
CONTINUOUS
 62
     2
100
AcDbCircle
 10
96.661627
 20
431.451614
 30
0.0
 40
19.498373
100
AcDbArc
 50
340.13702
 51
19.86298
  0
ARC
  5
CA
100
AcDbEntity
  8
LAY-2
  6
CONTINUOUS
 62
     2
100
AcDbCircle
 10
157.338373
 20
431.451614
 30
0.0
 40
19.498373
100
AcDbArc
 50
160.13702
 51
199.86298
  0
ARC
  5
CB
100
AcDbEntity
  8
LAY-2
  6
CONTINUOUS
 62
     2
100
AcDbCircle
 10
201.0
 20
431.451614
 30
0.0
 40
6.0
100
AcDbArc
 50
270.0
 51
90.0
  0
LINE
  5
CC
100
AcDbEntity
  8
LAY-2
  6
EXLTYPE4
 62
     6
100
AcDbLine
 10
40.908405
 20
479.451614
 30
0.0
 11
220.3
 21
479.451614
 31
0.0
  0
LINE
  5
CD
100
AcDbEntity
  8
LAY-2
  6
EXLTYPE4
 62
     6
100
AcDbLine
 10
314.6
 20
453.771802
 30
0.0
 11
314.6
 21
177.193473
 31
0.0
  0
DIMENSION
  5
DA
100
AcDbEntity
  8
LAY-3
  6
CONTINUOUS
 62
     3
100
AcDbDimension
  2
*D14
 10
222.0
 20
209.0
 30
0.0
 11
217.3
 21
283.0
 31
0.0
 70
   160
  1
%%c148
  3
STANDARD
100
AcDbAlignedDimension
 13
127.0
 23
357.0
 33
0.0
 14
127.0
 24
209.0
 34
0.0
 50
90.0
100
AcDbRotatedDimension
1001
ACAD
1000
DSTYLE
1002
{
1070
     6
1000
_EX_NORM
1070
     7
1000
_EX_NORM
1070
    41
1040
6.0
1070
    42
1040
1.4
1070
    44
1040
2.0
1070
    73
1070
     0
1070
    74
1070
     0
1070
    75
1070
     0
1070
    76
1070
     0
1070
    77
1070
     1
1070
    78
1070
     8
1070
   140
1040
8.0
1070
   147
1040
0.7
1070
   173
1070
     1
1070
   176
1070
     3
1070
   177
1070
     3
1070
   178
1070
     2
1070
   271
1070
     2
1070
   279
1070
     2
1070
   280
1070
     0
1070
   287
1070
     5
1070
   340
1005
D9
1002
}
  0
DIMENSION
  5
E6
100
AcDbEntity
  8
LAY-3
  6
CONTINUOUS
 62
     3
100
AcDbDimension
  2
*D15
 10
377.284408
 20
343.0
 30
0.0
 11
372.584408
 21
357.0
 31
0.0
 70
   160
  3
STANDARD
100
AcDbAlignedDimension
 13
362.284408
 23
371.0
 33
0.0
 14
362.284408
 24
343.0
 34
0.0
 50
90.0
100
AcDbRotatedDimension
1001
ACAD
1000
DSTYLE
1002
{
1070
     6
1000
_EX_NORM
1070
     7
1000
_EX_NORM
1070
    41
1040
6.0
1070
    42
1040
1.4
1070
    44
1040
2.0
1070
    73
1070
     0
1070
    74
1070
     0
1070
    75
1070
     0
1070
    76
1070
     0
1070
    77
1070
     1
1070
    78
1070
     8
1070
   140
1040
8.0
1070
   147
1040
0.7
1070
   173
1070
     1
1070
   176
1070
     3
1070
   177
1070
     3
1070
   178
1070
     2
1070
   271
1070
     2
1070
   279
1070
     2
1070
   280
1070
     0
1070
   287
1070
     5
1070
   340
1005
D9
1002
}
  0
DIMENSION
  5
F2
100
AcDbEntity
  8
LAY-3
  6
CONTINUOUS
 62
     3
100
AcDbDimension
  2
*D16
 10
392.284408
 20
333.0
 30
0.0
 11
387.584408
 21
357.0
 31
0.0
 70
   160
  1
%%c48
  3
STANDARD
100
AcDbAlignedDimension
 13
314.6
 23
381.0
 33
0.0
 14
314.6
 24
333.0
 34
0.0
 50
90.0
100
AcDbRotatedDimension
1001
ACAD
1000
DSTYLE
1002
{
1070
     6
1000
_EX_NORM
1070
     7
1000
_EX_NORM
1070
    41
1040
6.0
1070
    42
1040
1.4
1070
    44
1040
2.0
1070
    73
1070
     0
1070
    74
1070
     0
1070
    75
1070
     0
1070
    76
1070
     0
1070
    77
1070
     1
1070
    78
1070
     8
1070
   140
1040
8.0
1070
   147
1040
0.7
1070
   173
1070
     1
1070
   176
1070
     3
1070
   177
1070
     3
1070
   178
1070
     2
1070
   271
1070
     2
1070
   279
1070
     2
1070
   280
1070
     0
1070
   287
1070
     5
1070
   340
1005
D9
1002
}
  0
DIMENSION
  5
FE
100
AcDbEntity
  8
LAY-3
  6
CONTINUOUS
 62
     3
100
AcDbDimension
  2
*D17
 10
242.6
 20
345.0
 30
0.0
 11
237.9
 21
357.0
 31
0.0
 70
   160
  1
%%c24
  3
STANDARD
100
AcDbAlignedDimension
 13
257.8
 23
369.0
 33
0.0
 14
257.8
 24
345.0
 34
0.0
 50
90.0
100
AcDbRotatedDimension
1001
ACAD
1000
DSTYLE
1002
{
1070
     6
1000
_EX_NORM
1070
     7
1000
_EX_NORM
1070
    41
1040
6.0
1070
    42
1040
1.4
1070
    44
1040
2.0
1070
    73
1070
     0
1070
    74
1070
     0
1070
    75
1070
     0
1070
    76
1070
     0
1070
    77
1070
     1
1070
    78
1070
     8
1070
   140
1040
8.0
1070
   147
1040
0.7
1070
   173
1070
     1
1070
   176
1070
     3
1070
   177
1070
     3
1070
   178
1070
     2
1070
   271
1070
     2
1070
   279
1070
     2
1070
   280
1070
     0
1070
   287
1070
     5
1070
   340
1005
D9
1002
}
  0
TEXT
  5
FF
100
AcDbEntity
  8
LAY-3
  6
CONTINUOUS
 62
     2
100
AcDbText
 10
138.0
 20
510.3
 30
0.0
 40
8.0
  1
φ４×４５
 41
0.6384
  7
EXCADSTD
 72
     5
 11
168.4
 21
510.3
 31
0.0
100
AcDbText
  0
LINE
  5
100
100
AcDbEntity
  8
LAY-3
  6
CONTINUOUS
 62
     6
100
AcDbLine
 10
139.3
 20
510.3
 30
0.0
 11
165.7
 21
510.3
 31
0.0
  0
LEADER
  5
101
100
AcDbEntity
  8
LAY-3
  6
CONTINUOUS
 62
     6
100
AcDbLeader
  3
STANDARD
 73
     3
 74
     1
 75
     0
 40
0.0
 76
     2
 10
128.5
 20
498.8
 30
0.0
 10
139.3
 20
510.3
 30
0.0
 77
     6
1001
ACAD
1000
DSTYLE
1002
{
1070
    41
1040
7.0
1070
     5
1000
_EX_NORM
1070
     6
1000
_EX_NORM
1070
     7
1000
_EX_NORM
1070
   341
1005
28
1002
}
  0
LINE
  5
102
100
AcDbEntity
  8
LAY-3
  6
CONTINUOUS
 62
     2
100
AcDbLine
 10
212.953669
 20
475.451614
 30
0.0
 11
215.263071
 21
479.451614
 31
0.0
  0
LINE
  5
103
100
AcDbEntity
  8
LAY-3
  6
CONTINUOUS
 62
     2
100
AcDbLine
 10
217.572471
 20
475.451614
 30
0.0
 11
215.26307
 21
479.451614
 31
0.0
  0
LINE
  5
104
100
AcDbEntity
  8
LAY-3
  6
CONTINUOUS
 62
     2
100
AcDbLine
 10
212.953669
 20
475.451614
 30
0.0
 11
217.572471
 21
475.451614
 31
0.0
  0
TEXT
  5
105
100
AcDbEntity
  8
LAY-3
  6
CONTINUOUS
 62
     2
100
AcDbText
 10
206.477121
 20
463.334475
 30
0.0
 40
8.0
  1
ＷＬ
 41
0.945
  7
EXCADSTD
 72
     5
 11
222.975921
 21
463.334475
 31
0.0
100
AcDbText
  0
DIMENSION
  5
10F
100
AcDbEntity
  8
LAY-3
  6
CONTINUOUS
 62
     3
100
AcDbDimension
  2
*D18
 10
272.6
 20
218.2
 30
0.0
 11
288.6
 21
222.9
 31
0.0
 70
   160
  1
%%c12
  3
STANDARD
100
AcDbAlignedDimension
 13
260.6
 23
218.2
 33
0.0
 14
272.6
 24
218.2
 34
0.0
100
AcDbRotatedDimension
1001
ACAD
1000
DSTYLE
1002
{
1070
     6
1000
_EX_NORM
1070
     7
1000
_EX_NORM
1070
    41
1040
6.0
1070
    42
1040
0.0
1070
    44
1040
0.0
1070
    73
1070
     0
1070
    74
1070
     0
1070
    75
1070
     1
1070
    76
1070
     1
1070
    77
1070
     1
1070
    78
1070
     8
1070
   140
1040
8.0
1070
   147
1040
0.7
1070
   173
1070
     1
1070
   176
1070
     3
1070
   177
1070
     3
1070
   178
1070
     2
1070
   271
1070
     2
1070
   279
1070
     2
1070
   280
1070
     2
1070
   287
1070
     5
1070
   340
1005
D9
1002
}
  0
LINE
  5
110
100
AcDbEntity
  8
LAY-3
  6
CONTINUOUS
 62
     2
100
AcDbLine
 10
314.6
 20
446.971802
 30
0.0
 11
309.057437
 21
450.171802
 31
0.0
  0
LINE
  5
111
100
AcDbEntity
  8
LAY-3
  6
CONTINUOUS
 62
     2
100
AcDbLine
 10
309.057437
 20
450.171802
 30
0.0
 11
309.057437
 21
443.771802
 31
0.0
  0
LINE
  5
112
100
AcDbEntity
  8
LAY-3
  6
CONTINUOUS
 62
     2
100
AcDbLine
 10
309.057437
 20
443.771802
 30
0.0
 11
314.6
 21
446.971802
 31
0.0
  0
TEXT
  5
113
100
AcDbEntity
  8
LAY-3
  6
CONTINUOUS
 62
     2
100
AcDbText
 10
290.18181
 20
443.039699
 30
0.0
 40
8.0
  1
ＷＬ
 41
0.945
  7
EXCADSTD
 72
     5
 11
306.68061
 21
443.039699
 31
0.0
100
AcDbText
  0
DIMENSION
  5
11E
100
AcDbEntity
  8
LAY-3
  6
CONTINUOUS
 62
     3
100
AcDbDimension
  2
*D19
 10
314.6
 20
411.0
 30
0.0
 11
286.1
 21
415.7
 31
0.0
 70
   160
  3
STANDARD
100
AcDbAlignedDimension
 13
257.6
 23
368.8
 33
0.0
 14
314.6
 24
411.0
 34
0.0
100
AcDbRotatedDimension
1001
ACAD
1000
DSTYLE
1002
{
1070
     6
1000
_EX_NORM
1070
     7
1000
_EX_NORM
1070
    41
1040
6.0
1070
    42
1040
1.4
1070
    44
1040
2.0
1070
    73
1070
     0
1070
    74
1070
     0
1070
    75
1070
     0
1070
    76
1070
     1
1070
    77
1070
     1
1070
    78
1070
     8
1070
   140
1040
8.0
1070
   147
1040
0.7
1070
   173
1070
     1
1070
   176
1070
     3
1070
   177
1070
     3
1070
   178
1070
     2
1070
   271
1070
     2
1070
   279
1070
     2
1070
   280
1070
     0
1070
   287
1070
     5
1070
   340
1005
D9
1002
}
  0
DIMENSION
  5
129
100
AcDbEntity
  8
LAY-3
  6
CONTINUOUS
 62
     3
100
AcDbDimension
  2
*D20
 10
314.6
 20
396.0
 30
0.0
 11
290.6
 21
400.7
 31
0.0
 70
   160
  3
STANDARD
100
AcDbAlignedDimension
 13
266.6
 23
369.89556
 33
0.0
 14
314.6
 24
396.0
 34
0.0
100
AcDbRotatedDimension
1001
ACAD
1000
DSTYLE
1002
{
1070
     6
1000
_EX_NORM
1070
     7
1000
_EX_NORM
1070
    41
1040
6.0
1070
    42
1040
1.4
1070
    44
1040
2.0
1070
    73
1070
     0
1070
    74
1070
     0
1070
    75
1070
     0
1070
    76
1070
     1
1070
    77
1070
     1
1070
    78
1070
     8
1070
   140
1040
8.0
1070
   147
1040
0.7
1070
   173
1070
     1
1070
   176
1070
     3
1070
   177
1070
     3
1070
   178
1070
     2
1070
   271
1070
     2
1070
   279
1070
     2
1070
   280
1070
     0
1070
   287
1070
     5
1070
   340
1005
D9
1002
}
  0
LINE
  5
12A
100
AcDbEntity
  8
LAY-1
  6
CONTINUOUS
 62
     7
100
AcDbLine
 10
35.8
 20
23.0
 30
0.0
 11
399.8
 21
23.0
 31
0.0
  0
LINE
  5
12B
100
AcDbEntity
  8
LAY-1
  6
CONTINUOUS
 62
     7
100
AcDbLine
 10
399.8
 20
23.0
 30
0.0
 11
399.8
 21
583.0
 31
0.0
  0
LINE
  5
12C
100
AcDbEntity
  8
LAY-1
  6
CONTINUOUS
 62
     7
100
AcDbLine
 10
35.8
 20
23.0
 30
0.0
 11
35.8
 21
583.0
 31
0.0
  0
LINE
  5
12D
100
AcDbEntity
  8
LAY-1
  6
CONTINUOUS
 62
     7
100
AcDbLine
 10
35.8
 20
583.0
 30
0.0
 11
399.8
 21
583.0
 31
0.0
  0
LINE
  5
12E
100
AcDbEntity
  8
LAY-1
  6
CONTINUOUS
 62
     7
100
AcDbLine
 10
35.8
 20
67.0
 30
0.0
 11
399.8
 21
67.0
 31
0.0
  0
LINE
  5
12F
100
AcDbEntity
  8
LAY-1
  6
CONTINUOUS
 62
     6
100
AcDbLine
 10
399.8
 20
43.0
 30
0.0
 11
149.8
 21
43.0
 31
0.0
  0
LINE
  5
130
100
AcDbEntity
  8
LAY-1
  6
CONTINUOUS
 62
     6
100
AcDbLine
 10
371.8
 20
67.0
 30
0.0
 11
371.8
 21
43.0
 31
0.0
  0
LINE
  5
131
100
AcDbEntity
  8
LAY-1
  6
CONTINUOUS
 62
     6
100
AcDbLine
 10
361.8
 20
67.0
 30
0.0
 11
361.8
 21
43.0
 31
0.0
  0
LINE
  5
132
100
AcDbEntity
  8
LAY-1
  6
CONTINUOUS
 62
     6
100
AcDbLine
 10
287.8
 20
67.0
 30
0.0
 11
287.8
 21
23.0
 31
0.0
  0
LINE
  5
133
100
AcDbEntity
  8
LAY-1
  6
CONTINUOUS
 62
     6
100
AcDbLine
 10
277.8
 20
67.0
 30
0.0
 11
277.8
 21
23.0
 31
0.0
  0
LINE
  5
134
100
AcDbEntity
  8
LAY-1
  6
CONTINUOUS
 62
     6
100
AcDbLine
 10
159.8
 20
67.0
 30
0.0
 11
159.8
 21
43.0
 31
0.0
  0
LINE
  5
135
100
AcDbEntity
  8
LAY-1
  6
CONTINUOUS
 62
     6
100
AcDbLine
 10
149.8
 20
67.0
 30
0.0
 11
149.8
 21
23.0
 31
0.0
  0
LINE
  5
136
100
AcDbEntity
  8
LAY-1
  6
CONTINUOUS
 62
     6
100
AcDbLine
 10
123.8
 20
67.0
 30
0.0
 11
123.8
 21
23.0
 31
0.0
  0
LINE
  5
137
100
AcDbEntity
  8
LAY-1
  6
CONTINUOUS
 62
     6
100
AcDbLine
 10
97.8
 20
67.0
 30
0.0
 11
97.8
 21
23.0
 31
0.0
  0
LINE
  5
138
100
AcDbEntity
  8
LAY-1
  6
CONTINUOUS
 62
     6
100
AcDbLine
 10
66.8
 20
67.0
 30
0.0
 11
66.8
 21
23.0
 31
0.0
  0
LINE
  5
139
100
AcDbEntity
  8
LAY-1
  6
CONTINUOUS
 62
     6
100
AcDbLine
 10
35.8
 20
57.0
 30
0.0
 11
149.8
 21
57.0
 31
0.0
  0
LINE
  5
13A
100
AcDbEntity
  8
LAY-1
  6
EXLTYPE2
 62
     6
100
AcDbLine
 10
35.8
 20
33.0
 30
0.0
 11
97.8
 21
33.0
 31
0.0
  0
CIRCLE
  5
13B
100
AcDbEntity
  8
LAY-1
  6
CONTINUOUS
 62
     6
100
AcDbCircle
 10
76.8
 20
28.0
 30
0.0
 40
0.2
  0
CIRCLE
  5
13C
100
AcDbEntity
  8
LAY-1
  6
CONTINUOUS
 62
     6
100
AcDbCircle
 10
86.8
 20
28.0
 30
0.0
 40
0.2
  0
TEXT
  5
13D
100
AcDbEntity
  8
LAY-1
  6
CONTINUOUS
 62
     2
100
AcDbText
 10
40.3
 20
57.75
 30
0.0
 40
8.5
  1
製図
 41
1.087059
  7
EXCADSTD
 72
     5
 11
60.4652
 21
57.75
 31
0.0
100
AcDbText
  0
TEXT
  5
13E
100
AcDbEntity
  8
LAY-1
  6
CONTINUOUS
 62
     2
100
AcDbText
 10
71.3
 20
57.75
 30
0.0
 40
8.5
  1
写図
 41
1.087059
  7
EXCADSTD
 72
     5
 11
91.4652
 21
57.75
 31
0.0
100
AcDbText
  0
TEXT
  5
13F
100
AcDbEntity
  8
LAY-1
  6
CONTINUOUS
 62
     2
100
AcDbText
 10
101.3
 20
57.75
 30
0.0
 40
8.5
  1
検図
 41
0.938824
  7
EXCADSTD
 72
     5
 11
118.7154
 21
57.75
 31
0.0
100
AcDbText
  0
TEXT
  5
140
100
AcDbEntity
  8
LAY-1
  6
CONTINUOUS
 62
     2
100
AcDbText
 10
127.3
 20
57.75
 30
0.0
 40
8.5
  1
承認
 41
0.938824
  7
EXCADSTD
 72
     5
 11
144.7154
 21
57.75
 31
0.0
100
AcDbText
  0
TEXT
  5
141
100
AcDbEntity
  8
LAY-1
  6
CONTINUOUS
 62
     2
100
AcDbText
 10
150.95
 20
55.75
 30
0.0
 40
8.5
  1
品
 41
0.84
  7
EXCADSTD
 72
     5
 11
157.75
 21
55.75
 31
0.0
100
AcDbText
  0
TEXT
  5
142
100
AcDbEntity
  8
LAY-1
  6
CONTINUOUS
 62
     2
100
AcDbText
 10
150.95
 20
45.75
 30
0.0
 40
8.5
  1
名
 41
0.84
  7
EXCADSTD
 72
     5
 11
157.75
 21
45.75
 31
0.0
100
AcDbText
  0
TEXT
  5
143
100
AcDbEntity
  8
LAY-1
  6
CONTINUOUS
 62
     2
100
AcDbText
 10
278.95
 20
55.75
 30
0.0
 40
8.5
  1
品
 41
0.84
  7
EXCADSTD
 72
     5
 11
285.75
 21
55.75
 31
0.0
100
AcDbText
  0
TEXT
  5
144
100
AcDbEntity
  8
LAY-1
  6
CONTINUOUS
 62
     2
100
AcDbText
 10
278.95
 20
45.75
 30
0.0
 40
8.5
  1
番
 41
0.84
  7
EXCADSTD
 72
     5
 11
285.75
 21
45.75
 31
0.0
100
AcDbText
  0
TEXT
  5
145
100
AcDbEntity
  8
LAY-1
  6
CONTINUOUS
 62
     2
100
AcDbText
 10
363.15
 20
55.75
 30
0.0
 40
8.5
  1
尺
 41
0.84
  7
EXCADSTD
 72
     5
 11
369.95
 21
55.75
 31
0.0
100
AcDbText
  0
TEXT
  5
146
100
AcDbEntity
  8
LAY-1
  6
CONTINUOUS
 62
     2
100
AcDbText
 10
363.15
 20
45.75
 30
0.0
 40
8.5
  1
度
 41
0.84
  7
EXCADSTD
 72
     5
 11
369.95
 21
45.75
 31
0.0
100
AcDbText
  0
TEXT
  5
147
100
AcDbEntity
  8
LAY-1
  6
CONTINUOUS
 62
     2
100
AcDbText
 10
278.95
 20
33.15
 30
0.0
 40
8.5
  1
図
 41
0.84
  7
EXCADSTD
 72
     5
 11
285.75
 21
33.15
 31
0.0
100
AcDbText
  0
TEXT
  5
148
100
AcDbEntity
  8
LAY-1
  6
CONTINUOUS
 62
     2
100
AcDbText
 10
278.95
 20
24.55
 30
0.0
 40
8.5
  1
番
 41
0.84
  7
EXCADSTD
 72
     5
 11
285.75
 21
24.55
 31
0.0
100
AcDbText
  0
LINE
  5
149
100
AcDbEntity
  8
LAY-1
  6
CONTINUOUS
 62
     3
100
AcDbLine
 10
165.289551
 20
36.057599
 30
0.0
 11
163.676819
 21
36.057599
 31
0.0
  0
LINE
  5
14A
100
AcDbEntity
  8
LAY-1
  6
CONTINUOUS
 62
     3
100
AcDbLine
 10
165.289551
 20
37.670392
 30
0.0
 11
165.289551
 21
36.057599
 31
0.0
  0
LINE
  5
14B
100
AcDbEntity
  8
LAY-1
  6
CONTINUOUS
 62
     3
100
AcDbLine
 10
163.676819
 20
37.670392
 30
0.0
 11
165.289551
 21
37.670392
 31
0.0
  0
LINE
  5
14C
100
AcDbEntity
  8
LAY-1
  6
CONTINUOUS
 62
     3
100
AcDbLine
 10
163.676819
 20
37.670392
 30
0.0
 11
163.676819
 21
36.057599
 31
0.0
  0
LINE
  5
14D
100
AcDbEntity
  8
LAY-1
  6
CONTINUOUS
 62
     3
100
AcDbLine
 10
163.071838
 20
36.057599
 30
0.0
 11
161.459106
 21
36.057599
 31
0.0
  0
LINE
  5
14E
100
AcDbEntity
  8
LAY-1
  6
CONTINUOUS
 62
     3
100
AcDbLine
 10
163.071838
 20
37.670392
 30
0.0
 11
163.071838
 21
36.057599
 31
0.0
  0
LINE
  5
14F
100
AcDbEntity
  8
LAY-1
  6
CONTINUOUS
 62
     3
100
AcDbLine
 10
161.459106
 20
37.670392
 30
0.0
 11
163.071838
 21
37.670392
 31
0.0
  0
LINE
  5
150
100
AcDbEntity
  8
LAY-1
  6
CONTINUOUS
 62
     3
100
AcDbLine
 10
161.459106
 20
37.670392
 30
0.0
 11
161.459106
 21
36.057599
 31
0.0
  0
LINE
  5
151
100
AcDbEntity
  8
LAY-1
  6
CONTINUOUS
 62
     3
100
AcDbLine
 10
159.777466
 20
28.8
 30
0.0
 11
154.0
 21
28.8
 31
0.0
  0
ARC
  5
152
100
AcDbEntity
  8
LAY-1
  6
CONTINUOUS
 62
     3
100
AcDbCircle
 10
159.777466
 20
32.428815
 30
0.0
 40
3.628799
100
AcDbArc
 50
270.000031
 51
334.000137
  0
LINE
  5
153
100
AcDbEntity
  8
LAY-1
  6
CONTINUOUS
 62
     3
100
AcDbLine
 10
165.289551
 20
35.452802
 30
0.0
 11
163.038605
 21
30.838025
 31
0.0
  0
LINE
  5
154
100
AcDbEntity
  8
LAY-1
  6
CONTINUOUS
 62
     3
100
AcDbLine
 10
162.822449
 20
35.452802
 30
0.0
 11
165.289551
 21
35.452802
 31
0.0
  0
LINE
  5
155
100
AcDbEntity
  8
LAY-1
  6
CONTINUOUS
 62
     3
100
AcDbLine
 10
161.002594
 20
31.721814
 30
0.0
 11
162.822449
 21
35.452802
 31
0.0
  0
ARC
  5
156
100
AcDbEntity
  8
LAY-1
  6
CONTINUOUS
 62
     3
100
AcDbCircle
 10
159.553101
 20
32.428815
 30
0.0
 40
1.6128
100
AcDbArc
 50
270.000031
 51
333.99855
  0
LINE
  5
157
100
AcDbEntity
  8
LAY-1
  6
CONTINUOUS
 62
     3
100
AcDbLine
 10
154.0
 20
30.815991
 30
0.0
 11
159.553101
 21
30.815991
 31
0.0
  0
LINE
  5
158
100
AcDbEntity
  8
LAY-1
  6
CONTINUOUS
 62
     3
100
AcDbLine
 10
154.0
 20
30.815991
 30
0.0
 11
154.0
 21
28.8
 31
0.0
  0
LINE
  5
159
100
AcDbEntity
  8
LAY-1
  6
CONTINUOUS
 62
     3
100
AcDbLine
 10
159.644989
 20
33.43678
 30
0.0
 11
154.0
 21
33.43678
 31
0.0
  0
LINE
  5
15A
100
AcDbEntity
  8
LAY-1
  6
CONTINUOUS
 62
     3
100
AcDbLine
 10
159.644989
 20
35.251202
 30
0.0
 11
159.644989
 21
33.43678
 31
0.0
  0
LINE
  5
15B
100
AcDbEntity
  8
LAY-1
  6
CONTINUOUS
 62
     3
100
AcDbLine
 10
154.0
 20
35.251202
 30
0.0
 11
159.644989
 21
35.251202
 31
0.0
  0
LINE
  5
15C
100
AcDbEntity
  8
LAY-1
  6
CONTINUOUS
 62
     3
100
AcDbLine
 10
154.0
 20
35.251202
 30
0.0
 11
154.0
 21
33.43678
 31
0.0
  0
LINE
  5
15D
100
AcDbEntity
  8
LAY-1
  6
CONTINUOUS
 62
     3
100
AcDbLine
 10
159.644989
 20
35.856
 30
0.0
 11
154.0
 21
35.856
 31
0.0
  0
LINE
  5
15E
100
AcDbEntity
  8
LAY-1
  6
CONTINUOUS
 62
     3
100
AcDbLine
 10
159.644989
 20
37.670392
 30
0.0
 11
159.644989
 21
35.856
 31
0.0
  0
LINE
  5
15F
100
AcDbEntity
  8
LAY-1
  6
CONTINUOUS
 62
     3
100
AcDbLine
 10
154.0
 20
37.670392
 30
0.0
 11
159.644989
 21
37.670392
 31
0.0
  0
LINE
  5
160
100
AcDbEntity
  8
LAY-1
  6
CONTINUOUS
 62
     3
100
AcDbLine
 10
154.0
 20
37.670392
 30
0.0
 11
154.0
 21
35.856
 31
0.0
  0
LINE
  5
161
100
AcDbEntity
  8
LAY-1
  6
CONTINUOUS
 62
     3
100
AcDbLine
 10
165.894531
 20
35.452802
 30
0.0
 11
165.894531
 21
34.041577
 31
0.0
  0
LINE
  5
162
100
AcDbEntity
  8
LAY-1
  6
CONTINUOUS
 62
     3
100
AcDbLine
 10
165.894531
 20
35.452802
 30
0.0
 11
167.730804
 21
35.452802
 31
0.0
  0
LINE
  5
163
100
AcDbEntity
  8
LAY-1
  6
CONTINUOUS
 62
     3
100
AcDbLine
 10
167.507263
 20
36.863995
 30
0.0
 11
167.730804
 21
35.452802
 31
0.0
  0
LINE
  5
164
100
AcDbEntity
  8
LAY-1
  6
CONTINUOUS
 62
     3
100
AcDbLine
 10
167.507263
 20
36.863995
 30
0.0
 11
169.752472
 21
36.863995
 31
0.0
  0
LINE
  5
165
100
AcDbEntity
  8
LAY-1
  6
CONTINUOUS
 62
     3
100
AcDbLine
 10
169.752472
 20
36.863995
 30
0.0
 11
169.975983
 21
35.452802
 31
0.0
  0
LINE
  5
166
100
AcDbEntity
  8
LAY-1
  6
CONTINUOUS
 62
     3
100
AcDbLine
 10
169.975983
 20
35.452802
 30
0.0
 11
175.57135
 21
35.452802
 31
0.0
  0
LINE
  5
167
100
AcDbEntity
  8
LAY-1
  6
CONTINUOUS
 62
     3
100
AcDbLine
 10
175.57135
 20
35.452802
 30
0.0
 11
174.394623
 21
32.810101
 31
0.0
  0
ARC
  5
168
100
AcDbEntity
  8
LAY-1
  6
CONTINUOUS
 62
     3
100
AcDbCircle
 10
171.632202
 20
34.040082
 30
0.0
 40
3.024021
100
AcDbArc
 50
263.465775
 51
335.998779
  0
LINE
  5
169
100
AcDbEntity
  8
LAY-1
  6
CONTINUOUS
 62
     3
100
AcDbLine
 10
171.287689
 20
31.035718
 30
0.0
 11
171.067413
 21
32.428815
 31
0.0
  0
ARC
  5
16A
100
AcDbEntity
  8
LAY-1
  6
CONTINUOUS
 62
     3
100
AcDbCircle
 10
171.011627
 20
33.638409
 30
0.0
 40
1.209601
100
AcDbArc
 50
272.623749
 51
336.006531
  0
LINE
  5
16B
100
AcDbEntity
  8
LAY-1
  6
CONTINUOUS
 62
     3
100
AcDbLine
 10
172.117004
 20
33.146405
 30
0.0
 11
172.515259
 21
34.041577
 31
0.0
  0
LINE
  5
16C
100
AcDbEntity
  8
LAY-1
  6
CONTINUOUS
 62
     3
100
AcDbLine
 10
172.515259
 20
34.041577
 30
0.0
 11
170.199524
 21
34.041577
 31
0.0
  0
LINE
  5
16D
100
AcDbEntity
  8
LAY-1
  6
CONTINUOUS
 62
     3
100
AcDbLine
 10
170.199524
 20
34.041577
 30
0.0
 11
171.029694
 21
28.8
 31
0.0
  0
LINE
  5
16E
100
AcDbEntity
  8
LAY-1
  6
CONTINUOUS
 62
     3
100
AcDbLine
 10
171.029694
 20
28.8
 30
0.0
 11
168.784485
 21
28.8
 31
0.0
  0
LINE
  5
16F
100
AcDbEntity
  8
LAY-1
  6
CONTINUOUS
 62
     2
100
AcDbLine
 10
168.784485
 20
28.8
 30
0.0
 11
167.954346
 21
34.041577
 31
0.0
  0
LINE
  5
170
100
AcDbEntity
  8
LAY-1
  6
CONTINUOUS
 62
     2
100
AcDbLine
 10
167.954346
 20
34.041577
 30
0.0
 11
165.894531
 21
34.041577
 31
0.0
  0
LINE
  5
171
100
AcDbEntity
  8
LAY-1
  6
CONTINUOUS
 62
     3
100
AcDbLine
 10
175.369537
 20
28.8
 30
0.0
 11
175.369537
 21
30.815991
 31
0.0
  0
LINE
  5
172
100
AcDbEntity
  8
LAY-1
  6
CONTINUOUS
 62
     3
100
AcDbLine
 10
175.369537
 20
30.815991
 30
0.0
 11
186.659088
 21
30.815991
 31
0.0
  0
LINE
  5
173
100
AcDbEntity
  8
LAY-1
  6
CONTINUOUS
 62
     3
100
AcDbLine
 10
186.659088
 20
30.815991
 30
0.0
 11
186.659088
 21
28.8
 31
0.0
  0
LINE
  5
174
100
AcDbEntity
  8
LAY-1
  6
CONTINUOUS
 62
     3
100
AcDbLine
 10
186.659088
 20
28.8
 30
0.0
 11
175.369537
 21
28.8
 31
0.0
  0
LINE
  5
175
100
AcDbEntity
  8
LAY-1
  6
CONTINUOUS
 62
     3
100
AcDbLine
 10
176.175903
 20
37.670392
 30
0.0
 11
176.175903
 21
35.654401
 31
0.0
  0
LINE
  5
176
100
AcDbEntity
  8
LAY-1
  6
CONTINUOUS
 62
     3
100
AcDbLine
 10
176.175903
 20
37.670392
 30
0.0
 11
185.852722
 21
37.670392
 31
0.0
  0
LINE
  5
177
100
AcDbEntity
  8
LAY-1
  6
CONTINUOUS
 62
     3
100
AcDbLine
 10
185.852722
 20
37.670392
 30
0.0
 11
185.852722
 21
35.654401
 31
0.0
  0
LINE
  5
178
100
AcDbEntity
  8
LAY-1
  6
CONTINUOUS
 62
     3
100
AcDbLine
 10
185.852722
 20
35.654401
 30
0.0
 11
176.175903
 21
35.654401
 31
0.0
  0
LINE
  5
179
100
AcDbEntity
  8
LAY-1
  6
CONTINUOUS
 62
     3
100
AcDbLine
 10
188.070435
 20
37.670392
 30
0.0
 11
188.070435
 21
35.654401
 31
0.0
  0
LINE
  5
17A
100
AcDbEntity
  8
LAY-1
  6
CONTINUOUS
 62
     3
100
AcDbLine
 10
188.070435
 20
37.670392
 30
0.0
 11
198.553619
 21
37.670392
 31
0.0
  0
LINE
  5
17B
100
AcDbEntity
  8
LAY-1
  6
CONTINUOUS
 62
     3
100
AcDbLine
 10
198.553619
 20
37.670392
 30
0.0
 11
195.410187
 21
33.343793
 31
0.0
  0
LINE
  5
17C
100
AcDbEntity
  8
LAY-1
  6
CONTINUOUS
 62
     3
100
AcDbLine
 10
195.410187
 20
33.343793
 30
0.0
 11
199.359985
 21
28.8
 31
0.0
  0
LINE
  5
17D
100
AcDbEntity
  8
LAY-1
  6
CONTINUOUS
 62
     3
100
AcDbLine
 10
199.359985
 20
28.8
 30
0.0
 11
196.421631
 21
28.8
 31
0.0
  0
LINE
  5
17E
100
AcDbEntity
  8
LAY-1
  6
CONTINUOUS
 62
     3
100
AcDbLine
 10
196.421631
 20
28.8
 30
0.0
 11
194.072266
 21
31.502545
 31
0.0
  0
LINE
  5
17F
100
AcDbEntity
  8
LAY-1
  6
CONTINUOUS
 62
     3
100
AcDbLine
 10
194.072266
 20
31.502545
 30
0.0
 11
193.19577
 21
30.29585
 31
0.0
  0
ARC
  5
180
100
AcDbEntity
  8
LAY-1
  6
CONTINUOUS
 62
     3
100
AcDbCircle
 10
190.259857
 20
32.428815
 30
0.0
 40
3.628799
100
AcDbArc
 50
270.000031
 51
324.00116
  0
LINE
  5
181
100
AcDbEntity
  8
LAY-1
  6
CONTINUOUS
 62
     3
100
AcDbLine
 10
190.259857
 20
28.8
 30
0.0
 11
187.264069
 21
28.8
 31
0.0
  0
LINE
  5
182
100
AcDbEntity
  8
LAY-1
  6
CONTINUOUS
 62
     3
100
AcDbLine
 10
187.264069
 20
28.8
 30
0.0
 11
187.264069
 21
30.815991
 31
0.0
  0
LINE
  5
183
100
AcDbEntity
  8
LAY-1
  6
CONTINUOUS
 62
     3
100
AcDbLine
 10
187.264069
 20
30.815991
 30
0.0
 11
189.80542
 21
30.815991
 31
0.0
  0
ARC
  5
184
100
AcDbEntity
  8
LAY-1
  6
CONTINUOUS
 62
     3
100
AcDbCircle
 10
189.80542
 20
32.831982
 30
0.0
 40
2.015999
100
AcDbArc
 50
270.000031
 51
323.996597
  0
LINE
  5
185
100
AcDbEntity
  8
LAY-1
  6
CONTINUOUS
 62
     3
100
AcDbLine
 10
191.436188
 20
31.647015
 30
0.0
 11
194.3479
 21
35.654401
 31
0.0
  0
LINE
  5
186
100
AcDbEntity
  8
LAY-1
  6
CONTINUOUS
 62
     3
100
AcDbLine
 10
194.3479
 20
35.654401
 30
0.0
 11
188.070435
 21
35.654401
 31
0.0
  0
LINE
  5
187
100
AcDbEntity
  8
LAY-1
  6
CONTINUOUS
 62
     3
100
AcDbLine
 10
201.779114
 20
37.670392
 30
0.0
 11
201.779114
 21
36.259198
 31
0.0
  0
LINE
  5
188
100
AcDbEntity
  8
LAY-1
  6
CONTINUOUS
 62
     3
100
AcDbLine
 10
201.779114
 20
37.670392
 30
0.0
 11
212.262268
 21
37.670392
 31
0.0
  0
LINE
  5
189
100
AcDbEntity
  8
LAY-1
  6
CONTINUOUS
 62
     3
100
AcDbLine
 10
212.262268
 20
37.670392
 30
0.0
 11
212.262268
 21
36.259198
 31
0.0
  0
LINE
  5
18A
100
AcDbEntity
  8
LAY-1
  6
CONTINUOUS
 62
     3
100
AcDbLine
 10
212.262268
 20
36.259198
 30
0.0
 11
208.129547
 21
36.259198
 31
0.0
  0
LINE
  5
18B
100
AcDbEntity
  8
LAY-1
  6
CONTINUOUS
 62
     3
100
AcDbLine
 10
208.129547
 20
36.259198
 30
0.0
 11
208.129547
 21
30.412823
 31
0.0
  0
LINE
  5
18C
100
AcDbEntity
  8
LAY-1
  6
CONTINUOUS
 62
     3
100
AcDbLine
 10
208.129547
 20
30.412823
 30
0.0
 11
212.665466
 21
30.412823
 31
0.0
  0
LINE
  5
18D
100
AcDbEntity
  8
LAY-1
  6
CONTINUOUS
 62
     3
100
AcDbLine
 10
212.665466
 20
30.412823
 30
0.0
 11
212.665466
 21
28.8
 31
0.0
  0
LINE
  5
18E
100
AcDbEntity
  8
LAY-1
  6
CONTINUOUS
 62
     3
100
AcDbLine
 10
212.665466
 20
28.8
 30
0.0
 11
201.375916
 21
28.8
 31
0.0
  0
LINE
  5
18F
100
AcDbEntity
  8
LAY-1
  6
CONTINUOUS
 62
     3
100
AcDbLine
 10
201.375916
 20
28.8
 30
0.0
 11
201.375916
 21
30.412823
 31
0.0
  0
LINE
  5
190
100
AcDbEntity
  8
LAY-1
  6
CONTINUOUS
 62
     3
100
AcDbLine
 10
201.375916
 20
30.412823
 30
0.0
 11
205.911835
 21
30.412823
 31
0.0
  0
LINE
  5
191
100
AcDbEntity
  8
LAY-1
  6
CONTINUOUS
 62
     3
100
AcDbLine
 10
205.911835
 20
30.412823
 30
0.0
 11
205.911835
 21
36.259198
 31
0.0
  0
LINE
  5
192
100
AcDbEntity
  8
LAY-1
  6
CONTINUOUS
 62
     3
100
AcDbLine
 10
205.911835
 20
36.259198
 30
0.0
 11
201.779114
 21
36.259198
 31
0.0
  0
LINE
  5
193
100
AcDbEntity
  8
LAY-1
  6
CONTINUOUS
 62
     3
100
AcDbLine
 10
212.867249
 20
36.460797
 30
0.0
 11
212.867249
 21
35.533429
 31
0.0
  0
LINE
  5
194
100
AcDbEntity
  8
LAY-1
  6
CONTINUOUS
 62
     3
100
AcDbLine
 10
212.867249
 20
36.460797
 30
0.0
 11
214.618622
 21
36.460797
 31
0.0
  0
LINE
  5
195
100
AcDbEntity
  8
LAY-1
  6
CONTINUOUS
 62
     3
100
AcDbLine
 10
214.618622
 20
36.460797
 30
0.0
 11
213.673645
 21
37.670392
 31
0.0
  0
LINE
  5
196
100
AcDbEntity
  8
LAY-1
  6
CONTINUOUS
 62
     3
100
AcDbLine
 10
213.673645
 20
37.670392
 30
0.0
 11
215.464386
 21
37.670392
 31
0.0
  0
LINE
  5
197
100
AcDbEntity
  8
LAY-1
  6
CONTINUOUS
 62
     3
100
AcDbLine
 10
215.464386
 20
37.670392
 30
0.0
 11
216.409363
 21
36.460797
 31
0.0
  0
LINE
  5
198
100
AcDbEntity
  8
LAY-1
  6
CONTINUOUS
 62
     3
100
AcDbLine
 10
216.409363
 20
36.460797
 30
0.0
 11
216.798615
 21
36.460797
 31
0.0
  0
LINE
  5
199
100
AcDbEntity
  8
LAY-1
  6
CONTINUOUS
 62
     3
100
AcDbLine
 10
216.798615
 20
36.460797
 30
0.0
 11
216.798615
 21
37.670392
 31
0.0
  0
LINE
  5
19A
100
AcDbEntity
  8
LAY-1
  6
CONTINUOUS
 62
     3
100
AcDbLine
 10
216.798615
 20
37.670392
 30
0.0
 11
218.209534
 21
37.670392
 31
0.0
  0
LINE
  5
19B
100
AcDbEntity
  8
LAY-1
  6
CONTINUOUS
 62
     3
100
AcDbLine
 10
218.209534
 20
37.670392
 30
0.0
 11
218.209534
 21
36.460797
 31
0.0
  0
LINE
  5
19C
100
AcDbEntity
  8
LAY-1
  6
CONTINUOUS
 62
     3
100
AcDbLine
 10
218.209534
 20
36.460797
 30
0.0
 11
218.814514
 21
36.460797
 31
0.0
  0
LINE
  5
19D
100
AcDbEntity
  8
LAY-1
  6
CONTINUOUS
 62
     3
100
AcDbLine
 10
218.814514
 20
36.460797
 30
0.0
 11
218.814514
 21
37.670392
 31
0.0
  0
LINE
  5
19E
100
AcDbEntity
  8
LAY-1
  6
CONTINUOUS
 62
     3
100
AcDbLine
 10
218.814514
 20
37.670392
 30
0.0
 11
220.225464
 21
37.670392
 31
0.0
  0
LINE
  5
19F
100
AcDbEntity
  8
LAY-1
  6
CONTINUOUS
 62
     3
100
AcDbLine
 10
220.225464
 20
37.670392
 30
0.0
 11
220.225464
 21
36.460797
 31
0.0
  0
LINE
  5
1A0
100
AcDbEntity
  8
LAY-1
  6
CONTINUOUS
 62
     3
100
AcDbLine
 10
220.225464
 20
36.460797
 30
0.0
 11
220.614716
 21
36.460797
 31
0.0
  0
LINE
  5
1A1
100
AcDbEntity
  8
LAY-1
  6
CONTINUOUS
 62
     3
100
AcDbLine
 10
220.614716
 20
36.460797
 30
0.0
 11
221.559692
 21
37.670392
 31
0.0
  0
LINE
  5
1A2
100
AcDbEntity
  8
LAY-1
  6
CONTINUOUS
 62
     3
100
AcDbLine
 10
221.559692
 20
37.670392
 30
0.0
 11
223.350433
 21
37.670392
 31
0.0
  0
LINE
  5
1A3
100
AcDbEntity
  8
LAY-1
  6
CONTINUOUS
 62
     3
100
AcDbLine
 10
223.350433
 20
37.670392
 30
0.0
 11
222.405457
 21
36.460797
 31
0.0
  0
LINE
  5
1A4
100
AcDbEntity
  8
LAY-1
  6
CONTINUOUS
 62
     3
100
AcDbLine
 10
222.405457
 20
36.460797
 30
0.0
 11
224.156799
 21
36.460797
 31
0.0
  0
LINE
  5
1A5
100
AcDbEntity
  8
LAY-1
  6
CONTINUOUS
 62
     3
100
AcDbLine
 10
224.156799
 20
36.460797
 30
0.0
 11
224.156799
 21
35.533429
 31
0.0
  0
LINE
  5
1A6
100
AcDbEntity
  8
LAY-1
  6
CONTINUOUS
 62
     3
100
AcDbLine
 10
224.156799
 20
35.533429
 30
0.0
 11
222.032196
 21
35.533429
 31
0.0
  0
LINE
  5
1A7
100
AcDbEntity
  8
LAY-1
  6
CONTINUOUS
 62
     3
100
AcDbLine
 10
222.032196
 20
35.533429
 30
0.0
 11
221.665527
 21
34.525464
 31
0.0
  0
LINE
  5
1A8
100
AcDbEntity
  8
LAY-1
  6
CONTINUOUS
 62
     3
100
AcDbLine
 10
221.665527
 20
34.525464
 30
0.0
 11
224.156799
 21
34.525464
 31
0.0
  0
LINE
  5
1A9
100
AcDbEntity
  8
LAY-1
  6
CONTINUOUS
 62
     3
100
AcDbLine
 10
224.156799
 20
34.525464
 30
0.0
 11
224.156799
 21
33.598096
 31
0.0
  0
LINE
  5
1AA
100
AcDbEntity
  8
LAY-1
  6
CONTINUOUS
 62
     3
100
AcDbLine
 10
224.156799
 20
33.598096
 30
0.0
 11
219.519989
 21
33.598096
 31
0.0
  0
LINE
  5
1AB
100
AcDbEntity
  8
LAY-1
  6
CONTINUOUS
 62
     3
100
AcDbLine
 10
219.519989
 20
33.598096
 30
0.0
 11
219.519989
 21
33.134412
 31
0.0
  0
LINE
  5
1AC
100
AcDbEntity
  8
LAY-1
  6
CONTINUOUS
 62
     3
100
AcDbLine
 10
219.519989
 20
33.134412
 30
0.0
 11
224.156799
 21
33.134412
 31
0.0
  0
LINE
  5
1AD
100
AcDbEntity
  8
LAY-1
  6
CONTINUOUS
 62
     3
100
AcDbLine
 10
224.156799
 20
33.134412
 30
0.0
 11
224.156799
 21
32.207043
 31
0.0
  0
LINE
  5
1AE
100
AcDbEntity
  8
LAY-1
  6
CONTINUOUS
 62
     3
100
AcDbLine
 10
224.156799
 20
32.207043
 30
0.0
 11
219.519989
 21
32.207043
 31
0.0
  0
LINE
  5
1AF
100
AcDbEntity
  8
LAY-1
  6
CONTINUOUS
 62
     3
100
AcDbLine
 10
219.519989
 20
32.207043
 30
0.0
 11
219.519989
 21
31.743359
 31
0.0
  0
LINE
  5
1B0
100
AcDbEntity
  8
LAY-1
  6
CONTINUOUS
 62
     3
100
AcDbLine
 10
219.519989
 20
31.743359
 30
0.0
 11
224.156799
 21
31.743359
 31
0.0
  0
LINE
  5
1B1
100
AcDbEntity
  8
LAY-1
  6
CONTINUOUS
 62
     3
100
AcDbLine
 10
224.156799
 20
31.743359
 30
0.0
 11
224.156799
 21
30.815991
 31
0.0
  0
LINE
  5
1B2
100
AcDbEntity
  8
LAY-1
  6
CONTINUOUS
 62
     3
100
AcDbLine
 10
224.156799
 20
30.815991
 30
0.0
 11
221.925568
 21
30.815991
 31
0.0
  0
LINE
  5
1B3
100
AcDbEntity
  8
LAY-1
  6
CONTINUOUS
 62
     3
100
AcDbLine
 10
221.925568
 20
30.815991
 30
0.0
 11
224.156799
 21
28.8
 31
0.0
  0
LINE
  5
1B4
100
AcDbEntity
  8
LAY-1
  6
CONTINUOUS
 62
     3
100
AcDbLine
 10
224.156799
 20
28.8
 30
0.0
 11
221.751251
 21
28.8
 31
0.0
  0
LINE
  5
1B5
100
AcDbEntity
  8
LAY-1
  6
CONTINUOUS
 62
     3
100
AcDbLine
 10
221.751251
 20
28.8
 30
0.0
 11
219.519989
 21
30.815991
 31
0.0
  0
LINE
  5
1B6
100
AcDbEntity
  8
LAY-1
  6
CONTINUOUS
 62
     3
100
AcDbLine
 10
219.519989
 20
30.815991
 30
0.0
 11
219.519989
 21
28.8
 31
0.0
  0
LINE
  5
1B7
100
AcDbEntity
  8
LAY-1
  6
CONTINUOUS
 62
     3
100
AcDbLine
 10
219.519989
 20
28.8
 30
0.0
 11
217.504089
 21
28.8
 31
0.0
  0
LINE
  5
1B8
100
AcDbEntity
  8
LAY-1
  6
CONTINUOUS
 62
     3
100
AcDbLine
 10
217.504089
 20
28.8
 30
0.0
 11
217.504089
 21
30.815991
 31
0.0
  0
LINE
  5
1B9
100
AcDbEntity
  8
LAY-1
  6
CONTINUOUS
 62
     3
100
AcDbLine
 10
217.504089
 20
30.815991
 30
0.0
 11
215.272827
 21
28.8
 31
0.0
  0
LINE
  5
1BA
100
AcDbEntity
  8
LAY-1
  6
CONTINUOUS
 62
     3
100
AcDbLine
 10
215.272827
 20
28.8
 30
0.0
 11
212.867249
 21
28.8
 31
0.0
  0
LINE
  5
1BB
100
AcDbEntity
  8
LAY-1
  6
CONTINUOUS
 62
     3
100
AcDbLine
 10
212.867249
 20
28.8
 30
0.0
 11
215.098511
 21
30.815991
 31
0.0
  0
LINE
  5
1BC
100
AcDbEntity
  8
LAY-1
  6
CONTINUOUS
 62
     3
100
AcDbLine
 10
215.098511
 20
30.815991
 30
0.0
 11
212.867249
 21
30.815991
 31
0.0
  0
LINE
  5
1BD
100
AcDbEntity
  8
LAY-1
  6
CONTINUOUS
 62
     3
100
AcDbLine
 10
212.867249
 20
30.815991
 30
0.0
 11
212.867249
 21
31.743359
 31
0.0
  0
LINE
  5
1BE
100
AcDbEntity
  8
LAY-1
  6
CONTINUOUS
 62
     3
100
AcDbLine
 10
212.867249
 20
31.743359
 30
0.0
 11
217.504089
 21
31.743359
 31
0.0
  0
LINE
  5
1BF
100
AcDbEntity
  8
LAY-1
  6
CONTINUOUS
 62
     3
100
AcDbLine
 10
217.504089
 20
31.743359
 30
0.0
 11
217.504089
 21
32.207043
 31
0.0
  0
LINE
  5
1C0
100
AcDbEntity
  8
LAY-1
  6
CONTINUOUS
 62
     3
100
AcDbLine
 10
217.504089
 20
32.207043
 30
0.0
 11
212.867249
 21
32.207043
 31
0.0
  0
LINE
  5
1C1
100
AcDbEntity
  8
LAY-1
  6
CONTINUOUS
 62
     3
100
AcDbLine
 10
212.867249
 20
32.207043
 30
0.0
 11
212.867249
 21
33.134412
 31
0.0
  0
LINE
  5
1C2
100
AcDbEntity
  8
LAY-1
  6
CONTINUOUS
 62
     3
100
AcDbLine
 10
212.867249
 20
33.134412
 30
0.0
 11
217.504089
 21
33.134412
 31
0.0
  0
LINE
  5
1C3
100
AcDbEntity
  8
LAY-1
  6
CONTINUOUS
 62
     3
100
AcDbLine
 10
217.504089
 20
33.134412
 30
0.0
 11
217.504089
 21
33.598096
 31
0.0
  0
LINE
  5
1C4
100
AcDbEntity
  8
LAY-1
  6
CONTINUOUS
 62
     3
100
AcDbLine
 10
217.504089
 20
33.598096
 30
0.0
 11
212.867249
 21
33.598096
 31
0.0
  0
LINE
  5
1C5
100
AcDbEntity
  8
LAY-1
  6
CONTINUOUS
 62
     3
100
AcDbLine
 10
212.867249
 20
33.598096
 30
0.0
 11
212.867249
 21
34.525464
 31
0.0
  0
LINE
  5
1C6
100
AcDbEntity
  8
LAY-1
  6
CONTINUOUS
 62
     3
100
AcDbLine
 10
212.867249
 20
34.525464
 30
0.0
 11
215.358551
 21
34.525464
 31
0.0
  0
LINE
  5
1C7
100
AcDbEntity
  8
LAY-1
  6
CONTINUOUS
 62
     3
100
AcDbLine
 10
215.358551
 20
34.525464
 30
0.0
 11
214.991882
 21
35.533429
 31
0.0
  0
LINE
  5
1C8
100
AcDbEntity
  8
LAY-1
  6
CONTINUOUS
 62
     3
100
AcDbLine
 10
214.991882
 20
35.533429
 30
0.0
 11
212.867249
 21
35.533429
 31
0.0
  0
LINE
  5
1C9
100
AcDbEntity
  8
LAY-1
  6
CONTINUOUS
 62
     3
100
AcDbLine
 10
217.136993
 20
35.533429
 30
0.0
 11
219.887085
 21
35.533429
 31
0.0
  0
LINE
  5
1CA
100
AcDbEntity
  8
LAY-1
  6
CONTINUOUS
 62
     3
100
AcDbLine
 10
219.887085
 20
35.533429
 30
0.0
 11
219.519989
 21
34.525464
 31
0.0
  0
LINE
  5
1CB
100
AcDbEntity
  8
LAY-1
  6
CONTINUOUS
 62
     3
100
AcDbLine
 10
219.519989
 20
34.525464
 30
0.0
 11
217.504089
 21
34.525464
 31
0.0
  0
LINE
  5
1CC
100
AcDbEntity
  8
LAY-1
  6
CONTINUOUS
 62
     3
100
AcDbLine
 10
217.504089
 20
34.525464
 30
0.0
 11
217.136993
 21
35.533429
 31
0.0
  0
LINE
  5
1CD
100
AcDbEntity
  8
LAY-1
  6
CONTINUOUS
 62
     3
100
AcDbLine
 10
229.651276
 20
37.670392
 30
0.0
 11
228.997894
 21
35.049603
 31
0.0
  0
LINE
  5
1CE
100
AcDbEntity
  8
LAY-1
  6
CONTINUOUS
 62
     3
100
AcDbLine
 10
229.651276
 20
37.670392
 30
0.0
 11
231.313629
 21
37.670392
 31
0.0
  0
LINE
  5
1CF
100
AcDbEntity
  8
LAY-1
  6
CONTINUOUS
 62
     3
100
AcDbLine
 10
231.313629
 20
37.670392
 30
0.0
 11
231.062195
 21
36.662396
 31
0.0
  0
LINE
  5
1D0
100
AcDbEntity
  8
LAY-1
  6
CONTINUOUS
 62
     3
100
AcDbLine
 10
231.062195
 20
36.662396
 30
0.0
 11
231.716827
 21
36.662396
 31
0.0
  0
LINE
  5
1D1
100
AcDbEntity
  8
LAY-1
  6
CONTINUOUS
 62
     3
100
AcDbLine
 10
231.716827
 20
36.662396
 30
0.0
 11
231.716827
 21
37.670392
 31
0.0
  0
LINE
  5
1D2
100
AcDbEntity
  8
LAY-1
  6
CONTINUOUS
 62
     3
100
AcDbLine
 10
231.716827
 20
37.670392
 30
0.0
 11
233.531342
 21
37.670392
 31
0.0
  0
LINE
  5
1D3
100
AcDbEntity
  8
LAY-1
  6
CONTINUOUS
 62
     3
100
AcDbLine
 10
233.531342
 20
37.670392
 30
0.0
 11
233.531342
 21
36.662396
 31
0.0
  0
LINE
  5
1D4
100
AcDbEntity
  8
LAY-1
  6
CONTINUOUS
 62
     3
100
AcDbLine
 10
233.531342
 20
36.662396
 30
0.0
 11
235.849548
 21
36.662396
 31
0.0
  0
LINE
  5
1D5
100
AcDbEntity
  8
LAY-1
  6
CONTINUOUS
 62
     3
100
AcDbLine
 10
235.849548
 20
36.662396
 30
0.0
 11
235.849548
 21
35.654401
 31
0.0
  0
LINE
  5
1D6
100
AcDbEntity
  8
LAY-1
  6
CONTINUOUS
 62
     3
100
AcDbLine
 10
233.531342
 20
35.654401
 30
0.0
 11
235.849548
 21
35.654401
 31
0.0
  0
LINE
  5
1D7
100
AcDbEntity
  8
LAY-1
  6
CONTINUOUS
 62
     3
100
AcDbLine
 10
233.531342
 20
35.654401
 30
0.0
 11
233.531342
 21
34.646405
 31
0.0
  0
LINE
  5
1D8
100
AcDbEntity
  8
LAY-1
  6
CONTINUOUS
 62
     3
100
AcDbLine
 10
233.531342
 20
34.646405
 30
0.0
 11
236.051331
 21
34.646405
 31
0.0
  0
LINE
  5
1D9
100
AcDbEntity
  8
LAY-1
  6
CONTINUOUS
 62
     3
100
AcDbLine
 10
236.051331
 20
34.646405
 30
0.0
 11
236.051331
 21
33.638409
 31
0.0
  0
LINE
  5
1DA
100
AcDbEntity
  8
LAY-1
  6
CONTINUOUS
 62
     3
100
AcDbLine
 10
236.051331
 20
33.638409
 30
0.0
 11
235.170319
 21
33.638409
 31
0.0
  0
LINE
  5
1DB
100
AcDbEntity
  8
LAY-1
  6
CONTINUOUS
 62
     3
100
AcDbLine
 10
235.170319
 20
33.638409
 30
0.0
 11
236.051331
 21
28.8
 31
0.0
  0
LINE
  5
1DC
100
AcDbEntity
  8
LAY-1
  6
CONTINUOUS
 62
     3
100
AcDbLine
 10
236.051331
 20
28.8
 30
0.0
 11
234.411957
 21
28.8
 31
0.0
  0
LINE
  5
1DD
100
AcDbEntity
  8
LAY-1
  6
CONTINUOUS
 62
     3
100
AcDbLine
 10
234.411957
 20
28.8
 30
0.0
 11
233.531342
 21
33.638348
 31
0.0
  0
LINE
  5
1DE
100
AcDbEntity
  8
LAY-1
  6
CONTINUOUS
 62
     3
100
AcDbLine
 10
233.531342
 20
33.638348
 30
0.0
 11
233.531342
 21
28.8
 31
0.0
  0
LINE
  5
1DF
100
AcDbEntity
  8
LAY-1
  6
CONTINUOUS
 62
     3
100
AcDbLine
 10
233.531342
 20
28.8
 30
0.0
 11
231.716827
 21
28.8
 31
0.0
  0
LINE
  5
1E0
100
AcDbEntity
  8
LAY-1
  6
CONTINUOUS
 62
     3
100
AcDbLine
 10
231.716827
 20
28.8
 30
0.0
 11
231.716827
 21
33.638409
 31
0.0
  0
LINE
  5
1E1
100
AcDbEntity
  8
LAY-1
  6
CONTINUOUS
 62
     3
100
AcDbLine
 10
231.716827
 20
33.638409
 30
0.0
 11
230.836212
 21
28.8
 31
0.0
  0
LINE
  5
1E2
100
AcDbEntity
  8
LAY-1
  6
CONTINUOUS
 62
     3
100
AcDbLine
 10
230.836212
 20
28.8
 30
0.0
 11
229.196808
 21
28.8
 31
0.0
  0
LINE
  5
1E3
100
AcDbEntity
  8
LAY-1
  6
CONTINUOUS
 62
     3
100
AcDbLine
 10
229.196808
 20
28.8
 30
0.0
 11
230.077423
 21
33.638409
 31
0.0
  0
LINE
  5
1E4
100
AcDbEntity
  8
LAY-1
  6
CONTINUOUS
 62
     3
100
AcDbLine
 10
230.077423
 20
33.638409
 30
0.0
 11
229.196808
 21
33.638409
 31
0.0
  0
LINE
  5
1E5
100
AcDbEntity
  8
LAY-1
  6
CONTINUOUS
 62
     3
100
AcDbLine
 10
229.196808
 20
33.638409
 30
0.0
 11
229.196808
 21
34.646405
 31
0.0
  0
LINE
  5
1E6
100
AcDbEntity
  8
LAY-1
  6
CONTINUOUS
 62
     3
100
AcDbLine
 10
229.196808
 20
34.646405
 30
0.0
 11
231.716827
 21
34.646405
 31
0.0
  0
LINE
  5
1E7
100
AcDbEntity
  8
LAY-1
  6
CONTINUOUS
 62
     3
100
AcDbLine
 10
231.716827
 20
34.646405
 30
0.0
 11
231.716827
 21
35.654401
 31
0.0
  0
LINE
  5
1E8
100
AcDbEntity
  8
LAY-1
  6
CONTINUOUS
 62
     3
100
AcDbLine
 10
231.716827
 20
35.654401
 30
0.0
 11
230.810791
 21
35.654401
 31
0.0
  0
LINE
  5
1E9
100
AcDbEntity
  8
LAY-1
  6
CONTINUOUS
 62
     3
100
AcDbLine
 10
230.810791
 20
35.654401
 30
0.0
 11
230.660248
 21
35.049603
 31
0.0
  0
LINE
  5
1EA
100
AcDbEntity
  8
LAY-1
  6
CONTINUOUS
 62
     3
100
AcDbLine
 10
230.660248
 20
35.049603
 30
0.0
 11
228.997894
 21
35.049603
 31
0.0
  0
LINE
  5
1EB
100
AcDbEntity
  8
LAY-1
  6
CONTINUOUS
 62
     3
100
AcDbLine
 10
224.559998
 20
36.662396
 30
0.0
 11
224.559998
 21
35.654401
 31
0.0
  0
LINE
  5
1EC
100
AcDbEntity
  8
LAY-1
  6
CONTINUOUS
 62
     3
100
AcDbLine
 10
224.559998
 20
36.662396
 30
0.0
 11
226.575928
 21
36.662396
 31
0.0
  0
LINE
  5
1ED
100
AcDbEntity
  8
LAY-1
  6
CONTINUOUS
 62
     3
100
AcDbLine
 10
226.575928
 20
36.662396
 30
0.0
 11
226.575928
 21
37.670392
 31
0.0
  0
LINE
  5
1EE
100
AcDbEntity
  8
LAY-1
  6
CONTINUOUS
 62
     3
100
AcDbLine
 10
226.575928
 20
37.670392
 30
0.0
 11
228.390442
 21
37.670392
 31
0.0
  0
LINE
  5
1EF
100
AcDbEntity
  8
LAY-1
  6
CONTINUOUS
 62
     3
100
AcDbLine
 10
228.390442
 20
37.670392
 30
0.0
 11
228.390442
 21
36.662396
 31
0.0
  0
LINE
  5
1F0
100
AcDbEntity
  8
LAY-1
  6
CONTINUOUS
 62
     3
100
AcDbLine
 10
228.390442
 20
36.662396
 30
0.0
 11
228.995026
 21
36.662396
 31
0.0
  0
LINE
  5
1F1
100
AcDbEntity
  8
LAY-1
  6
CONTINUOUS
 62
     3
100
AcDbLine
 10
228.995026
 20
36.662396
 30
0.0
 11
228.995026
 21
35.654401
 31
0.0
  0
LINE
  5
1F2
100
AcDbEntity
  8
LAY-1
  6
CONTINUOUS
 62
     3
100
AcDbLine
 10
228.995026
 20
35.654401
 30
0.0
 11
228.390442
 21
35.654401
 31
0.0
  0
LINE
  5
1F3
100
AcDbEntity
  8
LAY-1
  6
CONTINUOUS
 62
     3
100
AcDbLine
 10
228.390442
 20
35.654401
 30
0.0
 11
228.995026
 21
34.822003
 31
0.0
  0
LINE
  5
1F4
100
AcDbEntity
  8
LAY-1
  6
CONTINUOUS
 62
     3
100
AcDbLine
 10
228.995026
 20
34.822003
 30
0.0
 11
228.995026
 21
32.764142
 31
0.0
  0
LINE
  5
1F5
100
AcDbEntity
  8
LAY-1
  6
CONTINUOUS
 62
     3
100
AcDbLine
 10
228.995026
 20
32.764142
 30
0.0
 11
228.390442
 21
33.59657
 31
0.0
  0
LINE
  5
1F6
100
AcDbEntity
  8
LAY-1
  6
CONTINUOUS
 62
     3
100
AcDbLine
 10
228.390442
 20
33.59657
 30
0.0
 11
228.390442
 21
28.8
 31
0.0
  0
LINE
  5
1F7
100
AcDbEntity
  8
LAY-1
  6
CONTINUOUS
 62
     3
100
AcDbLine
 10
228.390442
 20
28.8
 30
0.0
 11
226.575928
 21
28.8
 31
0.0
  0
LINE
  5
1F8
100
AcDbEntity
  8
LAY-1
  6
CONTINUOUS
 62
     3
100
AcDbLine
 10
226.575928
 20
28.8
 30
0.0
 11
226.575928
 21
35.654401
 31
0.0
  0
LINE
  5
1F9
100
AcDbEntity
  8
LAY-1
  6
CONTINUOUS
 62
     3
100
AcDbLine
 10
226.496765
 20
35.654401
 30
0.0
 11
225.776123
 21
28.8
 31
0.0
  0
LINE
  5
1FA
100
AcDbEntity
  8
LAY-1
  6
CONTINUOUS
 62
     3
100
AcDbLine
 10
225.776123
 20
28.8
 30
0.0
 11
224.559998
 21
28.8
 31
0.0
  0
LINE
  5
1FB
100
AcDbEntity
  8
LAY-1
  6
CONTINUOUS
 62
     3
100
AcDbLine
 10
224.559998
 20
28.8
 30
0.0
 11
225.28064
 21
35.654401
 31
0.0
  0
LINE
  5
1FC
100
AcDbEntity
  8
LAY-1
  6
CONTINUOUS
 62
     3
100
AcDbLine
 10
225.28064
 20
35.654401
 30
0.0
 11
224.559998
 21
35.654401
 31
0.0
  0
LINE
  5
1FD
100
AcDbEntity
  8
LAY-1
  6
CONTINUOUS
 62
     3
100
AcDbLine
 10
237.059113
 20
34.444806
 30
0.0
 11
237.059113
 21
33.235211
 31
0.0
  0
LINE
  5
1FE
100
AcDbEntity
  8
LAY-1
  6
CONTINUOUS
 62
     3
100
AcDbLine
 10
237.059113
 20
34.444806
 30
0.0
 11
243.107269
 21
34.444806
 31
0.0
  0
LINE
  5
1FF
100
AcDbEntity
  8
LAY-1
  6
CONTINUOUS
 62
     3
100
AcDbLine
 10
243.107269
 20
34.444806
 30
0.0
 11
243.107269
 21
33.235211
 31
0.0
  0
LINE
  5
200
100
AcDbEntity
  8
LAY-1
  6
CONTINUOUS
 62
     3
100
AcDbLine
 10
243.107269
 20
33.235211
 30
0.0
 11
241.191833
 21
33.235211
 31
0.0
  0
LINE
  5
201
100
AcDbEntity
  8
LAY-1
  6
CONTINUOUS
 62
     3
100
AcDbLine
 10
241.191833
 20
33.235211
 30
0.0
 11
241.191833
 21
31.554822
 31
0.0
  0
LINE
  5
202
100
AcDbEntity
  8
LAY-1
  6
CONTINUOUS
 62
     3
100
AcDbLine
 10
241.191833
 20
31.554822
 30
0.0
 11
243.20816
 21
31.983319
 31
0.0
  0
LINE
  5
203
100
AcDbEntity
  8
LAY-1
  6
CONTINUOUS
 62
     3
100
AcDbLine
 10
243.20816
 20
31.983319
 30
0.0
 11
243.20816
 21
30.1284
 31
0.0
  0
LINE
  5
204
100
AcDbEntity
  8
LAY-1
  6
CONTINUOUS
 62
     3
100
AcDbLine
 10
243.20816
 20
30.1284
 30
0.0
 11
236.958191
 21
28.8
 31
0.0
  0
LINE
  5
205
100
AcDbEntity
  8
LAY-1
  6
CONTINUOUS
 62
     3
100
AcDbLine
 10
236.958191
 20
28.8
 30
0.0
 11
236.958191
 21
30.654919
 31
0.0
  0
LINE
  5
206
100
AcDbEntity
  8
LAY-1
  6
CONTINUOUS
 62
     3
100
AcDbLine
 10
236.958191
 20
30.654919
 30
0.0
 11
238.974518
 21
31.083447
 31
0.0
  0
LINE
  5
207
100
AcDbEntity
  8
LAY-1
  6
CONTINUOUS
 62
     3
100
AcDbLine
 10
238.974518
 20
31.083447
 30
0.0
 11
238.974518
 21
33.235211
 31
0.0
  0
LINE
  5
208
100
AcDbEntity
  8
LAY-1
  6
CONTINUOUS
 62
     3
100
AcDbLine
 10
238.974518
 20
33.235211
 30
0.0
 11
237.059113
 21
33.235211
 31
0.0
  0
LINE
  5
209
100
AcDbEntity
  8
LAY-1
  6
CONTINUOUS
 62
     3
100
AcDbLine
 10
236.454529
 20
36.863995
 30
0.0
 11
236.454529
 21
35.654401
 31
0.0
  0
LINE
  5
20A
100
AcDbEntity
  8
LAY-1
  6
CONTINUOUS
 62
     3
100
AcDbLine
 10
236.454529
 20
36.863995
 30
0.0
 11
242.448975
 21
36.863995
 31
0.0
  0
LINE
  5
20B
100
AcDbEntity
  8
LAY-1
  6
CONTINUOUS
 62
     3
100
AcDbLine
 10
242.448975
 20
36.863995
 30
0.0
 11
242.155701
 21
37.670392
 31
0.0
  0
LINE
  5
20C
100
AcDbEntity
  8
LAY-1
  6
CONTINUOUS
 62
     3
100
AcDbLine
 10
242.155701
 20
37.670392
 30
0.0
 11
244.51532
 21
37.670392
 31
0.0
  0
LINE
  5
20D
100
AcDbEntity
  8
LAY-1
  6
CONTINUOUS
 62
     3
100
AcDbLine
 10
244.51532
 20
37.670392
 30
0.0
 11
244.80899
 21
36.863995
 31
0.0
  0
LINE
  5
20E
100
AcDbEntity
  8
LAY-1
  6
CONTINUOUS
 62
     3
100
AcDbLine
 10
244.80899
 20
36.863995
 30
0.0
 11
245.324982
 21
36.863995
 31
0.0
  0
LINE
  5
20F
100
AcDbEntity
  8
LAY-1
  6
CONTINUOUS
 62
     3
100
AcDbLine
 10
245.324982
 20
36.863995
 30
0.0
 11
245.324982
 21
37.670392
 31
0.0
  0
LINE
  5
210
100
AcDbEntity
  8
LAY-1
  6
CONTINUOUS
 62
     3
100
AcDbLine
 10
245.324982
 20
37.670392
 30
0.0
 11
247.139099
 21
37.670392
 31
0.0
  0
LINE
  5
211
100
AcDbEntity
  8
LAY-1
  6
CONTINUOUS
 62
     3
100
AcDbLine
 10
247.139099
 20
37.670392
 30
0.0
 11
247.139099
 21
36.863995
 31
0.0
  0
LINE
  5
212
100
AcDbEntity
  8
LAY-1
  6
CONTINUOUS
 62
     3
100
AcDbLine
 10
247.139099
 20
36.863995
 30
0.0
 11
247.74408
 21
36.863995
 31
0.0
  0
LINE
  5
213
100
AcDbEntity
  8
LAY-1
  6
CONTINUOUS
 62
     3
100
AcDbLine
 10
247.74408
 20
36.863995
 30
0.0
 11
247.74408
 21
35.654401
 31
0.0
  0
LINE
  5
214
100
AcDbEntity
  8
LAY-1
  6
CONTINUOUS
 62
     3
100
AcDbLine
 10
247.74408
 20
35.654401
 30
0.0
 11
245.249084
 21
35.654401
 31
0.0
  0
LINE
  5
215
100
AcDbEntity
  8
LAY-1
  6
CONTINUOUS
 62
     3
100
AcDbLine
 10
245.249084
 20
35.654401
 30
0.0
 11
247.74408
 21
28.8
 31
0.0
  0
LINE
  5
216
100
AcDbEntity
  8
LAY-1
  6
CONTINUOUS
 62
     3
100
AcDbLine
 10
247.74408
 20
28.8
 30
0.0
 11
245.384033
 21
28.8
 31
0.0
  0
LINE
  5
217
100
AcDbEntity
  8
LAY-1
  6
CONTINUOUS
 62
     3
100
AcDbLine
 10
245.384033
 20
28.8
 30
0.0
 11
242.889465
 21
35.654401
 31
0.0
  0
LINE
  5
218
100
AcDbEntity
  8
LAY-1
  6
CONTINUOUS
 62
     3
100
AcDbLine
 10
242.889465
 20
35.654401
 30
0.0
 11
236.454529
 21
35.654401
 31
0.0
  0
LINE
  5
219
100
AcDbEntity
  8
LAY-1
  6
CONTINUOUS
 62
     3
100
AcDbLine
 10
248.147278
 20
35.949567
 30
0.0
 11
248.147278
 21
34.673993
 31
0.0
  0
LINE
  5
21A
100
AcDbEntity
  8
LAY-1
  6
CONTINUOUS
 62
     3
100
AcDbLine
 10
248.147278
 20
35.949567
 30
0.0
 11
253.892731
 21
37.871991
 31
0.0
  0
LINE
  5
21B
100
AcDbEntity
  8
LAY-1
  6
CONTINUOUS
 62
     3
100
AcDbLine
 10
253.892731
 20
37.871991
 30
0.0
 11
259.638214
 21
35.949506
 31
0.0
  0
LINE
  5
21C
100
AcDbEntity
  8
LAY-1
  6
CONTINUOUS
 62
     3
100
AcDbLine
 10
259.638214
 20
35.949506
 30
0.0
 11
259.638214
 21
34.673993
 31
0.0
  0
LINE
  5
21D
100
AcDbEntity
  8
LAY-1
  6
CONTINUOUS
 62
     3
100
AcDbLine
 10
259.638214
 20
34.673993
 30
0.0
 11
257.924988
 21
35.247357
 31
0.0
  0
LINE
  5
21E
100
AcDbEntity
  8
LAY-1
  6
CONTINUOUS
 62
     3
100
AcDbLine
 10
257.924988
 20
35.247357
 30
0.0
 11
257.924988
 21
34.243207
 31
0.0
  0
LINE
  5
21F
100
AcDbEntity
  8
LAY-1
  6
CONTINUOUS
 62
     3
100
AcDbLine
 10
257.924988
 20
34.243207
 30
0.0
 11
249.860901
 21
34.243207
 31
0.0
  0
LINE
  5
220
100
AcDbEntity
  8
LAY-1
  6
CONTINUOUS
 62
     3
100
AcDbLine
 10
249.860901
 20
34.243207
 30
0.0
 11
249.860901
 21
35.247357
 31
0.0
  0
LINE
  5
221
100
AcDbEntity
  8
LAY-1
  6
CONTINUOUS
 62
     3
100
AcDbLine
 10
249.860901
 20
35.247357
 30
0.0
 11
248.147278
 21
34.673993
 31
0.0
  0
LINE
  5
222
100
AcDbEntity
  8
LAY-1
  6
CONTINUOUS
 62
     3
100
AcDbLine
 10
250.474915
 20
35.452802
 30
0.0
 11
253.892731
 21
36.596448
 31
0.0
  0
LINE
  5
223
100
AcDbEntity
  8
LAY-1
  6
CONTINUOUS
 62
     3
100
AcDbLine
 10
253.892731
 20
36.596448
 30
0.0
 11
257.310974
 21
35.452802
 31
0.0
  0
LINE
  5
224
100
AcDbEntity
  8
LAY-1
  6
CONTINUOUS
 62
     3
100
AcDbLine
 10
257.310974
 20
35.452802
 30
0.0
 11
250.474915
 21
35.452802
 31
0.0
  0
LINE
  5
225
100
AcDbEntity
  8
LAY-1
  6
CONTINUOUS
 62
     3
100
AcDbLine
 10
248.147278
 20
33.43678
 30
0.0
 11
248.147278
 21
32.227185
 31
0.0
  0
LINE
  5
226
100
AcDbEntity
  8
LAY-1
  6
CONTINUOUS
 62
     3
100
AcDbLine
 10
248.147278
 20
33.43678
 30
0.0
 11
259.638214
 21
33.43678
 31
0.0
  0
LINE
  5
227
100
AcDbEntity
  8
LAY-1
  6
CONTINUOUS
 62
     3
100
AcDbLine
 10
259.638214
 20
33.43678
 30
0.0
 11
259.638214
 21
32.227185
 31
0.0
  0
LINE
  5
228
100
AcDbEntity
  8
LAY-1
  6
CONTINUOUS
 62
     3
100
AcDbLine
 10
259.638214
 20
32.227185
 30
0.0
 11
258.040222
 21
32.227185
 31
0.0
  0
LINE
  5
229
100
AcDbEntity
  8
LAY-1
  6
CONTINUOUS
 62
     3
100
AcDbLine
 10
258.040222
 20
32.227185
 30
0.0
 11
259.638214
 21
28.8
 31
0.0
  0
LINE
  5
22A
100
AcDbEntity
  8
LAY-1
  6
CONTINUOUS
 62
     3
100
AcDbLine
 10
259.638214
 20
28.8
 30
0.0
 11
248.147278
 21
28.8
 31
0.0
  0
LINE
  5
22B
100
AcDbEntity
  8
LAY-1
  6
CONTINUOUS
 62
     3
100
AcDbLine
 10
248.147278
 20
28.8
 30
0.0
 11
249.745239
 21
32.227185
 31
0.0
  0
LINE
  5
22C
100
AcDbEntity
  8
LAY-1
  6
CONTINUOUS
 62
     3
100
AcDbLine
 10
249.745239
 20
32.227185
 30
0.0
 11
248.147278
 21
32.227185
 31
0.0
  0
LINE
  5
22D
100
AcDbEntity
  8
LAY-1
  6
CONTINUOUS
 62
     3
100
AcDbLine
 10
251.969513
 20
32.227185
 30
0.0
 11
255.815948
 21
32.227185
 31
0.0
  0
LINE
  5
22E
100
AcDbEntity
  8
LAY-1
  6
CONTINUOUS
 62
     3
100
AcDbLine
 10
255.815948
 20
32.227185
 30
0.0
 11
256.849945
 21
30.009595
 31
0.0
  0
LINE
  5
22F
100
AcDbEntity
  8
LAY-1
  6
CONTINUOUS
 62
     3
100
AcDbLine
 10
256.849945
 20
30.009595
 30
0.0
 11
250.935516
 21
30.009595
 31
0.0
  0
LINE
  5
230
100
AcDbEntity
  8
LAY-1
  6
CONTINUOUS
 62
     3
100
AcDbLine
 10
251.969513
 20
32.227185
 30
0.0
 11
250.935516
 21
30.009595
 31
0.0
  0
LINE
  5
231
100
AcDbEntity
  8
LAY-1
  6
CONTINUOUS
 62
     3
100
AcDbLine
 10
265.484985
 20
35.452802
 30
0.0
 11
265.484985
 21
34.243207
 31
0.0
  0
LINE
  5
232
100
AcDbEntity
  8
LAY-1
  6
CONTINUOUS
 62
     3
100
AcDbLine
 10
265.484985
 20
35.452802
 30
0.0
 11
267.299103
 21
35.452802
 31
0.0
  0
LINE
  5
233
100
AcDbEntity
  8
LAY-1
  6
CONTINUOUS
 62
     3
100
AcDbLine
 10
267.299103
 20
35.452802
 30
0.0
 11
267.299103
 21
37.670392
 31
0.0
  0
LINE
  5
234
100
AcDbEntity
  8
LAY-1
  6
CONTINUOUS
 62
     3
100
AcDbLine
 10
267.299103
 20
37.670392
 30
0.0
 11
269.315002
 21
37.670392
 31
0.0
  0
LINE
  5
235
100
AcDbEntity
  8
LAY-1
  6
CONTINUOUS
 62
     3
100
AcDbLine
 10
269.315002
 20
37.670392
 30
0.0
 11
269.315002
 21
35.452802
 31
0.0
  0
LINE
  5
236
100
AcDbEntity
  8
LAY-1
  6
CONTINUOUS
 62
     3
100
AcDbLine
 10
269.315002
 20
35.452802
 30
0.0
 11
271.129547
 21
35.452802
 31
0.0
  0
LINE
  5
237
100
AcDbEntity
  8
LAY-1
  6
CONTINUOUS
 62
     3
100
AcDbLine
 10
271.129547
 20
35.452802
 30
0.0
 11
271.129547
 21
34.243207
 31
0.0
  0
LINE
  5
238
100
AcDbEntity
  8
LAY-1
  6
CONTINUOUS
 62
     3
100
AcDbLine
 10
271.129547
 20
34.243207
 30
0.0
 11
269.315002
 21
34.243207
 31
0.0
  0
LINE
  5
239
100
AcDbEntity
  8
LAY-1
  6
CONTINUOUS
 62
     3
100
AcDbLine
 10
269.315002
 20
34.243207
 30
0.0
 11
269.315002
 21
30.009595
 31
0.0
  0
LINE
  5
23A
100
AcDbEntity
  8
LAY-1
  6
CONTINUOUS
 62
     3
100
AcDbLine
 10
269.315002
 20
30.009595
 30
0.0
 11
271.331329
 21
30.009595
 31
0.0
  0
LINE
  5
23B
100
AcDbEntity
  8
LAY-1
  6
CONTINUOUS
 62
     3
100
AcDbLine
 10
271.331329
 20
30.009595
 30
0.0
 11
271.331329
 21
28.8
 31
0.0
  0
LINE
  5
23C
100
AcDbEntity
  8
LAY-1
  6
CONTINUOUS
 62
     3
100
AcDbLine
 10
271.331329
 20
28.8
 30
0.0
 11
264.678192
 21
28.8
 31
0.0
  0
LINE
  5
23D
100
AcDbEntity
  8
LAY-1
  6
CONTINUOUS
 62
     3
100
AcDbLine
 10
264.678192
 20
28.8
 30
0.0
 11
264.678192
 21
30.009595
 31
0.0
  0
LINE
  5
23E
100
AcDbEntity
  8
LAY-1
  6
CONTINUOUS
 62
     3
100
AcDbLine
 10
264.678192
 20
30.009595
 30
0.0
 11
267.299103
 21
30.009595
 31
0.0
  0
LINE
  5
23F
100
AcDbEntity
  8
LAY-1
  6
CONTINUOUS
 62
     3
100
AcDbLine
 10
267.299103
 20
30.009595
 30
0.0
 11
267.299103
 21
34.243207
 31
0.0
  0
LINE
  5
240
100
AcDbEntity
  8
LAY-1
  6
CONTINUOUS
 62
     3
100
AcDbLine
 10
267.299103
 20
34.243207
 30
0.0
 11
265.484985
 21
34.243207
 31
0.0
  0
LINE
  5
241
100
AcDbEntity
  8
LAY-1
  6
CONTINUOUS
 62
     3
100
AcDbLine
 10
260.041382
 20
36.863995
 30
0.0
 11
260.041382
 21
35.654401
 31
0.0
  0
LINE
  5
242
100
AcDbEntity
  8
LAY-1
  6
CONTINUOUS
 62
     3
100
AcDbLine
 10
260.041382
 20
36.863995
 30
0.0
 11
261.855927
 21
36.863995
 31
0.0
  0
LINE
  5
243
100
AcDbEntity
  8
LAY-1
  6
CONTINUOUS
 62
     3
100
AcDbLine
 10
261.855927
 20
36.863995
 30
0.0
 11
261.855927
 21
37.670392
 31
0.0
  0
LINE
  5
244
100
AcDbEntity
  8
LAY-1
  6
CONTINUOUS
 62
     3
100
AcDbLine
 10
261.855927
 20
37.670392
 30
0.0
 11
263.871826
 21
37.670392
 31
0.0
  0
LINE
  5
245
100
AcDbEntity
  8
LAY-1
  6
CONTINUOUS
 62
     3
100
AcDbLine
 10
263.871826
 20
37.670392
 30
0.0
 11
263.871826
 21
36.863995
 31
0.0
  0
LINE
  5
246
100
AcDbEntity
  8
LAY-1
  6
CONTINUOUS
 62
     3
100
AcDbLine
 10
263.871826
 20
36.863995
 30
0.0
 11
265.686371
 21
36.863995
 31
0.0
  0
LINE
  5
247
100
AcDbEntity
  8
LAY-1
  6
CONTINUOUS
 62
     3
100
AcDbLine
 10
265.686371
 20
36.863995
 30
0.0
 11
263.605225
 21
33.891156
 31
0.0
  0
LINE
  5
248
100
AcDbEntity
  8
LAY-1
  6
CONTINUOUS
 62
     3
100
AcDbLine
 10
263.605225
 20
33.891156
 30
0.0
 11
265.484985
 21
32.575177
 31
0.0
  0
LINE
  5
249
100
AcDbEntity
  8
LAY-1
  6
CONTINUOUS
 62
     3
100
AcDbLine
 10
265.484985
 20
32.575177
 30
0.0
 11
265.484985
 21
30.360242
 31
0.0
  0
LINE
  5
24A
100
AcDbEntity
  8
LAY-1
  6
CONTINUOUS
 62
     3
100
AcDbLine
 10
265.484985
 20
30.360242
 30
0.0
 11
263.871826
 21
31.489545
 31
0.0
  0
LINE
  5
24B
100
AcDbEntity
  8
LAY-1
  6
CONTINUOUS
 62
     3
100
AcDbLine
 10
263.871826
 20
31.489545
 30
0.0
 11
263.871826
 21
28.8
 31
0.0
  0
LINE
  5
24C
100
AcDbEntity
  8
LAY-1
  6
CONTINUOUS
 62
     3
100
AcDbLine
 10
263.871826
 20
28.8
 30
0.0
 11
261.855927
 21
28.8
 31
0.0
  0
LINE
  5
24D
100
AcDbEntity
  8
LAY-1
  6
CONTINUOUS
 62
     3
100
AcDbLine
 10
261.855927
 20
28.8
 30
0.0
 11
261.855927
 21
31.39198
 31
0.0
  0
LINE
  5
24E
100
AcDbEntity
  8
LAY-1
  6
CONTINUOUS
 62
     3
100
AcDbLine
 10
261.855927
 20
31.39198
 30
0.0
 11
260.041382
 21
28.8
 31
0.0
  0
LINE
  5
24F
100
AcDbEntity
  8
LAY-1
  6
CONTINUOUS
 62
     3
100
AcDbLine
 10
260.041382
 20
28.8
 30
0.0
 11
260.041382
 21
31.963879
 31
0.0
  0
LINE
  5
250
100
AcDbEntity
  8
LAY-1
  6
CONTINUOUS
 62
     3
100
AcDbLine
 10
260.041382
 20
31.963879
 30
0.0
 11
262.62497
 21
35.654401
 31
0.0
  0
LINE
  5
251
100
AcDbEntity
  8
LAY-1
  6
CONTINUOUS
 62
     3
100
AcDbLine
 10
262.62497
 20
35.654401
 30
0.0
 11
260.041382
 21
35.654401
 31
0.0
  0
ARC
  5
252
100
AcDbEntity
  8
LAY-1
  6
CONTINUOUS
 62
     2
100
AcDbCircle
 10
171.632202
 20
34.040082
 30
0.0
 40
1.260024
100
AcDbArc
 50
310.768311
 51
335.998779
  0
LINE
  5
253
100
AcDbEntity
  8
LAY-1
  6
CONTINUOUS
 62
     2
100
AcDbLine
 10
173.080048
 20
34.192822
 30
0.0
 11
172.783936
 21
33.527814
 31
0.0
  0
LINE
  5
254
100
AcDbEntity
  8
LAY-1
  6
CONTINUOUS
 62
     2
100
AcDbLine
 10
169.597015
 20
34.948804
 30
0.0
 11
174.243683
 21
34.948804
 31
0.0
  0
ARC
  5
255
100
AcDbEntity
  8
LAY-1
  6
CONTINUOUS
 62
     2
100
AcDbCircle
 10
190.259857
 20
32.428815
 30
0.0
 40
3.124802
100
AcDbArc
 50
270.000031
 51
324.00116
  0
ARC
  5
256
100
AcDbEntity
  8
LAY-1
  6
CONTINUOUS
 62
     2
100
AcDbCircle
 10
190.259857
 20
32.428815
 30
0.0
 40
2.620802
100
AcDbArc
 50
270.000031
 51
324.00116
  0
ARC
  5
257
100
AcDbEntity
  8
LAY-1
  6
CONTINUOUS
 62
     2
100
AcDbCircle
 10
159.713135
 20
32.428815
 30
0.0
 40
3.124796
100
AcDbArc
 50
270.000031
 51
333.99855
  0
ARC
  5
258
100
AcDbEntity
  8
LAY-1
  6
CONTINUOUS
 62
     2
100
AcDbCircle
 10
159.553101
 20
32.428815
 30
0.0
 40
2.116798
100
AcDbArc
 50
270.000031
 51
333.99855
  0
ARC
  5
259
100
AcDbEntity
  8
LAY-1
  6
CONTINUOUS
 62
     2
100
AcDbCircle
 10
159.633118
 20
32.428815
 30
0.0
 40
2.620798
100
AcDbArc
 50
270.000031
 51
333.99855
  0
LINE
  5
25A
100
AcDbEntity
  8
LAY-1
  6
CONTINUOUS
 62
     2
100
AcDbLine
 10
154.368164
 20
37.206425
 30
0.0
 11
159.276794
 21
37.206425
 31
0.0
  0
LINE
  5
25B
100
AcDbEntity
  8
LAY-1
  6
CONTINUOUS
 62
     2
100
AcDbLine
 10
154.368164
 20
36.742429
 30
0.0
 11
159.276794
 21
36.742429
 31
0.0
  0
LINE
  5
25C
100
AcDbEntity
  8
LAY-1
  6
CONTINUOUS
 62
     2
100
AcDbLine
 10
154.368164
 20
36.278462
 30
0.0
 11
159.276794
 21
36.278462
 31
0.0
  0
LINE
  5
25D
100
AcDbEntity
  8
LAY-1
  6
CONTINUOUS
 62
     2
100
AcDbLine
 10
154.368164
 20
34.827206
 30
0.0
 11
159.276794
 21
34.827206
 31
0.0
  0
LINE
  5
25E
100
AcDbEntity
  8
LAY-1
  6
CONTINUOUS
 62
     2
100
AcDbLine
 10
154.368164
 20
34.323178
 30
0.0
 11
159.276794
 21
34.323178
 31
0.0
  0
LINE
  5
25F
100
AcDbEntity
  8
LAY-1
  6
CONTINUOUS
 62
     2
100
AcDbLine
 10
154.368164
 20
33.859212
 30
0.0
 11
159.276794
 21
33.859212
 31
0.0
  0
LINE
  5
260
100
AcDbEntity
  8
LAY-1
  6
CONTINUOUS
 62
     2
100
AcDbLine
 10
154.368164
 20
30.311993
 30
0.0
 11
159.553101
 21
30.311993
 31
0.0
  0
LINE
  5
261
100
AcDbEntity
  8
LAY-1
  6
CONTINUOUS
 62
     2
100
AcDbLine
 10
154.368164
 20
29.807996
 30
0.0
 11
159.553101
 21
29.807996
 31
0.0
  0
LINE
  5
262
100
AcDbEntity
  8
LAY-1
  6
CONTINUOUS
 62
     2
100
AcDbLine
 10
154.368164
 20
29.303998
 30
0.0
 11
159.553101
 21
29.303998
 31
0.0
  0
LINE
  5
263
100
AcDbEntity
  8
LAY-1
  6
CONTINUOUS
 62
     2
100
AcDbLine
 10
161.455414
 20
31.500806
 30
0.0
 11
163.221649
 21
35.122073
 31
0.0
  0
LINE
  5
264
100
AcDbEntity
  8
LAY-1
  6
CONTINUOUS
 62
     2
100
AcDbLine
 10
161.988251
 20
31.279919
 30
0.0
 11
163.862335
 21
35.122075
 31
0.0
  0
LINE
  5
265
100
AcDbEntity
  8
LAY-1
  6
CONTINUOUS
 62
     2
100
AcDbLine
 10
162.521057
 20
31.05885
 30
0.0
 11
164.502625
 21
35.122069
 31
0.0
  0
LINE
  5
266
100
AcDbEntity
  8
LAY-1
  6
CONTINUOUS
 62
     2
100
AcDbLine
 10
161.827271
 20
37.139195
 30
0.0
 11
162.703674
 21
37.139195
 31
0.0
  0
LINE
  5
267
100
AcDbEntity
  8
LAY-1
  6
CONTINUOUS
 62
     2
100
AcDbLine
 10
161.827271
 20
36.567998
 30
0.0
 11
162.703674
 21
36.567998
 31
0.0
  0
LINE
  5
268
100
AcDbEntity
  8
LAY-1
  6
CONTINUOUS
 62
     2
100
AcDbLine
 10
164.044983
 20
37.139195
 30
0.0
 11
164.921387
 21
37.139195
 31
0.0
  0
LINE
  5
269
100
AcDbEntity
  8
LAY-1
  6
CONTINUOUS
 62
     2
100
AcDbLine
 10
164.044983
 20
36.567998
 30
0.0
 11
164.921387
 21
36.567998
 31
0.0
  0
LINE
  5
26A
100
AcDbEntity
  8
LAY-1
  6
CONTINUOUS
 62
     2
100
AcDbLine
 10
166.262695
 20
34.444836
 30
0.0
 11
168.656128
 21
34.444836
 31
0.0
  0
LINE
  5
26B
100
AcDbEntity
  8
LAY-1
  6
CONTINUOUS
 62
     2
100
AcDbLine
 10
168.075073
 20
36.500537
 30
0.0
 11
168.321014
 21
34.948804
 31
0.0
  0
LINE
  5
26C
100
AcDbEntity
  8
LAY-1
  6
CONTINUOUS
 62
     2
100
AcDbLine
 10
169.23761
 20
29.163461
 30
0.0
 11
168.489807
 21
33.883809
 31
0.0
  0
ARC
  5
26D
100
AcDbEntity
  8
LAY-1
  6
CONTINUOUS
 62
     2
100
AcDbCircle
 10
171.592194
 20
34.040082
 30
0.0
 40
1.764024
100
AcDbArc
 50
272.671387
 51
335.998779
  0
ARC
  5
26E
100
AcDbEntity
  8
LAY-1
  6
CONTINUOUS
 62
     2
100
AcDbCircle
 10
171.552185
 20
34.040082
 30
0.0
 40
2.268023
100
AcDbArc
 50
267.367432
 51
335.998779
  0
LINE
  5
26F
100
AcDbEntity
  8
LAY-1
  6
CONTINUOUS
 62
     2
100
AcDbLine
 10
174.470337
 20
35.018105
 30
0.0
 11
173.624298
 21
33.117718
 31
0.0
  0
LINE
  5
270
100
AcDbEntity
  8
LAY-1
  6
CONTINUOUS
 62
     2
100
AcDbLine
 10
170.418121
 20
29.163461
 30
0.0
 11
169.644073
 21
34.049763
 31
0.0
  0
LINE
  5
271
100
AcDbEntity
  8
LAY-1
  6
CONTINUOUS
 62
     2
100
AcDbLine
 10
169.867859
 20
29.163461
 30
0.0
 11
168.705688
 21
36.500535
 31
0.0
  0
LINE
  5
272
100
AcDbEntity
  8
LAY-1
  6
CONTINUOUS
 62
     2
100
AcDbLine
 10
169.255951
 20
36.500535
 30
0.0
 11
169.479126
 21
35.091893
 31
0.0
  0
LINE
  5
273
100
AcDbEntity
  8
LAY-1
  6
CONTINUOUS
 62
     2
100
AcDbLine
 10
166.262695
 20
34.948804
 30
0.0
 11
167.921021
 21
34.948804
 31
0.0
  0
LINE
  5
274
100
AcDbEntity
  8
LAY-1
  6
CONTINUOUS
 62
     2
100
AcDbLine
 10
173.733978
 20
34.514079
 30
0.0
 11
173.204102
 21
33.322705
 31
0.0
  0
LINE
  5
275
100
AcDbEntity
  8
LAY-1
  6
CONTINUOUS
 62
     2
100
AcDbLine
 10
169.421478
 20
34.444836
 30
0.0
 11
173.267639
 21
34.444836
 31
0.0
  0
ARC
  5
276
100
AcDbEntity
  8
LAY-1
  6
CONTINUOUS
 62
     2
100
AcDbCircle
 10
171.512177
 20
34.040082
 30
0.0
 40
2.772022
100
AcDbArc
 50
269.611328
 51
335.998779
  0
LINE
  5
277
100
AcDbEntity
  8
LAY-1
  6
CONTINUOUS
 62
     2
100
AcDbLine
 10
174.981964
 20
35.018111
 30
0.0
 11
174.044495
 21
32.912671
 31
0.0
  0
LINE
  5
278
100
AcDbEntity
  8
LAY-1
  6
CONTINUOUS
 62
     2
100
AcDbLine
 10
196.462524
 20
36.662427
 30
0.0
 11
192.376129
 21
31.036542
 31
0.0
  0
LINE
  5
279
100
AcDbEntity
  8
LAY-1
  6
CONTINUOUS
 62
     2
100
AcDbLine
 10
195.373627
 20
36.158459
 30
0.0
 11
191.868408
 21
31.332806
 31
0.0
  0
ARC
  5
27A
100
AcDbEntity
  8
LAY-1
  6
CONTINUOUS
 62
     2
100
AcDbCircle
 10
190.399872
 20
32.348813
 30
0.0
 40
1.864804
100
AcDbArc
 50
270.000031
 51
324.00116
  0
LINE
  5
27B
100
AcDbEntity
  8
LAY-1
  6
CONTINUOUS
 62
     2
100
AcDbLine
 10
176.575897
 20
37.203118
 30
0.0
 11
185.452728
 21
37.203118
 31
0.0
  0
LINE
  5
27C
100
AcDbEntity
  8
LAY-1
  6
CONTINUOUS
 62
     2
100
AcDbLine
 10
176.575897
 20
36.67915
 30
0.0
 11
185.452728
 21
36.67915
 31
0.0
  0
LINE
  5
27D
100
AcDbEntity
  8
LAY-1
  6
CONTINUOUS
 62
     2
100
AcDbLine
 10
176.575897
 20
36.135182
 30
0.0
 11
185.452728
 21
36.135182
 31
0.0
  0
LINE
  5
27E
100
AcDbEntity
  8
LAY-1
  6
CONTINUOUS
 62
     2
100
AcDbLine
 10
175.769531
 20
30.328809
 30
0.0
 11
186.259094
 21
30.328809
 31
0.0
  0
LINE
  5
27F
100
AcDbEntity
  8
LAY-1
  6
CONTINUOUS
 62
     2
100
AcDbLine
 10
175.769531
 20
29.824811
 30
0.0
 11
186.259094
 21
29.824811
 31
0.0
  0
LINE
  5
280
100
AcDbEntity
  8
LAY-1
  6
CONTINUOUS
 62
     2
100
AcDbLine
 10
175.769531
 20
29.280782
 30
0.0
 11
186.259094
 21
29.280782
 31
0.0
  0
LINE
  5
281
100
AcDbEntity
  8
LAY-1
  6
CONTINUOUS
 62
     2
100
AcDbLine
 10
188.470428
 20
37.186425
 30
0.0
 11
197.051361
 21
37.186425
 31
0.0
  0
LINE
  5
282
100
AcDbEntity
  8
LAY-1
  6
CONTINUOUS
 62
     2
100
AcDbLine
 10
197.571381
 20
37.166425
 30
0.0
 11
192.903809
 21
30.740125
 31
0.0
  0
LINE
  5
283
100
AcDbEntity
  8
LAY-1
  6
CONTINUOUS
 62
     2
100
AcDbLine
 10
188.470428
 20
36.662427
 30
0.0
 11
196.0625
 21
36.662427
 31
0.0
  0
LINE
  5
284
100
AcDbEntity
  8
LAY-1
  6
CONTINUOUS
 62
     2
100
AcDbLine
 10
190.259857
 20
30.331994
 30
0.0
 11
187.664063
 21
30.331994
 31
0.0
  0
LINE
  5
285
100
AcDbEntity
  8
LAY-1
  6
CONTINUOUS
 62
     2
100
AcDbLine
 10
190.259857
 20
29.807996
 30
0.0
 11
187.664063
 21
29.807996
 31
0.0
  0
LINE
  5
286
100
AcDbEntity
  8
LAY-1
  6
CONTINUOUS
 62
     2
100
AcDbLine
 10
190.259857
 20
29.283997
 30
0.0
 11
187.664063
 21
29.283997
 31
0.0
  0
LINE
  5
287
100
AcDbEntity
  8
LAY-1
  6
CONTINUOUS
 62
     2
100
AcDbLine
 10
194.286377
 20
31.94743
 30
0.0
 11
196.674316
 21
29.2
 31
0.0
  0
LINE
  5
288
100
AcDbEntity
  8
LAY-1
  6
CONTINUOUS
 62
     2
100
AcDbLine
 10
194.590698
 20
32.306102
 30
0.0
 11
197.290344
 21
29.2
 31
0.0
  0
LINE
  5
289
100
AcDbEntity
  8
LAY-1
  6
CONTINUOUS
 62
     2
100
AcDbLine
 10
194.894623
 20
32.66459
 30
0.0
 11
197.905884
 21
29.2
 31
0.0
  0
LINE
  5
28A
100
AcDbEntity
  8
LAY-1
  6
CONTINUOUS
 62
     2
100
AcDbLine
 10
195.198547
 20
33.023169
 30
0.0
 11
198.521851
 21
29.2
 31
0.0
  0
LINE
  5
28B
100
AcDbEntity
  8
LAY-1
  6
CONTINUOUS
 62
     2
100
AcDbLine
 10
188.470428
 20
36.118459
 30
0.0
 11
194.873596
 21
36.118459
 31
0.0
  0
LINE
  5
28C
100
AcDbEntity
  8
LAY-1
  6
CONTINUOUS
 62
     2
100
AcDbLine
 10
202.179108
 20
37.206425
 30
0.0
 11
211.862274
 21
37.206425
 31
0.0
  0
LINE
  5
28D
100
AcDbEntity
  8
LAY-1
  6
CONTINUOUS
 62
     2
100
AcDbLine
 10
202.179108
 20
36.702428
 30
0.0
 11
211.862274
 21
36.702428
 31
0.0
  0
LINE
  5
28E
100
AcDbEntity
  8
LAY-1
  6
CONTINUOUS
 62
     2
100
AcDbLine
 10
206.33548
 20
30.295983
 30
0.0
 11
206.33548
 21
36.242444
 31
0.0
  0
LINE
  5
28F
100
AcDbEntity
  8
LAY-1
  6
CONTINUOUS
 62
     2
100
AcDbLine
 10
206.839172
 20
30.295983
 30
0.0
 11
206.839172
 21
36.242444
 31
0.0
  0
LINE
  5
290
100
AcDbEntity
  8
LAY-1
  6
CONTINUOUS
 62
     2
100
AcDbLine
 10
207.342834
 20
30.295983
 30
0.0
 11
207.342834
 21
36.242444
 31
0.0
  0
LINE
  5
291
100
AcDbEntity
  8
LAY-1
  6
CONTINUOUS
 62
     2
100
AcDbLine
 10
207.806488
 20
30.295983
 30
0.0
 11
207.806488
 21
36.242444
 31
0.0
  0
LINE
  5
292
100
AcDbEntity
  8
LAY-1
  6
CONTINUOUS
 62
     2
100
AcDbLine
 10
201.775909
 20
29.895984
 30
0.0
 11
212.265472
 21
29.895984
 31
0.0
  0
LINE
  5
293
100
AcDbEntity
  8
LAY-1
  6
CONTINUOUS
 62
     2
100
AcDbLine
 10
201.775909
 20
29.291985
 30
0.0
 11
212.265472
 21
29.291985
 31
0.0
  0
LINE
  5
294
100
AcDbEntity
  8
LAY-1
  6
CONTINUOUS
 62
     2
100
AcDbLine
 10
214.625519
 20
37.270392
 30
0.0
 11
215.374176
 21
36.3123
 31
0.0
  0
LINE
  5
295
100
AcDbEntity
  8
LAY-1
  6
CONTINUOUS
 62
     2
100
AcDbLine
 10
215.264954
 20
37.270392
 30
0.0
 11
216.013611
 21
36.3123
 31
0.0
  0
LINE
  5
296
100
AcDbEntity
  8
LAY-1
  6
CONTINUOUS
 62
     2
100
AcDbLine
 10
217.262268
 20
37.270392
 30
0.0
 11
217.262268
 21
36.397113
 31
0.0
  0
LINE
  5
297
100
AcDbEntity
  8
LAY-1
  6
CONTINUOUS
 62
     2
100
AcDbLine
 10
217.805969
 20
37.270392
 30
0.0
 11
217.805969
 21
36.397113
 31
0.0
  0
LINE
  5
298
100
AcDbEntity
  8
LAY-1
  6
CONTINUOUS
 62
     2
100
AcDbLine
 10
219.278198
 20
37.270392
 30
0.0
 11
219.278198
 21
36.397113
 31
0.0
  0
LINE
  5
299
100
AcDbEntity
  8
LAY-1
  6
CONTINUOUS
 62
     2
100
AcDbLine
 10
219.861877
 20
37.270392
 30
0.0
 11
219.861877
 21
36.397113
 31
0.0
  0
LINE
  5
29A
100
AcDbEntity
  8
LAY-1
  6
CONTINUOUS
 62
     2
100
AcDbLine
 10
221.799133
 20
37.270392
 30
0.0
 11
221.050476
 21
36.3123
 31
0.0
  0
LINE
  5
29B
100
AcDbEntity
  8
LAY-1
  6
CONTINUOUS
 62
     2
100
AcDbLine
 10
222.478577
 20
37.270392
 30
0.0
 11
221.729919
 21
36.3123
 31
0.0
  0
LINE
  5
29C
100
AcDbEntity
  8
LAY-1
  6
CONTINUOUS
 62
     2
100
AcDbLine
 10
213.267242
 20
35.997113
 30
0.0
 11
223.756805
 21
35.997113
 31
0.0
  0
LINE
  5
29D
100
AcDbEntity
  8
LAY-1
  6
CONTINUOUS
 62
     2
100
AcDbLine
 10
215.886353
 20
34.437657
 30
0.0
 11
215.455566
 21
35.621236
 31
0.0
  0
LINE
  5
29E
100
AcDbEntity
  8
LAY-1
  6
CONTINUOUS
 62
     2
100
AcDbLine
 10
216.502441
 20
34.437657
 30
0.0
 11
216.071655
 21
35.621236
 31
0.0
  0
LINE
  5
29F
100
AcDbEntity
  8
LAY-1
  6
CONTINUOUS
 62
     2
100
AcDbLine
 10
217.078522
 20
34.437703
 30
0.0
 11
216.648224
 21
35.62119
 31
0.0
  0
LINE
  5
2A0
100
AcDbEntity
  8
LAY-1
  6
CONTINUOUS
 62
     2
100
AcDbLine
 10
219.983887
 20
34.437613
 30
0.0
 11
220.415131
 21
35.62128
 31
0.0
  0
LINE
  5
2A1
100
AcDbEntity
  8
LAY-1
  6
CONTINUOUS
 62
     2
100
AcDbLine
 10
220.600403
 20
34.437613
 30
0.0
 11
221.031647
 21
35.62128
 31
0.0
  0
LINE
  5
2A2
100
AcDbEntity
  8
LAY-1
  6
CONTINUOUS
 62
     2
100
AcDbLine
 10
221.176483
 20
34.437613
 30
0.0
 11
221.607727
 21
35.62128
 31
0.0
  0
LINE
  5
2A3
100
AcDbEntity
  8
LAY-1
  6
CONTINUOUS
 62
     2
100
AcDbLine
 10
213.267242
 20
34.06178
 30
0.0
 11
223.756805
 21
34.06178
 31
0.0
  0
LINE
  5
2A4
100
AcDbEntity
  8
LAY-1
  6
CONTINUOUS
 62
     2
100
AcDbLine
 10
213.267242
 20
32.670728
 30
0.0
 11
217.567749
 21
32.670728
 31
0.0
  0
LINE
  5
2A5
100
AcDbEntity
  8
LAY-1
  6
CONTINUOUS
 62
     2
100
AcDbLine
 10
213.267242
 20
31.279675
 30
0.0
 11
217.567749
 21
31.279675
 31
0.0
  0
LINE
  5
2A6
100
AcDbEntity
  8
LAY-1
  6
CONTINUOUS
 62
     2
100
AcDbLine
 10
219.495117
 20
31.279675
 30
0.0
 11
223.756805
 21
31.279675
 31
0.0
  0
LINE
  5
2A7
100
AcDbEntity
  8
LAY-1
  6
CONTINUOUS
 62
     2
100
AcDbLine
 10
213.901764
 20
29.2
 30
0.0
 11
215.906647
 21
31.011508
 31
0.0
  0
LINE
  5
2A8
100
AcDbEntity
  8
LAY-1
  6
CONTINUOUS
 62
     2
100
AcDbLine
 10
214.573547
 20
29.2
 30
0.0
 11
216.578491
 21
31.011512
 31
0.0
  0
LINE
  5
2A9
100
AcDbEntity
  8
LAY-1
  6
CONTINUOUS
 62
     2
100
AcDbLine
 10
215.20575
 20
29.2
 30
0.0
 11
217.210693
 21
31.011512
 31
0.0
  0
LINE
  5
2AA
100
AcDbEntity
  8
LAY-1
  6
CONTINUOUS
 62
     2
100
AcDbLine
 10
217.967743
 20
29.2
 30
0.0
 11
217.967743
 21
33.66178
 31
0.0
  0
LINE
  5
2AB
100
AcDbEntity
  8
LAY-1
  6
CONTINUOUS
 62
     2
100
AcDbLine
 10
218.551422
 20
29.2
 30
0.0
 11
218.551422
 21
33.66178
 31
0.0
  0
LINE
  5
2AC
100
AcDbEntity
  8
LAY-1
  6
CONTINUOUS
 62
     2
100
AcDbLine
 10
219.095123
 20
29.2
 30
0.0
 11
219.095123
 21
33.66178
 31
0.0
  0
LINE
  5
2AD
100
AcDbEntity
  8
LAY-1
  6
CONTINUOUS
 62
     2
100
AcDbLine
 10
221.834351
 20
29.2
 30
0.0
 11
219.829468
 21
31.011508
 31
0.0
  0
LINE
  5
2AE
100
AcDbEntity
  8
LAY-1
  6
CONTINUOUS
 62
     2
100
AcDbLine
 10
222.506165
 20
29.2
 30
0.0
 11
220.501221
 21
31.011512
 31
0.0
  0
LINE
  5
2AF
100
AcDbEntity
  8
LAY-1
  6
CONTINUOUS
 62
     2
100
AcDbLine
 10
223.178375
 20
29.2
 30
0.0
 11
221.173431
 21
31.011512
 31
0.0
  0
LINE
  5
2B0
100
AcDbEntity
  8
LAY-1
  6
CONTINUOUS
 62
     2
100
AcDbLine
 10
226.999573
 20
37.270392
 30
0.0
 11
226.999573
 21
36.558398
 31
0.0
  0
LINE
  5
2B1
100
AcDbEntity
  8
LAY-1
  6
CONTINUOUS
 62
     2
100
AcDbLine
 10
227.503235
 20
37.270392
 30
0.0
 11
227.503235
 21
36.558398
 31
0.0
  0
LINE
  5
2B2
100
AcDbEntity
  8
LAY-1
  6
CONTINUOUS
 62
     2
100
AcDbLine
 10
228.006928
 20
37.270392
 30
0.0
 11
228.006928
 21
36.558398
 31
0.0
  0
LINE
  5
2B3
100
AcDbEntity
  8
LAY-1
  6
CONTINUOUS
 62
     2
100
AcDbLine
 10
224.959991
 20
36.158398
 30
0.0
 11
228.595032
 21
36.158398
 31
0.0
  0
LINE
  5
2B4
100
AcDbEntity
  8
LAY-1
  6
CONTINUOUS
 62
     2
100
AcDbLine
 10
224.988831
 20
29.19781
 30
0.0
 11
225.678406
 21
35.760588
 31
0.0
  0
LINE
  5
2B5
100
AcDbEntity
  8
LAY-1
  6
CONTINUOUS
 62
     2
100
AcDbLine
 10
225.455353
 20
29.19781
 30
0.0
 11
226.144958
 21
35.760588
 31
0.0
  0
LINE
  5
2B6
100
AcDbEntity
  8
LAY-1
  6
CONTINUOUS
 62
     2
100
AcDbLine
 10
226.999573
 20
29.2
 30
0.0
 11
226.999573
 21
35.758399
 31
0.0
  0
LINE
  5
2B7
100
AcDbEntity
  8
LAY-1
  6
CONTINUOUS
 62
     2
100
AcDbLine
 10
227.503235
 20
29.2
 30
0.0
 11
227.503235
 21
35.758399
 31
0.0
  0
LINE
  5
2B8
100
AcDbEntity
  8
LAY-1
  6
CONTINUOUS
 62
     2
100
AcDbLine
 10
228.006928
 20
29.2
 30
0.0
 11
228.006928
 21
35.758399
 31
0.0
  0
LINE
  5
2B9
100
AcDbEntity
  8
LAY-1
  6
CONTINUOUS
 62
     2
100
AcDbLine
 10
228.241852
 20
35.230849
 30
0.0
 11
228.760071
 21
34.516768
 31
0.0
  0
LINE
  5
2BA
100
AcDbEntity
  8
LAY-1
  6
CONTINUOUS
 62
     2
100
AcDbLine
 10
228.241852
 20
34.452849
 30
0.0
 11
228.760071
 21
33.738768
 31
0.0
  0
LINE
  5
2BB
100
AcDbEntity
  8
LAY-1
  6
CONTINUOUS
 62
     2
100
AcDbLine
 10
229.493835
 20
35.43772
 30
0.0
 11
229.953766
 21
37.282275
 31
0.0
  0
LINE
  5
2BC
100
AcDbEntity
  8
LAY-1
  6
CONTINUOUS
 62
     2
100
AcDbLine
 10
229.97348
 20
35.437737
 30
0.0
 11
230.433044
 21
37.282258
 31
0.0
  0
LINE
  5
2BD
100
AcDbEntity
  8
LAY-1
  6
CONTINUOUS
 62
     2
100
AcDbLine
 10
230.392761
 20
35.43772
 30
0.0
 11
230.852692
 21
37.282275
 31
0.0
  0
LINE
  5
2BE
100
AcDbEntity
  8
LAY-1
  6
CONTINUOUS
 62
     2
100
AcDbLine
 10
232.140472
 20
36.558398
 30
0.0
 11
232.140472
 21
37.270392
 31
0.0
  0
LINE
  5
2BF
100
AcDbEntity
  8
LAY-1
  6
CONTINUOUS
 62
     2
100
AcDbLine
 10
232.684143
 20
36.558398
 30
0.0
 11
232.684143
 21
37.270392
 31
0.0
  0
LINE
  5
2C0
100
AcDbEntity
  8
LAY-1
  6
CONTINUOUS
 62
     2
100
AcDbLine
 10
233.187836
 20
36.558398
 30
0.0
 11
233.187836
 21
37.270392
 31
0.0
  0
LINE
  5
2C1
100
AcDbEntity
  8
LAY-1
  6
CONTINUOUS
 62
     2
100
AcDbLine
 10
230.972443
 20
36.158398
 30
0.0
 11
235.449554
 21
36.158398
 31
0.0
  0
LINE
  5
2C2
100
AcDbEntity
  8
LAY-1
  6
CONTINUOUS
 62
     2
100
AcDbLine
 10
232.140472
 20
35.758399
 30
0.0
 11
232.140472
 21
34.542407
 31
0.0
  0
LINE
  5
2C3
100
AcDbEntity
  8
LAY-1
  6
CONTINUOUS
 62
     2
100
AcDbLine
 10
232.684143
 20
35.758399
 30
0.0
 11
232.684143
 21
34.542407
 31
0.0
  0
LINE
  5
2C4
100
AcDbEntity
  8
LAY-1
  6
CONTINUOUS
 62
     2
100
AcDbLine
 10
233.187836
 20
35.758399
 30
0.0
 11
233.187836
 21
34.542407
 31
0.0
  0
LINE
  5
2C5
100
AcDbEntity
  8
LAY-1
  6
CONTINUOUS
 62
     2
100
AcDbLine
 10
229.596802
 20
34.142407
 30
0.0
 11
235.651337
 21
34.142407
 31
0.0
  0
LINE
  5
2C6
100
AcDbEntity
  8
LAY-1
  6
CONTINUOUS
 62
     2
100
AcDbLine
 10
230.489594
 20
33.748877
 30
0.0
 11
229.660156
 21
29.19353
 31
0.0
  0
LINE
  5
2C7
100
AcDbEntity
  8
LAY-1
  6
CONTINUOUS
 62
     2
100
AcDbLine
 10
230.961456
 20
33.748877
 30
0.0
 11
230.13205
 21
29.19353
 31
0.0
  0
LINE
  5
2C8
100
AcDbEntity
  8
LAY-1
  6
CONTINUOUS
 62
     2
100
AcDbLine
 10
231.377838
 20
33.748883
 30
0.0
 11
230.548004
 21
29.193524
 31
0.0
  0
LINE
  5
2C9
100
AcDbEntity
  8
LAY-1
  6
CONTINUOUS
 62
     2
100
AcDbLine
 10
232.140472
 20
33.742408
 30
0.0
 11
232.140472
 21
29.2
 31
0.0
  0
LINE
  5
2CA
100
AcDbEntity
  8
LAY-1
  6
CONTINUOUS
 62
     2
100
AcDbLine
 10
232.644135
 20
33.742408
 30
0.0
 11
232.644135
 21
29.2
 31
0.0
  0
LINE
  5
2CB
100
AcDbEntity
  8
LAY-1
  6
CONTINUOUS
 62
     3
100
AcDbLine
 10
233.187836
 20
33.742408
 30
0.0
 11
233.187836
 21
29.2
 31
0.0
  0
LINE
  5
2CC
100
AcDbEntity
  8
LAY-1
  6
CONTINUOUS
 62
     2
100
AcDbLine
 10
233.869904
 20
33.748883
 30
0.0
 11
234.699738
 21
29.193524
 31
0.0
  0
LINE
  5
2CD
100
AcDbEntity
  8
LAY-1
  6
CONTINUOUS
 62
     2
100
AcDbLine
 10
234.302185
 20
33.748883
 30
0.0
 11
235.132019
 21
29.193524
 31
0.0
  0
LINE
  5
2CE
100
AcDbEntity
  8
LAY-1
  6
CONTINUOUS
 62
     2
100
AcDbLine
 10
234.814056
 20
33.748883
 30
0.0
 11
235.64389
 21
29.193524
 31
0.0
  0
LINE
  5
2CF
100
AcDbEntity
  8
LAY-1
  6
CONTINUOUS
 62
     2
100
AcDbLine
 10
236.854523
 20
36.480031
 30
0.0
 11
242.564819
 21
36.480031
 31
0.0
  0
LINE
  5
2D0
100
AcDbEntity
  8
LAY-1
  6
CONTINUOUS
 62
     2
100
AcDbLine
 10
236.854523
 20
35.976033
 30
0.0
 11
242.748261
 21
35.976033
 31
0.0
  0
LINE
  5
2D1
100
AcDbEntity
  8
LAY-1
  6
CONTINUOUS
 62
     2
100
AcDbLine
 10
245.623322
 20
29.175877
 30
0.0
 11
242.668396
 21
37.294514
 31
0.0
  0
LINE
  5
2D2
100
AcDbEntity
  8
LAY-1
  6
CONTINUOUS
 62
     2
100
AcDbLine
 10
246.159393
 20
29.175879
 30
0.0
 11
243.20459
 21
37.294513
 31
0.0
  0
LINE
  5
2D3
100
AcDbEntity
  8
LAY-1
  6
CONTINUOUS
 62
     2
100
AcDbLine
 10
246.695465
 20
29.175879
 30
0.0
 11
243.740662
 21
37.294513
 31
0.0
  0
LINE
  5
2D4
100
AcDbEntity
  8
LAY-1
  6
CONTINUOUS
 62
     2
100
AcDbLine
 10
247.231537
 20
29.175872
 30
0.0
 11
244.276276
 21
37.294518
 31
0.0
  0
LINE
  5
2D5
100
AcDbEntity
  8
LAY-1
  6
CONTINUOUS
 62
     2
100
AcDbLine
 10
245.708618
 20
36.88003
 30
0.0
 11
245.708618
 21
37.270392
 31
0.0
  0
LINE
  5
2D6
100
AcDbEntity
  8
LAY-1
  6
CONTINUOUS
 62
     2
100
AcDbLine
 10
246.252319
 20
36.88003
 30
0.0
 11
246.252319
 21
37.270392
 31
0.0
  0
LINE
  5
2D7
100
AcDbEntity
  8
LAY-1
  6
CONTINUOUS
 62
     2
100
AcDbLine
 10
246.79599
 20
36.88003
 30
0.0
 11
246.79599
 21
37.270392
 31
0.0
  0
LINE
  5
2D8
100
AcDbEntity
  8
LAY-1
  6
CONTINUOUS
 62
     2
100
AcDbLine
 10
244.972748
 20
36.480031
 30
0.0
 11
247.344086
 21
36.480031
 31
0.0
  0
LINE
  5
2D9
100
AcDbEntity
  8
LAY-1
  6
CONTINUOUS
 62
     2
100
AcDbLine
 10
245.15622
 20
35.976033
 30
0.0
 11
247.344086
 21
35.976033
 31
0.0
  0
LINE
  5
2DA
100
AcDbEntity
  8
LAY-1
  6
CONTINUOUS
 62
     2
100
AcDbLine
 10
237.459106
 20
34.07282
 30
0.0
 11
242.707275
 21
34.07282
 31
0.0
  0
LINE
  5
2DB
100
AcDbEntity
  8
LAY-1
  6
CONTINUOUS
 62
     2
100
AcDbLine
 10
237.459106
 20
33.568791
 30
0.0
 11
242.707275
 21
33.568791
 31
0.0
  0
LINE
  5
2DC
100
AcDbEntity
  8
LAY-1
  6
CONTINUOUS
 62
     2
100
AcDbLine
 10
239.358185
 20
33.168792
 30
0.0
 11
239.358185
 21
31.158231
 31
0.0
  0
LINE
  5
2DD
100
AcDbEntity
  8
LAY-1
  6
CONTINUOUS
 62
     2
100
AcDbLine
 10
239.861847
 20
33.168792
 30
0.0
 11
239.861847
 21
31.265286
 31
0.0
  0
LINE
  5
2DE
100
AcDbEntity
  8
LAY-1
  6
CONTINUOUS
 62
     2
100
AcDbLine
 10
240.365509
 20
33.168792
 30
0.0
 11
240.365509
 21
31.372344
 31
0.0
  0
LINE
  5
2DF
100
AcDbEntity
  8
LAY-1
  6
CONTINUOUS
 62
     2
100
AcDbLine
 10
240.869202
 20
33.168792
 30
0.0
 11
240.869202
 21
31.479405
 31
0.0
  0
LINE
  5
2E0
100
AcDbEntity
  8
LAY-1
  6
CONTINUOUS
 62
     2
100
AcDbLine
 10
237.349457
 20
30.331263
 30
0.0
 11
242.816895
 21
31.493399
 31
0.0
  0
LINE
  5
2E1
100
AcDbEntity
  8
LAY-1
  6
CONTINUOUS
 62
     2
100
AcDbLine
 10
237.349457
 20
29.776006
 30
0.0
 11
242.816895
 21
30.93817
 31
0.0
  0
LINE
  5
2E2
100
AcDbEntity
  8
LAY-1
  6
CONTINUOUS
 62
     2
100
AcDbLine
 10
237.349457
 20
29.300746
 30
0.0
 11
242.816895
 21
30.462882
 31
0.0
  0
LINE
  5
2E3
100
AcDbEntity
  8
LAY-1
  6
CONTINUOUS
 62
     2
100
AcDbLine
 10
248.526611
 20
35.665189
 30
0.0
 11
253.703064
 21
37.39708
 31
0.0
  0
LINE
  5
2E4
100
AcDbEntity
  8
LAY-1
  6
CONTINUOUS
 62
     2
100
AcDbLine
 10
248.526611
 20
35.133725
 30
0.0
 11
253.703064
 21
36.865647
 31
0.0
  0
LINE
  5
2E5
100
AcDbEntity
  8
LAY-1
  6
CONTINUOUS
 62
     2
100
AcDbLine
 10
254.082397
 20
37.397078
 30
0.0
 11
259.258881
 21
35.665061
 31
0.0
  0
LINE
  5
2E6
100
AcDbEntity
  8
LAY-1
  6
CONTINUOUS
 62
     2
100
AcDbLine
 10
254.082397
 20
36.905646
 30
0.0
 11
259.258881
 21
35.173629
 31
0.0
  0
LINE
  5
2E7
100
AcDbEntity
  8
LAY-1
  6
CONTINUOUS
 62
     2
100
AcDbLine
 10
257.524994
 20
35.119221
 30
0.0
 11
250.260895
 21
35.119221
 31
0.0
  0
LINE
  5
2E8
100
AcDbEntity
  8
LAY-1
  6
CONTINUOUS
 62
     2
100
AcDbLine
 10
257.524994
 20
34.575192
 30
0.0
 11
250.260895
 21
34.575192
 31
0.0
  0
LINE
  5
2E9
100
AcDbEntity
  8
LAY-1
  6
CONTINUOUS
 62
     2
100
AcDbLine
 10
248.547272
 20
33.012784
 30
0.0
 11
259.23822
 21
33.012784
 31
0.0
  0
LINE
  5
2EA
100
AcDbEntity
  8
LAY-1
  6
CONTINUOUS
 62
     2
100
AcDbLine
 10
248.547272
 20
32.548817
 30
0.0
 11
259.23822
 21
32.548817
 31
0.0
  0
LINE
  5
2EB
100
AcDbEntity
  8
LAY-1
  6
CONTINUOUS
 62
     2
100
AcDbLine
 10
250.202667
 20
32.186307
 30
0.0
 11
249.182251
 21
29.998492
 31
0.0
  0
LINE
  5
2EC
100
AcDbEntity
  8
LAY-1
  6
CONTINUOUS
 62
     2
100
AcDbLine
 10
250.838867
 20
32.186309
 30
0.0
 11
249.81842
 21
29.998492
 31
0.0
  0
LINE
  5
2ED
100
AcDbEntity
  8
LAY-1
  6
CONTINUOUS
 62
     2
100
AcDbLine
 10
251.475067
 20
32.186309
 30
0.0
 11
250.45462
 21
29.998492
 31
0.0
  0
LINE
  5
2EE
100
AcDbEntity
  8
LAY-1
  6
CONTINUOUS
 62
     2
100
AcDbLine
 10
256.310822
 20
32.186333
 30
0.0
 11
257.331665
 21
29.998467
 31
0.0
  0
LINE
  5
2EF
100
AcDbEntity
  8
LAY-1
  6
CONTINUOUS
 62
     2
100
AcDbLine
 10
256.947418
 20
32.186284
 30
0.0
 11
257.967407
 21
29.998517
 31
0.0
  0
LINE
  5
2F0
100
AcDbEntity
  8
LAY-1
  6
CONTINUOUS
 62
     2
100
AcDbLine
 10
257.583984
 20
32.186263
 30
0.0
 11
258.603638
 21
29.998538
 31
0.0
  0
LINE
  5
2F1
100
AcDbEntity
  8
LAY-1
  6
CONTINUOUS
 62
     2
100
AcDbLine
 10
248.937073
 20
29.635983
 30
0.0
 11
258.848419
 21
29.635983
 31
0.0
  0
LINE
  5
2F2
100
AcDbEntity
  8
LAY-1
  6
CONTINUOUS
 62
     2
100
AcDbLine
 10
248.702057
 20
29.131985
 30
0.0
 11
259.083435
 21
29.131985
 31
0.0
  0
LINE
  5
2F3
100
AcDbEntity
  8
LAY-1
  6
CONTINUOUS
 62
     2
100
AcDbLine
 10
262.279572
 20
36.88003
 30
0.0
 11
262.279572
 21
37.270392
 31
0.0
  0
LINE
  5
2F4
100
AcDbEntity
  8
LAY-1
  6
CONTINUOUS
 62
     2
100
AcDbLine
 10
262.863251
 20
36.88003
 30
0.0
 11
262.863251
 21
37.270392
 31
0.0
  0
LINE
  5
2F5
100
AcDbEntity
  8
LAY-1
  6
CONTINUOUS
 62
     2
100
AcDbLine
 10
263.44696
 20
36.88003
 30
0.0
 11
263.44696
 21
37.270392
 31
0.0
  0
LINE
  5
2F6
100
AcDbEntity
  8
LAY-1
  6
CONTINUOUS
 62
     2
100
AcDbLine
 10
260.441376
 20
36.480031
 30
0.0
 11
265.017578
 21
36.480031
 31
0.0
  0
LINE
  5
2F7
100
AcDbEntity
  8
LAY-1
  6
CONTINUOUS
 62
     2
100
AcDbLine
 10
260.441376
 20
35.976033
 30
0.0
 11
264.664764
 21
35.976033
 31
0.0
  0
LINE
  5
2F8
100
AcDbEntity
  8
LAY-1
  6
CONTINUOUS
 62
     2
100
AcDbLine
 10
263.075836
 20
35.648335
 30
0.0
 11
260.270752
 21
31.640944
 31
0.0
  0
LINE
  5
2F9
100
AcDbEntity
  8
LAY-1
  6
CONTINUOUS
 62
     2
100
AcDbLine
 10
263.731323
 20
35.64836
 30
0.0
 11
260.270782
 21
30.705703
 31
0.0
  0
LINE
  5
2FA
100
AcDbEntity
  8
LAY-1
  6
CONTINUOUS
 62
     2
100
AcDbLine
 10
264.347595
 20
35.648354
 30
0.0
 11
260.270782
 21
29.825146
 31
0.0
  0
LINE
  5
2FB
100
AcDbEntity
  8
LAY-1
  6
CONTINUOUS
 62
     2
100
AcDbLine
 10
263.385986
 20
33.577382
 30
0.0
 11
265.157349
 21
32.336928
 31
0.0
  0
LINE
  5
2FC
100
AcDbEntity
  8
LAY-1
  6
CONTINUOUS
 62
     2
100
AcDbLine
 10
263.096893
 20
33.164399
 30
0.0
 11
265.157318
 21
31.721598
 31
0.0
  0
LINE
  5
2FD
100
AcDbEntity
  8
LAY-1
  6
CONTINUOUS
 62
     2
100
AcDbLine
 10
262.789001
 20
32.724625
 30
0.0
 11
265.157318
 21
31.0663
 31
0.0
  0
LINE
  5
2FE
100
AcDbEntity
  8
LAY-1
  6
CONTINUOUS
 62
     2
100
AcDbLine
 10
262.279572
 20
32.294446
 30
0.0
 11
262.279572
 21
29.2
 31
0.0
  0
LINE
  5
2FF
100
AcDbEntity
  8
LAY-1
  6
CONTINUOUS
 62
     2
100
AcDbLine
 10
262.863251
 20
32.272631
 30
0.0
 11
262.863251
 21
29.2
 31
0.0
  0
LINE
  5
300
100
AcDbEntity
  8
LAY-1
  6
CONTINUOUS
 62
     2
100
AcDbLine
 10
263.44696
 20
31.863913
 30
0.0
 11
263.44696
 21
29.2
 31
0.0
  0
LINE
  5
301
100
AcDbEntity
  8
LAY-1
  6
CONTINUOUS
 62
     2
100
AcDbLine
 10
267.722748
 20
30.035983
 30
0.0
 11
267.722748
 21
37.270392
 31
0.0
  0
LINE
  5
302
100
AcDbEntity
  8
LAY-1
  6
CONTINUOUS
 62
     2
100
AcDbLine
 10
268.306427
 20
30.035983
 30
0.0
 11
268.306427
 21
37.270392
 31
0.0
  0
LINE
  5
303
100
AcDbEntity
  8
LAY-1
  6
CONTINUOUS
 62
     2
100
AcDbLine
 10
268.890137
 20
30.035983
 30
0.0
 11
268.890137
 21
37.270392
 31
0.0
  0
LINE
  5
304
100
AcDbEntity
  8
LAY-1
  6
CONTINUOUS
 62
     2
100
AcDbLine
 10
265.884979
 20
35.068806
 30
0.0
 11
267.322754
 21
35.068806
 31
0.0
  0
LINE
  5
305
100
AcDbEntity
  8
LAY-1
  6
CONTINUOUS
 62
     2
100
AcDbLine
 10
265.884979
 20
34.564839
 30
0.0
 11
267.322754
 21
34.564839
 31
0.0
  0
LINE
  5
306
100
AcDbEntity
  8
LAY-1
  6
CONTINUOUS
 62
     2
100
AcDbLine
 10
269.290131
 20
35.068806
 30
0.0
 11
270.729553
 21
35.068806
 31
0.0
  0
LINE
  5
307
100
AcDbEntity
  8
LAY-1
  6
CONTINUOUS
 62
     2
100
AcDbLine
 10
269.290131
 20
34.524838
 30
0.0
 11
270.729553
 21
34.524838
 31
0.0
  0
LINE
  5
308
100
AcDbEntity
  8
LAY-1
  6
CONTINUOUS
 62
     2
100
AcDbLine
 10
265.078186
 20
29.635983
 30
0.0
 11
270.931335
 21
29.635983
 31
0.0
  0
LINE
  5
309
100
AcDbEntity
  8
LAY-1
  6
CONTINUOUS
 62
     2
100
AcDbLine
 10
265.078186
 20
29.131985
 30
0.0
 11
270.931335
 21
29.131985
 31
0.0
  0
LINE
  5
30A
100
AcDbEntity
  8
LAY-1
  6
CONTINUOUS
 62
     2
100
AcDbLine
 10
219.495117
 20
32.670728
 30
0.0
 11
223.756805
 21
32.670728
 31
0.0
  0
LINE
  5
30B
100
AcDbEntity
  8
LAY-1
  6
EXLTYPE2
 62
     6
100
AcDbLine
 10
-0.2
 20
303.0
 30
0.0
 11
35.8
 21
303.0
 31
0.0
  0
CIRCLE
  5
30C
100
AcDbEntity
  8
LAY-1
  6
CONTINUOUS
 62
     6
100
AcDbCircle
 10
45.8
 20
28.0
 30
0.0
 40
0.2
  0
CIRCLE
  5
30D
100
AcDbEntity
  8
LAY-1
  6
CONTINUOUS
 62
     6
100
AcDbCircle
 10
55.8
 20
28.0
 30
0.0
 40
0.2
  0
TEXT
  5
30E
100
AcDbEntity
  8
LAY-1
  6
CONTINUOUS
 62
     6
100
AcDbText
 10
126.7
 20
40.0
 30
0.0
 40
10.0
  1
又場
 41
0.8568
  7
EXCADSTD
 72
     5
 11
145.39864
 21
40.0
 31
0.0
100
AcDbText
  0
TEXT
  5
30F
100
AcDbEntity
  8
LAY-1
  6
CONTINUOUS
 62
     6
100
AcDbText
 10
41.1
 20
40.0
 30
0.0
 40
10.0
  1
風穴
 41
0.8568
  7
EXCADSTD
 72
     5
 11
59.79864
 21
40.0
 31
0.0
100
AcDbText
  0
TEXT
  5
310
100
AcDbEntity
  8
LAY-1
  6
CONTINUOUS
 62
     6
100
AcDbText
 10
36.208823
 20
25.390015
 30
0.0
 40
5.0
  1
１７
 41
0.75768
  7
EXCADSTD
 72
     5
 11
44.476555
 21
25.390015
 31
0.0
100
AcDbText
  0
TEXT
  5
311
100
AcDbEntity
  8
LAY-1
  6
CONTINUOUS
 62
     6
100
AcDbText
 10
48.063823
 20
25.390015
 30
0.0
 40
5.0
  1
９
 41
0.89208
  7
EXCADSTD
 72
     5
 11
52.311823
 21
25.390015
 31
0.0
100
AcDbText
  0
TEXT
  5
312
100
AcDbEntity
  8
LAY-1
  6
CONTINUOUS
 62
     6
100
AcDbText
 10
58.663823
 20
25.390015
 30
0.0
 40
5.0
  1
７
 41
0.89208
  7
EXCADSTD
 72
     5
 11
62.911823
 21
25.390015
 31
0.0
100
AcDbText
  0
TEXT
  5
313
100
AcDbEntity
  8
LAY-1
  6
CONTINUOUS
 62
     2
100
AcDbText
 10
378.338519
 20
56.98
 30
0.0
 40
8.0
  1
１
 41
1.05
  7
EXCADSTD
 72
     5
 11
386.338519
 21
56.98
 31
0.0
100
AcDbText
  0
LINE
  5
314
100
AcDbEntity
  8
LAY-1
  6
CONTINUOUS
 62
     6
100
AcDbLine
 10
397.6
 20
62.625
 30
0.0
 11
380.0
 21
47.775
 31
0.0
  0
TEXT
  5
315
100
AcDbEntity
  8
LAY-1
  6
CONTINUOUS
 62
     7
100
AcDbText
 10
303.3
 20
26.3
 30
0.0
 40
14.0
  1
９５１９００
 41
0.81
  7
EXCADSTD
 72
     5
 11
384.3
 21
26.3
 31
0.0
100
AcDbText
  0
TEXT
  5
316
100
AcDbEntity
  8
LAY-1
  6
CONTINUOUS
 62
     2
100
AcDbText
 10
298.8
 20
48.75
 30
0.0
 40
12.5
  1
ＮＡ１１５１
 41
0.6944
  7
EXCADSTD
 72
     5
 11
360.8
 21
48.75
 31
0.0
100
AcDbText
  0
TEXT
  5
317
100
AcDbEntity
  8
LAY-1
  6
CONTINUOUS
 62
     2
100
AcDbText
 10
387.558519
 20
44.74
 30
0.0
 40
8.0
  1
２
 41
0.84
  7
EXCADSTD
 72
     5
 11
393.958519
 21
44.74
 31
0.0
100
AcDbText
  0
TEXT
  5
318
100
AcDbEntity
  8
LAY-1
  6
CONTINUOUS
 62
     2
100
AcDbText
 10
185.3
 20
48.75
 30
0.0
 40
12.5
  1
タオルリング
 41
0.7504
  7
EXCADSTD
 72
     5
 11
252.3
 21
48.75
 31
0.0
100
AcDbText
  0
ENDSEC
  0
SECTION
  2
OBJECTS
  0
DICTIONARY
  5
19
100
AcDbDictionary
  3
ACAD_GROUP
350
1A
  3
ACAD_MLINESTYLE
350
1B
  0
DICTIONARY
  5
1A
102
{ACAD_REACTORS
330
19
102
}
100
AcDbDictionary
  0
DICTIONARY
  5
1B
102
{ACAD_REACTORS
330
19
102
}
100
AcDbDictionary
  3
STANDARD
350
1C
  0
MLINESTYLE
  5
1C
102
{ACAD_REACTORS
330
1B
102
}
100
AcDbMlineStyle
  2
Standard
 70
     0
  3

 62
     0
 51
90.0
 52
90.0
 71
     2
 49
0.5
 62
   256
  6
ByLayer
 49
-0.5
 62
   256
  6
ByLayer
  0
ENDSEC
  0
EOF
