  0
SECTION
  2
HEADER
  9
$ACADVER
  1
AC1014
  9
$ACADMAINTVER
 70
     0
  9
$DWGCODEPAGE
  3
ANSI_932
  9
$INSBASE
 10
0.0
 20
0.0
 30
0.0
  9
$EXTMIN
 10
-0.1
 20
11.5
 30
0.0
  9
$EXTMAX
 10
272.45
 20
291.5
 30
0.0
  9
$LIMMIN
 10
0.0
 20
0.0
  9
$LIMMAX
 10
210.0
 20
297.0
  9
$ORTHOMODE
 70
     0
  9
$REGENMODE
 70
     1
  9
$FILLMODE
 70
     1
  9
$QTEXTMODE
 70
     0
  9
$MIRRTEXT
 70
     1
  9
$DRAGMODE
 70
     2
  9
$LTSCALE
 40
1.0
  9
$OSMODE
 70
     0
  9
$ATTMODE
 70
     1
  9
$TEXTSIZE
 40
0.2
  9
$TRACEWID
 40
0.05
  9
$TEXTSTYLE
  7
STANDARD
  9
$CLAYER
  8
LAY-1
  9
$CELTYPE
  6
CONTINUOUS
  9
$CECOLOR
 62
   256
  9
$CELTSCALE
 40
1.0
  9
$DELOBJ
 70
     1
  9
$DISPSILH
 70
     0
  9
$DIMSCALE
 40
1.0
  9
$DIMASZ
 40
0.18
  9
$DIMEXO
 40
0.0625
  9
$DIMDLI
 40
0.38
  9
$DIMRND
 40
0.0
  9
$DIMDLE
 40
0.0
  9
$DIMEXE
 40
0.18
  9
$DIMTP
 40
0.0
  9
$DIMTM
 40
0.0
  9
$DIMTXT
 40
0.18
  9
$DIMCEN
 40
0.09
  9
$DIMTSZ
 40
0.0
  9
$DIMTOL
 70
     0
  9
$DIMLIM
 70
     0
  9
$DIMTIH
 70
     1
  9
$DIMTOH
 70
     1
  9
$DIMSE1
 70
     0
  9
$DIMSE2
 70
     0
  9
$DIMTAD
 70
     0
  9
$DIMZIN
 70
     0
  9
$DIMBLK
  1

  9
$DIMASO
 70
     1
  9
$DIMSHO
 70
     1
  9
$DIMPOST
  1

  9
$DIMAPOST
  1

  9
$DIMALT
 70
     0
  9
$DIMALTD
 70
     2
  9
$DIMALTF
 40
25.4
  9
$DIMLFAC
 40
1.0
  9
$DIMTOFL
 70
     0
  9
$DIMTVP
 40
0.0
  9
$DIMTIX
 70
     0
  9
$DIMSOXD
 70
     0
  9
$DIMSAH
 70
     0
  9
$DIMBLK1
  1

  9
$DIMBLK2
  1

  9
$DIMSTYLE
  2
STANDARD
  9
$DIMCLRD
 70
     0
  9
$DIMCLRE
 70
     0
  9
$DIMCLRT
 70
     0
  9
$DIMTFAC
 40
1.0
  9
$DIMGAP
 40
0.09
  9
$DIMJUST
 70
     0
  9
$DIMSD1
 70
     0
  9
$DIMSD2
 70
     0
  9
$DIMTOLJ
 70
     1
  9
$DIMTZIN
 70
     0
  9
$DIMALTZ
 70
     0
  9
$DIMALTTZ
 70
     0
  9
$DIMFIT
 70
     3
  9
$DIMUPT
 70
     0
  9
$DIMUNIT
 70
     2
  9
$DIMDEC
 70
     4
  9
$DIMTDEC
 70
     4
  9
$DIMALTU
 70
     2
  9
$DIMALTTD
 70
     2
  9
$DIMTXSTY
  7
STANDARD
  9
$DIMAUNIT
 70
     0
  9
$LUNITS
 70
     2
  9
$LUPREC
 70
     4
  9
$SKETCHINC
 40
0.1
  9
$FILLETRAD
 40
0.0
  9
$AUNITS
 70
     0
  9
$AUPREC
 70
     0
  9
$MENU
  1
acad
  9
$ELEVATION
 40
0.0
  9
$PELEVATION
 40
0.0
  9
$THICKNESS
 40
0.0
  9
$LIMCHECK
 70
     0
  9
$BLIPMODE
 70
     1
  9
$CHAMFERA
 40
0.0
  9
$CHAMFERB
 40
0.0
  9
$CHAMFERC
 40
0.0
  9
$CHAMFERD
 40
0.0
  9
$SKPOLY
 70
     0
  9
$TDCREATE
 40
2455891.042932234
  9
$TDUPDATE
 40
2455891.042932234
  9
$TDINDWG
 40
0.0000000000
  9
$TDUSRTIMER
 40
0.0000000000
  9
$USRTIMER
 70
     1
  9
$ANGBASE
 50
0.0
  9
$ANGDIR
 70
     0
  9
$PDMODE
 70
     0
  9
$PDSIZE
 40
0.0
  9
$PLINEWID
 40
0.0
  9
$COORDS
 70
     1
  9
$SPLFRAME
 70
     0
  9
$SPLINETYPE
 70
     6
  9
$SPLINESEGS
 70
     8
  9
$ATTDIA
 70
     0
  9
$ATTREQ
 70
     1
  9
$HANDLING
 70
     1
  9
$HANDSEED
  5
26A
  9
$SURFTAB1
 70
     6
  9
$SURFTAB2
 70
     6
  9
$SURFTYPE
 70
     6
  9
$SURFU
 70
     6
  9
$SURFV
 70
     6
  9
$UCSNAME
  2

  9
$UCSORG
 10
0.0
 20
0.0
 30
0.0
  9
$UCSXDIR
 10
1.0
 20
0.0
 30
0.0
  9
$UCSYDIR
 10
0.0
 20
1.0
 30
0.0
  9
$PUCSNAME
  2

  9
$PUCSORG
 10
0.0
 20
0.0
 30
0.0
  9
$PUCSXDIR
 10
1.0
 20
0.0
 30
0.0
  9
$PUCSYDIR
 10
0.0
 20
1.0
 30
0.0
  9
$USERI1
 70
     0
  9
$USERI2
 70
     0
  9
$USERI3
 70
     0
  9
$USERI4
 70
     0
  9
$USERI5
 70
     0
  9
$USERR1
 40
0.0
  9
$USERR2
 40
0.0
  9
$USERR3
 40
0.0
  9
$USERR4
 40
0.0
  9
$USERR5
 40
0.0
  9
$WORLDVIEW
 70
     1
  9
$SHADEDGE
 70
     3
  9
$SHADEDIF
 70
    70
  9
$TILEMODE
 70
     1
  9
$MAXACTVP
 70
    16
  9
$PINSBASE
 10
0.0
 20
0.0
 30
0.0
  9
$PLIMCHECK
 70
     0
  9
$PEXTMIN
 10
1.000000E+20
 20
1.000000E+20
 30
1.000000E+20
  9
$PEXTMAX
 10
-1.000000E+20
 20
-1.000000E+20
 30
-1.000000E+20
  9
$PLIMMIN
 10
0.0
 20
0.0
  9
$PLIMMAX
 10
12.0
 20
9.0
  9
$UNITMODE
 70
     0
  9
$VISRETAIN
 70
     0
  9
$PLINEGEN
 70
     1
  9
$PSLTSCALE
 70
     0
  9
$TREEDEPTH
 70
  3020
  9
$PICKSTYLE
 70
     1
  9
$CMLSTYLE
  2
Standard
  9
$CMLJUST
 70
     0
  9
$CMLSCALE
 40
1.0
  9
$PROXYGRAPHICS
 70
     0
  9
$MEASUREMENT
 70
     0
  0
ENDSEC
  0
SECTION
  2
CLASSES
  0
CLASS
  1
LWPOLYLINE
  2
AcDbPolyline
  3
"AutoCAD"
 90
        0
280
     0
281
     1
  0
CLASS
  1
IMAGE
  2
AcDbRasterImage
  3
ISM
 90
      127
280
     0
281
     1
  0
CLASS
  1
OLE2FRAME
  2
AcDbOle2Frame
  3
""
 90
        0
280
     0
281
     1
  0
CLASS
  1
HATCH
  2
AcDbHatch
  3
"ACAD_SEDONA"
 90
        0
280
     0
281
     1
  0
CLASS
  1
DICTIONARYVAR
  2
AcDbDictionaryVar
  3
"AutoCAD"
 90
        0
280
     0
281
     0
  0
CLASS
  1
RASTERVARIABLES
  2
AcDbRasterVariables
  3
ISM
 90
        0
280
     0
281
     0
  0
CLASS
  1
IMAGEDEF
  2
AcDbRasterImageDef
  3
ISM
 90
        0
280
     0
281
     0
  0
CLASS
  1
IMAGEDEF_REACTOR
  2
AcDbRasterImageDefReactor
  3
ISM
 90
        1
280
     0
281
     0
  0
CLASS
  1
IDBUFFER
  2
AcDbIdBuffer
  3
"Acad"
 90
        0
280
     0
281
     0
  0
CLASS
  1
SPATIAL_FILTER
  2
AcDbSpatialFilter
  3
"Acad"
 90
        0
280
     0
281
     0
  0
CLASS
  1
XRECORD
  2
AcDbXrecord
  3
"<Built In>"
 90
        0
280
     0
281
     0
  0
CLASS
  1
SORTENTSTABLE
  2
AcDbSortentsTable
  3
"AutoCAD"
 90
        0
280
     0
281
     0
  0
CLASS
  1
LAYER_INDEX
  2
AcDbLayerIndex
  3
"Acad"
 90
        0
280
     0
281
     0
  0
CLASS
  1
SPATIAL_INDEX
  2
AcDbSpatialIndex
  3
"Acad"
 90
        0
280
     0
281
     0
  0
CLASS
  1
OBJECT_PTR
  2
CAseDLPNTableRecord
  3
"ASE-LPNTableRecord"
 90
        1
280
     0
281
     0
  0
CLASS
  1
LAYOUT
  2
AcDbLayout
  3
"AutoCAD 2000"
 90
        1
280
     0
281
     0
  0
CLASS
  1
PLOTSETTINGS
  2
AcDbPlotSettings
  3
"AutoCAD 2000"
 90
        1
280
     0
281
     0
  0
CLASS
  1
ACDBDICTIONARYWDFLT
  2
AcDbDictionaryWithDefault
  3
"AutoCAD 2000"
 90
        1
280
     0
281
     0
  0
CLASS
  1
ACDBPLACEHOLDER
  2
AcDbPlaceHolder
  3
"AutoCAD 2000"
 90
        1
280
     0
281
     0
  0
CLASS
  1
VBA_PROJECT
  2
AcDbVbaProject
  3
"acadvba"
 90
        1
280
     0
281
     0
  0
CLASS
  1
WIPEOUT
  2
AcDbWipeout
  3
WipeOut|AutoCAD Express Tool|expresstools@autodesk.com
 90
      127
280
     0
281
     1
  0
CLASS
  1
WIPEOUTVARIABLES
  2
AcDbWipeoutVariables
  3
WipeOut|AutoCAD Express Tool|expresstools@autodesk.com
 90
        0
280
     0
281
     0
  0
CLASS
  1
RTEXT
  2
RText
  3
RText|AutoCAD Express Tool|expresstools@autodesk.com
 90
        0
280
     0
281
     1
  0
CLASS
  1
ARCALIGNEDTEXT
  2
AcDbArcAlignedText
  3
ATEXT|AutoCAD Express Tool|expresstools@autodesk.com
 90
        0
280
     0
281
     1
  0
ENDSEC
  0
SECTION
  2
TABLES
  0
TABLE
  2
VPORT
  5
7
100
AcDbSymbolTable
 70
     1
  0
VPORT
  5
15
100
AcDbSymbolTableRecord
100
AcDbViewportTableRecord
  2
*ACTIVE
 70
     0
 10
0.0
 20
0.0
 11
1.0
 21
1.0
 12
1361.75
 22
1515.0
 13
0.0
 23
0.0
 14
1.0
 24
1.0
 15
0.0
 25
0.0
 16
0.0
 26
0.0
 36
1.0
 17
0.0
 27
0.0
 37
0.0
 40
2800.0
 41
1.722533
 42
50.0
 43
0.0
 44
0.0
 50
0.0
 51
0.0
 71
     0
 72
   100
 73
     1
 74
     1
 75
     0
 76
     0
 77
     0
 78
     0
  0
ENDTAB
  0
TABLE
  2
LTYPE
  5
4
100
AcDbSymbolTable
 70
    12
  0
LTYPE
  5
11
100
AcDbSymbolTableRecord
100
AcDbLinetypeTableRecord
  2
BYBLOCK
 70
    64
  3

 72
    65
 73
     0
 40
0.0
  0
LTYPE
  5
12
100
AcDbSymbolTableRecord
100
AcDbLinetypeTableRecord
  2
BYLAYER
 70
    64
  3

 72
    65
 73
     0
 40
0.0
  0
LTYPE
  5
13
100
AcDbSymbolTableRecord
100
AcDbLinetypeTableRecord
  2
CONTINUOUS
 70
    64
  3
実線
 72
    65
 73
     0
 40
0.0
  0
LTYPE
  5
1D
100
AcDbSymbolTableRecord
100
AcDbLinetypeTableRecord
  2
EXLTYPE1
 70
    64
  3
破線
 72
    65
 73
     2
 40
3.0
 49
2.0
 74
     0
 49
-1.0
 74
     0
  0
LTYPE
  5
1E
100
AcDbSymbolTableRecord
100
AcDbLinetypeTableRecord
  2
EXLTYPE2
 70
    64
  3
点線
 72
    65
 73
     2
 40
2.0
 49
1.0
 74
     0
 49
-1.0
 74
     0
  0
LTYPE
  5
1F
100
AcDbSymbolTableRecord
100
AcDbLinetypeTableRecord
  2
EXLTYPE3
 70
    64
  3
一点鎖線
 72
    65
 73
     4
 40
10.0
 49
7.0
 74
     0
 49
-1.0
 74
     0
 49
1.0
 74
     0
 49
-1.0
 74
     0
  0
LTYPE
  5
20
100
AcDbSymbolTableRecord
100
AcDbLinetypeTableRecord
  2
EXLTYPE4
 70
    64
  3
二点鎖線
 72
    65
 73
     6
 40
12.0
 49
7.0
 74
     0
 49
-1.0
 74
     0
 49
1.0
 74
     0
 49
-1.0
 74
     0
 49
1.0
 74
     0
 49
-1.0
 74
     0
  0
LTYPE
  5
21
100
AcDbSymbolTableRecord
100
AcDbLinetypeTableRecord
  2
EXLTYPE5
 70
    64
  3
三点鎖線
 72
    65
 73
     8
 40
37.0
 49
30.0
 74
     0
 49
-1.0
 74
     0
 49
1.0
 74
     0
 49
-1.0
 74
     0
 49
1.0
 74
     0
 49
-1.0
 74
     0
 49
1.0
 74
     0
 49
-1.0
 74
     0
  0
LTYPE
  5
22
100
AcDbSymbolTableRecord
100
AcDbLinetypeTableRecord
  2
EXLTYPE6
 70
    64
  3
四点鎖線
 72
    65
 73
    10
 40
39.0
 49
30.0
 74
     0
 49
-1.0
 74
     0
 49
1.0
 74
     0
 49
-1.0
 74
     0
 49
1.0
 74
     0
 49
-1.0
 74
     0
 49
1.0
 74
     0
 49
-1.0
 74
     0
 49
1.0
 74
     0
 49
-1.0
 74
     0
  0
LTYPE
  5
23
100
AcDbSymbolTableRecord
100
AcDbLinetypeTableRecord
  2
EXLTYPE7
 70
    64
  3
一点鎖線2
 72
    65
 73
     4
 40
7.0
 49
5.0
 74
     0
 49
-0.8
 74
     0
 49
0.4
 74
     0
 49
-0.8
 74
     0
  0
LTYPE
  5
24
100
AcDbSymbolTableRecord
100
AcDbLinetypeTableRecord
  2
EXLTYPE8
 70
    64
  3
破線3
 72
    65
 73
     2
 40
1.27
 49
0.635
 74
     0
 49
-0.635
 74
     0
  0
LTYPE
  5
25
100
AcDbSymbolTableRecord
100
AcDbLinetypeTableRecord
  2
EXLTYPE9
 70
    64
  3
破線2
 72
    65
 73
     2
 40
2.38125
 49
1.5875
 74
     0
 49
-0.79375
 74
     0
  0
ENDTAB
  0
TABLE
  2
LAYER
  5
2
100
AcDbSymbolTable
 70
     4
  0
LAYER
  5
14
100
AcDbSymbolTableRecord
100
AcDbLayerTableRecord
  2
0
 70
     0
 62
     7
  6
CONTINUOUS
  0
LAYER
  5
28
100
AcDbSymbolTableRecord
100
AcDbLayerTableRecord
  2
LAY-1
 70
    64
 62
     7
  6
CONTINUOUS
  0
LAYER
  5
29
100
AcDbSymbolTableRecord
100
AcDbLayerTableRecord
  2
LAY-2
 70
    64
 62
     7
  6
CONTINUOUS
  0
LAYER
  5
2A
100
AcDbSymbolTableRecord
100
AcDbLayerTableRecord
  2
LAY-3
 70
    64
 62
     7
  6
CONTINUOUS
  0
ENDTAB
  0
TABLE
  2
STYLE
  5
3
100
AcDbSymbolTable
 70
     5
  0
STYLE
  5
17
100
AcDbSymbolTableRecord
100
AcDbTextStyleTableRecord
  2
STANDARD
 70
     0
 40
0.0
 41
1.0
 50
0.0
 71
     0
 42
0.0
  3
monotxt
  4
extfont
  0
STYLE
  5
26
100
AcDbSymbolTableRecord
100
AcDbTextStyleTableRecord
  2
EXCADSTD
 70
    64
 40
0.0
 41
1.0
 50
0.0
 71
     0
 42
0.2
  3
monotxt
  4
extfont
  0
STYLE
  5
27
100
AcDbSymbolTableRecord
100
AcDbTextStyleTableRecord
  2
EXCADVERT
 70
    68
 40
0.0
 41
1.0
 50
0.0
 71
     0
 42
0.286885
  3
monotxt
  4
extfont
  0
STYLE
  5
AF
100
AcDbSymbolTableRecord
100
AcDbTextStyleTableRecord
  2
EXCADTTF1
 70
    64
 40
0.0
 41
1.0
 50
0.0
 71
     0
 42
0.2
  3
MS Gothic.ttf
  4

1001
ACAD
1000
MS Gothic
1071
    32817
  0
STYLE
  5
200
100
AcDbSymbolTableRecord
100
AcDbTextStyleTableRecord
  2
EXCADDIM1
 70
    64
 40
0.0
 41
0.84
 50
0.0
 71
     0
 42
0.2
  3
monotxt
  4
extfont
  0
ENDTAB
  0
TABLE
  2
VIEW
  5
5
100
AcDbSymbolTable
 70
     0
  0
ENDTAB
  0
TABLE
  2
UCS
  5
6
100
AcDbSymbolTable
 70
     0
  0
ENDTAB
  0
TABLE
  2
APPID
  5
8
100
AcDbSymbolTable
 70
     1
  0
APPID
  5
16
100
AcDbSymbolTableRecord
100
AcDbRegAppTableRecord
  2
ACAD
 70
     0
  0
ENDTAB
  0
TABLE
  2
DIMSTYLE
  5
9
100
AcDbSymbolTable
 70
     1
  0
DIMSTYLE
105
18
100
AcDbSymbolTableRecord
100
AcDbDimStyleTableRecord
  2
STANDARD
 70
     0
  3

  4

  5

  6

  7

 40
1.0
 41
0.18
 42
0.0625
 43
0.38
 44
0.18
 45
0.0
 46
0.0
 47
0.0
 48
0.0
 71
     0
 72
     0
 73
     1
 74
     1
 75
     0
 76
     0
 77
     0
 78
     0
140
0.18
141
0.09
142
0.0
143
25.4
144
1.0
145
0.0
146
1.0
147
0.09
170
     0
171
     2
172
     1
173
     0
174
     0
175
     0
176
     0
177
     0
178
     0
270
     2
271
     4
272
     4
273
     2
274
     2
275
     0
280
     0
281
     0
282
     0
283
     1
284
     0
285
     0
286
     0
287
     0
288
     0
340
17
  0
ENDTAB
  0
TABLE
  2
BLOCK_RECORD
  5
1
100
AcDbSymbolTable
 70
    23
  0
BLOCK_RECORD
  5
A
100
AcDbSymbolTableRecord
100
AcDbBlockTableRecord
  2
*MODEL_SPACE
  0
BLOCK_RECORD
  5
B
100
AcDbSymbolTableRecord
100
AcDbBlockTableRecord
  2
*PAPER_SPACE
  0
BLOCK_RECORD
  5
2B
100
AcDbSymbolTableRecord
100
AcDbBlockTableRecord
  2
_EX_NORM
  0
BLOCK_RECORD
  5
2C
100
AcDbSymbolTableRecord
100
AcDbBlockTableRecord
  2
_EX_BNORM
  0
BLOCK_RECORD
  5
2D
100
AcDbSymbolTableRecord
100
AcDbBlockTableRecord
  2
_EX_BCIR
  0
BLOCK_RECORD
  5
2E
100
AcDbSymbolTableRecord
100
AcDbBlockTableRecord
  2
_EX_RCIVIL
  0
BLOCK_RECORD
  5
2F
100
AcDbSymbolTableRecord
100
AcDbBlockTableRecord
  2
_EX_SLANT
  0
BLOCK_RECORD
  5
30
100
AcDbSymbolTableRecord
100
AcDbBlockTableRecord
  2
_EX_NONE
  0
BLOCK_RECORD
  5
31
100
AcDbSymbolTableRecord
100
AcDbBlockTableRecord
  2
_EX_CIVIL
  0
BLOCK_RECORD
  5
32
100
AcDbSymbolTableRecord
100
AcDbBlockTableRecord
  2
_EX_WCIR
  0
BLOCK_RECORD
  5
33
100
AcDbSymbolTableRecord
100
AcDbBlockTableRecord
  2
_EX_WCIR2
  0
BLOCK_RECORD
  5
34
100
AcDbSymbolTableRecord
100
AcDbBlockTableRecord
  2
_EX_WNORM
  0
BLOCK_RECORD
  5
35
100
AcDbSymbolTableRecord
100
AcDbBlockTableRecord
  2
_EX_NNORM
  0
BLOCK_RECORD
  5
36
100
AcDbSymbolTableRecord
100
AcDbBlockTableRecord
  2
_EX_BBOX
  0
BLOCK_RECORD
  5
37
100
AcDbSymbolTableRecord
100
AcDbBlockTableRecord
  2
_EX_WBOX
  0
BLOCK_RECORD
  5
38
100
AcDbSymbolTableRecord
100
AcDbBlockTableRecord
  2
_EX_INTEGRAL
  0
BLOCK_RECORD
  5
1F5
100
AcDbSymbolTableRecord
100
AcDbBlockTableRecord
  2
*D14
  0
BLOCK_RECORD
  5
20B
100
AcDbSymbolTableRecord
100
AcDbBlockTableRecord
  2
*D15
  0
BLOCK_RECORD
  5
215
100
AcDbSymbolTableRecord
100
AcDbBlockTableRecord
  2
*D16
  0
BLOCK_RECORD
  5
21F
100
AcDbSymbolTableRecord
100
AcDbBlockTableRecord
  2
*D17
  0
BLOCK_RECORD
  5
22A
100
AcDbSymbolTableRecord
100
AcDbBlockTableRecord
  2
*D18
  0
BLOCK_RECORD
  5
233
100
AcDbSymbolTableRecord
100
AcDbBlockTableRecord
  2
*D19
  0
BLOCK_RECORD
  5
23F
100
AcDbSymbolTableRecord
100
AcDbBlockTableRecord
  2
*D20
  0
BLOCK_RECORD
  5
24B
100
AcDbSymbolTableRecord
100
AcDbBlockTableRecord
  2
*D21
  0
BLOCK_RECORD
  5
257
100
AcDbSymbolTableRecord
100
AcDbBlockTableRecord
  2
*D22
  0
ENDTAB
  0
ENDSEC
  0
SECTION
  2
BLOCKS
  0
BLOCK
  5
D
100
AcDbEntity
  8
0
100
AcDbBlockBegin
  2
*MODEL_SPACE
 70
     0
 10
0.0
 20
0.0
 30
0.0
  3
*MODEL_SPACE
  1

  0
ENDBLK
  5
E
100
AcDbEntity
  8
0
100
AcDbBlockEnd
  0
BLOCK
  5
F
100
AcDbEntity
 67
     1
  8
0
100
AcDbBlockBegin
  2
*PAPER_SPACE
 70
     0
 10
0.0
 20
0.0
 30
0.0
  3
*PAPER_SPACE
  1

  0
ENDBLK
  5
10
100
AcDbEntity
 67
     1
  8
0
100
AcDbBlockEnd
  0
BLOCK
  5
39
100
AcDbEntity
  8
0
100
AcDbBlockBegin
  2
_EX_NORM
 70
     0
 10
0.0
 20
0.0
 30
0.0
  3
_EX_NORM
  1

  0
LINE
  5
3A
100
AcDbEntity
  8
0
  6
CONTINUOUS
 62
     0
100
AcDbLine
 10
0.0
 20
0.0
 30
0.0
 11
-1.0
 21
0.0
 31
0.0
  0
LINE
  5
3B
100
AcDbEntity
  8
0
  6
CONTINUOUS
 62
     0
100
AcDbLine
 10
0.0
 20
0.0
 30
0.0
 11
-1.0
 21
0.166667
 31
0.0
  0
LINE
  5
3C
100
AcDbEntity
  8
0
  6
CONTINUOUS
 62
     0
100
AcDbLine
 10
0.0
 20
0.0
 30
0.0
 11
-1.0
 21
-0.166667
 31
0.0
  0
ENDBLK
  5
3D
100
AcDbEntity
  8
0
100
AcDbBlockEnd
  0
BLOCK
  5
3E
100
AcDbEntity
  8
0
100
AcDbBlockBegin
  2
_EX_BNORM
 70
     0
 10
0.0
 20
0.0
 30
0.0
  3
_EX_BNORM
  1

  0
LINE
  5
3F
100
AcDbEntity
  8
0
  6
CONTINUOUS
 62
     0
100
AcDbLine
 10
0.0
 20
0.0
 30
0.0
 11
-1.0
 21
0.0
 31
0.0
  0
LINE
  5
40
100
AcDbEntity
  8
0
  6
CONTINUOUS
 62
     0
100
AcDbLine
 10
0.0
 20
0.0
 30
0.0
 11
-1.0
 21
0.166667
 31
0.0
  0
LINE
  5
41
100
AcDbEntity
  8
0
  6
CONTINUOUS
 62
     0
100
AcDbLine
 10
0.0
 20
0.0
 30
0.0
 11
-1.0
 21
-0.166667
 31
0.0
  0
LINE
  5
42
100
AcDbEntity
  8
0
  6
CONTINUOUS
 62
     0
100
AcDbLine
 10
0.0
 20
0.0
 30
0.0
 11
-1.0
 21
0.083333
 31
0.0
  0
LINE
  5
43
100
AcDbEntity
  8
0
  6
CONTINUOUS
 62
     0
100
AcDbLine
 10
0.0
 20
0.0
 30
0.0
 11
-1.0
 21
-0.083333
 31
0.0
  0
LINE
  5
44
100
AcDbEntity
  8
0
  6
CONTINUOUS
 62
     0
100
AcDbLine
 10
-1.0
 20
0.166667
 30
0.0
 11
-1.0
 21
-0.166667
 31
0.0
  0
ENDBLK
  5
45
100
AcDbEntity
  8
0
100
AcDbBlockEnd
  0
BLOCK
  5
46
100
AcDbEntity
  8
0
100
AcDbBlockBegin
  2
_EX_BCIR
 70
     0
 10
0.0
 20
0.0
 30
0.0
  3
_EX_BCIR
  1

  0
LINE
  5
47
100
AcDbEntity
  8
0
  6
CONTINUOUS
 62
     0
100
AcDbLine
 10
0.0
 20
0.0
 30
0.0
 11
-1.0
 21
0.0
 31
0.0
  0
CIRCLE
  5
48
100
AcDbEntity
  8
0
  6
CONTINUOUS
 62
     0
100
AcDbCircle
 10
0.0
 20
0.0
 30
0.0
 40
0.5
  0
CIRCLE
  5
49
100
AcDbEntity
  8
0
  6
CONTINUOUS
 62
     0
100
AcDbCircle
 10
0.0
 20
0.0
 30
0.0
 40
0.25
  0
ENDBLK
  5
4A
100
AcDbEntity
  8
0
100
AcDbBlockEnd
  0
BLOCK
  5
4B
100
AcDbEntity
  8
0
100
AcDbBlockBegin
  2
_EX_RCIVIL
 70
     0
 10
0.0
 20
0.0
 30
0.0
  3
_EX_RCIVIL
  1

  0
LINE
  5
4C
100
AcDbEntity
  8
0
  6
CONTINUOUS
 62
     0
100
AcDbLine
 10
0.0
 20
0.0
 30
0.0
 11
-1.0
 21
0.0
 31
0.0
  0
LINE
  5
4D
100
AcDbEntity
  8
0
  6
CONTINUOUS
 62
     0
100
AcDbLine
 10
-1.0
 20
-0.25
 30
0.0
 11
0.0
 21
-0.25
 31
0.0
  0
LINE
  5
4E
100
AcDbEntity
  8
0
  6
CONTINUOUS
 62
     0
100
AcDbLine
 10
-1.0
 20
-0.125
 30
0.0
 11
0.0
 21
-0.125
 31
0.0
  0
ENDBLK
  5
4F
100
AcDbEntity
  8
0
100
AcDbBlockEnd
  0
BLOCK
  5
50
100
AcDbEntity
  8
0
100
AcDbBlockBegin
  2
_EX_SLANT
 70
     0
 10
0.0
 20
0.0
 30
0.0
  3
_EX_SLANT
  1

  0
LINE
  5
51
100
AcDbEntity
  8
0
  6
CONTINUOUS
 62
     0
100
AcDbLine
 10
0.0
 20
0.0
 30
0.0
 11
-1.0
 21
0.0
 31
0.0
  0
LINE
  5
52
100
AcDbEntity
  8
0
  6
CONTINUOUS
 62
     0
100
AcDbLine
 10
0.707107
 20
0.707107
 30
0.0
 11
-0.707107
 21
-0.707107
 31
0.0
  0
ENDBLK
  5
53
100
AcDbEntity
  8
0
100
AcDbBlockEnd
  0
BLOCK
  5
54
100
AcDbEntity
  8
0
100
AcDbBlockBegin
  2
_EX_NONE
 70
     0
 10
0.0
 20
0.0
 30
0.0
  3
_EX_NONE
  1

  0
LINE
  5
55
100
AcDbEntity
  8
0
  6
CONTINUOUS
 62
     0
100
AcDbLine
 10
0.0
 20
0.0
 30
0.0
 11
-1.0
 21
0.0
 31
0.0
  0
ENDBLK
  5
56
100
AcDbEntity
  8
0
100
AcDbBlockEnd
  0
BLOCK
  5
57
100
AcDbEntity
  8
0
100
AcDbBlockBegin
  2
_EX_CIVIL
 70
     0
 10
0.0
 20
0.0
 30
0.0
  3
_EX_CIVIL
  1

  0
LINE
  5
58
100
AcDbEntity
  8
0
  6
CONTINUOUS
 62
     0
100
AcDbLine
 10
0.0
 20
0.0
 30
0.0
 11
-1.0
 21
0.0
 31
0.0
  0
LINE
  5
59
100
AcDbEntity
  8
0
  6
CONTINUOUS
 62
     0
100
AcDbLine
 10
-1.0
 20
0.25
 30
0.0
 11
0.0
 21
0.25
 31
0.0
  0
LINE
  5
5A
100
AcDbEntity
  8
0
  6
CONTINUOUS
 62
     0
100
AcDbLine
 10
-1.0
 20
0.125
 30
0.0
 11
0.0
 21
0.125
 31
0.0
  0
ENDBLK
  5
5B
100
AcDbEntity
  8
0
100
AcDbBlockEnd
  0
BLOCK
  5
5C
100
AcDbEntity
  8
0
100
AcDbBlockBegin
  2
_EX_WCIR
 70
     0
 10
0.0
 20
0.0
 30
0.0
  3
_EX_WCIR
  1

  0
LINE
  5
5D
100
AcDbEntity
  8
0
  6
CONTINUOUS
 62
     0
100
AcDbLine
 10
0.0
 20
0.0
 30
0.0
 11
-1.0
 21
0.0
 31
0.0
  0
CIRCLE
  5
5E
100
AcDbEntity
  8
0
  6
CONTINUOUS
 62
     0
100
AcDbCircle
 10
0.0
 20
0.0
 30
0.0
 40
0.5
  0
ENDBLK
  5
5F
100
AcDbEntity
  8
0
100
AcDbBlockEnd
  0
BLOCK
  5
60
100
AcDbEntity
  8
0
100
AcDbBlockBegin
  2
_EX_WCIR2
 70
     0
 10
0.0
 20
0.0
 30
0.0
  3
_EX_WCIR2
  1

  0
LINE
  5
61
100
AcDbEntity
  8
0
  6
CONTINUOUS
 62
     0
100
AcDbLine
 10
-0.5
 20
0.0
 30
0.0
 11
-1.0
 21
0.0
 31
0.0
  0
CIRCLE
  5
62
100
AcDbEntity
  8
0
  6
CONTINUOUS
 62
     0
100
AcDbCircle
 10
0.0
 20
0.0
 30
0.0
 40
0.5
  0
ENDBLK
  5
63
100
AcDbEntity
  8
0
100
AcDbBlockEnd
  0
BLOCK
  5
64
100
AcDbEntity
  8
0
100
AcDbBlockBegin
  2
_EX_WNORM
 70
     0
 10
0.0
 20
0.0
 30
0.0
  3
_EX_WNORM
  1

  0
LINE
  5
65
100
AcDbEntity
  8
0
  6
CONTINUOUS
 62
     0
100
AcDbLine
 10
-1.0
 20
0.0
 30
0.0
 11
-1.0
 21
0.0
 31
0.0
  0
LINE
  5
66
100
AcDbEntity
  8
0
  6
CONTINUOUS
 62
     0
100
AcDbLine
 10
0.0
 20
0.0
 30
0.0
 11
-1.0
 21
0.166667
 31
0.0
  0
LINE
  5
67
100
AcDbEntity
  8
0
  6
CONTINUOUS
 62
     0
100
AcDbLine
 10
0.0
 20
0.0
 30
0.0
 11
-1.0
 21
-0.166667
 31
0.0
  0
LINE
  5
68
100
AcDbEntity
  8
0
  6
CONTINUOUS
 62
     0
100
AcDbLine
 10
-1.0
 20
0.166667
 30
0.0
 11
-1.0
 21
-0.166667
 31
0.0
  0
ENDBLK
  5
69
100
AcDbEntity
  8
0
100
AcDbBlockEnd
  0
BLOCK
  5
6A
100
AcDbEntity
  8
0
100
AcDbBlockBegin
  2
_EX_NNORM
 70
     0
 10
0.0
 20
0.0
 30
0.0
  3
_EX_NNORM
  1

  0
LINE
  5
6B
100
AcDbEntity
  8
0
  6
CONTINUOUS
 62
     0
100
AcDbLine
 10
0.0
 20
0.0
 30
0.0
 11
-1.0
 21
0.0
 31
0.0
  0
LINE
  5
6C
100
AcDbEntity
  8
0
  6
CONTINUOUS
 62
     0
100
AcDbLine
 10
0.0
 20
0.0
 30
0.0
 11
-1.0
 21
0.166667
 31
0.0
  0
LINE
  5
6D
100
AcDbEntity
  8
0
  6
CONTINUOUS
 62
     0
100
AcDbLine
 10
0.0
 20
0.0
 30
0.0
 11
-1.0
 21
-0.166667
 31
0.0
  0
LINE
  5
6E
100
AcDbEntity
  8
0
  6
CONTINUOUS
 62
     0
100
AcDbLine
 10
-1.0
 20
0.166667
 30
0.0
 11
-1.0
 21
-0.166667
 31
0.0
  0
ENDBLK
  5
6F
100
AcDbEntity
  8
0
100
AcDbBlockEnd
  0
BLOCK
  5
70
100
AcDbEntity
  8
0
100
AcDbBlockBegin
  2
_EX_BBOX
 70
     0
 10
0.0
 20
0.0
 30
0.0
  3
_EX_BBOX
  1

  0
LINE
  5
71
100
AcDbEntity
  8
0
  6
CONTINUOUS
 62
     0
100
AcDbLine
 10
0.0
 20
0.0
 30
0.0
 11
-1.0
 21
0.0
 31
0.0
  0
LINE
  5
72
100
AcDbEntity
  8
0
  6
CONTINUOUS
 62
     0
100
AcDbLine
 10
-0.5
 20
0.5
 30
0.0
 11
0.5
 21
0.5
 31
0.0
  0
LINE
  5
73
100
AcDbEntity
  8
0
  6
CONTINUOUS
 62
     0
100
AcDbLine
 10
0.5
 20
0.5
 30
0.0
 11
0.5
 21
-0.5
 31
0.0
  0
LINE
  5
74
100
AcDbEntity
  8
0
  6
CONTINUOUS
 62
     0
100
AcDbLine
 10
0.5
 20
-0.5
 30
0.0
 11
-0.5
 21
-0.5
 31
0.0
  0
LINE
  5
75
100
AcDbEntity
  8
0
  6
CONTINUOUS
 62
     0
100
AcDbLine
 10
-0.5
 20
-0.5
 30
0.0
 11
-0.5
 21
0.5
 31
0.0
  0
LINE
  5
76
100
AcDbEntity
  8
0
  6
CONTINUOUS
 62
     0
100
AcDbLine
 10
-0.25
 20
0.25
 30
0.0
 11
0.25
 21
0.25
 31
0.0
  0
LINE
  5
77
100
AcDbEntity
  8
0
  6
CONTINUOUS
 62
     0
100
AcDbLine
 10
0.25
 20
0.25
 30
0.0
 11
0.25
 21
-0.25
 31
0.0
  0
LINE
  5
78
100
AcDbEntity
  8
0
  6
CONTINUOUS
 62
     0
100
AcDbLine
 10
0.25
 20
-0.25
 30
0.0
 11
-0.25
 21
-0.25
 31
0.0
  0
LINE
  5
79
100
AcDbEntity
  8
0
  6
CONTINUOUS
 62
     0
100
AcDbLine
 10
-0.25
 20
-0.25
 30
0.0
 11
-0.25
 21
0.25
 31
0.0
  0
ENDBLK
  5
7A
100
AcDbEntity
  8
0
100
AcDbBlockEnd
  0
BLOCK
  5
7B
100
AcDbEntity
  8
0
100
AcDbBlockBegin
  2
_EX_WBOX
 70
     0
 10
0.0
 20
0.0
 30
0.0
  3
_EX_WBOX
  1

  0
LINE
  5
7C
100
AcDbEntity
  8
0
  6
CONTINUOUS
 62
     0
100
AcDbLine
 10
-0.5
 20
0.0
 30
0.0
 11
-1.0
 21
0.0
 31
0.0
  0
LINE
  5
7D
100
AcDbEntity
  8
0
  6
CONTINUOUS
 62
     0
100
AcDbLine
 10
-0.5
 20
0.5
 30
0.0
 11
0.5
 21
0.5
 31
0.0
  0
LINE
  5
7E
100
AcDbEntity
  8
0
  6
CONTINUOUS
 62
     0
100
AcDbLine
 10
0.5
 20
0.5
 30
0.0
 11
0.5
 21
-0.5
 31
0.0
  0
LINE
  5
7F
100
AcDbEntity
  8
0
  6
CONTINUOUS
 62
     0
100
AcDbLine
 10
0.5
 20
-0.5
 30
0.0
 11
-0.5
 21
-0.5
 31
0.0
  0
LINE
  5
80
100
AcDbEntity
  8
0
  6
CONTINUOUS
 62
     0
100
AcDbLine
 10
-0.5
 20
-0.5
 30
0.0
 11
-0.5
 21
0.5
 31
0.0
  0
ENDBLK
  5
81
100
AcDbEntity
  8
0
100
AcDbBlockEnd
  0
BLOCK
  5
82
100
AcDbEntity
  8
0
100
AcDbBlockBegin
  2
_EX_INTEGRAL
 70
     0
 10
0.0
 20
0.0
 30
0.0
  3
_EX_INTEGRAL
  1

  0
LINE
  5
83
100
AcDbEntity
  8
0
  6
CONTINUOUS
 62
     0
100
AcDbLine
 10
0.0
 20
0.0
 30
0.0
 11
-1.0
 21
0.0
 31
0.0
  0
ARC
  5
84
100
AcDbEntity
  8
0
  6
CONTINUOUS
 62
     0
100
AcDbCircle
 10
0.542115
 20
0.164992
 30
0.0
 40
0.56667
100
AcDbArc
 50
73.07249
 51
196.927513
  0
ARC
  5
85
100
AcDbEntity
  8
0
  6
CONTINUOUS
 62
     0
100
AcDbCircle
 10
-0.542115
 20
-0.164992
 30
0.0
 40
0.56667
100
AcDbArc
 50
253.072487
 51
16.927513
  0
ENDBLK
  5
86
100
AcDbEntity
  8
0
100
AcDbBlockEnd
  0
BLOCK
  5
1F6
100
AcDbEntity
  8
0
100
AcDbBlockBegin
  2
*D14
 70
    65
 10
0.0
 20
0.0
 30
0.0
  3
*D14
  1

  0
LINE
  5
1F7
100
AcDbEntity
  8
LAY-2
  6
CONTINUOUS
 62
     3
100
AcDbLine
 10
1108.069852
 20
2084.085925
 30
0.0
 11
1108.069852
 21
2165.2
 31
0.0
  0
LINE
  5
1F8
100
AcDbEntity
  8
LAY-2
  6
CONTINUOUS
 62
     3
100
AcDbLine
 10
1171.449552
 20
2084.085925
 30
0.0
 11
1171.449552
 21
2165.2
 31
0.0
  0
LINE
  5
1F9
100
AcDbEntity
  8
LAY-2
  6
CONTINUOUS
 62
     3
100
AcDbLine
 10
1078.069852
 20
2155.2
 30
0.0
 11
1274.949556
 21
2155.2
 31
0.0
  0
LINE
  5
1FA
100
AcDbEntity
  8
LAY-2
  6
CONTINUOUS
 62
     3
100
AcDbLine
 10
1078.069852
 20
2150.2
 30
0.0
 11
1108.069852
 21
2155.2
 31
0.0
  0
LINE
  5
1FB
100
AcDbEntity
  8
LAY-2
  6
CONTINUOUS
 62
     3
100
AcDbLine
 10
1108.069852
 20
2155.2
 30
0.0
 11
1078.069852
 21
2160.2
 31
0.0
  0
LINE
  5
1FC
100
AcDbEntity
  8
LAY-2
  6
CONTINUOUS
 62
     3
100
AcDbLine
 10
1201.449552
 20
2160.2
 30
0.0
 11
1171.449552
 21
2155.2
 31
0.0
  0
LINE
  5
1FD
100
AcDbEntity
  8
LAY-2
  6
CONTINUOUS
 62
     3
100
AcDbLine
 10
1171.449552
 20
2155.2
 30
0.0
 11
1201.449552
 21
2150.2
 31
0.0
  0
TEXT
  5
1FE
100
AcDbEntity
  8
LAY-2
  6
CONTINUOUS
 62
     2
100
AcDbText
 10
1207.049552
 20
2158.7
 30
0.0
 40
40.0
  1
62
 41
0.84
  7
EXCADSTD
 72
     1
 11
1236.449552
 21
2158.7
 31
0.0
100
AcDbText
  0
ENDBLK
  5
1FF
100
AcDbEntity
  8
0
100
AcDbBlockEnd
  0
BLOCK
  5
20C
100
AcDbEntity
  8
0
100
AcDbBlockBegin
  2
*D15
 70
    65
 10
0.0
 20
0.0
 30
0.0
  3
*D15
  1

  0
TEXT
  5
20D
100
AcDbEntity
  8
LAY-3
  6
CONTINUOUS
 62
     2
100
AcDbText
 10
1031.5
 20
1264.585724
 30
0.0
 40
40.0
  1
%%c34
 50
90.0
 41
0.84
  7
EXCADSTD
 72
     1
 11
1031.5
 21
1306.585724
 31
0.0
100
AcDbText
  0
LINE
  5
20E
100
AcDbEntity
  8
LAY-3
  6
CONTINUOUS
 62
     3
100
AcDbLine
 10
1035.0
 20
1253.08572
 30
0.0
 11
1035.0
 21
1450.585925
 31
0.0
  0
LINE
  5
20F
100
AcDbEntity
  8
LAY-3
  6
CONTINUOUS
 62
     3
100
AcDbLine
 10
1040.0
 20
1356.585724
 30
0.0
 11
1035.0
 21
1386.585724
 31
0.0
  0
LINE
  5
210
100
AcDbEntity
  8
LAY-3
  6
CONTINUOUS
 62
     3
100
AcDbLine
 10
1035.0
 20
1386.585724
 30
0.0
 11
1030.0
 21
1356.585724
 31
0.0
  0
LINE
  5
211
100
AcDbEntity
  8
LAY-3
  6
CONTINUOUS
 62
     3
100
AcDbLine
 10
1030.0
 20
1450.585925
 30
0.0
 11
1035.0
 21
1420.585925
 31
0.0
  0
LINE
  5
212
100
AcDbEntity
  8
LAY-3
  6
CONTINUOUS
 62
     3
100
AcDbLine
 10
1035.0
 20
1420.585925
 30
0.0
 11
1040.0
 21
1450.585925
 31
0.0
  0
ENDBLK
  5
213
100
AcDbEntity
  8
0
100
AcDbBlockEnd
  0
BLOCK
  5
216
100
AcDbEntity
  8
0
100
AcDbBlockBegin
  2
*D16
 70
    65
 10
0.0
 20
0.0
 30
0.0
  3
*D16
  1

  0
LINE
  5
217
100
AcDbEntity
  8
LAY-3
  6
CONTINUOUS
 62
     3
100
AcDbLine
 10
522.249766
 20
2118.585625
 30
0.0
 11
522.249766
 21
2231.0
 31
0.0
  0
LINE
  5
218
100
AcDbEntity
  8
LAY-3
  6
CONTINUOUS
 62
     3
100
AcDbLine
 10
539.249667
 20
2118.585625
 30
0.0
 11
539.249667
 21
2231.0
 31
0.0
  0
TEXT
  5
219
100
AcDbEntity
  8
LAY-3
  6
CONTINUOUS
 62
     2
100
AcDbText
 10
501.349717
 20
2224.5
 30
0.0
 40
40.0
  1
17
 41
0.84
  7
EXCADSTD
 72
     1
 11
530.749717
 21
2224.5
 31
0.0
100
AcDbText
  0
LINE
  5
21A
100
AcDbEntity
  8
LAY-3
  6
CONTINUOUS
 62
     3
100
AcDbLine
 10
492.249766
 20
2221.0
 30
0.0
 11
539.249667
 21
2221.0
 31
0.0
  0
LINE
  5
21B
100
AcDbEntity
  8
LAY-3
  6
CONTINUOUS
 62
     3
100
AcDbLine
 10
492.249766
 20
2216.0
 30
0.0
 11
522.249766
 21
2221.0
 31
0.0
  0
LINE
  5
21C
100
AcDbEntity
  8
LAY-3
  6
CONTINUOUS
 62
     3
100
AcDbLine
 10
522.249766
 20
2221.0
 30
0.0
 11
492.249766
 21
2226.0
 31
0.0
  0
ENDBLK
  5
21D
100
AcDbEntity
  8
0
100
AcDbBlockEnd
  0
BLOCK
  5
220
100
AcDbEntity
  8
0
100
AcDbBlockBegin
  2
*D17
 70
    65
 10
0.0
 20
0.0
 30
0.0
  3
*D17
  1

  0
LINE
  5
221
100
AcDbEntity
  8
LAY-3
  6
CONTINUOUS
 62
     3
100
AcDbLine
 10
1139.249667
 20
2118.585625
 30
0.0
 11
1139.249667
 21
2231.0
 31
0.0
  0
TEXT
  5
222
100
AcDbEntity
  8
LAY-3
  6
CONTINUOUS
 62
     2
100
AcDbText
 10
797.249667
 20
2224.5
 30
0.0
 40
40.0
  1
600
 41
0.84
  7
EXCADSTD
 72
     1
 11
839.249667
 21
2224.5
 31
0.0
100
AcDbText
  0
LINE
  5
223
100
AcDbEntity
  8
LAY-3
  6
CONTINUOUS
 62
     3
100
AcDbLine
 10
539.249667
 20
2221.0
 30
0.0
 11
1139.249667
 21
2221.0
 31
0.0
  0
LINE
  5
224
100
AcDbEntity
  8
LAY-3
  6
CONTINUOUS
 62
     3
100
AcDbLine
 10
569.249667
 20
2226.0
 30
0.0
 11
539.249667
 21
2221.0
 31
0.0
  0
LINE
  5
225
100
AcDbEntity
  8
LAY-3
  6
CONTINUOUS
 62
     3
100
AcDbLine
 10
539.249667
 20
2221.0
 30
0.0
 11
569.249667
 21
2216.0
 31
0.0
  0
LINE
  5
226
100
AcDbEntity
  8
LAY-3
  6
CONTINUOUS
 62
     3
100
AcDbLine
 10
1109.249667
 20
2216.0
 30
0.0
 11
1139.249667
 21
2221.0
 31
0.0
  0
LINE
  5
227
100
AcDbEntity
  8
LAY-3
  6
CONTINUOUS
 62
     3
100
AcDbLine
 10
1139.249667
 20
2221.0
 30
0.0
 11
1109.249667
 21
2226.0
 31
0.0
  0
ENDBLK
  5
228
100
AcDbEntity
  8
0
100
AcDbBlockEnd
  0
BLOCK
  5
22B
100
AcDbEntity
  8
0
100
AcDbBlockBegin
  2
*D18
 70
    65
 10
0.0
 20
0.0
 30
0.0
  3
*D18
  1

  0
LINE
  5
22C
100
AcDbEntity
  8
LAY-3
  6
CONTINUOUS
 62
     3
100
AcDbLine
 10
1156.249569
 20
2118.585625
 30
0.0
 11
1156.249569
 21
2231.0
 31
0.0
  0
TEXT
  5
22D
100
AcDbEntity
  8
LAY-3
  6
CONTINUOUS
 62
     2
100
AcDbText
 10
1118.349618
 20
2224.5
 30
0.0
 40
40.0
  1
17
 41
0.84
  7
EXCADSTD
 72
     1
 11
1147.749618
 21
2224.5
 31
0.0
100
AcDbText
  0
LINE
  5
22E
100
AcDbEntity
  8
LAY-3
  6
CONTINUOUS
 62
     3
100
AcDbLine
 10
1139.249667
 20
2221.0
 30
0.0
 11
1186.249569
 21
2221.0
 31
0.0
  0
LINE
  5
22F
100
AcDbEntity
  8
LAY-3
  6
CONTINUOUS
 62
     3
100
AcDbLine
 10
1186.249569
 20
2226.0
 30
0.0
 11
1156.249569
 21
2221.0
 31
0.0
  0
LINE
  5
230
100
AcDbEntity
  8
LAY-3
  6
CONTINUOUS
 62
     3
100
AcDbLine
 10
1156.249569
 20
2221.0
 30
0.0
 11
1186.249569
 21
2216.0
 31
0.0
  0
ENDBLK
  5
231
100
AcDbEntity
  8
0
100
AcDbBlockEnd
  0
BLOCK
  5
234
100
AcDbEntity
  8
0
100
AcDbBlockBegin
  2
*D19
 70
    65
 10
0.0
 20
0.0
 30
0.0
  3
*D19
  1

  0
TEXT
  5
235
100
AcDbEntity
  8
LAY-3
  6
CONTINUOUS
 62
     2
100
AcDbText
 10
797.249667
 20
1913.5
 30
0.0
 40
40.0
  1
665
 41
0.84
  7
EXCADSTD
 72
     1
 11
839.249667
 21
1913.5
 31
0.0
100
AcDbText
  0
LINE
  5
236
100
AcDbEntity
  8
LAY-3
  6
CONTINUOUS
 62
     3
100
AcDbLine
 10
506.749733
 20
1910.0
 30
0.0
 11
1171.749602
 21
1910.0
 31
0.0
  0
LINE
  5
237
100
AcDbEntity
  8
LAY-3
  6
CONTINUOUS
 62
     3
100
AcDbLine
 10
536.749733
 20
1915.0
 30
0.0
 11
506.749733
 21
1910.0
 31
0.0
  0
LINE
  5
238
100
AcDbEntity
  8
LAY-3
  6
CONTINUOUS
 62
     3
100
AcDbLine
 10
506.749733
 20
1910.0
 30
0.0
 11
536.749733
 21
1905.0
 31
0.0
  0
LINE
  5
239
100
AcDbEntity
  8
LAY-3
  6
CONTINUOUS
 62
     3
100
AcDbLine
 10
1141.749602
 20
1905.0
 30
0.0
 11
1171.749602
 21
1910.0
 31
0.0
  0
LINE
  5
23A
100
AcDbEntity
  8
LAY-3
  6
CONTINUOUS
 62
     3
100
AcDbLine
 10
1171.749602
 20
1910.0
 30
0.0
 11
1141.749602
 21
1915.0
 31
0.0
  0
LINE
  5
23B
100
AcDbEntity
  8
LAY-3
  6
CONTINUOUS
 62
     3
100
AcDbLine
 10
506.749733
 20
2071.0
 30
0.0
 11
506.749733
 21
1900.0
 31
0.0
  0
LINE
  5
23C
100
AcDbEntity
  8
LAY-3
  6
CONTINUOUS
 62
     3
100
AcDbLine
 10
1171.749602
 20
2071.0
 30
0.0
 11
1171.749602
 21
1900.0
 31
0.0
  0
ENDBLK
  5
23D
100
AcDbEntity
  8
0
100
AcDbBlockEnd
  0
BLOCK
  5
240
100
AcDbEntity
  8
0
100
AcDbBlockBegin
  2
*D20
 70
    65
 10
0.0
 20
0.0
 30
0.0
  3
*D20
  1

  0
LINE
  5
241
100
AcDbEntity
  8
LAY-3
  6
CONTINUOUS
 62
     3
100
AcDbLine
 10
1133.449151
 20
2003.585825
 30
0.0
 11
1319.0
 21
2003.585825
 31
0.0
  0
LINE
  5
242
100
AcDbEntity
  8
LAY-3
  6
CONTINUOUS
 62
     3
100
AcDbLine
 10
1175.2
 20
2079.085925
 30
0.0
 11
1319.0
 21
2079.085925
 31
0.0
  0
TEXT
  5
243
100
AcDbEntity
  8
LAY-3
  6
CONTINUOUS
 62
     2
100
AcDbText
 10
1305.5
 20
1872.385825
 30
0.0
 40
40.0
  1
75.5
 50
90.0
 41
0.84
  7
EXCADSTD
 72
     1
 11
1305.5
 21
1918.585825
 31
0.0
100
AcDbText
  0
LINE
  5
244
100
AcDbEntity
  8
LAY-3
  6
CONTINUOUS
 62
     3
100
AcDbLine
 10
1309.0
 20
1860.085821
 30
0.0
 11
1309.0
 21
2109.085925
 31
0.0
  0
LINE
  5
245
100
AcDbEntity
  8
LAY-3
  6
CONTINUOUS
 62
     3
100
AcDbLine
 10
1314.0
 20
1973.585825
 30
0.0
 11
1309.0
 21
2003.585825
 31
0.0
  0
LINE
  5
246
100
AcDbEntity
  8
LAY-3
  6
CONTINUOUS
 62
     3
100
AcDbLine
 10
1309.0
 20
2003.585825
 30
0.0
 11
1304.0
 21
1973.585825
 31
0.0
  0
LINE
  5
247
100
AcDbEntity
  8
LAY-3
  6
CONTINUOUS
 62
     3
100
AcDbLine
 10
1304.0
 20
2109.085925
 30
0.0
 11
1309.0
 21
2079.085925
 31
0.0
  0
LINE
  5
248
100
AcDbEntity
  8
LAY-3
  6
CONTINUOUS
 62
     3
100
AcDbLine
 10
1309.0
 20
2079.085925
 30
0.0
 11
1314.0
 21
2109.085925
 31
0.0
  0
ENDBLK
  5
249
100
AcDbEntity
  8
0
100
AcDbBlockEnd
  0
BLOCK
  5
24C
100
AcDbEntity
  8
0
100
AcDbBlockBegin
  2
*D21
 70
    65
 10
0.0
 20
0.0
 30
0.0
  3
*D21
  1

  0
LINE
  5
24D
100
AcDbEntity
  8
LAY-3
  6
CONTINUOUS
 62
     3
100
AcDbLine
 10
1164.031953
 20
2021.586024
 30
0.0
 11
1262.0
 21
2021.586024
 31
0.0
  0
LINE
  5
24E
100
AcDbEntity
  8
LAY-3
  6
CONTINUOUS
 62
     3
100
AcDbLine
 10
1215.0
 20
2079.085925
 30
0.0
 11
1262.0
 21
2079.085925
 31
0.0
  0
TEXT
  5
24F
100
AcDbEntity
  8
LAY-3
  6
CONTINUOUS
 62
     2
100
AcDbText
 10
1248.5
 20
1890.386024
 30
0.0
 40
40.0
  1
57.5
 50
90.0
 41
0.84
  7
EXCADSTD
 72
     1
 11
1248.5
 21
1936.586024
 31
0.0
100
AcDbText
  0
LINE
  5
250
100
AcDbEntity
  8
LAY-3
  6
CONTINUOUS
 62
     3
100
AcDbLine
 10
1252.0
 20
1878.086021
 30
0.0
 11
1252.0
 21
2109.085925
 31
0.0
  0
LINE
  5
251
100
AcDbEntity
  8
LAY-3
  6
CONTINUOUS
 62
     3
100
AcDbLine
 10
1257.0
 20
1991.586024
 30
0.0
 11
1252.0
 21
2021.586024
 31
0.0
  0
LINE
  5
252
100
AcDbEntity
  8
LAY-3
  6
CONTINUOUS
 62
     3
100
AcDbLine
 10
1252.0
 20
2021.586024
 30
0.0
 11
1247.0
 21
1991.586024
 31
0.0
  0
LINE
  5
253
100
AcDbEntity
  8
LAY-3
  6
CONTINUOUS
 62
     3
100
AcDbLine
 10
1247.0
 20
2109.085925
 30
0.0
 11
1252.0
 21
2079.085925
 31
0.0
  0
LINE
  5
254
100
AcDbEntity
  8
LAY-3
  6
CONTINUOUS
 62
     3
100
AcDbLine
 10
1252.0
 20
2079.085925
 30
0.0
 11
1257.0
 21
2109.085925
 31
0.0
  0
ENDBLK
  5
255
100
AcDbEntity
  8
0
100
AcDbBlockEnd
  0
BLOCK
  5
258
100
AcDbEntity
  8
0
100
AcDbBlockBegin
  2
*D22
 70
    65
 10
0.0
 20
0.0
 30
0.0
  3
*D22
  1

  0
LINE
  5
259
100
AcDbEntity
  8
LAY-3
  6
CONTINUOUS
 62
     3
100
AcDbLine
 10
1156.249753
 20
1383.085826
 30
0.0
 11
1230.2
 21
1383.085826
 31
0.0
  0
LINE
  5
25A
100
AcDbEntity
  8
LAY-3
  6
CONTINUOUS
 62
     3
100
AcDbLine
 10
1156.249753
 20
1424.085825
 30
0.0
 11
1230.2
 21
1424.085825
 31
0.0
  0
TEXT
  5
25B
100
AcDbEntity
  8
LAY-3
  6
CONTINUOUS
 62
     2
100
AcDbText
 10
1216.7
 20
1288.685826
 30
0.0
 40
40.0
  1
41
 50
90.0
 41
0.84
  7
EXCADSTD
 72
     1
 11
1216.7
 21
1318.085826
 31
0.0
100
AcDbText
  0
LINE
  5
25C
100
AcDbEntity
  8
LAY-3
  6
CONTINUOUS
 62
     3
100
AcDbLine
 10
1220.2
 20
1279.585823
 30
0.0
 11
1220.2
 21
1454.085825
 31
0.0
  0
LINE
  5
25D
100
AcDbEntity
  8
LAY-3
  6
CONTINUOUS
 62
     3
100
AcDbLine
 10
1225.2
 20
1353.085826
 30
0.0
 11
1220.2
 21
1383.085826
 31
0.0
  0
LINE
  5
25E
100
AcDbEntity
  8
LAY-3
  6
CONTINUOUS
 62
     3
100
AcDbLine
 10
1220.2
 20
1383.085826
 30
0.0
 11
1215.2
 21
1353.085826
 31
0.0
  0
LINE
  5
25F
100
AcDbEntity
  8
LAY-3
  6
CONTINUOUS
 62
     3
100
AcDbLine
 10
1215.2
 20
1454.085825
 30
0.0
 11
1220.2
 21
1424.085825
 31
0.0
  0
LINE
  5
260
100
AcDbEntity
  8
LAY-3
  6
CONTINUOUS
 62
     3
100
AcDbLine
 10
1220.2
 20
1424.085825
 30
0.0
 11
1225.2
 21
1454.085825
 31
0.0
  0
ENDBLK
  5
261
100
AcDbEntity
  8
0
100
AcDbBlockEnd
  0
ENDSEC
  0
SECTION
  2
ENTITIES
  0
LINE
  5
87
100
AcDbEntity
  8
LAY-1
  6
CONTINUOUS
 62
     7
100
AcDbLine
 10
179.0
 20
115.0
 30
0.0
 11
1999.0
 21
115.0
 31
0.0
  0
LINE
  5
88
100
AcDbEntity
  8
LAY-1
  6
CONTINUOUS
 62
     7
100
AcDbLine
 10
1999.0
 20
115.0
 30
0.0
 11
1999.0
 21
2915.0
 31
0.0
  0
LINE
  5
89
100
AcDbEntity
  8
LAY-1
  6
CONTINUOUS
 62
     7
100
AcDbLine
 10
179.0
 20
115.0
 30
0.0
 11
179.0
 21
2915.0
 31
0.0
  0
LINE
  5
8A
100
AcDbEntity
  8
LAY-1
  6
CONTINUOUS
 62
     7
100
AcDbLine
 10
179.0
 20
2915.0
 30
0.0
 11
1999.0
 21
2915.0
 31
0.0
  0
LINE
  5
8B
100
AcDbEntity
  8
LAY-1
  6
CONTINUOUS
 62
     7
100
AcDbLine
 10
179.0
 20
335.0
 30
0.0
 11
1999.0
 21
335.0
 31
0.0
  0
LINE
  5
8C
100
AcDbEntity
  8
LAY-1
  6
CONTINUOUS
 62
     6
100
AcDbLine
 10
1999.0
 20
215.0
 30
0.0
 11
749.0
 21
215.0
 31
0.0
  0
LINE
  5
8D
100
AcDbEntity
  8
LAY-1
  6
CONTINUOUS
 62
     6
100
AcDbLine
 10
1859.0
 20
335.0
 30
0.0
 11
1859.0
 21
215.0
 31
0.0
  0
LINE
  5
8E
100
AcDbEntity
  8
LAY-1
  6
CONTINUOUS
 62
     6
100
AcDbLine
 10
1809.0
 20
335.0
 30
0.0
 11
1809.0
 21
215.0
 31
0.0
  0
LINE
  5
8F
100
AcDbEntity
  8
LAY-1
  6
CONTINUOUS
 62
     6
100
AcDbLine
 10
1439.0
 20
335.0
 30
0.0
 11
1439.0
 21
115.0
 31
0.0
  0
LINE
  5
90
100
AcDbEntity
  8
LAY-1
  6
CONTINUOUS
 62
     6
100
AcDbLine
 10
1389.0
 20
335.0
 30
0.0
 11
1389.0
 21
115.0
 31
0.0
  0
LINE
  5
91
100
AcDbEntity
  8
LAY-1
  6
CONTINUOUS
 62
     6
100
AcDbLine
 10
799.0
 20
335.0
 30
0.0
 11
799.0
 21
215.0
 31
0.0
  0
LINE
  5
92
100
AcDbEntity
  8
LAY-1
  6
CONTINUOUS
 62
     6
100
AcDbLine
 10
749.0
 20
335.0
 30
0.0
 11
749.0
 21
115.0
 31
0.0
  0
LINE
  5
93
100
AcDbEntity
  8
LAY-1
  6
CONTINUOUS
 62
     6
100
AcDbLine
 10
619.0
 20
335.0
 30
0.0
 11
619.0
 21
115.0
 31
0.0
  0
LINE
  5
94
100
AcDbEntity
  8
LAY-1
  6
CONTINUOUS
 62
     6
100
AcDbLine
 10
489.0
 20
335.0
 30
0.0
 11
489.0
 21
115.0
 31
0.0
  0
LINE
  5
95
100
AcDbEntity
  8
LAY-1
  6
CONTINUOUS
 62
     6
100
AcDbLine
 10
334.0
 20
335.0
 30
0.0
 11
334.0
 21
115.0
 31
0.0
  0
LINE
  5
96
100
AcDbEntity
  8
LAY-1
  6
CONTINUOUS
 62
     6
100
AcDbLine
 10
179.0
 20
285.0
 30
0.0
 11
749.0
 21
285.0
 31
0.0
  0
LINE
  5
97
100
AcDbEntity
  8
LAY-1
  6
EXLTYPE2
 62
     6
100
AcDbLine
 10
179.0
 20
165.0
 30
0.0
 11
489.0
 21
165.0
 31
0.0
  0
CIRCLE
  5
98
100
AcDbEntity
  8
LAY-1
  6
CONTINUOUS
 62
     6
100
AcDbCircle
 10
384.0
 20
140.0
 30
0.0
 40
1.0
  0
CIRCLE
  5
99
100
AcDbEntity
  8
LAY-1
  6
CONTINUOUS
 62
     6
100
AcDbCircle
 10
434.0
 20
140.0
 30
0.0
 40
1.0
  0
TEXT
  5
9A
100
AcDbEntity
  8
LAY-1
  6
CONTINUOUS
 62
     2
100
AcDbText
 10
201.5
 20
288.75
 30
0.0
 40
42.5
  1
製図
 41
1.087059
  7
EXCADSTD
 72
     5
 11
302.326
 21
288.75
 31
0.0
100
AcDbText
  0
TEXT
  5
9B
100
AcDbEntity
  8
LAY-1
  6
CONTINUOUS
 62
     2
100
AcDbText
 10
356.5
 20
288.75
 30
0.0
 40
42.5
  1
写図
 41
1.087059
  7
EXCADSTD
 72
     5
 11
457.326
 21
288.75
 31
0.0
100
AcDbText
  0
TEXT
  5
9C
100
AcDbEntity
  8
LAY-1
  6
CONTINUOUS
 62
     2
100
AcDbText
 10
506.5
 20
288.75
 30
0.0
 40
42.5
  1
検図
 41
0.938824
  7
EXCADSTD
 72
     5
 11
593.577
 21
288.75
 31
0.0
100
AcDbText
  0
TEXT
  5
9D
100
AcDbEntity
  8
LAY-1
  6
CONTINUOUS
 62
     2
100
AcDbText
 10
636.5
 20
288.75
 30
0.0
 40
42.5
  1
承認
 41
0.938824
  7
EXCADSTD
 72
     5
 11
723.577
 21
288.75
 31
0.0
100
AcDbText
  0
TEXT
  5
9E
100
AcDbEntity
  8
LAY-1
  6
CONTINUOUS
 62
     2
100
AcDbText
 10
754.75
 20
278.75
 30
0.0
 40
42.5
  1
品
 41
0.84
  7
EXCADSTD
 72
     5
 11
788.75
 21
278.75
 31
0.0
100
AcDbText
  0
TEXT
  5
9F
100
AcDbEntity
  8
LAY-1
  6
CONTINUOUS
 62
     2
100
AcDbText
 10
754.75
 20
228.75
 30
0.0
 40
42.5
  1
名
 41
0.84
  7
EXCADSTD
 72
     5
 11
788.75
 21
228.75
 31
0.0
100
AcDbText
  0
TEXT
  5
A0
100
AcDbEntity
  8
LAY-1
  6
CONTINUOUS
 62
     2
100
AcDbText
 10
1394.75
 20
278.75
 30
0.0
 40
42.5
  1
品
 41
0.84
  7
EXCADSTD
 72
     5
 11
1428.75
 21
278.75
 31
0.0
100
AcDbText
  0
TEXT
  5
A1
100
AcDbEntity
  8
LAY-1
  6
CONTINUOUS
 62
     2
100
AcDbText
 10
1394.75
 20
228.75
 30
0.0
 40
42.5
  1
番
 41
0.84
  7
EXCADSTD
 72
     5
 11
1428.75
 21
228.75
 31
0.0
100
AcDbText
  0
TEXT
  5
A2
100
AcDbEntity
  8
LAY-1
  6
CONTINUOUS
 62
     2
100
AcDbText
 10
1815.75
 20
278.75
 30
0.0
 40
42.5
  1
尺
 41
0.84
  7
EXCADSTD
 72
     5
 11
1849.75
 21
278.75
 31
0.0
100
AcDbText
  0
TEXT
  5
A3
100
AcDbEntity
  8
LAY-1
  6
CONTINUOUS
 62
     2
100
AcDbText
 10
1815.75
 20
228.75
 30
0.0
 40
42.5
  1
度
 41
0.84
  7
EXCADSTD
 72
     5
 11
1849.75
 21
228.75
 31
0.0
100
AcDbText
  0
TEXT
  5
A4
100
AcDbEntity
  8
LAY-1
  6
CONTINUOUS
 62
     2
100
AcDbText
 10
1394.75
 20
165.75
 30
0.0
 40
42.5
  1
図
 41
0.84
  7
EXCADSTD
 72
     5
 11
1428.75
 21
165.75
 31
0.0
100
AcDbText
  0
TEXT
  5
A5
100
AcDbEntity
  8
LAY-1
  6
CONTINUOUS
 62
     2
100
AcDbText
 10
1394.75
 20
122.75
 30
0.0
 40
42.5
  1
番
 41
0.84
  7
EXCADSTD
 72
     5
 11
1428.75
 21
122.75
 31
0.0
100
AcDbText
  0
CIRCLE
  5
A6
100
AcDbEntity
  8
LAY-1
  6
CONTINUOUS
 62
     6
100
AcDbCircle
 10
229.0
 20
140.0
 30
0.0
 40
1.0
  0
CIRCLE
  5
A7
100
AcDbEntity
  8
LAY-1
  6
CONTINUOUS
 62
     6
100
AcDbCircle
 10
279.0
 20
140.0
 30
0.0
 40
1.0
  0
TEXT
  5
A8
100
AcDbEntity
  8
LAY-1
  6
CONTINUOUS
 62
     2
100
AcDbText
 10
1891.692593
 20
284.9
 30
0.0
 40
40.0
  1
１
 41
1.05
  7
EXCADSTD
 72
     5
 11
1931.692593
 21
284.9
 31
0.0
100
AcDbText
  0
LINE
  5
A9
100
AcDbEntity
  8
LAY-1
  6
CONTINUOUS
 62
     6
100
AcDbLine
 10
1988.0
 20
313.125
 30
0.0
 11
1900.0
 21
238.875
 31
0.0
  0
LINE
  5
AA
100
AcDbEntity
  8
LAY-1
  6
EXLTYPE2
 62
     6
100
AcDbLine
 10
-1.0
 20
1515.0
 30
0.0
 11
179.0
 21
1515.0
 31
0.0
  0
TEXT
  5
AB
100
AcDbEntity
  8
LAY-1
  6
CONTINUOUS
 62
     2
100
AcDbText
 10
1925.292593
 20
223.7
 30
0.0
 40
40.0
  1
１０
 41
0.6825
  7
EXCADSTD
 72
     5
 11
1984.871593
 21
223.7
 31
0.0
100
AcDbText
  0
TEXT
  5
AC
100
AcDbEntity
  8
LAY-1
  6
CONTINUOUS
 62
     2
100
AcDbText
 10
830.000001
 20
247.5
 30
0.0
 40
55.0
  1
アクセサリーバーＩ型 
 41
0.8064
  7
EXCADSTD
 72
     5
 11
1357.999999
 21
247.5
 31
0.0
100
AcDbText
  0
TEXT
  5
AD
100
AcDbEntity
  8
LAY-1
  6
CONTINUOUS
 62
     2
100
AcDbText
 10
1506.5
 20
275.0
 30
0.0
 40
50.0
  1
ＮＡ１２Ａ
 41
0.7896
  7
EXCADSTD
 72
     5
 11
1741.5
 21
275.0
 31
0.0
100
AcDbText
  0
TEXT
  5
AE
100
AcDbEntity
  8
LAY-1
  6
CONTINUOUS
 62
     2
100
AcDbText
 10
1506.5
 20
225.0
 30
0.0
 40
50.0
  1
ＮＡ１２Ｂ
 41
0.7896
  7
EXCADSTD
 72
     5
 11
1741.5
 21
225.0
 31
0.0
100
AcDbText
  0
TEXT
  5
B0
100
AcDbEntity
  8
LAY-1
  6
CONTINUOUS
 62
     2
100
AcDbText
 10
769.0
 20
135.0
 30
0.0
 40
45.0
  1
ジャニス工業株式会社
  7
EXCADTTF1
 72
     5
 11
1369.0
 21
135.0
 31
0.0
100
AcDbText
  0
TEXT
  5
B1
100
AcDbEntity
  8
LAY-1
  6
CONTINUOUS
 62
     6
100
AcDbText
 10
205.5
 20
200.0
 30
0.0
 40
50.0
  1
間瀬
 41
0.8568
  7
EXCADSTD
 72
     5
 11
298.9932
 21
200.0
 31
0.0
100
AcDbText
  0
TEXT
  5
B2
100
AcDbEntity
  8
LAY-1
  6
CONTINUOUS
 62
     6
100
AcDbText
 10
181.044116
 20
126.950073
 30
0.0
 40
25.0
  1
２１
 41
0.75768
  7
EXCADSTD
 72
     5
 11
222.382775
 21
126.950073
 31
0.0
100
AcDbText
  0
TEXT
  5
B3
100
AcDbEntity
  8
LAY-1
  6
CONTINUOUS
 62
     6
100
AcDbText
 10
240.319116
 20
126.950073
 30
0.0
 40
25.0
  1
７
 41
0.89208
  7
EXCADSTD
 72
     5
 11
261.559116
 21
126.950073
 31
0.0
100
AcDbText
  0
TEXT
  5
B4
100
AcDbEntity
  8
LAY-1
  6
CONTINUOUS
 62
     6
100
AcDbText
 10
284.044116
 20
126.950073
 30
0.0
 40
25.0
  1
３０
 41
0.75768
  7
EXCADSTD
 72
     5
 11
325.382775
 21
126.950073
 31
0.0
100
AcDbText
  0
TEXT
  5
B5
100
AcDbEntity
  8
LAY-1
  6
CONTINUOUS
 62
     6
100
AcDbText
 10
633.5
 20
200.0
 30
0.0
 40
50.0
  1
古林
 41
0.8568
  7
EXCADSTD
 72
     5
 11
726.9932
 21
200.0
 31
0.0
100
AcDbText
  0
TEXT
  5
B6
100
AcDbEntity
  8
LAY-1
  6
CONTINUOUS
 62
     6
100
AcDbText
 10
490.499997
 20
200.0
 30
0.0
 40
50.0
  1
地名坊
 41
0.7168
  7
EXCADSTD
 72
     5
 11
618.500003
 21
200.0
 31
0.0
100
AcDbText
  0
TEXT
  5
B7
100
AcDbEntity
  8
LAY-1
  6
CONTINUOUS
 62
     7
100
AcDbText
 10
1516.500001
 20
131.5
 30
0.0
 40
70.0
  1
９６６７００
 41
0.81
  7
EXCADSTD
 72
     5
 11
1921.499999
 21
131.5
 31
0.0
100
AcDbText
  0
TEXT
  5
B8
100
AcDbEntity
  8
LAY-1
  6
CONTINUOUS
 62
     2
100
AcDbText
 10
1454.5
 20
429.0
 30
0.0
 40
50.0
  1
ＮＡ１２Ａ：木目色
 41
0.774667
  7
EXCADSTD
 72
     5
 11
1869.5
 21
429.0
 31
0.0
100
AcDbText
  0
TEXT
  5
B9
100
AcDbEntity
  8
LAY-1
  6
CONTINUOUS
 62
     2
100
AcDbText
 10
1454.5
 20
379.0
 30
0.0
 40
50.0
  1
ＮＡ１２Ｂ：ホワイト色
 41
0.771273
  7
EXCADSTD
 72
     5
 11
1959.5
 21
379.0
 31
0.0
100
AcDbText
  0
LINE
  5
BA
100
AcDbEntity
  8
LAY-2
  6
CONTINUOUS
 62
     6
100
AcDbLine
 10
1614.169573
 20
1406.085826
 30
0.0
 11
1623.4997
 21
1403.585826
 31
0.0
  0
LINE
  5
BB
100
AcDbEntity
  8
LAY-2
  6
CONTINUOUS
 62
     6
100
AcDbLine
 10
1614.169573
 20
1401.085826
 30
0.0
 11
1623.4997
 21
1403.585826
 31
0.0
  0
LINE
  5
BC
100
AcDbEntity
  8
LAY-2
  6
CONTINUOUS
 62
     6
100
AcDbLine
 10
1614.169573
 20
1401.085826
 30
0.0
 11
1589.0
 21
1401.085826
 31
0.0
  0
LINE
  5
BD
100
AcDbEntity
  8
LAY-2
  6
CONTINUOUS
 62
     6
100
AcDbLine
 10
1589.0
 20
1406.085826
 30
0.0
 11
1614.169573
 21
1406.085826
 31
0.0
  0
LINE
  5
BE
100
AcDbEntity
  8
LAY-2
  6
CONTINUOUS
 62
     2
100
AcDbLine
 10
568.749783
 20
1421.085525
 30
0.0
 11
568.749783
 21
1386.085724
 31
0.0
  0
LINE
  5
BF
100
AcDbEntity
  8
LAY-2
  6
CONTINUOUS
 62
     2
100
AcDbLine
 10
527.249732
 20
1424.085725
 30
0.0
 11
565.749763
 21
1424.085725
 31
0.0
  0
LINE
  5
C0
100
AcDbEntity
  8
LAY-2
  6
CONTINUOUS
 62
     2
100
AcDbLine
 10
527.249732
 20
1383.085924
 30
0.0
 11
565.749763
 21
1383.085924
 31
0.0
  0
ARC
  5
C1
100
AcDbEntity
  8
LAY-2
  6
CONTINUOUS
 62
     2
100
AcDbCircle
 10
565.749763
 20
1421.085525
 30
0.0
 40
3.0
100
AcDbArc
 50
0.0
 51
90.0
  0
ARC
  5
C2
100
AcDbEntity
  8
LAY-2
  6
CONTINUOUS
 62
     2
100
AcDbCircle
 10
565.749763
 20
1386.085724
 30
0.0
 40
3.0
100
AcDbArc
 50
270.0
 51
0.0
  0
ARC
  5
C3
100
AcDbEntity
  8
LAY-2
  6
CONTINUOUS
 62
     2
100
AcDbCircle
 10
527.249732
 20
1403.585826
 30
0.0
 40
20.499999
100
AcDbArc
 50
90.0
 51
270.0
  0
ARC
  5
C4
100
AcDbEntity
  8
LAY-2
  6
EXLTYPE3
 62
     2
100
AcDbCircle
 10
513.499742
 20
1403.585826
 30
0.0
 40
57.250003
100
AcDbArc
 50
344.81071
 51
15.189285
  0
LINE
  5
C5
100
AcDbEntity
  8
LAY-2
  6
CONTINUOUS
 62
     2
100
AcDbLine
 10
568.749783
 20
1386.585724
 30
0.0
 11
1109.749552
 21
1386.585724
 31
0.0
  0
LINE
  5
C6
100
AcDbEntity
  8
LAY-2
  6
CONTINUOUS
 62
     2
100
AcDbLine
 10
568.749783
 20
1420.585925
 30
0.0
 11
1109.749552
 21
1420.585925
 31
0.0
  0
LINE
  5
C7
100
AcDbEntity
  8
LAY-2
  6
CONTINUOUS
 62
     2
100
AcDbLine
 10
1109.749552
 20
1421.085525
 30
0.0
 11
1109.749552
 21
1386.085724
 31
0.0
  0
LINE
  5
C8
100
AcDbEntity
  8
LAY-2
  6
CONTINUOUS
 62
     2
100
AcDbLine
 10
1151.249753
 20
1424.085725
 30
0.0
 11
1112.749852
 21
1424.085725
 31
0.0
  0
LINE
  5
C9
100
AcDbEntity
  8
LAY-2
  6
CONTINUOUS
 62
     2
100
AcDbLine
 10
1151.249753
 20
1383.085924
 30
0.0
 11
1112.749852
 21
1383.085924
 31
0.0
  0
ARC
  5
CA
100
AcDbEntity
  8
LAY-2
  6
CONTINUOUS
 62
     2
100
AcDbCircle
 10
1112.749852
 20
1421.085525
 30
0.0
 40
3.0
100
AcDbArc
 50
90.0
 51
180.0
  0
ARC
  5
CB
100
AcDbEntity
  8
LAY-2
  6
CONTINUOUS
 62
     2
100
AcDbCircle
 10
1112.749852
 20
1386.085724
 30
0.0
 40
3.0
100
AcDbArc
 50
180.0
 51
270.0
  0
ARC
  5
CC
100
AcDbEntity
  8
LAY-2
  6
CONTINUOUS
 62
     2
100
AcDbCircle
 10
1151.249753
 20
1403.585826
 30
0.0
 40
20.499999
100
AcDbArc
 50
270.0
 51
90.0
  0
ARC
  5
CD
100
AcDbEntity
  8
LAY-2
  6
EXLTYPE3
 62
     2
100
AcDbCircle
 10
1164.999552
 20
1403.585826
 30
0.0
 40
57.250003
100
AcDbArc
 50
164.81069
 51
195.18928
  0
LINE
  5
CE
100
AcDbEntity
  8
LAY-2
  6
EXLTYPE7
 62
     1
100
AcDbLine
 10
539.249691
 20
1396.505626
 30
0.0
 11
539.249691
 21
1410.665825
 31
0.0
  0
LINE
  5
CF
100
AcDbEntity
  8
LAY-2
  6
EXLTYPE7
 62
     1
100
AcDbLine
 10
522.249712
 20
1396.505626
 30
0.0
 11
522.249712
 21
1410.665825
 31
0.0
  0
LINE
  5
D0
100
AcDbEntity
  8
LAY-2
  6
EXLTYPE7
 62
     1
100
AcDbLine
 10
1139.249751
 20
1396.505626
 30
0.0
 11
1139.249751
 21
1410.665825
 31
0.0
  0
LINE
  5
D1
100
AcDbEntity
  8
LAY-2
  6
EXLTYPE7
 62
     1
100
AcDbLine
 10
1156.249653
 20
1396.505626
 30
0.0
 11
1156.249653
 21
1410.665825
 31
0.0
  0
LINE
  5
D2
100
AcDbEntity
  8
LAY-2
  6
EXLTYPE3
 62
     1
100
AcDbLine
 10
1625.2
 20
1403.585826
 30
0.0
 11
1508.6
 21
1403.585826
 31
0.0
  0
LINE
  5
D3
100
AcDbEntity
  8
LAY-2
  6
EXLTYPE7
 62
     1
100
AcDbLine
 10
501.9
 20
1403.585826
 30
0.0
 11
1181.958752
 21
1403.585826
 31
0.0
  0
LINE
  5
D4
100
AcDbEntity
  8
LAY-2
  6
EXLTYPE4
 62
     6
100
AcDbLine
 10
1589.0
 20
1256.0
 30
0.0
 11
1589.0
 21
1569.0
 31
0.0
  0
LINE
  5
D5
100
AcDbEntity
  8
LAY-2
  6
EXLTYPE7
 62
     1
100
AcDbLine
 10
517.082612
 20
2021.586024
 30
0.0
 11
1159.031953
 21
2021.586024
 31
0.0
  0
LINE
  5
D6
100
AcDbEntity
  8
LAY-2
  6
CONTINUOUS
 62
     6
100
AcDbLine
 10
1136.749667
 20
2104.255498
 30
0.0
 11
1139.249667
 21
2113.585625
 31
0.0
  0
LINE
  5
D7
100
AcDbEntity
  8
LAY-2
  6
CONTINUOUS
 62
     6
100
AcDbLine
 10
1141.749667
 20
2104.255498
 30
0.0
 11
1139.249667
 21
2113.585625
 31
0.0
  0
LINE
  5
D8
100
AcDbEntity
  8
LAY-2
  6
CONTINUOUS
 62
     6
100
AcDbLine
 10
1141.749667
 20
2104.255498
 30
0.0
 11
1141.749667
 21
2079.085925
 31
0.0
  0
LINE
  5
D9
100
AcDbEntity
  8
LAY-2
  6
CONTINUOUS
 62
     6
100
AcDbLine
 10
1136.749667
 20
2079.085925
 30
0.0
 11
1136.749667
 21
2104.255498
 31
0.0
  0
LINE
  5
DA
100
AcDbEntity
  8
LAY-2
  6
CONTINUOUS
 62
     6
100
AcDbLine
 10
1153.749569
 20
2104.255498
 30
0.0
 11
1156.249569
 21
2113.585625
 31
0.0
  0
LINE
  5
DB
100
AcDbEntity
  8
LAY-2
  6
CONTINUOUS
 62
     6
100
AcDbLine
 10
1158.749569
 20
2104.255498
 30
0.0
 11
1156.249569
 21
2113.585625
 31
0.0
  0
LINE
  5
DC
100
AcDbEntity
  8
LAY-2
  6
CONTINUOUS
 62
     6
100
AcDbLine
 10
1158.749569
 20
2104.255498
 30
0.0
 11
1158.749569
 21
2079.085925
 31
0.0
  0
LINE
  5
DD
100
AcDbEntity
  8
LAY-2
  6
CONTINUOUS
 62
     6
100
AcDbLine
 10
1153.749569
 20
2079.085925
 30
0.0
 11
1153.749569
 21
2104.255498
 31
0.0
  0
LINE
  5
DE
100
AcDbEntity
  8
LAY-2
  6
CONTINUOUS
 62
     2
100
AcDbLine
 10
568.449703
 20
2003.585825
 30
0.0
 11
550.050321
 21
2003.585825
 31
0.0
  0
LINE
  5
DF
100
AcDbEntity
  8
LAY-2
  6
CONTINUOUS
 62
     2
100
AcDbLine
 10
506.749713
 20
2075.010825
 30
0.0
 11
506.749713
 21
2078.285525
 31
0.0
  0
LINE
  5
E0
100
AcDbEntity
  8
LAY-2
  6
CONTINUOUS
 62
     2
100
AcDbLine
 10
506.922673
 20
2074.197525
 30
0.0
 11
533.606522
 21
2014.264625
 31
0.0
  0
ARC
  5
E1
100
AcDbEntity
  8
LAY-2
  6
CONTINUOUS
 62
     2
100
AcDbCircle
 10
550.050321
 20
2021.585924
 30
0.0
 40
18.000002
100
AcDbArc
 50
204.0
 51
270.0
  0
ARC
  5
E2
100
AcDbEntity
  8
LAY-2
  6
CONTINUOUS
 62
     2
100
AcDbCircle
 10
508.749773
 20
2075.010825
 30
0.0
 40
2.0
100
AcDbArc
 50
180.0
 51
204.0
  0
LINE
  5
E3
100
AcDbEntity
  8
LAY-2
  6
CONTINUOUS
 62
     2
100
AcDbLine
 10
620.847371
 20
2037.785926
 30
0.0
 11
628.769223
 21
2037.785926
 31
0.0
  0
LINE
  5
E4
100
AcDbEntity
  8
LAY-2
  6
CONTINUOUS
 62
     2
100
AcDbLine
 10
622.058343
 20
2034.232926
 30
0.0
 11
627.558373
 21
2034.232926
 31
0.0
  0
LINE
  5
E5
100
AcDbEntity
  8
LAY-2
  6
CONTINUOUS
 62
     2
100
AcDbLine
 10
636.847453
 20
2037.785926
 30
0.0
 11
644.769172
 21
2037.785926
 31
0.0
  0
LINE
  5
E6
100
AcDbEntity
  8
LAY-2
  6
CONTINUOUS
 62
     2
100
AcDbLine
 10
638.058303
 20
2034.232926
 30
0.0
 11
643.558272
 21
2034.232926
 31
0.0
  0
LINE
  5
E7
100
AcDbEntity
  8
LAY-2
  6
CONTINUOUS
 62
     2
100
AcDbLine
 10
629.199023
 20
2038.585626
 30
0.0
 11
636.417523
 21
2038.585626
 31
0.0
  0
LINE
  5
E8
100
AcDbEntity
  8
LAY-2
  6
CONTINUOUS
 62
     2
100
AcDbLine
 10
652.847342
 20
2037.785926
 30
0.0
 11
660.769192
 21
2037.785926
 31
0.0
  0
LINE
  5
E9
100
AcDbEntity
  8
LAY-2
  6
CONTINUOUS
 62
     2
100
AcDbLine
 10
654.058312
 20
2034.232926
 30
0.0
 11
659.558412
 21
2034.232926
 31
0.0
  0
LINE
  5
EA
100
AcDbEntity
  8
LAY-2
  6
CONTINUOUS
 62
     2
100
AcDbLine
 10
645.199042
 20
2038.585626
 30
0.0
 11
652.417662
 21
2038.585626
 31
0.0
  0
LINE
  5
EB
100
AcDbEntity
  8
LAY-2
  6
CONTINUOUS
 62
     2
100
AcDbLine
 10
668.847361
 20
2037.785926
 30
0.0
 11
676.769271
 21
2037.785926
 31
0.0
  0
LINE
  5
EC
100
AcDbEntity
  8
LAY-2
  6
CONTINUOUS
 62
     2
100
AcDbLine
 10
670.058271
 20
2034.232926
 30
0.0
 11
675.558301
 21
2034.232926
 31
0.0
  0
LINE
  5
ED
100
AcDbEntity
  8
LAY-2
  6
CONTINUOUS
 62
     2
100
AcDbLine
 10
661.199062
 20
2038.585626
 30
0.0
 11
668.417621
 21
2038.585626
 31
0.0
  0
LINE
  5
EE
100
AcDbEntity
  8
LAY-2
  6
CONTINUOUS
 62
     2
100
AcDbLine
 10
684.847381
 20
2037.785926
 30
0.0
 11
692.769223
 21
2037.785926
 31
0.0
  0
LINE
  5
EF
100
AcDbEntity
  8
LAY-2
  6
CONTINUOUS
 62
     2
100
AcDbLine
 10
686.058281
 20
2034.232926
 30
0.0
 11
691.558323
 21
2034.232926
 31
0.0
  0
LINE
  5
F0
100
AcDbEntity
  8
LAY-2
  6
CONTINUOUS
 62
     2
100
AcDbLine
 10
677.199011
 20
2038.585626
 30
0.0
 11
684.417631
 21
2038.585626
 31
0.0
  0
LINE
  5
F1
100
AcDbEntity
  8
LAY-2
  6
CONTINUOUS
 62
     2
100
AcDbLine
 10
700.847393
 20
2037.785926
 30
0.0
 11
708.769242
 21
2037.785926
 31
0.0
  0
LINE
  5
F2
100
AcDbEntity
  8
LAY-2
  6
CONTINUOUS
 62
     2
100
AcDbLine
 10
702.058303
 20
2034.232926
 30
0.0
 11
707.558332
 21
2034.232926
 31
0.0
  0
LINE
  5
F3
100
AcDbEntity
  8
LAY-2
  6
CONTINUOUS
 62
     2
100
AcDbLine
 10
693.198973
 20
2038.585626
 30
0.0
 11
700.417593
 21
2038.585626
 31
0.0
  0
LINE
  5
F4
100
AcDbEntity
  8
LAY-2
  6
CONTINUOUS
 62
     2
100
AcDbLine
 10
716.847472
 20
2037.785926
 30
0.0
 11
724.769262
 21
2037.785926
 31
0.0
  0
LINE
  5
F5
100
AcDbEntity
  8
LAY-2
  6
CONTINUOUS
 62
     2
100
AcDbLine
 10
718.058322
 20
2034.232926
 30
0.0
 11
723.558292
 21
2034.232926
 31
0.0
  0
LINE
  5
F6
100
AcDbEntity
  8
LAY-2
  6
CONTINUOUS
 62
     2
100
AcDbLine
 10
709.199042
 20
2038.585626
 30
0.0
 11
716.417542
 21
2038.585626
 31
0.0
  0
LINE
  5
F7
100
AcDbEntity
  8
LAY-2
  6
CONTINUOUS
 62
     2
100
AcDbLine
 10
732.847432
 20
2037.785926
 30
0.0
 11
740.769211
 21
2037.785926
 31
0.0
  0
LINE
  5
F8
100
AcDbEntity
  8
LAY-2
  6
CONTINUOUS
 62
     2
100
AcDbLine
 10
734.058211
 20
2034.232926
 30
0.0
 11
739.558301
 21
2034.232926
 31
0.0
  0
LINE
  5
F9
100
AcDbEntity
  8
LAY-2
  6
CONTINUOUS
 62
     2
100
AcDbLine
 10
725.199062
 20
2038.585626
 30
0.0
 11
732.417562
 21
2038.585626
 31
0.0
  0
LINE
  5
FA
100
AcDbEntity
  8
LAY-2
  6
CONTINUOUS
 62
     2
100
AcDbLine
 10
748.847381
 20
2037.785926
 30
0.0
 11
756.769233
 21
2037.785926
 31
0.0
  0
LINE
  5
FB
100
AcDbEntity
  8
LAY-2
  6
CONTINUOUS
 62
     2
100
AcDbLine
 10
750.058351
 20
2034.232926
 30
0.0
 11
755.558323
 21
2034.232926
 31
0.0
  0
LINE
  5
FC
100
AcDbEntity
  8
LAY-2
  6
CONTINUOUS
 62
     2
100
AcDbLine
 10
741.198951
 20
2038.585626
 30
0.0
 11
748.417641
 21
2038.585626
 31
0.0
  0
LINE
  5
FD
100
AcDbEntity
  8
LAY-2
  6
CONTINUOUS
 62
     2
100
AcDbLine
 10
757.199093
 20
2038.585626
 30
0.0
 11
764.417663
 21
2038.585626
 31
0.0
  0
LINE
  5
FE
100
AcDbEntity
  8
LAY-2
  6
CONTINUOUS
 62
     2
100
AcDbLine
 10
780.417612
 20
2038.585626
 30
0.0
 11
773.198992
 21
2038.585626
 31
0.0
  0
LINE
  5
FF
100
AcDbEntity
  8
LAY-2
  6
CONTINUOUS
 62
     2
100
AcDbLine
 10
764.847403
 20
2037.785926
 30
0.0
 11
772.769242
 21
2037.785926
 31
0.0
  0
LINE
  5
100
100
AcDbEntity
  8
LAY-2
  6
CONTINUOUS
 62
     2
100
AcDbLine
 10
766.058313
 20
2034.232926
 30
0.0
 11
771.558213
 21
2034.232926
 31
0.0
  0
LINE
  5
101
100
AcDbEntity
  8
LAY-2
  6
CONTINUOUS
 62
     2
100
AcDbLine
 10
796.417632
 20
2038.585626
 30
0.0
 11
789.199062
 21
2038.585626
 31
0.0
  0
LINE
  5
102
100
AcDbEntity
  8
LAY-2
  6
CONTINUOUS
 62
     2
100
AcDbLine
 10
780.847412
 20
2037.785926
 30
0.0
 11
788.769142
 21
2037.785926
 31
0.0
  0
LINE
  5
103
100
AcDbEntity
  8
LAY-2
  6
CONTINUOUS
 62
     2
100
AcDbLine
 10
782.058322
 20
2034.232926
 30
0.0
 11
787.558352
 21
2034.232926
 31
0.0
  0
LINE
  5
104
100
AcDbEntity
  8
LAY-2
  6
CONTINUOUS
 62
     2
100
AcDbLine
 10
812.417581
 20
2038.585626
 30
0.0
 11
805.199021
 21
2038.585626
 31
0.0
  0
LINE
  5
105
100
AcDbEntity
  8
LAY-2
  6
CONTINUOUS
 62
     2
100
AcDbLine
 10
796.847432
 20
2037.785926
 30
0.0
 11
804.769281
 21
2037.785926
 31
0.0
  0
LINE
  5
106
100
AcDbEntity
  8
LAY-2
  6
CONTINUOUS
 62
     2
100
AcDbLine
 10
798.058342
 20
2034.232926
 30
0.0
 11
803.558371
 21
2034.232926
 31
0.0
  0
LINE
  5
107
100
AcDbEntity
  8
LAY-2
  6
CONTINUOUS
 62
     2
100
AcDbLine
 10
828.417723
 20
2038.585626
 30
0.0
 11
821.198973
 21
2038.585626
 31
0.0
  0
LINE
  5
108
100
AcDbEntity
  8
LAY-2
  6
CONTINUOUS
 62
     2
100
AcDbLine
 10
812.847451
 20
2037.785926
 30
0.0
 11
820.769173
 21
2037.785926
 31
0.0
  0
LINE
  5
109
100
AcDbEntity
  8
LAY-2
  6
CONTINUOUS
 62
     2
100
AcDbLine
 10
814.058231
 20
2034.232926
 30
0.0
 11
819.558323
 21
2034.232926
 31
0.0
  0
LINE
  5
10A
100
AcDbEntity
  8
LAY-2
  6
CONTINUOUS
 62
     2
100
AcDbLine
 10
844.417612
 20
2038.585626
 30
0.0
 11
837.198993
 21
2038.585626
 31
0.0
  0
LINE
  5
10B
100
AcDbEntity
  8
LAY-2
  6
CONTINUOUS
 62
     2
100
AcDbLine
 10
828.847463
 20
2037.785926
 30
0.0
 11
836.769253
 21
2037.785926
 31
0.0
  0
LINE
  5
10C
100
AcDbEntity
  8
LAY-2
  6
CONTINUOUS
 62
     2
100
AcDbLine
 10
830.058373
 20
2034.232926
 30
0.0
 11
835.558343
 21
2034.232926
 31
0.0
  0
LINE
  5
10D
100
AcDbEntity
  8
LAY-2
  6
CONTINUOUS
 62
     2
100
AcDbLine
 10
860.417632
 20
2038.585626
 30
0.0
 11
853.199012
 21
2038.585626
 31
0.0
  0
LINE
  5
10E
100
AcDbEntity
  8
LAY-2
  6
CONTINUOUS
 62
     2
100
AcDbLine
 10
844.847422
 20
2037.785926
 30
0.0
 11
852.769272
 21
2037.785926
 31
0.0
  0
LINE
  5
10F
100
AcDbEntity
  8
LAY-2
  6
CONTINUOUS
 62
     2
100
AcDbLine
 10
846.058392
 20
2034.232926
 30
0.0
 11
851.558292
 21
2034.232926
 31
0.0
  0
LINE
  5
110
100
AcDbEntity
  8
LAY-2
  6
CONTINUOUS
 62
     2
100
AcDbLine
 10
876.417591
 20
2038.585626
 30
0.0
 11
869.199081
 21
2038.585626
 31
0.0
  0
LINE
  5
111
100
AcDbEntity
  8
LAY-2
  6
CONTINUOUS
 62
     2
100
AcDbLine
 10
860.847372
 20
2037.785926
 30
0.0
 11
868.769221
 21
2037.785926
 31
0.0
  0
LINE
  5
112
100
AcDbEntity
  8
LAY-2
  6
CONTINUOUS
 62
     2
100
AcDbLine
 10
862.058342
 20
2034.232926
 30
0.0
 11
867.558371
 21
2034.232926
 31
0.0
  0
LINE
  5
113
100
AcDbEntity
  8
LAY-2
  6
CONTINUOUS
 62
     2
100
AcDbLine
 10
892.417543
 20
2038.585626
 30
0.0
 11
885.198983
 21
2038.585626
 31
0.0
  0
LINE
  5
114
100
AcDbEntity
  8
LAY-2
  6
CONTINUOUS
 62
     2
100
AcDbLine
 10
876.847391
 20
2037.785926
 30
0.0
 11
884.769303
 21
2037.785926
 31
0.0
  0
LINE
  5
115
100
AcDbEntity
  8
LAY-2
  6
CONTINUOUS
 62
     2
100
AcDbLine
 10
878.058361
 20
2034.232926
 30
0.0
 11
883.558453
 21
2034.232926
 31
0.0
  0
LINE
  5
116
100
AcDbEntity
  8
LAY-2
  6
CONTINUOUS
 62
     2
100
AcDbLine
 10
908.417742
 20
2038.585626
 30
0.0
 11
901.199063
 21
2038.585626
 31
0.0
  0
LINE
  5
117
100
AcDbEntity
  8
LAY-2
  6
CONTINUOUS
 62
     2
100
AcDbLine
 10
892.847473
 20
2037.785926
 30
0.0
 11
900.769133
 21
2037.785926
 31
0.0
  0
LINE
  5
118
100
AcDbEntity
  8
LAY-2
  6
CONTINUOUS
 62
     2
100
AcDbLine
 10
894.058313
 20
2034.232926
 30
0.0
 11
899.558413
 21
2034.232926
 31
0.0
  0
LINE
  5
119
100
AcDbEntity
  8
LAY-2
  6
CONTINUOUS
 62
     2
100
AcDbLine
 10
924.417652
 20
2038.585626
 30
0.0
 11
917.199012
 21
2038.585626
 31
0.0
  0
LINE
  5
11A
100
AcDbEntity
  8
LAY-2
  6
CONTINUOUS
 62
     2
100
AcDbLine
 10
908.847542
 20
2037.785926
 30
0.0
 11
916.769332
 21
2037.785926
 31
0.0
  0
LINE
  5
11B
100
AcDbEntity
  8
LAY-2
  6
CONTINUOUS
 62
     2
100
AcDbLine
 10
910.058272
 20
2034.232926
 30
0.0
 11
915.558362
 21
2034.232926
 31
0.0
  0
LINE
  5
11C
100
AcDbEntity
  8
LAY-2
  6
CONTINUOUS
 62
     2
100
AcDbLine
 10
940.417451
 20
2038.585626
 30
0.0
 11
933.199051
 21
2038.585626
 31
0.0
  0
LINE
  5
11D
100
AcDbEntity
  8
LAY-2
  6
CONTINUOUS
 62
     2
100
AcDbLine
 10
932.769251
 20
2037.785926
 30
0.0
 11
924.847452
 21
2037.785926
 31
0.0
  0
LINE
  5
11E
100
AcDbEntity
  8
LAY-2
  6
CONTINUOUS
 62
     2
100
AcDbLine
 10
931.558251
 20
2034.232926
 30
0.0
 11
926.058452
 21
2034.232926
 31
0.0
  0
LINE
  5
11F
100
AcDbEntity
  8
LAY-2
  6
CONTINUOUS
 62
     2
100
AcDbLine
 10
940.847251
 20
2037.785926
 30
0.0
 11
948.769153
 21
2037.785926
 31
0.0
  0
LINE
  5
120
100
AcDbEntity
  8
LAY-2
  6
CONTINUOUS
 62
     2
100
AcDbLine
 10
942.058351
 20
2034.232926
 30
0.0
 11
947.558253
 21
2034.232926
 31
0.0
  0
LINE
  5
121
100
AcDbEntity
  8
LAY-2
  6
CONTINUOUS
 62
     2
100
AcDbLine
 10
1045.199052
 20
2038.585626
 30
0.0
 11
1052.417652
 21
2038.585626
 31
0.0
  0
LINE
  5
122
100
AcDbEntity
  8
LAY-2
  6
CONTINUOUS
 62
     2
100
AcDbLine
 10
1060.769251
 20
2037.785926
 30
0.0
 11
1052.847352
 21
2037.785926
 31
0.0
  0
LINE
  5
123
100
AcDbEntity
  8
LAY-2
  6
CONTINUOUS
 62
     2
100
AcDbLine
 10
1059.558452
 20
2034.232926
 30
0.0
 11
1054.058352
 21
2034.232926
 31
0.0
  0
LINE
  5
124
100
AcDbEntity
  8
LAY-2
  6
CONTINUOUS
 62
     2
100
AcDbLine
 10
1029.199153
 20
2038.585626
 30
0.0
 11
1036.417552
 21
2038.585626
 31
0.0
  0
LINE
  5
125
100
AcDbEntity
  8
LAY-2
  6
CONTINUOUS
 62
     2
100
AcDbLine
 10
1044.769152
 20
2037.785926
 30
0.0
 11
1036.847552
 21
2037.785926
 31
0.0
  0
LINE
  5
126
100
AcDbEntity
  8
LAY-2
  6
CONTINUOUS
 62
     2
100
AcDbLine
 10
1043.558352
 20
2034.232926
 30
0.0
 11
1038.058352
 21
2034.232926
 31
0.0
  0
LINE
  5
127
100
AcDbEntity
  8
LAY-2
  6
CONTINUOUS
 62
     2
100
AcDbLine
 10
1013.199053
 20
2038.585626
 30
0.0
 11
1020.417553
 21
2038.585626
 31
0.0
  0
LINE
  5
128
100
AcDbEntity
  8
LAY-2
  6
CONTINUOUS
 62
     2
100
AcDbLine
 10
1028.769253
 20
2037.785926
 30
0.0
 11
1020.847453
 21
2037.785926
 31
0.0
  0
LINE
  5
129
100
AcDbEntity
  8
LAY-2
  6
CONTINUOUS
 62
     2
100
AcDbLine
 10
1027.558253
 20
2034.232926
 30
0.0
 11
1022.058453
 21
2034.232926
 31
0.0
  0
LINE
  5
12A
100
AcDbEntity
  8
LAY-2
  6
CONTINUOUS
 62
     2
100
AcDbLine
 10
997.198951
 20
2038.585626
 30
0.0
 11
1004.417651
 21
2038.585626
 31
0.0
  0
LINE
  5
12B
100
AcDbEntity
  8
LAY-2
  6
CONTINUOUS
 62
     2
100
AcDbLine
 10
1012.769153
 20
2037.785926
 30
0.0
 11
1004.847451
 21
2037.785926
 31
0.0
  0
LINE
  5
12C
100
AcDbEntity
  8
LAY-2
  6
CONTINUOUS
 62
     2
100
AcDbLine
 10
1011.558251
 20
2034.232926
 30
0.0
 11
1006.058351
 21
2034.232926
 31
0.0
  0
LINE
  5
12D
100
AcDbEntity
  8
LAY-2
  6
CONTINUOUS
 62
     2
100
AcDbLine
 10
981.199052
 20
2038.585626
 30
0.0
 11
988.417752
 21
2038.585626
 31
0.0
  0
LINE
  5
12E
100
AcDbEntity
  8
LAY-2
  6
CONTINUOUS
 62
     2
100
AcDbLine
 10
996.769351
 20
2037.785926
 30
0.0
 11
988.847352
 21
2037.785926
 31
0.0
  0
LINE
  5
12F
100
AcDbEntity
  8
LAY-2
  6
CONTINUOUS
 62
     2
100
AcDbLine
 10
995.558351
 20
2034.232926
 30
0.0
 11
990.058252
 21
2034.232926
 31
0.0
  0
LINE
  5
130
100
AcDbEntity
  8
LAY-2
  6
CONTINUOUS
 62
     2
100
AcDbLine
 10
965.198953
 20
2038.585626
 30
0.0
 11
972.417652
 21
2038.585626
 31
0.0
  0
LINE
  5
131
100
AcDbEntity
  8
LAY-2
  6
CONTINUOUS
 62
     2
100
AcDbLine
 10
980.769252
 20
2037.785926
 30
0.0
 11
972.847352
 21
2037.785926
 31
0.0
  0
LINE
  5
132
100
AcDbEntity
  8
LAY-2
  6
CONTINUOUS
 62
     2
100
AcDbLine
 10
979.558352
 20
2034.232926
 30
0.0
 11
974.058252
 21
2034.232926
 31
0.0
  0
LINE
  5
133
100
AcDbEntity
  8
LAY-2
  6
CONTINUOUS
 62
     2
100
AcDbLine
 10
949.199153
 20
2038.585626
 30
0.0
 11
956.417553
 21
2038.585626
 31
0.0
  0
LINE
  5
134
100
AcDbEntity
  8
LAY-2
  6
CONTINUOUS
 62
     2
100
AcDbLine
 10
956.847453
 20
2037.785926
 30
0.0
 11
964.769153
 21
2037.785926
 31
0.0
  0
LINE
  5
135
100
AcDbEntity
  8
LAY-2
  6
CONTINUOUS
 62
     2
100
AcDbLine
 10
958.058253
 20
2034.232926
 30
0.0
 11
963.558353
 21
2034.232926
 31
0.0
  0
LINE
  5
136
100
AcDbEntity
  8
LAY-2
  6
CONTINUOUS
 62
     2
100
AcDbLine
 10
568.749783
 20
2004.585625
 30
0.0
 11
1109.749552
 21
2004.585625
 31
0.0
  0
ARC
  5
137
100
AcDbEntity
  8
LAY-2
  6
CONTINUOUS
 62
     2
100
AcDbCircle
 10
629.199023
 20
2038.186026
 30
0.0
 40
0.4
100
AcDbArc
 50
90.0
 51
177.33555
  0
ARC
  5
138
100
AcDbEntity
  8
LAY-2
  6
CONTINUOUS
 62
     2
100
AcDbCircle
 10
620.603711
 20
2038.585626
 30
0.0
 40
8.20462
100
AcDbArc
 50
327.95662
 51
357.335541
  0
ARC
  5
139
100
AcDbEntity
  8
LAY-2
  6
CONTINUOUS
 62
     2
100
AcDbCircle
 10
636.417523
 20
2038.186026
 30
0.0
 40
0.4
100
AcDbArc
 50
2.66445
 51
90.0
  0
ARC
  5
13A
100
AcDbEntity
  8
LAY-2
  6
CONTINUOUS
 62
     2
100
AcDbCircle
 10
645.199042
 20
2038.186026
 30
0.0
 40
0.4
100
AcDbArc
 50
90.0
 51
177.33555
  0
ARC
  5
13B
100
AcDbEntity
  8
LAY-2
  6
CONTINUOUS
 62
     2
100
AcDbCircle
 10
645.012962
 20
2038.585626
 30
0.0
 40
8.20462
100
AcDbArc
 50
182.664451
 51
212.04337
  0
ARC
  5
13C
100
AcDbEntity
  8
LAY-2
  6
CONTINUOUS
 62
     2
100
AcDbCircle
 10
636.603603
 20
2038.585626
 30
0.0
 40
8.20462
100
AcDbArc
 50
327.95662
 51
357.335541
  0
ARC
  5
13D
100
AcDbEntity
  8
LAY-2
  6
CONTINUOUS
 62
     2
100
AcDbCircle
 10
652.417662
 20
2038.186026
 30
0.0
 40
0.4
100
AcDbArc
 50
2.66445
 51
90.0
  0
ARC
  5
13E
100
AcDbEntity
  8
LAY-2
  6
CONTINUOUS
 62
     2
100
AcDbCircle
 10
661.199062
 20
2038.186026
 30
0.0
 40
0.4
100
AcDbArc
 50
90.0
 51
177.33555
  0
ARC
  5
13F
100
AcDbEntity
  8
LAY-2
  6
CONTINUOUS
 62
     2
100
AcDbCircle
 10
661.012922
 20
2038.585626
 30
0.0
 40
8.20462
100
AcDbArc
 50
182.664451
 51
212.04337
  0
ARC
  5
140
100
AcDbEntity
  8
LAY-2
  6
CONTINUOUS
 62
     2
100
AcDbCircle
 10
652.603612
 20
2038.585626
 30
0.0
 40
8.20462
100
AcDbArc
 50
327.95662
 51
357.335541
  0
ARC
  5
141
100
AcDbEntity
  8
LAY-2
  6
CONTINUOUS
 62
     2
100
AcDbCircle
 10
668.417621
 20
2038.186026
 30
0.0
 40
0.4
100
AcDbArc
 50
2.66445
 51
90.0
  0
ARC
  5
142
100
AcDbEntity
  8
LAY-2
  6
CONTINUOUS
 62
     2
100
AcDbCircle
 10
677.199011
 20
2038.186026
 30
0.0
 40
0.4
100
AcDbArc
 50
90.0
 51
177.33555
  0
ARC
  5
143
100
AcDbEntity
  8
LAY-2
  6
CONTINUOUS
 62
     2
100
AcDbCircle
 10
677.012941
 20
2038.585626
 30
0.0
 40
8.20462
100
AcDbArc
 50
182.664451
 51
212.04337
  0
ARC
  5
144
100
AcDbEntity
  8
LAY-2
  6
CONTINUOUS
 62
     2
100
AcDbCircle
 10
668.603751
 20
2038.585626
 30
0.0
 40
8.20462
100
AcDbArc
 50
327.95662
 51
357.335541
  0
ARC
  5
145
100
AcDbEntity
  8
LAY-2
  6
CONTINUOUS
 62
     2
100
AcDbCircle
 10
684.417631
 20
2038.186026
 30
0.0
 40
0.4
100
AcDbArc
 50
2.66445
 51
90.0
  0
ARC
  5
146
100
AcDbEntity
  8
LAY-2
  6
CONTINUOUS
 62
     2
100
AcDbCircle
 10
693.198973
 20
2038.186026
 30
0.0
 40
0.4
100
AcDbArc
 50
90.0
 51
177.33555
  0
ARC
  5
147
100
AcDbEntity
  8
LAY-2
  6
CONTINUOUS
 62
     2
100
AcDbCircle
 10
693.012893
 20
2038.585626
 30
0.0
 40
8.20462
100
AcDbArc
 50
182.664451
 51
212.04337
  0
ARC
  5
148
100
AcDbEntity
  8
LAY-2
  6
CONTINUOUS
 62
     2
100
AcDbCircle
 10
684.603711
 20
2038.585626
 30
0.0
 40
8.20462
100
AcDbArc
 50
327.95662
 51
357.335541
  0
ARC
  5
149
100
AcDbEntity
  8
LAY-2
  6
CONTINUOUS
 62
     2
100
AcDbCircle
 10
700.417593
 20
2038.186026
 30
0.0
 40
0.4
100
AcDbArc
 50
2.66445
 51
90.0
  0
ARC
  5
14A
100
AcDbEntity
  8
LAY-2
  6
CONTINUOUS
 62
     2
100
AcDbCircle
 10
709.199042
 20
2038.186026
 30
0.0
 40
0.4
100
AcDbArc
 50
90.0
 51
177.33555
  0
ARC
  5
14B
100
AcDbEntity
  8
LAY-2
  6
CONTINUOUS
 62
     2
100
AcDbCircle
 10
709.012852
 20
2038.585626
 30
0.0
 40
8.20462
100
AcDbArc
 50
182.664451
 51
212.04337
  0
ARC
  5
14C
100
AcDbEntity
  8
LAY-2
  6
CONTINUOUS
 62
     2
100
AcDbCircle
 10
700.603733
 20
2038.585626
 30
0.0
 40
8.20462
100
AcDbArc
 50
327.95662
 51
357.335541
  0
ARC
  5
14D
100
AcDbEntity
  8
LAY-2
  6
CONTINUOUS
 62
     2
100
AcDbCircle
 10
716.417542
 20
2038.186026
 30
0.0
 40
0.4
100
AcDbArc
 50
2.66445
 51
90.0
  0
ARC
  5
14E
100
AcDbEntity
  8
LAY-2
  6
CONTINUOUS
 62
     2
100
AcDbCircle
 10
725.199062
 20
2038.186026
 30
0.0
 40
0.4
100
AcDbArc
 50
90.0
 51
177.33555
  0
ARC
  5
14F
100
AcDbEntity
  8
LAY-2
  6
CONTINUOUS
 62
     2
100
AcDbCircle
 10
725.012992
 20
2038.585626
 30
0.0
 40
8.20462
100
AcDbArc
 50
182.664451
 51
212.04337
  0
ARC
  5
150
100
AcDbEntity
  8
LAY-2
  6
CONTINUOUS
 62
     2
100
AcDbCircle
 10
716.603682
 20
2038.585626
 30
0.0
 40
8.20462
100
AcDbArc
 50
327.95662
 51
357.335541
  0
ARC
  5
151
100
AcDbEntity
  8
LAY-2
  6
CONTINUOUS
 62
     2
100
AcDbCircle
 10
732.417562
 20
2038.186026
 30
0.0
 40
0.4
100
AcDbArc
 50
2.66445
 51
90.0
  0
ARC
  5
152
100
AcDbEntity
  8
LAY-2
  6
CONTINUOUS
 62
     2
100
AcDbCircle
 10
741.198951
 20
2038.186026
 30
0.0
 40
0.4
100
AcDbArc
 50
90.0
 51
177.33555
  0
ARC
  5
153
100
AcDbEntity
  8
LAY-2
  6
CONTINUOUS
 62
     2
100
AcDbCircle
 10
741.013001
 20
2038.585626
 30
0.0
 40
8.20462
100
AcDbArc
 50
182.664451
 51
212.04337
  0
ARC
  5
154
100
AcDbEntity
  8
LAY-2
  6
CONTINUOUS
 62
     2
100
AcDbCircle
 10
732.603642
 20
2038.585626
 30
0.0
 40
8.20462
100
AcDbArc
 50
327.95662
 51
357.335541
  0
ARC
  5
155
100
AcDbEntity
  8
LAY-2
  6
CONTINUOUS
 62
     2
100
AcDbCircle
 10
748.417641
 20
2038.186026
 30
0.0
 40
0.4
100
AcDbArc
 50
2.66445
 51
90.0
  0
ARC
  5
156
100
AcDbEntity
  8
LAY-2
  6
CONTINUOUS
 62
     2
100
AcDbCircle
 10
757.012963
 20
2038.585626
 30
0.0
 40
8.20462
100
AcDbArc
 50
182.664451
 51
212.04337
  0
ARC
  5
157
100
AcDbEntity
  8
LAY-2
  6
CONTINUOUS
 62
     2
100
AcDbCircle
 10
748.603781
 20
2038.585626
 30
0.0
 40
8.20462
100
AcDbArc
 50
327.95662
 51
357.335541
  0
ARC
  5
158
100
AcDbEntity
  8
LAY-2
  6
CONTINUOUS
 62
     2
100
AcDbCircle
 10
773.012912
 20
2038.585626
 30
0.0
 40
8.20462
100
AcDbArc
 50
182.664451
 51
212.04337
  0
ARC
  5
159
100
AcDbEntity
  8
LAY-2
  6
CONTINUOUS
 62
     2
100
AcDbCircle
 10
764.603733
 20
2038.585626
 30
0.0
 40
8.20462
100
AcDbArc
 50
327.95662
 51
357.335541
  0
ARC
  5
15A
100
AcDbEntity
  8
LAY-2
  6
CONTINUOUS
 62
     2
100
AcDbCircle
 10
764.417663
 20
2038.186026
 30
0.0
 40
0.4
100
AcDbArc
 50
2.66445
 51
90.0
  0
ARC
  5
15B
100
AcDbEntity
  8
LAY-2
  6
CONTINUOUS
 62
     2
100
AcDbCircle
 10
773.198992
 20
2038.186026
 30
0.0
 40
0.4
100
AcDbArc
 50
90.0
 51
177.33555
  0
ARC
  5
15C
100
AcDbEntity
  8
LAY-2
  6
CONTINUOUS
 62
     2
100
AcDbCircle
 10
789.012932
 20
2038.585626
 30
0.0
 40
8.20462
100
AcDbArc
 50
182.664451
 51
212.04337
  0
ARC
  5
15D
100
AcDbEntity
  8
LAY-2
  6
CONTINUOUS
 62
     2
100
AcDbCircle
 10
780.603682
 20
2038.585626
 30
0.0
 40
8.20462
100
AcDbArc
 50
327.95662
 51
357.335541
  0
ARC
  5
15E
100
AcDbEntity
  8
LAY-2
  6
CONTINUOUS
 62
     2
100
AcDbCircle
 10
780.417612
 20
2038.186026
 30
0.0
 40
0.4
100
AcDbArc
 50
2.66445
 51
90.0
  0
ARC
  5
15F
100
AcDbEntity
  8
LAY-2
  6
CONTINUOUS
 62
     2
100
AcDbCircle
 10
789.199062
 20
2038.186026
 30
0.0
 40
0.4
100
AcDbArc
 50
90.0
 51
177.33555
  0
ARC
  5
160
100
AcDbEntity
  8
LAY-2
  6
CONTINUOUS
 62
     2
100
AcDbCircle
 10
805.012881
 20
2038.585626
 30
0.0
 40
8.20462
100
AcDbArc
 50
182.664451
 51
212.04337
  0
ARC
  5
161
100
AcDbEntity
  8
LAY-2
  6
CONTINUOUS
 62
     2
100
AcDbCircle
 10
796.603702
 20
2038.585626
 30
0.0
 40
8.20462
100
AcDbArc
 50
327.95662
 51
357.335541
  0
ARC
  5
162
100
AcDbEntity
  8
LAY-2
  6
CONTINUOUS
 62
     2
100
AcDbCircle
 10
796.417632
 20
2038.186026
 30
0.0
 40
0.4
100
AcDbArc
 50
2.66445
 51
90.0
  0
ARC
  5
163
100
AcDbEntity
  8
LAY-2
  6
CONTINUOUS
 62
     2
100
AcDbCircle
 10
805.199021
 20
2038.186026
 30
0.0
 40
0.4
100
AcDbArc
 50
90.0
 51
177.33555
  0
ARC
  5
164
100
AcDbEntity
  8
LAY-2
  6
CONTINUOUS
 62
     2
100
AcDbCircle
 10
821.013023
 20
2038.585626
 30
0.0
 40
8.20462
100
AcDbArc
 50
182.664451
 51
212.04337
  0
ARC
  5
165
100
AcDbEntity
  8
LAY-2
  6
CONTINUOUS
 62
     2
100
AcDbCircle
 10
812.603721
 20
2038.585626
 30
0.0
 40
8.20462
100
AcDbArc
 50
327.95662
 51
357.335541
  0
ARC
  5
166
100
AcDbEntity
  8
LAY-2
  6
CONTINUOUS
 62
     2
100
AcDbCircle
 10
812.417581
 20
2038.186026
 30
0.0
 40
0.4
100
AcDbArc
 50
2.66445
 51
90.0
  0
ARC
  5
167
100
AcDbEntity
  8
LAY-2
  6
CONTINUOUS
 62
     2
100
AcDbCircle
 10
821.198973
 20
2038.186026
 30
0.0
 40
0.4
100
AcDbArc
 50
90.0
 51
177.33555
  0
ARC
  5
168
100
AcDbEntity
  8
LAY-2
  6
CONTINUOUS
 62
     2
100
AcDbCircle
 10
837.012923
 20
2038.585626
 30
0.0
 40
8.20462
100
AcDbArc
 50
182.664451
 51
212.04337
  0
ARC
  5
169
100
AcDbEntity
  8
LAY-2
  6
CONTINUOUS
 62
     2
100
AcDbCircle
 10
828.603673
 20
2038.585626
 30
0.0
 40
8.20462
100
AcDbArc
 50
327.95662
 51
357.335541
  0
ARC
  5
16A
100
AcDbEntity
  8
LAY-2
  6
CONTINUOUS
 62
     2
100
AcDbCircle
 10
828.417723
 20
2038.186026
 30
0.0
 40
0.4
100
AcDbArc
 50
2.66445
 51
90.0
  0
ARC
  5
16B
100
AcDbEntity
  8
LAY-2
  6
CONTINUOUS
 62
     2
100
AcDbCircle
 10
837.198993
 20
2038.186026
 30
0.0
 40
0.4
100
AcDbArc
 50
90.0
 51
177.33555
  0
ARC
  5
16C
100
AcDbEntity
  8
LAY-2
  6
CONTINUOUS
 62
     2
100
AcDbCircle
 10
853.012932
 20
2038.585626
 30
0.0
 40
8.20462
100
AcDbArc
 50
182.664451
 51
212.04337
  0
ARC
  5
16D
100
AcDbEntity
  8
LAY-2
  6
CONTINUOUS
 62
     2
100
AcDbCircle
 10
844.603812
 20
2038.585626
 30
0.0
 40
8.20462
100
AcDbArc
 50
327.95662
 51
357.335541
  0
ARC
  5
16E
100
AcDbEntity
  8
LAY-2
  6
CONTINUOUS
 62
     2
100
AcDbCircle
 10
844.417612
 20
2038.186026
 30
0.0
 40
0.4
100
AcDbArc
 50
2.66445
 51
90.0
  0
ARC
  5
16F
100
AcDbEntity
  8
LAY-2
  6
CONTINUOUS
 62
     2
100
AcDbCircle
 10
853.199012
 20
2038.186026
 30
0.0
 40
0.4
100
AcDbArc
 50
90.0
 51
177.33555
  0
ARC
  5
170
100
AcDbEntity
  8
LAY-2
  6
CONTINUOUS
 62
     2
100
AcDbCircle
 10
869.012951
 20
2038.585626
 30
0.0
 40
8.20462
100
AcDbArc
 50
182.664451
 51
212.04337
  0
ARC
  5
171
100
AcDbEntity
  8
LAY-2
  6
CONTINUOUS
 62
     2
100
AcDbCircle
 10
860.603712
 20
2038.585626
 30
0.0
 40
8.20462
100
AcDbArc
 50
327.95662
 51
357.335541
  0
ARC
  5
172
100
AcDbEntity
  8
LAY-2
  6
CONTINUOUS
 62
     2
100
AcDbCircle
 10
860.417632
 20
2038.186026
 30
0.0
 40
0.4
100
AcDbArc
 50
2.66445
 51
90.0
  0
ARC
  5
173
100
AcDbEntity
  8
LAY-2
  6
CONTINUOUS
 62
     2
100
AcDbCircle
 10
869.199081
 20
2038.186026
 30
0.0
 40
0.4
100
AcDbArc
 50
90.0
 51
177.33555
  0
ARC
  5
174
100
AcDbEntity
  8
LAY-2
  6
CONTINUOUS
 62
     2
100
AcDbCircle
 10
885.012903
 20
2038.585626
 30
0.0
 40
8.20462
100
AcDbArc
 50
182.664451
 51
212.04337
  0
ARC
  5
175
100
AcDbEntity
  8
LAY-2
  6
CONTINUOUS
 62
     2
100
AcDbCircle
 10
876.603661
 20
2038.585626
 30
0.0
 40
8.20462
100
AcDbArc
 50
327.95662
 51
357.335541
  0
ARC
  5
176
100
AcDbEntity
  8
LAY-2
  6
CONTINUOUS
 62
     2
100
AcDbCircle
 10
876.417591
 20
2038.186026
 30
0.0
 40
0.4
100
AcDbArc
 50
2.66445
 51
90.0
  0
ARC
  5
177
100
AcDbEntity
  8
LAY-2
  6
CONTINUOUS
 62
     2
100
AcDbCircle
 10
885.198983
 20
2038.186026
 30
0.0
 40
0.4
100
AcDbArc
 50
90.0
 51
177.33555
  0
ARC
  5
178
100
AcDbEntity
  8
LAY-2
  6
CONTINUOUS
 62
     2
100
AcDbCircle
 10
901.012863
 20
2038.585626
 30
0.0
 40
8.20462
100
AcDbArc
 50
182.664451
 51
212.04337
  0
ARC
  5
179
100
AcDbEntity
  8
LAY-2
  6
CONTINUOUS
 62
     2
100
AcDbCircle
 10
892.603743
 20
2038.585626
 30
0.0
 40
8.20462
100
AcDbArc
 50
327.95662
 51
357.335541
  0
ARC
  5
17A
100
AcDbEntity
  8
LAY-2
  6
CONTINUOUS
 62
     2
100
AcDbCircle
 10
892.417543
 20
2038.186026
 30
0.0
 40
0.4
100
AcDbArc
 50
2.66445
 51
90.0
  0
ARC
  5
17B
100
AcDbEntity
  8
LAY-2
  6
CONTINUOUS
 62
     2
100
AcDbCircle
 10
901.199063
 20
2038.186026
 30
0.0
 40
0.4
100
AcDbArc
 50
90.0
 51
177.33555
  0
ARC
  5
17C
100
AcDbEntity
  8
LAY-2
  6
CONTINUOUS
 62
     2
100
AcDbCircle
 10
917.013062
 20
2038.585626
 30
0.0
 40
8.20462
100
AcDbArc
 50
182.664451
 51
212.04337
  0
ARC
  5
17D
100
AcDbEntity
  8
LAY-2
  6
CONTINUOUS
 62
     2
100
AcDbCircle
 10
908.603692
 20
2038.585626
 30
0.0
 40
8.20462
100
AcDbArc
 50
327.95662
 51
357.335541
  0
ARC
  5
17E
100
AcDbEntity
  8
LAY-2
  6
CONTINUOUS
 62
     2
100
AcDbCircle
 10
908.417742
 20
2038.186026
 30
0.0
 40
0.4
100
AcDbArc
 50
2.66445
 51
90.0
  0
ARC
  5
17F
100
AcDbEntity
  8
LAY-2
  6
CONTINUOUS
 62
     2
100
AcDbCircle
 10
917.199012
 20
2038.186026
 30
0.0
 40
0.4
100
AcDbArc
 50
90.0
 51
177.33555
  0
ARC
  5
180
100
AcDbEntity
  8
LAY-2
  6
CONTINUOUS
 62
     2
100
AcDbCircle
 10
933.199051
 20
2038.186026
 30
0.0
 40
0.4
100
AcDbArc
 50
90.0
 51
177.33555
  0
ARC
  5
181
100
AcDbEntity
  8
LAY-2
  6
CONTINUOUS
 62
     2
100
AcDbCircle
 10
924.417652
 20
2038.186026
 30
0.0
 40
0.4
100
AcDbArc
 50
2.66445
 51
90.0
  0
ARC
  5
182
100
AcDbEntity
  8
LAY-2
  6
CONTINUOUS
 62
     2
100
AcDbCircle
 10
940.417451
 20
2038.186026
 30
0.0
 40
0.4
100
AcDbArc
 50
2.66445
 51
90.0
  0
ARC
  5
183
100
AcDbEntity
  8
LAY-2
  6
CONTINUOUS
 62
     2
100
AcDbCircle
 10
924.603752
 20
2038.585626
 30
0.0
 40
8.20462
100
AcDbArc
 50
327.95662
 51
357.335541
  0
ARC
  5
184
100
AcDbEntity
  8
LAY-2
  6
CONTINUOUS
 62
     2
100
AcDbCircle
 10
933.012951
 20
2038.585626
 30
0.0
 40
8.20462
100
AcDbArc
 50
182.664451
 51
212.04337
  0
ARC
  5
185
100
AcDbEntity
  8
LAY-2
  6
CONTINUOUS
 62
     2
100
AcDbCircle
 10
949.012753
 20
2038.585626
 30
0.0
 40
8.20462
100
AcDbArc
 50
182.664451
 51
212.04337
  0
ARC
  5
186
100
AcDbEntity
  8
LAY-2
  6
CONTINUOUS
 62
     2
100
AcDbCircle
 10
1061.012951
 20
2038.585626
 30
0.0
 40
8.20462
100
AcDbArc
 50
182.664451
 51
212.04337
  0
ARC
  5
187
100
AcDbEntity
  8
LAY-2
  6
CONTINUOUS
 62
     2
100
AcDbCircle
 10
1052.417652
 20
2038.186026
 30
0.0
 40
0.4
100
AcDbArc
 50
2.66445
 51
90.0
  0
ARC
  5
188
100
AcDbEntity
  8
LAY-2
  6
CONTINUOUS
 62
     2
100
AcDbCircle
 10
1036.603752
 20
2038.585626
 30
0.0
 40
8.20462
100
AcDbArc
 50
327.95662
 51
357.335541
  0
ARC
  5
189
100
AcDbEntity
  8
LAY-2
  6
CONTINUOUS
 62
     2
100
AcDbCircle
 10
1045.012852
 20
2038.585626
 30
0.0
 40
8.20462
100
AcDbArc
 50
182.664451
 51
212.04337
  0
ARC
  5
18A
100
AcDbEntity
  8
LAY-2
  6
CONTINUOUS
 62
     2
100
AcDbCircle
 10
1045.199052
 20
2038.186026
 30
0.0
 40
0.4
100
AcDbArc
 50
90.0
 51
177.33555
  0
ARC
  5
18B
100
AcDbEntity
  8
LAY-2
  6
CONTINUOUS
 62
     2
100
AcDbCircle
 10
1036.417552
 20
2038.186026
 30
0.0
 40
0.4
100
AcDbArc
 50
2.66445
 51
90.0
  0
ARC
  5
18C
100
AcDbEntity
  8
LAY-2
  6
CONTINUOUS
 62
     2
100
AcDbCircle
 10
1020.603553
 20
2038.585626
 30
0.0
 40
8.20462
100
AcDbArc
 50
327.95662
 51
357.335541
  0
ARC
  5
18D
100
AcDbEntity
  8
LAY-2
  6
CONTINUOUS
 62
     2
100
AcDbCircle
 10
1029.012853
 20
2038.585626
 30
0.0
 40
8.20462
100
AcDbArc
 50
182.664451
 51
212.04337
  0
ARC
  5
18E
100
AcDbEntity
  8
LAY-2
  6
CONTINUOUS
 62
     2
100
AcDbCircle
 10
1029.199153
 20
2038.186026
 30
0.0
 40
0.4
100
AcDbArc
 50
90.0
 51
177.33555
  0
ARC
  5
18F
100
AcDbEntity
  8
LAY-2
  6
CONTINUOUS
 62
     2
100
AcDbCircle
 10
1020.417553
 20
2038.186026
 30
0.0
 40
0.4
100
AcDbArc
 50
2.66445
 51
90.0
  0
ARC
  5
190
100
AcDbEntity
  8
LAY-2
  6
CONTINUOUS
 62
     2
100
AcDbCircle
 10
1004.603751
 20
2038.585626
 30
0.0
 40
8.20462
100
AcDbArc
 50
327.95662
 51
357.335541
  0
ARC
  5
191
100
AcDbEntity
  8
LAY-2
  6
CONTINUOUS
 62
     2
100
AcDbCircle
 10
1013.012953
 20
2038.585626
 30
0.0
 40
8.20462
100
AcDbArc
 50
182.664451
 51
212.04337
  0
ARC
  5
192
100
AcDbEntity
  8
LAY-2
  6
CONTINUOUS
 62
     2
100
AcDbCircle
 10
1013.199053
 20
2038.186026
 30
0.0
 40
0.4
100
AcDbArc
 50
90.0
 51
177.33555
  0
ARC
  5
193
100
AcDbEntity
  8
LAY-2
  6
CONTINUOUS
 62
     2
100
AcDbCircle
 10
1004.417651
 20
2038.186026
 30
0.0
 40
0.4
100
AcDbArc
 50
2.66445
 51
90.0
  0
ARC
  5
194
100
AcDbEntity
  8
LAY-2
  6
CONTINUOUS
 62
     2
100
AcDbCircle
 10
988.603652
 20
2038.585626
 30
0.0
 40
8.20462
100
AcDbArc
 50
327.95662
 51
357.335541
  0
ARC
  5
195
100
AcDbEntity
  8
LAY-2
  6
CONTINUOUS
 62
     2
100
AcDbCircle
 10
997.012751
 20
2038.585626
 30
0.0
 40
8.20462
100
AcDbArc
 50
182.664451
 51
212.04337
  0
ARC
  5
196
100
AcDbEntity
  8
LAY-2
  6
CONTINUOUS
 62
     2
100
AcDbCircle
 10
997.198951
 20
2038.186026
 30
0.0
 40
0.4
100
AcDbArc
 50
90.0
 51
177.33555
  0
ARC
  5
197
100
AcDbEntity
  8
LAY-2
  6
CONTINUOUS
 62
     2
100
AcDbCircle
 10
988.417752
 20
2038.186026
 30
0.0
 40
0.4
100
AcDbArc
 50
2.66445
 51
90.0
  0
ARC
  5
198
100
AcDbEntity
  8
LAY-2
  6
CONTINUOUS
 62
     2
100
AcDbCircle
 10
972.603752
 20
2038.585626
 30
0.0
 40
8.20462
100
AcDbArc
 50
327.95662
 51
357.335541
  0
ARC
  5
199
100
AcDbEntity
  8
LAY-2
  6
CONTINUOUS
 62
     2
100
AcDbCircle
 10
981.012952
 20
2038.585626
 30
0.0
 40
8.20462
100
AcDbArc
 50
182.664451
 51
212.04337
  0
ARC
  5
19A
100
AcDbEntity
  8
LAY-2
  6
CONTINUOUS
 62
     2
100
AcDbCircle
 10
981.199052
 20
2038.186026
 30
0.0
 40
0.4
100
AcDbArc
 50
90.0
 51
177.33555
  0
ARC
  5
19B
100
AcDbEntity
  8
LAY-2
  6
CONTINUOUS
 62
     2
100
AcDbCircle
 10
972.417652
 20
2038.186026
 30
0.0
 40
0.4
100
AcDbArc
 50
2.66445
 51
90.0
  0
ARC
  5
19C
100
AcDbEntity
  8
LAY-2
  6
CONTINUOUS
 62
     2
100
AcDbCircle
 10
956.417553
 20
2038.186026
 30
0.0
 40
0.4
100
AcDbArc
 50
2.66445
 51
90.0
  0
ARC
  5
19D
100
AcDbEntity
  8
LAY-2
  6
CONTINUOUS
 62
     2
100
AcDbCircle
 10
965.198953
 20
2038.186026
 30
0.0
 40
0.4
100
AcDbArc
 50
90.0
 51
177.33555
  0
ARC
  5
19E
100
AcDbEntity
  8
LAY-2
  6
CONTINUOUS
 62
     2
100
AcDbCircle
 10
949.199153
 20
2038.186026
 30
0.0
 40
0.4
100
AcDbArc
 50
90.0
 51
177.33555
  0
ARC
  5
19F
100
AcDbEntity
  8
LAY-2
  6
CONTINUOUS
 62
     2
100
AcDbCircle
 10
965.012853
 20
2038.585626
 30
0.0
 40
8.20462
100
AcDbArc
 50
182.664451
 51
212.04337
  0
ARC
  5
1A0
100
AcDbEntity
  8
LAY-2
  6
CONTINUOUS
 62
     2
100
AcDbCircle
 10
956.603653
 20
2038.585626
 30
0.0
 40
8.20462
100
AcDbArc
 50
327.95662
 51
357.335541
  0
ARC
  5
1A1
100
AcDbEntity
  8
LAY-2
  6
CONTINUOUS
 62
     2
100
AcDbCircle
 10
940.603551
 20
2038.585626
 30
0.0
 40
8.20462
100
AcDbArc
 50
327.95662
 51
357.335541
  0
ARC
  5
1A2
100
AcDbEntity
  8
LAY-2
  6
CONTINUOUS
 62
     2
100
AcDbCircle
 10
757.199093
 20
2038.186026
 30
0.0
 40
0.4
100
AcDbArc
 50
90.0
 51
177.33555
  0
LINE
  5
1A3
100
AcDbEntity
  8
LAY-2
  6
CONTINUOUS
 62
     2
100
AcDbLine
 10
572.847453
 20
2037.785926
 30
0.0
 11
580.769172
 21
2037.785926
 31
0.0
  0
LINE
  5
1A4
100
AcDbEntity
  8
LAY-2
  6
CONTINUOUS
 62
     2
100
AcDbLine
 10
574.058353
 20
2034.232926
 30
0.0
 11
579.558322
 21
2034.232926
 31
0.0
  0
LINE
  5
1A5
100
AcDbEntity
  8
LAY-2
  6
CONTINUOUS
 62
     2
100
AcDbLine
 10
596.769252
 20
2037.785926
 30
0.0
 11
588.847462
 21
2037.785926
 31
0.0
  0
LINE
  5
1A6
100
AcDbEntity
  8
LAY-2
  6
CONTINUOUS
 62
     2
100
AcDbLine
 10
595.558282
 20
2034.232926
 30
0.0
 11
590.058372
 21
2034.232926
 31
0.0
  0
LINE
  5
1A7
100
AcDbEntity
  8
LAY-2
  6
CONTINUOUS
 62
     2
100
AcDbLine
 10
568.749783
 20
2038.585626
 30
0.0
 11
572.417583
 21
2038.585626
 31
0.0
  0
LINE
  5
1A8
100
AcDbEntity
  8
LAY-2
  6
CONTINUOUS
 62
     2
100
AcDbLine
 10
581.199102
 20
2038.585626
 30
0.0
 11
588.417722
 21
2038.585626
 31
0.0
  0
LINE
  5
1A9
100
AcDbEntity
  8
LAY-2
  6
CONTINUOUS
 62
     2
100
AcDbLine
 10
604.847421
 20
2037.785926
 30
0.0
 11
612.769201
 21
2037.785926
 31
0.0
  0
LINE
  5
1AA
100
AcDbEntity
  8
LAY-2
  6
CONTINUOUS
 62
     2
100
AcDbLine
 10
606.058391
 20
2034.232926
 30
0.0
 11
611.558291
 21
2034.232926
 31
0.0
  0
LINE
  5
1AB
100
AcDbEntity
  8
LAY-2
  6
CONTINUOUS
 62
     2
100
AcDbLine
 10
597.198992
 20
2038.585626
 30
0.0
 11
604.417611
 21
2038.585626
 31
0.0
  0
LINE
  5
1AC
100
AcDbEntity
  8
LAY-2
  6
CONTINUOUS
 62
     2
100
AcDbLine
 10
613.199011
 20
2038.585626
 30
0.0
 11
620.417631
 21
2038.585626
 31
0.0
  0
LINE
  5
1AD
100
AcDbEntity
  8
LAY-2
  6
CONTINUOUS
 62
     2
100
AcDbLine
 10
568.749783
 20
2039.085526
 30
0.0
 11
568.749783
 21
2003.886025
 31
0.0
  0
LINE
  5
1AE
100
AcDbEntity
  8
LAY-2
  6
CONTINUOUS
 62
     2
100
AcDbLine
 10
568.749783
 20
2039.085526
 30
0.0
 11
570.756463
 21
2078.270625
 31
0.0
  0
ARC
  5
1AF
100
AcDbEntity
  8
LAY-2
  6
CONTINUOUS
 62
     2
100
AcDbCircle
 10
581.013022
 20
2038.585626
 30
0.0
 40
8.20462
100
AcDbArc
 50
182.664451
 51
212.04337
  0
ARC
  5
1B0
100
AcDbEntity
  8
LAY-2
  6
CONTINUOUS
 62
     2
100
AcDbCircle
 10
572.603723
 20
2038.585626
 30
0.0
 40
8.20462
100
AcDbArc
 50
327.95662
 51
357.335541
  0
ARC
  5
1B1
100
AcDbEntity
  8
LAY-2
  6
CONTINUOUS
 62
     2
100
AcDbCircle
 10
588.603802
 20
2038.585626
 30
0.0
 40
8.20462
100
AcDbArc
 50
327.95662
 51
357.335541
  0
ARC
  5
1B2
100
AcDbEntity
  8
LAY-2
  6
CONTINUOUS
 62
     2
100
AcDbCircle
 10
597.012922
 20
2038.585626
 30
0.0
 40
8.20462
100
AcDbArc
 50
182.664451
 51
212.04337
  0
ARC
  5
1B3
100
AcDbEntity
  8
LAY-2
  6
CONTINUOUS
 62
     2
100
AcDbCircle
 10
572.417583
 20
2038.186026
 30
0.0
 40
0.4
100
AcDbArc
 50
2.66445
 51
90.0
  0
ARC
  5
1B4
100
AcDbEntity
  8
LAY-2
  6
CONTINUOUS
 62
     2
100
AcDbCircle
 10
581.199102
 20
2038.186026
 30
0.0
 40
0.4
100
AcDbArc
 50
90.0
 51
177.33555
  0
ARC
  5
1B5
100
AcDbEntity
  8
LAY-2
  6
CONTINUOUS
 62
     2
100
AcDbCircle
 10
597.198992
 20
2038.186026
 30
0.0
 40
0.4
100
AcDbArc
 50
90.0
 51
177.33555
  0
ARC
  5
1B6
100
AcDbEntity
  8
LAY-2
  6
CONTINUOUS
 62
     2
100
AcDbCircle
 10
588.417722
 20
2038.186026
 30
0.0
 40
0.4
100
AcDbArc
 50
2.66445
 51
90.0
  0
ARC
  5
1B7
100
AcDbEntity
  8
LAY-2
  6
CONTINUOUS
 62
     2
100
AcDbCircle
 10
604.417611
 20
2038.186026
 30
0.0
 40
0.4
100
AcDbArc
 50
2.66445
 51
90.0
  0
ARC
  5
1B8
100
AcDbEntity
  8
LAY-2
  6
CONTINUOUS
 62
     2
100
AcDbCircle
 10
613.199011
 20
2038.186026
 30
0.0
 40
0.4
100
AcDbArc
 50
90.0
 51
177.33555
  0
ARC
  5
1B9
100
AcDbEntity
  8
LAY-2
  6
CONTINUOUS
 62
     2
100
AcDbCircle
 10
613.012931
 20
2038.585626
 30
0.0
 40
8.20462
100
AcDbArc
 50
182.664451
 51
212.04337
  0
ARC
  5
1BA
100
AcDbEntity
  8
LAY-2
  6
CONTINUOUS
 62
     2
100
AcDbCircle
 10
604.603691
 20
2038.585626
 30
0.0
 40
8.20462
100
AcDbArc
 50
327.95662
 51
357.335541
  0
ARC
  5
1BB
100
AcDbEntity
  8
LAY-2
  6
CONTINUOUS
 62
     2
100
AcDbCircle
 10
620.417631
 20
2038.186026
 30
0.0
 40
0.4
100
AcDbArc
 50
2.66445
 51
90.0
  0
ARC
  5
1BC
100
AcDbEntity
  8
LAY-2
  6
CONTINUOUS
 62
     2
100
AcDbCircle
 10
629.012823
 20
2038.585626
 30
0.0
 40
8.20462
100
AcDbArc
 50
182.664451
 51
212.04337
  0
ARC
  5
1BD
100
AcDbEntity
  8
LAY-2
  6
CONTINUOUS
 62
     2
100
AcDbCircle
 10
568.449703
 20
2003.886025
 30
0.0
 40
0.3
100
AcDbArc
 50
270.0
 51
0.0
  0
LINE
  5
1BE
100
AcDbEntity
  8
LAY-2
  6
CONTINUOUS
 62
     2
100
AcDbLine
 10
1171.749452
 20
2075.010825
 30
0.0
 11
1171.749452
 21
2078.285525
 31
0.0
  0
LINE
  5
1BF
100
AcDbEntity
  8
LAY-2
  6
CONTINUOUS
 62
     2
100
AcDbLine
 10
1171.576652
 20
2074.197525
 30
0.0
 11
1144.892953
 21
2014.264625
 31
0.0
  0
LINE
  5
1C0
100
AcDbEntity
  8
LAY-2
  6
CONTINUOUS
 62
     2
100
AcDbLine
 10
1171.449552
 20
2079.085925
 30
0.0
 11
1171.449552
 21
2078.585925
 31
0.0
  0
ARC
  5
1C1
100
AcDbEntity
  8
LAY-2
  6
CONTINUOUS
 62
     2
100
AcDbCircle
 10
1171.449552
 20
2078.285525
 30
0.0
 40
0.3
100
AcDbArc
 50
0.0
 51
90.0
  0
ARC
  5
1C2
100
AcDbEntity
  8
LAY-2
  6
CONTINUOUS
 62
     2
100
AcDbCircle
 10
1128.449151
 20
2021.585924
 30
0.0
 40
18.000002
100
AcDbArc
 50
270.0
 51
336.0
  0
ARC
  5
1C3
100
AcDbEntity
  8
LAY-2
  6
CONTINUOUS
 62
     2
100
AcDbCircle
 10
1169.749552
 20
2075.010825
 30
0.0
 40
2.0
100
AcDbArc
 50
336.0
 51
0.0
  0
LINE
  5
1C4
100
AcDbEntity
  8
LAY-2
  6
CONTINUOUS
 62
     2
100
AcDbLine
 10
1093.199053
 20
2038.585626
 30
0.0
 11
1100.417552
 21
2038.585626
 31
0.0
  0
LINE
  5
1C5
100
AcDbEntity
  8
LAY-2
  6
CONTINUOUS
 62
     2
100
AcDbLine
 10
1108.769252
 20
2037.785926
 30
0.0
 11
1100.847452
 21
2037.785926
 31
0.0
  0
LINE
  5
1C6
100
AcDbEntity
  8
LAY-2
  6
CONTINUOUS
 62
     2
100
AcDbLine
 10
1107.558252
 20
2034.232926
 30
0.0
 11
1102.058452
 21
2034.232926
 31
0.0
  0
LINE
  5
1C7
100
AcDbEntity
  8
LAY-2
  6
CONTINUOUS
 62
     2
100
AcDbLine
 10
1077.199051
 20
2038.585626
 30
0.0
 11
1084.417653
 21
2038.585626
 31
0.0
  0
LINE
  5
1C8
100
AcDbEntity
  8
LAY-2
  6
CONTINUOUS
 62
     2
100
AcDbLine
 10
1092.769253
 20
2037.785926
 30
0.0
 11
1084.847453
 21
2037.785926
 31
0.0
  0
LINE
  5
1C9
100
AcDbEntity
  8
LAY-2
  6
CONTINUOUS
 62
     2
100
AcDbLine
 10
1091.558153
 20
2034.232926
 30
0.0
 11
1086.058353
 21
2034.232926
 31
0.0
  0
LINE
  5
1CA
100
AcDbEntity
  8
LAY-2
  6
CONTINUOUS
 62
     2
100
AcDbLine
 10
1061.199051
 20
2038.585626
 30
0.0
 11
1068.417651
 21
2038.585626
 31
0.0
  0
LINE
  5
1CB
100
AcDbEntity
  8
LAY-2
  6
CONTINUOUS
 62
     2
100
AcDbLine
 10
1076.769351
 20
2037.785926
 30
0.0
 11
1068.847451
 21
2037.785926
 31
0.0
  0
LINE
  5
1CC
100
AcDbEntity
  8
LAY-2
  6
CONTINUOUS
 62
     2
100
AcDbLine
 10
1075.558351
 20
2034.232926
 30
0.0
 11
1070.058251
 21
2034.232926
 31
0.0
  0
LINE
  5
1CD
100
AcDbEntity
  8
LAY-2
  6
CONTINUOUS
 62
     2
100
AcDbLine
 10
1110.049752
 20
2003.585825
 30
0.0
 11
1128.449151
 21
2003.585825
 31
0.0
  0
LINE
  5
1CE
100
AcDbEntity
  8
LAY-2
  6
CONTINUOUS
 62
     2
100
AcDbLine
 10
1109.749552
 20
2039.085526
 30
0.0
 11
1109.749552
 21
2003.886025
 31
0.0
  0
LINE
  5
1CF
100
AcDbEntity
  8
LAY-2
  6
CONTINUOUS
 62
     2
100
AcDbLine
 10
1109.749552
 20
2039.085526
 30
0.0
 11
1107.742952
 21
2078.270625
 31
0.0
  0
LINE
  5
1D0
100
AcDbEntity
  8
LAY-2
  6
CONTINUOUS
 62
     2
100
AcDbLine
 10
1109.198952
 20
2038.585626
 30
0.0
 11
1109.749552
 21
2038.585626
 31
0.0
  0
ARC
  5
1D1
100
AcDbEntity
  8
LAY-2
  6
CONTINUOUS
 62
     2
100
AcDbCircle
 10
1100.603552
 20
2038.585626
 30
0.0
 40
8.20462
100
AcDbArc
 50
327.95662
 51
357.335541
  0
ARC
  5
1D2
100
AcDbEntity
  8
LAY-2
  6
CONTINUOUS
 62
     2
100
AcDbCircle
 10
1109.012852
 20
2038.585626
 30
0.0
 40
8.20462
100
AcDbArc
 50
182.664451
 51
212.04337
  0
ARC
  5
1D3
100
AcDbEntity
  8
LAY-2
  6
CONTINUOUS
 62
     2
100
AcDbCircle
 10
1109.198952
 20
2038.186026
 30
0.0
 40
0.4
100
AcDbArc
 50
90.0
 51
177.33555
  0
ARC
  5
1D4
100
AcDbEntity
  8
LAY-2
  6
CONTINUOUS
 62
     2
100
AcDbCircle
 10
1100.417552
 20
2038.186026
 30
0.0
 40
0.4
100
AcDbArc
 50
2.66445
 51
90.0
  0
ARC
  5
1D5
100
AcDbEntity
  8
LAY-2
  6
CONTINUOUS
 62
     2
100
AcDbCircle
 10
1084.603753
 20
2038.585626
 30
0.0
 40
8.20462
100
AcDbArc
 50
327.95662
 51
357.335541
  0
ARC
  5
1D6
100
AcDbEntity
  8
LAY-2
  6
CONTINUOUS
 62
     2
100
AcDbCircle
 10
1093.013053
 20
2038.585626
 30
0.0
 40
8.20462
100
AcDbArc
 50
182.664451
 51
212.04337
  0
ARC
  5
1D7
100
AcDbEntity
  8
LAY-2
  6
CONTINUOUS
 62
     2
100
AcDbCircle
 10
1093.199053
 20
2038.186026
 30
0.0
 40
0.4
100
AcDbArc
 50
90.0
 51
177.33555
  0
ARC
  5
1D8
100
AcDbEntity
  8
LAY-2
  6
CONTINUOUS
 62
     2
100
AcDbCircle
 10
1084.417653
 20
2038.186026
 30
0.0
 40
0.4
100
AcDbArc
 50
2.66445
 51
90.0
  0
ARC
  5
1D9
100
AcDbEntity
  8
LAY-2
  6
CONTINUOUS
 62
     2
100
AcDbCircle
 10
1068.603651
 20
2038.585626
 30
0.0
 40
8.20462
100
AcDbArc
 50
327.95662
 51
357.335541
  0
ARC
  5
1DA
100
AcDbEntity
  8
LAY-2
  6
CONTINUOUS
 62
     2
100
AcDbCircle
 10
1077.012951
 20
2038.585626
 30
0.0
 40
8.20462
100
AcDbArc
 50
182.664451
 51
212.04337
  0
ARC
  5
1DB
100
AcDbEntity
  8
LAY-2
  6
CONTINUOUS
 62
     2
100
AcDbCircle
 10
1077.199051
 20
2038.186026
 30
0.0
 40
0.4
100
AcDbArc
 50
90.0
 51
177.33555
  0
ARC
  5
1DC
100
AcDbEntity
  8
LAY-2
  6
CONTINUOUS
 62
     2
100
AcDbCircle
 10
1068.417651
 20
2038.186026
 30
0.0
 40
0.4
100
AcDbArc
 50
2.66445
 51
90.0
  0
ARC
  5
1DD
100
AcDbEntity
  8
LAY-2
  6
CONTINUOUS
 62
     2
100
AcDbCircle
 10
1052.603652
 20
2038.585626
 30
0.0
 40
8.20462
100
AcDbArc
 50
327.95662
 51
357.335541
  0
ARC
  5
1DE
100
AcDbEntity
  8
LAY-2
  6
CONTINUOUS
 62
     2
100
AcDbCircle
 10
1061.199051
 20
2038.186026
 30
0.0
 40
0.4
100
AcDbArc
 50
90.0
 51
177.33555
  0
ARC
  5
1DF
100
AcDbEntity
  8
LAY-2
  6
CONTINUOUS
 62
     2
100
AcDbCircle
 10
1110.049752
 20
2003.886025
 30
0.0
 40
0.3
100
AcDbArc
 50
180.0
 51
270.0
  0
LINE
  5
1E0
100
AcDbEntity
  8
LAY-2
  6
CONTINUOUS
 62
     2
100
AcDbLine
 10
1108.069852
 20
2078.585925
 30
0.0
 11
1108.069852
 21
2079.085925
 31
0.0
  0
ARC
  5
1E1
100
AcDbEntity
  8
LAY-2
  6
CONTINUOUS
 62
     2
100
AcDbCircle
 10
1108.042552
 20
2078.285525
 30
0.0
 40
0.3
100
AcDbArc
 50
90.0
 51
182.931652
  0
LINE
  5
1E2
100
AcDbEntity
  8
LAY-2
  6
CONTINUOUS
 62
     2
100
AcDbLine
 10
507.049733
 20
2079.085925
 30
0.0
 11
507.049733
 21
2078.585925
 31
0.0
  0
ARC
  5
1E3
100
AcDbEntity
  8
LAY-2
  6
CONTINUOUS
 62
     2
100
AcDbCircle
 10
507.049733
 20
2078.285525
 30
0.0
 40
0.3
100
AcDbArc
 50
90.0
 51
180.0
  0
LINE
  5
1E4
100
AcDbEntity
  8
LAY-2
  6
CONTINUOUS
 62
     2
100
AcDbLine
 10
570.429653
 20
2078.585925
 30
0.0
 11
570.429653
 21
2079.085925
 31
0.0
  0
ARC
  5
1E5
100
AcDbEntity
  8
LAY-2
  6
CONTINUOUS
 62
     2
100
AcDbCircle
 10
570.456813
 20
2078.285525
 30
0.0
 40
0.3
100
AcDbArc
 50
357.068359
 51
90.0
  0
LINE
  5
1E6
100
AcDbEntity
  8
LAY-2
  6
CONTINUOUS
 62
     2
100
AcDbLine
 10
507.049733
 20
2079.085925
 30
0.0
 11
570.429653
 21
2079.085925
 31
0.0
  0
LINE
  5
1E7
100
AcDbEntity
  8
LAY-2
  6
CONTINUOUS
 62
     6
100
AcDbLine
 10
541.749667
 20
2104.255498
 30
0.0
 11
539.249667
 21
2113.585625
 31
0.0
  0
LINE
  5
1E8
100
AcDbEntity
  8
LAY-2
  6
CONTINUOUS
 62
     6
100
AcDbLine
 10
536.749667
 20
2104.255498
 30
0.0
 11
539.249667
 21
2113.585625
 31
0.0
  0
LINE
  5
1E9
100
AcDbEntity
  8
LAY-2
  6
CONTINUOUS
 62
     6
100
AcDbLine
 10
536.749667
 20
2104.255498
 30
0.0
 11
536.749667
 21
2079.085925
 31
0.0
  0
LINE
  5
1EA
100
AcDbEntity
  8
LAY-2
  6
CONTINUOUS
 62
     6
100
AcDbLine
 10
541.749667
 20
2079.085925
 30
0.0
 11
541.749667
 21
2104.255498
 31
0.0
  0
LINE
  5
1EB
100
AcDbEntity
  8
LAY-2
  6
CONTINUOUS
 62
     6
100
AcDbLine
 10
524.749766
 20
2104.255498
 30
0.0
 11
522.249766
 21
2113.585625
 31
0.0
  0
LINE
  5
1EC
100
AcDbEntity
  8
LAY-2
  6
CONTINUOUS
 62
     6
100
AcDbLine
 10
519.749766
 20
2104.255498
 30
0.0
 11
522.249766
 21
2113.585625
 31
0.0
  0
LINE
  5
1ED
100
AcDbEntity
  8
LAY-2
  6
CONTINUOUS
 62
     6
100
AcDbLine
 10
519.749766
 20
2104.255498
 30
0.0
 11
519.749766
 21
2079.085925
 31
0.0
  0
LINE
  5
1EE
100
AcDbEntity
  8
LAY-2
  6
CONTINUOUS
 62
     6
100
AcDbLine
 10
524.749766
 20
2079.085925
 30
0.0
 11
524.749766
 21
2104.255498
 31
0.0
  0
LINE
  5
1EF
100
AcDbEntity
  8
LAY-2
  6
CONTINUOUS
 62
     2
100
AcDbLine
 10
1108.069852
 20
2079.085925
 30
0.0
 11
1171.449552
 21
2079.085925
 31
0.0
  0
LINE
  5
1F0
100
AcDbEntity
  8
LAY-2
  6
CONTINUOUS
 62
     2
100
AcDbLine
 10
1430.804693
 20
2051.373112
 30
0.0
 11
1462.804693
 21
2051.373112
 31
0.0
  0
LINE
  5
1F1
100
AcDbEntity
  8
LAY-2
  6
CONTINUOUS
 62
     2
100
AcDbLine
 10
1446.804693
 20
2079.085925
 30
0.0
 11
1430.804693
 21
2051.373112
 31
0.0
  0
LINE
  5
1F2
100
AcDbEntity
  8
LAY-2
  6
CONTINUOUS
 62
     2
100
AcDbLine
 10
1462.804693
 20
2051.373112
 30
0.0
 11
1446.804693
 21
2079.085925
 31
0.0
  0
TEXT
  5
1F3
100
AcDbEntity
  8
LAY-2
  6
CONTINUOUS
 62
     2
100
AcDbText
 10
1402.874948
 20
1998.500229
 30
0.0
 40
40.0
  1
ＷＬ
 41
0.945
  7
EXCADSTD
 72
     5
 11
1485.368948
 21
1998.500229
 31
0.0
100
AcDbText
  0
LINE
  5
1F4
100
AcDbEntity
  8
LAY-2
  6
EXLTYPE4
 62
     6
100
AcDbLine
 10
373.0
 20
2079.085925
 30
0.0
 11
1488.0
 21
2079.085925
 31
0.0
  0
DIMENSION
  5
201
100
AcDbEntity
  8
LAY-2
  6
CONTINUOUS
 62
     2
100
AcDbDimension
  2
*D14
 10
1171.449552
 20
2155.2
 30
0.0
 11
1236.449552
 21
2178.7
 31
0.0
 70
   160
  1
62
  3
STANDARD
100
AcDbAlignedDimension
 13
1108.069852
 23
2079.085925
 33
0.0
 14
1171.449552
 24
2079.085925
 34
0.0
100
AcDbRotatedDimension
1001
ACAD
1000
DSTYLE
1002
{
1070
     6
1000
_EX_NORM
1070
     7
1000
_EX_NORM
1070
    41
1040
30.0
1070
    42
1040
5.0
1070
    44
1040
10.0
1070
    73
1070
     0
1070
    74
1070
     0
1070
    75
1070
     0
1070
    76
1070
     0
1070
    77
1070
     1
1070
    78
1070
     8
1070
   140
1040
40.0
1070
   147
1040
3.5
1070
   173
1070
     1
1070
   176
1070
     3
1070
   177
1070
     3
1070
   178
1070
     2
1070
   271
1070
     2
1070
   279
1070
     2
1070
   280
1070
     2
1070
   287
1070
     5
1070
   340
1005
200
1002
}
  0
LINE
  5
202
100
AcDbEntity
  8
LAY-2
  6
CONTINUOUS
 62
     2
100
AcDbLine
 10
1589.0
 20
1386.635977
 30
0.0
 11
1588.5002
 21
1386.635977
 31
0.0
  0
ARC
  5
203
100
AcDbEntity
  8
LAY-2
  6
CONTINUOUS
 62
     2
100
AcDbCircle
 10
1587.9053
 20
1383.721177
 30
0.0
 40
0.6
100
AcDbArc
 50
279.39173
 51
352.35429
  0
LINE
  5
204
100
AcDbEntity
  8
LAY-2
  6
CONTINUOUS
 62
     2
100
AcDbLine
 10
1530.7131
 20
1385.638777
 30
0.0
 11
1588.004925
 21
1383.129506
 31
0.0
  0
LINE
  5
205
100
AcDbEntity
  8
LAY-2
  6
CONTINUOUS
 62
     2
100
AcDbLine
 10
1530.7131
 20
1421.532874
 30
0.0
 11
1588.004925
 21
1424.042145
 31
0.0
  0
ARC
  5
206
100
AcDbEntity
  8
LAY-2
  6
CONTINUOUS
 62
     2
100
AcDbCircle
 10
1531.7004
 20
1403.621279
 30
0.0
 40
18.000002
100
AcDbArc
 50
87.737104
 51
267.492177
  0
LINE
  5
207
100
AcDbEntity
  8
LAY-2
  6
CONTINUOUS
 62
     2
100
AcDbLine
 10
1589.0
 20
1420.535674
 30
0.0
 11
1588.5002
 21
1420.535674
 31
0.0
  0
ARC
  5
208
100
AcDbEntity
  8
LAY-2
  6
CONTINUOUS
 62
     2
100
AcDbCircle
 10
1587.9053
 20
1423.450474
 30
0.0
 40
0.6
100
AcDbArc
 50
7.64571
 51
80.60827
  0
LINE
  5
209
100
AcDbEntity
  8
LAY-2
  6
CONTINUOUS
 62
     2
100
AcDbLine
 10
1588.5002
 20
1383.641477
 30
0.0
 11
1588.5002
 21
1423.528538
 31
0.0
  0
LINE
  5
20A
100
AcDbEntity
  8
LAY-2
  6
CONTINUOUS
 62
     2
100
AcDbLine
 10
1589.0
 20
1420.535674
 30
0.0
 11
1589.0
 21
1386.635977
 31
0.0
  0
DIMENSION
  5
214
100
AcDbEntity
  8
LAY-3
  6
CONTINUOUS
 62
     3
100
AcDbDimension
  2
*D15
 10
1035.0
 20
1420.585925
 30
0.0
 11
1011.5
 21
1306.585724
 31
0.0
 70
   160
  1
%%c34
  3
STANDARD
100
AcDbAlignedDimension
 13
568.749783
 23
1386.585724
 33
0.0
 14
568.749783
 24
1420.585925
 34
0.0
 50
90.0
100
AcDbRotatedDimension
1001
ACAD
1000
DSTYLE
1002
{
1070
     6
1000
_EX_NORM
1070
     7
1000
_EX_NORM
1070
    41
1040
30.0
1070
    42
1040
0.0
1070
    44
1040
0.0
1070
    73
1070
     0
1070
    74
1070
     0
1070
    75
1070
     1
1070
    76
1070
     1
1070
    77
1070
     1
1070
    78
1070
     8
1070
   140
1040
40.0
1070
   147
1040
3.5
1070
   173
1070
     1
1070
   176
1070
     3
1070
   177
1070
     3
1070
   178
1070
     2
1070
   271
1070
     2
1070
   279
1070
     2
1070
   280
1070
     1
1070
   287
1070
     5
1070
   340
1005
200
1002
}
  0
DIMENSION
  5
21E
100
AcDbEntity
  8
LAY-3
  6
CONTINUOUS
 62
     3
100
AcDbDimension
  2
*D16
 10
539.249667
 20
2221.0
 30
0.0
 11
530.749717
 21
2244.5
 31
0.0
 70
   160
  3
STANDARD
100
AcDbAlignedDimension
 13
522.249766
 23
2113.585625
 33
0.0
 14
539.249667
 24
2113.585625
 34
0.0
100
AcDbRotatedDimension
1001
ACAD
1000
DSTYLE
1002
{
1070
     6
1000
_EX_NORM
1070
     7
1000
_EX_NONE
1070
    41
1040
30.0
1070
    42
1040
5.0
1070
    44
1040
10.0
1070
    73
1070
     0
1070
    74
1070
     0
1070
    75
1070
     0
1070
    76
1070
     0
1070
    77
1070
     1
1070
    78
1070
     8
1070
   140
1040
40.0
1070
   147
1040
3.5
1070
   173
1070
     1
1070
   176
1070
     3
1070
   177
1070
     3
1070
   178
1070
     2
1070
   271
1070
     2
1070
   279
1070
     2
1070
   280
1070
     0
1070
   287
1070
     5
1070
   340
1005
200
1002
}
  0
DIMENSION
  5
229
100
AcDbEntity
  8
LAY-3
  6
CONTINUOUS
 62
     3
100
AcDbDimension
  2
*D17
 10
1139.249667
 20
2221.0
 30
0.0
 11
839.249667
 21
2244.5
 31
0.0
 70
   160
  3
STANDARD
100
AcDbAlignedDimension
 13
539.249667
 23
2113.585625
 33
0.0
 14
1139.249667
 24
2113.585625
 34
0.0
100
AcDbRotatedDimension
1001
ACAD
1000
DSTYLE
1002
{
1070
     6
1000
_EX_NORM
1070
     7
1000
_EX_NORM
1070
    41
1040
30.0
1070
    42
1040
5.0
1070
    44
1040
10.0
1070
    73
1070
     0
1070
    74
1070
     0
1070
    75
1070
     1
1070
    76
1070
     0
1070
    77
1070
     1
1070
    78
1070
     8
1070
   140
1040
40.0
1070
   147
1040
3.5
1070
   173
1070
     1
1070
   176
1070
     3
1070
   177
1070
     3
1070
   178
1070
     2
1070
   271
1070
     2
1070
   279
1070
     2
1070
   280
1070
     0
1070
   287
1070
     5
1070
   340
1005
200
1002
}
  0
DIMENSION
  5
232
100
AcDbEntity
  8
LAY-3
  6
CONTINUOUS
 62
     3
100
AcDbDimension
  2
*D18
 10
1156.249569
 20
2221.0
 30
0.0
 11
1147.749618
 21
2244.5
 31
0.0
 70
   160
  3
STANDARD
100
AcDbAlignedDimension
 13
1139.249667
 23
2113.585625
 33
0.0
 14
1156.249569
 24
2113.585625
 34
0.0
100
AcDbRotatedDimension
1001
ACAD
1000
DSTYLE
1002
{
1070
     6
1000
_EX_NONE
1070
     7
1000
_EX_NORM
1070
    41
1040
30.0
1070
    42
1040
5.0
1070
    44
1040
10.0
1070
    73
1070
     0
1070
    74
1070
     0
1070
    75
1070
     1
1070
    76
1070
     0
1070
    77
1070
     1
1070
    78
1070
     8
1070
   140
1040
40.0
1070
   147
1040
3.5
1070
   173
1070
     1
1070
   176
1070
     3
1070
   177
1070
     3
1070
   178
1070
     2
1070
   271
1070
     2
1070
   279
1070
     2
1070
   280
1070
     0
1070
   287
1070
     5
1070
   340
1005
200
1002
}
  0
DIMENSION
  5
23E
100
AcDbEntity
  8
LAY-3
  6
CONTINUOUS
 62
     3
100
AcDbDimension
  2
*D19
 10
1171.749602
 20
1910.0
 30
0.0
 11
839.249667
 21
1933.5
 31
0.0
 70
   160
  3
STANDARD
100
AcDbAlignedDimension
 13
506.749733
 23
2118.0
 33
0.0
 14
1171.749602
 24
2118.0
 34
0.0
100
AcDbRotatedDimension
1001
ACAD
1000
DSTYLE
1002
{
1070
     6
1000
_EX_NORM
1070
     7
1000
_EX_NORM
1070
    41
1040
30.0
1070
    42
1040
47.0
1070
    44
1040
10.0
1070
    73
1070
     0
1070
    74
1070
     0
1070
    75
1070
     0
1070
    76
1070
     0
1070
    77
1070
     1
1070
    78
1070
     8
1070
   140
1040
40.0
1070
   147
1040
3.5
1070
   173
1070
     1
1070
   176
1070
     3
1070
   177
1070
     3
1070
   178
1070
     2
1070
   271
1070
     2
1070
   279
1070
     2
1070
   280
1070
     0
1070
   287
1070
     5
1070
   340
1005
200
1002
}
  0
DIMENSION
  5
24A
100
AcDbEntity
  8
LAY-3
  6
CONTINUOUS
 62
     3
100
AcDbDimension
  2
*D20
 10
1309.0
 20
2079.085925
 30
0.0
 11
1285.5
 21
1918.585825
 31
0.0
 70
   160
  3
STANDARD
100
AcDbAlignedDimension
 13
1128.449151
 23
2003.585825
 33
0.0
 14
1170.2
 24
2079.085925
 34
0.0
 50
90.0
100
AcDbRotatedDimension
1001
ACAD
1000
DSTYLE
1002
{
1070
     6
1000
_EX_NORM
1070
     7
1000
_EX_NORM
1070
    41
1040
30.0
1070
    42
1040
5.0
1070
    44
1040
10.0
1070
    73
1070
     0
1070
    74
1070
     0
1070
    75
1070
     0
1070
    76
1070
     0
1070
    77
1070
     1
1070
    78
1070
     8
1070
   140
1040
40.0
1070
   147
1040
3.5
1070
   173
1070
     1
1070
   176
1070
     3
1070
   177
1070
     3
1070
   178
1070
     2
1070
   271
1070
     2
1070
   279
1070
     2
1070
   280
1070
     1
1070
   287
1070
     5
1070
   340
1005
200
1002
}
  0
DIMENSION
  5
256
100
AcDbEntity
  8
LAY-3
  6
CONTINUOUS
 62
     3
100
AcDbDimension
  2
*D21
 10
1252.0
 20
2079.085925
 30
0.0
 11
1228.5
 21
1936.586024
 31
0.0
 70
   160
  3
STANDARD
100
AcDbAlignedDimension
 13
1159.031953
 23
2021.586024
 33
0.0
 14
1210.0
 24
2079.085925
 34
0.0
 50
90.0
100
AcDbRotatedDimension
1001
ACAD
1000
DSTYLE
1002
{
1070
     6
1000
_EX_NORM
1070
     7
1000
_EX_NORM
1070
    41
1040
30.0
1070
    42
1040
5.0
1070
    44
1040
10.0
1070
    73
1070
     0
1070
    74
1070
     0
1070
    75
1070
     0
1070
    76
1070
     0
1070
    77
1070
     1
1070
    78
1070
     8
1070
   140
1040
40.0
1070
   147
1040
3.5
1070
   173
1070
     1
1070
   176
1070
     3
1070
   177
1070
     3
1070
   178
1070
     2
1070
   271
1070
     2
1070
   279
1070
     2
1070
   280
1070
     1
1070
   287
1070
     5
1070
   340
1005
200
1002
}
  0
DIMENSION
  5
262
100
AcDbEntity
  8
LAY-3
  6
CONTINUOUS
 62
     3
100
AcDbDimension
  2
*D22
 10
1220.2
 20
1424.085825
 30
0.0
 11
1196.7
 21
1318.085826
 31
0.0
 70
   160
  3
STANDARD
100
AcDbAlignedDimension
 13
1151.249753
 23
1383.085826
 33
0.0
 14
1151.249753
 24
1424.085825
 34
0.0
 50
90.0
100
AcDbRotatedDimension
1001
ACAD
1000
DSTYLE
1002
{
1070
     6
1000
_EX_NORM
1070
     7
1000
_EX_NORM
1070
    41
1040
30.0
1070
    42
1040
5.0
1070
    44
1040
10.0
1070
    73
1070
     0
1070
    74
1070
     0
1070
    75
1070
     0
1070
    76
1070
     0
1070
    77
1070
     1
1070
    78
1070
     8
1070
   140
1040
40.0
1070
   147
1040
3.5
1070
   173
1070
     1
1070
   176
1070
     3
1070
   177
1070
     3
1070
   178
1070
     2
1070
   271
1070
     2
1070
   279
1070
     2
1070
   280
1070
     1
1070
   287
1070
     5
1070
   340
1005
200
1002
}
  0
LEADER
  5
263
100
AcDbEntity
  8
LAY-3
  6
CONTINUOUS
 62
     6
100
AcDbLeader
  3
STANDARD
 73
     3
 74
     1
 75
     0
 40
0.0
 76
     2
 10
1608.81807
 20
1406.085826
 30
0.0
 10
1662.61807
 20
1501.891797
 30
0.0
 77
     6
1001
ACAD
1000
DSTYLE
1002
{
1070
    41
1040
35.0
1070
     5
1000
_EX_NORM
1070
     6
1000
_EX_NORM
1070
     7
1000
_EX_NORM
1070
   341
1005
2B
1002
}
  0
LINE
  5
264
100
AcDbEntity
  8
LAY-3
  6
CONTINUOUS
 62
     6
100
AcDbLine
 10
1662.61807
 20
1501.891797
 30
0.0
 11
1817.61807
 21
1501.891797
 31
0.0
  0
TEXT
  5
265
100
AcDbEntity
  8
LAY-3
  6
CONTINUOUS
 62
     2
100
AcDbText
 10
1661.31807
 20
1501.891797
 30
0.0
 40
40.0
  1
φ５×５０
 41
0.672
  7
EXCADSTD
 72
     5
 11
1821.31807
 21
1501.891797
 31
0.0
100
AcDbText
  0
LINE
  5
266
100
AcDbEntity
  8
LAY-3
  6
CONTINUOUS
 62
     2
100
AcDbLine
 10
1589.0
 20
1527.085826
 30
0.0
 11
1561.287187
 21
1543.085826
 31
0.0
  0
LINE
  5
267
100
AcDbEntity
  8
LAY-3
  6
CONTINUOUS
 62
     2
100
AcDbLine
 10
1561.287187
 20
1543.085826
 30
0.0
 11
1561.287187
 21
1511.085826
 31
0.0
  0
LINE
  5
268
100
AcDbEntity
  8
LAY-3
  6
CONTINUOUS
 62
     2
100
AcDbLine
 10
1561.287187
 20
1511.085826
 30
0.0
 11
1589.0
 21
1527.085826
 31
0.0
  0
TEXT
  5
269
100
AcDbEntity
  8
LAY-3
  6
CONTINUOUS
 62
     2
100
AcDbText
 10
1466.909051
 20
1507.425309
 30
0.0
 40
40.0
  1
ＷＬ
 41
0.945
  7
EXCADSTD
 72
     5
 11
1549.403051
 21
1507.425309
 31
0.0
100
AcDbText
  0
ENDSEC
  0
SECTION
  2
OBJECTS
  0
DICTIONARY
  5
19
100
AcDbDictionary
  3
ACAD_GROUP
350
1A
  3
ACAD_MLINESTYLE
350
1B
  0
DICTIONARY
  5
1A
102
{ACAD_REACTORS
330
19
102
}
100
AcDbDictionary
  0
DICTIONARY
  5
1B
102
{ACAD_REACTORS
330
19
102
}
100
AcDbDictionary
  3
STANDARD
350
1C
  0
MLINESTYLE
  5
1C
102
{ACAD_REACTORS
330
1B
102
}
100
AcDbMlineStyle
  2
Standard
 70
     0
  3

 62
     0
 51
90.0
 52
90.0
 71
     2
 49
0.5
 62
   256
  6
ByLayer
 49
-0.5
 62
   256
  6
ByLayer
  0
ENDSEC
  0
EOF
