  0
SECTION
  2
HEADER
  9
$ACADVER
  1
AC1014
  9
$ACADMAINTVER
 70
     0
  9
$DWGCODEPAGE
  3
ANSI_932
  9
$INSBASE
 10
0.0
 20
0.0
 30
0.0
  9
$EXTMIN
 10
-0.1
 20
11.5
 30
0.0
  9
$EXTMAX
 10
199.9
 20
291.5
 30
0.0
  9
$LIMMIN
 10
0.0
 20
0.0
  9
$LIMMAX
 10
210.0
 20
297.0
  9
$ORTHOMODE
 70
     0
  9
$REGENMODE
 70
     1
  9
$FILLMODE
 70
     1
  9
$QTEXTMODE
 70
     0
  9
$MIRRTEXT
 70
     1
  9
$DRAGMODE
 70
     2
  9
$LTSCALE
 40
1.0
  9
$OSMODE
 70
     0
  9
$ATTMODE
 70
     1
  9
$TEXTSIZE
 40
0.2
  9
$TRACEWID
 40
0.05
  9
$TEXTSTYLE
  7
STANDARD
  9
$CLAYER
  8
LAY-2
  9
$CELTYPE
  6
CONTINUOUS
  9
$CECOLOR
 62
   256
  9
$CELTSCALE
 40
1.0
  9
$DELOBJ
 70
     1
  9
$DISPSILH
 70
     0
  9
$DIMSCALE
 40
1.0
  9
$DIMASZ
 40
0.18
  9
$DIMEXO
 40
0.0625
  9
$DIMDLI
 40
0.38
  9
$DIMRND
 40
0.0
  9
$DIMDLE
 40
0.0
  9
$DIMEXE
 40
0.18
  9
$DIMTP
 40
0.0
  9
$DIMTM
 40
0.0
  9
$DIMTXT
 40
0.18
  9
$DIMCEN
 40
0.09
  9
$DIMTSZ
 40
0.0
  9
$DIMTOL
 70
     0
  9
$DIMLIM
 70
     0
  9
$DIMTIH
 70
     1
  9
$DIMTOH
 70
     1
  9
$DIMSE1
 70
     0
  9
$DIMSE2
 70
     0
  9
$DIMTAD
 70
     0
  9
$DIMZIN
 70
     0
  9
$DIMBLK
  1

  9
$DIMASO
 70
     1
  9
$DIMSHO
 70
     1
  9
$DIMPOST
  1

  9
$DIMAPOST
  1

  9
$DIMALT
 70
     0
  9
$DIMALTD
 70
     2
  9
$DIMALTF
 40
25.4
  9
$DIMLFAC
 40
1.0
  9
$DIMTOFL
 70
     0
  9
$DIMTVP
 40
0.0
  9
$DIMTIX
 70
     0
  9
$DIMSOXD
 70
     0
  9
$DIMSAH
 70
     0
  9
$DIMBLK1
  1

  9
$DIMBLK2
  1

  9
$DIMSTYLE
  2
STANDARD
  9
$DIMCLRD
 70
     0
  9
$DIMCLRE
 70
     0
  9
$DIMCLRT
 70
     0
  9
$DIMTFAC
 40
1.0
  9
$DIMGAP
 40
0.09
  9
$DIMJUST
 70
     0
  9
$DIMSD1
 70
     0
  9
$DIMSD2
 70
     0
  9
$DIMTOLJ
 70
     1
  9
$DIMTZIN
 70
     0
  9
$DIMALTZ
 70
     0
  9
$DIMALTTZ
 70
     0
  9
$DIMFIT
 70
     3
  9
$DIMUPT
 70
     0
  9
$DIMUNIT
 70
     2
  9
$DIMDEC
 70
     4
  9
$DIMTDEC
 70
     4
  9
$DIMALTU
 70
     2
  9
$DIMALTTD
 70
     2
  9
$DIMTXSTY
  7
STANDARD
  9
$DIMAUNIT
 70
     0
  9
$LUNITS
 70
     2
  9
$LUPREC
 70
     4
  9
$SKETCHINC
 40
0.1
  9
$FILLETRAD
 40
0.0
  9
$AUNITS
 70
     0
  9
$AUPREC
 70
     0
  9
$MENU
  1
acad
  9
$ELEVATION
 40
0.0
  9
$PELEVATION
 40
0.0
  9
$THICKNESS
 40
0.0
  9
$LIMCHECK
 70
     0
  9
$BLIPMODE
 70
     1
  9
$CHAMFERA
 40
0.0
  9
$CHAMFERB
 40
0.0
  9
$CHAMFERC
 40
0.0
  9
$CHAMFERD
 40
0.0
  9
$SKPOLY
 70
     0
  9
$TDCREATE
 40
2455891.162156181
  9
$TDUPDATE
 40
2455891.162156181
  9
$TDINDWG
 40
0.0000000000
  9
$TDUSRTIMER
 40
0.0000000000
  9
$USRTIMER
 70
     1
  9
$ANGBASE
 50
0.0
  9
$ANGDIR
 70
     0
  9
$PDMODE
 70
     0
  9
$PDSIZE
 40
0.0
  9
$PLINEWID
 40
0.0
  9
$COORDS
 70
     1
  9
$SPLFRAME
 70
     0
  9
$SPLINETYPE
 70
     6
  9
$SPLINESEGS
 70
     8
  9
$ATTDIA
 70
     0
  9
$ATTREQ
 70
     1
  9
$HANDLING
 70
     1
  9
$HANDSEED
  5
3AE
  9
$SURFTAB1
 70
     6
  9
$SURFTAB2
 70
     6
  9
$SURFTYPE
 70
     6
  9
$SURFU
 70
     6
  9
$SURFV
 70
     6
  9
$UCSNAME
  2

  9
$UCSORG
 10
0.0
 20
0.0
 30
0.0
  9
$UCSXDIR
 10
1.0
 20
0.0
 30
0.0
  9
$UCSYDIR
 10
0.0
 20
1.0
 30
0.0
  9
$PUCSNAME
  2

  9
$PUCSORG
 10
0.0
 20
0.0
 30
0.0
  9
$PUCSXDIR
 10
1.0
 20
0.0
 30
0.0
  9
$PUCSYDIR
 10
0.0
 20
1.0
 30
0.0
  9
$USERI1
 70
     0
  9
$USERI2
 70
     0
  9
$USERI3
 70
     0
  9
$USERI4
 70
     0
  9
$USERI5
 70
     0
  9
$USERR1
 40
0.0
  9
$USERR2
 40
0.0
  9
$USERR3
 40
0.0
  9
$USERR4
 40
0.0
  9
$USERR5
 40
0.0
  9
$WORLDVIEW
 70
     1
  9
$SHADEDGE
 70
     3
  9
$SHADEDIF
 70
    70
  9
$TILEMODE
 70
     1
  9
$MAXACTVP
 70
    16
  9
$PINSBASE
 10
0.0
 20
0.0
 30
0.0
  9
$PLIMCHECK
 70
     0
  9
$PEXTMIN
 10
1.000000E+20
 20
1.000000E+20
 30
1.000000E+20
  9
$PEXTMAX
 10
-1.000000E+20
 20
-1.000000E+20
 30
-1.000000E+20
  9
$PLIMMIN
 10
0.0
 20
0.0
  9
$PLIMMAX
 10
12.0
 20
9.0
  9
$UNITMODE
 70
     0
  9
$VISRETAIN
 70
     0
  9
$PLINEGEN
 70
     1
  9
$PSLTSCALE
 70
     0
  9
$TREEDEPTH
 70
  3020
  9
$PICKSTYLE
 70
     1
  9
$CMLSTYLE
  2
Standard
  9
$CMLJUST
 70
     0
  9
$CMLSCALE
 40
1.0
  9
$PROXYGRAPHICS
 70
     0
  9
$MEASUREMENT
 70
     0
  0
ENDSEC
  0
SECTION
  2
CLASSES
  0
CLASS
  1
LWPOLYLINE
  2
AcDbPolyline
  3
"AutoCAD"
 90
        0
280
     0
281
     1
  0
CLASS
  1
IMAGE
  2
AcDbRasterImage
  3
ISM
 90
      127
280
     0
281
     1
  0
CLASS
  1
OLE2FRAME
  2
AcDbOle2Frame
  3
""
 90
        0
280
     0
281
     1
  0
CLASS
  1
HATCH
  2
AcDbHatch
  3
"ACAD_SEDONA"
 90
        0
280
     0
281
     1
  0
CLASS
  1
DICTIONARYVAR
  2
AcDbDictionaryVar
  3
"AutoCAD"
 90
        0
280
     0
281
     0
  0
CLASS
  1
RASTERVARIABLES
  2
AcDbRasterVariables
  3
ISM
 90
        0
280
     0
281
     0
  0
CLASS
  1
IMAGEDEF
  2
AcDbRasterImageDef
  3
ISM
 90
        0
280
     0
281
     0
  0
CLASS
  1
IMAGEDEF_REACTOR
  2
AcDbRasterImageDefReactor
  3
ISM
 90
        1
280
     0
281
     0
  0
CLASS
  1
IDBUFFER
  2
AcDbIdBuffer
  3
"Acad"
 90
        0
280
     0
281
     0
  0
CLASS
  1
SPATIAL_FILTER
  2
AcDbSpatialFilter
  3
"Acad"
 90
        0
280
     0
281
     0
  0
CLASS
  1
XRECORD
  2
AcDbXrecord
  3
"<Built In>"
 90
        0
280
     0
281
     0
  0
CLASS
  1
SORTENTSTABLE
  2
AcDbSortentsTable
  3
"AutoCAD"
 90
        0
280
     0
281
     0
  0
CLASS
  1
LAYER_INDEX
  2
AcDbLayerIndex
  3
"Acad"
 90
        0
280
     0
281
     0
  0
CLASS
  1
SPATIAL_INDEX
  2
AcDbSpatialIndex
  3
"Acad"
 90
        0
280
     0
281
     0
  0
CLASS
  1
OBJECT_PTR
  2
CAseDLPNTableRecord
  3
"ASE-LPNTableRecord"
 90
        1
280
     0
281
     0
  0
CLASS
  1
LAYOUT
  2
AcDbLayout
  3
"AutoCAD 2000"
 90
        1
280
     0
281
     0
  0
CLASS
  1
PLOTSETTINGS
  2
AcDbPlotSettings
  3
"AutoCAD 2000"
 90
        1
280
     0
281
     0
  0
CLASS
  1
ACDBDICTIONARYWDFLT
  2
AcDbDictionaryWithDefault
  3
"AutoCAD 2000"
 90
        1
280
     0
281
     0
  0
CLASS
  1
ACDBPLACEHOLDER
  2
AcDbPlaceHolder
  3
"AutoCAD 2000"
 90
        1
280
     0
281
     0
  0
CLASS
  1
VBA_PROJECT
  2
AcDbVbaProject
  3
"acadvba"
 90
        1
280
     0
281
     0
  0
CLASS
  1
WIPEOUT
  2
AcDbWipeout
  3
WipeOut|AutoCAD Express Tool|expresstools@autodesk.com
 90
      127
280
     0
281
     1
  0
CLASS
  1
WIPEOUTVARIABLES
  2
AcDbWipeoutVariables
  3
WipeOut|AutoCAD Express Tool|expresstools@autodesk.com
 90
        0
280
     0
281
     0
  0
CLASS
  1
RTEXT
  2
RText
  3
RText|AutoCAD Express Tool|expresstools@autodesk.com
 90
        0
280
     0
281
     1
  0
CLASS
  1
ARCALIGNEDTEXT
  2
AcDbArcAlignedText
  3
ATEXT|AutoCAD Express Tool|expresstools@autodesk.com
 90
        0
280
     0
281
     1
  0
ENDSEC
  0
SECTION
  2
TABLES
  0
TABLE
  2
VPORT
  5
7
100
AcDbSymbolTable
 70
     1
  0
VPORT
  5
15
100
AcDbSymbolTableRecord
100
AcDbViewportTableRecord
  2
*ACTIVE
 70
     0
 10
0.0
 20
0.0
 11
1.0
 21
1.0
 12
999.0
 22
1515.0
 13
0.0
 23
0.0
 14
1.0
 24
1.0
 15
0.0
 25
0.0
 16
0.0
 26
0.0
 36
1.0
 17
0.0
 27
0.0
 37
0.0
 40
2800.0
 41
1.722533
 42
50.0
 43
0.0
 44
0.0
 50
0.0
 51
0.0
 71
     0
 72
   100
 73
     1
 74
     1
 75
     0
 76
     0
 77
     0
 78
     0
  0
ENDTAB
  0
TABLE
  2
LTYPE
  5
4
100
AcDbSymbolTable
 70
    12
  0
LTYPE
  5
11
100
AcDbSymbolTableRecord
100
AcDbLinetypeTableRecord
  2
BYBLOCK
 70
    64
  3

 72
    65
 73
     0
 40
0.0
  0
LTYPE
  5
12
100
AcDbSymbolTableRecord
100
AcDbLinetypeTableRecord
  2
BYLAYER
 70
    64
  3

 72
    65
 73
     0
 40
0.0
  0
LTYPE
  5
13
100
AcDbSymbolTableRecord
100
AcDbLinetypeTableRecord
  2
CONTINUOUS
 70
    64
  3
実線
 72
    65
 73
     0
 40
0.0
  0
LTYPE
  5
1D
100
AcDbSymbolTableRecord
100
AcDbLinetypeTableRecord
  2
EXLTYPE1
 70
    64
  3
破線
 72
    65
 73
     2
 40
3.0
 49
2.0
 74
     0
 49
-1.0
 74
     0
  0
LTYPE
  5
1E
100
AcDbSymbolTableRecord
100
AcDbLinetypeTableRecord
  2
EXLTYPE2
 70
    64
  3
点線
 72
    65
 73
     2
 40
2.0
 49
1.0
 74
     0
 49
-1.0
 74
     0
  0
LTYPE
  5
1F
100
AcDbSymbolTableRecord
100
AcDbLinetypeTableRecord
  2
EXLTYPE3
 70
    64
  3
一点鎖線
 72
    65
 73
     4
 40
10.0
 49
7.0
 74
     0
 49
-1.0
 74
     0
 49
1.0
 74
     0
 49
-1.0
 74
     0
  0
LTYPE
  5
20
100
AcDbSymbolTableRecord
100
AcDbLinetypeTableRecord
  2
EXLTYPE4
 70
    64
  3
二点鎖線
 72
    65
 73
     6
 40
12.0
 49
7.0
 74
     0
 49
-1.0
 74
     0
 49
1.0
 74
     0
 49
-1.0
 74
     0
 49
1.0
 74
     0
 49
-1.0
 74
     0
  0
LTYPE
  5
21
100
AcDbSymbolTableRecord
100
AcDbLinetypeTableRecord
  2
EXLTYPE5
 70
    64
  3
三点鎖線
 72
    65
 73
     8
 40
37.0
 49
30.0
 74
     0
 49
-1.0
 74
     0
 49
1.0
 74
     0
 49
-1.0
 74
     0
 49
1.0
 74
     0
 49
-1.0
 74
     0
 49
1.0
 74
     0
 49
-1.0
 74
     0
  0
LTYPE
  5
22
100
AcDbSymbolTableRecord
100
AcDbLinetypeTableRecord
  2
EXLTYPE6
 70
    64
  3
四点鎖線
 72
    65
 73
    10
 40
39.0
 49
30.0
 74
     0
 49
-1.0
 74
     0
 49
1.0
 74
     0
 49
-1.0
 74
     0
 49
1.0
 74
     0
 49
-1.0
 74
     0
 49
1.0
 74
     0
 49
-1.0
 74
     0
 49
1.0
 74
     0
 49
-1.0
 74
     0
  0
LTYPE
  5
23
100
AcDbSymbolTableRecord
100
AcDbLinetypeTableRecord
  2
EXLTYPE7
 70
    64
  3
一点鎖線2
 72
    65
 73
     4
 40
7.0
 49
5.0
 74
     0
 49
-0.8
 74
     0
 49
0.4
 74
     0
 49
-0.8
 74
     0
  0
LTYPE
  5
24
100
AcDbSymbolTableRecord
100
AcDbLinetypeTableRecord
  2
EXLTYPE8
 70
    64
  3
破線3
 72
    65
 73
     2
 40
1.27
 49
0.635
 74
     0
 49
-0.635
 74
     0
  0
LTYPE
  5
25
100
AcDbSymbolTableRecord
100
AcDbLinetypeTableRecord
  2
EXLTYPE9
 70
    64
  3
破線2
 72
    65
 73
     2
 40
2.38125
 49
1.5875
 74
     0
 49
-0.79375
 74
     0
  0
ENDTAB
  0
TABLE
  2
LAYER
  5
2
100
AcDbSymbolTable
 70
     4
  0
LAYER
  5
14
100
AcDbSymbolTableRecord
100
AcDbLayerTableRecord
  2
0
 70
     0
 62
     7
  6
CONTINUOUS
  0
LAYER
  5
28
100
AcDbSymbolTableRecord
100
AcDbLayerTableRecord
  2
LAY-1
 70
    64
 62
     7
  6
CONTINUOUS
  0
LAYER
  5
29
100
AcDbSymbolTableRecord
100
AcDbLayerTableRecord
  2
LAY-2
 70
    64
 62
     7
  6
CONTINUOUS
  0
LAYER
  5
2A
100
AcDbSymbolTableRecord
100
AcDbLayerTableRecord
  2
LAY-3
 70
    64
 62
     7
  6
CONTINUOUS
  0
ENDTAB
  0
TABLE
  2
STYLE
  5
3
100
AcDbSymbolTable
 70
     5
  0
STYLE
  5
17
100
AcDbSymbolTableRecord
100
AcDbTextStyleTableRecord
  2
STANDARD
 70
     0
 40
0.0
 41
1.0
 50
0.0
 71
     0
 42
0.0
  3
monotxt
  4
extfont
  0
STYLE
  5
26
100
AcDbSymbolTableRecord
100
AcDbTextStyleTableRecord
  2
EXCADSTD
 70
    64
 40
0.0
 41
1.0
 50
0.0
 71
     0
 42
0.2
  3
monotxt
  4
extfont
  0
STYLE
  5
27
100
AcDbSymbolTableRecord
100
AcDbTextStyleTableRecord
  2
EXCADVERT
 70
    68
 40
0.0
 41
1.0
 50
0.0
 71
     0
 42
0.286885
  3
monotxt
  4
extfont
  0
STYLE
  5
AC
100
AcDbSymbolTableRecord
100
AcDbTextStyleTableRecord
  2
EXCADTTF1
 70
    64
 40
0.0
 41
1.0
 50
0.0
 71
     0
 42
0.2
  3
MS Gothic.ttf
  4

1001
ACAD
1000
MS Gothic
1071
    32817
  0
STYLE
  5
327
100
AcDbSymbolTableRecord
100
AcDbTextStyleTableRecord
  2
EXCADDIM1
 70
    64
 40
0.0
 41
0.84
 50
0.0
 71
     0
 42
0.2
  3
monotxt
  4
extfont
  0
ENDTAB
  0
TABLE
  2
VIEW
  5
5
100
AcDbSymbolTable
 70
     0
  0
ENDTAB
  0
TABLE
  2
UCS
  5
6
100
AcDbSymbolTable
 70
     0
  0
ENDTAB
  0
TABLE
  2
APPID
  5
8
100
AcDbSymbolTable
 70
     1
  0
APPID
  5
16
100
AcDbSymbolTableRecord
100
AcDbRegAppTableRecord
  2
ACAD
 70
     0
  0
ENDTAB
  0
TABLE
  2
DIMSTYLE
  5
9
100
AcDbSymbolTable
 70
     1
  0
DIMSTYLE
105
18
100
AcDbSymbolTableRecord
100
AcDbDimStyleTableRecord
  2
STANDARD
 70
     0
  3

  4

  5

  6

  7

 40
1.0
 41
0.18
 42
0.0625
 43
0.38
 44
0.18
 45
0.0
 46
0.0
 47
0.0
 48
0.0
 71
     0
 72
     0
 73
     1
 74
     1
 75
     0
 76
     0
 77
     0
 78
     0
140
0.18
141
0.09
142
0.0
143
25.4
144
1.0
145
0.0
146
1.0
147
0.09
170
     0
171
     2
172
     1
173
     0
174
     0
175
     0
176
     0
177
     0
178
     0
270
     2
271
     4
272
     4
273
     2
274
     2
275
     0
280
     0
281
     0
282
     0
283
     1
284
     0
285
     0
286
     0
287
     0
288
     0
340
17
  0
ENDTAB
  0
TABLE
  2
BLOCK_RECORD
  5
1
100
AcDbSymbolTable
 70
    26
  0
BLOCK_RECORD
  5
A
100
AcDbSymbolTableRecord
100
AcDbBlockTableRecord
  2
*MODEL_SPACE
  0
BLOCK_RECORD
  5
B
100
AcDbSymbolTableRecord
100
AcDbBlockTableRecord
  2
*PAPER_SPACE
  0
BLOCK_RECORD
  5
2B
100
AcDbSymbolTableRecord
100
AcDbBlockTableRecord
  2
_EX_NORM
  0
BLOCK_RECORD
  5
2C
100
AcDbSymbolTableRecord
100
AcDbBlockTableRecord
  2
_EX_BNORM
  0
BLOCK_RECORD
  5
2D
100
AcDbSymbolTableRecord
100
AcDbBlockTableRecord
  2
_EX_BCIR
  0
BLOCK_RECORD
  5
2E
100
AcDbSymbolTableRecord
100
AcDbBlockTableRecord
  2
_EX_RCIVIL
  0
BLOCK_RECORD
  5
2F
100
AcDbSymbolTableRecord
100
AcDbBlockTableRecord
  2
_EX_SLANT
  0
BLOCK_RECORD
  5
30
100
AcDbSymbolTableRecord
100
AcDbBlockTableRecord
  2
_EX_NONE
  0
BLOCK_RECORD
  5
31
100
AcDbSymbolTableRecord
100
AcDbBlockTableRecord
  2
_EX_CIVIL
  0
BLOCK_RECORD
  5
32
100
AcDbSymbolTableRecord
100
AcDbBlockTableRecord
  2
_EX_WCIR
  0
BLOCK_RECORD
  5
33
100
AcDbSymbolTableRecord
100
AcDbBlockTableRecord
  2
_EX_WCIR2
  0
BLOCK_RECORD
  5
34
100
AcDbSymbolTableRecord
100
AcDbBlockTableRecord
  2
_EX_WNORM
  0
BLOCK_RECORD
  5
35
100
AcDbSymbolTableRecord
100
AcDbBlockTableRecord
  2
_EX_NNORM
  0
BLOCK_RECORD
  5
36
100
AcDbSymbolTableRecord
100
AcDbBlockTableRecord
  2
_EX_BBOX
  0
BLOCK_RECORD
  5
37
100
AcDbSymbolTableRecord
100
AcDbBlockTableRecord
  2
_EX_WBOX
  0
BLOCK_RECORD
  5
38
100
AcDbSymbolTableRecord
100
AcDbBlockTableRecord
  2
_EX_INTEGRAL
  0
BLOCK_RECORD
  5
31C
100
AcDbSymbolTableRecord
100
AcDbBlockTableRecord
  2
*D14
  0
BLOCK_RECORD
  5
329
100
AcDbSymbolTableRecord
100
AcDbBlockTableRecord
  2
*D15
  0
BLOCK_RECORD
  5
335
100
AcDbSymbolTableRecord
100
AcDbBlockTableRecord
  2
*D16
  0
BLOCK_RECORD
  5
33F
100
AcDbSymbolTableRecord
100
AcDbBlockTableRecord
  2
*D17
  0
BLOCK_RECORD
  5
34B
100
AcDbSymbolTableRecord
100
AcDbBlockTableRecord
  2
*D18
  0
BLOCK_RECORD
  5
357
100
AcDbSymbolTableRecord
100
AcDbBlockTableRecord
  2
*D19
  0
BLOCK_RECORD
  5
363
100
AcDbSymbolTableRecord
100
AcDbBlockTableRecord
  2
*D20
  0
BLOCK_RECORD
  5
36F
100
AcDbSymbolTableRecord
100
AcDbBlockTableRecord
  2
*D21
  0
BLOCK_RECORD
  5
37B
100
AcDbSymbolTableRecord
100
AcDbBlockTableRecord
  2
*D22
  0
BLOCK_RECORD
  5
386
100
AcDbSymbolTableRecord
100
AcDbBlockTableRecord
  2
*D23
  0
BLOCK_RECORD
  5
391
100
AcDbSymbolTableRecord
100
AcDbBlockTableRecord
  2
*D24
  0
BLOCK_RECORD
  5
39C
100
AcDbSymbolTableRecord
100
AcDbBlockTableRecord
  2
*D25
  0
ENDTAB
  0
ENDSEC
  0
SECTION
  2
BLOCKS
  0
BLOCK
  5
D
100
AcDbEntity
  8
0
100
AcDbBlockBegin
  2
*MODEL_SPACE
 70
     0
 10
0.0
 20
0.0
 30
0.0
  3
*MODEL_SPACE
  1

  0
ENDBLK
  5
E
100
AcDbEntity
  8
0
100
AcDbBlockEnd
  0
BLOCK
  5
F
100
AcDbEntity
 67
     1
  8
0
100
AcDbBlockBegin
  2
*PAPER_SPACE
 70
     0
 10
0.0
 20
0.0
 30
0.0
  3
*PAPER_SPACE
  1

  0
ENDBLK
  5
10
100
AcDbEntity
 67
     1
  8
0
100
AcDbBlockEnd
  0
BLOCK
  5
39
100
AcDbEntity
  8
0
100
AcDbBlockBegin
  2
_EX_NORM
 70
     0
 10
0.0
 20
0.0
 30
0.0
  3
_EX_NORM
  1

  0
LINE
  5
3A
100
AcDbEntity
  8
0
  6
CONTINUOUS
 62
     0
100
AcDbLine
 10
0.0
 20
0.0
 30
0.0
 11
-1.0
 21
0.0
 31
0.0
  0
LINE
  5
3B
100
AcDbEntity
  8
0
  6
CONTINUOUS
 62
     0
100
AcDbLine
 10
0.0
 20
0.0
 30
0.0
 11
-1.0
 21
0.166667
 31
0.0
  0
LINE
  5
3C
100
AcDbEntity
  8
0
  6
CONTINUOUS
 62
     0
100
AcDbLine
 10
0.0
 20
0.0
 30
0.0
 11
-1.0
 21
-0.166667
 31
0.0
  0
ENDBLK
  5
3D
100
AcDbEntity
  8
0
100
AcDbBlockEnd
  0
BLOCK
  5
3E
100
AcDbEntity
  8
0
100
AcDbBlockBegin
  2
_EX_BNORM
 70
     0
 10
0.0
 20
0.0
 30
0.0
  3
_EX_BNORM
  1

  0
LINE
  5
3F
100
AcDbEntity
  8
0
  6
CONTINUOUS
 62
     0
100
AcDbLine
 10
0.0
 20
0.0
 30
0.0
 11
-1.0
 21
0.0
 31
0.0
  0
LINE
  5
40
100
AcDbEntity
  8
0
  6
CONTINUOUS
 62
     0
100
AcDbLine
 10
0.0
 20
0.0
 30
0.0
 11
-1.0
 21
0.166667
 31
0.0
  0
LINE
  5
41
100
AcDbEntity
  8
0
  6
CONTINUOUS
 62
     0
100
AcDbLine
 10
0.0
 20
0.0
 30
0.0
 11
-1.0
 21
-0.166667
 31
0.0
  0
LINE
  5
42
100
AcDbEntity
  8
0
  6
CONTINUOUS
 62
     0
100
AcDbLine
 10
0.0
 20
0.0
 30
0.0
 11
-1.0
 21
0.083333
 31
0.0
  0
LINE
  5
43
100
AcDbEntity
  8
0
  6
CONTINUOUS
 62
     0
100
AcDbLine
 10
0.0
 20
0.0
 30
0.0
 11
-1.0
 21
-0.083333
 31
0.0
  0
LINE
  5
44
100
AcDbEntity
  8
0
  6
CONTINUOUS
 62
     0
100
AcDbLine
 10
-1.0
 20
0.166667
 30
0.0
 11
-1.0
 21
-0.166667
 31
0.0
  0
ENDBLK
  5
45
100
AcDbEntity
  8
0
100
AcDbBlockEnd
  0
BLOCK
  5
46
100
AcDbEntity
  8
0
100
AcDbBlockBegin
  2
_EX_BCIR
 70
     0
 10
0.0
 20
0.0
 30
0.0
  3
_EX_BCIR
  1

  0
LINE
  5
47
100
AcDbEntity
  8
0
  6
CONTINUOUS
 62
     0
100
AcDbLine
 10
0.0
 20
0.0
 30
0.0
 11
-1.0
 21
0.0
 31
0.0
  0
CIRCLE
  5
48
100
AcDbEntity
  8
0
  6
CONTINUOUS
 62
     0
100
AcDbCircle
 10
0.0
 20
0.0
 30
0.0
 40
0.5
  0
CIRCLE
  5
49
100
AcDbEntity
  8
0
  6
CONTINUOUS
 62
     0
100
AcDbCircle
 10
0.0
 20
0.0
 30
0.0
 40
0.25
  0
ENDBLK
  5
4A
100
AcDbEntity
  8
0
100
AcDbBlockEnd
  0
BLOCK
  5
4B
100
AcDbEntity
  8
0
100
AcDbBlockBegin
  2
_EX_RCIVIL
 70
     0
 10
0.0
 20
0.0
 30
0.0
  3
_EX_RCIVIL
  1

  0
LINE
  5
4C
100
AcDbEntity
  8
0
  6
CONTINUOUS
 62
     0
100
AcDbLine
 10
0.0
 20
0.0
 30
0.0
 11
-1.0
 21
0.0
 31
0.0
  0
LINE
  5
4D
100
AcDbEntity
  8
0
  6
CONTINUOUS
 62
     0
100
AcDbLine
 10
-1.0
 20
-0.25
 30
0.0
 11
0.0
 21
-0.25
 31
0.0
  0
LINE
  5
4E
100
AcDbEntity
  8
0
  6
CONTINUOUS
 62
     0
100
AcDbLine
 10
-1.0
 20
-0.125
 30
0.0
 11
0.0
 21
-0.125
 31
0.0
  0
ENDBLK
  5
4F
100
AcDbEntity
  8
0
100
AcDbBlockEnd
  0
BLOCK
  5
50
100
AcDbEntity
  8
0
100
AcDbBlockBegin
  2
_EX_SLANT
 70
     0
 10
0.0
 20
0.0
 30
0.0
  3
_EX_SLANT
  1

  0
LINE
  5
51
100
AcDbEntity
  8
0
  6
CONTINUOUS
 62
     0
100
AcDbLine
 10
0.0
 20
0.0
 30
0.0
 11
-1.0
 21
0.0
 31
0.0
  0
LINE
  5
52
100
AcDbEntity
  8
0
  6
CONTINUOUS
 62
     0
100
AcDbLine
 10
0.707107
 20
0.707107
 30
0.0
 11
-0.707107
 21
-0.707107
 31
0.0
  0
ENDBLK
  5
53
100
AcDbEntity
  8
0
100
AcDbBlockEnd
  0
BLOCK
  5
54
100
AcDbEntity
  8
0
100
AcDbBlockBegin
  2
_EX_NONE
 70
     0
 10
0.0
 20
0.0
 30
0.0
  3
_EX_NONE
  1

  0
LINE
  5
55
100
AcDbEntity
  8
0
  6
CONTINUOUS
 62
     0
100
AcDbLine
 10
0.0
 20
0.0
 30
0.0
 11
-1.0
 21
0.0
 31
0.0
  0
ENDBLK
  5
56
100
AcDbEntity
  8
0
100
AcDbBlockEnd
  0
BLOCK
  5
57
100
AcDbEntity
  8
0
100
AcDbBlockBegin
  2
_EX_CIVIL
 70
     0
 10
0.0
 20
0.0
 30
0.0
  3
_EX_CIVIL
  1

  0
LINE
  5
58
100
AcDbEntity
  8
0
  6
CONTINUOUS
 62
     0
100
AcDbLine
 10
0.0
 20
0.0
 30
0.0
 11
-1.0
 21
0.0
 31
0.0
  0
LINE
  5
59
100
AcDbEntity
  8
0
  6
CONTINUOUS
 62
     0
100
AcDbLine
 10
-1.0
 20
0.25
 30
0.0
 11
0.0
 21
0.25
 31
0.0
  0
LINE
  5
5A
100
AcDbEntity
  8
0
  6
CONTINUOUS
 62
     0
100
AcDbLine
 10
-1.0
 20
0.125
 30
0.0
 11
0.0
 21
0.125
 31
0.0
  0
ENDBLK
  5
5B
100
AcDbEntity
  8
0
100
AcDbBlockEnd
  0
BLOCK
  5
5C
100
AcDbEntity
  8
0
100
AcDbBlockBegin
  2
_EX_WCIR
 70
     0
 10
0.0
 20
0.0
 30
0.0
  3
_EX_WCIR
  1

  0
LINE
  5
5D
100
AcDbEntity
  8
0
  6
CONTINUOUS
 62
     0
100
AcDbLine
 10
0.0
 20
0.0
 30
0.0
 11
-1.0
 21
0.0
 31
0.0
  0
CIRCLE
  5
5E
100
AcDbEntity
  8
0
  6
CONTINUOUS
 62
     0
100
AcDbCircle
 10
0.0
 20
0.0
 30
0.0
 40
0.5
  0
ENDBLK
  5
5F
100
AcDbEntity
  8
0
100
AcDbBlockEnd
  0
BLOCK
  5
60
100
AcDbEntity
  8
0
100
AcDbBlockBegin
  2
_EX_WCIR2
 70
     0
 10
0.0
 20
0.0
 30
0.0
  3
_EX_WCIR2
  1

  0
LINE
  5
61
100
AcDbEntity
  8
0
  6
CONTINUOUS
 62
     0
100
AcDbLine
 10
-0.5
 20
0.0
 30
0.0
 11
-1.0
 21
0.0
 31
0.0
  0
CIRCLE
  5
62
100
AcDbEntity
  8
0
  6
CONTINUOUS
 62
     0
100
AcDbCircle
 10
0.0
 20
0.0
 30
0.0
 40
0.5
  0
ENDBLK
  5
63
100
AcDbEntity
  8
0
100
AcDbBlockEnd
  0
BLOCK
  5
64
100
AcDbEntity
  8
0
100
AcDbBlockBegin
  2
_EX_WNORM
 70
     0
 10
0.0
 20
0.0
 30
0.0
  3
_EX_WNORM
  1

  0
LINE
  5
65
100
AcDbEntity
  8
0
  6
CONTINUOUS
 62
     0
100
AcDbLine
 10
-1.0
 20
0.0
 30
0.0
 11
-1.0
 21
0.0
 31
0.0
  0
LINE
  5
66
100
AcDbEntity
  8
0
  6
CONTINUOUS
 62
     0
100
AcDbLine
 10
0.0
 20
0.0
 30
0.0
 11
-1.0
 21
0.166667
 31
0.0
  0
LINE
  5
67
100
AcDbEntity
  8
0
  6
CONTINUOUS
 62
     0
100
AcDbLine
 10
0.0
 20
0.0
 30
0.0
 11
-1.0
 21
-0.166667
 31
0.0
  0
LINE
  5
68
100
AcDbEntity
  8
0
  6
CONTINUOUS
 62
     0
100
AcDbLine
 10
-1.0
 20
0.166667
 30
0.0
 11
-1.0
 21
-0.166667
 31
0.0
  0
ENDBLK
  5
69
100
AcDbEntity
  8
0
100
AcDbBlockEnd
  0
BLOCK
  5
6A
100
AcDbEntity
  8
0
100
AcDbBlockBegin
  2
_EX_NNORM
 70
     0
 10
0.0
 20
0.0
 30
0.0
  3
_EX_NNORM
  1

  0
LINE
  5
6B
100
AcDbEntity
  8
0
  6
CONTINUOUS
 62
     0
100
AcDbLine
 10
0.0
 20
0.0
 30
0.0
 11
-1.0
 21
0.0
 31
0.0
  0
LINE
  5
6C
100
AcDbEntity
  8
0
  6
CONTINUOUS
 62
     0
100
AcDbLine
 10
0.0
 20
0.0
 30
0.0
 11
-1.0
 21
0.166667
 31
0.0
  0
LINE
  5
6D
100
AcDbEntity
  8
0
  6
CONTINUOUS
 62
     0
100
AcDbLine
 10
0.0
 20
0.0
 30
0.0
 11
-1.0
 21
-0.166667
 31
0.0
  0
LINE
  5
6E
100
AcDbEntity
  8
0
  6
CONTINUOUS
 62
     0
100
AcDbLine
 10
-1.0
 20
0.166667
 30
0.0
 11
-1.0
 21
-0.166667
 31
0.0
  0
ENDBLK
  5
6F
100
AcDbEntity
  8
0
100
AcDbBlockEnd
  0
BLOCK
  5
70
100
AcDbEntity
  8
0
100
AcDbBlockBegin
  2
_EX_BBOX
 70
     0
 10
0.0
 20
0.0
 30
0.0
  3
_EX_BBOX
  1

  0
LINE
  5
71
100
AcDbEntity
  8
0
  6
CONTINUOUS
 62
     0
100
AcDbLine
 10
0.0
 20
0.0
 30
0.0
 11
-1.0
 21
0.0
 31
0.0
  0
LINE
  5
72
100
AcDbEntity
  8
0
  6
CONTINUOUS
 62
     0
100
AcDbLine
 10
-0.5
 20
0.5
 30
0.0
 11
0.5
 21
0.5
 31
0.0
  0
LINE
  5
73
100
AcDbEntity
  8
0
  6
CONTINUOUS
 62
     0
100
AcDbLine
 10
0.5
 20
0.5
 30
0.0
 11
0.5
 21
-0.5
 31
0.0
  0
LINE
  5
74
100
AcDbEntity
  8
0
  6
CONTINUOUS
 62
     0
100
AcDbLine
 10
0.5
 20
-0.5
 30
0.0
 11
-0.5
 21
-0.5
 31
0.0
  0
LINE
  5
75
100
AcDbEntity
  8
0
  6
CONTINUOUS
 62
     0
100
AcDbLine
 10
-0.5
 20
-0.5
 30
0.0
 11
-0.5
 21
0.5
 31
0.0
  0
LINE
  5
76
100
AcDbEntity
  8
0
  6
CONTINUOUS
 62
     0
100
AcDbLine
 10
-0.25
 20
0.25
 30
0.0
 11
0.25
 21
0.25
 31
0.0
  0
LINE
  5
77
100
AcDbEntity
  8
0
  6
CONTINUOUS
 62
     0
100
AcDbLine
 10
0.25
 20
0.25
 30
0.0
 11
0.25
 21
-0.25
 31
0.0
  0
LINE
  5
78
100
AcDbEntity
  8
0
  6
CONTINUOUS
 62
     0
100
AcDbLine
 10
0.25
 20
-0.25
 30
0.0
 11
-0.25
 21
-0.25
 31
0.0
  0
LINE
  5
79
100
AcDbEntity
  8
0
  6
CONTINUOUS
 62
     0
100
AcDbLine
 10
-0.25
 20
-0.25
 30
0.0
 11
-0.25
 21
0.25
 31
0.0
  0
ENDBLK
  5
7A
100
AcDbEntity
  8
0
100
AcDbBlockEnd
  0
BLOCK
  5
7B
100
AcDbEntity
  8
0
100
AcDbBlockBegin
  2
_EX_WBOX
 70
     0
 10
0.0
 20
0.0
 30
0.0
  3
_EX_WBOX
  1

  0
LINE
  5
7C
100
AcDbEntity
  8
0
  6
CONTINUOUS
 62
     0
100
AcDbLine
 10
-0.5
 20
0.0
 30
0.0
 11
-1.0
 21
0.0
 31
0.0
  0
LINE
  5
7D
100
AcDbEntity
  8
0
  6
CONTINUOUS
 62
     0
100
AcDbLine
 10
-0.5
 20
0.5
 30
0.0
 11
0.5
 21
0.5
 31
0.0
  0
LINE
  5
7E
100
AcDbEntity
  8
0
  6
CONTINUOUS
 62
     0
100
AcDbLine
 10
0.5
 20
0.5
 30
0.0
 11
0.5
 21
-0.5
 31
0.0
  0
LINE
  5
7F
100
AcDbEntity
  8
0
  6
CONTINUOUS
 62
     0
100
AcDbLine
 10
0.5
 20
-0.5
 30
0.0
 11
-0.5
 21
-0.5
 31
0.0
  0
LINE
  5
80
100
AcDbEntity
  8
0
  6
CONTINUOUS
 62
     0
100
AcDbLine
 10
-0.5
 20
-0.5
 30
0.0
 11
-0.5
 21
0.5
 31
0.0
  0
ENDBLK
  5
81
100
AcDbEntity
  8
0
100
AcDbBlockEnd
  0
BLOCK
  5
82
100
AcDbEntity
  8
0
100
AcDbBlockBegin
  2
_EX_INTEGRAL
 70
     0
 10
0.0
 20
0.0
 30
0.0
  3
_EX_INTEGRAL
  1

  0
LINE
  5
83
100
AcDbEntity
  8
0
  6
CONTINUOUS
 62
     0
100
AcDbLine
 10
0.0
 20
0.0
 30
0.0
 11
-1.0
 21
0.0
 31
0.0
  0
ARC
  5
84
100
AcDbEntity
  8
0
  6
CONTINUOUS
 62
     0
100
AcDbCircle
 10
0.542115
 20
0.164992
 30
0.0
 40
0.56667
100
AcDbArc
 50
73.07249
 51
196.927513
  0
ARC
  5
85
100
AcDbEntity
  8
0
  6
CONTINUOUS
 62
     0
100
AcDbCircle
 10
-0.542115
 20
-0.164992
 30
0.0
 40
0.56667
100
AcDbArc
 50
253.072487
 51
16.927513
  0
ENDBLK
  5
86
100
AcDbEntity
  8
0
100
AcDbBlockEnd
  0
BLOCK
  5
31D
100
AcDbEntity
  8
0
100
AcDbBlockBegin
  2
*D14
 70
    65
 10
0.0
 20
0.0
 30
0.0
  3
*D14
  1

  0
TEXT
  5
31E
100
AcDbEntity
  8
LAY-3
  6
CONTINUOUS
 62
     2
100
AcDbText
 10
1727.1
 20
999.149143
 30
0.0
 40
40.0
  1
68
 50
90.0
 41
0.84
  7
EXCADSTD
 72
     1
 11
1727.1
 21
1028.549143
 31
0.0
100
AcDbText
  0
LINE
  5
31F
100
AcDbEntity
  8
LAY-3
  6
CONTINUOUS
 62
     3
100
AcDbLine
 10
1730.6
 20
990.049139
 30
0.0
 11
1730.6
 21
1193.0179
 31
0.0
  0
LINE
  5
320
100
AcDbEntity
  8
LAY-3
  6
CONTINUOUS
 62
     3
100
AcDbLine
 10
1735.6
 20
1063.549143
 30
0.0
 11
1730.6
 21
1093.549143
 31
0.0
  0
LINE
  5
321
100
AcDbEntity
  8
LAY-3
  6
CONTINUOUS
 62
     3
100
AcDbLine
 10
1730.6
 20
1093.549143
 30
0.0
 11
1725.6
 21
1063.549143
 31
0.0
  0
LINE
  5
322
100
AcDbEntity
  8
LAY-3
  6
CONTINUOUS
 62
     3
100
AcDbLine
 10
1725.6
 20
1193.0179
 30
0.0
 11
1730.6
 21
1163.0179
 31
0.0
  0
LINE
  5
323
100
AcDbEntity
  8
LAY-3
  6
CONTINUOUS
 62
     3
100
AcDbLine
 10
1730.6
 20
1163.0179
 30
0.0
 11
1735.6
 21
1193.0179
 31
0.0
  0
LINE
  5
324
100
AcDbEntity
  8
LAY-3
  6
CONTINUOUS
 62
     3
100
AcDbLine
 10
1652.289221
 20
1093.549143
 30
0.0
 11
1740.6
 21
1093.549143
 31
0.0
  0
LINE
  5
325
100
AcDbEntity
  8
LAY-3
  6
CONTINUOUS
 62
     3
100
AcDbLine
 10
1652.289221
 20
1163.0179
 30
0.0
 11
1740.6
 21
1163.0179
 31
0.0
  0
ENDBLK
  5
326
100
AcDbEntity
  8
0
100
AcDbBlockEnd
  0
BLOCK
  5
32A
100
AcDbEntity
  8
0
100
AcDbBlockBegin
  2
*D15
 70
    65
 10
0.0
 20
0.0
 30
0.0
  3
*D15
  1

  0
TEXT
  5
32B
100
AcDbEntity
  8
LAY-3
  6
CONTINUOUS
 62
     2
100
AcDbText
 10
1727.5
 20
1782.1415
 30
0.0
 40
40.0
  1
62
 50
90.0
 41
0.84
  7
EXCADSTD
 72
     1
 11
1727.5
 21
1811.5415
 31
0.0
100
AcDbText
  0
LINE
  5
32C
100
AcDbEntity
  8
LAY-3
  6
CONTINUOUS
 62
     3
100
AcDbLine
 10
1731.0
 20
1653.0347
 30
0.0
 11
1731.0
 21
1850.041504
 31
0.0
  0
LINE
  5
32D
100
AcDbEntity
  8
LAY-3
  6
CONTINUOUS
 62
     3
100
AcDbLine
 10
1736.0
 20
1653.0347
 30
0.0
 11
1731.0
 21
1683.0347
 31
0.0
  0
LINE
  5
32E
100
AcDbEntity
  8
LAY-3
  6
CONTINUOUS
 62
     3
100
AcDbLine
 10
1731.0
 20
1683.0347
 30
0.0
 11
1726.0
 21
1653.0347
 31
0.0
  0
LINE
  5
32F
100
AcDbEntity
  8
LAY-3
  6
CONTINUOUS
 62
     3
100
AcDbLine
 10
1726.0
 20
1776.5415
 30
0.0
 11
1731.0
 21
1746.5415
 31
0.0
  0
LINE
  5
330
100
AcDbEntity
  8
LAY-3
  6
CONTINUOUS
 62
     3
100
AcDbLine
 10
1731.0
 20
1746.5415
 30
0.0
 11
1736.0
 21
1776.5415
 31
0.0
  0
LINE
  5
331
100
AcDbEntity
  8
LAY-3
  6
CONTINUOUS
 62
     3
100
AcDbLine
 10
1645.8
 20
1683.0347
 30
0.0
 11
1741.0
 21
1683.0347
 31
0.0
  0
LINE
  5
332
100
AcDbEntity
  8
LAY-3
  6
CONTINUOUS
 62
     3
100
AcDbLine
 10
1645.8
 20
1746.5415
 30
0.0
 11
1741.0
 21
1746.5415
 31
0.0
  0
ENDBLK
  5
333
100
AcDbEntity
  8
0
100
AcDbBlockEnd
  0
BLOCK
  5
336
100
AcDbEntity
  8
0
100
AcDbBlockBegin
  2
*D16
 70
    65
 10
0.0
 20
0.0
 30
0.0
  3
*D16
  1

  0
TEXT
  5
337
100
AcDbEntity
  8
LAY-3
  6
CONTINUOUS
 62
     2
100
AcDbText
 10
761.109743
 20
1169.041301
 30
0.0
 40
40.0
  1
%%c34
 50
90.0
 41
0.84
  7
EXCADSTD
 72
     1
 11
761.109743
 21
1211.041301
 31
0.0
100
AcDbText
  0
LINE
  5
338
100
AcDbEntity
  8
LAY-3
  6
CONTINUOUS
 62
     3
100
AcDbLine
 10
764.609743
 20
1067.0413
 30
0.0
 11
764.609743
 21
1264.541305
 31
0.0
  0
LINE
  5
339
100
AcDbEntity
  8
LAY-3
  6
CONTINUOUS
 62
     3
100
AcDbLine
 10
769.609743
 20
1067.0413
 30
0.0
 11
764.609743
 21
1097.0413
 31
0.0
  0
LINE
  5
33A
100
AcDbEntity
  8
LAY-3
  6
CONTINUOUS
 62
     3
100
AcDbLine
 10
764.609743
 20
1097.0413
 30
0.0
 11
759.609743
 21
1067.0413
 31
0.0
  0
LINE
  5
33B
100
AcDbEntity
  8
LAY-3
  6
CONTINUOUS
 62
     3
100
AcDbLine
 10
759.609743
 20
1161.041301
 30
0.0
 11
764.609743
 21
1131.041301
 31
0.0
  0
LINE
  5
33C
100
AcDbEntity
  8
LAY-3
  6
CONTINUOUS
 62
     3
100
AcDbLine
 10
764.609743
 20
1131.041301
 30
0.0
 11
769.609743
 21
1161.041301
 31
0.0
  0
ENDBLK
  5
33D
100
AcDbEntity
  8
0
100
AcDbBlockEnd
  0
BLOCK
  5
340
100
AcDbEntity
  8
0
100
AcDbBlockBegin
  2
*D17
 70
    65
 10
0.0
 20
0.0
 30
0.0
  3
*D17
  1

  0
LINE
  5
341
100
AcDbEntity
  8
LAY-3
  6
CONTINUOUS
 62
     3
100
AcDbLine
 10
1234.554922
 20
1093.541203
 30
0.0
 11
1297.609743
 21
1093.541203
 31
0.0
  0
LINE
  5
342
100
AcDbEntity
  8
LAY-3
  6
CONTINUOUS
 62
     3
100
AcDbLine
 10
1232.409743
 20
1134.541301
 30
0.0
 11
1297.609743
 21
1134.541301
 31
0.0
  0
TEXT
  5
343
100
AcDbEntity
  8
LAY-3
  6
CONTINUOUS
 62
     2
100
AcDbText
 10
1284.109743
 20
1170.141301
 30
0.0
 40
40.0
  1
41
 50
90.0
 41
0.84
  7
EXCADSTD
 72
     1
 11
1284.109743
 21
1199.541301
 31
0.0
100
AcDbText
  0
LINE
  5
344
100
AcDbEntity
  8
LAY-3
  6
CONTINUOUS
 62
     3
100
AcDbLine
 10
1287.609743
 20
1063.541203
 30
0.0
 11
1287.609743
 21
1238.041305
 31
0.0
  0
LINE
  5
345
100
AcDbEntity
  8
LAY-3
  6
CONTINUOUS
 62
     3
100
AcDbLine
 10
1292.609743
 20
1063.541203
 30
0.0
 11
1287.609743
 21
1093.541203
 31
0.0
  0
LINE
  5
346
100
AcDbEntity
  8
LAY-3
  6
CONTINUOUS
 62
     3
100
AcDbLine
 10
1287.609743
 20
1093.541203
 30
0.0
 11
1282.609743
 21
1063.541203
 31
0.0
  0
LINE
  5
347
100
AcDbEntity
  8
LAY-3
  6
CONTINUOUS
 62
     3
100
AcDbLine
 10
1282.609743
 20
1164.541301
 30
0.0
 11
1287.609743
 21
1134.541301
 31
0.0
  0
LINE
  5
348
100
AcDbEntity
  8
LAY-3
  6
CONTINUOUS
 62
     3
100
AcDbLine
 10
1287.609743
 20
1134.541301
 30
0.0
 11
1292.609743
 21
1164.541301
 31
0.0
  0
ENDBLK
  5
349
100
AcDbEntity
  8
0
100
AcDbBlockEnd
  0
BLOCK
  5
34C
100
AcDbEntity
  8
0
100
AcDbBlockBegin
  2
*D18
 70
    65
 10
0.0
 20
0.0
 30
0.0
  3
*D18
  1

  0
LINE
  5
34D
100
AcDbEntity
  8
LAY-3
  6
CONTINUOUS
 62
     3
100
AcDbLine
 10
605.475121
 20
1714.041701
 30
0.0
 11
461.609743
 21
1714.041701
 31
0.0
  0
LINE
  5
34E
100
AcDbEntity
  8
LAY-3
  6
CONTINUOUS
 62
     3
100
AcDbLine
 10
605.475121
 20
1731.041601
 30
0.0
 11
461.609743
 21
1731.041601
 31
0.0
  0
TEXT
  5
34F
100
AcDbEntity
  8
LAY-3
  6
CONTINUOUS
 62
     2
100
AcDbText
 10
468.109743
 20
1766.641601
 30
0.0
 40
40.0
  1
17
 50
90.0
 41
0.84
  7
EXCADSTD
 72
     1
 11
468.109743
 21
1796.041601
 31
0.0
100
AcDbText
  0
LINE
  5
350
100
AcDbEntity
  8
LAY-3
  6
CONTINUOUS
 62
     3
100
AcDbLine
 10
471.609743
 20
1684.041701
 30
0.0
 11
471.609743
 21
1834.541605
 31
0.0
  0
LINE
  5
351
100
AcDbEntity
  8
LAY-3
  6
CONTINUOUS
 62
     3
100
AcDbLine
 10
476.609743
 20
1684.041701
 30
0.0
 11
471.609743
 21
1714.041701
 31
0.0
  0
LINE
  5
352
100
AcDbEntity
  8
LAY-3
  6
CONTINUOUS
 62
     3
100
AcDbLine
 10
471.609743
 20
1714.041701
 30
0.0
 11
466.609743
 21
1684.041701
 31
0.0
  0
LINE
  5
353
100
AcDbEntity
  8
LAY-3
  6
CONTINUOUS
 62
     3
100
AcDbLine
 10
466.609743
 20
1761.041601
 30
0.0
 11
471.609743
 21
1731.041601
 31
0.0
  0
LINE
  5
354
100
AcDbEntity
  8
LAY-3
  6
CONTINUOUS
 62
     3
100
AcDbLine
 10
471.609743
 20
1731.041601
 30
0.0
 11
476.609743
 21
1761.041601
 31
0.0
  0
ENDBLK
  5
355
100
AcDbEntity
  8
0
100
AcDbBlockEnd
  0
BLOCK
  5
358
100
AcDbEntity
  8
0
100
AcDbBlockBegin
  2
*D19
 70
    65
 10
0.0
 20
0.0
 30
0.0
  3
*D19
  1

  0
LINE
  5
359
100
AcDbEntity
  8
LAY-3
  6
CONTINUOUS
 62
     3
100
AcDbLine
 10
606.062021
 20
1129.041001
 30
0.0
 11
506.763594
 21
1129.041001
 31
0.0
  0
LINE
  5
35A
100
AcDbEntity
  8
LAY-3
  6
CONTINUOUS
 62
     3
100
AcDbLine
 10
627.555223
 20
1114.041202
 30
0.0
 11
461.609742
 21
1114.041202
 31
0.0
  0
TEXT
  5
35B
100
AcDbEntity
  8
LAY-3
  6
CONTINUOUS
 62
     2
100
AcDbText
 10
513.263594
 20
1164.641001
 30
0.0
 40
40.0
  1
15
 50
90.0
 41
0.84
  7
EXCADSTD
 72
     1
 11
513.263594
 21
1194.041001
 31
0.0
100
AcDbText
  0
LINE
  5
35C
100
AcDbEntity
  8
LAY-3
  6
CONTINUOUS
 62
     3
100
AcDbLine
 10
516.763594
 20
1232.541005
 30
0.0
 11
516.763594
 21
1084.041202
 31
0.0
  0
LINE
  5
35D
100
AcDbEntity
  8
LAY-3
  6
CONTINUOUS
 62
     3
100
AcDbLine
 10
511.763594
 20
1159.041001
 30
0.0
 11
516.763594
 21
1129.041001
 31
0.0
  0
LINE
  5
35E
100
AcDbEntity
  8
LAY-3
  6
CONTINUOUS
 62
     3
100
AcDbLine
 10
516.763594
 20
1129.041001
 30
0.0
 11
521.763594
 21
1159.041001
 31
0.0
  0
LINE
  5
35F
100
AcDbEntity
  8
LAY-3
  6
CONTINUOUS
 62
     3
100
AcDbLine
 10
521.763594
 20
1084.041202
 30
0.0
 11
516.763594
 21
1114.041202
 31
0.0
  0
LINE
  5
360
100
AcDbEntity
  8
LAY-3
  6
CONTINUOUS
 62
     3
100
AcDbLine
 10
516.763594
 20
1114.041202
 30
0.0
 11
511.763594
 21
1084.041202
 31
0.0
  0
ENDBLK
  5
361
100
AcDbEntity
  8
0
100
AcDbBlockEnd
  0
BLOCK
  5
364
100
AcDbEntity
  8
0
100
AcDbBlockBegin
  2
*D20
 70
    65
 10
0.0
 20
0.0
 30
0.0
  3
*D20
  1

  0
LINE
  5
365
100
AcDbEntity
  8
LAY-3
  6
CONTINUOUS
 62
     3
100
AcDbLine
 10
1234.554622
 20
1101.961402
 30
0.0
 11
1234.554622
 21
940.0
 31
0.0
  0
LINE
  5
366
100
AcDbEntity
  8
LAY-3
  6
CONTINUOUS
 62
     3
100
AcDbLine
 10
1217.555023
 20
1102.664202
 30
0.0
 11
1217.555023
 21
940.0
 31
0.0
  0
TEXT
  5
367
100
AcDbEntity
  8
LAY-3
  6
CONTINUOUS
 62
     2
100
AcDbText
 10
1270.154622
 20
953.5
 30
0.0
 40
40.0
  1
17
 41
0.84
  7
EXCADSTD
 72
     1
 11
1299.554622
 21
953.5
 31
0.0
100
AcDbText
  0
LINE
  5
368
100
AcDbEntity
  8
LAY-3
  6
CONTINUOUS
 62
     3
100
AcDbLine
 10
1338.054626
 20
950.0
 30
0.0
 11
1187.555023
 21
950.0
 31
0.0
  0
LINE
  5
369
100
AcDbEntity
  8
LAY-3
  6
CONTINUOUS
 62
     3
100
AcDbLine
 10
1264.554622
 20
955.0
 30
0.0
 11
1234.554622
 21
950.0
 31
0.0
  0
LINE
  5
36A
100
AcDbEntity
  8
LAY-3
  6
CONTINUOUS
 62
     3
100
AcDbLine
 10
1234.554622
 20
950.0
 30
0.0
 11
1264.554622
 21
945.0
 31
0.0
  0
LINE
  5
36B
100
AcDbEntity
  8
LAY-3
  6
CONTINUOUS
 62
     3
100
AcDbLine
 10
1187.555023
 20
945.0
 30
0.0
 11
1217.555023
 21
950.0
 31
0.0
  0
LINE
  5
36C
100
AcDbEntity
  8
LAY-3
  6
CONTINUOUS
 62
     3
100
AcDbLine
 10
1217.555023
 20
950.0
 30
0.0
 11
1187.555023
 21
955.0
 31
0.0
  0
ENDBLK
  5
36D
100
AcDbEntity
  8
0
100
AcDbBlockEnd
  0
BLOCK
  5
370
100
AcDbEntity
  8
0
100
AcDbBlockBegin
  2
*D21
 70
    65
 10
0.0
 20
0.0
 30
0.0
  3
*D21
  1

  0
LINE
  5
371
100
AcDbEntity
  8
LAY-3
  6
CONTINUOUS
 62
     3
100
AcDbLine
 10
632.555223
 20
1103.574702
 30
0.0
 11
632.555223
 21
991.0
 31
0.0
  0
LINE
  5
372
100
AcDbEntity
  8
LAY-3
  6
CONTINUOUS
 62
     3
100
AcDbLine
 10
617.555421
 20
1079.2
 30
0.0
 11
617.555421
 21
991.0
 31
0.0
  0
TEXT
  5
373
100
AcDbEntity
  8
LAY-3
  6
CONTINUOUS
 62
     2
100
AcDbText
 10
523.155421
 20
1004.5
 30
0.0
 40
40.0
  1
15
 41
0.84
  7
EXCADSTD
 72
     1
 11
552.555421
 21
1004.5
 31
0.0
100
AcDbText
  0
LINE
  5
374
100
AcDbEntity
  8
LAY-3
  6
CONTINUOUS
 62
     3
100
AcDbLine
 10
662.555223
 20
1001.0
 30
0.0
 11
514.055417
 21
1001.0
 31
0.0
  0
LINE
  5
375
100
AcDbEntity
  8
LAY-3
  6
CONTINUOUS
 62
     3
100
AcDbLine
 10
662.555223
 20
1006.0
 30
0.0
 11
632.555223
 21
1001.0
 31
0.0
  0
LINE
  5
376
100
AcDbEntity
  8
LAY-3
  6
CONTINUOUS
 62
     3
100
AcDbLine
 10
632.555223
 20
1001.0
 30
0.0
 11
662.555223
 21
996.0
 31
0.0
  0
LINE
  5
377
100
AcDbEntity
  8
LAY-3
  6
CONTINUOUS
 62
     3
100
AcDbLine
 10
587.555421
 20
996.0
 30
0.0
 11
617.555421
 21
1001.0
 31
0.0
  0
LINE
  5
378
100
AcDbEntity
  8
LAY-3
  6
CONTINUOUS
 62
     3
100
AcDbLine
 10
617.555421
 20
1001.0
 30
0.0
 11
587.555421
 21
1006.0
 31
0.0
  0
ENDBLK
  5
379
100
AcDbEntity
  8
0
100
AcDbBlockEnd
  0
BLOCK
  5
37C
100
AcDbEntity
  8
0
100
AcDbBlockBegin
  2
*D22
 70
    65
 10
0.0
 20
0.0
 30
0.0
  3
*D22
  1

  0
LINE
  5
37D
100
AcDbEntity
  8
LAY-3
  6
CONTINUOUS
 62
     3
100
AcDbLine
 10
617.555421
 20
1043.0
 30
0.0
 11
617.555421
 21
940.0
 31
0.0
  0
TEXT
  5
37E
100
AcDbEntity
  8
LAY-3
  6
CONTINUOUS
 62
     2
100
AcDbText
 10
875.555222
 20
953.5
 30
0.0
 40
40.0
  1
600
 41
0.84
  7
EXCADSTD
 72
     1
 11
917.555222
 21
953.5
 31
0.0
100
AcDbText
  0
LINE
  5
37F
100
AcDbEntity
  8
LAY-3
  6
CONTINUOUS
 62
     3
100
AcDbLine
 10
1217.555023
 20
950.0
 30
0.0
 11
617.555421
 21
950.0
 31
0.0
  0
LINE
  5
380
100
AcDbEntity
  8
LAY-3
  6
CONTINUOUS
 62
     3
100
AcDbLine
 10
1187.555023
 20
945.0
 30
0.0
 11
1217.555023
 21
950.0
 31
0.0
  0
LINE
  5
381
100
AcDbEntity
  8
LAY-3
  6
CONTINUOUS
 62
     3
100
AcDbLine
 10
1217.555023
 20
950.0
 30
0.0
 11
1187.555023
 21
955.0
 31
0.0
  0
LINE
  5
382
100
AcDbEntity
  8
LAY-3
  6
CONTINUOUS
 62
     3
100
AcDbLine
 10
647.555421
 20
955.0
 30
0.0
 11
617.555421
 21
950.0
 31
0.0
  0
LINE
  5
383
100
AcDbEntity
  8
LAY-3
  6
CONTINUOUS
 62
     3
100
AcDbLine
 10
617.555421
 20
950.0
 30
0.0
 11
647.555421
 21
945.0
 31
0.0
  0
ENDBLK
  5
384
100
AcDbEntity
  8
0
100
AcDbBlockEnd
  0
BLOCK
  5
387
100
AcDbEntity
  8
0
100
AcDbBlockBegin
  2
*D23
 70
    65
 10
0.0
 20
0.0
 30
0.0
  3
*D23
  1

  0
LINE
  5
388
100
AcDbEntity
  8
LAY-3
  6
CONTINUOUS
 62
     3
100
AcDbLine
 10
592.055022
 20
1714.041701
 30
0.0
 11
461.609743
 21
1714.041701
 31
0.0
  0
TEXT
  5
389
100
AcDbEntity
  8
LAY-3
  6
CONTINUOUS
 62
     2
100
AcDbText
 10
468.109743
 20
1372.041452
 30
0.0
 40
40.0
  1
600
 50
90.0
 41
0.84
  7
EXCADSTD
 72
     1
 11
468.109743
 21
1414.041452
 31
0.0
100
AcDbText
  0
LINE
  5
38A
100
AcDbEntity
  8
LAY-3
  6
CONTINUOUS
 62
     3
100
AcDbLine
 10
471.609743
 20
1714.041701
 30
0.0
 11
471.609743
 21
1114.041202
 31
0.0
  0
LINE
  5
38B
100
AcDbEntity
  8
LAY-3
  6
CONTINUOUS
 62
     3
100
AcDbLine
 10
476.609743
 20
1684.041701
 30
0.0
 11
471.609743
 21
1714.041701
 31
0.0
  0
LINE
  5
38C
100
AcDbEntity
  8
LAY-3
  6
CONTINUOUS
 62
     3
100
AcDbLine
 10
471.609743
 20
1714.041701
 30
0.0
 11
466.609743
 21
1684.041701
 31
0.0
  0
LINE
  5
38D
100
AcDbEntity
  8
LAY-3
  6
CONTINUOUS
 62
     3
100
AcDbLine
 10
466.609743
 20
1144.041202
 30
0.0
 11
471.609743
 21
1114.041202
 31
0.0
  0
LINE
  5
38E
100
AcDbEntity
  8
LAY-3
  6
CONTINUOUS
 62
     3
100
AcDbLine
 10
471.609743
 20
1114.041202
 30
0.0
 11
476.609743
 21
1144.041202
 31
0.0
  0
ENDBLK
  5
38F
100
AcDbEntity
  8
0
100
AcDbBlockEnd
  0
BLOCK
  5
392
100
AcDbEntity
  8
0
100
AcDbBlockBegin
  2
*D24
 70
    65
 10
0.0
 20
0.0
 30
0.0
  3
*D24
  1

  0
LINE
  5
393
100
AcDbEntity
  8
LAY-3
  6
CONTINUOUS
 62
     3
100
AcDbLine
 10
1568.054521
 20
1708.241002
 30
0.0
 11
1568.054521
 21
1891.0
 31
0.0
  0
TEXT
  5
394
100
AcDbEntity
  8
LAY-3
  6
CONTINUOUS
 62
     2
100
AcDbText
 10
1436.854521
 20
1884.5
 30
0.0
 40
40.0
  1
75.5
 41
0.84
  7
EXCADSTD
 72
     1
 11
1483.054521
 21
1884.5
 31
0.0
100
AcDbText
  0
LINE
  5
395
100
AcDbEntity
  8
LAY-3
  6
CONTINUOUS
 62
     3
100
AcDbLine
 10
1424.554518
 20
1881.0
 30
0.0
 11
1673.554321
 21
1881.0
 31
0.0
  0
LINE
  5
396
100
AcDbEntity
  8
LAY-3
  6
CONTINUOUS
 62
     3
100
AcDbLine
 10
1538.054521
 20
1876.0
 30
0.0
 11
1568.054521
 21
1881.0
 31
0.0
  0
LINE
  5
397
100
AcDbEntity
  8
LAY-3
  6
CONTINUOUS
 62
     3
100
AcDbLine
 10
1568.054521
 20
1881.0
 30
0.0
 11
1538.054521
 21
1886.0
 31
0.0
  0
LINE
  5
398
100
AcDbEntity
  8
LAY-3
  6
CONTINUOUS
 62
     3
100
AcDbLine
 10
1673.554321
 20
1886.0
 30
0.0
 11
1643.554321
 21
1881.0
 31
0.0
  0
LINE
  5
399
100
AcDbEntity
  8
LAY-3
  6
CONTINUOUS
 62
     3
100
AcDbLine
 10
1643.554321
 20
1881.0
 30
0.0
 11
1673.554321
 21
1876.0
 31
0.0
  0
ENDBLK
  5
39A
100
AcDbEntity
  8
0
100
AcDbBlockEnd
  0
BLOCK
  5
39D
100
AcDbEntity
  8
0
100
AcDbBlockBegin
  2
*D25
 70
    65
 10
0.0
 20
0.0
 30
0.0
  3
*D25
  1

  0
LINE
  5
39E
100
AcDbEntity
  8
LAY-3
  6
CONTINUOUS
 62
     3
100
AcDbLine
 10
1586.054321
 20
1705.0
 30
0.0
 11
1586.054321
 21
1817.0
 31
0.0
  0
TEXT
  5
39F
100
AcDbEntity
  8
LAY-3
  6
CONTINUOUS
 62
     2
100
AcDbText
 10
1454.854321
 20
1810.5
 30
0.0
 40
40.0
  1
57.5
 41
0.84
  7
EXCADSTD
 72
     1
 11
1501.054321
 21
1810.5
 31
0.0
100
AcDbText
  0
LINE
  5
3A0
100
AcDbEntity
  8
LAY-3
  6
CONTINUOUS
 62
     3
100
AcDbLine
 10
1442.554317
 20
1807.0
 30
0.0
 11
1673.554321
 21
1807.0
 31
0.0
  0
LINE
  5
3A1
100
AcDbEntity
  8
LAY-3
  6
CONTINUOUS
 62
     3
100
AcDbLine
 10
1556.054321
 20
1802.0
 30
0.0
 11
1586.054321
 21
1807.0
 31
0.0
  0
LINE
  5
3A2
100
AcDbEntity
  8
LAY-3
  6
CONTINUOUS
 62
     3
100
AcDbLine
 10
1586.054321
 20
1807.0
 30
0.0
 11
1556.054321
 21
1812.0
 31
0.0
  0
LINE
  5
3A3
100
AcDbEntity
  8
LAY-3
  6
CONTINUOUS
 62
     3
100
AcDbLine
 10
1673.554321
 20
1812.0
 30
0.0
 11
1643.554321
 21
1807.0
 31
0.0
  0
LINE
  5
3A4
100
AcDbEntity
  8
LAY-3
  6
CONTINUOUS
 62
     3
100
AcDbLine
 10
1643.554321
 20
1807.0
 30
0.0
 11
1673.554321
 21
1802.0
 31
0.0
  0
ENDBLK
  5
3A5
100
AcDbEntity
  8
0
100
AcDbBlockEnd
  0
ENDSEC
  0
SECTION
  2
ENTITIES
  0
LINE
  5
87
100
AcDbEntity
  8
LAY-1
  6
CONTINUOUS
 62
     7
100
AcDbLine
 10
179.0
 20
115.0
 30
0.0
 11
1999.0
 21
115.0
 31
0.0
  0
LINE
  5
88
100
AcDbEntity
  8
LAY-1
  6
CONTINUOUS
 62
     7
100
AcDbLine
 10
1999.0
 20
115.0
 30
0.0
 11
1999.0
 21
2915.0
 31
0.0
  0
LINE
  5
89
100
AcDbEntity
  8
LAY-1
  6
CONTINUOUS
 62
     7
100
AcDbLine
 10
179.0
 20
115.0
 30
0.0
 11
179.0
 21
2915.0
 31
0.0
  0
LINE
  5
8A
100
AcDbEntity
  8
LAY-1
  6
CONTINUOUS
 62
     7
100
AcDbLine
 10
179.0
 20
2915.0
 30
0.0
 11
1999.0
 21
2915.0
 31
0.0
  0
LINE
  5
8B
100
AcDbEntity
  8
LAY-1
  6
CONTINUOUS
 62
     7
100
AcDbLine
 10
179.0
 20
335.0
 30
0.0
 11
1999.0
 21
335.0
 31
0.0
  0
LINE
  5
8C
100
AcDbEntity
  8
LAY-1
  6
CONTINUOUS
 62
     6
100
AcDbLine
 10
1999.0
 20
215.0
 30
0.0
 11
749.0
 21
215.0
 31
0.0
  0
LINE
  5
8D
100
AcDbEntity
  8
LAY-1
  6
CONTINUOUS
 62
     6
100
AcDbLine
 10
1859.0
 20
335.0
 30
0.0
 11
1859.0
 21
215.0
 31
0.0
  0
LINE
  5
8E
100
AcDbEntity
  8
LAY-1
  6
CONTINUOUS
 62
     6
100
AcDbLine
 10
1809.0
 20
335.0
 30
0.0
 11
1809.0
 21
215.0
 31
0.0
  0
LINE
  5
8F
100
AcDbEntity
  8
LAY-1
  6
CONTINUOUS
 62
     6
100
AcDbLine
 10
1439.0
 20
335.0
 30
0.0
 11
1439.0
 21
115.0
 31
0.0
  0
LINE
  5
90
100
AcDbEntity
  8
LAY-1
  6
CONTINUOUS
 62
     6
100
AcDbLine
 10
1389.0
 20
335.0
 30
0.0
 11
1389.0
 21
115.0
 31
0.0
  0
LINE
  5
91
100
AcDbEntity
  8
LAY-1
  6
CONTINUOUS
 62
     6
100
AcDbLine
 10
799.0
 20
335.0
 30
0.0
 11
799.0
 21
215.0
 31
0.0
  0
LINE
  5
92
100
AcDbEntity
  8
LAY-1
  6
CONTINUOUS
 62
     6
100
AcDbLine
 10
749.0
 20
335.0
 30
0.0
 11
749.0
 21
115.0
 31
0.0
  0
LINE
  5
93
100
AcDbEntity
  8
LAY-1
  6
CONTINUOUS
 62
     6
100
AcDbLine
 10
619.0
 20
335.0
 30
0.0
 11
619.0
 21
115.0
 31
0.0
  0
LINE
  5
94
100
AcDbEntity
  8
LAY-1
  6
CONTINUOUS
 62
     6
100
AcDbLine
 10
489.0
 20
335.0
 30
0.0
 11
489.0
 21
115.0
 31
0.0
  0
LINE
  5
95
100
AcDbEntity
  8
LAY-1
  6
CONTINUOUS
 62
     6
100
AcDbLine
 10
334.0
 20
335.0
 30
0.0
 11
334.0
 21
115.0
 31
0.0
  0
LINE
  5
96
100
AcDbEntity
  8
LAY-1
  6
CONTINUOUS
 62
     6
100
AcDbLine
 10
179.0
 20
285.0
 30
0.0
 11
749.0
 21
285.0
 31
0.0
  0
LINE
  5
97
100
AcDbEntity
  8
LAY-1
  6
EXLTYPE2
 62
     6
100
AcDbLine
 10
179.0
 20
165.0
 30
0.0
 11
489.0
 21
165.0
 31
0.0
  0
CIRCLE
  5
98
100
AcDbEntity
  8
LAY-1
  6
CONTINUOUS
 62
     6
100
AcDbCircle
 10
384.0
 20
140.0
 30
0.0
 40
1.0
  0
CIRCLE
  5
99
100
AcDbEntity
  8
LAY-1
  6
CONTINUOUS
 62
     6
100
AcDbCircle
 10
434.0
 20
140.0
 30
0.0
 40
1.0
  0
TEXT
  5
9A
100
AcDbEntity
  8
LAY-1
  6
CONTINUOUS
 62
     2
100
AcDbText
 10
201.5
 20
288.75
 30
0.0
 40
42.5
  1
製図
 41
1.087059
  7
EXCADSTD
 72
     5
 11
302.326
 21
288.75
 31
0.0
100
AcDbText
  0
TEXT
  5
9B
100
AcDbEntity
  8
LAY-1
  6
CONTINUOUS
 62
     2
100
AcDbText
 10
356.5
 20
288.75
 30
0.0
 40
42.5
  1
写図
 41
1.087059
  7
EXCADSTD
 72
     5
 11
457.326
 21
288.75
 31
0.0
100
AcDbText
  0
TEXT
  5
9C
100
AcDbEntity
  8
LAY-1
  6
CONTINUOUS
 62
     2
100
AcDbText
 10
506.5
 20
288.75
 30
0.0
 40
42.5
  1
検図
 41
0.938824
  7
EXCADSTD
 72
     5
 11
593.577
 21
288.75
 31
0.0
100
AcDbText
  0
TEXT
  5
9D
100
AcDbEntity
  8
LAY-1
  6
CONTINUOUS
 62
     2
100
AcDbText
 10
636.5
 20
288.75
 30
0.0
 40
42.5
  1
承認
 41
0.938824
  7
EXCADSTD
 72
     5
 11
723.577
 21
288.75
 31
0.0
100
AcDbText
  0
TEXT
  5
9E
100
AcDbEntity
  8
LAY-1
  6
CONTINUOUS
 62
     2
100
AcDbText
 10
754.75
 20
278.75
 30
0.0
 40
42.5
  1
品
 41
0.84
  7
EXCADSTD
 72
     5
 11
788.75
 21
278.75
 31
0.0
100
AcDbText
  0
TEXT
  5
9F
100
AcDbEntity
  8
LAY-1
  6
CONTINUOUS
 62
     2
100
AcDbText
 10
754.75
 20
228.75
 30
0.0
 40
42.5
  1
名
 41
0.84
  7
EXCADSTD
 72
     5
 11
788.75
 21
228.75
 31
0.0
100
AcDbText
  0
TEXT
  5
A0
100
AcDbEntity
  8
LAY-1
  6
CONTINUOUS
 62
     2
100
AcDbText
 10
1394.75
 20
278.75
 30
0.0
 40
42.5
  1
品
 41
0.84
  7
EXCADSTD
 72
     5
 11
1428.75
 21
278.75
 31
0.0
100
AcDbText
  0
TEXT
  5
A1
100
AcDbEntity
  8
LAY-1
  6
CONTINUOUS
 62
     2
100
AcDbText
 10
1394.75
 20
228.75
 30
0.0
 40
42.5
  1
番
 41
0.84
  7
EXCADSTD
 72
     5
 11
1428.75
 21
228.75
 31
0.0
100
AcDbText
  0
TEXT
  5
A2
100
AcDbEntity
  8
LAY-1
  6
CONTINUOUS
 62
     2
100
AcDbText
 10
1815.75
 20
278.75
 30
0.0
 40
42.5
  1
尺
 41
0.84
  7
EXCADSTD
 72
     5
 11
1849.75
 21
278.75
 31
0.0
100
AcDbText
  0
TEXT
  5
A3
100
AcDbEntity
  8
LAY-1
  6
CONTINUOUS
 62
     2
100
AcDbText
 10
1815.75
 20
228.75
 30
0.0
 40
42.5
  1
度
 41
0.84
  7
EXCADSTD
 72
     5
 11
1849.75
 21
228.75
 31
0.0
100
AcDbText
  0
TEXT
  5
A4
100
AcDbEntity
  8
LAY-1
  6
CONTINUOUS
 62
     2
100
AcDbText
 10
1394.75
 20
165.75
 30
0.0
 40
42.5
  1
図
 41
0.84
  7
EXCADSTD
 72
     5
 11
1428.75
 21
165.75
 31
0.0
100
AcDbText
  0
TEXT
  5
A5
100
AcDbEntity
  8
LAY-1
  6
CONTINUOUS
 62
     2
100
AcDbText
 10
1394.75
 20
122.75
 30
0.0
 40
42.5
  1
番
 41
0.84
  7
EXCADSTD
 72
     5
 11
1428.75
 21
122.75
 31
0.0
100
AcDbText
  0
CIRCLE
  5
A6
100
AcDbEntity
  8
LAY-1
  6
CONTINUOUS
 62
     6
100
AcDbCircle
 10
229.0
 20
140.0
 30
0.0
 40
1.0
  0
CIRCLE
  5
A7
100
AcDbEntity
  8
LAY-1
  6
CONTINUOUS
 62
     6
100
AcDbCircle
 10
279.0
 20
140.0
 30
0.0
 40
1.0
  0
TEXT
  5
A8
100
AcDbEntity
  8
LAY-1
  6
CONTINUOUS
 62
     2
100
AcDbText
 10
1891.692593
 20
284.9
 30
0.0
 40
40.0
  1
１
 41
1.05
  7
EXCADSTD
 72
     5
 11
1931.692593
 21
284.9
 31
0.0
100
AcDbText
  0
LINE
  5
A9
100
AcDbEntity
  8
LAY-1
  6
CONTINUOUS
 62
     6
100
AcDbLine
 10
1988.0
 20
313.125
 30
0.0
 11
1900.0
 21
238.875
 31
0.0
  0
LINE
  5
AA
100
AcDbEntity
  8
LAY-1
  6
EXLTYPE2
 62
     6
100
AcDbLine
 10
-1.0
 20
1515.0
 30
0.0
 11
179.0
 21
1515.0
 31
0.0
  0
TEXT
  5
AB
100
AcDbEntity
  8
LAY-1
  6
CONTINUOUS
 62
     2
100
AcDbText
 10
1925.292593
 20
223.7
 30
0.0
 40
40.0
  1
１０
 41
0.6825
  7
EXCADSTD
 72
     5
 11
1984.871593
 21
223.7
 31
0.0
100
AcDbText
  0
TEXT
  5
AD
100
AcDbEntity
  8
LAY-1
  6
CONTINUOUS
 62
     2
100
AcDbText
 10
769.0
 20
135.0
 30
0.0
 40
45.0
  1
ジャニス工業株式会社
  7
EXCADTTF1
 72
     5
 11
1369.0
 21
135.0
 31
0.0
100
AcDbText
  0
TEXT
  5
AE
100
AcDbEntity
  8
LAY-1
  6
CONTINUOUS
 62
     6
100
AcDbText
 10
205.5
 20
200.0
 30
0.0
 40
50.0
  1
間瀬
 41
0.8568
  7
EXCADSTD
 72
     5
 11
298.9932
 21
200.0
 31
0.0
100
AcDbText
  0
TEXT
  5
AF
100
AcDbEntity
  8
LAY-1
  6
CONTINUOUS
 62
     6
100
AcDbText
 10
181.044116
 20
126.950073
 30
0.0
 40
25.0
  1
２１
 41
0.75768
  7
EXCADSTD
 72
     5
 11
222.382775
 21
126.950073
 31
0.0
100
AcDbText
  0
TEXT
  5
B0
100
AcDbEntity
  8
LAY-1
  6
CONTINUOUS
 62
     6
100
AcDbText
 10
240.319116
 20
126.950073
 30
0.0
 40
25.0
  1
７
 41
0.89208
  7
EXCADSTD
 72
     5
 11
261.559116
 21
126.950073
 31
0.0
100
AcDbText
  0
TEXT
  5
B1
100
AcDbEntity
  8
LAY-1
  6
CONTINUOUS
 62
     6
100
AcDbText
 10
284.044116
 20
126.950073
 30
0.0
 40
25.0
  1
３０
 41
0.75768
  7
EXCADSTD
 72
     5
 11
325.382775
 21
126.950073
 31
0.0
100
AcDbText
  0
TEXT
  5
B2
100
AcDbEntity
  8
LAY-1
  6
CONTINUOUS
 62
     6
100
AcDbText
 10
633.5
 20
200.0
 30
0.0
 40
50.0
  1
古林
 41
0.8568
  7
EXCADSTD
 72
     5
 11
726.9932
 21
200.0
 31
0.0
100
AcDbText
  0
TEXT
  5
B3
100
AcDbEntity
  8
LAY-1
  6
CONTINUOUS
 62
     6
100
AcDbText
 10
490.499997
 20
200.0
 30
0.0
 40
50.0
  1
地名坊
 41
0.7168
  7
EXCADSTD
 72
     5
 11
618.500003
 21
200.0
 31
0.0
100
AcDbText
  0
TEXT
  5
B4
100
AcDbEntity
  8
LAY-1
  6
CONTINUOUS
 62
     2
100
AcDbText
 10
830.000001
 20
247.5
 30
0.0
 40
55.0
  1
アクセサリーバーＬ型 
 41
0.8064
  7
EXCADSTD
 72
     5
 11
1357.999999
 21
247.5
 31
0.0
100
AcDbText
  0
TEXT
  5
B5
100
AcDbEntity
  8
LAY-1
  6
CONTINUOUS
 62
     2
100
AcDbText
 10
1506.5
 20
275.0
 30
0.0
 40
50.0
  1
ＮＡ１３Ａ
 41
0.7896
  7
EXCADSTD
 72
     5
 11
1741.5
 21
275.0
 31
0.0
100
AcDbText
  0
TEXT
  5
B6
100
AcDbEntity
  8
LAY-1
  6
CONTINUOUS
 62
     2
100
AcDbText
 10
1506.5
 20
225.0
 30
0.0
 40
50.0
  1
ＮＡ１３Ｂ
 41
0.7896
  7
EXCADSTD
 72
     5
 11
1741.5
 21
225.0
 31
0.0
100
AcDbText
  0
TEXT
  5
B7
100
AcDbEntity
  8
LAY-1
  6
CONTINUOUS
 62
     7
100
AcDbText
 10
1516.500001
 20
131.5
 30
0.0
 40
70.0
  1
９６６８００
 41
0.81
  7
EXCADSTD
 72
     5
 11
1921.499999
 21
131.5
 31
0.0
100
AcDbText
  0
TEXT
  5
B8
100
AcDbEntity
  8
LAY-1
  6
CONTINUOUS
 62
     2
100
AcDbText
 10
1454.5
 20
429.0
 30
0.0
 40
50.0
  1
ＮＡ１３Ａ：木目色
 41
0.774667
  7
EXCADSTD
 72
     5
 11
1869.5
 21
429.0
 31
0.0
100
AcDbText
  0
TEXT
  5
B9
100
AcDbEntity
  8
LAY-1
  6
CONTINUOUS
 62
     2
100
AcDbText
 10
1454.5
 20
379.0
 30
0.0
 40
50.0
  1
ＮＡ１３Ｂ：ホワイト色
 41
0.771273
  7
EXCADSTD
 72
     5
 11
1959.5
 21
379.0
 31
0.0
100
AcDbText
  0
LINE
  5
BA
100
AcDbEntity
  8
LAY-2
  6
CONTINUOUS
 62
     2
100
AcDbLine
 10
1602.25462
 20
1165.440402
 30
0.0
 11
1602.25462
 21
1173.361902
 31
0.0
  0
LINE
  5
BB
100
AcDbEntity
  8
LAY-2
  6
CONTINUOUS
 62
     2
100
AcDbLine
 10
1602.25462
 20
1189.362101
 30
0.0
 11
1602.25462
 21
1181.440302
 31
0.0
  0
LINE
  5
BC
100
AcDbEntity
  8
LAY-2
  6
CONTINUOUS
 62
     2
100
AcDbLine
 10
1598.70142
 20
1188.151402
 30
0.0
 11
1598.70142
 21
1182.651102
 31
0.0
  0
LINE
  5
BD
100
AcDbEntity
  8
LAY-2
  6
CONTINUOUS
 62
     2
100
AcDbLine
 10
1603.05492
 20
1173.791702
 30
0.0
 11
1603.05492
 21
1181.010502
 31
0.0
  0
LINE
  5
BE
100
AcDbEntity
  8
LAY-2
  6
CONTINUOUS
 62
     2
100
AcDbLine
 10
1602.25462
 20
1197.440301
 30
0.0
 11
1602.25462
 21
1205.362301
 31
0.0
  0
LINE
  5
BF
100
AcDbEntity
  8
LAY-2
  6
CONTINUOUS
 62
     2
100
AcDbLine
 10
1598.70142
 20
1198.651301
 30
0.0
 11
1598.70142
 21
1204.151301
 31
0.0
  0
LINE
  5
C0
100
AcDbEntity
  8
LAY-2
  6
CONTINUOUS
 62
     2
100
AcDbLine
 10
1603.05492
 20
1189.791901
 30
0.0
 11
1603.05492
 21
1197.010701
 31
0.0
  0
LINE
  5
C1
100
AcDbEntity
  8
LAY-2
  6
CONTINUOUS
 62
     2
100
AcDbLine
 10
1602.25462
 20
1213.440501
 30
0.0
 11
1602.25462
 21
1221.3618
 31
0.0
  0
LINE
  5
C2
100
AcDbEntity
  8
LAY-2
  6
CONTINUOUS
 62
     2
100
AcDbLine
 10
1598.70142
 20
1214.651201
 30
0.0
 11
1598.70142
 21
1220.1513
 31
0.0
  0
LINE
  5
C3
100
AcDbEntity
  8
LAY-2
  6
CONTINUOUS
 62
     2
100
AcDbLine
 10
1603.05492
 20
1205.791901
 30
0.0
 11
1603.05492
 21
1213.010701
 31
0.0
  0
LINE
  5
C4
100
AcDbEntity
  8
LAY-2
  6
CONTINUOUS
 62
     2
100
AcDbLine
 10
1602.25462
 20
1229.4402
 30
0.0
 11
1602.25462
 21
1237.362202
 31
0.0
  0
LINE
  5
C5
100
AcDbEntity
  8
LAY-2
  6
CONTINUOUS
 62
     2
100
AcDbLine
 10
1598.70142
 20
1230.651202
 30
0.0
 11
1598.70142
 21
1236.151302
 31
0.0
  0
LINE
  5
C6
100
AcDbEntity
  8
LAY-2
  6
CONTINUOUS
 62
     2
100
AcDbLine
 10
1603.05492
 20
1221.7918
 30
0.0
 11
1603.05492
 21
1229.0106
 31
0.0
  0
LINE
  5
C7
100
AcDbEntity
  8
LAY-2
  6
CONTINUOUS
 62
     2
100
AcDbLine
 10
1602.25462
 20
1245.440102
 30
0.0
 11
1602.25462
 21
1253.362202
 31
0.0
  0
LINE
  5
C8
100
AcDbEntity
  8
LAY-2
  6
CONTINUOUS
 62
     2
100
AcDbLine
 10
1598.70142
 20
1246.651102
 30
0.0
 11
1598.70142
 21
1252.151202
 31
0.0
  0
LINE
  5
C9
100
AcDbEntity
  8
LAY-2
  6
CONTINUOUS
 62
     2
100
AcDbLine
 10
1603.05492
 20
1237.792302
 30
0.0
 11
1603.05492
 21
1245.010602
 31
0.0
  0
LINE
  5
CA
100
AcDbEntity
  8
LAY-2
  6
CONTINUOUS
 62
     2
100
AcDbLine
 10
1602.25462
 20
1261.440301
 30
0.0
 11
1602.25462
 21
1269.362101
 31
0.0
  0
LINE
  5
CB
100
AcDbEntity
  8
LAY-2
  6
CONTINUOUS
 62
     2
100
AcDbLine
 10
1598.70142
 20
1262.651101
 30
0.0
 11
1598.70142
 21
1268.151201
 31
0.0
  0
LINE
  5
CC
100
AcDbEntity
  8
LAY-2
  6
CONTINUOUS
 62
     2
100
AcDbLine
 10
1603.05492
 20
1253.791702
 30
0.0
 11
1603.05492
 21
1261.010501
 31
0.0
  0
LINE
  5
CD
100
AcDbEntity
  8
LAY-2
  6
CONTINUOUS
 62
     2
100
AcDbLine
 10
1602.25462
 20
1277.440101
 30
0.0
 11
1602.25462
 21
1285.3623
 31
0.0
  0
LINE
  5
CE
100
AcDbEntity
  8
LAY-2
  6
CONTINUOUS
 62
     2
100
AcDbLine
 10
1598.70142
 20
1278.651301
 30
0.0
 11
1598.70142
 21
1284.1511
 31
0.0
  0
LINE
  5
CF
100
AcDbEntity
  8
LAY-2
  6
CONTINUOUS
 62
     2
100
AcDbLine
 10
1603.05492
 20
1269.791901
 30
0.0
 11
1603.05492
 21
1277.010501
 31
0.0
  0
LINE
  5
D0
100
AcDbEntity
  8
LAY-2
  6
CONTINUOUS
 62
     2
100
AcDbLine
 10
1603.05492
 20
1285.7921
 30
0.0
 11
1603.05492
 21
1292.5121
 31
0.0
  0
LINE
  5
D1
100
AcDbEntity
  8
LAY-2
  6
CONTINUOUS
 62
     2
100
AcDbLine
 10
1603.05492
 20
1308.512302
 30
0.0
 11
1603.05492
 21
1301.293502
 31
0.0
  0
LINE
  5
D2
100
AcDbEntity
  8
LAY-2
  6
CONTINUOUS
 62
     2
100
AcDbLine
 10
1602.25462
 20
1292.9419
 30
0.0
 11
1602.25462
 21
1300.863702
 31
0.0
  0
LINE
  5
D3
100
AcDbEntity
  8
LAY-2
  6
CONTINUOUS
 62
     2
100
AcDbLine
 10
1598.70142
 20
1294.1526
 30
0.0
 11
1598.70142
 21
1299.652702
 31
0.0
  0
LINE
  5
D4
100
AcDbEntity
  8
LAY-2
  6
CONTINUOUS
 62
     2
100
AcDbLine
 10
1603.05492
 20
1324.512001
 30
0.0
 11
1603.05492
 21
1317.293702
 31
0.0
  0
LINE
  5
D5
100
AcDbEntity
  8
LAY-2
  6
CONTINUOUS
 62
     2
100
AcDbLine
 10
1602.25462
 20
1308.942102
 30
0.0
 11
1602.25462
 21
1316.863702
 31
0.0
  0
LINE
  5
D6
100
AcDbEntity
  8
LAY-2
  6
CONTINUOUS
 62
     2
100
AcDbLine
 10
1598.70142
 20
1310.152802
 30
0.0
 11
1598.70142
 21
1315.652702
 31
0.0
  0
LINE
  5
D7
100
AcDbEntity
  8
LAY-2
  6
CONTINUOUS
 62
     2
100
AcDbLine
 10
1603.05492
 20
1340.512001
 30
0.0
 11
1603.05492
 21
1333.293701
 31
0.0
  0
LINE
  5
D8
100
AcDbEntity
  8
LAY-2
  6
CONTINUOUS
 62
     2
100
AcDbLine
 10
1602.25462
 20
1324.941601
 30
0.0
 11
1602.25462
 21
1332.864101
 31
0.0
  0
LINE
  5
D9
100
AcDbEntity
  8
LAY-2
  6
CONTINUOUS
 62
     2
100
AcDbLine
 10
1598.70142
 20
1326.153001
 30
0.0
 11
1598.70142
 21
1331.652601
 31
0.0
  0
LINE
  5
DA
100
AcDbEntity
  8
LAY-2
  6
CONTINUOUS
 62
     2
100
AcDbLine
 10
1603.05492
 20
1356.5122
 30
0.0
 11
1603.05492
 21
1349.2934
 31
0.0
  0
LINE
  5
DB
100
AcDbEntity
  8
LAY-2
  6
CONTINUOUS
 62
     2
100
AcDbLine
 10
1602.25462
 20
1340.941801
 30
0.0
 11
1602.25462
 21
1348.8636
 31
0.0
  0
LINE
  5
DC
100
AcDbEntity
  8
LAY-2
  6
CONTINUOUS
 62
     2
100
AcDbLine
 10
1598.70142
 20
1342.153001
 30
0.0
 11
1598.70142
 21
1347.6528
 31
0.0
  0
LINE
  5
DD
100
AcDbEntity
  8
LAY-2
  6
CONTINUOUS
 62
     2
100
AcDbLine
 10
1603.05492
 20
1372.511902
 30
0.0
 11
1603.05492
 21
1365.293602
 31
0.0
  0
LINE
  5
DE
100
AcDbEntity
  8
LAY-2
  6
CONTINUOUS
 62
     2
100
AcDbLine
 10
1602.25462
 20
1356.942
 30
0.0
 11
1602.25462
 21
1364.863802
 31
0.0
  0
LINE
  5
DF
100
AcDbEntity
  8
LAY-2
  6
CONTINUOUS
 62
     2
100
AcDbLine
 10
1598.70142
 20
1358.1527
 30
0.0
 11
1598.70142
 21
1363.653002
 31
0.0
  0
LINE
  5
E0
100
AcDbEntity
  8
LAY-2
  6
CONTINUOUS
 62
     2
100
AcDbLine
 10
1603.05492
 20
1388.512101
 30
0.0
 11
1603.05492
 21
1381.293502
 31
0.0
  0
LINE
  5
E1
100
AcDbEntity
  8
LAY-2
  6
CONTINUOUS
 62
     2
100
AcDbLine
 10
1602.25462
 20
1372.941902
 30
0.0
 11
1602.25462
 21
1380.864002
 31
0.0
  0
LINE
  5
E2
100
AcDbEntity
  8
LAY-2
  6
CONTINUOUS
 62
     2
100
AcDbLine
 10
1598.70142
 20
1374.152902
 30
0.0
 11
1598.70142
 21
1379.653002
 31
0.0
  0
LINE
  5
E3
100
AcDbEntity
  8
LAY-2
  6
CONTINUOUS
 62
     2
100
AcDbLine
 10
1603.05492
 20
1404.512301
 30
0.0
 11
1603.05492
 21
1397.293701
 31
0.0
  0
LINE
  5
E4
100
AcDbEntity
  8
LAY-2
  6
CONTINUOUS
 62
     2
100
AcDbLine
 10
1602.25462
 20
1388.942101
 30
0.0
 11
1602.25462
 21
1396.863401
 31
0.0
  0
LINE
  5
E5
100
AcDbEntity
  8
LAY-2
  6
CONTINUOUS
 62
     2
100
AcDbLine
 10
1598.70142
 20
1390.152901
 30
0.0
 11
1598.70142
 21
1395.653001
 31
0.0
  0
LINE
  5
E6
100
AcDbEntity
  8
LAY-2
  6
CONTINUOUS
 62
     2
100
AcDbLine
 10
1603.05492
 20
1420.5122
 30
0.0
 11
1603.05492
 21
1413.2934
 31
0.0
  0
LINE
  5
E7
100
AcDbEntity
  8
LAY-2
  6
CONTINUOUS
 62
     2
100
AcDbLine
 10
1602.25462
 20
1404.941801
 30
0.0
 11
1602.25462
 21
1412.8636
 31
0.0
  0
LINE
  5
E8
100
AcDbEntity
  8
LAY-2
  6
CONTINUOUS
 62
     2
100
AcDbLine
 10
1598.70142
 20
1406.152801
 30
0.0
 11
1598.70142
 21
1411.6529
 31
0.0
  0
LINE
  5
E9
100
AcDbEntity
  8
LAY-2
  6
CONTINUOUS
 62
     2
100
AcDbLine
 10
1603.05492
 20
1436.512202
 30
0.0
 11
1603.05492
 21
1429.293402
 31
0.0
  0
LINE
  5
EA
100
AcDbEntity
  8
LAY-2
  6
CONTINUOUS
 62
     2
100
AcDbLine
 10
1602.25462
 20
1420.9418
 30
0.0
 11
1602.25462
 21
1428.863802
 31
0.0
  0
LINE
  5
EB
100
AcDbEntity
  8
LAY-2
  6
CONTINUOUS
 62
     2
100
AcDbLine
 10
1598.70142
 20
1422.1528
 30
0.0
 11
1598.70142
 21
1427.652902
 31
0.0
  0
LINE
  5
EC
100
AcDbEntity
  8
LAY-2
  6
CONTINUOUS
 62
     2
100
AcDbLine
 10
1603.05492
 20
1452.512201
 30
0.0
 11
1603.05492
 21
1445.293602
 31
0.0
  0
LINE
  5
ED
100
AcDbEntity
  8
LAY-2
  6
CONTINUOUS
 62
     2
100
AcDbLine
 10
1602.25462
 20
1436.942002
 30
0.0
 11
1602.25462
 21
1444.863502
 31
0.0
  0
LINE
  5
EE
100
AcDbEntity
  8
LAY-2
  6
CONTINUOUS
 62
     2
100
AcDbLine
 10
1598.70142
 20
1438.152702
 30
0.0
 11
1598.70142
 21
1443.652802
 31
0.0
  0
LINE
  5
EF
100
AcDbEntity
  8
LAY-2
  6
CONTINUOUS
 62
     2
100
AcDbLine
 10
1603.05492
 20
1468.512101
 30
0.0
 11
1603.05492
 21
1461.293801
 31
0.0
  0
LINE
  5
F0
100
AcDbEntity
  8
LAY-2
  6
CONTINUOUS
 62
     2
100
AcDbLine
 10
1602.25462
 20
1460.864001
 30
0.0
 11
1602.25462
 21
1452.941701
 31
0.0
  0
LINE
  5
F1
100
AcDbEntity
  8
LAY-2
  6
CONTINUOUS
 62
     2
100
AcDbLine
 10
1598.70142
 20
1459.653301
 30
0.0
 11
1598.70142
 21
1454.152701
 31
0.0
  0
LINE
  5
F2
100
AcDbEntity
  8
LAY-2
  6
CONTINUOUS
 62
     2
100
AcDbLine
 10
1602.25462
 20
1468.941901
 30
0.0
 11
1602.25462
 21
1476.8637
 31
0.0
  0
LINE
  5
F3
100
AcDbEntity
  8
LAY-2
  6
CONTINUOUS
 62
     2
100
AcDbLine
 10
1598.70142
 20
1470.152601
 30
0.0
 11
1598.70142
 21
1475.652701
 31
0.0
  0
LINE
  5
F4
100
AcDbEntity
  8
LAY-2
  6
CONTINUOUS
 62
     2
100
AcDbLine
 10
1602.25462
 20
1668.365501
 30
0.0
 11
1602.25462
 21
1660.443501
 31
0.0
  0
LINE
  5
F5
100
AcDbEntity
  8
LAY-2
  6
CONTINUOUS
 62
     2
100
AcDbLine
 10
1598.70142
 20
1667.154301
 30
0.0
 11
1598.70142
 21
1661.654501
 31
0.0
  0
LINE
  5
F6
100
AcDbEntity
  8
LAY-2
  6
CONTINUOUS
 62
     2
100
AcDbLine
 10
1603.05492
 20
1676.0137
 30
0.0
 11
1603.05492
 21
1668.795101
 31
0.0
  0
LINE
  5
F7
100
AcDbEntity
  8
LAY-2
  6
CONTINUOUS
 62
     2
100
AcDbLine
 10
1603.05492
 20
1660.014001
 30
0.0
 11
1603.05492
 21
1653.293501
 31
0.0
  0
LINE
  5
F8
100
AcDbEntity
  8
LAY-2
  6
CONTINUOUS
 62
     2
100
AcDbLine
 10
1603.05492
 20
1637.293802
 30
0.0
 11
1603.05492
 21
1644.512102
 31
0.0
  0
LINE
  5
F9
100
AcDbEntity
  8
LAY-2
  6
CONTINUOUS
 62
     2
100
AcDbLine
 10
1602.25462
 20
1652.863701
 30
0.0
 11
1602.25462
 21
1644.941902
 31
0.0
  0
LINE
  5
FA
100
AcDbEntity
  8
LAY-2
  6
CONTINUOUS
 62
     2
100
AcDbLine
 10
1598.70142
 20
1651.653001
 30
0.0
 11
1598.70142
 21
1646.152601
 31
0.0
  0
LINE
  5
FB
100
AcDbEntity
  8
LAY-2
  6
CONTINUOUS
 62
     2
100
AcDbLine
 10
1603.05492
 20
1621.293602
 30
0.0
 11
1603.05492
 21
1628.512102
 31
0.0
  0
LINE
  5
FC
100
AcDbEntity
  8
LAY-2
  6
CONTINUOUS
 62
     2
100
AcDbLine
 10
1602.25462
 20
1636.864002
 30
0.0
 11
1602.25462
 21
1628.942202
 31
0.0
  0
LINE
  5
FD
100
AcDbEntity
  8
LAY-2
  6
CONTINUOUS
 62
     2
100
AcDbLine
 10
1598.70142
 20
1635.653002
 30
0.0
 11
1598.70142
 21
1630.152902
 31
0.0
  0
LINE
  5
FE
100
AcDbEntity
  8
LAY-2
  6
CONTINUOUS
 62
     2
100
AcDbLine
 10
1603.05492
 20
1605.293401
 30
0.0
 11
1603.05492
 21
1612.5122
 31
0.0
  0
LINE
  5
FF
100
AcDbEntity
  8
LAY-2
  6
CONTINUOUS
 62
     2
100
AcDbLine
 10
1602.25462
 20
1620.8635
 30
0.0
 11
1602.25462
 21
1612.942
 31
0.0
  0
LINE
  5
100
100
AcDbEntity
  8
LAY-2
  6
CONTINUOUS
 62
     2
100
AcDbLine
 10
1598.70142
 20
1619.6526
 30
0.0
 11
1598.70142
 21
1614.1527
 31
0.0
  0
LINE
  5
101
100
AcDbEntity
  8
LAY-2
  6
CONTINUOUS
 62
     2
100
AcDbLine
 10
1603.05492
 20
1589.293901
 30
0.0
 11
1603.05492
 21
1596.512201
 31
0.0
  0
LINE
  5
102
100
AcDbEntity
  8
LAY-2
  6
CONTINUOUS
 62
     2
100
AcDbLine
 10
1602.25462
 20
1604.863801
 30
0.0
 11
1602.25462
 21
1596.941801
 31
0.0
  0
LINE
  5
103
100
AcDbEntity
  8
LAY-2
  6
CONTINUOUS
 62
     2
100
AcDbLine
 10
1598.70142
 20
1603.652901
 30
0.0
 11
1598.70142
 21
1598.153301
 31
0.0
  0
LINE
  5
104
100
AcDbEntity
  8
LAY-2
  6
CONTINUOUS
 62
     2
100
AcDbLine
 10
1603.05492
 20
1573.293502
 30
0.0
 11
1603.05492
 21
1580.512002
 31
0.0
  0
LINE
  5
105
100
AcDbEntity
  8
LAY-2
  6
CONTINUOUS
 62
     2
100
AcDbLine
 10
1602.25462
 20
1588.863601
 30
0.0
 11
1602.25462
 21
1580.941801
 31
0.0
  0
LINE
  5
106
100
AcDbEntity
  8
LAY-2
  6
CONTINUOUS
 62
     2
100
AcDbLine
 10
1598.70142
 20
1587.652901
 30
0.0
 11
1598.70142
 21
1582.152801
 31
0.0
  0
LINE
  5
107
100
AcDbEntity
  8
LAY-2
  6
CONTINUOUS
 62
     2
100
AcDbLine
 10
1603.05492
 20
1557.293502
 30
0.0
 11
1603.05492
 21
1564.512302
 31
0.0
  0
LINE
  5
108
100
AcDbEntity
  8
LAY-2
  6
CONTINUOUS
 62
     2
100
AcDbLine
 10
1602.25462
 20
1572.863902
 30
0.0
 11
1602.25462
 21
1564.942102
 31
0.0
  0
LINE
  5
109
100
AcDbEntity
  8
LAY-2
  6
CONTINUOUS
 62
     2
100
AcDbLine
 10
1598.70142
 20
1571.652702
 30
0.0
 11
1598.70142
 21
1566.152902
 31
0.0
  0
LINE
  5
10A
100
AcDbEntity
  8
LAY-2
  6
CONTINUOUS
 62
     2
100
AcDbLine
 10
1603.05492
 20
1541.293601
 30
0.0
 11
1603.05492
 21
1548.5124
 31
0.0
  0
LINE
  5
10B
100
AcDbEntity
  8
LAY-2
  6
CONTINUOUS
 62
     2
100
AcDbLine
 10
1602.25462
 20
1556.864002
 30
0.0
 11
1602.25462
 21
1548.9419
 31
0.0
  0
LINE
  5
10C
100
AcDbEntity
  8
LAY-2
  6
CONTINUOUS
 62
     2
100
AcDbLine
 10
1598.70142
 20
1555.653
 30
0.0
 11
1598.70142
 21
1550.1529
 31
0.0
  0
LINE
  5
10D
100
AcDbEntity
  8
LAY-2
  6
CONTINUOUS
 62
     2
100
AcDbLine
 10
1603.05492
 20
1525.293401
 30
0.0
 11
1603.05492
 21
1532.512201
 31
0.0
  0
LINE
  5
10E
100
AcDbEntity
  8
LAY-2
  6
CONTINUOUS
 62
     2
100
AcDbLine
 10
1602.25462
 20
1540.863801
 30
0.0
 11
1602.25462
 21
1532.942001
 31
0.0
  0
LINE
  5
10F
100
AcDbEntity
  8
LAY-2
  6
CONTINUOUS
 62
     2
100
AcDbLine
 10
1598.70142
 20
1539.653001
 30
0.0
 11
1598.70142
 21
1534.152701
 31
0.0
  0
LINE
  5
110
100
AcDbEntity
  8
LAY-2
  6
CONTINUOUS
 62
     2
100
AcDbLine
 10
1603.05492
 20
1509.293702
 30
0.0
 11
1603.05492
 21
1516.512001
 31
0.0
  0
LINE
  5
111
100
AcDbEntity
  8
LAY-2
  6
CONTINUOUS
 62
     2
100
AcDbLine
 10
1602.25462
 20
1524.863601
 30
0.0
 11
1602.25462
 21
1516.941801
 31
0.0
  0
LINE
  5
112
100
AcDbEntity
  8
LAY-2
  6
CONTINUOUS
 62
     2
100
AcDbLine
 10
1598.70142
 20
1523.652801
 30
0.0
 11
1598.70142
 21
1518.153001
 31
0.0
  0
LINE
  5
113
100
AcDbEntity
  8
LAY-2
  6
CONTINUOUS
 62
     2
100
AcDbLine
 10
1603.05492
 20
1493.293702
 30
0.0
 11
1603.05492
 21
1500.512002
 31
0.0
  0
LINE
  5
114
100
AcDbEntity
  8
LAY-2
  6
CONTINUOUS
 62
     2
100
AcDbLine
 10
1602.25462
 20
1508.863902
 30
0.0
 11
1602.25462
 21
1500.942102
 31
0.0
  0
LINE
  5
115
100
AcDbEntity
  8
LAY-2
  6
CONTINUOUS
 62
     2
100
AcDbLine
 10
1598.70142
 20
1507.652602
 30
0.0
 11
1598.70142
 21
1502.153002
 31
0.0
  0
LINE
  5
116
100
AcDbEntity
  8
LAY-2
  6
CONTINUOUS
 62
     2
100
AcDbLine
 10
1603.05492
 20
1477.2935
 30
0.0
 11
1603.05492
 21
1484.5121
 31
0.0
  0
LINE
  5
117
100
AcDbEntity
  8
LAY-2
  6
CONTINUOUS
 62
     2
100
AcDbLine
 10
1602.25462
 20
1484.9421
 30
0.0
 11
1602.25462
 21
1492.863602
 31
0.0
  0
LINE
  5
118
100
AcDbEntity
  8
LAY-2
  6
CONTINUOUS
 62
     2
100
AcDbLine
 10
1598.70142
 20
1486.1528
 30
0.0
 11
1598.70142
 21
1491.652702
 31
0.0
  0
LINE
  5
119
100
AcDbEntity
  8
LAY-2
  6
CONTINUOUS
 62
     2
100
AcDbLine
 10
1568.054521
 20
1684.8416
 30
0.0
 11
1568.054521
 21
1703.241002
 31
0.0
  0
LINE
  5
11A
100
AcDbEntity
  8
LAY-2
  6
CONTINUOUS
 62
     2
100
AcDbLine
 10
1639.479521
 20
1746.5414
 30
0.0
 11
1642.754621
 21
1746.5414
 31
0.0
  0
LINE
  5
11B
100
AcDbEntity
  8
LAY-2
  6
CONTINUOUS
 62
     2
100
AcDbLine
 10
1603.55522
 20
1684.5414
 30
0.0
 11
1568.354421
 21
1684.5414
 31
0.0
  0
LINE
  5
11C
100
AcDbEntity
  8
LAY-2
  6
CONTINUOUS
 62
     2
100
AcDbLine
 10
1638.665921
 20
1746.3685
 30
0.0
 11
1578.733521
 21
1719.684801
 31
0.0
  0
LINE
  5
11D
100
AcDbEntity
  8
LAY-2
  6
CONTINUOUS
 62
     2
100
AcDbLine
 10
1643.554321
 20
1746.2415
 30
0.0
 11
1643.054521
 21
1746.2415
 31
0.0
  0
LINE
  5
11E
100
AcDbEntity
  8
LAY-2
  6
CONTINUOUS
 62
     2
100
AcDbLine
 10
1598.70142
 20
1684.5414
 30
0.0
 11
1598.70142
 21
1677.6542
 31
0.0
  0
LINE
  5
11F
100
AcDbEntity
  8
LAY-2
  6
CONTINUOUS
 62
     2
100
AcDbLine
 10
1602.25462
 20
1684.5414
 30
0.0
 11
1602.25462
 21
1676.4435
 31
0.0
  0
LINE
  5
120
100
AcDbEntity
  8
LAY-2
  6
CONTINUOUS
 62
     2
100
AcDbLine
 10
1569.054621
 20
1161.5412
 30
0.0
 11
1569.054621
 21
1684.5414
 31
0.0
  0
ARC
  5
121
100
AcDbEntity
  8
LAY-2
  6
CONTINUOUS
 62
     2
100
AcDbCircle
 10
1603.05492
 20
1165.196602
 30
0.0
 40
8.20462
100
AcDbArc
 50
92.664442
 51
122.04336
  0
ARC
  5
122
100
AcDbEntity
  8
LAY-2
  6
CONTINUOUS
 62
     2
100
AcDbCircle
 10
1603.05492
 20
1181.196802
 30
0.0
 40
8.20462
100
AcDbArc
 50
92.664442
 51
122.04336
  0
ARC
  5
123
100
AcDbEntity
  8
LAY-2
  6
CONTINUOUS
 62
     2
100
AcDbCircle
 10
1603.05492
 20
1189.606101
 30
0.0
 40
8.20462
100
AcDbArc
 50
237.956609
 51
267.335538
  0
ARC
  5
124
100
AcDbEntity
  8
LAY-2
  6
CONTINUOUS
 62
     2
100
AcDbCircle
 10
1602.65452
 20
1173.791702
 30
0.0
 40
0.4
100
AcDbArc
 50
272.66444
 51
0.0
  0
ARC
  5
125
100
AcDbEntity
  8
LAY-2
  6
CONTINUOUS
 62
     2
100
AcDbCircle
 10
1602.65452
 20
1189.791901
 30
0.0
 40
0.4
100
AcDbArc
 50
272.66444
 51
0.0
  0
ARC
  5
126
100
AcDbEntity
  8
LAY-2
  6
CONTINUOUS
 62
     2
100
AcDbCircle
 10
1602.65452
 20
1181.010502
 30
0.0
 40
0.4
100
AcDbArc
 50
0.0
 51
87.33554
  0
ARC
  5
127
100
AcDbEntity
  8
LAY-2
  6
CONTINUOUS
 62
     2
100
AcDbCircle
 10
1602.65452
 20
1197.010701
 30
0.0
 40
0.4
100
AcDbArc
 50
0.0
 51
87.33554
  0
ARC
  5
128
100
AcDbEntity
  8
LAY-2
  6
CONTINUOUS
 62
     2
100
AcDbCircle
 10
1602.65452
 20
1205.791901
 30
0.0
 40
0.4
100
AcDbArc
 50
272.66444
 51
0.0
  0
ARC
  5
129
100
AcDbEntity
  8
LAY-2
  6
CONTINUOUS
 62
     2
100
AcDbCircle
 10
1603.05492
 20
1205.605801
 30
0.0
 40
8.20462
100
AcDbArc
 50
237.956609
 51
267.335538
  0
ARC
  5
12A
100
AcDbEntity
  8
LAY-2
  6
CONTINUOUS
 62
     2
100
AcDbCircle
 10
1603.05492
 20
1197.196301
 30
0.0
 40
8.20462
100
AcDbArc
 50
92.664442
 51
122.04336
  0
ARC
  5
12B
100
AcDbEntity
  8
LAY-2
  6
CONTINUOUS
 62
     2
100
AcDbCircle
 10
1602.65452
 20
1213.010701
 30
0.0
 40
0.4
100
AcDbArc
 50
0.0
 51
87.33554
  0
ARC
  5
12C
100
AcDbEntity
  8
LAY-2
  6
CONTINUOUS
 62
     2
100
AcDbCircle
 10
1602.65452
 20
1221.7918
 30
0.0
 40
0.4
100
AcDbArc
 50
272.66444
 51
0.0
  0
ARC
  5
12D
100
AcDbEntity
  8
LAY-2
  6
CONTINUOUS
 62
     2
100
AcDbCircle
 10
1603.05492
 20
1221.6058
 30
0.0
 40
8.20462
100
AcDbArc
 50
237.956609
 51
267.335538
  0
ARC
  5
12E
100
AcDbEntity
  8
LAY-2
  6
CONTINUOUS
 62
     2
100
AcDbCircle
 10
1603.05492
 20
1213.196501
 30
0.0
 40
8.20462
100
AcDbArc
 50
92.664442
 51
122.04336
  0
ARC
  5
12F
100
AcDbEntity
  8
LAY-2
  6
CONTINUOUS
 62
     2
100
AcDbCircle
 10
1602.65452
 20
1229.0106
 30
0.0
 40
0.4
100
AcDbArc
 50
0.0
 51
87.33554
  0
ARC
  5
130
100
AcDbEntity
  8
LAY-2
  6
CONTINUOUS
 62
     2
100
AcDbCircle
 10
1602.65452
 20
1237.792302
 30
0.0
 40
0.4
100
AcDbArc
 50
272.66444
 51
0.0
  0
ARC
  5
131
100
AcDbEntity
  8
LAY-2
  6
CONTINUOUS
 62
     2
100
AcDbCircle
 10
1603.05492
 20
1237.606002
 30
0.0
 40
8.20462
100
AcDbArc
 50
237.956609
 51
267.335538
  0
ARC
  5
132
100
AcDbEntity
  8
LAY-2
  6
CONTINUOUS
 62
     2
100
AcDbCircle
 10
1603.05492
 20
1229.1967
 30
0.0
 40
8.20462
100
AcDbArc
 50
92.664442
 51
122.04336
  0
ARC
  5
133
100
AcDbEntity
  8
LAY-2
  6
CONTINUOUS
 62
     2
100
AcDbCircle
 10
1602.65452
 20
1245.010602
 30
0.0
 40
0.4
100
AcDbArc
 50
0.0
 51
87.33554
  0
ARC
  5
134
100
AcDbEntity
  8
LAY-2
  6
CONTINUOUS
 62
     2
100
AcDbCircle
 10
1602.65452
 20
1253.791702
 30
0.0
 40
0.4
100
AcDbArc
 50
272.66444
 51
0.0
  0
ARC
  5
135
100
AcDbEntity
  8
LAY-2
  6
CONTINUOUS
 62
     2
100
AcDbCircle
 10
1603.05492
 20
1253.605702
 30
0.0
 40
8.20462
100
AcDbArc
 50
237.956609
 51
267.335538
  0
ARC
  5
136
100
AcDbEntity
  8
LAY-2
  6
CONTINUOUS
 62
     2
100
AcDbCircle
 10
1603.05492
 20
1245.196402
 30
0.0
 40
8.20462
100
AcDbArc
 50
92.664442
 51
122.04336
  0
ARC
  5
137
100
AcDbEntity
  8
LAY-2
  6
CONTINUOUS
 62
     2
100
AcDbCircle
 10
1602.65452
 20
1261.010501
 30
0.0
 40
0.4
100
AcDbArc
 50
0.0
 51
87.33554
  0
ARC
  5
138
100
AcDbEntity
  8
LAY-2
  6
CONTINUOUS
 62
     2
100
AcDbCircle
 10
1602.65452
 20
1269.791901
 30
0.0
 40
0.4
100
AcDbArc
 50
272.66444
 51
0.0
  0
ARC
  5
139
100
AcDbEntity
  8
LAY-2
  6
CONTINUOUS
 62
     2
100
AcDbCircle
 10
1603.05492
 20
1269.605601
 30
0.0
 40
8.20462
100
AcDbArc
 50
237.956609
 51
267.335538
  0
ARC
  5
13A
100
AcDbEntity
  8
LAY-2
  6
CONTINUOUS
 62
     2
100
AcDbCircle
 10
1603.05492
 20
1261.196901
 30
0.0
 40
8.20462
100
AcDbArc
 50
92.664442
 51
122.04336
  0
ARC
  5
13B
100
AcDbEntity
  8
LAY-2
  6
CONTINUOUS
 62
     2
100
AcDbCircle
 10
1602.65452
 20
1277.010501
 30
0.0
 40
0.4
100
AcDbArc
 50
0.0
 51
87.33554
  0
ARC
  5
13C
100
AcDbEntity
  8
LAY-2
  6
CONTINUOUS
 62
     2
100
AcDbCircle
 10
1602.65452
 20
1285.7921
 30
0.0
 40
0.4
100
AcDbArc
 50
272.66444
 51
0.0
  0
ARC
  5
13D
100
AcDbEntity
  8
LAY-2
  6
CONTINUOUS
 62
     2
100
AcDbCircle
 10
1603.05492
 20
1285.6061
 30
0.0
 40
8.20462
100
AcDbArc
 50
237.956609
 51
267.335538
  0
ARC
  5
13E
100
AcDbEntity
  8
LAY-2
  6
CONTINUOUS
 62
     2
100
AcDbCircle
 10
1603.05492
 20
1277.196601
 30
0.0
 40
8.20462
100
AcDbArc
 50
92.664442
 51
122.04336
  0
ARC
  5
13F
100
AcDbEntity
  8
LAY-2
  6
CONTINUOUS
 62
     2
100
AcDbCircle
 10
1603.05492
 20
1301.107202
 30
0.0
 40
8.20462
100
AcDbArc
 50
237.956609
 51
267.335538
  0
ARC
  5
140
100
AcDbEntity
  8
LAY-2
  6
CONTINUOUS
 62
     2
100
AcDbCircle
 10
1603.05492
 20
1292.6979
 30
0.0
 40
8.20462
100
AcDbArc
 50
92.664442
 51
122.04336
  0
ARC
  5
141
100
AcDbEntity
  8
LAY-2
  6
CONTINUOUS
 62
     2
100
AcDbCircle
 10
1602.65452
 20
1292.5121
 30
0.0
 40
0.4
100
AcDbArc
 50
0.0
 51
87.33554
  0
ARC
  5
142
100
AcDbEntity
  8
LAY-2
  6
CONTINUOUS
 62
     2
100
AcDbCircle
 10
1602.65452
 20
1301.293502
 30
0.0
 40
0.4
100
AcDbArc
 50
272.66444
 51
0.0
  0
ARC
  5
143
100
AcDbEntity
  8
LAY-2
  6
CONTINUOUS
 62
     2
100
AcDbCircle
 10
1603.05492
 20
1317.107402
 30
0.0
 40
8.20462
100
AcDbArc
 50
237.956609
 51
267.335538
  0
ARC
  5
144
100
AcDbEntity
  8
LAY-2
  6
CONTINUOUS
 62
     2
100
AcDbCircle
 10
1603.05492
 20
1308.698102
 30
0.0
 40
8.20462
100
AcDbArc
 50
92.664442
 51
122.04336
  0
ARC
  5
145
100
AcDbEntity
  8
LAY-2
  6
CONTINUOUS
 62
     2
100
AcDbCircle
 10
1602.65452
 20
1308.512302
 30
0.0
 40
0.4
100
AcDbArc
 50
0.0
 51
87.33554
  0
ARC
  5
146
100
AcDbEntity
  8
LAY-2
  6
CONTINUOUS
 62
     2
100
AcDbCircle
 10
1602.65452
 20
1317.293702
 30
0.0
 40
0.4
100
AcDbArc
 50
272.66444
 51
0.0
  0
ARC
  5
147
100
AcDbEntity
  8
LAY-2
  6
CONTINUOUS
 62
     2
100
AcDbCircle
 10
1603.05492
 20
1333.107601
 30
0.0
 40
8.20462
100
AcDbArc
 50
237.956609
 51
267.335538
  0
ARC
  5
148
100
AcDbEntity
  8
LAY-2
  6
CONTINUOUS
 62
     2
100
AcDbCircle
 10
1603.05492
 20
1324.698101
 30
0.0
 40
8.20462
100
AcDbArc
 50
92.664442
 51
122.04336
  0
ARC
  5
149
100
AcDbEntity
  8
LAY-2
  6
CONTINUOUS
 62
     2
100
AcDbCircle
 10
1602.65452
 20
1324.512001
 30
0.0
 40
0.4
100
AcDbArc
 50
0.0
 51
87.33554
  0
ARC
  5
14A
100
AcDbEntity
  8
LAY-2
  6
CONTINUOUS
 62
     2
100
AcDbCircle
 10
1602.65452
 20
1333.293701
 30
0.0
 40
0.4
100
AcDbArc
 50
272.66444
 51
0.0
  0
ARC
  5
14B
100
AcDbEntity
  8
LAY-2
  6
CONTINUOUS
 62
     2
100
AcDbCircle
 10
1603.05492
 20
1349.1073
 30
0.0
 40
8.20462
100
AcDbArc
 50
237.956609
 51
267.335538
  0
ARC
  5
14C
100
AcDbEntity
  8
LAY-2
  6
CONTINUOUS
 62
     2
100
AcDbCircle
 10
1603.05492
 20
1340.698301
 30
0.0
 40
8.20462
100
AcDbArc
 50
92.664442
 51
122.04336
  0
ARC
  5
14D
100
AcDbEntity
  8
LAY-2
  6
CONTINUOUS
 62
     2
100
AcDbCircle
 10
1602.65452
 20
1340.512001
 30
0.0
 40
0.4
100
AcDbArc
 50
0.0
 51
87.33554
  0
ARC
  5
14E
100
AcDbEntity
  8
LAY-2
  6
CONTINUOUS
 62
     2
100
AcDbCircle
 10
1602.65452
 20
1349.2934
 30
0.0
 40
0.4
100
AcDbArc
 50
272.66444
 51
0.0
  0
ARC
  5
14F
100
AcDbEntity
  8
LAY-2
  6
CONTINUOUS
 62
     2
100
AcDbCircle
 10
1603.05492
 20
1365.107502
 30
0.0
 40
8.20462
100
AcDbArc
 50
237.956609
 51
267.335538
  0
ARC
  5
150
100
AcDbEntity
  8
LAY-2
  6
CONTINUOUS
 62
     2
100
AcDbCircle
 10
1603.05492
 20
1356.6985
 30
0.0
 40
8.20462
100
AcDbArc
 50
92.664442
 51
122.04336
  0
ARC
  5
151
100
AcDbEntity
  8
LAY-2
  6
CONTINUOUS
 62
     2
100
AcDbCircle
 10
1602.65452
 20
1356.5122
 30
0.0
 40
0.4
100
AcDbArc
 50
0.0
 51
87.33554
  0
ARC
  5
152
100
AcDbEntity
  8
LAY-2
  6
CONTINUOUS
 62
     2
100
AcDbCircle
 10
1602.65452
 20
1365.293602
 30
0.0
 40
0.4
100
AcDbArc
 50
272.66444
 51
0.0
  0
ARC
  5
153
100
AcDbEntity
  8
LAY-2
  6
CONTINUOUS
 62
     2
100
AcDbCircle
 10
1603.05492
 20
1381.107402
 30
0.0
 40
8.20462
100
AcDbArc
 50
237.956609
 51
267.335538
  0
ARC
  5
154
100
AcDbEntity
  8
LAY-2
  6
CONTINUOUS
 62
     2
100
AcDbCircle
 10
1603.05492
 20
1372.698002
 30
0.0
 40
8.20462
100
AcDbArc
 50
92.664442
 51
122.04336
  0
ARC
  5
155
100
AcDbEntity
  8
LAY-2
  6
CONTINUOUS
 62
     2
100
AcDbCircle
 10
1602.65452
 20
1372.511902
 30
0.0
 40
0.4
100
AcDbArc
 50
0.0
 51
87.33554
  0
ARC
  5
156
100
AcDbEntity
  8
LAY-2
  6
CONTINUOUS
 62
     2
100
AcDbCircle
 10
1602.65452
 20
1381.293502
 30
0.0
 40
0.4
100
AcDbArc
 50
272.66444
 51
0.0
  0
ARC
  5
157
100
AcDbEntity
  8
LAY-2
  6
CONTINUOUS
 62
     2
100
AcDbCircle
 10
1603.05492
 20
1397.107401
 30
0.0
 40
8.20462
100
AcDbArc
 50
237.956609
 51
267.335538
  0
ARC
  5
158
100
AcDbEntity
  8
LAY-2
  6
CONTINUOUS
 62
     2
100
AcDbCircle
 10
1603.05492
 20
1388.698201
 30
0.0
 40
8.20462
100
AcDbArc
 50
92.664442
 51
122.04336
  0
ARC
  5
159
100
AcDbEntity
  8
LAY-2
  6
CONTINUOUS
 62
     2
100
AcDbCircle
 10
1602.65452
 20
1388.512101
 30
0.0
 40
0.4
100
AcDbArc
 50
0.0
 51
87.33554
  0
ARC
  5
15A
100
AcDbEntity
  8
LAY-2
  6
CONTINUOUS
 62
     2
100
AcDbCircle
 10
1602.65452
 20
1397.293701
 30
0.0
 40
0.4
100
AcDbArc
 50
272.66444
 51
0.0
  0
ARC
  5
15B
100
AcDbEntity
  8
LAY-2
  6
CONTINUOUS
 62
     2
100
AcDbCircle
 10
1603.05492
 20
1413.1076
 30
0.0
 40
8.20462
100
AcDbArc
 50
237.956609
 51
267.335538
  0
ARC
  5
15C
100
AcDbEntity
  8
LAY-2
  6
CONTINUOUS
 62
     2
100
AcDbCircle
 10
1603.05492
 20
1404.698401
 30
0.0
 40
8.20462
100
AcDbArc
 50
92.664442
 51
122.04336
  0
ARC
  5
15D
100
AcDbEntity
  8
LAY-2
  6
CONTINUOUS
 62
     2
100
AcDbCircle
 10
1602.65452
 20
1404.512301
 30
0.0
 40
0.4
100
AcDbArc
 50
0.0
 51
87.33554
  0
ARC
  5
15E
100
AcDbEntity
  8
LAY-2
  6
CONTINUOUS
 62
     2
100
AcDbCircle
 10
1602.65452
 20
1413.2934
 30
0.0
 40
0.4
100
AcDbArc
 50
272.66444
 51
0.0
  0
ARC
  5
15F
100
AcDbEntity
  8
LAY-2
  6
CONTINUOUS
 62
     2
100
AcDbCircle
 10
1603.05492
 20
1429.107302
 30
0.0
 40
8.20462
100
AcDbArc
 50
237.956609
 51
267.335538
  0
ARC
  5
160
100
AcDbEntity
  8
LAY-2
  6
CONTINUOUS
 62
     2
100
AcDbCircle
 10
1603.05492
 20
1420.6981
 30
0.0
 40
8.20462
100
AcDbArc
 50
92.664442
 51
122.04336
  0
ARC
  5
161
100
AcDbEntity
  8
LAY-2
  6
CONTINUOUS
 62
     2
100
AcDbCircle
 10
1602.65452
 20
1420.5122
 30
0.0
 40
0.4
100
AcDbArc
 50
0.0
 51
87.33554
  0
ARC
  5
162
100
AcDbEntity
  8
LAY-2
  6
CONTINUOUS
 62
     2
100
AcDbCircle
 10
1602.65452
 20
1429.293402
 30
0.0
 40
0.4
100
AcDbArc
 50
272.66444
 51
0.0
  0
ARC
  5
163
100
AcDbEntity
  8
LAY-2
  6
CONTINUOUS
 62
     2
100
AcDbCircle
 10
1603.05492
 20
1445.107302
 30
0.0
 40
8.20462
100
AcDbArc
 50
237.956609
 51
267.335538
  0
ARC
  5
164
100
AcDbEntity
  8
LAY-2
  6
CONTINUOUS
 62
     2
100
AcDbCircle
 10
1603.05492
 20
1436.698302
 30
0.0
 40
8.20462
100
AcDbArc
 50
92.664442
 51
122.04336
  0
ARC
  5
165
100
AcDbEntity
  8
LAY-2
  6
CONTINUOUS
 62
     2
100
AcDbCircle
 10
1602.65452
 20
1436.512202
 30
0.0
 40
0.4
100
AcDbArc
 50
0.0
 51
87.33554
  0
ARC
  5
166
100
AcDbEntity
  8
LAY-2
  6
CONTINUOUS
 62
     2
100
AcDbCircle
 10
1602.65452
 20
1445.293602
 30
0.0
 40
0.4
100
AcDbArc
 50
272.66444
 51
0.0
  0
ARC
  5
167
100
AcDbEntity
  8
LAY-2
  6
CONTINUOUS
 62
     2
100
AcDbCircle
 10
1602.65452
 20
1461.293801
 30
0.0
 40
0.4
100
AcDbArc
 50
272.66444
 51
0.0
  0
ARC
  5
168
100
AcDbEntity
  8
LAY-2
  6
CONTINUOUS
 62
     2
100
AcDbCircle
 10
1602.65452
 20
1452.512201
 30
0.0
 40
0.4
100
AcDbArc
 50
0.0
 51
87.33554
  0
ARC
  5
169
100
AcDbEntity
  8
LAY-2
  6
CONTINUOUS
 62
     2
100
AcDbCircle
 10
1602.65452
 20
1468.512101
 30
0.0
 40
0.4
100
AcDbArc
 50
0.0
 51
87.33554
  0
ARC
  5
16A
100
AcDbEntity
  8
LAY-2
  6
CONTINUOUS
 62
     2
100
AcDbCircle
 10
1603.05492
 20
1452.698201
 30
0.0
 40
8.20462
100
AcDbArc
 50
92.664442
 51
122.04336
  0
ARC
  5
16B
100
AcDbEntity
  8
LAY-2
  6
CONTINUOUS
 62
     2
100
AcDbCircle
 10
1603.05492
 20
1461.107701
 30
0.0
 40
8.20462
100
AcDbArc
 50
237.956609
 51
267.335538
  0
ARC
  5
16C
100
AcDbEntity
  8
LAY-2
  6
CONTINUOUS
 62
     2
100
AcDbCircle
 10
1603.05492
 20
1477.1072
 30
0.0
 40
8.20462
100
AcDbArc
 50
237.956609
 51
267.335538
  0
ARC
  5
16D
100
AcDbEntity
  8
LAY-2
  6
CONTINUOUS
 62
     2
100
AcDbCircle
 10
1602.65452
 20
1676.0137
 30
0.0
 40
0.4
100
AcDbArc
 50
0.0
 51
87.33554
  0
ARC
  5
16E
100
AcDbEntity
  8
LAY-2
  6
CONTINUOUS
 62
     2
100
AcDbCircle
 10
1603.05492
 20
1684.6092
 30
0.0
 40
8.20462
100
AcDbArc
 50
237.956609
 51
267.335538
  0
ARC
  5
16F
100
AcDbEntity
  8
LAY-2
  6
CONTINUOUS
 62
     2
100
AcDbCircle
 10
1602.65452
 20
1668.795101
 30
0.0
 40
0.4
100
AcDbArc
 50
272.66444
 51
0.0
  0
ARC
  5
170
100
AcDbEntity
  8
LAY-2
  6
CONTINUOUS
 62
     2
100
AcDbCircle
 10
1602.65452
 20
1660.014001
 30
0.0
 40
0.4
100
AcDbArc
 50
0.0
 51
87.33554
  0
ARC
  5
171
100
AcDbEntity
  8
LAY-2
  6
CONTINUOUS
 62
     2
100
AcDbCircle
 10
1603.05492
 20
1660.199801
 30
0.0
 40
8.20462
100
AcDbArc
 50
92.664442
 51
122.04336
  0
ARC
  5
172
100
AcDbEntity
  8
LAY-2
  6
CONTINUOUS
 62
     2
100
AcDbCircle
 10
1603.05492
 20
1668.609001
 30
0.0
 40
8.20462
100
AcDbArc
 50
237.956609
 51
267.335538
  0
ARC
  5
173
100
AcDbEntity
  8
LAY-2
  6
CONTINUOUS
 62
     2
100
AcDbCircle
 10
1603.05492
 20
1644.698202
 30
0.0
 40
8.20462
100
AcDbArc
 50
92.664442
 51
122.04336
  0
ARC
  5
174
100
AcDbEntity
  8
LAY-2
  6
CONTINUOUS
 62
     2
100
AcDbCircle
 10
1603.05492
 20
1653.107201
 30
0.0
 40
8.20462
100
AcDbArc
 50
237.956609
 51
267.335538
  0
ARC
  5
175
100
AcDbEntity
  8
LAY-2
  6
CONTINUOUS
 62
     2
100
AcDbCircle
 10
1602.65452
 20
1653.293501
 30
0.0
 40
0.4
100
AcDbArc
 50
272.66444
 51
0.0
  0
ARC
  5
176
100
AcDbEntity
  8
LAY-2
  6
CONTINUOUS
 62
     2
100
AcDbCircle
 10
1602.65452
 20
1644.512102
 30
0.0
 40
0.4
100
AcDbArc
 50
0.0
 51
87.33554
  0
ARC
  5
177
100
AcDbEntity
  8
LAY-2
  6
CONTINUOUS
 62
     2
100
AcDbCircle
 10
1603.05492
 20
1628.698202
 30
0.0
 40
8.20462
100
AcDbArc
 50
92.664442
 51
122.04336
  0
ARC
  5
178
100
AcDbEntity
  8
LAY-2
  6
CONTINUOUS
 62
     2
100
AcDbCircle
 10
1603.05492
 20
1637.107502
 30
0.0
 40
8.20462
100
AcDbArc
 50
237.956609
 51
267.335538
  0
ARC
  5
179
100
AcDbEntity
  8
LAY-2
  6
CONTINUOUS
 62
     2
100
AcDbCircle
 10
1602.65452
 20
1637.293802
 30
0.0
 40
0.4
100
AcDbArc
 50
272.66444
 51
0.0
  0
ARC
  5
17A
100
AcDbEntity
  8
LAY-2
  6
CONTINUOUS
 62
     2
100
AcDbCircle
 10
1602.65452
 20
1628.512102
 30
0.0
 40
0.4
100
AcDbArc
 50
0.0
 51
87.33554
  0
ARC
  5
17B
100
AcDbEntity
  8
LAY-2
  6
CONTINUOUS
 62
     2
100
AcDbCircle
 10
1603.05492
 20
1612.6983
 30
0.0
 40
8.20462
100
AcDbArc
 50
92.664442
 51
122.04336
  0
ARC
  5
17C
100
AcDbEntity
  8
LAY-2
  6
CONTINUOUS
 62
     2
100
AcDbCircle
 10
1603.05492
 20
1621.1075
 30
0.0
 40
8.20462
100
AcDbArc
 50
237.956609
 51
267.335538
  0
ARC
  5
17D
100
AcDbEntity
  8
LAY-2
  6
CONTINUOUS
 62
     2
100
AcDbCircle
 10
1602.65452
 20
1621.293602
 30
0.0
 40
0.4
100
AcDbArc
 50
272.66444
 51
0.0
  0
ARC
  5
17E
100
AcDbEntity
  8
LAY-2
  6
CONTINUOUS
 62
     2
100
AcDbCircle
 10
1602.65452
 20
1612.5122
 30
0.0
 40
0.4
100
AcDbArc
 50
0.0
 51
87.33554
  0
ARC
  5
17F
100
AcDbEntity
  8
LAY-2
  6
CONTINUOUS
 62
     2
100
AcDbCircle
 10
1603.05492
 20
1596.698101
 30
0.0
 40
8.20462
100
AcDbArc
 50
92.664442
 51
122.04336
  0
ARC
  5
180
100
AcDbEntity
  8
LAY-2
  6
CONTINUOUS
 62
     2
100
AcDbCircle
 10
1603.05492
 20
1605.107301
 30
0.0
 40
8.20462
100
AcDbArc
 50
237.956609
 51
267.335538
  0
ARC
  5
181
100
AcDbEntity
  8
LAY-2
  6
CONTINUOUS
 62
     2
100
AcDbCircle
 10
1602.65452
 20
1605.293401
 30
0.0
 40
0.4
100
AcDbArc
 50
272.66444
 51
0.0
  0
ARC
  5
182
100
AcDbEntity
  8
LAY-2
  6
CONTINUOUS
 62
     2
100
AcDbCircle
 10
1602.65452
 20
1596.512201
 30
0.0
 40
0.4
100
AcDbArc
 50
0.0
 51
87.33554
  0
ARC
  5
183
100
AcDbEntity
  8
LAY-2
  6
CONTINUOUS
 62
     2
100
AcDbCircle
 10
1603.05492
 20
1580.698402
 30
0.0
 40
8.20462
100
AcDbArc
 50
92.664442
 51
122.04336
  0
ARC
  5
184
100
AcDbEntity
  8
LAY-2
  6
CONTINUOUS
 62
     2
100
AcDbCircle
 10
1603.05492
 20
1589.107601
 30
0.0
 40
8.20462
100
AcDbArc
 50
237.956609
 51
267.335538
  0
ARC
  5
185
100
AcDbEntity
  8
LAY-2
  6
CONTINUOUS
 62
     2
100
AcDbCircle
 10
1602.65452
 20
1589.293901
 30
0.0
 40
0.4
100
AcDbArc
 50
272.66444
 51
0.0
  0
ARC
  5
186
100
AcDbEntity
  8
LAY-2
  6
CONTINUOUS
 62
     2
100
AcDbCircle
 10
1602.65452
 20
1580.512002
 30
0.0
 40
0.4
100
AcDbArc
 50
0.0
 51
87.33554
  0
ARC
  5
187
100
AcDbEntity
  8
LAY-2
  6
CONTINUOUS
 62
     2
100
AcDbCircle
 10
1603.05492
 20
1564.698202
 30
0.0
 40
8.20462
100
AcDbArc
 50
92.664442
 51
122.04336
  0
ARC
  5
188
100
AcDbEntity
  8
LAY-2
  6
CONTINUOUS
 62
     2
100
AcDbCircle
 10
1603.05492
 20
1573.107402
 30
0.0
 40
8.20462
100
AcDbArc
 50
237.956609
 51
267.335538
  0
ARC
  5
189
100
AcDbEntity
  8
LAY-2
  6
CONTINUOUS
 62
     2
100
AcDbCircle
 10
1602.65452
 20
1573.293502
 30
0.0
 40
0.4
100
AcDbArc
 50
272.66444
 51
0.0
  0
ARC
  5
18A
100
AcDbEntity
  8
LAY-2
  6
CONTINUOUS
 62
     2
100
AcDbCircle
 10
1602.65452
 20
1564.512302
 30
0.0
 40
0.4
100
AcDbArc
 50
0.0
 51
87.33554
  0
ARC
  5
18B
100
AcDbEntity
  8
LAY-2
  6
CONTINUOUS
 62
     2
100
AcDbCircle
 10
1603.05492
 20
1548.698
 30
0.0
 40
8.20462
100
AcDbArc
 50
92.664442
 51
122.04336
  0
ARC
  5
18C
100
AcDbEntity
  8
LAY-2
  6
CONTINUOUS
 62
     2
100
AcDbCircle
 10
1603.05492
 20
1557.107402
 30
0.0
 40
8.20462
100
AcDbArc
 50
237.956609
 51
267.335538
  0
ARC
  5
18D
100
AcDbEntity
  8
LAY-2
  6
CONTINUOUS
 62
     2
100
AcDbCircle
 10
1602.65452
 20
1557.293502
 30
0.0
 40
0.4
100
AcDbArc
 50
272.66444
 51
0.0
  0
ARC
  5
18E
100
AcDbEntity
  8
LAY-2
  6
CONTINUOUS
 62
     2
100
AcDbCircle
 10
1602.65452
 20
1548.5124
 30
0.0
 40
0.4
100
AcDbArc
 50
0.0
 51
87.33554
  0
ARC
  5
18F
100
AcDbEntity
  8
LAY-2
  6
CONTINUOUS
 62
     2
100
AcDbCircle
 10
1603.05492
 20
1532.698501
 30
0.0
 40
8.20462
100
AcDbArc
 50
92.664442
 51
122.04336
  0
ARC
  5
190
100
AcDbEntity
  8
LAY-2
  6
CONTINUOUS
 62
     2
100
AcDbCircle
 10
1603.05492
 20
1541.107501
 30
0.0
 40
8.20462
100
AcDbArc
 50
237.956609
 51
267.335538
  0
ARC
  5
191
100
AcDbEntity
  8
LAY-2
  6
CONTINUOUS
 62
     2
100
AcDbCircle
 10
1602.65452
 20
1541.293601
 30
0.0
 40
0.4
100
AcDbArc
 50
272.66444
 51
0.0
  0
ARC
  5
192
100
AcDbEntity
  8
LAY-2
  6
CONTINUOUS
 62
     2
100
AcDbCircle
 10
1602.65452
 20
1532.512201
 30
0.0
 40
0.4
100
AcDbArc
 50
0.0
 51
87.33554
  0
ARC
  5
193
100
AcDbEntity
  8
LAY-2
  6
CONTINUOUS
 62
     2
100
AcDbCircle
 10
1603.05492
 20
1516.698301
 30
0.0
 40
8.20462
100
AcDbArc
 50
92.664442
 51
122.04336
  0
ARC
  5
194
100
AcDbEntity
  8
LAY-2
  6
CONTINUOUS
 62
     2
100
AcDbCircle
 10
1603.05492
 20
1525.107501
 30
0.0
 40
8.20462
100
AcDbArc
 50
237.956609
 51
267.335538
  0
ARC
  5
195
100
AcDbEntity
  8
LAY-2
  6
CONTINUOUS
 62
     2
100
AcDbCircle
 10
1602.65452
 20
1525.293401
 30
0.0
 40
0.4
100
AcDbArc
 50
272.66444
 51
0.0
  0
ARC
  5
196
100
AcDbEntity
  8
LAY-2
  6
CONTINUOUS
 62
     2
100
AcDbCircle
 10
1602.65452
 20
1516.512001
 30
0.0
 40
0.4
100
AcDbArc
 50
0.0
 51
87.33554
  0
ARC
  5
197
100
AcDbEntity
  8
LAY-2
  6
CONTINUOUS
 62
     2
100
AcDbCircle
 10
1603.05492
 20
1500.698102
 30
0.0
 40
8.20462
100
AcDbArc
 50
92.664442
 51
122.04336
  0
ARC
  5
198
100
AcDbEntity
  8
LAY-2
  6
CONTINUOUS
 62
     2
100
AcDbCircle
 10
1603.05492
 20
1509.107602
 30
0.0
 40
8.20462
100
AcDbArc
 50
237.956609
 51
267.335538
  0
ARC
  5
199
100
AcDbEntity
  8
LAY-2
  6
CONTINUOUS
 62
     2
100
AcDbCircle
 10
1602.65452
 20
1509.293702
 30
0.0
 40
0.4
100
AcDbArc
 50
272.66444
 51
0.0
  0
ARC
  5
19A
100
AcDbEntity
  8
LAY-2
  6
CONTINUOUS
 62
     2
100
AcDbCircle
 10
1602.65452
 20
1500.512002
 30
0.0
 40
0.4
100
AcDbArc
 50
0.0
 51
87.33554
  0
ARC
  5
19B
100
AcDbEntity
  8
LAY-2
  6
CONTINUOUS
 62
     2
100
AcDbCircle
 10
1602.65452
 20
1484.5121
 30
0.0
 40
0.4
100
AcDbArc
 50
0.0
 51
87.33554
  0
ARC
  5
19C
100
AcDbEntity
  8
LAY-2
  6
CONTINUOUS
 62
     2
100
AcDbCircle
 10
1602.65452
 20
1493.293702
 30
0.0
 40
0.4
100
AcDbArc
 50
272.66444
 51
0.0
  0
ARC
  5
19D
100
AcDbEntity
  8
LAY-2
  6
CONTINUOUS
 62
     2
100
AcDbCircle
 10
1602.65452
 20
1477.2935
 30
0.0
 40
0.4
100
AcDbArc
 50
272.66444
 51
0.0
  0
ARC
  5
19E
100
AcDbEntity
  8
LAY-2
  6
CONTINUOUS
 62
     2
100
AcDbCircle
 10
1603.05492
 20
1493.107402
 30
0.0
 40
8.20462
100
AcDbArc
 50
237.956609
 51
267.335538
  0
ARC
  5
19F
100
AcDbEntity
  8
LAY-2
  6
CONTINUOUS
 62
     2
100
AcDbCircle
 10
1603.05492
 20
1484.6981
 30
0.0
 40
8.20462
100
AcDbArc
 50
92.664442
 51
122.04336
  0
ARC
  5
1A0
100
AcDbEntity
  8
LAY-2
  6
CONTINUOUS
 62
     2
100
AcDbCircle
 10
1603.05492
 20
1468.698201
 30
0.0
 40
8.20462
100
AcDbArc
 50
92.664442
 51
122.04336
  0
ARC
  5
1A1
100
AcDbEntity
  8
LAY-2
  6
CONTINUOUS
 62
     2
100
AcDbCircle
 10
1642.754621
 20
1746.2415
 30
0.0
 40
0.3
100
AcDbArc
 50
0.0
 51
90.0
  0
ARC
  5
1A2
100
AcDbEntity
  8
LAY-2
  6
CONTINUOUS
 62
     2
100
AcDbCircle
 10
1568.354421
 20
1684.8416
 30
0.0
 40
0.3
100
AcDbArc
 50
180.0
 51
270.0
  0
ARC
  5
1A3
100
AcDbEntity
  8
LAY-2
  6
CONTINUOUS
 62
     2
100
AcDbCircle
 10
1586.055221
 20
1703.241002
 30
0.0
 40
18.000002
100
AcDbArc
 50
114.0
 51
180.0
  0
ARC
  5
1A4
100
AcDbEntity
  8
LAY-2
  6
CONTINUOUS
 62
     2
100
AcDbCircle
 10
1639.479521
 20
1744.5414
 30
0.0
 40
2.0
100
AcDbArc
 50
90.0
 51
114.0
  0
LINE
  5
1A5
100
AcDbEntity
  8
LAY-2
  6
CONTINUOUS
 62
     2
100
AcDbLine
 10
1643.054521
 20
1683.3343
 30
0.0
 11
1643.054521
 21
1746.2415
 31
0.0
  0
LINE
  5
1A6
100
AcDbEntity
  8
LAY-2
  6
CONTINUOUS
 62
     2
100
AcDbLine
 10
1603.55522
 20
1684.5414
 30
0.0
 11
1642.739721
 21
1683.0347
 31
0.0
  0
LINE
  5
1A7
100
AcDbEntity
  8
LAY-2
  6
CONTINUOUS
 62
     2
100
AcDbLine
 10
1643.054521
 20
1683.3616
 30
0.0
 11
1643.554321
 21
1683.3616
 31
0.0
  0
ARC
  5
1A8
100
AcDbEntity
  8
LAY-2
  6
CONTINUOUS
 62
     2
100
AcDbCircle
 10
1642.754621
 20
1683.3343
 30
0.0
 40
0.3
100
AcDbArc
 50
267.068337
 51
0.0
  0
LINE
  5
1A9
100
AcDbEntity
  8
LAY-2
  6
CONTINUOUS
 62
     2
100
AcDbLine
 10
1598.70142
 20
1166.651302
 30
0.0
 11
1598.70142
 21
1172.151202
 31
0.0
  0
ARC
  5
1AA
100
AcDbEntity
  8
LAY-2
  6
CONTINUOUS
 62
     2
100
AcDbCircle
 10
1602.65452
 20
1165.010302
 30
0.0
 40
0.4
100
AcDbArc
 50
0.0
 51
87.33554
  0
ARC
  5
1AB
100
AcDbEntity
  8
LAY-2
  6
CONTINUOUS
 62
     2
100
AcDbCircle
 10
1603.05492
 20
1173.605902
 30
0.0
 40
8.20462
100
AcDbArc
 50
237.956609
 51
267.335538
  0
LINE
  5
1AC
100
AcDbEntity
  8
LAY-2
  6
CONTINUOUS
 62
     2
100
AcDbLine
 10
1603.05492
 20
1165.010302
 30
0.0
 11
1603.05492
 21
1161.5412
 31
0.0
  0
LINE
  5
1AD
100
AcDbEntity
  8
LAY-2
  6
CONTINUOUS
 62
     2
100
AcDbLine
 10
1643.554321
 20
1683.3616
 30
0.0
 11
1643.554321
 21
1746.2415
 31
0.0
  0
LINE
  5
1AE
100
AcDbEntity
  8
LAY-2
  6
CONTINUOUS
 62
     6
100
AcDbLine
 10
1668.723894
 20
1131.541001
 30
0.0
 11
1678.054021
 21
1129.041001
 31
0.0
  0
LINE
  5
1AF
100
AcDbEntity
  8
LAY-2
  6
CONTINUOUS
 62
     6
100
AcDbLine
 10
1668.723894
 20
1126.541001
 30
0.0
 11
1678.054021
 21
1129.041001
 31
0.0
  0
LINE
  5
1B0
100
AcDbEntity
  8
LAY-2
  6
CONTINUOUS
 62
     6
100
AcDbLine
 10
1668.723894
 20
1126.541001
 30
0.0
 11
1643.554321
 21
1126.541001
 31
0.0
  0
LINE
  5
1B1
100
AcDbEntity
  8
LAY-2
  6
CONTINUOUS
 62
     6
100
AcDbLine
 10
1643.554321
 20
1131.541001
 30
0.0
 11
1668.723894
 21
1131.541001
 31
0.0
  0
LINE
  5
1B2
100
AcDbEntity
  8
LAY-2
  6
CONTINUOUS
 62
     6
100
AcDbLine
 10
1668.723894
 20
1116.541202
 30
0.0
 11
1678.054021
 21
1114.041202
 31
0.0
  0
LINE
  5
1B3
100
AcDbEntity
  8
LAY-2
  6
CONTINUOUS
 62
     6
100
AcDbLine
 10
1668.723894
 20
1111.541202
 30
0.0
 11
1678.054021
 21
1114.041202
 31
0.0
  0
LINE
  5
1B4
100
AcDbEntity
  8
LAY-2
  6
CONTINUOUS
 62
     6
100
AcDbLine
 10
1668.723894
 20
1111.541202
 30
0.0
 11
1643.554321
 21
1111.541202
 31
0.0
  0
LINE
  5
1B5
100
AcDbEntity
  8
LAY-2
  6
CONTINUOUS
 62
     6
100
AcDbLine
 10
1643.554321
 20
1116.541202
 30
0.0
 11
1668.723894
 21
1116.541202
 31
0.0
  0
LINE
  5
1B6
100
AcDbEntity
  8
LAY-2
  6
CONTINUOUS
 62
     6
100
AcDbLine
 10
1668.723894
 20
1733.541601
 30
0.0
 11
1678.054021
 21
1731.041601
 31
0.0
  0
LINE
  5
1B7
100
AcDbEntity
  8
LAY-2
  6
CONTINUOUS
 62
     6
100
AcDbLine
 10
1668.723894
 20
1728.541601
 30
0.0
 11
1678.054021
 21
1731.041601
 31
0.0
  0
LINE
  5
1B8
100
AcDbEntity
  8
LAY-2
  6
CONTINUOUS
 62
     6
100
AcDbLine
 10
1668.723894
 20
1728.541601
 30
0.0
 11
1643.554321
 21
1728.541601
 31
0.0
  0
LINE
  5
1B9
100
AcDbEntity
  8
LAY-2
  6
CONTINUOUS
 62
     6
100
AcDbLine
 10
1643.554321
 20
1733.541601
 30
0.0
 11
1668.723894
 21
1733.541601
 31
0.0
  0
LINE
  5
1BA
100
AcDbEntity
  8
LAY-2
  6
CONTINUOUS
 62
     6
100
AcDbLine
 10
1668.723894
 20
1716.541701
 30
0.0
 11
1678.054021
 21
1714.041701
 31
0.0
  0
LINE
  5
1BB
100
AcDbEntity
  8
LAY-2
  6
CONTINUOUS
 62
     6
100
AcDbLine
 10
1668.723894
 20
1711.541701
 30
0.0
 11
1678.054021
 21
1714.041701
 31
0.0
  0
LINE
  5
1BC
100
AcDbEntity
  8
LAY-2
  6
CONTINUOUS
 62
     6
100
AcDbLine
 10
1668.723894
 20
1711.541701
 30
0.0
 11
1643.554321
 21
1711.541701
 31
0.0
  0
LINE
  5
1BD
100
AcDbEntity
  8
LAY-2
  6
CONTINUOUS
 62
     6
100
AcDbLine
 10
1643.554321
 20
1716.541701
 30
0.0
 11
1668.723894
 21
1716.541701
 31
0.0
  0
LINE
  5
1BE
100
AcDbEntity
  8
LAY-2
  6
EXLTYPE7
 62
     1
100
AcDbLine
 10
1586.054321
 20
1700.0
 30
0.0
 11
1586.054321
 21
1081.937601
 31
0.0
  0
LINE
  5
1BF
100
AcDbEntity
  8
LAY-2
  6
EXLTYPE3
 62
     6
100
AcDbLine
 10
1643.554321
 20
2084.0
 30
0.0
 11
1643.554321
 21
905.0
 31
0.0
  0
ARC
  5
1C0
100
AcDbEntity
  8
LAY-2
  6
CONTINUOUS
 62
     2
100
AcDbCircle
 10
1229.554922
 20
1114.041202
 30
0.0
 40
20.499999
100
AcDbArc
 50
270.0
 51
90.0
  0
LINE
  5
1C1
100
AcDbEntity
  8
LAY-2
  6
CONTINUOUS
 62
     2
100
AcDbLine
 10
1229.554922
 20
1134.541301
 30
0.0
 11
1191.054721
 21
1134.541301
 31
0.0
  0
LINE
  5
1C2
100
AcDbEntity
  8
LAY-2
  6
CONTINUOUS
 62
     2
100
AcDbLine
 10
1229.554922
 20
1093.5413
 30
0.0
 11
1191.054721
 21
1093.5413
 31
0.0
  0
LINE
  5
1C3
100
AcDbEntity
  8
LAY-2
  6
CONTINUOUS
 62
     2
100
AcDbLine
 10
1188.054821
 20
1131.541101
 30
0.0
 11
1188.054821
 21
1096.5412
 31
0.0
  0
ARC
  5
1C4
100
AcDbEntity
  8
LAY-2
  6
EXLTYPE3
 62
     2
100
AcDbCircle
 10
1243.305122
 20
1114.041202
 30
0.0
 40
57.250003
100
AcDbArc
 50
164.810715
 51
195.18929
  0
ARC
  5
1C5
100
AcDbEntity
  8
LAY-2
  6
CONTINUOUS
 62
     2
100
AcDbCircle
 10
1191.054721
 20
1131.541101
 30
0.0
 40
3.0
100
AcDbArc
 50
90.0
 51
180.0
  0
ARC
  5
1C6
100
AcDbEntity
  8
LAY-2
  6
CONTINUOUS
 62
     2
100
AcDbCircle
 10
1191.054721
 20
1096.5412
 30
0.0
 40
3.0
100
AcDbArc
 50
180.0
 51
270.0
  0
LINE
  5
1C7
100
AcDbEntity
  8
LAY-2
  6
CONTINUOUS
 62
     2
100
AcDbLine
 10
665.055422
 20
1097.0413
 30
0.0
 11
1188.054821
 21
1097.0413
 31
0.0
  0
LINE
  5
1C8
100
AcDbEntity
  8
LAY-2
  6
EXLTYPE7
 62
     1
100
AcDbLine
 10
1217.555023
 20
1107.664202
 30
0.0
 11
1217.555023
 21
1121.209302
 31
0.0
  0
LINE
  5
1C9
100
AcDbEntity
  8
LAY-2
  6
EXLTYPE7
 62
     1
100
AcDbLine
 10
1234.554622
 20
1106.961402
 30
0.0
 11
1234.554622
 21
1121.121402
 31
0.0
  0
LINE
  5
1CA
100
AcDbEntity
  8
LAY-2
  6
EXLTYPE7
 62
     1
100
AcDbLine
 10
611.062021
 20
1129.041001
 30
0.0
 11
622.785723
 21
1129.041001
 31
0.0
  0
LINE
  5
1CB
100
AcDbEntity
  8
LAY-2
  6
EXLTYPE7
 62
     1
100
AcDbLine
 10
632.555223
 20
1108.574702
 30
0.0
 11
632.555223
 21
1119.978502
 31
0.0
  0
LINE
  5
1CC
100
AcDbEntity
  8
LAY-2
  6
EXLTYPE7
 62
     1
100
AcDbLine
 10
617.555421
 20
1084.2
 30
0.0
 11
617.555421
 21
1751.5373
 31
0.0
  0
LINE
  5
1CD
100
AcDbEntity
  8
LAY-2
  6
EXLTYPE7
 62
     1
100
AcDbLine
 10
587.309743
 20
1114.041202
 30
0.0
 11
1257.720021
 21
1114.041202
 31
0.0
  0
LINE
  5
1CE
100
AcDbEntity
  8
LAY-2
  6
CONTINUOUS
 62
     2
100
AcDbLine
 10
665.055422
 20
1131.041301
 30
0.0
 11
1188.054821
 21
1131.041301
 31
0.0
  0
LINE
  5
1CF
100
AcDbEntity
  8
LAY-2
  6
CONTINUOUS
 62
     2
100
AcDbLine
 10
665.055422
 20
1133.633501
 30
0.0
 11
665.055422
 21
1094.4489
 31
0.0
  0
LINE
  5
1D0
100
AcDbEntity
  8
LAY-2
  6
CONTINUOUS
 62
     2
100
AcDbLine
 10
663.491622
 20
1093.5413
 30
0.0
 11
645.055322
 21
1093.5413
 31
0.0
  0
LINE
  5
1D1
100
AcDbEntity
  8
LAY-2
  6
CONTINUOUS
 62
     2
100
AcDbLine
 10
645.055322
 20
1093.5413
 30
0.0
 11
645.055322
 21
1095.6425
 31
0.0
  0
LINE
  5
1D2
100
AcDbEntity
  8
LAY-2
  6
CONTINUOUS
 62
     2
100
AcDbLine
 10
645.055322
 20
1093.5413
 30
0.0
 11
645.055322
 21
1134.541301
 31
0.0
  0
LINE
  5
1D3
100
AcDbEntity
  8
LAY-2
  6
CONTINUOUS
 62
     2
100
AcDbLine
 10
645.055322
 20
1134.541301
 30
0.0
 11
663.491622
 21
1134.541301
 31
0.0
  0
ARC
  5
1D4
100
AcDbEntity
  8
LAY-2
  6
CONTINUOUS
 62
     2
100
AcDbCircle
 10
663.491622
 20
1095.3412
 30
0.0
 40
1.8
100
AcDbArc
 50
270.0
 51
352.270303
  0
ARC
  5
1D5
100
AcDbEntity
  8
LAY-2
  6
CONTINUOUS
 62
     2
100
AcDbCircle
 10
663.491622
 20
1132.741201
 30
0.0
 40
1.8
100
AcDbArc
 50
7.729732
 51
90.0
  0
ARC
  5
1D6
100
AcDbEntity
  8
LAY-2
  6
CONTINUOUS
 62
     2
100
AcDbCircle
 10
525.722022
 20
1114.041202
 30
0.0
 40
140.83333
100
AcDbArc
 50
6.9331
 51
7.729732
  0
ARC
  5
1D7
100
AcDbEntity
  8
LAY-2
  6
CONTINUOUS
 62
     2
100
AcDbCircle
 10
525.722022
 20
1114.041202
 30
0.0
 40
140.83333
100
AcDbArc
 50
352.270303
 51
353.06693
  0
LINE
  5
1D8
100
AcDbEntity
  8
LAY-2
  6
CONTINUOUS
 62
     2
100
AcDbLine
 10
637.147223
 20
1161.5412
 30
0.0
 11
597.962622
 21
1161.5412
 31
0.0
  0
LINE
  5
1D9
100
AcDbEntity
  8
LAY-2
  6
CONTINUOUS
 62
     2
100
AcDbLine
 10
638.054823
 20
1141.541401
 30
0.0
 11
638.054823
 21
1159.9779
 31
0.0
  0
LINE
  5
1DA
100
AcDbEntity
  8
LAY-2
  6
CONTINUOUS
 62
     2
100
AcDbLine
 10
597.055022
 20
1141.541401
 30
0.0
 11
638.054823
 21
1141.541401
 31
0.0
  0
LINE
  5
1DB
100
AcDbEntity
  8
LAY-2
  6
CONTINUOUS
 62
     2
100
AcDbLine
 10
638.054823
 20
1139.041301
 30
0.0
 11
638.054823
 21
1141.541401
 31
0.0
  0
ARC
  5
1DC
100
AcDbEntity
  8
LAY-2
  6
CONTINUOUS
 62
     2
100
AcDbCircle
 10
617.555421
 20
1022.2078
 30
0.0
 40
140.83333
100
AcDbArc
 50
96.933091
 51
97.729723
  0
ARC
  5
1DD
100
AcDbEntity
  8
LAY-2
  6
CONTINUOUS
 62
     2
100
AcDbCircle
 10
636.255423
 20
1159.9779
 30
0.0
 40
1.8
100
AcDbArc
 50
0.0
 51
82.270295
  0
ARC
  5
1DE
100
AcDbEntity
  8
LAY-2
  6
CONTINUOUS
 62
     2
100
AcDbCircle
 10
598.854922
 20
1159.9779
 30
0.0
 40
1.8
100
AcDbArc
 50
97.729723
 51
180.0
  0
ARC
  5
1DF
100
AcDbEntity
  8
LAY-2
  6
CONTINUOUS
 62
     2
100
AcDbCircle
 10
642.555222
 20
1139.041301
 30
0.0
 40
4.5
100
AcDbArc
 50
180.0
 51
270.0
  0
ARC
  5
1E0
100
AcDbEntity
  8
LAY-2
  6
CONTINUOUS
 62
     2
100
AcDbCircle
 10
617.555421
 20
1022.2078
 30
0.0
 40
140.83333
100
AcDbArc
 50
82.270295
 51
83.066927
  0
LINE
  5
1E1
100
AcDbEntity
  8
LAY-2
  6
CONTINUOUS
 62
     2
100
AcDbLine
 10
642.555222
 20
1134.541301
 30
0.0
 11
645.055322
 21
1134.541301
 31
0.0
  0
LINE
  5
1E2
100
AcDbEntity
  8
LAY-2
  6
CONTINUOUS
 62
     2
100
AcDbLine
 10
597.055022
 20
1159.9779
 30
0.0
 11
597.055022
 21
1116.530578
 31
0.0
  0
LINE
  5
1E3
100
AcDbEntity
  8
LAY-2
  6
CONTINUOUS
 62
     2
100
AcDbLine
 10
634.555023
 20
1161.5412
 30
0.0
 11
634.555023
 21
1684.5417
 31
0.0
  0
LINE
  5
1E4
100
AcDbEntity
  8
LAY-2
  6
CONTINUOUS
 62
     2
100
AcDbLine
 10
600.554822
 20
1161.5412
 30
0.0
 11
600.554822
 21
1684.5417
 31
0.0
  0
LINE
  5
1E5
100
AcDbEntity
  8
LAY-2
  6
CONTINUOUS
 62
     2
100
AcDbLine
 10
645.055322
 20
1093.5413
 30
0.0
 11
620.055021
 21
1093.5413
 31
0.0
  0
ARC
  5
1E6
100
AcDbEntity
  8
LAY-2
  6
CONTINUOUS
 62
     2
100
AcDbCircle
 10
620.055021
 20
1116.541302
 30
0.0
 40
23.000002
100
AcDbArc
 50
180.0
 51
270.0
  0
LINE
  5
1E7
100
AcDbEntity
  8
LAY-2
  6
CONTINUOUS
 62
     2
100
AcDbLine
 10
635.055323
 20
1684.5417
 30
0.0
 11
600.054922
 21
1684.5417
 31
0.0
  0
LINE
  5
1E8
100
AcDbEntity
  8
LAY-2
  6
CONTINUOUS
 62
     2
100
AcDbLine
 10
638.054823
 20
1726.041501
 30
0.0
 11
638.054823
 21
1687.541402
 31
0.0
  0
LINE
  5
1E9
100
AcDbEntity
  8
LAY-2
  6
CONTINUOUS
 62
     2
100
AcDbLine
 10
597.055022
 20
1726.041501
 30
0.0
 11
597.055022
 21
1687.541402
 31
0.0
  0
ARC
  5
1EA
100
AcDbEntity
  8
LAY-2
  6
CONTINUOUS
 62
     2
100
AcDbCircle
 10
635.055323
 20
1687.541402
 30
0.0
 40
3.0
100
AcDbArc
 50
270.0
 51
0.0
  0
ARC
  5
1EB
100
AcDbEntity
  8
LAY-2
  6
CONTINUOUS
 62
     2
100
AcDbCircle
 10
600.054922
 20
1687.541402
 30
0.0
 40
3.0
100
AcDbArc
 50
180.0
 51
270.0
  0
ARC
  5
1EC
100
AcDbEntity
  8
LAY-2
  6
EXLTYPE3
 62
     2
100
AcDbCircle
 10
617.555421
 20
1739.7915
 30
0.0
 40
57.250003
100
AcDbArc
 50
254.81072
 51
285.18931
  0
ARC
  5
1ED
100
AcDbEntity
  8
LAY-2
  6
CONTINUOUS
 62
     2
100
AcDbCircle
 10
617.555421
 20
1726.041501
 30
0.0
 40
20.499999
100
AcDbArc
 50
0.0
 51
180.0
  0
LINE
  5
1EE
100
AcDbEntity
  8
LAY-2
  6
EXLTYPE7
 62
     1
100
AcDbLine
 10
610.475121
 20
1731.041601
 30
0.0
 11
624.635123
 21
1731.041601
 31
0.0
  0
LINE
  5
1EF
100
AcDbEntity
  8
LAY-2
  6
EXLTYPE7
 62
     1
100
AcDbLine
 10
610.475121
 20
1714.041701
 30
0.0
 11
624.635123
 21
1714.041701
 31
0.0
  0
LINE
  5
1F0
100
AcDbEntity
  8
LAY-2
  6
EXLTYPE3
 62
     6
100
AcDbLine
 10
557.609246
 20
2435.0
 30
0.0
 11
1294.609246
 21
2435.0
 31
0.0
  0
LINE
  5
1F1
100
AcDbEntity
  8
LAY-2
  6
CONTINUOUS
 62
     2
100
AcDbLine
 10
668.953226
 20
2393.700299
 30
0.0
 11
676.874726
 21
2393.700299
 31
0.0
  0
LINE
  5
1F2
100
AcDbEntity
  8
LAY-2
  6
CONTINUOUS
 62
     2
100
AcDbLine
 10
692.874925
 20
2393.700299
 30
0.0
 11
684.953126
 21
2393.700299
 31
0.0
  0
LINE
  5
1F3
100
AcDbEntity
  8
LAY-2
  6
CONTINUOUS
 62
     2
100
AcDbLine
 10
691.664226
 20
2390.147099
 30
0.0
 11
686.163926
 21
2390.147099
 31
0.0
  0
LINE
  5
1F4
100
AcDbEntity
  8
LAY-2
  6
CONTINUOUS
 62
     2
100
AcDbLine
 10
677.304526
 20
2394.500599
 30
0.0
 11
684.523326
 21
2394.500599
 31
0.0
  0
LINE
  5
1F5
100
AcDbEntity
  8
LAY-2
  6
CONTINUOUS
 62
     2
100
AcDbLine
 10
700.953125
 20
2393.700299
 30
0.0
 11
708.875125
 21
2393.700299
 31
0.0
  0
LINE
  5
1F6
100
AcDbEntity
  8
LAY-2
  6
CONTINUOUS
 62
     2
100
AcDbLine
 10
702.164125
 20
2390.147099
 30
0.0
 11
707.664125
 21
2390.147099
 31
0.0
  0
LINE
  5
1F7
100
AcDbEntity
  8
LAY-2
  6
CONTINUOUS
 62
     2
100
AcDbLine
 10
693.304725
 20
2394.500599
 30
0.0
 11
700.523525
 21
2394.500599
 31
0.0
  0
LINE
  5
1F8
100
AcDbEntity
  8
LAY-2
  6
CONTINUOUS
 62
     2
100
AcDbLine
 10
716.953325
 20
2393.700299
 30
0.0
 11
724.874624
 21
2393.700299
 31
0.0
  0
LINE
  5
1F9
100
AcDbEntity
  8
LAY-2
  6
CONTINUOUS
 62
     2
100
AcDbLine
 10
718.164024
 20
2390.147099
 30
0.0
 11
723.664124
 21
2390.147099
 31
0.0
  0
LINE
  5
1FA
100
AcDbEntity
  8
LAY-2
  6
CONTINUOUS
 62
     2
100
AcDbLine
 10
709.304725
 20
2394.500599
 30
0.0
 11
716.523525
 21
2394.500599
 31
0.0
  0
LINE
  5
1FB
100
AcDbEntity
  8
LAY-2
  6
CONTINUOUS
 62
     2
100
AcDbLine
 10
732.953024
 20
2393.700299
 30
0.0
 11
740.875026
 21
2393.700299
 31
0.0
  0
LINE
  5
1FC
100
AcDbEntity
  8
LAY-2
  6
CONTINUOUS
 62
     2
100
AcDbLine
 10
734.164026
 20
2390.147099
 30
0.0
 11
739.664126
 21
2390.147099
 31
0.0
  0
LINE
  5
1FD
100
AcDbEntity
  8
LAY-2
  6
CONTINUOUS
 62
     2
100
AcDbLine
 10
725.304624
 20
2394.500599
 30
0.0
 11
732.523424
 21
2394.500599
 31
0.0
  0
LINE
  5
1FE
100
AcDbEntity
  8
LAY-2
  6
CONTINUOUS
 62
     2
100
AcDbLine
 10
748.952926
 20
2393.700299
 30
0.0
 11
756.875026
 21
2393.700299
 31
0.0
  0
LINE
  5
1FF
100
AcDbEntity
  8
LAY-2
  6
CONTINUOUS
 62
     2
100
AcDbLine
 10
750.163926
 20
2390.147099
 30
0.0
 11
755.664026
 21
2390.147099
 31
0.0
  0
LINE
  5
200
100
AcDbEntity
  8
LAY-2
  6
CONTINUOUS
 62
     2
100
AcDbLine
 10
741.305126
 20
2394.500599
 30
0.0
 11
748.523426
 21
2394.500599
 31
0.0
  0
LINE
  5
201
100
AcDbEntity
  8
LAY-2
  6
CONTINUOUS
 62
     2
100
AcDbLine
 10
764.953125
 20
2393.700299
 30
0.0
 11
772.874925
 21
2393.700299
 31
0.0
  0
LINE
  5
202
100
AcDbEntity
  8
LAY-2
  6
CONTINUOUS
 62
     2
100
AcDbLine
 10
766.163925
 20
2390.147099
 30
0.0
 11
771.664025
 21
2390.147099
 31
0.0
  0
LINE
  5
203
100
AcDbEntity
  8
LAY-2
  6
CONTINUOUS
 62
     2
100
AcDbLine
 10
757.304525
 20
2394.500599
 30
0.0
 11
764.523325
 21
2394.500599
 31
0.0
  0
LINE
  5
204
100
AcDbEntity
  8
LAY-2
  6
CONTINUOUS
 62
     2
100
AcDbLine
 10
780.952925
 20
2393.700299
 30
0.0
 11
788.875124
 21
2393.700299
 31
0.0
  0
LINE
  5
205
100
AcDbEntity
  8
LAY-2
  6
CONTINUOUS
 62
     2
100
AcDbLine
 10
782.164125
 20
2390.147099
 30
0.0
 11
787.663924
 21
2390.147099
 31
0.0
  0
LINE
  5
206
100
AcDbEntity
  8
LAY-2
  6
CONTINUOUS
 62
     2
100
AcDbLine
 10
773.304725
 20
2394.500599
 30
0.0
 11
780.523325
 21
2394.500599
 31
0.0
  0
LINE
  5
207
100
AcDbEntity
  8
LAY-2
  6
CONTINUOUS
 62
     2
100
AcDbLine
 10
789.304924
 20
2394.500599
 30
0.0
 11
796.024924
 21
2394.500599
 31
0.0
  0
LINE
  5
208
100
AcDbEntity
  8
LAY-2
  6
CONTINUOUS
 62
     2
100
AcDbLine
 10
812.025126
 20
2394.500599
 30
0.0
 11
804.806326
 21
2394.500599
 31
0.0
  0
LINE
  5
209
100
AcDbEntity
  8
LAY-2
  6
CONTINUOUS
 62
     2
100
AcDbLine
 10
796.454724
 20
2393.700299
 30
0.0
 11
804.376526
 21
2393.700299
 31
0.0
  0
LINE
  5
20A
100
AcDbEntity
  8
LAY-2
  6
CONTINUOUS
 62
     2
100
AcDbLine
 10
797.665424
 20
2390.147099
 30
0.0
 11
803.165526
 21
2390.147099
 31
0.0
  0
LINE
  5
20B
100
AcDbEntity
  8
LAY-2
  6
CONTINUOUS
 62
     2
100
AcDbLine
 10
828.024825
 20
2394.500599
 30
0.0
 11
820.806526
 21
2394.500599
 31
0.0
  0
LINE
  5
20C
100
AcDbEntity
  8
LAY-2
  6
CONTINUOUS
 62
     2
100
AcDbLine
 10
812.454926
 20
2393.700299
 30
0.0
 11
820.376526
 21
2393.700299
 31
0.0
  0
LINE
  5
20D
100
AcDbEntity
  8
LAY-2
  6
CONTINUOUS
 62
     2
100
AcDbLine
 10
813.665626
 20
2390.147099
 30
0.0
 11
819.165526
 21
2390.147099
 31
0.0
  0
LINE
  5
20E
100
AcDbEntity
  8
LAY-2
  6
CONTINUOUS
 62
     2
100
AcDbLine
 10
844.024825
 20
2394.500599
 30
0.0
 11
836.806525
 21
2394.500599
 31
0.0
  0
LINE
  5
20F
100
AcDbEntity
  8
LAY-2
  6
CONTINUOUS
 62
     2
100
AcDbLine
 10
828.454425
 20
2393.700299
 30
0.0
 11
836.376925
 21
2393.700299
 31
0.0
  0
LINE
  5
210
100
AcDbEntity
  8
LAY-2
  6
CONTINUOUS
 62
     2
100
AcDbLine
 10
829.665825
 20
2390.147099
 30
0.0
 11
835.165425
 21
2390.147099
 31
0.0
  0
LINE
  5
211
100
AcDbEntity
  8
LAY-2
  6
CONTINUOUS
 62
     2
100
AcDbLine
 10
860.025024
 20
2394.500599
 30
0.0
 11
852.806224
 21
2394.500599
 31
0.0
  0
LINE
  5
212
100
AcDbEntity
  8
LAY-2
  6
CONTINUOUS
 62
     2
100
AcDbLine
 10
844.454625
 20
2393.700299
 30
0.0
 11
852.376424
 21
2393.700299
 31
0.0
  0
LINE
  5
213
100
AcDbEntity
  8
LAY-2
  6
CONTINUOUS
 62
     2
100
AcDbLine
 10
845.665825
 20
2390.147099
 30
0.0
 11
851.165624
 21
2390.147099
 31
0.0
  0
LINE
  5
214
100
AcDbEntity
  8
LAY-2
  6
CONTINUOUS
 62
     2
100
AcDbLine
 10
876.024726
 20
2394.500599
 30
0.0
 11
868.806426
 21
2394.500599
 31
0.0
  0
LINE
  5
215
100
AcDbEntity
  8
LAY-2
  6
CONTINUOUS
 62
     2
100
AcDbLine
 10
860.454824
 20
2393.700299
 30
0.0
 11
868.376626
 21
2393.700299
 31
0.0
  0
LINE
  5
216
100
AcDbEntity
  8
LAY-2
  6
CONTINUOUS
 62
     2
100
AcDbLine
 10
861.665524
 20
2390.147099
 30
0.0
 11
867.165826
 21
2390.147099
 31
0.0
  0
LINE
  5
217
100
AcDbEntity
  8
LAY-2
  6
CONTINUOUS
 62
     2
100
AcDbLine
 10
892.024925
 20
2394.500599
 30
0.0
 11
884.806326
 21
2394.500599
 31
0.0
  0
LINE
  5
218
100
AcDbEntity
  8
LAY-2
  6
CONTINUOUS
 62
     2
100
AcDbLine
 10
876.454726
 20
2393.700299
 30
0.0
 11
884.376826
 21
2393.700299
 31
0.0
  0
LINE
  5
219
100
AcDbEntity
  8
LAY-2
  6
CONTINUOUS
 62
     2
100
AcDbLine
 10
877.665726
 20
2390.147099
 30
0.0
 11
883.165826
 21
2390.147099
 31
0.0
  0
LINE
  5
21A
100
AcDbEntity
  8
LAY-2
  6
CONTINUOUS
 62
     2
100
AcDbLine
 10
908.025125
 20
2394.500599
 30
0.0
 11
900.806525
 21
2394.500599
 31
0.0
  0
LINE
  5
21B
100
AcDbEntity
  8
LAY-2
  6
CONTINUOUS
 62
     2
100
AcDbLine
 10
892.454925
 20
2393.700299
 30
0.0
 11
900.376225
 21
2393.700299
 31
0.0
  0
LINE
  5
21C
100
AcDbEntity
  8
LAY-2
  6
CONTINUOUS
 62
     2
100
AcDbLine
 10
893.665725
 20
2390.147099
 30
0.0
 11
899.165825
 21
2390.147099
 31
0.0
  0
LINE
  5
21D
100
AcDbEntity
  8
LAY-2
  6
CONTINUOUS
 62
     2
100
AcDbLine
 10
924.025024
 20
2394.500599
 30
0.0
 11
916.806224
 21
2394.500599
 31
0.0
  0
LINE
  5
21E
100
AcDbEntity
  8
LAY-2
  6
CONTINUOUS
 62
     2
100
AcDbLine
 10
908.454625
 20
2393.700299
 30
0.0
 11
916.376424
 21
2393.700299
 31
0.0
  0
LINE
  5
21F
100
AcDbEntity
  8
LAY-2
  6
CONTINUOUS
 62
     2
100
AcDbLine
 10
909.665625
 20
2390.147099
 30
0.0
 11
915.165724
 21
2390.147099
 31
0.0
  0
LINE
  5
220
100
AcDbEntity
  8
LAY-2
  6
CONTINUOUS
 62
     2
100
AcDbLine
 10
940.025026
 20
2394.500599
 30
0.0
 11
932.806226
 21
2394.500599
 31
0.0
  0
LINE
  5
221
100
AcDbEntity
  8
LAY-2
  6
CONTINUOUS
 62
     2
100
AcDbLine
 10
924.454624
 20
2393.700299
 30
0.0
 11
932.376626
 21
2393.700299
 31
0.0
  0
LINE
  5
222
100
AcDbEntity
  8
LAY-2
  6
CONTINUOUS
 62
     2
100
AcDbLine
 10
925.665624
 20
2390.147099
 30
0.0
 11
931.165726
 21
2390.147099
 31
0.0
  0
LINE
  5
223
100
AcDbEntity
  8
LAY-2
  6
CONTINUOUS
 62
     2
100
AcDbLine
 10
956.025025
 20
2394.500599
 30
0.0
 11
948.806426
 21
2394.500599
 31
0.0
  0
LINE
  5
224
100
AcDbEntity
  8
LAY-2
  6
CONTINUOUS
 62
     2
100
AcDbLine
 10
940.454826
 20
2393.700299
 30
0.0
 11
948.376326
 21
2393.700299
 31
0.0
  0
LINE
  5
225
100
AcDbEntity
  8
LAY-2
  6
CONTINUOUS
 62
     2
100
AcDbLine
 10
941.665526
 20
2390.147099
 30
0.0
 11
947.165626
 21
2390.147099
 31
0.0
  0
LINE
  5
226
100
AcDbEntity
  8
LAY-2
  6
CONTINUOUS
 62
     2
100
AcDbLine
 10
972.024925
 20
2394.500599
 30
0.0
 11
964.806625
 21
2394.500599
 31
0.0
  0
LINE
  5
227
100
AcDbEntity
  8
LAY-2
  6
CONTINUOUS
 62
     2
100
AcDbLine
 10
964.376825
 20
2393.700299
 30
0.0
 11
956.454525
 21
2393.700299
 31
0.0
  0
LINE
  5
228
100
AcDbEntity
  8
LAY-2
  6
CONTINUOUS
 62
     2
100
AcDbLine
 10
963.166125
 20
2390.147099
 30
0.0
 11
957.665525
 21
2390.147099
 31
0.0
  0
LINE
  5
229
100
AcDbEntity
  8
LAY-2
  6
CONTINUOUS
 62
     2
100
AcDbLine
 10
972.454725
 20
2393.700299
 30
0.0
 11
980.376524
 21
2393.700299
 31
0.0
  0
LINE
  5
22A
100
AcDbEntity
  8
LAY-2
  6
CONTINUOUS
 62
     2
100
AcDbLine
 10
973.665425
 20
2390.147099
 30
0.0
 11
979.165524
 21
2390.147099
 31
0.0
  0
LINE
  5
22B
100
AcDbEntity
  8
LAY-2
  6
CONTINUOUS
 62
     2
100
AcDbLine
 10
1171.878325
 20
2393.700299
 30
0.0
 11
1163.956325
 21
2393.700299
 31
0.0
  0
LINE
  5
22C
100
AcDbEntity
  8
LAY-2
  6
CONTINUOUS
 62
     2
100
AcDbLine
 10
1170.667125
 20
2390.147099
 30
0.0
 11
1165.167325
 21
2390.147099
 31
0.0
  0
LINE
  5
22D
100
AcDbEntity
  8
LAY-2
  6
CONTINUOUS
 62
     2
100
AcDbLine
 10
1179.526524
 20
2394.500599
 30
0.0
 11
1172.307925
 21
2394.500599
 31
0.0
  0
LINE
  5
22E
100
AcDbEntity
  8
LAY-2
  6
CONTINUOUS
 62
     2
100
AcDbLine
 10
1163.526825
 20
2394.500599
 30
0.0
 11
1156.806325
 21
2394.500599
 31
0.0
  0
LINE
  5
22F
100
AcDbEntity
  8
LAY-2
  6
CONTINUOUS
 62
     2
100
AcDbLine
 10
1140.806626
 20
2394.500599
 30
0.0
 11
1148.024926
 21
2394.500599
 31
0.0
  0
LINE
  5
230
100
AcDbEntity
  8
LAY-2
  6
CONTINUOUS
 62
     2
100
AcDbLine
 10
1156.376525
 20
2393.700299
 30
0.0
 11
1148.454726
 21
2393.700299
 31
0.0
  0
LINE
  5
231
100
AcDbEntity
  8
LAY-2
  6
CONTINUOUS
 62
     2
100
AcDbLine
 10
1155.165825
 20
2390.147099
 30
0.0
 11
1149.665425
 21
2390.147099
 31
0.0
  0
LINE
  5
232
100
AcDbEntity
  8
LAY-2
  6
CONTINUOUS
 62
     2
100
AcDbLine
 10
1124.806426
 20
2394.500599
 30
0.0
 11
1132.024926
 21
2394.500599
 31
0.0
  0
LINE
  5
233
100
AcDbEntity
  8
LAY-2
  6
CONTINUOUS
 62
     2
100
AcDbLine
 10
1140.376826
 20
2393.700299
 30
0.0
 11
1132.455026
 21
2393.700299
 31
0.0
  0
LINE
  5
234
100
AcDbEntity
  8
LAY-2
  6
CONTINUOUS
 62
     2
100
AcDbLine
 10
1139.165826
 20
2390.147099
 30
0.0
 11
1133.665726
 21
2390.147099
 31
0.0
  0
LINE
  5
235
100
AcDbEntity
  8
LAY-2
  6
CONTINUOUS
 62
     2
100
AcDbLine
 10
1108.806225
 20
2394.500599
 30
0.0
 11
1116.025024
 21
2394.500599
 31
0.0
  0
LINE
  5
236
100
AcDbEntity
  8
LAY-2
  6
CONTINUOUS
 62
     2
100
AcDbLine
 10
1124.376324
 20
2393.700299
 30
0.0
 11
1116.454824
 21
2393.700299
 31
0.0
  0
LINE
  5
237
100
AcDbEntity
  8
LAY-2
  6
CONTINUOUS
 62
     2
100
AcDbLine
 10
1123.165424
 20
2390.147099
 30
0.0
 11
1117.665524
 21
2390.147099
 31
0.0
  0
LINE
  5
238
100
AcDbEntity
  8
LAY-2
  6
CONTINUOUS
 62
     2
100
AcDbLine
 10
1092.806725
 20
2394.500599
 30
0.0
 11
1100.025025
 21
2394.500599
 31
0.0
  0
LINE
  5
239
100
AcDbEntity
  8
LAY-2
  6
CONTINUOUS
 62
     2
100
AcDbLine
 10
1108.376625
 20
2393.700299
 30
0.0
 11
1100.454625
 21
2393.700299
 31
0.0
  0
LINE
  5
23A
100
AcDbEntity
  8
LAY-2
  6
CONTINUOUS
 62
     2
100
AcDbLine
 10
1107.165725
 20
2390.147099
 30
0.0
 11
1101.666125
 21
2390.147099
 31
0.0
  0
LINE
  5
23B
100
AcDbEntity
  8
LAY-2
  6
CONTINUOUS
 62
     2
100
AcDbLine
 10
1076.806326
 20
2394.500599
 30
0.0
 11
1084.024825
 21
2394.500599
 31
0.0
  0
LINE
  5
23C
100
AcDbEntity
  8
LAY-2
  6
CONTINUOUS
 62
     2
100
AcDbLine
 10
1092.376425
 20
2393.700299
 30
0.0
 11
1084.454625
 21
2393.700299
 31
0.0
  0
LINE
  5
23D
100
AcDbEntity
  8
LAY-2
  6
CONTINUOUS
 62
     2
100
AcDbLine
 10
1091.165725
 20
2390.147099
 30
0.0
 11
1085.665625
 21
2390.147099
 31
0.0
  0
LINE
  5
23E
100
AcDbEntity
  8
LAY-2
  6
CONTINUOUS
 62
     2
100
AcDbLine
 10
1060.806326
 20
2394.500599
 30
0.0
 11
1068.025126
 21
2394.500599
 31
0.0
  0
LINE
  5
23F
100
AcDbEntity
  8
LAY-2
  6
CONTINUOUS
 62
     2
100
AcDbLine
 10
1076.376726
 20
2393.700299
 30
0.0
 11
1068.454926
 21
2393.700299
 31
0.0
  0
LINE
  5
240
100
AcDbEntity
  8
LAY-2
  6
CONTINUOUS
 62
     2
100
AcDbLine
 10
1075.165526
 20
2390.147099
 30
0.0
 11
1069.665726
 21
2390.147099
 31
0.0
  0
LINE
  5
241
100
AcDbEntity
  8
LAY-2
  6
CONTINUOUS
 62
     2
100
AcDbLine
 10
1044.806424
 20
2394.500599
 30
0.0
 11
1052.025224
 21
2394.500599
 31
0.0
  0
LINE
  5
242
100
AcDbEntity
  8
LAY-2
  6
CONTINUOUS
 62
     2
100
AcDbLine
 10
1060.376826
 20
2393.700299
 30
0.0
 11
1052.454724
 21
2393.700299
 31
0.0
  0
LINE
  5
243
100
AcDbEntity
  8
LAY-2
  6
CONTINUOUS
 62
     2
100
AcDbLine
 10
1059.165824
 20
2390.147099
 30
0.0
 11
1053.665724
 21
2390.147099
 31
0.0
  0
LINE
  5
244
100
AcDbEntity
  8
LAY-2
  6
CONTINUOUS
 62
     2
100
AcDbLine
 10
1028.806225
 20
2394.500599
 30
0.0
 11
1036.025025
 21
2394.500599
 31
0.0
  0
LINE
  5
245
100
AcDbEntity
  8
LAY-2
  6
CONTINUOUS
 62
     2
100
AcDbLine
 10
1044.376624
 20
2393.700299
 30
0.0
 11
1036.454825
 21
2393.700299
 31
0.0
  0
LINE
  5
246
100
AcDbEntity
  8
LAY-2
  6
CONTINUOUS
 62
     2
100
AcDbLine
 10
1043.165825
 20
2390.147099
 30
0.0
 11
1037.665525
 21
2390.147099
 31
0.0
  0
LINE
  5
247
100
AcDbEntity
  8
LAY-2
  6
CONTINUOUS
 62
     2
100
AcDbLine
 10
1012.806526
 20
2394.500599
 30
0.0
 11
1020.024825
 21
2394.500599
 31
0.0
  0
LINE
  5
248
100
AcDbEntity
  8
LAY-2
  6
CONTINUOUS
 62
     2
100
AcDbLine
 10
1028.376425
 20
2393.700299
 30
0.0
 11
1020.454625
 21
2393.700299
 31
0.0
  0
LINE
  5
249
100
AcDbEntity
  8
LAY-2
  6
CONTINUOUS
 62
     2
100
AcDbLine
 10
1027.165625
 20
2390.147099
 30
0.0
 11
1021.665825
 21
2390.147099
 31
0.0
  0
LINE
  5
24A
100
AcDbEntity
  8
LAY-2
  6
CONTINUOUS
 62
     2
100
AcDbLine
 10
996.806526
 20
2394.500599
 30
0.0
 11
1004.024826
 21
2394.500599
 31
0.0
  0
LINE
  5
24B
100
AcDbEntity
  8
LAY-2
  6
CONTINUOUS
 62
     2
100
AcDbLine
 10
1012.376726
 20
2393.700299
 30
0.0
 11
1004.454926
 21
2393.700299
 31
0.0
  0
LINE
  5
24C
100
AcDbEntity
  8
LAY-2
  6
CONTINUOUS
 62
     2
100
AcDbLine
 10
1011.165426
 20
2390.147099
 30
0.0
 11
1005.665826
 21
2390.147099
 31
0.0
  0
LINE
  5
24D
100
AcDbEntity
  8
LAY-2
  6
CONTINUOUS
 62
     2
100
AcDbLine
 10
980.806324
 20
2394.500599
 30
0.0
 11
988.024924
 21
2394.500599
 31
0.0
  0
LINE
  5
24E
100
AcDbEntity
  8
LAY-2
  6
CONTINUOUS
 62
     2
100
AcDbLine
 10
988.454924
 20
2393.700299
 30
0.0
 11
996.376426
 21
2393.700299
 31
0.0
  0
LINE
  5
24F
100
AcDbEntity
  8
LAY-2
  6
CONTINUOUS
 62
     2
100
AcDbLine
 10
989.665624
 20
2390.147099
 30
0.0
 11
995.165526
 21
2390.147099
 31
0.0
  0
LINE
  5
250
100
AcDbEntity
  8
LAY-2
  6
CONTINUOUS
 62
     2
100
AcDbLine
 10
1188.354424
 20
2359.5002
 30
0.0
 11
1206.753826
 21
2359.5002
 31
0.0
  0
LINE
  5
251
100
AcDbEntity
  8
LAY-2
  6
CONTINUOUS
 62
     2
100
AcDbLine
 10
1250.054224
 20
2430.9252
 30
0.0
 11
1250.054224
 21
2434.2003
 31
0.0
  0
LINE
  5
252
100
AcDbEntity
  8
LAY-2
  6
CONTINUOUS
 62
     2
100
AcDbLine
 10
1188.054224
 20
2395.000899
 30
0.0
 11
1188.054224
 21
2359.8001
 31
0.0
  0
LINE
  5
253
100
AcDbEntity
  8
LAY-2
  6
CONTINUOUS
 62
     2
100
AcDbLine
 10
1249.881324
 20
2430.1116
 30
0.0
 11
1223.197625
 21
2370.1792
 31
0.0
  0
LINE
  5
254
100
AcDbEntity
  8
LAY-2
  6
CONTINUOUS
 62
     2
100
AcDbLine
 10
1249.754324
 20
2435.0
 30
0.0
 11
1249.754324
 21
2434.5002
 31
0.0
  0
LINE
  5
255
100
AcDbEntity
  8
LAY-2
  6
CONTINUOUS
 62
     2
100
AcDbLine
 10
1188.054224
 20
2390.147099
 30
0.0
 11
1181.167024
 21
2390.147099
 31
0.0
  0
LINE
  5
256
100
AcDbEntity
  8
LAY-2
  6
CONTINUOUS
 62
     2
100
AcDbLine
 10
1188.054224
 20
2393.700299
 30
0.0
 11
1179.956324
 21
2393.700299
 31
0.0
  0
LINE
  5
257
100
AcDbEntity
  8
LAY-2
  6
CONTINUOUS
 62
     2
100
AcDbLine
 10
665.054024
 20
2360.5003
 30
0.0
 11
1188.054224
 21
2360.5003
 31
0.0
  0
ARC
  5
258
100
AcDbEntity
  8
LAY-2
  6
CONTINUOUS
 62
     2
100
AcDbCircle
 10
668.709426
 20
2394.500599
 30
0.0
 40
8.20462
100
AcDbArc
 50
327.95664
 51
357.335558
  0
ARC
  5
259
100
AcDbEntity
  8
LAY-2
  6
CONTINUOUS
 62
     2
100
AcDbCircle
 10
684.709626
 20
2394.500599
 30
0.0
 40
8.20462
100
AcDbArc
 50
327.95664
 51
357.335558
  0
ARC
  5
25A
100
AcDbEntity
  8
LAY-2
  6
CONTINUOUS
 62
     2
100
AcDbCircle
 10
693.118925
 20
2394.500599
 30
0.0
 40
8.20462
100
AcDbArc
 50
182.664462
 51
212.043391
  0
ARC
  5
25B
100
AcDbEntity
  8
LAY-2
  6
CONTINUOUS
 62
     2
100
AcDbCircle
 10
677.304526
 20
2394.100199
 30
0.0
 40
0.4
100
AcDbArc
 50
90.0
 51
177.33556
  0
ARC
  5
25C
100
AcDbEntity
  8
LAY-2
  6
CONTINUOUS
 62
     2
100
AcDbCircle
 10
693.304725
 20
2394.100199
 30
0.0
 40
0.4
100
AcDbArc
 50
90.0
 51
177.33556
  0
ARC
  5
25D
100
AcDbEntity
  8
LAY-2
  6
CONTINUOUS
 62
     2
100
AcDbCircle
 10
684.523326
 20
2394.100199
 30
0.0
 40
0.4
100
AcDbArc
 50
2.66446
 51
90.0
  0
ARC
  5
25E
100
AcDbEntity
  8
LAY-2
  6
CONTINUOUS
 62
     2
100
AcDbCircle
 10
700.523525
 20
2394.100199
 30
0.0
 40
0.4
100
AcDbArc
 50
2.66446
 51
90.0
  0
ARC
  5
25F
100
AcDbEntity
  8
LAY-2
  6
CONTINUOUS
 62
     2
100
AcDbCircle
 10
709.304725
 20
2394.100199
 30
0.0
 40
0.4
100
AcDbArc
 50
90.0
 51
177.33556
  0
ARC
  5
260
100
AcDbEntity
  8
LAY-2
  6
CONTINUOUS
 62
     2
100
AcDbCircle
 10
709.118625
 20
2394.500599
 30
0.0
 40
8.20462
100
AcDbArc
 50
182.664462
 51
212.043391
  0
ARC
  5
261
100
AcDbEntity
  8
LAY-2
  6
CONTINUOUS
 62
     2
100
AcDbCircle
 10
700.709125
 20
2394.500599
 30
0.0
 40
8.20462
100
AcDbArc
 50
327.95664
 51
357.335558
  0
ARC
  5
262
100
AcDbEntity
  8
LAY-2
  6
CONTINUOUS
 62
     2
100
AcDbCircle
 10
716.523525
 20
2394.100199
 30
0.0
 40
0.4
100
AcDbArc
 50
2.66446
 51
90.0
  0
ARC
  5
263
100
AcDbEntity
  8
LAY-2
  6
CONTINUOUS
 62
     2
100
AcDbCircle
 10
725.304624
 20
2394.100199
 30
0.0
 40
0.4
100
AcDbArc
 50
90.0
 51
177.33556
  0
ARC
  5
264
100
AcDbEntity
  8
LAY-2
  6
CONTINUOUS
 62
     2
100
AcDbCircle
 10
725.118624
 20
2394.500599
 30
0.0
 40
8.20462
100
AcDbArc
 50
182.664462
 51
212.043391
  0
ARC
  5
265
100
AcDbEntity
  8
LAY-2
  6
CONTINUOUS
 62
     2
100
AcDbCircle
 10
716.709325
 20
2394.500599
 30
0.0
 40
8.20462
100
AcDbArc
 50
327.95664
 51
357.335558
  0
ARC
  5
266
100
AcDbEntity
  8
LAY-2
  6
CONTINUOUS
 62
     2
100
AcDbCircle
 10
732.523424
 20
2394.100199
 30
0.0
 40
0.4
100
AcDbArc
 50
2.66446
 51
90.0
  0
ARC
  5
267
100
AcDbEntity
  8
LAY-2
  6
CONTINUOUS
 62
     2
100
AcDbCircle
 10
741.305126
 20
2394.100199
 30
0.0
 40
0.4
100
AcDbArc
 50
90.0
 51
177.33556
  0
ARC
  5
268
100
AcDbEntity
  8
LAY-2
  6
CONTINUOUS
 62
     2
100
AcDbCircle
 10
741.118826
 20
2394.500599
 30
0.0
 40
8.20462
100
AcDbArc
 50
182.664462
 51
212.043391
  0
ARC
  5
269
100
AcDbEntity
  8
LAY-2
  6
CONTINUOUS
 62
     2
100
AcDbCircle
 10
732.709524
 20
2394.500599
 30
0.0
 40
8.20462
100
AcDbArc
 50
327.95664
 51
357.335558
  0
ARC
  5
26A
100
AcDbEntity
  8
LAY-2
  6
CONTINUOUS
 62
     2
100
AcDbCircle
 10
748.523426
 20
2394.100199
 30
0.0
 40
0.4
100
AcDbArc
 50
2.66446
 51
90.0
  0
ARC
  5
26B
100
AcDbEntity
  8
LAY-2
  6
CONTINUOUS
 62
     2
100
AcDbCircle
 10
757.304525
 20
2394.100199
 30
0.0
 40
0.4
100
AcDbArc
 50
90.0
 51
177.33556
  0
ARC
  5
26C
100
AcDbEntity
  8
LAY-2
  6
CONTINUOUS
 62
     2
100
AcDbCircle
 10
757.118526
 20
2394.500599
 30
0.0
 40
8.20462
100
AcDbArc
 50
182.664462
 51
212.043391
  0
ARC
  5
26D
100
AcDbEntity
  8
LAY-2
  6
CONTINUOUS
 62
     2
100
AcDbCircle
 10
748.709226
 20
2394.500599
 30
0.0
 40
8.20462
100
AcDbArc
 50
327.95664
 51
357.335558
  0
ARC
  5
26E
100
AcDbEntity
  8
LAY-2
  6
CONTINUOUS
 62
     2
100
AcDbCircle
 10
764.523325
 20
2394.100199
 30
0.0
 40
0.4
100
AcDbArc
 50
2.66446
 51
90.0
  0
ARC
  5
26F
100
AcDbEntity
  8
LAY-2
  6
CONTINUOUS
 62
     2
100
AcDbCircle
 10
773.304725
 20
2394.100199
 30
0.0
 40
0.4
100
AcDbArc
 50
90.0
 51
177.33556
  0
ARC
  5
270
100
AcDbEntity
  8
LAY-2
  6
CONTINUOUS
 62
     2
100
AcDbCircle
 10
773.118425
 20
2394.500599
 30
0.0
 40
8.20462
100
AcDbArc
 50
182.664462
 51
212.043391
  0
ARC
  5
271
100
AcDbEntity
  8
LAY-2
  6
CONTINUOUS
 62
     2
100
AcDbCircle
 10
764.709725
 20
2394.500599
 30
0.0
 40
8.20462
100
AcDbArc
 50
327.95664
 51
357.335558
  0
ARC
  5
272
100
AcDbEntity
  8
LAY-2
  6
CONTINUOUS
 62
     2
100
AcDbCircle
 10
780.523325
 20
2394.100199
 30
0.0
 40
0.4
100
AcDbArc
 50
2.66446
 51
90.0
  0
ARC
  5
273
100
AcDbEntity
  8
LAY-2
  6
CONTINUOUS
 62
     2
100
AcDbCircle
 10
789.304924
 20
2394.100199
 30
0.0
 40
0.4
100
AcDbArc
 50
90.0
 51
177.33556
  0
ARC
  5
274
100
AcDbEntity
  8
LAY-2
  6
CONTINUOUS
 62
     2
100
AcDbCircle
 10
789.118924
 20
2394.500599
 30
0.0
 40
8.20462
100
AcDbArc
 50
182.664462
 51
212.043391
  0
ARC
  5
275
100
AcDbEntity
  8
LAY-2
  6
CONTINUOUS
 62
     2
100
AcDbCircle
 10
780.709425
 20
2394.500599
 30
0.0
 40
8.20462
100
AcDbArc
 50
327.95664
 51
357.335558
  0
ARC
  5
276
100
AcDbEntity
  8
LAY-2
  6
CONTINUOUS
 62
     2
100
AcDbCircle
 10
804.620026
 20
2394.500599
 30
0.0
 40
8.20462
100
AcDbArc
 50
182.664462
 51
212.043391
  0
ARC
  5
277
100
AcDbEntity
  8
LAY-2
  6
CONTINUOUS
 62
     2
100
AcDbCircle
 10
796.210724
 20
2394.500599
 30
0.0
 40
8.20462
100
AcDbArc
 50
327.95664
 51
357.335558
  0
ARC
  5
278
100
AcDbEntity
  8
LAY-2
  6
CONTINUOUS
 62
     2
100
AcDbCircle
 10
796.024924
 20
2394.100199
 30
0.0
 40
0.4
100
AcDbArc
 50
2.66446
 51
90.0
  0
ARC
  5
279
100
AcDbEntity
  8
LAY-2
  6
CONTINUOUS
 62
     2
100
AcDbCircle
 10
804.806326
 20
2394.100199
 30
0.0
 40
0.4
100
AcDbArc
 50
90.0
 51
177.33556
  0
ARC
  5
27A
100
AcDbEntity
  8
LAY-2
  6
CONTINUOUS
 62
     2
100
AcDbCircle
 10
820.620226
 20
2394.500599
 30
0.0
 40
8.20462
100
AcDbArc
 50
182.664462
 51
212.043391
  0
ARC
  5
27B
100
AcDbEntity
  8
LAY-2
  6
CONTINUOUS
 62
     2
100
AcDbCircle
 10
812.210926
 20
2394.500599
 30
0.0
 40
8.20462
100
AcDbArc
 50
327.95664
 51
357.335558
  0
ARC
  5
27C
100
AcDbEntity
  8
LAY-2
  6
CONTINUOUS
 62
     2
100
AcDbCircle
 10
812.025126
 20
2394.100199
 30
0.0
 40
0.4
100
AcDbArc
 50
2.66446
 51
90.0
  0
ARC
  5
27D
100
AcDbEntity
  8
LAY-2
  6
CONTINUOUS
 62
     2
100
AcDbCircle
 10
820.806526
 20
2394.100199
 30
0.0
 40
0.4
100
AcDbArc
 50
90.0
 51
177.33556
  0
ARC
  5
27E
100
AcDbEntity
  8
LAY-2
  6
CONTINUOUS
 62
     2
100
AcDbCircle
 10
836.620425
 20
2394.500599
 30
0.0
 40
8.20462
100
AcDbArc
 50
182.664462
 51
212.043391
  0
ARC
  5
27F
100
AcDbEntity
  8
LAY-2
  6
CONTINUOUS
 62
     2
100
AcDbCircle
 10
828.210925
 20
2394.500599
 30
0.0
 40
8.20462
100
AcDbArc
 50
327.95664
 51
357.335558
  0
ARC
  5
280
100
AcDbEntity
  8
LAY-2
  6
CONTINUOUS
 62
     2
100
AcDbCircle
 10
828.024825
 20
2394.100199
 30
0.0
 40
0.4
100
AcDbArc
 50
2.66446
 51
90.0
  0
ARC
  5
281
100
AcDbEntity
  8
LAY-2
  6
CONTINUOUS
 62
     2
100
AcDbCircle
 10
836.806525
 20
2394.100199
 30
0.0
 40
0.4
100
AcDbArc
 50
90.0
 51
177.33556
  0
ARC
  5
282
100
AcDbEntity
  8
LAY-2
  6
CONTINUOUS
 62
     2
100
AcDbCircle
 10
852.620124
 20
2394.500599
 30
0.0
 40
8.20462
100
AcDbArc
 50
182.664462
 51
212.043391
  0
ARC
  5
283
100
AcDbEntity
  8
LAY-2
  6
CONTINUOUS
 62
     2
100
AcDbCircle
 10
844.211125
 20
2394.500599
 30
0.0
 40
8.20462
100
AcDbArc
 50
327.95664
 51
357.335558
  0
ARC
  5
284
100
AcDbEntity
  8
LAY-2
  6
CONTINUOUS
 62
     2
100
AcDbCircle
 10
844.024825
 20
2394.100199
 30
0.0
 40
0.4
100
AcDbArc
 50
2.66446
 51
90.0
  0
ARC
  5
285
100
AcDbEntity
  8
LAY-2
  6
CONTINUOUS
 62
     2
100
AcDbCircle
 10
852.806224
 20
2394.100199
 30
0.0
 40
0.4
100
AcDbArc
 50
90.0
 51
177.33556
  0
ARC
  5
286
100
AcDbEntity
  8
LAY-2
  6
CONTINUOUS
 62
     2
100
AcDbCircle
 10
868.620326
 20
2394.500599
 30
0.0
 40
8.20462
100
AcDbArc
 50
182.664462
 51
212.043391
  0
ARC
  5
287
100
AcDbEntity
  8
LAY-2
  6
CONTINUOUS
 62
     2
100
AcDbCircle
 10
860.211324
 20
2394.500599
 30
0.0
 40
8.20462
100
AcDbArc
 50
327.95664
 51
357.335558
  0
ARC
  5
288
100
AcDbEntity
  8
LAY-2
  6
CONTINUOUS
 62
     2
100
AcDbCircle
 10
860.025024
 20
2394.100199
 30
0.0
 40
0.4
100
AcDbArc
 50
2.66446
 51
90.0
  0
ARC
  5
289
100
AcDbEntity
  8
LAY-2
  6
CONTINUOUS
 62
     2
100
AcDbCircle
 10
868.806426
 20
2394.100199
 30
0.0
 40
0.4
100
AcDbArc
 50
90.0
 51
177.33556
  0
ARC
  5
28A
100
AcDbEntity
  8
LAY-2
  6
CONTINUOUS
 62
     2
100
AcDbCircle
 10
884.620226
 20
2394.500599
 30
0.0
 40
8.20462
100
AcDbArc
 50
182.664462
 51
212.043391
  0
ARC
  5
28B
100
AcDbEntity
  8
LAY-2
  6
CONTINUOUS
 62
     2
100
AcDbCircle
 10
876.210826
 20
2394.500599
 30
0.0
 40
8.20462
100
AcDbArc
 50
327.95664
 51
357.335558
  0
ARC
  5
28C
100
AcDbEntity
  8
LAY-2
  6
CONTINUOUS
 62
     2
100
AcDbCircle
 10
876.024726
 20
2394.100199
 30
0.0
 40
0.4
100
AcDbArc
 50
2.66446
 51
90.0
  0
ARC
  5
28D
100
AcDbEntity
  8
LAY-2
  6
CONTINUOUS
 62
     2
100
AcDbCircle
 10
884.806326
 20
2394.100199
 30
0.0
 40
0.4
100
AcDbArc
 50
90.0
 51
177.33556
  0
ARC
  5
28E
100
AcDbEntity
  8
LAY-2
  6
CONTINUOUS
 62
     2
100
AcDbCircle
 10
900.620225
 20
2394.500599
 30
0.0
 40
8.20462
100
AcDbArc
 50
182.664462
 51
212.043391
  0
ARC
  5
28F
100
AcDbEntity
  8
LAY-2
  6
CONTINUOUS
 62
     2
100
AcDbCircle
 10
892.211025
 20
2394.500599
 30
0.0
 40
8.20462
100
AcDbArc
 50
327.95664
 51
357.335558
  0
ARC
  5
290
100
AcDbEntity
  8
LAY-2
  6
CONTINUOUS
 62
     2
100
AcDbCircle
 10
892.024925
 20
2394.100199
 30
0.0
 40
0.4
100
AcDbArc
 50
2.66446
 51
90.0
  0
ARC
  5
291
100
AcDbEntity
  8
LAY-2
  6
CONTINUOUS
 62
     2
100
AcDbCircle
 10
900.806525
 20
2394.100199
 30
0.0
 40
0.4
100
AcDbArc
 50
90.0
 51
177.33556
  0
ARC
  5
292
100
AcDbEntity
  8
LAY-2
  6
CONTINUOUS
 62
     2
100
AcDbCircle
 10
916.620424
 20
2394.500599
 30
0.0
 40
8.20462
100
AcDbArc
 50
182.664462
 51
212.043391
  0
ARC
  5
293
100
AcDbEntity
  8
LAY-2
  6
CONTINUOUS
 62
     2
100
AcDbCircle
 10
908.211225
 20
2394.500599
 30
0.0
 40
8.20462
100
AcDbArc
 50
327.95664
 51
357.335558
  0
ARC
  5
294
100
AcDbEntity
  8
LAY-2
  6
CONTINUOUS
 62
     2
100
AcDbCircle
 10
908.025125
 20
2394.100199
 30
0.0
 40
0.4
100
AcDbArc
 50
2.66446
 51
90.0
  0
ARC
  5
295
100
AcDbEntity
  8
LAY-2
  6
CONTINUOUS
 62
     2
100
AcDbCircle
 10
916.806224
 20
2394.100199
 30
0.0
 40
0.4
100
AcDbArc
 50
90.0
 51
177.33556
  0
ARC
  5
296
100
AcDbEntity
  8
LAY-2
  6
CONTINUOUS
 62
     2
100
AcDbCircle
 10
932.620126
 20
2394.500599
 30
0.0
 40
8.20462
100
AcDbArc
 50
182.664462
 51
212.043391
  0
ARC
  5
297
100
AcDbEntity
  8
LAY-2
  6
CONTINUOUS
 62
     2
100
AcDbCircle
 10
924.210924
 20
2394.500599
 30
0.0
 40
8.20462
100
AcDbArc
 50
327.95664
 51
357.335558
  0
ARC
  5
298
100
AcDbEntity
  8
LAY-2
  6
CONTINUOUS
 62
     2
100
AcDbCircle
 10
924.025024
 20
2394.100199
 30
0.0
 40
0.4
100
AcDbArc
 50
2.66446
 51
90.0
  0
ARC
  5
299
100
AcDbEntity
  8
LAY-2
  6
CONTINUOUS
 62
     2
100
AcDbCircle
 10
932.806226
 20
2394.100199
 30
0.0
 40
0.4
100
AcDbArc
 50
90.0
 51
177.33556
  0
ARC
  5
29A
100
AcDbEntity
  8
LAY-2
  6
CONTINUOUS
 62
     2
100
AcDbCircle
 10
948.620126
 20
2394.500599
 30
0.0
 40
8.20462
100
AcDbArc
 50
182.664462
 51
212.043391
  0
ARC
  5
29B
100
AcDbEntity
  8
LAY-2
  6
CONTINUOUS
 62
     2
100
AcDbCircle
 10
940.211126
 20
2394.500599
 30
0.0
 40
8.20462
100
AcDbArc
 50
327.95664
 51
357.335558
  0
ARC
  5
29C
100
AcDbEntity
  8
LAY-2
  6
CONTINUOUS
 62
     2
100
AcDbCircle
 10
940.025026
 20
2394.100199
 30
0.0
 40
0.4
100
AcDbArc
 50
2.66446
 51
90.0
  0
ARC
  5
29D
100
AcDbEntity
  8
LAY-2
  6
CONTINUOUS
 62
     2
100
AcDbCircle
 10
948.806426
 20
2394.100199
 30
0.0
 40
0.4
100
AcDbArc
 50
90.0
 51
177.33556
  0
ARC
  5
29E
100
AcDbEntity
  8
LAY-2
  6
CONTINUOUS
 62
     2
100
AcDbCircle
 10
964.806625
 20
2394.100199
 30
0.0
 40
0.4
100
AcDbArc
 50
90.0
 51
177.33556
  0
ARC
  5
29F
100
AcDbEntity
  8
LAY-2
  6
CONTINUOUS
 62
     2
100
AcDbCircle
 10
956.025025
 20
2394.100199
 30
0.0
 40
0.4
100
AcDbArc
 50
2.66446
 51
90.0
  0
ARC
  5
2A0
100
AcDbEntity
  8
LAY-2
  6
CONTINUOUS
 62
     2
100
AcDbCircle
 10
972.024925
 20
2394.100199
 30
0.0
 40
0.4
100
AcDbArc
 50
2.66446
 51
90.0
  0
ARC
  5
2A1
100
AcDbEntity
  8
LAY-2
  6
CONTINUOUS
 62
     2
100
AcDbCircle
 10
956.211025
 20
2394.500599
 30
0.0
 40
8.20462
100
AcDbArc
 50
327.95664
 51
357.335558
  0
ARC
  5
2A2
100
AcDbEntity
  8
LAY-2
  6
CONTINUOUS
 62
     2
100
AcDbCircle
 10
964.620525
 20
2394.500599
 30
0.0
 40
8.20462
100
AcDbArc
 50
182.664462
 51
212.043391
  0
ARC
  5
2A3
100
AcDbEntity
  8
LAY-2
  6
CONTINUOUS
 62
     2
100
AcDbCircle
 10
980.620024
 20
2394.500599
 30
0.0
 40
8.20462
100
AcDbArc
 50
182.664462
 51
212.043391
  0
ARC
  5
2A4
100
AcDbEntity
  8
LAY-2
  6
CONTINUOUS
 62
     2
100
AcDbCircle
 10
1179.526524
 20
2394.100199
 30
0.0
 40
0.4
100
AcDbArc
 50
2.66446
 51
90.0
  0
ARC
  5
2A5
100
AcDbEntity
  8
LAY-2
  6
CONTINUOUS
 62
     2
100
AcDbCircle
 10
1188.122024
 20
2394.500599
 30
0.0
 40
8.20462
100
AcDbArc
 50
182.664462
 51
212.043391
  0
ARC
  5
2A6
100
AcDbEntity
  8
LAY-2
  6
CONTINUOUS
 62
     2
100
AcDbCircle
 10
1172.307925
 20
2394.100199
 30
0.0
 40
0.4
100
AcDbArc
 50
90.0
 51
177.33556
  0
ARC
  5
2A7
100
AcDbEntity
  8
LAY-2
  6
CONTINUOUS
 62
     2
100
AcDbCircle
 10
1163.526825
 20
2394.100199
 30
0.0
 40
0.4
100
AcDbArc
 50
2.66446
 51
90.0
  0
ARC
  5
2A8
100
AcDbEntity
  8
LAY-2
  6
CONTINUOUS
 62
     2
100
AcDbCircle
 10
1163.712625
 20
2394.500599
 30
0.0
 40
8.20462
100
AcDbArc
 50
327.95664
 51
357.335558
  0
ARC
  5
2A9
100
AcDbEntity
  8
LAY-2
  6
CONTINUOUS
 62
     2
100
AcDbCircle
 10
1172.121825
 20
2394.500599
 30
0.0
 40
8.20462
100
AcDbArc
 50
182.664462
 51
212.043391
  0
ARC
  5
2AA
100
AcDbEntity
  8
LAY-2
  6
CONTINUOUS
 62
     2
100
AcDbCircle
 10
1148.211026
 20
2394.500599
 30
0.0
 40
8.20462
100
AcDbArc
 50
327.95664
 51
357.335558
  0
ARC
  5
2AB
100
AcDbEntity
  8
LAY-2
  6
CONTINUOUS
 62
     2
100
AcDbCircle
 10
1156.620025
 20
2394.500599
 30
0.0
 40
8.20462
100
AcDbArc
 50
182.664462
 51
212.043391
  0
ARC
  5
2AC
100
AcDbEntity
  8
LAY-2
  6
CONTINUOUS
 62
     2
100
AcDbCircle
 10
1156.806325
 20
2394.100199
 30
0.0
 40
0.4
100
AcDbArc
 50
90.0
 51
177.33556
  0
ARC
  5
2AD
100
AcDbEntity
  8
LAY-2
  6
CONTINUOUS
 62
     2
100
AcDbCircle
 10
1148.024926
 20
2394.100199
 30
0.0
 40
0.4
100
AcDbArc
 50
2.66446
 51
90.0
  0
ARC
  5
2AE
100
AcDbEntity
  8
LAY-2
  6
CONTINUOUS
 62
     2
100
AcDbCircle
 10
1132.211026
 20
2394.500599
 30
0.0
 40
8.20462
100
AcDbArc
 50
327.95664
 51
357.335558
  0
ARC
  5
2AF
100
AcDbEntity
  8
LAY-2
  6
CONTINUOUS
 62
     2
100
AcDbCircle
 10
1140.620326
 20
2394.500599
 30
0.0
 40
8.20462
100
AcDbArc
 50
182.664462
 51
212.043391
  0
ARC
  5
2B0
100
AcDbEntity
  8
LAY-2
  6
CONTINUOUS
 62
     2
100
AcDbCircle
 10
1140.806626
 20
2394.100199
 30
0.0
 40
0.4
100
AcDbArc
 50
90.0
 51
177.33556
  0
ARC
  5
2B1
100
AcDbEntity
  8
LAY-2
  6
CONTINUOUS
 62
     2
100
AcDbCircle
 10
1132.024926
 20
2394.100199
 30
0.0
 40
0.4
100
AcDbArc
 50
2.66446
 51
90.0
  0
ARC
  5
2B2
100
AcDbEntity
  8
LAY-2
  6
CONTINUOUS
 62
     2
100
AcDbCircle
 10
1116.211124
 20
2394.500599
 30
0.0
 40
8.20462
100
AcDbArc
 50
327.95664
 51
357.335558
  0
ARC
  5
2B3
100
AcDbEntity
  8
LAY-2
  6
CONTINUOUS
 62
     2
100
AcDbCircle
 10
1124.620324
 20
2394.500599
 30
0.0
 40
8.20462
100
AcDbArc
 50
182.664462
 51
212.043391
  0
ARC
  5
2B4
100
AcDbEntity
  8
LAY-2
  6
CONTINUOUS
 62
     2
100
AcDbCircle
 10
1124.806426
 20
2394.100199
 30
0.0
 40
0.4
100
AcDbArc
 50
90.0
 51
177.33556
  0
ARC
  5
2B5
100
AcDbEntity
  8
LAY-2
  6
CONTINUOUS
 62
     2
100
AcDbCircle
 10
1116.025024
 20
2394.100199
 30
0.0
 40
0.4
100
AcDbArc
 50
2.66446
 51
90.0
  0
ARC
  5
2B6
100
AcDbEntity
  8
LAY-2
  6
CONTINUOUS
 62
     2
100
AcDbCircle
 10
1100.210925
 20
2394.500599
 30
0.0
 40
8.20462
100
AcDbArc
 50
327.95664
 51
357.335558
  0
ARC
  5
2B7
100
AcDbEntity
  8
LAY-2
  6
CONTINUOUS
 62
     2
100
AcDbCircle
 10
1108.620125
 20
2394.500599
 30
0.0
 40
8.20462
100
AcDbArc
 50
182.664462
 51
212.043391
  0
ARC
  5
2B8
100
AcDbEntity
  8
LAY-2
  6
CONTINUOUS
 62
     2
100
AcDbCircle
 10
1108.806225
 20
2394.100199
 30
0.0
 40
0.4
100
AcDbArc
 50
90.0
 51
177.33556
  0
ARC
  5
2B9
100
AcDbEntity
  8
LAY-2
  6
CONTINUOUS
 62
     2
100
AcDbCircle
 10
1100.025025
 20
2394.100199
 30
0.0
 40
0.4
100
AcDbArc
 50
2.66446
 51
90.0
  0
ARC
  5
2BA
100
AcDbEntity
  8
LAY-2
  6
CONTINUOUS
 62
     2
100
AcDbCircle
 10
1084.211225
 20
2394.500599
 30
0.0
 40
8.20462
100
AcDbArc
 50
327.95664
 51
357.335558
  0
ARC
  5
2BB
100
AcDbEntity
  8
LAY-2
  6
CONTINUOUS
 62
     2
100
AcDbCircle
 10
1092.620425
 20
2394.500599
 30
0.0
 40
8.20462
100
AcDbArc
 50
182.664462
 51
212.043391
  0
ARC
  5
2BC
100
AcDbEntity
  8
LAY-2
  6
CONTINUOUS
 62
     2
100
AcDbCircle
 10
1092.806725
 20
2394.100199
 30
0.0
 40
0.4
100
AcDbArc
 50
90.0
 51
177.33556
  0
ARC
  5
2BD
100
AcDbEntity
  8
LAY-2
  6
CONTINUOUS
 62
     2
100
AcDbCircle
 10
1084.024825
 20
2394.100199
 30
0.0
 40
0.4
100
AcDbArc
 50
2.66446
 51
90.0
  0
ARC
  5
2BE
100
AcDbEntity
  8
LAY-2
  6
CONTINUOUS
 62
     2
100
AcDbCircle
 10
1068.211026
 20
2394.500599
 30
0.0
 40
8.20462
100
AcDbArc
 50
327.95664
 51
357.335558
  0
ARC
  5
2BF
100
AcDbEntity
  8
LAY-2
  6
CONTINUOUS
 62
     2
100
AcDbCircle
 10
1076.620226
 20
2394.500599
 30
0.0
 40
8.20462
100
AcDbArc
 50
182.664462
 51
212.043391
  0
ARC
  5
2C0
100
AcDbEntity
  8
LAY-2
  6
CONTINUOUS
 62
     2
100
AcDbCircle
 10
1076.806326
 20
2394.100199
 30
0.0
 40
0.4
100
AcDbArc
 50
90.0
 51
177.33556
  0
ARC
  5
2C1
100
AcDbEntity
  8
LAY-2
  6
CONTINUOUS
 62
     2
100
AcDbCircle
 10
1068.025126
 20
2394.100199
 30
0.0
 40
0.4
100
AcDbArc
 50
2.66446
 51
90.0
  0
ARC
  5
2C2
100
AcDbEntity
  8
LAY-2
  6
CONTINUOUS
 62
     2
100
AcDbCircle
 10
1052.210824
 20
2394.500599
 30
0.0
 40
8.20462
100
AcDbArc
 50
327.95664
 51
357.335558
  0
ARC
  5
2C3
100
AcDbEntity
  8
LAY-2
  6
CONTINUOUS
 62
     2
100
AcDbCircle
 10
1060.620226
 20
2394.500599
 30
0.0
 40
8.20462
100
AcDbArc
 50
182.664462
 51
212.043391
  0
ARC
  5
2C4
100
AcDbEntity
  8
LAY-2
  6
CONTINUOUS
 62
     2
100
AcDbCircle
 10
1060.806326
 20
2394.100199
 30
0.0
 40
0.4
100
AcDbArc
 50
90.0
 51
177.33556
  0
ARC
  5
2C5
100
AcDbEntity
  8
LAY-2
  6
CONTINUOUS
 62
     2
100
AcDbCircle
 10
1052.025224
 20
2394.100199
 30
0.0
 40
0.4
100
AcDbArc
 50
2.66446
 51
90.0
  0
ARC
  5
2C6
100
AcDbEntity
  8
LAY-2
  6
CONTINUOUS
 62
     2
100
AcDbCircle
 10
1036.211325
 20
2394.500599
 30
0.0
 40
8.20462
100
AcDbArc
 50
327.95664
 51
357.335558
  0
ARC
  5
2C7
100
AcDbEntity
  8
LAY-2
  6
CONTINUOUS
 62
     2
100
AcDbCircle
 10
1044.620324
 20
2394.500599
 30
0.0
 40
8.20462
100
AcDbArc
 50
182.664462
 51
212.043391
  0
ARC
  5
2C8
100
AcDbEntity
  8
LAY-2
  6
CONTINUOUS
 62
     2
100
AcDbCircle
 10
1044.806424
 20
2394.100199
 30
0.0
 40
0.4
100
AcDbArc
 50
90.0
 51
177.33556
  0
ARC
  5
2C9
100
AcDbEntity
  8
LAY-2
  6
CONTINUOUS
 62
     2
100
AcDbCircle
 10
1036.025025
 20
2394.100199
 30
0.0
 40
0.4
100
AcDbArc
 50
2.66446
 51
90.0
  0
ARC
  5
2CA
100
AcDbEntity
  8
LAY-2
  6
CONTINUOUS
 62
     2
100
AcDbCircle
 10
1020.211125
 20
2394.500599
 30
0.0
 40
8.20462
100
AcDbArc
 50
327.95664
 51
357.335558
  0
ARC
  5
2CB
100
AcDbEntity
  8
LAY-2
  6
CONTINUOUS
 62
     2
100
AcDbCircle
 10
1028.620325
 20
2394.500599
 30
0.0
 40
8.20462
100
AcDbArc
 50
182.664462
 51
212.043391
  0
ARC
  5
2CC
100
AcDbEntity
  8
LAY-2
  6
CONTINUOUS
 62
     2
100
AcDbCircle
 10
1028.806225
 20
2394.100199
 30
0.0
 40
0.4
100
AcDbArc
 50
90.0
 51
177.33556
  0
ARC
  5
2CD
100
AcDbEntity
  8
LAY-2
  6
CONTINUOUS
 62
     2
100
AcDbCircle
 10
1020.024825
 20
2394.100199
 30
0.0
 40
0.4
100
AcDbArc
 50
2.66446
 51
90.0
  0
ARC
  5
2CE
100
AcDbEntity
  8
LAY-2
  6
CONTINUOUS
 62
     2
100
AcDbCircle
 10
1004.210926
 20
2394.500599
 30
0.0
 40
8.20462
100
AcDbArc
 50
327.95664
 51
357.335558
  0
ARC
  5
2CF
100
AcDbEntity
  8
LAY-2
  6
CONTINUOUS
 62
     2
100
AcDbCircle
 10
1012.620426
 20
2394.500599
 30
0.0
 40
8.20462
100
AcDbArc
 50
182.664462
 51
212.043391
  0
ARC
  5
2D0
100
AcDbEntity
  8
LAY-2
  6
CONTINUOUS
 62
     2
100
AcDbCircle
 10
1012.806526
 20
2394.100199
 30
0.0
 40
0.4
100
AcDbArc
 50
90.0
 51
177.33556
  0
ARC
  5
2D1
100
AcDbEntity
  8
LAY-2
  6
CONTINUOUS
 62
     2
100
AcDbCircle
 10
1004.024826
 20
2394.100199
 30
0.0
 40
0.4
100
AcDbArc
 50
2.66446
 51
90.0
  0
ARC
  5
2D2
100
AcDbEntity
  8
LAY-2
  6
CONTINUOUS
 62
     2
100
AcDbCircle
 10
988.024924
 20
2394.100199
 30
0.0
 40
0.4
100
AcDbArc
 50
2.66446
 51
90.0
  0
ARC
  5
2D3
100
AcDbEntity
  8
LAY-2
  6
CONTINUOUS
 62
     2
100
AcDbCircle
 10
996.806526
 20
2394.100199
 30
0.0
 40
0.4
100
AcDbArc
 50
90.0
 51
177.33556
  0
ARC
  5
2D4
100
AcDbEntity
  8
LAY-2
  6
CONTINUOUS
 62
     2
100
AcDbCircle
 10
980.806324
 20
2394.100199
 30
0.0
 40
0.4
100
AcDbArc
 50
90.0
 51
177.33556
  0
ARC
  5
2D5
100
AcDbEntity
  8
LAY-2
  6
CONTINUOUS
 62
     2
100
AcDbCircle
 10
996.620226
 20
2394.500599
 30
0.0
 40
8.20462
100
AcDbArc
 50
182.664462
 51
212.043391
  0
ARC
  5
2D6
100
AcDbEntity
  8
LAY-2
  6
CONTINUOUS
 62
     2
100
AcDbCircle
 10
988.210924
 20
2394.500599
 30
0.0
 40
8.20462
100
AcDbArc
 50
327.95664
 51
357.335558
  0
ARC
  5
2D7
100
AcDbEntity
  8
LAY-2
  6
CONTINUOUS
 62
     2
100
AcDbCircle
 10
972.211025
 20
2394.500599
 30
0.0
 40
8.20462
100
AcDbArc
 50
327.95664
 51
357.335558
  0
ARC
  5
2D8
100
AcDbEntity
  8
LAY-2
  6
CONTINUOUS
 62
     2
100
AcDbCircle
 10
1249.754324
 20
2434.2003
 30
0.0
 40
0.3
100
AcDbArc
 50
0.0
 51
90.0
  0
ARC
  5
2D9
100
AcDbEntity
  8
LAY-2
  6
CONTINUOUS
 62
     2
100
AcDbCircle
 10
1188.354424
 20
2359.8001
 30
0.0
 40
0.3
100
AcDbArc
 50
180.0
 51
270.0
  0
ARC
  5
2DA
100
AcDbEntity
  8
LAY-2
  6
CONTINUOUS
 62
     2
100
AcDbCircle
 10
1206.753826
 20
2377.5009
 30
0.0
 40
18.000002
100
AcDbArc
 50
270.0
 51
336.0
  0
ARC
  5
2DB
100
AcDbEntity
  8
LAY-2
  6
CONTINUOUS
 62
     2
100
AcDbCircle
 10
1248.054224
 20
2430.9252
 30
0.0
 40
2.0
100
AcDbArc
 50
336.0
 51
0.0
  0
LINE
  5
2DC
100
AcDbEntity
  8
LAY-2
  6
CONTINUOUS
 62
     2
100
AcDbLine
 10
1186.847124
 20
2434.5002
 30
0.0
 11
1249.754324
 21
2434.5002
 31
0.0
  0
LINE
  5
2DD
100
AcDbEntity
  8
LAY-2
  6
CONTINUOUS
 62
     2
100
AcDbLine
 10
1188.054224
 20
2395.000899
 30
0.0
 11
1186.547524
 21
2434.1854
 31
0.0
  0
LINE
  5
2DE
100
AcDbEntity
  8
LAY-2
  6
CONTINUOUS
 62
     2
100
AcDbLine
 10
1186.874424
 20
2434.5002
 30
0.0
 11
1186.874424
 21
2435.0
 31
0.0
  0
ARC
  5
2DF
100
AcDbEntity
  8
LAY-2
  6
CONTINUOUS
 62
     2
100
AcDbCircle
 10
1186.847124
 20
2434.2003
 30
0.0
 40
0.3
100
AcDbArc
 50
90.0
 51
182.931663
  0
LINE
  5
2E0
100
AcDbEntity
  8
LAY-2
  6
CONTINUOUS
 62
     2
100
AcDbLine
 10
670.164126
 20
2390.147099
 30
0.0
 11
675.664026
 21
2390.147099
 31
0.0
  0
ARC
  5
2E1
100
AcDbEntity
  8
LAY-2
  6
CONTINUOUS
 62
     2
100
AcDbCircle
 10
664.753924
 20
2360.0
 30
0.0
 40
0.3
100
AcDbArc
 50
270.0
 51
0.0
  0
ARC
  5
2E2
100
AcDbEntity
  8
LAY-2
  6
CONTINUOUS
 62
     2
100
AcDbCircle
 10
645.354125
 20
2360.0
 30
0.0
 40
0.3
100
AcDbArc
 50
180.0
 51
270.0
  0
ARC
  5
2E3
100
AcDbEntity
  8
LAY-2
  6
CONTINUOUS
 62
     2
100
AcDbCircle
 10
644.754325
 20
2360.0
 30
0.0
 40
0.3
100
AcDbArc
 50
270.0
 51
0.0
  0
ARC
  5
2E4
100
AcDbEntity
  8
LAY-2
  6
CONTINUOUS
 62
     2
100
AcDbCircle
 10
664.753924
 20
2360.0
 30
0.0
 40
0.3
100
AcDbArc
 50
270.0
 51
0.0
  0
ARC
  5
2E5
100
AcDbEntity
  8
LAY-2
  6
CONTINUOUS
 62
     2
100
AcDbCircle
 10
668.523126
 20
2394.100199
 30
0.0
 40
0.4
100
AcDbArc
 50
2.66446
 51
90.0
  0
ARC
  5
2E6
100
AcDbEntity
  8
LAY-2
  6
CONTINUOUS
 62
     2
100
AcDbCircle
 10
677.118726
 20
2394.500599
 30
0.0
 40
8.20462
100
AcDbArc
 50
182.664462
 51
212.043391
  0
LINE
  5
2E7
100
AcDbEntity
  8
LAY-2
  6
CONTINUOUS
 62
     2
100
AcDbLine
 10
665.054024
 20
2360.0
 30
0.0
 11
665.054024
 21
2394.500599
 31
0.0
  0
LINE
  5
2E8
100
AcDbEntity
  8
LAY-2
  6
CONTINUOUS
 62
     2
100
AcDbLine
 10
668.523126
 20
2394.500599
 30
0.0
 11
665.054024
 21
2394.500599
 31
0.0
  0
LINE
  5
2E9
100
AcDbEntity
  8
LAY-2
  6
CONTINUOUS
 62
     2
100
AcDbLine
 10
665.054024
 20
2392.433399
 30
0.0
 11
665.054024
 21
2360.0
 31
0.0
  0
LINE
  5
2EA
100
AcDbEntity
  8
LAY-2
  6
CONTINUOUS
 62
     2
100
AcDbLine
 10
1186.874424
 20
2435.0
 30
0.0
 11
1249.754324
 21
2435.0
 31
0.0
  0
LINE
  5
2EB
100
AcDbEntity
  8
LAY-2
  6
CONTINUOUS
 62
     6
100
AcDbLine
 10
635.053825
 20
2460.169573
 30
0.0
 11
632.553825
 21
2469.4997
 31
0.0
  0
LINE
  5
2EC
100
AcDbEntity
  8
LAY-2
  6
CONTINUOUS
 62
     6
100
AcDbLine
 10
630.053825
 20
2460.169573
 30
0.0
 11
632.553825
 21
2469.4997
 31
0.0
  0
LINE
  5
2ED
100
AcDbEntity
  8
LAY-2
  6
CONTINUOUS
 62
     6
100
AcDbLine
 10
630.053825
 20
2460.169573
 30
0.0
 11
630.053825
 21
2435.0
 31
0.0
  0
LINE
  5
2EE
100
AcDbEntity
  8
LAY-2
  6
CONTINUOUS
 62
     6
100
AcDbLine
 10
635.053825
 20
2435.0
 30
0.0
 11
635.053825
 21
2460.169573
 31
0.0
  0
LINE
  5
2EF
100
AcDbEntity
  8
LAY-2
  6
CONTINUOUS
 62
     6
100
AcDbLine
 10
1237.054425
 20
2460.169573
 30
0.0
 11
1234.554425
 21
2469.4997
 31
0.0
  0
LINE
  5
2F0
100
AcDbEntity
  8
LAY-2
  6
CONTINUOUS
 62
     6
100
AcDbLine
 10
1232.054425
 20
2460.169573
 30
0.0
 11
1234.554425
 21
2469.4997
 31
0.0
  0
LINE
  5
2F1
100
AcDbEntity
  8
LAY-2
  6
CONTINUOUS
 62
     6
100
AcDbLine
 10
1232.054425
 20
2460.169573
 30
0.0
 11
1232.054425
 21
2435.0
 31
0.0
  0
LINE
  5
2F2
100
AcDbEntity
  8
LAY-2
  6
CONTINUOUS
 62
     6
100
AcDbLine
 10
1237.054425
 20
2435.0
 30
0.0
 11
1237.054425
 21
2460.169573
 31
0.0
  0
LINE
  5
2F3
100
AcDbEntity
  8
LAY-2
  6
CONTINUOUS
 62
     6
100
AcDbLine
 10
1220.054525
 20
2460.169573
 30
0.0
 11
1217.554525
 21
2469.4997
 31
0.0
  0
LINE
  5
2F4
100
AcDbEntity
  8
LAY-2
  6
CONTINUOUS
 62
     6
100
AcDbLine
 10
1215.054525
 20
2460.169573
 30
0.0
 11
1217.554525
 21
2469.4997
 31
0.0
  0
LINE
  5
2F5
100
AcDbEntity
  8
LAY-2
  6
CONTINUOUS
 62
     6
100
AcDbLine
 10
1215.054525
 20
2460.169573
 30
0.0
 11
1215.054525
 21
2435.0
 31
0.0
  0
LINE
  5
2F6
100
AcDbEntity
  8
LAY-2
  6
CONTINUOUS
 62
     6
100
AcDbLine
 10
1220.054525
 20
2435.0
 30
0.0
 11
1220.054525
 21
2460.169573
 31
0.0
  0
LINE
  5
2F7
100
AcDbEntity
  8
LAY-2
  6
CONTINUOUS
 62
     6
100
AcDbLine
 10
620.054923
 20
2460.169573
 30
0.0
 11
617.554923
 21
2469.4997
 31
0.0
  0
LINE
  5
2F8
100
AcDbEntity
  8
LAY-2
  6
CONTINUOUS
 62
     6
100
AcDbLine
 10
615.054923
 20
2460.169573
 30
0.0
 11
617.554923
 21
2469.4997
 31
0.0
  0
LINE
  5
2F9
100
AcDbEntity
  8
LAY-2
  6
CONTINUOUS
 62
     6
100
AcDbLine
 10
615.054923
 20
2460.169573
 30
0.0
 11
615.054923
 21
2435.0
 31
0.0
  0
LINE
  5
2FA
100
AcDbEntity
  8
LAY-2
  6
CONTINUOUS
 62
     6
100
AcDbLine
 10
620.054923
 20
2435.0
 30
0.0
 11
620.054923
 21
2460.169573
 31
0.0
  0
ARC
  5
2FB
100
AcDbEntity
  8
LAY-2
  6
CONTINUOUS
 62
     2
100
AcDbCircle
 10
617.554922
 20
2379.999801
 30
0.0
 40
20.4999
100
AcDbArc
 50
180.0
 51
0.0
  0
LINE
  5
2FC
100
AcDbEntity
  8
LAY-2
  6
CONTINUOUS
 62
     2
100
AcDbLine
 10
665.054924
 20
2397.092299
 30
0.0
 11
665.054924
 21
2357.907698
 31
0.0
  0
LINE
  5
2FD
100
AcDbEntity
  8
LAY-2
  6
CONTINUOUS
 62
     2
100
AcDbLine
 10
663.491124
 20
2357.000098
 30
0.0
 11
645.054825
 21
2357.000098
 31
0.0
  0
LINE
  5
2FE
100
AcDbEntity
  8
LAY-2
  6
CONTINUOUS
 62
     2
100
AcDbLine
 10
645.054825
 20
2357.000098
 30
0.0
 11
645.054825
 21
2359.101298
 31
0.0
  0
LINE
  5
2FF
100
AcDbEntity
  8
LAY-2
  6
CONTINUOUS
 62
     2
100
AcDbLine
 10
645.054825
 20
2357.000098
 30
0.0
 11
645.054825
 21
2398.000099
 31
0.0
  0
ARC
  5
300
100
AcDbEntity
  8
LAY-2
  6
CONTINUOUS
 62
     2
100
AcDbCircle
 10
663.491124
 20
2358.799998
 30
0.0
 40
1.8
100
AcDbArc
 50
270.0
 51
352.270303
  0
ARC
  5
301
100
AcDbEntity
  8
LAY-2
  6
CONTINUOUS
 62
     2
100
AcDbCircle
 10
663.491124
 20
2396.199999
 30
0.0
 40
1.8
100
AcDbArc
 50
7.729732
 51
90.0
  0
ARC
  5
302
100
AcDbEntity
  8
LAY-2
  6
CONTINUOUS
 62
     2
100
AcDbCircle
 10
525.721524
 20
2377.5
 30
0.0
 40
140.83333
100
AcDbArc
 50
6.9331
 51
7.729732
  0
ARC
  5
303
100
AcDbEntity
  8
LAY-2
  6
CONTINUOUS
 62
     2
100
AcDbCircle
 10
525.721524
 20
2377.5
 30
0.0
 40
140.83333
100
AcDbArc
 50
352.270303
 51
353.06693
  0
LINE
  5
304
100
AcDbEntity
  8
LAY-2
  6
CONTINUOUS
 62
     2
100
AcDbLine
 10
638.054823
 20
2379.999801
 30
0.0
 11
638.054823
 21
2435.0
 31
0.0
  0
LINE
  5
305
100
AcDbEntity
  8
LAY-2
  6
CONTINUOUS
 62
     2
100
AcDbLine
 10
638.054823
 20
2435.0
 30
0.0
 11
597.055022
 21
2435.0
 31
0.0
  0
LINE
  5
306
100
AcDbEntity
  8
LAY-2
  6
CONTINUOUS
 62
     2
100
AcDbLine
 10
597.055022
 20
2379.999801
 30
0.0
 11
597.055022
 21
2435.0
 31
0.0
  0
ARC
  5
307
100
AcDbEntity
  8
LAY-2
  6
CONTINUOUS
 62
     2
100
AcDbCircle
 10
622.036054
 20
2381.98113
 30
0.0
 40
24.981032
100
AcDbArc
 50
225.32006
 51
270.0
  0
LINE
  5
308
100
AcDbEntity
  8
LAY-2
  6
CONTINUOUS
 62
     2
100
AcDbLine
 10
645.054825
 20
2357.000098
 30
0.0
 11
622.036054
 21
2357.000098
 31
0.0
  0
LINE
  5
309
100
AcDbEntity
  8
LAY-2
  6
CONTINUOUS
 62
     2
100
AcDbLine
 10
638.054823
 20
2398.000099
 30
0.0
 11
663.491124
 21
2398.000099
 31
0.0
  0
LINE
  5
30A
100
AcDbEntity
  8
LAY-2
  6
EXLTYPE7
 62
     1
100
AcDbLine
 10
1191.709246
 20
2377.5
 30
0.0
 11
636.609246
 21
2377.5
 31
0.0
  0
LINE
  5
30B
100
AcDbEntity
  8
LAY-2
  6
CONTINUOUS
 62
     2
100
AcDbLine
 10
1568.554321
 20
1161.540303
 30
0.0
 11
1603.05492
 21
1161.540303
 31
0.0
  0
LINE
  5
30C
100
AcDbEntity
  8
LAY-2
  6
CONTINUOUS
 62
     2
100
AcDbLine
 10
1600.98772
 20
1161.540303
 30
0.0
 11
1568.554321
 21
1161.540303
 31
0.0
  0
ARC
  5
30D
100
AcDbEntity
  8
LAY-2
  6
CONTINUOUS
 62
     2
100
AcDbCircle
 10
1588.554122
 20
1114.041201
 30
0.0
 40
20.4999
100
AcDbArc
 50
90.0
 51
270.0
  0
LINE
  5
30E
100
AcDbEntity
  8
LAY-2
  6
CONTINUOUS
 62
     2
100
AcDbLine
 10
1605.64662
 20
1161.541203
 30
0.0
 11
1566.462019
 21
1161.541203
 31
0.0
  0
LINE
  5
30F
100
AcDbEntity
  8
LAY-2
  6
CONTINUOUS
 62
     2
100
AcDbLine
 10
1565.554419
 20
1159.977403
 30
0.0
 11
1565.554419
 21
1141.541103
 31
0.0
  0
LINE
  5
310
100
AcDbEntity
  8
LAY-2
  6
CONTINUOUS
 62
     2
100
AcDbLine
 10
1565.554419
 20
1141.541103
 30
0.0
 11
1567.655619
 21
1141.541103
 31
0.0
  0
LINE
  5
311
100
AcDbEntity
  8
LAY-2
  6
CONTINUOUS
 62
     2
100
AcDbLine
 10
1565.554419
 20
1141.541103
 30
0.0
 11
1606.55442
 21
1141.541103
 31
0.0
  0
ARC
  5
312
100
AcDbEntity
  8
LAY-2
  6
CONTINUOUS
 62
     2
100
AcDbCircle
 10
1567.354319
 20
1159.977403
 30
0.0
 40
1.8
100
AcDbArc
 50
97.729697
 51
180.0
  0
ARC
  5
313
100
AcDbEntity
  8
LAY-2
  6
CONTINUOUS
 62
     2
100
AcDbCircle
 10
1604.75432
 20
1159.977403
 30
0.0
 40
1.8
100
AcDbArc
 50
0.0
 51
82.270268
  0
ARC
  5
314
100
AcDbEntity
  8
LAY-2
  6
CONTINUOUS
 62
     2
100
AcDbCircle
 10
1586.054321
 20
1022.207803
 30
0.0
 40
140.83333
100
AcDbArc
 50
82.270268
 51
83.0669
  0
ARC
  5
315
100
AcDbEntity
  8
LAY-2
  6
CONTINUOUS
 62
     2
100
AcDbCircle
 10
1586.054321
 20
1022.207803
 30
0.0
 40
140.83333
100
AcDbArc
 50
96.93307
 51
97.729697
  0
LINE
  5
316
100
AcDbEntity
  8
LAY-2
  6
CONTINUOUS
 62
     2
100
AcDbLine
 10
1588.554122
 20
1134.541101
 30
0.0
 11
1643.554321
 21
1134.541101
 31
0.0
  0
LINE
  5
317
100
AcDbEntity
  8
LAY-2
  6
CONTINUOUS
 62
     2
100
AcDbLine
 10
1643.554321
 20
1134.541101
 30
0.0
 11
1643.554321
 21
1093.5413
 31
0.0
  0
LINE
  5
318
100
AcDbEntity
  8
LAY-2
  6
CONTINUOUS
 62
     2
100
AcDbLine
 10
1588.554122
 20
1093.5413
 30
0.0
 11
1643.554321
 21
1093.5413
 31
0.0
  0
ARC
  5
319
100
AcDbEntity
  8
LAY-2
  6
CONTINUOUS
 62
     2
100
AcDbCircle
 10
1590.535451
 20
1118.522332
 30
0.0
 40
24.981032
100
AcDbArc
 50
180.0
 51
224.67994
  0
LINE
  5
31A
100
AcDbEntity
  8
LAY-2
  6
CONTINUOUS
 62
     2
100
AcDbLine
 10
1565.554419
 20
1141.541103
 30
0.0
 11
1565.554419
 21
1118.522332
 31
0.0
  0
LINE
  5
31B
100
AcDbEntity
  8
LAY-2
  6
CONTINUOUS
 62
     2
100
AcDbLine
 10
1606.55442
 20
1134.541101
 30
0.0
 11
1606.55442
 21
1159.977403
 31
0.0
  0
DIMENSION
  5
328
100
AcDbEntity
  8
LAY-3
  6
CONTINUOUS
 62
     3
100
AcDbDimension
  2
*D14
 10
1730.6
 20
1163.0179
 30
0.0
 11
1707.1
 21
1028.549143
 31
0.0
 70
   160
  1
68
  3
STANDARD
100
AcDbAlignedDimension
 13
1672.557531
 23
1093.549143
 33
0.0
 14
1672.431921
 24
1163.0179
 34
0.0
 50
90.0
100
AcDbRotatedDimension
1001
ACAD
1000
DSTYLE
1002
{
1070
     6
1000
_EX_NORM
1070
     7
1000
_EX_NORM
1070
    41
1040
30.0
1070
    42
1040
0.0
1070
    44
1040
0.0
1070
    73
1070
     0
1070
    74
1070
     0
1070
    75
1070
     0
1070
    76
1070
     0
1070
    77
1070
     1
1070
    78
1070
     8
1070
   140
1040
40.0
1070
   147
1040
3.5
1070
   173
1070
     1
1070
   176
1070
     3
1070
   177
1070
     3
1070
   178
1070
     2
1070
   271
1070
     2
1070
   279
1070
     2
1070
   280
1070
     1
1070
   287
1070
     5
1070
   340
1005
327
1002
}
  0
DIMENSION
  5
334
100
AcDbEntity
  8
LAY-3
  6
CONTINUOUS
 62
     3
100
AcDbDimension
  2
*D15
 10
1731.0
 20
1746.5415
 30
0.0
 11
1707.5
 21
1811.5415
 31
0.0
 70
   160
  1
62
  3
STANDARD
100
AcDbAlignedDimension
 13
1672.739721
 23
1683.0347
 33
0.0
 14
1672.754621
 24
1746.5415
 34
0.0
 50
90.0
100
AcDbRotatedDimension
1001
ACAD
1000
DSTYLE
1002
{
1070
     6
1000
_EX_NORM
1070
     7
1000
_EX_NORM
1070
    41
1040
30.0
1070
    42
1040
0.0
1070
    44
1040
0.0
1070
    73
1070
     0
1070
    74
1070
     0
1070
    75
1070
     0
1070
    76
1070
     0
1070
    77
1070
     1
1070
    78
1070
     8
1070
   140
1040
40.0
1070
   147
1040
3.5
1070
   173
1070
     1
1070
   176
1070
     3
1070
   177
1070
     3
1070
   178
1070
     2
1070
   271
1070
     2
1070
   279
1070
     2
1070
   280
1070
     2
1070
   287
1070
     5
1070
   340
1005
327
1002
}
  0
DIMENSION
  5
33E
100
AcDbEntity
  8
LAY-3
  6
CONTINUOUS
 62
     3
100
AcDbDimension
  2
*D16
 10
764.609743
 20
1131.041301
 30
0.0
 11
741.109743
 21
1211.041301
 31
0.0
 70
   160
  1
%%c34
  3
STANDARD
100
AcDbAlignedDimension
 13
1188.054821
 23
1097.0413
 33
0.0
 14
1188.054821
 24
1131.041301
 34
0.0
 50
90.0
100
AcDbRotatedDimension
1001
ACAD
1000
DSTYLE
1002
{
1070
     6
1000
_EX_NORM
1070
     7
1000
_EX_NORM
1070
    41
1040
30.0
1070
    42
1040
0.0
1070
    44
1040
0.0
1070
    73
1070
     0
1070
    74
1070
     0
1070
    75
1070
     1
1070
    76
1070
     1
1070
    77
1070
     1
1070
    78
1070
     8
1070
   140
1040
40.0
1070
   147
1040
3.5
1070
   173
1070
     1
1070
   176
1070
     3
1070
   177
1070
     3
1070
   178
1070
     2
1070
   271
1070
     2
1070
   279
1070
     2
1070
   280
1070
     2
1070
   287
1070
     5
1070
   340
1005
327
1002
}
  0
DIMENSION
  5
34A
100
AcDbEntity
  8
LAY-3
  6
CONTINUOUS
 62
     3
100
AcDbDimension
  2
*D17
 10
1287.609743
 20
1134.541301
 30
0.0
 11
1264.109743
 21
1199.541301
 31
0.0
 70
   160
  3
STANDARD
100
AcDbAlignedDimension
 13
1229.554922
 23
1093.541203
 33
0.0
 14
1227.409743
 24
1134.541301
 34
0.0
 50
90.0
100
AcDbRotatedDimension
1001
ACAD
1000
DSTYLE
1002
{
1070
     6
1000
_EX_NORM
1070
     7
1000
_EX_NORM
1070
    41
1040
30.0
1070
    42
1040
5.0
1070
    44
1040
10.0
1070
    73
1070
     0
1070
    74
1070
     0
1070
    75
1070
     0
1070
    76
1070
     0
1070
    77
1070
     1
1070
    78
1070
     8
1070
   140
1040
40.0
1070
   147
1040
3.5
1070
   173
1070
     1
1070
   176
1070
     3
1070
   177
1070
     3
1070
   178
1070
     2
1070
   271
1070
     2
1070
   279
1070
     2
1070
   280
1070
     2
1070
   287
1070
     5
1070
   340
1005
327
1002
}
  0
DIMENSION
  5
356
100
AcDbEntity
  8
LAY-3
  6
CONTINUOUS
 62
     3
100
AcDbDimension
  2
*D18
 10
471.609743
 20
1731.041601
 30
0.0
 11
448.109743
 21
1796.041601
 31
0.0
 70
   160
  3
STANDARD
100
AcDbAlignedDimension
 13
610.475121
 23
1714.041701
 33
0.0
 14
610.475121
 24
1731.041601
 34
0.0
 50
90.0
100
AcDbRotatedDimension
1001
ACAD
1000
DSTYLE
1002
{
1070
     6
1000
_EX_NORM
1070
     7
1000
_EX_NORM
1070
    41
1040
30.0
1070
    42
1040
5.0
1070
    44
1040
10.0
1070
    73
1070
     0
1070
    74
1070
     0
1070
    75
1070
     0
1070
    76
1070
     0
1070
    77
1070
     1
1070
    78
1070
     8
1070
   140
1040
40.0
1070
   147
1040
3.5
1070
   173
1070
     1
1070
   176
1070
     3
1070
   177
1070
     3
1070
   178
1070
     2
1070
   271
1070
     2
1070
   279
1070
     2
1070
   280
1070
     2
1070
   287
1070
     5
1070
   340
1005
327
1002
}
  0
DIMENSION
  5
362
100
AcDbEntity
  8
LAY-3
  6
CONTINUOUS
 62
     3
100
AcDbDimension
  2
*D19
 10
516.763594
 20
1114.041202
 30
0.0
 11
493.263594
 21
1194.041001
 31
0.0
 70
   160
  3
STANDARD
100
AcDbAlignedDimension
 13
611.062021
 23
1129.041001
 33
0.0
 14
632.555223
 24
1114.041202
 34
0.0
 50
90.0
100
AcDbRotatedDimension
1001
ACAD
1000
DSTYLE
1002
{
1070
     6
1000
_EX_NORM
1070
     7
1000
_EX_NORM
1070
    41
1040
30.0
1070
    42
1040
5.0
1070
    44
1040
10.0
1070
    73
1070
     0
1070
    74
1070
     0
1070
    75
1070
     0
1070
    76
1070
     0
1070
    77
1070
     1
1070
    78
1070
     8
1070
   140
1040
40.0
1070
   147
1040
3.5
1070
   173
1070
     1
1070
   176
1070
     3
1070
   177
1070
     3
1070
   178
1070
     2
1070
   271
1070
     2
1070
   279
1070
     2
1070
   280
1070
     1
1070
   287
1070
     5
1070
   340
1005
327
1002
}
  0
DIMENSION
  5
36E
100
AcDbEntity
  8
LAY-3
  6
CONTINUOUS
 62
     3
100
AcDbDimension
  2
*D20
 10
1217.555023
 20
950.0
 30
0.0
 11
1299.554622
 21
973.5
 31
0.0
 70
   160
  3
STANDARD
100
AcDbAlignedDimension
 13
1234.554622
 23
1106.961402
 33
0.0
 14
1217.555023
 24
1107.664202
 34
0.0
100
AcDbRotatedDimension
1001
ACAD
1000
DSTYLE
1002
{
1070
     6
1000
_EX_NORM
1070
     7
1000
_EX_NORM
1070
    41
1040
30.0
1070
    42
1040
5.0
1070
    44
1040
10.0
1070
    73
1070
     0
1070
    74
1070
     0
1070
    75
1070
     0
1070
    76
1070
     0
1070
    77
1070
     1
1070
    78
1070
     8
1070
   140
1040
40.0
1070
   147
1040
3.5
1070
   173
1070
     1
1070
   176
1070
     3
1070
   177
1070
     3
1070
   178
1070
     2
1070
   271
1070
     2
1070
   279
1070
     2
1070
   280
1070
     1
1070
   287
1070
     5
1070
   340
1005
327
1002
}
  0
DIMENSION
  5
37A
100
AcDbEntity
  8
LAY-3
  6
CONTINUOUS
 62
     3
100
AcDbDimension
  2
*D21
 10
617.555421
 20
1001.0
 30
0.0
 11
552.555421
 21
1024.5
 31
0.0
 70
   160
  3
STANDARD
100
AcDbAlignedDimension
 13
632.555223
 23
1108.574702
 33
0.0
 14
617.555421
 24
1084.2
 34
0.0
100
AcDbRotatedDimension
1001
ACAD
1000
DSTYLE
1002
{
1070
     6
1000
_EX_NORM
1070
     7
1000
_EX_NORM
1070
    41
1040
30.0
1070
    42
1040
5.0
1070
    44
1040
10.0
1070
    73
1070
     0
1070
    74
1070
     0
1070
    75
1070
     0
1070
    76
1070
     0
1070
    77
1070
     1
1070
    78
1070
     8
1070
   140
1040
40.0
1070
   147
1040
3.5
1070
   173
1070
     1
1070
   176
1070
     3
1070
   177
1070
     3
1070
   178
1070
     2
1070
   271
1070
     2
1070
   279
1070
     2
1070
   280
1070
     2
1070
   287
1070
     5
1070
   340
1005
327
1002
}
  0
DIMENSION
  5
385
100
AcDbEntity
  8
LAY-3
  6
CONTINUOUS
 62
     3
100
AcDbDimension
  2
*D22
 10
617.555421
 20
950.0
 30
0.0
 11
917.555222
 21
973.5
 31
0.0
 70
   160
  3
STANDARD
100
AcDbAlignedDimension
 13
1217.555023
 23
949.0
 33
0.0
 14
617.555421
 24
1048.0
 34
0.0
100
AcDbRotatedDimension
1001
ACAD
1000
DSTYLE
1002
{
1070
     6
1000
_EX_NORM
1070
     7
1000
_EX_NORM
1070
    41
1040
30.0
1070
    42
1040
5.0
1070
    44
1040
10.0
1070
    73
1070
     0
1070
    74
1070
     0
1070
    75
1070
     1
1070
    76
1070
     0
1070
    77
1070
     1
1070
    78
1070
     8
1070
   140
1040
40.0
1070
   147
1040
3.5
1070
   173
1070
     1
1070
   176
1070
     3
1070
   177
1070
     3
1070
   178
1070
     2
1070
   271
1070
     2
1070
   279
1070
     2
1070
   280
1070
     0
1070
   287
1070
     5
1070
   340
1005
327
1002
}
  0
DIMENSION
  5
390
100
AcDbEntity
  8
LAY-3
  6
CONTINUOUS
 62
     3
100
AcDbDimension
  2
*D23
 10
471.609743
 20
1114.041202
 30
0.0
 11
448.109743
 21
1414.041452
 31
0.0
 70
   160
  3
STANDARD
100
AcDbAlignedDimension
 13
597.055022
 23
1714.041701
 33
0.0
 14
516.763594
 24
1114.041202
 34
0.0
 50
90.0
100
AcDbRotatedDimension
1001
ACAD
1000
DSTYLE
1002
{
1070
     6
1000
_EX_NORM
1070
     7
1000
_EX_NORM
1070
    41
1040
30.0
1070
    42
1040
5.0
1070
    44
1040
10.0
1070
    73
1070
     0
1070
    74
1070
     0
1070
    75
1070
     0
1070
    76
1070
     1
1070
    77
1070
     1
1070
    78
1070
     8
1070
   140
1040
40.0
1070
   147
1040
3.5
1070
   173
1070
     1
1070
   176
1070
     3
1070
   177
1070
     3
1070
   178
1070
     2
1070
   271
1070
     2
1070
   279
1070
     2
1070
   280
1070
     0
1070
   287
1070
     5
1070
   340
1005
327
1002
}
  0
DIMENSION
  5
39B
100
AcDbEntity
  8
LAY-3
  6
CONTINUOUS
 62
     3
100
AcDbDimension
  2
*D24
 10
1643.554321
 20
1881.0
 30
0.0
 11
1483.054521
 21
1904.5
 31
0.0
 70
   160
  3
STANDARD
100
AcDbAlignedDimension
 13
1568.054521
 23
1703.241002
 33
0.0
 14
1643.554321
 24
1746.2415
 34
0.0
100
AcDbRotatedDimension
1001
ACAD
1000
DSTYLE
1002
{
1070
     6
1000
_EX_NORM
1070
     7
1000
_EX_NORM
1070
    41
1040
30.0
1070
    42
1040
5.0
1070
    44
1040
10.0
1070
    73
1070
     0
1070
    74
1070
     0
1070
    75
1070
     0
1070
    76
1070
     1
1070
    77
1070
     1
1070
    78
1070
     8
1070
   140
1040
40.0
1070
   147
1040
3.5
1070
   173
1070
     1
1070
   176
1070
     3
1070
   177
1070
     3
1070
   178
1070
     2
1070
   271
1070
     2
1070
   279
1070
     2
1070
   280
1070
     1
1070
   287
1070
     5
1070
   340
1005
327
1002
}
  0
DIMENSION
  5
3A6
100
AcDbEntity
  8
LAY-3
  6
CONTINUOUS
 62
     3
100
AcDbDimension
  2
*D25
 10
1643.554321
 20
1807.0
 30
0.0
 11
1501.054321
 21
1830.5
 31
0.0
 70
   160
  3
STANDARD
100
AcDbAlignedDimension
 13
1586.054321
 23
1700.0
 33
0.0
 14
1643.554321
 24
1888.0
 34
0.0
100
AcDbRotatedDimension
1001
ACAD
1000
DSTYLE
1002
{
1070
     6
1000
_EX_NORM
1070
     7
1000
_EX_NORM
1070
    41
1040
30.0
1070
    42
1040
5.0
1070
    44
1040
10.0
1070
    73
1070
     0
1070
    74
1070
     0
1070
    75
1070
     0
1070
    76
1070
     1
1070
    77
1070
     1
1070
    78
1070
     8
1070
   140
1040
40.0
1070
   147
1040
3.5
1070
   173
1070
     1
1070
   176
1070
     3
1070
   177
1070
     3
1070
   178
1070
     2
1070
   271
1070
     2
1070
   279
1070
     2
1070
   280
1070
     1
1070
   287
1070
     5
1070
   340
1005
327
1002
}
  0
LINE
  5
3A7
100
AcDbEntity
  8
LAY-3
  6
CONTINUOUS
 62
     2
100
AcDbLine
 10
1643.554321
 20
2042.0
 30
0.0
 11
1615.841508
 21
2058.0
 31
0.0
  0
LINE
  5
3A8
100
AcDbEntity
  8
LAY-3
  6
CONTINUOUS
 62
     2
100
AcDbLine
 10
1615.841508
 20
2058.0
 30
0.0
 11
1615.841508
 21
2026.0
 31
0.0
  0
LINE
  5
3A9
100
AcDbEntity
  8
LAY-3
  6
CONTINUOUS
 62
     2
100
AcDbLine
 10
1615.841508
 20
2026.0
 30
0.0
 11
1643.554321
 21
2042.0
 31
0.0
  0
TEXT
  5
3AA
100
AcDbEntity
  8
LAY-3
  6
CONTINUOUS
 62
     2
100
AcDbText
 10
1521.463372
 20
2022.339483
 30
0.0
 40
40.0
  1
ＷＬ
 41
0.945
  7
EXCADSTD
 72
     5
 11
1603.957372
 21
2022.339483
 31
0.0
100
AcDbText
  0
LINE
  5
3AB
100
AcDbEntity
  8
LAY-3
  6
CONTINUOUS
 62
     6
100
AcDbLine
 10
1289.218988
 20
2545.76497
 30
0.0
 11
1444.218988
 21
2545.76497
 31
0.0
  0
TEXT
  5
3AC
100
AcDbEntity
  8
LAY-3
  6
CONTINUOUS
 62
     2
100
AcDbText
 10
1287.918988
 20
2545.76497
 30
0.0
 40
40.0
  1
φ５×５０
 41
0.672
  7
EXCADSTD
 72
     5
 11
1447.918988
 21
2545.76497
 31
0.0
100
AcDbText
  0
LEADER
  5
3AD
100
AcDbEntity
  8
LAY-3
  6
CONTINUOUS
 62
     6
100
AcDbLeader
  3
STANDARD
 73
     3
 74
     1
 75
     0
 40
0.0
 76
     2
 10
1237.054425
 20
2452.871353
 30
0.0
 10
1289.218988
 20
2545.76497
 30
0.0
 77
     6
1001
ACAD
1000
DSTYLE
1002
{
1070
    41
1040
35.0
1070
     5
1000
_EX_NORM
1070
     6
1000
_EX_NORM
1070
     7
1000
_EX_NORM
1070
   341
1005
2B
1002
}
  0
ENDSEC
  0
SECTION
  2
OBJECTS
  0
DICTIONARY
  5
19
100
AcDbDictionary
  3
ACAD_GROUP
350
1A
  3
ACAD_MLINESTYLE
350
1B
  0
DICTIONARY
  5
1A
102
{ACAD_REACTORS
330
19
102
}
100
AcDbDictionary
  0
DICTIONARY
  5
1B
102
{ACAD_REACTORS
330
19
102
}
100
AcDbDictionary
  3
STANDARD
350
1C
  0
MLINESTYLE
  5
1C
102
{ACAD_REACTORS
330
1B
102
}
100
AcDbMlineStyle
  2
Standard
 70
     0
  3

 62
     0
 51
90.0
 52
90.0
 71
     2
 49
0.5
 62
   256
  6
ByLayer
 49
-0.5
 62
   256
  6
ByLayer
  0
ENDSEC
  0
EOF
