  0
SECTION
  2
HEADER
  9
$ACADVER
  1
AC1014
  9
$ACADMAINTVER
 70
     0
  9
$DWGCODEPAGE
  3
ANSI_932
  9
$INSBASE
 10
0.0
 20
0.0
 30
0.0
  9
$EXTMIN
 10
-2.0
 20
8.5
 30
0.0
  9
$EXTMAX
 10
200.0
 20
288.5
 30
0.0
  9
$LIMMIN
 10
0.0
 20
0.0
  9
$LIMMAX
 10
210.0
 20
297.0
  9
$ORTHOMODE
 70
     0
  9
$REGENMODE
 70
     1
  9
$FILLMODE
 70
     1
  9
$QTEXTMODE
 70
     0
  9
$MIRRTEXT
 70
     1
  9
$DRAGMODE
 70
     2
  9
$LTSCALE
 40
1.0
  9
$OSMODE
 70
     0
  9
$ATTMODE
 70
     1
  9
$TEXTSIZE
 40
0.2
  9
$TRACEWID
 40
0.05
  9
$TEXTSTYLE
  7
STANDARD
  9
$CLAYER
  8
便器
  9
$CELTYPE
  6
CONTINUOUS
  9
$CECOLOR
 62
   256
  9
$CELTSCALE
 40
1.0
  9
$DELOBJ
 70
     1
  9
$DISPSILH
 70
     0
  9
$DIMSCALE
 40
1.0
  9
$DIMASZ
 40
0.18
  9
$DIMEXO
 40
0.0625
  9
$DIMDLI
 40
0.38
  9
$DIMRND
 40
0.0
  9
$DIMDLE
 40
0.0
  9
$DIMEXE
 40
0.18
  9
$DIMTP
 40
0.0
  9
$DIMTM
 40
0.0
  9
$DIMTXT
 40
0.18
  9
$DIMCEN
 40
0.09
  9
$DIMTSZ
 40
0.0
  9
$DIMTOL
 70
     0
  9
$DIMLIM
 70
     0
  9
$DIMTIH
 70
     1
  9
$DIMTOH
 70
     1
  9
$DIMSE1
 70
     0
  9
$DIMSE2
 70
     0
  9
$DIMTAD
 70
     0
  9
$DIMZIN
 70
     0
  9
$DIMBLK
  1

  9
$DIMASO
 70
     1
  9
$DIMSHO
 70
     1
  9
$DIMPOST
  1

  9
$DIMAPOST
  1

  9
$DIMALT
 70
     0
  9
$DIMALTD
 70
     2
  9
$DIMALTF
 40
25.4
  9
$DIMLFAC
 40
1.0
  9
$DIMTOFL
 70
     0
  9
$DIMTVP
 40
0.0
  9
$DIMTIX
 70
     0
  9
$DIMSOXD
 70
     0
  9
$DIMSAH
 70
     0
  9
$DIMBLK1
  1

  9
$DIMBLK2
  1

  9
$DIMSTYLE
  2
STANDARD
  9
$DIMCLRD
 70
     0
  9
$DIMCLRE
 70
     0
  9
$DIMCLRT
 70
     0
  9
$DIMTFAC
 40
1.0
  9
$DIMGAP
 40
0.09
  9
$DIMJUST
 70
     0
  9
$DIMSD1
 70
     0
  9
$DIMSD2
 70
     0
  9
$DIMTOLJ
 70
     1
  9
$DIMTZIN
 70
     0
  9
$DIMALTZ
 70
     0
  9
$DIMALTTZ
 70
     0
  9
$DIMFIT
 70
     3
  9
$DIMUPT
 70
     0
  9
$DIMUNIT
 70
     2
  9
$DIMDEC
 70
     4
  9
$DIMTDEC
 70
     4
  9
$DIMALTU
 70
     2
  9
$DIMALTTD
 70
     2
  9
$DIMTXSTY
  7
STANDARD
  9
$DIMAUNIT
 70
     0
  9
$LUNITS
 70
     2
  9
$LUPREC
 70
     4
  9
$SKETCHINC
 40
0.1
  9
$FILLETRAD
 40
0.0
  9
$AUNITS
 70
     0
  9
$AUPREC
 70
     0
  9
$MENU
  1
acad
  9
$ELEVATION
 40
0.0
  9
$PELEVATION
 40
0.0
  9
$THICKNESS
 40
0.0
  9
$LIMCHECK
 70
     0
  9
$BLIPMODE
 70
     1
  9
$CHAMFERA
 40
0.0
  9
$CHAMFERB
 40
0.0
  9
$CHAMFERC
 40
0.0
  9
$CHAMFERD
 40
0.0
  9
$SKPOLY
 70
     0
  9
$TDCREATE
 40
2454990.340281123
  9
$TDUPDATE
 40
2454990.340281123
  9
$TDINDWG
 40
0.0000000000
  9
$TDUSRTIMER
 40
0.0000000000
  9
$USRTIMER
 70
     1
  9
$ANGBASE
 50
0.0
  9
$ANGDIR
 70
     0
  9
$PDMODE
 70
     0
  9
$PDSIZE
 40
0.0
  9
$PLINEWID
 40
0.0
  9
$COORDS
 70
     1
  9
$SPLFRAME
 70
     0
  9
$SPLINETYPE
 70
     6
  9
$SPLINESEGS
 70
     8
  9
$ATTDIA
 70
     0
  9
$ATTREQ
 70
     1
  9
$HANDLING
 70
     1
  9
$HANDSEED
  5
86E
  9
$SURFTAB1
 70
     6
  9
$SURFTAB2
 70
     6
  9
$SURFTYPE
 70
     6
  9
$SURFU
 70
     6
  9
$SURFV
 70
     6
  9
$UCSNAME
  2

  9
$UCSORG
 10
0.0
 20
0.0
 30
0.0
  9
$UCSXDIR
 10
1.0
 20
0.0
 30
0.0
  9
$UCSYDIR
 10
0.0
 20
1.0
 30
0.0
  9
$PUCSNAME
  2

  9
$PUCSORG
 10
0.0
 20
0.0
 30
0.0
  9
$PUCSXDIR
 10
1.0
 20
0.0
 30
0.0
  9
$PUCSYDIR
 10
0.0
 20
1.0
 30
0.0
  9
$USERI1
 70
     0
  9
$USERI2
 70
     0
  9
$USERI3
 70
     0
  9
$USERI4
 70
     0
  9
$USERI5
 70
     0
  9
$USERR1
 40
0.0
  9
$USERR2
 40
0.0
  9
$USERR3
 40
0.0
  9
$USERR4
 40
0.0
  9
$USERR5
 40
0.0
  9
$WORLDVIEW
 70
     1
  9
$SHADEDGE
 70
     3
  9
$SHADEDIF
 70
    70
  9
$TILEMODE
 70
     1
  9
$MAXACTVP
 70
    16
  9
$PINSBASE
 10
0.0
 20
0.0
 30
0.0
  9
$PLIMCHECK
 70
     0
  9
$PEXTMIN
 10
1.000000E+20
 20
1.000000E+20
 30
1.000000E+20
  9
$PEXTMAX
 10
-1.000000E+20
 20
-1.000000E+20
 30
-1.000000E+20
  9
$PLIMMIN
 10
0.0
 20
0.0
  9
$PLIMMAX
 10
12.0
 20
9.0
  9
$UNITMODE
 70
     0
  9
$VISRETAIN
 70
     0
  9
$PLINEGEN
 70
     1
  9
$PSLTSCALE
 70
     0
  9
$TREEDEPTH
 70
  3020
  9
$PICKSTYLE
 70
     1
  9
$CMLSTYLE
  2
Standard
  9
$CMLJUST
 70
     0
  9
$CMLSCALE
 40
1.0
  9
$PROXYGRAPHICS
 70
     0
  9
$MEASUREMENT
 70
     0
  0
ENDSEC
  0
SECTION
  2
CLASSES
  0
CLASS
  1
LWPOLYLINE
  2
AcDbPolyline
  3
"AutoCAD"
 90
        0
280
     0
281
     1
  0
CLASS
  1
IMAGE
  2
AcDbRasterImage
  3
ISM
 90
      127
280
     0
281
     1
  0
CLASS
  1
OLE2FRAME
  2
AcDbOle2Frame
  3
""
 90
        0
280
     0
281
     1
  0
CLASS
  1
HATCH
  2
AcDbHatch
  3
"ACAD_SEDONA"
 90
        0
280
     0
281
     1
  0
CLASS
  1
DICTIONARYVAR
  2
AcDbDictionaryVar
  3
"AutoCAD"
 90
        0
280
     0
281
     0
  0
CLASS
  1
RASTERVARIABLES
  2
AcDbRasterVariables
  3
ISM
 90
        0
280
     0
281
     0
  0
CLASS
  1
IMAGEDEF
  2
AcDbRasterImageDef
  3
ISM
 90
        0
280
     0
281
     0
  0
CLASS
  1
IMAGEDEF_REACTOR
  2
AcDbRasterImageDefReactor
  3
ISM
 90
        1
280
     0
281
     0
  0
CLASS
  1
IDBUFFER
  2
AcDbIdBuffer
  3
"Acad"
 90
        0
280
     0
281
     0
  0
CLASS
  1
SPATIAL_FILTER
  2
AcDbSpatialFilter
  3
"Acad"
 90
        0
280
     0
281
     0
  0
CLASS
  1
XRECORD
  2
AcDbXrecord
  3
"<Built In>"
 90
        0
280
     0
281
     0
  0
CLASS
  1
SORTENTSTABLE
  2
AcDbSortentsTable
  3
"AutoCAD"
 90
        0
280
     0
281
     0
  0
CLASS
  1
LAYER_INDEX
  2
AcDbLayerIndex
  3
"Acad"
 90
        0
280
     0
281
     0
  0
CLASS
  1
SPATIAL_INDEX
  2
AcDbSpatialIndex
  3
"Acad"
 90
        0
280
     0
281
     0
  0
CLASS
  1
OBJECT_PTR
  2
CAseDLPNTableRecord
  3
"ASE-LPNTableRecord"
 90
        1
280
     0
281
     0
  0
CLASS
  1
LAYOUT
  2
AcDbLayout
  3
"AutoCAD 2000"
 90
        1
280
     0
281
     0
  0
CLASS
  1
PLOTSETTINGS
  2
AcDbPlotSettings
  3
"AutoCAD 2000"
 90
        1
280
     0
281
     0
  0
CLASS
  1
ACDBDICTIONARYWDFLT
  2
AcDbDictionaryWithDefault
  3
"AutoCAD 2000"
 90
        1
280
     0
281
     0
  0
CLASS
  1
ACDBPLACEHOLDER
  2
AcDbPlaceHolder
  3
"AutoCAD 2000"
 90
        1
280
     0
281
     0
  0
CLASS
  1
VBA_PROJECT
  2
AcDbVbaProject
  3
"acadvba"
 90
        1
280
     0
281
     0
  0
CLASS
  1
WIPEOUT
  2
AcDbWipeout
  3
WipeOut|AutoCAD Express Tool|expresstools@autodesk.com
 90
      127
280
     0
281
     1
  0
CLASS
  1
WIPEOUTVARIABLES
  2
AcDbWipeoutVariables
  3
WipeOut|AutoCAD Express Tool|expresstools@autodesk.com
 90
        0
280
     0
281
     0
  0
CLASS
  1
RTEXT
  2
RText
  3
RText|AutoCAD Express Tool|expresstools@autodesk.com
 90
        0
280
     0
281
     1
  0
CLASS
  1
ARCALIGNEDTEXT
  2
AcDbArcAlignedText
  3
ATEXT|AutoCAD Express Tool|expresstools@autodesk.com
 90
        0
280
     0
281
     1
  0
ENDSEC
  0
SECTION
  2
TABLES
  0
TABLE
  2
VPORT
  5
7
100
AcDbSymbolTable
 70
     1
  0
VPORT
  5
15
100
AcDbSymbolTableRecord
100
AcDbViewportTableRecord
  2
*ACTIVE
 70
     0
 10
0.0
 20
0.0
 11
1.0
 21
1.0
 12
990.0
 22
1485.0
 13
0.0
 23
0.0
 14
1.0
 24
1.0
 15
0.0
 25
0.0
 16
0.0
 26
0.0
 36
1.0
 17
0.0
 27
0.0
 37
0.0
 40
2800.0
 41
1.722533
 42
50.0
 43
0.0
 44
0.0
 50
0.0
 51
0.0
 71
     0
 72
   100
 73
     1
 74
     1
 75
     0
 76
     0
 77
     0
 78
     0
  0
ENDTAB
  0
TABLE
  2
LTYPE
  5
4
100
AcDbSymbolTable
 70
     9
  0
LTYPE
  5
11
100
AcDbSymbolTableRecord
100
AcDbLinetypeTableRecord
  2
BYBLOCK
 70
    64
  3

 72
    65
 73
     0
 40
0.0
  0
LTYPE
  5
12
100
AcDbSymbolTableRecord
100
AcDbLinetypeTableRecord
  2
BYLAYER
 70
    64
  3

 72
    65
 73
     0
 40
0.0
  0
LTYPE
  5
13
100
AcDbSymbolTableRecord
100
AcDbLinetypeTableRecord
  2
CONTINUOUS
 70
    64
  3
実線
 72
    65
 73
     0
 40
0.0
  0
LTYPE
  5
1D
100
AcDbSymbolTableRecord
100
AcDbLinetypeTableRecord
  2
EXLTYPE1
 70
    64
  3
破線
 72
    65
 73
     2
 40
3.0
 49
2.0
 74
     0
 49
-1.0
 74
     0
  0
LTYPE
  5
1E
100
AcDbSymbolTableRecord
100
AcDbLinetypeTableRecord
  2
EXLTYPE2
 70
    64
  3
点線
 72
    65
 73
     2
 40
2.0
 49
1.0
 74
     0
 49
-1.0
 74
     0
  0
LTYPE
  5
1F
100
AcDbSymbolTableRecord
100
AcDbLinetypeTableRecord
  2
EXLTYPE3
 70
    64
  3
一点鎖線
 72
    65
 73
     4
 40
10.0
 49
7.0
 74
     0
 49
-1.0
 74
     0
 49
1.0
 74
     0
 49
-1.0
 74
     0
  0
LTYPE
  5
20
100
AcDbSymbolTableRecord
100
AcDbLinetypeTableRecord
  2
EXLTYPE4
 70
    64
  3
二点鎖線
 72
    65
 73
     6
 40
12.0
 49
7.0
 74
     0
 49
-1.0
 74
     0
 49
1.0
 74
     0
 49
-1.0
 74
     0
 49
1.0
 74
     0
 49
-1.0
 74
     0
  0
LTYPE
  5
21
100
AcDbSymbolTableRecord
100
AcDbLinetypeTableRecord
  2
EXLTYPE5
 70
    64
  3
三点鎖線
 72
    65
 73
     8
 40
37.0
 49
30.0
 74
     0
 49
-1.0
 74
     0
 49
1.0
 74
     0
 49
-1.0
 74
     0
 49
1.0
 74
     0
 49
-1.0
 74
     0
 49
1.0
 74
     0
 49
-1.0
 74
     0
  0
LTYPE
  5
22
100
AcDbSymbolTableRecord
100
AcDbLinetypeTableRecord
  2
EXLTYPE6
 70
    64
  3
四点鎖線
 72
    65
 73
    10
 40
39.0
 49
30.0
 74
     0
 49
-1.0
 74
     0
 49
1.0
 74
     0
 49
-1.0
 74
     0
 49
1.0
 74
     0
 49
-1.0
 74
     0
 49
1.0
 74
     0
 49
-1.0
 74
     0
 49
1.0
 74
     0
 49
-1.0
 74
     0
  0
ENDTAB
  0
TABLE
  2
LAYER
  5
2
100
AcDbSymbolTable
 70
     9
  0
LAYER
  5
14
100
AcDbSymbolTableRecord
100
AcDbLayerTableRecord
  2
0
 70
     0
 62
     7
  6
CONTINUOUS
  0
LAYER
  5
25
100
AcDbSymbolTableRecord
100
AcDbLayerTableRecord
  2
枠
 70
    64
 62
     7
  6
CONTINUOUS
  0
LAYER
  5
26
100
AcDbSymbolTableRecord
100
AcDbLayerTableRecord
  2
便器
 70
    64
 62
     7
  6
CONTINUOUS
  0
LAYER
  5
27
100
AcDbSymbolTableRecord
100
AcDbLayerTableRecord
  2
タンク
 70
    64
 62
     7
  6
CONTINUOUS
  0
LAYER
  5
28
100
AcDbSymbolTableRecord
100
AcDbLayerTableRecord
  2
止水栓
 70
    64
 62
     7
  6
CONTINUOUS
  0
LAYER
  5
29
100
AcDbSymbolTableRecord
100
AcDbLayerTableRecord
  2
便座
 70
    64
 62
     7
  6
CONTINUOUS
  0
LAYER
  5
2A
100
AcDbSymbolTableRecord
100
AcDbLayerTableRecord
  2
紙巻器
 70
    64
 62
     7
  6
CONTINUOUS
  0
LAYER
  5
2B
100
AcDbSymbolTableRecord
100
AcDbLayerTableRecord
  2
寸法
 70
    64
 62
     7
  6
CONTINUOUS
  0
LAYER
  5
2C
100
AcDbSymbolTableRecord
100
AcDbLayerTableRecord
  2
器具明細表
 70
    64
 62
     7
  6
CONTINUOUS
  0
ENDTAB
  0
TABLE
  2
STYLE
  5
3
100
AcDbSymbolTable
 70
     5
  0
STYLE
  5
17
100
AcDbSymbolTableRecord
100
AcDbTextStyleTableRecord
  2
STANDARD
 70
     0
 40
0.0
 41
1.0
 50
0.0
 71
     0
 42
0.0
  3
monotxt
  4
extfont
  0
STYLE
  5
23
100
AcDbSymbolTableRecord
100
AcDbTextStyleTableRecord
  2
EXCADSTD
 70
    64
 40
0.0
 41
1.0
 50
0.0
 71
     0
 42
0.2
  3
monotxt
  4
extfont
  0
STYLE
  5
24
100
AcDbSymbolTableRecord
100
AcDbTextStyleTableRecord
  2
EXCADVERT
 70
    68
 40
0.0
 41
1.0
 50
0.0
 71
     0
 42
0.286885
  3
monotxt
  4
extfont
  0
STYLE
  5
BE
100
AcDbSymbolTableRecord
100
AcDbTextStyleTableRecord
  2
EXCADTTF1
 70
    64
 40
0.0
 41
1.0
 50
0.0
 71
     0
 42
0.2
  3
MS Gothic.ttf
  4

1001
ACAD
1000
MS Gothic
1071
    32817
  0
STYLE
  5
103
100
AcDbSymbolTableRecord
100
AcDbTextStyleTableRecord
  2
EXCADDIM1
 70
    64
 40
0.0
 41
0.95
 50
0.0
 71
     0
 42
0.2
  3
monotxt
  4
extfont
  0
ENDTAB
  0
TABLE
  2
VIEW
  5
5
100
AcDbSymbolTable
 70
     0
  0
ENDTAB
  0
TABLE
  2
UCS
  5
6
100
AcDbSymbolTable
 70
     0
  0
ENDTAB
  0
TABLE
  2
APPID
  5
8
100
AcDbSymbolTable
 70
     1
  0
APPID
  5
16
100
AcDbSymbolTableRecord
100
AcDbRegAppTableRecord
  2
ACAD
 70
     0
  0
ENDTAB
  0
TABLE
  2
DIMSTYLE
  5
9
100
AcDbSymbolTable
 70
     1
  0
DIMSTYLE
105
18
100
AcDbSymbolTableRecord
100
AcDbDimStyleTableRecord
  2
STANDARD
 70
     0
  3

  4

  5

  6

  7

 40
1.0
 41
0.18
 42
0.0625
 43
0.38
 44
0.18
 45
0.0
 46
0.0
 47
0.0
 48
0.0
 71
     0
 72
     0
 73
     1
 74
     1
 75
     0
 76
     0
 77
     0
 78
     0
140
0.18
141
0.09
142
0.0
143
25.4
144
1.0
145
0.0
146
1.0
147
0.09
170
     0
171
     2
172
     1
173
     0
174
     0
175
     0
176
     0
177
     0
178
     0
270
     2
271
     4
272
     4
273
     2
274
     2
275
     0
280
     0
281
     0
282
     0
283
     1
284
     0
285
     0
286
     0
287
     0
288
     0
340
17
  0
ENDTAB
  0
TABLE
  2
BLOCK_RECORD
  5
1
100
AcDbSymbolTable
 70
    15
  0
BLOCK_RECORD
  5
A
100
AcDbSymbolTableRecord
100
AcDbBlockTableRecord
  2
*MODEL_SPACE
  0
BLOCK_RECORD
  5
B
100
AcDbSymbolTableRecord
100
AcDbBlockTableRecord
  2
*PAPER_SPACE
  0
BLOCK_RECORD
  5
2D
100
AcDbSymbolTableRecord
100
AcDbBlockTableRecord
  2
_EX_NORM
  0
BLOCK_RECORD
  5
2E
100
AcDbSymbolTableRecord
100
AcDbBlockTableRecord
  2
_EX_BNORM
  0
BLOCK_RECORD
  5
2F
100
AcDbSymbolTableRecord
100
AcDbBlockTableRecord
  2
_EX_BCIR
  0
BLOCK_RECORD
  5
30
100
AcDbSymbolTableRecord
100
AcDbBlockTableRecord
  2
_EX_RCIVIL
  0
BLOCK_RECORD
  5
31
100
AcDbSymbolTableRecord
100
AcDbBlockTableRecord
  2
_EX_SLANT
  0
BLOCK_RECORD
  5
32
100
AcDbSymbolTableRecord
100
AcDbBlockTableRecord
  2
_EX_NONE
  0
BLOCK_RECORD
  5
33
100
AcDbSymbolTableRecord
100
AcDbBlockTableRecord
  2
_EX_CIVIL
  0
BLOCK_RECORD
  5
34
100
AcDbSymbolTableRecord
100
AcDbBlockTableRecord
  2
_EX_WCIR
  0
BLOCK_RECORD
  5
35
100
AcDbSymbolTableRecord
100
AcDbBlockTableRecord
  2
_EX_WCIR2
  0
BLOCK_RECORD
  5
36
100
AcDbSymbolTableRecord
100
AcDbBlockTableRecord
  2
_EX_WNORM
  0
BLOCK_RECORD
  5
37
100
AcDbSymbolTableRecord
100
AcDbBlockTableRecord
  2
_EX_NNORM
  0
BLOCK_RECORD
  5
38
100
AcDbSymbolTableRecord
100
AcDbBlockTableRecord
  2
_EX_BBOX
  0
BLOCK_RECORD
  5
39
100
AcDbSymbolTableRecord
100
AcDbBlockTableRecord
  2
_EX_WBOX
  0
BLOCK_RECORD
  5
3A
100
AcDbSymbolTableRecord
100
AcDbBlockTableRecord
  2
_EX_INTEGRAL
  0
BLOCK_RECORD
  5
F8
100
AcDbSymbolTableRecord
100
AcDbBlockTableRecord
  2
*D14
  0
ENDTAB
  0
ENDSEC
  0
SECTION
  2
BLOCKS
  0
BLOCK
  5
D
100
AcDbEntity
  8
0
100
AcDbBlockBegin
  2
*MODEL_SPACE
 70
     0
 10
0.0
 20
0.0
 30
0.0
  3
*MODEL_SPACE
  1

  0
ENDBLK
  5
E
100
AcDbEntity
  8
0
100
AcDbBlockEnd
  0
BLOCK
  5
F
100
AcDbEntity
 67
     1
  8
0
100
AcDbBlockBegin
  2
*PAPER_SPACE
 70
     0
 10
0.0
 20
0.0
 30
0.0
  3
*PAPER_SPACE
  1

  0
ENDBLK
  5
10
100
AcDbEntity
 67
     1
  8
0
100
AcDbBlockEnd
  0
BLOCK
  5
3B
100
AcDbEntity
  8
0
100
AcDbBlockBegin
  2
_EX_NORM
 70
     0
 10
0.0
 20
0.0
 30
0.0
  3
_EX_NORM
  1

  0
LINE
  5
3C
100
AcDbEntity
  8
0
  6
CONTINUOUS
 62
     0
100
AcDbLine
 10
0.0
 20
0.0
 30
0.0
 11
-1.0
 21
0.0
 31
0.0
  0
LINE
  5
3D
100
AcDbEntity
  8
0
  6
CONTINUOUS
 62
     0
100
AcDbLine
 10
0.0
 20
0.0
 30
0.0
 11
-1.0
 21
0.166667
 31
0.0
  0
LINE
  5
3E
100
AcDbEntity
  8
0
  6
CONTINUOUS
 62
     0
100
AcDbLine
 10
0.0
 20
0.0
 30
0.0
 11
-1.0
 21
-0.166667
 31
0.0
  0
ENDBLK
  5
3F
100
AcDbEntity
  8
0
100
AcDbBlockEnd
  0
BLOCK
  5
40
100
AcDbEntity
  8
0
100
AcDbBlockBegin
  2
_EX_BNORM
 70
     0
 10
0.0
 20
0.0
 30
0.0
  3
_EX_BNORM
  1

  0
LINE
  5
41
100
AcDbEntity
  8
0
  6
CONTINUOUS
 62
     0
100
AcDbLine
 10
0.0
 20
0.0
 30
0.0
 11
-1.0
 21
0.0
 31
0.0
  0
LINE
  5
42
100
AcDbEntity
  8
0
  6
CONTINUOUS
 62
     0
100
AcDbLine
 10
0.0
 20
0.0
 30
0.0
 11
-1.0
 21
0.166667
 31
0.0
  0
LINE
  5
43
100
AcDbEntity
  8
0
  6
CONTINUOUS
 62
     0
100
AcDbLine
 10
0.0
 20
0.0
 30
0.0
 11
-1.0
 21
-0.166667
 31
0.0
  0
LINE
  5
44
100
AcDbEntity
  8
0
  6
CONTINUOUS
 62
     0
100
AcDbLine
 10
0.0
 20
0.0
 30
0.0
 11
-1.0
 21
0.083333
 31
0.0
  0
LINE
  5
45
100
AcDbEntity
  8
0
  6
CONTINUOUS
 62
     0
100
AcDbLine
 10
0.0
 20
0.0
 30
0.0
 11
-1.0
 21
-0.083333
 31
0.0
  0
LINE
  5
46
100
AcDbEntity
  8
0
  6
CONTINUOUS
 62
     0
100
AcDbLine
 10
-1.0
 20
0.166667
 30
0.0
 11
-1.0
 21
-0.166667
 31
0.0
  0
ENDBLK
  5
47
100
AcDbEntity
  8
0
100
AcDbBlockEnd
  0
BLOCK
  5
48
100
AcDbEntity
  8
0
100
AcDbBlockBegin
  2
_EX_BCIR
 70
     0
 10
0.0
 20
0.0
 30
0.0
  3
_EX_BCIR
  1

  0
LINE
  5
49
100
AcDbEntity
  8
0
  6
CONTINUOUS
 62
     0
100
AcDbLine
 10
0.0
 20
0.0
 30
0.0
 11
-1.0
 21
0.0
 31
0.0
  0
CIRCLE
  5
4A
100
AcDbEntity
  8
0
  6
CONTINUOUS
 62
     0
100
AcDbCircle
 10
0.0
 20
0.0
 30
0.0
 40
0.5
  0
CIRCLE
  5
4B
100
AcDbEntity
  8
0
  6
CONTINUOUS
 62
     0
100
AcDbCircle
 10
0.0
 20
0.0
 30
0.0
 40
0.25
  0
ENDBLK
  5
4C
100
AcDbEntity
  8
0
100
AcDbBlockEnd
  0
BLOCK
  5
4D
100
AcDbEntity
  8
0
100
AcDbBlockBegin
  2
_EX_RCIVIL
 70
     0
 10
0.0
 20
0.0
 30
0.0
  3
_EX_RCIVIL
  1

  0
LINE
  5
4E
100
AcDbEntity
  8
0
  6
CONTINUOUS
 62
     0
100
AcDbLine
 10
0.0
 20
0.0
 30
0.0
 11
-1.0
 21
0.0
 31
0.0
  0
LINE
  5
4F
100
AcDbEntity
  8
0
  6
CONTINUOUS
 62
     0
100
AcDbLine
 10
-1.0
 20
-0.25
 30
0.0
 11
0.0
 21
-0.25
 31
0.0
  0
LINE
  5
50
100
AcDbEntity
  8
0
  6
CONTINUOUS
 62
     0
100
AcDbLine
 10
-1.0
 20
-0.125
 30
0.0
 11
0.0
 21
-0.125
 31
0.0
  0
ENDBLK
  5
51
100
AcDbEntity
  8
0
100
AcDbBlockEnd
  0
BLOCK
  5
52
100
AcDbEntity
  8
0
100
AcDbBlockBegin
  2
_EX_SLANT
 70
     0
 10
0.0
 20
0.0
 30
0.0
  3
_EX_SLANT
  1

  0
LINE
  5
53
100
AcDbEntity
  8
0
  6
CONTINUOUS
 62
     0
100
AcDbLine
 10
0.0
 20
0.0
 30
0.0
 11
-1.0
 21
0.0
 31
0.0
  0
LINE
  5
54
100
AcDbEntity
  8
0
  6
CONTINUOUS
 62
     0
100
AcDbLine
 10
0.707107
 20
0.707107
 30
0.0
 11
-0.707107
 21
-0.707107
 31
0.0
  0
ENDBLK
  5
55
100
AcDbEntity
  8
0
100
AcDbBlockEnd
  0
BLOCK
  5
56
100
AcDbEntity
  8
0
100
AcDbBlockBegin
  2
_EX_NONE
 70
     0
 10
0.0
 20
0.0
 30
0.0
  3
_EX_NONE
  1

  0
LINE
  5
57
100
AcDbEntity
  8
0
  6
CONTINUOUS
 62
     0
100
AcDbLine
 10
0.0
 20
0.0
 30
0.0
 11
-1.0
 21
0.0
 31
0.0
  0
ENDBLK
  5
58
100
AcDbEntity
  8
0
100
AcDbBlockEnd
  0
BLOCK
  5
59
100
AcDbEntity
  8
0
100
AcDbBlockBegin
  2
_EX_CIVIL
 70
     0
 10
0.0
 20
0.0
 30
0.0
  3
_EX_CIVIL
  1

  0
LINE
  5
5A
100
AcDbEntity
  8
0
  6
CONTINUOUS
 62
     0
100
AcDbLine
 10
0.0
 20
0.0
 30
0.0
 11
-1.0
 21
0.0
 31
0.0
  0
LINE
  5
5B
100
AcDbEntity
  8
0
  6
CONTINUOUS
 62
     0
100
AcDbLine
 10
-1.0
 20
0.25
 30
0.0
 11
0.0
 21
0.25
 31
0.0
  0
LINE
  5
5C
100
AcDbEntity
  8
0
  6
CONTINUOUS
 62
     0
100
AcDbLine
 10
-1.0
 20
0.125
 30
0.0
 11
0.0
 21
0.125
 31
0.0
  0
ENDBLK
  5
5D
100
AcDbEntity
  8
0
100
AcDbBlockEnd
  0
BLOCK
  5
5E
100
AcDbEntity
  8
0
100
AcDbBlockBegin
  2
_EX_WCIR
 70
     0
 10
0.0
 20
0.0
 30
0.0
  3
_EX_WCIR
  1

  0
LINE
  5
5F
100
AcDbEntity
  8
0
  6
CONTINUOUS
 62
     0
100
AcDbLine
 10
0.0
 20
0.0
 30
0.0
 11
-1.0
 21
0.0
 31
0.0
  0
CIRCLE
  5
60
100
AcDbEntity
  8
0
  6
CONTINUOUS
 62
     0
100
AcDbCircle
 10
0.0
 20
0.0
 30
0.0
 40
0.5
  0
ENDBLK
  5
61
100
AcDbEntity
  8
0
100
AcDbBlockEnd
  0
BLOCK
  5
62
100
AcDbEntity
  8
0
100
AcDbBlockBegin
  2
_EX_WCIR2
 70
     0
 10
0.0
 20
0.0
 30
0.0
  3
_EX_WCIR2
  1

  0
LINE
  5
63
100
AcDbEntity
  8
0
  6
CONTINUOUS
 62
     0
100
AcDbLine
 10
-0.5
 20
0.0
 30
0.0
 11
-1.0
 21
0.0
 31
0.0
  0
CIRCLE
  5
64
100
AcDbEntity
  8
0
  6
CONTINUOUS
 62
     0
100
AcDbCircle
 10
0.0
 20
0.0
 30
0.0
 40
0.5
  0
ENDBLK
  5
65
100
AcDbEntity
  8
0
100
AcDbBlockEnd
  0
BLOCK
  5
66
100
AcDbEntity
  8
0
100
AcDbBlockBegin
  2
_EX_WNORM
 70
     0
 10
0.0
 20
0.0
 30
0.0
  3
_EX_WNORM
  1

  0
LINE
  5
67
100
AcDbEntity
  8
0
  6
CONTINUOUS
 62
     0
100
AcDbLine
 10
-1.0
 20
0.0
 30
0.0
 11
-1.0
 21
0.0
 31
0.0
  0
LINE
  5
68
100
AcDbEntity
  8
0
  6
CONTINUOUS
 62
     0
100
AcDbLine
 10
0.0
 20
0.0
 30
0.0
 11
-1.0
 21
0.166667
 31
0.0
  0
LINE
  5
69
100
AcDbEntity
  8
0
  6
CONTINUOUS
 62
     0
100
AcDbLine
 10
0.0
 20
0.0
 30
0.0
 11
-1.0
 21
-0.166667
 31
0.0
  0
LINE
  5
6A
100
AcDbEntity
  8
0
  6
CONTINUOUS
 62
     0
100
AcDbLine
 10
-1.0
 20
0.166667
 30
0.0
 11
-1.0
 21
-0.166667
 31
0.0
  0
ENDBLK
  5
6B
100
AcDbEntity
  8
0
100
AcDbBlockEnd
  0
BLOCK
  5
6C
100
AcDbEntity
  8
0
100
AcDbBlockBegin
  2
_EX_NNORM
 70
     0
 10
0.0
 20
0.0
 30
0.0
  3
_EX_NNORM
  1

  0
LINE
  5
6D
100
AcDbEntity
  8
0
  6
CONTINUOUS
 62
     0
100
AcDbLine
 10
0.0
 20
0.0
 30
0.0
 11
-1.0
 21
0.0
 31
0.0
  0
LINE
  5
6E
100
AcDbEntity
  8
0
  6
CONTINUOUS
 62
     0
100
AcDbLine
 10
0.0
 20
0.0
 30
0.0
 11
-1.0
 21
0.166667
 31
0.0
  0
LINE
  5
6F
100
AcDbEntity
  8
0
  6
CONTINUOUS
 62
     0
100
AcDbLine
 10
0.0
 20
0.0
 30
0.0
 11
-1.0
 21
-0.166667
 31
0.0
  0
LINE
  5
70
100
AcDbEntity
  8
0
  6
CONTINUOUS
 62
     0
100
AcDbLine
 10
-1.0
 20
0.166667
 30
0.0
 11
-1.0
 21
-0.166667
 31
0.0
  0
ENDBLK
  5
71
100
AcDbEntity
  8
0
100
AcDbBlockEnd
  0
BLOCK
  5
72
100
AcDbEntity
  8
0
100
AcDbBlockBegin
  2
_EX_BBOX
 70
     0
 10
0.0
 20
0.0
 30
0.0
  3
_EX_BBOX
  1

  0
LINE
  5
73
100
AcDbEntity
  8
0
  6
CONTINUOUS
 62
     0
100
AcDbLine
 10
0.0
 20
0.0
 30
0.0
 11
-1.0
 21
0.0
 31
0.0
  0
LINE
  5
74
100
AcDbEntity
  8
0
  6
CONTINUOUS
 62
     0
100
AcDbLine
 10
-0.5
 20
0.5
 30
0.0
 11
0.5
 21
0.5
 31
0.0
  0
LINE
  5
75
100
AcDbEntity
  8
0
  6
CONTINUOUS
 62
     0
100
AcDbLine
 10
0.5
 20
0.5
 30
0.0
 11
0.5
 21
-0.5
 31
0.0
  0
LINE
  5
76
100
AcDbEntity
  8
0
  6
CONTINUOUS
 62
     0
100
AcDbLine
 10
0.5
 20
-0.5
 30
0.0
 11
-0.5
 21
-0.5
 31
0.0
  0
LINE
  5
77
100
AcDbEntity
  8
0
  6
CONTINUOUS
 62
     0
100
AcDbLine
 10
-0.5
 20
-0.5
 30
0.0
 11
-0.5
 21
0.5
 31
0.0
  0
LINE
  5
78
100
AcDbEntity
  8
0
  6
CONTINUOUS
 62
     0
100
AcDbLine
 10
-0.25
 20
0.25
 30
0.0
 11
0.25
 21
0.25
 31
0.0
  0
LINE
  5
79
100
AcDbEntity
  8
0
  6
CONTINUOUS
 62
     0
100
AcDbLine
 10
0.25
 20
0.25
 30
0.0
 11
0.25
 21
-0.25
 31
0.0
  0
LINE
  5
7A
100
AcDbEntity
  8
0
  6
CONTINUOUS
 62
     0
100
AcDbLine
 10
0.25
 20
-0.25
 30
0.0
 11
-0.25
 21
-0.25
 31
0.0
  0
LINE
  5
7B
100
AcDbEntity
  8
0
  6
CONTINUOUS
 62
     0
100
AcDbLine
 10
-0.25
 20
-0.25
 30
0.0
 11
-0.25
 21
0.25
 31
0.0
  0
ENDBLK
  5
7C
100
AcDbEntity
  8
0
100
AcDbBlockEnd
  0
BLOCK
  5
7D
100
AcDbEntity
  8
0
100
AcDbBlockBegin
  2
_EX_WBOX
 70
     0
 10
0.0
 20
0.0
 30
0.0
  3
_EX_WBOX
  1

  0
LINE
  5
7E
100
AcDbEntity
  8
0
  6
CONTINUOUS
 62
     0
100
AcDbLine
 10
-0.5
 20
0.0
 30
0.0
 11
-1.0
 21
0.0
 31
0.0
  0
LINE
  5
7F
100
AcDbEntity
  8
0
  6
CONTINUOUS
 62
     0
100
AcDbLine
 10
-0.5
 20
0.5
 30
0.0
 11
0.5
 21
0.5
 31
0.0
  0
LINE
  5
80
100
AcDbEntity
  8
0
  6
CONTINUOUS
 62
     0
100
AcDbLine
 10
0.5
 20
0.5
 30
0.0
 11
0.5
 21
-0.5
 31
0.0
  0
LINE
  5
81
100
AcDbEntity
  8
0
  6
CONTINUOUS
 62
     0
100
AcDbLine
 10
0.5
 20
-0.5
 30
0.0
 11
-0.5
 21
-0.5
 31
0.0
  0
LINE
  5
82
100
AcDbEntity
  8
0
  6
CONTINUOUS
 62
     0
100
AcDbLine
 10
-0.5
 20
-0.5
 30
0.0
 11
-0.5
 21
0.5
 31
0.0
  0
ENDBLK
  5
83
100
AcDbEntity
  8
0
100
AcDbBlockEnd
  0
BLOCK
  5
84
100
AcDbEntity
  8
0
100
AcDbBlockBegin
  2
_EX_INTEGRAL
 70
     0
 10
0.0
 20
0.0
 30
0.0
  3
_EX_INTEGRAL
  1

  0
LINE
  5
85
100
AcDbEntity
  8
0
  6
CONTINUOUS
 62
     0
100
AcDbLine
 10
0.0
 20
0.0
 30
0.0
 11
-1.0
 21
0.0
 31
0.0
  0
ARC
  5
86
100
AcDbEntity
  8
0
  6
CONTINUOUS
 62
     0
100
AcDbCircle
 10
0.542115
 20
0.164992
 30
0.0
 40
0.56667
100
AcDbArc
 50
73.07249
 51
196.927513
  0
ARC
  5
87
100
AcDbEntity
  8
0
  6
CONTINUOUS
 62
     0
100
AcDbCircle
 10
-0.542115
 20
-0.164992
 30
0.0
 40
0.56667
100
AcDbArc
 50
253.072487
 51
16.927513
  0
ENDBLK
  5
88
100
AcDbEntity
  8
0
100
AcDbBlockEnd
  0
BLOCK
  5
F9
100
AcDbEntity
  8
0
100
AcDbBlockBegin
  2
*D14
 70
    65
 10
0.0
 20
0.0
 30
0.0
  3
*D14
  1

  0
LINE
  5
FA
100
AcDbEntity
  8
便器
  6
CONTINUOUS
 62
     3
100
AcDbLine
 10
1582.0
 20
496.587749
 30
0.0
 11
1582.0
 21
432.455231
 31
0.0
  0
LINE
  5
FB
100
AcDbEntity
  8
便器
  6
CONTINUOUS
 62
     3
100
AcDbLine
 10
1722.0
 20
496.587749
 30
0.0
 11
1722.0
 21
432.455231
 31
0.0
  0
TEXT
  5
FC
100
AcDbEntity
  8
便器
  6
CONTINUOUS
 62
     2
100
AcDbText
 10
1602.02
 20
455.955231
 30
0.0
 40
40.0
  1
140
 41
0.945
  7
EXCADSTD
 72
     1
 11
1652.0
 21
455.955231
 31
0.0
100
AcDbText
  0
LINE
  5
FD
100
AcDbEntity
  8
便器
  6
CONTINUOUS
 62
     3
100
AcDbLine
 10
1582.0
 20
452.455231
 30
0.0
 11
1722.0
 21
452.455231
 31
0.0
  0
LINE
  5
FE
100
AcDbEntity
  8
便器
  6
CONTINUOUS
 62
     3
100
AcDbLine
 10
1617.0
 20
458.288564
 30
0.0
 11
1582.0
 21
452.455231
 31
0.0
  0
LINE
  5
FF
100
AcDbEntity
  8
便器
  6
CONTINUOUS
 62
     3
100
AcDbLine
 10
1582.0
 20
452.455231
 30
0.0
 11
1617.0
 21
446.621897
 31
0.0
  0
LINE
  5
100
100
AcDbEntity
  8
便器
  6
CONTINUOUS
 62
     3
100
AcDbLine
 10
1687.0
 20
446.621897
 30
0.0
 11
1722.0
 21
452.455231
 31
0.0
  0
LINE
  5
101
100
AcDbEntity
  8
便器
  6
CONTINUOUS
 62
     3
100
AcDbLine
 10
1722.0
 20
452.455231
 30
0.0
 11
1687.0
 21
458.288564
 31
0.0
  0
ENDBLK
  5
102
100
AcDbEntity
  8
0
100
AcDbBlockEnd
  0
ENDSEC
  0
SECTION
  2
ENTITIES
  0
TEXT
  5
89
100
AcDbEntity
  8
枠
  6
CONTINUOUS
 62
     2
100
AcDbText
 10
804.093323
 20
245.818481
 30
0.0
 40
57.5
  1
洋風タンク密結床上排水洗落し便器
 41
0.538696
  7
EXCADSTD
 72
     5
 11
1394.093323
 21
245.818481
 31
0.0
100
AcDbText
  0
TEXT
  5
8A
100
AcDbEntity
  8
枠
  6
CONTINUOUS
 62
     2
100
AcDbText
 10
784.578095
 20
187.110443
 30
0.0
 40
55.0
  1
（タンク／付属金具一式セット品）
 41
0.596591
  7
EXCADSTD
 72
     5
 11
1409.578098
 21
187.110443
 31
0.0
100
AcDbText
  0
TEXT
  5
8B
100
AcDbEntity
  8
枠
  6
CONTINUOUS
 62
     2
100
AcDbText
 10
1446.794128
 20
213.75
 30
0.0
 40
62.5
  1
ＣＳ７３Ｐ－ＦＷ
 41
0.53256
  7
EXCADSTD
 72
     5
 11
1763.79413
 21
213.75
 31
0.0
100
AcDbText
  0
LINE
  5
8C
100
AcDbEntity
  8
枠
  6
CONTINUOUS
 62
     7
100
AcDbLine
 10
180.0
 20
85.0
 30
0.0
 11
2000.0
 21
85.0
 31
0.0
  0
LINE
  5
8D
100
AcDbEntity
  8
枠
  6
CONTINUOUS
 62
     7
100
AcDbLine
 10
2000.0
 20
85.0
 30
0.0
 11
2000.0
 21
2885.0
 31
0.0
  0
LINE
  5
8E
100
AcDbEntity
  8
枠
  6
CONTINUOUS
 62
     7
100
AcDbLine
 10
180.0
 20
85.0
 30
0.0
 11
180.0
 21
2885.0
 31
0.0
  0
LINE
  5
8F
100
AcDbEntity
  8
枠
  6
CONTINUOUS
 62
     7
100
AcDbLine
 10
180.0
 20
2885.0
 30
0.0
 11
2000.0
 21
2885.0
 31
0.0
  0
LINE
  5
90
100
AcDbEntity
  8
枠
  6
CONTINUOUS
 62
     7
100
AcDbLine
 10
180.0
 20
305.0
 30
0.0
 11
2000.0
 21
305.0
 31
0.0
  0
LINE
  5
91
100
AcDbEntity
  8
枠
  6
CONTINUOUS
 62
     6
100
AcDbLine
 10
2000.0
 20
185.0
 30
0.0
 11
750.0
 21
185.0
 31
0.0
  0
LINE
  5
92
100
AcDbEntity
  8
枠
  6
CONTINUOUS
 62
     6
100
AcDbLine
 10
1860.0
 20
305.0
 30
0.0
 11
1860.0
 21
185.0
 31
0.0
  0
LINE
  5
93
100
AcDbEntity
  8
枠
  6
CONTINUOUS
 62
     6
100
AcDbLine
 10
1810.0
 20
305.0
 30
0.0
 11
1810.0
 21
185.0
 31
0.0
  0
LINE
  5
94
100
AcDbEntity
  8
枠
  6
CONTINUOUS
 62
     6
100
AcDbLine
 10
1440.0
 20
305.0
 30
0.0
 11
1440.0
 21
85.0
 31
0.0
  0
LINE
  5
95
100
AcDbEntity
  8
枠
  6
CONTINUOUS
 62
     6
100
AcDbLine
 10
1390.0
 20
305.0
 30
0.0
 11
1390.0
 21
85.0
 31
0.0
  0
LINE
  5
96
100
AcDbEntity
  8
枠
  6
CONTINUOUS
 62
     6
100
AcDbLine
 10
800.0
 20
305.0
 30
0.0
 11
800.0
 21
185.0
 31
0.0
  0
LINE
  5
97
100
AcDbEntity
  8
枠
  6
CONTINUOUS
 62
     6
100
AcDbLine
 10
750.0
 20
305.0
 30
0.0
 11
750.0
 21
85.0
 31
0.0
  0
LINE
  5
98
100
AcDbEntity
  8
枠
  6
CONTINUOUS
 62
     6
100
AcDbLine
 10
620.0
 20
305.0
 30
0.0
 11
620.0
 21
85.0
 31
0.0
  0
LINE
  5
99
100
AcDbEntity
  8
枠
  6
CONTINUOUS
 62
     6
100
AcDbLine
 10
490.0
 20
305.0
 30
0.0
 11
490.0
 21
85.0
 31
0.0
  0
LINE
  5
9A
100
AcDbEntity
  8
枠
  6
CONTINUOUS
 62
     6
100
AcDbLine
 10
335.0
 20
305.0
 30
0.0
 11
335.0
 21
85.0
 31
0.0
  0
LINE
  5
9B
100
AcDbEntity
  8
枠
  6
CONTINUOUS
 62
     6
100
AcDbLine
 10
180.0
 20
255.0
 30
0.0
 11
750.0
 21
255.0
 31
0.0
  0
LINE
  5
9C
100
AcDbEntity
  8
枠
  6
CONTINUOUS
 62
     6
100
AcDbLine
 10
1892.653809
 20
208.00293
 30
0.0
 11
1969.993897
 21
286.699829
 31
0.0
  0
LINE
  5
9D
100
AcDbEntity
  8
枠
  6
EXLTYPE2
 62
     7
100
AcDbLine
 10
170.0
 20
1485.0
 30
0.0
 11
-20.0
 21
1485.0
 31
0.0
  0
TEXT
  5
9E
100
AcDbEntity
  8
枠
  6
CONTINUOUS
 62
     2
100
AcDbText
 10
1890.537109
 20
252.722778
 30
0.0
 40
30.0
  1
１
 41
0.826
  7
EXCADSTD
 72
     5
 11
1914.13711
 21
252.722778
 31
0.0
100
AcDbText
  0
TEXT
  5
9F
100
AcDbEntity
  8
枠
  6
CONTINUOUS
 62
     2
100
AcDbText
 10
1931.279297
 20
208.348846
 30
0.0
 40
30.0
  1
１０
 41
0.791
  7
EXCADSTD
 72
     5
 11
1983.067198
 21
208.348846
 31
0.0
100
AcDbText
  0
TEXT
  5
A0
100
AcDbEntity
  8
枠
  6
CONTINUOUS
 62
     2
100
AcDbText
 10
202.5
 20
258.75
 30
0.0
 40
42.5
  1
製図
 41
1.087059
  7
EXCADSTD
 72
     5
 11
303.326
 21
258.75
 31
0.0
100
AcDbText
  0
TEXT
  5
A1
100
AcDbEntity
  8
枠
  6
CONTINUOUS
 62
     2
100
AcDbText
 10
357.5
 20
258.75
 30
0.0
 40
42.5
  1
写図
 41
1.087059
  7
EXCADSTD
 72
     5
 11
458.326
 21
258.75
 31
0.0
100
AcDbText
  0
TEXT
  5
A2
100
AcDbEntity
  8
枠
  6
CONTINUOUS
 62
     2
100
AcDbText
 10
507.5
 20
258.75
 30
0.0
 40
42.5
  1
検図
 41
0.938824
  7
EXCADSTD
 72
     5
 11
594.577
 21
258.75
 31
0.0
100
AcDbText
  0
TEXT
  5
A3
100
AcDbEntity
  8
枠
  6
CONTINUOUS
 62
     2
100
AcDbText
 10
637.5
 20
258.75
 30
0.0
 40
42.5
  1
承認
 41
0.938824
  7
EXCADSTD
 72
     5
 11
724.577
 21
258.75
 31
0.0
100
AcDbText
  0
TEXT
  5
A4
100
AcDbEntity
  8
枠
  6
CONTINUOUS
 62
     2
100
AcDbText
 10
753.75
 20
248.75
 30
0.0
 40
42.5
  1
品
 41
0.84
  7
EXCADSTD
 72
     5
 11
787.75
 21
248.75
 31
0.0
100
AcDbText
  0
TEXT
  5
A5
100
AcDbEntity
  8
枠
  6
CONTINUOUS
 62
     2
100
AcDbText
 10
753.75
 20
198.75
 30
0.0
 40
42.5
  1
名
 41
0.84
  7
EXCADSTD
 72
     5
 11
787.75
 21
198.75
 31
0.0
100
AcDbText
  0
TEXT
  5
A6
100
AcDbEntity
  8
枠
  6
CONTINUOUS
 62
     2
100
AcDbText
 10
1393.75
 20
248.75
 30
0.0
 40
42.5
  1
品
 41
0.84
  7
EXCADSTD
 72
     5
 11
1427.75
 21
248.75
 31
0.0
100
AcDbText
  0
TEXT
  5
A7
100
AcDbEntity
  8
枠
  6
CONTINUOUS
 62
     2
100
AcDbText
 10
1393.75
 20
198.75
 30
0.0
 40
42.5
  1
番
 41
0.84
  7
EXCADSTD
 72
     5
 11
1427.75
 21
198.75
 31
0.0
100
AcDbText
  0
TEXT
  5
A8
100
AcDbEntity
  8
枠
  6
CONTINUOUS
 62
     2
100
AcDbText
 10
1813.75
 20
248.75
 30
0.0
 40
42.5
  1
尺
 41
0.84
  7
EXCADSTD
 72
     5
 11
1847.75
 21
248.75
 31
0.0
100
AcDbText
  0
TEXT
  5
A9
100
AcDbEntity
  8
枠
  6
CONTINUOUS
 62
     2
100
AcDbText
 10
1813.75
 20
198.75
 30
0.0
 40
42.5
  1
度
 41
0.84
  7
EXCADSTD
 72
     5
 11
1847.75
 21
198.75
 31
0.0
100
AcDbText
  0
TEXT
  5
AA
100
AcDbEntity
  8
枠
  6
CONTINUOUS
 62
     2
100
AcDbText
 10
1393.75
 20
135.75
 30
0.0
 40
42.5
  1
図
 41
0.84
  7
EXCADSTD
 72
     5
 11
1427.75
 21
135.75
 31
0.0
100
AcDbText
  0
TEXT
  5
AB
100
AcDbEntity
  8
枠
  6
CONTINUOUS
 62
     2
100
AcDbText
 10
1393.75
 20
92.75
 30
0.0
 40
42.5
  1
番
 41
0.84
  7
EXCADSTD
 72
     5
 11
1427.75
 21
92.75
 31
0.0
100
AcDbText
  0
LINE
  5
AC
100
AcDbEntity
  8
枠
  6
EXLTYPE2
 62
     6
100
AcDbLine
 10
170.0
 20
1485.0
 30
0.0
 11
-20.0
 21
1485.0
 31
0.0
  0
LINE
  5
AD
100
AcDbEntity
  8
枠
  6
CONTINUOUS
 62
     7
100
AcDbLine
 10
1285.0
 20
2780.34668
 30
0.0
 11
350.441132
 21
2780.34668
 31
0.0
  0
TEXT
  5
AE
100
AcDbEntity
  8
枠
  6
CONTINUOUS
 62
     2
100
AcDbText
 10
978.698883
 20
539.947357
 30
0.0
 40
40.0
  1
Ｆ．Ｌ
 41
0.833
  7
EXCADSTD
 72
     5
 11
1097.698883
 21
539.947357
 31
0.0
100
AcDbText
  0
TEXT
  5
AF
100
AcDbEntity
  8
枠
  6
CONTINUOUS
 62
     2
100
AcDbText
 10
393.394928
 20
1597.910004
 30
0.0
 40
40.0
  1
Ｗ．Ｌ
 50
90.0
 41
0.833
  7
EXCADSTD
 72
     5
 11
393.394928
 21
1716.910003
 31
0.0
100
AcDbText
  0
LINE
  5
B0
100
AcDbEntity
  8
枠
  6
CONTINUOUS
 62
     7
100
AcDbLine
 10
350.440826
 20
536.455231
 30
0.0
 11
350.440826
 21
1711.0
 31
0.0
  0
TEXT
  5
B1
100
AcDbEntity
  8
枠
  6
CONTINUOUS
 62
     2
100
AcDbText
 10
689.134766
 20
2733.493652
 30
0.0
 40
40.0
  1
Ｗ．Ｌ
 41
0.833
  7
EXCADSTD
 72
     5
 11
808.134765
 21
2733.493652
 31
0.0
100
AcDbText
  0
LINE
  5
B2
100
AcDbEntity
  8
枠
  6
CONTINUOUS
 62
     7
100
AcDbLine
 10
350.440837
 20
1979.999985
 30
0.0
 11
350.441132
 21
2780.34668
 31
0.0
  0
LINE
  5
B3
100
AcDbEntity
  8
枠
  6
CONTINUOUS
 62
     7
100
AcDbLine
 10
1324.0
 20
536.455231
 30
0.0
 11
1975.0
 21
536.455231
 31
0.0
  0
LINE
  5
B4
100
AcDbEntity
  8
枠
  6
CONTINUOUS
 62
     7
100
AcDbLine
 10
350.440826
 20
536.455231
 30
0.0
 11
1273.0
 21
536.455231
 31
0.0
  0
TEXT
  5
B5
100
AcDbEntity
  8
枠
  6
CONTINUOUS
 62
     7
100
AcDbText
 10
1454.25
 20
100.75
 30
0.0
 40
70.0
  1
Ｃ４５７Ｓ０４２
 41
0.795
  7
EXCADSTD
 72
     5
 11
1984.25
 21
100.75
 31
0.0
100
AcDbText
  0
CIRCLE
  5
B6
100
AcDbEntity
  8
枠
  6
CONTINUOUS
 62
     6
100
AcDbCircle
 10
230.0
 20
110.0
 30
0.0
 40
1.0
  0
CIRCLE
  5
B7
100
AcDbEntity
  8
枠
  6
CONTINUOUS
 62
     6
100
AcDbCircle
 10
280.0
 20
110.0
 30
0.0
 40
1.0
  0
TEXT
  5
B8
100
AcDbEntity
  8
枠
  6
CONTINUOUS
 62
     6
100
AcDbText
 10
635.5
 20
170.0
 30
0.0
 40
50.0
  1
古林
 41
0.8568
  7
EXCADSTD
 72
     5
 11
728.9932
 21
170.0
 31
0.0
100
AcDbText
  0
LINE
  5
B9
100
AcDbEntity
  8
枠
  6
EXLTYPE2
 62
     6
100
AcDbLine
 10
180.0
 20
135.0
 30
0.0
 11
490.0
 21
135.0
 31
0.0
  0
TEXT
  5
BA
100
AcDbEntity
  8
枠
  6
CONTINUOUS
 62
     6
100
AcDbText
 10
207.5
 20
170.0
 30
0.0
 40
50.0
  1
間瀬
 41
0.8736
  7
EXCADSTD
 72
     5
 11
302.8264
 21
170.0
 31
0.0
100
AcDbText
  0
TEXT
  5
BB
100
AcDbEntity
  8
枠
  6
CONTINUOUS
 62
     6
100
AcDbText
 10
182.044116
 20
96.950073
 30
0.0
 40
25.0
  1
２１
 41
0.75768
  7
EXCADSTD
 72
     5
 11
223.382775
 21
96.950073
 31
0.0
100
AcDbText
  0
TEXT
  5
BC
100
AcDbEntity
  8
枠
  6
CONTINUOUS
 62
     6
100
AcDbText
 10
244.544116
 20
96.950073
 30
0.0
 40
25.0
  1
６
 41
0.89208
  7
EXCADSTD
 72
     5
 11
265.784116
 21
96.950073
 31
0.0
100
AcDbText
  0
TEXT
  5
BD
100
AcDbEntity
  8
枠
  6
CONTINUOUS
 62
     6
100
AcDbText
 10
286.844116
 20
96.950073
 30
0.0
 40
25.0
  1
２６
 41
0.75768
  7
EXCADSTD
 72
     5
 11
328.182775
 21
96.950073
 31
0.0
100
AcDbText
  0
TEXT
  5
BF
100
AcDbEntity
  8
枠
  6
CONTINUOUS
 62
     2
100
AcDbText
 10
770.0
 20
105.0
 30
0.0
 40
45.0
  1
ジャニス工業株式会社
  7
EXCADTTF1
 72
     5
 11
1370.0
 21
105.0
 31
0.0
100
AcDbText
  0
TEXT
  5
C0
100
AcDbEntity
  8
便器
  6
CONTINUOUS
 62
     2
100
AcDbText
 10
1176.941132
 20
2320.84668
 30
0.0
 40
40.0
  1
３５５
 50
90.0
 41
0.833
  7
EXCADSTD
 72
     5
 11
1176.941132
 21
2439.84668
 31
0.0
100
AcDbText
  0
LINE
  5
C1
100
AcDbEntity
  8
便器
  6
CONTINUOUS
 62
     3
100
AcDbLine
 10
1180.441132
 20
2557.84668
 30
0.0
 11
1180.441132
 21
2202.84668
 31
0.0
  0
LINE
  5
C2
100
AcDbEntity
  8
便器
  6
CONTINUOUS
 62
     3
100
AcDbLine
 10
1186.274465
 20
2522.84668
 30
0.0
 11
1180.441132
 21
2557.84668
 31
0.0
  0
LINE
  5
C3
100
AcDbEntity
  8
便器
  6
CONTINUOUS
 62
     3
100
AcDbLine
 10
1180.441132
 20
2557.84668
 30
0.0
 11
1174.607798
 21
2522.84668
 31
0.0
  0
LINE
  5
C4
100
AcDbEntity
  8
便器
  6
CONTINUOUS
 62
     3
100
AcDbLine
 10
1174.607798
 20
2237.84668
 30
0.0
 11
1180.441132
 21
2202.84668
 31
0.0
  0
LINE
  5
C5
100
AcDbEntity
  8
便器
  6
CONTINUOUS
 62
     3
100
AcDbLine
 10
1180.441132
 20
2202.84668
 30
0.0
 11
1186.274465
 21
2237.84668
 31
0.0
  0
TEXT
  5
C6
100
AcDbEntity
  8
便器
  6
CONTINUOUS
 62
     2
100
AcDbText
 10
820.941132
 20
2128.999084
 30
0.0
 40
40.0
  1
４４０
 41
0.833
  7
EXCADSTD
 72
     5
 11
939.941131
 21
2128.999084
 31
0.0
100
AcDbText
  0
LINE
  5
C7
100
AcDbEntity
  8
便器
  6
CONTINUOUS
 62
     3
100
AcDbLine
 10
660.441132
 20
2125.499084
 30
0.0
 11
1100.441132
 21
2125.499084
 31
0.0
  0
LINE
  5
C8
100
AcDbEntity
  8
便器
  6
CONTINUOUS
 62
     3
100
AcDbLine
 10
695.441132
 20
2131.332418
 30
0.0
 11
660.441132
 21
2125.499084
 31
0.0
  0
LINE
  5
C9
100
AcDbEntity
  8
便器
  6
CONTINUOUS
 62
     3
100
AcDbLine
 10
660.441132
 20
2125.499084
 30
0.0
 11
695.441132
 21
2119.665751
 31
0.0
  0
LINE
  5
CA
100
AcDbEntity
  8
便器
  6
CONTINUOUS
 62
     3
100
AcDbLine
 10
1065.441132
 20
2119.665751
 30
0.0
 11
1100.441132
 21
2125.499084
 31
0.0
  0
LINE
  5
CB
100
AcDbEntity
  8
便器
  6
CONTINUOUS
 62
     3
100
AcDbLine
 10
1100.441132
 20
2125.499084
 30
0.0
 11
1065.441132
 21
2131.332418
 31
0.0
  0
TEXT
  5
CC
100
AcDbEntity
  8
便器
  6
CONTINUOUS
 62
     2
100
AcDbText
 10
1133.5
 20
651.955231
 30
0.0
 40
40.0
  1
３５０
 50
90.0
 41
0.833
  7
EXCADSTD
 72
     5
 11
1133.5
 21
770.955231
 31
0.0
100
AcDbText
  0
LINE
  5
CD
100
AcDbEntity
  8
便器
  6
CONTINUOUS
 62
     3
100
AcDbLine
 10
1137.0
 20
886.455231
 30
0.0
 11
1137.0
 21
536.455231
 31
0.0
  0
LINE
  5
CE
100
AcDbEntity
  8
便器
  6
CONTINUOUS
 62
     3
100
AcDbLine
 10
1142.833333
 20
851.455231
 30
0.0
 11
1137.0
 21
886.455231
 31
0.0
  0
LINE
  5
CF
100
AcDbEntity
  8
便器
  6
CONTINUOUS
 62
     3
100
AcDbLine
 10
1137.0
 20
886.455231
 30
0.0
 11
1131.166667
 21
851.455231
 31
0.0
  0
LINE
  5
D0
100
AcDbEntity
  8
便器
  6
CONTINUOUS
 62
     3
100
AcDbLine
 10
1131.166667
 20
571.455231
 30
0.0
 11
1137.0
 21
536.455231
 31
0.0
  0
LINE
  5
D1
100
AcDbEntity
  8
便器
  6
CONTINUOUS
 62
     3
100
AcDbLine
 10
1137.0
 20
536.455231
 30
0.0
 11
1142.833333
 21
571.455231
 31
0.0
  0
TEXT
  5
D2
100
AcDbEntity
  8
便器
  6
CONTINUOUS
 62
     2
100
AcDbText
 10
226.940826
 20
659.45532
 30
0.0
 40
40.0
  1
３６５
 50
90.0
 41
0.833
  7
EXCADSTD
 72
     5
 11
226.940826
 21
778.455319
 31
0.0
100
AcDbText
  0
LINE
  5
D3
100
AcDbEntity
  8
便器
  6
CONTINUOUS
 62
     3
100
AcDbLine
 10
230.440826
 20
901.455408
 30
0.0
 11
230.440826
 21
536.455231
 31
0.0
  0
LINE
  5
D4
100
AcDbEntity
  8
便器
  6
CONTINUOUS
 62
     3
100
AcDbLine
 10
236.27416
 20
866.455408
 30
0.0
 11
230.440826
 21
901.455408
 31
0.0
  0
LINE
  5
D5
100
AcDbEntity
  8
便器
  6
CONTINUOUS
 62
     3
100
AcDbLine
 10
230.440826
 20
901.455408
 30
0.0
 11
224.607493
 21
866.455408
 31
0.0
  0
LINE
  5
D6
100
AcDbEntity
  8
便器
  6
CONTINUOUS
 62
     3
100
AcDbLine
 10
224.607493
 20
571.455231
 30
0.0
 11
230.440826
 21
536.455231
 31
0.0
  0
LINE
  5
D7
100
AcDbEntity
  8
便器
  6
CONTINUOUS
 62
     3
100
AcDbLine
 10
230.440826
 20
536.455231
 30
0.0
 11
236.27416
 21
571.455231
 31
0.0
  0
LINE
  5
D8
100
AcDbEntity
  8
便器
  6
CONTINUOUS
 62
     3
100
AcDbLine
 10
535.813691
 20
702.982285
 30
0.0
 11
814.916637
 21
752.195409
 31
0.0
  0
ARC
  5
D9
100
AcDbEntity
  8
便器
  6
CONTINUOUS
 62
     3
100
AcDbCircle
 10
555.50856
 20
706.455118
 30
0.0
 40
243.409761
100
AcDbArc
 50
349.40756
 51
20.592389
  0
LINE
  5
DA
100
AcDbEntity
  8
便器
  6
CONTINUOUS
 62
     3
100
AcDbLine
 10
804.751697
 20
671.455231
 30
0.0
 11
798.918363
 21
706.455231
 31
0.0
  0
LINE
  5
DB
100
AcDbEntity
  8
便器
  6
CONTINUOUS
 62
     3
100
AcDbLine
 10
798.918363
 20
706.455231
 30
0.0
 11
793.08503
 21
671.455231
 31
0.0
  0
LINE
  5
DC
100
AcDbEntity
  8
便器
  6
CONTINUOUS
 62
     3
100
AcDbLine
 10
783.39811
 20
782.177797
 30
0.0
 11
795.220479
 21
748.722463
 31
0.0
  0
LINE
  5
DD
100
AcDbEntity
  8
便器
  6
CONTINUOUS
 62
     3
100
AcDbLine
 10
795.220479
 20
748.722463
 30
0.0
 11
794.887536
 21
784.203682
 31
0.0
  0
TEXT
  5
DE
100
AcDbEntity
  8
便器
  6
CONTINUOUS
 62
     2
100
AcDbText
 10
860.868984
 20
685.182634
 30
0.0
 40
40.0
  1
１０
 50
90.0
 41
0.861
  7
EXCADSTD
 72
     5
 11
860.868984
 21
760.343834
 31
0.0
100
AcDbText
  0
TEXT
  5
DF
100
AcDbEntity
  8
便器
  6
CONTINUOUS
 62
     2
100
AcDbText
 10
860.868984
 20
763.182634
 30
0.0
 40
40.0
  1
ﾟ
 50
90.0
 41
0.5625
  7
EXCADSTD
 72
     5
 11
860.868984
 21
777.807634
 31
0.0
100
AcDbText
  0
TEXT
  5
E0
100
AcDbEntity
  8
便器
  6
CONTINUOUS
 62
     2
100
AcDbText
 10
695.732841
 20
561.955306
 30
0.0
 40
40.0
  1
１７０
 50
90.0
 41
0.833
  7
EXCADSTD
 72
     5
 11
695.732841
 21
680.955306
 31
0.0
100
AcDbText
  0
LINE
  5
E1
100
AcDbEntity
  8
便器
  6
CONTINUOUS
 62
     3
100
AcDbLine
 10
699.232841
 20
536.455382
 30
0.0
 11
699.232841
 21
706.455231
 31
0.0
  0
LINE
  5
E2
100
AcDbEntity
  8
便器
  6
CONTINUOUS
 62
     3
100
AcDbLine
 10
693.399507
 20
571.455382
 30
0.0
 11
699.232841
 21
536.455382
 31
0.0
  0
LINE
  5
E3
100
AcDbEntity
  8
便器
  6
CONTINUOUS
 62
     3
100
AcDbLine
 10
699.232841
 20
536.455382
 30
0.0
 11
705.066174
 21
571.455382
 31
0.0
  0
LINE
  5
E4
100
AcDbEntity
  8
便器
  6
CONTINUOUS
 62
     3
100
AcDbLine
 10
705.066174
 20
671.455231
 30
0.0
 11
699.232841
 21
706.455231
 31
0.0
  0
LINE
  5
E5
100
AcDbEntity
  8
便器
  6
CONTINUOUS
 62
     3
100
AcDbLine
 10
699.232841
 20
706.455231
 30
0.0
 11
693.399507
 21
671.455231
 31
0.0
  0
TEXT
  5
E6
100
AcDbEntity
  8
便器
  6
CONTINUOUS
 62
     2
100
AcDbText
 10
393.475338
 20
592.955231
 30
0.0
 40
40.0
  1
２０５
 41
0.833
  7
EXCADSTD
 72
     5
 11
512.475337
 21
592.955231
 31
0.0
100
AcDbText
  0
LINE
  5
E7
100
AcDbEntity
  8
便器
  6
CONTINUOUS
 62
     3
100
AcDbLine
 10
350.440826
 20
589.455231
 30
0.0
 11
555.509849
 21
589.455231
 31
0.0
  0
LINE
  5
E8
100
AcDbEntity
  8
便器
  6
CONTINUOUS
 62
     3
100
AcDbLine
 10
385.440826
 20
595.288564
 30
0.0
 11
350.440826
 21
589.455231
 31
0.0
  0
LINE
  5
E9
100
AcDbEntity
  8
便器
  6
CONTINUOUS
 62
     3
100
AcDbLine
 10
350.440826
 20
589.455231
 30
0.0
 11
385.440826
 21
583.621897
 31
0.0
  0
LINE
  5
EA
100
AcDbEntity
  8
便器
  6
CONTINUOUS
 62
     3
100
AcDbLine
 10
520.509849
 20
583.621897
 30
0.0
 11
555.509849
 21
589.455231
 31
0.0
  0
LINE
  5
EB
100
AcDbEntity
  8
便器
  6
CONTINUOUS
 62
     3
100
AcDbLine
 10
555.509849
 20
589.455231
 30
0.0
 11
520.509849
 21
595.288564
 31
0.0
  0
TEXT
  5
EC
100
AcDbEntity
  8
便器
  6
CONTINUOUS
 62
     2
100
AcDbText
 10
485.466555
 20
747.414609
 30
0.0
 40
40.0
  1
φ９６
 50
280.0
 41
0.735
  7
EXCADSTD
 72
     5
 11
503.699615
 21
644.009788
 31
0.0
100
AcDbText
  0
LINE
  5
ED
100
AcDbEntity
  8
便器
  6
CONTINUOUS
 62
     3
100
AcDbLine
 10
482.80116
 20
742.375117
 30
0.0
 11
499.471355
 21
647.833743
 31
0.0
  0
LINE
  5
EE
100
AcDbEntity
  8
便器
  6
CONTINUOUS
 62
     3
100
AcDbLine
 10
494.623559
 20
708.919793
 30
0.0
 11
482.80116
 21
742.375117
 31
0.0
  0
LINE
  5
EF
100
AcDbEntity
  8
便器
  6
CONTINUOUS
 62
     3
100
AcDbLine
 10
482.80116
 20
742.375117
 30
0.0
 11
483.134135
 21
706.893898
 31
0.0
  0
LINE
  5
F0
100
AcDbEntity
  8
便器
  6
CONTINUOUS
 62
     3
100
AcDbLine
 10
487.648957
 20
681.289067
 30
0.0
 11
499.471355
 21
647.833743
 31
0.0
  0
LINE
  5
F1
100
AcDbEntity
  8
便器
  6
CONTINUOUS
 62
     3
100
AcDbLine
 10
499.471355
 20
647.833743
 30
0.0
 11
499.138381
 21
683.314962
 31
0.0
  0
TEXT
  5
F2
100
AcDbEntity
  8
便器
  6
CONTINUOUS
 62
     2
100
AcDbText
 10
286.941133
 20
2178.34668
 30
0.0
 40
40.0
  1
２８５
 50
90.0
 41
0.833
  7
EXCADSTD
 72
     5
 11
286.941133
 21
2297.34668
 31
0.0
100
AcDbText
  0
LINE
  5
F3
100
AcDbEntity
  8
便器
  6
CONTINUOUS
 62
     3
100
AcDbLine
 10
290.441133
 20
2095.34668
 30
0.0
 11
290.441133
 21
2380.34668
 31
0.0
  0
LINE
  5
F4
100
AcDbEntity
  8
便器
  6
CONTINUOUS
 62
     3
100
AcDbLine
 10
284.6078
 20
2130.34668
 30
0.0
 11
290.441133
 21
2095.34668
 31
0.0
  0
LINE
  5
F5
100
AcDbEntity
  8
便器
  6
CONTINUOUS
 62
     3
100
AcDbLine
 10
290.441133
 20
2095.34668
 30
0.0
 11
296.274466
 21
2130.34668
 31
0.0
  0
LINE
  5
F6
100
AcDbEntity
  8
便器
  6
CONTINUOUS
 62
     3
100
AcDbLine
 10
296.274466
 20
2345.34668
 30
0.0
 11
290.441133
 21
2380.34668
 31
0.0
  0
LINE
  5
F7
100
AcDbEntity
  8
便器
  6
CONTINUOUS
 62
     3
100
AcDbLine
 10
290.441133
 20
2380.34668
 30
0.0
 11
284.6078
 21
2345.34668
 31
0.0
  0
DIMENSION
  5
104
100
AcDbEntity
  8
便器
  6
CONTINUOUS
 62
     3
100
AcDbDimension
  2
*D14
 10
1722.0
 20
452.455231
 30
0.0
 11
1652.0
 21
475.955231
 31
0.0
 70
   160
  1
140
  3
STANDARD
100
AcDbAlignedDimension
 13
1582.0
 23
503.587749
 33
0.0
 14
1722.0
 24
503.587749
 34
0.0
100
AcDbRotatedDimension
1001
ACAD
1000
DSTYLE
1002
{
1070
     6
1000
_EX_NORM
1070
     7
1000
_EX_NORM
1070
    41
1040
35.0
1070
    42
1040
7.0
1070
    44
1040
20.0
1070
    73
1070
     0
1070
    74
1070
     0
1070
    75
1070
     0
1070
    76
1070
     0
1070
    77
1070
     1
1070
    78
1070
     0
1070
   140
1040
40.0
1070
   147
1040
3.5
1070
   173
1070
     1
1070
   176
1070
     3
1070
   177
1070
     3
1070
   178
1070
     2
1070
   271
1070
     0
1070
   279
1070
     2
1070
   280
1070
     0
1070
   287
1070
     5
1070
   340
1005
103
1002
}
  0
LINE
  5
105
100
AcDbEntity
  8
便器
  6
EXLTYPE2
 62
     2
100
AcDbLine
 10
551.248383
 20
2525.876557
 30
0.0
 11
487.815336
 21
2519.485179
 31
0.0
  0
ARC
  5
106
100
AcDbEntity
  8
便器
  6
EXLTYPE2
 62
     2
100
AcDbCircle
 10
784.441102
 20
2380.34668
 30
0.0
 40
200.0
100
AcDbArc
 50
158.247925
 51
201.930603
  0
ARC
  5
107
100
AcDbEntity
  8
便器
  6
EXLTYPE2
 62
     2
100
AcDbCircle
 10
812.514252
 20
2333.632096
 30
0.0
 40
150.0
100
AcDbArc
 50
31.268616
 51
78.798218
  0
ARC
  5
108
100
AcDbEntity
  8
便器
  6
EXLTYPE2
 62
     2
100
AcDbCircle
 10
626.742829
 20
2443.838837
 30
0.0
 40
30.0
100
AcDbArc
 50
96.234741
 51
158.069397
  0
CIRCLE
  5
109
100
AcDbEntity
  8
便器
  6
EXLTYPE2
 62
     2
100
AcDbCircle
 10
745.441132
 20
2310.34668
 30
0.0
 40
5.5
  0
ARC
  5
10A
100
AcDbEntity
  8
便器
  6
EXLTYPE2
 62
     2
100
AcDbCircle
 10
842.475373
 20
2402.650482
 30
0.0
 40
400.0
100
AcDbArc
 50
185.910211
 51
201.870619
  0
ARC
  5
10B
100
AcDbEntity
  8
便器
  6
EXLTYPE2
 62
     2
100
AcDbCircle
 10
489.820344
 20
2261.107437
 30
0.0
 40
20.0
100
AcDbArc
 50
201.868774
 51
264.246399
  0
ARC
  5
10C
100
AcDbEntity
  8
便器
  6
EXLTYPE2
 62
     2
100
AcDbCircle
 10
842.475373
 20
2358.042877
 30
0.0
 40
400.0
100
AcDbArc
 50
158.131251
 51
174.089788
  0
ARC
  5
10D
100
AcDbEntity
  8
便器
  6
EXLTYPE2
 62
     2
100
AcDbCircle
 10
489.820344
 20
2499.585907
 30
0.0
 40
20.0
100
AcDbArc
 50
95.753601
 51
158.131226
  0
LINE
  5
10E
100
AcDbEntity
  8
便器
  6
EXLTYPE2
 62
     2
100
AcDbLine
 10
774.395173
 20
2275.34668
 30
0.0
 11
795.030396
 21
2275.34668
 31
0.0
  0
ARC
  5
10F
100
AcDbEntity
  8
便器
  6
EXLTYPE2
 62
     2
100
AcDbCircle
 10
836.445465
 20
2752.84668
 30
0.0
 40
550.0
100
AcDbArc
 50
265.865173
 51
279.551941
  0
ARC
  5
110
100
AcDbEntity
  8
便器
  6
EXLTYPE2
 62
     2
100
AcDbCircle
 10
886.227906
 20
2457.006104
 30
0.0
 40
250.0
100
AcDbArc
 50
279.551941
 51
309.950989
  0
ARC
  5
111
100
AcDbEntity
  8
便器
  6
EXLTYPE2
 62
     2
100
AcDbCircle
 10
795.030396
 20
2515.34668
 30
0.0
 40
240.0
100
AcDbArc
 50
270.0
 51
281.201782
  0
ARC
  5
112
100
AcDbEntity
  8
便器
  6
EXLTYPE2
 62
     2
100
AcDbCircle
 10
836.445465
 20
2007.84668
 30
0.0
 40
550.0
100
AcDbArc
 50
80.448059
 51
94.134827
  0
ARC
  5
113
100
AcDbEntity
  8
便器
  6
EXLTYPE2
 62
     2
100
AcDbCircle
 10
886.227906
 20
2303.687256
 30
0.0
 40
250.0
100
AcDbArc
 50
50.049011
 51
80.448059
  0
ARC
  5
114
100
AcDbEntity
  8
便器
  6
EXLTYPE2
 62
     2
100
AcDbCircle
 10
950.441132
 20
2380.34668
 30
0.0
 40
150.0
100
AcDbArc
 50
309.950989
 51
50.04895
  0
ARC
  5
115
100
AcDbEntity
  8
便器
  6
EXLTYPE2
 62
     2
100
AcDbCircle
 10
884.130066
 20
87.85669
 30
0.0
 40
2400.0
100
AcDbArc
 50
92.620636
 51
96.235444
  0
ARC
  5
116
100
AcDbEntity
  8
便器
  6
EXLTYPE2
 62
     2
100
AcDbCircle
 10
889.441132
 20
2380.34668
 30
0.0
 40
60.0
100
AcDbArc
 50
328.731384
 51
29.434662
  0
ARC
  5
117
100
AcDbEntity
  8
便器
  6
EXLTYPE2
 62
     2
100
AcDbCircle
 10
812.514252
 20
2427.061264
 30
0.0
 40
150.0
100
AcDbArc
 50
281.201782
 51
328.731384
  0
LINE
  5
118
100
AcDbEntity
  8
便器
  6
EXLTYPE2
 62
     2
100
AcDbLine
 10
551.248383
 20
2234.816803
 30
0.0
 11
487.815336
 21
2241.208181
 31
0.0
  0
LINE
  5
119
100
AcDbEntity
  8
便器
  6
EXLTYPE2
 62
     2
100
AcDbLine
 10
774.395173
 20
2485.34668
 30
0.0
 11
795.030396
 21
2485.34668
 31
0.0
  0
ARC
  5
11A
100
AcDbEntity
  8
便器
  6
EXLTYPE2
 62
     2
100
AcDbCircle
 10
795.030396
 20
2245.34668
 30
0.0
 40
240.0
100
AcDbArc
 50
78.798218
 51
90.0
  0
ARC
  5
11B
100
AcDbEntity
  8
便器
  6
EXLTYPE2
 62
     2
100
AcDbCircle
 10
884.130066
 20
4672.83667
 30
0.0
 40
2400.0
100
AcDbArc
 50
263.764556
 51
267.379364
  0
ARC
  5
11C
100
AcDbEntity
  8
便器
  6
EXLTYPE2
 62
     2
100
AcDbCircle
 10
626.742829
 20
2316.854523
 30
0.0
 40
30.0
100
AcDbArc
 50
201.930603
 51
263.765259
  0
LINE
  5
11D
100
AcDbEntity
  8
便器
  6
CONTINUOUS
 62
     3
100
AcDbLine
 10
660.441132
 20
2336.347656
 30
0.0
 11
660.441132
 21
2105.499084
 31
0.0
  0
ARC
  5
11E
100
AcDbEntity
  8
便器
  6
CONTINUOUS
 62
     7
100
AcDbCircle
 10
969.836701
 20
162.661866
 30
0.0
 40
2400.0
100
AcDbArc
 50
94.134827
 51
99.182565
  0
ARC
  5
11F
100
AcDbEntity
  8
便器
  6
EXLTYPE2
 62
     2
100
AcDbCircle
 10
969.836701
 20
162.661866
 30
0.0
 40
2400.0
100
AcDbArc
 50
99.182565
 51
100.044434
  0
ARC
  5
120
100
AcDbEntity
  8
便器
  6
EXLTYPE2
 62
     2
100
AcDbCircle
 10
969.836701
 20
4598.031494
 30
0.0
 40
2400.0
100
AcDbArc
 50
259.955566
 51
260.817439
  0
ARC
  5
121
100
AcDbEntity
  8
便器
  6
CONTINUOUS
 62
     7
100
AcDbCircle
 10
969.836701
 20
4598.031494
 30
0.0
 40
2400.0
100
AcDbArc
 50
260.817439
 51
265.865173
  0
LINE
  5
122
100
AcDbEntity
  8
便器
  6
CONTINUOUS
 62
     3
100
AcDbLine
 10
660.441132
 20
2424.345703
 30
0.0
 11
660.441132
 21
2476.347656
 31
0.0
  0
LINE
  5
123
100
AcDbEntity
  8
便器
  6
CONTINUOUS
 62
     3
100
AcDbLine
 10
685.941132
 20
2450.34668
 30
0.0
 11
634.941132
 21
2450.34668
 31
0.0
  0
LINE
  5
124
100
AcDbEntity
  8
便器
  6
CONTINUOUS
 62
     3
100
AcDbLine
 10
685.941132
 20
2310.34668
 30
0.0
 11
634.941132
 21
2310.34668
 31
0.0
  0
LINE
  5
125
100
AcDbEntity
  8
便器
  6
CONTINUOUS
 62
     7
100
AcDbLine
 10
783.851074
 20
721.454987
 30
0.0
 11
783.851074
 21
694.324005
 31
0.0
  0
LINE
  5
126
100
AcDbEntity
  8
便器
  6
CONTINUOUS
 62
     7
100
AcDbLine
 10
494.498565
 20
829.591339
 30
0.0
 11
551.361923
 21
820.043762
 31
0.0
  0
LINE
  5
127
100
AcDbEntity
  8
便器
  6
CONTINUOUS
 62
     7
100
AcDbLine
 10
536.440826
 20
822.548981
 30
0.0
 11
539.371765
 21
810.173981
 31
0.0
  0
LINE
  5
128
100
AcDbEntity
  8
便器
  6
CONTINUOUS
 62
     7
100
AcDbLine
 10
547.280075
 20
801.065658
 30
0.0
 11
555.877283
 21
797.697807
 31
0.0
  0
LINE
  5
129
100
AcDbEntity
  8
便器
  6
CONTINUOUS
 62
     7
100
AcDbLine
 10
545.665685
 20
813.972785
 30
0.0
 11
546.418914
 21
810.792481
 31
0.0
  0
LINE
  5
12A
100
AcDbEntity
  8
便器
  6
CONTINUOUS
 62
     7
100
AcDbLine
 10
551.361923
 20
820.043762
 30
0.0
 11
647.468436
 21
803.907101
 31
0.0
  0
LINE
  5
12B
100
AcDbEntity
  8
便器
  6
CONTINUOUS
 62
     7
100
AcDbLine
 10
671.638081
 20
799.848923
 30
0.0
 11
697.591522
 21
795.491242
 31
0.0
  0
LINE
  5
12C
100
AcDbEntity
  8
便器
  6
CONTINUOUS
 62
     7
100
AcDbLine
 10
706.410674
 20
722.64505
 30
0.0
 11
748.144278
 21
640.317524
 31
0.0
  0
LINE
  5
12D
100
AcDbEntity
  8
便器
  6
CONTINUOUS
 62
     7
100
AcDbLine
 10
583.612789
 20
760.151122
 30
0.0
 11
582.254634
 21
759.91164
 31
0.0
  0
LINE
  5
12E
100
AcDbEntity
  8
便器
  6
CONTINUOUS
 62
     7
100
AcDbLine
 10
607.723693
 20
663.021301
 30
0.0
 11
605.272979
 21
640.749344
 31
0.0
  0
ARC
  5
12F
100
AcDbEntity
  8
便器
  6
CONTINUOUS
 62
     7
100
AcDbCircle
 10
753.850982
 20
721.454987
 30
0.0
 40
30.0
100
AcDbArc
 50
0.0
 51
76.973663
  0
ARC
  5
130
100
AcDbEntity
  8
便器
  6
CONTINUOUS
 62
     7
100
AcDbCircle
 10
2381.595916
 20
435.299042
 30
0.0
 40
1800.0
100
AcDbArc
 50
174.679565
 51
176.778442
  0
ARC
  5
131
100
AcDbEntity
  8
便器
  6
CONTINUOUS
 62
     7
100
AcDbCircle
 10
559.455764
 20
928.054291
 30
0.0
 40
120.0
100
AcDbArc
 50
192.806396
 51
231.942261
  0
ARC
  5
132
100
AcDbEntity
  8
便器
  6
CONTINUOUS
 62
     7
100
AcDbCircle
 10
695.935668
 20
785.629303
 30
0.0
 40
10.0
100
AcDbArc
 50
31.828369
 51
80.468658
  0
ARC
  5
133
100
AcDbEntity
  8
便器
  6
CONTINUOUS
 62
     7
100
AcDbCircle
 10
497.810287
 20
849.315247
 30
0.0
 40
20.0
100
AcDbArc
 50
231.942261
 51
260.46875
  0
ARC
  5
134
100
AcDbEntity
  8
便器
  6
CONTINUOUS
 62
     7
100
AcDbCircle
 10
552.021819
 20
813.170044
 30
0.0
 40
13.0
100
AcDbArc
 50
193.324402
 51
248.608002
  0
ARC
  5
135
100
AcDbEntity
  8
便器
  6
CONTINUOUS
 62
     7
100
AcDbCircle
 10
551.284301
 20
811.944794
 30
0.0
 40
5.0
100
AcDbArc
 50
193.32457
 51
250.612389
  0
ARC
  5
136
100
AcDbEntity
  8
便器
  6
CONTINUOUS
 62
     7
100
AcDbCircle
 10
550.533996
 20
815.112763
 30
0.0
 40
5.0
100
AcDbArc
 50
80.46875
 51
193.324463
  0
ARC
  5
137
100
AcDbEntity
  8
便器
  6
CONTINUOUS
 62
     7
100
AcDbCircle
 10
703.851074
 20
694.324005
 30
0.0
 40
80.0
100
AcDbArc
 50
315.584901
 51
0.0
  0
ARC
  5
138
100
AcDbEntity
  8
便器
  6
CONTINUOUS
 62
     7
100
AcDbCircle
 10
617.216277
 20
677.430496
 30
0.0
 40
100.0
100
AcDbArc
 50
26.881409
 51
70.612389
  0
ARC
  5
139
100
AcDbEntity
  8
便器
  6
CONTINUOUS
 62
     7
100
AcDbCircle
 10
933.806487
 20
666.214844
 30
0.0
 40
10.0
100
AcDbArc
 50
126.467102
 51
194.351563
  0
ARC
  5
13A
100
AcDbEntity
  8
便器
  6
CONTINUOUS
 62
     7
100
AcDbCircle
 10
583.404968
 20
643.155609
 30
0.0
 40
22.0
100
AcDbArc
 50
320.717712
 51
353.720703
  0
ARC
  5
13B
100
AcDbEntity
  8
便器
  6
CONTINUOUS
 62
     7
100
AcDbCircle
 10
1092.440826
 20
878.455231
 30
0.0
 40
8.0
100
AcDbArc
 50
0.0
 51
90.0
  0
ARC
  5
13C
100
AcDbEntity
  8
便器
  6
CONTINUOUS
 62
     7
100
AcDbCircle
 10
639.135558
 20
597.569428
 30
0.0
 40
50.0
100
AcDbArc
 50
140.717712
 51
174.679565
  0
ARC
  5
13D
100
AcDbEntity
  8
便器
  6
CONTINUOUS
 62
     7
100
AcDbCircle
 10
780.898834
 20
838.366974
 30
0.0
 40
90.0
100
AcDbArc
 50
211.828369
 51
256.973694
  0
LINE
  5
13E
100
AcDbEntity
  8
便器
  6
CONTINUOUS
 62
     7
100
AcDbLine
 10
565.440826
 20
886.455231
 30
0.0
 11
1092.440826
 21
886.455231
 31
0.0
  0
LINE
  5
13F
100
AcDbEntity
  8
便器
  6
CONTINUOUS
 62
     7
100
AcDbLine
 10
789.470733
 20
564.933838
 30
0.0
 11
620.272979
 21
564.933838
 31
0.0
  0
ARC
  5
140
100
AcDbEntity
  8
便器
  6
CONTINUOUS
 62
     7
100
AcDbCircle
 10
580.440826
 20
901.455231
 30
0.0
 40
15.0
100
AcDbArc
 50
180.0
 51
270.0
  0
ARC
  5
141
100
AcDbEntity
  8
便器
  6
CONTINUOUS
 62
     7
100
AcDbCircle
 10
-238.433197
 20
366.291352
 30
0.0
 40
1200.0
100
AcDbArc
 50
8.152191
 51
14.351532
  0
ARC
  5
142
100
AcDbEntity
  8
便器
  6
CONTINUOUS
 62
     7
100
AcDbCircle
 10
480.244171
 20
789.267578
 30
0.0
 40
400.0
100
AcDbArc
 50
329.200317
 51
344.363647
  0
ARC
  5
143
100
AcDbEntity
  8
便器
  6
CONTINUOUS
 62
     7
100
AcDbCircle
 10
870.368515
 20
944.948845
 30
0.0
 40
240.0
100
AcDbArc
 50
318.244302
 51
343.177979
  0
ARC
  5
144
100
AcDbEntity
  8
便器
  6
CONTINUOUS
 62
     7
100
AcDbCircle
 10
789.470733
 20
604.933838
 30
0.0
 40
40.0
100
AcDbArc
 50
270.000122
 51
329.200317
  0
ARC
  5
145
100
AcDbEntity
  8
便器
  6
CONTINUOUS
 62
     7
100
AcDbCircle
 10
745.710662
 20
367.972382
 30
0.0
 40
200.0
100
AcDbArc
 50
79.999847
 51
86.422443
  0
ARC
  5
146
100
AcDbEntity
  8
便器
  6
CONTINUOUS
 62
     7
100
AcDbCircle
 10
745.17099
 20
367.972382
 30
0.0
 40
200.0
100
AcDbArc
 50
93.577928
 51
100.000153
  0
ARC
  5
147
100
AcDbEntity
  8
便器
  6
CONTINUOUS
 62
     7
100
AcDbCircle
 10
1092.440826
 20
877.808072
 30
0.0
 40
8.0
100
AcDbArc
 50
343.177979
 51
2.318085
  0
LINE
  5
148
100
AcDbEntity
  8
便器
  6
CONTINUOUS
 62
     7
100
AcDbLine
 10
1092.440826
 20
886.455231
 30
0.0
 11
994.113098
 21
886.455231
 31
0.0
  0
ARC
  5
149
100
AcDbEntity
  8
便器
  6
CONTINUOUS
 62
     7
100
AcDbCircle
 10
452.373184
 20
1317.614838
 30
0.0
 40
800.0
100
AcDbArc
 50
306.467163
 51
318.292306
  0
ARC
  5
14A
100
AcDbEntity
  8
便器
  6
CONTINUOUS
 62
     7
100
AcDbCircle
 10
452.373184
 20
1317.614838
 30
0.0
 40
800.0
100
AcDbArc
 50
318.25919
 51
318.28125
  0
LINE
  5
14B
100
AcDbEntity
  8
便器
  6
CONTINUOUS
 62
     7
100
AcDbLine
 10
1049.509368
 20
785.234863
 30
0.0
 11
1049.302617
 21
785.005243
 31
0.0
  0
LINE
  5
14C
100
AcDbEntity
  8
便器
  6
CONTINUOUS
 62
     7
100
AcDbLine
 10
1042.920838
 20
777.917594
 30
0.0
 11
1042.834014
 21
777.821167
 31
0.0
  0
LINE
  5
14D
100
AcDbEntity
  8
便器
  6
CONTINUOUS
 62
     7
100
AcDbLine
 10
784.81089
 20
826.455231
 30
0.0
 11
881.3213
 21
826.455231
 31
0.0
  0
LINE
  5
14E
100
AcDbEntity
  8
便器
  6
CONTINUOUS
 62
     7
100
AcDbLine
 10
488.56735
 20
831.579179
 30
0.0
 11
546.01391
 21
801.641599
 31
0.0
  0
LINE
  5
14F
100
AcDbEntity
  8
便器
  6
CONTINUOUS
 62
     7
100
AcDbLine
 10
462.44081
 20
871.455384
 30
0.0
 11
540.440826
 21
871.455384
 31
0.0
  0
ARC
  5
150
100
AcDbEntity
  8
便器
  6
CONTINUOUS
 62
     7
100
AcDbCircle
 10
568.254627
 20
928.054291
 30
0.0
 40
120.0
100
AcDbArc
 50
208.141946
 51
223.445677
  0
ARC
  5
151
100
AcDbEntity
  8
便器
  6
CONTINUOUS
 62
     7
100
AcDbCircle
 10
565.440826
 20
901.455231
 30
0.0
 40
15.0
100
AcDbArc
 50
180.0
 51
270.0
  0
ARC
  5
152
100
AcDbEntity
  8
便器
  6
CONTINUOUS
 62
     7
100
AcDbCircle
 10
784.81089
 20
3826.455231
 30
0.0
 40
3000.0
100
AcDbArc
 50
264.37099
 51
270.0
  0
ARC
  5
153
100
AcDbEntity
  8
便器
  6
CONTINUOUS
 62
     7
100
AcDbCircle
 10
881.3213
 20
2526.455231
 30
0.0
 40
1700.0
100
AcDbArc
 50
270.0
 51
276.21765
  0
ARC
  5
154
100
AcDbEntity
  8
便器
  6
CONTINUOUS
 62
     7
100
AcDbCircle
 10
492.021825
 20
855.849305
 30
0.0
 40
15.0
100
AcDbArc
 50
223.445677
 51
264.37099
  0
ARC
  5
155
100
AcDbEntity
  8
便器
  6
CONTINUOUS
 62
     7
100
AcDbCircle
 10
620.272979
 20
579.933838
 30
0.0
 40
15.0
100
AcDbArc
 50
180.0
 51
270.0
  0
ARC
  5
156
100
AcDbEntity
  8
便器
  6
CONTINUOUS
 62
     7
100
AcDbCircle
 10
583.091839
 20
763.105544
 30
0.0
 40
3.0
100
AcDbArc
 50
280.000104
 51
14.745883
  0
ARC
  5
157
100
AcDbEntity
  8
便器
  6
CONTINUOUS
 62
     7
100
AcDbCircle
 10
537.63982
 20
751.142518
 30
0.0
 40
50.0
100
AcDbArc
 50
14.745883
 51
68.607847
  0
LINE
  5
158
100
AcDbEntity
  8
便器
  6
CONTINUOUS
 62
     7
100
AcDbLine
 10
603.611978
 20
753.621664
 30
0.0
 11
616.0325
 21
695.776137
 31
0.0
  0
LINE
  5
159
100
AcDbEntity
  8
便器
  6
CONTINUOUS
 62
     7
100
AcDbLine
 10
650.411994
 20
771.759942
 30
0.0
 11
549.624516
 21
807.228321
 31
0.0
  0
LINE
  5
15A
100
AcDbEntity
  8
便器
  6
CONTINUOUS
 62
     7
100
AcDbLine
 10
675.509764
 20
716.455231
 30
0.0
 11
596.911918
 21
790.58729
 31
0.0
  0
LINE
  5
15B
100
AcDbEntity
  8
便器
  6
CONTINUOUS
 62
     7
100
AcDbLine
 10
665.217695
 20
705.543158
 30
0.0
 11
610.267392
 21
757.371286
 31
0.0
  0
ARC
  5
15C
100
AcDbEntity
  8
便器
  6
CONTINUOUS
 62
     7
100
AcDbCircle
 10
607.52284
 20
754.4614
 30
0.0
 40
4.0
100
AcDbArc
 50
46.674838
 51
192.118479
  0
ARC
  5
15D
100
AcDbEntity
  8
便器
  6
CONTINUOUS
 62
     7
100
AcDbCircle
 10
653.665685
 20
794.754575
 30
0.0
 40
8.0
100
AcDbArc
 50
134.074269
 51
200.0
  0
LINE
  5
15E
100
AcDbEntity
  8
便器
  6
CONTINUOUS
 62
     7
100
AcDbLine
 10
646.148145
 20
792.018414
 30
0.0
 11
649.753026
 21
782.114084
 31
0.0
  0
ARC
  5
15F
100
AcDbEntity
  8
便器
  6
CONTINUOUS
 62
     7
100
AcDbCircle
 10
677.943804
 20
792.374689
 30
0.0
 40
30.0
100
AcDbArc
 50
200.0
 51
242.151528
  0
ARC
  5
160
100
AcDbEntity
  8
便器
  6
CONTINUOUS
 62
     7
100
AcDbCircle
 10
755.279831
 20
643.93469
 30
0.0
 40
8.0
100
AcDbArc
 50
206.881436
 51
315.584901
  0
LINE
  5
161
100
AcDbEntity
  8
便器
  6
CONTINUOUS
 62
     6
100
AcDbLine
 10
503.764826
 20
839.955384
 30
0.0
 11
504.432826
 21
840.623384
 31
0.0
  0
LINE
  5
162
100
AcDbEntity
  8
便器
  6
CONTINUOUS
 62
     6
100
AcDbLine
 10
497.116826
 20
839.955384
 30
0.0
 11
496.442826
 21
840.629384
 31
0.0
  0
LINE
  5
163
100
AcDbEntity
  8
便器
  6
CONTINUOUS
 62
     6
100
AcDbLine
 10
503.764826
 20
839.955384
 30
0.0
 11
497.116826
 21
839.955384
 31
0.0
  0
LINE
  5
164
100
AcDbEntity
  8
便器
  6
CONTINUOUS
 62
     6
100
AcDbLine
 10
515.440826
 20
870.262613
 30
0.0
 11
515.440826
 21
869.555231
 31
0.0
  0
LINE
  5
165
100
AcDbEntity
  8
便器
  6
CONTINUOUS
 62
     6
100
AcDbLine
 10
485.440826
 20
871.055231
 30
0.0
 11
485.440826
 21
869.555231
 31
0.0
  0
LINE
  5
166
100
AcDbEntity
  8
便器
  6
CONTINUOUS
 62
     6
100
AcDbLine
 10
492.934826
 20
863.055231
 30
0.0
 11
492.934826
 21
869.555231
 31
0.0
  0
LINE
  5
167
100
AcDbEntity
  8
便器
  6
CONTINUOUS
 62
     6
100
AcDbLine
 10
507.945826
 20
863.055231
 30
0.0
 11
507.945826
 21
869.555231
 31
0.0
  0
LINE
  5
168
100
AcDbEntity
  8
便器
  6
CONTINUOUS
 62
     6
100
AcDbLine
 10
507.945826
 20
863.055231
 30
0.0
 11
492.934826
 21
863.055231
 31
0.0
  0
LINE
  5
169
100
AcDbEntity
  8
便器
  6
CONTINUOUS
 62
     6
100
AcDbLine
 10
485.440826
 20
869.555231
 30
0.0
 11
515.440826
 21
869.555231
 31
0.0
  0
LINE
  5
16A
100
AcDbEntity
  8
便器
  6
CONTINUOUS
 62
     6
100
AcDbLine
 10
496.440826
 20
840.629384
 30
0.0
 11
496.440826
 21
863.055231
 31
0.0
  0
LINE
  5
16B
100
AcDbEntity
  8
便器
  6
CONTINUOUS
 62
     6
100
AcDbLine
 10
497.116826
 20
839.955384
 30
0.0
 11
497.116826
 21
863.055231
 31
0.0
  0
LINE
  5
16C
100
AcDbEntity
  8
便器
  6
CONTINUOUS
 62
     6
100
AcDbLine
 10
503.764826
 20
863.055231
 30
0.0
 11
503.764826
 21
839.955384
 31
0.0
  0
LINE
  5
16D
100
AcDbEntity
  8
便器
  6
CONTINUOUS
 62
     6
100
AcDbLine
 10
504.440826
 20
863.055231
 30
0.0
 11
504.440826
 21
840.623384
 31
0.0
  0
LINE
  5
16E
100
AcDbEntity
  8
便器
  6
CONTINUOUS
 62
     6
100
AcDbLine
 10
496.687826
 20
869.555231
 30
0.0
 11
496.687826
 21
863.055231
 31
0.0
  0
LINE
  5
16F
100
AcDbEntity
  8
便器
  6
CONTINUOUS
 62
     6
100
AcDbLine
 10
504.193826
 20
869.555231
 30
0.0
 11
504.193826
 21
863.055231
 31
0.0
  0
LINE
  5
170
100
AcDbEntity
  8
便器
  6
CONTINUOUS
 62
     6
100
AcDbLine
 10
496.440826
 20
840.629384
 30
0.0
 11
504.440826
 21
840.629384
 31
0.0
  0
LINE
  5
171
100
AcDbEntity
  8
便器
  6
CONTINUOUS
 62
     3
100
AcDbLine
 10
386.440868
 20
901.455408
 30
0.0
 11
210.440826
 21
901.455408
 31
0.0
  0
LINE
  5
172
100
AcDbEntity
  8
便器
  6
CONTINUOUS
 62
     6
100
AcDbLine
 10
652.440826
 20
794.455231
 30
0.0
 11
668.440826
 21
794.455231
 31
0.0
  0
LINE
  5
173
100
AcDbEntity
  8
便器
  6
CONTINUOUS
 62
     6
100
AcDbLine
 10
652.440826
 20
799.455231
 30
0.0
 11
652.440826
 21
794.455231
 31
0.0
  0
LINE
  5
174
100
AcDbEntity
  8
便器
  6
CONTINUOUS
 62
     6
100
AcDbLine
 10
668.440826
 20
799.455231
 30
0.0
 11
668.440826
 21
794.455231
 31
0.0
  0
LINE
  5
175
100
AcDbEntity
  8
便器
  6
CONTINUOUS
 62
     6
100
AcDbLine
 10
647.940826
 20
811.455231
 30
0.0
 11
672.940826
 21
811.455231
 31
0.0
  0
LINE
  5
176
100
AcDbEntity
  8
便器
  6
CONTINUOUS
 62
     6
100
AcDbLine
 10
647.940826
 20
809.455231
 30
0.0
 11
672.940826
 21
809.455231
 31
0.0
  0
LINE
  5
177
100
AcDbEntity
  8
便器
  6
CONTINUOUS
 62
     6
100
AcDbLine
 10
647.940826
 20
811.455231
 30
0.0
 11
647.940826
 21
809.455231
 31
0.0
  0
LINE
  5
178
100
AcDbEntity
  8
便器
  6
CONTINUOUS
 62
     6
100
AcDbLine
 10
672.940826
 20
811.455231
 30
0.0
 11
672.940826
 21
809.455231
 31
0.0
  0
LINE
  5
179
100
AcDbEntity
  8
便器
  6
CONTINUOUS
 62
     6
100
AcDbLine
 10
649.440826
 20
809.455231
 30
0.0
 11
649.440826
 21
801.955231
 31
0.0
  0
LINE
  5
17A
100
AcDbEntity
  8
便器
  6
CONTINUOUS
 62
     6
100
AcDbLine
 10
671.440826
 20
809.455231
 30
0.0
 11
671.440826
 21
801.955231
 31
0.0
  0
ARC
  5
17B
100
AcDbEntity
  8
便器
  6
CONTINUOUS
 62
     6
100
AcDbCircle
 10
653.915919
 20
804.237407
 30
0.0
 40
4.809773
100
AcDbArc
 50
208.325969
 51
331.674031
  0
ARC
  5
17C
100
AcDbEntity
  8
便器
  6
CONTINUOUS
 62
     6
100
AcDbCircle
 10
666.965733
 20
804.237407
 30
0.0
 40
4.809773
100
AcDbArc
 50
208.325969
 51
331.674031
  0
LINE
  5
17D
100
AcDbEntity
  8
便器
  6
CONTINUOUS
 62
     6
100
AcDbLine
 10
649.440826
 20
801.955231
 30
0.0
 11
651.940826
 21
799.455231
 31
0.0
  0
LINE
  5
17E
100
AcDbEntity
  8
便器
  6
CONTINUOUS
 62
     6
100
AcDbLine
 10
668.940826
 20
799.455231
 30
0.0
 11
671.440826
 21
801.955231
 31
0.0
  0
LINE
  5
17F
100
AcDbEntity
  8
便器
  6
CONTINUOUS
 62
     6
100
AcDbLine
 10
651.940826
 20
799.455231
 30
0.0
 11
668.940826
 21
799.455231
 31
0.0
  0
LINE
  5
180
100
AcDbEntity
  8
便器
  6
CONTINUOUS
 62
     6
100
AcDbLine
 10
658.149782
 20
809.455231
 30
0.0
 11
658.149782
 21
801.955231
 31
0.0
  0
LINE
  5
181
100
AcDbEntity
  8
便器
  6
CONTINUOUS
 62
     6
100
AcDbLine
 10
662.731871
 20
809.455231
 30
0.0
 11
662.731871
 21
801.955231
 31
0.0
  0
LINE
  5
182
100
AcDbEntity
  8
便器
  6
CONTINUOUS
 62
     6
100
AcDbLine
 10
658.149782
 20
801.955231
 30
0.0
 11
662.731871
 21
801.955231
 31
0.0
  0
LINE
  5
183
100
AcDbEntity
  8
便器
  6
CONTINUOUS
 62
     7
100
AcDbLine
 10
583.612789
 20
760.151122
 30
0.0
 11
578.18632
 21
759.194278
 31
0.0
  0
ARC
  5
184
100
AcDbEntity
  8
便器
  6
CONTINUOUS
 62
     7
100
AcDbCircle
 10
578.456664
 20
757.718842
 30
0.0
 40
1.5
100
AcDbArc
 50
100.001587
 51
189.999817
  0
LINE
  5
185
100
AcDbEntity
  8
便器
  6
CONTINUOUS
 62
     7
100
AcDbLine
 10
593.127913
 20
665.87531
 30
0.0
 11
576.980126
 21
757.453966
 31
0.0
  0
LINE
  5
186
100
AcDbEntity
  8
便器
  6
CONTINUOUS
 62
     7
100
AcDbLine
 10
607.673936
 20
663.983437
 30
0.0
 11
586.128504
 21
763.626507
 31
0.0
  0
LINE
  5
187
100
AcDbEntity
  8
便器
  6
CONTINUOUS
 62
     7
100
AcDbLine
 10
594.866424
 20
664.654419
 30
0.0
 11
604.220748
 21
666.303848
 31
0.0
  0
ARC
  5
188
100
AcDbEntity
  8
便器
  6
CONTINUOUS
 62
     7
100
AcDbCircle
 10
604.741699
 20
663.349411
 30
0.0
 40
3.0
100
AcDbArc
 50
353.720703
 51
100.000122
  0
ARC
  5
189
100
AcDbEntity
  8
便器
  6
CONTINUOUS
 62
     7
100
AcDbCircle
 10
594.605918
 20
666.131397
 30
0.0
 40
1.5
100
AcDbArc
 50
190.000081
 51
279.998311
  0
LINE
  5
18A
100
AcDbEntity
  8
便器
  6
CONTINUOUS
 62
     3
100
AcDbLine
 10
818.918363
 20
706.455231
 30
0.0
 11
555.509849
 21
706.455231
 31
0.0
  0
ARC
  5
18B
100
AcDbEntity
  8
便器
  6
CONTINUOUS
 62
     6
100
AcDbCircle
 10
734.459381
 20
564.296631
 30
0.0
 40
21.998959
100
AcDbArc
 50
1.658232
 51
46.657364
  0
ARC
  5
18C
100
AcDbEntity
  8
便器
  6
CONTINUOUS
 62
     6
100
AcDbCircle
 10
745.440826
 20
575.934814
 30
0.0
 40
6.000327
100
AcDbArc
 50
46.653809
 51
133.346207
  0
ARC
  5
18D
100
AcDbEntity
  8
便器
  6
CONTINUOUS
 62
     6
100
AcDbCircle
 10
756.422272
 20
564.296631
 30
0.0
 40
22.000227
100
AcDbArc
 50
133.342773
 51
178.341858
  0
ARC
  5
18E
100
AcDbEntity
  8
便器
  6
CONTINUOUS
 62
     6
100
AcDbCircle
 10
728.344269
 20
513.965982
 30
0.0
 40
20.0
100
AcDbArc
 50
328.740234
 51
1.073222
  0
ARC
  5
18F
100
AcDbEntity
  8
便器
  6
CONTINUOUS
 62
     6
100
AcDbCircle
 10
762.537384
 20
513.965982
 30
0.0
 40
20.0
100
AcDbArc
 50
178.926758
 51
211.259766
  0
LINE
  5
190
100
AcDbEntity
  8
便器
  6
CONTINUOUS
 62
     6
100
AcDbLine
 10
742.540741
 20
514.340586
 30
0.0
 11
742.540741
 21
536.455231
 31
0.0
  0
LINE
  5
191
100
AcDbEntity
  8
便器
  6
CONTINUOUS
 62
     6
100
AcDbLine
 10
748.340607
 20
514.340586
 30
0.0
 11
748.340607
 21
536.455231
 31
0.0
  0
LINE
  5
192
100
AcDbEntity
  8
便器
  6
CONTINUOUS
 62
     7
100
AcDbLine
 10
547.174793
 20
753.725925
 30
0.0
 11
548.954571
 21
754.03976
 31
0.0
  0
LINE
  5
193
100
AcDbEntity
  8
便器
  6
CONTINUOUS
 62
     7
100
AcDbLine
 10
550.166964
 20
753.712171
 30
0.0
 11
552.6198
 21
751.639774
 31
0.0
  0
LINE
  5
194
100
AcDbEntity
  8
便器
  6
CONTINUOUS
 62
     7
100
AcDbLine
 10
575.762753
 20
755.720491
 30
0.0
 11
552.6198
 21
751.639774
 31
0.0
  0
ARC
  5
195
100
AcDbEntity
  8
便器
  6
CONTINUOUS
 62
     7
100
AcDbCircle
 10
549.205432
 20
752.560886
 30
0.0
 40
1.5
100
AcDbArc
 50
49.805786
 51
99.999878
  0
ARC
  5
196
100
AcDbEntity
  8
便器
  6
CONTINUOUS
 62
     7
100
AcDbCircle
 10
575.502277
 20
757.197726
 30
0.0
 40
1.5
100
AcDbArc
 50
279.999207
 51
9.998627
  0
LINE
  5
197
100
AcDbEntity
  8
便器
  6
CONTINUOUS
 62
     7
100
AcDbLine
 10
563.844904
 20
659.184536
 30
0.0
 11
565.624686
 21
659.498344
 31
0.0
  0
LINE
  5
198
100
AcDbEntity
  8
便器
  6
CONTINUOUS
 62
     7
100
AcDbLine
 10
566.651923
 20
660.220839
 30
0.0
 11
568.248038
 21
663.007171
 31
0.0
  0
LINE
  5
199
100
AcDbEntity
  8
便器
  6
CONTINUOUS
 62
     7
100
AcDbLine
 10
591.390995
 20
667.087866
 30
0.0
 11
568.248038
 21
663.007171
 31
0.0
  0
ARC
  5
19A
100
AcDbEntity
  8
便器
  6
CONTINUOUS
 62
     7
100
AcDbCircle
 10
565.354617
 20
660.973832
 30
0.0
 40
1.5
100
AcDbArc
 50
280.00002
 51
330.194112
  0
ARC
  5
19B
100
AcDbEntity
  8
便器
  6
CONTINUOUS
 62
     7
100
AcDbCircle
 10
591.651469
 20
665.610631
 30
0.0
 40
1.5
100
AcDbArc
 50
10.001271
 51
100.000691
  0
LINE
  5
19C
100
AcDbEntity
  8
便器
  6
CONTINUOUS
 62
     7
100
AcDbLine
 10
547.174793
 20
753.725925
 30
0.0
 11
563.844904
 21
659.184536
 31
0.0
  0
LINE
  5
19D
100
AcDbEntity
  8
便器
  6
CONTINUOUS
 62
     7
100
AcDbLine
 10
552.6198
 20
751.639774
 30
0.0
 11
568.248038
 21
663.007171
 31
0.0
  0
LINE
  5
19E
100
AcDbEntity
  8
便器
  6
CONTINUOUS
 62
     3
100
AcDbLine
 10
463.105005
 20
738.902153
 30
0.0
 11
542.250754
 21
752.857684
 31
0.0
  0
LINE
  5
19F
100
AcDbEntity
  8
便器
  6
CONTINUOUS
 62
     3
100
AcDbLine
 10
558.920866
 20
658.316295
 30
0.0
 11
479.7752
 21
644.360779
 31
0.0
  0
LINE
  5
1A0
100
AcDbEntity
  8
便器
  6
CONTINUOUS
 62
     3
100
AcDbLine
 10
555.509849
 20
706.455231
 30
0.0
 11
555.509849
 21
569.455231
 31
0.0
  0
LINE
  5
1A1
100
AcDbEntity
  8
便器
  6
CONTINUOUS
 62
     3
100
AcDbLine
 10
1107.440826
 20
886.455231
 30
0.0
 11
1157.0
 21
886.455231
 31
0.0
  0
LINE
  5
1A2
100
AcDbEntity
  8
便器
  6
EXLTYPE3
 62
     1
100
AcDbLine
 10
1120.441132
 20
2380.34668
 30
0.0
 11
350.441132
 21
2380.34668
 31
0.0
  0
LINE
  5
1A3
100
AcDbEntity
  8
便器
  6
CONTINUOUS
 62
     3
100
AcDbLine
 10
896.440779
 20
2557.84668
 30
0.0
 11
1200.441132
 21
2557.84668
 31
0.0
  0
LINE
  5
1A4
100
AcDbEntity
  8
便器
  6
CONTINUOUS
 62
     3
100
AcDbLine
 10
896.440779
 20
2202.84668
 30
0.0
 11
1200.441132
 21
2202.84668
 31
0.0
  0
ARC
  5
1A5
100
AcDbEntity
  8
便器
  6
CONTINUOUS
 62
     7
100
AcDbCircle
 10
1503.466553
 20
819.094299
 30
0.0
 40
5.0
100
AcDbArc
 50
27.785927
 51
81.469299
  0
LINE
  5
1A6
100
AcDbEntity
  8
便器
  6
CONTINUOUS
 62
     7
100
AcDbLine
 10
1491.300171
 20
825.97522
 30
0.0
 11
1503.535828
 21
824.139862
 31
0.0
  0
ARC
  5
1A7
100
AcDbEntity
  8
便器
  6
CONTINUOUS
 62
     7
100
AcDbCircle
 10
1474.364624
 20
1226.511078
 30
0.0
 40
400.0
100
AcDbArc
 50
272.512308
 51
282.802368
  0
ARC
  5
1A8
100
AcDbEntity
  8
便器
  6
CONTINUOUS
 62
     7
100
AcDbCircle
 10
1446.865906
 20
1219.225006
 30
0.0
 40
400.0
100
AcDbArc
 50
278.573914
 51
286.878052
  0
ARC
  5
1A9
100
AcDbEntity
  8
便器
  6
CONTINUOUS
 62
     7
100
AcDbCircle
 10
1712.650452
 20
907.044159
 30
0.0
 40
240.0
100
AcDbArc
 50
187.078444
 51
198.380981
  0
ARC
  5
1AA
100
AcDbEntity
  8
便器
  6
CONTINUOUS
 62
     7
100
AcDbCircle
 10
1492.486877
 20
833.886689
 30
0.0
 40
8.0
100
AcDbArc
 50
198.38092
 51
262.010518
  0
ARC
  5
1AB
100
AcDbEntity
  8
便器
  6
CONTINUOUS
 62
     7
100
AcDbCircle
 10
1194.0
 20
692.097931
 30
0.0
 40
400.0
100
AcDbArc
 50
359.007405
 51
0.127434
  0
LINE
  5
1AC
100
AcDbEntity
  8
便器
  6
CONTINUOUS
 62
     7
100
AcDbLine
 10
1482.418671
 20
886.455231
 30
0.0
 11
1821.581329
 21
886.455231
 31
0.0
  0
ARC
  5
1AD
100
AcDbEntity
  8
便器
  6
CONTINUOUS
 62
     7
100
AcDbCircle
 10
1482.418671
 20
878.455231
 30
0.0
 40
8.0
100
AcDbArc
 50
90.0
 51
187.078444
  0
LINE
  5
1AE
100
AcDbEntity
  8
便器
  6
CONTINUOUS
 62
     7
100
AcDbLine
 10
1539.5
 20
536.455231
 30
0.0
 11
1567.706556
 21
625.104408
 31
0.0
  0
ARC
  5
1AF
100
AcDbEntity
  8
便器
  6
CONTINUOUS
 62
     7
100
AcDbCircle
 10
1543.94748
 20
686.034815
 30
0.0
 40
50.0
100
AcDbArc
 50
322.530539
 51
359.007405
  0
ARC
  5
1B0
100
AcDbEntity
  8
便器
  6
CONTINUOUS
 62
     7
100
AcDbCircle
 10
1662.999134
 20
594.784043
 30
0.0
 40
100.0
100
AcDbArc
 50
142.530539
 51
162.349876
  0
ARC
  5
1B1
100
AcDbEntity
  8
便器
  6
CONTINUOUS
 62
     7
100
AcDbCircle
 10
1513.999209
 20
692.809658
 30
0.0
 40
80.0
100
AcDbArc
 50
0.127434
 51
52.402769
  0
ARC
  5
1B2
100
AcDbEntity
  8
便器
  6
CONTINUOUS
 62
     7
100
AcDbCircle
 10
1684.829131
 20
914.659016
 30
0.0
 40
200.0
100
AcDbArc
 50
207.785927
 51
232.402769
  0
LINE
  5
1B3
100
AcDbEntity
  8
便器
  6
CONTINUOUS
 62
     7
100
AcDbLine
 10
1812.699829
 20
825.97522
 30
0.0
 11
1800.464172
 21
824.139862
 31
0.0
  0
ARC
  5
1B4
100
AcDbEntity
  8
便器
  6
CONTINUOUS
 62
     7
100
AcDbCircle
 10
1829.635376
 20
1226.511078
 30
0.0
 40
400.0
100
AcDbArc
 50
257.197632
 51
267.487692
  0
ARC
  5
1B5
100
AcDbEntity
  8
便器
  6
CONTINUOUS
 62
     7
100
AcDbCircle
 10
1857.134094
 20
1219.225006
 30
0.0
 40
400.0
100
AcDbArc
 50
253.121948
 51
261.426086
  0
ARC
  5
1B6
100
AcDbEntity
  8
便器
  6
CONTINUOUS
 62
     7
100
AcDbCircle
 10
1591.349548
 20
907.044159
 30
0.0
 40
240.0
100
AcDbArc
 50
341.619019
 51
352.921556
  0
ARC
  5
1B7
100
AcDbEntity
  8
便器
  6
CONTINUOUS
 62
     7
100
AcDbCircle
 10
1811.513123
 20
833.886689
 30
0.0
 40
8.0
100
AcDbArc
 50
277.989482
 51
341.61908
  0
ARC
  5
1B8
100
AcDbEntity
  8
便器
  6
CONTINUOUS
 62
     7
100
AcDbCircle
 10
1821.581329
 20
878.455231
 30
0.0
 40
8.0
100
AcDbArc
 50
352.921556
 51
90.0
  0
LINE
  5
1B9
100
AcDbEntity
  8
便器
  6
CONTINUOUS
 62
     7
100
AcDbLine
 10
1764.5
 20
536.455231
 30
0.0
 11
1736.293444
 21
625.104408
 31
0.0
  0
ARC
  5
1BA
100
AcDbEntity
  8
便器
  6
CONTINUOUS
 62
     7
100
AcDbCircle
 10
1760.05252
 20
686.034815
 30
0.0
 40
50.0
100
AcDbArc
 50
180.992595
 51
217.469461
  0
ARC
  5
1BB
100
AcDbEntity
  8
便器
  6
CONTINUOUS
 62
     7
100
AcDbCircle
 10
1641.000866
 20
594.784043
 30
0.0
 40
100.0
100
AcDbArc
 50
17.650124
 51
37.469461
  0
ARC
  5
1BC
100
AcDbEntity
  8
便器
  6
CONTINUOUS
 62
     7
100
AcDbCircle
 10
2110.0
 20
692.097931
 30
0.0
 40
400.0
100
AcDbArc
 50
179.872566
 51
180.992595
  0
ARC
  5
1BD
100
AcDbEntity
  8
便器
  6
CONTINUOUS
 62
     7
100
AcDbCircle
 10
1619.170869
 20
914.659016
 30
0.0
 40
200.0
100
AcDbArc
 50
307.597231
 51
332.214073
  0
ARC
  5
1BE
100
AcDbEntity
  8
便器
  6
CONTINUOUS
 62
     7
100
AcDbCircle
 10
1800.533447
 20
819.094299
 30
0.0
 40
5.0
100
AcDbArc
 50
98.530701
 51
152.214073
  0
ARC
  5
1BF
100
AcDbEntity
  8
便器
  6
CONTINUOUS
 62
     7
100
AcDbCircle
 10
1790.000791
 20
692.809658
 30
0.0
 40
80.0
100
AcDbArc
 50
127.597231
 51
179.872566
  0
ARC
  5
1C0
100
AcDbEntity
  8
便器
  6
CONTINUOUS
 62
     6
100
AcDbCircle
 10
1564.903442
 20
513.965982
 30
0.0
 40
20.0
100
AcDbArc
 50
328.740234
 51
1.073222
  0
ARC
  5
1C1
100
AcDbEntity
  8
便器
  6
CONTINUOUS
 62
     6
100
AcDbCircle
 10
1599.096558
 20
513.965982
 30
0.0
 40
20.0
100
AcDbArc
 50
178.926758
 51
211.259766
  0
LINE
  5
1C2
100
AcDbEntity
  8
便器
  6
CONTINUOUS
 62
     6
100
AcDbLine
 10
1579.099914
 20
514.340586
 30
0.0
 11
1579.099914
 21
536.455231
 31
0.0
  0
LINE
  5
1C3
100
AcDbEntity
  8
便器
  6
CONTINUOUS
 62
     6
100
AcDbLine
 10
1584.89978
 20
514.340586
 30
0.0
 11
1584.89978
 21
536.455231
 31
0.0
  0
ARC
  5
1C4
100
AcDbEntity
  8
便器
  6
CONTINUOUS
 62
     6
100
AcDbCircle
 10
1704.903442
 20
513.965982
 30
0.0
 40
20.0
100
AcDbArc
 50
328.740234
 51
1.073222
  0
ARC
  5
1C5
100
AcDbEntity
  8
便器
  6
CONTINUOUS
 62
     6
100
AcDbCircle
 10
1739.096558
 20
513.965982
 30
0.0
 40
20.0
100
AcDbArc
 50
178.926758
 51
211.259766
  0
LINE
  5
1C6
100
AcDbEntity
  8
便器
  6
CONTINUOUS
 62
     6
100
AcDbLine
 10
1719.099914
 20
514.340586
 30
0.0
 11
1719.099914
 21
536.455231
 31
0.0
  0
LINE
  5
1C7
100
AcDbEntity
  8
便器
  6
CONTINUOUS
 62
     6
100
AcDbLine
 10
1724.89978
 20
514.340586
 30
0.0
 11
1724.89978
 21
536.455231
 31
0.0
  0
CIRCLE
  5
1C8
100
AcDbEntity
  8
便器
  6
EXLTYPE2
 62
     2
100
AcDbCircle
 10
745.441132
 20
2450.34668
 30
0.0
 40
5.5
  0
LINE
  5
1C9
100
AcDbEntity
  8
便器
  6
EXLTYPE3
 62
     1
100
AcDbLine
 10
1652.0
 20
516.455231
 30
0.0
 11
1652.0
 21
1476.455078
 31
0.0
  0
LINE
  5
1CA
100
AcDbEntity
  8
便器
  6
CONTINUOUS
 62
     3
100
AcDbLine
 10
1100.441132
 20
1987.999084
 30
0.0
 11
1100.441132
 21
2380.0
 31
0.0
  0
LINE
  5
1CB
100
AcDbEntity
  8
タンク
  6
CONTINUOUS
 62
     3
100
AcDbLine
 10
350.441132
 20
2380.34668
 30
0.0
 11
270.441132
 21
2380.34668
 31
0.0
  0
ARC
  5
1CC
100
AcDbEntity
  8
タンク
  6
CONTINUOUS
 62
     7
100
AcDbCircle
 10
496.441114
 20
2380.34668
 30
0.0
 40
8.999957
100
AcDbArc
 50
286.169477
 51
73.830523
  0
LINE
  5
1CD
100
AcDbEntity
  8
タンク
  6
CONTINUOUS
 62
     7
100
AcDbLine
 10
552.083509
 20
2170.34668
 30
0.0
 11
395.441205
 21
2170.34668
 31
0.0
  0
ARC
  5
1CE
100
AcDbEntity
  8
タンク
  6
CONTINUOUS
 62
     7
100
AcDbCircle
 10
552.083509
 20
2203.34671
 30
0.0
 40
33.000031
100
AcDbArc
 50
270.000031
 51
355.885559
  0
ARC
  5
1CF
100
AcDbEntity
  8
タンク
  6
CONTINUOUS
 62
     7
100
AcDbCircle
 10
-1908.558886
 20
2380.345154
 30
0.0
 40
2500.0
100
AcDbArc
 50
355.885805
 51
4.114318
  0
ARC
  5
1D0
100
AcDbEntity
  8
タンク
  6
CONTINUOUS
 62
     7
100
AcDbCircle
 10
552.083203
 20
2557.346649
 30
0.0
 40
33.000088
100
AcDbArc
 50
4.114417
 51
89.999969
  0
LINE
  5
1D1
100
AcDbEntity
  8
タンク
  6
CONTINUOUS
 62
     7
100
AcDbLine
 10
552.083203
 20
2590.34668
 30
0.0
 11
395.4409
 21
2590.34668
 31
0.0
  0
ARC
  5
1D2
100
AcDbEntity
  8
タンク
  6
CONTINUOUS
 62
     7
100
AcDbCircle
 10
395.4409
 20
2586.346741
 30
0.0
 40
3.999939
100
AcDbArc
 50
89.999969
 51
180.000015
  0
LINE
  5
1D3
100
AcDbEntity
  8
タンク
  6
CONTINUOUS
 62
     7
100
AcDbLine
 10
391.441266
 20
2174.346619
 30
0.0
 11
391.440961
 21
2586.346741
 31
0.0
  0
ARC
  5
1D4
100
AcDbEntity
  8
タンク
  6
CONTINUOUS
 62
     7
100
AcDbCircle
 10
395.441205
 20
2174.346619
 30
0.0
 40
4.000092
100
AcDbArc
 50
180.000015
 51
270.0
  0
ARC
  5
1D5
100
AcDbEntity
  8
タンク
  6
CONTINUOUS
 62
     7
100
AcDbCircle
 10
444.670484
 20
2200.34668
 30
0.0
 40
30.0
100
AcDbArc
 50
180.000015
 51
241.352081
  0
ARC
  5
1D6
100
AcDbEntity
  8
タンク
  6
CONTINUOUS
 62
     7
100
AcDbCircle
 10
444.670179
 20
2560.34668
 30
0.0
 40
30.0
100
AcDbArc
 50
118.647873
 51
180.000015
  0
ARC
  5
1D7
100
AcDbEntity
  8
タンク
  6
CONTINUOUS
 62
     6
100
AcDbCircle
 10
465.326306
 20
2563.422852
 30
0.0
 40
200.0
100
AcDbArc
 50
271.17012
 51
275.743774
  0
LINE
  5
1D8
100
AcDbEntity
  8
タンク
  6
CONTINUOUS
 62
     6
100
AcDbLine
 10
469.410321
 20
2363.464661
 30
0.0
 11
414.670331
 21
2362.346649
 31
0.0
  0
ARC
  5
1D9
100
AcDbEntity
  8
タンク
  6
CONTINUOUS
 62
     6
100
AcDbCircle
 10
465.326612
 20
2197.270508
 30
0.0
 40
200.0
100
AcDbArc
 50
84.256393
 51
88.830109
  0
ARC
  5
1DA
100
AcDbEntity
  8
タンク
  6
CONTINUOUS
 62
     6
100
AcDbCircle
 10
483.740918
 20
2380.34668
 30
0.0
 40
15.999975
100
AcDbArc
 50
275.743713
 51
84.256287
  0
LINE
  5
1DB
100
AcDbEntity
  8
タンク
  6
CONTINUOUS
 62
     6
100
AcDbLine
 10
469.410321
 20
2397.228699
 30
0.0
 11
414.670331
 21
2398.34671
 31
0.0
  0
LINE
  5
1DC
100
AcDbEntity
  8
タンク
  6
CONTINUOUS
 62
     7
100
AcDbLine
 10
414.670179
 20
2560.346672
 30
0.0
 11
414.670179
 21
2200.346672
 31
0.0
  0
LINE
  5
1DD
100
AcDbEntity
  8
タンク
  6
CONTINUOUS
 62
     6
100
AcDbLine
 10
549.685761
 20
2590.34668
 30
0.0
 11
549.68576
 21
2605.890635
 31
0.0
  0
LINE
  5
1DE
100
AcDbEntity
  8
タンク
  6
CONTINUOUS
 62
     6
100
AcDbLine
 10
513.196159
 20
2590.34668
 30
0.0
 11
513.19616
 21
2605.890626
 31
0.0
  0
ARC
  5
1DF
100
AcDbEntity
  8
タンク
  6
CONTINUOUS
 62
     6
100
AcDbCircle
 10
525.35933
 20
2612.166131
 30
0.0
 40
4.0544
100
AcDbArc
 50
122.196686
 51
161.721527
  0
ARC
  5
1E0
100
AcDbEntity
  8
タンク
  6
CONTINUOUS
 62
     6
100
AcDbCircle
 10
537.522066
 20
2612.166455
 30
0.0
 40
4.0544
100
AcDbArc
 50
18.280151
 51
57.805664
  0
ARC
  5
1E1
100
AcDbEntity
  8
タンク
  6
CONTINUOUS
 62
     6
100
AcDbCircle
 10
531.44096
 20
2609.159512
 30
0.0
 40
9.1224
100
AcDbArc
 50
80.66687
 51
90.0
  0
ARC
  5
1E2
100
AcDbEntity
  8
タンク
  6
CONTINUOUS
 62
     6
100
AcDbCircle
 10
529.961546
 20
2600.157889
 30
0.0
 40
18.2448
100
AcDbArc
 50
57.805664
 51
80.66687
  0
ARC
  5
1E3
100
AcDbEntity
  8
タンク
  6
CONTINUOUS
 62
     6
100
AcDbCircle
 10
532.920374
 20
2600.157885
 30
0.0
 40
18.2448
100
AcDbArc
 50
99.33316
 51
122.196716
  0
ARC
  5
1E4
100
AcDbEntity
  8
タンク
  6
CONTINUOUS
 62
     6
100
AcDbCircle
 10
531.44096
 20
2609.159512
 30
0.0
 40
9.1224
100
AcDbArc
 50
90.0
 51
99.33316
  0
ARC
  5
1E5
100
AcDbEntity
  8
タンク
  6
CONTINUOUS
 62
     6
100
AcDbCircle
 10
544.656981
 20
2605.611413
 30
0.0
 40
5.068
100
AcDbArc
 50
15.989868
 51
62.588623
  0
ARC
  5
1E6
100
AcDbEntity
  8
タンク
  6
CONTINUOUS
 62
     6
100
AcDbCircle
 10
544.656981
 20
2605.611413
 30
0.0
 40
5.068
100
AcDbArc
 50
15.989868
 51
62.588623
  0
ARC
  5
1E7
100
AcDbEntity
  8
タンク
  6
CONTINUOUS
 62
     6
100
AcDbCircle
 10
539.990581
 20
2596.613448
 30
0.0
 40
15.204
100
AcDbArc
 50
62.588623
 51
66.453674
  0
ARC
  5
1E8
100
AcDbEntity
  8
タンク
  6
CONTINUOUS
 62
     6
100
AcDbCircle
 10
558.217222
 20
2634.445081
 30
0.0
 40
26.926876
100
AcDbArc
 50
231.274048
 51
234.443848
  0
ARC
  5
1E9
100
AcDbEntity
  8
タンク
  6
CONTINUOUS
 62
     6
100
AcDbCircle
 10
553.758009
 20
2628.206417
 30
0.0
 40
19.2584
100
AcDbArc
 50
234.443848
 51
246.453674
  0
ARC
  5
1EA
100
AcDbEntity
  8
タンク
  6
CONTINUOUS
 62
     6
100
AcDbCircle
 10
517.250561
 20
2605.89063
 30
0.0
 40
4.0544
100
AcDbArc
 50
164.010132
 51
180.0
  0
ARC
  5
1EB
100
AcDbEntity
  8
タンク
  6
CONTINUOUS
 62
     6
100
AcDbCircle
 10
518.22497
 20
2605.611424
 30
0.0
 40
5.068
100
AcDbArc
 50
117.411407
 51
164.010132
  0
ARC
  5
1EC
100
AcDbEntity
  8
タンク
  6
CONTINUOUS
 62
     6
100
AcDbCircle
 10
522.89134
 20
2596.613447
 30
0.0
 40
15.204
100
AcDbArc
 50
113.546326
 51
117.411407
  0
ARC
  5
1ED
100
AcDbEntity
  8
タンク
  6
CONTINUOUS
 62
     6
100
AcDbCircle
 10
509.123913
 20
2628.206415
 30
0.0
 40
19.2584
100
AcDbArc
 50
293.546326
 51
305.556152
  0
ARC
  5
1EE
100
AcDbEntity
  8
タンク
  6
CONTINUOUS
 62
     6
100
AcDbCircle
 10
504.664696
 20
2634.445092
 30
0.0
 40
26.926876
100
AcDbArc
 50
305.556152
 51
308.724487
  0
ARC
  5
1EF
100
AcDbEntity
  8
タンク
  6
CONTINUOUS
 62
     6
100
AcDbCircle
 10
545.63136
 20
2605.890633
 30
0.0
 40
4.0544
100
AcDbArc
 50
0.0
 51
15.989868
  0
LINE
  5
1F0
100
AcDbEntity
  8
タンク
  6
CONTINUOUS
 62
     6
100
AcDbLine
 10
434.714883
 20
2166.34668
 30
0.0
 11
434.714883
 21
2170.34668
 31
0.0
  0
LINE
  5
1F1
100
AcDbEntity
  8
タンク
  6
CONTINUOUS
 62
     6
100
AcDbLine
 10
457.714883
 20
2166.34668
 30
0.0
 11
457.714883
 21
2170.34668
 31
0.0
  0
LINE
  5
1F2
100
AcDbEntity
  8
タンク
  6
CONTINUOUS
 62
     6
100
AcDbLine
 10
434.714883
 20
2166.34668
 30
0.0
 11
457.714883
 21
2166.34668
 31
0.0
  0
ARC
  5
1F3
100
AcDbEntity
  8
タンク
  6
CONTINUOUS
 62
     6
100
AcDbCircle
 10
440.464883
 20
2174.674805
 30
0.0
 40
8.328125
100
AcDbArc
 50
235.073527
 51
304.926473
  0
ARC
  5
1F4
100
AcDbEntity
  8
タンク
  6
CONTINUOUS
 62
     6
100
AcDbCircle
 10
451.964883
 20
2174.674805
 30
0.0
 40
8.328125
100
AcDbArc
 50
235.073527
 51
304.926473
  0
LINE
  5
1F5
100
AcDbEntity
  8
タンク
  6
CONTINUOUS
 62
     6
100
AcDbLine
 10
456.732941
 20
2170.34668
 30
0.0
 11
456.732941
 21
2167.84668
 31
0.0
  0
LINE
  5
1F6
100
AcDbEntity
  8
タンク
  6
CONTINUOUS
 62
     6
100
AcDbLine
 10
447.196825
 20
2170.34668
 30
0.0
 11
447.196825
 21
2167.84668
 31
0.0
  0
LINE
  5
1F7
100
AcDbEntity
  8
タンク
  6
CONTINUOUS
 62
     6
100
AcDbLine
 10
445.232941
 20
2170.34668
 30
0.0
 11
445.232941
 21
2167.84668
 31
0.0
  0
LINE
  5
1F8
100
AcDbEntity
  8
タンク
  6
CONTINUOUS
 62
     6
100
AcDbLine
 10
435.696825
 20
2170.34668
 30
0.0
 11
435.696825
 21
2167.84668
 31
0.0
  0
LINE
  5
1F9
100
AcDbEntity
  8
タンク
  6
CONTINUOUS
 62
     6
100
AcDbLine
 10
434.714883
 20
2167.84668
 30
0.0
 11
435.696825
 21
2167.84668
 31
0.0
  0
LINE
  5
1FA
100
AcDbEntity
  8
タンク
  6
CONTINUOUS
 62
     6
100
AcDbLine
 10
445.232941
 20
2167.84668
 30
0.0
 11
447.196825
 21
2167.84668
 31
0.0
  0
LINE
  5
1FB
100
AcDbEntity
  8
タンク
  6
CONTINUOUS
 62
     6
100
AcDbLine
 10
456.732941
 20
2167.84668
 30
0.0
 11
457.714883
 21
2167.84668
 31
0.0
  0
LINE
  5
1FC
100
AcDbEntity
  8
タンク
  6
CONTINUOUS
 62
     6
100
AcDbLine
 10
435.737383
 20
2153.84668
 30
0.0
 11
435.737383
 21
2166.34668
 31
0.0
  0
LINE
  5
1FD
100
AcDbEntity
  8
タンク
  6
CONTINUOUS
 62
     6
100
AcDbLine
 10
436.899383
 20
2166.34668
 30
0.0
 11
436.899383
 21
2153.84668
 31
0.0
  0
LINE
  5
1FE
100
AcDbEntity
  8
タンク
  6
CONTINUOUS
 62
     6
100
AcDbLine
 10
455.530383
 20
2166.34668
 30
0.0
 11
455.530383
 21
2153.84668
 31
0.0
  0
LINE
  5
1FF
100
AcDbEntity
  8
タンク
  6
CONTINUOUS
 62
     6
100
AcDbLine
 10
456.692383
 20
2166.34668
 30
0.0
 11
456.692383
 21
2153.84668
 31
0.0
  0
LINE
  5
200
100
AcDbEntity
  8
タンク
  6
CONTINUOUS
 62
     3
100
AcDbLine
 10
380.441133
 20
2095.34668
 30
0.0
 11
270.441133
 21
2095.34668
 31
0.0
  0
LINE
  5
201
100
AcDbEntity
  8
タンク
  6
CONTINUOUS
 62
     3
100
AcDbLine
 10
468.841035
 20
2095.34668
 30
0.0
 11
412.441133
 21
2095.34668
 31
0.0
  0
LINE
  5
202
100
AcDbEntity
  8
タンク
  6
CONTINUOUS
 62
     3
100
AcDbLine
 10
400.441133
 20
2095.34668
 30
0.0
 11
392.441133
 21
2095.34668
 31
0.0
  0
LINE
  5
203
100
AcDbEntity
  8
タンク
  6
CONTINUOUS
 62
     3
100
AcDbLine
 10
446.440826
 20
1224.449099
 30
0.0
 11
446.440826
 21
1273.276308
 31
0.0
  0
LINE
  5
204
100
AcDbEntity
  8
タンク
  6
CONTINUOUS
 62
     3
100
AcDbLine
 10
446.440826
 20
1204.449099
 30
0.0
 11
446.440826
 21
1214.449099
 31
0.0
  0
LINE
  5
205
100
AcDbEntity
  8
タンク
  6
CONTINUOUS
 62
     3
100
AcDbLine
 10
446.440826
 20
1074.982393
 30
0.0
 11
446.440826
 21
1194.449099
 31
0.0
  0
POLYLINE
  5
206
100
AcDbEntity
  8
タンク
  6
CONTINUOUS
 62
     3
100
AcDb2dPolyline
 66
     1
 10
0.0
 20
0.0
 30
0.0
 70
   128
  0
VERTEX
  5
207
100
AcDbEntity
  8
タンク
  6
CONTINUOUS
 62
     3
100
AcDbVertex
100
AcDb2dVertex
 10
425.248199
 20
1512.524294
 30
0.0
  0
VERTEX
  5
208
100
AcDbEntity
  8
タンク
  6
CONTINUOUS
 62
     3
100
AcDbVertex
100
AcDb2dVertex
 10
391.440826
 20
1503.465609
 30
0.0
  0
VERTEX
  5
209
100
AcDbEntity
  8
タンク
  6
CONTINUOUS
 62
     3
100
AcDbVertex
100
AcDb2dVertex
 10
425.248199
 20
1494.406923
 30
0.0
  0
SEQEND
  5
20A
100
AcDbEntity
  8
タンク
  6
CONTINUOUS
 62
     3
  0
POLYLINE
  5
20B
100
AcDbEntity
  8
タンク
  6
CONTINUOUS
 62
     3
100
AcDb2dPolyline
 66
     1
 10
0.0
 20
0.0
 30
0.0
 70
   128
  0
VERTEX
  5
20C
100
AcDbEntity
  8
タンク
  6
CONTINUOUS
 62
     3
100
AcDbVertex
100
AcDb2dVertex
 10
557.633453
 20
1494.406923
 30
0.0
  0
VERTEX
  5
20D
100
AcDbEntity
  8
タンク
  6
CONTINUOUS
 62
     3
100
AcDbVertex
100
AcDb2dVertex
 10
591.440826
 20
1503.465609
 30
0.0
  0
VERTEX
  5
20E
100
AcDbEntity
  8
タンク
  6
CONTINUOUS
 62
     3
100
AcDbVertex
100
AcDb2dVertex
 10
557.633453
 20
1512.524294
 30
0.0
  0
SEQEND
  5
20F
100
AcDbEntity
  8
タンク
  6
CONTINUOUS
 62
     3
  0
LINE
  5
210
100
AcDbEntity
  8
タンク
  6
CONTINUOUS
 62
     3
100
AcDbLine
 10
591.440826
 20
1353.455294
 30
0.0
 11
591.440826
 21
1523.465609
 31
0.0
  0
LINE
  5
211
100
AcDbEntity
  8
タンク
  6
CONTINUOUS
 62
     3
100
AcDbLine
 10
391.440826
 20
1445.465609
 30
0.0
 11
391.440826
 21
1523.465609
 31
0.0
  0
LINE
  5
212
100
AcDbEntity
  8
タンク
  6
CONTINUOUS
 62
     3
100
AcDbLine
 10
391.440826
 20
1503.465609
 30
0.0
 11
591.440826
 21
1503.465609
 31
0.0
  0
LINE
  5
213
100
AcDbEntity
  8
タンク
  6
CONTINUOUS
 62
     3
100
AcDbLine
 10
290.440826
 20
536.455231
 30
0.0
 11
290.440826
 21
1246.458681
 31
0.0
  0
POLYLINE
  5
214
100
AcDbEntity
  8
タンク
  6
CONTINUOUS
 62
     3
100
AcDb2dPolyline
 66
     1
 10
0.0
 20
0.0
 30
0.0
 70
   128
  0
VERTEX
  5
215
100
AcDbEntity
  8
タンク
  6
CONTINUOUS
 62
     3
100
AcDbVertex
100
AcDb2dVertex
 10
281.382141
 20
1055.266301
 30
0.0
  0
VERTEX
  5
216
100
AcDbEntity
  8
タンク
  6
CONTINUOUS
 62
     3
100
AcDbVertex
100
AcDb2dVertex
 10
290.440826
 20
1021.458928
 30
0.0
  0
VERTEX
  5
217
100
AcDbEntity
  8
タンク
  6
CONTINUOUS
 62
     3
100
AcDbVertex
100
AcDb2dVertex
 10
299.499512
 20
1055.266301
 30
0.0
  0
SEQEND
  5
218
100
AcDbEntity
  8
タンク
  6
CONTINUOUS
 62
     3
  0
POLYLINE
  5
219
100
AcDbEntity
  8
タンク
  6
CONTINUOUS
 62
     3
100
AcDb2dPolyline
 66
     1
 10
0.0
 20
0.0
 30
0.0
 70
   128
  0
VERTEX
  5
21A
100
AcDbEntity
  8
タンク
  6
CONTINUOUS
 62
     3
100
AcDbVertex
100
AcDb2dVertex
 10
299.499512
 20
1212.643374
 30
0.0
  0
VERTEX
  5
21B
100
AcDbEntity
  8
タンク
  6
CONTINUOUS
 62
     3
100
AcDbVertex
100
AcDb2dVertex
 10
290.440826
 20
1246.450747
 30
0.0
  0
VERTEX
  5
21C
100
AcDbEntity
  8
タンク
  6
CONTINUOUS
 62
     3
100
AcDbVertex
100
AcDb2dVertex
 10
281.382141
 20
1212.643374
 30
0.0
  0
SEQEND
  5
21D
100
AcDbEntity
  8
タンク
  6
CONTINUOUS
 62
     3
  0
LINE
  5
21E
100
AcDbEntity
  8
タンク
  6
CONTINUOUS
 62
     3
100
AcDbLine
 10
230.440826
 20
901.455324
 30
0.0
 11
230.440826
 21
1461.455324
 31
0.0
  0
POLYLINE
  5
21F
100
AcDbEntity
  8
タンク
  6
CONTINUOUS
 62
     3
100
AcDb2dPolyline
 66
     1
 10
0.0
 20
0.0
 30
0.0
 70
   128
  0
VERTEX
  5
220
100
AcDbEntity
  8
タンク
  6
CONTINUOUS
 62
     3
100
AcDbVertex
100
AcDb2dVertex
 10
221.382141
 20
935.262697
 30
0.0
  0
VERTEX
  5
221
100
AcDbEntity
  8
タンク
  6
CONTINUOUS
 62
     3
100
AcDbVertex
100
AcDb2dVertex
 10
230.440826
 20
901.455324
 30
0.0
  0
VERTEX
  5
222
100
AcDbEntity
  8
タンク
  6
CONTINUOUS
 62
     3
100
AcDbVertex
100
AcDb2dVertex
 10
239.499512
 20
935.262697
 30
0.0
  0
SEQEND
  5
223
100
AcDbEntity
  8
タンク
  6
CONTINUOUS
 62
     3
  0
POLYLINE
  5
224
100
AcDbEntity
  8
タンク
  6
CONTINUOUS
 62
     3
100
AcDb2dPolyline
 66
     1
 10
0.0
 20
0.0
 30
0.0
 70
   128
  0
VERTEX
  5
225
100
AcDbEntity
  8
タンク
  6
CONTINUOUS
 62
     3
100
AcDbVertex
100
AcDb2dVertex
 10
239.499512
 20
1427.652682
 30
0.0
  0
VERTEX
  5
226
100
AcDbEntity
  8
タンク
  6
CONTINUOUS
 62
     3
100
AcDbVertex
100
AcDb2dVertex
 10
230.440826
 20
1461.460055
 30
0.0
  0
VERTEX
  5
227
100
AcDbEntity
  8
タンク
  6
CONTINUOUS
 62
     3
100
AcDbVertex
100
AcDb2dVertex
 10
221.382141
 20
1427.652682
 30
0.0
  0
SEQEND
  5
228
100
AcDbEntity
  8
タンク
  6
CONTINUOUS
 62
     3
  0
LINE
  5
229
100
AcDbEntity
  8
タンク
  6
CONTINUOUS
 62
     3
100
AcDbLine
 10
477.783295
 20
1246.458681
 30
0.0
 11
270.440826
 21
1246.458681
 31
0.0
  0
LINE
  5
22A
100
AcDbEntity
  8
タンク
  6
CONTINUOUS
 62
     3
100
AcDbLine
 10
210.440826
 20
1461.455324
 30
0.0
 11
385.440338
 21
1461.455324
 31
0.0
  0
LINE
  5
22B
100
AcDbEntity
  8
タンク
  6
CONTINUOUS
 62
     3
100
AcDbLine
 10
311.440826
 20
1094.982393
 30
0.0
 11
486.440826
 21
1094.982393
 31
0.0
  0
POLYLINE
  5
22C
100
AcDbEntity
  8
タンク
  6
CONTINUOUS
 62
     3
100
AcDb2dPolyline
 66
     1
 10
0.0
 20
0.0
 30
0.0
 70
   128
  0
VERTEX
  5
22D
100
AcDbEntity
  8
タンク
  6
CONTINUOUS
 62
     3
100
AcDbVertex
100
AcDb2dVertex
 10
480.248199
 20
1104.041079
 30
0.0
  0
VERTEX
  5
22E
100
AcDbEntity
  8
タンク
  6
CONTINUOUS
 62
     3
100
AcDbVertex
100
AcDb2dVertex
 10
446.440826
 20
1094.982393
 30
0.0
  0
VERTEX
  5
22F
100
AcDbEntity
  8
タンク
  6
CONTINUOUS
 62
     3
100
AcDbVertex
100
AcDb2dVertex
 10
480.248199
 20
1085.923708
 30
0.0
  0
SEQEND
  5
230
100
AcDbEntity
  8
タンク
  6
CONTINUOUS
 62
     3
  0
POLYLINE
  5
231
100
AcDbEntity
  8
タンク
  6
CONTINUOUS
 62
     3
100
AcDb2dPolyline
 66
     1
 10
0.0
 20
0.0
 30
0.0
 70
   128
  0
VERTEX
  5
232
100
AcDbEntity
  8
タンク
  6
CONTINUOUS
 62
     3
100
AcDbVertex
100
AcDb2dVertex
 10
317.633453
 20
1085.923708
 30
0.0
  0
VERTEX
  5
233
100
AcDbEntity
  8
タンク
  6
CONTINUOUS
 62
     3
100
AcDbVertex
100
AcDb2dVertex
 10
351.440826
 20
1094.982393
 30
0.0
  0
VERTEX
  5
234
100
AcDbEntity
  8
タンク
  6
CONTINUOUS
 62
     3
100
AcDbVertex
100
AcDb2dVertex
 10
317.633453
 20
1104.041079
 30
0.0
  0
SEQEND
  5
235
100
AcDbEntity
  8
タンク
  6
CONTINUOUS
 62
     3
  0
TEXT
  5
236
100
AcDbEntity
  8
タンク
  6
CONTINUOUS
 62
     2
100
AcDbText
 10
433.440796
 20
1508.465304
 30
0.0
 40
40.0
  1
２００
 41
0.833
  7
EXCADSTD
 72
     5
 11
552.440796
 21
1508.465304
 31
0.0
100
AcDbText
  0
TEXT
  5
237
100
AcDbEntity
  8
タンク
  6
CONTINUOUS
 62
     2
100
AcDbText
 10
285.440826
 20
1080.895664
 30
0.0
 40
40.0
  1
２２５
 50
90.0
 41
0.833
  7
EXCADSTD
 72
     5
 11
285.440826
 21
1199.895664
 31
0.0
100
AcDbText
  0
TEXT
  5
238
100
AcDbEntity
  8
タンク
  6
CONTINUOUS
 62
     2
100
AcDbText
 10
225.440826
 20
1127.461458
 30
0.0
 40
40.0
  1
５６０
 50
90.0
 41
0.833
  7
EXCADSTD
 72
     5
 11
225.440826
 21
1246.461458
 31
0.0
100
AcDbText
  0
TEXT
  5
239
100
AcDbEntity
  8
タンク
  6
CONTINUOUS
 62
     2
100
AcDbText
 10
485.007416
 20
1075.232485
 30
0.0
 40
40.0
  1
９６
 41
0.84
  7
EXCADSTD
 72
     5
 11
558.335416
 21
1075.232485
 31
0.0
100
AcDbText
  0
ARC
  5
23A
100
AcDbEntity
  8
タンク
  6
CONTINUOUS
 62
     7
100
AcDbCircle
 10
409.886719
 20
905.455263
 30
0.0
 40
4.000005
100
AcDbArc
 50
180.780273
 51
270.000031
  0
ARC
  5
23B
100
AcDbEntity
  8
タンク
  6
CONTINUOUS
 62
     7
100
AcDbCircle
 10
411.776672
 20
1243.940371
 30
0.0
 40
20.000019
100
AcDbArc
 50
180.780273
 51
209.999924
  0
LINE
  5
23C
100
AcDbEntity
  8
タンク
  6
CONTINUOUS
 62
     7
100
AcDbLine
 10
401.579071
 20
1221.603182
 30
0.0
 11
394.456116
 21
1233.940371
 31
0.0
  0
ARC
  5
23D
100
AcDbEntity
  8
タンク
  6
CONTINUOUS
 62
     7
100
AcDbCircle
 10
400.386749
 20
905.455263
 30
0.0
 40
4.000005
100
AcDbArc
 50
180.780273
 51
270.000031
  0
ARC
  5
23E
100
AcDbEntity
  8
タンク
  6
CONTINUOUS
 62
     7
100
AcDbCircle
 10
568.253571
 20
905.455263
 30
0.0
 40
3.999939
100
AcDbArc
 50
270.000031
 51
355.36795
  0
LINE
  5
23F
100
AcDbEntity
  8
タンク
  6
CONTINUOUS
 62
     7
100
AcDbLine
 10
400.409745
 20
901.455324
 30
0.0
 11
568.253571
 21
901.455324
 31
0.0
  0
LINE
  5
240
100
AcDbEntity
  8
タンク
  6
CONTINUOUS
 62
     7
100
AcDbLine
 10
584.707123
 20
1158.485659
 30
0.0
 11
586.766296
 21
1276.455324
 31
0.0
  0
LINE
  5
241
100
AcDbEntity
  8
タンク
  6
CONTINUOUS
 62
     7
100
AcDbLine
 10
400.831849
 20
1268.455294
 30
0.0
 11
391.331879
 21
1268.455294
 31
0.0
  0
LINE
  5
242
100
AcDbEntity
  8
タンク
  6
CONTINUOUS
 62
     7
100
AcDbLine
 10
398.331849
 20
1276.455324
 30
0.0
 11
398.331849
 21
1268.455294
 31
0.0
  0
LINE
  5
243
100
AcDbEntity
  8
タンク
  6
EXLTYPE2
 62
     2
100
AcDbLine
 10
400.695608
 20
1286.455324
 30
0.0
 11
586.940857
 21
1286.455324
 31
0.0
  0
ARC
  5
244
100
AcDbEntity
  8
タンク
  6
CONTINUOUS
 62
     7
100
AcDbCircle
 10
-3414.68573
 20
1228.296297
 30
0.0
 40
4000.0
100
AcDbArc
 50
355.672333
 51
359.000043
  0
LINE
  5
245
100
AcDbEntity
  8
タンク
  6
CONTINUOUS
 62
     7
100
AcDbLine
 10
572.240445
 20
905.132242
 30
0.0
 11
572.978926
 21
926.455324
 31
0.0
  0
ARC
  5
246
100
AcDbEntity
  8
タンク
  6
CONTINUOUS
 62
     6
100
AcDbCircle
 10
430.474793
 20
1418.919619
 30
0.0
 40
1.999937
100
AcDbArc
 50
276.672852
 51
319.21048
  0
ARC
  5
247
100
AcDbEntity
  8
タンク
  6
CONTINUOUS
 62
     6
100
AcDbCircle
 10
450.916534
 20
1401.280459
 30
0.0
 40
24.999924
100
AcDbArc
 50
95.000214
 51
139.20903
  0
LINE
  5
248
100
AcDbEntity
  8
タンク
  6
CONTINUOUS
 62
     6
100
AcDbLine
 10
430.707184
 20
1416.933077
 30
0.0
 11
418.580109
 21
1415.514925
 31
0.0
  0
ARC
  5
249
100
AcDbEntity
  8
タンク
  6
CONTINUOUS
 62
     6
100
AcDbCircle
 10
497.376343
 20
1432.448366
 30
0.0
 40
1.999946
100
AcDbArc
 50
274.998581
 51
8.184509
  0
LINE
  5
24A
100
AcDbEntity
  8
タンク
  6
CONTINUOUS
 62
     6
100
AcDbLine
 10
497.550598
 20
1430.456026
 30
0.0
 11
417.882782
 21
1423.485964
 31
0.0
  0
ARC
  5
24B
100
AcDbEntity
  8
タンク
  6
CONTINUOUS
 62
     6
100
AcDbCircle
 10
492.008148
 20
1426.959475
 30
0.0
 40
1.999946
100
AcDbArc
 50
274.998581
 51
343.197769
  0
LINE
  5
24C
100
AcDbEntity
  8
タンク
  6
CONTINUOUS
 62
     6
100
AcDbLine
 10
493.922668
 20
1426.381319
 30
0.0
 11
495.087982
 21
1430.24042
 31
0.0
  0
ARC
  5
24D
100
AcDbEntity
  8
タンク
  6
CONTINUOUS
 62
     6
100
AcDbCircle
 10
475.778137
 20
1425.539644
 30
0.0
 40
1.999977
100
AcDbArc
 50
206.801605
 51
274.998581
  0
LINE
  5
24E
100
AcDbEntity
  8
タンク
  6
CONTINUOUS
 62
     6
100
AcDbLine
 10
492.182404
 20
1424.967135
 30
0.0
 11
475.952393
 21
1423.547152
 31
0.0
  0
LINE
  5
24F
100
AcDbEntity
  8
タンク
  6
CONTINUOUS
 62
     6
100
AcDbLine
 10
472.175385
 20
1428.235872
 30
0.0
 11
473.993012
 21
1424.63785
 31
0.0
  0
LINE
  5
250
100
AcDbEntity
  8
タンク
  6
CONTINUOUS
 62
     6
100
AcDbLine
 10
463.016602
 20
1450.142306
 30
0.0
 11
415.790955
 21
1447.394503
 31
0.0
  0
ARC
  5
251
100
AcDbEntity
  8
タンク
  6
CONTINUOUS
 62
     6
100
AcDbCircle
 10
469.986969
 20
1330.344942
 30
0.0
 40
119.999943
100
AcDbArc
 50
84.506805
 51
93.330048
  0
ARC
  5
252
100
AcDbEntity
  8
タンク
  6
CONTINUOUS
 62
     6
100
AcDbCircle
 10
479.559723
 20
1429.885653
 30
0.0
 40
20.000029
100
AcDbArc
 50
8.185121
 51
84.506866
  0
LINE
  5
253
100
AcDbEntity
  8
タンク
  6
EXLTYPE2
 62
     2
100
AcDbLine
 10
400.831848
 20
1286.455324
 30
0.0
 11
400.831848
 21
1276.455324
 31
0.0
  0
LINE
  5
254
100
AcDbEntity
  8
タンク
  6
EXLTYPE2
 62
     2
100
AcDbLine
 10
586.657349
 20
1276.455324
 30
0.0
 11
586.831909
 21
1286.455324
 31
0.0
  0
LINE
  5
255
100
AcDbEntity
  8
タンク
  6
CONTINUOUS
 62
     7
100
AcDbLine
 10
591.331879
 20
1276.455324
 30
0.0
 11
391.331879
 21
1276.455324
 31
0.0
  0
ARC
  5
256
100
AcDbEntity
  8
タンク
  6
CONTINUOUS
 62
     7
100
AcDbCircle
 10
91.33432
 20
1277.671908
 30
0.0
 40
500.0
100
AcDbArc
 50
359.860642
 51
6.603516
  0
ARC
  5
257
100
AcDbEntity
  8
タンク
  6
CONTINUOUS
 62
     7
100
AcDbCircle
 10
582.056824
 20
1334.481753
 30
0.0
 40
6.000043
100
AcDbArc
 50
6.6036
 51
90.935547
  0
ARC
  5
258
100
AcDbEntity
  8
タンク
  6
CONTINUOUS
 62
     7
100
AcDbCircle
 10
576.082703
 20
1700.432985
 30
0.0
 40
360.0
100
AcDbArc
 50
252.337982
 51
270.935379
  0
ARC
  5
259
100
AcDbEntity
  8
タンク
  6
CONTINUOUS
 62
     7
100
AcDbCircle
 10
488.0961
 20
1424.102724
 30
0.0
 40
69.999962
100
AcDbArc
 50
185.000015
 51
252.337982
  0
LINE
  5
25A
100
AcDbEntity
  8
タンク
  6
CONTINUOUS
 62
     7
100
AcDbLine
 10
415.039917
 20
1455.978335
 30
0.0
 11
418.362518
 21
1418.001803
 31
0.0
  0
ARC
  5
25B
100
AcDbEntity
  8
タンク
  6
CONTINUOUS
 62
     7
100
AcDbCircle
 10
409.062744
 20
1455.455263
 30
0.0
 40
6.000017
100
AcDbArc
 50
5.001296
 51
89.999969
  0
LINE
  5
25C
100
AcDbEntity
  8
タンク
  6
CONTINUOUS
 62
     7
100
AcDbLine
 10
409.062744
 20
1461.455324
 30
0.0
 11
398.491913
 21
1461.455324
 31
0.0
  0
ARC
  5
25D
100
AcDbEntity
  8
タンク
  6
CONTINUOUS
 62
     7
100
AcDbCircle
 10
398.491913
 20
1457.455385
 30
0.0
 40
3.999939
100
AcDbArc
 50
89.999969
 51
179.001114
  0
LINE
  5
25E
100
AcDbEntity
  8
タンク
  6
CONTINUOUS
 62
     7
100
AcDbLine
 10
394.492432
 20
1457.525118
 30
0.0
 11
391.331879
 21
1276.455324
 31
0.0
  0
ARC
  5
25F
100
AcDbEntity
  8
タンク
  6
CONTINUOUS
 62
     6
100
AcDbCircle
 10
446.440826
 20
1246.458681
 30
0.0
 40
17.75
100
AcDbArc
 50
290.961864
 51
249.038136
  0
ARC
  5
260
100
AcDbEntity
  8
タンク
  6
CONTINUOUS
 62
     6
100
AcDbCircle
 10
446.440826
 20
1246.458681
 30
0.0
 40
12.75
100
AcDbArc
 50
299.87036
 51
240.12964
  0
LINE
  5
261
100
AcDbEntity
  8
タンク
  6
CONTINUOUS
 62
     6
100
AcDbLine
 10
457.940826
 20
1251.96436
 30
0.0
 11
457.940826
 21
1240.953002
 31
0.0
  0
LINE
  5
262
100
AcDbEntity
  8
タンク
  6
CONTINUOUS
 62
     6
100
AcDbLine
 10
447.422769
 20
1259.170813
 30
0.0
 11
456.958884
 21
1253.665134
 31
0.0
  0
LINE
  5
263
100
AcDbEntity
  8
タンク
  6
CONTINUOUS
 62
     6
100
AcDbLine
 10
435.922769
 20
1253.665134
 30
0.0
 11
445.458884
 21
1259.170813
 31
0.0
  0
LINE
  5
264
100
AcDbEntity
  8
タンク
  6
CONTINUOUS
 62
     6
100
AcDbLine
 10
434.940826
 20
1240.953002
 30
0.0
 11
434.940826
 21
1251.96436
 31
0.0
  0
LINE
  5
265
100
AcDbEntity
  8
タンク
  6
CONTINUOUS
 62
     6
100
AcDbLine
 10
440.090826
 20
1236.845799
 30
0.0
 11
435.922769
 21
1239.252229
 31
0.0
  0
LINE
  5
266
100
AcDbEntity
  8
タンク
  6
CONTINUOUS
 62
     6
100
AcDbLine
 10
456.958884
 20
1239.252229
 30
0.0
 11
452.790826
 21
1236.845799
 31
0.0
  0
ARC
  5
267
100
AcDbEntity
  8
タンク
  6
CONTINUOUS
 62
     6
100
AcDbCircle
 10
446.440826
 20
1246.458681
 30
0.0
 40
10.74299
100
AcDbArc
 50
306.233906
 51
233.766094
  0
POLYLINE
  5
268
100
AcDbEntity
  8
タンク
  6
CONTINUOUS
 62
     3
100
AcDb2dPolyline
 66
     1
 10
0.0
 20
0.0
 30
0.0
 70
   128
  0
VERTEX
  5
269
100
AcDbEntity
  8
タンク
  6
CONTINUOUS
 62
     3
100
AcDbVertex
100
AcDb2dVertex
 10
299.499512
 20
987.643374
 30
0.0
  0
VERTEX
  5
26A
100
AcDbEntity
  8
タンク
  6
CONTINUOUS
 62
     3
100
AcDbVertex
100
AcDb2dVertex
 10
290.440826
 20
1021.450747
 30
0.0
  0
VERTEX
  5
26B
100
AcDbEntity
  8
タンク
  6
CONTINUOUS
 62
     3
100
AcDbVertex
100
AcDb2dVertex
 10
281.382141
 20
987.643374
 30
0.0
  0
SEQEND
  5
26C
100
AcDbEntity
  8
タンク
  6
CONTINUOUS
 62
     3
  0
POLYLINE
  5
26D
100
AcDbEntity
  8
タンク
  6
CONTINUOUS
 62
     3
100
AcDb2dPolyline
 66
     1
 10
0.0
 20
0.0
 30
0.0
 70
   128
  0
VERTEX
  5
26E
100
AcDbEntity
  8
タンク
  6
CONTINUOUS
 62
     3
100
AcDbVertex
100
AcDb2dVertex
 10
281.382141
 20
570.26285
 30
0.0
  0
VERTEX
  5
26F
100
AcDbEntity
  8
タンク
  6
CONTINUOUS
 62
     3
100
AcDbVertex
100
AcDb2dVertex
 10
290.440826
 20
536.455477
 30
0.0
  0
VERTEX
  5
270
100
AcDbEntity
  8
タンク
  6
CONTINUOUS
 62
     3
100
AcDbVertex
100
AcDb2dVertex
 10
299.499512
 20
570.26285
 30
0.0
  0
SEQEND
  5
271
100
AcDbEntity
  8
タンク
  6
CONTINUOUS
 62
     3
  0
TEXT
  5
272
100
AcDbEntity
  8
タンク
  6
CONTINUOUS
 62
     2
100
AcDbText
 10
285.440826
 20
725.892214
 30
0.0
 40
40.0
  1
４８５
 50
90.0
 41
0.833
  7
EXCADSTD
 72
     5
 11
285.440826
 21
844.892214
 31
0.0
100
AcDbText
  0
LINE
  5
273
100
AcDbEntity
  8
タンク
  6
CONTINUOUS
 62
     7
100
AcDbLine
 10
400.831848
 20
1276.455324
 30
0.0
 11
404.135589
 21
1033.960671
 31
0.0
  0
LINE
  5
274
100
AcDbEntity
  8
タンク
  6
CONTINUOUS
 62
     7
100
AcDbLine
 10
404.476196
 20
1008.960066
 30
0.0
 11
405.887062
 21
905.402464
 31
0.0
  0
LINE
  5
275
100
AcDbEntity
  8
タンク
  6
CONTINUOUS
 62
     7
100
AcDbLine
 10
391.331833
 20
1276.455324
 30
0.0
 11
394.635603
 21
1033.960671
 31
0.0
  0
LINE
  5
276
100
AcDbEntity
  8
タンク
  6
CONTINUOUS
 62
     7
100
AcDbLine
 10
394.976214
 20
1008.960066
 30
0.0
 11
396.387093
 21
905.402463
 31
0.0
  0
LINE
  5
277
100
AcDbEntity
  8
タンク
  6
CONTINUOUS
 62
     2
100
AcDbLine
 10
396.100267
 20
926.455324
 30
0.0
 11
573.91153
 21
926.455324
 31
0.0
  0
LINE
  5
278
100
AcDbEntity
  8
タンク
  6
EXLTYPE2
 62
     2
100
AcDbLine
 10
1446.5
 20
1286.455168
 30
0.0
 11
1857.5
 21
1286.455168
 31
0.0
  0
LINE
  5
279
100
AcDbEntity
  8
タンク
  6
CONTINUOUS
 62
     7
100
AcDbLine
 10
1856.159917
 20
1209.681847
 30
0.0
 11
1857.325449
 21
1276.455166
 31
0.0
  0
LINE
  5
27A
100
AcDbEntity
  8
タンク
  6
CONTINUOUS
 62
     7
100
AcDbLine
 10
1447.840083
 20
1209.681847
 30
0.0
 11
1446.674553
 21
1276.455017
 31
0.0
  0
LINE
  5
27B
100
AcDbEntity
  8
タンク
  6
EXLTYPE2
 62
     2
100
AcDbLine
 10
1446.674553
 20
1276.455017
 30
0.0
 11
1446.5
 21
1286.455168
 31
0.0
  0
LINE
  5
27C
100
AcDbEntity
  8
タンク
  6
EXLTYPE2
 62
     2
100
AcDbLine
 10
1857.325449
 20
1276.455166
 30
0.0
 11
1857.5
 21
1286.455168
 31
0.0
  0
LINE
  5
27D
100
AcDbEntity
  8
タンク
  6
CONTINUOUS
 62
     3
100
AcDbLine
 10
1863.000977
 20
1356.455168
 30
0.0
 11
1863.000977
 21
1523.465452
 31
0.0
  0
LINE
  5
27E
100
AcDbEntity
  8
タンク
  6
CONTINUOUS
 62
     3
100
AcDbLine
 10
1440.999023
 20
1356.455168
 30
0.0
 11
1440.999023
 21
1523.465452
 31
0.0
  0
LINE
  5
27F
100
AcDbEntity
  8
タンク
  6
CONTINUOUS
 62
     3
100
AcDbLine
 10
1440.999023
 20
1503.465452
 30
0.0
 11
1863.000977
 21
1503.465452
 31
0.0
  0
POLYLINE
  5
280
100
AcDbEntity
  8
タンク
  6
CONTINUOUS
 62
     3
100
AcDb2dPolyline
 66
     1
 10
0.0
 20
0.0
 30
0.0
 70
   128
  0
VERTEX
  5
281
100
AcDbEntity
  8
タンク
  6
CONTINUOUS
 62
     3
100
AcDbVertex
100
AcDb2dVertex
 10
1829.193603
 20
1494.407835
 30
0.0
  0
VERTEX
  5
282
100
AcDbEntity
  8
タンク
  6
CONTINUOUS
 62
     3
100
AcDbVertex
100
AcDb2dVertex
 10
1863.000977
 20
1503.465452
 30
0.0
  0
VERTEX
  5
283
100
AcDbEntity
  8
タンク
  6
CONTINUOUS
 62
     3
100
AcDbVertex
100
AcDb2dVertex
 10
1829.193603
 20
1512.523069
 30
0.0
  0
SEQEND
  5
284
100
AcDbEntity
  8
タンク
  6
CONTINUOUS
 62
     3
  0
POLYLINE
  5
285
100
AcDbEntity
  8
タンク
  6
CONTINUOUS
 62
     3
100
AcDb2dPolyline
 66
     1
 10
0.0
 20
0.0
 30
0.0
 70
   128
  0
VERTEX
  5
286
100
AcDbEntity
  8
タンク
  6
CONTINUOUS
 62
     3
100
AcDbVertex
100
AcDb2dVertex
 10
1474.806396
 20
1512.523069
 30
0.0
  0
VERTEX
  5
287
100
AcDbEntity
  8
タンク
  6
CONTINUOUS
 62
     3
100
AcDbVertex
100
AcDb2dVertex
 10
1440.999023
 20
1503.465452
 30
0.0
  0
VERTEX
  5
288
100
AcDbEntity
  8
タンク
  6
CONTINUOUS
 62
     3
100
AcDbVertex
100
AcDb2dVertex
 10
1474.806396
 20
1494.407835
 30
0.0
  0
SEQEND
  5
289
100
AcDbEntity
  8
タンク
  6
CONTINUOUS
 62
     3
  0
TEXT
  5
28A
100
AcDbEntity
  8
タンク
  6
CONTINUOUS
 62
     2
100
AcDbText
 10
1593.999969
 20
1508.465452
 30
0.0
 40
40.0
  1
４２０
 41
0.833
  7
EXCADSTD
 72
     5
 11
1712.999969
 21
1508.465452
 31
0.0
100
AcDbText
  0
ARC
  5
28B
100
AcDbEntity
  8
タンク
  6
CONTINUOUS
 62
     7
100
AcDbCircle
 10
1852.724075
 20
1334.481596
 30
0.0
 40
6.000043
100
AcDbArc
 50
6.6036
 51
92.297058
  0
ARC
  5
28C
100
AcDbEntity
  8
タンク
  6
CONTINUOUS
 62
     7
100
AcDbCircle
 10
1651.99852
 20
6336.455015
 30
0.0
 40
5000.0
100
AcDbArc
 50
267.703204
 51
272.297974
  0
ARC
  5
28D
100
AcDbEntity
  8
タンク
  6
CONTINUOUS
 62
     7
100
AcDbCircle
 10
1362.001572
 20
1277.671446
 30
0.0
 40
500.0
100
AcDbArc
 50
359.860625
 51
11.682691
  0
ARC
  5
28E
100
AcDbEntity
  8
タンク
  6
CONTINUOUS
 62
     7
100
AcDbCircle
 10
1687.241287
 20
1196.946958
 30
0.0
 40
260.0
100
AcDbArc
 50
58.11431
 51
75.437191
  0
ARC
  5
28F
100
AcDbEntity
  8
タンク
  6
CONTINUOUS
 62
     7
100
AcDbCircle
 10
1652.000198
 20
1061.455015
 30
0.0
 40
400.0
100
AcDbArc
 50
75.409753
 51
104.629145
  0
ARC
  5
290
100
AcDbEntity
  8
タンク
  6
CONTINUOUS
 62
     7
100
AcDbCircle
 10
1616.758804
 20
1196.946958
 30
0.0
 40
260.0
100
AcDbArc
 50
104.503273
 51
121.885703
  0
ARC
  5
291
100
AcDbEntity
  8
タンク
  6
CONTINUOUS
 62
     7
100
AcDbCircle
 10
1941.99852
 20
1277.671598
 30
0.0
 40
500.0
100
AcDbArc
 50
168.317333
 51
180.13941
  0
POLYLINE
  5
292
100
AcDbEntity
  8
タンク
  6
CONTINUOUS
 62
     6
100
AcDb2dPolyline
 66
     1
 10
0.0
 20
0.0
 30
0.0
 70
   128
  0
VERTEX
  5
293
100
AcDbEntity
  8
タンク
  6
CONTINUOUS
 62
     6
100
AcDbVertex
100
AcDb2dVertex
 10
1642.500076
 20
1424.257139
 30
0.0
  0
VERTEX
  5
294
100
AcDbEntity
  8
タンク
  6
CONTINUOUS
 62
     6
100
AcDbVertex
100
AcDb2dVertex
 10
1642.536239
 20
1424.184965
 30
0.0
  0
VERTEX
  5
295
100
AcDbEntity
  8
タンク
  6
CONTINUOUS
 62
     6
100
AcDbVertex
100
AcDb2dVertex
 10
1642.644424
 20
1424.113554
 30
0.0
  0
VERTEX
  5
296
100
AcDbEntity
  8
タンク
  6
CONTINUOUS
 62
     6
100
AcDbVertex
100
AcDb2dVertex
 10
1642.823868
 20
1424.0426
 30
0.0
  0
VERTEX
  5
297
100
AcDbEntity
  8
タンク
  6
CONTINUOUS
 62
     6
100
AcDbVertex
100
AcDb2dVertex
 10
1643.073196
 20
1423.973783
 30
0.0
  0
VERTEX
  5
298
100
AcDbEntity
  8
タンク
  6
CONTINUOUS
 62
     6
100
AcDbVertex
100
AcDb2dVertex
 10
1643.390274
 20
1423.90695
 30
0.0
  0
VERTEX
  5
299
100
AcDbEntity
  8
タンク
  6
CONTINUOUS
 62
     6
100
AcDbVertex
100
AcDb2dVertex
 10
1643.772812
 20
1423.842863
 30
0.0
  0
VERTEX
  5
29A
100
AcDbEntity
  8
タンク
  6
CONTINUOUS
 62
     6
100
AcDbVertex
100
AcDb2dVertex
 10
1644.218216
 20
1423.78198
 30
0.0
  0
VERTEX
  5
29B
100
AcDbEntity
  8
タンク
  6
CONTINUOUS
 62
     6
100
AcDbVertex
100
AcDb2dVertex
 10
1644.722671
 20
1423.724455
 30
0.0
  0
VERTEX
  5
29C
100
AcDbEntity
  8
タンク
  6
CONTINUOUS
 62
     6
100
AcDbVertex
100
AcDb2dVertex
 10
1645.282516
 20
1423.671507
 30
0.0
  0
VERTEX
  5
29D
100
AcDbEntity
  8
タンク
  6
CONTINUOUS
 62
     6
100
AcDbVertex
100
AcDb2dVertex
 10
1645.893631
 20
1423.622679
 30
0.0
  0
VERTEX
  5
29E
100
AcDbEntity
  8
タンク
  6
CONTINUOUS
 62
     6
100
AcDbVertex
100
AcDb2dVertex
 10
1646.551132
 20
1423.578733
 30
0.0
  0
VERTEX
  5
29F
100
AcDbEntity
  8
タンク
  6
CONTINUOUS
 62
     6
100
AcDbVertex
100
AcDb2dVertex
 10
1647.250137
 20
1423.540129
 30
0.0
  0
VERTEX
  5
2A0
100
AcDbEntity
  8
タンク
  6
CONTINUOUS
 62
     6
100
AcDbVertex
100
AcDb2dVertex
 10
1647.985306
 20
1423.506864
 30
0.0
  0
VERTEX
  5
2A1
100
AcDbEntity
  8
タンク
  6
CONTINUOUS
 62
     6
100
AcDbVertex
100
AcDb2dVertex
 10
1648.750992
 20
1423.479246
 30
0.0
  0
VERTEX
  5
2A2
100
AcDbEntity
  8
タンク
  6
CONTINUOUS
 62
     6
100
AcDbVertex
100
AcDb2dVertex
 10
1649.541244
 20
1423.456968
 30
0.0
  0
VERTEX
  5
2A3
100
AcDbEntity
  8
タンク
  6
CONTINUOUS
 62
     6
100
AcDbVertex
100
AcDb2dVertex
 10
1650.350418
 20
1423.441252
 30
0.0
  0
VERTEX
  5
2A4
100
AcDbEntity
  8
タンク
  6
CONTINUOUS
 62
     6
100
AcDbVertex
100
AcDb2dVertex
 10
1651.171951
 20
1423.431639
 30
0.0
  0
VERTEX
  5
2A5
100
AcDbEntity
  8
タンク
  6
CONTINUOUS
 62
     6
100
AcDbVertex
100
AcDb2dVertex
 10
1652.000046
 20
1423.429045
 30
0.0
  0
VERTEX
  5
2A6
100
AcDbEntity
  8
タンク
  6
CONTINUOUS
 62
     6
100
AcDbVertex
100
AcDb2dVertex
 10
1652.827988
 20
1423.432249
 30
0.0
  0
VERTEX
  5
2A7
100
AcDbEntity
  8
タンク
  6
CONTINUOUS
 62
     6
100
AcDbVertex
100
AcDb2dVertex
 10
1653.649673
 20
1423.441709
 30
0.0
  0
VERTEX
  5
2A8
100
AcDbEntity
  8
タンク
  6
CONTINUOUS
 62
     6
100
AcDbVertex
100
AcDb2dVertex
 10
1654.458847
 20
1423.456968
 30
0.0
  0
VERTEX
  5
2A9
100
AcDbEntity
  8
タンク
  6
CONTINUOUS
 62
     6
100
AcDbVertex
100
AcDb2dVertex
 10
1655.249252
 20
1423.478636
 30
0.0
  0
VERTEX
  5
2AA
100
AcDbEntity
  8
タンク
  6
CONTINUOUS
 62
     6
100
AcDbVertex
100
AcDb2dVertex
 10
1656.014938
 20
1423.506101
 30
0.0
  0
VERTEX
  5
2AB
100
AcDbEntity
  8
タンク
  6
CONTINUOUS
 62
     6
100
AcDbVertex
100
AcDb2dVertex
 10
1656.750107
 20
1423.540129
 30
0.0
  0
VERTEX
  5
2AC
100
AcDbEntity
  8
タンク
  6
CONTINUOUS
 62
     6
100
AcDbVertex
100
AcDb2dVertex
 10
1657.448959
 20
1423.579038
 30
0.0
  0
VERTEX
  5
2AD
100
AcDbEntity
  8
タンク
  6
CONTINUOUS
 62
     6
100
AcDbVertex
100
AcDb2dVertex
 10
1658.10646
 20
1423.623136
 30
0.0
  0
VERTEX
  5
2AE
100
AcDbEntity
  8
タンク
  6
CONTINUOUS
 62
     6
100
AcDbVertex
100
AcDb2dVertex
 10
1658.717575
 20
1423.671507
 30
0.0
  0
VERTEX
  5
2AF
100
AcDbEntity
  8
タンク
  6
CONTINUOUS
 62
     6
100
AcDbVertex
100
AcDb2dVertex
 10
1659.27742
 20
1423.72476
 30
0.0
  0
VERTEX
  5
2B0
100
AcDbEntity
  8
タンク
  6
CONTINUOUS
 62
     6
100
AcDbVertex
100
AcDb2dVertex
 10
1659.781875
 20
1423.78198
 30
0.0
  0
VERTEX
  5
2B1
100
AcDbEntity
  8
タンク
  6
CONTINUOUS
 62
     6
100
AcDbVertex
100
AcDb2dVertex
 10
1660.22728
 20
1423.842863
 30
0.0
  0
VERTEX
  5
2B2
100
AcDbEntity
  8
タンク
  6
CONTINUOUS
 62
     6
100
AcDbVertex
100
AcDb2dVertex
 10
1660.609817
 20
1423.90695
 30
0.0
  0
VERTEX
  5
2B3
100
AcDbEntity
  8
タンク
  6
CONTINUOUS
 62
     6
100
AcDbVertex
100
AcDb2dVertex
 10
1660.927048
 20
1423.973478
 30
0.0
  0
VERTEX
  5
2B4
100
AcDbEntity
  8
タンク
  6
CONTINUOUS
 62
     6
100
AcDbVertex
100
AcDb2dVertex
 10
1661.176376
 20
1424.0426
 30
0.0
  0
VERTEX
  5
2B5
100
AcDbEntity
  8
タンク
  6
CONTINUOUS
 62
     6
100
AcDbVertex
100
AcDb2dVertex
 10
1661.355667
 20
1424.113096
 30
0.0
  0
VERTEX
  5
2B6
100
AcDbEntity
  8
タンク
  6
CONTINUOUS
 62
     6
100
AcDbVertex
100
AcDb2dVertex
 10
1661.463852
 20
1424.18466
 30
0.0
  0
VERTEX
  5
2B7
100
AcDbEntity
  8
タンク
  6
CONTINUOUS
 62
     6
100
AcDbVertex
100
AcDb2dVertex
 10
1661.500015
 20
1424.257139
 30
0.0
  0
VERTEX
  5
2B8
100
AcDbEntity
  8
タンク
  6
CONTINUOUS
 62
     6
100
AcDbVertex
100
AcDb2dVertex
 10
1661.463852
 20
1424.329313
 30
0.0
  0
VERTEX
  5
2B9
100
AcDbEntity
  8
タンク
  6
CONTINUOUS
 62
     6
100
AcDbVertex
100
AcDb2dVertex
 10
1661.355667
 20
1424.401182
 30
0.0
  0
VERTEX
  5
2BA
100
AcDbEntity
  8
タンク
  6
CONTINUOUS
 62
     6
100
AcDbVertex
100
AcDb2dVertex
 10
1661.176376
 20
1424.471372
 30
0.0
  0
VERTEX
  5
2BB
100
AcDbEntity
  8
タンク
  6
CONTINUOUS
 62
     6
100
AcDbVertex
100
AcDb2dVertex
 10
1660.927048
 20
1424.54019
 30
0.0
  0
VERTEX
  5
2BC
100
AcDbEntity
  8
タンク
  6
CONTINUOUS
 62
     6
100
AcDbVertex
100
AcDb2dVertex
 10
1660.60997
 20
1424.60687
 30
0.0
  0
VERTEX
  5
2BD
100
AcDbEntity
  8
タンク
  6
CONTINUOUS
 62
     6
100
AcDbVertex
100
AcDb2dVertex
 10
1660.22728
 20
1424.670957
 30
0.0
  0
VERTEX
  5
2BE
100
AcDbEntity
  8
タンク
  6
CONTINUOUS
 62
     6
100
AcDbVertex
100
AcDb2dVertex
 10
1659.781875
 20
1424.73184
 30
0.0
  0
VERTEX
  5
2BF
100
AcDbEntity
  8
タンク
  6
CONTINUOUS
 62
     6
100
AcDbVertex
100
AcDb2dVertex
 10
1659.27742
 20
1424.789213
 30
0.0
  0
VERTEX
  5
2C0
100
AcDbEntity
  8
タンク
  6
CONTINUOUS
 62
     6
100
AcDbVertex
100
AcDb2dVertex
 10
1658.717575
 20
1424.842466
 30
0.0
  0
VERTEX
  5
2C1
100
AcDbEntity
  8
タンク
  6
CONTINUOUS
 62
     6
100
AcDbVertex
100
AcDb2dVertex
 10
1658.10646
 20
1424.891294
 30
0.0
  0
VERTEX
  5
2C2
100
AcDbEntity
  8
タンク
  6
CONTINUOUS
 62
     6
100
AcDbVertex
100
AcDb2dVertex
 10
1657.448959
 20
1424.935087
 30
0.0
  0
VERTEX
  5
2C3
100
AcDbEntity
  8
タンク
  6
CONTINUOUS
 62
     6
100
AcDbVertex
100
AcDb2dVertex
 10
1656.750107
 20
1424.974149
 30
0.0
  0
VERTEX
  5
2C4
100
AcDbEntity
  8
タンク
  6
CONTINUOUS
 62
     6
100
AcDbVertex
100
AcDb2dVertex
 10
1656.014938
 20
1425.007566
 30
0.0
  0
VERTEX
  5
2C5
100
AcDbEntity
  8
タンク
  6
CONTINUOUS
 62
     6
100
AcDbVertex
100
AcDb2dVertex
 10
1655.249252
 20
1425.03549
 30
0.0
  0
VERTEX
  5
2C6
100
AcDbEntity
  8
タンク
  6
CONTINUOUS
 62
     6
100
AcDbVertex
100
AcDb2dVertex
 10
1654.458847
 20
1425.056852
 30
0.0
  0
VERTEX
  5
2C7
100
AcDbEntity
  8
タンク
  6
CONTINUOUS
 62
     6
100
AcDbVertex
100
AcDb2dVertex
 10
1653.649673
 20
1425.072569
 30
0.0
  0
VERTEX
  5
2C8
100
AcDbEntity
  8
タンク
  6
CONTINUOUS
 62
     6
100
AcDbVertex
100
AcDb2dVertex
 10
1652.82814
 20
1425.082029
 30
0.0
  0
VERTEX
  5
2C9
100
AcDbEntity
  8
タンク
  6
CONTINUOUS
 62
     6
100
AcDbVertex
100
AcDb2dVertex
 10
1652.000046
 20
1425.084928
 30
0.0
  0
VERTEX
  5
2CA
100
AcDbEntity
  8
タンク
  6
CONTINUOUS
 62
     6
100
AcDbVertex
100
AcDb2dVertex
 10
1651.172104
 20
1425.081724
 30
0.0
  0
VERTEX
  5
2CB
100
AcDbEntity
  8
タンク
  6
CONTINUOUS
 62
     6
100
AcDbVertex
100
AcDb2dVertex
 10
1650.350418
 20
1425.072111
 30
0.0
  0
VERTEX
  5
2CC
100
AcDbEntity
  8
タンク
  6
CONTINUOUS
 62
     6
100
AcDbVertex
100
AcDb2dVertex
 10
1649.541244
 20
1425.056852
 30
0.0
  0
VERTEX
  5
2CD
100
AcDbEntity
  8
タンク
  6
CONTINUOUS
 62
     6
100
AcDbVertex
100
AcDb2dVertex
 10
1648.750839
 20
1425.035185
 30
0.0
  0
VERTEX
  5
2CE
100
AcDbEntity
  8
タンク
  6
CONTINUOUS
 62
     6
100
AcDbVertex
100
AcDb2dVertex
 10
1647.985153
 20
1425.007566
 30
0.0
  0
SEQEND
  5
2CF
100
AcDbEntity
  8
タンク
  6
CONTINUOUS
 62
     6
  0
POLYLINE
  5
2D0
100
AcDbEntity
  8
タンク
  6
CONTINUOUS
 62
     6
100
AcDb2dPolyline
 66
     1
 10
0.0
 20
0.0
 30
0.0
 70
   128
  0
VERTEX
  5
2D1
100
AcDbEntity
  8
タンク
  6
CONTINUOUS
 62
     6
100
AcDbVertex
100
AcDb2dVertex
 10
1647.985153
 20
1425.007566
 30
0.0
  0
VERTEX
  5
2D2
100
AcDbEntity
  8
タンク
  6
CONTINUOUS
 62
     6
100
AcDbVertex
100
AcDb2dVertex
 10
1647.250137
 20
1424.974149
 30
0.0
  0
VERTEX
  5
2D3
100
AcDbEntity
  8
タンク
  6
CONTINUOUS
 62
     6
100
AcDbVertex
100
AcDb2dVertex
 10
1646.551285
 20
1424.935392
 30
0.0
  0
VERTEX
  5
2D4
100
AcDbEntity
  8
タンク
  6
CONTINUOUS
 62
     6
100
AcDbVertex
100
AcDb2dVertex
 10
1645.893783
 20
1424.891599
 30
0.0
  0
VERTEX
  5
2D5
100
AcDbEntity
  8
タンク
  6
CONTINUOUS
 62
     6
100
AcDbVertex
100
AcDb2dVertex
 10
1645.282516
 20
1424.842466
 30
0.0
  0
VERTEX
  5
2D6
100
AcDbEntity
  8
タンク
  6
CONTINUOUS
 62
     6
100
AcDbVertex
100
AcDb2dVertex
 10
1644.722671
 20
1424.789213
 30
0.0
  0
VERTEX
  5
2D7
100
AcDbEntity
  8
タンク
  6
CONTINUOUS
 62
     6
100
AcDbVertex
100
AcDb2dVertex
 10
1644.218216
 20
1424.73184
 30
0.0
  0
VERTEX
  5
2D8
100
AcDbEntity
  8
タンク
  6
CONTINUOUS
 62
     6
100
AcDbVertex
100
AcDb2dVertex
 10
1643.772812
 20
1424.670957
 30
0.0
  0
VERTEX
  5
2D9
100
AcDbEntity
  8
タンク
  6
CONTINUOUS
 62
     6
100
AcDbVertex
100
AcDb2dVertex
 10
1643.390274
 20
1424.60687
 30
0.0
  0
VERTEX
  5
2DA
100
AcDbEntity
  8
タンク
  6
CONTINUOUS
 62
     6
100
AcDbVertex
100
AcDb2dVertex
 10
1643.073044
 20
1424.54019
 30
0.0
  0
VERTEX
  5
2DB
100
AcDbEntity
  8
タンク
  6
CONTINUOUS
 62
     6
100
AcDbVertex
100
AcDb2dVertex
 10
1642.823868
 20
1424.471372
 30
0.0
  0
SEQEND
  5
2DC
100
AcDbEntity
  8
タンク
  6
CONTINUOUS
 62
     6
  0
POLYLINE
  5
2DD
100
AcDbEntity
  8
タンク
  6
CONTINUOUS
 62
     6
100
AcDb2dPolyline
 66
     1
 10
0.0
 20
0.0
 30
0.0
 70
   128
  0
VERTEX
  5
2DE
100
AcDbEntity
  8
タンク
  6
CONTINUOUS
 62
     6
100
AcDbVertex
100
AcDb2dVertex
 10
1642.823868
 20
1424.471372
 30
0.0
  0
VERTEX
  5
2DF
100
AcDbEntity
  8
タンク
  6
CONTINUOUS
 62
     6
100
AcDbVertex
100
AcDb2dVertex
 10
1642.644577
 20
1424.400877
 30
0.0
  0
VERTEX
  5
2E0
100
AcDbEntity
  8
タンク
  6
CONTINUOUS
 62
     6
100
AcDbVertex
100
AcDb2dVertex
 10
1642.536392
 20
1424.32916
 30
0.0
  0
VERTEX
  5
2E1
100
AcDbEntity
  8
タンク
  6
CONTINUOUS
 62
     6
100
AcDbVertex
100
AcDb2dVertex
 10
1642.500076
 20
1424.256834
 30
0.0
  0
SEQEND
  5
2E2
100
AcDbEntity
  8
タンク
  6
CONTINUOUS
 62
     6
  0
POLYLINE
  5
2E3
100
AcDbEntity
  8
タンク
  6
CONTINUOUS
 62
     6
100
AcDb2dPolyline
 66
     1
 10
0.0
 20
0.0
 30
0.0
 70
   128
  0
VERTEX
  5
2E4
100
AcDbEntity
  8
タンク
  6
CONTINUOUS
 62
     6
100
AcDbVertex
100
AcDb2dVertex
 10
1663.500137
 20
1429.238066
 30
0.0
  0
VERTEX
  5
2E5
100
AcDbEntity
  8
タンク
  6
CONTINUOUS
 62
     6
100
AcDbVertex
100
AcDb2dVertex
 10
1663.456344
 20
1429.325346
 30
0.0
  0
VERTEX
  5
2E6
100
AcDbEntity
  8
タンク
  6
CONTINUOUS
 62
     6
100
AcDbVertex
100
AcDb2dVertex
 10
1663.325271
 20
1429.412016
 30
0.0
  0
VERTEX
  5
2E7
100
AcDbEntity
  8
タンク
  6
CONTINUOUS
 62
     6
100
AcDbVertex
100
AcDb2dVertex
 10
1663.108139
 20
1429.497618
 30
0.0
  0
VERTEX
  5
2E8
100
AcDbEntity
  8
タンク
  6
CONTINUOUS
 62
     6
100
AcDbVertex
100
AcDb2dVertex
 10
1662.80632
 20
1429.581083
 30
0.0
  0
VERTEX
  5
2E9
100
AcDbEntity
  8
タンク
  6
CONTINUOUS
 62
     6
100
AcDbVertex
100
AcDb2dVertex
 10
1662.422409
 20
1429.661955
 30
0.0
  0
VERTEX
  5
2EA
100
AcDbEntity
  8
タンク
  6
CONTINUOUS
 62
     6
100
AcDbVertex
100
AcDb2dVertex
 10
1661.959305
 20
1429.739164
 30
0.0
  0
VERTEX
  5
2EB
100
AcDbEntity
  8
タンク
  6
CONTINUOUS
 62
     6
100
AcDbVertex
100
AcDb2dVertex
 10
1661.420212
 20
1429.812864
 30
0.0
  0
VERTEX
  5
2EC
100
AcDbEntity
  8
タンク
  6
CONTINUOUS
 62
     6
100
AcDbVertex
100
AcDb2dVertex
 10
1660.809402
 20
1429.882139
 30
0.0
  0
VERTEX
  5
2ED
100
AcDbEntity
  8
タンク
  6
CONTINUOUS
 62
     6
100
AcDbVertex
100
AcDb2dVertex
 10
1660.13176
 20
1429.946684
 30
0.0
  0
VERTEX
  5
2EE
100
AcDbEntity
  8
タンク
  6
CONTINUOUS
 62
     6
100
AcDbVertex
100
AcDb2dVertex
 10
1659.392013
 20
1430.005735
 30
0.0
  0
VERTEX
  5
2EF
100
AcDbEntity
  8
タンク
  6
CONTINUOUS
 62
     6
100
AcDbVertex
100
AcDb2dVertex
 10
1658.596115
 20
1430.058836
 30
0.0
  0
VERTEX
  5
2F0
100
AcDbEntity
  8
タンク
  6
CONTINUOUS
 62
     6
100
AcDbVertex
100
AcDb2dVertex
 10
1657.750015
 20
1430.106138
 30
0.0
  0
VERTEX
  5
2F1
100
AcDbEntity
  8
タンク
  6
CONTINUOUS
 62
     6
100
AcDbVertex
100
AcDb2dVertex
 10
1656.860123
 20
1430.146574
 30
0.0
  0
VERTEX
  5
2F2
100
AcDbEntity
  8
タンク
  6
CONTINUOUS
 62
     6
100
AcDbVertex
100
AcDb2dVertex
 10
1655.933151
 20
1430.179991
 30
0.0
  0
VERTEX
  5
2F3
100
AcDbEntity
  8
タンク
  6
CONTINUOUS
 62
     6
100
AcDbVertex
100
AcDb2dVertex
 10
1654.976425
 20
1430.206236
 30
0.0
  0
VERTEX
  5
2F4
100
AcDbEntity
  8
タンク
  6
CONTINUOUS
 62
     6
100
AcDbVertex
100
AcDb2dVertex
 10
1653.996963
 20
1430.225157
 30
0.0
  0
VERTEX
  5
2F5
100
AcDbEntity
  8
タンク
  6
CONTINUOUS
 62
     6
100
AcDbVertex
100
AcDb2dVertex
 10
1653.002243
 20
1430.236601
 30
0.0
  0
VERTEX
  5
2F6
100
AcDbEntity
  8
タンク
  6
CONTINUOUS
 62
     6
100
AcDbVertex
100
AcDb2dVertex
 10
1652.000046
 20
1430.24011
 30
0.0
  0
VERTEX
  5
2F7
100
AcDbEntity
  8
タンク
  6
CONTINUOUS
 62
     6
100
AcDbVertex
100
AcDb2dVertex
 10
1650.997848
 20
1430.236295
 30
0.0
  0
VERTEX
  5
2F8
100
AcDbEntity
  8
タンク
  6
CONTINUOUS
 62
     6
100
AcDbVertex
100
AcDb2dVertex
 10
1650.003128
 20
1430.224699
 30
0.0
  0
VERTEX
  5
2F9
100
AcDbEntity
  8
タンク
  6
CONTINUOUS
 62
     6
100
AcDbVertex
100
AcDb2dVertex
 10
1649.023666
 20
1430.206236
 30
0.0
  0
VERTEX
  5
2FA
100
AcDbEntity
  8
タンク
  6
CONTINUOUS
 62
     6
100
AcDbVertex
100
AcDb2dVertex
 10
1648.06694
 20
1430.179991
 30
0.0
  0
VERTEX
  5
2FB
100
AcDbEntity
  8
タンク
  6
CONTINUOUS
 62
     6
100
AcDbVertex
100
AcDb2dVertex
 10
1647.139969
 20
1430.146421
 30
0.0
  0
VERTEX
  5
2FC
100
AcDbEntity
  8
タンク
  6
CONTINUOUS
 62
     6
100
AcDbVertex
100
AcDb2dVertex
 10
1646.250076
 20
1430.106138
 30
0.0
  0
VERTEX
  5
2FD
100
AcDbEntity
  8
タンク
  6
CONTINUOUS
 62
     6
100
AcDbVertex
100
AcDb2dVertex
 10
1645.403976
 20
1430.059141
 30
0.0
  0
VERTEX
  5
2FE
100
AcDbEntity
  8
タンク
  6
CONTINUOUS
 62
     6
100
AcDbVertex
100
AcDb2dVertex
 10
1644.608078
 20
1430.00604
 30
0.0
  0
VERTEX
  5
2FF
100
AcDbEntity
  8
タンク
  6
CONTINUOUS
 62
     6
100
AcDbVertex
100
AcDb2dVertex
 10
1643.868332
 20
1429.946684
 30
0.0
  0
VERTEX
  5
300
100
AcDbEntity
  8
タンク
  6
CONTINUOUS
 62
     6
100
AcDbVertex
100
AcDb2dVertex
 10
1643.190689
 20
1429.882139
 30
0.0
  0
VERTEX
  5
301
100
AcDbEntity
  8
タンク
  6
CONTINUOUS
 62
     6
100
AcDbVertex
100
AcDb2dVertex
 10
1642.57988
 20
1429.812712
 30
0.0
  0
VERTEX
  5
302
100
AcDbEntity
  8
タンク
  6
CONTINUOUS
 62
     6
100
AcDbVertex
100
AcDb2dVertex
 10
1642.040787
 20
1429.739164
 30
0.0
  0
VERTEX
  5
303
100
AcDbEntity
  8
タンク
  6
CONTINUOUS
 62
     6
100
AcDbVertex
100
AcDb2dVertex
 10
1641.577682
 20
1429.661649
 30
0.0
  0
VERTEX
  5
304
100
AcDbEntity
  8
タンク
  6
CONTINUOUS
 62
     6
100
AcDbVertex
100
AcDb2dVertex
 10
1641.193619
 20
1429.580778
 30
0.0
  0
VERTEX
  5
305
100
AcDbEntity
  8
タンク
  6
CONTINUOUS
 62
     6
100
AcDbVertex
100
AcDb2dVertex
 10
1640.8918
 20
1429.497618
 30
0.0
  0
VERTEX
  5
306
100
AcDbEntity
  8
タンク
  6
CONTINUOUS
 62
     6
100
AcDbVertex
100
AcDb2dVertex
 10
1640.67482
 20
1429.412321
 30
0.0
  0
VERTEX
  5
307
100
AcDbEntity
  8
タンク
  6
CONTINUOUS
 62
     6
100
AcDbVertex
100
AcDb2dVertex
 10
1640.543747
 20
1429.325651
 30
0.0
  0
VERTEX
  5
308
100
AcDbEntity
  8
タンク
  6
CONTINUOUS
 62
     6
100
AcDbVertex
100
AcDb2dVertex
 10
1640.499954
 20
1429.238523
 30
0.0
  0
SEQEND
  5
309
100
AcDbEntity
  8
タンク
  6
CONTINUOUS
 62
     6
  0
LINE
  5
30A
100
AcDbEntity
  8
タンク
  6
CONTINUOUS
 62
     6
100
AcDbLine
 10
1663.499985
 20
1429.237913
 30
0.0
 11
1661.500015
 21
1424.256834
 31
0.0
  0
LINE
  5
30B
100
AcDbEntity
  8
タンク
  6
CONTINUOUS
 62
     6
100
AcDbLine
 10
1642.500076
 20
1424.256834
 30
0.0
 11
1640.500107
 21
1429.237913
 31
0.0
  0
POLYLINE
  5
30C
100
AcDbEntity
  8
タンク
  6
CONTINUOUS
 62
     6
100
AcDb2dPolyline
 66
     1
 10
0.0
 20
0.0
 30
0.0
 70
   128
  0
VERTEX
  5
30D
100
AcDbEntity
  8
タンク
  6
CONTINUOUS
 62
     6
100
AcDbVertex
100
AcDb2dVertex
 10
1667.999954
 20
1429.238066
 30
0.0
  0
VERTEX
  5
30E
100
AcDbEntity
  8
タンク
  6
CONTINUOUS
 62
     6
100
AcDbVertex
100
AcDb2dVertex
 10
1667.938919
 20
1429.359678
 30
0.0
  0
VERTEX
  5
30F
100
AcDbEntity
  8
タンク
  6
CONTINUOUS
 62
     6
100
AcDbVertex
100
AcDb2dVertex
 10
1667.756729
 20
1429.480222
 30
0.0
  0
VERTEX
  5
310
100
AcDbEntity
  8
タンク
  6
CONTINUOUS
 62
     6
100
AcDbVertex
100
AcDb2dVertex
 10
1667.45491
 20
1429.598936
 30
0.0
  0
VERTEX
  5
311
100
AcDbEntity
  8
タンク
  6
CONTINUOUS
 62
     6
100
AcDbVertex
100
AcDb2dVertex
 10
1667.035141
 20
1429.714903
 30
0.0
  0
VERTEX
  5
312
100
AcDbEntity
  8
タンク
  6
CONTINUOUS
 62
     6
100
AcDbVertex
100
AcDb2dVertex
 10
1666.500931
 20
1429.82736
 30
0.0
  0
VERTEX
  5
313
100
AcDbEntity
  8
タンク
  6
CONTINUOUS
 62
     6
100
AcDbVertex
100
AcDb2dVertex
 10
1665.856552
 20
1429.93524
 30
0.0
  0
VERTEX
  5
314
100
AcDbEntity
  8
タンク
  6
CONTINUOUS
 62
     6
100
AcDbVertex
100
AcDb2dVertex
 10
1665.10643
 20
1430.037779
 30
0.0
  0
VERTEX
  5
315
100
AcDbEntity
  8
タンク
  6
CONTINUOUS
 62
     6
100
AcDbVertex
100
AcDb2dVertex
 10
1664.256668
 20
1430.134214
 30
0.0
  0
VERTEX
  5
316
100
AcDbEntity
  8
タンク
  6
CONTINUOUS
 62
     6
100
AcDbVertex
100
AcDb2dVertex
 10
1663.313675
 20
1430.223936
 30
0.0
  0
VERTEX
  5
317
100
AcDbEntity
  8
タンク
  6
CONTINUOUS
 62
     6
100
AcDbVertex
100
AcDb2dVertex
 10
1662.284469
 20
1430.306028
 30
0.0
  0
VERTEX
  5
318
100
AcDbEntity
  8
タンク
  6
CONTINUOUS
 62
     6
100
AcDbVertex
100
AcDb2dVertex
 10
1661.177139
 20
1430.380033
 30
0.0
  0
VERTEX
  5
319
100
AcDbEntity
  8
タンク
  6
CONTINUOUS
 62
     6
100
AcDbVertex
100
AcDb2dVertex
 10
1659.999924
 20
1430.445799
 30
0.0
  0
VERTEX
  5
31A
100
AcDbEntity
  8
タンク
  6
CONTINUOUS
 62
     6
100
AcDbVertex
100
AcDb2dVertex
 10
1658.761825
 20
1430.501951
 30
0.0
  0
VERTEX
  5
31B
100
AcDbEntity
  8
タンク
  6
CONTINUOUS
 62
     6
100
AcDbVertex
100
AcDb2dVertex
 10
1657.472153
 20
1430.548795
 30
0.0
  0
VERTEX
  5
31C
100
AcDbEntity
  8
タンク
  6
CONTINUOUS
 62
     6
100
AcDbVertex
100
AcDb2dVertex
 10
1656.141128
 20
1430.584959
 30
0.0
  0
VERTEX
  5
31D
100
AcDbEntity
  8
タンク
  6
CONTINUOUS
 62
     6
100
AcDbVertex
100
AcDb2dVertex
 10
1654.778366
 20
1430.611204
 30
0.0
  0
VERTEX
  5
31E
100
AcDbEntity
  8
タンク
  6
CONTINUOUS
 62
     6
100
AcDbVertex
100
AcDb2dVertex
 10
1653.394546
 20
1430.627073
 30
0.0
  0
VERTEX
  5
31F
100
AcDbEntity
  8
タンク
  6
CONTINUOUS
 62
     6
100
AcDbVertex
100
AcDb2dVertex
 10
1652.000046
 20
1430.632566
 30
0.0
  0
VERTEX
  5
320
100
AcDbEntity
  8
タンク
  6
CONTINUOUS
 62
     6
100
AcDbVertex
100
AcDb2dVertex
 10
1650.605545
 20
1430.627226
 30
0.0
  0
VERTEX
  5
321
100
AcDbEntity
  8
タンク
  6
CONTINUOUS
 62
     6
100
AcDbVertex
100
AcDb2dVertex
 10
1649.221725
 20
1430.611204
 30
0.0
  0
VERTEX
  5
322
100
AcDbEntity
  8
タンク
  6
CONTINUOUS
 62
     6
100
AcDbVertex
100
AcDb2dVertex
 10
1647.858963
 20
1430.584959
 30
0.0
  0
VERTEX
  5
323
100
AcDbEntity
  8
タンク
  6
CONTINUOUS
 62
     6
100
AcDbVertex
100
AcDb2dVertex
 10
1646.527786
 20
1430.548338
 30
0.0
  0
VERTEX
  5
324
100
AcDbEntity
  8
タンク
  6
CONTINUOUS
 62
     6
100
AcDbVertex
100
AcDb2dVertex
 10
1645.238266
 20
1430.501646
 30
0.0
  0
VERTEX
  5
325
100
AcDbEntity
  8
タンク
  6
CONTINUOUS
 62
     6
100
AcDbVertex
100
AcDb2dVertex
 10
1644.000015
 20
1430.445799
 30
0.0
  0
VERTEX
  5
326
100
AcDbEntity
  8
タンク
  6
CONTINUOUS
 62
     6
100
AcDbVertex
100
AcDb2dVertex
 10
1642.822952
 20
1430.380491
 30
0.0
  0
VERTEX
  5
327
100
AcDbEntity
  8
タンク
  6
CONTINUOUS
 62
     6
100
AcDbVertex
100
AcDb2dVertex
 10
1641.715469
 20
1430.306486
 30
0.0
  0
VERTEX
  5
328
100
AcDbEntity
  8
タンク
  6
CONTINUOUS
 62
     6
100
AcDbVertex
100
AcDb2dVertex
 10
1640.686264
 20
1430.223936
 30
0.0
  0
VERTEX
  5
329
100
AcDbEntity
  8
タンク
  6
CONTINUOUS
 62
     6
100
AcDbVertex
100
AcDb2dVertex
 10
1639.743423
 20
1430.134214
 30
0.0
  0
VERTEX
  5
32A
100
AcDbEntity
  8
タンク
  6
CONTINUOUS
 62
     6
100
AcDbVertex
100
AcDb2dVertex
 10
1638.893661
 20
1430.037626
 30
0.0
  0
VERTEX
  5
32B
100
AcDbEntity
  8
タンク
  6
CONTINUOUS
 62
     6
100
AcDbVertex
100
AcDb2dVertex
 10
1638.143692
 20
1429.93524
 30
0.0
  0
VERTEX
  5
32C
100
AcDbEntity
  8
タンク
  6
CONTINUOUS
 62
     6
100
AcDbVertex
100
AcDb2dVertex
 10
1637.499313
 20
1429.82736
 30
0.0
  0
VERTEX
  5
32D
100
AcDbEntity
  8
タンク
  6
CONTINUOUS
 62
     6
100
AcDbVertex
100
AcDb2dVertex
 10
1636.965256
 20
1429.714903
 30
0.0
  0
VERTEX
  5
32E
100
AcDbEntity
  8
タンク
  6
CONTINUOUS
 62
     6
100
AcDbVertex
100
AcDb2dVertex
 10
1636.545334
 20
1429.598936
 30
0.0
  0
VERTEX
  5
32F
100
AcDbEntity
  8
タンク
  6
CONTINUOUS
 62
     6
100
AcDbVertex
100
AcDb2dVertex
 10
1636.243362
 20
1429.480222
 30
0.0
  0
VERTEX
  5
330
100
AcDbEntity
  8
タンク
  6
CONTINUOUS
 62
     6
100
AcDbVertex
100
AcDb2dVertex
 10
1636.061172
 20
1429.359525
 30
0.0
  0
VERTEX
  5
331
100
AcDbEntity
  8
タンク
  6
CONTINUOUS
 62
     6
100
AcDbVertex
100
AcDb2dVertex
 10
1636.000137
 20
1429.237913
 30
0.0
  0
SEQEND
  5
332
100
AcDbEntity
  8
タンク
  6
CONTINUOUS
 62
     6
  0
LINE
  5
333
100
AcDbEntity
  8
タンク
  6
CONTINUOUS
 62
     6
100
AcDbLine
 10
1668.000107
 20
1429.237913
 30
0.0
 11
1670.000076
 21
1423.485655
 31
0.0
  0
LINE
  5
334
100
AcDbEntity
  8
タンク
  6
CONTINUOUS
 62
     6
100
AcDbLine
 10
1635.999985
 20
1429.237913
 30
0.0
 11
1634.000015
 21
1423.485655
 31
0.0
  0
ARC
  5
335
100
AcDbEntity
  8
タンク
  6
CONTINUOUS
 62
     6
100
AcDbCircle
 10
1652.000046
 20
1431.455015
 30
0.0
 40
16.000061
100
AcDbArc
 50
0.0
 51
180.000015
  0
ARC
  5
336
100
AcDbEntity
  8
タンク
  6
CONTINUOUS
 62
     6
100
AcDbCircle
 10
1667.938309
 20
1424.290098
 30
0.0
 40
2.000038
100
AcDbArc
 50
316.425064
 51
4.037964
  0
ARC
  5
337
100
AcDbEntity
  8
タンク
  6
CONTINUOUS
 62
     6
100
AcDbCircle
 10
1636.061783
 20
1424.290098
 30
0.0
 40
2.000052
100
AcDbArc
 50
175.962051
 51
223.574844
  0
ARC
  5
338
100
AcDbEntity
  8
タンク
  6
CONTINUOUS
 62
     6
100
AcDbCircle
 10
1652.000046
 20
1439.454893
 30
0.0
 40
24.000025
100
AcDbArc
 50
223.575394
 51
316.424576
  0
LINE
  5
339
100
AcDbEntity
  8
タンク
  6
CONTINUOUS
 62
     6
100
AcDbLine
 10
1669.933395
 20
1424.430937
 30
0.0
 11
1669.456711
 21
1431.186765
 31
0.0
  0
ARC
  5
33A
100
AcDbEntity
  8
タンク
  6
CONTINUOUS
 62
     6
100
AcDbCircle
 10
1652.000046
 20
1429.955076
 30
0.0
 40
17.500067
100
AcDbArc
 50
4.035928
 51
175.964081
  0
LINE
  5
33B
100
AcDbEntity
  8
タンク
  6
CONTINUOUS
 62
     6
100
AcDbLine
 10
1634.066696
 20
1424.430937
 30
0.0
 11
1634.543381
 21
1431.186765
 31
0.0
  0
LINE
  5
33C
100
AcDbEntity
  8
タンク
  6
CONTINUOUS
 62
     6
100
AcDbLine
 10
1668.000107
 20
1431.455015
 30
0.0
 11
1668.000107
 21
1429.237913
 31
0.0
  0
LINE
  5
33D
100
AcDbEntity
  8
タンク
  6
CONTINUOUS
 62
     6
100
AcDbLine
 10
1635.999985
 20
1431.455015
 30
0.0
 11
1635.999985
 21
1429.237913
 31
0.0
  0
ARC
  5
33E
100
AcDbEntity
  8
タンク
  6
CONTINUOUS
 62
     7
100
AcDbCircle
 10
1511.113511
 20
1366.767664
 30
0.0
 40
60.0
100
AcDbArc
 50
121.885703
 51
168.317333
  0
ARC
  5
33F
100
AcDbEntity
  8
タンク
  6
CONTINUOUS
 62
     7
100
AcDbCircle
 10
1792.886545
 20
1366.767686
 30
0.0
 40
60.0
100
AcDbArc
 50
11.682691
 51
58.11431
  0
LINE
  5
340
100
AcDbEntity
  8
タンク
  6
CONTINUOUS
 62
     7
100
AcDbLine
 10
1442.0
 20
1276.455015
 30
0.0
 11
1862.000092
 21
1276.455168
 31
0.0
  0
ARC
  5
341
100
AcDbEntity
  8
タンク
  6
CONTINUOUS
 62
     7
100
AcDbCircle
 10
1451.275925
 20
1334.481596
 30
0.0
 40
6.000043
100
AcDbArc
 50
87.702942
 51
173.3964
  0
LINE
  5
342
100
AcDbEntity
  8
タンク
  6
CONTINUOUS
 62
     6
100
AcDbLine
 10
1858.135805
 20
1223.509705
 30
0.0
 11
1858.135805
 21
1259.391154
 31
0.0
  0
LINE
  5
343
100
AcDbEntity
  8
タンク
  6
CONTINUOUS
 62
     6
100
AcDbLine
 10
1883.412703
 20
1190.770437
 30
0.0
 11
1863.203805
 21
1190.770437
 31
0.0
  0
LINE
  5
344
100
AcDbEntity
  8
タンク
  6
CONTINUOUS
 62
     6
100
AcDbLine
 10
1877.166108
 20
1259.695237
 30
0.0
 11
1858.439873
 21
1259.695237
 31
0.0
  0
LINE
  5
345
100
AcDbEntity
  8
タンク
  6
CONTINUOUS
 62
     6
100
AcDbLine
 10
1863.203805
 20
1207.971509
 30
0.0
 11
1863.203805
 21
1190.770437
 31
0.0
  0
ARC
  5
346
100
AcDbEntity
  8
タンク
  6
CONTINUOUS
 62
     6
100
AcDbCircle
 10
1863.507873
 20
1191.074443
 30
0.0
 40
0.30408
100
AcDbArc
 50
180.005127
 51
270.056458
  0
ARC
  5
347
100
AcDbEntity
  8
タンク
  6
CONTINUOUS
 62
     6
100
AcDbCircle
 10
1847.999805
 20
1241.450437
 30
0.0
 40
36.4896
100
AcDbArc
 50
10.758698
 51
25.944489
  0
ARC
  5
348
100
AcDbEntity
  8
タンク
  6
CONTINUOUS
 62
     6
100
AcDbCircle
 10
1877.166108
 20
1255.640837
 30
0.0
 40
4.0544
100
AcDbArc
 50
25.944489
 51
90.0
  0
ARC
  5
349
100
AcDbEntity
  8
タンク
  6
CONTINUOUS
 62
     6
100
AcDbCircle
 10
1883.412703
 20
1194.824837
 30
0.0
 40
4.0544
100
AcDbArc
 50
270.0
 51
328.506104
  0
ARC
  5
34A
100
AcDbEntity
  8
タンク
  6
CONTINUOUS
 62
     6
100
AcDbCircle
 10
1871.312605
 20
1202.238025
 30
0.0
 40
18.2448
100
AcDbArc
 50
328.506104
 51
3.653961
  0
ARC
  5
34B
100
AcDbEntity
  8
タンク
  6
CONTINUOUS
 62
     6
100
AcDbCircle
 10
1525.366112
 20
1180.145764
 30
0.0
 40
364.896
100
AcDbArc
 50
3.653961
 51
10.758698
  0
ARC
  5
34C
100
AcDbEntity
  8
タンク
  6
CONTINUOUS
 62
     6
100
AcDbCircle
 10
1836.850237
 20
1207.971509
 30
0.0
 40
26.353569
100
AcDbArc
 50
0.0
 51
36.128998
  0
LINE
  5
34D
100
AcDbEntity
  8
タンク
  6
CONTINUOUS
 62
     6
100
AcDbLine
 10
1438.198144
 20
1235.208525
 30
0.0
 11
1439.698144
 21
1233.708525
 31
0.0
  0
LINE
  5
34E
100
AcDbEntity
  8
タンク
  6
CONTINUOUS
 62
     6
100
AcDbLine
 10
1439.698144
 20
1233.708525
 30
0.0
 11
1445.698144
 21
1233.708525
 31
0.0
  0
LINE
  5
34F
100
AcDbEntity
  8
タンク
  6
CONTINUOUS
 62
     6
100
AcDbLine
 10
1445.698144
 20
1228.708525
 30
0.0
 11
1447.198144
 21
1228.708525
 31
0.0
  0
LINE
  5
350
100
AcDbEntity
  8
タンク
  6
CONTINUOUS
 62
     6
100
AcDbLine
 10
1445.198144
 20
1259.208647
 30
0.0
 11
1439.698144
 21
1259.208647
 31
0.0
  0
LINE
  5
351
100
AcDbEntity
  8
タンク
  6
CONTINUOUS
 62
     6
100
AcDbLine
 10
1439.698144
 20
1259.208647
 30
0.0
 11
1438.448144
 21
1257.958647
 31
0.0
  0
LINE
  5
352
100
AcDbEntity
  8
タンク
  6
CONTINUOUS
 62
     6
100
AcDbLine
 10
1438.448144
 20
1257.958647
 30
0.0
 11
1438.198144
 21
1257.708647
 31
0.0
  0
LINE
  5
353
100
AcDbEntity
  8
タンク
  6
CONTINUOUS
 62
     6
100
AcDbLine
 10
1445.198144
 20
1259.208647
 30
0.0
 11
1445.698144
 21
1259.208647
 31
0.0
  0
LINE
  5
354
100
AcDbEntity
  8
タンク
  6
CONTINUOUS
 62
     6
100
AcDbLine
 10
1438.198144
 20
1256.958647
 30
0.0
 11
1425.5
 21
1256.958647
 31
0.0
  0
LINE
  5
355
100
AcDbEntity
  8
タンク
  6
CONTINUOUS
 62
     6
100
AcDbLine
 10
1447.198144
 20
1264.208647
 30
0.0
 11
1445.698144
 21
1264.208647
 31
0.0
  0
LINE
  5
356
100
AcDbEntity
  8
タンク
  6
CONTINUOUS
 62
     6
100
AcDbLine
 10
1438.198144
 20
1257.708647
 30
0.0
 11
1438.198144
 21
1235.208525
 31
0.0
  0
LINE
  5
357
100
AcDbEntity
  8
タンク
  6
CONTINUOUS
 62
     6
100
AcDbLine
 10
1445.698144
 20
1264.208647
 30
0.0
 11
1445.698144
 21
1259.208647
 31
0.0
  0
LINE
  5
358
100
AcDbEntity
  8
タンク
  6
CONTINUOUS
 62
     6
100
AcDbLine
 10
1438.198144
 20
1255.773527
 30
0.0
 11
1425.5
 21
1255.773527
 31
0.0
  0
ARC
  5
359
100
AcDbEntity
  8
タンク
  6
CONTINUOUS
 62
     6
100
AcDbCircle
 10
1442.183221
 20
1256.419599
 30
0.0
 40
3.735467
100
AcDbArc
 50
138.297333
 51
227.514618
  0
LINE
  5
35A
100
AcDbEntity
  8
タンク
  6
CONTINUOUS
 62
     6
100
AcDbLine
 10
1439.660272
 20
1253.664884
 30
0.0
 11
1444.698144
 21
1253.664884
 31
0.0
  0
ARC
  5
35B
100
AcDbEntity
  8
タンク
  6
CONTINUOUS
 62
     6
100
AcDbCircle
 10
1444.698144
 20
1254.164884
 30
0.0
 40
0.5
100
AcDbArc
 50
270.0
 51
0.0
  0
LINE
  5
35C
100
AcDbEntity
  8
タンク
  6
CONTINUOUS
 62
     6
100
AcDbLine
 10
1445.198144
 20
1254.164884
 30
0.0
 11
1445.198144
 21
1259.208647
 31
0.0
  0
LINE
  5
35D
100
AcDbEntity
  8
タンク
  6
CONTINUOUS
 62
     6
100
AcDbLine
 10
1439.660272
 20
1253.664884
 30
0.0
 11
1439.660272
 21
1251.964201
 31
0.0
  0
LINE
  5
35E
100
AcDbEntity
  8
タンク
  6
CONTINUOUS
 62
     6
100
AcDbLine
 10
1445.198144
 20
1241.452848
 30
0.0
 11
1445.198144
 21
1251.464201
 31
0.0
  0
ARC
  5
35F
100
AcDbEntity
  8
タンク
  6
CONTINUOUS
 62
     6
100
AcDbCircle
 10
1444.698144
 20
1251.464201
 30
0.0
 40
0.5
100
AcDbArc
 50
0.0
 51
90.0
  0
LINE
  5
360
100
AcDbEntity
  8
タンク
  6
CONTINUOUS
 62
     6
100
AcDbLine
 10
1444.698144
 20
1251.964201
 30
0.0
 11
1439.660272
 21
1251.964201
 31
0.0
  0
ARC
  5
361
100
AcDbEntity
  8
タンク
  6
CONTINUOUS
 62
     6
100
AcDbCircle
 10
1451.558099
 20
1246.458586
 30
0.0
 40
13.109923
100
AcDbArc
 50
155.168121
 51
204.832514
  0
LINE
  5
362
100
AcDbEntity
  8
タンク
  6
CONTINUOUS
 62
     6
100
AcDbLine
 10
1445.698144
 20
1259.208647
 30
0.0
 11
1445.698144
 21
1228.708525
 31
0.0
  0
LINE
  5
363
100
AcDbEntity
  8
タンク
  6
CONTINUOUS
 62
     6
100
AcDbLine
 10
1445.198144
 20
1238.752165
 30
0.0
 11
1445.198144
 21
1233.708402
 31
0.0
  0
ARC
  5
364
100
AcDbEntity
  8
タンク
  6
CONTINUOUS
 62
     6
100
AcDbCircle
 10
1444.698144
 20
1238.752165
 30
0.0
 40
0.5
100
AcDbArc
 50
0.0
 51
90.0
  0
LINE
  5
365
100
AcDbEntity
  8
タンク
  6
CONTINUOUS
 62
     6
100
AcDbLine
 10
1439.660272
 20
1239.252165
 30
0.0
 11
1444.698144
 21
1239.252165
 31
0.0
  0
ARC
  5
366
100
AcDbEntity
  8
タンク
  6
CONTINUOUS
 62
     6
100
AcDbCircle
 10
1442.183221
 20
1236.49745
 30
0.0
 40
3.735467
100
AcDbArc
 50
132.485382
 51
221.702667
  0
LINE
  5
367
100
AcDbEntity
  8
タンク
  6
CONTINUOUS
 62
     6
100
AcDbLine
 10
1439.660272
 20
1239.252165
 30
0.0
 11
1439.660272
 21
1240.952848
 31
0.0
  0
LINE
  5
368
100
AcDbEntity
  8
タンク
  6
CONTINUOUS
 62
     6
100
AcDbLine
 10
1444.698144
 20
1240.952848
 30
0.0
 11
1439.660272
 21
1240.952848
 31
0.0
  0
ARC
  5
369
100
AcDbEntity
  8
タンク
  6
CONTINUOUS
 62
     6
100
AcDbCircle
 10
1444.698144
 20
1241.452848
 30
0.0
 40
0.5
100
AcDbArc
 50
270.0
 51
0.0
  0
LINE
  5
36A
100
AcDbEntity
  8
タンク
  6
CONTINUOUS
 62
     6
100
AcDbLine
 10
1438.198144
 20
1237.143513
 30
0.0
 11
1425.5
 21
1237.143519
 31
0.0
  0
LINE
  5
36B
100
AcDbEntity
  8
タンク
  6
CONTINUOUS
 62
     6
100
AcDbLine
 10
1438.198144
 20
1235.958525
 30
0.0
 11
1425.5
 21
1235.958525
 31
0.0
  0
ARC
  5
36C
100
AcDbEntity
  8
タンク
  6
CONTINUOUS
 62
     7
100
AcDbCircle
 10
3147.581165
 20
1239.350938
 30
0.0
 40
1700.0
100
AcDbArc
 50
181.0
 51
190.553848
  0
ARC
  5
36D
100
AcDbEntity
  8
タンク
  6
CONTINUOUS
 62
     7
100
AcDbCircle
 10
3147.581165
 20
1239.350938
 30
0.0
 40
1700.0
100
AcDbArc
 50
190.707818
 51
190.744549
  0
ARC
  5
36E
100
AcDbEntity
  8
タンク
  6
CONTINUOUS
 62
     7
100
AcDbCircle
 10
156.418835
 20
1239.350938
 30
0.0
 40
1700.0
100
AcDbArc
 50
349.255451
 51
349.292182
  0
ARC
  5
36F
100
AcDbEntity
  8
タンク
  6
CONTINUOUS
 62
     7
100
AcDbCircle
 10
156.418835
 20
1239.350938
 30
0.0
 40
1700.0
100
AcDbArc
 50
349.446152
 51
359.0
  0
LEADER
  5
370
100
AcDbEntity
  8
止水栓
  6
CONTINUOUS
 62
     6
100
AcDbLeader
  3
STANDARD
 73
     3
 74
     1
 75
     0
 40
0.0
 76
     2
 10
346.089451
 20
2087.381066
 30
0.0
 10
297.897462
 20
2012.797363
 30
0.0
 77
     6
1001
ACAD
1000
DSTYLE
1002
{
1070
    41
1040
35.0
1070
     5
1000
_EX_NORM
1070
     6
1000
_EX_NORM
1070
     7
1000
_EX_NORM
1070
   341
1005
2D
1002
}
  0
TEXT
  5
371
100
AcDbEntity
  8
止水栓
  6
CONTINUOUS
 62
     6
100
AcDbText
 10
252.399415
 20
2017.86084
 30
0.0
 40
40.0
  1
／ 
 41
0.9912
  7
EXCADSTD
 72
     5
 11
290.159414
 21
2017.86084
 31
0.0
100
AcDbText
  0
TEXT
  5
372
100
AcDbEntity
  8
止水栓
  6
CONTINUOUS
 62
     2
100
AcDbText
 10
247.816896
 20
2036.59375
 30
0.0
 40
20.0
  1
１
 41
0.9912
  7
EXCADSTD
 72
     5
 11
266.696895
 21
2036.59375
 31
0.0
100
AcDbText
  0
TEXT
  5
373
100
AcDbEntity
  8
止水栓
  6
CONTINUOUS
 62
     2
100
AcDbText
 10
278.000001
 20
2021.500977
 30
0.0
 40
20.0
  1
２
 41
0.9912
  7
EXCADSTD
 72
     5
 11
296.88
 21
2021.500977
 31
0.0
100
AcDbText
  0
LINE
  5
374
100
AcDbEntity
  8
止水栓
  6
CONTINUOUS
 62
     6
100
AcDbLine
 10
440.090782
 20
2095.34668
 30
0.0
 11
440.090782
 21
2141.84668
 31
0.0
  0
ARC
  5
375
100
AcDbEntity
  8
止水栓
  6
CONTINUOUS
 62
     6
100
AcDbCircle
 10
446.44088
 20
2095.34668
 30
0.0
 40
12.750425
100
AcDbArc
 50
175.574371
 51
184.414703
  0
ARC
  5
376
100
AcDbEntity
  8
止水栓
  6
CONTINUOUS
 62
     6
100
AcDbCircle
 10
446.44088
 20
2095.34668
 30
0.0
 40
12.749176
100
AcDbArc
 50
235.390915
 51
244.416656
  0
ARC
  5
377
100
AcDbEntity
  8
止水栓
  6
CONTINUOUS
 62
     6
100
AcDbCircle
 10
446.44088
 20
2095.34668
 30
0.0
 40
12.750235
100
AcDbArc
 50
355.585311
 51
0.0
  0
ARC
  5
378
100
AcDbEntity
  8
止水栓
  6
CONTINUOUS
 62
     6
100
AcDbCircle
 10
446.44088
 20
2095.34668
 30
0.0
 40
12.751951
100
AcDbArc
 50
55.585815
 51
60.133423
  0
LINE
  5
379
100
AcDbEntity
  8
止水栓
  6
CONTINUOUS
 62
     6
100
AcDbLine
 10
457.349083
 20
2083.347168
 30
0.0
 11
461.941368
 21
2083.347168
 31
0.0
  0
ARC
  5
37A
100
AcDbEntity
  8
止水栓
  6
CONTINUOUS
 62
     6
100
AcDbCircle
 10
446.44088
 20
2142.348633
 30
0.0
 40
60.000629
100
AcDbArc
 50
260.930511
 51
279.161606
  0
LINE
  5
37B
100
AcDbEntity
  8
止水栓
  6
CONTINUOUS
 62
     6
100
AcDbLine
 10
418.440392
 20
2083.098145
 30
0.0
 11
436.982872
 21
2083.098145
 31
0.0
  0
POLYLINE
  5
37C
100
AcDbEntity
  8
止水栓
  6
CONTINUOUS
 62
     6
100
AcDb2dPolyline
 66
     1
 10
0.0
 20
0.0
 30
0.0
 70
   128
  0
VERTEX
  5
37D
100
AcDbEntity
  8
止水栓
  6
CONTINUOUS
 62
     6
100
AcDbVertex
100
AcDb2dVertex
 10
428.638145
 20
2088.879395
 30
0.0
  0
VERTEX
  5
37E
100
AcDbEntity
  8
止水栓
  6
CONTINUOUS
 62
     6
100
AcDbVertex
100
AcDb2dVertex
 10
428.618614
 20
2089.348145
 30
0.0
  0
VERTEX
  5
37F
100
AcDbEntity
  8
止水栓
  6
CONTINUOUS
 62
     6
100
AcDbVertex
100
AcDb2dVertex
 10
428.56002
 20
2089.812012
 30
0.0
  0
VERTEX
  5
380
100
AcDbEntity
  8
止水栓
  6
CONTINUOUS
 62
     6
100
AcDbVertex
100
AcDb2dVertex
 10
428.459923
 20
2090.270996
 30
0.0
  0
VERTEX
  5
381
100
AcDbEntity
  8
止水栓
  6
CONTINUOUS
 62
     6
100
AcDbVertex
100
AcDb2dVertex
 10
428.325645
 20
2090.717774
 30
0.0
  0
VERTEX
  5
382
100
AcDbEntity
  8
止水栓
  6
CONTINUOUS
 62
     6
100
AcDbVertex
100
AcDb2dVertex
 10
428.149864
 20
2091.152344
 30
0.0
  0
VERTEX
  5
383
100
AcDbEntity
  8
止水栓
  6
CONTINUOUS
 62
     6
100
AcDbVertex
100
AcDb2dVertex
 10
427.942345
 20
2091.567383
 30
0.0
  0
VERTEX
  5
384
100
AcDbEntity
  8
止水栓
  6
CONTINUOUS
 62
     6
100
AcDbVertex
100
AcDb2dVertex
 10
427.698204
 20
2091.962891
 30
0.0
  0
VERTEX
  5
385
100
AcDbEntity
  8
止水栓
  6
CONTINUOUS
 62
     6
100
AcDbVertex
100
AcDb2dVertex
 10
427.422325
 20
2092.333984
 30
0.0
  0
VERTEX
  5
386
100
AcDbEntity
  8
止水栓
  6
CONTINUOUS
 62
     6
100
AcDbVertex
100
AcDb2dVertex
 10
427.117149
 20
2092.680664
 30
0.0
  0
VERTEX
  5
387
100
AcDbEntity
  8
止水栓
  6
CONTINUOUS
 62
     6
100
AcDbVertex
100
AcDb2dVertex
 10
426.782677
 20
2092.998047
 30
0.0
  0
VERTEX
  5
388
100
AcDbEntity
  8
止水栓
  6
CONTINUOUS
 62
     6
100
AcDbVertex
100
AcDb2dVertex
 10
426.421349
 20
2093.283691
 30
0.0
  0
VERTEX
  5
389
100
AcDbEntity
  8
止水栓
  6
CONTINUOUS
 62
     6
100
AcDbVertex
100
AcDb2dVertex
 10
426.040489
 20
2093.535156
 30
0.0
  0
VERTEX
  5
38A
100
AcDbEntity
  8
止水栓
  6
CONTINUOUS
 62
     6
100
AcDbVertex
100
AcDb2dVertex
 10
425.637657
 20
2093.752441
 30
0.0
  0
VERTEX
  5
38B
100
AcDbEntity
  8
止水栓
  6
CONTINUOUS
 62
     6
100
AcDbVertex
100
AcDb2dVertex
 10
425.220177
 20
2093.930664
 30
0.0
  0
VERTEX
  5
38C
100
AcDbEntity
  8
止水栓
  6
CONTINUOUS
 62
     6
100
AcDbVertex
100
AcDb2dVertex
 10
424.788048
 20
2094.072266
 30
0.0
  0
VERTEX
  5
38D
100
AcDbEntity
  8
止水栓
  6
CONTINUOUS
 62
     6
100
AcDbVertex
100
AcDb2dVertex
 10
424.343712
 20
2094.172363
 30
0.0
  0
VERTEX
  5
38E
100
AcDbEntity
  8
止水栓
  6
CONTINUOUS
 62
     6
100
AcDbVertex
100
AcDb2dVertex
 10
423.894493
 20
2094.23584
 30
0.0
  0
VERTEX
  5
38F
100
AcDbEntity
  8
止水栓
  6
CONTINUOUS
 62
     6
100
AcDbVertex
100
AcDb2dVertex
 10
423.442833
 20
2094.255371
 30
0.0
  0
VERTEX
  5
390
100
AcDbEntity
  8
止水栓
  6
CONTINUOUS
 62
     6
100
AcDbVertex
100
AcDb2dVertex
 10
422.988731
 20
2094.23584
 30
0.0
  0
VERTEX
  5
391
100
AcDbEntity
  8
止水栓
  6
CONTINUOUS
 62
     6
100
AcDbVertex
100
AcDb2dVertex
 10
422.539513
 20
2094.172363
 30
0.0
  0
VERTEX
  5
392
100
AcDbEntity
  8
止水栓
  6
CONTINUOUS
 62
     6
100
AcDbVertex
100
AcDb2dVertex
 10
422.097618
 20
2094.072266
 30
0.0
  0
VERTEX
  5
393
100
AcDbEntity
  8
止水栓
  6
CONTINUOUS
 62
     6
100
AcDbVertex
100
AcDb2dVertex
 10
421.665489
 20
2093.930664
 30
0.0
  0
VERTEX
  5
394
100
AcDbEntity
  8
止水栓
  6
CONTINUOUS
 62
     6
100
AcDbVertex
100
AcDb2dVertex
 10
421.245567
 20
2093.752441
 30
0.0
  0
VERTEX
  5
395
100
AcDbEntity
  8
止水栓
  6
CONTINUOUS
 62
     6
100
AcDbVertex
100
AcDb2dVertex
 10
420.842735
 20
2093.535156
 30
0.0
  0
VERTEX
  5
396
100
AcDbEntity
  8
止水栓
  6
CONTINUOUS
 62
     6
100
AcDbVertex
100
AcDb2dVertex
 10
420.461876
 20
2093.283691
 30
0.0
  0
VERTEX
  5
397
100
AcDbEntity
  8
止水栓
  6
CONTINUOUS
 62
     6
100
AcDbVertex
100
AcDb2dVertex
 10
420.102989
 20
2092.998047
 30
0.0
  0
VERTEX
  5
398
100
AcDbEntity
  8
止水栓
  6
CONTINUOUS
 62
     6
100
AcDbVertex
100
AcDb2dVertex
 10
419.768517
 20
2092.680664
 30
0.0
  0
VERTEX
  5
399
100
AcDbEntity
  8
止水栓
  6
CONTINUOUS
 62
     6
100
AcDbVertex
100
AcDb2dVertex
 10
419.460899
 20
2092.336426
 30
0.0
  0
VERTEX
  5
39A
100
AcDbEntity
  8
止水栓
  6
CONTINUOUS
 62
     6
100
AcDbVertex
100
AcDb2dVertex
 10
419.18502
 20
2091.962891
 30
0.0
  0
VERTEX
  5
39B
100
AcDbEntity
  8
止水栓
  6
CONTINUOUS
 62
     6
100
AcDbVertex
100
AcDb2dVertex
 10
418.94088
 20
2091.567383
 30
0.0
  0
VERTEX
  5
39C
100
AcDbEntity
  8
止水栓
  6
CONTINUOUS
 62
     6
100
AcDbVertex
100
AcDb2dVertex
 10
418.73336
 20
2091.152344
 30
0.0
  0
VERTEX
  5
39D
100
AcDbEntity
  8
止水栓
  6
CONTINUOUS
 62
     6
100
AcDbVertex
100
AcDb2dVertex
 10
418.56002
 20
2090.717774
 30
0.0
  0
VERTEX
  5
39E
100
AcDbEntity
  8
止水栓
  6
CONTINUOUS
 62
     6
100
AcDbVertex
100
AcDb2dVertex
 10
418.423302
 20
2090.270996
 30
0.0
  0
VERTEX
  5
39F
100
AcDbEntity
  8
止水栓
  6
CONTINUOUS
 62
     6
100
AcDbVertex
100
AcDb2dVertex
 10
418.325645
 20
2089.814453
 30
0.0
  0
VERTEX
  5
3A0
100
AcDbEntity
  8
止水栓
  6
CONTINUOUS
 62
     6
100
AcDbVertex
100
AcDb2dVertex
 10
418.267052
 20
2089.348145
 30
0.0
  0
VERTEX
  5
3A1
100
AcDbEntity
  8
止水栓
  6
CONTINUOUS
 62
     6
100
AcDbVertex
100
AcDb2dVertex
 10
418.245079
 20
2088.881836
 30
0.0
  0
VERTEX
  5
3A2
100
AcDbEntity
  8
止水栓
  6
CONTINUOUS
 62
     6
100
AcDbVertex
100
AcDb2dVertex
 10
418.26461
 20
2088.413086
 30
0.0
  0
VERTEX
  5
3A3
100
AcDbEntity
  8
止水栓
  6
CONTINUOUS
 62
     6
100
AcDbVertex
100
AcDb2dVertex
 10
418.325645
 20
2087.946777
 30
0.0
  0
VERTEX
  5
3A4
100
AcDbEntity
  8
止水栓
  6
CONTINUOUS
 62
     6
100
AcDbVertex
100
AcDb2dVertex
 10
418.423302
 20
2087.490234
 30
0.0
  0
VERTEX
  5
3A5
100
AcDbEntity
  8
止水栓
  6
CONTINUOUS
 62
     6
100
AcDbVertex
100
AcDb2dVertex
 10
418.56002
 20
2087.043457
 30
0.0
  0
VERTEX
  5
3A6
100
AcDbEntity
  8
止水栓
  6
CONTINUOUS
 62
     6
100
AcDbVertex
100
AcDb2dVertex
 10
418.73336
 20
2086.608887
 30
0.0
  0
VERTEX
  5
3A7
100
AcDbEntity
  8
止水栓
  6
CONTINUOUS
 62
     6
100
AcDbVertex
100
AcDb2dVertex
 10
418.94088
 20
2086.193848
 30
0.0
  0
VERTEX
  5
3A8
100
AcDbEntity
  8
止水栓
  6
CONTINUOUS
 62
     6
100
AcDbVertex
100
AcDb2dVertex
 10
419.18502
 20
2085.79834
 30
0.0
  0
VERTEX
  5
3A9
100
AcDbEntity
  8
止水栓
  6
CONTINUOUS
 62
     6
100
AcDbVertex
100
AcDb2dVertex
 10
419.460899
 20
2085.424805
 30
0.0
  0
VERTEX
  5
3AA
100
AcDbEntity
  8
止水栓
  6
CONTINUOUS
 62
     6
100
AcDbVertex
100
AcDb2dVertex
 10
419.768517
 20
2085.080566
 30
0.0
  0
VERTEX
  5
3AB
100
AcDbEntity
  8
止水栓
  6
CONTINUOUS
 62
     6
100
AcDbVertex
100
AcDb2dVertex
 10
420.102989
 20
2084.763184
 30
0.0
  0
VERTEX
  5
3AC
100
AcDbEntity
  8
止水栓
  6
CONTINUOUS
 62
     6
100
AcDbVertex
100
AcDb2dVertex
 10
420.461876
 20
2084.477539
 30
0.0
  0
VERTEX
  5
3AD
100
AcDbEntity
  8
止水栓
  6
CONTINUOUS
 62
     6
100
AcDbVertex
100
AcDb2dVertex
 10
420.842735
 20
2084.226074
 30
0.0
  0
VERTEX
  5
3AE
100
AcDbEntity
  8
止水栓
  6
CONTINUOUS
 62
     6
100
AcDbVertex
100
AcDb2dVertex
 10
421.245567
 20
2084.008789
 30
0.0
  0
VERTEX
  5
3AF
100
AcDbEntity
  8
止水栓
  6
CONTINUOUS
 62
     6
100
AcDbVertex
100
AcDb2dVertex
 10
421.665489
 20
2083.830566
 30
0.0
  0
VERTEX
  5
3B0
100
AcDbEntity
  8
止水栓
  6
CONTINUOUS
 62
     6
100
AcDbVertex
100
AcDb2dVertex
 10
422.097618
 20
2083.688965
 30
0.0
  0
VERTEX
  5
3B1
100
AcDbEntity
  8
止水栓
  6
CONTINUOUS
 62
     6
100
AcDbVertex
100
AcDb2dVertex
 10
422.539513
 20
2083.586426
 30
0.0
  0
VERTEX
  5
3B2
100
AcDbEntity
  8
止水栓
  6
CONTINUOUS
 62
     6
100
AcDbVertex
100
AcDb2dVertex
 10
422.988731
 20
2083.525391
 30
0.0
  0
VERTEX
  5
3B3
100
AcDbEntity
  8
止水栓
  6
CONTINUOUS
 62
     6
100
AcDbVertex
100
AcDb2dVertex
 10
423.442833
 20
2083.505859
 30
0.0
  0
VERTEX
  5
3B4
100
AcDbEntity
  8
止水栓
  6
CONTINUOUS
 62
     6
100
AcDbVertex
100
AcDb2dVertex
 10
423.894493
 20
2083.525391
 30
0.0
  0
VERTEX
  5
3B5
100
AcDbEntity
  8
止水栓
  6
CONTINUOUS
 62
     6
100
AcDbVertex
100
AcDb2dVertex
 10
424.343712
 20
2083.586426
 30
0.0
  0
VERTEX
  5
3B6
100
AcDbEntity
  8
止水栓
  6
CONTINUOUS
 62
     6
100
AcDbVertex
100
AcDb2dVertex
 10
424.785606
 20
2083.688965
 30
0.0
  0
VERTEX
  5
3B7
100
AcDbEntity
  8
止水栓
  6
CONTINUOUS
 62
     6
100
AcDbVertex
100
AcDb2dVertex
 10
425.220177
 20
2083.830566
 30
0.0
  0
VERTEX
  5
3B8
100
AcDbEntity
  8
止水栓
  6
CONTINUOUS
 62
     6
100
AcDbVertex
100
AcDb2dVertex
 10
425.637657
 20
2084.008789
 30
0.0
  0
SEQEND
  5
3B9
100
AcDbEntity
  8
止水栓
  6
CONTINUOUS
 62
     6
  0
POLYLINE
  5
3BA
100
AcDbEntity
  8
止水栓
  6
CONTINUOUS
 62
     6
100
AcDb2dPolyline
 66
     1
 10
0.0
 20
0.0
 30
0.0
 70
   128
  0
VERTEX
  5
3BB
100
AcDbEntity
  8
止水栓
  6
CONTINUOUS
 62
     6
100
AcDbVertex
100
AcDb2dVertex
 10
425.637657
 20
2084.008789
 30
0.0
  0
VERTEX
  5
3BC
100
AcDbEntity
  8
止水栓
  6
CONTINUOUS
 62
     6
100
AcDbVertex
100
AcDb2dVertex
 10
426.040489
 20
2084.226074
 30
0.0
  0
VERTEX
  5
3BD
100
AcDbEntity
  8
止水栓
  6
CONTINUOUS
 62
     6
100
AcDbVertex
100
AcDb2dVertex
 10
426.421349
 20
2084.477539
 30
0.0
  0
VERTEX
  5
3BE
100
AcDbEntity
  8
止水栓
  6
CONTINUOUS
 62
     6
100
AcDbVertex
100
AcDb2dVertex
 10
426.782677
 20
2084.763184
 30
0.0
  0
VERTEX
  5
3BF
100
AcDbEntity
  8
止水栓
  6
CONTINUOUS
 62
     6
100
AcDbVertex
100
AcDb2dVertex
 10
427.114708
 20
2085.080566
 30
0.0
  0
VERTEX
  5
3C0
100
AcDbEntity
  8
止水栓
  6
CONTINUOUS
 62
     6
100
AcDbVertex
100
AcDb2dVertex
 10
427.422325
 20
2085.424805
 30
0.0
  0
VERTEX
  5
3C1
100
AcDbEntity
  8
止水栓
  6
CONTINUOUS
 62
     6
100
AcDbVertex
100
AcDb2dVertex
 10
427.698204
 20
2085.795899
 30
0.0
  0
VERTEX
  5
3C2
100
AcDbEntity
  8
止水栓
  6
CONTINUOUS
 62
     6
100
AcDbVertex
100
AcDb2dVertex
 10
427.942345
 20
2086.193848
 30
0.0
  0
VERTEX
  5
3C3
100
AcDbEntity
  8
止水栓
  6
CONTINUOUS
 62
     6
100
AcDbVertex
100
AcDb2dVertex
 10
428.152306
 20
2086.608887
 30
0.0
  0
VERTEX
  5
3C4
100
AcDbEntity
  8
止水栓
  6
CONTINUOUS
 62
     6
100
AcDbVertex
100
AcDb2dVertex
 10
428.325645
 20
2087.041016
 30
0.0
  0
VERTEX
  5
3C5
100
AcDbEntity
  8
止水栓
  6
CONTINUOUS
 62
     6
100
AcDbVertex
100
AcDb2dVertex
 10
428.459923
 20
2087.487793
 30
0.0
  0
SEQEND
  5
3C6
100
AcDbEntity
  8
止水栓
  6
CONTINUOUS
 62
     6
  0
POLYLINE
  5
3C7
100
AcDbEntity
  8
止水栓
  6
CONTINUOUS
 62
     6
100
AcDb2dPolyline
 66
     1
 10
0.0
 20
0.0
 30
0.0
 70
   128
  0
VERTEX
  5
3C8
100
AcDbEntity
  8
止水栓
  6
CONTINUOUS
 62
     6
100
AcDbVertex
100
AcDb2dVertex
 10
428.459923
 20
2087.487793
 30
0.0
  0
VERTEX
  5
3C9
100
AcDbEntity
  8
止水栓
  6
CONTINUOUS
 62
     6
100
AcDbVertex
100
AcDb2dVertex
 10
428.56002
 20
2087.946777
 30
0.0
  0
VERTEX
  5
3CA
100
AcDbEntity
  8
止水栓
  6
CONTINUOUS
 62
     6
100
AcDbVertex
100
AcDb2dVertex
 10
428.618614
 20
2088.413086
 30
0.0
  0
VERTEX
  5
3CB
100
AcDbEntity
  8
止水栓
  6
CONTINUOUS
 62
     6
100
AcDbVertex
100
AcDb2dVertex
 10
428.638145
 20
2088.881836
 30
0.0
  0
SEQEND
  5
3CC
100
AcDbEntity
  8
止水栓
  6
CONTINUOUS
 62
     6
  0
POLYLINE
  5
3CD
100
AcDbEntity
  8
止水栓
  6
CONTINUOUS
 62
     6
100
AcDb2dPolyline
 66
     1
 10
0.0
 20
0.0
 30
0.0
 70
   128
  0
VERTEX
  5
3CE
100
AcDbEntity
  8
止水栓
  6
CONTINUOUS
 62
     6
100
AcDbVertex
100
AcDb2dVertex
 10
428.47213
 20
2101.845703
 30
0.0
  0
VERTEX
  5
3CF
100
AcDbEntity
  8
止水栓
  6
CONTINUOUS
 62
     6
100
AcDbVertex
100
AcDb2dVertex
 10
428.452599
 20
2102.312012
 30
0.0
  0
VERTEX
  5
3D0
100
AcDbEntity
  8
止水栓
  6
CONTINUOUS
 62
     6
100
AcDbVertex
100
AcDb2dVertex
 10
428.396446
 20
2102.775879
 30
0.0
  0
VERTEX
  5
3D1
100
AcDbEntity
  8
止水栓
  6
CONTINUOUS
 62
     6
100
AcDbVertex
100
AcDb2dVertex
 10
428.301231
 20
2103.234863
 30
0.0
  0
VERTEX
  5
3D2
100
AcDbEntity
  8
止水栓
  6
CONTINUOUS
 62
     6
100
AcDbVertex
100
AcDb2dVertex
 10
428.169395
 20
2103.679199
 30
0.0
  0
VERTEX
  5
3D3
100
AcDbEntity
  8
止水栓
  6
CONTINUOUS
 62
     6
100
AcDbVertex
100
AcDb2dVertex
 10
428.00338
 20
2104.111328
 30
0.0
  0
VERTEX
  5
3D4
100
AcDbEntity
  8
止水栓
  6
CONTINUOUS
 62
     6
100
AcDbVertex
100
AcDb2dVertex
 10
427.803184
 20
2104.526367
 30
0.0
  0
VERTEX
  5
3D5
100
AcDbEntity
  8
止水栓
  6
CONTINUOUS
 62
     6
100
AcDbVertex
100
AcDb2dVertex
 10
427.568809
 20
2104.919434
 30
0.0
  0
VERTEX
  5
3D6
100
AcDbEntity
  8
止水栓
  6
CONTINUOUS
 62
     6
100
AcDbVertex
100
AcDb2dVertex
 10
427.302696
 20
2105.290527
 30
0.0
  0
VERTEX
  5
3D7
100
AcDbEntity
  8
止水栓
  6
CONTINUOUS
 62
     6
100
AcDbVertex
100
AcDb2dVertex
 10
427.007286
 20
2105.637207
 30
0.0
  0
VERTEX
  5
3D8
100
AcDbEntity
  8
止水栓
  6
CONTINUOUS
 62
     6
100
AcDbVertex
100
AcDb2dVertex
 10
426.687462
 20
2105.952149
 30
0.0
  0
VERTEX
  5
3D9
100
AcDbEntity
  8
止水栓
  6
CONTINUOUS
 62
     6
100
AcDbVertex
100
AcDb2dVertex
 10
426.340782
 20
2106.237793
 30
0.0
  0
VERTEX
  5
3DA
100
AcDbEntity
  8
止水栓
  6
CONTINUOUS
 62
     6
100
AcDbVertex
100
AcDb2dVertex
 10
425.97213
 20
2106.486816
 30
0.0
  0
VERTEX
  5
3DB
100
AcDbEntity
  8
止水栓
  6
CONTINUOUS
 62
     6
100
AcDbVertex
100
AcDb2dVertex
 10
425.586388
 20
2106.704102
 30
0.0
  0
VERTEX
  5
3DC
100
AcDbEntity
  8
止水栓
  6
CONTINUOUS
 62
     6
100
AcDbVertex
100
AcDb2dVertex
 10
425.183556
 20
2106.882324
 30
0.0
  0
VERTEX
  5
3DD
100
AcDbEntity
  8
止水栓
  6
CONTINUOUS
 62
     6
100
AcDbVertex
100
AcDb2dVertex
 10
424.766075
 20
2107.023926
 30
0.0
  0
VERTEX
  5
3DE
100
AcDbEntity
  8
止水栓
  6
CONTINUOUS
 62
     6
100
AcDbVertex
100
AcDb2dVertex
 10
424.34127
 20
2107.124024
 30
0.0
  0
VERTEX
  5
3DF
100
AcDbEntity
  8
止水栓
  6
CONTINUOUS
 62
     6
100
AcDbVertex
100
AcDb2dVertex
 10
423.909142
 20
2107.185059
 30
0.0
  0
VERTEX
  5
3E0
100
AcDbEntity
  8
止水栓
  6
CONTINUOUS
 62
     6
100
AcDbVertex
100
AcDb2dVertex
 10
423.47213
 20
2107.20459
 30
0.0
  0
VERTEX
  5
3E1
100
AcDbEntity
  8
止水栓
  6
CONTINUOUS
 62
     6
100
AcDbVertex
100
AcDb2dVertex
 10
423.037559
 20
2107.185059
 30
0.0
  0
VERTEX
  5
3E2
100
AcDbEntity
  8
止水栓
  6
CONTINUOUS
 62
     6
100
AcDbVertex
100
AcDb2dVertex
 10
422.602989
 20
2107.124024
 30
0.0
  0
VERTEX
  5
3E3
100
AcDbEntity
  8
止水栓
  6
CONTINUOUS
 62
     6
100
AcDbVertex
100
AcDb2dVertex
 10
422.178184
 20
2107.023926
 30
0.0
  0
VERTEX
  5
3E4
100
AcDbEntity
  8
止水栓
  6
CONTINUOUS
 62
     6
100
AcDbVertex
100
AcDb2dVertex
 10
421.763145
 20
2106.882324
 30
0.0
  0
VERTEX
  5
3E5
100
AcDbEntity
  8
止水栓
  6
CONTINUOUS
 62
     6
100
AcDbVertex
100
AcDb2dVertex
 10
421.360313
 20
2106.704102
 30
0.0
  0
VERTEX
  5
3E6
100
AcDbEntity
  8
止水栓
  6
CONTINUOUS
 62
     6
100
AcDbVertex
100
AcDb2dVertex
 10
420.97213
 20
2106.486816
 30
0.0
  0
VERTEX
  5
3E7
100
AcDbEntity
  8
止水栓
  6
CONTINUOUS
 62
     6
100
AcDbVertex
100
AcDb2dVertex
 10
420.603477
 20
2106.237793
 30
0.0
  0
VERTEX
  5
3E8
100
AcDbEntity
  8
止水栓
  6
CONTINUOUS
 62
     6
100
AcDbVertex
100
AcDb2dVertex
 10
420.259239
 20
2105.952149
 30
0.0
  0
VERTEX
  5
3E9
100
AcDbEntity
  8
止水栓
  6
CONTINUOUS
 62
     6
100
AcDbVertex
100
AcDb2dVertex
 10
419.936974
 20
2105.637207
 30
0.0
  0
VERTEX
  5
3EA
100
AcDbEntity
  8
止水栓
  6
CONTINUOUS
 62
     6
100
AcDbVertex
100
AcDb2dVertex
 10
419.641563
 20
2105.290527
 30
0.0
  0
VERTEX
  5
3EB
100
AcDbEntity
  8
止水栓
  6
CONTINUOUS
 62
     6
100
AcDbVertex
100
AcDb2dVertex
 10
419.377892
 20
2104.919434
 30
0.0
  0
VERTEX
  5
3EC
100
AcDbEntity
  8
止水栓
  6
CONTINUOUS
 62
     6
100
AcDbVertex
100
AcDb2dVertex
 10
419.141075
 20
2104.526367
 30
0.0
  0
VERTEX
  5
3ED
100
AcDbEntity
  8
止水栓
  6
CONTINUOUS
 62
     6
100
AcDbVertex
100
AcDb2dVertex
 10
418.94088
 20
2104.111328
 30
0.0
  0
VERTEX
  5
3EE
100
AcDbEntity
  8
止水栓
  6
CONTINUOUS
 62
     6
100
AcDbVertex
100
AcDb2dVertex
 10
418.774864
 20
2103.679199
 30
0.0
  0
VERTEX
  5
3EF
100
AcDbEntity
  8
止水栓
  6
CONTINUOUS
 62
     6
100
AcDbVertex
100
AcDb2dVertex
 10
418.643028
 20
2103.234863
 30
0.0
  0
VERTEX
  5
3F0
100
AcDbEntity
  8
止水栓
  6
CONTINUOUS
 62
     6
100
AcDbVertex
100
AcDb2dVertex
 10
418.547813
 20
2102.77832
 30
0.0
  0
VERTEX
  5
3F1
100
AcDbEntity
  8
止水栓
  6
CONTINUOUS
 62
     6
100
AcDbVertex
100
AcDb2dVertex
 10
418.491661
 20
2102.314453
 30
0.0
  0
VERTEX
  5
3F2
100
AcDbEntity
  8
止水栓
  6
CONTINUOUS
 62
     6
100
AcDbVertex
100
AcDb2dVertex
 10
418.47213
 20
2101.848145
 30
0.0
  0
VERTEX
  5
3F3
100
AcDbEntity
  8
止水栓
  6
CONTINUOUS
 62
     6
100
AcDbVertex
100
AcDb2dVertex
 10
418.491661
 20
2101.379395
 30
0.0
  0
VERTEX
  5
3F4
100
AcDbEntity
  8
止水栓
  6
CONTINUOUS
 62
     6
100
AcDbVertex
100
AcDb2dVertex
 10
418.547813
 20
2100.917969
 30
0.0
  0
VERTEX
  5
3F5
100
AcDbEntity
  8
止水栓
  6
CONTINUOUS
 62
     6
100
AcDbVertex
100
AcDb2dVertex
 10
418.643028
 20
2100.461426
 30
0.0
  0
VERTEX
  5
3F6
100
AcDbEntity
  8
止水栓
  6
CONTINUOUS
 62
     6
100
AcDbVertex
100
AcDb2dVertex
 10
418.774864
 20
2100.014649
 30
0.0
  0
VERTEX
  5
3F7
100
AcDbEntity
  8
止水栓
  6
CONTINUOUS
 62
     6
100
AcDbVertex
100
AcDb2dVertex
 10
418.94088
 20
2099.58252
 30
0.0
  0
VERTEX
  5
3F8
100
AcDbEntity
  8
止水栓
  6
CONTINUOUS
 62
     6
100
AcDbVertex
100
AcDb2dVertex
 10
419.141075
 20
2099.16748
 30
0.0
  0
VERTEX
  5
3F9
100
AcDbEntity
  8
止水栓
  6
CONTINUOUS
 62
     6
100
AcDbVertex
100
AcDb2dVertex
 10
419.37545
 20
2098.771973
 30
0.0
  0
VERTEX
  5
3FA
100
AcDbEntity
  8
止水栓
  6
CONTINUOUS
 62
     6
100
AcDbVertex
100
AcDb2dVertex
 10
419.641563
 20
2098.400879
 30
0.0
  0
VERTEX
  5
3FB
100
AcDbEntity
  8
止水栓
  6
CONTINUOUS
 62
     6
100
AcDbVertex
100
AcDb2dVertex
 10
419.936974
 20
2098.056641
 30
0.0
  0
VERTEX
  5
3FC
100
AcDbEntity
  8
止水栓
  6
CONTINUOUS
 62
     6
100
AcDbVertex
100
AcDb2dVertex
 10
420.259239
 20
2097.741699
 30
0.0
  0
VERTEX
  5
3FD
100
AcDbEntity
  8
止水栓
  6
CONTINUOUS
 62
     6
100
AcDbVertex
100
AcDb2dVertex
 10
420.605919
 20
2097.456055
 30
0.0
  0
VERTEX
  5
3FE
100
AcDbEntity
  8
止水栓
  6
CONTINUOUS
 62
     6
100
AcDbVertex
100
AcDb2dVertex
 10
420.97213
 20
2097.20459
 30
0.0
  0
VERTEX
  5
3FF
100
AcDbEntity
  8
止水栓
  6
CONTINUOUS
 62
     6
100
AcDbVertex
100
AcDb2dVertex
 10
421.360313
 20
2096.989746
 30
0.0
  0
VERTEX
  5
400
100
AcDbEntity
  8
止水栓
  6
CONTINUOUS
 62
     6
100
AcDbVertex
100
AcDb2dVertex
 10
421.763145
 20
2096.811524
 30
0.0
  0
VERTEX
  5
401
100
AcDbEntity
  8
止水栓
  6
CONTINUOUS
 62
     6
100
AcDbVertex
100
AcDb2dVertex
 10
422.178184
 20
2096.669922
 30
0.0
  0
VERTEX
  5
402
100
AcDbEntity
  8
止水栓
  6
CONTINUOUS
 62
     6
100
AcDbVertex
100
AcDb2dVertex
 10
422.602989
 20
2096.569824
 30
0.0
  0
VERTEX
  5
403
100
AcDbEntity
  8
止水栓
  6
CONTINUOUS
 62
     6
100
AcDbVertex
100
AcDb2dVertex
 10
423.037559
 20
2096.508789
 30
0.0
  0
VERTEX
  5
404
100
AcDbEntity
  8
止水栓
  6
CONTINUOUS
 62
     6
100
AcDbVertex
100
AcDb2dVertex
 10
423.47213
 20
2096.486816
 30
0.0
  0
VERTEX
  5
405
100
AcDbEntity
  8
止水栓
  6
CONTINUOUS
 62
     6
100
AcDbVertex
100
AcDb2dVertex
 10
423.9067
 20
2096.506348
 30
0.0
  0
VERTEX
  5
406
100
AcDbEntity
  8
止水栓
  6
CONTINUOUS
 62
     6
100
AcDbVertex
100
AcDb2dVertex
 10
424.34127
 20
2096.567383
 30
0.0
  0
VERTEX
  5
407
100
AcDbEntity
  8
止水栓
  6
CONTINUOUS
 62
     6
100
AcDbVertex
100
AcDb2dVertex
 10
424.766075
 20
2096.669922
 30
0.0
  0
VERTEX
  5
408
100
AcDbEntity
  8
止水栓
  6
CONTINUOUS
 62
     6
100
AcDbVertex
100
AcDb2dVertex
 10
425.183556
 20
2096.809082
 30
0.0
  0
VERTEX
  5
409
100
AcDbEntity
  8
止水栓
  6
CONTINUOUS
 62
     6
100
AcDbVertex
100
AcDb2dVertex
 10
425.586388
 20
2096.989746
 30
0.0
  0
SEQEND
  5
40A
100
AcDbEntity
  8
止水栓
  6
CONTINUOUS
 62
     6
  0
POLYLINE
  5
40B
100
AcDbEntity
  8
止水栓
  6
CONTINUOUS
 62
     6
100
AcDb2dPolyline
 66
     1
 10
0.0
 20
0.0
 30
0.0
 70
   128
  0
VERTEX
  5
40C
100
AcDbEntity
  8
止水栓
  6
CONTINUOUS
 62
     6
100
AcDbVertex
100
AcDb2dVertex
 10
425.586388
 20
2096.989746
 30
0.0
  0
VERTEX
  5
40D
100
AcDbEntity
  8
止水栓
  6
CONTINUOUS
 62
     6
100
AcDbVertex
100
AcDb2dVertex
 10
425.97213
 20
2097.20459
 30
0.0
  0
VERTEX
  5
40E
100
AcDbEntity
  8
止水栓
  6
CONTINUOUS
 62
     6
100
AcDbVertex
100
AcDb2dVertex
 10
426.340782
 20
2097.456055
 30
0.0
  0
VERTEX
  5
40F
100
AcDbEntity
  8
止水栓
  6
CONTINUOUS
 62
     6
100
AcDbVertex
100
AcDb2dVertex
 10
426.68502
 20
2097.741699
 30
0.0
  0
VERTEX
  5
410
100
AcDbEntity
  8
止水栓
  6
CONTINUOUS
 62
     6
100
AcDbVertex
100
AcDb2dVertex
 10
427.007286
 20
2098.056641
 30
0.0
  0
VERTEX
  5
411
100
AcDbEntity
  8
止水栓
  6
CONTINUOUS
 62
     6
100
AcDbVertex
100
AcDb2dVertex
 10
427.302696
 20
2098.400879
 30
0.0
  0
VERTEX
  5
412
100
AcDbEntity
  8
止水栓
  6
CONTINUOUS
 62
     6
100
AcDbVertex
100
AcDb2dVertex
 10
427.568809
 20
2098.771973
 30
0.0
  0
VERTEX
  5
413
100
AcDbEntity
  8
止水栓
  6
CONTINUOUS
 62
     6
100
AcDbVertex
100
AcDb2dVertex
 10
427.803184
 20
2099.16748
 30
0.0
  0
VERTEX
  5
414
100
AcDbEntity
  8
止水栓
  6
CONTINUOUS
 62
     6
100
AcDbVertex
100
AcDb2dVertex
 10
428.00338
 20
2099.58252
 30
0.0
  0
VERTEX
  5
415
100
AcDbEntity
  8
止水栓
  6
CONTINUOUS
 62
     6
100
AcDbVertex
100
AcDb2dVertex
 10
428.169395
 20
2100.014649
 30
0.0
  0
VERTEX
  5
416
100
AcDbEntity
  8
止水栓
  6
CONTINUOUS
 62
     6
100
AcDbVertex
100
AcDb2dVertex
 10
428.301231
 20
2100.458984
 30
0.0
  0
SEQEND
  5
417
100
AcDbEntity
  8
止水栓
  6
CONTINUOUS
 62
     6
  0
POLYLINE
  5
418
100
AcDbEntity
  8
止水栓
  6
CONTINUOUS
 62
     6
100
AcDb2dPolyline
 66
     1
 10
0.0
 20
0.0
 30
0.0
 70
   128
  0
VERTEX
  5
419
100
AcDbEntity
  8
止水栓
  6
CONTINUOUS
 62
     6
100
AcDbVertex
100
AcDb2dVertex
 10
428.301231
 20
2100.458984
 30
0.0
  0
VERTEX
  5
41A
100
AcDbEntity
  8
止水栓
  6
CONTINUOUS
 62
     6
100
AcDbVertex
100
AcDb2dVertex
 10
428.396446
 20
2100.915527
 30
0.0
  0
VERTEX
  5
41B
100
AcDbEntity
  8
止水栓
  6
CONTINUOUS
 62
     6
100
AcDbVertex
100
AcDb2dVertex
 10
428.452599
 20
2101.379395
 30
0.0
  0
VERTEX
  5
41C
100
AcDbEntity
  8
止水栓
  6
CONTINUOUS
 62
     6
100
AcDbVertex
100
AcDb2dVertex
 10
428.47213
 20
2101.848145
 30
0.0
  0
SEQEND
  5
41D
100
AcDbEntity
  8
止水栓
  6
CONTINUOUS
 62
     6
  0
LINE
  5
41E
100
AcDbEntity
  8
止水栓
  6
CONTINUOUS
 62
     6
100
AcDbLine
 10
418.440392
 20
2107.597656
 30
0.0
 11
418.440392
 21
2083.098145
 31
0.0
  0
LINE
  5
41F
100
AcDbEntity
  8
止水栓
  6
CONTINUOUS
 62
     6
100
AcDbLine
 10
436.982872
 20
2107.597656
 30
0.0
 11
418.440392
 21
2107.597656
 31
0.0
  0
ARC
  5
420
100
AcDbEntity
  8
止水栓
  6
CONTINUOUS
 62
     6
100
AcDbCircle
 10
446.44088
 20
2048.347168
 30
0.0
 40
60.000057
100
AcDbArc
 50
96.075287
 51
99.069595
  0
LINE
  5
421
100
AcDbEntity
  8
止水栓
  6
CONTINUOUS
 62
     6
100
AcDbLine
 10
418.440392
 20
2084.848633
 30
0.0
 11
366.441856
 21
2084.848633
 31
0.0
  0
LINE
  5
422
100
AcDbEntity
  8
止水栓
  6
CONTINUOUS
 62
     6
100
AcDbLine
 10
418.440392
 20
2105.847168
 30
0.0
 11
366.441856
 21
2105.847168
 31
0.0
  0
ARC
  5
423
100
AcDbEntity
  8
止水栓
  6
CONTINUOUS
 62
     6
100
AcDbCircle
 10
352.440392
 20
2109.848633
 30
0.0
 40
12.999535
100
AcDbArc
 50
23.285661
 51
98.848083
  0
LINE
  5
424
100
AcDbEntity
  8
止水栓
  6
CONTINUOUS
 62
     6
100
AcDbLine
 10
366.441856
 20
2104.986066
 30
0.0
 11
366.441856
 21
2085.705566
 31
0.0
  0
ARC
  5
425
100
AcDbEntity
  8
止水栓
  6
CONTINUOUS
 62
     6
100
AcDbCircle
 10
341.141563
 20
2085.705566
 30
0.0
 40
25.298605
100
AcDbArc
 50
336.794876
 51
1.026596
  0
ARC
  5
426
100
AcDbEntity
  8
止水栓
  6
CONTINUOUS
 62
     6
100
AcDbCircle
 10
352.440392
 20
2080.847168
 30
0.0
 40
13.000488
100
AcDbArc
 50
270.000031
 51
336.852539
  0
LINE
  5
427
100
AcDbEntity
  8
止水栓
  6
CONTINUOUS
 62
     6
100
AcDbLine
 10
352.440392
 20
2067.84668
 30
0.0
 11
350.44088
 21
2067.84668
 31
0.0
  0
LINE
  5
428
100
AcDbEntity
  8
止水栓
  6
CONTINUOUS
 62
     6
100
AcDbLine
 10
350.44088
 20
2086.032715
 30
0.0
 11
342.45504
 21
2086.281738
 31
0.0
  0
LINE
  5
429
100
AcDbEntity
  8
止水栓
  6
CONTINUOUS
 62
     6
100
AcDbLine
 10
350.44088
 20
2084.848633
 30
0.0
 11
343.680626
 21
2085.058594
 31
0.0
  0
LINE
  5
42A
100
AcDbEntity
  8
止水栓
  6
CONTINUOUS
 62
     6
100
AcDbLine
 10
343.680626
 20
2085.058594
 30
0.0
 11
343.678184
 21
2105.637207
 31
0.0
  0
LINE
  5
42B
100
AcDbEntity
  8
止水栓
  6
CONTINUOUS
 62
     6
100
AcDbLine
 10
342.140099
 20
2104.09668
 30
0.0
 11
342.140099
 21
2086.59668
 31
0.0
  0
LINE
  5
42C
100
AcDbEntity
  8
止水栓
  6
CONTINUOUS
 62
     6
100
AcDbLine
 10
343.678184
 20
2105.637207
 30
0.0
 11
342.45504
 21
2104.411621
 31
0.0
  0
LINE
  5
42D
100
AcDbEntity
  8
止水栓
  6
CONTINUOUS
 62
     6
100
AcDbLine
 10
342.140099
 20
2086.59668
 30
0.0
 11
343.680626
 21
2085.058594
 31
0.0
  0
LINE
  5
42E
100
AcDbEntity
  8
止水栓
  6
CONTINUOUS
 62
     6
100
AcDbLine
 10
350.44088
 20
2105.847168
 30
0.0
 11
343.678184
 21
2105.637207
 31
0.0
  0
LINE
  5
42F
100
AcDbEntity
  8
止水栓
  6
CONTINUOUS
 62
     6
100
AcDbLine
 10
350.44088
 20
2104.663086
 30
0.0
 11
342.45504
 21
2104.411621
 31
0.0
  0
LINE
  5
430
100
AcDbEntity
  8
止水栓
  6
CONTINUOUS
 62
     6
100
AcDbLine
 10
459.153282
 20
2096.330566
 30
0.0
 11
459.189903
 21
2095.34668
 31
0.0
  0
LINE
  5
431
100
AcDbEntity
  8
止水栓
  6
CONTINUOUS
 62
     6
100
AcDbLine
 10
455.994102
 20
2083.112793
 30
0.0
 11
457.349083
 21
2083.347168
 31
0.0
  0
ARC
  5
432
100
AcDbEntity
  8
止水栓
  6
CONTINUOUS
 62
     6
100
AcDbCircle
 10
446.44088
 20
2095.34668
 30
0.0
 40
12.749701
100
AcDbArc
 50
295.593506
 51
304.420761
  0
ARC
  5
433
100
AcDbEntity
  8
止水栓
  6
CONTINUOUS
 62
     6
100
AcDbCircle
 10
446.44088
 20
2095.34668
 30
0.0
 40
12.75197
100
AcDbArc
 50
119.866592
 51
124.414185
  0
ARC
  5
434
100
AcDbEntity
  8
止水栓
  6
CONTINUOUS
 62
     6
100
AcDbCircle
 10
446.44088
 20
2048.347168
 30
0.0
 40
60.001211
100
AcDbArc
 50
79.52536
 51
83.92482
  0
LINE
  5
435
100
AcDbEntity
  8
止水栓
  6
CONTINUOUS
 62
     6
100
AcDbLine
 10
457.349083
 20
2107.348633
 30
0.0
 11
461.941368
 21
2107.348633
 31
0.0
  0
ARC
  5
436
100
AcDbEntity
  8
止水栓
  6
CONTINUOUS
 62
     6
100
AcDbCircle
 10
446.44088
 20
2095.34668
 30
0.0
 40
8.000031
100
AcDbArc
 50
142.538223
 51
37.46167
  0
LINE
  5
437
100
AcDbEntity
  8
止水栓
  6
CONTINUOUS
 62
     6
100
AcDbLine
 10
461.941368
 20
2082.595215
 30
0.0
 11
461.941368
 21
2108.095703
 31
0.0
  0
LINE
  5
438
100
AcDbEntity
  8
止水栓
  6
CONTINUOUS
 62
     6
100
AcDbLine
 10
478.342735
 20
2090.598145
 30
0.0
 11
474.841759
 21
2090.598145
 31
0.0
  0
LINE
  5
439
100
AcDbEntity
  8
止水栓
  6
CONTINUOUS
 62
     6
100
AcDbLine
 10
478.342735
 20
2090.598145
 30
0.0
 11
478.342735
 21
2094.348145
 31
0.0
  0
LINE
  5
43A
100
AcDbEntity
  8
止水栓
  6
CONTINUOUS
 62
     6
100
AcDbLine
 10
478.342735
 20
2094.348145
 30
0.0
 11
475.842735
 21
2094.348145
 31
0.0
  0
LINE
  5
43B
100
AcDbEntity
  8
止水栓
  6
CONTINUOUS
 62
     6
100
AcDbLine
 10
475.842735
 20
2094.348145
 30
0.0
 11
475.842735
 21
2096.347656
 31
0.0
  0
LINE
  5
43C
100
AcDbEntity
  8
止水栓
  6
CONTINUOUS
 62
     6
100
AcDbLine
 10
475.842735
 20
2096.347656
 30
0.0
 11
478.342735
 21
2096.347656
 31
0.0
  0
LINE
  5
43D
100
AcDbEntity
  8
止水栓
  6
CONTINUOUS
 62
     6
100
AcDbLine
 10
478.342735
 20
2096.347656
 30
0.0
 11
478.342735
 21
2100.097656
 31
0.0
  0
LINE
  5
43E
100
AcDbEntity
  8
止水栓
  6
CONTINUOUS
 62
     6
100
AcDbLine
 10
478.342735
 20
2100.097656
 30
0.0
 11
474.834434
 21
2100.097656
 31
0.0
  0
LINE
  5
43F
100
AcDbEntity
  8
止水栓
  6
CONTINUOUS
 62
     6
100
AcDbLine
 10
470.217735
 20
2083.442383
 30
0.0
 11
474.841759
 21
2090.046387
 31
0.0
  0
LINE
  5
440
100
AcDbEntity
  8
止水栓
  6
CONTINUOUS
 62
     6
100
AcDbLine
 10
474.841759
 20
2090.046387
 30
0.0
 11
474.841759
 21
2100.644531
 31
0.0
  0
LINE
  5
441
100
AcDbEntity
  8
止水栓
  6
CONTINUOUS
 62
     6
100
AcDbLine
 10
474.841759
 20
2100.644531
 30
0.0
 11
470.217735
 21
2107.248535
 31
0.0
  0
LINE
  5
442
100
AcDbEntity
  8
止水栓
  6
CONTINUOUS
 62
     6
100
AcDbLine
 10
470.217735
 20
2083.442383
 30
0.0
 11
470.217735
 21
2107.248535
 31
0.0
  0
ARC
  5
443
100
AcDbEntity
  8
止水栓
  6
CONTINUOUS
 62
     6
100
AcDbCircle
 10
465.715782
 20
2104.09668
 30
0.0
 40
5.500077
100
AcDbArc
 50
35.004379
 51
50.597412
  0
ARC
  5
444
100
AcDbEntity
  8
止水栓
  6
CONTINUOUS
 62
     6
100
AcDbCircle
 10
465.715782
 20
2104.09668
 30
0.0
 40
5.500002
100
AcDbArc
 50
129.402573
 51
133.338501
  0
ARC
  5
445
100
AcDbEntity
  8
止水栓
  6
CONTINUOUS
 62
     6
100
AcDbCircle
 10
465.715782
 20
2086.59668
 30
0.0
 40
5.500042
100
AcDbArc
 50
226.661499
 51
230.597427
  0
ARC
  5
446
100
AcDbEntity
  8
止水栓
  6
CONTINUOUS
 62
     6
100
AcDbCircle
 10
465.715782
 20
2086.59668
 30
0.0
 40
5.500002
100
AcDbArc
 50
309.402588
 51
324.996918
  0
LINE
  5
447
100
AcDbEntity
  8
止水栓
  6
CONTINUOUS
 62
     6
100
AcDbLine
 10
462.224571
 20
2082.346191
 30
0.0
 11
469.206993
 21
2082.346191
 31
0.0
  0
LINE
  5
448
100
AcDbEntity
  8
止水栓
  6
CONTINUOUS
 62
     6
100
AcDbLine
 10
462.224571
 20
2108.347168
 30
0.0
 11
469.206993
 21
2108.347168
 31
0.0
  0
POLYLINE
  5
449
100
AcDbEntity
  8
止水栓
  6
CONTINUOUS
 62
     6
100
AcDb2dPolyline
 66
     1
 10
0.0
 20
0.0
 30
0.0
 70
   128
  0
VERTEX
  5
44A
100
AcDbEntity
  8
止水栓
  6
CONTINUOUS
 62
     6
100
AcDbVertex
100
AcDb2dVertex
 10
469.206993
 20
2101.845703
 30
0.0
  0
VERTEX
  5
44B
100
AcDbEntity
  8
止水栓
  6
CONTINUOUS
 62
     6
100
AcDbVertex
100
AcDb2dVertex
 10
469.194786
 20
2102.285156
 30
0.0
  0
VERTEX
  5
44C
100
AcDbEntity
  8
止水栓
  6
CONTINUOUS
 62
     6
100
AcDbVertex
100
AcDb2dVertex
 10
469.153282
 20
2102.724609
 30
0.0
  0
VERTEX
  5
44D
100
AcDbEntity
  8
止水栓
  6
CONTINUOUS
 62
     6
100
AcDbVertex
100
AcDb2dVertex
 10
469.087364
 20
2103.154297
 30
0.0
  0
VERTEX
  5
44E
100
AcDbEntity
  8
止水栓
  6
CONTINUOUS
 62
     6
100
AcDbVertex
100
AcDb2dVertex
 10
468.997032
 20
2103.574219
 30
0.0
  0
VERTEX
  5
44F
100
AcDbEntity
  8
止水栓
  6
CONTINUOUS
 62
     6
100
AcDbVertex
100
AcDb2dVertex
 10
468.879845
 20
2103.981934
 30
0.0
  0
VERTEX
  5
450
100
AcDbEntity
  8
止水栓
  6
CONTINUOUS
 62
     6
100
AcDbVertex
100
AcDb2dVertex
 10
468.740684
 20
2104.375
 30
0.0
  0
VERTEX
  5
451
100
AcDbEntity
  8
止水栓
  6
CONTINUOUS
 62
     6
100
AcDbVertex
100
AcDb2dVertex
 10
468.57711
 20
2104.746094
 30
0.0
  0
VERTEX
  5
452
100
AcDbEntity
  8
止水栓
  6
CONTINUOUS
 62
     6
100
AcDbVertex
100
AcDb2dVertex
 10
468.391563
 20
2105.095215
 30
0.0
  0
VERTEX
  5
453
100
AcDbEntity
  8
止水栓
  6
CONTINUOUS
 62
     6
100
AcDbVertex
100
AcDb2dVertex
 10
468.186485
 20
2105.419922
 30
0.0
  0
VERTEX
  5
454
100
AcDbEntity
  8
止水栓
  6
CONTINUOUS
 62
     6
100
AcDbVertex
100
AcDb2dVertex
 10
467.961876
 20
2105.720215
 30
0.0
  0
VERTEX
  5
455
100
AcDbEntity
  8
止水栓
  6
CONTINUOUS
 62
     6
100
AcDbVertex
100
AcDb2dVertex
 10
467.720177
 20
2105.986328
 30
0.0
  0
VERTEX
  5
456
100
AcDbEntity
  8
止水栓
  6
CONTINUOUS
 62
     6
100
AcDbVertex
100
AcDb2dVertex
 10
467.461388
 20
2106.225586
 30
0.0
  0
VERTEX
  5
457
100
AcDbEntity
  8
止水栓
  6
CONTINUOUS
 62
     6
100
AcDbVertex
100
AcDb2dVertex
 10
467.190392
 20
2106.428223
 30
0.0
  0
VERTEX
  5
458
100
AcDbEntity
  8
止水栓
  6
CONTINUOUS
 62
     6
100
AcDbVertex
100
AcDb2dVertex
 10
466.90963
 20
2106.59668
 30
0.0
  0
VERTEX
  5
459
100
AcDbEntity
  8
止水栓
  6
CONTINUOUS
 62
     6
100
AcDbVertex
100
AcDb2dVertex
 10
466.619102
 20
2106.730957
 30
0.0
  0
VERTEX
  5
45A
100
AcDbEntity
  8
止水栓
  6
CONTINUOUS
 62
     6
100
AcDbVertex
100
AcDb2dVertex
 10
466.321251
 20
2106.826172
 30
0.0
  0
VERTEX
  5
45B
100
AcDbEntity
  8
止水栓
  6
CONTINUOUS
 62
     6
100
AcDbVertex
100
AcDb2dVertex
 10
466.020958
 20
2106.882324
 30
0.0
  0
VERTEX
  5
45C
100
AcDbEntity
  8
止水栓
  6
CONTINUOUS
 62
     6
100
AcDbVertex
100
AcDb2dVertex
 10
465.715782
 20
2106.901855
 30
0.0
  0
VERTEX
  5
45D
100
AcDbEntity
  8
止水栓
  6
CONTINUOUS
 62
     6
100
AcDbVertex
100
AcDb2dVertex
 10
465.410606
 20
2106.882324
 30
0.0
  0
VERTEX
  5
45E
100
AcDbEntity
  8
止水栓
  6
CONTINUOUS
 62
     6
100
AcDbVertex
100
AcDb2dVertex
 10
465.110313
 20
2106.826172
 30
0.0
  0
VERTEX
  5
45F
100
AcDbEntity
  8
止水栓
  6
CONTINUOUS
 62
     6
100
AcDbVertex
100
AcDb2dVertex
 10
464.812462
 20
2106.730957
 30
0.0
  0
VERTEX
  5
460
100
AcDbEntity
  8
止水栓
  6
CONTINUOUS
 62
     6
100
AcDbVertex
100
AcDb2dVertex
 10
464.521934
 20
2106.59668
 30
0.0
  0
VERTEX
  5
461
100
AcDbEntity
  8
止水栓
  6
CONTINUOUS
 62
     6
100
AcDbVertex
100
AcDb2dVertex
 10
464.241173
 20
2106.428223
 30
0.0
  0
VERTEX
  5
462
100
AcDbEntity
  8
止水栓
  6
CONTINUOUS
 62
     6
100
AcDbVertex
100
AcDb2dVertex
 10
463.972618
 20
2106.225586
 30
0.0
  0
VERTEX
  5
463
100
AcDbEntity
  8
止水栓
  6
CONTINUOUS
 62
     6
100
AcDbVertex
100
AcDb2dVertex
 10
463.71627
 20
2105.986328
 30
0.0
  0
VERTEX
  5
464
100
AcDbEntity
  8
止水栓
  6
CONTINUOUS
 62
     6
100
AcDbVertex
100
AcDb2dVertex
 10
463.474571
 20
2105.717774
 30
0.0
  0
VERTEX
  5
465
100
AcDbEntity
  8
止水栓
  6
CONTINUOUS
 62
     6
100
AcDbVertex
100
AcDb2dVertex
 10
463.24752
 20
2105.419922
 30
0.0
  0
VERTEX
  5
466
100
AcDbEntity
  8
止水栓
  6
CONTINUOUS
 62
     6
100
AcDbVertex
100
AcDb2dVertex
 10
463.042442
 20
2105.095215
 30
0.0
  0
VERTEX
  5
467
100
AcDbEntity
  8
止水栓
  6
CONTINUOUS
 62
     6
100
AcDbVertex
100
AcDb2dVertex
 10
462.856895
 20
2104.746094
 30
0.0
  0
VERTEX
  5
468
100
AcDbEntity
  8
止水栓
  6
CONTINUOUS
 62
     6
100
AcDbVertex
100
AcDb2dVertex
 10
462.69088
 20
2104.375
 30
0.0
  0
VERTEX
  5
469
100
AcDbEntity
  8
止水栓
  6
CONTINUOUS
 62
     6
100
AcDbVertex
100
AcDb2dVertex
 10
462.55172
 20
2103.981934
 30
0.0
  0
VERTEX
  5
46A
100
AcDbEntity
  8
止水栓
  6
CONTINUOUS
 62
     6
100
AcDbVertex
100
AcDb2dVertex
 10
462.434532
 20
2103.574219
 30
0.0
  0
VERTEX
  5
46B
100
AcDbEntity
  8
止水栓
  6
CONTINUOUS
 62
     6
100
AcDbVertex
100
AcDb2dVertex
 10
462.3442
 20
2103.154297
 30
0.0
  0
VERTEX
  5
46C
100
AcDbEntity
  8
止水栓
  6
CONTINUOUS
 62
     6
100
AcDbVertex
100
AcDb2dVertex
 10
462.278282
 20
2102.724609
 30
0.0
  0
VERTEX
  5
46D
100
AcDbEntity
  8
止水栓
  6
CONTINUOUS
 62
     6
100
AcDbVertex
100
AcDb2dVertex
 10
462.23922
 20
2102.285156
 30
0.0
  0
VERTEX
  5
46E
100
AcDbEntity
  8
止水栓
  6
CONTINUOUS
 62
     6
100
AcDbVertex
100
AcDb2dVertex
 10
462.227013
 20
2101.845703
 30
0.0
  0
VERTEX
  5
46F
100
AcDbEntity
  8
止水栓
  6
CONTINUOUS
 62
     6
100
AcDbVertex
100
AcDb2dVertex
 10
462.23922
 20
2101.403809
 30
0.0
  0
VERTEX
  5
470
100
AcDbEntity
  8
止水栓
  6
CONTINUOUS
 62
     6
100
AcDbVertex
100
AcDb2dVertex
 10
462.280724
 20
2100.966797
 30
0.0
  0
VERTEX
  5
471
100
AcDbEntity
  8
止水栓
  6
CONTINUOUS
 62
     6
100
AcDbVertex
100
AcDb2dVertex
 10
462.3442
 20
2100.537109
 30
0.0
  0
VERTEX
  5
472
100
AcDbEntity
  8
止水栓
  6
CONTINUOUS
 62
     6
100
AcDbVertex
100
AcDb2dVertex
 10
462.434532
 20
2100.117188
 30
0.0
  0
VERTEX
  5
473
100
AcDbEntity
  8
止水栓
  6
CONTINUOUS
 62
     6
100
AcDbVertex
100
AcDb2dVertex
 10
462.55172
 20
2099.709473
 30
0.0
  0
VERTEX
  5
474
100
AcDbEntity
  8
止水栓
  6
CONTINUOUS
 62
     6
100
AcDbVertex
100
AcDb2dVertex
 10
462.69088
 20
2099.316406
 30
0.0
  0
VERTEX
  5
475
100
AcDbEntity
  8
止水栓
  6
CONTINUOUS
 62
     6
100
AcDbVertex
100
AcDb2dVertex
 10
462.854454
 20
2098.945313
 30
0.0
  0
VERTEX
  5
476
100
AcDbEntity
  8
止水栓
  6
CONTINUOUS
 62
     6
100
AcDbVertex
100
AcDb2dVertex
 10
463.040001
 20
2098.596191
 30
0.0
  0
VERTEX
  5
477
100
AcDbEntity
  8
止水栓
  6
CONTINUOUS
 62
     6
100
AcDbVertex
100
AcDb2dVertex
 10
463.24752
 20
2098.269043
 30
0.0
  0
VERTEX
  5
478
100
AcDbEntity
  8
止水栓
  6
CONTINUOUS
 62
     6
100
AcDbVertex
100
AcDb2dVertex
 10
463.47213
 20
2097.971191
 30
0.0
  0
VERTEX
  5
479
100
AcDbEntity
  8
止水栓
  6
CONTINUOUS
 62
     6
100
AcDbVertex
100
AcDb2dVertex
 10
463.713829
 20
2097.702637
 30
0.0
  0
VERTEX
  5
47A
100
AcDbEntity
  8
止水栓
  6
CONTINUOUS
 62
     6
100
AcDbVertex
100
AcDb2dVertex
 10
463.972618
 20
2097.46582
 30
0.0
  0
VERTEX
  5
47B
100
AcDbEntity
  8
止水栓
  6
CONTINUOUS
 62
     6
100
AcDbVertex
100
AcDb2dVertex
 10
464.243614
 20
2097.263184
 30
0.0
  0
VERTEX
  5
47C
100
AcDbEntity
  8
止水栓
  6
CONTINUOUS
 62
     6
100
AcDbVertex
100
AcDb2dVertex
 10
464.524376
 20
2097.092285
 30
0.0
  0
VERTEX
  5
47D
100
AcDbEntity
  8
止水栓
  6
CONTINUOUS
 62
     6
100
AcDbVertex
100
AcDb2dVertex
 10
464.812462
 20
2096.960449
 30
0.0
  0
VERTEX
  5
47E
100
AcDbEntity
  8
止水栓
  6
CONTINUOUS
 62
     6
100
AcDbVertex
100
AcDb2dVertex
 10
465.110313
 20
2096.865234
 30
0.0
  0
VERTEX
  5
47F
100
AcDbEntity
  8
止水栓
  6
CONTINUOUS
 62
     6
100
AcDbVertex
100
AcDb2dVertex
 10
465.410606
 20
2096.809082
 30
0.0
  0
VERTEX
  5
480
100
AcDbEntity
  8
止水栓
  6
CONTINUOUS
 62
     6
100
AcDbVertex
100
AcDb2dVertex
 10
465.715782
 20
2096.789551
 30
0.0
  0
VERTEX
  5
481
100
AcDbEntity
  8
止水栓
  6
CONTINUOUS
 62
     6
100
AcDbVertex
100
AcDb2dVertex
 10
466.020958
 20
2096.809082
 30
0.0
  0
VERTEX
  5
482
100
AcDbEntity
  8
止水栓
  6
CONTINUOUS
 62
     6
100
AcDbVertex
100
AcDb2dVertex
 10
466.321251
 20
2096.865234
 30
0.0
  0
VERTEX
  5
483
100
AcDbEntity
  8
止水栓
  6
CONTINUOUS
 62
     6
100
AcDbVertex
100
AcDb2dVertex
 10
466.619102
 20
2096.960449
 30
0.0
  0
VERTEX
  5
484
100
AcDbEntity
  8
止水栓
  6
CONTINUOUS
 62
     6
100
AcDbVertex
100
AcDb2dVertex
 10
466.90963
 20
2097.094727
 30
0.0
  0
VERTEX
  5
485
100
AcDbEntity
  8
止水栓
  6
CONTINUOUS
 62
     6
100
AcDbVertex
100
AcDb2dVertex
 10
467.190392
 20
2097.263184
 30
0.0
  0
SEQEND
  5
486
100
AcDbEntity
  8
止水栓
  6
CONTINUOUS
 62
     6
  0
POLYLINE
  5
487
100
AcDbEntity
  8
止水栓
  6
CONTINUOUS
 62
     6
100
AcDb2dPolyline
 66
     1
 10
0.0
 20
0.0
 30
0.0
 70
   128
  0
VERTEX
  5
488
100
AcDbEntity
  8
止水栓
  6
CONTINUOUS
 62
     6
100
AcDbVertex
100
AcDb2dVertex
 10
467.190392
 20
2097.263184
 30
0.0
  0
VERTEX
  5
489
100
AcDbEntity
  8
止水栓
  6
CONTINUOUS
 62
     6
100
AcDbVertex
100
AcDb2dVertex
 10
467.461388
 20
2097.46582
 30
0.0
  0
VERTEX
  5
48A
100
AcDbEntity
  8
止水栓
  6
CONTINUOUS
 62
     6
100
AcDbVertex
100
AcDb2dVertex
 10
467.717735
 20
2097.702637
 30
0.0
  0
VERTEX
  5
48B
100
AcDbEntity
  8
止水栓
  6
CONTINUOUS
 62
     6
100
AcDbVertex
100
AcDb2dVertex
 10
467.959434
 20
2097.971191
 30
0.0
  0
VERTEX
  5
48C
100
AcDbEntity
  8
止水栓
  6
CONTINUOUS
 62
     6
100
AcDbVertex
100
AcDb2dVertex
 10
468.186485
 20
2098.269043
 30
0.0
  0
VERTEX
  5
48D
100
AcDbEntity
  8
止水栓
  6
CONTINUOUS
 62
     6
100
AcDbVertex
100
AcDb2dVertex
 10
468.391563
 20
2098.59375
 30
0.0
  0
VERTEX
  5
48E
100
AcDbEntity
  8
止水栓
  6
CONTINUOUS
 62
     6
100
AcDbVertex
100
AcDb2dVertex
 10
468.57711
 20
2098.945313
 30
0.0
  0
VERTEX
  5
48F
100
AcDbEntity
  8
止水栓
  6
CONTINUOUS
 62
     6
100
AcDbVertex
100
AcDb2dVertex
 10
468.740684
 20
2099.316406
 30
0.0
  0
VERTEX
  5
490
100
AcDbEntity
  8
止水栓
  6
CONTINUOUS
 62
     6
100
AcDbVertex
100
AcDb2dVertex
 10
468.879845
 20
2099.709473
 30
0.0
  0
VERTEX
  5
491
100
AcDbEntity
  8
止水栓
  6
CONTINUOUS
 62
     6
100
AcDbVertex
100
AcDb2dVertex
 10
468.997032
 20
2100.117188
 30
0.0
  0
VERTEX
  5
492
100
AcDbEntity
  8
止水栓
  6
CONTINUOUS
 62
     6
100
AcDbVertex
100
AcDb2dVertex
 10
469.087364
 20
2100.537109
 30
0.0
  0
SEQEND
  5
493
100
AcDbEntity
  8
止水栓
  6
CONTINUOUS
 62
     6
  0
POLYLINE
  5
494
100
AcDbEntity
  8
止水栓
  6
CONTINUOUS
 62
     6
100
AcDb2dPolyline
 66
     1
 10
0.0
 20
0.0
 30
0.0
 70
   128
  0
VERTEX
  5
495
100
AcDbEntity
  8
止水栓
  6
CONTINUOUS
 62
     6
100
AcDbVertex
100
AcDb2dVertex
 10
469.087364
 20
2100.537109
 30
0.0
  0
VERTEX
  5
496
100
AcDbEntity
  8
止水栓
  6
CONTINUOUS
 62
     6
100
AcDbVertex
100
AcDb2dVertex
 10
469.153282
 20
2100.966797
 30
0.0
  0
VERTEX
  5
497
100
AcDbEntity
  8
止水栓
  6
CONTINUOUS
 62
     6
100
AcDbVertex
100
AcDb2dVertex
 10
469.192345
 20
2101.40625
 30
0.0
  0
VERTEX
  5
498
100
AcDbEntity
  8
止水栓
  6
CONTINUOUS
 62
     6
100
AcDbVertex
100
AcDb2dVertex
 10
469.206993
 20
2101.845703
 30
0.0
  0
SEQEND
  5
499
100
AcDbEntity
  8
止水栓
  6
CONTINUOUS
 62
     6
  0
POLYLINE
  5
49A
100
AcDbEntity
  8
止水栓
  6
CONTINUOUS
 62
     6
100
AcDb2dPolyline
 66
     1
 10
0.0
 20
0.0
 30
0.0
 70
   128
  0
VERTEX
  5
49B
100
AcDbEntity
  8
止水栓
  6
CONTINUOUS
 62
     6
100
AcDbVertex
100
AcDb2dVertex
 10
469.206993
 20
2088.847656
 30
0.0
  0
VERTEX
  5
49C
100
AcDbEntity
  8
止水栓
  6
CONTINUOUS
 62
     6
100
AcDbVertex
100
AcDb2dVertex
 10
469.194786
 20
2089.287109
 30
0.0
  0
VERTEX
  5
49D
100
AcDbEntity
  8
止水栓
  6
CONTINUOUS
 62
     6
100
AcDbVertex
100
AcDb2dVertex
 10
469.153282
 20
2089.726563
 30
0.0
  0
VERTEX
  5
49E
100
AcDbEntity
  8
止水栓
  6
CONTINUOUS
 62
     6
100
AcDbVertex
100
AcDb2dVertex
 10
469.087364
 20
2090.15625
 30
0.0
  0
VERTEX
  5
49F
100
AcDbEntity
  8
止水栓
  6
CONTINUOUS
 62
     6
100
AcDbVertex
100
AcDb2dVertex
 10
468.997032
 20
2090.576172
 30
0.0
  0
VERTEX
  5
4A0
100
AcDbEntity
  8
止水栓
  6
CONTINUOUS
 62
     6
100
AcDbVertex
100
AcDb2dVertex
 10
468.879845
 20
2090.983887
 30
0.0
  0
VERTEX
  5
4A1
100
AcDbEntity
  8
止水栓
  6
CONTINUOUS
 62
     6
100
AcDbVertex
100
AcDb2dVertex
 10
468.740684
 20
2091.376953
 30
0.0
  0
VERTEX
  5
4A2
100
AcDbEntity
  8
止水栓
  6
CONTINUOUS
 62
     6
100
AcDbVertex
100
AcDb2dVertex
 10
468.57711
 20
2091.748047
 30
0.0
  0
VERTEX
  5
4A3
100
AcDbEntity
  8
止水栓
  6
CONTINUOUS
 62
     6
100
AcDbVertex
100
AcDb2dVertex
 10
468.391563
 20
2092.097168
 30
0.0
  0
VERTEX
  5
4A4
100
AcDbEntity
  8
止水栓
  6
CONTINUOUS
 62
     6
100
AcDbVertex
100
AcDb2dVertex
 10
468.186485
 20
2092.424316
 30
0.0
  0
VERTEX
  5
4A5
100
AcDbEntity
  8
止水栓
  6
CONTINUOUS
 62
     6
100
AcDbVertex
100
AcDb2dVertex
 10
467.961876
 20
2092.722168
 30
0.0
  0
VERTEX
  5
4A6
100
AcDbEntity
  8
止水栓
  6
CONTINUOUS
 62
     6
100
AcDbVertex
100
AcDb2dVertex
 10
467.720177
 20
2092.990723
 30
0.0
  0
VERTEX
  5
4A7
100
AcDbEntity
  8
止水栓
  6
CONTINUOUS
 62
     6
100
AcDbVertex
100
AcDb2dVertex
 10
467.461388
 20
2093.227539
 30
0.0
  0
VERTEX
  5
4A8
100
AcDbEntity
  8
止水栓
  6
CONTINUOUS
 62
     6
100
AcDbVertex
100
AcDb2dVertex
 10
467.190392
 20
2093.430176
 30
0.0
  0
VERTEX
  5
4A9
100
AcDbEntity
  8
止水栓
  6
CONTINUOUS
 62
     6
100
AcDbVertex
100
AcDb2dVertex
 10
466.90963
 20
2093.598633
 30
0.0
  0
VERTEX
  5
4AA
100
AcDbEntity
  8
止水栓
  6
CONTINUOUS
 62
     6
100
AcDbVertex
100
AcDb2dVertex
 10
466.619102
 20
2093.73291
 30
0.0
  0
VERTEX
  5
4AB
100
AcDbEntity
  8
止水栓
  6
CONTINUOUS
 62
     6
100
AcDbVertex
100
AcDb2dVertex
 10
466.321251
 20
2093.828125
 30
0.0
  0
VERTEX
  5
4AC
100
AcDbEntity
  8
止水栓
  6
CONTINUOUS
 62
     6
100
AcDbVertex
100
AcDb2dVertex
 10
466.020958
 20
2093.886719
 30
0.0
  0
VERTEX
  5
4AD
100
AcDbEntity
  8
止水栓
  6
CONTINUOUS
 62
     6
100
AcDbVertex
100
AcDb2dVertex
 10
465.715782
 20
2093.903809
 30
0.0
  0
VERTEX
  5
4AE
100
AcDbEntity
  8
止水栓
  6
CONTINUOUS
 62
     6
100
AcDbVertex
100
AcDb2dVertex
 10
465.410606
 20
2093.886719
 30
0.0
  0
VERTEX
  5
4AF
100
AcDbEntity
  8
止水栓
  6
CONTINUOUS
 62
     6
100
AcDbVertex
100
AcDb2dVertex
 10
465.110313
 20
2093.828125
 30
0.0
  0
VERTEX
  5
4B0
100
AcDbEntity
  8
止水栓
  6
CONTINUOUS
 62
     6
100
AcDbVertex
100
AcDb2dVertex
 10
464.812462
 20
2093.73291
 30
0.0
  0
VERTEX
  5
4B1
100
AcDbEntity
  8
止水栓
  6
CONTINUOUS
 62
     6
100
AcDbVertex
100
AcDb2dVertex
 10
464.521934
 20
2093.598633
 30
0.0
  0
VERTEX
  5
4B2
100
AcDbEntity
  8
止水栓
  6
CONTINUOUS
 62
     6
100
AcDbVertex
100
AcDb2dVertex
 10
464.241173
 20
2093.430176
 30
0.0
  0
VERTEX
  5
4B3
100
AcDbEntity
  8
止水栓
  6
CONTINUOUS
 62
     6
100
AcDbVertex
100
AcDb2dVertex
 10
463.972618
 20
2093.227539
 30
0.0
  0
VERTEX
  5
4B4
100
AcDbEntity
  8
止水栓
  6
CONTINUOUS
 62
     6
100
AcDbVertex
100
AcDb2dVertex
 10
463.71627
 20
2092.990723
 30
0.0
  0
VERTEX
  5
4B5
100
AcDbEntity
  8
止水栓
  6
CONTINUOUS
 62
     6
100
AcDbVertex
100
AcDb2dVertex
 10
463.474571
 20
2092.722168
 30
0.0
  0
VERTEX
  5
4B6
100
AcDbEntity
  8
止水栓
  6
CONTINUOUS
 62
     6
100
AcDbVertex
100
AcDb2dVertex
 10
463.24752
 20
2092.424316
 30
0.0
  0
VERTEX
  5
4B7
100
AcDbEntity
  8
止水栓
  6
CONTINUOUS
 62
     6
100
AcDbVertex
100
AcDb2dVertex
 10
463.042442
 20
2092.097168
 30
0.0
  0
VERTEX
  5
4B8
100
AcDbEntity
  8
止水栓
  6
CONTINUOUS
 62
     6
100
AcDbVertex
100
AcDb2dVertex
 10
462.856895
 20
2091.748047
 30
0.0
  0
VERTEX
  5
4B9
100
AcDbEntity
  8
止水栓
  6
CONTINUOUS
 62
     6
100
AcDbVertex
100
AcDb2dVertex
 10
462.69088
 20
2091.376953
 30
0.0
  0
VERTEX
  5
4BA
100
AcDbEntity
  8
止水栓
  6
CONTINUOUS
 62
     6
100
AcDbVertex
100
AcDb2dVertex
 10
462.55172
 20
2090.983887
 30
0.0
  0
VERTEX
  5
4BB
100
AcDbEntity
  8
止水栓
  6
CONTINUOUS
 62
     6
100
AcDbVertex
100
AcDb2dVertex
 10
462.434532
 20
2090.576172
 30
0.0
  0
VERTEX
  5
4BC
100
AcDbEntity
  8
止水栓
  6
CONTINUOUS
 62
     6
100
AcDbVertex
100
AcDb2dVertex
 10
462.3442
 20
2090.15625
 30
0.0
  0
VERTEX
  5
4BD
100
AcDbEntity
  8
止水栓
  6
CONTINUOUS
 62
     6
100
AcDbVertex
100
AcDb2dVertex
 10
462.278282
 20
2089.726563
 30
0.0
  0
VERTEX
  5
4BE
100
AcDbEntity
  8
止水栓
  6
CONTINUOUS
 62
     6
100
AcDbVertex
100
AcDb2dVertex
 10
462.23922
 20
2089.287109
 30
0.0
  0
VERTEX
  5
4BF
100
AcDbEntity
  8
止水栓
  6
CONTINUOUS
 62
     6
100
AcDbVertex
100
AcDb2dVertex
 10
462.227013
 20
2088.847656
 30
0.0
  0
VERTEX
  5
4C0
100
AcDbEntity
  8
止水栓
  6
CONTINUOUS
 62
     6
100
AcDbVertex
100
AcDb2dVertex
 10
462.23922
 20
2088.405762
 30
0.0
  0
VERTEX
  5
4C1
100
AcDbEntity
  8
止水栓
  6
CONTINUOUS
 62
     6
100
AcDbVertex
100
AcDb2dVertex
 10
462.280724
 20
2087.96875
 30
0.0
  0
VERTEX
  5
4C2
100
AcDbEntity
  8
止水栓
  6
CONTINUOUS
 62
     6
100
AcDbVertex
100
AcDb2dVertex
 10
462.3442
 20
2087.539063
 30
0.0
  0
VERTEX
  5
4C3
100
AcDbEntity
  8
止水栓
  6
CONTINUOUS
 62
     6
100
AcDbVertex
100
AcDb2dVertex
 10
462.434532
 20
2087.116699
 30
0.0
  0
VERTEX
  5
4C4
100
AcDbEntity
  8
止水栓
  6
CONTINUOUS
 62
     6
100
AcDbVertex
100
AcDb2dVertex
 10
462.55172
 20
2086.708984
 30
0.0
  0
VERTEX
  5
4C5
100
AcDbEntity
  8
止水栓
  6
CONTINUOUS
 62
     6
100
AcDbVertex
100
AcDb2dVertex
 10
462.69088
 20
2086.318359
 30
0.0
  0
VERTEX
  5
4C6
100
AcDbEntity
  8
止水栓
  6
CONTINUOUS
 62
     6
100
AcDbVertex
100
AcDb2dVertex
 10
462.854454
 20
2085.947266
 30
0.0
  0
VERTEX
  5
4C7
100
AcDbEntity
  8
止水栓
  6
CONTINUOUS
 62
     6
100
AcDbVertex
100
AcDb2dVertex
 10
463.040001
 20
2085.595703
 30
0.0
  0
VERTEX
  5
4C8
100
AcDbEntity
  8
止水栓
  6
CONTINUOUS
 62
     6
100
AcDbVertex
100
AcDb2dVertex
 10
463.24752
 20
2085.270996
 30
0.0
  0
VERTEX
  5
4C9
100
AcDbEntity
  8
止水栓
  6
CONTINUOUS
 62
     6
100
AcDbVertex
100
AcDb2dVertex
 10
463.47213
 20
2084.973145
 30
0.0
  0
VERTEX
  5
4CA
100
AcDbEntity
  8
止水栓
  6
CONTINUOUS
 62
     6
100
AcDbVertex
100
AcDb2dVertex
 10
463.713829
 20
2084.70459
 30
0.0
  0
VERTEX
  5
4CB
100
AcDbEntity
  8
止水栓
  6
CONTINUOUS
 62
     6
100
AcDbVertex
100
AcDb2dVertex
 10
463.972618
 20
2084.467774
 30
0.0
  0
VERTEX
  5
4CC
100
AcDbEntity
  8
止水栓
  6
CONTINUOUS
 62
     6
100
AcDbVertex
100
AcDb2dVertex
 10
464.243614
 20
2084.262695
 30
0.0
  0
VERTEX
  5
4CD
100
AcDbEntity
  8
止水栓
  6
CONTINUOUS
 62
     6
100
AcDbVertex
100
AcDb2dVertex
 10
464.524376
 20
2084.094238
 30
0.0
  0
VERTEX
  5
4CE
100
AcDbEntity
  8
止水栓
  6
CONTINUOUS
 62
     6
100
AcDbVertex
100
AcDb2dVertex
 10
464.812462
 20
2083.962402
 30
0.0
  0
VERTEX
  5
4CF
100
AcDbEntity
  8
止水栓
  6
CONTINUOUS
 62
     6
100
AcDbVertex
100
AcDb2dVertex
 10
465.110313
 20
2083.867188
 30
0.0
  0
VERTEX
  5
4D0
100
AcDbEntity
  8
止水栓
  6
CONTINUOUS
 62
     6
100
AcDbVertex
100
AcDb2dVertex
 10
465.410606
 20
2083.808594
 30
0.0
  0
VERTEX
  5
4D1
100
AcDbEntity
  8
止水栓
  6
CONTINUOUS
 62
     6
100
AcDbVertex
100
AcDb2dVertex
 10
465.715782
 20
2083.789063
 30
0.0
  0
VERTEX
  5
4D2
100
AcDbEntity
  8
止水栓
  6
CONTINUOUS
 62
     6
100
AcDbVertex
100
AcDb2dVertex
 10
466.020958
 20
2083.808594
 30
0.0
  0
VERTEX
  5
4D3
100
AcDbEntity
  8
止水栓
  6
CONTINUOUS
 62
     6
100
AcDbVertex
100
AcDb2dVertex
 10
466.321251
 20
2083.867188
 30
0.0
  0
VERTEX
  5
4D4
100
AcDbEntity
  8
止水栓
  6
CONTINUOUS
 62
     6
100
AcDbVertex
100
AcDb2dVertex
 10
466.619102
 20
2083.962402
 30
0.0
  0
VERTEX
  5
4D5
100
AcDbEntity
  8
止水栓
  6
CONTINUOUS
 62
     6
100
AcDbVertex
100
AcDb2dVertex
 10
466.90963
 20
2084.094238
 30
0.0
  0
VERTEX
  5
4D6
100
AcDbEntity
  8
止水栓
  6
CONTINUOUS
 62
     6
100
AcDbVertex
100
AcDb2dVertex
 10
467.190392
 20
2084.262695
 30
0.0
  0
SEQEND
  5
4D7
100
AcDbEntity
  8
止水栓
  6
CONTINUOUS
 62
     6
  0
POLYLINE
  5
4D8
100
AcDbEntity
  8
止水栓
  6
CONTINUOUS
 62
     6
100
AcDb2dPolyline
 66
     1
 10
0.0
 20
0.0
 30
0.0
 70
   128
  0
VERTEX
  5
4D9
100
AcDbEntity
  8
止水栓
  6
CONTINUOUS
 62
     6
100
AcDbVertex
100
AcDb2dVertex
 10
467.190392
 20
2084.262695
 30
0.0
  0
VERTEX
  5
4DA
100
AcDbEntity
  8
止水栓
  6
CONTINUOUS
 62
     6
100
AcDbVertex
100
AcDb2dVertex
 10
467.461388
 20
2084.467774
 30
0.0
  0
VERTEX
  5
4DB
100
AcDbEntity
  8
止水栓
  6
CONTINUOUS
 62
     6
100
AcDbVertex
100
AcDb2dVertex
 10
467.717735
 20
2084.70459
 30
0.0
  0
VERTEX
  5
4DC
100
AcDbEntity
  8
止水栓
  6
CONTINUOUS
 62
     6
100
AcDbVertex
100
AcDb2dVertex
 10
467.959434
 20
2084.973145
 30
0.0
  0
VERTEX
  5
4DD
100
AcDbEntity
  8
止水栓
  6
CONTINUOUS
 62
     6
100
AcDbVertex
100
AcDb2dVertex
 10
468.186485
 20
2085.270996
 30
0.0
  0
VERTEX
  5
4DE
100
AcDbEntity
  8
止水栓
  6
CONTINUOUS
 62
     6
100
AcDbVertex
100
AcDb2dVertex
 10
468.391563
 20
2085.595703
 30
0.0
  0
VERTEX
  5
4DF
100
AcDbEntity
  8
止水栓
  6
CONTINUOUS
 62
     6
100
AcDbVertex
100
AcDb2dVertex
 10
468.57711
 20
2085.947266
 30
0.0
  0
VERTEX
  5
4E0
100
AcDbEntity
  8
止水栓
  6
CONTINUOUS
 62
     6
100
AcDbVertex
100
AcDb2dVertex
 10
468.740684
 20
2086.318359
 30
0.0
  0
VERTEX
  5
4E1
100
AcDbEntity
  8
止水栓
  6
CONTINUOUS
 62
     6
100
AcDbVertex
100
AcDb2dVertex
 10
468.879845
 20
2086.708984
 30
0.0
  0
VERTEX
  5
4E2
100
AcDbEntity
  8
止水栓
  6
CONTINUOUS
 62
     6
100
AcDbVertex
100
AcDb2dVertex
 10
468.997032
 20
2087.116699
 30
0.0
  0
VERTEX
  5
4E3
100
AcDbEntity
  8
止水栓
  6
CONTINUOUS
 62
     6
100
AcDbVertex
100
AcDb2dVertex
 10
469.087364
 20
2087.539063
 30
0.0
  0
SEQEND
  5
4E4
100
AcDbEntity
  8
止水栓
  6
CONTINUOUS
 62
     6
  0
POLYLINE
  5
4E5
100
AcDbEntity
  8
止水栓
  6
CONTINUOUS
 62
     6
100
AcDb2dPolyline
 66
     1
 10
0.0
 20
0.0
 30
0.0
 70
   128
  0
VERTEX
  5
4E6
100
AcDbEntity
  8
止水栓
  6
CONTINUOUS
 62
     6
100
AcDbVertex
100
AcDb2dVertex
 10
469.087364
 20
2087.539063
 30
0.0
  0
VERTEX
  5
4E7
100
AcDbEntity
  8
止水栓
  6
CONTINUOUS
 62
     6
100
AcDbVertex
100
AcDb2dVertex
 10
469.153282
 20
2087.96875
 30
0.0
  0
VERTEX
  5
4E8
100
AcDbEntity
  8
止水栓
  6
CONTINUOUS
 62
     6
100
AcDbVertex
100
AcDb2dVertex
 10
469.192345
 20
2088.405762
 30
0.0
  0
VERTEX
  5
4E9
100
AcDbEntity
  8
止水栓
  6
CONTINUOUS
 62
     6
100
AcDbVertex
100
AcDb2dVertex
 10
469.206993
 20
2088.847656
 30
0.0
  0
SEQEND
  5
4EA
100
AcDbEntity
  8
止水栓
  6
CONTINUOUS
 62
     6
  0
LINE
  5
4EB
100
AcDbEntity
  8
止水栓
  6
CONTINUOUS
 62
     6
100
AcDbLine
 10
433.728477
 20
2096.330566
 30
0.0
 11
439.233849
 21
2105.866699
 31
0.0
  0
LINE
  5
4EC
100
AcDbEntity
  8
止水栓
  6
CONTINUOUS
 62
     6
100
AcDbLine
 10
439.199669
 20
2084.853516
 30
0.0
 11
433.728477
 21
2094.365234
 31
0.0
  0
LINE
  5
4ED
100
AcDbEntity
  8
止水栓
  6
CONTINUOUS
 62
     6
100
AcDbLine
 10
451.948692
 20
2083.847656
 30
0.0
 11
440.935509
 21
2083.847656
 31
0.0
  0
LINE
  5
4EE
100
AcDbEntity
  8
止水栓
  6
CONTINUOUS
 62
     6
100
AcDbLine
 10
459.153282
 20
2094.365234
 30
0.0
 11
453.647911
 21
2084.829102
 31
0.0
  0
LINE
  5
4EF
100
AcDbEntity
  8
止水栓
  6
CONTINUOUS
 62
     6
100
AcDbLine
 10
453.647911
 20
2105.866699
 30
0.0
 11
459.153282
 21
2096.330566
 31
0.0
  0
ARC
  5
4F0
100
AcDbEntity
  8
止水栓
  6
CONTINUOUS
 62
     6
100
AcDbCircle
 10
446.44088
 20
2095.34668
 30
0.0
 40
6.350098
100
AcDbArc
 50
180.000015
 51
0.0
  0
LINE
  5
4F1
100
AcDbEntity
  8
止水栓
  6
CONTINUOUS
 62
     6
100
AcDbLine
 10
452.790977
 20
2095.34668
 30
0.0
 11
452.790977
 21
2141.84668
 31
0.0
  0
ARC
  5
4F2
100
AcDbEntity
  8
止水栓
  6
CONTINUOUS
 62
     6
100
AcDbCircle
 10
341.141856
 20
2104.986066
 30
0.0
 40
25.3
100
AcDbArc
 50
0.0
 51
23.285661
  0
LINE
  5
4F3
100
AcDbEntity
  8
止水栓
  6
CONTINUOUS
 62
     6
100
AcDbLine
 10
434.714631
 20
2142.753793
 30
0.0
 11
434.714631
 21
2152.939567
 31
0.0
  0
LINE
  5
4F4
100
AcDbEntity
  8
止水栓
  6
CONTINUOUS
 62
     6
100
AcDbLine
 10
457.714631
 20
2142.753793
 30
0.0
 11
457.714631
 21
2152.939567
 31
0.0
  0
LINE
  5
4F5
100
AcDbEntity
  8
止水栓
  6
CONTINUOUS
 62
     6
100
AcDbLine
 10
435.245086
 20
2141.84668
 30
0.0
 11
457.184175
 21
2141.84668
 31
0.0
  0
LINE
  5
4F6
100
AcDbEntity
  8
止水栓
  6
CONTINUOUS
 62
     6
100
AcDbLine
 10
435.245086
 20
2153.84668
 30
0.0
 11
457.184175
 21
2153.84668
 31
0.0
  0
ARC
  5
4F7
100
AcDbEntity
  8
止水栓
  6
CONTINUOUS
 62
     6
100
AcDbCircle
 10
444.464631
 20
2147.84668
 30
0.0
 40
11.0
100
AcDbArc
 50
146.944269
 51
152.419801
  0
ARC
  5
4F8
100
AcDbEntity
  8
止水栓
  6
CONTINUOUS
 62
     6
100
AcDbCircle
 10
444.464631
 20
2147.84668
 30
0.0
 40
11.0
100
AcDbArc
 50
207.580199
 51
213.055731
  0
ARC
  5
4F9
100
AcDbEntity
  8
止水栓
  6
CONTINUOUS
 62
     6
100
AcDbCircle
 10
447.964631
 20
2147.84668
 30
0.0
 40
11.0
100
AcDbArc
 50
326.944269
 51
332.419801
  0
ARC
  5
4FA
100
AcDbEntity
  8
止水栓
  6
CONTINUOUS
 62
     6
100
AcDbCircle
 10
447.964631
 20
2147.84668
 30
0.0
 40
11.0
100
AcDbArc
 50
27.580199
 51
33.055731
  0
ELLIPSE
  5
4FB
100
AcDbEntity
  8
止水栓
  6
CONTINUOUS
 62
     6
100
AcDbEllipse
 10
451.964631
 20
2147.84668
 30
0.0
 11
0.0000000000000036
 21
-5.0928871968660001
 31
0.0
210
0.0
220
0.0
230
1.0
 40
0.936219
 41
0.0
 42
6.2831853071796004
  0
ELLIPSE
  5
4FC
100
AcDbEntity
  8
止水栓
  6
CONTINUOUS
 62
     6
100
AcDbEllipse
 10
440.464631
 20
2147.84668
 30
0.0
 11
0.0000000000000036
 21
-5.0928871968660001
 31
0.0
210
0.0
220
0.0
230
1.0
 40
0.936219
 41
0.0
 42
6.2831853071796004
  0
TEXT
  5
4FD
100
AcDbEntity
  8
止水栓
  6
CONTINUOUS
 62
     2
100
AcDbText
 10
209.254945
 20
2017.177246
 30
0.0
 40
40.0
  1
Ｒ
 41
0.9912
  7
EXCADSTD
 72
     5
 11
247.014943
 21
2017.177246
 31
0.0
100
AcDbText
  0
LINE
  5
4FE
100
AcDbEntity
  8
止水栓
  6
CONTINUOUS
 62
     6
100
AcDbLine
 10
350.440227
 20
1048.805521
 30
0.0
 11
350.440227
 21
1048.959329
 31
0.0
  0
LINE
  5
4FF
100
AcDbEntity
  8
止水栓
  6
CONTINUOUS
 62
     6
100
AcDbLine
 10
350.440227
 20
1048.959329
 30
0.0
 11
352.439739
 21
1048.959329
 31
0.0
  0
ARC
  5
500
100
AcDbEntity
  8
止水栓
  6
CONTINUOUS
 62
     6
100
AcDbCircle
 10
352.439739
 20
1035.958841
 30
0.0
 40
12.999535
100
AcDbArc
 50
23.146301
 51
89.999969
  0
ARC
  5
501
100
AcDbEntity
  8
止水栓
  6
CONTINUOUS
 62
     6
100
AcDbCircle
 10
341.14091
 20
1031.100443
 30
0.0
 40
25.300293
100
AcDbArc
 50
0.0
 51
23.202713
  0
ARC
  5
502
100
AcDbEntity
  8
止水栓
  6
CONTINUOUS
 62
     6
100
AcDbCircle
 10
352.439739
 20
1006.959818
 30
0.0
 40
13.001356
100
AcDbArc
 50
261.153183
 51
336.858627
  0
LINE
  5
503
100
AcDbEntity
  8
止水栓
  6
CONTINUOUS
 62
     6
100
AcDbLine
 10
350.440227
 20
1010.953958
 30
0.0
 11
343.684856
 21
1011.16636
 31
0.0
  0
LINE
  5
504
100
AcDbEntity
  8
止水栓
  6
CONTINUOUS
 62
     6
100
AcDbLine
 10
343.684856
 20
1011.16636
 30
0.0
 11
342.498332
 21
1012.352884
 31
0.0
  0
LINE
  5
505
100
AcDbEntity
  8
止水栓
  6
CONTINUOUS
 62
     6
100
AcDbLine
 10
342.498332
 20
1012.352884
 30
0.0
 11
342.139446
 21
1012.709329
 31
0.0
  0
LINE
  5
506
100
AcDbEntity
  8
止水栓
  6
CONTINUOUS
 62
     6
100
AcDbLine
 10
342.139446
 20
1030.209329
 30
0.0
 11
343.660442
 21
1031.730325
 31
0.0
  0
LINE
  5
507
100
AcDbEntity
  8
止水栓
  6
CONTINUOUS
 62
     6
100
AcDbLine
 10
343.660442
 20
1031.730325
 30
0.0
 11
350.440227
 21
1031.942728
 31
0.0
  0
LINE
  5
508
100
AcDbEntity
  8
止水栓
  6
CONTINUOUS
 62
     6
100
AcDbLine
 10
350.440227
 20
1030.756204
 30
0.0
 11
342.43545
 21
1030.505334
 31
0.0
  0
LINE
  5
509
100
AcDbEntity
  8
止水栓
  6
CONTINUOUS
 62
     6
100
AcDbLine
 10
342.498418
 20
1012.352799
 30
0.0
 11
350.440227
 21
1012.140482
 31
0.0
  0
LINE
  5
50A
100
AcDbEntity
  8
止水栓
  6
CONTINUOUS
 62
     6
100
AcDbLine
 10
366.441203
 20
1010.95988
 30
0.0
 11
418.439739
 21
1010.95988
 31
0.0
  0
ARC
  5
50B
100
AcDbEntity
  8
止水栓
  6
CONTINUOUS
 62
     6
100
AcDbCircle
 10
423.730266
 20
1026.460368
 30
0.0
 40
8.999529
100
AcDbArc
 50
67.07283
 51
125.794815
  0
ARC
  5
50C
100
AcDbEntity
  8
止水栓
  6
CONTINUOUS
 62
     6
100
AcDbCircle
 10
431.130168
 20
1043.960368
 30
0.0
 40
10.000696
100
AcDbArc
 50
247.084198
 51
269.356506
  0
ARC
  5
50D
100
AcDbEntity
  8
止水栓
  6
CONTINUOUS
 62
     6
100
AcDbCircle
 10
430.939739
 20
1038.960368
 30
0.0
 40
5.000649
100
AcDbArc
 50
270.923187
 51
0.0
  0
LINE
  5
50E
100
AcDbEntity
  8
止水栓
  6
CONTINUOUS
 62
     6
100
AcDbLine
 10
435.939739
 20
1038.960368
 30
0.0
 11
435.939739
 21
1045.460307
 31
0.0
  0
ARC
  5
50F
100
AcDbEntity
  8
止水栓
  6
CONTINUOUS
 62
     6
100
AcDbCircle
 10
460.43925
 20
1036.960857
 30
0.0
 40
3.498535
100
AcDbArc
 50
180.0
 51
270.0
  0
LINE
  5
510
100
AcDbEntity
  8
止水栓
  6
CONTINUOUS
 62
     6
100
AcDbLine
 10
460.43925
 20
1033.45988
 30
0.0
 11
461.452434
 21
1033.45988
 31
0.0
  0
LINE
  5
511
100
AcDbEntity
  8
止水栓
  6
CONTINUOUS
 62
     6
100
AcDbLine
 10
461.940715
 20
1033.45988
 30
0.0
 11
461.452434
 21
1033.45988
 31
0.0
  0
LINE
  5
512
100
AcDbEntity
  8
止水栓
  6
CONTINUOUS
 62
     6
100
AcDbLine
 10
460.939739
 20
1033.45988
 30
0.0
 11
460.939739
 21
1009.460857
 31
0.0
  0
ARC
  5
513
100
AcDbEntity
  8
止水栓
  6
CONTINUOUS
 62
     6
100
AcDbCircle
 10
446.440227
 20
1068.669841
 30
0.0
 40
60.000095
100
AcDbArc
 50
264.358292
 51
279.286835
  0
LINE
  5
514
100
AcDbEntity
  8
止水栓
  6
CONTINUOUS
 62
     6
100
AcDbLine
 10
440.541789
 20
1008.960368
 30
0.0
 11
431.130168
 21
1008.960368
 31
0.0
  0
ARC
  5
515
100
AcDbEntity
  8
止水栓
  6
CONTINUOUS
 62
     6
100
AcDbCircle
 10
431.130168
 20
998.960368
 30
0.0
 40
10.0
100
AcDbArc
 50
89.999969
 51
112.917496
  0
POLYLINE
  5
516
100
AcDbEntity
  8
止水栓
  6
CONTINUOUS
 62
     6
100
AcDb2dPolyline
 66
     1
 10
0.0
 20
0.0
 30
0.0
 70
   128
  0
VERTEX
  5
517
100
AcDbEntity
  8
止水栓
  6
CONTINUOUS
 62
     6
100
AcDbVertex
100
AcDb2dVertex
 10
418.661907
 20
1031.965739
 30
0.0
  0
VERTEX
  5
518
100
AcDbEntity
  8
止水栓
  6
CONTINUOUS
 62
     6
100
AcDbVertex
100
AcDb2dVertex
 10
418.698528
 20
1031.819255
 30
0.0
  0
VERTEX
  5
519
100
AcDbEntity
  8
止水栓
  6
CONTINUOUS
 62
     6
100
AcDbVertex
100
AcDb2dVertex
 10
418.747356
 20
1031.675212
 30
0.0
  0
VERTEX
  5
51A
100
AcDbEntity
  8
止水栓
  6
CONTINUOUS
 62
     6
100
AcDbVertex
100
AcDb2dVertex
 10
418.80595
 20
1031.53361
 30
0.0
  0
VERTEX
  5
51B
100
AcDbEntity
  8
止水栓
  6
CONTINUOUS
 62
     6
100
AcDbVertex
100
AcDb2dVertex
 10
418.94511
 20
1031.282146
 30
0.0
  0
VERTEX
  5
51C
100
AcDbEntity
  8
止水栓
  6
CONTINUOUS
 62
     6
100
AcDbVertex
100
AcDb2dVertex
 10
419.120891
 20
1031.040446
 30
0.0
  0
VERTEX
  5
51D
100
AcDbEntity
  8
止水栓
  6
CONTINUOUS
 62
     6
100
AcDbVertex
100
AcDb2dVertex
 10
419.335735
 20
1030.808513
 30
0.0
  0
VERTEX
  5
51E
100
AcDbEntity
  8
止水栓
  6
CONTINUOUS
 62
     6
100
AcDbVertex
100
AcDb2dVertex
 10
419.582317
 20
1030.588786
 30
0.0
  0
VERTEX
  5
51F
100
AcDbEntity
  8
止水栓
  6
CONTINUOUS
 62
     6
100
AcDbVertex
100
AcDb2dVertex
 10
419.863078
 20
1030.381267
 30
0.0
  0
VERTEX
  5
520
100
AcDbEntity
  8
止水栓
  6
CONTINUOUS
 62
     6
100
AcDbVertex
100
AcDb2dVertex
 10
420.175578
 20
1030.185954
 30
0.0
  0
VERTEX
  5
521
100
AcDbEntity
  8
止水栓
  6
CONTINUOUS
 62
     6
100
AcDbVertex
100
AcDb2dVertex
 10
420.514934
 20
1030.010173
 30
0.0
  0
VERTEX
  5
522
100
AcDbEntity
  8
止水栓
  6
CONTINUOUS
 62
     6
100
AcDbVertex
100
AcDb2dVertex
 10
420.881145
 20
1029.851482
 30
0.0
  0
VERTEX
  5
523
100
AcDbEntity
  8
止水栓
  6
CONTINUOUS
 62
     6
100
AcDbVertex
100
AcDb2dVertex
 10
421.269328
 20
1029.70988
 30
0.0
  0
VERTEX
  5
524
100
AcDbEntity
  8
止水栓
  6
CONTINUOUS
 62
     6
100
AcDbVertex
100
AcDb2dVertex
 10
421.679485
 20
1029.590251
 30
0.0
  0
VERTEX
  5
525
100
AcDbEntity
  8
止水栓
  6
CONTINUOUS
 62
     6
100
AcDbVertex
100
AcDb2dVertex
 10
422.104289
 20
1029.490153
 30
0.0
  0
VERTEX
  5
526
100
AcDbEntity
  8
止水栓
  6
CONTINUOUS
 62
     6
100
AcDbVertex
100
AcDb2dVertex
 10
422.543743
 20
1029.409587
 30
0.0
  0
VERTEX
  5
527
100
AcDbEntity
  8
止水栓
  6
CONTINUOUS
 62
     6
100
AcDbVertex
100
AcDb2dVertex
 10
422.995403
 20
1029.353435
 30
0.0
  0
VERTEX
  5
528
100
AcDbEntity
  8
止水栓
  6
CONTINUOUS
 62
     6
100
AcDbVertex
100
AcDb2dVertex
 10
423.451946
 20
1029.319255
 30
0.0
  0
VERTEX
  5
529
100
AcDbEntity
  8
止水栓
  6
CONTINUOUS
 62
     6
100
AcDbVertex
100
AcDb2dVertex
 10
423.91093
 20
1029.307048
 30
0.0
  0
SEQEND
  5
52A
100
AcDbEntity
  8
止水栓
  6
CONTINUOUS
 62
     6
  0
POLYLINE
  5
52B
100
AcDbEntity
  8
止水栓
  6
CONTINUOUS
 62
     6
100
AcDb2dPolyline
 66
     1
 10
0.0
 20
0.0
 30
0.0
 70
   128
  0
VERTEX
  5
52C
100
AcDbEntity
  8
止水栓
  6
CONTINUOUS
 62
     6
100
AcDbVertex
100
AcDb2dVertex
 10
423.913371
 20
1029.309489
 30
0.0
  0
VERTEX
  5
52D
100
AcDbEntity
  8
止水栓
  6
CONTINUOUS
 62
     6
100
AcDbVertex
100
AcDb2dVertex
 10
424.372356
 20
1029.319255
 30
0.0
  0
VERTEX
  5
52E
100
AcDbEntity
  8
止水栓
  6
CONTINUOUS
 62
     6
100
AcDbVertex
100
AcDb2dVertex
 10
424.83134
 20
1029.353435
 30
0.0
  0
VERTEX
  5
52F
100
AcDbEntity
  8
止水栓
  6
CONTINUOUS
 62
     6
100
AcDbVertex
100
AcDb2dVertex
 10
425.280559
 20
1029.409587
 30
0.0
  0
VERTEX
  5
530
100
AcDbEntity
  8
止水栓
  6
CONTINUOUS
 62
     6
100
AcDbVertex
100
AcDb2dVertex
 10
425.720012
 20
1029.490153
 30
0.0
  0
VERTEX
  5
531
100
AcDbEntity
  8
止水栓
  6
CONTINUOUS
 62
     6
100
AcDbVertex
100
AcDb2dVertex
 10
426.147258
 20
1029.590251
 30
0.0
  0
VERTEX
  5
532
100
AcDbEntity
  8
止水栓
  6
CONTINUOUS
 62
     6
100
AcDbVertex
100
AcDb2dVertex
 10
426.554973
 20
1029.70988
 30
0.0
  0
VERTEX
  5
533
100
AcDbEntity
  8
止水栓
  6
CONTINUOUS
 62
     6
100
AcDbVertex
100
AcDb2dVertex
 10
426.945598
 20
1029.851482
 30
0.0
  0
VERTEX
  5
534
100
AcDbEntity
  8
止水栓
  6
CONTINUOUS
 62
     6
100
AcDbVertex
100
AcDb2dVertex
 10
427.309368
 20
1030.010173
 30
0.0
  0
VERTEX
  5
535
100
AcDbEntity
  8
止水栓
  6
CONTINUOUS
 62
     6
100
AcDbVertex
100
AcDb2dVertex
 10
427.651164
 20
1030.185954
 30
0.0
  0
VERTEX
  5
536
100
AcDbEntity
  8
止水栓
  6
CONTINUOUS
 62
     6
100
AcDbVertex
100
AcDb2dVertex
 10
427.961223
 20
1030.381267
 30
0.0
  0
VERTEX
  5
537
100
AcDbEntity
  8
止水栓
  6
CONTINUOUS
 62
     6
100
AcDbVertex
100
AcDb2dVertex
 10
428.241985
 20
1030.588786
 30
0.0
  0
VERTEX
  5
538
100
AcDbEntity
  8
止水栓
  6
CONTINUOUS
 62
     6
100
AcDbVertex
100
AcDb2dVertex
 10
428.491008
 20
1030.808513
 30
0.0
  0
VERTEX
  5
539
100
AcDbEntity
  8
止水栓
  6
CONTINUOUS
 62
     6
100
AcDbVertex
100
AcDb2dVertex
 10
428.70341
 20
1031.040446
 30
0.0
  0
VERTEX
  5
53A
100
AcDbEntity
  8
止水栓
  6
CONTINUOUS
 62
     6
100
AcDbVertex
100
AcDb2dVertex
 10
428.881633
 20
1031.282146
 30
0.0
  0
VERTEX
  5
53B
100
AcDbEntity
  8
止水栓
  6
CONTINUOUS
 62
     6
100
AcDbVertex
100
AcDb2dVertex
 10
429.018352
 20
1031.531169
 30
0.0
  0
VERTEX
  5
53C
100
AcDbEntity
  8
止水栓
  6
CONTINUOUS
 62
     6
100
AcDbVertex
100
AcDb2dVertex
 10
429.11845
 20
1031.787517
 30
0.0
  0
VERTEX
  5
53D
100
AcDbEntity
  8
止水栓
  6
CONTINUOUS
 62
     6
100
AcDbVertex
100
AcDb2dVertex
 10
429.179485
 20
1032.046306
 30
0.0
  0
VERTEX
  5
53E
100
AcDbEntity
  8
止水栓
  6
CONTINUOUS
 62
     6
100
AcDbVertex
100
AcDb2dVertex
 10
429.199016
 20
1032.307536
 30
0.0
  0
VERTEX
  5
53F
100
AcDbEntity
  8
止水栓
  6
CONTINUOUS
 62
     6
100
AcDbVertex
100
AcDb2dVertex
 10
429.179485
 20
1032.568767
 30
0.0
  0
VERTEX
  5
540
100
AcDbEntity
  8
止水栓
  6
CONTINUOUS
 62
     6
100
AcDbVertex
100
AcDb2dVertex
 10
429.11845
 20
1032.829997
 30
0.0
  0
VERTEX
  5
541
100
AcDbEntity
  8
止水栓
  6
CONTINUOUS
 62
     6
100
AcDbVertex
100
AcDb2dVertex
 10
429.018352
 20
1033.083903
 30
0.0
  0
VERTEX
  5
542
100
AcDbEntity
  8
止水栓
  6
CONTINUOUS
 62
     6
100
AcDbVertex
100
AcDb2dVertex
 10
428.879192
 20
1033.335368
 30
0.0
  0
VERTEX
  5
543
100
AcDbEntity
  8
止水栓
  6
CONTINUOUS
 62
     6
100
AcDbVertex
100
AcDb2dVertex
 10
428.70341
 20
1033.577067
 30
0.0
  0
VERTEX
  5
544
100
AcDbEntity
  8
止水栓
  6
CONTINUOUS
 62
     6
100
AcDbVertex
100
AcDb2dVertex
 10
428.491008
 20
1033.809001
 30
0.0
  0
VERTEX
  5
545
100
AcDbEntity
  8
止水栓
  6
CONTINUOUS
 62
     6
100
AcDbVertex
100
AcDb2dVertex
 10
428.241985
 20
1034.028728
 30
0.0
  0
VERTEX
  5
546
100
AcDbEntity
  8
止水栓
  6
CONTINUOUS
 62
     6
100
AcDbVertex
100
AcDb2dVertex
 10
427.961223
 20
1034.236247
 30
0.0
  0
VERTEX
  5
547
100
AcDbEntity
  8
止水栓
  6
CONTINUOUS
 62
     6
100
AcDbVertex
100
AcDb2dVertex
 10
427.651164
 20
1034.429118
 30
0.0
  0
VERTEX
  5
548
100
AcDbEntity
  8
止水栓
  6
CONTINUOUS
 62
     6
100
AcDbVertex
100
AcDb2dVertex
 10
427.309368
 20
1034.607341
 30
0.0
  0
VERTEX
  5
549
100
AcDbEntity
  8
止水栓
  6
CONTINUOUS
 62
     6
100
AcDbVertex
100
AcDb2dVertex
 10
426.945598
 20
1034.766032
 30
0.0
  0
VERTEX
  5
54A
100
AcDbEntity
  8
止水栓
  6
CONTINUOUS
 62
     6
100
AcDbVertex
100
AcDb2dVertex
 10
426.554973
 20
1034.907634
 30
0.0
  0
VERTEX
  5
54B
100
AcDbEntity
  8
止水栓
  6
CONTINUOUS
 62
     6
100
AcDbVertex
100
AcDb2dVertex
 10
426.147258
 20
1035.027263
 30
0.0
  0
VERTEX
  5
54C
100
AcDbEntity
  8
止水栓
  6
CONTINUOUS
 62
     6
100
AcDbVertex
100
AcDb2dVertex
 10
425.720012
 20
1035.12736
 30
0.0
  0
VERTEX
  5
54D
100
AcDbEntity
  8
止水栓
  6
CONTINUOUS
 62
     6
100
AcDbVertex
100
AcDb2dVertex
 10
425.280559
 20
1035.205485
 30
0.0
  0
VERTEX
  5
54E
100
AcDbEntity
  8
止水栓
  6
CONTINUOUS
 62
     6
100
AcDbVertex
100
AcDb2dVertex
 10
424.83134
 20
1035.264079
 30
0.0
  0
VERTEX
  5
54F
100
AcDbEntity
  8
止水栓
  6
CONTINUOUS
 62
     6
100
AcDbVertex
100
AcDb2dVertex
 10
424.372356
 20
1035.298259
 30
0.0
  0
VERTEX
  5
550
100
AcDbEntity
  8
止水栓
  6
CONTINUOUS
 62
     6
100
AcDbVertex
100
AcDb2dVertex
 10
423.913371
 20
1035.308024
 30
0.0
  0
VERTEX
  5
551
100
AcDbEntity
  8
止水栓
  6
CONTINUOUS
 62
     6
100
AcDbVertex
100
AcDb2dVertex
 10
423.451946
 20
1035.298259
 30
0.0
  0
VERTEX
  5
552
100
AcDbEntity
  8
止水栓
  6
CONTINUOUS
 62
     6
100
AcDbVertex
100
AcDb2dVertex
 10
422.995403
 20
1035.264079
 30
0.0
  0
VERTEX
  5
553
100
AcDbEntity
  8
止水栓
  6
CONTINUOUS
 62
     6
100
AcDbVertex
100
AcDb2dVertex
 10
422.543743
 20
1035.205485
 30
0.0
  0
VERTEX
  5
554
100
AcDbEntity
  8
止水栓
  6
CONTINUOUS
 62
     6
100
AcDbVertex
100
AcDb2dVertex
 10
422.104289
 20
1035.12736
 30
0.0
  0
VERTEX
  5
555
100
AcDbEntity
  8
止水栓
  6
CONTINUOUS
 62
     6
100
AcDbVertex
100
AcDb2dVertex
 10
421.679485
 20
1035.027263
 30
0.0
  0
VERTEX
  5
556
100
AcDbEntity
  8
止水栓
  6
CONTINUOUS
 62
     6
100
AcDbVertex
100
AcDb2dVertex
 10
421.269328
 20
1034.907634
 30
0.0
  0
VERTEX
  5
557
100
AcDbEntity
  8
止水栓
  6
CONTINUOUS
 62
     6
100
AcDbVertex
100
AcDb2dVertex
 10
420.881145
 20
1034.766032
 30
0.0
  0
VERTEX
  5
558
100
AcDbEntity
  8
止水栓
  6
CONTINUOUS
 62
     6
100
AcDbVertex
100
AcDb2dVertex
 10
420.514934
 20
1034.607341
 30
0.0
  0
VERTEX
  5
559
100
AcDbEntity
  8
止水栓
  6
CONTINUOUS
 62
     6
100
AcDbVertex
100
AcDb2dVertex
 10
420.175578
 20
1034.429118
 30
0.0
  0
VERTEX
  5
55A
100
AcDbEntity
  8
止水栓
  6
CONTINUOUS
 62
     6
100
AcDbVertex
100
AcDb2dVertex
 10
419.863078
 20
1034.236247
 30
0.0
  0
VERTEX
  5
55B
100
AcDbEntity
  8
止水栓
  6
CONTINUOUS
 62
     6
100
AcDbVertex
100
AcDb2dVertex
 10
419.582317
 20
1034.028728
 30
0.0
  0
VERTEX
  5
55C
100
AcDbEntity
  8
止水栓
  6
CONTINUOUS
 62
     6
100
AcDbVertex
100
AcDb2dVertex
 10
419.335735
 20
1033.809001
 30
0.0
  0
VERTEX
  5
55D
100
AcDbEntity
  8
止水栓
  6
CONTINUOUS
 62
     6
100
AcDbVertex
100
AcDb2dVertex
 10
419.120891
 20
1033.577067
 30
0.0
  0
VERTEX
  5
55E
100
AcDbEntity
  8
止水栓
  6
CONTINUOUS
 62
     6
100
AcDbVertex
100
AcDb2dVertex
 10
418.94511
 20
1033.335368
 30
0.0
  0
VERTEX
  5
55F
100
AcDbEntity
  8
止水栓
  6
CONTINUOUS
 62
     6
100
AcDbVertex
100
AcDb2dVertex
 10
418.80595
 20
1033.083903
 30
0.0
  0
VERTEX
  5
560
100
AcDbEntity
  8
止水栓
  6
CONTINUOUS
 62
     6
100
AcDbVertex
100
AcDb2dVertex
 10
418.705852
 20
1032.829997
 30
0.0
  0
VERTEX
  5
561
100
AcDbEntity
  8
止水栓
  6
CONTINUOUS
 62
     6
100
AcDbVertex
100
AcDb2dVertex
 10
418.644817
 20
1032.568767
 30
0.0
  0
VERTEX
  5
562
100
AcDbEntity
  8
止水栓
  6
CONTINUOUS
 62
     6
100
AcDbVertex
100
AcDb2dVertex
 10
418.627727
 20
1032.307536
 30
0.0
  0
VERTEX
  5
563
100
AcDbEntity
  8
止水栓
  6
CONTINUOUS
 62
     6
100
AcDbVertex
100
AcDb2dVertex
 10
418.630168
 20
1032.19279
 30
0.0
  0
VERTEX
  5
564
100
AcDbEntity
  8
止水栓
  6
CONTINUOUS
 62
     6
100
AcDbVertex
100
AcDb2dVertex
 10
418.642375
 20
1032.078044
 30
0.0
  0
VERTEX
  5
565
100
AcDbEntity
  8
止水栓
  6
CONTINUOUS
 62
     6
100
AcDbVertex
100
AcDb2dVertex
 10
418.661907
 20
1031.965739
 30
0.0
  0
SEQEND
  5
566
100
AcDbEntity
  8
止水栓
  6
CONTINUOUS
 62
     6
  0
POLYLINE
  5
567
100
AcDbEntity
  8
止水栓
  6
CONTINUOUS
 62
     6
100
AcDb2dPolyline
 66
     1
 10
0.0
 20
0.0
 30
0.0
 70
   128
  0
VERTEX
  5
568
100
AcDbEntity
  8
止水栓
  6
CONTINUOUS
 62
     6
100
AcDbVertex
100
AcDb2dVertex
 10
428.92802
 20
1021.460368
 30
0.0
  0
VERTEX
  5
569
100
AcDbEntity
  8
止水栓
  6
CONTINUOUS
 62
     6
100
AcDbVertex
100
AcDb2dVertex
 10
428.92802
 20
1021.46281
 30
0.0
  0
VERTEX
  5
56A
100
AcDbEntity
  8
止水栓
  6
CONTINUOUS
 62
     6
100
AcDbVertex
100
AcDb2dVertex
 10
428.92802
 20
1021.465251
 30
0.0
  0
VERTEX
  5
56B
100
AcDbEntity
  8
止水栓
  6
CONTINUOUS
 62
     6
100
AcDbVertex
100
AcDb2dVertex
 10
428.92802
 20
1021.467692
 30
0.0
  0
VERTEX
  5
56C
100
AcDbEntity
  8
止水栓
  6
CONTINUOUS
 62
     6
100
AcDbVertex
100
AcDb2dVertex
 10
428.908489
 20
1021.968181
 30
0.0
  0
VERTEX
  5
56D
100
AcDbEntity
  8
止水栓
  6
CONTINUOUS
 62
     6
100
AcDbVertex
100
AcDb2dVertex
 10
428.852336
 20
1022.463786
 30
0.0
  0
VERTEX
  5
56E
100
AcDbEntity
  8
止水栓
  6
CONTINUOUS
 62
     6
100
AcDbVertex
100
AcDb2dVertex
 10
428.757121
 20
1022.954509
 30
0.0
  0
VERTEX
  5
56F
100
AcDbEntity
  8
止水栓
  6
CONTINUOUS
 62
     6
100
AcDbVertex
100
AcDb2dVertex
 10
428.627727
 20
1023.433024
 30
0.0
  0
VERTEX
  5
570
100
AcDbEntity
  8
止水栓
  6
CONTINUOUS
 62
     6
100
AcDbVertex
100
AcDb2dVertex
 10
428.45927
 20
1023.89445
 30
0.0
  0
VERTEX
  5
571
100
AcDbEntity
  8
止水栓
  6
CONTINUOUS
 62
     6
100
AcDbVertex
100
AcDb2dVertex
 10
428.259075
 20
1024.338786
 30
0.0
  0
VERTEX
  5
572
100
AcDbEntity
  8
止水栓
  6
CONTINUOUS
 62
     6
100
AcDbVertex
100
AcDb2dVertex
 10
428.0247
 20
1024.761149
 30
0.0
  0
VERTEX
  5
573
100
AcDbEntity
  8
止水栓
  6
CONTINUOUS
 62
     6
100
AcDbVertex
100
AcDb2dVertex
 10
427.758586
 20
1025.159099
 30
0.0
  0
VERTEX
  5
574
100
AcDbEntity
  8
止水栓
  6
CONTINUOUS
 62
     6
100
AcDbVertex
100
AcDb2dVertex
 10
427.463176
 20
1025.530192
 30
0.0
  0
VERTEX
  5
575
100
AcDbEntity
  8
止水栓
  6
CONTINUOUS
 62
     6
100
AcDbVertex
100
AcDb2dVertex
 10
427.143352
 20
1025.867107
 30
0.0
  0
VERTEX
  5
576
100
AcDbEntity
  8
止水栓
  6
CONTINUOUS
 62
     6
100
AcDbVertex
100
AcDb2dVertex
 10
426.796672
 20
1026.172282
 30
0.0
  0
VERTEX
  5
577
100
AcDbEntity
  8
止水栓
  6
CONTINUOUS
 62
     6
100
AcDbVertex
100
AcDb2dVertex
 10
426.42802
 20
1026.440837
 30
0.0
  0
VERTEX
  5
578
100
AcDbEntity
  8
止水栓
  6
CONTINUOUS
 62
     6
100
AcDbVertex
100
AcDb2dVertex
 10
426.042278
 20
1026.672771
 30
0.0
  0
VERTEX
  5
579
100
AcDbEntity
  8
止水栓
  6
CONTINUOUS
 62
     6
100
AcDbVertex
100
AcDb2dVertex
 10
425.639446
 20
1026.865642
 30
0.0
  0
VERTEX
  5
57A
100
AcDbEntity
  8
止水栓
  6
CONTINUOUS
 62
     6
100
AcDbVertex
100
AcDb2dVertex
 10
425.224407
 20
1027.017009
 30
0.0
  0
VERTEX
  5
57B
100
AcDbEntity
  8
止水栓
  6
CONTINUOUS
 62
     6
100
AcDbVertex
100
AcDb2dVertex
 10
424.79716
 20
1027.124431
 30
0.0
  0
VERTEX
  5
57C
100
AcDbEntity
  8
止水栓
  6
CONTINUOUS
 62
     6
100
AcDbVertex
100
AcDb2dVertex
 10
424.365032
 20
1027.190349
 30
0.0
  0
VERTEX
  5
57D
100
AcDbEntity
  8
止水栓
  6
CONTINUOUS
 62
     6
100
AcDbVertex
100
AcDb2dVertex
 10
423.930461
 20
1027.212321
 30
0.0
  0
VERTEX
  5
57E
100
AcDbEntity
  8
止水栓
  6
CONTINUOUS
 62
     6
100
AcDbVertex
100
AcDb2dVertex
 10
423.49345
 20
1027.190349
 30
0.0
  0
VERTEX
  5
57F
100
AcDbEntity
  8
止水栓
  6
CONTINUOUS
 62
     6
100
AcDbVertex
100
AcDb2dVertex
 10
423.061321
 20
1027.124431
 30
0.0
  0
VERTEX
  5
580
100
AcDbEntity
  8
止水栓
  6
CONTINUOUS
 62
     6
100
AcDbVertex
100
AcDb2dVertex
 10
422.636516
 20
1027.017009
 30
0.0
  0
VERTEX
  5
581
100
AcDbEntity
  8
止水栓
  6
CONTINUOUS
 62
     6
100
AcDbVertex
100
AcDb2dVertex
 10
422.219035
 20
1026.865642
 30
0.0
  0
VERTEX
  5
582
100
AcDbEntity
  8
止水栓
  6
CONTINUOUS
 62
     6
100
AcDbVertex
100
AcDb2dVertex
 10
421.816203
 20
1026.672771
 30
0.0
  0
VERTEX
  5
583
100
AcDbEntity
  8
止水栓
  6
CONTINUOUS
 62
     6
100
AcDbVertex
100
AcDb2dVertex
 10
421.430461
 20
1026.440837
 30
0.0
  0
VERTEX
  5
584
100
AcDbEntity
  8
止水栓
  6
CONTINUOUS
 62
     6
100
AcDbVertex
100
AcDb2dVertex
 10
421.061809
 20
1026.172282
 30
0.0
  0
VERTEX
  5
585
100
AcDbEntity
  8
止水栓
  6
CONTINUOUS
 62
     6
100
AcDbVertex
100
AcDb2dVertex
 10
420.715129
 20
1025.867107
 30
0.0
  0
VERTEX
  5
586
100
AcDbEntity
  8
止水栓
  6
CONTINUOUS
 62
     6
100
AcDbVertex
100
AcDb2dVertex
 10
420.395305
 20
1025.530192
 30
0.0
  0
VERTEX
  5
587
100
AcDbEntity
  8
止水栓
  6
CONTINUOUS
 62
     6
100
AcDbVertex
100
AcDb2dVertex
 10
420.099895
 20
1025.159099
 30
0.0
  0
VERTEX
  5
588
100
AcDbEntity
  8
止水栓
  6
CONTINUOUS
 62
     6
100
AcDbVertex
100
AcDb2dVertex
 10
419.833782
 20
1024.761149
 30
0.0
  0
VERTEX
  5
589
100
AcDbEntity
  8
止水栓
  6
CONTINUOUS
 62
     6
100
AcDbVertex
100
AcDb2dVertex
 10
419.599407
 20
1024.338786
 30
0.0
  0
VERTEX
  5
58A
100
AcDbEntity
  8
止水栓
  6
CONTINUOUS
 62
     6
100
AcDbVertex
100
AcDb2dVertex
 10
419.399211
 20
1023.89445
 30
0.0
  0
VERTEX
  5
58B
100
AcDbEntity
  8
止水栓
  6
CONTINUOUS
 62
     6
100
AcDbVertex
100
AcDb2dVertex
 10
419.230754
 20
1023.433024
 30
0.0
  0
VERTEX
  5
58C
100
AcDbEntity
  8
止水栓
  6
CONTINUOUS
 62
     6
100
AcDbVertex
100
AcDb2dVertex
 10
419.10136
 20
1022.954509
 30
0.0
  0
VERTEX
  5
58D
100
AcDbEntity
  8
止水栓
  6
CONTINUOUS
 62
     6
100
AcDbVertex
100
AcDb2dVertex
 10
419.006145
 20
1022.463786
 30
0.0
  0
VERTEX
  5
58E
100
AcDbEntity
  8
止水栓
  6
CONTINUOUS
 62
     6
100
AcDbVertex
100
AcDb2dVertex
 10
418.949993
 20
1021.968181
 30
0.0
  0
VERTEX
  5
58F
100
AcDbEntity
  8
止水栓
  6
CONTINUOUS
 62
     6
100
AcDbVertex
100
AcDb2dVertex
 10
418.930461
 20
1021.467692
 30
0.0
  0
VERTEX
  5
590
100
AcDbEntity
  8
止水栓
  6
CONTINUOUS
 62
     6
100
AcDbVertex
100
AcDb2dVertex
 10
418.930461
 20
1021.465251
 30
0.0
  0
VERTEX
  5
591
100
AcDbEntity
  8
止水栓
  6
CONTINUOUS
 62
     6
100
AcDbVertex
100
AcDb2dVertex
 10
418.930461
 20
1021.46281
 30
0.0
  0
VERTEX
  5
592
100
AcDbEntity
  8
止水栓
  6
CONTINUOUS
 62
     6
100
AcDbVertex
100
AcDb2dVertex
 10
418.930461
 20
1021.460368
 30
0.0
  0
SEQEND
  5
593
100
AcDbEntity
  8
止水栓
  6
CONTINUOUS
 62
     6
  0
POLYLINE
  5
594
100
AcDbEntity
  8
止水栓
  6
CONTINUOUS
 62
     6
100
AcDb2dPolyline
 66
     1
 10
0.0
 20
0.0
 30
0.0
 70
   128
  0
VERTEX
  5
595
100
AcDbEntity
  8
止水栓
  6
CONTINUOUS
 62
     6
100
AcDbVertex
100
AcDb2dVertex
 10
423.92802
 20
1015.723064
 30
0.0
  0
VERTEX
  5
596
100
AcDbEntity
  8
止水栓
  6
CONTINUOUS
 62
     6
100
AcDbVertex
100
AcDb2dVertex
 10
424.365032
 20
1015.745036
 30
0.0
  0
VERTEX
  5
597
100
AcDbEntity
  8
止水栓
  6
CONTINUOUS
 62
     6
100
AcDbVertex
100
AcDb2dVertex
 10
424.79716
 20
1015.810954
 30
0.0
  0
VERTEX
  5
598
100
AcDbEntity
  8
止水栓
  6
CONTINUOUS
 62
     6
100
AcDbVertex
100
AcDb2dVertex
 10
425.221965
 20
1015.918376
 30
0.0
  0
VERTEX
  5
599
100
AcDbEntity
  8
止水栓
  6
CONTINUOUS
 62
     6
100
AcDbVertex
100
AcDb2dVertex
 10
425.639446
 20
1016.069743
 30
0.0
  0
VERTEX
  5
59A
100
AcDbEntity
  8
止水栓
  6
CONTINUOUS
 62
     6
100
AcDbVertex
100
AcDb2dVertex
 10
426.042278
 20
1016.260173
 30
0.0
  0
VERTEX
  5
59B
100
AcDbEntity
  8
止水栓
  6
CONTINUOUS
 62
     6
100
AcDbVertex
100
AcDb2dVertex
 10
426.42802
 20
1016.492107
 30
0.0
  0
VERTEX
  5
59C
100
AcDbEntity
  8
止水栓
  6
CONTINUOUS
 62
     6
100
AcDbVertex
100
AcDb2dVertex
 10
426.796672
 20
1016.760661
 30
0.0
  0
VERTEX
  5
59D
100
AcDbEntity
  8
止水栓
  6
CONTINUOUS
 62
     6
100
AcDbVertex
100
AcDb2dVertex
 10
427.14091
 20
1017.065837
 30
0.0
  0
VERTEX
  5
59E
100
AcDbEntity
  8
止水栓
  6
CONTINUOUS
 62
     6
100
AcDbVertex
100
AcDb2dVertex
 10
427.463176
 20
1017.405192
 30
0.0
  0
VERTEX
  5
59F
100
AcDbEntity
  8
止水栓
  6
CONTINUOUS
 62
     6
100
AcDbVertex
100
AcDb2dVertex
 10
427.758586
 20
1017.773845
 30
0.0
  0
VERTEX
  5
5A0
100
AcDbEntity
  8
止水栓
  6
CONTINUOUS
 62
     6
100
AcDbVertex
100
AcDb2dVertex
 10
428.0247
 20
1018.171794
 30
0.0
  0
VERTEX
  5
5A1
100
AcDbEntity
  8
止水栓
  6
CONTINUOUS
 62
     6
100
AcDbVertex
100
AcDb2dVertex
 10
428.259075
 20
1018.594157
 30
0.0
  0
VERTEX
  5
5A2
100
AcDbEntity
  8
止水栓
  6
CONTINUOUS
 62
     6
100
AcDbVertex
100
AcDb2dVertex
 10
428.45927
 20
1019.038493
 30
0.0
  0
VERTEX
  5
5A3
100
AcDbEntity
  8
止水栓
  6
CONTINUOUS
 62
     6
100
AcDbVertex
100
AcDb2dVertex
 10
428.627727
 20
1019.50236
 30
0.0
  0
VERTEX
  5
5A4
100
AcDbEntity
  8
止水栓
  6
CONTINUOUS
 62
     6
100
AcDbVertex
100
AcDb2dVertex
 10
428.757121
 20
1019.980876
 30
0.0
  0
VERTEX
  5
5A5
100
AcDbEntity
  8
止水栓
  6
CONTINUOUS
 62
     6
100
AcDbVertex
100
AcDb2dVertex
 10
428.849895
 20
1020.449626
 30
0.0
  0
VERTEX
  5
5A6
100
AcDbEntity
  8
止水栓
  6
CONTINUOUS
 62
     6
100
AcDbVertex
100
AcDb2dVertex
 10
428.906047
 20
1020.9257
 30
0.0
  0
VERTEX
  5
5A7
100
AcDbEntity
  8
止水栓
  6
CONTINUOUS
 62
     6
100
AcDbVertex
100
AcDb2dVertex
 10
428.92802
 20
1021.406657
 30
0.0
  0
SEQEND
  5
5A8
100
AcDbEntity
  8
止水栓
  6
CONTINUOUS
 62
     6
  0
POLYLINE
  5
5A9
100
AcDbEntity
  8
止水栓
  6
CONTINUOUS
 62
     6
100
AcDb2dPolyline
 66
     1
 10
0.0
 20
0.0
 30
0.0
 70
   128
  0
VERTEX
  5
5AA
100
AcDbEntity
  8
止水栓
  6
CONTINUOUS
 62
     6
100
AcDbVertex
100
AcDb2dVertex
 10
418.930461
 20
1021.406657
 30
0.0
  0
VERTEX
  5
5AB
100
AcDbEntity
  8
止水栓
  6
CONTINUOUS
 62
     6
100
AcDbVertex
100
AcDb2dVertex
 10
418.952434
 20
1020.9257
 30
0.0
  0
VERTEX
  5
5AC
100
AcDbEntity
  8
止水栓
  6
CONTINUOUS
 62
     6
100
AcDbVertex
100
AcDb2dVertex
 10
419.008586
 20
1020.449626
 30
0.0
  0
VERTEX
  5
5AD
100
AcDbEntity
  8
止水栓
  6
CONTINUOUS
 62
     6
100
AcDbVertex
100
AcDb2dVertex
 10
419.10136
 20
1019.980876
 30
0.0
  0
VERTEX
  5
5AE
100
AcDbEntity
  8
止水栓
  6
CONTINUOUS
 62
     6
100
AcDbVertex
100
AcDb2dVertex
 10
419.230754
 20
1019.50236
 30
0.0
  0
VERTEX
  5
5AF
100
AcDbEntity
  8
止水栓
  6
CONTINUOUS
 62
     6
100
AcDbVertex
100
AcDb2dVertex
 10
419.399211
 20
1019.038493
 30
0.0
  0
VERTEX
  5
5B0
100
AcDbEntity
  8
止水栓
  6
CONTINUOUS
 62
     6
100
AcDbVertex
100
AcDb2dVertex
 10
419.599407
 20
1018.594157
 30
0.0
  0
VERTEX
  5
5B1
100
AcDbEntity
  8
止水栓
  6
CONTINUOUS
 62
     6
100
AcDbVertex
100
AcDb2dVertex
 10
419.833782
 20
1018.171794
 30
0.0
  0
VERTEX
  5
5B2
100
AcDbEntity
  8
止水栓
  6
CONTINUOUS
 62
     6
100
AcDbVertex
100
AcDb2dVertex
 10
420.099895
 20
1017.773845
 30
0.0
  0
VERTEX
  5
5B3
100
AcDbEntity
  8
止水栓
  6
CONTINUOUS
 62
     6
100
AcDbVertex
100
AcDb2dVertex
 10
420.395305
 20
1017.405192
 30
0.0
  0
VERTEX
  5
5B4
100
AcDbEntity
  8
止水栓
  6
CONTINUOUS
 62
     6
100
AcDbVertex
100
AcDb2dVertex
 10
420.715129
 20
1017.065837
 30
0.0
  0
VERTEX
  5
5B5
100
AcDbEntity
  8
止水栓
  6
CONTINUOUS
 62
     6
100
AcDbVertex
100
AcDb2dVertex
 10
421.061809
 20
1016.760661
 30
0.0
  0
VERTEX
  5
5B6
100
AcDbEntity
  8
止水栓
  6
CONTINUOUS
 62
     6
100
AcDbVertex
100
AcDb2dVertex
 10
421.430461
 20
1016.492107
 30
0.0
  0
VERTEX
  5
5B7
100
AcDbEntity
  8
止水栓
  6
CONTINUOUS
 62
     6
100
AcDbVertex
100
AcDb2dVertex
 10
421.816203
 20
1016.260173
 30
0.0
  0
VERTEX
  5
5B8
100
AcDbEntity
  8
止水栓
  6
CONTINUOUS
 62
     6
100
AcDbVertex
100
AcDb2dVertex
 10
422.219035
 20
1016.069743
 30
0.0
  0
VERTEX
  5
5B9
100
AcDbEntity
  8
止水栓
  6
CONTINUOUS
 62
     6
100
AcDbVertex
100
AcDb2dVertex
 10
422.636516
 20
1015.918376
 30
0.0
  0
VERTEX
  5
5BA
100
AcDbEntity
  8
止水栓
  6
CONTINUOUS
 62
     6
100
AcDbVertex
100
AcDb2dVertex
 10
423.061321
 20
1015.810954
 30
0.0
  0
VERTEX
  5
5BB
100
AcDbEntity
  8
止水栓
  6
CONTINUOUS
 62
     6
100
AcDbVertex
100
AcDb2dVertex
 10
423.49345
 20
1015.745036
 30
0.0
  0
VERTEX
  5
5BC
100
AcDbEntity
  8
止水栓
  6
CONTINUOUS
 62
     6
100
AcDbVertex
100
AcDb2dVertex
 10
423.930461
 20
1015.723064
 30
0.0
  0
SEQEND
  5
5BD
100
AcDbEntity
  8
止水栓
  6
CONTINUOUS
 62
     6
  0
POLYLINE
  5
5BE
100
AcDbEntity
  8
止水栓
  6
CONTINUOUS
 62
     6
100
AcDb2dPolyline
 66
     1
 10
0.0
 20
0.0
 30
0.0
 70
   128
  0
VERTEX
  5
5BF
100
AcDbEntity
  8
止水栓
  6
CONTINUOUS
 62
     6
100
AcDbVertex
100
AcDb2dVertex
 10
429.06718
 20
1011.240642
 30
0.0
  0
VERTEX
  5
5C0
100
AcDbEntity
  8
止水栓
  6
CONTINUOUS
 62
     6
100
AcDbVertex
100
AcDb2dVertex
 10
429.047649
 20
1011.287028
 30
0.0
  0
VERTEX
  5
5C1
100
AcDbEntity
  8
止水栓
  6
CONTINUOUS
 62
     6
100
AcDbVertex
100
AcDb2dVertex
 10
429.028118
 20
1011.335857
 30
0.0
  0
VERTEX
  5
5C2
100
AcDbEntity
  8
止水栓
  6
CONTINUOUS
 62
     6
100
AcDbVertex
100
AcDb2dVertex
 10
429.006145
 20
1011.382243
 30
0.0
  0
VERTEX
  5
5C3
100
AcDbEntity
  8
止水栓
  6
CONTINUOUS
 62
     6
100
AcDbVertex
100
AcDb2dVertex
 10
428.869426
 20
1011.631267
 30
0.0
  0
VERTEX
  5
5C4
100
AcDbEntity
  8
止水栓
  6
CONTINUOUS
 62
     6
100
AcDbVertex
100
AcDb2dVertex
 10
428.693645
 20
1011.872966
 30
0.0
  0
VERTEX
  5
5C5
100
AcDbEntity
  8
止水栓
  6
CONTINUOUS
 62
     6
100
AcDbVertex
100
AcDb2dVertex
 10
428.483684
 20
1012.104899
 30
0.0
  0
VERTEX
  5
5C6
100
AcDbEntity
  8
止水栓
  6
CONTINUOUS
 62
     6
100
AcDbVertex
100
AcDb2dVertex
 10
428.239543
 20
1012.327067
 30
0.0
  0
VERTEX
  5
5C7
100
AcDbEntity
  8
止水栓
  6
CONTINUOUS
 62
     6
100
AcDbVertex
100
AcDb2dVertex
 10
427.961223
 20
1012.534587
 30
0.0
  0
VERTEX
  5
5C8
100
AcDbEntity
  8
止水栓
  6
CONTINUOUS
 62
     6
100
AcDbVertex
100
AcDb2dVertex
 10
427.653606
 20
1012.727458
 30
0.0
  0
VERTEX
  5
5C9
100
AcDbEntity
  8
止水栓
  6
CONTINUOUS
 62
     6
100
AcDbVertex
100
AcDb2dVertex
 10
427.316692
 20
1012.903239
 30
0.0
  0
VERTEX
  5
5CA
100
AcDbEntity
  8
止水栓
  6
CONTINUOUS
 62
     6
100
AcDbVertex
100
AcDb2dVertex
 10
426.955364
 20
1013.064372
 30
0.0
  0
VERTEX
  5
5CB
100
AcDbEntity
  8
止水栓
  6
CONTINUOUS
 62
     6
100
AcDbVertex
100
AcDb2dVertex
 10
426.569621
 20
1013.203532
 30
0.0
  0
VERTEX
  5
5CC
100
AcDbEntity
  8
止水栓
  6
CONTINUOUS
 62
     6
100
AcDbVertex
100
AcDb2dVertex
 10
426.166789
 20
1013.325603
 30
0.0
  0
VERTEX
  5
5CD
100
AcDbEntity
  8
止水栓
  6
CONTINUOUS
 62
     6
100
AcDbVertex
100
AcDb2dVertex
 10
425.744426
 20
1013.4257
 30
0.0
  0
VERTEX
  5
5CE
100
AcDbEntity
  8
止水栓
  6
CONTINUOUS
 62
     6
100
AcDbVertex
100
AcDb2dVertex
 10
425.309856
 20
1013.503825
 30
0.0
  0
VERTEX
  5
5CF
100
AcDbEntity
  8
止水栓
  6
CONTINUOUS
 62
     6
100
AcDbVertex
100
AcDb2dVertex
 10
424.863078
 20
1013.559978
 30
0.0
  0
VERTEX
  5
5D0
100
AcDbEntity
  8
止水栓
  6
CONTINUOUS
 62
     6
100
AcDbVertex
100
AcDb2dVertex
 10
424.411418
 20
1013.594157
 30
0.0
  0
VERTEX
  5
5D1
100
AcDbEntity
  8
止水栓
  6
CONTINUOUS
 62
     6
100
AcDbVertex
100
AcDb2dVertex
 10
423.957317
 20
1013.606364
 30
0.0
  0
VERTEX
  5
5D2
100
AcDbEntity
  8
止水栓
  6
CONTINUOUS
 62
     6
100
AcDbVertex
100
AcDb2dVertex
 10
423.500774
 20
1013.594157
 30
0.0
  0
VERTEX
  5
5D3
100
AcDbEntity
  8
止水栓
  6
CONTINUOUS
 62
     6
100
AcDbVertex
100
AcDb2dVertex
 10
423.049114
 20
1013.559978
 30
0.0
  0
VERTEX
  5
5D4
100
AcDbEntity
  8
止水栓
  6
CONTINUOUS
 62
     6
100
AcDbVertex
100
AcDb2dVertex
 10
422.602336
 20
1013.503825
 30
0.0
  0
VERTEX
  5
5D5
100
AcDbEntity
  8
止水栓
  6
CONTINUOUS
 62
     6
100
AcDbVertex
100
AcDb2dVertex
 10
422.167766
 20
1013.4257
 30
0.0
  0
VERTEX
  5
5D6
100
AcDbEntity
  8
止水栓
  6
CONTINUOUS
 62
     6
100
AcDbVertex
100
AcDb2dVertex
 10
421.747844
 20
1013.325603
 30
0.0
  0
VERTEX
  5
5D7
100
AcDbEntity
  8
止水栓
  6
CONTINUOUS
 62
     6
100
AcDbVertex
100
AcDb2dVertex
 10
421.342571
 20
1013.203532
 30
0.0
  0
VERTEX
  5
5D8
100
AcDbEntity
  8
止水栓
  6
CONTINUOUS
 62
     6
100
AcDbVertex
100
AcDb2dVertex
 10
420.956828
 20
1013.064372
 30
0.0
  0
VERTEX
  5
5D9
100
AcDbEntity
  8
止水栓
  6
CONTINUOUS
 62
     6
100
AcDbVertex
100
AcDb2dVertex
 10
420.5955
 20
1012.905681
 30
0.0
  0
VERTEX
  5
5DA
100
AcDbEntity
  8
止水栓
  6
CONTINUOUS
 62
     6
100
AcDbVertex
100
AcDb2dVertex
 10
420.261028
 20
1012.727458
 30
0.0
  0
VERTEX
  5
5DB
100
AcDbEntity
  8
止水栓
  6
CONTINUOUS
 62
     6
100
AcDbVertex
100
AcDb2dVertex
 10
419.950969
 20
1012.534587
 30
0.0
  0
VERTEX
  5
5DC
100
AcDbEntity
  8
止水栓
  6
CONTINUOUS
 62
     6
100
AcDbVertex
100
AcDb2dVertex
 10
419.67509
 20
1012.327067
 30
0.0
  0
VERTEX
  5
5DD
100
AcDbEntity
  8
止水栓
  6
CONTINUOUS
 62
     6
100
AcDbVertex
100
AcDb2dVertex
 10
419.428508
 20
1012.107341
 30
0.0
  0
VERTEX
  5
5DE
100
AcDbEntity
  8
止水栓
  6
CONTINUOUS
 62
     6
100
AcDbVertex
100
AcDb2dVertex
 10
419.218547
 20
1011.875407
 30
0.0
  0
VERTEX
  5
5DF
100
AcDbEntity
  8
止水栓
  6
CONTINUOUS
 62
     6
100
AcDbVertex
100
AcDb2dVertex
 10
419.045207
 20
1011.631267
 30
0.0
  0
VERTEX
  5
5E0
100
AcDbEntity
  8
止水栓
  6
CONTINUOUS
 62
     6
100
AcDbVertex
100
AcDb2dVertex
 10
418.906047
 20
1011.382243
 30
0.0
  0
VERTEX
  5
5E1
100
AcDbEntity
  8
止水栓
  6
CONTINUOUS
 62
     6
100
AcDbVertex
100
AcDb2dVertex
 10
418.808391
 20
1011.128337
 30
0.0
  0
VERTEX
  5
5E2
100
AcDbEntity
  8
止水栓
  6
CONTINUOUS
 62
     6
100
AcDbVertex
100
AcDb2dVertex
 10
418.747356
 20
1010.867107
 30
0.0
  0
VERTEX
  5
5E3
100
AcDbEntity
  8
止水栓
  6
CONTINUOUS
 62
     6
100
AcDbVertex
100
AcDb2dVertex
 10
418.727825
 20
1010.605876
 30
0.0
  0
VERTEX
  5
5E4
100
AcDbEntity
  8
止水栓
  6
CONTINUOUS
 62
     6
100
AcDbVertex
100
AcDb2dVertex
 10
418.749797
 20
1010.344646
 30
0.0
  0
VERTEX
  5
5E5
100
AcDbEntity
  8
止水栓
  6
CONTINUOUS
 62
     6
100
AcDbVertex
100
AcDb2dVertex
 10
418.808391
 20
1010.085857
 30
0.0
  0
VERTEX
  5
5E6
100
AcDbEntity
  8
止水栓
  6
CONTINUOUS
 62
     6
100
AcDbVertex
100
AcDb2dVertex
 10
418.906047
 20
1009.829509
 30
0.0
  0
VERTEX
  5
5E7
100
AcDbEntity
  8
止水栓
  6
CONTINUOUS
 62
     6
100
AcDbVertex
100
AcDb2dVertex
 10
419.042766
 20
1009.580485
 30
0.0
  0
VERTEX
  5
5E8
100
AcDbEntity
  8
止水栓
  6
CONTINUOUS
 62
     6
100
AcDbVertex
100
AcDb2dVertex
 10
419.218547
 20
1009.338786
 30
0.0
  0
VERTEX
  5
5E9
100
AcDbEntity
  8
止水栓
  6
CONTINUOUS
 62
     6
100
AcDbVertex
100
AcDb2dVertex
 10
419.428508
 20
1009.106853
 30
0.0
  0
VERTEX
  5
5EA
100
AcDbEntity
  8
止水栓
  6
CONTINUOUS
 62
     6
100
AcDbVertex
100
AcDb2dVertex
 10
419.67509
 20
1008.887126
 30
0.0
  0
VERTEX
  5
5EB
100
AcDbEntity
  8
止水栓
  6
CONTINUOUS
 62
     6
100
AcDbVertex
100
AcDb2dVertex
 10
419.95341
 20
1008.677165
 30
0.0
  0
VERTEX
  5
5EC
100
AcDbEntity
  8
止水栓
  6
CONTINUOUS
 62
     6
100
AcDbVertex
100
AcDb2dVertex
 10
420.261028
 20
1008.484294
 30
0.0
  0
VERTEX
  5
5ED
100
AcDbEntity
  8
止水栓
  6
CONTINUOUS
 62
     6
100
AcDbVertex
100
AcDb2dVertex
 10
420.5955
 20
1008.308513
 30
0.0
  0
VERTEX
  5
5EE
100
AcDbEntity
  8
止水栓
  6
CONTINUOUS
 62
     6
100
AcDbVertex
100
AcDb2dVertex
 10
420.956828
 20
1008.149821
 30
0.0
  0
VERTEX
  5
5EF
100
AcDbEntity
  8
止水栓
  6
CONTINUOUS
 62
     6
100
AcDbVertex
100
AcDb2dVertex
 10
421.342571
 20
1008.00822
 30
0.0
  0
VERTEX
  5
5F0
100
AcDbEntity
  8
止水栓
  6
CONTINUOUS
 62
     6
100
AcDbVertex
100
AcDb2dVertex
 10
421.747844
 20
1007.886149
 30
0.0
  0
VERTEX
  5
5F1
100
AcDbEntity
  8
止水栓
  6
CONTINUOUS
 62
     6
100
AcDbVertex
100
AcDb2dVertex
 10
422.167766
 20
1007.788493
 30
0.0
  0
VERTEX
  5
5F2
100
AcDbEntity
  8
止水栓
  6
CONTINUOUS
 62
     6
100
AcDbVertex
100
AcDb2dVertex
 10
422.602336
 20
1007.707927
 30
0.0
  0
VERTEX
  5
5F3
100
AcDbEntity
  8
止水栓
  6
CONTINUOUS
 62
     6
100
AcDbVertex
100
AcDb2dVertex
 10
423.049114
 20
1007.651774
 30
0.0
  0
VERTEX
  5
5F4
100
AcDbEntity
  8
止水栓
  6
CONTINUOUS
 62
     6
100
AcDbVertex
100
AcDb2dVertex
 10
423.500774
 20
1007.617595
 30
0.0
  0
VERTEX
  5
5F5
100
AcDbEntity
  8
止水栓
  6
CONTINUOUS
 62
     6
100
AcDbVertex
100
AcDb2dVertex
 10
423.954875
 20
1007.605388
 30
0.0
  0
SEQEND
  5
5F6
100
AcDbEntity
  8
止水栓
  6
CONTINUOUS
 62
     6
  0
POLYLINE
  5
5F7
100
AcDbEntity
  8
止水栓
  6
CONTINUOUS
 62
     6
100
AcDb2dPolyline
 66
     1
 10
0.0
 20
0.0
 30
0.0
 70
   128
  0
VERTEX
  5
5F8
100
AcDbEntity
  8
止水栓
  6
CONTINUOUS
 62
     6
100
AcDbVertex
100
AcDb2dVertex
 10
423.957317
 20
1007.605388
 30
0.0
  0
VERTEX
  5
5F9
100
AcDbEntity
  8
止水栓
  6
CONTINUOUS
 62
     6
100
AcDbVertex
100
AcDb2dVertex
 10
424.411418
 20
1007.617595
 30
0.0
  0
VERTEX
  5
5FA
100
AcDbEntity
  8
止水栓
  6
CONTINUOUS
 62
     6
100
AcDbVertex
100
AcDb2dVertex
 10
424.863078
 20
1007.651774
 30
0.0
  0
VERTEX
  5
5FB
100
AcDbEntity
  8
止水栓
  6
CONTINUOUS
 62
     6
100
AcDbVertex
100
AcDb2dVertex
 10
425.309856
 20
1007.707927
 30
0.0
  0
VERTEX
  5
5FC
100
AcDbEntity
  8
止水栓
  6
CONTINUOUS
 62
     6
100
AcDbVertex
100
AcDb2dVertex
 10
425.744426
 20
1007.788493
 30
0.0
  0
VERTEX
  5
5FD
100
AcDbEntity
  8
止水栓
  6
CONTINUOUS
 62
     6
100
AcDbVertex
100
AcDb2dVertex
 10
426.166789
 20
1007.888591
 30
0.0
  0
VERTEX
  5
5FE
100
AcDbEntity
  8
止水栓
  6
CONTINUOUS
 62
     6
100
AcDbVertex
100
AcDb2dVertex
 10
426.569621
 20
1008.00822
 30
0.0
  0
VERTEX
  5
5FF
100
AcDbEntity
  8
止水栓
  6
CONTINUOUS
 62
     6
100
AcDbVertex
100
AcDb2dVertex
 10
426.955364
 20
1008.149821
 30
0.0
  0
VERTEX
  5
600
100
AcDbEntity
  8
止水栓
  6
CONTINUOUS
 62
     6
100
AcDbVertex
100
AcDb2dVertex
 10
427.316692
 20
1008.308513
 30
0.0
  0
VERTEX
  5
601
100
AcDbEntity
  8
止水栓
  6
CONTINUOUS
 62
     6
100
AcDbVertex
100
AcDb2dVertex
 10
427.651164
 20
1008.484294
 30
0.0
  0
VERTEX
  5
602
100
AcDbEntity
  8
止水栓
  6
CONTINUOUS
 62
     6
100
AcDbVertex
100
AcDb2dVertex
 10
427.961223
 20
1008.677165
 30
0.0
  0
VERTEX
  5
603
100
AcDbEntity
  8
止水栓
  6
CONTINUOUS
 62
     6
100
AcDbVertex
100
AcDb2dVertex
 10
428.237102
 20
1008.887126
 30
0.0
  0
VERTEX
  5
604
100
AcDbEntity
  8
止水栓
  6
CONTINUOUS
 62
     6
100
AcDbVertex
100
AcDb2dVertex
 10
428.483684
 20
1009.106853
 30
0.0
  0
VERTEX
  5
605
100
AcDbEntity
  8
止水栓
  6
CONTINUOUS
 62
     6
100
AcDbVertex
100
AcDb2dVertex
 10
428.693645
 20
1009.338786
 30
0.0
  0
VERTEX
  5
606
100
AcDbEntity
  8
止水栓
  6
CONTINUOUS
 62
     6
100
AcDbVertex
100
AcDb2dVertex
 10
428.869426
 20
1009.580485
 30
0.0
  0
VERTEX
  5
607
100
AcDbEntity
  8
止水栓
  6
CONTINUOUS
 62
     6
100
AcDbVertex
100
AcDb2dVertex
 10
429.006145
 20
1009.829509
 30
0.0
  0
VERTEX
  5
608
100
AcDbEntity
  8
止水栓
  6
CONTINUOUS
 62
     6
100
AcDbVertex
100
AcDb2dVertex
 10
429.103801
 20
1010.085857
 30
0.0
  0
VERTEX
  5
609
100
AcDbEntity
  8
止水栓
  6
CONTINUOUS
 62
     6
100
AcDbVertex
100
AcDb2dVertex
 10
429.164836
 20
1010.344646
 30
0.0
  0
VERTEX
  5
60A
100
AcDbEntity
  8
止水栓
  6
CONTINUOUS
 62
     6
100
AcDbVertex
100
AcDb2dVertex
 10
429.184368
 20
1010.605876
 30
0.0
  0
VERTEX
  5
60B
100
AcDbEntity
  8
止水栓
  6
CONTINUOUS
 62
     6
100
AcDbVertex
100
AcDb2dVertex
 10
429.169719
 20
1010.818278
 30
0.0
  0
VERTEX
  5
60C
100
AcDbEntity
  8
止水栓
  6
CONTINUOUS
 62
     6
100
AcDbVertex
100
AcDb2dVertex
 10
429.130657
 20
1011.030681
 30
0.0
  0
VERTEX
  5
60D
100
AcDbEntity
  8
止水栓
  6
CONTINUOUS
 62
     6
100
AcDbVertex
100
AcDb2dVertex
 10
429.06718
 20
1011.240642
 30
0.0
  0
SEQEND
  5
60E
100
AcDbEntity
  8
止水栓
  6
CONTINUOUS
 62
     6
  0
LINE
  5
60F
100
AcDbEntity
  8
止水栓
  6
CONTINUOUS
 62
     6
100
AcDbLine
 10
456.940715
 20
1041.460368
 30
0.0
 11
435.939739
 21
1041.460368
 31
0.0
  0
LINE
  5
610
100
AcDbEntity
  8
止水栓
  6
CONTINUOUS
 62
     6
100
AcDbLine
 10
418.437297
 20
1009.180553
 30
0.0
 11
418.466594
 21
1033.760173
 31
0.0
  0
ARC
  5
611
100
AcDbEntity
  8
止水栓
  6
CONTINUOUS
 62
     6
100
AcDbCircle
 10
423.730266
 20
1016.460368
 30
0.0
 40
9.000411
100
AcDbArc
 50
233.980225
 51
292.924545
  0
LINE
  5
612
100
AcDbEntity
  8
止水栓
  6
CONTINUOUS
 62
     6
100
AcDbLine
 10
366.441203
 20
1031.960857
 30
0.0
 11
418.464153
 21
1031.960857
 31
0.0
  0
ARC
  5
613
100
AcDbEntity
  8
止水栓
  6
CONTINUOUS
 62
     6
100
AcDbCircle
 10
341.14091
 20
1011.818216
 30
0.0
 40
25.298605
100
AcDbArc
 50
336.794876
 51
0.0
  0
LINE
  5
614
100
AcDbEntity
  8
止水栓
  6
CONTINUOUS
 62
     6
100
AcDbLine
 10
366.441203
 20
1031.100443
 30
0.0
 11
366.441203
 21
1011.818216
 31
0.0
  0
LINE
  5
615
100
AcDbEntity
  8
止水栓
  6
CONTINUOUS
 62
     6
100
AcDbLine
 10
461.940715
 20
1033.45988
 30
0.0
 11
461.452434
 21
1033.45988
 31
0.0
  0
LINE
  5
616
100
AcDbEntity
  8
止水栓
  6
CONTINUOUS
 62
     6
100
AcDbLine
 10
477.848918
 20
1016.709392
 30
0.0
 11
474.841106
 21
1016.709392
 31
0.0
  0
LINE
  5
617
100
AcDbEntity
  8
止水栓
  6
CONTINUOUS
 62
     6
100
AcDbLine
 10
477.848918
 20
1016.709392
 30
0.0
 11
477.848918
 21
1026.211345
 31
0.0
  0
LINE
  5
618
100
AcDbEntity
  8
止水栓
  6
CONTINUOUS
 62
     6
100
AcDbLine
 10
474.841106
 20
1026.211345
 30
0.0
 11
477.848918
 21
1026.211345
 31
0.0
  0
ARC
  5
619
100
AcDbEntity
  8
止水栓
  6
CONTINUOUS
 62
     6
100
AcDbCircle
 10
465.715129
 20
1030.210368
 30
0.0
 40
5.49999
100
AcDbArc
 50
33.010666
 51
133.338501
  0
LINE
  5
61A
100
AcDbEntity
  8
止水栓
  6
CONTINUOUS
 62
     6
100
AcDbLine
 10
461.940715
 20
1008.709819
 30
0.0
 11
461.940715
 21
1034.210918
 31
0.0
  0
ARC
  5
61B
100
AcDbEntity
  8
止水栓
  6
CONTINUOUS
 62
     6
100
AcDbCircle
 10
465.715129
 20
1012.710368
 30
0.0
 40
5.500042
100
AcDbArc
 50
226.661499
 51
326.983597
  0
LINE
  5
61C
100
AcDbEntity
  8
止水栓
  6
CONTINUOUS
 62
     6
100
AcDbLine
 10
470.326946
 20
1009.713542
 30
0.0
 11
474.841106
 21
1016.16038
 31
0.0
  0
LINE
  5
61D
100
AcDbEntity
  8
止水栓
  6
CONTINUOUS
 62
     6
100
AcDbLine
 10
474.841106
 20
1016.16038
 30
0.0
 11
474.841106
 21
1026.759593
 31
0.0
  0
LINE
  5
61E
100
AcDbEntity
  8
止水栓
  6
CONTINUOUS
 62
     6
100
AcDbLine
 10
474.841106
 20
1026.759593
 30
0.0
 11
470.326946
 21
1033.206431
 31
0.0
  0
LINE
  5
61F
100
AcDbEntity
  8
止水栓
  6
CONTINUOUS
 62
     6
100
AcDbLine
 10
470.326946
 20
1009.713542
 30
0.0
 11
470.326946
 21
1033.206431
 31
0.0
  0
POLYLINE
  5
620
100
AcDbEntity
  8
止水栓
  6
CONTINUOUS
 62
     6
100
AcDb2dPolyline
 66
     1
 10
0.0
 20
0.0
 30
0.0
 70
   128
  0
VERTEX
  5
621
100
AcDbEntity
  8
止水栓
  6
CONTINUOUS
 62
     6
100
AcDbVertex
100
AcDb2dVertex
 10
469.20634
 20
1032.75645
 30
0.0
  0
VERTEX
  5
622
100
AcDbEntity
  8
止水栓
  6
CONTINUOUS
 62
     6
100
AcDbVertex
100
AcDb2dVertex
 10
469.191692
 20
1033.014018
 30
0.0
  0
VERTEX
  5
623
100
AcDbEntity
  8
止水栓
  6
CONTINUOUS
 62
     6
100
AcDbVertex
100
AcDb2dVertex
 10
469.152629
 20
1033.269755
 30
0.0
  0
VERTEX
  5
624
100
AcDbEntity
  8
止水栓
  6
CONTINUOUS
 62
     6
100
AcDbVertex
100
AcDb2dVertex
 10
469.086711
 20
1033.52122
 30
0.0
  0
VERTEX
  5
625
100
AcDbEntity
  8
止水栓
  6
CONTINUOUS
 62
     6
100
AcDbVertex
100
AcDb2dVertex
 10
468.993938
 20
1033.767039
 30
0.0
  0
VERTEX
  5
626
100
AcDbEntity
  8
止水栓
  6
CONTINUOUS
 62
     6
100
AcDbVertex
100
AcDb2dVertex
 10
468.879192
 20
1034.005382
 30
0.0
  0
VERTEX
  5
627
100
AcDbEntity
  8
止水栓
  6
CONTINUOUS
 62
     6
100
AcDbVertex
100
AcDb2dVertex
 10
468.740032
 20
1034.233501
 30
0.0
  0
VERTEX
  5
628
100
AcDbEntity
  8
止水栓
  6
CONTINUOUS
 62
     6
100
AcDbVertex
100
AcDb2dVertex
 10
468.576457
 20
1034.450938
 30
0.0
  0
VERTEX
  5
629
100
AcDbEntity
  8
止水栓
  6
CONTINUOUS
 62
     6
100
AcDbVertex
100
AcDb2dVertex
 10
468.39091
 20
1034.655406
 30
0.0
  0
VERTEX
  5
62A
100
AcDbEntity
  8
止水栓
  6
CONTINUOUS
 62
     6
100
AcDbVertex
100
AcDb2dVertex
 10
468.183391
 20
1034.845531
 30
0.0
  0
VERTEX
  5
62B
100
AcDbEntity
  8
止水栓
  6
CONTINUOUS
 62
     6
100
AcDbVertex
100
AcDb2dVertex
 10
467.958782
 20
1035.019633
 30
0.0
  0
VERTEX
  5
62C
100
AcDbEntity
  8
止水栓
  6
CONTINUOUS
 62
     6
100
AcDbVertex
100
AcDb2dVertex
 10
467.717082
 20
1035.176799
 30
0.0
  0
VERTEX
  5
62D
100
AcDbEntity
  8
止水栓
  6
CONTINUOUS
 62
     6
100
AcDbVertex
100
AcDb2dVertex
 10
467.460735
 20
1035.314738
 30
0.0
  0
VERTEX
  5
62E
100
AcDbEntity
  8
止水栓
  6
CONTINUOUS
 62
     6
100
AcDbVertex
100
AcDb2dVertex
 10
467.189739
 20
1035.433604
 30
0.0
  0
VERTEX
  5
62F
100
AcDbEntity
  8
止水栓
  6
CONTINUOUS
 62
     6
100
AcDbVertex
100
AcDb2dVertex
 10
466.908977
 20
1035.532176
 30
0.0
  0
VERTEX
  5
630
100
AcDbEntity
  8
止水栓
  6
CONTINUOUS
 62
     6
100
AcDbVertex
100
AcDb2dVertex
 10
466.61845
 20
1035.609691
 30
0.0
  0
VERTEX
  5
631
100
AcDbEntity
  8
止水栓
  6
CONTINUOUS
 62
     6
100
AcDbVertex
100
AcDb2dVertex
 10
466.320598
 20
1035.665385
 30
0.0
  0
VERTEX
  5
632
100
AcDbEntity
  8
止水栓
  6
CONTINUOUS
 62
     6
100
AcDbVertex
100
AcDb2dVertex
 10
466.017864
 20
1035.698802
 30
0.0
  0
VERTEX
  5
633
100
AcDbEntity
  8
止水栓
  6
CONTINUOUS
 62
     6
100
AcDbVertex
100
AcDb2dVertex
 10
465.715129
 20
1035.710551
 30
0.0
  0
VERTEX
  5
634
100
AcDbEntity
  8
止水栓
  6
CONTINUOUS
 62
     6
100
AcDbVertex
100
AcDb2dVertex
 10
465.409953
 20
1035.69926
 30
0.0
  0
VERTEX
  5
635
100
AcDbEntity
  8
止水栓
  6
CONTINUOUS
 62
     6
100
AcDbVertex
100
AcDb2dVertex
 10
465.10966
 20
1035.66569
 30
0.0
  0
VERTEX
  5
636
100
AcDbEntity
  8
止水栓
  6
CONTINUOUS
 62
     6
100
AcDbVertex
100
AcDb2dVertex
 10
464.811809
 20
1035.609691
 30
0.0
  0
VERTEX
  5
637
100
AcDbEntity
  8
止水栓
  6
CONTINUOUS
 62
     6
100
AcDbVertex
100
AcDb2dVertex
 10
464.521282
 20
1035.532176
 30
0.0
  0
VERTEX
  5
638
100
AcDbEntity
  8
止水栓
  6
CONTINUOUS
 62
     6
100
AcDbVertex
100
AcDb2dVertex
 10
464.24052
 20
1035.433299
 30
0.0
  0
VERTEX
  5
639
100
AcDbEntity
  8
止水栓
  6
CONTINUOUS
 62
     6
100
AcDbVertex
100
AcDb2dVertex
 10
463.969524
 20
1035.314738
 30
0.0
  0
VERTEX
  5
63A
100
AcDbEntity
  8
止水栓
  6
CONTINUOUS
 62
     6
100
AcDbVertex
100
AcDb2dVertex
 10
463.713176
 20
1035.176189
 30
0.0
  0
VERTEX
  5
63B
100
AcDbEntity
  8
止水栓
  6
CONTINUOUS
 62
     6
100
AcDbVertex
100
AcDb2dVertex
 10
463.469035
 20
1035.019176
 30
0.0
  0
VERTEX
  5
63C
100
AcDbEntity
  8
止水栓
  6
CONTINUOUS
 62
     6
100
AcDbVertex
100
AcDb2dVertex
 10
463.246868
 20
1034.845531
 30
0.0
  0
VERTEX
  5
63D
100
AcDbEntity
  8
止水栓
  6
CONTINUOUS
 62
     6
100
AcDbVertex
100
AcDb2dVertex
 10
463.041789
 20
1034.655559
 30
0.0
  0
VERTEX
  5
63E
100
AcDbEntity
  8
止水栓
  6
CONTINUOUS
 62
     6
100
AcDbVertex
100
AcDb2dVertex
 10
462.856243
 20
1034.451243
 30
0.0
  0
VERTEX
  5
63F
100
AcDbEntity
  8
止水栓
  6
CONTINUOUS
 62
     6
100
AcDbVertex
100
AcDb2dVertex
 10
462.690227
 20
1034.233501
 30
0.0
  0
VERTEX
  5
640
100
AcDbEntity
  8
止水栓
  6
CONTINUOUS
 62
     6
100
AcDbVertex
100
AcDb2dVertex
 10
462.548625
 20
1034.004924
 30
0.0
  0
VERTEX
  5
641
100
AcDbEntity
  8
止水栓
  6
CONTINUOUS
 62
     6
100
AcDbVertex
100
AcDb2dVertex
 10
462.433879
 20
1033.766887
 30
0.0
  0
VERTEX
  5
642
100
AcDbEntity
  8
止水栓
  6
CONTINUOUS
 62
     6
100
AcDbVertex
100
AcDb2dVertex
 10
462.343547
 20
1033.52122
 30
0.0
  0
VERTEX
  5
643
100
AcDbEntity
  8
止水栓
  6
CONTINUOUS
 62
     6
100
AcDbVertex
100
AcDb2dVertex
 10
462.277629
 20
1033.269603
 30
0.0
  0
VERTEX
  5
644
100
AcDbEntity
  8
止水栓
  6
CONTINUOUS
 62
     6
100
AcDbVertex
100
AcDb2dVertex
 10
462.238567
 20
1033.014323
 30
0.0
  0
VERTEX
  5
645
100
AcDbEntity
  8
止水栓
  6
CONTINUOUS
 62
     6
100
AcDbVertex
100
AcDb2dVertex
 10
462.223918
 20
1032.75645
 30
0.0
  0
VERTEX
  5
646
100
AcDbEntity
  8
止水栓
  6
CONTINUOUS
 62
     6
100
AcDbVertex
100
AcDb2dVertex
 10
462.238567
 20
1032.499034
 30
0.0
  0
VERTEX
  5
647
100
AcDbEntity
  8
止水栓
  6
CONTINUOUS
 62
     6
100
AcDbVertex
100
AcDb2dVertex
 10
462.277629
 20
1032.243754
 30
0.0
  0
VERTEX
  5
648
100
AcDbEntity
  8
止水栓
  6
CONTINUOUS
 62
     6
100
AcDbVertex
100
AcDb2dVertex
 10
462.343547
 20
1031.991984
 30
0.0
  0
VERTEX
  5
649
100
AcDbEntity
  8
止水栓
  6
CONTINUOUS
 62
     6
100
AcDbVertex
100
AcDb2dVertex
 10
462.436321
 20
1031.746318
 30
0.0
  0
VERTEX
  5
64A
100
AcDbEntity
  8
止水栓
  6
CONTINUOUS
 62
     6
100
AcDbVertex
100
AcDb2dVertex
 10
462.551067
 20
1031.508281
 30
0.0
  0
VERTEX
  5
64B
100
AcDbEntity
  8
止水栓
  6
CONTINUOUS
 62
     6
100
AcDbVertex
100
AcDb2dVertex
 10
462.690227
 20
1031.279094
 30
0.0
  0
VERTEX
  5
64C
100
AcDbEntity
  8
止水栓
  6
CONTINUOUS
 62
     6
100
AcDbVertex
100
AcDb2dVertex
 10
462.853801
 20
1031.061656
 30
0.0
  0
VERTEX
  5
64D
100
AcDbEntity
  8
止水栓
  6
CONTINUOUS
 62
     6
100
AcDbVertex
100
AcDb2dVertex
 10
463.039348
 20
1030.857036
 30
0.0
  0
VERTEX
  5
64E
100
AcDbEntity
  8
止水栓
  6
CONTINUOUS
 62
     6
100
AcDbVertex
100
AcDb2dVertex
 10
463.246868
 20
1030.667522
 30
0.0
  0
VERTEX
  5
64F
100
AcDbEntity
  8
止水栓
  6
CONTINUOUS
 62
     6
100
AcDbVertex
100
AcDb2dVertex
 10
463.471477
 20
1030.493419
 30
0.0
  0
VERTEX
  5
650
100
AcDbEntity
  8
止水栓
  6
CONTINUOUS
 62
     6
100
AcDbVertex
100
AcDb2dVertex
 10
463.713176
 20
1030.336711
 30
0.0
  0
VERTEX
  5
651
100
AcDbEntity
  8
止水栓
  6
CONTINUOUS
 62
     6
100
AcDbVertex
100
AcDb2dVertex
 10
463.969524
 20
1030.198009
 30
0.0
  0
VERTEX
  5
652
100
AcDbEntity
  8
止水栓
  6
CONTINUOUS
 62
     6
100
AcDbVertex
100
AcDb2dVertex
 10
464.24052
 20
1030.07899
 30
0.0
  0
VERTEX
  5
653
100
AcDbEntity
  8
止水栓
  6
CONTINUOUS
 62
     6
100
AcDbVertex
100
AcDb2dVertex
 10
464.521282
 20
1029.980571
 30
0.0
  0
VERTEX
  5
654
100
AcDbEntity
  8
止水栓
  6
CONTINUOUS
 62
     6
100
AcDbVertex
100
AcDb2dVertex
 10
464.811809
 20
1029.902904
 30
0.0
  0
VERTEX
  5
655
100
AcDbEntity
  8
止水栓
  6
CONTINUOUS
 62
     6
100
AcDbVertex
100
AcDb2dVertex
 10
465.10966
 20
1029.847209
 30
0.0
  0
VERTEX
  5
656
100
AcDbEntity
  8
止水栓
  6
CONTINUOUS
 62
     6
100
AcDbVertex
100
AcDb2dVertex
 10
465.412395
 20
1029.81364
 30
0.0
  0
VERTEX
  5
657
100
AcDbEntity
  8
止水栓
  6
CONTINUOUS
 62
     6
100
AcDbVertex
100
AcDb2dVertex
 10
465.715129
 20
1029.802196
 30
0.0
  0
VERTEX
  5
658
100
AcDbEntity
  8
止水栓
  6
CONTINUOUS
 62
     6
100
AcDbVertex
100
AcDb2dVertex
 10
466.020305
 20
1029.813487
 30
0.0
  0
VERTEX
  5
659
100
AcDbEntity
  8
止水栓
  6
CONTINUOUS
 62
     6
100
AcDbVertex
100
AcDb2dVertex
 10
466.320598
 20
1029.847056
 30
0.0
  0
VERTEX
  5
65A
100
AcDbEntity
  8
止水栓
  6
CONTINUOUS
 62
     6
100
AcDbVertex
100
AcDb2dVertex
 10
466.61845
 20
1029.902904
 30
0.0
  0
VERTEX
  5
65B
100
AcDbEntity
  8
止水栓
  6
CONTINUOUS
 62
     6
100
AcDbVertex
100
AcDb2dVertex
 10
466.908977
 20
1029.980418
 30
0.0
  0
VERTEX
  5
65C
100
AcDbEntity
  8
止水栓
  6
CONTINUOUS
 62
     6
100
AcDbVertex
100
AcDb2dVertex
 10
467.189739
 20
1030.079143
 30
0.0
  0
SEQEND
  5
65D
100
AcDbEntity
  8
止水栓
  6
CONTINUOUS
 62
     6
  0
POLYLINE
  5
65E
100
AcDbEntity
  8
止水栓
  6
CONTINUOUS
 62
     6
100
AcDb2dPolyline
 66
     1
 10
0.0
 20
0.0
 30
0.0
 70
   128
  0
VERTEX
  5
65F
100
AcDbEntity
  8
止水栓
  6
CONTINUOUS
 62
     6
100
AcDbVertex
100
AcDb2dVertex
 10
467.189739
 20
1030.079143
 30
0.0
  0
VERTEX
  5
660
100
AcDbEntity
  8
止水栓
  6
CONTINUOUS
 62
     6
100
AcDbVertex
100
AcDb2dVertex
 10
467.460735
 20
1030.198009
 30
0.0
  0
VERTEX
  5
661
100
AcDbEntity
  8
止水栓
  6
CONTINUOUS
 62
     6
100
AcDbVertex
100
AcDb2dVertex
 10
467.717082
 20
1030.336558
 30
0.0
  0
VERTEX
  5
662
100
AcDbEntity
  8
止水栓
  6
CONTINUOUS
 62
     6
100
AcDbVertex
100
AcDb2dVertex
 10
467.961223
 20
1030.493419
 30
0.0
  0
VERTEX
  5
663
100
AcDbEntity
  8
止水栓
  6
CONTINUOUS
 62
     6
100
AcDbVertex
100
AcDb2dVertex
 10
468.183391
 20
1030.667522
 30
0.0
  0
VERTEX
  5
664
100
AcDbEntity
  8
止水栓
  6
CONTINUOUS
 62
     6
100
AcDbVertex
100
AcDb2dVertex
 10
468.388469
 20
1030.857646
 30
0.0
  0
VERTEX
  5
665
100
AcDbEntity
  8
止水栓
  6
CONTINUOUS
 62
     6
100
AcDbVertex
100
AcDb2dVertex
 10
468.574016
 20
1031.062266
 30
0.0
  0
VERTEX
  5
666
100
AcDbEntity
  8
止水栓
  6
CONTINUOUS
 62
     6
100
AcDbVertex
100
AcDb2dVertex
 10
468.740032
 20
1031.279094
 30
0.0
  0
VERTEX
  5
667
100
AcDbEntity
  8
止水栓
  6
CONTINUOUS
 62
     6
100
AcDbVertex
100
AcDb2dVertex
 10
468.881633
 20
1031.50767
 30
0.0
  0
VERTEX
  5
668
100
AcDbEntity
  8
止水栓
  6
CONTINUOUS
 62
     6
100
AcDbVertex
100
AcDb2dVertex
 10
468.996379
 20
1031.745708
 30
0.0
  0
VERTEX
  5
669
100
AcDbEntity
  8
止水栓
  6
CONTINUOUS
 62
     6
100
AcDbVertex
100
AcDb2dVertex
 10
469.086711
 20
1031.991984
 30
0.0
  0
SEQEND
  5
66A
100
AcDbEntity
  8
止水栓
  6
CONTINUOUS
 62
     6
  0
POLYLINE
  5
66B
100
AcDbEntity
  8
止水栓
  6
CONTINUOUS
 62
     6
100
AcDb2dPolyline
 66
     1
 10
0.0
 20
0.0
 30
0.0
 70
   128
  0
VERTEX
  5
66C
100
AcDbEntity
  8
止水栓
  6
CONTINUOUS
 62
     6
100
AcDbVertex
100
AcDb2dVertex
 10
469.086711
 20
1031.991984
 30
0.0
  0
VERTEX
  5
66D
100
AcDbEntity
  8
止水栓
  6
CONTINUOUS
 62
     6
100
AcDbVertex
100
AcDb2dVertex
 10
469.152629
 20
1032.243602
 30
0.0
  0
VERTEX
  5
66E
100
AcDbEntity
  8
止水栓
  6
CONTINUOUS
 62
     6
100
AcDbVertex
100
AcDb2dVertex
 10
469.191692
 20
1032.499339
 30
0.0
  0
VERTEX
  5
66F
100
AcDbEntity
  8
止水栓
  6
CONTINUOUS
 62
     6
100
AcDbVertex
100
AcDb2dVertex
 10
469.20634
 20
1032.75706
 30
0.0
  0
SEQEND
  5
670
100
AcDbEntity
  8
止水栓
  6
CONTINUOUS
 62
     6
  0
POLYLINE
  5
671
100
AcDbEntity
  8
止水栓
  6
CONTINUOUS
 62
     6
100
AcDb2dPolyline
 66
     1
 10
0.0
 20
0.0
 30
0.0
 70
   128
  0
VERTEX
  5
672
100
AcDbEntity
  8
止水栓
  6
CONTINUOUS
 62
     6
100
AcDbVertex
100
AcDb2dVertex
 10
469.20634
 20
1021.460521
 30
0.0
  0
VERTEX
  5
673
100
AcDbEntity
  8
止水栓
  6
CONTINUOUS
 62
     6
100
AcDbVertex
100
AcDb2dVertex
 10
469.194133
 20
1021.969096
 30
0.0
  0
VERTEX
  5
674
100
AcDbEntity
  8
止水栓
  6
CONTINUOUS
 62
     6
100
AcDbVertex
100
AcDb2dVertex
 10
469.152629
 20
1022.473704
 30
0.0
  0
VERTEX
  5
675
100
AcDbEntity
  8
止水栓
  6
CONTINUOUS
 62
     6
100
AcDbVertex
100
AcDb2dVertex
 10
469.086711
 20
1022.970836
 30
0.0
  0
VERTEX
  5
676
100
AcDbEntity
  8
止水栓
  6
CONTINUOUS
 62
     6
100
AcDbVertex
100
AcDb2dVertex
 10
468.996379
 20
1023.45637
 30
0.0
  0
VERTEX
  5
677
100
AcDbEntity
  8
止水栓
  6
CONTINUOUS
 62
     6
100
AcDbVertex
100
AcDb2dVertex
 10
468.879192
 20
1023.926799
 30
0.0
  0
VERTEX
  5
678
100
AcDbEntity
  8
止水栓
  6
CONTINUOUS
 62
     6
100
AcDbVertex
100
AcDb2dVertex
 10
468.740032
 20
1024.378001
 30
0.0
  0
VERTEX
  5
679
100
AcDbEntity
  8
止水栓
  6
CONTINUOUS
 62
     6
100
AcDbVertex
100
AcDb2dVertex
 10
468.576457
 20
1024.807231
 30
0.0
  0
VERTEX
  5
67A
100
AcDbEntity
  8
止水栓
  6
CONTINUOUS
 62
     6
100
AcDbVertex
100
AcDb2dVertex
 10
468.39091
 20
1025.211131
 30
0.0
  0
VERTEX
  5
67B
100
AcDbEntity
  8
止水栓
  6
CONTINUOUS
 62
     6
100
AcDbVertex
100
AcDb2dVertex
 10
468.183391
 20
1025.586497
 30
0.0
  0
VERTEX
  5
67C
100
AcDbEntity
  8
止水栓
  6
CONTINUOUS
 62
     6
100
AcDbVertex
100
AcDb2dVertex
 10
467.958782
 20
1025.930278
 30
0.0
  0
VERTEX
  5
67D
100
AcDbEntity
  8
止水栓
  6
CONTINUOUS
 62
     6
100
AcDbVertex
100
AcDb2dVertex
 10
467.717082
 20
1026.240031
 30
0.0
  0
VERTEX
  5
67E
100
AcDbEntity
  8
止水栓
  6
CONTINUOUS
 62
     6
100
AcDbVertex
100
AcDb2dVertex
 10
467.460735
 20
1026.514079
 30
0.0
  0
VERTEX
  5
67F
100
AcDbEntity
  8
止水栓
  6
CONTINUOUS
 62
     6
100
AcDbVertex
100
AcDb2dVertex
 10
467.189739
 20
1026.749065
 30
0.0
  0
VERTEX
  5
680
100
AcDbEntity
  8
止水栓
  6
CONTINUOUS
 62
     6
100
AcDbVertex
100
AcDb2dVertex
 10
466.908977
 20
1026.944072
 30
0.0
  0
VERTEX
  5
681
100
AcDbEntity
  8
止水栓
  6
CONTINUOUS
 62
     6
100
AcDbVertex
100
AcDb2dVertex
 10
466.61845
 20
1027.096812
 30
0.0
  0
VERTEX
  5
682
100
AcDbEntity
  8
止水栓
  6
CONTINUOUS
 62
     6
100
AcDbVertex
100
AcDb2dVertex
 10
466.320598
 20
1027.206828
 30
0.0
  0
VERTEX
  5
683
100
AcDbEntity
  8
止水栓
  6
CONTINUOUS
 62
     6
100
AcDbVertex
100
AcDb2dVertex
 10
466.017864
 20
1027.273204
 30
0.0
  0
VERTEX
  5
684
100
AcDbEntity
  8
止水栓
  6
CONTINUOUS
 62
     6
100
AcDbVertex
100
AcDb2dVertex
 10
465.715129
 20
1027.295634
 30
0.0
  0
VERTEX
  5
685
100
AcDbEntity
  8
止水栓
  6
CONTINUOUS
 62
     6
100
AcDbVertex
100
AcDb2dVertex
 10
465.409953
 20
1027.273357
 30
0.0
  0
VERTEX
  5
686
100
AcDbEntity
  8
止水栓
  6
CONTINUOUS
 62
     6
100
AcDbVertex
100
AcDb2dVertex
 10
465.10966
 20
1027.206676
 30
0.0
  0
VERTEX
  5
687
100
AcDbEntity
  8
止水栓
  6
CONTINUOUS
 62
     6
100
AcDbVertex
100
AcDb2dVertex
 10
464.811809
 20
1027.096812
 30
0.0
  0
VERTEX
  5
688
100
AcDbEntity
  8
止水栓
  6
CONTINUOUS
 62
     6
100
AcDbVertex
100
AcDb2dVertex
 10
464.521282
 20
1026.943614
 30
0.0
  0
VERTEX
  5
689
100
AcDbEntity
  8
止水栓
  6
CONTINUOUS
 62
     6
100
AcDbVertex
100
AcDb2dVertex
 10
464.24052
 20
1026.748759
 30
0.0
  0
VERTEX
  5
68A
100
AcDbEntity
  8
止水栓
  6
CONTINUOUS
 62
     6
100
AcDbVertex
100
AcDb2dVertex
 10
463.969524
 20
1026.514079
 30
0.0
  0
VERTEX
  5
68B
100
AcDbEntity
  8
止水栓
  6
CONTINUOUS
 62
     6
100
AcDbVertex
100
AcDb2dVertex
 10
463.713176
 20
1026.240642
 30
0.0
  0
VERTEX
  5
68C
100
AcDbEntity
  8
止水栓
  6
CONTINUOUS
 62
     6
100
AcDbVertex
100
AcDb2dVertex
 10
463.469035
 20
1025.930736
 30
0.0
  0
VERTEX
  5
68D
100
AcDbEntity
  8
止水栓
  6
CONTINUOUS
 62
     6
100
AcDbVertex
100
AcDb2dVertex
 10
463.246868
 20
1025.586497
 30
0.0
  0
VERTEX
  5
68E
100
AcDbEntity
  8
止水栓
  6
CONTINUOUS
 62
     6
100
AcDbVertex
100
AcDb2dVertex
 10
463.041789
 20
1025.211131
 30
0.0
  0
VERTEX
  5
68F
100
AcDbEntity
  8
止水栓
  6
CONTINUOUS
 62
     6
100
AcDbVertex
100
AcDb2dVertex
 10
462.856243
 20
1024.807078
 30
0.0
  0
VERTEX
  5
690
100
AcDbEntity
  8
止水栓
  6
CONTINUOUS
 62
     6
100
AcDbVertex
100
AcDb2dVertex
 10
462.690227
 20
1024.378001
 30
0.0
  0
VERTEX
  5
691
100
AcDbEntity
  8
止水栓
  6
CONTINUOUS
 62
     6
100
AcDbVertex
100
AcDb2dVertex
 10
462.548625
 20
1023.926341
 30
0.0
  0
VERTEX
  5
692
100
AcDbEntity
  8
止水栓
  6
CONTINUOUS
 62
     6
100
AcDbVertex
100
AcDb2dVertex
 10
462.433879
 20
1023.455913
 30
0.0
  0
VERTEX
  5
693
100
AcDbEntity
  8
止水栓
  6
CONTINUOUS
 62
     6
100
AcDbVertex
100
AcDb2dVertex
 10
462.343547
 20
1022.970836
 30
0.0
  0
VERTEX
  5
694
100
AcDbEntity
  8
止水栓
  6
CONTINUOUS
 62
     6
100
AcDbVertex
100
AcDb2dVertex
 10
462.277629
 20
1022.473857
 30
0.0
  0
VERTEX
  5
695
100
AcDbEntity
  8
止水栓
  6
CONTINUOUS
 62
     6
100
AcDbVertex
100
AcDb2dVertex
 10
462.238567
 20
1021.969249
 30
0.0
  0
VERTEX
  5
696
100
AcDbEntity
  8
止水栓
  6
CONTINUOUS
 62
     6
100
AcDbVertex
100
AcDb2dVertex
 10
462.223918
 20
1021.460521
 30
0.0
  0
VERTEX
  5
697
100
AcDbEntity
  8
止水栓
  6
CONTINUOUS
 62
     6
100
AcDbVertex
100
AcDb2dVertex
 10
462.236125
 20
1020.951945
 30
0.0
  0
VERTEX
  5
698
100
AcDbEntity
  8
止水栓
  6
CONTINUOUS
 62
     6
100
AcDbVertex
100
AcDb2dVertex
 10
462.277629
 20
1020.447337
 30
0.0
  0
VERTEX
  5
699
100
AcDbEntity
  8
止水栓
  6
CONTINUOUS
 62
     6
100
AcDbVertex
100
AcDb2dVertex
 10
462.343547
 20
1019.950206
 30
0.0
  0
VERTEX
  5
69A
100
AcDbEntity
  8
止水栓
  6
CONTINUOUS
 62
     6
100
AcDbVertex
100
AcDb2dVertex
 10
462.433879
 20
1019.464671
 30
0.0
  0
VERTEX
  5
69B
100
AcDbEntity
  8
止水栓
  6
CONTINUOUS
 62
     6
100
AcDbVertex
100
AcDb2dVertex
 10
462.551067
 20
1018.994243
 30
0.0
  0
VERTEX
  5
69C
100
AcDbEntity
  8
止水栓
  6
CONTINUOUS
 62
     6
100
AcDbVertex
100
AcDb2dVertex
 10
462.690227
 20
1018.542888
 30
0.0
  0
VERTEX
  5
69D
100
AcDbEntity
  8
止水栓
  6
CONTINUOUS
 62
     6
100
AcDbVertex
100
AcDb2dVertex
 10
462.853801
 20
1018.113658
 30
0.0
  0
VERTEX
  5
69E
100
AcDbEntity
  8
止水栓
  6
CONTINUOUS
 62
     6
100
AcDbVertex
100
AcDb2dVertex
 10
463.039348
 20
1017.709758
 30
0.0
  0
VERTEX
  5
69F
100
AcDbEntity
  8
止水栓
  6
CONTINUOUS
 62
     6
100
AcDbVertex
100
AcDb2dVertex
 10
463.246868
 20
1017.334544
 30
0.0
  0
VERTEX
  5
6A0
100
AcDbEntity
  8
止水栓
  6
CONTINUOUS
 62
     6
100
AcDbVertex
100
AcDb2dVertex
 10
463.471477
 20
1016.990764
 30
0.0
  0
VERTEX
  5
6A1
100
AcDbEntity
  8
止水栓
  6
CONTINUOUS
 62
     6
100
AcDbVertex
100
AcDb2dVertex
 10
463.713176
 20
1016.68101
 30
0.0
  0
VERTEX
  5
6A2
100
AcDbEntity
  8
止水栓
  6
CONTINUOUS
 62
     6
100
AcDbVertex
100
AcDb2dVertex
 10
463.969524
 20
1016.406962
 30
0.0
  0
VERTEX
  5
6A3
100
AcDbEntity
  8
止水栓
  6
CONTINUOUS
 62
     6
100
AcDbVertex
100
AcDb2dVertex
 10
464.24052
 20
1016.171977
 30
0.0
  0
VERTEX
  5
6A4
100
AcDbEntity
  8
止水栓
  6
CONTINUOUS
 62
     6
100
AcDbVertex
100
AcDb2dVertex
 10
464.521282
 20
1015.97697
 30
0.0
  0
VERTEX
  5
6A5
100
AcDbEntity
  8
止水栓
  6
CONTINUOUS
 62
     6
100
AcDbVertex
100
AcDb2dVertex
 10
464.811809
 20
1015.824229
 30
0.0
  0
VERTEX
  5
6A6
100
AcDbEntity
  8
止水栓
  6
CONTINUOUS
 62
     6
100
AcDbVertex
100
AcDb2dVertex
 10
465.10966
 20
1015.714213
 30
0.0
  0
VERTEX
  5
6A7
100
AcDbEntity
  8
止水栓
  6
CONTINUOUS
 62
     6
100
AcDbVertex
100
AcDb2dVertex
 10
465.412395
 20
1015.647838
 30
0.0
  0
VERTEX
  5
6A8
100
AcDbEntity
  8
止水栓
  6
CONTINUOUS
 62
     6
100
AcDbVertex
100
AcDb2dVertex
 10
465.715129
 20
1015.625407
 30
0.0
  0
VERTEX
  5
6A9
100
AcDbEntity
  8
止水栓
  6
CONTINUOUS
 62
     6
100
AcDbVertex
100
AcDb2dVertex
 10
466.020305
 20
1015.647685
 30
0.0
  0
VERTEX
  5
6AA
100
AcDbEntity
  8
止水栓
  6
CONTINUOUS
 62
     6
100
AcDbVertex
100
AcDb2dVertex
 10
466.320598
 20
1015.714366
 30
0.0
  0
VERTEX
  5
6AB
100
AcDbEntity
  8
止水栓
  6
CONTINUOUS
 62
     6
100
AcDbVertex
100
AcDb2dVertex
 10
466.61845
 20
1015.824229
 30
0.0
  0
VERTEX
  5
6AC
100
AcDbEntity
  8
止水栓
  6
CONTINUOUS
 62
     6
100
AcDbVertex
100
AcDb2dVertex
 10
466.908977
 20
1015.977428
 30
0.0
  0
VERTEX
  5
6AD
100
AcDbEntity
  8
止水栓
  6
CONTINUOUS
 62
     6
100
AcDbVertex
100
AcDb2dVertex
 10
467.189739
 20
1016.172282
 30
0.0
  0
SEQEND
  5
6AE
100
AcDbEntity
  8
止水栓
  6
CONTINUOUS
 62
     6
  0
POLYLINE
  5
6AF
100
AcDbEntity
  8
止水栓
  6
CONTINUOUS
 62
     6
100
AcDb2dPolyline
 66
     1
 10
0.0
 20
0.0
 30
0.0
 70
   128
  0
VERTEX
  5
6B0
100
AcDbEntity
  8
止水栓
  6
CONTINUOUS
 62
     6
100
AcDbVertex
100
AcDb2dVertex
 10
467.189739
 20
1016.172282
 30
0.0
  0
VERTEX
  5
6B1
100
AcDbEntity
  8
止水栓
  6
CONTINUOUS
 62
     6
100
AcDbVertex
100
AcDb2dVertex
 10
467.460735
 20
1016.406962
 30
0.0
  0
VERTEX
  5
6B2
100
AcDbEntity
  8
止水栓
  6
CONTINUOUS
 62
     6
100
AcDbVertex
100
AcDb2dVertex
 10
467.717082
 20
1016.6804
 30
0.0
  0
VERTEX
  5
6B3
100
AcDbEntity
  8
止水栓
  6
CONTINUOUS
 62
     6
100
AcDbVertex
100
AcDb2dVertex
 10
467.961223
 20
1016.990306
 30
0.0
  0
VERTEX
  5
6B4
100
AcDbEntity
  8
止水栓
  6
CONTINUOUS
 62
     6
100
AcDbVertex
100
AcDb2dVertex
 10
468.183391
 20
1017.334544
 30
0.0
  0
VERTEX
  5
6B5
100
AcDbEntity
  8
止水栓
  6
CONTINUOUS
 62
     6
100
AcDbVertex
100
AcDb2dVertex
 10
468.388469
 20
1017.70991
 30
0.0
  0
VERTEX
  5
6B6
100
AcDbEntity
  8
止水栓
  6
CONTINUOUS
 62
     6
100
AcDbVertex
100
AcDb2dVertex
 10
468.574016
 20
1018.113963
 30
0.0
  0
VERTEX
  5
6B7
100
AcDbEntity
  8
止水栓
  6
CONTINUOUS
 62
     6
100
AcDbVertex
100
AcDb2dVertex
 10
468.740032
 20
1018.542888
 30
0.0
  0
VERTEX
  5
6B8
100
AcDbEntity
  8
止水栓
  6
CONTINUOUS
 62
     6
100
AcDbVertex
100
AcDb2dVertex
 10
468.881633
 20
1018.994548
 30
0.0
  0
VERTEX
  5
6B9
100
AcDbEntity
  8
止水栓
  6
CONTINUOUS
 62
     6
100
AcDbVertex
100
AcDb2dVertex
 10
468.996379
 20
1019.464976
 30
0.0
  0
VERTEX
  5
6BA
100
AcDbEntity
  8
止水栓
  6
CONTINUOUS
 62
     6
100
AcDbVertex
100
AcDb2dVertex
 10
469.086711
 20
1019.950206
 30
0.0
  0
SEQEND
  5
6BB
100
AcDbEntity
  8
止水栓
  6
CONTINUOUS
 62
     6
  0
POLYLINE
  5
6BC
100
AcDbEntity
  8
止水栓
  6
CONTINUOUS
 62
     6
100
AcDb2dPolyline
 66
     1
 10
0.0
 20
0.0
 30
0.0
 70
   128
  0
VERTEX
  5
6BD
100
AcDbEntity
  8
止水栓
  6
CONTINUOUS
 62
     6
100
AcDbVertex
100
AcDb2dVertex
 10
469.086711
 20
1019.950206
 30
0.0
  0
VERTEX
  5
6BE
100
AcDbEntity
  8
止水栓
  6
CONTINUOUS
 62
     6
100
AcDbVertex
100
AcDb2dVertex
 10
469.152629
 20
1020.447185
 30
0.0
  0
VERTEX
  5
6BF
100
AcDbEntity
  8
止水栓
  6
CONTINUOUS
 62
     6
100
AcDbVertex
100
AcDb2dVertex
 10
469.191692
 20
1020.951793
 30
0.0
  0
VERTEX
  5
6C0
100
AcDbEntity
  8
止水栓
  6
CONTINUOUS
 62
     6
100
AcDbVertex
100
AcDb2dVertex
 10
469.203899
 20
1021.460216
 30
0.0
  0
SEQEND
  5
6C1
100
AcDbEntity
  8
止水栓
  6
CONTINUOUS
 62
     6
  0
POLYLINE
  5
6C2
100
AcDbEntity
  8
止水栓
  6
CONTINUOUS
 62
     6
100
AcDb2dPolyline
 66
     1
 10
0.0
 20
0.0
 30
0.0
 70
   128
  0
VERTEX
  5
6C3
100
AcDbEntity
  8
止水栓
  6
CONTINUOUS
 62
     6
100
AcDbVertex
100
AcDb2dVertex
 10
469.20634
 20
1010.166575
 30
0.0
  0
VERTEX
  5
6C4
100
AcDbEntity
  8
止水栓
  6
CONTINUOUS
 62
     6
100
AcDbVertex
100
AcDb2dVertex
 10
469.191692
 20
1010.424296
 30
0.0
  0
VERTEX
  5
6C5
100
AcDbEntity
  8
止水栓
  6
CONTINUOUS
 62
     6
100
AcDbVertex
100
AcDb2dVertex
 10
469.152629
 20
1010.679881
 30
0.0
  0
VERTEX
  5
6C6
100
AcDbEntity
  8
止水栓
  6
CONTINUOUS
 62
     6
100
AcDbVertex
100
AcDb2dVertex
 10
469.086711
 20
1010.931651
 30
0.0
  0
VERTEX
  5
6C7
100
AcDbEntity
  8
止水栓
  6
CONTINUOUS
 62
     6
100
AcDbVertex
100
AcDb2dVertex
 10
468.993938
 20
1011.17747
 30
0.0
  0
VERTEX
  5
6C8
100
AcDbEntity
  8
止水栓
  6
CONTINUOUS
 62
     6
100
AcDbVertex
100
AcDb2dVertex
 10
468.879192
 20
1011.41566
 30
0.0
  0
VERTEX
  5
6C9
100
AcDbEntity
  8
止水栓
  6
CONTINUOUS
 62
     6
100
AcDbVertex
100
AcDb2dVertex
 10
468.740032
 20
1011.644542
 30
0.0
  0
VERTEX
  5
6CA
100
AcDbEntity
  8
止水栓
  6
CONTINUOUS
 62
     6
100
AcDbVertex
100
AcDb2dVertex
 10
468.576457
 20
1011.86198
 30
0.0
  0
VERTEX
  5
6CB
100
AcDbEntity
  8
止水栓
  6
CONTINUOUS
 62
     6
100
AcDbVertex
100
AcDb2dVertex
 10
468.39091
 20
1012.0666
 30
0.0
  0
VERTEX
  5
6CC
100
AcDbEntity
  8
止水栓
  6
CONTINUOUS
 62
     6
100
AcDbVertex
100
AcDb2dVertex
 10
468.183391
 20
1012.256877
 30
0.0
  0
VERTEX
  5
6CD
100
AcDbEntity
  8
止水栓
  6
CONTINUOUS
 62
     6
100
AcDbVertex
100
AcDb2dVertex
 10
467.958782
 20
1012.431132
 30
0.0
  0
VERTEX
  5
6CE
100
AcDbEntity
  8
止水栓
  6
CONTINUOUS
 62
     6
100
AcDbVertex
100
AcDb2dVertex
 10
467.717082
 20
1012.587993
 30
0.0
  0
VERTEX
  5
6CF
100
AcDbEntity
  8
止水栓
  6
CONTINUOUS
 62
     6
100
AcDbVertex
100
AcDb2dVertex
 10
467.460735
 20
1012.726695
 30
0.0
  0
VERTEX
  5
6D0
100
AcDbEntity
  8
止水栓
  6
CONTINUOUS
 62
     6
100
AcDbVertex
100
AcDb2dVertex
 10
467.189739
 20
1012.845714
 30
0.0
  0
VERTEX
  5
6D1
100
AcDbEntity
  8
止水栓
  6
CONTINUOUS
 62
     6
100
AcDbVertex
100
AcDb2dVertex
 10
466.908977
 20
1012.944438
 30
0.0
  0
VERTEX
  5
6D2
100
AcDbEntity
  8
止水栓
  6
CONTINUOUS
 62
     6
100
AcDbVertex
100
AcDb2dVertex
 10
466.61845
 20
1013.0218
 30
0.0
  0
VERTEX
  5
6D3
100
AcDbEntity
  8
止水栓
  6
CONTINUOUS
 62
     6
100
AcDbVertex
100
AcDb2dVertex
 10
466.320598
 20
1013.077495
 30
0.0
  0
VERTEX
  5
6D4
100
AcDbEntity
  8
止水栓
  6
CONTINUOUS
 62
     6
100
AcDbVertex
100
AcDb2dVertex
 10
466.017864
 20
1013.111064
 30
0.0
  0
VERTEX
  5
6D5
100
AcDbEntity
  8
止水栓
  6
CONTINUOUS
 62
     6
100
AcDbVertex
100
AcDb2dVertex
 10
465.715129
 20
1013.122661
 30
0.0
  0
VERTEX
  5
6D6
100
AcDbEntity
  8
止水栓
  6
CONTINUOUS
 62
     6
100
AcDbVertex
100
AcDb2dVertex
 10
465.409953
 20
1013.111369
 30
0.0
  0
VERTEX
  5
6D7
100
AcDbEntity
  8
止水栓
  6
CONTINUOUS
 62
     6
100
AcDbVertex
100
AcDb2dVertex
 10
465.10966
 20
1013.077647
 30
0.0
  0
VERTEX
  5
6D8
100
AcDbEntity
  8
止水栓
  6
CONTINUOUS
 62
     6
100
AcDbVertex
100
AcDb2dVertex
 10
464.811809
 20
1013.0218
 30
0.0
  0
VERTEX
  5
6D9
100
AcDbEntity
  8
止水栓
  6
CONTINUOUS
 62
     6
100
AcDbVertex
100
AcDb2dVertex
 10
464.521282
 20
1012.944133
 30
0.0
  0
VERTEX
  5
6DA
100
AcDbEntity
  8
止水栓
  6
CONTINUOUS
 62
     6
100
AcDbVertex
100
AcDb2dVertex
 10
464.24052
 20
1012.845256
 30
0.0
  0
VERTEX
  5
6DB
100
AcDbEntity
  8
止水栓
  6
CONTINUOUS
 62
     6
100
AcDbVertex
100
AcDb2dVertex
 10
463.969524
 20
1012.726695
 30
0.0
  0
VERTEX
  5
6DC
100
AcDbEntity
  8
止水栓
  6
CONTINUOUS
 62
     6
100
AcDbVertex
100
AcDb2dVertex
 10
463.713176
 20
1012.588145
 30
0.0
  0
VERTEX
  5
6DD
100
AcDbEntity
  8
止水栓
  6
CONTINUOUS
 62
     6
100
AcDbVertex
100
AcDb2dVertex
 10
463.469035
 20
1012.431132
 30
0.0
  0
VERTEX
  5
6DE
100
AcDbEntity
  8
止水栓
  6
CONTINUOUS
 62
     6
100
AcDbVertex
100
AcDb2dVertex
 10
463.246868
 20
1012.256877
 30
0.0
  0
VERTEX
  5
6DF
100
AcDbEntity
  8
止水栓
  6
CONTINUOUS
 62
     6
100
AcDbVertex
100
AcDb2dVertex
 10
463.041789
 20
1012.066752
 30
0.0
  0
VERTEX
  5
6E0
100
AcDbEntity
  8
止水栓
  6
CONTINUOUS
 62
     6
100
AcDbVertex
100
AcDb2dVertex
 10
462.856243
 20
1011.862132
 30
0.0
  0
VERTEX
  5
6E1
100
AcDbEntity
  8
止水栓
  6
CONTINUOUS
 62
     6
100
AcDbVertex
100
AcDb2dVertex
 10
462.690227
 20
1011.644542
 30
0.0
  0
VERTEX
  5
6E2
100
AcDbEntity
  8
止水栓
  6
CONTINUOUS
 62
     6
100
AcDbVertex
100
AcDb2dVertex
 10
462.548625
 20
1011.415813
 30
0.0
  0
VERTEX
  5
6E3
100
AcDbEntity
  8
止水栓
  6
CONTINUOUS
 62
     6
100
AcDbVertex
100
AcDb2dVertex
 10
462.433879
 20
1011.17747
 30
0.0
  0
VERTEX
  5
6E4
100
AcDbEntity
  8
止水栓
  6
CONTINUOUS
 62
     6
100
AcDbVertex
100
AcDb2dVertex
 10
462.343547
 20
1010.931651
 30
0.0
  0
VERTEX
  5
6E5
100
AcDbEntity
  8
止水栓
  6
CONTINUOUS
 62
     6
100
AcDbVertex
100
AcDb2dVertex
 10
462.277629
 20
1010.679881
 30
0.0
  0
VERTEX
  5
6E6
100
AcDbEntity
  8
止水栓
  6
CONTINUOUS
 62
     6
100
AcDbVertex
100
AcDb2dVertex
 10
462.238567
 20
1010.423991
 30
0.0
  0
VERTEX
  5
6E7
100
AcDbEntity
  8
止水栓
  6
CONTINUOUS
 62
     6
100
AcDbVertex
100
AcDb2dVertex
 10
462.223918
 20
1010.166575
 30
0.0
  0
VERTEX
  5
6E8
100
AcDbEntity
  8
止水栓
  6
CONTINUOUS
 62
     6
100
AcDbVertex
100
AcDb2dVertex
 10
462.238567
 20
1009.908855
 30
0.0
  0
VERTEX
  5
6E9
100
AcDbEntity
  8
止水栓
  6
CONTINUOUS
 62
     6
100
AcDbVertex
100
AcDb2dVertex
 10
462.277629
 20
1009.65327
 30
0.0
  0
VERTEX
  5
6EA
100
AcDbEntity
  8
止水栓
  6
CONTINUOUS
 62
     6
100
AcDbVertex
100
AcDb2dVertex
 10
462.343547
 20
1009.401652
 30
0.0
  0
VERTEX
  5
6EB
100
AcDbEntity
  8
止水栓
  6
CONTINUOUS
 62
     6
100
AcDbVertex
100
AcDb2dVertex
 10
462.436321
 20
1009.155833
 30
0.0
  0
VERTEX
  5
6EC
100
AcDbEntity
  8
止水栓
  6
CONTINUOUS
 62
     6
100
AcDbVertex
100
AcDb2dVertex
 10
462.551067
 20
1008.917644
 30
0.0
  0
VERTEX
  5
6ED
100
AcDbEntity
  8
止水栓
  6
CONTINUOUS
 62
     6
100
AcDbVertex
100
AcDb2dVertex
 10
462.690227
 20
1008.688457
 30
0.0
  0
VERTEX
  5
6EE
100
AcDbEntity
  8
止水栓
  6
CONTINUOUS
 62
     6
100
AcDbVertex
100
AcDb2dVertex
 10
462.853801
 20
1008.471019
 30
0.0
  0
VERTEX
  5
6EF
100
AcDbEntity
  8
止水栓
  6
CONTINUOUS
 62
     6
100
AcDbVertex
100
AcDb2dVertex
 10
463.039348
 20
1008.266398
 30
0.0
  0
VERTEX
  5
6F0
100
AcDbEntity
  8
止水栓
  6
CONTINUOUS
 62
     6
100
AcDbVertex
100
AcDb2dVertex
 10
463.246868
 20
1008.076274
 30
0.0
  0
VERTEX
  5
6F1
100
AcDbEntity
  8
止水栓
  6
CONTINUOUS
 62
     6
100
AcDbVertex
100
AcDb2dVertex
 10
463.471477
 20
1007.902019
 30
0.0
  0
VERTEX
  5
6F2
100
AcDbEntity
  8
止水栓
  6
CONTINUOUS
 62
     6
100
AcDbVertex
100
AcDb2dVertex
 10
463.713176
 20
1007.745158
 30
0.0
  0
VERTEX
  5
6F3
100
AcDbEntity
  8
止水栓
  6
CONTINUOUS
 62
     6
100
AcDbVertex
100
AcDb2dVertex
 10
463.969524
 20
1007.606608
 30
0.0
  0
VERTEX
  5
6F4
100
AcDbEntity
  8
止水栓
  6
CONTINUOUS
 62
     6
100
AcDbVertex
100
AcDb2dVertex
 10
464.24052
 20
1007.48759
 30
0.0
  0
VERTEX
  5
6F5
100
AcDbEntity
  8
止水栓
  6
CONTINUOUS
 62
     6
100
AcDbVertex
100
AcDb2dVertex
 10
464.521282
 20
1007.388866
 30
0.0
  0
VERTEX
  5
6F6
100
AcDbEntity
  8
止水栓
  6
CONTINUOUS
 62
     6
100
AcDbVertex
100
AcDb2dVertex
 10
464.811809
 20
1007.311351
 30
0.0
  0
VERTEX
  5
6F7
100
AcDbEntity
  8
止水栓
  6
CONTINUOUS
 62
     6
100
AcDbVertex
100
AcDb2dVertex
 10
465.10966
 20
1007.255656
 30
0.0
  0
VERTEX
  5
6F8
100
AcDbEntity
  8
止水栓
  6
CONTINUOUS
 62
     6
100
AcDbVertex
100
AcDb2dVertex
 10
465.412395
 20
1007.222087
 30
0.0
  0
VERTEX
  5
6F9
100
AcDbEntity
  8
止水栓
  6
CONTINUOUS
 62
     6
100
AcDbVertex
100
AcDb2dVertex
 10
465.715129
 20
1007.210338
 30
0.0
  0
VERTEX
  5
6FA
100
AcDbEntity
  8
止水栓
  6
CONTINUOUS
 62
     6
100
AcDbVertex
100
AcDb2dVertex
 10
466.020305
 20
1007.221629
 30
0.0
  0
VERTEX
  5
6FB
100
AcDbEntity
  8
止水栓
  6
CONTINUOUS
 62
     6
100
AcDbVertex
100
AcDb2dVertex
 10
466.320598
 20
1007.255351
 30
0.0
  0
VERTEX
  5
6FC
100
AcDbEntity
  8
止水栓
  6
CONTINUOUS
 62
     6
100
AcDbVertex
100
AcDb2dVertex
 10
466.61845
 20
1007.311351
 30
0.0
  0
VERTEX
  5
6FD
100
AcDbEntity
  8
止水栓
  6
CONTINUOUS
 62
     6
100
AcDbVertex
100
AcDb2dVertex
 10
466.908977
 20
1007.389018
 30
0.0
  0
VERTEX
  5
6FE
100
AcDbEntity
  8
止水栓
  6
CONTINUOUS
 62
     6
100
AcDbVertex
100
AcDb2dVertex
 10
467.189739
 20
1007.487895
 30
0.0
  0
SEQEND
  5
6FF
100
AcDbEntity
  8
止水栓
  6
CONTINUOUS
 62
     6
  0
POLYLINE
  5
700
100
AcDbEntity
  8
止水栓
  6
CONTINUOUS
 62
     6
100
AcDb2dPolyline
 66
     1
 10
0.0
 20
0.0
 30
0.0
 70
   128
  0
VERTEX
  5
701
100
AcDbEntity
  8
止水栓
  6
CONTINUOUS
 62
     6
100
AcDbVertex
100
AcDb2dVertex
 10
467.189739
 20
1007.487895
 30
0.0
  0
VERTEX
  5
702
100
AcDbEntity
  8
止水栓
  6
CONTINUOUS
 62
     6
100
AcDbVertex
100
AcDb2dVertex
 10
467.460735
 20
1007.606608
 30
0.0
  0
VERTEX
  5
703
100
AcDbEntity
  8
止水栓
  6
CONTINUOUS
 62
     6
100
AcDbVertex
100
AcDb2dVertex
 10
467.717082
 20
1007.745158
 30
0.0
  0
VERTEX
  5
704
100
AcDbEntity
  8
止水栓
  6
CONTINUOUS
 62
     6
100
AcDbVertex
100
AcDb2dVertex
 10
467.961223
 20
1007.902171
 30
0.0
  0
VERTEX
  5
705
100
AcDbEntity
  8
止水栓
  6
CONTINUOUS
 62
     6
100
AcDbVertex
100
AcDb2dVertex
 10
468.183391
 20
1008.076274
 30
0.0
  0
VERTEX
  5
706
100
AcDbEntity
  8
止水栓
  6
CONTINUOUS
 62
     6
100
AcDbVertex
100
AcDb2dVertex
 10
468.388469
 20
1008.266398
 30
0.0
  0
VERTEX
  5
707
100
AcDbEntity
  8
止水栓
  6
CONTINUOUS
 62
     6
100
AcDbVertex
100
AcDb2dVertex
 10
468.574016
 20
1008.471019
 30
0.0
  0
VERTEX
  5
708
100
AcDbEntity
  8
止水栓
  6
CONTINUOUS
 62
     6
100
AcDbVertex
100
AcDb2dVertex
 10
468.740032
 20
1008.688457
 30
0.0
  0
VERTEX
  5
709
100
AcDbEntity
  8
止水栓
  6
CONTINUOUS
 62
     6
100
AcDbVertex
100
AcDb2dVertex
 10
468.881633
 20
1008.917186
 30
0.0
  0
VERTEX
  5
70A
100
AcDbEntity
  8
止水栓
  6
CONTINUOUS
 62
     6
100
AcDbVertex
100
AcDb2dVertex
 10
468.996379
 20
1009.155528
 30
0.0
  0
VERTEX
  5
70B
100
AcDbEntity
  8
止水栓
  6
CONTINUOUS
 62
     6
100
AcDbVertex
100
AcDb2dVertex
 10
469.086711
 20
1009.401652
 30
0.0
  0
SEQEND
  5
70C
100
AcDbEntity
  8
止水栓
  6
CONTINUOUS
 62
     6
  0
POLYLINE
  5
70D
100
AcDbEntity
  8
止水栓
  6
CONTINUOUS
 62
     6
100
AcDb2dPolyline
 66
     1
 10
0.0
 20
0.0
 30
0.0
 70
   128
  0
VERTEX
  5
70E
100
AcDbEntity
  8
止水栓
  6
CONTINUOUS
 62
     6
100
AcDbVertex
100
AcDb2dVertex
 10
469.086711
 20
1009.401652
 30
0.0
  0
VERTEX
  5
70F
100
AcDbEntity
  8
止水栓
  6
CONTINUOUS
 62
     6
100
AcDbVertex
100
AcDb2dVertex
 10
469.152629
 20
1009.653422
 30
0.0
  0
VERTEX
  5
710
100
AcDbEntity
  8
止水栓
  6
CONTINUOUS
 62
     6
100
AcDbVertex
100
AcDb2dVertex
 10
469.191692
 20
1009.909312
 30
0.0
  0
VERTEX
  5
711
100
AcDbEntity
  8
止水栓
  6
CONTINUOUS
 62
     6
100
AcDbVertex
100
AcDb2dVertex
 10
469.20634
 20
1010.167186
 30
0.0
  0
SEQEND
  5
712
100
AcDbEntity
  8
止水栓
  6
CONTINUOUS
 62
     6
  0
LINE
  5
713
100
AcDbEntity
  8
止水栓
  6
CONTINUOUS
 62
     6
100
AcDbLine
 10
461.940715
 20
1009.455974
 30
0.0
 11
456.122844
 21
1009.455974
 31
0.0
  0
LINE
  5
714
100
AcDbEntity
  8
止水栓
  6
CONTINUOUS
 62
     6
100
AcDbLine
 10
438.439739
 20
1063.460338
 30
0.0
 11
454.440715
 21
1063.460338
 31
0.0
  0
LINE
  5
715
100
AcDbEntity
  8
止水栓
  6
CONTINUOUS
 62
     6
100
AcDbLine
 10
433.691203
 20
1055.235698
 30
0.0
 11
438.439739
 21
1063.460338
 31
0.0
  0
LINE
  5
716
100
AcDbEntity
  8
止水栓
  6
CONTINUOUS
 62
     6
100
AcDbLine
 10
433.691203
 20
1046.469523
 30
0.0
 11
433.691203
 21
1055.235698
 31
0.0
  0
LINE
  5
717
100
AcDbEntity
  8
止水栓
  6
CONTINUOUS
 62
     6
100
AcDbLine
 10
433.691203
 20
1046.469523
 30
0.0
 11
435.43925
 21
1045.460307
 31
0.0
  0
LINE
  5
718
100
AcDbEntity
  8
止水栓
  6
CONTINUOUS
 62
     6
100
AcDbLine
 10
435.43925
 20
1045.460307
 30
0.0
 11
457.441203
 21
1045.460307
 31
0.0
  0
LINE
  5
719
100
AcDbEntity
  8
止水栓
  6
CONTINUOUS
 62
     6
100
AcDbLine
 10
457.441203
 20
1045.460307
 30
0.0
 11
459.18925
 21
1046.469523
 31
0.0
  0
LINE
  5
71A
100
AcDbEntity
  8
止水栓
  6
CONTINUOUS
 62
     6
100
AcDbLine
 10
459.18925
 20
1046.469523
 30
0.0
 11
459.18925
 21
1055.235545
 31
0.0
  0
LINE
  5
71B
100
AcDbEntity
  8
止水栓
  6
CONTINUOUS
 62
     6
100
AcDbLine
 10
459.18925
 20
1055.235545
 30
0.0
 11
454.440715
 21
1063.460338
 31
0.0
  0
ARC
  5
71C
100
AcDbEntity
  8
止水栓
  6
CONTINUOUS
 62
     6
100
AcDbCircle
 10
456.415813
 20
1054.543101
 30
0.0
 40
2.857461
100
AcDbArc
 50
14.0303
 51
165.957092
  0
ARC
  5
71D
100
AcDbEntity
  8
止水栓
  6
CONTINUOUS
 62
     6
100
AcDbCircle
 10
446.440227
 20
1049.316814
 30
0.0
 40
8.083794
100
AcDbArc
 50
47.075195
 51
132.92482
  0
ARC
  5
71E
100
AcDbEntity
  8
止水栓
  6
CONTINUOUS
 62
     6
100
AcDbCircle
 10
436.464641
 20
1054.543101
 30
0.0
 40
2.857461
100
AcDbArc
 50
14.042923
 51
165.969711
  0
LINE
  5
71F
100
AcDbEntity
  8
止水栓
  6
CONTINUOUS
 62
     6
100
AcDbLine
 10
453.644817
 20
1055.236156
 30
0.0
 11
453.644817
 21
1045.747783
 31
0.0
  0
LINE
  5
720
100
AcDbEntity
  8
止水栓
  6
CONTINUOUS
 62
     6
100
AcDbLine
 10
451.945598
 20
1055.236156
 30
0.0
 11
451.945598
 21
1045.747783
 31
0.0
  0
LINE
  5
721
100
AcDbEntity
  8
止水栓
  6
CONTINUOUS
 62
     6
100
AcDbLine
 10
440.934856
 20
1055.236156
 30
0.0
 11
440.934856
 21
1045.747783
 31
0.0
  0
LINE
  5
722
100
AcDbEntity
  8
止水栓
  6
CONTINUOUS
 62
     6
100
AcDbLine
 10
439.235637
 20
1055.236156
 30
0.0
 11
439.235637
 21
1045.747783
 31
0.0
  0
LINE
  5
723
100
AcDbEntity
  8
止水栓
  6
CONTINUOUS
 62
     6
100
AcDbLine
 10
439.235637
 20
1055.236156
 30
0.0
 11
440.934856
 21
1055.236156
 31
0.0
  0
LINE
  5
724
100
AcDbEntity
  8
止水栓
  6
CONTINUOUS
 62
     6
100
AcDbLine
 10
451.945598
 20
1055.236156
 30
0.0
 11
453.644817
 21
1055.236156
 31
0.0
  0
LINE
  5
725
100
AcDbEntity
  8
止水栓
  6
CONTINUOUS
 62
     6
100
AcDbLine
 10
440.090129
 20
1246.458427
 30
0.0
 11
440.090129
 21
1063.460338
 31
0.0
  0
LINE
  5
726
100
AcDbEntity
  8
止水栓
  6
CONTINUOUS
 62
     6
100
AcDbLine
 10
456.940715
 20
1045.460307
 30
0.0
 11
456.940715
 21
1036.960857
 31
0.0
  0
ARC
  5
727
100
AcDbEntity
  8
止水栓
  6
CONTINUOUS
 62
     6
100
AcDbCircle
 10
446.440826
 20
1246.458608
 30
0.0
 40
6.350098
100
AcDbArc
 50
0.0
 51
180.000015
  0
LINE
  5
728
100
AcDbEntity
  8
止水栓
  6
CONTINUOUS
 62
     6
100
AcDbLine
 10
452.790325
 20
1063.460338
 30
0.0
 11
452.790325
 21
1246.458935
 31
0.0
  0
LINE
  5
729
100
AcDbEntity
  8
止水栓
  6
CONTINUOUS
 62
     6
100
AcDbLine
 10
342.139446
 20
1012.711771
 30
0.0
 11
342.139446
 21
1030.209329
 31
0.0
  0
LINE
  5
72A
100
AcDbEntity
  8
止水栓
  6
CONTINUOUS
 62
     6
100
AcDbLine
 10
343.660442
 20
1031.730325
 30
0.0
 11
343.702709
 21
1011.16575
 31
0.0
  0
LINE
  5
72B
100
AcDbEntity
  8
止水栓
  6
CONTINUOUS
 62
     3
100
AcDbLine
 10
401.140826
 20
1021.458681
 30
0.0
 11
393.140826
 21
1021.458681
 31
0.0
  0
LINE
  5
72C
100
AcDbEntity
  8
止水栓
  6
CONTINUOUS
 62
     3
100
AcDbLine
 10
381.140826
 20
1021.458681
 30
0.0
 11
270.440826
 21
1021.458681
 31
0.0
  0
LINE
  5
72D
100
AcDbEntity
  8
止水栓
  6
CONTINUOUS
 62
     3
100
AcDbLine
 10
473.0
 20
1021.458681
 30
0.0
 11
413.140826
 21
1021.458681
 31
0.0
  0
LINE
  5
72E
100
AcDbEntity
  8
止水栓
  6
CONTINUOUS
 62
     6
100
AcDbLine
 10
212.0
 20
2012.797363
 30
0.0
 11
297.897462
 21
2012.797363
 31
0.0
  0
LINE
  5
72F
100
AcDbEntity
  8
止水栓
  6
CONTINUOUS
 62
     6
100
AcDbLine
 10
1397.000599
 20
1240.105662
 30
0.0
 11
1413.473145
 21
1240.105662
 31
0.0
  0
ARC
  5
730
100
AcDbEntity
  8
止水栓
  6
CONTINUOUS
 62
     6
100
AcDbCircle
 10
1397.000599
 20
1216.455759
 30
0.0
 40
23.649902
100
AcDbArc
 50
89.999969
 51
180.000015
  0
LINE
  5
731
100
AcDbEntity
  8
止水栓
  6
CONTINUOUS
 62
     6
100
AcDbLine
 10
1397.000599
 20
1252.805857
 30
0.0
 11
1413.473145
 21
1252.805857
 31
0.0
  0
ARC
  5
732
100
AcDbEntity
  8
止水栓
  6
CONTINUOUS
 62
     6
100
AcDbCircle
 10
1397.000599
 20
1216.455759
 30
0.0
 40
36.350098
100
AcDbArc
 50
89.999969
 51
145.620941
  0
ARC
  5
733
100
AcDbEntity
  8
止水栓
  6
CONTINUOUS
 62
     6
100
AcDbCircle
 10
1367.0
 20
1021.508942
 30
0.0
 40
14.250727
100
AcDbArc
 50
84.179016
 51
95.820984
  0
ARC
  5
734
100
AcDbEntity
  8
止水栓
  6
CONTINUOUS
 62
     6
100
AcDbCircle
 10
1367.0
 20
1021.508942
 30
0.0
 40
14.250898
100
AcDbArc
 50
24.18074
 51
35.820297
  0
ARC
  5
735
100
AcDbEntity
  8
止水栓
  6
CONTINUOUS
 62
     6
100
AcDbCircle
 10
1367.0
 20
1021.508942
 30
0.0
 40
14.250441
100
AcDbArc
 50
324.180481
 51
335.81987
  0
ARC
  5
736
100
AcDbEntity
  8
止水栓
  6
CONTINUOUS
 62
     6
100
AcDbCircle
 10
1367.0
 20
1021.508942
 30
0.0
 40
14.250727
100
AcDbArc
 50
264.179016
 51
275.820984
  0
ARC
  5
737
100
AcDbEntity
  8
止水栓
  6
CONTINUOUS
 62
     6
100
AcDbCircle
 10
1367.0
 20
1021.508942
 30
0.0
 40
5.798589
100
AcDbArc
 50
180.530731
 51
179.999969
  0
ARC
  5
738
100
AcDbEntity
  8
止水栓
  6
CONTINUOUS
 62
     6
100
AcDbCircle
 10
1367.0
 20
1021.508942
 30
0.0
 40
4.748839
100
AcDbArc
 50
180.648041
 51
180.000092
  0
ARC
  5
739
100
AcDbEntity
  8
止水栓
  6
CONTINUOUS
 62
     6
100
AcDbCircle
 10
1397.000599
 20
1216.455759
 30
0.0
 40
36.349297
100
AcDbArc
 50
145.62149
 51
180.000015
  0
LINE
  5
73A
100
AcDbEntity
  8
止水栓
  6
CONTINUOUS
 62
     6
100
AcDbLine
 10
1376.316406
 20
1041.508942
 30
0.0
 11
1377.500488
 21
1041.508942
 31
0.0
  0
LINE
  5
73B
100
AcDbEntity
  8
止水栓
  6
CONTINUOUS
 62
     6
100
AcDbLine
 10
1356.501953
 20
1030.537262
 30
0.0
 11
1355.557129
 21
1030.000152
 31
0.0
  0
LINE
  5
73C
100
AcDbEntity
  8
止水栓
  6
CONTINUOUS
 62
     6
100
AcDbLine
 10
1356.501953
 20
1031.142731
 30
0.0
 11
1356.501953
 21
1030.537262
 31
0.0
  0
LINE
  5
73D
100
AcDbEntity
  8
止水栓
  6
CONTINUOUS
 62
     6
100
AcDbLine
 10
1377.500488
 20
1031.142731
 30
0.0
 11
1377.500488
 21
1030.456696
 31
0.0
  0
ARC
  5
73E
100
AcDbEntity
  8
止水栓
  6
CONTINUOUS
 62
     6
100
AcDbCircle
 10
1367.0
 20
1021.508942
 30
0.0
 40
14.248495
100
AcDbArc
 50
143.415161
 51
155.815567
  0
ARC
  5
73F
100
AcDbEntity
  8
止水栓
  6
CONTINUOUS
 62
     6
100
AcDbCircle
 10
1367.0
 20
1021.508942
 30
0.0
 40
14.248667
100
AcDbArc
 50
204.184753
 51
215.825424
  0
LINE
  5
740
100
AcDbEntity
  8
止水栓
  6
CONTINUOUS
 62
     6
100
AcDbLine
 10
1358.999512
 20
1063.508911
 30
0.0
 11
1375.000488
 21
1063.508911
 31
0.0
  0
LINE
  5
741
100
AcDbEntity
  8
止水栓
  6
CONTINUOUS
 62
     6
100
AcDbLine
 10
1355.500977
 20
1057.449341
 30
0.0
 11
1358.999512
 21
1063.508911
 31
0.0
  0
LINE
  5
742
100
AcDbEntity
  8
止水栓
  6
CONTINUOUS
 62
     6
100
AcDbLine
 10
1355.500977
 20
1045.796509
 30
0.0
 11
1355.500977
 21
1057.449341
 31
0.0
  0
LINE
  5
743
100
AcDbEntity
  8
止水栓
  6
CONTINUOUS
 62
     6
100
AcDbLine
 10
1355.500977
 20
1045.796509
 30
0.0
 11
1355.999023
 21
1045.508881
 31
0.0
  0
LINE
  5
744
100
AcDbEntity
  8
止水栓
  6
CONTINUOUS
 62
     6
100
AcDbLine
 10
1355.999023
 20
1045.508881
 30
0.0
 11
1378.000977
 21
1045.508881
 31
0.0
  0
LINE
  5
745
100
AcDbEntity
  8
止水栓
  6
CONTINUOUS
 62
     6
100
AcDbLine
 10
1378.000977
 20
1045.508881
 30
0.0
 11
1378.499023
 21
1045.796356
 31
0.0
  0
LINE
  5
746
100
AcDbEntity
  8
止水栓
  6
CONTINUOUS
 62
     6
100
AcDbLine
 10
1378.499023
 20
1045.796356
 30
0.0
 11
1378.499023
 21
1057.449188
 31
0.0
  0
LINE
  5
747
100
AcDbEntity
  8
止水栓
  6
CONTINUOUS
 62
     6
100
AcDbLine
 10
1378.499023
 20
1057.449188
 30
0.0
 11
1375.000488
 21
1063.508911
 31
0.0
  0
ARC
  5
748
100
AcDbEntity
  8
止水栓
  6
CONTINUOUS
 62
     6
100
AcDbCircle
 10
1372.749512
 20
1051.115265
 30
0.0
 40
6.333947
100
AcDbArc
 50
41.168259
 51
138.831726
  0
ARC
  5
749
100
AcDbEntity
  8
止水栓
  6
CONTINUOUS
 62
     6
100
AcDbCircle
 10
1361.250488
 20
1051.115265
 30
0.0
 40
6.333947
100
AcDbArc
 50
41.168259
 51
138.831726
  0
LINE
  5
74A
100
AcDbEntity
  8
止水栓
  6
CONTINUOUS
 62
     6
100
AcDbLine
 10
1355.500977
 20
1055.284729
 30
0.0
 11
1356.482422
 21
1055.284729
 31
0.0
  0
LINE
  5
74B
100
AcDbEntity
  8
止水栓
  6
CONTINUOUS
 62
     6
100
AcDbLine
 10
1366.018555
 20
1055.284729
 30
0.0
 11
1367.981445
 21
1055.284729
 31
0.0
  0
LINE
  5
74C
100
AcDbEntity
  8
止水栓
  6
CONTINUOUS
 62
     6
100
AcDbLine
 10
1377.517578
 20
1055.284729
 30
0.0
 11
1378.499023
 21
1055.284729
 31
0.0
  0
LINE
  5
74D
100
AcDbEntity
  8
止水栓
  6
CONTINUOUS
 62
     6
100
AcDbLine
 10
1377.517578
 20
1055.284729
 30
0.0
 11
1377.517578
 21
1045.796356
 31
0.0
  0
LINE
  5
74E
100
AcDbEntity
  8
止水栓
  6
CONTINUOUS
 62
     6
100
AcDbLine
 10
1367.981445
 20
1055.284729
 30
0.0
 11
1367.981445
 21
1045.796356
 31
0.0
  0
LINE
  5
74F
100
AcDbEntity
  8
止水栓
  6
CONTINUOUS
 62
     6
100
AcDbLine
 10
1366.018555
 20
1055.284729
 30
0.0
 11
1366.018555
 21
1045.796356
 31
0.0
  0
LINE
  5
750
100
AcDbEntity
  8
止水栓
  6
CONTINUOUS
 62
     6
100
AcDbLine
 10
1356.482422
 20
1055.284729
 30
0.0
 11
1356.482422
 21
1045.796356
 31
0.0
  0
LINE
  5
751
100
AcDbEntity
  8
止水栓
  6
CONTINUOUS
 62
     6
100
AcDbLine
 10
1356.501953
 20
1045.508881
 30
0.0
 11
1356.501953
 21
1031.142731
 31
0.0
  0
LINE
  5
752
100
AcDbEntity
  8
止水栓
  6
CONTINUOUS
 62
     6
100
AcDbLine
 10
1357.686035
 20
1041.508942
 30
0.0
 11
1357.686035
 21
1045.508881
 31
0.0
  0
LINE
  5
753
100
AcDbEntity
  8
止水栓
  6
CONTINUOUS
 62
     6
100
AcDbLine
 10
1376.316406
 20
1041.508942
 30
0.0
 11
1376.316406
 21
1045.508881
 31
0.0
  0
LINE
  5
754
100
AcDbEntity
  8
止水栓
  6
CONTINUOUS
 62
     6
100
AcDbLine
 10
1377.500488
 20
1045.508881
 30
0.0
 11
1377.500488
 21
1031.142731
 31
0.0
  0
LINE
  5
755
100
AcDbEntity
  8
止水栓
  6
CONTINUOUS
 62
     6
100
AcDbLine
 10
1360.652344
 20
1063.508911
 30
0.0
 11
1360.652344
 21
1216.730847
 31
0.0
  0
LINE
  5
756
100
AcDbEntity
  8
止水栓
  6
CONTINUOUS
 62
     6
100
AcDbLine
 10
1373.350098
 20
1063.508911
 30
0.0
 11
1373.350098
 21
1216.455759
 31
0.0
  0
LINE
  5
757
100
AcDbEntity
  8
止水栓
  6
CONTINUOUS
 62
     6
100
AcDbLine
 10
1368.445313
 20
1007.331696
 30
0.0
 11
1378.555176
 21
1013.169098
 31
0.0
  0
LINE
  5
758
100
AcDbEntity
  8
止水栓
  6
CONTINUOUS
 62
     6
100
AcDbLine
 10
1380.000488
 20
1015.671539
 30
0.0
 11
1380.000488
 21
1027.346344
 31
0.0
  0
LINE
  5
759
100
AcDbEntity
  8
止水栓
  6
CONTINUOUS
 62
     6
100
AcDbLine
 10
1365.554688
 20
1035.686188
 30
0.0
 11
1355.55957
 21
1030.00061
 31
0.0
  0
LINE
  5
75A
100
AcDbEntity
  8
止水栓
  6
CONTINUOUS
 62
     6
100
AcDbLine
 10
1376.316406
 20
1041.508942
 30
0.0
 11
1356.501953
 21
1041.508942
 31
0.0
  0
LINE
  5
75B
100
AcDbEntity
  8
止水栓
  6
CONTINUOUS
 62
     6
100
AcDbLine
 10
1368.000977
 20
1026.152496
 30
0.0
 11
1368.000977
 21
1016.865387
 31
0.0
  0
LINE
  5
75C
100
AcDbEntity
  8
止水栓
  6
CONTINUOUS
 62
     6
100
AcDbLine
 10
1366.001465
 20
1016.865387
 30
0.0
 11
1366.001465
 21
1026.152496
 31
0.0
  0
CIRCLE
  5
75D
100
AcDbEntity
  8
止水栓
  6
CONTINUOUS
 62
     6
100
AcDbCircle
 10
1367.0
 20
1021.508942
 30
0.0
 40
11.750031
  0
ARC
  5
75E
100
AcDbEntity
  8
止水栓
  6
CONTINUOUS
 62
     6
100
AcDbCircle
 10
1367.0
 20
1021.455231
 30
0.0
 40
27.499275
100
AcDbArc
 50
115.623245
 51
65.281754
  0
LINE
  5
75F
100
AcDbEntity
  8
止水栓
  6
CONTINUOUS
 62
     6
100
AcDbLine
 10
1354.001953
 20
1027.345886
 30
0.0
 11
1354.001953
 21
1015.671539
 31
0.0
  0
LINE
  5
760
100
AcDbEntity
  8
止水栓
  6
CONTINUOUS
 62
     6
100
AcDbLine
 10
1355.447266
 20
1013.169098
 30
0.0
 11
1365.55957
 21
1007.331238
 31
0.0
  0
LINE
  5
761
100
AcDbEntity
  8
止水栓
  6
CONTINUOUS
 62
     6
100
AcDbLine
 10
1378.557617
 20
1029.846191
 30
0.0
 11
1368.445313
 21
1035.686188
 31
0.0
  0
LINE
  5
762
100
AcDbEntity
  8
止水栓
  6
CONTINUOUS
 62
     6
100
AcDbLine
 10
1413.473145
 20
1257.460521
 30
0.0
 11
1413.473145
 21
1235.456432
 31
0.0
  0
ARC
  5
763
100
AcDbEntity
  8
止水栓
  6
CONTINUOUS
 62
     6
100
AcDbCircle
 10
1419.5
 20
1244.658443
 30
0.0
 40
11.0
100
AcDbArc
 50
236.777222
 51
303.05574
  0
ARC
  5
764
100
AcDbEntity
  8
止水栓
  6
CONTINUOUS
 62
     6
100
AcDbCircle
 10
1419.5
 20
1248.258449
 30
0.0
 40
11.0
100
AcDbArc
 50
56.94426
 51
123.222778
  0
LINE
  5
765
100
AcDbEntity
  8
止水栓
  6
CONTINUOUS
 62
     6
100
AcDbLine
 10
1425.5
 20
1235.438899
 30
0.0
 11
1425.5
 21
1257.478099
 31
0.0
  0
ELLIPSE
  5
766
100
AcDbEntity
  8
止水栓
  6
CONTINUOUS
 62
     6
100
AcDbEllipse
 10
1419.5
 20
1256.417738
 30
0.0
 11
5.1874906428820005
 21
0.0
 31
0.0
210
0.0
220
0.0
230
1.0
 40
0.530669
 41
0.0
 42
6.2831853071796004
  0
ELLIPSE
  5
767
100
AcDbEntity
  8
止水栓
  6
CONTINUOUS
 62
     6
100
AcDbEllipse
 10
1419.5
 20
1246.458446
 30
0.0
 11
0.0000000000000039
 21
-5.5056788863860024
 31
0.0
210
0.0
220
0.0
230
1.0
 40
0.942207
 41
0.0
 42
6.2831853071796004
  0
ELLIPSE
  5
768
100
AcDbEntity
  8
止水栓
  6
CONTINUOUS
 62
     6
100
AcDbEllipse
 10
1419.5
 20
1236.499154
 30
0.0
 11
5.1874906428820005
 21
0.0
 31
0.0
210
0.0
220
0.0
230
1.0
 40
0.530669
 41
0.0
 42
6.2831853071796004
  0
CIRCLE
  5
769
100
AcDbEntity
  8
便座
  6
EXLTYPE2
 62
     6
100
AcDbCircle
 10
660.441132
 20
2310.34668
 30
0.0
 40
6.000977
  0
CIRCLE
  5
76A
100
AcDbEntity
  8
便座
  6
EXLTYPE2
 62
     6
100
AcDbCircle
 10
660.441132
 20
2450.34668
 30
0.0
 40
6.000977
  0
LINE
  5
76B
100
AcDbEntity
  8
便座
  6
CONTINUOUS
 62
     6
100
AcDbLine
 10
636.442108
 20
2432.346649
 30
0.0
 11
636.442108
 21
2462.346649
 31
0.0
  0
LINE
  5
76C
100
AcDbEntity
  8
便座
  6
CONTINUOUS
 62
     6
100
AcDbLine
 10
636.442108
 20
2432.346649
 30
0.0
 11
674.940643
 21
2432.346649
 31
0.0
  0
LINE
  5
76D
100
AcDbEntity
  8
便座
  6
CONTINUOUS
 62
     6
100
AcDbLine
 10
636.442108
 20
2328.34671
 30
0.0
 11
674.940643
 21
2328.34671
 31
0.0
  0
LINE
  5
76E
100
AcDbEntity
  8
便座
  6
CONTINUOUS
 62
     6
100
AcDbLine
 10
636.442108
 20
2328.34671
 30
0.0
 11
636.442108
 21
2298.34671
 31
0.0
  0
LINE
  5
76F
100
AcDbEntity
  8
便座
  6
CONTINUOUS
 62
     6
100
AcDbLine
 10
636.442108
 20
2298.34671
 30
0.0
 11
679.940643
 21
2298.34671
 31
0.0
  0
LINE
  5
770
100
AcDbEntity
  8
便座
  6
CONTINUOUS
 62
     6
100
AcDbLine
 10
679.940643
 20
2317.84668
 30
0.0
 11
666.442108
 21
2317.84668
 31
0.0
  0
LINE
  5
771
100
AcDbEntity
  8
便座
  6
CONTINUOUS
 62
     6
100
AcDbLine
 10
679.940643
 20
2442.84668
 30
0.0
 11
666.442108
 21
2442.84668
 31
0.0
  0
LINE
  5
772
100
AcDbEntity
  8
便座
  6
CONTINUOUS
 62
     6
100
AcDbLine
 10
679.940643
 20
2462.346649
 30
0.0
 11
636.442108
 21
2462.346649
 31
0.0
  0
ARC
  5
773
100
AcDbEntity
  8
便座
  6
CONTINUOUS
 62
     6
100
AcDbCircle
 10
875.441132
 20
2220.84668
 30
0.0
 40
335.0
100
AcDbArc
 50
85.315374
 51
122.557614
  0
ARC
  5
774
100
AcDbEntity
  8
便座
  6
CONTINUOUS
 62
     6
100
AcDbCircle
 10
875.441132
 20
2220.84668
 30
0.0
 40
327.0
100
AcDbArc
 50
85.315374
 51
123.571704
  0
ARC
  5
775
100
AcDbEntity
  8
便座
  6
CONTINUOUS
 62
     6
100
AcDbCircle
 10
970.441132
 20
2380.34668
 30
0.0
 40
118.0
100
AcDbArc
 50
329.426629
 51
30.573371
  0
ARC
  5
776
100
AcDbEntity
  8
便座
  6
CONTINUOUS
 62
     6
100
AcDbCircle
 10
970.441132
 20
2380.34668
 30
0.0
 40
135.0
100
AcDbArc
 50
328.738377
 51
31.261623
  0
LINE
  5
777
100
AcDbEntity
  8
便座
  6
CONTINUOUS
 62
     6
100
AcDbLine
 10
683.441132
 20
2472.4714
 30
0.0
 11
683.441132
 21
2288.221959
 31
0.0
  0
LINE
  5
778
100
AcDbEntity
  8
便座
  6
CONTINUOUS
 62
     6
100
AcDbLine
 10
674.941132
 20
2317.84668
 30
0.0
 11
674.941132
 21
2442.84668
 31
0.0
  0
LINE
  5
779
100
AcDbEntity
  8
便座
  6
CONTINUOUS
 62
     6
100
AcDbLine
 10
681.306171
 20
2282.777205
 30
0.0
 11
681.306171
 21
2349.59668
 31
0.0
  0
LINE
  5
77A
100
AcDbEntity
  8
便座
  6
CONTINUOUS
 62
     6
100
AcDbLine
 10
681.306171
 20
2411.09668
 30
0.0
 11
681.306171
 21
2477.916154
 31
0.0
  0
LINE
  5
77B
100
AcDbEntity
  8
便座
  6
CONTINUOUS
 62
     6
100
AcDbLine
 10
674.941132
 20
2411.09668
 30
0.0
 11
681.306171
 21
2411.09668
 31
0.0
  0
LINE
  5
77C
100
AcDbEntity
  8
便座
  6
CONTINUOUS
 62
     6
100
AcDbLine
 10
674.941132
 20
2349.59668
 30
0.0
 11
681.306171
 21
2349.59668
 31
0.0
  0
ARC
  5
77D
100
AcDbEntity
  8
便座
  6
CONTINUOUS
 62
     6
100
AcDbCircle
 10
875.441132
 20
2539.84668
 30
0.0
 40
335.0
100
AcDbArc
 50
237.442386
 51
274.684626
  0
ARC
  5
77E
100
AcDbEntity
  8
便座
  6
CONTINUOUS
 62
     6
100
AcDbCircle
 10
875.441132
 20
2539.84668
 30
0.0
 40
327.0
100
AcDbArc
 50
236.428296
 51
274.684626
  0
ARC
  5
77F
100
AcDbEntity
  8
便座
  6
CONTINUOUS
 62
     6
100
AcDbCircle
 10
884.34328
 20
2431.210812
 30
0.0
 40
226.0
100
AcDbArc
 50
274.684626
 51
329.426629
  0
ARC
  5
780
100
AcDbEntity
  8
便座
  6
CONTINUOUS
 62
     6
100
AcDbCircle
 10
884.34328
 20
2431.210812
 30
0.0
 40
218.0
100
AcDbArc
 50
274.684626
 51
329.426629
  0
ARC
  5
781
100
AcDbEntity
  8
便座
  6
CONTINUOUS
 62
     6
100
AcDbCircle
 10
884.34328
 20
2329.482547
 30
0.0
 40
226.0
100
AcDbArc
 50
30.573371
 51
85.315374
  0
ARC
  5
782
100
AcDbEntity
  8
便座
  6
CONTINUOUS
 62
     6
100
AcDbCircle
 10
884.34328
 20
2329.482547
 30
0.0
 40
218.0
100
AcDbArc
 50
30.573371
 51
85.315374
  0
ARC
  5
783
100
AcDbEntity
  8
便座
  6
CONTINUOUS
 62
     6
100
AcDbCircle
 10
708.441132
 20
2472.4714
 30
0.0
 40
25.0
100
AcDbArc
 50
123.571704
 51
180.0
  0
ARC
  5
784
100
AcDbEntity
  8
便座
  6
CONTINUOUS
 62
     6
100
AcDbCircle
 10
708.441132
 20
2288.221959
 30
0.0
 40
25.0
100
AcDbArc
 50
180.0
 51
236.428296
  0
ARC
  5
785
100
AcDbEntity
  8
便座
  6
CONTINUOUS
 62
     6
100
AcDbCircle
 10
711.306171
 20
2477.916154
 30
0.0
 40
30.0
100
AcDbArc
 50
122.557614
 51
180.0
  0
ARC
  5
786
100
AcDbEntity
  8
便座
  6
CONTINUOUS
 62
     6
100
AcDbCircle
 10
711.306171
 20
2282.777205
 30
0.0
 40
30.0
100
AcDbArc
 50
180.0
 51
237.442386
  0
ARC
  5
787
100
AcDbEntity
  8
便座
  6
CONTINUOUS
 62
     6
100
AcDbCircle
 10
875.441132
 20
2213.84668
 30
0.0
 40
350.0
100
AcDbArc
 50
85.251802
 51
117.689613
  0
ARC
  5
788
100
AcDbEntity
  8
便座
  6
CONTINUOUS
 62
     6
100
AcDbCircle
 10
875.441132
 20
2546.84668
 30
0.0
 40
350.0
100
AcDbArc
 50
242.310387
 51
274.748198
  0
ARC
  5
789
100
AcDbEntity
  8
便座
  6
CONTINUOUS
 62
     6
100
AcDbCircle
 10
884.96047
 20
2432.241347
 30
0.0
 40
235.0
100
AcDbArc
 50
274.748198
 51
328.738377
  0
ARC
  5
78A
100
AcDbEntity
  8
便座
  6
CONTINUOUS
 62
     6
100
AcDbCircle
 10
884.96047
 20
2328.452012
 30
0.0
 40
235.0
100
AcDbArc
 50
31.261623
 51
85.251802
  0
ARC
  5
78B
100
AcDbEntity
  8
便座
  6
CONTINUOUS
 62
     6
100
AcDbCircle
 10
724.419634
 20
2501.626991
 30
0.0
 40
25.0
100
AcDbArc
 50
117.689613
 51
169.629498
  0
ARC
  5
78C
100
AcDbEntity
  8
便座
  6
CONTINUOUS
 62
     6
100
AcDbCircle
 10
724.419634
 20
2259.066369
 30
0.0
 40
25.0
100
AcDbArc
 50
190.370502
 51
242.310387
  0
ARC
  5
78D
100
AcDbEntity
  8
便座
  6
CONTINUOUS
 62
     6
100
AcDbCircle
 10
950.373452
 20
2380.34668
 30
0.0
 40
143.729781
100
AcDbArc
 50
334.0031
 51
25.9969
  0
LINE
  5
78E
100
AcDbEntity
  8
便座
  6
CONTINUOUS
 62
     6
100
AcDbLine
 10
636.440887
 20
894.455261
 30
0.0
 11
636.440887
 21
886.455231
 31
0.0
  0
LINE
  5
78F
100
AcDbEntity
  8
便座
  6
CONTINUOUS
 62
     6
100
AcDbLine
 10
692.623444
 20
900.45517
 30
0.0
 11
689.43985
 21
886.455231
 31
0.0
  0
ARC
  5
790
100
AcDbEntity
  8
便座
  6
CONTINUOUS
 62
     6
100
AcDbCircle
 10
685.892487
 20
911.455231
 30
0.0
 40
9.000652
100
AcDbArc
 50
347.196423
 51
90.0
  0
LINE
  5
791
100
AcDbEntity
  8
便座
  6
CONTINUOUS
 62
     6
100
AcDbLine
 10
676.93985
 20
920.45517
 30
0.0
 11
685.892487
 21
920.45517
 31
0.0
  0
LINE
  5
792
100
AcDbEntity
  8
便座
  6
CONTINUOUS
 62
     6
100
AcDbLine
 10
672.774811
 20
902.127838
 30
0.0
 11
676.93985
 21
920.45517
 31
0.0
  0
ARC
  5
793
100
AcDbEntity
  8
便座
  6
CONTINUOUS
 62
     6
100
AcDbCircle
 10
666.925201
 20
903.457642
 30
0.0
 40
5.999851
100
AcDbArc
 50
275.862109
 51
347.192521
  0
LINE
  5
794
100
AcDbEntity
  8
便座
  6
CONTINUOUS
 62
     6
100
AcDbLine
 10
636.440887
 20
894.455261
 30
0.0
 11
667.537994
 21
897.489166
 31
0.0
  0
LINE
  5
795
100
AcDbEntity
  8
便座
  6
CONTINUOUS
 62
     6
100
AcDbLine
 10
679.632721
 20
933.187714
 30
0.0
 11
677.115631
 21
920.45517
 31
0.0
  0
LINE
  5
796
100
AcDbEntity
  8
便座
  6
CONTINUOUS
 62
     6
100
AcDbLine
 10
682.804146
 20
949.230998
 30
0.0
 11
679.632721
 21
933.187714
 31
0.0
  0
ARC
  5
797
100
AcDbEntity
  8
便座
  6
CONTINUOUS
 62
     6
100
AcDbCircle
 10
656.497955
 20
-66.5448
 30
0.0
 40
999.999741
100
AcDbArc
 50
85.814773
 51
88.674324
  0
LINE
  5
798
100
AcDbEntity
  8
便座
  6
CONTINUOUS
 62
     6
100
AcDbLine
 10
695.020904
 20
920.45517
 30
0.0
 11
695.662987
 21
932.687697
 31
0.0
  0
LINE
  5
799
100
AcDbEntity
  8
便座
  6
CONTINUOUS
 62
     6
100
AcDbLine
 10
685.892487
 20
920.45517
 30
0.0
 11
706.341705
 21
920.45517
 31
0.0
  0
ARC
  5
79A
100
AcDbEntity
  8
便座
  6
CONTINUOUS
 62
     6
100
AcDbCircle
 10
706.341705
 20
913.4552
 30
0.0
 40
6.99997
100
AcDbArc
 50
90.0
 51
162.582827
  0
ARC
  5
79B
100
AcDbEntity
  8
便座
  6
CONTINUOUS
 62
     6
100
AcDbCircle
 10
756.971588
 20
897.788544
 30
0.0
 40
59.999009
100
AcDbArc
 50
162.780069
 51
177.452688
  0
LINE
  5
79C
100
AcDbEntity
  8
便座
  6
CONTINUOUS
 62
     6
100
AcDbLine
 10
692.623444
 20
900.45517
 30
0.0
 11
697.032623
 21
900.45517
 31
0.0
  0
ARC
  5
79D
100
AcDbEntity
  8
便座
  6
CONTINUOUS
 62
     6
100
AcDbCircle
 10
698.558502
 20
900.9552
 30
0.0
 40
1.499357
100
AcDbArc
 50
199.474967
 51
270.0
  0
LINE
  5
79E
100
AcDbEntity
  8
便座
  6
CONTINUOUS
 62
     6
100
AcDbLine
 10
697.940826
 20
899.455261
 30
0.0
 11
1103.50235
 21
899.455261
 31
0.0
  0
LINE
  5
79F
100
AcDbEntity
  8
便座
  6
CONTINUOUS
 62
     6
100
AcDbLine
 10
1094.689543
 20
920.45517
 30
0.0
 11
706.341705
 21
920.45517
 31
0.0
  0
ARC
  5
7A0
100
AcDbEntity
  8
便座
  6
CONTINUOUS
 62
     6
100
AcDbCircle
 10
982.440338
 20
926.955261
 30
0.0
 40
9.000402
100
AcDbArc
 50
189.594227
 51
226.247088
  0
ARC
  5
7A1
100
AcDbEntity
  8
便座
  6
CONTINUOUS
 62
     6
100
AcDbCircle
 10
875.440826
 20
2925.456696
 30
0.0
 40
2000.000274
100
AcDbArc
 50
265.814642
 51
270.000017
  0
LINE
  5
7A2
100
AcDbEntity
  8
便座
  6
CONTINUOUS
 62
     6
100
AcDbLine
 10
875.435944
 20
925.45639
 30
0.0
 11
1078.924119
 21
925.454247
 31
0.0
  0
LINE
  5
7A3
100
AcDbEntity
  8
便座
  6
CONTINUOUS
 62
     6
100
AcDbLine
 10
846.741426
 20
952.455292
 30
0.0
 11
686.72821
 21
952.455292
 31
0.0
  0
LINE
  5
7A4
100
AcDbEntity
  8
便座
  6
CONTINUOUS
 62
     6
100
AcDbLine
 10
827.100983
 20
892.326355
 30
0.0
 11
964.828033
 21
895.872955
 31
0.0
  0
LINE
  5
7A5
100
AcDbEntity
  8
便座
  6
CONTINUOUS
 62
     6
100
AcDbLine
 10
800.907135
 20
891.455231
 30
0.0
 11
827.100983
 21
891.455231
 31
0.0
  0
LINE
  5
7A6
100
AcDbEntity
  8
便座
  6
CONTINUOUS
 62
     6
100
AcDbLine
 10
754.43985
 20
890.45517
 30
0.0
 11
800.907135
 21
891.651764
 31
0.0
  0
LINE
  5
7A7
100
AcDbEntity
  8
便座
  6
CONTINUOUS
 62
     6
100
AcDbLine
 10
754.43985
 20
890.45517
 30
0.0
 11
753.055573
 21
899.455261
 31
0.0
  0
LINE
  5
7A8
100
AcDbEntity
  8
便座
  6
CONTINUOUS
 62
     6
100
AcDbLine
 10
800.907135
 20
891.455231
 30
0.0
 11
800.907135
 21
899.455261
 31
0.0
  0
ARC
  5
7A9
100
AcDbEntity
  8
便座
  6
CONTINUOUS
 62
     6
100
AcDbCircle
 10
803.907623
 20
889.455261
 30
0.0
 40
3.000488
100
AcDbArc
 50
180.000023
 51
270.0
  0
ARC
  5
7AA
100
AcDbEntity
  8
便座
  6
CONTINUOUS
 62
     6
100
AcDbCircle
 10
824.100494
 20
889.455261
 30
0.0
 40
3.000031
100
AcDbArc
 50
270.0
 51
0.0
  0
LINE
  5
7AB
100
AcDbEntity
  8
便座
  6
CONTINUOUS
 62
     6
100
AcDbLine
 10
827.100983
 20
889.455261
 30
0.0
 11
827.100983
 21
899.455261
 31
0.0
  0
LINE
  5
7AC
100
AcDbEntity
  8
便座
  6
CONTINUOUS
 62
     6
100
AcDbLine
 10
964.828033
 20
891.455231
 30
0.0
 11
964.828033
 21
899.455261
 31
0.0
  0
ARC
  5
7AD
100
AcDbEntity
  8
便座
  6
CONTINUOUS
 62
     6
100
AcDbCircle
 10
967.828522
 20
889.455261
 30
0.0
 40
3.000488
100
AcDbArc
 50
180.000023
 51
270.0
  0
LINE
  5
7AE
100
AcDbEntity
  8
便座
  6
CONTINUOUS
 62
     6
100
AcDbLine
 10
964.828033
 20
891.455231
 30
0.0
 11
994.781647
 21
891.455231
 31
0.0
  0
LINE
  5
7AF
100
AcDbEntity
  8
便座
  6
CONTINUOUS
 62
     6
100
AcDbLine
 10
994.781647
 20
889.455261
 30
0.0
 11
994.781647
 21
899.455261
 31
0.0
  0
LINE
  5
7B0
100
AcDbEntity
  8
便座
  6
CONTINUOUS
 62
     6
100
AcDbLine
 10
994.781647
 20
896.644135
 30
0.0
 11
1105.440826
 21
899.493891
 31
0.0
  0
LINE
  5
7B1
100
AcDbEntity
  8
便座
  6
CONTINUOUS
 62
     6
100
AcDbLine
 10
694.669342
 20
909.460602
 30
0.0
 11
692.623444
 21
900.45517
 31
0.0
  0
LINE
  5
7B2
100
AcDbEntity
  8
便座
  6
CONTINUOUS
 62
     6
100
AcDbLine
 10
964.828033
 20
891.455231
 30
0.0
 11
964.828033
 21
889.455261
 31
0.0
  0
ARC
  5
7B3
100
AcDbEntity
  8
便座
  6
CONTINUOUS
 62
     6
100
AcDbCircle
 10
991.781158
 20
889.455261
 30
0.0
 40
3.000031
100
AcDbArc
 50
270.0
 51
0.0
  0
ARC
  5
7B4
100
AcDbEntity
  8
便座
  6
CONTINUOUS
 62
     6
100
AcDbCircle
 10
982.440338
 20
926.955261
 30
0.0
 40
9.000506
100
AcDbArc
 50
313.764264
 51
350.405815
  0
LINE
  5
7B5
100
AcDbEntity
  8
便座
  6
CONTINUOUS
 62
     6
100
AcDbLine
 10
800.907135
 20
889.455261
 30
0.0
 11
800.907135
 21
891.455231
 31
0.0
  0
ARC
  5
7B6
100
AcDbEntity
  8
便座
  6
CONTINUOUS
 62
     6
100
AcDbCircle
 10
686.72821
 20
948.455292
 30
0.0
 40
4.0
100
AcDbArc
 50
90.0
 51
168.817978
  0
ARC
  5
7B7
100
AcDbEntity
  8
便座
  6
CONTINUOUS
 62
     6
100
AcDbCircle
 10
1070.440848
 20
899.455141
 30
0.0
 40
35.0
100
AcDbArc
 50
0.063434
 51
30.000068
  0
ARC
  5
7B8
100
AcDbEntity
  8
便座
  6
CONTINUOUS
 62
     6
100
AcDbCircle
 10
1094.689543
 20
913.45517
 30
0.0
 40
7.0
100
AcDbArc
 50
30.000068
 51
90.0
  0
LINE
  5
7B9
100
AcDbEntity
  8
便座
  6
CONTINUOUS
 62
     6
100
AcDbLine
 10
875.43607
 20
937.45639
 30
0.0
 11
1083.959834
 21
937.454194
 31
0.0
  0
ARC
  5
7BA
100
AcDbEntity
  8
便座
  6
CONTINUOUS
 62
     6
100
AcDbCircle
 10
846.741426
 20
-1547.544708
 30
0.0
 40
2500.0
100
AcDbArc
 50
85.909561
 51
90.0
  0
ARC
  5
7BB
100
AcDbEntity
  8
便座
  6
CONTINUOUS
 62
     6
100
AcDbCircle
 10
989.403437
 20
447.360691
 30
0.0
 40
500.0
100
AcDbArc
 50
78.934073
 51
85.909561
  0
ARC
  5
7BC
100
AcDbEntity
  8
便座
  6
CONTINUOUS
 62
     6
100
AcDbCircle
 10
1068.211111
 20
915.301074
 30
0.0
 40
30.0
100
AcDbArc
 50
30.338019
 51
40.349757
  0
ARC
  5
7BD
100
AcDbEntity
  8
便座
  6
CONTINUOUS
 62
     6
100
AcDbCircle
 10
1083.453238
 20
928.250111
 30
0.0
 40
10.0
100
AcDbArc
 50
40.349757
 51
78.934073
  0
ARC
  5
7BE
100
AcDbEntity
  8
便座
  6
CONTINUOUS
 62
     6
100
AcDbCircle
 10
875.44124
 20
2925.45639
 30
0.0
 40
1988.0
100
AcDbArc
 50
265.81463
 51
269.999851
  0
ARC
  5
7BF
100
AcDbEntity
  8
便座
  6
CONTINUOUS
 62
     6
100
AcDbCircle
 10
656.519128
 20
-66.545132
 30
0.0
 40
1012.0
100
AcDbArc
 50
85.816249
 51
88.381474
  0
LINE
  5
7C0
100
AcDbEntity
  8
便座
  6
CONTINUOUS
 62
     6
100
AcDbLine
 10
1078.924119
 20
925.454247
 30
0.0
 11
1094.102928
 21
930.454087
 31
0.0
  0
ARC
  5
7C1
100
AcDbEntity
  8
便座
  6
CONTINUOUS
 62
     6
100
AcDbCircle
 10
1777.129395
 20
928.955231
 30
0.0
 40
9.000224
100
AcDbArc
 50
202.8852
 51
250.808121
  0
ARC
  5
7C2
100
AcDbEntity
  8
便座
  6
CONTINUOUS
 62
     6
100
AcDbCircle
 10
1777.129395
 20
928.955231
 30
0.0
 40
9.001232
100
AcDbArc
 50
289.191818
 51
337.117509
  0
LINE
  5
7C3
100
AcDbEntity
  8
便座
  6
CONTINUOUS
 62
     6
100
AcDbLine
 10
1815.623047
 20
889.455719
 30
0.0
 11
1815.623047
 21
899.455719
 31
0.0
  0
LINE
  5
7C4
100
AcDbEntity
  8
便座
  6
CONTINUOUS
 62
     6
100
AcDbLine
 10
1799.097168
 20
889.455719
 30
0.0
 11
1799.097168
 21
899.455719
 31
0.0
  0
ARC
  5
7C5
100
AcDbEntity
  8
便座
  6
CONTINUOUS
 62
     6
100
AcDbCircle
 10
1796.09668
 20
889.455719
 30
0.0
 40
3.000488
100
AcDbArc
 50
270.000031
 51
0.0
  0
ARC
  5
7C6
100
AcDbEntity
  8
便座
  6
CONTINUOUS
 62
     6
100
AcDbCircle
 10
1812.622559
 20
889.455719
 30
0.0
 40
3.000488
100
AcDbArc
 50
270.000031
 51
0.0
  0
ARC
  5
7C7
100
AcDbEntity
  8
便座
  6
CONTINUOUS
 62
     6
100
AcDbCircle
 10
1652.131836
 20
3000.339356
 30
0.0
 40
2110.88562
100
AcDbArc
 50
267.302094
 51
272.697845
  0
LINE
  5
7C8
100
AcDbEntity
  8
便座
  6
CONTINUOUS
 62
     6
100
AcDbLine
 10
1751.487305
 20
891.794586
 30
0.0
 11
1751.487305
 21
899.455719
 31
0.0
  0
LINE
  5
7C9
100
AcDbEntity
  8
便座
  6
CONTINUOUS
 62
     6
100
AcDbLine
 10
1734.128906
 20
886.455231
 30
0.0
 11
1734.128906
 21
891.049957
 31
0.0
  0
LINE
  5
7CA
100
AcDbEntity
  8
便座
  6
CONTINUOUS
 62
     6
100
AcDbLine
 10
1704.128906
 20
886.455231
 30
0.0
 11
1704.128906
 21
890.095367
 31
0.0
  0
LINE
  5
7CB
100
AcDbEntity
  8
便座
  6
CONTINUOUS
 62
     6
100
AcDbLine
 10
1600.129883
 20
886.455231
 30
0.0
 11
1600.129883
 21
890.095367
 31
0.0
  0
LINE
  5
7CC
100
AcDbEntity
  8
便座
  6
CONTINUOUS
 62
     6
100
AcDbLine
 10
1570.129883
 20
886.455231
 30
0.0
 11
1570.129883
 21
891.049957
 31
0.0
  0
LINE
  5
7CD
100
AcDbEntity
  8
便座
  6
CONTINUOUS
 62
     6
100
AcDbLine
 10
1552.771484
 20
889.455719
 30
0.0
 11
1552.771484
 21
899.455719
 31
0.0
  0
ARC
  5
7CE
100
AcDbEntity
  8
便座
  6
CONTINUOUS
 62
     6
100
AcDbCircle
 10
1549.773438
 20
889.455719
 30
0.0
 40
3.000488
100
AcDbArc
 50
270.000031
 51
0.0
  0
LINE
  5
7CF
100
AcDbEntity
  8
便座
  6
CONTINUOUS
 62
     6
100
AcDbLine
 10
1505.166504
 20
891.455231
 30
0.0
 11
1505.166504
 21
899.455719
 31
0.0
  0
LINE
  5
7D0
100
AcDbEntity
  8
便座
  6
CONTINUOUS
 62
     6
100
AcDbLine
 10
1488.640625
 20
891.455231
 30
0.0
 11
1488.640625
 21
899.455719
 31
0.0
  0
ARC
  5
7D1
100
AcDbEntity
  8
便座
  6
CONTINUOUS
 62
     6
100
AcDbCircle
 10
1491.638672
 20
889.455719
 30
0.0
 40
3.000488
100
AcDbArc
 50
180.0
 51
270.0
  0
LINE
  5
7D2
100
AcDbEntity
  8
便座
  6
CONTINUOUS
 62
     6
100
AcDbLine
 10
1505.166504
 20
891.455231
 30
0.0
 11
1505.166504
 21
889.455719
 31
0.0
  0
ARC
  5
7D3
100
AcDbEntity
  8
便座
  6
CONTINUOUS
 62
     6
100
AcDbCircle
 10
1754.485352
 20
889.455719
 30
0.0
 40
3.000488
100
AcDbArc
 50
180.0
 51
270.0
  0
LINE
  5
7D4
100
AcDbEntity
  8
便座
  6
CONTINUOUS
 62
     6
100
AcDbLine
 10
1751.487305
 20
891.794586
 30
0.0
 11
1751.487305
 21
889.455719
 31
0.0
  0
LINE
  5
7D5
100
AcDbEntity
  8
便座
  6
CONTINUOUS
 62
     6
100
AcDbLine
 10
1488.640625
 20
891.455231
 30
0.0
 11
1488.640625
 21
889.455719
 31
0.0
  0
LINE
  5
7D6
100
AcDbEntity
  8
便座
  6
CONTINUOUS
 62
     6
100
AcDbLine
 10
1815.623047
 20
891.455231
 30
0.0
 11
1751.487305
 21
891.455231
 31
0.0
  0
LINE
  5
7D7
100
AcDbEntity
  8
便座
  6
CONTINUOUS
 62
     6
100
AcDbLine
 10
1824.748711
 20
920.454254
 30
0.0
 11
1479.251289
 21
920.454254
 31
0.0
  0
LINE
  5
7D8
100
AcDbEntity
  8
便座
  6
CONTINUOUS
 62
     6
100
AcDbLine
 10
1488.640625
 20
891.455231
 30
0.0
 11
1552.771484
 21
891.455231
 31
0.0
  0
ARC
  5
7D9
100
AcDbEntity
  8
便座
  6
CONTINUOUS
 62
     6
100
AcDbCircle
 10
1652.0
 20
-347.54483
 30
0.0
 40
1300.0
100
AcDbArc
 50
85.070152
 51
94.929848
  0
ARC
  5
7DA
100
AcDbEntity
  8
便座
  6
CONTINUOUS
 62
     6
100
AcDbCircle
 10
1737.935959
 20
648.755833
 30
0.0
 40
300.0
100
AcDbArc
 50
74.738257
 51
85.070152
  0
ARC
  5
7DB
100
AcDbEntity
  8
便座
  6
CONTINUOUS
 62
     6
100
AcDbCircle
 10
1566.064041
 20
648.755833
 30
0.0
 40
300.0
100
AcDbArc
 50
94.929848
 51
105.261743
  0
ARC
  5
7DC
100
AcDbEntity
  8
便座
  6
CONTINUOUS
 62
     6
100
AcDbCircle
 10
1504.72967
 20
915.302056
 30
0.0
 40
30.0
100
AcDbArc
 50
138.599147
 51
160.218317
  0
ARC
  5
7DD
100
AcDbEntity
  8
便座
  6
CONTINUOUS
 62
     6
100
AcDbCircle
 10
1799.27033
 20
915.302056
 30
0.0
 40
30.0
100
AcDbArc
 50
19.781683
 51
41.400853
  0
LINE
  5
7DE
100
AcDbEntity
  8
便座
  6
CONTINUOUS
 62
     6
100
AcDbLine
 10
1489.5
 20
937.45517
 30
0.0
 11
1814.5
 21
937.45517
 31
0.0
  0
ARC
  5
7DF
100
AcDbEntity
  8
便座
  6
CONTINUOUS
 62
     6
100
AcDbCircle
 10
1489.727646
 20
928.528517
 30
0.0
 40
10.0
100
AcDbArc
 50
105.261743
 51
138.599147
  0
ARC
  5
7E0
100
AcDbEntity
  8
便座
  6
CONTINUOUS
 62
     6
100
AcDbCircle
 10
1814.272354
 20
928.528517
 30
0.0
 40
10.0
100
AcDbArc
 50
41.400853
 51
74.738257
  0
ARC
  5
7E1
100
AcDbEntity
  8
便座
  6
CONTINUOUS
 62
     6
100
AcDbCircle
 10
1652.0
 20
630.45517
 30
0.0
 40
300.0
100
AcDbArc
 50
80.931278
 51
99.068722
  0
LINE
  5
7E2
100
AcDbEntity
  8
便座
  6
CONTINUOUS
 62
     6
100
AcDbLine
 10
1476.5
 20
925.45517
 30
0.0
 11
1588.952399
 21
925.45517
 31
0.0
  0
LINE
  5
7E3
100
AcDbEntity
  8
便座
  6
CONTINUOUS
 62
     6
100
AcDbLine
 10
1715.047601
 20
925.45517
 30
0.0
 11
1827.5
 21
925.45517
 31
0.0
  0
LINE
  5
7E4
100
AcDbEntity
  8
便座
  6
CONTINUOUS
 62
     6
100
AcDbLine
 10
1621.25
 20
920.454254
 30
0.0
 11
1621.25
 21
928.875071
 31
0.0
  0
LINE
  5
7E5
100
AcDbEntity
  8
便座
  6
CONTINUOUS
 62
     6
100
AcDbLine
 10
1682.75
 20
920.454254
 30
0.0
 11
1682.75
 21
928.875071
 31
0.0
  0
ARC
  5
7E6
100
AcDbEntity
  8
便座
  6
CONTINUOUS
 62
     6
100
AcDbCircle
 10
1588.952399
 20
1025.45517
 30
0.0
 40
100.0
100
AcDbArc
 50
270.0
 51
279.068722
  0
ARC
  5
7E7
100
AcDbEntity
  8
便座
  6
CONTINUOUS
 62
     6
100
AcDbCircle
 10
1715.047601
 20
1025.45517
 30
0.0
 40
100.0
100
AcDbArc
 50
260.931278
 51
270.0
  0
ARC
  5
7E8
100
AcDbEntity
  8
便座
  6
CONTINUOUS
 62
     6
100
AcDbCircle
 10
1526.870605
 20
928.955231
 30
0.0
 40
9.000224
100
AcDbArc
 50
289.191879
 51
337.1148
  0
ARC
  5
7E9
100
AcDbEntity
  8
便座
  6
CONTINUOUS
 62
     6
100
AcDbCircle
 10
1526.870605
 20
928.955231
 30
0.0
 40
9.001232
100
AcDbArc
 50
202.882491
 51
250.808182
  0
ARC
  5
7EA
100
AcDbEntity
  8
便座
  6
CONTINUOUS
 62
     6
100
AcDbCircle
 10
1507.90332
 20
889.455719
 30
0.0
 40
3.000488
100
AcDbArc
 50
180.0
 51
269.999969
  0
ARC
  5
7EB
100
AcDbEntity
  8
便座
  6
CONTINUOUS
 62
     6
100
AcDbCircle
 10
1503.5
 20
899.454254
 30
0.0
 40
35.0
100
AcDbArc
 50
150.0
 51
179.997602
  0
ARC
  5
7EC
100
AcDbEntity
  8
便座
  6
CONTINUOUS
 62
     6
100
AcDbCircle
 10
1800.5
 20
899.454254
 30
0.0
 40
35.0
100
AcDbArc
 50
0.002398
 51
30.0
  0
LINE
  5
7ED
100
AcDbEntity
  8
便座
  6
CONTINUOUS
 62
     6
100
AcDbLine
 10
1468.5
 20
899.455719
 30
0.0
 11
1835.5
 21
899.455719
 31
0.0
  0
ARC
  5
7EE
100
AcDbEntity
  8
便座
  6
CONTINUOUS
 62
     6
100
AcDbCircle
 10
1824.748711
 20
913.454254
 30
0.0
 40
7.0
100
AcDbArc
 50
30.0
 51
90.0
  0
ARC
  5
7EF
100
AcDbEntity
  8
便座
  6
CONTINUOUS
 62
     6
100
AcDbCircle
 10
1479.251289
 20
913.454254
 30
0.0
 40
7.0
100
AcDbArc
 50
90.0
 51
150.0
  0
LINE
  5
7F0
100
AcDbEntity
  8
紙巻器
  6
CONTINUOUS
 62
     6
100
AcDbLine
 10
1097.942987
 20
2768.347168
 30
0.0
 11
1097.942987
 21
2669.846191
 31
0.0
  0
LINE
  5
7F1
100
AcDbEntity
  8
紙巻器
  6
CONTINUOUS
 62
     6
100
AcDbLine
 10
1097.942987
 20
2669.846191
 30
0.0
 11
1222.942987
 21
2669.846191
 31
0.0
  0
LINE
  5
7F2
100
AcDbEntity
  8
紙巻器
  6
CONTINUOUS
 62
     6
100
AcDbLine
 10
1222.942987
 20
2669.846191
 30
0.0
 11
1222.942987
 21
2768.347168
 31
0.0
  0
LINE
  5
7F3
100
AcDbEntity
  8
紙巻器
  6
CONTINUOUS
 62
     6
100
AcDbLine
 10
1222.942987
 20
2768.347168
 30
0.0
 11
1097.942987
 21
2768.347168
 31
0.0
  0
LINE
  5
7F4
100
AcDbEntity
  8
紙巻器
  6
CONTINUOUS
 62
     6
100
AcDbLine
 10
1207.442499
 20
2780.34668
 30
0.0
 11
1207.442499
 21
2796.054688
 31
0.0
  0
ARC
  5
7F5
100
AcDbEntity
  8
紙巻器
  6
CONTINUOUS
 62
     6
100
AcDbCircle
 10
1199.442011
 20
2796.054688
 30
0.0
 40
8.000488
100
AcDbArc
 50
0.0
 51
41.412905
  0
ARC
  5
7F6
100
AcDbEntity
  8
紙巻器
  6
CONTINUOUS
 62
     6
100
AcDbCircle
 10
1211.443964
 20
2796.054688
 30
0.0
 40
8.001702
100
AcDbArc
 50
138.587129
 51
180.0
  0
LINE
  5
7F7
100
AcDbEntity
  8
紙巻器
  6
CONTINUOUS
 62
     6
100
AcDbLine
 10
1203.443476
 20
2796.054688
 30
0.0
 11
1203.443476
 21
2780.34668
 31
0.0
  0
LINE
  5
7F8
100
AcDbEntity
  8
紙巻器
  6
CONTINUOUS
 62
     6
100
AcDbLine
 10
1162.442499
 20
2780.34668
 30
0.0
 11
1162.442499
 21
2796.054688
 31
0.0
  0
ARC
  5
7F9
100
AcDbEntity
  8
紙巻器
  6
CONTINUOUS
 62
     6
100
AcDbCircle
 10
1154.442011
 20
2796.054688
 30
0.0
 40
8.000488
100
AcDbArc
 50
0.0
 51
41.412882
  0
ARC
  5
7FA
100
AcDbEntity
  8
紙巻器
  6
CONTINUOUS
 62
     6
100
AcDbCircle
 10
1166.443964
 20
2796.054688
 30
0.0
 40
8.001704
100
AcDbArc
 50
138.587144
 51
180.0
  0
LINE
  5
7FB
100
AcDbEntity
  8
紙巻器
  6
CONTINUOUS
 62
     6
100
AcDbLine
 10
1158.443476
 20
2796.054688
 30
0.0
 11
1158.443476
 21
2780.34668
 31
0.0
  0
LINE
  5
7FC
100
AcDbEntity
  8
紙巻器
  6
CONTINUOUS
 62
     6
100
AcDbLine
 10
1117.442499
 20
2780.34668
 30
0.0
 11
1117.442499
 21
2796.054688
 31
0.0
  0
ARC
  5
7FD
100
AcDbEntity
  8
紙巻器
  6
CONTINUOUS
 62
     6
100
AcDbCircle
 10
1109.442011
 20
2796.054688
 30
0.0
 40
8.000488
100
AcDbArc
 50
0.0
 51
41.412905
  0
ARC
  5
7FE
100
AcDbEntity
  8
紙巻器
  6
CONTINUOUS
 62
     6
100
AcDbCircle
 10
1121.443964
 20
2796.054688
 30
0.0
 40
8.001702
100
AcDbArc
 50
138.587129
 51
180.0
  0
LINE
  5
7FF
100
AcDbEntity
  8
紙巻器
  6
CONTINUOUS
 62
     6
100
AcDbLine
 10
1113.443476
 20
2796.054688
 30
0.0
 11
1113.443476
 21
2780.34668
 31
0.0
  0
ARC
  5
800
100
AcDbEntity
  8
紙巻器
  6
CONTINUOUS
 62
     6
100
AcDbCircle
 10
1092.0252
 20
2684.34668
 30
0.0
 40
18.0
100
AcDbArc
 50
202.88538
 51
270.0
  0
ARC
  5
801
100
AcDbEntity
  8
紙巻器
  6
CONTINUOUS
 62
     6
100
AcDbCircle
 10
1228.858952
 20
2684.34668
 30
0.0
 40
18.0
100
AcDbArc
 50
270.0
 51
337.11462
  0
LINE
  5
802
100
AcDbEntity
  8
紙巻器
  6
CONTINUOUS
 62
     6
100
AcDbLine
 10
1092.0252
 20
2666.34668
 30
0.0
 11
1095.442076
 21
2666.34668
 31
0.0
  0
LINE
  5
803
100
AcDbEntity
  8
紙巻器
  6
CONTINUOUS
 62
     6
100
AcDbLine
 10
1225.442076
 20
2666.34668
 30
0.0
 11
1228.858952
 21
2666.34668
 31
0.0
  0
LINE
  5
804
100
AcDbEntity
  8
紙巻器
  6
CONTINUOUS
 62
     6
100
AcDbLine
 10
1095.442076
 20
2666.34668
 30
0.0
 11
1095.942076
 21
2771.34668
 31
0.0
  0
LINE
  5
805
100
AcDbEntity
  8
紙巻器
  6
CONTINUOUS
 62
     6
100
AcDbLine
 10
1224.942076
 20
2771.34668
 30
0.0
 11
1225.442076
 21
2666.34668
 31
0.0
  0
LINE
  5
806
100
AcDbEntity
  8
紙巻器
  6
CONTINUOUS
 62
     6
100
AcDbLine
 10
1095.942076
 20
2771.34668
 30
0.0
 11
1224.942076
 21
2771.34668
 31
0.0
  0
ARC
  5
807
100
AcDbEntity
  8
紙巻器
  6
CONTINUOUS
 62
     6
100
AcDbCircle
 10
1674.61463
 20
2708.84668
 30
0.0
 40
600.0
100
AcDbArc
 50
180.0
 51
183.009412
  0
ARC
  5
808
100
AcDbEntity
  8
紙巻器
  6
CONTINUOUS
 62
     6
100
AcDbCircle
 10
646.269521
 20
2708.84668
 30
0.0
 40
600.0
100
AcDbArc
 50
356.990588
 51
0.0
  0
LINE
  5
809
100
AcDbEntity
  8
紙巻器
  6
CONTINUOUS
 62
     6
100
AcDbLine
 10
1074.61463
 20
2780.34668
 30
0.0
 11
1074.61463
 21
2708.84668
 31
0.0
  0
LINE
  5
80A
100
AcDbEntity
  8
紙巻器
  6
CONTINUOUS
 62
     6
100
AcDbLine
 10
1246.269521
 20
2708.84668
 30
0.0
 11
1246.269521
 21
2780.34668
 31
0.0
  0
LINE
  5
80B
100
AcDbEntity
  8
紙巻器
  6
CONTINUOUS
 62
     6
100
AcDbLine
 10
1097.941771
 20
1264.455233
 30
0.0
 11
1097.941771
 21
1288.955231
 31
0.0
  0
LINE
  5
80C
100
AcDbEntity
  8
紙巻器
  6
CONTINUOUS
 62
     6
100
AcDbLine
 10
1097.941771
 20
1264.455233
 30
0.0
 11
1222.941771
 21
1264.455233
 31
0.0
  0
LINE
  5
80D
100
AcDbEntity
  8
紙巻器
  6
CONTINUOUS
 62
     6
100
AcDbLine
 10
1222.941771
 20
1264.455233
 30
0.0
 11
1222.941771
 21
1288.955231
 31
0.0
  0
LINE
  5
80E
100
AcDbEntity
  8
紙巻器
  6
CONTINUOUS
 62
     6
100
AcDbLine
 10
1102.941771
 20
1241.955231
 30
0.0
 11
1095.441771
 21
1241.955231
 31
0.0
  0
LINE
  5
80F
100
AcDbEntity
  8
紙巻器
  6
CONTINUOUS
 62
     6
100
AcDbLine
 10
1217.941771
 20
1241.955231
 30
0.0
 11
1225.441771
 21
1241.955231
 31
0.0
  0
LINE
  5
810
100
AcDbEntity
  8
紙巻器
  6
CONTINUOUS
 62
     6
100
AcDbLine
 10
1217.941771
 20
1227.917633
 30
0.0
 11
1220.935183
 21
1226.944981
 31
0.0
  0
ARC
  5
811
100
AcDbEntity
  8
紙巻器
  6
CONTINUOUS
 62
     6
100
AcDbCircle
 10
1224.026003
 20
1236.455231
 30
0.0
 40
9.999998
100
AcDbArc
 50
251.995963
 51
270.0
  0
LINE
  5
812
100
AcDbEntity
  8
紙巻器
  6
CONTINUOUS
 62
     6
100
AcDbLine
 10
1224.026003
 20
1226.455231
 30
0.0
 11
1225.441771
 21
1226.455231
 31
0.0
  0
LINE
  5
813
100
AcDbEntity
  8
紙巻器
  6
CONTINUOUS
 62
     6
100
AcDbLine
 10
1217.941771
 20
1203.955231
 30
0.0
 11
1225.441771
 21
1203.955231
 31
0.0
  0
ARC
  5
814
100
AcDbEntity
  8
紙巻器
  6
CONTINUOUS
 62
     6
100
AcDbCircle
 10
1096.857538
 20
1236.455231
 30
0.0
 40
10.0
100
AcDbArc
 50
270.0
 51
288.004193
  0
LINE
  5
815
100
AcDbEntity
  8
紙巻器
  6
CONTINUOUS
 62
     6
100
AcDbLine
 10
1099.948359
 20
1226.944981
 30
0.0
 11
1102.941771
 21
1227.917633
 31
0.0
  0
LINE
  5
816
100
AcDbEntity
  8
紙巻器
  6
CONTINUOUS
 62
     6
100
AcDbLine
 10
1102.941771
 20
1174.692049
 30
0.0
 11
1137.441771
 21
1174.692049
 31
0.0
  0
LINE
  5
817
100
AcDbEntity
  8
紙巻器
  6
CONTINUOUS
 62
     6
100
AcDbLine
 10
1147.441771
 20
1174.692049
 30
0.0
 11
1155.441771
 21
1174.692049
 31
0.0
  0
LINE
  5
818
100
AcDbEntity
  8
紙巻器
  6
CONTINUOUS
 62
     6
100
AcDbLine
 10
1165.441771
 20
1174.692049
 30
0.0
 11
1173.441771
 21
1174.692049
 31
0.0
  0
LINE
  5
819
100
AcDbEntity
  8
紙巻器
  6
CONTINUOUS
 62
     6
100
AcDbLine
 10
1183.441771
 20
1174.692049
 30
0.0
 11
1217.941771
 21
1174.692049
 31
0.0
  0
LINE
  5
81A
100
AcDbEntity
  8
紙巻器
  6
CONTINUOUS
 62
     6
100
AcDbLine
 10
1102.941771
 20
1258.073641
 30
0.0
 11
1102.941771
 21
1264.455233
 31
0.0
  0
LINE
  5
81B
100
AcDbEntity
  8
紙巻器
  6
CONTINUOUS
 62
     6
100
AcDbLine
 10
1102.941771
 20
1240.073641
 30
0.0
 11
1102.941771
 21
1248.073641
 31
0.0
  0
LINE
  5
81C
100
AcDbEntity
  8
紙巻器
  6
CONTINUOUS
 62
     6
100
AcDbLine
 10
1102.941771
 20
1174.692049
 30
0.0
 11
1102.941771
 21
1212.073641
 31
0.0
  0
LINE
  5
81D
100
AcDbEntity
  8
紙巻器
  6
CONTINUOUS
 62
     6
100
AcDbLine
 10
1102.941771
 20
1222.073641
 30
0.0
 11
1102.941771
 21
1230.073641
 31
0.0
  0
LINE
  5
81E
100
AcDbEntity
  8
紙巻器
  6
CONTINUOUS
 62
     6
100
AcDbLine
 10
1217.941771
 20
1258.073641
 30
0.0
 11
1217.941771
 21
1264.455233
 31
0.0
  0
LINE
  5
81F
100
AcDbEntity
  8
紙巻器
  6
CONTINUOUS
 62
     6
100
AcDbLine
 10
1217.941771
 20
1240.073641
 30
0.0
 11
1217.941771
 21
1248.073641
 31
0.0
  0
LINE
  5
820
100
AcDbEntity
  8
紙巻器
  6
CONTINUOUS
 62
     6
100
AcDbLine
 10
1217.941771
 20
1174.692049
 30
0.0
 11
1217.941771
 21
1212.073641
 31
0.0
  0
LINE
  5
821
100
AcDbEntity
  8
紙巻器
  6
CONTINUOUS
 62
     6
100
AcDbLine
 10
1217.941771
 20
1222.073641
 30
0.0
 11
1217.941771
 21
1230.073641
 31
0.0
  0
LINE
  5
822
100
AcDbEntity
  8
紙巻器
  6
CONTINUOUS
 62
     6
100
AcDbLine
 10
1102.941771
 20
1203.955231
 30
0.0
 11
1095.441771
 21
1203.955231
 31
0.0
  0
ARC
  5
823
100
AcDbEntity
  8
紙巻器
  6
CONTINUOUS
 62
     6
100
AcDbCircle
 10
646.269216
 20
1246.455231
 30
0.0
 40
600.0
100
AcDbArc
 50
356.990588
 51
3.009412
  0
ARC
  5
824
100
AcDbEntity
  8
紙巻器
  6
CONTINUOUS
 62
     6
100
AcDbCircle
 10
1674.614325
 20
1246.455231
 30
0.0
 40
600.0
100
AcDbArc
 50
176.990588
 51
183.009412
  0
ARC
  5
825
100
AcDbEntity
  8
紙巻器
  6
CONTINUOUS
 62
     6
100
AcDbCircle
 10
1092.024894
 20
1270.955231
 30
0.0
 40
18.0
100
AcDbArc
 50
90.0
 51
157.11462
  0
ARC
  5
826
100
AcDbEntity
  8
紙巻器
  6
CONTINUOUS
 62
     6
100
AcDbCircle
 10
1092.024894
 20
1221.955231
 30
0.0
 40
18.0
100
AcDbArc
 50
202.88538
 51
270.0
  0
ARC
  5
827
100
AcDbEntity
  8
紙巻器
  6
CONTINUOUS
 62
     6
100
AcDbCircle
 10
1228.858647
 20
1221.955231
 30
0.0
 40
18.0
100
AcDbArc
 50
270.0
 51
337.11462
  0
ARC
  5
828
100
AcDbEntity
  8
紙巻器
  6
CONTINUOUS
 62
     6
100
AcDbCircle
 10
1228.858647
 20
1270.955231
 30
0.0
 40
18.0
100
AcDbArc
 50
22.88538
 51
90.0
  0
LINE
  5
829
100
AcDbEntity
  8
紙巻器
  6
CONTINUOUS
 62
     6
100
AcDbLine
 10
1092.024894
 20
1288.955231
 30
0.0
 11
1228.858647
 21
1288.955231
 31
0.0
  0
LINE
  5
82A
100
AcDbEntity
  8
紙巻器
  6
CONTINUOUS
 62
     6
100
AcDbLine
 10
1095.441771
 20
1203.955231
 30
0.0
 11
1095.441771
 21
1288.955231
 31
0.0
  0
LINE
  5
82B
100
AcDbEntity
  8
紙巻器
  6
CONTINUOUS
 62
     6
100
AcDbLine
 10
1225.441771
 20
1203.955231
 30
0.0
 11
1225.441771
 21
1288.955231
 31
0.0
  0
LINE
  5
82C
100
AcDbEntity
  8
紙巻器
  6
CONTINUOUS
 62
     6
100
AcDbLine
 10
1092.024894
 20
1203.955231
 30
0.0
 11
1102.941771
 21
1203.955231
 31
0.0
  0
LINE
  5
82D
100
AcDbEntity
  8
紙巻器
  6
CONTINUOUS
 62
     6
100
AcDbLine
 10
1217.941771
 20
1203.955231
 30
0.0
 11
1228.858647
 21
1203.955231
 31
0.0
  0
LINE
  5
82E
100
AcDbEntity
  8
紙巻器
  6
CONTINUOUS
 62
     6
100
AcDbLine
 10
1160.441771
 20
1308.455231
 30
0.0
 11
1160.441771
 21
1262.455231
 31
0.0
  0
LINE
  5
82F
100
AcDbEntity
  8
紙巻器
  6
CONTINUOUS
 62
     6
100
AcDbLine
 10
1160.441771
 20
1250.455231
 30
0.0
 11
1160.441771
 21
1242.455231
 31
0.0
  0
LINE
  5
830
100
AcDbEntity
  8
紙巻器
  6
CONTINUOUS
 62
     6
100
AcDbLine
 10
1160.441771
 20
1230.455231
 30
0.0
 11
1160.441771
 21
1131.455231
 31
0.0
  0
LINE
  5
831
100
AcDbEntity
  8
紙巻器
  6
CONTINUOUS
 62
     6
100
AcDbLine
 10
1048.440826
 20
1246.455231
 30
0.0
 11
1144.44177
 21
1246.455231
 31
0.0
  0
LINE
  5
832
100
AcDbEntity
  8
紙巻器
  6
CONTINUOUS
 62
     6
100
AcDbLine
 10
1156.441771
 20
1246.455231
 30
0.0
 11
1164.44177
 21
1246.455231
 31
0.0
  0
LINE
  5
833
100
AcDbEntity
  8
紙巻器
  6
CONTINUOUS
 62
     6
100
AcDbLine
 10
1272.442715
 20
1246.455231
 30
0.0
 11
1176.441771
 21
1246.455231
 31
0.0
  0
CIRCLE
  5
834
100
AcDbEntity
  8
紙巻器
  6
EXLTYPE2
 62
     6
100
AcDbCircle
 10
1115.441771
 20
1270.955231
 30
0.0
 40
4.0
  0
CIRCLE
  5
835
100
AcDbEntity
  8
紙巻器
  6
EXLTYPE2
 62
     6
100
AcDbCircle
 10
1205.441771
 20
1270.955231
 30
0.0
 40
4.0
  0
CIRCLE
  5
836
100
AcDbEntity
  8
紙巻器
  6
EXLTYPE2
 62
     6
100
AcDbCircle
 10
1160.441771
 20
1220.955231
 30
0.0
 40
4.0
  0
TEXT
  5
837
100
AcDbEntity
  8
紙巻器
  6
CONTINUOUS
 62
     2
100
AcDbText
 10
809.440449
 20
1348.536445
 30
0.0
 40
40.0
  1
ＮＣ７１ＶＪ
 41
0.805
  7
EXCADSTD
 72
     5
 11
1039.440448
 21
1348.536445
 31
0.0
100
AcDbText
  0
LEADER
  5
838
100
AcDbEntity
  8
紙巻器
  6
CONTINUOUS
 62
     6
100
AcDbLeader
  3
STANDARD
 73
     3
 74
     1
 75
     0
 40
0.0
 76
     3
 10
1078.099777
 20
1282.36098
 30
0.0
 10
1032.128776
 20
1343.574625
 30
0.0
 10
811.0
 20
1343.574625
 30
0.0
 77
     6
1001
ACAD
1000
DSTYLE
1002
{
1070
    41
1040
35.0
1070
     5
1000
_EX_NORM
1070
     6
1000
_EX_NORM
1070
     7
1000
_EX_NORM
1070
   341
1005
2D
1002
}
  0
TEXT
  5
839
100
AcDbEntity
  8
寸法
  6
CONTINUOUS
 62
     2
100
AcDbText
 10
686.441595
 20
2068.999084
 30
0.0
 40
40.0
  1
７０９
 41
0.833
  7
EXCADSTD
 72
     5
 11
805.441594
 21
2068.999084
 31
0.0
100
AcDbText
  0
LINE
  5
83A
100
AcDbEntity
  8
寸法
  6
CONTINUOUS
 62
     3
100
AcDbLine
 10
391.441114
 20
2065.499084
 30
0.0
 11
1100.442076
 21
2065.499084
 31
0.0
  0
LINE
  5
83B
100
AcDbEntity
  8
寸法
  6
CONTINUOUS
 62
     3
100
AcDbLine
 10
426.441114
 20
2071.332418
 30
0.0
 11
391.441114
 21
2065.499084
 31
0.0
  0
LINE
  5
83C
100
AcDbEntity
  8
寸法
  6
CONTINUOUS
 62
     3
100
AcDbLine
 10
391.441114
 20
2065.499084
 30
0.0
 11
426.441114
 21
2059.665751
 31
0.0
  0
LINE
  5
83D
100
AcDbEntity
  8
寸法
  6
CONTINUOUS
 62
     3
100
AcDbLine
 10
1065.442076
 20
2059.665751
 30
0.0
 11
1100.442076
 21
2065.499084
 31
0.0
  0
LINE
  5
83E
100
AcDbEntity
  8
寸法
  6
CONTINUOUS
 62
     3
100
AcDbLine
 10
1100.442076
 20
2065.499084
 30
0.0
 11
1065.442076
 21
2071.332418
 31
0.0
  0
TEXT
  5
83F
100
AcDbEntity
  8
寸法
  6
CONTINUOUS
 62
     2
100
AcDbText
 10
665.941604
 20
2011.499084
 30
0.0
 40
40.0
  1
７５０
 41
0.833
  7
EXCADSTD
 72
     5
 11
784.941604
 21
2011.499084
 31
0.0
100
AcDbText
  0
LINE
  5
840
100
AcDbEntity
  8
寸法
  6
CONTINUOUS
 62
     3
100
AcDbLine
 10
350.441132
 20
2007.999084
 30
0.0
 11
1100.442076
 21
2007.999084
 31
0.0
  0
LINE
  5
841
100
AcDbEntity
  8
寸法
  6
CONTINUOUS
 62
     3
100
AcDbLine
 10
385.441132
 20
2013.832418
 30
0.0
 11
350.441132
 21
2007.999084
 31
0.0
  0
LINE
  5
842
100
AcDbEntity
  8
寸法
  6
CONTINUOUS
 62
     3
100
AcDbLine
 10
350.441132
 20
2007.999084
 30
0.0
 11
385.441132
 21
2002.165751
 31
0.0
  0
LINE
  5
843
100
AcDbEntity
  8
寸法
  6
CONTINUOUS
 62
     3
100
AcDbLine
 10
1065.442076
 20
2002.165751
 30
0.0
 11
1100.442076
 21
2007.999084
 31
0.0
  0
LINE
  5
844
100
AcDbEntity
  8
寸法
  6
CONTINUOUS
 62
     3
100
AcDbLine
 10
1100.442076
 20
2007.999084
 30
0.0
 11
1065.442076
 21
2013.832418
 31
0.0
  0
TEXT
  5
845
100
AcDbEntity
  8
寸法
  6
CONTINUOUS
 62
     2
100
AcDbText
 10
658.941299
 20
1154.955231
 30
0.0
 40
40.0
  1
（８１０）
 41
0.8106
  7
EXCADSTD
 72
     5
 11
851.941298
 21
1154.955231
 31
0.0
100
AcDbText
  0
LINE
  5
846
100
AcDbEntity
  8
寸法
  6
CONTINUOUS
 62
     3
100
AcDbLine
 10
350.440826
 20
1151.455231
 30
0.0
 11
1160.441771
 21
1151.455231
 31
0.0
  0
LINE
  5
847
100
AcDbEntity
  8
寸法
  6
CONTINUOUS
 62
     3
100
AcDbLine
 10
385.440826
 20
1157.288564
 30
0.0
 11
350.440826
 21
1151.455231
 31
0.0
  0
LINE
  5
848
100
AcDbEntity
  8
寸法
  6
CONTINUOUS
 62
     3
100
AcDbLine
 10
350.440826
 20
1151.455231
 30
0.0
 11
385.440826
 21
1145.621897
 31
0.0
  0
LINE
  5
849
100
AcDbEntity
  8
寸法
  6
CONTINUOUS
 62
     3
100
AcDbLine
 10
1125.441771
 20
1145.621897
 30
0.0
 11
1160.441771
 21
1151.455231
 31
0.0
  0
LINE
  5
84A
100
AcDbEntity
  8
寸法
  6
CONTINUOUS
 62
     3
100
AcDbLine
 10
1160.441771
 20
1151.455231
 30
0.0
 11
1125.441771
 21
1157.288564
 31
0.0
  0
TEXT
  5
84B
100
AcDbEntity
  8
寸法
  6
CONTINUOUS
 62
     2
100
AcDbText
 10
1197.5
 20
794.955231
 30
0.0
 40
40.0
  1
（７１０）
 50
90.0
 41
0.8106
  7
EXCADSTD
 72
     5
 11
1197.5
 21
987.95523
 31
0.0
100
AcDbText
  0
LINE
  5
84C
100
AcDbEntity
  8
寸法
  6
CONTINUOUS
 62
     3
100
AcDbLine
 10
1201.0
 20
536.455231
 30
0.0
 11
1201.0
 21
1246.455231
 31
0.0
  0
LINE
  5
84D
100
AcDbEntity
  8
寸法
  6
CONTINUOUS
 62
     3
100
AcDbLine
 10
1195.166667
 20
571.455231
 30
0.0
 11
1201.0
 21
536.455231
 31
0.0
  0
LINE
  5
84E
100
AcDbEntity
  8
寸法
  6
CONTINUOUS
 62
     3
100
AcDbLine
 10
1201.0
 20
536.455231
 30
0.0
 11
1206.833333
 21
571.455231
 31
0.0
  0
LINE
  5
84F
100
AcDbEntity
  8
寸法
  6
CONTINUOUS
 62
     3
100
AcDbLine
 10
1206.833333
 20
1211.455231
 30
0.0
 11
1201.0
 21
1246.455231
 31
0.0
  0
LINE
  5
850
100
AcDbEntity
  8
寸法
  6
CONTINUOUS
 62
     3
100
AcDbLine
 10
1201.0
 20
1246.455231
 30
0.0
 11
1195.166667
 21
1211.455231
 31
0.0
  0
TEXT
  5
851
100
AcDbEntity
  8
寸法
  6
CONTINUOUS
 62
     2
100
AcDbText
 10
488.440827
 20
455.955231
 30
0.0
 40
40.0
  1
３９５
 41
0.833
  7
EXCADSTD
 72
     5
 11
607.440826
 21
455.955231
 31
0.0
100
AcDbText
  0
LINE
  5
852
100
AcDbEntity
  8
寸法
  6
CONTINUOUS
 62
     3
100
AcDbLine
 10
350.440826
 20
452.455231
 30
0.0
 11
745.440826
 21
452.455231
 31
0.0
  0
LINE
  5
853
100
AcDbEntity
  8
寸法
  6
CONTINUOUS
 62
     3
100
AcDbLine
 10
385.440826
 20
458.288564
 30
0.0
 11
350.440826
 21
452.455231
 31
0.0
  0
LINE
  5
854
100
AcDbEntity
  8
寸法
  6
CONTINUOUS
 62
     3
100
AcDbLine
 10
350.440826
 20
452.455231
 30
0.0
 11
385.440826
 21
446.621897
 31
0.0
  0
LINE
  5
855
100
AcDbEntity
  8
寸法
  6
CONTINUOUS
 62
     3
100
AcDbLine
 10
710.440826
 20
446.621897
 30
0.0
 11
745.440826
 21
452.455231
 31
0.0
  0
LINE
  5
856
100
AcDbEntity
  8
寸法
  6
CONTINUOUS
 62
     3
100
AcDbLine
 10
745.440826
 20
452.455231
 30
0.0
 11
710.440826
 21
458.288564
 31
0.0
  0
LINE
  5
857
100
AcDbEntity
  8
寸法
  6
CONTINUOUS
 62
     3
100
AcDbLine
 10
391.441114
 20
2164.346618
 30
0.0
 11
391.441114
 21
2047.999084
 31
0.0
  0
LINE
  5
858
100
AcDbEntity
  8
寸法
  6
CONTINUOUS
 62
     3
100
AcDbLine
 10
340.440826
 20
536.455231
 30
0.0
 11
210.440826
 21
536.455231
 31
0.0
  0
LINE
  5
859
100
AcDbEntity
  8
寸法
  6
CONTINUOUS
 62
     3
100
AcDbLine
 10
745.440826
 20
493.587603
 30
0.0
 11
745.440826
 21
432.455231
 31
0.0
  0
LINE
  5
85A
100
AcDbEntity
  8
寸法
  6
CONTINUOUS
 62
     3
100
AcDbLine
 10
350.440826
 20
526.455231
 30
0.0
 11
350.440826
 21
432.455231
 31
0.0
  0
LINE
  5
85B
100
AcDbEntity
  8
器具明細表
  6
CONTINUOUS
 62
     6
100
AcDbLine
 10
1318.0
 20
2682.63559
 30
0.0
 11
1968.0
 21
2682.63559
 31
0.0
  0
LINE
  5
85C
100
AcDbEntity
  8
器具明細表
  6
CONTINUOUS
 62
     6
100
AcDbLine
 10
1318.0
 20
2617.63559
 30
0.0
 11
1968.0
 21
2617.63559
 31
0.0
  0
LINE
  5
85D
100
AcDbEntity
  8
器具明細表
  6
CONTINUOUS
 62
     6
100
AcDbLine
 10
1318.0
 20
2747.63559
 30
0.0
 11
1968.0
 21
2747.63559
 31
0.0
  0
TEXT
  5
85E
100
AcDbEntity
  8
器具明細表
  6
CONTINUOUS
 62
     2
100
AcDbText
 10
1390.5
 20
2690.13559
 30
0.0
 40
50.0
  1
品番
 41
1.302
  7
EXCADSTD
 72
     5
 11
1532.573
 21
2690.13559
 31
0.0
100
AcDbText
  0
TEXT
  5
85F
100
AcDbEntity
  8
器具明細表
  6
CONTINUOUS
 62
     2
100
AcDbText
 10
1680.5
 20
2690.13559
 30
0.0
 40
50.0
  1
品名
 41
1.218
  7
EXCADSTD
 72
     5
 11
1813.407
 21
2690.13559
 31
0.0
100
AcDbText
  0
TEXT
  5
860
100
AcDbEntity
  8
器具明細表
  6
CONTINUOUS
 62
     2
100
AcDbText
 10
1889.5
 20
2690.13559
 30
0.0
 40
50.0
  1
個数
 41
0.7308
  7
EXCADSTD
 72
     5
 11
1969.2442
 21
2690.13559
 31
0.0
100
AcDbText
  0
TEXT
  5
861
100
AcDbEntity
  8
器具明細表
  6
CONTINUOUS
 62
     2
100
AcDbText
 10
1618.0
 20
2626.38559
 30
0.0
 40
47.5
  1
便器セット
 41
0.815242
  7
EXCADSTD
 72
     5
 11
1848.5
 21
2626.38559
 31
0.0
100
AcDbText
  0
TEXT
  5
862
100
AcDbEntity
  8
器具明細表
  6
CONTINUOUS
 62
     2
100
AcDbText
 10
1906.75
 20
2627.63559
 30
0.0
 40
45.0
  1
１
 41
0.98
  7
EXCADSTD
 72
     5
 11
1948.75
 21
2627.63559
 31
0.0
100
AcDbText
  0
TEXT
  5
863
100
AcDbEntity
  8
器具明細表
  6
CONTINUOUS
 62
     2
100
AcDbText
 10
1318.0
 20
2762.63559
 30
0.0
 40
60.0
  1
器具明細
 41
1.05
  7
EXCADSTD
 72
     5
 11
1618.0
 21
2762.63559
 31
0.0
100
AcDbText
  0
TEXT
  5
864
100
AcDbEntity
  8
器具明細表
  6
CONTINUOUS
 62
     2
100
AcDbText
 10
1318.0
 20
2626.38559
 30
0.0
 40
47.5
  1
ＣＳ７３Ｐ－ＦＷ
 41
0.654316
  7
EXCADSTD
 72
     5
 11
1614.000005
 21
2626.38559
 31
0.0
100
AcDbText
  0
LINE
  5
865
100
AcDbEntity
  8
器具明細表
  6
CONTINUOUS
 62
     6
100
AcDbLine
 10
1318.0
 20
2552.63559
 30
0.0
 11
1968.0
 21
2552.63559
 31
0.0
  0
TEXT
  5
866
100
AcDbEntity
  8
器具明細表
  6
CONTINUOUS
 62
     2
100
AcDbText
 10
1906.75
 20
2562.63559
 30
0.0
 40
45.0
  1
１
 41
0.98
  7
EXCADSTD
 72
     5
 11
1948.75
 21
2562.63559
 31
0.0
100
AcDbText
  0
LINE
  5
867
100
AcDbEntity
  8
器具明細表
  6
CONTINUOUS
 62
     6
100
AcDbLine
 10
1318.0
 20
2747.63559
 30
0.0
 11
1318.0
 21
2552.63559
 31
0.0
  0
LINE
  5
868
100
AcDbEntity
  8
器具明細表
  6
CONTINUOUS
 62
     6
100
AcDbLine
 10
1618.0
 20
2747.63559
 30
0.0
 11
1618.0
 21
2552.63559
 31
0.0
  0
LINE
  5
869
100
AcDbEntity
  8
器具明細表
  6
CONTINUOUS
 62
     6
100
AcDbLine
 10
1888.0
 20
2747.63559
 30
0.0
 11
1888.0
 21
2552.63559
 31
0.0
  0
LINE
  5
86A
100
AcDbEntity
  8
器具明細表
  6
CONTINUOUS
 62
     6
100
AcDbLine
 10
1968.0
 20
2552.63559
 30
0.0
 11
1968.0
 21
2747.63559
 31
0.0
  0
TEXT
  5
86B
100
AcDbEntity
  8
器具明細表
  6
CONTINUOUS
 62
     2
100
AcDbText
 10
1618.0
 20
2561.38559
 30
0.0
 40
47.5
  1
ワンタッチ式紙巻器
 41
0.532491
  7
EXCADSTD
 72
     5
 11
1889.000013
 21
2561.38559
 31
0.0
100
AcDbText
  0
TEXT
  5
86C
100
AcDbEntity
  8
器具明細表
  6
CONTINUOUS
 62
     2
100
AcDbText
 10
1318.0
 20
2497.63559
 30
0.0
 40
45.0
  1
排水接続管、接続パッキンは別途
 41
0.653956
  7
EXCADSTD
 72
     5
 11
1843.499998
 21
2497.63559
 31
0.0
100
AcDbText
  0
TEXT
  5
86D
100
AcDbEntity
  8
器具明細表
  6
CONTINUOUS
 62
     2
100
AcDbText
 10
1318.0
 20
2561.38559
 30
0.0
 40
47.5
  1
ＮＣ７１ＶＪ
 41
0.663158
  7
EXCADSTD
 72
     5
 11
1543.000004
 21
2561.38559
 31
0.0
100
AcDbText
  0
ENDSEC
  0
SECTION
  2
OBJECTS
  0
DICTIONARY
  5
19
100
AcDbDictionary
  3
ACAD_GROUP
350
1A
  3
ACAD_MLINESTYLE
350
1B
  0
DICTIONARY
  5
1A
102
{ACAD_REACTORS
330
19
102
}
100
AcDbDictionary
  0
DICTIONARY
  5
1B
102
{ACAD_REACTORS
330
19
102
}
100
AcDbDictionary
  3
STANDARD
350
1C
  0
MLINESTYLE
  5
1C
102
{ACAD_REACTORS
330
1B
102
}
100
AcDbMlineStyle
  2
Standard
 70
     0
  3

 62
     0
 51
90.0
 52
90.0
 71
     2
 49
0.5
 62
   256
  6
ByLayer
 49
-0.5
 62
   256
  6
ByLayer
  0
ENDSEC
  0
EOF
