  0
SECTION
  2
HEADER
  9
$ACADVER
  1
AC1014
  9
$ACADMAINTVER
 70
     0
  9
$DWGCODEPAGE
  3
ANSI_932
  9
$INSBASE
 10
0.0
 20
0.0
 30
0.0
  9
$EXTMIN
 10
-2.0
 20
8.5
 30
0.0
  9
$EXTMAX
 10
215.253735
 20
288.5
 30
0.0
  9
$LIMMIN
 10
0.0
 20
0.0
  9
$LIMMAX
 10
210.0
 20
297.0
  9
$ORTHOMODE
 70
     0
  9
$REGENMODE
 70
     1
  9
$FILLMODE
 70
     1
  9
$QTEXTMODE
 70
     0
  9
$MIRRTEXT
 70
     1
  9
$DRAGMODE
 70
     2
  9
$LTSCALE
 40
1.0
  9
$OSMODE
 70
     0
  9
$ATTMODE
 70
     1
  9
$TEXTSIZE
 40
0.2
  9
$TRACEWID
 40
0.05
  9
$TEXTSTYLE
  7
STANDARD
  9
$CLAYER
  8
便器
  9
$CELTYPE
  6
CONTINUOUS
  9
$CECOLOR
 62
   256
  9
$CELTSCALE
 40
1.0
  9
$DELOBJ
 70
     1
  9
$DISPSILH
 70
     0
  9
$DIMSCALE
 40
1.0
  9
$DIMASZ
 40
0.18
  9
$DIMEXO
 40
0.0625
  9
$DIMDLI
 40
0.38
  9
$DIMRND
 40
0.0
  9
$DIMDLE
 40
0.0
  9
$DIMEXE
 40
0.18
  9
$DIMTP
 40
0.0
  9
$DIMTM
 40
0.0
  9
$DIMTXT
 40
0.18
  9
$DIMCEN
 40
0.09
  9
$DIMTSZ
 40
0.0
  9
$DIMTOL
 70
     0
  9
$DIMLIM
 70
     0
  9
$DIMTIH
 70
     1
  9
$DIMTOH
 70
     1
  9
$DIMSE1
 70
     0
  9
$DIMSE2
 70
     0
  9
$DIMTAD
 70
     0
  9
$DIMZIN
 70
     0
  9
$DIMBLK
  1

  9
$DIMASO
 70
     1
  9
$DIMSHO
 70
     1
  9
$DIMPOST
  1

  9
$DIMAPOST
  1

  9
$DIMALT
 70
     0
  9
$DIMALTD
 70
     2
  9
$DIMALTF
 40
25.4
  9
$DIMLFAC
 40
1.0
  9
$DIMTOFL
 70
     0
  9
$DIMTVP
 40
0.0
  9
$DIMTIX
 70
     0
  9
$DIMSOXD
 70
     0
  9
$DIMSAH
 70
     0
  9
$DIMBLK1
  1

  9
$DIMBLK2
  1

  9
$DIMSTYLE
  2
STANDARD
  9
$DIMCLRD
 70
     0
  9
$DIMCLRE
 70
     0
  9
$DIMCLRT
 70
     0
  9
$DIMTFAC
 40
1.0
  9
$DIMGAP
 40
0.09
  9
$DIMJUST
 70
     0
  9
$DIMSD1
 70
     0
  9
$DIMSD2
 70
     0
  9
$DIMTOLJ
 70
     1
  9
$DIMTZIN
 70
     0
  9
$DIMALTZ
 70
     0
  9
$DIMALTTZ
 70
     0
  9
$DIMFIT
 70
     3
  9
$DIMUPT
 70
     0
  9
$DIMUNIT
 70
     2
  9
$DIMDEC
 70
     4
  9
$DIMTDEC
 70
     4
  9
$DIMALTU
 70
     2
  9
$DIMALTTD
 70
     2
  9
$DIMTXSTY
  7
STANDARD
  9
$DIMAUNIT
 70
     0
  9
$LUNITS
 70
     2
  9
$LUPREC
 70
     4
  9
$SKETCHINC
 40
0.1
  9
$FILLETRAD
 40
0.0
  9
$AUNITS
 70
     0
  9
$AUPREC
 70
     0
  9
$MENU
  1
acad
  9
$ELEVATION
 40
0.0
  9
$PELEVATION
 40
0.0
  9
$THICKNESS
 40
0.0
  9
$LIMCHECK
 70
     0
  9
$BLIPMODE
 70
     1
  9
$CHAMFERA
 40
0.0
  9
$CHAMFERB
 40
0.0
  9
$CHAMFERC
 40
0.0
  9
$CHAMFERD
 40
0.0
  9
$SKPOLY
 70
     0
  9
$TDCREATE
 40
2454990.341620718
  9
$TDUPDATE
 40
2454990.341620718
  9
$TDINDWG
 40
0.0000000000
  9
$TDUSRTIMER
 40
0.0000000000
  9
$USRTIMER
 70
     1
  9
$ANGBASE
 50
0.0
  9
$ANGDIR
 70
     0
  9
$PDMODE
 70
     0
  9
$PDSIZE
 40
0.0
  9
$PLINEWID
 40
0.0
  9
$COORDS
 70
     1
  9
$SPLFRAME
 70
     0
  9
$SPLINETYPE
 70
     6
  9
$SPLINESEGS
 70
     8
  9
$ATTDIA
 70
     0
  9
$ATTREQ
 70
     1
  9
$HANDLING
 70
     1
  9
$HANDSEED
  5
9E6
  9
$SURFTAB1
 70
     6
  9
$SURFTAB2
 70
     6
  9
$SURFTYPE
 70
     6
  9
$SURFU
 70
     6
  9
$SURFV
 70
     6
  9
$UCSNAME
  2

  9
$UCSORG
 10
0.0
 20
0.0
 30
0.0
  9
$UCSXDIR
 10
1.0
 20
0.0
 30
0.0
  9
$UCSYDIR
 10
0.0
 20
1.0
 30
0.0
  9
$PUCSNAME
  2

  9
$PUCSORG
 10
0.0
 20
0.0
 30
0.0
  9
$PUCSXDIR
 10
1.0
 20
0.0
 30
0.0
  9
$PUCSYDIR
 10
0.0
 20
1.0
 30
0.0
  9
$USERI1
 70
     0
  9
$USERI2
 70
     0
  9
$USERI3
 70
     0
  9
$USERI4
 70
     0
  9
$USERI5
 70
     0
  9
$USERR1
 40
0.0
  9
$USERR2
 40
0.0
  9
$USERR3
 40
0.0
  9
$USERR4
 40
0.0
  9
$USERR5
 40
0.0
  9
$WORLDVIEW
 70
     1
  9
$SHADEDGE
 70
     3
  9
$SHADEDIF
 70
    70
  9
$TILEMODE
 70
     1
  9
$MAXACTVP
 70
    16
  9
$PINSBASE
 10
0.0
 20
0.0
 30
0.0
  9
$PLIMCHECK
 70
     0
  9
$PEXTMIN
 10
1.000000E+20
 20
1.000000E+20
 30
1.000000E+20
  9
$PEXTMAX
 10
-1.000000E+20
 20
-1.000000E+20
 30
-1.000000E+20
  9
$PLIMMIN
 10
0.0
 20
0.0
  9
$PLIMMAX
 10
12.0
 20
9.0
  9
$UNITMODE
 70
     0
  9
$VISRETAIN
 70
     0
  9
$PLINEGEN
 70
     1
  9
$PSLTSCALE
 70
     0
  9
$TREEDEPTH
 70
  3020
  9
$PICKSTYLE
 70
     1
  9
$CMLSTYLE
  2
Standard
  9
$CMLJUST
 70
     0
  9
$CMLSCALE
 40
1.0
  9
$PROXYGRAPHICS
 70
     0
  9
$MEASUREMENT
 70
     0
  0
ENDSEC
  0
SECTION
  2
CLASSES
  0
CLASS
  1
LWPOLYLINE
  2
AcDbPolyline
  3
"AutoCAD"
 90
        0
280
     0
281
     1
  0
CLASS
  1
IMAGE
  2
AcDbRasterImage
  3
ISM
 90
      127
280
     0
281
     1
  0
CLASS
  1
OLE2FRAME
  2
AcDbOle2Frame
  3
""
 90
        0
280
     0
281
     1
  0
CLASS
  1
HATCH
  2
AcDbHatch
  3
"ACAD_SEDONA"
 90
        0
280
     0
281
     1
  0
CLASS
  1
DICTIONARYVAR
  2
AcDbDictionaryVar
  3
"AutoCAD"
 90
        0
280
     0
281
     0
  0
CLASS
  1
RASTERVARIABLES
  2
AcDbRasterVariables
  3
ISM
 90
        0
280
     0
281
     0
  0
CLASS
  1
IMAGEDEF
  2
AcDbRasterImageDef
  3
ISM
 90
        0
280
     0
281
     0
  0
CLASS
  1
IMAGEDEF_REACTOR
  2
AcDbRasterImageDefReactor
  3
ISM
 90
        1
280
     0
281
     0
  0
CLASS
  1
IDBUFFER
  2
AcDbIdBuffer
  3
"Acad"
 90
        0
280
     0
281
     0
  0
CLASS
  1
SPATIAL_FILTER
  2
AcDbSpatialFilter
  3
"Acad"
 90
        0
280
     0
281
     0
  0
CLASS
  1
XRECORD
  2
AcDbXrecord
  3
"<Built In>"
 90
        0
280
     0
281
     0
  0
CLASS
  1
SORTENTSTABLE
  2
AcDbSortentsTable
  3
"AutoCAD"
 90
        0
280
     0
281
     0
  0
CLASS
  1
LAYER_INDEX
  2
AcDbLayerIndex
  3
"Acad"
 90
        0
280
     0
281
     0
  0
CLASS
  1
SPATIAL_INDEX
  2
AcDbSpatialIndex
  3
"Acad"
 90
        0
280
     0
281
     0
  0
CLASS
  1
OBJECT_PTR
  2
CAseDLPNTableRecord
  3
"ASE-LPNTableRecord"
 90
        1
280
     0
281
     0
  0
CLASS
  1
LAYOUT
  2
AcDbLayout
  3
"AutoCAD 2000"
 90
        1
280
     0
281
     0
  0
CLASS
  1
PLOTSETTINGS
  2
AcDbPlotSettings
  3
"AutoCAD 2000"
 90
        1
280
     0
281
     0
  0
CLASS
  1
ACDBDICTIONARYWDFLT
  2
AcDbDictionaryWithDefault
  3
"AutoCAD 2000"
 90
        1
280
     0
281
     0
  0
CLASS
  1
ACDBPLACEHOLDER
  2
AcDbPlaceHolder
  3
"AutoCAD 2000"
 90
        1
280
     0
281
     0
  0
CLASS
  1
VBA_PROJECT
  2
AcDbVbaProject
  3
"acadvba"
 90
        1
280
     0
281
     0
  0
CLASS
  1
WIPEOUT
  2
AcDbWipeout
  3
WipeOut|AutoCAD Express Tool|expresstools@autodesk.com
 90
      127
280
     0
281
     1
  0
CLASS
  1
WIPEOUTVARIABLES
  2
AcDbWipeoutVariables
  3
WipeOut|AutoCAD Express Tool|expresstools@autodesk.com
 90
        0
280
     0
281
     0
  0
CLASS
  1
RTEXT
  2
RText
  3
RText|AutoCAD Express Tool|expresstools@autodesk.com
 90
        0
280
     0
281
     1
  0
CLASS
  1
ARCALIGNEDTEXT
  2
AcDbArcAlignedText
  3
ATEXT|AutoCAD Express Tool|expresstools@autodesk.com
 90
        0
280
     0
281
     1
  0
ENDSEC
  0
SECTION
  2
TABLES
  0
TABLE
  2
VPORT
  5
7
100
AcDbSymbolTable
 70
     1
  0
VPORT
  5
15
100
AcDbSymbolTableRecord
100
AcDbViewportTableRecord
  2
*ACTIVE
 70
     0
 10
0.0
 20
0.0
 11
1.0
 21
1.0
 12
1066.268677
 22
1485.0
 13
0.0
 23
0.0
 14
1.0
 24
1.0
 15
0.0
 25
0.0
 16
0.0
 26
0.0
 36
1.0
 17
0.0
 27
0.0
 37
0.0
 40
2800.0
 41
1.722533
 42
50.0
 43
0.0
 44
0.0
 50
0.0
 51
0.0
 71
     0
 72
   100
 73
     1
 74
     1
 75
     0
 76
     0
 77
     0
 78
     0
  0
ENDTAB
  0
TABLE
  2
LTYPE
  5
4
100
AcDbSymbolTable
 70
     9
  0
LTYPE
  5
11
100
AcDbSymbolTableRecord
100
AcDbLinetypeTableRecord
  2
BYBLOCK
 70
    64
  3

 72
    65
 73
     0
 40
0.0
  0
LTYPE
  5
12
100
AcDbSymbolTableRecord
100
AcDbLinetypeTableRecord
  2
BYLAYER
 70
    64
  3

 72
    65
 73
     0
 40
0.0
  0
LTYPE
  5
13
100
AcDbSymbolTableRecord
100
AcDbLinetypeTableRecord
  2
CONTINUOUS
 70
    64
  3
実線
 72
    65
 73
     0
 40
0.0
  0
LTYPE
  5
1D
100
AcDbSymbolTableRecord
100
AcDbLinetypeTableRecord
  2
EXLTYPE1
 70
    64
  3
破線
 72
    65
 73
     2
 40
3.0
 49
2.0
 74
     0
 49
-1.0
 74
     0
  0
LTYPE
  5
1E
100
AcDbSymbolTableRecord
100
AcDbLinetypeTableRecord
  2
EXLTYPE2
 70
    64
  3
点線
 72
    65
 73
     2
 40
2.0
 49
1.0
 74
     0
 49
-1.0
 74
     0
  0
LTYPE
  5
1F
100
AcDbSymbolTableRecord
100
AcDbLinetypeTableRecord
  2
EXLTYPE3
 70
    64
  3
一点鎖線
 72
    65
 73
     4
 40
10.0
 49
7.0
 74
     0
 49
-1.0
 74
     0
 49
1.0
 74
     0
 49
-1.0
 74
     0
  0
LTYPE
  5
20
100
AcDbSymbolTableRecord
100
AcDbLinetypeTableRecord
  2
EXLTYPE4
 70
    64
  3
二点鎖線
 72
    65
 73
     6
 40
12.0
 49
7.0
 74
     0
 49
-1.0
 74
     0
 49
1.0
 74
     0
 49
-1.0
 74
     0
 49
1.0
 74
     0
 49
-1.0
 74
     0
  0
LTYPE
  5
21
100
AcDbSymbolTableRecord
100
AcDbLinetypeTableRecord
  2
EXLTYPE5
 70
    64
  3
三点鎖線
 72
    65
 73
     8
 40
37.0
 49
30.0
 74
     0
 49
-1.0
 74
     0
 49
1.0
 74
     0
 49
-1.0
 74
     0
 49
1.0
 74
     0
 49
-1.0
 74
     0
 49
1.0
 74
     0
 49
-1.0
 74
     0
  0
LTYPE
  5
22
100
AcDbSymbolTableRecord
100
AcDbLinetypeTableRecord
  2
EXLTYPE6
 70
    64
  3
四点鎖線
 72
    65
 73
    10
 40
39.0
 49
30.0
 74
     0
 49
-1.0
 74
     0
 49
1.0
 74
     0
 49
-1.0
 74
     0
 49
1.0
 74
     0
 49
-1.0
 74
     0
 49
1.0
 74
     0
 49
-1.0
 74
     0
 49
1.0
 74
     0
 49
-1.0
 74
     0
  0
ENDTAB
  0
TABLE
  2
LAYER
  5
2
100
AcDbSymbolTable
 70
     9
  0
LAYER
  5
14
100
AcDbSymbolTableRecord
100
AcDbLayerTableRecord
  2
0
 70
     0
 62
     7
  6
CONTINUOUS
  0
LAYER
  5
25
100
AcDbSymbolTableRecord
100
AcDbLayerTableRecord
  2
枠
 70
    64
 62
     7
  6
CONTINUOUS
  0
LAYER
  5
26
100
AcDbSymbolTableRecord
100
AcDbLayerTableRecord
  2
便器
 70
    64
 62
     7
  6
CONTINUOUS
  0
LAYER
  5
27
100
AcDbSymbolTableRecord
100
AcDbLayerTableRecord
  2
タンク
 70
    64
 62
     7
  6
CONTINUOUS
  0
LAYER
  5
28
100
AcDbSymbolTableRecord
100
AcDbLayerTableRecord
  2
止水栓
 70
    64
 62
     7
  6
CONTINUOUS
  0
LAYER
  5
29
100
AcDbSymbolTableRecord
100
AcDbLayerTableRecord
  2
便座
 70
    64
 62
     7
  6
CONTINUOUS
  0
LAYER
  5
2A
100
AcDbSymbolTableRecord
100
AcDbLayerTableRecord
  2
紙巻器
 70
    64
 62
     7
  6
CONTINUOUS
  0
LAYER
  5
2B
100
AcDbSymbolTableRecord
100
AcDbLayerTableRecord
  2
寸法
 70
    64
 62
     7
  6
CONTINUOUS
  0
LAYER
  5
2C
100
AcDbSymbolTableRecord
100
AcDbLayerTableRecord
  2
器具明細表
 70
    64
 62
     7
  6
CONTINUOUS
  0
ENDTAB
  0
TABLE
  2
STYLE
  5
3
100
AcDbSymbolTable
 70
     5
  0
STYLE
  5
17
100
AcDbSymbolTableRecord
100
AcDbTextStyleTableRecord
  2
STANDARD
 70
     0
 40
0.0
 41
1.0
 50
0.0
 71
     0
 42
0.0
  3
monotxt
  4
extfont
  0
STYLE
  5
23
100
AcDbSymbolTableRecord
100
AcDbTextStyleTableRecord
  2
EXCADSTD
 70
    64
 40
0.0
 41
1.0
 50
0.0
 71
     0
 42
0.2
  3
monotxt
  4
extfont
  0
STYLE
  5
24
100
AcDbSymbolTableRecord
100
AcDbTextStyleTableRecord
  2
EXCADVERT
 70
    68
 40
0.0
 41
1.0
 50
0.0
 71
     0
 42
0.286885
  3
monotxt
  4
extfont
  0
STYLE
  5
C2
100
AcDbSymbolTableRecord
100
AcDbTextStyleTableRecord
  2
EXCADTTF1
 70
    64
 40
0.0
 41
1.0
 50
0.0
 71
     0
 42
0.2
  3
MS Gothic.ttf
  4

1001
ACAD
1000
MS Gothic
1071
    32817
  0
STYLE
  5
109
100
AcDbSymbolTableRecord
100
AcDbTextStyleTableRecord
  2
EXCADDIM1
 70
    64
 40
0.0
 41
0.95
 50
0.0
 71
     0
 42
0.2
  3
monotxt
  4
extfont
  0
ENDTAB
  0
TABLE
  2
VIEW
  5
5
100
AcDbSymbolTable
 70
     0
  0
ENDTAB
  0
TABLE
  2
UCS
  5
6
100
AcDbSymbolTable
 70
     0
  0
ENDTAB
  0
TABLE
  2
APPID
  5
8
100
AcDbSymbolTable
 70
     1
  0
APPID
  5
16
100
AcDbSymbolTableRecord
100
AcDbRegAppTableRecord
  2
ACAD
 70
     0
  0
ENDTAB
  0
TABLE
  2
DIMSTYLE
  5
9
100
AcDbSymbolTable
 70
     1
  0
DIMSTYLE
105
18
100
AcDbSymbolTableRecord
100
AcDbDimStyleTableRecord
  2
STANDARD
 70
     0
  3

  4

  5

  6

  7

 40
1.0
 41
0.18
 42
0.0625
 43
0.38
 44
0.18
 45
0.0
 46
0.0
 47
0.0
 48
0.0
 71
     0
 72
     0
 73
     1
 74
     1
 75
     0
 76
     0
 77
     0
 78
     0
140
0.18
141
0.09
142
0.0
143
25.4
144
1.0
145
0.0
146
1.0
147
0.09
170
     0
171
     2
172
     1
173
     0
174
     0
175
     0
176
     0
177
     0
178
     0
270
     2
271
     4
272
     4
273
     2
274
     2
275
     0
280
     0
281
     0
282
     0
283
     1
284
     0
285
     0
286
     0
287
     0
288
     0
340
17
  0
ENDTAB
  0
TABLE
  2
BLOCK_RECORD
  5
1
100
AcDbSymbolTable
 70
    16
  0
BLOCK_RECORD
  5
A
100
AcDbSymbolTableRecord
100
AcDbBlockTableRecord
  2
*MODEL_SPACE
  0
BLOCK_RECORD
  5
B
100
AcDbSymbolTableRecord
100
AcDbBlockTableRecord
  2
*PAPER_SPACE
  0
BLOCK_RECORD
  5
2D
100
AcDbSymbolTableRecord
100
AcDbBlockTableRecord
  2
_EX_NORM
  0
BLOCK_RECORD
  5
2E
100
AcDbSymbolTableRecord
100
AcDbBlockTableRecord
  2
_EX_BNORM
  0
BLOCK_RECORD
  5
2F
100
AcDbSymbolTableRecord
100
AcDbBlockTableRecord
  2
_EX_BCIR
  0
BLOCK_RECORD
  5
30
100
AcDbSymbolTableRecord
100
AcDbBlockTableRecord
  2
_EX_RCIVIL
  0
BLOCK_RECORD
  5
31
100
AcDbSymbolTableRecord
100
AcDbBlockTableRecord
  2
_EX_SLANT
  0
BLOCK_RECORD
  5
32
100
AcDbSymbolTableRecord
100
AcDbBlockTableRecord
  2
_EX_NONE
  0
BLOCK_RECORD
  5
33
100
AcDbSymbolTableRecord
100
AcDbBlockTableRecord
  2
_EX_CIVIL
  0
BLOCK_RECORD
  5
34
100
AcDbSymbolTableRecord
100
AcDbBlockTableRecord
  2
_EX_WCIR
  0
BLOCK_RECORD
  5
35
100
AcDbSymbolTableRecord
100
AcDbBlockTableRecord
  2
_EX_WCIR2
  0
BLOCK_RECORD
  5
36
100
AcDbSymbolTableRecord
100
AcDbBlockTableRecord
  2
_EX_WNORM
  0
BLOCK_RECORD
  5
37
100
AcDbSymbolTableRecord
100
AcDbBlockTableRecord
  2
_EX_NNORM
  0
BLOCK_RECORD
  5
38
100
AcDbSymbolTableRecord
100
AcDbBlockTableRecord
  2
_EX_BBOX
  0
BLOCK_RECORD
  5
39
100
AcDbSymbolTableRecord
100
AcDbBlockTableRecord
  2
_EX_WBOX
  0
BLOCK_RECORD
  5
3A
100
AcDbSymbolTableRecord
100
AcDbBlockTableRecord
  2
_EX_INTEGRAL
  0
BLOCK_RECORD
  5
3B
100
AcDbSymbolTableRecord
100
AcDbBlockTableRecord
  2
NC510LSK
  0
BLOCK_RECORD
  5
FE
100
AcDbSymbolTableRecord
100
AcDbBlockTableRecord
  2
*D15
  0
ENDTAB
  0
ENDSEC
  0
SECTION
  2
BLOCKS
  0
BLOCK
  5
D
100
AcDbEntity
  8
0
100
AcDbBlockBegin
  2
*MODEL_SPACE
 70
     0
 10
0.0
 20
0.0
 30
0.0
  3
*MODEL_SPACE
  1

  0
ENDBLK
  5
E
100
AcDbEntity
  8
0
100
AcDbBlockEnd
  0
BLOCK
  5
F
100
AcDbEntity
 67
     1
  8
0
100
AcDbBlockBegin
  2
*PAPER_SPACE
 70
     0
 10
0.0
 20
0.0
 30
0.0
  3
*PAPER_SPACE
  1

  0
ENDBLK
  5
10
100
AcDbEntity
 67
     1
  8
0
100
AcDbBlockEnd
  0
BLOCK
  5
3C
100
AcDbEntity
  8
0
100
AcDbBlockBegin
  2
_EX_NORM
 70
     0
 10
0.0
 20
0.0
 30
0.0
  3
_EX_NORM
  1

  0
LINE
  5
3D
100
AcDbEntity
  8
0
  6
CONTINUOUS
 62
     0
100
AcDbLine
 10
0.0
 20
0.0
 30
0.0
 11
-1.0
 21
0.0
 31
0.0
  0
LINE
  5
3E
100
AcDbEntity
  8
0
  6
CONTINUOUS
 62
     0
100
AcDbLine
 10
0.0
 20
0.0
 30
0.0
 11
-1.0
 21
0.166667
 31
0.0
  0
LINE
  5
3F
100
AcDbEntity
  8
0
  6
CONTINUOUS
 62
     0
100
AcDbLine
 10
0.0
 20
0.0
 30
0.0
 11
-1.0
 21
-0.166667
 31
0.0
  0
ENDBLK
  5
40
100
AcDbEntity
  8
0
100
AcDbBlockEnd
  0
BLOCK
  5
41
100
AcDbEntity
  8
0
100
AcDbBlockBegin
  2
_EX_BNORM
 70
     0
 10
0.0
 20
0.0
 30
0.0
  3
_EX_BNORM
  1

  0
LINE
  5
42
100
AcDbEntity
  8
0
  6
CONTINUOUS
 62
     0
100
AcDbLine
 10
0.0
 20
0.0
 30
0.0
 11
-1.0
 21
0.0
 31
0.0
  0
LINE
  5
43
100
AcDbEntity
  8
0
  6
CONTINUOUS
 62
     0
100
AcDbLine
 10
0.0
 20
0.0
 30
0.0
 11
-1.0
 21
0.166667
 31
0.0
  0
LINE
  5
44
100
AcDbEntity
  8
0
  6
CONTINUOUS
 62
     0
100
AcDbLine
 10
0.0
 20
0.0
 30
0.0
 11
-1.0
 21
-0.166667
 31
0.0
  0
LINE
  5
45
100
AcDbEntity
  8
0
  6
CONTINUOUS
 62
     0
100
AcDbLine
 10
0.0
 20
0.0
 30
0.0
 11
-1.0
 21
0.083333
 31
0.0
  0
LINE
  5
46
100
AcDbEntity
  8
0
  6
CONTINUOUS
 62
     0
100
AcDbLine
 10
0.0
 20
0.0
 30
0.0
 11
-1.0
 21
-0.083333
 31
0.0
  0
LINE
  5
47
100
AcDbEntity
  8
0
  6
CONTINUOUS
 62
     0
100
AcDbLine
 10
-1.0
 20
0.166667
 30
0.0
 11
-1.0
 21
-0.166667
 31
0.0
  0
ENDBLK
  5
48
100
AcDbEntity
  8
0
100
AcDbBlockEnd
  0
BLOCK
  5
49
100
AcDbEntity
  8
0
100
AcDbBlockBegin
  2
_EX_BCIR
 70
     0
 10
0.0
 20
0.0
 30
0.0
  3
_EX_BCIR
  1

  0
LINE
  5
4A
100
AcDbEntity
  8
0
  6
CONTINUOUS
 62
     0
100
AcDbLine
 10
0.0
 20
0.0
 30
0.0
 11
-1.0
 21
0.0
 31
0.0
  0
CIRCLE
  5
4B
100
AcDbEntity
  8
0
  6
CONTINUOUS
 62
     0
100
AcDbCircle
 10
0.0
 20
0.0
 30
0.0
 40
0.5
  0
CIRCLE
  5
4C
100
AcDbEntity
  8
0
  6
CONTINUOUS
 62
     0
100
AcDbCircle
 10
0.0
 20
0.0
 30
0.0
 40
0.25
  0
ENDBLK
  5
4D
100
AcDbEntity
  8
0
100
AcDbBlockEnd
  0
BLOCK
  5
4E
100
AcDbEntity
  8
0
100
AcDbBlockBegin
  2
_EX_RCIVIL
 70
     0
 10
0.0
 20
0.0
 30
0.0
  3
_EX_RCIVIL
  1

  0
LINE
  5
4F
100
AcDbEntity
  8
0
  6
CONTINUOUS
 62
     0
100
AcDbLine
 10
0.0
 20
0.0
 30
0.0
 11
-1.0
 21
0.0
 31
0.0
  0
LINE
  5
50
100
AcDbEntity
  8
0
  6
CONTINUOUS
 62
     0
100
AcDbLine
 10
-1.0
 20
-0.25
 30
0.0
 11
0.0
 21
-0.25
 31
0.0
  0
LINE
  5
51
100
AcDbEntity
  8
0
  6
CONTINUOUS
 62
     0
100
AcDbLine
 10
-1.0
 20
-0.125
 30
0.0
 11
0.0
 21
-0.125
 31
0.0
  0
ENDBLK
  5
52
100
AcDbEntity
  8
0
100
AcDbBlockEnd
  0
BLOCK
  5
53
100
AcDbEntity
  8
0
100
AcDbBlockBegin
  2
_EX_SLANT
 70
     0
 10
0.0
 20
0.0
 30
0.0
  3
_EX_SLANT
  1

  0
LINE
  5
54
100
AcDbEntity
  8
0
  6
CONTINUOUS
 62
     0
100
AcDbLine
 10
0.0
 20
0.0
 30
0.0
 11
-1.0
 21
0.0
 31
0.0
  0
LINE
  5
55
100
AcDbEntity
  8
0
  6
CONTINUOUS
 62
     0
100
AcDbLine
 10
0.707107
 20
0.707107
 30
0.0
 11
-0.707107
 21
-0.707107
 31
0.0
  0
ENDBLK
  5
56
100
AcDbEntity
  8
0
100
AcDbBlockEnd
  0
BLOCK
  5
57
100
AcDbEntity
  8
0
100
AcDbBlockBegin
  2
_EX_NONE
 70
     0
 10
0.0
 20
0.0
 30
0.0
  3
_EX_NONE
  1

  0
LINE
  5
58
100
AcDbEntity
  8
0
  6
CONTINUOUS
 62
     0
100
AcDbLine
 10
0.0
 20
0.0
 30
0.0
 11
-1.0
 21
0.0
 31
0.0
  0
ENDBLK
  5
59
100
AcDbEntity
  8
0
100
AcDbBlockEnd
  0
BLOCK
  5
5A
100
AcDbEntity
  8
0
100
AcDbBlockBegin
  2
_EX_CIVIL
 70
     0
 10
0.0
 20
0.0
 30
0.0
  3
_EX_CIVIL
  1

  0
LINE
  5
5B
100
AcDbEntity
  8
0
  6
CONTINUOUS
 62
     0
100
AcDbLine
 10
0.0
 20
0.0
 30
0.0
 11
-1.0
 21
0.0
 31
0.0
  0
LINE
  5
5C
100
AcDbEntity
  8
0
  6
CONTINUOUS
 62
     0
100
AcDbLine
 10
-1.0
 20
0.25
 30
0.0
 11
0.0
 21
0.25
 31
0.0
  0
LINE
  5
5D
100
AcDbEntity
  8
0
  6
CONTINUOUS
 62
     0
100
AcDbLine
 10
-1.0
 20
0.125
 30
0.0
 11
0.0
 21
0.125
 31
0.0
  0
ENDBLK
  5
5E
100
AcDbEntity
  8
0
100
AcDbBlockEnd
  0
BLOCK
  5
5F
100
AcDbEntity
  8
0
100
AcDbBlockBegin
  2
_EX_WCIR
 70
     0
 10
0.0
 20
0.0
 30
0.0
  3
_EX_WCIR
  1

  0
LINE
  5
60
100
AcDbEntity
  8
0
  6
CONTINUOUS
 62
     0
100
AcDbLine
 10
0.0
 20
0.0
 30
0.0
 11
-1.0
 21
0.0
 31
0.0
  0
CIRCLE
  5
61
100
AcDbEntity
  8
0
  6
CONTINUOUS
 62
     0
100
AcDbCircle
 10
0.0
 20
0.0
 30
0.0
 40
0.5
  0
ENDBLK
  5
62
100
AcDbEntity
  8
0
100
AcDbBlockEnd
  0
BLOCK
  5
63
100
AcDbEntity
  8
0
100
AcDbBlockBegin
  2
_EX_WCIR2
 70
     0
 10
0.0
 20
0.0
 30
0.0
  3
_EX_WCIR2
  1

  0
LINE
  5
64
100
AcDbEntity
  8
0
  6
CONTINUOUS
 62
     0
100
AcDbLine
 10
-0.5
 20
0.0
 30
0.0
 11
-1.0
 21
0.0
 31
0.0
  0
CIRCLE
  5
65
100
AcDbEntity
  8
0
  6
CONTINUOUS
 62
     0
100
AcDbCircle
 10
0.0
 20
0.0
 30
0.0
 40
0.5
  0
ENDBLK
  5
66
100
AcDbEntity
  8
0
100
AcDbBlockEnd
  0
BLOCK
  5
67
100
AcDbEntity
  8
0
100
AcDbBlockBegin
  2
_EX_WNORM
 70
     0
 10
0.0
 20
0.0
 30
0.0
  3
_EX_WNORM
  1

  0
LINE
  5
68
100
AcDbEntity
  8
0
  6
CONTINUOUS
 62
     0
100
AcDbLine
 10
-1.0
 20
0.0
 30
0.0
 11
-1.0
 21
0.0
 31
0.0
  0
LINE
  5
69
100
AcDbEntity
  8
0
  6
CONTINUOUS
 62
     0
100
AcDbLine
 10
0.0
 20
0.0
 30
0.0
 11
-1.0
 21
0.166667
 31
0.0
  0
LINE
  5
6A
100
AcDbEntity
  8
0
  6
CONTINUOUS
 62
     0
100
AcDbLine
 10
0.0
 20
0.0
 30
0.0
 11
-1.0
 21
-0.166667
 31
0.0
  0
LINE
  5
6B
100
AcDbEntity
  8
0
  6
CONTINUOUS
 62
     0
100
AcDbLine
 10
-1.0
 20
0.166667
 30
0.0
 11
-1.0
 21
-0.166667
 31
0.0
  0
ENDBLK
  5
6C
100
AcDbEntity
  8
0
100
AcDbBlockEnd
  0
BLOCK
  5
6D
100
AcDbEntity
  8
0
100
AcDbBlockBegin
  2
_EX_NNORM
 70
     0
 10
0.0
 20
0.0
 30
0.0
  3
_EX_NNORM
  1

  0
LINE
  5
6E
100
AcDbEntity
  8
0
  6
CONTINUOUS
 62
     0
100
AcDbLine
 10
0.0
 20
0.0
 30
0.0
 11
-1.0
 21
0.0
 31
0.0
  0
LINE
  5
6F
100
AcDbEntity
  8
0
  6
CONTINUOUS
 62
     0
100
AcDbLine
 10
0.0
 20
0.0
 30
0.0
 11
-1.0
 21
0.166667
 31
0.0
  0
LINE
  5
70
100
AcDbEntity
  8
0
  6
CONTINUOUS
 62
     0
100
AcDbLine
 10
0.0
 20
0.0
 30
0.0
 11
-1.0
 21
-0.166667
 31
0.0
  0
LINE
  5
71
100
AcDbEntity
  8
0
  6
CONTINUOUS
 62
     0
100
AcDbLine
 10
-1.0
 20
0.166667
 30
0.0
 11
-1.0
 21
-0.166667
 31
0.0
  0
ENDBLK
  5
72
100
AcDbEntity
  8
0
100
AcDbBlockEnd
  0
BLOCK
  5
73
100
AcDbEntity
  8
0
100
AcDbBlockBegin
  2
_EX_BBOX
 70
     0
 10
0.0
 20
0.0
 30
0.0
  3
_EX_BBOX
  1

  0
LINE
  5
74
100
AcDbEntity
  8
0
  6
CONTINUOUS
 62
     0
100
AcDbLine
 10
0.0
 20
0.0
 30
0.0
 11
-1.0
 21
0.0
 31
0.0
  0
LINE
  5
75
100
AcDbEntity
  8
0
  6
CONTINUOUS
 62
     0
100
AcDbLine
 10
-0.5
 20
0.5
 30
0.0
 11
0.5
 21
0.5
 31
0.0
  0
LINE
  5
76
100
AcDbEntity
  8
0
  6
CONTINUOUS
 62
     0
100
AcDbLine
 10
0.5
 20
0.5
 30
0.0
 11
0.5
 21
-0.5
 31
0.0
  0
LINE
  5
77
100
AcDbEntity
  8
0
  6
CONTINUOUS
 62
     0
100
AcDbLine
 10
0.5
 20
-0.5
 30
0.0
 11
-0.5
 21
-0.5
 31
0.0
  0
LINE
  5
78
100
AcDbEntity
  8
0
  6
CONTINUOUS
 62
     0
100
AcDbLine
 10
-0.5
 20
-0.5
 30
0.0
 11
-0.5
 21
0.5
 31
0.0
  0
LINE
  5
79
100
AcDbEntity
  8
0
  6
CONTINUOUS
 62
     0
100
AcDbLine
 10
-0.25
 20
0.25
 30
0.0
 11
0.25
 21
0.25
 31
0.0
  0
LINE
  5
7A
100
AcDbEntity
  8
0
  6
CONTINUOUS
 62
     0
100
AcDbLine
 10
0.25
 20
0.25
 30
0.0
 11
0.25
 21
-0.25
 31
0.0
  0
LINE
  5
7B
100
AcDbEntity
  8
0
  6
CONTINUOUS
 62
     0
100
AcDbLine
 10
0.25
 20
-0.25
 30
0.0
 11
-0.25
 21
-0.25
 31
0.0
  0
LINE
  5
7C
100
AcDbEntity
  8
0
  6
CONTINUOUS
 62
     0
100
AcDbLine
 10
-0.25
 20
-0.25
 30
0.0
 11
-0.25
 21
0.25
 31
0.0
  0
ENDBLK
  5
7D
100
AcDbEntity
  8
0
100
AcDbBlockEnd
  0
BLOCK
  5
7E
100
AcDbEntity
  8
0
100
AcDbBlockBegin
  2
_EX_WBOX
 70
     0
 10
0.0
 20
0.0
 30
0.0
  3
_EX_WBOX
  1

  0
LINE
  5
7F
100
AcDbEntity
  8
0
  6
CONTINUOUS
 62
     0
100
AcDbLine
 10
-0.5
 20
0.0
 30
0.0
 11
-1.0
 21
0.0
 31
0.0
  0
LINE
  5
80
100
AcDbEntity
  8
0
  6
CONTINUOUS
 62
     0
100
AcDbLine
 10
-0.5
 20
0.5
 30
0.0
 11
0.5
 21
0.5
 31
0.0
  0
LINE
  5
81
100
AcDbEntity
  8
0
  6
CONTINUOUS
 62
     0
100
AcDbLine
 10
0.5
 20
0.5
 30
0.0
 11
0.5
 21
-0.5
 31
0.0
  0
LINE
  5
82
100
AcDbEntity
  8
0
  6
CONTINUOUS
 62
     0
100
AcDbLine
 10
0.5
 20
-0.5
 30
0.0
 11
-0.5
 21
-0.5
 31
0.0
  0
LINE
  5
83
100
AcDbEntity
  8
0
  6
CONTINUOUS
 62
     0
100
AcDbLine
 10
-0.5
 20
-0.5
 30
0.0
 11
-0.5
 21
0.5
 31
0.0
  0
ENDBLK
  5
84
100
AcDbEntity
  8
0
100
AcDbBlockEnd
  0
BLOCK
  5
85
100
AcDbEntity
  8
0
100
AcDbBlockBegin
  2
_EX_INTEGRAL
 70
     0
 10
0.0
 20
0.0
 30
0.0
  3
_EX_INTEGRAL
  1

  0
LINE
  5
86
100
AcDbEntity
  8
0
  6
CONTINUOUS
 62
     0
100
AcDbLine
 10
0.0
 20
0.0
 30
0.0
 11
-1.0
 21
0.0
 31
0.0
  0
ARC
  5
87
100
AcDbEntity
  8
0
  6
CONTINUOUS
 62
     0
100
AcDbCircle
 10
0.542115
 20
0.164992
 30
0.0
 40
0.56667
100
AcDbArc
 50
73.07249
 51
196.927513
  0
ARC
  5
88
100
AcDbEntity
  8
0
  6
CONTINUOUS
 62
     0
100
AcDbCircle
 10
-0.542115
 20
-0.164992
 30
0.0
 40
0.56667
100
AcDbArc
 50
253.072487
 51
16.927513
  0
ENDBLK
  5
89
100
AcDbEntity
  8
0
100
AcDbBlockEnd
  0
BLOCK
  5
8A
100
AcDbEntity
  8
0
100
AcDbBlockBegin
  2
NC510LSK
 70
     0
 10
0.0
 20
0.0
 30
0.0
  3
NC510LSK
  1

  0
POINT
  5
8B
100
AcDbEntity
  8
0
  6
CONTINUOUS
 62
     7
100
AcDbPoint
 10
0.0
 20
0.0
 30
0.0
  0
ENDBLK
  5
8C
100
AcDbEntity
  8
0
100
AcDbBlockEnd
  0
BLOCK
  5
FF
100
AcDbEntity
  8
0
100
AcDbBlockBegin
  2
*D15
 70
    65
 10
0.0
 20
0.0
 30
0.0
  3
*D15
  1

  0
LINE
  5
100
100
AcDbEntity
  8
便器
  6
CONTINUOUS
 62
     3
100
AcDbLine
 10
1606.0
 20
540.587749
 30
0.0
 11
1606.0
 21
631.0
 31
0.0
  0
LINE
  5
101
100
AcDbEntity
  8
便器
  6
CONTINUOUS
 62
     3
100
AcDbLine
 10
1746.0
 20
540.587749
 30
0.0
 11
1746.0
 21
631.0
 31
0.0
  0
TEXT
  5
102
100
AcDbEntity
  8
便器
  6
CONTINUOUS
 62
     2
100
AcDbText
 10
1626.02
 20
614.5
 30
0.0
 40
40.0
  1
140
 41
0.945
  7
EXCADSTD
 72
     1
 11
1676.0
 21
614.5
 31
0.0
100
AcDbText
  0
LINE
  5
103
100
AcDbEntity
  8
便器
  6
CONTINUOUS
 62
     3
100
AcDbLine
 10
1606.0
 20
611.0
 30
0.0
 11
1746.0
 21
611.0
 31
0.0
  0
LINE
  5
104
100
AcDbEntity
  8
便器
  6
CONTINUOUS
 62
     3
100
AcDbLine
 10
1641.0
 20
616.833333
 30
0.0
 11
1606.0
 21
611.0
 31
0.0
  0
LINE
  5
105
100
AcDbEntity
  8
便器
  6
CONTINUOUS
 62
     3
100
AcDbLine
 10
1606.0
 20
611.0
 30
0.0
 11
1641.0
 21
605.166667
 31
0.0
  0
LINE
  5
106
100
AcDbEntity
  8
便器
  6
CONTINUOUS
 62
     3
100
AcDbLine
 10
1711.0
 20
605.166667
 30
0.0
 11
1746.0
 21
611.0
 31
0.0
  0
LINE
  5
107
100
AcDbEntity
  8
便器
  6
CONTINUOUS
 62
     3
100
AcDbLine
 10
1746.0
 20
611.0
 30
0.0
 11
1711.0
 21
616.833333
 31
0.0
  0
ENDBLK
  5
108
100
AcDbEntity
  8
0
100
AcDbBlockEnd
  0
ENDSEC
  0
SECTION
  2
ENTITIES
  0
TEXT
  5
8D
100
AcDbEntity
  8
枠
  6
CONTINUOUS
 62
     2
100
AcDbText
 10
804.093323
 20
245.818481
 30
0.0
 40
57.5
  1
洋風タンク密結床上排水洗落し便器
 41
0.538696
  7
EXCADSTD
 72
     5
 11
1394.093323
 21
245.818481
 31
0.0
100
AcDbText
  0
TEXT
  5
8E
100
AcDbEntity
  8
枠
  6
CONTINUOUS
 62
     2
100
AcDbText
 10
784.578095
 20
187.110443
 30
0.0
 40
55.0
  1
（タンク／付属金具一式セット品）
 41
0.596591
  7
EXCADSTD
 72
     5
 11
1409.578098
 21
187.110443
 31
0.0
100
AcDbText
  0
LINE
  5
8F
100
AcDbEntity
  8
枠
  6
CONTINUOUS
 62
     7
100
AcDbLine
 10
180.0
 20
85.0
 30
0.0
 11
2000.0
 21
85.0
 31
0.0
  0
LINE
  5
90
100
AcDbEntity
  8
枠
  6
CONTINUOUS
 62
     7
100
AcDbLine
 10
2000.0
 20
85.0
 30
0.0
 11
2000.0
 21
2885.0
 31
0.0
  0
LINE
  5
91
100
AcDbEntity
  8
枠
  6
CONTINUOUS
 62
     7
100
AcDbLine
 10
180.0
 20
85.0
 30
0.0
 11
180.0
 21
2885.0
 31
0.0
  0
LINE
  5
92
100
AcDbEntity
  8
枠
  6
CONTINUOUS
 62
     7
100
AcDbLine
 10
180.0
 20
2885.0
 30
0.0
 11
2000.0
 21
2885.0
 31
0.0
  0
LINE
  5
93
100
AcDbEntity
  8
枠
  6
CONTINUOUS
 62
     7
100
AcDbLine
 10
180.0
 20
305.0
 30
0.0
 11
2000.0
 21
305.0
 31
0.0
  0
LINE
  5
94
100
AcDbEntity
  8
枠
  6
CONTINUOUS
 62
     6
100
AcDbLine
 10
2000.0
 20
185.0
 30
0.0
 11
750.0
 21
185.0
 31
0.0
  0
LINE
  5
95
100
AcDbEntity
  8
枠
  6
CONTINUOUS
 62
     6
100
AcDbLine
 10
1860.0
 20
305.0
 30
0.0
 11
1860.0
 21
185.0
 31
0.0
  0
LINE
  5
96
100
AcDbEntity
  8
枠
  6
CONTINUOUS
 62
     6
100
AcDbLine
 10
1810.0
 20
305.0
 30
0.0
 11
1810.0
 21
185.0
 31
0.0
  0
LINE
  5
97
100
AcDbEntity
  8
枠
  6
CONTINUOUS
 62
     6
100
AcDbLine
 10
1440.0
 20
305.0
 30
0.0
 11
1440.0
 21
85.0
 31
0.0
  0
LINE
  5
98
100
AcDbEntity
  8
枠
  6
CONTINUOUS
 62
     6
100
AcDbLine
 10
1390.0
 20
305.0
 30
0.0
 11
1390.0
 21
85.0
 31
0.0
  0
LINE
  5
99
100
AcDbEntity
  8
枠
  6
CONTINUOUS
 62
     6
100
AcDbLine
 10
800.0
 20
305.0
 30
0.0
 11
800.0
 21
185.0
 31
0.0
  0
LINE
  5
9A
100
AcDbEntity
  8
枠
  6
CONTINUOUS
 62
     6
100
AcDbLine
 10
750.0
 20
305.0
 30
0.0
 11
750.0
 21
85.0
 31
0.0
  0
LINE
  5
9B
100
AcDbEntity
  8
枠
  6
CONTINUOUS
 62
     6
100
AcDbLine
 10
620.0
 20
305.0
 30
0.0
 11
620.0
 21
85.0
 31
0.0
  0
LINE
  5
9C
100
AcDbEntity
  8
枠
  6
CONTINUOUS
 62
     6
100
AcDbLine
 10
490.0
 20
305.0
 30
0.0
 11
490.0
 21
85.0
 31
0.0
  0
LINE
  5
9D
100
AcDbEntity
  8
枠
  6
CONTINUOUS
 62
     6
100
AcDbLine
 10
335.0
 20
305.0
 30
0.0
 11
335.0
 21
85.0
 31
0.0
  0
LINE
  5
9E
100
AcDbEntity
  8
枠
  6
CONTINUOUS
 62
     6
100
AcDbLine
 10
180.0
 20
255.0
 30
0.0
 11
750.0
 21
255.0
 31
0.0
  0
LINE
  5
9F
100
AcDbEntity
  8
枠
  6
CONTINUOUS
 62
     6
100
AcDbLine
 10
1892.653809
 20
208.00293
 30
0.0
 11
1969.993897
 21
286.699829
 31
0.0
  0
LINE
  5
A0
100
AcDbEntity
  8
枠
  6
EXLTYPE2
 62
     7
100
AcDbLine
 10
170.0
 20
1485.0
 30
0.0
 11
-20.0
 21
1485.0
 31
0.0
  0
TEXT
  5
A1
100
AcDbEntity
  8
枠
  6
CONTINUOUS
 62
     2
100
AcDbText
 10
1890.537109
 20
252.722778
 30
0.0
 40
30.0
  1
１
 41
0.826
  7
EXCADSTD
 72
     5
 11
1914.13711
 21
252.722778
 31
0.0
100
AcDbText
  0
TEXT
  5
A2
100
AcDbEntity
  8
枠
  6
CONTINUOUS
 62
     2
100
AcDbText
 10
1931.279297
 20
208.348846
 30
0.0
 40
30.0
  1
１０
 41
0.791
  7
EXCADSTD
 72
     5
 11
1983.067198
 21
208.348846
 31
0.0
100
AcDbText
  0
TEXT
  5
A3
100
AcDbEntity
  8
枠
  6
CONTINUOUS
 62
     2
100
AcDbText
 10
202.5
 20
258.75
 30
0.0
 40
42.5
  1
製図
 41
1.087059
  7
EXCADSTD
 72
     5
 11
303.326
 21
258.75
 31
0.0
100
AcDbText
  0
TEXT
  5
A4
100
AcDbEntity
  8
枠
  6
CONTINUOUS
 62
     2
100
AcDbText
 10
357.5
 20
258.75
 30
0.0
 40
42.5
  1
写図
 41
1.087059
  7
EXCADSTD
 72
     5
 11
458.326
 21
258.75
 31
0.0
100
AcDbText
  0
TEXT
  5
A5
100
AcDbEntity
  8
枠
  6
CONTINUOUS
 62
     2
100
AcDbText
 10
507.5
 20
258.75
 30
0.0
 40
42.5
  1
検図
 41
0.938824
  7
EXCADSTD
 72
     5
 11
594.577
 21
258.75
 31
0.0
100
AcDbText
  0
TEXT
  5
A6
100
AcDbEntity
  8
枠
  6
CONTINUOUS
 62
     2
100
AcDbText
 10
637.5
 20
258.75
 30
0.0
 40
42.5
  1
承認
 41
0.938824
  7
EXCADSTD
 72
     5
 11
724.577
 21
258.75
 31
0.0
100
AcDbText
  0
TEXT
  5
A7
100
AcDbEntity
  8
枠
  6
CONTINUOUS
 62
     2
100
AcDbText
 10
753.75
 20
248.75
 30
0.0
 40
42.5
  1
品
 41
0.84
  7
EXCADSTD
 72
     5
 11
787.75
 21
248.75
 31
0.0
100
AcDbText
  0
TEXT
  5
A8
100
AcDbEntity
  8
枠
  6
CONTINUOUS
 62
     2
100
AcDbText
 10
753.75
 20
198.75
 30
0.0
 40
42.5
  1
名
 41
0.84
  7
EXCADSTD
 72
     5
 11
787.75
 21
198.75
 31
0.0
100
AcDbText
  0
TEXT
  5
A9
100
AcDbEntity
  8
枠
  6
CONTINUOUS
 62
     2
100
AcDbText
 10
1393.75
 20
248.75
 30
0.0
 40
42.5
  1
品
 41
0.84
  7
EXCADSTD
 72
     5
 11
1427.75
 21
248.75
 31
0.0
100
AcDbText
  0
TEXT
  5
AA
100
AcDbEntity
  8
枠
  6
CONTINUOUS
 62
     2
100
AcDbText
 10
1393.75
 20
198.75
 30
0.0
 40
42.5
  1
番
 41
0.84
  7
EXCADSTD
 72
     5
 11
1427.75
 21
198.75
 31
0.0
100
AcDbText
  0
TEXT
  5
AB
100
AcDbEntity
  8
枠
  6
CONTINUOUS
 62
     2
100
AcDbText
 10
1813.75
 20
248.75
 30
0.0
 40
42.5
  1
尺
 41
0.84
  7
EXCADSTD
 72
     5
 11
1847.75
 21
248.75
 31
0.0
100
AcDbText
  0
TEXT
  5
AC
100
AcDbEntity
  8
枠
  6
CONTINUOUS
 62
     2
100
AcDbText
 10
1813.75
 20
198.75
 30
0.0
 40
42.5
  1
度
 41
0.84
  7
EXCADSTD
 72
     5
 11
1847.75
 21
198.75
 31
0.0
100
AcDbText
  0
TEXT
  5
AD
100
AcDbEntity
  8
枠
  6
CONTINUOUS
 62
     2
100
AcDbText
 10
1393.75
 20
135.75
 30
0.0
 40
42.5
  1
図
 41
0.84
  7
EXCADSTD
 72
     5
 11
1427.75
 21
135.75
 31
0.0
100
AcDbText
  0
TEXT
  5
AE
100
AcDbEntity
  8
枠
  6
CONTINUOUS
 62
     2
100
AcDbText
 10
1393.75
 20
92.75
 30
0.0
 40
42.5
  1
番
 41
0.84
  7
EXCADSTD
 72
     5
 11
1427.75
 21
92.75
 31
0.0
100
AcDbText
  0
LINE
  5
AF
100
AcDbEntity
  8
枠
  6
EXLTYPE2
 62
     6
100
AcDbLine
 10
170.0
 20
1485.0
 30
0.0
 11
-20.0
 21
1485.0
 31
0.0
  0
LINE
  5
B0
100
AcDbEntity
  8
枠
  6
CONTINUOUS
 62
     7
100
AcDbLine
 10
1285.0
 20
2780.34668
 30
0.0
 11
350.441132
 21
2780.34668
 31
0.0
  0
LINE
  5
B1
100
AcDbEntity
  8
枠
  6
CONTINUOUS
 62
     7
100
AcDbLine
 10
350.440834
 20
1969.999875
 30
0.0
 11
350.441132
 21
2780.34668
 31
0.0
  0
TEXT
  5
B2
100
AcDbEntity
  8
枠
  6
CONTINUOUS
 62
     2
100
AcDbText
 10
978.698883
 20
569.947357
 30
0.0
 40
40.0
  1
Ｆ．Ｌ
 41
0.833
  7
EXCADSTD
 72
     5
 11
1097.698883
 21
569.947357
 31
0.0
100
AcDbText
  0
LINE
  5
B3
100
AcDbEntity
  8
枠
  6
CONTINUOUS
 62
     7
100
AcDbLine
 10
350.440826
 20
566.455231
 30
0.0
 11
1253.0
 21
566.455231
 31
0.0
  0
TEXT
  5
B4
100
AcDbEntity
  8
枠
  6
CONTINUOUS
 62
     2
100
AcDbText
 10
393.394928
 20
1605.910004
 30
0.0
 40
40.0
  1
Ｗ．Ｌ
 50
90.0
 41
0.833
  7
EXCADSTD
 72
     5
 11
393.394928
 21
1724.910003
 31
0.0
100
AcDbText
  0
LINE
  5
B5
100
AcDbEntity
  8
枠
  6
CONTINUOUS
 62
     7
100
AcDbLine
 10
350.440826
 20
566.455231
 30
0.0
 11
350.440826
 21
1741.0
 31
0.0
  0
TEXT
  5
B6
100
AcDbEntity
  8
枠
  6
CONTINUOUS
 62
     2
100
AcDbText
 10
1446.794128
 20
213.75
 30
0.0
 40
62.5
  1
ＣＳ７３Ｐ－ＦＮ
 41
0.53256
  7
EXCADSTD
 72
     5
 11
1763.79413
 21
213.75
 31
0.0
100
AcDbText
  0
TEXT
  5
B7
100
AcDbEntity
  8
枠
  6
CONTINUOUS
 62
     2
100
AcDbText
 10
688.134766
 20
2733.493652
 30
0.0
 40
40.0
  1
Ｗ．Ｌ
 41
0.833
  7
EXCADSTD
 72
     5
 11
807.134765
 21
2733.493652
 31
0.0
100
AcDbText
  0
TEXT
  5
B8
100
AcDbEntity
  8
枠
  6
CONTINUOUS
 62
     7
100
AcDbText
 10
1454.25
 20
100.75
 30
0.0
 40
70.0
  1
Ｃ４５７Ｓ０４４
 41
0.795
  7
EXCADSTD
 72
     5
 11
1984.25
 21
100.75
 31
0.0
100
AcDbText
  0
LINE
  5
B9
100
AcDbEntity
  8
枠
  6
CONTINUOUS
 62
     7
100
AcDbLine
 10
1292.0
 20
566.455231
 30
0.0
 11
1957.0
 21
566.455231
 31
0.0
  0
LINE
  5
BA
100
AcDbEntity
  8
枠
  6
EXLTYPE2
 62
     6
100
AcDbLine
 10
180.0
 20
135.0
 30
0.0
 11
490.0
 21
135.0
 31
0.0
  0
CIRCLE
  5
BB
100
AcDbEntity
  8
枠
  6
CONTINUOUS
 62
     6
100
AcDbCircle
 10
385.0
 20
110.0
 30
0.0
 40
1.0
  0
CIRCLE
  5
BC
100
AcDbEntity
  8
枠
  6
CONTINUOUS
 62
     6
100
AcDbCircle
 10
435.0
 20
110.0
 30
0.0
 40
1.0
  0
CIRCLE
  5
BD
100
AcDbEntity
  8
枠
  6
CONTINUOUS
 62
     6
100
AcDbCircle
 10
230.0
 20
110.0
 30
0.0
 40
1.0
  0
CIRCLE
  5
BE
100
AcDbEntity
  8
枠
  6
CONTINUOUS
 62
     6
100
AcDbCircle
 10
280.0
 20
110.0
 30
0.0
 40
1.0
  0
TEXT
  5
BF
100
AcDbEntity
  8
枠
  6
CONTINUOUS
 62
     6
100
AcDbText
 10
206.5
 20
170.0
 30
0.0
 40
50.0
  1
間瀬
 41
0.8568
  7
EXCADSTD
 72
     5
 11
299.9932
 21
170.0
 31
0.0
100
AcDbText
  0
TEXT
  5
C0
100
AcDbEntity
  8
枠
  6
CONTINUOUS
 62
     6
100
AcDbText
 10
182.5
 20
96.5
 30
0.0
 40
25.0
  1
２１
 41
0.8232
  7
EXCADSTD
 72
     5
 11
227.4134
 21
96.5
 31
0.0
100
AcDbText
  0
TEXT
  5
C1
100
AcDbEntity
  8
枠
  6
CONTINUOUS
 62
     6
100
AcDbText
 10
634.5
 20
170.0
 30
0.0
 40
50.0
  1
古林
 41
0.8568
  7
EXCADSTD
 72
     5
 11
727.9932
 21
170.0
 31
0.0
100
AcDbText
  0
TEXT
  5
C3
100
AcDbEntity
  8
枠
  6
CONTINUOUS
 62
     2
100
AcDbText
 10
770.0
 20
105.0
 30
0.0
 40
45.0
  1
ジャニス工業株式会社
  7
EXCADTTF1
 72
     5
 11
1370.0
 21
105.0
 31
0.0
100
AcDbText
  0
TEXT
  5
C4
100
AcDbEntity
  8
枠
  6
CONTINUOUS
 62
     6
100
AcDbText
 10
240.25
 20
96.5
 30
0.0
 40
25.0
  1
６
 41
0.9912
  7
EXCADSTD
 72
     5
 11
263.85
 21
96.5
 31
0.0
100
AcDbText
  0
TEXT
  5
C5
100
AcDbEntity
  8
枠
  6
CONTINUOUS
 62
     6
100
AcDbText
 10
281.5
 20
96.5
 30
0.0
 40
25.0
  1
２６
 41
0.8232
  7
EXCADSTD
 72
     5
 11
326.4134
 21
96.5
 31
0.0
100
AcDbText
  0
TEXT
  5
C6
100
AcDbEntity
  8
便器
  6
CONTINUOUS
 62
     2
100
AcDbText
 10
1176.941132
 20
2320.84668
 30
0.0
 40
40.0
  1
３５５
 50
90.0
 41
0.833
  7
EXCADSTD
 72
     5
 11
1176.941132
 21
2439.84668
 31
0.0
100
AcDbText
  0
LINE
  5
C7
100
AcDbEntity
  8
便器
  6
CONTINUOUS
 62
     3
100
AcDbLine
 10
1180.441132
 20
2557.84668
 30
0.0
 11
1180.441132
 21
2202.84668
 31
0.0
  0
LINE
  5
C8
100
AcDbEntity
  8
便器
  6
CONTINUOUS
 62
     3
100
AcDbLine
 10
1186.274465
 20
2522.84668
 30
0.0
 11
1180.441132
 21
2557.84668
 31
0.0
  0
LINE
  5
C9
100
AcDbEntity
  8
便器
  6
CONTINUOUS
 62
     3
100
AcDbLine
 10
1180.441132
 20
2557.84668
 30
0.0
 11
1174.607798
 21
2522.84668
 31
0.0
  0
LINE
  5
CA
100
AcDbEntity
  8
便器
  6
CONTINUOUS
 62
     3
100
AcDbLine
 10
1174.607798
 20
2237.84668
 30
0.0
 11
1180.441132
 21
2202.84668
 31
0.0
  0
LINE
  5
CB
100
AcDbEntity
  8
便器
  6
CONTINUOUS
 62
     3
100
AcDbLine
 10
1180.441132
 20
2202.84668
 30
0.0
 11
1186.274465
 21
2237.84668
 31
0.0
  0
TEXT
  5
CC
100
AcDbEntity
  8
便器
  6
CONTINUOUS
 62
     2
100
AcDbText
 10
820.941132
 20
2128.999084
 30
0.0
 40
40.0
  1
４４０
 41
0.833
  7
EXCADSTD
 72
     5
 11
939.941131
 21
2128.999084
 31
0.0
100
AcDbText
  0
LINE
  5
CD
100
AcDbEntity
  8
便器
  6
CONTINUOUS
 62
     3
100
AcDbLine
 10
660.441132
 20
2125.499084
 30
0.0
 11
1100.441132
 21
2125.499084
 31
0.0
  0
LINE
  5
CE
100
AcDbEntity
  8
便器
  6
CONTINUOUS
 62
     3
100
AcDbLine
 10
695.441132
 20
2131.332418
 30
0.0
 11
660.441132
 21
2125.499084
 31
0.0
  0
LINE
  5
CF
100
AcDbEntity
  8
便器
  6
CONTINUOUS
 62
     3
100
AcDbLine
 10
660.441132
 20
2125.499084
 30
0.0
 11
695.441132
 21
2119.665751
 31
0.0
  0
LINE
  5
D0
100
AcDbEntity
  8
便器
  6
CONTINUOUS
 62
     3
100
AcDbLine
 10
1065.441132
 20
2119.665751
 30
0.0
 11
1100.441132
 21
2125.499084
 31
0.0
  0
LINE
  5
D1
100
AcDbEntity
  8
便器
  6
CONTINUOUS
 62
     3
100
AcDbLine
 10
1100.441132
 20
2125.499084
 30
0.0
 11
1065.441132
 21
2131.332418
 31
0.0
  0
TEXT
  5
D2
100
AcDbEntity
  8
便器
  6
CONTINUOUS
 62
     2
100
AcDbText
 10
1133.5
 20
681.955231
 30
0.0
 40
40.0
  1
３５０
 50
90.0
 41
0.833
  7
EXCADSTD
 72
     5
 11
1133.5
 21
800.955231
 31
0.0
100
AcDbText
  0
LINE
  5
D3
100
AcDbEntity
  8
便器
  6
CONTINUOUS
 62
     3
100
AcDbLine
 10
1137.0
 20
916.455231
 30
0.0
 11
1137.0
 21
566.455231
 31
0.0
  0
LINE
  5
D4
100
AcDbEntity
  8
便器
  6
CONTINUOUS
 62
     3
100
AcDbLine
 10
1142.833333
 20
881.455231
 30
0.0
 11
1137.0
 21
916.455231
 31
0.0
  0
LINE
  5
D5
100
AcDbEntity
  8
便器
  6
CONTINUOUS
 62
     3
100
AcDbLine
 10
1137.0
 20
916.455231
 30
0.0
 11
1131.166667
 21
881.455231
 31
0.0
  0
LINE
  5
D6
100
AcDbEntity
  8
便器
  6
CONTINUOUS
 62
     3
100
AcDbLine
 10
1131.166667
 20
601.455231
 30
0.0
 11
1137.0
 21
566.455231
 31
0.0
  0
LINE
  5
D7
100
AcDbEntity
  8
便器
  6
CONTINUOUS
 62
     3
100
AcDbLine
 10
1137.0
 20
566.455231
 30
0.0
 11
1142.833333
 21
601.455231
 31
0.0
  0
TEXT
  5
D8
100
AcDbEntity
  8
便器
  6
CONTINUOUS
 62
     2
100
AcDbText
 10
226.940826
 20
689.45532
 30
0.0
 40
40.0
  1
３６５
 50
90.0
 41
0.833
  7
EXCADSTD
 72
     5
 11
226.940826
 21
808.455319
 31
0.0
100
AcDbText
  0
LINE
  5
D9
100
AcDbEntity
  8
便器
  6
CONTINUOUS
 62
     3
100
AcDbLine
 10
230.440826
 20
931.455408
 30
0.0
 11
230.440826
 21
566.455231
 31
0.0
  0
LINE
  5
DA
100
AcDbEntity
  8
便器
  6
CONTINUOUS
 62
     3
100
AcDbLine
 10
236.27416
 20
896.455408
 30
0.0
 11
230.440826
 21
931.455408
 31
0.0
  0
LINE
  5
DB
100
AcDbEntity
  8
便器
  6
CONTINUOUS
 62
     3
100
AcDbLine
 10
230.440826
 20
931.455408
 30
0.0
 11
224.607493
 21
896.455408
 31
0.0
  0
LINE
  5
DC
100
AcDbEntity
  8
便器
  6
CONTINUOUS
 62
     3
100
AcDbLine
 10
224.607493
 20
601.455231
 30
0.0
 11
230.440826
 21
566.455231
 31
0.0
  0
LINE
  5
DD
100
AcDbEntity
  8
便器
  6
CONTINUOUS
 62
     3
100
AcDbLine
 10
230.440826
 20
566.455231
 30
0.0
 11
236.27416
 21
601.455231
 31
0.0
  0
LINE
  5
DE
100
AcDbEntity
  8
便器
  6
CONTINUOUS
 62
     3
100
AcDbLine
 10
535.813691
 20
732.982285
 30
0.0
 11
814.916637
 21
782.195409
 31
0.0
  0
ARC
  5
DF
100
AcDbEntity
  8
便器
  6
CONTINUOUS
 62
     3
100
AcDbCircle
 10
555.50856
 20
736.455118
 30
0.0
 40
243.409761
100
AcDbArc
 50
349.40756
 51
20.592389
  0
LINE
  5
E0
100
AcDbEntity
  8
便器
  6
CONTINUOUS
 62
     3
100
AcDbLine
 10
804.751697
 20
701.455231
 30
0.0
 11
798.918363
 21
736.455231
 31
0.0
  0
LINE
  5
E1
100
AcDbEntity
  8
便器
  6
CONTINUOUS
 62
     3
100
AcDbLine
 10
798.918363
 20
736.455231
 30
0.0
 11
793.08503
 21
701.455231
 31
0.0
  0
LINE
  5
E2
100
AcDbEntity
  8
便器
  6
CONTINUOUS
 62
     3
100
AcDbLine
 10
783.39811
 20
812.177797
 30
0.0
 11
795.220479
 21
778.722463
 31
0.0
  0
LINE
  5
E3
100
AcDbEntity
  8
便器
  6
CONTINUOUS
 62
     3
100
AcDbLine
 10
795.220479
 20
778.722463
 30
0.0
 11
794.887536
 21
814.203682
 31
0.0
  0
TEXT
  5
E4
100
AcDbEntity
  8
便器
  6
CONTINUOUS
 62
     2
100
AcDbText
 10
860.868984
 20
715.182634
 30
0.0
 40
40.0
  1
１０
 50
90.0
 41
0.861
  7
EXCADSTD
 72
     5
 11
860.868984
 21
790.343834
 31
0.0
100
AcDbText
  0
TEXT
  5
E5
100
AcDbEntity
  8
便器
  6
CONTINUOUS
 62
     2
100
AcDbText
 10
860.868984
 20
793.182634
 30
0.0
 40
40.0
  1
ﾟ
 50
90.0
 41
0.5625
  7
EXCADSTD
 72
     5
 11
860.868984
 21
807.807634
 31
0.0
100
AcDbText
  0
TEXT
  5
E6
100
AcDbEntity
  8
便器
  6
CONTINUOUS
 62
     2
100
AcDbText
 10
695.732841
 20
591.955306
 30
0.0
 40
40.0
  1
１７０
 50
90.0
 41
0.833
  7
EXCADSTD
 72
     5
 11
695.732841
 21
710.955306
 31
0.0
100
AcDbText
  0
LINE
  5
E7
100
AcDbEntity
  8
便器
  6
CONTINUOUS
 62
     3
100
AcDbLine
 10
699.232841
 20
566.455382
 30
0.0
 11
699.232841
 21
736.455231
 31
0.0
  0
LINE
  5
E8
100
AcDbEntity
  8
便器
  6
CONTINUOUS
 62
     3
100
AcDbLine
 10
693.399507
 20
601.455382
 30
0.0
 11
699.232841
 21
566.455382
 31
0.0
  0
LINE
  5
E9
100
AcDbEntity
  8
便器
  6
CONTINUOUS
 62
     3
100
AcDbLine
 10
699.232841
 20
566.455382
 30
0.0
 11
705.066174
 21
601.455382
 31
0.0
  0
LINE
  5
EA
100
AcDbEntity
  8
便器
  6
CONTINUOUS
 62
     3
100
AcDbLine
 10
705.066174
 20
701.455231
 30
0.0
 11
699.232841
 21
736.455231
 31
0.0
  0
LINE
  5
EB
100
AcDbEntity
  8
便器
  6
CONTINUOUS
 62
     3
100
AcDbLine
 10
699.232841
 20
736.455231
 30
0.0
 11
693.399507
 21
701.455231
 31
0.0
  0
TEXT
  5
EC
100
AcDbEntity
  8
便器
  6
CONTINUOUS
 62
     2
100
AcDbText
 10
393.475338
 20
499.955231
 30
0.0
 40
40.0
  1
２０５
 41
0.833
  7
EXCADSTD
 72
     5
 11
512.475337
 21
499.955231
 31
0.0
100
AcDbText
  0
LINE
  5
ED
100
AcDbEntity
  8
便器
  6
CONTINUOUS
 62
     3
100
AcDbLine
 10
350.440826
 20
496.455231
 30
0.0
 11
555.509849
 21
496.455231
 31
0.0
  0
LINE
  5
EE
100
AcDbEntity
  8
便器
  6
CONTINUOUS
 62
     3
100
AcDbLine
 10
385.440826
 20
502.288564
 30
0.0
 11
350.440826
 21
496.455231
 31
0.0
  0
LINE
  5
EF
100
AcDbEntity
  8
便器
  6
CONTINUOUS
 62
     3
100
AcDbLine
 10
350.440826
 20
496.455231
 30
0.0
 11
385.440826
 21
490.621897
 31
0.0
  0
LINE
  5
F0
100
AcDbEntity
  8
便器
  6
CONTINUOUS
 62
     3
100
AcDbLine
 10
520.509849
 20
490.621897
 30
0.0
 11
555.509849
 21
496.455231
 31
0.0
  0
LINE
  5
F1
100
AcDbEntity
  8
便器
  6
CONTINUOUS
 62
     3
100
AcDbLine
 10
555.509849
 20
496.455231
 30
0.0
 11
520.509849
 21
502.288564
 31
0.0
  0
TEXT
  5
F2
100
AcDbEntity
  8
便器
  6
CONTINUOUS
 62
     2
100
AcDbText
 10
485.466555
 20
777.414609
 30
0.0
 40
40.0
  1
φ９６
 50
280.0
 41
0.735
  7
EXCADSTD
 72
     5
 11
503.699615
 21
674.009788
 31
0.0
100
AcDbText
  0
LINE
  5
F3
100
AcDbEntity
  8
便器
  6
CONTINUOUS
 62
     3
100
AcDbLine
 10
482.80116
 20
772.375117
 30
0.0
 11
499.471355
 21
677.833743
 31
0.0
  0
LINE
  5
F4
100
AcDbEntity
  8
便器
  6
CONTINUOUS
 62
     3
100
AcDbLine
 10
494.623559
 20
738.919793
 30
0.0
 11
482.80116
 21
772.375117
 31
0.0
  0
LINE
  5
F5
100
AcDbEntity
  8
便器
  6
CONTINUOUS
 62
     3
100
AcDbLine
 10
482.80116
 20
772.375117
 30
0.0
 11
483.134135
 21
736.893898
 31
0.0
  0
LINE
  5
F6
100
AcDbEntity
  8
便器
  6
CONTINUOUS
 62
     3
100
AcDbLine
 10
487.648957
 20
711.289067
 30
0.0
 11
499.471355
 21
677.833743
 31
0.0
  0
LINE
  5
F7
100
AcDbEntity
  8
便器
  6
CONTINUOUS
 62
     3
100
AcDbLine
 10
499.471355
 20
677.833743
 30
0.0
 11
499.138381
 21
713.314962
 31
0.0
  0
TEXT
  5
F8
100
AcDbEntity
  8
便器
  6
CONTINUOUS
 62
     2
100
AcDbText
 10
286.941133
 20
2178.34668
 30
0.0
 40
40.0
  1
２８５
 50
90.0
 41
0.833
  7
EXCADSTD
 72
     5
 11
286.941133
 21
2297.34668
 31
0.0
100
AcDbText
  0
LINE
  5
F9
100
AcDbEntity
  8
便器
  6
CONTINUOUS
 62
     3
100
AcDbLine
 10
290.441133
 20
2095.34668
 30
0.0
 11
290.441133
 21
2380.34668
 31
0.0
  0
LINE
  5
FA
100
AcDbEntity
  8
便器
  6
CONTINUOUS
 62
     3
100
AcDbLine
 10
284.6078
 20
2130.34668
 30
0.0
 11
290.441133
 21
2095.34668
 31
0.0
  0
LINE
  5
FB
100
AcDbEntity
  8
便器
  6
CONTINUOUS
 62
     3
100
AcDbLine
 10
290.441133
 20
2095.34668
 30
0.0
 11
296.274466
 21
2130.34668
 31
0.0
  0
LINE
  5
FC
100
AcDbEntity
  8
便器
  6
CONTINUOUS
 62
     3
100
AcDbLine
 10
296.274466
 20
2345.34668
 30
0.0
 11
290.441133
 21
2380.34668
 31
0.0
  0
LINE
  5
FD
100
AcDbEntity
  8
便器
  6
CONTINUOUS
 62
     3
100
AcDbLine
 10
290.441133
 20
2380.34668
 30
0.0
 11
284.6078
 21
2345.34668
 31
0.0
  0
DIMENSION
  5
10A
100
AcDbEntity
  8
便器
  6
CONTINUOUS
 62
     3
100
AcDbDimension
  2
*D15
 10
1746.0
 20
611.0
 30
0.0
 11
1676.0
 21
634.5
 31
0.0
 70
   160
  1
140
  3
STANDARD
100
AcDbAlignedDimension
 13
1606.0
 23
533.587749
 33
0.0
 14
1746.0
 24
533.587749
 34
0.0
100
AcDbRotatedDimension
1001
ACAD
1000
DSTYLE
1002
{
1070
     6
1000
_EX_NORM
1070
     7
1000
_EX_NORM
1070
    41
1040
35.0
1070
    42
1040
7.0
1070
    44
1040
20.0
1070
    73
1070
     0
1070
    74
1070
     0
1070
    75
1070
     0
1070
    76
1070
     0
1070
    77
1070
     1
1070
    78
1070
     0
1070
   140
1040
40.0
1070
   147
1040
3.5
1070
   173
1070
     1
1070
   176
1070
     3
1070
   177
1070
     3
1070
   178
1070
     2
1070
   271
1070
     0
1070
   279
1070
     2
1070
   280
1070
     0
1070
   287
1070
     5
1070
   340
1005
109
1002
}
  0
LINE
  5
10B
100
AcDbEntity
  8
便器
  6
EXLTYPE2
 62
     2
100
AcDbLine
 10
551.248383
 20
2525.876557
 30
0.0
 11
487.815336
 21
2519.485179
 31
0.0
  0
ARC
  5
10C
100
AcDbEntity
  8
便器
  6
EXLTYPE2
 62
     2
100
AcDbCircle
 10
784.441102
 20
2380.34668
 30
0.0
 40
200.0
100
AcDbArc
 50
158.247925
 51
201.930603
  0
ARC
  5
10D
100
AcDbEntity
  8
便器
  6
EXLTYPE2
 62
     2
100
AcDbCircle
 10
812.514252
 20
2333.632096
 30
0.0
 40
150.0
100
AcDbArc
 50
31.268616
 51
78.798218
  0
ARC
  5
10E
100
AcDbEntity
  8
便器
  6
EXLTYPE2
 62
     2
100
AcDbCircle
 10
626.742829
 20
2443.838837
 30
0.0
 40
30.0
100
AcDbArc
 50
96.234741
 51
158.069397
  0
CIRCLE
  5
10F
100
AcDbEntity
  8
便器
  6
EXLTYPE2
 62
     2
100
AcDbCircle
 10
745.441132
 20
2310.34668
 30
0.0
 40
5.5
  0
CIRCLE
  5
110
100
AcDbEntity
  8
便器
  6
EXLTYPE2
 62
     2
100
AcDbCircle
 10
745.441132
 20
2450.34668
 30
0.0
 40
5.5
  0
ARC
  5
111
100
AcDbEntity
  8
便器
  6
EXLTYPE2
 62
     2
100
AcDbCircle
 10
842.475373
 20
2402.650482
 30
0.0
 40
400.0
100
AcDbArc
 50
185.910211
 51
201.870619
  0
ARC
  5
112
100
AcDbEntity
  8
便器
  6
EXLTYPE2
 62
     2
100
AcDbCircle
 10
489.820344
 20
2261.107437
 30
0.0
 40
20.0
100
AcDbArc
 50
201.868774
 51
264.246399
  0
ARC
  5
113
100
AcDbEntity
  8
便器
  6
EXLTYPE2
 62
     2
100
AcDbCircle
 10
842.475373
 20
2358.042877
 30
0.0
 40
400.0
100
AcDbArc
 50
158.131251
 51
174.089788
  0
ARC
  5
114
100
AcDbEntity
  8
便器
  6
EXLTYPE2
 62
     2
100
AcDbCircle
 10
489.820344
 20
2499.585907
 30
0.0
 40
20.0
100
AcDbArc
 50
95.753601
 51
158.131226
  0
LINE
  5
115
100
AcDbEntity
  8
便器
  6
EXLTYPE2
 62
     2
100
AcDbLine
 10
774.395173
 20
2275.34668
 30
0.0
 11
795.030396
 21
2275.34668
 31
0.0
  0
ARC
  5
116
100
AcDbEntity
  8
便器
  6
EXLTYPE2
 62
     2
100
AcDbCircle
 10
836.445465
 20
2752.84668
 30
0.0
 40
550.0
100
AcDbArc
 50
265.865173
 51
279.551941
  0
ARC
  5
117
100
AcDbEntity
  8
便器
  6
EXLTYPE2
 62
     2
100
AcDbCircle
 10
886.227906
 20
2457.006104
 30
0.0
 40
250.0
100
AcDbArc
 50
279.551941
 51
309.950989
  0
ARC
  5
118
100
AcDbEntity
  8
便器
  6
EXLTYPE2
 62
     2
100
AcDbCircle
 10
795.030396
 20
2515.34668
 30
0.0
 40
240.0
100
AcDbArc
 50
270.0
 51
281.201782
  0
ARC
  5
119
100
AcDbEntity
  8
便器
  6
EXLTYPE2
 62
     2
100
AcDbCircle
 10
836.445465
 20
2007.84668
 30
0.0
 40
550.0
100
AcDbArc
 50
80.448059
 51
94.134827
  0
ARC
  5
11A
100
AcDbEntity
  8
便器
  6
EXLTYPE2
 62
     2
100
AcDbCircle
 10
886.227906
 20
2303.687256
 30
0.0
 40
250.0
100
AcDbArc
 50
50.049011
 51
80.448059
  0
ARC
  5
11B
100
AcDbEntity
  8
便器
  6
EXLTYPE2
 62
     2
100
AcDbCircle
 10
950.441132
 20
2380.34668
 30
0.0
 40
150.0
100
AcDbArc
 50
309.950989
 51
50.04895
  0
ARC
  5
11C
100
AcDbEntity
  8
便器
  6
EXLTYPE2
 62
     2
100
AcDbCircle
 10
884.130066
 20
87.85669
 30
0.0
 40
2400.0
100
AcDbArc
 50
92.620636
 51
96.235444
  0
ARC
  5
11D
100
AcDbEntity
  8
便器
  6
EXLTYPE2
 62
     2
100
AcDbCircle
 10
889.441132
 20
2380.34668
 30
0.0
 40
60.0
100
AcDbArc
 50
328.731384
 51
29.434662
  0
ARC
  5
11E
100
AcDbEntity
  8
便器
  6
EXLTYPE2
 62
     2
100
AcDbCircle
 10
812.514252
 20
2427.061264
 30
0.0
 40
150.0
100
AcDbArc
 50
281.201782
 51
328.731384
  0
LINE
  5
11F
100
AcDbEntity
  8
便器
  6
EXLTYPE2
 62
     2
100
AcDbLine
 10
551.248383
 20
2234.816803
 30
0.0
 11
487.815336
 21
2241.208181
 31
0.0
  0
LINE
  5
120
100
AcDbEntity
  8
便器
  6
EXLTYPE2
 62
     2
100
AcDbLine
 10
774.395173
 20
2485.34668
 30
0.0
 11
795.030396
 21
2485.34668
 31
0.0
  0
ARC
  5
121
100
AcDbEntity
  8
便器
  6
EXLTYPE2
 62
     2
100
AcDbCircle
 10
795.030396
 20
2245.34668
 30
0.0
 40
240.0
100
AcDbArc
 50
78.798218
 51
90.0
  0
ARC
  5
122
100
AcDbEntity
  8
便器
  6
EXLTYPE2
 62
     2
100
AcDbCircle
 10
884.130066
 20
4672.83667
 30
0.0
 40
2400.0
100
AcDbArc
 50
263.764556
 51
267.379364
  0
ARC
  5
123
100
AcDbEntity
  8
便器
  6
EXLTYPE2
 62
     2
100
AcDbCircle
 10
626.742829
 20
2316.854523
 30
0.0
 40
30.0
100
AcDbArc
 50
201.930603
 51
263.765259
  0
LINE
  5
124
100
AcDbEntity
  8
便器
  6
CONTINUOUS
 62
     3
100
AcDbLine
 10
660.441132
 20
2336.347656
 30
0.0
 11
660.441132
 21
2105.499084
 31
0.0
  0
ARC
  5
125
100
AcDbEntity
  8
便器
  6
EXLTYPE2
 62
     2
100
AcDbCircle
 10
969.836701
 20
162.661866
 30
0.0
 40
2400.0
100
AcDbArc
 50
99.182565
 51
100.044434
  0
ARC
  5
126
100
AcDbEntity
  8
便器
  6
EXLTYPE2
 62
     2
100
AcDbCircle
 10
969.836701
 20
4598.031494
 30
0.0
 40
2400.0
100
AcDbArc
 50
259.955566
 51
260.817439
  0
ARC
  5
127
100
AcDbEntity
  8
便器
  6
CONTINUOUS
 62
     7
100
AcDbCircle
 10
969.836701
 20
162.661866
 30
0.0
 40
2400.0
100
AcDbArc
 50
98.713033
 51
99.182565
  0
ARC
  5
128
100
AcDbEntity
  8
便器
  6
CONTINUOUS
 62
     7
100
AcDbCircle
 10
969.836701
 20
4598.031494
 30
0.0
 40
2400.0
100
AcDbArc
 50
260.817439
 51
261.286967
  0
ARC
  5
129
100
AcDbEntity
  8
便器
  6
EXLTYPE2
 62
     2
100
AcDbCircle
 10
969.836701
 20
4598.031494
 30
0.0
 40
2400.0
100
AcDbArc
 50
261.286967
 51
265.865173
  0
ARC
  5
12A
100
AcDbEntity
  8
便器
  6
EXLTYPE2
 62
     2
100
AcDbCircle
 10
969.836701
 20
162.661866
 30
0.0
 40
2400.0
100
AcDbArc
 50
94.134827
 51
98.713033
  0
LINE
  5
12B
100
AcDbEntity
  8
便器
  6
CONTINUOUS
 62
     7
100
AcDbLine
 10
783.851074
 20
751.454987
 30
0.0
 11
783.851074
 21
724.324005
 31
0.0
  0
LINE
  5
12C
100
AcDbEntity
  8
便器
  6
CONTINUOUS
 62
     7
100
AcDbLine
 10
494.498565
 20
859.591339
 30
0.0
 11
551.361923
 21
850.043762
 31
0.0
  0
LINE
  5
12D
100
AcDbEntity
  8
便器
  6
CONTINUOUS
 62
     7
100
AcDbLine
 10
536.440826
 20
852.548981
 30
0.0
 11
539.371765
 21
840.173981
 31
0.0
  0
LINE
  5
12E
100
AcDbEntity
  8
便器
  6
CONTINUOUS
 62
     7
100
AcDbLine
 10
547.280075
 20
831.065658
 30
0.0
 11
555.877283
 21
827.697807
 31
0.0
  0
LINE
  5
12F
100
AcDbEntity
  8
便器
  6
CONTINUOUS
 62
     7
100
AcDbLine
 10
545.665685
 20
843.972785
 30
0.0
 11
546.418914
 21
840.792481
 31
0.0
  0
LINE
  5
130
100
AcDbEntity
  8
便器
  6
CONTINUOUS
 62
     7
100
AcDbLine
 10
551.361923
 20
850.043762
 30
0.0
 11
647.468436
 21
833.907101
 31
0.0
  0
LINE
  5
131
100
AcDbEntity
  8
便器
  6
CONTINUOUS
 62
     7
100
AcDbLine
 10
706.410674
 20
752.64505
 30
0.0
 11
748.144278
 21
670.317524
 31
0.0
  0
LINE
  5
132
100
AcDbEntity
  8
便器
  6
CONTINUOUS
 62
     7
100
AcDbLine
 10
583.612789
 20
790.151122
 30
0.0
 11
582.254634
 21
789.91164
 31
0.0
  0
ARC
  5
133
100
AcDbEntity
  8
便器
  6
CONTINUOUS
 62
     7
100
AcDbCircle
 10
753.850982
 20
751.454987
 30
0.0
 40
30.0
100
AcDbArc
 50
0.0
 51
76.973663
  0
ARC
  5
134
100
AcDbEntity
  8
便器
  6
CONTINUOUS
 62
     7
100
AcDbCircle
 10
2381.595916
 20
465.299042
 30
0.0
 40
1800.0
100
AcDbArc
 50
174.679565
 51
176.778442
  0
ARC
  5
135
100
AcDbEntity
  8
便器
  6
CONTINUOUS
 62
     7
100
AcDbCircle
 10
559.455764
 20
958.054291
 30
0.0
 40
120.0
100
AcDbArc
 50
192.806396
 51
231.942261
  0
ARC
  5
136
100
AcDbEntity
  8
便器
  6
CONTINUOUS
 62
     7
100
AcDbCircle
 10
695.935668
 20
815.629303
 30
0.0
 40
10.0
100
AcDbArc
 50
31.828369
 51
80.468658
  0
ARC
  5
137
100
AcDbEntity
  8
便器
  6
CONTINUOUS
 62
     7
100
AcDbCircle
 10
497.810287
 20
879.315247
 30
0.0
 40
20.0
100
AcDbArc
 50
231.942261
 51
260.46875
  0
ARC
  5
138
100
AcDbEntity
  8
便器
  6
CONTINUOUS
 62
     7
100
AcDbCircle
 10
552.021819
 20
843.170044
 30
0.0
 40
13.0
100
AcDbArc
 50
193.324402
 51
248.608002
  0
ARC
  5
139
100
AcDbEntity
  8
便器
  6
CONTINUOUS
 62
     7
100
AcDbCircle
 10
551.284301
 20
841.944794
 30
0.0
 40
5.0
100
AcDbArc
 50
193.32457
 51
250.612389
  0
ARC
  5
13A
100
AcDbEntity
  8
便器
  6
CONTINUOUS
 62
     7
100
AcDbCircle
 10
550.533996
 20
845.112763
 30
0.0
 40
5.0
100
AcDbArc
 50
80.46875
 51
193.324463
  0
ARC
  5
13B
100
AcDbEntity
  8
便器
  6
CONTINUOUS
 62
     7
100
AcDbCircle
 10
703.851074
 20
724.324005
 30
0.0
 40
80.0
100
AcDbArc
 50
315.584901
 51
0.0
  0
ARC
  5
13C
100
AcDbEntity
  8
便器
  6
CONTINUOUS
 62
     7
100
AcDbCircle
 10
933.806487
 20
696.214844
 30
0.0
 40
10.0
100
AcDbArc
 50
126.467102
 51
194.351563
  0
ARC
  5
13D
100
AcDbEntity
  8
便器
  6
CONTINUOUS
 62
     7
100
AcDbCircle
 10
1092.440826
 20
908.455231
 30
0.0
 40
8.0
100
AcDbArc
 50
0.0
 51
90.0
  0
ARC
  5
13E
100
AcDbEntity
  8
便器
  6
CONTINUOUS
 62
     7
100
AcDbCircle
 10
639.135558
 20
627.569428
 30
0.0
 40
50.0
100
AcDbArc
 50
140.717712
 51
174.679565
  0
ARC
  5
13F
100
AcDbEntity
  8
便器
  6
CONTINUOUS
 62
     7
100
AcDbCircle
 10
780.898834
 20
868.366974
 30
0.0
 40
90.0
100
AcDbArc
 50
211.828369
 51
256.973694
  0
LINE
  5
140
100
AcDbEntity
  8
便器
  6
CONTINUOUS
 62
     7
100
AcDbLine
 10
789.470733
 20
594.933838
 30
0.0
 11
620.272979
 21
594.933838
 31
0.0
  0
ARC
  5
141
100
AcDbEntity
  8
便器
  6
CONTINUOUS
 62
     7
100
AcDbCircle
 10
580.440826
 20
931.455231
 30
0.0
 40
15.0
100
AcDbArc
 50
180.0
 51
270.0
  0
ARC
  5
142
100
AcDbEntity
  8
便器
  6
CONTINUOUS
 62
     7
100
AcDbCircle
 10
-238.433197
 20
396.291352
 30
0.0
 40
1200.0
100
AcDbArc
 50
8.152191
 51
14.351532
  0
ARC
  5
143
100
AcDbEntity
  8
便器
  6
CONTINUOUS
 62
     7
100
AcDbCircle
 10
480.244171
 20
819.267578
 30
0.0
 40
400.0
100
AcDbArc
 50
329.200317
 51
344.363647
  0
ARC
  5
144
100
AcDbEntity
  8
便器
  6
CONTINUOUS
 62
     7
100
AcDbCircle
 10
870.368515
 20
974.948845
 30
0.0
 40
240.0
100
AcDbArc
 50
318.244302
 51
343.177979
  0
ARC
  5
145
100
AcDbEntity
  8
便器
  6
CONTINUOUS
 62
     7
100
AcDbCircle
 10
789.470733
 20
634.933838
 30
0.0
 40
40.0
100
AcDbArc
 50
270.000122
 51
329.200317
  0
ARC
  5
146
100
AcDbEntity
  8
便器
  6
CONTINUOUS
 62
     7
100
AcDbCircle
 10
745.710662
 20
397.972382
 30
0.0
 40
200.0
100
AcDbArc
 50
79.999847
 51
86.422443
  0
ARC
  5
147
100
AcDbEntity
  8
便器
  6
CONTINUOUS
 62
     7
100
AcDbCircle
 10
745.17099
 20
397.972382
 30
0.0
 40
200.0
100
AcDbArc
 50
93.577928
 51
100.000153
  0
ARC
  5
148
100
AcDbEntity
  8
便器
  6
CONTINUOUS
 62
     7
100
AcDbCircle
 10
1092.440826
 20
907.808072
 30
0.0
 40
8.0
100
AcDbArc
 50
343.177979
 51
2.318085
  0
LINE
  5
149
100
AcDbEntity
  8
便器
  6
CONTINUOUS
 62
     7
100
AcDbLine
 10
1092.440826
 20
916.455231
 30
0.0
 11
994.113098
 21
916.455231
 31
0.0
  0
ARC
  5
14A
100
AcDbEntity
  8
便器
  6
CONTINUOUS
 62
     7
100
AcDbCircle
 10
452.373184
 20
1347.614838
 30
0.0
 40
800.0
100
AcDbArc
 50
306.467163
 51
318.292306
  0
ARC
  5
14B
100
AcDbEntity
  8
便器
  6
CONTINUOUS
 62
     7
100
AcDbCircle
 10
452.373184
 20
1347.614838
 30
0.0
 40
800.0
100
AcDbArc
 50
318.25919
 51
318.28125
  0
LINE
  5
14C
100
AcDbEntity
  8
便器
  6
CONTINUOUS
 62
     7
100
AcDbLine
 10
1049.509368
 20
815.234863
 30
0.0
 11
1049.302617
 21
815.005243
 31
0.0
  0
LINE
  5
14D
100
AcDbEntity
  8
便器
  6
CONTINUOUS
 62
     7
100
AcDbLine
 10
1042.920838
 20
807.917594
 30
0.0
 11
1042.834014
 21
807.821167
 31
0.0
  0
LINE
  5
14E
100
AcDbEntity
  8
便器
  6
CONTINUOUS
 62
     7
100
AcDbLine
 10
784.81089
 20
856.455231
 30
0.0
 11
881.3213
 21
856.455231
 31
0.0
  0
LINE
  5
14F
100
AcDbEntity
  8
便器
  6
CONTINUOUS
 62
     7
100
AcDbLine
 10
488.56735
 20
861.579179
 30
0.0
 11
546.01391
 21
831.641599
 31
0.0
  0
LINE
  5
150
100
AcDbEntity
  8
便器
  6
CONTINUOUS
 62
     7
100
AcDbLine
 10
462.44081
 20
901.455384
 30
0.0
 11
540.440826
 21
901.455384
 31
0.0
  0
ARC
  5
151
100
AcDbEntity
  8
便器
  6
CONTINUOUS
 62
     7
100
AcDbCircle
 10
568.254627
 20
958.054291
 30
0.0
 40
120.0
100
AcDbArc
 50
208.141946
 51
223.445677
  0
ARC
  5
152
100
AcDbEntity
  8
便器
  6
CONTINUOUS
 62
     7
100
AcDbCircle
 10
565.440826
 20
931.455231
 30
0.0
 40
15.0
100
AcDbArc
 50
180.0
 51
270.0
  0
ARC
  5
153
100
AcDbEntity
  8
便器
  6
CONTINUOUS
 62
     7
100
AcDbCircle
 10
881.3213
 20
2556.455231
 30
0.0
 40
1700.0
100
AcDbArc
 50
270.0
 51
276.21765
  0
ARC
  5
154
100
AcDbEntity
  8
便器
  6
CONTINUOUS
 62
     7
100
AcDbCircle
 10
620.272979
 20
609.933838
 30
0.0
 40
15.0
100
AcDbArc
 50
180.0
 51
270.0
  0
ARC
  5
155
100
AcDbEntity
  8
便器
  6
CONTINUOUS
 62
     7
100
AcDbCircle
 10
583.091839
 20
793.105544
 30
0.0
 40
3.0
100
AcDbArc
 50
280.000104
 51
14.745883
  0
ARC
  5
156
100
AcDbEntity
  8
便器
  6
CONTINUOUS
 62
     7
100
AcDbCircle
 10
537.63982
 20
781.142518
 30
0.0
 40
50.0
100
AcDbArc
 50
14.745883
 51
68.607847
  0
LINE
  5
157
100
AcDbEntity
  8
便器
  6
CONTINUOUS
 62
     7
100
AcDbLine
 10
603.611978
 20
783.621664
 30
0.0
 11
616.0325
 21
725.776137
 31
0.0
  0
ARC
  5
158
100
AcDbEntity
  8
便器
  6
CONTINUOUS
 62
     7
100
AcDbCircle
 10
607.52284
 20
784.4614
 30
0.0
 40
4.0
100
AcDbArc
 50
46.674838
 51
192.118479
  0
ARC
  5
159
100
AcDbEntity
  8
便器
  6
CONTINUOUS
 62
     7
100
AcDbCircle
 10
653.665685
 20
824.754575
 30
0.0
 40
8.0
100
AcDbArc
 50
134.074269
 51
200.0
  0
ARC
  5
15A
100
AcDbEntity
  8
便器
  6
CONTINUOUS
 62
     7
100
AcDbCircle
 10
755.279831
 20
673.93469
 30
0.0
 40
8.0
100
AcDbArc
 50
206.881436
 51
315.584901
  0
LINE
  5
15B
100
AcDbEntity
  8
便器
  6
CONTINUOUS
 62
     3
100
AcDbLine
 10
386.440868
 20
931.455408
 30
0.0
 11
210.440826
 21
931.455408
 31
0.0
  0
LINE
  5
15C
100
AcDbEntity
  8
便器
  6
CONTINUOUS
 62
     7
100
AcDbLine
 10
583.612789
 20
790.151122
 30
0.0
 11
578.18632
 21
789.194278
 31
0.0
  0
ARC
  5
15D
100
AcDbEntity
  8
便器
  6
CONTINUOUS
 62
     7
100
AcDbCircle
 10
578.456664
 20
787.718842
 30
0.0
 40
1.5
100
AcDbArc
 50
100.001587
 51
189.999817
  0
LINE
  5
15E
100
AcDbEntity
  8
便器
  6
CONTINUOUS
 62
     7
100
AcDbLine
 10
593.127913
 20
695.87531
 30
0.0
 11
576.980126
 21
787.453966
 31
0.0
  0
LINE
  5
15F
100
AcDbEntity
  8
便器
  6
CONTINUOUS
 62
     7
100
AcDbLine
 10
607.673936
 20
693.983437
 30
0.0
 11
586.128504
 21
793.626507
 31
0.0
  0
LINE
  5
160
100
AcDbEntity
  8
便器
  6
CONTINUOUS
 62
     7
100
AcDbLine
 10
594.866424
 20
694.654419
 30
0.0
 11
604.220748
 21
696.303848
 31
0.0
  0
ARC
  5
161
100
AcDbEntity
  8
便器
  6
CONTINUOUS
 62
     7
100
AcDbCircle
 10
604.741699
 20
693.349411
 30
0.0
 40
3.0
100
AcDbArc
 50
353.720703
 51
100.000122
  0
ARC
  5
162
100
AcDbEntity
  8
便器
  6
CONTINUOUS
 62
     7
100
AcDbCircle
 10
594.605918
 20
696.131397
 30
0.0
 40
1.5
100
AcDbArc
 50
190.000081
 51
279.998311
  0
LINE
  5
163
100
AcDbEntity
  8
便器
  6
CONTINUOUS
 62
     3
100
AcDbLine
 10
818.918363
 20
736.455231
 30
0.0
 11
555.509849
 21
736.455231
 31
0.0
  0
ARC
  5
164
100
AcDbEntity
  8
便器
  6
CONTINUOUS
 62
     6
100
AcDbCircle
 10
734.459381
 20
594.296631
 30
0.0
 40
21.998959
100
AcDbArc
 50
1.658232
 51
46.657364
  0
ARC
  5
165
100
AcDbEntity
  8
便器
  6
CONTINUOUS
 62
     6
100
AcDbCircle
 10
745.440826
 20
605.934814
 30
0.0
 40
6.000327
100
AcDbArc
 50
46.653809
 51
133.346207
  0
ARC
  5
166
100
AcDbEntity
  8
便器
  6
CONTINUOUS
 62
     6
100
AcDbCircle
 10
756.422272
 20
594.296631
 30
0.0
 40
22.000227
100
AcDbArc
 50
133.342773
 51
178.341858
  0
ARC
  5
167
100
AcDbEntity
  8
便器
  6
CONTINUOUS
 62
     6
100
AcDbCircle
 10
728.344269
 20
543.965982
 30
0.0
 40
20.0
100
AcDbArc
 50
328.740234
 51
1.073222
  0
ARC
  5
168
100
AcDbEntity
  8
便器
  6
CONTINUOUS
 62
     6
100
AcDbCircle
 10
762.537384
 20
543.965982
 30
0.0
 40
20.0
100
AcDbArc
 50
178.926758
 51
211.259766
  0
LINE
  5
169
100
AcDbEntity
  8
便器
  6
CONTINUOUS
 62
     6
100
AcDbLine
 10
742.540741
 20
544.340586
 30
0.0
 11
742.540741
 21
566.455231
 31
0.0
  0
LINE
  5
16A
100
AcDbEntity
  8
便器
  6
CONTINUOUS
 62
     6
100
AcDbLine
 10
748.340607
 20
544.340586
 30
0.0
 11
748.340607
 21
566.455231
 31
0.0
  0
LINE
  5
16B
100
AcDbEntity
  8
便器
  6
CONTINUOUS
 62
     7
100
AcDbLine
 10
547.174793
 20
783.725925
 30
0.0
 11
548.954571
 21
784.03976
 31
0.0
  0
LINE
  5
16C
100
AcDbEntity
  8
便器
  6
CONTINUOUS
 62
     7
100
AcDbLine
 10
550.166964
 20
783.712171
 30
0.0
 11
552.6198
 21
781.639774
 31
0.0
  0
LINE
  5
16D
100
AcDbEntity
  8
便器
  6
CONTINUOUS
 62
     7
100
AcDbLine
 10
575.762753
 20
785.720491
 30
0.0
 11
552.6198
 21
781.639774
 31
0.0
  0
ARC
  5
16E
100
AcDbEntity
  8
便器
  6
CONTINUOUS
 62
     7
100
AcDbCircle
 10
549.205432
 20
782.560886
 30
0.0
 40
1.5
100
AcDbArc
 50
49.805786
 51
99.999878
  0
ARC
  5
16F
100
AcDbEntity
  8
便器
  6
CONTINUOUS
 62
     7
100
AcDbCircle
 10
575.502277
 20
787.197726
 30
0.0
 40
1.5
100
AcDbArc
 50
279.999207
 51
9.998627
  0
LINE
  5
170
100
AcDbEntity
  8
便器
  6
CONTINUOUS
 62
     7
100
AcDbLine
 10
563.844904
 20
689.184536
 30
0.0
 11
565.624686
 21
689.498344
 31
0.0
  0
LINE
  5
171
100
AcDbEntity
  8
便器
  6
CONTINUOUS
 62
     7
100
AcDbLine
 10
566.651923
 20
690.220839
 30
0.0
 11
568.248038
 21
693.007171
 31
0.0
  0
LINE
  5
172
100
AcDbEntity
  8
便器
  6
CONTINUOUS
 62
     7
100
AcDbLine
 10
591.390995
 20
697.087866
 30
0.0
 11
568.248038
 21
693.007171
 31
0.0
  0
ARC
  5
173
100
AcDbEntity
  8
便器
  6
CONTINUOUS
 62
     7
100
AcDbCircle
 10
565.354617
 20
690.973832
 30
0.0
 40
1.5
100
AcDbArc
 50
280.00002
 51
330.194112
  0
ARC
  5
174
100
AcDbEntity
  8
便器
  6
CONTINUOUS
 62
     7
100
AcDbCircle
 10
591.651469
 20
695.610631
 30
0.0
 40
1.5
100
AcDbArc
 50
10.001271
 51
100.000691
  0
LINE
  5
175
100
AcDbEntity
  8
便器
  6
CONTINUOUS
 62
     7
100
AcDbLine
 10
547.174793
 20
783.725925
 30
0.0
 11
563.844904
 21
689.184536
 31
0.0
  0
LINE
  5
176
100
AcDbEntity
  8
便器
  6
CONTINUOUS
 62
     7
100
AcDbLine
 10
552.6198
 20
781.639774
 30
0.0
 11
568.248038
 21
693.007171
 31
0.0
  0
LINE
  5
177
100
AcDbEntity
  8
便器
  6
CONTINUOUS
 62
     3
100
AcDbLine
 10
463.105005
 20
768.902153
 30
0.0
 11
542.250754
 21
782.857684
 31
0.0
  0
LINE
  5
178
100
AcDbEntity
  8
便器
  6
CONTINUOUS
 62
     3
100
AcDbLine
 10
558.920866
 20
688.316295
 30
0.0
 11
479.7752
 21
674.360779
 31
0.0
  0
LINE
  5
179
100
AcDbEntity
  8
便器
  6
CONTINUOUS
 62
     3
100
AcDbLine
 10
1107.440826
 20
916.455231
 30
0.0
 11
1157.0
 21
916.455231
 31
0.0
  0
LINE
  5
17A
100
AcDbEntity
  8
便器
  6
CONTINUOUS
 62
     7
100
AcDbLine
 10
565.440826
 20
916.455231
 30
0.0
 11
604.267544
 21
916.455231
 31
0.0
  0
LINE
  5
17B
100
AcDbEntity
  8
便器
  6
CONTINUOUS
 62
     7
100
AcDbLine
 10
738.26743
 20
916.455231
 30
0.0
 11
1092.440826
 21
916.455231
 31
0.0
  0
LINE
  5
17C
100
AcDbEntity
  8
便器
  6
CONTINUOUS
 62
     7
100
AcDbLine
 10
673.610472
 20
829.517751
 30
0.0
 11
697.591522
 21
825.491242
 31
0.0
  0
LINE
  5
17D
100
AcDbEntity
  8
便器
  6
CONTINUOUS
 62
     7
100
AcDbLine
 10
646.148145
 20
822.018414
 30
0.0
 11
648.033373
 21
816.838791
 31
0.0
  0
ARC
  5
17E
100
AcDbEntity
  8
便器
  6
CONTINUOUS
 62
     7
100
AcDbCircle
 10
677.943804
 20
822.374689
 30
0.0
 40
30.0
100
AcDbArc
 50
225.153081
 51
242.151528
  0
ARC
  5
17F
100
AcDbEntity
  8
便器
  6
CONTINUOUS
 62
     7
100
AcDbCircle
 10
617.216277
 20
707.430496
 30
0.0
 40
100.0
100
AcDbArc
 50
26.881409
 51
66.395758
  0
LINE
  5
180
100
AcDbEntity
  8
便器
  6
CONTINUOUS
 62
     7
100
AcDbLine
 10
646.830824
 20
803.0202
 30
0.0
 11
549.624516
 21
837.228321
 31
0.0
  0
LINE
  5
181
100
AcDbEntity
  8
便器
  6
CONTINUOUS
 62
     7
100
AcDbLine
 10
647.074228
 20
773.275111
 30
0.0
 11
596.911918
 21
820.58729
 31
0.0
  0
LINE
  5
182
100
AcDbEntity
  8
便器
  6
CONTINUOUS
 62
     7
100
AcDbLine
 10
675.509764
 20
746.455231
 30
0.0
 11
656.327718
 21
764.547388
 31
0.0
  0
LINE
  5
183
100
AcDbEntity
  8
便器
  6
CONTINUOUS
 62
     7
100
AcDbLine
 10
644.877844
 20
754.727336
 30
0.0
 11
610.267392
 21
787.371286
 31
0.0
  0
LINE
  5
184
100
AcDbEntity
  8
便器
  6
CONTINUOUS
 62
     7
100
AcDbLine
 10
665.217695
 20
735.543158
 30
0.0
 11
653.621956
 21
746.480048
 31
0.0
  0
LINE
  5
185
100
AcDbEntity
  8
便器
  6
CONTINUOUS
 62
     7
100
AcDbLine
 10
607.723693
 20
693.021301
 30
0.0
 11
606.301741
 21
680.098675
 31
0.0
  0
ARC
  5
186
100
AcDbEntity
  8
便器
  6
CONTINUOUS
 62
     7
100
AcDbCircle
 10
583.404968
 20
673.155609
 30
0.0
 40
22.0
100
AcDbArc
 50
320.717712
 51
340.466271
  0
ARC
  5
187
100
AcDbEntity
  8
便器
  6
CONTINUOUS
 62
     7
100
AcDbCircle
 10
784.81089
 20
3856.455231
 30
0.0
 40
3000.0
100
AcDbArc
 50
267.566197
 51
270.0
  0
LINE
  5
188
100
AcDbEntity
  8
便器
  6
CONTINUOUS
 62
     3
100
AcDbLine
 10
555.509849
 20
736.455231
 30
0.0
 11
555.509849
 21
476.455231
 31
0.0
  0
ARC
  5
189
100
AcDbEntity
  8
便器
  6
CONTINUOUS
 62
     7
100
AcDbCircle
 10
492.021825
 20
885.849305
 30
0.0
 40
15.0
100
AcDbArc
 50
223.445677
 51
264.37099
  0
ARC
  5
18A
100
AcDbEntity
  8
便器
  6
CONTINUOUS
 62
     7
100
AcDbCircle
 10
784.81089
 20
3856.455231
 30
0.0
 40
3000.0
100
AcDbArc
 50
264.37099
 51
267.361717
  0
LINE
  5
18B
100
AcDbEntity
  8
便器
  6
CONTINUOUS
 62
     6
100
AcDbLine
 10
497.940826
 20
878.455324
 30
0.0
 11
502.940826
 21
878.455324
 31
0.0
  0
ARC
  5
18C
100
AcDbEntity
  8
便器
  6
CONTINUOUS
 62
     6
100
AcDbCircle
 10
501.940826
 20
889.916894
 30
0.0
 40
12.5
100
AcDbArc
 50
115.848943
 51
180.0
  0
ARC
  5
18D
100
AcDbEntity
  8
便器
  6
CONTINUOUS
 62
     6
100
AcDbCircle
 10
498.940826
 20
889.916894
 30
0.0
 40
12.5
100
AcDbArc
 50
0.0
 51
64.151057
  0
LINE
  5
18E
100
AcDbEntity
  8
便器
  6
CONTINUOUS
 62
     6
100
AcDbLine
 10
496.490826
 20
887.806737
 30
0.0
 11
496.490826
 21
881.906737
 31
0.0
  0
LINE
  5
18F
100
AcDbEntity
  8
便器
  6
CONTINUOUS
 62
     6
100
AcDbLine
 10
493.090826
 20
887.806737
 30
0.0
 11
493.090826
 21
881.906737
 31
0.0
  0
ARC
  5
190
100
AcDbEntity
  8
便器
  6
CONTINUOUS
 62
     6
100
AcDbCircle
 10
494.790826
 20
884.546737
 30
0.0
 40
3.14
100
AcDbArc
 50
237.220919
 51
302.779081
  0
ARC
  5
191
100
AcDbEntity
  8
便器
  6
CONTINUOUS
 62
     6
100
AcDbCircle
 10
500.440826
 20
897.259237
 30
0.0
 40
15.8525
100
AcDbArc
 50
255.571476
 51
284.428524
  0
LINE
  5
192
100
AcDbEntity
  8
便器
  6
CONTINUOUS
 62
     6
100
AcDbLine
 10
494.790826
 20
881.406737
 30
0.0
 11
506.090826
 21
881.406737
 31
0.0
  0
LINE
  5
193
100
AcDbEntity
  8
便器
  6
CONTINUOUS
 62
     6
100
AcDbLine
 10
489.440826
 20
887.806737
 30
0.0
 11
511.440826
 21
887.806737
 31
0.0
  0
LINE
  5
194
100
AcDbEntity
  8
便器
  6
CONTINUOUS
 62
     6
100
AcDbLine
 10
493.090826
 20
887.806737
 30
0.0
 11
500.440826
 21
887.806737
 31
0.0
  0
LINE
  5
195
100
AcDbEntity
  8
便器
  6
CONTINUOUS
 62
     6
100
AcDbLine
 10
489.440826
 20
888.806737
 30
0.0
 11
511.440826
 21
888.806737
 31
0.0
  0
LINE
  5
196
100
AcDbEntity
  8
便器
  6
CONTINUOUS
 62
     6
100
AcDbLine
 10
489.440826
 20
888.806737
 30
0.0
 11
489.440826
 21
887.806737
 31
0.0
  0
LINE
  5
197
100
AcDbEntity
  8
便器
  6
CONTINUOUS
 62
     6
100
AcDbLine
 10
489.440826
 20
888.806737
 30
0.0
 11
489.440826
 21
889.916894
 31
0.0
  0
LINE
  5
198
100
AcDbEntity
  8
便器
  6
CONTINUOUS
 62
     6
100
AcDbLine
 10
507.790826
 20
887.806737
 30
0.0
 11
507.790826
 21
881.906737
 31
0.0
  0
LINE
  5
199
100
AcDbEntity
  8
便器
  6
CONTINUOUS
 62
     6
100
AcDbLine
 10
511.440826
 20
888.806737
 30
0.0
 11
511.440826
 21
887.806737
 31
0.0
  0
LINE
  5
19A
100
AcDbEntity
  8
便器
  6
CONTINUOUS
 62
     6
100
AcDbLine
 10
511.440826
 20
888.806737
 30
0.0
 11
511.440826
 21
889.916894
 31
0.0
  0
LINE
  5
19B
100
AcDbEntity
  8
便器
  6
CONTINUOUS
 62
     6
100
AcDbLine
 10
504.390826
 20
887.806737
 30
0.0
 11
504.390826
 21
881.906737
 31
0.0
  0
ARC
  5
19C
100
AcDbEntity
  8
便器
  6
CONTINUOUS
 62
     6
100
AcDbCircle
 10
506.090826
 20
884.546737
 30
0.0
 40
3.14
100
AcDbArc
 50
237.220919
 51
302.779081
  0
LINE
  5
19D
100
AcDbEntity
  8
便器
  6
CONTINUOUS
 62
     6
100
AcDbLine
 10
497.535007
 20
881.406737
 30
0.0
 11
497.940826
 21
878.455324
 31
0.0
  0
LINE
  5
19E
100
AcDbEntity
  8
便器
  6
CONTINUOUS
 62
     6
100
AcDbLine
 10
503.346646
 20
881.406737
 30
0.0
 11
502.940826
 21
878.455324
 31
0.0
  0
LINE
  5
19F
100
AcDbEntity
  8
便器
  6
CONTINUOUS
 62
     6
100
AcDbLine
 10
671.967724
 20
826.034312
 30
0.0
 11
655.417719
 21
826.034312
 31
0.0
  0
LINE
  5
1A0
100
AcDbEntity
  8
便器
  6
CONTINUOUS
 62
     6
100
AcDbLine
 10
647.467719
 20
848.034312
 30
0.0
 11
647.467719
 21
847.034312
 31
0.0
  0
LINE
  5
1A1
100
AcDbEntity
  8
便器
  6
CONTINUOUS
 62
     6
100
AcDbLine
 10
647.467722
 20
847.034312
 30
0.0
 11
647.467723
 21
844.034312
 31
0.0
  0
LINE
  5
1A2
100
AcDbEntity
  8
便器
  6
CONTINUOUS
 62
     6
100
AcDbLine
 10
656.467723
 20
843.034312
 30
0.0
 11
656.467724
 21
826.034312
 31
0.0
  0
LINE
  5
1A3
100
AcDbEntity
  8
便器
  6
CONTINUOUS
 62
     6
100
AcDbLine
 10
648.717719
 20
844.034312
 30
0.0
 11
647.467719
 21
844.034312
 31
0.0
  0
ARC
  5
1A4
100
AcDbEntity
  8
便器
  6
CONTINUOUS
 62
     6
100
AcDbCircle
 10
655.467723
 20
843.034312
 30
0.0
 40
1.0
100
AcDbArc
 50
0.0
 51
90.0
  0
ARC
  5
1A5
100
AcDbEntity
  8
便器
  6
CONTINUOUS
 62
     6
100
AcDbCircle
 10
660.467719
 20
848.034312
 30
0.0
 40
12.5
100
AcDbArc
 50
0.0
 51
61.642365
  0
LINE
  5
1A6
100
AcDbEntity
  8
便器
  6
CONTINUOUS
 62
     6
100
AcDbLine
 10
673.467719
 20
848.034312
 30
0.0
 11
673.467719
 21
847.034312
 31
0.0
  0
LINE
  5
1A7
100
AcDbEntity
  8
便器
  6
CONTINUOUS
 62
     6
100
AcDbLine
 10
673.467719
 20
844.034312
 30
0.0
 11
665.467723
 21
844.034312
 31
0.0
  0
LINE
  5
1A8
100
AcDbEntity
  8
便器
  6
CONTINUOUS
 62
     6
100
AcDbLine
 10
673.467722
 20
847.034312
 30
0.0
 11
673.467723
 21
844.034312
 31
0.0
  0
LINE
  5
1A9
100
AcDbEntity
  8
便器
  6
CONTINUOUS
 62
     6
100
AcDbLine
 10
664.467723
 20
843.034312
 30
0.0
 11
664.467724
 21
826.034312
 31
0.0
  0
LINE
  5
1AA
100
AcDbEntity
  8
便器
  6
CONTINUOUS
 62
     6
100
AcDbLine
 10
671.967723
 20
844.034312
 30
0.0
 11
671.967724
 21
826.034312
 31
0.0
  0
ARC
  5
1AB
100
AcDbEntity
  8
便器
  6
CONTINUOUS
 62
     6
100
AcDbCircle
 10
665.467723
 20
843.034312
 30
0.0
 40
1.0
100
AcDbArc
 50
90.0
 51
180.0
  0
ARC
  5
1AC
100
AcDbEntity
  8
便器
  6
CONTINUOUS
 62
     6
100
AcDbCircle
 10
660.414545
 20
848.034312
 30
0.0
 40
12.5
100
AcDbArc
 50
159.349016
 51
180.0
  0
LINE
  5
1AD
100
AcDbEntity
  8
便器
  6
CONTINUOUS
 62
     6
100
AcDbLine
 10
673.467719
 20
848.034312
 30
0.0
 11
655.417719
 21
848.034312
 31
0.0
  0
LINE
  5
1AE
100
AcDbEntity
  8
便器
  6
CONTINUOUS
 62
     6
100
AcDbLine
 10
648.717719
 20
848.034312
 30
0.0
 11
647.467719
 21
848.034312
 31
0.0
  0
LINE
  5
1AF
100
AcDbEntity
  8
便器
  6
CONTINUOUS
 62
     6
100
AcDbLine
 10
673.467719
 20
847.034312
 30
0.0
 11
655.417719
 21
847.034312
 31
0.0
  0
LINE
  5
1B0
100
AcDbEntity
  8
便器
  6
CONTINUOUS
 62
     6
100
AcDbLine
 10
648.717719
 20
847.034312
 30
0.0
 11
647.467719
 21
847.034312
 31
0.0
  0
LINE
  5
1B1
100
AcDbEntity
  8
便器
  6
EXLTYPE3
 62
     1
100
AcDbLine
 10
1120.441132
 20
2380.34668
 30
0.0
 11
350.441132
 21
2380.34668
 31
0.0
  0
LINE
  5
1B2
100
AcDbEntity
  8
便器
  6
CONTINUOUS
 62
     3
100
AcDbLine
 10
886.440779
 20
2557.84668
 30
0.0
 11
1200.441132
 21
2557.84668
 31
0.0
  0
LINE
  5
1B3
100
AcDbEntity
  8
便器
  6
CONTINUOUS
 62
     3
100
AcDbLine
 10
886.440779
 20
2202.84668
 30
0.0
 11
1200.441132
 21
2202.84668
 31
0.0
  0
LINE
  5
1B4
100
AcDbEntity
  8
便器
  6
CONTINUOUS
 62
     3
100
AcDbLine
 10
1100.441132
 20
1987.999084
 30
0.0
 11
1100.441132
 21
2380.0
 31
0.0
  0
ARC
  5
1B5
100
AcDbEntity
  8
便器
  6
CONTINUOUS
 62
     7
100
AcDbCircle
 10
1527.466553
 20
849.094299
 30
0.0
 40
5.0
100
AcDbArc
 50
27.785927
 51
81.469299
  0
LINE
  5
1B6
100
AcDbEntity
  8
便器
  6
CONTINUOUS
 62
     7
100
AcDbLine
 10
1515.300171
 20
855.97522
 30
0.0
 11
1527.535828
 21
854.139862
 31
0.0
  0
ARC
  5
1B7
100
AcDbEntity
  8
便器
  6
CONTINUOUS
 62
     7
100
AcDbCircle
 10
1498.364624
 20
1256.511078
 30
0.0
 40
400.0
100
AcDbArc
 50
272.512308
 51
282.802368
  0
ARC
  5
1B8
100
AcDbEntity
  8
便器
  6
CONTINUOUS
 62
     7
100
AcDbCircle
 10
1470.865906
 20
1249.225006
 30
0.0
 40
400.0
100
AcDbArc
 50
278.573914
 51
286.878052
  0
ARC
  5
1B9
100
AcDbEntity
  8
便器
  6
CONTINUOUS
 62
     7
100
AcDbCircle
 10
1736.650452
 20
937.044159
 30
0.0
 40
240.0
100
AcDbArc
 50
187.078444
 51
198.380981
  0
ARC
  5
1BA
100
AcDbEntity
  8
便器
  6
CONTINUOUS
 62
     7
100
AcDbCircle
 10
1516.486877
 20
863.886689
 30
0.0
 40
8.0
100
AcDbArc
 50
198.38092
 51
262.010518
  0
ARC
  5
1BB
100
AcDbEntity
  8
便器
  6
CONTINUOUS
 62
     7
100
AcDbCircle
 10
1218.0
 20
722.097931
 30
0.0
 40
400.0
100
AcDbArc
 50
359.007405
 51
0.127434
  0
LINE
  5
1BC
100
AcDbEntity
  8
便器
  6
CONTINUOUS
 62
     7
100
AcDbLine
 10
1506.418671
 20
916.455231
 30
0.0
 11
1845.581329
 21
916.455231
 31
0.0
  0
ARC
  5
1BD
100
AcDbEntity
  8
便器
  6
CONTINUOUS
 62
     7
100
AcDbCircle
 10
1506.418671
 20
908.455231
 30
0.0
 40
8.0
100
AcDbArc
 50
90.0
 51
187.078444
  0
LINE
  5
1BE
100
AcDbEntity
  8
便器
  6
CONTINUOUS
 62
     7
100
AcDbLine
 10
1563.5
 20
566.455231
 30
0.0
 11
1591.706556
 21
655.104408
 31
0.0
  0
ARC
  5
1BF
100
AcDbEntity
  8
便器
  6
CONTINUOUS
 62
     7
100
AcDbCircle
 10
1567.94748
 20
716.034815
 30
0.0
 40
50.0
100
AcDbArc
 50
322.530539
 51
359.007405
  0
ARC
  5
1C0
100
AcDbEntity
  8
便器
  6
CONTINUOUS
 62
     7
100
AcDbCircle
 10
1686.999134
 20
624.784043
 30
0.0
 40
100.0
100
AcDbArc
 50
142.530539
 51
162.349876
  0
ARC
  5
1C1
100
AcDbEntity
  8
便器
  6
CONTINUOUS
 62
     7
100
AcDbCircle
 10
1537.999209
 20
722.809658
 30
0.0
 40
80.0
100
AcDbArc
 50
0.127434
 51
52.402769
  0
ARC
  5
1C2
100
AcDbEntity
  8
便器
  6
CONTINUOUS
 62
     7
100
AcDbCircle
 10
1708.829131
 20
944.659016
 30
0.0
 40
200.0
100
AcDbArc
 50
207.785927
 51
232.402769
  0
LINE
  5
1C3
100
AcDbEntity
  8
便器
  6
CONTINUOUS
 62
     7
100
AcDbLine
 10
1836.699829
 20
855.97522
 30
0.0
 11
1824.464172
 21
854.139862
 31
0.0
  0
ARC
  5
1C4
100
AcDbEntity
  8
便器
  6
CONTINUOUS
 62
     7
100
AcDbCircle
 10
1853.635376
 20
1256.511078
 30
0.0
 40
400.0
100
AcDbArc
 50
257.197632
 51
267.487692
  0
ARC
  5
1C5
100
AcDbEntity
  8
便器
  6
CONTINUOUS
 62
     7
100
AcDbCircle
 10
1881.134094
 20
1249.225006
 30
0.0
 40
400.0
100
AcDbArc
 50
253.121948
 51
261.426086
  0
ARC
  5
1C6
100
AcDbEntity
  8
便器
  6
CONTINUOUS
 62
     7
100
AcDbCircle
 10
1615.349548
 20
937.044159
 30
0.0
 40
240.0
100
AcDbArc
 50
341.619019
 51
352.921556
  0
ARC
  5
1C7
100
AcDbEntity
  8
便器
  6
CONTINUOUS
 62
     7
100
AcDbCircle
 10
1835.513123
 20
863.886689
 30
0.0
 40
8.0
100
AcDbArc
 50
277.989482
 51
341.61908
  0
ARC
  5
1C8
100
AcDbEntity
  8
便器
  6
CONTINUOUS
 62
     7
100
AcDbCircle
 10
1845.581329
 20
908.455231
 30
0.0
 40
8.0
100
AcDbArc
 50
352.921556
 51
90.0
  0
LINE
  5
1C9
100
AcDbEntity
  8
便器
  6
CONTINUOUS
 62
     7
100
AcDbLine
 10
1788.5
 20
566.455231
 30
0.0
 11
1760.293444
 21
655.104408
 31
0.0
  0
ARC
  5
1CA
100
AcDbEntity
  8
便器
  6
CONTINUOUS
 62
     7
100
AcDbCircle
 10
1784.05252
 20
716.034815
 30
0.0
 40
50.0
100
AcDbArc
 50
180.992595
 51
217.469461
  0
ARC
  5
1CB
100
AcDbEntity
  8
便器
  6
CONTINUOUS
 62
     7
100
AcDbCircle
 10
1665.000866
 20
624.784043
 30
0.0
 40
100.0
100
AcDbArc
 50
17.650124
 51
37.469461
  0
ARC
  5
1CC
100
AcDbEntity
  8
便器
  6
CONTINUOUS
 62
     7
100
AcDbCircle
 10
2134.0
 20
722.097931
 30
0.0
 40
400.0
100
AcDbArc
 50
179.872566
 51
180.992595
  0
ARC
  5
1CD
100
AcDbEntity
  8
便器
  6
CONTINUOUS
 62
     7
100
AcDbCircle
 10
1643.170869
 20
944.659016
 30
0.0
 40
200.0
100
AcDbArc
 50
307.597231
 51
332.214073
  0
ARC
  5
1CE
100
AcDbEntity
  8
便器
  6
CONTINUOUS
 62
     7
100
AcDbCircle
 10
1824.533447
 20
849.094299
 30
0.0
 40
5.0
100
AcDbArc
 50
98.530701
 51
152.214073
  0
ARC
  5
1CF
100
AcDbEntity
  8
便器
  6
CONTINUOUS
 62
     7
100
AcDbCircle
 10
1814.000791
 20
722.809658
 30
0.0
 40
80.0
100
AcDbArc
 50
127.597231
 51
179.872566
  0
ARC
  5
1D0
100
AcDbEntity
  8
便器
  6
CONTINUOUS
 62
     6
100
AcDbCircle
 10
1588.903442
 20
543.965982
 30
0.0
 40
20.0
100
AcDbArc
 50
328.740234
 51
1.073222
  0
ARC
  5
1D1
100
AcDbEntity
  8
便器
  6
CONTINUOUS
 62
     6
100
AcDbCircle
 10
1623.096558
 20
543.965982
 30
0.0
 40
20.0
100
AcDbArc
 50
178.926758
 51
211.259766
  0
LINE
  5
1D2
100
AcDbEntity
  8
便器
  6
CONTINUOUS
 62
     6
100
AcDbLine
 10
1603.099914
 20
544.340586
 30
0.0
 11
1603.099914
 21
566.455231
 31
0.0
  0
LINE
  5
1D3
100
AcDbEntity
  8
便器
  6
CONTINUOUS
 62
     6
100
AcDbLine
 10
1608.89978
 20
544.340586
 30
0.0
 11
1608.89978
 21
566.455231
 31
0.0
  0
ARC
  5
1D4
100
AcDbEntity
  8
便器
  6
CONTINUOUS
 62
     6
100
AcDbCircle
 10
1728.903442
 20
543.965982
 30
0.0
 40
20.0
100
AcDbArc
 50
328.740234
 51
1.073222
  0
ARC
  5
1D5
100
AcDbEntity
  8
便器
  6
CONTINUOUS
 62
     6
100
AcDbCircle
 10
1763.096558
 20
543.965982
 30
0.0
 40
20.0
100
AcDbArc
 50
178.926758
 51
211.259766
  0
LINE
  5
1D6
100
AcDbEntity
  8
便器
  6
CONTINUOUS
 62
     6
100
AcDbLine
 10
1743.099914
 20
544.340586
 30
0.0
 11
1743.099914
 21
566.455231
 31
0.0
  0
LINE
  5
1D7
100
AcDbEntity
  8
便器
  6
CONTINUOUS
 62
     6
100
AcDbLine
 10
1748.89978
 20
544.340586
 30
0.0
 11
1748.89978
 21
566.455231
 31
0.0
  0
LINE
  5
1D8
100
AcDbEntity
  8
便器
  6
EXLTYPE3
 62
     1
100
AcDbLine
 10
1676.0
 20
536.455231
 30
0.0
 11
1676.0
 21
1506.455078
 31
0.0
  0
LINE
  5
1D9
100
AcDbEntity
  8
タンク
  6
CONTINUOUS
 62
     3
100
AcDbLine
 10
350.441132
 20
2380.34668
 30
0.0
 11
270.441132
 21
2380.34668
 31
0.0
  0
ARC
  5
1DA
100
AcDbEntity
  8
タンク
  6
CONTINUOUS
 62
     7
100
AcDbCircle
 10
496.441114
 20
2380.34668
 30
0.0
 40
8.999957
100
AcDbArc
 50
286.169477
 51
73.830523
  0
LINE
  5
1DB
100
AcDbEntity
  8
タンク
  6
CONTINUOUS
 62
     7
100
AcDbLine
 10
552.083509
 20
2170.34668
 30
0.0
 11
395.441205
 21
2170.34668
 31
0.0
  0
ARC
  5
1DC
100
AcDbEntity
  8
タンク
  6
CONTINUOUS
 62
     7
100
AcDbCircle
 10
552.083509
 20
2203.34671
 30
0.0
 40
33.000031
100
AcDbArc
 50
270.000031
 51
355.885559
  0
ARC
  5
1DD
100
AcDbEntity
  8
タンク
  6
CONTINUOUS
 62
     7
100
AcDbCircle
 10
-1908.558886
 20
2380.345154
 30
0.0
 40
2500.0
100
AcDbArc
 50
355.885805
 51
4.114318
  0
ARC
  5
1DE
100
AcDbEntity
  8
タンク
  6
CONTINUOUS
 62
     7
100
AcDbCircle
 10
552.083203
 20
2557.346649
 30
0.0
 40
33.000088
100
AcDbArc
 50
4.114417
 51
89.999969
  0
LINE
  5
1DF
100
AcDbEntity
  8
タンク
  6
CONTINUOUS
 62
     7
100
AcDbLine
 10
552.083203
 20
2590.34668
 30
0.0
 11
395.4409
 21
2590.34668
 31
0.0
  0
ARC
  5
1E0
100
AcDbEntity
  8
タンク
  6
CONTINUOUS
 62
     7
100
AcDbCircle
 10
395.4409
 20
2586.346741
 30
0.0
 40
3.999939
100
AcDbArc
 50
89.999969
 51
180.000015
  0
LINE
  5
1E1
100
AcDbEntity
  8
タンク
  6
CONTINUOUS
 62
     7
100
AcDbLine
 10
391.441266
 20
2174.346619
 30
0.0
 11
391.440961
 21
2586.346741
 31
0.0
  0
ARC
  5
1E2
100
AcDbEntity
  8
タンク
  6
CONTINUOUS
 62
     7
100
AcDbCircle
 10
395.441205
 20
2174.346619
 30
0.0
 40
4.000092
100
AcDbArc
 50
180.000015
 51
270.0
  0
ARC
  5
1E3
100
AcDbEntity
  8
タンク
  6
CONTINUOUS
 62
     7
100
AcDbCircle
 10
444.670484
 20
2200.34668
 30
0.0
 40
30.0
100
AcDbArc
 50
180.000015
 51
241.352081
  0
ARC
  5
1E4
100
AcDbEntity
  8
タンク
  6
CONTINUOUS
 62
     7
100
AcDbCircle
 10
444.670179
 20
2560.34668
 30
0.0
 40
30.0
100
AcDbArc
 50
118.647873
 51
180.000015
  0
ARC
  5
1E5
100
AcDbEntity
  8
タンク
  6
CONTINUOUS
 62
     6
100
AcDbCircle
 10
465.326306
 20
2563.422852
 30
0.0
 40
200.0
100
AcDbArc
 50
271.17012
 51
275.743774
  0
LINE
  5
1E6
100
AcDbEntity
  8
タンク
  6
CONTINUOUS
 62
     6
100
AcDbLine
 10
469.410321
 20
2363.464661
 30
0.0
 11
414.670331
 21
2362.346649
 31
0.0
  0
ARC
  5
1E7
100
AcDbEntity
  8
タンク
  6
CONTINUOUS
 62
     6
100
AcDbCircle
 10
465.326612
 20
2197.270508
 30
0.0
 40
200.0
100
AcDbArc
 50
84.256393
 51
88.830109
  0
ARC
  5
1E8
100
AcDbEntity
  8
タンク
  6
CONTINUOUS
 62
     6
100
AcDbCircle
 10
483.740918
 20
2380.34668
 30
0.0
 40
15.999975
100
AcDbArc
 50
275.743713
 51
84.256287
  0
LINE
  5
1E9
100
AcDbEntity
  8
タンク
  6
CONTINUOUS
 62
     6
100
AcDbLine
 10
469.410321
 20
2397.228699
 30
0.0
 11
414.670331
 21
2398.34671
 31
0.0
  0
LINE
  5
1EA
100
AcDbEntity
  8
タンク
  6
CONTINUOUS
 62
     7
100
AcDbLine
 10
414.670179
 20
2560.346672
 30
0.0
 11
414.670179
 21
2200.346672
 31
0.0
  0
LINE
  5
1EB
100
AcDbEntity
  8
タンク
  6
CONTINUOUS
 62
     6
100
AcDbLine
 10
549.685761
 20
2590.34668
 30
0.0
 11
549.68576
 21
2605.890635
 31
0.0
  0
LINE
  5
1EC
100
AcDbEntity
  8
タンク
  6
CONTINUOUS
 62
     6
100
AcDbLine
 10
513.196159
 20
2590.34668
 30
0.0
 11
513.19616
 21
2605.890626
 31
0.0
  0
ARC
  5
1ED
100
AcDbEntity
  8
タンク
  6
CONTINUOUS
 62
     6
100
AcDbCircle
 10
525.35933
 20
2612.166131
 30
0.0
 40
4.0544
100
AcDbArc
 50
122.196686
 51
161.721527
  0
ARC
  5
1EE
100
AcDbEntity
  8
タンク
  6
CONTINUOUS
 62
     6
100
AcDbCircle
 10
537.522066
 20
2612.166455
 30
0.0
 40
4.0544
100
AcDbArc
 50
18.280151
 51
57.805664
  0
ARC
  5
1EF
100
AcDbEntity
  8
タンク
  6
CONTINUOUS
 62
     6
100
AcDbCircle
 10
531.44096
 20
2609.159512
 30
0.0
 40
9.1224
100
AcDbArc
 50
80.66687
 51
90.0
  0
ARC
  5
1F0
100
AcDbEntity
  8
タンク
  6
CONTINUOUS
 62
     6
100
AcDbCircle
 10
529.961546
 20
2600.157889
 30
0.0
 40
18.2448
100
AcDbArc
 50
57.805664
 51
80.66687
  0
ARC
  5
1F1
100
AcDbEntity
  8
タンク
  6
CONTINUOUS
 62
     6
100
AcDbCircle
 10
532.920374
 20
2600.157885
 30
0.0
 40
18.2448
100
AcDbArc
 50
99.33316
 51
122.196716
  0
ARC
  5
1F2
100
AcDbEntity
  8
タンク
  6
CONTINUOUS
 62
     6
100
AcDbCircle
 10
531.44096
 20
2609.159512
 30
0.0
 40
9.1224
100
AcDbArc
 50
90.0
 51
99.33316
  0
ARC
  5
1F3
100
AcDbEntity
  8
タンク
  6
CONTINUOUS
 62
     6
100
AcDbCircle
 10
544.656981
 20
2605.611413
 30
0.0
 40
5.068
100
AcDbArc
 50
15.989868
 51
62.588623
  0
ARC
  5
1F4
100
AcDbEntity
  8
タンク
  6
CONTINUOUS
 62
     6
100
AcDbCircle
 10
544.656981
 20
2605.611413
 30
0.0
 40
5.068
100
AcDbArc
 50
15.989868
 51
62.588623
  0
ARC
  5
1F5
100
AcDbEntity
  8
タンク
  6
CONTINUOUS
 62
     6
100
AcDbCircle
 10
539.990581
 20
2596.613448
 30
0.0
 40
15.204
100
AcDbArc
 50
62.588623
 51
66.453674
  0
ARC
  5
1F6
100
AcDbEntity
  8
タンク
  6
CONTINUOUS
 62
     6
100
AcDbCircle
 10
558.217222
 20
2634.445081
 30
0.0
 40
26.926876
100
AcDbArc
 50
231.274048
 51
234.443848
  0
ARC
  5
1F7
100
AcDbEntity
  8
タンク
  6
CONTINUOUS
 62
     6
100
AcDbCircle
 10
553.758009
 20
2628.206417
 30
0.0
 40
19.2584
100
AcDbArc
 50
234.443848
 51
246.453674
  0
ARC
  5
1F8
100
AcDbEntity
  8
タンク
  6
CONTINUOUS
 62
     6
100
AcDbCircle
 10
517.250561
 20
2605.89063
 30
0.0
 40
4.0544
100
AcDbArc
 50
164.010132
 51
180.0
  0
ARC
  5
1F9
100
AcDbEntity
  8
タンク
  6
CONTINUOUS
 62
     6
100
AcDbCircle
 10
518.22497
 20
2605.611424
 30
0.0
 40
5.068
100
AcDbArc
 50
117.411407
 51
164.010132
  0
ARC
  5
1FA
100
AcDbEntity
  8
タンク
  6
CONTINUOUS
 62
     6
100
AcDbCircle
 10
522.89134
 20
2596.613447
 30
0.0
 40
15.204
100
AcDbArc
 50
113.546326
 51
117.411407
  0
ARC
  5
1FB
100
AcDbEntity
  8
タンク
  6
CONTINUOUS
 62
     6
100
AcDbCircle
 10
509.123913
 20
2628.206415
 30
0.0
 40
19.2584
100
AcDbArc
 50
293.546326
 51
305.556152
  0
ARC
  5
1FC
100
AcDbEntity
  8
タンク
  6
CONTINUOUS
 62
     6
100
AcDbCircle
 10
504.664696
 20
2634.445092
 30
0.0
 40
26.926876
100
AcDbArc
 50
305.556152
 51
308.724487
  0
ARC
  5
1FD
100
AcDbEntity
  8
タンク
  6
CONTINUOUS
 62
     6
100
AcDbCircle
 10
545.63136
 20
2605.890633
 30
0.0
 40
4.0544
100
AcDbArc
 50
0.0
 51
15.989868
  0
LINE
  5
1FE
100
AcDbEntity
  8
タンク
  6
CONTINUOUS
 62
     6
100
AcDbLine
 10
434.714883
 20
2166.34668
 30
0.0
 11
434.714883
 21
2170.34668
 31
0.0
  0
LINE
  5
1FF
100
AcDbEntity
  8
タンク
  6
CONTINUOUS
 62
     6
100
AcDbLine
 10
457.714883
 20
2166.34668
 30
0.0
 11
457.714883
 21
2170.34668
 31
0.0
  0
LINE
  5
200
100
AcDbEntity
  8
タンク
  6
CONTINUOUS
 62
     6
100
AcDbLine
 10
434.714883
 20
2166.34668
 30
0.0
 11
457.714883
 21
2166.34668
 31
0.0
  0
ARC
  5
201
100
AcDbEntity
  8
タンク
  6
CONTINUOUS
 62
     6
100
AcDbCircle
 10
440.464883
 20
2174.674805
 30
0.0
 40
8.328125
100
AcDbArc
 50
235.073527
 51
304.926473
  0
ARC
  5
202
100
AcDbEntity
  8
タンク
  6
CONTINUOUS
 62
     6
100
AcDbCircle
 10
451.964883
 20
2174.674805
 30
0.0
 40
8.328125
100
AcDbArc
 50
235.073527
 51
304.926473
  0
LINE
  5
203
100
AcDbEntity
  8
タンク
  6
CONTINUOUS
 62
     6
100
AcDbLine
 10
456.732941
 20
2170.34668
 30
0.0
 11
456.732941
 21
2167.84668
 31
0.0
  0
LINE
  5
204
100
AcDbEntity
  8
タンク
  6
CONTINUOUS
 62
     6
100
AcDbLine
 10
447.196825
 20
2170.34668
 30
0.0
 11
447.196825
 21
2167.84668
 31
0.0
  0
LINE
  5
205
100
AcDbEntity
  8
タンク
  6
CONTINUOUS
 62
     6
100
AcDbLine
 10
445.232941
 20
2170.34668
 30
0.0
 11
445.232941
 21
2167.84668
 31
0.0
  0
LINE
  5
206
100
AcDbEntity
  8
タンク
  6
CONTINUOUS
 62
     6
100
AcDbLine
 10
435.696825
 20
2170.34668
 30
0.0
 11
435.696825
 21
2167.84668
 31
0.0
  0
LINE
  5
207
100
AcDbEntity
  8
タンク
  6
CONTINUOUS
 62
     6
100
AcDbLine
 10
434.714883
 20
2167.84668
 30
0.0
 11
435.696825
 21
2167.84668
 31
0.0
  0
LINE
  5
208
100
AcDbEntity
  8
タンク
  6
CONTINUOUS
 62
     6
100
AcDbLine
 10
445.232941
 20
2167.84668
 30
0.0
 11
447.196825
 21
2167.84668
 31
0.0
  0
LINE
  5
209
100
AcDbEntity
  8
タンク
  6
CONTINUOUS
 62
     6
100
AcDbLine
 10
456.732941
 20
2167.84668
 30
0.0
 11
457.714883
 21
2167.84668
 31
0.0
  0
LINE
  5
20A
100
AcDbEntity
  8
タンク
  6
CONTINUOUS
 62
     6
100
AcDbLine
 10
435.737383
 20
2153.84668
 30
0.0
 11
435.737383
 21
2166.34668
 31
0.0
  0
LINE
  5
20B
100
AcDbEntity
  8
タンク
  6
CONTINUOUS
 62
     6
100
AcDbLine
 10
436.899383
 20
2166.34668
 30
0.0
 11
436.899383
 21
2153.84668
 31
0.0
  0
LINE
  5
20C
100
AcDbEntity
  8
タンク
  6
CONTINUOUS
 62
     6
100
AcDbLine
 10
455.530383
 20
2166.34668
 30
0.0
 11
455.530383
 21
2153.84668
 31
0.0
  0
LINE
  5
20D
100
AcDbEntity
  8
タンク
  6
CONTINUOUS
 62
     6
100
AcDbLine
 10
456.692383
 20
2166.34668
 30
0.0
 11
456.692383
 21
2153.84668
 31
0.0
  0
LINE
  5
20E
100
AcDbEntity
  8
タンク
  6
CONTINUOUS
 62
     3
100
AcDbLine
 10
380.441133
 20
2095.34668
 30
0.0
 11
270.441133
 21
2095.34668
 31
0.0
  0
LINE
  5
20F
100
AcDbEntity
  8
タンク
  6
CONTINUOUS
 62
     3
100
AcDbLine
 10
468.841035
 20
2095.34668
 30
0.0
 11
412.441133
 21
2095.34668
 31
0.0
  0
LINE
  5
210
100
AcDbEntity
  8
タンク
  6
CONTINUOUS
 62
     3
100
AcDbLine
 10
400.441133
 20
2095.34668
 30
0.0
 11
392.441133
 21
2095.34668
 31
0.0
  0
LINE
  5
211
100
AcDbEntity
  8
タンク
  6
CONTINUOUS
 62
     3
100
AcDbLine
 10
446.440826
 20
1254.449099
 30
0.0
 11
446.440826
 21
1303.276308
 31
0.0
  0
LINE
  5
212
100
AcDbEntity
  8
タンク
  6
CONTINUOUS
 62
     3
100
AcDbLine
 10
446.440826
 20
1234.449099
 30
0.0
 11
446.440826
 21
1244.449099
 31
0.0
  0
LINE
  5
213
100
AcDbEntity
  8
タンク
  6
CONTINUOUS
 62
     3
100
AcDbLine
 10
446.440826
 20
1104.982393
 30
0.0
 11
446.440826
 21
1224.449099
 31
0.0
  0
POLYLINE
  5
214
100
AcDbEntity
  8
タンク
  6
CONTINUOUS
 62
     3
100
AcDb2dPolyline
 66
     1
 10
0.0
 20
0.0
 30
0.0
 70
   128
  0
VERTEX
  5
215
100
AcDbEntity
  8
タンク
  6
CONTINUOUS
 62
     3
100
AcDbVertex
100
AcDb2dVertex
 10
425.248199
 20
1542.524294
 30
0.0
  0
VERTEX
  5
216
100
AcDbEntity
  8
タンク
  6
CONTINUOUS
 62
     3
100
AcDbVertex
100
AcDb2dVertex
 10
391.440826
 20
1533.465609
 30
0.0
  0
VERTEX
  5
217
100
AcDbEntity
  8
タンク
  6
CONTINUOUS
 62
     3
100
AcDbVertex
100
AcDb2dVertex
 10
425.248199
 20
1524.406923
 30
0.0
  0
SEQEND
  5
218
100
AcDbEntity
  8
タンク
  6
CONTINUOUS
 62
     3
  0
POLYLINE
  5
219
100
AcDbEntity
  8
タンク
  6
CONTINUOUS
 62
     3
100
AcDb2dPolyline
 66
     1
 10
0.0
 20
0.0
 30
0.0
 70
   128
  0
VERTEX
  5
21A
100
AcDbEntity
  8
タンク
  6
CONTINUOUS
 62
     3
100
AcDbVertex
100
AcDb2dVertex
 10
557.633453
 20
1524.406923
 30
0.0
  0
VERTEX
  5
21B
100
AcDbEntity
  8
タンク
  6
CONTINUOUS
 62
     3
100
AcDbVertex
100
AcDb2dVertex
 10
591.440826
 20
1533.465609
 30
0.0
  0
VERTEX
  5
21C
100
AcDbEntity
  8
タンク
  6
CONTINUOUS
 62
     3
100
AcDbVertex
100
AcDb2dVertex
 10
557.633453
 20
1542.524294
 30
0.0
  0
SEQEND
  5
21D
100
AcDbEntity
  8
タンク
  6
CONTINUOUS
 62
     3
  0
LINE
  5
21E
100
AcDbEntity
  8
タンク
  6
CONTINUOUS
 62
     3
100
AcDbLine
 10
591.440826
 20
1383.455294
 30
0.0
 11
591.440826
 21
1553.465609
 31
0.0
  0
LINE
  5
21F
100
AcDbEntity
  8
タンク
  6
CONTINUOUS
 62
     3
100
AcDbLine
 10
391.440826
 20
1475.465609
 30
0.0
 11
391.440826
 21
1553.465609
 31
0.0
  0
LINE
  5
220
100
AcDbEntity
  8
タンク
  6
CONTINUOUS
 62
     3
100
AcDbLine
 10
391.440826
 20
1533.465609
 30
0.0
 11
591.440826
 21
1533.465609
 31
0.0
  0
LINE
  5
221
100
AcDbEntity
  8
タンク
  6
CONTINUOUS
 62
     3
100
AcDbLine
 10
290.440826
 20
566.455231
 30
0.0
 11
290.440826
 21
1276.458681
 31
0.0
  0
POLYLINE
  5
222
100
AcDbEntity
  8
タンク
  6
CONTINUOUS
 62
     3
100
AcDb2dPolyline
 66
     1
 10
0.0
 20
0.0
 30
0.0
 70
   128
  0
VERTEX
  5
223
100
AcDbEntity
  8
タンク
  6
CONTINUOUS
 62
     3
100
AcDbVertex
100
AcDb2dVertex
 10
281.382141
 20
1085.266301
 30
0.0
  0
VERTEX
  5
224
100
AcDbEntity
  8
タンク
  6
CONTINUOUS
 62
     3
100
AcDbVertex
100
AcDb2dVertex
 10
290.440826
 20
1051.458928
 30
0.0
  0
VERTEX
  5
225
100
AcDbEntity
  8
タンク
  6
CONTINUOUS
 62
     3
100
AcDbVertex
100
AcDb2dVertex
 10
299.499512
 20
1085.266301
 30
0.0
  0
SEQEND
  5
226
100
AcDbEntity
  8
タンク
  6
CONTINUOUS
 62
     3
  0
POLYLINE
  5
227
100
AcDbEntity
  8
タンク
  6
CONTINUOUS
 62
     3
100
AcDb2dPolyline
 66
     1
 10
0.0
 20
0.0
 30
0.0
 70
   128
  0
VERTEX
  5
228
100
AcDbEntity
  8
タンク
  6
CONTINUOUS
 62
     3
100
AcDbVertex
100
AcDb2dVertex
 10
299.499512
 20
1242.643374
 30
0.0
  0
VERTEX
  5
229
100
AcDbEntity
  8
タンク
  6
CONTINUOUS
 62
     3
100
AcDbVertex
100
AcDb2dVertex
 10
290.440826
 20
1276.450747
 30
0.0
  0
VERTEX
  5
22A
100
AcDbEntity
  8
タンク
  6
CONTINUOUS
 62
     3
100
AcDbVertex
100
AcDb2dVertex
 10
281.382141
 20
1242.643374
 30
0.0
  0
SEQEND
  5
22B
100
AcDbEntity
  8
タンク
  6
CONTINUOUS
 62
     3
  0
LINE
  5
22C
100
AcDbEntity
  8
タンク
  6
CONTINUOUS
 62
     3
100
AcDbLine
 10
230.440826
 20
931.455324
 30
0.0
 11
230.440826
 21
1491.455324
 31
0.0
  0
POLYLINE
  5
22D
100
AcDbEntity
  8
タンク
  6
CONTINUOUS
 62
     3
100
AcDb2dPolyline
 66
     1
 10
0.0
 20
0.0
 30
0.0
 70
   128
  0
VERTEX
  5
22E
100
AcDbEntity
  8
タンク
  6
CONTINUOUS
 62
     3
100
AcDbVertex
100
AcDb2dVertex
 10
221.382141
 20
965.262697
 30
0.0
  0
VERTEX
  5
22F
100
AcDbEntity
  8
タンク
  6
CONTINUOUS
 62
     3
100
AcDbVertex
100
AcDb2dVertex
 10
230.440826
 20
931.455324
 30
0.0
  0
VERTEX
  5
230
100
AcDbEntity
  8
タンク
  6
CONTINUOUS
 62
     3
100
AcDbVertex
100
AcDb2dVertex
 10
239.499512
 20
965.262697
 30
0.0
  0
SEQEND
  5
231
100
AcDbEntity
  8
タンク
  6
CONTINUOUS
 62
     3
  0
POLYLINE
  5
232
100
AcDbEntity
  8
タンク
  6
CONTINUOUS
 62
     3
100
AcDb2dPolyline
 66
     1
 10
0.0
 20
0.0
 30
0.0
 70
   128
  0
VERTEX
  5
233
100
AcDbEntity
  8
タンク
  6
CONTINUOUS
 62
     3
100
AcDbVertex
100
AcDb2dVertex
 10
239.499512
 20
1457.652682
 30
0.0
  0
VERTEX
  5
234
100
AcDbEntity
  8
タンク
  6
CONTINUOUS
 62
     3
100
AcDbVertex
100
AcDb2dVertex
 10
230.440826
 20
1491.460055
 30
0.0
  0
VERTEX
  5
235
100
AcDbEntity
  8
タンク
  6
CONTINUOUS
 62
     3
100
AcDbVertex
100
AcDb2dVertex
 10
221.382141
 20
1457.652682
 30
0.0
  0
SEQEND
  5
236
100
AcDbEntity
  8
タンク
  6
CONTINUOUS
 62
     3
  0
LINE
  5
237
100
AcDbEntity
  8
タンク
  6
CONTINUOUS
 62
     3
100
AcDbLine
 10
477.783295
 20
1276.458681
 30
0.0
 11
270.440826
 21
1276.458681
 31
0.0
  0
LINE
  5
238
100
AcDbEntity
  8
タンク
  6
CONTINUOUS
 62
     3
100
AcDbLine
 10
210.440826
 20
1491.455324
 30
0.0
 11
385.440338
 21
1491.455324
 31
0.0
  0
LINE
  5
239
100
AcDbEntity
  8
タンク
  6
CONTINUOUS
 62
     3
100
AcDbLine
 10
311.440826
 20
1124.982393
 30
0.0
 11
486.440826
 21
1124.982393
 31
0.0
  0
POLYLINE
  5
23A
100
AcDbEntity
  8
タンク
  6
CONTINUOUS
 62
     3
100
AcDb2dPolyline
 66
     1
 10
0.0
 20
0.0
 30
0.0
 70
   128
  0
VERTEX
  5
23B
100
AcDbEntity
  8
タンク
  6
CONTINUOUS
 62
     3
100
AcDbVertex
100
AcDb2dVertex
 10
480.248199
 20
1134.041079
 30
0.0
  0
VERTEX
  5
23C
100
AcDbEntity
  8
タンク
  6
CONTINUOUS
 62
     3
100
AcDbVertex
100
AcDb2dVertex
 10
446.440826
 20
1124.982393
 30
0.0
  0
VERTEX
  5
23D
100
AcDbEntity
  8
タンク
  6
CONTINUOUS
 62
     3
100
AcDbVertex
100
AcDb2dVertex
 10
480.248199
 20
1115.923708
 30
0.0
  0
SEQEND
  5
23E
100
AcDbEntity
  8
タンク
  6
CONTINUOUS
 62
     3
  0
POLYLINE
  5
23F
100
AcDbEntity
  8
タンク
  6
CONTINUOUS
 62
     3
100
AcDb2dPolyline
 66
     1
 10
0.0
 20
0.0
 30
0.0
 70
   128
  0
VERTEX
  5
240
100
AcDbEntity
  8
タンク
  6
CONTINUOUS
 62
     3
100
AcDbVertex
100
AcDb2dVertex
 10
317.633453
 20
1115.923708
 30
0.0
  0
VERTEX
  5
241
100
AcDbEntity
  8
タンク
  6
CONTINUOUS
 62
     3
100
AcDbVertex
100
AcDb2dVertex
 10
351.440826
 20
1124.982393
 30
0.0
  0
VERTEX
  5
242
100
AcDbEntity
  8
タンク
  6
CONTINUOUS
 62
     3
100
AcDbVertex
100
AcDb2dVertex
 10
317.633453
 20
1134.041079
 30
0.0
  0
SEQEND
  5
243
100
AcDbEntity
  8
タンク
  6
CONTINUOUS
 62
     3
  0
TEXT
  5
244
100
AcDbEntity
  8
タンク
  6
CONTINUOUS
 62
     2
100
AcDbText
 10
433.440796
 20
1538.465304
 30
0.0
 40
40.0
  1
２００
 41
0.833
  7
EXCADSTD
 72
     5
 11
552.440796
 21
1538.465304
 31
0.0
100
AcDbText
  0
TEXT
  5
245
100
AcDbEntity
  8
タンク
  6
CONTINUOUS
 62
     2
100
AcDbText
 10
285.440826
 20
1110.895664
 30
0.0
 40
40.0
  1
２２５
 50
90.0
 41
0.833
  7
EXCADSTD
 72
     5
 11
285.440826
 21
1229.895664
 31
0.0
100
AcDbText
  0
TEXT
  5
246
100
AcDbEntity
  8
タンク
  6
CONTINUOUS
 62
     2
100
AcDbText
 10
225.440826
 20
1157.461458
 30
0.0
 40
40.0
  1
５６０
 50
90.0
 41
0.833
  7
EXCADSTD
 72
     5
 11
225.440826
 21
1276.461458
 31
0.0
100
AcDbText
  0
TEXT
  5
247
100
AcDbEntity
  8
タンク
  6
CONTINUOUS
 62
     2
100
AcDbText
 10
485.007416
 20
1105.232485
 30
0.0
 40
40.0
  1
９６
 41
0.84
  7
EXCADSTD
 72
     5
 11
558.335416
 21
1105.232485
 31
0.0
100
AcDbText
  0
ARC
  5
248
100
AcDbEntity
  8
タンク
  6
CONTINUOUS
 62
     7
100
AcDbCircle
 10
409.886719
 20
935.455263
 30
0.0
 40
4.000005
100
AcDbArc
 50
180.780273
 51
270.000031
  0
ARC
  5
249
100
AcDbEntity
  8
タンク
  6
CONTINUOUS
 62
     7
100
AcDbCircle
 10
411.776672
 20
1273.940371
 30
0.0
 40
20.000019
100
AcDbArc
 50
180.780273
 51
209.999924
  0
LINE
  5
24A
100
AcDbEntity
  8
タンク
  6
CONTINUOUS
 62
     7
100
AcDbLine
 10
401.579071
 20
1251.603182
 30
0.0
 11
394.456116
 21
1263.940371
 31
0.0
  0
ARC
  5
24B
100
AcDbEntity
  8
タンク
  6
CONTINUOUS
 62
     7
100
AcDbCircle
 10
400.386749
 20
935.455263
 30
0.0
 40
4.000005
100
AcDbArc
 50
180.780273
 51
270.000031
  0
ARC
  5
24C
100
AcDbEntity
  8
タンク
  6
CONTINUOUS
 62
     7
100
AcDbCircle
 10
568.253571
 20
935.455263
 30
0.0
 40
3.999939
100
AcDbArc
 50
270.000031
 51
355.36795
  0
LINE
  5
24D
100
AcDbEntity
  8
タンク
  6
CONTINUOUS
 62
     7
100
AcDbLine
 10
400.409745
 20
931.455324
 30
0.0
 11
568.253571
 21
931.455324
 31
0.0
  0
LINE
  5
24E
100
AcDbEntity
  8
タンク
  6
CONTINUOUS
 62
     7
100
AcDbLine
 10
584.707123
 20
1188.485659
 30
0.0
 11
586.766296
 21
1306.455324
 31
0.0
  0
LINE
  5
24F
100
AcDbEntity
  8
タンク
  6
CONTINUOUS
 62
     7
100
AcDbLine
 10
400.831849
 20
1298.455294
 30
0.0
 11
391.331879
 21
1298.455294
 31
0.0
  0
LINE
  5
250
100
AcDbEntity
  8
タンク
  6
CONTINUOUS
 62
     7
100
AcDbLine
 10
398.331849
 20
1306.455324
 30
0.0
 11
398.331849
 21
1298.455294
 31
0.0
  0
LINE
  5
251
100
AcDbEntity
  8
タンク
  6
EXLTYPE2
 62
     2
100
AcDbLine
 10
400.695608
 20
1316.455324
 30
0.0
 11
586.940857
 21
1316.455324
 31
0.0
  0
ARC
  5
252
100
AcDbEntity
  8
タンク
  6
CONTINUOUS
 62
     7
100
AcDbCircle
 10
-3414.68573
 20
1258.296297
 30
0.0
 40
4000.0
100
AcDbArc
 50
355.672333
 51
359.000043
  0
LINE
  5
253
100
AcDbEntity
  8
タンク
  6
CONTINUOUS
 62
     7
100
AcDbLine
 10
572.240445
 20
935.132242
 30
0.0
 11
572.978926
 21
956.455324
 31
0.0
  0
ARC
  5
254
100
AcDbEntity
  8
タンク
  6
CONTINUOUS
 62
     6
100
AcDbCircle
 10
430.474793
 20
1448.919619
 30
0.0
 40
1.999937
100
AcDbArc
 50
276.672852
 51
319.21048
  0
ARC
  5
255
100
AcDbEntity
  8
タンク
  6
CONTINUOUS
 62
     6
100
AcDbCircle
 10
450.916534
 20
1431.280459
 30
0.0
 40
24.999924
100
AcDbArc
 50
95.000214
 51
139.20903
  0
LINE
  5
256
100
AcDbEntity
  8
タンク
  6
CONTINUOUS
 62
     6
100
AcDbLine
 10
430.707184
 20
1446.933077
 30
0.0
 11
418.580109
 21
1445.514925
 31
0.0
  0
ARC
  5
257
100
AcDbEntity
  8
タンク
  6
CONTINUOUS
 62
     6
100
AcDbCircle
 10
497.376343
 20
1462.448366
 30
0.0
 40
1.999946
100
AcDbArc
 50
274.998581
 51
8.184509
  0
LINE
  5
258
100
AcDbEntity
  8
タンク
  6
CONTINUOUS
 62
     6
100
AcDbLine
 10
497.550598
 20
1460.456026
 30
0.0
 11
417.882782
 21
1453.485964
 31
0.0
  0
ARC
  5
259
100
AcDbEntity
  8
タンク
  6
CONTINUOUS
 62
     6
100
AcDbCircle
 10
492.008148
 20
1456.959475
 30
0.0
 40
1.999946
100
AcDbArc
 50
274.998581
 51
343.197769
  0
LINE
  5
25A
100
AcDbEntity
  8
タンク
  6
CONTINUOUS
 62
     6
100
AcDbLine
 10
493.922668
 20
1456.381319
 30
0.0
 11
495.087982
 21
1460.24042
 31
0.0
  0
ARC
  5
25B
100
AcDbEntity
  8
タンク
  6
CONTINUOUS
 62
     6
100
AcDbCircle
 10
475.778137
 20
1455.539644
 30
0.0
 40
1.999977
100
AcDbArc
 50
206.801605
 51
274.998581
  0
LINE
  5
25C
100
AcDbEntity
  8
タンク
  6
CONTINUOUS
 62
     6
100
AcDbLine
 10
492.182404
 20
1454.967135
 30
0.0
 11
475.952393
 21
1453.547152
 31
0.0
  0
LINE
  5
25D
100
AcDbEntity
  8
タンク
  6
CONTINUOUS
 62
     6
100
AcDbLine
 10
472.175385
 20
1458.235872
 30
0.0
 11
473.993012
 21
1454.63785
 31
0.0
  0
LINE
  5
25E
100
AcDbEntity
  8
タンク
  6
CONTINUOUS
 62
     6
100
AcDbLine
 10
463.016602
 20
1480.142306
 30
0.0
 11
415.790955
 21
1477.394503
 31
0.0
  0
ARC
  5
25F
100
AcDbEntity
  8
タンク
  6
CONTINUOUS
 62
     6
100
AcDbCircle
 10
469.986969
 20
1360.344942
 30
0.0
 40
119.999943
100
AcDbArc
 50
84.506805
 51
93.330048
  0
ARC
  5
260
100
AcDbEntity
  8
タンク
  6
CONTINUOUS
 62
     6
100
AcDbCircle
 10
479.559723
 20
1459.885653
 30
0.0
 40
20.000029
100
AcDbArc
 50
8.185121
 51
84.506866
  0
LINE
  5
261
100
AcDbEntity
  8
タンク
  6
EXLTYPE2
 62
     2
100
AcDbLine
 10
400.831848
 20
1316.455324
 30
0.0
 11
400.831848
 21
1306.455324
 31
0.0
  0
LINE
  5
262
100
AcDbEntity
  8
タンク
  6
EXLTYPE2
 62
     2
100
AcDbLine
 10
586.657349
 20
1306.455324
 30
0.0
 11
586.831909
 21
1316.455324
 31
0.0
  0
LINE
  5
263
100
AcDbEntity
  8
タンク
  6
CONTINUOUS
 62
     7
100
AcDbLine
 10
591.331879
 20
1306.455324
 30
0.0
 11
391.331879
 21
1306.455324
 31
0.0
  0
ARC
  5
264
100
AcDbEntity
  8
タンク
  6
CONTINUOUS
 62
     7
100
AcDbCircle
 10
91.33432
 20
1307.671908
 30
0.0
 40
500.0
100
AcDbArc
 50
359.860642
 51
6.603516
  0
ARC
  5
265
100
AcDbEntity
  8
タンク
  6
CONTINUOUS
 62
     7
100
AcDbCircle
 10
582.056824
 20
1364.481753
 30
0.0
 40
6.000043
100
AcDbArc
 50
6.6036
 51
90.935547
  0
ARC
  5
266
100
AcDbEntity
  8
タンク
  6
CONTINUOUS
 62
     7
100
AcDbCircle
 10
576.082703
 20
1730.432985
 30
0.0
 40
360.0
100
AcDbArc
 50
252.337982
 51
270.935379
  0
ARC
  5
267
100
AcDbEntity
  8
タンク
  6
CONTINUOUS
 62
     7
100
AcDbCircle
 10
488.0961
 20
1454.102724
 30
0.0
 40
69.999962
100
AcDbArc
 50
185.000015
 51
252.337982
  0
LINE
  5
268
100
AcDbEntity
  8
タンク
  6
CONTINUOUS
 62
     7
100
AcDbLine
 10
415.039917
 20
1485.978335
 30
0.0
 11
418.362518
 21
1448.001803
 31
0.0
  0
ARC
  5
269
100
AcDbEntity
  8
タンク
  6
CONTINUOUS
 62
     7
100
AcDbCircle
 10
409.062744
 20
1485.455263
 30
0.0
 40
6.000017
100
AcDbArc
 50
5.001296
 51
89.999969
  0
LINE
  5
26A
100
AcDbEntity
  8
タンク
  6
CONTINUOUS
 62
     7
100
AcDbLine
 10
409.062744
 20
1491.455324
 30
0.0
 11
398.491913
 21
1491.455324
 31
0.0
  0
ARC
  5
26B
100
AcDbEntity
  8
タンク
  6
CONTINUOUS
 62
     7
100
AcDbCircle
 10
398.491913
 20
1487.455385
 30
0.0
 40
3.999939
100
AcDbArc
 50
89.999969
 51
179.001114
  0
LINE
  5
26C
100
AcDbEntity
  8
タンク
  6
CONTINUOUS
 62
     7
100
AcDbLine
 10
394.492432
 20
1487.525118
 30
0.0
 11
391.331879
 21
1306.455324
 31
0.0
  0
ARC
  5
26D
100
AcDbEntity
  8
タンク
  6
CONTINUOUS
 62
     6
100
AcDbCircle
 10
446.440826
 20
1276.458681
 30
0.0
 40
17.75
100
AcDbArc
 50
290.961864
 51
249.038136
  0
ARC
  5
26E
100
AcDbEntity
  8
タンク
  6
CONTINUOUS
 62
     6
100
AcDbCircle
 10
446.440826
 20
1276.458681
 30
0.0
 40
12.75
100
AcDbArc
 50
299.87036
 51
240.12964
  0
LINE
  5
26F
100
AcDbEntity
  8
タンク
  6
CONTINUOUS
 62
     6
100
AcDbLine
 10
457.940826
 20
1281.96436
 30
0.0
 11
457.940826
 21
1270.953002
 31
0.0
  0
LINE
  5
270
100
AcDbEntity
  8
タンク
  6
CONTINUOUS
 62
     6
100
AcDbLine
 10
447.422769
 20
1289.170813
 30
0.0
 11
456.958884
 21
1283.665134
 31
0.0
  0
LINE
  5
271
100
AcDbEntity
  8
タンク
  6
CONTINUOUS
 62
     6
100
AcDbLine
 10
435.922769
 20
1283.665134
 30
0.0
 11
445.458884
 21
1289.170813
 31
0.0
  0
LINE
  5
272
100
AcDbEntity
  8
タンク
  6
CONTINUOUS
 62
     6
100
AcDbLine
 10
434.940826
 20
1270.953002
 30
0.0
 11
434.940826
 21
1281.96436
 31
0.0
  0
LINE
  5
273
100
AcDbEntity
  8
タンク
  6
CONTINUOUS
 62
     6
100
AcDbLine
 10
440.090826
 20
1266.845799
 30
0.0
 11
435.922769
 21
1269.252229
 31
0.0
  0
LINE
  5
274
100
AcDbEntity
  8
タンク
  6
CONTINUOUS
 62
     6
100
AcDbLine
 10
456.958884
 20
1269.252229
 30
0.0
 11
452.790826
 21
1266.845799
 31
0.0
  0
ARC
  5
275
100
AcDbEntity
  8
タンク
  6
CONTINUOUS
 62
     6
100
AcDbCircle
 10
446.440826
 20
1276.458681
 30
0.0
 40
10.74299
100
AcDbArc
 50
306.233906
 51
233.766094
  0
POLYLINE
  5
276
100
AcDbEntity
  8
タンク
  6
CONTINUOUS
 62
     3
100
AcDb2dPolyline
 66
     1
 10
0.0
 20
0.0
 30
0.0
 70
   128
  0
VERTEX
  5
277
100
AcDbEntity
  8
タンク
  6
CONTINUOUS
 62
     3
100
AcDbVertex
100
AcDb2dVertex
 10
299.499512
 20
1017.643374
 30
0.0
  0
VERTEX
  5
278
100
AcDbEntity
  8
タンク
  6
CONTINUOUS
 62
     3
100
AcDbVertex
100
AcDb2dVertex
 10
290.440826
 20
1051.450747
 30
0.0
  0
VERTEX
  5
279
100
AcDbEntity
  8
タンク
  6
CONTINUOUS
 62
     3
100
AcDbVertex
100
AcDb2dVertex
 10
281.382141
 20
1017.643374
 30
0.0
  0
SEQEND
  5
27A
100
AcDbEntity
  8
タンク
  6
CONTINUOUS
 62
     3
  0
POLYLINE
  5
27B
100
AcDbEntity
  8
タンク
  6
CONTINUOUS
 62
     3
100
AcDb2dPolyline
 66
     1
 10
0.0
 20
0.0
 30
0.0
 70
   128
  0
VERTEX
  5
27C
100
AcDbEntity
  8
タンク
  6
CONTINUOUS
 62
     3
100
AcDbVertex
100
AcDb2dVertex
 10
281.382141
 20
600.26285
 30
0.0
  0
VERTEX
  5
27D
100
AcDbEntity
  8
タンク
  6
CONTINUOUS
 62
     3
100
AcDbVertex
100
AcDb2dVertex
 10
290.440826
 20
566.455477
 30
0.0
  0
VERTEX
  5
27E
100
AcDbEntity
  8
タンク
  6
CONTINUOUS
 62
     3
100
AcDbVertex
100
AcDb2dVertex
 10
299.499512
 20
600.26285
 30
0.0
  0
SEQEND
  5
27F
100
AcDbEntity
  8
タンク
  6
CONTINUOUS
 62
     3
  0
TEXT
  5
280
100
AcDbEntity
  8
タンク
  6
CONTINUOUS
 62
     2
100
AcDbText
 10
285.440826
 20
755.892214
 30
0.0
 40
40.0
  1
４８５
 50
90.0
 41
0.833
  7
EXCADSTD
 72
     5
 11
285.440826
 21
874.892214
 31
0.0
100
AcDbText
  0
LINE
  5
281
100
AcDbEntity
  8
タンク
  6
CONTINUOUS
 62
     7
100
AcDbLine
 10
400.831848
 20
1306.455324
 30
0.0
 11
404.135589
 21
1063.960671
 31
0.0
  0
LINE
  5
282
100
AcDbEntity
  8
タンク
  6
CONTINUOUS
 62
     7
100
AcDbLine
 10
404.476196
 20
1038.960066
 30
0.0
 11
405.887062
 21
935.402464
 31
0.0
  0
LINE
  5
283
100
AcDbEntity
  8
タンク
  6
CONTINUOUS
 62
     7
100
AcDbLine
 10
391.331833
 20
1306.455324
 30
0.0
 11
394.635603
 21
1063.960671
 31
0.0
  0
LINE
  5
284
100
AcDbEntity
  8
タンク
  6
CONTINUOUS
 62
     7
100
AcDbLine
 10
394.976214
 20
1038.960066
 30
0.0
 11
396.387093
 21
935.402463
 31
0.0
  0
LINE
  5
285
100
AcDbEntity
  8
タンク
  6
CONTINUOUS
 62
     2
100
AcDbLine
 10
396.100267
 20
956.455324
 30
0.0
 11
573.91153
 21
956.455324
 31
0.0
  0
LINE
  5
286
100
AcDbEntity
  8
タンク
  6
EXLTYPE2
 62
     2
100
AcDbLine
 10
1470.5
 20
1316.455168
 30
0.0
 11
1881.5
 21
1316.455168
 31
0.0
  0
LINE
  5
287
100
AcDbEntity
  8
タンク
  6
CONTINUOUS
 62
     7
100
AcDbLine
 10
1880.159917
 20
1239.681847
 30
0.0
 11
1881.325449
 21
1306.455166
 31
0.0
  0
LINE
  5
288
100
AcDbEntity
  8
タンク
  6
CONTINUOUS
 62
     7
100
AcDbLine
 10
1471.840083
 20
1239.681847
 30
0.0
 11
1470.674553
 21
1306.455017
 31
0.0
  0
LINE
  5
289
100
AcDbEntity
  8
タンク
  6
EXLTYPE2
 62
     2
100
AcDbLine
 10
1470.674553
 20
1306.455017
 30
0.0
 11
1470.5
 21
1316.455168
 31
0.0
  0
LINE
  5
28A
100
AcDbEntity
  8
タンク
  6
EXLTYPE2
 62
     2
100
AcDbLine
 10
1881.325449
 20
1306.455166
 30
0.0
 11
1881.5
 21
1316.455168
 31
0.0
  0
LINE
  5
28B
100
AcDbEntity
  8
タンク
  6
CONTINUOUS
 62
     3
100
AcDbLine
 10
1887.000977
 20
1386.455168
 30
0.0
 11
1887.000977
 21
1553.465452
 31
0.0
  0
LINE
  5
28C
100
AcDbEntity
  8
タンク
  6
CONTINUOUS
 62
     3
100
AcDbLine
 10
1464.999023
 20
1386.455168
 30
0.0
 11
1464.999023
 21
1553.465452
 31
0.0
  0
LINE
  5
28D
100
AcDbEntity
  8
タンク
  6
CONTINUOUS
 62
     3
100
AcDbLine
 10
1464.999023
 20
1533.465452
 30
0.0
 11
1887.000977
 21
1533.465452
 31
0.0
  0
POLYLINE
  5
28E
100
AcDbEntity
  8
タンク
  6
CONTINUOUS
 62
     3
100
AcDb2dPolyline
 66
     1
 10
0.0
 20
0.0
 30
0.0
 70
   128
  0
VERTEX
  5
28F
100
AcDbEntity
  8
タンク
  6
CONTINUOUS
 62
     3
100
AcDbVertex
100
AcDb2dVertex
 10
1853.193603
 20
1524.407835
 30
0.0
  0
VERTEX
  5
290
100
AcDbEntity
  8
タンク
  6
CONTINUOUS
 62
     3
100
AcDbVertex
100
AcDb2dVertex
 10
1887.000977
 20
1533.465452
 30
0.0
  0
VERTEX
  5
291
100
AcDbEntity
  8
タンク
  6
CONTINUOUS
 62
     3
100
AcDbVertex
100
AcDb2dVertex
 10
1853.193603
 20
1542.523069
 30
0.0
  0
SEQEND
  5
292
100
AcDbEntity
  8
タンク
  6
CONTINUOUS
 62
     3
  0
POLYLINE
  5
293
100
AcDbEntity
  8
タンク
  6
CONTINUOUS
 62
     3
100
AcDb2dPolyline
 66
     1
 10
0.0
 20
0.0
 30
0.0
 70
   128
  0
VERTEX
  5
294
100
AcDbEntity
  8
タンク
  6
CONTINUOUS
 62
     3
100
AcDbVertex
100
AcDb2dVertex
 10
1498.806396
 20
1542.523069
 30
0.0
  0
VERTEX
  5
295
100
AcDbEntity
  8
タンク
  6
CONTINUOUS
 62
     3
100
AcDbVertex
100
AcDb2dVertex
 10
1464.999023
 20
1533.465452
 30
0.0
  0
VERTEX
  5
296
100
AcDbEntity
  8
タンク
  6
CONTINUOUS
 62
     3
100
AcDbVertex
100
AcDb2dVertex
 10
1498.806396
 20
1524.407835
 30
0.0
  0
SEQEND
  5
297
100
AcDbEntity
  8
タンク
  6
CONTINUOUS
 62
     3
  0
TEXT
  5
298
100
AcDbEntity
  8
タンク
  6
CONTINUOUS
 62
     2
100
AcDbText
 10
1617.999969
 20
1538.465452
 30
0.0
 40
40.0
  1
４２０
 41
0.833
  7
EXCADSTD
 72
     5
 11
1736.999969
 21
1538.465452
 31
0.0
100
AcDbText
  0
ARC
  5
299
100
AcDbEntity
  8
タンク
  6
CONTINUOUS
 62
     7
100
AcDbCircle
 10
1876.724075
 20
1364.481596
 30
0.0
 40
6.000043
100
AcDbArc
 50
6.6036
 51
92.297058
  0
ARC
  5
29A
100
AcDbEntity
  8
タンク
  6
CONTINUOUS
 62
     7
100
AcDbCircle
 10
1675.99852
 20
6366.455015
 30
0.0
 40
5000.0
100
AcDbArc
 50
267.703204
 51
272.297974
  0
ARC
  5
29B
100
AcDbEntity
  8
タンク
  6
CONTINUOUS
 62
     7
100
AcDbCircle
 10
1386.001572
 20
1307.671446
 30
0.0
 40
500.0
100
AcDbArc
 50
359.860625
 51
11.682691
  0
ARC
  5
29C
100
AcDbEntity
  8
タンク
  6
CONTINUOUS
 62
     7
100
AcDbCircle
 10
1711.241287
 20
1226.946958
 30
0.0
 40
260.0
100
AcDbArc
 50
58.11431
 51
75.437191
  0
ARC
  5
29D
100
AcDbEntity
  8
タンク
  6
CONTINUOUS
 62
     7
100
AcDbCircle
 10
1676.000198
 20
1091.455015
 30
0.0
 40
400.0
100
AcDbArc
 50
75.409753
 51
104.629145
  0
ARC
  5
29E
100
AcDbEntity
  8
タンク
  6
CONTINUOUS
 62
     7
100
AcDbCircle
 10
1640.758804
 20
1226.946958
 30
0.0
 40
260.0
100
AcDbArc
 50
104.503273
 51
121.885703
  0
ARC
  5
29F
100
AcDbEntity
  8
タンク
  6
CONTINUOUS
 62
     7
100
AcDbCircle
 10
1965.99852
 20
1307.671598
 30
0.0
 40
500.0
100
AcDbArc
 50
168.317333
 51
180.13941
  0
POLYLINE
  5
2A0
100
AcDbEntity
  8
タンク
  6
CONTINUOUS
 62
     6
100
AcDb2dPolyline
 66
     1
 10
0.0
 20
0.0
 30
0.0
 70
   128
  0
VERTEX
  5
2A1
100
AcDbEntity
  8
タンク
  6
CONTINUOUS
 62
     6
100
AcDbVertex
100
AcDb2dVertex
 10
1666.500076
 20
1454.257139
 30
0.0
  0
VERTEX
  5
2A2
100
AcDbEntity
  8
タンク
  6
CONTINUOUS
 62
     6
100
AcDbVertex
100
AcDb2dVertex
 10
1666.536239
 20
1454.184965
 30
0.0
  0
VERTEX
  5
2A3
100
AcDbEntity
  8
タンク
  6
CONTINUOUS
 62
     6
100
AcDbVertex
100
AcDb2dVertex
 10
1666.644424
 20
1454.113554
 30
0.0
  0
VERTEX
  5
2A4
100
AcDbEntity
  8
タンク
  6
CONTINUOUS
 62
     6
100
AcDbVertex
100
AcDb2dVertex
 10
1666.823868
 20
1454.0426
 30
0.0
  0
VERTEX
  5
2A5
100
AcDbEntity
  8
タンク
  6
CONTINUOUS
 62
     6
100
AcDbVertex
100
AcDb2dVertex
 10
1667.073196
 20
1453.973783
 30
0.0
  0
VERTEX
  5
2A6
100
AcDbEntity
  8
タンク
  6
CONTINUOUS
 62
     6
100
AcDbVertex
100
AcDb2dVertex
 10
1667.390274
 20
1453.90695
 30
0.0
  0
VERTEX
  5
2A7
100
AcDbEntity
  8
タンク
  6
CONTINUOUS
 62
     6
100
AcDbVertex
100
AcDb2dVertex
 10
1667.772812
 20
1453.842863
 30
0.0
  0
VERTEX
  5
2A8
100
AcDbEntity
  8
タンク
  6
CONTINUOUS
 62
     6
100
AcDbVertex
100
AcDb2dVertex
 10
1668.218216
 20
1453.78198
 30
0.0
  0
VERTEX
  5
2A9
100
AcDbEntity
  8
タンク
  6
CONTINUOUS
 62
     6
100
AcDbVertex
100
AcDb2dVertex
 10
1668.722671
 20
1453.724455
 30
0.0
  0
VERTEX
  5
2AA
100
AcDbEntity
  8
タンク
  6
CONTINUOUS
 62
     6
100
AcDbVertex
100
AcDb2dVertex
 10
1669.282516
 20
1453.671507
 30
0.0
  0
VERTEX
  5
2AB
100
AcDbEntity
  8
タンク
  6
CONTINUOUS
 62
     6
100
AcDbVertex
100
AcDb2dVertex
 10
1669.893631
 20
1453.622679
 30
0.0
  0
VERTEX
  5
2AC
100
AcDbEntity
  8
タンク
  6
CONTINUOUS
 62
     6
100
AcDbVertex
100
AcDb2dVertex
 10
1670.551132
 20
1453.578733
 30
0.0
  0
VERTEX
  5
2AD
100
AcDbEntity
  8
タンク
  6
CONTINUOUS
 62
     6
100
AcDbVertex
100
AcDb2dVertex
 10
1671.250137
 20
1453.540129
 30
0.0
  0
VERTEX
  5
2AE
100
AcDbEntity
  8
タンク
  6
CONTINUOUS
 62
     6
100
AcDbVertex
100
AcDb2dVertex
 10
1671.985306
 20
1453.506864
 30
0.0
  0
VERTEX
  5
2AF
100
AcDbEntity
  8
タンク
  6
CONTINUOUS
 62
     6
100
AcDbVertex
100
AcDb2dVertex
 10
1672.750992
 20
1453.479246
 30
0.0
  0
VERTEX
  5
2B0
100
AcDbEntity
  8
タンク
  6
CONTINUOUS
 62
     6
100
AcDbVertex
100
AcDb2dVertex
 10
1673.541244
 20
1453.456968
 30
0.0
  0
VERTEX
  5
2B1
100
AcDbEntity
  8
タンク
  6
CONTINUOUS
 62
     6
100
AcDbVertex
100
AcDb2dVertex
 10
1674.350418
 20
1453.441252
 30
0.0
  0
VERTEX
  5
2B2
100
AcDbEntity
  8
タンク
  6
CONTINUOUS
 62
     6
100
AcDbVertex
100
AcDb2dVertex
 10
1675.171951
 20
1453.431639
 30
0.0
  0
VERTEX
  5
2B3
100
AcDbEntity
  8
タンク
  6
CONTINUOUS
 62
     6
100
AcDbVertex
100
AcDb2dVertex
 10
1676.000046
 20
1453.429045
 30
0.0
  0
VERTEX
  5
2B4
100
AcDbEntity
  8
タンク
  6
CONTINUOUS
 62
     6
100
AcDbVertex
100
AcDb2dVertex
 10
1676.827988
 20
1453.432249
 30
0.0
  0
VERTEX
  5
2B5
100
AcDbEntity
  8
タンク
  6
CONTINUOUS
 62
     6
100
AcDbVertex
100
AcDb2dVertex
 10
1677.649673
 20
1453.441709
 30
0.0
  0
VERTEX
  5
2B6
100
AcDbEntity
  8
タンク
  6
CONTINUOUS
 62
     6
100
AcDbVertex
100
AcDb2dVertex
 10
1678.458847
 20
1453.456968
 30
0.0
  0
VERTEX
  5
2B7
100
AcDbEntity
  8
タンク
  6
CONTINUOUS
 62
     6
100
AcDbVertex
100
AcDb2dVertex
 10
1679.249252
 20
1453.478636
 30
0.0
  0
VERTEX
  5
2B8
100
AcDbEntity
  8
タンク
  6
CONTINUOUS
 62
     6
100
AcDbVertex
100
AcDb2dVertex
 10
1680.014938
 20
1453.506101
 30
0.0
  0
VERTEX
  5
2B9
100
AcDbEntity
  8
タンク
  6
CONTINUOUS
 62
     6
100
AcDbVertex
100
AcDb2dVertex
 10
1680.750107
 20
1453.540129
 30
0.0
  0
VERTEX
  5
2BA
100
AcDbEntity
  8
タンク
  6
CONTINUOUS
 62
     6
100
AcDbVertex
100
AcDb2dVertex
 10
1681.448959
 20
1453.579038
 30
0.0
  0
VERTEX
  5
2BB
100
AcDbEntity
  8
タンク
  6
CONTINUOUS
 62
     6
100
AcDbVertex
100
AcDb2dVertex
 10
1682.10646
 20
1453.623136
 30
0.0
  0
VERTEX
  5
2BC
100
AcDbEntity
  8
タンク
  6
CONTINUOUS
 62
     6
100
AcDbVertex
100
AcDb2dVertex
 10
1682.717575
 20
1453.671507
 30
0.0
  0
VERTEX
  5
2BD
100
AcDbEntity
  8
タンク
  6
CONTINUOUS
 62
     6
100
AcDbVertex
100
AcDb2dVertex
 10
1683.27742
 20
1453.72476
 30
0.0
  0
VERTEX
  5
2BE
100
AcDbEntity
  8
タンク
  6
CONTINUOUS
 62
     6
100
AcDbVertex
100
AcDb2dVertex
 10
1683.781875
 20
1453.78198
 30
0.0
  0
VERTEX
  5
2BF
100
AcDbEntity
  8
タンク
  6
CONTINUOUS
 62
     6
100
AcDbVertex
100
AcDb2dVertex
 10
1684.22728
 20
1453.842863
 30
0.0
  0
VERTEX
  5
2C0
100
AcDbEntity
  8
タンク
  6
CONTINUOUS
 62
     6
100
AcDbVertex
100
AcDb2dVertex
 10
1684.609817
 20
1453.90695
 30
0.0
  0
VERTEX
  5
2C1
100
AcDbEntity
  8
タンク
  6
CONTINUOUS
 62
     6
100
AcDbVertex
100
AcDb2dVertex
 10
1684.927048
 20
1453.973478
 30
0.0
  0
VERTEX
  5
2C2
100
AcDbEntity
  8
タンク
  6
CONTINUOUS
 62
     6
100
AcDbVertex
100
AcDb2dVertex
 10
1685.176376
 20
1454.0426
 30
0.0
  0
VERTEX
  5
2C3
100
AcDbEntity
  8
タンク
  6
CONTINUOUS
 62
     6
100
AcDbVertex
100
AcDb2dVertex
 10
1685.355667
 20
1454.113096
 30
0.0
  0
VERTEX
  5
2C4
100
AcDbEntity
  8
タンク
  6
CONTINUOUS
 62
     6
100
AcDbVertex
100
AcDb2dVertex
 10
1685.463852
 20
1454.18466
 30
0.0
  0
VERTEX
  5
2C5
100
AcDbEntity
  8
タンク
  6
CONTINUOUS
 62
     6
100
AcDbVertex
100
AcDb2dVertex
 10
1685.500015
 20
1454.257139
 30
0.0
  0
VERTEX
  5
2C6
100
AcDbEntity
  8
タンク
  6
CONTINUOUS
 62
     6
100
AcDbVertex
100
AcDb2dVertex
 10
1685.463852
 20
1454.329313
 30
0.0
  0
VERTEX
  5
2C7
100
AcDbEntity
  8
タンク
  6
CONTINUOUS
 62
     6
100
AcDbVertex
100
AcDb2dVertex
 10
1685.355667
 20
1454.401182
 30
0.0
  0
VERTEX
  5
2C8
100
AcDbEntity
  8
タンク
  6
CONTINUOUS
 62
     6
100
AcDbVertex
100
AcDb2dVertex
 10
1685.176376
 20
1454.471372
 30
0.0
  0
VERTEX
  5
2C9
100
AcDbEntity
  8
タンク
  6
CONTINUOUS
 62
     6
100
AcDbVertex
100
AcDb2dVertex
 10
1684.927048
 20
1454.54019
 30
0.0
  0
VERTEX
  5
2CA
100
AcDbEntity
  8
タンク
  6
CONTINUOUS
 62
     6
100
AcDbVertex
100
AcDb2dVertex
 10
1684.60997
 20
1454.60687
 30
0.0
  0
VERTEX
  5
2CB
100
AcDbEntity
  8
タンク
  6
CONTINUOUS
 62
     6
100
AcDbVertex
100
AcDb2dVertex
 10
1684.22728
 20
1454.670957
 30
0.0
  0
VERTEX
  5
2CC
100
AcDbEntity
  8
タンク
  6
CONTINUOUS
 62
     6
100
AcDbVertex
100
AcDb2dVertex
 10
1683.781875
 20
1454.73184
 30
0.0
  0
VERTEX
  5
2CD
100
AcDbEntity
  8
タンク
  6
CONTINUOUS
 62
     6
100
AcDbVertex
100
AcDb2dVertex
 10
1683.27742
 20
1454.789213
 30
0.0
  0
VERTEX
  5
2CE
100
AcDbEntity
  8
タンク
  6
CONTINUOUS
 62
     6
100
AcDbVertex
100
AcDb2dVertex
 10
1682.717575
 20
1454.842466
 30
0.0
  0
VERTEX
  5
2CF
100
AcDbEntity
  8
タンク
  6
CONTINUOUS
 62
     6
100
AcDbVertex
100
AcDb2dVertex
 10
1682.10646
 20
1454.891294
 30
0.0
  0
VERTEX
  5
2D0
100
AcDbEntity
  8
タンク
  6
CONTINUOUS
 62
     6
100
AcDbVertex
100
AcDb2dVertex
 10
1681.448959
 20
1454.935087
 30
0.0
  0
VERTEX
  5
2D1
100
AcDbEntity
  8
タンク
  6
CONTINUOUS
 62
     6
100
AcDbVertex
100
AcDb2dVertex
 10
1680.750107
 20
1454.974149
 30
0.0
  0
VERTEX
  5
2D2
100
AcDbEntity
  8
タンク
  6
CONTINUOUS
 62
     6
100
AcDbVertex
100
AcDb2dVertex
 10
1680.014938
 20
1455.007566
 30
0.0
  0
VERTEX
  5
2D3
100
AcDbEntity
  8
タンク
  6
CONTINUOUS
 62
     6
100
AcDbVertex
100
AcDb2dVertex
 10
1679.249252
 20
1455.03549
 30
0.0
  0
VERTEX
  5
2D4
100
AcDbEntity
  8
タンク
  6
CONTINUOUS
 62
     6
100
AcDbVertex
100
AcDb2dVertex
 10
1678.458847
 20
1455.056852
 30
0.0
  0
VERTEX
  5
2D5
100
AcDbEntity
  8
タンク
  6
CONTINUOUS
 62
     6
100
AcDbVertex
100
AcDb2dVertex
 10
1677.649673
 20
1455.072569
 30
0.0
  0
VERTEX
  5
2D6
100
AcDbEntity
  8
タンク
  6
CONTINUOUS
 62
     6
100
AcDbVertex
100
AcDb2dVertex
 10
1676.82814
 20
1455.082029
 30
0.0
  0
VERTEX
  5
2D7
100
AcDbEntity
  8
タンク
  6
CONTINUOUS
 62
     6
100
AcDbVertex
100
AcDb2dVertex
 10
1676.000046
 20
1455.084928
 30
0.0
  0
VERTEX
  5
2D8
100
AcDbEntity
  8
タンク
  6
CONTINUOUS
 62
     6
100
AcDbVertex
100
AcDb2dVertex
 10
1675.172104
 20
1455.081724
 30
0.0
  0
VERTEX
  5
2D9
100
AcDbEntity
  8
タンク
  6
CONTINUOUS
 62
     6
100
AcDbVertex
100
AcDb2dVertex
 10
1674.350418
 20
1455.072111
 30
0.0
  0
VERTEX
  5
2DA
100
AcDbEntity
  8
タンク
  6
CONTINUOUS
 62
     6
100
AcDbVertex
100
AcDb2dVertex
 10
1673.541244
 20
1455.056852
 30
0.0
  0
VERTEX
  5
2DB
100
AcDbEntity
  8
タンク
  6
CONTINUOUS
 62
     6
100
AcDbVertex
100
AcDb2dVertex
 10
1672.750839
 20
1455.035185
 30
0.0
  0
VERTEX
  5
2DC
100
AcDbEntity
  8
タンク
  6
CONTINUOUS
 62
     6
100
AcDbVertex
100
AcDb2dVertex
 10
1671.985153
 20
1455.007566
 30
0.0
  0
SEQEND
  5
2DD
100
AcDbEntity
  8
タンク
  6
CONTINUOUS
 62
     6
  0
POLYLINE
  5
2DE
100
AcDbEntity
  8
タンク
  6
CONTINUOUS
 62
     6
100
AcDb2dPolyline
 66
     1
 10
0.0
 20
0.0
 30
0.0
 70
   128
  0
VERTEX
  5
2DF
100
AcDbEntity
  8
タンク
  6
CONTINUOUS
 62
     6
100
AcDbVertex
100
AcDb2dVertex
 10
1671.985153
 20
1455.007566
 30
0.0
  0
VERTEX
  5
2E0
100
AcDbEntity
  8
タンク
  6
CONTINUOUS
 62
     6
100
AcDbVertex
100
AcDb2dVertex
 10
1671.250137
 20
1454.974149
 30
0.0
  0
VERTEX
  5
2E1
100
AcDbEntity
  8
タンク
  6
CONTINUOUS
 62
     6
100
AcDbVertex
100
AcDb2dVertex
 10
1670.551285
 20
1454.935392
 30
0.0
  0
VERTEX
  5
2E2
100
AcDbEntity
  8
タンク
  6
CONTINUOUS
 62
     6
100
AcDbVertex
100
AcDb2dVertex
 10
1669.893783
 20
1454.891599
 30
0.0
  0
VERTEX
  5
2E3
100
AcDbEntity
  8
タンク
  6
CONTINUOUS
 62
     6
100
AcDbVertex
100
AcDb2dVertex
 10
1669.282516
 20
1454.842466
 30
0.0
  0
VERTEX
  5
2E4
100
AcDbEntity
  8
タンク
  6
CONTINUOUS
 62
     6
100
AcDbVertex
100
AcDb2dVertex
 10
1668.722671
 20
1454.789213
 30
0.0
  0
VERTEX
  5
2E5
100
AcDbEntity
  8
タンク
  6
CONTINUOUS
 62
     6
100
AcDbVertex
100
AcDb2dVertex
 10
1668.218216
 20
1454.73184
 30
0.0
  0
VERTEX
  5
2E6
100
AcDbEntity
  8
タンク
  6
CONTINUOUS
 62
     6
100
AcDbVertex
100
AcDb2dVertex
 10
1667.772812
 20
1454.670957
 30
0.0
  0
VERTEX
  5
2E7
100
AcDbEntity
  8
タンク
  6
CONTINUOUS
 62
     6
100
AcDbVertex
100
AcDb2dVertex
 10
1667.390274
 20
1454.60687
 30
0.0
  0
VERTEX
  5
2E8
100
AcDbEntity
  8
タンク
  6
CONTINUOUS
 62
     6
100
AcDbVertex
100
AcDb2dVertex
 10
1667.073044
 20
1454.54019
 30
0.0
  0
VERTEX
  5
2E9
100
AcDbEntity
  8
タンク
  6
CONTINUOUS
 62
     6
100
AcDbVertex
100
AcDb2dVertex
 10
1666.823868
 20
1454.471372
 30
0.0
  0
SEQEND
  5
2EA
100
AcDbEntity
  8
タンク
  6
CONTINUOUS
 62
     6
  0
POLYLINE
  5
2EB
100
AcDbEntity
  8
タンク
  6
CONTINUOUS
 62
     6
100
AcDb2dPolyline
 66
     1
 10
0.0
 20
0.0
 30
0.0
 70
   128
  0
VERTEX
  5
2EC
100
AcDbEntity
  8
タンク
  6
CONTINUOUS
 62
     6
100
AcDbVertex
100
AcDb2dVertex
 10
1666.823868
 20
1454.471372
 30
0.0
  0
VERTEX
  5
2ED
100
AcDbEntity
  8
タンク
  6
CONTINUOUS
 62
     6
100
AcDbVertex
100
AcDb2dVertex
 10
1666.644577
 20
1454.400877
 30
0.0
  0
VERTEX
  5
2EE
100
AcDbEntity
  8
タンク
  6
CONTINUOUS
 62
     6
100
AcDbVertex
100
AcDb2dVertex
 10
1666.536392
 20
1454.32916
 30
0.0
  0
VERTEX
  5
2EF
100
AcDbEntity
  8
タンク
  6
CONTINUOUS
 62
     6
100
AcDbVertex
100
AcDb2dVertex
 10
1666.500076
 20
1454.256834
 30
0.0
  0
SEQEND
  5
2F0
100
AcDbEntity
  8
タンク
  6
CONTINUOUS
 62
     6
  0
POLYLINE
  5
2F1
100
AcDbEntity
  8
タンク
  6
CONTINUOUS
 62
     6
100
AcDb2dPolyline
 66
     1
 10
0.0
 20
0.0
 30
0.0
 70
   128
  0
VERTEX
  5
2F2
100
AcDbEntity
  8
タンク
  6
CONTINUOUS
 62
     6
100
AcDbVertex
100
AcDb2dVertex
 10
1687.500137
 20
1459.238066
 30
0.0
  0
VERTEX
  5
2F3
100
AcDbEntity
  8
タンク
  6
CONTINUOUS
 62
     6
100
AcDbVertex
100
AcDb2dVertex
 10
1687.456344
 20
1459.325346
 30
0.0
  0
VERTEX
  5
2F4
100
AcDbEntity
  8
タンク
  6
CONTINUOUS
 62
     6
100
AcDbVertex
100
AcDb2dVertex
 10
1687.325271
 20
1459.412016
 30
0.0
  0
VERTEX
  5
2F5
100
AcDbEntity
  8
タンク
  6
CONTINUOUS
 62
     6
100
AcDbVertex
100
AcDb2dVertex
 10
1687.108139
 20
1459.497618
 30
0.0
  0
VERTEX
  5
2F6
100
AcDbEntity
  8
タンク
  6
CONTINUOUS
 62
     6
100
AcDbVertex
100
AcDb2dVertex
 10
1686.80632
 20
1459.581083
 30
0.0
  0
VERTEX
  5
2F7
100
AcDbEntity
  8
タンク
  6
CONTINUOUS
 62
     6
100
AcDbVertex
100
AcDb2dVertex
 10
1686.422409
 20
1459.661955
 30
0.0
  0
VERTEX
  5
2F8
100
AcDbEntity
  8
タンク
  6
CONTINUOUS
 62
     6
100
AcDbVertex
100
AcDb2dVertex
 10
1685.959305
 20
1459.739164
 30
0.0
  0
VERTEX
  5
2F9
100
AcDbEntity
  8
タンク
  6
CONTINUOUS
 62
     6
100
AcDbVertex
100
AcDb2dVertex
 10
1685.420212
 20
1459.812864
 30
0.0
  0
VERTEX
  5
2FA
100
AcDbEntity
  8
タンク
  6
CONTINUOUS
 62
     6
100
AcDbVertex
100
AcDb2dVertex
 10
1684.809402
 20
1459.882139
 30
0.0
  0
VERTEX
  5
2FB
100
AcDbEntity
  8
タンク
  6
CONTINUOUS
 62
     6
100
AcDbVertex
100
AcDb2dVertex
 10
1684.13176
 20
1459.946684
 30
0.0
  0
VERTEX
  5
2FC
100
AcDbEntity
  8
タンク
  6
CONTINUOUS
 62
     6
100
AcDbVertex
100
AcDb2dVertex
 10
1683.392013
 20
1460.005735
 30
0.0
  0
VERTEX
  5
2FD
100
AcDbEntity
  8
タンク
  6
CONTINUOUS
 62
     6
100
AcDbVertex
100
AcDb2dVertex
 10
1682.596115
 20
1460.058836
 30
0.0
  0
VERTEX
  5
2FE
100
AcDbEntity
  8
タンク
  6
CONTINUOUS
 62
     6
100
AcDbVertex
100
AcDb2dVertex
 10
1681.750015
 20
1460.106138
 30
0.0
  0
VERTEX
  5
2FF
100
AcDbEntity
  8
タンク
  6
CONTINUOUS
 62
     6
100
AcDbVertex
100
AcDb2dVertex
 10
1680.860123
 20
1460.146574
 30
0.0
  0
VERTEX
  5
300
100
AcDbEntity
  8
タンク
  6
CONTINUOUS
 62
     6
100
AcDbVertex
100
AcDb2dVertex
 10
1679.933151
 20
1460.179991
 30
0.0
  0
VERTEX
  5
301
100
AcDbEntity
  8
タンク
  6
CONTINUOUS
 62
     6
100
AcDbVertex
100
AcDb2dVertex
 10
1678.976425
 20
1460.206236
 30
0.0
  0
VERTEX
  5
302
100
AcDbEntity
  8
タンク
  6
CONTINUOUS
 62
     6
100
AcDbVertex
100
AcDb2dVertex
 10
1677.996963
 20
1460.225157
 30
0.0
  0
VERTEX
  5
303
100
AcDbEntity
  8
タンク
  6
CONTINUOUS
 62
     6
100
AcDbVertex
100
AcDb2dVertex
 10
1677.002243
 20
1460.236601
 30
0.0
  0
VERTEX
  5
304
100
AcDbEntity
  8
タンク
  6
CONTINUOUS
 62
     6
100
AcDbVertex
100
AcDb2dVertex
 10
1676.000046
 20
1460.24011
 30
0.0
  0
VERTEX
  5
305
100
AcDbEntity
  8
タンク
  6
CONTINUOUS
 62
     6
100
AcDbVertex
100
AcDb2dVertex
 10
1674.997848
 20
1460.236295
 30
0.0
  0
VERTEX
  5
306
100
AcDbEntity
  8
タンク
  6
CONTINUOUS
 62
     6
100
AcDbVertex
100
AcDb2dVertex
 10
1674.003128
 20
1460.224699
 30
0.0
  0
VERTEX
  5
307
100
AcDbEntity
  8
タンク
  6
CONTINUOUS
 62
     6
100
AcDbVertex
100
AcDb2dVertex
 10
1673.023666
 20
1460.206236
 30
0.0
  0
VERTEX
  5
308
100
AcDbEntity
  8
タンク
  6
CONTINUOUS
 62
     6
100
AcDbVertex
100
AcDb2dVertex
 10
1672.06694
 20
1460.179991
 30
0.0
  0
VERTEX
  5
309
100
AcDbEntity
  8
タンク
  6
CONTINUOUS
 62
     6
100
AcDbVertex
100
AcDb2dVertex
 10
1671.139969
 20
1460.146421
 30
0.0
  0
VERTEX
  5
30A
100
AcDbEntity
  8
タンク
  6
CONTINUOUS
 62
     6
100
AcDbVertex
100
AcDb2dVertex
 10
1670.250076
 20
1460.106138
 30
0.0
  0
VERTEX
  5
30B
100
AcDbEntity
  8
タンク
  6
CONTINUOUS
 62
     6
100
AcDbVertex
100
AcDb2dVertex
 10
1669.403976
 20
1460.059141
 30
0.0
  0
VERTEX
  5
30C
100
AcDbEntity
  8
タンク
  6
CONTINUOUS
 62
     6
100
AcDbVertex
100
AcDb2dVertex
 10
1668.608078
 20
1460.00604
 30
0.0
  0
VERTEX
  5
30D
100
AcDbEntity
  8
タンク
  6
CONTINUOUS
 62
     6
100
AcDbVertex
100
AcDb2dVertex
 10
1667.868332
 20
1459.946684
 30
0.0
  0
VERTEX
  5
30E
100
AcDbEntity
  8
タンク
  6
CONTINUOUS
 62
     6
100
AcDbVertex
100
AcDb2dVertex
 10
1667.190689
 20
1459.882139
 30
0.0
  0
VERTEX
  5
30F
100
AcDbEntity
  8
タンク
  6
CONTINUOUS
 62
     6
100
AcDbVertex
100
AcDb2dVertex
 10
1666.57988
 20
1459.812712
 30
0.0
  0
VERTEX
  5
310
100
AcDbEntity
  8
タンク
  6
CONTINUOUS
 62
     6
100
AcDbVertex
100
AcDb2dVertex
 10
1666.040787
 20
1459.739164
 30
0.0
  0
VERTEX
  5
311
100
AcDbEntity
  8
タンク
  6
CONTINUOUS
 62
     6
100
AcDbVertex
100
AcDb2dVertex
 10
1665.577682
 20
1459.661649
 30
0.0
  0
VERTEX
  5
312
100
AcDbEntity
  8
タンク
  6
CONTINUOUS
 62
     6
100
AcDbVertex
100
AcDb2dVertex
 10
1665.193619
 20
1459.580778
 30
0.0
  0
VERTEX
  5
313
100
AcDbEntity
  8
タンク
  6
CONTINUOUS
 62
     6
100
AcDbVertex
100
AcDb2dVertex
 10
1664.8918
 20
1459.497618
 30
0.0
  0
VERTEX
  5
314
100
AcDbEntity
  8
タンク
  6
CONTINUOUS
 62
     6
100
AcDbVertex
100
AcDb2dVertex
 10
1664.67482
 20
1459.412321
 30
0.0
  0
VERTEX
  5
315
100
AcDbEntity
  8
タンク
  6
CONTINUOUS
 62
     6
100
AcDbVertex
100
AcDb2dVertex
 10
1664.543747
 20
1459.325651
 30
0.0
  0
VERTEX
  5
316
100
AcDbEntity
  8
タンク
  6
CONTINUOUS
 62
     6
100
AcDbVertex
100
AcDb2dVertex
 10
1664.499954
 20
1459.238523
 30
0.0
  0
SEQEND
  5
317
100
AcDbEntity
  8
タンク
  6
CONTINUOUS
 62
     6
  0
LINE
  5
318
100
AcDbEntity
  8
タンク
  6
CONTINUOUS
 62
     6
100
AcDbLine
 10
1687.499985
 20
1459.237913
 30
0.0
 11
1685.500015
 21
1454.256834
 31
0.0
  0
LINE
  5
319
100
AcDbEntity
  8
タンク
  6
CONTINUOUS
 62
     6
100
AcDbLine
 10
1666.500076
 20
1454.256834
 30
0.0
 11
1664.500107
 21
1459.237913
 31
0.0
  0
POLYLINE
  5
31A
100
AcDbEntity
  8
タンク
  6
CONTINUOUS
 62
     6
100
AcDb2dPolyline
 66
     1
 10
0.0
 20
0.0
 30
0.0
 70
   128
  0
VERTEX
  5
31B
100
AcDbEntity
  8
タンク
  6
CONTINUOUS
 62
     6
100
AcDbVertex
100
AcDb2dVertex
 10
1691.999954
 20
1459.238066
 30
0.0
  0
VERTEX
  5
31C
100
AcDbEntity
  8
タンク
  6
CONTINUOUS
 62
     6
100
AcDbVertex
100
AcDb2dVertex
 10
1691.938919
 20
1459.359678
 30
0.0
  0
VERTEX
  5
31D
100
AcDbEntity
  8
タンク
  6
CONTINUOUS
 62
     6
100
AcDbVertex
100
AcDb2dVertex
 10
1691.756729
 20
1459.480222
 30
0.0
  0
VERTEX
  5
31E
100
AcDbEntity
  8
タンク
  6
CONTINUOUS
 62
     6
100
AcDbVertex
100
AcDb2dVertex
 10
1691.45491
 20
1459.598936
 30
0.0
  0
VERTEX
  5
31F
100
AcDbEntity
  8
タンク
  6
CONTINUOUS
 62
     6
100
AcDbVertex
100
AcDb2dVertex
 10
1691.035141
 20
1459.714903
 30
0.0
  0
VERTEX
  5
320
100
AcDbEntity
  8
タンク
  6
CONTINUOUS
 62
     6
100
AcDbVertex
100
AcDb2dVertex
 10
1690.500931
 20
1459.82736
 30
0.0
  0
VERTEX
  5
321
100
AcDbEntity
  8
タンク
  6
CONTINUOUS
 62
     6
100
AcDbVertex
100
AcDb2dVertex
 10
1689.856552
 20
1459.93524
 30
0.0
  0
VERTEX
  5
322
100
AcDbEntity
  8
タンク
  6
CONTINUOUS
 62
     6
100
AcDbVertex
100
AcDb2dVertex
 10
1689.10643
 20
1460.037779
 30
0.0
  0
VERTEX
  5
323
100
AcDbEntity
  8
タンク
  6
CONTINUOUS
 62
     6
100
AcDbVertex
100
AcDb2dVertex
 10
1688.256668
 20
1460.134214
 30
0.0
  0
VERTEX
  5
324
100
AcDbEntity
  8
タンク
  6
CONTINUOUS
 62
     6
100
AcDbVertex
100
AcDb2dVertex
 10
1687.313675
 20
1460.223936
 30
0.0
  0
VERTEX
  5
325
100
AcDbEntity
  8
タンク
  6
CONTINUOUS
 62
     6
100
AcDbVertex
100
AcDb2dVertex
 10
1686.284469
 20
1460.306028
 30
0.0
  0
VERTEX
  5
326
100
AcDbEntity
  8
タンク
  6
CONTINUOUS
 62
     6
100
AcDbVertex
100
AcDb2dVertex
 10
1685.177139
 20
1460.380033
 30
0.0
  0
VERTEX
  5
327
100
AcDbEntity
  8
タンク
  6
CONTINUOUS
 62
     6
100
AcDbVertex
100
AcDb2dVertex
 10
1683.999924
 20
1460.445799
 30
0.0
  0
VERTEX
  5
328
100
AcDbEntity
  8
タンク
  6
CONTINUOUS
 62
     6
100
AcDbVertex
100
AcDb2dVertex
 10
1682.761825
 20
1460.501951
 30
0.0
  0
VERTEX
  5
329
100
AcDbEntity
  8
タンク
  6
CONTINUOUS
 62
     6
100
AcDbVertex
100
AcDb2dVertex
 10
1681.472153
 20
1460.548795
 30
0.0
  0
VERTEX
  5
32A
100
AcDbEntity
  8
タンク
  6
CONTINUOUS
 62
     6
100
AcDbVertex
100
AcDb2dVertex
 10
1680.141128
 20
1460.584959
 30
0.0
  0
VERTEX
  5
32B
100
AcDbEntity
  8
タンク
  6
CONTINUOUS
 62
     6
100
AcDbVertex
100
AcDb2dVertex
 10
1678.778366
 20
1460.611204
 30
0.0
  0
VERTEX
  5
32C
100
AcDbEntity
  8
タンク
  6
CONTINUOUS
 62
     6
100
AcDbVertex
100
AcDb2dVertex
 10
1677.394546
 20
1460.627073
 30
0.0
  0
VERTEX
  5
32D
100
AcDbEntity
  8
タンク
  6
CONTINUOUS
 62
     6
100
AcDbVertex
100
AcDb2dVertex
 10
1676.000046
 20
1460.632566
 30
0.0
  0
VERTEX
  5
32E
100
AcDbEntity
  8
タンク
  6
CONTINUOUS
 62
     6
100
AcDbVertex
100
AcDb2dVertex
 10
1674.605545
 20
1460.627226
 30
0.0
  0
VERTEX
  5
32F
100
AcDbEntity
  8
タンク
  6
CONTINUOUS
 62
     6
100
AcDbVertex
100
AcDb2dVertex
 10
1673.221725
 20
1460.611204
 30
0.0
  0
VERTEX
  5
330
100
AcDbEntity
  8
タンク
  6
CONTINUOUS
 62
     6
100
AcDbVertex
100
AcDb2dVertex
 10
1671.858963
 20
1460.584959
 30
0.0
  0
VERTEX
  5
331
100
AcDbEntity
  8
タンク
  6
CONTINUOUS
 62
     6
100
AcDbVertex
100
AcDb2dVertex
 10
1670.527786
 20
1460.548338
 30
0.0
  0
VERTEX
  5
332
100
AcDbEntity
  8
タンク
  6
CONTINUOUS
 62
     6
100
AcDbVertex
100
AcDb2dVertex
 10
1669.238266
 20
1460.501646
 30
0.0
  0
VERTEX
  5
333
100
AcDbEntity
  8
タンク
  6
CONTINUOUS
 62
     6
100
AcDbVertex
100
AcDb2dVertex
 10
1668.000015
 20
1460.445799
 30
0.0
  0
VERTEX
  5
334
100
AcDbEntity
  8
タンク
  6
CONTINUOUS
 62
     6
100
AcDbVertex
100
AcDb2dVertex
 10
1666.822952
 20
1460.380491
 30
0.0
  0
VERTEX
  5
335
100
AcDbEntity
  8
タンク
  6
CONTINUOUS
 62
     6
100
AcDbVertex
100
AcDb2dVertex
 10
1665.715469
 20
1460.306486
 30
0.0
  0
VERTEX
  5
336
100
AcDbEntity
  8
タンク
  6
CONTINUOUS
 62
     6
100
AcDbVertex
100
AcDb2dVertex
 10
1664.686264
 20
1460.223936
 30
0.0
  0
VERTEX
  5
337
100
AcDbEntity
  8
タンク
  6
CONTINUOUS
 62
     6
100
AcDbVertex
100
AcDb2dVertex
 10
1663.743423
 20
1460.134214
 30
0.0
  0
VERTEX
  5
338
100
AcDbEntity
  8
タンク
  6
CONTINUOUS
 62
     6
100
AcDbVertex
100
AcDb2dVertex
 10
1662.893661
 20
1460.037626
 30
0.0
  0
VERTEX
  5
339
100
AcDbEntity
  8
タンク
  6
CONTINUOUS
 62
     6
100
AcDbVertex
100
AcDb2dVertex
 10
1662.143692
 20
1459.93524
 30
0.0
  0
VERTEX
  5
33A
100
AcDbEntity
  8
タンク
  6
CONTINUOUS
 62
     6
100
AcDbVertex
100
AcDb2dVertex
 10
1661.499313
 20
1459.82736
 30
0.0
  0
VERTEX
  5
33B
100
AcDbEntity
  8
タンク
  6
CONTINUOUS
 62
     6
100
AcDbVertex
100
AcDb2dVertex
 10
1660.965256
 20
1459.714903
 30
0.0
  0
VERTEX
  5
33C
100
AcDbEntity
  8
タンク
  6
CONTINUOUS
 62
     6
100
AcDbVertex
100
AcDb2dVertex
 10
1660.545334
 20
1459.598936
 30
0.0
  0
VERTEX
  5
33D
100
AcDbEntity
  8
タンク
  6
CONTINUOUS
 62
     6
100
AcDbVertex
100
AcDb2dVertex
 10
1660.243362
 20
1459.480222
 30
0.0
  0
VERTEX
  5
33E
100
AcDbEntity
  8
タンク
  6
CONTINUOUS
 62
     6
100
AcDbVertex
100
AcDb2dVertex
 10
1660.061172
 20
1459.359525
 30
0.0
  0
VERTEX
  5
33F
100
AcDbEntity
  8
タンク
  6
CONTINUOUS
 62
     6
100
AcDbVertex
100
AcDb2dVertex
 10
1660.000137
 20
1459.237913
 30
0.0
  0
SEQEND
  5
340
100
AcDbEntity
  8
タンク
  6
CONTINUOUS
 62
     6
  0
LINE
  5
341
100
AcDbEntity
  8
タンク
  6
CONTINUOUS
 62
     6
100
AcDbLine
 10
1692.000107
 20
1459.237913
 30
0.0
 11
1694.000076
 21
1453.485655
 31
0.0
  0
LINE
  5
342
100
AcDbEntity
  8
タンク
  6
CONTINUOUS
 62
     6
100
AcDbLine
 10
1659.999985
 20
1459.237913
 30
0.0
 11
1658.000015
 21
1453.485655
 31
0.0
  0
ARC
  5
343
100
AcDbEntity
  8
タンク
  6
CONTINUOUS
 62
     6
100
AcDbCircle
 10
1676.000046
 20
1461.455015
 30
0.0
 40
16.000061
100
AcDbArc
 50
0.0
 51
180.000015
  0
ARC
  5
344
100
AcDbEntity
  8
タンク
  6
CONTINUOUS
 62
     6
100
AcDbCircle
 10
1691.938309
 20
1454.290098
 30
0.0
 40
2.000038
100
AcDbArc
 50
316.425064
 51
4.037964
  0
ARC
  5
345
100
AcDbEntity
  8
タンク
  6
CONTINUOUS
 62
     6
100
AcDbCircle
 10
1660.061783
 20
1454.290098
 30
0.0
 40
2.000052
100
AcDbArc
 50
175.962051
 51
223.574844
  0
ARC
  5
346
100
AcDbEntity
  8
タンク
  6
CONTINUOUS
 62
     6
100
AcDbCircle
 10
1676.000046
 20
1469.454893
 30
0.0
 40
24.000025
100
AcDbArc
 50
223.575394
 51
316.424576
  0
LINE
  5
347
100
AcDbEntity
  8
タンク
  6
CONTINUOUS
 62
     6
100
AcDbLine
 10
1693.933395
 20
1454.430937
 30
0.0
 11
1693.456711
 21
1461.186765
 31
0.0
  0
ARC
  5
348
100
AcDbEntity
  8
タンク
  6
CONTINUOUS
 62
     6
100
AcDbCircle
 10
1676.000046
 20
1459.955076
 30
0.0
 40
17.500067
100
AcDbArc
 50
4.035928
 51
175.964081
  0
LINE
  5
349
100
AcDbEntity
  8
タンク
  6
CONTINUOUS
 62
     6
100
AcDbLine
 10
1658.066696
 20
1454.430937
 30
0.0
 11
1658.543381
 21
1461.186765
 31
0.0
  0
LINE
  5
34A
100
AcDbEntity
  8
タンク
  6
CONTINUOUS
 62
     6
100
AcDbLine
 10
1692.000107
 20
1461.455015
 30
0.0
 11
1692.000107
 21
1459.237913
 31
0.0
  0
LINE
  5
34B
100
AcDbEntity
  8
タンク
  6
CONTINUOUS
 62
     6
100
AcDbLine
 10
1659.999985
 20
1461.455015
 30
0.0
 11
1659.999985
 21
1459.237913
 31
0.0
  0
ARC
  5
34C
100
AcDbEntity
  8
タンク
  6
CONTINUOUS
 62
     7
100
AcDbCircle
 10
1535.113511
 20
1396.767664
 30
0.0
 40
60.0
100
AcDbArc
 50
121.885703
 51
168.317333
  0
ARC
  5
34D
100
AcDbEntity
  8
タンク
  6
CONTINUOUS
 62
     7
100
AcDbCircle
 10
1816.886545
 20
1396.767686
 30
0.0
 40
60.0
100
AcDbArc
 50
11.682691
 51
58.11431
  0
LINE
  5
34E
100
AcDbEntity
  8
タンク
  6
CONTINUOUS
 62
     7
100
AcDbLine
 10
1466.0
 20
1306.455015
 30
0.0
 11
1886.000092
 21
1306.455168
 31
0.0
  0
ARC
  5
34F
100
AcDbEntity
  8
タンク
  6
CONTINUOUS
 62
     7
100
AcDbCircle
 10
1475.275925
 20
1364.481596
 30
0.0
 40
6.000043
100
AcDbArc
 50
87.702942
 51
173.3964
  0
LINE
  5
350
100
AcDbEntity
  8
タンク
  6
CONTINUOUS
 62
     6
100
AcDbLine
 10
1882.135805
 20
1253.509705
 30
0.0
 11
1882.135805
 21
1289.391154
 31
0.0
  0
LINE
  5
351
100
AcDbEntity
  8
タンク
  6
CONTINUOUS
 62
     6
100
AcDbLine
 10
1907.412703
 20
1220.770437
 30
0.0
 11
1887.203805
 21
1220.770437
 31
0.0
  0
LINE
  5
352
100
AcDbEntity
  8
タンク
  6
CONTINUOUS
 62
     6
100
AcDbLine
 10
1901.166108
 20
1289.695237
 30
0.0
 11
1882.439873
 21
1289.695237
 31
0.0
  0
LINE
  5
353
100
AcDbEntity
  8
タンク
  6
CONTINUOUS
 62
     6
100
AcDbLine
 10
1887.203805
 20
1237.971509
 30
0.0
 11
1887.203805
 21
1220.770437
 31
0.0
  0
ARC
  5
354
100
AcDbEntity
  8
タンク
  6
CONTINUOUS
 62
     6
100
AcDbCircle
 10
1887.507873
 20
1221.074443
 30
0.0
 40
0.30408
100
AcDbArc
 50
180.005127
 51
270.056458
  0
ARC
  5
355
100
AcDbEntity
  8
タンク
  6
CONTINUOUS
 62
     6
100
AcDbCircle
 10
1871.999805
 20
1271.450437
 30
0.0
 40
36.4896
100
AcDbArc
 50
10.758698
 51
25.944489
  0
ARC
  5
356
100
AcDbEntity
  8
タンク
  6
CONTINUOUS
 62
     6
100
AcDbCircle
 10
1901.166108
 20
1285.640837
 30
0.0
 40
4.0544
100
AcDbArc
 50
25.944489
 51
90.0
  0
ARC
  5
357
100
AcDbEntity
  8
タンク
  6
CONTINUOUS
 62
     6
100
AcDbCircle
 10
1907.412703
 20
1224.824837
 30
0.0
 40
4.0544
100
AcDbArc
 50
270.0
 51
328.506104
  0
ARC
  5
358
100
AcDbEntity
  8
タンク
  6
CONTINUOUS
 62
     6
100
AcDbCircle
 10
1895.312605
 20
1232.238025
 30
0.0
 40
18.2448
100
AcDbArc
 50
328.506104
 51
3.653961
  0
ARC
  5
359
100
AcDbEntity
  8
タンク
  6
CONTINUOUS
 62
     6
100
AcDbCircle
 10
1549.366112
 20
1210.145764
 30
0.0
 40
364.896
100
AcDbArc
 50
3.653961
 51
10.758698
  0
ARC
  5
35A
100
AcDbEntity
  8
タンク
  6
CONTINUOUS
 62
     6
100
AcDbCircle
 10
1860.850237
 20
1237.971509
 30
0.0
 40
26.353569
100
AcDbArc
 50
0.0
 51
36.128998
  0
LINE
  5
35B
100
AcDbEntity
  8
タンク
  6
CONTINUOUS
 62
     6
100
AcDbLine
 10
1462.198144
 20
1265.208525
 30
0.0
 11
1463.698144
 21
1263.708525
 31
0.0
  0
LINE
  5
35C
100
AcDbEntity
  8
タンク
  6
CONTINUOUS
 62
     6
100
AcDbLine
 10
1463.698144
 20
1263.708525
 30
0.0
 11
1469.698144
 21
1263.708525
 31
0.0
  0
LINE
  5
35D
100
AcDbEntity
  8
タンク
  6
CONTINUOUS
 62
     6
100
AcDbLine
 10
1469.698144
 20
1258.708525
 30
0.0
 11
1471.198144
 21
1258.708525
 31
0.0
  0
LINE
  5
35E
100
AcDbEntity
  8
タンク
  6
CONTINUOUS
 62
     6
100
AcDbLine
 10
1469.198144
 20
1289.208647
 30
0.0
 11
1463.698144
 21
1289.208647
 31
0.0
  0
LINE
  5
35F
100
AcDbEntity
  8
タンク
  6
CONTINUOUS
 62
     6
100
AcDbLine
 10
1463.698144
 20
1289.208647
 30
0.0
 11
1462.448144
 21
1287.958647
 31
0.0
  0
LINE
  5
360
100
AcDbEntity
  8
タンク
  6
CONTINUOUS
 62
     6
100
AcDbLine
 10
1462.448144
 20
1287.958647
 30
0.0
 11
1462.198144
 21
1287.708647
 31
0.0
  0
LINE
  5
361
100
AcDbEntity
  8
タンク
  6
CONTINUOUS
 62
     6
100
AcDbLine
 10
1469.198144
 20
1289.208647
 30
0.0
 11
1469.698144
 21
1289.208647
 31
0.0
  0
LINE
  5
362
100
AcDbEntity
  8
タンク
  6
CONTINUOUS
 62
     6
100
AcDbLine
 10
1462.198144
 20
1286.958647
 30
0.0
 11
1449.5
 21
1286.958647
 31
0.0
  0
LINE
  5
363
100
AcDbEntity
  8
タンク
  6
CONTINUOUS
 62
     6
100
AcDbLine
 10
1471.198144
 20
1294.208647
 30
0.0
 11
1469.698144
 21
1294.208647
 31
0.0
  0
LINE
  5
364
100
AcDbEntity
  8
タンク
  6
CONTINUOUS
 62
     6
100
AcDbLine
 10
1462.198144
 20
1287.708647
 30
0.0
 11
1462.198144
 21
1265.208525
 31
0.0
  0
LINE
  5
365
100
AcDbEntity
  8
タンク
  6
CONTINUOUS
 62
     6
100
AcDbLine
 10
1469.698144
 20
1294.208647
 30
0.0
 11
1469.698144
 21
1289.208647
 31
0.0
  0
LINE
  5
366
100
AcDbEntity
  8
タンク
  6
CONTINUOUS
 62
     6
100
AcDbLine
 10
1462.198144
 20
1285.773527
 30
0.0
 11
1449.5
 21
1285.773527
 31
0.0
  0
ARC
  5
367
100
AcDbEntity
  8
タンク
  6
CONTINUOUS
 62
     6
100
AcDbCircle
 10
1466.183221
 20
1286.419599
 30
0.0
 40
3.735467
100
AcDbArc
 50
138.297333
 51
227.514618
  0
LINE
  5
368
100
AcDbEntity
  8
タンク
  6
CONTINUOUS
 62
     6
100
AcDbLine
 10
1463.660272
 20
1283.664884
 30
0.0
 11
1468.698144
 21
1283.664884
 31
0.0
  0
ARC
  5
369
100
AcDbEntity
  8
タンク
  6
CONTINUOUS
 62
     6
100
AcDbCircle
 10
1468.698144
 20
1284.164884
 30
0.0
 40
0.5
100
AcDbArc
 50
270.0
 51
0.0
  0
LINE
  5
36A
100
AcDbEntity
  8
タンク
  6
CONTINUOUS
 62
     6
100
AcDbLine
 10
1469.198144
 20
1284.164884
 30
0.0
 11
1469.198144
 21
1289.208647
 31
0.0
  0
LINE
  5
36B
100
AcDbEntity
  8
タンク
  6
CONTINUOUS
 62
     6
100
AcDbLine
 10
1463.660272
 20
1283.664884
 30
0.0
 11
1463.660272
 21
1281.964201
 31
0.0
  0
LINE
  5
36C
100
AcDbEntity
  8
タンク
  6
CONTINUOUS
 62
     6
100
AcDbLine
 10
1469.198144
 20
1271.452848
 30
0.0
 11
1469.198144
 21
1281.464201
 31
0.0
  0
ARC
  5
36D
100
AcDbEntity
  8
タンク
  6
CONTINUOUS
 62
     6
100
AcDbCircle
 10
1468.698144
 20
1281.464201
 30
0.0
 40
0.5
100
AcDbArc
 50
0.0
 51
90.0
  0
LINE
  5
36E
100
AcDbEntity
  8
タンク
  6
CONTINUOUS
 62
     6
100
AcDbLine
 10
1468.698144
 20
1281.964201
 30
0.0
 11
1463.660272
 21
1281.964201
 31
0.0
  0
ARC
  5
36F
100
AcDbEntity
  8
タンク
  6
CONTINUOUS
 62
     6
100
AcDbCircle
 10
1475.558099
 20
1276.458586
 30
0.0
 40
13.109923
100
AcDbArc
 50
155.168121
 51
204.832514
  0
LINE
  5
370
100
AcDbEntity
  8
タンク
  6
CONTINUOUS
 62
     6
100
AcDbLine
 10
1469.698144
 20
1289.208647
 30
0.0
 11
1469.698144
 21
1258.708525
 31
0.0
  0
LINE
  5
371
100
AcDbEntity
  8
タンク
  6
CONTINUOUS
 62
     6
100
AcDbLine
 10
1469.198144
 20
1268.752165
 30
0.0
 11
1469.198144
 21
1263.708402
 31
0.0
  0
ARC
  5
372
100
AcDbEntity
  8
タンク
  6
CONTINUOUS
 62
     6
100
AcDbCircle
 10
1468.698144
 20
1268.752165
 30
0.0
 40
0.5
100
AcDbArc
 50
0.0
 51
90.0
  0
LINE
  5
373
100
AcDbEntity
  8
タンク
  6
CONTINUOUS
 62
     6
100
AcDbLine
 10
1463.660272
 20
1269.252165
 30
0.0
 11
1468.698144
 21
1269.252165
 31
0.0
  0
ARC
  5
374
100
AcDbEntity
  8
タンク
  6
CONTINUOUS
 62
     6
100
AcDbCircle
 10
1466.183221
 20
1266.49745
 30
0.0
 40
3.735467
100
AcDbArc
 50
132.485382
 51
221.702667
  0
LINE
  5
375
100
AcDbEntity
  8
タンク
  6
CONTINUOUS
 62
     6
100
AcDbLine
 10
1463.660272
 20
1269.252165
 30
0.0
 11
1463.660272
 21
1270.952848
 31
0.0
  0
LINE
  5
376
100
AcDbEntity
  8
タンク
  6
CONTINUOUS
 62
     6
100
AcDbLine
 10
1468.698144
 20
1270.952848
 30
0.0
 11
1463.660272
 21
1270.952848
 31
0.0
  0
ARC
  5
377
100
AcDbEntity
  8
タンク
  6
CONTINUOUS
 62
     6
100
AcDbCircle
 10
1468.698144
 20
1271.452848
 30
0.0
 40
0.5
100
AcDbArc
 50
270.0
 51
0.0
  0
LINE
  5
378
100
AcDbEntity
  8
タンク
  6
CONTINUOUS
 62
     6
100
AcDbLine
 10
1462.198144
 20
1267.143513
 30
0.0
 11
1449.5
 21
1267.143519
 31
0.0
  0
LINE
  5
379
100
AcDbEntity
  8
タンク
  6
CONTINUOUS
 62
     6
100
AcDbLine
 10
1462.198144
 20
1265.958525
 30
0.0
 11
1449.5
 21
1265.958525
 31
0.0
  0
ARC
  5
37A
100
AcDbEntity
  8
タンク
  6
CONTINUOUS
 62
     7
100
AcDbCircle
 10
3171.581165
 20
1269.350938
 30
0.0
 40
1700.0
100
AcDbArc
 50
181.0
 51
187.959576
  0
ARC
  5
37B
100
AcDbEntity
  8
タンク
  6
CONTINUOUS
 62
     7
100
AcDbCircle
 10
180.418835
 20
1269.350938
 30
0.0
 40
1700.0
100
AcDbArc
 50
352.026113
 51
359.0
  0
LEADER
  5
37C
100
AcDbEntity
  8
止水栓
  6
CONTINUOUS
 62
     6
100
AcDbLeader
  3
STANDARD
 73
     3
 74
     1
 75
     0
 40
0.0
 76
     2
 10
347.060753
 20
2084.953613
 30
0.0
 10
298.868763
 20
2010.369911
 30
0.0
 77
     6
1001
ACAD
1000
DSTYLE
1002
{
1070
    41
1040
35.0
1070
     5
1000
_EX_NORM
1070
     6
1000
_EX_NORM
1070
     7
1000
_EX_NORM
1070
   341
1005
2D
1002
}
  0
LINE
  5
37D
100
AcDbEntity
  8
止水栓
  6
CONTINUOUS
 62
     6
100
AcDbLine
 10
440.090782
 20
2095.34668
 30
0.0
 11
440.090782
 21
2141.84668
 31
0.0
  0
ARC
  5
37E
100
AcDbEntity
  8
止水栓
  6
CONTINUOUS
 62
     6
100
AcDbCircle
 10
446.44088
 20
2095.34668
 30
0.0
 40
12.750425
100
AcDbArc
 50
175.574371
 51
184.414703
  0
ARC
  5
37F
100
AcDbEntity
  8
止水栓
  6
CONTINUOUS
 62
     6
100
AcDbCircle
 10
446.44088
 20
2095.34668
 30
0.0
 40
12.749176
100
AcDbArc
 50
235.390915
 51
244.416656
  0
ARC
  5
380
100
AcDbEntity
  8
止水栓
  6
CONTINUOUS
 62
     6
100
AcDbCircle
 10
446.44088
 20
2095.34668
 30
0.0
 40
12.750235
100
AcDbArc
 50
355.585311
 51
0.0
  0
ARC
  5
381
100
AcDbEntity
  8
止水栓
  6
CONTINUOUS
 62
     6
100
AcDbCircle
 10
446.44088
 20
2095.34668
 30
0.0
 40
12.751951
100
AcDbArc
 50
55.585815
 51
60.133423
  0
LINE
  5
382
100
AcDbEntity
  8
止水栓
  6
CONTINUOUS
 62
     6
100
AcDbLine
 10
457.349083
 20
2083.347168
 30
0.0
 11
461.941368
 21
2083.347168
 31
0.0
  0
ARC
  5
383
100
AcDbEntity
  8
止水栓
  6
CONTINUOUS
 62
     6
100
AcDbCircle
 10
446.44088
 20
2142.348633
 30
0.0
 40
60.000629
100
AcDbArc
 50
260.930511
 51
279.161606
  0
LINE
  5
384
100
AcDbEntity
  8
止水栓
  6
CONTINUOUS
 62
     6
100
AcDbLine
 10
418.440392
 20
2083.098145
 30
0.0
 11
436.982872
 21
2083.098145
 31
0.0
  0
POLYLINE
  5
385
100
AcDbEntity
  8
止水栓
  6
CONTINUOUS
 62
     6
100
AcDb2dPolyline
 66
     1
 10
0.0
 20
0.0
 30
0.0
 70
   128
  0
VERTEX
  5
386
100
AcDbEntity
  8
止水栓
  6
CONTINUOUS
 62
     6
100
AcDbVertex
100
AcDb2dVertex
 10
428.638145
 20
2088.879395
 30
0.0
  0
VERTEX
  5
387
100
AcDbEntity
  8
止水栓
  6
CONTINUOUS
 62
     6
100
AcDbVertex
100
AcDb2dVertex
 10
428.618614
 20
2089.348145
 30
0.0
  0
VERTEX
  5
388
100
AcDbEntity
  8
止水栓
  6
CONTINUOUS
 62
     6
100
AcDbVertex
100
AcDb2dVertex
 10
428.56002
 20
2089.812012
 30
0.0
  0
VERTEX
  5
389
100
AcDbEntity
  8
止水栓
  6
CONTINUOUS
 62
     6
100
AcDbVertex
100
AcDb2dVertex
 10
428.459923
 20
2090.270996
 30
0.0
  0
VERTEX
  5
38A
100
AcDbEntity
  8
止水栓
  6
CONTINUOUS
 62
     6
100
AcDbVertex
100
AcDb2dVertex
 10
428.325645
 20
2090.717774
 30
0.0
  0
VERTEX
  5
38B
100
AcDbEntity
  8
止水栓
  6
CONTINUOUS
 62
     6
100
AcDbVertex
100
AcDb2dVertex
 10
428.149864
 20
2091.152344
 30
0.0
  0
VERTEX
  5
38C
100
AcDbEntity
  8
止水栓
  6
CONTINUOUS
 62
     6
100
AcDbVertex
100
AcDb2dVertex
 10
427.942345
 20
2091.567383
 30
0.0
  0
VERTEX
  5
38D
100
AcDbEntity
  8
止水栓
  6
CONTINUOUS
 62
     6
100
AcDbVertex
100
AcDb2dVertex
 10
427.698204
 20
2091.962891
 30
0.0
  0
VERTEX
  5
38E
100
AcDbEntity
  8
止水栓
  6
CONTINUOUS
 62
     6
100
AcDbVertex
100
AcDb2dVertex
 10
427.422325
 20
2092.333984
 30
0.0
  0
VERTEX
  5
38F
100
AcDbEntity
  8
止水栓
  6
CONTINUOUS
 62
     6
100
AcDbVertex
100
AcDb2dVertex
 10
427.117149
 20
2092.680664
 30
0.0
  0
VERTEX
  5
390
100
AcDbEntity
  8
止水栓
  6
CONTINUOUS
 62
     6
100
AcDbVertex
100
AcDb2dVertex
 10
426.782677
 20
2092.998047
 30
0.0
  0
VERTEX
  5
391
100
AcDbEntity
  8
止水栓
  6
CONTINUOUS
 62
     6
100
AcDbVertex
100
AcDb2dVertex
 10
426.421349
 20
2093.283691
 30
0.0
  0
VERTEX
  5
392
100
AcDbEntity
  8
止水栓
  6
CONTINUOUS
 62
     6
100
AcDbVertex
100
AcDb2dVertex
 10
426.040489
 20
2093.535156
 30
0.0
  0
VERTEX
  5
393
100
AcDbEntity
  8
止水栓
  6
CONTINUOUS
 62
     6
100
AcDbVertex
100
AcDb2dVertex
 10
425.637657
 20
2093.752441
 30
0.0
  0
VERTEX
  5
394
100
AcDbEntity
  8
止水栓
  6
CONTINUOUS
 62
     6
100
AcDbVertex
100
AcDb2dVertex
 10
425.220177
 20
2093.930664
 30
0.0
  0
VERTEX
  5
395
100
AcDbEntity
  8
止水栓
  6
CONTINUOUS
 62
     6
100
AcDbVertex
100
AcDb2dVertex
 10
424.788048
 20
2094.072266
 30
0.0
  0
VERTEX
  5
396
100
AcDbEntity
  8
止水栓
  6
CONTINUOUS
 62
     6
100
AcDbVertex
100
AcDb2dVertex
 10
424.343712
 20
2094.172363
 30
0.0
  0
VERTEX
  5
397
100
AcDbEntity
  8
止水栓
  6
CONTINUOUS
 62
     6
100
AcDbVertex
100
AcDb2dVertex
 10
423.894493
 20
2094.23584
 30
0.0
  0
VERTEX
  5
398
100
AcDbEntity
  8
止水栓
  6
CONTINUOUS
 62
     6
100
AcDbVertex
100
AcDb2dVertex
 10
423.442833
 20
2094.255371
 30
0.0
  0
VERTEX
  5
399
100
AcDbEntity
  8
止水栓
  6
CONTINUOUS
 62
     6
100
AcDbVertex
100
AcDb2dVertex
 10
422.988731
 20
2094.23584
 30
0.0
  0
VERTEX
  5
39A
100
AcDbEntity
  8
止水栓
  6
CONTINUOUS
 62
     6
100
AcDbVertex
100
AcDb2dVertex
 10
422.539513
 20
2094.172363
 30
0.0
  0
VERTEX
  5
39B
100
AcDbEntity
  8
止水栓
  6
CONTINUOUS
 62
     6
100
AcDbVertex
100
AcDb2dVertex
 10
422.097618
 20
2094.072266
 30
0.0
  0
VERTEX
  5
39C
100
AcDbEntity
  8
止水栓
  6
CONTINUOUS
 62
     6
100
AcDbVertex
100
AcDb2dVertex
 10
421.665489
 20
2093.930664
 30
0.0
  0
VERTEX
  5
39D
100
AcDbEntity
  8
止水栓
  6
CONTINUOUS
 62
     6
100
AcDbVertex
100
AcDb2dVertex
 10
421.245567
 20
2093.752441
 30
0.0
  0
VERTEX
  5
39E
100
AcDbEntity
  8
止水栓
  6
CONTINUOUS
 62
     6
100
AcDbVertex
100
AcDb2dVertex
 10
420.842735
 20
2093.535156
 30
0.0
  0
VERTEX
  5
39F
100
AcDbEntity
  8
止水栓
  6
CONTINUOUS
 62
     6
100
AcDbVertex
100
AcDb2dVertex
 10
420.461876
 20
2093.283691
 30
0.0
  0
VERTEX
  5
3A0
100
AcDbEntity
  8
止水栓
  6
CONTINUOUS
 62
     6
100
AcDbVertex
100
AcDb2dVertex
 10
420.102989
 20
2092.998047
 30
0.0
  0
VERTEX
  5
3A1
100
AcDbEntity
  8
止水栓
  6
CONTINUOUS
 62
     6
100
AcDbVertex
100
AcDb2dVertex
 10
419.768517
 20
2092.680664
 30
0.0
  0
VERTEX
  5
3A2
100
AcDbEntity
  8
止水栓
  6
CONTINUOUS
 62
     6
100
AcDbVertex
100
AcDb2dVertex
 10
419.460899
 20
2092.336426
 30
0.0
  0
VERTEX
  5
3A3
100
AcDbEntity
  8
止水栓
  6
CONTINUOUS
 62
     6
100
AcDbVertex
100
AcDb2dVertex
 10
419.18502
 20
2091.962891
 30
0.0
  0
VERTEX
  5
3A4
100
AcDbEntity
  8
止水栓
  6
CONTINUOUS
 62
     6
100
AcDbVertex
100
AcDb2dVertex
 10
418.94088
 20
2091.567383
 30
0.0
  0
VERTEX
  5
3A5
100
AcDbEntity
  8
止水栓
  6
CONTINUOUS
 62
     6
100
AcDbVertex
100
AcDb2dVertex
 10
418.73336
 20
2091.152344
 30
0.0
  0
VERTEX
  5
3A6
100
AcDbEntity
  8
止水栓
  6
CONTINUOUS
 62
     6
100
AcDbVertex
100
AcDb2dVertex
 10
418.56002
 20
2090.717774
 30
0.0
  0
VERTEX
  5
3A7
100
AcDbEntity
  8
止水栓
  6
CONTINUOUS
 62
     6
100
AcDbVertex
100
AcDb2dVertex
 10
418.423302
 20
2090.270996
 30
0.0
  0
VERTEX
  5
3A8
100
AcDbEntity
  8
止水栓
  6
CONTINUOUS
 62
     6
100
AcDbVertex
100
AcDb2dVertex
 10
418.325645
 20
2089.814453
 30
0.0
  0
VERTEX
  5
3A9
100
AcDbEntity
  8
止水栓
  6
CONTINUOUS
 62
     6
100
AcDbVertex
100
AcDb2dVertex
 10
418.267052
 20
2089.348145
 30
0.0
  0
VERTEX
  5
3AA
100
AcDbEntity
  8
止水栓
  6
CONTINUOUS
 62
     6
100
AcDbVertex
100
AcDb2dVertex
 10
418.245079
 20
2088.881836
 30
0.0
  0
VERTEX
  5
3AB
100
AcDbEntity
  8
止水栓
  6
CONTINUOUS
 62
     6
100
AcDbVertex
100
AcDb2dVertex
 10
418.26461
 20
2088.413086
 30
0.0
  0
VERTEX
  5
3AC
100
AcDbEntity
  8
止水栓
  6
CONTINUOUS
 62
     6
100
AcDbVertex
100
AcDb2dVertex
 10
418.325645
 20
2087.946777
 30
0.0
  0
VERTEX
  5
3AD
100
AcDbEntity
  8
止水栓
  6
CONTINUOUS
 62
     6
100
AcDbVertex
100
AcDb2dVertex
 10
418.423302
 20
2087.490234
 30
0.0
  0
VERTEX
  5
3AE
100
AcDbEntity
  8
止水栓
  6
CONTINUOUS
 62
     6
100
AcDbVertex
100
AcDb2dVertex
 10
418.56002
 20
2087.043457
 30
0.0
  0
VERTEX
  5
3AF
100
AcDbEntity
  8
止水栓
  6
CONTINUOUS
 62
     6
100
AcDbVertex
100
AcDb2dVertex
 10
418.73336
 20
2086.608887
 30
0.0
  0
VERTEX
  5
3B0
100
AcDbEntity
  8
止水栓
  6
CONTINUOUS
 62
     6
100
AcDbVertex
100
AcDb2dVertex
 10
418.94088
 20
2086.193848
 30
0.0
  0
VERTEX
  5
3B1
100
AcDbEntity
  8
止水栓
  6
CONTINUOUS
 62
     6
100
AcDbVertex
100
AcDb2dVertex
 10
419.18502
 20
2085.79834
 30
0.0
  0
VERTEX
  5
3B2
100
AcDbEntity
  8
止水栓
  6
CONTINUOUS
 62
     6
100
AcDbVertex
100
AcDb2dVertex
 10
419.460899
 20
2085.424805
 30
0.0
  0
VERTEX
  5
3B3
100
AcDbEntity
  8
止水栓
  6
CONTINUOUS
 62
     6
100
AcDbVertex
100
AcDb2dVertex
 10
419.768517
 20
2085.080566
 30
0.0
  0
VERTEX
  5
3B4
100
AcDbEntity
  8
止水栓
  6
CONTINUOUS
 62
     6
100
AcDbVertex
100
AcDb2dVertex
 10
420.102989
 20
2084.763184
 30
0.0
  0
VERTEX
  5
3B5
100
AcDbEntity
  8
止水栓
  6
CONTINUOUS
 62
     6
100
AcDbVertex
100
AcDb2dVertex
 10
420.461876
 20
2084.477539
 30
0.0
  0
VERTEX
  5
3B6
100
AcDbEntity
  8
止水栓
  6
CONTINUOUS
 62
     6
100
AcDbVertex
100
AcDb2dVertex
 10
420.842735
 20
2084.226074
 30
0.0
  0
VERTEX
  5
3B7
100
AcDbEntity
  8
止水栓
  6
CONTINUOUS
 62
     6
100
AcDbVertex
100
AcDb2dVertex
 10
421.245567
 20
2084.008789
 30
0.0
  0
VERTEX
  5
3B8
100
AcDbEntity
  8
止水栓
  6
CONTINUOUS
 62
     6
100
AcDbVertex
100
AcDb2dVertex
 10
421.665489
 20
2083.830566
 30
0.0
  0
VERTEX
  5
3B9
100
AcDbEntity
  8
止水栓
  6
CONTINUOUS
 62
     6
100
AcDbVertex
100
AcDb2dVertex
 10
422.097618
 20
2083.688965
 30
0.0
  0
VERTEX
  5
3BA
100
AcDbEntity
  8
止水栓
  6
CONTINUOUS
 62
     6
100
AcDbVertex
100
AcDb2dVertex
 10
422.539513
 20
2083.586426
 30
0.0
  0
VERTEX
  5
3BB
100
AcDbEntity
  8
止水栓
  6
CONTINUOUS
 62
     6
100
AcDbVertex
100
AcDb2dVertex
 10
422.988731
 20
2083.525391
 30
0.0
  0
VERTEX
  5
3BC
100
AcDbEntity
  8
止水栓
  6
CONTINUOUS
 62
     6
100
AcDbVertex
100
AcDb2dVertex
 10
423.442833
 20
2083.505859
 30
0.0
  0
VERTEX
  5
3BD
100
AcDbEntity
  8
止水栓
  6
CONTINUOUS
 62
     6
100
AcDbVertex
100
AcDb2dVertex
 10
423.894493
 20
2083.525391
 30
0.0
  0
VERTEX
  5
3BE
100
AcDbEntity
  8
止水栓
  6
CONTINUOUS
 62
     6
100
AcDbVertex
100
AcDb2dVertex
 10
424.343712
 20
2083.586426
 30
0.0
  0
VERTEX
  5
3BF
100
AcDbEntity
  8
止水栓
  6
CONTINUOUS
 62
     6
100
AcDbVertex
100
AcDb2dVertex
 10
424.785606
 20
2083.688965
 30
0.0
  0
VERTEX
  5
3C0
100
AcDbEntity
  8
止水栓
  6
CONTINUOUS
 62
     6
100
AcDbVertex
100
AcDb2dVertex
 10
425.220177
 20
2083.830566
 30
0.0
  0
VERTEX
  5
3C1
100
AcDbEntity
  8
止水栓
  6
CONTINUOUS
 62
     6
100
AcDbVertex
100
AcDb2dVertex
 10
425.637657
 20
2084.008789
 30
0.0
  0
SEQEND
  5
3C2
100
AcDbEntity
  8
止水栓
  6
CONTINUOUS
 62
     6
  0
POLYLINE
  5
3C3
100
AcDbEntity
  8
止水栓
  6
CONTINUOUS
 62
     6
100
AcDb2dPolyline
 66
     1
 10
0.0
 20
0.0
 30
0.0
 70
   128
  0
VERTEX
  5
3C4
100
AcDbEntity
  8
止水栓
  6
CONTINUOUS
 62
     6
100
AcDbVertex
100
AcDb2dVertex
 10
425.637657
 20
2084.008789
 30
0.0
  0
VERTEX
  5
3C5
100
AcDbEntity
  8
止水栓
  6
CONTINUOUS
 62
     6
100
AcDbVertex
100
AcDb2dVertex
 10
426.040489
 20
2084.226074
 30
0.0
  0
VERTEX
  5
3C6
100
AcDbEntity
  8
止水栓
  6
CONTINUOUS
 62
     6
100
AcDbVertex
100
AcDb2dVertex
 10
426.421349
 20
2084.477539
 30
0.0
  0
VERTEX
  5
3C7
100
AcDbEntity
  8
止水栓
  6
CONTINUOUS
 62
     6
100
AcDbVertex
100
AcDb2dVertex
 10
426.782677
 20
2084.763184
 30
0.0
  0
VERTEX
  5
3C8
100
AcDbEntity
  8
止水栓
  6
CONTINUOUS
 62
     6
100
AcDbVertex
100
AcDb2dVertex
 10
427.114708
 20
2085.080566
 30
0.0
  0
VERTEX
  5
3C9
100
AcDbEntity
  8
止水栓
  6
CONTINUOUS
 62
     6
100
AcDbVertex
100
AcDb2dVertex
 10
427.422325
 20
2085.424805
 30
0.0
  0
VERTEX
  5
3CA
100
AcDbEntity
  8
止水栓
  6
CONTINUOUS
 62
     6
100
AcDbVertex
100
AcDb2dVertex
 10
427.698204
 20
2085.795899
 30
0.0
  0
VERTEX
  5
3CB
100
AcDbEntity
  8
止水栓
  6
CONTINUOUS
 62
     6
100
AcDbVertex
100
AcDb2dVertex
 10
427.942345
 20
2086.193848
 30
0.0
  0
VERTEX
  5
3CC
100
AcDbEntity
  8
止水栓
  6
CONTINUOUS
 62
     6
100
AcDbVertex
100
AcDb2dVertex
 10
428.152306
 20
2086.608887
 30
0.0
  0
VERTEX
  5
3CD
100
AcDbEntity
  8
止水栓
  6
CONTINUOUS
 62
     6
100
AcDbVertex
100
AcDb2dVertex
 10
428.325645
 20
2087.041016
 30
0.0
  0
VERTEX
  5
3CE
100
AcDbEntity
  8
止水栓
  6
CONTINUOUS
 62
     6
100
AcDbVertex
100
AcDb2dVertex
 10
428.459923
 20
2087.487793
 30
0.0
  0
SEQEND
  5
3CF
100
AcDbEntity
  8
止水栓
  6
CONTINUOUS
 62
     6
  0
POLYLINE
  5
3D0
100
AcDbEntity
  8
止水栓
  6
CONTINUOUS
 62
     6
100
AcDb2dPolyline
 66
     1
 10
0.0
 20
0.0
 30
0.0
 70
   128
  0
VERTEX
  5
3D1
100
AcDbEntity
  8
止水栓
  6
CONTINUOUS
 62
     6
100
AcDbVertex
100
AcDb2dVertex
 10
428.459923
 20
2087.487793
 30
0.0
  0
VERTEX
  5
3D2
100
AcDbEntity
  8
止水栓
  6
CONTINUOUS
 62
     6
100
AcDbVertex
100
AcDb2dVertex
 10
428.56002
 20
2087.946777
 30
0.0
  0
VERTEX
  5
3D3
100
AcDbEntity
  8
止水栓
  6
CONTINUOUS
 62
     6
100
AcDbVertex
100
AcDb2dVertex
 10
428.618614
 20
2088.413086
 30
0.0
  0
VERTEX
  5
3D4
100
AcDbEntity
  8
止水栓
  6
CONTINUOUS
 62
     6
100
AcDbVertex
100
AcDb2dVertex
 10
428.638145
 20
2088.881836
 30
0.0
  0
SEQEND
  5
3D5
100
AcDbEntity
  8
止水栓
  6
CONTINUOUS
 62
     6
  0
POLYLINE
  5
3D6
100
AcDbEntity
  8
止水栓
  6
CONTINUOUS
 62
     6
100
AcDb2dPolyline
 66
     1
 10
0.0
 20
0.0
 30
0.0
 70
   128
  0
VERTEX
  5
3D7
100
AcDbEntity
  8
止水栓
  6
CONTINUOUS
 62
     6
100
AcDbVertex
100
AcDb2dVertex
 10
428.47213
 20
2101.845703
 30
0.0
  0
VERTEX
  5
3D8
100
AcDbEntity
  8
止水栓
  6
CONTINUOUS
 62
     6
100
AcDbVertex
100
AcDb2dVertex
 10
428.452599
 20
2102.312012
 30
0.0
  0
VERTEX
  5
3D9
100
AcDbEntity
  8
止水栓
  6
CONTINUOUS
 62
     6
100
AcDbVertex
100
AcDb2dVertex
 10
428.396446
 20
2102.775879
 30
0.0
  0
VERTEX
  5
3DA
100
AcDbEntity
  8
止水栓
  6
CONTINUOUS
 62
     6
100
AcDbVertex
100
AcDb2dVertex
 10
428.301231
 20
2103.234863
 30
0.0
  0
VERTEX
  5
3DB
100
AcDbEntity
  8
止水栓
  6
CONTINUOUS
 62
     6
100
AcDbVertex
100
AcDb2dVertex
 10
428.169395
 20
2103.679199
 30
0.0
  0
VERTEX
  5
3DC
100
AcDbEntity
  8
止水栓
  6
CONTINUOUS
 62
     6
100
AcDbVertex
100
AcDb2dVertex
 10
428.00338
 20
2104.111328
 30
0.0
  0
VERTEX
  5
3DD
100
AcDbEntity
  8
止水栓
  6
CONTINUOUS
 62
     6
100
AcDbVertex
100
AcDb2dVertex
 10
427.803184
 20
2104.526367
 30
0.0
  0
VERTEX
  5
3DE
100
AcDbEntity
  8
止水栓
  6
CONTINUOUS
 62
     6
100
AcDbVertex
100
AcDb2dVertex
 10
427.568809
 20
2104.919434
 30
0.0
  0
VERTEX
  5
3DF
100
AcDbEntity
  8
止水栓
  6
CONTINUOUS
 62
     6
100
AcDbVertex
100
AcDb2dVertex
 10
427.302696
 20
2105.290527
 30
0.0
  0
VERTEX
  5
3E0
100
AcDbEntity
  8
止水栓
  6
CONTINUOUS
 62
     6
100
AcDbVertex
100
AcDb2dVertex
 10
427.007286
 20
2105.637207
 30
0.0
  0
VERTEX
  5
3E1
100
AcDbEntity
  8
止水栓
  6
CONTINUOUS
 62
     6
100
AcDbVertex
100
AcDb2dVertex
 10
426.687462
 20
2105.952149
 30
0.0
  0
VERTEX
  5
3E2
100
AcDbEntity
  8
止水栓
  6
CONTINUOUS
 62
     6
100
AcDbVertex
100
AcDb2dVertex
 10
426.340782
 20
2106.237793
 30
0.0
  0
VERTEX
  5
3E3
100
AcDbEntity
  8
止水栓
  6
CONTINUOUS
 62
     6
100
AcDbVertex
100
AcDb2dVertex
 10
425.97213
 20
2106.486816
 30
0.0
  0
VERTEX
  5
3E4
100
AcDbEntity
  8
止水栓
  6
CONTINUOUS
 62
     6
100
AcDbVertex
100
AcDb2dVertex
 10
425.586388
 20
2106.704102
 30
0.0
  0
VERTEX
  5
3E5
100
AcDbEntity
  8
止水栓
  6
CONTINUOUS
 62
     6
100
AcDbVertex
100
AcDb2dVertex
 10
425.183556
 20
2106.882324
 30
0.0
  0
VERTEX
  5
3E6
100
AcDbEntity
  8
止水栓
  6
CONTINUOUS
 62
     6
100
AcDbVertex
100
AcDb2dVertex
 10
424.766075
 20
2107.023926
 30
0.0
  0
VERTEX
  5
3E7
100
AcDbEntity
  8
止水栓
  6
CONTINUOUS
 62
     6
100
AcDbVertex
100
AcDb2dVertex
 10
424.34127
 20
2107.124024
 30
0.0
  0
VERTEX
  5
3E8
100
AcDbEntity
  8
止水栓
  6
CONTINUOUS
 62
     6
100
AcDbVertex
100
AcDb2dVertex
 10
423.909142
 20
2107.185059
 30
0.0
  0
VERTEX
  5
3E9
100
AcDbEntity
  8
止水栓
  6
CONTINUOUS
 62
     6
100
AcDbVertex
100
AcDb2dVertex
 10
423.47213
 20
2107.20459
 30
0.0
  0
VERTEX
  5
3EA
100
AcDbEntity
  8
止水栓
  6
CONTINUOUS
 62
     6
100
AcDbVertex
100
AcDb2dVertex
 10
423.037559
 20
2107.185059
 30
0.0
  0
VERTEX
  5
3EB
100
AcDbEntity
  8
止水栓
  6
CONTINUOUS
 62
     6
100
AcDbVertex
100
AcDb2dVertex
 10
422.602989
 20
2107.124024
 30
0.0
  0
VERTEX
  5
3EC
100
AcDbEntity
  8
止水栓
  6
CONTINUOUS
 62
     6
100
AcDbVertex
100
AcDb2dVertex
 10
422.178184
 20
2107.023926
 30
0.0
  0
VERTEX
  5
3ED
100
AcDbEntity
  8
止水栓
  6
CONTINUOUS
 62
     6
100
AcDbVertex
100
AcDb2dVertex
 10
421.763145
 20
2106.882324
 30
0.0
  0
VERTEX
  5
3EE
100
AcDbEntity
  8
止水栓
  6
CONTINUOUS
 62
     6
100
AcDbVertex
100
AcDb2dVertex
 10
421.360313
 20
2106.704102
 30
0.0
  0
VERTEX
  5
3EF
100
AcDbEntity
  8
止水栓
  6
CONTINUOUS
 62
     6
100
AcDbVertex
100
AcDb2dVertex
 10
420.97213
 20
2106.486816
 30
0.0
  0
VERTEX
  5
3F0
100
AcDbEntity
  8
止水栓
  6
CONTINUOUS
 62
     6
100
AcDbVertex
100
AcDb2dVertex
 10
420.603477
 20
2106.237793
 30
0.0
  0
VERTEX
  5
3F1
100
AcDbEntity
  8
止水栓
  6
CONTINUOUS
 62
     6
100
AcDbVertex
100
AcDb2dVertex
 10
420.259239
 20
2105.952149
 30
0.0
  0
VERTEX
  5
3F2
100
AcDbEntity
  8
止水栓
  6
CONTINUOUS
 62
     6
100
AcDbVertex
100
AcDb2dVertex
 10
419.936974
 20
2105.637207
 30
0.0
  0
VERTEX
  5
3F3
100
AcDbEntity
  8
止水栓
  6
CONTINUOUS
 62
     6
100
AcDbVertex
100
AcDb2dVertex
 10
419.641563
 20
2105.290527
 30
0.0
  0
VERTEX
  5
3F4
100
AcDbEntity
  8
止水栓
  6
CONTINUOUS
 62
     6
100
AcDbVertex
100
AcDb2dVertex
 10
419.377892
 20
2104.919434
 30
0.0
  0
VERTEX
  5
3F5
100
AcDbEntity
  8
止水栓
  6
CONTINUOUS
 62
     6
100
AcDbVertex
100
AcDb2dVertex
 10
419.141075
 20
2104.526367
 30
0.0
  0
VERTEX
  5
3F6
100
AcDbEntity
  8
止水栓
  6
CONTINUOUS
 62
     6
100
AcDbVertex
100
AcDb2dVertex
 10
418.94088
 20
2104.111328
 30
0.0
  0
VERTEX
  5
3F7
100
AcDbEntity
  8
止水栓
  6
CONTINUOUS
 62
     6
100
AcDbVertex
100
AcDb2dVertex
 10
418.774864
 20
2103.679199
 30
0.0
  0
VERTEX
  5
3F8
100
AcDbEntity
  8
止水栓
  6
CONTINUOUS
 62
     6
100
AcDbVertex
100
AcDb2dVertex
 10
418.643028
 20
2103.234863
 30
0.0
  0
VERTEX
  5
3F9
100
AcDbEntity
  8
止水栓
  6
CONTINUOUS
 62
     6
100
AcDbVertex
100
AcDb2dVertex
 10
418.547813
 20
2102.77832
 30
0.0
  0
VERTEX
  5
3FA
100
AcDbEntity
  8
止水栓
  6
CONTINUOUS
 62
     6
100
AcDbVertex
100
AcDb2dVertex
 10
418.491661
 20
2102.314453
 30
0.0
  0
VERTEX
  5
3FB
100
AcDbEntity
  8
止水栓
  6
CONTINUOUS
 62
     6
100
AcDbVertex
100
AcDb2dVertex
 10
418.47213
 20
2101.848145
 30
0.0
  0
VERTEX
  5
3FC
100
AcDbEntity
  8
止水栓
  6
CONTINUOUS
 62
     6
100
AcDbVertex
100
AcDb2dVertex
 10
418.491661
 20
2101.379395
 30
0.0
  0
VERTEX
  5
3FD
100
AcDbEntity
  8
止水栓
  6
CONTINUOUS
 62
     6
100
AcDbVertex
100
AcDb2dVertex
 10
418.547813
 20
2100.917969
 30
0.0
  0
VERTEX
  5
3FE
100
AcDbEntity
  8
止水栓
  6
CONTINUOUS
 62
     6
100
AcDbVertex
100
AcDb2dVertex
 10
418.643028
 20
2100.461426
 30
0.0
  0
VERTEX
  5
3FF
100
AcDbEntity
  8
止水栓
  6
CONTINUOUS
 62
     6
100
AcDbVertex
100
AcDb2dVertex
 10
418.774864
 20
2100.014649
 30
0.0
  0
VERTEX
  5
400
100
AcDbEntity
  8
止水栓
  6
CONTINUOUS
 62
     6
100
AcDbVertex
100
AcDb2dVertex
 10
418.94088
 20
2099.58252
 30
0.0
  0
VERTEX
  5
401
100
AcDbEntity
  8
止水栓
  6
CONTINUOUS
 62
     6
100
AcDbVertex
100
AcDb2dVertex
 10
419.141075
 20
2099.16748
 30
0.0
  0
VERTEX
  5
402
100
AcDbEntity
  8
止水栓
  6
CONTINUOUS
 62
     6
100
AcDbVertex
100
AcDb2dVertex
 10
419.37545
 20
2098.771973
 30
0.0
  0
VERTEX
  5
403
100
AcDbEntity
  8
止水栓
  6
CONTINUOUS
 62
     6
100
AcDbVertex
100
AcDb2dVertex
 10
419.641563
 20
2098.400879
 30
0.0
  0
VERTEX
  5
404
100
AcDbEntity
  8
止水栓
  6
CONTINUOUS
 62
     6
100
AcDbVertex
100
AcDb2dVertex
 10
419.936974
 20
2098.056641
 30
0.0
  0
VERTEX
  5
405
100
AcDbEntity
  8
止水栓
  6
CONTINUOUS
 62
     6
100
AcDbVertex
100
AcDb2dVertex
 10
420.259239
 20
2097.741699
 30
0.0
  0
VERTEX
  5
406
100
AcDbEntity
  8
止水栓
  6
CONTINUOUS
 62
     6
100
AcDbVertex
100
AcDb2dVertex
 10
420.605919
 20
2097.456055
 30
0.0
  0
VERTEX
  5
407
100
AcDbEntity
  8
止水栓
  6
CONTINUOUS
 62
     6
100
AcDbVertex
100
AcDb2dVertex
 10
420.97213
 20
2097.20459
 30
0.0
  0
VERTEX
  5
408
100
AcDbEntity
  8
止水栓
  6
CONTINUOUS
 62
     6
100
AcDbVertex
100
AcDb2dVertex
 10
421.360313
 20
2096.989746
 30
0.0
  0
VERTEX
  5
409
100
AcDbEntity
  8
止水栓
  6
CONTINUOUS
 62
     6
100
AcDbVertex
100
AcDb2dVertex
 10
421.763145
 20
2096.811524
 30
0.0
  0
VERTEX
  5
40A
100
AcDbEntity
  8
止水栓
  6
CONTINUOUS
 62
     6
100
AcDbVertex
100
AcDb2dVertex
 10
422.178184
 20
2096.669922
 30
0.0
  0
VERTEX
  5
40B
100
AcDbEntity
  8
止水栓
  6
CONTINUOUS
 62
     6
100
AcDbVertex
100
AcDb2dVertex
 10
422.602989
 20
2096.569824
 30
0.0
  0
VERTEX
  5
40C
100
AcDbEntity
  8
止水栓
  6
CONTINUOUS
 62
     6
100
AcDbVertex
100
AcDb2dVertex
 10
423.037559
 20
2096.508789
 30
0.0
  0
VERTEX
  5
40D
100
AcDbEntity
  8
止水栓
  6
CONTINUOUS
 62
     6
100
AcDbVertex
100
AcDb2dVertex
 10
423.47213
 20
2096.486816
 30
0.0
  0
VERTEX
  5
40E
100
AcDbEntity
  8
止水栓
  6
CONTINUOUS
 62
     6
100
AcDbVertex
100
AcDb2dVertex
 10
423.9067
 20
2096.506348
 30
0.0
  0
VERTEX
  5
40F
100
AcDbEntity
  8
止水栓
  6
CONTINUOUS
 62
     6
100
AcDbVertex
100
AcDb2dVertex
 10
424.34127
 20
2096.567383
 30
0.0
  0
VERTEX
  5
410
100
AcDbEntity
  8
止水栓
  6
CONTINUOUS
 62
     6
100
AcDbVertex
100
AcDb2dVertex
 10
424.766075
 20
2096.669922
 30
0.0
  0
VERTEX
  5
411
100
AcDbEntity
  8
止水栓
  6
CONTINUOUS
 62
     6
100
AcDbVertex
100
AcDb2dVertex
 10
425.183556
 20
2096.809082
 30
0.0
  0
VERTEX
  5
412
100
AcDbEntity
  8
止水栓
  6
CONTINUOUS
 62
     6
100
AcDbVertex
100
AcDb2dVertex
 10
425.586388
 20
2096.989746
 30
0.0
  0
SEQEND
  5
413
100
AcDbEntity
  8
止水栓
  6
CONTINUOUS
 62
     6
  0
POLYLINE
  5
414
100
AcDbEntity
  8
止水栓
  6
CONTINUOUS
 62
     6
100
AcDb2dPolyline
 66
     1
 10
0.0
 20
0.0
 30
0.0
 70
   128
  0
VERTEX
  5
415
100
AcDbEntity
  8
止水栓
  6
CONTINUOUS
 62
     6
100
AcDbVertex
100
AcDb2dVertex
 10
425.586388
 20
2096.989746
 30
0.0
  0
VERTEX
  5
416
100
AcDbEntity
  8
止水栓
  6
CONTINUOUS
 62
     6
100
AcDbVertex
100
AcDb2dVertex
 10
425.97213
 20
2097.20459
 30
0.0
  0
VERTEX
  5
417
100
AcDbEntity
  8
止水栓
  6
CONTINUOUS
 62
     6
100
AcDbVertex
100
AcDb2dVertex
 10
426.340782
 20
2097.456055
 30
0.0
  0
VERTEX
  5
418
100
AcDbEntity
  8
止水栓
  6
CONTINUOUS
 62
     6
100
AcDbVertex
100
AcDb2dVertex
 10
426.68502
 20
2097.741699
 30
0.0
  0
VERTEX
  5
419
100
AcDbEntity
  8
止水栓
  6
CONTINUOUS
 62
     6
100
AcDbVertex
100
AcDb2dVertex
 10
427.007286
 20
2098.056641
 30
0.0
  0
VERTEX
  5
41A
100
AcDbEntity
  8
止水栓
  6
CONTINUOUS
 62
     6
100
AcDbVertex
100
AcDb2dVertex
 10
427.302696
 20
2098.400879
 30
0.0
  0
VERTEX
  5
41B
100
AcDbEntity
  8
止水栓
  6
CONTINUOUS
 62
     6
100
AcDbVertex
100
AcDb2dVertex
 10
427.568809
 20
2098.771973
 30
0.0
  0
VERTEX
  5
41C
100
AcDbEntity
  8
止水栓
  6
CONTINUOUS
 62
     6
100
AcDbVertex
100
AcDb2dVertex
 10
427.803184
 20
2099.16748
 30
0.0
  0
VERTEX
  5
41D
100
AcDbEntity
  8
止水栓
  6
CONTINUOUS
 62
     6
100
AcDbVertex
100
AcDb2dVertex
 10
428.00338
 20
2099.58252
 30
0.0
  0
VERTEX
  5
41E
100
AcDbEntity
  8
止水栓
  6
CONTINUOUS
 62
     6
100
AcDbVertex
100
AcDb2dVertex
 10
428.169395
 20
2100.014649
 30
0.0
  0
VERTEX
  5
41F
100
AcDbEntity
  8
止水栓
  6
CONTINUOUS
 62
     6
100
AcDbVertex
100
AcDb2dVertex
 10
428.301231
 20
2100.458984
 30
0.0
  0
SEQEND
  5
420
100
AcDbEntity
  8
止水栓
  6
CONTINUOUS
 62
     6
  0
POLYLINE
  5
421
100
AcDbEntity
  8
止水栓
  6
CONTINUOUS
 62
     6
100
AcDb2dPolyline
 66
     1
 10
0.0
 20
0.0
 30
0.0
 70
   128
  0
VERTEX
  5
422
100
AcDbEntity
  8
止水栓
  6
CONTINUOUS
 62
     6
100
AcDbVertex
100
AcDb2dVertex
 10
428.301231
 20
2100.458984
 30
0.0
  0
VERTEX
  5
423
100
AcDbEntity
  8
止水栓
  6
CONTINUOUS
 62
     6
100
AcDbVertex
100
AcDb2dVertex
 10
428.396446
 20
2100.915527
 30
0.0
  0
VERTEX
  5
424
100
AcDbEntity
  8
止水栓
  6
CONTINUOUS
 62
     6
100
AcDbVertex
100
AcDb2dVertex
 10
428.452599
 20
2101.379395
 30
0.0
  0
VERTEX
  5
425
100
AcDbEntity
  8
止水栓
  6
CONTINUOUS
 62
     6
100
AcDbVertex
100
AcDb2dVertex
 10
428.47213
 20
2101.848145
 30
0.0
  0
SEQEND
  5
426
100
AcDbEntity
  8
止水栓
  6
CONTINUOUS
 62
     6
  0
LINE
  5
427
100
AcDbEntity
  8
止水栓
  6
CONTINUOUS
 62
     6
100
AcDbLine
 10
418.440392
 20
2107.597656
 30
0.0
 11
418.440392
 21
2083.098145
 31
0.0
  0
LINE
  5
428
100
AcDbEntity
  8
止水栓
  6
CONTINUOUS
 62
     6
100
AcDbLine
 10
436.982872
 20
2107.597656
 30
0.0
 11
418.440392
 21
2107.597656
 31
0.0
  0
ARC
  5
429
100
AcDbEntity
  8
止水栓
  6
CONTINUOUS
 62
     6
100
AcDbCircle
 10
446.44088
 20
2048.347168
 30
0.0
 40
60.000057
100
AcDbArc
 50
96.075287
 51
99.069595
  0
LINE
  5
42A
100
AcDbEntity
  8
止水栓
  6
CONTINUOUS
 62
     6
100
AcDbLine
 10
418.440392
 20
2084.848633
 30
0.0
 11
366.441856
 21
2084.848633
 31
0.0
  0
LINE
  5
42B
100
AcDbEntity
  8
止水栓
  6
CONTINUOUS
 62
     6
100
AcDbLine
 10
418.440392
 20
2105.847168
 30
0.0
 11
366.441856
 21
2105.847168
 31
0.0
  0
ARC
  5
42C
100
AcDbEntity
  8
止水栓
  6
CONTINUOUS
 62
     6
100
AcDbCircle
 10
352.440392
 20
2109.848633
 30
0.0
 40
12.999535
100
AcDbArc
 50
23.285661
 51
98.848083
  0
LINE
  5
42D
100
AcDbEntity
  8
止水栓
  6
CONTINUOUS
 62
     6
100
AcDbLine
 10
366.441856
 20
2104.986066
 30
0.0
 11
366.441856
 21
2085.705566
 31
0.0
  0
ARC
  5
42E
100
AcDbEntity
  8
止水栓
  6
CONTINUOUS
 62
     6
100
AcDbCircle
 10
341.141563
 20
2085.705566
 30
0.0
 40
25.298605
100
AcDbArc
 50
336.794876
 51
1.026596
  0
ARC
  5
42F
100
AcDbEntity
  8
止水栓
  6
CONTINUOUS
 62
     6
100
AcDbCircle
 10
352.440392
 20
2080.847168
 30
0.0
 40
13.000488
100
AcDbArc
 50
270.000031
 51
336.852539
  0
LINE
  5
430
100
AcDbEntity
  8
止水栓
  6
CONTINUOUS
 62
     6
100
AcDbLine
 10
352.440392
 20
2067.84668
 30
0.0
 11
350.44088
 21
2067.84668
 31
0.0
  0
LINE
  5
431
100
AcDbEntity
  8
止水栓
  6
CONTINUOUS
 62
     6
100
AcDbLine
 10
350.44088
 20
2086.032715
 30
0.0
 11
342.45504
 21
2086.281738
 31
0.0
  0
LINE
  5
432
100
AcDbEntity
  8
止水栓
  6
CONTINUOUS
 62
     6
100
AcDbLine
 10
350.44088
 20
2084.848633
 30
0.0
 11
343.680626
 21
2085.058594
 31
0.0
  0
LINE
  5
433
100
AcDbEntity
  8
止水栓
  6
CONTINUOUS
 62
     6
100
AcDbLine
 10
343.680626
 20
2085.058594
 30
0.0
 11
343.678184
 21
2105.637207
 31
0.0
  0
LINE
  5
434
100
AcDbEntity
  8
止水栓
  6
CONTINUOUS
 62
     6
100
AcDbLine
 10
342.140099
 20
2104.09668
 30
0.0
 11
342.140099
 21
2086.59668
 31
0.0
  0
LINE
  5
435
100
AcDbEntity
  8
止水栓
  6
CONTINUOUS
 62
     6
100
AcDbLine
 10
343.678184
 20
2105.637207
 30
0.0
 11
342.45504
 21
2104.411621
 31
0.0
  0
LINE
  5
436
100
AcDbEntity
  8
止水栓
  6
CONTINUOUS
 62
     6
100
AcDbLine
 10
342.140099
 20
2086.59668
 30
0.0
 11
343.680626
 21
2085.058594
 31
0.0
  0
LINE
  5
437
100
AcDbEntity
  8
止水栓
  6
CONTINUOUS
 62
     6
100
AcDbLine
 10
350.44088
 20
2105.847168
 30
0.0
 11
343.678184
 21
2105.637207
 31
0.0
  0
LINE
  5
438
100
AcDbEntity
  8
止水栓
  6
CONTINUOUS
 62
     6
100
AcDbLine
 10
350.44088
 20
2104.663086
 30
0.0
 11
342.45504
 21
2104.411621
 31
0.0
  0
LINE
  5
439
100
AcDbEntity
  8
止水栓
  6
CONTINUOUS
 62
     6
100
AcDbLine
 10
459.153282
 20
2096.330566
 30
0.0
 11
459.189903
 21
2095.34668
 31
0.0
  0
LINE
  5
43A
100
AcDbEntity
  8
止水栓
  6
CONTINUOUS
 62
     6
100
AcDbLine
 10
455.994102
 20
2083.112793
 30
0.0
 11
457.349083
 21
2083.347168
 31
0.0
  0
ARC
  5
43B
100
AcDbEntity
  8
止水栓
  6
CONTINUOUS
 62
     6
100
AcDbCircle
 10
446.44088
 20
2095.34668
 30
0.0
 40
12.749701
100
AcDbArc
 50
295.593506
 51
304.420761
  0
ARC
  5
43C
100
AcDbEntity
  8
止水栓
  6
CONTINUOUS
 62
     6
100
AcDbCircle
 10
446.44088
 20
2095.34668
 30
0.0
 40
12.75197
100
AcDbArc
 50
119.866592
 51
124.414185
  0
ARC
  5
43D
100
AcDbEntity
  8
止水栓
  6
CONTINUOUS
 62
     6
100
AcDbCircle
 10
446.44088
 20
2048.347168
 30
0.0
 40
60.001211
100
AcDbArc
 50
79.52536
 51
83.92482
  0
LINE
  5
43E
100
AcDbEntity
  8
止水栓
  6
CONTINUOUS
 62
     6
100
AcDbLine
 10
457.349083
 20
2107.348633
 30
0.0
 11
461.941368
 21
2107.348633
 31
0.0
  0
ARC
  5
43F
100
AcDbEntity
  8
止水栓
  6
CONTINUOUS
 62
     6
100
AcDbCircle
 10
446.44088
 20
2095.34668
 30
0.0
 40
8.000031
100
AcDbArc
 50
142.538223
 51
37.46167
  0
LINE
  5
440
100
AcDbEntity
  8
止水栓
  6
CONTINUOUS
 62
     6
100
AcDbLine
 10
461.941368
 20
2082.595215
 30
0.0
 11
461.941368
 21
2108.095703
 31
0.0
  0
LINE
  5
441
100
AcDbEntity
  8
止水栓
  6
CONTINUOUS
 62
     6
100
AcDbLine
 10
478.342735
 20
2090.598145
 30
0.0
 11
474.841759
 21
2090.598145
 31
0.0
  0
LINE
  5
442
100
AcDbEntity
  8
止水栓
  6
CONTINUOUS
 62
     6
100
AcDbLine
 10
478.342735
 20
2090.598145
 30
0.0
 11
478.342735
 21
2094.348145
 31
0.0
  0
LINE
  5
443
100
AcDbEntity
  8
止水栓
  6
CONTINUOUS
 62
     6
100
AcDbLine
 10
478.342735
 20
2094.348145
 30
0.0
 11
475.842735
 21
2094.348145
 31
0.0
  0
LINE
  5
444
100
AcDbEntity
  8
止水栓
  6
CONTINUOUS
 62
     6
100
AcDbLine
 10
475.842735
 20
2094.348145
 30
0.0
 11
475.842735
 21
2096.347656
 31
0.0
  0
LINE
  5
445
100
AcDbEntity
  8
止水栓
  6
CONTINUOUS
 62
     6
100
AcDbLine
 10
475.842735
 20
2096.347656
 30
0.0
 11
478.342735
 21
2096.347656
 31
0.0
  0
LINE
  5
446
100
AcDbEntity
  8
止水栓
  6
CONTINUOUS
 62
     6
100
AcDbLine
 10
478.342735
 20
2096.347656
 30
0.0
 11
478.342735
 21
2100.097656
 31
0.0
  0
LINE
  5
447
100
AcDbEntity
  8
止水栓
  6
CONTINUOUS
 62
     6
100
AcDbLine
 10
478.342735
 20
2100.097656
 30
0.0
 11
474.834434
 21
2100.097656
 31
0.0
  0
LINE
  5
448
100
AcDbEntity
  8
止水栓
  6
CONTINUOUS
 62
     6
100
AcDbLine
 10
470.217735
 20
2083.442383
 30
0.0
 11
474.841759
 21
2090.046387
 31
0.0
  0
LINE
  5
449
100
AcDbEntity
  8
止水栓
  6
CONTINUOUS
 62
     6
100
AcDbLine
 10
474.841759
 20
2090.046387
 30
0.0
 11
474.841759
 21
2100.644531
 31
0.0
  0
LINE
  5
44A
100
AcDbEntity
  8
止水栓
  6
CONTINUOUS
 62
     6
100
AcDbLine
 10
474.841759
 20
2100.644531
 30
0.0
 11
470.217735
 21
2107.248535
 31
0.0
  0
LINE
  5
44B
100
AcDbEntity
  8
止水栓
  6
CONTINUOUS
 62
     6
100
AcDbLine
 10
470.217735
 20
2083.442383
 30
0.0
 11
470.217735
 21
2107.248535
 31
0.0
  0
ARC
  5
44C
100
AcDbEntity
  8
止水栓
  6
CONTINUOUS
 62
     6
100
AcDbCircle
 10
465.715782
 20
2104.09668
 30
0.0
 40
5.500077
100
AcDbArc
 50
35.004379
 51
50.597412
  0
ARC
  5
44D
100
AcDbEntity
  8
止水栓
  6
CONTINUOUS
 62
     6
100
AcDbCircle
 10
465.715782
 20
2104.09668
 30
0.0
 40
5.500002
100
AcDbArc
 50
129.402573
 51
133.338501
  0
ARC
  5
44E
100
AcDbEntity
  8
止水栓
  6
CONTINUOUS
 62
     6
100
AcDbCircle
 10
465.715782
 20
2086.59668
 30
0.0
 40
5.500042
100
AcDbArc
 50
226.661499
 51
230.597427
  0
ARC
  5
44F
100
AcDbEntity
  8
止水栓
  6
CONTINUOUS
 62
     6
100
AcDbCircle
 10
465.715782
 20
2086.59668
 30
0.0
 40
5.500002
100
AcDbArc
 50
309.402588
 51
324.996918
  0
LINE
  5
450
100
AcDbEntity
  8
止水栓
  6
CONTINUOUS
 62
     6
100
AcDbLine
 10
462.224571
 20
2082.346191
 30
0.0
 11
469.206993
 21
2082.346191
 31
0.0
  0
LINE
  5
451
100
AcDbEntity
  8
止水栓
  6
CONTINUOUS
 62
     6
100
AcDbLine
 10
462.224571
 20
2108.347168
 30
0.0
 11
469.206993
 21
2108.347168
 31
0.0
  0
POLYLINE
  5
452
100
AcDbEntity
  8
止水栓
  6
CONTINUOUS
 62
     6
100
AcDb2dPolyline
 66
     1
 10
0.0
 20
0.0
 30
0.0
 70
   128
  0
VERTEX
  5
453
100
AcDbEntity
  8
止水栓
  6
CONTINUOUS
 62
     6
100
AcDbVertex
100
AcDb2dVertex
 10
469.206993
 20
2101.845703
 30
0.0
  0
VERTEX
  5
454
100
AcDbEntity
  8
止水栓
  6
CONTINUOUS
 62
     6
100
AcDbVertex
100
AcDb2dVertex
 10
469.194786
 20
2102.285156
 30
0.0
  0
VERTEX
  5
455
100
AcDbEntity
  8
止水栓
  6
CONTINUOUS
 62
     6
100
AcDbVertex
100
AcDb2dVertex
 10
469.153282
 20
2102.724609
 30
0.0
  0
VERTEX
  5
456
100
AcDbEntity
  8
止水栓
  6
CONTINUOUS
 62
     6
100
AcDbVertex
100
AcDb2dVertex
 10
469.087364
 20
2103.154297
 30
0.0
  0
VERTEX
  5
457
100
AcDbEntity
  8
止水栓
  6
CONTINUOUS
 62
     6
100
AcDbVertex
100
AcDb2dVertex
 10
468.997032
 20
2103.574219
 30
0.0
  0
VERTEX
  5
458
100
AcDbEntity
  8
止水栓
  6
CONTINUOUS
 62
     6
100
AcDbVertex
100
AcDb2dVertex
 10
468.879845
 20
2103.981934
 30
0.0
  0
VERTEX
  5
459
100
AcDbEntity
  8
止水栓
  6
CONTINUOUS
 62
     6
100
AcDbVertex
100
AcDb2dVertex
 10
468.740684
 20
2104.375
 30
0.0
  0
VERTEX
  5
45A
100
AcDbEntity
  8
止水栓
  6
CONTINUOUS
 62
     6
100
AcDbVertex
100
AcDb2dVertex
 10
468.57711
 20
2104.746094
 30
0.0
  0
VERTEX
  5
45B
100
AcDbEntity
  8
止水栓
  6
CONTINUOUS
 62
     6
100
AcDbVertex
100
AcDb2dVertex
 10
468.391563
 20
2105.095215
 30
0.0
  0
VERTEX
  5
45C
100
AcDbEntity
  8
止水栓
  6
CONTINUOUS
 62
     6
100
AcDbVertex
100
AcDb2dVertex
 10
468.186485
 20
2105.419922
 30
0.0
  0
VERTEX
  5
45D
100
AcDbEntity
  8
止水栓
  6
CONTINUOUS
 62
     6
100
AcDbVertex
100
AcDb2dVertex
 10
467.961876
 20
2105.720215
 30
0.0
  0
VERTEX
  5
45E
100
AcDbEntity
  8
止水栓
  6
CONTINUOUS
 62
     6
100
AcDbVertex
100
AcDb2dVertex
 10
467.720177
 20
2105.986328
 30
0.0
  0
VERTEX
  5
45F
100
AcDbEntity
  8
止水栓
  6
CONTINUOUS
 62
     6
100
AcDbVertex
100
AcDb2dVertex
 10
467.461388
 20
2106.225586
 30
0.0
  0
VERTEX
  5
460
100
AcDbEntity
  8
止水栓
  6
CONTINUOUS
 62
     6
100
AcDbVertex
100
AcDb2dVertex
 10
467.190392
 20
2106.428223
 30
0.0
  0
VERTEX
  5
461
100
AcDbEntity
  8
止水栓
  6
CONTINUOUS
 62
     6
100
AcDbVertex
100
AcDb2dVertex
 10
466.90963
 20
2106.59668
 30
0.0
  0
VERTEX
  5
462
100
AcDbEntity
  8
止水栓
  6
CONTINUOUS
 62
     6
100
AcDbVertex
100
AcDb2dVertex
 10
466.619102
 20
2106.730957
 30
0.0
  0
VERTEX
  5
463
100
AcDbEntity
  8
止水栓
  6
CONTINUOUS
 62
     6
100
AcDbVertex
100
AcDb2dVertex
 10
466.321251
 20
2106.826172
 30
0.0
  0
VERTEX
  5
464
100
AcDbEntity
  8
止水栓
  6
CONTINUOUS
 62
     6
100
AcDbVertex
100
AcDb2dVertex
 10
466.020958
 20
2106.882324
 30
0.0
  0
VERTEX
  5
465
100
AcDbEntity
  8
止水栓
  6
CONTINUOUS
 62
     6
100
AcDbVertex
100
AcDb2dVertex
 10
465.715782
 20
2106.901855
 30
0.0
  0
VERTEX
  5
466
100
AcDbEntity
  8
止水栓
  6
CONTINUOUS
 62
     6
100
AcDbVertex
100
AcDb2dVertex
 10
465.410606
 20
2106.882324
 30
0.0
  0
VERTEX
  5
467
100
AcDbEntity
  8
止水栓
  6
CONTINUOUS
 62
     6
100
AcDbVertex
100
AcDb2dVertex
 10
465.110313
 20
2106.826172
 30
0.0
  0
VERTEX
  5
468
100
AcDbEntity
  8
止水栓
  6
CONTINUOUS
 62
     6
100
AcDbVertex
100
AcDb2dVertex
 10
464.812462
 20
2106.730957
 30
0.0
  0
VERTEX
  5
469
100
AcDbEntity
  8
止水栓
  6
CONTINUOUS
 62
     6
100
AcDbVertex
100
AcDb2dVertex
 10
464.521934
 20
2106.59668
 30
0.0
  0
VERTEX
  5
46A
100
AcDbEntity
  8
止水栓
  6
CONTINUOUS
 62
     6
100
AcDbVertex
100
AcDb2dVertex
 10
464.241173
 20
2106.428223
 30
0.0
  0
VERTEX
  5
46B
100
AcDbEntity
  8
止水栓
  6
CONTINUOUS
 62
     6
100
AcDbVertex
100
AcDb2dVertex
 10
463.972618
 20
2106.225586
 30
0.0
  0
VERTEX
  5
46C
100
AcDbEntity
  8
止水栓
  6
CONTINUOUS
 62
     6
100
AcDbVertex
100
AcDb2dVertex
 10
463.71627
 20
2105.986328
 30
0.0
  0
VERTEX
  5
46D
100
AcDbEntity
  8
止水栓
  6
CONTINUOUS
 62
     6
100
AcDbVertex
100
AcDb2dVertex
 10
463.474571
 20
2105.717774
 30
0.0
  0
VERTEX
  5
46E
100
AcDbEntity
  8
止水栓
  6
CONTINUOUS
 62
     6
100
AcDbVertex
100
AcDb2dVertex
 10
463.24752
 20
2105.419922
 30
0.0
  0
VERTEX
  5
46F
100
AcDbEntity
  8
止水栓
  6
CONTINUOUS
 62
     6
100
AcDbVertex
100
AcDb2dVertex
 10
463.042442
 20
2105.095215
 30
0.0
  0
VERTEX
  5
470
100
AcDbEntity
  8
止水栓
  6
CONTINUOUS
 62
     6
100
AcDbVertex
100
AcDb2dVertex
 10
462.856895
 20
2104.746094
 30
0.0
  0
VERTEX
  5
471
100
AcDbEntity
  8
止水栓
  6
CONTINUOUS
 62
     6
100
AcDbVertex
100
AcDb2dVertex
 10
462.69088
 20
2104.375
 30
0.0
  0
VERTEX
  5
472
100
AcDbEntity
  8
止水栓
  6
CONTINUOUS
 62
     6
100
AcDbVertex
100
AcDb2dVertex
 10
462.55172
 20
2103.981934
 30
0.0
  0
VERTEX
  5
473
100
AcDbEntity
  8
止水栓
  6
CONTINUOUS
 62
     6
100
AcDbVertex
100
AcDb2dVertex
 10
462.434532
 20
2103.574219
 30
0.0
  0
VERTEX
  5
474
100
AcDbEntity
  8
止水栓
  6
CONTINUOUS
 62
     6
100
AcDbVertex
100
AcDb2dVertex
 10
462.3442
 20
2103.154297
 30
0.0
  0
VERTEX
  5
475
100
AcDbEntity
  8
止水栓
  6
CONTINUOUS
 62
     6
100
AcDbVertex
100
AcDb2dVertex
 10
462.278282
 20
2102.724609
 30
0.0
  0
VERTEX
  5
476
100
AcDbEntity
  8
止水栓
  6
CONTINUOUS
 62
     6
100
AcDbVertex
100
AcDb2dVertex
 10
462.23922
 20
2102.285156
 30
0.0
  0
VERTEX
  5
477
100
AcDbEntity
  8
止水栓
  6
CONTINUOUS
 62
     6
100
AcDbVertex
100
AcDb2dVertex
 10
462.227013
 20
2101.845703
 30
0.0
  0
VERTEX
  5
478
100
AcDbEntity
  8
止水栓
  6
CONTINUOUS
 62
     6
100
AcDbVertex
100
AcDb2dVertex
 10
462.23922
 20
2101.403809
 30
0.0
  0
VERTEX
  5
479
100
AcDbEntity
  8
止水栓
  6
CONTINUOUS
 62
     6
100
AcDbVertex
100
AcDb2dVertex
 10
462.280724
 20
2100.966797
 30
0.0
  0
VERTEX
  5
47A
100
AcDbEntity
  8
止水栓
  6
CONTINUOUS
 62
     6
100
AcDbVertex
100
AcDb2dVertex
 10
462.3442
 20
2100.537109
 30
0.0
  0
VERTEX
  5
47B
100
AcDbEntity
  8
止水栓
  6
CONTINUOUS
 62
     6
100
AcDbVertex
100
AcDb2dVertex
 10
462.434532
 20
2100.117188
 30
0.0
  0
VERTEX
  5
47C
100
AcDbEntity
  8
止水栓
  6
CONTINUOUS
 62
     6
100
AcDbVertex
100
AcDb2dVertex
 10
462.55172
 20
2099.709473
 30
0.0
  0
VERTEX
  5
47D
100
AcDbEntity
  8
止水栓
  6
CONTINUOUS
 62
     6
100
AcDbVertex
100
AcDb2dVertex
 10
462.69088
 20
2099.316406
 30
0.0
  0
VERTEX
  5
47E
100
AcDbEntity
  8
止水栓
  6
CONTINUOUS
 62
     6
100
AcDbVertex
100
AcDb2dVertex
 10
462.854454
 20
2098.945313
 30
0.0
  0
VERTEX
  5
47F
100
AcDbEntity
  8
止水栓
  6
CONTINUOUS
 62
     6
100
AcDbVertex
100
AcDb2dVertex
 10
463.040001
 20
2098.596191
 30
0.0
  0
VERTEX
  5
480
100
AcDbEntity
  8
止水栓
  6
CONTINUOUS
 62
     6
100
AcDbVertex
100
AcDb2dVertex
 10
463.24752
 20
2098.269043
 30
0.0
  0
VERTEX
  5
481
100
AcDbEntity
  8
止水栓
  6
CONTINUOUS
 62
     6
100
AcDbVertex
100
AcDb2dVertex
 10
463.47213
 20
2097.971191
 30
0.0
  0
VERTEX
  5
482
100
AcDbEntity
  8
止水栓
  6
CONTINUOUS
 62
     6
100
AcDbVertex
100
AcDb2dVertex
 10
463.713829
 20
2097.702637
 30
0.0
  0
VERTEX
  5
483
100
AcDbEntity
  8
止水栓
  6
CONTINUOUS
 62
     6
100
AcDbVertex
100
AcDb2dVertex
 10
463.972618
 20
2097.46582
 30
0.0
  0
VERTEX
  5
484
100
AcDbEntity
  8
止水栓
  6
CONTINUOUS
 62
     6
100
AcDbVertex
100
AcDb2dVertex
 10
464.243614
 20
2097.263184
 30
0.0
  0
VERTEX
  5
485
100
AcDbEntity
  8
止水栓
  6
CONTINUOUS
 62
     6
100
AcDbVertex
100
AcDb2dVertex
 10
464.524376
 20
2097.092285
 30
0.0
  0
VERTEX
  5
486
100
AcDbEntity
  8
止水栓
  6
CONTINUOUS
 62
     6
100
AcDbVertex
100
AcDb2dVertex
 10
464.812462
 20
2096.960449
 30
0.0
  0
VERTEX
  5
487
100
AcDbEntity
  8
止水栓
  6
CONTINUOUS
 62
     6
100
AcDbVertex
100
AcDb2dVertex
 10
465.110313
 20
2096.865234
 30
0.0
  0
VERTEX
  5
488
100
AcDbEntity
  8
止水栓
  6
CONTINUOUS
 62
     6
100
AcDbVertex
100
AcDb2dVertex
 10
465.410606
 20
2096.809082
 30
0.0
  0
VERTEX
  5
489
100
AcDbEntity
  8
止水栓
  6
CONTINUOUS
 62
     6
100
AcDbVertex
100
AcDb2dVertex
 10
465.715782
 20
2096.789551
 30
0.0
  0
VERTEX
  5
48A
100
AcDbEntity
  8
止水栓
  6
CONTINUOUS
 62
     6
100
AcDbVertex
100
AcDb2dVertex
 10
466.020958
 20
2096.809082
 30
0.0
  0
VERTEX
  5
48B
100
AcDbEntity
  8
止水栓
  6
CONTINUOUS
 62
     6
100
AcDbVertex
100
AcDb2dVertex
 10
466.321251
 20
2096.865234
 30
0.0
  0
VERTEX
  5
48C
100
AcDbEntity
  8
止水栓
  6
CONTINUOUS
 62
     6
100
AcDbVertex
100
AcDb2dVertex
 10
466.619102
 20
2096.960449
 30
0.0
  0
VERTEX
  5
48D
100
AcDbEntity
  8
止水栓
  6
CONTINUOUS
 62
     6
100
AcDbVertex
100
AcDb2dVertex
 10
466.90963
 20
2097.094727
 30
0.0
  0
VERTEX
  5
48E
100
AcDbEntity
  8
止水栓
  6
CONTINUOUS
 62
     6
100
AcDbVertex
100
AcDb2dVertex
 10
467.190392
 20
2097.263184
 30
0.0
  0
SEQEND
  5
48F
100
AcDbEntity
  8
止水栓
  6
CONTINUOUS
 62
     6
  0
POLYLINE
  5
490
100
AcDbEntity
  8
止水栓
  6
CONTINUOUS
 62
     6
100
AcDb2dPolyline
 66
     1
 10
0.0
 20
0.0
 30
0.0
 70
   128
  0
VERTEX
  5
491
100
AcDbEntity
  8
止水栓
  6
CONTINUOUS
 62
     6
100
AcDbVertex
100
AcDb2dVertex
 10
467.190392
 20
2097.263184
 30
0.0
  0
VERTEX
  5
492
100
AcDbEntity
  8
止水栓
  6
CONTINUOUS
 62
     6
100
AcDbVertex
100
AcDb2dVertex
 10
467.461388
 20
2097.46582
 30
0.0
  0
VERTEX
  5
493
100
AcDbEntity
  8
止水栓
  6
CONTINUOUS
 62
     6
100
AcDbVertex
100
AcDb2dVertex
 10
467.717735
 20
2097.702637
 30
0.0
  0
VERTEX
  5
494
100
AcDbEntity
  8
止水栓
  6
CONTINUOUS
 62
     6
100
AcDbVertex
100
AcDb2dVertex
 10
467.959434
 20
2097.971191
 30
0.0
  0
VERTEX
  5
495
100
AcDbEntity
  8
止水栓
  6
CONTINUOUS
 62
     6
100
AcDbVertex
100
AcDb2dVertex
 10
468.186485
 20
2098.269043
 30
0.0
  0
VERTEX
  5
496
100
AcDbEntity
  8
止水栓
  6
CONTINUOUS
 62
     6
100
AcDbVertex
100
AcDb2dVertex
 10
468.391563
 20
2098.59375
 30
0.0
  0
VERTEX
  5
497
100
AcDbEntity
  8
止水栓
  6
CONTINUOUS
 62
     6
100
AcDbVertex
100
AcDb2dVertex
 10
468.57711
 20
2098.945313
 30
0.0
  0
VERTEX
  5
498
100
AcDbEntity
  8
止水栓
  6
CONTINUOUS
 62
     6
100
AcDbVertex
100
AcDb2dVertex
 10
468.740684
 20
2099.316406
 30
0.0
  0
VERTEX
  5
499
100
AcDbEntity
  8
止水栓
  6
CONTINUOUS
 62
     6
100
AcDbVertex
100
AcDb2dVertex
 10
468.879845
 20
2099.709473
 30
0.0
  0
VERTEX
  5
49A
100
AcDbEntity
  8
止水栓
  6
CONTINUOUS
 62
     6
100
AcDbVertex
100
AcDb2dVertex
 10
468.997032
 20
2100.117188
 30
0.0
  0
VERTEX
  5
49B
100
AcDbEntity
  8
止水栓
  6
CONTINUOUS
 62
     6
100
AcDbVertex
100
AcDb2dVertex
 10
469.087364
 20
2100.537109
 30
0.0
  0
SEQEND
  5
49C
100
AcDbEntity
  8
止水栓
  6
CONTINUOUS
 62
     6
  0
POLYLINE
  5
49D
100
AcDbEntity
  8
止水栓
  6
CONTINUOUS
 62
     6
100
AcDb2dPolyline
 66
     1
 10
0.0
 20
0.0
 30
0.0
 70
   128
  0
VERTEX
  5
49E
100
AcDbEntity
  8
止水栓
  6
CONTINUOUS
 62
     6
100
AcDbVertex
100
AcDb2dVertex
 10
469.087364
 20
2100.537109
 30
0.0
  0
VERTEX
  5
49F
100
AcDbEntity
  8
止水栓
  6
CONTINUOUS
 62
     6
100
AcDbVertex
100
AcDb2dVertex
 10
469.153282
 20
2100.966797
 30
0.0
  0
VERTEX
  5
4A0
100
AcDbEntity
  8
止水栓
  6
CONTINUOUS
 62
     6
100
AcDbVertex
100
AcDb2dVertex
 10
469.192345
 20
2101.40625
 30
0.0
  0
VERTEX
  5
4A1
100
AcDbEntity
  8
止水栓
  6
CONTINUOUS
 62
     6
100
AcDbVertex
100
AcDb2dVertex
 10
469.206993
 20
2101.845703
 30
0.0
  0
SEQEND
  5
4A2
100
AcDbEntity
  8
止水栓
  6
CONTINUOUS
 62
     6
  0
POLYLINE
  5
4A3
100
AcDbEntity
  8
止水栓
  6
CONTINUOUS
 62
     6
100
AcDb2dPolyline
 66
     1
 10
0.0
 20
0.0
 30
0.0
 70
   128
  0
VERTEX
  5
4A4
100
AcDbEntity
  8
止水栓
  6
CONTINUOUS
 62
     6
100
AcDbVertex
100
AcDb2dVertex
 10
469.206993
 20
2088.847656
 30
0.0
  0
VERTEX
  5
4A5
100
AcDbEntity
  8
止水栓
  6
CONTINUOUS
 62
     6
100
AcDbVertex
100
AcDb2dVertex
 10
469.194786
 20
2089.287109
 30
0.0
  0
VERTEX
  5
4A6
100
AcDbEntity
  8
止水栓
  6
CONTINUOUS
 62
     6
100
AcDbVertex
100
AcDb2dVertex
 10
469.153282
 20
2089.726563
 30
0.0
  0
VERTEX
  5
4A7
100
AcDbEntity
  8
止水栓
  6
CONTINUOUS
 62
     6
100
AcDbVertex
100
AcDb2dVertex
 10
469.087364
 20
2090.15625
 30
0.0
  0
VERTEX
  5
4A8
100
AcDbEntity
  8
止水栓
  6
CONTINUOUS
 62
     6
100
AcDbVertex
100
AcDb2dVertex
 10
468.997032
 20
2090.576172
 30
0.0
  0
VERTEX
  5
4A9
100
AcDbEntity
  8
止水栓
  6
CONTINUOUS
 62
     6
100
AcDbVertex
100
AcDb2dVertex
 10
468.879845
 20
2090.983887
 30
0.0
  0
VERTEX
  5
4AA
100
AcDbEntity
  8
止水栓
  6
CONTINUOUS
 62
     6
100
AcDbVertex
100
AcDb2dVertex
 10
468.740684
 20
2091.376953
 30
0.0
  0
VERTEX
  5
4AB
100
AcDbEntity
  8
止水栓
  6
CONTINUOUS
 62
     6
100
AcDbVertex
100
AcDb2dVertex
 10
468.57711
 20
2091.748047
 30
0.0
  0
VERTEX
  5
4AC
100
AcDbEntity
  8
止水栓
  6
CONTINUOUS
 62
     6
100
AcDbVertex
100
AcDb2dVertex
 10
468.391563
 20
2092.097168
 30
0.0
  0
VERTEX
  5
4AD
100
AcDbEntity
  8
止水栓
  6
CONTINUOUS
 62
     6
100
AcDbVertex
100
AcDb2dVertex
 10
468.186485
 20
2092.424316
 30
0.0
  0
VERTEX
  5
4AE
100
AcDbEntity
  8
止水栓
  6
CONTINUOUS
 62
     6
100
AcDbVertex
100
AcDb2dVertex
 10
467.961876
 20
2092.722168
 30
0.0
  0
VERTEX
  5
4AF
100
AcDbEntity
  8
止水栓
  6
CONTINUOUS
 62
     6
100
AcDbVertex
100
AcDb2dVertex
 10
467.720177
 20
2092.990723
 30
0.0
  0
VERTEX
  5
4B0
100
AcDbEntity
  8
止水栓
  6
CONTINUOUS
 62
     6
100
AcDbVertex
100
AcDb2dVertex
 10
467.461388
 20
2093.227539
 30
0.0
  0
VERTEX
  5
4B1
100
AcDbEntity
  8
止水栓
  6
CONTINUOUS
 62
     6
100
AcDbVertex
100
AcDb2dVertex
 10
467.190392
 20
2093.430176
 30
0.0
  0
VERTEX
  5
4B2
100
AcDbEntity
  8
止水栓
  6
CONTINUOUS
 62
     6
100
AcDbVertex
100
AcDb2dVertex
 10
466.90963
 20
2093.598633
 30
0.0
  0
VERTEX
  5
4B3
100
AcDbEntity
  8
止水栓
  6
CONTINUOUS
 62
     6
100
AcDbVertex
100
AcDb2dVertex
 10
466.619102
 20
2093.73291
 30
0.0
  0
VERTEX
  5
4B4
100
AcDbEntity
  8
止水栓
  6
CONTINUOUS
 62
     6
100
AcDbVertex
100
AcDb2dVertex
 10
466.321251
 20
2093.828125
 30
0.0
  0
VERTEX
  5
4B5
100
AcDbEntity
  8
止水栓
  6
CONTINUOUS
 62
     6
100
AcDbVertex
100
AcDb2dVertex
 10
466.020958
 20
2093.886719
 30
0.0
  0
VERTEX
  5
4B6
100
AcDbEntity
  8
止水栓
  6
CONTINUOUS
 62
     6
100
AcDbVertex
100
AcDb2dVertex
 10
465.715782
 20
2093.903809
 30
0.0
  0
VERTEX
  5
4B7
100
AcDbEntity
  8
止水栓
  6
CONTINUOUS
 62
     6
100
AcDbVertex
100
AcDb2dVertex
 10
465.410606
 20
2093.886719
 30
0.0
  0
VERTEX
  5
4B8
100
AcDbEntity
  8
止水栓
  6
CONTINUOUS
 62
     6
100
AcDbVertex
100
AcDb2dVertex
 10
465.110313
 20
2093.828125
 30
0.0
  0
VERTEX
  5
4B9
100
AcDbEntity
  8
止水栓
  6
CONTINUOUS
 62
     6
100
AcDbVertex
100
AcDb2dVertex
 10
464.812462
 20
2093.73291
 30
0.0
  0
VERTEX
  5
4BA
100
AcDbEntity
  8
止水栓
  6
CONTINUOUS
 62
     6
100
AcDbVertex
100
AcDb2dVertex
 10
464.521934
 20
2093.598633
 30
0.0
  0
VERTEX
  5
4BB
100
AcDbEntity
  8
止水栓
  6
CONTINUOUS
 62
     6
100
AcDbVertex
100
AcDb2dVertex
 10
464.241173
 20
2093.430176
 30
0.0
  0
VERTEX
  5
4BC
100
AcDbEntity
  8
止水栓
  6
CONTINUOUS
 62
     6
100
AcDbVertex
100
AcDb2dVertex
 10
463.972618
 20
2093.227539
 30
0.0
  0
VERTEX
  5
4BD
100
AcDbEntity
  8
止水栓
  6
CONTINUOUS
 62
     6
100
AcDbVertex
100
AcDb2dVertex
 10
463.71627
 20
2092.990723
 30
0.0
  0
VERTEX
  5
4BE
100
AcDbEntity
  8
止水栓
  6
CONTINUOUS
 62
     6
100
AcDbVertex
100
AcDb2dVertex
 10
463.474571
 20
2092.722168
 30
0.0
  0
VERTEX
  5
4BF
100
AcDbEntity
  8
止水栓
  6
CONTINUOUS
 62
     6
100
AcDbVertex
100
AcDb2dVertex
 10
463.24752
 20
2092.424316
 30
0.0
  0
VERTEX
  5
4C0
100
AcDbEntity
  8
止水栓
  6
CONTINUOUS
 62
     6
100
AcDbVertex
100
AcDb2dVertex
 10
463.042442
 20
2092.097168
 30
0.0
  0
VERTEX
  5
4C1
100
AcDbEntity
  8
止水栓
  6
CONTINUOUS
 62
     6
100
AcDbVertex
100
AcDb2dVertex
 10
462.856895
 20
2091.748047
 30
0.0
  0
VERTEX
  5
4C2
100
AcDbEntity
  8
止水栓
  6
CONTINUOUS
 62
     6
100
AcDbVertex
100
AcDb2dVertex
 10
462.69088
 20
2091.376953
 30
0.0
  0
VERTEX
  5
4C3
100
AcDbEntity
  8
止水栓
  6
CONTINUOUS
 62
     6
100
AcDbVertex
100
AcDb2dVertex
 10
462.55172
 20
2090.983887
 30
0.0
  0
VERTEX
  5
4C4
100
AcDbEntity
  8
止水栓
  6
CONTINUOUS
 62
     6
100
AcDbVertex
100
AcDb2dVertex
 10
462.434532
 20
2090.576172
 30
0.0
  0
VERTEX
  5
4C5
100
AcDbEntity
  8
止水栓
  6
CONTINUOUS
 62
     6
100
AcDbVertex
100
AcDb2dVertex
 10
462.3442
 20
2090.15625
 30
0.0
  0
VERTEX
  5
4C6
100
AcDbEntity
  8
止水栓
  6
CONTINUOUS
 62
     6
100
AcDbVertex
100
AcDb2dVertex
 10
462.278282
 20
2089.726563
 30
0.0
  0
VERTEX
  5
4C7
100
AcDbEntity
  8
止水栓
  6
CONTINUOUS
 62
     6
100
AcDbVertex
100
AcDb2dVertex
 10
462.23922
 20
2089.287109
 30
0.0
  0
VERTEX
  5
4C8
100
AcDbEntity
  8
止水栓
  6
CONTINUOUS
 62
     6
100
AcDbVertex
100
AcDb2dVertex
 10
462.227013
 20
2088.847656
 30
0.0
  0
VERTEX
  5
4C9
100
AcDbEntity
  8
止水栓
  6
CONTINUOUS
 62
     6
100
AcDbVertex
100
AcDb2dVertex
 10
462.23922
 20
2088.405762
 30
0.0
  0
VERTEX
  5
4CA
100
AcDbEntity
  8
止水栓
  6
CONTINUOUS
 62
     6
100
AcDbVertex
100
AcDb2dVertex
 10
462.280724
 20
2087.96875
 30
0.0
  0
VERTEX
  5
4CB
100
AcDbEntity
  8
止水栓
  6
CONTINUOUS
 62
     6
100
AcDbVertex
100
AcDb2dVertex
 10
462.3442
 20
2087.539063
 30
0.0
  0
VERTEX
  5
4CC
100
AcDbEntity
  8
止水栓
  6
CONTINUOUS
 62
     6
100
AcDbVertex
100
AcDb2dVertex
 10
462.434532
 20
2087.116699
 30
0.0
  0
VERTEX
  5
4CD
100
AcDbEntity
  8
止水栓
  6
CONTINUOUS
 62
     6
100
AcDbVertex
100
AcDb2dVertex
 10
462.55172
 20
2086.708984
 30
0.0
  0
VERTEX
  5
4CE
100
AcDbEntity
  8
止水栓
  6
CONTINUOUS
 62
     6
100
AcDbVertex
100
AcDb2dVertex
 10
462.69088
 20
2086.318359
 30
0.0
  0
VERTEX
  5
4CF
100
AcDbEntity
  8
止水栓
  6
CONTINUOUS
 62
     6
100
AcDbVertex
100
AcDb2dVertex
 10
462.854454
 20
2085.947266
 30
0.0
  0
VERTEX
  5
4D0
100
AcDbEntity
  8
止水栓
  6
CONTINUOUS
 62
     6
100
AcDbVertex
100
AcDb2dVertex
 10
463.040001
 20
2085.595703
 30
0.0
  0
VERTEX
  5
4D1
100
AcDbEntity
  8
止水栓
  6
CONTINUOUS
 62
     6
100
AcDbVertex
100
AcDb2dVertex
 10
463.24752
 20
2085.270996
 30
0.0
  0
VERTEX
  5
4D2
100
AcDbEntity
  8
止水栓
  6
CONTINUOUS
 62
     6
100
AcDbVertex
100
AcDb2dVertex
 10
463.47213
 20
2084.973145
 30
0.0
  0
VERTEX
  5
4D3
100
AcDbEntity
  8
止水栓
  6
CONTINUOUS
 62
     6
100
AcDbVertex
100
AcDb2dVertex
 10
463.713829
 20
2084.70459
 30
0.0
  0
VERTEX
  5
4D4
100
AcDbEntity
  8
止水栓
  6
CONTINUOUS
 62
     6
100
AcDbVertex
100
AcDb2dVertex
 10
463.972618
 20
2084.467774
 30
0.0
  0
VERTEX
  5
4D5
100
AcDbEntity
  8
止水栓
  6
CONTINUOUS
 62
     6
100
AcDbVertex
100
AcDb2dVertex
 10
464.243614
 20
2084.262695
 30
0.0
  0
VERTEX
  5
4D6
100
AcDbEntity
  8
止水栓
  6
CONTINUOUS
 62
     6
100
AcDbVertex
100
AcDb2dVertex
 10
464.524376
 20
2084.094238
 30
0.0
  0
VERTEX
  5
4D7
100
AcDbEntity
  8
止水栓
  6
CONTINUOUS
 62
     6
100
AcDbVertex
100
AcDb2dVertex
 10
464.812462
 20
2083.962402
 30
0.0
  0
VERTEX
  5
4D8
100
AcDbEntity
  8
止水栓
  6
CONTINUOUS
 62
     6
100
AcDbVertex
100
AcDb2dVertex
 10
465.110313
 20
2083.867188
 30
0.0
  0
VERTEX
  5
4D9
100
AcDbEntity
  8
止水栓
  6
CONTINUOUS
 62
     6
100
AcDbVertex
100
AcDb2dVertex
 10
465.410606
 20
2083.808594
 30
0.0
  0
VERTEX
  5
4DA
100
AcDbEntity
  8
止水栓
  6
CONTINUOUS
 62
     6
100
AcDbVertex
100
AcDb2dVertex
 10
465.715782
 20
2083.789063
 30
0.0
  0
VERTEX
  5
4DB
100
AcDbEntity
  8
止水栓
  6
CONTINUOUS
 62
     6
100
AcDbVertex
100
AcDb2dVertex
 10
466.020958
 20
2083.808594
 30
0.0
  0
VERTEX
  5
4DC
100
AcDbEntity
  8
止水栓
  6
CONTINUOUS
 62
     6
100
AcDbVertex
100
AcDb2dVertex
 10
466.321251
 20
2083.867188
 30
0.0
  0
VERTEX
  5
4DD
100
AcDbEntity
  8
止水栓
  6
CONTINUOUS
 62
     6
100
AcDbVertex
100
AcDb2dVertex
 10
466.619102
 20
2083.962402
 30
0.0
  0
VERTEX
  5
4DE
100
AcDbEntity
  8
止水栓
  6
CONTINUOUS
 62
     6
100
AcDbVertex
100
AcDb2dVertex
 10
466.90963
 20
2084.094238
 30
0.0
  0
VERTEX
  5
4DF
100
AcDbEntity
  8
止水栓
  6
CONTINUOUS
 62
     6
100
AcDbVertex
100
AcDb2dVertex
 10
467.190392
 20
2084.262695
 30
0.0
  0
SEQEND
  5
4E0
100
AcDbEntity
  8
止水栓
  6
CONTINUOUS
 62
     6
  0
POLYLINE
  5
4E1
100
AcDbEntity
  8
止水栓
  6
CONTINUOUS
 62
     6
100
AcDb2dPolyline
 66
     1
 10
0.0
 20
0.0
 30
0.0
 70
   128
  0
VERTEX
  5
4E2
100
AcDbEntity
  8
止水栓
  6
CONTINUOUS
 62
     6
100
AcDbVertex
100
AcDb2dVertex
 10
467.190392
 20
2084.262695
 30
0.0
  0
VERTEX
  5
4E3
100
AcDbEntity
  8
止水栓
  6
CONTINUOUS
 62
     6
100
AcDbVertex
100
AcDb2dVertex
 10
467.461388
 20
2084.467774
 30
0.0
  0
VERTEX
  5
4E4
100
AcDbEntity
  8
止水栓
  6
CONTINUOUS
 62
     6
100
AcDbVertex
100
AcDb2dVertex
 10
467.717735
 20
2084.70459
 30
0.0
  0
VERTEX
  5
4E5
100
AcDbEntity
  8
止水栓
  6
CONTINUOUS
 62
     6
100
AcDbVertex
100
AcDb2dVertex
 10
467.959434
 20
2084.973145
 30
0.0
  0
VERTEX
  5
4E6
100
AcDbEntity
  8
止水栓
  6
CONTINUOUS
 62
     6
100
AcDbVertex
100
AcDb2dVertex
 10
468.186485
 20
2085.270996
 30
0.0
  0
VERTEX
  5
4E7
100
AcDbEntity
  8
止水栓
  6
CONTINUOUS
 62
     6
100
AcDbVertex
100
AcDb2dVertex
 10
468.391563
 20
2085.595703
 30
0.0
  0
VERTEX
  5
4E8
100
AcDbEntity
  8
止水栓
  6
CONTINUOUS
 62
     6
100
AcDbVertex
100
AcDb2dVertex
 10
468.57711
 20
2085.947266
 30
0.0
  0
VERTEX
  5
4E9
100
AcDbEntity
  8
止水栓
  6
CONTINUOUS
 62
     6
100
AcDbVertex
100
AcDb2dVertex
 10
468.740684
 20
2086.318359
 30
0.0
  0
VERTEX
  5
4EA
100
AcDbEntity
  8
止水栓
  6
CONTINUOUS
 62
     6
100
AcDbVertex
100
AcDb2dVertex
 10
468.879845
 20
2086.708984
 30
0.0
  0
VERTEX
  5
4EB
100
AcDbEntity
  8
止水栓
  6
CONTINUOUS
 62
     6
100
AcDbVertex
100
AcDb2dVertex
 10
468.997032
 20
2087.116699
 30
0.0
  0
VERTEX
  5
4EC
100
AcDbEntity
  8
止水栓
  6
CONTINUOUS
 62
     6
100
AcDbVertex
100
AcDb2dVertex
 10
469.087364
 20
2087.539063
 30
0.0
  0
SEQEND
  5
4ED
100
AcDbEntity
  8
止水栓
  6
CONTINUOUS
 62
     6
  0
POLYLINE
  5
4EE
100
AcDbEntity
  8
止水栓
  6
CONTINUOUS
 62
     6
100
AcDb2dPolyline
 66
     1
 10
0.0
 20
0.0
 30
0.0
 70
   128
  0
VERTEX
  5
4EF
100
AcDbEntity
  8
止水栓
  6
CONTINUOUS
 62
     6
100
AcDbVertex
100
AcDb2dVertex
 10
469.087364
 20
2087.539063
 30
0.0
  0
VERTEX
  5
4F0
100
AcDbEntity
  8
止水栓
  6
CONTINUOUS
 62
     6
100
AcDbVertex
100
AcDb2dVertex
 10
469.153282
 20
2087.96875
 30
0.0
  0
VERTEX
  5
4F1
100
AcDbEntity
  8
止水栓
  6
CONTINUOUS
 62
     6
100
AcDbVertex
100
AcDb2dVertex
 10
469.192345
 20
2088.405762
 30
0.0
  0
VERTEX
  5
4F2
100
AcDbEntity
  8
止水栓
  6
CONTINUOUS
 62
     6
100
AcDbVertex
100
AcDb2dVertex
 10
469.206993
 20
2088.847656
 30
0.0
  0
SEQEND
  5
4F3
100
AcDbEntity
  8
止水栓
  6
CONTINUOUS
 62
     6
  0
LINE
  5
4F4
100
AcDbEntity
  8
止水栓
  6
CONTINUOUS
 62
     6
100
AcDbLine
 10
433.728477
 20
2096.330566
 30
0.0
 11
439.233849
 21
2105.866699
 31
0.0
  0
LINE
  5
4F5
100
AcDbEntity
  8
止水栓
  6
CONTINUOUS
 62
     6
100
AcDbLine
 10
439.199669
 20
2084.853516
 30
0.0
 11
433.728477
 21
2094.365234
 31
0.0
  0
LINE
  5
4F6
100
AcDbEntity
  8
止水栓
  6
CONTINUOUS
 62
     6
100
AcDbLine
 10
451.948692
 20
2083.847656
 30
0.0
 11
440.935509
 21
2083.847656
 31
0.0
  0
LINE
  5
4F7
100
AcDbEntity
  8
止水栓
  6
CONTINUOUS
 62
     6
100
AcDbLine
 10
459.153282
 20
2094.365234
 30
0.0
 11
453.647911
 21
2084.829102
 31
0.0
  0
LINE
  5
4F8
100
AcDbEntity
  8
止水栓
  6
CONTINUOUS
 62
     6
100
AcDbLine
 10
453.647911
 20
2105.866699
 30
0.0
 11
459.153282
 21
2096.330566
 31
0.0
  0
ARC
  5
4F9
100
AcDbEntity
  8
止水栓
  6
CONTINUOUS
 62
     6
100
AcDbCircle
 10
446.44088
 20
2095.34668
 30
0.0
 40
6.350098
100
AcDbArc
 50
180.000015
 51
0.0
  0
LINE
  5
4FA
100
AcDbEntity
  8
止水栓
  6
CONTINUOUS
 62
     6
100
AcDbLine
 10
452.790977
 20
2095.34668
 30
0.0
 11
452.790977
 21
2141.84668
 31
0.0
  0
ARC
  5
4FB
100
AcDbEntity
  8
止水栓
  6
CONTINUOUS
 62
     6
100
AcDbCircle
 10
341.141856
 20
2104.986066
 30
0.0
 40
25.3
100
AcDbArc
 50
0.0
 51
23.285661
  0
LINE
  5
4FC
100
AcDbEntity
  8
止水栓
  6
CONTINUOUS
 62
     6
100
AcDbLine
 10
434.714631
 20
2142.753793
 30
0.0
 11
434.714631
 21
2152.939567
 31
0.0
  0
LINE
  5
4FD
100
AcDbEntity
  8
止水栓
  6
CONTINUOUS
 62
     6
100
AcDbLine
 10
457.714631
 20
2142.753793
 30
0.0
 11
457.714631
 21
2152.939567
 31
0.0
  0
LINE
  5
4FE
100
AcDbEntity
  8
止水栓
  6
CONTINUOUS
 62
     6
100
AcDbLine
 10
435.245086
 20
2141.84668
 30
0.0
 11
457.184175
 21
2141.84668
 31
0.0
  0
LINE
  5
4FF
100
AcDbEntity
  8
止水栓
  6
CONTINUOUS
 62
     6
100
AcDbLine
 10
435.245086
 20
2153.84668
 30
0.0
 11
457.184175
 21
2153.84668
 31
0.0
  0
ARC
  5
500
100
AcDbEntity
  8
止水栓
  6
CONTINUOUS
 62
     6
100
AcDbCircle
 10
444.464631
 20
2147.84668
 30
0.0
 40
11.0
100
AcDbArc
 50
146.944269
 51
152.419801
  0
ARC
  5
501
100
AcDbEntity
  8
止水栓
  6
CONTINUOUS
 62
     6
100
AcDbCircle
 10
444.464631
 20
2147.84668
 30
0.0
 40
11.0
100
AcDbArc
 50
207.580199
 51
213.055731
  0
ARC
  5
502
100
AcDbEntity
  8
止水栓
  6
CONTINUOUS
 62
     6
100
AcDbCircle
 10
447.964631
 20
2147.84668
 30
0.0
 40
11.0
100
AcDbArc
 50
326.944269
 51
332.419801
  0
ARC
  5
503
100
AcDbEntity
  8
止水栓
  6
CONTINUOUS
 62
     6
100
AcDbCircle
 10
447.964631
 20
2147.84668
 30
0.0
 40
11.0
100
AcDbArc
 50
27.580199
 51
33.055731
  0
ELLIPSE
  5
504
100
AcDbEntity
  8
止水栓
  6
CONTINUOUS
 62
     6
100
AcDbEllipse
 10
451.964631
 20
2147.84668
 30
0.0
 11
0.0000000000000036
 21
-5.0928871968660001
 31
0.0
210
0.0
220
0.0
230
1.0
 40
0.936219
 41
0.0
 42
6.2831853071796004
  0
ELLIPSE
  5
505
100
AcDbEntity
  8
止水栓
  6
CONTINUOUS
 62
     6
100
AcDbEllipse
 10
440.464631
 20
2147.84668
 30
0.0
 11
0.0000000000000036
 21
-5.0928871968660001
 31
0.0
210
0.0
220
0.0
230
1.0
 40
0.936219
 41
0.0
 42
6.2831853071796004
  0
TEXT
  5
506
100
AcDbEntity
  8
止水栓
  6
CONTINUOUS
 62
     2
100
AcDbText
 10
210.226246
 20
2014.749794
 30
0.0
 40
40.0
  1
Ｒ
 41
0.9912
  7
EXCADSTD
 72
     5
 11
247.986245
 21
2014.749794
 31
0.0
100
AcDbText
  0
TEXT
  5
507
100
AcDbEntity
  8
止水栓
  6
CONTINUOUS
 62
     2
100
AcDbText
 10
248.788197
 20
2034.166297
 30
0.0
 40
20.0
  1
１
 41
0.9912
  7
EXCADSTD
 72
     5
 11
267.668196
 21
2034.166297
 31
0.0
100
AcDbText
  0
TEXT
  5
508
100
AcDbEntity
  8
止水栓
  6
CONTINUOUS
 62
     6
100
AcDbText
 10
253.370717
 20
2015.433387
 30
0.0
 40
40.0
  1
／ 
 41
0.9912
  7
EXCADSTD
 72
     5
 11
291.130715
 21
2015.433387
 31
0.0
100
AcDbText
  0
TEXT
  5
509
100
AcDbEntity
  8
止水栓
  6
CONTINUOUS
 62
     2
100
AcDbText
 10
278.971303
 20
2019.073524
 30
0.0
 40
20.0
  1
２
 41
0.9912
  7
EXCADSTD
 72
     5
 11
297.851302
 21
2019.073524
 31
0.0
100
AcDbText
  0
LINE
  5
50A
100
AcDbEntity
  8
止水栓
  6
CONTINUOUS
 62
     6
100
AcDbLine
 10
350.440227
 20
1078.805521
 30
0.0
 11
350.440227
 21
1078.959329
 31
0.0
  0
LINE
  5
50B
100
AcDbEntity
  8
止水栓
  6
CONTINUOUS
 62
     6
100
AcDbLine
 10
350.440227
 20
1078.959329
 30
0.0
 11
352.439739
 21
1078.959329
 31
0.0
  0
ARC
  5
50C
100
AcDbEntity
  8
止水栓
  6
CONTINUOUS
 62
     6
100
AcDbCircle
 10
352.439739
 20
1065.958841
 30
0.0
 40
12.999535
100
AcDbArc
 50
23.146301
 51
89.999969
  0
ARC
  5
50D
100
AcDbEntity
  8
止水栓
  6
CONTINUOUS
 62
     6
100
AcDbCircle
 10
341.14091
 20
1061.100443
 30
0.0
 40
25.300293
100
AcDbArc
 50
0.0
 51
23.202713
  0
ARC
  5
50E
100
AcDbEntity
  8
止水栓
  6
CONTINUOUS
 62
     6
100
AcDbCircle
 10
352.439739
 20
1036.959818
 30
0.0
 40
13.001356
100
AcDbArc
 50
261.153183
 51
336.858627
  0
LINE
  5
50F
100
AcDbEntity
  8
止水栓
  6
CONTINUOUS
 62
     6
100
AcDbLine
 10
350.440227
 20
1040.953958
 30
0.0
 11
343.684856
 21
1041.16636
 31
0.0
  0
LINE
  5
510
100
AcDbEntity
  8
止水栓
  6
CONTINUOUS
 62
     6
100
AcDbLine
 10
343.684856
 20
1041.16636
 30
0.0
 11
342.498332
 21
1042.352884
 31
0.0
  0
LINE
  5
511
100
AcDbEntity
  8
止水栓
  6
CONTINUOUS
 62
     6
100
AcDbLine
 10
342.498332
 20
1042.352884
 30
0.0
 11
342.139446
 21
1042.709329
 31
0.0
  0
LINE
  5
512
100
AcDbEntity
  8
止水栓
  6
CONTINUOUS
 62
     6
100
AcDbLine
 10
342.139446
 20
1060.209329
 30
0.0
 11
343.660442
 21
1061.730325
 31
0.0
  0
LINE
  5
513
100
AcDbEntity
  8
止水栓
  6
CONTINUOUS
 62
     6
100
AcDbLine
 10
343.660442
 20
1061.730325
 30
0.0
 11
350.440227
 21
1061.942728
 31
0.0
  0
LINE
  5
514
100
AcDbEntity
  8
止水栓
  6
CONTINUOUS
 62
     6
100
AcDbLine
 10
350.440227
 20
1060.756204
 30
0.0
 11
342.43545
 21
1060.505334
 31
0.0
  0
LINE
  5
515
100
AcDbEntity
  8
止水栓
  6
CONTINUOUS
 62
     6
100
AcDbLine
 10
342.498418
 20
1042.352799
 30
0.0
 11
350.440227
 21
1042.140482
 31
0.0
  0
LINE
  5
516
100
AcDbEntity
  8
止水栓
  6
CONTINUOUS
 62
     6
100
AcDbLine
 10
366.441203
 20
1040.95988
 30
0.0
 11
418.439739
 21
1040.95988
 31
0.0
  0
ARC
  5
517
100
AcDbEntity
  8
止水栓
  6
CONTINUOUS
 62
     6
100
AcDbCircle
 10
423.730266
 20
1056.460368
 30
0.0
 40
8.999529
100
AcDbArc
 50
67.07283
 51
125.794815
  0
ARC
  5
518
100
AcDbEntity
  8
止水栓
  6
CONTINUOUS
 62
     6
100
AcDbCircle
 10
431.130168
 20
1073.960368
 30
0.0
 40
10.000696
100
AcDbArc
 50
247.084198
 51
269.356506
  0
ARC
  5
519
100
AcDbEntity
  8
止水栓
  6
CONTINUOUS
 62
     6
100
AcDbCircle
 10
430.939739
 20
1068.960368
 30
0.0
 40
5.000649
100
AcDbArc
 50
270.923187
 51
0.0
  0
LINE
  5
51A
100
AcDbEntity
  8
止水栓
  6
CONTINUOUS
 62
     6
100
AcDbLine
 10
435.939739
 20
1068.960368
 30
0.0
 11
435.939739
 21
1075.460307
 31
0.0
  0
ARC
  5
51B
100
AcDbEntity
  8
止水栓
  6
CONTINUOUS
 62
     6
100
AcDbCircle
 10
460.43925
 20
1066.960857
 30
0.0
 40
3.498535
100
AcDbArc
 50
180.0
 51
270.0
  0
LINE
  5
51C
100
AcDbEntity
  8
止水栓
  6
CONTINUOUS
 62
     6
100
AcDbLine
 10
460.43925
 20
1063.45988
 30
0.0
 11
461.452434
 21
1063.45988
 31
0.0
  0
LINE
  5
51D
100
AcDbEntity
  8
止水栓
  6
CONTINUOUS
 62
     6
100
AcDbLine
 10
461.940715
 20
1063.45988
 30
0.0
 11
461.452434
 21
1063.45988
 31
0.0
  0
LINE
  5
51E
100
AcDbEntity
  8
止水栓
  6
CONTINUOUS
 62
     6
100
AcDbLine
 10
460.939739
 20
1063.45988
 30
0.0
 11
460.939739
 21
1039.460857
 31
0.0
  0
ARC
  5
51F
100
AcDbEntity
  8
止水栓
  6
CONTINUOUS
 62
     6
100
AcDbCircle
 10
446.440227
 20
1098.669841
 30
0.0
 40
60.000095
100
AcDbArc
 50
264.358292
 51
279.286835
  0
LINE
  5
520
100
AcDbEntity
  8
止水栓
  6
CONTINUOUS
 62
     6
100
AcDbLine
 10
440.541789
 20
1038.960368
 30
0.0
 11
431.130168
 21
1038.960368
 31
0.0
  0
ARC
  5
521
100
AcDbEntity
  8
止水栓
  6
CONTINUOUS
 62
     6
100
AcDbCircle
 10
431.130168
 20
1028.960368
 30
0.0
 40
10.0
100
AcDbArc
 50
89.999969
 51
112.917496
  0
POLYLINE
  5
522
100
AcDbEntity
  8
止水栓
  6
CONTINUOUS
 62
     6
100
AcDb2dPolyline
 66
     1
 10
0.0
 20
0.0
 30
0.0
 70
   128
  0
VERTEX
  5
523
100
AcDbEntity
  8
止水栓
  6
CONTINUOUS
 62
     6
100
AcDbVertex
100
AcDb2dVertex
 10
418.661907
 20
1061.965739
 30
0.0
  0
VERTEX
  5
524
100
AcDbEntity
  8
止水栓
  6
CONTINUOUS
 62
     6
100
AcDbVertex
100
AcDb2dVertex
 10
418.698528
 20
1061.819255
 30
0.0
  0
VERTEX
  5
525
100
AcDbEntity
  8
止水栓
  6
CONTINUOUS
 62
     6
100
AcDbVertex
100
AcDb2dVertex
 10
418.747356
 20
1061.675212
 30
0.0
  0
VERTEX
  5
526
100
AcDbEntity
  8
止水栓
  6
CONTINUOUS
 62
     6
100
AcDbVertex
100
AcDb2dVertex
 10
418.80595
 20
1061.53361
 30
0.0
  0
VERTEX
  5
527
100
AcDbEntity
  8
止水栓
  6
CONTINUOUS
 62
     6
100
AcDbVertex
100
AcDb2dVertex
 10
418.94511
 20
1061.282146
 30
0.0
  0
VERTEX
  5
528
100
AcDbEntity
  8
止水栓
  6
CONTINUOUS
 62
     6
100
AcDbVertex
100
AcDb2dVertex
 10
419.120891
 20
1061.040446
 30
0.0
  0
VERTEX
  5
529
100
AcDbEntity
  8
止水栓
  6
CONTINUOUS
 62
     6
100
AcDbVertex
100
AcDb2dVertex
 10
419.335735
 20
1060.808513
 30
0.0
  0
VERTEX
  5
52A
100
AcDbEntity
  8
止水栓
  6
CONTINUOUS
 62
     6
100
AcDbVertex
100
AcDb2dVertex
 10
419.582317
 20
1060.588786
 30
0.0
  0
VERTEX
  5
52B
100
AcDbEntity
  8
止水栓
  6
CONTINUOUS
 62
     6
100
AcDbVertex
100
AcDb2dVertex
 10
419.863078
 20
1060.381267
 30
0.0
  0
VERTEX
  5
52C
100
AcDbEntity
  8
止水栓
  6
CONTINUOUS
 62
     6
100
AcDbVertex
100
AcDb2dVertex
 10
420.175578
 20
1060.185954
 30
0.0
  0
VERTEX
  5
52D
100
AcDbEntity
  8
止水栓
  6
CONTINUOUS
 62
     6
100
AcDbVertex
100
AcDb2dVertex
 10
420.514934
 20
1060.010173
 30
0.0
  0
VERTEX
  5
52E
100
AcDbEntity
  8
止水栓
  6
CONTINUOUS
 62
     6
100
AcDbVertex
100
AcDb2dVertex
 10
420.881145
 20
1059.851482
 30
0.0
  0
VERTEX
  5
52F
100
AcDbEntity
  8
止水栓
  6
CONTINUOUS
 62
     6
100
AcDbVertex
100
AcDb2dVertex
 10
421.269328
 20
1059.70988
 30
0.0
  0
VERTEX
  5
530
100
AcDbEntity
  8
止水栓
  6
CONTINUOUS
 62
     6
100
AcDbVertex
100
AcDb2dVertex
 10
421.679485
 20
1059.590251
 30
0.0
  0
VERTEX
  5
531
100
AcDbEntity
  8
止水栓
  6
CONTINUOUS
 62
     6
100
AcDbVertex
100
AcDb2dVertex
 10
422.104289
 20
1059.490153
 30
0.0
  0
VERTEX
  5
532
100
AcDbEntity
  8
止水栓
  6
CONTINUOUS
 62
     6
100
AcDbVertex
100
AcDb2dVertex
 10
422.543743
 20
1059.409587
 30
0.0
  0
VERTEX
  5
533
100
AcDbEntity
  8
止水栓
  6
CONTINUOUS
 62
     6
100
AcDbVertex
100
AcDb2dVertex
 10
422.995403
 20
1059.353435
 30
0.0
  0
VERTEX
  5
534
100
AcDbEntity
  8
止水栓
  6
CONTINUOUS
 62
     6
100
AcDbVertex
100
AcDb2dVertex
 10
423.451946
 20
1059.319255
 30
0.0
  0
VERTEX
  5
535
100
AcDbEntity
  8
止水栓
  6
CONTINUOUS
 62
     6
100
AcDbVertex
100
AcDb2dVertex
 10
423.91093
 20
1059.307048
 30
0.0
  0
SEQEND
  5
536
100
AcDbEntity
  8
止水栓
  6
CONTINUOUS
 62
     6
  0
POLYLINE
  5
537
100
AcDbEntity
  8
止水栓
  6
CONTINUOUS
 62
     6
100
AcDb2dPolyline
 66
     1
 10
0.0
 20
0.0
 30
0.0
 70
   128
  0
VERTEX
  5
538
100
AcDbEntity
  8
止水栓
  6
CONTINUOUS
 62
     6
100
AcDbVertex
100
AcDb2dVertex
 10
423.913371
 20
1059.309489
 30
0.0
  0
VERTEX
  5
539
100
AcDbEntity
  8
止水栓
  6
CONTINUOUS
 62
     6
100
AcDbVertex
100
AcDb2dVertex
 10
424.372356
 20
1059.319255
 30
0.0
  0
VERTEX
  5
53A
100
AcDbEntity
  8
止水栓
  6
CONTINUOUS
 62
     6
100
AcDbVertex
100
AcDb2dVertex
 10
424.83134
 20
1059.353435
 30
0.0
  0
VERTEX
  5
53B
100
AcDbEntity
  8
止水栓
  6
CONTINUOUS
 62
     6
100
AcDbVertex
100
AcDb2dVertex
 10
425.280559
 20
1059.409587
 30
0.0
  0
VERTEX
  5
53C
100
AcDbEntity
  8
止水栓
  6
CONTINUOUS
 62
     6
100
AcDbVertex
100
AcDb2dVertex
 10
425.720012
 20
1059.490153
 30
0.0
  0
VERTEX
  5
53D
100
AcDbEntity
  8
止水栓
  6
CONTINUOUS
 62
     6
100
AcDbVertex
100
AcDb2dVertex
 10
426.147258
 20
1059.590251
 30
0.0
  0
VERTEX
  5
53E
100
AcDbEntity
  8
止水栓
  6
CONTINUOUS
 62
     6
100
AcDbVertex
100
AcDb2dVertex
 10
426.554973
 20
1059.70988
 30
0.0
  0
VERTEX
  5
53F
100
AcDbEntity
  8
止水栓
  6
CONTINUOUS
 62
     6
100
AcDbVertex
100
AcDb2dVertex
 10
426.945598
 20
1059.851482
 30
0.0
  0
VERTEX
  5
540
100
AcDbEntity
  8
止水栓
  6
CONTINUOUS
 62
     6
100
AcDbVertex
100
AcDb2dVertex
 10
427.309368
 20
1060.010173
 30
0.0
  0
VERTEX
  5
541
100
AcDbEntity
  8
止水栓
  6
CONTINUOUS
 62
     6
100
AcDbVertex
100
AcDb2dVertex
 10
427.651164
 20
1060.185954
 30
0.0
  0
VERTEX
  5
542
100
AcDbEntity
  8
止水栓
  6
CONTINUOUS
 62
     6
100
AcDbVertex
100
AcDb2dVertex
 10
427.961223
 20
1060.381267
 30
0.0
  0
VERTEX
  5
543
100
AcDbEntity
  8
止水栓
  6
CONTINUOUS
 62
     6
100
AcDbVertex
100
AcDb2dVertex
 10
428.241985
 20
1060.588786
 30
0.0
  0
VERTEX
  5
544
100
AcDbEntity
  8
止水栓
  6
CONTINUOUS
 62
     6
100
AcDbVertex
100
AcDb2dVertex
 10
428.491008
 20
1060.808513
 30
0.0
  0
VERTEX
  5
545
100
AcDbEntity
  8
止水栓
  6
CONTINUOUS
 62
     6
100
AcDbVertex
100
AcDb2dVertex
 10
428.70341
 20
1061.040446
 30
0.0
  0
VERTEX
  5
546
100
AcDbEntity
  8
止水栓
  6
CONTINUOUS
 62
     6
100
AcDbVertex
100
AcDb2dVertex
 10
428.881633
 20
1061.282146
 30
0.0
  0
VERTEX
  5
547
100
AcDbEntity
  8
止水栓
  6
CONTINUOUS
 62
     6
100
AcDbVertex
100
AcDb2dVertex
 10
429.018352
 20
1061.531169
 30
0.0
  0
VERTEX
  5
548
100
AcDbEntity
  8
止水栓
  6
CONTINUOUS
 62
     6
100
AcDbVertex
100
AcDb2dVertex
 10
429.11845
 20
1061.787517
 30
0.0
  0
VERTEX
  5
549
100
AcDbEntity
  8
止水栓
  6
CONTINUOUS
 62
     6
100
AcDbVertex
100
AcDb2dVertex
 10
429.179485
 20
1062.046306
 30
0.0
  0
VERTEX
  5
54A
100
AcDbEntity
  8
止水栓
  6
CONTINUOUS
 62
     6
100
AcDbVertex
100
AcDb2dVertex
 10
429.199016
 20
1062.307536
 30
0.0
  0
VERTEX
  5
54B
100
AcDbEntity
  8
止水栓
  6
CONTINUOUS
 62
     6
100
AcDbVertex
100
AcDb2dVertex
 10
429.179485
 20
1062.568767
 30
0.0
  0
VERTEX
  5
54C
100
AcDbEntity
  8
止水栓
  6
CONTINUOUS
 62
     6
100
AcDbVertex
100
AcDb2dVertex
 10
429.11845
 20
1062.829997
 30
0.0
  0
VERTEX
  5
54D
100
AcDbEntity
  8
止水栓
  6
CONTINUOUS
 62
     6
100
AcDbVertex
100
AcDb2dVertex
 10
429.018352
 20
1063.083903
 30
0.0
  0
VERTEX
  5
54E
100
AcDbEntity
  8
止水栓
  6
CONTINUOUS
 62
     6
100
AcDbVertex
100
AcDb2dVertex
 10
428.879192
 20
1063.335368
 30
0.0
  0
VERTEX
  5
54F
100
AcDbEntity
  8
止水栓
  6
CONTINUOUS
 62
     6
100
AcDbVertex
100
AcDb2dVertex
 10
428.70341
 20
1063.577067
 30
0.0
  0
VERTEX
  5
550
100
AcDbEntity
  8
止水栓
  6
CONTINUOUS
 62
     6
100
AcDbVertex
100
AcDb2dVertex
 10
428.491008
 20
1063.809001
 30
0.0
  0
VERTEX
  5
551
100
AcDbEntity
  8
止水栓
  6
CONTINUOUS
 62
     6
100
AcDbVertex
100
AcDb2dVertex
 10
428.241985
 20
1064.028728
 30
0.0
  0
VERTEX
  5
552
100
AcDbEntity
  8
止水栓
  6
CONTINUOUS
 62
     6
100
AcDbVertex
100
AcDb2dVertex
 10
427.961223
 20
1064.236247
 30
0.0
  0
VERTEX
  5
553
100
AcDbEntity
  8
止水栓
  6
CONTINUOUS
 62
     6
100
AcDbVertex
100
AcDb2dVertex
 10
427.651164
 20
1064.429118
 30
0.0
  0
VERTEX
  5
554
100
AcDbEntity
  8
止水栓
  6
CONTINUOUS
 62
     6
100
AcDbVertex
100
AcDb2dVertex
 10
427.309368
 20
1064.607341
 30
0.0
  0
VERTEX
  5
555
100
AcDbEntity
  8
止水栓
  6
CONTINUOUS
 62
     6
100
AcDbVertex
100
AcDb2dVertex
 10
426.945598
 20
1064.766032
 30
0.0
  0
VERTEX
  5
556
100
AcDbEntity
  8
止水栓
  6
CONTINUOUS
 62
     6
100
AcDbVertex
100
AcDb2dVertex
 10
426.554973
 20
1064.907634
 30
0.0
  0
VERTEX
  5
557
100
AcDbEntity
  8
止水栓
  6
CONTINUOUS
 62
     6
100
AcDbVertex
100
AcDb2dVertex
 10
426.147258
 20
1065.027263
 30
0.0
  0
VERTEX
  5
558
100
AcDbEntity
  8
止水栓
  6
CONTINUOUS
 62
     6
100
AcDbVertex
100
AcDb2dVertex
 10
425.720012
 20
1065.12736
 30
0.0
  0
VERTEX
  5
559
100
AcDbEntity
  8
止水栓
  6
CONTINUOUS
 62
     6
100
AcDbVertex
100
AcDb2dVertex
 10
425.280559
 20
1065.205485
 30
0.0
  0
VERTEX
  5
55A
100
AcDbEntity
  8
止水栓
  6
CONTINUOUS
 62
     6
100
AcDbVertex
100
AcDb2dVertex
 10
424.83134
 20
1065.264079
 30
0.0
  0
VERTEX
  5
55B
100
AcDbEntity
  8
止水栓
  6
CONTINUOUS
 62
     6
100
AcDbVertex
100
AcDb2dVertex
 10
424.372356
 20
1065.298259
 30
0.0
  0
VERTEX
  5
55C
100
AcDbEntity
  8
止水栓
  6
CONTINUOUS
 62
     6
100
AcDbVertex
100
AcDb2dVertex
 10
423.913371
 20
1065.308024
 30
0.0
  0
VERTEX
  5
55D
100
AcDbEntity
  8
止水栓
  6
CONTINUOUS
 62
     6
100
AcDbVertex
100
AcDb2dVertex
 10
423.451946
 20
1065.298259
 30
0.0
  0
VERTEX
  5
55E
100
AcDbEntity
  8
止水栓
  6
CONTINUOUS
 62
     6
100
AcDbVertex
100
AcDb2dVertex
 10
422.995403
 20
1065.264079
 30
0.0
  0
VERTEX
  5
55F
100
AcDbEntity
  8
止水栓
  6
CONTINUOUS
 62
     6
100
AcDbVertex
100
AcDb2dVertex
 10
422.543743
 20
1065.205485
 30
0.0
  0
VERTEX
  5
560
100
AcDbEntity
  8
止水栓
  6
CONTINUOUS
 62
     6
100
AcDbVertex
100
AcDb2dVertex
 10
422.104289
 20
1065.12736
 30
0.0
  0
VERTEX
  5
561
100
AcDbEntity
  8
止水栓
  6
CONTINUOUS
 62
     6
100
AcDbVertex
100
AcDb2dVertex
 10
421.679485
 20
1065.027263
 30
0.0
  0
VERTEX
  5
562
100
AcDbEntity
  8
止水栓
  6
CONTINUOUS
 62
     6
100
AcDbVertex
100
AcDb2dVertex
 10
421.269328
 20
1064.907634
 30
0.0
  0
VERTEX
  5
563
100
AcDbEntity
  8
止水栓
  6
CONTINUOUS
 62
     6
100
AcDbVertex
100
AcDb2dVertex
 10
420.881145
 20
1064.766032
 30
0.0
  0
VERTEX
  5
564
100
AcDbEntity
  8
止水栓
  6
CONTINUOUS
 62
     6
100
AcDbVertex
100
AcDb2dVertex
 10
420.514934
 20
1064.607341
 30
0.0
  0
VERTEX
  5
565
100
AcDbEntity
  8
止水栓
  6
CONTINUOUS
 62
     6
100
AcDbVertex
100
AcDb2dVertex
 10
420.175578
 20
1064.429118
 30
0.0
  0
VERTEX
  5
566
100
AcDbEntity
  8
止水栓
  6
CONTINUOUS
 62
     6
100
AcDbVertex
100
AcDb2dVertex
 10
419.863078
 20
1064.236247
 30
0.0
  0
VERTEX
  5
567
100
AcDbEntity
  8
止水栓
  6
CONTINUOUS
 62
     6
100
AcDbVertex
100
AcDb2dVertex
 10
419.582317
 20
1064.028728
 30
0.0
  0
VERTEX
  5
568
100
AcDbEntity
  8
止水栓
  6
CONTINUOUS
 62
     6
100
AcDbVertex
100
AcDb2dVertex
 10
419.335735
 20
1063.809001
 30
0.0
  0
VERTEX
  5
569
100
AcDbEntity
  8
止水栓
  6
CONTINUOUS
 62
     6
100
AcDbVertex
100
AcDb2dVertex
 10
419.120891
 20
1063.577067
 30
0.0
  0
VERTEX
  5
56A
100
AcDbEntity
  8
止水栓
  6
CONTINUOUS
 62
     6
100
AcDbVertex
100
AcDb2dVertex
 10
418.94511
 20
1063.335368
 30
0.0
  0
VERTEX
  5
56B
100
AcDbEntity
  8
止水栓
  6
CONTINUOUS
 62
     6
100
AcDbVertex
100
AcDb2dVertex
 10
418.80595
 20
1063.083903
 30
0.0
  0
VERTEX
  5
56C
100
AcDbEntity
  8
止水栓
  6
CONTINUOUS
 62
     6
100
AcDbVertex
100
AcDb2dVertex
 10
418.705852
 20
1062.829997
 30
0.0
  0
VERTEX
  5
56D
100
AcDbEntity
  8
止水栓
  6
CONTINUOUS
 62
     6
100
AcDbVertex
100
AcDb2dVertex
 10
418.644817
 20
1062.568767
 30
0.0
  0
VERTEX
  5
56E
100
AcDbEntity
  8
止水栓
  6
CONTINUOUS
 62
     6
100
AcDbVertex
100
AcDb2dVertex
 10
418.627727
 20
1062.307536
 30
0.0
  0
VERTEX
  5
56F
100
AcDbEntity
  8
止水栓
  6
CONTINUOUS
 62
     6
100
AcDbVertex
100
AcDb2dVertex
 10
418.630168
 20
1062.19279
 30
0.0
  0
VERTEX
  5
570
100
AcDbEntity
  8
止水栓
  6
CONTINUOUS
 62
     6
100
AcDbVertex
100
AcDb2dVertex
 10
418.642375
 20
1062.078044
 30
0.0
  0
VERTEX
  5
571
100
AcDbEntity
  8
止水栓
  6
CONTINUOUS
 62
     6
100
AcDbVertex
100
AcDb2dVertex
 10
418.661907
 20
1061.965739
 30
0.0
  0
SEQEND
  5
572
100
AcDbEntity
  8
止水栓
  6
CONTINUOUS
 62
     6
  0
POLYLINE
  5
573
100
AcDbEntity
  8
止水栓
  6
CONTINUOUS
 62
     6
100
AcDb2dPolyline
 66
     1
 10
0.0
 20
0.0
 30
0.0
 70
   128
  0
VERTEX
  5
574
100
AcDbEntity
  8
止水栓
  6
CONTINUOUS
 62
     6
100
AcDbVertex
100
AcDb2dVertex
 10
428.92802
 20
1051.460368
 30
0.0
  0
VERTEX
  5
575
100
AcDbEntity
  8
止水栓
  6
CONTINUOUS
 62
     6
100
AcDbVertex
100
AcDb2dVertex
 10
428.92802
 20
1051.46281
 30
0.0
  0
VERTEX
  5
576
100
AcDbEntity
  8
止水栓
  6
CONTINUOUS
 62
     6
100
AcDbVertex
100
AcDb2dVertex
 10
428.92802
 20
1051.465251
 30
0.0
  0
VERTEX
  5
577
100
AcDbEntity
  8
止水栓
  6
CONTINUOUS
 62
     6
100
AcDbVertex
100
AcDb2dVertex
 10
428.92802
 20
1051.467692
 30
0.0
  0
VERTEX
  5
578
100
AcDbEntity
  8
止水栓
  6
CONTINUOUS
 62
     6
100
AcDbVertex
100
AcDb2dVertex
 10
428.908489
 20
1051.968181
 30
0.0
  0
VERTEX
  5
579
100
AcDbEntity
  8
止水栓
  6
CONTINUOUS
 62
     6
100
AcDbVertex
100
AcDb2dVertex
 10
428.852336
 20
1052.463786
 30
0.0
  0
VERTEX
  5
57A
100
AcDbEntity
  8
止水栓
  6
CONTINUOUS
 62
     6
100
AcDbVertex
100
AcDb2dVertex
 10
428.757121
 20
1052.954509
 30
0.0
  0
VERTEX
  5
57B
100
AcDbEntity
  8
止水栓
  6
CONTINUOUS
 62
     6
100
AcDbVertex
100
AcDb2dVertex
 10
428.627727
 20
1053.433024
 30
0.0
  0
VERTEX
  5
57C
100
AcDbEntity
  8
止水栓
  6
CONTINUOUS
 62
     6
100
AcDbVertex
100
AcDb2dVertex
 10
428.45927
 20
1053.89445
 30
0.0
  0
VERTEX
  5
57D
100
AcDbEntity
  8
止水栓
  6
CONTINUOUS
 62
     6
100
AcDbVertex
100
AcDb2dVertex
 10
428.259075
 20
1054.338786
 30
0.0
  0
VERTEX
  5
57E
100
AcDbEntity
  8
止水栓
  6
CONTINUOUS
 62
     6
100
AcDbVertex
100
AcDb2dVertex
 10
428.0247
 20
1054.761149
 30
0.0
  0
VERTEX
  5
57F
100
AcDbEntity
  8
止水栓
  6
CONTINUOUS
 62
     6
100
AcDbVertex
100
AcDb2dVertex
 10
427.758586
 20
1055.159099
 30
0.0
  0
VERTEX
  5
580
100
AcDbEntity
  8
止水栓
  6
CONTINUOUS
 62
     6
100
AcDbVertex
100
AcDb2dVertex
 10
427.463176
 20
1055.530192
 30
0.0
  0
VERTEX
  5
581
100
AcDbEntity
  8
止水栓
  6
CONTINUOUS
 62
     6
100
AcDbVertex
100
AcDb2dVertex
 10
427.143352
 20
1055.867107
 30
0.0
  0
VERTEX
  5
582
100
AcDbEntity
  8
止水栓
  6
CONTINUOUS
 62
     6
100
AcDbVertex
100
AcDb2dVertex
 10
426.796672
 20
1056.172282
 30
0.0
  0
VERTEX
  5
583
100
AcDbEntity
  8
止水栓
  6
CONTINUOUS
 62
     6
100
AcDbVertex
100
AcDb2dVertex
 10
426.42802
 20
1056.440837
 30
0.0
  0
VERTEX
  5
584
100
AcDbEntity
  8
止水栓
  6
CONTINUOUS
 62
     6
100
AcDbVertex
100
AcDb2dVertex
 10
426.042278
 20
1056.672771
 30
0.0
  0
VERTEX
  5
585
100
AcDbEntity
  8
止水栓
  6
CONTINUOUS
 62
     6
100
AcDbVertex
100
AcDb2dVertex
 10
425.639446
 20
1056.865642
 30
0.0
  0
VERTEX
  5
586
100
AcDbEntity
  8
止水栓
  6
CONTINUOUS
 62
     6
100
AcDbVertex
100
AcDb2dVertex
 10
425.224407
 20
1057.017009
 30
0.0
  0
VERTEX
  5
587
100
AcDbEntity
  8
止水栓
  6
CONTINUOUS
 62
     6
100
AcDbVertex
100
AcDb2dVertex
 10
424.79716
 20
1057.124431
 30
0.0
  0
VERTEX
  5
588
100
AcDbEntity
  8
止水栓
  6
CONTINUOUS
 62
     6
100
AcDbVertex
100
AcDb2dVertex
 10
424.365032
 20
1057.190349
 30
0.0
  0
VERTEX
  5
589
100
AcDbEntity
  8
止水栓
  6
CONTINUOUS
 62
     6
100
AcDbVertex
100
AcDb2dVertex
 10
423.930461
 20
1057.212321
 30
0.0
  0
VERTEX
  5
58A
100
AcDbEntity
  8
止水栓
  6
CONTINUOUS
 62
     6
100
AcDbVertex
100
AcDb2dVertex
 10
423.49345
 20
1057.190349
 30
0.0
  0
VERTEX
  5
58B
100
AcDbEntity
  8
止水栓
  6
CONTINUOUS
 62
     6
100
AcDbVertex
100
AcDb2dVertex
 10
423.061321
 20
1057.124431
 30
0.0
  0
VERTEX
  5
58C
100
AcDbEntity
  8
止水栓
  6
CONTINUOUS
 62
     6
100
AcDbVertex
100
AcDb2dVertex
 10
422.636516
 20
1057.017009
 30
0.0
  0
VERTEX
  5
58D
100
AcDbEntity
  8
止水栓
  6
CONTINUOUS
 62
     6
100
AcDbVertex
100
AcDb2dVertex
 10
422.219035
 20
1056.865642
 30
0.0
  0
VERTEX
  5
58E
100
AcDbEntity
  8
止水栓
  6
CONTINUOUS
 62
     6
100
AcDbVertex
100
AcDb2dVertex
 10
421.816203
 20
1056.672771
 30
0.0
  0
VERTEX
  5
58F
100
AcDbEntity
  8
止水栓
  6
CONTINUOUS
 62
     6
100
AcDbVertex
100
AcDb2dVertex
 10
421.430461
 20
1056.440837
 30
0.0
  0
VERTEX
  5
590
100
AcDbEntity
  8
止水栓
  6
CONTINUOUS
 62
     6
100
AcDbVertex
100
AcDb2dVertex
 10
421.061809
 20
1056.172282
 30
0.0
  0
VERTEX
  5
591
100
AcDbEntity
  8
止水栓
  6
CONTINUOUS
 62
     6
100
AcDbVertex
100
AcDb2dVertex
 10
420.715129
 20
1055.867107
 30
0.0
  0
VERTEX
  5
592
100
AcDbEntity
  8
止水栓
  6
CONTINUOUS
 62
     6
100
AcDbVertex
100
AcDb2dVertex
 10
420.395305
 20
1055.530192
 30
0.0
  0
VERTEX
  5
593
100
AcDbEntity
  8
止水栓
  6
CONTINUOUS
 62
     6
100
AcDbVertex
100
AcDb2dVertex
 10
420.099895
 20
1055.159099
 30
0.0
  0
VERTEX
  5
594
100
AcDbEntity
  8
止水栓
  6
CONTINUOUS
 62
     6
100
AcDbVertex
100
AcDb2dVertex
 10
419.833782
 20
1054.761149
 30
0.0
  0
VERTEX
  5
595
100
AcDbEntity
  8
止水栓
  6
CONTINUOUS
 62
     6
100
AcDbVertex
100
AcDb2dVertex
 10
419.599407
 20
1054.338786
 30
0.0
  0
VERTEX
  5
596
100
AcDbEntity
  8
止水栓
  6
CONTINUOUS
 62
     6
100
AcDbVertex
100
AcDb2dVertex
 10
419.399211
 20
1053.89445
 30
0.0
  0
VERTEX
  5
597
100
AcDbEntity
  8
止水栓
  6
CONTINUOUS
 62
     6
100
AcDbVertex
100
AcDb2dVertex
 10
419.230754
 20
1053.433024
 30
0.0
  0
VERTEX
  5
598
100
AcDbEntity
  8
止水栓
  6
CONTINUOUS
 62
     6
100
AcDbVertex
100
AcDb2dVertex
 10
419.10136
 20
1052.954509
 30
0.0
  0
VERTEX
  5
599
100
AcDbEntity
  8
止水栓
  6
CONTINUOUS
 62
     6
100
AcDbVertex
100
AcDb2dVertex
 10
419.006145
 20
1052.463786
 30
0.0
  0
VERTEX
  5
59A
100
AcDbEntity
  8
止水栓
  6
CONTINUOUS
 62
     6
100
AcDbVertex
100
AcDb2dVertex
 10
418.949993
 20
1051.968181
 30
0.0
  0
VERTEX
  5
59B
100
AcDbEntity
  8
止水栓
  6
CONTINUOUS
 62
     6
100
AcDbVertex
100
AcDb2dVertex
 10
418.930461
 20
1051.467692
 30
0.0
  0
VERTEX
  5
59C
100
AcDbEntity
  8
止水栓
  6
CONTINUOUS
 62
     6
100
AcDbVertex
100
AcDb2dVertex
 10
418.930461
 20
1051.465251
 30
0.0
  0
VERTEX
  5
59D
100
AcDbEntity
  8
止水栓
  6
CONTINUOUS
 62
     6
100
AcDbVertex
100
AcDb2dVertex
 10
418.930461
 20
1051.46281
 30
0.0
  0
VERTEX
  5
59E
100
AcDbEntity
  8
止水栓
  6
CONTINUOUS
 62
     6
100
AcDbVertex
100
AcDb2dVertex
 10
418.930461
 20
1051.460368
 30
0.0
  0
SEQEND
  5
59F
100
AcDbEntity
  8
止水栓
  6
CONTINUOUS
 62
     6
  0
POLYLINE
  5
5A0
100
AcDbEntity
  8
止水栓
  6
CONTINUOUS
 62
     6
100
AcDb2dPolyline
 66
     1
 10
0.0
 20
0.0
 30
0.0
 70
   128
  0
VERTEX
  5
5A1
100
AcDbEntity
  8
止水栓
  6
CONTINUOUS
 62
     6
100
AcDbVertex
100
AcDb2dVertex
 10
423.92802
 20
1045.723064
 30
0.0
  0
VERTEX
  5
5A2
100
AcDbEntity
  8
止水栓
  6
CONTINUOUS
 62
     6
100
AcDbVertex
100
AcDb2dVertex
 10
424.365032
 20
1045.745036
 30
0.0
  0
VERTEX
  5
5A3
100
AcDbEntity
  8
止水栓
  6
CONTINUOUS
 62
     6
100
AcDbVertex
100
AcDb2dVertex
 10
424.79716
 20
1045.810954
 30
0.0
  0
VERTEX
  5
5A4
100
AcDbEntity
  8
止水栓
  6
CONTINUOUS
 62
     6
100
AcDbVertex
100
AcDb2dVertex
 10
425.221965
 20
1045.918376
 30
0.0
  0
VERTEX
  5
5A5
100
AcDbEntity
  8
止水栓
  6
CONTINUOUS
 62
     6
100
AcDbVertex
100
AcDb2dVertex
 10
425.639446
 20
1046.069743
 30
0.0
  0
VERTEX
  5
5A6
100
AcDbEntity
  8
止水栓
  6
CONTINUOUS
 62
     6
100
AcDbVertex
100
AcDb2dVertex
 10
426.042278
 20
1046.260173
 30
0.0
  0
VERTEX
  5
5A7
100
AcDbEntity
  8
止水栓
  6
CONTINUOUS
 62
     6
100
AcDbVertex
100
AcDb2dVertex
 10
426.42802
 20
1046.492107
 30
0.0
  0
VERTEX
  5
5A8
100
AcDbEntity
  8
止水栓
  6
CONTINUOUS
 62
     6
100
AcDbVertex
100
AcDb2dVertex
 10
426.796672
 20
1046.760661
 30
0.0
  0
VERTEX
  5
5A9
100
AcDbEntity
  8
止水栓
  6
CONTINUOUS
 62
     6
100
AcDbVertex
100
AcDb2dVertex
 10
427.14091
 20
1047.065837
 30
0.0
  0
VERTEX
  5
5AA
100
AcDbEntity
  8
止水栓
  6
CONTINUOUS
 62
     6
100
AcDbVertex
100
AcDb2dVertex
 10
427.463176
 20
1047.405192
 30
0.0
  0
VERTEX
  5
5AB
100
AcDbEntity
  8
止水栓
  6
CONTINUOUS
 62
     6
100
AcDbVertex
100
AcDb2dVertex
 10
427.758586
 20
1047.773845
 30
0.0
  0
VERTEX
  5
5AC
100
AcDbEntity
  8
止水栓
  6
CONTINUOUS
 62
     6
100
AcDbVertex
100
AcDb2dVertex
 10
428.0247
 20
1048.171794
 30
0.0
  0
VERTEX
  5
5AD
100
AcDbEntity
  8
止水栓
  6
CONTINUOUS
 62
     6
100
AcDbVertex
100
AcDb2dVertex
 10
428.259075
 20
1048.594157
 30
0.0
  0
VERTEX
  5
5AE
100
AcDbEntity
  8
止水栓
  6
CONTINUOUS
 62
     6
100
AcDbVertex
100
AcDb2dVertex
 10
428.45927
 20
1049.038493
 30
0.0
  0
VERTEX
  5
5AF
100
AcDbEntity
  8
止水栓
  6
CONTINUOUS
 62
     6
100
AcDbVertex
100
AcDb2dVertex
 10
428.627727
 20
1049.50236
 30
0.0
  0
VERTEX
  5
5B0
100
AcDbEntity
  8
止水栓
  6
CONTINUOUS
 62
     6
100
AcDbVertex
100
AcDb2dVertex
 10
428.757121
 20
1049.980876
 30
0.0
  0
VERTEX
  5
5B1
100
AcDbEntity
  8
止水栓
  6
CONTINUOUS
 62
     6
100
AcDbVertex
100
AcDb2dVertex
 10
428.849895
 20
1050.449626
 30
0.0
  0
VERTEX
  5
5B2
100
AcDbEntity
  8
止水栓
  6
CONTINUOUS
 62
     6
100
AcDbVertex
100
AcDb2dVertex
 10
428.906047
 20
1050.9257
 30
0.0
  0
VERTEX
  5
5B3
100
AcDbEntity
  8
止水栓
  6
CONTINUOUS
 62
     6
100
AcDbVertex
100
AcDb2dVertex
 10
428.92802
 20
1051.406657
 30
0.0
  0
SEQEND
  5
5B4
100
AcDbEntity
  8
止水栓
  6
CONTINUOUS
 62
     6
  0
POLYLINE
  5
5B5
100
AcDbEntity
  8
止水栓
  6
CONTINUOUS
 62
     6
100
AcDb2dPolyline
 66
     1
 10
0.0
 20
0.0
 30
0.0
 70
   128
  0
VERTEX
  5
5B6
100
AcDbEntity
  8
止水栓
  6
CONTINUOUS
 62
     6
100
AcDbVertex
100
AcDb2dVertex
 10
418.930461
 20
1051.406657
 30
0.0
  0
VERTEX
  5
5B7
100
AcDbEntity
  8
止水栓
  6
CONTINUOUS
 62
     6
100
AcDbVertex
100
AcDb2dVertex
 10
418.952434
 20
1050.9257
 30
0.0
  0
VERTEX
  5
5B8
100
AcDbEntity
  8
止水栓
  6
CONTINUOUS
 62
     6
100
AcDbVertex
100
AcDb2dVertex
 10
419.008586
 20
1050.449626
 30
0.0
  0
VERTEX
  5
5B9
100
AcDbEntity
  8
止水栓
  6
CONTINUOUS
 62
     6
100
AcDbVertex
100
AcDb2dVertex
 10
419.10136
 20
1049.980876
 30
0.0
  0
VERTEX
  5
5BA
100
AcDbEntity
  8
止水栓
  6
CONTINUOUS
 62
     6
100
AcDbVertex
100
AcDb2dVertex
 10
419.230754
 20
1049.50236
 30
0.0
  0
VERTEX
  5
5BB
100
AcDbEntity
  8
止水栓
  6
CONTINUOUS
 62
     6
100
AcDbVertex
100
AcDb2dVertex
 10
419.399211
 20
1049.038493
 30
0.0
  0
VERTEX
  5
5BC
100
AcDbEntity
  8
止水栓
  6
CONTINUOUS
 62
     6
100
AcDbVertex
100
AcDb2dVertex
 10
419.599407
 20
1048.594157
 30
0.0
  0
VERTEX
  5
5BD
100
AcDbEntity
  8
止水栓
  6
CONTINUOUS
 62
     6
100
AcDbVertex
100
AcDb2dVertex
 10
419.833782
 20
1048.171794
 30
0.0
  0
VERTEX
  5
5BE
100
AcDbEntity
  8
止水栓
  6
CONTINUOUS
 62
     6
100
AcDbVertex
100
AcDb2dVertex
 10
420.099895
 20
1047.773845
 30
0.0
  0
VERTEX
  5
5BF
100
AcDbEntity
  8
止水栓
  6
CONTINUOUS
 62
     6
100
AcDbVertex
100
AcDb2dVertex
 10
420.395305
 20
1047.405192
 30
0.0
  0
VERTEX
  5
5C0
100
AcDbEntity
  8
止水栓
  6
CONTINUOUS
 62
     6
100
AcDbVertex
100
AcDb2dVertex
 10
420.715129
 20
1047.065837
 30
0.0
  0
VERTEX
  5
5C1
100
AcDbEntity
  8
止水栓
  6
CONTINUOUS
 62
     6
100
AcDbVertex
100
AcDb2dVertex
 10
421.061809
 20
1046.760661
 30
0.0
  0
VERTEX
  5
5C2
100
AcDbEntity
  8
止水栓
  6
CONTINUOUS
 62
     6
100
AcDbVertex
100
AcDb2dVertex
 10
421.430461
 20
1046.492107
 30
0.0
  0
VERTEX
  5
5C3
100
AcDbEntity
  8
止水栓
  6
CONTINUOUS
 62
     6
100
AcDbVertex
100
AcDb2dVertex
 10
421.816203
 20
1046.260173
 30
0.0
  0
VERTEX
  5
5C4
100
AcDbEntity
  8
止水栓
  6
CONTINUOUS
 62
     6
100
AcDbVertex
100
AcDb2dVertex
 10
422.219035
 20
1046.069743
 30
0.0
  0
VERTEX
  5
5C5
100
AcDbEntity
  8
止水栓
  6
CONTINUOUS
 62
     6
100
AcDbVertex
100
AcDb2dVertex
 10
422.636516
 20
1045.918376
 30
0.0
  0
VERTEX
  5
5C6
100
AcDbEntity
  8
止水栓
  6
CONTINUOUS
 62
     6
100
AcDbVertex
100
AcDb2dVertex
 10
423.061321
 20
1045.810954
 30
0.0
  0
VERTEX
  5
5C7
100
AcDbEntity
  8
止水栓
  6
CONTINUOUS
 62
     6
100
AcDbVertex
100
AcDb2dVertex
 10
423.49345
 20
1045.745036
 30
0.0
  0
VERTEX
  5
5C8
100
AcDbEntity
  8
止水栓
  6
CONTINUOUS
 62
     6
100
AcDbVertex
100
AcDb2dVertex
 10
423.930461
 20
1045.723064
 30
0.0
  0
SEQEND
  5
5C9
100
AcDbEntity
  8
止水栓
  6
CONTINUOUS
 62
     6
  0
POLYLINE
  5
5CA
100
AcDbEntity
  8
止水栓
  6
CONTINUOUS
 62
     6
100
AcDb2dPolyline
 66
     1
 10
0.0
 20
0.0
 30
0.0
 70
   128
  0
VERTEX
  5
5CB
100
AcDbEntity
  8
止水栓
  6
CONTINUOUS
 62
     6
100
AcDbVertex
100
AcDb2dVertex
 10
429.06718
 20
1041.240642
 30
0.0
  0
VERTEX
  5
5CC
100
AcDbEntity
  8
止水栓
  6
CONTINUOUS
 62
     6
100
AcDbVertex
100
AcDb2dVertex
 10
429.047649
 20
1041.287028
 30
0.0
  0
VERTEX
  5
5CD
100
AcDbEntity
  8
止水栓
  6
CONTINUOUS
 62
     6
100
AcDbVertex
100
AcDb2dVertex
 10
429.028118
 20
1041.335857
 30
0.0
  0
VERTEX
  5
5CE
100
AcDbEntity
  8
止水栓
  6
CONTINUOUS
 62
     6
100
AcDbVertex
100
AcDb2dVertex
 10
429.006145
 20
1041.382243
 30
0.0
  0
VERTEX
  5
5CF
100
AcDbEntity
  8
止水栓
  6
CONTINUOUS
 62
     6
100
AcDbVertex
100
AcDb2dVertex
 10
428.869426
 20
1041.631267
 30
0.0
  0
VERTEX
  5
5D0
100
AcDbEntity
  8
止水栓
  6
CONTINUOUS
 62
     6
100
AcDbVertex
100
AcDb2dVertex
 10
428.693645
 20
1041.872966
 30
0.0
  0
VERTEX
  5
5D1
100
AcDbEntity
  8
止水栓
  6
CONTINUOUS
 62
     6
100
AcDbVertex
100
AcDb2dVertex
 10
428.483684
 20
1042.104899
 30
0.0
  0
VERTEX
  5
5D2
100
AcDbEntity
  8
止水栓
  6
CONTINUOUS
 62
     6
100
AcDbVertex
100
AcDb2dVertex
 10
428.239543
 20
1042.327067
 30
0.0
  0
VERTEX
  5
5D3
100
AcDbEntity
  8
止水栓
  6
CONTINUOUS
 62
     6
100
AcDbVertex
100
AcDb2dVertex
 10
427.961223
 20
1042.534587
 30
0.0
  0
VERTEX
  5
5D4
100
AcDbEntity
  8
止水栓
  6
CONTINUOUS
 62
     6
100
AcDbVertex
100
AcDb2dVertex
 10
427.653606
 20
1042.727458
 30
0.0
  0
VERTEX
  5
5D5
100
AcDbEntity
  8
止水栓
  6
CONTINUOUS
 62
     6
100
AcDbVertex
100
AcDb2dVertex
 10
427.316692
 20
1042.903239
 30
0.0
  0
VERTEX
  5
5D6
100
AcDbEntity
  8
止水栓
  6
CONTINUOUS
 62
     6
100
AcDbVertex
100
AcDb2dVertex
 10
426.955364
 20
1043.064372
 30
0.0
  0
VERTEX
  5
5D7
100
AcDbEntity
  8
止水栓
  6
CONTINUOUS
 62
     6
100
AcDbVertex
100
AcDb2dVertex
 10
426.569621
 20
1043.203532
 30
0.0
  0
VERTEX
  5
5D8
100
AcDbEntity
  8
止水栓
  6
CONTINUOUS
 62
     6
100
AcDbVertex
100
AcDb2dVertex
 10
426.166789
 20
1043.325603
 30
0.0
  0
VERTEX
  5
5D9
100
AcDbEntity
  8
止水栓
  6
CONTINUOUS
 62
     6
100
AcDbVertex
100
AcDb2dVertex
 10
425.744426
 20
1043.4257
 30
0.0
  0
VERTEX
  5
5DA
100
AcDbEntity
  8
止水栓
  6
CONTINUOUS
 62
     6
100
AcDbVertex
100
AcDb2dVertex
 10
425.309856
 20
1043.503825
 30
0.0
  0
VERTEX
  5
5DB
100
AcDbEntity
  8
止水栓
  6
CONTINUOUS
 62
     6
100
AcDbVertex
100
AcDb2dVertex
 10
424.863078
 20
1043.559978
 30
0.0
  0
VERTEX
  5
5DC
100
AcDbEntity
  8
止水栓
  6
CONTINUOUS
 62
     6
100
AcDbVertex
100
AcDb2dVertex
 10
424.411418
 20
1043.594157
 30
0.0
  0
VERTEX
  5
5DD
100
AcDbEntity
  8
止水栓
  6
CONTINUOUS
 62
     6
100
AcDbVertex
100
AcDb2dVertex
 10
423.957317
 20
1043.606364
 30
0.0
  0
VERTEX
  5
5DE
100
AcDbEntity
  8
止水栓
  6
CONTINUOUS
 62
     6
100
AcDbVertex
100
AcDb2dVertex
 10
423.500774
 20
1043.594157
 30
0.0
  0
VERTEX
  5
5DF
100
AcDbEntity
  8
止水栓
  6
CONTINUOUS
 62
     6
100
AcDbVertex
100
AcDb2dVertex
 10
423.049114
 20
1043.559978
 30
0.0
  0
VERTEX
  5
5E0
100
AcDbEntity
  8
止水栓
  6
CONTINUOUS
 62
     6
100
AcDbVertex
100
AcDb2dVertex
 10
422.602336
 20
1043.503825
 30
0.0
  0
VERTEX
  5
5E1
100
AcDbEntity
  8
止水栓
  6
CONTINUOUS
 62
     6
100
AcDbVertex
100
AcDb2dVertex
 10
422.167766
 20
1043.4257
 30
0.0
  0
VERTEX
  5
5E2
100
AcDbEntity
  8
止水栓
  6
CONTINUOUS
 62
     6
100
AcDbVertex
100
AcDb2dVertex
 10
421.747844
 20
1043.325603
 30
0.0
  0
VERTEX
  5
5E3
100
AcDbEntity
  8
止水栓
  6
CONTINUOUS
 62
     6
100
AcDbVertex
100
AcDb2dVertex
 10
421.342571
 20
1043.203532
 30
0.0
  0
VERTEX
  5
5E4
100
AcDbEntity
  8
止水栓
  6
CONTINUOUS
 62
     6
100
AcDbVertex
100
AcDb2dVertex
 10
420.956828
 20
1043.064372
 30
0.0
  0
VERTEX
  5
5E5
100
AcDbEntity
  8
止水栓
  6
CONTINUOUS
 62
     6
100
AcDbVertex
100
AcDb2dVertex
 10
420.5955
 20
1042.905681
 30
0.0
  0
VERTEX
  5
5E6
100
AcDbEntity
  8
止水栓
  6
CONTINUOUS
 62
     6
100
AcDbVertex
100
AcDb2dVertex
 10
420.261028
 20
1042.727458
 30
0.0
  0
VERTEX
  5
5E7
100
AcDbEntity
  8
止水栓
  6
CONTINUOUS
 62
     6
100
AcDbVertex
100
AcDb2dVertex
 10
419.950969
 20
1042.534587
 30
0.0
  0
VERTEX
  5
5E8
100
AcDbEntity
  8
止水栓
  6
CONTINUOUS
 62
     6
100
AcDbVertex
100
AcDb2dVertex
 10
419.67509
 20
1042.327067
 30
0.0
  0
VERTEX
  5
5E9
100
AcDbEntity
  8
止水栓
  6
CONTINUOUS
 62
     6
100
AcDbVertex
100
AcDb2dVertex
 10
419.428508
 20
1042.107341
 30
0.0
  0
VERTEX
  5
5EA
100
AcDbEntity
  8
止水栓
  6
CONTINUOUS
 62
     6
100
AcDbVertex
100
AcDb2dVertex
 10
419.218547
 20
1041.875407
 30
0.0
  0
VERTEX
  5
5EB
100
AcDbEntity
  8
止水栓
  6
CONTINUOUS
 62
     6
100
AcDbVertex
100
AcDb2dVertex
 10
419.045207
 20
1041.631267
 30
0.0
  0
VERTEX
  5
5EC
100
AcDbEntity
  8
止水栓
  6
CONTINUOUS
 62
     6
100
AcDbVertex
100
AcDb2dVertex
 10
418.906047
 20
1041.382243
 30
0.0
  0
VERTEX
  5
5ED
100
AcDbEntity
  8
止水栓
  6
CONTINUOUS
 62
     6
100
AcDbVertex
100
AcDb2dVertex
 10
418.808391
 20
1041.128337
 30
0.0
  0
VERTEX
  5
5EE
100
AcDbEntity
  8
止水栓
  6
CONTINUOUS
 62
     6
100
AcDbVertex
100
AcDb2dVertex
 10
418.747356
 20
1040.867107
 30
0.0
  0
VERTEX
  5
5EF
100
AcDbEntity
  8
止水栓
  6
CONTINUOUS
 62
     6
100
AcDbVertex
100
AcDb2dVertex
 10
418.727825
 20
1040.605876
 30
0.0
  0
VERTEX
  5
5F0
100
AcDbEntity
  8
止水栓
  6
CONTINUOUS
 62
     6
100
AcDbVertex
100
AcDb2dVertex
 10
418.749797
 20
1040.344646
 30
0.0
  0
VERTEX
  5
5F1
100
AcDbEntity
  8
止水栓
  6
CONTINUOUS
 62
     6
100
AcDbVertex
100
AcDb2dVertex
 10
418.808391
 20
1040.085857
 30
0.0
  0
VERTEX
  5
5F2
100
AcDbEntity
  8
止水栓
  6
CONTINUOUS
 62
     6
100
AcDbVertex
100
AcDb2dVertex
 10
418.906047
 20
1039.829509
 30
0.0
  0
VERTEX
  5
5F3
100
AcDbEntity
  8
止水栓
  6
CONTINUOUS
 62
     6
100
AcDbVertex
100
AcDb2dVertex
 10
419.042766
 20
1039.580485
 30
0.0
  0
VERTEX
  5
5F4
100
AcDbEntity
  8
止水栓
  6
CONTINUOUS
 62
     6
100
AcDbVertex
100
AcDb2dVertex
 10
419.218547
 20
1039.338786
 30
0.0
  0
VERTEX
  5
5F5
100
AcDbEntity
  8
止水栓
  6
CONTINUOUS
 62
     6
100
AcDbVertex
100
AcDb2dVertex
 10
419.428508
 20
1039.106853
 30
0.0
  0
VERTEX
  5
5F6
100
AcDbEntity
  8
止水栓
  6
CONTINUOUS
 62
     6
100
AcDbVertex
100
AcDb2dVertex
 10
419.67509
 20
1038.887126
 30
0.0
  0
VERTEX
  5
5F7
100
AcDbEntity
  8
止水栓
  6
CONTINUOUS
 62
     6
100
AcDbVertex
100
AcDb2dVertex
 10
419.95341
 20
1038.677165
 30
0.0
  0
VERTEX
  5
5F8
100
AcDbEntity
  8
止水栓
  6
CONTINUOUS
 62
     6
100
AcDbVertex
100
AcDb2dVertex
 10
420.261028
 20
1038.484294
 30
0.0
  0
VERTEX
  5
5F9
100
AcDbEntity
  8
止水栓
  6
CONTINUOUS
 62
     6
100
AcDbVertex
100
AcDb2dVertex
 10
420.5955
 20
1038.308513
 30
0.0
  0
VERTEX
  5
5FA
100
AcDbEntity
  8
止水栓
  6
CONTINUOUS
 62
     6
100
AcDbVertex
100
AcDb2dVertex
 10
420.956828
 20
1038.149821
 30
0.0
  0
VERTEX
  5
5FB
100
AcDbEntity
  8
止水栓
  6
CONTINUOUS
 62
     6
100
AcDbVertex
100
AcDb2dVertex
 10
421.342571
 20
1038.00822
 30
0.0
  0
VERTEX
  5
5FC
100
AcDbEntity
  8
止水栓
  6
CONTINUOUS
 62
     6
100
AcDbVertex
100
AcDb2dVertex
 10
421.747844
 20
1037.886149
 30
0.0
  0
VERTEX
  5
5FD
100
AcDbEntity
  8
止水栓
  6
CONTINUOUS
 62
     6
100
AcDbVertex
100
AcDb2dVertex
 10
422.167766
 20
1037.788493
 30
0.0
  0
VERTEX
  5
5FE
100
AcDbEntity
  8
止水栓
  6
CONTINUOUS
 62
     6
100
AcDbVertex
100
AcDb2dVertex
 10
422.602336
 20
1037.707927
 30
0.0
  0
VERTEX
  5
5FF
100
AcDbEntity
  8
止水栓
  6
CONTINUOUS
 62
     6
100
AcDbVertex
100
AcDb2dVertex
 10
423.049114
 20
1037.651774
 30
0.0
  0
VERTEX
  5
600
100
AcDbEntity
  8
止水栓
  6
CONTINUOUS
 62
     6
100
AcDbVertex
100
AcDb2dVertex
 10
423.500774
 20
1037.617595
 30
0.0
  0
VERTEX
  5
601
100
AcDbEntity
  8
止水栓
  6
CONTINUOUS
 62
     6
100
AcDbVertex
100
AcDb2dVertex
 10
423.954875
 20
1037.605388
 30
0.0
  0
SEQEND
  5
602
100
AcDbEntity
  8
止水栓
  6
CONTINUOUS
 62
     6
  0
POLYLINE
  5
603
100
AcDbEntity
  8
止水栓
  6
CONTINUOUS
 62
     6
100
AcDb2dPolyline
 66
     1
 10
0.0
 20
0.0
 30
0.0
 70
   128
  0
VERTEX
  5
604
100
AcDbEntity
  8
止水栓
  6
CONTINUOUS
 62
     6
100
AcDbVertex
100
AcDb2dVertex
 10
423.957317
 20
1037.605388
 30
0.0
  0
VERTEX
  5
605
100
AcDbEntity
  8
止水栓
  6
CONTINUOUS
 62
     6
100
AcDbVertex
100
AcDb2dVertex
 10
424.411418
 20
1037.617595
 30
0.0
  0
VERTEX
  5
606
100
AcDbEntity
  8
止水栓
  6
CONTINUOUS
 62
     6
100
AcDbVertex
100
AcDb2dVertex
 10
424.863078
 20
1037.651774
 30
0.0
  0
VERTEX
  5
607
100
AcDbEntity
  8
止水栓
  6
CONTINUOUS
 62
     6
100
AcDbVertex
100
AcDb2dVertex
 10
425.309856
 20
1037.707927
 30
0.0
  0
VERTEX
  5
608
100
AcDbEntity
  8
止水栓
  6
CONTINUOUS
 62
     6
100
AcDbVertex
100
AcDb2dVertex
 10
425.744426
 20
1037.788493
 30
0.0
  0
VERTEX
  5
609
100
AcDbEntity
  8
止水栓
  6
CONTINUOUS
 62
     6
100
AcDbVertex
100
AcDb2dVertex
 10
426.166789
 20
1037.888591
 30
0.0
  0
VERTEX
  5
60A
100
AcDbEntity
  8
止水栓
  6
CONTINUOUS
 62
     6
100
AcDbVertex
100
AcDb2dVertex
 10
426.569621
 20
1038.00822
 30
0.0
  0
VERTEX
  5
60B
100
AcDbEntity
  8
止水栓
  6
CONTINUOUS
 62
     6
100
AcDbVertex
100
AcDb2dVertex
 10
426.955364
 20
1038.149821
 30
0.0
  0
VERTEX
  5
60C
100
AcDbEntity
  8
止水栓
  6
CONTINUOUS
 62
     6
100
AcDbVertex
100
AcDb2dVertex
 10
427.316692
 20
1038.308513
 30
0.0
  0
VERTEX
  5
60D
100
AcDbEntity
  8
止水栓
  6
CONTINUOUS
 62
     6
100
AcDbVertex
100
AcDb2dVertex
 10
427.651164
 20
1038.484294
 30
0.0
  0
VERTEX
  5
60E
100
AcDbEntity
  8
止水栓
  6
CONTINUOUS
 62
     6
100
AcDbVertex
100
AcDb2dVertex
 10
427.961223
 20
1038.677165
 30
0.0
  0
VERTEX
  5
60F
100
AcDbEntity
  8
止水栓
  6
CONTINUOUS
 62
     6
100
AcDbVertex
100
AcDb2dVertex
 10
428.237102
 20
1038.887126
 30
0.0
  0
VERTEX
  5
610
100
AcDbEntity
  8
止水栓
  6
CONTINUOUS
 62
     6
100
AcDbVertex
100
AcDb2dVertex
 10
428.483684
 20
1039.106853
 30
0.0
  0
VERTEX
  5
611
100
AcDbEntity
  8
止水栓
  6
CONTINUOUS
 62
     6
100
AcDbVertex
100
AcDb2dVertex
 10
428.693645
 20
1039.338786
 30
0.0
  0
VERTEX
  5
612
100
AcDbEntity
  8
止水栓
  6
CONTINUOUS
 62
     6
100
AcDbVertex
100
AcDb2dVertex
 10
428.869426
 20
1039.580485
 30
0.0
  0
VERTEX
  5
613
100
AcDbEntity
  8
止水栓
  6
CONTINUOUS
 62
     6
100
AcDbVertex
100
AcDb2dVertex
 10
429.006145
 20
1039.829509
 30
0.0
  0
VERTEX
  5
614
100
AcDbEntity
  8
止水栓
  6
CONTINUOUS
 62
     6
100
AcDbVertex
100
AcDb2dVertex
 10
429.103801
 20
1040.085857
 30
0.0
  0
VERTEX
  5
615
100
AcDbEntity
  8
止水栓
  6
CONTINUOUS
 62
     6
100
AcDbVertex
100
AcDb2dVertex
 10
429.164836
 20
1040.344646
 30
0.0
  0
VERTEX
  5
616
100
AcDbEntity
  8
止水栓
  6
CONTINUOUS
 62
     6
100
AcDbVertex
100
AcDb2dVertex
 10
429.184368
 20
1040.605876
 30
0.0
  0
VERTEX
  5
617
100
AcDbEntity
  8
止水栓
  6
CONTINUOUS
 62
     6
100
AcDbVertex
100
AcDb2dVertex
 10
429.169719
 20
1040.818278
 30
0.0
  0
VERTEX
  5
618
100
AcDbEntity
  8
止水栓
  6
CONTINUOUS
 62
     6
100
AcDbVertex
100
AcDb2dVertex
 10
429.130657
 20
1041.030681
 30
0.0
  0
VERTEX
  5
619
100
AcDbEntity
  8
止水栓
  6
CONTINUOUS
 62
     6
100
AcDbVertex
100
AcDb2dVertex
 10
429.06718
 20
1041.240642
 30
0.0
  0
SEQEND
  5
61A
100
AcDbEntity
  8
止水栓
  6
CONTINUOUS
 62
     6
  0
LINE
  5
61B
100
AcDbEntity
  8
止水栓
  6
CONTINUOUS
 62
     6
100
AcDbLine
 10
456.940715
 20
1071.460368
 30
0.0
 11
435.939739
 21
1071.460368
 31
0.0
  0
LINE
  5
61C
100
AcDbEntity
  8
止水栓
  6
CONTINUOUS
 62
     6
100
AcDbLine
 10
418.437297
 20
1039.180553
 30
0.0
 11
418.466594
 21
1063.760173
 31
0.0
  0
ARC
  5
61D
100
AcDbEntity
  8
止水栓
  6
CONTINUOUS
 62
     6
100
AcDbCircle
 10
423.730266
 20
1046.460368
 30
0.0
 40
9.000411
100
AcDbArc
 50
233.980225
 51
292.924545
  0
LINE
  5
61E
100
AcDbEntity
  8
止水栓
  6
CONTINUOUS
 62
     6
100
AcDbLine
 10
366.441203
 20
1061.960857
 30
0.0
 11
418.464153
 21
1061.960857
 31
0.0
  0
ARC
  5
61F
100
AcDbEntity
  8
止水栓
  6
CONTINUOUS
 62
     6
100
AcDbCircle
 10
341.14091
 20
1041.818216
 30
0.0
 40
25.298605
100
AcDbArc
 50
336.794876
 51
0.0
  0
LINE
  5
620
100
AcDbEntity
  8
止水栓
  6
CONTINUOUS
 62
     6
100
AcDbLine
 10
366.441203
 20
1061.100443
 30
0.0
 11
366.441203
 21
1041.818216
 31
0.0
  0
LINE
  5
621
100
AcDbEntity
  8
止水栓
  6
CONTINUOUS
 62
     6
100
AcDbLine
 10
461.940715
 20
1063.45988
 30
0.0
 11
461.452434
 21
1063.45988
 31
0.0
  0
LINE
  5
622
100
AcDbEntity
  8
止水栓
  6
CONTINUOUS
 62
     6
100
AcDbLine
 10
477.848918
 20
1046.709392
 30
0.0
 11
474.841106
 21
1046.709392
 31
0.0
  0
LINE
  5
623
100
AcDbEntity
  8
止水栓
  6
CONTINUOUS
 62
     6
100
AcDbLine
 10
477.848918
 20
1046.709392
 30
0.0
 11
477.848918
 21
1056.211345
 31
0.0
  0
LINE
  5
624
100
AcDbEntity
  8
止水栓
  6
CONTINUOUS
 62
     6
100
AcDbLine
 10
474.841106
 20
1056.211345
 30
0.0
 11
477.848918
 21
1056.211345
 31
0.0
  0
ARC
  5
625
100
AcDbEntity
  8
止水栓
  6
CONTINUOUS
 62
     6
100
AcDbCircle
 10
465.715129
 20
1060.210368
 30
0.0
 40
5.49999
100
AcDbArc
 50
33.010666
 51
133.338501
  0
LINE
  5
626
100
AcDbEntity
  8
止水栓
  6
CONTINUOUS
 62
     6
100
AcDbLine
 10
461.940715
 20
1038.709819
 30
0.0
 11
461.940715
 21
1064.210918
 31
0.0
  0
ARC
  5
627
100
AcDbEntity
  8
止水栓
  6
CONTINUOUS
 62
     6
100
AcDbCircle
 10
465.715129
 20
1042.710368
 30
0.0
 40
5.500042
100
AcDbArc
 50
226.661499
 51
326.983597
  0
LINE
  5
628
100
AcDbEntity
  8
止水栓
  6
CONTINUOUS
 62
     6
100
AcDbLine
 10
470.326946
 20
1039.713542
 30
0.0
 11
474.841106
 21
1046.16038
 31
0.0
  0
LINE
  5
629
100
AcDbEntity
  8
止水栓
  6
CONTINUOUS
 62
     6
100
AcDbLine
 10
474.841106
 20
1046.16038
 30
0.0
 11
474.841106
 21
1056.759593
 31
0.0
  0
LINE
  5
62A
100
AcDbEntity
  8
止水栓
  6
CONTINUOUS
 62
     6
100
AcDbLine
 10
474.841106
 20
1056.759593
 30
0.0
 11
470.326946
 21
1063.206431
 31
0.0
  0
LINE
  5
62B
100
AcDbEntity
  8
止水栓
  6
CONTINUOUS
 62
     6
100
AcDbLine
 10
470.326946
 20
1039.713542
 30
0.0
 11
470.326946
 21
1063.206431
 31
0.0
  0
POLYLINE
  5
62C
100
AcDbEntity
  8
止水栓
  6
CONTINUOUS
 62
     6
100
AcDb2dPolyline
 66
     1
 10
0.0
 20
0.0
 30
0.0
 70
   128
  0
VERTEX
  5
62D
100
AcDbEntity
  8
止水栓
  6
CONTINUOUS
 62
     6
100
AcDbVertex
100
AcDb2dVertex
 10
469.20634
 20
1062.75645
 30
0.0
  0
VERTEX
  5
62E
100
AcDbEntity
  8
止水栓
  6
CONTINUOUS
 62
     6
100
AcDbVertex
100
AcDb2dVertex
 10
469.191692
 20
1063.014018
 30
0.0
  0
VERTEX
  5
62F
100
AcDbEntity
  8
止水栓
  6
CONTINUOUS
 62
     6
100
AcDbVertex
100
AcDb2dVertex
 10
469.152629
 20
1063.269755
 30
0.0
  0
VERTEX
  5
630
100
AcDbEntity
  8
止水栓
  6
CONTINUOUS
 62
     6
100
AcDbVertex
100
AcDb2dVertex
 10
469.086711
 20
1063.52122
 30
0.0
  0
VERTEX
  5
631
100
AcDbEntity
  8
止水栓
  6
CONTINUOUS
 62
     6
100
AcDbVertex
100
AcDb2dVertex
 10
468.993938
 20
1063.767039
 30
0.0
  0
VERTEX
  5
632
100
AcDbEntity
  8
止水栓
  6
CONTINUOUS
 62
     6
100
AcDbVertex
100
AcDb2dVertex
 10
468.879192
 20
1064.005382
 30
0.0
  0
VERTEX
  5
633
100
AcDbEntity
  8
止水栓
  6
CONTINUOUS
 62
     6
100
AcDbVertex
100
AcDb2dVertex
 10
468.740032
 20
1064.233501
 30
0.0
  0
VERTEX
  5
634
100
AcDbEntity
  8
止水栓
  6
CONTINUOUS
 62
     6
100
AcDbVertex
100
AcDb2dVertex
 10
468.576457
 20
1064.450938
 30
0.0
  0
VERTEX
  5
635
100
AcDbEntity
  8
止水栓
  6
CONTINUOUS
 62
     6
100
AcDbVertex
100
AcDb2dVertex
 10
468.39091
 20
1064.655406
 30
0.0
  0
VERTEX
  5
636
100
AcDbEntity
  8
止水栓
  6
CONTINUOUS
 62
     6
100
AcDbVertex
100
AcDb2dVertex
 10
468.183391
 20
1064.845531
 30
0.0
  0
VERTEX
  5
637
100
AcDbEntity
  8
止水栓
  6
CONTINUOUS
 62
     6
100
AcDbVertex
100
AcDb2dVertex
 10
467.958782
 20
1065.019633
 30
0.0
  0
VERTEX
  5
638
100
AcDbEntity
  8
止水栓
  6
CONTINUOUS
 62
     6
100
AcDbVertex
100
AcDb2dVertex
 10
467.717082
 20
1065.176799
 30
0.0
  0
VERTEX
  5
639
100
AcDbEntity
  8
止水栓
  6
CONTINUOUS
 62
     6
100
AcDbVertex
100
AcDb2dVertex
 10
467.460735
 20
1065.314738
 30
0.0
  0
VERTEX
  5
63A
100
AcDbEntity
  8
止水栓
  6
CONTINUOUS
 62
     6
100
AcDbVertex
100
AcDb2dVertex
 10
467.189739
 20
1065.433604
 30
0.0
  0
VERTEX
  5
63B
100
AcDbEntity
  8
止水栓
  6
CONTINUOUS
 62
     6
100
AcDbVertex
100
AcDb2dVertex
 10
466.908977
 20
1065.532176
 30
0.0
  0
VERTEX
  5
63C
100
AcDbEntity
  8
止水栓
  6
CONTINUOUS
 62
     6
100
AcDbVertex
100
AcDb2dVertex
 10
466.61845
 20
1065.609691
 30
0.0
  0
VERTEX
  5
63D
100
AcDbEntity
  8
止水栓
  6
CONTINUOUS
 62
     6
100
AcDbVertex
100
AcDb2dVertex
 10
466.320598
 20
1065.665385
 30
0.0
  0
VERTEX
  5
63E
100
AcDbEntity
  8
止水栓
  6
CONTINUOUS
 62
     6
100
AcDbVertex
100
AcDb2dVertex
 10
466.017864
 20
1065.698802
 30
0.0
  0
VERTEX
  5
63F
100
AcDbEntity
  8
止水栓
  6
CONTINUOUS
 62
     6
100
AcDbVertex
100
AcDb2dVertex
 10
465.715129
 20
1065.710551
 30
0.0
  0
VERTEX
  5
640
100
AcDbEntity
  8
止水栓
  6
CONTINUOUS
 62
     6
100
AcDbVertex
100
AcDb2dVertex
 10
465.409953
 20
1065.69926
 30
0.0
  0
VERTEX
  5
641
100
AcDbEntity
  8
止水栓
  6
CONTINUOUS
 62
     6
100
AcDbVertex
100
AcDb2dVertex
 10
465.10966
 20
1065.66569
 30
0.0
  0
VERTEX
  5
642
100
AcDbEntity
  8
止水栓
  6
CONTINUOUS
 62
     6
100
AcDbVertex
100
AcDb2dVertex
 10
464.811809
 20
1065.609691
 30
0.0
  0
VERTEX
  5
643
100
AcDbEntity
  8
止水栓
  6
CONTINUOUS
 62
     6
100
AcDbVertex
100
AcDb2dVertex
 10
464.521282
 20
1065.532176
 30
0.0
  0
VERTEX
  5
644
100
AcDbEntity
  8
止水栓
  6
CONTINUOUS
 62
     6
100
AcDbVertex
100
AcDb2dVertex
 10
464.24052
 20
1065.433299
 30
0.0
  0
VERTEX
  5
645
100
AcDbEntity
  8
止水栓
  6
CONTINUOUS
 62
     6
100
AcDbVertex
100
AcDb2dVertex
 10
463.969524
 20
1065.314738
 30
0.0
  0
VERTEX
  5
646
100
AcDbEntity
  8
止水栓
  6
CONTINUOUS
 62
     6
100
AcDbVertex
100
AcDb2dVertex
 10
463.713176
 20
1065.176189
 30
0.0
  0
VERTEX
  5
647
100
AcDbEntity
  8
止水栓
  6
CONTINUOUS
 62
     6
100
AcDbVertex
100
AcDb2dVertex
 10
463.469035
 20
1065.019176
 30
0.0
  0
VERTEX
  5
648
100
AcDbEntity
  8
止水栓
  6
CONTINUOUS
 62
     6
100
AcDbVertex
100
AcDb2dVertex
 10
463.246868
 20
1064.845531
 30
0.0
  0
VERTEX
  5
649
100
AcDbEntity
  8
止水栓
  6
CONTINUOUS
 62
     6
100
AcDbVertex
100
AcDb2dVertex
 10
463.041789
 20
1064.655559
 30
0.0
  0
VERTEX
  5
64A
100
AcDbEntity
  8
止水栓
  6
CONTINUOUS
 62
     6
100
AcDbVertex
100
AcDb2dVertex
 10
462.856243
 20
1064.451243
 30
0.0
  0
VERTEX
  5
64B
100
AcDbEntity
  8
止水栓
  6
CONTINUOUS
 62
     6
100
AcDbVertex
100
AcDb2dVertex
 10
462.690227
 20
1064.233501
 30
0.0
  0
VERTEX
  5
64C
100
AcDbEntity
  8
止水栓
  6
CONTINUOUS
 62
     6
100
AcDbVertex
100
AcDb2dVertex
 10
462.548625
 20
1064.004924
 30
0.0
  0
VERTEX
  5
64D
100
AcDbEntity
  8
止水栓
  6
CONTINUOUS
 62
     6
100
AcDbVertex
100
AcDb2dVertex
 10
462.433879
 20
1063.766887
 30
0.0
  0
VERTEX
  5
64E
100
AcDbEntity
  8
止水栓
  6
CONTINUOUS
 62
     6
100
AcDbVertex
100
AcDb2dVertex
 10
462.343547
 20
1063.52122
 30
0.0
  0
VERTEX
  5
64F
100
AcDbEntity
  8
止水栓
  6
CONTINUOUS
 62
     6
100
AcDbVertex
100
AcDb2dVertex
 10
462.277629
 20
1063.269603
 30
0.0
  0
VERTEX
  5
650
100
AcDbEntity
  8
止水栓
  6
CONTINUOUS
 62
     6
100
AcDbVertex
100
AcDb2dVertex
 10
462.238567
 20
1063.014323
 30
0.0
  0
VERTEX
  5
651
100
AcDbEntity
  8
止水栓
  6
CONTINUOUS
 62
     6
100
AcDbVertex
100
AcDb2dVertex
 10
462.223918
 20
1062.75645
 30
0.0
  0
VERTEX
  5
652
100
AcDbEntity
  8
止水栓
  6
CONTINUOUS
 62
     6
100
AcDbVertex
100
AcDb2dVertex
 10
462.238567
 20
1062.499034
 30
0.0
  0
VERTEX
  5
653
100
AcDbEntity
  8
止水栓
  6
CONTINUOUS
 62
     6
100
AcDbVertex
100
AcDb2dVertex
 10
462.277629
 20
1062.243754
 30
0.0
  0
VERTEX
  5
654
100
AcDbEntity
  8
止水栓
  6
CONTINUOUS
 62
     6
100
AcDbVertex
100
AcDb2dVertex
 10
462.343547
 20
1061.991984
 30
0.0
  0
VERTEX
  5
655
100
AcDbEntity
  8
止水栓
  6
CONTINUOUS
 62
     6
100
AcDbVertex
100
AcDb2dVertex
 10
462.436321
 20
1061.746318
 30
0.0
  0
VERTEX
  5
656
100
AcDbEntity
  8
止水栓
  6
CONTINUOUS
 62
     6
100
AcDbVertex
100
AcDb2dVertex
 10
462.551067
 20
1061.508281
 30
0.0
  0
VERTEX
  5
657
100
AcDbEntity
  8
止水栓
  6
CONTINUOUS
 62
     6
100
AcDbVertex
100
AcDb2dVertex
 10
462.690227
 20
1061.279094
 30
0.0
  0
VERTEX
  5
658
100
AcDbEntity
  8
止水栓
  6
CONTINUOUS
 62
     6
100
AcDbVertex
100
AcDb2dVertex
 10
462.853801
 20
1061.061656
 30
0.0
  0
VERTEX
  5
659
100
AcDbEntity
  8
止水栓
  6
CONTINUOUS
 62
     6
100
AcDbVertex
100
AcDb2dVertex
 10
463.039348
 20
1060.857036
 30
0.0
  0
VERTEX
  5
65A
100
AcDbEntity
  8
止水栓
  6
CONTINUOUS
 62
     6
100
AcDbVertex
100
AcDb2dVertex
 10
463.246868
 20
1060.667522
 30
0.0
  0
VERTEX
  5
65B
100
AcDbEntity
  8
止水栓
  6
CONTINUOUS
 62
     6
100
AcDbVertex
100
AcDb2dVertex
 10
463.471477
 20
1060.493419
 30
0.0
  0
VERTEX
  5
65C
100
AcDbEntity
  8
止水栓
  6
CONTINUOUS
 62
     6
100
AcDbVertex
100
AcDb2dVertex
 10
463.713176
 20
1060.336711
 30
0.0
  0
VERTEX
  5
65D
100
AcDbEntity
  8
止水栓
  6
CONTINUOUS
 62
     6
100
AcDbVertex
100
AcDb2dVertex
 10
463.969524
 20
1060.198009
 30
0.0
  0
VERTEX
  5
65E
100
AcDbEntity
  8
止水栓
  6
CONTINUOUS
 62
     6
100
AcDbVertex
100
AcDb2dVertex
 10
464.24052
 20
1060.07899
 30
0.0
  0
VERTEX
  5
65F
100
AcDbEntity
  8
止水栓
  6
CONTINUOUS
 62
     6
100
AcDbVertex
100
AcDb2dVertex
 10
464.521282
 20
1059.980571
 30
0.0
  0
VERTEX
  5
660
100
AcDbEntity
  8
止水栓
  6
CONTINUOUS
 62
     6
100
AcDbVertex
100
AcDb2dVertex
 10
464.811809
 20
1059.902904
 30
0.0
  0
VERTEX
  5
661
100
AcDbEntity
  8
止水栓
  6
CONTINUOUS
 62
     6
100
AcDbVertex
100
AcDb2dVertex
 10
465.10966
 20
1059.847209
 30
0.0
  0
VERTEX
  5
662
100
AcDbEntity
  8
止水栓
  6
CONTINUOUS
 62
     6
100
AcDbVertex
100
AcDb2dVertex
 10
465.412395
 20
1059.81364
 30
0.0
  0
VERTEX
  5
663
100
AcDbEntity
  8
止水栓
  6
CONTINUOUS
 62
     6
100
AcDbVertex
100
AcDb2dVertex
 10
465.715129
 20
1059.802196
 30
0.0
  0
VERTEX
  5
664
100
AcDbEntity
  8
止水栓
  6
CONTINUOUS
 62
     6
100
AcDbVertex
100
AcDb2dVertex
 10
466.020305
 20
1059.813487
 30
0.0
  0
VERTEX
  5
665
100
AcDbEntity
  8
止水栓
  6
CONTINUOUS
 62
     6
100
AcDbVertex
100
AcDb2dVertex
 10
466.320598
 20
1059.847056
 30
0.0
  0
VERTEX
  5
666
100
AcDbEntity
  8
止水栓
  6
CONTINUOUS
 62
     6
100
AcDbVertex
100
AcDb2dVertex
 10
466.61845
 20
1059.902904
 30
0.0
  0
VERTEX
  5
667
100
AcDbEntity
  8
止水栓
  6
CONTINUOUS
 62
     6
100
AcDbVertex
100
AcDb2dVertex
 10
466.908977
 20
1059.980418
 30
0.0
  0
VERTEX
  5
668
100
AcDbEntity
  8
止水栓
  6
CONTINUOUS
 62
     6
100
AcDbVertex
100
AcDb2dVertex
 10
467.189739
 20
1060.079143
 30
0.0
  0
SEQEND
  5
669
100
AcDbEntity
  8
止水栓
  6
CONTINUOUS
 62
     6
  0
POLYLINE
  5
66A
100
AcDbEntity
  8
止水栓
  6
CONTINUOUS
 62
     6
100
AcDb2dPolyline
 66
     1
 10
0.0
 20
0.0
 30
0.0
 70
   128
  0
VERTEX
  5
66B
100
AcDbEntity
  8
止水栓
  6
CONTINUOUS
 62
     6
100
AcDbVertex
100
AcDb2dVertex
 10
467.189739
 20
1060.079143
 30
0.0
  0
VERTEX
  5
66C
100
AcDbEntity
  8
止水栓
  6
CONTINUOUS
 62
     6
100
AcDbVertex
100
AcDb2dVertex
 10
467.460735
 20
1060.198009
 30
0.0
  0
VERTEX
  5
66D
100
AcDbEntity
  8
止水栓
  6
CONTINUOUS
 62
     6
100
AcDbVertex
100
AcDb2dVertex
 10
467.717082
 20
1060.336558
 30
0.0
  0
VERTEX
  5
66E
100
AcDbEntity
  8
止水栓
  6
CONTINUOUS
 62
     6
100
AcDbVertex
100
AcDb2dVertex
 10
467.961223
 20
1060.493419
 30
0.0
  0
VERTEX
  5
66F
100
AcDbEntity
  8
止水栓
  6
CONTINUOUS
 62
     6
100
AcDbVertex
100
AcDb2dVertex
 10
468.183391
 20
1060.667522
 30
0.0
  0
VERTEX
  5
670
100
AcDbEntity
  8
止水栓
  6
CONTINUOUS
 62
     6
100
AcDbVertex
100
AcDb2dVertex
 10
468.388469
 20
1060.857646
 30
0.0
  0
VERTEX
  5
671
100
AcDbEntity
  8
止水栓
  6
CONTINUOUS
 62
     6
100
AcDbVertex
100
AcDb2dVertex
 10
468.574016
 20
1061.062266
 30
0.0
  0
VERTEX
  5
672
100
AcDbEntity
  8
止水栓
  6
CONTINUOUS
 62
     6
100
AcDbVertex
100
AcDb2dVertex
 10
468.740032
 20
1061.279094
 30
0.0
  0
VERTEX
  5
673
100
AcDbEntity
  8
止水栓
  6
CONTINUOUS
 62
     6
100
AcDbVertex
100
AcDb2dVertex
 10
468.881633
 20
1061.50767
 30
0.0
  0
VERTEX
  5
674
100
AcDbEntity
  8
止水栓
  6
CONTINUOUS
 62
     6
100
AcDbVertex
100
AcDb2dVertex
 10
468.996379
 20
1061.745708
 30
0.0
  0
VERTEX
  5
675
100
AcDbEntity
  8
止水栓
  6
CONTINUOUS
 62
     6
100
AcDbVertex
100
AcDb2dVertex
 10
469.086711
 20
1061.991984
 30
0.0
  0
SEQEND
  5
676
100
AcDbEntity
  8
止水栓
  6
CONTINUOUS
 62
     6
  0
POLYLINE
  5
677
100
AcDbEntity
  8
止水栓
  6
CONTINUOUS
 62
     6
100
AcDb2dPolyline
 66
     1
 10
0.0
 20
0.0
 30
0.0
 70
   128
  0
VERTEX
  5
678
100
AcDbEntity
  8
止水栓
  6
CONTINUOUS
 62
     6
100
AcDbVertex
100
AcDb2dVertex
 10
469.086711
 20
1061.991984
 30
0.0
  0
VERTEX
  5
679
100
AcDbEntity
  8
止水栓
  6
CONTINUOUS
 62
     6
100
AcDbVertex
100
AcDb2dVertex
 10
469.152629
 20
1062.243602
 30
0.0
  0
VERTEX
  5
67A
100
AcDbEntity
  8
止水栓
  6
CONTINUOUS
 62
     6
100
AcDbVertex
100
AcDb2dVertex
 10
469.191692
 20
1062.499339
 30
0.0
  0
VERTEX
  5
67B
100
AcDbEntity
  8
止水栓
  6
CONTINUOUS
 62
     6
100
AcDbVertex
100
AcDb2dVertex
 10
469.20634
 20
1062.75706
 30
0.0
  0
SEQEND
  5
67C
100
AcDbEntity
  8
止水栓
  6
CONTINUOUS
 62
     6
  0
POLYLINE
  5
67D
100
AcDbEntity
  8
止水栓
  6
CONTINUOUS
 62
     6
100
AcDb2dPolyline
 66
     1
 10
0.0
 20
0.0
 30
0.0
 70
   128
  0
VERTEX
  5
67E
100
AcDbEntity
  8
止水栓
  6
CONTINUOUS
 62
     6
100
AcDbVertex
100
AcDb2dVertex
 10
469.20634
 20
1051.460521
 30
0.0
  0
VERTEX
  5
67F
100
AcDbEntity
  8
止水栓
  6
CONTINUOUS
 62
     6
100
AcDbVertex
100
AcDb2dVertex
 10
469.194133
 20
1051.969096
 30
0.0
  0
VERTEX
  5
680
100
AcDbEntity
  8
止水栓
  6
CONTINUOUS
 62
     6
100
AcDbVertex
100
AcDb2dVertex
 10
469.152629
 20
1052.473704
 30
0.0
  0
VERTEX
  5
681
100
AcDbEntity
  8
止水栓
  6
CONTINUOUS
 62
     6
100
AcDbVertex
100
AcDb2dVertex
 10
469.086711
 20
1052.970836
 30
0.0
  0
VERTEX
  5
682
100
AcDbEntity
  8
止水栓
  6
CONTINUOUS
 62
     6
100
AcDbVertex
100
AcDb2dVertex
 10
468.996379
 20
1053.45637
 30
0.0
  0
VERTEX
  5
683
100
AcDbEntity
  8
止水栓
  6
CONTINUOUS
 62
     6
100
AcDbVertex
100
AcDb2dVertex
 10
468.879192
 20
1053.926799
 30
0.0
  0
VERTEX
  5
684
100
AcDbEntity
  8
止水栓
  6
CONTINUOUS
 62
     6
100
AcDbVertex
100
AcDb2dVertex
 10
468.740032
 20
1054.378001
 30
0.0
  0
VERTEX
  5
685
100
AcDbEntity
  8
止水栓
  6
CONTINUOUS
 62
     6
100
AcDbVertex
100
AcDb2dVertex
 10
468.576457
 20
1054.807231
 30
0.0
  0
VERTEX
  5
686
100
AcDbEntity
  8
止水栓
  6
CONTINUOUS
 62
     6
100
AcDbVertex
100
AcDb2dVertex
 10
468.39091
 20
1055.211131
 30
0.0
  0
VERTEX
  5
687
100
AcDbEntity
  8
止水栓
  6
CONTINUOUS
 62
     6
100
AcDbVertex
100
AcDb2dVertex
 10
468.183391
 20
1055.586497
 30
0.0
  0
VERTEX
  5
688
100
AcDbEntity
  8
止水栓
  6
CONTINUOUS
 62
     6
100
AcDbVertex
100
AcDb2dVertex
 10
467.958782
 20
1055.930278
 30
0.0
  0
VERTEX
  5
689
100
AcDbEntity
  8
止水栓
  6
CONTINUOUS
 62
     6
100
AcDbVertex
100
AcDb2dVertex
 10
467.717082
 20
1056.240031
 30
0.0
  0
VERTEX
  5
68A
100
AcDbEntity
  8
止水栓
  6
CONTINUOUS
 62
     6
100
AcDbVertex
100
AcDb2dVertex
 10
467.460735
 20
1056.514079
 30
0.0
  0
VERTEX
  5
68B
100
AcDbEntity
  8
止水栓
  6
CONTINUOUS
 62
     6
100
AcDbVertex
100
AcDb2dVertex
 10
467.189739
 20
1056.749065
 30
0.0
  0
VERTEX
  5
68C
100
AcDbEntity
  8
止水栓
  6
CONTINUOUS
 62
     6
100
AcDbVertex
100
AcDb2dVertex
 10
466.908977
 20
1056.944072
 30
0.0
  0
VERTEX
  5
68D
100
AcDbEntity
  8
止水栓
  6
CONTINUOUS
 62
     6
100
AcDbVertex
100
AcDb2dVertex
 10
466.61845
 20
1057.096812
 30
0.0
  0
VERTEX
  5
68E
100
AcDbEntity
  8
止水栓
  6
CONTINUOUS
 62
     6
100
AcDbVertex
100
AcDb2dVertex
 10
466.320598
 20
1057.206828
 30
0.0
  0
VERTEX
  5
68F
100
AcDbEntity
  8
止水栓
  6
CONTINUOUS
 62
     6
100
AcDbVertex
100
AcDb2dVertex
 10
466.017864
 20
1057.273204
 30
0.0
  0
VERTEX
  5
690
100
AcDbEntity
  8
止水栓
  6
CONTINUOUS
 62
     6
100
AcDbVertex
100
AcDb2dVertex
 10
465.715129
 20
1057.295634
 30
0.0
  0
VERTEX
  5
691
100
AcDbEntity
  8
止水栓
  6
CONTINUOUS
 62
     6
100
AcDbVertex
100
AcDb2dVertex
 10
465.409953
 20
1057.273357
 30
0.0
  0
VERTEX
  5
692
100
AcDbEntity
  8
止水栓
  6
CONTINUOUS
 62
     6
100
AcDbVertex
100
AcDb2dVertex
 10
465.10966
 20
1057.206676
 30
0.0
  0
VERTEX
  5
693
100
AcDbEntity
  8
止水栓
  6
CONTINUOUS
 62
     6
100
AcDbVertex
100
AcDb2dVertex
 10
464.811809
 20
1057.096812
 30
0.0
  0
VERTEX
  5
694
100
AcDbEntity
  8
止水栓
  6
CONTINUOUS
 62
     6
100
AcDbVertex
100
AcDb2dVertex
 10
464.521282
 20
1056.943614
 30
0.0
  0
VERTEX
  5
695
100
AcDbEntity
  8
止水栓
  6
CONTINUOUS
 62
     6
100
AcDbVertex
100
AcDb2dVertex
 10
464.24052
 20
1056.748759
 30
0.0
  0
VERTEX
  5
696
100
AcDbEntity
  8
止水栓
  6
CONTINUOUS
 62
     6
100
AcDbVertex
100
AcDb2dVertex
 10
463.969524
 20
1056.514079
 30
0.0
  0
VERTEX
  5
697
100
AcDbEntity
  8
止水栓
  6
CONTINUOUS
 62
     6
100
AcDbVertex
100
AcDb2dVertex
 10
463.713176
 20
1056.240642
 30
0.0
  0
VERTEX
  5
698
100
AcDbEntity
  8
止水栓
  6
CONTINUOUS
 62
     6
100
AcDbVertex
100
AcDb2dVertex
 10
463.469035
 20
1055.930736
 30
0.0
  0
VERTEX
  5
699
100
AcDbEntity
  8
止水栓
  6
CONTINUOUS
 62
     6
100
AcDbVertex
100
AcDb2dVertex
 10
463.246868
 20
1055.586497
 30
0.0
  0
VERTEX
  5
69A
100
AcDbEntity
  8
止水栓
  6
CONTINUOUS
 62
     6
100
AcDbVertex
100
AcDb2dVertex
 10
463.041789
 20
1055.211131
 30
0.0
  0
VERTEX
  5
69B
100
AcDbEntity
  8
止水栓
  6
CONTINUOUS
 62
     6
100
AcDbVertex
100
AcDb2dVertex
 10
462.856243
 20
1054.807078
 30
0.0
  0
VERTEX
  5
69C
100
AcDbEntity
  8
止水栓
  6
CONTINUOUS
 62
     6
100
AcDbVertex
100
AcDb2dVertex
 10
462.690227
 20
1054.378001
 30
0.0
  0
VERTEX
  5
69D
100
AcDbEntity
  8
止水栓
  6
CONTINUOUS
 62
     6
100
AcDbVertex
100
AcDb2dVertex
 10
462.548625
 20
1053.926341
 30
0.0
  0
VERTEX
  5
69E
100
AcDbEntity
  8
止水栓
  6
CONTINUOUS
 62
     6
100
AcDbVertex
100
AcDb2dVertex
 10
462.433879
 20
1053.455913
 30
0.0
  0
VERTEX
  5
69F
100
AcDbEntity
  8
止水栓
  6
CONTINUOUS
 62
     6
100
AcDbVertex
100
AcDb2dVertex
 10
462.343547
 20
1052.970836
 30
0.0
  0
VERTEX
  5
6A0
100
AcDbEntity
  8
止水栓
  6
CONTINUOUS
 62
     6
100
AcDbVertex
100
AcDb2dVertex
 10
462.277629
 20
1052.473857
 30
0.0
  0
VERTEX
  5
6A1
100
AcDbEntity
  8
止水栓
  6
CONTINUOUS
 62
     6
100
AcDbVertex
100
AcDb2dVertex
 10
462.238567
 20
1051.969249
 30
0.0
  0
VERTEX
  5
6A2
100
AcDbEntity
  8
止水栓
  6
CONTINUOUS
 62
     6
100
AcDbVertex
100
AcDb2dVertex
 10
462.223918
 20
1051.460521
 30
0.0
  0
VERTEX
  5
6A3
100
AcDbEntity
  8
止水栓
  6
CONTINUOUS
 62
     6
100
AcDbVertex
100
AcDb2dVertex
 10
462.236125
 20
1050.951945
 30
0.0
  0
VERTEX
  5
6A4
100
AcDbEntity
  8
止水栓
  6
CONTINUOUS
 62
     6
100
AcDbVertex
100
AcDb2dVertex
 10
462.277629
 20
1050.447337
 30
0.0
  0
VERTEX
  5
6A5
100
AcDbEntity
  8
止水栓
  6
CONTINUOUS
 62
     6
100
AcDbVertex
100
AcDb2dVertex
 10
462.343547
 20
1049.950206
 30
0.0
  0
VERTEX
  5
6A6
100
AcDbEntity
  8
止水栓
  6
CONTINUOUS
 62
     6
100
AcDbVertex
100
AcDb2dVertex
 10
462.433879
 20
1049.464671
 30
0.0
  0
VERTEX
  5
6A7
100
AcDbEntity
  8
止水栓
  6
CONTINUOUS
 62
     6
100
AcDbVertex
100
AcDb2dVertex
 10
462.551067
 20
1048.994243
 30
0.0
  0
VERTEX
  5
6A8
100
AcDbEntity
  8
止水栓
  6
CONTINUOUS
 62
     6
100
AcDbVertex
100
AcDb2dVertex
 10
462.690227
 20
1048.542888
 30
0.0
  0
VERTEX
  5
6A9
100
AcDbEntity
  8
止水栓
  6
CONTINUOUS
 62
     6
100
AcDbVertex
100
AcDb2dVertex
 10
462.853801
 20
1048.113658
 30
0.0
  0
VERTEX
  5
6AA
100
AcDbEntity
  8
止水栓
  6
CONTINUOUS
 62
     6
100
AcDbVertex
100
AcDb2dVertex
 10
463.039348
 20
1047.709758
 30
0.0
  0
VERTEX
  5
6AB
100
AcDbEntity
  8
止水栓
  6
CONTINUOUS
 62
     6
100
AcDbVertex
100
AcDb2dVertex
 10
463.246868
 20
1047.334544
 30
0.0
  0
VERTEX
  5
6AC
100
AcDbEntity
  8
止水栓
  6
CONTINUOUS
 62
     6
100
AcDbVertex
100
AcDb2dVertex
 10
463.471477
 20
1046.990764
 30
0.0
  0
VERTEX
  5
6AD
100
AcDbEntity
  8
止水栓
  6
CONTINUOUS
 62
     6
100
AcDbVertex
100
AcDb2dVertex
 10
463.713176
 20
1046.68101
 30
0.0
  0
VERTEX
  5
6AE
100
AcDbEntity
  8
止水栓
  6
CONTINUOUS
 62
     6
100
AcDbVertex
100
AcDb2dVertex
 10
463.969524
 20
1046.406962
 30
0.0
  0
VERTEX
  5
6AF
100
AcDbEntity
  8
止水栓
  6
CONTINUOUS
 62
     6
100
AcDbVertex
100
AcDb2dVertex
 10
464.24052
 20
1046.171977
 30
0.0
  0
VERTEX
  5
6B0
100
AcDbEntity
  8
止水栓
  6
CONTINUOUS
 62
     6
100
AcDbVertex
100
AcDb2dVertex
 10
464.521282
 20
1045.97697
 30
0.0
  0
VERTEX
  5
6B1
100
AcDbEntity
  8
止水栓
  6
CONTINUOUS
 62
     6
100
AcDbVertex
100
AcDb2dVertex
 10
464.811809
 20
1045.824229
 30
0.0
  0
VERTEX
  5
6B2
100
AcDbEntity
  8
止水栓
  6
CONTINUOUS
 62
     6
100
AcDbVertex
100
AcDb2dVertex
 10
465.10966
 20
1045.714213
 30
0.0
  0
VERTEX
  5
6B3
100
AcDbEntity
  8
止水栓
  6
CONTINUOUS
 62
     6
100
AcDbVertex
100
AcDb2dVertex
 10
465.412395
 20
1045.647838
 30
0.0
  0
VERTEX
  5
6B4
100
AcDbEntity
  8
止水栓
  6
CONTINUOUS
 62
     6
100
AcDbVertex
100
AcDb2dVertex
 10
465.715129
 20
1045.625407
 30
0.0
  0
VERTEX
  5
6B5
100
AcDbEntity
  8
止水栓
  6
CONTINUOUS
 62
     6
100
AcDbVertex
100
AcDb2dVertex
 10
466.020305
 20
1045.647685
 30
0.0
  0
VERTEX
  5
6B6
100
AcDbEntity
  8
止水栓
  6
CONTINUOUS
 62
     6
100
AcDbVertex
100
AcDb2dVertex
 10
466.320598
 20
1045.714366
 30
0.0
  0
VERTEX
  5
6B7
100
AcDbEntity
  8
止水栓
  6
CONTINUOUS
 62
     6
100
AcDbVertex
100
AcDb2dVertex
 10
466.61845
 20
1045.824229
 30
0.0
  0
VERTEX
  5
6B8
100
AcDbEntity
  8
止水栓
  6
CONTINUOUS
 62
     6
100
AcDbVertex
100
AcDb2dVertex
 10
466.908977
 20
1045.977428
 30
0.0
  0
VERTEX
  5
6B9
100
AcDbEntity
  8
止水栓
  6
CONTINUOUS
 62
     6
100
AcDbVertex
100
AcDb2dVertex
 10
467.189739
 20
1046.172282
 30
0.0
  0
SEQEND
  5
6BA
100
AcDbEntity
  8
止水栓
  6
CONTINUOUS
 62
     6
  0
POLYLINE
  5
6BB
100
AcDbEntity
  8
止水栓
  6
CONTINUOUS
 62
     6
100
AcDb2dPolyline
 66
     1
 10
0.0
 20
0.0
 30
0.0
 70
   128
  0
VERTEX
  5
6BC
100
AcDbEntity
  8
止水栓
  6
CONTINUOUS
 62
     6
100
AcDbVertex
100
AcDb2dVertex
 10
467.189739
 20
1046.172282
 30
0.0
  0
VERTEX
  5
6BD
100
AcDbEntity
  8
止水栓
  6
CONTINUOUS
 62
     6
100
AcDbVertex
100
AcDb2dVertex
 10
467.460735
 20
1046.406962
 30
0.0
  0
VERTEX
  5
6BE
100
AcDbEntity
  8
止水栓
  6
CONTINUOUS
 62
     6
100
AcDbVertex
100
AcDb2dVertex
 10
467.717082
 20
1046.6804
 30
0.0
  0
VERTEX
  5
6BF
100
AcDbEntity
  8
止水栓
  6
CONTINUOUS
 62
     6
100
AcDbVertex
100
AcDb2dVertex
 10
467.961223
 20
1046.990306
 30
0.0
  0
VERTEX
  5
6C0
100
AcDbEntity
  8
止水栓
  6
CONTINUOUS
 62
     6
100
AcDbVertex
100
AcDb2dVertex
 10
468.183391
 20
1047.334544
 30
0.0
  0
VERTEX
  5
6C1
100
AcDbEntity
  8
止水栓
  6
CONTINUOUS
 62
     6
100
AcDbVertex
100
AcDb2dVertex
 10
468.388469
 20
1047.70991
 30
0.0
  0
VERTEX
  5
6C2
100
AcDbEntity
  8
止水栓
  6
CONTINUOUS
 62
     6
100
AcDbVertex
100
AcDb2dVertex
 10
468.574016
 20
1048.113963
 30
0.0
  0
VERTEX
  5
6C3
100
AcDbEntity
  8
止水栓
  6
CONTINUOUS
 62
     6
100
AcDbVertex
100
AcDb2dVertex
 10
468.740032
 20
1048.542888
 30
0.0
  0
VERTEX
  5
6C4
100
AcDbEntity
  8
止水栓
  6
CONTINUOUS
 62
     6
100
AcDbVertex
100
AcDb2dVertex
 10
468.881633
 20
1048.994548
 30
0.0
  0
VERTEX
  5
6C5
100
AcDbEntity
  8
止水栓
  6
CONTINUOUS
 62
     6
100
AcDbVertex
100
AcDb2dVertex
 10
468.996379
 20
1049.464976
 30
0.0
  0
VERTEX
  5
6C6
100
AcDbEntity
  8
止水栓
  6
CONTINUOUS
 62
     6
100
AcDbVertex
100
AcDb2dVertex
 10
469.086711
 20
1049.950206
 30
0.0
  0
SEQEND
  5
6C7
100
AcDbEntity
  8
止水栓
  6
CONTINUOUS
 62
     6
  0
POLYLINE
  5
6C8
100
AcDbEntity
  8
止水栓
  6
CONTINUOUS
 62
     6
100
AcDb2dPolyline
 66
     1
 10
0.0
 20
0.0
 30
0.0
 70
   128
  0
VERTEX
  5
6C9
100
AcDbEntity
  8
止水栓
  6
CONTINUOUS
 62
     6
100
AcDbVertex
100
AcDb2dVertex
 10
469.086711
 20
1049.950206
 30
0.0
  0
VERTEX
  5
6CA
100
AcDbEntity
  8
止水栓
  6
CONTINUOUS
 62
     6
100
AcDbVertex
100
AcDb2dVertex
 10
469.152629
 20
1050.447185
 30
0.0
  0
VERTEX
  5
6CB
100
AcDbEntity
  8
止水栓
  6
CONTINUOUS
 62
     6
100
AcDbVertex
100
AcDb2dVertex
 10
469.191692
 20
1050.951793
 30
0.0
  0
VERTEX
  5
6CC
100
AcDbEntity
  8
止水栓
  6
CONTINUOUS
 62
     6
100
AcDbVertex
100
AcDb2dVertex
 10
469.203899
 20
1051.460216
 30
0.0
  0
SEQEND
  5
6CD
100
AcDbEntity
  8
止水栓
  6
CONTINUOUS
 62
     6
  0
POLYLINE
  5
6CE
100
AcDbEntity
  8
止水栓
  6
CONTINUOUS
 62
     6
100
AcDb2dPolyline
 66
     1
 10
0.0
 20
0.0
 30
0.0
 70
   128
  0
VERTEX
  5
6CF
100
AcDbEntity
  8
止水栓
  6
CONTINUOUS
 62
     6
100
AcDbVertex
100
AcDb2dVertex
 10
469.20634
 20
1040.166575
 30
0.0
  0
VERTEX
  5
6D0
100
AcDbEntity
  8
止水栓
  6
CONTINUOUS
 62
     6
100
AcDbVertex
100
AcDb2dVertex
 10
469.191692
 20
1040.424296
 30
0.0
  0
VERTEX
  5
6D1
100
AcDbEntity
  8
止水栓
  6
CONTINUOUS
 62
     6
100
AcDbVertex
100
AcDb2dVertex
 10
469.152629
 20
1040.679881
 30
0.0
  0
VERTEX
  5
6D2
100
AcDbEntity
  8
止水栓
  6
CONTINUOUS
 62
     6
100
AcDbVertex
100
AcDb2dVertex
 10
469.086711
 20
1040.931651
 30
0.0
  0
VERTEX
  5
6D3
100
AcDbEntity
  8
止水栓
  6
CONTINUOUS
 62
     6
100
AcDbVertex
100
AcDb2dVertex
 10
468.993938
 20
1041.17747
 30
0.0
  0
VERTEX
  5
6D4
100
AcDbEntity
  8
止水栓
  6
CONTINUOUS
 62
     6
100
AcDbVertex
100
AcDb2dVertex
 10
468.879192
 20
1041.41566
 30
0.0
  0
VERTEX
  5
6D5
100
AcDbEntity
  8
止水栓
  6
CONTINUOUS
 62
     6
100
AcDbVertex
100
AcDb2dVertex
 10
468.740032
 20
1041.644542
 30
0.0
  0
VERTEX
  5
6D6
100
AcDbEntity
  8
止水栓
  6
CONTINUOUS
 62
     6
100
AcDbVertex
100
AcDb2dVertex
 10
468.576457
 20
1041.86198
 30
0.0
  0
VERTEX
  5
6D7
100
AcDbEntity
  8
止水栓
  6
CONTINUOUS
 62
     6
100
AcDbVertex
100
AcDb2dVertex
 10
468.39091
 20
1042.0666
 30
0.0
  0
VERTEX
  5
6D8
100
AcDbEntity
  8
止水栓
  6
CONTINUOUS
 62
     6
100
AcDbVertex
100
AcDb2dVertex
 10
468.183391
 20
1042.256877
 30
0.0
  0
VERTEX
  5
6D9
100
AcDbEntity
  8
止水栓
  6
CONTINUOUS
 62
     6
100
AcDbVertex
100
AcDb2dVertex
 10
467.958782
 20
1042.431132
 30
0.0
  0
VERTEX
  5
6DA
100
AcDbEntity
  8
止水栓
  6
CONTINUOUS
 62
     6
100
AcDbVertex
100
AcDb2dVertex
 10
467.717082
 20
1042.587993
 30
0.0
  0
VERTEX
  5
6DB
100
AcDbEntity
  8
止水栓
  6
CONTINUOUS
 62
     6
100
AcDbVertex
100
AcDb2dVertex
 10
467.460735
 20
1042.726695
 30
0.0
  0
VERTEX
  5
6DC
100
AcDbEntity
  8
止水栓
  6
CONTINUOUS
 62
     6
100
AcDbVertex
100
AcDb2dVertex
 10
467.189739
 20
1042.845714
 30
0.0
  0
VERTEX
  5
6DD
100
AcDbEntity
  8
止水栓
  6
CONTINUOUS
 62
     6
100
AcDbVertex
100
AcDb2dVertex
 10
466.908977
 20
1042.944438
 30
0.0
  0
VERTEX
  5
6DE
100
AcDbEntity
  8
止水栓
  6
CONTINUOUS
 62
     6
100
AcDbVertex
100
AcDb2dVertex
 10
466.61845
 20
1043.0218
 30
0.0
  0
VERTEX
  5
6DF
100
AcDbEntity
  8
止水栓
  6
CONTINUOUS
 62
     6
100
AcDbVertex
100
AcDb2dVertex
 10
466.320598
 20
1043.077495
 30
0.0
  0
VERTEX
  5
6E0
100
AcDbEntity
  8
止水栓
  6
CONTINUOUS
 62
     6
100
AcDbVertex
100
AcDb2dVertex
 10
466.017864
 20
1043.111064
 30
0.0
  0
VERTEX
  5
6E1
100
AcDbEntity
  8
止水栓
  6
CONTINUOUS
 62
     6
100
AcDbVertex
100
AcDb2dVertex
 10
465.715129
 20
1043.122661
 30
0.0
  0
VERTEX
  5
6E2
100
AcDbEntity
  8
止水栓
  6
CONTINUOUS
 62
     6
100
AcDbVertex
100
AcDb2dVertex
 10
465.409953
 20
1043.111369
 30
0.0
  0
VERTEX
  5
6E3
100
AcDbEntity
  8
止水栓
  6
CONTINUOUS
 62
     6
100
AcDbVertex
100
AcDb2dVertex
 10
465.10966
 20
1043.077647
 30
0.0
  0
VERTEX
  5
6E4
100
AcDbEntity
  8
止水栓
  6
CONTINUOUS
 62
     6
100
AcDbVertex
100
AcDb2dVertex
 10
464.811809
 20
1043.0218
 30
0.0
  0
VERTEX
  5
6E5
100
AcDbEntity
  8
止水栓
  6
CONTINUOUS
 62
     6
100
AcDbVertex
100
AcDb2dVertex
 10
464.521282
 20
1042.944133
 30
0.0
  0
VERTEX
  5
6E6
100
AcDbEntity
  8
止水栓
  6
CONTINUOUS
 62
     6
100
AcDbVertex
100
AcDb2dVertex
 10
464.24052
 20
1042.845256
 30
0.0
  0
VERTEX
  5
6E7
100
AcDbEntity
  8
止水栓
  6
CONTINUOUS
 62
     6
100
AcDbVertex
100
AcDb2dVertex
 10
463.969524
 20
1042.726695
 30
0.0
  0
VERTEX
  5
6E8
100
AcDbEntity
  8
止水栓
  6
CONTINUOUS
 62
     6
100
AcDbVertex
100
AcDb2dVertex
 10
463.713176
 20
1042.588145
 30
0.0
  0
VERTEX
  5
6E9
100
AcDbEntity
  8
止水栓
  6
CONTINUOUS
 62
     6
100
AcDbVertex
100
AcDb2dVertex
 10
463.469035
 20
1042.431132
 30
0.0
  0
VERTEX
  5
6EA
100
AcDbEntity
  8
止水栓
  6
CONTINUOUS
 62
     6
100
AcDbVertex
100
AcDb2dVertex
 10
463.246868
 20
1042.256877
 30
0.0
  0
VERTEX
  5
6EB
100
AcDbEntity
  8
止水栓
  6
CONTINUOUS
 62
     6
100
AcDbVertex
100
AcDb2dVertex
 10
463.041789
 20
1042.066752
 30
0.0
  0
VERTEX
  5
6EC
100
AcDbEntity
  8
止水栓
  6
CONTINUOUS
 62
     6
100
AcDbVertex
100
AcDb2dVertex
 10
462.856243
 20
1041.862132
 30
0.0
  0
VERTEX
  5
6ED
100
AcDbEntity
  8
止水栓
  6
CONTINUOUS
 62
     6
100
AcDbVertex
100
AcDb2dVertex
 10
462.690227
 20
1041.644542
 30
0.0
  0
VERTEX
  5
6EE
100
AcDbEntity
  8
止水栓
  6
CONTINUOUS
 62
     6
100
AcDbVertex
100
AcDb2dVertex
 10
462.548625
 20
1041.415813
 30
0.0
  0
VERTEX
  5
6EF
100
AcDbEntity
  8
止水栓
  6
CONTINUOUS
 62
     6
100
AcDbVertex
100
AcDb2dVertex
 10
462.433879
 20
1041.17747
 30
0.0
  0
VERTEX
  5
6F0
100
AcDbEntity
  8
止水栓
  6
CONTINUOUS
 62
     6
100
AcDbVertex
100
AcDb2dVertex
 10
462.343547
 20
1040.931651
 30
0.0
  0
VERTEX
  5
6F1
100
AcDbEntity
  8
止水栓
  6
CONTINUOUS
 62
     6
100
AcDbVertex
100
AcDb2dVertex
 10
462.277629
 20
1040.679881
 30
0.0
  0
VERTEX
  5
6F2
100
AcDbEntity
  8
止水栓
  6
CONTINUOUS
 62
     6
100
AcDbVertex
100
AcDb2dVertex
 10
462.238567
 20
1040.423991
 30
0.0
  0
VERTEX
  5
6F3
100
AcDbEntity
  8
止水栓
  6
CONTINUOUS
 62
     6
100
AcDbVertex
100
AcDb2dVertex
 10
462.223918
 20
1040.166575
 30
0.0
  0
VERTEX
  5
6F4
100
AcDbEntity
  8
止水栓
  6
CONTINUOUS
 62
     6
100
AcDbVertex
100
AcDb2dVertex
 10
462.238567
 20
1039.908855
 30
0.0
  0
VERTEX
  5
6F5
100
AcDbEntity
  8
止水栓
  6
CONTINUOUS
 62
     6
100
AcDbVertex
100
AcDb2dVertex
 10
462.277629
 20
1039.65327
 30
0.0
  0
VERTEX
  5
6F6
100
AcDbEntity
  8
止水栓
  6
CONTINUOUS
 62
     6
100
AcDbVertex
100
AcDb2dVertex
 10
462.343547
 20
1039.401652
 30
0.0
  0
VERTEX
  5
6F7
100
AcDbEntity
  8
止水栓
  6
CONTINUOUS
 62
     6
100
AcDbVertex
100
AcDb2dVertex
 10
462.436321
 20
1039.155833
 30
0.0
  0
VERTEX
  5
6F8
100
AcDbEntity
  8
止水栓
  6
CONTINUOUS
 62
     6
100
AcDbVertex
100
AcDb2dVertex
 10
462.551067
 20
1038.917644
 30
0.0
  0
VERTEX
  5
6F9
100
AcDbEntity
  8
止水栓
  6
CONTINUOUS
 62
     6
100
AcDbVertex
100
AcDb2dVertex
 10
462.690227
 20
1038.688457
 30
0.0
  0
VERTEX
  5
6FA
100
AcDbEntity
  8
止水栓
  6
CONTINUOUS
 62
     6
100
AcDbVertex
100
AcDb2dVertex
 10
462.853801
 20
1038.471019
 30
0.0
  0
VERTEX
  5
6FB
100
AcDbEntity
  8
止水栓
  6
CONTINUOUS
 62
     6
100
AcDbVertex
100
AcDb2dVertex
 10
463.039348
 20
1038.266398
 30
0.0
  0
VERTEX
  5
6FC
100
AcDbEntity
  8
止水栓
  6
CONTINUOUS
 62
     6
100
AcDbVertex
100
AcDb2dVertex
 10
463.246868
 20
1038.076274
 30
0.0
  0
VERTEX
  5
6FD
100
AcDbEntity
  8
止水栓
  6
CONTINUOUS
 62
     6
100
AcDbVertex
100
AcDb2dVertex
 10
463.471477
 20
1037.902019
 30
0.0
  0
VERTEX
  5
6FE
100
AcDbEntity
  8
止水栓
  6
CONTINUOUS
 62
     6
100
AcDbVertex
100
AcDb2dVertex
 10
463.713176
 20
1037.745158
 30
0.0
  0
VERTEX
  5
6FF
100
AcDbEntity
  8
止水栓
  6
CONTINUOUS
 62
     6
100
AcDbVertex
100
AcDb2dVertex
 10
463.969524
 20
1037.606608
 30
0.0
  0
VERTEX
  5
700
100
AcDbEntity
  8
止水栓
  6
CONTINUOUS
 62
     6
100
AcDbVertex
100
AcDb2dVertex
 10
464.24052
 20
1037.48759
 30
0.0
  0
VERTEX
  5
701
100
AcDbEntity
  8
止水栓
  6
CONTINUOUS
 62
     6
100
AcDbVertex
100
AcDb2dVertex
 10
464.521282
 20
1037.388866
 30
0.0
  0
VERTEX
  5
702
100
AcDbEntity
  8
止水栓
  6
CONTINUOUS
 62
     6
100
AcDbVertex
100
AcDb2dVertex
 10
464.811809
 20
1037.311351
 30
0.0
  0
VERTEX
  5
703
100
AcDbEntity
  8
止水栓
  6
CONTINUOUS
 62
     6
100
AcDbVertex
100
AcDb2dVertex
 10
465.10966
 20
1037.255656
 30
0.0
  0
VERTEX
  5
704
100
AcDbEntity
  8
止水栓
  6
CONTINUOUS
 62
     6
100
AcDbVertex
100
AcDb2dVertex
 10
465.412395
 20
1037.222087
 30
0.0
  0
VERTEX
  5
705
100
AcDbEntity
  8
止水栓
  6
CONTINUOUS
 62
     6
100
AcDbVertex
100
AcDb2dVertex
 10
465.715129
 20
1037.210338
 30
0.0
  0
VERTEX
  5
706
100
AcDbEntity
  8
止水栓
  6
CONTINUOUS
 62
     6
100
AcDbVertex
100
AcDb2dVertex
 10
466.020305
 20
1037.221629
 30
0.0
  0
VERTEX
  5
707
100
AcDbEntity
  8
止水栓
  6
CONTINUOUS
 62
     6
100
AcDbVertex
100
AcDb2dVertex
 10
466.320598
 20
1037.255351
 30
0.0
  0
VERTEX
  5
708
100
AcDbEntity
  8
止水栓
  6
CONTINUOUS
 62
     6
100
AcDbVertex
100
AcDb2dVertex
 10
466.61845
 20
1037.311351
 30
0.0
  0
VERTEX
  5
709
100
AcDbEntity
  8
止水栓
  6
CONTINUOUS
 62
     6
100
AcDbVertex
100
AcDb2dVertex
 10
466.908977
 20
1037.389018
 30
0.0
  0
VERTEX
  5
70A
100
AcDbEntity
  8
止水栓
  6
CONTINUOUS
 62
     6
100
AcDbVertex
100
AcDb2dVertex
 10
467.189739
 20
1037.487895
 30
0.0
  0
SEQEND
  5
70B
100
AcDbEntity
  8
止水栓
  6
CONTINUOUS
 62
     6
  0
POLYLINE
  5
70C
100
AcDbEntity
  8
止水栓
  6
CONTINUOUS
 62
     6
100
AcDb2dPolyline
 66
     1
 10
0.0
 20
0.0
 30
0.0
 70
   128
  0
VERTEX
  5
70D
100
AcDbEntity
  8
止水栓
  6
CONTINUOUS
 62
     6
100
AcDbVertex
100
AcDb2dVertex
 10
467.189739
 20
1037.487895
 30
0.0
  0
VERTEX
  5
70E
100
AcDbEntity
  8
止水栓
  6
CONTINUOUS
 62
     6
100
AcDbVertex
100
AcDb2dVertex
 10
467.460735
 20
1037.606608
 30
0.0
  0
VERTEX
  5
70F
100
AcDbEntity
  8
止水栓
  6
CONTINUOUS
 62
     6
100
AcDbVertex
100
AcDb2dVertex
 10
467.717082
 20
1037.745158
 30
0.0
  0
VERTEX
  5
710
100
AcDbEntity
  8
止水栓
  6
CONTINUOUS
 62
     6
100
AcDbVertex
100
AcDb2dVertex
 10
467.961223
 20
1037.902171
 30
0.0
  0
VERTEX
  5
711
100
AcDbEntity
  8
止水栓
  6
CONTINUOUS
 62
     6
100
AcDbVertex
100
AcDb2dVertex
 10
468.183391
 20
1038.076274
 30
0.0
  0
VERTEX
  5
712
100
AcDbEntity
  8
止水栓
  6
CONTINUOUS
 62
     6
100
AcDbVertex
100
AcDb2dVertex
 10
468.388469
 20
1038.266398
 30
0.0
  0
VERTEX
  5
713
100
AcDbEntity
  8
止水栓
  6
CONTINUOUS
 62
     6
100
AcDbVertex
100
AcDb2dVertex
 10
468.574016
 20
1038.471019
 30
0.0
  0
VERTEX
  5
714
100
AcDbEntity
  8
止水栓
  6
CONTINUOUS
 62
     6
100
AcDbVertex
100
AcDb2dVertex
 10
468.740032
 20
1038.688457
 30
0.0
  0
VERTEX
  5
715
100
AcDbEntity
  8
止水栓
  6
CONTINUOUS
 62
     6
100
AcDbVertex
100
AcDb2dVertex
 10
468.881633
 20
1038.917186
 30
0.0
  0
VERTEX
  5
716
100
AcDbEntity
  8
止水栓
  6
CONTINUOUS
 62
     6
100
AcDbVertex
100
AcDb2dVertex
 10
468.996379
 20
1039.155528
 30
0.0
  0
VERTEX
  5
717
100
AcDbEntity
  8
止水栓
  6
CONTINUOUS
 62
     6
100
AcDbVertex
100
AcDb2dVertex
 10
469.086711
 20
1039.401652
 30
0.0
  0
SEQEND
  5
718
100
AcDbEntity
  8
止水栓
  6
CONTINUOUS
 62
     6
  0
POLYLINE
  5
719
100
AcDbEntity
  8
止水栓
  6
CONTINUOUS
 62
     6
100
AcDb2dPolyline
 66
     1
 10
0.0
 20
0.0
 30
0.0
 70
   128
  0
VERTEX
  5
71A
100
AcDbEntity
  8
止水栓
  6
CONTINUOUS
 62
     6
100
AcDbVertex
100
AcDb2dVertex
 10
469.086711
 20
1039.401652
 30
0.0
  0
VERTEX
  5
71B
100
AcDbEntity
  8
止水栓
  6
CONTINUOUS
 62
     6
100
AcDbVertex
100
AcDb2dVertex
 10
469.152629
 20
1039.653422
 30
0.0
  0
VERTEX
  5
71C
100
AcDbEntity
  8
止水栓
  6
CONTINUOUS
 62
     6
100
AcDbVertex
100
AcDb2dVertex
 10
469.191692
 20
1039.909312
 30
0.0
  0
VERTEX
  5
71D
100
AcDbEntity
  8
止水栓
  6
CONTINUOUS
 62
     6
100
AcDbVertex
100
AcDb2dVertex
 10
469.20634
 20
1040.167186
 30
0.0
  0
SEQEND
  5
71E
100
AcDbEntity
  8
止水栓
  6
CONTINUOUS
 62
     6
  0
LINE
  5
71F
100
AcDbEntity
  8
止水栓
  6
CONTINUOUS
 62
     6
100
AcDbLine
 10
461.940715
 20
1039.455974
 30
0.0
 11
456.122844
 21
1039.455974
 31
0.0
  0
LINE
  5
720
100
AcDbEntity
  8
止水栓
  6
CONTINUOUS
 62
     6
100
AcDbLine
 10
438.439739
 20
1093.460338
 30
0.0
 11
454.440715
 21
1093.460338
 31
0.0
  0
LINE
  5
721
100
AcDbEntity
  8
止水栓
  6
CONTINUOUS
 62
     6
100
AcDbLine
 10
433.691203
 20
1085.235698
 30
0.0
 11
438.439739
 21
1093.460338
 31
0.0
  0
LINE
  5
722
100
AcDbEntity
  8
止水栓
  6
CONTINUOUS
 62
     6
100
AcDbLine
 10
433.691203
 20
1076.469523
 30
0.0
 11
433.691203
 21
1085.235698
 31
0.0
  0
LINE
  5
723
100
AcDbEntity
  8
止水栓
  6
CONTINUOUS
 62
     6
100
AcDbLine
 10
433.691203
 20
1076.469523
 30
0.0
 11
435.43925
 21
1075.460307
 31
0.0
  0
LINE
  5
724
100
AcDbEntity
  8
止水栓
  6
CONTINUOUS
 62
     6
100
AcDbLine
 10
435.43925
 20
1075.460307
 30
0.0
 11
457.441203
 21
1075.460307
 31
0.0
  0
LINE
  5
725
100
AcDbEntity
  8
止水栓
  6
CONTINUOUS
 62
     6
100
AcDbLine
 10
457.441203
 20
1075.460307
 30
0.0
 11
459.18925
 21
1076.469523
 31
0.0
  0
LINE
  5
726
100
AcDbEntity
  8
止水栓
  6
CONTINUOUS
 62
     6
100
AcDbLine
 10
459.18925
 20
1076.469523
 30
0.0
 11
459.18925
 21
1085.235545
 31
0.0
  0
LINE
  5
727
100
AcDbEntity
  8
止水栓
  6
CONTINUOUS
 62
     6
100
AcDbLine
 10
459.18925
 20
1085.235545
 30
0.0
 11
454.440715
 21
1093.460338
 31
0.0
  0
ARC
  5
728
100
AcDbEntity
  8
止水栓
  6
CONTINUOUS
 62
     6
100
AcDbCircle
 10
456.415813
 20
1084.543101
 30
0.0
 40
2.857461
100
AcDbArc
 50
14.0303
 51
165.957092
  0
ARC
  5
729
100
AcDbEntity
  8
止水栓
  6
CONTINUOUS
 62
     6
100
AcDbCircle
 10
446.440227
 20
1079.316814
 30
0.0
 40
8.083794
100
AcDbArc
 50
47.075195
 51
132.92482
  0
ARC
  5
72A
100
AcDbEntity
  8
止水栓
  6
CONTINUOUS
 62
     6
100
AcDbCircle
 10
436.464641
 20
1084.543101
 30
0.0
 40
2.857461
100
AcDbArc
 50
14.042923
 51
165.969711
  0
LINE
  5
72B
100
AcDbEntity
  8
止水栓
  6
CONTINUOUS
 62
     6
100
AcDbLine
 10
453.644817
 20
1085.236156
 30
0.0
 11
453.644817
 21
1075.747783
 31
0.0
  0
LINE
  5
72C
100
AcDbEntity
  8
止水栓
  6
CONTINUOUS
 62
     6
100
AcDbLine
 10
451.945598
 20
1085.236156
 30
0.0
 11
451.945598
 21
1075.747783
 31
0.0
  0
LINE
  5
72D
100
AcDbEntity
  8
止水栓
  6
CONTINUOUS
 62
     6
100
AcDbLine
 10
440.934856
 20
1085.236156
 30
0.0
 11
440.934856
 21
1075.747783
 31
0.0
  0
LINE
  5
72E
100
AcDbEntity
  8
止水栓
  6
CONTINUOUS
 62
     6
100
AcDbLine
 10
439.235637
 20
1085.236156
 30
0.0
 11
439.235637
 21
1075.747783
 31
0.0
  0
LINE
  5
72F
100
AcDbEntity
  8
止水栓
  6
CONTINUOUS
 62
     6
100
AcDbLine
 10
439.235637
 20
1085.236156
 30
0.0
 11
440.934856
 21
1085.236156
 31
0.0
  0
LINE
  5
730
100
AcDbEntity
  8
止水栓
  6
CONTINUOUS
 62
     6
100
AcDbLine
 10
451.945598
 20
1085.236156
 30
0.0
 11
453.644817
 21
1085.236156
 31
0.0
  0
LINE
  5
731
100
AcDbEntity
  8
止水栓
  6
CONTINUOUS
 62
     6
100
AcDbLine
 10
440.090129
 20
1276.458427
 30
0.0
 11
440.090129
 21
1093.460338
 31
0.0
  0
LINE
  5
732
100
AcDbEntity
  8
止水栓
  6
CONTINUOUS
 62
     6
100
AcDbLine
 10
456.940715
 20
1075.460307
 30
0.0
 11
456.940715
 21
1066.960857
 31
0.0
  0
ARC
  5
733
100
AcDbEntity
  8
止水栓
  6
CONTINUOUS
 62
     6
100
AcDbCircle
 10
446.440826
 20
1276.458608
 30
0.0
 40
6.350098
100
AcDbArc
 50
0.0
 51
180.000015
  0
LINE
  5
734
100
AcDbEntity
  8
止水栓
  6
CONTINUOUS
 62
     6
100
AcDbLine
 10
452.790325
 20
1093.460338
 30
0.0
 11
452.790325
 21
1276.458935
 31
0.0
  0
LINE
  5
735
100
AcDbEntity
  8
止水栓
  6
CONTINUOUS
 62
     6
100
AcDbLine
 10
342.139446
 20
1042.711771
 30
0.0
 11
342.139446
 21
1060.209329
 31
0.0
  0
LINE
  5
736
100
AcDbEntity
  8
止水栓
  6
CONTINUOUS
 62
     6
100
AcDbLine
 10
343.660442
 20
1061.730325
 30
0.0
 11
343.702709
 21
1041.16575
 31
0.0
  0
LINE
  5
737
100
AcDbEntity
  8
止水栓
  6
CONTINUOUS
 62
     3
100
AcDbLine
 10
401.140826
 20
1051.458681
 30
0.0
 11
393.140826
 21
1051.458681
 31
0.0
  0
LINE
  5
738
100
AcDbEntity
  8
止水栓
  6
CONTINUOUS
 62
     3
100
AcDbLine
 10
381.140826
 20
1051.458681
 30
0.0
 11
270.440826
 21
1051.458681
 31
0.0
  0
LINE
  5
739
100
AcDbEntity
  8
止水栓
  6
CONTINUOUS
 62
     3
100
AcDbLine
 10
473.0
 20
1051.458681
 30
0.0
 11
413.140826
 21
1051.458681
 31
0.0
  0
LINE
  5
73A
100
AcDbEntity
  8
止水栓
  6
CONTINUOUS
 62
     6
100
AcDbLine
 10
211.0
 20
2010.369911
 30
0.0
 11
298.868763
 21
2010.369911
 31
0.0
  0
LINE
  5
73B
100
AcDbEntity
  8
止水栓
  6
CONTINUOUS
 62
     6
100
AcDbLine
 10
1421.000599
 20
1270.105662
 30
0.0
 11
1437.473145
 21
1270.105662
 31
0.0
  0
ARC
  5
73C
100
AcDbEntity
  8
止水栓
  6
CONTINUOUS
 62
     6
100
AcDbCircle
 10
1421.000599
 20
1246.455759
 30
0.0
 40
23.649902
100
AcDbArc
 50
89.999969
 51
180.000015
  0
LINE
  5
73D
100
AcDbEntity
  8
止水栓
  6
CONTINUOUS
 62
     6
100
AcDbLine
 10
1421.000599
 20
1282.805857
 30
0.0
 11
1437.473145
 21
1282.805857
 31
0.0
  0
ARC
  5
73E
100
AcDbEntity
  8
止水栓
  6
CONTINUOUS
 62
     6
100
AcDbCircle
 10
1421.000599
 20
1246.455759
 30
0.0
 40
36.350098
100
AcDbArc
 50
89.999969
 51
145.620941
  0
ARC
  5
73F
100
AcDbEntity
  8
止水栓
  6
CONTINUOUS
 62
     6
100
AcDbCircle
 10
1391.0
 20
1051.508942
 30
0.0
 40
14.250727
100
AcDbArc
 50
84.179016
 51
95.820984
  0
ARC
  5
740
100
AcDbEntity
  8
止水栓
  6
CONTINUOUS
 62
     6
100
AcDbCircle
 10
1391.0
 20
1051.508942
 30
0.0
 40
14.250898
100
AcDbArc
 50
24.18074
 51
35.820297
  0
ARC
  5
741
100
AcDbEntity
  8
止水栓
  6
CONTINUOUS
 62
     6
100
AcDbCircle
 10
1391.0
 20
1051.508942
 30
0.0
 40
14.250441
100
AcDbArc
 50
324.180481
 51
335.81987
  0
ARC
  5
742
100
AcDbEntity
  8
止水栓
  6
CONTINUOUS
 62
     6
100
AcDbCircle
 10
1391.0
 20
1051.508942
 30
0.0
 40
14.250727
100
AcDbArc
 50
264.179016
 51
275.820984
  0
ARC
  5
743
100
AcDbEntity
  8
止水栓
  6
CONTINUOUS
 62
     6
100
AcDbCircle
 10
1391.0
 20
1051.508942
 30
0.0
 40
5.798589
100
AcDbArc
 50
180.530731
 51
179.999969
  0
ARC
  5
744
100
AcDbEntity
  8
止水栓
  6
CONTINUOUS
 62
     6
100
AcDbCircle
 10
1391.0
 20
1051.508942
 30
0.0
 40
4.748839
100
AcDbArc
 50
180.648041
 51
180.000092
  0
ARC
  5
745
100
AcDbEntity
  8
止水栓
  6
CONTINUOUS
 62
     6
100
AcDbCircle
 10
1421.000599
 20
1246.455759
 30
0.0
 40
36.349297
100
AcDbArc
 50
145.62149
 51
180.000015
  0
LINE
  5
746
100
AcDbEntity
  8
止水栓
  6
CONTINUOUS
 62
     6
100
AcDbLine
 10
1400.316406
 20
1071.508942
 30
0.0
 11
1401.500488
 21
1071.508942
 31
0.0
  0
LINE
  5
747
100
AcDbEntity
  8
止水栓
  6
CONTINUOUS
 62
     6
100
AcDbLine
 10
1380.501953
 20
1060.537262
 30
0.0
 11
1379.557129
 21
1060.000152
 31
0.0
  0
LINE
  5
748
100
AcDbEntity
  8
止水栓
  6
CONTINUOUS
 62
     6
100
AcDbLine
 10
1380.501953
 20
1061.142731
 30
0.0
 11
1380.501953
 21
1060.537262
 31
0.0
  0
LINE
  5
749
100
AcDbEntity
  8
止水栓
  6
CONTINUOUS
 62
     6
100
AcDbLine
 10
1401.500488
 20
1061.142731
 30
0.0
 11
1401.500488
 21
1060.456696
 31
0.0
  0
ARC
  5
74A
100
AcDbEntity
  8
止水栓
  6
CONTINUOUS
 62
     6
100
AcDbCircle
 10
1391.0
 20
1051.508942
 30
0.0
 40
14.248495
100
AcDbArc
 50
143.415161
 51
155.815567
  0
ARC
  5
74B
100
AcDbEntity
  8
止水栓
  6
CONTINUOUS
 62
     6
100
AcDbCircle
 10
1391.0
 20
1051.508942
 30
0.0
 40
14.248667
100
AcDbArc
 50
204.184753
 51
215.825424
  0
LINE
  5
74C
100
AcDbEntity
  8
止水栓
  6
CONTINUOUS
 62
     6
100
AcDbLine
 10
1382.999512
 20
1093.508911
 30
0.0
 11
1399.000488
 21
1093.508911
 31
0.0
  0
LINE
  5
74D
100
AcDbEntity
  8
止水栓
  6
CONTINUOUS
 62
     6
100
AcDbLine
 10
1379.500977
 20
1087.449341
 30
0.0
 11
1382.999512
 21
1093.508911
 31
0.0
  0
LINE
  5
74E
100
AcDbEntity
  8
止水栓
  6
CONTINUOUS
 62
     6
100
AcDbLine
 10
1379.500977
 20
1075.796509
 30
0.0
 11
1379.500977
 21
1087.449341
 31
0.0
  0
LINE
  5
74F
100
AcDbEntity
  8
止水栓
  6
CONTINUOUS
 62
     6
100
AcDbLine
 10
1379.500977
 20
1075.796509
 30
0.0
 11
1379.999023
 21
1075.508881
 31
0.0
  0
LINE
  5
750
100
AcDbEntity
  8
止水栓
  6
CONTINUOUS
 62
     6
100
AcDbLine
 10
1379.999023
 20
1075.508881
 30
0.0
 11
1402.000977
 21
1075.508881
 31
0.0
  0
LINE
  5
751
100
AcDbEntity
  8
止水栓
  6
CONTINUOUS
 62
     6
100
AcDbLine
 10
1402.000977
 20
1075.508881
 30
0.0
 11
1402.499023
 21
1075.796356
 31
0.0
  0
LINE
  5
752
100
AcDbEntity
  8
止水栓
  6
CONTINUOUS
 62
     6
100
AcDbLine
 10
1402.499023
 20
1075.796356
 30
0.0
 11
1402.499023
 21
1087.449188
 31
0.0
  0
LINE
  5
753
100
AcDbEntity
  8
止水栓
  6
CONTINUOUS
 62
     6
100
AcDbLine
 10
1402.499023
 20
1087.449188
 30
0.0
 11
1399.000488
 21
1093.508911
 31
0.0
  0
ARC
  5
754
100
AcDbEntity
  8
止水栓
  6
CONTINUOUS
 62
     6
100
AcDbCircle
 10
1396.749512
 20
1081.115265
 30
0.0
 40
6.333947
100
AcDbArc
 50
41.168259
 51
138.831726
  0
ARC
  5
755
100
AcDbEntity
  8
止水栓
  6
CONTINUOUS
 62
     6
100
AcDbCircle
 10
1385.250488
 20
1081.115265
 30
0.0
 40
6.333947
100
AcDbArc
 50
41.168259
 51
138.831726
  0
LINE
  5
756
100
AcDbEntity
  8
止水栓
  6
CONTINUOUS
 62
     6
100
AcDbLine
 10
1379.500977
 20
1085.284729
 30
0.0
 11
1380.482422
 21
1085.284729
 31
0.0
  0
LINE
  5
757
100
AcDbEntity
  8
止水栓
  6
CONTINUOUS
 62
     6
100
AcDbLine
 10
1390.018555
 20
1085.284729
 30
0.0
 11
1391.981445
 21
1085.284729
 31
0.0
  0
LINE
  5
758
100
AcDbEntity
  8
止水栓
  6
CONTINUOUS
 62
     6
100
AcDbLine
 10
1401.517578
 20
1085.284729
 30
0.0
 11
1402.499023
 21
1085.284729
 31
0.0
  0
LINE
  5
759
100
AcDbEntity
  8
止水栓
  6
CONTINUOUS
 62
     6
100
AcDbLine
 10
1401.517578
 20
1085.284729
 30
0.0
 11
1401.517578
 21
1075.796356
 31
0.0
  0
LINE
  5
75A
100
AcDbEntity
  8
止水栓
  6
CONTINUOUS
 62
     6
100
AcDbLine
 10
1391.981445
 20
1085.284729
 30
0.0
 11
1391.981445
 21
1075.796356
 31
0.0
  0
LINE
  5
75B
100
AcDbEntity
  8
止水栓
  6
CONTINUOUS
 62
     6
100
AcDbLine
 10
1390.018555
 20
1085.284729
 30
0.0
 11
1390.018555
 21
1075.796356
 31
0.0
  0
LINE
  5
75C
100
AcDbEntity
  8
止水栓
  6
CONTINUOUS
 62
     6
100
AcDbLine
 10
1380.482422
 20
1085.284729
 30
0.0
 11
1380.482422
 21
1075.796356
 31
0.0
  0
LINE
  5
75D
100
AcDbEntity
  8
止水栓
  6
CONTINUOUS
 62
     6
100
AcDbLine
 10
1380.501953
 20
1075.508881
 30
0.0
 11
1380.501953
 21
1061.142731
 31
0.0
  0
LINE
  5
75E
100
AcDbEntity
  8
止水栓
  6
CONTINUOUS
 62
     6
100
AcDbLine
 10
1381.686035
 20
1071.508942
 30
0.0
 11
1381.686035
 21
1075.508881
 31
0.0
  0
LINE
  5
75F
100
AcDbEntity
  8
止水栓
  6
CONTINUOUS
 62
     6
100
AcDbLine
 10
1400.316406
 20
1071.508942
 30
0.0
 11
1400.316406
 21
1075.508881
 31
0.0
  0
LINE
  5
760
100
AcDbEntity
  8
止水栓
  6
CONTINUOUS
 62
     6
100
AcDbLine
 10
1401.500488
 20
1075.508881
 30
0.0
 11
1401.500488
 21
1061.142731
 31
0.0
  0
LINE
  5
761
100
AcDbEntity
  8
止水栓
  6
CONTINUOUS
 62
     6
100
AcDbLine
 10
1384.652344
 20
1093.508911
 30
0.0
 11
1384.652344
 21
1246.730847
 31
0.0
  0
LINE
  5
762
100
AcDbEntity
  8
止水栓
  6
CONTINUOUS
 62
     6
100
AcDbLine
 10
1397.350098
 20
1093.508911
 30
0.0
 11
1397.350098
 21
1246.455759
 31
0.0
  0
LINE
  5
763
100
AcDbEntity
  8
止水栓
  6
CONTINUOUS
 62
     6
100
AcDbLine
 10
1392.445313
 20
1037.331696
 30
0.0
 11
1402.555176
 21
1043.169098
 31
0.0
  0
LINE
  5
764
100
AcDbEntity
  8
止水栓
  6
CONTINUOUS
 62
     6
100
AcDbLine
 10
1404.000488
 20
1045.671539
 30
0.0
 11
1404.000488
 21
1057.346344
 31
0.0
  0
LINE
  5
765
100
AcDbEntity
  8
止水栓
  6
CONTINUOUS
 62
     6
100
AcDbLine
 10
1389.554688
 20
1065.686188
 30
0.0
 11
1379.55957
 21
1060.00061
 31
0.0
  0
LINE
  5
766
100
AcDbEntity
  8
止水栓
  6
CONTINUOUS
 62
     6
100
AcDbLine
 10
1400.316406
 20
1071.508942
 30
0.0
 11
1380.501953
 21
1071.508942
 31
0.0
  0
LINE
  5
767
100
AcDbEntity
  8
止水栓
  6
CONTINUOUS
 62
     6
100
AcDbLine
 10
1392.000977
 20
1056.152496
 30
0.0
 11
1392.000977
 21
1046.865387
 31
0.0
  0
LINE
  5
768
100
AcDbEntity
  8
止水栓
  6
CONTINUOUS
 62
     6
100
AcDbLine
 10
1390.001465
 20
1046.865387
 30
0.0
 11
1390.001465
 21
1056.152496
 31
0.0
  0
CIRCLE
  5
769
100
AcDbEntity
  8
止水栓
  6
CONTINUOUS
 62
     6
100
AcDbCircle
 10
1391.0
 20
1051.508942
 30
0.0
 40
11.750031
  0
ARC
  5
76A
100
AcDbEntity
  8
止水栓
  6
CONTINUOUS
 62
     6
100
AcDbCircle
 10
1391.0
 20
1051.455231
 30
0.0
 40
27.499275
100
AcDbArc
 50
115.623245
 51
65.281754
  0
LINE
  5
76B
100
AcDbEntity
  8
止水栓
  6
CONTINUOUS
 62
     6
100
AcDbLine
 10
1378.001953
 20
1057.345886
 30
0.0
 11
1378.001953
 21
1045.671539
 31
0.0
  0
LINE
  5
76C
100
AcDbEntity
  8
止水栓
  6
CONTINUOUS
 62
     6
100
AcDbLine
 10
1379.447266
 20
1043.169098
 30
0.0
 11
1389.55957
 21
1037.331238
 31
0.0
  0
LINE
  5
76D
100
AcDbEntity
  8
止水栓
  6
CONTINUOUS
 62
     6
100
AcDbLine
 10
1402.557617
 20
1059.846191
 30
0.0
 11
1392.445313
 21
1065.686188
 31
0.0
  0
LINE
  5
76E
100
AcDbEntity
  8
止水栓
  6
CONTINUOUS
 62
     6
100
AcDbLine
 10
1437.473145
 20
1287.460521
 30
0.0
 11
1437.473145
 21
1265.456432
 31
0.0
  0
ARC
  5
76F
100
AcDbEntity
  8
止水栓
  6
CONTINUOUS
 62
     6
100
AcDbCircle
 10
1443.5
 20
1274.658443
 30
0.0
 40
11.0
100
AcDbArc
 50
236.777222
 51
303.05574
  0
ARC
  5
770
100
AcDbEntity
  8
止水栓
  6
CONTINUOUS
 62
     6
100
AcDbCircle
 10
1443.5
 20
1278.258449
 30
0.0
 40
11.0
100
AcDbArc
 50
56.94426
 51
123.222778
  0
LINE
  5
771
100
AcDbEntity
  8
止水栓
  6
CONTINUOUS
 62
     6
100
AcDbLine
 10
1449.5
 20
1265.438899
 30
0.0
 11
1449.5
 21
1287.478099
 31
0.0
  0
ELLIPSE
  5
772
100
AcDbEntity
  8
止水栓
  6
CONTINUOUS
 62
     6
100
AcDbEllipse
 10
1443.5
 20
1286.417738
 30
0.0
 11
5.1874906428820005
 21
0.0
 31
0.0
210
0.0
220
0.0
230
1.0
 40
0.530669
 41
0.0
 42
6.2831853071796004
  0
ELLIPSE
  5
773
100
AcDbEntity
  8
止水栓
  6
CONTINUOUS
 62
     6
100
AcDbEllipse
 10
1443.5
 20
1276.458446
 30
0.0
 11
0.0000000000000039
 21
-5.5056788863860024
 31
0.0
210
0.0
220
0.0
230
1.0
 40
0.942207
 41
0.0
 42
6.2831853071796004
  0
ELLIPSE
  5
774
100
AcDbEntity
  8
止水栓
  6
CONTINUOUS
 62
     6
100
AcDbEllipse
 10
1443.5
 20
1266.499154
 30
0.0
 11
5.1874906428820005
 21
0.0
 31
0.0
210
0.0
220
0.0
230
1.0
 40
0.530669
 41
0.0
 42
6.2831853071796004
  0
ARC
  5
775
100
AcDbEntity
  8
便座
  6
CONTINUOUS
 62
     6
100
AcDbCircle
 10
657.071228
 20
-2421.653198
 30
0.0
 40
5000.0
100
AcDbArc
 50
89.201263
 51
90.468475
  0
ARC
  5
776
100
AcDbEntity
  8
便座
  6
CONTINUOUS
 62
     6
100
AcDbCircle
 10
621.522132
 20
2572.386979
 30
0.0
 40
2.338
100
AcDbArc
 50
90.407842
 51
180.0
  0
ARC
  5
777
100
AcDbEntity
  8
便座
  6
CONTINUOUS
 62
     6
100
AcDbCircle
 10
621.522132
 20
2572.386979
 30
0.0
 40
5.0
100
AcDbArc
 50
90.407842
 51
180.0
  0
ARC
  5
778
100
AcDbEntity
  8
便座
  6
CONTINUOUS
 62
     6
100
AcDbCircle
 10
657.071228
 20
-2421.653198
 30
0.0
 40
4999.1667
100
AcDbArc
 50
90.407842
 51
90.468477
  0
ARC
  5
779
100
AcDbEntity
  8
便座
  6
CONTINUOUS
 62
     6
100
AcDbCircle
 10
636.520142
 20
2542.307617
 30
0.0
 40
26.0
100
AcDbArc
 50
90.236725
 51
180.0
  0
ARC
  5
77A
100
AcDbEntity
  8
便座
  6
CONTINUOUS
 62
     6
100
AcDbCircle
 10
621.522132
 20
2188.306381
 30
0.0
 40
2.338
100
AcDbArc
 50
180.0
 51
269.592158
  0
ARC
  5
77B
100
AcDbEntity
  8
便座
  6
CONTINUOUS
 62
     6
100
AcDbCircle
 10
657.071228
 20
7182.346558
 30
0.0
 40
4999.1667
100
AcDbArc
 50
269.531523
 51
269.592158
  0
ARC
  5
77C
100
AcDbEntity
  8
便座
  6
CONTINUOUS
 62
     6
100
AcDbCircle
 10
621.522132
 20
2188.306381
 30
0.0
 40
5.0
100
AcDbArc
 50
180.0
 51
269.592158
  0
ARC
  5
77D
100
AcDbEntity
  8
便座
  6
CONTINUOUS
 62
     6
100
AcDbCircle
 10
230.471069
 20
2380.34668
 30
0.0
 40
400.0
100
AcDbArc
 50
340.336792
 51
19.663208
  0
ARC
  5
77E
100
AcDbEntity
  8
便座
  6
CONTINUOUS
 62
     6
100
AcDbCircle
 10
657.071228
 20
7182.34668
 30
0.0
 40
5000.0
100
AcDbArc
 50
269.531494
 51
269.72937
  0
ARC
  5
77F
100
AcDbEntity
  8
便座
  6
CONTINUOUS
 62
     6
100
AcDbCircle
 10
230.471069
 20
2380.34668
 30
0.0
 40
403.0
100
AcDbArc
 50
340.840555
 51
19.159445
  0
LINE
  5
780
100
AcDbEntity
  8
便座
  6
CONTINUOUS
 62
     6
100
AcDbLine
 10
606.271118
 20
2519.990234
 30
0.0
 11
606.271118
 21
2568.180176
 31
0.0
  0
LINE
  5
781
100
AcDbEntity
  8
便座
  6
CONTINUOUS
 62
     6
100
AcDbLine
 10
606.271118
 20
2192.513184
 30
0.0
 11
606.271118
 21
2240.703125
 31
0.0
  0
ARC
  5
782
100
AcDbEntity
  8
便座
  6
CONTINUOUS
 62
     6
100
AcDbCircle
 10
616.271118
 20
2192.513184
 30
0.0
 40
10.0
100
AcDbArc
 50
180.0
 51
269.531372
  0
LINE
  5
783
100
AcDbEntity
  8
便座
  6
CONTINUOUS
 62
     6
100
AcDbLine
 10
619.184132
 20
2188.306381
 30
0.0
 11
619.184132
 21
2191.175187
 31
0.0
  0
ARC
  5
784
100
AcDbEntity
  8
便座
  6
CONTINUOUS
 62
     6
100
AcDbCircle
 10
616.271118
 20
2192.513184
 30
0.0
 40
9.1667
100
AcDbArc
 50
180.0
 51
269.531372
  0
LINE
  5
785
100
AcDbEntity
  8
便座
  6
CONTINUOUS
 62
     6
100
AcDbLine
 10
607.104418
 20
2192.513184
 30
0.0
 11
607.104418
 21
2197.775187
 31
0.0
  0
LINE
  5
786
100
AcDbEntity
  8
便座
  6
CONTINUOUS
 62
     6
100
AcDbLine
 10
616.522132
 20
2188.306381
 30
0.0
 11
616.522132
 21
2191.175187
 31
0.0
  0
ARC
  5
787
100
AcDbEntity
  8
便座
  6
CONTINUOUS
 62
     6
100
AcDbCircle
 10
614.922132
 20
2191.175187
 30
0.0
 40
1.6
100
AcDbArc
 50
0.0
 51
90.0
  0
ARC
  5
788
100
AcDbEntity
  8
便座
  6
CONTINUOUS
 62
     6
100
AcDbCircle
 10
614.922132
 20
2191.175187
 30
0.0
 40
4.262
100
AcDbArc
 50
0.0
 51
90.0
  0
LINE
  5
789
100
AcDbEntity
  8
便座
  6
CONTINUOUS
 62
     6
100
AcDbLine
 10
614.922132
 20
2192.775187
 30
0.0
 11
612.104418
 21
2192.775187
 31
0.0
  0
ARC
  5
78A
100
AcDbEntity
  8
便座
  6
CONTINUOUS
 62
     6
100
AcDbCircle
 10
612.104418
 20
2197.775187
 30
0.0
 40
5.0
100
AcDbArc
 50
180.0
 51
270.0
  0
LINE
  5
78B
100
AcDbEntity
  8
便座
  6
CONTINUOUS
 62
     6
100
AcDbLine
 10
614.922132
 20
2195.437187
 30
0.0
 11
612.104418
 21
2195.437187
 31
0.0
  0
ARC
  5
78C
100
AcDbEntity
  8
便座
  6
CONTINUOUS
 62
     6
100
AcDbCircle
 10
612.104418
 20
2197.775187
 30
0.0
 40
2.338
100
AcDbArc
 50
180.0
 51
270.0
  0
ARC
  5
78D
100
AcDbEntity
  8
便座
  6
CONTINUOUS
 62
     6
100
AcDbCircle
 10
621.271118
 20
2240.703125
 30
0.0
 40
15.0
100
AcDbArc
 50
160.336731
 51
180.0
  0
LINE
  5
78E
100
AcDbEntity
  8
便座
  6
CONTINUOUS
 62
     6
100
AcDbLine
 10
610.520142
 20
2517.603865
 30
0.0
 11
610.520142
 21
2541.807617
 31
0.0
  0
ARC
  5
78F
100
AcDbEntity
  8
便座
  6
CONTINUOUS
 62
     6
100
AcDbCircle
 10
625.520142
 20
2517.603865
 30
0.0
 40
15.0
100
AcDbArc
 50
180.0
 51
199.313711
  0
ARC
  5
790
100
AcDbEntity
  8
便座
  6
CONTINUOUS
 62
     6
100
AcDbCircle
 10
621.271118
 20
2519.990234
 30
0.0
 40
15.0
100
AcDbArc
 50
180.0
 51
199.663269
  0
ARC
  5
791
100
AcDbEntity
  8
便座
  6
CONTINUOUS
 62
     6
100
AcDbCircle
 10
612.104418
 20
2562.918173
 30
0.0
 40
2.338
100
AcDbArc
 50
90.0
 51
180.0
  0
LINE
  5
792
100
AcDbEntity
  8
便座
  6
CONTINUOUS
 62
     6
100
AcDbLine
 10
607.104418
 20
2568.180176
 30
0.0
 11
607.104418
 21
2562.918173
 31
0.0
  0
ARC
  5
793
100
AcDbEntity
  8
便座
  6
CONTINUOUS
 62
     6
100
AcDbCircle
 10
612.104418
 20
2562.918173
 30
0.0
 40
5.0
100
AcDbArc
 50
90.0
 51
180.0
  0
LINE
  5
794
100
AcDbEntity
  8
便座
  6
CONTINUOUS
 62
     6
100
AcDbLine
 10
614.922132
 20
2567.918173
 30
0.0
 11
612.104418
 21
2567.918173
 31
0.0
  0
ARC
  5
795
100
AcDbEntity
  8
便座
  6
CONTINUOUS
 62
     6
100
AcDbCircle
 10
614.922132
 20
2569.518173
 30
0.0
 40
1.6
100
AcDbArc
 50
270.0
 51
0.0
  0
LINE
  5
796
100
AcDbEntity
  8
便座
  6
CONTINUOUS
 62
     6
100
AcDbLine
 10
614.922132
 20
2565.256173
 30
0.0
 11
612.104418
 21
2565.256173
 31
0.0
  0
ARC
  5
797
100
AcDbEntity
  8
便座
  6
CONTINUOUS
 62
     6
100
AcDbCircle
 10
614.922132
 20
2569.518173
 30
0.0
 40
4.262
100
AcDbArc
 50
270.0
 51
0.0
  0
LINE
  5
798
100
AcDbEntity
  8
便座
  6
CONTINUOUS
 62
     6
100
AcDbLine
 10
619.184132
 20
2572.386979
 30
0.0
 11
619.184132
 21
2569.518173
 31
0.0
  0
LINE
  5
799
100
AcDbEntity
  8
便座
  6
CONTINUOUS
 62
     6
100
AcDbLine
 10
616.522132
 20
2572.386979
 30
0.0
 11
616.522132
 21
2569.518173
 31
0.0
  0
ARC
  5
79A
100
AcDbEntity
  8
便座
  6
CONTINUOUS
 62
     6
100
AcDbCircle
 10
616.271118
 20
2568.180176
 30
0.0
 40
9.1667
100
AcDbArc
 50
90.468628
 51
180.0
  0
ARC
  5
79B
100
AcDbEntity
  8
便座
  6
CONTINUOUS
 62
     6
100
AcDbCircle
 10
616.271118
 20
2568.180176
 30
0.0
 40
10.0
100
AcDbArc
 50
90.468628
 51
180.0
  0
ARC
  5
79C
100
AcDbEntity
  8
便座
  6
CONTINUOUS
 62
     6
100
AcDbCircle
 10
887.079437
 20
2314.719807
 30
0.0
 40
250.0
100
AcDbArc
 50
46.818321
 51
82.884517
  0
LINE
  5
79D
100
AcDbEntity
  8
便座
  6
CONTINUOUS
 62
     6
100
AcDbLine
 10
652.494751
 20
2567.086914
 30
0.0
 11
652.494751
 21
2523.520142
 31
0.0
  0
LINE
  5
79E
100
AcDbEntity
  8
便座
  6
CONTINUOUS
 62
     6
100
AcDbLine
 10
667.667695
 20
2525.846649
 30
0.0
 11
667.667695
 21
2571.34668
 31
0.0
  0
ARC
  5
79F
100
AcDbEntity
  8
便座
  6
CONTINUOUS
 62
     6
100
AcDbCircle
 10
887.079437
 20
2445.973553
 30
0.0
 40
250.0
100
AcDbArc
 50
277.115483
 51
313.181679
  0
LINE
  5
7A0
100
AcDbEntity
  8
便座
  6
CONTINUOUS
 62
     6
100
AcDbLine
 10
712.035615
 20
2240.346296
 30
0.0
 11
712.035615
 21
2520.347046
 31
0.0
  0
LINE
  5
7A1
100
AcDbEntity
  8
便座
  6
CONTINUOUS
 62
     6
100
AcDbLine
 10
705.671143
 20
2515.912842
 30
0.0
 11
705.671143
 21
2245.173218
 31
0.0
  0
LINE
  5
7A2
100
AcDbEntity
  8
便座
  6
CONTINUOUS
 62
     6
100
AcDbLine
 10
722.667695
 20
2242.846711
 30
0.0
 11
722.667695
 21
2517.846649
 31
0.0
  0
ARC
  5
7A3
100
AcDbEntity
  8
便座
  6
CONTINUOUS
 62
     6
100
AcDbCircle
 10
732.242404
 20
3686.34668
 30
0.0
 40
1500.0
100
AcDbArc
 50
270.0
 51
277.115483
  0
ARC
  5
7A4
100
AcDbEntity
  8
便座
  6
CONTINUOUS
 62
     6
100
AcDbCircle
 10
657.071228
 20
7182.346802
 30
0.0
 40
5000.0
100
AcDbArc
 50
270.155697
 51
270.798706
  0
LINE
  5
7A5
100
AcDbEntity
  8
便座
  6
CONTINUOUS
 62
     6
100
AcDbLine
 10
739.586762
 20
2186.346665
 30
0.0
 11
670.667695
 21
2186.346665
 31
0.0
  0
ARC
  5
7A6
100
AcDbEntity
  8
便座
  6
CONTINUOUS
 62
     6
100
AcDbCircle
 10
728.290588
 20
2783.838623
 30
0.0
 40
600.0
100
AcDbArc
 50
265.256706
 51
269.798645
  0
ARC
  5
7A7
100
AcDbEntity
  8
便座
  6
CONTINUOUS
 62
     6
100
AcDbCircle
 10
652.072449
 20
2236.76764
 30
0.0
 40
70.0
100
AcDbArc
 50
259.056093
 51
280.865979
  0
ARC
  5
7A8
100
AcDbEntity
  8
便座
  6
CONTINUOUS
 62
     6
100
AcDbCircle
 10
728.290588
 20
2783.838623
 30
0.0
 40
600.0
100
AcDbArc
 50
263.183472
 51
264.343005
  0
LINE
  5
7A9
100
AcDbEntity
  8
便座
  6
CONTINUOUS
 62
     6
100
AcDbLine
 10
637.072449
 20
2180.348023
 30
0.0
 11
667.072449
 21
2180.348023
 31
0.0
  0
ARC
  5
7AA
100
AcDbEntity
  8
便座
  6
CONTINUOUS
 62
     6
100
AcDbCircle
 10
652.084045
 20
2110.70337
 30
0.0
 40
73.932365
100
AcDbArc
 50
75.821838
 51
104.196686
  0
ARC
  5
7AB
100
AcDbEntity
  8
便座
  6
CONTINUOUS
 62
     6
100
AcDbCircle
 10
652.072449
 20
1893.502564
 30
0.0
 40
287.417236
100
AcDbArc
 50
86.490021
 51
93.390076
  0
LINE
  5
7AC
100
AcDbEntity
  8
便座
  6
CONTINUOUS
 62
     6
100
AcDbLine
 10
634.452026
 20
2180.348023
 30
0.0
 11
669.692871
 21
2180.348023
 31
0.0
  0
ARC
  5
7AD
100
AcDbEntity
  8
便座
  6
CONTINUOUS
 62
     6
100
AcDbCircle
 10
652.072449
 20
2182.419801
 30
0.0
 40
1.0
100
AcDbArc
 50
180.0
 51
0.0
  0
LINE
  5
7AE
100
AcDbEntity
  8
便座
  6
CONTINUOUS
 62
     6
100
AcDbLine
 10
633.952026
 20
2181.903565
 30
0.0
 11
633.952026
 21
2180.848023
 31
0.0
  0
ARC
  5
7AF
100
AcDbEntity
  8
便座
  6
CONTINUOUS
 62
     6
100
AcDbCircle
 10
639.253609
 20
2169.986824
 30
0.0
 40
2.0
100
AcDbArc
 50
181.0
 51
259.134021
  0
LINE
  5
7B0
100
AcDbEntity
  8
便座
  6
CONTINUOUS
 62
     6
100
AcDbLine
 10
637.072449
 20
2180.348023
 30
0.0
 11
637.253914
 21
2169.95192
 31
0.0
  0
ARC
  5
7B1
100
AcDbEntity
  8
便座
  6
CONTINUOUS
 62
     6
100
AcDbCircle
 10
634.452026
 20
2180.848023
 30
0.0
 40
0.5
100
AcDbArc
 50
180.0
 51
270.0
  0
ARC
  5
7B2
100
AcDbEntity
  8
便座
  6
CONTINUOUS
 62
     6
100
AcDbCircle
 10
633.452026
 20
2181.903565
 30
0.0
 40
0.5
100
AcDbArc
 50
0.0
 51
89.734283
  0
LINE
  5
7B3
100
AcDbEntity
  8
便座
  6
CONTINUOUS
 62
     6
100
AcDbLine
 10
652.895203
 20
2191.559326
 30
0.0
 11
652.720398
 21
2192.121338
 31
0.0
  0
ARC
  5
7B4
100
AcDbEntity
  8
便座
  6
CONTINUOUS
 62
     6
100
AcDbCircle
 10
657.669556
 20
2193.044434
 30
0.0
 40
5.0
100
AcDbArc
 50
197.278809
 51
263.183472
  0
LINE
  5
7B5
100
AcDbEntity
  8
便座
  6
CONTINUOUS
 62
     6
100
AcDbLine
 10
651.072449
 20
2184.635743
 30
0.0
 11
651.072449
 21
2182.419801
 31
0.0
  0
LINE
  5
7B6
100
AcDbEntity
  8
便座
  6
CONTINUOUS
 62
     6
100
AcDbLine
 10
653.072449
 20
2184.629151
 30
0.0
 11
653.072449
 21
2182.419801
 31
0.0
  0
LINE
  5
7B7
100
AcDbEntity
  8
便座
  6
CONTINUOUS
 62
     6
100
AcDbLine
 10
670.192871
 20
2181.866456
 30
0.0
 11
670.192871
 21
2180.848023
 31
0.0
  0
ARC
  5
7B8
100
AcDbEntity
  8
便座
  6
CONTINUOUS
 62
     6
100
AcDbCircle
 10
664.891289
 20
2169.986824
 30
0.0
 40
2.0
100
AcDbArc
 50
280.865979
 51
359.0
  0
LINE
  5
7B9
100
AcDbEntity
  8
便座
  6
CONTINUOUS
 62
     6
100
AcDbLine
 10
667.072449
 20
2180.348023
 30
0.0
 11
666.890984
 21
2169.95192
 31
0.0
  0
ARC
  5
7BA
100
AcDbEntity
  8
便座
  6
CONTINUOUS
 62
     6
100
AcDbCircle
 10
669.692871
 20
2180.848023
 30
0.0
 40
0.5
100
AcDbArc
 50
270.0
 51
0.0
  0
ARC
  5
7BB
100
AcDbEntity
  8
便座
  6
CONTINUOUS
 62
     6
100
AcDbCircle
 10
670.692871
 20
2181.866456
 30
0.0
 40
0.5
100
AcDbArc
 50
90.15387
 51
180.0
  0
ARC
  5
7BC
100
AcDbEntity
  8
便座
  6
CONTINUOUS
 62
     6
100
AcDbCircle
 10
728.290588
 20
2783.838623
 30
0.0
 40
600.0
100
AcDbArc
 50
264.759387
 51
265.256384
  0
ARC
  5
7BD
100
AcDbEntity
  8
便座
  6
CONTINUOUS
 62
     6
100
AcDbCircle
 10
670.667695
 20
2189.346665
 30
0.0
 40
3.0
100
AcDbArc
 50
194.481668
 51
270.0
  0
ARC
  5
7BE
100
AcDbEntity
  8
便座
  6
CONTINUOUS
 62
     6
100
AcDbCircle
 10
726.674988
 20
2189.832764
 30
0.0
 40
7.0
100
AcDbArc
 50
270.798828
 51
330.131438
  0
ARC
  5
7BF
100
AcDbEntity
  8
便座
  6
CONTINUOUS
 62
     6
100
AcDbCircle
 10
726.206665
 20
2190.842285
 30
0.0
 40
7.0
100
AcDbArc
 50
269.798645
 51
320.041747
  0
LINE
  5
7C0
100
AcDbEntity
  8
便座
  6
CONTINUOUS
 62
     6
100
AcDbLine
 10
671.668109
 20
2522.347044
 30
0.0
 11
710.035541
 21
2522.347064
 31
0.0
  0
ARC
  5
7C1
100
AcDbEntity
  8
便座
  6
CONTINUOUS
 62
     6
100
AcDbCircle
 10
702.671143
 20
2515.520142
 30
0.0
 40
3.0
100
AcDbArc
 50
0.0
 51
90.0
  0
LINE
  5
7C2
100
AcDbEntity
  8
便座
  6
CONTINUOUS
 62
     6
100
AcDbLine
 10
717.667695
 20
2522.846649
 30
0.0
 11
670.667695
 21
2522.846649
 31
0.0
  0
LINE
  5
7C3
100
AcDbEntity
  8
便座
  6
CONTINUOUS
 62
     6
100
AcDbLine
 10
702.671143
 20
2518.520142
 30
0.0
 11
657.494751
 21
2518.520142
 31
0.0
  0
ARC
  5
7C4
100
AcDbEntity
  8
便座
  6
CONTINUOUS
 62
     6
100
AcDbCircle
 10
657.494751
 20
2523.520142
 30
0.0
 40
5.0
100
AcDbArc
 50
180.0
 51
270.0
  0
LINE
  5
7C5
100
AcDbEntity
  8
便座
  6
CONTINUOUS
 62
     6
100
AcDbLine
 10
680.201233
 20
2518.946655
 30
0.0
 11
685.002502
 21
2518.946655
 31
0.0
  0
ARC
  5
7C6
100
AcDbEntity
  8
便座
  6
CONTINUOUS
 62
     6
100
AcDbCircle
 10
684.562805
 20
2523.214515
 30
0.0
 40
4.0
100
AcDbArc
 50
231.202598
 51
270.0
  0
LINE
  5
7C7
100
AcDbEntity
  8
便座
  6
CONTINUOUS
 62
     6
100
AcDbLine
 10
695.16811
 20
2520.097056
 30
0.0
 11
670.16811
 21
2520.097043
 31
0.0
  0
ARC
  5
7C8
100
AcDbEntity
  8
便座
  6
CONTINUOUS
 62
     6
100
AcDbCircle
 10
670.16811
 20
2521.097043
 30
0.0
 40
1.0
100
AcDbArc
 50
180.0
 51
270.0
  0
LINE
  5
7C9
100
AcDbEntity
  8
便座
  6
CONTINUOUS
 62
     6
100
AcDbLine
 10
669.168109
 20
2523.248367
 30
0.0
 11
669.16811
 21
2521.097042
 31
0.0
  0
ARC
  5
7CA
100
AcDbEntity
  8
便座
  6
CONTINUOUS
 62
     6
100
AcDbCircle
 10
671.668107
 20
2525.347044
 30
0.0
 40
3.0
100
AcDbArc
 50
232.719738
 51
270.0
  0
LINE
  5
7CB
100
AcDbEntity
  8
便座
  6
CONTINUOUS
 62
     6
100
AcDbLine
 10
668.996005
 20
2523.355608
 30
0.0
 11
668.996005
 21
2518.824381
 31
0.0
  0
LINE
  5
7CC
100
AcDbEntity
  8
便座
  6
CONTINUOUS
 62
     6
100
AcDbLine
 10
673.782805
 20
2520.097045
 30
0.0
 11
673.782805
 21
2518.946421
 31
0.0
  0
ARC
  5
7CD
100
AcDbEntity
  8
便座
  6
CONTINUOUS
 62
     6
100
AcDbCircle
 10
670.667695
 20
2525.846649
 30
0.0
 40
2.999998
100
AcDbArc
 50
180.0
 51
270.0
  0
LINE
  5
7CE
100
AcDbEntity
  8
便座
  6
CONTINUOUS
 62
     6
100
AcDbLine
 10
696.168109
 20
2522.347057
 30
0.0
 11
696.16811
 21
2521.097057
 31
0.0
  0
ARC
  5
7CF
100
AcDbEntity
  8
便座
  6
CONTINUOUS
 62
     6
100
AcDbCircle
 10
695.16811
 20
2521.097056
 30
0.0
 40
1.0
100
AcDbArc
 50
270.0
 51
0.0
  0
ARC
  5
7D0
100
AcDbEntity
  8
便座
  6
CONTINUOUS
 62
     6
100
AcDbCircle
 10
710.035542
 20
2520.347064
 30
0.0
 40
2.0
100
AcDbArc
 50
0.0
 51
90.0
  0
ARC
  5
7D1
100
AcDbEntity
  8
便座
  6
CONTINUOUS
 62
     6
100
AcDbCircle
 10
717.667695
 20
2517.846649
 30
0.0
 40
4.999998
100
AcDbArc
 50
0.0
 51
89.999969
  0
ARC
  5
7D2
100
AcDbEntity
  8
便座
  6
CONTINUOUS
 62
     6
100
AcDbCircle
 10
948.667695
 20
2380.34668
 30
0.0
 40
160.0
100
AcDbArc
 50
312.204833
 51
332.076826
  0
ARC
  5
7D3
100
AcDbEntity
  8
便座
  6
CONTINUOUS
 62
     6
100
AcDbCircle
 10
954.35239
 20
2380.34668
 30
0.0
 40
155.0
100
AcDbArc
 50
331.092742
 51
28.907257
  0
ARC
  5
7D4
100
AcDbEntity
  8
便座
  6
CONTINUOUS
 62
     6
100
AcDbCircle
 10
948.667695
 20
2380.34668
 30
0.0
 40
160.0
100
AcDbArc
 50
27.923174
 51
47.795167
  0
ARC
  5
7D5
100
AcDbEntity
  8
便座
  6
CONTINUOUS
 62
     6
100
AcDbCircle
 10
732.242404
 20
1074.34668
 30
0.0
 40
1500.0
100
AcDbArc
 50
82.884517
 51
90.0
  0
ARC
  5
7D6
100
AcDbEntity
  8
便座
  6
CONTINUOUS
 62
     6
100
AcDbCircle
 10
728.290588
 20
1976.854736
 30
0.0
 40
600.0
100
AcDbArc
 50
90.201054
 51
95.240612
  0
LINE
  5
7D7
100
AcDbEntity
  8
便座
  6
CONTINUOUS
 62
     6
100
AcDbLine
 10
739.586762
 20
2574.34668
 30
0.0
 11
670.667695
 21
2574.34668
 31
0.0
  0
ARC
  5
7D8
100
AcDbEntity
  8
便座
  6
CONTINUOUS
 62
     6
100
AcDbCircle
 10
728.290588
 20
1976.854736
 30
0.0
 40
600.0
100
AcDbArc
 50
95.656992
 51
96.816559
  0
ARC
  5
7D9
100
AcDbEntity
  8
便座
  6
CONTINUOUS
 62
     6
100
AcDbCircle
 10
657.071228
 20
-2431.64978
 30
0.0
 40
5000.0
100
AcDbArc
 50
90.066467
 51
90.23673
  0
LINE
  5
7DA
100
AcDbEntity
  8
便座
  6
CONTINUOUS
 62
     6
100
AcDbLine
 10
652.895203
 20
2569.134094
 30
0.0
 11
652.720398
 21
2568.572021
 31
0.0
  0
ARC
  5
7DB
100
AcDbEntity
  8
便座
  6
CONTINUOUS
 62
     6
100
AcDbCircle
 10
657.494751
 20
2567.086914
 30
0.0
 40
5.0
100
AcDbArc
 50
162.719849
 51
180.0
  0
ARC
  5
7DC
100
AcDbEntity
  8
便座
  6
CONTINUOUS
 62
     6
100
AcDbCircle
 10
657.669556
 20
2567.648926
 30
0.0
 40
5.0
100
AcDbArc
 50
96.816345
 51
162.720337
  0
ARC
  5
7DD
100
AcDbEntity
  8
便座
  6
CONTINUOUS
 62
     6
100
AcDbCircle
 10
670.667695
 20
2571.34668
 30
0.0
 40
3.0
100
AcDbArc
 50
90.0
 51
180.0
  0
ARC
  5
7DE
100
AcDbEntity
  8
便座
  6
CONTINUOUS
 62
     6
100
AcDbCircle
 10
726.674988
 20
2570.860596
 30
0.0
 40
7.0
100
AcDbArc
 50
29.868562
 51
89.201172
  0
ARC
  5
7DF
100
AcDbEntity
  8
便座
  6
CONTINUOUS
 62
     6
100
AcDbCircle
 10
726.206665
 20
2569.851075
 30
0.0
 40
7.0
100
AcDbArc
 50
39.958253
 51
90.201355
  0
LINE
  5
7E0
100
AcDbEntity
  8
便座
  6
CONTINUOUS
 62
     6
100
AcDbLine
 10
671.668109
 20
2238.346316
 30
0.0
 11
710.035541
 21
2238.346296
 31
0.0
  0
ARC
  5
7E1
100
AcDbEntity
  8
便座
  6
CONTINUOUS
 62
     6
100
AcDbCircle
 10
702.671143
 20
2245.173218
 30
0.0
 40
3.0
100
AcDbArc
 50
270.0
 51
0.0
  0
LINE
  5
7E2
100
AcDbEntity
  8
便座
  6
CONTINUOUS
 62
     6
100
AcDbLine
 10
717.667695
 20
2237.846711
 30
0.0
 11
670.667695
 21
2237.846711
 31
0.0
  0
LINE
  5
7E3
100
AcDbEntity
  8
便座
  6
CONTINUOUS
 62
     6
100
AcDbLine
 10
702.671143
 20
2242.173218
 30
0.0
 11
657.494751
 21
2242.173218
 31
0.0
  0
ARC
  5
7E4
100
AcDbEntity
  8
便座
  6
CONTINUOUS
 62
     6
100
AcDbCircle
 10
657.494751
 20
2237.173218
 30
0.0
 40
5.0
100
AcDbArc
 50
90.0
 51
180.0
  0
LINE
  5
7E5
100
AcDbEntity
  8
便座
  6
CONTINUOUS
 62
     6
100
AcDbLine
 10
680.201233
 20
2241.746705
 30
0.0
 11
685.002502
 21
2241.746705
 31
0.0
  0
ARC
  5
7E6
100
AcDbEntity
  8
便座
  6
CONTINUOUS
 62
     6
100
AcDbCircle
 10
684.562805
 20
2237.478845
 30
0.0
 40
4.0
100
AcDbArc
 50
90.0
 51
128.797402
  0
LINE
  5
7E7
100
AcDbEntity
  8
便座
  6
CONTINUOUS
 62
     6
100
AcDbLine
 10
695.16811
 20
2240.596304
 30
0.0
 11
670.16811
 21
2240.596317
 31
0.0
  0
ARC
  5
7E8
100
AcDbEntity
  8
便座
  6
CONTINUOUS
 62
     6
100
AcDbCircle
 10
670.16811
 20
2239.596317
 30
0.0
 40
1.0
100
AcDbArc
 50
90.0
 51
180.0
  0
LINE
  5
7E9
100
AcDbEntity
  8
便座
  6
CONTINUOUS
 62
     6
100
AcDbLine
 10
669.168109
 20
2237.444993
 30
0.0
 11
669.16811
 21
2239.596318
 31
0.0
  0
ARC
  5
7EA
100
AcDbEntity
  8
便座
  6
CONTINUOUS
 62
     6
100
AcDbCircle
 10
671.668107
 20
2235.346316
 30
0.0
 40
3.0
100
AcDbArc
 50
90.0
 51
127.280262
  0
LINE
  5
7EB
100
AcDbEntity
  8
便座
  6
CONTINUOUS
 62
     6
100
AcDbLine
 10
668.996005
 20
2237.337752
 30
0.0
 11
668.996005
 21
2241.868979
 31
0.0
  0
LINE
  5
7EC
100
AcDbEntity
  8
便座
  6
CONTINUOUS
 62
     6
100
AcDbLine
 10
673.782805
 20
2240.596315
 30
0.0
 11
673.782805
 21
2241.746939
 31
0.0
  0
ARC
  5
7ED
100
AcDbEntity
  8
便座
  6
CONTINUOUS
 62
     6
100
AcDbCircle
 10
670.667695
 20
2234.846711
 30
0.0
 40
2.999998
100
AcDbArc
 50
90.0
 51
180.0
  0
LINE
  5
7EE
100
AcDbEntity
  8
便座
  6
CONTINUOUS
 62
     6
100
AcDbLine
 10
696.168109
 20
2238.346303
 30
0.0
 11
696.16811
 21
2239.596303
 31
0.0
  0
ARC
  5
7EF
100
AcDbEntity
  8
便座
  6
CONTINUOUS
 62
     6
100
AcDbCircle
 10
695.16811
 20
2239.596304
 30
0.0
 40
1.0
100
AcDbArc
 50
0.0
 51
90.0
  0
ARC
  5
7F0
100
AcDbEntity
  8
便座
  6
CONTINUOUS
 62
     6
100
AcDbCircle
 10
710.035542
 20
2240.346296
 30
0.0
 40
2.0
100
AcDbArc
 50
270.0
 51
0.0
  0
ARC
  5
7F1
100
AcDbEntity
  8
便座
  6
CONTINUOUS
 62
     6
100
AcDbCircle
 10
717.667695
 20
2242.846711
 30
0.0
 40
4.999998
100
AcDbArc
 50
270.000031
 51
0.0
  0
LINE
  5
7F2
100
AcDbEntity
  8
便座
  6
CONTINUOUS
 62
     6
100
AcDbLine
 10
667.667695
 20
2234.846711
 30
0.0
 11
667.667695
 21
2189.34668
 31
0.0
  0
LINE
  5
7F3
100
AcDbEntity
  8
便座
  6
CONTINUOUS
 62
     6
100
AcDbLine
 10
652.494751
 20
2193.606446
 30
0.0
 11
652.494751
 21
2237.173218
 31
0.0
  0
ARC
  5
7F4
100
AcDbEntity
  8
便座
  6
CONTINUOUS
 62
     6
100
AcDbCircle
 10
636.520142
 20
2218.385743
 30
0.0
 40
26.0
100
AcDbArc
 50
180.0
 51
269.763275
  0
ARC
  5
7F5
100
AcDbEntity
  8
便座
  6
CONTINUOUS
 62
     6
100
AcDbCircle
 10
657.071228
 20
7192.34314
 30
0.0
 40
5000.0
100
AcDbArc
 50
269.76327
 51
269.933533
  0
LINE
  5
7F6
100
AcDbEntity
  8
便座
  6
CONTINUOUS
 62
     6
100
AcDbLine
 10
610.520142
 20
2243.089495
 30
0.0
 11
610.520142
 21
2218.885743
 31
0.0
  0
ARC
  5
7F7
100
AcDbEntity
  8
便座
  6
CONTINUOUS
 62
     6
100
AcDbCircle
 10
625.520142
 20
2243.089495
 30
0.0
 40
15.0
100
AcDbArc
 50
160.686289
 51
180.0
  0
CIRCLE
  5
7F8
100
AcDbEntity
  8
便座
  6
EXLTYPE2
 62
     6
100
AcDbCircle
 10
660.441132
 20
2310.34668
 30
0.0
 40
6.0
  0
CIRCLE
  5
7F9
100
AcDbEntity
  8
便座
  6
EXLTYPE2
 62
     6
100
AcDbCircle
 10
660.441132
 20
2450.34668
 30
0.0
 40
6.0
  0
LINE
  5
7FA
100
AcDbEntity
  8
便座
  6
CONTINUOUS
 62
     6
100
AcDbLine
 10
634.441132
 20
2450.34668
 30
0.0
 11
686.441132
 21
2450.34668
 31
0.0
  0
LINE
  5
7FB
100
AcDbEntity
  8
便座
  6
CONTINUOUS
 62
     6
100
AcDbLine
 10
660.441132
 20
2424.34668
 30
0.0
 11
660.441132
 21
2476.34668
 31
0.0
  0
LINE
  5
7FC
100
AcDbEntity
  8
便座
  6
CONTINUOUS
 62
     6
100
AcDbLine
 10
634.441132
 20
2310.34668
 30
0.0
 11
686.441132
 21
2310.34668
 31
0.0
  0
LINE
  5
7FD
100
AcDbEntity
  8
便座
  6
CONTINUOUS
 62
     6
100
AcDbLine
 10
660.441132
 20
2336.34668
 30
0.0
 11
660.441132
 21
2284.34668
 31
0.0
  0
LINE
  5
7FE
100
AcDbEntity
  8
便座
  6
CONTINUOUS
 62
     6
100
AcDbLine
 10
350.441132
 20
2045.34668
 30
0.0
 11
355.441132
 21
2045.34668
 31
0.0
  0
ARC
  5
7FF
100
AcDbEntity
  8
便座
  6
CONTINUOUS
 62
     6
100
AcDbCircle
 10
371.725617
 20
2071.846676
 30
0.0
 40
1.0
100
AcDbArc
 50
270.0
 51
0.0
  0
LINE
  5
800
100
AcDbEntity
  8
便座
  6
CONTINUOUS
 62
     6
100
AcDbLine
 10
355.441132
 20
2067.846676
 30
0.0
 11
369.866245
 21
2068.509052
 31
0.0
  0
ARC
  5
801
100
AcDbEntity
  8
便座
  6
CONTINUOUS
 62
     6
100
AcDbCircle
 10
369.774506
 20
2070.506947
 30
0.0
 40
2.0
100
AcDbArc
 50
272.629075
 51
0.0
  0
ARC
  5
802
100
AcDbEntity
  8
便座
  6
CONTINUOUS
 62
     6
100
AcDbCircle
 10
364.441132
 20
2068.096676
 30
0.0
 40
1.0
100
AcDbArc
 50
180.0
 51
0.0
  0
LINE
  5
803
100
AcDbEntity
  8
便座
  6
CONTINUOUS
 62
     6
100
AcDbLine
 10
365.441132
 20
2068.305858
 30
0.0
 11
365.441132
 21
2067.846676
 31
0.0
  0
LINE
  5
804
100
AcDbEntity
  8
便座
  6
CONTINUOUS
 62
     6
100
AcDbLine
 10
355.441132
 20
2045.34668
 30
0.0
 11
355.441132
 21
2068.197731
 31
0.0
  0
ARC
  5
805
100
AcDbEntity
  8
便座
  6
CONTINUOUS
 62
     6
100
AcDbCircle
 10
364.441132
 20
2074.346676
 30
0.0
 40
1.0
100
AcDbArc
 50
199.566419
 51
0.0
  0
LINE
  5
806
100
AcDbEntity
  8
便座
  6
CONTINUOUS
 62
     6
100
AcDbLine
 10
365.441132
 20
2078.666362
 30
0.0
 11
365.441132
 21
2074.346676
 31
0.0
  0
LINE
  5
807
100
AcDbEntity
  8
便座
  6
CONTINUOUS
 62
     6
100
AcDbLine
 10
371.774506
 20
2070.506947
 30
0.0
 11
371.774506
 21
2084.848633
 31
0.0
  0
LINE
  5
808
100
AcDbEntity
  8
便座
  6
CONTINUOUS
 62
     6
100
AcDbLine
 10
372.725617
 20
2071.846676
 30
0.0
 11
372.725617
 21
2084.848633
 31
0.0
  0
LINE
  5
809
100
AcDbEntity
  8
便座
  6
CONTINUOUS
 62
     6
100
AcDbLine
 10
372.725617
 20
2084.045713
 30
0.0
 11
375.198021
 21
2084.848633
 31
0.0
  0
LINE
  5
80A
100
AcDbEntity
  8
便座
  6
CONTINUOUS
 62
     6
100
AcDbLine
 10
452.790977
 20
2110.047133
 30
0.0
 11
637.253914
 21
2169.951919
 31
0.0
  0
LINE
  5
80B
100
AcDbEntity
  8
便座
  6
CONTINUOUS
 62
     6
100
AcDbLine
 10
372.725617
 20
2076.647646
 30
0.0
 11
397.442239
 21
2084.848633
 31
0.0
  0
LINE
  5
80C
100
AcDbEntity
  8
便座
  6
CONTINUOUS
 62
     6
100
AcDbLine
 10
468.263525
 20
2108.347168
 30
0.0
 11
645.318824
 21
2167.094197
 31
0.0
  0
LINE
  5
80D
100
AcDbEntity
  8
便座
  6
CONTINUOUS
 62
     6
100
AcDbLine
 10
614.012542
 20
1028.779816
 30
0.0
 11
634.106292
 21
1046.45224
 31
0.0
  0
LINE
  5
80E
100
AcDbEntity
  8
便座
  6
CONTINUOUS
 62
     6
100
AcDbLine
 10
648.717413
 20
916.455231
 30
0.0
 11
606.780807
 21
916.455231
 31
0.0
  0
LINE
  5
80F
100
AcDbEntity
  8
便座
  6
CONTINUOUS
 62
     6
100
AcDbLine
 10
608.923919
 20
1017.908966
 30
0.0
 11
606.280978
 21
916.968318
 31
0.0
  0
LINE
  5
810
100
AcDbEntity
  8
便座
  6
CONTINUOUS
 62
     6
100
AcDbLine
 10
616.608664
 20
954.287835
 30
0.0
 11
619.019588
 21
1023.327649
 31
0.0
  0
ARC
  5
811
100
AcDbEntity
  8
便座
  6
CONTINUOUS
 62
     6
100
AcDbCircle
 10
611.901711
 20
940.610198
 30
0.0
 40
5.0
100
AcDbArc
 50
135.0
 51
178.500157
  0
ARC
  5
812
100
AcDbEntity
  8
便座
  6
CONTINUOUS
 62
     6
100
AcDbCircle
 10
606.780807
 20
916.955231
 30
0.0
 40
0.5
100
AcDbArc
 50
178.50016
 51
270.0
  0
ARC
  5
813
100
AcDbEntity
  8
便座
  6
CONTINUOUS
 62
     6
100
AcDbCircle
 10
611.61171
 20
954.462332
 30
0.0
 40
5.0
100
AcDbArc
 50
315.0
 51
358.0
  0
LINE
  5
814
100
AcDbEntity
  8
便座
  6
CONTINUOUS
 62
     6
100
AcDbLine
 10
608.366177
 20
944.145732
 30
0.0
 11
615.147244
 21
950.926798
 31
0.0
  0
ARC
  5
815
100
AcDbEntity
  8
便座
  6
CONTINUOUS
 62
     6
100
AcDbCircle
 10
623.918792
 20
1017.516327
 30
0.0
 40
15.0
100
AcDbArc
 50
131.330933
 51
178.500488
  0
ARC
  5
816
100
AcDbEntity
  8
便座
  6
CONTINUOUS
 62
     6
100
AcDbCircle
 10
1110.642567
 20
3455.767117
 30
0.0
 40
2500.0
100
AcDbArc
 50
266.262862
 51
267.400191
  0
ARC
  5
817
100
AcDbEntity
  8
便座
  6
CONTINUOUS
 62
     6
100
AcDbCircle
 10
348.281479
 20
-2938.526415
 30
0.0
 40
4000.000244
100
AcDbArc
 50
80.855635
 51
84.606497
  0
ARC
  5
818
100
AcDbEntity
  8
便座
  6
CONTINUOUS
 62
     6
100
AcDbCircle
 10
1103.442561
 20
3460.921157
 30
0.0
 40
2500.0
100
AcDbArc
 50
266.41844
 51
268.837446
  0
LINE
  5
819
100
AcDbEntity
  8
便座
  6
CONTINUOUS
 62
     6
100
AcDbLine
 10
947.412215
 20
928.783035
 30
0.0
 11
1108.537575
 21
925.513267
 31
0.0
  0
ARC
  5
81A
100
AcDbEntity
  8
便座
  6
CONTINUOUS
 62
     6
100
AcDbCircle
 10
787.37007
 20
920.528409
 30
0.0
 40
3.0
100
AcDbArc
 50
178.83722
 51
268.837588
  0
ARC
  5
81B
100
AcDbEntity
  8
便座
  6
CONTINUOUS
 62
     6
100
AcDbCircle
 10
1110.642567
 20
3455.767117
 30
0.0
 40
2500.0
100
AcDbArc
 50
262.001387
 51
266.262862
  0
ARC
  5
81C
100
AcDbEntity
  8
便座
  6
CONTINUOUS
 62
     6
100
AcDbCircle
 10
779.503589
 20
927.189394
 30
0.0
 40
5.000011
100
AcDbArc
 50
358.837507
 51
88.837294
  0
ARC
  5
81D
100
AcDbEntity
  8
便座
  6
CONTINUOUS
 62
     6
100
AcDbCircle
 10
1103.442561
 20
3460.921157
 30
0.0
 40
2500.0
100
AcDbArc
 50
260.44731
 51
266.41844
  0
LINE
  5
81E
100
AcDbEntity
  8
便座
  6
CONTINUOUS
 62
     6
100
AcDbLine
 10
947.412215
 20
928.783051
 30
0.0
 11
763.733047
 21
932.510472
 31
0.0
  0
LINE
  5
81F
100
AcDbEntity
  8
便座
  6
CONTINUOUS
 62
     6
100
AcDbLine
 10
652.544509
 20
1039.63302
 30
0.0
 11
652.905792
 21
1018.93338
 31
0.0
  0
LINE
  5
820
100
AcDbEntity
  8
便座
  6
CONTINUOUS
 62
     6
100
AcDbLine
 10
667.710838
 20
1020.748099
 30
0.0
 11
668.094737
 21
1039.66686
 31
0.0
  0
LINE
  5
821
100
AcDbEntity
  8
便座
  6
CONTINUOUS
 62
     6
100
AcDbLine
 10
663.374481
 20
996.681549
 30
0.0
 11
734.247528
 21
935.917511
 31
0.0
  0
LINE
  5
822
100
AcDbEntity
  8
便座
  6
CONTINUOUS
 62
     6
100
AcDbLine
 10
735.758623
 20
916.455231
 30
0.0
 11
655.417413
 21
916.455231
 31
0.0
  0
LINE
  5
823
100
AcDbEntity
  8
便座
  6
CONTINUOUS
 62
     6
100
AcDbLine
 10
682.267486
 20
916.455109
 30
0.0
 11
712.267486
 21
916.455109
 31
0.0
  0
LINE
  5
824
100
AcDbEntity
  8
便座
  6
CONTINUOUS
 62
     6
100
AcDbLine
 10
757.444675
 20
934.902871
 30
0.0
 11
685.814751
 21
996.050509
 31
0.0
  0
CIRCLE
  5
825
100
AcDbEntity
  8
便座
  6
CONTINUOUS
 62
     6
100
AcDbCircle
 10
652.067413
 20
971.455292
 30
0.0
 40
15.0
  0
ARC
  5
826
100
AcDbEntity
  8
便座
  6
CONTINUOUS
 62
     6
100
AcDbCircle
 10
652.067413
 20
971.455292
 30
0.0
 40
15.5
100
AcDbArc
 50
0.0
 51
180.0
  0
LINE
  5
827
100
AcDbEntity
  8
便座
  6
CONTINUOUS
 62
     6
100
AcDbLine
 10
636.567413
 20
971.455292
 30
0.0
 11
633.684949
 21
916.455231
 31
0.0
  0
ARC
  5
828
100
AcDbEntity
  8
便座
  6
CONTINUOUS
 62
     6
100
AcDbCircle
 10
653.897133
 20
918.576551
 30
0.0
 40
1.52028
100
AcDbArc
 50
0.0
 51
90.0
  0
ARC
  5
829
100
AcDbEntity
  8
便座
  6
CONTINUOUS
 62
     6
100
AcDbCircle
 10
650.237693
 20
918.576551
 30
0.0
 40
1.52028
100
AcDbArc
 50
90.0
 51
180.0
  0
LINE
  5
82A
100
AcDbEntity
  8
便座
  6
CONTINUOUS
 62
     6
100
AcDbLine
 10
653.897133
 20
920.096831
 30
0.0
 11
650.237693
 21
920.096831
 31
0.0
  0
LINE
  5
82B
100
AcDbEntity
  8
便座
  6
CONTINUOUS
 62
     6
100
AcDbLine
 10
657.067413
 20
929.465996
 30
0.0
 11
647.067413
 21
929.465996
 31
0.0
  0
LINE
  5
82C
100
AcDbEntity
  8
便座
  6
CONTINUOUS
 62
     6
100
AcDbLine
 10
647.067413
 20
916.455231
 30
0.0
 11
647.067413
 21
929.465996
 31
0.0
  0
LINE
  5
82D
100
AcDbEntity
  8
便座
  6
CONTINUOUS
 62
     6
100
AcDbLine
 10
657.067413
 20
916.455231
 30
0.0
 11
657.067413
 21
929.465996
 31
0.0
  0
LINE
  5
82E
100
AcDbEntity
  8
便座
  6
CONTINUOUS
 62
     6
100
AcDbLine
 10
657.067413
 20
922.960613
 30
0.0
 11
647.067413
 21
922.960613
 31
0.0
  0
ARC
  5
82F
100
AcDbEntity
  8
便座
  6
CONTINUOUS
 62
     6
100
AcDbCircle
 10
646.067413
 20
919.455231
 30
0.0
 40
3.0
100
AcDbArc
 50
180.0
 51
270.0
  0
ARC
  5
830
100
AcDbEntity
  8
便座
  6
CONTINUOUS
 62
     6
100
AcDbCircle
 10
658.067413
 20
919.455231
 30
0.0
 40
3.0
100
AcDbArc
 50
270.0
 51
0.0
  0
ARC
  5
831
100
AcDbEntity
  8
便座
  6
CONTINUOUS
 62
     6
100
AcDbCircle
 10
646.067413
 20
930.455231
 30
0.0
 40
3.0
100
AcDbArc
 50
90.0
 51
180.0
  0
ARC
  5
832
100
AcDbEntity
  8
便座
  6
CONTINUOUS
 62
     6
100
AcDbCircle
 10
658.067413
 20
930.455231
 30
0.0
 40
3.0
100
AcDbArc
 50
0.0
 51
90.0
  0
LINE
  5
833
100
AcDbEntity
  8
便座
  6
CONTINUOUS
 62
     6
100
AcDbLine
 10
643.067413
 20
919.455231
 30
0.0
 11
643.067413
 21
930.455231
 31
0.0
  0
LINE
  5
834
100
AcDbEntity
  8
便座
  6
CONTINUOUS
 62
     6
100
AcDbLine
 10
661.067413
 20
919.455231
 30
0.0
 11
661.067413
 21
930.455231
 31
0.0
  0
LINE
  5
835
100
AcDbEntity
  8
便座
  6
CONTINUOUS
 62
     6
100
AcDbLine
 10
658.067413
 20
933.455231
 30
0.0
 11
646.067413
 21
933.455231
 31
0.0
  0
LINE
  5
836
100
AcDbEntity
  8
便座
  6
CONTINUOUS
 62
     6
100
AcDbLine
 10
667.567413
 20
971.455292
 30
0.0
 11
670.449877
 21
916.455231
 31
0.0
  0
ARC
  5
837
100
AcDbEntity
  8
便座
  6
CONTINUOUS
 62
     6
100
AcDbCircle
 10
664.355351
 20
1001.955237
 30
0.0
 40
4.5
100
AcDbArc
 50
223.340619
 51
270.0
  0
ARC
  5
838
100
AcDbEntity
  8
便座
  6
CONTINUOUS
 62
     6
100
AcDbCircle
 10
682.901153
 20
1019.456757
 30
0.0
 40
30.0
100
AcDbArc
 50
181.0
 51
229.391357
  0
ARC
  5
839
100
AcDbEntity
  8
便座
  6
CONTINUOUS
 62
     6
100
AcDbCircle
 10
652.567413
 20
986.947235
 30
0.0
 40
0.5
100
AcDbArc
 50
0.0
 51
88.153198
  0
ARC
  5
83A
100
AcDbEntity
  8
便座
  6
CONTINUOUS
 62
     6
100
AcDbCircle
 10
651.567413
 20
986.947235
 30
0.0
 40
0.5
100
AcDbArc
 50
91.846832
 51
180.0
  0
ARC
  5
83B
100
AcDbEntity
  8
便座
  6
CONTINUOUS
 62
     6
100
AcDbCircle
 10
652.067413
 20
971.455292
 30
0.0
 40
16.0
100
AcDbArc
 50
88.151489
 51
91.848511
  0
LINE
  5
83C
100
AcDbEntity
  8
便座
  6
CONTINUOUS
 62
     6
100
AcDbLine
 10
651.567413
 20
986.955292
 30
0.0
 11
652.567413
 21
986.955292
 31
0.0
  0
LINE
  5
83D
100
AcDbEntity
  8
便座
  6
CONTINUOUS
 62
     6
100
AcDbLine
 10
667.367389
 20
999.955237
 30
0.0
 11
667.367389
 21
1001.955237
 31
0.0
  0
LINE
  5
83E
100
AcDbEntity
  8
便座
  6
CONTINUOUS
 62
     6
100
AcDbLine
 10
671.605175
 20
991.542622
 30
0.0
 11
670.357075
 21
1002.130835
 31
0.0
  0
ARC
  5
83F
100
AcDbEntity
  8
便座
  6
CONTINUOUS
 62
     6
100
AcDbCircle
 10
692.705669
 20
1020.240877
 30
0.0
 40
25.000004
100
AcDbArc
 50
194.017134
 51
260.44731
  0
LINE
  5
840
100
AcDbEntity
  8
便座
  6
CONTINUOUS
 62
     6
100
AcDbLine
 10
664.355351
 20
997.455237
 30
0.0
 11
664.867389
 21
997.455237
 31
0.0
  0
ARC
  5
841
100
AcDbEntity
  8
便座
  6
CONTINUOUS
 62
     6
100
AcDbCircle
 10
664.867389
 20
999.955237
 30
0.0
 40
2.5
100
AcDbArc
 50
270.0
 51
0.0
  0
ARC
  5
842
100
AcDbEntity
  8
便座
  6
CONTINUOUS
 62
     6
100
AcDbCircle
 10
677.067358
 20
992.186483
 30
0.0
 40
5.5
100
AcDbArc
 50
186.722792
 51
229.391384
  0
LINE
  5
843
100
AcDbEntity
  8
便座
  6
CONTINUOUS
 62
     6
100
AcDbLine
 10
670.179587
 20
1009.397638
 30
0.0
 11
668.509092
 21
1010.823675
 31
0.0
  0
ARC
  5
844
100
AcDbEntity
  8
便座
  6
CONTINUOUS
 62
     6
100
AcDbCircle
 10
668.867389
 20
1001.955237
 30
0.0
 40
1.5
100
AcDbArc
 50
6.722792
 51
180.0
  0
ARC
  5
845
100
AcDbEntity
  8
便座
  6
CONTINUOUS
 62
     6
100
AcDbCircle
 10
692.705669
 20
1020.240877
 30
0.0
 40
25.000004
100
AcDbArc
 50
178.837446
 51
194.017134
  0
LINE
  5
846
100
AcDbEntity
  8
便座
  6
CONTINUOUS
 62
     6
100
AcDbLine
 10
668.509153
 20
1010.823644
 30
0.0
 11
668.568148
 21
1013.730865
 31
0.0
  0
LINE
  5
847
100
AcDbEntity
  8
便座
  6
CONTINUOUS
 62
     6
100
AcDbLine
 10
706.834003
 20
977.449702
 30
0.0
 11
707.075042
 21
963.639557
 31
0.0
  0
ARC
  5
848
100
AcDbEntity
  8
便座
  6
CONTINUOUS
 62
     6
100
AcDbCircle
 10
730.848785
 20
940.384064
 30
0.0
 40
5.0
100
AcDbArc
 50
0.999878
 51
53.841919
  0
ARC
  5
849
100
AcDbEntity
  8
便座
  6
CONTINUOUS
 62
     6
100
AcDbCircle
 10
735.758623
 20
916.955231
 30
0.0
 40
0.5
100
AcDbArc
 50
270.0
 51
1.000259
  0
ARC
  5
84A
100
AcDbEntity
  8
便座
  6
CONTINUOUS
 62
     6
100
AcDbCircle
 10
730.993133
 20
932.121612
 30
0.0
 40
5.0
100
AcDbArc
 50
1.000214
 51
49.392029
  0
LINE
  5
84B
100
AcDbEntity
  8
便座
  6
CONTINUOUS
 62
     6
100
AcDbLine
 10
736.258547
 20
916.963959
 30
0.0
 11
735.849273
 21
940.405182
 31
0.0
  0
LINE
  5
84C
100
AcDbEntity
  8
便座
  6
CONTINUOUS
 62
     6
100
AcDbLine
 10
735.849212
 20
940.40506
 30
0.0
 11
735.847809
 21
940.486114
 31
0.0
  0
LINE
  5
84D
100
AcDbEntity
  8
便座
  6
CONTINUOUS
 62
     6
100
AcDbLine
 10
711.080719
 20
961.023773
 30
0.0
 11
733.79898
 21
944.420929
 31
0.0
  0
ARC
  5
84E
100
AcDbEntity
  8
便座
  6
CONTINUOUS
 62
     6
100
AcDbCircle
 10
716.981109
 20
969.097504
 30
0.0
 40
10.0
100
AcDbArc
 50
181.002686
 51
233.839844
  0
ARC
  5
84F
100
AcDbEntity
  8
便座
  6
CONTINUOUS
 62
     6
100
AcDbCircle
 10
717.073394
 20
963.814056
 30
0.0
 40
10.0
100
AcDbArc
 50
181.001465
 51
229.389771
  0
ARC
  5
850
100
AcDbEntity
  8
便座
  6
CONTINUOUS
 62
     6
100
AcDbCircle
 10
763.937303
 20
942.508498
 30
0.0
 40
9.999998
100
AcDbArc
 50
229.51396
 51
268.837446
  0
LINE
  5
851
100
AcDbEntity
  8
便座
  6
CONTINUOUS
 62
     6
100
AcDbLine
 10
784.502592
 20
927.087953
 30
0.0
 11
784.370687
 21
920.589288
 31
0.0
  0
ARC
  5
852
100
AcDbEntity
  8
便座
  6
CONTINUOUS
 62
     6
100
AcDbCircle
 10
769.728565
 20
1029.601666
 30
0.0
 40
49.999989
100
AcDbArc
 50
238.546736
 51
262.001448
  0
ARC
  5
853
100
AcDbEntity
  8
便座
  6
CONTINUOUS
 62
     6
100
AcDbCircle
 10
348.176282
 20
-2943.791548
 30
0.0
 40
4000.000244
100
AcDbArc
 50
84.621931
 51
85.05406
  0
ARC
  5
854
100
AcDbEntity
  8
便座
  6
CONTINUOUS
 62
     6
100
AcDbCircle
 10
651.665985
 20
642.704315
 30
0.0
 40
400.0
100
AcDbArc
 50
87.459688
 51
89.440301
  0
ARC
  5
855
100
AcDbEntity
  8
便座
  6
CONTINUOUS
 62
     6
100
AcDbCircle
 10
651.667389
 20
647.955231
 30
0.0
 40
400.0
100
AcDbArc
 50
85.505127
 51
92.06937
  0
ARC
  5
856
100
AcDbEntity
  8
便座
  6
CONTINUOUS
 62
     6
100
AcDbCircle
 10
637.408416
 20
1042.697784
 30
0.0
 40
5.0
100
AcDbArc
 50
92.069305
 51
131.33255
  0
ARC
  5
857
100
AcDbEntity
  8
便座
  6
CONTINUOUS
 62
     6
100
AcDbCircle
 10
655.544053
 20
1039.685373
 30
0.0
 40
3.0
100
AcDbArc
 50
89.440301
 51
180.999915
  0
ARC
  5
858
100
AcDbEntity
  8
便座
  6
CONTINUOUS
 62
     6
100
AcDbCircle
 10
658.552841
 20
642.804171
 30
0.0
 40
399.999939
100
AcDbArc
 50
85.05406
 51
88.189711
  0
ARC
  5
859
100
AcDbEntity
  8
便座
  6
CONTINUOUS
 62
     6
100
AcDbCircle
 10
671.094103
 20
1039.605983
 30
0.0
 40
2.999987
100
AcDbArc
 50
88.189375
 51
178.837202
  0
ARC
  5
85A
100
AcDbEntity
  8
便座
  6
CONTINUOUS
 62
     6
100
AcDbCircle
 10
681.05606
 20
1021.80191
 30
0.0
 40
25.0
100
AcDbArc
 50
50.819455
 51
85.505188
  0
ARC
  5
85B
100
AcDbEntity
  8
便座
  6
CONTINUOUS
 62
     6
100
AcDbCircle
 10
724.16918
 20
1042.768608
 30
0.0
 40
0.999999
100
AcDbArc
 50
84.608931
 51
178.837446
  0
LINE
  5
85C
100
AcDbEntity
  8
便座
  6
CONTINUOUS
 62
     6
100
AcDbLine
 10
723.084415
 20
1038.600465
 30
0.0
 11
723.169391
 21
1042.78889
 31
0.0
  0
ARC
  5
85D
100
AcDbEntity
  8
便座
  6
CONTINUOUS
 62
     6
100
AcDbCircle
 10
796.368236
 20
920.34583
 30
0.0
 40
3.0
100
AcDbArc
 50
268.837588
 51
358.837612
  0
ARC
  5
85E
100
AcDbEntity
  8
便座
  6
CONTINUOUS
 62
     6
100
AcDbCircle
 10
804.498481
 20
926.682173
 30
0.0
 40
5.000011
100
AcDbArc
 50
88.837675
 51
178.837446
  0
LINE
  5
85F
100
AcDbEntity
  8
便座
  6
CONTINUOUS
 62
     6
100
AcDbLine
 10
799.499478
 20
926.783629
 30
0.0
 11
799.367619
 21
920.284972
 31
0.0
  0
ARC
  5
860
100
AcDbEntity
  8
便座
  6
CONTINUOUS
 62
     6
100
AcDbCircle
 10
872.725576
 20
319.53424
 30
0.0
 40
699.999939
100
AcDbArc
 50
71.887404
 51
80.855635
  0
LINE
  5
861
100
AcDbEntity
  8
便座
  6
CONTINUOUS
 62
     6
100
AcDbLine
 10
997.242537
 20
958.3402
 30
0.0
 11
1098.929743
 21
953.722908
 31
0.0
  0
ARC
  5
862
100
AcDbEntity
  8
便座
  6
CONTINUOUS
 62
     6
100
AcDbCircle
 10
987.397818
 20
919.869891
 30
0.0
 40
3.0
100
AcDbArc
 50
178.836933
 51
268.837544
  0
ARC
  5
863
100
AcDbEntity
  8
便座
  6
CONTINUOUS
 62
     6
100
AcDbCircle
 10
979.462355
 20
923.131576
 30
0.0
 40
5.000011
100
AcDbArc
 50
358.837385
 51
88.83721
  0
LINE
  5
864
100
AcDbEntity
  8
便座
  6
CONTINUOUS
 62
     6
100
AcDbLine
 10
984.461327
 20
923.030165
 30
0.0
 11
984.420763
 21
921.030558
 31
0.0
  0
LINE
  5
865
100
AcDbEntity
  8
便座
  6
CONTINUOUS
 62
     6
100
AcDbLine
 10
984.398436
 20
919.930785
 30
0.0
 11
984.420763
 21
921.030527
 31
0.0
  0
ARC
  5
866
100
AcDbEntity
  8
便座
  6
CONTINUOUS
 62
     6
100
AcDbCircle
 10
996.39597
 20
919.687306
 30
0.0
 40
3.0
100
AcDbArc
 50
268.837544
 51
358.836933
  0
ARC
  5
867
100
AcDbEntity
  8
便座
  6
CONTINUOUS
 62
     6
100
AcDbCircle
 10
1004.457246
 20
922.624354
 30
0.0
 40
5.000007
100
AcDbArc
 50
88.837553
 51
178.83737
  0
LINE
  5
868
100
AcDbEntity
  8
便座
  6
CONTINUOUS
 62
     6
100
AcDbLine
 10
999.458244
 20
922.725796
 30
0.0
 11
999.41768
 21
920.726219
 31
0.0
  0
LINE
  5
869
100
AcDbEntity
  8
便座
  6
CONTINUOUS
 62
     6
100
AcDbLine
 10
999.395352
 20
919.626412
 30
0.0
 11
999.41768
 21
920.726219
 31
0.0
  0
ARC
  5
86A
100
AcDbEntity
  8
便座
  6
CONTINUOUS
 62
     6
100
AcDbCircle
 10
1001.642347
 20
964.69615
 30
0.0
 40
6.0
100
AcDbArc
 50
194.058623
 51
341.270735
  0
ARC
  5
86B
100
AcDbEntity
  8
便座
  6
CONTINUOUS
 62
     6
100
AcDbCircle
 10
1072.565918
 20
949.912406
 30
0.0
 40
40.000008
100
AcDbArc
 50
18.735823
 51
48.152144
  0
LINE
  5
86C
100
AcDbEntity
  8
便座
  6
CONTINUOUS
 62
     6
100
AcDbLine
 10
1109.474927
 20
960.284044
 30
0.0
 11
1052.80178
 21
961.434104
 31
0.0
  0
ARC
  5
86D
100
AcDbEntity
  8
便座
  6
CONTINUOUS
 62
     6
100
AcDbCircle
 10
908.714864
 20
917.095914
 30
0.0
 40
199.999939
100
AcDbArc
 50
2.412092
 51
8.578108
  0
ARC
  5
86E
100
AcDbEntity
  8
便座
  6
CONTINUOUS
 62
     6
100
AcDbCircle
 10
1098.567004
 20
945.734155
 30
0.0
 40
7.999994
100
AcDbArc
 50
8.578047
 51
85.828596
  0
ARC
  5
86F
100
AcDbEntity
  8
便座
  6
CONTINUOUS
 62
     6
100
AcDbCircle
 10
1109.495225
 20
961.283847
 30
0.0
 40
1.0
100
AcDbArc
 50
268.837446
 51
358.837446
  0
LINE
  5
870
100
AcDbEntity
  8
便座
  6
CONTINUOUS
 62
     6
100
AcDbLine
 10
1110.446398
 20
962.760598
 30
0.0
 11
1110.495013
 21
961.26355
 31
0.0
  0
ARC
  5
871
100
AcDbEntity
  8
便座
  6
CONTINUOUS
 62
     6
100
AcDbCircle
 10
1082.573269
 20
961.086187
 30
0.0
 40
25.000004
100
AcDbArc
 50
48.152083
 51
71.887404
  0
LINE
  5
872
100
AcDbEntity
  8
便座
  6
CONTINUOUS
 62
     6
100
AcDbLine
 10
355.440826
 20
806.455231
 30
0.0
 11
355.440826
 21
926.44868
 31
0.0
  0
LINE
  5
873
100
AcDbEntity
  8
便座
  6
CONTINUOUS
 62
     6
100
AcDbLine
 10
371.440826
 20
846.455231
 30
0.0
 11
372.725311
 21
870.455231
 31
0.0
  0
LINE
  5
874
100
AcDbEntity
  8
便座
  6
CONTINUOUS
 62
     6
100
AcDbLine
 10
363.440826
 20
868.455231
 30
0.0
 11
363.440826
 21
856.455231
 31
0.0
  0
LINE
  5
875
100
AcDbEntity
  8
便座
  6
CONTINUOUS
 62
     6
100
AcDbLine
 10
365.440826
 20
868.455231
 30
0.0
 11
365.440826
 21
856.455231
 31
0.0
  0
LINE
  5
876
100
AcDbEntity
  8
便座
  6
CONTINUOUS
 62
     6
100
AcDbLine
 10
369.440826
 20
844.455231
 30
0.0
 11
371.76657
 21
870.969147
 31
0.0
  0
LINE
  5
877
100
AcDbEntity
  8
便座
  6
CONTINUOUS
 62
     6
100
AcDbLine
 10
355.440826
 20
874.455231
 30
0.0
 11
369.955291
 21
873.135712
 31
0.0
  0
ARC
  5
878
100
AcDbEntity
  8
便座
  6
CONTINUOUS
 62
     6
100
AcDbCircle
 10
371.856902
 20
869.959442
 30
0.0
 40
1.0
100
AcDbArc
 50
29.723236
 51
95.25293
  0
ARC
  5
879
100
AcDbEntity
  8
便座
  6
CONTINUOUS
 62
     6
100
AcDbCircle
 10
364.440826
 20
874.455231
 30
0.0
 40
1.0
100
AcDbArc
 50
0.0
 51
180.0
  0
ARC
  5
87A
100
AcDbEntity
  8
便座
  6
CONTINUOUS
 62
     6
100
AcDbCircle
 10
364.440826
 20
868.455231
 30
0.0
 40
1.0
100
AcDbArc
 50
0.0
 51
180.0
  0
ARC
  5
87B
100
AcDbEntity
  8
便座
  6
CONTINUOUS
 62
     6
100
AcDbCircle
 10
369.7742
 20
871.143952
 30
0.0
 40
2.0
100
AcDbArc
 50
354.986938
 51
84.80542
  0
LINE
  5
87C
100
AcDbEntity
  8
便座
  6
CONTINUOUS
 62
     6
100
AcDbLine
 10
365.440826
 20
874.455231
 30
0.0
 11
365.440826
 21
873.546112
 31
0.0
  0
LINE
  5
87D
100
AcDbEntity
  8
便座
  6
CONTINUOUS
 62
     6
100
AcDbLine
 10
363.440826
 20
873.727997
 30
0.0
 11
363.440826
 21
874.455231
 31
0.0
  0
ARC
  5
87E
100
AcDbEntity
  8
便座
  6
CONTINUOUS
 62
     6
100
AcDbCircle
 10
355.440826
 20
854.455231
 30
0.0
 40
4.0
100
AcDbArc
 50
0.0
 51
90.0
  0
LINE
  5
87F
100
AcDbEntity
  8
便座
  6
CONTINUOUS
 62
     6
100
AcDbLine
 10
368.940826
 20
842.455231
 30
0.0
 11
368.885223
 21
840.955231
 31
0.0
  0
LINE
  5
880
100
AcDbEntity
  8
便座
  6
CONTINUOUS
 62
     6
100
AcDbLine
 10
359.940826
 20
842.455231
 30
0.0
 11
359.996368
 21
840.955231
 31
0.0
  0
ARC
  5
881
100
AcDbEntity
  8
便座
  6
CONTINUOUS
 62
     6
100
AcDbCircle
 10
364.440826
 20
856.455231
 30
0.0
 40
1.0
100
AcDbArc
 50
180.0
 51
0.0
  0
LINE
  5
882
100
AcDbEntity
  8
便座
  6
CONTINUOUS
 62
     6
100
AcDbLine
 10
369.440826
 20
844.455231
 30
0.0
 11
371.440826
 21
846.455231
 31
0.0
  0
LINE
  5
883
100
AcDbEntity
  8
便座
  6
CONTINUOUS
 62
     6
100
AcDbLine
 10
369.440826
 20
842.455231
 30
0.0
 11
369.440826
 21
844.455231
 31
0.0
  0
LINE
  5
884
100
AcDbEntity
  8
便座
  6
CONTINUOUS
 62
     6
100
AcDbLine
 10
359.440826
 20
842.455231
 30
0.0
 11
359.440826
 21
854.455231
 31
0.0
  0
LINE
  5
885
100
AcDbEntity
  8
便座
  6
CONTINUOUS
 62
     6
100
AcDbLine
 10
359.440826
 20
842.455231
 30
0.0
 11
369.440826
 21
842.455231
 31
0.0
  0
LINE
  5
886
100
AcDbEntity
  8
便座
  6
CONTINUOUS
 62
     6
100
AcDbLine
 10
360.407867
 20
844.455231
 30
0.0
 11
368.29959
 21
844.455231
 31
0.0
  0
LINE
  5
887
100
AcDbEntity
  8
便座
  6
CONTINUOUS
 62
     6
100
AcDbLine
 10
368.829681
 20
839.455231
 30
0.0
 11
368.774139
 21
837.955231
 31
0.0
  0
LINE
  5
888
100
AcDbEntity
  8
便座
  6
CONTINUOUS
 62
     6
100
AcDbLine
 10
368.718536
 20
836.455231
 30
0.0
 11
368.662994
 21
834.955231
 31
0.0
  0
LINE
  5
889
100
AcDbEntity
  8
便座
  6
CONTINUOUS
 62
     6
100
AcDbLine
 10
368.607452
 20
833.455231
 30
0.0
 11
368.55191
 21
831.955231
 31
0.0
  0
LINE
  5
88A
100
AcDbEntity
  8
便座
  6
CONTINUOUS
 62
     6
100
AcDbLine
 10
368.496368
 20
830.455231
 30
0.0
 11
368.440826
 21
828.955231
 31
0.0
  0
LINE
  5
88B
100
AcDbEntity
  8
便座
  6
CONTINUOUS
 62
     6
100
AcDbLine
 10
360.05191
 20
839.455231
 30
0.0
 11
360.107452
 21
837.955231
 31
0.0
  0
LINE
  5
88C
100
AcDbEntity
  8
便座
  6
CONTINUOUS
 62
     6
100
AcDbLine
 10
360.162994
 20
836.455231
 30
0.0
 11
360.218536
 21
834.955231
 31
0.0
  0
LINE
  5
88D
100
AcDbEntity
  8
便座
  6
CONTINUOUS
 62
     6
100
AcDbLine
 10
360.274139
 20
833.455231
 30
0.0
 11
360.329681
 21
831.955231
 31
0.0
  0
LINE
  5
88E
100
AcDbEntity
  8
便座
  6
CONTINUOUS
 62
     6
100
AcDbLine
 10
360.385223
 20
830.455231
 30
0.0
 11
360.440826
 21
828.955231
 31
0.0
  0
LINE
  5
88F
100
AcDbEntity
  8
便座
  6
CONTINUOUS
 62
     6
100
AcDbLine
 10
369.018951
 20
828.955231
 30
0.0
 11
368.940826
 21
826.455231
 31
0.0
  0
LINE
  5
890
100
AcDbEntity
  8
便座
  6
CONTINUOUS
 62
     6
100
AcDbLine
 10
359.862701
 20
828.955231
 30
0.0
 11
359.940826
 21
826.455231
 31
0.0
  0
LINE
  5
891
100
AcDbEntity
  8
便座
  6
CONTINUOUS
 62
     6
100
AcDbLine
 10
359.940826
 20
826.455231
 30
0.0
 11
368.940826
 21
826.455231
 31
0.0
  0
LINE
  5
892
100
AcDbEntity
  8
便座
  6
CONTINUOUS
 62
     6
100
AcDbLine
 10
359.862701
 20
828.955231
 30
0.0
 11
369.018951
 21
828.955231
 31
0.0
  0
LINE
  5
893
100
AcDbEntity
  8
便座
  6
CONTINUOUS
 62
     6
100
AcDbLine
 10
350.440826
 20
806.455231
 30
0.0
 11
355.440826
 21
806.455231
 31
0.0
  0
LINE
  5
894
100
AcDbEntity
  8
便座
  6
CONTINUOUS
 62
     6
100
AcDbLine
 10
362.440826
 20
778.539878
 30
0.0
 11
362.440826
 21
826.455231
 31
0.0
  0
LINE
  5
895
100
AcDbEntity
  8
便座
  6
CONTINUOUS
 62
     6
100
AcDbLine
 10
366.440826
 20
779.189878
 30
0.0
 11
366.440826
 21
826.455231
 31
0.0
  0
LINE
  5
896
100
AcDbEntity
  8
便座
  6
CONTINUOUS
 62
     2
100
AcDbLine
 10
361.511139
 20
840.205231
 30
0.0
 11
367.370514
 21
840.205231
 31
0.0
  0
LINE
  5
897
100
AcDbEntity
  8
便座
  6
CONTINUOUS
 62
     2
100
AcDbLine
 10
361.604889
 20
837.205231
 30
0.0
 11
367.276764
 21
837.205231
 31
0.0
  0
LINE
  5
898
100
AcDbEntity
  8
便座
  6
CONTINUOUS
 62
     2
100
AcDbLine
 10
361.698639
 20
834.205231
 30
0.0
 11
367.183014
 21
834.205231
 31
0.0
  0
LINE
  5
899
100
AcDbEntity
  8
便座
  6
CONTINUOUS
 62
     2
100
AcDbLine
 10
361.792389
 20
831.205231
 30
0.0
 11
367.089264
 21
831.205231
 31
0.0
  0
ARC
  5
89A
100
AcDbEntity
  8
便座
  6
CONTINUOUS
 62
     6
100
AcDbCircle
 10
507.57912
 20
779.189878
 30
0.0
 40
141.138294
100
AcDbArc
 50
180.0
 51
0.0
  0
ARC
  5
89B
100
AcDbEntity
  8
便座
  6
CONTINUOUS
 62
     6
100
AcDbCircle
 10
508.92912
 20
778.539878
 30
0.0
 40
146.488294
100
AcDbArc
 50
180.0
 51
0.0
  0
LINE
  5
89C
100
AcDbEntity
  8
便座
  6
CONTINUOUS
 62
     6
100
AcDbLine
 10
648.717413
 20
779.189878
 30
0.0
 11
648.717413
 21
918.576551
 31
0.0
  0
LINE
  5
89D
100
AcDbEntity
  8
便座
  6
CONTINUOUS
 62
     6
100
AcDbLine
 10
655.417413
 20
778.539878
 30
0.0
 11
655.417413
 21
918.576551
 31
0.0
  0
LINE
  5
89E
100
AcDbEntity
  8
便座
  6
CONTINUOUS
 62
     6
100
AcDbLine
 10
350.440826
 20
926.44868
 30
0.0
 11
355.440826
 21
926.44868
 31
0.0
  0
LINE
  5
89F
100
AcDbEntity
  8
便座
  6
CONTINUOUS
 62
     6
100
AcDbLine
 10
735.758623
 20
916.455231
 30
0.0
 11
655.417413
 21
916.455231
 31
0.0
  0
LINE
  5
8A0
100
AcDbEntity
  8
便座
  6
CONTINUOUS
 62
     6
100
AcDbLine
 10
606.780807
 20
916.455231
 30
0.0
 11
648.717413
 21
916.455231
 31
0.0
  0
ARC
  5
8A1
100
AcDbEntity
  8
便座
  6
CONTINUOUS
 62
     6
100
AcDbCircle
 10
1676.0
 20
-952.044708
 30
0.0
 40
2000.0
100
AcDbArc
 50
86.614349
 51
93.41275
  0
ARC
  5
8A2
100
AcDbEntity
  8
便座
  6
CONTINUOUS
 62
     6
100
AcDbCircle
 10
1675.999461
 20
6944.157361
 30
0.0
 40
6018.150391
100
AcDbArc
 50
268.190796
 51
271.809205
  0
ARC
  5
8A3
100
AcDbEntity
  8
便座
  6
CONTINUOUS
 62
     6
100
AcDbCircle
 10
1675.998256
 20
5475.799418
 30
0.0
 40
4514.486328
100
AcDbArc
 50
267.731239
 51
272.268805
  0
ARC
  5
8A4
100
AcDbEntity
  8
便座
  6
CONTINUOUS
 62
     6
100
AcDbCircle
 10
1675.997669
 20
2753.90245
 30
0.0
 40
1799.236328
100
AcDbArc
 50
264.234742
 51
275.765259
  0
ARC
  5
8A5
100
AcDbEntity
  8
便座
  6
CONTINUOUS
 62
     6
100
AcDbCircle
 10
1675.998708
 20
1513.243871
 30
0.0
 40
531.345886
100
AcDbArc
 50
250.317653
 51
289.682643
  0
ARC
  5
8A6
100
AcDbEntity
  8
便座
  6
CONTINUOUS
 62
     6
100
AcDbCircle
 10
1477.926722
 20
909.441899
 30
0.0
 40
10.0
100
AcDbArc
 50
135.0
 51
180.0
  0
ARC
  5
8A7
100
AcDbEntity
  8
便座
  6
CONTINUOUS
 62
     6
100
AcDbCircle
 10
1477.926722
 20
909.441899
 30
0.0
 40
14.3
100
AcDbArc
 50
135.0
 51
180.0
  0
ARC
  5
8A8
100
AcDbEntity
  8
便座
  6
CONTINUOUS
 62
     6
100
AcDbCircle
 10
1499.695232
 20
1022.407437
 30
0.0
 40
13.0
100
AcDbArc
 50
101.791546
 51
164.95632
  0
ARC
  5
8A9
100
AcDbEntity
  8
便座
  6
CONTINUOUS
 62
     6
100
AcDbCircle
 10
1497.916671
 20
980.83933
 30
0.0
 40
16.0
100
AcDbArc
 50
181.904512
 51
267.731239
  0
ARC
  5
8AA
100
AcDbEntity
  8
便座
  6
CONTINUOUS
 62
     6
100
AcDbCircle
 10
1499.835205
 20
1022.45163
 30
0.0
 40
15.0
100
AcDbArc
 50
100.318298
 51
165.653076
  0
ARC
  5
8AB
100
AcDbEntity
  8
便座
  6
CONTINUOUS
 62
     6
100
AcDbCircle
 10
1494.454102
 20
955.807626
 30
0.0
 40
8.000001
100
AcDbArc
 50
84.234772
 51
132.005799
  0
LINE
  5
8AC
100
AcDbEntity
  8
便座
  6
CONTINUOUS
 62
     6
100
AcDbLine
 10
1476.611031
 20
986.462158
 30
0.0
 11
1476.0
 21
916.455231
 31
0.0
  0
LINE
  5
8AD
100
AcDbEntity
  8
便座
  6
CONTINUOUS
 62
     6
100
AcDbLine
 10
1480.71643
 20
994.235199
 30
0.0
 11
1478.018072
 21
916.972683
 31
0.0
  0
LINE
  5
8AE
100
AcDbEntity
  8
便座
  6
CONTINUOUS
 62
     6
100
AcDbLine
 10
1476.349148
 20
986.457794
 30
0.0
 11
1476.349148
 21
956.457794
 31
0.0
  0
ARC
  5
8AF
100
AcDbEntity
  8
便座
  6
CONTINUOUS
 62
     6
100
AcDbCircle
 10
1532.768765
 20
971.457794
 30
0.0
 40
70.0
100
AcDbArc
 50
169.056093
 51
190.865979
  0
LINE
  5
8B0
100
AcDbEntity
  8
便座
  6
CONTINUOUS
 62
     6
100
AcDbLine
 10
1486.685433
 20
968.410676
 30
0.0
 11
1485.997619
 21
929.006501
 31
0.0
  0
ARC
  5
8B1
100
AcDbEntity
  8
便座
  6
CONTINUOUS
 62
     6
100
AcDbCircle
 10
1474.0
 20
931.455231
 30
0.0
 40
2.0
100
AcDbArc
 50
90.0
 51
180.0
  0
LINE
  5
8B2
100
AcDbEntity
  8
便座
  6
CONTINUOUS
 62
     6
100
AcDbLine
 10
1472.0
 20
916.455231
 30
0.0
 11
1472.0
 21
931.455231
 31
0.0
  0
LINE
  5
8B3
100
AcDbEntity
  8
便座
  6
CONTINUOUS
 62
     6
100
AcDbLine
 10
1472.0
 20
916.455231
 30
0.0
 11
1465.494618
 21
922.960613
 31
0.0
  0
LINE
  5
8B4
100
AcDbEntity
  8
便座
  6
CONTINUOUS
 62
     6
100
AcDbLine
 10
1465.494618
 20
922.960613
 30
0.0
 11
1472.0
 21
929.465996
 31
0.0
  0
LINE
  5
8B5
100
AcDbEntity
  8
便座
  6
CONTINUOUS
 62
     6
100
AcDbLine
 10
1470.855654
 20
916.512967
 30
0.0
 11
1471.398959
 21
917.056272
 31
0.0
  0
LINE
  5
8B6
100
AcDbEntity
  8
便座
  6
CONTINUOUS
 62
     6
100
AcDbLine
 10
1467.815095
 20
919.553526
 30
0.0
 11
1468.3584
 21
920.096831
 31
0.0
  0
LINE
  5
8B7
100
AcDbEntity
  8
便座
  6
CONTINUOUS
 62
     6
100
AcDbLine
 10
1478.584045
 20
916.455231
 30
0.0
 11
1479.044067
 21
929.629669
 31
0.0
  0
LINE
  5
8B8
100
AcDbEntity
  8
便座
  6
CONTINUOUS
 62
     6
100
AcDbLine
 10
1484.041076
 20
934.45517
 30
0.0
 11
1486.140967
 21
934.45517
 31
0.0
  0
ARC
  5
8B9
100
AcDbEntity
  8
便座
  6
CONTINUOUS
 62
     6
100
AcDbCircle
 10
1484.041076
 20
929.45517
 30
0.0
 40
5.0
100
AcDbArc
 50
90.0
 51
178.0
  0
ARC
  5
8BA
100
AcDbEntity
  8
便座
  6
CONTINUOUS
 62
     6
100
AcDbCircle
 10
1478.517767
 20
916.955231
 30
0.0
 40
0.5
100
AcDbArc
 50
177.999784
 51
270.0
  0
ARC
  5
8BB
100
AcDbEntity
  8
便座
  6
CONTINUOUS
 62
     6
100
AcDbCircle
 10
1476.504383
 20
916.955231
 30
0.0
 40
0.5
100
AcDbArc
 50
179.499927
 51
270.0
  0
LINE
  5
8BC
100
AcDbEntity
  8
便座
  6
CONTINUOUS
 62
     6
100
AcDbLine
 10
1476.0
 20
916.455231
 30
0.0
 11
1476.0
 21
933.455231
 31
0.0
  0
LINE
  5
8BD
100
AcDbEntity
  8
便座
  6
CONTINUOUS
 62
     6
100
AcDbLine
 10
1476.0
 20
933.455231
 30
0.0
 11
1474.0
 21
933.455231
 31
0.0
  0
LINE
  5
8BE
100
AcDbEntity
  8
便座
  6
CONTINUOUS
 62
     6
100
AcDbLine
 10
1476.349148
 20
956.457794
 30
0.0
 11
1465.953045
 21
956.639259
 31
0.0
  0
ARC
  5
8BF
100
AcDbEntity
  8
便座
  6
CONTINUOUS
 62
     6
100
AcDbCircle
 10
1465.98795
 20
958.638954
 30
0.0
 40
2.0
100
AcDbArc
 50
190.865979
 51
269.0
  0
LINE
  5
8C0
100
AcDbEntity
  8
便座
  6
CONTINUOUS
 62
     6
100
AcDbLine
 10
1476.440794
 20
966.957794
 30
0.0
 11
1476.349148
 21
966.957794
 31
0.0
  0
ARC
  5
8C1
100
AcDbEntity
  8
便座
  6
CONTINUOUS
 62
     6
100
AcDbCircle
 10
1632.0
 20
986.848352
 30
0.0
 40
150.0
100
AcDbArc
 50
164.95632
 51
174.523035
  0
ARC
  5
8C2
100
AcDbEntity
  8
便座
  6
CONTINUOUS
 62
     6
100
AcDbCircle
 10
1630.625
 20
988.999787
 30
0.0
 40
150.0
100
AcDbArc
 50
165.653137
 51
177.999817
  0
LINE
  5
8C3
100
AcDbEntity
  8
便座
  6
CONTINUOUS
 62
     6
100
AcDbLine
 10
1476.349148
 20
986.457794
 30
0.0
 11
1465.953045
 21
986.276329
 31
0.0
  0
ARC
  5
8C4
100
AcDbEntity
  8
便座
  6
CONTINUOUS
 62
     6
100
AcDbCircle
 10
1465.98795
 20
984.276634
 30
0.0
 40
2.0
100
AcDbArc
 50
91.0
 51
169.134021
  0
ARC
  5
8C5
100
AcDbEntity
  8
便座
  6
CONTINUOUS
 62
     6
100
AcDbCircle
 10
1479.996761
 20
987.955231
 30
0.0
 40
0.5
100
AcDbArc
 50
270.0
 51
357.999268
  0
ARC
  5
8C6
100
AcDbEntity
  8
便座
  6
CONTINUOUS
 62
     6
100
AcDbCircle
 10
1477.691463
 20
986.957794
 30
0.0
 40
0.5
100
AcDbArc
 50
95.804535
 51
180.0
  0
ARC
  5
8C7
100
AcDbEntity
  8
便座
  6
CONTINUOUS
 62
     6
100
AcDbCircle
 10
1479.979427
 20
987.457794
 30
0.0
 40
0.5
100
AcDbArc
 50
270.0
 51
357.999784
  0
ARC
  5
8C8
100
AcDbEntity
  8
便座
  6
CONTINUOUS
 62
     6
100
AcDbCircle
 10
1477.111012
 20
986.457794
 30
0.0
 40
0.5
100
AcDbArc
 50
90.0
 51
179.499927
  0
LINE
  5
8C9
100
AcDbEntity
  8
便座
  6
CONTINUOUS
 62
     6
100
AcDbLine
 10
1479.979427
 20
986.957794
 30
0.0
 11
1477.111012
 21
986.957794
 31
0.0
  0
LINE
  5
8CA
100
AcDbEntity
  8
便座
  6
CONTINUOUS
 62
     6
100
AcDbLine
 10
1479.996761
 20
987.455231
 30
0.0
 11
1477.640926
 21
987.455231
 31
0.0
  0
ARC
  5
8CB
100
AcDbEntity
  8
便座
  6
CONTINUOUS
 62
     6
100
AcDbCircle
 10
1631.842649
 20
985.29267
 30
0.0
 40
150.0
100
AcDbArc
 50
173.925773
 51
181.904512
  0
LINE
  5
8CC
100
AcDbEntity
  8
便座
  6
CONTINUOUS
 62
     6
100
AcDbLine
 10
1476.519347
 20
975.957794
 30
0.0
 11
1476.349148
 21
975.957794
 31
0.0
  0
ARC
  5
8CD
100
AcDbEntity
  8
便座
  6
CONTINUOUS
 62
     6
100
AcDbCircle
 10
1575.497685
 20
919.455124
 30
0.0
 40
2.999994
100
AcDbArc
 50
270.0
 51
0.0
  0
ARC
  5
8CE
100
AcDbEntity
  8
便座
  6
CONTINUOUS
 62
     6
100
AcDbCircle
 10
1536.497685
 20
919.455225
 30
0.0
 40
2.999994
100
AcDbArc
 50
180.0
 51
270.0
  0
ARC
  5
8CF
100
AcDbEntity
  8
便座
  6
CONTINUOUS
 62
     6
100
AcDbCircle
 10
1534.457223
 20
968.654988
 30
0.0
 40
7.000001
100
AcDbArc
 50
270.0
 51
293.470215
  0
ARC
  5
8D0
100
AcDbEntity
  8
便座
  6
CONTINUOUS
 62
     6
100
AcDbCircle
 10
1515.497563
 20
920.225755
 30
0.0
 40
2.999994
100
AcDbArc
 50
180.0
 51
270.0
  0
LINE
  5
8D1
100
AcDbEntity
  8
便座
  6
CONTINUOUS
 62
     6
100
AcDbLine
 10
1512.497559
 20
928.228072
 30
0.0
 11
1512.497563
 21
920.225875
 31
0.0
  0
LINE
  5
8D2
100
AcDbEntity
  8
便座
  6
CONTINUOUS
 62
     6
100
AcDbLine
 10
1533.497683
 20
924.2149
 30
0.0
 11
1533.497685
 21
919.455225
 31
0.0
  0
ARC
  5
8D3
100
AcDbEntity
  8
便座
  6
CONTINUOUS
 62
     6
100
AcDbCircle
 10
1528.497683
 20
924.21502
 30
0.0
 40
5.000018
100
AcDbArc
 50
359.999299
 51
44.641694
  0
LINE
  5
8D4
100
AcDbEntity
  8
便座
  6
CONTINUOUS
 62
     6
100
AcDbLine
 10
1526.618052
 20
961.089926
 30
0.0
 11
1527.618113
 21
961.089926
 31
0.0
  0
ARC
  5
8D5
100
AcDbEntity
  8
便座
  6
CONTINUOUS
 62
     6
100
AcDbCircle
 10
1526.618113
 20
967.08992
 30
0.0
 40
5.999994
100
AcDbArc
 50
211.471007
 51
270.0
  0
ARC
  5
8D6
100
AcDbEntity
  8
便座
  6
CONTINUOUS
 62
     6
100
AcDbCircle
 10
1527.618113
 20
967.08992
 30
0.0
 40
5.999994
100
AcDbArc
 50
270.0
 51
324.36802
  0
LINE
  5
8D7
100
AcDbEntity
  8
便座
  6
CONTINUOUS
 62
     6
100
AcDbLine
 10
1535.946057
 20
961.815145
 30
0.0
 11
1535.921034
 21
960.380819
 31
0.0
  0
ARC
  5
8D8
100
AcDbEntity
  8
便座
  6
CONTINUOUS
 62
     6
100
AcDbCircle
 10
1569.107246
 20
888.852761
 30
0.0
 40
80.000092
100
AcDbArc
 50
111.35036
 51
113.470459
  0
ARC
  5
8D9
100
AcDbEntity
  8
便座
  6
CONTINUOUS
 62
     6
100
AcDbCircle
 10
1583.497683
 20
924.214806
 30
0.0
 40
5.000006
100
AcDbArc
 50
149.068451
 51
180.000733
  0
LINE
  5
8DA
100
AcDbEntity
  8
便座
  6
CONTINUOUS
 62
     6
100
AcDbLine
 10
1578.497683
 20
924.214803
 30
0.0
 11
1578.497685
 21
919.455124
 31
0.0
  0
ARC
  5
8DB
100
AcDbEntity
  8
便座
  6
CONTINUOUS
 62
     6
100
AcDbCircle
 10
1586.706909
 20
545.295136
 30
0.0
 40
500.0
100
AcDbArc
 50
93.412781
 51
96.07113
  0
ARC
  5
8DC
100
AcDbEntity
  8
便座
  6
CONTINUOUS
 62
     6
100
AcDbCircle
 10
1532.999998
 20
1040.669082
 30
0.0
 40
1.999998
100
AcDbArc
 50
0.0
 51
97.58545
  0
ARC
  5
8DD
100
AcDbEntity
  8
便座
  6
CONTINUOUS
 62
     6
100
AcDbCircle
 10
1599.214474
 20
545.68433
 30
0.0
 40
500.0
100
AcDbArc
 50
97.814878
 51
101.791546
  0
ARC
  5
8DE
100
AcDbEntity
  8
便座
  6
CONTINUOUS
 62
     6
100
AcDbCircle
 10
1586.706909
 20
545.295136
 30
0.0
 40
500.0
100
AcDbArc
 50
97.494294
 51
100.318329
  0
ARC
  5
8DF
100
AcDbEntity
  8
便座
  6
CONTINUOUS
 62
     6
100
AcDbCircle
 10
1531.5
 20
1039.059187
 30
0.0
 40
2.0
100
AcDbArc
 50
0.0
 51
97.814878
  0
ARC
  5
8E0
100
AcDbEntity
  8
便座
  6
CONTINUOUS
 62
     6
100
AcDbCircle
 10
1598.739263
 20
547.027088
 30
0.0
 40
499.999969
100
AcDbArc
 50
97.585572
 51
98.887345
  0
ARC
  5
8E1
100
AcDbEntity
  8
便座
  6
CONTINUOUS
 62
     6
100
AcDbCircle
 10
1540.779062
 20
1040.144301
 30
0.0
 40
3.0
100
AcDbArc
 50
95.384353
 51
179.000001
  0
LINE
  5
8E2
100
AcDbEntity
  8
便座
  6
CONTINUOUS
 62
     6
100
AcDbLine
 10
1537.758911
 20
1039.014247
 30
0.0
 11
1537.779566
 21
1040.196779
 31
0.0
  0
ARC
  5
8E3
100
AcDbEntity
  8
便座
  6
CONTINUOUS
 62
     6
100
AcDbCircle
 10
1540.779175
 20
1040.144379
 30
0.0
 40
3.0
100
AcDbArc
 50
95.384094
 51
178.999207
  0
LINE
  5
8E4
100
AcDbEntity
  8
便座
  6
CONTINUOUS
 62
     6
100
AcDbLine
 10
1534.999999
 20
1038.823282
 30
0.0
 11
1534.999998
 21
1040.669083
 31
0.0
  0
ARC
  5
8E5
100
AcDbEntity
  8
便座
  6
CONTINUOUS
 62
     6
100
AcDbCircle
 10
1752.785526
 20
545.68433
 30
0.0
 40
500.0
100
AcDbArc
 50
78.208454
 51
82.185122
  0
ARC
  5
8E6
100
AcDbEntity
  8
便座
  6
CONTINUOUS
 62
     6
100
AcDbCircle
 10
1824.381845
 20
967.089837
 30
0.0
 40
5.999994
100
AcDbArc
 50
215.629763
 51
270.0
  0
ARC
  5
8E7
100
AcDbEntity
  8
便座
  6
CONTINUOUS
 62
     6
100
AcDbCircle
 10
1764.58435
 20
545.33725
 30
0.0
 40
500.0
100
AcDbArc
 50
79.641932
 51
86.614349
  0
ARC
  5
8E8
100
AcDbEntity
  8
便座
  6
CONTINUOUS
 62
     6
100
AcDbCircle
 10
1776.497563
 20
919.448408
 30
0.0
 40
2.999994
100
AcDbArc
 50
180.0
 51
270.0
  0
LINE
  5
8E9
100
AcDbEntity
  8
便座
  6
CONTINUOUS
 62
     6
100
AcDbLine
 10
1773.497561
 20
924.214908
 30
0.0
 11
1773.497563
 21
919.448408
 31
0.0
  0
ARC
  5
8EA
100
AcDbEntity
  8
便座
  6
CONTINUOUS
 62
     6
100
AcDbCircle
 10
1768.497561
 20
924.215028
 30
0.0
 40
5.000009
100
AcDbArc
 50
359.999299
 51
30.931366
  0
LINE
  5
8EB
100
AcDbEntity
  8
便座
  6
CONTINUOUS
 62
     6
100
AcDbLine
 10
1818.497561
 20
924.214811
 30
0.0
 11
1818.497563
 21
919.448307
 31
0.0
  0
ARC
  5
8EC
100
AcDbEntity
  8
便座
  6
CONTINUOUS
 62
     6
100
AcDbCircle
 10
1823.497683
 20
924.214935
 30
0.0
 40
5.000026
100
AcDbArc
 50
135.357819
 51
180.001038
  0
ARC
  5
8ED
100
AcDbEntity
  8
便座
  6
CONTINUOUS
 62
     6
100
AcDbCircle
 10
1815.497563
 20
919.448307
 30
0.0
 40
2.999994
100
AcDbArc
 50
270.0
 51
0.0
  0
LINE
  5
8EE
100
AcDbEntity
  8
便座
  6
CONTINUOUS
 62
     6
100
AcDbLine
 10
1816.053968
 20
961.815174
 30
0.0
 11
1816.078993
 21
960.380726
 31
0.0
  0
ARC
  5
8EF
100
AcDbEntity
  8
便座
  6
CONTINUOUS
 62
     6
100
AcDbCircle
 10
1782.892692
 20
888.852876
 30
0.0
 40
80.000092
100
AcDbArc
 50
66.529541
 51
68.649617
  0
ARC
  5
8F0
100
AcDbEntity
  8
便座
  6
CONTINUOUS
 62
     6
100
AcDbCircle
 10
1817.542733
 20
968.655019
 30
0.0
 40
7.000001
100
AcDbArc
 50
246.529541
 51
270.0
  0
ARC
  5
8F1
100
AcDbEntity
  8
便座
  6
CONTINUOUS
 62
     6
100
AcDbCircle
 10
1674.27699
 20
-953.31387
 30
0.0
 40
1996.999878
100
AcDbArc
 50
85.858503
 51
94.042375
  0
ARC
  5
8F2
100
AcDbEntity
  8
便座
  6
CONTINUOUS
 62
     6
100
AcDbCircle
 10
1820.5
 20
1039.059187
 30
0.0
 40
2.0
100
AcDbArc
 50
82.185122
 51
180.0
  0
LINE
  5
8F3
100
AcDbEntity
  8
便座
  6
CONTINUOUS
 62
     6
100
AcDbLine
 10
1814.245271
 20
1038.774831
 30
0.0
 11
1814.220116
 21
1040.214975
 31
0.0
  0
ARC
  5
8F4
100
AcDbEntity
  8
便座
  6
CONTINUOUS
 62
     6
100
AcDbCircle
 10
1811.220947
 20
1040.144379
 30
0.0
 40
3.0
100
AcDbArc
 50
1.000793
 51
84.615906
  0
ARC
  5
8F5
100
AcDbEntity
  8
便座
  6
CONTINUOUS
 62
     6
100
AcDbCircle
 10
1811.220937
 20
1040.144312
 30
0.0
 40
3.0
100
AcDbArc
 50
0.999999
 51
84.615661
  0
ARC
  5
8F6
100
AcDbEntity
  8
便座
  6
CONTINUOUS
 62
     6
100
AcDbCircle
 10
1852.304768
 20
1022.407437
 30
0.0
 40
13.0
100
AcDbArc
 50
15.04368
 51
78.208454
  0
ARC
  5
8F7
100
AcDbEntity
  8
便座
  6
CONTINUOUS
 62
     6
100
AcDbCircle
 10
1851.786987
 20
1022.433319
 30
0.0
 40
15.0
100
AcDbArc
 50
15.07666
 51
79.641903
  0
ARC
  5
8F8
100
AcDbEntity
  8
便座
  6
CONTINUOUS
 62
     6
100
AcDbCircle
 10
1854.083328
 20
980.839468
 30
0.0
 40
16.0
100
AcDbArc
 50
272.268805
 51
358.095527
  0
LINE
  5
8F9
100
AcDbEntity
  8
便座
  6
CONTINUOUS
 62
     6
100
AcDbLine
 10
1873.981929
 20
916.972682
 30
0.0
 11
1871.342418
 21
992.553473
 31
0.0
  0
ARC
  5
8FA
100
AcDbEntity
  8
便座
  6
CONTINUOUS
 62
     6
100
AcDbCircle
 10
1857.541153
 20
955.807577
 30
0.0
 40
8.000002
100
AcDbArc
 50
43.370667
 51
95.765442
  0
LINE
  5
8FB
100
AcDbEntity
  8
便座
  6
CONTINUOUS
 62
     6
100
AcDbLine
 10
1839.497681
 20
928.228005
 30
0.0
 11
1839.497685
 21
920.225808
 31
0.0
  0
ARC
  5
8FC
100
AcDbEntity
  8
便座
  6
CONTINUOUS
 62
     6
100
AcDbCircle
 10
1836.497685
 20
920.225684
 30
0.0
 40
2.999994
100
AcDbArc
 50
270.0
 51
0.0
  0
LINE
  5
8FD
100
AcDbEntity
  8
便座
  6
CONTINUOUS
 62
     6
100
AcDbLine
 10
1825.381968
 20
961.089843
 30
0.0
 11
1824.381845
 21
961.089843
 31
0.0
  0
ARC
  5
8FE
100
AcDbEntity
  8
便座
  6
CONTINUOUS
 62
     6
100
AcDbCircle
 10
1825.381968
 20
967.089837
 30
0.0
 40
5.999994
100
AcDbArc
 50
270.0
 51
328.531332
  0
LINE
  5
8FF
100
AcDbEntity
  8
便座
  6
CONTINUOUS
 62
     6
100
AcDbLine
 10
1865.309823
 20
968.410636
 30
0.0
 11
1865.99768
 21
929.006462
 31
0.0
  0
LINE
  5
900
100
AcDbEntity
  8
便座
  6
CONTINUOUS
 62
     6
100
AcDbLine
 10
1873.416015
 20
916.455231
 30
0.0
 11
1872.955932
 21
929.629669
 31
0.0
  0
LINE
  5
901
100
AcDbEntity
  8
便座
  6
CONTINUOUS
 62
     6
100
AcDbLine
 10
1867.958984
 20
934.45517
 30
0.0
 11
1865.854323
 21
934.45517
 31
0.0
  0
ARC
  5
902
100
AcDbEntity
  8
便座
  6
CONTINUOUS
 62
     6
100
AcDbCircle
 10
1867.958984
 20
929.45517
 30
0.0
 40
5.0
100
AcDbArc
 50
2.000031
 51
90.0
  0
ARC
  5
903
100
AcDbEntity
  8
便座
  6
CONTINUOUS
 62
     6
100
AcDbCircle
 10
1873.482234
 20
916.955231
 30
0.0
 40
0.5
100
AcDbArc
 50
270.0
 51
2.00013
  0
ARC
  5
904
100
AcDbEntity
  8
便座
  6
CONTINUOUS
 62
     6
100
AcDbCircle
 10
1720.0
 20
986.848352
 30
0.0
 40
150.0
100
AcDbArc
 50
2.074556
 51
15.04368
  0
ARC
  5
905
100
AcDbEntity
  8
便座
  6
CONTINUOUS
 62
     6
100
AcDbCircle
 10
1721.433777
 20
987.318207
 30
0.0
 40
150.0
100
AcDbArc
 50
2.000153
 51
15.076721
  0
ARC
  5
906
100
AcDbEntity
  8
便座
  6
CONTINUOUS
 62
     6
100
AcDbCircle
 10
1720.157346
 20
985.292718
 30
0.0
 40
150.0
100
AcDbArc
 50
358.095527
 51
2.67814
  0
LINE
  5
907
100
AcDbEntity
  8
便座
  6
CONTINUOUS
 62
     6
100
AcDbLine
 10
1365.999996
 20
874.450501
 30
0.0
 11
1386.000004
 21
874.450501
 31
0.0
  0
LINE
  5
908
100
AcDbEntity
  8
便座
  6
CONTINUOUS
 62
     6
100
AcDbLine
 10
1383.000004
 20
844.450501
 30
0.0
 11
1388.354344
 21
861.000306
 31
0.0
  0
LINE
  5
909
100
AcDbEntity
  8
便座
  6
CONTINUOUS
 62
     6
100
AcDbLine
 10
1380.500004
 20
844.450501
 30
0.0
 11
1385.378102
 21
861.036073
 31
0.0
  0
ARC
  5
90A
100
AcDbEntity
  8
便座
  6
CONTINUOUS
 62
     6
100
AcDbCircle
 10
1383.500004
 20
868.950501
 30
0.0
 40
2.0
100
AcDbArc
 50
0.0
 51
90.0
  0
LINE
  5
90B
100
AcDbEntity
  8
便座
  6
CONTINUOUS
 62
     6
100
AcDbLine
 10
1369.000012
 20
844.450501
 30
0.0
 11
1363.645657
 21
861.000306
 31
0.0
  0
LINE
  5
90C
100
AcDbEntity
  8
便座
  6
CONTINUOUS
 62
     6
100
AcDbLine
 10
1371.500012
 20
844.450501
 30
0.0
 11
1366.621899
 21
861.036073
 31
0.0
  0
ARC
  5
90D
100
AcDbEntity
  8
便座
  6
CONTINUOUS
 62
     6
100
AcDbCircle
 10
1365.999996
 20
871.950501
 30
0.0
 40
2.5
100
AcDbArc
 50
90.0
 51
180.0
  0
LINE
  5
90E
100
AcDbEntity
  8
便座
  6
CONTINUOUS
 62
     6
100
AcDbLine
 10
1383.000004
 20
874.450501
 30
0.0
 11
1383.000004
 21
874.950501
 31
0.0
  0
LINE
  5
90F
100
AcDbEntity
  8
便座
  6
CONTINUOUS
 62
     6
100
AcDbLine
 10
1368.999996
 20
874.450501
 30
0.0
 11
1368.999996
 21
874.950501
 31
0.0
  0
LINE
  5
910
100
AcDbEntity
  8
便座
  6
CONTINUOUS
 62
     6
100
AcDbLine
 10
1369.499996
 20
875.450501
 30
0.0
 11
1382.500004
 21
875.450501
 31
0.0
  0
ARC
  5
911
100
AcDbEntity
  8
便座
  6
CONTINUOUS
 62
     6
100
AcDbCircle
 10
1369.499996
 20
874.950501
 30
0.0
 40
0.5
100
AcDbArc
 50
90.0
 51
180.0
  0
ARC
  5
912
100
AcDbEntity
  8
便座
  6
CONTINUOUS
 62
     6
100
AcDbCircle
 10
1382.500004
 20
874.950501
 30
0.0
 40
0.5
100
AcDbArc
 50
0.0
 51
90.0
  0
LINE
  5
913
100
AcDbEntity
  8
便座
  6
CONTINUOUS
 62
     6
100
AcDbLine
 10
1363.499996
 20
871.950501
 30
0.0
 11
1363.499996
 21
861.923768
 31
0.0
  0
LINE
  5
914
100
AcDbEntity
  8
便座
  6
CONTINUOUS
 62
     6
100
AcDbLine
 10
1362.749996
 20
869.450501
 30
0.0
 11
1363.499996
 21
869.450501
 31
0.0
  0
LINE
  5
915
100
AcDbEntity
  8
便座
  6
CONTINUOUS
 62
     6
100
AcDbLine
 10
1362.749996
 20
869.450501
 30
0.0
 11
1362.749996
 21
862.120912
 31
0.0
  0
LINE
  5
916
100
AcDbEntity
  8
便座
  6
CONTINUOUS
 62
     6
100
AcDbLine
 10
1364.652889
 20
855.450501
 30
0.0
 11
1365.441174
 21
855.450501
 31
0.0
  0
LINE
  5
917
100
AcDbEntity
  8
便座
  6
CONTINUOUS
 62
     6
100
AcDbLine
 10
1364.652889
 20
855.450501
 30
0.0
 11
1362.992764
 21
860.581788
 31
0.0
  0
LINE
  5
918
100
AcDbEntity
  8
便座
  6
CONTINUOUS
 62
     6
100
AcDbLine
 10
1366.499996
 20
868.950501
 30
0.0
 11
1366.499996
 21
861.882569
 31
0.0
  0
LINE
  5
919
100
AcDbEntity
  8
便座
  6
CONTINUOUS
 62
     6
100
AcDbLine
 10
1368.499996
 20
870.950501
 30
0.0
 11
1383.500004
 21
870.950501
 31
0.0
  0
ARC
  5
91A
100
AcDbEntity
  8
便座
  6
CONTINUOUS
 62
     6
100
AcDbCircle
 10
1366.499996
 20
861.923768
 30
0.0
 40
3.0
100
AcDbArc
 50
180.0
 51
197.927734
  0
ARC
  5
91B
100
AcDbEntity
  8
便座
  6
CONTINUOUS
 62
     6
100
AcDbCircle
 10
1366.499996
 20
861.923768
 30
0.0
 40
3.0
100
AcDbArc
 50
180.0
 51
197.927734
  0
ARC
  5
91C
100
AcDbEntity
  8
便座
  6
CONTINUOUS
 62
     6
100
AcDbCircle
 10
1366.499996
 20
861.923768
 30
0.0
 40
3.0
100
AcDbArc
 50
180.0
 51
197.927979
  0
ARC
  5
91D
100
AcDbEntity
  8
便座
  6
CONTINUOUS
 62
     6
100
AcDbCircle
 10
1367.749996
 20
862.120912
 30
0.0
 40
5.0
100
AcDbArc
 50
180.0
 51
197.927979
  0
ARC
  5
91E
100
AcDbEntity
  8
便座
  6
CONTINUOUS
 62
     6
100
AcDbCircle
 10
1368.499996
 20
868.950501
 30
0.0
 40
2.0
100
AcDbArc
 50
90.0
 51
180.0
  0
ARC
  5
91F
100
AcDbEntity
  8
便座
  6
CONTINUOUS
 62
     6
100
AcDbCircle
 10
1369.499996
 20
861.882569
 30
0.0
 40
3.0
100
AcDbArc
 50
180.0
 51
196.389526
  0
LINE
  5
920
100
AcDbEntity
  8
便座
  6
CONTINUOUS
 62
     6
100
AcDbLine
 10
1369.000012
 20
844.450501
 30
0.0
 11
1369.750012
 21
842.450501
 31
0.0
  0
LINE
  5
921
100
AcDbEntity
  8
便座
  6
CONTINUOUS
 62
     6
100
AcDbLine
 10
1383.000004
 20
844.450501
 30
0.0
 11
1382.250004
 21
842.450501
 31
0.0
  0
LINE
  5
922
100
AcDbEntity
  8
便座
  6
CONTINUOUS
 62
     6
100
AcDbLine
 10
1370.250012
 20
842.450501
 30
0.0
 11
1370.361111
 21
840.950501
 31
0.0
  0
LINE
  5
923
100
AcDbEntity
  8
便座
  6
CONTINUOUS
 62
     6
100
AcDbLine
 10
1381.750004
 20
842.450501
 30
0.0
 11
1381.638889
 21
840.950501
 31
0.0
  0
LINE
  5
924
100
AcDbEntity
  8
便座
  6
CONTINUOUS
 62
     6
100
AcDbLine
 10
1370.916668
 20
833.450501
 30
0.0
 11
1371.027783
 21
831.950501
 31
0.0
  0
LINE
  5
925
100
AcDbEntity
  8
便座
  6
CONTINUOUS
 62
     6
100
AcDbLine
 10
1370.694454
 20
836.450501
 30
0.0
 11
1370.805554
 21
834.950501
 31
0.0
  0
LINE
  5
926
100
AcDbEntity
  8
便座
  6
CONTINUOUS
 62
     6
100
AcDbLine
 10
1370.472241
 20
839.450501
 30
0.0
 11
1370.58334
 21
837.950501
 31
0.0
  0
LINE
  5
927
100
AcDbEntity
  8
便座
  6
CONTINUOUS
 62
     6
100
AcDbLine
 10
1381.194447
 20
834.950501
 30
0.0
 11
1381.305561
 21
836.450501
 31
0.0
  0
LINE
  5
928
100
AcDbEntity
  8
便座
  6
CONTINUOUS
 62
     6
100
AcDbLine
 10
1381.305561
 20
836.450501
 30
0.0
 11
1381.194447
 21
834.950501
 31
0.0
  0
LINE
  5
929
100
AcDbEntity
  8
便座
  6
CONTINUOUS
 62
     6
100
AcDbLine
 10
1381.527775
 20
839.450501
 30
0.0
 11
1381.41666
 21
837.950501
 31
0.0
  0
LINE
  5
92A
100
AcDbEntity
  8
便座
  6
CONTINUOUS
 62
     6
100
AcDbLine
 10
1381.305546
 20
836.450501
 30
0.0
 11
1381.194447
 21
834.950501
 31
0.0
  0
LINE
  5
92B
100
AcDbEntity
  8
便座
  6
CONTINUOUS
 62
     6
100
AcDbLine
 10
1381.083332
 20
833.450501
 30
0.0
 11
1380.972233
 21
831.950501
 31
0.0
  0
LINE
  5
92C
100
AcDbEntity
  8
便座
  6
CONTINUOUS
 62
     6
100
AcDbLine
 10
1380.500004
 20
844.450501
 30
0.0
 11
1380.500004
 21
845.950501
 31
0.0
  0
LINE
  5
92D
100
AcDbEntity
  8
便座
  6
CONTINUOUS
 62
     6
100
AcDbLine
 10
1371.500012
 20
844.450501
 30
0.0
 11
1371.500012
 21
845.950501
 31
0.0
  0
LINE
  5
92E
100
AcDbEntity
  8
便座
  6
CONTINUOUS
 62
     6
100
AcDbLine
 10
1371.500012
 20
845.950501
 30
0.0
 11
1380.500004
 21
845.950501
 31
0.0
  0
LINE
  5
92F
100
AcDbEntity
  8
便座
  6
CONTINUOUS
 62
     6
100
AcDbLine
 10
1369.000012
 20
844.450501
 30
0.0
 11
1382.999989
 21
844.450501
 31
0.0
  0
LINE
  5
930
100
AcDbEntity
  8
便座
  6
CONTINUOUS
 62
     6
100
AcDbLine
 10
1369.750012
 20
842.450501
 30
0.0
 11
1382.249989
 21
842.450501
 31
0.0
  0
LINE
  5
931
100
AcDbEntity
  8
便座
  6
CONTINUOUS
 62
     6
100
AcDbLine
 10
1370.804699
 20
828.950501
 30
0.0
 11
1371.000012
 21
826.450501
 31
0.0
  0
LINE
  5
932
100
AcDbEntity
  8
便座
  6
CONTINUOUS
 62
     6
100
AcDbLine
 10
1381.195317
 20
828.950501
 30
0.0
 11
1381.000004
 21
826.450501
 31
0.0
  0
LINE
  5
933
100
AcDbEntity
  8
便座
  6
CONTINUOUS
 62
     6
100
AcDbLine
 10
1371.138897
 20
830.450501
 30
0.0
 11
1371.250012
 21
828.950501
 31
0.0
  0
LINE
  5
934
100
AcDbEntity
  8
便座
  6
CONTINUOUS
 62
     6
100
AcDbLine
 10
1380.861103
 20
830.450501
 30
0.0
 11
1380.750004
 21
828.950501
 31
0.0
  0
LINE
  5
935
100
AcDbEntity
  8
便座
  6
CONTINUOUS
 62
     6
100
AcDbLine
 10
1370.804699
 20
828.950501
 30
0.0
 11
1381.195317
 21
828.950501
 31
0.0
  0
LINE
  5
936
100
AcDbEntity
  8
便座
  6
CONTINUOUS
 62
     6
100
AcDbLine
 10
1371.000012
 20
826.450501
 30
0.0
 11
1381.000004
 21
826.450501
 31
0.0
  0
ARC
  5
937
100
AcDbEntity
  8
便座
  6
CONTINUOUS
 62
     6
100
AcDbCircle
 10
1386.000004
 20
871.950501
 30
0.0
 40
2.5
100
AcDbArc
 50
0.0
 51
90.0
  0
LINE
  5
938
100
AcDbEntity
  8
便座
  6
CONTINUOUS
 62
     6
100
AcDbLine
 10
1388.500004
 20
871.950501
 30
0.0
 11
1388.500004
 21
861.923768
 31
0.0
  0
LINE
  5
939
100
AcDbEntity
  8
便座
  6
CONTINUOUS
 62
     6
100
AcDbLine
 10
1389.250004
 20
869.450501
 30
0.0
 11
1389.250004
 21
862.120912
 31
0.0
  0
LINE
  5
93A
100
AcDbEntity
  8
便座
  6
CONTINUOUS
 62
     6
100
AcDbLine
 10
1387.347111
 20
855.450501
 30
0.0
 11
1389.007221
 21
860.581848
 31
0.0
  0
LINE
  5
93B
100
AcDbEntity
  8
便座
  6
CONTINUOUS
 62
     6
100
AcDbLine
 10
1386.558827
 20
855.450501
 30
0.0
 11
1387.347111
 21
855.450501
 31
0.0
  0
LINE
  5
93C
100
AcDbEntity
  8
便座
  6
CONTINUOUS
 62
     6
100
AcDbLine
 10
1388.500004
 20
869.450501
 30
0.0
 11
1389.250004
 21
869.450501
 31
0.0
  0
LINE
  5
93D
100
AcDbEntity
  8
便座
  6
CONTINUOUS
 62
     6
100
AcDbLine
 10
1385.500004
 20
868.950501
 30
0.0
 11
1385.500004
 21
861.882569
 31
0.0
  0
ARC
  5
93E
100
AcDbEntity
  8
便座
  6
CONTINUOUS
 62
     6
100
AcDbCircle
 10
1385.500004
 20
861.923768
 30
0.0
 40
3.0
100
AcDbArc
 50
342.072021
 51
0.0
  0
ARC
  5
93F
100
AcDbEntity
  8
便座
  6
CONTINUOUS
 62
     6
100
AcDbCircle
 10
1385.500004
 20
861.923768
 30
0.0
 40
3.0
100
AcDbArc
 50
342.072021
 51
0.0
  0
ARC
  5
940
100
AcDbEntity
  8
便座
  6
CONTINUOUS
 62
     6
100
AcDbCircle
 10
1384.250004
 20
862.120912
 30
0.0
 40
5.0
100
AcDbArc
 50
342.072021
 51
0.0
  0
ARC
  5
941
100
AcDbEntity
  8
便座
  6
CONTINUOUS
 62
     6
100
AcDbCircle
 10
1382.500004
 20
861.882569
 30
0.0
 40
3.0
100
AcDbArc
 50
343.610535
 51
0.0
  0
LINE
  5
942
100
AcDbEntity
  8
便座
  6
CONTINUOUS
 62
     6
100
AcDbLine
 10
1341.0
 20
806.4505
 30
0.0
 11
1373.000004
 21
806.4505
 31
0.0
  0
LINE
  5
943
100
AcDbEntity
  8
便座
  6
CONTINUOUS
 62
     6
100
AcDbLine
 10
1379.000004
 20
806.4505
 30
0.0
 11
1411.0
 21
806.4505
 31
0.0
  0
LINE
  5
944
100
AcDbEntity
  8
便座
  6
CONTINUOUS
 62
     6
100
AcDbLine
 10
1373.000004
 20
679.510213
 30
0.0
 11
1373.000004
 21
826.4505
 31
0.0
  0
LINE
  5
945
100
AcDbEntity
  8
便座
  6
CONTINUOUS
 62
     6
100
AcDbLine
 10
1379.000004
 20
680.360213
 30
0.0
 11
1379.000004
 21
826.4505
 31
0.0
  0
LINE
  5
946
100
AcDbEntity
  8
便座
  6
CONTINUOUS
 62
     6
100
AcDbLine
 10
1341.0
 20
926.4505
 30
0.0
 11
1350.0
 21
926.4505
 31
0.0
  0
LINE
  5
947
100
AcDbEntity
  8
便座
  6
CONTINUOUS
 62
     6
100
AcDbLine
 10
1362.0
 20
926.4505
 30
0.0
 11
1370.0
 21
926.4505
 31
0.0
  0
LINE
  5
948
100
AcDbEntity
  8
便座
  6
CONTINUOUS
 62
     6
100
AcDbLine
 10
1382.0
 20
926.4505
 30
0.0
 11
1390.0
 21
926.4505
 31
0.0
  0
LINE
  5
949
100
AcDbEntity
  8
便座
  6
CONTINUOUS
 62
     6
100
AcDbLine
 10
1402.0
 20
926.4505
 30
0.0
 11
1411.0
 21
926.4505
 31
0.0
  0
LINE
  5
94A
100
AcDbEntity
  8
便座
  6
CONTINUOUS
 62
     6
100
AcDbLine
 10
1411.0
 20
926.4505
 30
0.0
 11
1411.0
 21
892.4505
 31
0.0
  0
LINE
  5
94B
100
AcDbEntity
  8
便座
  6
CONTINUOUS
 62
     6
100
AcDbLine
 10
1411.0
 20
880.4505
 30
0.0
 11
1411.0
 21
872.4505
 31
0.0
  0
LINE
  5
94C
100
AcDbEntity
  8
便座
  6
CONTINUOUS
 62
     6
100
AcDbLine
 10
1411.0
 20
860.4505
 30
0.0
 11
1411.0
 21
852.4505
 31
0.0
  0
LINE
  5
94D
100
AcDbEntity
  8
便座
  6
CONTINUOUS
 62
     6
100
AcDbLine
 10
1411.0
 20
840.4505
 30
0.0
 11
1411.0
 21
806.4505
 31
0.0
  0
LINE
  5
94E
100
AcDbEntity
  8
便座
  6
CONTINUOUS
 62
     6
100
AcDbLine
 10
1341.0
 20
926.4505
 30
0.0
 11
1341.0
 21
892.4505
 31
0.0
  0
LINE
  5
94F
100
AcDbEntity
  8
便座
  6
CONTINUOUS
 62
     6
100
AcDbLine
 10
1341.0
 20
880.4505
 30
0.0
 11
1341.0
 21
872.4505
 31
0.0
  0
LINE
  5
950
100
AcDbEntity
  8
便座
  6
CONTINUOUS
 62
     6
100
AcDbLine
 10
1341.0
 20
860.4505
 30
0.0
 11
1341.0
 21
852.4505
 31
0.0
  0
LINE
  5
951
100
AcDbEntity
  8
便座
  6
CONTINUOUS
 62
     6
100
AcDbLine
 10
1341.0
 20
840.4505
 30
0.0
 11
1341.0
 21
806.4505
 31
0.0
  0
LINE
  5
952
100
AcDbEntity
  8
便座
  6
CONTINUOUS
 62
     2
100
AcDbLine
 10
1379.371098
 20
831.200501
 30
0.0
 11
1372.62891
 21
831.200501
 31
0.0
  0
LINE
  5
953
100
AcDbEntity
  8
便座
  6
CONTINUOUS
 62
     2
100
AcDbLine
 10
1379.605473
 20
834.200501
 30
0.0
 11
1372.394535
 21
834.200501
 31
0.0
  0
LINE
  5
954
100
AcDbEntity
  8
便座
  6
CONTINUOUS
 62
     2
100
AcDbLine
 10
1379.839848
 20
837.200501
 30
0.0
 11
1372.16016
 21
837.200501
 31
0.0
  0
LINE
  5
955
100
AcDbEntity
  8
便座
  6
CONTINUOUS
 62
     2
100
AcDbLine
 10
1380.074223
 20
840.200501
 30
0.0
 11
1371.925785
 21
840.200501
 31
0.0
  0
ARC
  5
956
100
AcDbEntity
  8
便座
  6
CONTINUOUS
 62
     6
100
AcDbCircle
 10
1421.313363
 20
680.360213
 30
0.0
 40
42.313359
100
AcDbArc
 50
180.0
 51
0.0
  0
ARC
  5
957
100
AcDbEntity
  8
便座
  6
CONTINUOUS
 62
     6
100
AcDbCircle
 10
1420.463363
 20
679.510213
 30
0.0
 40
47.463359
100
AcDbArc
 50
180.0
 51
0.0
  0
LINE
  5
958
100
AcDbEntity
  8
便座
  6
CONTINUOUS
 62
     6
100
AcDbLine
 10
1463.626722
 20
680.360213
 30
0.0
 11
1463.626722
 21
909.441899
 31
0.0
  0
LINE
  5
959
100
AcDbEntity
  8
便座
  6
CONTINUOUS
 62
     6
100
AcDbLine
 10
1467.926722
 20
679.510213
 30
0.0
 11
1467.926722
 21
909.441899
 31
0.0
  0
LINE
  5
95A
100
AcDbEntity
  8
便座
  6
CONTINUOUS
 62
     6
100
AcDbLine
 10
1836.497685
 20
917.22569
 30
0.0
 11
1817.512492
 21
917.22569
 31
0.0
  0
LINE
  5
95B
100
AcDbEntity
  8
便座
  6
CONTINUOUS
 62
     6
100
AcDbLine
 10
1515.497563
 20
917.225761
 30
0.0
 11
1534.490335
 21
917.225761
 31
0.0
  0
LINE
  5
95C
100
AcDbEntity
  8
便座
  6
CONTINUOUS
 62
     6
100
AcDbLine
 10
1472.0
 20
916.455231
 30
0.0
 11
1506.418671
 21
916.455231
 31
0.0
  0
LINE
  5
95D
100
AcDbEntity
  8
便座
  6
CONTINUOUS
 62
     6
100
AcDbLine
 10
1873.482234
 20
916.455231
 30
0.0
 11
1845.581329
 21
916.455231
 31
0.0
  0
LEADER
  5
95E
100
AcDbEntity
  8
便座
  6
CONTINUOUS
 62
     6
100
AcDbLeader
  3
STANDARD
 73
     3
 74
     1
 75
     0
 40
0.0
 76
     2
 10
1438.206365
 20
635.487988
 30
0.0
 10
1518.0
 20
441.488958
 30
0.0
 77
     6
1001
ACAD
1000
DSTYLE
1002
{
1070
    41
1040
35.0
1070
     5
1000
_EX_NORM
1070
     6
1000
_EX_NORM
1070
     7
1000
_EX_NORM
1070
   341
1005
2D
1002
}
  0
TEXT
  5
95F
100
AcDbEntity
  8
便座
  6
CONTINUOUS
 62
     2
100
AcDbText
 10
1519.7
 20
444.988958
 30
0.0
 40
40.0
  1
コード１．２ｍ
 41
0.801
  7
EXCADSTD
 72
     5
 11
1786.699999
 21
444.988958
 31
0.0
100
AcDbText
  0
LINE
  5
960
100
AcDbEntity
  8
便座
  6
CONTINUOUS
 62
     6
100
AcDbLine
 10
1518.0
 20
441.488958
 30
0.0
 11
1792.0
 21
441.488958
 31
0.0
  0
LINE
  5
961
100
AcDbEntity
  8
紙巻器
  6
CONTINUOUS
 62
     6
100
AcDbLine
 10
1097.942987
 20
2768.347168
 30
0.0
 11
1097.942987
 21
2669.846191
 31
0.0
  0
LINE
  5
962
100
AcDbEntity
  8
紙巻器
  6
CONTINUOUS
 62
     6
100
AcDbLine
 10
1097.942987
 20
2669.846191
 30
0.0
 11
1222.942987
 21
2669.846191
 31
0.0
  0
LINE
  5
963
100
AcDbEntity
  8
紙巻器
  6
CONTINUOUS
 62
     6
100
AcDbLine
 10
1222.942987
 20
2669.846191
 30
0.0
 11
1222.942987
 21
2768.347168
 31
0.0
  0
LINE
  5
964
100
AcDbEntity
  8
紙巻器
  6
CONTINUOUS
 62
     6
100
AcDbLine
 10
1222.942987
 20
2768.347168
 30
0.0
 11
1097.942987
 21
2768.347168
 31
0.0
  0
LINE
  5
965
100
AcDbEntity
  8
紙巻器
  6
CONTINUOUS
 62
     6
100
AcDbLine
 10
1207.442499
 20
2780.34668
 30
0.0
 11
1207.442499
 21
2796.054688
 31
0.0
  0
ARC
  5
966
100
AcDbEntity
  8
紙巻器
  6
CONTINUOUS
 62
     6
100
AcDbCircle
 10
1199.442011
 20
2796.054688
 30
0.0
 40
8.000488
100
AcDbArc
 50
0.0
 51
41.412905
  0
ARC
  5
967
100
AcDbEntity
  8
紙巻器
  6
CONTINUOUS
 62
     6
100
AcDbCircle
 10
1211.443964
 20
2796.054688
 30
0.0
 40
8.001702
100
AcDbArc
 50
138.587129
 51
180.0
  0
LINE
  5
968
100
AcDbEntity
  8
紙巻器
  6
CONTINUOUS
 62
     6
100
AcDbLine
 10
1203.443476
 20
2796.054688
 30
0.0
 11
1203.443476
 21
2780.34668
 31
0.0
  0
LINE
  5
969
100
AcDbEntity
  8
紙巻器
  6
CONTINUOUS
 62
     6
100
AcDbLine
 10
1162.442499
 20
2780.34668
 30
0.0
 11
1162.442499
 21
2796.054688
 31
0.0
  0
ARC
  5
96A
100
AcDbEntity
  8
紙巻器
  6
CONTINUOUS
 62
     6
100
AcDbCircle
 10
1154.442011
 20
2796.054688
 30
0.0
 40
8.000488
100
AcDbArc
 50
0.0
 51
41.412882
  0
ARC
  5
96B
100
AcDbEntity
  8
紙巻器
  6
CONTINUOUS
 62
     6
100
AcDbCircle
 10
1166.443964
 20
2796.054688
 30
0.0
 40
8.001704
100
AcDbArc
 50
138.587144
 51
180.0
  0
LINE
  5
96C
100
AcDbEntity
  8
紙巻器
  6
CONTINUOUS
 62
     6
100
AcDbLine
 10
1158.443476
 20
2796.054688
 30
0.0
 11
1158.443476
 21
2780.34668
 31
0.0
  0
LINE
  5
96D
100
AcDbEntity
  8
紙巻器
  6
CONTINUOUS
 62
     6
100
AcDbLine
 10
1117.442499
 20
2780.34668
 30
0.0
 11
1117.442499
 21
2796.054688
 31
0.0
  0
ARC
  5
96E
100
AcDbEntity
  8
紙巻器
  6
CONTINUOUS
 62
     6
100
AcDbCircle
 10
1109.442011
 20
2796.054688
 30
0.0
 40
8.000488
100
AcDbArc
 50
0.0
 51
41.412905
  0
ARC
  5
96F
100
AcDbEntity
  8
紙巻器
  6
CONTINUOUS
 62
     6
100
AcDbCircle
 10
1121.443964
 20
2796.054688
 30
0.0
 40
8.001702
100
AcDbArc
 50
138.587129
 51
180.0
  0
LINE
  5
970
100
AcDbEntity
  8
紙巻器
  6
CONTINUOUS
 62
     6
100
AcDbLine
 10
1113.443476
 20
2796.054688
 30
0.0
 11
1113.443476
 21
2780.34668
 31
0.0
  0
ARC
  5
971
100
AcDbEntity
  8
紙巻器
  6
CONTINUOUS
 62
     6
100
AcDbCircle
 10
1092.0252
 20
2684.34668
 30
0.0
 40
18.0
100
AcDbArc
 50
202.88538
 51
270.0
  0
ARC
  5
972
100
AcDbEntity
  8
紙巻器
  6
CONTINUOUS
 62
     6
100
AcDbCircle
 10
1228.858952
 20
2684.34668
 30
0.0
 40
18.0
100
AcDbArc
 50
270.0
 51
337.11462
  0
LINE
  5
973
100
AcDbEntity
  8
紙巻器
  6
CONTINUOUS
 62
     6
100
AcDbLine
 10
1092.0252
 20
2666.34668
 30
0.0
 11
1095.442076
 21
2666.34668
 31
0.0
  0
LINE
  5
974
100
AcDbEntity
  8
紙巻器
  6
CONTINUOUS
 62
     6
100
AcDbLine
 10
1225.442076
 20
2666.34668
 30
0.0
 11
1228.858952
 21
2666.34668
 31
0.0
  0
LINE
  5
975
100
AcDbEntity
  8
紙巻器
  6
CONTINUOUS
 62
     6
100
AcDbLine
 10
1095.442076
 20
2666.34668
 30
0.0
 11
1095.942076
 21
2771.34668
 31
0.0
  0
LINE
  5
976
100
AcDbEntity
  8
紙巻器
  6
CONTINUOUS
 62
     6
100
AcDbLine
 10
1224.942076
 20
2771.34668
 30
0.0
 11
1225.442076
 21
2666.34668
 31
0.0
  0
LINE
  5
977
100
AcDbEntity
  8
紙巻器
  6
CONTINUOUS
 62
     6
100
AcDbLine
 10
1095.942076
 20
2771.34668
 30
0.0
 11
1224.942076
 21
2771.34668
 31
0.0
  0
ARC
  5
978
100
AcDbEntity
  8
紙巻器
  6
CONTINUOUS
 62
     6
100
AcDbCircle
 10
1674.61463
 20
2708.84668
 30
0.0
 40
600.0
100
AcDbArc
 50
180.0
 51
183.009412
  0
ARC
  5
979
100
AcDbEntity
  8
紙巻器
  6
CONTINUOUS
 62
     6
100
AcDbCircle
 10
646.269521
 20
2708.84668
 30
0.0
 40
600.0
100
AcDbArc
 50
356.990588
 51
0.0
  0
LINE
  5
97A
100
AcDbEntity
  8
紙巻器
  6
CONTINUOUS
 62
     6
100
AcDbLine
 10
1074.61463
 20
2780.34668
 30
0.0
 11
1074.61463
 21
2708.84668
 31
0.0
  0
LINE
  5
97B
100
AcDbEntity
  8
紙巻器
  6
CONTINUOUS
 62
     6
100
AcDbLine
 10
1246.269521
 20
2708.84668
 30
0.0
 11
1246.269521
 21
2780.34668
 31
0.0
  0
LINE
  5
97C
100
AcDbEntity
  8
紙巻器
  6
CONTINUOUS
 62
     6
100
AcDbLine
 10
1097.941771
 20
1294.455233
 30
0.0
 11
1097.941771
 21
1318.955231
 31
0.0
  0
LINE
  5
97D
100
AcDbEntity
  8
紙巻器
  6
CONTINUOUS
 62
     6
100
AcDbLine
 10
1097.941771
 20
1294.455233
 30
0.0
 11
1222.941771
 21
1294.455233
 31
0.0
  0
LINE
  5
97E
100
AcDbEntity
  8
紙巻器
  6
CONTINUOUS
 62
     6
100
AcDbLine
 10
1222.941771
 20
1294.455233
 30
0.0
 11
1222.941771
 21
1318.955231
 31
0.0
  0
LINE
  5
97F
100
AcDbEntity
  8
紙巻器
  6
CONTINUOUS
 62
     6
100
AcDbLine
 10
1102.941771
 20
1271.955231
 30
0.0
 11
1095.441771
 21
1271.955231
 31
0.0
  0
LINE
  5
980
100
AcDbEntity
  8
紙巻器
  6
CONTINUOUS
 62
     6
100
AcDbLine
 10
1217.941771
 20
1271.955231
 30
0.0
 11
1225.441771
 21
1271.955231
 31
0.0
  0
LINE
  5
981
100
AcDbEntity
  8
紙巻器
  6
CONTINUOUS
 62
     6
100
AcDbLine
 10
1217.941771
 20
1257.917633
 30
0.0
 11
1220.935183
 21
1256.944981
 31
0.0
  0
ARC
  5
982
100
AcDbEntity
  8
紙巻器
  6
CONTINUOUS
 62
     6
100
AcDbCircle
 10
1224.026003
 20
1266.455231
 30
0.0
 40
9.999998
100
AcDbArc
 50
251.995963
 51
270.0
  0
LINE
  5
983
100
AcDbEntity
  8
紙巻器
  6
CONTINUOUS
 62
     6
100
AcDbLine
 10
1224.026003
 20
1256.455231
 30
0.0
 11
1225.441771
 21
1256.455231
 31
0.0
  0
LINE
  5
984
100
AcDbEntity
  8
紙巻器
  6
CONTINUOUS
 62
     6
100
AcDbLine
 10
1217.941771
 20
1233.955231
 30
0.0
 11
1225.441771
 21
1233.955231
 31
0.0
  0
ARC
  5
985
100
AcDbEntity
  8
紙巻器
  6
CONTINUOUS
 62
     6
100
AcDbCircle
 10
1096.857538
 20
1266.455231
 30
0.0
 40
10.0
100
AcDbArc
 50
270.0
 51
288.004193
  0
LINE
  5
986
100
AcDbEntity
  8
紙巻器
  6
CONTINUOUS
 62
     6
100
AcDbLine
 10
1099.948359
 20
1256.944981
 30
0.0
 11
1102.941771
 21
1257.917633
 31
0.0
  0
LINE
  5
987
100
AcDbEntity
  8
紙巻器
  6
CONTINUOUS
 62
     6
100
AcDbLine
 10
1102.941771
 20
1204.692049
 30
0.0
 11
1137.441771
 21
1204.692049
 31
0.0
  0
LINE
  5
988
100
AcDbEntity
  8
紙巻器
  6
CONTINUOUS
 62
     6
100
AcDbLine
 10
1147.441771
 20
1204.692049
 30
0.0
 11
1155.441771
 21
1204.692049
 31
0.0
  0
LINE
  5
989
100
AcDbEntity
  8
紙巻器
  6
CONTINUOUS
 62
     6
100
AcDbLine
 10
1165.441771
 20
1204.692049
 30
0.0
 11
1173.441771
 21
1204.692049
 31
0.0
  0
LINE
  5
98A
100
AcDbEntity
  8
紙巻器
  6
CONTINUOUS
 62
     6
100
AcDbLine
 10
1183.441771
 20
1204.692049
 30
0.0
 11
1217.941771
 21
1204.692049
 31
0.0
  0
LINE
  5
98B
100
AcDbEntity
  8
紙巻器
  6
CONTINUOUS
 62
     6
100
AcDbLine
 10
1102.941771
 20
1288.073641
 30
0.0
 11
1102.941771
 21
1294.455233
 31
0.0
  0
LINE
  5
98C
100
AcDbEntity
  8
紙巻器
  6
CONTINUOUS
 62
     6
100
AcDbLine
 10
1102.941771
 20
1270.073641
 30
0.0
 11
1102.941771
 21
1278.073641
 31
0.0
  0
LINE
  5
98D
100
AcDbEntity
  8
紙巻器
  6
CONTINUOUS
 62
     6
100
AcDbLine
 10
1102.941771
 20
1204.692049
 30
0.0
 11
1102.941771
 21
1242.073641
 31
0.0
  0
LINE
  5
98E
100
AcDbEntity
  8
紙巻器
  6
CONTINUOUS
 62
     6
100
AcDbLine
 10
1102.941771
 20
1252.073641
 30
0.0
 11
1102.941771
 21
1260.073641
 31
0.0
  0
LINE
  5
98F
100
AcDbEntity
  8
紙巻器
  6
CONTINUOUS
 62
     6
100
AcDbLine
 10
1217.941771
 20
1288.073641
 30
0.0
 11
1217.941771
 21
1294.455233
 31
0.0
  0
LINE
  5
990
100
AcDbEntity
  8
紙巻器
  6
CONTINUOUS
 62
     6
100
AcDbLine
 10
1217.941771
 20
1270.073641
 30
0.0
 11
1217.941771
 21
1278.073641
 31
0.0
  0
LINE
  5
991
100
AcDbEntity
  8
紙巻器
  6
CONTINUOUS
 62
     6
100
AcDbLine
 10
1217.941771
 20
1204.692049
 30
0.0
 11
1217.941771
 21
1242.073641
 31
0.0
  0
LINE
  5
992
100
AcDbEntity
  8
紙巻器
  6
CONTINUOUS
 62
     6
100
AcDbLine
 10
1217.941771
 20
1252.073641
 30
0.0
 11
1217.941771
 21
1260.073641
 31
0.0
  0
LINE
  5
993
100
AcDbEntity
  8
紙巻器
  6
CONTINUOUS
 62
     6
100
AcDbLine
 10
1102.941771
 20
1233.955231
 30
0.0
 11
1095.441771
 21
1233.955231
 31
0.0
  0
ARC
  5
994
100
AcDbEntity
  8
紙巻器
  6
CONTINUOUS
 62
     6
100
AcDbCircle
 10
646.269216
 20
1276.455231
 30
0.0
 40
600.0
100
AcDbArc
 50
356.990588
 51
3.009412
  0
ARC
  5
995
100
AcDbEntity
  8
紙巻器
  6
CONTINUOUS
 62
     6
100
AcDbCircle
 10
1674.614325
 20
1276.455231
 30
0.0
 40
600.0
100
AcDbArc
 50
176.990588
 51
183.009412
  0
ARC
  5
996
100
AcDbEntity
  8
紙巻器
  6
CONTINUOUS
 62
     6
100
AcDbCircle
 10
1092.024894
 20
1300.955231
 30
0.0
 40
18.0
100
AcDbArc
 50
90.0
 51
157.11462
  0
ARC
  5
997
100
AcDbEntity
  8
紙巻器
  6
CONTINUOUS
 62
     6
100
AcDbCircle
 10
1092.024894
 20
1251.955231
 30
0.0
 40
18.0
100
AcDbArc
 50
202.88538
 51
270.0
  0
ARC
  5
998
100
AcDbEntity
  8
紙巻器
  6
CONTINUOUS
 62
     6
100
AcDbCircle
 10
1228.858647
 20
1251.955231
 30
0.0
 40
18.0
100
AcDbArc
 50
270.0
 51
337.11462
  0
ARC
  5
999
100
AcDbEntity
  8
紙巻器
  6
CONTINUOUS
 62
     6
100
AcDbCircle
 10
1228.858647
 20
1300.955231
 30
0.0
 40
18.0
100
AcDbArc
 50
22.88538
 51
90.0
  0
LINE
  5
99A
100
AcDbEntity
  8
紙巻器
  6
CONTINUOUS
 62
     6
100
AcDbLine
 10
1092.024894
 20
1318.955231
 30
0.0
 11
1228.858647
 21
1318.955231
 31
0.0
  0
LINE
  5
99B
100
AcDbEntity
  8
紙巻器
  6
CONTINUOUS
 62
     6
100
AcDbLine
 10
1095.441771
 20
1233.955231
 30
0.0
 11
1095.441771
 21
1318.955231
 31
0.0
  0
LINE
  5
99C
100
AcDbEntity
  8
紙巻器
  6
CONTINUOUS
 62
     6
100
AcDbLine
 10
1225.441771
 20
1233.955231
 30
0.0
 11
1225.441771
 21
1318.955231
 31
0.0
  0
LINE
  5
99D
100
AcDbEntity
  8
紙巻器
  6
CONTINUOUS
 62
     6
100
AcDbLine
 10
1092.024894
 20
1233.955231
 30
0.0
 11
1102.941771
 21
1233.955231
 31
0.0
  0
LINE
  5
99E
100
AcDbEntity
  8
紙巻器
  6
CONTINUOUS
 62
     6
100
AcDbLine
 10
1217.941771
 20
1233.955231
 30
0.0
 11
1228.858647
 21
1233.955231
 31
0.0
  0
LINE
  5
99F
100
AcDbEntity
  8
紙巻器
  6
CONTINUOUS
 62
     6
100
AcDbLine
 10
1160.441771
 20
1338.455231
 30
0.0
 11
1160.441771
 21
1292.455231
 31
0.0
  0
LINE
  5
9A0
100
AcDbEntity
  8
紙巻器
  6
CONTINUOUS
 62
     6
100
AcDbLine
 10
1160.441771
 20
1280.455231
 30
0.0
 11
1160.441771
 21
1272.455231
 31
0.0
  0
LINE
  5
9A1
100
AcDbEntity
  8
紙巻器
  6
CONTINUOUS
 62
     6
100
AcDbLine
 10
1160.441771
 20
1260.455231
 30
0.0
 11
1160.441771
 21
1161.455231
 31
0.0
  0
LINE
  5
9A2
100
AcDbEntity
  8
紙巻器
  6
CONTINUOUS
 62
     6
100
AcDbLine
 10
1048.440826
 20
1276.455231
 30
0.0
 11
1144.44177
 21
1276.455231
 31
0.0
  0
LINE
  5
9A3
100
AcDbEntity
  8
紙巻器
  6
CONTINUOUS
 62
     6
100
AcDbLine
 10
1156.441771
 20
1276.455231
 30
0.0
 11
1164.44177
 21
1276.455231
 31
0.0
  0
LINE
  5
9A4
100
AcDbEntity
  8
紙巻器
  6
CONTINUOUS
 62
     6
100
AcDbLine
 10
1272.442715
 20
1276.455231
 30
0.0
 11
1176.441771
 21
1276.455231
 31
0.0
  0
CIRCLE
  5
9A5
100
AcDbEntity
  8
紙巻器
  6
EXLTYPE2
 62
     6
100
AcDbCircle
 10
1115.441771
 20
1300.955231
 30
0.0
 40
4.0
  0
CIRCLE
  5
9A6
100
AcDbEntity
  8
紙巻器
  6
EXLTYPE2
 62
     6
100
AcDbCircle
 10
1205.441771
 20
1300.955231
 30
0.0
 40
4.0
  0
CIRCLE
  5
9A7
100
AcDbEntity
  8
紙巻器
  6
EXLTYPE2
 62
     6
100
AcDbCircle
 10
1160.441771
 20
1250.955231
 30
0.0
 40
4.0
  0
TEXT
  5
9A8
100
AcDbEntity
  8
寸法
  6
CONTINUOUS
 62
     2
100
AcDbText
 10
686.441595
 20
2068.999084
 30
0.0
 40
40.0
  1
７０９
 41
0.833
  7
EXCADSTD
 72
     5
 11
805.441594
 21
2068.999084
 31
0.0
100
AcDbText
  0
LINE
  5
9A9
100
AcDbEntity
  8
寸法
  6
CONTINUOUS
 62
     3
100
AcDbLine
 10
391.441114
 20
2065.499084
 30
0.0
 11
1100.442076
 21
2065.499084
 31
0.0
  0
LINE
  5
9AA
100
AcDbEntity
  8
寸法
  6
CONTINUOUS
 62
     3
100
AcDbLine
 10
426.441114
 20
2071.332418
 30
0.0
 11
391.441114
 21
2065.499084
 31
0.0
  0
LINE
  5
9AB
100
AcDbEntity
  8
寸法
  6
CONTINUOUS
 62
     3
100
AcDbLine
 10
391.441114
 20
2065.499084
 30
0.0
 11
426.441114
 21
2059.665751
 31
0.0
  0
LINE
  5
9AC
100
AcDbEntity
  8
寸法
  6
CONTINUOUS
 62
     3
100
AcDbLine
 10
1065.442076
 20
2059.665751
 30
0.0
 11
1100.442076
 21
2065.499084
 31
0.0
  0
LINE
  5
9AD
100
AcDbEntity
  8
寸法
  6
CONTINUOUS
 62
     3
100
AcDbLine
 10
1100.442076
 20
2065.499084
 30
0.0
 11
1065.442076
 21
2071.332418
 31
0.0
  0
TEXT
  5
9AE
100
AcDbEntity
  8
寸法
  6
CONTINUOUS
 62
     2
100
AcDbText
 10
665.941604
 20
2011.499084
 30
0.0
 40
40.0
  1
７５０
 41
0.833
  7
EXCADSTD
 72
     5
 11
784.941604
 21
2011.499084
 31
0.0
100
AcDbText
  0
LINE
  5
9AF
100
AcDbEntity
  8
寸法
  6
CONTINUOUS
 62
     3
100
AcDbLine
 10
350.441132
 20
2007.999084
 30
0.0
 11
1100.442076
 21
2007.999084
 31
0.0
  0
LINE
  5
9B0
100
AcDbEntity
  8
寸法
  6
CONTINUOUS
 62
     3
100
AcDbLine
 10
385.441132
 20
2013.832418
 30
0.0
 11
350.441132
 21
2007.999084
 31
0.0
  0
LINE
  5
9B1
100
AcDbEntity
  8
寸法
  6
CONTINUOUS
 62
     3
100
AcDbLine
 10
350.441132
 20
2007.999084
 30
0.0
 11
385.441132
 21
2002.165751
 31
0.0
  0
LINE
  5
9B2
100
AcDbEntity
  8
寸法
  6
CONTINUOUS
 62
     3
100
AcDbLine
 10
1065.442076
 20
2002.165751
 30
0.0
 11
1100.442076
 21
2007.999084
 31
0.0
  0
LINE
  5
9B3
100
AcDbEntity
  8
寸法
  6
CONTINUOUS
 62
     3
100
AcDbLine
 10
1100.442076
 20
2007.999084
 30
0.0
 11
1065.442076
 21
2013.832418
 31
0.0
  0
TEXT
  5
9B4
100
AcDbEntity
  8
寸法
  6
CONTINUOUS
 62
     2
100
AcDbText
 10
658.941299
 20
1184.955231
 30
0.0
 40
40.0
  1
（８１０）
 41
0.8106
  7
EXCADSTD
 72
     5
 11
851.941298
 21
1184.955231
 31
0.0
100
AcDbText
  0
LINE
  5
9B5
100
AcDbEntity
  8
寸法
  6
CONTINUOUS
 62
     3
100
AcDbLine
 10
350.440826
 20
1181.455231
 30
0.0
 11
1160.441771
 21
1181.455231
 31
0.0
  0
LINE
  5
9B6
100
AcDbEntity
  8
寸法
  6
CONTINUOUS
 62
     3
100
AcDbLine
 10
385.440826
 20
1187.288564
 30
0.0
 11
350.440826
 21
1181.455231
 31
0.0
  0
LINE
  5
9B7
100
AcDbEntity
  8
寸法
  6
CONTINUOUS
 62
     3
100
AcDbLine
 10
350.440826
 20
1181.455231
 30
0.0
 11
385.440826
 21
1175.621897
 31
0.0
  0
LINE
  5
9B8
100
AcDbEntity
  8
寸法
  6
CONTINUOUS
 62
     3
100
AcDbLine
 10
1125.441771
 20
1175.621897
 30
0.0
 11
1160.441771
 21
1181.455231
 31
0.0
  0
LINE
  5
9B9
100
AcDbEntity
  8
寸法
  6
CONTINUOUS
 62
     3
100
AcDbLine
 10
1160.441771
 20
1181.455231
 30
0.0
 11
1125.441771
 21
1187.288564
 31
0.0
  0
TEXT
  5
9BA
100
AcDbEntity
  8
寸法
  6
CONTINUOUS
 62
     2
100
AcDbText
 10
1197.5
 20
824.955231
 30
0.0
 40
40.0
  1
（７１０）
 50
90.0
 41
0.8106
  7
EXCADSTD
 72
     5
 11
1197.5
 21
1017.95523
 31
0.0
100
AcDbText
  0
LINE
  5
9BB
100
AcDbEntity
  8
寸法
  6
CONTINUOUS
 62
     3
100
AcDbLine
 10
1201.0
 20
566.455231
 30
0.0
 11
1201.0
 21
1276.455231
 31
0.0
  0
LINE
  5
9BC
100
AcDbEntity
  8
寸法
  6
CONTINUOUS
 62
     3
100
AcDbLine
 10
1195.166667
 20
601.455231
 30
0.0
 11
1201.0
 21
566.455231
 31
0.0
  0
LINE
  5
9BD
100
AcDbEntity
  8
寸法
  6
CONTINUOUS
 62
     3
100
AcDbLine
 10
1201.0
 20
566.455231
 30
0.0
 11
1206.833333
 21
601.455231
 31
0.0
  0
LINE
  5
9BE
100
AcDbEntity
  8
寸法
  6
CONTINUOUS
 62
     3
100
AcDbLine
 10
1206.833333
 20
1241.455231
 30
0.0
 11
1201.0
 21
1276.455231
 31
0.0
  0
LINE
  5
9BF
100
AcDbEntity
  8
寸法
  6
CONTINUOUS
 62
     3
100
AcDbLine
 10
1201.0
 20
1276.455231
 30
0.0
 11
1195.166667
 21
1241.455231
 31
0.0
  0
TEXT
  5
9C0
100
AcDbEntity
  8
寸法
  6
CONTINUOUS
 62
     2
100
AcDbText
 10
488.440827
 20
429.955231
 30
0.0
 40
40.0
  1
３９５
 41
0.833
  7
EXCADSTD
 72
     5
 11
607.440826
 21
429.955231
 31
0.0
100
AcDbText
  0
LINE
  5
9C1
100
AcDbEntity
  8
寸法
  6
CONTINUOUS
 62
     3
100
AcDbLine
 10
350.440826
 20
426.455231
 30
0.0
 11
745.440826
 21
426.455231
 31
0.0
  0
LINE
  5
9C2
100
AcDbEntity
  8
寸法
  6
CONTINUOUS
 62
     3
100
AcDbLine
 10
385.440826
 20
432.288564
 30
0.0
 11
350.440826
 21
426.455231
 31
0.0
  0
LINE
  5
9C3
100
AcDbEntity
  8
寸法
  6
CONTINUOUS
 62
     3
100
AcDbLine
 10
350.440826
 20
426.455231
 30
0.0
 11
385.440826
 21
420.621897
 31
0.0
  0
LINE
  5
9C4
100
AcDbEntity
  8
寸法
  6
CONTINUOUS
 62
     3
100
AcDbLine
 10
710.440826
 20
420.621897
 30
0.0
 11
745.440826
 21
426.455231
 31
0.0
  0
LINE
  5
9C5
100
AcDbEntity
  8
寸法
  6
CONTINUOUS
 62
     3
100
AcDbLine
 10
745.440826
 20
426.455231
 30
0.0
 11
710.440826
 21
432.288564
 31
0.0
  0
LINE
  5
9C6
100
AcDbEntity
  8
寸法
  6
CONTINUOUS
 62
     3
100
AcDbLine
 10
340.440826
 20
566.455231
 30
0.0
 11
210.440826
 21
566.455231
 31
0.0
  0
LINE
  5
9C7
100
AcDbEntity
  8
寸法
  6
CONTINUOUS
 62
     3
100
AcDbLine
 10
350.440826
 20
556.455231
 30
0.0
 11
350.440826
 21
406.455231
 31
0.0
  0
LINE
  5
9C8
100
AcDbEntity
  8
寸法
  6
CONTINUOUS
 62
     3
100
AcDbLine
 10
745.440826
 20
523.587603
 30
0.0
 11
745.440826
 21
406.455231
 31
0.0
  0
LINE
  5
9C9
100
AcDbEntity
  8
寸法
  6
CONTINUOUS
 62
     3
100
AcDbLine
 10
391.441114
 20
2161.346618
 30
0.0
 11
391.441114
 21
2047.999084
 31
0.0
  0
INSERT
  5
9CA
100
AcDbEntity
  8
器具明細表
  6
CONTINUOUS
 62
     0
100
AcDbBlockReference
  2
NC510LSK
 10
2152.537354
 20
2511.023926
 30
0.0
 41
10.0
 42
10.0
  0
INSERT
  5
9CB
100
AcDbEntity
  8
器具明細表
  6
CONTINUOUS
 62
     0
100
AcDbBlockReference
  2
NC510LSK
 10
2152.537354
 20
2511.023926
 30
0.0
 41
10.0
 42
10.0
  0
LINE
  5
9CC
100
AcDbEntity
  8
器具明細表
  6
CONTINUOUS
 62
     6
100
AcDbLine
 10
1318.0
 20
2682.63559
 30
0.0
 11
1968.0
 21
2682.63559
 31
0.0
  0
LINE
  5
9CD
100
AcDbEntity
  8
器具明細表
  6
CONTINUOUS
 62
     6
100
AcDbLine
 10
1318.0
 20
2617.63559
 30
0.0
 11
1968.0
 21
2617.63559
 31
0.0
  0
LINE
  5
9CE
100
AcDbEntity
  8
器具明細表
  6
CONTINUOUS
 62
     6
100
AcDbLine
 10
1318.0
 20
2747.63559
 30
0.0
 11
1968.0
 21
2747.63559
 31
0.0
  0
TEXT
  5
9CF
100
AcDbEntity
  8
器具明細表
  6
CONTINUOUS
 62
     2
100
AcDbText
 10
1390.5
 20
2690.13559
 30
0.0
 40
50.0
  1
品番
 41
1.302
  7
EXCADSTD
 72
     5
 11
1532.573
 21
2690.13559
 31
0.0
100
AcDbText
  0
TEXT
  5
9D0
100
AcDbEntity
  8
器具明細表
  6
CONTINUOUS
 62
     2
100
AcDbText
 10
1680.5
 20
2690.13559
 30
0.0
 40
50.0
  1
品名
 41
1.218
  7
EXCADSTD
 72
     5
 11
1813.407
 21
2690.13559
 31
0.0
100
AcDbText
  0
TEXT
  5
9D1
100
AcDbEntity
  8
器具明細表
  6
CONTINUOUS
 62
     2
100
AcDbText
 10
1889.5
 20
2690.13559
 30
0.0
 40
50.0
  1
個数
 41
0.7308
  7
EXCADSTD
 72
     5
 11
1969.2442
 21
2690.13559
 31
0.0
100
AcDbText
  0
TEXT
  5
9D2
100
AcDbEntity
  8
器具明細表
  6
CONTINUOUS
 62
     2
100
AcDbText
 10
1618.0
 20
2626.38559
 30
0.0
 40
47.5
  1
便器セット
 41
0.815242
  7
EXCADSTD
 72
     5
 11
1848.5
 21
2626.38559
 31
0.0
100
AcDbText
  0
TEXT
  5
9D3
100
AcDbEntity
  8
器具明細表
  6
CONTINUOUS
 62
     2
100
AcDbText
 10
1906.75
 20
2627.63559
 30
0.0
 40
45.0
  1
１
 41
0.98
  7
EXCADSTD
 72
     5
 11
1948.75
 21
2627.63559
 31
0.0
100
AcDbText
  0
TEXT
  5
9D4
100
AcDbEntity
  8
器具明細表
  6
CONTINUOUS
 62
     2
100
AcDbText
 10
1318.0
 20
2762.63559
 30
0.0
 40
60.0
  1
器具明細
 41
1.05
  7
EXCADSTD
 72
     5
 11
1618.0
 21
2762.63559
 31
0.0
100
AcDbText
  0
TEXT
  5
9D5
100
AcDbEntity
  8
器具明細表
  6
CONTINUOUS
 62
     2
100
AcDbText
 10
1906.75
 20
2562.63559
 30
0.0
 40
45.0
  1
１
 41
0.98
  7
EXCADSTD
 72
     5
 11
1948.75
 21
2562.63559
 31
0.0
100
AcDbText
  0
TEXT
  5
9D6
100
AcDbEntity
  8
器具明細表
  6
CONTINUOUS
 62
     2
100
AcDbText
 10
1618.0
 20
2561.38559
 30
0.0
 40
47.5
  1
ワンタッチ式紙巻器
 41
0.532491
  7
EXCADSTD
 72
     5
 11
1889.000013
 21
2561.38559
 31
0.0
100
AcDbText
  0
LINE
  5
9D7
100
AcDbEntity
  8
器具明細表
  6
CONTINUOUS
 62
     6
100
AcDbLine
 10
1318.0
 20
2487.63559
 30
0.0
 11
1968.0
 21
2487.63559
 31
0.0
  0
TEXT
  5
9D8
100
AcDbEntity
  8
器具明細表
  6
CONTINUOUS
 62
     2
100
AcDbText
 10
1906.75
 20
2497.63559
 30
0.0
 40
45.0
  1
１
 41
0.98
  7
EXCADSTD
 72
     5
 11
1948.75
 21
2497.63559
 31
0.0
100
AcDbText
  0
TEXT
  5
9D9
100
AcDbEntity
  8
器具明細表
  6
CONTINUOUS
 62
     2
100
AcDbText
 10
1318.0
 20
2496.38559
 30
0.0
 40
47.5
  1
ＮＣ８１３ＷＨＳ
 41
0.654316
  7
EXCADSTD
 72
     5
 11
1614.000005
 21
2496.38559
 31
0.0
100
AcDbText
  0
TEXT
  5
9DA
100
AcDbEntity
  8
器具明細表
  6
CONTINUOUS
 62
     2
100
AcDbText
 10
1618.0
 20
2496.38559
 30
0.0
 40
47.5
  1
前丸暖房便座
 41
0.810526
  7
EXCADSTD
 72
     5
 11
1892.999999
 21
2496.38559
 31
0.0
100
AcDbText
  0
LINE
  5
9DB
100
AcDbEntity
  8
器具明細表
  6
CONTINUOUS
 62
     6
100
AcDbLine
 10
1318.0
 20
2552.63559
 30
0.0
 11
1968.0
 21
2552.63559
 31
0.0
  0
LINE
  5
9DC
100
AcDbEntity
  8
器具明細表
  6
CONTINUOUS
 62
     6
100
AcDbLine
 10
1318.0
 20
2747.63559
 30
0.0
 11
1318.0
 21
2487.63559
 31
0.0
  0
LINE
  5
9DD
100
AcDbEntity
  8
器具明細表
  6
CONTINUOUS
 62
     6
100
AcDbLine
 10
1618.0
 20
2747.63559
 30
0.0
 11
1618.0
 21
2487.63559
 31
0.0
  0
LINE
  5
9DE
100
AcDbEntity
  8
器具明細表
  6
CONTINUOUS
 62
     6
100
AcDbLine
 10
1888.0
 20
2747.63559
 30
0.0
 11
1888.0
 21
2487.63559
 31
0.0
  0
LINE
  5
9DF
100
AcDbEntity
  8
器具明細表
  6
CONTINUOUS
 62
     6
100
AcDbLine
 10
1968.0
 20
2487.63559
 30
0.0
 11
1968.0
 21
2747.63559
 31
0.0
  0
TEXT
  5
9E0
100
AcDbEntity
  8
器具明細表
  6
CONTINUOUS
 62
     2
100
AcDbText
 10
1318.0
 20
2626.38559
 30
0.0
 40
47.5
  1
ＣＳ７３Ｐ－ＦＮ
 41
0.654316
  7
EXCADSTD
 72
     5
 11
1614.000005
 21
2626.38559
 31
0.0
100
AcDbText
  0
TEXT
  5
9E1
100
AcDbEntity
  8
器具明細表
  6
CONTINUOUS
 62
     2
100
AcDbText
 10
1311.0
 20
2433.612641
 30
0.0
 40
43.0
  1
・排水接続管、接続パッキンは別途
 41
0.683721
  7
EXCADSTD
 72
     5
 11
1870.999998
 21
2433.612641
 31
0.0
100
AcDbText
  0
TEXT
  5
9E2
100
AcDbEntity
  8
器具明細表
  6
CONTINUOUS
 62
     2
100
AcDbText
 10
1311.0
 20
2390.612641
 30
0.0
 40
43.0
  1
・前丸暖房便座の仕様
 41
0.689581
  7
EXCADSTD
 72
     5
 11
1663.999999
 21
2390.612641
 31
0.0
100
AcDbText
  0
TEXT
  5
9E3
100
AcDbEntity
  8
器具明細表
  6
CONTINUOUS
 62
     2
100
AcDbText
 10
1311.0
 20
2347.612641
 30
0.0
 40
43.0
  1
　電源　  ＡＣ１００Ｖ 　５０／ ６０Ｈｚ
 41
0.639021
  7
EXCADSTD
 72
     5
 11
1979.749998
 21
2347.612641
 31
0.0
100
AcDbText
  0
TEXT
  5
9E4
100
AcDbEntity
  8
器具明細表
  6
CONTINUOUS
 62
     2
100
AcDbText
 10
1311.0
 20
2304.612641
 30
0.0
 40
43.0
  1
　最大消費電力　　　 　　  　　　４５Ｗ
 41
0.639021
  7
EXCADSTD
 72
     5
 11
1979.749998
 21
2304.612641
 31
0.0
100
AcDbText
  0
TEXT
  5
9E5
100
AcDbEntity
  8
器具明細表
  6
CONTINUOUS
 62
     2
100
AcDbText
 10
1318.0
 20
2561.38559
 30
0.0
 40
47.5
  1
ＮＣ７１ＶＪ
 41
0.663158
  7
EXCADSTD
 72
     5
 11
1543.000004
 21
2561.38559
 31
0.0
100
AcDbText
  0
ENDSEC
  0
SECTION
  2
OBJECTS
  0
DICTIONARY
  5
19
100
AcDbDictionary
  3
ACAD_GROUP
350
1A
  3
ACAD_MLINESTYLE
350
1B
  0
DICTIONARY
  5
1A
102
{ACAD_REACTORS
330
19
102
}
100
AcDbDictionary
  0
DICTIONARY
  5
1B
102
{ACAD_REACTORS
330
19
102
}
100
AcDbDictionary
  3
STANDARD
350
1C
  0
MLINESTYLE
  5
1C
102
{ACAD_REACTORS
330
1B
102
}
100
AcDbMlineStyle
  2
Standard
 70
     0
  3

 62
     0
 51
90.0
 52
90.0
 71
     2
 49
0.5
 62
   256
  6
ByLayer
 49
-0.5
 62
   256
  6
ByLayer
  0
ENDSEC
  0
EOF
