  0
SECTION
  2
HEADER
  9
$ACADVER
  1
AC1014
  9
$ACADMAINTVER
 70
     0
  9
$DWGCODEPAGE
  3
ANSI_932
  9
$INSBASE
 10
0.0
 20
0.0
 30
0.0
  9
$EXTMIN
 10
-2.0
 20
11.5
 30
0.0
  9
$EXTMAX
 10
200.0
 20
291.5
 30
0.0
  9
$LIMMIN
 10
0.0
 20
0.0
  9
$LIMMAX
 10
210.0
 20
297.0
  9
$ORTHOMODE
 70
     0
  9
$REGENMODE
 70
     1
  9
$FILLMODE
 70
     1
  9
$QTEXTMODE
 70
     0
  9
$MIRRTEXT
 70
     1
  9
$DRAGMODE
 70
     2
  9
$LTSCALE
 40
1.0
  9
$OSMODE
 70
     0
  9
$ATTMODE
 70
     1
  9
$TEXTSIZE
 40
0.2
  9
$TRACEWID
 40
0.05
  9
$TEXTSTYLE
  7
STANDARD
  9
$CLAYER
  8
枠
  9
$CELTYPE
  6
CONTINUOUS
  9
$CECOLOR
 62
   256
  9
$CELTSCALE
 40
1.0
  9
$DELOBJ
 70
     1
  9
$DISPSILH
 70
     0
  9
$DIMSCALE
 40
1.0
  9
$DIMASZ
 40
0.18
  9
$DIMEXO
 40
0.0625
  9
$DIMDLI
 40
0.38
  9
$DIMRND
 40
0.0
  9
$DIMDLE
 40
0.0
  9
$DIMEXE
 40
0.18
  9
$DIMTP
 40
0.0
  9
$DIMTM
 40
0.0
  9
$DIMTXT
 40
0.18
  9
$DIMCEN
 40
0.09
  9
$DIMTSZ
 40
0.0
  9
$DIMTOL
 70
     0
  9
$DIMLIM
 70
     0
  9
$DIMTIH
 70
     1
  9
$DIMTOH
 70
     1
  9
$DIMSE1
 70
     0
  9
$DIMSE2
 70
     0
  9
$DIMTAD
 70
     0
  9
$DIMZIN
 70
     0
  9
$DIMBLK
  1

  9
$DIMASO
 70
     1
  9
$DIMSHO
 70
     1
  9
$DIMPOST
  1

  9
$DIMAPOST
  1

  9
$DIMALT
 70
     0
  9
$DIMALTD
 70
     2
  9
$DIMALTF
 40
25.4
  9
$DIMLFAC
 40
1.0
  9
$DIMTOFL
 70
     0
  9
$DIMTVP
 40
0.0
  9
$DIMTIX
 70
     0
  9
$DIMSOXD
 70
     0
  9
$DIMSAH
 70
     0
  9
$DIMBLK1
  1

  9
$DIMBLK2
  1

  9
$DIMSTYLE
  2
STANDARD
  9
$DIMCLRD
 70
     0
  9
$DIMCLRE
 70
     0
  9
$DIMCLRT
 70
     0
  9
$DIMTFAC
 40
1.0
  9
$DIMGAP
 40
0.09
  9
$DIMJUST
 70
     0
  9
$DIMSD1
 70
     0
  9
$DIMSD2
 70
     0
  9
$DIMTOLJ
 70
     1
  9
$DIMTZIN
 70
     0
  9
$DIMALTZ
 70
     0
  9
$DIMALTTZ
 70
     0
  9
$DIMFIT
 70
     3
  9
$DIMUPT
 70
     0
  9
$DIMUNIT
 70
     2
  9
$DIMDEC
 70
     4
  9
$DIMTDEC
 70
     4
  9
$DIMALTU
 70
     2
  9
$DIMALTTD
 70
     2
  9
$DIMTXSTY
  7
STANDARD
  9
$DIMAUNIT
 70
     0
  9
$LUNITS
 70
     2
  9
$LUPREC
 70
     4
  9
$SKETCHINC
 40
0.1
  9
$FILLETRAD
 40
0.0
  9
$AUNITS
 70
     0
  9
$AUPREC
 70
     0
  9
$MENU
  1
acad
  9
$ELEVATION
 40
0.0
  9
$PELEVATION
 40
0.0
  9
$THICKNESS
 40
0.0
  9
$LIMCHECK
 70
     0
  9
$BLIPMODE
 70
     1
  9
$CHAMFERA
 40
0.0
  9
$CHAMFERB
 40
0.0
  9
$CHAMFERC
 40
0.0
  9
$CHAMFERD
 40
0.0
  9
$SKPOLY
 70
     0
  9
$TDCREATE
 40
2454990.345639502
  9
$TDUPDATE
 40
2454990.345639502
  9
$TDINDWG
 40
0.0000000000
  9
$TDUSRTIMER
 40
0.0000000000
  9
$USRTIMER
 70
     1
  9
$ANGBASE
 50
0.0
  9
$ANGDIR
 70
     0
  9
$PDMODE
 70
     0
  9
$PDSIZE
 40
0.0
  9
$PLINEWID
 40
0.0
  9
$COORDS
 70
     1
  9
$SPLFRAME
 70
     0
  9
$SPLINETYPE
 70
     6
  9
$SPLINESEGS
 70
     8
  9
$ATTDIA
 70
     0
  9
$ATTREQ
 70
     1
  9
$HANDLING
 70
     1
  9
$HANDSEED
  5
8F4
  9
$SURFTAB1
 70
     6
  9
$SURFTAB2
 70
     6
  9
$SURFTYPE
 70
     6
  9
$SURFU
 70
     6
  9
$SURFV
 70
     6
  9
$UCSNAME
  2

  9
$UCSORG
 10
0.0
 20
0.0
 30
0.0
  9
$UCSXDIR
 10
1.0
 20
0.0
 30
0.0
  9
$UCSYDIR
 10
0.0
 20
1.0
 30
0.0
  9
$PUCSNAME
  2

  9
$PUCSORG
 10
0.0
 20
0.0
 30
0.0
  9
$PUCSXDIR
 10
1.0
 20
0.0
 30
0.0
  9
$PUCSYDIR
 10
0.0
 20
1.0
 30
0.0
  9
$USERI1
 70
     0
  9
$USERI2
 70
     0
  9
$USERI3
 70
     0
  9
$USERI4
 70
     0
  9
$USERI5
 70
     0
  9
$USERR1
 40
0.0
  9
$USERR2
 40
0.0
  9
$USERR3
 40
0.0
  9
$USERR4
 40
0.0
  9
$USERR5
 40
0.0
  9
$WORLDVIEW
 70
     1
  9
$SHADEDGE
 70
     3
  9
$SHADEDIF
 70
    70
  9
$TILEMODE
 70
     1
  9
$MAXACTVP
 70
    16
  9
$PINSBASE
 10
0.0
 20
0.0
 30
0.0
  9
$PLIMCHECK
 70
     0
  9
$PEXTMIN
 10
1.000000E+20
 20
1.000000E+20
 30
1.000000E+20
  9
$PEXTMAX
 10
-1.000000E+20
 20
-1.000000E+20
 30
-1.000000E+20
  9
$PLIMMIN
 10
0.0
 20
0.0
  9
$PLIMMAX
 10
12.0
 20
9.0
  9
$UNITMODE
 70
     0
  9
$VISRETAIN
 70
     0
  9
$PLINEGEN
 70
     1
  9
$PSLTSCALE
 70
     0
  9
$TREEDEPTH
 70
  3020
  9
$PICKSTYLE
 70
     1
  9
$CMLSTYLE
  2
Standard
  9
$CMLJUST
 70
     0
  9
$CMLSCALE
 40
1.0
  9
$PROXYGRAPHICS
 70
     0
  9
$MEASUREMENT
 70
     0
  0
ENDSEC
  0
SECTION
  2
CLASSES
  0
CLASS
  1
LWPOLYLINE
  2
AcDbPolyline
  3
"AutoCAD"
 90
        0
280
     0
281
     1
  0
CLASS
  1
IMAGE
  2
AcDbRasterImage
  3
ISM
 90
      127
280
     0
281
     1
  0
CLASS
  1
OLE2FRAME
  2
AcDbOle2Frame
  3
""
 90
        0
280
     0
281
     1
  0
CLASS
  1
HATCH
  2
AcDbHatch
  3
"ACAD_SEDONA"
 90
        0
280
     0
281
     1
  0
CLASS
  1
DICTIONARYVAR
  2
AcDbDictionaryVar
  3
"AutoCAD"
 90
        0
280
     0
281
     0
  0
CLASS
  1
RASTERVARIABLES
  2
AcDbRasterVariables
  3
ISM
 90
        0
280
     0
281
     0
  0
CLASS
  1
IMAGEDEF
  2
AcDbRasterImageDef
  3
ISM
 90
        0
280
     0
281
     0
  0
CLASS
  1
IMAGEDEF_REACTOR
  2
AcDbRasterImageDefReactor
  3
ISM
 90
        1
280
     0
281
     0
  0
CLASS
  1
IDBUFFER
  2
AcDbIdBuffer
  3
"Acad"
 90
        0
280
     0
281
     0
  0
CLASS
  1
SPATIAL_FILTER
  2
AcDbSpatialFilter
  3
"Acad"
 90
        0
280
     0
281
     0
  0
CLASS
  1
XRECORD
  2
AcDbXrecord
  3
"<Built In>"
 90
        0
280
     0
281
     0
  0
CLASS
  1
SORTENTSTABLE
  2
AcDbSortentsTable
  3
"AutoCAD"
 90
        0
280
     0
281
     0
  0
CLASS
  1
LAYER_INDEX
  2
AcDbLayerIndex
  3
"Acad"
 90
        0
280
     0
281
     0
  0
CLASS
  1
SPATIAL_INDEX
  2
AcDbSpatialIndex
  3
"Acad"
 90
        0
280
     0
281
     0
  0
CLASS
  1
OBJECT_PTR
  2
CAseDLPNTableRecord
  3
"ASE-LPNTableRecord"
 90
        1
280
     0
281
     0
  0
CLASS
  1
LAYOUT
  2
AcDbLayout
  3
"AutoCAD 2000"
 90
        1
280
     0
281
     0
  0
CLASS
  1
PLOTSETTINGS
  2
AcDbPlotSettings
  3
"AutoCAD 2000"
 90
        1
280
     0
281
     0
  0
CLASS
  1
ACDBDICTIONARYWDFLT
  2
AcDbDictionaryWithDefault
  3
"AutoCAD 2000"
 90
        1
280
     0
281
     0
  0
CLASS
  1
ACDBPLACEHOLDER
  2
AcDbPlaceHolder
  3
"AutoCAD 2000"
 90
        1
280
     0
281
     0
  0
CLASS
  1
VBA_PROJECT
  2
AcDbVbaProject
  3
"acadvba"
 90
        1
280
     0
281
     0
  0
CLASS
  1
WIPEOUT
  2
AcDbWipeout
  3
WipeOut|AutoCAD Express Tool|expresstools@autodesk.com
 90
      127
280
     0
281
     1
  0
CLASS
  1
WIPEOUTVARIABLES
  2
AcDbWipeoutVariables
  3
WipeOut|AutoCAD Express Tool|expresstools@autodesk.com
 90
        0
280
     0
281
     0
  0
CLASS
  1
RTEXT
  2
RText
  3
RText|AutoCAD Express Tool|expresstools@autodesk.com
 90
        0
280
     0
281
     1
  0
CLASS
  1
ARCALIGNEDTEXT
  2
AcDbArcAlignedText
  3
ATEXT|AutoCAD Express Tool|expresstools@autodesk.com
 90
        0
280
     0
281
     1
  0
ENDSEC
  0
SECTION
  2
TABLES
  0
TABLE
  2
VPORT
  5
7
100
AcDbSymbolTable
 70
     1
  0
VPORT
  5
15
100
AcDbSymbolTableRecord
100
AcDbViewportTableRecord
  2
*ACTIVE
 70
     0
 10
0.0
 20
0.0
 11
1.0
 21
1.0
 12
990.0
 22
1515.0
 13
0.0
 23
0.0
 14
1.0
 24
1.0
 15
0.0
 25
0.0
 16
0.0
 26
0.0
 36
1.0
 17
0.0
 27
0.0
 37
0.0
 40
2800.0
 41
1.722533
 42
50.0
 43
0.0
 44
0.0
 50
0.0
 51
0.0
 71
     0
 72
   100
 73
     1
 74
     1
 75
     0
 76
     0
 77
     0
 78
     0
  0
ENDTAB
  0
TABLE
  2
LTYPE
  5
4
100
AcDbSymbolTable
 70
     9
  0
LTYPE
  5
11
100
AcDbSymbolTableRecord
100
AcDbLinetypeTableRecord
  2
BYBLOCK
 70
    64
  3

 72
    65
 73
     0
 40
0.0
  0
LTYPE
  5
12
100
AcDbSymbolTableRecord
100
AcDbLinetypeTableRecord
  2
BYLAYER
 70
    64
  3

 72
    65
 73
     0
 40
0.0
  0
LTYPE
  5
13
100
AcDbSymbolTableRecord
100
AcDbLinetypeTableRecord
  2
CONTINUOUS
 70
    64
  3
実線
 72
    65
 73
     0
 40
0.0
  0
LTYPE
  5
1D
100
AcDbSymbolTableRecord
100
AcDbLinetypeTableRecord
  2
EXLTYPE1
 70
    64
  3
破線
 72
    65
 73
     2
 40
3.0
 49
2.0
 74
     0
 49
-1.0
 74
     0
  0
LTYPE
  5
1E
100
AcDbSymbolTableRecord
100
AcDbLinetypeTableRecord
  2
EXLTYPE2
 70
    64
  3
点線
 72
    65
 73
     2
 40
2.0
 49
1.0
 74
     0
 49
-1.0
 74
     0
  0
LTYPE
  5
1F
100
AcDbSymbolTableRecord
100
AcDbLinetypeTableRecord
  2
EXLTYPE3
 70
    64
  3
一点鎖線
 72
    65
 73
     4
 40
10.0
 49
7.0
 74
     0
 49
-1.0
 74
     0
 49
1.0
 74
     0
 49
-1.0
 74
     0
  0
LTYPE
  5
20
100
AcDbSymbolTableRecord
100
AcDbLinetypeTableRecord
  2
EXLTYPE4
 70
    64
  3
二点鎖線
 72
    65
 73
     6
 40
12.0
 49
7.0
 74
     0
 49
-1.0
 74
     0
 49
1.0
 74
     0
 49
-1.0
 74
     0
 49
1.0
 74
     0
 49
-1.0
 74
     0
  0
LTYPE
  5
21
100
AcDbSymbolTableRecord
100
AcDbLinetypeTableRecord
  2
EXLTYPE5
 70
    64
  3
三点鎖線
 72
    65
 73
     8
 40
37.0
 49
30.0
 74
     0
 49
-1.0
 74
     0
 49
1.0
 74
     0
 49
-1.0
 74
     0
 49
1.0
 74
     0
 49
-1.0
 74
     0
 49
1.0
 74
     0
 49
-1.0
 74
     0
  0
LTYPE
  5
22
100
AcDbSymbolTableRecord
100
AcDbLinetypeTableRecord
  2
EXLTYPE6
 70
    64
  3
四点鎖線
 72
    65
 73
    10
 40
39.0
 49
30.0
 74
     0
 49
-1.0
 74
     0
 49
1.0
 74
     0
 49
-1.0
 74
     0
 49
1.0
 74
     0
 49
-1.0
 74
     0
 49
1.0
 74
     0
 49
-1.0
 74
     0
 49
1.0
 74
     0
 49
-1.0
 74
     0
  0
ENDTAB
  0
TABLE
  2
LAYER
  5
2
100
AcDbSymbolTable
 70
     9
  0
LAYER
  5
14
100
AcDbSymbolTableRecord
100
AcDbLayerTableRecord
  2
0
 70
     0
 62
     7
  6
CONTINUOUS
  0
LAYER
  5
25
100
AcDbSymbolTableRecord
100
AcDbLayerTableRecord
  2
枠
 70
    64
 62
     7
  6
CONTINUOUS
  0
LAYER
  5
26
100
AcDbSymbolTableRecord
100
AcDbLayerTableRecord
  2
便器
 70
    64
 62
     7
  6
CONTINUOUS
  0
LAYER
  5
27
100
AcDbSymbolTableRecord
100
AcDbLayerTableRecord
  2
タンク
 70
    64
 62
     7
  6
CONTINUOUS
  0
LAYER
  5
28
100
AcDbSymbolTableRecord
100
AcDbLayerTableRecord
  2
止水栓
 70
    64
 62
     7
  6
CONTINUOUS
  0
LAYER
  5
29
100
AcDbSymbolTableRecord
100
AcDbLayerTableRecord
  2
便座
 70
    64
 62
     7
  6
CONTINUOUS
  0
LAYER
  5
2A
100
AcDbSymbolTableRecord
100
AcDbLayerTableRecord
  2
紙巻器
 70
    64
 62
     7
  6
CONTINUOUS
  0
LAYER
  5
2B
100
AcDbSymbolTableRecord
100
AcDbLayerTableRecord
  2
寸法
 70
    64
 62
     7
  6
CONTINUOUS
  0
LAYER
  5
2C
100
AcDbSymbolTableRecord
100
AcDbLayerTableRecord
  2
器具明細表
 70
    64
 62
     7
  6
CONTINUOUS
  0
ENDTAB
  0
TABLE
  2
STYLE
  5
3
100
AcDbSymbolTable
 70
     5
  0
STYLE
  5
17
100
AcDbSymbolTableRecord
100
AcDbTextStyleTableRecord
  2
STANDARD
 70
     0
 40
0.0
 41
1.0
 50
0.0
 71
     0
 42
0.0
  3
monotxt
  4
extfont
  0
STYLE
  5
23
100
AcDbSymbolTableRecord
100
AcDbTextStyleTableRecord
  2
EXCADSTD
 70
    64
 40
0.0
 41
1.0
 50
0.0
 71
     0
 42
0.2
  3
monotxt
  4
extfont
  0
STYLE
  5
24
100
AcDbSymbolTableRecord
100
AcDbTextStyleTableRecord
  2
EXCADVERT
 70
    68
 40
0.0
 41
1.0
 50
0.0
 71
     0
 42
0.286885
  3
monotxt
  4
extfont
  0
STYLE
  5
B6
100
AcDbSymbolTableRecord
100
AcDbTextStyleTableRecord
  2
EXCADTTF1
 70
    64
 40
0.0
 41
1.0
 50
0.0
 71
     0
 42
0.2
  3
MS Gothic.ttf
  4

1001
ACAD
1000
MS Gothic
1071
    32817
  0
STYLE
  5
EF
100
AcDbSymbolTableRecord
100
AcDbTextStyleTableRecord
  2
EXCADDIM1
 70
    64
 40
0.0
 41
0.95
 50
0.0
 71
     0
 42
0.2
  3
monotxt
  4
extfont
  0
ENDTAB
  0
TABLE
  2
VIEW
  5
5
100
AcDbSymbolTable
 70
     0
  0
ENDTAB
  0
TABLE
  2
UCS
  5
6
100
AcDbSymbolTable
 70
     0
  0
ENDTAB
  0
TABLE
  2
APPID
  5
8
100
AcDbSymbolTable
 70
     1
  0
APPID
  5
16
100
AcDbSymbolTableRecord
100
AcDbRegAppTableRecord
  2
ACAD
 70
     0
  0
ENDTAB
  0
TABLE
  2
DIMSTYLE
  5
9
100
AcDbSymbolTable
 70
     1
  0
DIMSTYLE
105
18
100
AcDbSymbolTableRecord
100
AcDbDimStyleTableRecord
  2
STANDARD
 70
     0
  3

  4

  5

  6

  7

 40
1.0
 41
0.18
 42
0.0625
 43
0.38
 44
0.18
 45
0.0
 46
0.0
 47
0.0
 48
0.0
 71
     0
 72
     0
 73
     1
 74
     1
 75
     0
 76
     0
 77
     0
 78
     0
140
0.18
141
0.09
142
0.0
143
25.4
144
1.0
145
0.0
146
1.0
147
0.09
170
     0
171
     2
172
     1
173
     0
174
     0
175
     0
176
     0
177
     0
178
     0
270
     2
271
     4
272
     4
273
     2
274
     2
275
     0
280
     0
281
     0
282
     0
283
     1
284
     0
285
     0
286
     0
287
     0
288
     0
340
17
  0
ENDTAB
  0
TABLE
  2
BLOCK_RECORD
  5
1
100
AcDbSymbolTable
 70
    16
  0
BLOCK_RECORD
  5
A
100
AcDbSymbolTableRecord
100
AcDbBlockTableRecord
  2
*MODEL_SPACE
  0
BLOCK_RECORD
  5
B
100
AcDbSymbolTableRecord
100
AcDbBlockTableRecord
  2
*PAPER_SPACE
  0
BLOCK_RECORD
  5
2D
100
AcDbSymbolTableRecord
100
AcDbBlockTableRecord
  2
_EX_NORM
  0
BLOCK_RECORD
  5
2E
100
AcDbSymbolTableRecord
100
AcDbBlockTableRecord
  2
_EX_BNORM
  0
BLOCK_RECORD
  5
2F
100
AcDbSymbolTableRecord
100
AcDbBlockTableRecord
  2
_EX_BCIR
  0
BLOCK_RECORD
  5
30
100
AcDbSymbolTableRecord
100
AcDbBlockTableRecord
  2
_EX_RCIVIL
  0
BLOCK_RECORD
  5
31
100
AcDbSymbolTableRecord
100
AcDbBlockTableRecord
  2
_EX_SLANT
  0
BLOCK_RECORD
  5
32
100
AcDbSymbolTableRecord
100
AcDbBlockTableRecord
  2
_EX_NONE
  0
BLOCK_RECORD
  5
33
100
AcDbSymbolTableRecord
100
AcDbBlockTableRecord
  2
_EX_CIVIL
  0
BLOCK_RECORD
  5
34
100
AcDbSymbolTableRecord
100
AcDbBlockTableRecord
  2
_EX_WCIR
  0
BLOCK_RECORD
  5
35
100
AcDbSymbolTableRecord
100
AcDbBlockTableRecord
  2
_EX_WCIR2
  0
BLOCK_RECORD
  5
36
100
AcDbSymbolTableRecord
100
AcDbBlockTableRecord
  2
_EX_WNORM
  0
BLOCK_RECORD
  5
37
100
AcDbSymbolTableRecord
100
AcDbBlockTableRecord
  2
_EX_NNORM
  0
BLOCK_RECORD
  5
38
100
AcDbSymbolTableRecord
100
AcDbBlockTableRecord
  2
_EX_BBOX
  0
BLOCK_RECORD
  5
39
100
AcDbSymbolTableRecord
100
AcDbBlockTableRecord
  2
_EX_WBOX
  0
BLOCK_RECORD
  5
3A
100
AcDbSymbolTableRecord
100
AcDbBlockTableRecord
  2
_EX_INTEGRAL
  0
BLOCK_RECORD
  5
E4
100
AcDbSymbolTableRecord
100
AcDbBlockTableRecord
  2
*D14
  0
BLOCK_RECORD
  5
870
100
AcDbSymbolTableRecord
100
AcDbBlockTableRecord
  2
*D15
  0
ENDTAB
  0
ENDSEC
  0
SECTION
  2
BLOCKS
  0
BLOCK
  5
D
100
AcDbEntity
  8
0
100
AcDbBlockBegin
  2
*MODEL_SPACE
 70
     0
 10
0.0
 20
0.0
 30
0.0
  3
*MODEL_SPACE
  1

  0
ENDBLK
  5
E
100
AcDbEntity
  8
0
100
AcDbBlockEnd
  0
BLOCK
  5
F
100
AcDbEntity
 67
     1
  8
0
100
AcDbBlockBegin
  2
*PAPER_SPACE
 70
     0
 10
0.0
 20
0.0
 30
0.0
  3
*PAPER_SPACE
  1

  0
ENDBLK
  5
10
100
AcDbEntity
 67
     1
  8
0
100
AcDbBlockEnd
  0
BLOCK
  5
3B
100
AcDbEntity
  8
0
100
AcDbBlockBegin
  2
_EX_NORM
 70
     0
 10
0.0
 20
0.0
 30
0.0
  3
_EX_NORM
  1

  0
LINE
  5
3C
100
AcDbEntity
  8
0
  6
CONTINUOUS
 62
     0
100
AcDbLine
 10
0.0
 20
0.0
 30
0.0
 11
-1.0
 21
0.0
 31
0.0
  0
LINE
  5
3D
100
AcDbEntity
  8
0
  6
CONTINUOUS
 62
     0
100
AcDbLine
 10
0.0
 20
0.0
 30
0.0
 11
-1.0
 21
0.166667
 31
0.0
  0
LINE
  5
3E
100
AcDbEntity
  8
0
  6
CONTINUOUS
 62
     0
100
AcDbLine
 10
0.0
 20
0.0
 30
0.0
 11
-1.0
 21
-0.166667
 31
0.0
  0
ENDBLK
  5
3F
100
AcDbEntity
  8
0
100
AcDbBlockEnd
  0
BLOCK
  5
40
100
AcDbEntity
  8
0
100
AcDbBlockBegin
  2
_EX_BNORM
 70
     0
 10
0.0
 20
0.0
 30
0.0
  3
_EX_BNORM
  1

  0
LINE
  5
41
100
AcDbEntity
  8
0
  6
CONTINUOUS
 62
     0
100
AcDbLine
 10
0.0
 20
0.0
 30
0.0
 11
-1.0
 21
0.0
 31
0.0
  0
LINE
  5
42
100
AcDbEntity
  8
0
  6
CONTINUOUS
 62
     0
100
AcDbLine
 10
0.0
 20
0.0
 30
0.0
 11
-1.0
 21
0.166667
 31
0.0
  0
LINE
  5
43
100
AcDbEntity
  8
0
  6
CONTINUOUS
 62
     0
100
AcDbLine
 10
0.0
 20
0.0
 30
0.0
 11
-1.0
 21
-0.166667
 31
0.0
  0
LINE
  5
44
100
AcDbEntity
  8
0
  6
CONTINUOUS
 62
     0
100
AcDbLine
 10
0.0
 20
0.0
 30
0.0
 11
-1.0
 21
0.083333
 31
0.0
  0
LINE
  5
45
100
AcDbEntity
  8
0
  6
CONTINUOUS
 62
     0
100
AcDbLine
 10
0.0
 20
0.0
 30
0.0
 11
-1.0
 21
-0.083333
 31
0.0
  0
LINE
  5
46
100
AcDbEntity
  8
0
  6
CONTINUOUS
 62
     0
100
AcDbLine
 10
-1.0
 20
0.166667
 30
0.0
 11
-1.0
 21
-0.166667
 31
0.0
  0
ENDBLK
  5
47
100
AcDbEntity
  8
0
100
AcDbBlockEnd
  0
BLOCK
  5
48
100
AcDbEntity
  8
0
100
AcDbBlockBegin
  2
_EX_BCIR
 70
     0
 10
0.0
 20
0.0
 30
0.0
  3
_EX_BCIR
  1

  0
LINE
  5
49
100
AcDbEntity
  8
0
  6
CONTINUOUS
 62
     0
100
AcDbLine
 10
0.0
 20
0.0
 30
0.0
 11
-1.0
 21
0.0
 31
0.0
  0
CIRCLE
  5
4A
100
AcDbEntity
  8
0
  6
CONTINUOUS
 62
     0
100
AcDbCircle
 10
0.0
 20
0.0
 30
0.0
 40
0.5
  0
CIRCLE
  5
4B
100
AcDbEntity
  8
0
  6
CONTINUOUS
 62
     0
100
AcDbCircle
 10
0.0
 20
0.0
 30
0.0
 40
0.25
  0
ENDBLK
  5
4C
100
AcDbEntity
  8
0
100
AcDbBlockEnd
  0
BLOCK
  5
4D
100
AcDbEntity
  8
0
100
AcDbBlockBegin
  2
_EX_RCIVIL
 70
     0
 10
0.0
 20
0.0
 30
0.0
  3
_EX_RCIVIL
  1

  0
LINE
  5
4E
100
AcDbEntity
  8
0
  6
CONTINUOUS
 62
     0
100
AcDbLine
 10
0.0
 20
0.0
 30
0.0
 11
-1.0
 21
0.0
 31
0.0
  0
LINE
  5
4F
100
AcDbEntity
  8
0
  6
CONTINUOUS
 62
     0
100
AcDbLine
 10
-1.0
 20
-0.25
 30
0.0
 11
0.0
 21
-0.25
 31
0.0
  0
LINE
  5
50
100
AcDbEntity
  8
0
  6
CONTINUOUS
 62
     0
100
AcDbLine
 10
-1.0
 20
-0.125
 30
0.0
 11
0.0
 21
-0.125
 31
0.0
  0
ENDBLK
  5
51
100
AcDbEntity
  8
0
100
AcDbBlockEnd
  0
BLOCK
  5
52
100
AcDbEntity
  8
0
100
AcDbBlockBegin
  2
_EX_SLANT
 70
     0
 10
0.0
 20
0.0
 30
0.0
  3
_EX_SLANT
  1

  0
LINE
  5
53
100
AcDbEntity
  8
0
  6
CONTINUOUS
 62
     0
100
AcDbLine
 10
0.0
 20
0.0
 30
0.0
 11
-1.0
 21
0.0
 31
0.0
  0
LINE
  5
54
100
AcDbEntity
  8
0
  6
CONTINUOUS
 62
     0
100
AcDbLine
 10
0.707107
 20
0.707107
 30
0.0
 11
-0.707107
 21
-0.707107
 31
0.0
  0
ENDBLK
  5
55
100
AcDbEntity
  8
0
100
AcDbBlockEnd
  0
BLOCK
  5
56
100
AcDbEntity
  8
0
100
AcDbBlockBegin
  2
_EX_NONE
 70
     0
 10
0.0
 20
0.0
 30
0.0
  3
_EX_NONE
  1

  0
LINE
  5
57
100
AcDbEntity
  8
0
  6
CONTINUOUS
 62
     0
100
AcDbLine
 10
0.0
 20
0.0
 30
0.0
 11
-1.0
 21
0.0
 31
0.0
  0
ENDBLK
  5
58
100
AcDbEntity
  8
0
100
AcDbBlockEnd
  0
BLOCK
  5
59
100
AcDbEntity
  8
0
100
AcDbBlockBegin
  2
_EX_CIVIL
 70
     0
 10
0.0
 20
0.0
 30
0.0
  3
_EX_CIVIL
  1

  0
LINE
  5
5A
100
AcDbEntity
  8
0
  6
CONTINUOUS
 62
     0
100
AcDbLine
 10
0.0
 20
0.0
 30
0.0
 11
-1.0
 21
0.0
 31
0.0
  0
LINE
  5
5B
100
AcDbEntity
  8
0
  6
CONTINUOUS
 62
     0
100
AcDbLine
 10
-1.0
 20
0.25
 30
0.0
 11
0.0
 21
0.25
 31
0.0
  0
LINE
  5
5C
100
AcDbEntity
  8
0
  6
CONTINUOUS
 62
     0
100
AcDbLine
 10
-1.0
 20
0.125
 30
0.0
 11
0.0
 21
0.125
 31
0.0
  0
ENDBLK
  5
5D
100
AcDbEntity
  8
0
100
AcDbBlockEnd
  0
BLOCK
  5
5E
100
AcDbEntity
  8
0
100
AcDbBlockBegin
  2
_EX_WCIR
 70
     0
 10
0.0
 20
0.0
 30
0.0
  3
_EX_WCIR
  1

  0
LINE
  5
5F
100
AcDbEntity
  8
0
  6
CONTINUOUS
 62
     0
100
AcDbLine
 10
0.0
 20
0.0
 30
0.0
 11
-1.0
 21
0.0
 31
0.0
  0
CIRCLE
  5
60
100
AcDbEntity
  8
0
  6
CONTINUOUS
 62
     0
100
AcDbCircle
 10
0.0
 20
0.0
 30
0.0
 40
0.5
  0
ENDBLK
  5
61
100
AcDbEntity
  8
0
100
AcDbBlockEnd
  0
BLOCK
  5
62
100
AcDbEntity
  8
0
100
AcDbBlockBegin
  2
_EX_WCIR2
 70
     0
 10
0.0
 20
0.0
 30
0.0
  3
_EX_WCIR2
  1

  0
LINE
  5
63
100
AcDbEntity
  8
0
  6
CONTINUOUS
 62
     0
100
AcDbLine
 10
-0.5
 20
0.0
 30
0.0
 11
-1.0
 21
0.0
 31
0.0
  0
CIRCLE
  5
64
100
AcDbEntity
  8
0
  6
CONTINUOUS
 62
     0
100
AcDbCircle
 10
0.0
 20
0.0
 30
0.0
 40
0.5
  0
ENDBLK
  5
65
100
AcDbEntity
  8
0
100
AcDbBlockEnd
  0
BLOCK
  5
66
100
AcDbEntity
  8
0
100
AcDbBlockBegin
  2
_EX_WNORM
 70
     0
 10
0.0
 20
0.0
 30
0.0
  3
_EX_WNORM
  1

  0
LINE
  5
67
100
AcDbEntity
  8
0
  6
CONTINUOUS
 62
     0
100
AcDbLine
 10
-1.0
 20
0.0
 30
0.0
 11
-1.0
 21
0.0
 31
0.0
  0
LINE
  5
68
100
AcDbEntity
  8
0
  6
CONTINUOUS
 62
     0
100
AcDbLine
 10
0.0
 20
0.0
 30
0.0
 11
-1.0
 21
0.166667
 31
0.0
  0
LINE
  5
69
100
AcDbEntity
  8
0
  6
CONTINUOUS
 62
     0
100
AcDbLine
 10
0.0
 20
0.0
 30
0.0
 11
-1.0
 21
-0.166667
 31
0.0
  0
LINE
  5
6A
100
AcDbEntity
  8
0
  6
CONTINUOUS
 62
     0
100
AcDbLine
 10
-1.0
 20
0.166667
 30
0.0
 11
-1.0
 21
-0.166667
 31
0.0
  0
ENDBLK
  5
6B
100
AcDbEntity
  8
0
100
AcDbBlockEnd
  0
BLOCK
  5
6C
100
AcDbEntity
  8
0
100
AcDbBlockBegin
  2
_EX_NNORM
 70
     0
 10
0.0
 20
0.0
 30
0.0
  3
_EX_NNORM
  1

  0
LINE
  5
6D
100
AcDbEntity
  8
0
  6
CONTINUOUS
 62
     0
100
AcDbLine
 10
0.0
 20
0.0
 30
0.0
 11
-1.0
 21
0.0
 31
0.0
  0
LINE
  5
6E
100
AcDbEntity
  8
0
  6
CONTINUOUS
 62
     0
100
AcDbLine
 10
0.0
 20
0.0
 30
0.0
 11
-1.0
 21
0.166667
 31
0.0
  0
LINE
  5
6F
100
AcDbEntity
  8
0
  6
CONTINUOUS
 62
     0
100
AcDbLine
 10
0.0
 20
0.0
 30
0.0
 11
-1.0
 21
-0.166667
 31
0.0
  0
LINE
  5
70
100
AcDbEntity
  8
0
  6
CONTINUOUS
 62
     0
100
AcDbLine
 10
-1.0
 20
0.166667
 30
0.0
 11
-1.0
 21
-0.166667
 31
0.0
  0
ENDBLK
  5
71
100
AcDbEntity
  8
0
100
AcDbBlockEnd
  0
BLOCK
  5
72
100
AcDbEntity
  8
0
100
AcDbBlockBegin
  2
_EX_BBOX
 70
     0
 10
0.0
 20
0.0
 30
0.0
  3
_EX_BBOX
  1

  0
LINE
  5
73
100
AcDbEntity
  8
0
  6
CONTINUOUS
 62
     0
100
AcDbLine
 10
0.0
 20
0.0
 30
0.0
 11
-1.0
 21
0.0
 31
0.0
  0
LINE
  5
74
100
AcDbEntity
  8
0
  6
CONTINUOUS
 62
     0
100
AcDbLine
 10
-0.5
 20
0.5
 30
0.0
 11
0.5
 21
0.5
 31
0.0
  0
LINE
  5
75
100
AcDbEntity
  8
0
  6
CONTINUOUS
 62
     0
100
AcDbLine
 10
0.5
 20
0.5
 30
0.0
 11
0.5
 21
-0.5
 31
0.0
  0
LINE
  5
76
100
AcDbEntity
  8
0
  6
CONTINUOUS
 62
     0
100
AcDbLine
 10
0.5
 20
-0.5
 30
0.0
 11
-0.5
 21
-0.5
 31
0.0
  0
LINE
  5
77
100
AcDbEntity
  8
0
  6
CONTINUOUS
 62
     0
100
AcDbLine
 10
-0.5
 20
-0.5
 30
0.0
 11
-0.5
 21
0.5
 31
0.0
  0
LINE
  5
78
100
AcDbEntity
  8
0
  6
CONTINUOUS
 62
     0
100
AcDbLine
 10
-0.25
 20
0.25
 30
0.0
 11
0.25
 21
0.25
 31
0.0
  0
LINE
  5
79
100
AcDbEntity
  8
0
  6
CONTINUOUS
 62
     0
100
AcDbLine
 10
0.25
 20
0.25
 30
0.0
 11
0.25
 21
-0.25
 31
0.0
  0
LINE
  5
7A
100
AcDbEntity
  8
0
  6
CONTINUOUS
 62
     0
100
AcDbLine
 10
0.25
 20
-0.25
 30
0.0
 11
-0.25
 21
-0.25
 31
0.0
  0
LINE
  5
7B
100
AcDbEntity
  8
0
  6
CONTINUOUS
 62
     0
100
AcDbLine
 10
-0.25
 20
-0.25
 30
0.0
 11
-0.25
 21
0.25
 31
0.0
  0
ENDBLK
  5
7C
100
AcDbEntity
  8
0
100
AcDbBlockEnd
  0
BLOCK
  5
7D
100
AcDbEntity
  8
0
100
AcDbBlockBegin
  2
_EX_WBOX
 70
     0
 10
0.0
 20
0.0
 30
0.0
  3
_EX_WBOX
  1

  0
LINE
  5
7E
100
AcDbEntity
  8
0
  6
CONTINUOUS
 62
     0
100
AcDbLine
 10
-0.5
 20
0.0
 30
0.0
 11
-1.0
 21
0.0
 31
0.0
  0
LINE
  5
7F
100
AcDbEntity
  8
0
  6
CONTINUOUS
 62
     0
100
AcDbLine
 10
-0.5
 20
0.5
 30
0.0
 11
0.5
 21
0.5
 31
0.0
  0
LINE
  5
80
100
AcDbEntity
  8
0
  6
CONTINUOUS
 62
     0
100
AcDbLine
 10
0.5
 20
0.5
 30
0.0
 11
0.5
 21
-0.5
 31
0.0
  0
LINE
  5
81
100
AcDbEntity
  8
0
  6
CONTINUOUS
 62
     0
100
AcDbLine
 10
0.5
 20
-0.5
 30
0.0
 11
-0.5
 21
-0.5
 31
0.0
  0
LINE
  5
82
100
AcDbEntity
  8
0
  6
CONTINUOUS
 62
     0
100
AcDbLine
 10
-0.5
 20
-0.5
 30
0.0
 11
-0.5
 21
0.5
 31
0.0
  0
ENDBLK
  5
83
100
AcDbEntity
  8
0
100
AcDbBlockEnd
  0
BLOCK
  5
84
100
AcDbEntity
  8
0
100
AcDbBlockBegin
  2
_EX_INTEGRAL
 70
     0
 10
0.0
 20
0.0
 30
0.0
  3
_EX_INTEGRAL
  1

  0
LINE
  5
85
100
AcDbEntity
  8
0
  6
CONTINUOUS
 62
     0
100
AcDbLine
 10
0.0
 20
0.0
 30
0.0
 11
-1.0
 21
0.0
 31
0.0
  0
ARC
  5
86
100
AcDbEntity
  8
0
  6
CONTINUOUS
 62
     0
100
AcDbCircle
 10
0.542115
 20
0.164992
 30
0.0
 40
0.56667
100
AcDbArc
 50
73.07249
 51
196.927513
  0
ARC
  5
87
100
AcDbEntity
  8
0
  6
CONTINUOUS
 62
     0
100
AcDbCircle
 10
-0.542115
 20
-0.164992
 30
0.0
 40
0.56667
100
AcDbArc
 50
253.072487
 51
16.927513
  0
ENDBLK
  5
88
100
AcDbEntity
  8
0
100
AcDbBlockEnd
  0
BLOCK
  5
E5
100
AcDbEntity
  8
0
100
AcDbBlockBegin
  2
*D14
 70
    65
 10
0.0
 20
0.0
 30
0.0
  3
*D14
  1

  0
LINE
  5
E6
100
AcDbEntity
  8
便器
  6
CONTINUOUS
 62
     3
100
AcDbLine
 10
1502.000028
 20
552.108166
 30
0.0
 11
1502.000028
 21
416.0
 31
0.0
  0
LINE
  5
E7
100
AcDbEntity
  8
便器
  6
CONTINUOUS
 62
     3
100
AcDbLine
 10
1641.999972
 20
552.108166
 30
0.0
 11
1641.999972
 21
416.0
 31
0.0
  0
TEXT
  5
E8
100
AcDbEntity
  8
便器
  6
CONTINUOUS
 62
     2
100
AcDbText
 10
1522.02
 20
439.5
 30
0.0
 40
40.0
  1
140
 41
0.945
  7
EXCADSTD
 72
     1
 11
1572.0
 21
439.5
 31
0.0
100
AcDbText
  0
LINE
  5
E9
100
AcDbEntity
  8
便器
  6
CONTINUOUS
 62
     3
100
AcDbLine
 10
1502.000028
 20
436.0
 30
0.0
 11
1641.999972
 21
436.0
 31
0.0
  0
LINE
  5
EA
100
AcDbEntity
  8
便器
  6
CONTINUOUS
 62
     3
100
AcDbLine
 10
1537.000028
 20
441.833333
 30
0.0
 11
1502.000028
 21
436.0
 31
0.0
  0
LINE
  5
EB
100
AcDbEntity
  8
便器
  6
CONTINUOUS
 62
     3
100
AcDbLine
 10
1502.000028
 20
436.0
 30
0.0
 11
1537.000028
 21
430.166667
 31
0.0
  0
LINE
  5
EC
100
AcDbEntity
  8
便器
  6
CONTINUOUS
 62
     3
100
AcDbLine
 10
1606.999972
 20
430.166667
 30
0.0
 11
1641.999972
 21
436.0
 31
0.0
  0
LINE
  5
ED
100
AcDbEntity
  8
便器
  6
CONTINUOUS
 62
     3
100
AcDbLine
 10
1641.999972
 20
436.0
 30
0.0
 11
1606.999972
 21
441.833333
 31
0.0
  0
ENDBLK
  5
EE
100
AcDbEntity
  8
0
100
AcDbBlockEnd
  0
BLOCK
  5
871
100
AcDbEntity
  8
0
100
AcDbBlockBegin
  2
*D15
 70
    65
 10
0.0
 20
0.0
 30
0.0
  3
*D15
  1

  0
LINE
  5
872
100
AcDbEntity
  8
寸法
  6
CONTINUOUS
 62
     3
100
AcDbLine
 10
1100.441132
 20
2457.34668
 30
0.0
 11
1100.441132
 21
2724.0
 31
0.0
  0
TEXT
  5
873
100
AcDbEntity
  8
寸法
  6
CONTINUOUS
 62
     2
100
AcDbText
 10
716.240566
 20
2707.5
 30
0.0
 40
40.0
  1
668
 41
0.945
  7
EXCADSTD
 72
     1
 11
766.220566
 21
2707.5
 31
0.0
100
AcDbText
  0
LINE
  5
874
100
AcDbEntity
  8
寸法
  6
CONTINUOUS
 62
     3
100
AcDbLine
 10
1100.441132
 20
2704.0
 30
0.0
 11
432.0
 21
2704.0
 31
0.0
  0
LINE
  5
875
100
AcDbEntity
  8
寸法
  6
CONTINUOUS
 62
     3
100
AcDbLine
 10
1065.441132
 20
2698.166667
 30
0.0
 11
1100.441132
 21
2704.0
 31
0.0
  0
LINE
  5
876
100
AcDbEntity
  8
寸法
  6
CONTINUOUS
 62
     3
100
AcDbLine
 10
1100.441132
 20
2704.0
 30
0.0
 11
1065.441132
 21
2709.833333
 31
0.0
  0
LINE
  5
877
100
AcDbEntity
  8
寸法
  6
CONTINUOUS
 62
     3
100
AcDbLine
 10
467.0
 20
2709.833333
 30
0.0
 11
432.0
 21
2704.0
 31
0.0
  0
LINE
  5
878
100
AcDbEntity
  8
寸法
  6
CONTINUOUS
 62
     3
100
AcDbLine
 10
432.0
 20
2704.0
 30
0.0
 11
467.0
 21
2698.166667
 31
0.0
  0
LINE
  5
879
100
AcDbEntity
  8
寸法
  6
CONTINUOUS
 62
     3
100
AcDbLine
 10
432.0
 20
2470.0
 30
0.0
 11
432.0
 21
2724.0
 31
0.0
  0
ENDBLK
  5
87A
100
AcDbEntity
  8
0
100
AcDbBlockEnd
  0
ENDSEC
  0
SECTION
  2
ENTITIES
  0
TEXT
  5
89
100
AcDbEntity
  8
枠
  6
CONTINUOUS
 62
     2
100
AcDbText
 10
804.093323
 20
275.818481
 30
0.0
 40
57.5
  1
洋風タンク密結洗落し便器
 41
0.719478
  7
EXCADSTD
 72
     5
 11
1395.093325
 21
275.818481
 31
0.0
100
AcDbText
  0
TEXT
  5
8A
100
AcDbEntity
  8
枠
  6
CONTINUOUS
 62
     2
100
AcDbText
 10
784.578095
 20
217.110443
 30
0.0
 40
55.0
  1
（タンク／付属金具一式セット品）
 41
0.596591
  7
EXCADSTD
 72
     5
 11
1409.578098
 21
217.110443
 31
0.0
100
AcDbText
  0
TEXT
  5
8B
100
AcDbEntity
  8
枠
  6
CONTINUOUS
 62
     2
100
AcDbText
 10
1446.794128
 20
243.75
 30
0.0
 40
62.5
  1
ＣＳ７３Ｓ－ＦＷ
 41
0.53256
  7
EXCADSTD
 72
     5
 11
1763.79413
 21
243.75
 31
0.0
100
AcDbText
  0
LINE
  5
8C
100
AcDbEntity
  8
枠
  6
CONTINUOUS
 62
     7
100
AcDbLine
 10
180.0
 20
115.0
 30
0.0
 11
2000.0
 21
115.0
 31
0.0
  0
LINE
  5
8D
100
AcDbEntity
  8
枠
  6
CONTINUOUS
 62
     7
100
AcDbLine
 10
2000.0
 20
115.0
 30
0.0
 11
2000.0
 21
2915.0
 31
0.0
  0
LINE
  5
8E
100
AcDbEntity
  8
枠
  6
CONTINUOUS
 62
     7
100
AcDbLine
 10
180.0
 20
115.0
 30
0.0
 11
180.0
 21
2915.0
 31
0.0
  0
LINE
  5
8F
100
AcDbEntity
  8
枠
  6
CONTINUOUS
 62
     7
100
AcDbLine
 10
180.0
 20
2915.0
 30
0.0
 11
2000.0
 21
2915.0
 31
0.0
  0
LINE
  5
90
100
AcDbEntity
  8
枠
  6
CONTINUOUS
 62
     7
100
AcDbLine
 10
180.0
 20
335.0
 30
0.0
 11
2000.0
 21
335.0
 31
0.0
  0
LINE
  5
91
100
AcDbEntity
  8
枠
  6
CONTINUOUS
 62
     6
100
AcDbLine
 10
2000.0
 20
215.0
 30
0.0
 11
750.0
 21
215.0
 31
0.0
  0
LINE
  5
92
100
AcDbEntity
  8
枠
  6
CONTINUOUS
 62
     6
100
AcDbLine
 10
1860.0
 20
335.0
 30
0.0
 11
1860.0
 21
215.0
 31
0.0
  0
LINE
  5
93
100
AcDbEntity
  8
枠
  6
CONTINUOUS
 62
     6
100
AcDbLine
 10
1810.0
 20
335.0
 30
0.0
 11
1810.0
 21
215.0
 31
0.0
  0
LINE
  5
94
100
AcDbEntity
  8
枠
  6
CONTINUOUS
 62
     6
100
AcDbLine
 10
1440.0
 20
335.0
 30
0.0
 11
1440.0
 21
115.0
 31
0.0
  0
LINE
  5
95
100
AcDbEntity
  8
枠
  6
CONTINUOUS
 62
     6
100
AcDbLine
 10
1390.0
 20
335.0
 30
0.0
 11
1390.0
 21
115.0
 31
0.0
  0
LINE
  5
96
100
AcDbEntity
  8
枠
  6
CONTINUOUS
 62
     6
100
AcDbLine
 10
800.0
 20
335.0
 30
0.0
 11
800.0
 21
215.0
 31
0.0
  0
LINE
  5
97
100
AcDbEntity
  8
枠
  6
CONTINUOUS
 62
     6
100
AcDbLine
 10
750.0
 20
335.0
 30
0.0
 11
750.0
 21
115.0
 31
0.0
  0
LINE
  5
98
100
AcDbEntity
  8
枠
  6
CONTINUOUS
 62
     6
100
AcDbLine
 10
620.0
 20
335.0
 30
0.0
 11
620.0
 21
115.0
 31
0.0
  0
LINE
  5
99
100
AcDbEntity
  8
枠
  6
CONTINUOUS
 62
     6
100
AcDbLine
 10
490.0
 20
335.0
 30
0.0
 11
490.0
 21
115.0
 31
0.0
  0
LINE
  5
9A
100
AcDbEntity
  8
枠
  6
CONTINUOUS
 62
     6
100
AcDbLine
 10
335.0
 20
335.0
 30
0.0
 11
335.0
 21
115.0
 31
0.0
  0
LINE
  5
9B
100
AcDbEntity
  8
枠
  6
CONTINUOUS
 62
     6
100
AcDbLine
 10
180.0
 20
285.0
 30
0.0
 11
750.0
 21
285.0
 31
0.0
  0
LINE
  5
9C
100
AcDbEntity
  8
枠
  6
CONTINUOUS
 62
     6
100
AcDbLine
 10
1892.653809
 20
238.00293
 30
0.0
 11
1969.993897
 21
316.699829
 31
0.0
  0
TEXT
  5
9D
100
AcDbEntity
  8
枠
  6
CONTINUOUS
 62
     2
100
AcDbText
 10
1890.537109
 20
282.722778
 30
0.0
 40
30.0
  1
１
 41
0.826
  7
EXCADSTD
 72
     5
 11
1914.13711
 21
282.722778
 31
0.0
100
AcDbText
  0
TEXT
  5
9E
100
AcDbEntity
  8
枠
  6
CONTINUOUS
 62
     2
100
AcDbText
 10
1931.279297
 20
238.348846
 30
0.0
 40
30.0
  1
１０
 41
0.791
  7
EXCADSTD
 72
     5
 11
1983.067198
 21
238.348846
 31
0.0
100
AcDbText
  0
TEXT
  5
9F
100
AcDbEntity
  8
枠
  6
CONTINUOUS
 62
     2
100
AcDbText
 10
202.5
 20
288.75
 30
0.0
 40
42.5
  1
製図
 41
1.087059
  7
EXCADSTD
 72
     5
 11
303.326
 21
288.75
 31
0.0
100
AcDbText
  0
TEXT
  5
A0
100
AcDbEntity
  8
枠
  6
CONTINUOUS
 62
     2
100
AcDbText
 10
357.5
 20
288.75
 30
0.0
 40
42.5
  1
写図
 41
1.087059
  7
EXCADSTD
 72
     5
 11
458.326
 21
288.75
 31
0.0
100
AcDbText
  0
TEXT
  5
A1
100
AcDbEntity
  8
枠
  6
CONTINUOUS
 62
     2
100
AcDbText
 10
507.5
 20
288.75
 30
0.0
 40
42.5
  1
検図
 41
0.938824
  7
EXCADSTD
 72
     5
 11
594.577
 21
288.75
 31
0.0
100
AcDbText
  0
TEXT
  5
A2
100
AcDbEntity
  8
枠
  6
CONTINUOUS
 62
     2
100
AcDbText
 10
637.5
 20
288.75
 30
0.0
 40
42.5
  1
承認
 41
0.938824
  7
EXCADSTD
 72
     5
 11
724.577
 21
288.75
 31
0.0
100
AcDbText
  0
TEXT
  5
A3
100
AcDbEntity
  8
枠
  6
CONTINUOUS
 62
     2
100
AcDbText
 10
753.75
 20
278.75
 30
0.0
 40
42.5
  1
品
 41
0.84
  7
EXCADSTD
 72
     5
 11
787.75
 21
278.75
 31
0.0
100
AcDbText
  0
TEXT
  5
A4
100
AcDbEntity
  8
枠
  6
CONTINUOUS
 62
     2
100
AcDbText
 10
753.75
 20
228.75
 30
0.0
 40
42.5
  1
名
 41
0.84
  7
EXCADSTD
 72
     5
 11
787.75
 21
228.75
 31
0.0
100
AcDbText
  0
TEXT
  5
A5
100
AcDbEntity
  8
枠
  6
CONTINUOUS
 62
     2
100
AcDbText
 10
1393.75
 20
278.75
 30
0.0
 40
42.5
  1
品
 41
0.84
  7
EXCADSTD
 72
     5
 11
1427.75
 21
278.75
 31
0.0
100
AcDbText
  0
TEXT
  5
A6
100
AcDbEntity
  8
枠
  6
CONTINUOUS
 62
     2
100
AcDbText
 10
1393.75
 20
228.75
 30
0.0
 40
42.5
  1
番
 41
0.84
  7
EXCADSTD
 72
     5
 11
1427.75
 21
228.75
 31
0.0
100
AcDbText
  0
TEXT
  5
A7
100
AcDbEntity
  8
枠
  6
CONTINUOUS
 62
     2
100
AcDbText
 10
1813.75
 20
278.75
 30
0.0
 40
42.5
  1
尺
 41
0.84
  7
EXCADSTD
 72
     5
 11
1847.75
 21
278.75
 31
0.0
100
AcDbText
  0
TEXT
  5
A8
100
AcDbEntity
  8
枠
  6
CONTINUOUS
 62
     2
100
AcDbText
 10
1813.75
 20
228.75
 30
0.0
 40
42.5
  1
度
 41
0.84
  7
EXCADSTD
 72
     5
 11
1847.75
 21
228.75
 31
0.0
100
AcDbText
  0
TEXT
  5
A9
100
AcDbEntity
  8
枠
  6
CONTINUOUS
 62
     2
100
AcDbText
 10
1393.75
 20
165.75
 30
0.0
 40
42.5
  1
図
 41
0.84
  7
EXCADSTD
 72
     5
 11
1427.75
 21
165.75
 31
0.0
100
AcDbText
  0
TEXT
  5
AA
100
AcDbEntity
  8
枠
  6
CONTINUOUS
 62
     2
100
AcDbText
 10
1393.75
 20
122.75
 30
0.0
 40
42.5
  1
番
 41
0.84
  7
EXCADSTD
 72
     5
 11
1427.75
 21
122.75
 31
0.0
100
AcDbText
  0
TEXT
  5
AB
100
AcDbEntity
  8
枠
  6
CONTINUOUS
 62
     2
100
AcDbText
 10
393.394408
 20
1629.910004
 30
0.0
 40
40.0
  1
Ｗ．Ｌ
 50
90.0
 41
0.833
  7
EXCADSTD
 72
     5
 11
393.394408
 21
1748.910003
 31
0.0
100
AcDbText
  0
LINE
  5
AC
100
AcDbEntity
  8
枠
  6
CONTINUOUS
 62
     7
100
AcDbLine
 10
350.440306
 20
596.455231
 30
0.0
 11
350.440306
 21
1757.0
 31
0.0
  0
TEXT
  5
AD
100
AcDbEntity
  8
枠
  6
CONTINUOUS
 62
     2
100
AcDbText
 10
977.698363
 20
599.947357
 30
0.0
 40
40.0
  1
Ｆ．Ｌ
 41
0.833
  7
EXCADSTD
 72
     5
 11
1096.698363
 21
599.947357
 31
0.0
100
AcDbText
  0
LINE
  5
AE
100
AcDbEntity
  8
枠
  6
CONTINUOUS
 62
     7
100
AcDbLine
 10
350.440826
 20
2020.3479
 30
0.0
 11
350.441132
 21
2850.34668
 31
0.0
  0
LINE
  5
AF
100
AcDbEntity
  8
枠
  6
CONTINUOUS
 62
     7
100
AcDbLine
 10
1285.0
 20
2850.34668
 30
0.0
 11
350.441132
 21
2850.34668
 31
0.0
  0
TEXT
  5
B0
100
AcDbEntity
  8
枠
  6
CONTINUOUS
 62
     2
100
AcDbText
 10
667.0
 20
2806.84668
 30
0.0
 40
40.0
  1
Ｗ．Ｌ
 41
0.833
  7
EXCADSTD
 72
     5
 11
786.0
 21
2806.84668
 31
0.0
100
AcDbText
  0
LINE
  5
B1
100
AcDbEntity
  8
枠
  6
CONTINUOUS
 62
     7
100
AcDbLine
 10
350.440306
 20
596.455231
 30
0.0
 11
1229.0
 21
596.455231
 31
0.0
  0
LINE
  5
B2
100
AcDbEntity
  8
枠
  6
CONTINUOUS
 62
     7
100
AcDbLine
 10
1274.0
 20
596.455231
 30
0.0
 11
1972.0
 21
596.455231
 31
0.0
  0
TEXT
  5
B3
100
AcDbEntity
  8
枠
  6
CONTINUOUS
 62
     7
100
AcDbText
 10
1454.25
 20
130.75
 30
0.0
 40
70.0
  1
Ｃ４６７Ｓ０５９
 41
0.795
  7
EXCADSTD
 72
     5
 11
1984.25
 21
130.75
 31
0.0
100
AcDbText
  0
LINE
  5
B4
100
AcDbEntity
  8
枠
  6
EXLTYPE2
 62
     7
100
AcDbLine
 10
180.0
 20
1515.0
 30
0.0
 11
-10.0
 21
1515.0
 31
0.0
  0
LINE
  5
B5
100
AcDbEntity
  8
枠
  6
EXLTYPE2
 62
     6
100
AcDbLine
 10
170.0
 20
1515.0
 30
0.0
 11
-20.0
 21
1515.0
 31
0.0
  0
TEXT
  5
B7
100
AcDbEntity
  8
枠
  6
CONTINUOUS
 62
     2
100
AcDbText
 10
770.0
 20
135.0
 30
0.0
 40
45.0
  1
ジャニス工業株式会社
  7
EXCADTTF1
 72
     5
 11
1370.0
 21
135.0
 31
0.0
100
AcDbText
  0
CIRCLE
  5
B8
100
AcDbEntity
  8
枠
  6
CONTINUOUS
 62
     6
100
AcDbCircle
 10
230.0
 20
140.0
 30
0.0
 40
1.0
  0
CIRCLE
  5
B9
100
AcDbEntity
  8
枠
  6
CONTINUOUS
 62
     6
100
AcDbCircle
 10
280.0
 20
140.0
 30
0.0
 40
1.0
  0
TEXT
  5
BA
100
AcDbEntity
  8
枠
  6
CONTINUOUS
 62
     6
100
AcDbText
 10
635.5
 20
200.0
 30
0.0
 40
50.0
  1
古林
 41
0.8568
  7
EXCADSTD
 72
     5
 11
728.9932
 21
200.0
 31
0.0
100
AcDbText
  0
LINE
  5
BB
100
AcDbEntity
  8
枠
  6
EXLTYPE2
 62
     6
100
AcDbLine
 10
180.0
 20
165.0
 30
0.0
 11
490.0
 21
165.0
 31
0.0
  0
TEXT
  5
BC
100
AcDbEntity
  8
枠
  6
CONTINUOUS
 62
     6
100
AcDbText
 10
207.5
 20
200.0
 30
0.0
 40
50.0
  1
間瀬
 41
0.8736
  7
EXCADSTD
 72
     5
 11
302.8264
 21
200.0
 31
0.0
100
AcDbText
  0
TEXT
  5
BD
100
AcDbEntity
  8
枠
  6
CONTINUOUS
 62
     6
100
AcDbText
 10
182.044116
 20
126.950073
 30
0.0
 40
25.0
  1
２１
 41
0.75768
  7
EXCADSTD
 72
     5
 11
223.382775
 21
126.950073
 31
0.0
100
AcDbText
  0
TEXT
  5
BE
100
AcDbEntity
  8
枠
  6
CONTINUOUS
 62
     6
100
AcDbText
 10
244.544116
 20
126.950073
 30
0.0
 40
25.0
  1
６
 41
0.89208
  7
EXCADSTD
 72
     5
 11
265.784116
 21
126.950073
 31
0.0
100
AcDbText
  0
TEXT
  5
BF
100
AcDbEntity
  8
枠
  6
CONTINUOUS
 62
     6
100
AcDbText
 10
286.844116
 20
126.950073
 30
0.0
 40
25.0
  1
２６
 41
0.75768
  7
EXCADSTD
 72
     5
 11
328.182775
 21
126.950073
 31
0.0
100
AcDbText
  0
TEXT
  5
C0
100
AcDbEntity
  8
便器
  6
CONTINUOUS
 62
     2
100
AcDbText
 10
820.941604
 20
2201.499084
 30
0.0
 40
40.0
  1
４４０
 41
0.833
  7
EXCADSTD
 72
     5
 11
939.941604
 21
2201.499084
 31
0.0
100
AcDbText
  0
LINE
  5
C1
100
AcDbEntity
  8
便器
  6
CONTINUOUS
 62
     3
100
AcDbLine
 10
660.441132
 20
2197.999084
 30
0.0
 11
1100.442076
 21
2197.999084
 31
0.0
  0
LINE
  5
C2
100
AcDbEntity
  8
便器
  6
CONTINUOUS
 62
     3
100
AcDbLine
 10
695.441132
 20
2203.832418
 30
0.0
 11
660.441132
 21
2197.999084
 31
0.0
  0
LINE
  5
C3
100
AcDbEntity
  8
便器
  6
CONTINUOUS
 62
     3
100
AcDbLine
 10
660.441132
 20
2197.999084
 30
0.0
 11
695.441132
 21
2192.165751
 31
0.0
  0
LINE
  5
C4
100
AcDbEntity
  8
便器
  6
CONTINUOUS
 62
     3
100
AcDbLine
 10
1065.442076
 20
2192.165751
 30
0.0
 11
1100.442076
 21
2197.999084
 31
0.0
  0
LINE
  5
C5
100
AcDbEntity
  8
便器
  6
CONTINUOUS
 62
     3
100
AcDbLine
 10
1100.442076
 20
2197.999084
 30
0.0
 11
1065.442076
 21
2203.832418
 31
0.0
  0
TEXT
  5
C6
100
AcDbEntity
  8
便器
  6
CONTINUOUS
 62
     2
100
AcDbText
 10
1129.49948
 20
711.955231
 30
0.0
 40
40.0
  1
３５０
 50
90.0
 41
0.833
  7
EXCADSTD
 72
     5
 11
1129.49948
 21
830.955231
 31
0.0
100
AcDbText
  0
LINE
  5
C7
100
AcDbEntity
  8
便器
  6
CONTINUOUS
 62
     3
100
AcDbLine
 10
1132.99948
 20
596.455231
 30
0.0
 11
1132.99948
 21
946.455231
 31
0.0
  0
LINE
  5
C8
100
AcDbEntity
  8
便器
  6
CONTINUOUS
 62
     3
100
AcDbLine
 10
1127.166147
 20
631.455231
 30
0.0
 11
1132.99948
 21
596.455231
 31
0.0
  0
LINE
  5
C9
100
AcDbEntity
  8
便器
  6
CONTINUOUS
 62
     3
100
AcDbLine
 10
1132.99948
 20
596.455231
 30
0.0
 11
1138.832813
 21
631.455231
 31
0.0
  0
LINE
  5
CA
100
AcDbEntity
  8
便器
  6
CONTINUOUS
 62
     3
100
AcDbLine
 10
1138.832813
 20
911.455231
 30
0.0
 11
1132.99948
 21
946.455231
 31
0.0
  0
LINE
  5
CB
100
AcDbEntity
  8
便器
  6
CONTINUOUS
 62
     3
100
AcDbLine
 10
1132.99948
 20
946.455231
 30
0.0
 11
1127.166147
 21
911.455231
 31
0.0
  0
TEXT
  5
CC
100
AcDbEntity
  8
便器
  6
CONTINUOUS
 62
     2
100
AcDbText
 10
390.940307
 20
521.50473
 30
0.0
 40
40.0
  1
２００
 41
0.833
  7
EXCADSTD
 72
     5
 11
509.940306
 21
521.50473
 31
0.0
100
AcDbText
  0
LINE
  5
CD
100
AcDbEntity
  8
便器
  6
CONTINUOUS
 62
     3
100
AcDbLine
 10
350.440306
 20
518.00473
 30
0.0
 11
550.440306
 21
518.00473
 31
0.0
  0
LINE
  5
CE
100
AcDbEntity
  8
便器
  6
CONTINUOUS
 62
     3
100
AcDbLine
 10
385.440306
 20
523.838064
 30
0.0
 11
350.440306
 21
518.00473
 31
0.0
  0
LINE
  5
CF
100
AcDbEntity
  8
便器
  6
CONTINUOUS
 62
     3
100
AcDbLine
 10
350.440306
 20
518.00473
 30
0.0
 11
385.440306
 21
512.171397
 31
0.0
  0
LINE
  5
D0
100
AcDbEntity
  8
便器
  6
CONTINUOUS
 62
     3
100
AcDbLine
 10
515.440306
 20
512.171397
 30
0.0
 11
550.440306
 21
518.00473
 31
0.0
  0
LINE
  5
D1
100
AcDbEntity
  8
便器
  6
CONTINUOUS
 62
     3
100
AcDbLine
 10
550.440306
 20
518.00473
 30
0.0
 11
515.440306
 21
523.838064
 31
0.0
  0
TEXT
  5
D2
100
AcDbEntity
  8
便器
  6
CONTINUOUS
 62
     2
100
AcDbText
 10
590.440306
 20
521.50473
 30
0.0
 40
40.0
  1
１４０
 41
0.63
  7
EXCADSTD
 72
     5
 11
680.440306
 21
521.50473
 31
0.0
100
AcDbText
  0
LINE
  5
D3
100
AcDbEntity
  8
便器
  6
CONTINUOUS
 62
     3
100
AcDbLine
 10
550.440306
 20
518.00473
 30
0.0
 11
690.440306
 21
518.00473
 31
0.0
  0
LINE
  5
D4
100
AcDbEntity
  8
便器
  6
CONTINUOUS
 62
     3
100
AcDbLine
 10
585.440306
 20
523.838064
 30
0.0
 11
550.440306
 21
518.00473
 31
0.0
  0
LINE
  5
D5
100
AcDbEntity
  8
便器
  6
CONTINUOUS
 62
     3
100
AcDbLine
 10
550.440306
 20
518.00473
 30
0.0
 11
585.440306
 21
512.171397
 31
0.0
  0
LINE
  5
D6
100
AcDbEntity
  8
便器
  6
CONTINUOUS
 62
     3
100
AcDbLine
 10
655.440306
 20
512.171397
 30
0.0
 11
690.440306
 21
518.00473
 31
0.0
  0
LINE
  5
D7
100
AcDbEntity
  8
便器
  6
CONTINUOUS
 62
     3
100
AcDbLine
 10
690.440306
 20
518.00473
 30
0.0
 11
655.440306
 21
523.838064
 31
0.0
  0
TEXT
  5
D8
100
AcDbEntity
  8
便器
  6
CONTINUOUS
 62
     2
100
AcDbText
 10
226.940307
 20
719.455154
 30
0.0
 40
40.0
  1
３６５
 50
90.0
 41
0.833
  7
EXCADSTD
 72
     5
 11
226.940307
 21
838.455154
 31
0.0
100
AcDbText
  0
LINE
  5
D9
100
AcDbEntity
  8
便器
  6
CONTINUOUS
 62
     3
100
AcDbLine
 10
230.440306
 20
596.455231
 30
0.0
 11
230.440306
 21
961.455078
 31
0.0
  0
LINE
  5
DA
100
AcDbEntity
  8
便器
  6
CONTINUOUS
 62
     3
100
AcDbLine
 10
224.606973
 20
631.455231
 30
0.0
 11
230.440306
 21
596.455231
 31
0.0
  0
LINE
  5
DB
100
AcDbEntity
  8
便器
  6
CONTINUOUS
 62
     3
100
AcDbLine
 10
230.440306
 20
596.455231
 30
0.0
 11
236.27364
 21
631.455231
 31
0.0
  0
LINE
  5
DC
100
AcDbEntity
  8
便器
  6
CONTINUOUS
 62
     3
100
AcDbLine
 10
236.27364
 20
926.455078
 30
0.0
 11
230.440306
 21
961.455078
 31
0.0
  0
LINE
  5
DD
100
AcDbEntity
  8
便器
  6
CONTINUOUS
 62
     3
100
AcDbLine
 10
230.440306
 20
961.455078
 30
0.0
 11
224.606973
 21
926.455078
 31
0.0
  0
TEXT
  5
DE
100
AcDbEntity
  8
便器
  6
CONTINUOUS
 62
     2
100
AcDbText
 10
286.941132
 20
2248.34668
 30
0.0
 40
40.0
  1
２８５
 50
90.0
 41
0.833
  7
EXCADSTD
 72
     5
 11
286.941132
 21
2367.34668
 31
0.0
100
AcDbText
  0
LINE
  5
DF
100
AcDbEntity
  8
便器
  6
CONTINUOUS
 62
     3
100
AcDbLine
 10
290.441132
 20
2165.34668
 30
0.0
 11
290.441132
 21
2450.34668
 31
0.0
  0
LINE
  5
E0
100
AcDbEntity
  8
便器
  6
CONTINUOUS
 62
     3
100
AcDbLine
 10
284.607798
 20
2200.34668
 30
0.0
 11
290.441132
 21
2165.34668
 31
0.0
  0
LINE
  5
E1
100
AcDbEntity
  8
便器
  6
CONTINUOUS
 62
     3
100
AcDbLine
 10
290.441132
 20
2165.34668
 30
0.0
 11
296.274465
 21
2200.34668
 31
0.0
  0
LINE
  5
E2
100
AcDbEntity
  8
便器
  6
CONTINUOUS
 62
     3
100
AcDbLine
 10
296.274465
 20
2415.34668
 30
0.0
 11
290.441132
 21
2450.34668
 31
0.0
  0
LINE
  5
E3
100
AcDbEntity
  8
便器
  6
CONTINUOUS
 62
     3
100
AcDbLine
 10
290.441132
 20
2450.34668
 30
0.0
 11
284.607798
 21
2415.34668
 31
0.0
  0
DIMENSION
  5
F0
100
AcDbEntity
  8
便器
  6
CONTINUOUS
 62
     3
100
AcDbDimension
  2
*D14
 10
1641.999972
 20
436.0
 30
0.0
 11
1572.0
 21
459.5
 31
0.0
 70
   160
  1
140
  3
STANDARD
100
AcDbAlignedDimension
 13
1502.000028
 23
559.108166
 33
0.0
 14
1641.999972
 24
559.108166
 34
0.0
100
AcDbRotatedDimension
1001
ACAD
1000
DSTYLE
1002
{
1070
     6
1000
_EX_NORM
1070
     7
1000
_EX_NORM
1070
    41
1040
35.0
1070
    42
1040
7.0
1070
    44
1040
20.0
1070
    73
1070
     0
1070
    74
1070
     0
1070
    75
1070
     0
1070
    76
1070
     0
1070
    77
1070
     1
1070
    78
1070
     0
1070
   140
1040
40.0
1070
   147
1040
3.5
1070
   173
1070
     1
1070
   176
1070
     3
1070
   177
1070
     3
1070
   178
1070
     2
1070
   271
1070
     0
1070
   279
1070
     2
1070
   280
1070
     0
1070
   287
1070
     5
1070
   340
1005
EF
1002
}
  0
ARC
  5
F1
100
AcDbEntity
  8
便器
  6
CONTINUOUS
 62
     6
100
AcDbCircle
 10
679.458925
 20
624.296631
 30
0.0
 40
21.998959
100
AcDbArc
 50
1.658232
 51
46.657364
  0
ARC
  5
F2
100
AcDbEntity
  8
便器
  6
CONTINUOUS
 62
     6
100
AcDbCircle
 10
690.440371
 20
635.934814
 30
0.0
 40
6.000327
100
AcDbArc
 50
46.653809
 51
133.346207
  0
ARC
  5
F3
100
AcDbEntity
  8
便器
  6
CONTINUOUS
 62
     6
100
AcDbCircle
 10
701.421816
 20
624.296631
 30
0.0
 40
22.000227
100
AcDbArc
 50
133.342773
 51
178.341858
  0
ARC
  5
F4
100
AcDbEntity
  8
便器
  6
CONTINUOUS
 62
     6
100
AcDbCircle
 10
673.343813
 20
573.965982
 30
0.0
 40
20.0
100
AcDbArc
 50
328.740234
 51
1.073222
  0
ARC
  5
F5
100
AcDbEntity
  8
便器
  6
CONTINUOUS
 62
     6
100
AcDbCircle
 10
707.536928
 20
573.965982
 30
0.0
 40
20.0
100
AcDbArc
 50
178.926758
 51
211.259766
  0
LINE
  5
F6
100
AcDbEntity
  8
便器
  6
CONTINUOUS
 62
     6
100
AcDbLine
 10
687.540285
 20
574.340586
 30
0.0
 11
687.540285
 21
596.455231
 31
0.0
  0
LINE
  5
F7
100
AcDbEntity
  8
便器
  6
CONTINUOUS
 62
     6
100
AcDbLine
 10
693.340151
 20
574.340586
 30
0.0
 11
693.340151
 21
596.455231
 31
0.0
  0
ARC
  5
F8
100
AcDbEntity
  8
便器
  6
CONTINUOUS
 62
     7
100
AcDbCircle
 10
1092.440306
 20
938.455231
 30
0.0
 40
8.0
100
AcDbArc
 50
0.0
 51
90.0
  0
LINE
  5
F9
100
AcDbEntity
  8
便器
  6
CONTINUOUS
 62
     7
100
AcDbLine
 10
560.372557
 20
946.455231
 30
0.0
 11
1092.440306
 21
946.455231
 31
0.0
  0
LINE
  5
FA
100
AcDbEntity
  8
便器
  6
CONTINUOUS
 62
     7
100
AcDbLine
 10
551.365355
 20
835.455231
 30
0.0
 11
620.440306
 21
835.455231
 31
0.0
  0
LINE
  5
FB
100
AcDbEntity
  8
便器
  6
CONTINUOUS
 62
     7
100
AcDbLine
 10
696.802885
 20
787.788254
 30
0.0
 11
731.964537
 21
715.86705
 31
0.0
  0
LINE
  5
FC
100
AcDbEntity
  8
便器
  6
CONTINUOUS
 62
     7
100
AcDbLine
 10
789.470213
 20
624.933838
 30
0.0
 11
656.690367
 21
624.933838
 31
0.0
  0
ARC
  5
FD
100
AcDbEntity
  8
便器
  6
CONTINUOUS
 62
     7
100
AcDbCircle
 10
575.440306
 20
961.455231
 30
0.0
 40
15.0
100
AcDbArc
 50
180.0
 51
270.0
  0
ARC
  5
FE
100
AcDbEntity
  8
便器
  6
CONTINUOUS
 62
     7
100
AcDbCircle
 10
-238.433717
 20
426.291352
 30
0.0
 40
1200.0
100
AcDbArc
 50
8.152191
 51
14.878143
  0
ARC
  5
FF
100
AcDbEntity
  8
便器
  6
CONTINUOUS
 62
     7
100
AcDbCircle
 10
480.243651
 20
849.267578
 30
0.0
 40
400.0
100
AcDbArc
 50
329.200317
 51
344.363647
  0
ARC
  5
100
100
AcDbEntity
  8
便器
  6
CONTINUOUS
 62
     7
100
AcDbCircle
 10
550.626219
 20
982.242245
 30
0.0
 40
120.0
100
AcDbArc
 50
189.975342
 51
218.513982
  0
ARC
  5
101
100
AcDbEntity
  8
便器
  6
CONTINUOUS
 62
     7
100
AcDbCircle
 10
690.440306
 20
478.346833
 30
0.0
 40
149.625366
100
AcDbArc
 50
78.433746
 51
85.10622
  0
ARC
  5
102
100
AcDbEntity
  8
便器
  6
CONTINUOUS
 62
     7
100
AcDbCircle
 10
690.440306
 20
375.668
 30
0.0
 40
252.304199
100
AcDbArc
 50
92.895471
 51
98.900879
  0
ARC
  5
103
100
AcDbEntity
  8
便器
  6
CONTINUOUS
 62
     7
100
AcDbCircle
 10
745.440306
 20
722.455231
 30
0.0
 40
15.0
100
AcDbArc
 50
206.053589
 51
302.126831
  0
ARC
  5
104
100
AcDbEntity
  8
便器
  6
CONTINUOUS
 62
     7
100
AcDbCircle
 10
620.440306
 20
750.455231
 30
0.0
 40
85.0
100
AcDbArc
 50
26.053619
 51
39.997803
  0
ARC
  5
105
100
AcDbEntity
  8
便器
  6
CONTINUOUS
 62
     7
100
AcDbCircle
 10
718.850554
 20
764.798859
 30
0.0
 40
126.0
100
AcDbArc
 50
307.578505
 51
328.610046
  0
ARC
  5
106
100
AcDbEntity
  8
便器
  6
CONTINUOUS
 62
     7
100
AcDbCircle
 10
928.846525
 20
636.667328
 30
0.0
 40
120.0
100
AcDbArc
 50
127.56958
 51
148.610046
  0
ARC
  5
107
100
AcDbEntity
  8
便器
  6
CONTINUOUS
 62
     7
100
AcDbCircle
 10
718.850554
 20
764.798859
 30
0.0
 40
65.0
100
AcDbArc
 50
302.126831
 51
1.14212
  0
ARC
  5
108
100
AcDbEntity
  8
便器
  6
CONTINUOUS
 62
     7
100
AcDbCircle
 10
551.365355
 20
850.455231
 30
0.0
 40
15.0
100
AcDbArc
 50
202.435059
 51
270.0
  0
ARC
  5
109
100
AcDbEntity
  8
便器
  6
CONTINUOUS
 62
     7
100
AcDbCircle
 10
1646.676024
 20
1302.693726
 30
0.0
 40
1200.0
100
AcDbArc
 50
200.776334
 51
204.106186
  0
ARC
  5
10A
100
AcDbEntity
  8
便器
  6
CONTINUOUS
 62
     7
100
AcDbCircle
 10
441.07318
 20
895.07499
 30
0.0
 40
20.0
100
AcDbArc
 50
16.938522
 51
38.507935
  0
ARC
  5
10B
100
AcDbEntity
  8
便器
  6
CONTINUOUS
 62
     7
100
AcDbCircle
 10
870.367995
 20
1004.948845
 30
0.0
 40
240.0
100
AcDbArc
 50
312.553345
 51
343.177979
  0
ARC
  5
10C
100
AcDbEntity
  8
便器
  6
CONTINUOUS
 62
     7
100
AcDbCircle
 10
930.999937
 20
736.976013
 30
0.0
 40
10.0
100
AcDbArc
 50
122.847412
 51
194.878113
  0
ARC
  5
10D
100
AcDbEntity
  8
便器
  6
CONTINUOUS
 62
     7
100
AcDbCircle
 10
491.65338
 20
1417.471802
 30
0.0
 40
800.0
100
AcDbArc
 50
302.847412
 51
312.553345
  0
ARC
  5
10E
100
AcDbEntity
  8
便器
  6
CONTINUOUS
 62
     7
100
AcDbCircle
 10
789.470213
 20
664.933838
 30
0.0
 40
40.0
100
AcDbArc
 50
270.000122
 51
329.200317
  0
ARC
  5
10F
100
AcDbEntity
  8
便器
  6
CONTINUOUS
 62
     7
100
AcDbCircle
 10
773.839629
 20
765.895157
 30
0.0
 40
10.0
100
AcDbArc
 50
1.14212
 51
64.043793
  0
ARC
  5
110
100
AcDbEntity
  8
便器
  6
CONTINUOUS
 62
     7
100
AcDbCircle
 10
865.753172
 20
954.712272
 30
0.0
 40
200.0
100
AcDbArc
 50
210.074978
 51
244.043823
  0
ARC
  5
111
100
AcDbEntity
  8
便器
  6
CONTINUOUS
 62
     7
100
AcDbCircle
 10
681.615233
 20
841.846062
 30
0.0
 40
18.0
100
AcDbArc
 50
72.466075
 51
210.28949
  0
ARC
  5
112
100
AcDbEntity
  8
便器
  6
CONTINUOUS
 62
     7
100
AcDbCircle
 10
838.770048
 20
933.64128
 30
0.0
 40
200.0
100
AcDbArc
 50
210.28949
 51
219.997803
  0
ARC
  5
113
100
AcDbEntity
  8
便器
  6
CONTINUOUS
 62
     7
100
AcDbCircle
 10
620.440306
 20
750.455231
 30
0.0
 40
85.0
100
AcDbArc
 50
39.997803
 51
90.0
  0
ARC
  5
114
100
AcDbEntity
  8
便器
  6
CONTINUOUS
 62
     7
100
AcDbCircle
 10
1092.440306
 20
937.808072
 30
0.0
 40
8.0
100
AcDbArc
 50
343.177979
 51
2.318085
  0
ARC
  5
115
100
AcDbEntity
  8
便器
  6
CONTINUOUS
 62
     7
100
AcDbCircle
 10
1800.415006
 20
432.236464
 30
0.0
 40
1350.0
100
AcDbArc
 50
166.17797
 51
173.013035
  0
ARC
  5
116
100
AcDbEntity
  8
便器
  6
CONTINUOUS
 62
     7
100
AcDbCircle
 10
1895.132414
 20
1337.920047
 30
0.0
 40
1500.0
100
AcDbArc
 50
196.938522
 51
200.01573
  0
ARC
  5
117
100
AcDbEntity
  8
便器
  6
CONTINUOUS
 62
     7
100
AcDbCircle
 10
372.98254
 20
783.429506
 30
0.0
 40
120.0
100
AcDbArc
 50
346.17797
 51
20.01573
  0
ARC
  5
118
100
AcDbEntity
  8
便器
  6
CONTINUOUS
 62
     7
100
AcDbCircle
 10
533.124049
 20
880.221245
 30
0.0
 40
9.0
100
AcDbArc
 50
78.855407
 51
200.776334
  0
ARC
  5
119
100
AcDbEntity
  8
便器
  6
CONTINUOUS
 62
     7
100
AcDbCircle
 10
684.025397
 20
849.474372
 30
0.0
 40
10.0
100
AcDbArc
 50
30.074978
 51
72.466075
  0
ARC
  5
11A
100
AcDbEntity
  8
便器
  6
CONTINUOUS
 62
     7
100
AcDbCircle
 10
560.440306
 20
961.455078
 30
0.0
 40
15.0
100
AcDbArc
 50
180.0
 51
270.0
  0
ARC
  5
11B
100
AcDbEntity
  8
便器
  6
CONTINUOUS
 62
     7
100
AcDbCircle
 10
792.979369
 20
4185.517731
 30
0.0
 40
3304.108637
100
AcDbArc
 50
266.83302
 51
274.469101
  0
LINE
  5
11C
100
AcDbEntity
  8
便器
  6
CONTINUOUS
 62
     3
100
AcDbLine
 10
690.440306
 20
556.587855
 30
0.0
 11
690.440306
 21
498.00473
 31
0.0
  0
ARC
  5
11D
100
AcDbEntity
  8
便器
  6
CONTINUOUS
 62
     7
100
AcDbCircle
 10
756.051275
 20
716.455231
 30
0.0
 40
65.0
100
AcDbArc
 50
263.950035
 51
307.578505
  0
LINE
  5
11E
100
AcDbEntity
  8
便器
  6
CONTINUOUS
 62
     7
100
AcDbLine
 10
705.440306
 20
656.455231
 30
0.0
 11
749.200555
 21
651.817257
 31
0.0
  0
ARC
  5
11F
100
AcDbEntity
  8
便器
  6
CONTINUOUS
 62
     7
100
AcDbCircle
 10
676.273567
 20
615.84364
 30
0.0
 40
50.0
100
AcDbArc
 50
16.533118
 51
54.314562
  0
ARC
  5
120
100
AcDbEntity
  8
便器
  6
CONTINUOUS
 62
     7
100
AcDbCircle
 10
720.371715
 20
628.933838
 30
0.0
 40
4.0
100
AcDbArc
 50
270.0
 51
16.533118
  0
LINE
  5
121
100
AcDbEntity
  8
便器
  6
CONTINUOUS
 62
     7
100
AcDbLine
 10
462.440306
 20
933.455384
 30
0.0
 11
545.440306
 21
928.455384
 31
0.0
  0
LINE
  5
122
100
AcDbEntity
  8
便器
  6
CONTINUOUS
 62
     6
100
AcDbLine
 10
654.440306
 20
868.455231
 30
0.0
 11
654.440306
 21
854.455231
 31
0.0
  0
LINE
  5
123
100
AcDbEntity
  8
便器
  6
CONTINUOUS
 62
     6
100
AcDbLine
 10
666.440306
 20
868.455231
 30
0.0
 11
666.440306
 21
854.455231
 31
0.0
  0
LINE
  5
124
100
AcDbEntity
  8
便器
  6
CONTINUOUS
 62
     6
100
AcDbLine
 10
654.440306
 20
854.455231
 30
0.0
 11
666.440306
 21
854.455231
 31
0.0
  0
LINE
  5
125
100
AcDbEntity
  8
便器
  6
CONTINUOUS
 62
     6
100
AcDbLine
 10
647.940306
 20
880.455231
 30
0.0
 11
672.940306
 21
880.455231
 31
0.0
  0
LINE
  5
126
100
AcDbEntity
  8
便器
  6
CONTINUOUS
 62
     6
100
AcDbLine
 10
647.940306
 20
878.455231
 30
0.0
 11
672.940306
 21
878.455231
 31
0.0
  0
LINE
  5
127
100
AcDbEntity
  8
便器
  6
CONTINUOUS
 62
     6
100
AcDbLine
 10
672.940306
 20
880.455231
 30
0.0
 11
672.940306
 21
878.455231
 31
0.0
  0
LINE
  5
128
100
AcDbEntity
  8
便器
  6
CONTINUOUS
 62
     6
100
AcDbLine
 10
647.940306
 20
880.455231
 30
0.0
 11
647.940306
 21
878.455231
 31
0.0
  0
ARC
  5
129
100
AcDbEntity
  8
便器
  6
CONTINUOUS
 62
     6
100
AcDbCircle
 10
653.9154
 20
873.237407
 30
0.0
 40
4.809773
100
AcDbArc
 50
208.325969
 51
331.674031
  0
ARC
  5
12A
100
AcDbEntity
  8
便器
  6
CONTINUOUS
 62
     6
100
AcDbCircle
 10
666.965213
 20
873.235243
 30
0.0
 40
4.808747
100
AcDbArc
 50
208.303278
 51
331.696722
  0
LINE
  5
12B
100
AcDbEntity
  8
便器
  6
CONTINUOUS
 62
     6
100
AcDbLine
 10
649.440306
 20
870.955231
 30
0.0
 11
651.940306
 21
868.455231
 31
0.0
  0
LINE
  5
12C
100
AcDbEntity
  8
便器
  6
CONTINUOUS
 62
     6
100
AcDbLine
 10
668.940306
 20
868.455231
 30
0.0
 11
671.440306
 21
870.955231
 31
0.0
  0
LINE
  5
12D
100
AcDbEntity
  8
便器
  6
CONTINUOUS
 62
     6
100
AcDbLine
 10
651.940306
 20
868.455231
 30
0.0
 11
668.940306
 21
868.455231
 31
0.0
  0
LINE
  5
12E
100
AcDbEntity
  8
便器
  6
CONTINUOUS
 62
     6
100
AcDbLine
 10
649.440306
 20
878.455231
 30
0.0
 11
649.440306
 21
870.955231
 31
0.0
  0
LINE
  5
12F
100
AcDbEntity
  8
便器
  6
CONTINUOUS
 62
     6
100
AcDbLine
 10
658.149262
 20
878.455231
 30
0.0
 11
658.149262
 21
870.955231
 31
0.0
  0
LINE
  5
130
100
AcDbEntity
  8
便器
  6
CONTINUOUS
 62
     6
100
AcDbLine
 10
662.731351
 20
878.455231
 30
0.0
 11
662.731351
 21
870.955231
 31
0.0
  0
LINE
  5
131
100
AcDbEntity
  8
便器
  6
CONTINUOUS
 62
     6
100
AcDbLine
 10
671.440306
 20
878.455231
 30
0.0
 11
671.440306
 21
870.955231
 31
0.0
  0
LINE
  5
132
100
AcDbEntity
  8
便器
  6
CONTINUOUS
 62
     6
100
AcDbLine
 10
658.149262
 20
870.955231
 30
0.0
 11
662.731351
 21
870.955231
 31
0.0
  0
LINE
  5
133
100
AcDbEntity
  8
便器
  6
CONTINUOUS
 62
     6
100
AcDbLine
 10
503.764306
 20
899.955384
 30
0.0
 11
504.432306
 21
900.623384
 31
0.0
  0
LINE
  5
134
100
AcDbEntity
  8
便器
  6
CONTINUOUS
 62
     6
100
AcDbLine
 10
497.116306
 20
899.955384
 30
0.0
 11
496.442306
 21
900.629384
 31
0.0
  0
LINE
  5
135
100
AcDbEntity
  8
便器
  6
CONTINUOUS
 62
     6
100
AcDbLine
 10
503.764306
 20
899.955384
 30
0.0
 11
497.116306
 21
899.955384
 31
0.0
  0
LINE
  5
136
100
AcDbEntity
  8
便器
  6
CONTINUOUS
 62
     6
100
AcDbLine
 10
515.440306
 20
930.262613
 30
0.0
 11
515.440306
 21
929.555231
 31
0.0
  0
LINE
  5
137
100
AcDbEntity
  8
便器
  6
CONTINUOUS
 62
     6
100
AcDbLine
 10
485.440306
 20
931.055231
 30
0.0
 11
485.440306
 21
929.555231
 31
0.0
  0
LINE
  5
138
100
AcDbEntity
  8
便器
  6
CONTINUOUS
 62
     6
100
AcDbLine
 10
492.934306
 20
923.055231
 30
0.0
 11
492.934306
 21
929.555231
 31
0.0
  0
LINE
  5
139
100
AcDbEntity
  8
便器
  6
CONTINUOUS
 62
     6
100
AcDbLine
 10
507.945306
 20
923.055231
 30
0.0
 11
507.945306
 21
929.555231
 31
0.0
  0
LINE
  5
13A
100
AcDbEntity
  8
便器
  6
CONTINUOUS
 62
     6
100
AcDbLine
 10
507.945306
 20
923.055231
 30
0.0
 11
492.934306
 21
923.055231
 31
0.0
  0
LINE
  5
13B
100
AcDbEntity
  8
便器
  6
CONTINUOUS
 62
     6
100
AcDbLine
 10
485.440306
 20
929.555231
 30
0.0
 11
515.440306
 21
929.555231
 31
0.0
  0
LINE
  5
13C
100
AcDbEntity
  8
便器
  6
CONTINUOUS
 62
     6
100
AcDbLine
 10
496.440306
 20
900.629384
 30
0.0
 11
496.440306
 21
923.055231
 31
0.0
  0
LINE
  5
13D
100
AcDbEntity
  8
便器
  6
CONTINUOUS
 62
     6
100
AcDbLine
 10
497.116306
 20
899.955384
 30
0.0
 11
497.116306
 21
923.055231
 31
0.0
  0
LINE
  5
13E
100
AcDbEntity
  8
便器
  6
CONTINUOUS
 62
     6
100
AcDbLine
 10
503.764306
 20
923.055231
 30
0.0
 11
503.764306
 21
899.955384
 31
0.0
  0
LINE
  5
13F
100
AcDbEntity
  8
便器
  6
CONTINUOUS
 62
     6
100
AcDbLine
 10
504.440306
 20
923.055231
 30
0.0
 11
504.440306
 21
900.623384
 31
0.0
  0
LINE
  5
140
100
AcDbEntity
  8
便器
  6
CONTINUOUS
 62
     6
100
AcDbLine
 10
496.687306
 20
929.555231
 30
0.0
 11
496.687306
 21
923.055231
 31
0.0
  0
LINE
  5
141
100
AcDbEntity
  8
便器
  6
CONTINUOUS
 62
     6
100
AcDbLine
 10
504.193306
 20
929.555231
 30
0.0
 11
504.193306
 21
923.055231
 31
0.0
  0
LINE
  5
142
100
AcDbEntity
  8
便器
  6
CONTINUOUS
 62
     6
100
AcDbLine
 10
496.440306
 20
900.629384
 30
0.0
 11
504.440306
 21
900.629384
 31
0.0
  0
LINE
  5
143
100
AcDbEntity
  8
便器
  6
CONTINUOUS
 62
     6
100
AcDbLine
 10
588.190306
 20
558.455231
 30
0.0
 11
512.690306
 21
558.455231
 31
0.0
  0
LINE
  5
144
100
AcDbEntity
  8
便器
  6
CONTINUOUS
 62
     6
100
AcDbLine
 10
588.190306
 20
558.455231
 30
0.0
 11
588.9403
 21
596.455231
 31
0.0
  0
LINE
  5
145
100
AcDbEntity
  8
便器
  6
EXLTYPE2
 62
     6
100
AcDbLine
 10
486.790281
 20
641.455246
 30
0.0
 11
614.090331
 21
641.455246
 31
0.0
  0
LINE
  5
146
100
AcDbEntity
  8
便器
  6
EXLTYPE2
 62
     6
100
AcDbLine
 10
486.790281
 20
641.455246
 30
0.0
 11
486.790281
 21
622.955246
 31
0.0
  0
LINE
  5
147
100
AcDbEntity
  8
便器
  6
EXLTYPE2
 62
     6
100
AcDbLine
 10
488.790281
 20
620.955246
 30
0.0
 11
612.090331
 21
620.955246
 31
0.0
  0
LINE
  5
148
100
AcDbEntity
  8
便器
  6
EXLTYPE2
 62
     6
100
AcDbLine
 10
490.140287
 20
596.455231
 30
0.0
 11
490.140287
 21
620.955246
 31
0.0
  0
ARC
  5
149
100
AcDbEntity
  8
便器
  6
EXLTYPE2
 62
     6
100
AcDbCircle
 10
488.790281
 20
622.955246
 30
0.0
 40
2.0
100
AcDbArc
 50
180.0
 51
270.0
  0
LINE
  5
14A
100
AcDbEntity
  8
便器
  6
CONTINUOUS
 62
     7
100
AcDbLine
 10
685.958254
 20
859.285797
 30
0.0
 11
668.402592
 21
862.744273
 31
0.0
  0
LINE
  5
14B
100
AcDbEntity
  8
便器
  6
CONTINUOUS
 62
     7
100
AcDbLine
 10
652.478021
 20
865.881422
 30
0.0
 11
534.863619
 21
889.051528
 31
0.0
  0
LINE
  5
14C
100
AcDbEntity
  8
便器
  6
EXLTYPE2
 62
     6
100
AcDbLine
 10
610.740325
 20
596.455231
 30
0.0
 11
610.740325
 21
620.955246
 31
0.0
  0
LINE
  5
14D
100
AcDbEntity
  8
便器
  6
EXLTYPE2
 62
     6
100
AcDbLine
 10
614.090331
 20
641.455246
 30
0.0
 11
614.090331
 21
622.955246
 31
0.0
  0
ARC
  5
14E
100
AcDbEntity
  8
便器
  6
EXLTYPE2
 62
     6
100
AcDbCircle
 10
612.090331
 20
622.955246
 30
0.0
 40
2.0
100
AcDbArc
 50
270.0
 51
0.0
  0
LINE
  5
14F
100
AcDbEntity
  8
便器
  6
CONTINUOUS
 62
     6
100
AcDbLine
 10
512.690306
 20
558.455231
 30
0.0
 11
511.940313
 21
596.455231
 31
0.0
  0
LINE
  5
150
100
AcDbEntity
  8
便器
  6
CONTINUOUS
 62
     6
100
AcDbLine
 10
505.940306
 20
566.30473
 30
0.0
 11
505.940306
 21
596.455231
 31
0.0
  0
LINE
  5
151
100
AcDbEntity
  8
便器
  6
CONTINUOUS
 62
     6
100
AcDbLine
 10
505.940306
 20
549.30473
 30
0.0
 11
505.940306
 21
556.30473
 31
0.0
  0
LINE
  5
152
100
AcDbEntity
  8
便器
  6
CONTINUOUS
 62
     6
100
AcDbLine
 10
505.940306
 20
498.00473
 30
0.0
 11
505.940306
 21
522.30473
 31
0.0
  0
LINE
  5
153
100
AcDbEntity
  8
便器
  6
CONTINUOUS
 62
     6
100
AcDbLine
 10
505.940306
 20
532.30473
 30
0.0
 11
505.940306
 21
539.30473
 31
0.0
  0
LINE
  5
154
100
AcDbEntity
  8
便器
  6
CONTINUOUS
 62
     6
100
AcDbLine
 10
594.940306
 20
566.30473
 30
0.0
 11
594.940306
 21
596.455231
 31
0.0
  0
LINE
  5
155
100
AcDbEntity
  8
便器
  6
CONTINUOUS
 62
     6
100
AcDbLine
 10
594.940306
 20
549.30473
 30
0.0
 11
594.940306
 21
556.30473
 31
0.0
  0
LINE
  5
156
100
AcDbEntity
  8
便器
  6
CONTINUOUS
 62
     6
100
AcDbLine
 10
594.940306
 20
498.00473
 30
0.0
 11
594.940306
 21
522.30473
 31
0.0
  0
LINE
  5
157
100
AcDbEntity
  8
便器
  6
CONTINUOUS
 62
     6
100
AcDbLine
 10
594.940306
 20
532.30473
 30
0.0
 11
594.940306
 21
539.30473
 31
0.0
  0
LINE
  5
158
100
AcDbEntity
  8
便器
  6
CONTINUOUS
 62
     6
100
AcDbLine
 10
550.440306
 20
574.455231
 30
0.0
 11
550.440306
 21
667.00473
 31
0.0
  0
LINE
  5
159
100
AcDbEntity
  8
便器
  6
CONTINUOUS
 62
     6
100
AcDbLine
 10
550.440306
 20
478.00473
 30
0.0
 11
550.440306
 21
542.455231
 31
0.0
  0
LINE
  5
15A
100
AcDbEntity
  8
便器
  6
CONTINUOUS
 62
     6
100
AcDbLine
 10
550.440306
 20
554.455231
 30
0.0
 11
550.440306
 21
562.455231
 31
0.0
  0
LINE
  5
15B
100
AcDbEntity
  8
便器
  6
CONTINUOUS
 62
     3
100
AcDbLine
 10
386.440352
 20
961.455078
 30
0.0
 11
210.440306
 21
961.455078
 31
0.0
  0
LINE
  5
15C
100
AcDbEntity
  8
便器
  6
CONTINUOUS
 62
     3
100
AcDbLine
 10
1108.440373
 20
946.455231
 30
0.0
 11
1152.99948
 21
946.455231
 31
0.0
  0
ARC
  5
15D
100
AcDbEntity
  8
便器
  6
EXLTYPE2
 62
     2
100
AcDbCircle
 10
889.441132
 20
2450.34668
 30
0.0
 40
60.0
100
AcDbArc
 50
328.731384
 51
29.434662
  0
ARC
  5
15E
100
AcDbEntity
  8
便器
  6
EXLTYPE2
 62
     2
100
AcDbCircle
 10
812.514252
 20
2497.06128
 30
0.0
 40
150.0
100
AcDbArc
 50
281.201782
 51
328.731384
  0
ARC
  5
15F
100
AcDbEntity
  8
便器
  6
EXLTYPE2
 62
     2
100
AcDbCircle
 10
812.514252
 20
2403.632096
 30
0.0
 40
150.0
100
AcDbArc
 50
31.268616
 51
78.798218
  0
ARC
  5
160
100
AcDbEntity
  8
便器
  6
EXLTYPE2
 62
     2
100
AcDbCircle
 10
829.284241
 20
2496.707489
 30
0.0
 40
400.0
100
AcDbArc
 50
189.415553
 51
207.312555
  0
ARC
  5
161
100
AcDbEntity
  8
便器
  6
EXLTYPE2
 62
     2
100
AcDbCircle
 10
829.284241
 20
2403.985871
 30
0.0
 40
400.0
100
AcDbArc
 50
152.687439
 51
170.584447
  0
CIRCLE
  5
162
100
AcDbEntity
  8
便器
  6
EXLTYPE2
 62
     2
100
AcDbCircle
 10
690.441132
 20
2380.34668
 30
0.0
 40
5.5
  0
CIRCLE
  5
163
100
AcDbEntity
  8
便器
  6
EXLTYPE2
 62
     2
100
AcDbCircle
 10
690.441132
 20
2520.34668
 30
0.0
 40
5.5
  0
ARC
  5
164
100
AcDbEntity
  8
便器
  6
EXLTYPE2
 62
     2
100
AcDbCircle
 10
667.534638
 20
2422.484375
 30
0.0
 40
210.0
100
AcDbArc
 50
154.892395
 51
167.248473
  0
ARC
  5
165
100
AcDbEntity
  8
便器
  6
EXLTYPE2
 62
     2
100
AcDbCircle
 10
667.534638
 20
2478.208985
 30
0.0
 40
210.0
100
AcDbArc
 50
192.751527
 51
204.500732
  0
ARC
  5
166
100
AcDbEntity
  8
便器
  6
EXLTYPE2
 62
     2
100
AcDbCircle
 10
503.742524
 20
2497.131226
 30
0.0
 40
30.0
100
AcDbArc
 50
99.236023
 51
155.499268
  0
ARC
  5
167
100
AcDbEntity
  8
便器
  6
EXLTYPE2
 62
     2
100
AcDbCircle
 10
503.742524
 20
2403.562134
 30
0.0
 40
30.0
100
AcDbArc
 50
204.500732
 51
260.763977
  0
LINE
  5
168
100
AcDbEntity
  8
便器
  6
EXLTYPE2
 62
     2
100
AcDbLine
 10
535.52829
 20
2302.34668
 30
0.0
 11
491.647919
 21
2302.34668
 31
0.0
  0
LINE
  5
169
100
AcDbEntity
  8
便器
  6
EXLTYPE2
 62
     2
100
AcDbLine
 10
532.815522
 20
2598.34668
 30
0.0
 11
491.647919
 21
2598.34668
 31
0.0
  0
LINE
  5
16A
100
AcDbEntity
  8
便器
  6
EXLTYPE2
 62
     2
100
AcDbLine
 10
774.395168
 20
2555.34668
 30
0.0
 11
795.030396
 21
2555.34668
 31
0.0
  0
ARC
  5
16B
100
AcDbEntity
  8
便器
  6
EXLTYPE2
 62
     2
100
AcDbCircle
 10
836.445465
 20
2822.84668
 30
0.0
 40
550.0
100
AcDbArc
 50
265.865173
 51
279.551941
  0
ARC
  5
16C
100
AcDbEntity
  8
便器
  6
EXLTYPE2
 62
     2
100
AcDbCircle
 10
886.227906
 20
2527.006104
 30
0.0
 40
250.0
100
AcDbArc
 50
279.551941
 51
309.950989
  0
ARC
  5
16D
100
AcDbEntity
  8
便器
  6
EXLTYPE2
 62
     2
100
AcDbCircle
 10
795.030396
 20
2585.34668
 30
0.0
 40
240.0
100
AcDbArc
 50
265.427051
 51
281.201782
  0
ARC
  5
16E
100
AcDbEntity
  8
便器
  6
EXLTYPE2
 62
     2
100
AcDbCircle
 10
836.445465
 20
2077.84668
 30
0.0
 40
550.0
100
AcDbArc
 50
80.448059
 51
94.134827
  0
ARC
  5
16F
100
AcDbEntity
  8
便器
  6
EXLTYPE2
 62
     2
100
AcDbCircle
 10
886.227906
 20
2373.687256
 30
0.0
 40
250.0
100
AcDbArc
 50
50.049011
 51
80.448059
  0
ARC
  5
170
100
AcDbEntity
  8
便器
  6
EXLTYPE2
 62
     2
100
AcDbCircle
 10
795.030396
 20
2315.34668
 30
0.0
 40
240.0
100
AcDbArc
 50
78.798218
 51
90.0
  0
ARC
  5
171
100
AcDbEntity
  8
便器
  6
EXLTYPE2
 62
     2
100
AcDbCircle
 10
950.441132
 20
2450.34668
 30
0.0
 40
150.0
100
AcDbArc
 50
309.950989
 51
50.04895
  0
ARC
  5
172
100
AcDbEntity
  8
便器
  6
EXLTYPE2
 62
     2
100
AcDbCircle
 10
884.130066
 20
4742.83667
 30
0.0
 40
2400.0
100
AcDbArc
 50
260.764038
 51
267.358992
  0
ARC
  5
173
100
AcDbEntity
  8
便器
  6
EXLTYPE2
 62
     2
100
AcDbCircle
 10
532.815522
 20
1902.34668
 30
0.0
 40
400.0
100
AcDbArc
 50
82.238342
 51
90.0
  0
ARC
  5
174
100
AcDbEntity
  8
便器
  6
CONTINUOUS
 62
     7
100
AcDbCircle
 10
969.836701
 20
4668.031494
 30
0.0
 40
2400.0
100
AcDbArc
 50
260.817439
 51
265.865173
  0
ARC
  5
175
100
AcDbEntity
  8
便器
  6
EXLTYPE2
 62
     2
100
AcDbCircle
 10
884.130066
 20
157.85669
 30
0.0
 40
2400.0
100
AcDbArc
 50
92.737075
 51
99.235462
  0
ARC
  5
176
100
AcDbEntity
  8
便器
  6
EXLTYPE2
 62
     2
100
AcDbCircle
 10
532.815522
 20
2998.34668
 30
0.0
 40
400.0
100
AcDbArc
 50
270.0
 51
277.761631
  0
ARC
  5
177
100
AcDbEntity
  8
便器
  6
EXLTYPE2
 62
     2
100
AcDbCircle
 10
491.647919
 20
2578.34668
 30
0.0
 40
20.0
100
AcDbArc
 50
90.000519
 51
160.315491
  0
ARC
  5
178
100
AcDbEntity
  8
便器
  6
CONTINUOUS
 62
     7
100
AcDbCircle
 10
969.836701
 20
232.661866
 30
0.0
 40
2400.0
100
AcDbArc
 50
94.134827
 51
99.182565
  0
ARC
  5
179
100
AcDbEntity
  8
便器
  6
EXLTYPE2
 62
     2
100
AcDbCircle
 10
491.647919
 20
2322.34668
 30
0.0
 40
20.0
100
AcDbArc
 50
207.312555
 51
269.999512
  0
CIRCLE
  5
17A
100
AcDbEntity
  8
便器
  6
EXLTYPE2
 62
     2
100
AcDbCircle
 10
550.441132
 20
2450.34668
 30
0.0
 40
40.0
  0
POLYLINE
  5
17B
100
AcDbEntity
  8
便器
  6
CONTINUOUS
 62
     3
100
AcDb2dPolyline
 66
     1
 10
0.0
 20
0.0
 30
0.0
 70
   128
  0
VERTEX
  5
17C
100
AcDbEntity
  8
便器
  6
CONTINUOUS
 62
     3
100
AcDbVertex
100
AcDb2dVertex
 10
1171.38339
 20
2306.654053
 30
0.0
  0
VERTEX
  5
17D
100
AcDbEntity
  8
便器
  6
CONTINUOUS
 62
     3
100
AcDbVertex
100
AcDb2dVertex
 10
1180.442076
 20
2272.84668
 30
0.0
  0
VERTEX
  5
17E
100
AcDbEntity
  8
便器
  6
CONTINUOUS
 62
     3
100
AcDbVertex
100
AcDb2dVertex
 10
1189.500761
 20
2306.654053
 30
0.0
  0
SEQEND
  5
17F
100
AcDbEntity
  8
便器
  6
CONTINUOUS
 62
     3
  0
POLYLINE
  5
180
100
AcDbEntity
  8
便器
  6
CONTINUOUS
 62
     3
100
AcDb2dPolyline
 66
     1
 10
0.0
 20
0.0
 30
0.0
 70
   128
  0
VERTEX
  5
181
100
AcDbEntity
  8
便器
  6
CONTINUOUS
 62
     3
100
AcDbVertex
100
AcDb2dVertex
 10
1189.500761
 20
2594.039612
 30
0.0
  0
VERTEX
  5
182
100
AcDbEntity
  8
便器
  6
CONTINUOUS
 62
     3
100
AcDbVertex
100
AcDb2dVertex
 10
1180.442076
 20
2627.845764
 30
0.0
  0
VERTEX
  5
183
100
AcDbEntity
  8
便器
  6
CONTINUOUS
 62
     3
100
AcDbVertex
100
AcDb2dVertex
 10
1171.38339
 20
2594.039612
 30
0.0
  0
SEQEND
  5
184
100
AcDbEntity
  8
便器
  6
CONTINUOUS
 62
     3
  0
LINE
  5
185
100
AcDbEntity
  8
便器
  6
CONTINUOUS
 62
     3
100
AcDbLine
 10
1180.442076
 20
2272.84668
 30
0.0
 11
1180.442076
 21
2627.845764
 31
0.0
  0
TEXT
  5
186
100
AcDbEntity
  8
便器
  6
CONTINUOUS
 62
     2
100
AcDbText
 10
1175.442228
 20
2392.346649
 30
0.0
 40
40.0
  1
３５５
 50
90.0
 41
0.833
  7
EXCADSTD
 72
     5
 11
1175.442228
 21
2511.346649
 31
0.0
100
AcDbText
  0
LINE
  5
187
100
AcDbEntity
  8
便器
  6
CONTINUOUS
 62
     3
100
AcDbLine
 10
660.441132
 20
2546.347656
 30
0.0
 11
660.441132
 21
2494.345703
 31
0.0
  0
LINE
  5
188
100
AcDbEntity
  8
便器
  6
CONTINUOUS
 62
     3
100
AcDbLine
 10
660.441132
 20
2406.347656
 30
0.0
 11
660.441132
 21
2177.999084
 31
0.0
  0
LINE
  5
189
100
AcDbEntity
  8
便器
  6
CONTINUOUS
 62
     3
100
AcDbLine
 10
1200.442076
 20
2627.845764
 30
0.0
 11
884.763794
 21
2627.845764
 31
0.0
  0
LINE
  5
18A
100
AcDbEntity
  8
便器
  6
CONTINUOUS
 62
     3
100
AcDbLine
 10
1200.442076
 20
2272.84668
 30
0.0
 11
884.763641
 21
2272.84668
 31
0.0
  0
LINE
  5
18B
100
AcDbEntity
  8
便器
  6
EXLTYPE3
 62
     1
100
AcDbLine
 10
1120.442076
 20
2450.34668
 30
0.0
 11
350.441132
 21
2450.34668
 31
0.0
  0
LINE
  5
18C
100
AcDbEntity
  8
便器
  6
CONTINUOUS
 62
     3
100
AcDbLine
 10
1100.442076
 20
2450.34668
 30
0.0
 11
1100.442076
 21
2057.999084
 31
0.0
  0
LINE
  5
18D
100
AcDbEntity
  8
便器
  6
CONTINUOUS
 62
     3
100
AcDbLine
 10
634.440155
 20
2520.34668
 30
0.0
 11
686.442108
 21
2520.34668
 31
0.0
  0
LINE
  5
18E
100
AcDbEntity
  8
便器
  6
CONTINUOUS
 62
     3
100
AcDbLine
 10
634.440155
 20
2380.34668
 30
0.0
 11
686.442108
 21
2380.34668
 31
0.0
  0
ARC
  5
18F
100
AcDbEntity
  8
便器
  6
CONTINUOUS
 62
     6
100
AcDbCircle
 10
1484.90347
 20
569.486399
 30
0.0
 40
20.0
100
AcDbArc
 50
328.740234
 51
1.073222
  0
ARC
  5
190
100
AcDbEntity
  8
便器
  6
CONTINUOUS
 62
     6
100
AcDbCircle
 10
1519.096586
 20
569.486399
 30
0.0
 40
20.0
100
AcDbArc
 50
178.926758
 51
211.259766
  0
LINE
  5
191
100
AcDbEntity
  8
便器
  6
CONTINUOUS
 62
     6
100
AcDbLine
 10
1499.099942
 20
569.861002
 30
0.0
 11
1499.099942
 21
595.507965
 31
0.0
  0
LINE
  5
192
100
AcDbEntity
  8
便器
  6
CONTINUOUS
 62
     6
100
AcDbLine
 10
1504.899808
 20
569.861002
 30
0.0
 11
1504.899808
 21
595.507965
 31
0.0
  0
ARC
  5
193
100
AcDbEntity
  8
便器
  6
CONTINUOUS
 62
     6
100
AcDbCircle
 10
1624.903414
 20
569.486399
 30
0.0
 40
20.0
100
AcDbArc
 50
328.740234
 51
1.073222
  0
ARC
  5
194
100
AcDbEntity
  8
便器
  6
CONTINUOUS
 62
     6
100
AcDbCircle
 10
1659.09653
 20
569.486399
 30
0.0
 40
20.0
100
AcDbArc
 50
178.926758
 51
211.259766
  0
LINE
  5
195
100
AcDbEntity
  8
便器
  6
CONTINUOUS
 62
     6
100
AcDbLine
 10
1639.099887
 20
569.861002
 30
0.0
 11
1639.099887
 21
595.507965
 31
0.0
  0
LINE
  5
196
100
AcDbEntity
  8
便器
  6
CONTINUOUS
 62
     6
100
AcDbLine
 10
1644.899752
 20
569.861002
 30
0.0
 11
1644.899752
 21
595.507965
 31
0.0
  0
ARC
  5
197
100
AcDbEntity
  8
便器
  6
CONTINUOUS
 62
     7
100
AcDbCircle
 10
1402.5
 20
938.455231
 30
0.0
 40
8.0
100
AcDbArc
 50
90.0
 51
188.130009
  0
LINE
  5
198
100
AcDbEntity
  8
便器
  6
CONTINUOUS
 62
     7
100
AcDbLine
 10
1741.5
 20
946.455231
 30
0.0
 11
1402.5
 21
946.455231
 31
0.0
  0
LINE
  5
199
100
AcDbEntity
  8
便器
  6
CONTINUOUS
 62
     7
100
AcDbLine
 10
1411.300171
 20
885.97522
 30
0.0
 11
1423.535828
 21
884.139862
 31
0.0
  0
ARC
  5
19A
100
AcDbEntity
  8
便器
  6
CONTINUOUS
 62
     7
100
AcDbCircle
 10
1632.650452
 20
967.044159
 30
0.0
 40
240.0
100
AcDbArc
 50
187.08092
 51
198.380981
  0
ARC
  5
19B
100
AcDbEntity
  8
便器
  6
CONTINUOUS
 62
     7
100
AcDbCircle
 10
1412.486877
 20
893.886689
 30
0.0
 40
8.0
100
AcDbArc
 50
198.38092
 51
261.46936
  0
ARC
  5
19C
100
AcDbEntity
  8
便器
  6
CONTINUOUS
 62
     7
100
AcDbCircle
 10
1422.794067
 20
879.195191
 30
0.0
 40
5.0
100
AcDbArc
 50
20.142395
 51
81.469269
  0
ARC
  5
19D
100
AcDbEntity
  8
便器
  6
CONTINUOUS
 62
     7
100
AcDbCircle
 10
1527.502397
 20
887.016041
 30
0.0
 40
100.0
100
AcDbArc
 50
184.271591
 51
242.450486
  0
ARC
  5
19E
100
AcDbEntity
  8
便器
  6
CONTINUOUS
 62
     7
100
AcDbCircle
 10
1453.5
 20
745.158206
 30
0.0
 40
60.0
100
AcDbArc
 50
15.363108
 51
62.450486
  0
ARC
  5
19F
100
AcDbEntity
  8
便器
  6
CONTINUOUS
 62
     7
100
AcDbCircle
 10
1895.986813
 20
523.960776
 30
0.0
 40
440.0
100
AcDbArc
 50
151.844447
 51
170.5167
  0
ARC
  5
1A0
100
AcDbEntity
  8
便器
  6
CONTINUOUS
 62
     7
100
AcDbCircle
 10
1472.785324
 20
750.456912
 30
0.0
 40
40.0
100
AcDbArc
 50
331.844447
 51
15.363108
  0
ARC
  5
1A1
100
AcDbEntity
  8
便器
  6
CONTINUOUS
 62
     7
100
AcDbCircle
 10
1741.5
 20
938.455231
 30
0.0
 40
8.0
100
AcDbArc
 50
351.869991
 51
90.0
  0
LINE
  5
1A2
100
AcDbEntity
  8
便器
  6
CONTINUOUS
 62
     7
100
AcDbLine
 10
1732.699829
 20
885.97522
 30
0.0
 11
1720.464172
 21
884.139862
 31
0.0
  0
ARC
  5
1A3
100
AcDbEntity
  8
便器
  6
CONTINUOUS
 62
     7
100
AcDbCircle
 10
1511.349548
 20
967.044159
 30
0.0
 40
240.0
100
AcDbArc
 50
341.619019
 51
352.91908
  0
ARC
  5
1A4
100
AcDbEntity
  8
便器
  6
CONTINUOUS
 62
     7
100
AcDbCircle
 10
1731.513123
 20
893.886689
 30
0.0
 40
8.0
100
AcDbArc
 50
278.53064
 51
341.61908
  0
ARC
  5
1A5
100
AcDbEntity
  8
便器
  6
CONTINUOUS
 62
     7
100
AcDbCircle
 10
1721.205933
 20
879.195191
 30
0.0
 40
5.0
100
AcDbArc
 50
98.530731
 51
159.857605
  0
ARC
  5
1A6
100
AcDbEntity
  8
便器
  6
CONTINUOUS
 62
     7
100
AcDbCircle
 10
1616.497603
 20
887.016041
 30
0.0
 40
100.0
100
AcDbArc
 50
297.549514
 51
355.728409
  0
ARC
  5
1A7
100
AcDbEntity
  8
便器
  6
CONTINUOUS
 62
     7
100
AcDbCircle
 10
1690.5
 20
745.158206
 30
0.0
 40
60.0
100
AcDbArc
 50
117.549514
 51
164.636892
  0
ARC
  5
1A8
100
AcDbEntity
  8
便器
  6
CONTINUOUS
 62
     7
100
AcDbCircle
 10
1671.214676
 20
750.456912
 30
0.0
 40
40.0
100
AcDbArc
 50
164.636892
 51
208.155553
  0
ARC
  5
1A9
100
AcDbEntity
  8
便器
  6
CONTINUOUS
 62
     7
100
AcDbCircle
 10
1248.013187
 20
523.960776
 30
0.0
 40
440.0
100
AcDbArc
 50
9.4833
 51
28.155553
  0
ARC
  5
1AA
100
AcDbEntity
  8
便器
  6
CONTINUOUS
 62
     7
100
AcDbCircle
 10
1394.364624
 20
1286.511078
 30
0.0
 40
400.0
100
AcDbArc
 50
272.512308
 51
282.802368
  0
ARC
  5
1AB
100
AcDbEntity
  8
便器
  6
CONTINUOUS
 62
     7
100
AcDbCircle
 10
1366.865906
 20
1279.225006
 30
0.0
 40
400.0
100
AcDbArc
 50
278.573914
 51
286.878052
  0
ARC
  5
1AC
100
AcDbEntity
  8
便器
  6
CONTINUOUS
 62
     7
100
AcDbCircle
 10
1749.635376
 20
1286.511078
 30
0.0
 40
400.0
100
AcDbArc
 50
257.197632
 51
267.487692
  0
ARC
  5
1AD
100
AcDbEntity
  8
便器
  6
CONTINUOUS
 62
     7
100
AcDbCircle
 10
1777.134094
 20
1279.225006
 30
0.0
 40
400.0
100
AcDbArc
 50
253.121948
 51
261.426086
  0
LINE
  5
1AE
100
AcDbEntity
  8
便器
  6
CONTINUOUS
 62
     6
100
AcDbLine
 10
1609.75
 20
558.455231
 30
0.0
 11
1534.25
 21
558.455231
 31
0.0
  0
LINE
  5
1AF
100
AcDbEntity
  8
便器
  6
CONTINUOUS
 62
     6
100
AcDbLine
 10
1609.75
 20
558.455231
 30
0.0
 11
1610.499994
 21
596.455231
 31
0.0
  0
LINE
  5
1B0
100
AcDbEntity
  8
便器
  6
EXLTYPE2
 62
     6
100
AcDbLine
 10
1508.349975
 20
641.455246
 30
0.0
 11
1635.650025
 21
641.455246
 31
0.0
  0
LINE
  5
1B1
100
AcDbEntity
  8
便器
  6
EXLTYPE2
 62
     6
100
AcDbLine
 10
1508.349975
 20
641.455246
 30
0.0
 11
1508.349975
 21
622.955246
 31
0.0
  0
LINE
  5
1B2
100
AcDbEntity
  8
便器
  6
EXLTYPE2
 62
     6
100
AcDbLine
 10
1510.349975
 20
620.955246
 30
0.0
 11
1633.650025
 21
620.955246
 31
0.0
  0
LINE
  5
1B3
100
AcDbEntity
  8
便器
  6
EXLTYPE2
 62
     6
100
AcDbLine
 10
1511.699981
 20
596.455231
 30
0.0
 11
1511.699981
 21
620.955246
 31
0.0
  0
ARC
  5
1B4
100
AcDbEntity
  8
便器
  6
EXLTYPE2
 62
     6
100
AcDbCircle
 10
1510.349975
 20
622.955246
 30
0.0
 40
2.0
100
AcDbArc
 50
180.0
 51
270.0
  0
LINE
  5
1B5
100
AcDbEntity
  8
便器
  6
EXLTYPE2
 62
     6
100
AcDbLine
 10
1632.300019
 20
596.455231
 30
0.0
 11
1632.300019
 21
620.955246
 31
0.0
  0
LINE
  5
1B6
100
AcDbEntity
  8
便器
  6
EXLTYPE2
 62
     6
100
AcDbLine
 10
1635.650025
 20
641.455246
 30
0.0
 11
1635.650025
 21
622.955246
 31
0.0
  0
ARC
  5
1B7
100
AcDbEntity
  8
便器
  6
EXLTYPE2
 62
     6
100
AcDbCircle
 10
1633.650025
 20
622.955246
 30
0.0
 40
2.0
100
AcDbArc
 50
270.0
 51
0.0
  0
LINE
  5
1B8
100
AcDbEntity
  8
便器
  6
CONTINUOUS
 62
     6
100
AcDbLine
 10
1534.25
 20
558.455231
 30
0.0
 11
1533.500006
 21
596.455231
 31
0.0
  0
LINE
  5
1B9
100
AcDbEntity
  8
便器
  6
CONTINUOUS
 62
     6
100
AcDbLine
 10
1527.5
 20
566.30473
 30
0.0
 11
1527.5
 21
596.455231
 31
0.0
  0
LINE
  5
1BA
100
AcDbEntity
  8
便器
  6
CONTINUOUS
 62
     6
100
AcDbLine
 10
1527.5
 20
549.30473
 30
0.0
 11
1527.5
 21
556.30473
 31
0.0
  0
LINE
  5
1BB
100
AcDbEntity
  8
便器
  6
CONTINUOUS
 62
     6
100
AcDbLine
 10
1527.5
 20
498.00473
 30
0.0
 11
1527.5
 21
522.30473
 31
0.0
  0
LINE
  5
1BC
100
AcDbEntity
  8
便器
  6
CONTINUOUS
 62
     6
100
AcDbLine
 10
1527.5
 20
532.30473
 30
0.0
 11
1527.5
 21
539.30473
 31
0.0
  0
LINE
  5
1BD
100
AcDbEntity
  8
便器
  6
CONTINUOUS
 62
     6
100
AcDbLine
 10
1616.5
 20
566.30473
 30
0.0
 11
1616.5
 21
596.455231
 31
0.0
  0
LINE
  5
1BE
100
AcDbEntity
  8
便器
  6
CONTINUOUS
 62
     6
100
AcDbLine
 10
1616.5
 20
549.30473
 30
0.0
 11
1616.5
 21
556.30473
 31
0.0
  0
LINE
  5
1BF
100
AcDbEntity
  8
便器
  6
CONTINUOUS
 62
     6
100
AcDbLine
 10
1616.5
 20
498.00473
 30
0.0
 11
1616.5
 21
522.30473
 31
0.0
  0
LINE
  5
1C0
100
AcDbEntity
  8
便器
  6
CONTINUOUS
 62
     6
100
AcDbLine
 10
1616.5
 20
532.30473
 30
0.0
 11
1616.5
 21
539.30473
 31
0.0
  0
LINE
  5
1C1
100
AcDbEntity
  8
便器
  6
EXLTYPE3
 62
     1
100
AcDbLine
 10
1572.0
 20
477.0
 30
0.0
 11
1572.0
 21
1536.455078
 31
0.0
  0
TEXT
  5
1C2
100
AcDbEntity
  8
便器
  6
CONTINUOUS
 62
     2
100
AcDbText
 10
1968.5
 20
1621.1
 30
0.0
 40
40.0
  1
Ｗ．Ｌ
 50
90.0
 41
0.833
  7
EXCADSTD
 72
     5
 11
1968.5
 21
1740.1
 31
0.0
100
AcDbText
  0
LINE
  5
1C3
100
AcDbEntity
  8
便器
  6
CONTINUOUS
 62
     7
100
AcDbLine
 10
1972.0
 20
596.455231
 30
0.0
 11
1972.0
 21
1750.0
 31
0.0
  0
ARC
  5
1C4
100
AcDbEntity
  8
便器
  6
EXLTYPE2
 62
     6
100
AcDbCircle
 10
572.690306
 20
528.190613
 30
0.0
 40
37.5
100
AcDbArc
 50
233.60609
 51
306.39391
  0
ARC
  5
1C5
100
AcDbEntity
  8
便器
  6
EXLTYPE2
 62
     6
100
AcDbCircle
 10
528.190306
 20
528.190613
 30
0.0
 40
37.5
100
AcDbArc
 50
233.60609
 51
306.39391
  0
ARC
  5
1C6
100
AcDbEntity
  8
便器
  6
EXLTYPE2
 62
     6
100
AcDbCircle
 10
528.190306
 20
467.818848
 30
0.0
 40
37.5
100
AcDbArc
 50
53.60609
 51
126.39391
  0
ARC
  5
1C7
100
AcDbEntity
  8
便器
  6
EXLTYPE1
 62
     6
100
AcDbCircle
 10
1594.25
 20
528.190613
 30
0.0
 40
37.5
100
AcDbArc
 50
233.60609
 51
306.39391
  0
ARC
  5
1C8
100
AcDbEntity
  8
便器
  6
EXLTYPE1
 62
     6
100
AcDbCircle
 10
1549.75
 20
528.190613
 30
0.0
 40
37.5
100
AcDbArc
 50
233.60609
 51
306.39391
  0
ARC
  5
1C9
100
AcDbEntity
  8
便器
  6
EXLTYPE1
 62
     6
100
AcDbCircle
 10
1549.75
 20
467.818848
 30
0.0
 40
37.5
100
AcDbArc
 50
53.60609
 51
126.39391
  0
LINE
  5
1CA
100
AcDbEntity
  8
タンク
  6
CONTINUOUS
 62
     3
100
AcDbLine
 10
446.440306
 20
1264.449099
 30
0.0
 11
446.440306
 21
1274.449099
 31
0.0
  0
LINE
  5
1CB
100
AcDbEntity
  8
タンク
  6
CONTINUOUS
 62
     3
100
AcDbLine
 10
446.440306
 20
1134.982393
 30
0.0
 11
446.440306
 21
1254.449099
 31
0.0
  0
POLYLINE
  5
1CC
100
AcDbEntity
  8
タンク
  6
CONTINUOUS
 62
     3
100
AcDb2dPolyline
 66
     1
 10
0.0
 20
0.0
 30
0.0
 70
   128
  0
VERTEX
  5
1CD
100
AcDbEntity
  8
タンク
  6
CONTINUOUS
 62
     3
100
AcDbVertex
100
AcDb2dVertex
 10
425.24768
 20
1572.524294
 30
0.0
  0
VERTEX
  5
1CE
100
AcDbEntity
  8
タンク
  6
CONTINUOUS
 62
     3
100
AcDbVertex
100
AcDb2dVertex
 10
391.440306
 20
1563.465609
 30
0.0
  0
VERTEX
  5
1CF
100
AcDbEntity
  8
タンク
  6
CONTINUOUS
 62
     3
100
AcDbVertex
100
AcDb2dVertex
 10
425.24768
 20
1554.406923
 30
0.0
  0
SEQEND
  5
1D0
100
AcDbEntity
  8
タンク
  6
CONTINUOUS
 62
     3
  0
POLYLINE
  5
1D1
100
AcDbEntity
  8
タンク
  6
CONTINUOUS
 62
     3
100
AcDb2dPolyline
 66
     1
 10
0.0
 20
0.0
 30
0.0
 70
   128
  0
VERTEX
  5
1D2
100
AcDbEntity
  8
タンク
  6
CONTINUOUS
 62
     3
100
AcDbVertex
100
AcDb2dVertex
 10
557.632933
 20
1554.406923
 30
0.0
  0
VERTEX
  5
1D3
100
AcDbEntity
  8
タンク
  6
CONTINUOUS
 62
     3
100
AcDbVertex
100
AcDb2dVertex
 10
591.440306
 20
1563.465609
 30
0.0
  0
VERTEX
  5
1D4
100
AcDbEntity
  8
タンク
  6
CONTINUOUS
 62
     3
100
AcDbVertex
100
AcDb2dVertex
 10
557.632933
 20
1572.524294
 30
0.0
  0
SEQEND
  5
1D5
100
AcDbEntity
  8
タンク
  6
CONTINUOUS
 62
     3
  0
LINE
  5
1D6
100
AcDbEntity
  8
タンク
  6
CONTINUOUS
 62
     3
100
AcDbLine
 10
591.440306
 20
1413.455294
 30
0.0
 11
591.440306
 21
1583.465609
 31
0.0
  0
LINE
  5
1D7
100
AcDbEntity
  8
タンク
  6
CONTINUOUS
 62
     3
100
AcDbLine
 10
391.440306
 20
1505.465609
 30
0.0
 11
391.440306
 21
1583.465609
 31
0.0
  0
LINE
  5
1D8
100
AcDbEntity
  8
タンク
  6
CONTINUOUS
 62
     3
100
AcDbLine
 10
391.440306
 20
1563.465609
 30
0.0
 11
591.440306
 21
1563.465609
 31
0.0
  0
LINE
  5
1D9
100
AcDbEntity
  8
タンク
  6
CONTINUOUS
 62
     3
100
AcDbLine
 10
290.440306
 20
596.455231
 30
0.0
 11
290.440306
 21
1306.458681
 31
0.0
  0
POLYLINE
  5
1DA
100
AcDbEntity
  8
タンク
  6
CONTINUOUS
 62
     3
100
AcDb2dPolyline
 66
     1
 10
0.0
 20
0.0
 30
0.0
 70
   128
  0
VERTEX
  5
1DB
100
AcDbEntity
  8
タンク
  6
CONTINUOUS
 62
     3
100
AcDbVertex
100
AcDb2dVertex
 10
281.381621
 20
1115.266301
 30
0.0
  0
VERTEX
  5
1DC
100
AcDbEntity
  8
タンク
  6
CONTINUOUS
 62
     3
100
AcDbVertex
100
AcDb2dVertex
 10
290.440306
 20
1081.458928
 30
0.0
  0
VERTEX
  5
1DD
100
AcDbEntity
  8
タンク
  6
CONTINUOUS
 62
     3
100
AcDbVertex
100
AcDb2dVertex
 10
299.498992
 20
1115.266301
 30
0.0
  0
SEQEND
  5
1DE
100
AcDbEntity
  8
タンク
  6
CONTINUOUS
 62
     3
  0
POLYLINE
  5
1DF
100
AcDbEntity
  8
タンク
  6
CONTINUOUS
 62
     3
100
AcDb2dPolyline
 66
     1
 10
0.0
 20
0.0
 30
0.0
 70
   128
  0
VERTEX
  5
1E0
100
AcDbEntity
  8
タンク
  6
CONTINUOUS
 62
     3
100
AcDbVertex
100
AcDb2dVertex
 10
299.498992
 20
1272.643374
 30
0.0
  0
VERTEX
  5
1E1
100
AcDbEntity
  8
タンク
  6
CONTINUOUS
 62
     3
100
AcDbVertex
100
AcDb2dVertex
 10
290.440306
 20
1306.450747
 30
0.0
  0
VERTEX
  5
1E2
100
AcDbEntity
  8
タンク
  6
CONTINUOUS
 62
     3
100
AcDbVertex
100
AcDb2dVertex
 10
281.381621
 20
1272.643374
 30
0.0
  0
SEQEND
  5
1E3
100
AcDbEntity
  8
タンク
  6
CONTINUOUS
 62
     3
  0
LINE
  5
1E4
100
AcDbEntity
  8
タンク
  6
CONTINUOUS
 62
     3
100
AcDbLine
 10
230.440306
 20
961.455324
 30
0.0
 11
230.440306
 21
1521.455324
 31
0.0
  0
POLYLINE
  5
1E5
100
AcDbEntity
  8
タンク
  6
CONTINUOUS
 62
     3
100
AcDb2dPolyline
 66
     1
 10
0.0
 20
0.0
 30
0.0
 70
   128
  0
VERTEX
  5
1E6
100
AcDbEntity
  8
タンク
  6
CONTINUOUS
 62
     3
100
AcDbVertex
100
AcDb2dVertex
 10
221.381621
 20
995.262697
 30
0.0
  0
VERTEX
  5
1E7
100
AcDbEntity
  8
タンク
  6
CONTINUOUS
 62
     3
100
AcDbVertex
100
AcDb2dVertex
 10
230.440306
 20
961.455324
 30
0.0
  0
VERTEX
  5
1E8
100
AcDbEntity
  8
タンク
  6
CONTINUOUS
 62
     3
100
AcDbVertex
100
AcDb2dVertex
 10
239.498992
 20
995.262697
 30
0.0
  0
SEQEND
  5
1E9
100
AcDbEntity
  8
タンク
  6
CONTINUOUS
 62
     3
  0
POLYLINE
  5
1EA
100
AcDbEntity
  8
タンク
  6
CONTINUOUS
 62
     3
100
AcDb2dPolyline
 66
     1
 10
0.0
 20
0.0
 30
0.0
 70
   128
  0
VERTEX
  5
1EB
100
AcDbEntity
  8
タンク
  6
CONTINUOUS
 62
     3
100
AcDbVertex
100
AcDb2dVertex
 10
239.498992
 20
1487.652682
 30
0.0
  0
VERTEX
  5
1EC
100
AcDbEntity
  8
タンク
  6
CONTINUOUS
 62
     3
100
AcDbVertex
100
AcDb2dVertex
 10
230.440306
 20
1521.460055
 30
0.0
  0
VERTEX
  5
1ED
100
AcDbEntity
  8
タンク
  6
CONTINUOUS
 62
     3
100
AcDbVertex
100
AcDb2dVertex
 10
221.381621
 20
1487.652682
 30
0.0
  0
SEQEND
  5
1EE
100
AcDbEntity
  8
タンク
  6
CONTINUOUS
 62
     3
  0
LINE
  5
1EF
100
AcDbEntity
  8
タンク
  6
CONTINUOUS
 62
     3
100
AcDbLine
 10
210.440306
 20
1521.455324
 30
0.0
 11
385.439818
 21
1521.455324
 31
0.0
  0
LINE
  5
1F0
100
AcDbEntity
  8
タンク
  6
CONTINUOUS
 62
     3
100
AcDbLine
 10
311.440306
 20
1154.982393
 30
0.0
 11
486.440306
 21
1154.982393
 31
0.0
  0
POLYLINE
  5
1F1
100
AcDbEntity
  8
タンク
  6
CONTINUOUS
 62
     3
100
AcDb2dPolyline
 66
     1
 10
0.0
 20
0.0
 30
0.0
 70
   128
  0
VERTEX
  5
1F2
100
AcDbEntity
  8
タンク
  6
CONTINUOUS
 62
     3
100
AcDbVertex
100
AcDb2dVertex
 10
480.24768
 20
1164.041079
 30
0.0
  0
VERTEX
  5
1F3
100
AcDbEntity
  8
タンク
  6
CONTINUOUS
 62
     3
100
AcDbVertex
100
AcDb2dVertex
 10
446.440306
 20
1154.982393
 30
0.0
  0
VERTEX
  5
1F4
100
AcDbEntity
  8
タンク
  6
CONTINUOUS
 62
     3
100
AcDbVertex
100
AcDb2dVertex
 10
480.24768
 20
1145.923708
 30
0.0
  0
SEQEND
  5
1F5
100
AcDbEntity
  8
タンク
  6
CONTINUOUS
 62
     3
  0
POLYLINE
  5
1F6
100
AcDbEntity
  8
タンク
  6
CONTINUOUS
 62
     3
100
AcDb2dPolyline
 66
     1
 10
0.0
 20
0.0
 30
0.0
 70
   128
  0
VERTEX
  5
1F7
100
AcDbEntity
  8
タンク
  6
CONTINUOUS
 62
     3
100
AcDbVertex
100
AcDb2dVertex
 10
317.632933
 20
1145.923708
 30
0.0
  0
VERTEX
  5
1F8
100
AcDbEntity
  8
タンク
  6
CONTINUOUS
 62
     3
100
AcDbVertex
100
AcDb2dVertex
 10
351.440306
 20
1154.982393
 30
0.0
  0
VERTEX
  5
1F9
100
AcDbEntity
  8
タンク
  6
CONTINUOUS
 62
     3
100
AcDbVertex
100
AcDb2dVertex
 10
317.632933
 20
1164.041079
 30
0.0
  0
SEQEND
  5
1FA
100
AcDbEntity
  8
タンク
  6
CONTINUOUS
 62
     3
  0
TEXT
  5
1FB
100
AcDbEntity
  8
タンク
  6
CONTINUOUS
 62
     2
100
AcDbText
 10
433.440276
 20
1568.465304
 30
0.0
 40
40.0
  1
２００
 41
0.833
  7
EXCADSTD
 72
     5
 11
552.440276
 21
1568.465304
 31
0.0
100
AcDbText
  0
TEXT
  5
1FC
100
AcDbEntity
  8
タンク
  6
CONTINUOUS
 62
     2
100
AcDbText
 10
285.440306
 20
1140.895664
 30
0.0
 40
40.0
  1
２２５
 50
90.0
 41
0.833
  7
EXCADSTD
 72
     5
 11
285.440306
 21
1259.895664
 31
0.0
100
AcDbText
  0
TEXT
  5
1FD
100
AcDbEntity
  8
タンク
  6
CONTINUOUS
 62
     2
100
AcDbText
 10
225.440306
 20
1187.461458
 30
0.0
 40
40.0
  1
５６０
 50
90.0
 41
0.833
  7
EXCADSTD
 72
     5
 11
225.440306
 21
1306.461458
 31
0.0
100
AcDbText
  0
TEXT
  5
1FE
100
AcDbEntity
  8
タンク
  6
CONTINUOUS
 62
     2
100
AcDbText
 10
485.006896
 20
1135.232485
 30
0.0
 40
40.0
  1
９６
 41
0.84
  7
EXCADSTD
 72
     5
 11
558.334896
 21
1135.232485
 31
0.0
100
AcDbText
  0
ARC
  5
1FF
100
AcDbEntity
  8
タンク
  6
CONTINUOUS
 62
     7
100
AcDbCircle
 10
409.886199
 20
965.455263
 30
0.0
 40
4.000005
100
AcDbArc
 50
180.780273
 51
270.000031
  0
ARC
  5
200
100
AcDbEntity
  8
タンク
  6
CONTINUOUS
 62
     7
100
AcDbCircle
 10
400.386229
 20
965.455263
 30
0.0
 40
4.000005
100
AcDbArc
 50
180.780273
 51
270.000031
  0
ARC
  5
201
100
AcDbEntity
  8
タンク
  6
CONTINUOUS
 62
     7
100
AcDbCircle
 10
568.253051
 20
965.455263
 30
0.0
 40
3.999939
100
AcDbArc
 50
270.000031
 51
355.36795
  0
LINE
  5
202
100
AcDbEntity
  8
タンク
  6
CONTINUOUS
 62
     7
100
AcDbLine
 10
400.409225
 20
961.455324
 30
0.0
 11
568.253051
 21
961.455324
 31
0.0
  0
LINE
  5
203
100
AcDbEntity
  8
タンク
  6
CONTINUOUS
 62
     7
100
AcDbLine
 10
584.706603
 20
1218.485659
 30
0.0
 11
586.765776
 21
1336.455324
 31
0.0
  0
LINE
  5
204
100
AcDbEntity
  8
タンク
  6
CONTINUOUS
 62
     7
100
AcDbLine
 10
400.831329
 20
1328.455294
 30
0.0
 11
391.331359
 21
1328.455294
 31
0.0
  0
LINE
  5
205
100
AcDbEntity
  8
タンク
  6
CONTINUOUS
 62
     7
100
AcDbLine
 10
398.331329
 20
1336.455324
 30
0.0
 11
398.331329
 21
1328.455294
 31
0.0
  0
LINE
  5
206
100
AcDbEntity
  8
タンク
  6
EXLTYPE2
 62
     2
100
AcDbLine
 10
400.695089
 20
1346.455324
 30
0.0
 11
586.940337
 21
1346.455324
 31
0.0
  0
ARC
  5
207
100
AcDbEntity
  8
タンク
  6
CONTINUOUS
 62
     7
100
AcDbCircle
 10
-3414.68625
 20
1288.296297
 30
0.0
 40
4000.0
100
AcDbArc
 50
355.672333
 51
359.000043
  0
LINE
  5
208
100
AcDbEntity
  8
タンク
  6
CONTINUOUS
 62
     7
100
AcDbLine
 10
572.239925
 20
965.132242
 30
0.0
 11
572.978406
 21
986.455324
 31
0.0
  0
ARC
  5
209
100
AcDbEntity
  8
タンク
  6
CONTINUOUS
 62
     6
100
AcDbCircle
 10
430.474273
 20
1478.919619
 30
0.0
 40
1.999937
100
AcDbArc
 50
276.672852
 51
319.21048
  0
ARC
  5
20A
100
AcDbEntity
  8
タンク
  6
CONTINUOUS
 62
     6
100
AcDbCircle
 10
450.916015
 20
1461.280459
 30
0.0
 40
24.999924
100
AcDbArc
 50
95.000214
 51
139.20903
  0
LINE
  5
20B
100
AcDbEntity
  8
タンク
  6
CONTINUOUS
 62
     6
100
AcDbLine
 10
430.706664
 20
1476.933077
 30
0.0
 11
418.579589
 21
1475.514925
 31
0.0
  0
ARC
  5
20C
100
AcDbEntity
  8
タンク
  6
CONTINUOUS
 62
     6
100
AcDbCircle
 10
497.375823
 20
1492.448366
 30
0.0
 40
1.999946
100
AcDbArc
 50
274.998581
 51
8.184509
  0
LINE
  5
20D
100
AcDbEntity
  8
タンク
  6
CONTINUOUS
 62
     6
100
AcDbLine
 10
497.550078
 20
1490.456026
 30
0.0
 11
417.882262
 21
1483.485964
 31
0.0
  0
ARC
  5
20E
100
AcDbEntity
  8
タンク
  6
CONTINUOUS
 62
     6
100
AcDbCircle
 10
492.007628
 20
1486.959475
 30
0.0
 40
1.999946
100
AcDbArc
 50
274.998581
 51
343.197769
  0
LINE
  5
20F
100
AcDbEntity
  8
タンク
  6
CONTINUOUS
 62
     6
100
AcDbLine
 10
493.922149
 20
1486.381319
 30
0.0
 11
495.087462
 21
1490.24042
 31
0.0
  0
ARC
  5
210
100
AcDbEntity
  8
タンク
  6
CONTINUOUS
 62
     6
100
AcDbCircle
 10
475.777617
 20
1485.539644
 30
0.0
 40
1.999977
100
AcDbArc
 50
206.801605
 51
274.998581
  0
LINE
  5
211
100
AcDbEntity
  8
タンク
  6
CONTINUOUS
 62
     6
100
AcDbLine
 10
492.181884
 20
1484.967135
 30
0.0
 11
475.951873
 21
1483.547152
 31
0.0
  0
LINE
  5
212
100
AcDbEntity
  8
タンク
  6
CONTINUOUS
 62
     6
100
AcDbLine
 10
472.174865
 20
1488.235872
 30
0.0
 11
473.992492
 21
1484.63785
 31
0.0
  0
LINE
  5
213
100
AcDbEntity
  8
タンク
  6
CONTINUOUS
 62
     6
100
AcDbLine
 10
463.016082
 20
1510.142306
 30
0.0
 11
415.790435
 21
1507.394503
 31
0.0
  0
ARC
  5
214
100
AcDbEntity
  8
タンク
  6
CONTINUOUS
 62
     6
100
AcDbCircle
 10
469.986449
 20
1390.344942
 30
0.0
 40
119.999943
100
AcDbArc
 50
84.506805
 51
93.330048
  0
ARC
  5
215
100
AcDbEntity
  8
タンク
  6
CONTINUOUS
 62
     6
100
AcDbCircle
 10
479.559203
 20
1489.885653
 30
0.0
 40
20.000029
100
AcDbArc
 50
8.185121
 51
84.506866
  0
LINE
  5
216
100
AcDbEntity
  8
タンク
  6
EXLTYPE2
 62
     2
100
AcDbLine
 10
400.831328
 20
1346.455324
 30
0.0
 11
400.831328
 21
1336.455324
 31
0.0
  0
LINE
  5
217
100
AcDbEntity
  8
タンク
  6
EXLTYPE2
 62
     2
100
AcDbLine
 10
586.656829
 20
1336.455324
 30
0.0
 11
586.831389
 21
1346.455324
 31
0.0
  0
LINE
  5
218
100
AcDbEntity
  8
タンク
  6
CONTINUOUS
 62
     7
100
AcDbLine
 10
591.331359
 20
1336.455324
 30
0.0
 11
391.331359
 21
1336.455324
 31
0.0
  0
ARC
  5
219
100
AcDbEntity
  8
タンク
  6
CONTINUOUS
 62
     7
100
AcDbCircle
 10
91.3338
 20
1337.671908
 30
0.0
 40
500.0
100
AcDbArc
 50
359.860642
 51
6.603516
  0
ARC
  5
21A
100
AcDbEntity
  8
タンク
  6
CONTINUOUS
 62
     7
100
AcDbCircle
 10
582.056304
 20
1394.481753
 30
0.0
 40
6.000043
100
AcDbArc
 50
6.6036
 51
90.935547
  0
ARC
  5
21B
100
AcDbEntity
  8
タンク
  6
CONTINUOUS
 62
     7
100
AcDbCircle
 10
576.082183
 20
1760.432985
 30
0.0
 40
360.0
100
AcDbArc
 50
252.337982
 51
270.935379
  0
ARC
  5
21C
100
AcDbEntity
  8
タンク
  6
CONTINUOUS
 62
     7
100
AcDbCircle
 10
488.09558
 20
1484.102724
 30
0.0
 40
69.999962
100
AcDbArc
 50
185.000015
 51
252.337982
  0
LINE
  5
21D
100
AcDbEntity
  8
タンク
  6
CONTINUOUS
 62
     7
100
AcDbLine
 10
415.039397
 20
1515.978335
 30
0.0
 11
418.361998
 21
1478.001803
 31
0.0
  0
ARC
  5
21E
100
AcDbEntity
  8
タンク
  6
CONTINUOUS
 62
     7
100
AcDbCircle
 10
409.062224
 20
1515.455263
 30
0.0
 40
6.000017
100
AcDbArc
 50
5.001296
 51
89.999969
  0
LINE
  5
21F
100
AcDbEntity
  8
タンク
  6
CONTINUOUS
 62
     7
100
AcDbLine
 10
409.062224
 20
1521.455324
 30
0.0
 11
398.491393
 21
1521.455324
 31
0.0
  0
ARC
  5
220
100
AcDbEntity
  8
タンク
  6
CONTINUOUS
 62
     7
100
AcDbCircle
 10
398.491393
 20
1517.455385
 30
0.0
 40
3.999939
100
AcDbArc
 50
89.999969
 51
179.001114
  0
LINE
  5
221
100
AcDbEntity
  8
タンク
  6
CONTINUOUS
 62
     7
100
AcDbLine
 10
394.491912
 20
1517.525118
 30
0.0
 11
391.331359
 21
1336.455324
 31
0.0
  0
ARC
  5
222
100
AcDbEntity
  8
タンク
  6
CONTINUOUS
 62
     6
100
AcDbCircle
 10
446.440306
 20
1306.458681
 30
0.0
 40
17.75
100
AcDbArc
 50
290.961864
 51
249.038136
  0
ARC
  5
223
100
AcDbEntity
  8
タンク
  6
CONTINUOUS
 62
     6
100
AcDbCircle
 10
446.440306
 20
1306.458681
 30
0.0
 40
12.75
100
AcDbArc
 50
299.87036
 51
240.12964
  0
LINE
  5
224
100
AcDbEntity
  8
タンク
  6
CONTINUOUS
 62
     6
100
AcDbLine
 10
457.940306
 20
1311.96436
 30
0.0
 11
457.940306
 21
1300.953002
 31
0.0
  0
LINE
  5
225
100
AcDbEntity
  8
タンク
  6
CONTINUOUS
 62
     6
100
AcDbLine
 10
447.422249
 20
1319.170813
 30
0.0
 11
456.958364
 21
1313.665134
 31
0.0
  0
LINE
  5
226
100
AcDbEntity
  8
タンク
  6
CONTINUOUS
 62
     6
100
AcDbLine
 10
435.922249
 20
1313.665134
 30
0.0
 11
445.458364
 21
1319.170813
 31
0.0
  0
LINE
  5
227
100
AcDbEntity
  8
タンク
  6
CONTINUOUS
 62
     6
100
AcDbLine
 10
434.940306
 20
1300.953002
 30
0.0
 11
434.940306
 21
1311.96436
 31
0.0
  0
LINE
  5
228
100
AcDbEntity
  8
タンク
  6
CONTINUOUS
 62
     6
100
AcDbLine
 10
440.090306
 20
1296.845799
 30
0.0
 11
435.922249
 21
1299.252229
 31
0.0
  0
LINE
  5
229
100
AcDbEntity
  8
タンク
  6
CONTINUOUS
 62
     6
100
AcDbLine
 10
456.958364
 20
1299.252229
 30
0.0
 11
452.790306
 21
1296.845799
 31
0.0
  0
ARC
  5
22A
100
AcDbEntity
  8
タンク
  6
CONTINUOUS
 62
     6
100
AcDbCircle
 10
446.440306
 20
1306.458681
 30
0.0
 40
10.74299
100
AcDbArc
 50
306.233906
 51
233.766094
  0
POLYLINE
  5
22B
100
AcDbEntity
  8
タンク
  6
CONTINUOUS
 62
     3
100
AcDb2dPolyline
 66
     1
 10
0.0
 20
0.0
 30
0.0
 70
   128
  0
VERTEX
  5
22C
100
AcDbEntity
  8
タンク
  6
CONTINUOUS
 62
     3
100
AcDbVertex
100
AcDb2dVertex
 10
299.498992
 20
1047.643374
 30
0.0
  0
VERTEX
  5
22D
100
AcDbEntity
  8
タンク
  6
CONTINUOUS
 62
     3
100
AcDbVertex
100
AcDb2dVertex
 10
290.440306
 20
1081.450747
 30
0.0
  0
VERTEX
  5
22E
100
AcDbEntity
  8
タンク
  6
CONTINUOUS
 62
     3
100
AcDbVertex
100
AcDb2dVertex
 10
281.381621
 20
1047.643374
 30
0.0
  0
SEQEND
  5
22F
100
AcDbEntity
  8
タンク
  6
CONTINUOUS
 62
     3
  0
POLYLINE
  5
230
100
AcDbEntity
  8
タンク
  6
CONTINUOUS
 62
     3
100
AcDb2dPolyline
 66
     1
 10
0.0
 20
0.0
 30
0.0
 70
   128
  0
VERTEX
  5
231
100
AcDbEntity
  8
タンク
  6
CONTINUOUS
 62
     3
100
AcDbVertex
100
AcDb2dVertex
 10
281.381621
 20
630.26285
 30
0.0
  0
VERTEX
  5
232
100
AcDbEntity
  8
タンク
  6
CONTINUOUS
 62
     3
100
AcDbVertex
100
AcDb2dVertex
 10
290.440306
 20
596.455477
 30
0.0
  0
VERTEX
  5
233
100
AcDbEntity
  8
タンク
  6
CONTINUOUS
 62
     3
100
AcDbVertex
100
AcDb2dVertex
 10
299.498992
 20
630.26285
 30
0.0
  0
SEQEND
  5
234
100
AcDbEntity
  8
タンク
  6
CONTINUOUS
 62
     3
  0
TEXT
  5
235
100
AcDbEntity
  8
タンク
  6
CONTINUOUS
 62
     2
100
AcDbText
 10
285.440306
 20
785.892214
 30
0.0
 40
40.0
  1
４８５
 50
90.0
 41
0.833
  7
EXCADSTD
 72
     5
 11
285.440306
 21
904.892214
 31
0.0
100
AcDbText
  0
LINE
  5
236
100
AcDbEntity
  8
タンク
  6
CONTINUOUS
 62
     7
100
AcDbLine
 10
400.831328
 20
1336.455324
 30
0.0
 11
404.135069
 21
1093.960671
 31
0.0
  0
LINE
  5
237
100
AcDbEntity
  8
タンク
  6
CONTINUOUS
 62
     7
100
AcDbLine
 10
404.475676
 20
1068.960066
 30
0.0
 11
405.886542
 21
965.402464
 31
0.0
  0
LINE
  5
238
100
AcDbEntity
  8
タンク
  6
CONTINUOUS
 62
     7
100
AcDbLine
 10
391.331313
 20
1336.455324
 30
0.0
 11
394.635084
 21
1093.960671
 31
0.0
  0
LINE
  5
239
100
AcDbEntity
  8
タンク
  6
CONTINUOUS
 62
     7
100
AcDbLine
 10
394.975694
 20
1068.960066
 30
0.0
 11
396.386573
 21
965.402463
 31
0.0
  0
LINE
  5
23A
100
AcDbEntity
  8
タンク
  6
CONTINUOUS
 62
     3
100
AcDbLine
 10
446.440306
 20
1284.449099
 30
0.0
 11
446.440306
 21
1339.208681
 31
0.0
  0
LINE
  5
23B
100
AcDbEntity
  8
タンク
  6
CONTINUOUS
 62
     3
100
AcDbLine
 10
479.190306
 20
1306.458681
 30
0.0
 11
270.440306
 21
1306.458681
 31
0.0
  0
LINE
  5
23C
100
AcDbEntity
  8
タンク
  6
CONTINUOUS
 62
     7
100
AcDbLine
 10
401.578551
 20
1281.603182
 30
0.0
 11
394.455654
 21
1293.940269
 31
0.0
  0
ARC
  5
23D
100
AcDbEntity
  8
タンク
  6
CONTINUOUS
 62
     7
100
AcDbCircle
 10
411.776152
 20
1303.940371
 30
0.0
 40
20.000019
100
AcDbArc
 50
180.780273
 51
210.000265
  0
LINE
  5
23E
100
AcDbEntity
  8
タンク
  6
CONTINUOUS
 62
     2
100
AcDbLine
 10
396.099747
 20
986.455324
 30
0.0
 11
573.91101
 21
986.455324
 31
0.0
  0
LINE
  5
23F
100
AcDbEntity
  8
タンク
  6
CONTINUOUS
 62
     3
100
AcDbLine
 10
350.441132
 20
2450.34668
 30
0.0
 11
270.441132
 21
2450.34668
 31
0.0
  0
ARC
  5
240
100
AcDbEntity
  8
タンク
  6
CONTINUOUS
 62
     7
100
AcDbCircle
 10
496.441114
 20
2450.34668
 30
0.0
 40
8.999957
100
AcDbArc
 50
286.169477
 51
73.830523
  0
LINE
  5
241
100
AcDbEntity
  8
タンク
  6
CONTINUOUS
 62
     7
100
AcDbLine
 10
552.083509
 20
2240.34668
 30
0.0
 11
395.441205
 21
2240.34668
 31
0.0
  0
ARC
  5
242
100
AcDbEntity
  8
タンク
  6
CONTINUOUS
 62
     7
100
AcDbCircle
 10
552.083509
 20
2273.34671
 30
0.0
 40
33.000031
100
AcDbArc
 50
270.000031
 51
355.885559
  0
ARC
  5
243
100
AcDbEntity
  8
タンク
  6
CONTINUOUS
 62
     7
100
AcDbCircle
 10
-1908.558886
 20
2450.345154
 30
0.0
 40
2500.0
100
AcDbArc
 50
355.885805
 51
4.114318
  0
ARC
  5
244
100
AcDbEntity
  8
タンク
  6
CONTINUOUS
 62
     7
100
AcDbCircle
 10
552.083203
 20
2627.346649
 30
0.0
 40
33.000088
100
AcDbArc
 50
4.114417
 51
89.999969
  0
LINE
  5
245
100
AcDbEntity
  8
タンク
  6
CONTINUOUS
 62
     7
100
AcDbLine
 10
552.083203
 20
2660.34668
 30
0.0
 11
395.4409
 21
2660.34668
 31
0.0
  0
ARC
  5
246
100
AcDbEntity
  8
タンク
  6
CONTINUOUS
 62
     7
100
AcDbCircle
 10
395.4409
 20
2656.346741
 30
0.0
 40
3.999939
100
AcDbArc
 50
89.999969
 51
180.000015
  0
LINE
  5
247
100
AcDbEntity
  8
タンク
  6
CONTINUOUS
 62
     7
100
AcDbLine
 10
391.441266
 20
2244.346619
 30
0.0
 11
391.440961
 21
2656.346741
 31
0.0
  0
ARC
  5
248
100
AcDbEntity
  8
タンク
  6
CONTINUOUS
 62
     7
100
AcDbCircle
 10
395.441205
 20
2244.346619
 30
0.0
 40
4.000092
100
AcDbArc
 50
180.000015
 51
270.0
  0
ARC
  5
249
100
AcDbEntity
  8
タンク
  6
CONTINUOUS
 62
     7
100
AcDbCircle
 10
444.670484
 20
2270.34668
 30
0.0
 40
30.0
100
AcDbArc
 50
180.000015
 51
241.352081
  0
ARC
  5
24A
100
AcDbEntity
  8
タンク
  6
CONTINUOUS
 62
     7
100
AcDbCircle
 10
444.670179
 20
2630.34668
 30
0.0
 40
30.0
100
AcDbArc
 50
118.647873
 51
180.000015
  0
ARC
  5
24B
100
AcDbEntity
  8
タンク
  6
CONTINUOUS
 62
     6
100
AcDbCircle
 10
465.326306
 20
2633.422852
 30
0.0
 40
200.0
100
AcDbArc
 50
271.17012
 51
275.743774
  0
LINE
  5
24C
100
AcDbEntity
  8
タンク
  6
CONTINUOUS
 62
     6
100
AcDbLine
 10
469.410321
 20
2433.464661
 30
0.0
 11
414.670331
 21
2432.346649
 31
0.0
  0
ARC
  5
24D
100
AcDbEntity
  8
タンク
  6
CONTINUOUS
 62
     6
100
AcDbCircle
 10
465.326612
 20
2267.270508
 30
0.0
 40
200.0
100
AcDbArc
 50
84.256393
 51
88.830109
  0
ARC
  5
24E
100
AcDbEntity
  8
タンク
  6
CONTINUOUS
 62
     6
100
AcDbCircle
 10
483.740918
 20
2450.34668
 30
0.0
 40
15.999975
100
AcDbArc
 50
275.743713
 51
84.256287
  0
LINE
  5
24F
100
AcDbEntity
  8
タンク
  6
CONTINUOUS
 62
     6
100
AcDbLine
 10
469.410321
 20
2467.228699
 30
0.0
 11
414.670331
 21
2468.34671
 31
0.0
  0
LINE
  5
250
100
AcDbEntity
  8
タンク
  6
CONTINUOUS
 62
     7
100
AcDbLine
 10
414.670179
 20
2630.346672
 30
0.0
 11
414.670179
 21
2270.346672
 31
0.0
  0
LINE
  5
251
100
AcDbEntity
  8
タンク
  6
CONTINUOUS
 62
     6
100
AcDbLine
 10
549.685761
 20
2660.34668
 30
0.0
 11
549.68576
 21
2675.890635
 31
0.0
  0
LINE
  5
252
100
AcDbEntity
  8
タンク
  6
CONTINUOUS
 62
     6
100
AcDbLine
 10
513.196159
 20
2660.34668
 30
0.0
 11
513.19616
 21
2675.890626
 31
0.0
  0
ARC
  5
253
100
AcDbEntity
  8
タンク
  6
CONTINUOUS
 62
     6
100
AcDbCircle
 10
525.35933
 20
2682.166131
 30
0.0
 40
4.0544
100
AcDbArc
 50
122.196686
 51
161.721527
  0
ARC
  5
254
100
AcDbEntity
  8
タンク
  6
CONTINUOUS
 62
     6
100
AcDbCircle
 10
537.522066
 20
2682.166455
 30
0.0
 40
4.0544
100
AcDbArc
 50
18.280151
 51
57.805664
  0
ARC
  5
255
100
AcDbEntity
  8
タンク
  6
CONTINUOUS
 62
     6
100
AcDbCircle
 10
531.44096
 20
2679.159512
 30
0.0
 40
9.1224
100
AcDbArc
 50
80.66687
 51
90.0
  0
ARC
  5
256
100
AcDbEntity
  8
タンク
  6
CONTINUOUS
 62
     6
100
AcDbCircle
 10
529.961546
 20
2670.157889
 30
0.0
 40
18.2448
100
AcDbArc
 50
57.805664
 51
80.66687
  0
ARC
  5
257
100
AcDbEntity
  8
タンク
  6
CONTINUOUS
 62
     6
100
AcDbCircle
 10
532.920374
 20
2670.157885
 30
0.0
 40
18.2448
100
AcDbArc
 50
99.33316
 51
122.196716
  0
ARC
  5
258
100
AcDbEntity
  8
タンク
  6
CONTINUOUS
 62
     6
100
AcDbCircle
 10
531.44096
 20
2679.159512
 30
0.0
 40
9.1224
100
AcDbArc
 50
90.0
 51
99.33316
  0
ARC
  5
259
100
AcDbEntity
  8
タンク
  6
CONTINUOUS
 62
     6
100
AcDbCircle
 10
544.656981
 20
2675.611413
 30
0.0
 40
5.068
100
AcDbArc
 50
15.989868
 51
62.588623
  0
ARC
  5
25A
100
AcDbEntity
  8
タンク
  6
CONTINUOUS
 62
     6
100
AcDbCircle
 10
544.656981
 20
2675.611413
 30
0.0
 40
5.068
100
AcDbArc
 50
15.989868
 51
62.588623
  0
ARC
  5
25B
100
AcDbEntity
  8
タンク
  6
CONTINUOUS
 62
     6
100
AcDbCircle
 10
539.990581
 20
2666.613448
 30
0.0
 40
15.204
100
AcDbArc
 50
62.588623
 51
66.453674
  0
ARC
  5
25C
100
AcDbEntity
  8
タンク
  6
CONTINUOUS
 62
     6
100
AcDbCircle
 10
558.217222
 20
2704.445081
 30
0.0
 40
26.926876
100
AcDbArc
 50
231.274048
 51
234.443848
  0
ARC
  5
25D
100
AcDbEntity
  8
タンク
  6
CONTINUOUS
 62
     6
100
AcDbCircle
 10
553.758009
 20
2698.206417
 30
0.0
 40
19.2584
100
AcDbArc
 50
234.443848
 51
246.453674
  0
ARC
  5
25E
100
AcDbEntity
  8
タンク
  6
CONTINUOUS
 62
     6
100
AcDbCircle
 10
517.250561
 20
2675.89063
 30
0.0
 40
4.0544
100
AcDbArc
 50
164.010132
 51
180.0
  0
ARC
  5
25F
100
AcDbEntity
  8
タンク
  6
CONTINUOUS
 62
     6
100
AcDbCircle
 10
518.22497
 20
2675.611424
 30
0.0
 40
5.068
100
AcDbArc
 50
117.411407
 51
164.010132
  0
ARC
  5
260
100
AcDbEntity
  8
タンク
  6
CONTINUOUS
 62
     6
100
AcDbCircle
 10
522.89134
 20
2666.613447
 30
0.0
 40
15.204
100
AcDbArc
 50
113.546326
 51
117.411407
  0
ARC
  5
261
100
AcDbEntity
  8
タンク
  6
CONTINUOUS
 62
     6
100
AcDbCircle
 10
509.123913
 20
2698.206415
 30
0.0
 40
19.2584
100
AcDbArc
 50
293.546326
 51
305.556152
  0
ARC
  5
262
100
AcDbEntity
  8
タンク
  6
CONTINUOUS
 62
     6
100
AcDbCircle
 10
504.664696
 20
2704.445092
 30
0.0
 40
26.926876
100
AcDbArc
 50
305.556152
 51
308.724487
  0
ARC
  5
263
100
AcDbEntity
  8
タンク
  6
CONTINUOUS
 62
     6
100
AcDbCircle
 10
545.63136
 20
2675.890633
 30
0.0
 40
4.0544
100
AcDbArc
 50
0.0
 51
15.989868
  0
LINE
  5
264
100
AcDbEntity
  8
タンク
  6
CONTINUOUS
 62
     6
100
AcDbLine
 10
434.714883
 20
2236.34668
 30
0.0
 11
434.714883
 21
2240.34668
 31
0.0
  0
LINE
  5
265
100
AcDbEntity
  8
タンク
  6
CONTINUOUS
 62
     6
100
AcDbLine
 10
457.714883
 20
2236.34668
 30
0.0
 11
457.714883
 21
2240.34668
 31
0.0
  0
LINE
  5
266
100
AcDbEntity
  8
タンク
  6
CONTINUOUS
 62
     6
100
AcDbLine
 10
434.714883
 20
2236.34668
 30
0.0
 11
457.714883
 21
2236.34668
 31
0.0
  0
ARC
  5
267
100
AcDbEntity
  8
タンク
  6
CONTINUOUS
 62
     6
100
AcDbCircle
 10
440.464883
 20
2244.674805
 30
0.0
 40
8.328125
100
AcDbArc
 50
235.073527
 51
304.926473
  0
ARC
  5
268
100
AcDbEntity
  8
タンク
  6
CONTINUOUS
 62
     6
100
AcDbCircle
 10
451.964883
 20
2244.674805
 30
0.0
 40
8.328125
100
AcDbArc
 50
235.073527
 51
304.926473
  0
LINE
  5
269
100
AcDbEntity
  8
タンク
  6
CONTINUOUS
 62
     6
100
AcDbLine
 10
456.732941
 20
2240.34668
 30
0.0
 11
456.732941
 21
2237.84668
 31
0.0
  0
LINE
  5
26A
100
AcDbEntity
  8
タンク
  6
CONTINUOUS
 62
     6
100
AcDbLine
 10
447.196825
 20
2240.34668
 30
0.0
 11
447.196825
 21
2237.84668
 31
0.0
  0
LINE
  5
26B
100
AcDbEntity
  8
タンク
  6
CONTINUOUS
 62
     6
100
AcDbLine
 10
445.232941
 20
2240.34668
 30
0.0
 11
445.232941
 21
2237.84668
 31
0.0
  0
LINE
  5
26C
100
AcDbEntity
  8
タンク
  6
CONTINUOUS
 62
     6
100
AcDbLine
 10
435.696825
 20
2240.34668
 30
0.0
 11
435.696825
 21
2237.84668
 31
0.0
  0
LINE
  5
26D
100
AcDbEntity
  8
タンク
  6
CONTINUOUS
 62
     6
100
AcDbLine
 10
434.714883
 20
2237.84668
 30
0.0
 11
435.696825
 21
2237.84668
 31
0.0
  0
LINE
  5
26E
100
AcDbEntity
  8
タンク
  6
CONTINUOUS
 62
     6
100
AcDbLine
 10
445.232941
 20
2237.84668
 30
0.0
 11
447.196825
 21
2237.84668
 31
0.0
  0
LINE
  5
26F
100
AcDbEntity
  8
タンク
  6
CONTINUOUS
 62
     6
100
AcDbLine
 10
456.732941
 20
2237.84668
 30
0.0
 11
457.714883
 21
2237.84668
 31
0.0
  0
LINE
  5
270
100
AcDbEntity
  8
タンク
  6
CONTINUOUS
 62
     6
100
AcDbLine
 10
435.737383
 20
2223.84668
 30
0.0
 11
435.737383
 21
2236.34668
 31
0.0
  0
LINE
  5
271
100
AcDbEntity
  8
タンク
  6
CONTINUOUS
 62
     6
100
AcDbLine
 10
436.899383
 20
2236.34668
 30
0.0
 11
436.899383
 21
2223.84668
 31
0.0
  0
LINE
  5
272
100
AcDbEntity
  8
タンク
  6
CONTINUOUS
 62
     6
100
AcDbLine
 10
455.530383
 20
2236.34668
 30
0.0
 11
455.530383
 21
2223.84668
 31
0.0
  0
LINE
  5
273
100
AcDbEntity
  8
タンク
  6
CONTINUOUS
 62
     6
100
AcDbLine
 10
456.692383
 20
2236.34668
 30
0.0
 11
456.692383
 21
2223.84668
 31
0.0
  0
LINE
  5
274
100
AcDbEntity
  8
タンク
  6
CONTINUOUS
 62
     3
100
AcDbLine
 10
380.441133
 20
2165.34668
 30
0.0
 11
270.441133
 21
2165.34668
 31
0.0
  0
LINE
  5
275
100
AcDbEntity
  8
タンク
  6
CONTINUOUS
 62
     3
100
AcDbLine
 10
468.841035
 20
2165.34668
 30
0.0
 11
412.441133
 21
2165.34668
 31
0.0
  0
LINE
  5
276
100
AcDbEntity
  8
タンク
  6
CONTINUOUS
 62
     3
100
AcDbLine
 10
400.441133
 20
2165.34668
 30
0.0
 11
392.441133
 21
2165.34668
 31
0.0
  0
LINE
  5
277
100
AcDbEntity
  8
タンク
  6
EXLTYPE2
 62
     2
100
AcDbLine
 10
1366.5
 20
1346.455168
 30
0.0
 11
1777.5
 21
1346.455168
 31
0.0
  0
LINE
  5
278
100
AcDbEntity
  8
タンク
  6
CONTINUOUS
 62
     7
100
AcDbLine
 10
1776.159917
 20
1269.681847
 30
0.0
 11
1777.325449
 21
1336.455166
 31
0.0
  0
LINE
  5
279
100
AcDbEntity
  8
タンク
  6
CONTINUOUS
 62
     7
100
AcDbLine
 10
1367.840083
 20
1269.681847
 30
0.0
 11
1366.674553
 21
1336.455017
 31
0.0
  0
LINE
  5
27A
100
AcDbEntity
  8
タンク
  6
EXLTYPE2
 62
     2
100
AcDbLine
 10
1366.674553
 20
1336.455017
 30
0.0
 11
1366.5
 21
1346.455168
 31
0.0
  0
LINE
  5
27B
100
AcDbEntity
  8
タンク
  6
EXLTYPE2
 62
     2
100
AcDbLine
 10
1777.325449
 20
1336.455166
 30
0.0
 11
1777.5
 21
1346.455168
 31
0.0
  0
LINE
  5
27C
100
AcDbEntity
  8
タンク
  6
CONTINUOUS
 62
     3
100
AcDbLine
 10
1783.000977
 20
1416.455168
 30
0.0
 11
1783.000977
 21
1583.465452
 31
0.0
  0
LINE
  5
27D
100
AcDbEntity
  8
タンク
  6
CONTINUOUS
 62
     3
100
AcDbLine
 10
1360.999023
 20
1416.455168
 30
0.0
 11
1360.999023
 21
1583.465452
 31
0.0
  0
LINE
  5
27E
100
AcDbEntity
  8
タンク
  6
CONTINUOUS
 62
     3
100
AcDbLine
 10
1360.999023
 20
1563.465452
 30
0.0
 11
1783.000977
 21
1563.465452
 31
0.0
  0
POLYLINE
  5
27F
100
AcDbEntity
  8
タンク
  6
CONTINUOUS
 62
     3
100
AcDb2dPolyline
 66
     1
 10
0.0
 20
0.0
 30
0.0
 70
   128
  0
VERTEX
  5
280
100
AcDbEntity
  8
タンク
  6
CONTINUOUS
 62
     3
100
AcDbVertex
100
AcDb2dVertex
 10
1749.193603
 20
1554.407835
 30
0.0
  0
VERTEX
  5
281
100
AcDbEntity
  8
タンク
  6
CONTINUOUS
 62
     3
100
AcDbVertex
100
AcDb2dVertex
 10
1783.000977
 20
1563.465452
 30
0.0
  0
VERTEX
  5
282
100
AcDbEntity
  8
タンク
  6
CONTINUOUS
 62
     3
100
AcDbVertex
100
AcDb2dVertex
 10
1749.193603
 20
1572.523069
 30
0.0
  0
SEQEND
  5
283
100
AcDbEntity
  8
タンク
  6
CONTINUOUS
 62
     3
  0
POLYLINE
  5
284
100
AcDbEntity
  8
タンク
  6
CONTINUOUS
 62
     3
100
AcDb2dPolyline
 66
     1
 10
0.0
 20
0.0
 30
0.0
 70
   128
  0
VERTEX
  5
285
100
AcDbEntity
  8
タンク
  6
CONTINUOUS
 62
     3
100
AcDbVertex
100
AcDb2dVertex
 10
1394.806396
 20
1572.523069
 30
0.0
  0
VERTEX
  5
286
100
AcDbEntity
  8
タンク
  6
CONTINUOUS
 62
     3
100
AcDbVertex
100
AcDb2dVertex
 10
1360.999023
 20
1563.465452
 30
0.0
  0
VERTEX
  5
287
100
AcDbEntity
  8
タンク
  6
CONTINUOUS
 62
     3
100
AcDbVertex
100
AcDb2dVertex
 10
1394.806396
 20
1554.407835
 30
0.0
  0
SEQEND
  5
288
100
AcDbEntity
  8
タンク
  6
CONTINUOUS
 62
     3
  0
TEXT
  5
289
100
AcDbEntity
  8
タンク
  6
CONTINUOUS
 62
     2
100
AcDbText
 10
1513.999969
 20
1568.465452
 30
0.0
 40
40.0
  1
４２０
 41
0.833
  7
EXCADSTD
 72
     5
 11
1632.999969
 21
1568.465452
 31
0.0
100
AcDbText
  0
ARC
  5
28A
100
AcDbEntity
  8
タンク
  6
CONTINUOUS
 62
     7
100
AcDbCircle
 10
1772.724075
 20
1394.481596
 30
0.0
 40
6.000043
100
AcDbArc
 50
6.6036
 51
92.297058
  0
ARC
  5
28B
100
AcDbEntity
  8
タンク
  6
CONTINUOUS
 62
     7
100
AcDbCircle
 10
1571.99852
 20
6396.455015
 30
0.0
 40
5000.0
100
AcDbArc
 50
267.703204
 51
272.297974
  0
ARC
  5
28C
100
AcDbEntity
  8
タンク
  6
CONTINUOUS
 62
     7
100
AcDbCircle
 10
1282.001572
 20
1337.671446
 30
0.0
 40
500.0
100
AcDbArc
 50
359.860625
 51
11.682691
  0
ARC
  5
28D
100
AcDbEntity
  8
タンク
  6
CONTINUOUS
 62
     7
100
AcDbCircle
 10
1607.241287
 20
1256.946958
 30
0.0
 40
260.0
100
AcDbArc
 50
58.11431
 51
75.437191
  0
ARC
  5
28E
100
AcDbEntity
  8
タンク
  6
CONTINUOUS
 62
     7
100
AcDbCircle
 10
1572.000198
 20
1121.455015
 30
0.0
 40
400.0
100
AcDbArc
 50
75.409753
 51
104.629145
  0
ARC
  5
28F
100
AcDbEntity
  8
タンク
  6
CONTINUOUS
 62
     7
100
AcDbCircle
 10
1536.758804
 20
1256.946958
 30
0.0
 40
260.0
100
AcDbArc
 50
104.503273
 51
121.885703
  0
ARC
  5
290
100
AcDbEntity
  8
タンク
  6
CONTINUOUS
 62
     7
100
AcDbCircle
 10
1861.99852
 20
1337.671598
 30
0.0
 40
500.0
100
AcDbArc
 50
168.317333
 51
180.13941
  0
POLYLINE
  5
291
100
AcDbEntity
  8
タンク
  6
CONTINUOUS
 62
     6
100
AcDb2dPolyline
 66
     1
 10
0.0
 20
0.0
 30
0.0
 70
   128
  0
VERTEX
  5
292
100
AcDbEntity
  8
タンク
  6
CONTINUOUS
 62
     6
100
AcDbVertex
100
AcDb2dVertex
 10
1562.500076
 20
1484.257139
 30
0.0
  0
VERTEX
  5
293
100
AcDbEntity
  8
タンク
  6
CONTINUOUS
 62
     6
100
AcDbVertex
100
AcDb2dVertex
 10
1562.536239
 20
1484.184965
 30
0.0
  0
VERTEX
  5
294
100
AcDbEntity
  8
タンク
  6
CONTINUOUS
 62
     6
100
AcDbVertex
100
AcDb2dVertex
 10
1562.644424
 20
1484.113554
 30
0.0
  0
VERTEX
  5
295
100
AcDbEntity
  8
タンク
  6
CONTINUOUS
 62
     6
100
AcDbVertex
100
AcDb2dVertex
 10
1562.823868
 20
1484.0426
 30
0.0
  0
VERTEX
  5
296
100
AcDbEntity
  8
タンク
  6
CONTINUOUS
 62
     6
100
AcDbVertex
100
AcDb2dVertex
 10
1563.073196
 20
1483.973783
 30
0.0
  0
VERTEX
  5
297
100
AcDbEntity
  8
タンク
  6
CONTINUOUS
 62
     6
100
AcDbVertex
100
AcDb2dVertex
 10
1563.390274
 20
1483.90695
 30
0.0
  0
VERTEX
  5
298
100
AcDbEntity
  8
タンク
  6
CONTINUOUS
 62
     6
100
AcDbVertex
100
AcDb2dVertex
 10
1563.772812
 20
1483.842863
 30
0.0
  0
VERTEX
  5
299
100
AcDbEntity
  8
タンク
  6
CONTINUOUS
 62
     6
100
AcDbVertex
100
AcDb2dVertex
 10
1564.218216
 20
1483.78198
 30
0.0
  0
VERTEX
  5
29A
100
AcDbEntity
  8
タンク
  6
CONTINUOUS
 62
     6
100
AcDbVertex
100
AcDb2dVertex
 10
1564.722671
 20
1483.724455
 30
0.0
  0
VERTEX
  5
29B
100
AcDbEntity
  8
タンク
  6
CONTINUOUS
 62
     6
100
AcDbVertex
100
AcDb2dVertex
 10
1565.282516
 20
1483.671507
 30
0.0
  0
VERTEX
  5
29C
100
AcDbEntity
  8
タンク
  6
CONTINUOUS
 62
     6
100
AcDbVertex
100
AcDb2dVertex
 10
1565.893631
 20
1483.622679
 30
0.0
  0
VERTEX
  5
29D
100
AcDbEntity
  8
タンク
  6
CONTINUOUS
 62
     6
100
AcDbVertex
100
AcDb2dVertex
 10
1566.551132
 20
1483.578733
 30
0.0
  0
VERTEX
  5
29E
100
AcDbEntity
  8
タンク
  6
CONTINUOUS
 62
     6
100
AcDbVertex
100
AcDb2dVertex
 10
1567.250137
 20
1483.540129
 30
0.0
  0
VERTEX
  5
29F
100
AcDbEntity
  8
タンク
  6
CONTINUOUS
 62
     6
100
AcDbVertex
100
AcDb2dVertex
 10
1567.985306
 20
1483.506864
 30
0.0
  0
VERTEX
  5
2A0
100
AcDbEntity
  8
タンク
  6
CONTINUOUS
 62
     6
100
AcDbVertex
100
AcDb2dVertex
 10
1568.750992
 20
1483.479246
 30
0.0
  0
VERTEX
  5
2A1
100
AcDbEntity
  8
タンク
  6
CONTINUOUS
 62
     6
100
AcDbVertex
100
AcDb2dVertex
 10
1569.541244
 20
1483.456968
 30
0.0
  0
VERTEX
  5
2A2
100
AcDbEntity
  8
タンク
  6
CONTINUOUS
 62
     6
100
AcDbVertex
100
AcDb2dVertex
 10
1570.350418
 20
1483.441252
 30
0.0
  0
VERTEX
  5
2A3
100
AcDbEntity
  8
タンク
  6
CONTINUOUS
 62
     6
100
AcDbVertex
100
AcDb2dVertex
 10
1571.171951
 20
1483.431639
 30
0.0
  0
VERTEX
  5
2A4
100
AcDbEntity
  8
タンク
  6
CONTINUOUS
 62
     6
100
AcDbVertex
100
AcDb2dVertex
 10
1572.000046
 20
1483.429045
 30
0.0
  0
VERTEX
  5
2A5
100
AcDbEntity
  8
タンク
  6
CONTINUOUS
 62
     6
100
AcDbVertex
100
AcDb2dVertex
 10
1572.827988
 20
1483.432249
 30
0.0
  0
VERTEX
  5
2A6
100
AcDbEntity
  8
タンク
  6
CONTINUOUS
 62
     6
100
AcDbVertex
100
AcDb2dVertex
 10
1573.649673
 20
1483.441709
 30
0.0
  0
VERTEX
  5
2A7
100
AcDbEntity
  8
タンク
  6
CONTINUOUS
 62
     6
100
AcDbVertex
100
AcDb2dVertex
 10
1574.458847
 20
1483.456968
 30
0.0
  0
VERTEX
  5
2A8
100
AcDbEntity
  8
タンク
  6
CONTINUOUS
 62
     6
100
AcDbVertex
100
AcDb2dVertex
 10
1575.249252
 20
1483.478636
 30
0.0
  0
VERTEX
  5
2A9
100
AcDbEntity
  8
タンク
  6
CONTINUOUS
 62
     6
100
AcDbVertex
100
AcDb2dVertex
 10
1576.014938
 20
1483.506101
 30
0.0
  0
VERTEX
  5
2AA
100
AcDbEntity
  8
タンク
  6
CONTINUOUS
 62
     6
100
AcDbVertex
100
AcDb2dVertex
 10
1576.750107
 20
1483.540129
 30
0.0
  0
VERTEX
  5
2AB
100
AcDbEntity
  8
タンク
  6
CONTINUOUS
 62
     6
100
AcDbVertex
100
AcDb2dVertex
 10
1577.448959
 20
1483.579038
 30
0.0
  0
VERTEX
  5
2AC
100
AcDbEntity
  8
タンク
  6
CONTINUOUS
 62
     6
100
AcDbVertex
100
AcDb2dVertex
 10
1578.10646
 20
1483.623136
 30
0.0
  0
VERTEX
  5
2AD
100
AcDbEntity
  8
タンク
  6
CONTINUOUS
 62
     6
100
AcDbVertex
100
AcDb2dVertex
 10
1578.717575
 20
1483.671507
 30
0.0
  0
VERTEX
  5
2AE
100
AcDbEntity
  8
タンク
  6
CONTINUOUS
 62
     6
100
AcDbVertex
100
AcDb2dVertex
 10
1579.27742
 20
1483.72476
 30
0.0
  0
VERTEX
  5
2AF
100
AcDbEntity
  8
タンク
  6
CONTINUOUS
 62
     6
100
AcDbVertex
100
AcDb2dVertex
 10
1579.781875
 20
1483.78198
 30
0.0
  0
VERTEX
  5
2B0
100
AcDbEntity
  8
タンク
  6
CONTINUOUS
 62
     6
100
AcDbVertex
100
AcDb2dVertex
 10
1580.22728
 20
1483.842863
 30
0.0
  0
VERTEX
  5
2B1
100
AcDbEntity
  8
タンク
  6
CONTINUOUS
 62
     6
100
AcDbVertex
100
AcDb2dVertex
 10
1580.609817
 20
1483.90695
 30
0.0
  0
VERTEX
  5
2B2
100
AcDbEntity
  8
タンク
  6
CONTINUOUS
 62
     6
100
AcDbVertex
100
AcDb2dVertex
 10
1580.927048
 20
1483.973478
 30
0.0
  0
VERTEX
  5
2B3
100
AcDbEntity
  8
タンク
  6
CONTINUOUS
 62
     6
100
AcDbVertex
100
AcDb2dVertex
 10
1581.176376
 20
1484.0426
 30
0.0
  0
VERTEX
  5
2B4
100
AcDbEntity
  8
タンク
  6
CONTINUOUS
 62
     6
100
AcDbVertex
100
AcDb2dVertex
 10
1581.355667
 20
1484.113096
 30
0.0
  0
VERTEX
  5
2B5
100
AcDbEntity
  8
タンク
  6
CONTINUOUS
 62
     6
100
AcDbVertex
100
AcDb2dVertex
 10
1581.463852
 20
1484.18466
 30
0.0
  0
VERTEX
  5
2B6
100
AcDbEntity
  8
タンク
  6
CONTINUOUS
 62
     6
100
AcDbVertex
100
AcDb2dVertex
 10
1581.500015
 20
1484.257139
 30
0.0
  0
VERTEX
  5
2B7
100
AcDbEntity
  8
タンク
  6
CONTINUOUS
 62
     6
100
AcDbVertex
100
AcDb2dVertex
 10
1581.463852
 20
1484.329313
 30
0.0
  0
VERTEX
  5
2B8
100
AcDbEntity
  8
タンク
  6
CONTINUOUS
 62
     6
100
AcDbVertex
100
AcDb2dVertex
 10
1581.355667
 20
1484.401182
 30
0.0
  0
VERTEX
  5
2B9
100
AcDbEntity
  8
タンク
  6
CONTINUOUS
 62
     6
100
AcDbVertex
100
AcDb2dVertex
 10
1581.176376
 20
1484.471372
 30
0.0
  0
VERTEX
  5
2BA
100
AcDbEntity
  8
タンク
  6
CONTINUOUS
 62
     6
100
AcDbVertex
100
AcDb2dVertex
 10
1580.927048
 20
1484.54019
 30
0.0
  0
VERTEX
  5
2BB
100
AcDbEntity
  8
タンク
  6
CONTINUOUS
 62
     6
100
AcDbVertex
100
AcDb2dVertex
 10
1580.60997
 20
1484.60687
 30
0.0
  0
VERTEX
  5
2BC
100
AcDbEntity
  8
タンク
  6
CONTINUOUS
 62
     6
100
AcDbVertex
100
AcDb2dVertex
 10
1580.22728
 20
1484.670957
 30
0.0
  0
VERTEX
  5
2BD
100
AcDbEntity
  8
タンク
  6
CONTINUOUS
 62
     6
100
AcDbVertex
100
AcDb2dVertex
 10
1579.781875
 20
1484.73184
 30
0.0
  0
VERTEX
  5
2BE
100
AcDbEntity
  8
タンク
  6
CONTINUOUS
 62
     6
100
AcDbVertex
100
AcDb2dVertex
 10
1579.27742
 20
1484.789213
 30
0.0
  0
VERTEX
  5
2BF
100
AcDbEntity
  8
タンク
  6
CONTINUOUS
 62
     6
100
AcDbVertex
100
AcDb2dVertex
 10
1578.717575
 20
1484.842466
 30
0.0
  0
VERTEX
  5
2C0
100
AcDbEntity
  8
タンク
  6
CONTINUOUS
 62
     6
100
AcDbVertex
100
AcDb2dVertex
 10
1578.10646
 20
1484.891294
 30
0.0
  0
VERTEX
  5
2C1
100
AcDbEntity
  8
タンク
  6
CONTINUOUS
 62
     6
100
AcDbVertex
100
AcDb2dVertex
 10
1577.448959
 20
1484.935087
 30
0.0
  0
VERTEX
  5
2C2
100
AcDbEntity
  8
タンク
  6
CONTINUOUS
 62
     6
100
AcDbVertex
100
AcDb2dVertex
 10
1576.750107
 20
1484.974149
 30
0.0
  0
VERTEX
  5
2C3
100
AcDbEntity
  8
タンク
  6
CONTINUOUS
 62
     6
100
AcDbVertex
100
AcDb2dVertex
 10
1576.014938
 20
1485.007566
 30
0.0
  0
VERTEX
  5
2C4
100
AcDbEntity
  8
タンク
  6
CONTINUOUS
 62
     6
100
AcDbVertex
100
AcDb2dVertex
 10
1575.249252
 20
1485.03549
 30
0.0
  0
VERTEX
  5
2C5
100
AcDbEntity
  8
タンク
  6
CONTINUOUS
 62
     6
100
AcDbVertex
100
AcDb2dVertex
 10
1574.458847
 20
1485.056852
 30
0.0
  0
VERTEX
  5
2C6
100
AcDbEntity
  8
タンク
  6
CONTINUOUS
 62
     6
100
AcDbVertex
100
AcDb2dVertex
 10
1573.649673
 20
1485.072569
 30
0.0
  0
VERTEX
  5
2C7
100
AcDbEntity
  8
タンク
  6
CONTINUOUS
 62
     6
100
AcDbVertex
100
AcDb2dVertex
 10
1572.82814
 20
1485.082029
 30
0.0
  0
VERTEX
  5
2C8
100
AcDbEntity
  8
タンク
  6
CONTINUOUS
 62
     6
100
AcDbVertex
100
AcDb2dVertex
 10
1572.000046
 20
1485.084928
 30
0.0
  0
VERTEX
  5
2C9
100
AcDbEntity
  8
タンク
  6
CONTINUOUS
 62
     6
100
AcDbVertex
100
AcDb2dVertex
 10
1571.172104
 20
1485.081724
 30
0.0
  0
VERTEX
  5
2CA
100
AcDbEntity
  8
タンク
  6
CONTINUOUS
 62
     6
100
AcDbVertex
100
AcDb2dVertex
 10
1570.350418
 20
1485.072111
 30
0.0
  0
VERTEX
  5
2CB
100
AcDbEntity
  8
タンク
  6
CONTINUOUS
 62
     6
100
AcDbVertex
100
AcDb2dVertex
 10
1569.541244
 20
1485.056852
 30
0.0
  0
VERTEX
  5
2CC
100
AcDbEntity
  8
タンク
  6
CONTINUOUS
 62
     6
100
AcDbVertex
100
AcDb2dVertex
 10
1568.750839
 20
1485.035185
 30
0.0
  0
VERTEX
  5
2CD
100
AcDbEntity
  8
タンク
  6
CONTINUOUS
 62
     6
100
AcDbVertex
100
AcDb2dVertex
 10
1567.985153
 20
1485.007566
 30
0.0
  0
SEQEND
  5
2CE
100
AcDbEntity
  8
タンク
  6
CONTINUOUS
 62
     6
  0
POLYLINE
  5
2CF
100
AcDbEntity
  8
タンク
  6
CONTINUOUS
 62
     6
100
AcDb2dPolyline
 66
     1
 10
0.0
 20
0.0
 30
0.0
 70
   128
  0
VERTEX
  5
2D0
100
AcDbEntity
  8
タンク
  6
CONTINUOUS
 62
     6
100
AcDbVertex
100
AcDb2dVertex
 10
1567.985153
 20
1485.007566
 30
0.0
  0
VERTEX
  5
2D1
100
AcDbEntity
  8
タンク
  6
CONTINUOUS
 62
     6
100
AcDbVertex
100
AcDb2dVertex
 10
1567.250137
 20
1484.974149
 30
0.0
  0
VERTEX
  5
2D2
100
AcDbEntity
  8
タンク
  6
CONTINUOUS
 62
     6
100
AcDbVertex
100
AcDb2dVertex
 10
1566.551285
 20
1484.935392
 30
0.0
  0
VERTEX
  5
2D3
100
AcDbEntity
  8
タンク
  6
CONTINUOUS
 62
     6
100
AcDbVertex
100
AcDb2dVertex
 10
1565.893783
 20
1484.891599
 30
0.0
  0
VERTEX
  5
2D4
100
AcDbEntity
  8
タンク
  6
CONTINUOUS
 62
     6
100
AcDbVertex
100
AcDb2dVertex
 10
1565.282516
 20
1484.842466
 30
0.0
  0
VERTEX
  5
2D5
100
AcDbEntity
  8
タンク
  6
CONTINUOUS
 62
     6
100
AcDbVertex
100
AcDb2dVertex
 10
1564.722671
 20
1484.789213
 30
0.0
  0
VERTEX
  5
2D6
100
AcDbEntity
  8
タンク
  6
CONTINUOUS
 62
     6
100
AcDbVertex
100
AcDb2dVertex
 10
1564.218216
 20
1484.73184
 30
0.0
  0
VERTEX
  5
2D7
100
AcDbEntity
  8
タンク
  6
CONTINUOUS
 62
     6
100
AcDbVertex
100
AcDb2dVertex
 10
1563.772812
 20
1484.670957
 30
0.0
  0
VERTEX
  5
2D8
100
AcDbEntity
  8
タンク
  6
CONTINUOUS
 62
     6
100
AcDbVertex
100
AcDb2dVertex
 10
1563.390274
 20
1484.60687
 30
0.0
  0
VERTEX
  5
2D9
100
AcDbEntity
  8
タンク
  6
CONTINUOUS
 62
     6
100
AcDbVertex
100
AcDb2dVertex
 10
1563.073044
 20
1484.54019
 30
0.0
  0
VERTEX
  5
2DA
100
AcDbEntity
  8
タンク
  6
CONTINUOUS
 62
     6
100
AcDbVertex
100
AcDb2dVertex
 10
1562.823868
 20
1484.471372
 30
0.0
  0
SEQEND
  5
2DB
100
AcDbEntity
  8
タンク
  6
CONTINUOUS
 62
     6
  0
POLYLINE
  5
2DC
100
AcDbEntity
  8
タンク
  6
CONTINUOUS
 62
     6
100
AcDb2dPolyline
 66
     1
 10
0.0
 20
0.0
 30
0.0
 70
   128
  0
VERTEX
  5
2DD
100
AcDbEntity
  8
タンク
  6
CONTINUOUS
 62
     6
100
AcDbVertex
100
AcDb2dVertex
 10
1562.823868
 20
1484.471372
 30
0.0
  0
VERTEX
  5
2DE
100
AcDbEntity
  8
タンク
  6
CONTINUOUS
 62
     6
100
AcDbVertex
100
AcDb2dVertex
 10
1562.644577
 20
1484.400877
 30
0.0
  0
VERTEX
  5
2DF
100
AcDbEntity
  8
タンク
  6
CONTINUOUS
 62
     6
100
AcDbVertex
100
AcDb2dVertex
 10
1562.536392
 20
1484.32916
 30
0.0
  0
VERTEX
  5
2E0
100
AcDbEntity
  8
タンク
  6
CONTINUOUS
 62
     6
100
AcDbVertex
100
AcDb2dVertex
 10
1562.500076
 20
1484.256834
 30
0.0
  0
SEQEND
  5
2E1
100
AcDbEntity
  8
タンク
  6
CONTINUOUS
 62
     6
  0
POLYLINE
  5
2E2
100
AcDbEntity
  8
タンク
  6
CONTINUOUS
 62
     6
100
AcDb2dPolyline
 66
     1
 10
0.0
 20
0.0
 30
0.0
 70
   128
  0
VERTEX
  5
2E3
100
AcDbEntity
  8
タンク
  6
CONTINUOUS
 62
     6
100
AcDbVertex
100
AcDb2dVertex
 10
1583.500137
 20
1489.238066
 30
0.0
  0
VERTEX
  5
2E4
100
AcDbEntity
  8
タンク
  6
CONTINUOUS
 62
     6
100
AcDbVertex
100
AcDb2dVertex
 10
1583.456344
 20
1489.325346
 30
0.0
  0
VERTEX
  5
2E5
100
AcDbEntity
  8
タンク
  6
CONTINUOUS
 62
     6
100
AcDbVertex
100
AcDb2dVertex
 10
1583.325271
 20
1489.412016
 30
0.0
  0
VERTEX
  5
2E6
100
AcDbEntity
  8
タンク
  6
CONTINUOUS
 62
     6
100
AcDbVertex
100
AcDb2dVertex
 10
1583.108139
 20
1489.497618
 30
0.0
  0
VERTEX
  5
2E7
100
AcDbEntity
  8
タンク
  6
CONTINUOUS
 62
     6
100
AcDbVertex
100
AcDb2dVertex
 10
1582.80632
 20
1489.581083
 30
0.0
  0
VERTEX
  5
2E8
100
AcDbEntity
  8
タンク
  6
CONTINUOUS
 62
     6
100
AcDbVertex
100
AcDb2dVertex
 10
1582.422409
 20
1489.661955
 30
0.0
  0
VERTEX
  5
2E9
100
AcDbEntity
  8
タンク
  6
CONTINUOUS
 62
     6
100
AcDbVertex
100
AcDb2dVertex
 10
1581.959305
 20
1489.739164
 30
0.0
  0
VERTEX
  5
2EA
100
AcDbEntity
  8
タンク
  6
CONTINUOUS
 62
     6
100
AcDbVertex
100
AcDb2dVertex
 10
1581.420212
 20
1489.812864
 30
0.0
  0
VERTEX
  5
2EB
100
AcDbEntity
  8
タンク
  6
CONTINUOUS
 62
     6
100
AcDbVertex
100
AcDb2dVertex
 10
1580.809402
 20
1489.882139
 30
0.0
  0
VERTEX
  5
2EC
100
AcDbEntity
  8
タンク
  6
CONTINUOUS
 62
     6
100
AcDbVertex
100
AcDb2dVertex
 10
1580.13176
 20
1489.946684
 30
0.0
  0
VERTEX
  5
2ED
100
AcDbEntity
  8
タンク
  6
CONTINUOUS
 62
     6
100
AcDbVertex
100
AcDb2dVertex
 10
1579.392013
 20
1490.005735
 30
0.0
  0
VERTEX
  5
2EE
100
AcDbEntity
  8
タンク
  6
CONTINUOUS
 62
     6
100
AcDbVertex
100
AcDb2dVertex
 10
1578.596115
 20
1490.058836
 30
0.0
  0
VERTEX
  5
2EF
100
AcDbEntity
  8
タンク
  6
CONTINUOUS
 62
     6
100
AcDbVertex
100
AcDb2dVertex
 10
1577.750015
 20
1490.106138
 30
0.0
  0
VERTEX
  5
2F0
100
AcDbEntity
  8
タンク
  6
CONTINUOUS
 62
     6
100
AcDbVertex
100
AcDb2dVertex
 10
1576.860123
 20
1490.146574
 30
0.0
  0
VERTEX
  5
2F1
100
AcDbEntity
  8
タンク
  6
CONTINUOUS
 62
     6
100
AcDbVertex
100
AcDb2dVertex
 10
1575.933151
 20
1490.179991
 30
0.0
  0
VERTEX
  5
2F2
100
AcDbEntity
  8
タンク
  6
CONTINUOUS
 62
     6
100
AcDbVertex
100
AcDb2dVertex
 10
1574.976425
 20
1490.206236
 30
0.0
  0
VERTEX
  5
2F3
100
AcDbEntity
  8
タンク
  6
CONTINUOUS
 62
     6
100
AcDbVertex
100
AcDb2dVertex
 10
1573.996963
 20
1490.225157
 30
0.0
  0
VERTEX
  5
2F4
100
AcDbEntity
  8
タンク
  6
CONTINUOUS
 62
     6
100
AcDbVertex
100
AcDb2dVertex
 10
1573.002243
 20
1490.236601
 30
0.0
  0
VERTEX
  5
2F5
100
AcDbEntity
  8
タンク
  6
CONTINUOUS
 62
     6
100
AcDbVertex
100
AcDb2dVertex
 10
1572.000046
 20
1490.24011
 30
0.0
  0
VERTEX
  5
2F6
100
AcDbEntity
  8
タンク
  6
CONTINUOUS
 62
     6
100
AcDbVertex
100
AcDb2dVertex
 10
1570.997848
 20
1490.236295
 30
0.0
  0
VERTEX
  5
2F7
100
AcDbEntity
  8
タンク
  6
CONTINUOUS
 62
     6
100
AcDbVertex
100
AcDb2dVertex
 10
1570.003128
 20
1490.224699
 30
0.0
  0
VERTEX
  5
2F8
100
AcDbEntity
  8
タンク
  6
CONTINUOUS
 62
     6
100
AcDbVertex
100
AcDb2dVertex
 10
1569.023666
 20
1490.206236
 30
0.0
  0
VERTEX
  5
2F9
100
AcDbEntity
  8
タンク
  6
CONTINUOUS
 62
     6
100
AcDbVertex
100
AcDb2dVertex
 10
1568.06694
 20
1490.179991
 30
0.0
  0
VERTEX
  5
2FA
100
AcDbEntity
  8
タンク
  6
CONTINUOUS
 62
     6
100
AcDbVertex
100
AcDb2dVertex
 10
1567.139969
 20
1490.146421
 30
0.0
  0
VERTEX
  5
2FB
100
AcDbEntity
  8
タンク
  6
CONTINUOUS
 62
     6
100
AcDbVertex
100
AcDb2dVertex
 10
1566.250076
 20
1490.106138
 30
0.0
  0
VERTEX
  5
2FC
100
AcDbEntity
  8
タンク
  6
CONTINUOUS
 62
     6
100
AcDbVertex
100
AcDb2dVertex
 10
1565.403976
 20
1490.059141
 30
0.0
  0
VERTEX
  5
2FD
100
AcDbEntity
  8
タンク
  6
CONTINUOUS
 62
     6
100
AcDbVertex
100
AcDb2dVertex
 10
1564.608078
 20
1490.00604
 30
0.0
  0
VERTEX
  5
2FE
100
AcDbEntity
  8
タンク
  6
CONTINUOUS
 62
     6
100
AcDbVertex
100
AcDb2dVertex
 10
1563.868332
 20
1489.946684
 30
0.0
  0
VERTEX
  5
2FF
100
AcDbEntity
  8
タンク
  6
CONTINUOUS
 62
     6
100
AcDbVertex
100
AcDb2dVertex
 10
1563.190689
 20
1489.882139
 30
0.0
  0
VERTEX
  5
300
100
AcDbEntity
  8
タンク
  6
CONTINUOUS
 62
     6
100
AcDbVertex
100
AcDb2dVertex
 10
1562.57988
 20
1489.812712
 30
0.0
  0
VERTEX
  5
301
100
AcDbEntity
  8
タンク
  6
CONTINUOUS
 62
     6
100
AcDbVertex
100
AcDb2dVertex
 10
1562.040787
 20
1489.739164
 30
0.0
  0
VERTEX
  5
302
100
AcDbEntity
  8
タンク
  6
CONTINUOUS
 62
     6
100
AcDbVertex
100
AcDb2dVertex
 10
1561.577682
 20
1489.661649
 30
0.0
  0
VERTEX
  5
303
100
AcDbEntity
  8
タンク
  6
CONTINUOUS
 62
     6
100
AcDbVertex
100
AcDb2dVertex
 10
1561.193619
 20
1489.580778
 30
0.0
  0
VERTEX
  5
304
100
AcDbEntity
  8
タンク
  6
CONTINUOUS
 62
     6
100
AcDbVertex
100
AcDb2dVertex
 10
1560.8918
 20
1489.497618
 30
0.0
  0
VERTEX
  5
305
100
AcDbEntity
  8
タンク
  6
CONTINUOUS
 62
     6
100
AcDbVertex
100
AcDb2dVertex
 10
1560.67482
 20
1489.412321
 30
0.0
  0
VERTEX
  5
306
100
AcDbEntity
  8
タンク
  6
CONTINUOUS
 62
     6
100
AcDbVertex
100
AcDb2dVertex
 10
1560.543747
 20
1489.325651
 30
0.0
  0
VERTEX
  5
307
100
AcDbEntity
  8
タンク
  6
CONTINUOUS
 62
     6
100
AcDbVertex
100
AcDb2dVertex
 10
1560.499954
 20
1489.238523
 30
0.0
  0
SEQEND
  5
308
100
AcDbEntity
  8
タンク
  6
CONTINUOUS
 62
     6
  0
LINE
  5
309
100
AcDbEntity
  8
タンク
  6
CONTINUOUS
 62
     6
100
AcDbLine
 10
1583.499985
 20
1489.237913
 30
0.0
 11
1581.500015
 21
1484.256834
 31
0.0
  0
LINE
  5
30A
100
AcDbEntity
  8
タンク
  6
CONTINUOUS
 62
     6
100
AcDbLine
 10
1562.500076
 20
1484.256834
 30
0.0
 11
1560.500107
 21
1489.237913
 31
0.0
  0
POLYLINE
  5
30B
100
AcDbEntity
  8
タンク
  6
CONTINUOUS
 62
     6
100
AcDb2dPolyline
 66
     1
 10
0.0
 20
0.0
 30
0.0
 70
   128
  0
VERTEX
  5
30C
100
AcDbEntity
  8
タンク
  6
CONTINUOUS
 62
     6
100
AcDbVertex
100
AcDb2dVertex
 10
1587.999954
 20
1489.238066
 30
0.0
  0
VERTEX
  5
30D
100
AcDbEntity
  8
タンク
  6
CONTINUOUS
 62
     6
100
AcDbVertex
100
AcDb2dVertex
 10
1587.938919
 20
1489.359678
 30
0.0
  0
VERTEX
  5
30E
100
AcDbEntity
  8
タンク
  6
CONTINUOUS
 62
     6
100
AcDbVertex
100
AcDb2dVertex
 10
1587.756729
 20
1489.480222
 30
0.0
  0
VERTEX
  5
30F
100
AcDbEntity
  8
タンク
  6
CONTINUOUS
 62
     6
100
AcDbVertex
100
AcDb2dVertex
 10
1587.45491
 20
1489.598936
 30
0.0
  0
VERTEX
  5
310
100
AcDbEntity
  8
タンク
  6
CONTINUOUS
 62
     6
100
AcDbVertex
100
AcDb2dVertex
 10
1587.035141
 20
1489.714903
 30
0.0
  0
VERTEX
  5
311
100
AcDbEntity
  8
タンク
  6
CONTINUOUS
 62
     6
100
AcDbVertex
100
AcDb2dVertex
 10
1586.500931
 20
1489.82736
 30
0.0
  0
VERTEX
  5
312
100
AcDbEntity
  8
タンク
  6
CONTINUOUS
 62
     6
100
AcDbVertex
100
AcDb2dVertex
 10
1585.856552
 20
1489.93524
 30
0.0
  0
VERTEX
  5
313
100
AcDbEntity
  8
タンク
  6
CONTINUOUS
 62
     6
100
AcDbVertex
100
AcDb2dVertex
 10
1585.10643
 20
1490.037779
 30
0.0
  0
VERTEX
  5
314
100
AcDbEntity
  8
タンク
  6
CONTINUOUS
 62
     6
100
AcDbVertex
100
AcDb2dVertex
 10
1584.256668
 20
1490.134214
 30
0.0
  0
VERTEX
  5
315
100
AcDbEntity
  8
タンク
  6
CONTINUOUS
 62
     6
100
AcDbVertex
100
AcDb2dVertex
 10
1583.313675
 20
1490.223936
 30
0.0
  0
VERTEX
  5
316
100
AcDbEntity
  8
タンク
  6
CONTINUOUS
 62
     6
100
AcDbVertex
100
AcDb2dVertex
 10
1582.284469
 20
1490.306028
 30
0.0
  0
VERTEX
  5
317
100
AcDbEntity
  8
タンク
  6
CONTINUOUS
 62
     6
100
AcDbVertex
100
AcDb2dVertex
 10
1581.177139
 20
1490.380033
 30
0.0
  0
VERTEX
  5
318
100
AcDbEntity
  8
タンク
  6
CONTINUOUS
 62
     6
100
AcDbVertex
100
AcDb2dVertex
 10
1579.999924
 20
1490.445799
 30
0.0
  0
VERTEX
  5
319
100
AcDbEntity
  8
タンク
  6
CONTINUOUS
 62
     6
100
AcDbVertex
100
AcDb2dVertex
 10
1578.761825
 20
1490.501951
 30
0.0
  0
VERTEX
  5
31A
100
AcDbEntity
  8
タンク
  6
CONTINUOUS
 62
     6
100
AcDbVertex
100
AcDb2dVertex
 10
1577.472153
 20
1490.548795
 30
0.0
  0
VERTEX
  5
31B
100
AcDbEntity
  8
タンク
  6
CONTINUOUS
 62
     6
100
AcDbVertex
100
AcDb2dVertex
 10
1576.141128
 20
1490.584959
 30
0.0
  0
VERTEX
  5
31C
100
AcDbEntity
  8
タンク
  6
CONTINUOUS
 62
     6
100
AcDbVertex
100
AcDb2dVertex
 10
1574.778366
 20
1490.611204
 30
0.0
  0
VERTEX
  5
31D
100
AcDbEntity
  8
タンク
  6
CONTINUOUS
 62
     6
100
AcDbVertex
100
AcDb2dVertex
 10
1573.394546
 20
1490.627073
 30
0.0
  0
VERTEX
  5
31E
100
AcDbEntity
  8
タンク
  6
CONTINUOUS
 62
     6
100
AcDbVertex
100
AcDb2dVertex
 10
1572.000046
 20
1490.632566
 30
0.0
  0
VERTEX
  5
31F
100
AcDbEntity
  8
タンク
  6
CONTINUOUS
 62
     6
100
AcDbVertex
100
AcDb2dVertex
 10
1570.605545
 20
1490.627226
 30
0.0
  0
VERTEX
  5
320
100
AcDbEntity
  8
タンク
  6
CONTINUOUS
 62
     6
100
AcDbVertex
100
AcDb2dVertex
 10
1569.221725
 20
1490.611204
 30
0.0
  0
VERTEX
  5
321
100
AcDbEntity
  8
タンク
  6
CONTINUOUS
 62
     6
100
AcDbVertex
100
AcDb2dVertex
 10
1567.858963
 20
1490.584959
 30
0.0
  0
VERTEX
  5
322
100
AcDbEntity
  8
タンク
  6
CONTINUOUS
 62
     6
100
AcDbVertex
100
AcDb2dVertex
 10
1566.527786
 20
1490.548338
 30
0.0
  0
VERTEX
  5
323
100
AcDbEntity
  8
タンク
  6
CONTINUOUS
 62
     6
100
AcDbVertex
100
AcDb2dVertex
 10
1565.238266
 20
1490.501646
 30
0.0
  0
VERTEX
  5
324
100
AcDbEntity
  8
タンク
  6
CONTINUOUS
 62
     6
100
AcDbVertex
100
AcDb2dVertex
 10
1564.000015
 20
1490.445799
 30
0.0
  0
VERTEX
  5
325
100
AcDbEntity
  8
タンク
  6
CONTINUOUS
 62
     6
100
AcDbVertex
100
AcDb2dVertex
 10
1562.822952
 20
1490.380491
 30
0.0
  0
VERTEX
  5
326
100
AcDbEntity
  8
タンク
  6
CONTINUOUS
 62
     6
100
AcDbVertex
100
AcDb2dVertex
 10
1561.715469
 20
1490.306486
 30
0.0
  0
VERTEX
  5
327
100
AcDbEntity
  8
タンク
  6
CONTINUOUS
 62
     6
100
AcDbVertex
100
AcDb2dVertex
 10
1560.686264
 20
1490.223936
 30
0.0
  0
VERTEX
  5
328
100
AcDbEntity
  8
タンク
  6
CONTINUOUS
 62
     6
100
AcDbVertex
100
AcDb2dVertex
 10
1559.743423
 20
1490.134214
 30
0.0
  0
VERTEX
  5
329
100
AcDbEntity
  8
タンク
  6
CONTINUOUS
 62
     6
100
AcDbVertex
100
AcDb2dVertex
 10
1558.893661
 20
1490.037626
 30
0.0
  0
VERTEX
  5
32A
100
AcDbEntity
  8
タンク
  6
CONTINUOUS
 62
     6
100
AcDbVertex
100
AcDb2dVertex
 10
1558.143692
 20
1489.93524
 30
0.0
  0
VERTEX
  5
32B
100
AcDbEntity
  8
タンク
  6
CONTINUOUS
 62
     6
100
AcDbVertex
100
AcDb2dVertex
 10
1557.499313
 20
1489.82736
 30
0.0
  0
VERTEX
  5
32C
100
AcDbEntity
  8
タンク
  6
CONTINUOUS
 62
     6
100
AcDbVertex
100
AcDb2dVertex
 10
1556.965256
 20
1489.714903
 30
0.0
  0
VERTEX
  5
32D
100
AcDbEntity
  8
タンク
  6
CONTINUOUS
 62
     6
100
AcDbVertex
100
AcDb2dVertex
 10
1556.545334
 20
1489.598936
 30
0.0
  0
VERTEX
  5
32E
100
AcDbEntity
  8
タンク
  6
CONTINUOUS
 62
     6
100
AcDbVertex
100
AcDb2dVertex
 10
1556.243362
 20
1489.480222
 30
0.0
  0
VERTEX
  5
32F
100
AcDbEntity
  8
タンク
  6
CONTINUOUS
 62
     6
100
AcDbVertex
100
AcDb2dVertex
 10
1556.061172
 20
1489.359525
 30
0.0
  0
VERTEX
  5
330
100
AcDbEntity
  8
タンク
  6
CONTINUOUS
 62
     6
100
AcDbVertex
100
AcDb2dVertex
 10
1556.000137
 20
1489.237913
 30
0.0
  0
SEQEND
  5
331
100
AcDbEntity
  8
タンク
  6
CONTINUOUS
 62
     6
  0
LINE
  5
332
100
AcDbEntity
  8
タンク
  6
CONTINUOUS
 62
     6
100
AcDbLine
 10
1588.000107
 20
1489.237913
 30
0.0
 11
1590.000076
 21
1483.485655
 31
0.0
  0
LINE
  5
333
100
AcDbEntity
  8
タンク
  6
CONTINUOUS
 62
     6
100
AcDbLine
 10
1555.999985
 20
1489.237913
 30
0.0
 11
1554.000015
 21
1483.485655
 31
0.0
  0
ARC
  5
334
100
AcDbEntity
  8
タンク
  6
CONTINUOUS
 62
     6
100
AcDbCircle
 10
1572.000046
 20
1491.455015
 30
0.0
 40
16.000061
100
AcDbArc
 50
0.0
 51
180.000015
  0
ARC
  5
335
100
AcDbEntity
  8
タンク
  6
CONTINUOUS
 62
     6
100
AcDbCircle
 10
1587.938309
 20
1484.290098
 30
0.0
 40
2.000038
100
AcDbArc
 50
316.425064
 51
4.037964
  0
ARC
  5
336
100
AcDbEntity
  8
タンク
  6
CONTINUOUS
 62
     6
100
AcDbCircle
 10
1556.061783
 20
1484.290098
 30
0.0
 40
2.000052
100
AcDbArc
 50
175.962051
 51
223.574844
  0
ARC
  5
337
100
AcDbEntity
  8
タンク
  6
CONTINUOUS
 62
     6
100
AcDbCircle
 10
1572.000046
 20
1499.454893
 30
0.0
 40
24.000025
100
AcDbArc
 50
223.575394
 51
316.424576
  0
LINE
  5
338
100
AcDbEntity
  8
タンク
  6
CONTINUOUS
 62
     6
100
AcDbLine
 10
1589.933395
 20
1484.430937
 30
0.0
 11
1589.456711
 21
1491.186765
 31
0.0
  0
ARC
  5
339
100
AcDbEntity
  8
タンク
  6
CONTINUOUS
 62
     6
100
AcDbCircle
 10
1572.000046
 20
1489.955076
 30
0.0
 40
17.500067
100
AcDbArc
 50
4.035928
 51
175.964081
  0
LINE
  5
33A
100
AcDbEntity
  8
タンク
  6
CONTINUOUS
 62
     6
100
AcDbLine
 10
1554.066696
 20
1484.430937
 30
0.0
 11
1554.543381
 21
1491.186765
 31
0.0
  0
LINE
  5
33B
100
AcDbEntity
  8
タンク
  6
CONTINUOUS
 62
     6
100
AcDbLine
 10
1588.000107
 20
1491.455015
 30
0.0
 11
1588.000107
 21
1489.237913
 31
0.0
  0
LINE
  5
33C
100
AcDbEntity
  8
タンク
  6
CONTINUOUS
 62
     6
100
AcDbLine
 10
1555.999985
 20
1491.455015
 30
0.0
 11
1555.999985
 21
1489.237913
 31
0.0
  0
ARC
  5
33D
100
AcDbEntity
  8
タンク
  6
CONTINUOUS
 62
     7
100
AcDbCircle
 10
1431.113511
 20
1426.767664
 30
0.0
 40
60.0
100
AcDbArc
 50
121.885703
 51
168.317333
  0
ARC
  5
33E
100
AcDbEntity
  8
タンク
  6
CONTINUOUS
 62
     7
100
AcDbCircle
 10
1712.886545
 20
1426.767686
 30
0.0
 40
60.0
100
AcDbArc
 50
11.682691
 51
58.11431
  0
LINE
  5
33F
100
AcDbEntity
  8
タンク
  6
CONTINUOUS
 62
     7
100
AcDbLine
 10
1362.0
 20
1336.455015
 30
0.0
 11
1782.000092
 21
1336.455168
 31
0.0
  0
ARC
  5
340
100
AcDbEntity
  8
タンク
  6
CONTINUOUS
 62
     7
100
AcDbCircle
 10
1371.275925
 20
1394.481596
 30
0.0
 40
6.000043
100
AcDbArc
 50
87.702942
 51
173.3964
  0
LINE
  5
341
100
AcDbEntity
  8
タンク
  6
CONTINUOUS
 62
     6
100
AcDbLine
 10
1778.135805
 20
1283.509705
 30
0.0
 11
1778.135805
 21
1319.391154
 31
0.0
  0
LINE
  5
342
100
AcDbEntity
  8
タンク
  6
CONTINUOUS
 62
     6
100
AcDbLine
 10
1803.412703
 20
1250.770437
 30
0.0
 11
1783.203805
 21
1250.770437
 31
0.0
  0
LINE
  5
343
100
AcDbEntity
  8
タンク
  6
CONTINUOUS
 62
     6
100
AcDbLine
 10
1797.166108
 20
1319.695237
 30
0.0
 11
1778.439873
 21
1319.695237
 31
0.0
  0
LINE
  5
344
100
AcDbEntity
  8
タンク
  6
CONTINUOUS
 62
     6
100
AcDbLine
 10
1783.203805
 20
1267.971509
 30
0.0
 11
1783.203805
 21
1250.770437
 31
0.0
  0
ARC
  5
345
100
AcDbEntity
  8
タンク
  6
CONTINUOUS
 62
     6
100
AcDbCircle
 10
1783.507873
 20
1251.074443
 30
0.0
 40
0.30408
100
AcDbArc
 50
180.005127
 51
270.056458
  0
ARC
  5
346
100
AcDbEntity
  8
タンク
  6
CONTINUOUS
 62
     6
100
AcDbCircle
 10
1767.999805
 20
1301.450437
 30
0.0
 40
36.4896
100
AcDbArc
 50
10.758698
 51
25.944489
  0
ARC
  5
347
100
AcDbEntity
  8
タンク
  6
CONTINUOUS
 62
     6
100
AcDbCircle
 10
1797.166108
 20
1315.640837
 30
0.0
 40
4.0544
100
AcDbArc
 50
25.944489
 51
90.0
  0
ARC
  5
348
100
AcDbEntity
  8
タンク
  6
CONTINUOUS
 62
     6
100
AcDbCircle
 10
1803.412703
 20
1254.824837
 30
0.0
 40
4.0544
100
AcDbArc
 50
270.0
 51
328.506104
  0
ARC
  5
349
100
AcDbEntity
  8
タンク
  6
CONTINUOUS
 62
     6
100
AcDbCircle
 10
1791.312605
 20
1262.238025
 30
0.0
 40
18.2448
100
AcDbArc
 50
328.506104
 51
3.653961
  0
ARC
  5
34A
100
AcDbEntity
  8
タンク
  6
CONTINUOUS
 62
     6
100
AcDbCircle
 10
1445.366112
 20
1240.145764
 30
0.0
 40
364.896
100
AcDbArc
 50
3.653961
 51
10.758698
  0
ARC
  5
34B
100
AcDbEntity
  8
タンク
  6
CONTINUOUS
 62
     6
100
AcDbCircle
 10
1756.850237
 20
1267.971509
 30
0.0
 40
26.353569
100
AcDbArc
 50
0.0
 51
36.128998
  0
LINE
  5
34C
100
AcDbEntity
  8
タンク
  6
CONTINUOUS
 62
     6
100
AcDbLine
 10
1358.198144
 20
1295.208525
 30
0.0
 11
1359.698144
 21
1293.708525
 31
0.0
  0
LINE
  5
34D
100
AcDbEntity
  8
タンク
  6
CONTINUOUS
 62
     6
100
AcDbLine
 10
1359.698144
 20
1293.708525
 30
0.0
 11
1365.698144
 21
1293.708525
 31
0.0
  0
LINE
  5
34E
100
AcDbEntity
  8
タンク
  6
CONTINUOUS
 62
     6
100
AcDbLine
 10
1365.698144
 20
1288.708525
 30
0.0
 11
1367.198144
 21
1288.708525
 31
0.0
  0
LINE
  5
34F
100
AcDbEntity
  8
タンク
  6
CONTINUOUS
 62
     6
100
AcDbLine
 10
1365.198144
 20
1319.208647
 30
0.0
 11
1359.698144
 21
1319.208647
 31
0.0
  0
LINE
  5
350
100
AcDbEntity
  8
タンク
  6
CONTINUOUS
 62
     6
100
AcDbLine
 10
1359.698144
 20
1319.208647
 30
0.0
 11
1358.448144
 21
1317.958647
 31
0.0
  0
LINE
  5
351
100
AcDbEntity
  8
タンク
  6
CONTINUOUS
 62
     6
100
AcDbLine
 10
1358.448144
 20
1317.958647
 30
0.0
 11
1358.198144
 21
1317.708647
 31
0.0
  0
LINE
  5
352
100
AcDbEntity
  8
タンク
  6
CONTINUOUS
 62
     6
100
AcDbLine
 10
1365.198144
 20
1319.208647
 30
0.0
 11
1365.698144
 21
1319.208647
 31
0.0
  0
LINE
  5
353
100
AcDbEntity
  8
タンク
  6
CONTINUOUS
 62
     6
100
AcDbLine
 10
1358.198144
 20
1316.958647
 30
0.0
 11
1345.5
 21
1316.958647
 31
0.0
  0
LINE
  5
354
100
AcDbEntity
  8
タンク
  6
CONTINUOUS
 62
     6
100
AcDbLine
 10
1367.198144
 20
1324.208647
 30
0.0
 11
1365.698144
 21
1324.208647
 31
0.0
  0
LINE
  5
355
100
AcDbEntity
  8
タンク
  6
CONTINUOUS
 62
     6
100
AcDbLine
 10
1358.198144
 20
1317.708647
 30
0.0
 11
1358.198144
 21
1295.208525
 31
0.0
  0
LINE
  5
356
100
AcDbEntity
  8
タンク
  6
CONTINUOUS
 62
     6
100
AcDbLine
 10
1365.698144
 20
1324.208647
 30
0.0
 11
1365.698144
 21
1319.208647
 31
0.0
  0
LINE
  5
357
100
AcDbEntity
  8
タンク
  6
CONTINUOUS
 62
     6
100
AcDbLine
 10
1358.198144
 20
1315.773527
 30
0.0
 11
1345.5
 21
1315.773527
 31
0.0
  0
ARC
  5
358
100
AcDbEntity
  8
タンク
  6
CONTINUOUS
 62
     6
100
AcDbCircle
 10
1362.183221
 20
1316.419599
 30
0.0
 40
3.735467
100
AcDbArc
 50
138.297333
 51
227.514618
  0
LINE
  5
359
100
AcDbEntity
  8
タンク
  6
CONTINUOUS
 62
     6
100
AcDbLine
 10
1359.660272
 20
1313.664884
 30
0.0
 11
1364.698144
 21
1313.664884
 31
0.0
  0
ARC
  5
35A
100
AcDbEntity
  8
タンク
  6
CONTINUOUS
 62
     6
100
AcDbCircle
 10
1364.698144
 20
1314.164884
 30
0.0
 40
0.5
100
AcDbArc
 50
270.0
 51
0.0
  0
LINE
  5
35B
100
AcDbEntity
  8
タンク
  6
CONTINUOUS
 62
     6
100
AcDbLine
 10
1365.198144
 20
1314.164884
 30
0.0
 11
1365.198144
 21
1319.208647
 31
0.0
  0
LINE
  5
35C
100
AcDbEntity
  8
タンク
  6
CONTINUOUS
 62
     6
100
AcDbLine
 10
1359.660272
 20
1313.664884
 30
0.0
 11
1359.660272
 21
1311.964201
 31
0.0
  0
LINE
  5
35D
100
AcDbEntity
  8
タンク
  6
CONTINUOUS
 62
     6
100
AcDbLine
 10
1365.198144
 20
1301.452848
 30
0.0
 11
1365.198144
 21
1311.464201
 31
0.0
  0
ARC
  5
35E
100
AcDbEntity
  8
タンク
  6
CONTINUOUS
 62
     6
100
AcDbCircle
 10
1364.698144
 20
1311.464201
 30
0.0
 40
0.5
100
AcDbArc
 50
0.0
 51
90.0
  0
LINE
  5
35F
100
AcDbEntity
  8
タンク
  6
CONTINUOUS
 62
     6
100
AcDbLine
 10
1364.698144
 20
1311.964201
 30
0.0
 11
1359.660272
 21
1311.964201
 31
0.0
  0
ARC
  5
360
100
AcDbEntity
  8
タンク
  6
CONTINUOUS
 62
     6
100
AcDbCircle
 10
1371.558099
 20
1306.458586
 30
0.0
 40
13.109923
100
AcDbArc
 50
155.168121
 51
204.832514
  0
LINE
  5
361
100
AcDbEntity
  8
タンク
  6
CONTINUOUS
 62
     6
100
AcDbLine
 10
1365.698144
 20
1319.208647
 30
0.0
 11
1365.698144
 21
1288.708525
 31
0.0
  0
LINE
  5
362
100
AcDbEntity
  8
タンク
  6
CONTINUOUS
 62
     6
100
AcDbLine
 10
1365.198144
 20
1298.752165
 30
0.0
 11
1365.198144
 21
1293.708402
 31
0.0
  0
ARC
  5
363
100
AcDbEntity
  8
タンク
  6
CONTINUOUS
 62
     6
100
AcDbCircle
 10
1364.698144
 20
1298.752165
 30
0.0
 40
0.5
100
AcDbArc
 50
0.0
 51
90.0
  0
LINE
  5
364
100
AcDbEntity
  8
タンク
  6
CONTINUOUS
 62
     6
100
AcDbLine
 10
1359.660272
 20
1299.252165
 30
0.0
 11
1364.698144
 21
1299.252165
 31
0.0
  0
ARC
  5
365
100
AcDbEntity
  8
タンク
  6
CONTINUOUS
 62
     6
100
AcDbCircle
 10
1362.183221
 20
1296.49745
 30
0.0
 40
3.735467
100
AcDbArc
 50
132.485382
 51
221.702667
  0
LINE
  5
366
100
AcDbEntity
  8
タンク
  6
CONTINUOUS
 62
     6
100
AcDbLine
 10
1359.660272
 20
1299.252165
 30
0.0
 11
1359.660272
 21
1300.952848
 31
0.0
  0
LINE
  5
367
100
AcDbEntity
  8
タンク
  6
CONTINUOUS
 62
     6
100
AcDbLine
 10
1364.698144
 20
1300.952848
 30
0.0
 11
1359.660272
 21
1300.952848
 31
0.0
  0
ARC
  5
368
100
AcDbEntity
  8
タンク
  6
CONTINUOUS
 62
     6
100
AcDbCircle
 10
1364.698144
 20
1301.452848
 30
0.0
 40
0.5
100
AcDbArc
 50
270.0
 51
0.0
  0
LINE
  5
369
100
AcDbEntity
  8
タンク
  6
CONTINUOUS
 62
     6
100
AcDbLine
 10
1358.198144
 20
1297.143513
 30
0.0
 11
1345.5
 21
1297.143519
 31
0.0
  0
LINE
  5
36A
100
AcDbEntity
  8
タンク
  6
CONTINUOUS
 62
     6
100
AcDbLine
 10
1358.198144
 20
1295.958525
 30
0.0
 11
1345.5
 21
1295.958525
 31
0.0
  0
ARC
  5
36B
100
AcDbEntity
  8
タンク
  6
CONTINUOUS
 62
     7
100
AcDbCircle
 10
3067.581165
 20
1299.350938
 30
0.0
 40
1700.0
100
AcDbArc
 50
181.0
 51
190.553848
  0
ARC
  5
36C
100
AcDbEntity
  8
タンク
  6
CONTINUOUS
 62
     7
100
AcDbCircle
 10
3067.581165
 20
1299.350938
 30
0.0
 40
1700.0
100
AcDbArc
 50
190.707818
 51
190.744549
  0
ARC
  5
36D
100
AcDbEntity
  8
タンク
  6
CONTINUOUS
 62
     7
100
AcDbCircle
 10
76.418835
 20
1299.350938
 30
0.0
 40
1700.0
100
AcDbArc
 50
349.255451
 51
349.292182
  0
ARC
  5
36E
100
AcDbEntity
  8
タンク
  6
CONTINUOUS
 62
     7
100
AcDbCircle
 10
76.418835
 20
1299.350938
 30
0.0
 40
1700.0
100
AcDbArc
 50
349.446152
 51
359.0
  0
LEADER
  5
36F
100
AcDbEntity
  8
止水栓
  6
CONTINUOUS
 62
     6
100
AcDbLeader
  3
STANDARD
 73
     3
 74
     1
 75
     0
 40
0.0
 76
     2
 10
346.08945
 20
2153.880089
 30
0.0
 10
297.897461
 20
2079.296387
 30
0.0
 77
     6
1001
ACAD
1000
DSTYLE
1002
{
1070
    41
1040
35.0
1070
     5
1000
_EX_NORM
1070
     6
1000
_EX_NORM
1070
     7
1000
_EX_NORM
1070
   341
1005
2D
1002
}
  0
LEADER
  5
370
100
AcDbEntity
  8
止水栓
  6
CONTINUOUS
 62
     6
100
AcDbLeader
  3
STANDARD
 73
     3
 74
     1
 75
     0
 40
0.0
 76
     2
 10
594.940314
 20
498.004599
 30
0.0
 10
658.495896
 20
378.767577
 30
0.0
 77
     6
1001
ACAD
1000
DSTYLE
1002
{
1070
    41
1040
35.0
1070
     5
1000
_EX_NORM
1070
     6
1000
_EX_NORM
1070
     7
1000
_EX_NORM
1070
   341
1005
2D
1002
}
  0
LINE
  5
371
100
AcDbEntity
  8
止水栓
  6
CONTINUOUS
 62
     6
100
AcDbLine
 10
350.439707
 20
1108.805521
 30
0.0
 11
350.439707
 21
1108.959329
 31
0.0
  0
LINE
  5
372
100
AcDbEntity
  8
止水栓
  6
CONTINUOUS
 62
     6
100
AcDbLine
 10
350.439707
 20
1108.959329
 30
0.0
 11
352.439219
 21
1108.959329
 31
0.0
  0
ARC
  5
373
100
AcDbEntity
  8
止水栓
  6
CONTINUOUS
 62
     6
100
AcDbCircle
 10
352.439219
 20
1095.958841
 30
0.0
 40
12.999535
100
AcDbArc
 50
23.146301
 51
89.999969
  0
ARC
  5
374
100
AcDbEntity
  8
止水栓
  6
CONTINUOUS
 62
     6
100
AcDbCircle
 10
341.140391
 20
1091.100443
 30
0.0
 40
25.300293
100
AcDbArc
 50
0.0
 51
23.202713
  0
ARC
  5
375
100
AcDbEntity
  8
止水栓
  6
CONTINUOUS
 62
     6
100
AcDbCircle
 10
352.439219
 20
1066.959818
 30
0.0
 40
13.001356
100
AcDbArc
 50
261.153183
 51
336.858627
  0
LINE
  5
376
100
AcDbEntity
  8
止水栓
  6
CONTINUOUS
 62
     6
100
AcDbLine
 10
350.439707
 20
1070.953958
 30
0.0
 11
343.684336
 21
1071.16636
 31
0.0
  0
LINE
  5
377
100
AcDbEntity
  8
止水栓
  6
CONTINUOUS
 62
     6
100
AcDbLine
 10
343.684336
 20
1071.16636
 30
0.0
 11
342.497812
 21
1072.352884
 31
0.0
  0
LINE
  5
378
100
AcDbEntity
  8
止水栓
  6
CONTINUOUS
 62
     6
100
AcDbLine
 10
342.497812
 20
1072.352884
 30
0.0
 11
342.138926
 21
1072.709329
 31
0.0
  0
LINE
  5
379
100
AcDbEntity
  8
止水栓
  6
CONTINUOUS
 62
     6
100
AcDbLine
 10
342.138926
 20
1090.209329
 30
0.0
 11
343.659922
 21
1091.730325
 31
0.0
  0
LINE
  5
37A
100
AcDbEntity
  8
止水栓
  6
CONTINUOUS
 62
     6
100
AcDbLine
 10
343.659922
 20
1091.730325
 30
0.0
 11
350.439707
 21
1091.942728
 31
0.0
  0
LINE
  5
37B
100
AcDbEntity
  8
止水栓
  6
CONTINUOUS
 62
     6
100
AcDbLine
 10
350.439707
 20
1090.756204
 30
0.0
 11
342.434931
 21
1090.505334
 31
0.0
  0
LINE
  5
37C
100
AcDbEntity
  8
止水栓
  6
CONTINUOUS
 62
     6
100
AcDbLine
 10
342.497898
 20
1072.352799
 30
0.0
 11
350.439707
 21
1072.140482
 31
0.0
  0
LINE
  5
37D
100
AcDbEntity
  8
止水栓
  6
CONTINUOUS
 62
     6
100
AcDbLine
 10
366.440684
 20
1070.95988
 30
0.0
 11
418.439219
 21
1070.95988
 31
0.0
  0
ARC
  5
37E
100
AcDbEntity
  8
止水栓
  6
CONTINUOUS
 62
     6
100
AcDbCircle
 10
423.729746
 20
1086.460368
 30
0.0
 40
8.999529
100
AcDbArc
 50
67.07283
 51
125.794815
  0
ARC
  5
37F
100
AcDbEntity
  8
止水栓
  6
CONTINUOUS
 62
     6
100
AcDbCircle
 10
431.129648
 20
1103.960368
 30
0.0
 40
10.000696
100
AcDbArc
 50
247.084198
 51
269.356506
  0
ARC
  5
380
100
AcDbEntity
  8
止水栓
  6
CONTINUOUS
 62
     6
100
AcDbCircle
 10
430.939219
 20
1098.960368
 30
0.0
 40
5.000649
100
AcDbArc
 50
270.923187
 51
0.0
  0
LINE
  5
381
100
AcDbEntity
  8
止水栓
  6
CONTINUOUS
 62
     6
100
AcDbLine
 10
435.939219
 20
1098.960368
 30
0.0
 11
435.939219
 21
1105.460307
 31
0.0
  0
ARC
  5
382
100
AcDbEntity
  8
止水栓
  6
CONTINUOUS
 62
     6
100
AcDbCircle
 10
460.43873
 20
1096.960857
 30
0.0
 40
3.498535
100
AcDbArc
 50
180.0
 51
270.0
  0
LINE
  5
383
100
AcDbEntity
  8
止水栓
  6
CONTINUOUS
 62
     6
100
AcDbLine
 10
460.43873
 20
1093.45988
 30
0.0
 11
461.451914
 21
1093.45988
 31
0.0
  0
LINE
  5
384
100
AcDbEntity
  8
止水栓
  6
CONTINUOUS
 62
     6
100
AcDbLine
 10
461.940195
 20
1093.45988
 30
0.0
 11
461.451914
 21
1093.45988
 31
0.0
  0
LINE
  5
385
100
AcDbEntity
  8
止水栓
  6
CONTINUOUS
 62
     6
100
AcDbLine
 10
460.939219
 20
1093.45988
 30
0.0
 11
460.939219
 21
1069.460857
 31
0.0
  0
ARC
  5
386
100
AcDbEntity
  8
止水栓
  6
CONTINUOUS
 62
     6
100
AcDbCircle
 10
446.439707
 20
1128.669841
 30
0.0
 40
60.000095
100
AcDbArc
 50
264.358292
 51
279.286835
  0
LINE
  5
387
100
AcDbEntity
  8
止水栓
  6
CONTINUOUS
 62
     6
100
AcDbLine
 10
440.541269
 20
1068.960368
 30
0.0
 11
431.129648
 21
1068.960368
 31
0.0
  0
ARC
  5
388
100
AcDbEntity
  8
止水栓
  6
CONTINUOUS
 62
     6
100
AcDbCircle
 10
431.129648
 20
1058.960368
 30
0.0
 40
10.0
100
AcDbArc
 50
89.999969
 51
112.917496
  0
POLYLINE
  5
389
100
AcDbEntity
  8
止水栓
  6
CONTINUOUS
 62
     6
100
AcDb2dPolyline
 66
     1
 10
0.0
 20
0.0
 30
0.0
 70
   128
  0
VERTEX
  5
38A
100
AcDbEntity
  8
止水栓
  6
CONTINUOUS
 62
     6
100
AcDbVertex
100
AcDb2dVertex
 10
418.661387
 20
1091.965739
 30
0.0
  0
VERTEX
  5
38B
100
AcDbEntity
  8
止水栓
  6
CONTINUOUS
 62
     6
100
AcDbVertex
100
AcDb2dVertex
 10
418.698008
 20
1091.819255
 30
0.0
  0
VERTEX
  5
38C
100
AcDbEntity
  8
止水栓
  6
CONTINUOUS
 62
     6
100
AcDbVertex
100
AcDb2dVertex
 10
418.746836
 20
1091.675212
 30
0.0
  0
VERTEX
  5
38D
100
AcDbEntity
  8
止水栓
  6
CONTINUOUS
 62
     6
100
AcDbVertex
100
AcDb2dVertex
 10
418.80543
 20
1091.53361
 30
0.0
  0
VERTEX
  5
38E
100
AcDbEntity
  8
止水栓
  6
CONTINUOUS
 62
     6
100
AcDbVertex
100
AcDb2dVertex
 10
418.94459
 20
1091.282146
 30
0.0
  0
VERTEX
  5
38F
100
AcDbEntity
  8
止水栓
  6
CONTINUOUS
 62
     6
100
AcDbVertex
100
AcDb2dVertex
 10
419.120371
 20
1091.040446
 30
0.0
  0
VERTEX
  5
390
100
AcDbEntity
  8
止水栓
  6
CONTINUOUS
 62
     6
100
AcDbVertex
100
AcDb2dVertex
 10
419.335215
 20
1090.808513
 30
0.0
  0
VERTEX
  5
391
100
AcDbEntity
  8
止水栓
  6
CONTINUOUS
 62
     6
100
AcDbVertex
100
AcDb2dVertex
 10
419.581797
 20
1090.588786
 30
0.0
  0
VERTEX
  5
392
100
AcDbEntity
  8
止水栓
  6
CONTINUOUS
 62
     6
100
AcDbVertex
100
AcDb2dVertex
 10
419.862559
 20
1090.381267
 30
0.0
  0
VERTEX
  5
393
100
AcDbEntity
  8
止水栓
  6
CONTINUOUS
 62
     6
100
AcDbVertex
100
AcDb2dVertex
 10
420.175059
 20
1090.185954
 30
0.0
  0
VERTEX
  5
394
100
AcDbEntity
  8
止水栓
  6
CONTINUOUS
 62
     6
100
AcDbVertex
100
AcDb2dVertex
 10
420.514414
 20
1090.010173
 30
0.0
  0
VERTEX
  5
395
100
AcDbEntity
  8
止水栓
  6
CONTINUOUS
 62
     6
100
AcDbVertex
100
AcDb2dVertex
 10
420.880625
 20
1089.851482
 30
0.0
  0
VERTEX
  5
396
100
AcDbEntity
  8
止水栓
  6
CONTINUOUS
 62
     6
100
AcDbVertex
100
AcDb2dVertex
 10
421.268809
 20
1089.70988
 30
0.0
  0
VERTEX
  5
397
100
AcDbEntity
  8
止水栓
  6
CONTINUOUS
 62
     6
100
AcDbVertex
100
AcDb2dVertex
 10
421.678965
 20
1089.590251
 30
0.0
  0
VERTEX
  5
398
100
AcDbEntity
  8
止水栓
  6
CONTINUOUS
 62
     6
100
AcDbVertex
100
AcDb2dVertex
 10
422.103769
 20
1089.490153
 30
0.0
  0
VERTEX
  5
399
100
AcDbEntity
  8
止水栓
  6
CONTINUOUS
 62
     6
100
AcDbVertex
100
AcDb2dVertex
 10
422.543223
 20
1089.409587
 30
0.0
  0
VERTEX
  5
39A
100
AcDbEntity
  8
止水栓
  6
CONTINUOUS
 62
     6
100
AcDbVertex
100
AcDb2dVertex
 10
422.994883
 20
1089.353435
 30
0.0
  0
VERTEX
  5
39B
100
AcDbEntity
  8
止水栓
  6
CONTINUOUS
 62
     6
100
AcDbVertex
100
AcDb2dVertex
 10
423.451426
 20
1089.319255
 30
0.0
  0
VERTEX
  5
39C
100
AcDbEntity
  8
止水栓
  6
CONTINUOUS
 62
     6
100
AcDbVertex
100
AcDb2dVertex
 10
423.91041
 20
1089.307048
 30
0.0
  0
SEQEND
  5
39D
100
AcDbEntity
  8
止水栓
  6
CONTINUOUS
 62
     6
  0
POLYLINE
  5
39E
100
AcDbEntity
  8
止水栓
  6
CONTINUOUS
 62
     6
100
AcDb2dPolyline
 66
     1
 10
0.0
 20
0.0
 30
0.0
 70
   128
  0
VERTEX
  5
39F
100
AcDbEntity
  8
止水栓
  6
CONTINUOUS
 62
     6
100
AcDbVertex
100
AcDb2dVertex
 10
423.912852
 20
1089.309489
 30
0.0
  0
VERTEX
  5
3A0
100
AcDbEntity
  8
止水栓
  6
CONTINUOUS
 62
     6
100
AcDbVertex
100
AcDb2dVertex
 10
424.371836
 20
1089.319255
 30
0.0
  0
VERTEX
  5
3A1
100
AcDbEntity
  8
止水栓
  6
CONTINUOUS
 62
     6
100
AcDbVertex
100
AcDb2dVertex
 10
424.83082
 20
1089.353435
 30
0.0
  0
VERTEX
  5
3A2
100
AcDbEntity
  8
止水栓
  6
CONTINUOUS
 62
     6
100
AcDbVertex
100
AcDb2dVertex
 10
425.280039
 20
1089.409587
 30
0.0
  0
VERTEX
  5
3A3
100
AcDbEntity
  8
止水栓
  6
CONTINUOUS
 62
     6
100
AcDbVertex
100
AcDb2dVertex
 10
425.719492
 20
1089.490153
 30
0.0
  0
VERTEX
  5
3A4
100
AcDbEntity
  8
止水栓
  6
CONTINUOUS
 62
     6
100
AcDbVertex
100
AcDb2dVertex
 10
426.146738
 20
1089.590251
 30
0.0
  0
VERTEX
  5
3A5
100
AcDbEntity
  8
止水栓
  6
CONTINUOUS
 62
     6
100
AcDbVertex
100
AcDb2dVertex
 10
426.554453
 20
1089.70988
 30
0.0
  0
VERTEX
  5
3A6
100
AcDbEntity
  8
止水栓
  6
CONTINUOUS
 62
     6
100
AcDbVertex
100
AcDb2dVertex
 10
426.945078
 20
1089.851482
 30
0.0
  0
VERTEX
  5
3A7
100
AcDbEntity
  8
止水栓
  6
CONTINUOUS
 62
     6
100
AcDbVertex
100
AcDb2dVertex
 10
427.308848
 20
1090.010173
 30
0.0
  0
VERTEX
  5
3A8
100
AcDbEntity
  8
止水栓
  6
CONTINUOUS
 62
     6
100
AcDbVertex
100
AcDb2dVertex
 10
427.650644
 20
1090.185954
 30
0.0
  0
VERTEX
  5
3A9
100
AcDbEntity
  8
止水栓
  6
CONTINUOUS
 62
     6
100
AcDbVertex
100
AcDb2dVertex
 10
427.960703
 20
1090.381267
 30
0.0
  0
VERTEX
  5
3AA
100
AcDbEntity
  8
止水栓
  6
CONTINUOUS
 62
     6
100
AcDbVertex
100
AcDb2dVertex
 10
428.241465
 20
1090.588786
 30
0.0
  0
VERTEX
  5
3AB
100
AcDbEntity
  8
止水栓
  6
CONTINUOUS
 62
     6
100
AcDbVertex
100
AcDb2dVertex
 10
428.490488
 20
1090.808513
 30
0.0
  0
VERTEX
  5
3AC
100
AcDbEntity
  8
止水栓
  6
CONTINUOUS
 62
     6
100
AcDbVertex
100
AcDb2dVertex
 10
428.702891
 20
1091.040446
 30
0.0
  0
VERTEX
  5
3AD
100
AcDbEntity
  8
止水栓
  6
CONTINUOUS
 62
     6
100
AcDbVertex
100
AcDb2dVertex
 10
428.881113
 20
1091.282146
 30
0.0
  0
VERTEX
  5
3AE
100
AcDbEntity
  8
止水栓
  6
CONTINUOUS
 62
     6
100
AcDbVertex
100
AcDb2dVertex
 10
429.017832
 20
1091.531169
 30
0.0
  0
VERTEX
  5
3AF
100
AcDbEntity
  8
止水栓
  6
CONTINUOUS
 62
     6
100
AcDbVertex
100
AcDb2dVertex
 10
429.11793
 20
1091.787517
 30
0.0
  0
VERTEX
  5
3B0
100
AcDbEntity
  8
止水栓
  6
CONTINUOUS
 62
     6
100
AcDbVertex
100
AcDb2dVertex
 10
429.178965
 20
1092.046306
 30
0.0
  0
VERTEX
  5
3B1
100
AcDbEntity
  8
止水栓
  6
CONTINUOUS
 62
     6
100
AcDbVertex
100
AcDb2dVertex
 10
429.198496
 20
1092.307536
 30
0.0
  0
VERTEX
  5
3B2
100
AcDbEntity
  8
止水栓
  6
CONTINUOUS
 62
     6
100
AcDbVertex
100
AcDb2dVertex
 10
429.178965
 20
1092.568767
 30
0.0
  0
VERTEX
  5
3B3
100
AcDbEntity
  8
止水栓
  6
CONTINUOUS
 62
     6
100
AcDbVertex
100
AcDb2dVertex
 10
429.11793
 20
1092.829997
 30
0.0
  0
VERTEX
  5
3B4
100
AcDbEntity
  8
止水栓
  6
CONTINUOUS
 62
     6
100
AcDbVertex
100
AcDb2dVertex
 10
429.017832
 20
1093.083903
 30
0.0
  0
VERTEX
  5
3B5
100
AcDbEntity
  8
止水栓
  6
CONTINUOUS
 62
     6
100
AcDbVertex
100
AcDb2dVertex
 10
428.878672
 20
1093.335368
 30
0.0
  0
VERTEX
  5
3B6
100
AcDbEntity
  8
止水栓
  6
CONTINUOUS
 62
     6
100
AcDbVertex
100
AcDb2dVertex
 10
428.702891
 20
1093.577067
 30
0.0
  0
VERTEX
  5
3B7
100
AcDbEntity
  8
止水栓
  6
CONTINUOUS
 62
     6
100
AcDbVertex
100
AcDb2dVertex
 10
428.490488
 20
1093.809001
 30
0.0
  0
VERTEX
  5
3B8
100
AcDbEntity
  8
止水栓
  6
CONTINUOUS
 62
     6
100
AcDbVertex
100
AcDb2dVertex
 10
428.241465
 20
1094.028728
 30
0.0
  0
VERTEX
  5
3B9
100
AcDbEntity
  8
止水栓
  6
CONTINUOUS
 62
     6
100
AcDbVertex
100
AcDb2dVertex
 10
427.960703
 20
1094.236247
 30
0.0
  0
VERTEX
  5
3BA
100
AcDbEntity
  8
止水栓
  6
CONTINUOUS
 62
     6
100
AcDbVertex
100
AcDb2dVertex
 10
427.650644
 20
1094.429118
 30
0.0
  0
VERTEX
  5
3BB
100
AcDbEntity
  8
止水栓
  6
CONTINUOUS
 62
     6
100
AcDbVertex
100
AcDb2dVertex
 10
427.308848
 20
1094.607341
 30
0.0
  0
VERTEX
  5
3BC
100
AcDbEntity
  8
止水栓
  6
CONTINUOUS
 62
     6
100
AcDbVertex
100
AcDb2dVertex
 10
426.945078
 20
1094.766032
 30
0.0
  0
VERTEX
  5
3BD
100
AcDbEntity
  8
止水栓
  6
CONTINUOUS
 62
     6
100
AcDbVertex
100
AcDb2dVertex
 10
426.554453
 20
1094.907634
 30
0.0
  0
VERTEX
  5
3BE
100
AcDbEntity
  8
止水栓
  6
CONTINUOUS
 62
     6
100
AcDbVertex
100
AcDb2dVertex
 10
426.146738
 20
1095.027263
 30
0.0
  0
VERTEX
  5
3BF
100
AcDbEntity
  8
止水栓
  6
CONTINUOUS
 62
     6
100
AcDbVertex
100
AcDb2dVertex
 10
425.719492
 20
1095.12736
 30
0.0
  0
VERTEX
  5
3C0
100
AcDbEntity
  8
止水栓
  6
CONTINUOUS
 62
     6
100
AcDbVertex
100
AcDb2dVertex
 10
425.280039
 20
1095.205485
 30
0.0
  0
VERTEX
  5
3C1
100
AcDbEntity
  8
止水栓
  6
CONTINUOUS
 62
     6
100
AcDbVertex
100
AcDb2dVertex
 10
424.83082
 20
1095.264079
 30
0.0
  0
VERTEX
  5
3C2
100
AcDbEntity
  8
止水栓
  6
CONTINUOUS
 62
     6
100
AcDbVertex
100
AcDb2dVertex
 10
424.371836
 20
1095.298259
 30
0.0
  0
VERTEX
  5
3C3
100
AcDbEntity
  8
止水栓
  6
CONTINUOUS
 62
     6
100
AcDbVertex
100
AcDb2dVertex
 10
423.912852
 20
1095.308024
 30
0.0
  0
VERTEX
  5
3C4
100
AcDbEntity
  8
止水栓
  6
CONTINUOUS
 62
     6
100
AcDbVertex
100
AcDb2dVertex
 10
423.451426
 20
1095.298259
 30
0.0
  0
VERTEX
  5
3C5
100
AcDbEntity
  8
止水栓
  6
CONTINUOUS
 62
     6
100
AcDbVertex
100
AcDb2dVertex
 10
422.994883
 20
1095.264079
 30
0.0
  0
VERTEX
  5
3C6
100
AcDbEntity
  8
止水栓
  6
CONTINUOUS
 62
     6
100
AcDbVertex
100
AcDb2dVertex
 10
422.543223
 20
1095.205485
 30
0.0
  0
VERTEX
  5
3C7
100
AcDbEntity
  8
止水栓
  6
CONTINUOUS
 62
     6
100
AcDbVertex
100
AcDb2dVertex
 10
422.103769
 20
1095.12736
 30
0.0
  0
VERTEX
  5
3C8
100
AcDbEntity
  8
止水栓
  6
CONTINUOUS
 62
     6
100
AcDbVertex
100
AcDb2dVertex
 10
421.678965
 20
1095.027263
 30
0.0
  0
VERTEX
  5
3C9
100
AcDbEntity
  8
止水栓
  6
CONTINUOUS
 62
     6
100
AcDbVertex
100
AcDb2dVertex
 10
421.268809
 20
1094.907634
 30
0.0
  0
VERTEX
  5
3CA
100
AcDbEntity
  8
止水栓
  6
CONTINUOUS
 62
     6
100
AcDbVertex
100
AcDb2dVertex
 10
420.880625
 20
1094.766032
 30
0.0
  0
VERTEX
  5
3CB
100
AcDbEntity
  8
止水栓
  6
CONTINUOUS
 62
     6
100
AcDbVertex
100
AcDb2dVertex
 10
420.514414
 20
1094.607341
 30
0.0
  0
VERTEX
  5
3CC
100
AcDbEntity
  8
止水栓
  6
CONTINUOUS
 62
     6
100
AcDbVertex
100
AcDb2dVertex
 10
420.175059
 20
1094.429118
 30
0.0
  0
VERTEX
  5
3CD
100
AcDbEntity
  8
止水栓
  6
CONTINUOUS
 62
     6
100
AcDbVertex
100
AcDb2dVertex
 10
419.862559
 20
1094.236247
 30
0.0
  0
VERTEX
  5
3CE
100
AcDbEntity
  8
止水栓
  6
CONTINUOUS
 62
     6
100
AcDbVertex
100
AcDb2dVertex
 10
419.581797
 20
1094.028728
 30
0.0
  0
VERTEX
  5
3CF
100
AcDbEntity
  8
止水栓
  6
CONTINUOUS
 62
     6
100
AcDbVertex
100
AcDb2dVertex
 10
419.335215
 20
1093.809001
 30
0.0
  0
VERTEX
  5
3D0
100
AcDbEntity
  8
止水栓
  6
CONTINUOUS
 62
     6
100
AcDbVertex
100
AcDb2dVertex
 10
419.120371
 20
1093.577067
 30
0.0
  0
VERTEX
  5
3D1
100
AcDbEntity
  8
止水栓
  6
CONTINUOUS
 62
     6
100
AcDbVertex
100
AcDb2dVertex
 10
418.94459
 20
1093.335368
 30
0.0
  0
VERTEX
  5
3D2
100
AcDbEntity
  8
止水栓
  6
CONTINUOUS
 62
     6
100
AcDbVertex
100
AcDb2dVertex
 10
418.80543
 20
1093.083903
 30
0.0
  0
VERTEX
  5
3D3
100
AcDbEntity
  8
止水栓
  6
CONTINUOUS
 62
     6
100
AcDbVertex
100
AcDb2dVertex
 10
418.705332
 20
1092.829997
 30
0.0
  0
VERTEX
  5
3D4
100
AcDbEntity
  8
止水栓
  6
CONTINUOUS
 62
     6
100
AcDbVertex
100
AcDb2dVertex
 10
418.644297
 20
1092.568767
 30
0.0
  0
VERTEX
  5
3D5
100
AcDbEntity
  8
止水栓
  6
CONTINUOUS
 62
     6
100
AcDbVertex
100
AcDb2dVertex
 10
418.627207
 20
1092.307536
 30
0.0
  0
VERTEX
  5
3D6
100
AcDbEntity
  8
止水栓
  6
CONTINUOUS
 62
     6
100
AcDbVertex
100
AcDb2dVertex
 10
418.629648
 20
1092.19279
 30
0.0
  0
VERTEX
  5
3D7
100
AcDbEntity
  8
止水栓
  6
CONTINUOUS
 62
     6
100
AcDbVertex
100
AcDb2dVertex
 10
418.641855
 20
1092.078044
 30
0.0
  0
VERTEX
  5
3D8
100
AcDbEntity
  8
止水栓
  6
CONTINUOUS
 62
     6
100
AcDbVertex
100
AcDb2dVertex
 10
418.661387
 20
1091.965739
 30
0.0
  0
SEQEND
  5
3D9
100
AcDbEntity
  8
止水栓
  6
CONTINUOUS
 62
     6
  0
POLYLINE
  5
3DA
100
AcDbEntity
  8
止水栓
  6
CONTINUOUS
 62
     6
100
AcDb2dPolyline
 66
     1
 10
0.0
 20
0.0
 30
0.0
 70
   128
  0
VERTEX
  5
3DB
100
AcDbEntity
  8
止水栓
  6
CONTINUOUS
 62
     6
100
AcDbVertex
100
AcDb2dVertex
 10
428.9275
 20
1081.460368
 30
0.0
  0
VERTEX
  5
3DC
100
AcDbEntity
  8
止水栓
  6
CONTINUOUS
 62
     6
100
AcDbVertex
100
AcDb2dVertex
 10
428.9275
 20
1081.46281
 30
0.0
  0
VERTEX
  5
3DD
100
AcDbEntity
  8
止水栓
  6
CONTINUOUS
 62
     6
100
AcDbVertex
100
AcDb2dVertex
 10
428.9275
 20
1081.465251
 30
0.0
  0
VERTEX
  5
3DE
100
AcDbEntity
  8
止水栓
  6
CONTINUOUS
 62
     6
100
AcDbVertex
100
AcDb2dVertex
 10
428.9275
 20
1081.467692
 30
0.0
  0
VERTEX
  5
3DF
100
AcDbEntity
  8
止水栓
  6
CONTINUOUS
 62
     6
100
AcDbVertex
100
AcDb2dVertex
 10
428.907969
 20
1081.968181
 30
0.0
  0
VERTEX
  5
3E0
100
AcDbEntity
  8
止水栓
  6
CONTINUOUS
 62
     6
100
AcDbVertex
100
AcDb2dVertex
 10
428.851816
 20
1082.463786
 30
0.0
  0
VERTEX
  5
3E1
100
AcDbEntity
  8
止水栓
  6
CONTINUOUS
 62
     6
100
AcDbVertex
100
AcDb2dVertex
 10
428.756602
 20
1082.954509
 30
0.0
  0
VERTEX
  5
3E2
100
AcDbEntity
  8
止水栓
  6
CONTINUOUS
 62
     6
100
AcDbVertex
100
AcDb2dVertex
 10
428.627207
 20
1083.433024
 30
0.0
  0
VERTEX
  5
3E3
100
AcDbEntity
  8
止水栓
  6
CONTINUOUS
 62
     6
100
AcDbVertex
100
AcDb2dVertex
 10
428.45875
 20
1083.89445
 30
0.0
  0
VERTEX
  5
3E4
100
AcDbEntity
  8
止水栓
  6
CONTINUOUS
 62
     6
100
AcDbVertex
100
AcDb2dVertex
 10
428.258555
 20
1084.338786
 30
0.0
  0
VERTEX
  5
3E5
100
AcDbEntity
  8
止水栓
  6
CONTINUOUS
 62
     6
100
AcDbVertex
100
AcDb2dVertex
 10
428.02418
 20
1084.761149
 30
0.0
  0
VERTEX
  5
3E6
100
AcDbEntity
  8
止水栓
  6
CONTINUOUS
 62
     6
100
AcDbVertex
100
AcDb2dVertex
 10
427.758066
 20
1085.159099
 30
0.0
  0
VERTEX
  5
3E7
100
AcDbEntity
  8
止水栓
  6
CONTINUOUS
 62
     6
100
AcDbVertex
100
AcDb2dVertex
 10
427.462656
 20
1085.530192
 30
0.0
  0
VERTEX
  5
3E8
100
AcDbEntity
  8
止水栓
  6
CONTINUOUS
 62
     6
100
AcDbVertex
100
AcDb2dVertex
 10
427.142832
 20
1085.867107
 30
0.0
  0
VERTEX
  5
3E9
100
AcDbEntity
  8
止水栓
  6
CONTINUOUS
 62
     6
100
AcDbVertex
100
AcDb2dVertex
 10
426.796152
 20
1086.172282
 30
0.0
  0
VERTEX
  5
3EA
100
AcDbEntity
  8
止水栓
  6
CONTINUOUS
 62
     6
100
AcDbVertex
100
AcDb2dVertex
 10
426.4275
 20
1086.440837
 30
0.0
  0
VERTEX
  5
3EB
100
AcDbEntity
  8
止水栓
  6
CONTINUOUS
 62
     6
100
AcDbVertex
100
AcDb2dVertex
 10
426.041758
 20
1086.672771
 30
0.0
  0
VERTEX
  5
3EC
100
AcDbEntity
  8
止水栓
  6
CONTINUOUS
 62
     6
100
AcDbVertex
100
AcDb2dVertex
 10
425.638926
 20
1086.865642
 30
0.0
  0
VERTEX
  5
3ED
100
AcDbEntity
  8
止水栓
  6
CONTINUOUS
 62
     6
100
AcDbVertex
100
AcDb2dVertex
 10
425.223887
 20
1087.017009
 30
0.0
  0
VERTEX
  5
3EE
100
AcDbEntity
  8
止水栓
  6
CONTINUOUS
 62
     6
100
AcDbVertex
100
AcDb2dVertex
 10
424.796641
 20
1087.124431
 30
0.0
  0
VERTEX
  5
3EF
100
AcDbEntity
  8
止水栓
  6
CONTINUOUS
 62
     6
100
AcDbVertex
100
AcDb2dVertex
 10
424.364512
 20
1087.190349
 30
0.0
  0
VERTEX
  5
3F0
100
AcDbEntity
  8
止水栓
  6
CONTINUOUS
 62
     6
100
AcDbVertex
100
AcDb2dVertex
 10
423.929941
 20
1087.212321
 30
0.0
  0
VERTEX
  5
3F1
100
AcDbEntity
  8
止水栓
  6
CONTINUOUS
 62
     6
100
AcDbVertex
100
AcDb2dVertex
 10
423.49293
 20
1087.190349
 30
0.0
  0
VERTEX
  5
3F2
100
AcDbEntity
  8
止水栓
  6
CONTINUOUS
 62
     6
100
AcDbVertex
100
AcDb2dVertex
 10
423.060801
 20
1087.124431
 30
0.0
  0
VERTEX
  5
3F3
100
AcDbEntity
  8
止水栓
  6
CONTINUOUS
 62
     6
100
AcDbVertex
100
AcDb2dVertex
 10
422.635996
 20
1087.017009
 30
0.0
  0
VERTEX
  5
3F4
100
AcDbEntity
  8
止水栓
  6
CONTINUOUS
 62
     6
100
AcDbVertex
100
AcDb2dVertex
 10
422.218516
 20
1086.865642
 30
0.0
  0
VERTEX
  5
3F5
100
AcDbEntity
  8
止水栓
  6
CONTINUOUS
 62
     6
100
AcDbVertex
100
AcDb2dVertex
 10
421.815684
 20
1086.672771
 30
0.0
  0
VERTEX
  5
3F6
100
AcDbEntity
  8
止水栓
  6
CONTINUOUS
 62
     6
100
AcDbVertex
100
AcDb2dVertex
 10
421.429941
 20
1086.440837
 30
0.0
  0
VERTEX
  5
3F7
100
AcDbEntity
  8
止水栓
  6
CONTINUOUS
 62
     6
100
AcDbVertex
100
AcDb2dVertex
 10
421.061289
 20
1086.172282
 30
0.0
  0
VERTEX
  5
3F8
100
AcDbEntity
  8
止水栓
  6
CONTINUOUS
 62
     6
100
AcDbVertex
100
AcDb2dVertex
 10
420.714609
 20
1085.867107
 30
0.0
  0
VERTEX
  5
3F9
100
AcDbEntity
  8
止水栓
  6
CONTINUOUS
 62
     6
100
AcDbVertex
100
AcDb2dVertex
 10
420.394785
 20
1085.530192
 30
0.0
  0
VERTEX
  5
3FA
100
AcDbEntity
  8
止水栓
  6
CONTINUOUS
 62
     6
100
AcDbVertex
100
AcDb2dVertex
 10
420.099375
 20
1085.159099
 30
0.0
  0
VERTEX
  5
3FB
100
AcDbEntity
  8
止水栓
  6
CONTINUOUS
 62
     6
100
AcDbVertex
100
AcDb2dVertex
 10
419.833262
 20
1084.761149
 30
0.0
  0
VERTEX
  5
3FC
100
AcDbEntity
  8
止水栓
  6
CONTINUOUS
 62
     6
100
AcDbVertex
100
AcDb2dVertex
 10
419.598887
 20
1084.338786
 30
0.0
  0
VERTEX
  5
3FD
100
AcDbEntity
  8
止水栓
  6
CONTINUOUS
 62
     6
100
AcDbVertex
100
AcDb2dVertex
 10
419.398691
 20
1083.89445
 30
0.0
  0
VERTEX
  5
3FE
100
AcDbEntity
  8
止水栓
  6
CONTINUOUS
 62
     6
100
AcDbVertex
100
AcDb2dVertex
 10
419.230234
 20
1083.433024
 30
0.0
  0
VERTEX
  5
3FF
100
AcDbEntity
  8
止水栓
  6
CONTINUOUS
 62
     6
100
AcDbVertex
100
AcDb2dVertex
 10
419.10084
 20
1082.954509
 30
0.0
  0
VERTEX
  5
400
100
AcDbEntity
  8
止水栓
  6
CONTINUOUS
 62
     6
100
AcDbVertex
100
AcDb2dVertex
 10
419.005625
 20
1082.463786
 30
0.0
  0
VERTEX
  5
401
100
AcDbEntity
  8
止水栓
  6
CONTINUOUS
 62
     6
100
AcDbVertex
100
AcDb2dVertex
 10
418.949473
 20
1081.968181
 30
0.0
  0
VERTEX
  5
402
100
AcDbEntity
  8
止水栓
  6
CONTINUOUS
 62
     6
100
AcDbVertex
100
AcDb2dVertex
 10
418.929941
 20
1081.467692
 30
0.0
  0
VERTEX
  5
403
100
AcDbEntity
  8
止水栓
  6
CONTINUOUS
 62
     6
100
AcDbVertex
100
AcDb2dVertex
 10
418.929941
 20
1081.465251
 30
0.0
  0
VERTEX
  5
404
100
AcDbEntity
  8
止水栓
  6
CONTINUOUS
 62
     6
100
AcDbVertex
100
AcDb2dVertex
 10
418.929941
 20
1081.46281
 30
0.0
  0
VERTEX
  5
405
100
AcDbEntity
  8
止水栓
  6
CONTINUOUS
 62
     6
100
AcDbVertex
100
AcDb2dVertex
 10
418.929941
 20
1081.460368
 30
0.0
  0
SEQEND
  5
406
100
AcDbEntity
  8
止水栓
  6
CONTINUOUS
 62
     6
  0
POLYLINE
  5
407
100
AcDbEntity
  8
止水栓
  6
CONTINUOUS
 62
     6
100
AcDb2dPolyline
 66
     1
 10
0.0
 20
0.0
 30
0.0
 70
   128
  0
VERTEX
  5
408
100
AcDbEntity
  8
止水栓
  6
CONTINUOUS
 62
     6
100
AcDbVertex
100
AcDb2dVertex
 10
423.9275
 20
1075.723064
 30
0.0
  0
VERTEX
  5
409
100
AcDbEntity
  8
止水栓
  6
CONTINUOUS
 62
     6
100
AcDbVertex
100
AcDb2dVertex
 10
424.364512
 20
1075.745036
 30
0.0
  0
VERTEX
  5
40A
100
AcDbEntity
  8
止水栓
  6
CONTINUOUS
 62
     6
100
AcDbVertex
100
AcDb2dVertex
 10
424.796641
 20
1075.810954
 30
0.0
  0
VERTEX
  5
40B
100
AcDbEntity
  8
止水栓
  6
CONTINUOUS
 62
     6
100
AcDbVertex
100
AcDb2dVertex
 10
425.221445
 20
1075.918376
 30
0.0
  0
VERTEX
  5
40C
100
AcDbEntity
  8
止水栓
  6
CONTINUOUS
 62
     6
100
AcDbVertex
100
AcDb2dVertex
 10
425.638926
 20
1076.069743
 30
0.0
  0
VERTEX
  5
40D
100
AcDbEntity
  8
止水栓
  6
CONTINUOUS
 62
     6
100
AcDbVertex
100
AcDb2dVertex
 10
426.041758
 20
1076.260173
 30
0.0
  0
VERTEX
  5
40E
100
AcDbEntity
  8
止水栓
  6
CONTINUOUS
 62
     6
100
AcDbVertex
100
AcDb2dVertex
 10
426.4275
 20
1076.492107
 30
0.0
  0
VERTEX
  5
40F
100
AcDbEntity
  8
止水栓
  6
CONTINUOUS
 62
     6
100
AcDbVertex
100
AcDb2dVertex
 10
426.796152
 20
1076.760661
 30
0.0
  0
VERTEX
  5
410
100
AcDbEntity
  8
止水栓
  6
CONTINUOUS
 62
     6
100
AcDbVertex
100
AcDb2dVertex
 10
427.140391
 20
1077.065837
 30
0.0
  0
VERTEX
  5
411
100
AcDbEntity
  8
止水栓
  6
CONTINUOUS
 62
     6
100
AcDbVertex
100
AcDb2dVertex
 10
427.462656
 20
1077.405192
 30
0.0
  0
VERTEX
  5
412
100
AcDbEntity
  8
止水栓
  6
CONTINUOUS
 62
     6
100
AcDbVertex
100
AcDb2dVertex
 10
427.758066
 20
1077.773845
 30
0.0
  0
VERTEX
  5
413
100
AcDbEntity
  8
止水栓
  6
CONTINUOUS
 62
     6
100
AcDbVertex
100
AcDb2dVertex
 10
428.02418
 20
1078.171794
 30
0.0
  0
VERTEX
  5
414
100
AcDbEntity
  8
止水栓
  6
CONTINUOUS
 62
     6
100
AcDbVertex
100
AcDb2dVertex
 10
428.258555
 20
1078.594157
 30
0.0
  0
VERTEX
  5
415
100
AcDbEntity
  8
止水栓
  6
CONTINUOUS
 62
     6
100
AcDbVertex
100
AcDb2dVertex
 10
428.45875
 20
1079.038493
 30
0.0
  0
VERTEX
  5
416
100
AcDbEntity
  8
止水栓
  6
CONTINUOUS
 62
     6
100
AcDbVertex
100
AcDb2dVertex
 10
428.627207
 20
1079.50236
 30
0.0
  0
VERTEX
  5
417
100
AcDbEntity
  8
止水栓
  6
CONTINUOUS
 62
     6
100
AcDbVertex
100
AcDb2dVertex
 10
428.756602
 20
1079.980876
 30
0.0
  0
VERTEX
  5
418
100
AcDbEntity
  8
止水栓
  6
CONTINUOUS
 62
     6
100
AcDbVertex
100
AcDb2dVertex
 10
428.849375
 20
1080.449626
 30
0.0
  0
VERTEX
  5
419
100
AcDbEntity
  8
止水栓
  6
CONTINUOUS
 62
     6
100
AcDbVertex
100
AcDb2dVertex
 10
428.905527
 20
1080.9257
 30
0.0
  0
VERTEX
  5
41A
100
AcDbEntity
  8
止水栓
  6
CONTINUOUS
 62
     6
100
AcDbVertex
100
AcDb2dVertex
 10
428.9275
 20
1081.406657
 30
0.0
  0
SEQEND
  5
41B
100
AcDbEntity
  8
止水栓
  6
CONTINUOUS
 62
     6
  0
POLYLINE
  5
41C
100
AcDbEntity
  8
止水栓
  6
CONTINUOUS
 62
     6
100
AcDb2dPolyline
 66
     1
 10
0.0
 20
0.0
 30
0.0
 70
   128
  0
VERTEX
  5
41D
100
AcDbEntity
  8
止水栓
  6
CONTINUOUS
 62
     6
100
AcDbVertex
100
AcDb2dVertex
 10
418.929941
 20
1081.406657
 30
0.0
  0
VERTEX
  5
41E
100
AcDbEntity
  8
止水栓
  6
CONTINUOUS
 62
     6
100
AcDbVertex
100
AcDb2dVertex
 10
418.951914
 20
1080.9257
 30
0.0
  0
VERTEX
  5
41F
100
AcDbEntity
  8
止水栓
  6
CONTINUOUS
 62
     6
100
AcDbVertex
100
AcDb2dVertex
 10
419.008066
 20
1080.449626
 30
0.0
  0
VERTEX
  5
420
100
AcDbEntity
  8
止水栓
  6
CONTINUOUS
 62
     6
100
AcDbVertex
100
AcDb2dVertex
 10
419.10084
 20
1079.980876
 30
0.0
  0
VERTEX
  5
421
100
AcDbEntity
  8
止水栓
  6
CONTINUOUS
 62
     6
100
AcDbVertex
100
AcDb2dVertex
 10
419.230234
 20
1079.50236
 30
0.0
  0
VERTEX
  5
422
100
AcDbEntity
  8
止水栓
  6
CONTINUOUS
 62
     6
100
AcDbVertex
100
AcDb2dVertex
 10
419.398691
 20
1079.038493
 30
0.0
  0
VERTEX
  5
423
100
AcDbEntity
  8
止水栓
  6
CONTINUOUS
 62
     6
100
AcDbVertex
100
AcDb2dVertex
 10
419.598887
 20
1078.594157
 30
0.0
  0
VERTEX
  5
424
100
AcDbEntity
  8
止水栓
  6
CONTINUOUS
 62
     6
100
AcDbVertex
100
AcDb2dVertex
 10
419.833262
 20
1078.171794
 30
0.0
  0
VERTEX
  5
425
100
AcDbEntity
  8
止水栓
  6
CONTINUOUS
 62
     6
100
AcDbVertex
100
AcDb2dVertex
 10
420.099375
 20
1077.773845
 30
0.0
  0
VERTEX
  5
426
100
AcDbEntity
  8
止水栓
  6
CONTINUOUS
 62
     6
100
AcDbVertex
100
AcDb2dVertex
 10
420.394785
 20
1077.405192
 30
0.0
  0
VERTEX
  5
427
100
AcDbEntity
  8
止水栓
  6
CONTINUOUS
 62
     6
100
AcDbVertex
100
AcDb2dVertex
 10
420.714609
 20
1077.065837
 30
0.0
  0
VERTEX
  5
428
100
AcDbEntity
  8
止水栓
  6
CONTINUOUS
 62
     6
100
AcDbVertex
100
AcDb2dVertex
 10
421.061289
 20
1076.760661
 30
0.0
  0
VERTEX
  5
429
100
AcDbEntity
  8
止水栓
  6
CONTINUOUS
 62
     6
100
AcDbVertex
100
AcDb2dVertex
 10
421.429941
 20
1076.492107
 30
0.0
  0
VERTEX
  5
42A
100
AcDbEntity
  8
止水栓
  6
CONTINUOUS
 62
     6
100
AcDbVertex
100
AcDb2dVertex
 10
421.815684
 20
1076.260173
 30
0.0
  0
VERTEX
  5
42B
100
AcDbEntity
  8
止水栓
  6
CONTINUOUS
 62
     6
100
AcDbVertex
100
AcDb2dVertex
 10
422.218516
 20
1076.069743
 30
0.0
  0
VERTEX
  5
42C
100
AcDbEntity
  8
止水栓
  6
CONTINUOUS
 62
     6
100
AcDbVertex
100
AcDb2dVertex
 10
422.635996
 20
1075.918376
 30
0.0
  0
VERTEX
  5
42D
100
AcDbEntity
  8
止水栓
  6
CONTINUOUS
 62
     6
100
AcDbVertex
100
AcDb2dVertex
 10
423.060801
 20
1075.810954
 30
0.0
  0
VERTEX
  5
42E
100
AcDbEntity
  8
止水栓
  6
CONTINUOUS
 62
     6
100
AcDbVertex
100
AcDb2dVertex
 10
423.49293
 20
1075.745036
 30
0.0
  0
VERTEX
  5
42F
100
AcDbEntity
  8
止水栓
  6
CONTINUOUS
 62
     6
100
AcDbVertex
100
AcDb2dVertex
 10
423.929941
 20
1075.723064
 30
0.0
  0
SEQEND
  5
430
100
AcDbEntity
  8
止水栓
  6
CONTINUOUS
 62
     6
  0
POLYLINE
  5
431
100
AcDbEntity
  8
止水栓
  6
CONTINUOUS
 62
     6
100
AcDb2dPolyline
 66
     1
 10
0.0
 20
0.0
 30
0.0
 70
   128
  0
VERTEX
  5
432
100
AcDbEntity
  8
止水栓
  6
CONTINUOUS
 62
     6
100
AcDbVertex
100
AcDb2dVertex
 10
429.06666
 20
1071.240642
 30
0.0
  0
VERTEX
  5
433
100
AcDbEntity
  8
止水栓
  6
CONTINUOUS
 62
     6
100
AcDbVertex
100
AcDb2dVertex
 10
429.047129
 20
1071.287028
 30
0.0
  0
VERTEX
  5
434
100
AcDbEntity
  8
止水栓
  6
CONTINUOUS
 62
     6
100
AcDbVertex
100
AcDb2dVertex
 10
429.027598
 20
1071.335857
 30
0.0
  0
VERTEX
  5
435
100
AcDbEntity
  8
止水栓
  6
CONTINUOUS
 62
     6
100
AcDbVertex
100
AcDb2dVertex
 10
429.005625
 20
1071.382243
 30
0.0
  0
VERTEX
  5
436
100
AcDbEntity
  8
止水栓
  6
CONTINUOUS
 62
     6
100
AcDbVertex
100
AcDb2dVertex
 10
428.868906
 20
1071.631267
 30
0.0
  0
VERTEX
  5
437
100
AcDbEntity
  8
止水栓
  6
CONTINUOUS
 62
     6
100
AcDbVertex
100
AcDb2dVertex
 10
428.693125
 20
1071.872966
 30
0.0
  0
VERTEX
  5
438
100
AcDbEntity
  8
止水栓
  6
CONTINUOUS
 62
     6
100
AcDbVertex
100
AcDb2dVertex
 10
428.483164
 20
1072.104899
 30
0.0
  0
VERTEX
  5
439
100
AcDbEntity
  8
止水栓
  6
CONTINUOUS
 62
     6
100
AcDbVertex
100
AcDb2dVertex
 10
428.239023
 20
1072.327067
 30
0.0
  0
VERTEX
  5
43A
100
AcDbEntity
  8
止水栓
  6
CONTINUOUS
 62
     6
100
AcDbVertex
100
AcDb2dVertex
 10
427.960703
 20
1072.534587
 30
0.0
  0
VERTEX
  5
43B
100
AcDbEntity
  8
止水栓
  6
CONTINUOUS
 62
     6
100
AcDbVertex
100
AcDb2dVertex
 10
427.653086
 20
1072.727458
 30
0.0
  0
VERTEX
  5
43C
100
AcDbEntity
  8
止水栓
  6
CONTINUOUS
 62
     6
100
AcDbVertex
100
AcDb2dVertex
 10
427.316172
 20
1072.903239
 30
0.0
  0
VERTEX
  5
43D
100
AcDbEntity
  8
止水栓
  6
CONTINUOUS
 62
     6
100
AcDbVertex
100
AcDb2dVertex
 10
426.954844
 20
1073.064372
 30
0.0
  0
VERTEX
  5
43E
100
AcDbEntity
  8
止水栓
  6
CONTINUOUS
 62
     6
100
AcDbVertex
100
AcDb2dVertex
 10
426.569102
 20
1073.203532
 30
0.0
  0
VERTEX
  5
43F
100
AcDbEntity
  8
止水栓
  6
CONTINUOUS
 62
     6
100
AcDbVertex
100
AcDb2dVertex
 10
426.166269
 20
1073.325603
 30
0.0
  0
VERTEX
  5
440
100
AcDbEntity
  8
止水栓
  6
CONTINUOUS
 62
     6
100
AcDbVertex
100
AcDb2dVertex
 10
425.743906
 20
1073.4257
 30
0.0
  0
VERTEX
  5
441
100
AcDbEntity
  8
止水栓
  6
CONTINUOUS
 62
     6
100
AcDbVertex
100
AcDb2dVertex
 10
425.309336
 20
1073.503825
 30
0.0
  0
VERTEX
  5
442
100
AcDbEntity
  8
止水栓
  6
CONTINUOUS
 62
     6
100
AcDbVertex
100
AcDb2dVertex
 10
424.862559
 20
1073.559978
 30
0.0
  0
VERTEX
  5
443
100
AcDbEntity
  8
止水栓
  6
CONTINUOUS
 62
     6
100
AcDbVertex
100
AcDb2dVertex
 10
424.410898
 20
1073.594157
 30
0.0
  0
VERTEX
  5
444
100
AcDbEntity
  8
止水栓
  6
CONTINUOUS
 62
     6
100
AcDbVertex
100
AcDb2dVertex
 10
423.956797
 20
1073.606364
 30
0.0
  0
VERTEX
  5
445
100
AcDbEntity
  8
止水栓
  6
CONTINUOUS
 62
     6
100
AcDbVertex
100
AcDb2dVertex
 10
423.500254
 20
1073.594157
 30
0.0
  0
VERTEX
  5
446
100
AcDbEntity
  8
止水栓
  6
CONTINUOUS
 62
     6
100
AcDbVertex
100
AcDb2dVertex
 10
423.048594
 20
1073.559978
 30
0.0
  0
VERTEX
  5
447
100
AcDbEntity
  8
止水栓
  6
CONTINUOUS
 62
     6
100
AcDbVertex
100
AcDb2dVertex
 10
422.601816
 20
1073.503825
 30
0.0
  0
VERTEX
  5
448
100
AcDbEntity
  8
止水栓
  6
CONTINUOUS
 62
     6
100
AcDbVertex
100
AcDb2dVertex
 10
422.167246
 20
1073.4257
 30
0.0
  0
VERTEX
  5
449
100
AcDbEntity
  8
止水栓
  6
CONTINUOUS
 62
     6
100
AcDbVertex
100
AcDb2dVertex
 10
421.747324
 20
1073.325603
 30
0.0
  0
VERTEX
  5
44A
100
AcDbEntity
  8
止水栓
  6
CONTINUOUS
 62
     6
100
AcDbVertex
100
AcDb2dVertex
 10
421.342051
 20
1073.203532
 30
0.0
  0
VERTEX
  5
44B
100
AcDbEntity
  8
止水栓
  6
CONTINUOUS
 62
     6
100
AcDbVertex
100
AcDb2dVertex
 10
420.956309
 20
1073.064372
 30
0.0
  0
VERTEX
  5
44C
100
AcDbEntity
  8
止水栓
  6
CONTINUOUS
 62
     6
100
AcDbVertex
100
AcDb2dVertex
 10
420.59498
 20
1072.905681
 30
0.0
  0
VERTEX
  5
44D
100
AcDbEntity
  8
止水栓
  6
CONTINUOUS
 62
     6
100
AcDbVertex
100
AcDb2dVertex
 10
420.260508
 20
1072.727458
 30
0.0
  0
VERTEX
  5
44E
100
AcDbEntity
  8
止水栓
  6
CONTINUOUS
 62
     6
100
AcDbVertex
100
AcDb2dVertex
 10
419.950449
 20
1072.534587
 30
0.0
  0
VERTEX
  5
44F
100
AcDbEntity
  8
止水栓
  6
CONTINUOUS
 62
     6
100
AcDbVertex
100
AcDb2dVertex
 10
419.67457
 20
1072.327067
 30
0.0
  0
VERTEX
  5
450
100
AcDbEntity
  8
止水栓
  6
CONTINUOUS
 62
     6
100
AcDbVertex
100
AcDb2dVertex
 10
419.427988
 20
1072.107341
 30
0.0
  0
VERTEX
  5
451
100
AcDbEntity
  8
止水栓
  6
CONTINUOUS
 62
     6
100
AcDbVertex
100
AcDb2dVertex
 10
419.218027
 20
1071.875407
 30
0.0
  0
VERTEX
  5
452
100
AcDbEntity
  8
止水栓
  6
CONTINUOUS
 62
     6
100
AcDbVertex
100
AcDb2dVertex
 10
419.044687
 20
1071.631267
 30
0.0
  0
VERTEX
  5
453
100
AcDbEntity
  8
止水栓
  6
CONTINUOUS
 62
     6
100
AcDbVertex
100
AcDb2dVertex
 10
418.905527
 20
1071.382243
 30
0.0
  0
VERTEX
  5
454
100
AcDbEntity
  8
止水栓
  6
CONTINUOUS
 62
     6
100
AcDbVertex
100
AcDb2dVertex
 10
418.807871
 20
1071.128337
 30
0.0
  0
VERTEX
  5
455
100
AcDbEntity
  8
止水栓
  6
CONTINUOUS
 62
     6
100
AcDbVertex
100
AcDb2dVertex
 10
418.746836
 20
1070.867107
 30
0.0
  0
VERTEX
  5
456
100
AcDbEntity
  8
止水栓
  6
CONTINUOUS
 62
     6
100
AcDbVertex
100
AcDb2dVertex
 10
418.727305
 20
1070.605876
 30
0.0
  0
VERTEX
  5
457
100
AcDbEntity
  8
止水栓
  6
CONTINUOUS
 62
     6
100
AcDbVertex
100
AcDb2dVertex
 10
418.749277
 20
1070.344646
 30
0.0
  0
VERTEX
  5
458
100
AcDbEntity
  8
止水栓
  6
CONTINUOUS
 62
     6
100
AcDbVertex
100
AcDb2dVertex
 10
418.807871
 20
1070.085857
 30
0.0
  0
VERTEX
  5
459
100
AcDbEntity
  8
止水栓
  6
CONTINUOUS
 62
     6
100
AcDbVertex
100
AcDb2dVertex
 10
418.905527
 20
1069.829509
 30
0.0
  0
VERTEX
  5
45A
100
AcDbEntity
  8
止水栓
  6
CONTINUOUS
 62
     6
100
AcDbVertex
100
AcDb2dVertex
 10
419.042246
 20
1069.580485
 30
0.0
  0
VERTEX
  5
45B
100
AcDbEntity
  8
止水栓
  6
CONTINUOUS
 62
     6
100
AcDbVertex
100
AcDb2dVertex
 10
419.218027
 20
1069.338786
 30
0.0
  0
VERTEX
  5
45C
100
AcDbEntity
  8
止水栓
  6
CONTINUOUS
 62
     6
100
AcDbVertex
100
AcDb2dVertex
 10
419.427988
 20
1069.106853
 30
0.0
  0
VERTEX
  5
45D
100
AcDbEntity
  8
止水栓
  6
CONTINUOUS
 62
     6
100
AcDbVertex
100
AcDb2dVertex
 10
419.67457
 20
1068.887126
 30
0.0
  0
VERTEX
  5
45E
100
AcDbEntity
  8
止水栓
  6
CONTINUOUS
 62
     6
100
AcDbVertex
100
AcDb2dVertex
 10
419.952891
 20
1068.677165
 30
0.0
  0
VERTEX
  5
45F
100
AcDbEntity
  8
止水栓
  6
CONTINUOUS
 62
     6
100
AcDbVertex
100
AcDb2dVertex
 10
420.260508
 20
1068.484294
 30
0.0
  0
VERTEX
  5
460
100
AcDbEntity
  8
止水栓
  6
CONTINUOUS
 62
     6
100
AcDbVertex
100
AcDb2dVertex
 10
420.59498
 20
1068.308513
 30
0.0
  0
VERTEX
  5
461
100
AcDbEntity
  8
止水栓
  6
CONTINUOUS
 62
     6
100
AcDbVertex
100
AcDb2dVertex
 10
420.956309
 20
1068.149821
 30
0.0
  0
VERTEX
  5
462
100
AcDbEntity
  8
止水栓
  6
CONTINUOUS
 62
     6
100
AcDbVertex
100
AcDb2dVertex
 10
421.342051
 20
1068.00822
 30
0.0
  0
VERTEX
  5
463
100
AcDbEntity
  8
止水栓
  6
CONTINUOUS
 62
     6
100
AcDbVertex
100
AcDb2dVertex
 10
421.747324
 20
1067.886149
 30
0.0
  0
VERTEX
  5
464
100
AcDbEntity
  8
止水栓
  6
CONTINUOUS
 62
     6
100
AcDbVertex
100
AcDb2dVertex
 10
422.167246
 20
1067.788493
 30
0.0
  0
VERTEX
  5
465
100
AcDbEntity
  8
止水栓
  6
CONTINUOUS
 62
     6
100
AcDbVertex
100
AcDb2dVertex
 10
422.601816
 20
1067.707927
 30
0.0
  0
VERTEX
  5
466
100
AcDbEntity
  8
止水栓
  6
CONTINUOUS
 62
     6
100
AcDbVertex
100
AcDb2dVertex
 10
423.048594
 20
1067.651774
 30
0.0
  0
VERTEX
  5
467
100
AcDbEntity
  8
止水栓
  6
CONTINUOUS
 62
     6
100
AcDbVertex
100
AcDb2dVertex
 10
423.500254
 20
1067.617595
 30
0.0
  0
VERTEX
  5
468
100
AcDbEntity
  8
止水栓
  6
CONTINUOUS
 62
     6
100
AcDbVertex
100
AcDb2dVertex
 10
423.954355
 20
1067.605388
 30
0.0
  0
SEQEND
  5
469
100
AcDbEntity
  8
止水栓
  6
CONTINUOUS
 62
     6
  0
POLYLINE
  5
46A
100
AcDbEntity
  8
止水栓
  6
CONTINUOUS
 62
     6
100
AcDb2dPolyline
 66
     1
 10
0.0
 20
0.0
 30
0.0
 70
   128
  0
VERTEX
  5
46B
100
AcDbEntity
  8
止水栓
  6
CONTINUOUS
 62
     6
100
AcDbVertex
100
AcDb2dVertex
 10
423.956797
 20
1067.605388
 30
0.0
  0
VERTEX
  5
46C
100
AcDbEntity
  8
止水栓
  6
CONTINUOUS
 62
     6
100
AcDbVertex
100
AcDb2dVertex
 10
424.410898
 20
1067.617595
 30
0.0
  0
VERTEX
  5
46D
100
AcDbEntity
  8
止水栓
  6
CONTINUOUS
 62
     6
100
AcDbVertex
100
AcDb2dVertex
 10
424.862559
 20
1067.651774
 30
0.0
  0
VERTEX
  5
46E
100
AcDbEntity
  8
止水栓
  6
CONTINUOUS
 62
     6
100
AcDbVertex
100
AcDb2dVertex
 10
425.309336
 20
1067.707927
 30
0.0
  0
VERTEX
  5
46F
100
AcDbEntity
  8
止水栓
  6
CONTINUOUS
 62
     6
100
AcDbVertex
100
AcDb2dVertex
 10
425.743906
 20
1067.788493
 30
0.0
  0
VERTEX
  5
470
100
AcDbEntity
  8
止水栓
  6
CONTINUOUS
 62
     6
100
AcDbVertex
100
AcDb2dVertex
 10
426.166269
 20
1067.888591
 30
0.0
  0
VERTEX
  5
471
100
AcDbEntity
  8
止水栓
  6
CONTINUOUS
 62
     6
100
AcDbVertex
100
AcDb2dVertex
 10
426.569102
 20
1068.00822
 30
0.0
  0
VERTEX
  5
472
100
AcDbEntity
  8
止水栓
  6
CONTINUOUS
 62
     6
100
AcDbVertex
100
AcDb2dVertex
 10
426.954844
 20
1068.149821
 30
0.0
  0
VERTEX
  5
473
100
AcDbEntity
  8
止水栓
  6
CONTINUOUS
 62
     6
100
AcDbVertex
100
AcDb2dVertex
 10
427.316172
 20
1068.308513
 30
0.0
  0
VERTEX
  5
474
100
AcDbEntity
  8
止水栓
  6
CONTINUOUS
 62
     6
100
AcDbVertex
100
AcDb2dVertex
 10
427.650644
 20
1068.484294
 30
0.0
  0
VERTEX
  5
475
100
AcDbEntity
  8
止水栓
  6
CONTINUOUS
 62
     6
100
AcDbVertex
100
AcDb2dVertex
 10
427.960703
 20
1068.677165
 30
0.0
  0
VERTEX
  5
476
100
AcDbEntity
  8
止水栓
  6
CONTINUOUS
 62
     6
100
AcDbVertex
100
AcDb2dVertex
 10
428.236582
 20
1068.887126
 30
0.0
  0
VERTEX
  5
477
100
AcDbEntity
  8
止水栓
  6
CONTINUOUS
 62
     6
100
AcDbVertex
100
AcDb2dVertex
 10
428.483164
 20
1069.106853
 30
0.0
  0
VERTEX
  5
478
100
AcDbEntity
  8
止水栓
  6
CONTINUOUS
 62
     6
100
AcDbVertex
100
AcDb2dVertex
 10
428.693125
 20
1069.338786
 30
0.0
  0
VERTEX
  5
479
100
AcDbEntity
  8
止水栓
  6
CONTINUOUS
 62
     6
100
AcDbVertex
100
AcDb2dVertex
 10
428.868906
 20
1069.580485
 30
0.0
  0
VERTEX
  5
47A
100
AcDbEntity
  8
止水栓
  6
CONTINUOUS
 62
     6
100
AcDbVertex
100
AcDb2dVertex
 10
429.005625
 20
1069.829509
 30
0.0
  0
VERTEX
  5
47B
100
AcDbEntity
  8
止水栓
  6
CONTINUOUS
 62
     6
100
AcDbVertex
100
AcDb2dVertex
 10
429.103281
 20
1070.085857
 30
0.0
  0
VERTEX
  5
47C
100
AcDbEntity
  8
止水栓
  6
CONTINUOUS
 62
     6
100
AcDbVertex
100
AcDb2dVertex
 10
429.164316
 20
1070.344646
 30
0.0
  0
VERTEX
  5
47D
100
AcDbEntity
  8
止水栓
  6
CONTINUOUS
 62
     6
100
AcDbVertex
100
AcDb2dVertex
 10
429.183848
 20
1070.605876
 30
0.0
  0
VERTEX
  5
47E
100
AcDbEntity
  8
止水栓
  6
CONTINUOUS
 62
     6
100
AcDbVertex
100
AcDb2dVertex
 10
429.169199
 20
1070.818278
 30
0.0
  0
VERTEX
  5
47F
100
AcDbEntity
  8
止水栓
  6
CONTINUOUS
 62
     6
100
AcDbVertex
100
AcDb2dVertex
 10
429.130137
 20
1071.030681
 30
0.0
  0
VERTEX
  5
480
100
AcDbEntity
  8
止水栓
  6
CONTINUOUS
 62
     6
100
AcDbVertex
100
AcDb2dVertex
 10
429.06666
 20
1071.240642
 30
0.0
  0
SEQEND
  5
481
100
AcDbEntity
  8
止水栓
  6
CONTINUOUS
 62
     6
  0
LINE
  5
482
100
AcDbEntity
  8
止水栓
  6
CONTINUOUS
 62
     6
100
AcDbLine
 10
456.940195
 20
1101.460368
 30
0.0
 11
435.939219
 21
1101.460368
 31
0.0
  0
LINE
  5
483
100
AcDbEntity
  8
止水栓
  6
CONTINUOUS
 62
     6
100
AcDbLine
 10
418.436777
 20
1069.180553
 30
0.0
 11
418.466074
 21
1093.760173
 31
0.0
  0
ARC
  5
484
100
AcDbEntity
  8
止水栓
  6
CONTINUOUS
 62
     6
100
AcDbCircle
 10
423.729746
 20
1076.460368
 30
0.0
 40
9.000411
100
AcDbArc
 50
233.980225
 51
292.924545
  0
LINE
  5
485
100
AcDbEntity
  8
止水栓
  6
CONTINUOUS
 62
     6
100
AcDbLine
 10
366.440684
 20
1091.960857
 30
0.0
 11
418.463633
 21
1091.960857
 31
0.0
  0
ARC
  5
486
100
AcDbEntity
  8
止水栓
  6
CONTINUOUS
 62
     6
100
AcDbCircle
 10
341.140391
 20
1071.818216
 30
0.0
 40
25.298605
100
AcDbArc
 50
336.794876
 51
0.0
  0
LINE
  5
487
100
AcDbEntity
  8
止水栓
  6
CONTINUOUS
 62
     6
100
AcDbLine
 10
366.440684
 20
1091.100443
 30
0.0
 11
366.440684
 21
1071.818216
 31
0.0
  0
LINE
  5
488
100
AcDbEntity
  8
止水栓
  6
CONTINUOUS
 62
     6
100
AcDbLine
 10
461.940195
 20
1093.45988
 30
0.0
 11
461.451914
 21
1093.45988
 31
0.0
  0
LINE
  5
489
100
AcDbEntity
  8
止水栓
  6
CONTINUOUS
 62
     6
100
AcDbLine
 10
477.848398
 20
1076.709392
 30
0.0
 11
474.840586
 21
1076.709392
 31
0.0
  0
LINE
  5
48A
100
AcDbEntity
  8
止水栓
  6
CONTINUOUS
 62
     6
100
AcDbLine
 10
477.848398
 20
1076.709392
 30
0.0
 11
477.848398
 21
1086.211345
 31
0.0
  0
LINE
  5
48B
100
AcDbEntity
  8
止水栓
  6
CONTINUOUS
 62
     6
100
AcDbLine
 10
474.840586
 20
1086.211345
 30
0.0
 11
477.848398
 21
1086.211345
 31
0.0
  0
ARC
  5
48C
100
AcDbEntity
  8
止水栓
  6
CONTINUOUS
 62
     6
100
AcDbCircle
 10
465.714609
 20
1090.210368
 30
0.0
 40
5.49999
100
AcDbArc
 50
33.010666
 51
133.338501
  0
LINE
  5
48D
100
AcDbEntity
  8
止水栓
  6
CONTINUOUS
 62
     6
100
AcDbLine
 10
461.940195
 20
1068.709819
 30
0.0
 11
461.940195
 21
1094.210918
 31
0.0
  0
ARC
  5
48E
100
AcDbEntity
  8
止水栓
  6
CONTINUOUS
 62
     6
100
AcDbCircle
 10
465.714609
 20
1072.710368
 30
0.0
 40
5.500042
100
AcDbArc
 50
226.661499
 51
326.983597
  0
LINE
  5
48F
100
AcDbEntity
  8
止水栓
  6
CONTINUOUS
 62
     6
100
AcDbLine
 10
470.326426
 20
1069.713542
 30
0.0
 11
474.840586
 21
1076.16038
 31
0.0
  0
LINE
  5
490
100
AcDbEntity
  8
止水栓
  6
CONTINUOUS
 62
     6
100
AcDbLine
 10
474.840586
 20
1076.16038
 30
0.0
 11
474.840586
 21
1086.759593
 31
0.0
  0
LINE
  5
491
100
AcDbEntity
  8
止水栓
  6
CONTINUOUS
 62
     6
100
AcDbLine
 10
474.840586
 20
1086.759593
 30
0.0
 11
470.326426
 21
1093.206431
 31
0.0
  0
LINE
  5
492
100
AcDbEntity
  8
止水栓
  6
CONTINUOUS
 62
     6
100
AcDbLine
 10
470.326426
 20
1069.713542
 30
0.0
 11
470.326426
 21
1093.206431
 31
0.0
  0
POLYLINE
  5
493
100
AcDbEntity
  8
止水栓
  6
CONTINUOUS
 62
     6
100
AcDb2dPolyline
 66
     1
 10
0.0
 20
0.0
 30
0.0
 70
   128
  0
VERTEX
  5
494
100
AcDbEntity
  8
止水栓
  6
CONTINUOUS
 62
     6
100
AcDbVertex
100
AcDb2dVertex
 10
469.20582
 20
1092.75645
 30
0.0
  0
VERTEX
  5
495
100
AcDbEntity
  8
止水栓
  6
CONTINUOUS
 62
     6
100
AcDbVertex
100
AcDb2dVertex
 10
469.191172
 20
1093.014018
 30
0.0
  0
VERTEX
  5
496
100
AcDbEntity
  8
止水栓
  6
CONTINUOUS
 62
     6
100
AcDbVertex
100
AcDb2dVertex
 10
469.152109
 20
1093.269755
 30
0.0
  0
VERTEX
  5
497
100
AcDbEntity
  8
止水栓
  6
CONTINUOUS
 62
     6
100
AcDbVertex
100
AcDb2dVertex
 10
469.086191
 20
1093.52122
 30
0.0
  0
VERTEX
  5
498
100
AcDbEntity
  8
止水栓
  6
CONTINUOUS
 62
     6
100
AcDbVertex
100
AcDb2dVertex
 10
468.993418
 20
1093.767039
 30
0.0
  0
VERTEX
  5
499
100
AcDbEntity
  8
止水栓
  6
CONTINUOUS
 62
     6
100
AcDbVertex
100
AcDb2dVertex
 10
468.878672
 20
1094.005382
 30
0.0
  0
VERTEX
  5
49A
100
AcDbEntity
  8
止水栓
  6
CONTINUOUS
 62
     6
100
AcDbVertex
100
AcDb2dVertex
 10
468.739512
 20
1094.233501
 30
0.0
  0
VERTEX
  5
49B
100
AcDbEntity
  8
止水栓
  6
CONTINUOUS
 62
     6
100
AcDbVertex
100
AcDb2dVertex
 10
468.575937
 20
1094.450938
 30
0.0
  0
VERTEX
  5
49C
100
AcDbEntity
  8
止水栓
  6
CONTINUOUS
 62
     6
100
AcDbVertex
100
AcDb2dVertex
 10
468.390391
 20
1094.655406
 30
0.0
  0
VERTEX
  5
49D
100
AcDbEntity
  8
止水栓
  6
CONTINUOUS
 62
     6
100
AcDbVertex
100
AcDb2dVertex
 10
468.182871
 20
1094.845531
 30
0.0
  0
VERTEX
  5
49E
100
AcDbEntity
  8
止水栓
  6
CONTINUOUS
 62
     6
100
AcDbVertex
100
AcDb2dVertex
 10
467.958262
 20
1095.019633
 30
0.0
  0
VERTEX
  5
49F
100
AcDbEntity
  8
止水栓
  6
CONTINUOUS
 62
     6
100
AcDbVertex
100
AcDb2dVertex
 10
467.716562
 20
1095.176799
 30
0.0
  0
VERTEX
  5
4A0
100
AcDbEntity
  8
止水栓
  6
CONTINUOUS
 62
     6
100
AcDbVertex
100
AcDb2dVertex
 10
467.460215
 20
1095.314738
 30
0.0
  0
VERTEX
  5
4A1
100
AcDbEntity
  8
止水栓
  6
CONTINUOUS
 62
     6
100
AcDbVertex
100
AcDb2dVertex
 10
467.189219
 20
1095.433604
 30
0.0
  0
VERTEX
  5
4A2
100
AcDbEntity
  8
止水栓
  6
CONTINUOUS
 62
     6
100
AcDbVertex
100
AcDb2dVertex
 10
466.908457
 20
1095.532176
 30
0.0
  0
VERTEX
  5
4A3
100
AcDbEntity
  8
止水栓
  6
CONTINUOUS
 62
     6
100
AcDbVertex
100
AcDb2dVertex
 10
466.61793
 20
1095.609691
 30
0.0
  0
VERTEX
  5
4A4
100
AcDbEntity
  8
止水栓
  6
CONTINUOUS
 62
     6
100
AcDbVertex
100
AcDb2dVertex
 10
466.320078
 20
1095.665385
 30
0.0
  0
VERTEX
  5
4A5
100
AcDbEntity
  8
止水栓
  6
CONTINUOUS
 62
     6
100
AcDbVertex
100
AcDb2dVertex
 10
466.017344
 20
1095.698802
 30
0.0
  0
VERTEX
  5
4A6
100
AcDbEntity
  8
止水栓
  6
CONTINUOUS
 62
     6
100
AcDbVertex
100
AcDb2dVertex
 10
465.714609
 20
1095.710551
 30
0.0
  0
VERTEX
  5
4A7
100
AcDbEntity
  8
止水栓
  6
CONTINUOUS
 62
     6
100
AcDbVertex
100
AcDb2dVertex
 10
465.409434
 20
1095.69926
 30
0.0
  0
VERTEX
  5
4A8
100
AcDbEntity
  8
止水栓
  6
CONTINUOUS
 62
     6
100
AcDbVertex
100
AcDb2dVertex
 10
465.109141
 20
1095.66569
 30
0.0
  0
VERTEX
  5
4A9
100
AcDbEntity
  8
止水栓
  6
CONTINUOUS
 62
     6
100
AcDbVertex
100
AcDb2dVertex
 10
464.811289
 20
1095.609691
 30
0.0
  0
VERTEX
  5
4AA
100
AcDbEntity
  8
止水栓
  6
CONTINUOUS
 62
     6
100
AcDbVertex
100
AcDb2dVertex
 10
464.520762
 20
1095.532176
 30
0.0
  0
VERTEX
  5
4AB
100
AcDbEntity
  8
止水栓
  6
CONTINUOUS
 62
     6
100
AcDbVertex
100
AcDb2dVertex
 10
464.24
 20
1095.433299
 30
0.0
  0
VERTEX
  5
4AC
100
AcDbEntity
  8
止水栓
  6
CONTINUOUS
 62
     6
100
AcDbVertex
100
AcDb2dVertex
 10
463.969004
 20
1095.314738
 30
0.0
  0
VERTEX
  5
4AD
100
AcDbEntity
  8
止水栓
  6
CONTINUOUS
 62
     6
100
AcDbVertex
100
AcDb2dVertex
 10
463.712656
 20
1095.176189
 30
0.0
  0
VERTEX
  5
4AE
100
AcDbEntity
  8
止水栓
  6
CONTINUOUS
 62
     6
100
AcDbVertex
100
AcDb2dVertex
 10
463.468516
 20
1095.019176
 30
0.0
  0
VERTEX
  5
4AF
100
AcDbEntity
  8
止水栓
  6
CONTINUOUS
 62
     6
100
AcDbVertex
100
AcDb2dVertex
 10
463.246348
 20
1094.845531
 30
0.0
  0
VERTEX
  5
4B0
100
AcDbEntity
  8
止水栓
  6
CONTINUOUS
 62
     6
100
AcDbVertex
100
AcDb2dVertex
 10
463.041269
 20
1094.655559
 30
0.0
  0
VERTEX
  5
4B1
100
AcDbEntity
  8
止水栓
  6
CONTINUOUS
 62
     6
100
AcDbVertex
100
AcDb2dVertex
 10
462.855723
 20
1094.451243
 30
0.0
  0
VERTEX
  5
4B2
100
AcDbEntity
  8
止水栓
  6
CONTINUOUS
 62
     6
100
AcDbVertex
100
AcDb2dVertex
 10
462.689707
 20
1094.233501
 30
0.0
  0
VERTEX
  5
4B3
100
AcDbEntity
  8
止水栓
  6
CONTINUOUS
 62
     6
100
AcDbVertex
100
AcDb2dVertex
 10
462.548105
 20
1094.004924
 30
0.0
  0
VERTEX
  5
4B4
100
AcDbEntity
  8
止水栓
  6
CONTINUOUS
 62
     6
100
AcDbVertex
100
AcDb2dVertex
 10
462.433359
 20
1093.766887
 30
0.0
  0
VERTEX
  5
4B5
100
AcDbEntity
  8
止水栓
  6
CONTINUOUS
 62
     6
100
AcDbVertex
100
AcDb2dVertex
 10
462.343027
 20
1093.52122
 30
0.0
  0
VERTEX
  5
4B6
100
AcDbEntity
  8
止水栓
  6
CONTINUOUS
 62
     6
100
AcDbVertex
100
AcDb2dVertex
 10
462.277109
 20
1093.269603
 30
0.0
  0
VERTEX
  5
4B7
100
AcDbEntity
  8
止水栓
  6
CONTINUOUS
 62
     6
100
AcDbVertex
100
AcDb2dVertex
 10
462.238047
 20
1093.014323
 30
0.0
  0
VERTEX
  5
4B8
100
AcDbEntity
  8
止水栓
  6
CONTINUOUS
 62
     6
100
AcDbVertex
100
AcDb2dVertex
 10
462.223398
 20
1092.75645
 30
0.0
  0
VERTEX
  5
4B9
100
AcDbEntity
  8
止水栓
  6
CONTINUOUS
 62
     6
100
AcDbVertex
100
AcDb2dVertex
 10
462.238047
 20
1092.499034
 30
0.0
  0
VERTEX
  5
4BA
100
AcDbEntity
  8
止水栓
  6
CONTINUOUS
 62
     6
100
AcDbVertex
100
AcDb2dVertex
 10
462.277109
 20
1092.243754
 30
0.0
  0
VERTEX
  5
4BB
100
AcDbEntity
  8
止水栓
  6
CONTINUOUS
 62
     6
100
AcDbVertex
100
AcDb2dVertex
 10
462.343027
 20
1091.991984
 30
0.0
  0
VERTEX
  5
4BC
100
AcDbEntity
  8
止水栓
  6
CONTINUOUS
 62
     6
100
AcDbVertex
100
AcDb2dVertex
 10
462.435801
 20
1091.746318
 30
0.0
  0
VERTEX
  5
4BD
100
AcDbEntity
  8
止水栓
  6
CONTINUOUS
 62
     6
100
AcDbVertex
100
AcDb2dVertex
 10
462.550547
 20
1091.508281
 30
0.0
  0
VERTEX
  5
4BE
100
AcDbEntity
  8
止水栓
  6
CONTINUOUS
 62
     6
100
AcDbVertex
100
AcDb2dVertex
 10
462.689707
 20
1091.279094
 30
0.0
  0
VERTEX
  5
4BF
100
AcDbEntity
  8
止水栓
  6
CONTINUOUS
 62
     6
100
AcDbVertex
100
AcDb2dVertex
 10
462.853281
 20
1091.061656
 30
0.0
  0
VERTEX
  5
4C0
100
AcDbEntity
  8
止水栓
  6
CONTINUOUS
 62
     6
100
AcDbVertex
100
AcDb2dVertex
 10
463.038828
 20
1090.857036
 30
0.0
  0
VERTEX
  5
4C1
100
AcDbEntity
  8
止水栓
  6
CONTINUOUS
 62
     6
100
AcDbVertex
100
AcDb2dVertex
 10
463.246348
 20
1090.667522
 30
0.0
  0
VERTEX
  5
4C2
100
AcDbEntity
  8
止水栓
  6
CONTINUOUS
 62
     6
100
AcDbVertex
100
AcDb2dVertex
 10
463.470957
 20
1090.493419
 30
0.0
  0
VERTEX
  5
4C3
100
AcDbEntity
  8
止水栓
  6
CONTINUOUS
 62
     6
100
AcDbVertex
100
AcDb2dVertex
 10
463.712656
 20
1090.336711
 30
0.0
  0
VERTEX
  5
4C4
100
AcDbEntity
  8
止水栓
  6
CONTINUOUS
 62
     6
100
AcDbVertex
100
AcDb2dVertex
 10
463.969004
 20
1090.198009
 30
0.0
  0
VERTEX
  5
4C5
100
AcDbEntity
  8
止水栓
  6
CONTINUOUS
 62
     6
100
AcDbVertex
100
AcDb2dVertex
 10
464.24
 20
1090.07899
 30
0.0
  0
VERTEX
  5
4C6
100
AcDbEntity
  8
止水栓
  6
CONTINUOUS
 62
     6
100
AcDbVertex
100
AcDb2dVertex
 10
464.520762
 20
1089.980571
 30
0.0
  0
VERTEX
  5
4C7
100
AcDbEntity
  8
止水栓
  6
CONTINUOUS
 62
     6
100
AcDbVertex
100
AcDb2dVertex
 10
464.811289
 20
1089.902904
 30
0.0
  0
VERTEX
  5
4C8
100
AcDbEntity
  8
止水栓
  6
CONTINUOUS
 62
     6
100
AcDbVertex
100
AcDb2dVertex
 10
465.109141
 20
1089.847209
 30
0.0
  0
VERTEX
  5
4C9
100
AcDbEntity
  8
止水栓
  6
CONTINUOUS
 62
     6
100
AcDbVertex
100
AcDb2dVertex
 10
465.411875
 20
1089.81364
 30
0.0
  0
VERTEX
  5
4CA
100
AcDbEntity
  8
止水栓
  6
CONTINUOUS
 62
     6
100
AcDbVertex
100
AcDb2dVertex
 10
465.714609
 20
1089.802196
 30
0.0
  0
VERTEX
  5
4CB
100
AcDbEntity
  8
止水栓
  6
CONTINUOUS
 62
     6
100
AcDbVertex
100
AcDb2dVertex
 10
466.019785
 20
1089.813487
 30
0.0
  0
VERTEX
  5
4CC
100
AcDbEntity
  8
止水栓
  6
CONTINUOUS
 62
     6
100
AcDbVertex
100
AcDb2dVertex
 10
466.320078
 20
1089.847056
 30
0.0
  0
VERTEX
  5
4CD
100
AcDbEntity
  8
止水栓
  6
CONTINUOUS
 62
     6
100
AcDbVertex
100
AcDb2dVertex
 10
466.61793
 20
1089.902904
 30
0.0
  0
VERTEX
  5
4CE
100
AcDbEntity
  8
止水栓
  6
CONTINUOUS
 62
     6
100
AcDbVertex
100
AcDb2dVertex
 10
466.908457
 20
1089.980418
 30
0.0
  0
VERTEX
  5
4CF
100
AcDbEntity
  8
止水栓
  6
CONTINUOUS
 62
     6
100
AcDbVertex
100
AcDb2dVertex
 10
467.189219
 20
1090.079143
 30
0.0
  0
SEQEND
  5
4D0
100
AcDbEntity
  8
止水栓
  6
CONTINUOUS
 62
     6
  0
POLYLINE
  5
4D1
100
AcDbEntity
  8
止水栓
  6
CONTINUOUS
 62
     6
100
AcDb2dPolyline
 66
     1
 10
0.0
 20
0.0
 30
0.0
 70
   128
  0
VERTEX
  5
4D2
100
AcDbEntity
  8
止水栓
  6
CONTINUOUS
 62
     6
100
AcDbVertex
100
AcDb2dVertex
 10
467.189219
 20
1090.079143
 30
0.0
  0
VERTEX
  5
4D3
100
AcDbEntity
  8
止水栓
  6
CONTINUOUS
 62
     6
100
AcDbVertex
100
AcDb2dVertex
 10
467.460215
 20
1090.198009
 30
0.0
  0
VERTEX
  5
4D4
100
AcDbEntity
  8
止水栓
  6
CONTINUOUS
 62
     6
100
AcDbVertex
100
AcDb2dVertex
 10
467.716562
 20
1090.336558
 30
0.0
  0
VERTEX
  5
4D5
100
AcDbEntity
  8
止水栓
  6
CONTINUOUS
 62
     6
100
AcDbVertex
100
AcDb2dVertex
 10
467.960703
 20
1090.493419
 30
0.0
  0
VERTEX
  5
4D6
100
AcDbEntity
  8
止水栓
  6
CONTINUOUS
 62
     6
100
AcDbVertex
100
AcDb2dVertex
 10
468.182871
 20
1090.667522
 30
0.0
  0
VERTEX
  5
4D7
100
AcDbEntity
  8
止水栓
  6
CONTINUOUS
 62
     6
100
AcDbVertex
100
AcDb2dVertex
 10
468.387949
 20
1090.857646
 30
0.0
  0
VERTEX
  5
4D8
100
AcDbEntity
  8
止水栓
  6
CONTINUOUS
 62
     6
100
AcDbVertex
100
AcDb2dVertex
 10
468.573496
 20
1091.062266
 30
0.0
  0
VERTEX
  5
4D9
100
AcDbEntity
  8
止水栓
  6
CONTINUOUS
 62
     6
100
AcDbVertex
100
AcDb2dVertex
 10
468.739512
 20
1091.279094
 30
0.0
  0
VERTEX
  5
4DA
100
AcDbEntity
  8
止水栓
  6
CONTINUOUS
 62
     6
100
AcDbVertex
100
AcDb2dVertex
 10
468.881113
 20
1091.50767
 30
0.0
  0
VERTEX
  5
4DB
100
AcDbEntity
  8
止水栓
  6
CONTINUOUS
 62
     6
100
AcDbVertex
100
AcDb2dVertex
 10
468.995859
 20
1091.745708
 30
0.0
  0
VERTEX
  5
4DC
100
AcDbEntity
  8
止水栓
  6
CONTINUOUS
 62
     6
100
AcDbVertex
100
AcDb2dVertex
 10
469.086191
 20
1091.991984
 30
0.0
  0
SEQEND
  5
4DD
100
AcDbEntity
  8
止水栓
  6
CONTINUOUS
 62
     6
  0
POLYLINE
  5
4DE
100
AcDbEntity
  8
止水栓
  6
CONTINUOUS
 62
     6
100
AcDb2dPolyline
 66
     1
 10
0.0
 20
0.0
 30
0.0
 70
   128
  0
VERTEX
  5
4DF
100
AcDbEntity
  8
止水栓
  6
CONTINUOUS
 62
     6
100
AcDbVertex
100
AcDb2dVertex
 10
469.086191
 20
1091.991984
 30
0.0
  0
VERTEX
  5
4E0
100
AcDbEntity
  8
止水栓
  6
CONTINUOUS
 62
     6
100
AcDbVertex
100
AcDb2dVertex
 10
469.152109
 20
1092.243602
 30
0.0
  0
VERTEX
  5
4E1
100
AcDbEntity
  8
止水栓
  6
CONTINUOUS
 62
     6
100
AcDbVertex
100
AcDb2dVertex
 10
469.191172
 20
1092.499339
 30
0.0
  0
VERTEX
  5
4E2
100
AcDbEntity
  8
止水栓
  6
CONTINUOUS
 62
     6
100
AcDbVertex
100
AcDb2dVertex
 10
469.20582
 20
1092.75706
 30
0.0
  0
SEQEND
  5
4E3
100
AcDbEntity
  8
止水栓
  6
CONTINUOUS
 62
     6
  0
POLYLINE
  5
4E4
100
AcDbEntity
  8
止水栓
  6
CONTINUOUS
 62
     6
100
AcDb2dPolyline
 66
     1
 10
0.0
 20
0.0
 30
0.0
 70
   128
  0
VERTEX
  5
4E5
100
AcDbEntity
  8
止水栓
  6
CONTINUOUS
 62
     6
100
AcDbVertex
100
AcDb2dVertex
 10
469.20582
 20
1081.460521
 30
0.0
  0
VERTEX
  5
4E6
100
AcDbEntity
  8
止水栓
  6
CONTINUOUS
 62
     6
100
AcDbVertex
100
AcDb2dVertex
 10
469.193613
 20
1081.969096
 30
0.0
  0
VERTEX
  5
4E7
100
AcDbEntity
  8
止水栓
  6
CONTINUOUS
 62
     6
100
AcDbVertex
100
AcDb2dVertex
 10
469.152109
 20
1082.473704
 30
0.0
  0
VERTEX
  5
4E8
100
AcDbEntity
  8
止水栓
  6
CONTINUOUS
 62
     6
100
AcDbVertex
100
AcDb2dVertex
 10
469.086191
 20
1082.970836
 30
0.0
  0
VERTEX
  5
4E9
100
AcDbEntity
  8
止水栓
  6
CONTINUOUS
 62
     6
100
AcDbVertex
100
AcDb2dVertex
 10
468.995859
 20
1083.45637
 30
0.0
  0
VERTEX
  5
4EA
100
AcDbEntity
  8
止水栓
  6
CONTINUOUS
 62
     6
100
AcDbVertex
100
AcDb2dVertex
 10
468.878672
 20
1083.926799
 30
0.0
  0
VERTEX
  5
4EB
100
AcDbEntity
  8
止水栓
  6
CONTINUOUS
 62
     6
100
AcDbVertex
100
AcDb2dVertex
 10
468.739512
 20
1084.378001
 30
0.0
  0
VERTEX
  5
4EC
100
AcDbEntity
  8
止水栓
  6
CONTINUOUS
 62
     6
100
AcDbVertex
100
AcDb2dVertex
 10
468.575937
 20
1084.807231
 30
0.0
  0
VERTEX
  5
4ED
100
AcDbEntity
  8
止水栓
  6
CONTINUOUS
 62
     6
100
AcDbVertex
100
AcDb2dVertex
 10
468.390391
 20
1085.211131
 30
0.0
  0
VERTEX
  5
4EE
100
AcDbEntity
  8
止水栓
  6
CONTINUOUS
 62
     6
100
AcDbVertex
100
AcDb2dVertex
 10
468.182871
 20
1085.586497
 30
0.0
  0
VERTEX
  5
4EF
100
AcDbEntity
  8
止水栓
  6
CONTINUOUS
 62
     6
100
AcDbVertex
100
AcDb2dVertex
 10
467.958262
 20
1085.930278
 30
0.0
  0
VERTEX
  5
4F0
100
AcDbEntity
  8
止水栓
  6
CONTINUOUS
 62
     6
100
AcDbVertex
100
AcDb2dVertex
 10
467.716562
 20
1086.240031
 30
0.0
  0
VERTEX
  5
4F1
100
AcDbEntity
  8
止水栓
  6
CONTINUOUS
 62
     6
100
AcDbVertex
100
AcDb2dVertex
 10
467.460215
 20
1086.514079
 30
0.0
  0
VERTEX
  5
4F2
100
AcDbEntity
  8
止水栓
  6
CONTINUOUS
 62
     6
100
AcDbVertex
100
AcDb2dVertex
 10
467.189219
 20
1086.749065
 30
0.0
  0
VERTEX
  5
4F3
100
AcDbEntity
  8
止水栓
  6
CONTINUOUS
 62
     6
100
AcDbVertex
100
AcDb2dVertex
 10
466.908457
 20
1086.944072
 30
0.0
  0
VERTEX
  5
4F4
100
AcDbEntity
  8
止水栓
  6
CONTINUOUS
 62
     6
100
AcDbVertex
100
AcDb2dVertex
 10
466.61793
 20
1087.096812
 30
0.0
  0
VERTEX
  5
4F5
100
AcDbEntity
  8
止水栓
  6
CONTINUOUS
 62
     6
100
AcDbVertex
100
AcDb2dVertex
 10
466.320078
 20
1087.206828
 30
0.0
  0
VERTEX
  5
4F6
100
AcDbEntity
  8
止水栓
  6
CONTINUOUS
 62
     6
100
AcDbVertex
100
AcDb2dVertex
 10
466.017344
 20
1087.273204
 30
0.0
  0
VERTEX
  5
4F7
100
AcDbEntity
  8
止水栓
  6
CONTINUOUS
 62
     6
100
AcDbVertex
100
AcDb2dVertex
 10
465.714609
 20
1087.295634
 30
0.0
  0
VERTEX
  5
4F8
100
AcDbEntity
  8
止水栓
  6
CONTINUOUS
 62
     6
100
AcDbVertex
100
AcDb2dVertex
 10
465.409434
 20
1087.273357
 30
0.0
  0
VERTEX
  5
4F9
100
AcDbEntity
  8
止水栓
  6
CONTINUOUS
 62
     6
100
AcDbVertex
100
AcDb2dVertex
 10
465.109141
 20
1087.206676
 30
0.0
  0
VERTEX
  5
4FA
100
AcDbEntity
  8
止水栓
  6
CONTINUOUS
 62
     6
100
AcDbVertex
100
AcDb2dVertex
 10
464.811289
 20
1087.096812
 30
0.0
  0
VERTEX
  5
4FB
100
AcDbEntity
  8
止水栓
  6
CONTINUOUS
 62
     6
100
AcDbVertex
100
AcDb2dVertex
 10
464.520762
 20
1086.943614
 30
0.0
  0
VERTEX
  5
4FC
100
AcDbEntity
  8
止水栓
  6
CONTINUOUS
 62
     6
100
AcDbVertex
100
AcDb2dVertex
 10
464.24
 20
1086.748759
 30
0.0
  0
VERTEX
  5
4FD
100
AcDbEntity
  8
止水栓
  6
CONTINUOUS
 62
     6
100
AcDbVertex
100
AcDb2dVertex
 10
463.969004
 20
1086.514079
 30
0.0
  0
VERTEX
  5
4FE
100
AcDbEntity
  8
止水栓
  6
CONTINUOUS
 62
     6
100
AcDbVertex
100
AcDb2dVertex
 10
463.712656
 20
1086.240642
 30
0.0
  0
VERTEX
  5
4FF
100
AcDbEntity
  8
止水栓
  6
CONTINUOUS
 62
     6
100
AcDbVertex
100
AcDb2dVertex
 10
463.468516
 20
1085.930736
 30
0.0
  0
VERTEX
  5
500
100
AcDbEntity
  8
止水栓
  6
CONTINUOUS
 62
     6
100
AcDbVertex
100
AcDb2dVertex
 10
463.246348
 20
1085.586497
 30
0.0
  0
VERTEX
  5
501
100
AcDbEntity
  8
止水栓
  6
CONTINUOUS
 62
     6
100
AcDbVertex
100
AcDb2dVertex
 10
463.041269
 20
1085.211131
 30
0.0
  0
VERTEX
  5
502
100
AcDbEntity
  8
止水栓
  6
CONTINUOUS
 62
     6
100
AcDbVertex
100
AcDb2dVertex
 10
462.855723
 20
1084.807078
 30
0.0
  0
VERTEX
  5
503
100
AcDbEntity
  8
止水栓
  6
CONTINUOUS
 62
     6
100
AcDbVertex
100
AcDb2dVertex
 10
462.689707
 20
1084.378001
 30
0.0
  0
VERTEX
  5
504
100
AcDbEntity
  8
止水栓
  6
CONTINUOUS
 62
     6
100
AcDbVertex
100
AcDb2dVertex
 10
462.548105
 20
1083.926341
 30
0.0
  0
VERTEX
  5
505
100
AcDbEntity
  8
止水栓
  6
CONTINUOUS
 62
     6
100
AcDbVertex
100
AcDb2dVertex
 10
462.433359
 20
1083.455913
 30
0.0
  0
VERTEX
  5
506
100
AcDbEntity
  8
止水栓
  6
CONTINUOUS
 62
     6
100
AcDbVertex
100
AcDb2dVertex
 10
462.343027
 20
1082.970836
 30
0.0
  0
VERTEX
  5
507
100
AcDbEntity
  8
止水栓
  6
CONTINUOUS
 62
     6
100
AcDbVertex
100
AcDb2dVertex
 10
462.277109
 20
1082.473857
 30
0.0
  0
VERTEX
  5
508
100
AcDbEntity
  8
止水栓
  6
CONTINUOUS
 62
     6
100
AcDbVertex
100
AcDb2dVertex
 10
462.238047
 20
1081.969249
 30
0.0
  0
VERTEX
  5
509
100
AcDbEntity
  8
止水栓
  6
CONTINUOUS
 62
     6
100
AcDbVertex
100
AcDb2dVertex
 10
462.223398
 20
1081.460521
 30
0.0
  0
VERTEX
  5
50A
100
AcDbEntity
  8
止水栓
  6
CONTINUOUS
 62
     6
100
AcDbVertex
100
AcDb2dVertex
 10
462.235605
 20
1080.951945
 30
0.0
  0
VERTEX
  5
50B
100
AcDbEntity
  8
止水栓
  6
CONTINUOUS
 62
     6
100
AcDbVertex
100
AcDb2dVertex
 10
462.277109
 20
1080.447337
 30
0.0
  0
VERTEX
  5
50C
100
AcDbEntity
  8
止水栓
  6
CONTINUOUS
 62
     6
100
AcDbVertex
100
AcDb2dVertex
 10
462.343027
 20
1079.950206
 30
0.0
  0
VERTEX
  5
50D
100
AcDbEntity
  8
止水栓
  6
CONTINUOUS
 62
     6
100
AcDbVertex
100
AcDb2dVertex
 10
462.433359
 20
1079.464671
 30
0.0
  0
VERTEX
  5
50E
100
AcDbEntity
  8
止水栓
  6
CONTINUOUS
 62
     6
100
AcDbVertex
100
AcDb2dVertex
 10
462.550547
 20
1078.994243
 30
0.0
  0
VERTEX
  5
50F
100
AcDbEntity
  8
止水栓
  6
CONTINUOUS
 62
     6
100
AcDbVertex
100
AcDb2dVertex
 10
462.689707
 20
1078.542888
 30
0.0
  0
VERTEX
  5
510
100
AcDbEntity
  8
止水栓
  6
CONTINUOUS
 62
     6
100
AcDbVertex
100
AcDb2dVertex
 10
462.853281
 20
1078.113658
 30
0.0
  0
VERTEX
  5
511
100
AcDbEntity
  8
止水栓
  6
CONTINUOUS
 62
     6
100
AcDbVertex
100
AcDb2dVertex
 10
463.038828
 20
1077.709758
 30
0.0
  0
VERTEX
  5
512
100
AcDbEntity
  8
止水栓
  6
CONTINUOUS
 62
     6
100
AcDbVertex
100
AcDb2dVertex
 10
463.246348
 20
1077.334544
 30
0.0
  0
VERTEX
  5
513
100
AcDbEntity
  8
止水栓
  6
CONTINUOUS
 62
     6
100
AcDbVertex
100
AcDb2dVertex
 10
463.470957
 20
1076.990764
 30
0.0
  0
VERTEX
  5
514
100
AcDbEntity
  8
止水栓
  6
CONTINUOUS
 62
     6
100
AcDbVertex
100
AcDb2dVertex
 10
463.712656
 20
1076.68101
 30
0.0
  0
VERTEX
  5
515
100
AcDbEntity
  8
止水栓
  6
CONTINUOUS
 62
     6
100
AcDbVertex
100
AcDb2dVertex
 10
463.969004
 20
1076.406962
 30
0.0
  0
VERTEX
  5
516
100
AcDbEntity
  8
止水栓
  6
CONTINUOUS
 62
     6
100
AcDbVertex
100
AcDb2dVertex
 10
464.24
 20
1076.171977
 30
0.0
  0
VERTEX
  5
517
100
AcDbEntity
  8
止水栓
  6
CONTINUOUS
 62
     6
100
AcDbVertex
100
AcDb2dVertex
 10
464.520762
 20
1075.97697
 30
0.0
  0
VERTEX
  5
518
100
AcDbEntity
  8
止水栓
  6
CONTINUOUS
 62
     6
100
AcDbVertex
100
AcDb2dVertex
 10
464.811289
 20
1075.824229
 30
0.0
  0
VERTEX
  5
519
100
AcDbEntity
  8
止水栓
  6
CONTINUOUS
 62
     6
100
AcDbVertex
100
AcDb2dVertex
 10
465.109141
 20
1075.714213
 30
0.0
  0
VERTEX
  5
51A
100
AcDbEntity
  8
止水栓
  6
CONTINUOUS
 62
     6
100
AcDbVertex
100
AcDb2dVertex
 10
465.411875
 20
1075.647838
 30
0.0
  0
VERTEX
  5
51B
100
AcDbEntity
  8
止水栓
  6
CONTINUOUS
 62
     6
100
AcDbVertex
100
AcDb2dVertex
 10
465.714609
 20
1075.625407
 30
0.0
  0
VERTEX
  5
51C
100
AcDbEntity
  8
止水栓
  6
CONTINUOUS
 62
     6
100
AcDbVertex
100
AcDb2dVertex
 10
466.019785
 20
1075.647685
 30
0.0
  0
VERTEX
  5
51D
100
AcDbEntity
  8
止水栓
  6
CONTINUOUS
 62
     6
100
AcDbVertex
100
AcDb2dVertex
 10
466.320078
 20
1075.714366
 30
0.0
  0
VERTEX
  5
51E
100
AcDbEntity
  8
止水栓
  6
CONTINUOUS
 62
     6
100
AcDbVertex
100
AcDb2dVertex
 10
466.61793
 20
1075.824229
 30
0.0
  0
VERTEX
  5
51F
100
AcDbEntity
  8
止水栓
  6
CONTINUOUS
 62
     6
100
AcDbVertex
100
AcDb2dVertex
 10
466.908457
 20
1075.977428
 30
0.0
  0
VERTEX
  5
520
100
AcDbEntity
  8
止水栓
  6
CONTINUOUS
 62
     6
100
AcDbVertex
100
AcDb2dVertex
 10
467.189219
 20
1076.172282
 30
0.0
  0
SEQEND
  5
521
100
AcDbEntity
  8
止水栓
  6
CONTINUOUS
 62
     6
  0
POLYLINE
  5
522
100
AcDbEntity
  8
止水栓
  6
CONTINUOUS
 62
     6
100
AcDb2dPolyline
 66
     1
 10
0.0
 20
0.0
 30
0.0
 70
   128
  0
VERTEX
  5
523
100
AcDbEntity
  8
止水栓
  6
CONTINUOUS
 62
     6
100
AcDbVertex
100
AcDb2dVertex
 10
467.189219
 20
1076.172282
 30
0.0
  0
VERTEX
  5
524
100
AcDbEntity
  8
止水栓
  6
CONTINUOUS
 62
     6
100
AcDbVertex
100
AcDb2dVertex
 10
467.460215
 20
1076.406962
 30
0.0
  0
VERTEX
  5
525
100
AcDbEntity
  8
止水栓
  6
CONTINUOUS
 62
     6
100
AcDbVertex
100
AcDb2dVertex
 10
467.716562
 20
1076.6804
 30
0.0
  0
VERTEX
  5
526
100
AcDbEntity
  8
止水栓
  6
CONTINUOUS
 62
     6
100
AcDbVertex
100
AcDb2dVertex
 10
467.960703
 20
1076.990306
 30
0.0
  0
VERTEX
  5
527
100
AcDbEntity
  8
止水栓
  6
CONTINUOUS
 62
     6
100
AcDbVertex
100
AcDb2dVertex
 10
468.182871
 20
1077.334544
 30
0.0
  0
VERTEX
  5
528
100
AcDbEntity
  8
止水栓
  6
CONTINUOUS
 62
     6
100
AcDbVertex
100
AcDb2dVertex
 10
468.387949
 20
1077.70991
 30
0.0
  0
VERTEX
  5
529
100
AcDbEntity
  8
止水栓
  6
CONTINUOUS
 62
     6
100
AcDbVertex
100
AcDb2dVertex
 10
468.573496
 20
1078.113963
 30
0.0
  0
VERTEX
  5
52A
100
AcDbEntity
  8
止水栓
  6
CONTINUOUS
 62
     6
100
AcDbVertex
100
AcDb2dVertex
 10
468.739512
 20
1078.542888
 30
0.0
  0
VERTEX
  5
52B
100
AcDbEntity
  8
止水栓
  6
CONTINUOUS
 62
     6
100
AcDbVertex
100
AcDb2dVertex
 10
468.881113
 20
1078.994548
 30
0.0
  0
VERTEX
  5
52C
100
AcDbEntity
  8
止水栓
  6
CONTINUOUS
 62
     6
100
AcDbVertex
100
AcDb2dVertex
 10
468.995859
 20
1079.464976
 30
0.0
  0
VERTEX
  5
52D
100
AcDbEntity
  8
止水栓
  6
CONTINUOUS
 62
     6
100
AcDbVertex
100
AcDb2dVertex
 10
469.086191
 20
1079.950206
 30
0.0
  0
SEQEND
  5
52E
100
AcDbEntity
  8
止水栓
  6
CONTINUOUS
 62
     6
  0
POLYLINE
  5
52F
100
AcDbEntity
  8
止水栓
  6
CONTINUOUS
 62
     6
100
AcDb2dPolyline
 66
     1
 10
0.0
 20
0.0
 30
0.0
 70
   128
  0
VERTEX
  5
530
100
AcDbEntity
  8
止水栓
  6
CONTINUOUS
 62
     6
100
AcDbVertex
100
AcDb2dVertex
 10
469.086191
 20
1079.950206
 30
0.0
  0
VERTEX
  5
531
100
AcDbEntity
  8
止水栓
  6
CONTINUOUS
 62
     6
100
AcDbVertex
100
AcDb2dVertex
 10
469.152109
 20
1080.447185
 30
0.0
  0
VERTEX
  5
532
100
AcDbEntity
  8
止水栓
  6
CONTINUOUS
 62
     6
100
AcDbVertex
100
AcDb2dVertex
 10
469.191172
 20
1080.951793
 30
0.0
  0
VERTEX
  5
533
100
AcDbEntity
  8
止水栓
  6
CONTINUOUS
 62
     6
100
AcDbVertex
100
AcDb2dVertex
 10
469.203379
 20
1081.460216
 30
0.0
  0
SEQEND
  5
534
100
AcDbEntity
  8
止水栓
  6
CONTINUOUS
 62
     6
  0
POLYLINE
  5
535
100
AcDbEntity
  8
止水栓
  6
CONTINUOUS
 62
     6
100
AcDb2dPolyline
 66
     1
 10
0.0
 20
0.0
 30
0.0
 70
   128
  0
VERTEX
  5
536
100
AcDbEntity
  8
止水栓
  6
CONTINUOUS
 62
     6
100
AcDbVertex
100
AcDb2dVertex
 10
469.20582
 20
1070.166575
 30
0.0
  0
VERTEX
  5
537
100
AcDbEntity
  8
止水栓
  6
CONTINUOUS
 62
     6
100
AcDbVertex
100
AcDb2dVertex
 10
469.191172
 20
1070.424296
 30
0.0
  0
VERTEX
  5
538
100
AcDbEntity
  8
止水栓
  6
CONTINUOUS
 62
     6
100
AcDbVertex
100
AcDb2dVertex
 10
469.152109
 20
1070.679881
 30
0.0
  0
VERTEX
  5
539
100
AcDbEntity
  8
止水栓
  6
CONTINUOUS
 62
     6
100
AcDbVertex
100
AcDb2dVertex
 10
469.086191
 20
1070.931651
 30
0.0
  0
VERTEX
  5
53A
100
AcDbEntity
  8
止水栓
  6
CONTINUOUS
 62
     6
100
AcDbVertex
100
AcDb2dVertex
 10
468.993418
 20
1071.17747
 30
0.0
  0
VERTEX
  5
53B
100
AcDbEntity
  8
止水栓
  6
CONTINUOUS
 62
     6
100
AcDbVertex
100
AcDb2dVertex
 10
468.878672
 20
1071.41566
 30
0.0
  0
VERTEX
  5
53C
100
AcDbEntity
  8
止水栓
  6
CONTINUOUS
 62
     6
100
AcDbVertex
100
AcDb2dVertex
 10
468.739512
 20
1071.644542
 30
0.0
  0
VERTEX
  5
53D
100
AcDbEntity
  8
止水栓
  6
CONTINUOUS
 62
     6
100
AcDbVertex
100
AcDb2dVertex
 10
468.575937
 20
1071.86198
 30
0.0
  0
VERTEX
  5
53E
100
AcDbEntity
  8
止水栓
  6
CONTINUOUS
 62
     6
100
AcDbVertex
100
AcDb2dVertex
 10
468.390391
 20
1072.0666
 30
0.0
  0
VERTEX
  5
53F
100
AcDbEntity
  8
止水栓
  6
CONTINUOUS
 62
     6
100
AcDbVertex
100
AcDb2dVertex
 10
468.182871
 20
1072.256877
 30
0.0
  0
VERTEX
  5
540
100
AcDbEntity
  8
止水栓
  6
CONTINUOUS
 62
     6
100
AcDbVertex
100
AcDb2dVertex
 10
467.958262
 20
1072.431132
 30
0.0
  0
VERTEX
  5
541
100
AcDbEntity
  8
止水栓
  6
CONTINUOUS
 62
     6
100
AcDbVertex
100
AcDb2dVertex
 10
467.716562
 20
1072.587993
 30
0.0
  0
VERTEX
  5
542
100
AcDbEntity
  8
止水栓
  6
CONTINUOUS
 62
     6
100
AcDbVertex
100
AcDb2dVertex
 10
467.460215
 20
1072.726695
 30
0.0
  0
VERTEX
  5
543
100
AcDbEntity
  8
止水栓
  6
CONTINUOUS
 62
     6
100
AcDbVertex
100
AcDb2dVertex
 10
467.189219
 20
1072.845714
 30
0.0
  0
VERTEX
  5
544
100
AcDbEntity
  8
止水栓
  6
CONTINUOUS
 62
     6
100
AcDbVertex
100
AcDb2dVertex
 10
466.908457
 20
1072.944438
 30
0.0
  0
VERTEX
  5
545
100
AcDbEntity
  8
止水栓
  6
CONTINUOUS
 62
     6
100
AcDbVertex
100
AcDb2dVertex
 10
466.61793
 20
1073.0218
 30
0.0
  0
VERTEX
  5
546
100
AcDbEntity
  8
止水栓
  6
CONTINUOUS
 62
     6
100
AcDbVertex
100
AcDb2dVertex
 10
466.320078
 20
1073.077495
 30
0.0
  0
VERTEX
  5
547
100
AcDbEntity
  8
止水栓
  6
CONTINUOUS
 62
     6
100
AcDbVertex
100
AcDb2dVertex
 10
466.017344
 20
1073.111064
 30
0.0
  0
VERTEX
  5
548
100
AcDbEntity
  8
止水栓
  6
CONTINUOUS
 62
     6
100
AcDbVertex
100
AcDb2dVertex
 10
465.714609
 20
1073.122661
 30
0.0
  0
VERTEX
  5
549
100
AcDbEntity
  8
止水栓
  6
CONTINUOUS
 62
     6
100
AcDbVertex
100
AcDb2dVertex
 10
465.409434
 20
1073.111369
 30
0.0
  0
VERTEX
  5
54A
100
AcDbEntity
  8
止水栓
  6
CONTINUOUS
 62
     6
100
AcDbVertex
100
AcDb2dVertex
 10
465.109141
 20
1073.077647
 30
0.0
  0
VERTEX
  5
54B
100
AcDbEntity
  8
止水栓
  6
CONTINUOUS
 62
     6
100
AcDbVertex
100
AcDb2dVertex
 10
464.811289
 20
1073.0218
 30
0.0
  0
VERTEX
  5
54C
100
AcDbEntity
  8
止水栓
  6
CONTINUOUS
 62
     6
100
AcDbVertex
100
AcDb2dVertex
 10
464.520762
 20
1072.944133
 30
0.0
  0
VERTEX
  5
54D
100
AcDbEntity
  8
止水栓
  6
CONTINUOUS
 62
     6
100
AcDbVertex
100
AcDb2dVertex
 10
464.24
 20
1072.845256
 30
0.0
  0
VERTEX
  5
54E
100
AcDbEntity
  8
止水栓
  6
CONTINUOUS
 62
     6
100
AcDbVertex
100
AcDb2dVertex
 10
463.969004
 20
1072.726695
 30
0.0
  0
VERTEX
  5
54F
100
AcDbEntity
  8
止水栓
  6
CONTINUOUS
 62
     6
100
AcDbVertex
100
AcDb2dVertex
 10
463.712656
 20
1072.588145
 30
0.0
  0
VERTEX
  5
550
100
AcDbEntity
  8
止水栓
  6
CONTINUOUS
 62
     6
100
AcDbVertex
100
AcDb2dVertex
 10
463.468516
 20
1072.431132
 30
0.0
  0
VERTEX
  5
551
100
AcDbEntity
  8
止水栓
  6
CONTINUOUS
 62
     6
100
AcDbVertex
100
AcDb2dVertex
 10
463.246348
 20
1072.256877
 30
0.0
  0
VERTEX
  5
552
100
AcDbEntity
  8
止水栓
  6
CONTINUOUS
 62
     6
100
AcDbVertex
100
AcDb2dVertex
 10
463.041269
 20
1072.066752
 30
0.0
  0
VERTEX
  5
553
100
AcDbEntity
  8
止水栓
  6
CONTINUOUS
 62
     6
100
AcDbVertex
100
AcDb2dVertex
 10
462.855723
 20
1071.862132
 30
0.0
  0
VERTEX
  5
554
100
AcDbEntity
  8
止水栓
  6
CONTINUOUS
 62
     6
100
AcDbVertex
100
AcDb2dVertex
 10
462.689707
 20
1071.644542
 30
0.0
  0
VERTEX
  5
555
100
AcDbEntity
  8
止水栓
  6
CONTINUOUS
 62
     6
100
AcDbVertex
100
AcDb2dVertex
 10
462.548105
 20
1071.415813
 30
0.0
  0
VERTEX
  5
556
100
AcDbEntity
  8
止水栓
  6
CONTINUOUS
 62
     6
100
AcDbVertex
100
AcDb2dVertex
 10
462.433359
 20
1071.17747
 30
0.0
  0
VERTEX
  5
557
100
AcDbEntity
  8
止水栓
  6
CONTINUOUS
 62
     6
100
AcDbVertex
100
AcDb2dVertex
 10
462.343027
 20
1070.931651
 30
0.0
  0
VERTEX
  5
558
100
AcDbEntity
  8
止水栓
  6
CONTINUOUS
 62
     6
100
AcDbVertex
100
AcDb2dVertex
 10
462.277109
 20
1070.679881
 30
0.0
  0
VERTEX
  5
559
100
AcDbEntity
  8
止水栓
  6
CONTINUOUS
 62
     6
100
AcDbVertex
100
AcDb2dVertex
 10
462.238047
 20
1070.423991
 30
0.0
  0
VERTEX
  5
55A
100
AcDbEntity
  8
止水栓
  6
CONTINUOUS
 62
     6
100
AcDbVertex
100
AcDb2dVertex
 10
462.223398
 20
1070.166575
 30
0.0
  0
VERTEX
  5
55B
100
AcDbEntity
  8
止水栓
  6
CONTINUOUS
 62
     6
100
AcDbVertex
100
AcDb2dVertex
 10
462.238047
 20
1069.908855
 30
0.0
  0
VERTEX
  5
55C
100
AcDbEntity
  8
止水栓
  6
CONTINUOUS
 62
     6
100
AcDbVertex
100
AcDb2dVertex
 10
462.277109
 20
1069.65327
 30
0.0
  0
VERTEX
  5
55D
100
AcDbEntity
  8
止水栓
  6
CONTINUOUS
 62
     6
100
AcDbVertex
100
AcDb2dVertex
 10
462.343027
 20
1069.401652
 30
0.0
  0
VERTEX
  5
55E
100
AcDbEntity
  8
止水栓
  6
CONTINUOUS
 62
     6
100
AcDbVertex
100
AcDb2dVertex
 10
462.435801
 20
1069.155833
 30
0.0
  0
VERTEX
  5
55F
100
AcDbEntity
  8
止水栓
  6
CONTINUOUS
 62
     6
100
AcDbVertex
100
AcDb2dVertex
 10
462.550547
 20
1068.917644
 30
0.0
  0
VERTEX
  5
560
100
AcDbEntity
  8
止水栓
  6
CONTINUOUS
 62
     6
100
AcDbVertex
100
AcDb2dVertex
 10
462.689707
 20
1068.688457
 30
0.0
  0
VERTEX
  5
561
100
AcDbEntity
  8
止水栓
  6
CONTINUOUS
 62
     6
100
AcDbVertex
100
AcDb2dVertex
 10
462.853281
 20
1068.471019
 30
0.0
  0
VERTEX
  5
562
100
AcDbEntity
  8
止水栓
  6
CONTINUOUS
 62
     6
100
AcDbVertex
100
AcDb2dVertex
 10
463.038828
 20
1068.266398
 30
0.0
  0
VERTEX
  5
563
100
AcDbEntity
  8
止水栓
  6
CONTINUOUS
 62
     6
100
AcDbVertex
100
AcDb2dVertex
 10
463.246348
 20
1068.076274
 30
0.0
  0
VERTEX
  5
564
100
AcDbEntity
  8
止水栓
  6
CONTINUOUS
 62
     6
100
AcDbVertex
100
AcDb2dVertex
 10
463.470957
 20
1067.902019
 30
0.0
  0
VERTEX
  5
565
100
AcDbEntity
  8
止水栓
  6
CONTINUOUS
 62
     6
100
AcDbVertex
100
AcDb2dVertex
 10
463.712656
 20
1067.745158
 30
0.0
  0
VERTEX
  5
566
100
AcDbEntity
  8
止水栓
  6
CONTINUOUS
 62
     6
100
AcDbVertex
100
AcDb2dVertex
 10
463.969004
 20
1067.606608
 30
0.0
  0
VERTEX
  5
567
100
AcDbEntity
  8
止水栓
  6
CONTINUOUS
 62
     6
100
AcDbVertex
100
AcDb2dVertex
 10
464.24
 20
1067.48759
 30
0.0
  0
VERTEX
  5
568
100
AcDbEntity
  8
止水栓
  6
CONTINUOUS
 62
     6
100
AcDbVertex
100
AcDb2dVertex
 10
464.520762
 20
1067.388866
 30
0.0
  0
VERTEX
  5
569
100
AcDbEntity
  8
止水栓
  6
CONTINUOUS
 62
     6
100
AcDbVertex
100
AcDb2dVertex
 10
464.811289
 20
1067.311351
 30
0.0
  0
VERTEX
  5
56A
100
AcDbEntity
  8
止水栓
  6
CONTINUOUS
 62
     6
100
AcDbVertex
100
AcDb2dVertex
 10
465.109141
 20
1067.255656
 30
0.0
  0
VERTEX
  5
56B
100
AcDbEntity
  8
止水栓
  6
CONTINUOUS
 62
     6
100
AcDbVertex
100
AcDb2dVertex
 10
465.411875
 20
1067.222087
 30
0.0
  0
VERTEX
  5
56C
100
AcDbEntity
  8
止水栓
  6
CONTINUOUS
 62
     6
100
AcDbVertex
100
AcDb2dVertex
 10
465.714609
 20
1067.210338
 30
0.0
  0
VERTEX
  5
56D
100
AcDbEntity
  8
止水栓
  6
CONTINUOUS
 62
     6
100
AcDbVertex
100
AcDb2dVertex
 10
466.019785
 20
1067.221629
 30
0.0
  0
VERTEX
  5
56E
100
AcDbEntity
  8
止水栓
  6
CONTINUOUS
 62
     6
100
AcDbVertex
100
AcDb2dVertex
 10
466.320078
 20
1067.255351
 30
0.0
  0
VERTEX
  5
56F
100
AcDbEntity
  8
止水栓
  6
CONTINUOUS
 62
     6
100
AcDbVertex
100
AcDb2dVertex
 10
466.61793
 20
1067.311351
 30
0.0
  0
VERTEX
  5
570
100
AcDbEntity
  8
止水栓
  6
CONTINUOUS
 62
     6
100
AcDbVertex
100
AcDb2dVertex
 10
466.908457
 20
1067.389018
 30
0.0
  0
VERTEX
  5
571
100
AcDbEntity
  8
止水栓
  6
CONTINUOUS
 62
     6
100
AcDbVertex
100
AcDb2dVertex
 10
467.189219
 20
1067.487895
 30
0.0
  0
SEQEND
  5
572
100
AcDbEntity
  8
止水栓
  6
CONTINUOUS
 62
     6
  0
POLYLINE
  5
573
100
AcDbEntity
  8
止水栓
  6
CONTINUOUS
 62
     6
100
AcDb2dPolyline
 66
     1
 10
0.0
 20
0.0
 30
0.0
 70
   128
  0
VERTEX
  5
574
100
AcDbEntity
  8
止水栓
  6
CONTINUOUS
 62
     6
100
AcDbVertex
100
AcDb2dVertex
 10
467.189219
 20
1067.487895
 30
0.0
  0
VERTEX
  5
575
100
AcDbEntity
  8
止水栓
  6
CONTINUOUS
 62
     6
100
AcDbVertex
100
AcDb2dVertex
 10
467.460215
 20
1067.606608
 30
0.0
  0
VERTEX
  5
576
100
AcDbEntity
  8
止水栓
  6
CONTINUOUS
 62
     6
100
AcDbVertex
100
AcDb2dVertex
 10
467.716562
 20
1067.745158
 30
0.0
  0
VERTEX
  5
577
100
AcDbEntity
  8
止水栓
  6
CONTINUOUS
 62
     6
100
AcDbVertex
100
AcDb2dVertex
 10
467.960703
 20
1067.902171
 30
0.0
  0
VERTEX
  5
578
100
AcDbEntity
  8
止水栓
  6
CONTINUOUS
 62
     6
100
AcDbVertex
100
AcDb2dVertex
 10
468.182871
 20
1068.076274
 30
0.0
  0
VERTEX
  5
579
100
AcDbEntity
  8
止水栓
  6
CONTINUOUS
 62
     6
100
AcDbVertex
100
AcDb2dVertex
 10
468.387949
 20
1068.266398
 30
0.0
  0
VERTEX
  5
57A
100
AcDbEntity
  8
止水栓
  6
CONTINUOUS
 62
     6
100
AcDbVertex
100
AcDb2dVertex
 10
468.573496
 20
1068.471019
 30
0.0
  0
VERTEX
  5
57B
100
AcDbEntity
  8
止水栓
  6
CONTINUOUS
 62
     6
100
AcDbVertex
100
AcDb2dVertex
 10
468.739512
 20
1068.688457
 30
0.0
  0
VERTEX
  5
57C
100
AcDbEntity
  8
止水栓
  6
CONTINUOUS
 62
     6
100
AcDbVertex
100
AcDb2dVertex
 10
468.881113
 20
1068.917186
 30
0.0
  0
VERTEX
  5
57D
100
AcDbEntity
  8
止水栓
  6
CONTINUOUS
 62
     6
100
AcDbVertex
100
AcDb2dVertex
 10
468.995859
 20
1069.155528
 30
0.0
  0
VERTEX
  5
57E
100
AcDbEntity
  8
止水栓
  6
CONTINUOUS
 62
     6
100
AcDbVertex
100
AcDb2dVertex
 10
469.086191
 20
1069.401652
 30
0.0
  0
SEQEND
  5
57F
100
AcDbEntity
  8
止水栓
  6
CONTINUOUS
 62
     6
  0
POLYLINE
  5
580
100
AcDbEntity
  8
止水栓
  6
CONTINUOUS
 62
     6
100
AcDb2dPolyline
 66
     1
 10
0.0
 20
0.0
 30
0.0
 70
   128
  0
VERTEX
  5
581
100
AcDbEntity
  8
止水栓
  6
CONTINUOUS
 62
     6
100
AcDbVertex
100
AcDb2dVertex
 10
469.086191
 20
1069.401652
 30
0.0
  0
VERTEX
  5
582
100
AcDbEntity
  8
止水栓
  6
CONTINUOUS
 62
     6
100
AcDbVertex
100
AcDb2dVertex
 10
469.152109
 20
1069.653422
 30
0.0
  0
VERTEX
  5
583
100
AcDbEntity
  8
止水栓
  6
CONTINUOUS
 62
     6
100
AcDbVertex
100
AcDb2dVertex
 10
469.191172
 20
1069.909312
 30
0.0
  0
VERTEX
  5
584
100
AcDbEntity
  8
止水栓
  6
CONTINUOUS
 62
     6
100
AcDbVertex
100
AcDb2dVertex
 10
469.20582
 20
1070.167186
 30
0.0
  0
SEQEND
  5
585
100
AcDbEntity
  8
止水栓
  6
CONTINUOUS
 62
     6
  0
LINE
  5
586
100
AcDbEntity
  8
止水栓
  6
CONTINUOUS
 62
     6
100
AcDbLine
 10
461.940195
 20
1069.455974
 30
0.0
 11
456.122324
 21
1069.455974
 31
0.0
  0
LINE
  5
587
100
AcDbEntity
  8
止水栓
  6
CONTINUOUS
 62
     6
100
AcDbLine
 10
438.439219
 20
1123.460338
 30
0.0
 11
454.440195
 21
1123.460338
 31
0.0
  0
LINE
  5
588
100
AcDbEntity
  8
止水栓
  6
CONTINUOUS
 62
     6
100
AcDbLine
 10
433.690684
 20
1115.235698
 30
0.0
 11
438.439219
 21
1123.460338
 31
0.0
  0
LINE
  5
589
100
AcDbEntity
  8
止水栓
  6
CONTINUOUS
 62
     6
100
AcDbLine
 10
433.690684
 20
1106.469523
 30
0.0
 11
433.690684
 21
1115.235698
 31
0.0
  0
LINE
  5
58A
100
AcDbEntity
  8
止水栓
  6
CONTINUOUS
 62
     6
100
AcDbLine
 10
433.690684
 20
1106.469523
 30
0.0
 11
435.43873
 21
1105.460307
 31
0.0
  0
LINE
  5
58B
100
AcDbEntity
  8
止水栓
  6
CONTINUOUS
 62
     6
100
AcDbLine
 10
435.43873
 20
1105.460307
 30
0.0
 11
457.440684
 21
1105.460307
 31
0.0
  0
LINE
  5
58C
100
AcDbEntity
  8
止水栓
  6
CONTINUOUS
 62
     6
100
AcDbLine
 10
457.440684
 20
1105.460307
 30
0.0
 11
459.18873
 21
1106.469523
 31
0.0
  0
LINE
  5
58D
100
AcDbEntity
  8
止水栓
  6
CONTINUOUS
 62
     6
100
AcDbLine
 10
459.18873
 20
1106.469523
 30
0.0
 11
459.18873
 21
1115.235545
 31
0.0
  0
LINE
  5
58E
100
AcDbEntity
  8
止水栓
  6
CONTINUOUS
 62
     6
100
AcDbLine
 10
459.18873
 20
1115.235545
 30
0.0
 11
454.440195
 21
1123.460338
 31
0.0
  0
ARC
  5
58F
100
AcDbEntity
  8
止水栓
  6
CONTINUOUS
 62
     6
100
AcDbCircle
 10
456.415293
 20
1114.543101
 30
0.0
 40
2.857461
100
AcDbArc
 50
14.0303
 51
165.957092
  0
ARC
  5
590
100
AcDbEntity
  8
止水栓
  6
CONTINUOUS
 62
     6
100
AcDbCircle
 10
446.439707
 20
1109.316814
 30
0.0
 40
8.083794
100
AcDbArc
 50
47.075195
 51
132.92482
  0
ARC
  5
591
100
AcDbEntity
  8
止水栓
  6
CONTINUOUS
 62
     6
100
AcDbCircle
 10
436.464121
 20
1114.543101
 30
0.0
 40
2.857461
100
AcDbArc
 50
14.042923
 51
165.969711
  0
LINE
  5
592
100
AcDbEntity
  8
止水栓
  6
CONTINUOUS
 62
     6
100
AcDbLine
 10
453.644297
 20
1115.236156
 30
0.0
 11
453.644297
 21
1105.747783
 31
0.0
  0
LINE
  5
593
100
AcDbEntity
  8
止水栓
  6
CONTINUOUS
 62
     6
100
AcDbLine
 10
451.945078
 20
1115.236156
 30
0.0
 11
451.945078
 21
1105.747783
 31
0.0
  0
LINE
  5
594
100
AcDbEntity
  8
止水栓
  6
CONTINUOUS
 62
     6
100
AcDbLine
 10
440.934336
 20
1115.236156
 30
0.0
 11
440.934336
 21
1105.747783
 31
0.0
  0
LINE
  5
595
100
AcDbEntity
  8
止水栓
  6
CONTINUOUS
 62
     6
100
AcDbLine
 10
439.235117
 20
1115.236156
 30
0.0
 11
439.235117
 21
1105.747783
 31
0.0
  0
LINE
  5
596
100
AcDbEntity
  8
止水栓
  6
CONTINUOUS
 62
     6
100
AcDbLine
 10
439.235117
 20
1115.236156
 30
0.0
 11
440.934336
 21
1115.236156
 31
0.0
  0
LINE
  5
597
100
AcDbEntity
  8
止水栓
  6
CONTINUOUS
 62
     6
100
AcDbLine
 10
451.945078
 20
1115.236156
 30
0.0
 11
453.644297
 21
1115.236156
 31
0.0
  0
LINE
  5
598
100
AcDbEntity
  8
止水栓
  6
CONTINUOUS
 62
     6
100
AcDbLine
 10
440.089609
 20
1306.458427
 30
0.0
 11
440.089609
 21
1123.460338
 31
0.0
  0
LINE
  5
599
100
AcDbEntity
  8
止水栓
  6
CONTINUOUS
 62
     6
100
AcDbLine
 10
456.940195
 20
1105.460307
 30
0.0
 11
456.940195
 21
1096.960857
 31
0.0
  0
ARC
  5
59A
100
AcDbEntity
  8
止水栓
  6
CONTINUOUS
 62
     6
100
AcDbCircle
 10
446.440306
 20
1306.458608
 30
0.0
 40
6.350098
100
AcDbArc
 50
0.0
 51
180.000015
  0
LINE
  5
59B
100
AcDbEntity
  8
止水栓
  6
CONTINUOUS
 62
     6
100
AcDbLine
 10
452.789805
 20
1123.460338
 30
0.0
 11
452.789805
 21
1306.458935
 31
0.0
  0
LINE
  5
59C
100
AcDbEntity
  8
止水栓
  6
CONTINUOUS
 62
     6
100
AcDbLine
 10
342.138926
 20
1072.711771
 30
0.0
 11
342.138926
 21
1090.209329
 31
0.0
  0
LINE
  5
59D
100
AcDbEntity
  8
止水栓
  6
CONTINUOUS
 62
     6
100
AcDbLine
 10
343.659922
 20
1091.730325
 30
0.0
 11
343.702189
 21
1071.16575
 31
0.0
  0
LINE
  5
59E
100
AcDbEntity
  8
止水栓
  6
CONTINUOUS
 62
     3
100
AcDbLine
 10
401.140306
 20
1081.458681
 30
0.0
 11
393.140306
 21
1081.458681
 31
0.0
  0
LINE
  5
59F
100
AcDbEntity
  8
止水栓
  6
CONTINUOUS
 62
     3
100
AcDbLine
 10
381.140306
 20
1081.458681
 30
0.0
 11
270.440306
 21
1081.458681
 31
0.0
  0
LINE
  5
5A0
100
AcDbEntity
  8
止水栓
  6
CONTINUOUS
 62
     3
100
AcDbLine
 10
472.19948
 20
1081.458681
 30
0.0
 11
413.140306
 21
1081.458681
 31
0.0
  0
TEXT
  5
5A1
100
AcDbEntity
  8
止水栓
  6
CONTINUOUS
 62
     6
100
AcDbText
 10
252.399414
 20
2084.359863
 30
0.0
 40
40.0
  1
／ 
 41
0.9912
  7
EXCADSTD
 72
     5
 11
290.159412
 21
2084.359863
 31
0.0
100
AcDbText
  0
TEXT
  5
5A2
100
AcDbEntity
  8
止水栓
  6
CONTINUOUS
 62
     2
100
AcDbText
 10
247.816894
 20
2103.092773
 30
0.0
 40
20.0
  1
１
 41
0.9912
  7
EXCADSTD
 72
     5
 11
266.696894
 21
2103.092773
 31
0.0
100
AcDbText
  0
TEXT
  5
5A3
100
AcDbEntity
  8
止水栓
  6
CONTINUOUS
 62
     2
100
AcDbText
 10
278.0
 20
2088.0
 30
0.0
 40
20.0
  1
２
 41
0.9912
  7
EXCADSTD
 72
     5
 11
296.879999
 21
2088.0
 31
0.0
100
AcDbText
  0
LINE
  5
5A4
100
AcDbEntity
  8
止水栓
  6
CONTINUOUS
 62
     6
100
AcDbLine
 10
440.090782
 20
2165.34668
 30
0.0
 11
440.090782
 21
2211.84668
 31
0.0
  0
ARC
  5
5A5
100
AcDbEntity
  8
止水栓
  6
CONTINUOUS
 62
     6
100
AcDbCircle
 10
446.44088
 20
2165.34668
 30
0.0
 40
12.750425
100
AcDbArc
 50
175.574371
 51
184.414703
  0
ARC
  5
5A6
100
AcDbEntity
  8
止水栓
  6
CONTINUOUS
 62
     6
100
AcDbCircle
 10
446.44088
 20
2165.34668
 30
0.0
 40
12.749176
100
AcDbArc
 50
235.390915
 51
244.416656
  0
ARC
  5
5A7
100
AcDbEntity
  8
止水栓
  6
CONTINUOUS
 62
     6
100
AcDbCircle
 10
446.44088
 20
2165.34668
 30
0.0
 40
12.750235
100
AcDbArc
 50
355.585311
 51
0.0
  0
ARC
  5
5A8
100
AcDbEntity
  8
止水栓
  6
CONTINUOUS
 62
     6
100
AcDbCircle
 10
446.44088
 20
2165.34668
 30
0.0
 40
12.751951
100
AcDbArc
 50
55.585815
 51
60.133423
  0
LINE
  5
5A9
100
AcDbEntity
  8
止水栓
  6
CONTINUOUS
 62
     6
100
AcDbLine
 10
457.349083
 20
2153.347168
 30
0.0
 11
461.941368
 21
2153.347168
 31
0.0
  0
ARC
  5
5AA
100
AcDbEntity
  8
止水栓
  6
CONTINUOUS
 62
     6
100
AcDbCircle
 10
446.44088
 20
2212.348633
 30
0.0
 40
60.000629
100
AcDbArc
 50
260.930511
 51
279.161606
  0
LINE
  5
5AB
100
AcDbEntity
  8
止水栓
  6
CONTINUOUS
 62
     6
100
AcDbLine
 10
418.440392
 20
2153.098145
 30
0.0
 11
436.982872
 21
2153.098145
 31
0.0
  0
POLYLINE
  5
5AC
100
AcDbEntity
  8
止水栓
  6
CONTINUOUS
 62
     6
100
AcDb2dPolyline
 66
     1
 10
0.0
 20
0.0
 30
0.0
 70
   128
  0
VERTEX
  5
5AD
100
AcDbEntity
  8
止水栓
  6
CONTINUOUS
 62
     6
100
AcDbVertex
100
AcDb2dVertex
 10
428.638145
 20
2158.879395
 30
0.0
  0
VERTEX
  5
5AE
100
AcDbEntity
  8
止水栓
  6
CONTINUOUS
 62
     6
100
AcDbVertex
100
AcDb2dVertex
 10
428.618614
 20
2159.348145
 30
0.0
  0
VERTEX
  5
5AF
100
AcDbEntity
  8
止水栓
  6
CONTINUOUS
 62
     6
100
AcDbVertex
100
AcDb2dVertex
 10
428.56002
 20
2159.812012
 30
0.0
  0
VERTEX
  5
5B0
100
AcDbEntity
  8
止水栓
  6
CONTINUOUS
 62
     6
100
AcDbVertex
100
AcDb2dVertex
 10
428.459923
 20
2160.270996
 30
0.0
  0
VERTEX
  5
5B1
100
AcDbEntity
  8
止水栓
  6
CONTINUOUS
 62
     6
100
AcDbVertex
100
AcDb2dVertex
 10
428.325645
 20
2160.717774
 30
0.0
  0
VERTEX
  5
5B2
100
AcDbEntity
  8
止水栓
  6
CONTINUOUS
 62
     6
100
AcDbVertex
100
AcDb2dVertex
 10
428.149864
 20
2161.152344
 30
0.0
  0
VERTEX
  5
5B3
100
AcDbEntity
  8
止水栓
  6
CONTINUOUS
 62
     6
100
AcDbVertex
100
AcDb2dVertex
 10
427.942345
 20
2161.567383
 30
0.0
  0
VERTEX
  5
5B4
100
AcDbEntity
  8
止水栓
  6
CONTINUOUS
 62
     6
100
AcDbVertex
100
AcDb2dVertex
 10
427.698204
 20
2161.962891
 30
0.0
  0
VERTEX
  5
5B5
100
AcDbEntity
  8
止水栓
  6
CONTINUOUS
 62
     6
100
AcDbVertex
100
AcDb2dVertex
 10
427.422325
 20
2162.333984
 30
0.0
  0
VERTEX
  5
5B6
100
AcDbEntity
  8
止水栓
  6
CONTINUOUS
 62
     6
100
AcDbVertex
100
AcDb2dVertex
 10
427.117149
 20
2162.680664
 30
0.0
  0
VERTEX
  5
5B7
100
AcDbEntity
  8
止水栓
  6
CONTINUOUS
 62
     6
100
AcDbVertex
100
AcDb2dVertex
 10
426.782677
 20
2162.998047
 30
0.0
  0
VERTEX
  5
5B8
100
AcDbEntity
  8
止水栓
  6
CONTINUOUS
 62
     6
100
AcDbVertex
100
AcDb2dVertex
 10
426.421349
 20
2163.283691
 30
0.0
  0
VERTEX
  5
5B9
100
AcDbEntity
  8
止水栓
  6
CONTINUOUS
 62
     6
100
AcDbVertex
100
AcDb2dVertex
 10
426.040489
 20
2163.535156
 30
0.0
  0
VERTEX
  5
5BA
100
AcDbEntity
  8
止水栓
  6
CONTINUOUS
 62
     6
100
AcDbVertex
100
AcDb2dVertex
 10
425.637657
 20
2163.752441
 30
0.0
  0
VERTEX
  5
5BB
100
AcDbEntity
  8
止水栓
  6
CONTINUOUS
 62
     6
100
AcDbVertex
100
AcDb2dVertex
 10
425.220177
 20
2163.930664
 30
0.0
  0
VERTEX
  5
5BC
100
AcDbEntity
  8
止水栓
  6
CONTINUOUS
 62
     6
100
AcDbVertex
100
AcDb2dVertex
 10
424.788048
 20
2164.072266
 30
0.0
  0
VERTEX
  5
5BD
100
AcDbEntity
  8
止水栓
  6
CONTINUOUS
 62
     6
100
AcDbVertex
100
AcDb2dVertex
 10
424.343712
 20
2164.172363
 30
0.0
  0
VERTEX
  5
5BE
100
AcDbEntity
  8
止水栓
  6
CONTINUOUS
 62
     6
100
AcDbVertex
100
AcDb2dVertex
 10
423.894493
 20
2164.23584
 30
0.0
  0
VERTEX
  5
5BF
100
AcDbEntity
  8
止水栓
  6
CONTINUOUS
 62
     6
100
AcDbVertex
100
AcDb2dVertex
 10
423.442833
 20
2164.255371
 30
0.0
  0
VERTEX
  5
5C0
100
AcDbEntity
  8
止水栓
  6
CONTINUOUS
 62
     6
100
AcDbVertex
100
AcDb2dVertex
 10
422.988731
 20
2164.23584
 30
0.0
  0
VERTEX
  5
5C1
100
AcDbEntity
  8
止水栓
  6
CONTINUOUS
 62
     6
100
AcDbVertex
100
AcDb2dVertex
 10
422.539513
 20
2164.172363
 30
0.0
  0
VERTEX
  5
5C2
100
AcDbEntity
  8
止水栓
  6
CONTINUOUS
 62
     6
100
AcDbVertex
100
AcDb2dVertex
 10
422.097618
 20
2164.072266
 30
0.0
  0
VERTEX
  5
5C3
100
AcDbEntity
  8
止水栓
  6
CONTINUOUS
 62
     6
100
AcDbVertex
100
AcDb2dVertex
 10
421.665489
 20
2163.930664
 30
0.0
  0
VERTEX
  5
5C4
100
AcDbEntity
  8
止水栓
  6
CONTINUOUS
 62
     6
100
AcDbVertex
100
AcDb2dVertex
 10
421.245567
 20
2163.752441
 30
0.0
  0
VERTEX
  5
5C5
100
AcDbEntity
  8
止水栓
  6
CONTINUOUS
 62
     6
100
AcDbVertex
100
AcDb2dVertex
 10
420.842735
 20
2163.535156
 30
0.0
  0
VERTEX
  5
5C6
100
AcDbEntity
  8
止水栓
  6
CONTINUOUS
 62
     6
100
AcDbVertex
100
AcDb2dVertex
 10
420.461876
 20
2163.283691
 30
0.0
  0
VERTEX
  5
5C7
100
AcDbEntity
  8
止水栓
  6
CONTINUOUS
 62
     6
100
AcDbVertex
100
AcDb2dVertex
 10
420.102989
 20
2162.998047
 30
0.0
  0
VERTEX
  5
5C8
100
AcDbEntity
  8
止水栓
  6
CONTINUOUS
 62
     6
100
AcDbVertex
100
AcDb2dVertex
 10
419.768517
 20
2162.680664
 30
0.0
  0
VERTEX
  5
5C9
100
AcDbEntity
  8
止水栓
  6
CONTINUOUS
 62
     6
100
AcDbVertex
100
AcDb2dVertex
 10
419.460899
 20
2162.336426
 30
0.0
  0
VERTEX
  5
5CA
100
AcDbEntity
  8
止水栓
  6
CONTINUOUS
 62
     6
100
AcDbVertex
100
AcDb2dVertex
 10
419.18502
 20
2161.962891
 30
0.0
  0
VERTEX
  5
5CB
100
AcDbEntity
  8
止水栓
  6
CONTINUOUS
 62
     6
100
AcDbVertex
100
AcDb2dVertex
 10
418.94088
 20
2161.567383
 30
0.0
  0
VERTEX
  5
5CC
100
AcDbEntity
  8
止水栓
  6
CONTINUOUS
 62
     6
100
AcDbVertex
100
AcDb2dVertex
 10
418.73336
 20
2161.152344
 30
0.0
  0
VERTEX
  5
5CD
100
AcDbEntity
  8
止水栓
  6
CONTINUOUS
 62
     6
100
AcDbVertex
100
AcDb2dVertex
 10
418.56002
 20
2160.717774
 30
0.0
  0
VERTEX
  5
5CE
100
AcDbEntity
  8
止水栓
  6
CONTINUOUS
 62
     6
100
AcDbVertex
100
AcDb2dVertex
 10
418.423302
 20
2160.270996
 30
0.0
  0
VERTEX
  5
5CF
100
AcDbEntity
  8
止水栓
  6
CONTINUOUS
 62
     6
100
AcDbVertex
100
AcDb2dVertex
 10
418.325645
 20
2159.814453
 30
0.0
  0
VERTEX
  5
5D0
100
AcDbEntity
  8
止水栓
  6
CONTINUOUS
 62
     6
100
AcDbVertex
100
AcDb2dVertex
 10
418.267052
 20
2159.348145
 30
0.0
  0
VERTEX
  5
5D1
100
AcDbEntity
  8
止水栓
  6
CONTINUOUS
 62
     6
100
AcDbVertex
100
AcDb2dVertex
 10
418.245079
 20
2158.881836
 30
0.0
  0
VERTEX
  5
5D2
100
AcDbEntity
  8
止水栓
  6
CONTINUOUS
 62
     6
100
AcDbVertex
100
AcDb2dVertex
 10
418.26461
 20
2158.413086
 30
0.0
  0
VERTEX
  5
5D3
100
AcDbEntity
  8
止水栓
  6
CONTINUOUS
 62
     6
100
AcDbVertex
100
AcDb2dVertex
 10
418.325645
 20
2157.946777
 30
0.0
  0
VERTEX
  5
5D4
100
AcDbEntity
  8
止水栓
  6
CONTINUOUS
 62
     6
100
AcDbVertex
100
AcDb2dVertex
 10
418.423302
 20
2157.490234
 30
0.0
  0
VERTEX
  5
5D5
100
AcDbEntity
  8
止水栓
  6
CONTINUOUS
 62
     6
100
AcDbVertex
100
AcDb2dVertex
 10
418.56002
 20
2157.043457
 30
0.0
  0
VERTEX
  5
5D6
100
AcDbEntity
  8
止水栓
  6
CONTINUOUS
 62
     6
100
AcDbVertex
100
AcDb2dVertex
 10
418.73336
 20
2156.608887
 30
0.0
  0
VERTEX
  5
5D7
100
AcDbEntity
  8
止水栓
  6
CONTINUOUS
 62
     6
100
AcDbVertex
100
AcDb2dVertex
 10
418.94088
 20
2156.193848
 30
0.0
  0
VERTEX
  5
5D8
100
AcDbEntity
  8
止水栓
  6
CONTINUOUS
 62
     6
100
AcDbVertex
100
AcDb2dVertex
 10
419.18502
 20
2155.79834
 30
0.0
  0
VERTEX
  5
5D9
100
AcDbEntity
  8
止水栓
  6
CONTINUOUS
 62
     6
100
AcDbVertex
100
AcDb2dVertex
 10
419.460899
 20
2155.424805
 30
0.0
  0
VERTEX
  5
5DA
100
AcDbEntity
  8
止水栓
  6
CONTINUOUS
 62
     6
100
AcDbVertex
100
AcDb2dVertex
 10
419.768517
 20
2155.080566
 30
0.0
  0
VERTEX
  5
5DB
100
AcDbEntity
  8
止水栓
  6
CONTINUOUS
 62
     6
100
AcDbVertex
100
AcDb2dVertex
 10
420.102989
 20
2154.763184
 30
0.0
  0
VERTEX
  5
5DC
100
AcDbEntity
  8
止水栓
  6
CONTINUOUS
 62
     6
100
AcDbVertex
100
AcDb2dVertex
 10
420.461876
 20
2154.477539
 30
0.0
  0
VERTEX
  5
5DD
100
AcDbEntity
  8
止水栓
  6
CONTINUOUS
 62
     6
100
AcDbVertex
100
AcDb2dVertex
 10
420.842735
 20
2154.226074
 30
0.0
  0
VERTEX
  5
5DE
100
AcDbEntity
  8
止水栓
  6
CONTINUOUS
 62
     6
100
AcDbVertex
100
AcDb2dVertex
 10
421.245567
 20
2154.008789
 30
0.0
  0
VERTEX
  5
5DF
100
AcDbEntity
  8
止水栓
  6
CONTINUOUS
 62
     6
100
AcDbVertex
100
AcDb2dVertex
 10
421.665489
 20
2153.830566
 30
0.0
  0
VERTEX
  5
5E0
100
AcDbEntity
  8
止水栓
  6
CONTINUOUS
 62
     6
100
AcDbVertex
100
AcDb2dVertex
 10
422.097618
 20
2153.688965
 30
0.0
  0
VERTEX
  5
5E1
100
AcDbEntity
  8
止水栓
  6
CONTINUOUS
 62
     6
100
AcDbVertex
100
AcDb2dVertex
 10
422.539513
 20
2153.586426
 30
0.0
  0
VERTEX
  5
5E2
100
AcDbEntity
  8
止水栓
  6
CONTINUOUS
 62
     6
100
AcDbVertex
100
AcDb2dVertex
 10
422.988731
 20
2153.525391
 30
0.0
  0
VERTEX
  5
5E3
100
AcDbEntity
  8
止水栓
  6
CONTINUOUS
 62
     6
100
AcDbVertex
100
AcDb2dVertex
 10
423.442833
 20
2153.505859
 30
0.0
  0
VERTEX
  5
5E4
100
AcDbEntity
  8
止水栓
  6
CONTINUOUS
 62
     6
100
AcDbVertex
100
AcDb2dVertex
 10
423.894493
 20
2153.525391
 30
0.0
  0
VERTEX
  5
5E5
100
AcDbEntity
  8
止水栓
  6
CONTINUOUS
 62
     6
100
AcDbVertex
100
AcDb2dVertex
 10
424.343712
 20
2153.586426
 30
0.0
  0
VERTEX
  5
5E6
100
AcDbEntity
  8
止水栓
  6
CONTINUOUS
 62
     6
100
AcDbVertex
100
AcDb2dVertex
 10
424.785606
 20
2153.688965
 30
0.0
  0
VERTEX
  5
5E7
100
AcDbEntity
  8
止水栓
  6
CONTINUOUS
 62
     6
100
AcDbVertex
100
AcDb2dVertex
 10
425.220177
 20
2153.830566
 30
0.0
  0
VERTEX
  5
5E8
100
AcDbEntity
  8
止水栓
  6
CONTINUOUS
 62
     6
100
AcDbVertex
100
AcDb2dVertex
 10
425.637657
 20
2154.008789
 30
0.0
  0
SEQEND
  5
5E9
100
AcDbEntity
  8
止水栓
  6
CONTINUOUS
 62
     6
  0
POLYLINE
  5
5EA
100
AcDbEntity
  8
止水栓
  6
CONTINUOUS
 62
     6
100
AcDb2dPolyline
 66
     1
 10
0.0
 20
0.0
 30
0.0
 70
   128
  0
VERTEX
  5
5EB
100
AcDbEntity
  8
止水栓
  6
CONTINUOUS
 62
     6
100
AcDbVertex
100
AcDb2dVertex
 10
425.637657
 20
2154.008789
 30
0.0
  0
VERTEX
  5
5EC
100
AcDbEntity
  8
止水栓
  6
CONTINUOUS
 62
     6
100
AcDbVertex
100
AcDb2dVertex
 10
426.040489
 20
2154.226074
 30
0.0
  0
VERTEX
  5
5ED
100
AcDbEntity
  8
止水栓
  6
CONTINUOUS
 62
     6
100
AcDbVertex
100
AcDb2dVertex
 10
426.421349
 20
2154.477539
 30
0.0
  0
VERTEX
  5
5EE
100
AcDbEntity
  8
止水栓
  6
CONTINUOUS
 62
     6
100
AcDbVertex
100
AcDb2dVertex
 10
426.782677
 20
2154.763184
 30
0.0
  0
VERTEX
  5
5EF
100
AcDbEntity
  8
止水栓
  6
CONTINUOUS
 62
     6
100
AcDbVertex
100
AcDb2dVertex
 10
427.114708
 20
2155.080566
 30
0.0
  0
VERTEX
  5
5F0
100
AcDbEntity
  8
止水栓
  6
CONTINUOUS
 62
     6
100
AcDbVertex
100
AcDb2dVertex
 10
427.422325
 20
2155.424805
 30
0.0
  0
VERTEX
  5
5F1
100
AcDbEntity
  8
止水栓
  6
CONTINUOUS
 62
     6
100
AcDbVertex
100
AcDb2dVertex
 10
427.698204
 20
2155.795899
 30
0.0
  0
VERTEX
  5
5F2
100
AcDbEntity
  8
止水栓
  6
CONTINUOUS
 62
     6
100
AcDbVertex
100
AcDb2dVertex
 10
427.942345
 20
2156.193848
 30
0.0
  0
VERTEX
  5
5F3
100
AcDbEntity
  8
止水栓
  6
CONTINUOUS
 62
     6
100
AcDbVertex
100
AcDb2dVertex
 10
428.152306
 20
2156.608887
 30
0.0
  0
VERTEX
  5
5F4
100
AcDbEntity
  8
止水栓
  6
CONTINUOUS
 62
     6
100
AcDbVertex
100
AcDb2dVertex
 10
428.325645
 20
2157.041016
 30
0.0
  0
VERTEX
  5
5F5
100
AcDbEntity
  8
止水栓
  6
CONTINUOUS
 62
     6
100
AcDbVertex
100
AcDb2dVertex
 10
428.459923
 20
2157.487793
 30
0.0
  0
SEQEND
  5
5F6
100
AcDbEntity
  8
止水栓
  6
CONTINUOUS
 62
     6
  0
POLYLINE
  5
5F7
100
AcDbEntity
  8
止水栓
  6
CONTINUOUS
 62
     6
100
AcDb2dPolyline
 66
     1
 10
0.0
 20
0.0
 30
0.0
 70
   128
  0
VERTEX
  5
5F8
100
AcDbEntity
  8
止水栓
  6
CONTINUOUS
 62
     6
100
AcDbVertex
100
AcDb2dVertex
 10
428.459923
 20
2157.487793
 30
0.0
  0
VERTEX
  5
5F9
100
AcDbEntity
  8
止水栓
  6
CONTINUOUS
 62
     6
100
AcDbVertex
100
AcDb2dVertex
 10
428.56002
 20
2157.946777
 30
0.0
  0
VERTEX
  5
5FA
100
AcDbEntity
  8
止水栓
  6
CONTINUOUS
 62
     6
100
AcDbVertex
100
AcDb2dVertex
 10
428.618614
 20
2158.413086
 30
0.0
  0
VERTEX
  5
5FB
100
AcDbEntity
  8
止水栓
  6
CONTINUOUS
 62
     6
100
AcDbVertex
100
AcDb2dVertex
 10
428.638145
 20
2158.881836
 30
0.0
  0
SEQEND
  5
5FC
100
AcDbEntity
  8
止水栓
  6
CONTINUOUS
 62
     6
  0
POLYLINE
  5
5FD
100
AcDbEntity
  8
止水栓
  6
CONTINUOUS
 62
     6
100
AcDb2dPolyline
 66
     1
 10
0.0
 20
0.0
 30
0.0
 70
   128
  0
VERTEX
  5
5FE
100
AcDbEntity
  8
止水栓
  6
CONTINUOUS
 62
     6
100
AcDbVertex
100
AcDb2dVertex
 10
428.47213
 20
2171.845703
 30
0.0
  0
VERTEX
  5
5FF
100
AcDbEntity
  8
止水栓
  6
CONTINUOUS
 62
     6
100
AcDbVertex
100
AcDb2dVertex
 10
428.452599
 20
2172.312012
 30
0.0
  0
VERTEX
  5
600
100
AcDbEntity
  8
止水栓
  6
CONTINUOUS
 62
     6
100
AcDbVertex
100
AcDb2dVertex
 10
428.396446
 20
2172.775879
 30
0.0
  0
VERTEX
  5
601
100
AcDbEntity
  8
止水栓
  6
CONTINUOUS
 62
     6
100
AcDbVertex
100
AcDb2dVertex
 10
428.301231
 20
2173.234863
 30
0.0
  0
VERTEX
  5
602
100
AcDbEntity
  8
止水栓
  6
CONTINUOUS
 62
     6
100
AcDbVertex
100
AcDb2dVertex
 10
428.169395
 20
2173.679199
 30
0.0
  0
VERTEX
  5
603
100
AcDbEntity
  8
止水栓
  6
CONTINUOUS
 62
     6
100
AcDbVertex
100
AcDb2dVertex
 10
428.00338
 20
2174.111328
 30
0.0
  0
VERTEX
  5
604
100
AcDbEntity
  8
止水栓
  6
CONTINUOUS
 62
     6
100
AcDbVertex
100
AcDb2dVertex
 10
427.803184
 20
2174.526367
 30
0.0
  0
VERTEX
  5
605
100
AcDbEntity
  8
止水栓
  6
CONTINUOUS
 62
     6
100
AcDbVertex
100
AcDb2dVertex
 10
427.568809
 20
2174.919434
 30
0.0
  0
VERTEX
  5
606
100
AcDbEntity
  8
止水栓
  6
CONTINUOUS
 62
     6
100
AcDbVertex
100
AcDb2dVertex
 10
427.302696
 20
2175.290527
 30
0.0
  0
VERTEX
  5
607
100
AcDbEntity
  8
止水栓
  6
CONTINUOUS
 62
     6
100
AcDbVertex
100
AcDb2dVertex
 10
427.007286
 20
2175.637207
 30
0.0
  0
VERTEX
  5
608
100
AcDbEntity
  8
止水栓
  6
CONTINUOUS
 62
     6
100
AcDbVertex
100
AcDb2dVertex
 10
426.687462
 20
2175.952149
 30
0.0
  0
VERTEX
  5
609
100
AcDbEntity
  8
止水栓
  6
CONTINUOUS
 62
     6
100
AcDbVertex
100
AcDb2dVertex
 10
426.340782
 20
2176.237793
 30
0.0
  0
VERTEX
  5
60A
100
AcDbEntity
  8
止水栓
  6
CONTINUOUS
 62
     6
100
AcDbVertex
100
AcDb2dVertex
 10
425.97213
 20
2176.486816
 30
0.0
  0
VERTEX
  5
60B
100
AcDbEntity
  8
止水栓
  6
CONTINUOUS
 62
     6
100
AcDbVertex
100
AcDb2dVertex
 10
425.586388
 20
2176.704102
 30
0.0
  0
VERTEX
  5
60C
100
AcDbEntity
  8
止水栓
  6
CONTINUOUS
 62
     6
100
AcDbVertex
100
AcDb2dVertex
 10
425.183556
 20
2176.882324
 30
0.0
  0
VERTEX
  5
60D
100
AcDbEntity
  8
止水栓
  6
CONTINUOUS
 62
     6
100
AcDbVertex
100
AcDb2dVertex
 10
424.766075
 20
2177.023926
 30
0.0
  0
VERTEX
  5
60E
100
AcDbEntity
  8
止水栓
  6
CONTINUOUS
 62
     6
100
AcDbVertex
100
AcDb2dVertex
 10
424.34127
 20
2177.124024
 30
0.0
  0
VERTEX
  5
60F
100
AcDbEntity
  8
止水栓
  6
CONTINUOUS
 62
     6
100
AcDbVertex
100
AcDb2dVertex
 10
423.909142
 20
2177.185059
 30
0.0
  0
VERTEX
  5
610
100
AcDbEntity
  8
止水栓
  6
CONTINUOUS
 62
     6
100
AcDbVertex
100
AcDb2dVertex
 10
423.47213
 20
2177.20459
 30
0.0
  0
VERTEX
  5
611
100
AcDbEntity
  8
止水栓
  6
CONTINUOUS
 62
     6
100
AcDbVertex
100
AcDb2dVertex
 10
423.037559
 20
2177.185059
 30
0.0
  0
VERTEX
  5
612
100
AcDbEntity
  8
止水栓
  6
CONTINUOUS
 62
     6
100
AcDbVertex
100
AcDb2dVertex
 10
422.602989
 20
2177.124024
 30
0.0
  0
VERTEX
  5
613
100
AcDbEntity
  8
止水栓
  6
CONTINUOUS
 62
     6
100
AcDbVertex
100
AcDb2dVertex
 10
422.178184
 20
2177.023926
 30
0.0
  0
VERTEX
  5
614
100
AcDbEntity
  8
止水栓
  6
CONTINUOUS
 62
     6
100
AcDbVertex
100
AcDb2dVertex
 10
421.763145
 20
2176.882324
 30
0.0
  0
VERTEX
  5
615
100
AcDbEntity
  8
止水栓
  6
CONTINUOUS
 62
     6
100
AcDbVertex
100
AcDb2dVertex
 10
421.360313
 20
2176.704102
 30
0.0
  0
VERTEX
  5
616
100
AcDbEntity
  8
止水栓
  6
CONTINUOUS
 62
     6
100
AcDbVertex
100
AcDb2dVertex
 10
420.97213
 20
2176.486816
 30
0.0
  0
VERTEX
  5
617
100
AcDbEntity
  8
止水栓
  6
CONTINUOUS
 62
     6
100
AcDbVertex
100
AcDb2dVertex
 10
420.603477
 20
2176.237793
 30
0.0
  0
VERTEX
  5
618
100
AcDbEntity
  8
止水栓
  6
CONTINUOUS
 62
     6
100
AcDbVertex
100
AcDb2dVertex
 10
420.259239
 20
2175.952149
 30
0.0
  0
VERTEX
  5
619
100
AcDbEntity
  8
止水栓
  6
CONTINUOUS
 62
     6
100
AcDbVertex
100
AcDb2dVertex
 10
419.936974
 20
2175.637207
 30
0.0
  0
VERTEX
  5
61A
100
AcDbEntity
  8
止水栓
  6
CONTINUOUS
 62
     6
100
AcDbVertex
100
AcDb2dVertex
 10
419.641563
 20
2175.290527
 30
0.0
  0
VERTEX
  5
61B
100
AcDbEntity
  8
止水栓
  6
CONTINUOUS
 62
     6
100
AcDbVertex
100
AcDb2dVertex
 10
419.377892
 20
2174.919434
 30
0.0
  0
VERTEX
  5
61C
100
AcDbEntity
  8
止水栓
  6
CONTINUOUS
 62
     6
100
AcDbVertex
100
AcDb2dVertex
 10
419.141075
 20
2174.526367
 30
0.0
  0
VERTEX
  5
61D
100
AcDbEntity
  8
止水栓
  6
CONTINUOUS
 62
     6
100
AcDbVertex
100
AcDb2dVertex
 10
418.94088
 20
2174.111328
 30
0.0
  0
VERTEX
  5
61E
100
AcDbEntity
  8
止水栓
  6
CONTINUOUS
 62
     6
100
AcDbVertex
100
AcDb2dVertex
 10
418.774864
 20
2173.679199
 30
0.0
  0
VERTEX
  5
61F
100
AcDbEntity
  8
止水栓
  6
CONTINUOUS
 62
     6
100
AcDbVertex
100
AcDb2dVertex
 10
418.643028
 20
2173.234863
 30
0.0
  0
VERTEX
  5
620
100
AcDbEntity
  8
止水栓
  6
CONTINUOUS
 62
     6
100
AcDbVertex
100
AcDb2dVertex
 10
418.547813
 20
2172.77832
 30
0.0
  0
VERTEX
  5
621
100
AcDbEntity
  8
止水栓
  6
CONTINUOUS
 62
     6
100
AcDbVertex
100
AcDb2dVertex
 10
418.491661
 20
2172.314453
 30
0.0
  0
VERTEX
  5
622
100
AcDbEntity
  8
止水栓
  6
CONTINUOUS
 62
     6
100
AcDbVertex
100
AcDb2dVertex
 10
418.47213
 20
2171.848145
 30
0.0
  0
VERTEX
  5
623
100
AcDbEntity
  8
止水栓
  6
CONTINUOUS
 62
     6
100
AcDbVertex
100
AcDb2dVertex
 10
418.491661
 20
2171.379395
 30
0.0
  0
VERTEX
  5
624
100
AcDbEntity
  8
止水栓
  6
CONTINUOUS
 62
     6
100
AcDbVertex
100
AcDb2dVertex
 10
418.547813
 20
2170.917969
 30
0.0
  0
VERTEX
  5
625
100
AcDbEntity
  8
止水栓
  6
CONTINUOUS
 62
     6
100
AcDbVertex
100
AcDb2dVertex
 10
418.643028
 20
2170.461426
 30
0.0
  0
VERTEX
  5
626
100
AcDbEntity
  8
止水栓
  6
CONTINUOUS
 62
     6
100
AcDbVertex
100
AcDb2dVertex
 10
418.774864
 20
2170.014649
 30
0.0
  0
VERTEX
  5
627
100
AcDbEntity
  8
止水栓
  6
CONTINUOUS
 62
     6
100
AcDbVertex
100
AcDb2dVertex
 10
418.94088
 20
2169.58252
 30
0.0
  0
VERTEX
  5
628
100
AcDbEntity
  8
止水栓
  6
CONTINUOUS
 62
     6
100
AcDbVertex
100
AcDb2dVertex
 10
419.141075
 20
2169.16748
 30
0.0
  0
VERTEX
  5
629
100
AcDbEntity
  8
止水栓
  6
CONTINUOUS
 62
     6
100
AcDbVertex
100
AcDb2dVertex
 10
419.37545
 20
2168.771973
 30
0.0
  0
VERTEX
  5
62A
100
AcDbEntity
  8
止水栓
  6
CONTINUOUS
 62
     6
100
AcDbVertex
100
AcDb2dVertex
 10
419.641563
 20
2168.400879
 30
0.0
  0
VERTEX
  5
62B
100
AcDbEntity
  8
止水栓
  6
CONTINUOUS
 62
     6
100
AcDbVertex
100
AcDb2dVertex
 10
419.936974
 20
2168.056641
 30
0.0
  0
VERTEX
  5
62C
100
AcDbEntity
  8
止水栓
  6
CONTINUOUS
 62
     6
100
AcDbVertex
100
AcDb2dVertex
 10
420.259239
 20
2167.741699
 30
0.0
  0
VERTEX
  5
62D
100
AcDbEntity
  8
止水栓
  6
CONTINUOUS
 62
     6
100
AcDbVertex
100
AcDb2dVertex
 10
420.605919
 20
2167.456055
 30
0.0
  0
VERTEX
  5
62E
100
AcDbEntity
  8
止水栓
  6
CONTINUOUS
 62
     6
100
AcDbVertex
100
AcDb2dVertex
 10
420.97213
 20
2167.20459
 30
0.0
  0
VERTEX
  5
62F
100
AcDbEntity
  8
止水栓
  6
CONTINUOUS
 62
     6
100
AcDbVertex
100
AcDb2dVertex
 10
421.360313
 20
2166.989746
 30
0.0
  0
VERTEX
  5
630
100
AcDbEntity
  8
止水栓
  6
CONTINUOUS
 62
     6
100
AcDbVertex
100
AcDb2dVertex
 10
421.763145
 20
2166.811524
 30
0.0
  0
VERTEX
  5
631
100
AcDbEntity
  8
止水栓
  6
CONTINUOUS
 62
     6
100
AcDbVertex
100
AcDb2dVertex
 10
422.178184
 20
2166.669922
 30
0.0
  0
VERTEX
  5
632
100
AcDbEntity
  8
止水栓
  6
CONTINUOUS
 62
     6
100
AcDbVertex
100
AcDb2dVertex
 10
422.602989
 20
2166.569824
 30
0.0
  0
VERTEX
  5
633
100
AcDbEntity
  8
止水栓
  6
CONTINUOUS
 62
     6
100
AcDbVertex
100
AcDb2dVertex
 10
423.037559
 20
2166.508789
 30
0.0
  0
VERTEX
  5
634
100
AcDbEntity
  8
止水栓
  6
CONTINUOUS
 62
     6
100
AcDbVertex
100
AcDb2dVertex
 10
423.47213
 20
2166.486816
 30
0.0
  0
VERTEX
  5
635
100
AcDbEntity
  8
止水栓
  6
CONTINUOUS
 62
     6
100
AcDbVertex
100
AcDb2dVertex
 10
423.9067
 20
2166.506348
 30
0.0
  0
VERTEX
  5
636
100
AcDbEntity
  8
止水栓
  6
CONTINUOUS
 62
     6
100
AcDbVertex
100
AcDb2dVertex
 10
424.34127
 20
2166.567383
 30
0.0
  0
VERTEX
  5
637
100
AcDbEntity
  8
止水栓
  6
CONTINUOUS
 62
     6
100
AcDbVertex
100
AcDb2dVertex
 10
424.766075
 20
2166.669922
 30
0.0
  0
VERTEX
  5
638
100
AcDbEntity
  8
止水栓
  6
CONTINUOUS
 62
     6
100
AcDbVertex
100
AcDb2dVertex
 10
425.183556
 20
2166.809082
 30
0.0
  0
VERTEX
  5
639
100
AcDbEntity
  8
止水栓
  6
CONTINUOUS
 62
     6
100
AcDbVertex
100
AcDb2dVertex
 10
425.586388
 20
2166.989746
 30
0.0
  0
SEQEND
  5
63A
100
AcDbEntity
  8
止水栓
  6
CONTINUOUS
 62
     6
  0
POLYLINE
  5
63B
100
AcDbEntity
  8
止水栓
  6
CONTINUOUS
 62
     6
100
AcDb2dPolyline
 66
     1
 10
0.0
 20
0.0
 30
0.0
 70
   128
  0
VERTEX
  5
63C
100
AcDbEntity
  8
止水栓
  6
CONTINUOUS
 62
     6
100
AcDbVertex
100
AcDb2dVertex
 10
425.586388
 20
2166.989746
 30
0.0
  0
VERTEX
  5
63D
100
AcDbEntity
  8
止水栓
  6
CONTINUOUS
 62
     6
100
AcDbVertex
100
AcDb2dVertex
 10
425.97213
 20
2167.20459
 30
0.0
  0
VERTEX
  5
63E
100
AcDbEntity
  8
止水栓
  6
CONTINUOUS
 62
     6
100
AcDbVertex
100
AcDb2dVertex
 10
426.340782
 20
2167.456055
 30
0.0
  0
VERTEX
  5
63F
100
AcDbEntity
  8
止水栓
  6
CONTINUOUS
 62
     6
100
AcDbVertex
100
AcDb2dVertex
 10
426.68502
 20
2167.741699
 30
0.0
  0
VERTEX
  5
640
100
AcDbEntity
  8
止水栓
  6
CONTINUOUS
 62
     6
100
AcDbVertex
100
AcDb2dVertex
 10
427.007286
 20
2168.056641
 30
0.0
  0
VERTEX
  5
641
100
AcDbEntity
  8
止水栓
  6
CONTINUOUS
 62
     6
100
AcDbVertex
100
AcDb2dVertex
 10
427.302696
 20
2168.400879
 30
0.0
  0
VERTEX
  5
642
100
AcDbEntity
  8
止水栓
  6
CONTINUOUS
 62
     6
100
AcDbVertex
100
AcDb2dVertex
 10
427.568809
 20
2168.771973
 30
0.0
  0
VERTEX
  5
643
100
AcDbEntity
  8
止水栓
  6
CONTINUOUS
 62
     6
100
AcDbVertex
100
AcDb2dVertex
 10
427.803184
 20
2169.16748
 30
0.0
  0
VERTEX
  5
644
100
AcDbEntity
  8
止水栓
  6
CONTINUOUS
 62
     6
100
AcDbVertex
100
AcDb2dVertex
 10
428.00338
 20
2169.58252
 30
0.0
  0
VERTEX
  5
645
100
AcDbEntity
  8
止水栓
  6
CONTINUOUS
 62
     6
100
AcDbVertex
100
AcDb2dVertex
 10
428.169395
 20
2170.014649
 30
0.0
  0
VERTEX
  5
646
100
AcDbEntity
  8
止水栓
  6
CONTINUOUS
 62
     6
100
AcDbVertex
100
AcDb2dVertex
 10
428.301231
 20
2170.458984
 30
0.0
  0
SEQEND
  5
647
100
AcDbEntity
  8
止水栓
  6
CONTINUOUS
 62
     6
  0
POLYLINE
  5
648
100
AcDbEntity
  8
止水栓
  6
CONTINUOUS
 62
     6
100
AcDb2dPolyline
 66
     1
 10
0.0
 20
0.0
 30
0.0
 70
   128
  0
VERTEX
  5
649
100
AcDbEntity
  8
止水栓
  6
CONTINUOUS
 62
     6
100
AcDbVertex
100
AcDb2dVertex
 10
428.301231
 20
2170.458984
 30
0.0
  0
VERTEX
  5
64A
100
AcDbEntity
  8
止水栓
  6
CONTINUOUS
 62
     6
100
AcDbVertex
100
AcDb2dVertex
 10
428.396446
 20
2170.915527
 30
0.0
  0
VERTEX
  5
64B
100
AcDbEntity
  8
止水栓
  6
CONTINUOUS
 62
     6
100
AcDbVertex
100
AcDb2dVertex
 10
428.452599
 20
2171.379395
 30
0.0
  0
VERTEX
  5
64C
100
AcDbEntity
  8
止水栓
  6
CONTINUOUS
 62
     6
100
AcDbVertex
100
AcDb2dVertex
 10
428.47213
 20
2171.848145
 30
0.0
  0
SEQEND
  5
64D
100
AcDbEntity
  8
止水栓
  6
CONTINUOUS
 62
     6
  0
LINE
  5
64E
100
AcDbEntity
  8
止水栓
  6
CONTINUOUS
 62
     6
100
AcDbLine
 10
418.440392
 20
2177.597656
 30
0.0
 11
418.440392
 21
2153.098145
 31
0.0
  0
LINE
  5
64F
100
AcDbEntity
  8
止水栓
  6
CONTINUOUS
 62
     6
100
AcDbLine
 10
436.982872
 20
2177.597656
 30
0.0
 11
418.440392
 21
2177.597656
 31
0.0
  0
ARC
  5
650
100
AcDbEntity
  8
止水栓
  6
CONTINUOUS
 62
     6
100
AcDbCircle
 10
446.44088
 20
2118.347168
 30
0.0
 40
60.000057
100
AcDbArc
 50
96.075287
 51
99.069595
  0
LINE
  5
651
100
AcDbEntity
  8
止水栓
  6
CONTINUOUS
 62
     6
100
AcDbLine
 10
418.440392
 20
2154.848633
 30
0.0
 11
366.441856
 21
2154.848633
 31
0.0
  0
LINE
  5
652
100
AcDbEntity
  8
止水栓
  6
CONTINUOUS
 62
     6
100
AcDbLine
 10
418.440392
 20
2175.847168
 30
0.0
 11
366.441856
 21
2175.847168
 31
0.0
  0
ARC
  5
653
100
AcDbEntity
  8
止水栓
  6
CONTINUOUS
 62
     6
100
AcDbCircle
 10
352.440392
 20
2179.848633
 30
0.0
 40
12.999535
100
AcDbArc
 50
23.285661
 51
98.848084
  0
LINE
  5
654
100
AcDbEntity
  8
止水栓
  6
CONTINUOUS
 62
     6
100
AcDbLine
 10
366.441856
 20
2174.986066
 30
0.0
 11
366.441856
 21
2155.705566
 31
0.0
  0
ARC
  5
655
100
AcDbEntity
  8
止水栓
  6
CONTINUOUS
 62
     6
100
AcDbCircle
 10
341.141563
 20
2155.705566
 30
0.0
 40
25.298605
100
AcDbArc
 50
336.794876
 51
1.026596
  0
ARC
  5
656
100
AcDbEntity
  8
止水栓
  6
CONTINUOUS
 62
     6
100
AcDbCircle
 10
352.440392
 20
2150.847168
 30
0.0
 40
13.000488
100
AcDbArc
 50
270.000031
 51
336.852539
  0
LINE
  5
657
100
AcDbEntity
  8
止水栓
  6
CONTINUOUS
 62
     6
100
AcDbLine
 10
352.440392
 20
2137.84668
 30
0.0
 11
350.44088
 21
2137.84668
 31
0.0
  0
LINE
  5
658
100
AcDbEntity
  8
止水栓
  6
CONTINUOUS
 62
     6
100
AcDbLine
 10
350.44088
 20
2156.032715
 30
0.0
 11
342.45504
 21
2156.281738
 31
0.0
  0
LINE
  5
659
100
AcDbEntity
  8
止水栓
  6
CONTINUOUS
 62
     6
100
AcDbLine
 10
350.44088
 20
2154.848633
 30
0.0
 11
343.680626
 21
2155.058594
 31
0.0
  0
LINE
  5
65A
100
AcDbEntity
  8
止水栓
  6
CONTINUOUS
 62
     6
100
AcDbLine
 10
343.680626
 20
2155.058594
 30
0.0
 11
343.678184
 21
2175.637207
 31
0.0
  0
LINE
  5
65B
100
AcDbEntity
  8
止水栓
  6
CONTINUOUS
 62
     6
100
AcDbLine
 10
342.140099
 20
2174.09668
 30
0.0
 11
342.140099
 21
2156.59668
 31
0.0
  0
LINE
  5
65C
100
AcDbEntity
  8
止水栓
  6
CONTINUOUS
 62
     6
100
AcDbLine
 10
343.678184
 20
2175.637207
 30
0.0
 11
342.45504
 21
2174.411621
 31
0.0
  0
LINE
  5
65D
100
AcDbEntity
  8
止水栓
  6
CONTINUOUS
 62
     6
100
AcDbLine
 10
342.140099
 20
2156.59668
 30
0.0
 11
343.680626
 21
2155.058594
 31
0.0
  0
LINE
  5
65E
100
AcDbEntity
  8
止水栓
  6
CONTINUOUS
 62
     6
100
AcDbLine
 10
350.44088
 20
2175.847168
 30
0.0
 11
343.678184
 21
2175.637207
 31
0.0
  0
LINE
  5
65F
100
AcDbEntity
  8
止水栓
  6
CONTINUOUS
 62
     6
100
AcDbLine
 10
350.44088
 20
2174.663086
 30
0.0
 11
342.45504
 21
2174.411621
 31
0.0
  0
LINE
  5
660
100
AcDbEntity
  8
止水栓
  6
CONTINUOUS
 62
     6
100
AcDbLine
 10
459.153282
 20
2166.330566
 30
0.0
 11
459.189903
 21
2165.34668
 31
0.0
  0
LINE
  5
661
100
AcDbEntity
  8
止水栓
  6
CONTINUOUS
 62
     6
100
AcDbLine
 10
455.994102
 20
2153.112793
 30
0.0
 11
457.349083
 21
2153.347168
 31
0.0
  0
ARC
  5
662
100
AcDbEntity
  8
止水栓
  6
CONTINUOUS
 62
     6
100
AcDbCircle
 10
446.44088
 20
2165.34668
 30
0.0
 40
12.749701
100
AcDbArc
 50
295.593506
 51
304.420761
  0
ARC
  5
663
100
AcDbEntity
  8
止水栓
  6
CONTINUOUS
 62
     6
100
AcDbCircle
 10
446.44088
 20
2165.34668
 30
0.0
 40
12.75197
100
AcDbArc
 50
119.866592
 51
124.414185
  0
ARC
  5
664
100
AcDbEntity
  8
止水栓
  6
CONTINUOUS
 62
     6
100
AcDbCircle
 10
446.44088
 20
2118.347168
 30
0.0
 40
60.001211
100
AcDbArc
 50
79.52536
 51
83.92482
  0
LINE
  5
665
100
AcDbEntity
  8
止水栓
  6
CONTINUOUS
 62
     6
100
AcDbLine
 10
457.349083
 20
2177.348633
 30
0.0
 11
461.941368
 21
2177.348633
 31
0.0
  0
ARC
  5
666
100
AcDbEntity
  8
止水栓
  6
CONTINUOUS
 62
     6
100
AcDbCircle
 10
446.44088
 20
2165.34668
 30
0.0
 40
8.000031
100
AcDbArc
 50
142.538223
 51
37.46167
  0
LINE
  5
667
100
AcDbEntity
  8
止水栓
  6
CONTINUOUS
 62
     6
100
AcDbLine
 10
461.941368
 20
2152.595215
 30
0.0
 11
461.941368
 21
2178.095703
 31
0.0
  0
LINE
  5
668
100
AcDbEntity
  8
止水栓
  6
CONTINUOUS
 62
     6
100
AcDbLine
 10
478.342735
 20
2160.598145
 30
0.0
 11
474.841759
 21
2160.598145
 31
0.0
  0
LINE
  5
669
100
AcDbEntity
  8
止水栓
  6
CONTINUOUS
 62
     6
100
AcDbLine
 10
478.342735
 20
2160.598145
 30
0.0
 11
478.342735
 21
2164.348145
 31
0.0
  0
LINE
  5
66A
100
AcDbEntity
  8
止水栓
  6
CONTINUOUS
 62
     6
100
AcDbLine
 10
478.342735
 20
2164.348145
 30
0.0
 11
475.842735
 21
2164.348145
 31
0.0
  0
LINE
  5
66B
100
AcDbEntity
  8
止水栓
  6
CONTINUOUS
 62
     6
100
AcDbLine
 10
475.842735
 20
2164.348145
 30
0.0
 11
475.842735
 21
2166.347656
 31
0.0
  0
LINE
  5
66C
100
AcDbEntity
  8
止水栓
  6
CONTINUOUS
 62
     6
100
AcDbLine
 10
475.842735
 20
2166.347656
 30
0.0
 11
478.342735
 21
2166.347656
 31
0.0
  0
LINE
  5
66D
100
AcDbEntity
  8
止水栓
  6
CONTINUOUS
 62
     6
100
AcDbLine
 10
478.342735
 20
2166.347656
 30
0.0
 11
478.342735
 21
2170.097656
 31
0.0
  0
LINE
  5
66E
100
AcDbEntity
  8
止水栓
  6
CONTINUOUS
 62
     6
100
AcDbLine
 10
478.342735
 20
2170.097656
 30
0.0
 11
474.834434
 21
2170.097656
 31
0.0
  0
LINE
  5
66F
100
AcDbEntity
  8
止水栓
  6
CONTINUOUS
 62
     6
100
AcDbLine
 10
470.217735
 20
2153.442383
 30
0.0
 11
474.841759
 21
2160.046387
 31
0.0
  0
LINE
  5
670
100
AcDbEntity
  8
止水栓
  6
CONTINUOUS
 62
     6
100
AcDbLine
 10
474.841759
 20
2160.046387
 30
0.0
 11
474.841759
 21
2170.644531
 31
0.0
  0
LINE
  5
671
100
AcDbEntity
  8
止水栓
  6
CONTINUOUS
 62
     6
100
AcDbLine
 10
474.841759
 20
2170.644531
 30
0.0
 11
470.217735
 21
2177.248535
 31
0.0
  0
LINE
  5
672
100
AcDbEntity
  8
止水栓
  6
CONTINUOUS
 62
     6
100
AcDbLine
 10
470.217735
 20
2153.442383
 30
0.0
 11
470.217735
 21
2177.248535
 31
0.0
  0
ARC
  5
673
100
AcDbEntity
  8
止水栓
  6
CONTINUOUS
 62
     6
100
AcDbCircle
 10
465.715782
 20
2174.09668
 30
0.0
 40
5.500077
100
AcDbArc
 50
35.004379
 51
50.597412
  0
ARC
  5
674
100
AcDbEntity
  8
止水栓
  6
CONTINUOUS
 62
     6
100
AcDbCircle
 10
465.715782
 20
2174.09668
 30
0.0
 40
5.500002
100
AcDbArc
 50
129.402573
 51
133.338501
  0
ARC
  5
675
100
AcDbEntity
  8
止水栓
  6
CONTINUOUS
 62
     6
100
AcDbCircle
 10
465.715782
 20
2156.59668
 30
0.0
 40
5.500042
100
AcDbArc
 50
226.661499
 51
230.597427
  0
ARC
  5
676
100
AcDbEntity
  8
止水栓
  6
CONTINUOUS
 62
     6
100
AcDbCircle
 10
465.715782
 20
2156.59668
 30
0.0
 40
5.500002
100
AcDbArc
 50
309.402588
 51
324.996918
  0
LINE
  5
677
100
AcDbEntity
  8
止水栓
  6
CONTINUOUS
 62
     6
100
AcDbLine
 10
462.224571
 20
2152.346191
 30
0.0
 11
469.206993
 21
2152.346191
 31
0.0
  0
LINE
  5
678
100
AcDbEntity
  8
止水栓
  6
CONTINUOUS
 62
     6
100
AcDbLine
 10
462.224571
 20
2178.347168
 30
0.0
 11
469.206993
 21
2178.347168
 31
0.0
  0
POLYLINE
  5
679
100
AcDbEntity
  8
止水栓
  6
CONTINUOUS
 62
     6
100
AcDb2dPolyline
 66
     1
 10
0.0
 20
0.0
 30
0.0
 70
   128
  0
VERTEX
  5
67A
100
AcDbEntity
  8
止水栓
  6
CONTINUOUS
 62
     6
100
AcDbVertex
100
AcDb2dVertex
 10
469.206993
 20
2171.845703
 30
0.0
  0
VERTEX
  5
67B
100
AcDbEntity
  8
止水栓
  6
CONTINUOUS
 62
     6
100
AcDbVertex
100
AcDb2dVertex
 10
469.194786
 20
2172.285156
 30
0.0
  0
VERTEX
  5
67C
100
AcDbEntity
  8
止水栓
  6
CONTINUOUS
 62
     6
100
AcDbVertex
100
AcDb2dVertex
 10
469.153282
 20
2172.724609
 30
0.0
  0
VERTEX
  5
67D
100
AcDbEntity
  8
止水栓
  6
CONTINUOUS
 62
     6
100
AcDbVertex
100
AcDb2dVertex
 10
469.087364
 20
2173.154297
 30
0.0
  0
VERTEX
  5
67E
100
AcDbEntity
  8
止水栓
  6
CONTINUOUS
 62
     6
100
AcDbVertex
100
AcDb2dVertex
 10
468.997032
 20
2173.574219
 30
0.0
  0
VERTEX
  5
67F
100
AcDbEntity
  8
止水栓
  6
CONTINUOUS
 62
     6
100
AcDbVertex
100
AcDb2dVertex
 10
468.879845
 20
2173.981934
 30
0.0
  0
VERTEX
  5
680
100
AcDbEntity
  8
止水栓
  6
CONTINUOUS
 62
     6
100
AcDbVertex
100
AcDb2dVertex
 10
468.740684
 20
2174.375
 30
0.0
  0
VERTEX
  5
681
100
AcDbEntity
  8
止水栓
  6
CONTINUOUS
 62
     6
100
AcDbVertex
100
AcDb2dVertex
 10
468.57711
 20
2174.746094
 30
0.0
  0
VERTEX
  5
682
100
AcDbEntity
  8
止水栓
  6
CONTINUOUS
 62
     6
100
AcDbVertex
100
AcDb2dVertex
 10
468.391563
 20
2175.095215
 30
0.0
  0
VERTEX
  5
683
100
AcDbEntity
  8
止水栓
  6
CONTINUOUS
 62
     6
100
AcDbVertex
100
AcDb2dVertex
 10
468.186485
 20
2175.419922
 30
0.0
  0
VERTEX
  5
684
100
AcDbEntity
  8
止水栓
  6
CONTINUOUS
 62
     6
100
AcDbVertex
100
AcDb2dVertex
 10
467.961876
 20
2175.720215
 30
0.0
  0
VERTEX
  5
685
100
AcDbEntity
  8
止水栓
  6
CONTINUOUS
 62
     6
100
AcDbVertex
100
AcDb2dVertex
 10
467.720177
 20
2175.986328
 30
0.0
  0
VERTEX
  5
686
100
AcDbEntity
  8
止水栓
  6
CONTINUOUS
 62
     6
100
AcDbVertex
100
AcDb2dVertex
 10
467.461388
 20
2176.225586
 30
0.0
  0
VERTEX
  5
687
100
AcDbEntity
  8
止水栓
  6
CONTINUOUS
 62
     6
100
AcDbVertex
100
AcDb2dVertex
 10
467.190392
 20
2176.428223
 30
0.0
  0
VERTEX
  5
688
100
AcDbEntity
  8
止水栓
  6
CONTINUOUS
 62
     6
100
AcDbVertex
100
AcDb2dVertex
 10
466.90963
 20
2176.59668
 30
0.0
  0
VERTEX
  5
689
100
AcDbEntity
  8
止水栓
  6
CONTINUOUS
 62
     6
100
AcDbVertex
100
AcDb2dVertex
 10
466.619102
 20
2176.730957
 30
0.0
  0
VERTEX
  5
68A
100
AcDbEntity
  8
止水栓
  6
CONTINUOUS
 62
     6
100
AcDbVertex
100
AcDb2dVertex
 10
466.321251
 20
2176.826172
 30
0.0
  0
VERTEX
  5
68B
100
AcDbEntity
  8
止水栓
  6
CONTINUOUS
 62
     6
100
AcDbVertex
100
AcDb2dVertex
 10
466.020958
 20
2176.882324
 30
0.0
  0
VERTEX
  5
68C
100
AcDbEntity
  8
止水栓
  6
CONTINUOUS
 62
     6
100
AcDbVertex
100
AcDb2dVertex
 10
465.715782
 20
2176.901855
 30
0.0
  0
VERTEX
  5
68D
100
AcDbEntity
  8
止水栓
  6
CONTINUOUS
 62
     6
100
AcDbVertex
100
AcDb2dVertex
 10
465.410606
 20
2176.882324
 30
0.0
  0
VERTEX
  5
68E
100
AcDbEntity
  8
止水栓
  6
CONTINUOUS
 62
     6
100
AcDbVertex
100
AcDb2dVertex
 10
465.110313
 20
2176.826172
 30
0.0
  0
VERTEX
  5
68F
100
AcDbEntity
  8
止水栓
  6
CONTINUOUS
 62
     6
100
AcDbVertex
100
AcDb2dVertex
 10
464.812462
 20
2176.730957
 30
0.0
  0
VERTEX
  5
690
100
AcDbEntity
  8
止水栓
  6
CONTINUOUS
 62
     6
100
AcDbVertex
100
AcDb2dVertex
 10
464.521934
 20
2176.59668
 30
0.0
  0
VERTEX
  5
691
100
AcDbEntity
  8
止水栓
  6
CONTINUOUS
 62
     6
100
AcDbVertex
100
AcDb2dVertex
 10
464.241173
 20
2176.428223
 30
0.0
  0
VERTEX
  5
692
100
AcDbEntity
  8
止水栓
  6
CONTINUOUS
 62
     6
100
AcDbVertex
100
AcDb2dVertex
 10
463.972618
 20
2176.225586
 30
0.0
  0
VERTEX
  5
693
100
AcDbEntity
  8
止水栓
  6
CONTINUOUS
 62
     6
100
AcDbVertex
100
AcDb2dVertex
 10
463.71627
 20
2175.986328
 30
0.0
  0
VERTEX
  5
694
100
AcDbEntity
  8
止水栓
  6
CONTINUOUS
 62
     6
100
AcDbVertex
100
AcDb2dVertex
 10
463.474571
 20
2175.717774
 30
0.0
  0
VERTEX
  5
695
100
AcDbEntity
  8
止水栓
  6
CONTINUOUS
 62
     6
100
AcDbVertex
100
AcDb2dVertex
 10
463.24752
 20
2175.419922
 30
0.0
  0
VERTEX
  5
696
100
AcDbEntity
  8
止水栓
  6
CONTINUOUS
 62
     6
100
AcDbVertex
100
AcDb2dVertex
 10
463.042442
 20
2175.095215
 30
0.0
  0
VERTEX
  5
697
100
AcDbEntity
  8
止水栓
  6
CONTINUOUS
 62
     6
100
AcDbVertex
100
AcDb2dVertex
 10
462.856895
 20
2174.746094
 30
0.0
  0
VERTEX
  5
698
100
AcDbEntity
  8
止水栓
  6
CONTINUOUS
 62
     6
100
AcDbVertex
100
AcDb2dVertex
 10
462.69088
 20
2174.375
 30
0.0
  0
VERTEX
  5
699
100
AcDbEntity
  8
止水栓
  6
CONTINUOUS
 62
     6
100
AcDbVertex
100
AcDb2dVertex
 10
462.55172
 20
2173.981934
 30
0.0
  0
VERTEX
  5
69A
100
AcDbEntity
  8
止水栓
  6
CONTINUOUS
 62
     6
100
AcDbVertex
100
AcDb2dVertex
 10
462.434532
 20
2173.574219
 30
0.0
  0
VERTEX
  5
69B
100
AcDbEntity
  8
止水栓
  6
CONTINUOUS
 62
     6
100
AcDbVertex
100
AcDb2dVertex
 10
462.3442
 20
2173.154297
 30
0.0
  0
VERTEX
  5
69C
100
AcDbEntity
  8
止水栓
  6
CONTINUOUS
 62
     6
100
AcDbVertex
100
AcDb2dVertex
 10
462.278282
 20
2172.724609
 30
0.0
  0
VERTEX
  5
69D
100
AcDbEntity
  8
止水栓
  6
CONTINUOUS
 62
     6
100
AcDbVertex
100
AcDb2dVertex
 10
462.23922
 20
2172.285156
 30
0.0
  0
VERTEX
  5
69E
100
AcDbEntity
  8
止水栓
  6
CONTINUOUS
 62
     6
100
AcDbVertex
100
AcDb2dVertex
 10
462.227013
 20
2171.845703
 30
0.0
  0
VERTEX
  5
69F
100
AcDbEntity
  8
止水栓
  6
CONTINUOUS
 62
     6
100
AcDbVertex
100
AcDb2dVertex
 10
462.23922
 20
2171.403809
 30
0.0
  0
VERTEX
  5
6A0
100
AcDbEntity
  8
止水栓
  6
CONTINUOUS
 62
     6
100
AcDbVertex
100
AcDb2dVertex
 10
462.280724
 20
2170.966797
 30
0.0
  0
VERTEX
  5
6A1
100
AcDbEntity
  8
止水栓
  6
CONTINUOUS
 62
     6
100
AcDbVertex
100
AcDb2dVertex
 10
462.3442
 20
2170.537109
 30
0.0
  0
VERTEX
  5
6A2
100
AcDbEntity
  8
止水栓
  6
CONTINUOUS
 62
     6
100
AcDbVertex
100
AcDb2dVertex
 10
462.434532
 20
2170.117188
 30
0.0
  0
VERTEX
  5
6A3
100
AcDbEntity
  8
止水栓
  6
CONTINUOUS
 62
     6
100
AcDbVertex
100
AcDb2dVertex
 10
462.55172
 20
2169.709473
 30
0.0
  0
VERTEX
  5
6A4
100
AcDbEntity
  8
止水栓
  6
CONTINUOUS
 62
     6
100
AcDbVertex
100
AcDb2dVertex
 10
462.69088
 20
2169.316406
 30
0.0
  0
VERTEX
  5
6A5
100
AcDbEntity
  8
止水栓
  6
CONTINUOUS
 62
     6
100
AcDbVertex
100
AcDb2dVertex
 10
462.854454
 20
2168.945313
 30
0.0
  0
VERTEX
  5
6A6
100
AcDbEntity
  8
止水栓
  6
CONTINUOUS
 62
     6
100
AcDbVertex
100
AcDb2dVertex
 10
463.040001
 20
2168.596191
 30
0.0
  0
VERTEX
  5
6A7
100
AcDbEntity
  8
止水栓
  6
CONTINUOUS
 62
     6
100
AcDbVertex
100
AcDb2dVertex
 10
463.24752
 20
2168.269043
 30
0.0
  0
VERTEX
  5
6A8
100
AcDbEntity
  8
止水栓
  6
CONTINUOUS
 62
     6
100
AcDbVertex
100
AcDb2dVertex
 10
463.47213
 20
2167.971191
 30
0.0
  0
VERTEX
  5
6A9
100
AcDbEntity
  8
止水栓
  6
CONTINUOUS
 62
     6
100
AcDbVertex
100
AcDb2dVertex
 10
463.713829
 20
2167.702637
 30
0.0
  0
VERTEX
  5
6AA
100
AcDbEntity
  8
止水栓
  6
CONTINUOUS
 62
     6
100
AcDbVertex
100
AcDb2dVertex
 10
463.972618
 20
2167.46582
 30
0.0
  0
VERTEX
  5
6AB
100
AcDbEntity
  8
止水栓
  6
CONTINUOUS
 62
     6
100
AcDbVertex
100
AcDb2dVertex
 10
464.243614
 20
2167.263184
 30
0.0
  0
VERTEX
  5
6AC
100
AcDbEntity
  8
止水栓
  6
CONTINUOUS
 62
     6
100
AcDbVertex
100
AcDb2dVertex
 10
464.524376
 20
2167.092285
 30
0.0
  0
VERTEX
  5
6AD
100
AcDbEntity
  8
止水栓
  6
CONTINUOUS
 62
     6
100
AcDbVertex
100
AcDb2dVertex
 10
464.812462
 20
2166.960449
 30
0.0
  0
VERTEX
  5
6AE
100
AcDbEntity
  8
止水栓
  6
CONTINUOUS
 62
     6
100
AcDbVertex
100
AcDb2dVertex
 10
465.110313
 20
2166.865234
 30
0.0
  0
VERTEX
  5
6AF
100
AcDbEntity
  8
止水栓
  6
CONTINUOUS
 62
     6
100
AcDbVertex
100
AcDb2dVertex
 10
465.410606
 20
2166.809082
 30
0.0
  0
VERTEX
  5
6B0
100
AcDbEntity
  8
止水栓
  6
CONTINUOUS
 62
     6
100
AcDbVertex
100
AcDb2dVertex
 10
465.715782
 20
2166.789551
 30
0.0
  0
VERTEX
  5
6B1
100
AcDbEntity
  8
止水栓
  6
CONTINUOUS
 62
     6
100
AcDbVertex
100
AcDb2dVertex
 10
466.020958
 20
2166.809082
 30
0.0
  0
VERTEX
  5
6B2
100
AcDbEntity
  8
止水栓
  6
CONTINUOUS
 62
     6
100
AcDbVertex
100
AcDb2dVertex
 10
466.321251
 20
2166.865234
 30
0.0
  0
VERTEX
  5
6B3
100
AcDbEntity
  8
止水栓
  6
CONTINUOUS
 62
     6
100
AcDbVertex
100
AcDb2dVertex
 10
466.619102
 20
2166.960449
 30
0.0
  0
VERTEX
  5
6B4
100
AcDbEntity
  8
止水栓
  6
CONTINUOUS
 62
     6
100
AcDbVertex
100
AcDb2dVertex
 10
466.90963
 20
2167.094727
 30
0.0
  0
VERTEX
  5
6B5
100
AcDbEntity
  8
止水栓
  6
CONTINUOUS
 62
     6
100
AcDbVertex
100
AcDb2dVertex
 10
467.190392
 20
2167.263184
 30
0.0
  0
SEQEND
  5
6B6
100
AcDbEntity
  8
止水栓
  6
CONTINUOUS
 62
     6
  0
POLYLINE
  5
6B7
100
AcDbEntity
  8
止水栓
  6
CONTINUOUS
 62
     6
100
AcDb2dPolyline
 66
     1
 10
0.0
 20
0.0
 30
0.0
 70
   128
  0
VERTEX
  5
6B8
100
AcDbEntity
  8
止水栓
  6
CONTINUOUS
 62
     6
100
AcDbVertex
100
AcDb2dVertex
 10
467.190392
 20
2167.263184
 30
0.0
  0
VERTEX
  5
6B9
100
AcDbEntity
  8
止水栓
  6
CONTINUOUS
 62
     6
100
AcDbVertex
100
AcDb2dVertex
 10
467.461388
 20
2167.46582
 30
0.0
  0
VERTEX
  5
6BA
100
AcDbEntity
  8
止水栓
  6
CONTINUOUS
 62
     6
100
AcDbVertex
100
AcDb2dVertex
 10
467.717735
 20
2167.702637
 30
0.0
  0
VERTEX
  5
6BB
100
AcDbEntity
  8
止水栓
  6
CONTINUOUS
 62
     6
100
AcDbVertex
100
AcDb2dVertex
 10
467.959434
 20
2167.971191
 30
0.0
  0
VERTEX
  5
6BC
100
AcDbEntity
  8
止水栓
  6
CONTINUOUS
 62
     6
100
AcDbVertex
100
AcDb2dVertex
 10
468.186485
 20
2168.269043
 30
0.0
  0
VERTEX
  5
6BD
100
AcDbEntity
  8
止水栓
  6
CONTINUOUS
 62
     6
100
AcDbVertex
100
AcDb2dVertex
 10
468.391563
 20
2168.59375
 30
0.0
  0
VERTEX
  5
6BE
100
AcDbEntity
  8
止水栓
  6
CONTINUOUS
 62
     6
100
AcDbVertex
100
AcDb2dVertex
 10
468.57711
 20
2168.945313
 30
0.0
  0
VERTEX
  5
6BF
100
AcDbEntity
  8
止水栓
  6
CONTINUOUS
 62
     6
100
AcDbVertex
100
AcDb2dVertex
 10
468.740684
 20
2169.316406
 30
0.0
  0
VERTEX
  5
6C0
100
AcDbEntity
  8
止水栓
  6
CONTINUOUS
 62
     6
100
AcDbVertex
100
AcDb2dVertex
 10
468.879845
 20
2169.709473
 30
0.0
  0
VERTEX
  5
6C1
100
AcDbEntity
  8
止水栓
  6
CONTINUOUS
 62
     6
100
AcDbVertex
100
AcDb2dVertex
 10
468.997032
 20
2170.117188
 30
0.0
  0
VERTEX
  5
6C2
100
AcDbEntity
  8
止水栓
  6
CONTINUOUS
 62
     6
100
AcDbVertex
100
AcDb2dVertex
 10
469.087364
 20
2170.537109
 30
0.0
  0
SEQEND
  5
6C3
100
AcDbEntity
  8
止水栓
  6
CONTINUOUS
 62
     6
  0
POLYLINE
  5
6C4
100
AcDbEntity
  8
止水栓
  6
CONTINUOUS
 62
     6
100
AcDb2dPolyline
 66
     1
 10
0.0
 20
0.0
 30
0.0
 70
   128
  0
VERTEX
  5
6C5
100
AcDbEntity
  8
止水栓
  6
CONTINUOUS
 62
     6
100
AcDbVertex
100
AcDb2dVertex
 10
469.087364
 20
2170.537109
 30
0.0
  0
VERTEX
  5
6C6
100
AcDbEntity
  8
止水栓
  6
CONTINUOUS
 62
     6
100
AcDbVertex
100
AcDb2dVertex
 10
469.153282
 20
2170.966797
 30
0.0
  0
VERTEX
  5
6C7
100
AcDbEntity
  8
止水栓
  6
CONTINUOUS
 62
     6
100
AcDbVertex
100
AcDb2dVertex
 10
469.192345
 20
2171.40625
 30
0.0
  0
VERTEX
  5
6C8
100
AcDbEntity
  8
止水栓
  6
CONTINUOUS
 62
     6
100
AcDbVertex
100
AcDb2dVertex
 10
469.206993
 20
2171.845703
 30
0.0
  0
SEQEND
  5
6C9
100
AcDbEntity
  8
止水栓
  6
CONTINUOUS
 62
     6
  0
POLYLINE
  5
6CA
100
AcDbEntity
  8
止水栓
  6
CONTINUOUS
 62
     6
100
AcDb2dPolyline
 66
     1
 10
0.0
 20
0.0
 30
0.0
 70
   128
  0
VERTEX
  5
6CB
100
AcDbEntity
  8
止水栓
  6
CONTINUOUS
 62
     6
100
AcDbVertex
100
AcDb2dVertex
 10
469.206993
 20
2158.847656
 30
0.0
  0
VERTEX
  5
6CC
100
AcDbEntity
  8
止水栓
  6
CONTINUOUS
 62
     6
100
AcDbVertex
100
AcDb2dVertex
 10
469.194786
 20
2159.287109
 30
0.0
  0
VERTEX
  5
6CD
100
AcDbEntity
  8
止水栓
  6
CONTINUOUS
 62
     6
100
AcDbVertex
100
AcDb2dVertex
 10
469.153282
 20
2159.726563
 30
0.0
  0
VERTEX
  5
6CE
100
AcDbEntity
  8
止水栓
  6
CONTINUOUS
 62
     6
100
AcDbVertex
100
AcDb2dVertex
 10
469.087364
 20
2160.15625
 30
0.0
  0
VERTEX
  5
6CF
100
AcDbEntity
  8
止水栓
  6
CONTINUOUS
 62
     6
100
AcDbVertex
100
AcDb2dVertex
 10
468.997032
 20
2160.576172
 30
0.0
  0
VERTEX
  5
6D0
100
AcDbEntity
  8
止水栓
  6
CONTINUOUS
 62
     6
100
AcDbVertex
100
AcDb2dVertex
 10
468.879845
 20
2160.983887
 30
0.0
  0
VERTEX
  5
6D1
100
AcDbEntity
  8
止水栓
  6
CONTINUOUS
 62
     6
100
AcDbVertex
100
AcDb2dVertex
 10
468.740684
 20
2161.376953
 30
0.0
  0
VERTEX
  5
6D2
100
AcDbEntity
  8
止水栓
  6
CONTINUOUS
 62
     6
100
AcDbVertex
100
AcDb2dVertex
 10
468.57711
 20
2161.748047
 30
0.0
  0
VERTEX
  5
6D3
100
AcDbEntity
  8
止水栓
  6
CONTINUOUS
 62
     6
100
AcDbVertex
100
AcDb2dVertex
 10
468.391563
 20
2162.097168
 30
0.0
  0
VERTEX
  5
6D4
100
AcDbEntity
  8
止水栓
  6
CONTINUOUS
 62
     6
100
AcDbVertex
100
AcDb2dVertex
 10
468.186485
 20
2162.424316
 30
0.0
  0
VERTEX
  5
6D5
100
AcDbEntity
  8
止水栓
  6
CONTINUOUS
 62
     6
100
AcDbVertex
100
AcDb2dVertex
 10
467.961876
 20
2162.722168
 30
0.0
  0
VERTEX
  5
6D6
100
AcDbEntity
  8
止水栓
  6
CONTINUOUS
 62
     6
100
AcDbVertex
100
AcDb2dVertex
 10
467.720177
 20
2162.990723
 30
0.0
  0
VERTEX
  5
6D7
100
AcDbEntity
  8
止水栓
  6
CONTINUOUS
 62
     6
100
AcDbVertex
100
AcDb2dVertex
 10
467.461388
 20
2163.227539
 30
0.0
  0
VERTEX
  5
6D8
100
AcDbEntity
  8
止水栓
  6
CONTINUOUS
 62
     6
100
AcDbVertex
100
AcDb2dVertex
 10
467.190392
 20
2163.430176
 30
0.0
  0
VERTEX
  5
6D9
100
AcDbEntity
  8
止水栓
  6
CONTINUOUS
 62
     6
100
AcDbVertex
100
AcDb2dVertex
 10
466.90963
 20
2163.598633
 30
0.0
  0
VERTEX
  5
6DA
100
AcDbEntity
  8
止水栓
  6
CONTINUOUS
 62
     6
100
AcDbVertex
100
AcDb2dVertex
 10
466.619102
 20
2163.73291
 30
0.0
  0
VERTEX
  5
6DB
100
AcDbEntity
  8
止水栓
  6
CONTINUOUS
 62
     6
100
AcDbVertex
100
AcDb2dVertex
 10
466.321251
 20
2163.828125
 30
0.0
  0
VERTEX
  5
6DC
100
AcDbEntity
  8
止水栓
  6
CONTINUOUS
 62
     6
100
AcDbVertex
100
AcDb2dVertex
 10
466.020958
 20
2163.886719
 30
0.0
  0
VERTEX
  5
6DD
100
AcDbEntity
  8
止水栓
  6
CONTINUOUS
 62
     6
100
AcDbVertex
100
AcDb2dVertex
 10
465.715782
 20
2163.903809
 30
0.0
  0
VERTEX
  5
6DE
100
AcDbEntity
  8
止水栓
  6
CONTINUOUS
 62
     6
100
AcDbVertex
100
AcDb2dVertex
 10
465.410606
 20
2163.886719
 30
0.0
  0
VERTEX
  5
6DF
100
AcDbEntity
  8
止水栓
  6
CONTINUOUS
 62
     6
100
AcDbVertex
100
AcDb2dVertex
 10
465.110313
 20
2163.828125
 30
0.0
  0
VERTEX
  5
6E0
100
AcDbEntity
  8
止水栓
  6
CONTINUOUS
 62
     6
100
AcDbVertex
100
AcDb2dVertex
 10
464.812462
 20
2163.73291
 30
0.0
  0
VERTEX
  5
6E1
100
AcDbEntity
  8
止水栓
  6
CONTINUOUS
 62
     6
100
AcDbVertex
100
AcDb2dVertex
 10
464.521934
 20
2163.598633
 30
0.0
  0
VERTEX
  5
6E2
100
AcDbEntity
  8
止水栓
  6
CONTINUOUS
 62
     6
100
AcDbVertex
100
AcDb2dVertex
 10
464.241173
 20
2163.430176
 30
0.0
  0
VERTEX
  5
6E3
100
AcDbEntity
  8
止水栓
  6
CONTINUOUS
 62
     6
100
AcDbVertex
100
AcDb2dVertex
 10
463.972618
 20
2163.227539
 30
0.0
  0
VERTEX
  5
6E4
100
AcDbEntity
  8
止水栓
  6
CONTINUOUS
 62
     6
100
AcDbVertex
100
AcDb2dVertex
 10
463.71627
 20
2162.990723
 30
0.0
  0
VERTEX
  5
6E5
100
AcDbEntity
  8
止水栓
  6
CONTINUOUS
 62
     6
100
AcDbVertex
100
AcDb2dVertex
 10
463.474571
 20
2162.722168
 30
0.0
  0
VERTEX
  5
6E6
100
AcDbEntity
  8
止水栓
  6
CONTINUOUS
 62
     6
100
AcDbVertex
100
AcDb2dVertex
 10
463.24752
 20
2162.424316
 30
0.0
  0
VERTEX
  5
6E7
100
AcDbEntity
  8
止水栓
  6
CONTINUOUS
 62
     6
100
AcDbVertex
100
AcDb2dVertex
 10
463.042442
 20
2162.097168
 30
0.0
  0
VERTEX
  5
6E8
100
AcDbEntity
  8
止水栓
  6
CONTINUOUS
 62
     6
100
AcDbVertex
100
AcDb2dVertex
 10
462.856895
 20
2161.748047
 30
0.0
  0
VERTEX
  5
6E9
100
AcDbEntity
  8
止水栓
  6
CONTINUOUS
 62
     6
100
AcDbVertex
100
AcDb2dVertex
 10
462.69088
 20
2161.376953
 30
0.0
  0
VERTEX
  5
6EA
100
AcDbEntity
  8
止水栓
  6
CONTINUOUS
 62
     6
100
AcDbVertex
100
AcDb2dVertex
 10
462.55172
 20
2160.983887
 30
0.0
  0
VERTEX
  5
6EB
100
AcDbEntity
  8
止水栓
  6
CONTINUOUS
 62
     6
100
AcDbVertex
100
AcDb2dVertex
 10
462.434532
 20
2160.576172
 30
0.0
  0
VERTEX
  5
6EC
100
AcDbEntity
  8
止水栓
  6
CONTINUOUS
 62
     6
100
AcDbVertex
100
AcDb2dVertex
 10
462.3442
 20
2160.15625
 30
0.0
  0
VERTEX
  5
6ED
100
AcDbEntity
  8
止水栓
  6
CONTINUOUS
 62
     6
100
AcDbVertex
100
AcDb2dVertex
 10
462.278282
 20
2159.726563
 30
0.0
  0
VERTEX
  5
6EE
100
AcDbEntity
  8
止水栓
  6
CONTINUOUS
 62
     6
100
AcDbVertex
100
AcDb2dVertex
 10
462.23922
 20
2159.287109
 30
0.0
  0
VERTEX
  5
6EF
100
AcDbEntity
  8
止水栓
  6
CONTINUOUS
 62
     6
100
AcDbVertex
100
AcDb2dVertex
 10
462.227013
 20
2158.847656
 30
0.0
  0
VERTEX
  5
6F0
100
AcDbEntity
  8
止水栓
  6
CONTINUOUS
 62
     6
100
AcDbVertex
100
AcDb2dVertex
 10
462.23922
 20
2158.405762
 30
0.0
  0
VERTEX
  5
6F1
100
AcDbEntity
  8
止水栓
  6
CONTINUOUS
 62
     6
100
AcDbVertex
100
AcDb2dVertex
 10
462.280724
 20
2157.96875
 30
0.0
  0
VERTEX
  5
6F2
100
AcDbEntity
  8
止水栓
  6
CONTINUOUS
 62
     6
100
AcDbVertex
100
AcDb2dVertex
 10
462.3442
 20
2157.539063
 30
0.0
  0
VERTEX
  5
6F3
100
AcDbEntity
  8
止水栓
  6
CONTINUOUS
 62
     6
100
AcDbVertex
100
AcDb2dVertex
 10
462.434532
 20
2157.116699
 30
0.0
  0
VERTEX
  5
6F4
100
AcDbEntity
  8
止水栓
  6
CONTINUOUS
 62
     6
100
AcDbVertex
100
AcDb2dVertex
 10
462.55172
 20
2156.708984
 30
0.0
  0
VERTEX
  5
6F5
100
AcDbEntity
  8
止水栓
  6
CONTINUOUS
 62
     6
100
AcDbVertex
100
AcDb2dVertex
 10
462.69088
 20
2156.318359
 30
0.0
  0
VERTEX
  5
6F6
100
AcDbEntity
  8
止水栓
  6
CONTINUOUS
 62
     6
100
AcDbVertex
100
AcDb2dVertex
 10
462.854454
 20
2155.947266
 30
0.0
  0
VERTEX
  5
6F7
100
AcDbEntity
  8
止水栓
  6
CONTINUOUS
 62
     6
100
AcDbVertex
100
AcDb2dVertex
 10
463.040001
 20
2155.595703
 30
0.0
  0
VERTEX
  5
6F8
100
AcDbEntity
  8
止水栓
  6
CONTINUOUS
 62
     6
100
AcDbVertex
100
AcDb2dVertex
 10
463.24752
 20
2155.270996
 30
0.0
  0
VERTEX
  5
6F9
100
AcDbEntity
  8
止水栓
  6
CONTINUOUS
 62
     6
100
AcDbVertex
100
AcDb2dVertex
 10
463.47213
 20
2154.973145
 30
0.0
  0
VERTEX
  5
6FA
100
AcDbEntity
  8
止水栓
  6
CONTINUOUS
 62
     6
100
AcDbVertex
100
AcDb2dVertex
 10
463.713829
 20
2154.70459
 30
0.0
  0
VERTEX
  5
6FB
100
AcDbEntity
  8
止水栓
  6
CONTINUOUS
 62
     6
100
AcDbVertex
100
AcDb2dVertex
 10
463.972618
 20
2154.467774
 30
0.0
  0
VERTEX
  5
6FC
100
AcDbEntity
  8
止水栓
  6
CONTINUOUS
 62
     6
100
AcDbVertex
100
AcDb2dVertex
 10
464.243614
 20
2154.262695
 30
0.0
  0
VERTEX
  5
6FD
100
AcDbEntity
  8
止水栓
  6
CONTINUOUS
 62
     6
100
AcDbVertex
100
AcDb2dVertex
 10
464.524376
 20
2154.094238
 30
0.0
  0
VERTEX
  5
6FE
100
AcDbEntity
  8
止水栓
  6
CONTINUOUS
 62
     6
100
AcDbVertex
100
AcDb2dVertex
 10
464.812462
 20
2153.962402
 30
0.0
  0
VERTEX
  5
6FF
100
AcDbEntity
  8
止水栓
  6
CONTINUOUS
 62
     6
100
AcDbVertex
100
AcDb2dVertex
 10
465.110313
 20
2153.867188
 30
0.0
  0
VERTEX
  5
700
100
AcDbEntity
  8
止水栓
  6
CONTINUOUS
 62
     6
100
AcDbVertex
100
AcDb2dVertex
 10
465.410606
 20
2153.808594
 30
0.0
  0
VERTEX
  5
701
100
AcDbEntity
  8
止水栓
  6
CONTINUOUS
 62
     6
100
AcDbVertex
100
AcDb2dVertex
 10
465.715782
 20
2153.789063
 30
0.0
  0
VERTEX
  5
702
100
AcDbEntity
  8
止水栓
  6
CONTINUOUS
 62
     6
100
AcDbVertex
100
AcDb2dVertex
 10
466.020958
 20
2153.808594
 30
0.0
  0
VERTEX
  5
703
100
AcDbEntity
  8
止水栓
  6
CONTINUOUS
 62
     6
100
AcDbVertex
100
AcDb2dVertex
 10
466.321251
 20
2153.867188
 30
0.0
  0
VERTEX
  5
704
100
AcDbEntity
  8
止水栓
  6
CONTINUOUS
 62
     6
100
AcDbVertex
100
AcDb2dVertex
 10
466.619102
 20
2153.962402
 30
0.0
  0
VERTEX
  5
705
100
AcDbEntity
  8
止水栓
  6
CONTINUOUS
 62
     6
100
AcDbVertex
100
AcDb2dVertex
 10
466.90963
 20
2154.094238
 30
0.0
  0
VERTEX
  5
706
100
AcDbEntity
  8
止水栓
  6
CONTINUOUS
 62
     6
100
AcDbVertex
100
AcDb2dVertex
 10
467.190392
 20
2154.262695
 30
0.0
  0
SEQEND
  5
707
100
AcDbEntity
  8
止水栓
  6
CONTINUOUS
 62
     6
  0
POLYLINE
  5
708
100
AcDbEntity
  8
止水栓
  6
CONTINUOUS
 62
     6
100
AcDb2dPolyline
 66
     1
 10
0.0
 20
0.0
 30
0.0
 70
   128
  0
VERTEX
  5
709
100
AcDbEntity
  8
止水栓
  6
CONTINUOUS
 62
     6
100
AcDbVertex
100
AcDb2dVertex
 10
467.190392
 20
2154.262695
 30
0.0
  0
VERTEX
  5
70A
100
AcDbEntity
  8
止水栓
  6
CONTINUOUS
 62
     6
100
AcDbVertex
100
AcDb2dVertex
 10
467.461388
 20
2154.467774
 30
0.0
  0
VERTEX
  5
70B
100
AcDbEntity
  8
止水栓
  6
CONTINUOUS
 62
     6
100
AcDbVertex
100
AcDb2dVertex
 10
467.717735
 20
2154.70459
 30
0.0
  0
VERTEX
  5
70C
100
AcDbEntity
  8
止水栓
  6
CONTINUOUS
 62
     6
100
AcDbVertex
100
AcDb2dVertex
 10
467.959434
 20
2154.973145
 30
0.0
  0
VERTEX
  5
70D
100
AcDbEntity
  8
止水栓
  6
CONTINUOUS
 62
     6
100
AcDbVertex
100
AcDb2dVertex
 10
468.186485
 20
2155.270996
 30
0.0
  0
VERTEX
  5
70E
100
AcDbEntity
  8
止水栓
  6
CONTINUOUS
 62
     6
100
AcDbVertex
100
AcDb2dVertex
 10
468.391563
 20
2155.595703
 30
0.0
  0
VERTEX
  5
70F
100
AcDbEntity
  8
止水栓
  6
CONTINUOUS
 62
     6
100
AcDbVertex
100
AcDb2dVertex
 10
468.57711
 20
2155.947266
 30
0.0
  0
VERTEX
  5
710
100
AcDbEntity
  8
止水栓
  6
CONTINUOUS
 62
     6
100
AcDbVertex
100
AcDb2dVertex
 10
468.740684
 20
2156.318359
 30
0.0
  0
VERTEX
  5
711
100
AcDbEntity
  8
止水栓
  6
CONTINUOUS
 62
     6
100
AcDbVertex
100
AcDb2dVertex
 10
468.879845
 20
2156.708984
 30
0.0
  0
VERTEX
  5
712
100
AcDbEntity
  8
止水栓
  6
CONTINUOUS
 62
     6
100
AcDbVertex
100
AcDb2dVertex
 10
468.997032
 20
2157.116699
 30
0.0
  0
VERTEX
  5
713
100
AcDbEntity
  8
止水栓
  6
CONTINUOUS
 62
     6
100
AcDbVertex
100
AcDb2dVertex
 10
469.087364
 20
2157.539063
 30
0.0
  0
SEQEND
  5
714
100
AcDbEntity
  8
止水栓
  6
CONTINUOUS
 62
     6
  0
POLYLINE
  5
715
100
AcDbEntity
  8
止水栓
  6
CONTINUOUS
 62
     6
100
AcDb2dPolyline
 66
     1
 10
0.0
 20
0.0
 30
0.0
 70
   128
  0
VERTEX
  5
716
100
AcDbEntity
  8
止水栓
  6
CONTINUOUS
 62
     6
100
AcDbVertex
100
AcDb2dVertex
 10
469.087364
 20
2157.539063
 30
0.0
  0
VERTEX
  5
717
100
AcDbEntity
  8
止水栓
  6
CONTINUOUS
 62
     6
100
AcDbVertex
100
AcDb2dVertex
 10
469.153282
 20
2157.96875
 30
0.0
  0
VERTEX
  5
718
100
AcDbEntity
  8
止水栓
  6
CONTINUOUS
 62
     6
100
AcDbVertex
100
AcDb2dVertex
 10
469.192345
 20
2158.405762
 30
0.0
  0
VERTEX
  5
719
100
AcDbEntity
  8
止水栓
  6
CONTINUOUS
 62
     6
100
AcDbVertex
100
AcDb2dVertex
 10
469.206993
 20
2158.847656
 30
0.0
  0
SEQEND
  5
71A
100
AcDbEntity
  8
止水栓
  6
CONTINUOUS
 62
     6
  0
LINE
  5
71B
100
AcDbEntity
  8
止水栓
  6
CONTINUOUS
 62
     6
100
AcDbLine
 10
433.728477
 20
2166.330566
 30
0.0
 11
439.233849
 21
2175.866699
 31
0.0
  0
LINE
  5
71C
100
AcDbEntity
  8
止水栓
  6
CONTINUOUS
 62
     6
100
AcDbLine
 10
439.199669
 20
2154.853516
 30
0.0
 11
433.728477
 21
2164.365234
 31
0.0
  0
LINE
  5
71D
100
AcDbEntity
  8
止水栓
  6
CONTINUOUS
 62
     6
100
AcDbLine
 10
451.948692
 20
2153.847656
 30
0.0
 11
440.935509
 21
2153.847656
 31
0.0
  0
LINE
  5
71E
100
AcDbEntity
  8
止水栓
  6
CONTINUOUS
 62
     6
100
AcDbLine
 10
459.153282
 20
2164.365234
 30
0.0
 11
453.647911
 21
2154.829102
 31
0.0
  0
LINE
  5
71F
100
AcDbEntity
  8
止水栓
  6
CONTINUOUS
 62
     6
100
AcDbLine
 10
453.647911
 20
2175.866699
 30
0.0
 11
459.153282
 21
2166.330566
 31
0.0
  0
ARC
  5
720
100
AcDbEntity
  8
止水栓
  6
CONTINUOUS
 62
     6
100
AcDbCircle
 10
446.44088
 20
2165.34668
 30
0.0
 40
6.350098
100
AcDbArc
 50
180.000015
 51
0.0
  0
LINE
  5
721
100
AcDbEntity
  8
止水栓
  6
CONTINUOUS
 62
     6
100
AcDbLine
 10
452.790977
 20
2165.34668
 30
0.0
 11
452.790977
 21
2211.84668
 31
0.0
  0
ARC
  5
722
100
AcDbEntity
  8
止水栓
  6
CONTINUOUS
 62
     6
100
AcDbCircle
 10
341.141856
 20
2174.986066
 30
0.0
 40
25.3
100
AcDbArc
 50
0.0
 51
23.285661
  0
LINE
  5
723
100
AcDbEntity
  8
止水栓
  6
CONTINUOUS
 62
     6
100
AcDbLine
 10
434.714631
 20
2212.753793
 30
0.0
 11
434.714631
 21
2222.939567
 31
0.0
  0
LINE
  5
724
100
AcDbEntity
  8
止水栓
  6
CONTINUOUS
 62
     6
100
AcDbLine
 10
457.714631
 20
2212.753793
 30
0.0
 11
457.714631
 21
2222.939567
 31
0.0
  0
LINE
  5
725
100
AcDbEntity
  8
止水栓
  6
CONTINUOUS
 62
     6
100
AcDbLine
 10
435.245086
 20
2211.84668
 30
0.0
 11
457.184175
 21
2211.84668
 31
0.0
  0
LINE
  5
726
100
AcDbEntity
  8
止水栓
  6
CONTINUOUS
 62
     6
100
AcDbLine
 10
435.245086
 20
2223.84668
 30
0.0
 11
457.184175
 21
2223.84668
 31
0.0
  0
ARC
  5
727
100
AcDbEntity
  8
止水栓
  6
CONTINUOUS
 62
     6
100
AcDbCircle
 10
444.464631
 20
2217.84668
 30
0.0
 40
11.0
100
AcDbArc
 50
146.944269
 51
152.419801
  0
ARC
  5
728
100
AcDbEntity
  8
止水栓
  6
CONTINUOUS
 62
     6
100
AcDbCircle
 10
444.464631
 20
2217.84668
 30
0.0
 40
11.0
100
AcDbArc
 50
207.580199
 51
213.055731
  0
ARC
  5
729
100
AcDbEntity
  8
止水栓
  6
CONTINUOUS
 62
     6
100
AcDbCircle
 10
447.964631
 20
2217.84668
 30
0.0
 40
11.0
100
AcDbArc
 50
326.944269
 51
332.419801
  0
ARC
  5
72A
100
AcDbEntity
  8
止水栓
  6
CONTINUOUS
 62
     6
100
AcDbCircle
 10
447.964631
 20
2217.84668
 30
0.0
 40
11.0
100
AcDbArc
 50
27.580199
 51
33.055731
  0
ELLIPSE
  5
72B
100
AcDbEntity
  8
止水栓
  6
CONTINUOUS
 62
     6
100
AcDbEllipse
 10
451.964631
 20
2217.84668
 30
0.0
 11
0.0000000000000036
 21
-5.0928871968660001
 31
0.0
210
0.0
220
0.0
230
1.0
 40
0.936219
 41
0.0
 42
6.2831853071796004
  0
ELLIPSE
  5
72C
100
AcDbEntity
  8
止水栓
  6
CONTINUOUS
 62
     6
100
AcDbEllipse
 10
440.464631
 20
2217.84668
 30
0.0
 11
0.0000000000000036
 21
-5.0928871968660001
 31
0.0
210
0.0
220
0.0
230
1.0
 40
0.936219
 41
0.0
 42
6.2831853071796004
  0
TEXT
  5
72D
100
AcDbEntity
  8
止水栓
  6
CONTINUOUS
 62
     2
100
AcDbText
 10
208.254944
 20
2083.676269
 30
0.0
 40
40.0
  1
Ｒ
 41
0.9912
  7
EXCADSTD
 72
     5
 11
246.014942
 21
2083.676269
 31
0.0
100
AcDbText
  0
LINE
  5
72E
100
AcDbEntity
  8
止水栓
  6
CONTINUOUS
 62
     6
100
AcDbLine
 10
213.0
 20
2079.296387
 30
0.0
 11
297.897461
 21
2079.296387
 31
0.0
  0
LINE
  5
72F
100
AcDbEntity
  8
止水栓
  6
CONTINUOUS
 62
     6
100
AcDbLine
 10
1317.000599
 20
1300.105662
 30
0.0
 11
1333.473145
 21
1300.105662
 31
0.0
  0
ARC
  5
730
100
AcDbEntity
  8
止水栓
  6
CONTINUOUS
 62
     6
100
AcDbCircle
 10
1317.000599
 20
1276.455759
 30
0.0
 40
23.649902
100
AcDbArc
 50
89.999969
 51
180.000015
  0
LINE
  5
731
100
AcDbEntity
  8
止水栓
  6
CONTINUOUS
 62
     6
100
AcDbLine
 10
1317.000599
 20
1312.805857
 30
0.0
 11
1333.473145
 21
1312.805857
 31
0.0
  0
ARC
  5
732
100
AcDbEntity
  8
止水栓
  6
CONTINUOUS
 62
     6
100
AcDbCircle
 10
1317.000599
 20
1276.455759
 30
0.0
 40
36.350098
100
AcDbArc
 50
89.999969
 51
145.620941
  0
ARC
  5
733
100
AcDbEntity
  8
止水栓
  6
CONTINUOUS
 62
     6
100
AcDbCircle
 10
1287.0
 20
1081.508942
 30
0.0
 40
14.250727
100
AcDbArc
 50
84.179016
 51
95.820984
  0
ARC
  5
734
100
AcDbEntity
  8
止水栓
  6
CONTINUOUS
 62
     6
100
AcDbCircle
 10
1287.0
 20
1081.508942
 30
0.0
 40
14.250898
100
AcDbArc
 50
24.18074
 51
35.820297
  0
ARC
  5
735
100
AcDbEntity
  8
止水栓
  6
CONTINUOUS
 62
     6
100
AcDbCircle
 10
1287.0
 20
1081.508942
 30
0.0
 40
14.250441
100
AcDbArc
 50
324.180481
 51
335.81987
  0
ARC
  5
736
100
AcDbEntity
  8
止水栓
  6
CONTINUOUS
 62
     6
100
AcDbCircle
 10
1287.0
 20
1081.508942
 30
0.0
 40
14.250727
100
AcDbArc
 50
264.179016
 51
275.820984
  0
ARC
  5
737
100
AcDbEntity
  8
止水栓
  6
CONTINUOUS
 62
     6
100
AcDbCircle
 10
1287.0
 20
1081.508942
 30
0.0
 40
5.798589
100
AcDbArc
 50
180.530731
 51
179.999969
  0
ARC
  5
738
100
AcDbEntity
  8
止水栓
  6
CONTINUOUS
 62
     6
100
AcDbCircle
 10
1287.0
 20
1081.508942
 30
0.0
 40
4.748839
100
AcDbArc
 50
180.648041
 51
180.000092
  0
ARC
  5
739
100
AcDbEntity
  8
止水栓
  6
CONTINUOUS
 62
     6
100
AcDbCircle
 10
1317.000599
 20
1276.455759
 30
0.0
 40
36.349297
100
AcDbArc
 50
145.62149
 51
180.000015
  0
LINE
  5
73A
100
AcDbEntity
  8
止水栓
  6
CONTINUOUS
 62
     6
100
AcDbLine
 10
1296.316406
 20
1101.508942
 30
0.0
 11
1297.500488
 21
1101.508942
 31
0.0
  0
LINE
  5
73B
100
AcDbEntity
  8
止水栓
  6
CONTINUOUS
 62
     6
100
AcDbLine
 10
1276.501953
 20
1090.537262
 30
0.0
 11
1275.557129
 21
1090.000153
 31
0.0
  0
LINE
  5
73C
100
AcDbEntity
  8
止水栓
  6
CONTINUOUS
 62
     6
100
AcDbLine
 10
1276.501953
 20
1091.142731
 30
0.0
 11
1276.501953
 21
1090.537262
 31
0.0
  0
LINE
  5
73D
100
AcDbEntity
  8
止水栓
  6
CONTINUOUS
 62
     6
100
AcDbLine
 10
1297.500488
 20
1091.142731
 30
0.0
 11
1297.500488
 21
1090.456696
 31
0.0
  0
ARC
  5
73E
100
AcDbEntity
  8
止水栓
  6
CONTINUOUS
 62
     6
100
AcDbCircle
 10
1287.0
 20
1081.508942
 30
0.0
 40
14.248495
100
AcDbArc
 50
143.415161
 51
155.815567
  0
ARC
  5
73F
100
AcDbEntity
  8
止水栓
  6
CONTINUOUS
 62
     6
100
AcDbCircle
 10
1287.0
 20
1081.508942
 30
0.0
 40
14.248667
100
AcDbArc
 50
204.184753
 51
215.825424
  0
LINE
  5
740
100
AcDbEntity
  8
止水栓
  6
CONTINUOUS
 62
     6
100
AcDbLine
 10
1278.999512
 20
1123.508911
 30
0.0
 11
1295.000488
 21
1123.508911
 31
0.0
  0
LINE
  5
741
100
AcDbEntity
  8
止水栓
  6
CONTINUOUS
 62
     6
100
AcDbLine
 10
1275.500977
 20
1117.449341
 30
0.0
 11
1278.999512
 21
1123.508911
 31
0.0
  0
LINE
  5
742
100
AcDbEntity
  8
止水栓
  6
CONTINUOUS
 62
     6
100
AcDbLine
 10
1275.500977
 20
1105.796509
 30
0.0
 11
1275.500977
 21
1117.449341
 31
0.0
  0
LINE
  5
743
100
AcDbEntity
  8
止水栓
  6
CONTINUOUS
 62
     6
100
AcDbLine
 10
1275.500977
 20
1105.796509
 30
0.0
 11
1275.999023
 21
1105.508881
 31
0.0
  0
LINE
  5
744
100
AcDbEntity
  8
止水栓
  6
CONTINUOUS
 62
     6
100
AcDbLine
 10
1275.999023
 20
1105.508881
 30
0.0
 11
1298.000977
 21
1105.508881
 31
0.0
  0
LINE
  5
745
100
AcDbEntity
  8
止水栓
  6
CONTINUOUS
 62
     6
100
AcDbLine
 10
1298.000977
 20
1105.508881
 30
0.0
 11
1298.499023
 21
1105.796356
 31
0.0
  0
LINE
  5
746
100
AcDbEntity
  8
止水栓
  6
CONTINUOUS
 62
     6
100
AcDbLine
 10
1298.499023
 20
1105.796356
 30
0.0
 11
1298.499023
 21
1117.449188
 31
0.0
  0
LINE
  5
747
100
AcDbEntity
  8
止水栓
  6
CONTINUOUS
 62
     6
100
AcDbLine
 10
1298.499023
 20
1117.449188
 30
0.0
 11
1295.000488
 21
1123.508911
 31
0.0
  0
ARC
  5
748
100
AcDbEntity
  8
止水栓
  6
CONTINUOUS
 62
     6
100
AcDbCircle
 10
1292.749512
 20
1111.115265
 30
0.0
 40
6.333947
100
AcDbArc
 50
41.168259
 51
138.831726
  0
ARC
  5
749
100
AcDbEntity
  8
止水栓
  6
CONTINUOUS
 62
     6
100
AcDbCircle
 10
1281.250488
 20
1111.115265
 30
0.0
 40
6.333947
100
AcDbArc
 50
41.168259
 51
138.831726
  0
LINE
  5
74A
100
AcDbEntity
  8
止水栓
  6
CONTINUOUS
 62
     6
100
AcDbLine
 10
1275.500977
 20
1115.284729
 30
0.0
 11
1276.482422
 21
1115.284729
 31
0.0
  0
LINE
  5
74B
100
AcDbEntity
  8
止水栓
  6
CONTINUOUS
 62
     6
100
AcDbLine
 10
1286.018555
 20
1115.284729
 30
0.0
 11
1287.981445
 21
1115.284729
 31
0.0
  0
LINE
  5
74C
100
AcDbEntity
  8
止水栓
  6
CONTINUOUS
 62
     6
100
AcDbLine
 10
1297.517578
 20
1115.284729
 30
0.0
 11
1298.499023
 21
1115.284729
 31
0.0
  0
LINE
  5
74D
100
AcDbEntity
  8
止水栓
  6
CONTINUOUS
 62
     6
100
AcDbLine
 10
1297.517578
 20
1115.284729
 30
0.0
 11
1297.517578
 21
1105.796356
 31
0.0
  0
LINE
  5
74E
100
AcDbEntity
  8
止水栓
  6
CONTINUOUS
 62
     6
100
AcDbLine
 10
1287.981445
 20
1115.284729
 30
0.0
 11
1287.981445
 21
1105.796356
 31
0.0
  0
LINE
  5
74F
100
AcDbEntity
  8
止水栓
  6
CONTINUOUS
 62
     6
100
AcDbLine
 10
1286.018555
 20
1115.284729
 30
0.0
 11
1286.018555
 21
1105.796356
 31
0.0
  0
LINE
  5
750
100
AcDbEntity
  8
止水栓
  6
CONTINUOUS
 62
     6
100
AcDbLine
 10
1276.482422
 20
1115.284729
 30
0.0
 11
1276.482422
 21
1105.796356
 31
0.0
  0
LINE
  5
751
100
AcDbEntity
  8
止水栓
  6
CONTINUOUS
 62
     6
100
AcDbLine
 10
1276.501953
 20
1105.508881
 30
0.0
 11
1276.501953
 21
1091.142731
 31
0.0
  0
LINE
  5
752
100
AcDbEntity
  8
止水栓
  6
CONTINUOUS
 62
     6
100
AcDbLine
 10
1277.686035
 20
1101.508942
 30
0.0
 11
1277.686035
 21
1105.508881
 31
0.0
  0
LINE
  5
753
100
AcDbEntity
  8
止水栓
  6
CONTINUOUS
 62
     6
100
AcDbLine
 10
1296.316406
 20
1101.508942
 30
0.0
 11
1296.316406
 21
1105.508881
 31
0.0
  0
LINE
  5
754
100
AcDbEntity
  8
止水栓
  6
CONTINUOUS
 62
     6
100
AcDbLine
 10
1297.500488
 20
1105.508881
 30
0.0
 11
1297.500488
 21
1091.142731
 31
0.0
  0
LINE
  5
755
100
AcDbEntity
  8
止水栓
  6
CONTINUOUS
 62
     6
100
AcDbLine
 10
1280.652344
 20
1123.508911
 30
0.0
 11
1280.652344
 21
1276.730847
 31
0.0
  0
LINE
  5
756
100
AcDbEntity
  8
止水栓
  6
CONTINUOUS
 62
     6
100
AcDbLine
 10
1293.350098
 20
1123.508911
 30
0.0
 11
1293.350098
 21
1276.455759
 31
0.0
  0
LINE
  5
757
100
AcDbEntity
  8
止水栓
  6
CONTINUOUS
 62
     6
100
AcDbLine
 10
1288.445313
 20
1067.331696
 30
0.0
 11
1298.555176
 21
1073.169098
 31
0.0
  0
LINE
  5
758
100
AcDbEntity
  8
止水栓
  6
CONTINUOUS
 62
     6
100
AcDbLine
 10
1300.000488
 20
1075.671539
 30
0.0
 11
1300.000488
 21
1087.346344
 31
0.0
  0
LINE
  5
759
100
AcDbEntity
  8
止水栓
  6
CONTINUOUS
 62
     6
100
AcDbLine
 10
1285.554688
 20
1095.686188
 30
0.0
 11
1275.55957
 21
1090.00061
 31
0.0
  0
LINE
  5
75A
100
AcDbEntity
  8
止水栓
  6
CONTINUOUS
 62
     6
100
AcDbLine
 10
1296.316406
 20
1101.508942
 30
0.0
 11
1276.501953
 21
1101.508942
 31
0.0
  0
LINE
  5
75B
100
AcDbEntity
  8
止水栓
  6
CONTINUOUS
 62
     6
100
AcDbLine
 10
1288.000977
 20
1086.152496
 30
0.0
 11
1288.000977
 21
1076.865387
 31
0.0
  0
LINE
  5
75C
100
AcDbEntity
  8
止水栓
  6
CONTINUOUS
 62
     6
100
AcDbLine
 10
1286.001465
 20
1076.865387
 30
0.0
 11
1286.001465
 21
1086.152496
 31
0.0
  0
CIRCLE
  5
75D
100
AcDbEntity
  8
止水栓
  6
CONTINUOUS
 62
     6
100
AcDbCircle
 10
1287.0
 20
1081.508942
 30
0.0
 40
11.750031
  0
ARC
  5
75E
100
AcDbEntity
  8
止水栓
  6
CONTINUOUS
 62
     6
100
AcDbCircle
 10
1287.0
 20
1081.455231
 30
0.0
 40
27.499275
100
AcDbArc
 50
115.623245
 51
65.281754
  0
LINE
  5
75F
100
AcDbEntity
  8
止水栓
  6
CONTINUOUS
 62
     6
100
AcDbLine
 10
1274.001953
 20
1087.345886
 30
0.0
 11
1274.001953
 21
1075.671539
 31
0.0
  0
LINE
  5
760
100
AcDbEntity
  8
止水栓
  6
CONTINUOUS
 62
     6
100
AcDbLine
 10
1275.447266
 20
1073.169098
 30
0.0
 11
1285.55957
 21
1067.331238
 31
0.0
  0
LINE
  5
761
100
AcDbEntity
  8
止水栓
  6
CONTINUOUS
 62
     6
100
AcDbLine
 10
1298.557617
 20
1089.846191
 30
0.0
 11
1288.445313
 21
1095.686188
 31
0.0
  0
LINE
  5
762
100
AcDbEntity
  8
止水栓
  6
CONTINUOUS
 62
     6
100
AcDbLine
 10
1333.473145
 20
1317.460521
 30
0.0
 11
1333.473145
 21
1295.456432
 31
0.0
  0
ARC
  5
763
100
AcDbEntity
  8
止水栓
  6
CONTINUOUS
 62
     6
100
AcDbCircle
 10
1339.5
 20
1304.658443
 30
0.0
 40
11.0
100
AcDbArc
 50
236.777222
 51
303.05574
  0
ARC
  5
764
100
AcDbEntity
  8
止水栓
  6
CONTINUOUS
 62
     6
100
AcDbCircle
 10
1339.5
 20
1308.258449
 30
0.0
 40
11.0
100
AcDbArc
 50
56.94426
 51
123.222778
  0
LINE
  5
765
100
AcDbEntity
  8
止水栓
  6
CONTINUOUS
 62
     6
100
AcDbLine
 10
1345.5
 20
1295.438899
 30
0.0
 11
1345.5
 21
1317.478099
 31
0.0
  0
ELLIPSE
  5
766
100
AcDbEntity
  8
止水栓
  6
CONTINUOUS
 62
     6
100
AcDbEllipse
 10
1339.5
 20
1316.417738
 30
0.0
 11
5.1874906428820005
 21
0.0
 31
0.0
210
0.0
220
0.0
230
1.0
 40
0.530669
 41
0.0
 42
6.2831853071796004
  0
ELLIPSE
  5
767
100
AcDbEntity
  8
止水栓
  6
CONTINUOUS
 62
     6
100
AcDbEllipse
 10
1339.5
 20
1306.458446
 30
0.0
 11
0.0000000000000039
 21
-5.5056788863860024
 31
0.0
210
0.0
220
0.0
230
1.0
 40
0.942207
 41
0.0
 42
6.2831853071796004
  0
ELLIPSE
  5
768
100
AcDbEntity
  8
止水栓
  6
CONTINUOUS
 62
     6
100
AcDbEllipse
 10
1339.5
 20
1296.499154
 30
0.0
 11
5.1874906428820005
 21
0.0
 31
0.0
210
0.0
220
0.0
230
1.0
 40
0.530669
 41
0.0
 42
6.2831853071796004
  0
TEXT
  5
769
100
AcDbEntity
  8
止水栓
  6
CONTINUOUS
 62
     2
100
AcDbText
 10
658.495896
 20
382.267577
 30
0.0
 40
40.0
  1
ＶＵ 、ＶＰ１００
 41
0.584957
  7
EXCADSTD
 72
     5
 11
903.995912
 21
382.267577
 31
0.0
100
AcDbText
  0
TEXT
  5
76A
100
AcDbEntity
  8
止水栓
  6
CONTINUOUS
 62
     2
100
AcDbText
 10
630.079959
 20
435.578893
 30
0.0
 40
40.0
  1
ＶＵ 、ＶＰ７５
 41
0.584531
  7
EXCADSTD
 72
     5
 11
847.579973
 21
435.578893
 31
0.0
100
AcDbText
  0
LINE
  5
76B
100
AcDbEntity
  8
止水栓
  6
CONTINUOUS
 62
     6
100
AcDbLine
 10
658.495896
 20
378.767577
 30
0.0
 11
901.440302
 21
378.767577
 31
0.0
  0
LINE
  5
76C
100
AcDbEntity
  8
止水栓
  6
CONTINUOUS
 62
     6
100
AcDbLine
 10
630.079959
 20
432.078893
 30
0.0
 11
845.440302
 21
432.078893
 31
0.0
  0
LINE
  5
76D
100
AcDbEntity
  8
便座
  6
CONTINUOUS
 62
     6
100
AcDbLine
 10
636.440367
 20
954.455261
 30
0.0
 11
636.440367
 21
946.455231
 31
0.0
  0
LINE
  5
76E
100
AcDbEntity
  8
便座
  6
CONTINUOUS
 62
     6
100
AcDbLine
 10
692.622924
 20
960.45517
 30
0.0
 11
689.43933
 21
946.455231
 31
0.0
  0
ARC
  5
76F
100
AcDbEntity
  8
便座
  6
CONTINUOUS
 62
     6
100
AcDbCircle
 10
685.891967
 20
971.455231
 30
0.0
 40
9.000652
100
AcDbArc
 50
347.196423
 51
90.0
  0
LINE
  5
770
100
AcDbEntity
  8
便座
  6
CONTINUOUS
 62
     6
100
AcDbLine
 10
676.93933
 20
980.45517
 30
0.0
 11
685.891967
 21
980.45517
 31
0.0
  0
LINE
  5
771
100
AcDbEntity
  8
便座
  6
CONTINUOUS
 62
     6
100
AcDbLine
 10
672.774291
 20
962.127838
 30
0.0
 11
676.93933
 21
980.45517
 31
0.0
  0
ARC
  5
772
100
AcDbEntity
  8
便座
  6
CONTINUOUS
 62
     6
100
AcDbCircle
 10
666.924681
 20
963.457642
 30
0.0
 40
5.999851
100
AcDbArc
 50
275.862109
 51
347.192521
  0
LINE
  5
773
100
AcDbEntity
  8
便座
  6
CONTINUOUS
 62
     6
100
AcDbLine
 10
636.440367
 20
954.455261
 30
0.0
 11
667.537474
 21
957.489166
 31
0.0
  0
LINE
  5
774
100
AcDbEntity
  8
便座
  6
CONTINUOUS
 62
     6
100
AcDbLine
 10
679.632201
 20
993.187714
 30
0.0
 11
677.115111
 21
980.45517
 31
0.0
  0
LINE
  5
775
100
AcDbEntity
  8
便座
  6
CONTINUOUS
 62
     6
100
AcDbLine
 10
682.803626
 20
1009.230998
 30
0.0
 11
679.632201
 21
993.187714
 31
0.0
  0
ARC
  5
776
100
AcDbEntity
  8
便座
  6
CONTINUOUS
 62
     6
100
AcDbCircle
 10
656.497435
 20
-6.5448
 30
0.0
 40
999.999741
100
AcDbArc
 50
85.814773
 51
88.674324
  0
LINE
  5
777
100
AcDbEntity
  8
便座
  6
CONTINUOUS
 62
     6
100
AcDbLine
 10
695.020385
 20
980.45517
 30
0.0
 11
695.662467
 21
992.687697
 31
0.0
  0
LINE
  5
778
100
AcDbEntity
  8
便座
  6
CONTINUOUS
 62
     6
100
AcDbLine
 10
685.891967
 20
980.45517
 30
0.0
 11
706.341185
 21
980.45517
 31
0.0
  0
ARC
  5
779
100
AcDbEntity
  8
便座
  6
CONTINUOUS
 62
     6
100
AcDbCircle
 10
706.341185
 20
973.4552
 30
0.0
 40
6.99997
100
AcDbArc
 50
90.0
 51
162.582827
  0
ARC
  5
77A
100
AcDbEntity
  8
便座
  6
CONTINUOUS
 62
     6
100
AcDbCircle
 10
756.971068
 20
957.788544
 30
0.0
 40
59.999009
100
AcDbArc
 50
162.780069
 51
177.452688
  0
LINE
  5
77B
100
AcDbEntity
  8
便座
  6
CONTINUOUS
 62
     6
100
AcDbLine
 10
692.622924
 20
960.45517
 30
0.0
 11
697.032103
 21
960.45517
 31
0.0
  0
ARC
  5
77C
100
AcDbEntity
  8
便座
  6
CONTINUOUS
 62
     6
100
AcDbCircle
 10
698.557982
 20
960.9552
 30
0.0
 40
1.499357
100
AcDbArc
 50
199.474967
 51
270.0
  0
LINE
  5
77D
100
AcDbEntity
  8
便座
  6
CONTINUOUS
 62
     6
100
AcDbLine
 10
697.940306
 20
959.455261
 30
0.0
 11
1103.50183
 21
959.455261
 31
0.0
  0
LINE
  5
77E
100
AcDbEntity
  8
便座
  6
CONTINUOUS
 62
     6
100
AcDbLine
 10
1094.689023
 20
980.45517
 30
0.0
 11
706.341185
 21
980.45517
 31
0.0
  0
ARC
  5
77F
100
AcDbEntity
  8
便座
  6
CONTINUOUS
 62
     6
100
AcDbCircle
 10
982.439818
 20
986.955261
 30
0.0
 40
9.000402
100
AcDbArc
 50
189.594227
 51
226.247088
  0
ARC
  5
780
100
AcDbEntity
  8
便座
  6
CONTINUOUS
 62
     6
100
AcDbCircle
 10
875.440306
 20
2985.456696
 30
0.0
 40
2000.000274
100
AcDbArc
 50
265.814642
 51
270.000017
  0
LINE
  5
781
100
AcDbEntity
  8
便座
  6
CONTINUOUS
 62
     6
100
AcDbLine
 10
875.435424
 20
985.45639
 30
0.0
 11
1078.923599
 21
985.454247
 31
0.0
  0
LINE
  5
782
100
AcDbEntity
  8
便座
  6
CONTINUOUS
 62
     6
100
AcDbLine
 10
846.740906
 20
1012.455292
 30
0.0
 11
686.72769
 21
1012.455292
 31
0.0
  0
LINE
  5
783
100
AcDbEntity
  8
便座
  6
CONTINUOUS
 62
     6
100
AcDbLine
 10
827.100463
 20
952.326355
 30
0.0
 11
964.827513
 21
955.872955
 31
0.0
  0
LINE
  5
784
100
AcDbEntity
  8
便座
  6
CONTINUOUS
 62
     6
100
AcDbLine
 10
800.906615
 20
951.455231
 30
0.0
 11
827.100463
 21
951.455231
 31
0.0
  0
LINE
  5
785
100
AcDbEntity
  8
便座
  6
CONTINUOUS
 62
     6
100
AcDbLine
 10
754.43933
 20
950.45517
 30
0.0
 11
800.906615
 21
951.651764
 31
0.0
  0
LINE
  5
786
100
AcDbEntity
  8
便座
  6
CONTINUOUS
 62
     6
100
AcDbLine
 10
754.43933
 20
950.45517
 30
0.0
 11
753.055053
 21
959.455261
 31
0.0
  0
LINE
  5
787
100
AcDbEntity
  8
便座
  6
CONTINUOUS
 62
     6
100
AcDbLine
 10
800.906615
 20
951.455231
 30
0.0
 11
800.906615
 21
959.455261
 31
0.0
  0
ARC
  5
788
100
AcDbEntity
  8
便座
  6
CONTINUOUS
 62
     6
100
AcDbCircle
 10
803.907103
 20
949.455261
 30
0.0
 40
3.000488
100
AcDbArc
 50
180.000023
 51
270.0
  0
ARC
  5
789
100
AcDbEntity
  8
便座
  6
CONTINUOUS
 62
     6
100
AcDbCircle
 10
824.099974
 20
949.455261
 30
0.0
 40
3.000031
100
AcDbArc
 50
270.0
 51
0.0
  0
LINE
  5
78A
100
AcDbEntity
  8
便座
  6
CONTINUOUS
 62
     6
100
AcDbLine
 10
827.100463
 20
949.455261
 30
0.0
 11
827.100463
 21
959.455261
 31
0.0
  0
LINE
  5
78B
100
AcDbEntity
  8
便座
  6
CONTINUOUS
 62
     6
100
AcDbLine
 10
964.827513
 20
951.455231
 30
0.0
 11
964.827513
 21
959.455261
 31
0.0
  0
ARC
  5
78C
100
AcDbEntity
  8
便座
  6
CONTINUOUS
 62
     6
100
AcDbCircle
 10
967.828002
 20
949.455261
 30
0.0
 40
3.000488
100
AcDbArc
 50
180.000023
 51
270.0
  0
LINE
  5
78D
100
AcDbEntity
  8
便座
  6
CONTINUOUS
 62
     6
100
AcDbLine
 10
964.827513
 20
951.455231
 30
0.0
 11
994.781127
 21
951.455231
 31
0.0
  0
LINE
  5
78E
100
AcDbEntity
  8
便座
  6
CONTINUOUS
 62
     6
100
AcDbLine
 10
994.781127
 20
949.455261
 30
0.0
 11
994.781127
 21
959.455261
 31
0.0
  0
LINE
  5
78F
100
AcDbEntity
  8
便座
  6
CONTINUOUS
 62
     6
100
AcDbLine
 10
994.781127
 20
956.644135
 30
0.0
 11
1105.440306
 21
959.493891
 31
0.0
  0
LINE
  5
790
100
AcDbEntity
  8
便座
  6
CONTINUOUS
 62
     6
100
AcDbLine
 10
694.668822
 20
969.460602
 30
0.0
 11
692.622924
 21
960.45517
 31
0.0
  0
LINE
  5
791
100
AcDbEntity
  8
便座
  6
CONTINUOUS
 62
     6
100
AcDbLine
 10
964.827513
 20
951.455231
 30
0.0
 11
964.827513
 21
949.455261
 31
0.0
  0
ARC
  5
792
100
AcDbEntity
  8
便座
  6
CONTINUOUS
 62
     6
100
AcDbCircle
 10
991.780638
 20
949.455261
 30
0.0
 40
3.000031
100
AcDbArc
 50
270.0
 51
0.0
  0
ARC
  5
793
100
AcDbEntity
  8
便座
  6
CONTINUOUS
 62
     6
100
AcDbCircle
 10
982.439818
 20
986.955261
 30
0.0
 40
9.000506
100
AcDbArc
 50
313.764264
 51
350.405815
  0
LINE
  5
794
100
AcDbEntity
  8
便座
  6
CONTINUOUS
 62
     6
100
AcDbLine
 10
800.906615
 20
949.455261
 30
0.0
 11
800.906615
 21
951.455231
 31
0.0
  0
ARC
  5
795
100
AcDbEntity
  8
便座
  6
CONTINUOUS
 62
     6
100
AcDbCircle
 10
686.72769
 20
1008.455292
 30
0.0
 40
4.0
100
AcDbArc
 50
90.0
 51
168.817978
  0
ARC
  5
796
100
AcDbEntity
  8
便座
  6
CONTINUOUS
 62
     6
100
AcDbCircle
 10
1070.440328
 20
959.455141
 30
0.0
 40
35.0
100
AcDbArc
 50
0.063434
 51
30.000068
  0
ARC
  5
797
100
AcDbEntity
  8
便座
  6
CONTINUOUS
 62
     6
100
AcDbCircle
 10
1094.689023
 20
973.45517
 30
0.0
 40
7.0
100
AcDbArc
 50
30.000068
 51
90.0
  0
LINE
  5
798
100
AcDbEntity
  8
便座
  6
CONTINUOUS
 62
     6
100
AcDbLine
 10
875.43555
 20
997.45639
 30
0.0
 11
1083.959314
 21
997.454194
 31
0.0
  0
ARC
  5
799
100
AcDbEntity
  8
便座
  6
CONTINUOUS
 62
     6
100
AcDbCircle
 10
846.740906
 20
-1487.544708
 30
0.0
 40
2500.0
100
AcDbArc
 50
85.909561
 51
90.0
  0
ARC
  5
79A
100
AcDbEntity
  8
便座
  6
CONTINUOUS
 62
     6
100
AcDbCircle
 10
989.402917
 20
507.360691
 30
0.0
 40
500.0
100
AcDbArc
 50
78.934073
 51
85.909561
  0
ARC
  5
79B
100
AcDbEntity
  8
便座
  6
CONTINUOUS
 62
     6
100
AcDbCircle
 10
1068.210591
 20
975.301074
 30
0.0
 40
30.0
100
AcDbArc
 50
30.338019
 51
40.349757
  0
ARC
  5
79C
100
AcDbEntity
  8
便座
  6
CONTINUOUS
 62
     6
100
AcDbCircle
 10
1083.452718
 20
988.250111
 30
0.0
 40
10.0
100
AcDbArc
 50
40.349757
 51
78.934073
  0
ARC
  5
79D
100
AcDbEntity
  8
便座
  6
CONTINUOUS
 62
     6
100
AcDbCircle
 10
875.44072
 20
2985.45639
 30
0.0
 40
1988.0
100
AcDbArc
 50
265.81463
 51
269.999851
  0
ARC
  5
79E
100
AcDbEntity
  8
便座
  6
CONTINUOUS
 62
     6
100
AcDbCircle
 10
656.518608
 20
-6.545132
 30
0.0
 40
1012.0
100
AcDbArc
 50
85.816249
 51
88.381474
  0
LINE
  5
79F
100
AcDbEntity
  8
便座
  6
CONTINUOUS
 62
     6
100
AcDbLine
 10
1078.923599
 20
985.454247
 30
0.0
 11
1094.102408
 21
990.454087
 31
0.0
  0
CIRCLE
  5
7A0
100
AcDbEntity
  8
便座
  6
EXLTYPE2
 62
     6
100
AcDbCircle
 10
660.441132
 20
2380.34668
 30
0.0
 40
6.000977
  0
CIRCLE
  5
7A1
100
AcDbEntity
  8
便座
  6
EXLTYPE2
 62
     6
100
AcDbCircle
 10
660.441132
 20
2520.34668
 30
0.0
 40
6.000977
  0
LINE
  5
7A2
100
AcDbEntity
  8
便座
  6
CONTINUOUS
 62
     6
100
AcDbLine
 10
636.442108
 20
2502.346649
 30
0.0
 11
636.442108
 21
2532.346649
 31
0.0
  0
LINE
  5
7A3
100
AcDbEntity
  8
便座
  6
CONTINUOUS
 62
     6
100
AcDbLine
 10
636.442108
 20
2502.346649
 30
0.0
 11
674.940643
 21
2502.346649
 31
0.0
  0
LINE
  5
7A4
100
AcDbEntity
  8
便座
  6
CONTINUOUS
 62
     6
100
AcDbLine
 10
636.442108
 20
2398.34671
 30
0.0
 11
674.940643
 21
2398.34671
 31
0.0
  0
LINE
  5
7A5
100
AcDbEntity
  8
便座
  6
CONTINUOUS
 62
     6
100
AcDbLine
 10
636.442108
 20
2398.34671
 30
0.0
 11
636.442108
 21
2368.34671
 31
0.0
  0
LINE
  5
7A6
100
AcDbEntity
  8
便座
  6
CONTINUOUS
 62
     6
100
AcDbLine
 10
636.442108
 20
2368.34671
 30
0.0
 11
679.940643
 21
2368.34671
 31
0.0
  0
LINE
  5
7A7
100
AcDbEntity
  8
便座
  6
CONTINUOUS
 62
     6
100
AcDbLine
 10
679.940643
 20
2387.84668
 30
0.0
 11
666.442108
 21
2387.84668
 31
0.0
  0
LINE
  5
7A8
100
AcDbEntity
  8
便座
  6
CONTINUOUS
 62
     6
100
AcDbLine
 10
679.940643
 20
2512.84668
 30
0.0
 11
666.442108
 21
2512.84668
 31
0.0
  0
LINE
  5
7A9
100
AcDbEntity
  8
便座
  6
CONTINUOUS
 62
     6
100
AcDbLine
 10
679.940643
 20
2532.346649
 30
0.0
 11
636.442108
 21
2532.346649
 31
0.0
  0
ARC
  5
7AA
100
AcDbEntity
  8
便座
  6
CONTINUOUS
 62
     6
100
AcDbCircle
 10
875.441132
 20
2290.84668
 30
0.0
 40
335.0
100
AcDbArc
 50
85.315374
 51
122.557614
  0
ARC
  5
7AB
100
AcDbEntity
  8
便座
  6
CONTINUOUS
 62
     6
100
AcDbCircle
 10
875.441132
 20
2290.84668
 30
0.0
 40
327.0
100
AcDbArc
 50
85.315374
 51
123.571704
  0
ARC
  5
7AC
100
AcDbEntity
  8
便座
  6
CONTINUOUS
 62
     6
100
AcDbCircle
 10
970.441132
 20
2450.34668
 30
0.0
 40
118.0
100
AcDbArc
 50
329.426629
 51
30.573371
  0
ARC
  5
7AD
100
AcDbEntity
  8
便座
  6
CONTINUOUS
 62
     6
100
AcDbCircle
 10
970.441132
 20
2450.34668
 30
0.0
 40
135.0
100
AcDbArc
 50
328.738377
 51
31.261623
  0
LINE
  5
7AE
100
AcDbEntity
  8
便座
  6
CONTINUOUS
 62
     6
100
AcDbLine
 10
683.441132
 20
2542.4714
 30
0.0
 11
683.441132
 21
2358.221959
 31
0.0
  0
LINE
  5
7AF
100
AcDbEntity
  8
便座
  6
CONTINUOUS
 62
     6
100
AcDbLine
 10
674.941132
 20
2387.84668
 30
0.0
 11
674.941132
 21
2512.84668
 31
0.0
  0
LINE
  5
7B0
100
AcDbEntity
  8
便座
  6
CONTINUOUS
 62
     6
100
AcDbLine
 10
681.306171
 20
2352.777205
 30
0.0
 11
681.306171
 21
2419.59668
 31
0.0
  0
LINE
  5
7B1
100
AcDbEntity
  8
便座
  6
CONTINUOUS
 62
     6
100
AcDbLine
 10
681.306171
 20
2481.09668
 30
0.0
 11
681.306171
 21
2547.916154
 31
0.0
  0
LINE
  5
7B2
100
AcDbEntity
  8
便座
  6
CONTINUOUS
 62
     6
100
AcDbLine
 10
674.941132
 20
2481.09668
 30
0.0
 11
681.306171
 21
2481.09668
 31
0.0
  0
LINE
  5
7B3
100
AcDbEntity
  8
便座
  6
CONTINUOUS
 62
     6
100
AcDbLine
 10
674.941132
 20
2419.59668
 30
0.0
 11
681.306171
 21
2419.59668
 31
0.0
  0
ARC
  5
7B4
100
AcDbEntity
  8
便座
  6
CONTINUOUS
 62
     6
100
AcDbCircle
 10
875.441132
 20
2609.84668
 30
0.0
 40
335.0
100
AcDbArc
 50
237.442386
 51
274.684626
  0
ARC
  5
7B5
100
AcDbEntity
  8
便座
  6
CONTINUOUS
 62
     6
100
AcDbCircle
 10
875.441132
 20
2609.84668
 30
0.0
 40
327.0
100
AcDbArc
 50
236.428296
 51
274.684626
  0
ARC
  5
7B6
100
AcDbEntity
  8
便座
  6
CONTINUOUS
 62
     6
100
AcDbCircle
 10
884.34328
 20
2501.210812
 30
0.0
 40
226.0
100
AcDbArc
 50
274.684626
 51
329.426629
  0
ARC
  5
7B7
100
AcDbEntity
  8
便座
  6
CONTINUOUS
 62
     6
100
AcDbCircle
 10
884.34328
 20
2501.210812
 30
0.0
 40
218.0
100
AcDbArc
 50
274.684626
 51
329.426629
  0
ARC
  5
7B8
100
AcDbEntity
  8
便座
  6
CONTINUOUS
 62
     6
100
AcDbCircle
 10
884.34328
 20
2399.482547
 30
0.0
 40
226.0
100
AcDbArc
 50
30.573371
 51
85.315374
  0
ARC
  5
7B9
100
AcDbEntity
  8
便座
  6
CONTINUOUS
 62
     6
100
AcDbCircle
 10
884.34328
 20
2399.482547
 30
0.0
 40
218.0
100
AcDbArc
 50
30.573371
 51
85.315374
  0
ARC
  5
7BA
100
AcDbEntity
  8
便座
  6
CONTINUOUS
 62
     6
100
AcDbCircle
 10
708.441132
 20
2542.4714
 30
0.0
 40
25.0
100
AcDbArc
 50
123.571704
 51
180.0
  0
ARC
  5
7BB
100
AcDbEntity
  8
便座
  6
CONTINUOUS
 62
     6
100
AcDbCircle
 10
708.441132
 20
2358.221959
 30
0.0
 40
25.0
100
AcDbArc
 50
180.0
 51
236.428296
  0
ARC
  5
7BC
100
AcDbEntity
  8
便座
  6
CONTINUOUS
 62
     6
100
AcDbCircle
 10
711.306171
 20
2547.916154
 30
0.0
 40
30.0
100
AcDbArc
 50
122.557614
 51
180.0
  0
ARC
  5
7BD
100
AcDbEntity
  8
便座
  6
CONTINUOUS
 62
     6
100
AcDbCircle
 10
711.306171
 20
2352.777205
 30
0.0
 40
30.0
100
AcDbArc
 50
180.0
 51
237.442386
  0
ARC
  5
7BE
100
AcDbEntity
  8
便座
  6
CONTINUOUS
 62
     6
100
AcDbCircle
 10
875.441132
 20
2283.84668
 30
0.0
 40
350.0
100
AcDbArc
 50
85.251802
 51
117.689613
  0
ARC
  5
7BF
100
AcDbEntity
  8
便座
  6
CONTINUOUS
 62
     6
100
AcDbCircle
 10
875.441132
 20
2616.84668
 30
0.0
 40
350.0
100
AcDbArc
 50
242.310387
 51
274.748198
  0
ARC
  5
7C0
100
AcDbEntity
  8
便座
  6
CONTINUOUS
 62
     6
100
AcDbCircle
 10
884.96047
 20
2502.241347
 30
0.0
 40
235.0
100
AcDbArc
 50
274.748198
 51
328.738377
  0
ARC
  5
7C1
100
AcDbEntity
  8
便座
  6
CONTINUOUS
 62
     6
100
AcDbCircle
 10
884.96047
 20
2398.452012
 30
0.0
 40
235.0
100
AcDbArc
 50
31.261623
 51
85.251802
  0
ARC
  5
7C2
100
AcDbEntity
  8
便座
  6
CONTINUOUS
 62
     6
100
AcDbCircle
 10
724.419634
 20
2571.626991
 30
0.0
 40
25.0
100
AcDbArc
 50
117.689613
 51
169.629498
  0
ARC
  5
7C3
100
AcDbEntity
  8
便座
  6
CONTINUOUS
 62
     6
100
AcDbCircle
 10
724.419634
 20
2329.066369
 30
0.0
 40
25.0
100
AcDbArc
 50
190.370502
 51
242.310387
  0
ARC
  5
7C4
100
AcDbEntity
  8
便座
  6
CONTINUOUS
 62
     6
100
AcDbCircle
 10
950.373452
 20
2450.34668
 30
0.0
 40
143.729781
100
AcDbArc
 50
334.0031
 51
25.9969
  0
ARC
  5
7C5
100
AcDbEntity
  8
便座
  6
CONTINUOUS
 62
     6
100
AcDbCircle
 10
1697.129395
 20
988.955231
 30
0.0
 40
9.000224
100
AcDbArc
 50
202.8852
 51
250.808121
  0
ARC
  5
7C6
100
AcDbEntity
  8
便座
  6
CONTINUOUS
 62
     6
100
AcDbCircle
 10
1697.129395
 20
988.955231
 30
0.0
 40
9.001232
100
AcDbArc
 50
289.191818
 51
337.117509
  0
LINE
  5
7C7
100
AcDbEntity
  8
便座
  6
CONTINUOUS
 62
     6
100
AcDbLine
 10
1735.623047
 20
949.455719
 30
0.0
 11
1735.623047
 21
959.455719
 31
0.0
  0
LINE
  5
7C8
100
AcDbEntity
  8
便座
  6
CONTINUOUS
 62
     6
100
AcDbLine
 10
1719.097168
 20
949.455719
 30
0.0
 11
1719.097168
 21
959.455719
 31
0.0
  0
ARC
  5
7C9
100
AcDbEntity
  8
便座
  6
CONTINUOUS
 62
     6
100
AcDbCircle
 10
1716.09668
 20
949.455719
 30
0.0
 40
3.000488
100
AcDbArc
 50
270.000031
 51
0.0
  0
ARC
  5
7CA
100
AcDbEntity
  8
便座
  6
CONTINUOUS
 62
     6
100
AcDbCircle
 10
1732.622559
 20
949.455719
 30
0.0
 40
3.000488
100
AcDbArc
 50
270.000031
 51
0.0
  0
ARC
  5
7CB
100
AcDbEntity
  8
便座
  6
CONTINUOUS
 62
     6
100
AcDbCircle
 10
1572.131836
 20
3060.339356
 30
0.0
 40
2110.88562
100
AcDbArc
 50
267.302094
 51
272.697845
  0
LINE
  5
7CC
100
AcDbEntity
  8
便座
  6
CONTINUOUS
 62
     6
100
AcDbLine
 10
1671.487305
 20
951.794586
 30
0.0
 11
1671.487305
 21
959.455719
 31
0.0
  0
LINE
  5
7CD
100
AcDbEntity
  8
便座
  6
CONTINUOUS
 62
     6
100
AcDbLine
 10
1654.128906
 20
946.455231
 30
0.0
 11
1654.128906
 21
951.049957
 31
0.0
  0
LINE
  5
7CE
100
AcDbEntity
  8
便座
  6
CONTINUOUS
 62
     6
100
AcDbLine
 10
1624.128906
 20
946.455231
 30
0.0
 11
1624.128906
 21
950.095367
 31
0.0
  0
LINE
  5
7CF
100
AcDbEntity
  8
便座
  6
CONTINUOUS
 62
     6
100
AcDbLine
 10
1520.129883
 20
946.455231
 30
0.0
 11
1520.129883
 21
950.095367
 31
0.0
  0
LINE
  5
7D0
100
AcDbEntity
  8
便座
  6
CONTINUOUS
 62
     6
100
AcDbLine
 10
1490.129883
 20
946.455231
 30
0.0
 11
1490.129883
 21
951.049957
 31
0.0
  0
LINE
  5
7D1
100
AcDbEntity
  8
便座
  6
CONTINUOUS
 62
     6
100
AcDbLine
 10
1472.771484
 20
949.455719
 30
0.0
 11
1472.771484
 21
959.455719
 31
0.0
  0
ARC
  5
7D2
100
AcDbEntity
  8
便座
  6
CONTINUOUS
 62
     6
100
AcDbCircle
 10
1469.773438
 20
949.455719
 30
0.0
 40
3.000488
100
AcDbArc
 50
270.000031
 51
0.0
  0
LINE
  5
7D3
100
AcDbEntity
  8
便座
  6
CONTINUOUS
 62
     6
100
AcDbLine
 10
1425.166504
 20
951.455231
 30
0.0
 11
1425.166504
 21
959.455719
 31
0.0
  0
LINE
  5
7D4
100
AcDbEntity
  8
便座
  6
CONTINUOUS
 62
     6
100
AcDbLine
 10
1408.640625
 20
951.455231
 30
0.0
 11
1408.640625
 21
959.455719
 31
0.0
  0
ARC
  5
7D5
100
AcDbEntity
  8
便座
  6
CONTINUOUS
 62
     6
100
AcDbCircle
 10
1411.638672
 20
949.455719
 30
0.0
 40
3.000488
100
AcDbArc
 50
180.0
 51
270.0
  0
LINE
  5
7D6
100
AcDbEntity
  8
便座
  6
CONTINUOUS
 62
     6
100
AcDbLine
 10
1425.166504
 20
951.455231
 30
0.0
 11
1425.166504
 21
949.455719
 31
0.0
  0
ARC
  5
7D7
100
AcDbEntity
  8
便座
  6
CONTINUOUS
 62
     6
100
AcDbCircle
 10
1674.485352
 20
949.455719
 30
0.0
 40
3.000488
100
AcDbArc
 50
180.0
 51
270.0
  0
LINE
  5
7D8
100
AcDbEntity
  8
便座
  6
CONTINUOUS
 62
     6
100
AcDbLine
 10
1671.487305
 20
951.794586
 30
0.0
 11
1671.487305
 21
949.455719
 31
0.0
  0
LINE
  5
7D9
100
AcDbEntity
  8
便座
  6
CONTINUOUS
 62
     6
100
AcDbLine
 10
1408.640625
 20
951.455231
 30
0.0
 11
1408.640625
 21
949.455719
 31
0.0
  0
LINE
  5
7DA
100
AcDbEntity
  8
便座
  6
CONTINUOUS
 62
     6
100
AcDbLine
 10
1735.623047
 20
951.455231
 30
0.0
 11
1671.487305
 21
951.455231
 31
0.0
  0
LINE
  5
7DB
100
AcDbEntity
  8
便座
  6
CONTINUOUS
 62
     6
100
AcDbLine
 10
1744.748711
 20
980.454254
 30
0.0
 11
1399.251289
 21
980.454254
 31
0.0
  0
LINE
  5
7DC
100
AcDbEntity
  8
便座
  6
CONTINUOUS
 62
     6
100
AcDbLine
 10
1408.640625
 20
951.455231
 30
0.0
 11
1472.771484
 21
951.455231
 31
0.0
  0
ARC
  5
7DD
100
AcDbEntity
  8
便座
  6
CONTINUOUS
 62
     6
100
AcDbCircle
 10
1572.0
 20
-287.54483
 30
0.0
 40
1300.0
100
AcDbArc
 50
85.070152
 51
94.929848
  0
ARC
  5
7DE
100
AcDbEntity
  8
便座
  6
CONTINUOUS
 62
     6
100
AcDbCircle
 10
1657.935959
 20
708.755833
 30
0.0
 40
300.0
100
AcDbArc
 50
74.738257
 51
85.070152
  0
ARC
  5
7DF
100
AcDbEntity
  8
便座
  6
CONTINUOUS
 62
     6
100
AcDbCircle
 10
1486.064041
 20
708.755833
 30
0.0
 40
300.0
100
AcDbArc
 50
94.929848
 51
105.261743
  0
ARC
  5
7E0
100
AcDbEntity
  8
便座
  6
CONTINUOUS
 62
     6
100
AcDbCircle
 10
1424.72967
 20
975.302056
 30
0.0
 40
30.0
100
AcDbArc
 50
138.599147
 51
160.218317
  0
ARC
  5
7E1
100
AcDbEntity
  8
便座
  6
CONTINUOUS
 62
     6
100
AcDbCircle
 10
1719.27033
 20
975.302056
 30
0.0
 40
30.0
100
AcDbArc
 50
19.781683
 51
41.400853
  0
LINE
  5
7E2
100
AcDbEntity
  8
便座
  6
CONTINUOUS
 62
     6
100
AcDbLine
 10
1409.5
 20
997.45517
 30
0.0
 11
1734.5
 21
997.45517
 31
0.0
  0
ARC
  5
7E3
100
AcDbEntity
  8
便座
  6
CONTINUOUS
 62
     6
100
AcDbCircle
 10
1409.727646
 20
988.528517
 30
0.0
 40
10.0
100
AcDbArc
 50
105.261743
 51
138.599147
  0
ARC
  5
7E4
100
AcDbEntity
  8
便座
  6
CONTINUOUS
 62
     6
100
AcDbCircle
 10
1734.272354
 20
988.528517
 30
0.0
 40
10.0
100
AcDbArc
 50
41.400853
 51
74.738257
  0
ARC
  5
7E5
100
AcDbEntity
  8
便座
  6
CONTINUOUS
 62
     6
100
AcDbCircle
 10
1572.0
 20
690.45517
 30
0.0
 40
300.0
100
AcDbArc
 50
80.931278
 51
99.068722
  0
LINE
  5
7E6
100
AcDbEntity
  8
便座
  6
CONTINUOUS
 62
     6
100
AcDbLine
 10
1396.5
 20
985.45517
 30
0.0
 11
1508.952399
 21
985.45517
 31
0.0
  0
LINE
  5
7E7
100
AcDbEntity
  8
便座
  6
CONTINUOUS
 62
     6
100
AcDbLine
 10
1635.047601
 20
985.45517
 30
0.0
 11
1747.5
 21
985.45517
 31
0.0
  0
LINE
  5
7E8
100
AcDbEntity
  8
便座
  6
CONTINUOUS
 62
     6
100
AcDbLine
 10
1541.25
 20
980.454254
 30
0.0
 11
1541.25
 21
988.875071
 31
0.0
  0
LINE
  5
7E9
100
AcDbEntity
  8
便座
  6
CONTINUOUS
 62
     6
100
AcDbLine
 10
1602.75
 20
980.454254
 30
0.0
 11
1602.75
 21
988.875071
 31
0.0
  0
ARC
  5
7EA
100
AcDbEntity
  8
便座
  6
CONTINUOUS
 62
     6
100
AcDbCircle
 10
1508.952399
 20
1085.45517
 30
0.0
 40
100.0
100
AcDbArc
 50
270.0
 51
279.068722
  0
ARC
  5
7EB
100
AcDbEntity
  8
便座
  6
CONTINUOUS
 62
     6
100
AcDbCircle
 10
1635.047601
 20
1085.45517
 30
0.0
 40
100.0
100
AcDbArc
 50
260.931278
 51
270.0
  0
ARC
  5
7EC
100
AcDbEntity
  8
便座
  6
CONTINUOUS
 62
     6
100
AcDbCircle
 10
1446.870605
 20
988.955231
 30
0.0
 40
9.000224
100
AcDbArc
 50
289.191879
 51
337.1148
  0
ARC
  5
7ED
100
AcDbEntity
  8
便座
  6
CONTINUOUS
 62
     6
100
AcDbCircle
 10
1446.870605
 20
988.955231
 30
0.0
 40
9.001232
100
AcDbArc
 50
202.882491
 51
250.808182
  0
ARC
  5
7EE
100
AcDbEntity
  8
便座
  6
CONTINUOUS
 62
     6
100
AcDbCircle
 10
1427.90332
 20
949.455719
 30
0.0
 40
3.000488
100
AcDbArc
 50
180.0
 51
269.999969
  0
ARC
  5
7EF
100
AcDbEntity
  8
便座
  6
CONTINUOUS
 62
     6
100
AcDbCircle
 10
1423.5
 20
959.454254
 30
0.0
 40
35.0
100
AcDbArc
 50
150.0
 51
179.997602
  0
ARC
  5
7F0
100
AcDbEntity
  8
便座
  6
CONTINUOUS
 62
     6
100
AcDbCircle
 10
1720.5
 20
959.454254
 30
0.0
 40
35.0
100
AcDbArc
 50
0.002398
 51
30.0
  0
LINE
  5
7F1
100
AcDbEntity
  8
便座
  6
CONTINUOUS
 62
     6
100
AcDbLine
 10
1388.5
 20
959.455719
 30
0.0
 11
1755.5
 21
959.455719
 31
0.0
  0
ARC
  5
7F2
100
AcDbEntity
  8
便座
  6
CONTINUOUS
 62
     6
100
AcDbCircle
 10
1744.748711
 20
973.454254
 30
0.0
 40
7.0
100
AcDbArc
 50
30.0
 51
90.0
  0
ARC
  5
7F3
100
AcDbEntity
  8
便座
  6
CONTINUOUS
 62
     6
100
AcDbCircle
 10
1399.251289
 20
973.454254
 30
0.0
 40
7.0
100
AcDbArc
 50
90.0
 51
150.0
  0
LINE
  5
7F4
100
AcDbEntity
  8
紙巻器
  6
CONTINUOUS
 62
     6
100
AcDbLine
 10
1097.941251
 20
1324.455233
 30
0.0
 11
1097.941251
 21
1348.955231
 31
0.0
  0
LINE
  5
7F5
100
AcDbEntity
  8
紙巻器
  6
CONTINUOUS
 62
     6
100
AcDbLine
 10
1097.941251
 20
1324.455233
 30
0.0
 11
1222.941251
 21
1324.455233
 31
0.0
  0
LINE
  5
7F6
100
AcDbEntity
  8
紙巻器
  6
CONTINUOUS
 62
     6
100
AcDbLine
 10
1222.941251
 20
1324.455233
 30
0.0
 11
1222.941251
 21
1348.955231
 31
0.0
  0
LINE
  5
7F7
100
AcDbEntity
  8
紙巻器
  6
CONTINUOUS
 62
     6
100
AcDbLine
 10
1102.941251
 20
1301.955231
 30
0.0
 11
1095.441251
 21
1301.955231
 31
0.0
  0
LINE
  5
7F8
100
AcDbEntity
  8
紙巻器
  6
CONTINUOUS
 62
     6
100
AcDbLine
 10
1217.941251
 20
1301.955231
 30
0.0
 11
1225.441251
 21
1301.955231
 31
0.0
  0
LINE
  5
7F9
100
AcDbEntity
  8
紙巻器
  6
CONTINUOUS
 62
     6
100
AcDbLine
 10
1217.941251
 20
1287.917633
 30
0.0
 11
1220.934663
 21
1286.944981
 31
0.0
  0
ARC
  5
7FA
100
AcDbEntity
  8
紙巻器
  6
CONTINUOUS
 62
     6
100
AcDbCircle
 10
1224.025483
 20
1296.455231
 30
0.0
 40
9.999998
100
AcDbArc
 50
251.995963
 51
270.0
  0
LINE
  5
7FB
100
AcDbEntity
  8
紙巻器
  6
CONTINUOUS
 62
     6
100
AcDbLine
 10
1224.025483
 20
1286.455231
 30
0.0
 11
1225.441251
 21
1286.455231
 31
0.0
  0
LINE
  5
7FC
100
AcDbEntity
  8
紙巻器
  6
CONTINUOUS
 62
     6
100
AcDbLine
 10
1217.941251
 20
1263.955231
 30
0.0
 11
1225.441251
 21
1263.955231
 31
0.0
  0
ARC
  5
7FD
100
AcDbEntity
  8
紙巻器
  6
CONTINUOUS
 62
     6
100
AcDbCircle
 10
1096.857018
 20
1296.455231
 30
0.0
 40
10.0
100
AcDbArc
 50
270.0
 51
288.004193
  0
LINE
  5
7FE
100
AcDbEntity
  8
紙巻器
  6
CONTINUOUS
 62
     6
100
AcDbLine
 10
1099.947839
 20
1286.944981
 30
0.0
 11
1102.941251
 21
1287.917633
 31
0.0
  0
LINE
  5
7FF
100
AcDbEntity
  8
紙巻器
  6
CONTINUOUS
 62
     6
100
AcDbLine
 10
1102.941251
 20
1234.692049
 30
0.0
 11
1137.441251
 21
1234.692049
 31
0.0
  0
LINE
  5
800
100
AcDbEntity
  8
紙巻器
  6
CONTINUOUS
 62
     6
100
AcDbLine
 10
1147.441251
 20
1234.692049
 30
0.0
 11
1155.441251
 21
1234.692049
 31
0.0
  0
LINE
  5
801
100
AcDbEntity
  8
紙巻器
  6
CONTINUOUS
 62
     6
100
AcDbLine
 10
1165.441251
 20
1234.692049
 30
0.0
 11
1173.441251
 21
1234.692049
 31
0.0
  0
LINE
  5
802
100
AcDbEntity
  8
紙巻器
  6
CONTINUOUS
 62
     6
100
AcDbLine
 10
1183.441251
 20
1234.692049
 30
0.0
 11
1217.941251
 21
1234.692049
 31
0.0
  0
LINE
  5
803
100
AcDbEntity
  8
紙巻器
  6
CONTINUOUS
 62
     6
100
AcDbLine
 10
1102.941251
 20
1318.073641
 30
0.0
 11
1102.941251
 21
1324.455233
 31
0.0
  0
LINE
  5
804
100
AcDbEntity
  8
紙巻器
  6
CONTINUOUS
 62
     6
100
AcDbLine
 10
1102.941251
 20
1300.073641
 30
0.0
 11
1102.941251
 21
1308.073641
 31
0.0
  0
LINE
  5
805
100
AcDbEntity
  8
紙巻器
  6
CONTINUOUS
 62
     6
100
AcDbLine
 10
1102.941251
 20
1234.692049
 30
0.0
 11
1102.941251
 21
1272.073641
 31
0.0
  0
LINE
  5
806
100
AcDbEntity
  8
紙巻器
  6
CONTINUOUS
 62
     6
100
AcDbLine
 10
1102.941251
 20
1282.073641
 30
0.0
 11
1102.941251
 21
1290.073641
 31
0.0
  0
LINE
  5
807
100
AcDbEntity
  8
紙巻器
  6
CONTINUOUS
 62
     6
100
AcDbLine
 10
1217.941251
 20
1318.073641
 30
0.0
 11
1217.941251
 21
1324.455233
 31
0.0
  0
LINE
  5
808
100
AcDbEntity
  8
紙巻器
  6
CONTINUOUS
 62
     6
100
AcDbLine
 10
1217.941251
 20
1300.073641
 30
0.0
 11
1217.941251
 21
1308.073641
 31
0.0
  0
LINE
  5
809
100
AcDbEntity
  8
紙巻器
  6
CONTINUOUS
 62
     6
100
AcDbLine
 10
1217.941251
 20
1234.692049
 30
0.0
 11
1217.941251
 21
1272.073641
 31
0.0
  0
LINE
  5
80A
100
AcDbEntity
  8
紙巻器
  6
CONTINUOUS
 62
     6
100
AcDbLine
 10
1217.941251
 20
1282.073641
 30
0.0
 11
1217.941251
 21
1290.073641
 31
0.0
  0
LINE
  5
80B
100
AcDbEntity
  8
紙巻器
  6
CONTINUOUS
 62
     6
100
AcDbLine
 10
1102.941251
 20
1263.955231
 30
0.0
 11
1095.441251
 21
1263.955231
 31
0.0
  0
ARC
  5
80C
100
AcDbEntity
  8
紙巻器
  6
CONTINUOUS
 62
     6
100
AcDbCircle
 10
646.268696
 20
1306.455231
 30
0.0
 40
600.0
100
AcDbArc
 50
356.990588
 51
3.009412
  0
ARC
  5
80D
100
AcDbEntity
  8
紙巻器
  6
CONTINUOUS
 62
     6
100
AcDbCircle
 10
1674.613805
 20
1306.455231
 30
0.0
 40
600.0
100
AcDbArc
 50
176.990588
 51
183.009412
  0
ARC
  5
80E
100
AcDbEntity
  8
紙巻器
  6
CONTINUOUS
 62
     6
100
AcDbCircle
 10
1092.024375
 20
1330.955231
 30
0.0
 40
18.0
100
AcDbArc
 50
90.0
 51
157.11462
  0
ARC
  5
80F
100
AcDbEntity
  8
紙巻器
  6
CONTINUOUS
 62
     6
100
AcDbCircle
 10
1092.024375
 20
1281.955231
 30
0.0
 40
18.0
100
AcDbArc
 50
202.88538
 51
270.0
  0
ARC
  5
810
100
AcDbEntity
  8
紙巻器
  6
CONTINUOUS
 62
     6
100
AcDbCircle
 10
1228.858127
 20
1281.955231
 30
0.0
 40
18.0
100
AcDbArc
 50
270.0
 51
337.11462
  0
ARC
  5
811
100
AcDbEntity
  8
紙巻器
  6
CONTINUOUS
 62
     6
100
AcDbCircle
 10
1228.858127
 20
1330.955231
 30
0.0
 40
18.0
100
AcDbArc
 50
22.88538
 51
90.0
  0
LINE
  5
812
100
AcDbEntity
  8
紙巻器
  6
CONTINUOUS
 62
     6
100
AcDbLine
 10
1092.024375
 20
1348.955231
 30
0.0
 11
1228.858127
 21
1348.955231
 31
0.0
  0
LINE
  5
813
100
AcDbEntity
  8
紙巻器
  6
CONTINUOUS
 62
     6
100
AcDbLine
 10
1095.441251
 20
1263.955231
 30
0.0
 11
1095.441251
 21
1348.955231
 31
0.0
  0
LINE
  5
814
100
AcDbEntity
  8
紙巻器
  6
CONTINUOUS
 62
     6
100
AcDbLine
 10
1225.441251
 20
1263.955231
 30
0.0
 11
1225.441251
 21
1348.955231
 31
0.0
  0
LINE
  5
815
100
AcDbEntity
  8
紙巻器
  6
CONTINUOUS
 62
     6
100
AcDbLine
 10
1092.024375
 20
1263.955231
 30
0.0
 11
1102.941251
 21
1263.955231
 31
0.0
  0
LINE
  5
816
100
AcDbEntity
  8
紙巻器
  6
CONTINUOUS
 62
     6
100
AcDbLine
 10
1217.941251
 20
1263.955231
 30
0.0
 11
1228.858127
 21
1263.955231
 31
0.0
  0
LINE
  5
817
100
AcDbEntity
  8
紙巻器
  6
CONTINUOUS
 62
     6
100
AcDbLine
 10
1160.441251
 20
1368.455231
 30
0.0
 11
1160.441251
 21
1322.455231
 31
0.0
  0
LINE
  5
818
100
AcDbEntity
  8
紙巻器
  6
CONTINUOUS
 62
     6
100
AcDbLine
 10
1160.441251
 20
1310.455231
 30
0.0
 11
1160.441251
 21
1302.455231
 31
0.0
  0
LINE
  5
819
100
AcDbEntity
  8
紙巻器
  6
CONTINUOUS
 62
     6
100
AcDbLine
 10
1160.441251
 20
1290.455231
 30
0.0
 11
1160.441251
 21
1191.455231
 31
0.0
  0
LINE
  5
81A
100
AcDbEntity
  8
紙巻器
  6
CONTINUOUS
 62
     6
100
AcDbLine
 10
1048.440306
 20
1306.455231
 30
0.0
 11
1144.441251
 21
1306.455231
 31
0.0
  0
LINE
  5
81B
100
AcDbEntity
  8
紙巻器
  6
CONTINUOUS
 62
     6
100
AcDbLine
 10
1156.441251
 20
1306.455231
 30
0.0
 11
1164.441251
 21
1306.455231
 31
0.0
  0
LINE
  5
81C
100
AcDbEntity
  8
紙巻器
  6
CONTINUOUS
 62
     6
100
AcDbLine
 10
1272.442195
 20
1306.455231
 30
0.0
 11
1176.441251
 21
1306.455231
 31
0.0
  0
LINE
  5
81D
100
AcDbEntity
  8
紙巻器
  6
CONTINUOUS
 62
     6
100
AcDbLine
 10
1097.942987
 20
2838.347168
 30
0.0
 11
1097.942987
 21
2739.846191
 31
0.0
  0
LINE
  5
81E
100
AcDbEntity
  8
紙巻器
  6
CONTINUOUS
 62
     6
100
AcDbLine
 10
1097.942987
 20
2739.846191
 30
0.0
 11
1222.942987
 21
2739.846191
 31
0.0
  0
LINE
  5
81F
100
AcDbEntity
  8
紙巻器
  6
CONTINUOUS
 62
     6
100
AcDbLine
 10
1222.942987
 20
2739.846191
 30
0.0
 11
1222.942987
 21
2838.347168
 31
0.0
  0
LINE
  5
820
100
AcDbEntity
  8
紙巻器
  6
CONTINUOUS
 62
     6
100
AcDbLine
 10
1222.942987
 20
2838.347168
 30
0.0
 11
1097.942987
 21
2838.347168
 31
0.0
  0
LINE
  5
821
100
AcDbEntity
  8
紙巻器
  6
CONTINUOUS
 62
     6
100
AcDbLine
 10
1207.442499
 20
2850.34668
 30
0.0
 11
1207.442499
 21
2866.054688
 31
0.0
  0
ARC
  5
822
100
AcDbEntity
  8
紙巻器
  6
CONTINUOUS
 62
     6
100
AcDbCircle
 10
1199.442011
 20
2866.054688
 30
0.0
 40
8.000488
100
AcDbArc
 50
0.0
 51
41.412905
  0
ARC
  5
823
100
AcDbEntity
  8
紙巻器
  6
CONTINUOUS
 62
     6
100
AcDbCircle
 10
1211.443964
 20
2866.054688
 30
0.0
 40
8.001702
100
AcDbArc
 50
138.587129
 51
180.0
  0
LINE
  5
824
100
AcDbEntity
  8
紙巻器
  6
CONTINUOUS
 62
     6
100
AcDbLine
 10
1203.443476
 20
2866.054688
 30
0.0
 11
1203.443476
 21
2850.34668
 31
0.0
  0
LINE
  5
825
100
AcDbEntity
  8
紙巻器
  6
CONTINUOUS
 62
     6
100
AcDbLine
 10
1162.442499
 20
2850.34668
 30
0.0
 11
1162.442499
 21
2866.054688
 31
0.0
  0
ARC
  5
826
100
AcDbEntity
  8
紙巻器
  6
CONTINUOUS
 62
     6
100
AcDbCircle
 10
1154.442011
 20
2866.054688
 30
0.0
 40
8.000488
100
AcDbArc
 50
0.0
 51
41.412882
  0
ARC
  5
827
100
AcDbEntity
  8
紙巻器
  6
CONTINUOUS
 62
     6
100
AcDbCircle
 10
1166.443964
 20
2866.054688
 30
0.0
 40
8.001704
100
AcDbArc
 50
138.587144
 51
180.0
  0
LINE
  5
828
100
AcDbEntity
  8
紙巻器
  6
CONTINUOUS
 62
     6
100
AcDbLine
 10
1158.443476
 20
2866.054688
 30
0.0
 11
1158.443476
 21
2850.34668
 31
0.0
  0
LINE
  5
829
100
AcDbEntity
  8
紙巻器
  6
CONTINUOUS
 62
     6
100
AcDbLine
 10
1117.442499
 20
2850.34668
 30
0.0
 11
1117.442499
 21
2866.054688
 31
0.0
  0
ARC
  5
82A
100
AcDbEntity
  8
紙巻器
  6
CONTINUOUS
 62
     6
100
AcDbCircle
 10
1109.442011
 20
2866.054688
 30
0.0
 40
8.000488
100
AcDbArc
 50
0.0
 51
41.412905
  0
ARC
  5
82B
100
AcDbEntity
  8
紙巻器
  6
CONTINUOUS
 62
     6
100
AcDbCircle
 10
1121.443964
 20
2866.054688
 30
0.0
 40
8.001702
100
AcDbArc
 50
138.587129
 51
180.0
  0
LINE
  5
82C
100
AcDbEntity
  8
紙巻器
  6
CONTINUOUS
 62
     6
100
AcDbLine
 10
1113.443476
 20
2866.054688
 30
0.0
 11
1113.443476
 21
2850.34668
 31
0.0
  0
ARC
  5
82D
100
AcDbEntity
  8
紙巻器
  6
CONTINUOUS
 62
     6
100
AcDbCircle
 10
1092.0252
 20
2754.34668
 30
0.0
 40
18.0
100
AcDbArc
 50
202.88538
 51
270.0
  0
ARC
  5
82E
100
AcDbEntity
  8
紙巻器
  6
CONTINUOUS
 62
     6
100
AcDbCircle
 10
1228.858952
 20
2754.34668
 30
0.0
 40
18.0
100
AcDbArc
 50
270.0
 51
337.11462
  0
LINE
  5
82F
100
AcDbEntity
  8
紙巻器
  6
CONTINUOUS
 62
     6
100
AcDbLine
 10
1092.0252
 20
2736.34668
 30
0.0
 11
1095.442076
 21
2736.34668
 31
0.0
  0
LINE
  5
830
100
AcDbEntity
  8
紙巻器
  6
CONTINUOUS
 62
     6
100
AcDbLine
 10
1225.442076
 20
2736.34668
 30
0.0
 11
1228.858952
 21
2736.34668
 31
0.0
  0
LINE
  5
831
100
AcDbEntity
  8
紙巻器
  6
CONTINUOUS
 62
     6
100
AcDbLine
 10
1095.442076
 20
2736.34668
 30
0.0
 11
1095.942076
 21
2841.34668
 31
0.0
  0
LINE
  5
832
100
AcDbEntity
  8
紙巻器
  6
CONTINUOUS
 62
     6
100
AcDbLine
 10
1224.942076
 20
2841.34668
 30
0.0
 11
1225.442076
 21
2736.34668
 31
0.0
  0
LINE
  5
833
100
AcDbEntity
  8
紙巻器
  6
CONTINUOUS
 62
     6
100
AcDbLine
 10
1095.942076
 20
2841.34668
 30
0.0
 11
1224.942076
 21
2841.34668
 31
0.0
  0
ARC
  5
834
100
AcDbEntity
  8
紙巻器
  6
CONTINUOUS
 62
     6
100
AcDbCircle
 10
1674.61463
 20
2778.84668
 30
0.0
 40
600.0
100
AcDbArc
 50
180.0
 51
183.009412
  0
ARC
  5
835
100
AcDbEntity
  8
紙巻器
  6
CONTINUOUS
 62
     6
100
AcDbCircle
 10
646.269521
 20
2778.84668
 30
0.0
 40
600.0
100
AcDbArc
 50
356.990588
 51
0.0
  0
LINE
  5
836
100
AcDbEntity
  8
紙巻器
  6
CONTINUOUS
 62
     6
100
AcDbLine
 10
1074.61463
 20
2850.34668
 30
0.0
 11
1074.61463
 21
2778.84668
 31
0.0
  0
LINE
  5
837
100
AcDbEntity
  8
紙巻器
  6
CONTINUOUS
 62
     6
100
AcDbLine
 10
1246.269521
 20
2778.84668
 30
0.0
 11
1246.269521
 21
2850.34668
 31
0.0
  0
ARC
  5
838
100
AcDbEntity
  8
紙巻器
  6
CONTINUOUS
 62
     6
100
AcDbCircle
 10
1876.384766
 20
1322.597351
 30
0.0
 40
15.000754
100
AcDbArc
 50
145.552954
 51
172.885393
  0
ARC
  5
839
100
AcDbEntity
  8
紙巻器
  6
CONTINUOUS
 62
     6
100
AcDbCircle
 10
1897.0
 20
1308.4552
 30
0.0
 40
40.000817
100
AcDbArc
 50
90.000014
 51
145.550911
  0
LINE
  5
83A
100
AcDbEntity
  8
紙巻器
  6
CONTINUOUS
 62
     6
100
AcDbLine
 10
1897.0
 20
1348.4552
 30
0.0
 11
1953.999512
 21
1348.4552
 31
0.0
  0
LINE
  5
83B
100
AcDbEntity
  8
紙巻器
  6
CONTINUOUS
 62
     6
100
AcDbLine
 10
1972.0
 20
1263.955231
 30
0.0
 11
1899.463379
 21
1266.482086
 31
0.0
  0
LINE
  5
83C
100
AcDbEntity
  8
紙巻器
  6
CONTINUOUS
 62
     6
100
AcDbLine
 10
1972.0
 20
1274.955292
 30
0.0
 11
1900.520508
 21
1277.565155
 31
0.0
  0
LINE
  5
83D
100
AcDbEntity
  8
紙巻器
  6
CONTINUOUS
 62
     6
100
AcDbLine
 10
1861.499512
 20
1324.455261
 30
0.0
 11
1862.136719
 21
1324.168548
 31
0.0
  0
ARC
  5
83E
100
AcDbEntity
  8
紙巻器
  6
CONTINUOUS
 62
     6
100
AcDbCircle
 10
1898.000977
 20
1306.455231
 30
0.0
 40
40.000041
100
AcDbArc
 50
88.128716
 51
272.09527
  0
ARC
  5
83F
100
AcDbEntity
  8
紙巻器
  6
CONTINUOUS
 62
     6
100
AcDbCircle
 10
1898.000977
 20
1306.455231
 30
0.0
 40
28.999887
100
AcDbArc
 50
94.805021
 51
274.984221
  0
LINE
  5
840
100
AcDbEntity
  8
紙巻器
  6
CONTINUOUS
 62
     6
100
AcDbLine
 10
1899.307129
 20
1346.433716
 30
0.0
 11
1972.0
 21
1348.955231
 31
0.0
  0
LINE
  5
841
100
AcDbEntity
  8
紙巻器
  6
CONTINUOUS
 62
     6
100
AcDbLine
 10
1895.464355
 20
1335.379791
 30
0.0
 11
1972.0
 21
1338.078461
 31
0.0
  0
ARC
  5
842
100
AcDbEntity
  8
紙巻器
  6
CONTINUOUS
 62
     6
100
AcDbCircle
 10
1898.000977
 20
1286.679382
 30
0.0
 40
51.999893
100
AcDbArc
 50
299.191235
 51
335.224777
  0
ARC
  5
843
100
AcDbEntity
  8
紙巻器
  6
CONTINUOUS
 62
     6
100
AcDbCircle
 10
1898.000977
 20
1286.679382
 30
0.0
 40
51.999893
100
AcDbArc
 50
279.351616
 51
288.168544
  0
ARC
  5
844
100
AcDbEntity
  8
紙巻器
  6
CONTINUOUS
 62
     6
100
AcDbCircle
 10
1898.000977
 20
1286.679382
 30
0.0
 40
51.999893
100
AcDbArc
 50
259.511995
 51
268.324817
  0
ARC
  5
845
100
AcDbEntity
  8
紙巻器
  6
CONTINUOUS
 62
     6
100
AcDbCircle
 10
1898.000977
 20
1286.679382
 30
0.0
 40
51.999893
100
AcDbArc
 50
133.369766
 51
248.489304
  0
LINE
  5
846
100
AcDbEntity
  8
紙巻器
  6
CONTINUOUS
 62
     6
100
AcDbLine
 10
1972.0
 20
1332.966949
 30
0.0
 11
1987.732422
 21
1332.966949
 31
0.0
  0
ARC
  5
847
100
AcDbEntity
  8
紙巻器
  6
CONTINUOUS
 62
     6
100
AcDbCircle
 10
1987.732422
 20
1324.966919
 30
0.0
 40
8.000031
100
AcDbArc
 50
48.717092
 51
90.0
  0
LINE
  5
848
100
AcDbEntity
  8
紙巻器
  6
CONTINUOUS
 62
     6
100
AcDbLine
 10
1993.010742
 20
1330.978577
 30
0.0
 11
1993.010742
 21
1330.955231
 31
0.0
  0
ARC
  5
849
100
AcDbEntity
  8
紙巻器
  6
CONTINUOUS
 62
     6
100
AcDbCircle
 10
1987.732422
 20
1336.966888
 30
0.0
 40
8.000158
100
AcDbArc
 50
270.0
 51
311.282868
  0
LINE
  5
84A
100
AcDbEntity
  8
紙巻器
  6
CONTINUOUS
 62
     6
100
AcDbLine
 10
1987.732422
 20
1328.966858
 30
0.0
 11
1972.0
 21
1328.966858
 31
0.0
  0
LINE
  5
84B
100
AcDbEntity
  8
紙巻器
  6
CONTINUOUS
 62
     6
100
AcDbLine
 10
1972.0
 20
1282.966949
 30
0.0
 11
1987.732422
 21
1282.966949
 31
0.0
  0
ARC
  5
84C
100
AcDbEntity
  8
紙巻器
  6
CONTINUOUS
 62
     6
100
AcDbCircle
 10
1987.732422
 20
1274.966919
 30
0.0
 40
8.000031
100
AcDbArc
 50
48.717092
 51
90.0
  0
LINE
  5
84D
100
AcDbEntity
  8
紙巻器
  6
CONTINUOUS
 62
     6
100
AcDbLine
 10
1993.010742
 20
1280.978577
 30
0.0
 11
1993.010742
 21
1280.955231
 31
0.0
  0
ARC
  5
84E
100
AcDbEntity
  8
紙巻器
  6
CONTINUOUS
 62
     6
100
AcDbCircle
 10
1987.732422
 20
1286.966888
 30
0.0
 40
8.000158
100
AcDbArc
 50
270.0
 51
311.282868
  0
LINE
  5
84F
100
AcDbEntity
  8
紙巻器
  6
CONTINUOUS
 62
     6
100
AcDbLine
 10
1987.732422
 20
1278.966858
 30
0.0
 11
1972.0
 21
1278.966858
 31
0.0
  0
CIRCLE
  5
850
100
AcDbEntity
  8
紙巻器
  6
EXLTYPE2
 62
     6
100
AcDbCircle
 10
1115.441251
 20
1330.955231
 30
0.0
 40
4.0
  0
CIRCLE
  5
851
100
AcDbEntity
  8
紙巻器
  6
EXLTYPE2
 62
     6
100
AcDbCircle
 10
1205.441251
 20
1330.955231
 30
0.0
 40
4.0
  0
CIRCLE
  5
852
100
AcDbEntity
  8
紙巻器
  6
EXLTYPE2
 62
     6
100
AcDbCircle
 10
1160.441251
 20
1280.955231
 30
0.0
 40
4.0
  0
TEXT
  5
853
100
AcDbEntity
  8
紙巻器
  6
CONTINUOUS
 62
     2
100
AcDbText
 10
811.568705
 20
1408.536445
 30
0.0
 40
40.0
  1
ＮＣ７１ＶＪ
 41
0.805
  7
EXCADSTD
 72
     5
 11
1041.568704
 21
1408.536445
 31
0.0
100
AcDbText
  0
LEADER
  5
854
100
AcDbEntity
  8
紙巻器
  6
CONTINUOUS
 62
     6
100
AcDbLeader
  3
STANDARD
 73
     3
 74
     1
 75
     0
 40
0.0
 76
     3
 10
1078.099258
 20
1342.36098
 30
0.0
 10
1032.128256
 20
1403.574625
 30
0.0
 10
814.0
 20
1403.574625
 30
0.0
 77
     6
1001
ACAD
1000
DSTYLE
1002
{
1070
    41
1040
35.0
1070
     5
1000
_EX_NORM
1070
     6
1000
_EX_NORM
1070
     7
1000
_EX_NORM
1070
   341
1005
2D
1002
}
  0
TEXT
  5
855
100
AcDbEntity
  8
寸法
  6
CONTINUOUS
 62
     2
100
AcDbText
 10
658.940779
 20
1214.955231
 30
0.0
 40
40.0
  1
（８１０）
 41
0.8106
  7
EXCADSTD
 72
     5
 11
851.940778
 21
1214.955231
 31
0.0
100
AcDbText
  0
LINE
  5
856
100
AcDbEntity
  8
寸法
  6
CONTINUOUS
 62
     3
100
AcDbLine
 10
350.440306
 20
1211.455231
 30
0.0
 11
1160.441251
 21
1211.455231
 31
0.0
  0
LINE
  5
857
100
AcDbEntity
  8
寸法
  6
CONTINUOUS
 62
     3
100
AcDbLine
 10
385.440306
 20
1217.288564
 30
0.0
 11
350.440306
 21
1211.455231
 31
0.0
  0
LINE
  5
858
100
AcDbEntity
  8
寸法
  6
CONTINUOUS
 62
     3
100
AcDbLine
 10
350.440306
 20
1211.455231
 30
0.0
 11
385.440306
 21
1205.621897
 31
0.0
  0
LINE
  5
859
100
AcDbEntity
  8
寸法
  6
CONTINUOUS
 62
     3
100
AcDbLine
 10
1125.441251
 20
1205.621897
 30
0.0
 11
1160.441251
 21
1211.455231
 31
0.0
  0
LINE
  5
85A
100
AcDbEntity
  8
寸法
  6
CONTINUOUS
 62
     3
100
AcDbLine
 10
1160.441251
 20
1211.455231
 30
0.0
 11
1125.441251
 21
1217.288564
 31
0.0
  0
TEXT
  5
85B
100
AcDbEntity
  8
寸法
  6
CONTINUOUS
 62
     2
100
AcDbText
 10
1200.49948
 20
854.955231
 30
0.0
 40
40.0
  1
（７１０）
 50
90.0
 41
0.8106
  7
EXCADSTD
 72
     5
 11
1200.49948
 21
1047.95523
 31
0.0
100
AcDbText
  0
LINE
  5
85C
100
AcDbEntity
  8
寸法
  6
CONTINUOUS
 62
     3
100
AcDbLine
 10
1203.99948
 20
596.455231
 30
0.0
 11
1203.99948
 21
1306.455231
 31
0.0
  0
LINE
  5
85D
100
AcDbEntity
  8
寸法
  6
CONTINUOUS
 62
     3
100
AcDbLine
 10
1198.166147
 20
631.455231
 30
0.0
 11
1203.99948
 21
596.455231
 31
0.0
  0
LINE
  5
85E
100
AcDbEntity
  8
寸法
  6
CONTINUOUS
 62
     3
100
AcDbLine
 10
1203.99948
 20
596.455231
 30
0.0
 11
1209.832813
 21
631.455231
 31
0.0
  0
LINE
  5
85F
100
AcDbEntity
  8
寸法
  6
CONTINUOUS
 62
     3
100
AcDbLine
 10
1209.832813
 20
1271.455231
 30
0.0
 11
1203.99948
 21
1306.455231
 31
0.0
  0
LINE
  5
860
100
AcDbEntity
  8
寸法
  6
CONTINUOUS
 62
     3
100
AcDbLine
 10
1203.99948
 20
1306.455231
 30
0.0
 11
1198.166147
 21
1271.455231
 31
0.0
  0
TEXT
  5
861
100
AcDbEntity
  8
寸法
  6
CONTINUOUS
 62
     2
100
AcDbText
 10
686.441595
 20
2138.999084
 30
0.0
 40
40.0
  1
７０９
 41
0.833
  7
EXCADSTD
 72
     5
 11
805.441594
 21
2138.999084
 31
0.0
100
AcDbText
  0
LINE
  5
862
100
AcDbEntity
  8
寸法
  6
CONTINUOUS
 62
     3
100
AcDbLine
 10
391.441114
 20
2135.499084
 30
0.0
 11
1100.442076
 21
2135.499084
 31
0.0
  0
LINE
  5
863
100
AcDbEntity
  8
寸法
  6
CONTINUOUS
 62
     3
100
AcDbLine
 10
426.441114
 20
2141.332418
 30
0.0
 11
391.441114
 21
2135.499084
 31
0.0
  0
LINE
  5
864
100
AcDbEntity
  8
寸法
  6
CONTINUOUS
 62
     3
100
AcDbLine
 10
391.441114
 20
2135.499084
 30
0.0
 11
426.441114
 21
2129.665751
 31
0.0
  0
LINE
  5
865
100
AcDbEntity
  8
寸法
  6
CONTINUOUS
 62
     3
100
AcDbLine
 10
1065.442076
 20
2129.665751
 30
0.0
 11
1100.442076
 21
2135.499084
 31
0.0
  0
LINE
  5
866
100
AcDbEntity
  8
寸法
  6
CONTINUOUS
 62
     3
100
AcDbLine
 10
1100.442076
 20
2135.499084
 30
0.0
 11
1065.442076
 21
2141.332418
 31
0.0
  0
TEXT
  5
867
100
AcDbEntity
  8
寸法
  6
CONTINUOUS
 62
     2
100
AcDbText
 10
665.941604
 20
2081.499084
 30
0.0
 40
40.0
  1
７５０
 41
0.833
  7
EXCADSTD
 72
     5
 11
784.941604
 21
2081.499084
 31
0.0
100
AcDbText
  0
LINE
  5
868
100
AcDbEntity
  8
寸法
  6
CONTINUOUS
 62
     3
100
AcDbLine
 10
350.441132
 20
2077.999084
 30
0.0
 11
1100.442076
 21
2077.999084
 31
0.0
  0
LINE
  5
869
100
AcDbEntity
  8
寸法
  6
CONTINUOUS
 62
     3
100
AcDbLine
 10
385.441132
 20
2083.832418
 30
0.0
 11
350.441132
 21
2077.999084
 31
0.0
  0
LINE
  5
86A
100
AcDbEntity
  8
寸法
  6
CONTINUOUS
 62
     3
100
AcDbLine
 10
350.441132
 20
2077.999084
 30
0.0
 11
385.441132
 21
2072.165751
 31
0.0
  0
LINE
  5
86B
100
AcDbEntity
  8
寸法
  6
CONTINUOUS
 62
     3
100
AcDbLine
 10
1065.442076
 20
2072.165751
 30
0.0
 11
1100.442076
 21
2077.999084
 31
0.0
  0
LINE
  5
86C
100
AcDbEntity
  8
寸法
  6
CONTINUOUS
 62
     3
100
AcDbLine
 10
1100.442076
 20
2077.999084
 30
0.0
 11
1065.442076
 21
2083.832418
 31
0.0
  0
LINE
  5
86D
100
AcDbEntity
  8
寸法
  6
CONTINUOUS
 62
     3
100
AcDbLine
 10
350.440306
 20
586.455231
 30
0.0
 11
350.440306
 21
498.00473
 31
0.0
  0
LINE
  5
86E
100
AcDbEntity
  8
寸法
  6
CONTINUOUS
 62
     3
100
AcDbLine
 10
340.440306
 20
596.455231
 30
0.0
 11
210.440306
 21
596.455231
 31
0.0
  0
LINE
  5
86F
100
AcDbEntity
  8
寸法
  6
CONTINUOUS
 62
     3
100
AcDbLine
 10
391.441114
 20
2234.346618
 30
0.0
 11
391.441114
 21
2117.999084
 31
0.0
  0
DIMENSION
  5
87B
100
AcDbEntity
  8
寸法
  6
CONTINUOUS
 62
     3
100
AcDbDimension
  2
*D15
 10
432.0
 20
2704.0
 30
0.0
 11
766.220566
 21
2727.5
 31
0.0
 70
   160
  3
STANDARD
100
AcDbAlignedDimension
 13
1100.441132
 23
2450.34668
 33
0.0
 14
432.0
 24
2450.34668
 34
0.0
100
AcDbRotatedDimension
1001
ACAD
1000
DSTYLE
1002
{
1070
     6
1000
_EX_NORM
1070
     7
1000
_EX_NORM
1070
    41
1040
35.0
1070
    42
1040
7.0
1070
    44
1040
20.0
1070
    73
1070
     0
1070
    74
1070
     0
1070
    75
1070
     0
1070
    76
1070
     0
1070
    77
1070
     1
1070
    78
1070
     0
1070
   140
1040
40.0
1070
   147
1040
3.5
1070
   173
1070
     1
1070
   176
1070
     3
1070
   177
1070
     3
1070
   178
1070
     2
1070
   271
1070
     0
1070
   279
1070
     2
1070
   280
1070
     0
1070
   287
1070
     5
1070
   340
1005
EF
1002
}
  0
LINE
  5
87C
100
AcDbEntity
  8
器具明細表
  6
CONTINUOUS
 62
     3
100
AcDbLine
 10
1745.9
 20
2143.63559
 30
0.0
 11
1664.0
 21
2143.63559
 31
0.0
  0
LINE
  5
87D
100
AcDbEntity
  8
器具明細表
  6
CONTINUOUS
 62
     3
100
AcDbLine
 10
1684.0
 20
2058.63559
 30
0.0
 11
1684.0
 21
2239.816334
 31
0.0
  0
LINE
  5
87E
100
AcDbEntity
  8
器具明細表
  6
CONTINUOUS
 62
     3
100
AcDbLine
 10
1689.833333
 20
2068.63559
 30
0.0
 11
1684.0
 21
2103.63559
 31
0.0
  0
LINE
  5
87F
100
AcDbEntity
  8
器具明細表
  6
CONTINUOUS
 62
     3
100
AcDbLine
 10
1684.0
 20
2103.63559
 30
0.0
 11
1678.166667
 21
2068.63559
 31
0.0
  0
LINE
  5
880
100
AcDbEntity
  8
器具明細表
  6
CONTINUOUS
 62
     3
100
AcDbLine
 10
1678.166667
 20
2178.63559
 30
0.0
 11
1684.0
 21
2143.63559
 31
0.0
  0
LINE
  5
881
100
AcDbEntity
  8
器具明細表
  6
CONTINUOUS
 62
     3
100
AcDbLine
 10
1684.0
 20
2143.63559
 30
0.0
 11
1689.833333
 21
2178.63559
 31
0.0
  0
TEXT
  5
882
100
AcDbEntity
  8
器具明細表
  6
CONTINUOUS
 62
     2
100
AcDbText
 10
1682.8
 20
2172.53559
 30
0.0
 40
40.0
  1
４０
 50
90.0
 41
0.861
  7
EXCADSTD
 72
     5
 11
1682.8
 21
2247.69679
 31
0.0
100
AcDbText
  0
LINE
  5
883
100
AcDbEntity
  8
器具明細表
  6
CONTINUOUS
 62
     6
100
AcDbLine
 10
1318.0
 20
2712.63559
 30
0.0
 11
1968.0
 21
2712.63559
 31
0.0
  0
LINE
  5
884
100
AcDbEntity
  8
器具明細表
  6
CONTINUOUS
 62
     6
100
AcDbLine
 10
1318.0
 20
2647.63559
 30
0.0
 11
1968.0
 21
2647.63559
 31
0.0
  0
LINE
  5
885
100
AcDbEntity
  8
器具明細表
  6
CONTINUOUS
 62
     6
100
AcDbLine
 10
1318.0
 20
2777.63559
 30
0.0
 11
1968.0
 21
2777.63559
 31
0.0
  0
TEXT
  5
886
100
AcDbEntity
  8
器具明細表
  6
CONTINUOUS
 62
     2
100
AcDbText
 10
1390.5
 20
2720.13559
 30
0.0
 40
50.0
  1
品番
 41
1.302
  7
EXCADSTD
 72
     5
 11
1532.573
 21
2720.13559
 31
0.0
100
AcDbText
  0
TEXT
  5
887
100
AcDbEntity
  8
器具明細表
  6
CONTINUOUS
 62
     2
100
AcDbText
 10
1680.5
 20
2720.13559
 30
0.0
 40
50.0
  1
品名
 41
1.218
  7
EXCADSTD
 72
     5
 11
1813.407
 21
2720.13559
 31
0.0
100
AcDbText
  0
TEXT
  5
888
100
AcDbEntity
  8
器具明細表
  6
CONTINUOUS
 62
     2
100
AcDbText
 10
1889.5
 20
2720.13559
 30
0.0
 40
50.0
  1
個数
 41
0.7308
  7
EXCADSTD
 72
     5
 11
1969.2442
 21
2720.13559
 31
0.0
100
AcDbText
  0
TEXT
  5
889
100
AcDbEntity
  8
器具明細表
  6
CONTINUOUS
 62
     2
100
AcDbText
 10
1618.0
 20
2656.38559
 30
0.0
 40
47.5
  1
便器セット
 41
0.815242
  7
EXCADSTD
 72
     5
 11
1848.5
 21
2656.38559
 31
0.0
100
AcDbText
  0
TEXT
  5
88A
100
AcDbEntity
  8
器具明細表
  6
CONTINUOUS
 62
     2
100
AcDbText
 10
1906.75
 20
2657.63559
 30
0.0
 40
45.0
  1
１
 41
0.98
  7
EXCADSTD
 72
     5
 11
1948.75
 21
2657.63559
 31
0.0
100
AcDbText
  0
TEXT
  5
88B
100
AcDbEntity
  8
器具明細表
  6
CONTINUOUS
 62
     2
100
AcDbText
 10
1318.0
 20
2792.63559
 30
0.0
 40
60.0
  1
器具明細
 41
1.05
  7
EXCADSTD
 72
     5
 11
1618.0
 21
2792.63559
 31
0.0
100
AcDbText
  0
LINE
  5
88C
100
AcDbEntity
  8
器具明細表
  6
CONTINUOUS
 62
     6
100
AcDbLine
 10
1318.0
 20
2582.63559
 30
0.0
 11
1968.0
 21
2582.63559
 31
0.0
  0
TEXT
  5
88D
100
AcDbEntity
  8
器具明細表
  6
CONTINUOUS
 62
     2
100
AcDbText
 10
1906.75
 20
2592.63559
 30
0.0
 40
45.0
  1
１
 41
0.98
  7
EXCADSTD
 72
     5
 11
1948.75
 21
2592.63559
 31
0.0
100
AcDbText
  0
LINE
  5
88E
100
AcDbEntity
  8
器具明細表
  6
CONTINUOUS
 62
     6
100
AcDbLine
 10
1318.0
 20
2777.63559
 30
0.0
 11
1318.0
 21
2582.63559
 31
0.0
  0
LINE
  5
88F
100
AcDbEntity
  8
器具明細表
  6
CONTINUOUS
 62
     6
100
AcDbLine
 10
1618.0
 20
2777.63559
 30
0.0
 11
1618.0
 21
2582.63559
 31
0.0
  0
LINE
  5
890
100
AcDbEntity
  8
器具明細表
  6
CONTINUOUS
 62
     6
100
AcDbLine
 10
1888.0
 20
2777.63559
 30
0.0
 11
1888.0
 21
2582.63559
 31
0.0
  0
LINE
  5
891
100
AcDbEntity
  8
器具明細表
  6
CONTINUOUS
 62
     6
100
AcDbLine
 10
1968.0
 20
2582.63559
 30
0.0
 11
1968.0
 21
2777.63559
 31
0.0
  0
TEXT
  5
892
100
AcDbEntity
  8
器具明細表
  6
CONTINUOUS
 62
     2
100
AcDbText
 10
1618.0
 20
2591.38559
 30
0.0
 40
47.5
  1
ワンタッチ式紙巻器
 41
0.532491
  7
EXCADSTD
 72
     5
 11
1889.000013
 21
2591.38559
 31
0.0
100
AcDbText
  0
TEXT
  5
893
100
AcDbEntity
  8
器具明細表
  6
CONTINUOUS
 62
     2
100
AcDbText
 10
1318.0
 20
2656.38559
 30
0.0
 40
47.5
  1
ＣＳ７３Ｓ－ＦＷ
 41
0.654316
  7
EXCADSTD
 72
     5
 11
1614.000005
 21
2656.38559
 31
0.0
100
AcDbText
  0
LINE
  5
894
100
AcDbEntity
  8
器具明細表
  6
CONTINUOUS
 62
     7
100
AcDbLine
 10
1478.0
 20
2103.63559
 30
0.0
 11
1804.5
 21
2103.63559
 31
0.0
  0
TEXT
  5
895
100
AcDbEntity
  8
器具明細表
  6
CONTINUOUS
 62
     2
100
AcDbText
 10
1545.0
 20
2107.13559
 30
0.0
 40
40.0
  1
Ｆ．Ｌ
 41
0.833
  7
EXCADSTD
 72
     5
 11
1664.0
 21
2107.13559
 31
0.0
100
AcDbText
  0
TEXT
  5
896
100
AcDbEntity
  8
器具明細表
  6
CONTINUOUS
 62
     2
100
AcDbText
 10
1281.391216
 20
1937.13559
 30
0.0
 40
40.0
  1
ＶＵ、ＶＰ７５の場合
 41
0.651
  7
EXCADSTD
 72
     5
 11
1591.391216
 21
1937.13559
 31
0.0
100
AcDbText
  0
LINE
  5
897
100
AcDbEntity
  8
器具明細表
  6
CONTINUOUS
 62
     6
100
AcDbLine
 10
1286.5
 20
1931.63559
 30
0.0
 11
1591.5
 21
1931.63559
 31
0.0
  0
TEXT
  5
898
100
AcDbEntity
  8
器具明細表
  6
CONTINUOUS
 62
     2
100
AcDbText
 10
1362.391216
 20
1888.13559
 30
0.0
 40
40.0
  1
床面カット
 41
0.672
  7
EXCADSTD
 72
     5
 11
1522.391216
 21
1888.13559
 31
0.0
100
AcDbText
  0
LINE
  5
899
100
AcDbEntity
  8
器具明細表
  6
EXLTYPE3
 62
     6
100
AcDbLine
 10
1435.5
 20
2163.63559
 30
0.0
 11
1435.5
 21
2023.890289
 31
0.0
  0
LINE
  5
89A
100
AcDbEntity
  8
器具明細表
  6
CONTINUOUS
 62
     2
100
AcDbLine
 10
1476.5
 20
2103.63559
 30
0.0
 11
1476.5
 21
2058.63559
 31
0.0
  0
LINE
  5
89B
100
AcDbEntity
  8
器具明細表
  6
CONTINUOUS
 62
     2
100
AcDbLine
 10
1494.5
 20
2149.082052
 30
0.0
 11
1376.5
 21
2149.082052
 31
0.0
  0
LINE
  5
89C
100
AcDbEntity
  8
器具明細表
  6
CONTINUOUS
 62
     2
100
AcDbLine
 10
1436.5
 20
2132.082052
 30
0.0
 11
1473.413055
 21
2132.082052
 31
0.0
  0
LINE
  5
89D
100
AcDbEntity
  8
器具明細表
  6
CONTINUOUS
 62
     2
100
AcDbLine
 10
1468.0
 20
2132.082052
 30
0.0
 11
1482.607625
 21
2148.103314
 31
0.0
  0
LINE
  5
89E
100
AcDbEntity
  8
器具明細表
  6
CONTINUOUS
 62
     2
100
AcDbLine
 10
1473.413058
 20
2132.082049
 30
0.0
 11
1484.354233
 21
2144.082052
 31
0.0
  0
ARC
  5
89F
100
AcDbEntity
  8
器具明細表
  6
CONTINUOUS
 62
     2
100
AcDbCircle
 10
1376.5
 20
2146.082052
 30
0.0
 40
3.0
100
AcDbArc
 50
90.0
 51
180.0
  0
ARC
  5
8A0
100
AcDbEntity
  8
器具明細表
  6
CONTINUOUS
 62
     2
100
AcDbCircle
 10
1494.5
 20
2146.082052
 30
0.0
 40
3.0
100
AcDbArc
 50
0.0
 51
90.0
  0
ARC
  5
8A1
100
AcDbEntity
  8
器具明細表
  6
CONTINUOUS
 62
     2
100
AcDbCircle
 10
1484.824493
 20
2146.082052
 30
0.0
 40
3.0
100
AcDbArc
 50
90.0
 51
137.642517
  0
LINE
  5
8A2
100
AcDbEntity
  8
器具明細表
  6
CONTINUOUS
 62
     2
100
AcDbLine
 10
1484.354233
 20
2144.082052
 30
0.0
 11
1489.172134
 21
2144.082052
 31
0.0
  0
LINE
  5
8A3
100
AcDbEntity
  8
器具明細表
  6
CONTINUOUS
 62
     2
100
AcDbLine
 10
1489.172134
 20
2144.082052
 30
0.0
 11
1492.460179
 21
2144.082052
 31
0.0
  0
LINE
  5
8A4
100
AcDbEntity
  8
器具明細表
  6
EXLTYPE2
 62
     2
100
AcDbLine
 10
1378.5
 20
2143.582052
 30
0.0
 11
1435.5
 21
2143.582052
 31
0.0
  0
LINE
  5
8A5
100
AcDbEntity
  8
器具明細表
  6
CONTINUOUS
 62
     2
100
AcDbLine
 10
1492.460179
 20
2143.582052
 30
0.0
 11
1492.460179
 21
2103.63559
 31
0.0
  0
LINE
  5
8A6
100
AcDbEntity
  8
器具明細表
  6
CONTINUOUS
 62
     6
100
AcDbLine
 10
1476.5
 20
2058.63559
 30
0.0
 11
1476.5
 21
2041.654676
 31
0.0
  0
LINE
  5
8A7
100
AcDbEntity
  8
器具明細表
  6
CONTINUOUS
 62
     2
100
AcDbLine
 10
1473.0
 20
2107.63559
 30
0.0
 11
1473.0
 21
2058.63559
 31
0.0
  0
LINE
  5
8A8
100
AcDbEntity
  8
器具明細表
  6
CONTINUOUS
 62
     2
100
AcDbLine
 10
1489.460179
 20
2143.582052
 30
0.0
 11
1489.460179
 21
2107.63559
 31
0.0
  0
LINE
  5
8A9
100
AcDbEntity
  8
器具明細表
  6
CONTINUOUS
 62
     2
100
AcDbLine
 10
1436.5
 20
2107.63559
 30
0.0
 11
1489.460179
 21
2107.63559
 31
0.0
  0
LINE
  5
8AA
100
AcDbEntity
  8
器具明細表
  6
CONTINUOUS
 62
     6
100
AcDbLine
 10
1480.0
 20
2103.63559
 30
0.0
 11
1480.0
 21
2043.890289
 31
0.0
  0
LINE
  5
8AB
100
AcDbEntity
  8
器具明細表
  6
CONTINUOUS
 62
     6
100
AcDbLine
 10
1391.0
 20
2103.63559
 30
0.0
 11
1391.0
 21
2043.890289
 31
0.0
  0
ARC
  5
8AC
100
AcDbEntity
  8
器具明細表
  6
CONTINUOUS
 62
     6
100
AcDbCircle
 10
1413.25
 20
2012.913999
 30
0.0
 40
38.139128
100
AcDbArc
 50
54.310642
 51
125.689358
  0
ARC
  5
8AD
100
AcDbEntity
  8
器具明細表
  6
CONTINUOUS
 62
     6
100
AcDbCircle
 10
1413.25
 20
2074.86658
 30
0.0
 40
38.139128
100
AcDbArc
 50
234.310642
 51
305.689358
  0
ARC
  5
8AE
100
AcDbEntity
  8
器具明細表
  6
CONTINUOUS
 62
     6
100
AcDbCircle
 10
1457.75
 20
2074.86658
 30
0.0
 40
38.139128
100
AcDbArc
 50
234.310642
 51
305.689358
  0
LINE
  5
8AF
100
AcDbEntity
  8
器具明細表
  6
CONTINUOUS
 62
     2
100
AcDbLine
 10
1435.5
 20
2058.63559
 30
0.0
 11
1476.5
 21
2058.63559
 31
0.0
  0
LINE
  5
8B0
100
AcDbEntity
  8
器具明細表
  6
EXLTYPE2
 62
     2
100
AcDbLine
 10
1394.5
 20
2103.63559
 30
0.0
 11
1394.5
 21
2058.63559
 31
0.0
  0
LINE
  5
8B1
100
AcDbEntity
  8
器具明細表
  6
EXLTYPE2
 62
     2
100
AcDbLine
 10
1394.5
 20
2058.63559
 30
0.0
 11
1435.5
 21
2058.63559
 31
0.0
  0
TEXT
  5
8B2
100
AcDbEntity
  8
器具明細表
  6
CONTINUOUS
 62
     2
100
AcDbText
 10
1634.891216
 20
1935.13559
 30
0.0
 40
40.0
  1
ＶＵ、ＶＰ１００の場合
 41
0.649091
  7
EXCADSTD
 72
     5
 11
1974.891216
 21
1935.13559
 31
0.0
100
AcDbText
  0
TEXT
  5
8B3
100
AcDbEntity
  8
器具明細表
  6
CONTINUOUS
 62
     2
100
AcDbText
 10
1683.891216
 20
1888.13559
 30
0.0
 40
40.0
  1
床上４０mmカット
 41
0.583704
  7
EXCADSTD
 72
     5
 11
1923.891216
 21
1888.13559
 31
0.0
100
AcDbText
  0
LINE
  5
8B4
100
AcDbEntity
  8
器具明細表
  6
CONTINUOUS
 62
     6
100
AcDbLine
 10
1636.0
 20
1931.63559
 30
0.0
 11
1979.0
 21
1931.63559
 31
0.0
  0
ARC
  5
8B5
100
AcDbEntity
  8
器具明細表
  6
CONTINUOUS
 62
     6
100
AcDbCircle
 10
1777.5
 20
2084.972524
 30
0.0
 40
50.0
100
AcDbArc
 50
235.249774
 51
304.750226
  0
ARC
  5
8B6
100
AcDbEntity
  8
器具明細表
  6
CONTINUOUS
 62
     6
100
AcDbCircle
 10
1777.5
 20
2002.808055
 30
0.0
 40
50.0
100
AcDbArc
 50
55.249774
 51
124.750226
  0
ARC
  5
8B7
100
AcDbEntity
  8
器具明細表
  6
CONTINUOUS
 62
     6
100
AcDbCircle
 10
1834.5
 20
2084.972524
 30
0.0
 40
50.0
100
AcDbArc
 50
235.249774
 51
304.750226
  0
LINE
  5
8B8
100
AcDbEntity
  8
器具明細表
  6
CONTINUOUS
 62
     6
100
AcDbLine
 10
1863.0
 20
2143.63559
 30
0.0
 11
1863.0
 21
2043.890289
 31
0.0
  0
LINE
  5
8B9
100
AcDbEntity
  8
器具明細表
  6
EXLTYPE3
 62
     6
100
AcDbLine
 10
1806.0
 20
2023.890289
 30
0.0
 11
1806.0
 21
2163.63559
 31
0.0
  0
LINE
  5
8BA
100
AcDbEntity
  8
器具明細表
  6
CONTINUOUS
 62
     2
100
AcDbLine
 10
1865.0
 20
2149.082052
 30
0.0
 11
1747.0
 21
2149.082052
 31
0.0
  0
LINE
  5
8BB
100
AcDbEntity
  8
器具明細表
  6
CONTINUOUS
 62
     2
100
AcDbLine
 10
1807.0
 20
2132.082052
 30
0.0
 11
1843.913055
 21
2132.082052
 31
0.0
  0
LINE
  5
8BC
100
AcDbEntity
  8
器具明細表
  6
CONTINUOUS
 62
     2
100
AcDbLine
 10
1838.5
 20
2132.082052
 30
0.0
 11
1853.107625
 21
2148.103314
 31
0.0
  0
LINE
  5
8BD
100
AcDbEntity
  8
器具明細表
  6
CONTINUOUS
 62
     2
100
AcDbLine
 10
1843.913058
 20
2132.082049
 30
0.0
 11
1854.854233
 21
2144.082052
 31
0.0
  0
ARC
  5
8BE
100
AcDbEntity
  8
器具明細表
  6
CONTINUOUS
 62
     2
100
AcDbCircle
 10
1747.0
 20
2146.082052
 30
0.0
 40
3.0
100
AcDbArc
 50
90.0
 51
180.0
  0
ARC
  5
8BF
100
AcDbEntity
  8
器具明細表
  6
CONTINUOUS
 62
     2
100
AcDbCircle
 10
1865.0
 20
2146.082052
 30
0.0
 40
3.0
100
AcDbArc
 50
0.0
 51
90.0
  0
ARC
  5
8C0
100
AcDbEntity
  8
器具明細表
  6
CONTINUOUS
 62
     2
100
AcDbCircle
 10
1855.324493
 20
2146.082052
 30
0.0
 40
3.0
100
AcDbArc
 50
90.0
 51
137.642517
  0
ARC
  5
8C1
100
AcDbEntity
  8
器具明細表
  6
CONTINUOUS
 62
     2
100
AcDbCircle
 10
1862.960179
 20
2143.582052
 30
0.0
 40
0.5
100
AcDbArc
 50
5.0
 51
90.0
  0
LINE
  5
8C2
100
AcDbEntity
  8
器具明細表
  6
CONTINUOUS
 62
     2
100
AcDbLine
 10
1854.854233
 20
2144.082052
 30
0.0
 11
1859.672134
 21
2144.082052
 31
0.0
  0
LINE
  5
8C3
100
AcDbEntity
  8
器具明細表
  6
CONTINUOUS
 62
     2
100
AcDbLine
 10
1859.672134
 20
2144.082052
 30
0.0
 11
1862.960179
 21
2144.082052
 31
0.0
  0
LINE
  5
8C4
100
AcDbEntity
  8
器具明細表
  6
CONTINUOUS
 62
     6
100
AcDbLine
 10
1854.398351
 20
2143.582052
 30
0.0
 11
1863.0
 21
2143.582052
 31
0.0
  0
LINE
  5
8C5
100
AcDbEntity
  8
器具明細表
  6
CONTINUOUS
 62
     6
100
AcDbLine
 10
1860.0
 20
2143.63559
 30
0.0
 11
1860.0
 21
2041.963804
 31
0.0
  0
LINE
  5
8C6
100
AcDbEntity
  8
器具明細表
  6
CONTINUOUS
 62
     7
100
AcDbLine
 10
1275.0
 20
2103.63559
 30
0.0
 11
1434.0
 21
2103.63559
 31
0.0
  0
LINE
  5
8C7
100
AcDbEntity
  8
器具明細表
  6
CONTINUOUS
 62
     7
100
AcDbLine
 10
1865.0
 20
2103.63559
 30
0.0
 11
1984.0
 21
2103.63559
 31
0.0
  0
LINE
  5
8C8
100
AcDbEntity
  8
器具明細表
  6
CONTINUOUS
 62
     2
100
AcDbLine
 10
1373.5
 20
2113.63559
 30
0.0
 11
1378.5
 21
2113.63559
 31
0.0
  0
LINE
  5
8C9
100
AcDbEntity
  8
器具明細表
  6
CONTINUOUS
 62
     2
100
AcDbLine
 10
1373.5
 20
2113.63559
 30
0.0
 11
1373.5
 21
2146.082052
 31
0.0
  0
LINE
  5
8CA
100
AcDbEntity
  8
器具明細表
  6
CONTINUOUS
 62
     2
100
AcDbLine
 10
1495.226951
 20
2118.213232
 30
0.0
 11
1494.965484
 21
2121.201816
 31
0.0
  0
LINE
  5
8CB
100
AcDbEntity
  8
器具明細表
  6
CONTINUOUS
 62
     2
100
AcDbLine
 10
1494.529705
 20
2126.18279
 30
0.0
 11
1493.919615
 21
2133.156153
 31
0.0
  0
ARC
  5
8CC
100
AcDbEntity
  8
器具明細表
  6
CONTINUOUS
 62
     2
100
AcDbCircle
 10
1494.330556
 20
2134.195925
 30
0.0
 40
0.5
100
AcDbArc
 50
275.0
 51
5.0
  0
ARC
  5
8CD
100
AcDbEntity
  8
器具明細表
  6
CONTINUOUS
 62
     2
100
AcDbCircle
 10
1494.417712
 20
2133.19973
 30
0.0
 40
0.5
100
AcDbArc
 50
95.0
 51
185.0
  0
ARC
  5
8CE
100
AcDbEntity
  8
器具明細表
  6
CONTINUOUS
 62
     2
100
AcDbCircle
 10
1494.031608
 20
2126.139212
 30
0.0
 40
0.5
100
AcDbArc
 50
275.0
 51
5.0
  0
ARC
  5
8CF
100
AcDbEntity
  8
器具明細表
  6
CONTINUOUS
 62
     2
100
AcDbCircle
 10
1494.467386
 20
2121.158238
 30
0.0
 40
0.5
100
AcDbArc
 50
5.0
 51
95.0
  0
ARC
  5
8D0
100
AcDbEntity
  8
器具明細表
  6
CONTINUOUS
 62
     2
100
AcDbCircle
 10
1494.728854
 20
2118.169654
 30
0.0
 40
0.5
100
AcDbArc
 50
275.0
 51
5.0
  0
LINE
  5
8D1
100
AcDbEntity
  8
器具明細表
  6
CONTINUOUS
 62
     2
100
AcDbLine
 10
1494.274334
 20
2117.627979
 30
0.0
 11
1494.772431
 21
2117.671557
 31
0.0
  0
LINE
  5
8D2
100
AcDbEntity
  8
器具明細表
  6
CONTINUOUS
 62
     2
100
AcDbLine
 10
1492.950568
 20
2143.679614
 30
0.0
 11
1494.828654
 21
2134.239503
 31
0.0
  0
LINE
  5
8D3
100
AcDbEntity
  8
器具明細表
  6
CONTINUOUS
 62
     2
100
AcDbLine
 10
1494.622957
 20
2113.6432
 30
0.0
 11
1500.493421
 21
2114.156799
 31
0.0
  0
LINE
  5
8D4
100
AcDbEntity
  8
器具明細表
  6
CONTINUOUS
 62
     2
100
AcDbLine
 10
1497.5
 20
2146.082052
 30
0.0
 11
1500.493421
 21
2114.156799
 31
0.0
  0
ARC
  5
8D5
100
AcDbEntity
  8
器具明細表
  6
CONTINUOUS
 62
     2
100
AcDbCircle
 10
1492.460179
 20
2143.582052
 30
0.0
 40
0.5
100
AcDbArc
 50
11.251933
 51
90.0
  0
LINE
  5
8D6
100
AcDbEntity
  8
器具明細表
  6
CONTINUOUS
 62
     2
100
AcDbLine
 10
1483.898351
 20
2143.582052
 30
0.0
 11
1492.460179
 21
2143.582052
 31
0.0
  0
ARC
  5
8D7
100
AcDbEntity
  8
器具明細表
  6
CONTINUOUS
 62
     2
100
AcDbCircle
 10
1494.249497
 20
2123.648725
 30
0.0
 40
2.0
100
AcDbArc
 50
206.535311
 51
275.0
  0
ARC
  5
8D8
100
AcDbEntity
  8
器具明細表
  6
CONTINUOUS
 62
     2
100
AcDbCircle
 10
1494.249497
 20
2123.648725
 30
0.0
 40
2.0
100
AcDbArc
 50
95.0
 51
153.464689
  0
ARC
  5
8D9
100
AcDbEntity
  8
器具明細表
  6
CONTINUOUS
 62
     2
100
AcDbCircle
 10
1494.448646
 20
2115.63559
 30
0.0
 40
2.0
100
AcDbArc
 50
95.0
 51
173.843941
  0
ARC
  5
8DA
100
AcDbEntity
  8
器具明細表
  6
CONTINUOUS
 62
     2
100
AcDbCircle
 10
1494.448646
 20
2115.63559
 30
0.0
 40
2.0
100
AcDbArc
 50
186.156059
 51
275.0
  0
LINE
  5
8DB
100
AcDbEntity
  8
器具明細表
  6
CONTINUOUS
 62
     2
100
AcDbLine
 10
1744.0
 20
2113.63559
 30
0.0
 11
1749.0
 21
2113.63559
 31
0.0
  0
LINE
  5
8DC
100
AcDbEntity
  8
器具明細表
  6
CONTINUOUS
 62
     2
100
AcDbLine
 10
1744.0
 20
2113.63559
 30
0.0
 11
1744.0
 21
2146.082052
 31
0.0
  0
LINE
  5
8DD
100
AcDbEntity
  8
器具明細表
  6
EXLTYPE2
 62
     6
100
AcDbLine
 10
1749.0
 20
2143.582052
 30
0.0
 11
1806.0
 21
2143.582052
 31
0.0
  0
LINE
  5
8DE
100
AcDbEntity
  8
器具明細表
  6
EXLTYPE2
 62
     6
100
AcDbLine
 10
1749.0
 20
2143.582052
 30
0.0
 11
1749.0
 21
2103.63559
 31
0.0
  0
LINE
  5
8DF
100
AcDbEntity
  8
器具明細表
  6
CONTINUOUS
 62
     2
100
AcDbLine
 10
1865.552639
 20
2118.205621
 30
0.0
 11
1865.291172
 21
2121.194206
 31
0.0
  0
LINE
  5
8E0
100
AcDbEntity
  8
器具明細表
  6
CONTINUOUS
 62
     2
100
AcDbLine
 10
1864.855393
 20
2126.175179
 30
0.0
 11
1864.245303
 21
2133.148542
 31
0.0
  0
ARC
  5
8E1
100
AcDbEntity
  8
器具明細表
  6
CONTINUOUS
 62
     2
100
AcDbCircle
 10
1864.656245
 20
2134.188315
 30
0.0
 40
0.5
100
AcDbArc
 50
275.0
 51
5.0
  0
ARC
  5
8E2
100
AcDbEntity
  8
器具明細表
  6
CONTINUOUS
 62
     2
100
AcDbCircle
 10
1864.743401
 20
2133.19212
 30
0.0
 40
0.5
100
AcDbArc
 50
95.0
 51
185.0
  0
ARC
  5
8E3
100
AcDbEntity
  8
器具明細表
  6
CONTINUOUS
 62
     2
100
AcDbCircle
 10
1864.357296
 20
2126.131601
 30
0.0
 40
0.5
100
AcDbArc
 50
275.0
 51
5.0
  0
ARC
  5
8E4
100
AcDbEntity
  8
器具明細表
  6
CONTINUOUS
 62
     2
100
AcDbCircle
 10
1864.793075
 20
2121.150628
 30
0.0
 40
0.5
100
AcDbArc
 50
5.0
 51
95.0
  0
ARC
  5
8E5
100
AcDbEntity
  8
器具明細表
  6
CONTINUOUS
 62
     2
100
AcDbCircle
 10
1865.054542
 20
2118.162044
 30
0.0
 40
0.5
100
AcDbArc
 50
275.0
 51
5.0
  0
ARC
  5
8E6
100
AcDbEntity
  8
器具明細表
  6
CONTINUOUS
 62
     2
100
AcDbCircle
 10
1864.575185
 20
2123.641114
 30
0.0
 40
2.0
100
AcDbArc
 50
95.0
 51
141.961114
  0
ARC
  5
8E7
100
AcDbEntity
  8
器具明細表
  6
CONTINUOUS
 62
     2
100
AcDbCircle
 10
1864.575185
 20
2123.641114
 30
0.0
 40
2.0
100
AcDbArc
 50
218.038886
 51
275.0
  0
LINE
  5
8E8
100
AcDbEntity
  8
器具明細表
  6
CONTINUOUS
 62
     2
100
AcDbLine
 10
1864.600023
 20
2117.620368
 30
0.0
 11
1865.09812
 21
2117.663946
 31
0.0
  0
ARC
  5
8E9
100
AcDbEntity
  8
器具明細表
  6
CONTINUOUS
 62
     2
100
AcDbCircle
 10
1864.774334
 20
2115.627979
 30
0.0
 40
2.0
100
AcDbArc
 50
95.0
 51
152.519387
  0
ARC
  5
8EA
100
AcDbEntity
  8
器具明細表
  6
CONTINUOUS
 62
     2
100
AcDbCircle
 10
1864.774334
 20
2115.627979
 30
0.0
 40
2.0
100
AcDbArc
 50
207.480613
 51
275.0
  0
LINE
  5
8EB
100
AcDbEntity
  8
器具明細表
  6
CONTINUOUS
 62
     2
100
AcDbLine
 10
1865.148289
 20
2134.277155
 30
0.0
 11
1863.452223
 21
2143.670892
 31
0.0
  0
LINE
  5
8EC
100
AcDbEntity
  8
器具明細表
  6
CONTINUOUS
 62
     2
100
AcDbLine
 10
1864.948646
 20
2113.63559
 30
0.0
 11
1870.992711
 21
2114.164377
 31
0.0
  0
LINE
  5
8ED
100
AcDbEntity
  8
器具明細表
  6
CONTINUOUS
 62
     2
100
AcDbLine
 10
1868.0
 20
2146.082052
 30
0.0
 11
1870.992711
 21
2114.164377
 31
0.0
  0
LINE
  5
8EE
100
AcDbEntity
  8
器具明細表
  6
EXLTYPE2
 62
     2
100
AcDbLine
 10
1378.5
 20
2143.582052
 30
0.0
 11
1378.5
 21
2113.63559
 31
0.0
  0
LINE
  5
8EF
100
AcDbEntity
  8
器具明細表
  6
CONTINUOUS
 62
     2
100
AcDbLine
 10
1378.5
 20
2113.63559
 30
0.0
 11
1378.5
 21
2103.63559
 31
0.0
  0
LINE
  5
8F0
100
AcDbEntity
  8
器具明細表
  6
CONTINUOUS
 62
     2
100
AcDbLine
 10
1378.5
 20
2113.63559
 30
0.0
 11
1435.5
 21
2113.63559
 31
0.0
  0
LINE
  5
8F1
100
AcDbEntity
  8
器具明細表
  6
CONTINUOUS
 62
     2
100
AcDbLine
 10
1749.0
 20
2113.63559
 30
0.0
 11
1806.0
 21
2113.63559
 31
0.0
  0
LINE
  5
8F2
100
AcDbEntity
  8
器具明細表
  6
CONTINUOUS
 62
     6
100
AcDbLine
 10
1749.0
 20
2113.63559
 30
0.0
 11
1749.0
 21
2043.890289
 31
0.0
  0
TEXT
  5
8F3
100
AcDbEntity
  8
器具明細表
  6
CONTINUOUS
 62
     2
100
AcDbText
 10
1318.0
 20
2591.38559
 30
0.0
 40
47.5
  1
ＮＣ７１ＶＪ
 41
0.663158
  7
EXCADSTD
 72
     5
 11
1543.000004
 21
2591.38559
 31
0.0
100
AcDbText
  0
ENDSEC
  0
SECTION
  2
OBJECTS
  0
DICTIONARY
  5
19
100
AcDbDictionary
  3
ACAD_GROUP
350
1A
  3
ACAD_MLINESTYLE
350
1B
  0
DICTIONARY
  5
1A
102
{ACAD_REACTORS
330
19
102
}
100
AcDbDictionary
  0
DICTIONARY
  5
1B
102
{ACAD_REACTORS
330
19
102
}
100
AcDbDictionary
  3
STANDARD
350
1C
  0
MLINESTYLE
  5
1C
102
{ACAD_REACTORS
330
1B
102
}
100
AcDbMlineStyle
  2
Standard
 70
     0
  3

 62
     0
 51
90.0
 52
90.0
 71
     2
 49
0.5
 62
   256
  6
ByLayer
 49
-0.5
 62
   256
  6
ByLayer
  0
ENDSEC
  0
EOF
