  0
SECTION
  2
HEADER
  9
$ACADVER
  1
AC1014
  9
$ACADMAINTVER
 70
     0
  9
$DWGCODEPAGE
  3
ANSI_932
  9
$INSBASE
 10
0.0
 20
0.0
 30
0.0
  9
$EXTMIN
 10
0.0
 20
13.5
 30
0.0
  9
$EXTMAX
 10
339.51
 20
288.5
 30
0.0
  9
$LIMMIN
 10
0.0
 20
0.0
  9
$LIMMAX
 10
210.0
 20
297.0
  9
$ORTHOMODE
 70
     0
  9
$REGENMODE
 70
     1
  9
$FILLMODE
 70
     1
  9
$QTEXTMODE
 70
     0
  9
$MIRRTEXT
 70
     1
  9
$DRAGMODE
 70
     2
  9
$LTSCALE
 40
1.0
  9
$OSMODE
 70
     0
  9
$ATTMODE
 70
     1
  9
$TEXTSIZE
 40
0.2
  9
$TRACEWID
 40
0.05
  9
$TEXTSTYLE
  7
STANDARD
  9
$CLAYER
  8
図
  9
$CELTYPE
  6
CONTINUOUS
  9
$CECOLOR
 62
   256
  9
$CELTSCALE
 40
1.0
  9
$DELOBJ
 70
     1
  9
$DISPSILH
 70
     0
  9
$DIMSCALE
 40
1.0
  9
$DIMASZ
 40
0.18
  9
$DIMEXO
 40
0.0625
  9
$DIMDLI
 40
0.38
  9
$DIMRND
 40
0.0
  9
$DIMDLE
 40
0.0
  9
$DIMEXE
 40
0.18
  9
$DIMTP
 40
0.0
  9
$DIMTM
 40
0.0
  9
$DIMTXT
 40
0.18
  9
$DIMCEN
 40
0.09
  9
$DIMTSZ
 40
0.0
  9
$DIMTOL
 70
     0
  9
$DIMLIM
 70
     0
  9
$DIMTIH
 70
     1
  9
$DIMTOH
 70
     1
  9
$DIMSE1
 70
     0
  9
$DIMSE2
 70
     0
  9
$DIMTAD
 70
     0
  9
$DIMZIN
 70
     0
  9
$DIMBLK
  1

  9
$DIMASO
 70
     1
  9
$DIMSHO
 70
     1
  9
$DIMPOST
  1

  9
$DIMAPOST
  1

  9
$DIMALT
 70
     0
  9
$DIMALTD
 70
     2
  9
$DIMALTF
 40
25.4
  9
$DIMLFAC
 40
1.0
  9
$DIMTOFL
 70
     0
  9
$DIMTVP
 40
0.0
  9
$DIMTIX
 70
     0
  9
$DIMSOXD
 70
     0
  9
$DIMSAH
 70
     0
  9
$DIMBLK1
  1

  9
$DIMBLK2
  1

  9
$DIMSTYLE
  2
STANDARD
  9
$DIMCLRD
 70
     0
  9
$DIMCLRE
 70
     0
  9
$DIMCLRT
 70
     0
  9
$DIMTFAC
 40
1.0
  9
$DIMGAP
 40
0.09
  9
$DIMJUST
 70
     0
  9
$DIMSD1
 70
     0
  9
$DIMSD2
 70
     0
  9
$DIMTOLJ
 70
     1
  9
$DIMTZIN
 70
     0
  9
$DIMALTZ
 70
     0
  9
$DIMALTTZ
 70
     0
  9
$DIMFIT
 70
     3
  9
$DIMUPT
 70
     0
  9
$DIMUNIT
 70
     2
  9
$DIMDEC
 70
     4
  9
$DIMTDEC
 70
     4
  9
$DIMALTU
 70
     2
  9
$DIMALTTD
 70
     2
  9
$DIMTXSTY
  7
STANDARD
  9
$DIMAUNIT
 70
     0
  9
$LUNITS
 70
     2
  9
$LUPREC
 70
     4
  9
$SKETCHINC
 40
0.1
  9
$FILLETRAD
 40
0.0
  9
$AUNITS
 70
     0
  9
$AUPREC
 70
     0
  9
$MENU
  1
acad
  9
$ELEVATION
 40
0.0
  9
$PELEVATION
 40
0.0
  9
$THICKNESS
 40
0.0
  9
$LIMCHECK
 70
     0
  9
$BLIPMODE
 70
     1
  9
$CHAMFERA
 40
0.0
  9
$CHAMFERB
 40
0.0
  9
$CHAMFERC
 40
0.0
  9
$CHAMFERD
 40
0.0
  9
$SKPOLY
 70
     0
  9
$TDCREATE
 40
2455201.160351945
  9
$TDUPDATE
 40
2455201.160351945
  9
$TDINDWG
 40
0.0000000000
  9
$TDUSRTIMER
 40
0.0000000000
  9
$USRTIMER
 70
     1
  9
$ANGBASE
 50
0.0
  9
$ANGDIR
 70
     0
  9
$PDMODE
 70
     0
  9
$PDSIZE
 40
0.0
  9
$PLINEWID
 40
0.0
  9
$COORDS
 70
     1
  9
$SPLFRAME
 70
     0
  9
$SPLINETYPE
 70
     6
  9
$SPLINESEGS
 70
     8
  9
$ATTDIA
 70
     0
  9
$ATTREQ
 70
     1
  9
$HANDLING
 70
     1
  9
$HANDSEED
  5
4BB
  9
$SURFTAB1
 70
     6
  9
$SURFTAB2
 70
     6
  9
$SURFTYPE
 70
     6
  9
$SURFU
 70
     6
  9
$SURFV
 70
     6
  9
$UCSNAME
  2

  9
$UCSORG
 10
0.0
 20
0.0
 30
0.0
  9
$UCSXDIR
 10
1.0
 20
0.0
 30
0.0
  9
$UCSYDIR
 10
0.0
 20
1.0
 30
0.0
  9
$PUCSNAME
  2

  9
$PUCSORG
 10
0.0
 20
0.0
 30
0.0
  9
$PUCSXDIR
 10
1.0
 20
0.0
 30
0.0
  9
$PUCSYDIR
 10
0.0
 20
1.0
 30
0.0
  9
$USERI1
 70
     0
  9
$USERI2
 70
     0
  9
$USERI3
 70
     0
  9
$USERI4
 70
     0
  9
$USERI5
 70
     0
  9
$USERR1
 40
0.0
  9
$USERR2
 40
0.0
  9
$USERR3
 40
0.0
  9
$USERR4
 40
0.0
  9
$USERR5
 40
0.0
  9
$WORLDVIEW
 70
     1
  9
$SHADEDGE
 70
     3
  9
$SHADEDIF
 70
    70
  9
$TILEMODE
 70
     1
  9
$MAXACTVP
 70
    16
  9
$PINSBASE
 10
0.0
 20
0.0
 30
0.0
  9
$PLIMCHECK
 70
     0
  9
$PEXTMIN
 10
1.000000E+20
 20
1.000000E+20
 30
1.000000E+20
  9
$PEXTMAX
 10
-1.000000E+20
 20
-1.000000E+20
 30
-1.000000E+20
  9
$PLIMMIN
 10
0.0
 20
0.0
  9
$PLIMMAX
 10
12.0
 20
9.0
  9
$UNITMODE
 70
     0
  9
$VISRETAIN
 70
     0
  9
$PLINEGEN
 70
     1
  9
$PSLTSCALE
 70
     0
  9
$TREEDEPTH
 70
  3020
  9
$PICKSTYLE
 70
     1
  9
$CMLSTYLE
  2
Standard
  9
$CMLJUST
 70
     0
  9
$CMLSCALE
 40
1.0
  9
$PROXYGRAPHICS
 70
     0
  9
$MEASUREMENT
 70
     0
  0
ENDSEC
  0
SECTION
  2
CLASSES
  0
CLASS
  1
LWPOLYLINE
  2
AcDbPolyline
  3
"AutoCAD"
 90
        0
280
     0
281
     1
  0
CLASS
  1
IMAGE
  2
AcDbRasterImage
  3
ISM
 90
      127
280
     0
281
     1
  0
CLASS
  1
OLE2FRAME
  2
AcDbOle2Frame
  3
""
 90
        0
280
     0
281
     1
  0
CLASS
  1
HATCH
  2
AcDbHatch
  3
"ACAD_SEDONA"
 90
        0
280
     0
281
     1
  0
CLASS
  1
DICTIONARYVAR
  2
AcDbDictionaryVar
  3
"AutoCAD"
 90
        0
280
     0
281
     0
  0
CLASS
  1
RASTERVARIABLES
  2
AcDbRasterVariables
  3
ISM
 90
        0
280
     0
281
     0
  0
CLASS
  1
IMAGEDEF
  2
AcDbRasterImageDef
  3
ISM
 90
        0
280
     0
281
     0
  0
CLASS
  1
IMAGEDEF_REACTOR
  2
AcDbRasterImageDefReactor
  3
ISM
 90
        1
280
     0
281
     0
  0
CLASS
  1
IDBUFFER
  2
AcDbIdBuffer
  3
"Acad"
 90
        0
280
     0
281
     0
  0
CLASS
  1
SPATIAL_FILTER
  2
AcDbSpatialFilter
  3
"Acad"
 90
        0
280
     0
281
     0
  0
CLASS
  1
XRECORD
  2
AcDbXrecord
  3
"<Built In>"
 90
        0
280
     0
281
     0
  0
CLASS
  1
SORTENTSTABLE
  2
AcDbSortentsTable
  3
"AutoCAD"
 90
        0
280
     0
281
     0
  0
CLASS
  1
LAYER_INDEX
  2
AcDbLayerIndex
  3
"Acad"
 90
        0
280
     0
281
     0
  0
CLASS
  1
SPATIAL_INDEX
  2
AcDbSpatialIndex
  3
"Acad"
 90
        0
280
     0
281
     0
  0
CLASS
  1
OBJECT_PTR
  2
CAseDLPNTableRecord
  3
"ASE-LPNTableRecord"
 90
        1
280
     0
281
     0
  0
CLASS
  1
LAYOUT
  2
AcDbLayout
  3
"AutoCAD 2000"
 90
        1
280
     0
281
     0
  0
CLASS
  1
PLOTSETTINGS
  2
AcDbPlotSettings
  3
"AutoCAD 2000"
 90
        1
280
     0
281
     0
  0
CLASS
  1
ACDBDICTIONARYWDFLT
  2
AcDbDictionaryWithDefault
  3
"AutoCAD 2000"
 90
        1
280
     0
281
     0
  0
CLASS
  1
ACDBPLACEHOLDER
  2
AcDbPlaceHolder
  3
"AutoCAD 2000"
 90
        1
280
     0
281
     0
  0
CLASS
  1
VBA_PROJECT
  2
AcDbVbaProject
  3
"acadvba"
 90
        1
280
     0
281
     0
  0
CLASS
  1
WIPEOUT
  2
AcDbWipeout
  3
WipeOut|AutoCAD Express Tool|expresstools@autodesk.com
 90
      127
280
     0
281
     1
  0
CLASS
  1
WIPEOUTVARIABLES
  2
AcDbWipeoutVariables
  3
WipeOut|AutoCAD Express Tool|expresstools@autodesk.com
 90
        0
280
     0
281
     0
  0
CLASS
  1
RTEXT
  2
RText
  3
RText|AutoCAD Express Tool|expresstools@autodesk.com
 90
        0
280
     0
281
     1
  0
CLASS
  1
ARCALIGNEDTEXT
  2
AcDbArcAlignedText
  3
ATEXT|AutoCAD Express Tool|expresstools@autodesk.com
 90
        0
280
     0
281
     1
  0
ENDSEC
  0
SECTION
  2
TABLES
  0
TABLE
  2
VPORT
  5
7
100
AcDbSymbolTable
 70
     1
  0
VPORT
  5
15
100
AcDbSymbolTableRecord
100
AcDbViewportTableRecord
  2
*ACTIVE
 70
     0
 10
0.0
 20
0.0
 11
1.0
 21
1.0
 12
1697.55
 22
1510.0
 13
0.0
 23
0.0
 14
1.0
 24
1.0
 15
0.0
 25
0.0
 16
0.0
 26
0.0
 36
1.0
 17
0.0
 27
0.0
 37
0.0
 40
2750.0
 41
1.722533
 42
50.0
 43
0.0
 44
0.0
 50
0.0
 51
0.0
 71
     0
 72
   100
 73
     1
 74
     1
 75
     0
 76
     0
 77
     0
 78
     0
  0
ENDTAB
  0
TABLE
  2
LTYPE
  5
4
100
AcDbSymbolTable
 70
     9
  0
LTYPE
  5
11
100
AcDbSymbolTableRecord
100
AcDbLinetypeTableRecord
  2
BYBLOCK
 70
    64
  3

 72
    65
 73
     0
 40
0.0
  0
LTYPE
  5
12
100
AcDbSymbolTableRecord
100
AcDbLinetypeTableRecord
  2
BYLAYER
 70
    64
  3

 72
    65
 73
     0
 40
0.0
  0
LTYPE
  5
13
100
AcDbSymbolTableRecord
100
AcDbLinetypeTableRecord
  2
CONTINUOUS
 70
    64
  3
実線
 72
    65
 73
     0
 40
0.0
  0
LTYPE
  5
1D
100
AcDbSymbolTableRecord
100
AcDbLinetypeTableRecord
  2
EXLTYPE1
 70
    64
  3
破線
 72
    65
 73
     2
 40
3.0
 49
2.0
 74
     0
 49
-1.0
 74
     0
  0
LTYPE
  5
1E
100
AcDbSymbolTableRecord
100
AcDbLinetypeTableRecord
  2
EXLTYPE2
 70
    64
  3
点線
 72
    65
 73
     2
 40
2.0
 49
1.0
 74
     0
 49
-1.0
 74
     0
  0
LTYPE
  5
1F
100
AcDbSymbolTableRecord
100
AcDbLinetypeTableRecord
  2
EXLTYPE3
 70
    64
  3
一点鎖線
 72
    65
 73
     4
 40
10.0
 49
7.0
 74
     0
 49
-1.0
 74
     0
 49
1.0
 74
     0
 49
-1.0
 74
     0
  0
LTYPE
  5
20
100
AcDbSymbolTableRecord
100
AcDbLinetypeTableRecord
  2
EXLTYPE4
 70
    64
  3
二点鎖線
 72
    65
 73
     6
 40
12.0
 49
7.0
 74
     0
 49
-1.0
 74
     0
 49
1.0
 74
     0
 49
-1.0
 74
     0
 49
1.0
 74
     0
 49
-1.0
 74
     0
  0
LTYPE
  5
21
100
AcDbSymbolTableRecord
100
AcDbLinetypeTableRecord
  2
EXLTYPE5
 70
    64
  3
三点鎖線
 72
    65
 73
     8
 40
37.0
 49
30.0
 74
     0
 49
-1.0
 74
     0
 49
1.0
 74
     0
 49
-1.0
 74
     0
 49
1.0
 74
     0
 49
-1.0
 74
     0
 49
1.0
 74
     0
 49
-1.0
 74
     0
  0
LTYPE
  5
22
100
AcDbSymbolTableRecord
100
AcDbLinetypeTableRecord
  2
EXLTYPE6
 70
    64
  3
四点鎖線
 72
    65
 73
    10
 40
39.0
 49
30.0
 74
     0
 49
-1.0
 74
     0
 49
1.0
 74
     0
 49
-1.0
 74
     0
 49
1.0
 74
     0
 49
-1.0
 74
     0
 49
1.0
 74
     0
 49
-1.0
 74
     0
 49
1.0
 74
     0
 49
-1.0
 74
     0
  0
ENDTAB
  0
TABLE
  2
LAYER
  5
2
100
AcDbSymbolTable
 70
     4
  0
LAYER
  5
14
100
AcDbSymbolTableRecord
100
AcDbLayerTableRecord
  2
0
 70
     0
 62
     7
  6
CONTINUOUS
  0
LAYER
  5
25
100
AcDbSymbolTableRecord
100
AcDbLayerTableRecord
  2
枠・表
 70
    64
 62
     7
  6
CONTINUOUS
  0
LAYER
  5
26
100
AcDbSymbolTableRecord
100
AcDbLayerTableRecord
  2
図
 70
    64
 62
     7
  6
CONTINUOUS
  0
LAYER
  5
27
100
AcDbSymbolTableRecord
100
AcDbLayerTableRecord
  2
寸法
 70
    64
 62
     7
  6
CONTINUOUS
  0
ENDTAB
  0
TABLE
  2
STYLE
  5
3
100
AcDbSymbolTable
 70
     5
  0
STYLE
  5
17
100
AcDbSymbolTableRecord
100
AcDbTextStyleTableRecord
  2
STANDARD
 70
     0
 40
0.0
 41
1.0
 50
0.0
 71
     0
 42
0.0
  3
monotxt
  4
extfont
  0
STYLE
  5
23
100
AcDbSymbolTableRecord
100
AcDbTextStyleTableRecord
  2
EXCADSTD
 70
    64
 40
0.0
 41
1.0
 50
0.0
 71
     0
 42
0.2
  3
monotxt
  4
extfont
  0
STYLE
  5
24
100
AcDbSymbolTableRecord
100
AcDbTextStyleTableRecord
  2
EXCADVERT
 70
    68
 40
0.0
 41
1.0
 50
0.0
 71
     0
 42
0.286885
  3
monotxt
  4
extfont
  0
STYLE
  5
DC
100
AcDbSymbolTableRecord
100
AcDbTextStyleTableRecord
  2
EXCADTTF1
 70
    64
 40
0.0
 41
1.0
 50
0.0
 71
     0
 42
0.2
  3
MS Gothic.ttf
  4

1001
ACAD
1000
MS Gothic
1071
    32817
  0
STYLE
  5
41B
100
AcDbSymbolTableRecord
100
AcDbTextStyleTableRecord
  2
EXCADDIM1
 70
    64
 40
0.0
 41
0.84
 50
0.0
 71
     0
 42
0.2
  3
monotxt
  4
extfont
  0
ENDTAB
  0
TABLE
  2
VIEW
  5
5
100
AcDbSymbolTable
 70
     0
  0
ENDTAB
  0
TABLE
  2
UCS
  5
6
100
AcDbSymbolTable
 70
     0
  0
ENDTAB
  0
TABLE
  2
APPID
  5
8
100
AcDbSymbolTable
 70
     1
  0
APPID
  5
16
100
AcDbSymbolTableRecord
100
AcDbRegAppTableRecord
  2
ACAD
 70
     0
  0
ENDTAB
  0
TABLE
  2
DIMSTYLE
  5
9
100
AcDbSymbolTable
 70
     1
  0
DIMSTYLE
105
18
100
AcDbSymbolTableRecord
100
AcDbDimStyleTableRecord
  2
STANDARD
 70
     0
  3

  4

  5

  6

  7

 40
1.0
 41
0.18
 42
0.0625
 43
0.38
 44
0.18
 45
0.0
 46
0.0
 47
0.0
 48
0.0
 71
     0
 72
     0
 73
     1
 74
     1
 75
     0
 76
     0
 77
     0
 78
     0
140
0.18
141
0.09
142
0.0
143
25.4
144
1.0
145
0.0
146
1.0
147
0.09
170
     0
171
     2
172
     1
173
     0
174
     0
175
     0
176
     0
177
     0
178
     0
270
     2
271
     4
272
     4
273
     2
274
     2
275
     0
280
     0
281
     0
282
     0
283
     1
284
     0
285
     0
286
     0
287
     0
288
     0
340
17
  0
ENDTAB
  0
TABLE
  2
BLOCK_RECORD
  5
1
100
AcDbSymbolTable
 70
    28
  0
BLOCK_RECORD
  5
A
100
AcDbSymbolTableRecord
100
AcDbBlockTableRecord
  2
*MODEL_SPACE
  0
BLOCK_RECORD
  5
B
100
AcDbSymbolTableRecord
100
AcDbBlockTableRecord
  2
*PAPER_SPACE
  0
BLOCK_RECORD
  5
28
100
AcDbSymbolTableRecord
100
AcDbBlockTableRecord
  2
_EX_NORM
  0
BLOCK_RECORD
  5
29
100
AcDbSymbolTableRecord
100
AcDbBlockTableRecord
  2
_EX_BNORM
  0
BLOCK_RECORD
  5
2A
100
AcDbSymbolTableRecord
100
AcDbBlockTableRecord
  2
_EX_BCIR
  0
BLOCK_RECORD
  5
2B
100
AcDbSymbolTableRecord
100
AcDbBlockTableRecord
  2
_EX_RCIVIL
  0
BLOCK_RECORD
  5
2C
100
AcDbSymbolTableRecord
100
AcDbBlockTableRecord
  2
_EX_SLANT
  0
BLOCK_RECORD
  5
2D
100
AcDbSymbolTableRecord
100
AcDbBlockTableRecord
  2
_EX_NONE
  0
BLOCK_RECORD
  5
2E
100
AcDbSymbolTableRecord
100
AcDbBlockTableRecord
  2
_EX_CIVIL
  0
BLOCK_RECORD
  5
2F
100
AcDbSymbolTableRecord
100
AcDbBlockTableRecord
  2
_EX_WCIR
  0
BLOCK_RECORD
  5
30
100
AcDbSymbolTableRecord
100
AcDbBlockTableRecord
  2
_EX_WCIR2
  0
BLOCK_RECORD
  5
31
100
AcDbSymbolTableRecord
100
AcDbBlockTableRecord
  2
_EX_WNORM
  0
BLOCK_RECORD
  5
32
100
AcDbSymbolTableRecord
100
AcDbBlockTableRecord
  2
_EX_NNORM
  0
BLOCK_RECORD
  5
33
100
AcDbSymbolTableRecord
100
AcDbBlockTableRecord
  2
_EX_BBOX
  0
BLOCK_RECORD
  5
34
100
AcDbSymbolTableRecord
100
AcDbBlockTableRecord
  2
_EX_WBOX
  0
BLOCK_RECORD
  5
35
100
AcDbSymbolTableRecord
100
AcDbBlockTableRecord
  2
_EX_INTEGRAL
  0
BLOCK_RECORD
  5
410
100
AcDbSymbolTableRecord
100
AcDbBlockTableRecord
  2
*D14
  0
BLOCK_RECORD
  5
41D
100
AcDbSymbolTableRecord
100
AcDbBlockTableRecord
  2
*D15
  0
BLOCK_RECORD
  5
42D
100
AcDbSymbolTableRecord
100
AcDbBlockTableRecord
  2
*D16
  0
BLOCK_RECORD
  5
438
100
AcDbSymbolTableRecord
100
AcDbBlockTableRecord
  2
*D17
  0
BLOCK_RECORD
  5
443
100
AcDbSymbolTableRecord
100
AcDbBlockTableRecord
  2
*D18
  0
BLOCK_RECORD
  5
44F
100
AcDbSymbolTableRecord
100
AcDbBlockTableRecord
  2
*D19
  0
BLOCK_RECORD
  5
45A
100
AcDbSymbolTableRecord
100
AcDbBlockTableRecord
  2
*D20
  0
BLOCK_RECORD
  5
465
100
AcDbSymbolTableRecord
100
AcDbBlockTableRecord
  2
*D21
  0
BLOCK_RECORD
  5
471
100
AcDbSymbolTableRecord
100
AcDbBlockTableRecord
  2
*D22
  0
BLOCK_RECORD
  5
47D
100
AcDbSymbolTableRecord
100
AcDbBlockTableRecord
  2
*D23
  0
BLOCK_RECORD
  5
48D
100
AcDbSymbolTableRecord
100
AcDbBlockTableRecord
  2
*D24
  0
BLOCK_RECORD
  5
499
100
AcDbSymbolTableRecord
100
AcDbBlockTableRecord
  2
*D25
  0
BLOCK_RECORD
  5
4A5
100
AcDbSymbolTableRecord
100
AcDbBlockTableRecord
  2
*D26
  0
BLOCK_RECORD
  5
4B0
100
AcDbSymbolTableRecord
100
AcDbBlockTableRecord
  2
*D27
  0
ENDTAB
  0
ENDSEC
  0
SECTION
  2
BLOCKS
  0
BLOCK
  5
D
100
AcDbEntity
  8
0
100
AcDbBlockBegin
  2
*MODEL_SPACE
 70
     0
 10
0.0
 20
0.0
 30
0.0
  3
*MODEL_SPACE
  1

  0
ENDBLK
  5
E
100
AcDbEntity
  8
0
100
AcDbBlockEnd
  0
BLOCK
  5
F
100
AcDbEntity
 67
     1
  8
0
100
AcDbBlockBegin
  2
*PAPER_SPACE
 70
     0
 10
0.0
 20
0.0
 30
0.0
  3
*PAPER_SPACE
  1

  0
ENDBLK
  5
10
100
AcDbEntity
 67
     1
  8
0
100
AcDbBlockEnd
  0
BLOCK
  5
36
100
AcDbEntity
  8
0
100
AcDbBlockBegin
  2
_EX_NORM
 70
     0
 10
0.0
 20
0.0
 30
0.0
  3
_EX_NORM
  1

  0
LINE
  5
37
100
AcDbEntity
  8
0
  6
CONTINUOUS
 62
     0
100
AcDbLine
 10
0.0
 20
0.0
 30
0.0
 11
-1.0
 21
0.0
 31
0.0
  0
LINE
  5
38
100
AcDbEntity
  8
0
  6
CONTINUOUS
 62
     0
100
AcDbLine
 10
0.0
 20
0.0
 30
0.0
 11
-1.0
 21
0.166667
 31
0.0
  0
LINE
  5
39
100
AcDbEntity
  8
0
  6
CONTINUOUS
 62
     0
100
AcDbLine
 10
0.0
 20
0.0
 30
0.0
 11
-1.0
 21
-0.166667
 31
0.0
  0
ENDBLK
  5
3A
100
AcDbEntity
  8
0
100
AcDbBlockEnd
  0
BLOCK
  5
3B
100
AcDbEntity
  8
0
100
AcDbBlockBegin
  2
_EX_BNORM
 70
     0
 10
0.0
 20
0.0
 30
0.0
  3
_EX_BNORM
  1

  0
LINE
  5
3C
100
AcDbEntity
  8
0
  6
CONTINUOUS
 62
     0
100
AcDbLine
 10
0.0
 20
0.0
 30
0.0
 11
-1.0
 21
0.0
 31
0.0
  0
LINE
  5
3D
100
AcDbEntity
  8
0
  6
CONTINUOUS
 62
     0
100
AcDbLine
 10
0.0
 20
0.0
 30
0.0
 11
-1.0
 21
0.166667
 31
0.0
  0
LINE
  5
3E
100
AcDbEntity
  8
0
  6
CONTINUOUS
 62
     0
100
AcDbLine
 10
0.0
 20
0.0
 30
0.0
 11
-1.0
 21
-0.166667
 31
0.0
  0
LINE
  5
3F
100
AcDbEntity
  8
0
  6
CONTINUOUS
 62
     0
100
AcDbLine
 10
0.0
 20
0.0
 30
0.0
 11
-1.0
 21
0.083333
 31
0.0
  0
LINE
  5
40
100
AcDbEntity
  8
0
  6
CONTINUOUS
 62
     0
100
AcDbLine
 10
0.0
 20
0.0
 30
0.0
 11
-1.0
 21
-0.083333
 31
0.0
  0
LINE
  5
41
100
AcDbEntity
  8
0
  6
CONTINUOUS
 62
     0
100
AcDbLine
 10
-1.0
 20
0.166667
 30
0.0
 11
-1.0
 21
-0.166667
 31
0.0
  0
ENDBLK
  5
42
100
AcDbEntity
  8
0
100
AcDbBlockEnd
  0
BLOCK
  5
43
100
AcDbEntity
  8
0
100
AcDbBlockBegin
  2
_EX_BCIR
 70
     0
 10
0.0
 20
0.0
 30
0.0
  3
_EX_BCIR
  1

  0
LINE
  5
44
100
AcDbEntity
  8
0
  6
CONTINUOUS
 62
     0
100
AcDbLine
 10
0.0
 20
0.0
 30
0.0
 11
-1.0
 21
0.0
 31
0.0
  0
CIRCLE
  5
45
100
AcDbEntity
  8
0
  6
CONTINUOUS
 62
     0
100
AcDbCircle
 10
0.0
 20
0.0
 30
0.0
 40
0.5
  0
CIRCLE
  5
46
100
AcDbEntity
  8
0
  6
CONTINUOUS
 62
     0
100
AcDbCircle
 10
0.0
 20
0.0
 30
0.0
 40
0.25
  0
ENDBLK
  5
47
100
AcDbEntity
  8
0
100
AcDbBlockEnd
  0
BLOCK
  5
48
100
AcDbEntity
  8
0
100
AcDbBlockBegin
  2
_EX_RCIVIL
 70
     0
 10
0.0
 20
0.0
 30
0.0
  3
_EX_RCIVIL
  1

  0
LINE
  5
49
100
AcDbEntity
  8
0
  6
CONTINUOUS
 62
     0
100
AcDbLine
 10
0.0
 20
0.0
 30
0.0
 11
-1.0
 21
0.0
 31
0.0
  0
LINE
  5
4A
100
AcDbEntity
  8
0
  6
CONTINUOUS
 62
     0
100
AcDbLine
 10
-1.0
 20
-0.25
 30
0.0
 11
0.0
 21
-0.25
 31
0.0
  0
LINE
  5
4B
100
AcDbEntity
  8
0
  6
CONTINUOUS
 62
     0
100
AcDbLine
 10
-1.0
 20
-0.125
 30
0.0
 11
0.0
 21
-0.125
 31
0.0
  0
ENDBLK
  5
4C
100
AcDbEntity
  8
0
100
AcDbBlockEnd
  0
BLOCK
  5
4D
100
AcDbEntity
  8
0
100
AcDbBlockBegin
  2
_EX_SLANT
 70
     0
 10
0.0
 20
0.0
 30
0.0
  3
_EX_SLANT
  1

  0
LINE
  5
4E
100
AcDbEntity
  8
0
  6
CONTINUOUS
 62
     0
100
AcDbLine
 10
0.0
 20
0.0
 30
0.0
 11
-1.0
 21
0.0
 31
0.0
  0
LINE
  5
4F
100
AcDbEntity
  8
0
  6
CONTINUOUS
 62
     0
100
AcDbLine
 10
0.707107
 20
0.707107
 30
0.0
 11
-0.707107
 21
-0.707107
 31
0.0
  0
ENDBLK
  5
50
100
AcDbEntity
  8
0
100
AcDbBlockEnd
  0
BLOCK
  5
51
100
AcDbEntity
  8
0
100
AcDbBlockBegin
  2
_EX_NONE
 70
     0
 10
0.0
 20
0.0
 30
0.0
  3
_EX_NONE
  1

  0
LINE
  5
52
100
AcDbEntity
  8
0
  6
CONTINUOUS
 62
     0
100
AcDbLine
 10
0.0
 20
0.0
 30
0.0
 11
-1.0
 21
0.0
 31
0.0
  0
ENDBLK
  5
53
100
AcDbEntity
  8
0
100
AcDbBlockEnd
  0
BLOCK
  5
54
100
AcDbEntity
  8
0
100
AcDbBlockBegin
  2
_EX_CIVIL
 70
     0
 10
0.0
 20
0.0
 30
0.0
  3
_EX_CIVIL
  1

  0
LINE
  5
55
100
AcDbEntity
  8
0
  6
CONTINUOUS
 62
     0
100
AcDbLine
 10
0.0
 20
0.0
 30
0.0
 11
-1.0
 21
0.0
 31
0.0
  0
LINE
  5
56
100
AcDbEntity
  8
0
  6
CONTINUOUS
 62
     0
100
AcDbLine
 10
-1.0
 20
0.25
 30
0.0
 11
0.0
 21
0.25
 31
0.0
  0
LINE
  5
57
100
AcDbEntity
  8
0
  6
CONTINUOUS
 62
     0
100
AcDbLine
 10
-1.0
 20
0.125
 30
0.0
 11
0.0
 21
0.125
 31
0.0
  0
ENDBLK
  5
58
100
AcDbEntity
  8
0
100
AcDbBlockEnd
  0
BLOCK
  5
59
100
AcDbEntity
  8
0
100
AcDbBlockBegin
  2
_EX_WCIR
 70
     0
 10
0.0
 20
0.0
 30
0.0
  3
_EX_WCIR
  1

  0
LINE
  5
5A
100
AcDbEntity
  8
0
  6
CONTINUOUS
 62
     0
100
AcDbLine
 10
0.0
 20
0.0
 30
0.0
 11
-1.0
 21
0.0
 31
0.0
  0
CIRCLE
  5
5B
100
AcDbEntity
  8
0
  6
CONTINUOUS
 62
     0
100
AcDbCircle
 10
0.0
 20
0.0
 30
0.0
 40
0.5
  0
ENDBLK
  5
5C
100
AcDbEntity
  8
0
100
AcDbBlockEnd
  0
BLOCK
  5
5D
100
AcDbEntity
  8
0
100
AcDbBlockBegin
  2
_EX_WCIR2
 70
     0
 10
0.0
 20
0.0
 30
0.0
  3
_EX_WCIR2
  1

  0
LINE
  5
5E
100
AcDbEntity
  8
0
  6
CONTINUOUS
 62
     0
100
AcDbLine
 10
-0.5
 20
0.0
 30
0.0
 11
-1.0
 21
0.0
 31
0.0
  0
CIRCLE
  5
5F
100
AcDbEntity
  8
0
  6
CONTINUOUS
 62
     0
100
AcDbCircle
 10
0.0
 20
0.0
 30
0.0
 40
0.5
  0
ENDBLK
  5
60
100
AcDbEntity
  8
0
100
AcDbBlockEnd
  0
BLOCK
  5
61
100
AcDbEntity
  8
0
100
AcDbBlockBegin
  2
_EX_WNORM
 70
     0
 10
0.0
 20
0.0
 30
0.0
  3
_EX_WNORM
  1

  0
LINE
  5
62
100
AcDbEntity
  8
0
  6
CONTINUOUS
 62
     0
100
AcDbLine
 10
-1.0
 20
0.0
 30
0.0
 11
-1.0
 21
0.0
 31
0.0
  0
LINE
  5
63
100
AcDbEntity
  8
0
  6
CONTINUOUS
 62
     0
100
AcDbLine
 10
0.0
 20
0.0
 30
0.0
 11
-1.0
 21
0.166667
 31
0.0
  0
LINE
  5
64
100
AcDbEntity
  8
0
  6
CONTINUOUS
 62
     0
100
AcDbLine
 10
0.0
 20
0.0
 30
0.0
 11
-1.0
 21
-0.166667
 31
0.0
  0
LINE
  5
65
100
AcDbEntity
  8
0
  6
CONTINUOUS
 62
     0
100
AcDbLine
 10
-1.0
 20
0.166667
 30
0.0
 11
-1.0
 21
-0.166667
 31
0.0
  0
ENDBLK
  5
66
100
AcDbEntity
  8
0
100
AcDbBlockEnd
  0
BLOCK
  5
67
100
AcDbEntity
  8
0
100
AcDbBlockBegin
  2
_EX_NNORM
 70
     0
 10
0.0
 20
0.0
 30
0.0
  3
_EX_NNORM
  1

  0
LINE
  5
68
100
AcDbEntity
  8
0
  6
CONTINUOUS
 62
     0
100
AcDbLine
 10
0.0
 20
0.0
 30
0.0
 11
-1.0
 21
0.0
 31
0.0
  0
LINE
  5
69
100
AcDbEntity
  8
0
  6
CONTINUOUS
 62
     0
100
AcDbLine
 10
0.0
 20
0.0
 30
0.0
 11
-1.0
 21
0.166667
 31
0.0
  0
LINE
  5
6A
100
AcDbEntity
  8
0
  6
CONTINUOUS
 62
     0
100
AcDbLine
 10
0.0
 20
0.0
 30
0.0
 11
-1.0
 21
-0.166667
 31
0.0
  0
LINE
  5
6B
100
AcDbEntity
  8
0
  6
CONTINUOUS
 62
     0
100
AcDbLine
 10
-1.0
 20
0.166667
 30
0.0
 11
-1.0
 21
-0.166667
 31
0.0
  0
ENDBLK
  5
6C
100
AcDbEntity
  8
0
100
AcDbBlockEnd
  0
BLOCK
  5
6D
100
AcDbEntity
  8
0
100
AcDbBlockBegin
  2
_EX_BBOX
 70
     0
 10
0.0
 20
0.0
 30
0.0
  3
_EX_BBOX
  1

  0
LINE
  5
6E
100
AcDbEntity
  8
0
  6
CONTINUOUS
 62
     0
100
AcDbLine
 10
0.0
 20
0.0
 30
0.0
 11
-1.0
 21
0.0
 31
0.0
  0
LINE
  5
6F
100
AcDbEntity
  8
0
  6
CONTINUOUS
 62
     0
100
AcDbLine
 10
-0.5
 20
0.5
 30
0.0
 11
0.5
 21
0.5
 31
0.0
  0
LINE
  5
70
100
AcDbEntity
  8
0
  6
CONTINUOUS
 62
     0
100
AcDbLine
 10
0.5
 20
0.5
 30
0.0
 11
0.5
 21
-0.5
 31
0.0
  0
LINE
  5
71
100
AcDbEntity
  8
0
  6
CONTINUOUS
 62
     0
100
AcDbLine
 10
0.5
 20
-0.5
 30
0.0
 11
-0.5
 21
-0.5
 31
0.0
  0
LINE
  5
72
100
AcDbEntity
  8
0
  6
CONTINUOUS
 62
     0
100
AcDbLine
 10
-0.5
 20
-0.5
 30
0.0
 11
-0.5
 21
0.5
 31
0.0
  0
LINE
  5
73
100
AcDbEntity
  8
0
  6
CONTINUOUS
 62
     0
100
AcDbLine
 10
-0.25
 20
0.25
 30
0.0
 11
0.25
 21
0.25
 31
0.0
  0
LINE
  5
74
100
AcDbEntity
  8
0
  6
CONTINUOUS
 62
     0
100
AcDbLine
 10
0.25
 20
0.25
 30
0.0
 11
0.25
 21
-0.25
 31
0.0
  0
LINE
  5
75
100
AcDbEntity
  8
0
  6
CONTINUOUS
 62
     0
100
AcDbLine
 10
0.25
 20
-0.25
 30
0.0
 11
-0.25
 21
-0.25
 31
0.0
  0
LINE
  5
76
100
AcDbEntity
  8
0
  6
CONTINUOUS
 62
     0
100
AcDbLine
 10
-0.25
 20
-0.25
 30
0.0
 11
-0.25
 21
0.25
 31
0.0
  0
ENDBLK
  5
77
100
AcDbEntity
  8
0
100
AcDbBlockEnd
  0
BLOCK
  5
78
100
AcDbEntity
  8
0
100
AcDbBlockBegin
  2
_EX_WBOX
 70
     0
 10
0.0
 20
0.0
 30
0.0
  3
_EX_WBOX
  1

  0
LINE
  5
79
100
AcDbEntity
  8
0
  6
CONTINUOUS
 62
     0
100
AcDbLine
 10
-0.5
 20
0.0
 30
0.0
 11
-1.0
 21
0.0
 31
0.0
  0
LINE
  5
7A
100
AcDbEntity
  8
0
  6
CONTINUOUS
 62
     0
100
AcDbLine
 10
-0.5
 20
0.5
 30
0.0
 11
0.5
 21
0.5
 31
0.0
  0
LINE
  5
7B
100
AcDbEntity
  8
0
  6
CONTINUOUS
 62
     0
100
AcDbLine
 10
0.5
 20
0.5
 30
0.0
 11
0.5
 21
-0.5
 31
0.0
  0
LINE
  5
7C
100
AcDbEntity
  8
0
  6
CONTINUOUS
 62
     0
100
AcDbLine
 10
0.5
 20
-0.5
 30
0.0
 11
-0.5
 21
-0.5
 31
0.0
  0
LINE
  5
7D
100
AcDbEntity
  8
0
  6
CONTINUOUS
 62
     0
100
AcDbLine
 10
-0.5
 20
-0.5
 30
0.0
 11
-0.5
 21
0.5
 31
0.0
  0
ENDBLK
  5
7E
100
AcDbEntity
  8
0
100
AcDbBlockEnd
  0
BLOCK
  5
7F
100
AcDbEntity
  8
0
100
AcDbBlockBegin
  2
_EX_INTEGRAL
 70
     0
 10
0.0
 20
0.0
 30
0.0
  3
_EX_INTEGRAL
  1

  0
LINE
  5
80
100
AcDbEntity
  8
0
  6
CONTINUOUS
 62
     0
100
AcDbLine
 10
0.0
 20
0.0
 30
0.0
 11
-1.0
 21
0.0
 31
0.0
  0
ARC
  5
81
100
AcDbEntity
  8
0
  6
CONTINUOUS
 62
     0
100
AcDbCircle
 10
0.542115
 20
0.164992
 30
0.0
 40
0.56667
100
AcDbArc
 50
73.07249
 51
196.927513
  0
ARC
  5
82
100
AcDbEntity
  8
0
  6
CONTINUOUS
 62
     0
100
AcDbCircle
 10
-0.542115
 20
-0.164992
 30
0.0
 40
0.56667
100
AcDbArc
 50
253.072487
 51
16.927513
  0
ENDBLK
  5
83
100
AcDbEntity
  8
0
100
AcDbBlockEnd
  0
BLOCK
  5
411
100
AcDbEntity
  8
0
100
AcDbBlockBegin
  2
*D14
 70
    65
 10
0.0
 20
0.0
 30
0.0
  3
*D14
  1

  0
LINE
  5
412
100
AcDbEntity
  8
寸法
  6
CONTINUOUS
 62
     3
100
AcDbLine
 10
667.0
 20
823.0
 30
0.0
 11
667.0
 21
600.0
 31
0.0
  0
LINE
  5
413
100
AcDbEntity
  8
寸法
  6
CONTINUOUS
 62
     3
100
AcDbLine
 10
792.0
 20
816.0
 30
0.0
 11
792.0
 21
600.0
 31
0.0
  0
TEXT
  5
414
100
AcDbEntity
  8
寸法
  6
CONTINUOUS
 62
     2
100
AcDbText
 10
324.2
 20
613.5
 30
0.0
 40
40.0
  1
125±10（床給水）
 41
0.84
  7
EXCADSTD
 72
     1
 11
467.0
 21
613.5
 31
0.0
100
AcDbText
  0
LINE
  5
415
100
AcDbEntity
  8
寸法
  6
CONTINUOUS
 62
     3
100
AcDbLine
 10
293.500015
 20
610.0
 30
0.0
 11
822.0
 21
610.0
 31
0.0
  0
LINE
  5
416
100
AcDbEntity
  8
寸法
  6
CONTINUOUS
 62
     3
100
AcDbLine
 10
637.0
 20
605.0
 30
0.0
 11
667.0
 21
610.0
 31
0.0
  0
LINE
  5
417
100
AcDbEntity
  8
寸法
  6
CONTINUOUS
 62
     3
100
AcDbLine
 10
667.0
 20
610.0
 30
0.0
 11
637.0
 21
615.0
 31
0.0
  0
LINE
  5
418
100
AcDbEntity
  8
寸法
  6
CONTINUOUS
 62
     3
100
AcDbLine
 10
822.0
 20
615.0
 30
0.0
 11
792.0
 21
610.0
 31
0.0
  0
LINE
  5
419
100
AcDbEntity
  8
寸法
  6
CONTINUOUS
 62
     3
100
AcDbLine
 10
792.0
 20
610.0
 30
0.0
 11
822.0
 21
605.0
 31
0.0
  0
ENDBLK
  5
41A
100
AcDbEntity
  8
0
100
AcDbBlockEnd
  0
BLOCK
  5
41E
100
AcDbEntity
  8
0
100
AcDbBlockBegin
  2
*D15
 70
    65
 10
0.0
 20
0.0
 30
0.0
  3
*D15
  1

  0
LINE
  5
41F
100
AcDbEntity
  8
寸法
  6
CONTINUOUS
 62
     3
100
AcDbLine
 10
667.0
 20
823.0
 30
0.0
 11
667.0
 21
670.0
 31
0.0
  0
LINE
  5
420
100
AcDbEntity
  8
寸法
  6
CONTINUOUS
 62
     3
100
AcDbLine
 10
697.0
 20
793.0
 30
0.0
 11
697.0
 21
670.0
 31
0.0
  0
TEXT
  5
421
100
AcDbEntity
  8
寸法
  6
CONTINUOUS
 62
     2
100
AcDbText
 10
351.8
 20
683.5
 30
0.0
 40
40.0
  1
30±10（床排水）
 41
0.84
  7
EXCADSTD
 72
     1
 11
482.0
 21
683.5
 31
0.0
100
AcDbText
  0
LINE
  5
422
100
AcDbEntity
  8
寸法
  6
CONTINUOUS
 62
     3
100
AcDbLine
 10
323.500015
 20
680.0
 30
0.0
 11
727.0
 21
680.0
 31
0.0
  0
LINE
  5
423
100
AcDbEntity
  8
寸法
  6
CONTINUOUS
 62
     3
100
AcDbLine
 10
637.0
 20
675.0
 30
0.0
 11
667.0
 21
680.0
 31
0.0
  0
LINE
  5
424
100
AcDbEntity
  8
寸法
  6
CONTINUOUS
 62
     3
100
AcDbLine
 10
667.0
 20
680.0
 30
0.0
 11
637.0
 21
685.0
 31
0.0
  0
LINE
  5
425
100
AcDbEntity
  8
寸法
  6
CONTINUOUS
 62
     3
100
AcDbLine
 10
727.0
 20
685.0
 30
0.0
 11
697.0
 21
680.0
 31
0.0
  0
LINE
  5
426
100
AcDbEntity
  8
寸法
  6
CONTINUOUS
 62
     3
100
AcDbLine
 10
697.0
 20
680.0
 30
0.0
 11
727.0
 21
675.0
 31
0.0
  0
ENDBLK
  5
427
100
AcDbEntity
  8
0
100
AcDbBlockEnd
  0
BLOCK
  5
42E
100
AcDbEntity
  8
0
100
AcDbBlockBegin
  2
*D16
 70
    65
 10
0.0
 20
0.0
 30
0.0
  3
*D16
  1

  0
LINE
  5
42F
100
AcDbEntity
  8
寸法
  6
CONTINUOUS
 62
     3
100
AcDbLine
 10
845.0
 20
1610.5
 30
0.0
 11
1005.0
 21
1610.5
 31
0.0
  0
TEXT
  5
430
100
AcDbEntity
  8
寸法
  6
CONTINUOUS
 62
     2
100
AcDbText
 10
991.5
 20
1178.25
 30
0.0
 40
40.0
  1
780
 50
90.0
 41
0.84
  7
EXCADSTD
 72
     1
 11
991.5
 21
1220.25
 31
0.0
100
AcDbText
  0
LINE
  5
431
100
AcDbEntity
  8
寸法
  6
CONTINUOUS
 62
     3
100
AcDbLine
 10
995.0
 20
830.0
 30
0.0
 11
995.0
 21
1610.5
 31
0.0
  0
LINE
  5
432
100
AcDbEntity
  8
寸法
  6
CONTINUOUS
 62
     3
100
AcDbLine
 10
990.0
 20
860.0
 30
0.0
 11
995.0
 21
830.0
 31
0.0
  0
LINE
  5
433
100
AcDbEntity
  8
寸法
  6
CONTINUOUS
 62
     3
100
AcDbLine
 10
995.0
 20
830.0
 30
0.0
 11
1000.0
 21
860.0
 31
0.0
  0
LINE
  5
434
100
AcDbEntity
  8
寸法
  6
CONTINUOUS
 62
     3
100
AcDbLine
 10
1000.0
 20
1580.5
 30
0.0
 11
995.0
 21
1610.5
 31
0.0
  0
LINE
  5
435
100
AcDbEntity
  8
寸法
  6
CONTINUOUS
 62
     3
100
AcDbLine
 10
995.0
 20
1610.5
 30
0.0
 11
990.0
 21
1580.5
 31
0.0
  0
ENDBLK
  5
436
100
AcDbEntity
  8
0
100
AcDbBlockEnd
  0
BLOCK
  5
439
100
AcDbEntity
  8
0
100
AcDbBlockBegin
  2
*D17
 70
    65
 10
0.0
 20
0.0
 30
0.0
  3
*D17
  1

  0
LINE
  5
43A
100
AcDbEntity
  8
寸法
  6
CONTINUOUS
 62
     3
100
AcDbLine
 10
843.592719
 20
1670.5
 30
0.0
 11
1075.0
 21
1670.5
 31
0.0
  0
TEXT
  5
43B
100
AcDbEntity
  8
寸法
  6
CONTINUOUS
 62
     2
100
AcDbText
 10
1061.5
 20
1208.25
 30
0.0
 40
40.0
  1
840
 50
90.0
 41
0.84
  7
EXCADSTD
 72
     1
 11
1061.5
 21
1250.25
 31
0.0
100
AcDbText
  0
LINE
  5
43C
100
AcDbEntity
  8
寸法
  6
CONTINUOUS
 62
     3
100
AcDbLine
 10
1065.0
 20
830.0
 30
0.0
 11
1065.0
 21
1670.5
 31
0.0
  0
LINE
  5
43D
100
AcDbEntity
  8
寸法
  6
CONTINUOUS
 62
     3
100
AcDbLine
 10
1060.0
 20
860.0
 30
0.0
 11
1065.0
 21
830.0
 31
0.0
  0
LINE
  5
43E
100
AcDbEntity
  8
寸法
  6
CONTINUOUS
 62
     3
100
AcDbLine
 10
1065.0
 20
830.0
 30
0.0
 11
1070.0
 21
860.0
 31
0.0
  0
LINE
  5
43F
100
AcDbEntity
  8
寸法
  6
CONTINUOUS
 62
     3
100
AcDbLine
 10
1070.0
 20
1640.5
 30
0.0
 11
1065.0
 21
1670.5
 31
0.0
  0
LINE
  5
440
100
AcDbEntity
  8
寸法
  6
CONTINUOUS
 62
     3
100
AcDbLine
 10
1065.0
 20
1670.5
 30
0.0
 11
1060.0
 21
1640.5
 31
0.0
  0
ENDBLK
  5
441
100
AcDbEntity
  8
0
100
AcDbBlockEnd
  0
BLOCK
  5
444
100
AcDbEntity
  8
0
100
AcDbBlockBegin
  2
*D18
 70
    65
 10
0.0
 20
0.0
 30
0.0
  3
*D18
  1

  0
LINE
  5
445
100
AcDbEntity
  8
寸法
  6
CONTINUOUS
 62
     3
100
AcDbLine
 10
839.0
 20
1490.5
 30
0.0
 11
935.0
 21
1490.5
 31
0.0
  0
LINE
  5
446
100
AcDbEntity
  8
寸法
  6
CONTINUOUS
 62
     3
100
AcDbLine
 10
845.0
 20
1610.5
 30
0.0
 11
935.0
 21
1610.5
 31
0.0
  0
TEXT
  5
447
100
AcDbEntity
  8
寸法
  6
CONTINUOUS
 62
     2
100
AcDbText
 10
921.5
 20
1508.5
 30
0.0
 40
40.0
  1
120
 50
90.0
 41
0.84
  7
EXCADSTD
 72
     1
 11
921.5
 21
1550.5
 31
0.0
100
AcDbText
  0
LINE
  5
448
100
AcDbEntity
  8
寸法
  6
CONTINUOUS
 62
     3
100
AcDbLine
 10
925.0
 20
1490.5
 30
0.0
 11
925.0
 21
1610.5
 31
0.0
  0
LINE
  5
449
100
AcDbEntity
  8
寸法
  6
CONTINUOUS
 62
     3
100
AcDbLine
 10
920.0
 20
1520.5
 30
0.0
 11
925.0
 21
1490.5
 31
0.0
  0
LINE
  5
44A
100
AcDbEntity
  8
寸法
  6
CONTINUOUS
 62
     3
100
AcDbLine
 10
925.0
 20
1490.5
 30
0.0
 11
930.0
 21
1520.5
 31
0.0
  0
LINE
  5
44B
100
AcDbEntity
  8
寸法
  6
CONTINUOUS
 62
     3
100
AcDbLine
 10
930.0
 20
1580.5
 30
0.0
 11
925.0
 21
1610.5
 31
0.0
  0
LINE
  5
44C
100
AcDbEntity
  8
寸法
  6
CONTINUOUS
 62
     3
100
AcDbLine
 10
925.0
 20
1610.5
 30
0.0
 11
920.0
 21
1580.5
 31
0.0
  0
ENDBLK
  5
44D
100
AcDbEntity
  8
0
100
AcDbBlockEnd
  0
BLOCK
  5
450
100
AcDbEntity
  8
0
100
AcDbBlockBegin
  2
*D19
 70
    65
 10
0.0
 20
0.0
 30
0.0
  3
*D19
  1

  0
LINE
  5
451
100
AcDbEntity
  8
寸法
  6
CONTINUOUS
 62
     3
100
AcDbLine
 10
687.0
 20
1353.0
 30
0.0
 11
687.0
 21
1158.0
 31
0.0
  0
TEXT
  5
452
100
AcDbEntity
  8
寸法
  6
CONTINUOUS
 62
     2
100
AcDbText
 10
351.8
 20
1171.5
 30
0.0
 40
40.0
  1
20±10（壁排水）
 41
0.84
  7
EXCADSTD
 72
     1
 11
482.0
 21
1171.5
 31
0.0
100
AcDbText
  0
LINE
  5
453
100
AcDbEntity
  8
寸法
  6
CONTINUOUS
 62
     3
100
AcDbLine
 10
323.500015
 20
1168.0
 30
0.0
 11
717.0
 21
1168.0
 31
0.0
  0
LINE
  5
454
100
AcDbEntity
  8
寸法
  6
CONTINUOUS
 62
     3
100
AcDbLine
 10
637.0
 20
1163.0
 30
0.0
 11
667.0
 21
1168.0
 31
0.0
  0
LINE
  5
455
100
AcDbEntity
  8
寸法
  6
CONTINUOUS
 62
     3
100
AcDbLine
 10
667.0
 20
1168.0
 30
0.0
 11
637.0
 21
1173.0
 31
0.0
  0
LINE
  5
456
100
AcDbEntity
  8
寸法
  6
CONTINUOUS
 62
     3
100
AcDbLine
 10
717.0
 20
1173.0
 30
0.0
 11
687.0
 21
1168.0
 31
0.0
  0
LINE
  5
457
100
AcDbEntity
  8
寸法
  6
CONTINUOUS
 62
     3
100
AcDbLine
 10
687.0
 20
1168.0
 30
0.0
 11
717.0
 21
1163.0
 31
0.0
  0
ENDBLK
  5
458
100
AcDbEntity
  8
0
100
AcDbBlockEnd
  0
BLOCK
  5
45B
100
AcDbEntity
  8
0
100
AcDbBlockBegin
  2
*D20
 70
    65
 10
0.0
 20
0.0
 30
0.0
  3
*D20
  1

  0
LINE
  5
45C
100
AcDbEntity
  8
寸法
  6
CONTINUOUS
 62
     3
100
AcDbLine
 10
792.0
 20
1250.5
 30
0.0
 11
792.0
 21
1088.0
 31
0.0
  0
TEXT
  5
45D
100
AcDbEntity
  8
寸法
  6
CONTINUOUS
 62
     2
100
AcDbText
 10
324.2
 20
1101.5
 30
0.0
 40
40.0
  1
125±10（壁給水）
 41
0.84
  7
EXCADSTD
 72
     1
 11
467.0
 21
1101.5
 31
0.0
100
AcDbText
  0
LINE
  5
45E
100
AcDbEntity
  8
寸法
  6
CONTINUOUS
 62
     3
100
AcDbLine
 10
293.500015
 20
1098.0
 30
0.0
 11
822.0
 21
1098.0
 31
0.0
  0
LINE
  5
45F
100
AcDbEntity
  8
寸法
  6
CONTINUOUS
 62
     3
100
AcDbLine
 10
637.0
 20
1093.0
 30
0.0
 11
667.0
 21
1098.0
 31
0.0
  0
LINE
  5
460
100
AcDbEntity
  8
寸法
  6
CONTINUOUS
 62
     3
100
AcDbLine
 10
667.0
 20
1098.0
 30
0.0
 11
637.0
 21
1103.0
 31
0.0
  0
LINE
  5
461
100
AcDbEntity
  8
寸法
  6
CONTINUOUS
 62
     3
100
AcDbLine
 10
822.0
 20
1103.0
 30
0.0
 11
792.0
 21
1098.0
 31
0.0
  0
LINE
  5
462
100
AcDbEntity
  8
寸法
  6
CONTINUOUS
 62
     3
100
AcDbLine
 10
792.0
 20
1098.0
 30
0.0
 11
822.0
 21
1093.0
 31
0.0
  0
ENDBLK
  5
463
100
AcDbEntity
  8
0
100
AcDbBlockEnd
  0
BLOCK
  5
466
100
AcDbEntity
  8
0
100
AcDbBlockBegin
  2
*D21
 70
    65
 10
0.0
 20
0.0
 30
0.0
  3
*D21
  1

  0
LINE
  5
467
100
AcDbEntity
  8
寸法
  6
CONTINUOUS
 62
     3
100
AcDbLine
 10
1529.99999
 20
793.0
 30
0.0
 11
1529.99999
 21
740.0
 31
0.0
  0
LINE
  5
468
100
AcDbEntity
  8
寸法
  6
CONTINUOUS
 62
     3
100
AcDbLine
 10
1589.99999
 20
823.0
 30
0.0
 11
1589.99999
 21
740.0
 31
0.0
  0
TEXT
  5
469
100
AcDbEntity
  8
寸法
  6
CONTINUOUS
 62
     2
100
AcDbText
 10
1647.19999
 20
753.5
 30
0.0
 40
40.0
  1
60±10（床給排水）
 41
0.84
  7
EXCADSTD
 72
     1
 11
1789.99999
 21
753.5
 31
0.0
100
AcDbText
  0
LINE
  5
46A
100
AcDbEntity
  8
寸法
  6
CONTINUOUS
 62
     3
100
AcDbLine
 10
1499.99999
 20
750.0
 30
0.0
 11
1963.499975
 21
750.0
 31
0.0
  0
LINE
  5
46B
100
AcDbEntity
  8
寸法
  6
CONTINUOUS
 62
     3
100
AcDbLine
 10
1499.99999
 20
745.0
 30
0.0
 11
1529.99999
 21
750.0
 31
0.0
  0
LINE
  5
46C
100
AcDbEntity
  8
寸法
  6
CONTINUOUS
 62
     3
100
AcDbLine
 10
1529.99999
 20
750.0
 30
0.0
 11
1499.99999
 21
755.0
 31
0.0
  0
LINE
  5
46D
100
AcDbEntity
  8
寸法
  6
CONTINUOUS
 62
     3
100
AcDbLine
 10
1619.99999
 20
755.0
 30
0.0
 11
1589.99999
 21
750.0
 31
0.0
  0
LINE
  5
46E
100
AcDbEntity
  8
寸法
  6
CONTINUOUS
 62
     3
100
AcDbLine
 10
1589.99999
 20
750.0
 30
0.0
 11
1619.99999
 21
745.0
 31
0.0
  0
ENDBLK
  5
46F
100
AcDbEntity
  8
0
100
AcDbBlockEnd
  0
BLOCK
  5
472
100
AcDbEntity
  8
0
100
AcDbBlockBegin
  2
*D22
 70
    65
 10
0.0
 20
0.0
 30
0.0
  3
*D22
  1

  0
LINE
  5
473
100
AcDbEntity
  8
寸法
  6
CONTINUOUS
 62
     3
100
AcDbLine
 10
1596.99999
 20
830.0
 30
0.0
 11
1749.99999
 21
830.0
 31
0.0
  0
LINE
  5
474
100
AcDbEntity
  8
寸法
  6
CONTINUOUS
 62
     3
100
AcDbLine
 10
1626.99999
 20
1360.0
 30
0.0
 11
1749.99999
 21
1360.0
 31
0.0
  0
TEXT
  5
475
100
AcDbEntity
  8
寸法
  6
CONTINUOUS
 62
     2
100
AcDbText
 10
1736.49999
 20
952.2
 30
0.0
 40
40.0
  1
530±10（壁排水）
 50
90.0
 41
0.84
  7
EXCADSTD
 72
     1
 11
1736.49999
 21
1095.0
 31
0.0
100
AcDbText
  0
LINE
  5
476
100
AcDbEntity
  8
寸法
  6
CONTINUOUS
 62
     3
100
AcDbLine
 10
1739.99999
 20
830.0
 30
0.0
 11
1739.99999
 21
1360.0
 31
0.0
  0
LINE
  5
477
100
AcDbEntity
  8
寸法
  6
CONTINUOUS
 62
     3
100
AcDbLine
 10
1734.99999
 20
860.0
 30
0.0
 11
1739.99999
 21
830.0
 31
0.0
  0
LINE
  5
478
100
AcDbEntity
  8
寸法
  6
CONTINUOUS
 62
     3
100
AcDbLine
 10
1739.99999
 20
830.0
 30
0.0
 11
1744.99999
 21
860.0
 31
0.0
  0
LINE
  5
479
100
AcDbEntity
  8
寸法
  6
CONTINUOUS
 62
     3
100
AcDbLine
 10
1744.99999
 20
1330.0
 30
0.0
 11
1739.99999
 21
1360.0
 31
0.0
  0
LINE
  5
47A
100
AcDbEntity
  8
寸法
  6
CONTINUOUS
 62
     3
100
AcDbLine
 10
1739.99999
 20
1360.0
 30
0.0
 11
1734.99999
 21
1330.0
 31
0.0
  0
ENDBLK
  5
47B
100
AcDbEntity
  8
0
100
AcDbBlockEnd
  0
BLOCK
  5
47E
100
AcDbEntity
  8
0
100
AcDbBlockBegin
  2
*D23
 70
    65
 10
0.0
 20
0.0
 30
0.0
  3
*D23
  1

  0
LINE
  5
47F
100
AcDbEntity
  8
寸法
  6
CONTINUOUS
 62
     3
100
AcDbLine
 10
1596.99999
 20
830.0
 30
0.0
 11
1819.99999
 21
830.0
 31
0.0
  0
LINE
  5
480
100
AcDbEntity
  8
寸法
  6
CONTINUOUS
 62
     3
100
AcDbLine
 10
1638.25182
 20
1645.5
 30
0.0
 11
1819.99999
 21
1645.5
 31
0.0
  0
TEXT
  5
481
100
AcDbEntity
  8
寸法
  6
CONTINUOUS
 62
     2
100
AcDbText
 10
1806.49999
 20
1132.75
 30
0.0
 40
40.0
  1
815（壁固定）
 50
90.0
 41
0.84
  7
EXCADSTD
 72
     1
 11
1806.49999
 21
1237.75
 31
0.0
100
AcDbText
  0
LINE
  5
482
100
AcDbEntity
  8
寸法
  6
CONTINUOUS
 62
     3
100
AcDbLine
 10
1809.99999
 20
830.0
 30
0.0
 11
1809.99999
 21
1645.5
 31
0.0
  0
LINE
  5
483
100
AcDbEntity
  8
寸法
  6
CONTINUOUS
 62
     3
100
AcDbLine
 10
1804.99999
 20
860.0
 30
0.0
 11
1809.99999
 21
830.0
 31
0.0
  0
LINE
  5
484
100
AcDbEntity
  8
寸法
  6
CONTINUOUS
 62
     3
100
AcDbLine
 10
1809.99999
 20
830.0
 30
0.0
 11
1814.99999
 21
860.0
 31
0.0
  0
LINE
  5
485
100
AcDbEntity
  8
寸法
  6
CONTINUOUS
 62
     3
100
AcDbLine
 10
1814.99999
 20
1615.5
 30
0.0
 11
1809.99999
 21
1645.5
 31
0.0
  0
LINE
  5
486
100
AcDbEntity
  8
寸法
  6
CONTINUOUS
 62
     3
100
AcDbLine
 10
1809.99999
 20
1645.5
 30
0.0
 11
1804.99999
 21
1615.5
 31
0.0
  0
ENDBLK
  5
487
100
AcDbEntity
  8
0
100
AcDbBlockEnd
  0
BLOCK
  5
48E
100
AcDbEntity
  8
0
100
AcDbBlockBegin
  2
*D24
 70
    65
 10
0.0
 20
0.0
 30
0.0
  3
*D24
  1

  0
LINE
  5
48F
100
AcDbEntity
  8
寸法
  6
CONTINUOUS
 62
     3
100
AcDbLine
 10
1390.109305
 20
1610.571254
 30
0.0
 11
1390.109305
 21
1760.5
 31
0.0
  0
LINE
  5
490
100
AcDbEntity
  8
寸法
  6
CONTINUOUS
 62
     3
100
AcDbLine
 10
1589.99999
 20
1675.5
 30
0.0
 11
1589.99999
 21
1760.5
 31
0.0
  0
TEXT
  5
491
100
AcDbEntity
  8
寸法
  6
CONTINUOUS
 62
     2
100
AcDbText
 10
1448.054647
 20
1754.0
 30
0.0
 40
40.0
  1
200
 41
0.84
  7
EXCADSTD
 72
     1
 11
1490.054647
 21
1754.0
 31
0.0
100
AcDbText
  0
LINE
  5
492
100
AcDbEntity
  8
寸法
  6
CONTINUOUS
 62
     3
100
AcDbLine
 10
1390.109305
 20
1750.5
 30
0.0
 11
1589.99999
 21
1750.5
 31
0.0
  0
LINE
  5
493
100
AcDbEntity
  8
寸法
  6
CONTINUOUS
 62
     3
100
AcDbLine
 10
1420.109305
 20
1755.5
 30
0.0
 11
1390.109305
 21
1750.5
 31
0.0
  0
LINE
  5
494
100
AcDbEntity
  8
寸法
  6
CONTINUOUS
 62
     3
100
AcDbLine
 10
1390.109305
 20
1750.5
 30
0.0
 11
1420.109305
 21
1745.5
 31
0.0
  0
LINE
  5
495
100
AcDbEntity
  8
寸法
  6
CONTINUOUS
 62
     3
100
AcDbLine
 10
1559.99999
 20
1745.5
 30
0.0
 11
1589.99999
 21
1750.5
 31
0.0
  0
LINE
  5
496
100
AcDbEntity
  8
寸法
  6
CONTINUOUS
 62
     3
100
AcDbLine
 10
1589.99999
 20
1750.5
 30
0.0
 11
1559.99999
 21
1755.5
 31
0.0
  0
ENDBLK
  5
497
100
AcDbEntity
  8
0
100
AcDbBlockEnd
  0
BLOCK
  5
49A
100
AcDbEntity
  8
0
100
AcDbBlockBegin
  2
*D25
 70
    65
 10
0.0
 20
0.0
 30
0.0
  3
*D25
  1

  0
LINE
  5
49B
100
AcDbEntity
  8
寸法
  6
CONTINUOUS
 62
     3
100
AcDbLine
 10
489.5011
 20
1613.593793
 30
0.0
 11
489.5011
 21
1760.5
 31
0.0
  0
LINE
  5
49C
100
AcDbEntity
  8
寸法
  6
CONTINUOUS
 62
     3
100
AcDbLine
 10
844.491647
 20
1613.903037
 30
0.0
 11
844.491647
 21
1760.5
 31
0.0
  0
LINE
  5
49D
100
AcDbEntity
  8
寸法
  6
CONTINUOUS
 62
     3
100
AcDbLine
 10
489.5011
 20
1750.5
 30
0.0
 11
844.491647
 21
1750.5
 31
0.0
  0
LINE
  5
49E
100
AcDbEntity
  8
寸法
  6
CONTINUOUS
 62
     3
100
AcDbLine
 10
519.5011
 20
1755.5
 30
0.0
 11
489.5011
 21
1750.5
 31
0.0
  0
LINE
  5
49F
100
AcDbEntity
  8
寸法
  6
CONTINUOUS
 62
     3
100
AcDbLine
 10
489.5011
 20
1750.5
 30
0.0
 11
519.5011
 21
1745.5
 31
0.0
  0
LINE
  5
4A0
100
AcDbEntity
  8
寸法
  6
CONTINUOUS
 62
     3
100
AcDbLine
 10
814.491647
 20
1745.5
 30
0.0
 11
844.491647
 21
1750.5
 31
0.0
  0
LINE
  5
4A1
100
AcDbEntity
  8
寸法
  6
CONTINUOUS
 62
     3
100
AcDbLine
 10
844.491647
 20
1750.5
 30
0.0
 11
814.491647
 21
1755.5
 31
0.0
  0
TEXT
  5
4A2
100
AcDbEntity
  8
寸法
  6
CONTINUOUS
 62
     2
100
AcDbText
 10
624.996373
 20
1754.0
 30
0.0
 40
40.0
  1
355
 41
0.84
  7
EXCADSTD
 72
     1
 11
666.996373
 21
1754.0
 31
0.0
100
AcDbText
  0
ENDBLK
  5
4A3
100
AcDbEntity
  8
0
100
AcDbBlockEnd
  0
BLOCK
  5
4A6
100
AcDbEntity
  8
0
100
AcDbBlockBegin
  2
*D26
 70
    65
 10
0.0
 20
0.0
 30
0.0
  3
*D26
  1

  0
TEXT
  5
4A7
100
AcDbEntity
  8
寸法
  6
CONTINUOUS
 62
     2
100
AcDbText
 10
1666.49999
 20
919.7
 30
0.0
 40
40.0
  1
465±10（壁給水）
 50
90.0
 41
0.84
  7
EXCADSTD
 72
     1
 11
1666.49999
 21
1062.5
 31
0.0
100
AcDbText
  0
LINE
  5
4A8
100
AcDbEntity
  8
寸法
  6
CONTINUOUS
 62
     3
100
AcDbLine
 10
1612.99999
 20
1295.0
 30
0.0
 11
1679.99999
 21
1295.0
 31
0.0
  0
LINE
  5
4A9
100
AcDbEntity
  8
寸法
  6
CONTINUOUS
 62
     3
100
AcDbLine
 10
1669.99999
 20
1295.0
 30
0.0
 11
1669.99999
 21
830.0
 31
0.0
  0
LINE
  5
4AA
100
AcDbEntity
  8
寸法
  6
CONTINUOUS
 62
     3
100
AcDbLine
 10
1674.99999
 20
1265.0
 30
0.0
 11
1669.99999
 21
1295.0
 31
0.0
  0
LINE
  5
4AB
100
AcDbEntity
  8
寸法
  6
CONTINUOUS
 62
     3
100
AcDbLine
 10
1669.99999
 20
1295.0
 30
0.0
 11
1664.99999
 21
1265.0
 31
0.0
  0
LINE
  5
4AC
100
AcDbEntity
  8
寸法
  6
CONTINUOUS
 62
     3
100
AcDbLine
 10
1664.99999
 20
860.0
 30
0.0
 11
1669.99999
 21
830.0
 31
0.0
  0
LINE
  5
4AD
100
AcDbEntity
  8
寸法
  6
CONTINUOUS
 62
     3
100
AcDbLine
 10
1669.99999
 20
830.0
 30
0.0
 11
1674.99999
 21
860.0
 31
0.0
  0
ENDBLK
  5
4AE
100
AcDbEntity
  8
0
100
AcDbBlockEnd
  0
BLOCK
  5
4B1
100
AcDbEntity
  8
0
100
AcDbBlockBegin
  2
*D27
 70
    65
 10
0.0
 20
0.0
 30
0.0
  3
*D27
  1

  0
LINE
  5
4B2
100
AcDbEntity
  8
寸法
  6
CONTINUOUS
 62
     3
100
AcDbLine
 10
858.0
 20
2451.0
 30
0.0
 11
933.0
 21
2451.0
 31
0.0
  0
LINE
  5
4B3
100
AcDbEntity
  8
寸法
  6
CONTINUOUS
 62
     3
100
AcDbLine
 10
923.0
 20
2451.0
 30
0.0
 11
923.0
 21
2526.0
 31
0.0
  0
LINE
  5
4B4
100
AcDbEntity
  8
寸法
  6
CONTINUOUS
 62
     3
100
AcDbLine
 10
918.0
 20
2481.0
 30
0.0
 11
923.0
 21
2451.0
 31
0.0
  0
LINE
  5
4B5
100
AcDbEntity
  8
寸法
  6
CONTINUOUS
 62
     3
100
AcDbLine
 10
923.0
 20
2451.0
 30
0.0
 11
928.0
 21
2481.0
 31
0.0
  0
LINE
  5
4B6
100
AcDbEntity
  8
寸法
  6
CONTINUOUS
 62
     3
100
AcDbLine
 10
928.0
 20
2496.0
 30
0.0
 11
923.0
 21
2526.0
 31
0.0
  0
LINE
  5
4B7
100
AcDbEntity
  8
寸法
  6
CONTINUOUS
 62
     3
100
AcDbLine
 10
923.0
 20
2526.0
 30
0.0
 11
918.0
 21
2496.0
 31
0.0
  0
TEXT
  5
4B8
100
AcDbEntity
  8
寸法
  6
CONTINUOUS
 62
     2
100
AcDbText
 10
919.5
 20
2459.1
 30
0.0
 40
40.0
  1
75
 50
90.0
 41
0.84
  7
EXCADSTD
 72
     1
 11
919.5
 21
2488.5
 31
0.0
100
AcDbText
  0
ENDBLK
  5
4B9
100
AcDbEntity
  8
0
100
AcDbBlockEnd
  0
ENDSEC
  0
SECTION
  2
ENTITIES
  0
LINE
  5
84
100
AcDbEntity
  8
枠・表
  6
CONTINUOUS
 62
     7
100
AcDbLine
 10
180.0
 20
135.0
 30
0.0
 11
2000.0
 21
135.0
 31
0.0
  0
LINE
  5
85
100
AcDbEntity
  8
枠・表
  6
CONTINUOUS
 62
     7
100
AcDbLine
 10
2000.0
 20
135.0
 30
0.0
 11
2000.0
 21
2885.0
 31
0.0
  0
LINE
  5
86
100
AcDbEntity
  8
枠・表
  6
CONTINUOUS
 62
     7
100
AcDbLine
 10
180.0
 20
135.0
 30
0.0
 11
180.0
 21
2885.0
 31
0.0
  0
LINE
  5
87
100
AcDbEntity
  8
枠・表
  6
CONTINUOUS
 62
     7
100
AcDbLine
 10
180.0
 20
2885.0
 30
0.0
 11
2000.0
 21
2885.0
 31
0.0
  0
LINE
  5
88
100
AcDbEntity
  8
枠・表
  6
CONTINUOUS
 62
     7
100
AcDbLine
 10
180.0
 20
355.0
 30
0.0
 11
2000.0
 21
355.0
 31
0.0
  0
LINE
  5
89
100
AcDbEntity
  8
枠・表
  6
CONTINUOUS
 62
     6
100
AcDbLine
 10
2000.0
 20
235.0
 30
0.0
 11
750.0
 21
235.0
 31
0.0
  0
LINE
  5
8A
100
AcDbEntity
  8
枠・表
  6
CONTINUOUS
 62
     6
100
AcDbLine
 10
1860.0
 20
355.0
 30
0.0
 11
1860.0
 21
235.0
 31
0.0
  0
LINE
  5
8B
100
AcDbEntity
  8
枠・表
  6
CONTINUOUS
 62
     6
100
AcDbLine
 10
1810.0
 20
355.0
 30
0.0
 11
1810.0
 21
235.0
 31
0.0
  0
LINE
  5
8C
100
AcDbEntity
  8
枠・表
  6
CONTINUOUS
 62
     6
100
AcDbLine
 10
1440.0
 20
355.0
 30
0.0
 11
1440.0
 21
135.0
 31
0.0
  0
LINE
  5
8D
100
AcDbEntity
  8
枠・表
  6
CONTINUOUS
 62
     6
100
AcDbLine
 10
1390.0
 20
355.0
 30
0.0
 11
1390.0
 21
135.0
 31
0.0
  0
LINE
  5
8E
100
AcDbEntity
  8
枠・表
  6
CONTINUOUS
 62
     6
100
AcDbLine
 10
800.0
 20
355.0
 30
0.0
 11
800.0
 21
235.0
 31
0.0
  0
LINE
  5
8F
100
AcDbEntity
  8
枠・表
  6
CONTINUOUS
 62
     6
100
AcDbLine
 10
750.0
 20
355.0
 30
0.0
 11
750.0
 21
135.0
 31
0.0
  0
LINE
  5
90
100
AcDbEntity
  8
枠・表
  6
CONTINUOUS
 62
     6
100
AcDbLine
 10
620.0
 20
355.0
 30
0.0
 11
620.0
 21
135.0
 31
0.0
  0
LINE
  5
91
100
AcDbEntity
  8
枠・表
  6
CONTINUOUS
 62
     6
100
AcDbLine
 10
490.0
 20
355.0
 30
0.0
 11
490.0
 21
135.0
 31
0.0
  0
LINE
  5
92
100
AcDbEntity
  8
枠・表
  6
CONTINUOUS
 62
     6
100
AcDbLine
 10
335.0
 20
355.0
 30
0.0
 11
335.0
 21
135.0
 31
0.0
  0
LINE
  5
93
100
AcDbEntity
  8
枠・表
  6
CONTINUOUS
 62
     6
100
AcDbLine
 10
180.0
 20
305.0
 30
0.0
 11
750.0
 21
305.0
 31
0.0
  0
LINE
  5
94
100
AcDbEntity
  8
枠・表
  6
CONTINUOUS
 62
     6
100
AcDbLine
 10
1892.653809
 20
258.00293
 30
0.0
 11
1969.993897
 21
336.699829
 31
0.0
  0
LINE
  5
95
100
AcDbEntity
  8
枠・表
  6
EXLTYPE2
 62
     6
100
AcDbLine
 10
180.0
 20
185.0
 30
0.0
 11
490.0
 21
185.0
 31
0.0
  0
CIRCLE
  5
96
100
AcDbEntity
  8
枠・表
  6
CONTINUOUS
 62
     6
100
AcDbCircle
 10
230.0
 20
160.0
 30
0.0
 40
1.0
  0
CIRCLE
  5
97
100
AcDbEntity
  8
枠・表
  6
CONTINUOUS
 62
     6
100
AcDbCircle
 10
280.0
 20
160.0
 30
0.0
 40
1.0
  0
CIRCLE
  5
98
100
AcDbEntity
  8
枠・表
  6
CONTINUOUS
 62
     6
100
AcDbCircle
 10
385.0
 20
160.0
 30
0.0
 40
1.0
  0
CIRCLE
  5
99
100
AcDbEntity
  8
枠・表
  6
CONTINUOUS
 62
     6
100
AcDbCircle
 10
435.0
 20
160.0
 30
0.0
 40
1.0
  0
TEXT
  5
9A
100
AcDbEntity
  8
枠・表
  6
CONTINUOUS
 62
     2
100
AcDbText
 10
1890.537109
 20
302.722778
 30
0.0
 40
30.0
  1
１
 41
0.826
  7
EXCADSTD
 72
     5
 11
1914.13711
 21
302.722778
 31
0.0
100
AcDbText
  0
TEXT
  5
9B
100
AcDbEntity
  8
枠・表
  6
CONTINUOUS
 62
     2
100
AcDbText
 10
202.5
 20
308.75
 30
0.0
 40
42.5
  1
製図
 41
1.087059
  7
EXCADSTD
 72
     5
 11
303.326
 21
308.75
 31
0.0
100
AcDbText
  0
TEXT
  5
9C
100
AcDbEntity
  8
枠・表
  6
CONTINUOUS
 62
     2
100
AcDbText
 10
357.5
 20
308.75
 30
0.0
 40
42.5
  1
写図
 41
1.087059
  7
EXCADSTD
 72
     5
 11
458.326
 21
308.75
 31
0.0
100
AcDbText
  0
TEXT
  5
9D
100
AcDbEntity
  8
枠・表
  6
CONTINUOUS
 62
     2
100
AcDbText
 10
507.5
 20
308.75
 30
0.0
 40
42.5
  1
検図
 41
0.938824
  7
EXCADSTD
 72
     5
 11
594.577
 21
308.75
 31
0.0
100
AcDbText
  0
TEXT
  5
9E
100
AcDbEntity
  8
枠・表
  6
CONTINUOUS
 62
     2
100
AcDbText
 10
637.5
 20
308.75
 30
0.0
 40
42.5
  1
承認
 41
0.938824
  7
EXCADSTD
 72
     5
 11
724.577
 21
308.75
 31
0.0
100
AcDbText
  0
TEXT
  5
9F
100
AcDbEntity
  8
枠・表
  6
CONTINUOUS
 62
     2
100
AcDbText
 10
755.75
 20
298.75
 30
0.0
 40
42.5
  1
品
 41
0.84
  7
EXCADSTD
 72
     5
 11
789.75
 21
298.75
 31
0.0
100
AcDbText
  0
TEXT
  5
A0
100
AcDbEntity
  8
枠・表
  6
CONTINUOUS
 62
     2
100
AcDbText
 10
755.75
 20
248.75
 30
0.0
 40
42.5
  1
名
 41
0.84
  7
EXCADSTD
 72
     5
 11
789.75
 21
248.75
 31
0.0
100
AcDbText
  0
TEXT
  5
A1
100
AcDbEntity
  8
枠・表
  6
CONTINUOUS
 62
     2
100
AcDbText
 10
1395.75
 20
298.75
 30
0.0
 40
42.5
  1
品
 41
0.84
  7
EXCADSTD
 72
     5
 11
1429.75
 21
298.75
 31
0.0
100
AcDbText
  0
TEXT
  5
A2
100
AcDbEntity
  8
枠・表
  6
CONTINUOUS
 62
     2
100
AcDbText
 10
1395.75
 20
248.75
 30
0.0
 40
42.5
  1
番
 41
0.84
  7
EXCADSTD
 72
     5
 11
1429.75
 21
248.75
 31
0.0
100
AcDbText
  0
TEXT
  5
A3
100
AcDbEntity
  8
枠・表
  6
CONTINUOUS
 62
     2
100
AcDbText
 10
1816.75
 20
298.75
 30
0.0
 40
42.5
  1
尺
 41
0.84
  7
EXCADSTD
 72
     5
 11
1850.75
 21
298.75
 31
0.0
100
AcDbText
  0
TEXT
  5
A4
100
AcDbEntity
  8
枠・表
  6
CONTINUOUS
 62
     2
100
AcDbText
 10
1816.75
 20
248.75
 30
0.0
 40
42.5
  1
度
 41
0.84
  7
EXCADSTD
 72
     5
 11
1850.75
 21
248.75
 31
0.0
100
AcDbText
  0
TEXT
  5
A5
100
AcDbEntity
  8
枠・表
  6
CONTINUOUS
 62
     2
100
AcDbText
 10
1395.75
 20
185.75
 30
0.0
 40
42.5
  1
図
 41
0.84
  7
EXCADSTD
 72
     5
 11
1429.75
 21
185.75
 31
0.0
100
AcDbText
  0
TEXT
  5
A6
100
AcDbEntity
  8
枠・表
  6
CONTINUOUS
 62
     2
100
AcDbText
 10
1395.75
 20
142.75
 30
0.0
 40
42.5
  1
番
 41
0.84
  7
EXCADSTD
 72
     5
 11
1429.75
 21
142.75
 31
0.0
100
AcDbText
  0
TEXT
  5
A7
100
AcDbEntity
  8
枠・表
  6
CONTINUOUS
 62
     2
100
AcDbText
 10
944.5
 20
265.0
 30
0.0
 40
60.0
  1
壁付手洗器
 41
0.8428
  7
EXCADSTD
 72
     5
 11
1245.5
 21
265.0
 31
0.0
100
AcDbText
  0
LINE
  5
A8
100
AcDbEntity
  8
枠・表
  6
EXLTYPE2
 62
     6
100
AcDbLine
 10
0.0
 20
1510.0
 30
0.0
 11
180.0
 21
1510.0
 31
0.0
  0
LINE
  5
A9
100
AcDbEntity
  8
枠・表
  6
CONTINUOUS
 62
     6
100
AcDbLine
 10
1250.0
 20
2710.0
 30
0.0
 11
1950.0
 21
2710.0
 31
0.0
  0
LINE
  5
AA
100
AcDbEntity
  8
枠・表
  6
CONTINUOUS
 62
     6
100
AcDbLine
 10
1250.0
 20
2655.0
 30
0.0
 11
1950.0
 21
2655.0
 31
0.0
  0
TEXT
  5
AB
100
AcDbEntity
  8
枠・表
  6
CONTINUOUS
 62
     2
100
AcDbText
 10
1630.0
 20
2717.5
 30
0.0
 40
40.0
  1
品名
 41
1.47
  7
EXCADSTD
 72
     5
 11
1758.324
 21
2717.5
 31
0.0
100
AcDbText
  0
TEXT
  5
AC
100
AcDbEntity
  8
枠・表
  6
CONTINUOUS
 62
     2
100
AcDbText
 10
1859.0
 20
2717.5
 30
0.0
 40
40.0
  1
個数
 41
0.861
  7
EXCADSTD
 72
     5
 11
1934.1612
 21
2717.5
 31
0.0
100
AcDbText
  0
TEXT
  5
AD
100
AcDbEntity
  8
枠・表
  6
CONTINUOUS
 62
     2
100
AcDbText
 10
1877.5
 20
2662.5
 30
0.0
 40
40.0
  1
１
 41
0.945
  7
EXCADSTD
 72
     5
 11
1913.5
 21
2662.5
 31
0.0
100
AcDbText
  0
TEXT
  5
AE
100
AcDbEntity
  8
枠・表
  6
CONTINUOUS
 62
     2
100
AcDbText
 10
1560.0
 20
2662.5
 30
0.0
 40
40.0
  1
手洗器セット
 41
0.805
  7
EXCADSTD
 72
     5
 11
1789.999999
 21
2662.5
 31
0.0
100
AcDbText
  0
TEXT
  5
AF
100
AcDbEntity
  8
枠・表
  6
CONTINUOUS
 62
     2
100
AcDbText
 10
1330.0
 20
2717.5
 30
0.0
 40
40.0
  1
品番
 41
1.47
  7
EXCADSTD
 72
     5
 11
1458.324
 21
2717.5
 31
0.0
100
AcDbText
  0
LINE
  5
B0
100
AcDbEntity
  8
枠・表
  6
CONTINUOUS
 62
     6
100
AcDbLine
 10
1250.0
 20
2655.0
 30
0.0
 11
1250.0
 21
2765.0
 31
0.0
  0
LINE
  5
B1
100
AcDbEntity
  8
枠・表
  6
CONTINUOUS
 62
     6
100
AcDbLine
 10
1550.0
 20
2655.0
 30
0.0
 11
1550.0
 21
2765.0
 31
0.0
  0
LINE
  5
B2
100
AcDbEntity
  8
枠・表
  6
CONTINUOUS
 62
     6
100
AcDbLine
 10
1850.0
 20
2655.0
 30
0.0
 11
1850.0
 21
2765.0
 31
0.0
  0
LINE
  5
B3
100
AcDbEntity
  8
枠・表
  6
CONTINUOUS
 62
     6
100
AcDbLine
 10
1950.0
 20
2655.0
 30
0.0
 11
1950.0
 21
2765.0
 31
0.0
  0
LINE
  5
B4
100
AcDbEntity
  8
枠・表
  6
CONTINUOUS
 62
     6
100
AcDbLine
 10
1250.0
 20
2765.0
 30
0.0
 11
1950.0
 21
2765.0
 31
0.0
  0
TEXT
  5
B5
100
AcDbEntity
  8
枠・表
  6
CONTINUOUS
 62
     2
100
AcDbText
 10
1270.0
 20
2773.0
 30
0.0
 40
40.0
  1
壁排水・壁給水の場合
 41
0.7938
  7
EXCADSTD
 72
     5
 11
1647.999999
 21
2773.0
 31
0.0
100
AcDbText
  0
LINE
  5
B6
100
AcDbEntity
  8
枠・表
  6
CONTINUOUS
 62
     6
100
AcDbLine
 10
1250.0
 20
2517.5
 30
0.0
 11
1950.0
 21
2517.5
 31
0.0
  0
LINE
  5
B7
100
AcDbEntity
  8
枠・表
  6
CONTINUOUS
 62
     6
100
AcDbLine
 10
1250.0
 20
2462.5
 30
0.0
 11
1950.0
 21
2462.5
 31
0.0
  0
TEXT
  5
B8
100
AcDbEntity
  8
枠・表
  6
CONTINUOUS
 62
     2
100
AcDbText
 10
1630.0
 20
2525.0
 30
0.0
 40
40.0
  1
品名
 41
1.47
  7
EXCADSTD
 72
     5
 11
1758.324
 21
2525.0
 31
0.0
100
AcDbText
  0
TEXT
  5
B9
100
AcDbEntity
  8
枠・表
  6
CONTINUOUS
 62
     2
100
AcDbText
 10
1859.0
 20
2525.0
 30
0.0
 40
40.0
  1
個数
 41
0.861
  7
EXCADSTD
 72
     5
 11
1934.1612
 21
2525.0
 31
0.0
100
AcDbText
  0
TEXT
  5
BA
100
AcDbEntity
  8
枠・表
  6
CONTINUOUS
 62
     2
100
AcDbText
 10
1877.5
 20
2470.0
 30
0.0
 40
40.0
  1
１
 41
0.945
  7
EXCADSTD
 72
     5
 11
1913.5
 21
2470.0
 31
0.0
100
AcDbText
  0
TEXT
  5
BB
100
AcDbEntity
  8
枠・表
  6
CONTINUOUS
 62
     2
100
AcDbText
 10
1560.0
 20
2470.0
 30
0.0
 40
40.0
  1
手洗器セット
 41
0.805
  7
EXCADSTD
 72
     5
 11
1789.999999
 21
2470.0
 31
0.0
100
AcDbText
  0
TEXT
  5
BC
100
AcDbEntity
  8
枠・表
  6
CONTINUOUS
 62
     2
100
AcDbText
 10
1330.0
 20
2525.0
 30
0.0
 40
40.0
  1
品番
 41
1.47
  7
EXCADSTD
 72
     5
 11
1458.324
 21
2525.0
 31
0.0
100
AcDbText
  0
LINE
  5
BD
100
AcDbEntity
  8
枠・表
  6
CONTINUOUS
 62
     6
100
AcDbLine
 10
1250.0
 20
2462.5
 30
0.0
 11
1250.0
 21
2572.5
 31
0.0
  0
LINE
  5
BE
100
AcDbEntity
  8
枠・表
  6
CONTINUOUS
 62
     6
100
AcDbLine
 10
1550.0
 20
2462.5
 30
0.0
 11
1550.0
 21
2572.5
 31
0.0
  0
LINE
  5
BF
100
AcDbEntity
  8
枠・表
  6
CONTINUOUS
 62
     6
100
AcDbLine
 10
1850.0
 20
2462.5
 30
0.0
 11
1850.0
 21
2572.5
 31
0.0
  0
LINE
  5
C0
100
AcDbEntity
  8
枠・表
  6
CONTINUOUS
 62
     6
100
AcDbLine
 10
1950.0
 20
2462.5
 30
0.0
 11
1950.0
 21
2572.5
 31
0.0
  0
LINE
  5
C1
100
AcDbEntity
  8
枠・表
  6
CONTINUOUS
 62
     6
100
AcDbLine
 10
1250.0
 20
2572.5
 30
0.0
 11
1950.0
 21
2572.5
 31
0.0
  0
TEXT
  5
C2
100
AcDbEntity
  8
枠・表
  6
CONTINUOUS
 62
     2
100
AcDbText
 10
1270.0
 20
2580.5
 30
0.0
 40
40.0
  1
床排水・壁給水の場合
 41
0.7938
  7
EXCADSTD
 72
     5
 11
1647.999999
 21
2580.5
 31
0.0
100
AcDbText
  0
LINE
  5
C3
100
AcDbEntity
  8
枠・表
  6
CONTINUOUS
 62
     6
100
AcDbLine
 10
1250.0
 20
2325.0
 30
0.0
 11
1950.0
 21
2325.0
 31
0.0
  0
LINE
  5
C4
100
AcDbEntity
  8
枠・表
  6
CONTINUOUS
 62
     6
100
AcDbLine
 10
1250.0
 20
2270.0
 30
0.0
 11
1950.0
 21
2270.0
 31
0.0
  0
TEXT
  5
C5
100
AcDbEntity
  8
枠・表
  6
CONTINUOUS
 62
     2
100
AcDbText
 10
1630.0
 20
2332.5
 30
0.0
 40
40.0
  1
品名
 41
1.47
  7
EXCADSTD
 72
     5
 11
1758.324
 21
2332.5
 31
0.0
100
AcDbText
  0
TEXT
  5
C6
100
AcDbEntity
  8
枠・表
  6
CONTINUOUS
 62
     2
100
AcDbText
 10
1859.0
 20
2332.5
 30
0.0
 40
40.0
  1
個数
 41
0.861
  7
EXCADSTD
 72
     5
 11
1934.1612
 21
2332.5
 31
0.0
100
AcDbText
  0
TEXT
  5
C7
100
AcDbEntity
  8
枠・表
  6
CONTINUOUS
 62
     2
100
AcDbText
 10
1877.5
 20
2277.5
 30
0.0
 40
40.0
  1
１
 41
0.945
  7
EXCADSTD
 72
     5
 11
1913.5
 21
2277.5
 31
0.0
100
AcDbText
  0
TEXT
  5
C8
100
AcDbEntity
  8
枠・表
  6
CONTINUOUS
 62
     2
100
AcDbText
 10
1560.0
 20
2277.5
 30
0.0
 40
40.0
  1
手洗器セット
 41
0.805
  7
EXCADSTD
 72
     5
 11
1789.999999
 21
2277.5
 31
0.0
100
AcDbText
  0
TEXT
  5
C9
100
AcDbEntity
  8
枠・表
  6
CONTINUOUS
 62
     2
100
AcDbText
 10
1330.0
 20
2332.5
 30
0.0
 40
40.0
  1
品番
 41
1.47
  7
EXCADSTD
 72
     5
 11
1458.324
 21
2332.5
 31
0.0
100
AcDbText
  0
LINE
  5
CA
100
AcDbEntity
  8
枠・表
  6
CONTINUOUS
 62
     6
100
AcDbLine
 10
1250.0
 20
2270.0
 30
0.0
 11
1250.0
 21
2380.0
 31
0.0
  0
LINE
  5
CB
100
AcDbEntity
  8
枠・表
  6
CONTINUOUS
 62
     6
100
AcDbLine
 10
1550.0
 20
2270.0
 30
0.0
 11
1550.0
 21
2380.0
 31
0.0
  0
LINE
  5
CC
100
AcDbEntity
  8
枠・表
  6
CONTINUOUS
 62
     6
100
AcDbLine
 10
1850.0
 20
2270.0
 30
0.0
 11
1850.0
 21
2380.0
 31
0.0
  0
LINE
  5
CD
100
AcDbEntity
  8
枠・表
  6
CONTINUOUS
 62
     6
100
AcDbLine
 10
1950.0
 20
2270.0
 30
0.0
 11
1950.0
 21
2380.0
 31
0.0
  0
LINE
  5
CE
100
AcDbEntity
  8
枠・表
  6
CONTINUOUS
 62
     6
100
AcDbLine
 10
1250.0
 20
2380.0
 30
0.0
 11
1950.0
 21
2380.0
 31
0.0
  0
TEXT
  5
CF
100
AcDbEntity
  8
枠・表
  6
CONTINUOUS
 62
     2
100
AcDbText
 10
1931.279297
 20
258.348846
 30
0.0
 40
30.0
  1
１０
 41
0.791
  7
EXCADSTD
 72
     5
 11
1983.067198
 21
258.348846
 31
0.0
100
AcDbText
  0
TEXT
  5
D0
100
AcDbEntity
  8
枠・表
  6
CONTINUOUS
 62
     2
100
AcDbText
 10
1270.0
 20
2388.0
 30
0.0
 40
40.0
  1
床排水・床給水の場合
 41
0.7938
  7
EXCADSTD
 72
     5
 11
1647.999999
 21
2388.0
 31
0.0
100
AcDbText
  0
TEXT
  5
D1
100
AcDbEntity
  8
枠・表
  6
CONTINUOUS
 62
     2
100
AcDbText
 10
207.5
 20
220.0
 30
0.0
 40
50.0
  1
間瀬
 41
0.882
  7
EXCADSTD
 72
     5
 11
303.743
 21
220.0
 31
0.0
100
AcDbText
  0
TEXT
  5
D2
100
AcDbEntity
  8
枠・表
  6
CONTINUOUS
 62
     2
100
AcDbText
 10
503.833333
 20
220.0
 30
0.0
 40
50.0
  1
中村
 41
0.882
  7
EXCADSTD
 72
     5
 11
600.076333
 21
220.0
 31
0.0
100
AcDbText
  0
TEXT
  5
D3
100
AcDbEntity
  8
枠・表
  6
CONTINUOUS
 62
     2
100
AcDbText
 10
633.833333
 20
220.0
 30
0.0
 40
50.0
  1
古林
 41
0.882
  7
EXCADSTD
 72
     5
 11
730.076333
 21
220.0
 31
0.0
100
AcDbText
  0
TEXT
  5
D4
100
AcDbEntity
  8
枠・表
  6
CONTINUOUS
 62
     2
100
AcDbText
 10
184.5
 20
140.0
 30
0.0
 40
40.0
  1
21
 41
0.5
  7
EXCADSTD
 72
     5
 11
216.5
 21
140.0
 31
0.0
100
AcDbText
  0
TEXT
  5
D5
100
AcDbEntity
  8
枠・表
  6
CONTINUOUS
 62
     2
100
AcDbText
 10
235.0
 20
140.0
 30
0.0
 40
40.0
  1
10
 41
0.5
  7
EXCADSTD
 72
     5
 11
267.0
 21
140.0
 31
0.0
100
AcDbText
  0
TEXT
  5
D6
100
AcDbEntity
  8
枠・表
  6
CONTINUOUS
 62
     2
100
AcDbText
 10
288.0
 20
140.0
 30
0.0
 40
40.0
  1
16
 41
0.5
  7
EXCADSTD
 72
     5
 11
320.0
 21
140.0
 31
0.0
100
AcDbText
  0
TEXT
  5
D7
100
AcDbEntity
  8
枠・表
  6
CONTINUOUS
 62
     7
100
AcDbText
 10
1452.000002
 20
151.5
 30
0.0
 40
70.0
  1
Ｌ０３５３００７
 41
0.804
  7
EXCADSTD
 72
     5
 11
1987.999998
 21
151.5
 31
0.0
100
AcDbText
  0
TEXT
  5
D8
100
AcDbEntity
  8
枠・表
  6
CONTINUOUS
 62
     2
100
AcDbText
 10
1449.0
 20
270.0
 30
0.0
 40
50.0
  1
ＬＳ３５３ＲＳ（Ｐ）Ｆ（Ｓ）
 41
0.432
  7
EXCADSTD
 72
     5
 11
1809.0
 21
270.0
 31
0.0
100
AcDbText
  0
TEXT
  5
D9
100
AcDbEntity
  8
枠・表
  6
CONTINUOUS
 62
     2
100
AcDbText
 10
1260.0
 20
2662.5
 30
0.0
 40
40.0
  1
ＬＳ３５３ＲＰＦ
 41
0.693
  7
EXCADSTD
 72
     5
 11
1523.999999
 21
2662.5
 31
0.0
100
AcDbText
  0
TEXT
  5
DA
100
AcDbEntity
  8
枠・表
  6
CONTINUOUS
 62
     2
100
AcDbText
 10
1260.0
 20
2470.0
 30
0.0
 40
40.0
  1
ＬＳ３５３ＲＳＦ
 41
0.693
  7
EXCADSTD
 72
     5
 11
1523.999999
 21
2470.0
 31
0.0
100
AcDbText
  0
TEXT
  5
DB
100
AcDbEntity
  8
枠・表
  6
CONTINUOUS
 62
     2
100
AcDbText
 10
1260.0
 20
2277.5
 30
0.0
 40
40.0
  1
ＬＳ３５３ＲＳＳ
 41
0.693
  7
EXCADSTD
 72
     5
 11
1523.999999
 21
2277.5
 31
0.0
100
AcDbText
  0
TEXT
  5
DD
100
AcDbEntity
  8
枠・表
  6
CONTINUOUS
 62
     2
100
AcDbText
 10
770.0
 20
155.0
 30
0.0
 40
45.0
  1
ジャニス工業株式会社
  7
EXCADTTF1
 72
     5
 11
1370.0
 21
155.0
 31
0.0
100
AcDbText
  0
LINE
  5
DE
100
AcDbEntity
  8
図
  6
EXLTYPE3
 62
     6
100
AcDbLine
 10
697.0
 20
790.0
 30
0.0
 11
697.0
 21
1000.0
 31
0.0
  0
LINE
  5
DF
100
AcDbEntity
  8
図
  6
EXLTYPE3
 62
     6
100
AcDbLine
 10
792.0
 20
1000.0
 30
0.0
 11
792.0
 21
813.0
 31
0.0
  0
LINE
  5
E0
100
AcDbEntity
  8
図
  6
EXLTYPE3
 62
     6
100
AcDbLine
 10
667.0
 20
1680.5
 30
0.0
 11
667.0
 21
820.0
 31
0.0
  0
LINE
  5
E1
100
AcDbEntity
  8
図
  6
CONTINUOUS
 62
     6
100
AcDbLine
 10
616.5
 20
1489.5
 30
0.0
 11
667.5
 21
1489.5
 31
0.0
  0
LINE
  5
E2
100
AcDbEntity
  8
図
  6
CONTINUOUS
 62
     6
100
AcDbLine
 10
629.525364
 20
1483.5
 30
0.0
 11
633.607295
 21
1483.5
 31
0.0
  0
LINE
  5
E3
100
AcDbEntity
  8
図
  6
CONTINUOUS
 62
     6
100
AcDbLine
 10
650.392705
 20
1483.5
 30
0.0
 11
654.474636
 21
1483.5
 31
0.0
  0
ARC
  5
E4
100
AcDbEntity
  8
図
  6
CONTINUOUS
 62
     6
100
AcDbCircle
 10
625.262682
 20
1487.042614
 30
0.0
 40
5.542614
100
AcDbArc
 50
219.729169
 51
320.270831
  0
ARC
  5
E5
100
AcDbEntity
  8
図
  6
CONTINUOUS
 62
     6
100
AcDbCircle
 10
658.737318
 20
1487.042614
 30
0.0
 40
5.542614
100
AcDbArc
 50
219.729169
 51
320.270831
  0
ARC
  5
E6
100
AcDbEntity
  8
図
  6
CONTINUOUS
 62
     6
100
AcDbCircle
 10
642.0
 20
1500.109375
 30
0.0
 40
18.609375
100
AcDbArc
 50
243.192563
 51
296.807437
  0
LINE
  5
E7
100
AcDbEntity
  8
図
  6
CONTINUOUS
 62
     6
100
AcDbLine
 10
654.474636
 20
1483.5
 30
0.0
 11
654.474636
 21
1487.5
 31
0.0
  0
LINE
  5
E8
100
AcDbEntity
  8
図
  6
CONTINUOUS
 62
     6
100
AcDbLine
 10
650.392705
 20
1483.5
 30
0.0
 11
650.392705
 21
1487.5
 31
0.0
  0
LINE
  5
E9
100
AcDbEntity
  8
図
  6
CONTINUOUS
 62
     6
100
AcDbLine
 10
633.607295
 20
1483.5
 30
0.0
 11
633.607295
 21
1487.5
 31
0.0
  0
LINE
  5
EA
100
AcDbEntity
  8
図
  6
CONTINUOUS
 62
     6
100
AcDbLine
 10
629.525364
 20
1483.5
 30
0.0
 11
629.525364
 21
1487.5
 31
0.0
  0
LINE
  5
EB
100
AcDbEntity
  8
図
  6
CONTINUOUS
 62
     6
100
AcDbLine
 10
621.0
 20
1483.5
 30
0.0
 11
622.75
 21
1481.5
 31
0.0
  0
LINE
  5
EC
100
AcDbEntity
  8
図
  6
CONTINUOUS
 62
     6
100
AcDbLine
 10
663.0
 20
1483.5
 30
0.0
 11
661.25
 21
1481.5
 31
0.0
  0
LINE
  5
ED
100
AcDbEntity
  8
図
  6
CONTINUOUS
 62
     6
100
AcDbLine
 10
621.0
 20
1483.5
 30
0.0
 11
621.0
 21
1487.5
 31
0.0
  0
LINE
  5
EE
100
AcDbEntity
  8
図
  6
CONTINUOUS
 62
     6
100
AcDbLine
 10
663.0
 20
1483.5
 30
0.0
 11
663.0
 21
1487.5
 31
0.0
  0
LINE
  5
EF
100
AcDbEntity
  8
図
  6
CONTINUOUS
 62
     6
100
AcDbLine
 10
622.75
 20
1481.5
 30
0.0
 11
661.25
 21
1481.5
 31
0.0
  0
LINE
  5
F0
100
AcDbEntity
  8
図
  6
CONTINUOUS
 62
     6
100
AcDbLine
 10
617.5
 20
1487.5
 30
0.0
 11
617.5
 21
1489.5
 31
0.0
  0
LINE
  5
F1
100
AcDbEntity
  8
図
  6
CONTINUOUS
 62
     6
100
AcDbLine
 10
617.5
 20
1487.5
 30
0.0
 11
666.5
 21
1487.5
 31
0.0
  0
LINE
  5
F2
100
AcDbEntity
  8
図
  6
CONTINUOUS
 62
     6
100
AcDbLine
 10
666.5
 20
1487.5
 30
0.0
 11
666.5
 21
1489.5
 31
0.0
  0
ELLIPSE
  5
F3
100
AcDbEntity
  8
図
  6
CONTINUOUS
 62
     6
100
AcDbEllipse
 10
642.0
 20
1470.3
 30
0.0
 11
-8.0195074661700083
 21
0.000000000000001
 31
0.0
210
0.0
220
0.0
230
1.0
 40
0.642063
 41
0.0
 42
6.2831853071796004
  0
ELLIPSE
  5
F4
100
AcDbEntity
  8
図
  6
CONTINUOUS
 62
     6
100
AcDbEllipse
 10
626.802155
 20
1470.3
 30
0.0
 11
-0.0000000000000009
 21
-5.1490290346800043
 31
0.0
210
0.0
220
0.0
230
1.0
 40
0.786975
 41
0.0
 42
6.2831853071796004
  0
ELLIPSE
  5
F5
100
AcDbEntity
  8
図
  6
CONTINUOUS
 62
     6
100
AcDbEllipse
 10
657.197845
 20
1470.3
 30
0.0
 11
0.0000000000000003
 21
5.1490290346800043
 31
0.0
210
0.0
220
0.0
230
1.0
 40
0.786975
 41
0.0
 42
6.2831853071796004
  0
ARC
  5
F6
100
AcDbEntity
  8
図
  6
CONTINUOUS
 62
     6
100
AcDbCircle
 10
631.2
 20
1470.3
 30
0.0
 40
8.45
100
AcDbArc
 50
134.76027
 51
225.23973
  0
ARC
  5
F7
100
AcDbEntity
  8
図
  6
CONTINUOUS
 62
     6
100
AcDbCircle
 10
652.8
 20
1470.3
 30
0.0
 40
8.45
100
AcDbArc
 50
314.76027
 51
45.23973
  0
LINE
  5
F8
100
AcDbEntity
  8
図
  6
CONTINUOUS
 62
     6
100
AcDbLine
 10
625.25
 20
1476.3
 30
0.0
 11
658.75
 21
1476.3
 31
0.0
  0
LINE
  5
F9
100
AcDbEntity
  8
図
  6
CONTINUOUS
 62
     6
100
AcDbLine
 10
626.0
 20
1481.5
 30
0.0
 11
626.0
 21
1476.3
 31
0.0
  0
LINE
  5
FA
100
AcDbEntity
  8
図
  6
CONTINUOUS
 62
     6
100
AcDbLine
 10
658.0
 20
1481.5
 30
0.0
 11
658.0
 21
1476.3
 31
0.0
  0
LINE
  5
FB
100
AcDbEntity
  8
図
  6
CONTINUOUS
 62
     6
100
AcDbLine
 10
616.5
 20
1490.5
 30
0.0
 11
616.5
 21
1489.5
 31
0.0
  0
LINE
  5
FC
100
AcDbEntity
  8
図
  6
CONTINUOUS
 62
     6
100
AcDbLine
 10
667.5
 20
1490.5
 30
0.0
 11
667.5
 21
1489.5
 31
0.0
  0
LINE
  5
FD
100
AcDbEntity
  8
図
  6
CONTINUOUS
 62
     6
100
AcDbLine
 10
727.0
 20
1360.0
 30
0.0
 11
647.0
 21
1360.0
 31
0.0
  0
LINE
  5
FE
100
AcDbEntity
  8
図
  6
CONTINUOUS
 62
     6
100
AcDbLine
 10
625.25
 20
1464.3
 30
0.0
 11
658.75
 21
1464.3
 31
0.0
  0
LINE
  5
FF
100
AcDbEntity
  8
図
  6
CONTINUOUS
 62
     6
100
AcDbLine
 10
654.7
 20
1339.340192
 30
0.0
 11
655.55
 21
1340.812436
 31
0.0
  0
LINE
  5
100
100
AcDbEntity
  8
図
  6
CONTINUOUS
 62
     6
100
AcDbLine
 10
655.55
 20
1340.812436
 30
0.0
 11
655.55
 21
1387.0
 31
0.0
  0
LINE
  5
101
100
AcDbEntity
  8
図
  6
CONTINUOUS
 62
     6
100
AcDbLine
 10
629.3
 20
1339.340192
 30
0.0
 11
628.45
 21
1340.812436
 31
0.0
  0
LINE
  5
102
100
AcDbEntity
  8
図
  6
CONTINUOUS
 62
     6
100
AcDbLine
 10
628.45
 20
1340.812436
 30
0.0
 11
628.45
 21
1387.0
 31
0.0
  0
LINE
  5
103
100
AcDbEntity
  8
図
  6
CONTINUOUS
 62
     6
100
AcDbLine
 10
629.3
 20
1464.3
 30
0.0
 11
629.3
 21
1399.0
 31
0.0
  0
LINE
  5
104
100
AcDbEntity
  8
図
  6
CONTINUOUS
 62
     6
100
AcDbLine
 10
654.7
 20
1464.3
 30
0.0
 11
654.7
 21
1399.0
 31
0.0
  0
ELLIPSE
  5
105
100
AcDbEntity
  8
図
  6
CONTINUOUS
 62
     6
100
AcDbEllipse
 10
642.0
 20
1393.0
 30
0.0
 11
8.0195074661700083
 21
0.0
 31
0.0
210
0.0
220
0.0
230
1.0
 40
0.642063
 41
0.0
 42
6.2831853071796004
  0
ELLIPSE
  5
106
100
AcDbEntity
  8
図
  6
CONTINUOUS
 62
     6
100
AcDbEllipse
 10
626.802155
 20
1393.0
 30
0.0
 11
0.0000000000000003
 21
5.1490290346800043
 31
0.0
210
0.0
220
0.0
230
1.0
 40
0.786975
 41
0.0
 42
6.2831853071796004
  0
ELLIPSE
  5
107
100
AcDbEntity
  8
図
  6
CONTINUOUS
 62
     6
100
AcDbEllipse
 10
657.197845
 20
1393.0
 30
0.0
 11
-0.0000000000000009
 21
-5.1490290346800043
 31
0.0
210
0.0
220
0.0
230
1.0
 40
0.786975
 41
0.0
 42
6.2831853071796004
  0
ARC
  5
108
100
AcDbEntity
  8
図
  6
CONTINUOUS
 62
     6
100
AcDbCircle
 10
631.2
 20
1393.0
 30
0.0
 40
8.45
100
AcDbArc
 50
134.76027
 51
225.23973
  0
ARC
  5
109
100
AcDbEntity
  8
図
  6
CONTINUOUS
 62
     6
100
AcDbCircle
 10
652.8
 20
1393.0
 30
0.0
 40
8.45
100
AcDbArc
 50
314.76027
 51
45.23973
  0
LINE
  5
10A
100
AcDbEntity
  8
図
  6
CONTINUOUS
 62
     6
100
AcDbLine
 10
625.25
 20
1387.0
 30
0.0
 11
658.75
 21
1387.0
 31
0.0
  0
LINE
  5
10B
100
AcDbEntity
  8
図
  6
CONTINUOUS
 62
     6
100
AcDbLine
 10
625.25
 20
1399.0
 30
0.0
 11
658.75
 21
1399.0
 31
0.0
  0
LINE
  5
10C
100
AcDbEntity
  8
図
  6
CONTINUOUS
 62
     6
100
AcDbLine
 10
674.3
 20
1360.0
 30
0.0
 11
674.3
 21
1322.7
 31
0.0
  0
LINE
  5
10D
100
AcDbEntity
  8
図
  6
CONTINUOUS
 62
     6
100
AcDbLine
 10
699.7
 20
1322.7
 30
0.0
 11
699.7
 21
1360.0
 31
0.0
  0
ARC
  5
10E
100
AcDbEntity
  8
図
  6
CONTINUOUS
 62
     6
100
AcDbCircle
 10
687.0
 20
1360.0
 30
0.0
 40
12.7
100
AcDbArc
 50
0.0
 51
180.0
  0
ARC
  5
10F
100
AcDbEntity
  8
図
  6
CONTINUOUS
 62
     6
100
AcDbCircle
 10
687.0
 20
1360.0
 30
0.0
 40
30.0
100
AcDbArc
 50
295.045214
 51
244.954786
  0
ELLIPSE
  5
110
100
AcDbEntity
  8
図
  6
CONTINUOUS
 62
     6
100
AcDbEllipse
 10
687.0
 20
1316.7
 30
0.0
 11
8.0195074661700083
 21
0.0
 31
0.0
210
0.0
220
0.0
230
1.0
 40
0.642063
 41
0.0
 42
6.2831853071796004
  0
ELLIPSE
  5
111
100
AcDbEntity
  8
図
  6
CONTINUOUS
 62
     6
100
AcDbEllipse
 10
671.802155
 20
1316.7
 30
0.0
 11
0.0000000000000003
 21
5.1490290346800043
 31
0.0
210
0.0
220
0.0
230
1.0
 40
0.786975
 41
0.0
 42
6.2831853071796004
  0
ELLIPSE
  5
112
100
AcDbEntity
  8
図
  6
CONTINUOUS
 62
     6
100
AcDbEllipse
 10
702.197845
 20
1316.7
 30
0.0
 11
-0.0000000000000009
 21
-5.1490290346800043
 31
0.0
210
0.0
220
0.0
230
1.0
 40
0.786975
 41
0.0
 42
6.2831853071796004
  0
ARC
  5
113
100
AcDbEntity
  8
図
  6
CONTINUOUS
 62
     6
100
AcDbCircle
 10
676.2
 20
1316.7
 30
0.0
 40
8.45
100
AcDbArc
 50
134.76027
 51
225.23973
  0
ARC
  5
114
100
AcDbEntity
  8
図
  6
CONTINUOUS
 62
     6
100
AcDbCircle
 10
697.8
 20
1316.7
 30
0.0
 40
8.45
100
AcDbArc
 50
314.76027
 51
45.23973
  0
LINE
  5
115
100
AcDbEntity
  8
図
  6
CONTINUOUS
 62
     6
100
AcDbLine
 10
670.25
 20
1310.7
 30
0.0
 11
703.75
 21
1310.7
 31
0.0
  0
LINE
  5
116
100
AcDbEntity
  8
図
  6
CONTINUOUS
 62
     6
100
AcDbLine
 10
670.25
 20
1322.7
 30
0.0
 11
703.75
 21
1322.7
 31
0.0
  0
LINE
  5
117
100
AcDbEntity
  8
図
  6
CONTINUOUS
 62
     6
100
AcDbLine
 10
629.3
 20
1339.340192
 30
0.0
 11
629.3
 21
1300.5
 31
0.0
  0
LINE
  5
118
100
AcDbEntity
  8
図
  6
CONTINUOUS
 62
     6
100
AcDbLine
 10
654.7
 20
1300.5
 30
0.0
 11
654.7
 21
1339.340192
 31
0.0
  0
LINE
  5
119
100
AcDbEntity
  8
図
  6
CONTINUOUS
 62
     6
100
AcDbLine
 10
674.3
 20
1310.7
 30
0.0
 11
674.3
 21
1300.5
 31
0.0
  0
LINE
  5
11A
100
AcDbEntity
  8
図
  6
CONTINUOUS
 62
     6
100
AcDbLine
 10
699.7
 20
1300.5
 30
0.0
 11
699.7
 21
1310.7
 31
0.0
  0
ARC
  5
11B
100
AcDbEntity
  8
図
  6
CONTINUOUS
 62
     6
100
AcDbCircle
 10
664.5
 20
1300.5
 30
0.0
 40
9.8
100
AcDbArc
 50
180.0
 51
0.0
  0
ARC
  5
11C
100
AcDbEntity
  8
図
  6
CONTINUOUS
 62
     6
100
AcDbCircle
 10
664.5
 20
1300.5
 30
0.0
 40
35.2
100
AcDbArc
 50
180.0
 51
0.0
  0
LINE
  5
11D
100
AcDbEntity
  8
図
  6
CONTINUOUS
 62
     6
100
AcDbLine
 10
687.0
 20
1320.0
 30
0.0
 11
687.0
 21
1400.0
 31
0.0
  0
LINE
  5
11E
100
AcDbEntity
  8
図
  6
CONTINUOUS
 62
     6
100
AcDbLine
 10
629.3
 20
1339.340192
 30
0.0
 11
654.7
 21
1339.340192
 31
0.0
  0
LINE
  5
11F
100
AcDbEntity
  8
図
  6
CONTINUOUS
 62
     6
100
AcDbLine
 10
684.3
 20
800.0
 30
0.0
 11
709.7
 21
800.0
 31
0.0
  0
LINE
  5
120
100
AcDbEntity
  8
図
  6
CONTINUOUS
 62
     6
100
AcDbLine
 10
684.3
 20
1000.0
 30
0.0
 11
684.3
 21
800.0
 31
0.0
  0
LINE
  5
121
100
AcDbEntity
  8
図
  6
CONTINUOUS
 62
     6
100
AcDbLine
 10
709.7
 20
800.0
 30
0.0
 11
709.7
 21
1000.0
 31
0.0
  0
LINE
  5
122
100
AcDbEntity
  8
図
  6
CONTINUOUS
 62
     6
100
AcDbLine
 10
802.5
 20
823.0
 30
0.0
 11
781.5
 21
823.0
 31
0.0
  0
LINE
  5
123
100
AcDbEntity
  8
図
  6
CONTINUOUS
 62
     6
100
AcDbLine
 10
781.5
 20
1000.0
 30
0.0
 11
781.5
 21
823.0
 31
0.0
  0
LINE
  5
124
100
AcDbEntity
  8
図
  6
CONTINUOUS
 62
     6
100
AcDbLine
 10
802.5
 20
1000.0
 30
0.0
 11
802.5
 21
823.0
 31
0.0
  0
LINE
  5
125
100
AcDbEntity
  8
図
  6
EXLTYPE4
 62
     6
100
AcDbLine
 10
257.0
 20
830.0
 30
0.0
 11
1135.0
 21
830.0
 31
0.0
  0
LINE
  5
126
100
AcDbEntity
  8
図
  6
CONTINUOUS
 62
     6
100
AcDbLine
 10
1508.64999
 20
1319.7
 30
0.0
 11
1508.64999
 21
1490.5
 31
0.0
  0
LINE
  5
127
100
AcDbEntity
  8
図
  6
CONTINUOUS
 62
     6
100
AcDbLine
 10
1521.34999
 20
1319.7
 30
0.0
 11
1521.34999
 21
1490.5
 31
0.0
  0
LINE
  5
128
100
AcDbEntity
  8
図
  6
EXLTYPE3
 62
     6
100
AcDbLine
 10
1529.99999
 20
790.0
 30
0.0
 11
1529.99999
 21
1000.0
 31
0.0
  0
LINE
  5
129
100
AcDbEntity
  8
図
  6
CONTINUOUS
 62
     2
100
AcDbLine
 10
1589.99999
 20
1670.5
 30
0.0
 11
1589.99999
 21
1490.5
 31
0.0
  0
LINE
  5
12A
100
AcDbEntity
  8
図
  6
CONTINUOUS
 62
     2
100
AcDbLine
 10
1419.99999
 20
1490.5
 30
0.0
 11
1589.99999
 21
1490.5
 31
0.0
  0
LINE
  5
12B
100
AcDbEntity
  8
図
  6
CONTINUOUS
 62
     2
100
AcDbLine
 10
1573.73005
 20
1670.5
 30
0.0
 11
1589.99999
 21
1670.5
 31
0.0
  0
ARC
  5
12C
100
AcDbEntity
  8
図
  6
CONTINUOUS
 62
     2
100
AcDbCircle
 10
1573.73005
 20
1666.5
 30
0.0
 40
4.0
100
AcDbArc
 50
90.0
 51
176.0
  0
ARC
  5
12D
100
AcDbEntity
  8
図
  6
CONTINUOUS
 62
     2
100
AcDbCircle
 10
1562.074321
 20
1614.5
 30
0.0
 40
4.0
100
AcDbArc
 50
270.0
 51
356.0
  0
ARC
  5
12E
100
AcDbEntity
  8
図
  6
CONTINUOUS
 62
     2
100
AcDbCircle
 10
4308.123092
 20
2302.13104
 30
0.0
 40
3000.0
100
AcDbArc
 50
193.42584
 51
195.696622
  0
ARC
  5
12F
100
AcDbEntity
  8
図
  6
CONTINUOUS
 62
     2
100
AcDbCircle
 10
1393.99999
 20
1606.5
 30
0.0
 40
4.0
100
AcDbArc
 50
90.0
 51
193.42584
  0
LINE
  5
130
100
AcDbEntity
  8
図
  6
CONTINUOUS
 62
     2
100
AcDbLine
 10
1569.739794
 20
1666.779026
 30
0.0
 11
1566.064577
 21
1614.220974
 31
0.0
  0
LINE
  5
131
100
AcDbEntity
  8
図
  6
CONTINUOUS
 62
     2
100
AcDbLine
 10
1393.99999
 20
1610.5
 30
0.0
 11
1562.074321
 21
1610.5
 31
0.0
  0
LINE
  5
132
100
AcDbEntity
  8
図
  6
CONTINUOUS
 62
     6
100
AcDbLine
 10
1498.106694
 20
1483.5
 30
0.0
 11
1498.106694
 21
1487.5
 31
0.0
  0
LINE
  5
133
100
AcDbEntity
  8
図
  6
CONTINUOUS
 62
     6
100
AcDbLine
 10
1531.893286
 20
1483.5
 30
0.0
 11
1531.893286
 21
1487.5
 31
0.0
  0
LINE
  5
134
100
AcDbEntity
  8
図
  6
CONTINUOUS
 62
     6
100
AcDbLine
 10
1498.106694
 20
1483.5
 30
0.0
 11
1495.74999
 21
1483.5
 31
0.0
  0
LINE
  5
135
100
AcDbEntity
  8
図
  6
CONTINUOUS
 62
     6
100
AcDbLine
 10
1531.893286
 20
1483.5
 30
0.0
 11
1534.24999
 21
1483.5
 31
0.0
  0
LINE
  5
136
100
AcDbEntity
  8
図
  6
CONTINUOUS
 62
     6
100
AcDbLine
 10
1495.74999
 20
1481.5
 30
0.0
 11
1495.74999
 21
1487.5
 31
0.0
  0
LINE
  5
137
100
AcDbEntity
  8
図
  6
CONTINUOUS
 62
     6
100
AcDbLine
 10
1534.24999
 20
1481.5
 30
0.0
 11
1534.24999
 21
1487.5
 31
0.0
  0
LINE
  5
138
100
AcDbEntity
  8
図
  6
CONTINUOUS
 62
     6
100
AcDbLine
 10
1490.49999
 20
1487.5
 30
0.0
 11
1490.49999
 21
1489.5
 31
0.0
  0
LINE
  5
139
100
AcDbEntity
  8
図
  6
CONTINUOUS
 62
     6
100
AcDbLine
 10
1539.49999
 20
1487.5
 30
0.0
 11
1539.49999
 21
1489.5
 31
0.0
  0
LINE
  5
13A
100
AcDbEntity
  8
図
  6
CONTINUOUS
 62
     6
100
AcDbLine
 10
1497.49999
 20
1465.150971
 30
0.0
 11
1497.49999
 21
1475.449029
 31
0.0
  0
LINE
  5
13B
100
AcDbEntity
  8
図
  6
CONTINUOUS
 62
     6
100
AcDbLine
 10
1532.49999
 20
1465.150971
 30
0.0
 11
1532.49999
 21
1475.449029
 31
0.0
  0
ARC
  5
13C
100
AcDbEntity
  8
図
  6
CONTINUOUS
 62
     6
100
AcDbCircle
 10
1525.79999
 20
1470.3
 30
0.0
 40
8.45
100
AcDbArc
 50
37.542703
 51
45.23973
  0
ARC
  5
13D
100
AcDbEntity
  8
図
  6
CONTINUOUS
 62
     6
100
AcDbCircle
 10
1504.19999
 20
1470.3
 30
0.0
 40
8.45
100
AcDbArc
 50
134.76027
 51
142.457297
  0
LINE
  5
13E
100
AcDbEntity
  8
図
  6
CONTINUOUS
 62
     6
100
AcDbLine
 10
1498.99999
 20
1481.5
 30
0.0
 11
1498.99999
 21
1476.3
 31
0.0
  0
LINE
  5
13F
100
AcDbEntity
  8
図
  6
CONTINUOUS
 62
     6
100
AcDbLine
 10
1530.99999
 20
1481.5
 30
0.0
 11
1530.99999
 21
1476.3
 31
0.0
  0
LINE
  5
140
100
AcDbEntity
  8
図
  6
CONTINUOUS
 62
     6
100
AcDbLine
 10
1489.49999
 20
1490.5
 30
0.0
 11
1489.49999
 21
1489.5
 31
0.0
  0
LINE
  5
141
100
AcDbEntity
  8
図
  6
CONTINUOUS
 62
     6
100
AcDbLine
 10
1540.49999
 20
1490.5
 30
0.0
 11
1540.49999
 21
1489.5
 31
0.0
  0
ARC
  5
142
100
AcDbEntity
  8
図
  6
CONTINUOUS
 62
     6
100
AcDbCircle
 10
1525.79999
 20
1470.3
 30
0.0
 40
8.45
100
AcDbArc
 50
314.76027
 51
322.457297
  0
ARC
  5
143
100
AcDbEntity
  8
図
  6
CONTINUOUS
 62
     6
100
AcDbCircle
 10
1504.19999
 20
1470.3
 30
0.0
 40
8.45
100
AcDbArc
 50
217.542703
 51
225.23973
  0
LINE
  5
144
100
AcDbEntity
  8
図
  6
CONTINUOUS
 62
     6
100
AcDbLine
 10
1527.69999
 20
1339.340192
 30
0.0
 11
1528.54999
 21
1340.812436
 31
0.0
  0
LINE
  5
145
100
AcDbEntity
  8
図
  6
CONTINUOUS
 62
     6
100
AcDbLine
 10
1502.29999
 20
1339.340192
 30
0.0
 11
1501.44999
 21
1340.812436
 31
0.0
  0
LINE
  5
146
100
AcDbEntity
  8
図
  6
CONTINUOUS
 62
     6
100
AcDbLine
 10
1502.29999
 20
1464.3
 30
0.0
 11
1502.29999
 21
1399.0
 31
0.0
  0
LINE
  5
147
100
AcDbEntity
  8
図
  6
CONTINUOUS
 62
     6
100
AcDbLine
 10
1527.69999
 20
1464.3
 30
0.0
 11
1527.69999
 21
1399.0
 31
0.0
  0
LINE
  5
148
100
AcDbEntity
  8
図
  6
CONTINUOUS
 62
     6
100
AcDbLine
 10
1497.49999
 20
1398.149029
 30
0.0
 11
1497.49999
 21
1387.850971
 31
0.0
  0
LINE
  5
149
100
AcDbEntity
  8
図
  6
CONTINUOUS
 62
     6
100
AcDbLine
 10
1532.49999
 20
1398.149029
 30
0.0
 11
1532.49999
 21
1387.850971
 31
0.0
  0
ARC
  5
14A
100
AcDbEntity
  8
図
  6
CONTINUOUS
 62
     6
100
AcDbCircle
 10
1525.79999
 20
1393.0
 30
0.0
 40
8.45
100
AcDbArc
 50
314.76027
 51
322.457297
  0
ARC
  5
14B
100
AcDbEntity
  8
図
  6
CONTINUOUS
 62
     6
100
AcDbCircle
 10
1525.79999
 20
1393.0
 30
0.0
 40
8.45
100
AcDbArc
 50
37.542703
 51
45.23973
  0
ARC
  5
14C
100
AcDbEntity
  8
図
  6
CONTINUOUS
 62
     6
100
AcDbCircle
 10
1504.19999
 20
1393.0
 30
0.0
 40
8.45
100
AcDbArc
 50
134.76027
 51
142.457297
  0
ARC
  5
14D
100
AcDbEntity
  8
図
  6
CONTINUOUS
 62
     6
100
AcDbCircle
 10
1504.19999
 20
1393.0
 30
0.0
 40
8.45
100
AcDbArc
 50
217.542703
 51
225.23973
  0
LINE
  5
14E
100
AcDbEntity
  8
図
  6
CONTINUOUS
 62
     6
100
AcDbLine
 10
1456.791749
 20
1328.0
 30
0.0
 11
1456.791749
 21
1322.7
 31
0.0
  0
LINE
  5
14F
100
AcDbEntity
  8
図
  6
CONTINUOUS
 62
     6
100
AcDbLine
 10
1482.191749
 20
1322.7
 30
0.0
 11
1482.191749
 21
1328.0
 31
0.0
  0
ARC
  5
150
100
AcDbEntity
  8
図
  6
CONTINUOUS
 62
     6
100
AcDbCircle
 10
1501.491749
 20
1328.0
 30
0.0
 40
44.7
100
AcDbArc
 50
90.0
 51
180.0
  0
ARC
  5
151
100
AcDbEntity
  8
図
  6
CONTINUOUS
 62
     6
100
AcDbCircle
 10
1501.491749
 20
1328.0
 30
0.0
 40
19.3
100
AcDbArc
 50
90.0
 51
180.0
  0
ELLIPSE
  5
152
100
AcDbEntity
  8
図
  6
CONTINUOUS
 62
     6
100
AcDbEllipse
 10
1460.741749
 20
1316.7
 30
0.0
 11
6.9450971915400004
 21
0.0
 31
0.0
210
0.0
220
0.0
230
1.0
 40
0.74139
 41
0.0
 42
6.2831853071796004
  0
LINE
  5
153
100
AcDbEntity
  8
図
  6
CONTINUOUS
 62
     6
100
AcDbLine
 10
1452.741749
 20
1322.7
 30
0.0
 11
1486.241749
 21
1322.7
 31
0.0
  0
LINE
  5
154
100
AcDbEntity
  8
図
  6
CONTINUOUS
 62
     6
100
AcDbLine
 10
1451.991749
 20
1321.849029
 30
0.0
 11
1451.991749
 21
1311.550971
 31
0.0
  0
LINE
  5
155
100
AcDbEntity
  8
図
  6
CONTINUOUS
 62
     6
100
AcDbLine
 10
1486.991749
 20
1321.849029
 30
0.0
 11
1486.991749
 21
1311.550971
 31
0.0
  0
ARC
  5
156
100
AcDbEntity
  8
図
  6
CONTINUOUS
 62
     6
100
AcDbCircle
 10
1480.291749
 20
1316.7
 30
0.0
 40
8.45
100
AcDbArc
 50
314.76027
 51
322.457297
  0
ARC
  5
157
100
AcDbEntity
  8
図
  6
CONTINUOUS
 62
     6
100
AcDbCircle
 10
1480.291749
 20
1316.7
 30
0.0
 40
8.45
100
AcDbArc
 50
37.542703
 51
45.23973
  0
ARC
  5
158
100
AcDbEntity
  8
図
  6
CONTINUOUS
 62
     6
100
AcDbCircle
 10
1458.691749
 20
1316.7
 30
0.0
 40
8.45
100
AcDbArc
 50
134.76027
 51
142.457297
  0
ARC
  5
159
100
AcDbEntity
  8
図
  6
CONTINUOUS
 62
     6
100
AcDbCircle
 10
1458.691749
 20
1316.7
 30
0.0
 40
8.45
100
AcDbArc
 50
217.542703
 51
225.23973
  0
LINE
  5
15A
100
AcDbEntity
  8
図
  6
CONTINUOUS
 62
     6
100
AcDbLine
 10
1456.791749
 20
1310.7
 30
0.0
 11
1456.791749
 21
1300.754121
 31
0.0
  0
LINE
  5
15B
100
AcDbEntity
  8
図
  6
CONTINUOUS
 62
     6
100
AcDbLine
 10
1482.191749
 20
1300.754121
 30
0.0
 11
1482.191749
 21
1310.7
 31
0.0
  0
ARC
  5
15C
100
AcDbEntity
  8
図
  6
CONTINUOUS
 62
     6
100
AcDbCircle
 10
1586.999959
 20
1376.000061
 30
0.0
 40
13.999996
100
AcDbArc
 50
90.0
 51
180.0
  0
ARC
  5
15D
100
AcDbEntity
  8
図
  6
CONTINUOUS
 62
     6
100
AcDbCircle
 10
1586.999959
 20
1343.999939
 30
0.0
 40
13.999996
100
AcDbArc
 50
180.0
 51
270.0
  0
LINE
  5
15E
100
AcDbEntity
  8
図
  6
CONTINUOUS
 62
     6
100
AcDbLine
 10
1586.999959
 20
1390.0
 30
0.0
 11
1589.99999
 21
1390.0
 31
0.0
  0
LINE
  5
15F
100
AcDbEntity
  8
図
  6
CONTINUOUS
 62
     6
100
AcDbLine
 10
1586.999959
 20
1330.0
 30
0.0
 11
1589.99999
 21
1330.0
 31
0.0
  0
LINE
  5
160
100
AcDbEntity
  8
図
  6
CONTINUOUS
 62
     6
100
AcDbLine
 10
1573.000021
 20
1343.999939
 30
0.0
 11
1573.000021
 21
1376.000061
 31
0.0
  0
LINE
  5
161
100
AcDbEntity
  8
図
  6
CONTINUOUS
 62
     6
100
AcDbLine
 10
1589.99999
 20
1390.0
 30
0.0
 11
1589.99999
 21
1330.0
 31
0.0
  0
LINE
  5
162
100
AcDbEntity
  8
図
  6
CONTINUOUS
 62
     6
100
AcDbLine
 10
1619.99999
 20
1372.7
 30
0.0
 11
1619.99999
 21
1347.3
 31
0.0
  0
LINE
  5
163
100
AcDbEntity
  8
図
  6
CONTINUOUS
 62
     6
100
AcDbLine
 10
1589.99999
 20
1372.7
 30
0.0
 11
1619.99999
 21
1372.7
 31
0.0
  0
LINE
  5
164
100
AcDbEntity
  8
図
  6
CONTINUOUS
 62
     6
100
AcDbLine
 10
1589.99999
 20
1347.3
 30
0.0
 11
1619.99999
 21
1347.3
 31
0.0
  0
LINE
  5
165
100
AcDbEntity
  8
図
  6
CONTINUOUS
 62
     6
100
AcDbLine
 10
1501.44999
 20
1340.812436
 30
0.0
 11
1501.44999
 21
1347.299955
 31
0.0
  0
LINE
  5
166
100
AcDbEntity
  8
図
  6
CONTINUOUS
 62
     6
100
AcDbLine
 10
1501.44999
 20
1372.69998
 30
0.0
 11
1501.44999
 21
1387.0
 31
0.0
  0
LINE
  5
167
100
AcDbEntity
  8
図
  6
CONTINUOUS
 62
     6
100
AcDbLine
 10
1528.54999
 20
1340.812436
 30
0.0
 11
1528.54999
 21
1347.3
 31
0.0
  0
LINE
  5
168
100
AcDbEntity
  8
図
  6
CONTINUOUS
 62
     6
100
AcDbLine
 10
1528.54999
 20
1372.7
 30
0.0
 11
1528.54999
 21
1387.0
 31
0.0
  0
LINE
  5
169
100
AcDbEntity
  8
図
  6
CONTINUOUS
 62
     6
100
AcDbLine
 10
1553.000021
 20
1360.0
 30
0.0
 11
1629.99999
 21
1360.0
 31
0.0
  0
LINE
  5
16A
100
AcDbEntity
  8
図
  6
CONTINUOUS
 62
     6
100
AcDbLine
 10
1501.491749
 20
1372.7
 30
0.0
 11
1508.64999
 21
1372.7
 31
0.0
  0
LINE
  5
16B
100
AcDbEntity
  8
図
  6
CONTINUOUS
 62
     6
100
AcDbLine
 10
1521.34999
 20
1372.7
 30
0.0
 11
1573.000021
 21
1372.7
 31
0.0
  0
LINE
  5
16C
100
AcDbEntity
  8
図
  6
CONTINUOUS
 62
     6
100
AcDbLine
 10
1521.34999
 20
1347.3
 30
0.0
 11
1573.000021
 21
1347.3
 31
0.0
  0
LINE
  5
16D
100
AcDbEntity
  8
図
  6
CONTINUOUS
 62
     6
100
AcDbLine
 10
1501.491749
 20
1347.3
 30
0.0
 11
1508.64999
 21
1347.3
 31
0.0
  0
LINE
  5
16E
100
AcDbEntity
  8
図
  6
CONTINUOUS
 62
     6
100
AcDbLine
 10
1502.29999
 20
1339.340192
 30
0.0
 11
1508.64999
 21
1339.340192
 31
0.0
  0
LINE
  5
16F
100
AcDbEntity
  8
図
  6
CONTINUOUS
 62
     6
100
AcDbLine
 10
1521.34999
 20
1339.340192
 30
0.0
 11
1527.69999
 21
1339.340192
 31
0.0
  0
LINE
  5
170
100
AcDbEntity
  8
図
  6
CONTINUOUS
 62
     6
100
AcDbLine
 10
1498.24999
 20
1387.0
 30
0.0
 11
1508.64999
 21
1387.0
 31
0.0
  0
LINE
  5
171
100
AcDbEntity
  8
図
  6
CONTINUOUS
 62
     6
100
AcDbLine
 10
1521.34999
 20
1387.0
 30
0.0
 11
1531.74999
 21
1387.0
 31
0.0
  0
LINE
  5
172
100
AcDbEntity
  8
図
  6
CONTINUOUS
 62
     6
100
AcDbLine
 10
1521.34999
 20
1399.0
 30
0.0
 11
1531.74999
 21
1399.0
 31
0.0
  0
LINE
  5
173
100
AcDbEntity
  8
図
  6
CONTINUOUS
 62
     6
100
AcDbLine
 10
1498.24999
 20
1399.0
 30
0.0
 11
1508.64999
 21
1399.0
 31
0.0
  0
ELLIPSE
  5
174
100
AcDbEntity
  8
図
  6
CONTINUOUS
 62
     6
100
AcDbEllipse
 10
1506.24999
 20
1393.0
 30
0.0
 11
6.9450971915400004
 21
0.0
 31
0.0
210
0.0
220
0.0
230
1.0
 40
0.74139
 41
1.2179528329088276
 42
5.0652324742707613
  0
ELLIPSE
  5
175
100
AcDbEntity
  8
図
  6
CONTINUOUS
 62
     6
100
AcDbEllipse
 10
1523.74999
 20
1393.0
 30
0.0
 11
-6.9450971915400004
 21
0.0000000000000009
 31
0.0
210
0.0
220
0.0
230
1.0
 40
0.74139
 41
1.2179528329081213
 42
5.0652324742714656
  0
LINE
  5
176
100
AcDbEntity
  8
図
  6
CONTINUOUS
 62
     6
100
AcDbLine
 10
1498.24999
 20
1464.3
 30
0.0
 11
1508.64999
 21
1464.3
 31
0.0
  0
ELLIPSE
  5
177
100
AcDbEntity
  8
図
  6
CONTINUOUS
 62
     6
100
AcDbEllipse
 10
1506.24999
 20
1470.3
 30
0.0
 11
-6.9450971915400004
 21
0.0000000000000009
 31
0.0
210
0.0
220
0.0
230
1.0
 40
0.74139
 41
4.3595454864986234
 42
1.9236398206810268
  0
ELLIPSE
  5
178
100
AcDbEntity
  8
図
  6
CONTINUOUS
 62
     6
100
AcDbEllipse
 10
1523.74999
 20
1470.3
 30
0.0
 11
6.9450971915400004
 21
0.0
 31
0.0
210
0.0
220
0.0
230
1.0
 40
0.74139
 41
4.3595454864986234
 42
1.9236398206809646
  0
LINE
  5
179
100
AcDbEntity
  8
図
  6
CONTINUOUS
 62
     6
100
AcDbLine
 10
1521.34999
 20
1464.3
 30
0.0
 11
1531.74999
 21
1464.3
 31
0.0
  0
LINE
  5
17A
100
AcDbEntity
  8
図
  6
CONTINUOUS
 62
     6
100
AcDbLine
 10
1521.34999
 20
1476.3
 30
0.0
 11
1531.74999
 21
1476.3
 31
0.0
  0
LINE
  5
17B
100
AcDbEntity
  8
図
  6
CONTINUOUS
 62
     6
100
AcDbLine
 10
1498.24999
 20
1476.3
 30
0.0
 11
1508.64999
 21
1476.3
 31
0.0
  0
LINE
  5
17C
100
AcDbEntity
  8
図
  6
CONTINUOUS
 62
     6
100
AcDbLine
 10
1521.34999
 20
1481.5
 30
0.0
 11
1534.24999
 21
1481.5
 31
0.0
  0
LINE
  5
17D
100
AcDbEntity
  8
図
  6
CONTINUOUS
 62
     6
100
AcDbLine
 10
1495.74999
 20
1481.5
 30
0.0
 11
1508.64999
 21
1481.5
 31
0.0
  0
LINE
  5
17E
100
AcDbEntity
  8
図
  6
CONTINUOUS
 62
     6
100
AcDbLine
 10
1490.49999
 20
1487.5
 30
0.0
 11
1508.64999
 21
1487.5
 31
0.0
  0
LINE
  5
17F
100
AcDbEntity
  8
図
  6
CONTINUOUS
 62
     6
100
AcDbLine
 10
1521.34999
 20
1487.5
 30
0.0
 11
1539.49999
 21
1487.5
 31
0.0
  0
LINE
  5
180
100
AcDbEntity
  8
図
  6
CONTINUOUS
 62
     6
100
AcDbLine
 10
1489.49999
 20
1489.5
 30
0.0
 11
1508.64999
 21
1489.5
 31
0.0
  0
LINE
  5
181
100
AcDbEntity
  8
図
  6
CONTINUOUS
 62
     6
100
AcDbLine
 10
1521.34999
 20
1489.5
 30
0.0
 11
1540.49999
 21
1489.5
 31
0.0
  0
ARC
  5
182
100
AcDbEntity
  8
図
  6
CONTINUOUS
 62
     6
100
AcDbCircle
 10
1505.37499
 20
1495.707031
 30
0.0
 40
14.207031
100
AcDbArc
 50
239.229636
 51
270.0
  0
ARC
  5
183
100
AcDbEntity
  8
図
  6
CONTINUOUS
 62
     6
100
AcDbCircle
 10
1524.62499
 20
1495.707031
 30
0.0
 40
14.207031
100
AcDbArc
 50
270.0
 51
300.770364
  0
LINE
  5
184
100
AcDbEntity
  8
図
  6
CONTINUOUS
 62
     6
100
AcDbLine
 10
1517.29999
 20
800.0
 30
0.0
 11
1542.69999
 21
800.0
 31
0.0
  0
LINE
  5
185
100
AcDbEntity
  8
図
  6
CONTINUOUS
 62
     6
100
AcDbLine
 10
1517.29999
 20
1000.0
 30
0.0
 11
1517.29999
 21
800.0
 31
0.0
  0
LINE
  5
186
100
AcDbEntity
  8
図
  6
CONTINUOUS
 62
     6
100
AcDbLine
 10
1542.69999
 20
800.0
 30
0.0
 11
1542.69999
 21
1000.0
 31
0.0
  0
LINE
  5
187
100
AcDbEntity
  8
図
  6
CONTINUOUS
 62
     2
100
AcDbLine
 10
1561.073507
 20
1657.530038
 30
0.0
 11
1569.054019
 21
1656.971987
 31
0.0
  0
LINE
  5
188
100
AcDbEntity
  8
図
  6
CONTINUOUS
 62
     2
100
AcDbLine
 10
1561.073507
 20
1657.530038
 30
0.0
 11
1559.469108
 21
1634.586065
 31
0.0
  0
LINE
  5
189
100
AcDbEntity
  8
図
  6
CONTINUOUS
 62
     2
100
AcDbLine
 10
1559.469108
 20
1634.586065
 30
0.0
 11
1567.44962
 21
1634.028013
 31
0.0
  0
LINE
  5
18A
100
AcDbEntity
  8
図
  6
CONTINUOUS
 62
     6
100
AcDbLine
 10
1540.49999
 20
823.0
 30
0.0
 11
1519.49999
 21
823.0
 31
0.0
  0
LINE
  5
18B
100
AcDbEntity
  8
図
  6
CONTINUOUS
 62
     6
100
AcDbLine
 10
1519.49999
 20
1000.0
 30
0.0
 11
1519.49999
 21
823.0
 31
0.0
  0
LINE
  5
18C
100
AcDbEntity
  8
図
  6
CONTINUOUS
 62
     6
100
AcDbLine
 10
1540.49999
 20
1000.0
 30
0.0
 11
1540.49999
 21
823.0
 31
0.0
  0
LINE
  5
18D
100
AcDbEntity
  8
図
  6
CONTINUOUS
 62
     6
100
AcDbLine
 10
1563.25182
 20
1645.5
 30
0.0
 11
1641.25182
 21
1645.5
 31
0.0
  0
LINE
  5
18E
100
AcDbEntity
  8
図
  6
CONTINUOUS
 62
     6
100
AcDbLine
 10
1589.99999
 20
1647.464373
 30
0.0
 11
1631.25182
 21
1645.5
 31
0.0
  0
LINE
  5
18F
100
AcDbEntity
  8
図
  6
CONTINUOUS
 62
     6
100
AcDbLine
 10
1589.99999
 20
1643.535627
 30
0.0
 11
1631.25182
 21
1645.5
 31
0.0
  0
ELLIPSE
  5
190
100
AcDbEntity
  8
図
  6
CONTINUOUS
 62
     6
100
AcDbEllipse
 10
1478.241749
 20
1316.7
 30
0.0
 11
-6.9450971915400004
 21
0.0000000000000009
 31
0.0
210
0.0
220
0.0
230
1.0
 40
0.74139
 41
0.0
 42
6.2831853071796004
  0
LINE
  5
191
100
AcDbEntity
  8
図
  6
CONTINUOUS
 62
     6
100
AcDbLine
 10
1452.741749
 20
1310.7
 30
0.0
 11
1486.241749
 21
1310.7
 31
0.0
  0
TEXT
  5
192
100
AcDbEntity
  8
図
  6
CONTINUOUS
 62
     2
100
AcDbText
 10
1266.5
 20
830.0
 30
0.0
 40
40.0
  1
F.L.
 41
0.4125
  7
EXCADSTD
 72
     5
 11
1326.9956
 21
830.0
 31
0.0
100
AcDbText
  0
LINE
  5
193
100
AcDbEntity
  8
図
  6
EXLTYPE4
 62
     6
100
AcDbLine
 10
1240.0
 20
830.0
 30
0.0
 11
1589.99999
 21
830.0
 31
0.0
  0
TEXT
  5
194
100
AcDbEntity
  8
図
  6
CONTINUOUS
 62
     2
100
AcDbText
 10
1589.99999
 20
1936.00001
 30
0.0
 40
40.0
  1
W.L.
 50
90.0
 41
0.4125
  7
EXCADSTD
 72
     5
 11
1589.99999
 21
1996.49561
 31
0.0
100
AcDbText
  0
LINE
  5
195
100
AcDbEntity
  8
図
  6
EXLTYPE4
 62
     6
100
AcDbLine
 10
1589.99999
 20
830.0
 30
0.0
 11
1589.99999
 21
2004.0
 31
0.0
  0
TEXT
  5
196
100
AcDbEntity
  8
図
  6
CONTINUOUS
 62
     2
100
AcDbText
 10
1037.0
 20
2486.0
 30
0.0
 40
40.0
  1
W.L.
 41
0.4125
  7
EXCADSTD
 72
     5
 11
1097.4956
 21
2486.0
 31
0.0
100
AcDbText
  0
LINE
  5
197
100
AcDbEntity
  8
図
  6
EXLTYPE4
 62
     6
100
AcDbLine
 10
1118.0
 20
2526.0
 30
0.0
 11
274.0
 21
2526.0
 31
0.0
  0
CIRCLE
  5
198
100
AcDbEntity
  8
図
  6
CONTINUOUS
 62
     2
100
AcDbCircle
 10
642.0
 20
2451.0
 30
0.0
 40
30.5
  0
CIRCLE
  5
199
100
AcDbEntity
  8
図
  6
CONTINUOUS
 62
     2
100
AcDbCircle
 10
642.0
 20
2451.0
 30
0.0
 40
20.5
  0
LINE
  5
19A
100
AcDbEntity
  8
図
  6
CONTINUOUS
 62
     2
100
AcDbLine
 10
562.0
 20
2485.631825
 30
0.0
 11
562.0
 21
2401.0
 31
0.0
  0
ARC
  5
19B
100
AcDbEntity
  8
図
  6
CONTINUOUS
 62
     2
100
AcDbCircle
 10
572.0
 20
2485.631825
 30
0.0
 40
10.0
100
AcDbArc
 50
90.0
 51
180.0
  0
LINE
  5
19C
100
AcDbEntity
  8
図
  6
CONTINUOUS
 62
     2
100
AcDbLine
 10
682.0
 20
2495.631825
 30
0.0
 11
572.0
 21
2495.631825
 31
0.0
  0
ARC
  5
19D
100
AcDbEntity
  8
図
  6
CONTINUOUS
 62
     2
100
AcDbCircle
 10
682.0
 20
2485.631825
 30
0.0
 40
10.0
100
AcDbArc
 50
0.0
 51
90.0
  0
ARC
  5
19E
100
AcDbEntity
  8
図
  6
CONTINUOUS
 62
     2
100
AcDbCircle
 10
682.0
 20
2401.0
 30
0.0
 40
10.0
100
AcDbArc
 50
270.0
 51
0.0
  0
LINE
  5
19F
100
AcDbEntity
  8
図
  6
CONTINUOUS
 62
     2
100
AcDbLine
 10
682.0
 20
2391.0
 30
0.0
 11
572.0
 21
2391.0
 31
0.0
  0
ARC
  5
1A0
100
AcDbEntity
  8
図
  6
CONTINUOUS
 62
     2
100
AcDbCircle
 10
572.0
 20
2401.0
 30
0.0
 40
10.0
100
AcDbArc
 50
180.0
 51
270.0
  0
LINE
  5
1A1
100
AcDbEntity
  8
図
  6
CONTINUOUS
 62
     2
100
AcDbLine
 10
491.0
 20
2510.0
 30
0.0
 11
491.0
 21
2526.0
 31
0.0
  0
ARC
  5
1A2
100
AcDbEntity
  8
図
  6
CONTINUOUS
 62
     2
100
AcDbCircle
 10
493.5
 20
2510.0
 30
0.0
 40
4.0
100
AcDbArc
 50
180.0
 51
270.0
  0
ARC
  5
1A3
100
AcDbEntity
  8
図
  6
CONTINUOUS
 62
     2
100
AcDbCircle
 10
495.0
 20
2510.0
 30
0.0
 40
4.0
100
AcDbArc
 50
180.0
 51
270.0
  0
LINE
  5
1A4
100
AcDbEntity
  8
図
  6
CONTINUOUS
 62
     2
100
AcDbLine
 10
489.5
 20
2526.0
 30
0.0
 11
844.5
 21
2526.0
 31
0.0
  0
LINE
  5
1A5
100
AcDbEntity
  8
図
  6
CONTINUOUS
 62
     2
100
AcDbLine
 10
843.0
 20
2510.0
 30
0.0
 11
843.0
 21
2526.0
 31
0.0
  0
ARC
  5
1A6
100
AcDbEntity
  8
図
  6
CONTINUOUS
 62
     2
100
AcDbCircle
 10
840.5
 20
2510.0
 30
0.0
 40
4.0
100
AcDbArc
 50
270.0
 51
0.0
  0
ARC
  5
1A7
100
AcDbEntity
  8
図
  6
CONTINUOUS
 62
     2
100
AcDbCircle
 10
839.0
 20
2510.0
 30
0.0
 40
4.0
100
AcDbArc
 50
270.0
 51
0.0
  0
LINE
  5
1A8
100
AcDbEntity
  8
図
  6
CONTINUOUS
 62
     2
100
AcDbLine
 10
493.5
 20
2506.0
 30
0.0
 11
840.5
 21
2506.0
 31
0.0
  0
LINE
  5
1A9
100
AcDbEntity
  8
図
  6
CONTINUOUS
 62
     2
100
AcDbLine
 10
489.5
 20
2526.0
 30
0.0
 11
489.5
 21
2354.117584
 31
0.0
  0
LINE
  5
1AA
100
AcDbEntity
  8
図
  6
CONTINUOUS
 62
     2
100
AcDbLine
 10
844.5
 20
2526.0
 30
0.0
 11
844.5
 21
2354.117584
 31
0.0
  0
ARC
  5
1AB
100
AcDbEntity
  8
図
  6
CONTINUOUS
 62
     2
100
AcDbCircle
 10
507.5
 20
2491.804391
 30
0.0
 40
10.0
100
AcDbArc
 50
90.0
 51
180.0
  0
LINE
  5
1AC
100
AcDbEntity
  8
図
  6
CONTINUOUS
 62
     2
100
AcDbLine
 10
497.5
 20
2491.804391
 30
0.0
 11
497.5
 21
2354.117584
 31
0.0
  0
ARC
  5
1AD
100
AcDbEntity
  8
図
  6
CONTINUOUS
 62
     2
100
AcDbCircle
 10
509.5
 20
2354.117584
 30
0.0
 40
12.0
100
AcDbArc
 50
180.0
 51
267.73205
  0
ARC
  5
1AE
100
AcDbEntity
  8
図
  6
CONTINUOUS
 62
     2
100
AcDbCircle
 10
509.5
 20
2354.117584
 30
0.0
 40
20.0
100
AcDbArc
 50
180.0
 51
267.73205
  0
ARC
  5
1AF
100
AcDbEntity
  8
図
  6
CONTINUOUS
 62
     2
100
AcDbCircle
 10
667.0
 20
6331.0
 30
0.0
 40
3992.0
100
AcDbArc
 50
267.73205
 51
272.26795
  0
ARC
  5
1B0
100
AcDbEntity
  8
図
  6
CONTINUOUS
 62
     2
100
AcDbCircle
 10
667.0
 20
6331.0
 30
0.0
 40
4000.0
100
AcDbArc
 50
267.73205
 51
272.26795
  0
ARC
  5
1B1
100
AcDbEntity
  8
図
  6
CONTINUOUS
 62
     2
100
AcDbCircle
 10
824.5
 20
2354.117584
 30
0.0
 40
12.0
100
AcDbArc
 50
272.26795
 51
0.0
  0
ARC
  5
1B2
100
AcDbEntity
  8
図
  6
CONTINUOUS
 62
     2
100
AcDbCircle
 10
824.5
 20
2354.117584
 30
0.0
 40
20.0
100
AcDbArc
 50
272.26795
 51
0.0
  0
ARC
  5
1B3
100
AcDbEntity
  8
図
  6
CONTINUOUS
 62
     2
100
AcDbCircle
 10
728.0
 20
2349.467255
 30
0.0
 40
10.0
100
AcDbArc
 50
270.877745
 51
0.0
  0
ARC
  5
1B4
100
AcDbEntity
  8
図
  6
CONTINUOUS
 62
     2
100
AcDbCircle
 10
728.0
 20
2491.804391
 30
0.0
 40
10.0
100
AcDbArc
 50
0.0
 51
90.0
  0
ARC
  5
1B5
100
AcDbEntity
  8
図
  6
CONTINUOUS
 62
     2
100
AcDbCircle
 10
826.5
 20
2491.804391
 30
0.0
 40
10.0
100
AcDbArc
 50
0.0
 51
90.0
  0
LINE
  5
1B6
100
AcDbEntity
  8
図
  6
CONTINUOUS
 62
     2
100
AcDbLine
 10
836.5
 20
2491.804391
 30
0.0
 11
836.5
 21
2354.117584
 31
0.0
  0
LINE
  5
1B7
100
AcDbEntity
  8
図
  6
EXLTYPE3
 62
     6
100
AcDbLine
 10
594.0
 20
2451.0
 30
0.0
 11
853.0
 21
2451.0
 31
0.0
  0
LINE
  5
1B8
100
AcDbEntity
  8
図
  6
EXLTYPE3
 62
     6
100
AcDbLine
 10
642.0
 20
2495.631825
 30
0.0
 11
642.0
 21
2391.0
 31
0.0
  0
LINE
  5
1B9
100
AcDbEntity
  8
図
  6
EXLTYPE3
 62
     6
100
AcDbLine
 10
667.0
 20
2537.77232
 30
0.0
 11
667.0
 21
2317.0
 31
0.0
  0
LINE
  5
1BA
100
AcDbEntity
  8
図
  6
CONTINUOUS
 62
     6
100
AcDbLine
 10
497.5
 20
2354.117584
 30
0.0
 11
562.0
 21
2401.0
 31
0.0
  0
LINE
  5
1BB
100
AcDbEntity
  8
図
  6
CONTINUOUS
 62
     6
100
AcDbLine
 10
509.025126
 20
2342.126984
 30
0.0
 11
572.0
 21
2391.0
 31
0.0
  0
LINE
  5
1BC
100
AcDbEntity
  8
図
  6
CONTINUOUS
 62
     6
100
AcDbLine
 10
738.0
 20
2349.467255
 30
0.0
 11
692.0
 21
2401.0
 31
0.0
  0
LINE
  5
1BD
100
AcDbEntity
  8
図
  6
CONTINUOUS
 62
     6
100
AcDbLine
 10
682.0
 20
2391.0
 30
0.0
 11
728.153189
 21
2339.468428
 31
0.0
  0
LINE
  5
1BE
100
AcDbEntity
  8
図
  6
CONTINUOUS
 62
     6
100
AcDbLine
 10
738.0
 20
2491.804391
 30
0.0
 11
692.0
 21
2485.631825
 31
0.0
  0
LINE
  5
1BF
100
AcDbEntity
  8
図
  6
CONTINUOUS
 62
     6
100
AcDbLine
 10
682.0
 20
2495.631825
 30
0.0
 11
728.0
 21
2501.804391
 31
0.0
  0
LINE
  5
1C0
100
AcDbEntity
  8
図
  6
CONTINUOUS
 62
     6
100
AcDbLine
 10
497.5
 20
2491.804391
 30
0.0
 11
562.0
 21
2485.631825
 31
0.0
  0
LINE
  5
1C1
100
AcDbEntity
  8
図
  6
CONTINUOUS
 62
     6
100
AcDbLine
 10
507.5
 20
2501.804391
 30
0.0
 11
572.0
 21
2495.631825
 31
0.0
  0
LINE
  5
1C2
100
AcDbEntity
  8
図
  6
CONTINUOUS
 62
     2
100
AcDbLine
 10
490.908381
 20
1666.593793
 30
0.0
 11
489.5011
 21
1606.593793
 31
0.0
  0
ARC
  5
1C3
100
AcDbEntity
  8
図
  6
CONTINUOUS
 62
     2
100
AcDbCircle
 10
494.907281
 20
1666.5
 30
0.0
 40
4.0
100
AcDbArc
 50
90.0
 51
178.656392
  0
ARC
  5
1C4
100
AcDbEntity
  8
図
  6
CONTINUOUS
 62
     2
100
AcDbCircle
 10
493.5
 20
1606.5
 30
0.0
 40
4.0
100
AcDbArc
 50
90.0
 51
183.703437
  0
LINE
  5
1C5
100
AcDbEntity
  8
図
  6
CONTINUOUS
 62
     2
100
AcDbLine
 10
843.091619
 20
1666.593793
 30
0.0
 11
844.4989
 21
1606.593793
 31
0.0
  0
ARC
  5
1C6
100
AcDbEntity
  8
図
  6
CONTINUOUS
 62
     2
100
AcDbCircle
 10
839.092719
 20
1666.5
 30
0.0
 40
4.0
100
AcDbArc
 50
1.343608
 51
90.0
  0
LINE
  5
1C7
100
AcDbEntity
  8
図
  6
CONTINUOUS
 62
     2
100
AcDbLine
 10
489.508353
 20
1606.241631
 30
0.0
 11
496.697268
 21
1495.177039
 31
0.0
  0
LINE
  5
1C8
100
AcDbEntity
  8
図
  6
CONTINUOUS
 62
     2
100
AcDbLine
 10
844.491647
 20
1606.241631
 30
0.0
 11
837.302732
 21
1495.177039
 31
0.0
  0
ARC
  5
1C9
100
AcDbEntity
  8
図
  6
CONTINUOUS
 62
     2
100
AcDbCircle
 10
501.686826
 20
1495.5
 30
0.0
 40
5.0
100
AcDbArc
 50
183.703437
 51
270.0
  0
ARC
  5
1CA
100
AcDbEntity
  8
図
  6
CONTINUOUS
 62
     2
100
AcDbCircle
 10
832.313174
 20
1495.5
 30
0.0
 40
5.0
100
AcDbArc
 50
270.0
 51
356.296563
  0
ARC
  5
1CB
100
AcDbEntity
  8
図
  6
CONTINUOUS
 62
     2
100
AcDbCircle
 10
840.5
 20
1606.5
 30
0.0
 40
4.0
100
AcDbArc
 50
356.296563
 51
90.0
  0
LINE
  5
1CC
100
AcDbEntity
  8
図
  6
CONTINUOUS
 62
     2
100
AcDbLine
 10
840.5
 20
1610.5
 30
0.0
 11
493.5
 21
1610.5
 31
0.0
  0
LINE
  5
1CD
100
AcDbEntity
  8
図
  6
CONTINUOUS
 62
     2
100
AcDbLine
 10
832.313174
 20
1490.5
 30
0.0
 11
501.686826
 21
1490.5
 31
0.0
  0
LINE
  5
1CE
100
AcDbEntity
  8
図
  6
CONTINUOUS
 62
     6
100
AcDbLine
 10
507.5
 20
1645.5
 30
0.0
 11
529.5
 21
1645.5
 31
0.0
  0
LINE
  5
1CF
100
AcDbEntity
  8
図
  6
CONTINUOUS
 62
     6
100
AcDbLine
 10
518.5
 20
1634.5
 30
0.0
 11
518.5
 21
1656.5
 31
0.0
  0
CIRCLE
  5
1D0
100
AcDbEntity
  8
図
  6
CONTINUOUS
 62
     2
100
AcDbCircle
 10
518.5
 20
1645.5
 30
0.0
 40
11.5
  0
LINE
  5
1D1
100
AcDbEntity
  8
図
  6
CONTINUOUS
 62
     6
100
AcDbLine
 10
826.5
 20
1645.5
 30
0.0
 11
804.5
 21
1645.5
 31
0.0
  0
LINE
  5
1D2
100
AcDbEntity
  8
図
  6
CONTINUOUS
 62
     6
100
AcDbLine
 10
815.5
 20
1634.5
 30
0.0
 11
815.5
 21
1656.5
 31
0.0
  0
CIRCLE
  5
1D3
100
AcDbEntity
  8
図
  6
CONTINUOUS
 62
     2
100
AcDbCircle
 10
815.5
 20
1645.5
 30
0.0
 40
11.5
  0
LINE
  5
1D4
100
AcDbEntity
  8
図
  6
CONTINUOUS
 62
     6
100
AcDbLine
 10
792.0
 20
1339.7
 30
0.0
 11
792.0
 21
1257.5
 31
0.0
  0
LINE
  5
1D5
100
AcDbEntity
  8
図
  6
CONTINUOUS
 62
     6
100
AcDbLine
 10
829.5
 20
1295.0
 30
0.0
 11
754.5
 21
1295.0
 31
0.0
  0
LINE
  5
1D6
100
AcDbEntity
  8
図
  6
CONTINUOUS
 62
     6
100
AcDbLine
 10
805.0
 20
1289.163691
 30
0.0
 11
805.0
 21
1300.836309
 31
0.0
  0
LINE
  5
1D7
100
AcDbEntity
  8
図
  6
CONTINUOUS
 62
     6
100
AcDbLine
 10
803.554392
 20
1303.340176
 30
0.0
 11
793.445608
 21
1309.176485
 31
0.0
  0
LINE
  5
1D8
100
AcDbEntity
  8
図
  6
CONTINUOUS
 62
     6
100
AcDbLine
 10
790.554392
 20
1309.176485
 30
0.0
 11
780.445608
 21
1303.340176
 31
0.0
  0
LINE
  5
1D9
100
AcDbEntity
  8
図
  6
CONTINUOUS
 62
     6
100
AcDbLine
 10
779.0
 20
1300.836309
 30
0.0
 11
779.0
 21
1289.163691
 31
0.0
  0
LINE
  5
1DA
100
AcDbEntity
  8
図
  6
CONTINUOUS
 62
     6
100
AcDbLine
 10
780.445608
 20
1286.659824
 30
0.0
 11
790.554392
 21
1280.823515
 31
0.0
  0
LINE
  5
1DB
100
AcDbEntity
  8
図
  6
CONTINUOUS
 62
     6
100
AcDbLine
 10
793.445608
 20
1280.823515
 30
0.0
 11
803.554392
 21
1286.659824
 31
0.0
  0
ARC
  5
1DC
100
AcDbEntity
  8
図
  6
CONTINUOUS
 62
     6
100
AcDbCircle
 10
792.0
 20
1295.0
 30
0.0
 40
14.25
100
AcDbArc
 50
264.177545
 51
275.822455
  0
ARC
  5
1DD
100
AcDbEntity
  8
図
  6
CONTINUOUS
 62
     6
100
AcDbCircle
 10
792.0
 20
1295.0
 30
0.0
 40
14.25
100
AcDbArc
 50
324.177545
 51
335.822455
  0
ARC
  5
1DE
100
AcDbEntity
  8
図
  6
CONTINUOUS
 62
     6
100
AcDbCircle
 10
792.0
 20
1295.0
 30
0.0
 40
14.25
100
AcDbArc
 50
24.177545
 51
35.822455
  0
ARC
  5
1DF
100
AcDbEntity
  8
図
  6
CONTINUOUS
 62
     6
100
AcDbCircle
 10
792.0
 20
1295.0
 30
0.0
 40
14.25
100
AcDbArc
 50
84.177545
 51
95.822455
  0
ARC
  5
1E0
100
AcDbEntity
  8
図
  6
CONTINUOUS
 62
     6
100
AcDbCircle
 10
792.0
 20
1295.0
 30
0.0
 40
14.25
100
AcDbArc
 50
144.177545
 51
155.822455
  0
ARC
  5
1E1
100
AcDbEntity
  8
図
  6
CONTINUOUS
 62
     6
100
AcDbCircle
 10
792.0
 20
1295.0
 30
0.0
 40
14.25
100
AcDbArc
 50
204.177545
 51
215.822455
  0
CIRCLE
  5
1E2
100
AcDbEntity
  8
図
  6
CONTINUOUS
 62
     6
100
AcDbCircle
 10
792.0
 20
1295.0
 30
0.0
 40
4.75
  0
CIRCLE
  5
1E3
100
AcDbEntity
  8
図
  6
CONTINUOUS
 62
     6
100
AcDbCircle
 10
792.0
 20
1295.0
 30
0.0
 40
12.074349
  0
LINE
  5
1E4
100
AcDbEntity
  8
図
  6
CONTINUOUS
 62
     6
100
AcDbLine
 10
802.5
 20
1317.7
 30
0.0
 11
802.5
 21
1303.948929
 31
0.0
  0
LINE
  5
1E5
100
AcDbEntity
  8
図
  6
CONTINUOUS
 62
     6
100
AcDbLine
 10
781.5
 20
1317.7
 30
0.0
 11
781.5
 21
1303.948929
 31
0.0
  0
LINE
  5
1E6
100
AcDbEntity
  8
図
  6
CONTINUOUS
 62
     6
100
AcDbLine
 10
781.030456
 20
1317.7
 30
0.0
 11
802.969544
 21
1317.7
 31
0.0
  0
LINE
  5
1E7
100
AcDbEntity
  8
図
  6
CONTINUOUS
 62
     6
100
AcDbLine
 10
781.030456
 20
1329.7
 30
0.0
 11
802.969544
 21
1329.7
 31
0.0
  0
LINE
  5
1E8
100
AcDbEntity
  8
図
  6
CONTINUOUS
 62
     6
100
AcDbLine
 10
780.5
 20
1328.792887
 30
0.0
 11
780.5
 21
1318.607113
 31
0.0
  0
LINE
  5
1E9
100
AcDbEntity
  8
図
  6
CONTINUOUS
 62
     6
100
AcDbLine
 10
803.5
 20
1328.792887
 30
0.0
 11
803.5
 21
1318.607113
 31
0.0
  0
ARC
  5
1EA
100
AcDbEntity
  8
図
  6
CONTINUOUS
 62
     6
100
AcDbCircle
 10
790.25
 20
1323.7
 30
0.0
 40
11.0
100
AcDbArc
 50
146.944269
 51
152.419801
  0
ARC
  5
1EB
100
AcDbEntity
  8
図
  6
CONTINUOUS
 62
     6
100
AcDbCircle
 10
790.25
 20
1323.7
 30
0.0
 40
11.0
100
AcDbArc
 50
207.580199
 51
213.055731
  0
ARC
  5
1EC
100
AcDbEntity
  8
図
  6
CONTINUOUS
 62
     6
100
AcDbCircle
 10
793.75
 20
1323.7
 30
0.0
 40
11.0
100
AcDbArc
 50
326.944269
 51
332.419801
  0
ARC
  5
1ED
100
AcDbEntity
  8
図
  6
CONTINUOUS
 62
     6
100
AcDbCircle
 10
793.75
 20
1323.7
 30
0.0
 40
11.0
100
AcDbArc
 50
27.580199
 51
33.055731
  0
ELLIPSE
  5
1EE
100
AcDbEntity
  8
図
  6
CONTINUOUS
 62
     6
100
AcDbEllipse
 10
786.249029
 20
1323.7
 30
0.0
 11
-0.0000000000000009
 21
-5.0928871968700005
 31
0.0
210
0.0
220
0.0
230
1.0
 40
0.93641
 41
0.0
 42
6.2831853071796004
  0
ELLIPSE
  5
1EF
100
AcDbEntity
  8
図
  6
CONTINUOUS
 62
     6
100
AcDbEllipse
 10
797.750971
 20
1323.7
 30
0.0
 11
0.0000000000000003
 21
5.0928871968700005
 31
0.0
210
0.0
220
0.0
230
1.0
 40
0.93641
 41
0.0
 42
6.2831853071796004
  0
ARC
  5
1F0
100
AcDbEntity
  8
図
  6
CONTINUOUS
 62
     6
100
AcDbCircle
 10
792.0
 20
1295.0
 30
0.0
 40
27.5
100
AcDbArc
 50
114.719851
 51
65.280149
  0
LINE
  5
1F1
100
AcDbEntity
  8
図
  6
CONTINUOUS
 62
     6
100
AcDbLine
 10
785.5
 20
1369.7
 30
0.0
 11
772.5
 21
1490.5
 31
0.0
  0
LINE
  5
1F2
100
AcDbEntity
  8
図
  6
CONTINUOUS
 62
     6
100
AcDbLine
 10
785.5
 20
1329.7
 30
0.0
 11
785.5
 21
1369.7
 31
0.0
  0
LINE
  5
1F3
100
AcDbEntity
  8
図
  6
CONTINUOUS
 62
     6
100
AcDbLine
 10
798.5
 20
1329.7
 30
0.0
 11
798.5
 21
1370.39749
 31
0.0
  0
LINE
  5
1F4
100
AcDbEntity
  8
図
  6
CONTINUOUS
 62
     6
100
AcDbLine
 10
798.5
 20
1370.39749
 30
0.0
 11
785.575061
 21
1490.5
 31
0.0
  0
ARC
  5
1F5
100
AcDbEntity
  8
図
  6
CONTINUOUS
 62
     6
100
AcDbCircle
 10
1531.10587
 20
1314.0
 30
0.0
 40
6.5
100
AcDbArc
 50
270.0
 51
318.84583
  0
ARC
  5
1F6
100
AcDbEntity
  8
図
  6
CONTINUOUS
 62
     6
100
AcDbCircle
 10
1531.10587
 20
1276.0
 30
0.0
 40
6.5
100
AcDbArc
 50
41.15417
 51
90.0
  0
LINE
  5
1F7
100
AcDbEntity
  8
図
  6
CONTINUOUS
 62
     6
100
AcDbLine
 10
1542.99999
 20
1307.25
 30
0.0
 11
1541.572531
 21
1309.722432
 31
0.0
  0
LINE
  5
1F8
100
AcDbEntity
  8
図
  6
CONTINUOUS
 62
     6
100
AcDbLine
 10
1542.99999
 20
1282.75
 30
0.0
 11
1541.572531
 21
1280.277568
 31
0.0
  0
LINE
  5
1F9
100
AcDbEntity
  8
図
  6
CONTINUOUS
 62
     6
100
AcDbLine
 10
1542.99999
 20
1307.25
 30
0.0
 11
1542.99999
 21
1282.75
 31
0.0
  0
LINE
  5
1FA
100
AcDbEntity
  8
図
  6
CONTINUOUS
 62
     6
100
AcDbLine
 10
1541.572531
 20
1309.722432
 30
0.0
 11
1535.99999
 21
1309.722432
 31
0.0
  0
LINE
  5
1FB
100
AcDbEntity
  8
図
  6
CONTINUOUS
 62
     6
100
AcDbLine
 10
1541.572531
 20
1280.277568
 30
0.0
 11
1535.99999
 21
1280.277568
 31
0.0
  0
ARC
  5
1FC
100
AcDbEntity
  8
図
  6
CONTINUOUS
 62
     6
100
AcDbCircle
 10
1500.99999
 20
1311.0
 30
0.0
 40
3.5
100
AcDbArc
 50
270.0
 51
0.0
  0
ARC
  5
1FD
100
AcDbEntity
  8
図
  6
CONTINUOUS
 62
     6
100
AcDbCircle
 10
1528.99999
 20
1311.0
 30
0.0
 40
3.5
100
AcDbArc
 50
180.0
 51
270.0
  0
LINE
  5
1FE
100
AcDbEntity
  8
図
  6
CONTINUOUS
 62
     6
100
AcDbLine
 10
1528.99999
 20
1307.5
 30
0.0
 11
1531.10587
 21
1307.5
 31
0.0
  0
LINE
  5
1FF
100
AcDbEntity
  8
図
  6
CONTINUOUS
 62
     6
100
AcDbLine
 10
1500.49999
 20
1282.25
 30
0.0
 11
1500.49999
 21
1307.75
 31
0.0
  0
ARC
  5
200
100
AcDbEntity
  8
図
  6
CONTINUOUS
 62
     6
100
AcDbCircle
 10
1496.725073
 20
1286.25
 30
0.0
 40
5.5
100
AcDbArc
 50
217.187626
 51
313.341758
  0
ARC
  5
201
100
AcDbEntity
  8
図
  6
CONTINUOUS
 62
     6
100
AcDbCircle
 10
1496.725073
 20
1303.75
 30
0.0
 40
5.5
100
AcDbArc
 50
46.658242
 51
142.812374
  0
LINE
  5
202
100
AcDbEntity
  8
図
  6
CONTINUOUS
 62
     6
100
AcDbLine
 10
1492.34344
 20
1282.925651
 30
0.0
 11
1492.34344
 21
1307.074349
 31
0.0
  0
ELLIPSE
  5
203
100
AcDbEntity
  8
図
  6
CONTINUOUS
 62
     6
100
AcDbEllipse
 10
1496.725073
 20
1283.704912
 30
0.0
 11
-3.4910600109400001
 21
-0.0000000000000027
 31
0.0
210
0.0
220
0.0
230
1.0
 40
0.846423
 41
0.0
 42
6.2831853071796004
  0
ELLIPSE
  5
204
100
AcDbEntity
  8
図
  6
CONTINUOUS
 62
     6
100
AcDbEllipse
 10
1496.725073
 20
1295.0
 30
0.0
 11
-0.0000000000000035
 21
5.8363087649600063
 31
0.0
210
0.0
220
0.0
230
1.0
 40
0.598162
 41
0.0
 42
6.2831853071796004
  0
ELLIPSE
  5
205
100
AcDbEntity
  8
図
  6
CONTINUOUS
 62
     6
100
AcDbEllipse
 10
1496.725073
 20
1306.295088
 30
0.0
 11
-3.4910600109400001
 21
-0.0000000000000027
 31
0.0
210
0.0
220
0.0
230
1.0
 40
0.846423
 41
0.0
 42
6.2831853071796004
  0
LINE
  5
206
100
AcDbEntity
  8
図
  6
CONTINUOUS
 62
     6
100
AcDbLine
 10
1500.49999
 20
1307.5
 30
0.0
 11
1500.99999
 21
1307.5
 31
0.0
  0
LINE
  5
207
100
AcDbEntity
  8
図
  6
CONTINUOUS
 62
     6
100
AcDbLine
 10
1500.49999
 20
1282.5
 30
0.0
 11
1531.10587
 21
1282.5
 31
0.0
  0
ARC
  5
208
100
AcDbEntity
  8
図
  6
CONTINUOUS
 62
     6
100
AcDbCircle
 10
1536.609954
 20
1306.041824
 30
0.0
 40
3.730808
100
AcDbArc
 50
149.92776
 51
260.59025
  0
ARC
  5
209
100
AcDbEntity
  8
図
  6
CONTINUOUS
 62
     6
100
AcDbCircle
 10
1543.160892
 20
1295.0
 30
0.0
 40
10.269665
100
AcDbArc
 50
134.209728
 51
225.790272
  0
ARC
  5
20A
100
AcDbEntity
  8
図
  6
CONTINUOUS
 62
     6
100
AcDbCircle
 10
1536.609954
 20
1283.958176
 30
0.0
 40
3.730808
100
AcDbArc
 50
99.40975
 51
210.07224
  0
LINE
  5
20B
100
AcDbEntity
  8
図
  6
CONTINUOUS
 62
     6
100
AcDbLine
 10
1541.572531
 20
1287.638784
 30
0.0
 11
1535.99999
 21
1287.638784
 31
0.0
  0
ARC
  5
20C
100
AcDbEntity
  8
図
  6
CONTINUOUS
 62
     6
100
AcDbCircle
 10
1518.350099
 20
1295.0
 30
0.0
 40
24.361216
100
AcDbArc
 50
342.412046
 51
17.587954
  0
LINE
  5
20D
100
AcDbEntity
  8
図
  6
CONTINUOUS
 62
     6
100
AcDbLine
 10
1541.572531
 20
1302.361216
 30
0.0
 11
1535.99999
 21
1302.361216
 31
0.0
  0
ARC
  5
20E
100
AcDbEntity
  8
図
  6
CONTINUOUS
 62
     6
100
AcDbCircle
 10
1513.24999
 20
1323.7
 30
0.0
 40
11.0
100
AcDbArc
 50
146.944269
 51
213.055731
  0
LINE
  5
20F
100
AcDbEntity
  8
図
  6
CONTINUOUS
 62
     6
100
AcDbLine
 10
1504.030446
 20
1317.7
 30
0.0
 11
1525.969534
 21
1317.7
 31
0.0
  0
LINE
  5
210
100
AcDbEntity
  8
図
  6
CONTINUOUS
 62
     6
100
AcDbLine
 10
1504.030446
 20
1329.7
 30
0.0
 11
1525.969534
 21
1329.7
 31
0.0
  0
ARC
  5
211
100
AcDbEntity
  8
図
  6
CONTINUOUS
 62
     6
100
AcDbCircle
 10
1516.74999
 20
1323.7
 30
0.0
 40
11.0
100
AcDbArc
 50
326.944269
 51
33.055731
  0
ELLIPSE
  5
212
100
AcDbEntity
  8
図
  6
CONTINUOUS
 62
     6
100
AcDbEllipse
 10
1505.021764
 20
1323.7
 30
0.0
 11
0.0000000000000003
 21
5.0928871968700005
 31
0.0
210
0.0
220
0.0
230
1.0
 40
0.544244
 41
0.0
 42
6.2831853071796004
  0
ELLIPSE
  5
213
100
AcDbEntity
  8
図
  6
CONTINUOUS
 62
     6
100
AcDbEllipse
 10
1514.99999
 20
1323.7
 30
0.0
 11
5.5056788863900001
 21
0.0
 31
0.0
210
0.0
220
0.0
230
1.0
 40
0.925024
 41
0.0
 42
6.2831853071796004
  0
ELLIPSE
  5
214
100
AcDbEntity
  8
図
  6
CONTINUOUS
 62
     6
100
AcDbEllipse
 10
1524.978216
 20
1323.7
 30
0.0
 11
-0.0000000000000009
 21
-5.0928871968700005
 31
0.0
210
0.0
220
0.0
230
1.0
 40
0.544244
 41
0.0
 42
6.2831853071796004
  0
LINE
  5
215
100
AcDbEntity
  8
図
  6
CONTINUOUS
 62
     6
100
AcDbLine
 10
1504.49999
 20
1311.0
 30
0.0
 11
1504.49999
 21
1317.7
 31
0.0
  0
LINE
  5
216
100
AcDbEntity
  8
図
  6
CONTINUOUS
 62
     6
100
AcDbLine
 10
1525.49999
 20
1311.0
 30
0.0
 11
1525.49999
 21
1317.7
 31
0.0
  0
ARC
  5
217
100
AcDbEntity
  8
図
  6
CONTINUOUS
 62
     6
100
AcDbCircle
 10
1536.233483
 20
1306.041824
 30
0.0
 40
6.484775
100
AcDbArc
 50
325.418579
 51
25.418579
  0
ARC
  5
218
100
AcDbEntity
  8
図
  6
CONTINUOUS
 62
     6
100
AcDbCircle
 10
1536.233483
 20
1283.958176
 30
0.0
 40
6.484775
100
AcDbArc
 50
334.581421
 51
34.581421
  0
LINE
  5
219
100
AcDbEntity
  8
図
  6
CONTINUOUS
 62
     6
100
AcDbLine
 10
1597.99999
 20
1305.5
 30
0.0
 11
1597.99999
 21
1284.5
 31
0.0
  0
LINE
  5
21A
100
AcDbEntity
  8
図
  6
CONTINUOUS
 62
     6
100
AcDbLine
 10
1589.99999
 20
1267.5
 30
0.0
 11
1589.99999
 21
1322.5
 31
0.0
  0
ARC
  5
21B
100
AcDbEntity
  8
図
  6
CONTINUOUS
 62
     6
100
AcDbCircle
 10
1599.272898
 20
1304.579477
 30
0.0
 40
25.3
100
AcDbArc
 50
156.419163
 51
177.348222
  0
ARC
  5
21C
100
AcDbEntity
  8
図
  6
CONTINUOUS
 62
     6
100
AcDbCircle
 10
1587.99999
 20
1309.5
 30
0.0
 40
13.0
100
AcDbArc
 50
90.0
 51
156.419163
  0
LINE
  5
21D
100
AcDbEntity
  8
図
  6
CONTINUOUS
 62
     6
100
AcDbLine
 10
1587.99999
 20
1322.5
 30
0.0
 11
1589.99999
 21
1322.5
 31
0.0
  0
ARC
  5
21E
100
AcDbEntity
  8
図
  6
CONTINUOUS
 62
     6
100
AcDbCircle
 10
1599.272898
 20
1285.420523
 30
0.0
 40
25.3
100
AcDbArc
 50
182.651778
 51
203.580837
  0
ARC
  5
21F
100
AcDbEntity
  8
図
  6
CONTINUOUS
 62
     6
100
AcDbCircle
 10
1587.99999
 20
1280.5
 30
0.0
 40
13.0
100
AcDbArc
 50
203.580837
 51
270.0
  0
LINE
  5
220
100
AcDbEntity
  8
図
  6
CONTINUOUS
 62
     6
100
AcDbLine
 10
1587.99999
 20
1267.5
 30
0.0
 11
1589.99999
 21
1267.5
 31
0.0
  0
LINE
  5
221
100
AcDbEntity
  8
図
  6
CONTINUOUS
 62
     6
100
AcDbLine
 10
1573.99999
 20
1284.25
 30
0.0
 11
1573.99999
 21
1305.75
 31
0.0
  0
LINE
  5
222
100
AcDbEntity
  8
図
  6
CONTINUOUS
 62
     6
100
AcDbLine
 10
1542.99999
 20
1305.5
 30
0.0
 11
1573.99999
 21
1305.5
 31
0.0
  0
LINE
  5
223
100
AcDbEntity
  8
図
  6
CONTINUOUS
 62
     6
100
AcDbLine
 10
1589.99999
 20
1305.5
 30
0.0
 11
1597.99999
 21
1305.5
 31
0.0
  0
LINE
  5
224
100
AcDbEntity
  8
図
  6
CONTINUOUS
 62
     6
100
AcDbLine
 10
1542.99999
 20
1284.5
 30
0.0
 11
1573.99999
 21
1284.5
 31
0.0
  0
LINE
  5
225
100
AcDbEntity
  8
図
  6
CONTINUOUS
 62
     6
100
AcDbLine
 10
1589.99999
 20
1284.5
 30
0.0
 11
1597.99999
 21
1284.5
 31
0.0
  0
LINE
  5
226
100
AcDbEntity
  8
図
  6
CONTINUOUS
 62
     6
100
AcDbLine
 10
1487.59999
 20
1300.3
 30
0.0
 11
1492.34344
 21
1307.074349
 31
0.0
  0
LINE
  5
227
100
AcDbEntity
  8
図
  6
CONTINUOUS
 62
     6
100
AcDbLine
 10
1487.59999
 20
1289.7
 30
0.0
 11
1492.34344
 21
1282.925651
 31
0.0
  0
LINE
  5
228
100
AcDbEntity
  8
図
  6
CONTINUOUS
 62
     6
100
AcDbLine
 10
1487.59999
 20
1289.7
 30
0.0
 11
1487.59999
 21
1300.3
 31
0.0
  0
LINE
  5
229
100
AcDbEntity
  8
図
  6
CONTINUOUS
 62
     6
100
AcDbLine
 10
1478.49999
 20
1299.75
 30
0.0
 11
1487.59999
 21
1299.75
 31
0.0
  0
LINE
  5
22A
100
AcDbEntity
  8
図
  6
CONTINUOUS
 62
     6
100
AcDbLine
 10
1478.49999
 20
1290.25
 30
0.0
 11
1487.59999
 21
1290.25
 31
0.0
  0
LINE
  5
22B
100
AcDbEntity
  8
図
  6
CONTINUOUS
 62
     6
100
AcDbLine
 10
1478.49999
 20
1299.75
 30
0.0
 11
1478.49999
 21
1290.25
 31
0.0
  0
LINE
  5
22C
100
AcDbEntity
  8
図
  6
CONTINUOUS
 62
     6
100
AcDbLine
 10
1473.49999
 20
1295.0
 30
0.0
 11
1607.99999
 21
1295.0
 31
0.0
  0
ARC
  5
22D
100
AcDbEntity
  8
図
  6
CONTINUOUS
 62
     6
100
AcDbCircle
 10
1492.245869
 20
1300.754121
 30
0.0
 40
10.054121
100
AcDbArc
 50
180.0
 51
185.731773
  0
LINE
  5
22E
100
AcDbEntity
  8
図
  6
CONTINUOUS
 62
     6
100
AcDbLine
 10
1502.29999
 20
1339.340192
 30
0.0
 11
1502.29999
 21
1307.750385
 31
0.0
  0
LINE
  5
22F
100
AcDbEntity
  8
図
  6
CONTINUOUS
 62
     6
100
AcDbLine
 10
1527.69999
 20
1307.750385
 30
0.0
 11
1527.69999
 21
1339.340192
 31
0.0
  0
ARC
  5
230
100
AcDbEntity
  8
図
  6
CONTINUOUS
 62
     6
100
AcDbCircle
 10
1492.245869
 20
1300.754121
 30
0.0
 40
35.454121
100
AcDbArc
 50
180.0
 51
329.011503
  0
LINE
  5
231
100
AcDbEntity
  8
図
  6
CONTINUOUS
 62
     6
100
AcDbLine
 10
689.179569
 20
1672.197717
 30
0.0
 11
691.494682
 21
1665.836996
 31
0.0
  0
ARC
  5
232
100
AcDbEntity
  8
図
  6
CONTINUOUS
 62
     6
100
AcDbCircle
 10
692.434375
 20
1666.179016
 30
0.0
 40
1.0
100
AcDbArc
 50
200.0
 51
250.0
  0
ARC
  5
233
100
AcDbEntity
  8
図
  6
CONTINUOUS
 62
     6
100
AcDbCircle
 10
722.066249
 20
1655.393834
 30
0.0
 40
1.0
100
AcDbArc
 50
250.0
 51
289.13144
  0
POLYLINE
  5
234
100
AcDbEntity
  8
図
  6
CONTINUOUS
 62
     6
100
AcDb2dPolyline
 66
     1
 10
0.0
 20
0.0
 30
0.0
 70
   128
  0
VERTEX
  5
235
100
AcDbEntity
  8
図
  6
CONTINUOUS
 62
     6
100
AcDbVertex
100
AcDb2dVertex
 10
740.685146
 20
1656.437201
 30
0.0
  0
VERTEX
  5
236
100
AcDbEntity
  8
図
  6
CONTINUOUS
 62
     6
100
AcDbVertex
100
AcDb2dVertex
 10
740.681928
 20
1656.445815
 30
0.0
  0
VERTEX
  5
237
100
AcDbEntity
  8
図
  6
CONTINUOUS
 62
     6
100
AcDbVertex
100
AcDb2dVertex
 10
740.672701
 20
1656.470302
 30
0.0
  0
VERTEX
  5
238
100
AcDbEntity
  8
図
  6
CONTINUOUS
 62
     6
100
AcDbVertex
100
AcDb2dVertex
 10
740.658105
 20
1656.508629
 30
0.0
  0
VERTEX
  5
239
100
AcDbEntity
  8
図
  6
CONTINUOUS
 62
     6
100
AcDbVertex
100
AcDb2dVertex
 10
740.638783
 20
1656.558764
 30
0.0
  0
VERTEX
  5
23A
100
AcDbEntity
  8
図
  6
CONTINUOUS
 62
     6
100
AcDbVertex
100
AcDb2dVertex
 10
740.615374
 20
1656.618674
 30
0.0
  0
VERTEX
  5
23B
100
AcDbEntity
  8
図
  6
CONTINUOUS
 62
     6
100
AcDbVertex
100
AcDb2dVertex
 10
740.588519
 20
1656.686326
 30
0.0
  0
VERTEX
  5
23C
100
AcDbEntity
  8
図
  6
CONTINUOUS
 62
     6
100
AcDbVertex
100
AcDb2dVertex
 10
740.558859
 20
1656.759688
 30
0.0
  0
VERTEX
  5
23D
100
AcDbEntity
  8
図
  6
CONTINUOUS
 62
     6
100
AcDbVertex
100
AcDb2dVertex
 10
740.527036
 20
1656.836727
 30
0.0
  0
VERTEX
  5
23E
100
AcDbEntity
  8
図
  6
CONTINUOUS
 62
     6
100
AcDbVertex
100
AcDb2dVertex
 10
740.493688
 20
1656.91541
 30
0.0
  0
VERTEX
  5
23F
100
AcDbEntity
  8
図
  6
CONTINUOUS
 62
     6
100
AcDbVertex
100
AcDb2dVertex
 10
740.459458
 20
1656.993705
 30
0.0
  0
VERTEX
  5
240
100
AcDbEntity
  8
図
  6
CONTINUOUS
 62
     6
100
AcDbVertex
100
AcDb2dVertex
 10
740.424987
 20
1657.069579
 30
0.0
  0
VERTEX
  5
241
100
AcDbEntity
  8
図
  6
CONTINUOUS
 62
     6
100
AcDbVertex
100
AcDb2dVertex
 10
740.375177
 20
1657.172997
 30
0.0
  0
VERTEX
  5
242
100
AcDbEntity
  8
図
  6
CONTINUOUS
 62
     6
100
AcDbVertex
100
AcDb2dVertex
 10
740.325929
 20
1657.267868
 30
0.0
  0
VERTEX
  5
243
100
AcDbEntity
  8
図
  6
CONTINUOUS
 62
     6
100
AcDbVertex
100
AcDb2dVertex
 10
740.276956
 20
1657.355136
 30
0.0
  0
VERTEX
  5
244
100
AcDbEntity
  8
図
  6
CONTINUOUS
 62
     6
100
AcDbVertex
100
AcDb2dVertex
 10
740.227968
 20
1657.435745
 30
0.0
  0
VERTEX
  5
245
100
AcDbEntity
  8
図
  6
CONTINUOUS
 62
     6
100
AcDbVertex
100
AcDb2dVertex
 10
740.178679
 20
1657.510639
 30
0.0
  0
VERTEX
  5
246
100
AcDbEntity
  8
図
  6
CONTINUOUS
 62
     6
100
AcDbVertex
100
AcDb2dVertex
 10
740.128799
 20
1657.580762
 30
0.0
  0
VERTEX
  5
247
100
AcDbEntity
  8
図
  6
CONTINUOUS
 62
     6
100
AcDbVertex
100
AcDb2dVertex
 10
740.078041
 20
1657.647058
 30
0.0
  0
VERTEX
  5
248
100
AcDbEntity
  8
図
  6
CONTINUOUS
 62
     6
100
AcDbVertex
100
AcDb2dVertex
 10
740.026116
 20
1657.71047
 30
0.0
  0
VERTEX
  5
249
100
AcDbEntity
  8
図
  6
CONTINUOUS
 62
     6
100
AcDbVertex
100
AcDb2dVertex
 10
739.972737
 20
1657.771943
 30
0.0
  0
VERTEX
  5
24A
100
AcDbEntity
  8
図
  6
CONTINUOUS
 62
     6
100
AcDbVertex
100
AcDb2dVertex
 10
739.917616
 20
1657.83242
 30
0.0
  0
VERTEX
  5
24B
100
AcDbEntity
  8
図
  6
CONTINUOUS
 62
     6
100
AcDbVertex
100
AcDb2dVertex
 10
739.860464
 20
1657.892846
 30
0.0
  0
VERTEX
  5
24C
100
AcDbEntity
  8
図
  6
CONTINUOUS
 62
     6
100
AcDbVertex
100
AcDb2dVertex
 10
739.801063
 20
1657.953958
 30
0.0
  0
VERTEX
  5
24D
100
AcDbEntity
  8
図
  6
CONTINUOUS
 62
     6
100
AcDbVertex
100
AcDb2dVertex
 10
739.739482
 20
1658.015675
 30
0.0
  0
VERTEX
  5
24E
100
AcDbEntity
  8
図
  6
CONTINUOUS
 62
     6
100
AcDbVertex
100
AcDb2dVertex
 10
739.675855
 20
1658.077707
 30
0.0
  0
VERTEX
  5
24F
100
AcDbEntity
  8
図
  6
CONTINUOUS
 62
     6
100
AcDbVertex
100
AcDb2dVertex
 10
739.610321
 20
1658.139766
 30
0.0
  0
VERTEX
  5
250
100
AcDbEntity
  8
図
  6
CONTINUOUS
 62
     6
100
AcDbVertex
100
AcDb2dVertex
 10
739.543016
 20
1658.201563
 30
0.0
  0
VERTEX
  5
251
100
AcDbEntity
  8
図
  6
CONTINUOUS
 62
     6
100
AcDbVertex
100
AcDb2dVertex
 10
739.474078
 20
1658.26281
 30
0.0
  0
VERTEX
  5
252
100
AcDbEntity
  8
図
  6
CONTINUOUS
 62
     6
100
AcDbVertex
100
AcDb2dVertex
 10
739.403642
 20
1658.323219
 30
0.0
  0
VERTEX
  5
253
100
AcDbEntity
  8
図
  6
CONTINUOUS
 62
     6
100
AcDbVertex
100
AcDb2dVertex
 10
739.331847
 20
1658.3825
 30
0.0
  0
VERTEX
  5
254
100
AcDbEntity
  8
図
  6
CONTINUOUS
 62
     6
100
AcDbVertex
100
AcDb2dVertex
 10
739.25883
 20
1658.440366
 30
0.0
  0
VERTEX
  5
255
100
AcDbEntity
  8
図
  6
CONTINUOUS
 62
     6
100
AcDbVertex
100
AcDb2dVertex
 10
739.184727
 20
1658.496527
 30
0.0
  0
VERTEX
  5
256
100
AcDbEntity
  8
図
  6
CONTINUOUS
 62
     6
100
AcDbVertex
100
AcDb2dVertex
 10
739.109675
 20
1658.550696
 30
0.0
  0
VERTEX
  5
257
100
AcDbEntity
  8
図
  6
CONTINUOUS
 62
     6
100
AcDbVertex
100
AcDb2dVertex
 10
739.033781
 20
1658.602636
 30
0.0
  0
VERTEX
  5
258
100
AcDbEntity
  8
図
  6
CONTINUOUS
 62
     6
100
AcDbVertex
100
AcDb2dVertex
 10
738.957026
 20
1658.652321
 30
0.0
  0
VERTEX
  5
259
100
AcDbEntity
  8
図
  6
CONTINUOUS
 62
     6
100
AcDbVertex
100
AcDb2dVertex
 10
738.879362
 20
1658.699775
 30
0.0
  0
VERTEX
  5
25A
100
AcDbEntity
  8
図
  6
CONTINUOUS
 62
     6
100
AcDbVertex
100
AcDb2dVertex
 10
738.800738
 20
1658.745024
 30
0.0
  0
VERTEX
  5
25B
100
AcDbEntity
  8
図
  6
CONTINUOUS
 62
     6
100
AcDbVertex
100
AcDb2dVertex
 10
738.721106
 20
1658.788093
 30
0.0
  0
VERTEX
  5
25C
100
AcDbEntity
  8
図
  6
CONTINUOUS
 62
     6
100
AcDbVertex
100
AcDb2dVertex
 10
738.640416
 20
1658.829008
 30
0.0
  0
VERTEX
  5
25D
100
AcDbEntity
  8
図
  6
CONTINUOUS
 62
     6
100
AcDbVertex
100
AcDb2dVertex
 10
738.558619
 20
1658.867795
 30
0.0
  0
VERTEX
  5
25E
100
AcDbEntity
  8
図
  6
CONTINUOUS
 62
     6
100
AcDbVertex
100
AcDb2dVertex
 10
738.475666
 20
1658.904478
 30
0.0
  0
VERTEX
  5
25F
100
AcDbEntity
  8
図
  6
CONTINUOUS
 62
     6
100
AcDbVertex
100
AcDb2dVertex
 10
738.391509
 20
1658.939083
 30
0.0
  0
VERTEX
  5
260
100
AcDbEntity
  8
図
  6
CONTINUOUS
 62
     6
100
AcDbVertex
100
AcDb2dVertex
 10
738.306096
 20
1658.971636
 30
0.0
  0
VERTEX
  5
261
100
AcDbEntity
  8
図
  6
CONTINUOUS
 62
     6
100
AcDbVertex
100
AcDb2dVertex
 10
738.21938
 20
1659.002161
 30
0.0
  0
VERTEX
  5
262
100
AcDbEntity
  8
図
  6
CONTINUOUS
 62
     6
100
AcDbVertex
100
AcDb2dVertex
 10
738.131372
 20
1659.030691
 30
0.0
  0
VERTEX
  5
263
100
AcDbEntity
  8
図
  6
CONTINUOUS
 62
     6
100
AcDbVertex
100
AcDb2dVertex
 10
738.04232
 20
1659.057279
 30
0.0
  0
VERTEX
  5
264
100
AcDbEntity
  8
図
  6
CONTINUOUS
 62
     6
100
AcDbVertex
100
AcDb2dVertex
 10
737.952535
 20
1659.081985
 30
0.0
  0
VERTEX
  5
265
100
AcDbEntity
  8
図
  6
CONTINUOUS
 62
     6
100
AcDbVertex
100
AcDb2dVertex
 10
737.862326
 20
1659.10487
 30
0.0
  0
VERTEX
  5
266
100
AcDbEntity
  8
図
  6
CONTINUOUS
 62
     6
100
AcDbVertex
100
AcDb2dVertex
 10
737.772004
 20
1659.125994
 30
0.0
  0
VERTEX
  5
267
100
AcDbEntity
  8
図
  6
CONTINUOUS
 62
     6
100
AcDbVertex
100
AcDb2dVertex
 10
737.681878
 20
1659.145417
 30
0.0
  0
VERTEX
  5
268
100
AcDbEntity
  8
図
  6
CONTINUOUS
 62
     6
100
AcDbVertex
100
AcDb2dVertex
 10
737.592257
 20
1659.163199
 30
0.0
  0
VERTEX
  5
269
100
AcDbEntity
  8
図
  6
CONTINUOUS
 62
     6
100
AcDbVertex
100
AcDb2dVertex
 10
737.503451
 20
1659.179401
 30
0.0
  0
VERTEX
  5
26A
100
AcDbEntity
  8
図
  6
CONTINUOUS
 62
     6
100
AcDbVertex
100
AcDb2dVertex
 10
737.415771
 20
1659.194083
 30
0.0
  0
VERTEX
  5
26B
100
AcDbEntity
  8
図
  6
CONTINUOUS
 62
     6
100
AcDbVertex
100
AcDb2dVertex
 10
737.329526
 20
1659.207304
 30
0.0
  0
VERTEX
  5
26C
100
AcDbEntity
  8
図
  6
CONTINUOUS
 62
     6
100
AcDbVertex
100
AcDb2dVertex
 10
737.245025
 20
1659.219125
 30
0.0
  0
VERTEX
  5
26D
100
AcDbEntity
  8
図
  6
CONTINUOUS
 62
     6
100
AcDbVertex
100
AcDb2dVertex
 10
737.162375
 20
1659.229542
 30
0.0
  0
VERTEX
  5
26E
100
AcDbEntity
  8
図
  6
CONTINUOUS
 62
     6
100
AcDbVertex
100
AcDb2dVertex
 10
737.080863
 20
1659.238292
 30
0.0
  0
VERTEX
  5
26F
100
AcDbEntity
  8
図
  6
CONTINUOUS
 62
     6
100
AcDbVertex
100
AcDb2dVertex
 10
736.999573
 20
1659.245048
 30
0.0
  0
VERTEX
  5
270
100
AcDbEntity
  8
図
  6
CONTINUOUS
 62
     6
100
AcDbVertex
100
AcDb2dVertex
 10
736.917588
 20
1659.249483
 30
0.0
  0
VERTEX
  5
271
100
AcDbEntity
  8
図
  6
CONTINUOUS
 62
     6
100
AcDbVertex
100
AcDb2dVertex
 10
736.833993
 20
1659.251271
 30
0.0
  0
VERTEX
  5
272
100
AcDbEntity
  8
図
  6
CONTINUOUS
 62
     6
100
AcDbVertex
100
AcDb2dVertex
 10
736.747872
 20
1659.250083
 30
0.0
  0
VERTEX
  5
273
100
AcDbEntity
  8
図
  6
CONTINUOUS
 62
     6
100
AcDbVertex
100
AcDb2dVertex
 10
736.658307
 20
1659.245594
 30
0.0
  0
VERTEX
  5
274
100
AcDbEntity
  8
図
  6
CONTINUOUS
 62
     6
100
AcDbVertex
100
AcDb2dVertex
 10
736.564383
 20
1659.237475
 30
0.0
  0
VERTEX
  5
275
100
AcDbEntity
  8
図
  6
CONTINUOUS
 62
     6
100
AcDbVertex
100
AcDb2dVertex
 10
736.465183
 20
1659.225401
 30
0.0
  0
VERTEX
  5
276
100
AcDbEntity
  8
図
  6
CONTINUOUS
 62
     6
100
AcDbVertex
100
AcDb2dVertex
 10
736.359792
 20
1659.209043
 30
0.0
  0
VERTEX
  5
277
100
AcDbEntity
  8
図
  6
CONTINUOUS
 62
     6
100
AcDbVertex
100
AcDb2dVertex
 10
736.247292
 20
1659.188076
 30
0.0
  0
VERTEX
  5
278
100
AcDbEntity
  8
図
  6
CONTINUOUS
 62
     6
100
AcDbVertex
100
AcDb2dVertex
 10
736.16287
 20
1659.170322
 30
0.0
  0
VERTEX
  5
279
100
AcDbEntity
  8
図
  6
CONTINUOUS
 62
     6
100
AcDbVertex
100
AcDb2dVertex
 10
736.076496
 20
1659.150801
 30
0.0
  0
VERTEX
  5
27A
100
AcDbEntity
  8
図
  6
CONTINUOUS
 62
     6
100
AcDbVertex
100
AcDb2dVertex
 10
735.990274
 20
1659.13024
 30
0.0
  0
VERTEX
  5
27B
100
AcDbEntity
  8
図
  6
CONTINUOUS
 62
     6
100
AcDbVertex
100
AcDb2dVertex
 10
735.906312
 20
1659.109369
 30
0.0
  0
VERTEX
  5
27C
100
AcDbEntity
  8
図
  6
CONTINUOUS
 62
     6
100
AcDbVertex
100
AcDb2dVertex
 10
735.826713
 20
1659.088917
 30
0.0
  0
VERTEX
  5
27D
100
AcDbEntity
  8
図
  6
CONTINUOUS
 62
     6
100
AcDbVertex
100
AcDb2dVertex
 10
735.753584
 20
1659.069611
 30
0.0
  0
VERTEX
  5
27E
100
AcDbEntity
  8
図
  6
CONTINUOUS
 62
     6
100
AcDbVertex
100
AcDb2dVertex
 10
735.68903
 20
1659.052182
 30
0.0
  0
VERTEX
  5
27F
100
AcDbEntity
  8
図
  6
CONTINUOUS
 62
     6
100
AcDbVertex
100
AcDb2dVertex
 10
735.635156
 20
1659.037357
 30
0.0
  0
VERTEX
  5
280
100
AcDbEntity
  8
図
  6
CONTINUOUS
 62
     6
100
AcDbVertex
100
AcDb2dVertex
 10
735.594068
 20
1659.025866
 30
0.0
  0
VERTEX
  5
281
100
AcDbEntity
  8
図
  6
CONTINUOUS
 62
     6
100
AcDbVertex
100
AcDb2dVertex
 10
735.567871
 20
1659.018437
 30
0.0
  0
VERTEX
  5
282
100
AcDbEntity
  8
図
  6
CONTINUOUS
 62
     6
100
AcDbVertex
100
AcDb2dVertex
 10
735.558671
 20
1659.015798
 30
0.0
  0
SEQEND
  5
283
100
AcDbEntity
  8
図
  6
CONTINUOUS
 62
     6
  0
LINE
  5
284
100
AcDbEntity
  8
図
  6
CONTINUOUS
 62
     6
100
AcDbLine
 10
722.393985
 20
1654.449065
 30
0.0
 11
735.558659
 21
1659.015833
 31
0.0
  0
LINE
  5
285
100
AcDbEntity
  8
図
  6
CONTINUOUS
 62
     6
100
AcDbLine
 10
689.762889
 20
1673.474543
 30
0.0
 11
726.923441
 21
1687.641418
 31
0.0
  0
ARC
  5
286
100
AcDbEntity
  8
図
  6
CONTINUOUS
 62
     6
100
AcDbCircle
 10
690.119114
 20
1672.540143
 30
0.0
 40
1.0
100
AcDbArc
 50
110.86856
 51
200.0
  0
POLYLINE
  5
287
100
AcDbEntity
  8
図
  6
CONTINUOUS
 62
     6
100
AcDb2dPolyline
 66
     1
 10
0.0
 20
0.0
 30
0.0
 70
   128
  0
VERTEX
  5
288
100
AcDbEntity
  8
図
  6
CONTINUOUS
 62
     6
100
AcDbVertex
100
AcDb2dVertex
 10
726.923425
 20
1687.641458
 30
0.0
  0
VERTEX
  5
289
100
AcDbEntity
  8
図
  6
CONTINUOUS
 62
     6
100
AcDbVertex
100
AcDb2dVertex
 10
726.933491
 20
1687.646026
 30
0.0
  0
VERTEX
  5
28A
100
AcDbEntity
  8
図
  6
CONTINUOUS
 62
     6
100
AcDbVertex
100
AcDb2dVertex
 10
726.962074
 20
1687.65912
 30
0.0
  0
VERTEX
  5
28B
100
AcDbEntity
  8
図
  6
CONTINUOUS
 62
     6
100
AcDbVertex
100
AcDb2dVertex
 10
727.006755
 20
1687.67982
 30
0.0
  0
VERTEX
  5
28C
100
AcDbEntity
  8
図
  6
CONTINUOUS
 62
     6
100
AcDbVertex
100
AcDb2dVertex
 10
727.065114
 20
1687.707206
 30
0.0
  0
VERTEX
  5
28D
100
AcDbEntity
  8
図
  6
CONTINUOUS
 62
     6
100
AcDbVertex
100
AcDb2dVertex
 10
727.134729
 20
1687.740361
 30
0.0
  0
VERTEX
  5
28E
100
AcDbEntity
  8
図
  6
CONTINUOUS
 62
     6
100
AcDbVertex
100
AcDb2dVertex
 10
727.213182
 20
1687.778364
 30
0.0
  0
VERTEX
  5
28F
100
AcDbEntity
  8
図
  6
CONTINUOUS
 62
     6
100
AcDbVertex
100
AcDb2dVertex
 10
727.29805
 20
1687.820297
 30
0.0
  0
VERTEX
  5
290
100
AcDbEntity
  8
図
  6
CONTINUOUS
 62
     6
100
AcDbVertex
100
AcDb2dVertex
 10
727.386916
 20
1687.865241
 30
0.0
  0
VERTEX
  5
291
100
AcDbEntity
  8
図
  6
CONTINUOUS
 62
     6
100
AcDbVertex
100
AcDb2dVertex
 10
727.477357
 20
1687.912276
 30
0.0
  0
VERTEX
  5
292
100
AcDbEntity
  8
図
  6
CONTINUOUS
 62
     6
100
AcDbVertex
100
AcDb2dVertex
 10
727.566955
 20
1687.960484
 30
0.0
  0
VERTEX
  5
293
100
AcDbEntity
  8
図
  6
CONTINUOUS
 62
     6
100
AcDbVertex
100
AcDb2dVertex
 10
727.653288
 20
1688.008946
 30
0.0
  0
VERTEX
  5
294
100
AcDbEntity
  8
図
  6
CONTINUOUS
 62
     6
100
AcDbVertex
100
AcDb2dVertex
 10
727.76171
 20
1688.073688
 30
0.0
  0
VERTEX
  5
295
100
AcDbEntity
  8
図
  6
CONTINUOUS
 62
     6
100
AcDbVertex
100
AcDb2dVertex
 10
727.860732
 20
1688.137544
 30
0.0
  0
VERTEX
  5
296
100
AcDbEntity
  8
図
  6
CONTINUOUS
 62
     6
100
AcDbVertex
100
AcDb2dVertex
 10
727.951348
 20
1688.200846
 30
0.0
  0
VERTEX
  5
297
100
AcDbEntity
  8
図
  6
CONTINUOUS
 62
     6
100
AcDbVertex
100
AcDb2dVertex
 10
728.034555
 20
1688.263927
 30
0.0
  0
VERTEX
  5
298
100
AcDbEntity
  8
図
  6
CONTINUOUS
 62
     6
100
AcDbVertex
100
AcDb2dVertex
 10
728.111349
 20
1688.327117
 30
0.0
  0
VERTEX
  5
299
100
AcDbEntity
  8
図
  6
CONTINUOUS
 62
     6
100
AcDbVertex
100
AcDb2dVertex
 10
728.182725
 20
1688.390749
 30
0.0
  0
VERTEX
  5
29A
100
AcDbEntity
  8
図
  6
CONTINUOUS
 62
     6
100
AcDbVertex
100
AcDb2dVertex
 10
728.249678
 20
1688.455154
 30
0.0
  0
VERTEX
  5
29B
100
AcDbEntity
  8
図
  6
CONTINUOUS
 62
     6
100
AcDbVertex
100
AcDb2dVertex
 10
728.313204
 20
1688.520664
 30
0.0
  0
VERTEX
  5
29C
100
AcDbEntity
  8
図
  6
CONTINUOUS
 62
     6
100
AcDbVertex
100
AcDb2dVertex
 10
728.3743
 20
1688.58761
 30
0.0
  0
VERTEX
  5
29D
100
AcDbEntity
  8
図
  6
CONTINUOUS
 62
     6
100
AcDbVertex
100
AcDb2dVertex
 10
728.43396
 20
1688.656324
 30
0.0
  0
VERTEX
  5
29E
100
AcDbEntity
  8
図
  6
CONTINUOUS
 62
     6
100
AcDbVertex
100
AcDb2dVertex
 10
728.49318
 20
1688.727137
 30
0.0
  0
VERTEX
  5
29F
100
AcDbEntity
  8
図
  6
CONTINUOUS
 62
     6
100
AcDbVertex
100
AcDb2dVertex
 10
728.552734
 20
1688.800314
 30
0.0
  0
VERTEX
  5
2A0
100
AcDbEntity
  8
図
  6
CONTINUOUS
 62
     6
100
AcDbVertex
100
AcDb2dVertex
 10
728.612507
 20
1688.875839
 30
0.0
  0
VERTEX
  5
2A1
100
AcDbEntity
  8
図
  6
CONTINUOUS
 62
     6
100
AcDbVertex
100
AcDb2dVertex
 10
728.672159
 20
1688.953632
 30
0.0
  0
VERTEX
  5
2A2
100
AcDbEntity
  8
図
  6
CONTINUOUS
 62
     6
100
AcDbVertex
100
AcDb2dVertex
 10
728.731353
 20
1689.03361
 30
0.0
  0
VERTEX
  5
2A3
100
AcDbEntity
  8
図
  6
CONTINUOUS
 62
     6
100
AcDbVertex
100
AcDb2dVertex
 10
728.789752
 20
1689.115691
 30
0.0
  0
VERTEX
  5
2A4
100
AcDbEntity
  8
図
  6
CONTINUOUS
 62
     6
100
AcDbVertex
100
AcDb2dVertex
 10
728.847017
 20
1689.199793
 30
0.0
  0
VERTEX
  5
2A5
100
AcDbEntity
  8
図
  6
CONTINUOUS
 62
     6
100
AcDbVertex
100
AcDb2dVertex
 10
728.90281
 20
1689.285833
 30
0.0
  0
VERTEX
  5
2A6
100
AcDbEntity
  8
図
  6
CONTINUOUS
 62
     6
100
AcDbVertex
100
AcDb2dVertex
 10
728.956793
 20
1689.37373
 30
0.0
  0
VERTEX
  5
2A7
100
AcDbEntity
  8
図
  6
CONTINUOUS
 62
     6
100
AcDbVertex
100
AcDb2dVertex
 10
729.008628
 20
1689.463401
 30
0.0
  0
VERTEX
  5
2A8
100
AcDbEntity
  8
図
  6
CONTINUOUS
 62
     6
100
AcDbVertex
100
AcDb2dVertex
 10
729.057978
 20
1689.554765
 30
0.0
  0
VERTEX
  5
2A9
100
AcDbEntity
  8
図
  6
CONTINUOUS
 62
     6
100
AcDbVertex
100
AcDb2dVertex
 10
729.104505
 20
1689.647739
 30
0.0
  0
VERTEX
  5
2AA
100
AcDbEntity
  8
図
  6
CONTINUOUS
 62
     6
100
AcDbVertex
100
AcDb2dVertex
 10
729.14795
 20
1689.742202
 30
0.0
  0
VERTEX
  5
2AB
100
AcDbEntity
  8
図
  6
CONTINUOUS
 62
     6
100
AcDbVertex
100
AcDb2dVertex
 10
729.18838
 20
1689.837873
 30
0.0
  0
VERTEX
  5
2AC
100
AcDbEntity
  8
図
  6
CONTINUOUS
 62
     6
100
AcDbVertex
100
AcDb2dVertex
 10
729.22594
 20
1689.934432
 30
0.0
  0
VERTEX
  5
2AD
100
AcDbEntity
  8
図
  6
CONTINUOUS
 62
     6
100
AcDbVertex
100
AcDb2dVertex
 10
729.260776
 20
1690.031559
 30
0.0
  0
VERTEX
  5
2AE
100
AcDbEntity
  8
図
  6
CONTINUOUS
 62
     6
100
AcDbVertex
100
AcDb2dVertex
 10
729.293033
 20
1690.128935
 30
0.0
  0
VERTEX
  5
2AF
100
AcDbEntity
  8
図
  6
CONTINUOUS
 62
     6
100
AcDbVertex
100
AcDb2dVertex
 10
729.322858
 20
1690.226239
 30
0.0
  0
VERTEX
  5
2B0
100
AcDbEntity
  8
図
  6
CONTINUOUS
 62
     6
100
AcDbVertex
100
AcDb2dVertex
 10
729.350397
 20
1690.323151
 30
0.0
  0
VERTEX
  5
2B1
100
AcDbEntity
  8
図
  6
CONTINUOUS
 62
     6
100
AcDbVertex
100
AcDb2dVertex
 10
729.375794
 20
1690.419352
 30
0.0
  0
VERTEX
  5
2B2
100
AcDbEntity
  8
図
  6
CONTINUOUS
 62
     6
100
AcDbVertex
100
AcDb2dVertex
 10
729.399196
 20
1690.514521
 30
0.0
  0
VERTEX
  5
2B3
100
AcDbEntity
  8
図
  6
CONTINUOUS
 62
     6
100
AcDbVertex
100
AcDb2dVertex
 10
729.420749
 20
1690.608338
 30
0.0
  0
VERTEX
  5
2B4
100
AcDbEntity
  8
図
  6
CONTINUOUS
 62
     6
100
AcDbVertex
100
AcDb2dVertex
 10
729.440599
 20
1690.700484
 30
0.0
  0
VERTEX
  5
2B5
100
AcDbEntity
  8
図
  6
CONTINUOUS
 62
     6
100
AcDbVertex
100
AcDb2dVertex
 10
729.458807
 20
1690.790859
 30
0.0
  0
VERTEX
  5
2B6
100
AcDbEntity
  8
図
  6
CONTINUOUS
 62
     6
100
AcDbVertex
100
AcDb2dVertex
 10
729.475096
 20
1690.880242
 30
0.0
  0
VERTEX
  5
2B7
100
AcDbEntity
  8
図
  6
CONTINUOUS
 62
     6
100
AcDbVertex
100
AcDb2dVertex
 10
729.489105
 20
1690.969633
 30
0.0
  0
VERTEX
  5
2B8
100
AcDbEntity
  8
図
  6
CONTINUOUS
 62
     6
100
AcDbVertex
100
AcDb2dVertex
 10
729.500474
 20
1691.060032
 30
0.0
  0
VERTEX
  5
2B9
100
AcDbEntity
  8
図
  6
CONTINUOUS
 62
     6
100
AcDbVertex
100
AcDb2dVertex
 10
729.508842
 20
1691.152438
 30
0.0
  0
VERTEX
  5
2BA
100
AcDbEntity
  8
図
  6
CONTINUOUS
 62
     6
100
AcDbVertex
100
AcDb2dVertex
 10
729.513847
 20
1691.247852
 30
0.0
  0
VERTEX
  5
2BB
100
AcDbEntity
  8
図
  6
CONTINUOUS
 62
     6
100
AcDbVertex
100
AcDb2dVertex
 10
729.51513
 20
1691.347272
 30
0.0
  0
VERTEX
  5
2BC
100
AcDbEntity
  8
図
  6
CONTINUOUS
 62
     6
100
AcDbVertex
100
AcDb2dVertex
 10
729.512328
 20
1691.4517
 30
0.0
  0
VERTEX
  5
2BD
100
AcDbEntity
  8
図
  6
CONTINUOUS
 62
     6
100
AcDbVertex
100
AcDb2dVertex
 10
729.505081
 20
1691.562134
 30
0.0
  0
VERTEX
  5
2BE
100
AcDbEntity
  8
図
  6
CONTINUOUS
 62
     6
100
AcDbVertex
100
AcDb2dVertex
 10
729.493028
 20
1691.679574
 30
0.0
  0
VERTEX
  5
2BF
100
AcDbEntity
  8
図
  6
CONTINUOUS
 62
     6
100
AcDbVertex
100
AcDb2dVertex
 10
729.475809
 20
1691.80502
 30
0.0
  0
VERTEX
  5
2C0
100
AcDbEntity
  8
図
  6
CONTINUOUS
 62
     6
100
AcDbVertex
100
AcDb2dVertex
 10
729.460254
 20
1691.899844
 30
0.0
  0
VERTEX
  5
2C1
100
AcDbEntity
  8
図
  6
CONTINUOUS
 62
     6
100
AcDbVertex
100
AcDb2dVertex
 10
729.442617
 20
1691.99691
 30
0.0
  0
VERTEX
  5
2C2
100
AcDbEntity
  8
図
  6
CONTINUOUS
 62
     6
100
AcDbVertex
100
AcDb2dVertex
 10
729.423649
 20
1692.093841
 30
0.0
  0
VERTEX
  5
2C3
100
AcDbEntity
  8
図
  6
CONTINUOUS
 62
     6
100
AcDbVertex
100
AcDb2dVertex
 10
729.4041
 20
1692.188263
 30
0.0
  0
VERTEX
  5
2C4
100
AcDbEntity
  8
図
  6
CONTINUOUS
 62
     6
100
AcDbVertex
100
AcDb2dVertex
 10
729.384722
 20
1692.2778
 30
0.0
  0
VERTEX
  5
2C5
100
AcDbEntity
  8
図
  6
CONTINUOUS
 62
     6
100
AcDbVertex
100
AcDb2dVertex
 10
729.366264
 20
1692.360079
 30
0.0
  0
VERTEX
  5
2C6
100
AcDbEntity
  8
図
  6
CONTINUOUS
 62
     6
100
AcDbVertex
100
AcDb2dVertex
 10
729.349479
 20
1692.432724
 30
0.0
  0
VERTEX
  5
2C7
100
AcDbEntity
  8
図
  6
CONTINUOUS
 62
     6
100
AcDbVertex
100
AcDb2dVertex
 10
729.335117
 20
1692.493359
 30
0.0
  0
VERTEX
  5
2C8
100
AcDbEntity
  8
図
  6
CONTINUOUS
 62
     6
100
AcDbVertex
100
AcDb2dVertex
 10
729.323928
 20
1692.539611
 30
0.0
  0
VERTEX
  5
2C9
100
AcDbEntity
  8
図
  6
CONTINUOUS
 62
     6
100
AcDbVertex
100
AcDb2dVertex
 10
729.316665
 20
1692.569103
 30
0.0
  0
VERTEX
  5
2CA
100
AcDbEntity
  8
図
  6
CONTINUOUS
 62
     6
100
AcDbVertex
100
AcDb2dVertex
 10
729.314077
 20
1692.579462
 30
0.0
  0
SEQEND
  5
2CB
100
AcDbEntity
  8
図
  6
CONTINUOUS
 62
     6
  0
ARC
  5
2CC
100
AcDbEntity
  8
図
  6
CONTINUOUS
 62
     6
100
AcDbCircle
 10
728.94402
 20
1695.429221
 30
0.0
 40
0.5
100
AcDbArc
 50
197.611815
 51
290.0
  0
LINE
  5
2CD
100
AcDbEntity
  8
図
  6
CONTINUOUS
 62
     6
100
AcDbLine
 10
728.945583
 20
1693.750643
 30
0.0
 11
729.314146
 21
1692.579186
 31
0.0
  0
ARC
  5
2CE
100
AcDbEntity
  8
図
  6
CONTINUOUS
 62
     6
100
AcDbCircle
 10
729.422534
 20
1693.900701
 30
0.0
 40
0.5
100
AcDbArc
 50
110.0
 51
197.464599
  0
LINE
  5
2CF
100
AcDbEntity
  8
図
  6
CONTINUOUS
 62
     6
100
AcDbLine
 10
706.452492
 20
1717.57204
 30
0.0
 11
748.579981
 21
1732.905192
 31
0.0
  0
ARC
  5
2D0
100
AcDbEntity
  8
図
  6
CONTINUOUS
 62
     6
100
AcDbCircle
 10
759.874635
 20
1706.687044
 30
0.0
 40
0.5
100
AcDbArc
 50
290.0
 51
20.0
  0
LINE
  5
2D1
100
AcDbEntity
  8
図
  6
CONTINUOUS
 62
     6
100
AcDbLine
 10
760.336956
 20
1706.877463
 30
0.0
 11
760.344481
 21
1706.858054
 31
0.0
  0
ARC
  5
2D2
100
AcDbEntity
  8
図
  6
CONTINUOUS
 62
     6
100
AcDbCircle
 10
760.524303
 20
1705.220819
 30
0.0
 40
0.5
100
AcDbArc
 50
22.179156
 51
110.0
  0
ARC
  5
2D3
100
AcDbEntity
  8
図
  6
CONTINUOUS
 62
     6
100
AcDbCircle
 10
748.922096
 20
1731.965534
 30
0.0
 40
1.0
100
AcDbArc
 50
22.385956
 51
110.0
  0
ARC
  5
2D4
100
AcDbEntity
  8
図
  6
CONTINUOUS
 62
     6
100
AcDbCircle
 10
747.493961
 20
1718.365486
 30
0.0
 40
9.0
100
AcDbArc
 50
348.636955
 51
22.385944
  0
ARC
  5
2D5
100
AcDbEntity
  8
図
  6
CONTINUOUS
 62
     6
100
AcDbCircle
 10
710.248929
 20
1707.141457
 30
0.0
 40
0.5
100
AcDbArc
 50
200.0
 51
290.0
  0
ARC
  5
2D6
100
AcDbEntity
  8
図
  6
CONTINUOUS
 62
     6
100
AcDbCircle
 10
720.486387
 20
1705.546698
 30
0.0
 40
4.5
100
AcDbArc
 50
17.611815
 51
110.0
  0
LINE
  5
2D7
100
AcDbEntity
  8
図
  6
CONTINUOUS
 62
     6
100
AcDbLine
 10
710.419939
 20
1706.671611
 30
0.0
 11
718.947296
 21
1709.775315
 31
0.0
  0
ARC
  5
2D8
100
AcDbEntity
  8
図
  6
CONTINUOUS
 62
     6
100
AcDbCircle
 10
706.623516
 20
1717.102199
 30
0.0
 40
0.5
100
AcDbArc
 50
110.0
 51
200.0
  0
ARC
  5
2D9
100
AcDbEntity
  8
図
  6
CONTINUOUS
 62
     6
100
AcDbCircle
 10
747.493961
 20
1718.365486
 30
0.0
 40
9.0
100
AcDbArc
 50
22.385944
 51
56.134933
  0
LINE
  5
2DA
100
AcDbEntity
  8
図
  6
EXLTYPE1
 62
     6
100
AcDbLine
 10
729.281561
 20
1694.381483
 30
0.0
 11
729.280779
 21
1694.381199
 31
0.0
  0
LINE
  5
2DB
100
AcDbEntity
  8
図
  6
EXLTYPE1
 62
     6
100
AcDbLine
 10
760.089568
 20
1706.339606
 30
0.0
 11
760.090162
 21
1706.339823
 31
0.0
  0
LINE
  5
2DC
100
AcDbEntity
  8
図
  6
CONTINUOUS
 62
     6
100
AcDbLine
 10
760.045645
 20
1706.217197
 30
0.0
 11
744.599955
 21
1700.595426
 31
0.0
  0
LINE
  5
2DD
100
AcDbEntity
  8
図
  6
CONTINUOUS
 62
     6
100
AcDbLine
 10
744.599955
 20
1700.595426
 30
0.0
 11
729.11503
 21
1694.959374
 31
0.0
  0
LINE
  5
2DE
100
AcDbEntity
  8
図
  6
CONTINUOUS
 62
     6
100
AcDbLine
 10
721.724229
 20
1654.454141
 30
0.0
 11
706.113821
 21
1660.135865
 31
0.0
  0
LINE
  5
2DF
100
AcDbEntity
  8
図
  6
CONTINUOUS
 62
     6
100
AcDbLine
 10
706.113821
 20
1660.135865
 30
0.0
 11
692.092266
 21
1665.239293
 31
0.0
  0
LINE
  5
2E0
100
AcDbEntity
  8
図
  6
CONTINUOUS
 62
     6
100
AcDbLine
 10
749.846736
 20
1732.346375
 30
0.0
 11
754.436692
 21
1721.20255
 31
0.0
  0
LINE
  5
2E1
100
AcDbEntity
  8
図
  6
CONTINUOUS
 62
     6
100
AcDbLine
 10
754.436692
 20
1721.20255
 30
0.0
 11
760.336956
 21
1706.877463
 31
0.0
  0
LINE
  5
2E2
100
AcDbEntity
  8
図
  6
CONTINUOUS
 62
     6
100
AcDbLine
 10
724.775464
 20
1706.908247
 30
0.0
 11
728.467456
 21
1695.277937
 31
0.0
  0
LINE
  5
2E3
100
AcDbEntity
  8
図
  6
CONTINUOUS
 62
     6
100
AcDbLine
 10
706.153669
 20
1716.931189
 30
0.0
 11
709.779083
 21
1706.970447
 31
0.0
  0
LINE
  5
2E4
100
AcDbEntity
  8
図
  6
CONTINUOUS
 62
     6
100
AcDbLine
 10
695.977354
 20
1661.063696
 30
0.0
 11
696.015159
 21
1661.049936
 31
0.0
  0
LINE
  5
2E5
100
AcDbEntity
  8
図
  6
CONTINUOUS
 62
     6
100
AcDbLine
 10
694.83751
 20
1664.240107
 30
0.0
 11
693.195813
 21
1659.729582
 31
0.0
  0
LINE
  5
2E6
100
AcDbEntity
  8
図
  6
CONTINUOUS
 62
     6
100
AcDbLine
 10
693.195813
 20
1659.729582
 30
0.0
 11
715.748436
 21
1651.521099
 31
0.0
  0
LINE
  5
2E7
100
AcDbEntity
  8
図
  6
CONTINUOUS
 62
     6
100
AcDbLine
 10
717.390133
 20
1656.031623
 30
0.0
 11
715.748436
 21
1651.521099
 31
0.0
  0
LINE
  5
2E8
100
AcDbEntity
  8
図
  6
CONTINUOUS
 62
     6
100
AcDbLine
 10
775.55242
 20
2428.808292
 30
0.0
 11
742.516703
 21
2434.188491
 31
0.0
  0
ARC
  5
2E9
100
AcDbEntity
  8
図
  6
CONTINUOUS
 62
     6
100
AcDbCircle
 10
719.71315
 20
2457.6
 30
0.0
 40
1.419022
100
AcDbArc
 50
219.906099
 51
336.434739
  0
ARC
  5
2EA
100
AcDbEntity
  8
図
  6
CONTINUOUS
 62
     6
100
AcDbCircle
 10
719.71315
 20
2444.4
 30
0.0
 40
1.419022
100
AcDbArc
 50
23.565261
 51
140.093901
  0
ELLIPSE
  5
2EB
100
AcDbEntity
  8
図
  6
CONTINUOUS
 62
     6
100
AcDbEllipse
 10
734.844955
 20
2451.0
 30
0.0
 11
0.0000000000000009
 21
15.500000000000009
 31
0.0
210
0.0
220
0.0
230
1.0
 40
0.967858
 41
1.9702661805466022
 42
1.1713264730432327
  0
ELLIPSE
  5
2EC
100
AcDbEntity
  8
図
  6
CONTINUOUS
 62
     6
100
AcDbEllipse
 10
712.983558
 20
2451.0
 30
0.0
 11
0.0000000000000006
 21
10.0
 31
0.0
210
0.0
220
0.0
230
1.0
 40
0.685959
 41
5.3176360755095917
 42
4.1071418852597521
  0
LINE
  5
2ED
100
AcDbEntity
  8
図
  6
CONTINUOUS
 62
     6
100
AcDbLine
 10
712.983558
 20
2461.0
 30
0.0
 11
723.38288
 21
2461.0
 31
0.0
  0
LINE
  5
2EE
100
AcDbEntity
  8
図
  6
CONTINUOUS
 62
     6
100
AcDbLine
 10
712.983558
 20
2441.0
 30
0.0
 11
723.38288
 21
2441.0
 31
0.0
  0
LINE
  5
2EF
100
AcDbEntity
  8
図
  6
CONTINUOUS
 62
     6
100
AcDbLine
 10
742.683995
 20
2467.838962
 30
0.0
 11
732.688745
 21
2466.339062
 31
0.0
  0
ELLIPSE
  5
2F0
100
AcDbEntity
  8
図
  6
CONTINUOUS
 62
     6
100
AcDbEllipse
 10
744.798027
 20
2451.0
 30
0.0
 11
-0.0000000000000103
 21
16.996839464599816
 31
0.0
210
0.0
220
0.0
230
1.0
 40
0.914669
 41
3.0061989202155814
 42
0.1364040368357887
  0
LINE
  5
2F1
100
AcDbEntity
  8
図
  6
CONTINUOUS
 62
     6
100
AcDbLine
 10
775.55242
 20
2473.191708
 30
0.0
 11
742.516703
 21
2467.811509
 31
0.0
  0
ELLIPSE
  5
2F2
100
AcDbEntity
  8
図
  6
CONTINUOUS
 62
     6
100
AcDbEllipse
 10
779.0
 20
2451.0
 30
0.0
 11
-0.0000000000000136
 21
22.47069124129985
 31
0.0
210
0.0
220
0.0
230
1.0
 40
0.976685
 41
2.9844131635980702
 42
0.1577414859812738
  0
LINE
  5
2F3
100
AcDbEntity
  8
図
  6
CONTINUOUS
 62
     6
100
AcDbLine
 10
742.683995
 20
2434.161038
 30
0.0
 11
732.688745
 21
2435.660938
 31
0.0
  0
LINE
  5
2F4
100
AcDbEntity
  8
図
  6
CONTINUOUS
 62
     6
100
AcDbLine
 10
742.454087
 20
2434.195538
 30
0.0
 11
742.515915
 21
2434.184195
 31
0.0
  0
LINE
  5
2F5
100
AcDbEntity
  8
図
  6
CONTINUOUS
 62
     2
100
AcDbLine
 10
738.0
 20
2468.0
 30
0.0
 11
738.0
 21
2491.804391
 31
0.0
  0
LINE
  5
2F6
100
AcDbEntity
  8
図
  6
CONTINUOUS
 62
     2
100
AcDbLine
 10
738.0
 20
2349.467255
 30
0.0
 11
738.0
 21
2434.2
 31
0.0
  0
LINE
  5
2F7
100
AcDbEntity
  8
図
  6
CONTINUOUS
 62
     2
100
AcDbLine
 10
775.218826
 20
1670.5
 30
0.0
 11
839.092719
 21
1670.5
 31
0.0
  0
LINE
  5
2F8
100
AcDbEntity
  8
図
  6
CONTINUOUS
 62
     2
100
AcDbLine
 10
494.907281
 20
1670.5
 30
0.0
 11
689.797488
 21
1670.5
 31
0.0
  0
LINE
  5
2F9
100
AcDbEntity
  8
図
  6
CONTINUOUS
 62
     6
100
AcDbLine
 10
740.685003
 20
1656.437585
 30
0.0
 11
755.137869
 21
1610.5
 31
0.0
  0
LINE
  5
2FA
100
AcDbEntity
  8
図
  6
CONTINUOUS
 62
     6
100
AcDbLine
 10
799.678913
 20
1610.5
 30
0.0
 11
760.987307
 21
1705.409571
 31
0.0
  0
LINE
  5
2FB
100
AcDbEntity
  8
図
  6
CONTINUOUS
 62
     6
100
AcDbLine
 10
697.674718
 20
2437.0
 30
0.0
 11
728.406696
 21
2437.0
 31
0.0
  0
ELLIPSE
  5
2FC
100
AcDbEntity
  8
図
  6
CONTINUOUS
 62
     6
100
AcDbEllipse
 10
697.674718
 20
2451.0
 30
0.0
 11
-0.2234164830233683
 21
13.998217182395521
 31
0.0
210
0.0
220
0.0
230
1.0
 40
0.585714
 41
6.255955351618355
 42
3.1143626982380859
  0
LINE
  5
2FD
100
AcDbEntity
  8
図
  6
CONTINUOUS
 62
     6
100
AcDbLine
 10
697.674718
 20
2465.0
 30
0.0
 11
728.406696
 21
2465.0
 31
0.0
  0
LINE
  5
2FE
100
AcDbEntity
  8
図
  6
CONTINUOUS
 62
     2
100
AcDbLine
 10
692.0
 20
2461.279152
 30
0.0
 11
692.0
 21
2485.631825
 31
0.0
  0
LINE
  5
2FF
100
AcDbEntity
  8
図
  6
CONTINUOUS
 62
     2
100
AcDbLine
 10
692.0
 20
2401.0
 30
0.0
 11
692.0
 21
2441.067463
 31
0.0
  0
LINE
  5
300
100
AcDbEntity
  8
図
  6
CONTINUOUS
 62
     6
100
AcDbLine
 10
1497.973381
 20
1700.784796
 30
0.0
 11
1499.49999
 21
1727.705676
 31
0.0
  0
LINE
  5
301
100
AcDbEntity
  8
図
  6
CONTINUOUS
 62
     6
100
AcDbLine
 10
1532.045388
 20
1700.453465
 30
0.0
 11
1530.49999
 21
1727.705676
 31
0.0
  0
LINE
  5
302
100
AcDbEntity
  8
図
  6
CONTINUOUS
 62
     6
100
AcDbLine
 10
1532.022856
 20
1701.207564
 30
0.0
 11
1532.023579
 21
1701.220326
 31
0.0
  0
POLYLINE
  5
303
100
AcDbEntity
  8
図
  6
CONTINUOUS
 62
     6
100
AcDb2dPolyline
 66
     1
 10
0.0
 20
0.0
 30
0.0
 70
   128
  0
VERTEX
  5
304
100
AcDbEntity
  8
図
  6
CONTINUOUS
 62
     6
100
AcDbVertex
100
AcDb2dVertex
 10
1532.018535
 20
1701.262991
 30
0.0
  0
VERTEX
  5
305
100
AcDbEntity
  8
図
  6
CONTINUOUS
 62
     6
100
AcDbVertex
100
AcDb2dVertex
 10
1532.026422
 20
1701.324022
 30
0.0
  0
SEQEND
  5
306
100
AcDbEntity
  8
図
  6
CONTINUOUS
 62
     6
  0
POLYLINE
  5
307
100
AcDbEntity
  8
図
  6
CONTINUOUS
 62
     6
100
AcDb2dPolyline
 66
     1
 10
0.0
 20
0.0
 30
0.0
 70
   128
  0
VERTEX
  5
308
100
AcDbEntity
  8
図
  6
CONTINUOUS
 62
     6
100
AcDbVertex
100
AcDb2dVertex
 10
1532.02337
 20
1701.220338
 30
0.0
  0
VERTEX
  5
309
100
AcDbEntity
  8
図
  6
CONTINUOUS
 62
     6
100
AcDbVertex
100
AcDb2dVertex
 10
1532.025219
 20
1701.259983
 30
0.0
  0
SEQEND
  5
30A
100
AcDbEntity
  8
図
  6
CONTINUOUS
 62
     6
  0
POLYLINE
  5
30B
100
AcDbEntity
  8
図
  6
CONTINUOUS
 62
     6
100
AcDb2dPolyline
 66
     1
 10
0.0
 20
0.0
 30
0.0
 70
   128
  0
VERTEX
  5
30C
100
AcDbEntity
  8
図
  6
CONTINUOUS
 62
     6
100
AcDbVertex
100
AcDb2dVertex
 10
1532.025219
 20
1701.259983
 30
0.0
  0
VERTEX
  5
30D
100
AcDbEntity
  8
図
  6
CONTINUOUS
 62
     6
100
AcDbVertex
100
AcDb2dVertex
 10
1532.026422
 20
1701.324022
 30
0.0
  0
SEQEND
  5
30E
100
AcDbEntity
  8
図
  6
CONTINUOUS
 62
     6
  0
LINE
  5
30F
100
AcDbEntity
  8
図
  6
CONTINUOUS
 62
     6
100
AcDbLine
 10
1497.976446
 20
1701.219636
 30
0.0
 11
1497.977142
 21
1701.207405
 31
0.0
  0
POLYLINE
  5
310
100
AcDbEntity
  8
図
  6
CONTINUOUS
 62
     6
100
AcDb2dPolyline
 66
     1
 10
0.0
 20
0.0
 30
0.0
 70
   128
  0
VERTEX
  5
311
100
AcDbEntity
  8
図
  6
CONTINUOUS
 62
     6
100
AcDbVertex
100
AcDb2dVertex
 10
1497.976669
 20
1701.219649
 30
0.0
  0
VERTEX
  5
312
100
AcDbEntity
  8
図
  6
CONTINUOUS
 62
     6
100
AcDbVertex
100
AcDb2dVertex
 10
1498.004497
 20
1700.967916
 30
0.0
  0
SEQEND
  5
313
100
AcDbEntity
  8
図
  6
CONTINUOUS
 62
     6
  0
POLYLINE
  5
314
100
AcDbEntity
  8
図
  6
CONTINUOUS
 62
     6
100
AcDb2dPolyline
 66
     1
 10
0.0
 20
0.0
 30
0.0
 70
   128
  0
VERTEX
  5
315
100
AcDbEntity
  8
図
  6
CONTINUOUS
 62
     6
100
AcDbVertex
100
AcDb2dVertex
 10
1497.973568
 20
1701.323995
 30
0.0
  0
VERTEX
  5
316
100
AcDbEntity
  8
図
  6
CONTINUOUS
 62
     6
100
AcDbVertex
100
AcDb2dVertex
 10
1497.974794
 20
1701.259327
 30
0.0
  0
SEQEND
  5
317
100
AcDbEntity
  8
図
  6
CONTINUOUS
 62
     6
  0
POLYLINE
  5
318
100
AcDbEntity
  8
図
  6
CONTINUOUS
 62
     6
100
AcDb2dPolyline
 66
     1
 10
0.0
 20
0.0
 30
0.0
 70
   128
  0
VERTEX
  5
319
100
AcDbEntity
  8
図
  6
CONTINUOUS
 62
     6
100
AcDbVertex
100
AcDb2dVertex
 10
1497.974794
 20
1701.259327
 30
0.0
  0
VERTEX
  5
31A
100
AcDbEntity
  8
図
  6
CONTINUOUS
 62
     6
100
AcDbVertex
100
AcDb2dVertex
 10
1497.976656
 20
1701.219648
 30
0.0
  0
SEQEND
  5
31B
100
AcDbEntity
  8
図
  6
CONTINUOUS
 62
     6
  0
POLYLINE
  5
31C
100
AcDbEntity
  8
図
  6
CONTINUOUS
 62
     6
100
AcDb2dPolyline
 66
     1
 10
0.0
 20
0.0
 30
0.0
 70
   128
  0
VERTEX
  5
31D
100
AcDbEntity
  8
図
  6
CONTINUOUS
 62
     6
100
AcDbVertex
100
AcDb2dVertex
 10
1507.89681
 20
1706.07928
 30
0.0
  0
VERTEX
  5
31E
100
AcDbEntity
  8
図
  6
CONTINUOUS
 62
     6
100
AcDbVertex
100
AcDb2dVertex
 10
1507.877744
 20
1706.076051
 30
0.0
  0
VERTEX
  5
31F
100
AcDbEntity
  8
図
  6
CONTINUOUS
 62
     6
100
AcDbVertex
100
AcDb2dVertex
 10
1507.823435
 20
1706.066814
 30
0.0
  0
VERTEX
  5
320
100
AcDbEntity
  8
図
  6
CONTINUOUS
 62
     6
100
AcDbVertex
100
AcDb2dVertex
 10
1507.738221
 20
1706.05225
 30
0.0
  0
VERTEX
  5
321
100
AcDbEntity
  8
図
  6
CONTINUOUS
 62
     6
100
AcDbVertex
100
AcDb2dVertex
 10
1507.626434
 20
1706.033036
 30
0.0
  0
VERTEX
  5
322
100
AcDbEntity
  8
図
  6
CONTINUOUS
 62
     6
100
AcDbVertex
100
AcDb2dVertex
 10
1507.492412
 20
1706.009852
 30
0.0
  0
VERTEX
  5
323
100
AcDbEntity
  8
図
  6
CONTINUOUS
 62
     6
100
AcDbVertex
100
AcDb2dVertex
 10
1507.340488
 20
1705.983376
 30
0.0
  0
VERTEX
  5
324
100
AcDbEntity
  8
図
  6
CONTINUOUS
 62
     6
100
AcDbVertex
100
AcDb2dVertex
 10
1507.174999
 20
1705.954288
 30
0.0
  0
VERTEX
  5
325
100
AcDbEntity
  8
図
  6
CONTINUOUS
 62
     6
100
AcDbVertex
100
AcDb2dVertex
 10
1507.000279
 20
1705.923265
 30
0.0
  0
VERTEX
  5
326
100
AcDbEntity
  8
図
  6
CONTINUOUS
 62
     6
100
AcDbVertex
100
AcDb2dVertex
 10
1506.820665
 20
1705.890987
 30
0.0
  0
VERTEX
  5
327
100
AcDbEntity
  8
図
  6
CONTINUOUS
 62
     6
100
AcDbVertex
100
AcDb2dVertex
 10
1506.64049
 20
1705.858132
 30
0.0
  0
VERTEX
  5
328
100
AcDbEntity
  8
図
  6
CONTINUOUS
 62
     6
100
AcDbVertex
100
AcDb2dVertex
 10
1506.464091
 20
1705.825379
 30
0.0
  0
VERTEX
  5
329
100
AcDbEntity
  8
図
  6
CONTINUOUS
 62
     6
100
AcDbVertex
100
AcDb2dVertex
 10
1506.178502
 20
1705.770699
 30
0.0
  0
VERTEX
  5
32A
100
AcDbEntity
  8
図
  6
CONTINUOUS
 62
     6
100
AcDbVertex
100
AcDb2dVertex
 10
1505.914078
 20
1705.717826
 30
0.0
  0
VERTEX
  5
32B
100
AcDbEntity
  8
図
  6
CONTINUOUS
 62
     6
100
AcDbVertex
100
AcDb2dVertex
 10
1505.668086
 20
1705.666263
 30
0.0
  0
VERTEX
  5
32C
100
AcDbEntity
  8
図
  6
CONTINUOUS
 62
     6
100
AcDbVertex
100
AcDb2dVertex
 10
1505.437791
 20
1705.615516
 30
0.0
  0
VERTEX
  5
32D
100
AcDbEntity
  8
図
  6
CONTINUOUS
 62
     6
100
AcDbVertex
100
AcDb2dVertex
 10
1505.220459
 20
1705.56509
 30
0.0
  0
VERTEX
  5
32E
100
AcDbEntity
  8
図
  6
CONTINUOUS
 62
     6
100
AcDbVertex
100
AcDb2dVertex
 10
1505.013356
 20
1705.514489
 30
0.0
  0
VERTEX
  5
32F
100
AcDbEntity
  8
図
  6
CONTINUOUS
 62
     6
100
AcDbVertex
100
AcDb2dVertex
 10
1504.813747
 20
1705.463219
 30
0.0
  0
VERTEX
  5
330
100
AcDbEntity
  8
図
  6
CONTINUOUS
 62
     6
100
AcDbVertex
100
AcDb2dVertex
 10
1504.618899
 20
1705.410785
 30
0.0
  0
VERTEX
  5
331
100
AcDbEntity
  8
図
  6
CONTINUOUS
 62
     6
100
AcDbVertex
100
AcDb2dVertex
 10
1504.426077
 20
1705.356691
 30
0.0
  0
VERTEX
  5
332
100
AcDbEntity
  8
図
  6
CONTINUOUS
 62
     6
100
AcDbVertex
100
AcDb2dVertex
 10
1504.232547
 20
1705.300443
 30
0.0
  0
VERTEX
  5
333
100
AcDbEntity
  8
図
  6
CONTINUOUS
 62
     6
100
AcDbVertex
100
AcDb2dVertex
 10
1504.035576
 20
1705.241545
 30
0.0
  0
VERTEX
  5
334
100
AcDbEntity
  8
図
  6
CONTINUOUS
 62
     6
100
AcDbVertex
100
AcDb2dVertex
 10
1503.856123
 20
1705.186732
 30
0.0
  0
VERTEX
  5
335
100
AcDbEntity
  8
図
  6
CONTINUOUS
 62
     6
100
AcDbVertex
100
AcDb2dVertex
 10
1503.672466
 20
1705.129532
 30
0.0
  0
VERTEX
  5
336
100
AcDbEntity
  8
図
  6
CONTINUOUS
 62
     6
100
AcDbVertex
100
AcDb2dVertex
 10
1503.485264
 20
1705.070032
 30
0.0
  0
VERTEX
  5
337
100
AcDbEntity
  8
図
  6
CONTINUOUS
 62
     6
100
AcDbVertex
100
AcDb2dVertex
 10
1503.295177
 20
1705.00832
 30
0.0
  0
VERTEX
  5
338
100
AcDbEntity
  8
図
  6
CONTINUOUS
 62
     6
100
AcDbVertex
100
AcDb2dVertex
 10
1503.102864
 20
1704.944484
 30
0.0
  0
VERTEX
  5
339
100
AcDbEntity
  8
図
  6
CONTINUOUS
 62
     6
100
AcDbVertex
100
AcDb2dVertex
 10
1502.908986
 20
1704.878614
 30
0.0
  0
VERTEX
  5
33A
100
AcDbEntity
  8
図
  6
CONTINUOUS
 62
     6
100
AcDbVertex
100
AcDb2dVertex
 10
1502.7142
 20
1704.810797
 30
0.0
  0
VERTEX
  5
33B
100
AcDbEntity
  8
図
  6
CONTINUOUS
 62
     6
100
AcDbVertex
100
AcDb2dVertex
 10
1502.519168
 20
1704.741121
 30
0.0
  0
VERTEX
  5
33C
100
AcDbEntity
  8
図
  6
CONTINUOUS
 62
     6
100
AcDbVertex
100
AcDb2dVertex
 10
1502.324549
 20
1704.669674
 30
0.0
  0
VERTEX
  5
33D
100
AcDbEntity
  8
図
  6
CONTINUOUS
 62
     6
100
AcDbVertex
100
AcDb2dVertex
 10
1502.131002
 20
1704.596546
 30
0.0
  0
VERTEX
  5
33E
100
AcDbEntity
  8
図
  6
CONTINUOUS
 62
     6
100
AcDbVertex
100
AcDb2dVertex
 10
1501.939186
 20
1704.521824
 30
0.0
  0
VERTEX
  5
33F
100
AcDbEntity
  8
図
  6
CONTINUOUS
 62
     6
100
AcDbVertex
100
AcDb2dVertex
 10
1501.778234
 20
1704.457198
 30
0.0
  0
VERTEX
  5
340
100
AcDbEntity
  8
図
  6
CONTINUOUS
 62
     6
100
AcDbVertex
100
AcDb2dVertex
 10
1501.618944
 20
1704.391231
 30
0.0
  0
VERTEX
  5
341
100
AcDbEntity
  8
図
  6
CONTINUOUS
 62
     6
100
AcDbVertex
100
AcDb2dVertex
 10
1501.46126
 20
1704.323665
 30
0.0
  0
VERTEX
  5
342
100
AcDbEntity
  8
図
  6
CONTINUOUS
 62
     6
100
AcDbVertex
100
AcDb2dVertex
 10
1501.305122
 20
1704.254243
 30
0.0
  0
VERTEX
  5
343
100
AcDbEntity
  8
図
  6
CONTINUOUS
 62
     6
100
AcDbVertex
100
AcDb2dVertex
 10
1501.150472
 20
1704.182705
 30
0.0
  0
VERTEX
  5
344
100
AcDbEntity
  8
図
  6
CONTINUOUS
 62
     6
100
AcDbVertex
100
AcDb2dVertex
 10
1500.997253
 20
1704.108795
 30
0.0
  0
VERTEX
  5
345
100
AcDbEntity
  8
図
  6
CONTINUOUS
 62
     6
100
AcDbVertex
100
AcDb2dVertex
 10
1500.845406
 20
1704.032254
 30
0.0
  0
VERTEX
  5
346
100
AcDbEntity
  8
図
  6
CONTINUOUS
 62
     6
100
AcDbVertex
100
AcDb2dVertex
 10
1500.694873
 20
1703.952826
 30
0.0
  0
VERTEX
  5
347
100
AcDbEntity
  8
図
  6
CONTINUOUS
 62
     6
100
AcDbVertex
100
AcDb2dVertex
 10
1500.545596
 20
1703.870251
 30
0.0
  0
VERTEX
  5
348
100
AcDbEntity
  8
図
  6
CONTINUOUS
 62
     6
100
AcDbVertex
100
AcDb2dVertex
 10
1500.397518
 20
1703.784273
 30
0.0
  0
VERTEX
  5
349
100
AcDbEntity
  8
図
  6
CONTINUOUS
 62
     6
100
AcDbVertex
100
AcDb2dVertex
 10
1500.250578
 20
1703.694633
 30
0.0
  0
VERTEX
  5
34A
100
AcDbEntity
  8
図
  6
CONTINUOUS
 62
     6
100
AcDbVertex
100
AcDb2dVertex
 10
1500.12996
 20
1703.617664
 30
0.0
  0
VERTEX
  5
34B
100
AcDbEntity
  8
図
  6
CONTINUOUS
 62
     6
100
AcDbVertex
100
AcDb2dVertex
 10
1500.010234
 20
1703.538351
 30
0.0
  0
VERTEX
  5
34C
100
AcDbEntity
  8
図
  6
CONTINUOUS
 62
     6
100
AcDbVertex
100
AcDb2dVertex
 10
1499.891552
 20
1703.457029
 30
0.0
  0
VERTEX
  5
34D
100
AcDbEntity
  8
図
  6
CONTINUOUS
 62
     6
100
AcDbVertex
100
AcDb2dVertex
 10
1499.774067
 20
1703.374032
 30
0.0
  0
VERTEX
  5
34E
100
AcDbEntity
  8
図
  6
CONTINUOUS
 62
     6
100
AcDbVertex
100
AcDb2dVertex
 10
1499.65793
 20
1703.289694
 30
0.0
  0
VERTEX
  5
34F
100
AcDbEntity
  8
図
  6
CONTINUOUS
 62
     6
100
AcDbVertex
100
AcDb2dVertex
 10
1499.543295
 20
1703.20435
 30
0.0
  0
VERTEX
  5
350
100
AcDbEntity
  8
図
  6
CONTINUOUS
 62
     6
100
AcDbVertex
100
AcDb2dVertex
 10
1499.430315
 20
1703.118334
 30
0.0
  0
VERTEX
  5
351
100
AcDbEntity
  8
図
  6
CONTINUOUS
 62
     6
100
AcDbVertex
100
AcDb2dVertex
 10
1499.31914
 20
1703.031982
 30
0.0
  0
VERTEX
  5
352
100
AcDbEntity
  8
図
  6
CONTINUOUS
 62
     6
100
AcDbVertex
100
AcDb2dVertex
 10
1499.209925
 20
1702.945626
 30
0.0
  0
VERTEX
  5
353
100
AcDbEntity
  8
図
  6
CONTINUOUS
 62
     6
100
AcDbVertex
100
AcDb2dVertex
 10
1499.102821
 20
1702.859602
 30
0.0
  0
VERTEX
  5
354
100
AcDbEntity
  8
図
  6
CONTINUOUS
 62
     6
100
AcDbVertex
100
AcDb2dVertex
 10
1498.997982
 20
1702.774245
 30
0.0
  0
VERTEX
  5
355
100
AcDbEntity
  8
図
  6
CONTINUOUS
 62
     6
100
AcDbVertex
100
AcDb2dVertex
 10
1498.915743
 20
1702.706326
 30
0.0
  0
VERTEX
  5
356
100
AcDbEntity
  8
図
  6
CONTINUOUS
 62
     6
100
AcDbVertex
100
AcDb2dVertex
 10
1498.835293
 20
1702.637825
 30
0.0
  0
VERTEX
  5
357
100
AcDbEntity
  8
図
  6
CONTINUOUS
 62
     6
100
AcDbVertex
100
AcDb2dVertex
 10
1498.75687
 20
1702.567516
 30
0.0
  0
VERTEX
  5
358
100
AcDbEntity
  8
図
  6
CONTINUOUS
 62
     6
100
AcDbVertex
100
AcDb2dVertex
 10
1498.680711
 20
1702.494176
 30
0.0
  0
VERTEX
  5
359
100
AcDbEntity
  8
図
  6
CONTINUOUS
 62
     6
100
AcDbVertex
100
AcDb2dVertex
 10
1498.607054
 20
1702.416579
 30
0.0
  0
VERTEX
  5
35A
100
AcDbEntity
  8
図
  6
CONTINUOUS
 62
     6
100
AcDbVertex
100
AcDb2dVertex
 10
1498.536137
 20
1702.333501
 30
0.0
  0
VERTEX
  5
35B
100
AcDbEntity
  8
図
  6
CONTINUOUS
 62
     6
100
AcDbVertex
100
AcDb2dVertex
 10
1498.468198
 20
1702.243717
 30
0.0
  0
VERTEX
  5
35C
100
AcDbEntity
  8
図
  6
CONTINUOUS
 62
     6
100
AcDbVertex
100
AcDb2dVertex
 10
1498.403473
 20
1702.146001
 30
0.0
  0
VERTEX
  5
35D
100
AcDbEntity
  8
図
  6
CONTINUOUS
 62
     6
100
AcDbVertex
100
AcDb2dVertex
 10
1498.342201
 20
1702.03913
 30
0.0
  0
VERTEX
  5
35E
100
AcDbEntity
  8
図
  6
CONTINUOUS
 62
     6
100
AcDbVertex
100
AcDb2dVertex
 10
1498.284619
 20
1701.921879
 30
0.0
  0
VERTEX
  5
35F
100
AcDbEntity
  8
図
  6
CONTINUOUS
 62
     6
100
AcDbVertex
100
AcDb2dVertex
 10
1498.230965
 20
1701.793023
 30
0.0
  0
VERTEX
  5
360
100
AcDbEntity
  8
図
  6
CONTINUOUS
 62
     6
100
AcDbVertex
100
AcDb2dVertex
 10
1498.189328
 20
1701.676272
 30
0.0
  0
VERTEX
  5
361
100
AcDbEntity
  8
図
  6
CONTINUOUS
 62
     6
100
AcDbVertex
100
AcDb2dVertex
 10
1498.150782
 20
1701.554059
 30
0.0
  0
VERTEX
  5
362
100
AcDbEntity
  8
図
  6
CONTINUOUS
 62
     6
100
AcDbVertex
100
AcDb2dVertex
 10
1498.115512
 20
1701.429877
 30
0.0
  0
VERTEX
  5
363
100
AcDbEntity
  8
図
  6
CONTINUOUS
 62
     6
100
AcDbVertex
100
AcDb2dVertex
 10
1498.083703
 20
1701.307219
 30
0.0
  0
VERTEX
  5
364
100
AcDbEntity
  8
図
  6
CONTINUOUS
 62
     6
100
AcDbVertex
100
AcDb2dVertex
 10
1498.055538
 20
1701.18958
 30
0.0
  0
VERTEX
  5
365
100
AcDbEntity
  8
図
  6
CONTINUOUS
 62
     6
100
AcDbVertex
100
AcDb2dVertex
 10
1498.031201
 20
1701.080454
 30
0.0
  0
VERTEX
  5
366
100
AcDbEntity
  8
図
  6
CONTINUOUS
 62
     6
100
AcDbVertex
100
AcDb2dVertex
 10
1498.010877
 20
1700.983334
 30
0.0
  0
VERTEX
  5
367
100
AcDbEntity
  8
図
  6
CONTINUOUS
 62
     6
100
AcDbVertex
100
AcDb2dVertex
 10
1497.994749
 20
1700.901714
 30
0.0
  0
VERTEX
  5
368
100
AcDbEntity
  8
図
  6
CONTINUOUS
 62
     6
100
AcDbVertex
100
AcDb2dVertex
 10
1497.983001
 20
1700.839089
 30
0.0
  0
VERTEX
  5
369
100
AcDbEntity
  8
図
  6
CONTINUOUS
 62
     6
100
AcDbVertex
100
AcDb2dVertex
 10
1497.975817
 20
1700.798951
 30
0.0
  0
VERTEX
  5
36A
100
AcDbEntity
  8
図
  6
CONTINUOUS
 62
     6
100
AcDbVertex
100
AcDb2dVertex
 10
1497.973381
 20
1700.784796
 30
0.0
  0
SEQEND
  5
36B
100
AcDbEntity
  8
図
  6
CONTINUOUS
 62
     6
  0
POLYLINE
  5
36C
100
AcDbEntity
  8
図
  6
CONTINUOUS
 62
     6
100
AcDb2dPolyline
 66
     1
 10
0.0
 20
0.0
 30
0.0
 70
   128
  0
VERTEX
  5
36D
100
AcDbEntity
  8
図
  6
CONTINUOUS
 62
     6
100
AcDbVertex
100
AcDb2dVertex
 10
1531.996829
 20
1701.118881
 30
0.0
  0
VERTEX
  5
36E
100
AcDbEntity
  8
図
  6
CONTINUOUS
 62
     6
100
AcDbVertex
100
AcDb2dVertex
 10
1531.994287
 20
1701.12792
 30
0.0
  0
VERTEX
  5
36F
100
AcDbEntity
  8
図
  6
CONTINUOUS
 62
     6
100
AcDbVertex
100
AcDb2dVertex
 10
1531.986933
 20
1701.153628
 30
0.0
  0
VERTEX
  5
370
100
AcDbEntity
  8
図
  6
CONTINUOUS
 62
     6
100
AcDbVertex
100
AcDb2dVertex
 10
1531.975178
 20
1701.193888
 30
0.0
  0
VERTEX
  5
371
100
AcDbEntity
  8
図
  6
CONTINUOUS
 62
     6
100
AcDbVertex
100
AcDb2dVertex
 10
1531.959432
 20
1701.246583
 30
0.0
  0
VERTEX
  5
372
100
AcDbEntity
  8
図
  6
CONTINUOUS
 62
     6
100
AcDbVertex
100
AcDb2dVertex
 10
1531.940106
 20
1701.309598
 30
0.0
  0
VERTEX
  5
373
100
AcDbEntity
  8
図
  6
CONTINUOUS
 62
     6
100
AcDbVertex
100
AcDb2dVertex
 10
1531.91761
 20
1701.380814
 30
0.0
  0
VERTEX
  5
374
100
AcDbEntity
  8
図
  6
CONTINUOUS
 62
     6
100
AcDbVertex
100
AcDb2dVertex
 10
1531.892355
 20
1701.458117
 30
0.0
  0
VERTEX
  5
375
100
AcDbEntity
  8
図
  6
CONTINUOUS
 62
     6
100
AcDbVertex
100
AcDb2dVertex
 10
1531.86475
 20
1701.539389
 30
0.0
  0
VERTEX
  5
376
100
AcDbEntity
  8
図
  6
CONTINUOUS
 62
     6
100
AcDbVertex
100
AcDb2dVertex
 10
1531.835207
 20
1701.622514
 30
0.0
  0
VERTEX
  5
377
100
AcDbEntity
  8
図
  6
CONTINUOUS
 62
     6
100
AcDbVertex
100
AcDb2dVertex
 10
1531.804136
 20
1701.705376
 30
0.0
  0
VERTEX
  5
378
100
AcDbEntity
  8
図
  6
CONTINUOUS
 62
     6
100
AcDbVertex
100
AcDb2dVertex
 10
1531.771947
 20
1701.785858
 30
0.0
  0
VERTEX
  5
379
100
AcDbEntity
  8
図
  6
CONTINUOUS
 62
     6
100
AcDbVertex
100
AcDb2dVertex
 10
1531.713434
 20
1701.917485
 30
0.0
  0
VERTEX
  5
37A
100
AcDbEntity
  8
図
  6
CONTINUOUS
 62
     6
100
AcDbVertex
100
AcDb2dVertex
 10
1531.652743
 20
1702.036522
 30
0.0
  0
VERTEX
  5
37B
100
AcDbEntity
  8
図
  6
CONTINUOUS
 62
     6
100
AcDbVertex
100
AcDb2dVertex
 10
1531.589892
 20
1702.144322
 30
0.0
  0
VERTEX
  5
37C
100
AcDbEntity
  8
図
  6
CONTINUOUS
 62
     6
100
AcDbVertex
100
AcDb2dVertex
 10
1531.524895
 20
1702.242234
 30
0.0
  0
VERTEX
  5
37D
100
AcDbEntity
  8
図
  6
CONTINUOUS
 62
     6
100
AcDbVertex
100
AcDb2dVertex
 10
1531.45777
 20
1702.33161
 30
0.0
  0
VERTEX
  5
37E
100
AcDbEntity
  8
図
  6
CONTINUOUS
 62
     6
100
AcDbVertex
100
AcDb2dVertex
 10
1531.388533
 20
1702.413801
 30
0.0
  0
VERTEX
  5
37F
100
AcDbEntity
  8
図
  6
CONTINUOUS
 62
     6
100
AcDbVertex
100
AcDb2dVertex
 10
1531.317198
 20
1702.490156
 30
0.0
  0
VERTEX
  5
380
100
AcDbEntity
  8
図
  6
CONTINUOUS
 62
     6
100
AcDbVertex
100
AcDb2dVertex
 10
1531.243783
 20
1702.562029
 30
0.0
  0
VERTEX
  5
381
100
AcDbEntity
  8
図
  6
CONTINUOUS
 62
     6
100
AcDbVertex
100
AcDb2dVertex
 10
1531.168303
 20
1702.630768
 30
0.0
  0
VERTEX
  5
382
100
AcDbEntity
  8
図
  6
CONTINUOUS
 62
     6
100
AcDbVertex
100
AcDb2dVertex
 10
1531.090774
 20
1702.697725
 30
0.0
  0
VERTEX
  5
383
100
AcDbEntity
  8
図
  6
CONTINUOUS
 62
     6
100
AcDbVertex
100
AcDb2dVertex
 10
1531.011213
 20
1702.764252
 30
0.0
  0
VERTEX
  5
384
100
AcDbEntity
  8
図
  6
CONTINUOUS
 62
     6
100
AcDbVertex
100
AcDb2dVertex
 10
1530.90888
 20
1702.848426
 30
0.0
  0
VERTEX
  5
385
100
AcDbEntity
  8
図
  6
CONTINUOUS
 62
     6
100
AcDbVertex
100
AcDb2dVertex
 10
1530.803626
 20
1702.933655
 30
0.0
  0
VERTEX
  5
386
100
AcDbEntity
  8
図
  6
CONTINUOUS
 62
     6
100
AcDbVertex
100
AcDb2dVertex
 10
1530.695687
 20
1703.019557
 30
0.0
  0
VERTEX
  5
387
100
AcDbEntity
  8
図
  6
CONTINUOUS
 62
     6
100
AcDbVertex
100
AcDb2dVertex
 10
1530.585298
 20
1703.105748
 30
0.0
  0
VERTEX
  5
388
100
AcDbEntity
  8
図
  6
CONTINUOUS
 62
     6
100
AcDbVertex
100
AcDb2dVertex
 10
1530.472695
 20
1703.191843
 30
0.0
  0
VERTEX
  5
389
100
AcDbEntity
  8
図
  6
CONTINUOUS
 62
     6
100
AcDbVertex
100
AcDb2dVertex
 10
1530.358114
 20
1703.277459
 30
0.0
  0
VERTEX
  5
38A
100
AcDbEntity
  8
図
  6
CONTINUOUS
 62
     6
100
AcDbVertex
100
AcDb2dVertex
 10
1530.241789
 20
1703.362212
 30
0.0
  0
VERTEX
  5
38B
100
AcDbEntity
  8
図
  6
CONTINUOUS
 62
     6
100
AcDbVertex
100
AcDb2dVertex
 10
1530.123956
 20
1703.445718
 30
0.0
  0
VERTEX
  5
38C
100
AcDbEntity
  8
図
  6
CONTINUOUS
 62
     6
100
AcDbVertex
100
AcDb2dVertex
 10
1530.004851
 20
1703.527595
 30
0.0
  0
VERTEX
  5
38D
100
AcDbEntity
  8
図
  6
CONTINUOUS
 62
     6
100
AcDbVertex
100
AcDb2dVertex
 10
1529.884708
 20
1703.607457
 30
0.0
  0
VERTEX
  5
38E
100
AcDbEntity
  8
図
  6
CONTINUOUS
 62
     6
100
AcDbVertex
100
AcDb2dVertex
 10
1529.763764
 20
1703.684922
 30
0.0
  0
VERTEX
  5
38F
100
AcDbEntity
  8
図
  6
CONTINUOUS
 62
     6
100
AcDbVertex
100
AcDb2dVertex
 10
1529.616173
 20
1703.775315
 30
0.0
  0
VERTEX
  5
390
100
AcDbEntity
  8
図
  6
CONTINUOUS
 62
     6
100
AcDbVertex
100
AcDb2dVertex
 10
1529.467661
 20
1703.861889
 30
0.0
  0
VERTEX
  5
391
100
AcDbEntity
  8
図
  6
CONTINUOUS
 62
     6
100
AcDbVertex
100
AcDb2dVertex
 10
1529.31814
 20
1703.94492
 30
0.0
  0
VERTEX
  5
392
100
AcDbEntity
  8
図
  6
CONTINUOUS
 62
     6
100
AcDbVertex
100
AcDb2dVertex
 10
1529.167525
 20
1704.024686
 30
0.0
  0
VERTEX
  5
393
100
AcDbEntity
  8
図
  6
CONTINUOUS
 62
     6
100
AcDbVertex
100
AcDb2dVertex
 10
1529.015729
 20
1704.101463
 30
0.0
  0
VERTEX
  5
394
100
AcDbEntity
  8
図
  6
CONTINUOUS
 62
     6
100
AcDbVertex
100
AcDb2dVertex
 10
1528.862663
 20
1704.175529
 30
0.0
  0
VERTEX
  5
395
100
AcDbEntity
  8
図
  6
CONTINUOUS
 62
     6
100
AcDbVertex
100
AcDb2dVertex
 10
1528.708241
 20
1704.247159
 30
0.0
  0
VERTEX
  5
396
100
AcDbEntity
  8
図
  6
CONTINUOUS
 62
     6
100
AcDbVertex
100
AcDb2dVertex
 10
1528.552376
 20
1704.316632
 30
0.0
  0
VERTEX
  5
397
100
AcDbEntity
  8
図
  6
CONTINUOUS
 62
     6
100
AcDbVertex
100
AcDb2dVertex
 10
1528.394981
 20
1704.384224
 30
0.0
  0
VERTEX
  5
398
100
AcDbEntity
  8
図
  6
CONTINUOUS
 62
     6
100
AcDbVertex
100
AcDb2dVertex
 10
1528.235969
 20
1704.450211
 30
0.0
  0
VERTEX
  5
399
100
AcDbEntity
  8
図
  6
CONTINUOUS
 62
     6
100
AcDbVertex
100
AcDb2dVertex
 10
1528.075253
 20
1704.514871
 30
0.0
  0
VERTEX
  5
39A
100
AcDbEntity
  8
図
  6
CONTINUOUS
 62
     6
100
AcDbVertex
100
AcDb2dVertex
 10
1527.88298
 20
1704.589924
 30
0.0
  0
VERTEX
  5
39B
100
AcDbEntity
  8
図
  6
CONTINUOUS
 62
     6
100
AcDbVertex
100
AcDb2dVertex
 10
1527.688876
 20
1704.663412
 30
0.0
  0
VERTEX
  5
39C
100
AcDbEntity
  8
図
  6
CONTINUOUS
 62
     6
100
AcDbVertex
100
AcDb2dVertex
 10
1527.493616
 20
1704.735241
 30
0.0
  0
VERTEX
  5
39D
100
AcDbEntity
  8
図
  6
CONTINUOUS
 62
     6
100
AcDbVertex
100
AcDb2dVertex
 10
1527.297876
 20
1704.805317
 30
0.0
  0
VERTEX
  5
39E
100
AcDbEntity
  8
図
  6
CONTINUOUS
 62
     6
100
AcDbVertex
100
AcDb2dVertex
 10
1527.102331
 20
1704.873545
 30
0.0
  0
VERTEX
  5
39F
100
AcDbEntity
  8
図
  6
CONTINUOUS
 62
     6
100
AcDbVertex
100
AcDb2dVertex
 10
1526.907655
 20
1704.93983
 30
0.0
  0
VERTEX
  5
3A0
100
AcDbEntity
  8
図
  6
CONTINUOUS
 62
     6
100
AcDbVertex
100
AcDb2dVertex
 10
1526.714525
 20
1705.004078
 30
0.0
  0
VERTEX
  5
3A1
100
AcDbEntity
  8
図
  6
CONTINUOUS
 62
     6
100
AcDbVertex
100
AcDb2dVertex
 10
1526.523614
 20
1705.066193
 30
0.0
  0
VERTEX
  5
3A2
100
AcDbEntity
  8
図
  6
CONTINUOUS
 62
     6
100
AcDbVertex
100
AcDb2dVertex
 10
1526.335598
 20
1705.126082
 30
0.0
  0
VERTEX
  5
3A3
100
AcDbEntity
  8
図
  6
CONTINUOUS
 62
     6
100
AcDbVertex
100
AcDb2dVertex
 10
1526.151152
 20
1705.183649
 30
0.0
  0
VERTEX
  5
3A4
100
AcDbEntity
  8
図
  6
CONTINUOUS
 62
     6
100
AcDbVertex
100
AcDb2dVertex
 10
1525.970952
 20
1705.2388
 30
0.0
  0
VERTEX
  5
3A5
100
AcDbEntity
  8
図
  6
CONTINUOUS
 62
     6
100
AcDbVertex
100
AcDb2dVertex
 10
1525.772767
 20
1705.298168
 30
0.0
  0
VERTEX
  5
3A6
100
AcDbEntity
  8
図
  6
CONTINUOUS
 62
     6
100
AcDbVertex
100
AcDb2dVertex
 10
1525.578091
 20
1705.354837
 30
0.0
  0
VERTEX
  5
3A7
100
AcDbEntity
  8
図
  6
CONTINUOUS
 62
     6
100
AcDbVertex
100
AcDb2dVertex
 10
1525.384156
 20
1705.409309
 30
0.0
  0
VERTEX
  5
3A8
100
AcDbEntity
  8
図
  6
CONTINUOUS
 62
     6
100
AcDbVertex
100
AcDb2dVertex
 10
1525.188197
 20
1705.462088
 30
0.0
  0
VERTEX
  5
3A9
100
AcDbEntity
  8
図
  6
CONTINUOUS
 62
     6
100
AcDbVertex
100
AcDb2dVertex
 10
1524.987447
 20
1705.513678
 30
0.0
  0
VERTEX
  5
3AA
100
AcDbEntity
  8
図
  6
CONTINUOUS
 62
     6
100
AcDbVertex
100
AcDb2dVertex
 10
1524.779138
 20
1705.56458
 30
0.0
  0
VERTEX
  5
3AB
100
AcDbEntity
  8
図
  6
CONTINUOUS
 62
     6
100
AcDbVertex
100
AcDb2dVertex
 10
1524.560503
 20
1705.615299
 30
0.0
  0
VERTEX
  5
3AC
100
AcDbEntity
  8
図
  6
CONTINUOUS
 62
     6
100
AcDbVertex
100
AcDb2dVertex
 10
1524.328776
 20
1705.666337
 30
0.0
  0
VERTEX
  5
3AD
100
AcDbEntity
  8
図
  6
CONTINUOUS
 62
     6
100
AcDbVertex
100
AcDb2dVertex
 10
1524.081191
 20
1705.718198
 30
0.0
  0
VERTEX
  5
3AE
100
AcDbEntity
  8
図
  6
CONTINUOUS
 62
     6
100
AcDbVertex
100
AcDb2dVertex
 10
1523.81498
 20
1705.771384
 30
0.0
  0
VERTEX
  5
3AF
100
AcDbEntity
  8
図
  6
CONTINUOUS
 62
     6
100
AcDbVertex
100
AcDb2dVertex
 10
1523.527376
 20
1705.8264
 30
0.0
  0
VERTEX
  5
3B0
100
AcDbEntity
  8
図
  6
CONTINUOUS
 62
     6
100
AcDbVertex
100
AcDb2dVertex
 10
1523.351887
 20
1705.858958
 30
0.0
  0
VERTEX
  5
3B1
100
AcDbEntity
  8
図
  6
CONTINUOUS
 62
     6
100
AcDbVertex
100
AcDb2dVertex
 10
1523.172698
 20
1705.891614
 30
0.0
  0
VERTEX
  5
3B2
100
AcDbEntity
  8
図
  6
CONTINUOUS
 62
     6
100
AcDbVertex
100
AcDb2dVertex
 10
1522.99411
 20
1705.923695
 30
0.0
  0
VERTEX
  5
3B3
100
AcDbEntity
  8
図
  6
CONTINUOUS
 62
     6
100
AcDbVertex
100
AcDb2dVertex
 10
1522.820424
 20
1705.954526
 30
0.0
  0
VERTEX
  5
3B4
100
AcDbEntity
  8
図
  6
CONTINUOUS
 62
     6
100
AcDbVertex
100
AcDb2dVertex
 10
1522.655941
 20
1705.983433
 30
0.0
  0
VERTEX
  5
3B5
100
AcDbEntity
  8
図
  6
CONTINUOUS
 62
     6
100
AcDbVertex
100
AcDb2dVertex
 10
1522.504962
 20
1706.009742
 30
0.0
  0
VERTEX
  5
3B6
100
AcDbEntity
  8
図
  6
CONTINUOUS
 62
     6
100
AcDbVertex
100
AcDb2dVertex
 10
1522.371789
 20
1706.032779
 30
0.0
  0
VERTEX
  5
3B7
100
AcDbEntity
  8
図
  6
CONTINUOUS
 62
     6
100
AcDbVertex
100
AcDb2dVertex
 10
1522.260722
 20
1706.05187
 30
0.0
  0
VERTEX
  5
3B8
100
AcDbEntity
  8
図
  6
CONTINUOUS
 62
     6
100
AcDbVertex
100
AcDb2dVertex
 10
1522.176064
 20
1706.066341
 30
0.0
  0
VERTEX
  5
3B9
100
AcDbEntity
  8
図
  6
CONTINUOUS
 62
     6
100
AcDbVertex
100
AcDb2dVertex
 10
1522.122114
 20
1706.075518
 30
0.0
  0
VERTEX
  5
3BA
100
AcDbEntity
  8
図
  6
CONTINUOUS
 62
     6
100
AcDbVertex
100
AcDb2dVertex
 10
1522.103175
 20
1706.078727
 30
0.0
  0
SEQEND
  5
3BB
100
AcDbEntity
  8
図
  6
CONTINUOUS
 62
     6
  0
POLYLINE
  5
3BC
100
AcDbEntity
  8
図
  6
CONTINUOUS
 62
     6
100
AcDb2dPolyline
 66
     1
 10
0.0
 20
0.0
 30
0.0
 70
   128
  0
VERTEX
  5
3BD
100
AcDbEntity
  8
図
  6
CONTINUOUS
 62
     6
100
AcDbVertex
100
AcDb2dVertex
 10
1498.004497
 20
1700.967916
 30
0.0
  0
VERTEX
  5
3BE
100
AcDbEntity
  8
図
  6
CONTINUOUS
 62
     6
100
AcDbVertex
100
AcDb2dVertex
 10
1498.006179
 20
1700.959562
 30
0.0
  0
SEQEND
  5
3BF
100
AcDbEntity
  8
図
  6
CONTINUOUS
 62
     6
  0
POLYLINE
  5
3C0
100
AcDbEntity
  8
図
  6
CONTINUOUS
 62
     6
100
AcDb2dPolyline
 66
     1
 10
0.0
 20
0.0
 30
0.0
 70
   128
  0
VERTEX
  5
3C1
100
AcDbEntity
  8
図
  6
CONTINUOUS
 62
     6
100
AcDbVertex
100
AcDb2dVertex
 10
1532.026589
 20
1701.323986
 30
0.0
  0
VERTEX
  5
3C2
100
AcDbEntity
  8
図
  6
CONTINUOUS
 62
     6
100
AcDbVertex
100
AcDb2dVertex
 10
1531.996829
 20
1701.658104
 30
0.0
  0
SEQEND
  5
3C3
100
AcDbEntity
  8
図
  6
CONTINUOUS
 62
     6
  0
POLYLINE
  5
3C4
100
AcDbEntity
  8
図
  6
CONTINUOUS
 62
     6
100
AcDb2dPolyline
 66
     1
 10
0.0
 20
0.0
 30
0.0
 70
   128
  0
VERTEX
  5
3C5
100
AcDbEntity
  8
図
  6
CONTINUOUS
 62
     6
100
AcDbVertex
100
AcDb2dVertex
 10
1532.014174
 20
1701.13702
 30
0.0
  0
VERTEX
  5
3C6
100
AcDbEntity
  8
図
  6
CONTINUOUS
 62
     6
100
AcDbVertex
100
AcDb2dVertex
 10
1532.02336
 20
1701.220339
 30
0.0
  0
SEQEND
  5
3C7
100
AcDbEntity
  8
図
  6
CONTINUOUS
 62
     6
  0
POLYLINE
  5
3C8
100
AcDbEntity
  8
図
  6
CONTINUOUS
 62
     6
100
AcDb2dPolyline
 66
     1
 10
0.0
 20
0.0
 30
0.0
 70
   128
  0
VERTEX
  5
3C9
100
AcDbEntity
  8
図
  6
CONTINUOUS
 62
     6
100
AcDbVertex
100
AcDb2dVertex
 10
1522.103175
 20
1706.078727
 30
0.0
  0
VERTEX
  5
3CA
100
AcDbEntity
  8
図
  6
CONTINUOUS
 62
     6
100
AcDbVertex
100
AcDb2dVertex
 10
1522.08648
 20
1706.081173
 30
0.0
  0
VERTEX
  5
3CB
100
AcDbEntity
  8
図
  6
CONTINUOUS
 62
     6
100
AcDbVertex
100
AcDb2dVertex
 10
1522.038843
 20
1706.088128
 30
0.0
  0
VERTEX
  5
3CC
100
AcDbEntity
  8
図
  6
CONTINUOUS
 62
     6
100
AcDbVertex
100
AcDb2dVertex
 10
1521.963937
 20
1706.099015
 30
0.0
  0
VERTEX
  5
3CD
100
AcDbEntity
  8
図
  6
CONTINUOUS
 62
     6
100
AcDbVertex
100
AcDb2dVertex
 10
1521.865437
 20
1706.113258
 30
0.0
  0
VERTEX
  5
3CE
100
AcDbEntity
  8
図
  6
CONTINUOUS
 62
     6
100
AcDbVertex
100
AcDb2dVertex
 10
1521.747015
 20
1706.130282
 30
0.0
  0
VERTEX
  5
3CF
100
AcDbEntity
  8
図
  6
CONTINUOUS
 62
     6
100
AcDbVertex
100
AcDb2dVertex
 10
1521.612346
 20
1706.14951
 30
0.0
  0
VERTEX
  5
3D0
100
AcDbEntity
  8
図
  6
CONTINUOUS
 62
     6
100
AcDbVertex
100
AcDb2dVertex
 10
1521.465102
 20
1706.170367
 30
0.0
  0
VERTEX
  5
3D1
100
AcDbEntity
  8
図
  6
CONTINUOUS
 62
     6
100
AcDbVertex
100
AcDb2dVertex
 10
1521.308957
 20
1706.192276
 30
0.0
  0
VERTEX
  5
3D2
100
AcDbEntity
  8
図
  6
CONTINUOUS
 62
     6
100
AcDbVertex
100
AcDb2dVertex
 10
1521.147584
 20
1706.214662
 30
0.0
  0
VERTEX
  5
3D3
100
AcDbEntity
  8
図
  6
CONTINUOUS
 62
     6
100
AcDbVertex
100
AcDb2dVertex
 10
1520.984658
 20
1706.236948
 30
0.0
  0
VERTEX
  5
3D4
100
AcDbEntity
  8
図
  6
CONTINUOUS
 62
     6
100
AcDbVertex
100
AcDb2dVertex
 10
1520.82385
 20
1706.258558
 30
0.0
  0
VERTEX
  5
3D5
100
AcDbEntity
  8
図
  6
CONTINUOUS
 62
     6
100
AcDbVertex
100
AcDb2dVertex
 10
1520.483016
 20
1706.302699
 30
0.0
  0
VERTEX
  5
3D6
100
AcDbEntity
  8
図
  6
CONTINUOUS
 62
     6
100
AcDbVertex
100
AcDb2dVertex
 10
1520.167898
 20
1706.341129
 30
0.0
  0
VERTEX
  5
3D7
100
AcDbEntity
  8
図
  6
CONTINUOUS
 62
     6
100
AcDbVertex
100
AcDb2dVertex
 10
1519.875196
 20
1706.37441
 30
0.0
  0
VERTEX
  5
3D8
100
AcDbEntity
  8
図
  6
CONTINUOUS
 62
     6
100
AcDbVertex
100
AcDb2dVertex
 10
1519.601609
 20
1706.4031
 30
0.0
  0
VERTEX
  5
3D9
100
AcDbEntity
  8
図
  6
CONTINUOUS
 62
     6
100
AcDbVertex
100
AcDb2dVertex
 10
1519.343837
 20
1706.427758
 30
0.0
  0
VERTEX
  5
3DA
100
AcDbEntity
  8
図
  6
CONTINUOUS
 62
     6
100
AcDbVertex
100
AcDb2dVertex
 10
1519.09858
 20
1706.448945
 30
0.0
  0
VERTEX
  5
3DB
100
AcDbEntity
  8
図
  6
CONTINUOUS
 62
     6
100
AcDbVertex
100
AcDb2dVertex
 10
1518.862535
 20
1706.467218
 30
0.0
  0
VERTEX
  5
3DC
100
AcDbEntity
  8
図
  6
CONTINUOUS
 62
     6
100
AcDbVertex
100
AcDb2dVertex
 10
1518.632404
 20
1706.483139
 30
0.0
  0
VERTEX
  5
3DD
100
AcDbEntity
  8
図
  6
CONTINUOUS
 62
     6
100
AcDbVertex
100
AcDb2dVertex
 10
1518.404886
 20
1706.497265
 30
0.0
  0
VERTEX
  5
3DE
100
AcDbEntity
  8
図
  6
CONTINUOUS
 62
     6
100
AcDbVertex
100
AcDb2dVertex
 10
1518.176678
 20
1706.510157
 30
0.0
  0
VERTEX
  5
3DF
100
AcDbEntity
  8
図
  6
CONTINUOUS
 62
     6
100
AcDbVertex
100
AcDb2dVertex
 10
1517.944482
 20
1706.522373
 30
0.0
  0
VERTEX
  5
3E0
100
AcDbEntity
  8
図
  6
CONTINUOUS
 62
     6
100
AcDbVertex
100
AcDb2dVertex
 10
1517.699294
 20
1706.534663
 30
0.0
  0
VERTEX
  5
3E1
100
AcDbEntity
  8
図
  6
CONTINUOUS
 62
     6
100
AcDbVertex
100
AcDb2dVertex
 10
1517.447126
 20
1706.546647
 30
0.0
  0
VERTEX
  5
3E2
100
AcDbEntity
  8
図
  6
CONTINUOUS
 62
     6
100
AcDbVertex
100
AcDb2dVertex
 10
1517.188674
 20
1706.55814
 30
0.0
  0
VERTEX
  5
3E3
100
AcDbEntity
  8
図
  6
CONTINUOUS
 62
     6
100
AcDbVertex
100
AcDb2dVertex
 10
1516.924636
 20
1706.568958
 30
0.0
  0
VERTEX
  5
3E4
100
AcDbEntity
  8
図
  6
CONTINUOUS
 62
     6
100
AcDbVertex
100
AcDb2dVertex
 10
1516.655708
 20
1706.578917
 30
0.0
  0
VERTEX
  5
3E5
100
AcDbEntity
  8
図
  6
CONTINUOUS
 62
     6
100
AcDbVertex
100
AcDb2dVertex
 10
1516.382586
 20
1706.587831
 30
0.0
  0
VERTEX
  5
3E6
100
AcDbEntity
  8
図
  6
CONTINUOUS
 62
     6
100
AcDbVertex
100
AcDb2dVertex
 10
1516.105969
 20
1706.595518
 30
0.0
  0
VERTEX
  5
3E7
100
AcDbEntity
  8
図
  6
CONTINUOUS
 62
     6
100
AcDbVertex
100
AcDb2dVertex
 10
1515.826552
 20
1706.601792
 30
0.0
  0
VERTEX
  5
3E8
100
AcDbEntity
  8
図
  6
CONTINUOUS
 62
     6
100
AcDbVertex
100
AcDb2dVertex
 10
1515.545033
 20
1706.606469
 30
0.0
  0
VERTEX
  5
3E9
100
AcDbEntity
  8
図
  6
CONTINUOUS
 62
     6
100
AcDbVertex
100
AcDb2dVertex
 10
1515.262109
 20
1706.609365
 30
0.0
  0
VERTEX
  5
3EA
100
AcDbEntity
  8
図
  6
CONTINUOUS
 62
     6
100
AcDbVertex
100
AcDb2dVertex
 10
1514.978475
 20
1706.610296
 30
0.0
  0
VERTEX
  5
3EB
100
AcDbEntity
  8
図
  6
CONTINUOUS
 62
     6
100
AcDbVertex
100
AcDb2dVertex
 10
1514.695258
 20
1706.609141
 30
0.0
  0
VERTEX
  5
3EC
100
AcDbEntity
  8
図
  6
CONTINUOUS
 62
     6
100
AcDbVertex
100
AcDb2dVertex
 10
1514.412731
 20
1706.606027
 30
0.0
  0
VERTEX
  5
3ED
100
AcDbEntity
  8
図
  6
CONTINUOUS
 62
     6
100
AcDbVertex
100
AcDb2dVertex
 10
1514.131598
 20
1706.601139
 30
0.0
  0
VERTEX
  5
3EE
100
AcDbEntity
  8
図
  6
CONTINUOUS
 62
     6
100
AcDbVertex
100
AcDb2dVertex
 10
1513.85256
 20
1706.594661
 30
0.0
  0
VERTEX
  5
3EF
100
AcDbEntity
  8
図
  6
CONTINUOUS
 62
     6
100
AcDbVertex
100
AcDb2dVertex
 10
1513.576321
 20
1706.586777
 30
0.0
  0
VERTEX
  5
3F0
100
AcDbEntity
  8
図
  6
CONTINUOUS
 62
     6
100
AcDbVertex
100
AcDb2dVertex
 10
1513.303583
 20
1706.577671
 30
0.0
  0
VERTEX
  5
3F1
100
AcDbEntity
  8
図
  6
CONTINUOUS
 62
     6
100
AcDbVertex
100
AcDb2dVertex
 10
1513.035049
 20
1706.567528
 30
0.0
  0
VERTEX
  5
3F2
100
AcDbEntity
  8
図
  6
CONTINUOUS
 62
     6
100
AcDbVertex
100
AcDb2dVertex
 10
1512.77142
 20
1706.556533
 30
0.0
  0
VERTEX
  5
3F3
100
AcDbEntity
  8
図
  6
CONTINUOUS
 62
     6
100
AcDbVertex
100
AcDb2dVertex
 10
1512.513401
 20
1706.544869
 30
0.0
  0
VERTEX
  5
3F4
100
AcDbEntity
  8
図
  6
CONTINUOUS
 62
     6
100
AcDbVertex
100
AcDb2dVertex
 10
1512.261693
 20
1706.532722
 30
0.0
  0
VERTEX
  5
3F5
100
AcDbEntity
  8
図
  6
CONTINUOUS
 62
     6
100
AcDbVertex
100
AcDb2dVertex
 10
1512.016999
 20
1706.520275
 30
0.0
  0
VERTEX
  5
3F6
100
AcDbEntity
  8
図
  6
CONTINUOUS
 62
     6
100
AcDbVertex
100
AcDb2dVertex
 10
1511.785979
 20
1706.507948
 30
0.0
  0
VERTEX
  5
3F7
100
AcDbEntity
  8
図
  6
CONTINUOUS
 62
     6
100
AcDbVertex
100
AcDb2dVertex
 10
1511.558945
 20
1706.494955
 30
0.0
  0
VERTEX
  5
3F8
100
AcDbEntity
  8
図
  6
CONTINUOUS
 62
     6
100
AcDbVertex
100
AcDb2dVertex
 10
1511.332594
 20
1706.480735
 30
0.0
  0
VERTEX
  5
3F9
100
AcDbEntity
  8
図
  6
CONTINUOUS
 62
     6
100
AcDbVertex
100
AcDb2dVertex
 10
1511.103629
 20
1706.46473
 30
0.0
  0
VERTEX
  5
3FA
100
AcDbEntity
  8
図
  6
CONTINUOUS
 62
     6
100
AcDbVertex
100
AcDb2dVertex
 10
1510.868748
 20
1706.446383
 30
0.0
  0
VERTEX
  5
3FB
100
AcDbEntity
  8
図
  6
CONTINUOUS
 62
     6
100
AcDbVertex
100
AcDb2dVertex
 10
1510.624652
 20
1706.425133
 30
0.0
  0
VERTEX
  5
3FC
100
AcDbEntity
  8
図
  6
CONTINUOUS
 62
     6
100
AcDbVertex
100
AcDb2dVertex
 10
1510.368042
 20
1706.400423
 30
0.0
  0
VERTEX
  5
3FD
100
AcDbEntity
  8
図
  6
CONTINUOUS
 62
     6
100
AcDbVertex
100
AcDb2dVertex
 10
1510.095616
 20
1706.371694
 30
0.0
  0
VERTEX
  5
3FE
100
AcDbEntity
  8
図
  6
CONTINUOUS
 62
     6
100
AcDbVertex
100
AcDb2dVertex
 10
1509.804075
 20
1706.338387
 30
0.0
  0
VERTEX
  5
3FF
100
AcDbEntity
  8
図
  6
CONTINUOUS
 62
     6
100
AcDbVertex
100
AcDb2dVertex
 10
1509.490119
 20
1706.299944
 30
0.0
  0
VERTEX
  5
400
100
AcDbEntity
  8
図
  6
CONTINUOUS
 62
     6
100
AcDbVertex
100
AcDb2dVertex
 10
1509.150448
 20
1706.255805
 30
0.0
  0
VERTEX
  5
401
100
AcDbEntity
  8
図
  6
CONTINUOUS
 62
     6
100
AcDbVertex
100
AcDb2dVertex
 10
1508.992722
 20
1706.234549
 30
0.0
  0
VERTEX
  5
402
100
AcDbEntity
  8
図
  6
CONTINUOUS
 62
     6
100
AcDbVertex
100
AcDb2dVertex
 10
1508.832975
 20
1706.212646
 30
0.0
  0
VERTEX
  5
403
100
AcDbEntity
  8
図
  6
CONTINUOUS
 62
     6
100
AcDbVertex
100
AcDb2dVertex
 10
1508.674798
 20
1706.190659
 30
0.0
  0
VERTEX
  5
404
100
AcDbEntity
  8
図
  6
CONTINUOUS
 62
     6
100
AcDbVertex
100
AcDb2dVertex
 10
1508.521783
 20
1706.169151
 30
0.0
  0
VERTEX
  5
405
100
AcDbEntity
  8
図
  6
CONTINUOUS
 62
     6
100
AcDbVertex
100
AcDb2dVertex
 10
1508.377519
 20
1706.148684
 30
0.0
  0
VERTEX
  5
406
100
AcDbEntity
  8
図
  6
CONTINUOUS
 62
     6
100
AcDbVertex
100
AcDb2dVertex
 10
1508.245597
 20
1706.129823
 30
0.0
  0
VERTEX
  5
407
100
AcDbEntity
  8
図
  6
CONTINUOUS
 62
     6
100
AcDbVertex
100
AcDb2dVertex
 10
1508.129609
 20
1706.113128
 30
0.0
  0
VERTEX
  5
408
100
AcDbEntity
  8
図
  6
CONTINUOUS
 62
     6
100
AcDbVertex
100
AcDb2dVertex
 10
1508.033146
 20
1706.099164
 30
0.0
  0
VERTEX
  5
409
100
AcDbEntity
  8
図
  6
CONTINUOUS
 62
     6
100
AcDbVertex
100
AcDb2dVertex
 10
1507.959797
 20
1706.088493
 30
0.0
  0
VERTEX
  5
40A
100
AcDbEntity
  8
図
  6
CONTINUOUS
 62
     6
100
AcDbVertex
100
AcDb2dVertex
 10
1507.913155
 20
1706.081677
 30
0.0
  0
VERTEX
  5
40B
100
AcDbEntity
  8
図
  6
CONTINUOUS
 62
     6
100
AcDbVertex
100
AcDb2dVertex
 10
1507.89681
 20
1706.07928
 30
0.0
  0
SEQEND
  5
40C
100
AcDbEntity
  8
図
  6
CONTINUOUS
 62
     6
  0
ELLIPSE
  5
40D
100
AcDbEntity
  8
図
  6
CONTINUOUS
 62
     6
100
AcDbEllipse
 10
1514.99999
 20
1727.705676
 30
0.0
 11
15.500000000000009
 21
0.0
 31
0.0
210
0.0
220
0.0
230
1.0
 40
0.339345
 41
0.0
 42
3.1415926535897931
  0
LINE
  5
40E
100
AcDbEntity
  8
図
  6
CONTINUOUS
 62
     6
100
AcDbLine
 10
1498.004738
 20
1700.782983
 30
0.0
 11
1492.785709
 21
1610.5
 31
0.0
  0
LINE
  5
40F
100
AcDbEntity
  8
図
  6
CONTINUOUS
 62
     6
100
AcDbLine
 10
1537.214271
 20
1610.5
 30
0.0
 11
1532.014394
 21
1700.451673
 31
0.0
  0
DIMENSION
  5
41C
100
AcDbEntity
  8
寸法
  6
CONTINUOUS
 62
     3
100
AcDbDimension
  2
*D14
 10
792.0
 20
610.0
 30
0.0
 11
467.0
 21
633.5
 31
0.0
 70
   160
  1
125±10（床給水）
  3
STANDARD
100
AcDbAlignedDimension
 13
667.0
 23
830.0
 33
0.0
 14
792.0
 24
823.0
 34
0.0
100
AcDbRotatedDimension
1001
ACAD
1000
DSTYLE
1002
{
1070
     6
1000
_EX_NORM
1070
     7
1000
_EX_NORM
1070
    41
1040
30.0
1070
    42
1040
7.0
1070
    44
1040
10.0
1070
    73
1070
     0
1070
    74
1070
     0
1070
    75
1070
     0
1070
    76
1070
     0
1070
    77
1070
     1
1070
    78
1070
     8
1070
   140
1040
40.0
1070
   147
1040
3.5
1070
   173
1070
     1
1070
   176
1070
     3
1070
   177
1070
     3
1070
   178
1070
     2
1070
   271
1070
     2
1070
   279
1070
     2
1070
   280
1070
     1
1070
   287
1070
     5
1070
   340
1005
41B
1002
}
  0
DIMENSION
  5
428
100
AcDbEntity
  8
寸法
  6
CONTINUOUS
 62
     3
100
AcDbDimension
  2
*D15
 10
697.0
 20
680.0
 30
0.0
 11
482.0
 21
703.5
 31
0.0
 70
   160
  1
30±10（床排水）
  3
STANDARD
100
AcDbAlignedDimension
 13
667.0
 23
830.0
 33
0.0
 14
697.0
 24
800.0
 34
0.0
100
AcDbRotatedDimension
1001
ACAD
1000
DSTYLE
1002
{
1070
     6
1000
_EX_NORM
1070
     7
1000
_EX_NORM
1070
    41
1040
30.0
1070
    42
1040
7.0
1070
    44
1040
10.0
1070
    73
1070
     0
1070
    74
1070
     0
1070
    75
1070
     0
1070
    76
1070
     0
1070
    77
1070
     1
1070
    78
1070
     8
1070
   140
1040
40.0
1070
   147
1040
3.5
1070
   173
1070
     1
1070
   176
1070
     3
1070
   177
1070
     3
1070
   178
1070
     2
1070
   271
1070
     2
1070
   279
1070
     2
1070
   280
1070
     1
1070
   287
1070
     5
1070
   340
1005
41B
1002
}
  0
LEADER
  5
429
100
AcDbEntity
  8
寸法
  6
CONTINUOUS
 62
     3
100
AcDbLeader
  3
STANDARD
 73
     3
 74
     1
 75
     0
 40
0.0
 76
     3
 10
684.3
 20
800.0
 30
0.0
 10
603.0
 20
750.0
 30
0.0
 10
503.0
 20
750.0
 30
0.0
 77
     3
1001
ACAD
1000
DSTYLE
1002
{
1070
    41
1040
30.0
1070
     5
1000
_EX_NORM
1070
     6
1000
_EX_NORM
1070
     7
1000
_EX_NORM
1070
   341
1005
28
1002
}
  0
TEXT
  5
42A
100
AcDbEntity
  8
寸法
  6
CONTINUOUS
 62
     2
100
AcDbText
 10
510.1
 20
753.5
 30
0.0
 40
40.0
  1
φ２５
 41
0.728
  7
EXCADSTD
 72
     5
 11
614.1
 21
753.5
 31
0.0
100
AcDbText
  0
LEADER
  5
42B
100
AcDbEntity
  8
寸法
  6
CONTINUOUS
 62
     3
100
AcDbLeader
  3
STANDARD
 73
     3
 74
     1
 75
     0
 40
0.0
 76
     3
 10
802.5
 20
823.0
 30
0.0
 10
859.0
 20
750.0
 30
0.0
 10
974.0
 20
750.0
 30
0.0
 77
     3
1001
ACAD
1000
DSTYLE
1002
{
1070
    41
1040
30.0
1070
     5
1000
_EX_NORM
1070
     6
1000
_EX_NORM
1070
     7
1000
_EX_NORM
1070
   341
1005
28
1002
}
  0
TEXT
  5
42C
100
AcDbEntity
  8
寸法
  6
CONTINUOUS
 62
     2
100
AcDbText
 10
864.0
 20
753.5
 30
0.0
 40
40.0
  1
Ｒ１/２
 41
0.638
  7
EXCADSTD
 72
     5
 11
980.0
 21
753.5
 31
0.0
100
AcDbText
  0
DIMENSION
  5
437
100
AcDbEntity
  8
寸法
  6
CONTINUOUS
 62
     3
100
AcDbDimension
  2
*D16
 10
995.0
 20
1610.5
 30
0.0
 11
971.5
 21
1220.25
 31
0.0
 70
   160
  1
780
  3
STANDARD
100
AcDbAlignedDimension
 13
802.5
 23
830.0
 33
0.0
 14
838.0
 24
1610.5
 34
0.0
 50
90.0
100
AcDbRotatedDimension
1001
ACAD
1000
DSTYLE
1002
{
1070
     6
1000
_EX_NORM
1070
     7
1000
_EX_NORM
1070
    41
1040
30.0
1070
    42
1040
7.0
1070
    44
1040
10.0
1070
    73
1070
     0
1070
    74
1070
     0
1070
    75
1070
     1
1070
    76
1070
     0
1070
    77
1070
     1
1070
    78
1070
     8
1070
   140
1040
40.0
1070
   147
1040
3.5
1070
   173
1070
     1
1070
   176
1070
     3
1070
   177
1070
     3
1070
   178
1070
     2
1070
   271
1070
     2
1070
   279
1070
     2
1070
   280
1070
     0
1070
   287
1070
     5
1070
   340
1005
41B
1002
}
  0
DIMENSION
  5
442
100
AcDbEntity
  8
寸法
  6
CONTINUOUS
 62
     3
100
AcDbDimension
  2
*D17
 10
1065.0
 20
1670.5
 30
0.0
 11
1041.5
 21
1250.25
 31
0.0
 70
   160
  1
840
  3
STANDARD
100
AcDbAlignedDimension
 13
802.5
 23
830.0
 33
0.0
 14
836.592719
 24
1670.5
 34
0.0
 50
90.0
100
AcDbRotatedDimension
1001
ACAD
1000
DSTYLE
1002
{
1070
     6
1000
_EX_NORM
1070
     7
1000
_EX_NORM
1070
    41
1040
30.0
1070
    42
1040
7.0
1070
    44
1040
10.0
1070
    73
1070
     0
1070
    74
1070
     0
1070
    75
1070
     1
1070
    76
1070
     0
1070
    77
1070
     1
1070
    78
1070
     8
1070
   140
1040
40.0
1070
   147
1040
3.5
1070
   173
1070
     1
1070
   176
1070
     3
1070
   177
1070
     3
1070
   178
1070
     2
1070
   271
1070
     2
1070
   279
1070
     2
1070
   280
1070
     0
1070
   287
1070
     5
1070
   340
1005
41B
1002
}
  0
DIMENSION
  5
44E
100
AcDbEntity
  8
寸法
  6
CONTINUOUS
 62
     3
100
AcDbDimension
  2
*D18
 10
925.0
 20
1610.5
 30
0.0
 11
901.5
 21
1550.5
 31
0.0
 70
   160
  1
120
  3
STANDARD
100
AcDbAlignedDimension
 13
832.0
 23
1490.5
 33
0.0
 14
838.0
 24
1610.5
 34
0.0
 50
90.0
100
AcDbRotatedDimension
1001
ACAD
1000
DSTYLE
1002
{
1070
     6
1000
_EX_NORM
1070
     7
1000
_EX_NORM
1070
    41
1040
30.0
1070
    42
1040
7.0
1070
    44
1040
10.0
1070
    73
1070
     0
1070
    74
1070
     0
1070
    75
1070
     0
1070
    76
1070
     0
1070
    77
1070
     1
1070
    78
1070
     8
1070
   140
1040
40.0
1070
   147
1040
3.5
1070
   173
1070
     1
1070
   176
1070
     3
1070
   177
1070
     3
1070
   178
1070
     2
1070
   271
1070
     2
1070
   279
1070
     2
1070
   280
1070
     0
1070
   287
1070
     5
1070
   340
1005
41B
1002
}
  0
DIMENSION
  5
459
100
AcDbEntity
  8
寸法
  6
CONTINUOUS
 62
     3
100
AcDbDimension
  2
*D19
 10
687.0
 20
1168.0
 30
0.0
 11
482.0
 21
1191.5
 31
0.0
 70
   160
  1
20±10（壁排水）
  3
STANDARD
100
AcDbAlignedDimension
 13
667.0
 23
1360.0
 33
0.0
 14
687.0
 24
1360.0
 34
0.0
100
AcDbRotatedDimension
1001
ACAD
1000
DSTYLE
1002
{
1070
     6
1000
_EX_NORM
1070
     7
1000
_EX_NORM
1070
    41
1040
30.0
1070
    42
1040
7.0
1070
    44
1040
10.0
1070
    73
1070
     0
1070
    74
1070
     0
1070
    75
1070
     1
1070
    76
1070
     0
1070
    77
1070
     1
1070
    78
1070
     8
1070
   140
1040
40.0
1070
   147
1040
3.5
1070
   173
1070
     1
1070
   176
1070
     3
1070
   177
1070
     3
1070
   178
1070
     2
1070
   271
1070
     2
1070
   279
1070
     2
1070
   280
1070
     1
1070
   287
1070
     5
1070
   340
1005
41B
1002
}
  0
DIMENSION
  5
464
100
AcDbEntity
  8
寸法
  6
CONTINUOUS
 62
     3
100
AcDbDimension
  2
*D20
 10
792.0
 20
1098.0
 30
0.0
 11
467.0
 21
1121.5
 31
0.0
 70
   160
  1
125±10（壁給水）
  3
STANDARD
100
AcDbAlignedDimension
 13
667.0
 23
1360.0
 33
0.0
 14
792.0
 24
1257.5
 34
0.0
100
AcDbRotatedDimension
1001
ACAD
1000
DSTYLE
1002
{
1070
     6
1000
_EX_NORM
1070
     7
1000
_EX_NORM
1070
    41
1040
30.0
1070
    42
1040
7.0
1070
    44
1040
10.0
1070
    73
1070
     0
1070
    74
1070
     0
1070
    75
1070
     1
1070
    76
1070
     0
1070
    77
1070
     1
1070
    78
1070
     8
1070
   140
1040
40.0
1070
   147
1040
3.5
1070
   173
1070
     1
1070
   176
1070
     3
1070
   177
1070
     3
1070
   178
1070
     2
1070
   271
1070
     2
1070
   279
1070
     2
1070
   280
1070
     1
1070
   287
1070
     5
1070
   340
1005
41B
1002
}
  0
DIMENSION
  5
470
100
AcDbEntity
  8
寸法
  6
CONTINUOUS
 62
     3
100
AcDbDimension
  2
*D21
 10
1589.99999
 20
750.0
 30
0.0
 11
1789.99999
 21
773.5
 31
0.0
 70
   160
  1
60±10（床給排水）
  3
STANDARD
100
AcDbAlignedDimension
 13
1529.99999
 23
800.0
 33
0.0
 14
1589.99999
 24
830.0
 34
0.0
100
AcDbRotatedDimension
1001
ACAD
1000
DSTYLE
1002
{
1070
     6
1000
_EX_NORM
1070
     7
1000
_EX_NORM
1070
    41
1040
30.0
1070
    42
1040
7.0
1070
    44
1040
10.0
1070
    73
1070
     0
1070
    74
1070
     0
1070
    75
1070
     0
1070
    76
1070
     0
1070
    77
1070
     1
1070
    78
1070
     8
1070
   140
1040
40.0
1070
   147
1040
3.5
1070
   173
1070
     1
1070
   176
1070
     3
1070
   177
1070
     3
1070
   178
1070
     2
1070
   271
1070
     2
1070
   279
1070
     2
1070
   280
1070
     2
1070
   287
1070
     5
1070
   340
1005
41B
1002
}
  0
DIMENSION
  5
47C
100
AcDbEntity
  8
寸法
  6
CONTINUOUS
 62
     3
100
AcDbDimension
  2
*D22
 10
1739.99999
 20
1360.0
 30
0.0
 11
1716.49999
 21
1095.0
 31
0.0
 70
   160
  1
530±10（壁排水）
  3
STANDARD
100
AcDbAlignedDimension
 13
1589.99999
 23
830.0
 33
0.0
 14
1619.99999
 24
1360.0
 34
0.0
 50
90.0
100
AcDbRotatedDimension
1001
ACAD
1000
DSTYLE
1002
{
1070
     6
1000
_EX_NORM
1070
     7
1000
_EX_NORM
1070
    41
1040
30.0
1070
    42
1040
7.0
1070
    44
1040
10.0
1070
    73
1070
     0
1070
    74
1070
     0
1070
    75
1070
     0
1070
    76
1070
     0
1070
    77
1070
     1
1070
    78
1070
     8
1070
   140
1040
40.0
1070
   147
1040
3.5
1070
   173
1070
     1
1070
   176
1070
     3
1070
   177
1070
     3
1070
   178
1070
     2
1070
   271
1070
     2
1070
   279
1070
     2
1070
   280
1070
     0
1070
   287
1070
     5
1070
   340
1005
41B
1002
}
  0
DIMENSION
  5
488
100
AcDbEntity
  8
寸法
  6
CONTINUOUS
 62
     3
100
AcDbDimension
  2
*D23
 10
1809.99999
 20
1645.5
 30
0.0
 11
1786.49999
 21
1237.75
 31
0.0
 70
   160
  1
815（壁固定）
  3
STANDARD
100
AcDbAlignedDimension
 13
1589.99999
 23
830.0
 33
0.0
 14
1631.25182
 24
1645.5
 34
0.0
 50
90.0
100
AcDbRotatedDimension
1001
ACAD
1000
DSTYLE
1002
{
1070
     6
1000
_EX_NORM
1070
     7
1000
_EX_NORM
1070
    41
1040
30.0
1070
    42
1040
7.0
1070
    44
1040
10.0
1070
    73
1070
     0
1070
    74
1070
     0
1070
    75
1070
     0
1070
    76
1070
     0
1070
    77
1070
     1
1070
    78
1070
     8
1070
   140
1040
40.0
1070
   147
1040
3.5
1070
   173
1070
     1
1070
   176
1070
     3
1070
   177
1070
     3
1070
   178
1070
     2
1070
   271
1070
     2
1070
   279
1070
     2
1070
   280
1070
     0
1070
   287
1070
     5
1070
   340
1005
41B
1002
}
  0
LEADER
  5
489
100
AcDbEntity
  8
寸法
  6
CONTINUOUS
 62
     3
100
AcDbLeader
  3
STANDARD
 73
     3
 74
     1
 75
     0
 40
0.0
 76
     3
 10
1597.99999
 20
1295.5
 30
0.0
 10
1677.99999
 20
1411.0
 30
0.0
 10
1789.99999
 20
1411.0
 30
0.0
 77
     3
1001
ACAD
1000
DSTYLE
1002
{
1070
    41
1040
30.0
1070
     5
1000
_EX_NORM
1070
     6
1000
_EX_NORM
1070
     7
1000
_EX_NORM
1070
   341
1005
28
1002
}
  0
TEXT
  5
48A
100
AcDbEntity
  8
寸法
  6
CONTINUOUS
 62
     2
100
AcDbText
 10
1682.99999
 20
1414.5
 30
0.0
 40
40.0
  1
Ｒ１/２
 41
0.605
  7
EXCADSTD
 72
     5
 11
1792.99999
 21
1414.5
 31
0.0
100
AcDbText
  0
LEADER
  5
48B
100
AcDbEntity
  8
寸法
  6
CONTINUOUS
 62
     3
100
AcDbLeader
  3
STANDARD
 73
     3
 74
     1
 75
     0
 40
0.0
 76
     3
 10
1619.99999
 20
1372.7
 30
0.0
 10
1677.99999
 20
1495.0
 30
0.0
 10
1784.99999
 20
1495.0
 30
0.0
 77
     3
1001
ACAD
1000
DSTYLE
1002
{
1070
    41
1040
30.0
1070
     5
1000
_EX_NORM
1070
     6
1000
_EX_NORM
1070
     7
1000
_EX_NORM
1070
   341
1005
28
1002
}
  0
TEXT
  5
48C
100
AcDbEntity
  8
寸法
  6
CONTINUOUS
 62
     2
100
AcDbText
 10
1682.99999
 20
1498.5
 30
0.0
 40
40.0
  1
φ２５
 41
0.7
  7
EXCADSTD
 72
     5
 11
1782.99999
 21
1498.5
 31
0.0
100
AcDbText
  0
DIMENSION
  5
498
100
AcDbEntity
  8
寸法
  6
CONTINUOUS
 62
     3
100
AcDbDimension
  2
*D24
 10
1589.99999
 20
1750.5
 30
0.0
 11
1490.054647
 21
1774.0
 31
0.0
 70
   160
  1
200
  3
STANDARD
100
AcDbAlignedDimension
 13
1390.109305
 23
1605.571254
 33
0.0
 14
1589.99999
 24
1670.5
 34
0.0
100
AcDbRotatedDimension
1001
ACAD
1000
DSTYLE
1002
{
1070
     6
1000
_EX_NORM
1070
     7
1000
_EX_NORM
1070
    41
1040
30.0
1070
    42
1040
5.0
1070
    44
1040
10.0
1070
    73
1070
     0
1070
    74
1070
     0
1070
    75
1070
     0
1070
    76
1070
     0
1070
    77
1070
     1
1070
    78
1070
     8
1070
   140
1040
40.0
1070
   147
1040
3.5
1070
   173
1070
     1
1070
   176
1070
     3
1070
   177
1070
     3
1070
   178
1070
     2
1070
   271
1070
     2
1070
   279
1070
     2
1070
   280
1070
     0
1070
   287
1070
     5
1070
   340
1005
41B
1002
}
  0
DIMENSION
  5
4A4
100
AcDbEntity
  8
寸法
  6
CONTINUOUS
 62
     2
100
AcDbDimension
  2
*D25
 10
844.491647
 20
1750.5
 30
0.0
 11
666.996373
 21
1774.0
 31
0.0
 70
   160
  1
355
  3
STANDARD
100
AcDbAlignedDimension
 13
489.5011
 23
1606.593793
 33
0.0
 14
844.491647
 24
1606.903037
 34
0.0
100
AcDbRotatedDimension
1001
ACAD
1000
DSTYLE
1002
{
1070
     6
1000
_EX_NORM
1070
     7
1000
_EX_NORM
1070
    41
1040
30.0
1070
    42
1040
7.0
1070
    44
1040
10.0
1070
    73
1070
     0
1070
    74
1070
     0
1070
    75
1070
     0
1070
    76
1070
     0
1070
    77
1070
     1
1070
    78
1070
     0
1070
   140
1040
40.0
1070
   147
1040
3.5
1070
   173
1070
     1
1070
   176
1070
     3
1070
   177
1070
     3
1070
   178
1070
     2
1070
   271
1070
     0
1070
   279
1070
     2
1070
   280
1070
     0
1070
   287
1070
     5
1070
   340
1005
41B
1002
}
  0
DIMENSION
  5
4AF
100
AcDbEntity
  8
寸法
  6
CONTINUOUS
 62
     3
100
AcDbDimension
  2
*D26
 10
1669.99999
 20
830.0
 30
0.0
 11
1646.49999
 21
1062.5
 31
0.0
 70
   160
  1
465±10（壁給水）
  3
STANDARD
100
AcDbAlignedDimension
 13
1607.99999
 23
1295.0
 33
0.0
 14
1669.99999
 24
830.0
 34
0.0
 50
90.0
100
AcDbRotatedDimension
1001
ACAD
1000
DSTYLE
1002
{
1070
     6
1000
_EX_NORM
1070
     7
1000
_EX_NORM
1070
    41
1040
30.0
1070
    42
1040
5.0
1070
    44
1040
10.0
1070
    73
1070
     0
1070
    74
1070
     0
1070
    75
1070
     0
1070
    76
1070
     1
1070
    77
1070
     1
1070
    78
1070
     8
1070
   140
1040
40.0
1070
   147
1040
3.5
1070
   173
1070
     1
1070
   176
1070
     3
1070
   177
1070
     3
1070
   178
1070
     2
1070
   271
1070
     2
1070
   279
1070
     2
1070
   280
1070
     0
1070
   287
1070
     5
1070
   340
1005
41B
1002
}
  0
DIMENSION
  5
4BA
100
AcDbEntity
  8
寸法
  6
CONTINUOUS
 62
     2
100
AcDbDimension
  2
*D27
 10
923.0
 20
2526.0
 30
0.0
 11
899.5
 21
2488.5
 31
0.0
 70
   160
  3
STANDARD
100
AcDbAlignedDimension
 13
853.0
 23
2451.0
 33
0.0
 14
873.0
 24
2526.0
 34
0.0
 50
90.0
100
AcDbRotatedDimension
1001
ACAD
1000
DSTYLE
1002
{
1070
     6
1000
_EX_NORM
1070
     7
1000
_EX_NORM
1070
    41
1040
30.0
1070
    42
1040
5.0
1070
    44
1040
10.0
1070
    73
1070
     0
1070
    74
1070
     0
1070
    75
1070
     0
1070
    76
1070
     1
1070
    77
1070
     1
1070
    78
1070
     8
1070
   140
1040
40.0
1070
   147
1040
3.5
1070
   173
1070
     1
1070
   176
1070
     3
1070
   177
1070
     3
1070
   178
1070
     2
1070
   271
1070
     2
1070
   279
1070
     2
1070
   280
1070
     0
1070
   287
1070
     5
1070
   340
1005
41B
1002
}
  0
ENDSEC
  0
SECTION
  2
OBJECTS
  0
DICTIONARY
  5
19
100
AcDbDictionary
  3
ACAD_GROUP
350
1A
  3
ACAD_MLINESTYLE
350
1B
  0
DICTIONARY
  5
1A
102
{ACAD_REACTORS
330
19
102
}
100
AcDbDictionary
  0
DICTIONARY
  5
1B
102
{ACAD_REACTORS
330
19
102
}
100
AcDbDictionary
  3
STANDARD
350
1C
  0
MLINESTYLE
  5
1C
102
{ACAD_REACTORS
330
1B
102
}
100
AcDbMlineStyle
  2
Standard
 70
     0
  3

 62
     0
 51
90.0
 52
90.0
 71
     2
 49
0.5
 62
   256
  6
ByLayer
 49
-0.5
 62
   256
  6
ByLayer
  0
ENDSEC
  0
EOF
